  0
SECTION
  2
HEADER
  9
$ACADVER
  1
AC1024
  9
$DWGCODEPAGE
  3
ANSI_1252
  9
$EXTMAX
 10
297.0
 20
210.0
 30
0.0
  9
$EXTMIN
 10
0.0
 20
0.0
 30
0.0
  9
$LIMMIN
 10
0.0
 20
0.0
  9
$LIMMAX
 10
297.0
 20
210.0
  9
$VIEWCTR
 10
148.5
 20
105.0
  9
$VIEWSIZE
 40
210.0
  9
$CLAYER
  8
0
  9
$LTSCALE
 40
16.335
  9
$CELTYPE
  6
BYLAYER
  9
$DIMSCALE
 40
1.0
  9
$DIMASZ
 40
3.0
  9
$DIMEXO
 40
0.5
  9
$DIMDLI
 40
11.286
  9
$DIMEXE
 40
1.5
  9
$DIMCEN
 40
2.673
  9
$DIMLFAC
 40
1.0
  9
$DIMBLK
  1
_FILLED
  9
$DIMALT
 70
0
  9
$DIMALTF
 40
0.0393700787
  9
$DIMTXT
 40
3.0
  9
$DIMTOL
 70
1
  9
$DIMLIM
 70
0
  9
$DIMTFAC
 40
1.0
  9
$DIMTP
 40
0.01
  9
$DIMTM
 40
0.01
  9
$DIMGAP
 40
0.625
  9
$DIMDSEP
 70
44
  9
$AUNITS
 70
0
  9
$PDMODE
 70
3
  9
$PDSIZE
 40
3.0
  9
$HANDSEED
  5
494
  9
$TILEMODE
 70
1
  9
$MEASUREMENT
 70
1
  9
$INSUNITS
 70
4
  0
ENDSEC
  0
SECTION
  2
CLASSES
  0
CLASS
  1
ACDBDICTIONARYWDFLT
  2
AcDbDictionaryWithDefault
  3
AutoCAD 2000
 90
0
 91
1
280
0
281
0
  0
CLASS
  1
ACDBPLACEHOLDER
  2
AcDbPlaceHolder
  3
AutoCAD 2000
 90
0
 91
1
280
0
281
0
  0
CLASS
  1
LAYOUT
  2
AcDbLayout
  3
AutoCAD 2000
 90
0
 91
0
280
0
281
0
  0
ENDSEC
  0
SECTION
  2
TABLES
  0
TABLE
  2
VPORT
  5
8
100
AcDbSymbolTable
 70
2
  0
VPORT
  5
1F4
100
AcDbSymbolTableRecord
100
AcDbViewportTableRecord
  2
*ACTIVE
 70
0
 10
0.0
 20
0.0
 11
1.0
 21
1.0
 12
148.5
 22
105.0
 13
0.0
 23
0.0
 14
1.0
 24
1.0
 15
0.0
 25
0.0
 16
0.0
 26
0.0
 36
1.0
 17
0.0
 27
0.0
 37
0.0
 40
210.0
 41
1.4142857143
 42
50.0
 43
0.0
 44
0.0
 50
0.0
 51
0.0
 71
0
 72
100
 73
1
 74
1
 75
0
 76
0
 77
0
 78
0
  0
ENDTAB
  0
TABLE
  2
LTYPE
  5
5
100
AcDbSymbolTable
 70
6
  0
LTYPE
  5
14
100
AcDbSymbolTableRecord
100
AcDbLinetypeTableRecord
  2
BYBLOCK
 70
0
  3

 72
65
 73
0
 40
0.0
  0
LTYPE
  5
15
100
AcDbSymbolTableRecord
100
AcDbLinetypeTableRecord
  2
BYLAYER
 70
0
  3

 72
65
 73
0
 40
0.0
  0
LTYPE
  5
16
100
AcDbSymbolTableRecord
100
AcDbLinetypeTableRecord
  2
CONTINUOUS
 70
64
  3
Solid line
 72
65
 73
0
 40
0.0
  0
LTYPE
  5
1F5
100
AcDbSymbolTableRecord
100
AcDbLinetypeTableRecord
  2
CENTER
 70
64
  3
____ _ ____ _ ____ _ ____ _ ____ _ ____ _ ____
 72
65
 73
4
 40
0.6
 49
0.375
 74
0
 49
-0.075
 74
0
 49
0.075
 74
0
 49
-0.075
 74
0
  0
LTYPE
  5
1F6
100
AcDbSymbolTableRecord
100
AcDbLinetypeTableRecord
  2
HIDDEN
 70
64
  3
- - - - - - - - - - - - - - - - - - - -
 72
65
 73
2
 40
0.2
 49
0.1
 74
0
 49
-0.1
 74
0
  0
LTYPE
  5
1F7
100
AcDbSymbolTableRecord
100
AcDbLinetypeTableRecord
  2
PHANTOM
 70
64
  3
_____ _ _ _____ _ _ _____ _ _ _____
 72
65
 73
6
 40
0.8
 49
0.45
 74
0
 49
-0.05
 74
0
 49
0.1
 74
0
 49
-0.05
 74
0
 49
0.1
 74
0
 49
-0.05
 74
0
  0
LTYPE
  5
1F8
100
AcDbSymbolTableRecord
100
AcDbLinetypeTableRecord
  2
DOT
 70
64
  3
. . . . . . . . . . . . . . . . . . . .
 72
65
 73
2
 40
0.2
 49
0.1
 74
0
 49
-0.1
 74
0
  0
LTYPE
  5
1F9
100
AcDbSymbolTableRecord
100
AcDbLinetypeTableRecord
  2
DASHED
 70
64
  3
- - - - - - - - - - - - - - - - - - - -
 72
65
 73
2
 40
0.2
 49
0.1
 74
0
 49
-0.1
 74
0
  0
ENDTAB
  0
TABLE
  2
LAYER
  5
2
100
AcDbSymbolTable
 70
36
  0
LAYER
  5
10
100
AcDbSymbolTableRecord
100
AcDbLayerTableRecord
  2
0
 70
0
 62
7
  6
CONTINUOUS
370
-3
390
F
  0
LAYER
  5
1FA
100
AcDbSymbolTableRecord
100
AcDbLayerTableRecord
  2
DEFAULT_1
 70
0
 62
7
  6
CENTER
370
-3
390
F
  0
LAYER
  5
1FB
100
AcDbSymbolTableRecord
100
AcDbLayerTableRecord
  2
DEFAULT_2
 70
0
 62
7
  6
HIDDEN
370
-3
390
F
  0
LAYER
  5
1FC
100
AcDbSymbolTableRecord
100
AcDbLayerTableRecord
  2
DEFAULT_3
 70
0
 62
7
  6
PHANTOM
370
-3
390
F
  0
LAYER
  5
1FD
100
AcDbSymbolTableRecord
100
AcDbLayerTableRecord
  2
ASSI
 70
0
 62
7
  6
CONTINUOUS
370
-3
390
F
  0
LAYER
  5
1FE
100
AcDbSymbolTableRecord
100
AcDbLayerTableRecord
  2
COORDINATE
 70
0
 62
7
  6
CONTINUOUS
370
-3
390
F
  0
LAYER
  5
1FF
100
AcDbSymbolTableRecord
100
AcDbLayerTableRecord
  2
COORD_ORIGINE
 70
0
 62
7
  6
CONTINUOUS
370
-3
390
F
  0
LAYER
  5
200
100
AcDbSymbolTableRecord
100
AcDbLayerTableRecord
  2
CURVE
 70
0
 62
7
  6
CONTINUOUS
370
-3
390
F
  0
LAYER
  5
201
100
AcDbSymbolTableRecord
100
AcDbLayerTableRecord
  2
DRAFT
 70
0
 62
7
  6
CONTINUOUS
370
-3
390
F
  0
LAYER
  5
202
100
AcDbSymbolTableRecord
100
AcDbLayerTableRecord
  2
MARCHI
 70
0
 62
7
  6
CONTINUOUS
370
-3
390
F
  0
LAYER
  5
203
100
AcDbSymbolTableRecord
100
AcDbLayerTableRecord
  2
NOTE
 70
0
 62
7
  6
CONTINUOUS
370
-3
390
F
  0
LAYER
  5
204
100
AcDbSymbolTableRecord
100
AcDbLayerTableRecord
  2
PIANI
 70
0
 62
7
  6
CONTINUOUS
370
-3
390
F
  0
LAYER
  5
205
100
AcDbSymbolTableRecord
100
AcDbLayerTableRecord
  2
PIANI_ORIGINE
 70
0
 62
7
  6
CONTINUOUS
370
-3
390
F
  0
LAYER
  5
206
100
AcDbSymbolTableRecord
100
AcDbLayerTableRecord
  2
PUNTI
 70
0
 62
7
  6
CONTINUOUS
370
-3
390
F
  0
LAYER
  5
207
100
AcDbSymbolTableRecord
100
AcDbLayerTableRecord
  2
RACCORDO
 70
0
 62
7
  6
CONTINUOUS
370
-3
390
F
  0
LAYER
  5
208
100
AcDbSymbolTableRecord
100
AcDbLayerTableRecord
  2
SCRITTA_VIMAR
 70
0
 62
7
  6
CONTINUOUS
370
-3
390
F
  0
LAYER
  5
209
100
AcDbSymbolTableRecord
100
AcDbLayerTableRecord
  2
SNAPLINE
 70
0
 62
7
  6
CONTINUOUS
370
-3
390
F
  0
LAYER
  5
20A
100
AcDbSymbolTableRecord
100
AcDbLayerTableRecord
  2
SUPERFICI
 70
0
 62
7
  6
CONTINUOUS
370
-3
390
F
  0
LAYER
  5
20B
100
AcDbSymbolTableRecord
100
AcDbLayerTableRecord
  2
TRASH
 70
0
 62
7
  6
CONTINUOUS
370
-3
390
F
  0
LAYER
  5
20C
100
AcDbSymbolTableRecord
100
AcDbLayerTableRecord
  2
XSEC_DATUMS
 70
0
 62
7
  6
CONTINUOUS
370
-3
390
F
  0
ENDTAB
  0
TABLE
  2
STYLE
  5
3
100
AcDbSymbolTable
 70
1
  0
STYLE
  5
11
100
AcDbSymbolTableRecord
100
AcDbTextStyleTableRecord
  2
STANDARD
 70
0
 40
0.0
 41
0.8
 50
0.0
 71
0
 42
0.2
  3
txt
  4

  0
STYLE
  5
20D
100
AcDbSymbolTableRecord
100
AcDbTextStyleTableRecord
  2
TEXTSTYLE_1
 70
0
 40
0.0
 41
0.8
 50
0.0
 71
0
 42
0.2
  3
gdt
  4

  0
ENDTAB
  0
TABLE
  2
VIEW
  5
6
100
AcDbSymbolTable
 70
0
  0
ENDTAB
  0
TABLE
  2
UCS
  5
7
100
AcDbSymbolTable
 70
0
  0
ENDTAB
  0
TABLE
  2
APPID
  5
9
100
AcDbSymbolTable
 70
1
  0
APPID
  5
20E
100
AcDbSymbolTableRecord
100
AcDbRegAppTableRecord
  2
ACAD
 70
0
  0
ENDTAB
  0
TABLE
  2
BLOCK_RECORD
  5
1
100
AcDbSymbolTable
 70
0
  0
BLOCK_RECORD
  5
20F
100
AcDbSymbolTableRecord
100
AcDbBlockTableRecord
  2
*Model_Space
  0
BLOCK_RECORD
  5
210
100
AcDbSymbolTableRecord
100
AcDbBlockTableRecord
  2
*Paper_Space
  0
BLOCK_RECORD
  5
211
100
AcDbSymbolTableRecord
100
AcDbBlockTableRecord
  2
_FILLED
  0
BLOCK_RECORD
  5
212
100
AcDbSymbolTableRecord
100
AcDbBlockTableRecord
  2
*D0
  0
BLOCK_RECORD
  5
213
100
AcDbSymbolTableRecord
100
AcDbBlockTableRecord
  2
*D1
  0
BLOCK_RECORD
  5
214
100
AcDbSymbolTableRecord
100
AcDbBlockTableRecord
  2
*D2
  0
ENDTAB
  0
TABLE
  2
DIMSTYLE
  5
A
100
AcDbSymbolTable
 70
1
100
AcDbDimStyleTable
 71
0
  0
DIMSTYLE
105
215
100
AcDbSymbolTableRecord
100
AcDbDimStyleTableRecord
  2
STANDARD
 70
0
  3

  4

 40
1.0
 41
3.0
 42
0.5
 43
0.38
 44
1.5
 45
0.0
 46
0.0
 47
0.01
 48
0.01
140
3.0
141
0.09
142
0.0
143
25.4
144
1.0
145
0.0
146
1.0
147
0.625
 71
1
 72
0
 73
0
 74
0
 75
0
 76
0
 77
1
 78
8
 79
2
170
0
171
1
172
0
173
0
174
0
175
0
176
0
177
0
178
0
270
2
179
2
271
2
272
2
273
2
274
2
275
0
280
0
281
0
282
0
283
1
284
8
285
0
286
0
287
3
288
0
340
11
278
44
341
211
342
211
343
211
344
211
  0
DIMSTYLE
105
216
100
AcDbSymbolTableRecord
100
AcDbDimStyleTableRecord
  2
DIMSTYLE_1
 70
0
  3

  4

 40
1.0
 41
3.0
 42
0.5
 43
0.38
 44
1.5
 45
0.0
 46
0.0
 47
0.0
 48
0.0
140
3.0
141
0.09
142
0.0
143
25.4
144
1.0
145
0.0
146
1.0
147
0.75
 71
0
 72
0
 73
0
 74
0
 75
0
 76
0
 77
1
 78
8
 79
2
170
0
171
1
172
0
173
0
174
0
175
0
176
0
177
0
178
0
270
2
179
2
271
2
272
2
273
2
274
2
275
0
280
0
281
0
282
0
283
1
284
8
285
0
286
0
287
3
288
0
340
11
278
44
341
211
342
211
343
211
344
211
  0
ENDTAB
  0
ENDSEC
  0
SECTION
  2
BLOCKS
  0
BLOCK
  5
20
100
AcDbEntity
  8
0
100
AcDbBlockBegin
  2
*Model_Space
 70
0
 10
0.0
 20
0.0
 30
0.0
  3
*Model_Space
  1

  0
ENDBLK
  5
21
100
AcDbEntity
  8
0
100
AcDbBlockEnd
  0
BLOCK
  5
1C
100
AcDbEntity
  8
0
100
AcDbBlockBegin
  2
*Paper_Space
 70
0
 10
0.0
 20
0.0
 30
0.0
  3
*Paper_Space
  1

  0
ENDBLK
  5
1D
100
AcDbEntity
  8
0
100
AcDbBlockEnd
  0
BLOCK
  5
217
100
AcDbEntity
  8
0
100
AcDbBlockBegin
  2
_FILLED
 70
64
 10
0.0
 20
0.0
  3
_FILLED
  1

  0
SOLID
  5
218
100
AcDbEntity
  8
0
  6
BYBLOCK
 62
0
100
AcDbTrace
 10
0.0
 20
0.0
 11
-1.0
 21
0.3166666667
 12
-1.0
 22
-0.3166666667
 13
-1.0
 23
-0.3166666667
  0
ENDBLK
  5
219
100
AcDbEntity
  8
0
  6
BYBLOCK
 62
0
100
AcDbBlockEnd
  0
BLOCK
  5
21A
100
AcDbEntity
  8
0
100
AcDbBlockBegin
 62
7
  6
CONTINUOUS
  2
*D0
 70
65
 10
0.0
 20
0.0
  3
*D0
  1

  0
LINE
  5
21B
100
AcDbEntity
  8
0
100
AcDbLine
 62
7
  6
CONTINUOUS
 10
-40.7638438763
 20
36.7402675194
 11
-40.7638438763
 21
50.2638438763
  0
LINE
  5
21C
100
AcDbEntity
  8
0
100
AcDbLine
 62
7
  6
CONTINUOUS
 10
39.2361561237
 20
36.7402675194
 11
39.2361561237
 21
50.2638438763
  0
LINE
  5
21D
100
AcDbEntity
  8
0
100
AcDbLine
 62
7
  6
CONTINUOUS
 10
-40.7638438763
 20
48.7638438763
 11
-0.7638438763
 21
48.7638438763
  0
LINE
  5
21E
100
AcDbEntity
  8
0
100
AcDbLine
 62
7
  6
CONTINUOUS
 10
39.2361561237
 20
48.7638438763
 11
-0.7638438763
 21
48.7638438763
  0
INSERT
  5
21F
100
AcDbEntity
  8
0
100
AcDbBlockReference
 62
7
  6
CONTINUOUS
  2
_FILLED
 10
-40.7638438763
 20
48.7638438763
 41
3.0
 42
3.0
 43
3.0
 50
180.0
  0
INSERT
  5
220
100
AcDbEntity
  8
0
100
AcDbBlockReference
 62
7
  6
CONTINUOUS
  2
_FILLED
 10
39.2361561237
 20
48.7638438763
 41
3.0
 42
3.0
 43
3.0
  0
ENDBLK
  5
221
100
AcDbEntity
  8
0
  6
BYBLOCK
 62
0
100
AcDbBlockEnd
  0
BLOCK
  5
222
100
AcDbEntity
  8
0
100
AcDbBlockBegin
 62
7
  6
CONTINUOUS
  2
*D1
 70
65
 10
0.0
 20
0.0
  3
*D1
  1

  0
LINE
  5
223
100
AcDbEntity
  8
0
100
AcDbLine
 62
7
  6
CONTINUOUS
 10
-73.3778923533
 20
22.0361561237
 11
-73.3778923533
 21
50.2638438763
  0
LINE
  5
224
100
AcDbEntity
  8
0
100
AcDbLine
 62
7
  6
CONTINUOUS
 10
-63.8778923533
 20
36.7402675194
 11
-63.8778923533
 21
50.2638438763
  0
LINE
  5
225
100
AcDbEntity
  8
0
100
AcDbLine
 62
7
  6
CONTINUOUS
 10
-73.3778923533
 20
48.7638438763
 11
-77.3778923533
 21
48.7638438763
  0
LINE
  5
226
100
AcDbEntity
  8
0
100
AcDbLine
 62
7
  6
CONTINUOUS
 10
-77.3778923533
 20
48.7638438763
 11
-68.6278923533
 21
48.7638438763
  0
LINE
  5
227
100
AcDbEntity
  8
0
100
AcDbLine
 62
7
  6
CONTINUOUS
 10
-63.8778923533
 20
48.7638438763
 11
-59.8778923533
 21
48.7638438763
  0
LINE
  5
228
100
AcDbEntity
  8
0
100
AcDbLine
 62
7
  6
CONTINUOUS
 10
-59.8778923533
 20
48.7638438763
 11
-68.6278923533
 21
48.7638438763
  0
INSERT
  5
229
100
AcDbEntity
  8
0
100
AcDbBlockReference
 62
7
  6
CONTINUOUS
  2
_FILLED
 10
-73.3778923533
 20
48.7638438763
 41
3.0
 42
3.0
 43
3.0
  0
INSERT
  5
22A
100
AcDbEntity
  8
0
100
AcDbBlockReference
 62
7
  6
CONTINUOUS
  2
_FILLED
 10
-63.8778923533
 20
48.7638438763
 41
3.0
 42
3.0
 43
3.0
 50
180.0
  0
ENDBLK
  5
22B
100
AcDbEntity
  8
0
  6
BYBLOCK
 62
0
100
AcDbBlockEnd
  0
BLOCK
  5
22C
100
AcDbEntity
  8
0
100
AcDbBlockBegin
 62
7
  6
CONTINUOUS
  2
*D2
 70
65
 10
0.0
 20
0.0
  3
*D2
  1

  0
LINE
  5
22D
100
AcDbEntity
  8
0
100
AcDbLine
 62
7
  6
CONTINUOUS
 10
-64.3778923533
 20
39.2361561237
 11
-82.8778923533
 21
39.2361561237
  0
LINE
  5
22E
100
AcDbEntity
  8
0
100
AcDbLine
 62
7
  6
CONTINUOUS
 10
-64.3778923533
 20
-40.7638438763
 11
-82.8778923533
 21
-40.7638438763
  0
LINE
  5
22F
100
AcDbEntity
  8
0
100
AcDbLine
 62
7
  6
CONTINUOUS
 10
-81.3778923533
 20
39.2361561237
 11
-81.3778923533
 21
-0.7638438763
  0
LINE
  5
230
100
AcDbEntity
  8
0
100
AcDbLine
 62
7
  6
CONTINUOUS
 10
-81.3778923533
 20
-40.7638438763
 11
-81.3778923533
 21
-0.7638438763
  0
INSERT
  5
231
100
AcDbEntity
  8
0
100
AcDbBlockReference
 62
7
  6
CONTINUOUS
  2
_FILLED
 10
-81.3778923533
 20
39.2361561237
 41
3.0
 42
3.0
 43
3.0
 50
90.0
  0
INSERT
  5
232
100
AcDbEntity
  8
0
100
AcDbBlockReference
 62
7
  6
CONTINUOUS
  2
_FILLED
 10
-81.3778923533
 20
-40.7638438763
 41
3.0
 42
3.0
 43
3.0
 50
270.0
  0
ENDBLK
  5
233
100
AcDbEntity
  8
0
  6
BYBLOCK
 62
0
100
AcDbBlockEnd
  0
ENDSEC
  0
SECTION
  2
ENTITIES
  0
DIMENSION
  5
234
100
AcDbEntity
  8
0
100
AcDbDimension
 62
7
  6
CONTINUOUS
  2
*D0
 10
39.2361561237
 20
48.7638438763
 11
-3.1209867335
 21
48.7638438763
 70
160
 71
2
 72
2
 41
0.9
 42
80.0
  3
DIMSTYLE_1
100
AcDbAlignedDimension
 13
-40.7638438763
 23
36.2402675194
 14
39.2361561237
 24
36.2402675194
100
AcDbRotatedDimension
  0
DIMENSION
  5
235
100
AcDbEntity
  8
0
100
AcDbDimension
 62
7
  6
CONTINUOUS
  2
*D1
 10
-63.8778923533
 20
48.7638438763
 11
-71.7350352104
 21
48.7638438763
 70
160
 71
2
 72
2
 41
0.9
 42
9.5
  3
DIMSTYLE_1
100
AcDbAlignedDimension
 13
-73.3778923533
 23
21.5361561237
 14
-63.8778923533
 24
36.2402675194
100
AcDbRotatedDimension
  0
DIMENSION
  5
236
100
AcDbEntity
  8
0
100
AcDbDimension
 62
7
  6
CONTINUOUS
  2
*D2
 10
-81.3778923533
 20
-40.7638438763
 11
-81.3778923533
 21
-3.1209867335
 70
160
 71
2
 72
2
 41
0.9
 42
80.0
  3
DIMSTYLE_1
100
AcDbAlignedDimension
 13
-63.8778923533
 23
39.2361561237
 14
-63.8778923533
 24
-40.7638438763
 50
270.0
100
AcDbRotatedDimension
  0
LWPOLYLINE
  5
237
100
AcDbEntity
  8
RACCORDO
100
AcDbPolyline
 62
250
  6
CONTINUOUS
 90
13
 70
0
 10
-37.5096933489
 20
38.9778942004
 10
-37.5142504387
 20
38.965363831
 10
-37.5187477772
 20
38.9398986861
 10
-37.5231263909
 20
38.9018327953
 10
-37.5273288639
 20
38.8516654735
 10
-37.5313000898
 20
38.7900547718
 10
-37.5349879954
 20
38.7178088452
 10
-37.5383442239
 20
38.6358753526
 10
-37.5413247695
 20
38.5453290255
 10
-37.5438905537
 20
38.4473575714
 10
-37.5460079387
 20
38.3432460938
 10
-37.5476491681
 20
38.2343602356
 10
-37.5487927316
 20
38.1221282663
  0
LWPOLYLINE
  5
238
100
AcDbEntity
  8
RACCORDO
100
AcDbPolyline
 62
250
  6
CONTINUOUS
 90
10
 70
0
 10
-40.5060317964
 20
35.9824950405
 10
-40.493452251
 20
35.9862003914
 10
-40.4678717805
 20
35.9898568757
 10
-40.4296276632
 20
35.9934162836
 10
-40.3792241473
 20
35.9968316868
 10
-40.3173258026
 20
36.0000580555
 10
-40.2447487587
 20
36.003052853
 10
-40.1624499434
 20
36.0057765967
 10
-40.071514466
 20
36.0081933843
 10
-39.9731413102
 20
36.0102713648
  0
LWPOLYLINE
  5
239
100
AcDbEntity
  8
RACCORDO
100
AcDbPolyline
 62
250
  6
CONTINUOUS
 90
11
 70
0
 10
-40.506071403
 20
-37.5101828
 10
-40.4934963331
 20
-37.5138899018
 10
-40.4679188169
 20
-37.5175480699
 10
-40.4296761272
 20
-37.5211090223
 10
-40.3792725433
 20
-37.5245257595
 10
-40.317372702
 20
-37.5277531836
 10
-40.2447928332
 20
-37.5307486929
 10
-40.1624899969
 20
-37.533472745
 10
-40.0715494629
 20
-37.5358893769
 10
-39.9731704005
 20
-37.5379666787
 10
-39.7593666947
 20
-37.5409983908
  0
LWPOLYLINE
  5
23A
100
AcDbEntity
  8
RACCORDO
100
AcDbPolyline
 62
250
  6
CONTINUOUS
 90
13
 70
0
 10
-37.5096933406
 20
-40.5055390085
 10
-37.514250984
 20
-40.4930107526
 10
-37.5187488311
 20
-40.4675482117
 10
-37.5231278861
 20
-40.4294853712
 10
-37.5273307127
 20
-40.3793214916
 10
-37.5313021872
 20
-40.3177145594
 10
-37.5349902219
 20
-40.2454726566
 10
-37.5383464495
 20
-40.1635433613
 10
-37.5413268572
 20
-40.0730013189
 10
-37.5438923646
 20
-39.9750341456
 10
-37.5460093358
 20
-39.8709268513
 10
-37.5476500215
 20
-39.7620449842
 10
-37.5487929226
 20
-39.6498167193
  0
LWPOLYLINE
  5
23B
100
AcDbEntity
  8
RACCORDO
100
AcDbPolyline
 62
250
  6
CONTINUOUS
 90
22
 70
0
 10
-40.5060714043
 20
35.9824950473
 10
-40.498084535
 20
36.2019337222
 10
-40.4738713368
 20
36.4215079402
 10
-40.4332633801
 20
36.6399994053
 10
-40.3760415368
 20
36.8566276348
 10
-40.3023009095
 20
37.0696237605
 10
-40.2128020222
 20
37.2763580822
 10
-40.1083110765
 20
37.4752531668
 10
-39.9892566235
 20
37.6656579869
 10
-39.856332877
 20
37.8465070277
 10
-39.7104006413
 20
38.0166977268
 10
-39.5522116757
 20
38.1754128336
 10
-39.3823398795
 20
38.32204196
 10
-39.2014104205
 20
38.4559027932
 10
-39.0106466901
 20
38.575954241
 10
-38.8116259391
 20
38.68119633
 10
-38.6057452565
 20
38.7709953319
 10
-38.3939505969
 20
38.845038067
 10
-38.1772478077
 20
38.9030106342
 10
-37.9567827155
 20
38.944615042
 10
-37.7338505653
 20
38.9696172119
 10
-37.5096933489
 20
38.9778942005
  0
LWPOLYLINE
  5
23C
100
AcDbEntity
  8
RACCORDO
100
AcDbPolyline
 62
250
  6
CONTINUOUS
 90
22
 70
0
 10
-39.6467529188
 20
36.0142230524
 10
-39.6364859926
 20
36.1660167652
 10
-39.6154638786
 20
36.3179087175
 10
-39.583549616
 20
36.4689763855
 10
-39.5406108919
 20
36.6187031706
 10
-39.4867400909
 20
36.7659330381
 10
-39.4224367995
 20
36.9089004363
 10
-39.3482091986
 20
37.0465671424
 10
-39.2643462905
 20
37.1785399593
 10
-39.1712689506
 20
37.3041128056
 10
-39.0695115951
 20
37.4225461777
 10
-38.9595864862
 20
37.5333430858
 10
-38.8418423468
 20
37.6361257176
 10
-38.7166442375
 20
37.7304332945
 10
-38.5848232948
 20
37.8156089766
 10
-38.4474389084
 20
37.8910046181
 10
-38.3053962691
 20
37.9561705735
 10
-38.1593004271
 20
38.0109218401
 10
-38.0097981227
 20
38.0550868906
 10
-37.8576100334
 20
38.0884459943
 10
-37.7036206568
 20
38.1108184516
 10
-37.548792957
 20
38.1221290887
  0
LWPOLYLINE
  5
23D
100
AcDbEntity
  8
RACCORDO
100
AcDbPolyline
 62
250
  6
CONTINUOUS
 90
22
 70
0
 10
-37.5096933489
 20
-40.5055819532
 10
-37.7334737643
 20
-40.4973330146
 10
-37.9560434395
 20
-40.4724137806
 10
-38.1761662852
 20
-40.4309445367
 10
-38.3925580196
 20
-40.3731544387
 10
-38.6040722264
 20
-40.2993386376
 10
-38.8096923162
 20
-40.2098143828
 10
-39.0084709533
 20
-40.104898161
 10
-39.1990250057
 20
-39.985218546
 10
-39.3797895091
 20
-39.8517670756
 10
-39.5495440695
 20
-39.7055807047
 10
-39.7076686161
 20
-39.5473360661
 10
-39.8536009149
 20
-39.3776284572
 10
-39.9866289402
 20
-39.1972104001
 10
-40.105843974
 20
-39.0072286194
 10
-40.2104659235
 20
-38.8089181358
 10
-40.299914807
 20
-38.6034293336
 10
-40.3737271637
 20
-38.3918826608
 10
-40.4314855796
 20
-38.1755564232
 10
-40.4729022969
 20
-37.9556947105
 10
-40.4977970704
 20
-37.7334924452
 10
-40.5060714043
 20
-37.5101828
  0
LWPOLYLINE
  5
23E
100
AcDbEntity
  8
RACCORDO
100
AcDbPolyline
 62
250
  6
CONTINUOUS
 90
22
 70
0
 10
-37.5487929226
 20
-39.6498167193
 10
-37.7033718148
 20
-39.6385367335
 10
-37.8571127244
 20
-39.6162274264
 10
-38.0090582185
 20
-39.5829640203
 10
-38.1583425495
 20
-39.5389297159
 10
-38.3042434956
 20
-39.4843379401
 10
-38.4461054672
 20
-39.4193596865
 10
-38.5833232929
 20
-39.3441898583
 10
-38.7149986324
 20
-39.2592720601
 10
-38.840077286
 20
-39.1652439884
 10
-38.9577350049
 20
-39.06276475
 10
-39.0676107419
 20
-38.952292187
 10
-39.1693593398
 20
-38.8341889485
 10
-39.2624980335
 20
-38.7089081639
 10
-39.3464640971
 20
-38.5772256977
 10
-39.4207699853
 20
-38.4399621759
 10
-39.4850123622
 20
-38.2978524072
 10
-39.5389024472
 20
-38.1516209889
 10
-39.5821938349
 20
-38.002100484
 10
-39.6146724248
 20
-37.8500799171
 10
-39.6362046042
 20
-37.6963697268
 10
-39.6467529882
 20
-37.5419108381
  0
LWPOLYLINE
  5
23F
100
AcDbEntity
  8
RACCORDO
100
AcDbPolyline
 62
250
  6
CONTINUOUS
 90
9
 70
0
 10
-39.6467613312
 20
-37.5419127407
 10
-39.6522505809
 20
-37.4165809051
 10
-39.6572244004
 20
-37.2849060781
 10
-39.661691654
 20
-37.1469725696
 10
-39.6657044445
 20
-37.0034169086
 10
-39.6691956421
 20
-36.8549618432
 10
-39.6719840697
 20
-36.7019933253
 10
-39.6737614747
 20
-36.5438267179
 10
-39.6748287831
 20
-36.3798601112
  0
LWPOLYLINE
  5
240
100
AcDbEntity
  8
RACCORDO
100
AcDbPolyline
 62
250
  6
CONTINUOUS
 90
3
 70
0
 10
-39.6748287831
 20
-36.3798601112
 10
-39.6984442052
 20
-33.0210929131
 10
-39.7000046908
 20
-32.7635317317
  0
LINE
  5
241
100
AcDbEntity
  8
RACCORDO
100
AcDbLine
 62
250
  6
CONTINUOUS
 10
-39.7000046908
 20
-32.7635317317
 11
-39.7076603387
 21
-31.373624965
  0
LINE
  5
242
100
AcDbEntity
  8
RACCORDO
100
AcDbLine
 62
250
  6
CONTINUOUS
 10
-39.7076603387
 20
-31.373624965
 11
-39.7133823505
 21
-30.1273878535
  0
LINE
  5
243
100
AcDbEntity
  8
RACCORDO
100
AcDbLine
 62
250
  6
CONTINUOUS
 10
-39.7133823505
 20
-30.1273878535
 11
-39.7184822851
 21
-28.7485318479
  0
LINE
  5
244
100
AcDbEntity
  8
RACCORDO
100
AcDbLine
 62
250
  6
CONTINUOUS
 10
-39.7184822851
 20
-28.7485318479
 11
-39.7227351983
 21
-27.2222097525
  0
LWPOLYLINE
  5
245
100
AcDbEntity
  8
RACCORDO
100
AcDbPolyline
 62
250
  6
CONTINUOUS
 90
3
 70
0
 10
-39.7227351983
 20
-27.2222097525
 10
-39.7260233781
 20
-25.5337869956
 10
-39.726695738
 20
-25.0847652066
  0
LINE
  5
246
100
AcDbEntity
  8
RACCORDO
100
AcDbLine
 62
250
  6
CONTINUOUS
 10
-39.726695738
 20
-25.0847652066
 11
-39.7284618095
 21
-23.6679576835
  0
LINE
  5
247
100
AcDbEntity
  8
RACCORDO
100
AcDbLine
 62
250
  6
CONTINUOUS
 10
-39.7284618095
 20
-23.6679576835
 11
-39.7294733381
 21
-22.6624920249
  0
LINE
  5
248
100
AcDbEntity
  8
RACCORDO
100
AcDbLine
 62
250
  6
CONTINUOUS
 10
-39.7294733381
 20
-22.6624920249
 11
-39.7303675421
 21
-21.6057873328
  0
LINE
  5
249
100
AcDbEntity
  8
RACCORDO
100
AcDbLine
 62
250
  6
CONTINUOUS
 10
-39.7303675421
 20
-21.6057873328
 11
-39.7311180202
 21
-20.4948773645
  0
LINE
  5
24A
100
AcDbEntity
  8
RACCORDO
100
AcDbLine
 62
250
  6
CONTINUOUS
 10
-40.5037767084
 20
30.8507787418
 11
-40.5060714043
 21
35.9824950473
  0
LINE
  5
24B
100
AcDbEntity
  8
RACCORDO
100
AcDbLine
 62
250
  6
CONTINUOUS
 10
-39.7311180202
 20
-20.4948773645
 11
-39.7322829939
 21
-17.4614113081
  0
LINE
  5
24C
100
AcDbEntity
  8
RACCORDO
100
AcDbLine
 62
7
  6
CONTINUOUS
 10
-40.7638438763
 20
36.2402675194
 11
-40.7638438763
 21
4.2361561237
  0
LINE
  5
24D
100
AcDbEntity
  8
RACCORDO
100
AcDbLine
 62
7
  6
CONTINUOUS
 10
-40.7638438763
 20
-5.7638438763
 11
-40.7638438763
 21
-37.7679552721
  0
LINE
  5
24E
100
AcDbEntity
  8
0
100
AcDbLine
 62
7
  6
CONTINUOUS
 10
-40.6695098736
 20
1.8361561237
 11
-40.6695098736
 21
-3.3638438763
  0
LWPOLYLINE
  5
24F
100
AcDbEntity
  8
RACCORDO
100
AcDbPolyline
 62
250
  6
CONTINUOUS
 90
3
 70
0
 10
-40.5023572199
 20
18.3836753601
 10
-40.5027905841
 20
26.018975533
 10
-40.5037767084
 20
30.8507787418
  0
LINE
  5
250
100
AcDbEntity
  8
RACCORDO
100
AcDbLine
 62
250
  6
CONTINUOUS
 10
-39.7322829939
 20
-17.4614113081
 11
-39.7323542783
 21
-14.025979817
  0
LWPOLYLINE
  5
251
100
AcDbEntity
  8
RACCORDO
100
AcDbPolyline
 62
250
  6
CONTINUOUS
 90
3
 70
0
 10
-39.7323542783
 20
-14.025979817
 10
-39.7309218002
 20
-8.4484801342
 10
-39.7324435511
 20
14.6307102518
  0
LINE
  5
252
100
AcDbEntity
  8
RACCORDO
100
AcDbLine
 62
250
  6
CONTINUOUS
 10
-40.5054198028
 20
-36.8469127686
 11
-40.5023572199
 21
18.3836753601
  0
LINE
  5
253
100
AcDbEntity
  8
RACCORDO
100
AcDbLine
 62
250
  6
CONTINUOUS
 10
-39.7324435511
 20
14.6307102518
 11
-39.7311242449
 21
18.9562336855
  0
LINE
  5
254
100
AcDbEntity
  8
RACCORDO
100
AcDbLine
 62
250
  6
CONTINUOUS
 10
-39.7311242449
 20
18.9562336855
 11
-39.7284962454
 21
22.1042517595
  0
LINE
  5
255
100
AcDbEntity
  8
RACCORDO
100
AcDbLine
 62
250
  6
CONTINUOUS
 10
-40.5060714043
 20
-37.5101828
 11
-40.5054198028
 21
-36.8469127686
  0
LINE
  5
256
100
AcDbEntity
  8
RACCORDO
100
AcDbLine
 62
250
  6
CONTINUOUS
 10
-39.7284962454
 20
22.1042517595
 11
-39.7253894858
 21
24.3889254989
  0
LINE
  5
257
100
AcDbEntity
  8
RACCORDO
100
AcDbLine
 62
250
  6
CONTINUOUS
 10
-39.7253894858
 20
24.3889254989
 11
-39.7219380938
 21
26.0209995236
  0
LINE
  5
258
100
AcDbEntity
  8
RACCORDO
100
AcDbLine
 62
250
  6
CONTINUOUS
 10
-39.7219380938
 20
26.0209995236
 11
-39.7175661846
 21
27.4954310657
  0
LINE
  5
259
100
AcDbEntity
  8
RACCORDO
100
AcDbLine
 62
250
  6
CONTINUOUS
 10
-39.6739358425
 20
34.8562685736
 11
-39.6730587253
 21
35.1716344759
  0
LINE
  5
25A
100
AcDbEntity
  8
RACCORDO
100
AcDbLine
 62
250
  6
CONTINUOUS
 10
-39.7175661846
 20
27.4954310657
 11
-39.7124190238
 21
28.8273903477
  0
LINE
  5
25B
100
AcDbEntity
  8
RACCORDO
100
AcDbLine
 62
250
  6
CONTINUOUS
 10
-39.7124190238
 20
28.8273903477
 11
-39.7067196778
 21
30.0307004486
  0
LINE
  5
25C
100
AcDbEntity
  8
RACCORDO
100
AcDbLine
 62
250
  6
CONTINUOUS
 10
-39.7067196778
 20
30.0307004486
 11
-39.6991843636
 21
31.3722229761
  0
LINE
  5
25D
100
AcDbEntity
  8
RACCORDO
100
AcDbLine
 62
250
  6
CONTINUOUS
 10
-39.6991843636
 20
31.3722229761
 11
-39.6885665917
 21
32.9903187517
  0
LINE
  5
25E
100
AcDbEntity
  8
RACCORDO
100
AcDbLine
 62
250
  6
CONTINUOUS
 10
-39.6885665917
 20
32.9903187517
 11
-39.678738508
 21
34.3514537329
  0
LWPOLYLINE
  5
25F
100
AcDbEntity
  8
RACCORDO
100
AcDbPolyline
 62
250
  6
CONTINUOUS
 90
6
 70
0
 10
-39.6730587253
 20
35.1716344759
 10
-39.6717147189
 20
35.3262707637
 10
-39.6678106129
 20
35.4875880745
 10
-39.6613191708
 20
35.6579108692
 10
-39.6537701409
 20
35.8338502277
 10
-39.6467680287
 20
36.0142264314
  0
LINE
  5
260
100
AcDbEntity
  8
RACCORDO
100
AcDbLine
 62
250
  6
CONTINUOUS
 10
-39.678738508
 20
34.3514537329
 11
-39.6739358425
 21
34.8562685736
  0
LINE
  5
261
100
AcDbEntity
  8
RACCORDO
100
AcDbLine
 62
250
  6
CONTINUOUS
 10
35.7545097695
 20
-39.6606707205
 11
35.5868630348
 21
-39.6698840318
  0
LWPOLYLINE
  5
262
100
AcDbEntity
  8
RACCORDO
100
AcDbPolyline
 62
250
  6
CONTINUOUS
 90
3
 70
0
 10
35.5868630348
 20
-39.6698840318
 10
35.5040471969
 20
-39.6738494552
 10
35.421799359
 20
-39.6765416118
  0
LWPOLYLINE
  5
263
100
AcDbEntity
  8
RACCORDO
100
AcDbPolyline
 62
250
  6
CONTINUOUS
 90
3
 70
0
 10
36.0211049788
 20
-39.6498160185
 10
35.9304406871
 20
-39.6531770523
 10
35.7545097695
 20
-39.6606707205
  0
LINE
  5
264
100
AcDbEntity
  8
RACCORDO
100
AcDbLine
 62
250
  6
CONTINUOUS
 10
35.421799359
 20
-39.6765416118
 11
35.2582974101
 21
-39.6800635669
  0
LINE
  5
265
100
AcDbEntity
  8
RACCORDO
100
AcDbLine
 62
250
  6
CONTINUOUS
 10
33.8535392061
 20
-39.6997720364
 11
30.1738108456
 21
-39.7541850925
  0
LINE
  5
266
100
AcDbEntity
  8
RACCORDO
100
AcDbLine
 62
250
  6
CONTINUOUS
 10
34.1955273198
 20
-39.6948490971
 11
33.8535392061
 21
-39.6997720364
  0
LINE
  5
267
100
AcDbEntity
  8
RACCORDO
100
AcDbLine
 62
250
  6
CONTINUOUS
 10
30.1738108456
 20
-39.7541850925
 11
29.5143468502
 21
-39.7636588001
  0
LWPOLYLINE
  5
268
100
AcDbEntity
  8
RACCORDO
100
AcDbPolyline
 62
250
  6
CONTINUOUS
 90
3
 70
0
 10
34.5152445436
 20
-39.6902995119
 10
34.410838668
 20
-39.691778606
 10
34.1955273198
 20
-39.6948490971
  0
LINE
  5
269
100
AcDbEntity
  8
RACCORDO
100
AcDbLine
 62
250
  6
CONTINUOUS
 10
29.5143468502
 20
-39.7636588001
 11
28.7967676446
 21
-39.7737123414
  0
LINE
  5
26A
100
AcDbEntity
  8
RACCORDO
100
AcDbLine
 62
250
  6
CONTINUOUS
 10
28.7967676446
 20
-39.7737123414
 11
27.7354490034
 21
-39.7878846886
  0
LWPOLYLINE
  5
26B
100
AcDbEntity
  8
RACCORDO
100
AcDbPolyline
 62
250
  6
CONTINUOUS
 90
3
 70
0
 10
38.4454535568
 20
-37.5379591174
 10
38.2316633726
 20
-37.540993944
 10
38.1190651661
 20
-37.5419108051
  0
LINE
  5
26C
100
AcDbEntity
  8
RACCORDO
100
AcDbLine
 62
250
  6
CONTINUOUS
 10
35.2582974101
 20
-39.6800635669
 11
34.5152445436
 21
-39.6902995119
  0
LINE
  5
26D
100
AcDbEntity
  8
RACCORDO
100
AcDbLine
 62
250
  6
CONTINUOUS
 10
27.7354490034
 20
-39.7878846886
 11
26.8497008884
 21
-39.7986311191
  0
LINE
  5
26E
100
AcDbEntity
  8
RACCORDO
100
AcDbLine
 62
250
  6
CONTINUOUS
 10
26.8497008884
 20
-39.7986311191
 11
25.8724870976
 21
-39.809126934
  0
LINE
  5
26F
100
AcDbEntity
  8
RACCORDO
100
AcDbLine
 62
250
  6
CONTINUOUS
 10
25.8724870976
 20
-39.809126934
 11
25.1531008759
 21
-39.8152215749
  0
LINE
  5
270
100
AcDbEntity
  8
RACCORDO
100
AcDbLine
 62
250
  6
CONTINUOUS
 10
25.1531008759
 20
-39.8152215749
 11
24.3749621979
 21
-39.8201580823
  0
LINE
  5
271
100
AcDbEntity
  8
RACCORDO
100
AcDbLine
 62
250
  6
CONTINUOUS
 10
23.1009744986
 20
-39.8254491473
 11
22.2468066447
 21
-39.8306122527
  0
LWPOLYLINE
  5
272
100
AcDbEntity
  8
RACCORDO
100
AcDbPolyline
 62
250
  6
CONTINUOUS
 90
3
 70
0
 10
22.2468066447
 20
-39.8306122527
 10
21.8178375489
 20
-39.8324842072
 10
21.3907841135
 20
-39.8329970609
  0
LINE
  5
273
100
AcDbEntity
  8
RACCORDO
100
AcDbLine
 62
250
  6
CONTINUOUS
 10
24.3749621979
 20
-39.8201580823
 11
23.1009744986
 21
-39.8254491473
  0
LINE
  5
274
100
AcDbEntity
  8
RACCORDO
100
AcDbLine
 62
250
  6
CONTINUOUS
 10
-16.8749655841
 20
-39.8205099599
 11
-21.5976761693
 21
-39.8314520345
  0
LINE
  5
275
100
AcDbEntity
  8
RACCORDO
100
AcDbLine
 62
250
  6
CONTINUOUS
 10
-15.0320992351
 20
-39.8175123225
 11
-16.8749655841
 21
-39.8205099599
  0
LINE
  5
276
100
AcDbEntity
  8
RACCORDO
100
AcDbLine
 62
250
  6
CONTINUOUS
 10
3.5367184223
 20
-39.8255040851
 11
1.6869360206
 21
-39.8275533196
  0
LINE
  5
277
100
AcDbEntity
  8
RACCORDO
100
AcDbLine
 62
250
  6
CONTINUOUS
 10
9.2989893939
 20
-39.8173610428
 11
3.5367184223
 21
-39.8255040851
  0
LWPOLYLINE
  5
278
100
AcDbEntity
  8
RACCORDO
100
AcDbPolyline
 62
250
  6
CONTINUOUS
 90
5
 70
0
 10
-21.5976761693
 20
-39.8314520345
 10
-22.9160670714
 20
-39.8330134303
 10
-23.3435657322
 20
-39.8324878454
 10
-23.7754745466
 20
-39.8305758955
 10
-24.6494910886
 20
-39.8253058833
  0
LINE
  5
279
100
AcDbEntity
  8
RACCORDO
100
AcDbLine
 62
250
  6
CONTINUOUS
 10
1.6869360206
 20
-39.8275533196
 11
-0.2640977004
 21
-39.8285060682
  0
LINE
  5
27A
100
AcDbEntity
  8
RACCORDO
100
AcDbLine
 62
250
  6
CONTINUOUS
 10
-26.0102720728
 20
-40.4961632173
 11
-37.5096933489
 21
-40.5055819532
  0
LINE
  5
27B
100
AcDbEntity
  8
RACCORDO
100
AcDbLine
 62
250
  6
CONTINUOUS
 10
11.4683012504
 20
-39.8164297558
 11
9.2989893939
 21
-39.8173610428
  0
LINE
  5
27C
100
AcDbEntity
  8
RACCORDO
100
AcDbLine
 62
250
  6
CONTINUOUS
 10
-13.0366818132
 20
-39.8164306621
 11
-15.0320992351
 21
-39.8175123225
  0
LINE
  5
27D
100
AcDbEntity
  8
RACCORDO
100
AcDbLine
 62
7
  6
CONTINUOUS
 10
-37.7679552721
 20
-40.7638438763
 11
36.2402675194
 21
-40.7638438763
  0
LINE
  5
27E
100
AcDbEntity
  8
RACCORDO
100
AcDbLine
 62
250
  6
CONTINUOUS
 10
21.8207561836
 20
-40.4957506742
 11
13.4736446731
 21
-40.4976046872
  0
LINE
  5
27F
100
AcDbEntity
  8
RACCORDO
100
AcDbLine
 62
250
  6
CONTINUOUS
 10
22.2473596989
 20
-40.4957258038
 11
21.8207561836
 21
-40.4957506742
  0
LWPOLYLINE
  5
280
100
AcDbEntity
  8
RACCORDO
100
AcDbPolyline
 62
250
  6
CONTINUOUS
 90
3
 70
0
 10
13.4736446731
 20
-40.4976046872
 10
-18.5801658111
 20
-40.4970189592
 10
-26.0102720728
 20
-40.4961632173
  0
LINE
  5
281
100
AcDbEntity
  8
RACCORDO
100
AcDbLine
 62
250
  6
CONTINUOUS
 10
23.5263708661
 20
-40.4958922916
 11
22.2473596989
 21
-40.4957258038
  0
LINE
  5
282
100
AcDbEntity
  8
RACCORDO
100
AcDbLine
 62
250
  6
CONTINUOUS
 10
-0.2640977003
 20
-39.8285062874
 11
-2.2613765771
 21
-39.8281350035
  0
LINE
  5
283
100
AcDbEntity
  8
RACCORDO
100
AcDbLine
 62
250
  6
CONTINUOUS
 10
25.8636615964
 20
-40.49664133
 11
23.5263708661
 21
-40.4958922916
  0
LWPOLYLINE
  5
284
100
AcDbEntity
  8
RACCORDO
100
AcDbPolyline
 62
250
  6
CONTINUOUS
 90
3
 70
0
 10
26.8372567966
 20
-40.4972139186
 10
26.5231245624
 20
-40.4970070218
 10
25.8636615964
 20
-40.49664133
  0
LINE
  5
285
100
AcDbEntity
  8
RACCORDO
100
AcDbLine
 62
250
  6
CONTINUOUS
 10
-10.8755826537
 20
-39.817320921
 11
-13.0366818132
 21
-39.8164306621
  0
LINE
  5
286
100
AcDbEntity
  8
RACCORDO
100
AcDbLine
 62
250
  6
CONTINUOUS
 10
-2.2613765771
 20
-39.8281350035
 11
-4.1797269552
 21
-39.8266762178
  0
LINE
  5
287
100
AcDbEntity
  8
RACCORDO
100
AcDbLine
 62
250
  6
CONTINUOUS
 10
13.4723020199
 20
-39.8174777185
 11
11.4683012504
 21
-39.8164297558
  0
LINE
  5
288
100
AcDbEntity
  8
RACCORDO
100
AcDbLine
 62
250
  6
CONTINUOUS
 10
35.4852141159
 20
-40.5048061376
 11
26.8372567966
 21
-40.4972139186
  0
LINE
  5
289
100
AcDbEntity
  8
RACCORDO
100
AcDbLine
 62
250
  6
CONTINUOUS
 10
21.3907841135
 20
-39.8329970609
 11
20.0647152447
 21
-39.8314426439
  0
LINE
  5
28A
100
AcDbEntity
  8
RACCORDO
100
AcDbLine
 62
250
  6
CONTINUOUS
 10
-4.1797269552
 20
-39.8266762178
 11
-10.8755826537
 21
-39.817320921
  0
LINE
  5
28B
100
AcDbEntity
  8
RACCORDO
100
AcDbLine
 62
250
  6
CONTINUOUS
 10
35.9820055962
 20
-40.5055819532
 11
35.4852141159
 21
-40.5048061376
  0
LINE
  5
28C
100
AcDbEntity
  8
RACCORDO
100
AcDbLine
 62
250
  6
CONTINUOUS
 10
20.0647152447
 20
-39.8314426439
 11
19.1115117554
 21
-39.8294789006
  0
LINE
  5
28D
100
AcDbEntity
  8
RACCORDO
100
AcDbLine
 62
250
  6
CONTINUOUS
 10
15.9073222545
 20
-39.8217267707
 11
13.4723020199
 21
-39.8174777185
  0
LINE
  5
28E
100
AcDbEntity
  8
RACCORDO
100
AcDbLine
 62
250
  6
CONTINUOUS
 10
19.1115117554
 20
-39.8294789006
 11
15.9073222545
 21
-39.8217267707
  0
LINE
  5
28F
100
AcDbEntity
  8
RACCORDO
100
AcDbLine
 62
250
  6
CONTINUOUS
 10
-24.6494910886
 20
-39.8253058833
 11
-25.5657851038
 21
-39.8219131936
  0
LINE
  5
290
100
AcDbEntity
  8
RACCORDO
100
AcDbLine
 62
250
  6
CONTINUOUS
 10
-25.5657851038
 20
-39.8219131936
 11
-26.0141870159
 21
-39.8198523388
  0
LINE
  5
291
100
AcDbEntity
  8
RACCORDO
100
AcDbLine
 62
250
  6
CONTINUOUS
 10
-26.0141870159
 20
-39.8198523388
 11
-26.8656242597
 21
-39.8137886366
  0
LINE
  5
292
100
AcDbEntity
  8
RACCORDO
100
AcDbLine
 62
250
  6
CONTINUOUS
 10
-26.8656242597
 20
-39.8137886366
 11
-27.6531088333
 21
-39.8065756976
  0
LINE
  5
293
100
AcDbEntity
  8
RACCORDO
100
AcDbLine
 62
250
  6
CONTINUOUS
 10
-27.6531088333
 20
-39.8065756976
 11
-28.7126203511
 21
-39.7947025637
  0
LINE
  5
294
100
AcDbEntity
  8
RACCORDO
100
AcDbLine
 62
250
  6
CONTINUOUS
 10
-28.7126203511
 20
-39.7947025637
 11
-29.6579152397
 21
-39.7827605889
  0
LINE
  5
295
100
AcDbEntity
  8
RACCORDO
100
AcDbLine
 62
250
  6
CONTINUOUS
 10
-29.6579152397
 20
-39.7827605889
 11
-31.2723652481
 21
-39.7603687259
  0
LINE
  5
296
100
AcDbEntity
  8
RACCORDO
100
AcDbLine
 62
250
  6
CONTINUOUS
 10
-31.2723652481
 20
-39.7603687259
 11
-36.7090299892
 21
-39.6813235107
  0
LWPOLYLINE
  5
297
100
AcDbEntity
  8
RACCORDO
100
AcDbPolyline
 62
250
  6
CONTINUOUS
 90
6
 70
0
 10
-36.7090299892
 20
-39.6813235107
 10
-36.873969117
 20
-39.6783180841
 10
-36.9548106291
 20
-39.6763182175
 10
-37.0367150955
 20
-39.6735758662
 10
-37.1192980459
 20
-39.6696227939
 10
-37.2860577631
 20
-39.6605054831
  0
LWPOLYLINE
  5
298
100
AcDbEntity
  8
RACCORDO
100
AcDbPolyline
 62
250
  6
CONTINUOUS
 90
3
 70
0
 10
-37.2860577631
 20
-39.6605054831
 10
-37.3720854568
 20
-39.6566783857
 10
-37.5487927416
 20
-39.6498160585
  0
LINE
  5
299
100
AcDbEntity
  8
RACCORDO
100
AcDbLine
 62
250
  6
CONTINUOUS
 10
-39.7593666947
 20
-37.5409983908
 11
-39.6467613312
 21
-37.5419127407
  0
LWPOLYLINE
  5
29A
100
AcDbEntity
  8
RACCORDO
100
AcDbPolyline
 62
250
  6
CONTINUOUS
 90
37
 70
0
 10
-13.6093455713
 20
24.4370476423
 10
-13.5514198964
 20
24.473685435
 10
-13.5219377577
 20
24.4920353418
 10
-13.491628321
 20
24.5105422377
 10
-13.4605224328
 20
24.5292324933
 10
-13.428929495
 20
24.5478342042
 10
-13.3968239555
 20
24.5660119671
 10
-13.3643900929
 20
24.5834657934
 10
-13.3315139575
 20
24.6004444198
 10
-13.2976872011
 20
24.6174390962
 10
-13.2624293445
 20
24.6347560261
 10
-13.2256365342
 20
24.6523076364
 10
-13.1873472704
 20
24.6699846722
 10
-13.1477120745
 20
24.6876478149
 10
-13.1067705018
 20
24.7052363708
 10
-13.0643924423
 20
24.7227536032
 10
-13.0205345367
 20
24.7401704861
 10
-12.9751457912
 20
24.7574434232
 10
-12.9280883676
 20
24.7745391133
 10
-12.8793970648
 20
24.7913796262
 10
-12.8290576773
 20
24.8078948769
 10
-12.7768528698
 20
24.8240464296
 10
-12.7226967789
 20
24.839740857
 10
-12.6666745804
 20
24.8549045833
 10
-12.6088453968
 20
24.8695120729
 10
-12.5492372575
 20
24.8832604623
 10
-12.4876128705
 20
24.8963226088
 10
-12.423397679
 20
24.9094092576
 10
-12.3561632667
 20
24.9227876317
 10
-12.2854405558
 20
24.936047209
 10
-12.2108618766
 20
24.9487500568
 10
-12.1330024286
 20
24.9605043602
 10
-12.0525110107
 20
24.9710461418
 10
-11.9689202909
 20
24.9800962084
 10
-11.8818906905
 20
24.9874246805
 10
-11.7914170843
 20
24.9928443296
 10
-11.6976342255
 20
24.9960943416
  0
LWPOLYLINE
  5
29B
100
AcDbEntity
  8
RACCORDO
100
AcDbPolyline
 62
250
  6
CONTINUOUS
 90
7
 70
0
 10
10.1699464304
 20
-26.5237814345
 10
9.1139634192
 20
-26.5424107915
 10
8.0304749818
 20
-26.554273558
 10
6.9202353712
 20
-26.5615386114
 10
5.7830747596
 20
-26.5661836165
 10
4.6199102954
 20
-26.568852441
 10
3.4332039018
 20
-26.5700078046
  0
LWPOLYLINE
  5
29C
100
AcDbEntity
  8
RACCORDO
100
AcDbPolyline
 62
250
  6
CONTINUOUS
 90
8
 70
0
 10
-1.2645563468
 20
-26.5697104368
 10
-4.958773375
 20
-26.5700088476
 10
-6.1441062709
 20
-26.568851473
 10
-7.3061298994
 20
-26.5661885927
 10
-8.4429983561
 20
-26.5615641403
 10
-9.5539976573
 20
-26.5543278035
 10
-10.6391161125
 20
-26.5424700237
 10
-11.6976341793
 20
-26.5237813826
  0
LINE
  5
29D
100
AcDbEntity
  8
RACCORDO
100
AcDbLine
 62
250
  6
CONTINUOUS
 10
3.4332039018
 20
-26.5700078046
 11
-1.2617393485
 21
-26.569709827
  0
LWPOLYLINE
  5
29E
100
AcDbEntity
  8
RACCORDO
100
AcDbPolyline
 62
250
  6
CONTINUOUS
 90
64
 70
0
 10
-11.6976342439
 20
-26.5237823571
 10
-11.8214410067
 20
-26.5190352945
 10
-11.9405081576
 20
-26.5104790675
 10
-12.0545876915
 20
-26.4986075819
 10
-12.1630595184
 20
-26.4836712222
 10
-12.2660614258
 20
-26.4664264208
 10
-12.3643121621
 20
-26.4481181456
 10
-12.4577097825
 20
-26.4299414898
 10
-12.5458128448
 20
-26.4116781435
 10
-12.6293882305
 20
-26.3921740072
 10
-12.7092769716
 20
-26.3710774595
 10
-12.7860313826
 20
-26.3488724422
 10
-12.8597630454
 20
-26.3256058481
 10
-12.930218395
 20
-26.3014911035
 10
-12.9973914408
 20
-26.2767807383
 10
-13.061580689
 20
-26.2515997287
 10
-13.1227579347
 20
-26.2261266193
 10
-13.1810467107
 20
-26.2004753076
 10
-13.2370149875
 20
-26.1746050347
 10
-13.2906547091
 20
-26.1487922722
 10
-13.3420752322
 20
-26.1229653605
 10
-13.3923393178
 20
-26.0962657223
 10
-13.4417303624
 20
-26.0681218146
 10
-13.4910304324
 20
-26.0384846936
 10
-13.5415794937
 20
-26.0074018453
 10
-13.5926238842
 20
-25.9755058794
 10
-13.6431666753
 20
-25.9431306549
 10
-13.6940709638
 20
-25.9098353529
 10
-13.7455445123
 20
-25.8756068836
 10
-13.7971513992
 20
-25.8405680498
 10
-13.8490914694
 20
-25.8041954989
 10
-13.9014937657
 20
-25.7663223624
 10
-13.9542502163
 20
-25.7269509897
 10
-14.007287405
 20
-25.6856698465
 10
-14.0606896864
 20
-25.6421557902
 10
-14.114754543
 20
-25.5961064933
 10
-14.1695903484
 20
-25.5472072542
 10
-14.2249485602
 20
-25.4955048805
 10
-14.2806800181
 20
-25.4409273112
 10
-14.3368670149
 20
-25.3830832245
 10
-14.393363062
 20
-25.3218605006
 10
-14.4500166684
 20
-25.2571457945
 10
-14.5068817721
 20
-25.1884746015
 10
-14.5639187084
 20
-25.115501366
 10
-14.6206858441
 20
-25.0383666086
 10
-14.6766033577
 20
-24.9573767578
 10
-14.7315936489
 20
-24.8722308504
 10
-14.7852230064
 20
-24.7831756946
 10
-14.8365147979
 20
-24.6914281409
 10
-14.8853167806
 20
-24.5970088175
 10
-14.9315300901
 20
-24.4998889783
 10
-14.9744435737
 20
-24.4014471313
 10
-15.0136277577
 20
-24.3024849799
 10
-15.0493522425
 20
-24.2029317351
 10
-15.0821536239
 20
-24.102576551
 10
-15.111942494
 20
-24.0014819272
 10
-15.1391469838
 20
-23.8981897284
 10
-15.1648105879
 20
-23.7900742097
 10
-15.1888811229
 20
-23.67768449
 10
-15.2103857934
 20
-23.5618671382
 10
-15.2284615306
 20
-23.4407332718
 10
-15.2424279463
 20
-23.3134969013
 10
-15.2519112575
 20
-23.180899934
 10
-15.2563611839
 20
-23.0429993175
  0
LINE
  5
29F
100
AcDbEntity
  8
RACCORDO
100
AcDbLine
 62
250
  6
CONTINUOUS
 10
12.0744188635
 20
-23.0638438748
 11
12.5843467701
 21
-23.0564852987
  0
LINE
  5
2A0
100
AcDbEntity
  8
RACCORDO
100
AcDbLine
 62
250
  6
CONTINUOUS
 10
12.5843467701
 20
-23.0564852987
 11
13.1429941873
 21
-23.049444095
  0
LINE
  5
2A1
100
AcDbEntity
  8
RACCORDO
100
AcDbLine
 62
250
  6
CONTINUOUS
 10
13.1429941873
 20
-23.049444095
 11
13.72867196
 21
-23.0429990352
  0
LINE
  5
2A2
100
AcDbEntity
  8
RACCORDO
100
AcDbLine
 62
250
  6
CONTINUOUS
 10
-9.5585563619
 20
-24.9627287303
 11
-11.7138438763
 21
-24.9650595685
  0
LINE
  5
2A3
100
AcDbEntity
  8
RACCORDO
100
AcDbLine
 62
250
  6
CONTINUOUS
 10
5.7818427144
 20
-24.9622213628
 11
-0.2673573529
 21
-24.9658561308
  0
LINE
  5
2A4
100
AcDbEntity
  8
RACCORDO
100
AcDbLine
 62
250
  6
CONTINUOUS
 10
-0.2673573529
 20
-24.9658561308
 11
-1.2603303998
 21
-24.9658561308
  0
LINE
  5
2A5
100
AcDbEntity
  8
RACCORDO
100
AcDbLine
 62
250
  6
CONTINUOUS
 10
-7.304973859
 20
-24.9622212233
 11
-9.5585563619
 21
-24.9627287303
  0
LINE
  5
2A6
100
AcDbEntity
  8
0
100
AcDbLine
 62
7
  6
CONTINUOUS
 10
-11.7138438763
 20
-23.3638438763
 11
10.1861561237
 21
-23.3638438763
  0
LINE
  5
2A7
100
AcDbEntity
  8
RACCORDO
100
AcDbLine
 62
250
  6
CONTINUOUS
 10
10.4861561237
 20
-23.0638438763
 11
12.0744241305
 21
-23.0638438763
  0
LINE
  5
2A8
100
AcDbEntity
  8
RACCORDO
100
AcDbLine
 62
250
  6
CONTINUOUS
 10
-12.0138438763
 20
-23.0638438763
 11
-13.6021118832
 21
-23.0638438763
  0
LINE
  5
2A9
100
AcDbEntity
  8
RACCORDO
100
AcDbLine
 62
250
  6
CONTINUOUS
 10
8.035030786
 20
-24.9627295131
 11
5.7818427144
 21
-24.9622213628
  0
LINE
  5
2AA
100
AcDbEntity
  8
RACCORDO
100
AcDbLine
 62
250
  6
CONTINUOUS
 10
-1.2603303998
 20
-24.9658561308
 11
-7.304973859
 21
-24.9622212233
  0
LINE
  5
2AB
100
AcDbEntity
  8
RACCORDO
100
AcDbLine
 62
250
  6
CONTINUOUS
 10
10.1861561237
 20
-24.9650595685
 11
8.035030786
 21
-24.9627295131
  0
LINE
  5
2AC
100
AcDbEntity
  8
RACCORDO
100
AcDbLine
 62
250
  6
CONTINUOUS
 10
-13.935623165
 20
-23.0589438664
 11
-15.2563607239
 21
-23.0429992311
  0
LWPOLYLINE
  5
2AD
100
AcDbEntity
  8
RACCORDO
100
AcDbPolyline
 62
250
  6
CONTINUOUS
 90
64
 70
0
 10
-11.7138438763
 20
-24.9650595685
 10
-11.7776715
 20
-24.9641759303
 10
-11.8391252218
 20
-24.9612001034
 10
-11.8981413539
 20
-24.956359702
 10
-11.9544109225
 20
-24.9498823845
 10
-12.0081578766
 20
-24.9419893553
 10
-12.0601344709
 20
-24.9328205603
 10
-12.1105534554
 20
-24.9224652565
 10
-12.1591661076
 20
-24.9110859588
 10
-12.2060430118
 20
-24.8988540033
 10
-12.2512853619
 20
-24.8858815302
 10
-12.2947977751
 20
-24.8722805841
 10
-12.3363707508
 20
-24.858226014
 10
-12.375885683
 20
-24.8438875804
 10
-12.4135017644
 20
-24.8293329895
 10
-12.4494302462
 20
-24.8145793572
 10
-12.48367969
 20
-24.799720217
 10
-12.516285229
 20
-24.7848391093
 10
-12.5474896302
 20
-24.7699069534
 10
-12.5773519756
 20
-24.7549789902
 10
-12.6058534742
 20
-24.7401277781
 10
-12.6331115833
 20
-24.7253280758
 10
-12.6588982445
 20
-24.710779277
 10
-12.6834834181
 20
-24.6963920777
 10
-12.7077041904
 20
-24.6816619808
 10
-12.7314624079
 20
-24.6666430778
 10
-12.7548491259
 20
-24.6513036547
 10
-12.7789296766
 20
-24.634924874
 10
-12.8039231991
 20
-24.6172747315
 10
-12.8295255603
 20
-24.5984991178
 10
-12.8559728309
 20
-24.5783830967
 10
-12.8833537178
 20
-24.5567549894
 10
-12.9114574924
 20
-24.5336707077
 10
-12.9400660593
 20
-24.5092504858
 10
-12.9690867577
 20
-24.4834902234
 10
-12.998491891
 20
-24.4563016629
 10
-13.0281686455
 20
-24.4276913156
 10
-13.057975333
 20
-24.3976936216
 10
-13.0879198519
 20
-24.366194181
 10
-13.1180991841
 20
-24.3329688369
 10
-13.1484253118
 20
-24.2979631053
 10
-13.1787979003
 20
-24.2611326482
 10
-13.2092616807
 20
-24.2222478111
 10
-13.2397928075
 20
-24.1811170557
 10
-13.2701556275
 20
-24.1378203937
 10
-13.3000721058
 20
-24.092541621
 10
-13.3295095222
 20
-24.045101073
 10
-13.3582394917
 20
-23.9956170787
 10
-13.3857641281
 20
-23.9447757725
 10
-13.4119970029
 20
-23.8926265313
 10
-13.436880747
 20
-23.8391619708
 10
-13.4600815254
 20
-23.7850505956
 10
-13.4815250572
 20
-23.730520118
 10
-13.5012720852
 20
-23.6754521579
 10
-13.5192644249
 20
-23.6200281891
 10
-13.5353898655
 20
-23.5647966
 10
-13.5498002596
 20
-23.509328316
 10
-13.5627246855
 20
-23.4523164842
 10
-13.5740267677
 20
-23.3938386662
 10
-13.5836101872
 20
-23.3338935215
 10
-13.5914934455
 20
-23.2710196547
 10
-13.5974294443
 20
-23.2047567057
 10
-13.6010678099
 20
-23.135669945
 10
-13.6021118832
 20
-23.0638438763
  0
LINE
  5
2AE
100
AcDbEntity
  8
RACCORDO
100
AcDbLine
 62
250
  6
CONTINUOUS
 10
-13.6021111834
 20
-23.0638438763
 11
-13.935623165
 21
-23.0589438664
  0
LWPOLYLINE
  5
2AF
100
AcDbEntity
  8
RACCORDO
100
AcDbPolyline
 62
250
  6
CONTINUOUS
 90
5
 70
0
 10
-15.2563607239
 20
-23.0429992311
 10
-15.2659895586
 20
-22.1100226946
 10
-15.2722602394
 20
-21.1389073107
 10
-15.2763931468
 20
-20.1302866547
 10
-15.2794918464
 20
-19.0839328877
  0
LINE
  5
2B0
100
AcDbEntity
  8
RACCORDO
100
AcDbLine
 62
250
  6
CONTINUOUS
 10
-15.2794918464
 20
-19.0839328877
 11
-15.2836979396
 21
-16.883091224
  0
LINE
  5
2B1
100
AcDbEntity
  8
RACCORDO
100
AcDbLine
 62
250
  6
CONTINUOUS
 10
-15.2836979396
 20
-16.883091224
 11
-15.2865874368
 21
-14.545709931
  0
LINE
  5
2B2
100
AcDbEntity
  8
RACCORDO
100
AcDbLine
 62
250
  6
CONTINUOUS
 10
-15.2865874368
 20
-14.545709931
 11
-15.2909270581
 21
-9.4693800666
  0
LINE
  5
2B3
100
AcDbEntity
  8
RACCORDO
100
AcDbLine
 62
250
  6
CONTINUOUS
 10
-15.2909270581
 20
-9.4693800666
 11
-15.2945876727
 21
-3.8237739241
  0
LINE
  5
2B4
100
AcDbEntity
  8
RACCORDO
100
AcDbLine
 62
250
  6
CONTINUOUS
 10
-15.2945876727
 20
-3.8237739241
 11
-15.2961620681
 21
-0.7636422222
  0
LINE
  5
2B5
100
AcDbEntity
  8
RACCORDO
100
AcDbLine
 62
250
  6
CONTINUOUS
 10
-15.296161879
 20
-0.7636422214
 11
-15.2909096118
 21
7.9652007602
  0
LINE
  5
2B6
100
AcDbEntity
  8
RACCORDO
100
AcDbLine
 62
250
  6
CONTINUOUS
 10
-15.2909096118
 20
7.9652007602
 11
-15.2852338063
 21
14.2187741851
  0
LWPOLYLINE
  5
2B7
100
AcDbEntity
  8
RACCORDO
100
AcDbPolyline
 62
250
  6
CONTINUOUS
 90
7
 70
0
 10
-15.2852338063
 20
14.2187741851
 10
-15.281830493
 20
16.4827913139
 10
-15.2794713964
 20
17.5637309087
 10
-15.2763722952
 20
18.6079756715
 10
-15.2722382578
 20
19.614642986
 10
-15.2659701067
 20
20.5839619331
 10
-15.256360689
 20
21.5153114676
  0
LWPOLYLINE
  5
2B8
100
AcDbEntity
  8
RACCORDO
100
AcDbPolyline
 62
250
  6
CONTINUOUS
 90
48
 70
0
 10
-15.2563597107
 20
21.5153112821
 10
-15.2505188852
 20
21.6748476537
 10
-15.2379649908
 20
21.8288646393
 10
-15.2193591254
 20
21.9773525271
 10
-15.1952377478
 20
22.1193353371
 10
-15.1668134843
 20
22.2538861547
 10
-15.1357561419
 20
22.3808879051
 10
-15.1033760852
 20
22.5009279794
 10
-15.0694733216
 20
22.6145832901
 10
-15.0332545843
 20
22.7222196016
 10
-14.9948365291
 20
22.8237240581
 10
-14.955017146
 20
22.919450544
 10
-14.9139679995
 20
23.0101192777
 10
-14.8720413595
 20
23.0957796525
 10
-14.8295864196
 20
23.1765047496
 10
-14.786630465
 20
23.2530368622
 10
-14.7434356996
 20
23.3254516917
 10
-14.7002403149
 20
23.3938133658
 10
-14.6569200705
 20
23.4588108513
 10
-14.6136201427
 20
23.520560465
 10
-14.5705377675
 20
23.5790755318
 10
-14.5275434922
 20
23.6348554854
 10
-14.4847033299
 20
23.6880338675
 10
-14.4421900845
 20
23.7385929336
 10
-14.3999876567
 20
23.7867828143
 10
-14.3581931243
 20
23.8326595108
 10
-14.3169003723
 20
23.8762747237
 10
-14.2760617205
 20
23.9178586154
 10
-14.2357258181
 20
23.9574884228
 10
-14.1959810381
 20
23.9951931847
 10
-14.1568200447
 20
24.0311206714
 10
-14.1182412171
 20
24.0653682437
 10
-14.0803767031
 20
24.0979140157
 10
-14.0434129825
 20
24.1287291999
 10
-14.007418752
 20
24.1578584577
 10
-13.972366394
 20
24.1854158457
 10
-13.9382997331
 20
24.2114777289
 10
-13.9052389063
 20
24.2360779535
 10
-13.8730530724
 20
24.2594263425
 10
-13.8415793634
 20
24.2818309521
 10
-13.810944311
 20
24.3032719475
 10
-13.7811303195
 20
24.32378193
 10
-13.7517268369
 20
24.3437367191
 10
-13.7228153784
 20
24.3631035762
 10
-13.6944371972
 20
24.3818729705
 10
-13.6660570387
 20
24.4004551037
 10
-13.6376745447
 20
24.4188610725
 10
-13.6093455713
 20
24.4370476423
  0
LINE
  5
2B9
100
AcDbEntity
  8
RACCORDO
100
AcDbLine
 62
250
  6
CONTINUOUS
 10
-11.7138438763
 20
-24.9650594709
 11
-11.7063214352
 21
-25.6151912687
  0
LWPOLYLINE
  5
2BA
100
AcDbEntity
  8
RACCORDO
100
AcDbPolyline
 62
250
  6
CONTINUOUS
 90
3
 70
0
 10
-11.7063214352
 20
-25.6151912687
 10
-11.6992706254
 20
-26.3372471426
 10
-11.6976342439
 20
-26.5237823571
  0
LINE
  5
2BB
100
AcDbEntity
  8
RACCORDO
100
AcDbLine
 62
250
  6
CONTINUOUS
 10
-13.5987415606
 20
19.625763436
 11
-13.6021118832
 21
21.5361561237
  0
LINE
  5
2BC
100
AcDbEntity
  8
RACCORDO
100
AcDbLine
 62
250
  6
CONTINUOUS
 10
-13.5964270167
 20
17.5704194823
 11
-13.5987415606
 21
19.625763436
  0
LWPOLYLINE
  5
2BD
100
AcDbEntity
  8
RACCORDO
100
AcDbPolyline
 62
250
  6
CONTINUOUS
 90
3
 70
0
 10
-13.5882321644
 20
-0.7638426053
 10
-13.5932170393
 20
11.8225646646
 10
-13.5964270167
 20
17.5704194823
  0
LINE
  5
2BE
100
AcDbEntity
  8
0
100
AcDbLine
 62
7
  6
CONTINUOUS
 10
-12.0138438763
 20
21.5361561237
 11
-12.0138438763
 21
-23.0638438763
  0
LINE
  5
2BF
100
AcDbEntity
  8
RACCORDO
100
AcDbLine
 62
250
  6
CONTINUOUS
 10
-11.7138438763
 20
-23.3638438763
 11
-11.7138438763
 21
-24.9650595685
  0
LINE
  5
2C0
100
AcDbEntity
  8
RACCORDO
100
AcDbLine
 62
250
  6
CONTINUOUS
 10
-11.7138438763
 20
21.8361561237
 11
-11.7138438763
 21
23.4373718159
  0
LINE
  5
2C1
100
AcDbEntity
  8
RACCORDO
100
AcDbLine
 62
250
  6
CONTINUOUS
 10
-13.5964209468
 20
-19.0906105408
 11
-13.5882321644
 21
-0.7638426053
  0
LINE
  5
2C2
100
AcDbEntity
  8
RACCORDO
100
AcDbLine
 62
250
  6
CONTINUOUS
 10
-13.5987377168
 20
-21.1500109845
 11
-13.5964209468
 21
-19.0906105408
  0
LINE
  5
2C3
100
AcDbEntity
  8
RACCORDO
100
AcDbLine
 62
250
  6
CONTINUOUS
 10
-13.6021118832
 20
-23.0638438763
 11
-13.5987377168
 21
-21.1500109845
  0
LINE
  5
2C4
100
AcDbEntity
  8
RACCORDO
100
AcDbLine
 62
250
  6
CONTINUOUS
 10
-11.7138438764
 20
23.437370654
 11
-11.697634183
 21
24.9960936818
  0
LWPOLYLINE
  5
2C5
100
AcDbEntity
  8
RACCORDO
100
AcDbPolyline
 62
250
  6
CONTINUOUS
 90
85
 70
0
 10
-13.6021118832
 20
21.5361561237
 10
-13.6006510365
 20
21.6192476049
 10
-13.5957032918
 20
21.6993290482
 10
-13.5876440351
 20
21.7762676763
 10
-13.5768547064
 20
21.8497391191
 10
-13.5636923884
 20
21.919891475
 10
-13.5484044533
 20
21.9873354161
 10
-13.5311551886
 20
22.052373077
 10
-13.512266131
 20
22.1146343534
 10
-13.492169917
 20
22.173756748
 10
-13.4712476337
 20
22.229544353
 10
-13.4496502522
 20
22.2822577433
 10
-13.4274541352
 20
22.3322417625
 10
-13.4048640468
 20
22.3795140947
 10
-13.3820624513
 20
22.4241442593
 10
-13.3590194095
 20
22.4665366908
 10
-13.3358719232
 20
22.5067372128
 10
-13.3127555978
 20
22.5447869525
 10
-13.2895747437
 20
22.5810589526
 10
-13.2664047497
 20
22.6156185375
 10
-13.2433572791
 20
22.6484737115
 10
-13.2203453733
 20
22.6798893711
 10
-13.1974046391
 20
22.7099382768
 10
-13.174632285
 20
22.7386087844
 10
-13.1520085363
 20
22.7660258271
 10
-13.1295873299
 20
22.7922183931
 10
-13.1074206409
 20
22.8172160028
 10
-13.0854715084
 20
22.8411363771
 10
-13.063767839
 20
22.8640202276
 10
-13.0423636889
 20
22.8858788312
 10
-13.0212514365
 20
22.9067796756
 10
-13.000431839
 20
22.9267792828
 10
-12.9799704665
 20
22.9458693522
 10
-12.959954805
 20
22.9640204974
 10
-12.9404097851
 20
22.9812664699
 10
-12.9213722586
 20
22.997626749
 10
-12.902950379
 20
23.0130555987
 10
-12.8852062605
 20
23.0275584704
 10
-12.8681352414
 20
23.0411871961
 10
-12.8517454904
 20
23.0539670038
 10
-12.8361704877
 20
23.0658384511
 10
-12.8213246715
 20
23.076913423
 10
-12.8068776661
 20
23.0874620709
 10
-12.7928303101
 20
23.0975048662
 10
-12.7792056401
 20
23.1070473044
 10
-12.7656921704
 20
23.1163181622
 10
-12.7522885855
 20
23.1253262873
 10
-12.7390060319
 20
23.134071349
 10
-12.7255405273
 20
23.1427523021
 10
-12.7119252204
 20
23.1513452135
 10
-12.6981268367
 20
23.159867797
 10
-12.6837302341
 20
23.1685631613
 10
-12.6686720871
 20
23.1774436887
 10
-12.6530018298
 20
23.186466091
 10
-12.6364623373
 20
23.1957713267
 10
-12.6188897305
 20
23.2054203926
 10
-12.6004230837
 20
23.215298818
 10
-12.5812582808
 20
23.2252820017
 10
-12.561477121
 20
23.2353061717
 10
-12.5409826159
 20
23.2453936589
 10
-12.5197048725
 20
23.2555523425
 10
-12.4976245209
 20
23.2657604489
 10
-12.4747435944
 20
23.275986049
 10
-12.4510229089
 20
23.2862168102
 10
-12.4264737907
 20
23.2964140731
 10
-12.4010687643
 20
23.306554654
 10
-12.3747087693
 20
23.3166425777
 10
-12.3473899601
 20
23.3266367835
 10
-12.3190998911
 20
23.3365004942
 10
-12.2897239029
 20
23.3462330215
 10
-12.2592129397
 20
23.355799673
 10
-12.2276003062
 20
23.3651358048
 10
-12.1948944936
 20
23.3741887521
 10
-12.1609694594
 20
23.3829433275
 10
-12.1259422335
 20
23.3913026959
 10
-12.0901945413
 20
23.3991113658
 10
-12.0541420366
 20
23.4062668514
 10
-12.0173851773
 20
23.4128162316
 10
-11.9790848282
 20
23.4187992546
 10
-11.9390327089
 20
23.4241426639
 10
-11.8974501966
 20
23.4287287565
 10
-11.8541411156
 20
23.4324620548
 10
-11.8090529046
 20
23.4352271691
 10
-11.7622776954
 20
23.4369043021
 10
-11.7138438763
 20
23.4373718159
  0
LINE
  5
2C6
100
AcDbEntity
  8
RACCORDO
100
AcDbLine
 62
250
  6
CONTINUOUS
 10
-1.263084578
 20
-26.1875990119
 11
-1.2617393485
 21
-26.569709827
  0
LINE
  5
2C7
100
AcDbEntity
  8
RACCORDO
100
AcDbLine
 62
250
  6
CONTINUOUS
 10
-0.2646031746
 20
24.6599112592
 11
-0.2659484042
 21
25.0420220743
  0
LINE
  5
2C8
100
AcDbEntity
  8
RACCORDO
100
AcDbLine
 62
250
  6
CONTINUOUS
 10
-1.2607808878
 20
23.4381682231
 11
-1.2621899085
 21
25.0420217276
  0
LINE
  5
2C9
100
AcDbEntity
  8
RACCORDO
100
AcDbLine
 62
250
  6
CONTINUOUS
 10
-0.2673573529
 20
-24.9658561308
 11
-0.2659484042
 21
-26.569709827
  0
LWPOLYLINE
  5
2CA
100
AcDbEntity
  8
0
100
AcDbPolyline
 62
7
  6
CONTINUOUS
 90
4
 70
0
 43
0.3500000006
 10
-3.1209868584
 20
49.9424149933
 10
-3.1209868584
 20
50.7995574646
 10
-2.6924153395
 20
51.2281309662
 10
-2.0495582027
 20
51.2281309662
  0
LINE
  5
2CB
100
AcDbEntity
  8
RACCORDO
100
AcDbLine
 62
250
  6
CONTINUOUS
 10
-1.2632159133
 20
25.0420217273
 11
-1.264142803
 21
38.9692750833
  0
LWPOLYLINE
  5
2CC
100
AcDbEntity
  8
0
100
AcDbPolyline
 62
7
  6
CONTINUOUS
 90
13
 70
0
 43
0.3500000006
 10
-0.7638438585
 20
50.3709884949
 10
-0.7638438585
 20
51.6566999359
 10
-0.5495581698
 20
52.0852734375
 10
-0.1209867306
 20
52.5138424072
 10
0.0932989846
 20
52.5138424072
 10
0.521870415
 20
52.0852734375
 10
0.7361561036
 20
51.6566999359
 10
0.7361561036
 20
50.3709884949
 10
0.521870415
 20
49.9424149933
 10
0.0932989846
 20
49.5138460236
 10
-0.1209867306
 20
49.5138460236
 10
-0.5495581698
 20
49.9424149933
 10
-0.7638438585
 20
50.3709884949
  0
LINE
  5
2CD
100
AcDbEntity
  8
RACCORDO
100
AcDbLine
 62
250
  6
CONTINUOUS
 10
-0.2641618402
 20
-26.5697115388
 11
-0.2639649116
 21
-40.4969628422
  0
LINE
  5
2CE
100
AcDbEntity
  8
RACCORDO
100
AcDbLine
 62
250
  6
CONTINUOUS
 10
-1.2633721299
 20
-40.0622676929
 11
-1.2635259124
 21
-26.5697115407
  0
LINE
  5
2CF
100
AcDbEntity
  8
RACCORDO
100
AcDbLine
 62
250
  6
CONTINUOUS
 10
-1.2603303998
 20
-24.9658561308
 11
-1.2618388986
 21
-25.4584631397
  0
LWPOLYLINE
  5
2D0
100
AcDbEntity
  8
RACCORDO
100
AcDbPolyline
 62
250
  6
CONTINUOUS
 90
4
 70
0
 10
-1.2618388986
 20
-25.4584631397
 10
-1.2624297519
 20
-25.634448936
 10
-1.2630114695
 20
-25.815133888
 10
-1.263084578
 20
-26.1875990119
  0
LWPOLYLINE
  5
2D1
100
AcDbEntity
  8
RACCORDO
100
AcDbPolyline
 62
250
  6
CONTINUOUS
 90
4
 70
0
 10
-0.2668453842
 20
23.5957870286
 10
-0.2652580008
 20
24.1067611833
 10
-0.2646762832
 20
24.2874461353
 10
-0.2646031746
 20
24.6599112592
  0
LINE
  5
2D2
100
AcDbEntity
  8
RACCORDO
100
AcDbLine
 62
250
  6
CONTINUOUS
 10
-0.2673573529
 20
23.4381683782
 11
-0.2668453842
 21
23.5957870286
  0
LINE
  5
2D3
100
AcDbEntity
  8
RACCORDO
100
AcDbLine
 62
250
  6
CONTINUOUS
 10
-1.2637228411
 20
-40.4969628422
 11
-1.2633721299
 21
-40.0622676929
  0
LINE
  5
2D4
100
AcDbEntity
  8
RACCORDO
100
AcDbLine
 62
250
  6
CONTINUOUS
 10
-0.2639649116
 20
38.9692750896
 11
-0.2641618402
 21
25.0420237881
  0
LINE
  5
2D5
100
AcDbEntity
  8
RACCORDO
100
AcDbLine
 62
250
  6
CONTINUOUS
 10
-40.5060714043
 20
-37.5101828
 11
-40.7638438763
 21
-37.7679552721
  0
LINE
  5
2D6
100
AcDbEntity
  8
RACCORDO
100
AcDbLine
 62
250
  6
CONTINUOUS
 10
35.9820055962
 20
38.9778942005
 11
36.2402675194
 21
39.2361561237
  0
LINE
  5
2D7
100
AcDbEntity
  8
RACCORDO
100
AcDbLine
 62
250
  6
CONTINUOUS
 10
12.0605454949
 20
-0.7667497041
 11
13.7684743154
 21
-0.7636422218
  0
LINE
  5
2D8
100
AcDbEntity
  8
RACCORDO
100
AcDbLine
 62
250
  6
CONTINUOUS
 10
-13.5882333975
 20
-0.7605347436
 11
-15.296161879
 21
-0.7636422214
  0
LWPOLYLINE
  5
2D9
100
AcDbEntity
  8
RACCORDO
100
AcDbPolyline
 62
250
  6
CONTINUOUS
 90
3
 70
0
 10
38.9748226613
 20
-0.763419201
 10
38.7426949814
 20
-0.7635612764
 10
38.6693549626
 20
-0.7635778999
  0
LINE
  5
2DA
100
AcDbEntity
  8
RACCORDO
100
AcDbLine
 62
250
  6
CONTINUOUS
 10
27.2107315876
 20
-0.7644382859
 11
24.8216646606
 21
-0.7648522105
  0
LINE
  5
2DB
100
AcDbEntity
  8
RACCORDO
100
AcDbLine
 62
250
  6
CONTINUOUS
 10
16.5384105939
 20
-0.7636268983
 11
13.7684727768
 21
-0.7640528719
  0
LINE
  5
2DC
100
AcDbEntity
  8
RACCORDO
100
AcDbLine
 62
250
  6
CONTINUOUS
 10
-26.3493524281
 20
-0.7648522108
 11
-23.8837266025
 21
-0.7645001612
  0
LINE
  5
2DD
100
AcDbEntity
  8
RACCORDO
100
AcDbLine
 62
250
  6
CONTINUOUS
 10
38.6693549626
 20
-0.7635778999
 11
38.4996018407
 21
-0.7636014936
  0
LWPOLYLINE
  5
2DE
100
AcDbEntity
  8
RACCORDO
100
AcDbPolyline
 62
250
  6
CONTINUOUS
 90
3
 70
0
 10
-23.8837266025
 20
-0.7645001612
 10
-18.066098353
 20
-0.7636268957
 10
-15.2961605247
 20
-0.7640528671
  0
LWPOLYLINE
  5
2DF
100
AcDbEntity
  8
RACCORDO
100
AcDbPolyline
 62
250
  6
CONTINUOUS
 90
4
 70
0
 10
-40.502510414
 20
-0.763419201
 10
-40.0272893833
 20
-0.7632370336
 10
-39.9328364589
 20
-0.7632307082
 10
-36.7589403634
 20
-0.7627088944
  0
LWPOLYLINE
  5
2E0
100
AcDbEntity
  8
RACCORDO
100
AcDbPolyline
 62
250
  6
CONTINUOUS
 90
3
 70
0
 10
-36.7589403634
 20
-0.7627088944
 10
-31.2235928814
 20
-0.7635660848
 10
-26.3493524281
 20
-0.7648522108
  0
LINE
  5
2E1
100
AcDbEntity
  8
RACCORDO
100
AcDbLine
 62
250
  6
CONTINUOUS
 10
24.8216646606
 20
-0.7648522105
 11
16.5384105939
 21
-0.7636268983
  0
LWPOLYLINE
  5
2E2
100
AcDbEntity
  8
RACCORDO
100
AcDbPolyline
 62
250
  6
CONTINUOUS
 90
4
 70
0
 10
38.4996018407
 20
-0.7636014936
 10
35.2312526063
 20
-0.7627088944
 10
32.3886643342
 20
-0.7628660908
 10
27.2107315876
 20
-0.7644382859
  0
LINE
  5
2E3
100
AcDbEntity
  8
RACCORDO
100
AcDbLine
 62
250
  6
CONTINUOUS
 10
35.9820055962
 20
-40.5055819532
 11
36.2402675194
 21
-40.7638438763
  0
LINE
  5
2E4
100
AcDbEntity
  8
RACCORDO
100
AcDbLine
 62
250
  6
CONTINUOUS
 10
-40.5060714043
 20
35.9824950473
 11
-40.7638438763
 21
36.2402675194
  0
LINE
  5
2E5
100
AcDbEntity
  8
RACCORDO
100
AcDbLine
 62
250
  6
CONTINUOUS
 10
-37.5096933489
 20
-40.5055819532
 11
-37.7679552721
 21
-40.7638438763
  0
LINE
  5
2E6
100
AcDbEntity
  8
RACCORDO
100
AcDbLine
 62
250
  6
CONTINUOUS
 10
38.9783836516
 20
35.9824950473
 11
39.2361561237
 21
36.2402675194
  0
LINE
  5
2E7
100
AcDbEntity
  8
RACCORDO
100
AcDbLine
 62
250
  6
CONTINUOUS
 10
38.9783836516
 20
-37.5101828
 11
39.2361561237
 21
-37.7679552721
  0
LINE
  5
2E8
100
AcDbEntity
  8
RACCORDO
100
AcDbLine
 62
250
  6
CONTINUOUS
 10
-37.5096933489
 20
38.9778942005
 11
-37.7679552721
 21
39.2361561237
  0
LINE
  5
2E9
100
AcDbEntity
  8
RACCORDO
100
AcDbLine
 62
250
  6
CONTINUOUS
 10
10.1861561237
 20
23.4373717079
 11
10.1786335861
 21
24.0875035139
  0
LWPOLYLINE
  5
2EA
100
AcDbEntity
  8
RACCORDO
100
AcDbPolyline
 62
250
  6
CONTINUOUS
 90
3
 70
0
 10
10.1786335861
 20
24.0875035139
 10
10.1715828319
 20
24.8095593877
 10
10.169946491
 20
24.9960946014
  0
LWPOLYLINE
  5
2EB
100
AcDbEntity
  8
RACCORDO
100
AcDbPolyline
 62
250
  6
CONTINUOUS
 90
3
 70
0
 10
12.0697417684
 20
-20.144132215
 10
12.0710537877
 20
-21.1534318771
 10
12.0744241305
 20
-23.0638438763
  0
LINE
  5
2EC
100
AcDbEntity
  8
RACCORDO
100
AcDbLine
 62
250
  6
CONTINUOUS
 10
10.1861561237
 20
-23.3638438763
 11
10.1861561237
 21
-24.9650595685
  0
LINE
  5
2ED
100
AcDbEntity
  8
RACCORDO
100
AcDbLine
 62
250
  6
CONTINUOUS
 10
10.1861561237
 20
21.8361561237
 11
10.1861561237
 21
23.4373718159
  0
LINE
  5
2EE
100
AcDbEntity
  8
0
100
AcDbLine
 62
7
  6
CONTINUOUS
 10
10.4861561237
 20
-23.0638438763
 11
10.4861561237
 21
21.5361561237
  0
LINE
  5
2EF
100
AcDbEntity
  8
RACCORDO
100
AcDbLine
 62
250
  6
CONTINUOUS
 10
12.0744241305
 20
21.5361561237
 11
12.0710499854
 21
19.6223434627
  0
LINE
  5
2F0
100
AcDbEntity
  8
RACCORDO
100
AcDbLine
 62
250
  6
CONTINUOUS
 10
10.1861561237
 20
-24.9650584067
 11
10.1699464304
 21
-26.5237814345
  0
LWPOLYLINE
  5
2F1
100
AcDbEntity
  8
RACCORDO
100
AcDbPolyline
 62
250
  6
CONTINUOUS
 90
5
 70
0
 10
13.7286729712
 20
21.5153114784
 10
13.7383017316
 20
20.5823443204
 10
13.7445723963
 20
19.6112397484
 10
13.7487052617
 20
18.6026312859
 10
13.7518039405
 20
17.5562910947
  0
LINE
  5
2F2
100
AcDbEntity
  8
RACCORDO
100
AcDbLine
 62
250
  6
CONTINUOUS
 10
13.7518039405
 20
17.5562910947
 11
13.7560100696
 21
15.3554809242
  0
LINE
  5
2F3
100
AcDbEntity
  8
RACCORDO
100
AcDbLine
 62
250
  6
CONTINUOUS
 10
13.7560100696
 20
15.3554809242
 11
13.7588995717
 21
13.018136936
  0
LINE
  5
2F4
100
AcDbEntity
  8
RACCORDO
100
AcDbLine
 62
250
  6
CONTINUOUS
 10
13.7588995717
 20
13.018136936
 11
13.7622360695
 21
9.2622180627
  0
LINE
  5
2F5
100
AcDbEntity
  8
RACCORDO
100
AcDbLine
 62
250
  6
CONTINUOUS
 10
12.0660879465
 20
-14.5672240269
 11
12.0697417684
 21
-20.144132215
  0
LINE
  5
2F6
100
AcDbEntity
  8
RACCORDO
100
AcDbLine
 62
250
  6
CONTINUOUS
 10
13.7622360695
 20
9.2622180627
 11
13.7684741264
 21
-0.7636422225
  0
LINE
  5
2F7
100
AcDbEntity
  8
RACCORDO
100
AcDbLine
 62
250
  6
CONTINUOUS
 10
12.0605444117
 20
-0.7638427937
 11
12.0660879465
 21
-14.5672240269
  0
LINE
  5
2F8
100
AcDbEntity
  8
RACCORDO
100
AcDbLine
 62
250
  6
CONTINUOUS
 10
13.7684743154
 20
-0.7636422218
 11
13.7651311368
 21
-6.7434178674
  0
LINE
  5
2F9
100
AcDbEntity
  8
RACCORDO
100
AcDbLine
 62
250
  6
CONTINUOUS
 10
13.7651311368
 20
-6.7434178674
 11
13.7611709949
 21
-12.0966170537
  0
LINE
  5
2FA
100
AcDbEntity
  8
RACCORDO
100
AcDbLine
 62
250
  6
CONTINUOUS
 10
13.7611709949
 20
-12.0966170537
 11
13.7575461664
 21
-15.7463688424
  0
LWPOLYLINE
  5
2FB
100
AcDbEntity
  8
RACCORDO
100
AcDbPolyline
 62
250
  6
CONTINUOUS
 90
3
 70
0
 10
12.0710499854
 20
19.6223434627
 10
12.0697366168
 20
18.6111185293
 10
12.0605444117
 20
-0.7638427937
  0
LWPOLYLINE
  5
2FC
100
AcDbEntity
  8
RACCORDO
100
AcDbPolyline
 62
250
  6
CONTINUOUS
 90
7
 70
0
 10
13.7575461664
 20
-15.7463688424
 10
13.754142868
 20
-18.0104201025
 10
13.7517837926
 20
-19.0913743782
 10
13.7486846703
 20
-20.1356323485
 10
13.7445505914
 20
-21.142311466
 10
13.7382824248
 20
-22.1116407885
 10
13.7286729363
 20
-23.0429992203
  0
LWPOLYLINE
  5
2FD
100
AcDbEntity
  8
RACCORDO
100
AcDbPolyline
 62
250
  6
CONTINUOUS
 90
85
 70
0
 10
12.0744241305
 20
-23.0638438763
 10
12.072964881
 20
-23.1468965243
 10
12.0680218087
 20
-23.2269425045
 10
12.0599697164
 20
-23.3038491983
 10
12.0491894262
 20
-23.3772928598
 10
12.0360375027
 20
-23.4474211062
 10
12.0207611322
 20
-23.5148430584
 10
12.0035245379
 20
-23.579860001
 10
11.9846488455
 20
-23.6421026867
 10
11.9645660944
 20
-23.7012095888
 10
11.9436567228
 20
-23.7569854529
 10
11.9220716484
 20
-23.8096899903
 10
11.899887574
 20
-23.8596667348
 10
11.8773092726
 20
-23.9069329758
 10
11.8545189327
 20
-23.9515584974
 10
11.8314866849
 20
-23.9939474773
 10
11.8083493854
 20
-24.034145777
 10
11.7852426011
 20
-24.0721943636
 10
11.7620709437
 20
-24.108465768
 10
11.7389099676
 20
-24.1430249949
 10
11.7158711119
 20
-24.1758803083
 10
11.6928671515
 20
-24.2072969775
 10
11.6699335021
 20
-24.2373479114
 10
11.6471674584
 20
-24.2660212178
 10
11.6245493875
 20
-24.2934416074
 10
11.6021331561
 20
-24.3196380827
 10
11.5799707558
 20
-24.3446400789
 10
11.5580255299
 20
-24.3685649721
 10
11.5363255675
 20
-24.3914532724
 10
11.5149247415
 20
-24.4133164329
 10
11.4938151924
 20
-24.4342221704
 10
11.4729976653
 20
-24.4542269865
 10
11.4525377177
 20
-24.473322552
 10
11.4325225767
 20
-24.4914796758
 10
11.4129770226
 20
-24.5087321924
 10
11.3939380227
 20
-24.5250994335
 10
11.3755138707
 20
-24.5405355112
 10
11.3577658918
 20
-24.555046476
 10
11.3406901913
 20
-24.5686835073
 10
11.3242974883
 20
-24.5814698993
 10
11.3087222471
 20
-24.5933455783
 10
11.2938780527
 20
-24.6044232088
 10
11.2794343755
 20
-24.6149731958
 10
11.2653919108
 20
-24.625016169
 10
11.2517739072
 20
-24.6345575535
 10
11.2382692529
 20
-24.6438260387
 10
11.2248771044
 20
-24.6528302443
 10
11.2116082068
 20
-24.6615701786
 10
11.1981576299
 20
-24.6702455521
 10
11.1845575079
 20
-24.6788331115
 10
11.1707756001
 20
-24.6873499406
 10
11.1563989123
 20
-24.6960379889
 10
11.1413685192
 20
-24.704907276
 10
11.1257296115
 20
-24.7139171832
 10
11.1092141183
 20
-24.7232148347
 10
11.0916532424
 20
-24.7328635719
 10
11.073190672
 20
-24.7427460626
 10
11.0540255153
 20
-24.7527358351
 10
11.034240243
 20
-24.7627686133
 10
11.0137370318
 20
-24.7728669323
 10
10.9924470247
 20
-24.7830379948
 10
10.9703499468
 20
-24.7932602648
 10
10.9474485878
 20
-24.803501251
 10
10.9237073736
 20
-24.813746912
 10
10.8991383933
 20
-24.8239582517
 10
10.8737134118
 20
-24.8341123973
 10
10.8473347836
 20
-24.8442128368
 10
10.8199996874
 20
-24.8542181883
 10
10.7916947103
 20
-24.8640921096
 10
10.762303615
 20
-24.8738344954
 10
10.7317770773
 20
-24.8834107074
 10
10.7001486621
 20
-24.8927559798
 10
10.6674260354
 20
-24.9018178463
 10
10.6334825207
 20
-24.9105811985
 10
10.5984357567
 20
-24.9189489412
 10
10.5626685166
 20
-24.9267652984
 10
10.5265967102
 20
-24.9339277445
 10
10.4898205712
 20
-24.9404833941
 10
10.451501313
 20
-24.9464718896
 10
10.4114308069
 20
-24.9518199288
 10
10.3698303217
 20
-24.95640983
 10
10.3265036457
 20
-24.9601460967
 10
10.2813982254
 20
-24.9629133196
 10
10.234606244
 20
-24.9645916921
 10
10.1861561237
 20
-24.9650595685
  0
LWPOLYLINE
  5
2FE
100
AcDbEntity
  8
RACCORDO
100
AcDbPolyline
 62
250
  6
CONTINUOUS
 90
48
 70
0
 10
13.72867196
 20
-23.0429990352
 10
13.7228362183
 20
-23.2024620807
 10
13.7102927567
 20
-23.3564117753
 10
13.6917018588
 20
-23.504837514
 10
13.6675986968
 20
-23.6467635879
 10
13.6391943372
 20
-23.7812656238
 10
13.6081576285
 20
-23.9082281403
 10
13.5757978598
 20
-24.0282386977
 10
13.5419154276
 20
-24.1418701477
 10
13.5057187746
 20
-24.2494841006
 10
13.467324944
 20
-24.3509671966
 10
13.427530342
 20
-24.4466754188
 10
13.3865052291
 20
-24.5373297348
 10
13.3446011713
 20
-24.6229797487
 10
13.302167511
 20
-24.703697895
 10
13.2592319159
 20
-24.7802252343
 10
13.2160564336
 20
-24.8526372847
 10
13.1728791047
 20
-24.9209981069
 10
13.1295761737
 20
-24.9859958613
 10
13.0862931006
 20
-25.0477463388
 10
13.0432267322
 20
-25.1062632661
 10
13.00024714
 20
-25.1620466572
 10
12.957420021
 20
-25.2152302839
 10
12.9149183509
 20
-25.2657959505
 10
12.8727262751
 20
-25.3139933536
 10
12.8309407167
 20
-25.3598785226
 10
12.7896555508
 20
-25.4035030807
 10
12.7488236145
 20
-25.4450966466
 10
12.7084939535
 20
-25.4847360906
 10
12.6687548214
 20
-25.5224504984
 10
12.6295986394
 20
-25.5583877389
 10
12.591023669
 20
-25.5926451464
 10
12.5531613956
 20
-25.6252014848
 10
12.5161972407
 20
-25.6560289934
 10
12.4801994614
 20
-25.6851728339
 10
12.4451430941
 20
-25.7127444159
 10
12.4110754054
 20
-25.7388166796
 10
12.3780165996
 20
-25.763423294
 10
12.3458338307
 20
-25.7867762731
 10
12.3143646823
 20
-25.8091839129
 10
12.2837356365
 20
-25.8306267966
 10
12.2539296425
 20
-25.8511369558
 10
12.2245379251
 20
-25.8710887359
 10
12.1956427334
 20
-25.8904488237
 10
12.1672846871
 20
-25.9092084723
 10
12.1389282384
 20
-25.9277785581
 10
12.110573668
 20
-25.9461699305
 10
12.0822767604
 20
-25.9643396169
  0
LINE
  5
2FF
100
AcDbEntity
  8
RACCORDO
100
AcDbLine
 62
250
  6
CONTINUOUS
 10
-13.6021066142
 20
21.5361561221
 11
-14.1120345187
 21
21.5287975658
  0
LINE
  5
300
100
AcDbEntity
  8
RACCORDO
100
AcDbLine
 62
250
  6
CONTINUOUS
 10
-14.1120345187
 20
21.5287975658
 11
-14.6706819359
 21
21.5217563631
  0
LINE
  5
301
100
AcDbEntity
  8
RACCORDO
100
AcDbLine
 62
250
  6
CONTINUOUS
 10
-14.6706819359
 20
21.5217563631
 11
-15.2563597107
 21
21.5153112821
  0
LINE
  5
302
100
AcDbEntity
  8
RACCORDO
100
AcDbLine
 62
250
  6
CONTINUOUS
 10
8.0308305293
 20
23.4350409697
 11
10.1861561237
 21
23.4373718159
  0
LINE
  5
303
100
AcDbEntity
  8
RACCORDO
100
AcDbLine
 62
250
  6
CONTINUOUS
 10
10.4861561237
 20
21.5361561237
 11
12.0744241305
 21
21.5361561237
  0
LINE
  5
304
100
AcDbEntity
  8
RACCORDO
100
AcDbLine
 62
250
  6
CONTINUOUS
 10
-12.0138438763
 20
21.5361561237
 11
-13.6021118832
 21
21.5361561237
  0
LINE
  5
305
100
AcDbEntity
  8
0
100
AcDbLine
 62
7
  6
CONTINUOUS
 10
10.1861561237
 20
21.8361561237
 11
-11.7138438763
 21
21.8361561237
  0
LINE
  5
306
100
AcDbEntity
  8
RACCORDO
100
AcDbLine
 62
250
  6
CONTINUOUS
 10
5.7772304508
 20
23.4345334771
 11
8.0308305293
 21
23.4350409697
  0
LINE
  5
307
100
AcDbEntity
  8
RACCORDO
100
AcDbLine
 62
250
  6
CONTINUOUS
 10
-7.3096347754
 20
23.434533577
 11
-0.2673573529
 21
23.4381683782
  0
LINE
  5
308
100
AcDbEntity
  8
RACCORDO
100
AcDbLine
 62
250
  6
CONTINUOUS
 10
-9.5627528694
 20
23.4350417783
 11
-7.3096347754
 21
23.434533577
  0
LINE
  5
309
100
AcDbEntity
  8
RACCORDO
100
AcDbLine
 62
250
  6
CONTINUOUS
 10
-0.2673573529
 20
23.4381683782
 11
5.7772304508
 21
23.4345334771
  0
LINE
  5
30A
100
AcDbEntity
  8
RACCORDO
100
AcDbLine
 62
250
  6
CONTINUOUS
 10
-11.7138438763
 20
23.4373718159
 11
-9.5627528694
 21
23.4350417783
  0
LINE
  5
30B
100
AcDbEntity
  8
RACCORDO
100
AcDbLine
 62
250
  6
CONTINUOUS
 10
12.4079354124
 20
21.5312561138
 11
13.7286729712
 21
21.5153114784
  0
LINE
  5
30C
100
AcDbEntity
  8
RACCORDO
100
AcDbLine
 62
250
  6
CONTINUOUS
 10
12.0744234308
 20
21.5361561237
 11
12.4079354124
 21
21.5312561138
  0
LWPOLYLINE
  5
30D
100
AcDbEntity
  8
RACCORDO
100
AcDbPolyline
 62
250
  6
CONTINUOUS
 90
7
 70
0
 10
-11.697634183
 20
24.9960936818
 10
-10.6416637433
 20
25.0147228614
 10
-9.5581969242
 20
25.0265855202
 10
-8.4479879544
 20
25.0338505052
 10
-7.3108665762
 20
25.0384954912
 10
-6.1477504004
 20
25.0411644025
 10
-4.9611026559
 20
25.0423199445
  0
LINE
  5
30E
100
AcDbEntity
  8
RACCORDO
100
AcDbLine
 62
250
  6
CONTINUOUS
 10
-0.2631314059
 20
25.0420226842
 11
2.2230145225
 21
25.0424888454
  0
LWPOLYLINE
  5
30F
100
AcDbEntity
  8
RACCORDO
100
AcDbPolyline
 62
250
  6
CONTINUOUS
 90
8
 70
0
 10
2.2230145225
 20
25.0424888454
 10
3.4310337834
 20
25.0423211208
 10
4.6163617949
 20
25.0411638006
 10
5.7783865881
 20
25.038501002
 10
6.9152613994
 20
25.0338766491
 10
8.0262719549
 20
25.0266403971
 10
9.1114068266
 20
25.0147825865
 10
10.1699464267
 20
24.99609363
  0
LINE
  5
310
100
AcDbEntity
  8
RACCORDO
100
AcDbLine
 62
250
  6
CONTINUOUS
 10
-4.9611026559
 20
25.0423199445
 11
-0.2659484042
 21
25.0420220743
  0
LWPOLYLINE
  5
311
100
AcDbEntity
  8
RACCORDO
100
AcDbPolyline
 62
250
  6
CONTINUOUS
 90
64
 70
0
 10
10.1861561237
 20
23.4373718159
 10
10.2499907523
 20
23.4364879712
 10
10.3114528774
 20
23.4335113545
 10
10.3704787763
 20
23.4286694746
 10
10.4267597422
 20
23.4221898439
 10
10.4805193739
 20
23.4142936241
 10
10.5325089752
 20
23.4051208915
 10
10.5829410844
 20
23.3947609471
 10
10.6315671405
 20
23.3833762672
 10
10.6784573626
 20
23.3711382861
 10
10.7237127935
 20
23.3581592144
 10
10.7672381812
 20
23.3445510902
 10
10.8088240939
 20
23.3304887703
 10
10.8483520309
 20
23.3161420189
 10
10.8859810736
 20
23.3015785953
 10
10.9219222227
 20
23.2868157097
 10
10.956184746
 20
23.2719466142
 10
10.9888030723
 20
23.2570551851
 10
11.0200176647
 20
23.2421134985
 10
11.0498864158
 20
23.2271776575
 10
11.078391889
 20
23.2123196992
 10
11.1056530623
 20
23.1975134969
 10
11.1314416977
 20
23.182958566
 10
11.1560279809
 20
23.1685655822
 10
11.1802510148
 20
23.1538287719
 10
11.2040135427
 20
23.1388015607
 10
11.227405622
 20
23.1234527695
 10
11.2514917077
 20
23.1070640122
 10
11.2764915251
 20
23.0894027733
 10
11.3021002599
 20
23.0706153763
 10
11.3285513075
 20
23.0504889049
 10
11.355932652
 20
23.028852451
 10
11.3840344551
 20
23.0057614101
 10
11.4126384888
 20
22.9813362601
 10
11.4416516556
 20
22.9555735337
 10
11.4710469542
 20
22.9283846554
 10
11.5007130766
 20
22.8997748833
 10
11.5305088866
 20
22.8697782143
 10
11.5604418295
 20
22.8382807961
 10
11.5906088154
 20
22.8050586298
 10
11.6209219282
 20
22.7700572888
 10
11.6512809102
 20
22.7332325268
 10
11.6817304212
 20
22.694354927
 10
11.7122465452
 20
22.6532332792
 10
11.7425939867
 20
22.6099474516
 10
11.7724952618
 20
22.5646807429
 10
11.8019175497
 20
22.517253834
 10
11.8306328111
 20
22.4677847878
 10
11.8581441736
 20
22.4169581764
 10
11.8843652565
 20
22.3648230986
 10
11.9092385357
 20
22.3113722915
 10
11.9324306061
 20
22.2572731411
 10
11.9538672016
 20
22.2027527859
 10
11.9736086673
 20
22.1476931817
 10
11.9915965356
 20
22.092276018
 10
12.0077186446
 20
22.037048891
 10
12.0221264285
 20
21.9815833684
 10
12.0350482392
 20
21.9245750542
 10
12.0463476864
 20
21.866101945
 10
12.0559286402
 20
21.8061622839
 10
12.0638095547
 20
21.7432959337
 10
12.0697435385
 20
21.6770429599
 10
12.0733805277
 20
21.6079682006
 10
12.0744241305
 20
21.5361561237
  0
LWPOLYLINE
  5
312
100
AcDbEntity
  8
RACCORDO
100
AcDbPolyline
 62
250
  6
CONTINUOUS
 90
64
 70
0
 10
10.169946491
 20
24.9960946014
 10
10.2937677637
 20
24.9913464258
 10
10.4128522304
 20
24.9827881603
 10
10.5269511414
 20
24.9709136225
 10
10.6354437415
 20
24.9559732278
 10
10.7384666298
 20
24.9387234661
 10
10.8367379255
 20
24.9204092937
 10
10.9301566189
 20
24.9022258708
 10
11.0182823183
 20
24.883954592
 10
11.1018810083
 20
24.8644409917
 10
11.1817930428
 20
24.8433333031
 10
11.2585706552
 20
24.8211157604
 10
11.3323257522
 20
24.7978354449
 10
11.4028052978
 20
24.7737056986
 10
11.4700031454
 20
24.7489790082
 10
11.5342161292
 20
24.7237811042
 10
11.5954149734
 20
24.6982912434
 10
11.6537221842
 20
24.6726239136
 10
11.7097072187
 20
24.6467375062
 10
11.7633663375
 20
24.6209063336
 10
11.8148127386
 20
24.5950566273
 10
11.8651060273
 20
24.5683309726
 10
11.9145218548
 20
24.5401608965
 10
11.963837578
 20
24.5105011793
 10
12.0143958561
 20
24.4794008552
 10
12.0654475241
 20
24.4474925411
 10
12.1159968215
 20
24.415107822
 10
12.1669051288
 20
24.3818036493
 10
12.2183797455
 20
24.3475666324
 10
12.2699837242
 20
24.3125214207
 10
12.3219149147
 20
24.2761451053
 10
12.3743042551
 20
24.2382685668
 10
12.4270484168
 20
24.1988912846
 10
12.4800752284
 20
24.157602154
 10
12.5334663672
 20
24.1140808205
 10
12.5875165179
 20
24.068027007
 10
12.6423343023
 20
24.0191260386
 10
12.6976724238
 20
23.9674237718
 10
12.7533822986
 20
23.9128479712
 10
12.8095466597
 20
23.8550074049
 10
12.8660190591
 20
23.793790278
 10
12.9226477801
 20
23.7290836494
 10
12.9794865222
 20
23.6604235757
 10
13.0364955183
 20
23.5874650273
 10
13.0932338816
 20
23.5103482285
 10
13.1491229209
 20
23.4293787436
 10
13.20408488
 20
23.3442562355
 10
13.2576866527
 20
23.2552270356
 10
13.3089534606
 20
23.1635053125
 10
13.3577331718
 20
23.0691113789
 10
13.403926639
 20
22.972016635
 10
13.4468236028
 20
22.8735969443
 10
13.4859946246
 20
22.7746523619
 10
13.5217087436
 20
22.6751127768
 10
13.5545021437
 20
22.5747688827
 10
13.584285821
 20
22.4736824115
 10
13.6114867517
 20
22.3703959401
 10
13.637146399
 20
22.2622867443
 10
13.6612121573
 20
22.1499044985
 10
13.6827119534
 20
22.0340957638
 10
13.7007827822
 20
21.9129753937
 10
13.71474484
 20
21.7857582392
 10
13.7242249493
 20
21.6531848079
 10
13.7286734315
 20
21.5153115649
  0
LWPOLYLINE
  5
313
100
AcDbEntity
  8
RACCORDO
100
AcDbPolyline
 62
250
  6
CONTINUOUS
 90
37
 70
0
 10
12.0822767604
 20
-25.9643396169
 10
12.024422673
 20
-26.0009405485
 10
11.9949764885
 20
-26.0192726529
 10
11.9646962076
 20
-26.0377699624
 10
11.9336111237
 20
-26.0564619539
 10
11.9020322355
 20
-26.0750729912
 10
11.8699335497
 20
-26.0932634605
 10
11.8375061449
 20
-26.1107275266
 10
11.8046388975
 20
-26.1277139264
 10
11.7708177724
 20
-26.1447178413
 10
11.7355543746
 20
-26.1620498509
 10
11.6987442163
 20
-26.1796221517
 10
11.6604299285
 20
-26.1973230825
 10
11.6207629618
 20
-26.2150123455
 10
11.5797845208
 20
-26.2326281646
 10
11.5373701106
 20
-26.2501714393
 10
11.4934769059
 20
-26.2676130134
 10
11.4480523312
 20
-26.2849099113
 10
11.4009609932
 20
-26.3020279688
 10
11.3522394208
 20
-26.318888792
 10
11.3018719204
 20
-26.3354228294
 10
11.2496389
 20
-26.3515922288
 10
11.1954544612
 20
-26.3673034729
 10
11.1394044522
 20
-26.3824828263
 10
11.0815466519
 20
-26.3971050744
 10
11.0219079903
 20
-26.4108677312
 10
10.9602513456
 20
-26.4239432967
 10
10.8960034236
 20
-26.4370416047
 10
10.8287364338
 20
-26.4504288561
 10
10.7579821678
 20
-26.4636952681
 10
10.6833727176
 20
-26.4764050035
 10
10.6054819189
 20
-26.4881674016
 10
10.5249569356
 20
-26.4987174328
 10
10.4413314614
 20
-26.507774409
 10
10.3542674543
 20
-26.515107789
 10
10.263760912
 20
-26.5205306172
 10
10.1699464727
 20
-26.5237820924
  0
LINE
  5
314
100
AcDbEntity
  8
RACCORDO
100
AcDbLine
 62
250
  6
CONTINUOUS
 10
38.1614453308
 20
32.9073053418
 11
38.1707994268
 21
31.4864117141
  0
LINE
  5
315
100
AcDbEntity
  8
RACCORDO
100
AcDbLine
 62
250
  6
CONTINUOUS
 10
38.1707994268
 20
31.4864117141
 11
38.1785194184
 21
30.1297663991
  0
LINE
  5
316
100
AcDbEntity
  8
RACCORDO
100
AcDbLine
 62
250
  6
CONTINUOUS
 10
38.1785194184
 20
30.1297663991
 11
38.1843568556
 21
28.9135185657
  0
LINE
  5
317
100
AcDbEntity
  8
RACCORDO
100
AcDbLine
 62
250
  6
CONTINUOUS
 10
38.1843568556
 20
28.9135185657
 11
38.1896268392
 21
27.5679143357
  0
LINE
  5
318
100
AcDbEntity
  8
RACCORDO
100
AcDbLine
 62
250
  6
CONTINUOUS
 10
38.1896268392
 20
27.5679143357
 11
38.194101831
 21
26.0790966739
  0
LINE
  5
319
100
AcDbEntity
  8
RACCORDO
100
AcDbLine
 62
250
  6
CONTINUOUS
 10
38.194101831
 20
26.0790966739
 11
38.1976266742
 21
24.4318666492
  0
LINE
  5
31A
100
AcDbEntity
  8
RACCORDO
100
AcDbLine
 62
250
  6
CONTINUOUS
 10
38.1976266742
 20
24.4318666492
 11
38.2007882616
 21
22.1272905597
  0
LINE
  5
31B
100
AcDbEntity
  8
RACCORDO
100
AcDbLine
 62
250
  6
CONTINUOUS
 10
38.9778180834
 20
-37.0046534923
 11
38.9783836516
 21
-37.5101828
  0
LINE
  5
31C
100
AcDbEntity
  8
RACCORDO
100
AcDbLine
 62
250
  6
CONTINUOUS
 10
38.2007882616
 20
22.1272905597
 11
38.2037535976
 21
18.3774044481
  0
LINE
  5
31D
100
AcDbEntity
  8
RACCORDO
100
AcDbLine
 62
250
  6
CONTINUOUS
 10
38.2037535976
 20
18.3774044481
 11
38.2047372571
 21
13.2087731045
  0
LINE
  5
31E
100
AcDbEntity
  8
RACCORDO
100
AcDbLine
 62
250
  6
CONTINUOUS
 10
38.2046699234
 20
-14.0526106921
 11
38.2045949497
 21
-17.4668588415
  0
LINE
  5
31F
100
AcDbEntity
  8
RACCORDO
100
AcDbLine
 62
250
  6
CONTINUOUS
 10
38.2047372571
 20
13.2087731045
 11
38.2025309646
 21
-0.7636082972
  0
LWPOLYLINE
  5
320
100
AcDbEntity
  8
RACCORDO
100
AcDbPolyline
 62
250
  6
CONTINUOUS
 90
3
 70
0
 10
38.2025311491
 20
-0.7636082971
 10
38.2022723488
 20
-1.8171946609
 10
38.2046699234
 20
-14.0526106921
  0
LWPOLYLINE
  5
321
100
AcDbEntity
  8
RACCORDO
100
AcDbPolyline
 62
250
  6
CONTINUOUS
 90
3
 70
0
 10
38.2045949497
 20
-17.4668588415
 10
38.2034400613
 20
-20.4778649215
 10
38.2030882677
 20
-21.0357734539
  0
LINE
  5
322
100
AcDbEntity
  8
RACCORDO
100
AcDbLine
 62
250
  6
CONTINUOUS
 10
38.2030882677
 20
-21.0357734539
 11
38.2022749021
 21
-22.1111300429
  0
LINE
  5
323
100
AcDbEntity
  8
RACCORDO
100
AcDbLine
 62
250
  6
CONTINUOUS
 10
38.2022749021
 20
-22.1111300429
 11
38.2013297064
 21
-23.1335240311
  0
LINE
  5
324
100
AcDbEntity
  8
RACCORDO
100
AcDbLine
 62
250
  6
CONTINUOUS
 10
38.2013297064
 20
-23.1335240311
 11
38.2002748573
 21
-24.1059683585
  0
LINE
  5
325
100
AcDbEntity
  8
RACCORDO
100
AcDbLine
 62
250
  6
CONTINUOUS
 10
38.9783836516
 20
35.9824950473
 11
38.9779024411
 21
35.6021473852
  0
LINE
  5
326
100
AcDbEntity
  8
RACCORDO
100
AcDbLine
 62
250
  6
CONTINUOUS
 10
38.2002748573
 20
-24.1059683585
 11
38.1977115256
 21
-25.9109761541
  0
LINE
  5
327
100
AcDbEntity
  8
RACCORDO
100
AcDbLine
 62
250
  6
CONTINUOUS
 10
38.1977115256
 20
-25.9109761541
 11
38.1942637001
 21
-27.5434036849
  0
LINE
  5
328
100
AcDbEntity
  8
RACCORDO
100
AcDbLine
 62
250
  6
CONTINUOUS
 10
38.1942637001
 20
-27.5434036849
 11
38.1898950401
 21
-29.0182628648
  0
LINE
  5
329
100
AcDbEntity
  8
RACCORDO
100
AcDbLine
 62
250
  6
CONTINUOUS
 10
38.1462532545
 20
-36.38317163
 11
38.1453790827
 21
-36.6987987779
  0
LINE
  5
32A
100
AcDbEntity
  8
RACCORDO
100
AcDbLine
 62
250
  6
CONTINUOUS
 10
38.1898950401
 20
-29.0182628648
 11
38.1847501583
 21
-30.3507018621
  0
LINE
  5
32B
100
AcDbEntity
  8
RACCORDO
100
AcDbLine
 62
250
  6
CONTINUOUS
 10
38.1847501583
 20
-30.3507018621
 11
38.1790518183
 21
-31.5545292696
  0
LINE
  5
32C
100
AcDbEntity
  8
RACCORDO
100
AcDbLine
 62
250
  6
CONTINUOUS
 10
38.1790518183
 20
-31.5545292696
 11
38.1730410565
 21
-32.641679366
  0
LINE
  5
32D
100
AcDbEntity
  8
RACCORDO
100
AcDbLine
 62
250
  6
CONTINUOUS
 10
38.1730410565
 20
-32.641679366
 11
38.1638815416
 21
-34.0809767544
  0
LINE
  5
32E
100
AcDbEntity
  8
RACCORDO
100
AcDbLine
 62
250
  6
CONTINUOUS
 10
38.1638815416
 20
-34.0809767544
 11
38.1510602693
 21
-35.8779197684
  0
LWPOLYLINE
  5
32F
100
AcDbEntity
  8
RACCORDO
100
AcDbPolyline
 62
250
  6
CONTINUOUS
 90
6
 70
0
 10
38.1453790827
 20
-36.6987987779
 10
38.1440389052
 20
-36.8535494301
 10
38.1401357426
 20
-37.0149761499
 10
38.1336427142
 20
-37.185403652
 10
38.1260901924
 20
-37.3614422491
 10
38.1190803271
 20
-37.5419141956
  0
LINE
  5
330
100
AcDbEntity
  8
RACCORDO
100
AcDbLine
 62
250
  6
CONTINUOUS
 10
38.1510602693
 20
-35.8779197684
 11
38.1462532545
 21
-36.38317163
  0
LWPOLYLINE
  5
331
100
AcDbEntity
  8
RACCORDO
100
AcDbPolyline
 62
250
  6
CONTINUOUS
 90
3
 70
0
 10
-36.8680290948
 20
38.1507722781
 10
-36.7020037504
 20
38.1537094006
 10
-29.806667651
 20
38.2530813746
  0
LINE
  5
332
100
AcDbEntity
  8
RACCORDO
100
AcDbLine
 62
250
  6
CONTINUOUS
 10
-29.806667651
 20
38.2530813746
 11
-28.9731269745
 21
38.2638283472
  0
LWPOLYLINE
  5
333
100
AcDbEntity
  8
RACCORDO
100
AcDbPolyline
 62
250
  6
CONTINUOUS
 90
3
 70
0
 10
-39.9731413102
 20
36.0102713648
 10
-39.7593511255
 20
36.0133061914
 10
-39.6467529188
 20
36.0142230524
  0
LINE
  5
334
100
AcDbEntity
  8
RACCORDO
100
AcDbLine
 62
250
  6
CONTINUOUS
 10
-28.9731269745
 20
38.2638283472
 11
-28.0579412428
 21
38.2745055714
  0
LINE
  5
335
100
AcDbEntity
  8
RACCORDO
100
AcDbLine
 62
250
  6
CONTINUOUS
 10
-28.0579412428
 20
38.2745055714
 11
-27.395302297
 21
38.2814888398
  0
LINE
  5
336
100
AcDbEntity
  8
RACCORDO
100
AcDbLine
 62
250
  6
CONTINUOUS
 10
-27.395302297
 20
38.2814888398
 11
-26.6752123519
 21
38.2875694849
  0
LINE
  5
337
100
AcDbEntity
  8
RACCORDO
100
AcDbLine
 62
250
  6
CONTINUOUS
 10
-24.6213619475
 20
38.2978152506
 11
-23.7674098043
 21
38.3029595921
  0
LINE
  5
338
100
AcDbEntity
  8
RACCORDO
100
AcDbLine
 62
250
  6
CONTINUOUS
 10
-26.6752123519
 20
38.2875694849
 11
-25.8962834466
 21
38.2924830467
  0
LWPOLYLINE
  5
339
100
AcDbEntity
  8
RACCORDO
100
AcDbPolyline
 62
250
  6
CONTINUOUS
 90
3
 70
0
 10
-23.7674098043
 20
38.3029595921
 10
-23.3386568823
 20
38.3048181573
 10
-22.9118274225
 20
38.305319677
  0
LINE
  5
33A
100
AcDbEntity
  8
RACCORDO
100
AcDbLine
 62
250
  6
CONTINUOUS
 10
-25.8962834466
 20
38.2924830467
 11
-24.6213619475
 21
38.2978152506
  0
LINE
  5
33B
100
AcDbEntity
  8
RACCORDO
100
AcDbLine
 62
250
  6
CONTINUOUS
 10
14.1129848486
 20
38.2905715795
 11
20.4990817452
 21
38.3043898825
  0
LWPOLYLINE
  5
33C
100
AcDbEntity
  8
RACCORDO
100
AcDbPolyline
 62
250
  6
CONTINUOUS
 90
5
 70
0
 10
20.4990817452
 20
38.3043898825
 10
21.362681387
 20
38.3053622028
 10
21.7895279124
 20
38.3048818633
 10
22.2201371422
 20
38.3030269043
 10
23.0912009281
 20
38.297844748
  0
LINE
  5
33D
100
AcDbEntity
  8
RACCORDO
100
AcDbLine
 62
250
  6
CONTINUOUS
 10
-11.5666379979
 20
38.2891519023
 11
-3.2145774278
 21
38.2998657681
  0
LINE
  5
33E
100
AcDbEntity
  8
RACCORDO
100
AcDbLine
 62
250
  6
CONTINUOUS
 10
27.4716304754
 20
38.9700024412
 11
34.8997083372
 21
38.9766409863
  0
LINE
  5
33F
100
AcDbEntity
  8
RACCORDO
100
AcDbLine
 62
250
  6
CONTINUOUS
 10
35.3312790959
 20
38.9769836051
 11
35.9820055962
 21
38.9778942005
  0
LINE
  5
340
100
AcDbEntity
  8
RACCORDO
100
AcDbLine
 62
250
  6
CONTINUOUS
 10
12.1717755555
 20
38.2888680315
 11
14.1129848486
 21
38.2905715795
  0
LINE
  5
341
100
AcDbEntity
  8
RACCORDO
100
AcDbLine
 62
250
  6
CONTINUOUS
 10
-3.2145774278
 20
38.2998657681
 11
-1.2640101114
 21
38.30081849
  0
LINE
  5
342
100
AcDbEntity
  8
RACCORDO
100
AcDbLine
 62
250
  6
CONTINUOUS
 10
-13.6788395921
 20
38.2888609167
 11
-11.5666379979
 21
38.2891519023
  0
LINE
  5
343
100
AcDbEntity
  8
RACCORDO
100
AcDbLine
 62
250
  6
CONTINUOUS
 10
-1.2640101116
 20
38.3008185398
 11
0.7316573378
 21
38.3004497228
  0
LINE
  5
344
100
AcDbEntity
  8
RACCORDO
100
AcDbLine
 62
250
  6
CONTINUOUS
 10
10.0700857951
 20
38.2891343438
 11
12.1717755555
 21
38.2888680315
  0
LINE
  5
345
100
AcDbEntity
  8
RACCORDO
100
AcDbLine
 62
250
  6
CONTINUOUS
 10
0.7316573378
 20
38.3004497228
 11
2.6462752266
 21
38.2989961371
  0
LINE
  5
346
100
AcDbEntity
  8
RACCORDO
100
AcDbLine
 62
250
  6
CONTINUOUS
 10
-15.6296283115
 20
38.2905556871
 11
-13.6788395921
 21
38.2888609167
  0
LINE
  5
347
100
AcDbEntity
  8
RACCORDO
100
AcDbLine
 62
250
  6
CONTINUOUS
 10
6.9925285104
 20
38.2923245542
 11
10.0700857951
 21
38.2891343438
  0
LINE
  5
348
100
AcDbEntity
  8
RACCORDO
100
AcDbLine
 62
250
  6
CONTINUOUS
 10
-22.9118274225
 20
38.305319677
 11
-21.5864107626
 21
38.3037425192
  0
LINE
  5
349
100
AcDbEntity
  8
RACCORDO
100
AcDbLine
 62
250
  6
CONTINUOUS
 10
2.6462752266
 20
38.2989961371
 11
6.9925285104
 21
38.2923245542
  0
LINE
  5
34A
100
AcDbEntity
  8
RACCORDO
100
AcDbLine
 62
250
  6
CONTINUOUS
 10
-37.5096933489
 20
38.9778942005
 11
-28.6644158682
 21
38.9697451866
  0
LWPOLYLINE
  5
34B
100
AcDbEntity
  8
RACCORDO
100
AcDbPolyline
 62
250
  6
CONTINUOUS
 90
3
 70
0
 10
-21.5864107626
 20
38.3037425192
 10
-18.5531451426
 20
38.2967475778
 10
-15.6296283115
 20
38.2905556871
  0
LINE
  5
34C
100
AcDbEntity
  8
RACCORDO
100
AcDbLine
 62
250
  6
CONTINUOUS
 10
23.0912009281
 20
38.297844748
 11
24.0062224459
 21
38.2943509807
  0
LINE
  5
34D
100
AcDbEntity
  8
RACCORDO
100
AcDbLine
 62
250
  6
CONTINUOUS
 10
24.0062224459
 20
38.2943509807
 11
24.4545682908
 21
38.2922610059
  0
LINE
  5
34E
100
AcDbEntity
  8
RACCORDO
100
AcDbLine
 62
250
  6
CONTINUOUS
 10
24.4545682908
 20
38.2922610059
 11
25.3075359471
 21
38.2863207152
  0
LINE
  5
34F
100
AcDbEntity
  8
RACCORDO
100
AcDbLine
 62
250
  6
CONTINUOUS
 10
25.3075359471
 20
38.2863207152
 11
26.0968907065
 21
38.2791880714
  0
LINE
  5
350
100
AcDbEntity
  8
RACCORDO
100
AcDbLine
 62
250
  6
CONTINUOUS
 10
26.0968907065
 20
38.2791880714
 11
27.1589340274
 21
38.2673259309
  0
LINE
  5
351
100
AcDbEntity
  8
RACCORDO
100
AcDbLine
 62
250
  6
CONTINUOUS
 10
27.1589340274
 20
38.2673259309
 11
28.106478977
 21
38.2553865775
  0
LINE
  5
352
100
AcDbEntity
  8
RACCORDO
100
AcDbLine
 62
250
  6
CONTINUOUS
 10
34.8205580257
 20
38.1583095131
 11
35.1803115638
 21
38.1536499484
  0
LINE
  5
353
100
AcDbEntity
  8
RACCORDO
100
AcDbLine
 62
250
  6
CONTINUOUS
 10
34.5226517119
 20
38.1625071663
 11
34.8205580257
 21
38.1583095131
  0
LINE
  5
354
100
AcDbEntity
  8
RACCORDO
100
AcDbLine
 62
250
  6
CONTINUOUS
 10
28.106478977
 20
38.2553865775
 11
29.2218178384
 21
38.2401012651
  0
LWPOLYLINE
  5
355
100
AcDbEntity
  8
RACCORDO
100
AcDbPolyline
 62
250
  6
CONTINUOUS
 90
3
 70
0
 10
34.2029627686
 20
38.1670548395
 10
34.3118761096
 20
38.1654990045
 10
34.5226517119
 20
38.1625071663
  0
LINE
  5
356
100
AcDbEntity
  8
RACCORDO
100
AcDbLine
 62
250
  6
CONTINUOUS
 10
29.2218178384
 20
38.2401012651
 11
29.725120843
 21
38.2329598914
  0
LINE
  5
357
100
AcDbEntity
  8
RACCORDO
100
AcDbLine
 62
250
  6
CONTINUOUS
 10
33.8593395791
 20
38.1720003453
 11
34.2029627686
 21
38.1670548395
  0
LINE
  5
358
100
AcDbEntity
  8
RACCORDO
100
AcDbLine
 62
250
  6
CONTINUOUS
 10
29.725120843
 20
38.2329598914
 11
30.4208321025
 21
38.2228984967
  0
LINE
  5
359
100
AcDbEntity
  8
RACCORDO
100
AcDbLine
 62
250
  6
CONTINUOUS
 10
30.4208321025
 20
38.2228984967
 11
31.0536898139
 21
38.2135578705
  0
LINE
  5
35A
100
AcDbEntity
  8
RACCORDO
100
AcDbLine
 62
250
  6
CONTINUOUS
 10
31.0536898139
 20
38.2135578705
 11
33.8593395791
 21
38.1720003453
  0
LWPOLYLINE
  5
35B
100
AcDbEntity
  8
RACCORDO
100
AcDbPolyline
 62
250
  6
CONTINUOUS
 90
6
 70
0
 10
35.1803115638
 20
38.1536499484
 10
35.3458955397
 20
38.1506341992
 10
35.4269976722
 20
38.1486297316
 10
35.5091090361
 20
38.145883274
 10
35.591836571
 20
38.1419258346
 10
35.7587009558
 20
38.132803296
  0
LWPOLYLINE
  5
35C
100
AcDbEntity
  8
RACCORDO
100
AcDbPolyline
 62
250
  6
CONTINUOUS
 90
10
 70
0
 10
38.1190735497
 20
36.0142249815
 10
38.1245754145
 20
35.8887105779
 10
38.1295575233
 20
35.75684767
 10
38.1340288687
 20
35.6187213989
 10
38.13803933
 20
35.474962761
 10
38.1415238413
 20
35.3262805131
 10
38.1443076395
 20
35.1730500958
 10
38.1460853933
 20
35.0145878543
 10
38.1471552606
 20
34.8503079238
 10
38.1614453308
 20
32.9073053418
  0
LINE
  5
35D
100
AcDbEntity
  8
RACCORDO
100
AcDbLine
 62
250
  6
CONTINUOUS
 10
38.9747348383
 20
-10.9926216179
 11
38.9778180834
 21
-37.0046534923
  0
LINE
  5
35E
100
AcDbEntity
  8
0
100
AcDbLine
 62
7
  6
CONTINUOUS
 10
39.141822121
 20
1.8361561237
 11
39.141822121
 21
-3.3638438763
  0
LINE
  5
35F
100
AcDbEntity
  8
RACCORDO
100
AcDbLine
 62
7
  6
CONTINUOUS
 10
39.2361561237
 20
-37.7679552721
 11
39.2361561237
 21
-5.7638438763
  0
LINE
  5
360
100
AcDbEntity
  8
RACCORDO
100
AcDbLine
 62
7
  6
CONTINUOUS
 10
39.2361561237
 20
4.2361561237
 11
39.2361561237
 21
36.2402675194
  0
LINE
  5
361
100
AcDbEntity
  8
RACCORDO
100
AcDbLine
 62
250
  6
CONTINUOUS
 10
38.9747943278
 20
22.1263262333
 11
38.9747348383
 21
-10.9926216179
  0
LINE
  5
362
100
AcDbEntity
  8
RACCORDO
100
AcDbLine
 62
250
  6
CONTINUOUS
 10
38.9779024411
 20
35.6021473852
 11
38.9747943278
 21
22.1263262333
  0
LWPOLYLINE
  5
363
100
AcDbEntity
  8
RACCORDO
100
AcDbPolyline
 62
250
  6
CONTINUOUS
 90
22
 70
0
 10
38.9783836516
 20
-37.5101828
 10
38.9703965578
 20
-37.7296245248
 10
38.9461828269
 20
-37.9492008102
 10
38.9055742377
 20
-38.1676933483
 10
38.8483519824
 20
-38.3843213068
 10
38.7746113135
 20
-38.5973162549
 10
38.6851124576
 20
-38.8040496226
 10
38.5806213299
 20
-39.0029443912
 10
38.4615666131
 20
-39.1933490655
 10
38.3286426635
 20
-39.3741978779
 10
38.1827103863
 20
-39.5443881857
 10
38.0245214816
 20
-39.7031028589
 10
37.854649789
 20
-39.8497315824
 10
37.6737204414
 20
-39.9835920669
 10
37.4829568528
 20
-40.1036431984
 10
37.2839362903
 20
-40.2088849958
 10
37.0780558492
 20
-40.2986837335
 10
36.8662614722
 20
-40.3727262424
 10
36.6495589956
 20
-40.4306986282
 10
36.4290942389
 20
-40.4723029034
 10
36.2061624438
 20
-40.497304992
 10
35.9820055962
 20
-40.5055819532
  0
LWPOLYLINE
  5
364
100
AcDbEntity
  8
RACCORDO
100
AcDbPolyline
 62
250
  6
CONTINUOUS
 90
22
 70
0
 10
38.1190651661
 20
-37.5419108051
 10
38.1087980211
 20
-37.6937066271
 10
38.0877755071
 20
-37.8456000119
 10
38.0558608005
 20
-37.9966684219
 10
38.0129218071
 20
-38.1463950188
 10
37.9590510024
 20
-38.2936240732
 10
37.8947477511
 20
-38.4365908136
 10
37.8205200333
 20
-38.5742573031
 10
37.7366569493
 20
-38.7062300222
 10
37.6435794759
 20
-38.8318027149
 10
37.5418220984
 20
-38.95023582
 10
37.4318970366
 20
-39.0610324308
 10
37.3141529728
 20
-39.1638147859
 10
37.1889549435
 20
-39.2581221241
 10
37.0571341005
 20
-39.343297589
 10
36.919749845
 20
-39.4186930296
 10
36.7777073728
 20
-39.4838588021
 10
36.6316117258
 20
-39.5386099102
 10
36.4821096374
 20
-39.5827748315
 10
36.3299217804
 20
-39.6161338382
 10
36.1759326495
 20
-39.6385062323
 10
36.0211052043
 20
-39.6498168413
  0
LINE
  5
365
100
AcDbEntity
  8
RACCORDO
100
AcDbLine
 62
250
  6
CONTINUOUS
 10
-37.2821207055
 20
38.1329863577
 11
-37.114437172
 21
38.1422024687
  0
LWPOLYLINE
  5
366
100
AcDbEntity
  8
RACCORDO
100
AcDbPolyline
 62
250
  6
CONTINUOUS
 90
4
 70
0
 10
-37.114437172
 20
38.1422024687
 10
-37.031606095
 20
38.1461684242
 10
-36.9493434639
 20
38.1488594499
 10
-36.8680290948
 20
38.1507722781
  0
LWPOLYLINE
  5
367
100
AcDbEntity
  8
RACCORDO
100
AcDbPolyline
 62
250
  6
CONTINUOUS
 90
3
 70
0
 10
-37.5487927316
 20
38.1221282663
 10
-37.4581010478
 20
38.1254904367
 10
-37.2821207055
 20
38.1329863577
  0
LINE
  5
368
100
AcDbEntity
  8
RACCORDO
100
AcDbLine
 62
250
  6
CONTINUOUS
 10
27.1454828982
 20
38.9697471102
 11
27.4716304754
 21
38.9700024412
  0
LINE
  5
369
100
AcDbEntity
  8
RACCORDO
100
AcDbLine
 62
250
  6
CONTINUOUS
 10
34.8997083372
 20
38.9766409863
 11
35.3312790959
 21
38.9769836051
  0
LINE
  5
36A
100
AcDbEntity
  8
RACCORDO
100
AcDbLine
 62
250
  6
CONTINUOUS
 10
26.0871145313
 20
38.9690698312
 11
27.1454828982
 21
38.9697471102
  0
LINE
  5
36B
100
AcDbEntity
  8
RACCORDO
100
AcDbLine
 62
250
  6
CONTINUOUS
 10
25.3017013622
 20
38.9687266478
 11
26.0871145313
 21
38.9690698312
  0
LINE
  5
36C
100
AcDbEntity
  8
RACCORDO
100
AcDbLine
 62
250
  6
CONTINUOUS
 10
22.649726246
 20
38.9680594718
 11
25.3017013622
 21
38.9687266478
  0
LINE
  5
36D
100
AcDbEntity
  8
RACCORDO
100
AcDbLine
 62
7
  6
CONTINUOUS
 10
36.2402675194
 20
39.2361561237
 11
-37.7679552721
 21
39.2361561237
  0
LINE
  5
36E
100
AcDbEntity
  8
RACCORDO
100
AcDbLine
 62
250
  6
CONTINUOUS
 10
21.7924628455
 20
38.9680662501
 11
22.649726246
 21
38.9680594718
  0
LINE
  5
36F
100
AcDbEntity
  8
RACCORDO
100
AcDbLine
 62
250
  6
CONTINUOUS
 10
-16.2485556187
 20
38.9697801947
 11
16.4764086708
 21
38.9694641215
  0
LINE
  5
370
100
AcDbEntity
  8
RACCORDO
100
AcDbLine
 62
250
  6
CONTINUOUS
 10
-25.0469950024
 20
38.9682026555
 11
-16.2485556187
 21
38.9697801947
  0
LINE
  5
371
100
AcDbEntity
  8
RACCORDO
100
AcDbLine
 62
250
  6
CONTINUOUS
 10
16.4764086708
 20
38.9694641215
 11
21.7924628455
 21
38.9680662501
  0
LWPOLYLINE
  5
372
100
AcDbEntity
  8
RACCORDO
100
AcDbPolyline
 62
250
  6
CONTINUOUS
 90
4
 70
0
 10
-28.6644158682
 20
38.9697451866
 10
-28.3609111813
 20
38.9695233464
 10
-28.0465351195
 20
38.9693165387
 10
-25.0469950024
 20
38.9682026555
  0
LWPOLYLINE
  5
373
100
AcDbEntity
  8
RACCORDO
100
AcDbPolyline
 62
250
  6
CONTINUOUS
 90
22
 70
0
 10
35.9820055962
 20
38.9778942005
 10
36.2057897315
 20
38.9696449854
 10
36.4283630453
 20
38.9447249243
 10
36.6484893878
 20
38.9032543156
 10
36.8648843707
 20
38.8454623486
 10
37.0764015706
 20
38.7716441913
 10
37.2820244779
 20
38.6821170571
 10
37.4808058037
 20
38.5771973702
 10
37.6713622244
 20
38.4575137678
 10
37.852128517
 20
38.3240579686
 10
38.0218843918
 20
38.177866881
 10
38.1800096053
 20
38.0196173124
 10
38.3259414156
 20
37.8499052471
 10
38.458967169
 20
37.6694845012
 10
38.5781792324
 20
37.4795009533
 10
38.6827991139
 20
37.2811868042
 10
38.772248352
 20
37.0756871484
 10
38.8460602393
 20
36.8641271221
 10
38.9038139228
 20
36.6477978633
 10
38.9452233345
 20
36.4279484406
 10
38.9701119299
 20
36.2057698214
 10
38.9783836516
 20
35.9824950473
  0
LWPOLYLINE
  5
374
100
AcDbEntity
  8
RACCORDO
100
AcDbPolyline
 62
250
  6
CONTINUOUS
 90
3
 70
0
 10
35.7587009558
 20
38.132803296
 10
35.8446816423
 20
38.1289783656
 10
36.0211049917
 20
38.1221283158
  0
LWPOLYLINE
  5
375
100
AcDbEntity
  8
RACCORDO
100
AcDbPolyline
 62
250
  6
CONTINUOUS
 90
22
 70
0
 10
36.0211051699
 20
38.1221289666
 10
36.1756866316
 20
38.1108486982
 10
36.3294300603
 20
38.088538747
 10
36.4813779742
 20
38.0552743416
 10
36.6306645485
 20
38.0112387049
 10
36.7765675617
 20
37.9566452777
 10
36.9184314825
 20
37.891665025
 10
37.0556511736
 20
37.8164927988
 10
37.1873281688
 20
37.7315722517
 10
37.3124080936
 20
37.6375412067
 10
37.430066766
 20
37.5350587288
 10
37.5399430225
 20
37.4245827854
 10
37.6416913578
 20
37.3064765081
 10
37.734828558
 20
37.1811939141
 10
37.8187926423
 20
37.0495102624
 10
37.8930972041
 20
36.9122442255
 10
37.9573400356
 20
36.7701269698
 10
38.0112300807
 20
36.6238863315
 10
38.054518376
 20
36.4743637302
 10
38.0869918395
 20
36.3223516688
 10
38.1085193841
 20
36.168657867
 10
38.1190652359
 20
36.0142230856
  0
LWPOLYLINE
  5
376
100
AcDbEntity
  8
0
100
AcDbPolyline
 62
7
  6
CONTINUOUS
 90
13
 70
0
 43
0.3500000006
 10
-2.6924153395
 20
51.2281309662
 10
-2.978129591
 20
51.442415451
 10
-2.978129591
 20
52.0852734375
 10
-2.6924153395
 20
52.5138424072
 10
-2.0495582027
 20
52.5138424072
 10
-1.7638438096
 20
52.0852734375
 10
-1.7638438096
 20
51.442415451
 10
-2.0495582027
 20
51.2281309662
 10
-1.6209866838
 20
50.7995574646
 10
-1.6209866838
 20
49.9424149933
 10
-2.0495582027
 20
49.5138460236
 10
-2.6924153395
 20
49.5138460236
 10
-3.1209868584
 20
49.9424149933
  0
LWPOLYLINE
  5
377
100
AcDbEntity
  8
RACCORDO
100
AcDbPolyline
 62
250
  6
CONTINUOUS
 90
12
 70
0
 10
38.9783836503
 20
35.9824950473
 10
38.9658085763
 20
35.986201902
 10
38.9402310561
 20
35.989859838
 10
38.9019883626
 20
35.9934205837
 10
38.8515847751
 20
35.9968371492
 10
38.7896849306
 20
36.0000644461
 10
38.7171050589
 20
36.0030598814
 10
38.6348022202
 20
36.0057839206
 10
38.5438616842
 20
36.0082006078
 10
38.4454826203
 20
36.0102780391
 10
38.3409622844
 20
36.0119887851
 10
38.1190735497
 20
36.0142249815
  0
LWPOLYLINE
  5
378
100
AcDbEntity
  8
RACCORDO
100
AcDbPolyline
 62
250
  6
CONTINUOUS
 90
13
 70
0
 10
35.9820055962
 20
-40.5055819531
 10
35.986562668
 20
-40.4930515845
 10
35.9910599896
 20
-40.4675864402
 10
35.9954385882
 20
-40.4295205499
 10
35.9996410487
 20
-40.3793532284
 10
36.0036122653
 20
-40.3177425268
 10
36.0073001655
 20
-40.2454966002
 10
36.0106563931
 20
-40.1635631074
 10
36.0136369427
 20
-40.07301678
 10
36.0162027365
 20
-39.9750453254
 10
36.0183201367
 20
-39.8709338473
 10
36.0199613876
 20
-39.7620479886
 10
36.0211049788
 20
-39.6498160185
  0
LWPOLYLINE
  5
379
100
AcDbEntity
  8
RACCORDO
100
AcDbPolyline
 62
250
  6
CONTINUOUS
 90
10
 70
0
 10
38.9783440414
 20
-37.5101827932
 10
38.9657644961
 20
-37.513888144
 10
38.9401840257
 20
-37.5175446283
 10
38.9019399085
 20
-37.5211040363
 10
38.8515363928
 20
-37.5245194395
 10
38.7896380483
 20
-37.5277458082
 10
38.7170610046
 20
-37.5307406056
 10
38.6347621895
 20
-37.5334643493
 10
38.5438267123
 20
-37.5358811369
 10
38.4454535568
 20
-37.5379591174
  0
LWPOLYLINE
  5
37A
100
AcDbEntity
  8
RACCORDO
100
AcDbPolyline
 62
250
  6
CONTINUOUS
 90
13
 70
0
 10
35.9820055879
 20
38.9778512525
 10
35.9865632313
 20
38.9653229967
 10
35.9910610784
 20
38.9398604559
 10
35.9954401334
 20
38.9017976156
 10
35.99964296
 20
38.8516337362
 10
36.0036144345
 20
38.7900268042
 10
36.0073024692
 20
38.7177849017
 10
36.0106586967
 20
38.6358556068
 10
36.0136391045
 20
38.5453135648
 10
36.0162046119
 20
38.4473463918
 10
36.0183215831
 20
38.3432390979
 10
36.0199622688
 20
38.2343572311
 10
36.0211051699
 20
38.1221289666
  0
LINE
  5
37B
100
AcDbEntity
  8
RACCORDO
100
AcDbLine
 62
7
  6
CONTINUOUS
 10
-63.8778923533
 20
-40.7638438763
 11
-68.9935531901
 21
-40.4957434523
  0
LWPOLYLINE
  5
37C
100
AcDbEntity
  8
RACCORDO
100
AcDbPolyline
 62
250
  6
CONTINUOUS
 90
13
 70
0
 10
-68.8058234102
 20
-40.5055819531
 10
-68.9195745701
 20
-40.4930515845
 10
-69.0311469879
 20
-40.4675864402
 10
-69.1390771539
 20
-40.4295205499
 10
-69.241949334
 20
-40.3793532284
 10
-69.3384141405
 20
-40.3177425268
 10
-69.427206232
 20
-40.2454966002
 10
-69.5071609111
 20
-40.1635631074
 10
-69.5772294016
 20
-40.07301678
 10
-69.6364926058
 20
-39.9750453254
 10
-69.6841731604
 20
-39.8709338473
 10
-69.7196456328
 20
-39.7620479886
 10
-69.7424447255
 20
-39.6498160185
  0
LWPOLYLINE
  5
37D
100
AcDbEntity
  8
0
100
AcDbPolyline
 62
7
  6
CONTINUOUS
 90
10
 70
0
 43
0.3500000006
 10
-71.3064615326
 20
49.5138460236
 10
-70.4493190613
 20
50.3709884949
 10
-70.2350345764
 20
51.2281309662
 10
-70.2350345764
 20
52.0852734375
 10
-70.663608078
 20
52.5138424072
 10
-71.3064615326
 20
52.5138424072
 10
-71.7350350342
 20
52.0852734375
 10
-71.7350350342
 20
51.2281309662
 10
-71.3064615326
 20
50.7995574646
 10
-70.3778924103
 20
50.7995574646
  0
LWPOLYLINE
  5
37E
100
AcDbEntity
  8
RACCORDO
100
AcDbPolyline
 62
7
  6
CONTINUOUS
 90
8
 70
0
 10
-69.2024987335
 20
38.9348162381
 10
-69.3028908721
 20
38.9019266954
 10
-69.3992531556
 20
38.8586296926
 10
-69.4905101286
 20
38.8054084345
 10
-69.5756433026
 20
38.7428568966
 10
-69.6537025458
 20
38.6716731834
 10
-69.7238166857
 20
38.5926517288
 10
-69.7852032159
 20
38.5066744409
  0
LINE
  5
37F
100
AcDbEntity
  8
RACCORDO
100
AcDbLine
 62
250
  6
CONTINUOUS
 10
-69.6761607782
 20
-37.5396709055
 11
-69.7338812787
 21
-37.5419108051
  0
LINE
  5
380
100
AcDbEntity
  8
RACCORDO
100
AcDbLine
 62
250
  6
CONTINUOUS
 10
-68.7964820515
 20
-37.5101827932
 11
-69.6761607782
 21
-37.5396709055
  0
LINE
  5
381
100
AcDbEntity
  8
RACCORDO
100
AcDbLine
 62
250
  6
CONTINUOUS
 10
-68.7964841271
 20
-37.5101828
 11
-63.8778923533
 21
-37.7679552721
  0
LWPOLYLINE
  5
382
100
AcDbEntity
  8
RACCORDO
100
AcDbPolyline
 62
250
  6
CONTINUOUS
 90
6
 70
0
 10
-72.8110299223
 20
-23.0540888169
 10
-72.7465583997
 20
-23.0517382923
 10
-72.694486005
 20
-23.049444095
 10
-72.655038018
 20
-23.0472163371
 10
-72.6283851013
 20
-23.0450648286
 10
-72.6146425623
 20
-23.0429990352
  0
LINE
  5
383
100
AcDbEntity
  8
RACCORDO
100
AcDbLine
 62
250
  6
CONTINUOUS
 10
-72.9760022289
 20
-23.0589171551
 11
-72.8110299223
 21
-23.0540888169
  0
LINE
  5
384
100
AcDbEntity
  8
RACCORDO
100
AcDbLine
 62
250
  6
CONTINUOUS
 10
-73.1865511454
 20
-23.0638438748
 11
-72.9760022289
 21
-23.0589171551
  0
LINE
  5
385
100
AcDbEntity
  8
RACCORDO
100
AcDbLine
 62
250
  6
CONTINUOUS
 10
-73.3778923533
 20
-23.0638438763
 11
-73.1865583858
 21
-23.0638438763
  0
LWPOLYLINE
  5
386
100
AcDbEntity
  8
RACCORDO
100
AcDbPolyline
 62
7
  6
CONTINUOUS
 90
4
 70
0
 10
-69.7852032159
 20
38.5066744409
 10
-69.8371770289
 20
38.414700864
 10
-69.87915807
 20
38.3177574596
 10
-69.8846056673
 20
38.3027325443
  0
LINE
  5
387
100
AcDbEntity
  8
RACCORDO
100
AcDbLine
 62
7
  6
CONTINUOUS
 10
-73.014594461
 20
23.6790427439
 11
-73.1306866887
 21
23.5012905765
  0
LWPOLYLINE
  5
388
100
AcDbEntity
  8
RACCORDO
100
AcDbPolyline
 62
7
  6
CONTINUOUS
 90
3
 70
0
 10
-73.1729087765
 20
23.4427943506
 10
-73.0688636283
 20
23.5908431674
 10
-72.9694326236
 20
23.7527483389
  0
LINE
  5
389
100
AcDbEntity
  8
RACCORDO
100
AcDbLine
 62
7
  6
CONTINUOUS
 10
-73.1306866887
 20
23.5012905765
 11
-73.166051835
 21
23.4525512887
  0
LINE
  5
38A
100
AcDbEntity
  8
RACCORDO
100
AcDbLine
 62
7
  6
CONTINUOUS
 10
-73.1707952086
 20
23.445589491
 11
-73.1652562906
 21
23.4530722004
  0
LINE
  5
38B
100
AcDbEntity
  8
RACCORDO
100
AcDbLine
 62
7
  6
CONTINUOUS
 10
-73.1769789957
 20
23.4373717079
 11
-73.1706274236
 21
23.4458435907
  0
LINE
  5
38C
100
AcDbEntity
  8
RACCORDO
100
AcDbLine
 62
7
  6
CONTINUOUS
 10
-73.1769775949
 20
-24.9650584067
 11
-73.1726243
 21
-24.9708590528
  0
LINE
  5
38D
100
AcDbEntity
  8
RACCORDO
100
AcDbLine
 62
7
  6
CONTINUOUS
 10
-73.1653235312
 20
-24.981249118
 11
-73.1302031194
 21
-25.0296653317
  0
LWPOLYLINE
  5
38E
100
AcDbEntity
  8
RACCORDO
100
AcDbPolyline
 62
7
  6
CONTINUOUS
 90
3
 70
0
 10
-73.1726243
 20
-24.9708590528
 10
-73.068860978
 20
-25.118529484
 10
-72.9728811811
 20
-25.2744078257
  0
LINE
  5
38F
100
AcDbEntity
  8
RACCORDO
100
AcDbLine
 62
7
  6
CONTINUOUS
 10
-73.1302031194
 20
-25.0296653317
 11
-73.0137860105
 21
-25.208070929
  0
LINE
  5
390
100
AcDbEntity
  8
RACCORDO
100
AcDbLine
 62
7
  6
CONTINUOUS
 10
-73.0137860105
 20
-25.208070929
 11
-72.9080217215
 21
-25.3988096811
  0
LWPOLYLINE
  5
391
100
AcDbEntity
  8
0
100
AcDbPolyline
 62
7
  6
CONTINUOUS
 90
3
 70
0
 43
0.3500000006
 10
-68.6636074677
 20
49.7995571594
 10
-68.7350341187
 20
49.5852726746
 10
-68.8778919525
 20
49.2995570068
  0
LWPOLYLINE
  5
392
100
AcDbEntity
  8
SUPERFICI
100
AcDbPolyline
 62
7
  6
CONTINUOUS
 90
10
 70
0
 10
-69.8850560919
 20
38.301954657
 10
-69.9004833118
 20
38.2580788161
 10
-69.9445509455
 20
38.1307143535
 10
-69.9867930388
 20
38.0057920636
 10
-70.0271947406
 20
37.883711833
 10
-70.065918657
 20
37.7643123632
 10
-70.1030154719
 20
37.6477368258
 10
-70.1385054669
 20
37.534204066
 10
-70.1724980681
 20
37.4236252482
 10
-70.2360982259
 20
37.2119264704
  0
LWPOLYLINE
  5
393
100
AcDbEntity
  8
RACCORDO
100
AcDbPolyline
 62
250
  6
CONTINUOUS
 90
8
 70
0
 10
-72.9694326236
 20
23.7527483389
 10
-72.8824527953
 20
23.9165468326
 10
-72.804887354
 20
24.0875035139
 10
-72.7381673409
 20
24.2629775283
 10
-72.6825540457
 20
24.4422816824
 10
-72.6382652618
 20
24.6247137832
 10
-72.6054744334
 20
24.8095593877
 10
-72.5843099765
 20
24.9960946014
  0
LINE
  5
394
100
AcDbEntity
  8
RACCORDO
100
AcDbLine
 62
7
  6
CONTINUOUS
 10
-72.9081105916
 20
23.8709469589
 11
-73.014594461
 21
23.6790427439
  0
LWPOLYLINE
  5
395
100
AcDbEntity
  8
RACCORDO
100
AcDbPolyline
 62
250
  6
CONTINUOUS
 90
8
 70
0
 10
-72.9728811811
 20
-25.2744078257
 10
-72.8824477226
 20
-25.4442327083
 10
-72.8048811233
 20
-25.6151893235
 10
-72.7381599971
 20
-25.7906633691
 10
-72.68254564
 20
-25.9699676467
 10
-72.6382558514
 20
-26.1523999579
 10
-72.6054640811
 20
-26.3372458541
 10
-72.5842987498
 20
-26.5237814345
  0
LWPOLYLINE
  5
396
100
AcDbEntity
  8
RACCORDO
100
AcDbPolyline
 62
7
  6
CONTINUOUS
 90
6
 70
0
 10
-72.9080217215
 20
-25.3988096811
 10
-72.8145841029
 20
-25.6010535406
 10
-72.7348146519
 20
-25.8144885903
 10
-72.6699780501
 20
-26.0394072183
 10
-72.6218053027
 20
-26.2752218856
 10
-72.5921932345
 20
-26.5203473077
  0
LWPOLYLINE
  5
397
100
AcDbEntity
  8
RACCORDO
100
AcDbPolyline
 62
7
  6
CONTINUOUS
 90
13
 70
0
 10
-69.8846037242
 20
-39.8304319884
 10
-69.8791603142
 20
-39.8454450601
 10
-69.8371792716
 20
-39.9423884636
 10
-69.7852054556
 20
-40.0343620415
 10
-69.7238189205
 20
-40.1203393319
 10
-69.6537047734
 20
-40.1993607905
 10
-69.5756455207
 20
-40.2705445087
 10
-69.4905123352
 20
-40.333096052
 10
-69.3992553485
 20
-40.3863173158
 10
-69.302893048
 20
-40.4296143247
 10
-69.2025008887
 20
-40.4625038731
 10
-69.0991992874
 20
-40.4846189124
 10
-68.994141135
 20
-40.4957126394
  0
LINE
  5
398
100
AcDbEntity
  8
RACCORDO
100
AcDbLine
 62
7
  6
CONTINUOUS
 10
-69.8848040807
 20
-39.8298264761
 11
-69.8846672256
 21
-39.830252333
  0
LINE
  5
399
100
AcDbEntity
  8
SUPERFICI
100
AcDbLine
 62
7
  6
CONTINUOUS
 10
-70.5254489209
 20
36.1730197368
 11
-70.7253046535
 21
35.4092311183
  0
LINE
  5
39A
100
AcDbEntity
  8
RACCORDO
100
AcDbLine
 62
7
  6
CONTINUOUS
 10
-71.1159557587
 20
34.1528875671
 11
-70.8785643964
 21
35.0459785597
  0
LINE
  5
39B
100
AcDbEntity
  8
SUPERFICI
100
AcDbLine
 62
7
  6
CONTINUOUS
 10
-70.4553834713
 20
36.435009533
 11
-70.5254489209
 21
36.1730197368
  0
LWPOLYLINE
  5
39C
100
AcDbEntity
  8
SUPERFICI
100
AcDbPolyline
 62
7
  6
CONTINUOUS
 90
4
 70
0
 10
-70.8374724756
 20
35.1943334088
 10
-70.951203897
 20
34.7796553789
 10
-71.0558550511
 20
34.3853165625
 10
-71.1159557587
 20
34.1528875671
  0
LINE
  5
39D
100
AcDbEntity
  8
SUPERFICI
100
AcDbLine
 62
7
  6
CONTINUOUS
 10
-70.3955605108
 20
36.6540195251
 11
-70.4553834713
 21
36.435009533
  0
LINE
  5
39E
100
AcDbEntity
  8
SUPERFICI
100
AcDbLine
 62
7
  6
CONTINUOUS
 10
-70.3475279889
 20
36.826090466
 11
-70.3955605108
 21
36.6540195251
  0
LINE
  5
39F
100
AcDbEntity
  8
SUPERFICI
100
AcDbLine
 62
7
  6
CONTINUOUS
 10
-70.7128310828
 20
35.6336109726
 11
-70.8377309808
 21
35.1934063352
  0
LINE
  5
3A0
100
AcDbEntity
  8
SUPERFICI
100
AcDbLine
 62
7
  6
CONTINUOUS
 10
-70.2943847106
 20
37.0124550525
 11
-70.3475279889
 21
36.826090466
  0
LINE
  5
3A1
100
AcDbEntity
  8
SUPERFICI
100
AcDbLine
 62
7
  6
CONTINUOUS
 10
-70.5771885714
 20
36.0952381761
 11
-70.7130709672
 21
35.6327798861
  0
LWPOLYLINE
  5
3A2
100
AcDbEntity
  8
RACCORDO
100
AcDbPolyline
 62
7
  6
CONTINUOUS
 90
3
 70
0
 10
-70.8785643964
 20
35.0459785597
 10
-70.4003360602
 20
36.6734396978
 10
-70.3337714503
 20
36.874614686
  0
LINE
  5
3A3
100
AcDbEntity
  8
SUPERFICI
100
AcDbLine
 62
7
  6
CONTINUOUS
 10
-70.2360982259
 20
37.2119264704
 11
-70.2943847106
 21
37.0124550525
  0
LINE
  5
3A4
100
AcDbEntity
  8
SUPERFICI
100
AcDbLine
 62
7
  6
CONTINUOUS
 10
-70.4291013058
 20
36.5815058142
 11
-70.5774073554
 21
36.0945065245
  0
LINE
  5
3A5
100
AcDbEntity
  8
RACCORDO
100
AcDbLine
 62
7
  6
CONTINUOUS
 10
-69.884592624
 20
38.3026966032
 11
-69.8847789087
 21
38.3020870404
  0
LINE
  5
3A6
100
AcDbEntity
  8
SUPERFICI
100
AcDbLine
 62
7
  6
CONTINUOUS
 10
-70.3087143188
 20
36.9624829362
 11
-70.4292944415
 21
36.5808828858
  0
LWPOLYLINE
  5
3A7
100
AcDbEntity
  8
SUPERFICI
100
AcDbPolyline
 62
7
  6
CONTINUOUS
 90
9
 70
0
 10
-70.1725120948
 20
-38.9512670015
 10
-70.1385189174
 20
-39.0618484188
 10
-70.1030282843
 20
-39.1753839453
 10
-70.0659307291
 20
-39.2919625288
 10
-70.0272059639
 20
-39.4113653192
 10
-69.9868033045
 20
-39.5334491199
 10
-69.9445601115
 20
-39.6583753007
 10
-69.9004912449
 20
-39.7857439119
 10
-69.8850053189
 20
-39.8297862021
  0
LINE
  5
3A8
100
AcDbEntity
  8
SUPERFICI
100
AcDbLine
 62
7
  6
CONTINUOUS
 10
-70.236113233
 20
-38.7395635346
 11
-70.1725120948
 21
-38.9512670015
  0
LWPOLYLINE
  5
3A9
100
AcDbEntity
  8
SUPERFICI
100
AcDbPolyline
 62
7
  6
CONTINUOUS
 90
4
 70
0
 10
-70.7128314266
 20
-37.1612975341
 10
-70.5771887422
 20
-37.6229253573
 10
-70.4291012742
 20
-38.1091936687
 10
-70.3087142895
 20
-38.4901707699
  0
LWPOLYLINE
  5
3AA
100
AcDbEntity
  8
RACCORDO
100
AcDbPolyline
 62
7
  6
CONTINUOUS
 90
3
 70
0
 10
-70.8785643511
 20
-36.5736664768
 10
-70.4003360301
 20
-38.201127547
 10
-70.3337714772
 20
-38.4023023621
  0
LINE
  5
3AB
100
AcDbEntity
  8
SUPERFICI
100
AcDbLine
 62
7
  6
CONTINUOUS
 10
-70.2944006188
 20
-38.540087656
 11
-70.236113233
 21
-38.7395635346
  0
LINE
  5
3AC
100
AcDbEntity
  8
SUPERFICI
100
AcDbLine
 62
7
  6
CONTINUOUS
 10
-70.3475445748
 20
-38.3537193926
 11
-70.2944006188
 21
-38.540087656
  0
LINE
  5
3AD
100
AcDbEntity
  8
SUPERFICI
100
AcDbLine
 62
7
  6
CONTINUOUS
 10
-70.3955765856
 20
-38.1816491222
 11
-70.3475445748
 21
-38.3537193926
  0
LINE
  5
3AE
100
AcDbEntity
  8
SUPERFICI
100
AcDbLine
 62
7
  6
CONTINUOUS
 10
-70.4554007261
 20
-37.96263339
 11
-70.3955765856
 21
-38.1816491222
  0
LINE
  5
3AF
100
AcDbEntity
  8
RACCORDO
100
AcDbLine
 62
7
  6
CONTINUOUS
 10
-71.115955782
 20
-35.6805752285
 11
-70.8785643511
 21
-36.5736664768
  0
LINE
  5
3B0
100
AcDbEntity
  8
SUPERFICI
100
AcDbLine
 62
7
  6
CONTINUOUS
 10
-70.5367070346
 20
-37.6582204262
 11
-70.4554007261
 21
-37.96263339
  0
LINE
  5
3B1
100
AcDbEntity
  8
SUPERFICI
100
AcDbLine
 62
7
  6
CONTINUOUS
 10
-70.6644764934
 20
-37.1705118794
 11
-70.5367070346
 21
-37.6582204262
  0
LWPOLYLINE
  5
3B2
100
AcDbEntity
  8
SUPERFICI
100
AcDbPolyline
 62
7
  6
CONTINUOUS
 90
3
 70
0
 10
-70.7302423938
 20
-36.9180911017
 10
-70.6886865385
 20
-37.0774380914
 10
-70.6644764934
 20
-37.1705118794
  0
LWPOLYLINE
  5
3B3
100
AcDbEntity
  8
SUPERFICI
100
AcDbPolyline
 62
7
  6
CONTINUOUS
 90
5
 70
0
 10
-71.115955782
 20
-35.6805752285
 10
-71.0558557779
 20
-35.9130015315
 10
-70.9512045272
 20
-36.3073407948
 10
-70.8374729749
 20
-36.7220193709
 10
-70.7128314266
 20
-37.1612975341
  0
LWPOLYLINE
  5
3B4
100
AcDbEntity
  8
RACCORDO
100
AcDbPolyline
 62
7
  6
CONTINUOUS
 90
5
 70
0
 10
-72.217308218
 20
28.5495481693
 10
-71.9820797932
 20
30.0775254159
 10
-71.6717712082
 20
31.7363148336
 10
-71.3000665683
 20
33.4106326224
 10
-71.1159557587
 20
34.1528875671
  0
LWPOLYLINE
  5
3B5
100
AcDbEntity
  8
0
100
AcDbPolyline
 62
7
  6
CONTINUOUS
 90
13
 70
0
 43
0.3500000006
 10
-83.8421809387
 20
-2.6924148102
 10
-84.0564654236
 20
-2.9781293449
 10
-84.6993188782
 20
-2.9781293449
 10
-85.1278878479
 20
-2.6924148102
 10
-85.1278878479
 20
-2.0495579567
 10
-84.6993188782
 20
-1.7638434219
 10
-84.0564654236
 20
-1.7638434219
 10
-83.8421809387
 20
-2.0495579567
 10
-83.4136029053
 20
-1.620986721
 10
-82.5564649658
 20
-1.620986721
 10
-82.1278959961
 20
-2.0495579567
 10
-82.1278959961
 20
-2.6924148102
 10
-82.5564649658
 20
-3.1209871788
  0
LWPOLYLINE
  5
3B6
100
AcDbEntity
  8
RACCORDO
100
AcDbPolyline
 62
7
  6
CONTINUOUS
 90
5
 70
0
 10
-72.2173082071
 20
-30.077236001
 10
-71.9820797707
 20
-31.6052133013
 10
-71.6717711697
 20
-33.2640027749
 10
-71.3000665202
 20
-34.9383205751
 10
-71.115955782
 20
-35.6805752285
  0
LINE
  5
3B7
100
AcDbEntity
  8
SUPERFICI
100
AcDbLine
 62
7
  6
CONTINUOUS
 10
-72.1857696359
 20
-30.2998208311
 11
-72.1839714182
 21
-30.3123025572
  0
LINE
  5
3B8
100
AcDbEntity
  8
SUPERFICI
100
AcDbLine
 62
7
  6
CONTINUOUS
 10
-72.4540035907
 20
-28.1484803827
 11
-72.4235226551
 21
-28.4331877376
  0
LINE
  5
3B9
100
AcDbEntity
  8
RACCORDO
100
AcDbLine
 62
7
  6
CONTINUOUS
 10
-72.5922666106
 20
-26.5194260419
 11
-72.5891065183
 21
-26.5632103157
  0
LWPOLYLINE
  5
3BA
100
AcDbEntity
  8
SUPERFICI
100
AcDbPolyline
 62
7
  6
CONTINUOUS
 90
8
 70
0
 10
-72.5791098599
 20
-26.7129591966
 10
-72.564360536
 20
-26.9189920932
 10
-72.548988916
 20
-27.1186582056
 10
-72.5330147918
 20
-27.3131652221
 10
-72.5165573087
 20
-27.5024345348
 10
-72.5002596705
 20
-27.6807462259
 10
-72.4845641737
 20
-27.8451907156
 10
-72.4540035907
 20
-28.1484803827
  0
LINE
  5
3BB
100
AcDbEntity
  8
SUPERFICI
100
AcDbLine
 62
7
  6
CONTINUOUS
 10
-72.5891093532
 20
-26.5633084826
 11
-72.5791098567
 21
-26.7129592426
  0
LINE
  5
3BC
100
AcDbEntity
  8
RACCORDO
100
AcDbLine
 62
7
  6
CONTINUOUS
 10
-72.5891100854
 20
-26.5631512697
 11
-72.5891057299
 21
-26.5632175539
  0
LWPOLYLINE
  5
3BD
100
AcDbEntity
  8
RACCORDO
100
AcDbPolyline
 62
250
  6
CONTINUOUS
 90
7
 70
0
 10
-72.5865179716
 20
-26.4504288561
 10
-72.5846746749
 20
-26.4881674016
 10
-72.5842808665
 20
-26.4987174328
 10
-72.5840547833
 20
-26.507774409
 10
-72.5839863948
 20
-26.515107789
 10
-72.5840644852
 20
-26.5205306172
 10
-72.5843067829
 20
-26.5237820924
  0
LINE
  5
3BE
100
AcDbEntity
  8
RACCORDO
100
AcDbLine
 62
250
  6
CONTINUOUS
 10
-73.1774504105
 20
-24.9267652984
 11
-73.1769642598
 21
-24.9464718896
  0
LWPOLYLINE
  5
3BF
100
AcDbEntity
  8
RACCORDO
100
AcDbPolyline
 62
250
  6
CONTINUOUS
 90
5
 70
0
 10
-72.5848656066
 20
24.9559732278
 10
-72.5866802042
 20
24.9204092937
 10
-72.5874665034
 20
24.9022258708
 10
-72.5880549286
 20
24.883954592
 10
-72.5890101952
 20
24.8433333031
  0
LINE
  5
3C0
100
AcDbEntity
  8
RACCORDO
100
AcDbLine
 62
7
  6
CONTINUOUS
 10
-72.5891062813
 20
25.0355252508
 11
-72.5891107579
 21
25.0354571635
  0
LINE
  5
3C1
100
AcDbEntity
  8
SUPERFICI
100
AcDbLine
 62
7
  6
CONTINUOUS
 10
-72.5791063475
 20
25.185322475
 11
-72.5891094178
 21
25.0356197336
  0
LWPOLYLINE
  5
3C2
100
AcDbEntity
  8
RACCORDO
100
AcDbPolyline
 62
7
  6
CONTINUOUS
 90
7
 70
0
 10
-72.5891065198
 20
25.0355225314
 10
-72.5922732891
 20
24.9916543243
 10
-72.6220856288
 20
24.7458163993
 10
-72.6705082645
 20
24.509571792
 10
-72.7355735196
 20
24.2845114708
 10
-72.8154910386
 20
24.0711965132
 10
-72.9089573395
 20
23.8692808407
  0
LWPOLYLINE
  5
3C3
100
AcDbEntity
  8
SUPERFICI
100
AcDbPolyline
 62
7
  6
CONTINUOUS
 90
6
 70
0
 10
-72.5002492974
 20
26.1531693884
 10
-72.5165484101
 20
25.9748464712
 10
-72.5330074868
 20
25.7855638075
 10
-72.5489830674
 20
25.5910439143
 10
-72.5643559179
 20
25.3913664591
 10
-72.5791063475
 20
25.185322475
  0
LINE
  5
3C4
100
AcDbEntity
  8
SUPERFICI
100
AcDbLine
 62
7
  6
CONTINUOUS
 10
-72.4692418796
 20
26.4721016243
 11
-72.5002492974
 21
26.1531693884
  0
LINE
  5
3C5
100
AcDbEntity
  8
SUPERFICI
100
AcDbLine
 62
7
  6
CONTINUOUS
 10
-72.4386780365
 20
26.7658814898
 11
-72.4692418796
 21
26.4721016243
  0
LINE
  5
3C6
100
AcDbEntity
  8
SUPERFICI
100
AcDbLine
 62
7
  6
CONTINUOUS
 10
-72.4086006077
 20
27.0396509497
 11
-72.4386780365
 21
26.7658814898
  0
LINE
  5
3C7
100
AcDbEntity
  8
SUPERFICI
100
AcDbLine
 62
7
  6
CONTINUOUS
 10
-72.380013053
 20
27.2884236223
 11
-72.4086006077
 21
27.0396509497
  0
LINE
  5
3C8
100
AcDbEntity
  8
SUPERFICI
100
AcDbLine
 62
7
  6
CONTINUOUS
 10
-72.3388224984
 20
27.6301757469
 11
-72.380013053
 21
27.2884236223
  0
LINE
  5
3C9
100
AcDbEntity
  8
SUPERFICI
100
AcDbLine
 62
7
  6
CONTINUOUS
 10
-72.3000941622
 20
27.9361952865
 11
-72.3388224984
 21
27.6301757469
  0
LINE
  5
3CA
100
AcDbEntity
  8
SUPERFICI
100
AcDbLine
 62
7
  6
CONTINUOUS
 10
-72.2648817563
 20
28.2034842522
 11
-72.3000941622
 21
27.9361952865
  0
LINE
  5
3CB
100
AcDbEntity
  8
SUPERFICI
100
AcDbLine
 62
7
  6
CONTINUOUS
 10
-72.2241491872
 20
28.501331227
 11
-72.2648817563
 21
28.2034842522
  0
LINE
  5
3CC
100
AcDbEntity
  8
SUPERFICI
100
AcDbLine
 62
7
  6
CONTINUOUS
 10
-72.1869956449
 20
28.7635604782
 11
-72.1832233284
 21
28.7898032866
  0
LINE
  5
3CD
100
AcDbEntity
  8
SUPERFICI
100
AcDbLine
 62
7
  6
CONTINUOUS
 10
-72.1857700658
 20
28.7721300924
 11
-72.2241491872
 21
28.501331227
  0
LWPOLYLINE
  5
3CE
100
AcDbEntity
  8
RACCORDO
100
AcDbPolyline
 62
250
  6
CONTINUOUS
 90
16
 70
0
 10
-69.8847789087
 20
38.3020870404
 10
-69.8850412029
 20
38.3003495369
 10
-69.8846778249
 20
38.297844748
 10
-69.8834155214
 20
38.2960229267
 10
-69.8816814838
 20
38.2943509807
 10
-69.879928328
 20
38.2922610059
 10
-69.8784179088
 20
38.2895038979
 10
-69.8769814293
 20
38.2863207152
 10
-69.8752854735
 20
38.2828851625
 10
-69.8731143383
 20
38.2791880714
 10
-69.8704090688
 20
38.275250668
 10
-69.8672713498
 20
38.2712833911
 10
-69.8638732535
 20
38.2673259309
 10
-69.8603698096
 20
38.2633213235
 10
-69.8567652045
 20
38.2593402157
 10
-69.8494201732
 20
38.2514521236
  0
LINE
  5
3CF
100
AcDbEntity
  8
SUPERFICI
100
AcDbLine
 62
7
  6
CONTINUOUS
 10
-72.2241479035
 20
-30.0290281898
 11
-72.1857696359
 21
-30.2998208311
  0
LINE
  5
3D0
100
AcDbEntity
  8
SUPERFICI
100
AcDbLine
 62
7
  6
CONTINUOUS
 10
-72.2649031668
 20
-29.7310123666
 11
-72.2241479035
 21
-30.0290281898
  0
LINE
  5
3D1
100
AcDbEntity
  8
SUPERFICI
100
AcDbLine
 62
7
  6
CONTINUOUS
 10
-72.3001148923
 20
-29.4637227695
 11
-72.2649031668
 21
-29.7310123666
  0
LINE
  5
3D2
100
AcDbEntity
  8
SUPERFICI
100
AcDbLine
 62
7
  6
CONTINUOUS
 10
-72.338842009
 20
-29.1577058175
 11
-72.3001148923
 21
-29.4637227695
  0
LINE
  5
3D3
100
AcDbEntity
  8
SUPERFICI
100
AcDbLine
 62
7
  6
CONTINUOUS
 10
-72.3800305886
 20
-28.8159618723
 11
-72.338842009
 21
-29.1577058175
  0
LWPOLYLINE
  5
3D4
100
AcDbEntity
  8
SUPERFICI
100
AcDbPolyline
 62
7
  6
CONTINUOUS
 90
3
 70
0
 10
-72.4235226551
 20
-28.4331877376
 10
-72.4086166643
 20
-28.5671960089
 10
-72.3800305886
 20
-28.8159618723
  0
LINE
  5
3D5
100
AcDbEntity
  8
RACCORDO
100
AcDbLine
 62
250
  6
CONTINUOUS
 10
-72.5984691797
 20
-25.6851728339
 11
-72.592433921
 21
-25.9092084723
  0
LWPOLYLINE
  5
3D6
100
AcDbEntity
  8
RACCORDO
100
AcDbPolyline
 62
250
  6
CONTINUOUS
 90
6
 70
0
 10
-72.5888022483
 20
-26.3824828263
 10
-72.5884644936
 20
-26.3971050744
 10
-72.5880750349
 20
-26.4108677312
 10
-72.5876358135
 20
-26.4239432967
 10
-72.5871200554
 20
-26.4370416047
 10
-72.5865179716
 20
-26.4504288561
  0
LINE
  5
3D7
100
AcDbEntity
  8
RACCORDO
100
AcDbLine
 62
250
  6
CONTINUOUS
 10
-72.6020007235
 20
-25.5224504984
 11
-72.5984691797
 21
-25.6851728339
  0
LINE
  5
3D8
100
AcDbEntity
  8
RACCORDO
100
AcDbLine
 62
250
  6
CONTINUOUS
 10
-72.592433921
 20
-25.9092084723
 11
-72.591283212
 21
-25.9643396169
  0
LINE
  5
3D9
100
AcDbEntity
  8
RACCORDO
100
AcDbLine
 62
250
  6
CONTINUOUS
 10
-73.1779379342
 20
-24.9018178463
 11
-73.1774504105
 21
-24.9267652984
  0
LINE
  5
3DA
100
AcDbEntity
  8
RACCORDO
100
AcDbLine
 62
250
  6
CONTINUOUS
 10
-72.5893168438
 20
-26.3515922288
 11
-72.5888022483
 21
-26.3824828263
  0
LWPOLYLINE
  5
3DB
100
AcDbEntity
  8
RACCORDO
100
AcDbPolyline
 62
250
  6
CONTINUOUS
 90
6
 70
0
 10
-73.1769642598
 20
-24.9464718896
 10
-73.1767968587
 20
-24.95640983
 10
-73.1767736091
 20
-24.9601460967
 10
-73.1767981043
 20
-24.9629133196
 10
-73.176866621
 20
-24.9645916921
 10
-73.1769791392
 20
-24.9650595685
  0
LINE
  5
3DC
100
AcDbEntity
  8
RACCORDO
100
AcDbLine
 62
250
  6
CONTINUOUS
 10
-72.6054479143
 20
-25.3139933536
 11
-72.6020007235
 21
-25.5224504984
  0
LINE
  5
3DD
100
AcDbEntity
  8
RACCORDO
100
AcDbLine
 62
250
  6
CONTINUOUS
 10
-72.591283212
 20
-25.9643396169
 11
-72.5907146716
 21
-26.0009405485
  0
LINE
  5
3DE
100
AcDbEntity
  8
RACCORDO
100
AcDbLine
 62
250
  6
CONTINUOUS
 10
-73.1782845138
 20
-24.8738344954
 11
-73.1779379342
 21
-24.9018178463
  0
LINE
  5
3DF
100
AcDbEntity
  8
RACCORDO
100
AcDbLine
 62
250
  6
CONTINUOUS
 10
-72.6086053461
 20
-25.0477463388
 11
-72.6054479143
 21
-25.3139933536
  0
LINE
  5
3E0
100
AcDbEntity
  8
RACCORDO
100
AcDbLine
 62
250
  6
CONTINUOUS
 10
-73.1831513862
 20
-24.3446400789
 11
-73.1790192788
 21
-24.6615701786
  0
LINE
  5
3E1
100
AcDbEntity
  8
RACCORDO
100
AcDbLine
 62
250
  6
CONTINUOUS
 10
-72.5898531737
 20
-26.3020279688
 11
-72.5893168438
 21
-26.3515922288
  0
LINE
  5
3E2
100
AcDbEntity
  8
RACCORDO
100
AcDbLine
 62
250
  6
CONTINUOUS
 10
-72.5907146716
 20
-26.0009405485
 11
-72.5903418354
 21
-26.0377699624
  0
LINE
  5
3E3
100
AcDbEntity
  8
RACCORDO
100
AcDbLine
 62
250
  6
CONTINUOUS
 10
-73.1790192788
 20
-24.6615701786
 11
-73.178829138
 21
-24.6873499406
  0
LINE
  5
3E4
100
AcDbEntity
  8
RACCORDO
100
AcDbLine
 62
250
  6
CONTINUOUS
 10
-72.6116342832
 20
-24.6229797487
 11
-72.6086053461
 21
-25.0477463388
  0
LINE
  5
3E5
100
AcDbEntity
  8
RACCORDO
100
AcDbLine
 62
250
  6
CONTINUOUS
 10
-73.1849574668
 20
-24.0721943636
 11
-73.1831513862
 21
-24.3446400789
  0
LINE
  5
3E6
100
AcDbEntity
  8
RACCORDO
100
AcDbLine
 62
250
  6
CONTINUOUS
 10
-73.1786127522
 20
-24.8239582517
 11
-73.1782845138
 21
-24.8738344954
  0
LINE
  5
3E7
100
AcDbEntity
  8
RACCORDO
100
AcDbLine
 62
250
  6
CONTINUOUS
 10
-72.6199017545
 20
-22.1116407885
 11
-72.6130423677
 21
-23.3564117753
  0
LINE
  5
3E8
100
AcDbEntity
  8
RACCORDO
100
AcDbLine
 62
250
  6
CONTINUOUS
 10
-72.59021484
 20
-26.2326281646
 11
-72.5898531737
 21
-26.3020279688
  0
LWPOLYLINE
  5
3E9
100
AcDbEntity
  8
RACCORDO
100
AcDbPolyline
 62
250
  6
CONTINUOUS
 90
3
 70
0
 10
-72.626974433
 20
-20.1356323485
 10
-72.6238810262
 20
-21.142311466
 10
-72.6199017545
 20
-22.1116407885
  0
LINE
  5
3EA
100
AcDbEntity
  8
RACCORDO
100
AcDbLine
 62
250
  6
CONTINUOUS
 10
-72.5903418354
 20
-26.0377699624
 11
-72.5901962947
 21
-26.0750729912
  0
LINE
  5
3EB
100
AcDbEntity
  8
RACCORDO
100
AcDbLine
 62
250
  6
CONTINUOUS
 10
-72.6316950672
 20
-18.0104201025
 11
-72.626974433
 21
-20.1356323485
  0
LINE
  5
3EC
100
AcDbEntity
  8
RACCORDO
100
AcDbLine
 62
250
  6
CONTINUOUS
 10
-72.6352969978
 20
-15.7463688424
 11
-72.6316950672
 21
-18.0104201025
  0
LINE
  5
3ED
100
AcDbEntity
  8
RACCORDO
100
AcDbLine
 62
250
  6
CONTINUOUS
 10
-72.5903288927
 20
24.6467375062
 11
-72.5901209046
 21
24.5683309726
  0
LINE
  5
3EE
100
AcDbEntity
  8
RACCORDO
100
AcDbLine
 62
250
  6
CONTINUOUS
 10
-73.1889994502
 20
-21.1534318771
 11
-73.1859368394
 21
-23.3038491983
  0
LINE
  5
3EF
100
AcDbEntity
  8
RACCORDO
100
AcDbLine
 62
250
  6
CONTINUOUS
 10
-72.6522615166
 20
-0.7636422218
 11
-72.6352969978
 21
-15.7463688424
  0
LINE
  5
3F0
100
AcDbEntity
  8
RACCORDO
100
AcDbLine
 62
250
  6
CONTINUOUS
 10
-73.1916872043
 20
-16.8998585791
 11
-73.1889994502
 21
-21.1534318771
  0
LINE
  5
3F1
100
AcDbEntity
  8
RACCORDO
100
AcDbLine
 62
250
  6
CONTINUOUS
 10
-72.6128760139
 20
-24.1418701477
 11
-72.6116342832
 21
-24.6229797487
  0
LINE
  5
3F2
100
AcDbEntity
  8
RACCORDO
100
AcDbLine
 62
250
  6
CONTINUOUS
 10
-73.1964753329
 20
-0.7638427937
 11
-73.1916872043
 21
-16.8998585791
  0
LINE
  5
3F3
100
AcDbEntity
  8
0
100
AcDbLine
 62
7
  6
CONTINUOUS
 10
-73.3778923533
 20
-24.3638438763
 11
-73.3778923533
 21
22.8361561237
  0
LINE
  5
3F4
100
AcDbEntity
  8
RACCORDO
100
AcDbLine
 62
250
  6
CONTINUOUS
 10
-72.6130423677
 20
-23.3564117753
 11
-72.6125260746
 21
-23.7812656238
  0
LINE
  5
3F5
100
AcDbEntity
  8
RACCORDO
100
AcDbLine
 62
250
  6
CONTINUOUS
 10
-73.178829138
 20
-24.6873499406
 11
-73.1786127522
 21
-24.8239582517
  0
LWPOLYLINE
  5
3F6
100
AcDbEntity
  8
RACCORDO
100
AcDbPolyline
 62
250
  6
CONTINUOUS
 90
3
 70
0
 10
-73.1859368394
 20
-23.3038491983
 10
-73.1859022221
 20
-23.6421026867
 10
-73.1849574668
 20
-24.0721943636
  0
LINE
  5
3F7
100
AcDbEntity
  8
RACCORDO
100
AcDbLine
 62
250
  6
CONTINUOUS
 10
-73.189002192
 20
19.6223434627
 11
-73.1964753329
 21
-0.7638427937
  0
LINE
  5
3F8
100
AcDbEntity
  8
RACCORDO
100
AcDbLine
 62
250
  6
CONTINUOUS
 10
-72.6125260746
 20
-23.7812656238
 11
-72.6128760139
 21
-24.1418701477
  0
LINE
  5
3F9
100
AcDbEntity
  8
RACCORDO
100
AcDbLine
 62
250
  6
CONTINUOUS
 10
-72.5902869839
 20
-26.1447178413
 11
-72.59021484
 21
-26.2326281646
  0
LINE
  5
3FA
100
AcDbEntity
  8
RACCORDO
100
AcDbLine
 62
250
  6
CONTINUOUS
 10
-72.6317122212
 20
16.4731054544
 11
-72.6522611016
 21
-0.7636422225
  0
LINE
  5
3FB
100
AcDbEntity
  8
RACCORDO
100
AcDbLine
 62
250
  6
CONTINUOUS
 10
-72.5901209046
 20
24.5683309726
 11
-72.5901694306
 21
24.5401608965
  0
LINE
  5
3FC
100
AcDbEntity
  8
RACCORDO
100
AcDbLine
 62
250
  6
CONTINUOUS
 10
-72.5901962947
 20
-26.0750729912
 11
-72.5902869839
 21
-26.1447178413
  0
LINE
  5
3FD
100
AcDbEntity
  8
RACCORDO
100
AcDbLine
 62
250
  6
CONTINUOUS
 10
-72.6125173566
 20
22.8735969443
 11
-72.6124990683
 21
22.0340957638
  0
LINE
  5
3FE
100
AcDbEntity
  8
RACCORDO
100
AcDbLine
 62
250
  6
CONTINUOUS
 10
-73.1852693945
 20
22.4677847878
 11
-73.1859929159
 21
21.7432959337
  0
LINE
  5
3FF
100
AcDbEntity
  8
RACCORDO
100
AcDbLine
 62
250
  6
CONTINUOUS
 10
-73.1859929159
 20
21.7432959337
 11
-73.189002192
 21
19.6223434627
  0
LINE
  5
400
100
AcDbEntity
  8
RACCORDO
100
AcDbLine
 62
250
  6
CONTINUOUS
 10
-73.1786493074
 20
23.2868157097
 11
-73.1787967329
 21
23.1685655822
  0
LWPOLYLINE
  5
401
100
AcDbEntity
  8
RACCORDO
100
AcDbPolyline
 62
250
  6
CONTINUOUS
 90
4
 70
0
 10
-72.6199119802
 20
20.5823443204
 10
-72.6238940434
 20
19.6112397484
 10
-72.6269884519
 20
18.6026312859
 10
-72.6317122212
 20
16.4731054544
  0
LINE
  5
402
100
AcDbEntity
  8
RACCORDO
100
AcDbLine
 62
250
  6
CONTINUOUS
 10
-72.5900205029
 20
24.7489790082
 11
-72.5903288927
 21
24.6467375062
  0
LWPOLYLINE
  5
403
100
AcDbEntity
  8
RACCORDO
100
AcDbPolyline
 62
250
  6
CONTINUOUS
 90
3
 70
0
 10
-72.6124990683
 20
22.0340957638
 10
-72.6138586447
 20
21.6531848079
 10
-72.6199119802
 20
20.5823443204
  0
LINE
  5
404
100
AcDbEntity
  8
RACCORDO
100
AcDbLine
 62
250
  6
CONTINUOUS
 10
-72.6101211137
 20
23.3442562355
 11
-72.6125173566
 21
22.8735969443
  0
LINE
  5
405
100
AcDbEntity
  8
RACCORDO
100
AcDbLine
 62
250
  6
CONTINUOUS
 10
-73.1787967329
 20
23.1685655822
 11
-73.1789750441
 21
23.1388015607
  0
LINE
  5
406
100
AcDbEntity
  8
RACCORDO
100
AcDbLine
 62
250
  6
CONTINUOUS
 10
-73.1835582507
 20
22.7700572888
 11
-73.1852693945
 21
22.4677847878
  0
LINE
  5
407
100
AcDbEntity
  8
RACCORDO
100
AcDbLine
 62
250
  6
CONTINUOUS
 10
-73.1782969857
 20
23.3445510902
 11
-73.1786493074
 21
23.2868157097
  0
LWPOLYLINE
  5
408
100
AcDbEntity
  8
RACCORDO
100
AcDbPolyline
 62
250
  6
CONTINUOUS
 90
4
 70
0
 10
-72.5901694306
 20
24.5401608965
 10
-72.5906816864
 20
24.4794008552
 10
-72.5911015893
 20
24.4474925411
 10
-72.5916771121
 20
24.415107822
  0
LINE
  5
409
100
AcDbEntity
  8
RACCORDO
100
AcDbLine
 62
250
  6
CONTINUOUS
 10
-72.6070888383
 20
23.6604235757
 11
-72.6101211137
 21
23.3442562355
  0
LINE
  5
40A
100
AcDbEntity
  8
RACCORDO
100
AcDbLine
 62
250
  6
CONTINUOUS
 10
-73.1816200423
 20
22.9555735337
 11
-73.1835582507
 21
22.7700572888
  0
LINE
  5
40B
100
AcDbEntity
  8
RACCORDO
100
AcDbLine
 62
250
  6
CONTINUOUS
 10
-73.1779870685
 20
23.3711382861
 11
-73.1782969857
 21
23.3445510902
  0
LWPOLYLINE
  5
40C
100
AcDbEntity
  8
RACCORDO
100
AcDbPolyline
 62
250
  6
CONTINUOUS
 90
3
 70
0
 10
-73.1789750441
 20
23.1388015607
 10
-73.179584471
 20
23.0894027733
 10
-73.1816200423
 20
22.9555735337
  0
LWPOLYLINE
  5
40D
100
AcDbEntity
  8
RACCORDO
100
AcDbPolyline
 62
250
  6
CONTINUOUS
 90
4
 70
0
 10
-72.5890101952
 20
24.8433333031
 10
-72.5893727922
 20
24.8211157604
 10
-72.5896494965
 20
24.7978354449
 10
-72.5900205029
 20
24.7489790082
  0
LINE
  5
40E
100
AcDbEntity
  8
RACCORDO
100
AcDbLine
 62
250
  6
CONTINUOUS
 10
-72.6034771544
 20
23.9128479712
 11
-72.6070888383
 21
23.6604235757
  0
LINE
  5
40F
100
AcDbEntity
  8
RACCORDO
100
AcDbLine
 62
250
  6
CONTINUOUS
 10
-72.6005204489
 20
24.068027007
 11
-72.6034771544
 21
23.9128479712
  0
LINE
  5
410
100
AcDbEntity
  8
RACCORDO
100
AcDbLine
 62
250
  6
CONTINUOUS
 10
-72.597414263
 20
24.1988912846
 11
-72.6005204489
 21
24.068027007
  0
LINE
  5
411
100
AcDbEntity
  8
RACCORDO
100
AcDbLine
 62
250
  6
CONTINUOUS
 10
-72.5916771121
 20
24.415107822
 11
-72.5932791216
 21
24.3475666324
  0
LINE
  5
412
100
AcDbEntity
  8
RACCORDO
100
AcDbLine
 62
250
  6
CONTINUOUS
 10
-72.5932791216
 20
24.3475666324
 11
-72.597414263
 21
24.1988912846
  0
LWPOLYLINE
  5
413
100
AcDbEntity
  8
RACCORDO
100
AcDbPolyline
 62
250
  6
CONTINUOUS
 90
5
 70
0
 10
-72.5891107579
 20
25.0354571635
 10
-72.5891720251
 20
25.0338766491
 10
-72.5888026321
 20
25.0266403971
 10
-72.5872819786
 20
25.0147825865
 10
-72.5842981167
 20
24.99609363
  0
LWPOLYLINE
  5
414
100
AcDbEntity
  8
0
100
AcDbPolyline
 62
7
  6
CONTINUOUS
 90
4
 70
0
 43
0.3500000006
 10
-82.5564649658
 20
-3.1209871788
 10
-83.4136029053
 20
-3.1209871788
 10
-83.8421809387
 20
-2.6924148102
 10
-83.8421809387
 20
-2.0495579567
  0
LWPOLYLINE
  5
415
100
AcDbEntity
  8
RACCORDO
100
AcDbPolyline
 62
250
  6
CONTINUOUS
 90
5
 70
0
 10
-72.5843099765
 20
24.9960946014
 10
-72.5840050697
 20
24.9913464258
 10
-72.5839968381
 20
24.9827881603
 10
-72.5842747742
 20
24.9709136225
 10
-72.5848656066
 20
24.9559732278
  0
LINE
  5
416
100
AcDbEntity
  8
RACCORDO
100
AcDbLine
 62
250
  6
CONTINUOUS
 10
-69.7300231504
 20
-37.6937066271
 11
-69.7239731402
 21
-37.9966684219
  0
LWPOLYLINE
  5
417
100
AcDbEntity
  8
RACCORDO
100
AcDbPolyline
 62
250
  6
CONTINUOUS
 90
3
 70
0
 10
-69.7403242861
 20
-37.185403652
 10
-69.7379279279
 20
-37.3614422491
 10
-69.7300231504
 20
-37.6937066271
  0
LINE
  5
418
100
AcDbEntity
  8
RACCORDO
100
AcDbLine
 62
250
  6
CONTINUOUS
 10
-69.7239731402
 20
-37.9966684219
 11
-69.7198234999
 21
-38.2936240732
  0
LWPOLYLINE
  5
419
100
AcDbEntity
  8
RACCORDO
100
AcDbPolyline
 62
250
  6
CONTINUOUS
 90
5
 70
0
 10
-68.8091870415
 20
-36.8464731906
 10
-68.8072758106
 20
-37.0046534923
 10
-68.8044084845
 20
-37.169085661
 10
-68.8008112567
 20
-37.3375954302
 10
-68.7964841271
 20
-37.5101828
  0
LINE
  5
41A
100
AcDbEntity
  8
RACCORDO
100
AcDbLine
 62
250
  6
CONTINUOUS
 10
-69.7198234999
 20
-38.2936240732
 11
-69.7173401999
 21
-38.5742573031
  0
LINE
  5
41B
100
AcDbEntity
  8
RACCORDO
100
AcDbLine
 62
250
  6
CONTINUOUS
 10
-68.8252404866
 20
-34.7184513753
 11
-68.8091870415
 21
-36.8464731906
  0
LINE
  5
41C
100
AcDbEntity
  8
RACCORDO
100
AcDbLine
 62
250
  6
CONTINUOUS
 10
-69.7184591626
 20
37.7315722517
 11
-69.7167100394
 21
37.5350587288
  0
LINE
  5
41D
100
AcDbEntity
  8
RACCORDO
100
AcDbLine
 62
250
  6
CONTINUOUS
 10
-68.8342686906
 20
-33.3818653284
 11
-68.8252404866
 21
-34.7184513753
  0
LINE
  5
41E
100
AcDbEntity
  8
RACCORDO
100
AcDbLine
 62
250
  6
CONTINUOUS
 10
-69.7471795179
 20
-36.220783695
 11
-69.7403242861
 21
-37.185403652
  0
LWPOLYLINE
  5
41F
100
AcDbEntity
  8
RACCORDO
100
AcDbPolyline
 62
250
  6
CONTINUOUS
 90
3
 70
0
 10
-69.7563370255
 20
-34.7252696111
 10
-69.7551462273
 20
-34.929731243
 10
-69.7471795179
 20
-36.220783695
  0
LINE
  5
420
100
AcDbEntity
  8
RACCORDO
100
AcDbLine
 62
250
  6
CONTINUOUS
 10
-69.7611551216
 20
-33.855608669
 11
-69.7563370255
 21
-34.7252696111
  0
LINE
  5
421
100
AcDbEntity
  8
RACCORDO
100
AcDbLine
 62
250
  6
CONTINUOUS
 10
-69.7683200766
 20
-32.3802940721
 11
-69.7611551216
 21
-33.855608669
  0
LINE
  5
422
100
AcDbEntity
  8
RACCORDO
100
AcDbLine
 62
250
  6
CONTINUOUS
 10
-68.8488543255
 20
-30.6592354195
 11
-68.8342686906
 21
-33.3818653284
  0
LINE
  5
423
100
AcDbEntity
  8
RACCORDO
100
AcDbLine
 62
250
  6
CONTINUOUS
 10
-68.8007939653
 20
38.8454623486
 11
-68.7993347528
 21
38.5771973702
  0
LINE
  5
424
100
AcDbEntity
  8
RACCORDO
100
AcDbLine
 62
250
  6
CONTINUOUS
 10
-68.8571916697
 20
-28.2971207884
 11
-68.8488543255
 21
-30.6592354195
  0
LINE
  5
425
100
AcDbEntity
  8
RACCORDO
100
AcDbLine
 62
250
  6
CONTINUOUS
 10
-69.7788524023
 20
-29.3642345869
 11
-69.7683200766
 21
-32.3802940721
  0
LINE
  5
426
100
AcDbEntity
  8
RACCORDO
100
AcDbLine
 62
250
  6
CONTINUOUS
 10
-69.7173401999
 20
-38.5742573031
 11
-69.7163342089
 21
-38.8318027149
  0
LINE
  5
427
100
AcDbEntity
  8
RACCORDO
100
AcDbLine
 62
250
  6
CONTINUOUS
 10
-68.7964841271
 20
-37.5101828
 11
-68.7954138574
 21
-37.9492008102
  0
LINE
  5
428
100
AcDbEntity
  8
RACCORDO
100
AcDbLine
 62
250
  6
CONTINUOUS
 10
-68.7993347528
 20
38.5771973702
 11
-68.7954678114
 21
36.8641271221
  0
LINE
  5
429
100
AcDbEntity
  8
RACCORDO
100
AcDbLine
 62
250
  6
CONTINUOUS
 10
-69.7845472223
 20
-26.3347166779
 11
-69.7788524023
 21
-29.3642345869
  0
LWPOLYLINE
  5
42A
100
AcDbEntity
  8
RACCORDO
100
AcDbPolyline
 62
250
  6
CONTINUOUS
 90
3
 70
0
 10
-68.8634431346
 20
-25.0301990891
 10
-68.8628519958
 20
-25.4753432992
 10
-68.8571916697
 20
-28.2971207884
  0
LINE
  5
42B
100
AcDbEntity
  8
RACCORDO
100
AcDbLine
 62
250
  6
CONTINUOUS
 10
-68.8645171913
 20
-24.1051701691
 11
-68.8634431346
 21
-25.0301990891
  0
LINE
  5
42C
100
AcDbEntity
  8
RACCORDO
100
AcDbLine
 62
250
  6
CONTINUOUS
 10
-69.785960851
 20
-25.0312059191
 11
-69.7845472223
 21
-26.3347166779
  0
LINE
  5
42D
100
AcDbEntity
  8
RACCORDO
100
AcDbLine
 62
250
  6
CONTINUOUS
 10
-68.8654485296
 20
-23.1329005549
 11
-68.8645171913
 21
-24.1051701691
  0
LINE
  5
42E
100
AcDbEntity
  8
RACCORDO
100
AcDbLine
 62
250
  6
CONTINUOUS
 10
-69.7867473587
 20
-24.1059683585
 11
-69.785960851
 21
-25.0312059191
  0
LINE
  5
42F
100
AcDbEntity
  8
RACCORDO
100
AcDbLine
 62
250
  6
CONTINUOUS
 10
-68.8665895897
 20
-21.5798370803
 11
-68.8654485296
 21
-23.1329005549
  0
LINE
  5
430
100
AcDbEntity
  8
RACCORDO
100
AcDbLine
 62
250
  6
CONTINUOUS
 10
-68.8671449836
 20
-20.4776890642
 11
-68.8665895897
 21
-21.5798370803
  0
LINE
  5
431
100
AcDbEntity
  8
RACCORDO
100
AcDbLine
 62
250
  6
CONTINUOUS
 10
-69.7167100394
 20
37.5350587288
 11
-69.7163314774
 21
37.3064765081
  0
LINE
  5
432
100
AcDbEntity
  8
RACCORDO
100
AcDbLine
 62
250
  6
CONTINUOUS
 10
-69.7888175159
 20
-16.1526892055
 11
-69.7867473587
 21
-24.1059683585
  0
LWPOLYLINE
  5
433
100
AcDbEntity
  8
RACCORDO
100
AcDbPolyline
 62
250
  6
CONTINUOUS
 90
3
 70
0
 10
-69.7858286176
 20
3.2705920775
 10
-69.7874547015
 20
-10.9920144769
 10
-69.7888175159
 20
-16.1526892055
  0
LINE
  5
434
100
AcDbEntity
  8
RACCORDO
100
AcDbLine
 62
250
  6
CONTINUOUS
 10
-68.8667111586
 20
-12.5620420492
 11
-68.8671449836
 21
-20.4776890642
  0
LINE
  5
435
100
AcDbEntity
  8
RACCORDO
100
AcDbLine
 62
250
  6
CONTINUOUS
 10
-68.8640048828
 20
1.3044176329
 11
-68.8654393456
 21
-9.3415945439
  0
LINE
  5
436
100
AcDbEntity
  8
RACCORDO
100
AcDbLine
 62
250
  6
CONTINUOUS
 10
-68.8654393456
 20
-9.3415945439
 11
-68.8667111586
 21
-12.5620420492
  0
LINE
  5
437
100
AcDbEntity
  8
RACCORDO
100
AcDbLine
 62
250
  6
CONTINUOUS
 10
-68.7954678114
 20
36.8641271221
 11
-68.7954343108
 21
36.4279484406
  0
LINE
  5
438
100
AcDbEntity
  8
RACCORDO
100
AcDbLine
 62
250
  6
CONTINUOUS
 10
-68.8654276781
 20
21.6298932632
 11
-68.8640048828
 21
1.3044176329
  0
LINE
  5
439
100
AcDbEntity
  8
RACCORDO
100
AcDbLine
 62
250
  6
CONTINUOUS
 10
-68.7954138574
 20
-37.9492008102
 11
-68.7957642339
 21
-38.5973162549
  0
LINE
  5
43A
100
AcDbEntity
  8
RACCORDO
100
AcDbLine
 62
250
  6
CONTINUOUS
 10
-69.7803818971
 20
27.2098418309
 11
-69.7858286176
 21
3.2705920775
  0
LINE
  5
43B
100
AcDbEntity
  8
RACCORDO
100
AcDbLine
 62
250
  6
CONTINUOUS
 10
-68.8589512575
 20
26.076783017
 11
-68.8654276781
 21
21.6298932632
  0
LINE
  5
43C
100
AcDbEntity
  8
RACCORDO
100
AcDbLine
 62
250
  6
CONTINUOUS
 10
-68.7957642339
 20
-38.5973162549
 11
-68.7969891095
 21
-39.1933490655
  0
LINE
  5
43D
100
AcDbEntity
  8
RACCORDO
100
AcDbLine
 62
250
  6
CONTINUOUS
 10
-68.7954343108
 20
36.4279484406
 11
-68.7964841271
 21
35.9824950473
  0
LINE
  5
43E
100
AcDbEntity
  8
RACCORDO
100
AcDbLine
 62
250
  6
CONTINUOUS
 10
-69.7163342089
 20
-38.8318027149
 11
-69.7167015507
 21
-39.0610324308
  0
LINE
  5
43F
100
AcDbEntity
  8
RACCORDO
100
AcDbLine
 62
250
  6
CONTINUOUS
 10
-68.8498036968
 20
28.9093922905
 11
-68.8589512575
 21
26.076783017
  0
LINE
  5
440
100
AcDbEntity
  8
RACCORDO
100
AcDbLine
 62
250
  6
CONTINUOUS
 10
-69.7678231755
 20
30.9643133886
 11
-69.7803818971
 21
27.2098418309
  0
LINE
  5
441
100
AcDbEntity
  8
RACCORDO
100
AcDbLine
 62
250
  6
CONTINUOUS
 10
-69.7163314774
 20
37.3064765081
 11
-69.717321501
 21
37.0495102624
  0
LWPOLYLINE
  5
442
100
AcDbEntity
  8
RACCORDO
100
AcDbPolyline
 62
250
  6
CONTINUOUS
 90
7
 70
0
 10
-68.7969891095
 20
-39.1933490655
 10
-68.800203568
 20
-40.2986837335
 10
-68.8007891483
 20
-40.3727262424
 10
-68.8015885059
 20
-40.4306986282
 10
-68.8026667681
 20
-40.4723029034
 10
-68.804058854
 20
-40.497304992
 10
-68.8058234102
 20
-40.5055819532
  0
LINE
  5
443
100
AcDbEntity
  8
RACCORDO
100
AcDbLine
 62
250
  6
CONTINUOUS
 10
-69.7531032723
 20
33.7454680051
 11
-69.7678231755
 21
30.9643133886
  0
LINE
  5
444
100
AcDbEntity
  8
RACCORDO
100
AcDbLine
 62
250
  6
CONTINUOUS
 10
-68.8334881626
 20
31.9768185976
 11
-68.8498036968
 21
28.9093922905
  0
LINE
  5
445
100
AcDbEntity
  8
RACCORDO
100
AcDbLine
 62
250
  6
CONTINUOUS
 10
-68.8168698127
 20
34.3135778277
 11
-68.8334881626
 21
31.9768185976
  0
LINE
  5
446
100
AcDbEntity
  8
RACCORDO
100
AcDbLine
 62
250
  6
CONTINUOUS
 10
-69.717321501
 20
37.0495102624
 11
-69.7197756834
 21
36.7701269698
  0
LWPOLYLINE
  5
447
100
AcDbEntity
  8
RACCORDO
100
AcDbPolyline
 62
250
  6
CONTINUOUS
 90
10
 70
0
 10
-69.7167015507
 20
-39.0610324308
 10
-69.7184433068
 20
-39.2581221241
 10
-69.7198558401
 20
-39.343297589
 10
-69.7216522103
 20
-39.4186930296
 10
-69.7238499308
 20
-39.4838588021
 10
-69.7264858839
 20
-39.5386099102
 10
-69.7296083336
 20
-39.5827748315
 10
-69.733265435
 20
-39.6161338382
 10
-69.7375182026
 20
-39.6385062323
 10
-69.742450423
 20
-39.6498168413
  0
LINE
  5
448
100
AcDbEntity
  8
RACCORDO
100
AcDbLine
 62
250
  6
CONTINUOUS
 10
-69.7197756834
 20
36.7701269698
 11
-69.7238836022
 21
36.4743637302
  0
LWPOLYLINE
  5
449
100
AcDbEntity
  8
RACCORDO
100
AcDbPolyline
 62
250
  6
CONTINUOUS
 90
4
 70
0
 10
-69.7369077454
 20
35.8887105779
 10
-69.7393527015
 20
35.75684767
 10
-69.7411341843
 20
35.6187213989
 10
-69.7531032723
 20
33.7454680051
  0
LWPOLYLINE
  5
44A
100
AcDbEntity
  8
RACCORDO
100
AcDbPolyline
 62
250
  6
CONTINUOUS
 90
3
 70
0
 10
-69.7238836022
 20
36.4743637302
 10
-69.7299615302
 20
36.168657867
 10
-69.7369077454
 20
35.8887105779
  0
LWPOLYLINE
  5
44B
100
AcDbEntity
  8
RACCORDO
100
AcDbPolyline
 62
250
  6
CONTINUOUS
 90
6
 70
0
 10
-68.7964841271
 20
35.9824950473
 10
-68.8000593114
 20
35.861847611
 10
-68.8031199924
 20
35.735065057
 10
-68.80566617
 20
35.6021473852
 10
-68.80755298
 20
35.4632406578
 10
-68.8168698127
 20
34.3135778277
  0
LWPOLYLINE
  5
44C
100
AcDbEntity
  8
RACCORDO
100
AcDbPolyline
 62
250
  6
CONTINUOUS
 90
5
 70
0
 10
-72.5842987498
 20
-26.5237814345
 10
-72.5872800986
 20
-26.5424107915
 10
-72.5888008083
 20
-26.554273558
 10
-72.5891720596
 20
-26.5615386114
 10
-72.5891100854
 20
-26.5631512697
  0
LWPOLYLINE
  5
44D
100
AcDbEntity
  8
RACCORDO
100
AcDbPolyline
 62
250
  6
CONTINUOUS
 90
3
 70
0
 10
-72.6815405222
 20
-0.7642722478
 10
-72.6601033471
 20
-0.7639508763
 10
-72.6522615166
 20
-0.7636422218
  0
LINE
  5
44E
100
AcDbEntity
  8
RACCORDO
100
AcDbLine
 62
250
  6
CONTINUOUS
 10
-72.602978188
 20
-0.7636268983
 11
-72.652261552
 21
-0.7640528719
  0
LINE
  5
44F
100
AcDbEntity
  8
RACCORDO
100
AcDbLine
 62
250
  6
CONTINUOUS
 10
-72.8261441366
 20
-0.7652978137
 11
-72.6815405222
 21
-0.7642722478
  0
LINE
  5
450
100
AcDbEntity
  8
RACCORDO
100
AcDbLine
 62
250
  6
CONTINUOUS
 10
-73.1964745647
 20
-0.7667497041
 11
-72.8261441366
 21
-0.7652978137
  0
LINE
  5
451
100
AcDbEntity
  8
RACCORDO
100
AcDbLine
 62
250
  6
CONTINUOUS
 10
-70.9734725494
 20
-0.7628660908
 11
-72.0400185713
 21
-0.7648522105
  0
LINE
  5
452
100
AcDbEntity
  8
RACCORDO
100
AcDbLine
 62
250
  6
CONTINUOUS
 10
-68.8644318753
 20
-0.763419201
 11
-69.7861448807
 21
-0.7636082971
  0
LWPOLYLINE
  5
453
100
AcDbEntity
  8
0
100
AcDbPolyline
 62
7
  6
CONTINUOUS
 90
13
 70
0
 43
0.3500000006
 10
-82.9850339355
 20
-0.7638431168
 10
-84.2707499084
 20
-0.7638431168
 10
-84.6993188782
 20
-0.5495586319
 10
-85.1278878479
 20
-0.1209873962
 10
-85.1278878479
 20
0.0932993546
 10
-84.6993188782
 20
0.5218705902
 10
-84.2707499084
 20
0.7361550751
 10
-82.9850339355
 20
0.7361550751
 10
-82.5564649658
 20
0.5218705902
 10
-82.1278959961
 20
0.0932993546
 10
-82.1278959961
 20
-0.1209873962
 10
-82.5564649658
 20
-0.5495586319
 10
-82.9850339355
 20
-0.7638431168
  0
LWPOLYLINE
  5
454
100
AcDbEntity
  8
RACCORDO
100
AcDbPolyline
 62
250
  6
CONTINUOUS
 90
3
 70
0
 10
-69.7861446528
 20
-0.7636534077
 10
-70.4335957228
 20
-0.7627088944
 10
-70.9734725494
 20
-0.7628660908
  0
LINE
  5
455
100
AcDbEntity
  8
RACCORDO
100
AcDbLine
 62
250
  6
CONTINUOUS
 10
-72.0400185713
 20
-0.7648522105
 11
-72.602978188
 21
-0.7636268983
  0
LWPOLYLINE
  5
456
100
AcDbEntity
  8
RACCORDO
100
AcDbPolyline
 62
250
  6
CONTINUOUS
 90
8
 70
0
 10
-73.1769791392
 20
23.4373718159
 10
-73.1768376594
 20
23.4364879712
 10
-73.1767742802
 20
23.4335113545
 10
-73.1767890343
 20
23.4286694746
 10
-73.1769015297
 20
23.4221898439
 10
-73.1770920871
 20
23.4142936241
 10
-73.1773018178
 20
23.4051208915
 10
-73.1779870685
 20
23.3711382861
  0
LINE
  5
457
100
AcDbEntity
  8
0
100
AcDbLine
 62
7
  6
CONTINUOUS
 10
-65.6778923533
 20
1.8361561237
 11
-65.6778923533
 21
-3.3638438763
  0
LINE
  5
458
100
AcDbEntity
  8
RACCORDO
100
AcDbLine
 62
7
  6
CONTINUOUS
 10
-63.8778923533
 20
-5.7638438763
 11
-63.8778923533
 21
-40.7638438763
  0
LINE
  5
459
100
AcDbEntity
  8
RACCORDO
100
AcDbLine
 62
7
  6
CONTINUOUS
 10
-63.8778923533
 20
4.2361561237
 11
-63.8778923533
 21
39.2361561237
  0
LWPOLYLINE
  5
45A
100
AcDbEntity
  8
RACCORDO
100
AcDbPolyline
 62
250
  6
CONTINUOUS
 90
5
 70
0
 10
-68.8058234102
 20
38.9778942005
 10
-68.8040609155
 20
38.9696449854
 10
-68.8026702115
 20
38.9447249243
 10
-68.8015928189
 20
38.9032543156
 10
-68.8007939653
 20
38.8454623486
  0
LWPOLYLINE
  5
45B
100
AcDbEntity
  8
RACCORDO
100
AcDbPolyline
 62
250
  6
CONTINUOUS
 90
5
 70
0
 10
-69.7516893187
 20
38.1372307914
 10
-69.7500432266
 20
38.132803296
 10
-69.7478975602
 20
38.1289783656
 10
-69.7453552035
 20
38.1254203353
 10
-69.7424450711
 20
38.1221283158
  0
LWPOLYLINE
  5
45C
100
AcDbEntity
  8
RACCORDO
100
AcDbPolyline
 62
250
  6
CONTINUOUS
 90
9
 70
0
 10
-69.7424495781
 20
38.1221289666
 10
-69.7375251118
 20
38.1108486982
 10
-69.7332781209
 20
38.088538747
 10
-69.7296243485
 20
38.0552743416
 10
-69.726504314
 20
38.0112387049
 10
-69.723869428
 20
37.9566452777
 10
-69.7216710683
 20
37.891665025
 10
-69.7198735741
 20
37.8164927988
 10
-69.7184591626
 20
37.7315722517
  0
LINE
  5
45D
100
AcDbEntity
  8
RACCORDO
100
AcDbLine
 62
250
  6
CONTINUOUS
 10
-69.8525115902
 20
38.2888360079
 11
-69.8524555713
 21
38.2887445107
  0
LINE
  5
45E
100
AcDbEntity
  8
RACCORDO
100
AcDbLine
 62
250
  6
CONTINUOUS
 10
-73.3778923533
 20
21.5361561237
 11
-73.1865583858
 21
21.5361561237
  0
LINE
  5
45F
100
AcDbEntity
  8
RACCORDO
100
AcDbLine
 62
250
  6
CONTINUOUS
 10
-73.1865574238
 20
21.5361561237
 11
-72.9760099135
 21
21.5312561138
  0
LWPOLYLINE
  5
460
100
AcDbEntity
  8
RACCORDO
100
AcDbPolyline
 62
250
  6
CONTINUOUS
 90
7
 70
0
 10
-72.9760099135
 20
21.5312561138
 10
-72.8110408589
 20
21.5264407857
 10
-72.7465716775
 20
21.5240909748
 10
-72.694502105
 20
21.5217933418
 10
-72.6550574188
 20
21.519557822
 10
-72.6284082749
 20
21.5173940821
 10
-72.6146699702
 20
21.5153114784
  0
LINE
  5
461
100
AcDbEntity
  8
RACCORDO
100
AcDbLine
 62
250
  6
CONTINUOUS
 10
-69.7853404642
 20
38.1833499058
 11
-69.7611474697
 21
38.1569846846
  0
LWPOLYLINE
  5
462
100
AcDbEntity
  8
0
100
AcDbPolyline
 62
7
  6
CONTINUOUS
 90
10
 70
0
 43
0.3500000006
 10
-68.7350341187
 20
50.0138416443
 10
-68.6636074677
 20
49.8709883423
 10
-68.6636074677
 20
49.7995571594
 10
-68.8064653015
 20
49.6566993256
 10
-68.8778919525
 20
49.6566993256
 10
-68.9493231354
 20
49.7281305084
 10
-68.9493231354
 20
49.7995571594
 10
-68.8778919525
 20
49.9424149933
 10
-68.8064653015
 20
50.0138416443
 10
-68.7350341187
 20
50.0138416443
  0
LWPOLYLINE
  5
463
100
AcDbEntity
  8
RACCORDO
100
AcDbPolyline
 62
250
  6
CONTINUOUS
 90
12
 70
0
 10
-69.7424447255
 20
-39.6498160185
 10
-69.7454008627
 20
-39.6531770523
 10
-69.7479730935
 20
-39.6567951284
 10
-69.7501406287
 20
-39.6606707205
 10
-69.7517941096
 20
-39.6651479786
 10
-69.7529782765
 20
-39.6698840318
 10
-69.7539494808
 20
-39.6738494552
 10
-69.7548980383
 20
-39.6765416118
 10
-69.7558427883
 20
-39.6784564554
 10
-69.7567984085
 20
-39.6800635669
 10
-69.7578011575
 20
-39.6813950333
 10
-69.7600443466
 20
-39.6834941795
  0
LINE
  5
464
100
AcDbEntity
  8
RACCORDO
100
AcDbLine
 62
250
  6
CONTINUOUS
 10
-69.769051103
 20
-39.6932945343
 11
-69.7782208916
 21
-39.7032878867
  0
LINE
  5
465
100
AcDbEntity
  8
RACCORDO
100
AcDbLine
 62
250
  6
CONTINUOUS
 10
-69.7612268764
 20
-39.6847624079
 11
-69.769051103
 21
-39.6932945343
  0
LINE
  5
466
100
AcDbEntity
  8
RACCORDO
100
AcDbLine
 62
250
  6
CONTINUOUS
 10
-69.7782208916
 20
-39.7032878867
 11
-69.8043349454
 21
-39.7316283908
  0
LINE
  5
467
100
AcDbEntity
  8
RACCORDO
100
AcDbLine
 62
250
  6
CONTINUOUS
 10
-69.7600443466
 20
-39.6834941795
 11
-69.7612268764
 21
-39.6847624079
  0
LINE
  5
468
100
AcDbEntity
  8
RACCORDO
100
AcDbLine
 62
250
  6
CONTINUOUS
 10
-69.8043349454
 20
-39.7316283908
 11
-69.8143821916
 21
-39.742414526
  0
LWPOLYLINE
  5
469
100
AcDbEntity
  8
RACCORDO
100
AcDbPolyline
 62
250
  6
CONTINUOUS
 90
18
 70
0
 10
-69.8509147212
 20
-39.7807277406
 10
-69.8542555837
 20
-39.7842885645
 10
-69.8575511485
 20
-39.7878846886
 10
-69.8607859078
 20
-39.7914712934
 10
-69.8639162402
 20
-39.7950541464
 10
-69.8669150741
 20
-39.7986311191
 10
-69.8697846976
 20
-39.8021463584
 10
-69.8723906747
 20
-39.8056599327
 10
-69.8745836859
 20
-39.809126934
 10
-69.8762720123
 20
-39.8123389847
 10
-69.8775205552
 20
-39.8152215749
 10
-69.8786092884
 20
-39.8178334233
 10
-69.8799354932
 20
-39.8201580823
 10
-69.881679554
 20
-39.8220448181
 10
-69.8834853056
 20
-39.8236553534
 10
-69.8847857303
 20
-39.8254491473
 10
-69.8851305261
 20
-39.8279284498
 10
-69.8848040807
 20
-39.8298264761
  0
LINE
  5
46A
100
AcDbEntity
  8
RACCORDO
100
AcDbLine
 62
250
  6
CONTINUOUS
 10
-69.8143821916
 20
-39.742414526
 11
-69.8226013447
 21
-39.7511503012
  0
LINE
  5
46B
100
AcDbEntity
  8
RACCORDO
100
AcDbLine
 62
250
  6
CONTINUOUS
 10
-69.844249684
 20
-39.7737123414
 11
-69.8509147212
 21
-39.7807277406
  0
LINE
  5
46C
100
AcDbEntity
  8
RACCORDO
100
AcDbLine
 62
250
  6
CONTINUOUS
 10
-69.8226013447
 20
-39.7511503012
 11
-69.8284308186
 21
-39.7572812129
  0
LINE
  5
46D
100
AcDbEntity
  8
RACCORDO
100
AcDbLine
 62
250
  6
CONTINUOUS
 10
-69.8284308186
 20
-39.7572812129
 11
-69.844249684
 21
-39.7737123414
  0
LWPOLYLINE
  5
46E
100
AcDbEntity
  8
RACCORDO
100
AcDbPolyline
 62
250
  6
CONTINUOUS
 90
7
 70
0
 10
-69.7599622921
 20
38.1557205866
 10
-69.7577197944
 20
38.1536499484
 10
-69.7567389549
 20
38.1523068029
 10
-69.7558073854
 20
38.1506341992
 10
-69.7548640653
 20
38.1486297316
 10
-69.7538903165
 20
38.145883274
 10
-69.7516893187
 20
38.1372307914
  0
LINE
  5
46F
100
AcDbEntity
  8
RACCORDO
100
AcDbLine
 62
250
  6
CONTINUOUS
 10
-69.8457421576
 20
38.2475903759
 11
-69.8283733475
 21
38.2295276849
  0
LINE
  5
470
100
AcDbEntity
  8
RACCORDO
100
AcDbLine
 62
250
  6
CONTINUOUS
 10
-69.8494201732
 20
38.2514521236
 11
-69.8457421576
 21
38.2475903759
  0
LINE
  5
471
100
AcDbEntity
  8
RACCORDO
100
AcDbLine
 62
250
  6
CONTINUOUS
 10
-69.8283733475
 20
38.2295276849
 11
-69.8220640814
 21
38.2228984967
  0
LINE
  5
472
100
AcDbEntity
  8
RACCORDO
100
AcDbLine
 62
250
  6
CONTINUOUS
 10
-69.7611474697
 20
38.1569846846
 11
-69.7599622921
 21
38.1557205866
  0
LINE
  5
473
100
AcDbEntity
  8
RACCORDO
100
AcDbLine
 62
250
  6
CONTINUOUS
 10
-69.8220640814
 20
38.2228984967
 11
-69.8132864544
 21
38.2135578705
  0
LINE
  5
474
100
AcDbEntity
  8
RACCORDO
100
AcDbLine
 62
250
  6
CONTINUOUS
 10
-69.8132864544
 20
38.2135578705
 11
-69.8003395642
 21
38.1996244106
  0
LINE
  5
475
100
AcDbEntity
  8
RACCORDO
100
AcDbLine
 62
250
  6
CONTINUOUS
 10
-69.8003395642
 20
38.1996244106
 11
-69.7853404642
 21
38.1833499058
  0
LWPOLYLINE
  5
476
100
AcDbEntity
  8
RACCORDO
100
AcDbPolyline
 62
250
  6
CONTINUOUS
 90
13
 70
0
 10
-68.8058211599
 20
38.9778512525
 10
-68.9195707748
 20
38.9653229967
 10
-69.0311418881
 20
38.9398604559
 10
-69.1390710505
 20
38.9017976156
 10
-69.2419425833
 20
38.8516337362
 10
-69.3384071473
 20
38.7900268042
 10
-69.4271994418
 20
38.7177849017
 10
-69.5071548014
 20
38.6358556068
 10
-69.5772244719
 20
38.5453135648
 10
-69.6364893673
 20
38.4473463918
 10
-69.6841721249
 20
38.3432390979
 10
-69.7196473017
 20
38.2343572311
 10
-69.7424495781
 20
38.1221289666
  0
LWPOLYLINE
  5
477
100
AcDbEntity
  8
RACCORDO
100
AcDbPolyline
 62
7
  6
CONTINUOUS
 90
3
 70
0
 10
-68.9941120526
 20
38.9680264109
 10
-69.0991703374
 20
38.9569326703
 10
-69.2024720559
 20
38.9348176076
  0
LINE
  5
478
100
AcDbEntity
  8
RACCORDO
100
AcDbLine
 62
250
  6
CONTINUOUS
 10
-68.7964841271
 20
35.9824950473
 11
-63.8778923533
 21
36.2402675194
  0
LINE
  5
479
100
AcDbEntity
  8
RACCORDO
100
AcDbLine
 62
7
  6
CONTINUOUS
 10
-63.8778923533
 20
39.2361561237
 11
-68.9935734975
 21
38.9680546354
  0
LWPOLYLINE
  5
47A
100
AcDbEntity
  8
0
100
AcDbPolyline
 62
7
  6
CONTINUOUS
 90
8
 70
0
 43
0.3500000006
 10
-67.6636071625
 20
49.5138460236
 10
-66.8064646912
 20
49.5138460236
 10
-66.3778911896
 20
49.9424149933
 10
-66.3778911896
 20
50.7995574646
 10
-66.8064646912
 20
51.2281309662
 10
-67.6636071625
 20
51.2281309662
 10
-67.6636071625
 20
52.5138424072
 10
-66.3778911896
 20
52.5138424072
  0
LINE
  5
47B
100
AcDbEntity
  8
RACCORDO
100
AcDbLine
 62
250
  6
CONTINUOUS
 10
-68.796484127
 20
35.9824950473
 11
-69.4994271824
 21
36.0057839206
  0
LWPOLYLINE
  5
47C
100
AcDbEntity
  8
RACCORDO
100
AcDbPolyline
 62
250
  6
CONTINUOUS
 90
3
 70
0
 10
-69.4994271824
 20
36.0057839206
 10
-69.711457476
 20
36.0133102527
 10
-69.7339408333
 20
36.0142249815
  0
ARC
  5
47D
100
AcDbEntity
  8
0
100
AcDbCircle
 62
7
  6
CONTINUOUS
 10
10.1861561237
 20
-23.0638438763
 40
0.3
100
AcDbArc
 50
270.0
 51
360.0
  0
ARC
  5
47E
100
AcDbEntity
  8
0
100
AcDbCircle
 62
7
  6
CONTINUOUS
 10
10.1861561237
 20
21.5361561237
 40
0.3
100
AcDbArc
 50
0.0
 51
90.0
  0
ARC
  5
47F
100
AcDbEntity
  8
0
100
AcDbCircle
 62
7
  6
CONTINUOUS
 10
-11.7138438763
 20
21.5361561237
 40
0.3
100
AcDbArc
 50
90.0
 51
180.0
  0
ARC
  5
480
100
AcDbEntity
  8
0
100
AcDbCircle
 62
7
  6
CONTINUOUS
 10
-11.7138438763
 20
-23.0638438763
 40
0.3
100
AcDbArc
 50
180.0
 51
270.0
  0
ARC
  5
481
100
AcDbEntity
  8
0
100
AcDbCircle
 62
7
  6
CONTINUOUS
 10
-63.1778923533
 20
1.8361561237
 40
2.5
100
AcDbArc
 50
106.2602047083
 51
180.0
  0
ARC
  5
482
100
AcDbEntity
  8
0
100
AcDbCircle
 62
7
  6
CONTINUOUS
 10
-63.1778923533
 20
-3.3638438763
 40
2.5
100
AcDbArc
 50
180.0
 51
253.7397952917
  0
ARC
  5
483
100
AcDbEntity
  8
RACCORDO
100
AcDbCircle
 62
7
  6
CONTINUOUS
 10
-68.9181252317
 20
-39.4983241181
 40
1.0
100
AcDbArc
 50
212.4315720707
 51
254.7434547122
  0
ARC
  5
484
100
AcDbEntity
  8
RACCORDO
100
AcDbCircle
 62
7
  6
CONTINUOUS
 10
-68.9181252351
 20
37.9706363653
 40
1.0
100
AcDbArc
 50
93.1674356215
 51
99.2119904538
  0
ARC
  5
485
100
AcDbEntity
  8
RACCORDO
100
AcDbCircle
 62
7
  6
CONTINUOUS
 10
-68.9181253254
 20
-39.4983241132
 40
1.0
100
AcDbArc
 50
265.657222414
 51
266.8325587064
  0
ARC
  5
486
100
AcDbEntity
  8
RACCORDO
100
AcDbCircle
 62
7
  6
CONTINUOUS
 10
-72.3778923533
 20
-24.3638438763
 40
1.0
100
AcDbArc
 50
180.0
 51
216.9570148925
  0
ARC
  5
487
100
AcDbEntity
  8
0
100
AcDbCircle
 62
7
  6
CONTINUOUS
 10
-72.3778923533
 20
-24.3638438763
 40
1.0
100
AcDbArc
 50
180.0
 51
216.9570148925
  0
ARC
  5
488
100
AcDbEntity
  8
RACCORDO
100
AcDbCircle
 62
7
  6
CONTINUOUS
 10
-72.3778923533
 20
22.8361561237
 40
1.0
100
AcDbArc
 50
143.0429851075
 51
180.0
  0
ARC
  5
489
100
AcDbEntity
  8
0
100
AcDbCircle
 62
7
  6
CONTINUOUS
 10
-72.3778923533
 20
22.8361561237
 40
1.0
100
AcDbArc
 50
143.0429851075
 51
180.0
  0
ELLIPSE
  5
48A
100
AcDbEntity
  8
0
100
AcDbEllipse
 62
7
  6
CONTINUOUS
 10
-40.8005293218
 20
-3.3638438763
 30
0.0
 11
-0.0
 21
2.5
 31
0.0
 40
0.0524077793
 41
-2.8577985444
 42
-1.5707963268
  0
ELLIPSE
  5
48B
100
AcDbEntity
  8
0
100
AcDbEllipse
 62
7
  6
CONTINUOUS
 10
-40.8005293218
 20
1.8361561237
 30
0.0
 11
0.0
 21
2.5
 31
0.0
 40
0.0524077793
 41
-1.5707963268
 42
-0.2837941092
  0
ELLIPSE
  5
48C
100
AcDbEntity
  8
0
100
AcDbEllipse
 62
7
  6
CONTINUOUS
 10
39.2728415692
 20
1.8361561237
 30
0.0
 11
-0.0
 21
2.5
 31
0.0
 40
0.0524077793
 41
0.2837941092
 42
1.5707963268
  0
ELLIPSE
  5
48D
100
AcDbEntity
  8
0
100
AcDbEllipse
 62
7
  6
CONTINUOUS
 10
39.2728415692
 20
-3.3638438763
 30
0.0
 11
-0.0
 21
2.5
 31
0.0
 40
0.0524077793
 41
-4.7123889804
 42
-3.4253867628
  0
ELLIPSE
  5
48E
100
AcDbEntity
  8
RACCORDO
100
AcDbEllipse
 62
7
  6
CONTINUOUS
 10
36.2320390857
 20
36.2320390857
 30
0.0
 11
2.1271387303
 21
2.1271387303
 31
0.0
 40
0.9972646886
 41
-0.7840286355
 42
0.7840286355
  0
ELLIPSE
  5
48F
100
AcDbEntity
  8
RACCORDO
100
AcDbEllipse
 62
7
  6
CONTINUOUS
 10
36.2320390857
 20
-37.7597268383
 30
0.0
 11
2.1271387303
 21
-2.1271387303
 31
0.0
 40
0.9972646886
 41
-0.7840286355
 42
0.7840286355
  0
ELLIPSE
  5
490
100
AcDbEntity
  8
RACCORDO
100
AcDbEllipse
 62
7
  6
CONTINUOUS
 10
-37.7597268383
 20
-37.7597268383
 30
0.0
 11
2.1271387303
 21
2.1271387303
 31
0.0
 40
0.9972646886
 41
-3.9256212891
 42
-2.3575640181
  0
ELLIPSE
  5
491
100
AcDbEntity
  8
RACCORDO
100
AcDbEllipse
 62
7
  6
CONTINUOUS
 10
-37.7597268383
 20
36.2320390857
 30
0.0
 11
2.1271387303
 21
-2.1271387303
 31
0.0
 40
0.9972646886
 41
2.3575640181
 42
3.9256212891
  0
ENDSEC
  0
SECTION
  2
OBJECTS
  0
DICTIONARY
  5
C
100
AcDbDictionary
280
0
281
1
  3
ACAD_GROUP
350
D
  3
ACAD_MLINESTYLE
350
17
  3
ACAD_LAYOUT
350
1A
  3
ACAD_PLOTSETTINGS
350
19
  3
ACAD_PLOTSTYLENAME
350
E
  0
DICTIONARY
  5
D
102
{ACAD_REACTORS
330
C
102
}
100
AcDbDictionary
280
0
281
1
  0
ACDBDICTIONARYWDFLT
  5
E
102
{ACAD_REACTORS
330
C
102
}
100
AcDbDictionary
281
1
  3
Normal
350
F
100
AcDbDictionaryWithDefault
340
F
  0
DICTIONARY
  5
17
102
{ACAD_REACTORS
330
C
102
}
100
AcDbDictionary
280
0
281
1
  3
Standard
350
18
  0
DICTIONARY
  5
19
102
{ACAD_REACTORS
330
C
102
}
100
AcDbDictionary
281
1
  0
DICTIONARY
  5
1A
102
{ACAD_REACTORS
330
C
102
}
100
AcDbDictionary
281
1
  3
Model
350
492
  3
Layout1
350
493
  0
ACDBPLACEHOLDER
  5
F
102
{ACAD_REACTORS
330
E
102
}
  0
MLINESTYLE
  5
18
102
{ACAD_REACTORS
330
17
102
}
100
AcDbMlineStyle
  2
STANDARD
 70
0
  3

 62
256
 51
90.0
 52
90.0
 71
2
 49
0.5
 62
256
  6
BYLAYER
 49
-0.5
 62
256
  6
BYLAYER
  0
LAYOUT
  5
492
102
{ACAD_REACTORS
330
1A
102
}
100
AcDbPlotSettings
  1

  2
none_device
  4
ISO_A4_(297.00_x_210.00_MM)
  6

 40
0.0
 41
0.0
 42
0.0
 43
0.0
 44
297.0
 45
210.0
 46
0.0
 47
0.0
 48
0.0
 49
0.0
140
0.0
141
0.0
142
1.0
143
1.0
 70
1024
 72
1
 73
0
 74
0
  7

 75
0
147
1.0
148
0.0
149
0.0
100
AcDbLayout
  1
Model
 70
0
 71
0
 10
0.0
 20
0.0
 11
297.0
 21
210.0
 12
0.0
 22
0.0
 32
0.0
 14
0.0
 24
0.0
 34
0.0
 15
0.0
 25
0.0
 35
0.0
146
0.0
 13
0.0
 23
0.0
 33
0.0
 16
1.0
 26
0.0
 36
0.0
 17
0.0
 27
1.0
 37
0.0
 76
0
330
20F
345
0
346
0
  0
LAYOUT
  5
493
102
{ACAD_REACTORS
330
1A
102
}
100
AcDbPlotSettings
  1

  2
none_device
  4
ISO_A4_(297.00_x_210.00_MM)
  6

 40
0.0
 41
0.0
 42
0.0
 43
0.0
 44
297.0
 45
210.0
 46
0.0
 47
0.0
 48
0.0
 49
0.0
140
0.0
141
0.0
142
1.0
143
1.0
 70
0
 72
1
 73
0
 74
0
  7

 75
0
147
1.0
148
0.0
149
0.0
100
AcDbLayout
  1
Layout1
 70
0
 71
1
 10
0.0
 20
0.0
 11
297.0
 21
210.0
 12
0.0
 22
0.0
 32
0.0
 14
0.0
 24
0.0
 34
0.0
 15
0.0
 25
0.0
 35
0.0
146
0.0
 13
0.0
 23
0.0
 33
0.0
 16
1.0
 26
0.0
 36
0.0
 17
0.0
 27
1.0
 37
0.0
 76
0
330
210
345
0
346
0
  0
ENDSEC
  0
EOF
