  0
SECTION
  2
HEADER
  9
$ACADVER
  1
AC1024
  9
$DWGCODEPAGE
  3
ANSI_1252
  9
$EXTMAX
 10
297.0
 20
210.0
 30
0.0
  9
$EXTMIN
 10
0.0
 20
0.0
 30
0.0
  9
$LIMMIN
 10
0.0
 20
0.0
  9
$LIMMAX
 10
297.0
 20
210.0
  9
$VIEWCTR
 10
148.5
 20
105.0
  9
$VIEWSIZE
 40
210.0
  9
$CLAYER
  8
0
  9
$LTSCALE
 40
16.335
  9
$CELTYPE
  6
BYLAYER
  9
$DIMSCALE
 40
1.0
  9
$DIMASZ
 40
3.0
  9
$DIMEXO
 40
0.5
  9
$DIMDLI
 40
11.286
  9
$DIMEXE
 40
1.5
  9
$DIMCEN
 40
2.673
  9
$DIMLFAC
 40
1.0
  9
$DIMBLK
  1
_FILLED
  9
$DIMALT
 70
0
  9
$DIMALTF
 40
0.0393700787
  9
$DIMTXT
 40
3.0
  9
$DIMTOL
 70
1
  9
$DIMLIM
 70
0
  9
$DIMTFAC
 40
1.0
  9
$DIMTP
 40
0.01
  9
$DIMTM
 40
0.01
  9
$DIMGAP
 40
0.625
  9
$DIMDSEP
 70
44
  9
$AUNITS
 70
0
  9
$PDMODE
 70
3
  9
$PDSIZE
 40
3.0
  9
$HANDSEED
  5
4A7
  9
$TILEMODE
 70
1
  9
$MEASUREMENT
 70
1
  9
$INSUNITS
 70
4
  0
ENDSEC
  0
SECTION
  2
CLASSES
  0
CLASS
  1
ACDBDICTIONARYWDFLT
  2
AcDbDictionaryWithDefault
  3
AutoCAD 2000
 90
0
 91
1
280
0
281
0
  0
CLASS
  1
ACDBPLACEHOLDER
  2
AcDbPlaceHolder
  3
AutoCAD 2000
 90
0
 91
1
280
0
281
0
  0
CLASS
  1
LAYOUT
  2
AcDbLayout
  3
AutoCAD 2000
 90
0
 91
0
280
0
281
0
  0
ENDSEC
  0
SECTION
  2
TABLES
  0
TABLE
  2
VPORT
  5
8
100
AcDbSymbolTable
 70
2
  0
VPORT
  5
1F4
100
AcDbSymbolTableRecord
100
AcDbViewportTableRecord
  2
*ACTIVE
 70
0
 10
0.0
 20
0.0
 11
1.0
 21
1.0
 12
148.5
 22
105.0
 13
0.0
 23
0.0
 14
1.0
 24
1.0
 15
0.0
 25
0.0
 16
0.0
 26
0.0
 36
1.0
 17
0.0
 27
0.0
 37
0.0
 40
210.0
 41
1.4142857143
 42
50.0
 43
0.0
 44
0.0
 50
0.0
 51
0.0
 71
0
 72
100
 73
1
 74
1
 75
0
 76
0
 77
0
 78
0
  0
ENDTAB
  0
TABLE
  2
LTYPE
  5
5
100
AcDbSymbolTable
 70
6
  0
LTYPE
  5
14
100
AcDbSymbolTableRecord
100
AcDbLinetypeTableRecord
  2
BYBLOCK
 70
0
  3

 72
65
 73
0
 40
0.0
  0
LTYPE
  5
15
100
AcDbSymbolTableRecord
100
AcDbLinetypeTableRecord
  2
BYLAYER
 70
0
  3

 72
65
 73
0
 40
0.0
  0
LTYPE
  5
16
100
AcDbSymbolTableRecord
100
AcDbLinetypeTableRecord
  2
CONTINUOUS
 70
64
  3
Solid line
 72
65
 73
0
 40
0.0
  0
LTYPE
  5
1F5
100
AcDbSymbolTableRecord
100
AcDbLinetypeTableRecord
  2
CENTER
 70
64
  3
____ _ ____ _ ____ _ ____ _ ____ _ ____ _ ____
 72
65
 73
4
 40
0.6
 49
0.375
 74
0
 49
-0.075
 74
0
 49
0.075
 74
0
 49
-0.075
 74
0
  0
LTYPE
  5
1F6
100
AcDbSymbolTableRecord
100
AcDbLinetypeTableRecord
  2
HIDDEN
 70
64
  3
- - - - - - - - - - - - - - - - - - - -
 72
65
 73
2
 40
0.2
 49
0.1
 74
0
 49
-0.1
 74
0
  0
LTYPE
  5
1F7
100
AcDbSymbolTableRecord
100
AcDbLinetypeTableRecord
  2
PHANTOM
 70
64
  3
_____ _ _ _____ _ _ _____ _ _ _____
 72
65
 73
6
 40
0.8
 49
0.45
 74
0
 49
-0.05
 74
0
 49
0.1
 74
0
 49
-0.05
 74
0
 49
0.1
 74
0
 49
-0.05
 74
0
  0
LTYPE
  5
1F8
100
AcDbSymbolTableRecord
100
AcDbLinetypeTableRecord
  2
DOT
 70
64
  3
. . . . . . . . . . . . . . . . . . . .
 72
65
 73
2
 40
0.2
 49
0.1
 74
0
 49
-0.1
 74
0
  0
LTYPE
  5
1F9
100
AcDbSymbolTableRecord
100
AcDbLinetypeTableRecord
  2
DASHED
 70
64
  3
- - - - - - - - - - - - - - - - - - - -
 72
65
 73
2
 40
0.2
 49
0.1
 74
0
 49
-0.1
 74
0
  0
ENDTAB
  0
TABLE
  2
LAYER
  5
2
100
AcDbSymbolTable
 70
36
  0
LAYER
  5
10
100
AcDbSymbolTableRecord
100
AcDbLayerTableRecord
  2
0
 70
0
 62
7
  6
CONTINUOUS
370
-3
390
F
  0
LAYER
  5
1FA
100
AcDbSymbolTableRecord
100
AcDbLayerTableRecord
  2
DEFAULT_1
 70
0
 62
7
  6
CENTER
370
-3
390
F
  0
LAYER
  5
1FB
100
AcDbSymbolTableRecord
100
AcDbLayerTableRecord
  2
DEFAULT_2
 70
0
 62
7
  6
HIDDEN
370
-3
390
F
  0
LAYER
  5
1FC
100
AcDbSymbolTableRecord
100
AcDbLayerTableRecord
  2
DEFAULT_3
 70
0
 62
7
  6
PHANTOM
370
-3
390
F
  0
LAYER
  5
1FD
100
AcDbSymbolTableRecord
100
AcDbLayerTableRecord
  2
ASSI
 70
0
 62
7
  6
CONTINUOUS
370
-3
390
F
  0
LAYER
  5
1FE
100
AcDbSymbolTableRecord
100
AcDbLayerTableRecord
  2
COLOR16
 70
0
 62
7
  6
CONTINUOUS
370
-3
390
F
  0
LAYER
  5
1FF
100
AcDbSymbolTableRecord
100
AcDbLayerTableRecord
  2
COLOR5
 70
0
 62
7
  6
CONTINUOUS
370
-3
390
F
  0
LAYER
  5
200
100
AcDbSymbolTableRecord
100
AcDbLayerTableRecord
  2
COORDINATE
 70
0
 62
7
  6
CONTINUOUS
370
-3
390
F
  0
LAYER
  5
201
100
AcDbSymbolTableRecord
100
AcDbLayerTableRecord
  2
COORD_ORIGINE
 70
0
 62
7
  6
CONTINUOUS
370
-3
390
F
  0
LAYER
  5
202
100
AcDbSymbolTableRecord
100
AcDbLayerTableRecord
  2
CURVE
 70
0
 62
7
  6
CONTINUOUS
370
-3
390
F
  0
LAYER
  5
203
100
AcDbSymbolTableRecord
100
AcDbLayerTableRecord
  2
DRAFT
 70
0
 62
7
  6
CONTINUOUS
370
-3
390
F
  0
LAYER
  5
204
100
AcDbSymbolTableRecord
100
AcDbLayerTableRecord
  2
ESTRATTORI
 70
0
 62
7
  6
CONTINUOUS
370
-3
390
F
  0
LAYER
  5
205
100
AcDbSymbolTableRecord
100
AcDbLayerTableRecord
  2
IGES
 70
0
 62
7
  6
CONTINUOUS
370
-3
390
F
  0
LAYER
  5
206
100
AcDbSymbolTableRecord
100
AcDbLayerTableRecord
  2
INTF_1
 70
0
 62
7
  6
CONTINUOUS
370
-3
390
F
  0
LAYER
  5
207
100
AcDbSymbolTableRecord
100
AcDbLayerTableRecord
  2
INTF_6
 70
0
 62
7
  6
CONTINUOUS
370
-3
390
F
  0
LAYER
  5
208
100
AcDbSymbolTableRecord
100
AcDbLayerTableRecord
  2
INTF_7
 70
0
 62
7
  6
CONTINUOUS
370
-3
390
F
  0
LAYER
  5
209
100
AcDbSymbolTableRecord
100
AcDbLayerTableRecord
  2
INTF_BLANK
 70
0
 62
7
  6
CONTINUOUS
370
-3
390
F
  0
LAYER
  5
20A
100
AcDbSymbolTableRecord
100
AcDbLayerTableRecord
  2
INTF_RED
 70
0
 62
7
  6
CONTINUOUS
370
-3
390
F
  0
LAYER
  5
20B
100
AcDbSymbolTableRecord
100
AcDbLayerTableRecord
  2
NOTE
 70
0
 62
7
  6
CONTINUOUS
370
-3
390
F
  0
LAYER
  5
20C
100
AcDbSymbolTableRecord
100
AcDbLayerTableRecord
  2
PIANI
 70
0
 62
7
  6
CONTINUOUS
370
-3
390
F
  0
LAYER
  5
20D
100
AcDbSymbolTableRecord
100
AcDbLayerTableRecord
  2
PIANI_ORIGINE
 70
0
 62
7
  6
CONTINUOUS
370
-3
390
F
  0
LAYER
  5
20E
100
AcDbSymbolTableRecord
100
AcDbLayerTableRecord
  2
PLACCA
 70
0
 62
7
  6
CONTINUOUS
370
-3
390
F
  0
LAYER
  5
20F
100
AcDbSymbolTableRecord
100
AcDbLayerTableRecord
  2
PUNTI
 70
0
 62
7
  6
CONTINUOUS
370
-3
390
F
  0
LAYER
  5
210
100
AcDbSymbolTableRecord
100
AcDbLayerTableRecord
  2
RACCORDO
 70
0
 62
7
  6
CONTINUOUS
370
-3
390
F
  0
LAYER
  5
211
100
AcDbSymbolTableRecord
100
AcDbLayerTableRecord
  2
RGB__255__255__255__
 70
0
 62
7
  6
CONTINUOUS
370
-3
390
F
  0
LAYER
  5
212
100
AcDbSymbolTableRecord
100
AcDbLayerTableRecord
  2
RGB____0____0____0__
 70
0
 62
7
  6
CONTINUOUS
370
-3
390
F
  0
LAYER
  5
213
100
AcDbSymbolTableRecord
100
AcDbLayerTableRecord
  2
SMUSSO
 70
0
 62
7
  6
CONTINUOUS
370
-3
390
F
  0
LAYER
  5
214
100
AcDbSymbolTableRecord
100
AcDbLayerTableRecord
  2
SNAPLINE
 70
0
 62
7
  6
CONTINUOUS
370
-3
390
F
  0
LAYER
  5
215
100
AcDbSymbolTableRecord
100
AcDbLayerTableRecord
  2
SUPERFICI
 70
0
 62
7
  6
CONTINUOUS
370
-3
390
F
  0
LAYER
  5
216
100
AcDbSymbolTableRecord
100
AcDbLayerTableRecord
  2
SUPPORTO
 70
0
 62
7
  6
CONTINUOUS
370
-3
390
F
  0
LAYER
  5
217
100
AcDbSymbolTableRecord
100
AcDbLayerTableRecord
  2
TEMP
 70
0
 62
7
  6
CONTINUOUS
370
-3
390
F
  0
LAYER
  5
218
100
AcDbSymbolTableRecord
100
AcDbLayerTableRecord
  2
TRASH
 70
0
 62
7
  6
CONTINUOUS
370
-3
390
F
  0
LAYER
  5
219
100
AcDbSymbolTableRecord
100
AcDbLayerTableRecord
  2
WHITE
 70
0
 62
7
  6
CONTINUOUS
370
-3
390
F
  0
LAYER
  5
21A
100
AcDbSymbolTableRecord
100
AcDbLayerTableRecord
  2
XSEC_DATUMS
 70
0
 62
7
  6
CONTINUOUS
370
-3
390
F
  0
ENDTAB
  0
TABLE
  2
STYLE
  5
3
100
AcDbSymbolTable
 70
1
  0
STYLE
  5
11
100
AcDbSymbolTableRecord
100
AcDbTextStyleTableRecord
  2
STANDARD
 70
0
 40
0.0
 41
0.8
 50
0.0
 71
0
 42
0.2
  3
txt
  4

  0
STYLE
  5
21B
100
AcDbSymbolTableRecord
100
AcDbTextStyleTableRecord
  2
TEXTSTYLE_1
 70
0
 40
0.0
 41
0.8
 50
0.0
 71
0
 42
0.2
  3
gdt
  4

  0
ENDTAB
  0
TABLE
  2
VIEW
  5
6
100
AcDbSymbolTable
 70
0
  0
ENDTAB
  0
TABLE
  2
UCS
  5
7
100
AcDbSymbolTable
 70
0
  0
ENDTAB
  0
TABLE
  2
APPID
  5
9
100
AcDbSymbolTable
 70
1
  0
APPID
  5
21C
100
AcDbSymbolTableRecord
100
AcDbRegAppTableRecord
  2
ACAD
 70
0
  0
ENDTAB
  0
TABLE
  2
BLOCK_RECORD
  5
1
100
AcDbSymbolTable
 70
0
  0
BLOCK_RECORD
  5
21D
100
AcDbSymbolTableRecord
100
AcDbBlockTableRecord
  2
*Model_Space
  0
BLOCK_RECORD
  5
21E
100
AcDbSymbolTableRecord
100
AcDbBlockTableRecord
  2
*Paper_Space
  0
BLOCK_RECORD
  5
21F
100
AcDbSymbolTableRecord
100
AcDbBlockTableRecord
  2
_FILLED
  0
BLOCK_RECORD
  5
220
100
AcDbSymbolTableRecord
100
AcDbBlockTableRecord
  2
*D0
  0
BLOCK_RECORD
  5
221
100
AcDbSymbolTableRecord
100
AcDbBlockTableRecord
  2
*D1
  0
BLOCK_RECORD
  5
222
100
AcDbSymbolTableRecord
100
AcDbBlockTableRecord
  2
*D2
  0
ENDTAB
  0
TABLE
  2
DIMSTYLE
  5
A
100
AcDbSymbolTable
 70
1
100
AcDbDimStyleTable
 71
0
  0
DIMSTYLE
105
223
100
AcDbSymbolTableRecord
100
AcDbDimStyleTableRecord
  2
STANDARD
 70
0
  3

  4

 40
1.0
 41
3.0
 42
0.5
 43
0.38
 44
1.5
 45
0.0
 46
0.0
 47
0.01
 48
0.01
140
3.0
141
0.09
142
0.0
143
25.4
144
1.0
145
0.0
146
1.0
147
0.625
 71
1
 72
0
 73
0
 74
0
 75
0
 76
0
 77
1
 78
8
 79
2
170
0
171
1
172
0
173
0
174
0
175
0
176
0
177
0
178
0
270
2
179
2
271
2
272
2
273
2
274
2
275
0
280
0
281
0
282
0
283
1
284
8
285
0
286
0
287
3
288
0
340
11
278
44
341
21F
342
21F
343
21F
344
21F
  0
DIMSTYLE
105
224
100
AcDbSymbolTableRecord
100
AcDbDimStyleTableRecord
  2
DIMSTYLE_1
 70
0
  3

  4

 40
1.0
 41
3.0
 42
0.5
 43
0.38
 44
1.5
 45
0.0
 46
0.0
 47
0.0
 48
0.0
140
3.0
141
0.09
142
0.0
143
25.4
144
1.0
145
0.0
146
1.0
147
0.75
 71
0
 72
0
 73
0
 74
0
 75
0
 76
0
 77
1
 78
8
 79
2
170
0
171
1
172
0
173
0
174
0
175
0
176
0
177
0
178
0
270
2
179
2
271
2
272
2
273
2
274
2
275
0
280
0
281
0
282
0
283
1
284
8
285
0
286
0
287
3
288
0
340
11
278
44
341
21F
342
21F
343
21F
344
21F
  0
ENDTAB
  0
ENDSEC
  0
SECTION
  2
BLOCKS
  0
BLOCK
  5
20
100
AcDbEntity
  8
0
100
AcDbBlockBegin
  2
*Model_Space
 70
0
 10
0.0
 20
0.0
 30
0.0
  3
*Model_Space
  1

  0
ENDBLK
  5
21
100
AcDbEntity
  8
0
100
AcDbBlockEnd
  0
BLOCK
  5
1C
100
AcDbEntity
  8
0
100
AcDbBlockBegin
  2
*Paper_Space
 70
0
 10
0.0
 20
0.0
 30
0.0
  3
*Paper_Space
  1

  0
ENDBLK
  5
1D
100
AcDbEntity
  8
0
100
AcDbBlockEnd
  0
BLOCK
  5
225
100
AcDbEntity
  8
0
100
AcDbBlockBegin
  2
_FILLED
 70
64
 10
0.0
 20
0.0
  3
_FILLED
  1

  0
SOLID
  5
226
100
AcDbEntity
  8
0
  6
BYBLOCK
 62
0
100
AcDbTrace
 10
0.0
 20
0.0
 11
-1.0
 21
0.3166666667
 12
-1.0
 22
-0.3166666667
 13
-1.0
 23
-0.3166666667
  0
ENDBLK
  5
227
100
AcDbEntity
  8
0
  6
BYBLOCK
 62
0
100
AcDbBlockEnd
  0
BLOCK
  5
228
100
AcDbEntity
  8
0
100
AcDbBlockBegin
 62
7
  6
CONTINUOUS
  2
*D0
 70
65
 10
0.0
 20
0.0
  3
*D0
  1

  0
LINE
  5
229
100
AcDbEntity
  8
0
100
AcDbLine
 62
7
  6
CONTINUOUS
 10
-40.0
 20
37.5
 11
-40.0
 21
50.5658076655
  0
LINE
  5
22A
100
AcDbEntity
  8
0
100
AcDbLine
 62
7
  6
CONTINUOUS
 10
40.0
 20
37.5
 11
40.0
 21
50.5658076655
  0
LINE
  5
22B
100
AcDbEntity
  8
0
100
AcDbLine
 62
7
  6
CONTINUOUS
 10
-40.0
 20
49.0658076655
 11
0.0
 21
49.0658076655
  0
LINE
  5
22C
100
AcDbEntity
  8
0
100
AcDbLine
 62
7
  6
CONTINUOUS
 10
40.0
 20
49.0658076655
 11
0.0
 21
49.0658076655
  0
INSERT
  5
22D
100
AcDbEntity
  8
0
100
AcDbBlockReference
 62
7
  6
CONTINUOUS
  2
_FILLED
 10
-40.0
 20
49.0658076655
 41
3.0
 42
3.0
 43
3.0
 50
180.0
  0
INSERT
  5
22E
100
AcDbEntity
  8
0
100
AcDbBlockReference
 62
7
  6
CONTINUOUS
  2
_FILLED
 10
40.0
 20
49.0658076655
 41
3.0
 42
3.0
 43
3.0
  0
ENDBLK
  5
22F
100
AcDbEntity
  8
0
  6
BYBLOCK
 62
0
100
AcDbBlockEnd
  0
BLOCK
  5
230
100
AcDbEntity
  8
0
100
AcDbBlockBegin
 62
7
  6
CONTINUOUS
  2
*D1
 70
65
 10
0.0
 20
0.0
  3
*D1
  1

  0
LINE
  5
231
100
AcDbEntity
  8
0
100
AcDbLine
 62
7
  6
CONTINUOUS
 10
-74.8466310568
 20
23.9995925347
 11
-74.8466310568
 21
50.5658076655
  0
LINE
  5
232
100
AcDbEntity
  8
0
100
AcDbLine
 62
7
  6
CONTINUOUS
 10
-65.6466307413
 20
39.0084230369
 11
-65.6466307413
 21
50.5658076655
  0
LINE
  5
233
100
AcDbEntity
  8
0
100
AcDbLine
 62
7
  6
CONTINUOUS
 10
-74.8466310568
 20
49.0658076655
 11
-78.8466310568
 21
49.0658076655
  0
LINE
  5
234
100
AcDbEntity
  8
0
100
AcDbLine
 62
7
  6
CONTINUOUS
 10
-78.8466310568
 20
49.0658076655
 11
-70.2466308991
 21
49.0658076655
  0
LINE
  5
235
100
AcDbEntity
  8
0
100
AcDbLine
 62
7
  6
CONTINUOUS
 10
-65.6466307413
 20
49.0658076655
 11
-61.6466307413
 21
49.0658076655
  0
LINE
  5
236
100
AcDbEntity
  8
0
100
AcDbLine
 62
7
  6
CONTINUOUS
 10
-61.6466307413
 20
49.0658076655
 11
-70.2466308991
 21
49.0658076655
  0
INSERT
  5
237
100
AcDbEntity
  8
0
100
AcDbBlockReference
 62
7
  6
CONTINUOUS
  2
_FILLED
 10
-74.8466310568
 20
49.0658076655
 41
3.0
 42
3.0
 43
3.0
  0
INSERT
  5
238
100
AcDbEntity
  8
0
100
AcDbBlockReference
 62
7
  6
CONTINUOUS
  2
_FILLED
 10
-65.6466307413
 20
49.0658076655
 41
3.0
 42
3.0
 43
3.0
 50
180.0
  0
ENDBLK
  5
239
100
AcDbEntity
  8
0
  6
BYBLOCK
 62
0
100
AcDbBlockEnd
  0
BLOCK
  5
23A
100
AcDbEntity
  8
0
100
AcDbBlockBegin
 62
7
  6
CONTINUOUS
  2
*D2
 70
65
 10
0.0
 20
0.0
  3
*D2
  1

  0
LINE
  5
23B
100
AcDbEntity
  8
0
100
AcDbLine
 62
7
  6
CONTINUOUS
 10
-66.3466307413
 20
40.0
 11
-84.3466310568
 21
40.0
  0
LINE
  5
23C
100
AcDbEntity
  8
0
100
AcDbLine
 62
7
  6
CONTINUOUS
 10
-66.3466307413
 20
-40.0
 11
-84.3466310568
 21
-40.0
  0
LINE
  5
23D
100
AcDbEntity
  8
0
100
AcDbLine
 62
7
  6
CONTINUOUS
 10
-82.8466310568
 20
40.0
 11
-82.8466310568
 21
0.0
  0
LINE
  5
23E
100
AcDbEntity
  8
0
100
AcDbLine
 62
7
  6
CONTINUOUS
 10
-82.8466310568
 20
-40.0
 11
-82.8466310568
 21
0.0
  0
INSERT
  5
23F
100
AcDbEntity
  8
0
100
AcDbBlockReference
 62
7
  6
CONTINUOUS
  2
_FILLED
 10
-82.8466310568
 20
40.0
 41
3.0
 42
3.0
 43
3.0
 50
90.0
  0
INSERT
  5
240
100
AcDbEntity
  8
0
100
AcDbBlockReference
 62
7
  6
CONTINUOUS
  2
_FILLED
 10
-82.8466310568
 20
-40.0
 41
3.0
 42
3.0
 43
3.0
 50
270.0
  0
ENDBLK
  5
241
100
AcDbEntity
  8
0
  6
BYBLOCK
 62
0
100
AcDbBlockEnd
  0
ENDSEC
  0
SECTION
  2
ENTITIES
  0
DIMENSION
  5
242
100
AcDbEntity
  8
0
100
AcDbDimension
 62
7
  6
CONTINUOUS
  2
*D0
 10
40.0
 20
49.0658076655
 11
-2.3571428571
 21
49.0658076655
 70
160
 71
2
 72
2
 41
0.9
 42
80.0
  3
DIMSTYLE_1
100
AcDbAlignedDimension
 13
-40.0
 23
37.0
 14
40.0
 24
37.0
100
AcDbRotatedDimension
  0
DIMENSION
  5
243
100
AcDbEntity
  8
0
100
AcDbDimension
 62
7
  6
CONTINUOUS
  2
*D1
 10
-65.6466307413
 20
49.0658076655
 11
-73.4609166133
 21
49.0658076655
 70
160
 71
2
 72
2
 41
0.9
 42
9.2000003155
  3
DIMSTYLE_1
100
AcDbAlignedDimension
 13
-74.8466310568
 23
23.4995925347
 14
-65.6466307413
 24
38.5084230369
100
AcDbRotatedDimension
  0
DIMENSION
  5
244
100
AcDbEntity
  8
0
100
AcDbDimension
 62
7
  6
CONTINUOUS
  2
*D2
 10
-82.8466310568
 20
-40.0
 11
-82.8466310568
 21
-2.3571428571
 70
160
 71
2
 72
2
 41
0.9
 42
80.0
  3
DIMSTYLE_1
100
AcDbAlignedDimension
 13
-65.8466307413
 23
40.0
 14
-65.8466307413
 24
-40.0
 50
270.0
100
AcDbRotatedDimension
  0
LWPOLYLINE
  5
245
100
AcDbEntity
  8
SUPERFICI
100
AcDbPolyline
 62
250
  6
CONTINUOUS
 90
13
 70
0
 10
-37.0
 20
39.7689897085
 10
-37.0052041912
 20
39.7563744438
 10
-37.0103394827
 20
39.7307062135
 10
-37.0153378885
 20
39.6923248164
 10
-37.0201332345
 20
39.6417383495
 10
-37.0246620352
 20
39.5796164822
 10
-37.0288643333
 20
39.5067815903
 10
-37.0326844941
 20
39.4241978702
 10
-37.0360719416
 20
39.3329585741
 10
-37.0389818279
 20
39.2342715377
 10
-37.0413756275
 20
39.1294431909
 10
-37.0432216467
 20
39.0198612626
 10
-37.0444954435
 20
38.9069764105
  0
LWPOLYLINE
  5
246
100
AcDbEntity
  8
SUPERFICI
100
AcDbPolyline
 62
250
  6
CONTINUOUS
 90
13
 70
0
 10
-39.7693588419
 20
37.0
 10
-39.7566970084
 20
37.0044482391
 10
-39.7309220601
 20
37.0088373177
 10
-39.6923767971
 20
37.0131088623
 10
-39.6415738613
 20
37.0172060624
 10
-39.5791889188
 20
37.0210744262
 10
-39.506051673
 20
37.0246625056
 10
-39.4231348304
 20
37.0279225801
 10
-39.3315411635
 20
37.0308112915
 10
-39.2324888442
 20
37.0332902206
 10
-39.1272952429
 20
37.0353263984
 10
-39.017359407
 20
37.0368927443
 10
-38.9041434548
 20
37.0379684263
  0
LWPOLYLINE
  5
247
100
AcDbEntity
  8
SUPERFICI
100
AcDbPolyline
 62
250
  6
CONTINUOUS
 90
13
 70
0
 10
-39.7693588487
 20
-37.0
 10
-39.7566970083
 20
-37.0044481434
 10
-39.730922054
 20
-37.0088371322
 10
-39.6923767863
 20
-37.0131085967
 10
-39.641573847
 20
-37.0172057303
 10
-39.5791889021
 20
-37.0210740449
 10
-39.5060516552
 20
-37.0246620957
 10
-39.4231348125
 20
-37.0279221652
 10
-39.3315411465
 20
-37.0308108981
 10
-39.2324888291
 20
-37.0332898775
 10
-39.1272952304
 20
-37.0353261365
 10
-39.017359398
 20
-37.0368925959
 10
-38.9041434496
 20
-37.0379684249
  0
LWPOLYLINE
  5
248
100
AcDbEntity
  8
SUPERFICI
100
AcDbPolyline
 62
250
  6
CONTINUOUS
 90
13
 70
0
 10
-37.0
 20
-39.7689896843
 10
-37.0052040326
 20
-39.7563742479
 10
-37.0103391739
 20
-39.7307058749
 10
-37.0153374443
 20
-39.6923243653
 10
-37.0201326764
 20
-39.6417378168
 10
-37.0246613904
 20
-39.5796158983
 10
-37.0288636349
 20
-39.5067809848
 10
-37.0326837803
 20
-39.4241972712
 10
-37.036071255
 20
-39.3329580074
 10
-37.0389812156
 20
-39.2342710264
 10
-37.0413751395
 20
-39.1294427547
 10
-37.0432213359
 20
-39.0198609177
 10
-37.0444953648
 20
-38.9069761689
  0
LINE
  5
249
100
AcDbEntity
  8
SUPERFICI
100
AcDbLine
 62
250
  6
CONTINUOUS
 10
-38.9248277854
 20
-36.4805438572
 11
-38.9302129845
 21
-36.3795723071
  0
LINE
  5
24A
100
AcDbEntity
  8
SUPERFICI
100
AcDbLine
 62
250
  6
CONTINUOUS
 10
-38.9200884019
 20
-36.586726312
 11
-38.9248277854
 21
-36.4805438572
  0
LWPOLYLINE
  5
24B
100
AcDbEntity
  8
SUPERFICI
100
AcDbPolyline
 62
250
  6
CONTINUOUS
 90
3
 70
0
 10
-38.9302129845
 20
-36.3795723071
 10
-38.9323809247
 20
-36.3297044139
 10
-38.9336599499
 20
-36.279832093
  0
LINE
  5
24C
100
AcDbEntity
  8
SUPERFICI
100
AcDbLine
 62
250
  6
CONTINUOUS
 10
-38.9131895708
 20
-36.7637212662
 11
-38.9200884019
 21
-36.586726312
  0
LINE
  5
24D
100
AcDbEntity
  8
SUPERFICI
100
AcDbLine
 62
250
  6
CONTINUOUS
 10
-38.9041434496
 20
-37.0379684249
 11
-38.9131895708
 21
-36.7637212662
  0
LINE
  5
24E
100
AcDbEntity
  8
SUPERFICI
100
AcDbLine
 62
250
  6
CONTINUOUS
 10
-38.9336599499
 20
-36.279832093
 11
-38.9349546348
 21
-36.1805674245
  0
LINE
  5
24F
100
AcDbEntity
  8
SUPERFICI
100
AcDbLine
 62
250
  6
CONTINUOUS
 10
-38.9349546348
 20
-36.1805674245
 11
-38.9592550447
 21
-32.9560716094
  0
LINE
  5
250
100
AcDbEntity
  8
SUPERFICI
100
AcDbLine
 62
250
  6
CONTINUOUS
 10
-38.9592550447
 20
-32.9560716094
 11
-38.9720082267
 21
-30.8241197758
  0
LINE
  5
251
100
AcDbEntity
  8
SUPERFICI
100
AcDbLine
 62
250
  6
CONTINUOUS
 10
-38.9720082267
 20
-30.8241197758
 11
-38.9817462286
 21
-28.6328256031
  0
LINE
  5
252
100
AcDbEntity
  8
SUPERFICI
100
AcDbLine
 62
250
  6
CONTINUOUS
 10
-38.9817462286
 20
-28.6328256031
 11
-38.9888702255
 21
-26.1630635385
  0
LINE
  5
253
100
AcDbEntity
  8
SUPERFICI
100
AcDbLine
 62
250
  6
CONTINUOUS
 10
-38.9888702255
 20
-26.1630635385
 11
-38.994108464
 21
-22.6448377577
  0
LINE
  5
254
100
AcDbEntity
  8
SUPERFICI
100
AcDbLine
 62
250
  6
CONTINUOUS
 10
-38.994108464
 20
-22.6448377577
 11
-38.9970983134
 21
-18.0797848175
  0
LINE
  5
255
100
AcDbEntity
  8
RACCORDO
100
AcDbLine
 62
7
  6
CONTINUOUS
 10
-40.0
 20
-37.0
 11
-40.0
 21
-3.9848721447
  0
LINE
  5
256
100
AcDbEntity
  8
RACCORDO
100
AcDbLine
 62
7
  6
CONTINUOUS
 10
-40.0
 20
3.9848721447
 11
-40.0
 21
37.0
  0
LINE
  5
257
100
AcDbEntity
  8
RACCORDO
100
AcDbLine
 62
7
  6
CONTINUOUS
 10
-39.8742213297
 20
3.2251006478
 11
-39.8742213297
 21
-3.2251006478
  0
LINE
  5
258
100
AcDbEntity
  8
SUPERFICI
100
AcDbLine
 62
250
  6
CONTINUOUS
 10
-39.7662099968
 20
27.5855186441
 11
-39.7693588487
 21
37.0
  0
LINE
  5
259
100
AcDbEntity
  8
SUPERFICI
100
AcDbLine
 62
250
  6
CONTINUOUS
 10
-38.9970983134
 20
-18.0797848175
 11
-38.9968672548
 21
-11.5185115506
  0
LINE
  5
25A
100
AcDbEntity
  8
SUPERFICI
100
AcDbLine
 62
250
  6
CONTINUOUS
 10
-38.9968672548
 20
-11.5185115506
 11
-38.9974806188
 21
15.8582981298
  0
LINE
  5
25B
100
AcDbEntity
  8
SUPERFICI
100
AcDbLine
 62
250
  6
CONTINUOUS
 10
-38.9974806188
 20
15.8582981298
 11
-38.9955967192
 21
20.9682162561
  0
LINE
  5
25C
100
AcDbEntity
  8
SUPERFICI
100
AcDbLine
 62
250
  6
CONTINUOUS
 10
-39.7693588487
 20
-37.0
 11
-39.7662099968
 21
27.5855186441
  0
LINE
  5
25D
100
AcDbEntity
  8
SUPERFICI
100
AcDbLine
 62
250
  6
CONTINUOUS
 10
-38.9955967192
 20
20.9682162561
 11
-38.9895317577
 21
25.8468387248
  0
LINE
  5
25E
100
AcDbEntity
  8
SUPERFICI
100
AcDbLine
 62
250
  6
CONTINUOUS
 10
-38.9895317577
 20
25.8468387248
 11
-38.9827061038
 21
28.3648075852
  0
LINE
  5
25F
100
AcDbEntity
  8
SUPERFICI
100
AcDbLine
 62
250
  6
CONTINUOUS
 10
-38.9827061038
 20
28.3648075852
 11
-38.9711816629
 21
30.9803750572
  0
LINE
  5
260
100
AcDbEntity
  8
SUPERFICI
100
AcDbLine
 62
250
  6
CONTINUOUS
 10
-38.9711816629
 20
30.9803750572
 11
-38.9550703402
 21
33.5641570502
  0
LWPOLYLINE
  5
261
100
AcDbEntity
  8
SUPERFICI
100
AcDbPolyline
 62
250
  6
CONTINUOUS
 90
46
 70
0
 10
-39.7693588487
 20
37.0
 10
-39.7688346108
 20
37.0575704889
 10
-39.7669085713
 20
37.1199824313
 10
-39.7632526158
 20
37.1871937569
 10
-39.7574920442
 20
37.2593940448
 10
-39.7492599929
 20
37.336253763
 10
-39.7382677917
 20
37.4169281901
 10
-39.7241653503
 20
37.5012955723
 10
-39.7065896624
 20
37.5892147755
 10
-39.6853469539
 20
37.6797955092
 10
-39.6601299354
 20
37.7728566236
 10
-39.6306289158
 20
37.868193281
 10
-39.5967897975
 20
37.9648795286
 10
-39.5583816301
 20
38.0626882198
 10
-39.515181457
 20
38.1613657356
 10
-39.4673120681
 20
38.2599725348
 10
-39.4146456602
 20
38.3582572455
 10
-39.357067709
 20
38.4559502675
 10
-39.2948970096
 20
38.5521445903
 10
-39.2281239329
 20
38.6465955257
 10
-39.1567472558
 20
38.7390586882
 10
-39.0812707791
 20
38.8287229555
 10
-39.0017910427
 20
38.9153957298
 10
-38.9184156518
 20
38.9988854745
 10
-38.8318207764
 20
39.0785111995
 10
-38.7421908108
 20
39.1541638614
 10
-38.6497185451
 20
39.225739186
 10
-38.5552231795
 20
39.2927200063
 10
-38.4589490511
 20
39.3551033453
 10
-38.3611387929
 20
39.4128961333
 10
-38.262706922
 20
39.4657708995
 10
-38.1639217238
 20
39.5138405577
 10
-38.0650365825
 20
39.5572298124
 10
-37.9670054009
 20
39.5958079798
 10
-37.8700837646
 20
39.6297975358
 10
-37.7744996423
 20
39.6594295704
 10
-37.6811929106
 20
39.6847547201
 10
-37.5903699314
 20
39.7060842628
 10
-37.5022133087
 20
39.723727106
 10
-37.4176276442
 20
39.7378766799
 10
-37.3367547457
 20
39.7488989964
 10
-37.2597177824
 20
39.7571469237
 10
-37.1873769043
 20
39.762911082
 10
-37.1200670697
 20
39.7665619169
 10
-37.0575940505
 20
39.7684777921
 10
-37.0
 20
39.7689897085
  0
LWPOLYLINE
  5
262
100
AcDbEntity
  8
SUPERFICI
100
AcDbPolyline
 62
250
  6
CONTINUOUS
 90
7
 70
0
 10
-38.9550703402
 20
33.5641570502
 10
-38.934896645
 20
36.1942948095
 10
-38.9341949345
 20
36.2434370069
 10
-38.9332778279
 20
36.2922282014
 10
-38.9318587888
 20
36.3416068971
 10
-38.9296533549
 20
36.3911449895
 10
-38.9243123873
 20
36.4915022091
  0
LINE
  5
263
100
AcDbEntity
  8
SUPERFICI
100
AcDbLine
 62
250
  6
CONTINUOUS
 10
-38.9129303482
 20
36.7709199277
 11
-38.9041434431
 21
37.037968423
  0
LWPOLYLINE
  5
264
100
AcDbEntity
  8
SUPERFICI
100
AcDbPolyline
 62
250
  6
CONTINUOUS
 90
46
 70
0
 10
-38.9041434548
 20
37.0379684263
 10
-38.9026086385
 20
37.076050187
 10
-38.9000763462
 20
37.1173402826
 10
-38.8963367464
 20
37.1618109093
 10
-38.8911448428
 20
37.2095867759
 10
-38.8842726423
 20
37.2604511593
 10
-38.8755527986
 20
37.3138485061
 10
-38.8647618191
 20
37.3696998305
 10
-38.8516687133
 20
37.4279137964
 10
-38.836165686
 20
37.4879057342
 10
-38.8180554449
 20
37.5495599702
 10
-38.7971431356
 20
37.612743162
 10
-38.7734128903
 20
37.676843511
 10
-38.7467177021
 20
37.7417134843
 10
-38.7169166368
 20
37.8071916049
 10
-38.6841035663
 20
37.8726606549
 10
-38.6481934086
 20
37.9379602692
 10
-38.6091119548
 20
38.0029219885
 10
-38.5670756808
 20
38.0669526148
 10
-38.5220722217
 20
38.1298983775
 10
-38.474103126
 20
38.1916032348
 10
-38.4235101889
 20
38.2515278351
 10
-38.3703544893
 20
38.3095454894
 10
-38.3147020002
 20
38.3655396693
 10
-38.2569957389
 20
38.4190639451
 10
-38.1973456808
 20
38.4700516127
 10
-38.1358749069
 20
38.5184385128
 10
-38.0731254706
 20
38.563876267
 10
-38.0092519815
 20
38.6063606953
 10
-37.9444095196
 20
38.6458973388
 10
-37.8792005832
 20
38.6822587569
 10
-37.813795998
 20
38.7155144928
 10
-37.748355566
 20
38.7457472658
 10
-37.6835030928
 20
38.7728590289
 10
-37.619399607
 20
38.7969918859
 10
-37.5561931664
 20
38.818291693
 10
-37.4945059449
 20
38.8367688264
 10
-37.4344741619
 20
38.8526173916
 10
-37.3762160986
 20
38.8660327095
 10
-37.320326722
 20
38.8771187934
 10
-37.2668992751
 20
38.8861077095
 10
-37.2160134437
 20
38.8932244937
 10
-37.1682333523
 20
38.8986361267
 10
-37.1237789322
 20
38.9025726109
 10
-37.0825234369
 20
38.9052820205
 10
-37.0444953647
 20
38.9069761685
  0
LINE
  5
265
100
AcDbEntity
  8
SUPERFICI
100
AcDbLine
 62
250
  6
CONTINUOUS
 10
-38.9196629791
 20
36.5967308685
 11
-38.9129303482
 21
36.7709199277
  0
LINE
  5
266
100
AcDbEntity
  8
SUPERFICI
100
AcDbLine
 62
250
  6
CONTINUOUS
 10
-38.9243123873
 20
36.4915022091
 11
-38.9196629791
 21
36.5967308685
  0
LWPOLYLINE
  5
267
100
AcDbEntity
  8
SUPERFICI
100
AcDbPolyline
 62
250
  6
CONTINUOUS
 90
6
 70
0
 10
36.6521158223
 20
-38.9224894189
 10
36.5781337304
 20
-38.9260662001
 10
36.5038409519
 20
-38.9304676075
 10
36.4291726916
 20
-38.9352268869
 10
36.3515833367
 20
-38.9392108691
 10
36.2708739785
 20
-38.9418611108
  0
LINE
  5
268
100
AcDbEntity
  8
SUPERFICI
100
AcDbLine
 62
250
  6
CONTINUOUS
 10
36.8803315731
 20
-38.9129916907
 11
36.6521158223
 21
-38.9224894189
  0
LINE
  5
269
100
AcDbEntity
  8
SUPERFICI
100
AcDbLine
 62
250
  6
CONTINUOUS
 10
37.0444954358
 20
-38.906976387
 11
36.8803315731
 21
-38.9129916907
  0
LINE
  5
26A
100
AcDbEntity
  8
SUPERFICI
100
AcDbLine
 62
250
  6
CONTINUOUS
 10
36.2708739785
 20
-38.9418611108
 11
36.1025193628
 21
-38.9453585477
  0
LINE
  5
26B
100
AcDbEntity
  8
SUPERFICI
100
AcDbLine
 62
250
  6
CONTINUOUS
 10
29.1249151607
 20
-39.0550594955
 11
27.7613764275
 21
-39.0744737831
  0
LINE
  5
26C
100
AcDbEntity
  8
SUPERFICI
100
AcDbLine
 62
250
  6
CONTINUOUS
 10
36.1025193628
 20
-38.9453585477
 11
29.1249151607
 21
-39.0550594955
  0
LINE
  5
26D
100
AcDbEntity
  8
SUPERFICI
100
AcDbLine
 62
250
  6
CONTINUOUS
 10
27.7613764275
 20
-39.0744737831
 11
26.5588561783
 21
-39.0883914998
  0
LINE
  5
26E
100
AcDbEntity
  8
SUPERFICI
100
AcDbLine
 62
250
  6
CONTINUOUS
 10
26.5588561783
 20
-39.0883914998
 11
25.539337547
 21
-39.0966595561
  0
LINE
  5
26F
100
AcDbEntity
  8
SUPERFICI
100
AcDbLine
 62
250
  6
CONTINUOUS
 10
24.7709987324
 20
-39.0987359743
 11
23.4539796942
 21
-39.107075052
  0
LINE
  5
270
100
AcDbEntity
  8
SUPERFICI
100
AcDbLine
 62
250
  6
CONTINUOUS
 10
25.539337547
 20
-39.0966595561
 11
24.7709987324
 21
-39.0987359743
  0
LINE
  5
271
100
AcDbEntity
  8
SUPERFICI
100
AcDbLine
 62
250
  6
CONTINUOUS
 10
23.4539796942
 20
-39.107075052
 11
22.6917310566
 21
-39.1094553031
  0
LINE
  5
272
100
AcDbEntity
  8
0
100
AcDbLine
 62
7
  6
CONTINUOUS
 10
37.0
 20
-40.0
 11
-37.0
 21
-40.0
  0
LINE
  5
273
100
AcDbEntity
  8
SUPERFICI
100
AcDbLine
 62
250
  6
CONTINUOUS
 10
2.7634194929
 20
-39.0959777337
 11
-1.3420281315
 21
-39.0967724186
  0
LWPOLYLINE
  5
274
100
AcDbEntity
  8
SUPERFICI
100
AcDbPolyline
 62
250
  6
CONTINUOUS
 90
3
 70
0
 10
10.1088242866
 20
-39.7619425382
 10
-19.0143325076
 20
-39.7611814318
 10
-37.0
 20
-39.7689897085
  0
LINE
  5
275
100
AcDbEntity
  8
SUPERFICI
100
AcDbLine
 62
250
  6
CONTINUOUS
 10
-11.193256977
 20
-39.0843189133
 11
-22.4781253827
 21
-39.1095387669
  0
LINE
  5
276
100
AcDbEntity
  8
SUPERFICI
100
AcDbLine
 62
250
  6
CONTINUOUS
 10
31.4894108518
 20
-39.7642053991
 11
10.1088242866
 21
-39.7619425382
  0
LWPOLYLINE
  5
277
100
AcDbEntity
  8
SUPERFICI
100
AcDbPolyline
 62
250
  6
CONTINUOUS
 90
3
 70
0
 10
-1.3420281315
 20
-39.0967724186
 10
-3.7115619904
 20
-39.0948082848
 10
-11.193256977
 20
-39.0843189133
  0
LINE
  5
278
100
AcDbEntity
  8
SUPERFICI
100
AcDbLine
 62
250
  6
CONTINUOUS
 10
37.0
 20
-39.7689897085
 11
31.4894108518
 21
-39.7642053991
  0
LINE
  5
279
100
AcDbEntity
  8
SUPERFICI
100
AcDbLine
 62
250
  6
CONTINUOUS
 10
15.8922242243
 20
-39.0885071522
 11
2.7634194929
 21
-39.0959777337
  0
LINE
  5
27A
100
AcDbEntity
  8
SUPERFICI
100
AcDbLine
 62
250
  6
CONTINUOUS
 10
22.6917310566
 20
-39.1094553031
 11
20.6207568771
 21
-39.1042159029
  0
LINE
  5
27B
100
AcDbEntity
  8
SUPERFICI
100
AcDbLine
 62
250
  6
CONTINUOUS
 10
-22.4781253827
 20
-39.1095387669
 11
-23.2610873249
 21
-39.1079612489
  0
LINE
  5
27C
100
AcDbEntity
  8
SUPERFICI
100
AcDbLine
 62
250
  6
CONTINUOUS
 10
20.6207568771
 20
-39.1042159029
 11
15.8922242243
 21
-39.0885071522
  0
LINE
  5
27D
100
AcDbEntity
  8
SUPERFICI
100
AcDbLine
 62
250
  6
CONTINUOUS
 10
-24.7966805409
 20
-39.0982310645
 11
-25.5819373329
 21
-39.0963110125
  0
LINE
  5
27E
100
AcDbEntity
  8
SUPERFICI
100
AcDbLine
 62
250
  6
CONTINUOUS
 10
-23.2610873249
 20
-39.1079612489
 11
-24.7966805409
 21
-39.0982310645
  0
LWPOLYLINE
  5
27F
100
AcDbEntity
  8
SUPERFICI
100
AcDbPolyline
 62
250
  6
CONTINUOUS
 90
46
 70
0
 10
-37.0
 20
-39.7689897085
 10
-37.0576483284
 20
-39.7684766352
 10
-37.119847109
 20
-39.7665710583
 10
-37.1865553547
 20
-39.7629655679
 10
-37.2579328132
 20
-39.7573122129
 10
-37.3336863255
 20
-39.7492693754
 10
-37.413073055
 20
-39.738562207
 10
-37.4959779649
 20
-39.7248625079
 10
-37.5822689608
 20
-39.7078303426
 10
-37.6711608825
 20
-39.6872701209
 10
-37.7624828997
 20
-39.6628883968
 10
-37.8560423419
 20
-39.6343891686
 10
-37.9510175239
 20
-39.6016944928
 10
-38.0471922954
 20
-39.5645747159
 10
-38.1443238116
 20
-39.5228076787
 10
-38.2415680253
 20
-39.4764677216
 10
-38.3386778518
 20
-39.4254153949
 10
-38.4353898807
 20
-39.3695223951
 10
-38.5308813384
 20
-39.3090320488
 10
-38.6249042885
 20
-39.2439078403
 10
-38.7172043962
 20
-39.1741248793
 10
-38.807025897
 20
-39.1000958304
 10
-38.8941738812
 20
-39.0218671058
 10
-38.9784132354
 20
-38.9395309032
 10
-39.0590417162
 20
-38.8537165029
 10
-39.1359403895
 20
-38.7645552439
 10
-39.2089486134
 20
-38.6722387126
 10
-39.2774609092
 20
-38.5776278377
 10
-39.341448485
 20
-38.48095219
 10
-39.4008879891
 20
-38.382447698
 10
-39.455374714
 20
-38.2831012529
 10
-39.505003433
 20
-38.1831839602
 10
-39.549882652
 20
-38.0829507282
 10
-39.5898294167
 20
-37.9834405856
 10
-39.6250617007
 20
-37.8849183257
 10
-39.6558069045
 20
-37.7876212838
 10
-39.682087443
 20
-37.6925839257
 10
-39.7042231361
 20
-37.6000243155
 10
-39.7225319246
 20
-37.5101352706
 10
-39.7372011757
 20
-37.4239180505
 10
-39.748615682
 20
-37.341524067
 10
-39.7571464258
 20
-37.2630838239
 10
-39.7630945732
 20
-37.1895513642
 10
-39.7668529322
 20
-37.1212959982
 10
-39.7688243434
 20
-37.0580975084
 10
-39.7693588487
 20
-37.0
  0
LINE
  5
280
100
AcDbEntity
  8
SUPERFICI
100
AcDbLine
 62
250
  6
CONTINUOUS
 10
-25.5819373329
 20
-39.0963110125
 11
-26.4084844624
 21
-39.0898589969
  0
LINE
  5
281
100
AcDbEntity
  8
SUPERFICI
100
AcDbLine
 62
250
  6
CONTINUOUS
 10
-26.4084844624
 20
-39.0898589969
 11
-27.5566642596
 21
-39.0770972132
  0
LINE
  5
282
100
AcDbEntity
  8
SUPERFICI
100
AcDbLine
 62
250
  6
CONTINUOUS
 10
-27.5566642596
 20
-39.0770972132
 11
-28.886676607
 21
-39.0586569298
  0
LINE
  5
283
100
AcDbEntity
  8
SUPERFICI
100
AcDbLine
 62
250
  6
CONTINUOUS
 10
-28.886676607
 20
-39.0586569298
 11
-35.9975629915
 21
-38.9469974845
  0
LWPOLYLINE
  5
284
100
AcDbEntity
  8
SUPERFICI
100
AcDbPolyline
 62
250
  6
CONTINUOUS
 90
9
 70
0
 10
-35.9975629915
 20
-38.9469974845
 10
-36.1759728924
 20
-38.9439936097
 10
-36.2603059221
 20
-38.9422559724
 10
-36.3424710118
 20
-38.939682168
 10
-36.4213704826
 20
-38.9356648556
 10
-36.4972540293
 20
-38.9308167186
 10
-36.5726852885
 20
-38.9263320717
 10
-36.6476737345
 20
-38.9226980719
 10
-36.7988303522
 20
-38.9162413147
  0
LINE
  5
285
100
AcDbEntity
  8
SUPERFICI
100
AcDbLine
 62
250
  6
CONTINUOUS
 10
-36.7988303522
 20
-38.9162413147
 11
-37.0444954415
 21
-38.9069764045
  0
LWPOLYLINE
  5
286
100
AcDbEntity
  8
SUPERFICI
100
AcDbPolyline
 62
250
  6
CONTINUOUS
 90
46
 70
0
 10
-37.0444953648
 20
-38.9069761689
 10
-37.0825594995
 20
-38.9052800687
 10
-37.123633808
 20
-38.9025837541
 10
-37.1676907126
 20
-38.8986905771
 10
-37.2148343265
 20
-38.8933728048
 10
-37.2648722449
 20
-38.8864180129
 10
-37.3173175561
 20
-38.8776666937
 10
-37.3720957787
 20
-38.8669093664
 10
-37.4291201208
 20
-38.8539305249
 10
-37.4878744701
 20
-38.8386221064
 10
-37.5482482144
 20
-38.8207981478
 10
-37.6101141293
 20
-38.8002740966
 10
-37.6729281685
 20
-38.7770196702
 10
-37.7365493367
 20
-38.7508900517
 10
-37.8008243745
 20
-38.7217436712
 10
-37.8652018838
 20
-38.6896407217
 10
-37.9295258379
 20
-38.6544887846
 10
-37.9936288421
 20
-38.6162079569
 10
-38.0569700765
 20
-38.5749692051
 10
-38.1193911143
 20
-38.5307474707
 10
-38.1807302467
 20
-38.4835296976
 10
-38.2404876557
 20
-38.4335963499
 10
-38.298538474
 20
-38.3809745031
 10
-38.3547396043
 20
-38.3257206998
 10
-38.4086323253
 20
-38.2682479642
 10
-38.460144484
 20
-38.2086326422
 10
-38.5091735542
 20
-38.1470013291
 10
-38.5553112623
 20
-38.0839275279
 10
-38.5985364659
 20
-38.0195576883
 10
-38.6388400551
 20
-37.9540404059
 10
-38.6759486225
 20
-37.8880227123
 10
-38.7099234863
 20
-37.8216738674
 10
-38.7408379172
 20
-37.7551560124
 10
-38.7685582419
 20
-37.6891518925
 10
-38.7932224031
 20
-37.6238296152
 10
-38.8149750805
 20
-37.5593432943
 10
-38.8338096371
 20
-37.4963767683
 10
-38.8499269867
 20
-37.4350720507
 10
-38.8635312029
 20
-37.375552283
 10
-38.8747239931
 20
-37.3184753777
 10
-38.8837502207
 20
-37.263939292
 10
-38.8908466705
 20
-37.2120285774
 10
-38.8961864598
 20
-37.1633708889
 10
-38.9000133553
 20
-37.1182091862
 10
-38.9025910595
 20
-37.0763986204
 10
-38.9041434547
 20
-37.0379684263
  0
LINE
  5
287
100
AcDbEntity
  8
0
100
AcDbLine
 62
250
  6
CONTINUOUS
 10
-37.0
 20
-40.0
 11
-37.0
 21
-39.7689897085
  0
LINE
  5
288
100
AcDbEntity
  8
0
100
AcDbLine
 62
250
  6
CONTINUOUS
 10
-37.0
 20
39.7689897085
 11
-37.0
 21
40.0
  0
LINE
  5
289
100
AcDbEntity
  8
0
100
AcDbLine
 62
250
  6
CONTINUOUS
 10
39.7693588487
 20
-37.0
 11
40.0
 21
-37.0
  0
LINE
  5
28A
100
AcDbEntity
  8
0
100
AcDbLine
 62
250
  6
CONTINUOUS
 10
-39.7693588487
 20
-37.0
 11
-40.0
 21
-37.0
  0
LINE
  5
28B
100
AcDbEntity
  8
RACCORDO
100
AcDbLine
 62
7
  6
CONTINUOUS
 10
-39.8885733718
 20
-3.5239590572
 11
-39.9856479579
 21
-3.6860137352
  0
LINE
  5
28C
100
AcDbEntity
  8
RACCORDO
100
AcDbLine
 62
7
  6
CONTINUOUS
 10
-39.9856479579
 20
3.6860137352
 11
-39.8885733718
 21
3.5239590572
  0
LWPOLYLINE
  5
28D
100
AcDbEntity
  8
SUPERFICI
100
AcDbPolyline
 62
250
  6
CONTINUOUS
 90
3
 70
0
 10
-12.8777828336
 20
25.0815770755
 10
-12.8197715941
 20
25.1180753225
 10
-12.7905680891
 20
25.1361766659
  0
LWPOLYLINE
  5
28E
100
AcDbEntity
  8
SUPERFICI
100
AcDbPolyline
 62
250
  6
CONTINUOUS
 90
27
 70
0
 10
-12.7905680891
 20
25.1361766659
 10
-12.7307311853
 20
25.1727098987
 10
-12.7002292702
 20
25.1910303023
 10
-12.6691708982
 20
25.2092834391
 10
-12.6376963185
 20
25.2274221014
 10
-12.6060184007
 20
25.2452807657
 10
-12.5740865986
 20
25.262589877
 10
-12.5420923042
 20
25.2790757483
 10
-12.5097589206
 20
25.2950587554
 10
-12.4763326256
 20
25.311134239
 10
-12.4413595368
 20
25.3275783794
 10
-12.4048449801
 20
25.3442462062
 10
-12.3666750007
 20
25.3610909552
 10
-12.3269970603
 20
25.3779723723
 10
-12.2858152968
 20
25.3948397597
 10
-12.2428072015
 20
25.4117555837
 10
-12.197845974
 20
25.4287065023
 10
-12.1509618626
 20
25.44559268
 10
-12.1020682438
 20
25.4623264322
 10
-12.0507653172
 20
25.4789403491
 10
-11.9974715849
 20
25.4952026617
 10
-11.943336862
 20
25.5106801618
 10
-11.8882561226
 20
25.5253368977
 10
-11.8323482334
 20
25.5391449578
 10
-11.7771469814
 20
25.5518089219
 10
-11.7231790414
 20
25.5631258577
 10
-11.6697677314
 20
25.5734346708
  0
LWPOLYLINE
  5
28F
100
AcDbEntity
  8
SUPERFICI
100
AcDbPolyline
 62
250
  6
CONTINUOUS
 90
13
 70
0
 10
11.6697677323
 20
-25.5734346727
 10
11.5631450407
 20
-25.5931443725
 10
11.5094986199
 20
-25.6026447048
 10
11.4555320169
 20
-25.6116171867
 10
11.4020743463
 20
-25.6199300207
 10
11.3490619542
 20
-25.6276017509
 10
11.2949247099
 20
-25.6345888407
 10
11.2393688106
 20
-25.6407647239
 10
11.1825672581
 20
-25.6461663416
 10
11.1236725904
 20
-25.6508719709
 10
11.0624122829
 20
-25.6548145896
 10
10.9990935679
 20
-25.6578326137
 10
10.9337437989
 20
-25.6598161577
  0
LINE
  5
290
100
AcDbEntity
  8
SUPERFICI
100
AcDbLine
 62
250
  6
CONTINUOUS
 10
10.9337438013
 20
-25.6598161973
 11
10.35113071
 21
-25.6706913756
  0
LINE
  5
291
100
AcDbEntity
  8
SUPERFICI
100
AcDbLine
 62
250
  6
CONTINUOUS
 10
10.35113071
 20
-25.6706913756
 11
9.5420536652
 21
-25.6817934989
  0
LINE
  5
292
100
AcDbEntity
  8
SUPERFICI
100
AcDbLine
 62
250
  6
CONTINUOUS
 10
9.5420536652
 20
-25.6817934989
 11
8.6057079181
 21
-25.6905750161
  0
LINE
  5
293
100
AcDbEntity
  8
SUPERFICI
100
AcDbLine
 62
250
  6
CONTINUOUS
 10
8.6057079181
 20
-25.6905750161
 11
7.5116709605
 21
-25.6970848616
  0
LINE
  5
294
100
AcDbEntity
  8
SUPERFICI
100
AcDbLine
 62
250
  6
CONTINUOUS
 10
7.5116709605
 20
-25.6970848616
 11
5.9909338179
 21
-25.7018293122
  0
LINE
  5
295
100
AcDbEntity
  8
SUPERFICI
100
AcDbLine
 62
250
  6
CONTINUOUS
 10
5.9909338179
 20
-25.7018293122
 11
3.8786003399
 21
-25.7035772758
  0
LINE
  5
296
100
AcDbEntity
  8
SUPERFICI
100
AcDbLine
 62
250
  6
CONTINUOUS
 10
3.8786003399
 20
-25.7035772758
 11
-6.2917986659
 21
-25.7011887602
  0
LINE
  5
297
100
AcDbEntity
  8
SUPERFICI
100
AcDbLine
 62
250
  6
CONTINUOUS
 10
-6.2917986659
 20
-25.7011887602
 11
-7.7550355071
 21
-25.6959111014
  0
LINE
  5
298
100
AcDbEntity
  8
SUPERFICI
100
AcDbLine
 62
250
  6
CONTINUOUS
 10
-7.7550355071
 20
-25.6959111014
 11
-8.8041265993
 21
-25.6890035349
  0
LINE
  5
299
100
AcDbEntity
  8
SUPERFICI
100
AcDbLine
 62
250
  6
CONTINUOUS
 10
-8.8041265993
 20
-25.6890035349
 11
-9.7038505481
 21
-25.6798785572
  0
LINE
  5
29A
100
AcDbEntity
  8
SUPERFICI
100
AcDbLine
 62
250
  6
CONTINUOUS
 10
-9.7038505481
 20
-25.6798785572
 11
-10.4813411496
 21
-25.6685168005
  0
LINE
  5
29B
100
AcDbEntity
  8
SUPERFICI
100
AcDbLine
 62
250
  6
CONTINUOUS
 10
-10.4813411496
 20
-25.6685168005
 11
-10.9337502999
 21
-25.659816031
  0
LWPOLYLINE
  5
29C
100
AcDbEntity
  8
SUPERFICI
100
AcDbPolyline
 62
250
  6
CONTINUOUS
 90
36
 70
0
 10
-10.9337502943
 20
-25.6598159389
 10
-11.00090263
 20
-25.6577584267
 10
-11.0660548232
 20
-25.65460404
 10
-11.1291780071
 20
-25.6504648828
 10
-11.1899922974
 20
-25.6455102368
 10
-11.2487137156
 20
-25.6398057357
 10
-11.3060731524
 20
-25.6332652178
 10
-11.3619882767
 20
-25.6258017647
 10
-11.4167332318
 20
-25.6175907142
 10
-11.4715628151
 20
-25.6088396008
 10
-11.5260933772
 20
-25.5997288939
 10
-11.5797414984
 20
-25.5902846253
 10
-11.6331758268
 20
-25.5804407401
 10
-11.6869390662
 20
-25.5702223807
 10
-11.7412261959
 20
-25.5594147368
 10
-11.796639835
 20
-25.5474311955
 10
-11.8538911074
 20
-25.5339206174
 10
-11.9122103
 20
-25.5190846413
 10
-11.9696433807
 20
-25.5033118339
 10
-12.0259537682
 20
-25.4866585878
 10
-12.081406998
 20
-25.4691296274
 10
-12.1348973409
 20
-25.4511772324
 10
-12.1860718054
 20
-25.4330259045
 10
-12.2352276271
 20
-25.414667143
 10
-12.2822236046
 20
-25.3962745164
 10
-12.3271010465
 20
-25.3779261241
 10
-12.3699848376
 20
-25.3596499018
 10
-12.4108992982
 20
-25.3415311367
 10
-12.4496223945
 20
-25.3237718445
 10
-12.4861056252
 20
-25.306478595
 10
-12.5205697193
 20
-25.2896097077
 10
-12.5532895708
 20
-25.2731268926
 10
-12.584922974
 20
-25.2566928127
 10
-12.6164403981
 20
-25.2396763331
 10
-12.6477956668
 20
-25.2219283491
 10
-12.678464412
 20
-25.2039187027
  0
LWPOLYLINE
  5
29D
100
AcDbEntity
  8
SUPERFICI
100
AcDbPolyline
 62
250
  6
CONTINUOUS
 90
3
 70
0
 10
-12.678464412
 20
-25.2039187027
 10
-12.7376849371
 20
-25.1684870767
 10
-12.7660686209
 20
-25.1512143978
  0
LWPOLYLINE
  5
29E
100
AcDbEntity
  8
SUPERFICI
100
AcDbPolyline
 62
250
  6
CONTINUOUS
 90
3
 70
0
 10
-12.7660686209
 20
-25.1512143978
 10
-12.8219818291
 20
-25.1166849728
 10
-12.8494619454
 20
-25.0994825717
  0
LWPOLYLINE
  5
29F
100
AcDbEntity
  8
SUPERFICI
100
AcDbPolyline
 62
250
  6
CONTINUOUS
 90
49
 70
0
 10
-12.8494619454
 20
-25.0994825717
 10
-12.9047637888
 20
-25.064358933
 10
-12.9325414647
 20
-25.0464540473
 10
-12.9608876329
 20
-25.0279436531
 10
-12.9897700549
 20
-25.0088259259
 10
-13.0190807232
 20
-24.9891562757
 10
-13.0491298737
 20
-24.968652626
 10
-13.0798706825
 20
-24.9473378788
 10
-13.1113146066
 20
-24.9251289138
 10
-13.1438346831
 20
-24.9015634617
 10
-13.1776516747
 20
-24.8763578666
 10
-13.2126227999
 20
-24.8495633576
 10
-13.248591064
 20
-24.8211870965
 10
-13.2856572968
 20
-24.791055202
 10
-13.323643614
 20
-24.7592120063
 10
-13.3619917039
 20
-24.7260145052
 10
-13.4005372885
 20
-24.6915385408
 10
-13.4393573493
 20
-24.6556583438
 10
-13.4782719104
 20
-24.6184589402
 10
-13.5171054219
 20
-24.5800544567
 10
-13.5559554744
 20
-24.5402899146
 10
-13.5950407644
 20
-24.4988403294
 10
-13.6342932259
 20
-24.4556843765
 10
-13.6736568859
 20
-24.4107796081
 10
-13.7133338445
 20
-24.3637421676
 10
-13.7532416353
 20
-24.3145263687
 10
-13.7932869963
 20
-24.2630865876
 10
-13.8336128971
 20
-24.2090110105
 10
-13.8741070372
 20
-24.1522379809
 10
-13.9146299736
 20
-24.0927275836
 10
-13.9552317258
 20
-24.0300794786
 10
-13.9957486845
 20
-23.9642457461
 10
-14.0360110119
 20
-23.8951578723
 10
-14.076003918
 20
-23.8223552854
 10
-14.1155731049
 20
-23.7456920301
 10
-14.1544137728
 20
-23.6652345848
 10
-14.1922098952
 20
-23.5808948103
 10
-14.2283981811
 20
-23.4928440689
 10
-14.2630052282
 20
-23.4009252984
 10
-14.2965983628
 20
-23.3043173804
 10
-14.329015857
 20
-23.202620804
 10
-14.3599544324
 20
-23.0951743709
 10
-14.3895022059
 20
-22.9808429805
 10
-14.4174276976
 20
-22.8590114088
 10
-14.4424335546
 20
-22.7309482298
 10
-14.4630551543
 20
-22.5983686257
 10
-14.4785877579
 20
-22.462070645
 10
-14.4889005152
 20
-22.3217581078
 10
-14.4935630484
 20
-22.1776004522
  0
LWPOLYLINE
  5
2A0
100
AcDbEntity
  8
SUPERFICI
100
AcDbPolyline
 62
250
  6
CONTINUOUS
 90
12
 70
0
 10
12.8381390761
 20
-22.1990057248
 10
12.7502526264
 20
-22.2104590944
 10
12.6569795058
 20
-22.209557626
 10
12.5593418661
 20
-22.1981355576
 10
12.4581081039
 20
-22.1681060015
 10
12.3537544964
 20
-22.1330198481
 10
12.2485640685
 20
-22.1210631967
 10
12.1449558512
 20
-22.144099428
 10
12.0423558949
 20
-22.1789364929
 10
11.9412114093
 20
-22.2012165125
 10
11.843408364
 20
-22.2050223394
 10
11.6623665997
 20
-22.2003850673
  0
LINE
  5
2A1
100
AcDbEntity
  8
SUPERFICI
100
AcDbLine
 62
250
  6
CONTINUOUS
 10
12.8381416126
 20
-22.1990057193
 11
13.9074915117
 21
-22.1843115867
  0
LINE
  5
2A2
100
AcDbEntity
  8
SUPERFICI
100
AcDbLine
 62
250
  6
CONTINUOUS
 10
13.9074915117
 20
-22.1843115867
 11
14.4935633765
 21
-22.1776076359
  0
LINE
  5
2A3
100
AcDbEntity
  8
SUPERFICI
100
AcDbLine
 62
250
  6
CONTINUOUS
 10
-11.8434560191
 20
-22.2018753439
 11
-11.6623662611
 21
-22.2003865156
  0
LINE
  5
2A4
100
AcDbEntity
  8
SUPERFICI
100
AcDbLine
 62
7
  6
CONTINUOUS
 10
10.95
 20
-22.5
 11
-10.95
 21
-22.5
  0
LINE
  5
2A5
100
AcDbEntity
  8
SUPERFICI
100
AcDbLine
 62
250
  6
CONTINUOUS
 10
-0.5
 20
-24.0999816306
 11
-10.9489516351
 21
-24.0988099933
  0
LINE
  5
2A6
100
AcDbEntity
  8
SUPERFICI
100
AcDbLine
 62
250
  6
CONTINUOUS
 10
10.9489482822
 20
-24.0988099745
 11
-0.5
 21
-24.0999834367
  0
LINE
  5
2A7
100
AcDbEntity
  8
SUPERFICI
100
AcDbLine
 62
250
  6
CONTINUOUS
 10
-11.6623662611
 20
-22.2003865156
 11
-11.2499999953
 21
-22.2000532983
  0
LINE
  5
2A8
100
AcDbEntity
  8
SUPERFICI
100
AcDbLine
 62
250
  6
CONTINUOUS
 10
11.6623665997
 20
-22.2003850673
 11
11.25
 21
-22.2
  0
LWPOLYLINE
  5
2A9
100
AcDbEntity
  8
SUPERFICI
100
AcDbPolyline
 62
250
  6
CONTINUOUS
 90
91
 70
0
 10
-10.9489516517
 20
-24.0988107588
 10
-10.9836881219
 20
-24.0986123934
 10
-11.0173853079
 20
-24.0977858956
 10
-11.0500323484
 20
-24.0963864219
 10
-11.0814947311
 20
-24.0944749198
 10
-11.1118911746
 20
-24.0921001998
 10
-11.1415921387
 20
-24.0892786956
 10
-11.1704649525
 20
-24.0860577633
 10
-11.1986325269
 20
-24.0824562321
 10
-11.2268446097
 20
-24.0783945854
 10
-11.2550887159
 20
-24.0738628621
 10
-11.2833607773
 20
-24.068863918
 10
-11.3124135426
 20
-24.0632688547
 10
-11.3425325159
 20
-24.0569781459
 10
-11.3733987027
 20
-24.0500028119
 10
-11.4048529959
 20
-24.0423509018
 10
-11.4371845032
 20
-24.0339096079
 10
-11.4700649753
 20
-24.0247122236
 10
-11.5024256488
 20
-24.0150491824
 10
-11.5341315382
 20
-24.0049879576
 10
-11.5653124549
 20
-23.9945087347
 10
-11.5953249934
 20
-23.9838607898
 10
-11.6239883649
 20
-23.9731691424
 10
-11.6515063938
 20
-23.9624177096
 10
-11.6778261658
 20
-23.9516775164
 10
-11.702949613
 20
-23.9410023865
 10
-11.7269024723
 20
-23.9304339707
 10
-11.7496697794
 20
-23.9200258647
 10
-11.7712109231
 20
-23.9098475265
 10
-11.7915975943
 20
-23.8999145422
 10
-11.810981371
 20
-23.8901925136
 10
-11.8293979775
 20
-23.8807051328
 10
-11.8468371411
 20
-23.8714898311
 10
-11.8633772881
 20
-23.8625232578
 10
-11.8789055183
 20
-23.8538975175
 10
-11.893557819
 20
-23.8455709901
 10
-11.9077772885
 20
-23.8373039056
 10
-11.9216101924
 20
-23.8290775288
 10
-11.9350174914
 20
-23.8209294971
 10
-11.9483030145
 20
-23.8126849528
 10
-11.9614706544
 20
-23.8043433633
 10
-11.9745153902
 20
-23.7959089577
 10
-11.9877186869
 20
-23.787199531
 10
-12.0010729707
 20
-23.7782120073
 10
-12.0145753462
 20
-23.768939295
 10
-12.0285044157
 20
-23.7591787557
 10
-12.0428432727
 20
-23.7489203417
 10
-12.0575858092
 20
-23.7381482712
 10
-12.0730145774
 20
-23.7266348874
 10
-12.0891717799
 20
-23.7143077372
 10
-12.1059724845
 20
-23.7011914941
 10
-12.1234977883
 20
-23.6871908858
 10
-12.1417926377
 20
-23.6722200017
 10
-12.1607537605
 20
-23.6563041791
 10
-12.1802385375
 20
-23.6395145753
 10
-12.2002692787
 20
-23.6217788556
 10
-12.2207619193
 20
-23.6031141343
 10
-12.2414263472
 20
-23.5837410409
 10
-12.2621788402
 20
-23.5637038516
 10
-12.2830578146
 20
-23.5429288918
 10
-12.3039691156
 20
-23.5214748655
 10
-12.3248165145
 20
-23.4994095871
 10
-12.3456536579
 20
-23.4766446428
 10
-12.3666053789
 20
-23.453000781
 10
-12.3876342347
 20
-23.4284647202
 10
-12.4087104252
 20
-23.4030144647
 10
-12.4299502862
 20
-23.3764428079
 10
-12.4513065364
 20
-23.3487240303
 10
-12.4727287805
 20
-23.3198354568
 10
-12.4943045856
 20
-23.2895590907
 10
-12.5159685768
 20
-23.2578622213
 10
-12.5376499423
 20
-23.2247181254
 10
-12.5594000464
 20
-23.1899031602
 10
-12.5811323932
 20
-23.1533759816
 10
-12.6027489612
 20
-23.1151115185
 10
-12.6242522732
 20
-23.0748979779
 10
-12.6455248489
 20
-23.0326986916
 10
-12.6664428726
 20
-22.9884854701
 10
-12.6869640051
 20
-22.9420497378
 10
-12.7069898429
 20
-22.8932369501
 10
-12.7263023076
 20
-22.8421466785
 10
-12.7446714321
 20
-22.7889591915
 10
-12.7618569657
 20
-22.7340496572
 10
-12.7778074161
 20
-22.6770489714
 10
-12.7924959542
 20
-22.6170212108
 10
-12.8057410319
 20
-22.5534414679
 10
-12.8171436201
 20
-22.486861241
 10
-12.8263141847
 20
-22.4179799189
 10
-12.8330024748
 20
-22.3470900079
 10
-12.8370210858
 20
-22.2740622497
 10
-12.8381390588
 20
-22.1990020255
  0
LWPOLYLINE
  5
2AA
100
AcDbEntity
  8
SUPERFICI
100
AcDbPolyline
 62
250
  6
CONTINUOUS
 90
3
 70
0
 10
-12.8381388187
 20
-22.1990020202
 10
-13.0015495777
 20
-22.1964974499
 10
-14.4935629484
 20
-22.1776004335
  0
LWPOLYLINE
  5
2AB
100
AcDbEntity
  8
SUPERFICI
100
AcDbPolyline
 62
250
  6
CONTINUOUS
 90
11
 70
0
 10
-12.8381390588
 20
-22.1990020255
 10
-12.7503335034
 20
-22.2009253781
 10
-12.6570593695
 20
-22.200515883
 10
-12.5593407917
 20
-22.1981268176
 10
-12.4582497344
 20
-22.1920444477
 10
-12.3548594443
 20
-22.1850521627
 10
-12.25031664
 20
-22.1829798392
 10
-12.1457939313
 20
-22.1883971356
 10
-12.0423784222
 20
-22.1962850529
 10
-11.9412108015
 20
-22.2012223412
 10
-11.8434560191
 20
-22.2018753439
  0
LWPOLYLINE
  5
2AC
100
AcDbEntity
  8
SUPERFICI
100
AcDbPolyline
 62
250
  6
CONTINUOUS
 90
12
 70
0
 10
-10.9489516517
 20
-24.0988107588
 10
-10.953268931
 20
-24.0112343511
 10
-10.9527267067
 20
-23.9180014567
 10
-10.9480475377
 20
-23.8201453264
 10
-10.9358914798
 20
-23.7187003738
 10
-10.9217750163
 20
-23.6146933347
 10
-10.9172178323
 20
-23.509474399
 10
-10.9271744306
 20
-23.4044180218
 10
-10.9419771407
 20
-23.3003885265
 10
-10.9513494493
 20
-23.1984285459
 10
-10.9527802192
 20
-23.0998118586
 10
-10.9504214006
 20
-22.9169735687
  0
LINE
  5
2AD
100
AcDbEntity
  8
SUPERFICI
100
AcDbLine
 62
250
  6
CONTINUOUS
 10
-14.4935629484
 20
-22.1776004335
 11
-14.5022884718
 21
-21.2596381399
  0
LINE
  5
2AE
100
AcDbEntity
  8
SUPERFICI
100
AcDbLine
 62
250
  6
CONTINUOUS
 10
-14.5022884718
 20
-21.2596381399
 11
-14.5098556829
 21
-19.9923062341
  0
LINE
  5
2AF
100
AcDbEntity
  8
SUPERFICI
100
AcDbLine
 62
250
  6
CONTINUOUS
 10
-14.5098556829
 20
-19.9923062341
 11
-14.5153739218
 21
-18.3842676631
  0
LINE
  5
2B0
100
AcDbEntity
  8
SUPERFICI
100
AcDbLine
 62
250
  6
CONTINUOUS
 10
-14.5153739218
 20
-18.3842676631
 11
-14.5210052747
 21
-15.233702856
  0
LINE
  5
2B1
100
AcDbEntity
  8
SUPERFICI
100
AcDbLine
 62
250
  6
CONTINUOUS
 10
-14.5210052747
 20
-15.233702856
 11
-14.5283334296
 21
-6.8183495071
  0
LINE
  5
2B2
100
AcDbEntity
  8
SUPERFICI
100
AcDbLine
 62
250
  6
CONTINUOUS
 10
-14.5283334296
 20
-6.8183495071
 11
-14.5319212796
 21
0.6909153335
  0
LINE
  5
2B3
100
AcDbEntity
  8
SUPERFICI
100
AcDbLine
 62
250
  6
CONTINUOUS
 10
-14.5319212796
 20
0.6909153335
 11
-14.5236689852
 21
12.748720079
  0
LINE
  5
2B4
100
AcDbEntity
  8
SUPERFICI
100
AcDbLine
 62
250
  6
CONTINUOUS
 10
-14.5236689852
 20
12.748720079
 11
-14.5185520501
 21
16.8614299763
  0
LINE
  5
2B5
100
AcDbEntity
  8
SUPERFICI
100
AcDbLine
 62
250
  6
CONTINUOUS
 10
-12.8381388187
 20
-22.1990020202
 11
-12.8381388368
 21
22.1990057153
  0
LINE
  5
2B6
100
AcDbEntity
  8
SUPERFICI
100
AcDbLine
 62
250
  6
CONTINUOUS
 10
-14.5185520501
 20
16.8614299763
 11
-14.5096345346
 21
20.0391315635
  0
LINE
  5
2B7
100
AcDbEntity
  8
SUPERFICI
100
AcDbLine
 62
250
  6
CONTINUOUS
 10
-14.5096345346
 20
20.0391315635
 11
-14.5021560376
 21
21.2770579101
  0
LINE
  5
2B8
100
AcDbEntity
  8
SUPERFICI
100
AcDbLine
 62
250
  6
CONTINUOUS
 10
-14.5021560376
 20
21.2770579101
 11
-14.4935628403
 21
22.1776075354
  0
LWPOLYLINE
  5
2B9
100
AcDbEntity
  8
SUPERFICI
100
AcDbPolyline
 62
250
  6
CONTINUOUS
 90
91
 70
0
 10
-12.8381390756
 20
22.1990057248
 10
-12.8372027291
 20
22.2688235209
 10
-12.8336571664
 20
22.338089212
 10
-12.8275594879
 20
22.406705087
 10
-12.8189061137
 20
22.4749809938
 10
-12.8077953086
 20
22.5424190575
 10
-12.7945720336
 20
22.6077392785
 10
-12.7794795441
 20
22.6706179926
 10
-12.7626768216
 20
22.7312930389
 10
-12.7445428957
 20
22.7893852979
 10
-12.7253567642
 20
22.8447810019
 10
-12.7052612038
 20
22.8976131274
 10
-12.6844535739
 20
22.9479060693
 10
-12.663164096
 20
22.9956030462
 10
-12.6415254342
 20
23.0408298229
 10
-12.6195536529
 20
23.0838840828
 10
-12.5973766261
 20
23.1248135038
 10
-12.5751326377
 20
23.1636455147
 10
-12.5528066843
 20
23.200633032
 10
-12.5305049714
 20
23.235804878
 10
-12.5083208021
 20
23.2692071405
 10
-12.4861820498
 20
23.3011027549
 10
-12.4641634288
 20
23.3315208169
 10
-12.4423336829
 20
23.3604969223
 10
-12.420578659
 20
23.3882856848
 10
-12.3989487046
 20
23.4149118596
 10
-12.3774930193
 20
23.4404009063
 10
-12.3560677366
 20
23.4649899184
 10
-12.3346794329
 20
23.4887247303
 10
-12.3133865259
 20
23.5115929279
 10
-12.292103491
 20
23.5337296795
 10
-12.2707677552
 20
23.555233902
 10
-12.2494869575
 20
23.5760295496
 10
-12.2284304246
 20
23.595990971
 10
-12.2076019351
 20
23.615160933
 10
-12.1870523699
 20
23.6335364155
 10
-12.1670355444
 20
23.6509396136
 10
-12.1476463658
 20
23.667349835
 10
-12.1288548242
 20
23.6828481616
 10
-12.1107350901
 20
23.6974200723
 10
-12.0933880934
 20
23.7110412448
 10
-12.0767692153
 20
23.7237955002
 10
-12.0607291501
 20
23.7358252558
 10
-12.0453388932
 20
23.7471119241
 10
-12.0305657238
 20
23.7577168355
 10
-12.0160921502
 20
23.7678861865
 10
-12.0019157928
 20
23.777637924
 10
-11.9880577883
 20
23.7869742013
 10
-11.9742231298
 20
23.7960998807
 10
-11.960395823
 20
23.8050296611
 10
-11.9465984103
 20
23.8137526367
 10
-11.9325842352
 20
23.8224209673
 10
-11.9183586308
 20
23.8310261165
 10
-11.9039151028
 20
23.8395680086
 10
-11.8889810742
 20
23.8481978367
 10
-11.8735344763
 20
23.8569073416
 10
-11.857587936
 20
23.8656800264
 10
-11.8409127121
 20
23.8746405208
 10
-11.8234103043
 20
23.8838188233
 10
-11.8051609069
 20
23.8931417086
 10
-11.786200289
 20
23.9025725777
 10
-11.7665860674
 20
23.9120602513
 10
-11.7462455268
 20
23.9216133787
 10
-11.7250170265
 20
23.9312797997
 10
-11.7028829091
 20
23.9410323474
 10
-11.6798409119
 20
23.9508366121
 10
-11.6557478875
 20
23.9607168794
 10
-11.6305704465
 20
23.9706416119
 10
-11.604319367
 20
23.9805602983
 10
-11.576914807
 20
23.9904577053
 10
-11.5480972374
 20
24.0003679794
 10
-11.5181025128
 20
24.0101491902
 10
-11.4876046736
 20
24.0195493688
 10
-11.4565607081
 20
24.0285640157
 10
-11.4250185044
 20
24.0371558666
 10
-11.3938119175
 20
24.0450994618
 10
-11.3631396093
 20
24.0523791759
 10
-11.3328324761
 20
24.059060722
 10
-11.3031870947
 20
24.0650967632
 10
-11.274487981
 20
24.0704778417
 10
-11.2464810121
 20
24.0752910786
 10
-11.2186536004
 20
24.0796233487
 10
-11.1911227426
 20
24.083463034
 10
-11.1637897053
 20
24.0868452284
 10
-11.1358100272
 20
24.089866244
 10
-11.1070508337
 20
24.0925123851
 10
-11.0776540528
 20
24.094737952
 10
-11.047182617
 20
24.0965326169
 10
-11.0154950148
 20
24.0978491935
 10
-10.9827469292
 20
24.0986266385
 10
-10.948948289
 20
24.0988107487
  0
LWPOLYLINE
  5
2BA
100
AcDbEntity
  8
SUPERFICI
100
AcDbPolyline
 62
250
  6
CONTINUOUS
 90
48
 70
0
 10
-14.4935633753
 20
22.1776076359
 10
-14.4894756018
 20
22.3116522176
 10
-14.4802639378
 20
22.4446052259
 10
-14.4660097541
 20
22.5763438282
 10
-14.4463748306
 20
22.7078174557
 10
-14.4217052482
 20
22.8380982179
 10
-14.393535749
 20
22.9640131723
 10
-14.3630874108
 20
23.0840296429
 10
-14.3306033796
 20
23.1979491643
 10
-14.2965764206
 20
23.304811746
 10
-14.2615081899
 20
23.4051618601
 10
-14.2253560224
 20
23.500402104
 10
-14.1875692811
 20
23.5914848173
 10
-14.1482870001
 20
23.6782549436
 10
-14.1081225656
 20
23.760515044
 10
-14.0672921516
 20
23.8386140229
 10
-14.0260492867
 20
23.9126420882
 10
-13.9845959157
 20
23.9827209689
 10
-13.9429439966
 20
24.0493670587
 10
-13.9012978822
 20
24.1126248779
 10
-13.8598293261
 20
24.1725504514
 10
-13.818447623
 20
24.2296213563
 10
-13.7772951851
 20
24.2838911496
 10
-13.7364898639
 20
24.3354264912
 10
-13.6958403739
 20
24.3847042227
 10
-13.6554407655
 20
24.4317734495
 10
-13.6153762259
 20
24.4766793453
 10
-13.575393487
 20
24.519858532
 10
-13.5355071104
 20
24.5613940754
 10
-13.4958251498
 20
24.6012615423
 10
-13.4562019456
 20
24.6397091564
 10
-13.4165189567
 20
24.6769127078
 10
-13.3769717643
 20
24.7127467816
 10
-13.3378815261
 20
24.747013652
 10
-13.2992614044
 20
24.7797748265
 10
-13.2612150159
 20
24.8110252137
 10
-13.2242209404
 20
24.8404961024
 10
-13.1884504281
 20
24.868155423
 10
-13.1537642422
 20
24.894214953
 10
-13.1201625203
 20
24.9188028596
 10
-13.0877127972
 20
24.9419225187
 10
-13.0562160272
 20
24.9638241807
 10
-13.0252438516
 20
24.9849947145
 10
-12.9948518755
 20
25.0054507628
 10
-12.9651252414
 20
25.0251392281
 10
-12.9356681534
 20
25.044403857
 10
-12.9065448916
 20
25.063218386
 10
-12.8777828336
 20
25.0815770755
  0
LWPOLYLINE
  5
2BB
100
AcDbEntity
  8
SUPERFICI
100
AcDbPolyline
 62
250
  6
CONTINUOUS
 90
11
 70
0
 10
-10.948948289
 20
24.0988107487
 10
-10.9532818733
 20
24.0112341863
 10
-10.9527371805
 20
23.9180012524
 10
-10.9480395699
 20
23.8201451877
 10
-10.9358360615
 20
23.7187000009
 10
-10.9216646211
 20
23.6146916657
 10
-10.9170898038
 20
23.5094719359
 10
-10.927085475
 20
23.4044169024
 10
-10.9419461818
 20
23.3003885043
 10
-10.9513551157
 20
23.1984284802
 10
-10.9527912695
 20
23.0998117265
  0
LINE
  5
2BC
100
AcDbEntity
  8
SUPERFICI
100
AcDbLine
 62
250
  6
CONTINUOUS
 10
-10.9527912695
 20
23.0998117265
 11
-10.9504227939
 21
22.9169735567
  0
LINE
  5
2BD
100
AcDbEntity
  8
SUPERFICI
100
AcDbLine
 62
250
  6
CONTINUOUS
 10
-10.948951644
 20
-24.0988105896
 11
-10.9369035376
 21
-25.2881541517
  0
LINE
  5
2BE
100
AcDbEntity
  8
SUPERFICI
100
AcDbLine
 62
250
  6
CONTINUOUS
 10
-10.9369035376
 20
-25.2881541517
 11
-10.9337502943
 21
-25.6598159389
  0
LINE
  5
2BF
100
AcDbEntity
  8
SUPERFICI
100
AcDbLine
 62
7
  6
CONTINUOUS
 10
-11.25
 20
-22.2
 11
-11.25
 21
22.2
  0
LINE
  5
2C0
100
AcDbEntity
  8
SUPERFICI
100
AcDbLine
 62
250
  6
CONTINUOUS
 10
-10.9504227939
 20
22.9169735567
 11
-10.9500573065
 21
22.4999999945
  0
LINE
  5
2C1
100
AcDbEntity
  8
SUPERFICI
100
AcDbLine
 62
250
  6
CONTINUOUS
 10
-10.9504214006
 20
-22.9169735687
 11
-10.9500000003
 21
-22.5
  0
LINE
  5
2C2
100
AcDbEntity
  8
SUPERFICI
100
AcDbLine
 62
250
  6
CONTINUOUS
 10
-10.9489482822
 20
24.0988099743
 11
-10.9337438013
 21
25.6598161962
  0
LINE
  5
2C3
100
AcDbEntity
  8
SUPERFICI
100
AcDbLine
 62
250
  6
CONTINUOUS
 10
-0.5
 20
-39.7614223771
 11
-0.5001426596
 21
-39.7514881353
  0
LINE
  5
2C4
100
AcDbEntity
  8
SUPERFICI
100
AcDbLine
 62
250
  6
CONTINUOUS
 10
-0.5001426596
 20
-39.7514881353
 11
-0.500290573
 21
-39.7032583341
  0
LWPOLYLINE
  5
2C5
100
AcDbEntity
  8
0
100
AcDbPolyline
 62
7
  6
CONTINUOUS
 90
4
 70
0
 43
0.3500000006
 10
-2.3571427875
 20
50.2443773804
 10
-2.3571427875
 20
51.1015198517
 10
-1.9285714102
 20
51.5300933533
 10
-1.2857142735
 20
51.5300933533
  0
LWPOLYLINE
  5
2C6
100
AcDbEntity
  8
0
100
AcDbPolyline
 62
7
  6
CONTINUOUS
 90
13
 70
0
 43
0.3500000006
 10
0.0
 20
50.672950882
 10
0.0
 20
51.9586668549
 10
0.2142857063
 20
52.3872358246
 10
0.6428571367
 20
52.8158093262
 10
0.8571428254
 20
52.8158093262
 10
1.2857142735
 20
52.3872358246
 10
1.5000000329
 20
51.9586668549
 10
1.5000000329
 20
50.672950882
 10
1.2857142735
 20
50.2443773804
 10
0.8571428254
 20
49.8158084106
 10
0.6428571367
 20
49.8158084106
 10
0.2142857063
 20
50.2443773804
 10
0.0
 20
50.672950882
  0
LINE
  5
2C7
100
AcDbEntity
  8
SUPERFICI
100
AcDbLine
 62
250
  6
CONTINUOUS
 10
-0.5
 20
-22.5
 11
-0.5
 21
-39.0969208982
  0
LINE
  5
2C8
100
AcDbEntity
  8
SUPERFICI
100
AcDbLine
 62
250
  6
CONTINUOUS
 10
0.5
 20
22.5
 11
0.5000692098
 21
39.3560662148
  0
LWPOLYLINE
  5
2C9
100
AcDbEntity
  8
SUPERFICI
100
AcDbPolyline
 62
250
  6
CONTINUOUS
 90
3
 70
0
 10
0.5
 20
-39.7614223771
 10
0.5000340423
 20
-22.5055538277
 10
0.5000573062
 20
-22.5
  0
LINE
  5
2CA
100
AcDbEntity
  8
SUPERFICI
100
AcDbLine
 62
250
  6
CONTINUOUS
 10
-0.500290573
 20
-39.7032583341
 11
-0.5
 21
-39.0969208982
  0
LINE
  5
2CB
100
AcDbEntity
  8
SUPERFICI
100
AcDbLine
 62
250
  6
CONTINUOUS
 10
0.500290573
 20
39.7032583341
 11
0.5000692098
 21
39.3560662148
  0
LINE
  5
2CC
100
AcDbEntity
  8
SUPERFICI
100
AcDbLine
 62
250
  6
CONTINUOUS
 10
-0.5
 20
39.7614223771
 11
-0.5000573062
 21
22.5
  0
LINE
  5
2CD
100
AcDbEntity
  8
SUPERFICI
100
AcDbLine
 62
250
  6
CONTINUOUS
 10
39.7659053964
 20
0.0003242561
 11
14.5322558109
 21
0.0
  0
LINE
  5
2CE
100
AcDbEntity
  8
SUPERFICI
100
AcDbLine
 62
250
  6
CONTINUOUS
 10
14.5322558687
 20
0.0
 11
11.25
 21
0.0000532983
  0
LINE
  5
2CF
100
AcDbEntity
  8
SUPERFICI
100
AcDbLine
 62
250
  6
CONTINUOUS
 10
-39.7659053964
 20
-0.0003242561
 11
-11.25
 21
-0.0000532982
  0
LINE
  5
2D0
100
AcDbEntity
  8
SUPERFICI
100
AcDbLine
 62
250
  6
CONTINUOUS
 10
0.5
 20
39.7614223771
 11
0.5001426596
 21
39.7514881353
  0
LINE
  5
2D1
100
AcDbEntity
  8
SUPERFICI
100
AcDbLine
 62
250
  6
CONTINUOUS
 10
0.5001426596
 20
39.7514881353
 11
0.500290573
 21
39.7032583341
  0
LWPOLYLINE
  5
2D2
100
AcDbEntity
  8
SUPERFICI
100
AcDbPolyline
 62
250
  6
CONTINUOUS
 90
12
 70
0
 10
10.9489516517
 20
24.0988107592
 10
10.953268931
 20
24.0112343516
 10
10.9527267067
 20
23.9180014573
 10
10.9480475378
 20
23.820145327
 10
10.9358914802
 20
23.7187003744
 10
10.921775017
 20
23.6146933352
 10
10.9172178331
 20
23.5094743994
 10
10.9271744312
 20
23.4044180221
 10
10.9419771409
 20
23.3003885267
 10
10.9513494493
 20
23.1984285461
 10
10.9527802191
 20
23.0998118587
 10
10.9504214006
 20
22.9169735686
  0
LINE
  5
2D3
100
AcDbEntity
  8
SUPERFICI
100
AcDbLine
 62
250
  6
CONTINUOUS
 10
10.9527912694
 20
-23.0998117266
 11
10.9504227939
 21
-22.9169735566
  0
LINE
  5
2D4
100
AcDbEntity
  8
SUPERFICI
100
AcDbLine
 62
250
  6
CONTINUOUS
 10
10.948951644
 20
24.0988105901
 11
10.9369035376
 21
25.2881541526
  0
LINE
  5
2D5
100
AcDbEntity
  8
SUPERFICI
100
AcDbLine
 62
250
  6
CONTINUOUS
 10
10.9369035376
 20
25.2881541526
 11
10.9337502943
 21
25.65981594
  0
LINE
  5
2D6
100
AcDbEntity
  8
SUPERFICI
100
AcDbLine
 62
250
  6
CONTINUOUS
 10
12.8248986524
 20
-1.3625954885
 11
12.838138837
 21
-22.1990057153
  0
LINE
  5
2D7
100
AcDbEntity
  8
SUPERFICI
100
AcDbLine
 62
7
  6
CONTINUOUS
 10
11.25
 20
22.2
 11
11.25
 21
-22.2
  0
LINE
  5
2D8
100
AcDbEntity
  8
SUPERFICI
100
AcDbLine
 62
250
  6
CONTINUOUS
 10
12.8273481025
 20
7.7619533026
 11
12.8248986524
 21
-1.3625954885
  0
LINE
  5
2D9
100
AcDbEntity
  8
SUPERFICI
100
AcDbLine
 62
250
  6
CONTINUOUS
 10
10.9504214006
 20
22.9169735686
 11
10.9500000003
 21
22.5
  0
LINE
  5
2DA
100
AcDbEntity
  8
SUPERFICI
100
AcDbLine
 62
250
  6
CONTINUOUS
 10
10.9504227939
 20
-22.9169735566
 11
10.9500573065
 21
-22.4999999945
  0
LINE
  5
2DB
100
AcDbEntity
  8
SUPERFICI
100
AcDbLine
 62
250
  6
CONTINUOUS
 10
12.8381388188
 20
22.1990020202
 11
12.8273481025
 21
7.7619533026
  0
LINE
  5
2DC
100
AcDbEntity
  8
SUPERFICI
100
AcDbLine
 62
250
  6
CONTINUOUS
 10
10.9489482822
 20
-24.0988099745
 11
10.9337438013
 21
-25.6598161973
  0
LWPOLYLINE
  5
2DD
100
AcDbEntity
  8
SUPERFICI
100
AcDbPolyline
 62
250
  6
CONTINUOUS
 90
11
 70
0
 10
10.948948289
 20
-24.0988107491
 10
10.9532818733
 20
-24.0112341868
 10
10.9527371805
 20
-23.918001253
 10
10.94803957
 20
-23.8201451883
 10
10.9358360619
 20
-23.7187000015
 10
10.9216646219
 20
-23.6146916662
 10
10.9170898046
 20
-23.5094719364
 10
10.9270854756
 20
-23.4044169027
 10
10.941946182
 20
-23.3003885045
 10
10.9513551157
 20
-23.1984284804
 10
10.9527912694
 20
-23.0998117266
  0
LINE
  5
2DE
100
AcDbEntity
  8
SUPERFICI
100
AcDbLine
 62
250
  6
CONTINUOUS
 10
14.4935629496
 20
22.1776004335
 11
14.5022884718
 21
21.2596381399
  0
LINE
  5
2DF
100
AcDbEntity
  8
SUPERFICI
100
AcDbLine
 62
250
  6
CONTINUOUS
 10
14.5022884718
 20
21.2596381399
 11
14.5098556829
 21
19.992306234
  0
LINE
  5
2E0
100
AcDbEntity
  8
SUPERFICI
100
AcDbLine
 62
250
  6
CONTINUOUS
 10
14.5098556829
 20
19.992306234
 11
14.5153739218
 21
18.384267663
  0
LINE
  5
2E1
100
AcDbEntity
  8
SUPERFICI
100
AcDbLine
 62
250
  6
CONTINUOUS
 10
14.5153739218
 20
18.384267663
 11
14.5216823075
 21
14.681196314
  0
LINE
  5
2E2
100
AcDbEntity
  8
SUPERFICI
100
AcDbLine
 62
250
  6
CONTINUOUS
 10
14.5216823075
 20
14.681196314
 11
14.5322558109
 21
-0.0
  0
LINE
  5
2E3
100
AcDbEntity
  8
SUPERFICI
100
AcDbLine
 62
250
  6
CONTINUOUS
 10
14.5322558687
 20
0.0
 11
14.5255356284
 21
-10.5805998498
  0
LINE
  5
2E4
100
AcDbEntity
  8
SUPERFICI
100
AcDbLine
 62
250
  6
CONTINUOUS
 10
14.5255356284
 20
-10.5805998498
 11
14.5189434954
 21
-16.6352836916
  0
LINE
  5
2E5
100
AcDbEntity
  8
SUPERFICI
100
AcDbLine
 62
250
  6
CONTINUOUS
 10
14.5189434954
 20
-16.6352836916
 11
14.5131664162
 21
-19.1571658002
  0
LINE
  5
2E6
100
AcDbEntity
  8
SUPERFICI
100
AcDbLine
 62
250
  6
CONTINUOUS
 10
14.5131664162
 20
-19.1571658002
 11
14.5063472268
 21
-20.6546582653
  0
LINE
  5
2E7
100
AcDbEntity
  8
SUPERFICI
100
AcDbLine
 62
250
  6
CONTINUOUS
 10
14.5063472268
 20
-20.6546582653
 11
14.4984198717
 21
-21.7178777118
  0
LINE
  5
2E8
100
AcDbEntity
  8
SUPERFICI
100
AcDbLine
 62
250
  6
CONTINUOUS
 10
14.4984198717
 20
-21.7178777118
 11
14.4935628415
 21
-22.1776075354
  0
LWPOLYLINE
  5
2E9
100
AcDbEntity
  8
SUPERFICI
100
AcDbPolyline
 62
250
  6
CONTINUOUS
 90
91
 70
0
 10
12.8381390761
 20
-22.1990057248
 10
12.8372027297
 20
-22.2688235209
 10
12.8336571669
 20
-22.338089212
 10
12.8275594885
 20
-22.4067050869
 10
12.8189061143
 20
-22.4749809938
 10
12.8077953092
 20
-22.5424190575
 10
12.7945720342
 20
-22.6077392787
 10
12.7794795447
 20
-22.6706179928
 10
12.7626768221
 20
-22.7312930392
 10
12.7445428962
 20
-22.7893852983
 10
12.7253567647
 20
-22.8447810023
 10
12.7052612042
 20
-22.8976131279
 10
12.6844535743
 20
-22.9479060699
 10
12.6631640964
 20
-22.9956030468
 10
12.6415254346
 20
-23.0408298235
 10
12.6195536533
 20
-23.0838840835
 10
12.5973766264
 20
-23.1248135044
 10
12.575132638
 20
-23.1636455154
 10
12.5528066846
 20
-23.2006330327
 10
12.5305049717
 20
-23.2358048787
 10
12.5083208024
 20
-23.2692071412
 10
12.4861820501
 20
-23.3011027556
 10
12.464163429
 20
-23.3315208176
 10
12.4423336831
 20
-23.360496923
 10
12.4205786592
 20
-23.3882856855
 10
12.3989487048
 20
-23.4149118603
 10
12.3774930196
 20
-23.440400907
 10
12.3560677368
 20
-23.464989919
 10
12.3346794332
 20
-23.488724731
 10
12.3133865261
 20
-23.5115929286
 10
12.2921034912
 20
-23.5337296802
 10
12.2707677555
 20
-23.5552339026
 10
12.2494869578
 20
-23.5760295502
 10
12.2284304248
 20
-23.5959909716
 10
12.2076019353
 20
-23.6151609336
 10
12.1870523702
 20
-23.6335364161
 10
12.1670355446
 20
-23.6509396142
 10
12.147646366
 20
-23.6673498356
 10
12.1288548245
 20
-23.6828481621
 10
12.1107350904
 20
-23.6974200729
 10
12.0933880937
 20
-23.7110412454
 10
12.0767692156
 20
-23.7237955008
 10
12.0607291505
 20
-23.7358252563
 10
12.0453388936
 20
-23.7471119246
 10
12.0305657242
 20
-23.757716836
 10
12.0160921506
 20
-23.7678861869
 10
12.0019157932
 20
-23.7776379245
 10
11.9880577887
 20
-23.7869742018
 10
11.9742231303
 20
-23.7960998812
 10
11.9603958235
 20
-23.8050296615
 10
11.9465984108
 20
-23.8137526371
 10
11.9325842358
 20
-23.8224209677
 10
11.9183586314
 20
-23.8310261169
 10
11.9039151034
 20
-23.839568009
 10
11.8889810748
 20
-23.848197837
 10
11.8735344769
 20
-23.856907342
 10
11.8575879367
 20
-23.8656800268
 10
11.8409127128
 20
-23.8746405211
 10
11.823410305
 20
-23.8838188236
 10
11.8051609076
 20
-23.8931417089
 10
11.7862002897
 20
-23.902572578
 10
11.7665860681
 20
-23.9120602516
 10
11.7462455275
 20
-23.921613379
 10
11.7250170272
 20
-23.9312798001
 10
11.7028829098
 20
-23.9410323478
 10
11.6798409126
 20
-23.9508366125
 10
11.6557478882
 20
-23.9607168799
 10
11.6305704471
 20
-23.9706416123
 10
11.6043193676
 20
-23.9805602987
 10
11.5769148075
 20
-23.9904577057
 10
11.5480972379
 20
-24.0003679799
 10
11.5181025133
 20
-24.0101491906
 10
11.4876046741
 20
-24.0195493693
 10
11.4565607086
 20
-24.0285640162
 10
11.4250185048
 20
-24.0371558671
 10
11.3938119179
 20
-24.0450994623
 10
11.3631396097
 20
-24.0523791764
 10
11.3328324764
 20
-24.0590607226
 10
11.303187095
 20
-24.0650967638
 10
11.2744879813
 20
-24.0704778423
 10
11.2464810124
 20
-24.0752910791
 10
11.2186536007
 20
-24.0796233493
 10
11.1911227429
 20
-24.0834630346
 10
11.1637897056
 20
-24.086845229
 10
11.1358100274
 20
-24.0898662447
 10
11.1070508339
 20
-24.0925123857
 10
11.077654053
 20
-24.0947379526
 10
11.0471826171
 20
-24.0965326176
 10
11.0154950149
 20
-24.0978491941
 10
10.9827469292
 20
-24.098626639
 10
10.948948289
 20
-24.0988107491
  0
LWPOLYLINE
  5
2EA
100
AcDbEntity
  8
SUPERFICI
100
AcDbPolyline
 62
250
  6
CONTINUOUS
 90
48
 70
0
 10
14.4935633765
 20
-22.1776076359
 10
14.4894756036
 20
-22.3116522175
 10
14.4802639399
 20
-22.4446052259
 10
14.4660097565
 20
-22.5763438283
 10
14.446374833
 20
-22.7078174559
 10
14.4217052505
 20
-22.8380982183
 10
14.3935357513
 20
-22.9640131729
 10
14.363087413
 20
-23.0840296436
 10
14.3306033817
 20
-23.1979491652
 10
14.2965764226
 20
-23.3048117471
 10
14.2615081919
 20
-23.4051618613
 10
14.2253560243
 20
-23.5004021053
 10
14.1875692829
 20
-23.5914848188
 10
14.1482870018
 20
-23.6782549452
 10
14.1081225673
 20
-23.7605150456
 10
14.0672921533
 20
-23.8386140245
 10
14.0260492883
 20
-23.91264209
 10
13.9845959173
 20
-23.9827209707
 10
13.9429439981
 20
-24.0493670605
 10
13.9012978837
 20
-24.1126248797
 10
13.8598293275
 20
-24.1725504533
 10
13.8184476244
 20
-24.2296213581
 10
13.7772951864
 20
-24.2838911515
 10
13.7364898653
 20
-24.335426493
 10
13.6958403753
 20
-24.3847042246
 10
13.6554407669
 20
-24.4317734514
 10
13.6153762272
 20
-24.4766793471
 10
13.5753934883
 20
-24.5198585338
 10
13.5355071117
 20
-24.5613940773
 10
13.4958251511
 20
-24.6012615441
 10
13.4562019469
 20
-24.6397091582
 10
13.4165189579
 20
-24.6769127096
 10
13.3769717656
 20
-24.7127467834
 10
13.3378815274
 20
-24.7470136539
 10
13.2992614057
 20
-24.7797748283
 10
13.2612150171
 20
-24.8110252155
 10
13.2242209416
 20
-24.8404961042
 10
13.1884504293
 20
-24.8681554248
 10
13.1537642434
 20
-24.8942149547
 10
13.1201625216
 20
-24.9188028613
 10
13.0877127985
 20
-24.9419225204
 10
13.0562160286
 20
-24.9638241823
 10
13.025243853
 20
-24.9849947162
 10
12.9948518769
 20
-25.0054507644
 10
12.9651252428
 20
-25.0251392297
 10
12.9356681549
 20
-25.0444038586
 10
12.906544893
 20
-25.0632183876
 10
12.8777828351
 20
-25.0815770771
  0
LWPOLYLINE
  5
2EB
100
AcDbEntity
  8
SUPERFICI
100
AcDbPolyline
 62
250
  6
CONTINUOUS
 90
12
 70
0
 10
-12.8381390756
 20
22.1990057248
 10
-12.7502526258
 20
22.2104590952
 10
-12.6569795052
 20
22.2095576267
 10
-12.5593418655
 20
22.1981355575
 10
-12.4581081033
 20
22.1681059992
 10
-12.3537544958
 20
22.133019843
 10
-12.2485640679
 20
22.1210631908
 10
-12.1449558509
 20
22.1440994237
 10
-12.0423558947
 20
22.1789364913
 10
-11.9412114092
 20
22.2012165125
 10
-11.8434083639
 20
22.2050223398
 10
-11.6623665998
 20
22.2003850673
  0
LINE
  5
2EC
100
AcDbEntity
  8
SUPERFICI
100
AcDbLine
 62
250
  6
CONTINUOUS
 10
-12.8381416122
 20
22.1990057193
 11
-13.9074915109
 21
22.1843115868
  0
LINE
  5
2ED
100
AcDbEntity
  8
SUPERFICI
100
AcDbLine
 62
250
  6
CONTINUOUS
 10
-13.9074915109
 20
22.1843115868
 11
-14.4935633753
 21
22.1776076359
  0
LINE
  5
2EE
100
AcDbEntity
  8
SUPERFICI
100
AcDbLine
 62
250
  6
CONTINUOUS
 10
11.8434560192
 20
22.2018753438
 11
11.662366261
 21
22.2003865156
  0
LINE
  5
2EF
100
AcDbEntity
  8
SUPERFICI
100
AcDbLine
 62
7
  6
CONTINUOUS
 10
-10.95
 20
22.5
 11
10.95
 21
22.5
  0
LINE
  5
2F0
100
AcDbEntity
  8
SUPERFICI
100
AcDbLine
 62
250
  6
CONTINUOUS
 10
-0.5
 20
24.0999834367
 11
10.9489516351
 21
24.0988099934
  0
LINE
  5
2F1
100
AcDbEntity
  8
SUPERFICI
100
AcDbLine
 62
250
  6
CONTINUOUS
 10
11.662366261
 20
22.2003865156
 11
11.2499999953
 21
22.2000532983
  0
LINE
  5
2F2
100
AcDbEntity
  8
SUPERFICI
100
AcDbLine
 62
250
  6
CONTINUOUS
 10
-10.9489482822
 20
24.0988099743
 11
-0.5
 21
24.099981639
  0
LINE
  5
2F3
100
AcDbEntity
  8
SUPERFICI
100
AcDbLine
 62
250
  6
CONTINUOUS
 10
-11.6623665998
 20
22.2003850673
 11
-11.25
 21
22.2
  0
LWPOLYLINE
  5
2F4
100
AcDbEntity
  8
SUPERFICI
100
AcDbPolyline
 62
250
  6
CONTINUOUS
 90
91
 70
0
 10
10.9489516517
 20
24.0988107592
 10
10.983688122
 20
24.098612394
 10
11.017385308
 20
24.0977858962
 10
11.0500323485
 20
24.0963864226
 10
11.0814947313
 20
24.0944749204
 10
11.1118911748
 20
24.0921002004
 10
11.141592139
 20
24.0892786962
 10
11.1704649528
 20
24.0860577639
 10
11.1986325272
 20
24.0824562327
 10
11.2268446101
 20
24.078394586
 10
11.2550887164
 20
24.0738628627
 10
11.2833607778
 20
24.0688639186
 10
11.3124135431
 20
24.0632688552
 10
11.3425325163
 20
24.0569781464
 10
11.3733987032
 20
24.0500028125
 10
11.4048529964
 20
24.0423509023
 10
11.4371845038
 20
24.0339096084
 10
11.4700649758
 20
24.024712224
 10
11.5024256494
 20
24.0150491829
 10
11.5341315388
 20
24.004987958
 10
11.5653124555
 20
23.9945087352
 10
11.595324994
 20
23.9838607903
 10
11.6239883654
 20
23.9731691428
 10
11.6515063943
 20
23.96241771
 10
11.6778261664
 20
23.9516775168
 10
11.7029496136
 20
23.941002387
 10
11.7269024728
 20
23.9304339711
 10
11.7496697799
 20
23.9200258652
 10
11.7712109236
 20
23.909847527
 10
11.7915975948
 20
23.8999145427
 10
11.8109813714
 20
23.8901925141
 10
11.8293979779
 20
23.8807051333
 10
11.8468371415
 20
23.8714898316
 10
11.8633772885
 20
23.8625232583
 10
11.8789055186
 20
23.853897518
 10
11.8935578193
 20
23.8455709906
 10
11.9077772888
 20
23.8373039062
 10
11.9216101927
 20
23.8290775293
 10
11.9350174917
 20
23.8209294976
 10
11.9483030147
 20
23.8126849534
 10
11.9614706547
 20
23.8043433639
 10
11.9745153905
 20
23.7959089583
 10
11.9877186871
 20
23.7871995316
 10
12.0010729709
 20
23.7782120079
 10
12.0145753464
 20
23.7689392956
 10
12.0285044158
 20
23.7591787563
 10
12.0428432729
 20
23.7489203423
 10
12.0575858093
 20
23.7381482719
 10
12.0730145775
 20
23.7266348881
 10
12.08917178
 20
23.714307738
 10
12.1059724846
 20
23.7011914948
 10
12.1234977884
 20
23.6871908866
 10
12.1417926378
 20
23.6722200025
 10
12.1607537605
 20
23.6563041799
 10
12.1802385375
 20
23.6395145761
 10
12.2002692787
 20
23.6217788564
 10
12.2207619193
 20
23.6031141352
 10
12.2414263472
 20
23.5837410418
 10
12.2621788402
 20
23.5637038525
 10
12.2830578146
 20
23.5429288927
 10
12.3039691156
 20
23.5214748663
 10
12.3248165146
 20
23.499409588
 10
12.345653658
 20
23.4766446437
 10
12.366605379
 20
23.4530007819
 10
12.3876342347
 20
23.4284647211
 10
12.4087104253
 20
23.4030144656
 10
12.4299502863
 20
23.3764428088
 10
12.4513065365
 20
23.3487240312
 10
12.4727287806
 20
23.3198354577
 10
12.4943045857
 20
23.2895590916
 10
12.515968577
 20
23.2578622222
 10
12.5376499425
 20
23.2247181263
 10
12.5594000465
 20
23.1899031611
 10
12.5811323933
 20
23.1533759825
 10
12.6027489614
 20
23.1151115194
 10
12.6242522734
 20
23.0748979788
 10
12.6455248491
 20
23.0326986925
 10
12.6664428729
 20
22.9884854709
 10
12.6869640054
 20
22.9420497387
 10
12.7069898432
 20
22.8932369509
 10
12.726302308
 20
22.8421466793
 10
12.7446714325
 20
22.7889591923
 10
12.7618569661
 20
22.7340496579
 10
12.7778074165
 20
22.677048972
 10
12.7924959546
 20
22.6170212114
 10
12.8057410324
 20
22.5534414684
 10
12.8171436207
 20
22.4868612414
 10
12.8263141853
 20
22.4179799192
 10
12.8330024753
 20
22.3470900081
 10
12.8370210863
 20
22.2740622498
 10
12.8381390593
 20
22.1990020256
  0
LWPOLYLINE
  5
2F5
100
AcDbEntity
  8
SUPERFICI
100
AcDbPolyline
 62
250
  6
CONTINUOUS
 90
3
 70
0
 10
12.8381388188
 20
22.1990020202
 10
13.001549578
 20
22.1964974499
 10
14.4935629496
 20
22.1776004335
  0
LWPOLYLINE
  5
2F6
100
AcDbEntity
  8
SUPERFICI
100
AcDbPolyline
 62
250
  6
CONTINUOUS
 90
11
 70
0
 10
12.8381390593
 20
22.1990020256
 10
12.7503335039
 20
22.2009253782
 10
12.6570593701
 20
22.2005158831
 10
12.5593407923
 20
22.1981268178
 10
12.458249735
 20
22.1920444478
 10
12.3548594447
 20
22.1850521628
 10
12.2503166404
 20
22.1829798392
 10
12.1457939316
 20
22.1883971356
 10
12.0423784224
 20
22.1962850528
 10
11.9412108016
 20
22.2012223412
 10
11.8434560192
 20
22.2018753438
  0
LWPOLYLINE
  5
2F7
100
AcDbEntity
  8
SUPERFICI
100
AcDbPolyline
 62
250
  6
CONTINUOUS
 90
3
 70
0
 10
12.8777828351
 20
-25.0815770771
 10
12.8197715956
 20
-25.118075324
 10
12.7905680907
 20
-25.1361766674
  0
LWPOLYLINE
  5
2F8
100
AcDbEntity
  8
SUPERFICI
100
AcDbPolyline
 62
250
  6
CONTINUOUS
 90
27
 70
0
 10
12.7905680907
 20
-25.1361766674
 10
12.730731187
 20
-25.1727099002
 10
12.7002292719
 20
-25.1910303038
 10
12.6691708999
 20
-25.2092834406
 10
12.6376963203
 20
-25.2274221029
 10
12.6060184024
 20
-25.2452807672
 10
12.5740866004
 20
-25.2625898785
 10
12.5420923059
 20
-25.2790757499
 10
12.5097589223
 20
-25.295058757
 10
12.4763326273
 20
-25.3111342405
 10
12.4413595385
 20
-25.327578381
 10
12.4048449819
 20
-25.3442462078
 10
12.3666750024
 20
-25.3610909567
 10
12.3269970619
 20
-25.3779723739
 10
12.2858152984
 20
-25.3948397614
 10
12.2428072031
 20
-25.4117555854
 10
12.1978459755
 20
-25.428706504
 10
12.150961864
 20
-25.4455926817
 10
12.1020682452
 20
-25.462326434
 10
12.0507653186
 20
-25.4789403508
 10
11.9974715862
 20
-25.4952026635
 10
11.9433368632
 20
-25.5106801637
 10
11.8882561238
 20
-25.5253368996
 10
11.8323482345
 20
-25.5391449597
 10
11.7771469824
 20
-25.5518089238
 10
11.7231790424
 20
-25.5631258596
 10
11.6697677323
 20
-25.5734346727
  0
LWPOLYLINE
  5
2F9
100
AcDbEntity
  8
SUPERFICI
100
AcDbPolyline
 62
250
  6
CONTINUOUS
 90
13
 70
0
 10
-11.6697677314
 20
25.5734346708
 10
-11.5631450399
 20
25.5931443705
 10
-11.5094986191
 20
25.6026447028
 10
-11.4555320161
 20
25.6116171847
 10
-11.4020743456
 20
25.6199300186
 10
-11.3490619535
 20
25.6276017488
 10
-11.2949247093
 20
25.6345888386
 10
-11.2393688101
 20
25.6407647218
 10
-11.1825672577
 20
25.6461663394
 10
-11.1236725901
 20
25.6508719688
 10
-11.0624122827
 20
25.6548145877
 10
-10.9990935678
 20
25.6578326121
 10
-10.9337437989
 20
25.6598161566
  0
LINE
  5
2FA
100
AcDbEntity
  8
SUPERFICI
100
AcDbLine
 62
250
  6
CONTINUOUS
 10
-10.9337438013
 20
25.6598161962
 11
-10.3511307101
 21
25.6706913756
  0
LINE
  5
2FB
100
AcDbEntity
  8
SUPERFICI
100
AcDbLine
 62
250
  6
CONTINUOUS
 10
-10.3511307101
 20
25.6706913756
 11
-9.5420536652
 21
25.6817934989
  0
LINE
  5
2FC
100
AcDbEntity
  8
SUPERFICI
100
AcDbLine
 62
250
  6
CONTINUOUS
 10
-9.5420536652
 20
25.6817934989
 11
-8.6057079182
 21
25.6905750161
  0
LINE
  5
2FD
100
AcDbEntity
  8
SUPERFICI
100
AcDbLine
 62
250
  6
CONTINUOUS
 10
-8.6057079182
 20
25.6905750161
 11
-7.5116709605
 21
25.6970848616
  0
LINE
  5
2FE
100
AcDbEntity
  8
SUPERFICI
100
AcDbLine
 62
250
  6
CONTINUOUS
 10
-7.5116709605
 20
25.6970848616
 11
-5.9909338179
 21
25.7018293122
  0
LINE
  5
2FF
100
AcDbEntity
  8
SUPERFICI
100
AcDbLine
 62
250
  6
CONTINUOUS
 10
-5.9909338179
 20
25.7018293122
 11
-3.87860034
 21
25.7035772758
  0
LINE
  5
300
100
AcDbEntity
  8
SUPERFICI
100
AcDbLine
 62
250
  6
CONTINUOUS
 10
-3.87860034
 20
25.7035772758
 11
4.2315717339
 21
25.7035446576
  0
LINE
  5
301
100
AcDbEntity
  8
SUPERFICI
100
AcDbLine
 62
250
  6
CONTINUOUS
 10
4.2315717339
 20
25.7035446576
 11
6.0585769553
 21
25.7016961141
  0
LINE
  5
302
100
AcDbEntity
  8
SUPERFICI
100
AcDbLine
 62
250
  6
CONTINUOUS
 10
6.0585769553
 20
25.7016961141
 11
7.5630981677
 21
25.6968482685
  0
LINE
  5
303
100
AcDbEntity
  8
SUPERFICI
100
AcDbLine
 62
250
  6
CONTINUOUS
 10
7.5630981677
 20
25.6968482685
 11
8.6407486985
 21
25.6903076029
  0
LINE
  5
304
100
AcDbEntity
  8
SUPERFICI
100
AcDbLine
 62
250
  6
CONTINUOUS
 10
8.6407486985
 20
25.6903076029
 11
9.5628607145
 21
25.6815546128
  0
LINE
  5
305
100
AcDbEntity
  8
SUPERFICI
100
AcDbLine
 62
250
  6
CONTINUOUS
 10
9.5628607145
 20
25.6815546128
 11
10.3598838624
 21
25.6705479968
  0
LINE
  5
306
100
AcDbEntity
  8
SUPERFICI
100
AcDbLine
 62
250
  6
CONTINUOUS
 10
10.3598838624
 20
25.6705479968
 11
10.9337502999
 21
25.6598160321
  0
LWPOLYLINE
  5
307
100
AcDbEntity
  8
SUPERFICI
100
AcDbPolyline
 62
250
  6
CONTINUOUS
 90
36
 70
0
 10
10.9337502943
 20
25.65981594
 10
11.0009026301
 20
25.6577584282
 10
11.0660548234
 20
25.6546040419
 10
11.1291780074
 20
25.6504648849
 10
11.1899922978
 20
25.645510239
 10
11.2487137162
 20
25.6398057379
 10
11.3060731531
 20
25.6332652198
 10
11.3619882775
 20
25.6258017667
 10
11.4167332326
 20
25.6175907162
 10
11.471562816
 20
25.6088396028
 10
11.5260933781
 20
25.5997288958
 10
11.5797414994
 20
25.5902846273
 10
11.6331758279
 20
25.580440742
 10
11.6869390673
 20
25.5702223826
 10
11.7412261971
 20
25.5594147387
 10
11.7966398363
 20
25.5474311973
 10
11.8538911087
 20
25.5339206192
 10
11.9122103013
 20
25.5190846431
 10
11.9696433821
 20
25.5033118356
 10
12.0259537696
 20
25.4866585896
 10
12.0814069994
 20
25.4691296291
 10
12.1348973423
 20
25.4511772341
 10
12.1860718069
 20
25.4330259062
 10
12.2352276286
 20
25.4146671447
 10
12.282223606
 20
25.3962745181
 10
12.3271010478
 20
25.3779261258
 10
12.369984839
 20
25.3596499035
 10
12.4108992995
 20
25.3415311384
 10
12.4496223958
 20
25.3237718462
 10
12.4861056265
 20
25.3064785967
 10
12.5205697205
 20
25.2896097095
 10
12.553289572
 20
25.2731268944
 10
12.5849229752
 20
25.2566928144
 10
12.6164403992
 20
25.2396763349
 10
12.6477956679
 20
25.2219283509
 10
12.6784644131
 20
25.2039187045
  0
LWPOLYLINE
  5
308
100
AcDbEntity
  8
SUPERFICI
100
AcDbPolyline
 62
250
  6
CONTINUOUS
 90
3
 70
0
 10
12.6784644131
 20
25.2039187045
 10
12.7376849382
 20
25.1684870786
 10
12.766068622
 20
25.1512143997
  0
LWPOLYLINE
  5
309
100
AcDbEntity
  8
SUPERFICI
100
AcDbPolyline
 62
250
  6
CONTINUOUS
 90
3
 70
0
 10
12.766068622
 20
25.1512143997
 10
12.8219818301
 20
25.1166849747
 10
12.8494619464
 20
25.0994825735
  0
LWPOLYLINE
  5
30A
100
AcDbEntity
  8
SUPERFICI
100
AcDbPolyline
 62
250
  6
CONTINUOUS
 90
49
 70
0
 10
12.8494619464
 20
25.0994825735
 10
12.9047637897
 20
25.064358935
 10
12.9325414656
 20
25.0464540493
 10
12.9608876338
 20
25.027943655
 10
12.9897700557
 20
25.0088259279
 10
13.0190807241
 20
24.9891562777
 10
13.0491298745
 20
24.968652628
 10
13.0798706833
 20
24.9473378808
 10
13.1113146074
 20
24.9251289158
 10
13.1438346839
 20
24.9015634638
 10
13.1776516755
 20
24.8763578686
 10
13.2126228007
 20
24.8495633597
 10
13.2485910647
 20
24.8211870987
 10
13.2856572975
 20
24.7910552042
 10
13.3236436147
 20
24.7592120085
 10
13.3619917047
 20
24.7260145074
 10
13.4005372893
 20
24.691538543
 10
13.4393573501
 20
24.655658346
 10
13.4782719112
 20
24.6184589424
 10
13.5171054227
 20
24.5800544589
 10
13.5559554753
 20
24.5402899168
 10
13.5950407654
 20
24.4988403317
 10
13.6342932269
 20
24.4556843788
 10
13.6736568869
 20
24.4107796104
 10
13.7133338455
 20
24.3637421698
 10
13.7532416363
 20
24.314526371
 10
13.7932869974
 20
24.2630865899
 10
13.8336128982
 20
24.2090110128
 10
13.8741070384
 20
24.1522379831
 10
13.9146299748
 20
24.0927275858
 10
13.9552317271
 20
24.0300794808
 10
13.9957486858
 20
23.9642457482
 10
14.0360110133
 20
23.8951578745
 10
14.0760039195
 20
23.8223552875
 10
14.1155731064
 20
23.7456920322
 10
14.1544137744
 20
23.6652345868
 10
14.1922098968
 20
23.5808948122
 10
14.2283981828
 20
23.4928440708
 10
14.26300523
 20
23.4009253002
 10
14.2965983647
 20
23.3043173821
 10
14.3290158589
 20
23.2026208056
 10
14.3599544344
 20
23.0951743724
 10
14.3895022079
 20
22.9808429819
 10
14.4174276997
 20
22.85901141
 10
14.4424335569
 20
22.7309482307
 10
14.4630551565
 20
22.5983686264
 10
14.4785877599
 20
22.4620706455
 10
14.4889005169
 20
22.321758108
 10
14.4935630495
 20
22.1776004521
  0
LINE
  5
30B
100
AcDbEntity
  8
RACCORDO
100
AcDbLine
 62
7
  6
CONTINUOUS
 10
39.9856479579
 20
3.6860137352
 11
39.8885733718
 21
3.5239590572
  0
LINE
  5
30C
100
AcDbEntity
  8
RACCORDO
100
AcDbLine
 62
7
  6
CONTINUOUS
 10
39.8885733718
 20
-3.5239590572
 11
39.9856479579
 21
-3.6860137352
  0
LINE
  5
30D
100
AcDbEntity
  8
0
100
AcDbLine
 62
250
  6
CONTINUOUS
 10
37.0
 20
40.0
 11
37.0
 21
39.7689897085
  0
LINE
  5
30E
100
AcDbEntity
  8
0
100
AcDbLine
 62
250
  6
CONTINUOUS
 10
37.0
 20
-40.0
 11
37.0
 21
-39.7689897085
  0
LINE
  5
30F
100
AcDbEntity
  8
0
100
AcDbLine
 62
250
  6
CONTINUOUS
 10
-40.0
 20
37.0
 11
-39.7693588487
 21
37.0
  0
LINE
  5
310
100
AcDbEntity
  8
0
100
AcDbLine
 62
250
  6
CONTINUOUS
 10
39.7693588487
 20
37.0
 11
40.0
 21
37.0
  0
LINE
  5
311
100
AcDbEntity
  8
SUPERFICI
100
AcDbLine
 62
250
  6
CONTINUOUS
 10
38.9243174974
 20
36.4913887453
 11
38.9295880163
 21
36.3923247596
  0
LWPOLYLINE
  5
312
100
AcDbEntity
  8
SUPERFICI
100
AcDbPolyline
 62
250
  6
CONTINUOUS
 90
7
 70
0
 10
38.9295880163
 20
36.3923247596
 10
38.9317736919
 20
36.343474529
 10
38.933208234
 20
36.2947595326
 10
38.9341587122
 20
36.2466315016
 10
38.9348816155
 20
36.1981594035
 10
38.9353710272
 20
36.1489191797
 10
38.971477564
 20
30.9246452299
  0
LINE
  5
313
100
AcDbEntity
  8
SUPERFICI
100
AcDbLine
 62
250
  6
CONTINUOUS
 10
38.9197066888
 20
36.5956552819
 11
38.9243174974
 21
36.4913887453
  0
LINE
  5
314
100
AcDbEntity
  8
SUPERFICI
100
AcDbLine
 62
250
  6
CONTINUOUS
 10
38.9129849232
 20
36.7694020397
 11
38.9197066888
 21
36.5956552819
  0
LINE
  5
315
100
AcDbEntity
  8
SUPERFICI
100
AcDbLine
 62
250
  6
CONTINUOUS
 10
38.9041434445
 20
37.0379684234
 11
38.9129849232
 21
36.7694020397
  0
LINE
  5
316
100
AcDbEntity
  8
SUPERFICI
100
AcDbLine
 62
250
  6
CONTINUOUS
 10
38.971477564
 20
30.9246452299
 11
38.9844839382
 21
27.8277598606
  0
LINE
  5
317
100
AcDbEntity
  8
SUPERFICI
100
AcDbLine
 62
250
  6
CONTINUOUS
 10
38.9844839382
 20
27.8277598606
 11
38.9917750666
 21
24.5515851685
  0
LINE
  5
318
100
AcDbEntity
  8
SUPERFICI
100
AcDbLine
 62
250
  6
CONTINUOUS
 10
39.7685353736
 20
-36.4263533132
 11
39.7693588487
 21
-37.0
  0
LINE
  5
319
100
AcDbEntity
  8
SUPERFICI
100
AcDbLine
 62
250
  6
CONTINUOUS
 10
38.9917750666
 20
24.5515851685
 11
38.9966292851
 21
19.2735501983
  0
LINE
  5
31A
100
AcDbEntity
  8
SUPERFICI
100
AcDbLine
 62
250
  6
CONTINUOUS
 10
39.7658375084
 20
-9.8568007789
 11
39.7685353736
 21
-36.4263533132
  0
LINE
  5
31B
100
AcDbEntity
  8
RACCORDO
100
AcDbLine
 62
7
  6
CONTINUOUS
 10
39.8742213297
 20
3.2251006478
 11
39.8742213297
 21
-3.2251006478
  0
LINE
  5
31C
100
AcDbEntity
  8
RACCORDO
100
AcDbLine
 62
7
  6
CONTINUOUS
 10
40.0
 20
-37.0
 11
40.0
 21
-3.9848721447
  0
LINE
  5
31D
100
AcDbEntity
  8
RACCORDO
100
AcDbLine
 62
7
  6
CONTINUOUS
 10
40.0
 20
3.9848721447
 11
40.0
 21
37.0
  0
LINE
  5
31E
100
AcDbEntity
  8
SUPERFICI
100
AcDbLine
 62
250
  6
CONTINUOUS
 10
38.9946767337
 20
-1.0384418713
 11
38.9974888929
 21
-15.2592515552
  0
LINE
  5
31F
100
AcDbEntity
  8
SUPERFICI
100
AcDbLine
 62
250
  6
CONTINUOUS
 10
38.9966292851
 20
19.2735501983
 11
38.9971470159
 21
12.6190341826
  0
LINE
  5
320
100
AcDbEntity
  8
SUPERFICI
100
AcDbLine
 62
250
  6
CONTINUOUS
 10
38.9971470159
 20
12.6190341826
 11
38.9946767337
 21
-1.0384418713
  0
LINE
  5
321
100
AcDbEntity
  8
SUPERFICI
100
AcDbLine
 62
250
  6
CONTINUOUS
 10
38.9974888929
 20
-15.2592515552
 11
38.9959196882
 21
-20.5107111054
  0
LINE
  5
322
100
AcDbEntity
  8
SUPERFICI
100
AcDbLine
 62
250
  6
CONTINUOUS
 10
38.9959196882
 20
-20.5107111054
 11
38.9913009177
 21
-24.8607357713
  0
LINE
  5
323
100
AcDbEntity
  8
SUPERFICI
100
AcDbLine
 62
250
  6
CONTINUOUS
 10
39.7693588487
 20
37.0
 11
39.7658375084
 21
-9.8568007789
  0
LINE
  5
324
100
AcDbEntity
  8
SUPERFICI
100
AcDbLine
 62
250
  6
CONTINUOUS
 10
38.9913009177
 20
-24.8607357713
 11
38.9852364724
 21
-27.5816461526
  0
LINE
  5
325
100
AcDbEntity
  8
SUPERFICI
100
AcDbLine
 62
250
  6
CONTINUOUS
 10
38.9852364724
 20
-27.5816461526
 11
38.9771571172
 21
-29.7622319036
  0
LINE
  5
326
100
AcDbEntity
  8
SUPERFICI
100
AcDbLine
 62
250
  6
CONTINUOUS
 10
38.9771571172
 20
-29.7622319036
 11
38.9652755258
 21
-32.0140660688
  0
LINE
  5
327
100
AcDbEntity
  8
SUPERFICI
100
AcDbLine
 62
250
  6
CONTINUOUS
 10
38.9652755258
 20
-32.0140660688
 11
38.9487114059
 21
-34.4344897126
  0
LWPOLYLINE
  5
328
100
AcDbEntity
  8
SUPERFICI
100
AcDbPolyline
 62
250
  6
CONTINUOUS
 90
46
 70
0
 10
39.7693588487
 20
-37.0
 10
39.7688346108
 20
-37.0575704889
 10
39.7669085713
 20
-37.1199824313
 10
39.7632526158
 20
-37.1871937569
 10
39.7574920442
 20
-37.2593940448
 10
39.7492599929
 20
-37.336253763
 10
39.7382677917
 20
-37.4169281901
 10
39.7241653503
 20
-37.5012955723
 10
39.7065896624
 20
-37.5892147755
 10
39.6853469539
 20
-37.6797955092
 10
39.6601299354
 20
-37.7728566236
 10
39.6306289158
 20
-37.868193281
 10
39.5967897975
 20
-37.9648795286
 10
39.5583816301
 20
-38.0626882198
 10
39.515181457
 20
-38.1613657356
 10
39.4673120681
 20
-38.2599725348
 10
39.4146456602
 20
-38.3582572455
 10
39.357067709
 20
-38.4559502675
 10
39.2948970096
 20
-38.5521445903
 10
39.2281239329
 20
-38.6465955257
 10
39.1567472558
 20
-38.7390586882
 10
39.0812707791
 20
-38.8287229555
 10
39.0017910427
 20
-38.9153957298
 10
38.9184156518
 20
-38.9988854745
 10
38.8318207764
 20
-39.0785111995
 10
38.7421908108
 20
-39.1541638614
 10
38.6497185451
 20
-39.225739186
 10
38.5552231795
 20
-39.2927200063
 10
38.4589490511
 20
-39.3551033453
 10
38.3611387929
 20
-39.4128961333
 10
38.262706922
 20
-39.4657708995
 10
38.1639217238
 20
-39.5138405577
 10
38.0650365825
 20
-39.5572298124
 10
37.9670054009
 20
-39.5958079798
 10
37.8700837646
 20
-39.6297975358
 10
37.7744996423
 20
-39.6594295704
 10
37.6811929106
 20
-39.6847547201
 10
37.5903699314
 20
-39.7060842628
 10
37.5022133087
 20
-39.723727106
 10
37.4176276442
 20
-39.7378766799
 10
37.3367547457
 20
-39.7488989964
 10
37.2597177824
 20
-39.7571469237
 10
37.1873769043
 20
-39.762911082
 10
37.1200670697
 20
-39.7665619169
 10
37.0575940505
 20
-39.7684777921
 10
37.0
 20
-39.7689897085
  0
LWPOLYLINE
  5
329
100
AcDbEntity
  8
SUPERFICI
100
AcDbPolyline
 62
250
  6
CONTINUOUS
 90
7
 70
0
 10
38.9487114059
 20
-34.4344897126
 10
38.9348980998
 20
-36.1938617477
 10
38.9342005225
 20
-36.2430435751
 10
38.9332894504
 20
-36.2918839539
 10
38.9318743699
 20
-36.3413014171
 10
38.9296689892
 20
-36.3908571126
 10
38.9243242235
 20
-36.4912320341
  0
LINE
  5
32A
100
AcDbEntity
  8
SUPERFICI
100
AcDbLine
 62
250
  6
CONTINUOUS
 10
38.9129344423
 20
-36.770806563
 11
38.904143444
 21
-37.0379684233
  0
LWPOLYLINE
  5
32B
100
AcDbEntity
  8
SUPERFICI
100
AcDbPolyline
 62
250
  6
CONTINUOUS
 90
46
 70
0
 10
38.9041434548
 20
-37.0379684263
 10
38.9026086385
 20
-37.076050187
 10
38.9000763462
 20
-37.1173402826
 10
38.8963367464
 20
-37.1618109093
 10
38.8911448428
 20
-37.2095867759
 10
38.8842726423
 20
-37.2604511593
 10
38.8755527986
 20
-37.3138485061
 10
38.8647618191
 20
-37.3696998305
 10
38.8516687133
 20
-37.4279137964
 10
38.836165686
 20
-37.4879057342
 10
38.8180554449
 20
-37.5495599702
 10
38.7971431356
 20
-37.612743162
 10
38.7734128903
 20
-37.676843511
 10
38.7467177021
 20
-37.7417134843
 10
38.7169166368
 20
-37.8071916049
 10
38.6841035663
 20
-37.8726606549
 10
38.6481934086
 20
-37.9379602692
 10
38.6091119548
 20
-38.0029219885
 10
38.5670756808
 20
-38.0669526148
 10
38.5220722217
 20
-38.1298983775
 10
38.474103126
 20
-38.1916032348
 10
38.4235101889
 20
-38.2515278351
 10
38.3703544893
 20
-38.3095454894
 10
38.3147020002
 20
-38.3655396693
 10
38.2569957389
 20
-38.4190639451
 10
38.1973456808
 20
-38.4700516127
 10
38.1358749069
 20
-38.5184385128
 10
38.0731254706
 20
-38.563876267
 10
38.0092519815
 20
-38.6063606953
 10
37.9444095196
 20
-38.6458973388
 10
37.8792005832
 20
-38.6822587569
 10
37.813795998
 20
-38.7155144928
 10
37.748355566
 20
-38.7457472658
 10
37.6835030928
 20
-38.7728590289
 10
37.619399607
 20
-38.7969918859
 10
37.5561931664
 20
-38.818291693
 10
37.4945059449
 20
-38.8367688264
 10
37.4344741619
 20
-38.8526173916
 10
37.3762160986
 20
-38.8660327095
 10
37.320326722
 20
-38.8771187934
 10
37.2668992751
 20
-38.8861077095
 10
37.2160134437
 20
-38.8932244937
 10
37.1682333523
 20
-38.8986361267
 10
37.1237789322
 20
-38.9025726109
 10
37.0825234369
 20
-38.9052820205
 10
37.0444953647
 20
-38.9069761685
  0
LINE
  5
32C
100
AcDbEntity
  8
SUPERFICI
100
AcDbLine
 62
250
  6
CONTINUOUS
 10
38.9196713461
 20
-36.5965316907
 11
38.9129344423
 21
-36.770806563
  0
LINE
  5
32D
100
AcDbEntity
  8
SUPERFICI
100
AcDbLine
 62
250
  6
CONTINUOUS
 10
38.9243242235
 20
-36.4912320341
 11
38.9196713461
 21
-36.5965316907
  0
LWPOLYLINE
  5
32E
100
AcDbEntity
  8
SUPERFICI
100
AcDbPolyline
 62
250
  6
CONTINUOUS
 90
6
 70
0
 10
-36.6536113781
 20
38.9224205406
 10
-36.579959839
 20
38.9259792059
 10
-36.5059788936
 20
38.9303549292
 10
-36.4315911826
 20
38.9350871177
 10
-36.35431332
 20
38.9390614796
 10
-36.2739959136
 20
38.9417371316
  0
LINE
  5
32F
100
AcDbEntity
  8
SUPERFICI
100
AcDbLine
 62
250
  6
CONTINUOUS
 10
-36.8809221095
 20
38.9129688874
 11
-36.6536113781
 21
38.9224205406
  0
LINE
  5
330
100
AcDbEntity
  8
SUPERFICI
100
AcDbLine
 62
250
  6
CONTINUOUS
 10
-37.0444954435
 20
38.9069764105
 11
-36.8809221095
 21
38.9129688874
  0
LINE
  5
331
100
AcDbEntity
  8
SUPERFICI
100
AcDbLine
 62
250
  6
CONTINUOUS
 10
-36.2739959136
 20
38.9417371316
 11
-36.1066876315
 21
38.9453069075
  0
LINE
  5
332
100
AcDbEntity
  8
SUPERFICI
100
AcDbLine
 62
250
  6
CONTINUOUS
 10
-29.4356751027
 20
39.0502815819
 11
-27.8045817433
 21
39.0739096336
  0
LINE
  5
333
100
AcDbEntity
  8
SUPERFICI
100
AcDbLine
 62
250
  6
CONTINUOUS
 10
-36.1066876315
 20
38.9453069075
 11
-29.4356751027
 21
39.0502815819
  0
LINE
  5
334
100
AcDbEntity
  8
SUPERFICI
100
AcDbLine
 62
250
  6
CONTINUOUS
 10
-27.8045817433
 20
39.0739096336
 11
-26.5927414568
 21
39.0880515318
  0
LINE
  5
335
100
AcDbEntity
  8
SUPERFICI
100
AcDbLine
 62
250
  6
CONTINUOUS
 10
-26.5927414568
 20
39.0880515318
 11
-25.5672463129
 21
39.0965213041
  0
LINE
  5
336
100
AcDbEntity
  8
SUPERFICI
100
AcDbLine
 62
250
  6
CONTINUOUS
 10
-24.6074699329
 20
39.0994029685
 11
-23.4762708814
 21
39.1069624395
  0
LINE
  5
337
100
AcDbEntity
  8
SUPERFICI
100
AcDbLine
 62
250
  6
CONTINUOUS
 10
36.761883576
 20
39.7684769922
 11
37.0
 21
39.7689897085
  0
LINE
  5
338
100
AcDbEntity
  8
SUPERFICI
100
AcDbLine
 62
250
  6
CONTINUOUS
 10
-25.5672463129
 20
39.0965213041
 11
-24.6074699329
 21
39.0994029685
  0
LINE
  5
339
100
AcDbEntity
  8
SUPERFICI
100
AcDbLine
 62
250
  6
CONTINUOUS
 10
-23.4762708814
 20
39.1069624395
 11
-22.7129396878
 21
39.109430339
  0
LINE
  5
33A
100
AcDbEntity
  8
0
100
AcDbLine
 62
7
  6
CONTINUOUS
 10
37.0
 20
40.0
 11
-37.0
 21
40.0
  0
LINE
  5
33B
100
AcDbEntity
  8
SUPERFICI
100
AcDbLine
 62
250
  6
CONTINUOUS
 10
11.6853643726
 20
39.0841563212
 11
22.459745827
 21
39.1095230173
  0
LINE
  5
33C
100
AcDbEntity
  8
SUPERFICI
100
AcDbLine
 62
250
  6
CONTINUOUS
 10
-15.5366063003
 20
39.7618041429
 11
14.0123491167
 21
39.761935151
  0
LWPOLYLINE
  5
33D
100
AcDbEntity
  8
SUPERFICI
100
AcDbPolyline
 62
250
  6
CONTINUOUS
 90
3
 70
0
 10
14.0123491167
 20
39.761935151
 10
22.0626936053
 20
39.7604503998
 10
36.761883576
 20
39.7684769922
  0
LINE
  5
33E
100
AcDbEntity
  8
SUPERFICI
100
AcDbLine
 62
250
  6
CONTINUOUS
 10
-2.7677997112
 20
39.0959728281
 11
3.7061473213
 21
39.0948159129
  0
LINE
  5
33F
100
AcDbEntity
  8
SUPERFICI
100
AcDbLine
 62
250
  6
CONTINUOUS
 10
3.7061473213
 20
39.0948159129
 11
5.8464422398
 21
39.0912310725
  0
LINE
  5
340
100
AcDbEntity
  8
SUPERFICI
100
AcDbLine
 62
250
  6
CONTINUOUS
 10
5.8464422398
 20
39.0912310725
 11
11.6853643726
 21
39.0841563212
  0
LINE
  5
341
100
AcDbEntity
  8
SUPERFICI
100
AcDbLine
 62
250
  6
CONTINUOUS
 10
-37.0
 20
39.7689897085
 11
-15.5366063003
 21
39.7618041429
  0
LINE
  5
342
100
AcDbEntity
  8
SUPERFICI
100
AcDbLine
 62
250
  6
CONTINUOUS
 10
-16.2819332656
 20
39.0895402471
 11
-2.7677997112
 21
39.0959728281
  0
LINE
  5
343
100
AcDbEntity
  8
SUPERFICI
100
AcDbLine
 62
250
  6
CONTINUOUS
 10
-22.7129396878
 20
39.109430339
 11
-20.6411970109
 21
39.1042847269
  0
LINE
  5
344
100
AcDbEntity
  8
SUPERFICI
100
AcDbLine
 62
250
  6
CONTINUOUS
 10
22.459745827
 20
39.1095230173
 11
23.241840855
 21
39.108039851
  0
LINE
  5
345
100
AcDbEntity
  8
SUPERFICI
100
AcDbLine
 62
250
  6
CONTINUOUS
 10
-20.6411970109
 20
39.1042847269
 11
-16.2819332656
 21
39.0895402471
  0
LINE
  5
346
100
AcDbEntity
  8
SUPERFICI
100
AcDbLine
 62
250
  6
CONTINUOUS
 10
24.7745446505
 20
39.0982582537
 11
25.5572320516
 21
39.0964260941
  0
LINE
  5
347
100
AcDbEntity
  8
SUPERFICI
100
AcDbLine
 62
250
  6
CONTINUOUS
 10
23.241840855
 20
39.108039851
 11
24.7745446505
 21
39.0982582537
  0
LWPOLYLINE
  5
348
100
AcDbEntity
  8
SUPERFICI
100
AcDbPolyline
 62
250
  6
CONTINUOUS
 90
46
 70
0
 10
37.0
 20
39.7689897085
 10
37.0576483284
 20
39.7684766352
 10
37.119847109
 20
39.7665710583
 10
37.1865553547
 20
39.7629655679
 10
37.2579328132
 20
39.7573122129
 10
37.3336863255
 20
39.7492693754
 10
37.413073055
 20
39.738562207
 10
37.4959779649
 20
39.7248625079
 10
37.5822689608
 20
39.7078303426
 10
37.6711608825
 20
39.6872701209
 10
37.7624828997
 20
39.6628883968
 10
37.8560423419
 20
39.6343891686
 10
37.9510175239
 20
39.6016944928
 10
38.0471922954
 20
39.5645747159
 10
38.1443238116
 20
39.5228076787
 10
38.2415680253
 20
39.4764677216
 10
38.3386778518
 20
39.4254153949
 10
38.4353898807
 20
39.3695223951
 10
38.5308813384
 20
39.3090320488
 10
38.6249042885
 20
39.2439078403
 10
38.7172043962
 20
39.1741248793
 10
38.807025897
 20
39.1000958304
 10
38.8941738812
 20
39.0218671058
 10
38.9784132354
 20
38.9395309032
 10
39.0590417162
 20
38.8537165029
 10
39.1359403894
 20
38.7645552439
 10
39.2089486134
 20
38.6722387126
 10
39.2774609092
 20
38.5776278377
 10
39.341448485
 20
38.48095219
 10
39.4008879891
 20
38.382447698
 10
39.455374714
 20
38.2831012529
 10
39.505003433
 20
38.1831839602
 10
39.549882652
 20
38.0829507282
 10
39.5898294167
 20
37.9834405856
 10
39.6250617007
 20
37.8849183257
 10
39.6558069045
 20
37.7876212838
 10
39.682087443
 20
37.6925839257
 10
39.7042231361
 20
37.6000243155
 10
39.7225319246
 20
37.5101352706
 10
39.7372011757
 20
37.4239180505
 10
39.748615682
 20
37.341524067
 10
39.7571464258
 20
37.2630838239
 10
39.7630945732
 20
37.1895513642
 10
39.7668529322
 20
37.1212959982
 10
39.7688243434
 20
37.0580975084
 10
39.7693588487
 20
37.0
  0
LINE
  5
349
100
AcDbEntity
  8
SUPERFICI
100
AcDbLine
 62
250
  6
CONTINUOUS
 10
25.5572320516
 20
39.0964260941
 11
26.3802808289
 21
39.0901271806
  0
LINE
  5
34A
100
AcDbEntity
  8
SUPERFICI
100
AcDbLine
 62
250
  6
CONTINUOUS
 10
26.3802808289
 20
39.0901271806
 11
27.5215105611
 21
39.0775374225
  0
LINE
  5
34B
100
AcDbEntity
  8
SUPERFICI
100
AcDbLine
 62
250
  6
CONTINUOUS
 10
27.5215105611
 20
39.0775374225
 11
28.8429406242
 21
39.0593096514
  0
LWPOLYLINE
  5
34C
100
AcDbEntity
  8
SUPERFICI
100
AcDbPolyline
 62
250
  6
CONTINUOUS
 90
3
 70
0
 10
28.8429406242
 20
39.0593096514
 10
31.8980536374
 20
39.0107806267
 10
35.6940065676
 20
38.9511890313
  0
LWPOLYLINE
  5
34D
100
AcDbEntity
  8
SUPERFICI
100
AcDbPolyline
 62
250
  6
CONTINUOUS
 90
9
 70
0
 10
35.6940065676
 20
38.9511890313
 10
36.172203531
 20
38.9440745864
 10
36.2570583511
 20
38.94237615
 10
36.3396420439
 20
38.9398254187
 10
36.4188829019
 20
38.9358
 10
36.4950816306
 20
38.9309281775
 10
36.5708544873
 20
38.9264201967
 10
36.6461916766
 20
38.9227679922
 10
36.7979674341
 20
38.9162770556
  0
LINE
  5
34E
100
AcDbEntity
  8
SUPERFICI
100
AcDbLine
 62
250
  6
CONTINUOUS
 10
36.7979674341
 20
38.9162770556
 11
37.0444954326
 21
38.9069763769
  0
LWPOLYLINE
  5
34F
100
AcDbEntity
  8
SUPERFICI
100
AcDbPolyline
 62
250
  6
CONTINUOUS
 90
46
 70
0
 10
37.0444953648
 20
38.9069761689
 10
37.0825594995
 20
38.9052800687
 10
37.123633808
 20
38.9025837541
 10
37.1676907126
 20
38.8986905771
 10
37.2148343265
 20
38.8933728048
 10
37.2648722449
 20
38.8864180129
 10
37.3173175561
 20
38.8776666937
 10
37.3720957787
 20
38.8669093664
 10
37.4291201208
 20
38.8539305249
 10
37.4878744701
 20
38.8386221064
 10
37.5482482144
 20
38.8207981478
 10
37.6101141293
 20
38.8002740966
 10
37.6729281685
 20
38.7770196702
 10
37.7365493367
 20
38.7508900517
 10
37.8008243745
 20
38.7217436712
 10
37.8652018838
 20
38.6896407217
 10
37.9295258379
 20
38.6544887846
 10
37.9936288421
 20
38.6162079569
 10
38.0569700765
 20
38.5749692051
 10
38.1193911143
 20
38.5307474707
 10
38.1807302467
 20
38.4835296976
 10
38.2404876557
 20
38.4335963499
 10
38.298538474
 20
38.3809745031
 10
38.3547396043
 20
38.3257206998
 10
38.4086323253
 20
38.2682479642
 10
38.460144484
 20
38.2086326422
 10
38.5091735542
 20
38.1470013291
 10
38.5553112623
 20
38.0839275279
 10
38.5985364659
 20
38.0195576883
 10
38.6388400551
 20
37.9540404059
 10
38.6759486225
 20
37.8880227123
 10
38.7099234863
 20
37.8216738674
 10
38.7408379172
 20
37.7551560124
 10
38.7685582419
 20
37.6891518925
 10
38.7932224031
 20
37.6238296152
 10
38.8149750805
 20
37.5593432943
 10
38.8338096371
 20
37.4963767683
 10
38.8499269867
 20
37.4350720507
 10
38.8635312029
 20
37.375552283
 10
38.8747239931
 20
37.3184753777
 10
38.8837502207
 20
37.263939292
 10
38.8908466705
 20
37.2120285774
 10
38.8961864598
 20
37.1633708889
 10
38.9000133553
 20
37.1182091862
 10
38.9025910595
 20
37.0763986204
 10
38.9041434547
 20
37.0379684263
  0
LWPOLYLINE
  5
350
100
AcDbEntity
  8
0
100
AcDbPolyline
 62
7
  6
CONTINUOUS
 90
13
 70
0
 43
0.3500000006
 10
-1.9285714102
 20
51.5300933533
 10
-2.2142856617
 20
51.7443778381
 10
-2.2142856617
 20
52.3872358246
 10
-1.9285714102
 20
52.8158093262
 10
-1.2857142735
 20
52.8158093262
 10
-1.0000000219
 20
52.3872358246
 10
-1.0000000219
 20
51.7443778381
 10
-1.2857142735
 20
51.5300933533
 10
-0.8571428254
 20
51.1015198517
 10
-0.8571428254
 20
50.2443773804
 10
-1.2857142735
 20
49.8158084106
 10
-1.9285714102
 20
49.8158084106
 10
-2.3571427875
 20
50.2443773804
  0
LWPOLYLINE
  5
351
100
AcDbEntity
  8
SUPERFICI
100
AcDbPolyline
 62
250
  6
CONTINUOUS
 90
13
 70
0
 10
37.0
 20
-39.7689897085
 10
37.0052041257
 20
-39.7563744356
 10
37.0103393556
 20
-39.7307061982
 10
37.0153377062
 20
-39.6923247951
 10
37.0201330063
 20
-39.6417383235
 10
37.0246617728
 20
-39.5796164527
 10
37.0288640507
 20
-39.5067815585
 10
37.0326842075
 20
-39.4241978372
 10
37.0360716689
 20
-39.3329585411
 10
37.0389815889
 20
-39.2342715059
 10
37.0413754432
 20
-39.129443161
 10
37.0432215393
 20
-39.0198612356
 10
37.0444954358
 20
-38.906976387
  0
LWPOLYLINE
  5
352
100
AcDbEntity
  8
SUPERFICI
100
AcDbPolyline
 62
250
  6
CONTINUOUS
 90
13
 70
0
 10
39.7693588419
 20
-37.0
 10
39.7566970084
 20
-37.0044482391
 10
39.7309220601
 20
-37.0088373177
 10
39.6923767971
 20
-37.0131088623
 10
39.6415738613
 20
-37.0172060624
 10
39.5791889188
 20
-37.0210744262
 10
39.506051673
 20
-37.0246625056
 10
39.4231348304
 20
-37.0279225801
 10
39.3315411635
 20
-37.0308112915
 10
39.2324888442
 20
-37.0332902206
 10
39.1272952429
 20
-37.0353263984
 10
39.017359407
 20
-37.0368927443
 10
38.9041434548
 20
-37.0379684263
  0
LWPOLYLINE
  5
353
100
AcDbEntity
  8
SUPERFICI
100
AcDbPolyline
 62
250
  6
CONTINUOUS
 90
13
 70
0
 10
39.7693588487
 20
37.0
 10
39.7566970098
 20
37.0044481108
 10
39.7309220567
 20
37.0088370689
 10
39.6923767896
 20
37.0131085061
 10
39.6415738506
 20
37.017205617
 10
39.5791889056
 20
37.0210739148
 10
39.5060516581
 20
37.0246619557
 10
39.4231348146
 20
37.0279220235
 10
39.3315411474
 20
37.0308107636
 10
39.2324888287
 20
37.0332897601
 10
39.1272952286
 20
37.0353260466
 10
39.0173593945
 20
37.0368925445
 10
38.9041434445
 20
37.0379684234
  0
LWPOLYLINE
  5
354
100
AcDbEntity
  8
SUPERFICI
100
AcDbPolyline
 62
250
  6
CONTINUOUS
 90
13
 70
0
 10
37.0
 20
39.7689896843
 10
37.0052040326
 20
39.7563742479
 10
37.0103391739
 20
39.7307058749
 10
37.0153374443
 20
39.6923243653
 10
37.0201326764
 20
39.6417378168
 10
37.0246613904
 20
39.5796158983
 10
37.0288636349
 20
39.5067809848
 10
37.0326837803
 20
39.4241972712
 10
37.036071255
 20
39.3329580074
 10
37.0389812156
 20
39.2342710264
 10
37.0413751395
 20
39.1294427547
 10
37.0432213359
 20
39.0198609177
 10
37.0444953648
 20
38.9069761689
  0
LINE
  5
355
100
AcDbEntity
  8
0
100
AcDbLine
 62
7
  6
CONTINUOUS
 10
-65.8466307413
 20
-40.0
 11
-70.2545696893
 21
-39.7689897085
  0
LINE
  5
356
100
AcDbEntity
  8
SUPERFICI
100
AcDbLine
 62
7
  6
CONTINUOUS
 10
-70.2545696893
 20
-39.7689897085
 11
-70.4212629277
 21
-39.7602536861
  0
LINE
  5
357
100
AcDbEntity
  8
RACCORDO
100
AcDbLine
 62
7
  6
CONTINUOUS
 10
-65.8466307413
 20
-38.497941481
 11
-65.6466307413
 21
-38.5084230369
  0
LWPOLYLINE
  5
358
100
AcDbEntity
  8
SUPERFICI
100
AcDbPolyline
 62
250
  6
CONTINUOUS
 90
13
 70
0
 10
-70.2545696893
 20
-39.7689897085
 10
-70.3688145183
 20
-39.7563744356
 10
-70.480854154
 20
-39.7307061982
 10
-70.5892054037
 20
-39.6923247951
 10
-70.692433902
 20
-39.6417383235
 10
-70.7891730989
 20
-39.5796164527
 10
-70.8781423506
 20
-39.5067815585
 10
-70.9581638727
 20
-39.4241978372
 10
-71.0281783317
 20
-39.3329585411
 10
-71.0872588687
 20
-39.2342715059
 10
-71.1346233692
 20
-39.129443161
 10
-71.1696448171
 20
-39.0198612356
 10
-71.1918595947
 20
-38.906976387
  0
LWPOLYLINE
  5
359
100
AcDbEntity
  8
0
100
AcDbPolyline
 62
7
  6
CONTINUOUS
 90
10
 70
0
 43
0.3500000006
 10
-73.0323435059
 20
49.8158084106
 10
-72.1752010345
 20
50.672950882
 10
-71.9609165497
 20
51.5300933533
 10
-71.9609165497
 20
52.3872358246
 10
-72.3894900513
 20
52.8158093262
 10
-73.0323435059
 20
52.8158093262
 10
-73.4609170074
 20
52.3872358246
 10
-73.4609170074
 20
51.5300933533
 10
-73.0323435059
 20
51.1015198517
 10
-72.1037743835
 20
51.1015198517
  0
LINE
  5
35A
100
AcDbEntity
  8
SUPERFICI
100
AcDbLine
 62
250
  6
CONTINUOUS
 10
-71.1287921659
 20
-37.0353263984
 11
-71.1855229246
 21
-37.0379684263
  0
LINE
  5
35B
100
AcDbEntity
  8
SUPERFICI
100
AcDbLine
 62
250
  6
CONTINUOUS
 10
-70.2475260741
 20
-37.0
 11
-71.1287921659
 21
-37.0353263984
  0
LINE
  5
35C
100
AcDbEntity
  8
0
100
AcDbLine
 62
250
  6
CONTINUOUS
 10
-70.2475260745
 20
-37.0
 11
-65.8466307413
 21
-37.0
  0
LINE
  5
35D
100
AcDbEntity
  8
RACCORDO
100
AcDbLine
 62
250
  6
CONTINUOUS
 10
-65.6466307413
 20
-37.0
 11
-65.8466307413
 21
-37.0
  0
LINE
  5
35E
100
AcDbEntity
  8
RACCORDO
100
AcDbLine
 62
250
  6
CONTINUOUS
 10
-65.8466307413
 20
-33.5624872827
 11
-65.6466307413
 21
-33.55962218
  0
LINE
  5
35F
100
AcDbEntity
  8
RACCORDO
100
AcDbLine
 62
250
  6
CONTINUOUS
 10
-65.8466307413
 20
-34.0883278632
 11
-65.6466307413
 21
-34.0859052601
  0
LINE
  5
360
100
AcDbEntity
  8
RACCORDO
100
AcDbLine
 62
250
  6
CONTINUOUS
 10
-65.6466307413
 20
-28.9140947415
 11
-65.8466307413
 21
-28.9116721858
  0
LINE
  5
361
100
AcDbEntity
  8
RACCORDO
100
AcDbLine
 62
250
  6
CONTINUOUS
 10
-65.6466307413
 20
-29.4403778154
 11
-65.8466307413
 21
-29.4375127735
  0
LWPOLYLINE
  5
362
100
AcDbEntity
  8
SUPERFICI
100
AcDbPolyline
 62
250
  6
CONTINUOUS
 90
6
 70
0
 10
-74.279813843
 20
-22.1890876656
 10
-74.2153691767
 20
-22.186675646
 10
-74.1633409907
 20
-22.1843115867
 10
-74.1239546649
 20
-22.1820056619
 10
-74.0973808163
 20
-22.179767799
 10
-74.0837345598
 20
-22.1776076359
  0
LINE
  5
363
100
AcDbEntity
  8
SUPERFICI
100
AcDbLine
 62
250
  6
CONTINUOUS
 10
-74.4447833726
 20
-22.194013921
 11
-74.279813843
 21
-22.1890876656
  0
LINE
  5
364
100
AcDbEntity
  8
SUPERFICI
100
AcDbLine
 62
250
  6
CONTINUOUS
 10
-74.6553941627
 20
-22.1990057193
 11
-74.4447833726
 21
-22.194013921
  0
LWPOLYLINE
  5
365
100
AcDbEntity
  8
SUPERFICI
100
AcDbPolyline
 62
250
  6
CONTINUOUS
 90
5
 70
0
 10
-74.6553906745
 20
-22.1990057248
 10
-74.7124930038
 20
-22.2104590944
 10
-74.7600564243
 20
-22.209557626
 10
-74.7975816032
 20
-22.1981355576
 10
-74.8246650793
 20
-22.1681060015
  0
LINE
  5
366
100
AcDbEntity
  8
SUPERFICI
100
AcDbLine
 62
7
  6
CONTINUOUS
 10
-74.5398340493
 20
24.2526533744
 11
-74.4374753799
 21
24.4208942419
  0
LINE
  5
367
100
AcDbEntity
  8
SUPERFICI
100
AcDbLine
 62
7
  6
CONTINUOUS
 10
-74.6476412984
 20
24.0986202604
 11
-74.6475186393
 21
24.0988099934
  0
LINE
  5
368
100
AcDbEntity
  8
SUPERFICI
100
AcDbLine
 62
7
  6
CONTINUOUS
 10
-74.6475213914
 20
24.0988107592
 11
-74.7060706542
 21
24.0112343516
  0
LINE
  5
369
100
AcDbEntity
  8
SUPERFICI
100
AcDbLine
 62
7
  6
CONTINUOUS
 10
-74.5815562419
 20
24.1905918693
 11
-74.5398340493
 21
24.2526533744
  0
LINE
  5
36A
100
AcDbEntity
  8
SUPERFICI
100
AcDbLine
 62
7
  6
CONTINUOUS
 10
-74.5248643614
 20
24.2773973985
 11
-74.649334252
 21
24.096378298
  0
LINE
  5
36B
100
AcDbEntity
  8
SUPERFICI
100
AcDbLine
 62
7
  6
CONTINUOUS
 10
-74.6475211652
 20
24.0988105901
 11
-74.5815562419
 21
24.1905918693
  0
LINE
  5
36C
100
AcDbEntity
  8
SUPERFICI
100
AcDbLine
 62
7
  6
CONTINUOUS
 10
-74.6350848167
 20
24.115619646
 11
-74.6447653002
 21
24.1025241811
  0
LINE
  5
36D
100
AcDbEntity
  8
SUPERFICI
100
AcDbLine
 62
7
  6
CONTINUOUS
 10
-74.6475187074
 20
-24.0988099745
 11
-74.580935012
 21
-24.1914881055
  0
LINE
  5
36E
100
AcDbEntity
  8
SUPERFICI
100
AcDbLine
 62
7
  6
CONTINUOUS
 10
-74.649334252
 20
-24.096378298
 11
-74.5248643583
 21
-24.2773974033
  0
LINE
  5
36F
100
AcDbEntity
  8
SUPERFICI
100
AcDbLine
 62
7
  6
CONTINUOUS
 10
-74.580935012
 20
-24.1914881055
 11
-74.5398319531
 21
-24.2526529166
  0
LINE
  5
370
100
AcDbEntity
  8
SUPERFICI
100
AcDbLine
 62
7
  6
CONTINUOUS
 10
-74.6475213976
 20
-24.0988107491
 11
-74.7060707383
 21
-24.0112341868
  0
LINE
  5
371
100
AcDbEntity
  8
SUPERFICI
100
AcDbLine
 62
7
  6
CONTINUOUS
 10
-74.6475187074
 20
-24.0988099745
 11
-74.6476415854
 21
-24.0986191236
  0
LWPOLYLINE
  5
372
100
AcDbEntity
  8
SUPERFICI
100
AcDbPolyline
 62
7
  6
CONTINUOUS
 90
3
 70
0
 10
-74.5398319531
 20
-24.2526529166
 10
-74.4419822373
 20
-24.412932462
 10
-74.3567822647
 20
-24.5740564169
  0
LINE
  5
373
100
AcDbEntity
  8
SUPERFICI
100
AcDbLine
 62
250
  6
CONTINUOUS
 10
-71.3070999169
 20
-39.1078243131
 11
-71.3072026976
 21
-39.1075837343
  0
LWPOLYLINE
  5
374
100
AcDbEntity
  8
0
100
AcDbPolyline
 62
7
  6
CONTINUOUS
 90
3
 70
0
 43
0.3500000006
 10
-70.3894894409
 20
50.1015240784
 10
-70.4609160919
 20
49.8872350616
 10
-70.6037739258
 20
49.6015239258
  0
LWPOLYLINE
  5
375
100
AcDbEntity
  8
SUPERFICI
100
AcDbPolyline
 62
7
  6
CONTINUOUS
 90
11
 70
0
 10
-71.3072069846
 20
39.1075600076
 10
-71.36118594
 20
38.9588271184
 10
-71.4320995548
 20
38.7563510527
 10
-71.4975707942
 20
38.5622773948
 10
-71.5587854187
 20
38.3746320915
 10
-71.6160430248
 20
38.1937178375
 10
-71.6692687806
 20
38.02088304
 10
-71.7190258658
 20
37.8552753661
 10
-71.7657741056
 20
37.6961556216
 10
-71.8092145926
 20
37.5452616074
 10
-71.8845376135
 20
37.2768030436
  0
LINE
  5
376
100
AcDbEntity
  8
SUPERFICI
100
AcDbLine
 62
7
  6
CONTINUOUS
 10
-74.7060706542
 20
24.0112343516
 11
-74.7550764172
 21
23.9180014573
  0
LWPOLYLINE
  5
377
100
AcDbEntity
  8
SUPERFICI
100
AcDbPolyline
 62
250
  6
CONTINUOUS
 90
8
 70
0
 10
-74.4374753799
 20
24.4208942419
 10
-74.3543543234
 20
24.5790207277
 10
-74.27728853
 20
24.7502664013
 10
-74.2110885654
 20
24.9259987575
 10
-74.1560138395
 20
25.1055291758
 10
-74.1122801667
 20
25.2881541526
 10
-74.0800589207
 20
25.4731580579
 10
-74.059476363
 20
25.65981594
  0
LINE
  5
378
100
AcDbEntity
  8
SUPERFICI
100
AcDbLine
 62
7
  6
CONTINUOUS
 10
-74.4113152967
 20
24.4720073599
 11
-74.5248643614
 21
24.2773973985
  0
LINE
  5
379
100
AcDbEntity
  8
SUPERFICI
100
AcDbLine
 62
7
  6
CONTINUOUS
 10
-74.5248643583
 20
-24.2773974033
 11
-74.4113152925
 21
-24.4720073677
  0
LINE
  5
37A
100
AcDbEntity
  8
SUPERFICI
100
AcDbLine
 62
7
  6
CONTINUOUS
 10
-74.7060707383
 20
-24.0112341868
 11
-74.7550765035
 21
-23.918001253
  0
LWPOLYLINE
  5
37B
100
AcDbEntity
  8
SUPERFICI
100
AcDbPolyline
 62
7
  6
CONTINUOUS
 90
6
 70
0
 10
-74.4113152925
 20
-24.4720073677
 10
-74.3126703984
 20
-24.6746401302
 10
-74.229497347
 20
-24.8841574646
 10
-74.1622770747
 20
-25.0993809301
 10
-74.111400935
 20
-25.3190984701
 10
-74.0774423422
 20
-25.540286571
  0
LINE
  5
37C
100
AcDbEntity
  8
SUPERFICI
100
AcDbLine
 62
250
  6
CONTINUOUS
 10
-74.8246650793
 20
-22.1681060015
 11
-74.846630595
 21
-22.1210631967
  0
LWPOLYLINE
  5
37D
100
AcDbEntity
  8
SUPERFICI
100
AcDbPolyline
 62
250
  6
CONTINUOUS
 90
7
 70
0
 10
-74.3567822647
 20
-24.5740564169
 10
-74.2772875979
 20
-24.7502663309
 10
-74.2110880429
 20
-24.9259987858
 10
-74.1560137346
 20
-25.1055292866
 10
-74.112280486
 20
-25.2881543292
 10
-74.0800596691
 20
-25.4731582835
 10
-74.0594775437
 20
-25.6598161973
  0
LWPOLYLINE
  5
37E
100
AcDbEntity
  8
SUPERFICI
100
AcDbPolyline
 62
7
  6
CONTINUOUS
 90
10
 70
0
 10
-71.3072192593
 20
-39.1075226914
 10
-71.2898773691
 20
-39.1513519667
 10
-71.2266052124
 20
-39.275844485
 10
-71.1466072321
 20
-39.3903087839
 10
-71.0514435293
 20
-39.4925126087
 10
-70.9429699628
 20
-39.5804628055
 10
-70.8233019571
 20
-39.6524441911
 10
-70.6947732483
 20
-39.7070530021
 10
-70.5598903716
 20
-39.7432242706
 10
-70.4212837797
 20
-39.7602525933
  0
LINE
  5
37F
100
AcDbEntity
  8
SUPERFICI
100
AcDbLine
 62
7
  6
CONTINUOUS
 10
-71.3072152837
 20
-39.1075334753
 11
-71.3072019865
 21
-39.1075691129
  0
LINE
  5
380
100
AcDbEntity
  8
SUPERFICI
100
AcDbLine
 62
7
  6
CONTINUOUS
 10
-72.5928721658
 20
34.8217568927
 11
-72.4510428617
 21
35.3617728762
  0
LINE
  5
381
100
AcDbEntity
  8
SUPERFICI
100
AcDbLine
 62
7
  6
CONTINUOUS
 10
-72.0192848353
 20
36.777043915
 11
-72.1983717255
 21
36.0922893918
  0
LINE
  5
382
100
AcDbEntity
  8
SUPERFICI
100
AcDbLine
 62
7
  6
CONTINUOUS
 10
-71.9443155155
 20
37.0577536432
 11
-72.0192848353
 21
36.777043915
  0
LINE
  5
383
100
AcDbEntity
  8
SUPERFICI
100
AcDbLine
 62
7
  6
CONTINUOUS
 10
-71.8845376135
 20
37.2768030436
 11
-71.9443155155
 21
37.0577536432
  0
LINE
  5
384
100
AcDbEntity
  8
SUPERFICI
100
AcDbLine
 62
7
  6
CONTINUOUS
 10
-74.7939991037
 20
23.820145327
 11
-74.8224084281
 21
23.7187003744
  0
LWPOLYLINE
  5
385
100
AcDbEntity
  8
SUPERFICI
100
AcDbPolyline
 62
7
  6
CONTINUOUS
 90
3
 70
0
 10
-72.4510428617
 20
35.3617728762
 10
-72.1080857976
 20
36.5769697958
 10
-71.824545372
 20
37.4910353358
  0
LWPOLYLINE
  5
386
100
AcDbEntity
  8
SUPERFICI
100
AcDbPolyline
 62
7
  6
CONTINUOUS
 90
3
 70
0
 10
-72.1454550794
 20
36.4504057945
 10
-72.3237515534
 20
35.8268596088
 10
-72.4819736919
 20
35.2461021463
  0
LINE
  5
387
100
AcDbEntity
  8
SUPERFICI
100
AcDbLine
 62
7
  6
CONTINUOUS
 10
-71.9389462913
 20
37.1368999712
 11
-72.1454550794
 21
36.4504057945
  0
LINE
  5
388
100
AcDbEntity
  8
SUPERFICI
100
AcDbLine
 62
7
  6
CONTINUOUS
 10
-71.8079373984
 20
37.5496980439
 11
-71.9389462913
 21
37.1368999712
  0
LWPOLYLINE
  5
389
100
AcDbEntity
  8
SUPERFICI
100
AcDbPolyline
 62
250
  6
CONTINUOUS
 90
31
 70
0
 10
-71.3072037656
 20
39.1075789638
 10
-71.3073331515
 20
39.1071758057
 10
-71.307526664
 20
39.1061564813
 10
-71.3076084582
 20
39.1049408507
 10
-71.3075664248
 20
39.1035687024
 10
-71.3073298137
 20
39.1021996594
 10
-71.3069099468
 20
39.1007708081
 10
-71.3063335314
 20
39.0993429709
 10
-71.3056305119
 20
39.0982582537
 10
-71.3048594341
 20
39.0978389793
 10
-71.3042239415
 20
39.0977500422
 10
-71.3038442183
 20
39.0973543109
 10
-71.3036681106
 20
39.0964260941
 10
-71.3035002471
 20
39.095203382
 10
-71.3032692839
 20
39.0937430663
 10
-71.3029321496
 20
39.0920524444
 10
-71.3024563048
 20
39.0901271806
 10
-71.3018119906
 20
39.0880054397
 10
-71.3009904741
 20
39.0857092327
 10
-71.3000018333
 20
39.0832153529
 10
-71.2988343314
 20
39.0804946026
 10
-71.2974753128
 20
39.0775374225
 10
-71.2959179556
 20
39.0743527032
 10
-71.2941589145
 20
39.070938758
 10
-71.2922012303
 20
39.0672882899
 10
-71.2900462724
 20
39.0634063609
 10
-71.2876916749
 20
39.0593096514
 10
-71.2851262271
 20
39.0549480276
 10
-71.2823782257
 20
39.0503685069
 10
-71.2795207721
 20
39.0457335875
 10
-71.2735695907
 20
39.0362813736
  0
LINE
  5
38A
100
AcDbEntity
  8
SUPERFICI
100
AcDbLine
 62
7
  6
CONTINUOUS
 10
-74.7550764172
 20
23.9180014573
 11
-74.7939991037
 21
23.820145327
  0
LWPOLYLINE
  5
38B
100
AcDbEntity
  8
0
100
AcDbPolyline
 62
7
  6
CONTINUOUS
 90
13
 70
0
 43
0.3500000006
 10
-85.3109206238
 20
-1.9285708809
 10
-85.5252051086
 20
-2.2142854156
 10
-86.1680585632
 20
-2.2142854156
 10
-86.596627533
 20
-1.9285708809
 10
-86.596627533
 20
-1.2857140274
 10
-86.1680585632
 20
-1.0000006256
 10
-85.5252051086
 20
-1.0000006256
 10
-85.3109206238
 20
-1.2857140274
 10
-84.8823425903
 20
-0.8571427917
 10
-84.0252046509
 20
-0.8571427917
 10
-83.5966266174
 20
-1.2857140274
 10
-83.5966266174
 20
-1.9285708809
 10
-84.0252046509
 20
-2.3571432495
  0
LINE
  5
38C
100
AcDbEntity
  8
SUPERFICI
100
AcDbLine
 62
7
  6
CONTINUOUS
 10
-74.7550765035
 20
-23.918001253
 11
-74.7939991473
 21
-23.8201451883
  0
LWPOLYLINE
  5
38D
100
AcDbEntity
  8
SUPERFICI
100
AcDbPolyline
 62
7
  6
CONTINUOUS
 90
10
 70
0
 10
-71.8092158515
 20
-37.5452571925
 10
-71.7657752967
 20
-37.696151524
 10
-71.7190269674
 20
-37.8552716567
 10
-71.6692697737
 20
-38.0208797734
 10
-71.6160438861
 20
-38.1937150767
 10
-71.5587861175
 20
-38.3746299155
 10
-71.4975713005
 20
-38.5622758675
 10
-71.4320998352
 20
-38.7563502361
 10
-71.3611859457
 20
-38.9588271027
 10
-71.3071950978
 20
-39.1075922472
  0
LWPOLYLINE
  5
38E
100
AcDbEntity
  8
SUPERFICI
100
AcDbPolyline
 62
7
  6
CONTINUOUS
 90
4
 70
0
 10
-72.3237513409
 20
-35.8268603708
 10
-72.1454547706
 20
-36.4504068481
 10
-71.938946064
 20
-37.1369007268
 10
-71.8079372756
 20
-37.5496984306
  0
LWPOLYLINE
  5
38F
100
AcDbEntity
  8
SUPERFICI
100
AcDbPolyline
 62
7
  6
CONTINUOUS
 90
3
 70
0
 10
-72.4510444927
 20
-35.3617668039
 10
-72.1080872175
 20
-36.5769649981
 10
-71.8245452847
 20
-37.4910356525
  0
LINE
  5
390
100
AcDbEntity
  8
SUPERFICI
100
AcDbLine
 62
7
  6
CONTINUOUS
 10
-74.7939991473
 20
-23.8201451883
 11
-74.8224083961
 21
-23.7187000015
  0
LINE
  5
391
100
AcDbEntity
  8
SUPERFICI
100
AcDbLine
 62
7
  6
CONTINUOUS
 10
-71.8845389309
 20
-37.2767982739
 11
-71.8092158515
 21
-37.5452571925
  0
LINE
  5
392
100
AcDbEntity
  8
SUPERFICI
100
AcDbLine
 62
7
  6
CONTINUOUS
 10
-72.4819735518
 20
-35.2461026728
 11
-72.3237513409
 21
-35.8268603708
  0
LINE
  5
393
100
AcDbEntity
  8
SUPERFICI
100
AcDbLine
 62
7
  6
CONTINUOUS
 10
-71.9443167959
 20
-37.0577488969
 11
-71.8845389309
 21
-37.2767982739
  0
LINE
  5
394
100
AcDbEntity
  8
SUPERFICI
100
AcDbLine
 62
7
  6
CONTINUOUS
 10
-72.0363318316
 20
-36.71255294
 11
-71.9443167959
 21
-37.0577488969
  0
LINE
  5
395
100
AcDbEntity
  8
SUPERFICI
100
AcDbLine
 62
7
  6
CONTINUOUS
 10
-72.5928721597
 20
-34.8217569168
 11
-72.4510444927
 21
-35.3617668039
  0
LINE
  5
396
100
AcDbEntity
  8
SUPERFICI
100
AcDbLine
 62
7
  6
CONTINUOUS
 10
-72.2153486624
 20
-36.0273607084
 11
-72.0363318316
 21
-36.71255294
  0
LINE
  5
397
100
AcDbEntity
  8
SUPERFICI
100
AcDbLine
 62
7
  6
CONTINUOUS
 10
-74.8224084281
 20
23.7187003744
 11
-74.8399994574
 21
23.6146933352
  0
LINE
  5
398
100
AcDbEntity
  8
SUPERFICI
100
AcDbLine
 62
7
  6
CONTINUOUS
 10
-74.8224083961
 20
-23.7187000015
 11
-74.8399993952
 21
-23.6146916662
  0
LINE
  5
399
100
AcDbEntity
  8
SUPERFICI
100
AcDbLine
 62
7
  6
CONTINUOUS
 10
-73.9227682336
 20
-27.3583574868
 11
-73.8858119067
 21
-27.6999591973
  0
LWPOLYLINE
  5
39A
100
AcDbEntity
  8
SUPERFICI
100
AcDbPolyline
 62
7
  6
CONTINUOUS
 90
7
 70
0
 10
-74.0557218339
 20
-25.8156131785
 10
-74.038405229
 20
-26.064731343
 10
-74.0198202706
 20
-26.3086764788
 10
-74.0006528115
 20
-26.5410482872
 10
-73.9811873734
 20
-26.7617144981
 10
-73.9614393401
 20
-26.9730473613
 10
-73.9227682336
 20
-27.3583574868
  0
LINE
  5
39B
100
AcDbEntity
  8
SUPERFICI
100
AcDbLine
 62
7
  6
CONTINUOUS
 10
-74.063369436
 20
-25.6970609022
 11
-74.0557221505
 21
-25.8156082696
  0
LINE
  5
39C
100
AcDbEntity
  8
SUPERFICI
100
AcDbLine
 62
7
  6
CONTINUOUS
 10
-74.8399993952
 20
-23.6146916662
 11
-74.8466310568
 21
-23.4995959773
  0
LWPOLYLINE
  5
39D
100
AcDbEntity
  8
SUPERFICI
100
AcDbPolyline
 62
250
  6
CONTINUOUS
 90
16
 70
0
 10
-74.063369529
 20
25.6970596319
 10
-74.0633812024
 20
25.6968482685
 10
-74.0634160232
 20
25.6959111014
 10
-74.0634273333
 20
25.6949121158
 10
-74.0634158766
 20
25.6938525732
 10
-74.0633825198
 20
25.6927332993
 10
-74.0633280262
 20
25.6915513649
 10
-74.0632532387
 20
25.6903076029
 10
-74.0631590268
 20
25.6890035349
 10
-74.0630458998
 20
25.6876365737
 10
-74.0629146228
 20
25.686208207
 10
-74.0627659129
 20
25.6847200689
 10
-74.0625998907
 20
25.6831687516
 10
-74.0624170314
 20
25.6815546128
 10
-74.0622181685
 20
25.6798785572
 10
-74.0617747329
 20
25.676328033
  0
LINE
  5
39E
100
AcDbEntity
  8
SUPERFICI
100
AcDbLine
 62
7
  6
CONTINUOUS
 10
-74.8399994574
 20
23.6146933352
 11
-74.8466310568
 21
23.4995991129
  0
LWPOLYLINE
  5
39F
100
AcDbEntity
  8
SUPERFICI
100
AcDbPolyline
 62
7
  6
CONTINUOUS
 90
7
 70
0
 10
-74.0633626559
 20
25.6971725263
 10
-74.0771683653
 20
25.5420711086
 10
-74.1114009369
 20
25.3190984602
 10
-74.1622770777
 20
25.099380919
 10
-74.229497351
 20
24.8841574535
 10
-74.3126704028
 20
24.6746401202
 10
-74.4113152967
 20
24.4720073599
  0
LWPOLYLINE
  5
3A0
100
AcDbEntity
  8
SUPERFICI
100
AcDbPolyline
 62
7
  6
CONTINUOUS
 90
7
 70
0
 10
-73.9614393401
 20
26.9730473613
 10
-73.9811873734
 20
26.7617144981
 10
-74.0006528115
 20
26.5410482872
 10
-74.0198202706
 20
26.3086764788
 10
-74.038405229
 20
26.064731343
 10
-74.0557218339
 20
25.8156131785
 10
-74.0633694436
 20
25.697060781
  0
LINE
  5
3A1
100
AcDbEntity
  8
SUPERFICI
100
AcDbLine
 62
7
  6
CONTINUOUS
 10
-73.9227682336
 20
27.3583574868
 11
-73.9614393401
 21
26.9730473613
  0
LINE
  5
3A2
100
AcDbEntity
  8
SUPERFICI
100
AcDbLine
 62
7
  6
CONTINUOUS
 10
-73.8858119067
 20
27.6999591973
 11
-73.9227682336
 21
27.3583574868
  0
LINE
  5
3A3
100
AcDbEntity
  8
SUPERFICI
100
AcDbLine
 62
7
  6
CONTINUOUS
 10
-73.8505949058
 20
28.0073152219
 11
-73.8858119067
 21
27.6999591973
  0
LINE
  5
3A4
100
AcDbEntity
  8
SUPERFICI
100
AcDbLine
 62
7
  6
CONTINUOUS
 10
-73.8167229441
 20
28.2890163387
 11
-73.8505949058
 21
28.0073152219
  0
LINE
  5
3A5
100
AcDbEntity
  8
SUPERFICI
100
AcDbLine
 62
7
  6
CONTINUOUS
 10
-73.7844242831
 20
28.5467352599
 11
-73.8167229441
 21
28.2890163387
  0
LINE
  5
3A6
100
AcDbEntity
  8
SUPERFICI
100
AcDbLine
 62
7
  6
CONTINUOUS
 10
-73.7403149274
 20
28.8840089251
 11
-73.7844242831
 21
28.5467352599
  0
LINE
  5
3A7
100
AcDbEntity
  8
SUPERFICI
100
AcDbLine
 62
7
  6
CONTINUOUS
 10
-73.6669680994
 20
29.413448185
 11
-73.6637641594
 21
29.4371634797
  0
LINE
  5
3A8
100
AcDbEntity
  8
SUPERFICI
100
AcDbLine
 62
7
  6
CONTINUOUS
 10
-73.7018837765
 20
29.1658865012
 11
-73.7403149274
 21
28.8840089251
  0
LWPOLYLINE
  5
3A9
100
AcDbEntity
  8
SUPERFICI
100
AcDbPolyline
 62
7
  6
CONTINUOUS
 90
3
 70
0
 10
-73.6574032065
 20
29.4800351023
 10
-73.6601082734
 20
29.4612579787
 10
-73.7018837765
 20
29.1658865012
  0
LWPOLYLINE
  5
3AA
100
AcDbEntity
  8
SUPERFICI
100
AcDbPolyline
 62
7
  6
CONTINUOUS
 90
6
 70
0
 10
-73.6637641594
 20
29.4371634797
 10
-73.4786625997
 20
30.6342684334
 10
-73.2584042912
 20
31.8576385192
 10
-73.0149241485
 20
33.0429212522
 10
-72.7501641369
 20
34.1921673114
 10
-72.5928721658
 20
34.8217568927
  0
LINE
  5
3AB
100
AcDbEntity
  8
SUPERFICI
100
AcDbLine
 62
7
  6
CONTINUOUS
 10
-73.7018835632
 20
-29.165888037
 11
-73.6654181053
 21
-29.4242922549
  0
LWPOLYLINE
  5
3AC
100
AcDbEntity
  8
SUPERFICI
100
AcDbPolyline
 62
7
  6
CONTINUOUS
 90
7
 70
0
 10
-73.6655015664
 20
-29.4243035305
 10
-73.6637646781
 20
-29.4371598355
 10
-73.4786633501
 20
-30.6342639438
 10
-73.2584052913
 20
-31.8576333372
 10
-73.0149254306
 20
-33.0429153683
 10
-72.7501656823
 20
-34.1921609504
 10
-72.5928721597
 20
-34.8217569168
  0
LINE
  5
3AD
100
AcDbEntity
  8
SUPERFICI
100
AcDbLine
 62
7
  6
CONTINUOUS
 10
-73.7403149274
 20
-28.8840089251
 11
-73.7018835632
 21
-29.165888037
  0
LINE
  5
3AE
100
AcDbEntity
  8
SUPERFICI
100
AcDbLine
 62
7
  6
CONTINUOUS
 10
-73.7844242831
 20
-28.5467352599
 11
-73.7403149274
 21
-28.8840089251
  0
LINE
  5
3AF
100
AcDbEntity
  8
SUPERFICI
100
AcDbLine
 62
7
  6
CONTINUOUS
 10
-73.8167229441
 20
-28.2890163387
 11
-73.7844242831
 21
-28.5467352599
  0
LINE
  5
3B0
100
AcDbEntity
  8
SUPERFICI
100
AcDbLine
 62
7
  6
CONTINUOUS
 10
-73.8505949058
 20
-28.0073152219
 11
-73.8167229441
 21
-28.2890163387
  0
LINE
  5
3B1
100
AcDbEntity
  8
SUPERFICI
100
AcDbLine
 62
7
  6
CONTINUOUS
 10
-73.8858119067
 20
-27.6999591973
 11
-73.8505949058
 21
-28.0073152219
  0
LWPOLYLINE
  5
3B2
100
AcDbEntity
  8
SUPERFICI
100
AcDbPolyline
 62
250
  6
CONTINUOUS
 90
10
 70
0
 10
-74.0615427323
 20
-25.5931443725
 10
-74.0602215769
 20
-25.6199300207
 10
-74.0598928585
 20
-25.6276017509
 10
-74.0596382869
 20
-25.6345888407
 10
-74.0594540821
 20
-25.6407647239
 10
-74.0593250494
 20
-25.6461663416
 10
-74.0592514068
 20
-25.6508719709
 10
-74.0592443251
 20
-25.6548145896
 10
-74.0593178438
 20
-25.6578326137
 10
-74.0594770404
 20
-25.6598161577
  0
LWPOLYLINE
  5
3B3
100
AcDbEntity
  8
SUPERFICI
100
AcDbPolyline
 62
7
  6
CONTINUOUS
 90
3
 70
0
 10
-74.8466310568
 20
23.4995991129
 10
-74.8420733614
 20
23.4044180221
 10
-74.840309746
 20
23.3926279445
  0
LINE
  5
3B4
100
AcDbEntity
  8
SUPERFICI
100
AcDbLine
 62
250
  6
CONTINUOUS
 10
-74.6479456839
 20
-24.0650967638
 11
-74.6475853144
 21
-24.0796233493
  0
LWPOLYLINE
  5
3B5
100
AcDbEntity
  8
SUPERFICI
100
AcDbPolyline
 62
250
  6
CONTINUOUS
 90
6
 70
0
 10
-74.0633031087
 20
-25.5391449597
 10
-74.0630151782
 20
-25.5518089238
 10
-74.0626993626
 20
-25.5631258596
 10
-74.0623604284
 20
-25.5734346727
 10
-74.0619791801
 20
-25.5833405759
 10
-74.0615427323
 20
-25.5931443725
  0
LINE
  5
3B6
100
AcDbEntity
  8
SUPERFICI
100
AcDbLine
 62
250
  6
CONTINUOUS
 10
-74.0715452522
 20
-24.8404961042
 11
-74.0657870039
 21
-25.0815770771
  0
LINE
  5
3B7
100
AcDbEntity
  8
SUPERFICI
100
AcDbLine
 62
250
  6
CONTINUOUS
 10
-74.6482079407
 20
-24.0523791764
 11
-74.6479456839
 21
-24.0650967638
  0
LINE
  5
3B8
100
AcDbEntity
  8
SUPERFICI
100
AcDbLine
 62
250
  6
CONTINUOUS
 10
-74.6475853144
 20
-24.0796233493
 11
-74.6474411418
 21
-24.086845229
  0
LINE
  5
3B9
100
AcDbEntity
  8
SUPERFICI
100
AcDbLine
 62
250
  6
CONTINUOUS
 10
-74.0745750565
 20
-24.6769127096
 11
-74.0715452522
 21
-24.8404961042
  0
LINE
  5
3BA
100
AcDbEntity
  8
SUPERFICI
100
AcDbLine
 62
250
  6
CONTINUOUS
 10
-74.0657870039
 20
-25.0815770771
 11
-74.0648153555
 21
-25.1361766674
  0
LINE
  5
3BB
100
AcDbEntity
  8
SUPERFICI
100
AcDbLine
 62
250
  6
CONTINUOUS
 10
-74.6484453772
 20
-24.0371558671
 11
-74.6482079407
 21
-24.0523791764
  0
LINE
  5
3BC
100
AcDbEntity
  8
SUPERFICI
100
AcDbLine
 62
250
  6
CONTINUOUS
 10
-74.0637548289
 20
-25.5106801637
 11
-74.0633031087
 21
-25.5391449597
  0
LINE
  5
3BD
100
AcDbEntity
  8
SUPERFICI
100
AcDbLine
 62
250
  6
CONTINUOUS
 10
-74.0778566763
 20
-24.4317734514
 11
-74.0745750565
 21
-24.6769127096
  0
LINE
  5
3BE
100
AcDbEntity
  8
SUPERFICI
100
AcDbLine
 62
250
  6
CONTINUOUS
 10
-74.0648153555
 20
-25.1361766674
 11
-74.0643599026
 21
-25.1727099002
  0
LWPOLYLINE
  5
3BF
100
AcDbEntity
  8
SUPERFICI
100
AcDbPolyline
 62
250
  6
CONTINUOUS
 90
7
 70
0
 10
-74.6474411418
 20
-24.086845229
 10
-74.6473668661
 20
-24.0925123857
 10
-74.6473551717
 20
-24.0947379526
 10
-74.6473644363
 20
-24.0965326176
 10
-74.6473958059
 20
-24.0978491941
 10
-74.6474481288
 20
-24.098626639
 10
-74.6475213976
 20
-24.0988107491
  0
LINE
  5
3C0
100
AcDbEntity
  8
SUPERFICI
100
AcDbLine
 62
250
  6
CONTINUOUS
 10
-74.6518867829
 20
-23.5959909716
 11
-74.6492724252
 21
-23.7960998812
  0
LINE
  5
3C1
100
AcDbEntity
  8
SUPERFICI
100
AcDbLine
 62
250
  6
CONTINUOUS
 10
-74.648720925
 20
-24.0101491906
 11
-74.6484453772
 21
-24.0371558671
  0
LINE
  5
3C2
100
AcDbEntity
  8
SUPERFICI
100
AcDbLine
 62
250
  6
CONTINUOUS
 10
-74.6492724252
 20
-23.7960998812
 11
-74.6490463117
 21
-23.8224209677
  0
LINE
  5
3C3
100
AcDbEntity
  8
SUPERFICI
100
AcDbLine
 62
7
  6
CONTINUOUS
 10
-74.8466305933
 20
22.1210631908
 11
-74.8466310551
 21
22.1211280828
  0
LINE
  5
3C4
100
AcDbEntity
  8
SUPERFICI
100
AcDbLine
 62
250
  6
CONTINUOUS
 10
-74.0641993551
 20
-25.462326434
 11
-74.0637548289
 21
-25.5106801637
  0
LINE
  5
3C5
100
AcDbEntity
  8
SUPERFICI
100
AcDbLine
 62
250
  6
CONTINUOUS
 10
-74.0805928777
 20
-24.1126248797
 11
-74.0778566763
 21
-24.4317734514
  0
LINE
  5
3C6
100
AcDbEntity
  8
SUPERFICI
100
AcDbLine
 62
250
  6
CONTINUOUS
 10
-74.6535459429
 20
-23.3882856855
 11
-74.6518867829
 21
-23.5959909716
  0
LINE
  5
3C7
100
AcDbEntity
  8
SUPERFICI
100
AcDbLine
 62
250
  6
CONTINUOUS
 10
-74.0643599026
 20
-25.1727099002
 11
-74.0641034757
 21
-25.2092834406
  0
LINE
  5
3C8
100
AcDbEntity
  8
SUPERFICI
100
AcDbLine
 62
250
  6
CONTINUOUS
 10
-74.6489517188
 20
-23.9607168799
 11
-74.648720925
 21
-24.0101491906
  0
LINE
  5
3C9
100
AcDbEntity
  8
SUPERFICI
100
AcDbLine
 62
250
  6
CONTINUOUS
 10
-74.6490463117
 20
-23.8224209677
 11
-74.648944354
 21
-23.848197837
  0
LINE
  5
3CA
100
AcDbEntity
  8
SUPERFICI
100
AcDbLine
 62
250
  6
CONTINUOUS
 10
-74.0994631157
 20
-17.7095537799
 11
-74.0822889859
 21
-22.4446052259
  0
LINE
  5
3CB
100
AcDbEntity
  8
SUPERFICI
100
AcDbLine
 62
250
  6
CONTINUOUS
 10
-74.0825599464
 20
-23.5914848188
 11
-74.0805928777
 21
-24.1126248797
  0
LINE
  5
3CC
100
AcDbEntity
  8
SUPERFICI
100
AcDbLine
 62
250
  6
CONTINUOUS
 10
-74.6548423232
 20
-22.9956030468
 11
-74.6535459429
 21
-23.3882856855
  0
LINE
  5
3CD
100
AcDbEntity
  8
SUPERFICI
100
AcDbLine
 62
250
  6
CONTINUOUS
 10
-74.0644153445
 20
-25.3948397614
 11
-74.0641993551
 21
-25.462326434
  0
LINE
  5
3CE
100
AcDbEntity
  8
SUPERFICI
100
AcDbLine
 62
250
  6
CONTINUOUS
 10
-74.0644173414
 20
25.3779261258
 11
-74.0640522436
 21
25.2396763349
  0
LINE
  5
3CF
100
AcDbEntity
  8
SUPERFICI
100
AcDbLine
 62
250
  6
CONTINUOUS
 10
-74.6638959913
 20
-4.9871888776
 11
-74.6547441015
 21
-22.4749809938
  0
LINE
  5
3D0
100
AcDbEntity
  8
SUPERFICI
100
AcDbLine
 62
7
  6
CONTINUOUS
 10
-74.8466310568
 20
23.4995925347
 11
-74.8466310568
 21
-23.4995893457
  0
LINE
  5
3D1
100
AcDbEntity
  8
SUPERFICI
100
AcDbLine
 62
250
  6
CONTINUOUS
 10
-74.0822889859
 20
-22.4446052259
 11
-74.0815458384
 21
-22.8380982183
  0
LINE
  5
3D2
100
AcDbEntity
  8
SUPERFICI
100
AcDbLine
 62
250
  6
CONTINUOUS
 10
-74.6648725677
 20
1.2970740285
 11
-74.6638959913
 21
-4.9871888776
  0
LINE
  5
3D3
100
AcDbEntity
  8
SUPERFICI
100
AcDbLine
 62
250
  6
CONTINUOUS
 10
-74.1203136192
 20
0.6572453308
 11
-74.0994631157
 21
-17.7095537799
  0
LINE
  5
3D4
100
AcDbEntity
  8
SUPERFICI
100
AcDbLine
 62
250
  6
CONTINUOUS
 10
-74.6547441015
 20
-22.4749809938
 11
-74.6548423232
 21
-22.9956030468
  0
LINE
  5
3D5
100
AcDbEntity
  8
SUPERFICI
100
AcDbLine
 62
250
  6
CONTINUOUS
 10
-74.648944354
 20
-23.848197837
 11
-74.6489517188
 21
-23.9607168799
  0
LINE
  5
3D6
100
AcDbEntity
  8
SUPERFICI
100
AcDbLine
 62
250
  6
CONTINUOUS
 10
-74.0824231994
 20
23.6652345868
 11
-74.0815167048
 21
22.7309482307
  0
LINE
  5
3D7
100
AcDbEntity
  8
SUPERFICI
100
AcDbLine
 62
250
  6
CONTINUOUS
 10
-74.0815458384
 20
-22.8380982183
 11
-74.0825599464
 21
-23.5914848188
  0
LINE
  5
3D8
100
AcDbEntity
  8
SUPERFICI
100
AcDbLine
 62
250
  6
CONTINUOUS
 10
-74.0641034757
 20
-25.2092834406
 11
-74.0641089725
 21
-25.2625898785
  0
LINE
  5
3D9
100
AcDbEntity
  8
SUPERFICI
100
AcDbLine
 62
250
  6
CONTINUOUS
 10
-74.6489471314
 20
23.96241771
 11
-74.6489718374
 21
23.8373039062
  0
LINE
  5
3DA
100
AcDbEntity
  8
SUPERFICI
100
AcDbLine
 62
250
  6
CONTINUOUS
 10
-74.6545329678
 20
23.1533759825
 11
-74.654954488
 21
22.3470900081
  0
LINE
  5
3DB
100
AcDbEntity
  8
SUPERFICI
100
AcDbLine
 62
250
  6
CONTINUOUS
 10
-74.0643084248
 20
-25.3111342405
 11
-74.0644153445
 21
-25.3948397614
  0
LINE
  5
3DC
100
AcDbEntity
  8
SUPERFICI
100
AcDbLine
 62
250
  6
CONTINUOUS
 10
-74.654954488
 20
22.3470900081
 11
-74.6648725677
 21
1.2970740285
  0
LINE
  5
3DD
100
AcDbEntity
  8
SUPERFICI
100
AcDbLine
 62
250
  6
CONTINUOUS
 10
-74.0640522436
 20
25.2396763349
 11
-74.064131249
 21
25.2039187045
  0
LINE
  5
3DE
100
AcDbEntity
  8
SUPERFICI
100
AcDbLine
 62
250
  6
CONTINUOUS
 10
-74.0642637672
 20
25.4511772341
 11
-74.0644173414
 21
25.3779261258
  0
LINE
  5
3DF
100
AcDbEntity
  8
SUPERFICI
100
AcDbLine
 62
250
  6
CONTINUOUS
 10
-74.0641089725
 20
-25.2625898785
 11
-74.0643084248
 21
-25.3111342405
  0
LINE
  5
3E0
100
AcDbEntity
  8
SUPERFICI
100
AcDbLine
 62
250
  6
CONTINUOUS
 10
-74.6487580832
 20
24.004987958
 11
-74.6489471314
 21
23.96241771
  0
LINE
  5
3E1
100
AcDbEntity
  8
SUPERFICI
100
AcDbLine
 62
250
  6
CONTINUOUS
 10
-74.0815167048
 20
22.7309482307
 11
-74.1203136192
 21
0.6572453308
  0
LINE
  5
3E2
100
AcDbEntity
  8
SUPERFICI
100
AcDbLine
 62
250
  6
CONTINUOUS
 10
-74.0803274319
 20
24.1522379831
 11
-74.0824231994
 21
23.6652345868
  0
LINE
  5
3E3
100
AcDbEntity
  8
SUPERFICI
100
AcDbLine
 62
7
  6
CONTINUOUS
 10
-74.846630595
 20
-22.1210631967
 11
-74.8466310568
 21
-22.1211280887
  0
LINE
  5
3E4
100
AcDbEntity
  8
SUPERFICI
100
AcDbLine
 62
250
  6
CONTINUOUS
 10
-74.6489718374
 20
23.8373039062
 11
-74.6491168639
 21
23.8126849534
  0
LINE
  5
3E5
100
AcDbEntity
  8
SUPERFICI
100
AcDbLine
 62
250
  6
CONTINUOUS
 10
-74.6529557508
 20
23.4766446437
 11
-74.6545329678
 21
23.1533759825
  0
LINE
  5
3E6
100
AcDbEntity
  8
SUPERFICI
100
AcDbLine
 62
250
  6
CONTINUOUS
 10
-74.064131249
 20
25.2039187045
 11
-74.0644013817
 21
25.1684870786
  0
LINE
  5
3E7
100
AcDbEntity
  8
SUPERFICI
100
AcDbLine
 62
250
  6
CONTINUOUS
 10
-74.0638422185
 20
25.5033118356
 11
-74.0642637672
 21
25.4511772341
  0
LINE
  5
3E8
100
AcDbEntity
  8
SUPERFICI
100
AcDbLine
 62
250
  6
CONTINUOUS
 10
-74.0775893031
 20
24.4556843788
 11
-74.0803274319
 21
24.1522379831
  0
LINE
  5
3E9
100
AcDbEntity
  8
SUPERFICI
100
AcDbLine
 62
250
  6
CONTINUOUS
 10
-74.6484868234
 20
24.0339096084
 11
-74.6487580832
 21
24.004987958
  0
LINE
  5
3EA
100
AcDbEntity
  8
SUPERFICI
100
AcDbLine
 62
250
  6
CONTINUOUS
 10
-74.6513975046
 20
23.6395145761
 11
-74.6529557508
 21
23.4766446437
  0
LINE
  5
3EB
100
AcDbEntity
  8
SUPERFICI
100
AcDbLine
 62
250
  6
CONTINUOUS
 10
-74.6491168639
 20
23.8126849534
 11
-74.649600774
 21
23.7689392956
  0
LINE
  5
3EC
100
AcDbEntity
  8
SUPERFICI
100
AcDbLine
 62
250
  6
CONTINUOUS
 10
-74.649600774
 20
23.7689392956
 11
-74.6513975046
 21
23.6395145761
  0
LINE
  5
3ED
100
AcDbEntity
  8
SUPERFICI
100
AcDbLine
 62
250
  6
CONTINUOUS
 10
-74.6473700517
 20
24.0921002004
 11
-74.6474553738
 21
24.0860577639
  0
LINE
  5
3EE
100
AcDbEntity
  8
SUPERFICI
100
AcDbLine
 62
250
  6
CONTINUOUS
 10
-74.0743363165
 20
24.691538543
 11
-74.0775893031
 21
24.4556843788
  0
LINE
  5
3EF
100
AcDbEntity
  8
SUPERFICI
100
AcDbLine
 62
250
  6
CONTINUOUS
 10
-74.0644013817
 20
25.1684870786
 11
-74.0651267633
 21
25.1166849747
  0
LINE
  5
3F0
100
AcDbEntity
  8
SUPERFICI
100
AcDbLine
 62
250
  6
CONTINUOUS
 10
-74.6482503997
 20
24.0500028125
 11
-74.6484868234
 21
24.0339096084
  0
LINE
  5
3F1
100
AcDbEntity
  8
SUPERFICI
100
AcDbLine
 62
250
  6
CONTINUOUS
 10
-74.6479875008
 20
24.0632688552
 11
-74.6482503997
 21
24.0500028125
  0
LINE
  5
3F2
100
AcDbEntity
  8
SUPERFICI
100
AcDbLine
 62
250
  6
CONTINUOUS
 10
-74.071352332
 20
24.8495633597
 11
-74.0743363165
 21
24.691538543
  0
LINE
  5
3F3
100
AcDbEntity
  8
SUPERFICI
100
AcDbLine
 62
250
  6
CONTINUOUS
 10
-74.0651267633
 20
25.1166849747
 11
-74.0661532329
 21
25.064358935
  0
LINE
  5
3F4
100
AcDbEntity
  8
SUPERFICI
100
AcDbLine
 62
250
  6
CONTINUOUS
 10
-74.6474553738
 20
24.0860577639
 11
-74.6476147483
 21
24.078394586
  0
LINE
  5
3F5
100
AcDbEntity
  8
SUPERFICI
100
AcDbLine
 62
250
  6
CONTINUOUS
 10
-74.0661532329
 20
25.064358935
 11
-74.071352332
 21
24.8495633597
  0
LINE
  5
3F6
100
AcDbEntity
  8
SUPERFICI
100
AcDbLine
 62
250
  6
CONTINUOUS
 10
-74.6476147483
 20
24.078394586
 11
-74.6479875008
 21
24.0632688552
  0
LWPOLYLINE
  5
3F7
100
AcDbEntity
  8
SUPERFICI
100
AcDbPolyline
 62
250
  6
CONTINUOUS
 90
6
 70
0
 10
-74.0620864487
 20
25.580440742
 10
-74.0624696135
 20
25.5702223826
 10
-74.062813209
 20
25.5594147387
 10
-74.06312471
 20
25.5474311973
 10
-74.0634052062
 20
25.5339206192
 10
-74.0638422185
 20
25.5033118356
  0
LWPOLYLINE
  5
3F8
100
AcDbEntity
  8
SUPERFICI
100
AcDbPolyline
 62
7
  6
CONTINUOUS
 90
3
 70
0
 10
-74.8466310568
 20
-23.4995959773
 10
-74.842073416
 20
-23.4044169027
 10
-74.8403297524
 20
-23.392760339
  0
LWPOLYLINE
  5
3F9
100
AcDbEntity
  8
SUPERFICI
100
AcDbPolyline
 62
250
  6
CONTINUOUS
 90
3
 70
0
 10
-74.0603365874
 20
25.6175907162
 10
-74.0612246453
 20
25.5997288958
 10
-74.0620864487
 20
25.580440742
  0
LINE
  5
3FA
100
AcDbEntity
  8
RACCORDO
100
AcDbLine
 62
7
  6
CONTINUOUS
 10
-67.9727774641
 20
-3.5239590572
 11
-66.1204840185
 21
-3.6860137352
  0
LWPOLYLINE
  5
3FB
100
AcDbEntity
  8
SUPERFICI
100
AcDbPolyline
 62
250
  6
CONTINUOUS
 90
9
 70
0
 10
-74.059476363
 20
25.65981594
 10
-74.0593143893
 20
25.6577584282
 10
-74.059243757
 20
25.6546040419
 10
-74.0592577638
 20
25.6504648849
 10
-74.0593392544
 20
25.645510239
 10
-74.0594776348
 20
25.6398057379
 10
-74.0596779266
 20
25.6332652198
 10
-74.0599645103
 20
25.6258017667
 10
-74.0603365874
 20
25.6175907162
  0
LINE
  5
3FC
100
AcDbEntity
  8
SUPERFICI
100
AcDbLine
 62
250
  6
CONTINUOUS
 10
-70.2544333503
 20
-36.8029845732
 11
-70.2475260745
 21
-37.0
  0
LINE
  5
3FD
100
AcDbEntity
  8
SUPERFICI
100
AcDbLine
 62
250
  6
CONTINUOUS
 10
-71.1899080136
 20
-36.8993726825
 11
-71.1815499433
 21
-37.1618109093
  0
LINE
  5
3FE
100
AcDbEntity
  8
SUPERFICI
100
AcDbLine
 62
250
  6
CONTINUOUS
 10
-70.2578769199
 20
-36.6841609321
 11
-70.2544333503
 21
-36.8029845732
  0
LINE
  5
3FF
100
AcDbEntity
  8
SUPERFICI
100
AcDbLine
 62
250
  6
CONTINUOUS
 10
-71.1815499433
 20
-37.1618109093
 11
-71.1773539925
 21
-37.3138485061
  0
LINE
  5
400
100
AcDbEntity
  8
SUPERFICI
100
AcDbLine
 62
250
  6
CONTINUOUS
 10
-71.1932895031
 20
-36.770806563
 11
-71.1899080136
 21
-36.8993726825
  0
LINE
  5
401
100
AcDbEntity
  8
SUPERFICI
100
AcDbLine
 62
250
  6
CONTINUOUS
 10
-70.2605393717
 20
-36.5751071433
 11
-70.2578769199
 21
-36.6841609321
  0
LINE
  5
402
100
AcDbEntity
  8
SUPERFICI
100
AcDbLine
 62
250
  6
CONTINUOUS
 10
-71.1773539925
 20
-37.3138485061
 11
-71.1733675602
 21
-37.4879057342
  0
LINE
  5
403
100
AcDbEntity
  8
SUPERFICI
100
AcDbLine
 62
250
  6
CONTINUOUS
 10
-70.2475260745
 20
-37.0
 11
-70.241672538
 21
-37.2593940448
  0
LINE
  5
404
100
AcDbEntity
  8
SUPERFICI
100
AcDbLine
 62
250
  6
CONTINUOUS
 10
-71.1957704589
 20
-36.6520987639
 11
-71.1932895031
 21
-36.770806563
  0
LINE
  5
405
100
AcDbEntity
  8
SUPERFICI
100
AcDbLine
 62
250
  6
CONTINUOUS
 10
-71.1686911411
 20
38.6544887846
 11
-71.1670498735
 21
38.5749692051
  0
LINE
  5
406
100
AcDbEntity
  8
SUPERFICI
100
AcDbLine
 62
250
  6
CONTINUOUS
 10
-70.2624971407
 20
-36.4745892897
 11
-70.2605393717
 21
-36.5751071433
  0
LINE
  5
407
100
AcDbEntity
  8
SUPERFICI
100
AcDbLine
 62
250
  6
CONTINUOUS
 10
-70.241672538
 20
-37.2593940448
 11
-70.2356309143
 21
-37.5892147755
  0
LINE
  5
408
100
AcDbEntity
  8
SUPERFICI
100
AcDbLine
 62
250
  6
CONTINUOUS
 10
-71.1733675602
 20
-37.4879057342
 11
-71.169927189
 21
-37.676843511
  0
LINE
  5
409
100
AcDbEntity
  8
SUPERFICI
100
AcDbLine
 62
250
  6
CONTINUOUS
 10
-71.1974539233
 20
-36.5432831387
 11
-71.1957704589
 21
-36.6520987639
  0
LINE
  5
40A
100
AcDbEntity
  8
SUPERFICI
100
AcDbLine
 62
250
  6
CONTINUOUS
 10
-70.2638303749
 20
-36.3793665438
 11
-70.2624971407
 21
-36.4745892897
  0
LINE
  5
40B
100
AcDbEntity
  8
SUPERFICI
100
AcDbLine
 62
250
  6
CONTINUOUS
 10
-70.2356309143
 20
-37.5892147755
 11
-70.2304368484
 21
-37.9648795286
  0
LINE
  5
40C
100
AcDbEntity
  8
SUPERFICI
100
AcDbLine
 62
250
  6
CONTINUOUS
 10
-71.169927189
 20
-37.676843511
 11
-71.1672719839
 21
-37.8726606549
  0
LINE
  5
40D
100
AcDbEntity
  8
SUPERFICI
100
AcDbLine
 62
250
  6
CONTINUOUS
 10
-71.1670498735
 20
38.5749692051
 11
-71.1658585009
 21
38.4835296976
  0
LINE
  5
40E
100
AcDbEntity
  8
SUPERFICI
100
AcDbLine
 62
250
  6
CONTINUOUS
 10
-70.2304368484
 20
-37.9648795286
 11
-70.2267634986
 21
-38.3582572455
  0
LINE
  5
40F
100
AcDbEntity
  8
SUPERFICI
100
AcDbLine
 62
250
  6
CONTINUOUS
 10
-71.1984031071
 20
-36.44044758
 11
-71.1974539233
 21
-36.5432831387
  0
LINE
  5
410
100
AcDbEntity
  8
SUPERFICI
100
AcDbLine
 62
250
  6
CONTINUOUS
 10
-71.1672719839
 20
-37.8726606549
 11
-71.1655694112
 21
-38.0669526148
  0
LINE
  5
411
100
AcDbEntity
  8
SUPERFICI
100
AcDbLine
 62
250
  6
CONTINUOUS
 10
-71.1658585009
 20
38.4835296976
 11
-71.1651395814
 21
38.3809745031
  0
LINE
  5
412
100
AcDbEntity
  8
SUPERFICI
100
AcDbLine
 62
250
  6
CONTINUOUS
 10
-70.2265571065
 20
39.2439078403
 11
-70.2251626305
 21
39.0218671058
  0
LINE
  5
413
100
AcDbEntity
  8
SUPERFICI
100
AcDbLine
 62
250
  6
CONTINUOUS
 10
-71.1989400808
 20
-36.2918839539
 11
-71.1984031071
 21
-36.44044758
  0
LINE
  5
414
100
AcDbEntity
  8
SUPERFICI
100
AcDbLine
 62
250
  6
CONTINUOUS
 10
-70.3049640576
 20
-28.6031223653
 11
-70.2638303749
 21
-36.3793665438
  0
LINE
  5
415
100
AcDbEntity
  8
SUPERFICI
100
AcDbLine
 62
250
  6
CONTINUOUS
 10
-70.2267634986
 20
-38.3582572455
 11
-70.2250160691
 21
-38.7390586882
  0
LINE
  5
416
100
AcDbEntity
  8
SUPERFICI
100
AcDbLine
 62
250
  6
CONTINUOUS
 10
-71.1655694112
 20
-38.0669526148
 11
-71.1649113376
 21
-38.2515278351
  0
LINE
  5
417
100
AcDbEntity
  8
SUPERFICI
100
AcDbLine
 62
250
  6
CONTINUOUS
 10
-71.2329124221
 20
-26.4510281913
 11
-71.1989400808
 21
-36.2918839539
  0
LINE
  5
418
100
AcDbEntity
  8
SUPERFICI
100
AcDbLine
 62
250
  6
CONTINUOUS
 10
-70.3163492789
 20
-16.4287879243
 11
-70.3049640576
 21
-28.6031223653
  0
LWPOLYLINE
  5
419
100
AcDbEntity
  8
SUPERFICI
100
AcDbPolyline
 62
250
  6
CONTINUOUS
 90
3
 70
0
 10
-71.2349745581
 20
-6.6467396275
 10
-71.235976056
 20
-10.6019211263
 10
-71.2329124221
 20
-26.4510281913
  0
LINE
  5
41A
100
AcDbEntity
  8
SUPERFICI
100
AcDbLine
 62
250
  6
CONTINUOUS
 10
-70.3134174173
 20
-5.7823304422
 11
-70.3163492789
 21
-16.4287879243
  0
LINE
  5
41B
100
AcDbEntity
  8
SUPERFICI
100
AcDbLine
 62
250
  6
CONTINUOUS
 10
-70.2251626305
 20
39.0218671058
 11
-70.2249723038
 21
38.7645552439
  0
LINE
  5
41C
100
AcDbEntity
  8
SUPERFICI
100
AcDbLine
 62
250
  6
CONTINUOUS
 10
-71.1651395814
 20
38.3809745031
 11
-71.1649706673
 21
38.2086326422
  0
LINE
  5
41D
100
AcDbEntity
  8
SUPERFICI
100
AcDbLine
 62
250
  6
CONTINUOUS
 10
-70.2250160691
 20
-38.7390586882
 11
-70.2250921501
 21
-38.9988854745
  0
LINE
  5
41E
100
AcDbEntity
  8
SUPERFICI
100
AcDbLine
 62
250
  6
CONTINUOUS
 10
-71.1649113376
 20
-38.2515278351
 11
-71.1650764633
 21
-38.3655396693
  0
LINE
  5
41F
100
AcDbEntity
  8
SUPERFICI
100
AcDbLine
 62
250
  6
CONTINUOUS
 10
-70.2249723038
 20
38.7645552439
 11
-70.2265969457
 21
38.382447698
  0
LINE
  5
420
100
AcDbEntity
  8
SUPERFICI
100
AcDbLine
 62
250
  6
CONTINUOUS
 10
-71.1649706673
 20
38.2086326422
 11
-71.165895239
 21
38.0195576883
  0
LINE
  5
421
100
AcDbEntity
  8
SUPERFICI
100
AcDbLine
 62
250
  6
CONTINUOUS
 10
-71.1980317091
 20
36.4913887453
 11
-71.2349745581
 21
-6.6467396275
  0
LINE
  5
422
100
AcDbEntity
  8
SUPERFICI
100
AcDbLine
 62
250
  6
CONTINUOUS
 10
-71.1650764633
 20
-38.3655396693
 11
-71.1657311447
 21
-38.4700516127
  0
LINE
  5
423
100
AcDbEntity
  8
SUPERFICI
100
AcDbLine
 62
250
  6
CONTINUOUS
 10
-70.2250921501
 20
-38.9988854745
 11
-70.2263854074
 21
-39.225739186
  0
LINE
  5
424
100
AcDbEntity
  8
SUPERFICI
100
AcDbLine
 62
250
  6
CONTINUOUS
 10
-70.2265969457
 20
38.382447698
 11
-70.2302232009
 21
37.9834405856
  0
LINE
  5
425
100
AcDbEntity
  8
SUPERFICI
100
AcDbLine
 62
250
  6
CONTINUOUS
 10
-70.263816091
 20
36.38079777
 11
-70.3134174173
 21
-5.7823304422
  0
LINE
  5
426
100
AcDbEntity
  8
SUPERFICI
100
AcDbLine
 62
250
  6
CONTINUOUS
 10
-71.165895239
 20
38.0195576883
 11
-71.1678746222
 21
37.8216738674
  0
LINE
  5
427
100
AcDbEntity
  8
SUPERFICI
100
AcDbLine
 62
250
  6
CONTINUOUS
 10
-71.1657311447
 20
-38.4700516127
 11
-71.1668712067
 21
-38.563876267
  0
LINE
  5
428
100
AcDbEntity
  8
SUPERFICI
100
AcDbLine
 62
250
  6
CONTINUOUS
 10
-71.1967180879
 20
36.5956552819
 11
-71.1980317091
 21
36.4913887453
  0
LINE
  5
429
100
AcDbEntity
  8
SUPERFICI
100
AcDbLine
 62
250
  6
CONTINUOUS
 10
-70.2302232009
 20
37.9834405856
 11
-70.2354576797
 21
37.6000243155
  0
LINE
  5
42A
100
AcDbEntity
  8
SUPERFICI
100
AcDbLine
 62
250
  6
CONTINUOUS
 10
-70.2624942553
 20
36.4747221745
 11
-70.263816091
 21
36.38079777
  0
LINE
  5
42B
100
AcDbEntity
  8
SUPERFICI
100
AcDbLine
 62
250
  6
CONTINUOUS
 10
-71.1678746222
 20
37.8216738674
 11
-71.1708038391
 21
37.6238296152
  0
LINE
  5
42C
100
AcDbEntity
  8
SUPERFICI
100
AcDbLine
 62
250
  6
CONTINUOUS
 10
-71.1946635012
 20
36.7089149599
 11
-71.1967180879
 21
36.5956552819
  0
LINE
  5
42D
100
AcDbEntity
  8
SUPERFICI
100
AcDbLine
 62
250
  6
CONTINUOUS
 10
-70.2354576797
 20
37.6000243155
 11
-70.2415972125
 21
37.2630838239
  0
LINE
  5
42E
100
AcDbEntity
  8
SUPERFICI
100
AcDbLine
 62
250
  6
CONTINUOUS
 10
-70.2605581533
 20
36.5742644232
 11
-70.2624942553
 21
36.4747221745
  0
LINE
  5
42F
100
AcDbEntity
  8
SUPERFICI
100
AcDbLine
 62
250
  6
CONTINUOUS
 10
-71.1708038391
 20
37.6238296152
 11
-71.1744910859
 21
37.4350720507
  0
LWPOLYLINE
  5
430
100
AcDbEntity
  8
SUPERFICI
100
AcDbPolyline
 62
250
  6
CONTINUOUS
 90
18
 70
0
 10
-71.1668712067
 20
-38.563876267
 10
-71.1684785769
 20
-38.6458973388
 10
-71.1694500543
 20
-38.6822587569
 10
-71.1705289595
 20
-38.7155144928
 10
-71.1717130927
 20
-38.7457472658
 10
-71.1729904385
 20
-38.7728590289
 10
-71.1743557122
 20
-38.7969918859
 10
-71.1758042509
 20
-38.818291693
 10
-71.1773192024
 20
-38.8367688264
 10
-71.178892817
 20
-38.8526173916
 10
-71.1805176839
 20
-38.8660327095
 10
-71.1821713856
 20
-38.8771187934
 10
-71.1838432106
 20
-38.8861077095
 10
-71.1855220688
 20
-38.8932244937
 10
-71.187178918
 20
-38.8986361267
 10
-71.188793511
 20
-38.9025726109
 10
-71.1903576953
 20
-38.9052820205
 10
-71.1918580122
 20
-38.9069761685
  0
LINE
  5
431
100
AcDbEntity
  8
SUPERFICI
100
AcDbLine
 62
250
  6
CONTINUOUS
 10
-70.2415972125
 20
37.2630838239
 11
-70.2475260745
 21
37.0
  0
LINE
  5
432
100
AcDbEntity
  8
SUPERFICI
100
AcDbLine
 62
250
  6
CONTINUOUS
 10
-71.1917521572
 20
36.8325332329
 11
-71.1946635012
 21
36.7089149599
  0
LINE
  5
433
100
AcDbEntity
  8
SUPERFICI
100
AcDbLine
 62
250
  6
CONTINUOUS
 10
-71.1744910859
 20
37.4350720507
 11
-71.1786538419
 21
37.263939292
  0
LINE
  5
434
100
AcDbEntity
  8
SUPERFICI
100
AcDbLine
 62
250
  6
CONTINUOUS
 10
-70.2563080737
 20
36.740980478
 11
-70.2605581533
 21
36.5742644232
  0
LINE
  5
435
100
AcDbEntity
  8
SUPERFICI
100
AcDbLine
 62
250
  6
CONTINUOUS
 10
-71.1878647907
 20
36.9668469368
 11
-71.1917521572
 21
36.8325332329
  0
LINE
  5
436
100
AcDbEntity
  8
SUPERFICI
100
AcDbLine
 62
250
  6
CONTINUOUS
 10
-71.1786538419
 20
37.263939292
 11
-71.1828884995
 21
37.1182091862
  0
LINE
  5
437
100
AcDbEntity
  8
SUPERFICI
100
AcDbLine
 62
250
  6
CONTINUOUS
 10
-70.2523889049
 20
36.8652042576
 11
-70.2563080737
 21
36.740980478
  0
LINE
  5
438
100
AcDbEntity
  8
SUPERFICI
100
AcDbLine
 62
250
  6
CONTINUOUS
 10
-71.1828884995
 20
37.1182091862
 11
-71.1878647907
 21
36.9668469368
  0
LINE
  5
439
100
AcDbEntity
  8
SUPERFICI
100
AcDbLine
 62
250
  6
CONTINUOUS
 10
-70.2475260745
 20
37.0
 11
-70.2523889049
 21
36.8652042576
  0
LWPOLYLINE
  5
43A
100
AcDbEntity
  8
SUPERFICI
100
AcDbPolyline
 62
250
  6
CONTINUOUS
 90
14
 70
0
 10
-74.0622456702
 20
-25.6801067117
 10
-74.0624446346
 20
-25.6817934989
 10
-74.0626271
 20
-25.6834166012
 10
-74.0627922263
 20
-25.6849753264
 10
-74.0629395233
 20
-25.6864691977
 10
-74.0630688559
 20
-25.6879014807
 10
-74.0631795044
 20
-25.6892705635
 10
-74.0632706807
 20
-25.6905750161
 10
-74.0633418355
 20
-25.6918174235
 10
-74.0633920939
 20
-25.6929964068
 10
-74.0634206264
 20
-25.6941111996
 10
-74.0634266754
 20
-25.6951646929
 10
-74.0634093923
 20
-25.6961563749
 10
-74.0633695417
 20
-25.6970595889
  0
LINE
  5
43B
100
AcDbEntity
  8
SUPERFICI
100
AcDbLine
 62
250
  6
CONTINUOUS
 10
-74.0618005544
 20
-25.6765283166
 11
-74.0622456702
 21
-25.6801067117
  0
LINE
  5
43C
100
AcDbEntity
  8
SUPERFICI
100
AcDbLine
 62
250
  6
CONTINUOUS
 10
-74.0612963216
 20
-25.6726918052
 11
-74.0618005544
 21
-25.6765283166
  0
LINE
  5
43D
100
AcDbEntity
  8
SUPERFICI
100
AcDbLine
 62
250
  6
CONTINUOUS
 10
-74.0604362511
 20
-25.6665186043
 11
-74.0612963216
 21
-25.6726918052
  0
LINE
  5
43E
100
AcDbEntity
  8
SUPERFICI
100
AcDbLine
 62
250
  6
CONTINUOUS
 10
-74.0594775437
 20
-25.6598161973
 11
-74.0604362511
 21
-25.6665186043
  0
LWPOLYLINE
  5
43F
100
AcDbEntity
  8
0
100
AcDbPolyline
 62
7
  6
CONTINUOUS
 90
4
 70
0
 43
0.3500000006
 10
-84.0252046509
 20
-2.3571432495
 10
-84.8823425903
 20
-2.3571432495
 10
-85.3109206238
 20
-1.9285708809
 10
-85.3109206238
 20
-1.2857140274
  0
LWPOLYLINE
  5
440
100
AcDbEntity
  8
0
100
AcDbPolyline
 62
7
  6
CONTINUOUS
 90
13
 70
0
 43
0.3500000006
 10
-84.4537736206
 20
-0.0000003204
 10
-85.7394895935
 20
-0.0000003204
 10
-86.1680585632
 20
0.2142864304
 10
-86.596627533
 20
0.642857666
 10
-86.596627533
 20
0.8571421509
 10
-86.1680585632
 20
1.2857133865
 10
-85.7394895935
 20
1.5000001373
 10
-84.4537736206
 20
1.5000001373
 10
-84.0252046509
 20
1.2857133865
 10
-83.5966266174
 20
0.8571421509
 10
-83.5966266174
 20
0.642857666
 10
-84.0252046509
 20
0.2142864304
 10
-84.4537736206
 20
-0.0000003204
  0
LINE
  5
441
100
AcDbEntity
  8
SUPERFICI
100
AcDbLine
 62
250
  6
CONTINUOUS
 10
-70.3134218695
 20
0.0003242561
 11
-74.8466306861
 21
-0.0002832793
  0
LINE
  5
442
100
AcDbEntity
  8
SUPERFICI
100
AcDbLine
 62
250
  6
CONTINUOUS
 10
-74.0607188011
 20
25.6685168004
 11
-74.059477533
 21
25.6598160321
  0
LINE
  5
443
100
AcDbEntity
  8
SUPERFICI
100
AcDbLine
 62
250
  6
CONTINUOUS
 10
-74.0612741429
 20
25.6725276327
 11
-74.0607188011
 21
25.6685168004
  0
LINE
  5
444
100
AcDbEntity
  8
SUPERFICI
100
AcDbLine
 62
250
  6
CONTINUOUS
 10
-74.0617747329
 20
25.676328033
 11
-74.0612741429
 21
25.6725276327
  0
LWPOLYLINE
  5
445
100
AcDbEntity
  8
SUPERFICI
100
AcDbPolyline
 62
250
  6
CONTINUOUS
 90
3
 70
0
 10
-70.2326912271
 20
39.5645747159
 10
-70.2313811412
 20
39.5228076787
 10
-70.2301827537
 20
39.4764677216
  0
LINE
  5
446
100
AcDbEntity
  8
SUPERFICI
100
AcDbLine
 62
250
  6
CONTINUOUS
 10
-70.2301827537
 20
39.4764677216
 11
-70.2281269379
 21
39.3695223951
  0
LINE
  5
447
100
AcDbEntity
  8
SUPERFICI
100
AcDbLine
 62
250
  6
CONTINUOUS
 10
-70.2281269379
 20
39.3695223951
 11
-70.2265571065
 21
39.2439078403
  0
LINE
  5
448
100
AcDbEntity
  8
RACCORDO
100
AcDbLine
 62
7
  6
CONTINUOUS
 10
-68.2466307413
 20
3.2251006478
 11
-68.2466307413
 21
-3.2251006478
  0
LINE
  5
449
100
AcDbEntity
  8
SUPERFICI
100
AcDbLine
 62
250
  6
CONTINUOUS
 10
-70.2263854074
 20
-39.225739186
 11
-70.22790788
 21
-39.3551033453
  0
LWPOLYLINE
  5
44A
100
AcDbEntity
  8
SUPERFICI
100
AcDbPolyline
 62
250
  6
CONTINUOUS
 90
17
 70
0
 10
-70.22790788
 20
-39.3551033453
 10
-70.2299369899
 20
-39.4657708995
 10
-70.2311312476
 20
-39.5138405577
 10
-70.2324430514
 20
-39.5572298124
 10
-70.2338507342
 20
-39.5958079798
 10
-70.2353581826
 20
-39.6297975358
 10
-70.2369615101
 20
-39.6594295704
 10
-70.2386273895
 20
-39.6847547201
 10
-70.2403599683
 20
-39.7060842628
 10
-70.2421550991
 20
-39.723727106
 10
-70.243967013
 20
-39.7378766799
 10
-70.245800073
 20
-39.7488989964
 10
-70.2476499161
 20
-39.7571469237
 10
-70.249457685
 20
-39.762911082
 10
-70.2512037607
 20
-39.7665619169
 10
-70.2529077621
 20
-39.7684777921
 10
-70.2545696892
 20
-39.7689897085
  0
LINE
  5
44B
100
AcDbEntity
  8
0
100
AcDbLine
 62
7
  6
CONTINUOUS
 10
-65.8466307413
 20
40.0
 11
-65.8466307413
 21
37.0
  0
LINE
  5
44C
100
AcDbEntity
  8
0
100
AcDbLine
 62
7
  6
CONTINUOUS
 10
-65.8466307413
 20
-40.0
 11
-65.8466307413
 21
-37.0
  0
LINE
  5
44D
100
AcDbEntity
  8
RACCORDO
100
AcDbLine
 62
7
  6
CONTINUOUS
 10
-65.8466307413
 20
-37.0
 11
-65.8466307413
 21
-3.9848721447
  0
LINE
  5
44E
100
AcDbEntity
  8
RACCORDO
100
AcDbLine
 62
7
  6
CONTINUOUS
 10
-65.8466307413
 20
3.9848721447
 11
-65.8466307413
 21
37.0
  0
LINE
  5
44F
100
AcDbEntity
  8
RACCORDO
100
AcDbLine
 62
7
  6
CONTINUOUS
 10
-65.6466307413
 20
37.0000000001
 11
-65.6466307413
 21
4.2031338449
  0
LINE
  5
450
100
AcDbEntity
  8
RACCORDO
100
AcDbLine
 62
7
  6
CONTINUOUS
 10
-65.6466307413
 20
-4.2031338449
 11
-65.6466307413
 21
-37.0000000001
  0
LINE
  5
451
100
AcDbEntity
  8
0
100
AcDbLine
 62
7
  6
CONTINUOUS
 10
-65.6466307413
 20
-37.0000000001
 11
-65.6466307413
 21
-38.5084230369
  0
LINE
  5
452
100
AcDbEntity
  8
0
100
AcDbLine
 62
7
  6
CONTINUOUS
 10
-65.6466307413
 20
37.0000000001
 11
-65.6466307413
 21
38.5084230369
  0
LWPOLYLINE
  5
453
100
AcDbEntity
  8
SUPERFICI
100
AcDbPolyline
 62
250
  6
CONTINUOUS
 90
7
 70
0
 10
-71.2074049022
 20
-38.9304676075
 10
-71.2089197963
 20
-38.9392108691
 10
-71.2096764479
 20
-38.9418611108
 10
-71.2104845183
 20
-38.9437313012
 10
-71.2113234599
 20
-38.9453585477
 10
-71.2122179018
 20
-38.9468156299
 10
-71.2132163903
 20
-38.9480264171
  0
LINE
  5
454
100
AcDbEntity
  8
RACCORDO
100
AcDbLine
 62
7
  6
CONTINUOUS
 10
-66.1204840185
 20
3.6860137352
 11
-67.9727774641
 21
3.5239590572
  0
LWPOLYLINE
  5
455
100
AcDbEntity
  8
SUPERFICI
100
AcDbPolyline
 62
250
  6
CONTINUOUS
 90
6
 70
0
 10
-74.6475213914
 20
24.0988107592
 10
-74.6474464675
 20
24.098612394
 10
-74.6473936538
 20
24.0977858962
 10
-74.6473629583
 20
24.0963864226
 10
-74.6473554431
 20
24.0944749204
 10
-74.6473700517
 20
24.0921002004
  0
LWPOLYLINE
  5
456
100
AcDbEntity
  8
SUPERFICI
100
AcDbPolyline
 62
250
  6
CONTINUOUS
 90
9
 70
0
 10
-71.2090152452
 20
38.9398254187
 10
-71.2075405971
 20
38.9309281775
 10
-71.2063388687
 20
38.9264201967
 10
-71.2047113055
 20
38.9227679922
 10
-71.2027982039
 20
38.9194763827
 10
-71.2005799622
 20
38.9162770556
 10
-71.1980198834
 20
38.9130820281
 10
-71.1951170208
 20
38.9099815316
 10
-71.191859522
 20
38.9069763769
  0
LINE
  5
457
100
AcDbEntity
  8
SUPERFICI
100
AcDbLine
 62
7
  6
CONTINUOUS
 10
-71.283029813
 20
39.0841563212
 11
-71.2830069565
 21
39.0841084774
  0
LWPOLYLINE
  5
458
100
AcDbEntity
  8
SUPERFICI
100
AcDbPolyline
 62
250
  6
CONTINUOUS
 90
31
 70
0
 10
-71.2776953887
 20
-39.0427957813
 10
-71.2802050366
 20
-39.0468307815
 10
-71.2827157454
 20
-39.0509532532
 10
-71.2851910402
 20
-39.0550594955
 10
-71.2876204858
 20
-39.0591694449
 10
-71.2899617882
 20
-39.0632658032
 10
-71.2921452338
 20
-39.0671895698
 10
-71.2941554369
 20
-39.070916484
 10
-71.2959814662
 20
-39.0744737831
 10
-71.2975880922
 20
-39.0777794176
 10
-71.2989764147
 20
-39.080803169
 10
-71.3001593041
 20
-39.0835766314
 10
-71.3011380046
 20
-39.0861097401
 10
-71.3019207491
 20
-39.0883914998
 10
-71.3025361015
 20
-39.0904325423
 10
-71.3030092267
 20
-39.0922753344
 10
-71.303326296
 20
-39.0939773896
 10
-71.3035068299
 20
-39.0954817622
 10
-71.3036208946
 20
-39.0966595561
 10
-71.3038564214
 20
-39.0973056018
 10
-71.3042943508
 20
-39.0976119531
 10
-71.3048954042
 20
-39.0980426506
 10
-71.3055795535
 20
-39.0987359743
 10
-71.3062922314
 20
-39.0995604109
 10
-71.3069189692
 20
-39.1005808936
 10
-71.3073381182
 20
-39.101938226
 10
-71.3075400726
 20
-39.1034976912
 10
-71.3076012519
 20
-39.1049103151
 10
-71.3075503676
 20
-39.1060658253
 10
-71.3073608421
 20
-39.107075052
 10
-71.3072152837
 20
-39.1075334753
  0
LINE
  5
459
100
AcDbEntity
  8
SUPERFICI
100
AcDbLine
 62
250
  6
CONTINUOUS
 10
-71.2727875194
 20
-39.0350559857
 11
-71.2776953887
 21
-39.0427957813
  0
LINE
  5
45A
100
AcDbEntity
  8
SUPERFICI
100
AcDbLine
 62
250
  6
CONTINUOUS
 10
-71.2657346389
 20
-39.0240974454
 11
-71.2727875194
 21
-39.0350559857
  0
LINE
  5
45B
100
AcDbEntity
  8
SUPERFICI
100
AcDbLine
 62
250
  6
CONTINUOUS
 10
-71.2590593443
 20
-39.0138645378
 11
-71.2657346389
 21
-39.0240974454
  0
LINE
  5
45C
100
AcDbEntity
  8
SUPERFICI
100
AcDbLine
 62
250
  6
CONTINUOUS
 10
-71.2527444422
 20
-39.0043180018
 11
-71.2590593443
 21
-39.0138645378
  0
LINE
  5
45D
100
AcDbEntity
  8
SUPERFICI
100
AcDbLine
 62
250
  6
CONTINUOUS
 10
-71.2467847566
 20
-38.9954364954
 11
-71.2527444422
 21
-39.0043180018
  0
LINE
  5
45E
100
AcDbEntity
  8
SUPERFICI
100
AcDbLine
 62
250
  6
CONTINUOUS
 10
-71.2430156561
 20
-38.9898869285
 11
-71.2467847566
 21
-38.9954364954
  0
LINE
  5
45F
100
AcDbEntity
  8
SUPERFICI
100
AcDbLine
 62
250
  6
CONTINUOUS
 10
-71.2394168048
 20
-38.984637147
 11
-71.2430156561
 21
-38.9898869285
  0
LINE
  5
460
100
AcDbEntity
  8
SUPERFICI
100
AcDbLine
 62
250
  6
CONTINUOUS
 10
-71.2343407411
 20
-38.9773170516
 11
-71.2394168048
 21
-38.984637147
  0
LINE
  5
461
100
AcDbEntity
  8
SUPERFICI
100
AcDbLine
 62
250
  6
CONTINUOUS
 10
-71.2296408636
 20
-38.9706236684
 11
-71.2343407411
 21
-38.9773170516
  0
LINE
  5
462
100
AcDbEntity
  8
SUPERFICI
100
AcDbLine
 62
250
  6
CONTINUOUS
 10
-71.22530308
 20
-38.964514849
 11
-71.2296408636
 21
-38.9706236684
  0
LINE
  5
463
100
AcDbEntity
  8
SUPERFICI
100
AcDbLine
 62
250
  6
CONTINUOUS
 10
-71.221306163
 20
-38.9589482334
 11
-71.22530308
 21
-38.964514849
  0
LINE
  5
464
100
AcDbEntity
  8
SUPERFICI
100
AcDbLine
 62
250
  6
CONTINUOUS
 10
-74.6553896548
 20
22.1990020202
 11
-74.444778083
 21
22.1939997262
  0
LWPOLYLINE
  5
465
100
AcDbEntity
  8
SUPERFICI
100
AcDbPolyline
 62
250
  6
CONTINUOUS
 90
7
 70
0
 10
-74.444778083
 20
22.1939997262
 10
-74.2798069396
 20
22.1890680052
 10
-74.215361145
 20
22.1866553631
 10
-74.1633316151
 20
22.1842921858
 10
-74.1239437313
 20
22.1819887059
 10
-74.0973681139
 20
22.1797548977
 10
-74.0837198831
 20
22.1776004335
  0
LWPOLYLINE
  5
466
100
AcDbEntity
  8
SUPERFICI
100
AcDbPolyline
 62
250
  6
CONTINUOUS
 90
7
 70
0
 10
-74.6553906853
 20
22.1990020256
 10
-74.712463689
 20
22.2009253782
 10
-74.7600327241
 20
22.2005158831
 10
-74.7975819492
 20
22.1981268178
 10
-74.8247022754
 20
22.1920444478
 10
-74.841109721
 20
22.1850521628
 10
-74.8466309652
 20
22.1829798392
  0
LWPOLYLINE
  5
467
100
AcDbEntity
  8
SUPERFICI
100
AcDbPolyline
 62
250
  6
CONTINUOUS
 90
3
 70
0
 10
-71.2156683524
 20
38.9511890313
 10
-71.2145546545
 20
38.9496853212
 10
-71.213472631
 20
38.9483370908
  0
LINE
  5
468
100
AcDbEntity
  8
SUPERFICI
100
AcDbLine
 62
250
  6
CONTINUOUS
 10
-71.2180079494
 20
38.9543914864
 11
-71.2156683524
 21
38.9511890313
  0
LINE
  5
469
100
AcDbEntity
  8
SUPERFICI
100
AcDbLine
 62
250
  6
CONTINUOUS
 10
-71.2231428853
 20
38.9614989993
 11
-71.2180079494
 21
38.9543914864
  0
LINE
  5
46A
100
AcDbEntity
  8
SUPERFICI
100
AcDbLine
 62
250
  6
CONTINUOUS
 10
-71.2274545437
 20
38.9675367502
 11
-71.2231428853
 21
38.9614989993
  0
LINE
  5
46B
100
AcDbEntity
  8
SUPERFICI
100
AcDbLine
 62
250
  6
CONTINUOUS
 10
-71.2322207973
 20
38.9742884144
 11
-71.2274545437
 21
38.9675367502
  0
LINE
  5
46C
100
AcDbEntity
  8
SUPERFICI
100
AcDbLine
 62
250
  6
CONTINUOUS
 10
-71.2356818891
 20
38.9792415182
 11
-71.2322207973
 21
38.9742884144
  0
LINE
  5
46D
100
AcDbEntity
  8
SUPERFICI
100
AcDbLine
 62
250
  6
CONTINUOUS
 10
-71.2393936099
 20
38.9846037651
 11
-71.2356818891
 21
38.9792415182
  0
LINE
  5
46E
100
AcDbEntity
  8
SUPERFICI
100
AcDbLine
 62
250
  6
CONTINUOUS
 10
-71.2433760207
 20
38.99041534
 11
-71.2393936099
 21
38.9846037651
  0
LINE
  5
46F
100
AcDbEntity
  8
SUPERFICI
100
AcDbLine
 62
250
  6
CONTINUOUS
 10
-71.2476363594
 20
38.9966977141
 11
-71.2433760207
 21
38.99041534
  0
LINE
  5
470
100
AcDbEntity
  8
SUPERFICI
100
AcDbLine
 62
250
  6
CONTINUOUS
 10
-71.2521811125
 20
39.0034748593
 11
-71.2476363594
 21
38.9966977141
  0
LINE
  5
471
100
AcDbEntity
  8
SUPERFICI
100
AcDbLine
 62
250
  6
CONTINUOUS
 10
-71.2570289538
 20
39.0107806267
 11
-71.2521811125
 21
39.0034748593
  0
LINE
  5
472
100
AcDbEntity
  8
SUPERFICI
100
AcDbLine
 62
250
  6
CONTINUOUS
 10
-71.2649169055
 20
39.022835744
 11
-71.2570289538
 21
39.0107806267
  0
LWPOLYLINE
  5
473
100
AcDbEntity
  8
SUPERFICI
100
AcDbPolyline
 62
250
  6
CONTINUOUS
 90
3
 70
0
 10
-71.2735695907
 20
39.0362813736
 10
-71.2706081927
 20
39.0316465536
 10
-71.2649169055
 20
39.022835744
  0
LWPOLYLINE
  5
474
100
AcDbEntity
  8
SUPERFICI
100
AcDbPolyline
 62
250
  6
CONTINUOUS
 90
5
 70
0
 10
-71.2124457728
 20
38.9470562335
 10
-71.2115120411
 20
38.9455887527
 10
-71.2106240448
 20
38.9440745864
 10
-71.2097786957
 20
38.94237615
 10
-71.2090152452
 20
38.9398254187
  0
LWPOLYLINE
  5
475
100
AcDbEntity
  8
0
100
AcDbPolyline
 62
7
  6
CONTINUOUS
 90
10
 70
0
 43
0.3500000006
 10
-70.4609160919
 20
50.3158085632
 10
-70.3894894409
 20
50.1729507294
 10
-70.3894894409
 20
50.1015240784
 10
-70.5323472748
 20
49.9586662445
 10
-70.6037739258
 20
49.9586662445
 10
-70.6752005768
 20
50.0300928955
 10
-70.6752005768
 20
50.1015240784
 10
-70.6037739258
 20
50.2443773804
 10
-70.5323472748
 20
50.3158085632
 10
-70.4609160919
 20
50.3158085632
  0
LWPOLYLINE
  5
476
100
AcDbEntity
  8
SUPERFICI
100
AcDbPolyline
 62
250
  6
CONTINUOUS
 90
4
 70
0
 10
-71.2142746775
 20
-38.9493066595
 10
-71.2153626303
 20
-38.9507677527
 10
-71.216486995
 20
-38.952299291
 10
-71.221306163
 20
-38.9589482334
  0
LWPOLYLINE
  5
477
100
AcDbEntity
  8
SUPERFICI
100
AcDbPolyline
 62
250
  6
CONTINUOUS
 90
17
 70
0
 10
-71.1918580147
 20
38.9069761689
 10
-71.1903562964
 20
38.9052800687
 10
-71.1887988945
 20
38.9025837541
 10
-71.1871981976
 20
38.8986905771
 10
-71.1855620082
 20
38.8933728048
 10
-71.1839084472
 20
38.8864180129
 10
-71.1822631455
 20
38.8776666937
 10
-71.1806363642
 20
38.8669093664
 10
-71.1790380394
 20
38.8539305249
 10
-71.1774881426
 20
38.8386221064
 10
-71.1759936978
 20
38.8207981478
 10
-71.1745620946
 20
38.8002740966
 10
-71.1732086006
 20
38.7770196702
 10
-71.1719379042
 20
38.7508900517
 10
-71.1707553532
 20
38.7217436712
 10
-71.1696722073
 20
38.6896407217
 10
-71.1686911411
 20
38.6544887846
  0
LWPOLYLINE
  5
478
100
AcDbEntity
  8
SUPERFICI
100
AcDbPolyline
 62
250
  6
CONTINUOUS
 90
8
 70
0
 10
-71.1918595947
 20
-38.906976387
 10
-71.1950728056
 20
-38.9099398274
 10
-71.1979392169
 20
-38.9129916907
 10
-71.2004712264
 20
-38.9161311544
 10
-71.2026712966
 20
-38.9192675816
 10
-71.2045741561
 20
-38.9224894189
 10
-71.2061963101
 20
-38.9260662001
 10
-71.2074049022
 20
-38.9304676075
  0
LINE
  5
479
100
AcDbEntity
  8
RACCORDO
100
AcDbLine
 62
250
  6
CONTINUOUS
 10
-65.8466307413
 20
29.4375127735
 11
-65.6466307413
 21
29.4403778154
  0
LINE
  5
47A
100
AcDbEntity
  8
RACCORDO
100
AcDbLine
 62
250
  6
CONTINUOUS
 10
-65.8466307413
 20
28.9116721858
 11
-65.6466307413
 21
28.9140947415
  0
LINE
  5
47B
100
AcDbEntity
  8
RACCORDO
100
AcDbLine
 62
250
  6
CONTINUOUS
 10
-65.6466307413
 20
34.0859052601
 11
-65.8466307413
 21
34.0883278632
  0
LINE
  5
47C
100
AcDbEntity
  8
RACCORDO
100
AcDbLine
 62
250
  6
CONTINUOUS
 10
-65.6466307413
 20
33.55962218
 11
-65.8466307413
 21
33.5624872827
  0
LINE
  5
47D
100
AcDbEntity
  8
SUPERFICI
100
AcDbLine
 62
7
  6
CONTINUOUS
 10
-70.4212825034
 20
39.7602526602
 11
-70.5026637045
 21
39.7502546843
  0
LWPOLYLINE
  5
47E
100
AcDbEntity
  8
SUPERFICI
100
AcDbPolyline
 62
250
  6
CONTINUOUS
 90
13
 70
0
 10
-70.254569688
 20
39.7689896843
 10
-70.3688143906
 20
39.7563742479
 10
-70.4808538845
 20
39.7307058749
 10
-70.5892049816
 20
39.6923243653
 10
-70.692433321
 20
39.6417378168
 10
-70.7891723574
 20
39.5796158983
 10
-70.8781414513
 20
39.5067809848
 10
-70.9581628225
 20
39.4241972712
 10
-71.0281771414
 20
39.3329580074
 10
-71.0872575526
 20
39.2342710264
 10
-71.1346219447
 20
39.1294427547
 10
-71.169643304
 20
39.0198609177
 10
-71.1918580147
 20
38.9069761689
  0
LINE
  5
47F
100
AcDbEntity
  8
RACCORDO
100
AcDbLine
 62
7
  6
CONTINUOUS
 10
-65.8466307413
 20
38.497941481
 11
-65.6466307413
 21
38.5084230369
  0
LINE
  5
480
100
AcDbEntity
  8
SUPERFICI
100
AcDbLine
 62
7
  6
CONTINUOUS
 10
-70.4212850958
 20
39.7602525243
 11
-70.2545696893
 21
39.7689897085
  0
LINE
  5
481
100
AcDbEntity
  8
0
100
AcDbLine
 62
7
  6
CONTINUOUS
 10
-65.8466307413
 20
40.0
 11
-70.2545696893
 21
39.7689897085
  0
LINE
  5
482
100
AcDbEntity
  8
0
100
AcDbLine
 62
250
  6
CONTINUOUS
 10
-70.2475260745
 20
37.0
 11
-65.8466307413
 21
37.0
  0
LINE
  5
483
100
AcDbEntity
  8
RACCORDO
100
AcDbLine
 62
250
  6
CONTINUOUS
 10
-65.6466307413
 20
37.0
 11
-65.8466307413
 21
37.0
  0
LWPOLYLINE
  5
484
100
AcDbEntity
  8
0
100
AcDbPolyline
 62
7
  6
CONTINUOUS
 90
7
 70
0
 43
0.3500000006
 10
-67.889488678
 20
49.8158084106
 10
-69.3894891357
 20
49.8158084106
 10
-67.889488678
 20
51.9586668549
 10
-67.889488678
 20
52.3872358246
 10
-68.3180576477
 20
52.8158093262
 10
-68.9609156342
 20
52.8158093262
 10
-69.3894891357
 20
52.1729513397
  0
LINE
  5
485
100
AcDbEntity
  8
SUPERFICI
100
AcDbLine
 62
250
  6
CONTINUOUS
 10
-70.2475260745
 20
37.0
 11
-71.1287921113
 21
37.0353260466
  0
LINE
  5
486
100
AcDbEntity
  8
SUPERFICI
100
AcDbLine
 62
250
  6
CONTINUOUS
 10
-71.1287921113
 20
37.0353260466
 11
-71.1855228486
 21
37.0379684234
  0
LWPOLYLINE
  5
487
100
AcDbEntity
  8
SUPERFICI
100
AcDbPolyline
 62
250
  6
CONTINUOUS
 90
14
 70
0
 10
-70.2545696892
 20
39.7689897085
 10
-70.2529082812
 20
39.7684766352
 10
-70.2512113095
 20
39.7665710583
 10
-70.249478774
 20
39.7629655679
 10
-70.2476930133
 20
39.7573122129
 10
-70.2458716888
 20
39.7492693754
 10
-70.2440677851
 20
39.738562207
 10
-70.2422850569
 20
39.7248625079
 10
-70.2405197496
 20
39.7078303426
 10
-70.2388135832
 20
39.6872701209
 10
-70.2371700658
 20
39.6628883968
 10
-70.2355856894
 20
39.6343891686
 10
-70.2340916503
 20
39.6016944928
 10
-70.2326912271
 20
39.5645747159
  0
ARC
  5
488
100
AcDbEntity
  8
0
100
AcDbCircle
 62
7
  6
CONTINUOUS
 10
37.0
 20
-37.0
 40
3.0
100
AcDbArc
 50
270.0000000008
 51
359.9999999991
  0
ARC
  5
489
100
AcDbEntity
  8
0
100
AcDbCircle
 62
7
  6
CONTINUOUS
 10
-37.0
 20
-37.0
 40
3.0
100
AcDbArc
 50
180.0000000009
 51
269.9999999992
  0
ARC
  5
48A
100
AcDbEntity
  8
0
100
AcDbCircle
 62
7
  6
CONTINUOUS
 10
-37.0
 20
37.0
 40
3.0
100
AcDbArc
 50
90.0000000008
 51
179.9999999991
  0
ARC
  5
48B
100
AcDbEntity
  8
0
100
AcDbCircle
 62
7
  6
CONTINUOUS
 10
37.0
 20
37.0
 40
3.0
100
AcDbArc
 50
0.0000000009
 51
89.9999999992
  0
ARC
  5
48C
100
AcDbEntity
  8
SUPERFICI
100
AcDbCircle
 62
7
  6
CONTINUOUS
 10
10.95
 20
22.2
 40
0.3
100
AcDbArc
 50
0.0
 51
90.0
  0
ARC
  5
48D
100
AcDbEntity
  8
SUPERFICI
100
AcDbCircle
 62
7
  6
CONTINUOUS
 10
-10.95
 20
22.2
 40
0.3
100
AcDbArc
 50
90.0
 51
180.0
  0
ARC
  5
48E
100
AcDbEntity
  8
SUPERFICI
100
AcDbCircle
 62
7
  6
CONTINUOUS
 10
-10.95
 20
-22.2
 40
0.3
100
AcDbArc
 50
180.0
 51
270.0
  0
ARC
  5
48F
100
AcDbEntity
  8
SUPERFICI
100
AcDbCircle
 62
7
  6
CONTINUOUS
 10
10.95
 20
-22.2
 40
0.3
100
AcDbArc
 50
270.0
 51
360.0
  0
ARC
  5
490
100
AcDbEntity
  8
SUPERFICI
100
AcDbCircle
 62
7
  6
CONTINUOUS
 10
-77.0574448033
 20
-25.8855131086
 40
3.0000000036
100
AcDbArc
 50
3.5994107437
 51
36.6109482073
  0
ARC
  5
491
100
AcDbEntity
  8
SUPERFICI
100
AcDbCircle
 62
7
  6
CONTINUOUS
 10
-73.8466310568
 20
-23.5
 40
1.0
100
AcDbArc
 50
180.0
 51
216.7847786959
  0
ARC
  5
492
100
AcDbEntity
  8
SUPERFICI
100
AcDbCircle
 62
7
  6
CONTINUOUS
 10
-73.8466310568
 20
23.5
 40
1.0
100
AcDbArc
 50
143.215220631
 51
180.0
  0
ARC
  5
493
100
AcDbEntity
  8
SUPERFICI
100
AcDbCircle
 62
7
  6
CONTINUOUS
 10
-70.3467740801
 20
-38.7627851352
 40
1.0
100
AcDbArc
 50
226.9034827613
 51
242.9026353352
  0
ARC
  5
494
100
AcDbEntity
  8
SUPERFICI
100
AcDbCircle
 62
7
  6
CONTINUOUS
 10
-70.3689534249
 20
-38.761622765
 40
1.0
100
AcDbArc
 50
200.2380949578
 51
266.9999997518
  0
ARC
  5
495
100
AcDbEntity
  8
SUPERFICI
100
AcDbCircle
 62
7
  6
CONTINUOUS
 10
-70.346774269
 20
-38.7627851253
 40
1.0
100
AcDbArc
 50
265.7297281813
 51
266.90137405
  0
ARC
  5
496
100
AcDbEntity
  8
RACCORDO
100
AcDbCircle
 62
7
  6
CONTINUOUS
 10
-65.9466307413
 20
-4.2031338449
 40
0.3
100
AcDbArc
 50
0.0
 51
70.8571582958
  0
ARC
  5
497
100
AcDbEntity
  8
RACCORDO
100
AcDbCircle
 62
7
  6
CONTINUOUS
 10
-66.1466307413
 20
-3.9848721447
 40
0.3
100
AcDbArc
 50
0.0
 51
85.0
  0
ARC
  5
498
100
AcDbEntity
  8
RACCORDO
100
AcDbCircle
 62
7
  6
CONTINUOUS
 10
-67.9466307413
 20
-3.2251006478
 40
0.3
100
AcDbArc
 50
180.0
 51
265.0
  0
ARC
  5
499
100
AcDbEntity
  8
SUPERFICI
100
AcDbCircle
 62
7
  6
CONTINUOUS
 10
-70.3689526792
 20
38.761622804
 40
1.0
100
AcDbArc
 50
93.0000003942
 51
159.761332237
  0
ARC
  5
49A
100
AcDbEntity
  8
RACCORDO
100
AcDbCircle
 62
7
  6
CONTINUOUS
 10
-65.9466307413
 20
4.2031338449
 40
0.3
100
AcDbArc
 50
289.1428417042
 51
360.0
  0
ARC
  5
49B
100
AcDbEntity
  8
RACCORDO
100
AcDbCircle
 62
7
  6
CONTINUOUS
 10
-66.1466307413
 20
3.9848721447
 40
0.3
100
AcDbArc
 50
275.0
 51
360.0
  0
ARC
  5
49C
100
AcDbEntity
  8
RACCORDO
100
AcDbCircle
 62
7
  6
CONTINUOUS
 10
-67.9466307413
 20
3.2251006478
 40
0.3
100
AcDbArc
 50
95.0
 51
180.0
  0
ELLIPSE
  5
49D
100
AcDbEntity
  8
RACCORDO
100
AcDbEllipse
 62
7
  6
CONTINUOUS
 10
-39.9842776662
 20
3.9848721447
 30
0.0
 11
0.0
 21
0.3
 31
0.0
 40
0.0524077793
 41
-4.7123889804
 42
-3.2288591162
  0
ELLIPSE
  5
49E
100
AcDbEntity
  8
RACCORDO
100
AcDbEllipse
 62
7
  6
CONTINUOUS
 10
-39.9842776662
 20
-3.9848721447
 30
0.0
 11
-0.0
 21
0.3
 31
0.0
 40
0.0524077793
 41
0.0872664626
 42
1.5707963268
  0
ELLIPSE
  5
49F
100
AcDbEntity
  8
RACCORDO
100
AcDbEllipse
 62
7
  6
CONTINUOUS
 10
39.9842776662
 20
-3.9848721447
 30
0.0
 11
-0.0
 21
0.3
 31
0.0
 40
0.0524077793
 41
-1.5707963268
 42
-0.0872664626
  0
ELLIPSE
  5
4A0
100
AcDbEntity
  8
RACCORDO
100
AcDbEllipse
 62
7
  6
CONTINUOUS
 10
39.9842776662
 20
3.9848721447
 30
0.0
 11
0.0
 21
0.3
 31
0.0
 40
0.0524077793
 41
-3.054326191
 42
-1.5707963268
  0
ELLIPSE
  5
4A1
100
AcDbEntity
  8
RACCORDO
100
AcDbEllipse
 62
7
  6
CONTINUOUS
 10
-39.8899436635
 20
-3.2251006478
 30
0.0
 11
0.0
 21
0.3
 31
0.0
 40
0.0524077793
 41
-3.054326191
 42
-1.5707963268
  0
ELLIPSE
  5
4A2
100
AcDbEntity
  8
RACCORDO
100
AcDbEllipse
 62
7
  6
CONTINUOUS
 10
-39.8899436635
 20
3.2251006478
 30
0.0
 11
-0.0
 21
0.3
 31
0.0
 40
0.0524077793
 41
-1.5707963268
 42
-0.0872664626
  0
ELLIPSE
  5
4A3
100
AcDbEntity
  8
RACCORDO
100
AcDbEllipse
 62
7
  6
CONTINUOUS
 10
39.8899436635
 20
3.2251006478
 30
0.0
 11
0.0
 21
0.3
 31
0.0
 40
0.0524077793
 41
0.0872664626
 42
1.5707963268
  0
ELLIPSE
  5
4A4
100
AcDbEntity
  8
RACCORDO
100
AcDbEllipse
 62
7
  6
CONTINUOUS
 10
39.8899436635
 20
-3.2251006478
 30
0.0
 11
0.0
 21
0.3
 31
0.0
 40
0.0524077793
 41
-4.7123889804
 42
-3.2288591162
  0
ENDSEC
  0
SECTION
  2
OBJECTS
  0
DICTIONARY
  5
C
100
AcDbDictionary
280
0
281
1
  3
ACAD_GROUP
350
D
  3
ACAD_MLINESTYLE
350
17
  3
ACAD_LAYOUT
350
1A
  3
ACAD_PLOTSETTINGS
350
19
  3
ACAD_PLOTSTYLENAME
350
E
  0
DICTIONARY
  5
D
102
{ACAD_REACTORS
330
C
102
}
100
AcDbDictionary
280
0
281
1
  0
ACDBDICTIONARYWDFLT
  5
E
102
{ACAD_REACTORS
330
C
102
}
100
AcDbDictionary
281
1
  3
Normal
350
F
100
AcDbDictionaryWithDefault
340
F
  0
DICTIONARY
  5
17
102
{ACAD_REACTORS
330
C
102
}
100
AcDbDictionary
280
0
281
1
  3
Standard
350
18
  0
DICTIONARY
  5
19
102
{ACAD_REACTORS
330
C
102
}
100
AcDbDictionary
281
1
  0
DICTIONARY
  5
1A
102
{ACAD_REACTORS
330
C
102
}
100
AcDbDictionary
281
1
  3
Model
350
4A5
  3
Layout1
350
4A6
  0
ACDBPLACEHOLDER
  5
F
102
{ACAD_REACTORS
330
E
102
}
  0
MLINESTYLE
  5
18
102
{ACAD_REACTORS
330
17
102
}
100
AcDbMlineStyle
  2
STANDARD
 70
0
  3

 62
256
 51
90.0
 52
90.0
 71
2
 49
0.5
 62
256
  6
BYLAYER
 49
-0.5
 62
256
  6
BYLAYER
  0
LAYOUT
  5
4A5
102
{ACAD_REACTORS
330
1A
102
}
100
AcDbPlotSettings
  1

  2
none_device
  4
ISO_A4_(297.00_x_210.00_MM)
  6

 40
0.0
 41
0.0
 42
0.0
 43
0.0
 44
297.0
 45
210.0
 46
0.0
 47
0.0
 48
0.0
 49
0.0
140
0.0
141
0.0
142
1.0
143
1.0
 70
1024
 72
1
 73
0
 74
0
  7

 75
0
147
1.0
148
0.0
149
0.0
100
AcDbLayout
  1
Model
 70
0
 71
0
 10
0.0
 20
0.0
 11
297.0
 21
210.0
 12
0.0
 22
0.0
 32
0.0
 14
0.0
 24
0.0
 34
0.0
 15
0.0
 25
0.0
 35
0.0
146
0.0
 13
0.0
 23
0.0
 33
0.0
 16
1.0
 26
0.0
 36
0.0
 17
0.0
 27
1.0
 37
0.0
 76
0
330
21D
345
0
346
0
  0
LAYOUT
  5
4A6
102
{ACAD_REACTORS
330
1A
102
}
100
AcDbPlotSettings
  1

  2
none_device
  4
ISO_A4_(297.00_x_210.00_MM)
  6

 40
0.0
 41
0.0
 42
0.0
 43
0.0
 44
297.0
 45
210.0
 46
0.0
 47
0.0
 48
0.0
 49
0.0
140
0.0
141
0.0
142
1.0
143
1.0
 70
0
 72
1
 73
0
 74
0
  7

 75
0
147
1.0
148
0.0
149
0.0
100
AcDbLayout
  1
Layout1
 70
0
 71
1
 10
0.0
 20
0.0
 11
297.0
 21
210.0
 12
0.0
 22
0.0
 32
0.0
 14
0.0
 24
0.0
 34
0.0
 15
0.0
 25
0.0
 35
0.0
146
0.0
 13
0.0
 23
0.0
 33
0.0
 16
1.0
 26
0.0
 36
0.0
 17
0.0
 27
1.0
 37
0.0
 76
0
330
21E
345
0
346
0
  0
ENDSEC
  0
EOF
