  0
SECTION
  2
HEADER
  9
$ACADVER
  1
AC1024
  9
$DWGCODEPAGE
  3
ANSI_1252
  9
$EXTMAX
 10
297.0
 20
210.0
 30
0.0
  9
$EXTMIN
 10
0.0
 20
0.0
 30
0.0
  9
$LIMMIN
 10
0.0
 20
0.0
  9
$LIMMAX
 10
297.0
 20
210.0
  9
$VIEWCTR
 10
148.5
 20
105.0
  9
$VIEWSIZE
 40
210.0
  9
$CLAYER
  8
0
  9
$LTSCALE
 40
16.335
  9
$CELTYPE
  6
BYLAYER
  9
$DIMSCALE
 40
1.0
  9
$DIMASZ
 40
3.0
  9
$DIMEXO
 40
0.5
  9
$DIMDLI
 40
11.286
  9
$DIMEXE
 40
1.5
  9
$DIMCEN
 40
2.673
  9
$DIMLFAC
 40
1.0
  9
$DIMBLK
  1
_FILLED
  9
$DIMALT
 70
0
  9
$DIMALTF
 40
0.0393700787
  9
$DIMTXT
 40
3.0
  9
$DIMTOL
 70
1
  9
$DIMLIM
 70
0
  9
$DIMTFAC
 40
1.0
  9
$DIMTP
 40
0.01
  9
$DIMTM
 40
0.01
  9
$DIMGAP
 40
0.625
  9
$DIMDSEP
 70
44
  9
$AUNITS
 70
0
  9
$PDMODE
 70
3
  9
$PDSIZE
 40
3.0
  9
$HANDSEED
  5
7ED
  9
$TILEMODE
 70
1
  9
$MEASUREMENT
 70
1
  9
$INSUNITS
 70
4
  0
ENDSEC
  0
SECTION
  2
CLASSES
  0
CLASS
  1
ACDBDICTIONARYWDFLT
  2
AcDbDictionaryWithDefault
  3
AutoCAD 2000
 90
0
 91
1
280
0
281
0
  0
CLASS
  1
ACDBPLACEHOLDER
  2
AcDbPlaceHolder
  3
AutoCAD 2000
 90
0
 91
1
280
0
281
0
  0
CLASS
  1
LAYOUT
  2
AcDbLayout
  3
AutoCAD 2000
 90
0
 91
0
280
0
281
0
  0
ENDSEC
  0
SECTION
  2
TABLES
  0
TABLE
  2
VPORT
  5
8
100
AcDbSymbolTable
 70
2
  0
VPORT
  5
1F4
100
AcDbSymbolTableRecord
100
AcDbViewportTableRecord
  2
*ACTIVE
 70
0
 10
0.0
 20
0.0
 11
1.0
 21
1.0
 12
148.5
 22
105.0
 13
0.0
 23
0.0
 14
1.0
 24
1.0
 15
0.0
 25
0.0
 16
0.0
 26
0.0
 36
1.0
 17
0.0
 27
0.0
 37
0.0
 40
210.0
 41
1.4142857143
 42
50.0
 43
0.0
 44
0.0
 50
0.0
 51
0.0
 71
0
 72
100
 73
1
 74
1
 75
0
 76
0
 77
0
 78
0
  0
ENDTAB
  0
TABLE
  2
LTYPE
  5
5
100
AcDbSymbolTable
 70
6
  0
LTYPE
  5
14
100
AcDbSymbolTableRecord
100
AcDbLinetypeTableRecord
  2
BYBLOCK
 70
0
  3

 72
65
 73
0
 40
0.0
  0
LTYPE
  5
15
100
AcDbSymbolTableRecord
100
AcDbLinetypeTableRecord
  2
BYLAYER
 70
0
  3

 72
65
 73
0
 40
0.0
  0
LTYPE
  5
16
100
AcDbSymbolTableRecord
100
AcDbLinetypeTableRecord
  2
CONTINUOUS
 70
64
  3
Solid line
 72
65
 73
0
 40
0.0
  0
LTYPE
  5
1F5
100
AcDbSymbolTableRecord
100
AcDbLinetypeTableRecord
  2
CENTER
 70
64
  3
____ _ ____ _ ____ _ ____ _ ____ _ ____ _ ____
 72
65
 73
4
 40
0.6
 49
0.375
 74
0
 49
-0.075
 74
0
 49
0.075
 74
0
 49
-0.075
 74
0
  0
LTYPE
  5
1F6
100
AcDbSymbolTableRecord
100
AcDbLinetypeTableRecord
  2
HIDDEN
 70
64
  3
- - - - - - - - - - - - - - - - - - - -
 72
65
 73
2
 40
0.2
 49
0.1
 74
0
 49
-0.1
 74
0
  0
LTYPE
  5
1F7
100
AcDbSymbolTableRecord
100
AcDbLinetypeTableRecord
  2
PHANTOM
 70
64
  3
_____ _ _ _____ _ _ _____ _ _ _____
 72
65
 73
6
 40
0.8
 49
0.45
 74
0
 49
-0.05
 74
0
 49
0.1
 74
0
 49
-0.05
 74
0
 49
0.1
 74
0
 49
-0.05
 74
0
  0
LTYPE
  5
1F8
100
AcDbSymbolTableRecord
100
AcDbLinetypeTableRecord
  2
DOT
 70
64
  3
. . . . . . . . . . . . . . . . . . . .
 72
65
 73
2
 40
0.2
 49
0.1
 74
0
 49
-0.1
 74
0
  0
LTYPE
  5
1F9
100
AcDbSymbolTableRecord
100
AcDbLinetypeTableRecord
  2
DASHED
 70
64
  3
- - - - - - - - - - - - - - - - - - - -
 72
65
 73
2
 40
0.2
 49
0.1
 74
0
 49
-0.1
 74
0
  0
ENDTAB
  0
TABLE
  2
LAYER
  5
2
100
AcDbSymbolTable
 70
36
  0
LAYER
  5
10
100
AcDbSymbolTableRecord
100
AcDbLayerTableRecord
  2
0
 70
0
 62
7
  6
CONTINUOUS
370
-3
390
F
  0
LAYER
  5
1FA
100
AcDbSymbolTableRecord
100
AcDbLayerTableRecord
  2
DEFAULT_1
 70
0
 62
7
  6
CENTER
370
-3
390
F
  0
LAYER
  5
1FB
100
AcDbSymbolTableRecord
100
AcDbLayerTableRecord
  2
DEFAULT_2
 70
0
 62
7
  6
HIDDEN
370
-3
390
F
  0
LAYER
  5
1FC
100
AcDbSymbolTableRecord
100
AcDbLayerTableRecord
  2
DEFAULT_3
 70
0
 62
7
  6
PHANTOM
370
-3
390
F
  0
LAYER
  5
1FD
100
AcDbSymbolTableRecord
100
AcDbLayerTableRecord
  2
ASSI
 70
0
 62
7
  6
CONTINUOUS
370
-3
390
F
  0
LAYER
  5
1FE
100
AcDbSymbolTableRecord
100
AcDbLayerTableRecord
  2
COLOR16
 70
0
 62
7
  6
CONTINUOUS
370
-3
390
F
  0
LAYER
  5
1FF
100
AcDbSymbolTableRecord
100
AcDbLayerTableRecord
  2
COLOR5
 70
0
 62
7
  6
CONTINUOUS
370
-3
390
F
  0
LAYER
  5
200
100
AcDbSymbolTableRecord
100
AcDbLayerTableRecord
  2
COORDINATE
 70
0
 62
7
  6
CONTINUOUS
370
-3
390
F
  0
LAYER
  5
201
100
AcDbSymbolTableRecord
100
AcDbLayerTableRecord
  2
COORD_ORIGINE
 70
0
 62
7
  6
CONTINUOUS
370
-3
390
F
  0
LAYER
  5
202
100
AcDbSymbolTableRecord
100
AcDbLayerTableRecord
  2
COSMETICI
 70
0
 62
7
  6
CONTINUOUS
370
-3
390
F
  0
LAYER
  5
203
100
AcDbSymbolTableRecord
100
AcDbLayerTableRecord
  2
CURVE
 70
0
 62
7
  6
CONTINUOUS
370
-3
390
F
  0
LAYER
  5
204
100
AcDbSymbolTableRecord
100
AcDbLayerTableRecord
  2
DRAFT
 70
0
 62
7
  6
CONTINUOUS
370
-3
390
F
  0
LAYER
  5
205
100
AcDbSymbolTableRecord
100
AcDbLayerTableRecord
  2
IGES
 70
0
 62
7
  6
CONTINUOUS
370
-3
390
F
  0
LAYER
  5
206
100
AcDbSymbolTableRecord
100
AcDbLayerTableRecord
  2
INTF_1
 70
0
 62
7
  6
CONTINUOUS
370
-3
390
F
  0
LAYER
  5
207
100
AcDbSymbolTableRecord
100
AcDbLayerTableRecord
  2
INTF_7
 70
0
 62
7
  6
CONTINUOUS
370
-3
390
F
  0
LAYER
  5
208
100
AcDbSymbolTableRecord
100
AcDbLayerTableRecord
  2
INTF_RED
 70
0
 62
7
  6
CONTINUOUS
370
-3
390
F
  0
LAYER
  5
209
100
AcDbSymbolTableRecord
100
AcDbLayerTableRecord
  2
NOTE
 70
0
 62
7
  6
CONTINUOUS
370
-3
390
F
  0
LAYER
  5
20A
100
AcDbSymbolTableRecord
100
AcDbLayerTableRecord
  2
PIANI
 70
0
 62
7
  6
CONTINUOUS
370
-3
390
F
  0
LAYER
  5
20B
100
AcDbSymbolTableRecord
100
AcDbLayerTableRecord
  2
PIANI_ORIGINE
 70
0
 62
7
  6
CONTINUOUS
370
-3
390
F
  0
LAYER
  5
20C
100
AcDbSymbolTableRecord
100
AcDbLayerTableRecord
  2
PLACCA
 70
0
 62
7
  6
CONTINUOUS
370
-3
390
F
  0
LAYER
  5
20D
100
AcDbSymbolTableRecord
100
AcDbLayerTableRecord
  2
PUNTI
 70
0
 62
7
  6
CONTINUOUS
370
-3
390
F
  0
LAYER
  5
20E
100
AcDbSymbolTableRecord
100
AcDbLayerTableRecord
  2
RACCORDO
 70
0
 62
7
  6
CONTINUOUS
370
-3
390
F
  0
LAYER
  5
20F
100
AcDbSymbolTableRecord
100
AcDbLayerTableRecord
  2
RGB__255__255__255__
 70
0
 62
7
  6
CONTINUOUS
370
-3
390
F
  0
LAYER
  5
210
100
AcDbSymbolTableRecord
100
AcDbLayerTableRecord
  2
RGB____0____0____0__
 70
0
 62
7
  6
CONTINUOUS
370
-3
390
F
  0
LAYER
  5
211
100
AcDbSymbolTableRecord
100
AcDbLayerTableRecord
  2
SIMBOLI
 70
0
 62
7
  6
CONTINUOUS
370
-3
390
F
  0
LAYER
  5
212
100
AcDbSymbolTableRecord
100
AcDbLayerTableRecord
  2
SMUSSO
 70
0
 62
7
  6
CONTINUOUS
370
-3
390
F
  0
LAYER
  5
213
100
AcDbSymbolTableRecord
100
AcDbLayerTableRecord
  2
SNAPLINE
 70
0
 62
7
  6
CONTINUOUS
370
-3
390
F
  0
LAYER
  5
214
100
AcDbSymbolTableRecord
100
AcDbLayerTableRecord
  2
SUPERFICI
 70
0
 62
7
  6
CONTINUOUS
370
-3
390
F
  0
LAYER
  5
215
100
AcDbSymbolTableRecord
100
AcDbLayerTableRecord
  2
SUPPORTO
 70
0
 62
7
  6
CONTINUOUS
370
-3
390
F
  0
LAYER
  5
216
100
AcDbSymbolTableRecord
100
AcDbLayerTableRecord
  2
TEMP
 70
0
 62
7
  6
CONTINUOUS
370
-3
390
F
  0
LAYER
  5
217
100
AcDbSymbolTableRecord
100
AcDbLayerTableRecord
  2
TRASH
 70
0
 62
7
  6
CONTINUOUS
370
-3
390
F
  0
LAYER
  5
218
100
AcDbSymbolTableRecord
100
AcDbLayerTableRecord
  2
XSEC_DATUMS
 70
0
 62
7
  6
CONTINUOUS
370
-3
390
F
  0
ENDTAB
  0
TABLE
  2
STYLE
  5
3
100
AcDbSymbolTable
 70
1
  0
STYLE
  5
11
100
AcDbSymbolTableRecord
100
AcDbTextStyleTableRecord
  2
STANDARD
 70
0
 40
0.0
 41
0.8
 50
0.0
 71
0
 42
0.2
  3
txt
  4

  0
STYLE
  5
219
100
AcDbSymbolTableRecord
100
AcDbTextStyleTableRecord
  2
TEXTSTYLE_1
 70
0
 40
0.0
 41
0.8
 50
0.0
 71
0
 42
0.2
  3
gdt
  4

  0
ENDTAB
  0
TABLE
  2
VIEW
  5
6
100
AcDbSymbolTable
 70
0
  0
ENDTAB
  0
TABLE
  2
UCS
  5
7
100
AcDbSymbolTable
 70
0
  0
ENDTAB
  0
TABLE
  2
APPID
  5
9
100
AcDbSymbolTable
 70
1
  0
APPID
  5
21A
100
AcDbSymbolTableRecord
100
AcDbRegAppTableRecord
  2
ACAD
 70
0
  0
ENDTAB
  0
TABLE
  2
BLOCK_RECORD
  5
1
100
AcDbSymbolTable
 70
0
  0
BLOCK_RECORD
  5
21B
100
AcDbSymbolTableRecord
100
AcDbBlockTableRecord
  2
*Model_Space
  0
BLOCK_RECORD
  5
21C
100
AcDbSymbolTableRecord
100
AcDbBlockTableRecord
  2
*Paper_Space
  0
BLOCK_RECORD
  5
21D
100
AcDbSymbolTableRecord
100
AcDbBlockTableRecord
  2
_FILLED
  0
BLOCK_RECORD
  5
21E
100
AcDbSymbolTableRecord
100
AcDbBlockTableRecord
  2
*D0
  0
BLOCK_RECORD
  5
21F
100
AcDbSymbolTableRecord
100
AcDbBlockTableRecord
  2
*D1
  0
BLOCK_RECORD
  5
220
100
AcDbSymbolTableRecord
100
AcDbBlockTableRecord
  2
*D2
  0
ENDTAB
  0
TABLE
  2
DIMSTYLE
  5
A
100
AcDbSymbolTable
 70
1
100
AcDbDimStyleTable
 71
0
  0
DIMSTYLE
105
221
100
AcDbSymbolTableRecord
100
AcDbDimStyleTableRecord
  2
STANDARD
 70
0
  3

  4

 40
1.0
 41
3.0
 42
0.5
 43
0.38
 44
1.5
 45
0.0
 46
0.0
 47
0.01
 48
0.01
140
3.0
141
0.09
142
0.0
143
25.4
144
1.0
145
0.0
146
1.0
147
0.625
 71
1
 72
0
 73
0
 74
0
 75
0
 76
0
 77
1
 78
8
 79
2
170
0
171
1
172
0
173
0
174
0
175
0
176
0
177
0
178
0
270
2
179
2
271
2
272
2
273
2
274
2
275
0
280
0
281
0
282
0
283
1
284
8
285
0
286
0
287
3
288
0
340
11
278
44
341
21D
342
21D
343
21D
344
21D
  0
DIMSTYLE
105
222
100
AcDbSymbolTableRecord
100
AcDbDimStyleTableRecord
  2
DIMSTYLE_1
 70
0
  3

  4

 40
1.0
 41
3.0
 42
0.5
 43
0.38
 44
1.5
 45
0.0
 46
0.0
 47
0.0
 48
0.0
140
3.0
141
0.09
142
0.0
143
25.4
144
1.0
145
0.0
146
1.0
147
0.75
 71
0
 72
0
 73
0
 74
0
 75
0
 76
0
 77
1
 78
8
 79
2
170
0
171
1
172
0
173
0
174
0
175
0
176
0
177
0
178
0
270
2
179
2
271
2
272
2
273
2
274
2
275
0
280
0
281
0
282
0
283
1
284
8
285
0
286
0
287
3
288
0
340
11
278
44
341
21D
342
21D
343
21D
344
21D
  0
ENDTAB
  0
ENDSEC
  0
SECTION
  2
BLOCKS
  0
BLOCK
  5
20
100
AcDbEntity
  8
0
100
AcDbBlockBegin
  2
*Model_Space
 70
0
 10
0.0
 20
0.0
 30
0.0
  3
*Model_Space
  1

  0
ENDBLK
  5
21
100
AcDbEntity
  8
0
100
AcDbBlockEnd
  0
BLOCK
  5
1C
100
AcDbEntity
  8
0
100
AcDbBlockBegin
  2
*Paper_Space
 70
0
 10
0.0
 20
0.0
 30
0.0
  3
*Paper_Space
  1

  0
ENDBLK
  5
1D
100
AcDbEntity
  8
0
100
AcDbBlockEnd
  0
BLOCK
  5
223
100
AcDbEntity
  8
0
100
AcDbBlockBegin
  2
_FILLED
 70
64
 10
0.0
 20
0.0
  3
_FILLED
  1

  0
SOLID
  5
224
100
AcDbEntity
  8
0
  6
BYBLOCK
 62
0
100
AcDbTrace
 10
0.0
 20
0.0
 11
-1.0
 21
0.3166666667
 12
-1.0
 22
-0.3166666667
 13
-1.0
 23
-0.3166666667
  0
ENDBLK
  5
225
100
AcDbEntity
  8
0
  6
BYBLOCK
 62
0
100
AcDbBlockEnd
  0
BLOCK
  5
226
100
AcDbEntity
  8
0
100
AcDbBlockBegin
 62
7
  6
CONTINUOUS
  2
*D0
 70
65
 10
0.0
 20
0.0
  3
*D0
  1

  0
LINE
  5
227
100
AcDbEntity
  8
0
100
AcDbLine
 62
7
  6
CONTINUOUS
 10
-40.0
 20
37.5000000002
 11
-40.0
 21
50.5658076655
  0
LINE
  5
228
100
AcDbEntity
  8
0
100
AcDbLine
 62
7
  6
CONTINUOUS
 10
40.0
 20
37.5000000002
 11
40.0
 21
50.5658076655
  0
LINE
  5
229
100
AcDbEntity
  8
0
100
AcDbLine
 62
7
  6
CONTINUOUS
 10
-40.0
 20
49.0658076655
 11
0.0
 21
49.0658076655
  0
LINE
  5
22A
100
AcDbEntity
  8
0
100
AcDbLine
 62
7
  6
CONTINUOUS
 10
40.0
 20
49.0658076655
 11
0.0
 21
49.0658076655
  0
INSERT
  5
22B
100
AcDbEntity
  8
0
100
AcDbBlockReference
 62
7
  6
CONTINUOUS
  2
_FILLED
 10
-40.0
 20
49.0658076655
 41
3.0
 42
3.0
 43
3.0
 50
180.0
  0
INSERT
  5
22C
100
AcDbEntity
  8
0
100
AcDbBlockReference
 62
7
  6
CONTINUOUS
  2
_FILLED
 10
40.0
 20
49.0658076655
 41
3.0
 42
3.0
 43
3.0
  0
ENDBLK
  5
22D
100
AcDbEntity
  8
0
  6
BYBLOCK
 62
0
100
AcDbBlockEnd
  0
BLOCK
  5
22E
100
AcDbEntity
  8
0
100
AcDbBlockBegin
 62
7
  6
CONTINUOUS
  2
*D1
 70
65
 10
0.0
 20
0.0
  3
*D1
  1

  0
LINE
  5
22F
100
AcDbEntity
  8
0
100
AcDbLine
 62
7
  6
CONTINUOUS
 10
-66.4596458969
 20
23.9995925347
 11
-66.4596458969
 21
50.5658076655
  0
LINE
  5
230
100
AcDbEntity
  8
0
100
AcDbLine
 62
7
  6
CONTINUOUS
 10
-57.2596455814
 20
39.5091092099
 11
-57.2596455814
 21
50.5658076655
  0
LINE
  5
231
100
AcDbEntity
  8
0
100
AcDbLine
 62
7
  6
CONTINUOUS
 10
-66.4596458969
 20
49.0658076655
 11
-70.4596458969
 21
49.0658076655
  0
LINE
  5
232
100
AcDbEntity
  8
0
100
AcDbLine
 62
7
  6
CONTINUOUS
 10
-70.4596458969
 20
49.0658076655
 11
-61.8596457391
 21
49.0658076655
  0
LINE
  5
233
100
AcDbEntity
  8
0
100
AcDbLine
 62
7
  6
CONTINUOUS
 10
-57.2596455814
 20
49.0658076655
 11
-53.2596455814
 21
49.0658076655
  0
LINE
  5
234
100
AcDbEntity
  8
0
100
AcDbLine
 62
7
  6
CONTINUOUS
 10
-53.2596455814
 20
49.0658076655
 11
-61.8596457391
 21
49.0658076655
  0
INSERT
  5
235
100
AcDbEntity
  8
0
100
AcDbBlockReference
 62
7
  6
CONTINUOUS
  2
_FILLED
 10
-66.4596458969
 20
49.0658076655
 41
3.0
 42
3.0
 43
3.0
  0
INSERT
  5
236
100
AcDbEntity
  8
0
100
AcDbBlockReference
 62
7
  6
CONTINUOUS
  2
_FILLED
 10
-57.2596455814
 20
49.0658076655
 41
3.0
 42
3.0
 43
3.0
 50
180.0
  0
ENDBLK
  5
237
100
AcDbEntity
  8
0
  6
BYBLOCK
 62
0
100
AcDbBlockEnd
  0
BLOCK
  5
238
100
AcDbEntity
  8
0
100
AcDbBlockBegin
 62
7
  6
CONTINUOUS
  2
*D2
 70
65
 10
0.0
 20
0.0
  3
*D2
  1

  0
LINE
  5
239
100
AcDbEntity
  8
0
100
AcDbLine
 62
7
  6
CONTINUOUS
 10
-57.9596455814
 20
40.0
 11
-75.9596458969
 21
40.0
  0
LINE
  5
23A
100
AcDbEntity
  8
0
100
AcDbLine
 62
7
  6
CONTINUOUS
 10
-57.9596455814
 20
-40.0
 11
-75.9596458969
 21
-40.0
  0
LINE
  5
23B
100
AcDbEntity
  8
0
100
AcDbLine
 62
7
  6
CONTINUOUS
 10
-74.4596458969
 20
40.0
 11
-74.4596458969
 21
0.0
  0
LINE
  5
23C
100
AcDbEntity
  8
0
100
AcDbLine
 62
7
  6
CONTINUOUS
 10
-74.4596458969
 20
-40.0
 11
-74.4596458969
 21
0.0
  0
INSERT
  5
23D
100
AcDbEntity
  8
0
100
AcDbBlockReference
 62
7
  6
CONTINUOUS
  2
_FILLED
 10
-74.4596458969
 20
40.0
 41
3.0
 42
3.0
 43
3.0
 50
90.0
  0
INSERT
  5
23E
100
AcDbEntity
  8
0
100
AcDbBlockReference
 62
7
  6
CONTINUOUS
  2
_FILLED
 10
-74.4596458969
 20
-40.0
 41
3.0
 42
3.0
 43
3.0
 50
270.0
  0
ENDBLK
  5
23F
100
AcDbEntity
  8
0
  6
BYBLOCK
 62
0
100
AcDbBlockEnd
  0
ENDSEC
  0
SECTION
  2
ENTITIES
  0
DIMENSION
  5
240
100
AcDbEntity
  8
0
100
AcDbDimension
 62
7
  6
CONTINUOUS
  2
*D0
 10
40.0
 20
49.0658076655
 11
-2.3571428571
 21
49.0658076655
 70
160
 71
2
 72
2
 41
0.9
 42
80.0
  3
DIMSTYLE_1
100
AcDbAlignedDimension
 13
-40.0
 23
37.0000000002
 14
40.0
 24
37.0000000002
100
AcDbRotatedDimension
  0
DIMENSION
  5
241
100
AcDbEntity
  8
0
100
AcDbDimension
 62
7
  6
CONTINUOUS
  2
*D1
 10
-57.2596455814
 20
49.0658076655
 11
-65.0739314534
 21
49.0658076655
 70
160
 71
2
 72
2
 41
0.9
 42
9.2000003155
  3
DIMSTYLE_1
100
AcDbAlignedDimension
 13
-66.4596458969
 23
23.4995925347
 14
-57.2596455814
 24
39.0091092099
100
AcDbRotatedDimension
  0
DIMENSION
  5
242
100
AcDbEntity
  8
0
100
AcDbDimension
 62
7
  6
CONTINUOUS
  2
*D2
 10
-74.4596458969
 20
-40.0
 11
-74.4596458969
 21
-2.3571428571
 70
160
 71
2
 72
2
 41
0.9
 42
80.0
  3
DIMSTYLE_1
100
AcDbAlignedDimension
 13
-57.4596455814
 23
40.0
 14
-57.4596455814
 24
-40.0
 50
270.0
100
AcDbRotatedDimension
  0
LWPOLYLINE
  5
243
100
AcDbEntity
  8
SUPERFICI
100
AcDbPolyline
 62
250
  6
CONTINUOUS
 90
13
 70
0
 10
-37.0
 20
39.7689897085
 10
-37.0052041912
 20
39.7563744438
 10
-37.0103394827
 20
39.7307062135
 10
-37.0153378885
 20
39.6923248164
 10
-37.0201332345
 20
39.6417383495
 10
-37.0246620352
 20
39.5796164822
 10
-37.0288643333
 20
39.5067815903
 10
-37.0326844941
 20
39.4241978702
 10
-37.0360719416
 20
39.3329585741
 10
-37.0389818279
 20
39.2342715377
 10
-37.0413756275
 20
39.1294431909
 10
-37.0432216467
 20
39.0198612626
 10
-37.0444954435
 20
38.9069764105
  0
LWPOLYLINE
  5
244
100
AcDbEntity
  8
SUPERFICI
100
AcDbPolyline
 62
250
  6
CONTINUOUS
 90
13
 70
0
 10
-39.7693588419
 20
37.0
 10
-39.7566970084
 20
37.0044482391
 10
-39.7309220601
 20
37.0088373177
 10
-39.6923767971
 20
37.0131088623
 10
-39.6415738613
 20
37.0172060624
 10
-39.5791889188
 20
37.0210744262
 10
-39.506051673
 20
37.0246625056
 10
-39.4231348304
 20
37.0279225801
 10
-39.3315411635
 20
37.0308112915
 10
-39.2324888442
 20
37.0332902206
 10
-39.1272952429
 20
37.0353263984
 10
-39.017359407
 20
37.0368927443
 10
-38.9041434548
 20
37.0379684263
  0
LWPOLYLINE
  5
245
100
AcDbEntity
  8
SUPERFICI
100
AcDbPolyline
 62
250
  6
CONTINUOUS
 90
13
 70
0
 10
-39.7693588487
 20
-37.0
 10
-39.7566970083
 20
-37.0044481434
 10
-39.730922054
 20
-37.0088371322
 10
-39.6923767863
 20
-37.0131085967
 10
-39.641573847
 20
-37.0172057303
 10
-39.5791889021
 20
-37.0210740449
 10
-39.5060516552
 20
-37.0246620957
 10
-39.4231348125
 20
-37.0279221652
 10
-39.3315411465
 20
-37.0308108981
 10
-39.2324888291
 20
-37.0332898775
 10
-39.1272952304
 20
-37.0353261365
 10
-39.017359398
 20
-37.0368925959
 10
-38.9041434496
 20
-37.0379684249
  0
LWPOLYLINE
  5
246
100
AcDbEntity
  8
SUPERFICI
100
AcDbPolyline
 62
250
  6
CONTINUOUS
 90
13
 70
0
 10
-37.0
 20
-39.7689896843
 10
-37.0052040326
 20
-39.7563742479
 10
-37.0103391739
 20
-39.7307058749
 10
-37.0153374443
 20
-39.6923243653
 10
-37.0201326764
 20
-39.6417378168
 10
-37.0246613904
 20
-39.5796158983
 10
-37.0288636349
 20
-39.5067809848
 10
-37.0326837803
 20
-39.4241972712
 10
-37.036071255
 20
-39.3329580074
 10
-37.0389812156
 20
-39.2342710264
 10
-37.0413751395
 20
-39.1294427547
 10
-37.0432213359
 20
-39.0198609177
 10
-37.0444953648
 20
-38.9069761689
  0
LINE
  5
247
100
AcDbEntity
  8
SUPERFICI
100
AcDbLine
 62
250
  6
CONTINUOUS
 10
-38.9248277854
 20
-36.4805438572
 11
-38.9302129845
 21
-36.3795723071
  0
LINE
  5
248
100
AcDbEntity
  8
SUPERFICI
100
AcDbLine
 62
250
  6
CONTINUOUS
 10
-38.9200884019
 20
-36.586726312
 11
-38.9248277854
 21
-36.4805438572
  0
LWPOLYLINE
  5
249
100
AcDbEntity
  8
SUPERFICI
100
AcDbPolyline
 62
250
  6
CONTINUOUS
 90
3
 70
0
 10
-38.9302129845
 20
-36.3795723071
 10
-38.9323809247
 20
-36.3297044139
 10
-38.9336599499
 20
-36.279832093
  0
LINE
  5
24A
100
AcDbEntity
  8
SUPERFICI
100
AcDbLine
 62
250
  6
CONTINUOUS
 10
-38.9131895708
 20
-36.7637212662
 11
-38.9200884019
 21
-36.586726312
  0
LWPOLYLINE
  5
24B
100
AcDbEntity
  8
SUPERFICI
100
AcDbPolyline
 62
250
  6
CONTINUOUS
 90
3
 70
0
 10
-38.9041434496
 20
-37.0379684249
 10
-38.9063927548
 20
-36.96527739
 10
-38.9131895708
 20
-36.7637212662
  0
LINE
  5
24C
100
AcDbEntity
  8
SUPERFICI
100
AcDbLine
 62
250
  6
CONTINUOUS
 10
-38.9336599499
 20
-36.279832093
 11
-38.9349546348
 21
-36.1805674245
  0
LINE
  5
24D
100
AcDbEntity
  8
SUPERFICI
100
AcDbLine
 62
250
  6
CONTINUOUS
 10
-38.9423725586
 20
-35.255728274
 11
-38.9429782092
 21
-35.1789581038
  0
LWPOLYLINE
  5
24E
100
AcDbEntity
  8
SUPERFICI
100
AcDbPolyline
 62
250
  6
CONTINUOUS
 90
3
 70
0
 10
-38.9385503076
 20
-35.7356841349
 10
-38.939042729
 20
-35.6728622459
 10
-38.9423725586
 20
-35.255728274
  0
LWPOLYLINE
  5
24F
100
AcDbEntity
  8
SUPERFICI
100
AcDbPolyline
 62
250
  6
CONTINUOUS
 90
5
 70
0
 10
-38.9429782092
 20
-35.1789581038
 10
-38.9442312782
 20
-35.0187641047
 10
-38.9448812515
 20
-34.9351673562
 10
-38.9455465222
 20
-34.8492368304
 10
-38.9462275797
 20
-34.7607991386
  0
LWPOLYLINE
  5
250
100
AcDbEntity
  8
SUPERFICI
100
AcDbPolyline
 62
250
  6
CONTINUOUS
 90
4
 70
0
 10
-38.9462275797
 20
-34.7607991386
 10
-38.9476374676
 20
-34.5764166745
 10
-38.9483660933
 20
-34.4802703834
 10
-38.9491105045
 20
-34.381435313
  0
LWPOLYLINE
  5
251
100
AcDbEntity
  8
SUPERFICI
100
AcDbPolyline
 62
250
  6
CONTINUOUS
 90
3
 70
0
 10
-38.9491105045
 20
-34.381435313
 10
-38.950646732
 20
-34.1754278918
 10
-38.9514386402
 20
-34.0680280402
  0
LWPOLYLINE
  5
252
100
AcDbEntity
  8
SUPERFICI
100
AcDbPolyline
 62
250
  6
CONTINUOUS
 90
3
 70
0
 10
-38.9514386402
 20
-34.0680280402
 10
-38.9530696654
 20
-33.8441765417
 10
-38.9539086942
 20
-33.7274771654
  0
LINE
  5
253
100
AcDbEntity
  8
SUPERFICI
100
AcDbLine
 62
250
  6
CONTINUOUS
 10
-38.9539086942
 20
-33.7274771654
 11
-38.9556327671
 21
-33.484277268
  0
LINE
  5
254
100
AcDbEntity
  8
SUPERFICI
100
AcDbLine
 62
250
  6
CONTINUOUS
 10
-38.9556327671
 20
-33.484277268
 11
-38.9574171749
 21
-33.2272525972
  0
LINE
  5
255
100
AcDbEntity
  8
SUPERFICI
100
AcDbLine
 62
250
  6
CONTINUOUS
 10
-38.9574171749
 20
-33.2272525972
 11
-38.9592550447
 21
-32.9560716094
  0
LINE
  5
256
100
AcDbEntity
  8
SUPERFICI
100
AcDbLine
 62
250
  6
CONTINUOUS
 10
-38.9592550447
 20
-32.9560716094
 11
-38.961140858
 21
-32.6706167005
  0
LINE
  5
257
100
AcDbEntity
  8
SUPERFICI
100
AcDbLine
 62
250
  6
CONTINUOUS
 10
-38.961140858
 20
-32.6706167005
 11
-38.9630628975
 21
-32.3711236595
  0
LINE
  5
258
100
AcDbEntity
  8
SUPERFICI
100
AcDbLine
 62
250
  6
CONTINUOUS
 10
-38.9349546348
 20
-36.1805674245
 11
-38.9385503076
 21
-35.7356841349
  0
LINE
  5
259
100
AcDbEntity
  8
SUPERFICI
100
AcDbLine
 62
250
  6
CONTINUOUS
 10
-38.9630628975
 20
-32.3711236595
 11
-38.9660007484
 21
-31.8938818649
  0
LINE
  5
25A
100
AcDbEntity
  8
SUPERFICI
100
AcDbLine
 62
250
  6
CONTINUOUS
 10
-38.9660007484
 20
-31.8938818649
 11
-38.968990006
 21
-31.379645868
  0
LINE
  5
25B
100
AcDbEntity
  8
SUPERFICI
100
AcDbLine
 62
250
  6
CONTINUOUS
 10
-38.968990006
 20
-31.379645868
 11
-38.9730146225
 21
-30.6290022984
  0
LINE
  5
25C
100
AcDbEntity
  8
SUPERFICI
100
AcDbLine
 62
250
  6
CONTINUOUS
 10
-38.9730146225
 20
-30.6290022984
 11
-38.9770067008
 21
-29.7954567633
  0
LINE
  5
25D
100
AcDbEntity
  8
SUPERFICI
100
AcDbLine
 62
250
  6
CONTINUOUS
 10
-38.9770067008
 20
-29.7954567633
 11
-38.9808339464
 21
-28.8760842253
  0
LINE
  5
25E
100
AcDbEntity
  8
SUPERFICI
100
AcDbLine
 62
250
  6
CONTINUOUS
 10
-38.9808339464
 20
-28.8760842253
 11
-38.9843515107
 21
-27.8695817091
  0
LWPOLYLINE
  5
25F
100
AcDbEntity
  8
SUPERFICI
100
AcDbPolyline
 62
250
  6
CONTINUOUS
 90
3
 70
0
 10
-38.9843515107
 20
-27.8695817091
 10
-38.9867365557
 20
-27.0489302976
 10
-38.9874764221
 20
-26.7611733243
  0
LINE
  5
260
100
AcDbEntity
  8
SUPERFICI
100
AcDbLine
 62
250
  6
CONTINUOUS
 10
-38.9874764221
 20
-26.7611733243
 11
-38.9895210955
 21
-25.851835891
  0
LINE
  5
261
100
AcDbEntity
  8
SUPERFICI
100
AcDbLine
 62
250
  6
CONTINUOUS
 10
-38.9895210955
 20
-25.851835891
 11
-38.991290938
 21
-24.8670516408
  0
LINE
  5
262
100
AcDbEntity
  8
SUPERFICI
100
AcDbLine
 62
250
  6
CONTINUOUS
 10
-38.991290938
 20
-24.8670516408
 11
-38.9927995426
 21
-23.7999692012
  0
LINE
  5
263
100
AcDbEntity
  8
SUPERFICI
100
AcDbLine
 62
250
  6
CONTINUOUS
 10
-38.9927995426
 20
-23.7999692012
 11
-38.9936864167
 21
-23.0400754646
  0
LWPOLYLINE
  5
264
100
AcDbEntity
  8
SUPERFICI
100
AcDbPolyline
 62
250
  6
CONTINUOUS
 90
3
 70
0
 10
-38.9936864167
 20
-23.0400754646
 10
-38.9945136204
 20
-22.2393974316
 10
-38.9948978756
 20
-21.8230931298
  0
LINE
  5
265
100
AcDbEntity
  8
SUPERFICI
100
AcDbLine
 62
250
  6
CONTINUOUS
 10
-38.9948978756
 20
-21.8230931298
 11
-38.9956047279
 21
-20.9579920208
  0
LWPOLYLINE
  5
266
100
AcDbEntity
  8
SUPERFICI
100
AcDbPolyline
 62
250
  6
CONTINUOUS
 90
3
 70
0
 10
-38.9956047279
 20
-20.9579920208
 10
-38.9962132685
 20
-20.0470375441
 10
-38.9964788758
 20
-19.5740657788
  0
LINE
  5
267
100
AcDbEntity
  8
SUPERFICI
100
AcDbLine
 62
250
  6
CONTINUOUS
 10
-39.7684552324
 20
36.2846382094
 11
-39.7693588487
 21
37.0
  0
LINE
  5
268
100
AcDbEntity
  8
SUPERFICI
100
AcDbLine
 62
250
  6
CONTINUOUS
 10
-38.9964788758
 20
-19.5740657788
 11
-38.9969213484
 21
-18.5904392624
  0
LINE
  5
269
100
AcDbEntity
  8
SUPERFICI
100
AcDbLine
 62
250
  6
CONTINUOUS
 10
-39.7670568829
 20
32.0134094676
 11
-39.7684552324
 21
36.2846382094
  0
LWPOLYLINE
  5
26A
100
AcDbEntity
  8
SUPERFICI
100
AcDbPolyline
 62
250
  6
CONTINUOUS
 90
3
 70
0
 10
-38.9969213484
 20
-18.5904392624
 10
-38.9972428655
 20
-17.5556504291
 10
-38.9973545288
 20
-17.0180608623
  0
LINE
  5
26B
100
AcDbEntity
  8
0
100
AcDbLine
 62
7
  6
CONTINUOUS
 10
-40.0
 20
-37.0000000002
 11
-40.0
 21
-3.7099727925
  0
LINE
  5
26C
100
AcDbEntity
  8
0
100
AcDbLine
 62
7
  6
CONTINUOUS
 10
-40.0
 20
3.7099727925
 11
-40.0
 21
37.0000000002
  0
LINE
  5
26D
100
AcDbEntity
  8
RACCORDO
100
AcDbLine
 62
7
  6
CONTINUOUS
 10
-39.8742213297
 20
2.2629529151
 11
-39.8742213297
 21
-2.2629529151
  0
LINE
  5
26E
100
AcDbEntity
  8
SUPERFICI
100
AcDbLine
 62
250
  6
CONTINUOUS
 10
-39.7659053989
 20
0.0000114261
 11
-39.7657802817
 21
20.0547697841
  0
LINE
  5
26F
100
AcDbEntity
  8
SUPERFICI
100
AcDbLine
 62
250
  6
CONTINUOUS
 10
-39.7657802817
 20
20.0547697841
 11
-39.766177986
 21
27.3136802697
  0
LINE
  5
270
100
AcDbEntity
  8
SUPERFICI
100
AcDbLine
 62
250
  6
CONTINUOUS
 10
-39.766177986
 20
27.3136802697
 11
-39.7670568829
 21
32.0134094676
  0
LWPOLYLINE
  5
271
100
AcDbEntity
  8
SUPERFICI
100
AcDbPolyline
 62
250
  6
CONTINUOUS
 90
3
 70
0
 10
-38.9973545288
 20
-17.0180608623
 10
-38.9974792398
 20
-15.9014530448
 10
-38.9974898159
 20
-15.3214648988
  0
LINE
  5
272
100
AcDbEntity
  8
SUPERFICI
100
AcDbLine
 62
250
  6
CONTINUOUS
 10
-38.9945073221
 20
-2.8526048423
 11
-38.9949004649
 21
-0.0
  0
LINE
  5
273
100
AcDbEntity
  8
SUPERFICI
100
AcDbLine
 62
250
  6
CONTINUOUS
 10
-38.9945169366
 20
3.0272779695
 11
-38.9968108364
 21
11.3312746901
  0
LINE
  5
274
100
AcDbEntity
  8
SUPERFICI
100
AcDbLine
 62
250
  6
CONTINUOUS
 10
-38.9968108364
 20
11.3312746901
 11
-38.9974375405
 21
16.4352197507
  0
LINE
  5
275
100
AcDbEntity
  8
SUPERFICI
100
AcDbLine
 62
250
  6
CONTINUOUS
 10
-38.994900465
 20
-0.0
 11
-38.9945169366
 21
3.0272779695
  0
LINE
  5
276
100
AcDbEntity
  8
SUPERFICI
100
AcDbLine
 62
250
  6
CONTINUOUS
 10
-38.9974898159
 20
-15.3214648988
 11
-38.9971975644
 21
-12.8506454849
  0
LWPOLYLINE
  5
277
100
AcDbEntity
  8
SUPERFICI
100
AcDbPolyline
 62
250
  6
CONTINUOUS
 90
3
 70
0
 10
-38.9971975644
 20
-12.8506454849
 10
-38.9959300804
 20
-8.6455449448
 10
-38.9945073221
 20
-2.8526048423
  0
LINE
  5
278
100
AcDbEntity
  8
SUPERFICI
100
AcDbLine
 62
250
  6
CONTINUOUS
 10
-39.7684722061
 20
-36.3208350001
 11
-39.7659053989
 21
0.0000114261
  0
LINE
  5
279
100
AcDbEntity
  8
SUPERFICI
100
AcDbLine
 62
250
  6
CONTINUOUS
 10
-38.9974375405
 20
16.4352197507
 11
-38.9967134334
 21
19.090635488
  0
LINE
  5
27A
100
AcDbEntity
  8
SUPERFICI
100
AcDbLine
 62
250
  6
CONTINUOUS
 10
-38.9967134334
 20
19.090635488
 11
-38.9952542466
 21
21.4069290519
  0
LINE
  5
27B
100
AcDbEntity
  8
SUPERFICI
100
AcDbLine
 62
250
  6
CONTINUOUS
 10
-39.7686117332
 20
-36.5144696026
 11
-39.7684722061
 21
-36.3208350001
  0
LINE
  5
27C
100
AcDbEntity
  8
SUPERFICI
100
AcDbLine
 62
250
  6
CONTINUOUS
 10
-38.9952542466
 20
21.4069290519
 11
-38.9932405621
 21
23.4320394919
  0
LINE
  5
27D
100
AcDbEntity
  8
SUPERFICI
100
AcDbLine
 62
250
  6
CONTINUOUS
 10
-39.7688054544
 20
-36.6762594979
 11
-39.7686117332
 21
-36.5144696026
  0
LINE
  5
27E
100
AcDbEntity
  8
SUPERFICI
100
AcDbLine
 62
250
  6
CONTINUOUS
 10
-38.9932405621
 20
23.4320394919
 11
-38.9912902343
 21
24.8674536715
  0
LWPOLYLINE
  5
27F
100
AcDbEntity
  8
SUPERFICI
100
AcDbPolyline
 62
250
  6
CONTINUOUS
 90
3
 70
0
 10
-39.7693588487
 20
-37.0
 10
-39.7692225302
 20
-36.9297725342
 10
-39.7688054544
 20
-36.6762594979
  0
LINE
  5
280
100
AcDbEntity
  8
SUPERFICI
100
AcDbLine
 62
250
  6
CONTINUOUS
 10
-38.9912902343
 20
24.8674536715
 11
-38.9888847733
 21
26.156026771
  0
LINE
  5
281
100
AcDbEntity
  8
SUPERFICI
100
AcDbLine
 62
250
  6
CONTINUOUS
 10
-38.9888847733
 20
26.156026771
 11
-38.9867676628
 21
27.0368803703
  0
LINE
  5
282
100
AcDbEntity
  8
SUPERFICI
100
AcDbLine
 62
250
  6
CONTINUOUS
 10
-38.9867676628
 20
27.0368803703
 11
-38.9844037675
 21
27.8528092303
  0
LINE
  5
283
100
AcDbEntity
  8
SUPERFICI
100
AcDbLine
 62
250
  6
CONTINUOUS
 10
-38.9844037675
 20
27.8528092303
 11
-38.9809201922
 21
28.8533800741
  0
LINE
  5
284
100
AcDbEntity
  8
SUPERFICI
100
AcDbLine
 62
250
  6
CONTINUOUS
 10
-38.9809201922
 20
28.8533800741
 11
-38.9771327539
 21
29.7676864551
  0
LINE
  5
285
100
AcDbEntity
  8
SUPERFICI
100
AcDbLine
 62
250
  6
CONTINUOUS
 10
-38.9771327539
 20
29.7676864551
 11
-38.9731765723
 21
30.5969981066
  0
LINE
  5
286
100
AcDbEntity
  8
SUPERFICI
100
AcDbLine
 62
250
  6
CONTINUOUS
 10
-38.9731765723
 20
30.5969981066
 11
-38.968197586
 21
31.5191230699
  0
LINE
  5
287
100
AcDbEntity
  8
SUPERFICI
100
AcDbLine
 62
250
  6
CONTINUOUS
 10
-38.968197586
 20
31.5191230699
 11
-38.962357282
 21
32.4821714198
  0
LINE
  5
288
100
AcDbEntity
  8
SUPERFICI
100
AcDbLine
 62
250
  6
CONTINUOUS
 10
-38.962357282
 20
32.4821714198
 11
-38.9542199111
 21
33.6840038999
  0
LINE
  5
289
100
AcDbEntity
  8
SUPERFICI
100
AcDbLine
 62
250
  6
CONTINUOUS
 10
-38.9542199111
 20
33.6840038999
 11
-38.9445604495
 21
34.9764884089
  0
LWPOLYLINE
  5
28A
100
AcDbEntity
  8
SUPERFICI
100
AcDbPolyline
 62
250
  6
CONTINUOUS
 90
6
 70
0
 10
-38.9445604495
 20
34.9764884089
 10
-38.942106346
 20
35.2893023142
 10
-38.9415244245
 20
35.362156177
 10
-38.9409553598
 20
35.4329196476
 10
-38.9404034012
 20
35.5017564078
 10
-38.9398709927
 20
35.5686658622
  0
LWPOLYLINE
  5
28B
100
AcDbEntity
  8
SUPERFICI
100
AcDbPolyline
 62
250
  6
CONTINUOUS
 90
46
 70
0
 10
-39.7693588487
 20
37.0
 10
-39.7688346108
 20
37.0575704889
 10
-39.7669085713
 20
37.1199824313
 10
-39.7632526158
 20
37.1871937569
 10
-39.7574920442
 20
37.2593940448
 10
-39.7492599929
 20
37.336253763
 10
-39.7382677917
 20
37.4169281901
 10
-39.7241653503
 20
37.5012955723
 10
-39.7065896624
 20
37.5892147755
 10
-39.6853469539
 20
37.6797955092
 10
-39.6601299354
 20
37.7728566236
 10
-39.6306289158
 20
37.868193281
 10
-39.5967897975
 20
37.9648795286
 10
-39.5583816301
 20
38.0626882198
 10
-39.515181457
 20
38.1613657356
 10
-39.4673120681
 20
38.2599725348
 10
-39.4146456602
 20
38.3582572455
 10
-39.357067709
 20
38.4559502675
 10
-39.2948970096
 20
38.5521445903
 10
-39.2281239329
 20
38.6465955257
 10
-39.1567472558
 20
38.7390586882
 10
-39.0812707791
 20
38.8287229555
 10
-39.0017910427
 20
38.9153957298
 10
-38.9184156518
 20
38.9988854745
 10
-38.8318207764
 20
39.0785111995
 10
-38.7421908108
 20
39.1541638614
 10
-38.6497185451
 20
39.225739186
 10
-38.5552231795
 20
39.2927200063
 10
-38.4589490511
 20
39.3551033453
 10
-38.3611387929
 20
39.4128961333
 10
-38.262706922
 20
39.4657708995
 10
-38.1639217238
 20
39.5138405577
 10
-38.0650365825
 20
39.5572298124
 10
-37.9670054009
 20
39.5958079798
 10
-37.8700837646
 20
39.6297975358
 10
-37.7744996423
 20
39.6594295704
 10
-37.6811929106
 20
39.6847547201
 10
-37.5903699314
 20
39.7060842628
 10
-37.5022133087
 20
39.723727106
 10
-37.4176276442
 20
39.7378766799
 10
-37.3367547457
 20
39.7488989964
 10
-37.2597177824
 20
39.7571469237
 10
-37.1873769043
 20
39.762911082
 10
-37.1200670697
 20
39.7665619169
 10
-37.0575940505
 20
39.7684777921
 10
-37.0
 20
39.7689897085
  0
LWPOLYLINE
  5
28C
100
AcDbEntity
  8
SUPERFICI
100
AcDbPolyline
 62
250
  6
CONTINUOUS
 90
7
 70
0
 10
-38.9398709927
 20
35.5686658622
 10
-38.934896645
 20
36.1942948095
 10
-38.9341949345
 20
36.2434370069
 10
-38.9332778279
 20
36.2922282014
 10
-38.9318587888
 20
36.3416068971
 10
-38.9296533549
 20
36.3911449895
 10
-38.9243123873
 20
36.4915022091
  0
LINE
  5
28D
100
AcDbEntity
  8
SUPERFICI
100
AcDbLine
 62
250
  6
CONTINUOUS
 10
-38.9129303482
 20
36.7709199277
 11
-38.9041434431
 21
37.037968423
  0
LWPOLYLINE
  5
28E
100
AcDbEntity
  8
SUPERFICI
100
AcDbPolyline
 62
250
  6
CONTINUOUS
 90
46
 70
0
 10
-38.9041434548
 20
37.0379684263
 10
-38.9026086385
 20
37.076050187
 10
-38.9000763462
 20
37.1173402826
 10
-38.8963367464
 20
37.1618109093
 10
-38.8911448428
 20
37.2095867759
 10
-38.8842726423
 20
37.2604511593
 10
-38.8755527986
 20
37.3138485061
 10
-38.8647618191
 20
37.3696998305
 10
-38.8516687133
 20
37.4279137964
 10
-38.836165686
 20
37.4879057342
 10
-38.8180554449
 20
37.5495599702
 10
-38.7971431356
 20
37.612743162
 10
-38.7734128903
 20
37.676843511
 10
-38.7467177021
 20
37.7417134843
 10
-38.7169166368
 20
37.8071916049
 10
-38.6841035663
 20
37.8726606549
 10
-38.6481934086
 20
37.9379602692
 10
-38.6091119548
 20
38.0029219885
 10
-38.5670756808
 20
38.0669526148
 10
-38.5220722217
 20
38.1298983775
 10
-38.474103126
 20
38.1916032348
 10
-38.4235101889
 20
38.2515278351
 10
-38.3703544893
 20
38.3095454894
 10
-38.3147020002
 20
38.3655396693
 10
-38.2569957389
 20
38.4190639451
 10
-38.1973456808
 20
38.4700516127
 10
-38.1358749069
 20
38.5184385128
 10
-38.0731254706
 20
38.563876267
 10
-38.0092519815
 20
38.6063606953
 10
-37.9444095196
 20
38.6458973388
 10
-37.8792005832
 20
38.6822587569
 10
-37.813795998
 20
38.7155144928
 10
-37.748355566
 20
38.7457472658
 10
-37.6835030928
 20
38.7728590289
 10
-37.619399607
 20
38.7969918859
 10
-37.5561931664
 20
38.818291693
 10
-37.4945059449
 20
38.8367688264
 10
-37.4344741619
 20
38.8526173916
 10
-37.3762160986
 20
38.8660327095
 10
-37.320326722
 20
38.8771187934
 10
-37.2668992751
 20
38.8861077095
 10
-37.2160134437
 20
38.8932244937
 10
-37.1682333523
 20
38.8986361267
 10
-37.1237789322
 20
38.9025726109
 10
-37.0825234369
 20
38.9052820205
 10
-37.0444953647
 20
38.9069761685
  0
LINE
  5
28F
100
AcDbEntity
  8
SUPERFICI
100
AcDbLine
 62
250
  6
CONTINUOUS
 10
-38.9196629791
 20
36.5967308685
 11
-38.9129303482
 21
36.7709199277
  0
LINE
  5
290
100
AcDbEntity
  8
SUPERFICI
100
AcDbLine
 62
250
  6
CONTINUOUS
 10
-38.9243123873
 20
36.4915022091
 11
-38.9196629791
 21
36.5967308685
  0
LWPOLYLINE
  5
291
100
AcDbEntity
  8
SUPERFICI
100
AcDbPolyline
 62
250
  6
CONTINUOUS
 90
7
 70
0
 10
36.6521158223
 20
-38.9224894189
 10
36.5781337304
 20
-38.9260662001
 10
36.5038409519
 20
-38.9304676075
 10
36.4291726916
 20
-38.9352268869
 10
36.3515833367
 20
-38.9392108691
 10
36.2708739785
 20
-38.9418611108
 10
36.188139209
 20
-38.9437313012
  0
LINE
  5
292
100
AcDbEntity
  8
SUPERFICI
100
AcDbLine
 62
250
  6
CONTINUOUS
 10
36.8015207704
 20
-38.9161311544
 11
36.6521158223
 21
-38.9224894189
  0
LWPOLYLINE
  5
293
100
AcDbEntity
  8
SUPERFICI
100
AcDbPolyline
 62
250
  6
CONTINUOUS
 90
3
 70
0
 10
37.0444954358
 20
-38.906976387
 10
36.961322444
 20
-38.9099398274
 10
36.8015207704
 20
-38.9161311544
  0
LWPOLYLINE
  5
294
100
AcDbEntity
  8
SUPERFICI
100
AcDbPolyline
 62
250
  6
CONTINUOUS
 90
3
 70
0
 10
36.188139209
 20
-38.9437313012
 10
36.0132016127
 20
-38.9468156299
 10
35.5112448779
 20
-38.9538850219
  0
LWPOLYLINE
  5
295
100
AcDbEntity
  8
SUPERFICI
100
AcDbPolyline
 62
250
  6
CONTINUOUS
 90
3
 70
0
 10
32.4819039084
 20
-39.0012848452
 10
32.2951922751
 20
-39.0043180018
 10
31.503786581
 20
-39.0171978978
  0
LINE
  5
296
100
AcDbEntity
  8
SUPERFICI
100
AcDbLine
 62
250
  6
CONTINUOUS
 10
31.503786581
 20
-39.0171978978
 11
31.2936969145
 21
-39.0206095594
  0
LWPOLYLINE
  5
297
100
AcDbEntity
  8
SUPERFICI
100
AcDbPolyline
 62
250
  6
CONTINUOUS
 90
3
 70
0
 10
31.2936969145
 20
-39.0206095594
 10
30.857886522
 20
-39.0276632058
 10
30.6310050163
 20
-39.0313152063
  0
LWPOLYLINE
  5
298
100
AcDbEntity
  8
SUPERFICI
100
AcDbPolyline
 62
250
  6
CONTINUOUS
 90
4
 70
0
 10
33.1874667882
 20
-38.9898869285
 10
33.0172770918
 20
-38.9926238664
 10
32.8429617901
 20
-38.9954364954
 10
32.4819039084
 20
-39.0012848452
  0
LINE
  5
299
100
AcDbEntity
  8
SUPERFICI
100
AcDbLine
 62
250
  6
CONTINUOUS
 10
30.6310050163
 20
-39.0313152063
 11
30.1582183806
 21
-39.0388826944
  0
LINE
  5
29A
100
AcDbEntity
  8
SUPERFICI
100
AcDbLine
 62
250
  6
CONTINUOUS
 10
33.5156362702
 20
-38.984637147
 11
33.1874667882
 21
-38.9898869285
  0
LINE
  5
29B
100
AcDbEntity
  8
SUPERFICI
100
AcDbLine
 62
250
  6
CONTINUOUS
 10
30.1582183806
 20
-39.0388826944
 11
29.6555343686
 21
-39.0468307815
  0
LWPOLYLINE
  5
29C
100
AcDbEntity
  8
SUPERFICI
100
AcDbPolyline
 62
250
  6
CONTINUOUS
 90
3
 70
0
 10
33.9781289483
 20
-38.9773170516
 10
33.827786788
 20
-38.9796860143
 10
33.5156362702
 20
-38.984637147
  0
LINE
  5
29D
100
AcDbEntity
  8
SUPERFICI
100
AcDbLine
 62
250
  6
CONTINUOUS
 10
34.267607447
 20
-38.9727883156
 11
33.9781289483
 21
-38.9773170516
  0
LINE
  5
29E
100
AcDbEntity
  8
SUPERFICI
100
AcDbLine
 62
250
  6
CONTINUOUS
 10
34.5428048226
 20
-38.9685239689
 11
34.267607447
 21
-38.9727883156
  0
LWPOLYLINE
  5
29F
100
AcDbEntity
  8
SUPERFICI
100
AcDbPolyline
 62
250
  6
CONTINUOUS
 90
3
 70
0
 10
34.929882194
 20
-38.9626004255
 10
34.8041538142
 20
-38.964514849
 10
34.5428048226
 20
-38.9685239689
  0
LINE
  5
2A0
100
AcDbEntity
  8
SUPERFICI
100
AcDbLine
 62
250
  6
CONTINUOUS
 10
29.6555343686
 20
-39.0468307815
 11
28.8515730212
 21
-39.0591694449
  0
LINE
  5
2A1
100
AcDbEntity
  8
SUPERFICI
100
AcDbLine
 62
250
  6
CONTINUOUS
 10
35.1716630196
 20
-38.9589482334
 11
34.929882194
 21
-38.9626004255
  0
LWPOLYLINE
  5
2A2
100
AcDbEntity
  8
SUPERFICI
100
AcDbPolyline
 62
250
  6
CONTINUOUS
 90
3
 70
0
 10
35.5112448779
 20
-38.9538850219
 10
35.4011732083
 20
-38.9555183571
 10
35.1716630196
 20
-38.9589482334
  0
LINE
  5
2A3
100
AcDbEntity
  8
SUPERFICI
100
AcDbLine
 62
250
  6
CONTINUOUS
 10
28.8515730212
 20
-39.0591694449
 11
28.2993315262
 21
-39.0671895698
  0
LINE
  5
2A4
100
AcDbEntity
  8
SUPERFICI
100
AcDbLine
 62
250
  6
CONTINUOUS
 10
28.2993315262
 20
-39.0671895698
 11
27.7613764275
 21
-39.0744737831
  0
LINE
  5
2A5
100
AcDbEntity
  8
SUPERFICI
100
AcDbLine
 62
250
  6
CONTINUOUS
 10
27.7613764275
 20
-39.0744737831
 11
27.2529766032
 21
-39.080803169
  0
LINE
  5
2A6
100
AcDbEntity
  8
SUPERFICI
100
AcDbLine
 62
250
  6
CONTINUOUS
 10
27.2529766032
 20
-39.080803169
 11
26.7800554392
 21
-39.0861097401
  0
LINE
  5
2A7
100
AcDbEntity
  8
SUPERFICI
100
AcDbLine
 62
250
  6
CONTINUOUS
 10
26.7800554392
 20
-39.0861097401
 11
26.346654661
 21
-39.0904325423
  0
LWPOLYLINE
  5
2A8
100
AcDbEntity
  8
SUPERFICI
100
AcDbPolyline
 62
250
  6
CONTINUOUS
 90
7
 70
0
 10
26.346654661
 20
-39.0904325423
 10
25.9352222786
 20
-39.0939773896
 10
25.7361584613
 20
-39.0954817622
 10
25.539337547
 20
-39.0966595561
 10
25.3442023303
 20
-39.0973056018
 10
25.1514379975
 20
-39.0976119531
 10
24.7709987324
 20
-39.0987359743
  0
LINE
  5
2A9
100
AcDbEntity
  8
SUPERFICI
100
AcDbLine
 62
250
  6
CONTINUOUS
 10
24.394397036
 20
-39.1005808936
 11
23.8300704584
 21
-39.1049103151
  0
LINE
  5
2AA
100
AcDbEntity
  8
SUPERFICI
100
AcDbLine
 62
250
  6
CONTINUOUS
 10
23.8300704584
 20
-39.1049103151
 11
23.4539796942
 21
-39.107075052
  0
LINE
  5
2AB
100
AcDbEntity
  8
SUPERFICI
100
AcDbLine
 62
250
  6
CONTINUOUS
 10
24.7709987324
 20
-39.0987359743
 11
24.394397036
 21
-39.1005808936
  0
LINE
  5
2AC
100
AcDbEntity
  8
SUPERFICI
100
AcDbLine
 62
250
  6
CONTINUOUS
 10
23.4539796942
 20
-39.107075052
 11
23.0749764668
 21
-39.1086257987
  0
LINE
  5
2AD
100
AcDbEntity
  8
SUPERFICI
100
AcDbLine
 62
250
  6
CONTINUOUS
 10
-16.7816764698
 20
-39.0909759565
 11
-20.5557271607
 21
-39.1039967681
  0
LINE
  5
2AE
100
AcDbEntity
  8
SUPERFICI
100
AcDbLine
 62
250
  6
CONTINUOUS
 10
-20.5557271607
 20
-39.1039967681
 11
-22.076614911
 21
-39.1086764698
  0
LINE
  5
2AF
100
AcDbEntity
  8
SUPERFICI
100
AcDbLine
 62
250
  6
CONTINUOUS
 10
-15.6678264006
 20
-39.0879823904
 11
-16.7816764698
 21
-39.0909759565
  0
LINE
  5
2B0
100
AcDbEntity
  8
SUPERFICI
100
AcDbLine
 62
250
  6
CONTINUOUS
 10
-14.4551930901
 20
-39.0856947639
 11
-15.6678264006
 21
-39.0879823904
  0
LINE
  5
2B1
100
AcDbEntity
  8
SUPERFICI
100
AcDbLine
 62
250
  6
CONTINUOUS
 10
23.0749764668
 20
-39.1086257987
 11
22.6917310566
 21
-39.1094553031
  0
LINE
  5
2B2
100
AcDbEntity
  8
SUPERFICI
100
AcDbLine
 62
250
  6
CONTINUOUS
 10
-22.076614911
 20
-39.1086764698
 11
-22.4781253827
 21
-39.1095387669
  0
LINE
  5
2B3
100
AcDbEntity
  8
SUPERFICI
100
AcDbLine
 62
250
  6
CONTINUOUS
 10
4.1604178279
 20
-39.0940612927
 11
2.7634194929
 21
-39.0959777337
  0
LINE
  5
2B4
100
AcDbEntity
  8
SUPERFICI
100
AcDbLine
 62
250
  6
CONTINUOUS
 10
9.0373756032
 20
-39.0862006982
 11
4.1604178279
 21
-39.0940612927
  0
LINE
  5
2B5
100
AcDbEntity
  8
SUPERFICI
100
AcDbLine
 62
250
  6
CONTINUOUS
 10
-36.2462201332
 20
-39.7677963803
 11
-37.0
 21
-39.7689897085
  0
LINE
  5
2B6
100
AcDbEntity
  8
SUPERFICI
100
AcDbLine
 62
250
  6
CONTINUOUS
 10
10.625960687
 20
-39.0846418275
 11
9.0373756032
 21
-39.0862006982
  0
LINE
  5
2B7
100
AcDbEntity
  8
SUPERFICI
100
AcDbLine
 62
250
  6
CONTINUOUS
 10
-13.1373006496
 20
-39.0843909185
 11
-14.4551930901
 21
-39.0856947639
  0
LINE
  5
2B8
100
AcDbEntity
  8
SUPERFICI
100
AcDbLine
 62
250
  6
CONTINUOUS
 10
2.7634194929
 20
-39.0959777337
 11
1.2764509143
 21
-39.0968298963
  0
LINE
  5
2B9
100
AcDbEntity
  8
SUPERFICI
100
AcDbLine
 62
250
  6
CONTINUOUS
 10
-24.7923732427
 20
-39.7605218887
 11
-25.985210764
 21
-39.7607338779
  0
LWPOLYLINE
  5
2BA
100
AcDbEntity
  8
SUPERFICI
100
AcDbPolyline
 62
250
  6
CONTINUOUS
 90
3
 70
0
 10
-25.985210764
 20
-39.7607338779
 10
-26.1923994196
 20
-39.7607861623
 10
-36.2462201332
 20
-39.7677963803
  0
LINE
  5
2BB
100
AcDbEntity
  8
SUPERFICI
100
AcDbLine
 62
250
  6
CONTINUOUS
 10
12.0986284058
 20
-39.0841084186
 11
10.625960687
 21
-39.0846418275
  0
LINE
  5
2BC
100
AcDbEntity
  8
0
100
AcDbLine
 62
7
  6
CONTINUOUS
 10
37.0000000002
 20
-40.0
 11
-37.0000000002
 21
-40.0
  0
LINE
  5
2BD
100
AcDbEntity
  8
SUPERFICI
100
AcDbLine
 62
250
  6
CONTINUOUS
 10
15.8945468079
 20
-39.7617597821
 11
11.6198654854
 21
-39.7619847318
  0
LWPOLYLINE
  5
2BE
100
AcDbEntity
  8
SUPERFICI
100
AcDbPolyline
 62
250
  6
CONTINUOUS
 90
3
 70
0
 10
23.2653564963
 20
-39.7602536779
 10
23.0763295689
 20
-39.7602640524
 10
15.8945468079
 20
-39.7617597821
  0
LINE
  5
2BF
100
AcDbEntity
  8
SUPERFICI
100
AcDbLine
 62
250
  6
CONTINUOUS
 10
-6.5224152665
 20
-39.7617090656
 11
-13.5899685128
 21
-39.7619564215
  0
LINE
  5
2C0
100
AcDbEntity
  8
SUPERFICI
100
AcDbLine
 62
250
  6
CONTINUOUS
 10
1.2764509143
 20
-39.0968298963
 11
-0.5
 21
-39.0969208982
  0
LINE
  5
2C1
100
AcDbEntity
  8
SUPERFICI
100
AcDbLine
 62
250
  6
CONTINUOUS
 10
-13.5899685128
 20
-39.7619564215
 11
-18.7263383361
 21
-39.7612458859
  0
LINE
  5
2C2
100
AcDbEntity
  8
SUPERFICI
100
AcDbLine
 62
250
  6
CONTINUOUS
 10
-23.0686925392
 20
-39.7602639252
 11
-24.7923732427
 21
-39.7605218887
  0
LINE
  5
2C3
100
AcDbEntity
  8
SUPERFICI
100
AcDbLine
 62
250
  6
CONTINUOUS
 10
11.6198654854
 20
-39.7619847318
 11
-6.5224152665
 21
-39.7617090656
  0
LWPOLYLINE
  5
2C4
100
AcDbEntity
  8
SUPERFICI
100
AcDbPolyline
 62
250
  6
CONTINUOUS
 90
3
 70
0
 10
23.8278304564
 20
-39.7602833043
 10
23.6407372215
 20
-39.7602634942
 10
23.2653564963
 20
-39.7602536779
  0
LINE
  5
2C5
100
AcDbEntity
  8
SUPERFICI
100
AcDbLine
 62
250
  6
CONTINUOUS
 10
-11.7007130229
 20
-39.0841530667
 11
-13.1373006496
 21
-39.0843909185
  0
LINE
  5
2C6
100
AcDbEntity
  8
SUPERFICI
100
AcDbLine
 62
250
  6
CONTINUOUS
 10
-18.7263383361
 20
-39.7612458859
 11
-23.0686925392
 21
-39.7602639252
  0
LWPOLYLINE
  5
2C7
100
AcDbEntity
  8
SUPERFICI
100
AcDbPolyline
 62
250
  6
CONTINUOUS
 90
3
 70
0
 10
26.1344157681
 20
-39.7607693753
 10
24.7662805153
 20
-39.7605109059
 10
23.8278304564
 20
-39.7602833043
  0
LWPOLYLINE
  5
2C8
100
AcDbEntity
  8
SUPERFICI
100
AcDbPolyline
 62
250
  6
CONTINUOUS
 90
3
 70
0
 10
26.5525514279
 20
-39.7608984102
 10
26.3412108429
 20
-39.7608284365
 10
26.1344157681
 20
-39.7607693753
  0
LWPOLYLINE
  5
2C9
100
AcDbEntity
  8
SUPERFICI
100
AcDbPolyline
 62
250
  6
CONTINUOUS
 90
4
 70
0
 10
27.4927835657
 20
-39.7613203687
 10
27.244257274
 20
-39.7611930618
 10
27.0040746435
 20
-39.7610807228
 10
26.5525514279
 20
-39.7608984102
  0
LWPOLYLINE
  5
2CA
100
AcDbEntity
  8
SUPERFICI
100
AcDbPolyline
 62
250
  6
CONTINUOUS
 90
5
 70
0
 10
-0.5
 20
-39.0969209096
 10
-2.1581254597
 20
-39.0963886591
 10
-2.9483015937
 20
-39.0957632944
 10
-3.7115619904
 20
-39.0948082848
 10
-8.4105300603
 20
-39.0870310026
  0
LWPOLYLINE
  5
2CB
100
AcDbEntity
  8
SUPERFICI
100
AcDbPolyline
 62
250
  6
CONTINUOUS
 90
4
 70
0
 10
28.5616918043
 20
-39.7619754214
 10
28.2877303131
 20
-39.7617931587
 10
28.0178093221
 20
-39.7616232978
 10
27.4927835657
 20
-39.7613203687
  0
LINE
  5
2CC
100
AcDbEntity
  8
SUPERFICI
100
AcDbLine
 62
250
  6
CONTINUOUS
 10
13.4626423282
 20
-39.0846066602
 11
12.0986284058
 21
-39.0841084186
  0
LWPOLYLINE
  5
2CD
100
AcDbEntity
  8
SUPERFICI
100
AcDbPolyline
 62
250
  6
CONTINUOUS
 90
3
 70
0
 10
36.2566305239
 20
-39.7678043929
 10
31.4894108518
 20
-39.7642053991
 10
28.5616918043
 20
-39.7619754214
  0
LINE
  5
2CE
100
AcDbEntity
  8
SUPERFICI
100
AcDbLine
 62
250
  6
CONTINUOUS
 10
-10.1303726579
 20
-39.0850304595
 11
-11.7007130229
 21
-39.0841530667
  0
LINE
  5
2CF
100
AcDbEntity
  8
SUPERFICI
100
AcDbLine
 62
250
  6
CONTINUOUS
 10
-8.4105300603
 20
-39.0870310026
 11
-10.1303726579
 21
-39.0850304595
  0
LINE
  5
2D0
100
AcDbEntity
  8
SUPERFICI
100
AcDbLine
 62
250
  6
CONTINUOUS
 10
22.6917310566
 20
-39.1094553031
 11
22.3024272842
 21
-39.1090840066
  0
LINE
  5
2D1
100
AcDbEntity
  8
SUPERFICI
100
AcDbLine
 62
250
  6
CONTINUOUS
 10
14.725161431
 20
-39.0861050691
 11
13.4626423282
 21
-39.0846066602
  0
LINE
  5
2D2
100
AcDbEntity
  8
SUPERFICI
100
AcDbLine
 62
250
  6
CONTINUOUS
 10
-22.4781253827
 20
-39.1095387669
 11
-22.8722788585
 21
-39.1091617769
  0
LWPOLYLINE
  5
2D3
100
AcDbEntity
  8
SUPERFICI
100
AcDbPolyline
 62
250
  6
CONTINUOUS
 90
3
 70
0
 10
37.0
 20
-39.7689897085
 10
36.9195189521
 20
-39.7688056224
 10
36.2566305239
 20
-39.7678043929
  0
LINE
  5
2D4
100
AcDbEntity
  8
SUPERFICI
100
AcDbLine
 62
250
  6
CONTINUOUS
 10
15.8922242243
 20
-39.0885071522
 11
14.725161431
 21
-39.0861050691
  0
LINE
  5
2D5
100
AcDbEntity
  8
SUPERFICI
100
AcDbLine
 62
250
  6
CONTINUOUS
 10
22.3024272842
 20
-39.1090840066
 11
21.7011207717
 21
-39.1076250619
  0
LINE
  5
2D6
100
AcDbEntity
  8
SUPERFICI
100
AcDbLine
 62
250
  6
CONTINUOUS
 10
21.7011207717
 20
-39.1076250619
 11
21.2829509516
 21
-39.1063706443
  0
LINE
  5
2D7
100
AcDbEntity
  8
SUPERFICI
100
AcDbLine
 62
250
  6
CONTINUOUS
 10
21.2829509516
 20
-39.1063706443
 11
20.8470152452
 21
-39.1049694328
  0
LINE
  5
2D8
100
AcDbEntity
  8
SUPERFICI
100
AcDbLine
 62
250
  6
CONTINUOUS
 10
17.9496210606
 20
-39.0947584186
 11
15.8922242243
 21
-39.0885071522
  0
LWPOLYLINE
  5
2D9
100
AcDbEntity
  8
SUPERFICI
100
AcDbPolyline
 62
250
  6
CONTINUOUS
 90
3
 70
0
 10
20.8470152452
 20
-39.1049694328
 10
20.3889723755
 20
-39.1034254973
 10
20.1501995352
 20
-39.102597931
  0
LINE
  5
2DA
100
AcDbEntity
  8
SUPERFICI
100
AcDbLine
 62
250
  6
CONTINUOUS
 10
-22.8722788585
 20
-39.1091617769
 11
-23.2610873249
 21
-39.1079612489
  0
LWPOLYLINE
  5
2DB
100
AcDbEntity
  8
SUPERFICI
100
AcDbPolyline
 62
250
  6
CONTINUOUS
 90
3
 70
0
 10
20.1501995352
 20
-39.102597931
 10
18.8426598646
 20
-39.0979122221
 10
17.9496210606
 20
-39.0947584186
  0
LINE
  5
2DC
100
AcDbEntity
  8
SUPERFICI
100
AcDbLine
 62
250
  6
CONTINUOUS
 10
-23.2610873249
 20
-39.1079612489
 11
-23.6457418349
 21
-39.1060435017
  0
LWPOLYLINE
  5
2DD
100
AcDbEntity
  8
SUPERFICI
100
AcDbPolyline
 62
250
  6
CONTINUOUS
 90
6
 70
0
 10
-24.6040406365
 20
-39.0992754532
 10
-24.7966805409
 20
-39.0982310645
 10
-24.9904159374
 20
-39.0978138684
 10
-25.1853665929
 20
-39.0977062061
 10
-25.382519549
 20
-39.0972810718
 10
-25.5819373329
 20
-39.0963110125
  0
LINE
  5
2DE
100
AcDbEntity
  8
SUPERFICI
100
AcDbLine
 62
250
  6
CONTINUOUS
 10
-25.5819373329
 20
-39.0963110125
 11
-25.9891192062
 21
-39.0935310956
  0
LINE
  5
2DF
100
AcDbEntity
  8
SUPERFICI
100
AcDbLine
 62
250
  6
CONTINUOUS
 10
-23.6457418349
 20
-39.1060435017
 11
-24.2206605439
 21
-39.1020314611
  0
LINE
  5
2E0
100
AcDbEntity
  8
SUPERFICI
100
AcDbLine
 62
250
  6
CONTINUOUS
 10
-24.2206605439
 20
-39.1020314611
 11
-24.6040406365
 21
-39.0992754532
  0
LWPOLYLINE
  5
2E1
100
AcDbEntity
  8
SUPERFICI
100
AcDbPolyline
 62
250
  6
CONTINUOUS
 90
46
 70
0
 10
-37.0
 20
-39.7689897085
 10
-37.0576483284
 20
-39.7684766352
 10
-37.119847109
 20
-39.7665710583
 10
-37.1865553547
 20
-39.7629655679
 10
-37.2579328132
 20
-39.7573122129
 10
-37.3336863255
 20
-39.7492693754
 10
-37.413073055
 20
-39.738562207
 10
-37.4959779649
 20
-39.7248625079
 10
-37.5822689608
 20
-39.7078303426
 10
-37.6711608825
 20
-39.6872701209
 10
-37.7624828997
 20
-39.6628883968
 10
-37.8560423419
 20
-39.6343891686
 10
-37.9510175239
 20
-39.6016944928
 10
-38.0471922954
 20
-39.5645747159
 10
-38.1443238116
 20
-39.5228076787
 10
-38.2415680253
 20
-39.4764677216
 10
-38.3386778518
 20
-39.4254153949
 10
-38.4353898807
 20
-39.3695223951
 10
-38.5308813384
 20
-39.3090320488
 10
-38.6249042885
 20
-39.2439078403
 10
-38.7172043962
 20
-39.1741248793
 10
-38.807025897
 20
-39.1000958304
 10
-38.8941738812
 20
-39.0218671058
 10
-38.9784132354
 20
-38.9395309032
 10
-39.0590417162
 20
-38.8537165029
 10
-39.1359403895
 20
-38.7645552439
 10
-39.2089486134
 20
-38.6722387126
 10
-39.2774609092
 20
-38.5776278377
 10
-39.341448485
 20
-38.48095219
 10
-39.4008879891
 20
-38.382447698
 10
-39.455374714
 20
-38.2831012529
 10
-39.505003433
 20
-38.1831839602
 10
-39.549882652
 20
-38.0829507282
 10
-39.5898294167
 20
-37.9834405856
 10
-39.6250617007
 20
-37.8849183257
 10
-39.6558069045
 20
-37.7876212838
 10
-39.682087443
 20
-37.6925839257
 10
-39.7042231361
 20
-37.6000243155
 10
-39.7225319246
 20
-37.5101352706
 10
-39.7372011757
 20
-37.4239180505
 10
-39.748615682
 20
-37.341524067
 10
-39.7571464258
 20
-37.2630838239
 10
-39.7630945732
 20
-37.1895513642
 10
-39.7668529322
 20
-37.1212959982
 10
-39.7688243434
 20
-37.0580975084
 10
-39.7693588487
 20
-37.0
  0
LINE
  5
2E2
100
AcDbEntity
  8
SUPERFICI
100
AcDbLine
 62
250
  6
CONTINUOUS
 10
-25.9891192062
 20
-39.0935310956
 11
-26.4084844624
 21
-39.0898589969
  0
LINE
  5
2E3
100
AcDbEntity
  8
SUPERFICI
100
AcDbLine
 62
250
  6
CONTINUOUS
 10
-26.4084844624
 20
-39.0898589969
 11
-26.8482855744
 21
-39.0853801607
  0
LINE
  5
2E4
100
AcDbEntity
  8
SUPERFICI
100
AcDbLine
 62
250
  6
CONTINUOUS
 10
-26.8482855744
 20
-39.0853801607
 11
-27.3128795382
 21
-39.0800930184
  0
LINE
  5
2E5
100
AcDbEntity
  8
SUPERFICI
100
AcDbLine
 62
250
  6
CONTINUOUS
 10
-27.3128795382
 20
-39.0800930184
 11
-27.8077558444
 21
-39.0738721758
  0
LINE
  5
2E6
100
AcDbEntity
  8
SUPERFICI
100
AcDbLine
 62
250
  6
CONTINUOUS
 10
-27.8077558444
 20
-39.0738721758
 11
-28.3323293062
 21
-39.0667224958
  0
LINE
  5
2E7
100
AcDbEntity
  8
SUPERFICI
100
AcDbLine
 62
250
  6
CONTINUOUS
 10
-28.3323293062
 20
-39.0667224958
 11
-28.886676607
 21
-39.0586569298
  0
LINE
  5
2E8
100
AcDbEntity
  8
SUPERFICI
100
AcDbLine
 62
250
  6
CONTINUOUS
 10
-35.5949659979
 20
-38.9526450397
 11
-35.9975629915
 21
-38.9469974845
  0
LINE
  5
2E9
100
AcDbEntity
  8
SUPERFICI
100
AcDbLine
 62
250
  6
CONTINUOUS
 10
-34.4822759294
 20
-38.9694580495
 11
-35.5949659979
 21
-38.9526450397
  0
LINE
  5
2EA
100
AcDbEntity
  8
SUPERFICI
100
AcDbLine
 62
250
  6
CONTINUOUS
 10
-28.886676607
 20
-39.0586569298
 11
-29.7735084361
 21
-39.0449774804
  0
LINE
  5
2EB
100
AcDbEntity
  8
SUPERFICI
100
AcDbLine
 62
250
  6
CONTINUOUS
 10
-33.3632063167
 20
-38.9870703512
 11
-34.4822759294
 21
-38.9694580495
  0
LINE
  5
2EC
100
AcDbEntity
  8
SUPERFICI
100
AcDbLine
 62
250
  6
CONTINUOUS
 10
-29.7735084361
 20
-39.0449774804
 11
-33.3632063167
 21
-38.9870703512
  0
LWPOLYLINE
  5
2ED
100
AcDbEntity
  8
SUPERFICI
100
AcDbPolyline
 62
250
  6
CONTINUOUS
 90
10
 70
0
 10
-35.9975629915
 20
-38.9469974845
 10
-36.1759728924
 20
-38.9439936097
 10
-36.2603059221
 20
-38.9422559724
 10
-36.3424710118
 20
-38.939682168
 10
-36.4213704826
 20
-38.9356648556
 10
-36.4972540293
 20
-38.9308167186
 10
-36.5726852885
 20
-38.9263320717
 10
-36.6476737345
 20
-38.9226980719
 10
-36.7221718186
 20
-38.9194244676
 10
-36.8785385853
 20
-38.9130600742
  0
LINE
  5
2EE
100
AcDbEntity
  8
SUPERFICI
100
AcDbLine
 62
250
  6
CONTINUOUS
 10
-36.8785385853
 20
-38.9130600742
 11
-37.0444954415
 21
-38.9069764045
  0
LWPOLYLINE
  5
2EF
100
AcDbEntity
  8
SUPERFICI
100
AcDbPolyline
 62
250
  6
CONTINUOUS
 90
46
 70
0
 10
-37.0444953648
 20
-38.9069761689
 10
-37.0825594995
 20
-38.9052800687
 10
-37.123633808
 20
-38.9025837541
 10
-37.1676907126
 20
-38.8986905771
 10
-37.2148343265
 20
-38.8933728048
 10
-37.2648722449
 20
-38.8864180129
 10
-37.3173175561
 20
-38.8776666937
 10
-37.3720957787
 20
-38.8669093664
 10
-37.4291201208
 20
-38.8539305249
 10
-37.4878744701
 20
-38.8386221064
 10
-37.5482482144
 20
-38.8207981478
 10
-37.6101141293
 20
-38.8002740966
 10
-37.6729281685
 20
-38.7770196702
 10
-37.7365493367
 20
-38.7508900517
 10
-37.8008243745
 20
-38.7217436712
 10
-37.8652018838
 20
-38.6896407217
 10
-37.9295258379
 20
-38.6544887846
 10
-37.9936288421
 20
-38.6162079569
 10
-38.0569700765
 20
-38.5749692051
 10
-38.1193911143
 20
-38.5307474707
 10
-38.1807302467
 20
-38.4835296976
 10
-38.2404876557
 20
-38.4335963499
 10
-38.298538474
 20
-38.3809745031
 10
-38.3547396043
 20
-38.3257206998
 10
-38.4086323253
 20
-38.2682479642
 10
-38.460144484
 20
-38.2086326422
 10
-38.5091735542
 20
-38.1470013291
 10
-38.5553112623
 20
-38.0839275279
 10
-38.5985364659
 20
-38.0195576883
 10
-38.6388400551
 20
-37.9540404059
 10
-38.6759486225
 20
-37.8880227123
 10
-38.7099234863
 20
-37.8216738674
 10
-38.7408379172
 20
-37.7551560124
 10
-38.7685582419
 20
-37.6891518925
 10
-38.7932224031
 20
-37.6238296152
 10
-38.8149750805
 20
-37.5593432943
 10
-38.8338096371
 20
-37.4963767683
 10
-38.8499269867
 20
-37.4350720507
 10
-38.8635312029
 20
-37.375552283
 10
-38.8747239931
 20
-37.3184753777
 10
-38.8837502207
 20
-37.263939292
 10
-38.8908466705
 20
-37.2120285774
 10
-38.8961864598
 20
-37.1633708889
 10
-38.9000133553
 20
-37.1182091862
 10
-38.9025910595
 20
-37.0763986204
 10
-38.9041434547
 20
-37.0379684263
  0
LINE
  5
2F0
100
AcDbEntity
  8
0
100
AcDbLine
 62
250
  6
CONTINUOUS
 10
-37.0
 20
-40.0
 11
-37.0
 21
-39.7689897085
  0
LINE
  5
2F1
100
AcDbEntity
  8
0
100
AcDbLine
 62
250
  6
CONTINUOUS
 10
-37.0
 20
39.7689897085
 11
-37.0
 21
40.0
  0
LINE
  5
2F2
100
AcDbEntity
  8
0
100
AcDbLine
 62
250
  6
CONTINUOUS
 10
39.7693588487
 20
-37.0
 11
40.0
 21
-37.0
  0
LINE
  5
2F3
100
AcDbEntity
  8
0
100
AcDbLine
 62
250
  6
CONTINUOUS
 10
-39.7693588487
 20
-37.0
 11
-40.0
 21
-37.0
  0
LINE
  5
2F4
100
AcDbEntity
  8
RACCORDO
100
AcDbLine
 62
7
  6
CONTINUOUS
 10
-39.9388055192
 20
-3.6078157575
 11
-40.0
 21
-3.7099727925
  0
LINE
  5
2F5
100
AcDbEntity
  8
0
100
AcDbLine
 62
7
  6
CONTINUOUS
 10
13.75
 20
-28.8
 11
13.096695
 21
-28.800007
  0
LINE
  5
2F6
100
AcDbEntity
  8
0
100
AcDbLine
 62
7
  6
CONTINUOUS
 10
9.180144
 20
-28.800007
 11
8.600122
 21
-28.800015
  0
LINE
  5
2F7
100
AcDbEntity
  8
0
100
AcDbLine
 62
7
  6
CONTINUOUS
 10
7.085039
 20
-28.800007
 11
6.505031
 21
-28.800015
  0
LINE
  5
2F8
100
AcDbEntity
  8
0
100
AcDbLine
 62
7
  6
CONTINUOUS
 10
4.796627
 20
-28.800015
 11
4.216605
 21
-28.800022
  0
LINE
  5
2F9
100
AcDbEntity
  8
0
100
AcDbLine
 62
7
  6
CONTINUOUS
 10
2.898794
 20
-28.800015
 11
2.318751
 21
-28.800022
  0
LINE
  5
2FA
100
AcDbEntity
  8
0
100
AcDbLine
 62
7
  6
CONTINUOUS
 10
8.213443
 20
-28.800015
 11
7.633421
 21
-28.800015
  0
LINE
  5
2FB
100
AcDbEntity
  8
0
100
AcDbLine
 62
7
  6
CONTINUOUS
 10
5.956656
 20
-28.800015
 11
5.376634
 21
-28.800015
  0
LINE
  5
2FC
100
AcDbEntity
  8
0
100
AcDbLine
 62
7
  6
CONTINUOUS
 10
12.009144
 20
-28.800007
 11
11.429115
 21
-28.800007
  0
LINE
  5
2FD
100
AcDbEntity
  8
0
100
AcDbLine
 62
7
  6
CONTINUOUS
 10
11.042437
 20
-28.800015
 11
10.462408
 21
-28.800007
  0
LINE
  5
2FE
100
AcDbEntity
  8
RACCORDO
100
AcDbLine
 62
7
  6
CONTINUOUS
 10
-40.0
 20
3.7099727925
 11
-39.9388055192
 21
3.6078157575
  0
LWPOLYLINE
  5
2FF
100
AcDbEntity
  8
SUPERFICI
100
AcDbPolyline
 62
250
  6
CONTINUOUS
 90
3
 70
0
 10
-12.8777828336
 20
25.0815770755
 10
-12.8197715941
 20
25.1180753225
 10
-12.7905680891
 20
25.1361766659
  0
LWPOLYLINE
  5
300
100
AcDbEntity
  8
SUPERFICI
100
AcDbPolyline
 62
250
  6
CONTINUOUS
 90
27
 70
0
 10
-12.7905680891
 20
25.1361766659
 10
-12.7307311853
 20
25.1727098987
 10
-12.7002292702
 20
25.1910303023
 10
-12.6691708982
 20
25.2092834391
 10
-12.6376963185
 20
25.2274221014
 10
-12.6060184007
 20
25.2452807657
 10
-12.5740865986
 20
25.262589877
 10
-12.5420923042
 20
25.2790757483
 10
-12.5097589206
 20
25.2950587554
 10
-12.4763326256
 20
25.311134239
 10
-12.4413595368
 20
25.3275783794
 10
-12.4048449801
 20
25.3442462062
 10
-12.3666750007
 20
25.3610909552
 10
-12.3269970603
 20
25.3779723723
 10
-12.2858152968
 20
25.3948397597
 10
-12.2428072015
 20
25.4117555837
 10
-12.197845974
 20
25.4287065023
 10
-12.1509618626
 20
25.44559268
 10
-12.1020682438
 20
25.4623264322
 10
-12.0507653172
 20
25.4789403491
 10
-11.9974715849
 20
25.4952026617
 10
-11.943336862
 20
25.5106801618
 10
-11.8882561226
 20
25.5253368977
 10
-11.8323482334
 20
25.5391449578
 10
-11.7771469814
 20
25.5518089219
 10
-11.7231790414
 20
25.5631258577
 10
-11.6697677314
 20
25.5734346708
  0
LWPOLYLINE
  5
301
100
AcDbEntity
  8
SUPERFICI
100
AcDbPolyline
 62
250
  6
CONTINUOUS
 90
13
 70
0
 10
11.6697677323
 20
-25.5734346727
 10
11.5631450407
 20
-25.5931443725
 10
11.5094986199
 20
-25.6026447048
 10
11.4555320169
 20
-25.6116171867
 10
11.4020743463
 20
-25.6199300207
 10
11.3490619542
 20
-25.6276017509
 10
11.2949247099
 20
-25.6345888407
 10
11.2393688106
 20
-25.6407647239
 10
11.1825672581
 20
-25.6461663416
 10
11.1236725904
 20
-25.6508719709
 10
11.0624122829
 20
-25.6548145896
 10
10.9990935679
 20
-25.6578326137
 10
10.9337437989
 20
-25.6598161577
  0
LINE
  5
302
100
AcDbEntity
  8
SUPERFICI
100
AcDbLine
 62
250
  6
CONTINUOUS
 10
10.9337438013
 20
-25.6598161973
 11
10.7109696055
 21
-25.6643278662
  0
LINE
  5
303
100
AcDbEntity
  8
SUPERFICI
100
AcDbLine
 62
250
  6
CONTINUOUS
 10
10.7109696055
 20
-25.6643278662
 11
10.4744223974
 21
-25.668636984
  0
LINE
  5
304
100
AcDbEntity
  8
SUPERFICI
100
AcDbLine
 62
250
  6
CONTINUOUS
 10
10.4744223974
 20
-25.668636984
 11
10.2245372748
 21
-25.6726918052
  0
LINE
  5
305
100
AcDbEntity
  8
SUPERFICI
100
AcDbLine
 62
250
  6
CONTINUOUS
 10
10.2245372748
 20
-25.6726918052
 11
9.9614854731
 21
-25.6765283166
  0
LINE
  5
306
100
AcDbEntity
  8
SUPERFICI
100
AcDbLine
 62
250
  6
CONTINUOUS
 10
9.9614854731
 20
-25.6765283166
 11
9.685180929
 21
-25.6801067117
  0
LINE
  5
307
100
AcDbEntity
  8
SUPERFICI
100
AcDbLine
 62
250
  6
CONTINUOUS
 10
9.685180929
 20
-25.6801067117
 11
9.3953444973
 21
-25.6834166012
  0
LINE
  5
308
100
AcDbEntity
  8
SUPERFICI
100
AcDbLine
 62
250
  6
CONTINUOUS
 10
9.3953444973
 20
-25.6834166012
 11
9.0913266576
 21
-25.6864691977
  0
LINE
  5
309
100
AcDbEntity
  8
SUPERFICI
100
AcDbLine
 62
250
  6
CONTINUOUS
 10
9.0913266576
 20
-25.6864691977
 11
8.77161714
 21
-25.6892705635
  0
LINE
  5
30A
100
AcDbEntity
  8
SUPERFICI
100
AcDbLine
 62
250
  6
CONTINUOUS
 10
8.77161714
 20
-25.6892705635
 11
8.4352616108
 21
-25.6918174235
  0
LINE
  5
30B
100
AcDbEntity
  8
SUPERFICI
100
AcDbLine
 62
250
  6
CONTINUOUS
 10
8.4352616108
 20
-25.6918174235
 11
8.080788731
 21
-25.6941111996
  0
LINE
  5
30C
100
AcDbEntity
  8
SUPERFICI
100
AcDbLine
 62
250
  6
CONTINUOUS
 10
8.080788731
 20
-25.6941111996
 11
7.5116709605
 21
-25.6970848616
  0
LINE
  5
30D
100
AcDbEntity
  8
SUPERFICI
100
AcDbLine
 62
250
  6
CONTINUOUS
 10
7.5116709605
 20
-25.6970848616
 11
6.8942241287
 21
-25.6994961964
  0
LINE
  5
30E
100
AcDbEntity
  8
SUPERFICI
100
AcDbLine
 62
250
  6
CONTINUOUS
 10
6.8942241287
 20
-25.6994961964
 11
6.2256776821
 21
-25.7013403134
  0
LINE
  5
30F
100
AcDbEntity
  8
SUPERFICI
100
AcDbLine
 62
250
  6
CONTINUOUS
 10
6.2256776821
 20
-25.7013403134
 11
5.5031546779
 21
-25.7026208348
  0
LINE
  5
310
100
AcDbEntity
  8
SUPERFICI
100
AcDbLine
 62
250
  6
CONTINUOUS
 10
5.5031546779
 20
-25.7026208348
 11
4.7225102963
 21
-25.7033546455
  0
LINE
  5
311
100
AcDbEntity
  8
SUPERFICI
100
AcDbLine
 62
250
  6
CONTINUOUS
 10
-0.5
 20
-25.7021317659
 11
-3.3305207186
 21
-25.7034898417
  0
LINE
  5
312
100
AcDbEntity
  8
0
100
AcDbLine
 62
7
  6
CONTINUOUS
 10
10.279302
 20
-28.229679
 11
9.363257
 21
-28.229679
  0
LINE
  5
313
100
AcDbEntity
  8
0
100
AcDbLine
 62
7
  6
CONTINUOUS
 10
9.540179
 20
-27.678657
 11
10.102373
 21
-27.678657
  0
LINE
  5
314
100
AcDbEntity
  8
0
100
AcDbLine
 62
7
  6
CONTINUOUS
 10
12.515441
 20
-27.678657
 11
12.00921
 21
-27.67865
  0
LINE
  5
315
100
AcDbEntity
  8
0
100
AcDbLine
 62
7
  6
CONTINUOUS
 10
12.001148
 20
-27.142128
 11
12.706824
 21
-27.142128
  0
LINE
  5
316
100
AcDbEntity
  8
0
100
AcDbLine
 62
7
  6
CONTINUOUS
 10
12.706824
 20
-26.436398
 11
12.00114
 21
-26.436398
  0
LINE
  5
317
100
AcDbEntity
  8
0
100
AcDbLine
 62
7
  6
CONTINUOUS
 10
1.387619
 20
-25.899884
 11
1.967648
 21
-25.899884
  0
LINE
  5
318
100
AcDbEntity
  8
0
100
AcDbLine
 62
7
  6
CONTINUOUS
 10
3.249905
 20
-25.899884
 11
3.829934
 21
-25.899884
  0
LINE
  5
319
100
AcDbEntity
  8
0
100
AcDbLine
 62
7
  6
CONTINUOUS
 10
4.216612
 20
-25.899884
 11
4.796634
 21
-25.899884
  0
LINE
  5
31A
100
AcDbEntity
  8
0
100
AcDbLine
 62
7
  6
CONTINUOUS
 10
5.376634
 20
-25.899884
 11
6.253471
 21
-25.899884
  0
LINE
  5
31B
100
AcDbEntity
  8
0
100
AcDbLine
 62
7
  6
CONTINUOUS
 10
7.336606
 20
-25.899884
 11
8.213443
 21
-25.899884
  0
LINE
  5
31C
100
AcDbEntity
  8
0
100
AcDbLine
 62
7
  6
CONTINUOUS
 10
9.531247
 20
-25.899877
 11
10.111297
 21
-25.899877
  0
LINE
  5
31D
100
AcDbEntity
  8
0
100
AcDbLine
 62
7
  6
CONTINUOUS
 10
11.429115
 20
-25.899877
 11
12.78733
 21
-25.899877
  0
LINE
  5
31E
100
AcDbEntity
  8
SUPERFICI
100
AcDbLine
 62
250
  6
CONTINUOUS
 10
4.7225102963
 20
-25.7033546455
 11
3.8786003399
 21
-25.7035772758
  0
LINE
  5
31F
100
AcDbEntity
  8
SUPERFICI
100
AcDbLine
 62
250
  6
CONTINUOUS
 10
-3.3305207186
 20
-25.7034898417
 11
-4.2315717339
 21
-25.7035446576
  0
LINE
  5
320
100
AcDbEntity
  8
SUPERFICI
100
AcDbLine
 62
250
  6
CONTINUOUS
 10
3.8786003399
 20
-25.7035772758
 11
2.6420073755
 21
-25.7032072934
  0
LWPOLYLINE
  5
321
100
AcDbEntity
  8
SUPERFICI
100
AcDbPolyline
 62
250
  6
CONTINUOUS
 90
3
 70
0
 10
2.6420073755
 20
-25.7032072934
 10
1.9698312639
 20
-25.7028313543
 10
-0.5
 20
-25.7021246613
  0
LINE
  5
322
100
AcDbEntity
  8
SUPERFICI
100
AcDbLine
 62
250
  6
CONTINUOUS
 10
-4.2315717339
 20
-25.7035446576
 11
-5.0586309264
 21
-25.7031106106
  0
LINE
  5
323
100
AcDbEntity
  8
SUPERFICI
100
AcDbLine
 62
250
  6
CONTINUOUS
 10
-5.0586309264
 20
-25.7031106106
 11
-5.8188696944
 21
-25.7021417113
  0
LINE
  5
324
100
AcDbEntity
  8
SUPERFICI
100
AcDbLine
 62
250
  6
CONTINUOUS
 10
-5.8188696944
 20
-25.7021417113
 11
-6.518489069
 21
-25.7006199003
  0
LINE
  5
325
100
AcDbEntity
  8
SUPERFICI
100
AcDbLine
 62
250
  6
CONTINUOUS
 10
-6.518489069
 20
-25.7006199003
 11
-7.1625004056
 21
-25.6985415209
  0
LINE
  5
326
100
AcDbEntity
  8
SUPERFICI
100
AcDbLine
 62
250
  6
CONTINUOUS
 10
-7.1625004056
 20
-25.6985415209
 11
-7.7550355071
 21
-25.6959111014
  0
LINE
  5
327
100
AcDbEntity
  8
SUPERFICI
100
AcDbLine
 62
250
  6
CONTINUOUS
 10
-7.7550355071
 20
-25.6959111014
 11
-8.3005716915
 21
-25.6927332993
  0
LINE
  5
328
100
AcDbEntity
  8
SUPERFICI
100
AcDbLine
 62
250
  6
CONTINUOUS
 10
-8.3005716915
 20
-25.6927332993
 11
-8.6407486986
 21
-25.6903076029
  0
LINE
  5
329
100
AcDbEntity
  8
SUPERFICI
100
AcDbLine
 62
250
  6
CONTINUOUS
 10
-8.6407486986
 20
-25.6903076029
 11
-8.9635263789
 21
-25.6876365737
  0
LINE
  5
32A
100
AcDbEntity
  8
SUPERFICI
100
AcDbLine
 62
250
  6
CONTINUOUS
 10
-8.9635263789
 20
-25.6876365737
 11
-9.2704152259
 21
-25.6847200689
  0
LINE
  5
32B
100
AcDbEntity
  8
SUPERFICI
100
AcDbLine
 62
250
  6
CONTINUOUS
 10
-9.2704152259
 20
-25.6847200689
 11
-9.5628607145
 21
-25.6815546128
  0
LINE
  5
32C
100
AcDbEntity
  8
SUPERFICI
100
AcDbLine
 62
250
  6
CONTINUOUS
 10
-9.5628607145
 20
-25.6815546128
 11
-9.8415535247
 21
-25.6781367624
  0
LINE
  5
32D
100
AcDbEntity
  8
SUPERFICI
100
AcDbLine
 62
250
  6
CONTINUOUS
 10
-9.8415535247
 20
-25.6781367624
 11
-10.1072337343
 21
-25.6744562893
  0
LINE
  5
32E
100
AcDbEntity
  8
SUPERFICI
100
AcDbLine
 62
250
  6
CONTINUOUS
 10
-10.1072337343
 20
-25.6744562893
 11
-10.3598838625
 21
-25.6705479969
  0
LINE
  5
32F
100
AcDbEntity
  8
SUPERFICI
100
AcDbLine
 62
250
  6
CONTINUOUS
 10
-10.3598838625
 20
-25.6705479969
 11
-10.5995025721
 21
-25.6664246355
  0
LWPOLYLINE
  5
330
100
AcDbEntity
  8
SUPERFICI
100
AcDbPolyline
 62
250
  6
CONTINUOUS
 90
3
 70
0
 10
-10.5995025721
 20
-25.6664246355
 10
-10.825808626
 20
-25.6620459853
 10
-10.9337502999
 20
-25.659816031
  0
LWPOLYLINE
  5
331
100
AcDbEntity
  8
SUPERFICI
100
AcDbPolyline
 62
250
  6
CONTINUOUS
 90
36
 70
0
 10
-10.9337502943
 20
-25.6598159389
 10
-11.00090263
 20
-25.6577584267
 10
-11.0660548232
 20
-25.65460404
 10
-11.1291780071
 20
-25.6504648828
 10
-11.1899922974
 20
-25.6455102368
 10
-11.2487137156
 20
-25.6398057357
 10
-11.3060731524
 20
-25.6332652178
 10
-11.3619882767
 20
-25.6258017647
 10
-11.4167332318
 20
-25.6175907142
 10
-11.4715628151
 20
-25.6088396008
 10
-11.5260933772
 20
-25.5997288939
 10
-11.5797414984
 20
-25.5902846253
 10
-11.6331758268
 20
-25.5804407401
 10
-11.6869390662
 20
-25.5702223807
 10
-11.7412261959
 20
-25.5594147368
 10
-11.796639835
 20
-25.5474311955
 10
-11.8538911074
 20
-25.5339206174
 10
-11.9122103
 20
-25.5190846413
 10
-11.9696433807
 20
-25.5033118339
 10
-12.0259537682
 20
-25.4866585878
 10
-12.081406998
 20
-25.4691296274
 10
-12.1348973409
 20
-25.4511772324
 10
-12.1860718054
 20
-25.4330259045
 10
-12.2352276271
 20
-25.414667143
 10
-12.2822236046
 20
-25.3962745164
 10
-12.3271010465
 20
-25.3779261241
 10
-12.3699848376
 20
-25.3596499018
 10
-12.4108992982
 20
-25.3415311367
 10
-12.4496223945
 20
-25.3237718445
 10
-12.4861056252
 20
-25.306478595
 10
-12.5205697193
 20
-25.2896097077
 10
-12.5532895708
 20
-25.2731268926
 10
-12.584922974
 20
-25.2566928127
 10
-12.6164403981
 20
-25.2396763331
 10
-12.6477956668
 20
-25.2219283491
 10
-12.678464412
 20
-25.2039187027
  0
LWPOLYLINE
  5
332
100
AcDbEntity
  8
SUPERFICI
100
AcDbPolyline
 62
250
  6
CONTINUOUS
 90
3
 70
0
 10
-12.678464412
 20
-25.2039187027
 10
-12.7376849371
 20
-25.1684870767
 10
-12.7660686209
 20
-25.1512143978
  0
LWPOLYLINE
  5
333
100
AcDbEntity
  8
SUPERFICI
100
AcDbPolyline
 62
250
  6
CONTINUOUS
 90
3
 70
0
 10
-12.7660686209
 20
-25.1512143978
 10
-12.8219818291
 20
-25.1166849728
 10
-12.8494619454
 20
-25.0994825717
  0
LWPOLYLINE
  5
334
100
AcDbEntity
  8
SUPERFICI
100
AcDbPolyline
 62
250
  6
CONTINUOUS
 90
49
 70
0
 10
-12.8494619454
 20
-25.0994825717
 10
-12.9047637888
 20
-25.064358933
 10
-12.9325414647
 20
-25.0464540473
 10
-12.9608876329
 20
-25.0279436531
 10
-12.9897700549
 20
-25.0088259259
 10
-13.0190807232
 20
-24.9891562757
 10
-13.0491298737
 20
-24.968652626
 10
-13.0798706825
 20
-24.9473378788
 10
-13.1113146066
 20
-24.9251289138
 10
-13.1438346831
 20
-24.9015634617
 10
-13.1776516747
 20
-24.8763578666
 10
-13.2126227999
 20
-24.8495633576
 10
-13.248591064
 20
-24.8211870965
 10
-13.2856572968
 20
-24.791055202
 10
-13.323643614
 20
-24.7592120063
 10
-13.3619917039
 20
-24.7260145052
 10
-13.4005372885
 20
-24.6915385408
 10
-13.4393573493
 20
-24.6556583438
 10
-13.4782719104
 20
-24.6184589402
 10
-13.5171054219
 20
-24.5800544567
 10
-13.5559554744
 20
-24.5402899146
 10
-13.5950407644
 20
-24.4988403294
 10
-13.6342932259
 20
-24.4556843765
 10
-13.6736568859
 20
-24.4107796081
 10
-13.7133338445
 20
-24.3637421676
 10
-13.7532416353
 20
-24.3145263687
 10
-13.7932869963
 20
-24.2630865876
 10
-13.8336128971
 20
-24.2090110105
 10
-13.8741070372
 20
-24.1522379809
 10
-13.9146299736
 20
-24.0927275836
 10
-13.9552317258
 20
-24.0300794786
 10
-13.9957486845
 20
-23.9642457461
 10
-14.0360110119
 20
-23.8951578723
 10
-14.076003918
 20
-23.8223552854
 10
-14.1155731049
 20
-23.7456920301
 10
-14.1544137728
 20
-23.6652345848
 10
-14.1922098952
 20
-23.5808948103
 10
-14.2283981811
 20
-23.4928440689
 10
-14.2630052282
 20
-23.4009252984
 10
-14.2965983628
 20
-23.3043173804
 10
-14.329015857
 20
-23.202620804
 10
-14.3599544324
 20
-23.0951743709
 10
-14.3895022059
 20
-22.9808429805
 10
-14.4174276976
 20
-22.8590114088
 10
-14.4424335546
 20
-22.7309482298
 10
-14.4630551543
 20
-22.5983686257
 10
-14.4785877579
 20
-22.462070645
 10
-14.4889005152
 20
-22.3217581078
 10
-14.4935630484
 20
-22.1776004522
  0
LWPOLYLINE
  5
335
100
AcDbEntity
  8
SUPERFICI
100
AcDbPolyline
 62
250
  6
CONTINUOUS
 90
13
 70
0
 10
12.8381390761
 20
-22.1990057248
 10
12.7502526264
 20
-22.2104590944
 10
12.6569795058
 20
-22.209557626
 10
12.5593418661
 20
-22.1981355576
 10
12.4581081039
 20
-22.1681060015
 10
12.3537544964
 20
-22.1330198481
 10
12.2485640685
 20
-22.1210631967
 10
12.1449558512
 20
-22.144099428
 10
12.0423558949
 20
-22.1789364929
 10
11.9412114093
 20
-22.2012165125
 10
11.843408364
 20
-22.2050223394
 10
11.7501534782
 20
-22.2024461693
 10
11.6623665997
 20
-22.2003850673
  0
LINE
  5
336
100
AcDbEntity
  8
SUPERFICI
100
AcDbLine
 62
250
  6
CONTINUOUS
 10
12.8381416126
 20
-22.1990057193
 11
13.1718971089
 21
-22.194013921
  0
LINE
  5
337
100
AcDbEntity
  8
SUPERFICI
100
AcDbLine
 62
250
  6
CONTINUOUS
 10
13.1718971089
 20
-22.194013921
 11
13.5304155767
 21
-22.1890876656
  0
LINE
  5
338
100
AcDbEntity
  8
SUPERFICI
100
AcDbLine
 62
250
  6
CONTINUOUS
 10
13.5304155767
 20
-22.1890876656
 11
13.9074915117
 21
-22.1843115867
  0
LWPOLYLINE
  5
339
100
AcDbEntity
  8
SUPERFICI
100
AcDbPolyline
 62
250
  6
CONTINUOUS
 90
3
 70
0
 10
13.9074915117
 20
-22.1843115867
 10
14.2965982043
 20
-22.179767799
 10
14.4935633765
 20
-22.1776076359
  0
LINE
  5
33A
100
AcDbEntity
  8
SUPERFICI
100
AcDbLine
 62
250
  6
CONTINUOUS
 10
-11.8434560191
 20
-22.2018753439
 11
-11.6623662611
 21
-22.2003865156
  0
LINE
  5
33B
100
AcDbEntity
  8
SUPERFICI
100
AcDbLine
 62
250
  6
CONTINUOUS
 10
0.5
 20
-24.0999834367
 11
-0.5
 21
-24.0999834367
  0
LINE
  5
33C
100
AcDbEntity
  8
SUPERFICI
100
AcDbLine
 62
7
  6
CONTINUOUS
 10
10.95
 20
-22.5
 11
-10.95
 21
-22.5
  0
LWPOLYLINE
  5
33D
100
AcDbEntity
  8
SUPERFICI
100
AcDbPolyline
 62
250
  6
CONTINUOUS
 90
3
 70
0
 10
-0.5
 20
-24.0999816306
 10
-3.9382960541
 20
-24.0976394706
 10
-10.9489516351
 20
-24.0988099933
  0
LINE
  5
33E
100
AcDbEntity
  8
SUPERFICI
100
AcDbLine
 62
250
  6
CONTINUOUS
 10
9.9700334235
 20
-24.0974707577
 11
0.5
 21
-24.099981639
  0
LINE
  5
33F
100
AcDbEntity
  8
SUPERFICI
100
AcDbLine
 62
250
  6
CONTINUOUS
 10
10.2343797896
 20
-24.0977604796
 11
9.9700334235
 21
-24.0974707577
  0
LINE
  5
340
100
AcDbEntity
  8
SUPERFICI
100
AcDbLine
 62
250
  6
CONTINUOUS
 10
10.9489482822
 20
-24.0988099745
 11
10.2343797896
 21
-24.0977604796
  0
LINE
  5
341
100
AcDbEntity
  8
SUPERFICI
100
AcDbLine
 62
250
  6
CONTINUOUS
 10
-11.6623662611
 20
-22.2003865156
 11
-11.2499999953
 21
-22.2000532983
  0
LINE
  5
342
100
AcDbEntity
  8
SUPERFICI
100
AcDbLine
 62
250
  6
CONTINUOUS
 10
11.6623665997
 20
-22.2003850673
 11
11.25
 21
-22.2
  0
LWPOLYLINE
  5
343
100
AcDbEntity
  8
SUPERFICI
100
AcDbPolyline
 62
250
  6
CONTINUOUS
 90
91
 70
0
 10
-10.9489516517
 20
-24.0988107588
 10
-10.9836881219
 20
-24.0986123934
 10
-11.0173853079
 20
-24.0977858956
 10
-11.0500323484
 20
-24.0963864219
 10
-11.0814947311
 20
-24.0944749198
 10
-11.1118911746
 20
-24.0921001998
 10
-11.1415921387
 20
-24.0892786956
 10
-11.1704649525
 20
-24.0860577633
 10
-11.1986325269
 20
-24.0824562321
 10
-11.2268446097
 20
-24.0783945854
 10
-11.2550887159
 20
-24.0738628621
 10
-11.2833607773
 20
-24.068863918
 10
-11.3124135426
 20
-24.0632688547
 10
-11.3425325159
 20
-24.0569781459
 10
-11.3733987027
 20
-24.0500028119
 10
-11.4048529959
 20
-24.0423509018
 10
-11.4371845032
 20
-24.0339096079
 10
-11.4700649753
 20
-24.0247122236
 10
-11.5024256488
 20
-24.0150491824
 10
-11.5341315382
 20
-24.0049879576
 10
-11.5653124549
 20
-23.9945087347
 10
-11.5953249934
 20
-23.9838607898
 10
-11.6239883649
 20
-23.9731691424
 10
-11.6515063938
 20
-23.9624177096
 10
-11.6778261658
 20
-23.9516775164
 10
-11.702949613
 20
-23.9410023865
 10
-11.7269024723
 20
-23.9304339707
 10
-11.7496697794
 20
-23.9200258647
 10
-11.7712109231
 20
-23.9098475265
 10
-11.7915975943
 20
-23.8999145422
 10
-11.810981371
 20
-23.8901925136
 10
-11.8293979775
 20
-23.8807051328
 10
-11.8468371411
 20
-23.8714898311
 10
-11.8633772881
 20
-23.8625232578
 10
-11.8789055183
 20
-23.8538975175
 10
-11.893557819
 20
-23.8455709901
 10
-11.9077772885
 20
-23.8373039056
 10
-11.9216101924
 20
-23.8290775288
 10
-11.9350174914
 20
-23.8209294971
 10
-11.9483030145
 20
-23.8126849528
 10
-11.9614706544
 20
-23.8043433633
 10
-11.9745153902
 20
-23.7959089577
 10
-11.9877186869
 20
-23.787199531
 10
-12.0010729707
 20
-23.7782120073
 10
-12.0145753462
 20
-23.768939295
 10
-12.0285044157
 20
-23.7591787557
 10
-12.0428432727
 20
-23.7489203417
 10
-12.0575858092
 20
-23.7381482712
 10
-12.0730145774
 20
-23.7266348874
 10
-12.0891717799
 20
-23.7143077372
 10
-12.1059724845
 20
-23.7011914941
 10
-12.1234977883
 20
-23.6871908858
 10
-12.1417926377
 20
-23.6722200017
 10
-12.1607537605
 20
-23.6563041791
 10
-12.1802385375
 20
-23.6395145753
 10
-12.2002692787
 20
-23.6217788556
 10
-12.2207619193
 20
-23.6031141343
 10
-12.2414263472
 20
-23.5837410409
 10
-12.2621788402
 20
-23.5637038516
 10
-12.2830578146
 20
-23.5429288918
 10
-12.3039691156
 20
-23.5214748655
 10
-12.3248165145
 20
-23.4994095871
 10
-12.3456536579
 20
-23.4766446428
 10
-12.3666053789
 20
-23.453000781
 10
-12.3876342347
 20
-23.4284647202
 10
-12.4087104252
 20
-23.4030144647
 10
-12.4299502862
 20
-23.3764428079
 10
-12.4513065364
 20
-23.3487240303
 10
-12.4727287805
 20
-23.3198354568
 10
-12.4943045856
 20
-23.2895590907
 10
-12.5159685768
 20
-23.2578622213
 10
-12.5376499423
 20
-23.2247181254
 10
-12.5594000464
 20
-23.1899031602
 10
-12.5811323932
 20
-23.1533759816
 10
-12.6027489612
 20
-23.1151115185
 10
-12.6242522732
 20
-23.0748979779
 10
-12.6455248489
 20
-23.0326986916
 10
-12.6664428726
 20
-22.9884854701
 10
-12.6869640051
 20
-22.9420497378
 10
-12.7069898429
 20
-22.8932369501
 10
-12.7263023076
 20
-22.8421466785
 10
-12.7446714321
 20
-22.7889591915
 10
-12.7618569657
 20
-22.7340496572
 10
-12.7778074161
 20
-22.6770489714
 10
-12.7924959542
 20
-22.6170212108
 10
-12.8057410319
 20
-22.5534414679
 10
-12.8171436201
 20
-22.486861241
 10
-12.8263141847
 20
-22.4179799189
 10
-12.8330024748
 20
-22.3470900079
 10
-12.8370210858
 20
-22.2740622497
 10
-12.8381390588
 20
-22.1990020255
  0
LINE
  5
344
100
AcDbEntity
  8
SUPERFICI
100
AcDbLine
 62
250
  6
CONTINUOUS
 10
-13.9074910678
 20
-22.1842921858
 11
-14.4935629484
 21
-22.1776004335
  0
LINE
  5
345
100
AcDbEntity
  8
SUPERFICI
100
AcDbLine
 62
250
  6
CONTINUOUS
 10
-13.3484388885
 20
-22.191519665
 11
-13.9074910678
 21
-22.1842921858
  0
LINE
  5
346
100
AcDbEntity
  8
SUPERFICI
100
AcDbLine
 62
250
  6
CONTINUOUS
 10
-12.8381388187
 20
-22.1990020202
 11
-13.3484388885
 21
-22.191519665
  0
LWPOLYLINE
  5
347
100
AcDbEntity
  8
SUPERFICI
100
AcDbPolyline
 62
250
  6
CONTINUOUS
 90
8
 70
0
 10
-12.8381390588
 20
-22.1990020255
 10
-12.7503335034
 20
-22.2009253781
 10
-12.6570593695
 20
-22.200515883
 10
-12.5593407917
 20
-22.1981268176
 10
-12.4582497344
 20
-22.1920444477
 10
-12.3548594443
 20
-22.1850521627
 10
-12.25031664
 20
-22.1829798392
 10
-12.1457939313
 20
-22.1883971356
  0
LWPOLYLINE
  5
348
100
AcDbEntity
  8
SUPERFICI
100
AcDbPolyline
 62
250
  6
CONTINUOUS
 90
3
 70
0
 10
-12.0423784222
 20
-22.1962850529
 10
-11.9412108015
 20
-22.2012223412
 10
-11.8434560191
 20
-22.2018753439
  0
LINE
  5
349
100
AcDbEntity
  8
SUPERFICI
100
AcDbLine
 62
250
  6
CONTINUOUS
 10
-12.1457939313
 20
-22.1883971356
 11
-12.0423784222
 21
-22.1962850529
  0
LWPOLYLINE
  5
34A
100
AcDbEntity
  8
SUPERFICI
100
AcDbPolyline
 62
250
  6
CONTINUOUS
 90
4
 70
0
 10
-10.9419771407
 20
-23.3003885265
 10
-10.9513494493
 20
-23.1984285459
 10
-10.9527802192
 20
-23.0998118586
 10
-10.9504214006
 20
-22.9169735687
  0
LWPOLYLINE
  5
34B
100
AcDbEntity
  8
SUPERFICI
100
AcDbPolyline
 62
250
  6
CONTINUOUS
 90
9
 70
0
 10
-10.9489516517
 20
-24.0988107588
 10
-10.953268931
 20
-24.0112343511
 10
-10.9527267067
 20
-23.9180014567
 10
-10.9480475377
 20
-23.8201453264
 10
-10.9358914798
 20
-23.7187003738
 10
-10.9217750163
 20
-23.6146933347
 10
-10.9172178323
 20
-23.509474399
 10
-10.9271744306
 20
-23.4044180218
 10
-10.9419771407
 20
-23.3003885265
  0
LINE
  5
34C
100
AcDbEntity
  8
SUPERFICI
100
AcDbLine
 62
250
  6
CONTINUOUS
 10
-14.4935629484
 20
-22.1776004335
 11
-14.4943992842
 21
-22.1042570726
  0
LINE
  5
34D
100
AcDbEntity
  8
SUPERFICI
100
AcDbLine
 62
250
  6
CONTINUOUS
 10
-14.4943992842
 20
-22.1042570726
 11
-14.4977089134
 21
-21.7922992394
  0
LINE
  5
34E
100
AcDbEntity
  8
SUPERFICI
100
AcDbLine
 62
250
  6
CONTINUOUS
 10
-14.4977089134
 20
-21.7922992394
 11
-14.5008059049
 21
-21.447296255
  0
LINE
  5
34F
100
AcDbEntity
  8
SUPERFICI
100
AcDbLine
 62
250
  6
CONTINUOUS
 10
-14.5008059049
 20
-21.447296255
 11
-14.503735763
 21
-21.0603146673
  0
LINE
  5
350
100
AcDbEntity
  8
SUPERFICI
100
AcDbLine
 62
250
  6
CONTINUOUS
 10
-14.503735763
 20
-21.0603146673
 11
-14.5065334938
 21
-20.6231369651
  0
LINE
  5
351
100
AcDbEntity
  8
SUPERFICI
100
AcDbLine
 62
250
  6
CONTINUOUS
 10
-14.5065334938
 20
-20.6231369651
 11
-14.5092113827
 21
-20.1268060882
  0
LINE
  5
352
100
AcDbEntity
  8
SUPERFICI
100
AcDbLine
 62
250
  6
CONTINUOUS
 10
-14.5092113827
 20
-20.1268060882
 11
-14.5117021027
 21
-19.5614157511
  0
LINE
  5
353
100
AcDbEntity
  8
SUPERFICI
100
AcDbLine
 62
250
  6
CONTINUOUS
 10
-14.5117021027
 20
-19.5614157511
 11
-14.5139255274
 21
-18.9186922779
  0
LINE
  5
354
100
AcDbEntity
  8
SUPERFICI
100
AcDbLine
 62
250
  6
CONTINUOUS
 10
-14.5139255274
 20
-18.9186922779
 11
-14.515821846
 21
-18.1959292822
  0
LINE
  5
355
100
AcDbEntity
  8
SUPERFICI
100
AcDbLine
 62
250
  6
CONTINUOUS
 10
-14.515821846
 20
-18.1959292822
 11
-14.5166935881
 21
-17.8038409081
  0
LWPOLYLINE
  5
356
100
AcDbEntity
  8
SUPERFICI
100
AcDbPolyline
 62
250
  6
CONTINUOUS
 90
3
 70
0
 10
-12.8376093305
 20
21.974216202
 10
-12.8377719796
 20
22.0505842923
 10
-12.8381388368
 20
22.1990057153
  0
LINE
  5
357
100
AcDbEntity
  8
SUPERFICI
100
AcDbLine
 62
250
  6
CONTINUOUS
 10
-14.5166935881
 20
-17.8038409081
 11
-14.5175501177
 21
-17.390230418
  0
LINE
  5
358
100
AcDbEntity
  8
SUPERFICI
100
AcDbLine
 62
250
  6
CONTINUOUS
 10
-14.5175501177
 20
-17.390230418
 11
-14.5183839034
 21
-16.954375931
  0
LINE
  5
359
100
AcDbEntity
  8
SUPERFICI
100
AcDbLine
 62
250
  6
CONTINUOUS
 10
-14.5183839034
 20
-16.954375931
 11
-14.5191769784
 21
-16.4949341561
  0
LWPOLYLINE
  5
35A
100
AcDbEntity
  8
SUPERFICI
100
AcDbPolyline
 62
250
  6
CONTINUOUS
 90
3
 70
0
 10
-14.5191769784
 20
-16.4949341561
 10
-14.5199327192
 20
-16.0102769776
 10
-14.5202980747
 20
-15.7582934024
  0
LINE
  5
35B
100
AcDbEntity
  8
SUPERFICI
100
AcDbLine
 62
250
  6
CONTINUOUS
 10
-12.835226699
 20
20.6667648626
 11
-12.8376093305
 21
21.974216202
  0
LWPOLYLINE
  5
35C
100
AcDbEntity
  8
SUPERFICI
100
AcDbPolyline
 62
250
  6
CONTINUOUS
 90
3
 70
0
 10
-14.5202980747
 20
-15.7582934024
 10
-14.5210052747
 20
-15.233702856
 10
-14.5213472056
 20
-14.961096145
  0
LINE
  5
35D
100
AcDbEntity
  8
SUPERFICI
100
AcDbLine
 62
250
  6
CONTINUOUS
 10
-14.5213472056
 20
-14.961096145
 11
-14.5235816354
 21
-12.843342765
  0
LINE
  5
35E
100
AcDbEntity
  8
SUPERFICI
100
AcDbLine
 62
250
  6
CONTINUOUS
 10
-14.5235816354
 20
-12.843342765
 11
-14.5267075047
 21
-9.0864109711
  0
LINE
  5
35F
100
AcDbEntity
  8
SUPERFICI
100
AcDbLine
 62
250
  6
CONTINUOUS
 10
-12.8324846253
 20
18.107550213
 11
-12.835226699
 21
20.6667648626
  0
LINE
  5
360
100
AcDbEntity
  8
SUPERFICI
100
AcDbLine
 62
250
  6
CONTINUOUS
 10
-14.5267075047
 20
-9.0864109711
 11
-14.5296513094
 21
-4.7817595077
  0
LWPOLYLINE
  5
361
100
AcDbEntity
  8
SUPERFICI
100
AcDbPolyline
 62
250
  6
CONTINUOUS
 90
3
 70
0
 10
-14.5296513094
 20
-4.7817595077
 10
-14.5319378534
 20
-0.6572453308
 10
-14.5322558109
 20
-0.0
  0
LINE
  5
362
100
AcDbEntity
  8
SUPERFICI
100
AcDbLine
 62
250
  6
CONTINUOUS
 10
-12.831627671
 20
16.866262557
 11
-12.8324846253
 21
18.107550213
  0
LINE
  5
363
100
AcDbEntity
  8
SUPERFICI
100
AcDbLine
 62
250
  6
CONTINUOUS
 10
-12.82439072
 20
-0.0
 11
-12.8290024992
 21
11.7115931784
  0
LINE
  5
364
100
AcDbEntity
  8
SUPERFICI
100
AcDbLine
 62
250
  6
CONTINUOUS
 10
-12.8290024992
 20
11.7115931784
 11
-12.831627671
 21
16.866262557
  0
LWPOLYLINE
  5
365
100
AcDbEntity
  8
SUPERFICI
100
AcDbPolyline
 62
250
  6
CONTINUOUS
 90
3
 70
0
 10
-14.5322558687
 20
-0.0
 10
-14.5302118667
 20
3.8503056907
 10
-14.5268306861
 20
8.9229767604
  0
LINE
  5
366
100
AcDbEntity
  8
SUPERFICI
100
AcDbLine
 62
250
  6
CONTINUOUS
 10
-14.5268306861
 20
8.9229767604
 11
-14.5236689852
 21
12.748720079
  0
LWPOLYLINE
  5
367
100
AcDbEntity
  8
SUPERFICI
100
AcDbPolyline
 62
250
  6
CONTINUOUS
 90
3
 70
0
 10
-12.8336689711
 20
-19.4167343433
 10
-12.833505086
 20
-19.2581733285
 10
-12.824390727
 20
-0.0
  0
LINE
  5
368
100
AcDbEntity
  8
SUPERFICI
100
AcDbLine
 62
250
  6
CONTINUOUS
 10
-14.5236689852
 20
12.748720079
 11
-14.5214554489
 21
14.8720857672
  0
LWPOLYLINE
  5
369
100
AcDbEntity
  8
SUPERFICI
100
AcDbPolyline
 62
250
  6
CONTINUOUS
 90
3
 70
0
 10
-12.8341686751
 20
-19.8631745539
 10
-12.8340015538
 20
-19.7192135197
 10
-12.8336689711
 20
-19.4167343433
  0
LINE
  5
36A
100
AcDbEntity
  8
SUPERFICI
100
AcDbLine
 62
250
  6
CONTINUOUS
 10
-12.8346724849
 20
-20.2677903148
 11
-12.8341686751
 21
-19.8631745539
  0
LINE
  5
36B
100
AcDbEntity
  8
SUPERFICI
100
AcDbLine
 62
250
  6
CONTINUOUS
 10
-12.835011453
 20
-20.5164833417
 11
-12.8346724849
 21
-20.2677903148
  0
LINE
  5
36C
100
AcDbEntity
  8
SUPERFICI
100
AcDbLine
 62
250
  6
CONTINUOUS
 10
-14.5214554489
 20
14.8720857672
 11
-14.5197002049
 21
16.1643375335
  0
LWPOLYLINE
  5
36D
100
AcDbEntity
  8
SUPERFICI
100
AcDbPolyline
 62
250
  6
CONTINUOUS
 90
3
 70
0
 10
-12.8355210573
 20
-20.8613753579
 10
-12.835350676
 20
-20.7499483991
 10
-12.835011453
 20
-20.5164833417
  0
LWPOLYLINE
  5
36E
100
AcDbEntity
  8
SUPERFICI
100
AcDbPolyline
 62
250
  6
CONTINUOUS
 90
3
 70
0
 10
-12.8360340331
 20
-21.1756880305
 10
-12.8358626127
 20
-21.0740576409
 10
-12.8355210573
 20
-20.8613753579
  0
LWPOLYLINE
  5
36F
100
AcDbEntity
  8
SUPERFICI
100
AcDbPolyline
 62
250
  6
CONTINUOUS
 90
3
 70
0
 10
-12.8365511077
 20
-21.4629055907
 10
-12.8363783551
 20
-21.3699003911
 10
-12.8360340331
 20
-21.1756880305
  0
LINE
  5
370
100
AcDbEntity
  8
SUPERFICI
100
AcDbLine
 62
250
  6
CONTINUOUS
 10
-14.5197002049
 20
16.1643375335
 11
-14.5173139209
 21
17.5057413212
  0
LWPOLYLINE
  5
371
100
AcDbEntity
  8
SUPERFICI
100
AcDbPolyline
 62
250
  6
CONTINUOUS
 90
3
 70
0
 10
-12.837072817
 20
-21.7267519963
 10
-12.8368982159
 20
-21.6411679402
 10
-12.8365511077
 20
-21.4629055907
  0
LINE
  5
372
100
AcDbEntity
  8
SUPERFICI
100
AcDbLine
 62
250
  6
CONTINUOUS
 10
-14.5173139209
 20
17.5057413212
 11
-14.5146901559
 21
18.6514657731
  0
LINE
  5
373
100
AcDbEntity
  8
SUPERFICI
100
AcDbLine
 62
250
  6
CONTINUOUS
 10
-12.8381388187
 20
-22.1990020202
 11
-12.837072817
 21
-21.7267519963
  0
LINE
  5
374
100
AcDbEntity
  8
SUPERFICI
100
AcDbLine
 62
250
  6
CONTINUOUS
 10
-14.5146901559
 20
18.6514657731
 11
-14.5126192146
 21
19.3160465643
  0
LINE
  5
375
100
AcDbEntity
  8
SUPERFICI
100
AcDbLine
 62
250
  6
CONTINUOUS
 10
-14.5126192146
 20
19.3160465643
 11
-14.5102611598
 21
19.9038588284
  0
LINE
  5
376
100
AcDbEntity
  8
SUPERFICI
100
AcDbLine
 62
250
  6
CONTINUOUS
 10
-14.5102611598
 20
19.9038588284
 11
-14.5076869036
 21
20.4200583771
  0
LINE
  5
377
100
AcDbEntity
  8
SUPERFICI
100
AcDbLine
 62
250
  6
CONTINUOUS
 10
-14.5076869036
 20
20.4200583771
 11
-14.5049804541
 21
20.8749099237
  0
LINE
  5
378
100
AcDbEntity
  8
SUPERFICI
100
AcDbLine
 62
250
  6
CONTINUOUS
 10
-14.5049804541
 20
20.8749099237
 11
-14.5021560376
 21
21.2770579101
  0
LINE
  5
379
100
AcDbEntity
  8
SUPERFICI
100
AcDbLine
 62
250
  6
CONTINUOUS
 10
-14.5021560376
 20
21.2770579101
 11
-14.499188327
 21
21.6344747966
  0
LINE
  5
37A
100
AcDbEntity
  8
SUPERFICI
100
AcDbLine
 62
250
  6
CONTINUOUS
 10
-14.499188327
 20
21.6344747966
 11
-14.496050446
 21
21.9557228492
  0
LINE
  5
37B
100
AcDbEntity
  8
SUPERFICI
100
AcDbLine
 62
250
  6
CONTINUOUS
 10
-14.496050446
 20
21.9557228492
 11
-14.4935628403
 21
22.1776075354
  0
LWPOLYLINE
  5
37C
100
AcDbEntity
  8
SUPERFICI
100
AcDbPolyline
 62
250
  6
CONTINUOUS
 90
91
 70
0
 10
-12.8381390756
 20
22.1990057248
 10
-12.8372027291
 20
22.2688235209
 10
-12.8336571664
 20
22.338089212
 10
-12.8275594879
 20
22.406705087
 10
-12.8189061137
 20
22.4749809938
 10
-12.8077953086
 20
22.5424190575
 10
-12.7945720336
 20
22.6077392785
 10
-12.7794795441
 20
22.6706179926
 10
-12.7626768216
 20
22.7312930389
 10
-12.7445428957
 20
22.7893852979
 10
-12.7253567642
 20
22.8447810019
 10
-12.7052612038
 20
22.8976131274
 10
-12.6844535739
 20
22.9479060693
 10
-12.663164096
 20
22.9956030462
 10
-12.6415254342
 20
23.0408298229
 10
-12.6195536529
 20
23.0838840828
 10
-12.5973766261
 20
23.1248135038
 10
-12.5751326377
 20
23.1636455147
 10
-12.5528066843
 20
23.200633032
 10
-12.5305049714
 20
23.235804878
 10
-12.5083208021
 20
23.2692071405
 10
-12.4861820498
 20
23.3011027549
 10
-12.4641634288
 20
23.3315208169
 10
-12.4423336829
 20
23.3604969223
 10
-12.420578659
 20
23.3882856848
 10
-12.3989487046
 20
23.4149118596
 10
-12.3774930193
 20
23.4404009063
 10
-12.3560677366
 20
23.4649899184
 10
-12.3346794329
 20
23.4887247303
 10
-12.3133865259
 20
23.5115929279
 10
-12.292103491
 20
23.5337296795
 10
-12.2707677552
 20
23.555233902
 10
-12.2494869575
 20
23.5760295496
 10
-12.2284304246
 20
23.595990971
 10
-12.2076019351
 20
23.615160933
 10
-12.1870523699
 20
23.6335364155
 10
-12.1670355444
 20
23.6509396136
 10
-12.1476463658
 20
23.667349835
 10
-12.1288548242
 20
23.6828481616
 10
-12.1107350901
 20
23.6974200723
 10
-12.0933880934
 20
23.7110412448
 10
-12.0767692153
 20
23.7237955002
 10
-12.0607291501
 20
23.7358252558
 10
-12.0453388932
 20
23.7471119241
 10
-12.0305657238
 20
23.7577168355
 10
-12.0160921502
 20
23.7678861865
 10
-12.0019157928
 20
23.777637924
 10
-11.9880577883
 20
23.7869742013
 10
-11.9742231298
 20
23.7960998807
 10
-11.960395823
 20
23.8050296611
 10
-11.9465984103
 20
23.8137526367
 10
-11.9325842352
 20
23.8224209673
 10
-11.9183586308
 20
23.8310261165
 10
-11.9039151028
 20
23.8395680086
 10
-11.8889810742
 20
23.8481978367
 10
-11.8735344763
 20
23.8569073416
 10
-11.857587936
 20
23.8656800264
 10
-11.8409127121
 20
23.8746405208
 10
-11.8234103043
 20
23.8838188233
 10
-11.8051609069
 20
23.8931417086
 10
-11.786200289
 20
23.9025725777
 10
-11.7665860674
 20
23.9120602513
 10
-11.7462455268
 20
23.9216133787
 10
-11.7250170265
 20
23.9312797997
 10
-11.7028829091
 20
23.9410323474
 10
-11.6798409119
 20
23.9508366121
 10
-11.6557478875
 20
23.9607168794
 10
-11.6305704465
 20
23.9706416119
 10
-11.604319367
 20
23.9805602983
 10
-11.576914807
 20
23.9904577053
 10
-11.5480972374
 20
24.0003679794
 10
-11.5181025128
 20
24.0101491902
 10
-11.4876046736
 20
24.0195493688
 10
-11.4565607081
 20
24.0285640157
 10
-11.4250185044
 20
24.0371558666
 10
-11.3938119175
 20
24.0450994618
 10
-11.3631396093
 20
24.0523791759
 10
-11.3328324761
 20
24.059060722
 10
-11.3031870947
 20
24.0650967632
 10
-11.274487981
 20
24.0704778417
 10
-11.2464810121
 20
24.0752910786
 10
-11.2186536004
 20
24.0796233487
 10
-11.1911227426
 20
24.083463034
 10
-11.1637897053
 20
24.0868452284
 10
-11.1358100272
 20
24.089866244
 10
-11.1070508337
 20
24.0925123851
 10
-11.0776540528
 20
24.094737952
 10
-11.047182617
 20
24.0965326169
 10
-11.0154950148
 20
24.0978491935
 10
-10.9827469292
 20
24.0986266385
 10
-10.948948289
 20
24.0988107487
  0
LWPOLYLINE
  5
37D
100
AcDbEntity
  8
SUPERFICI
100
AcDbPolyline
 62
250
  6
CONTINUOUS
 90
48
 70
0
 10
-14.4935633753
 20
22.1776076359
 10
-14.4894756018
 20
22.3116522176
 10
-14.4802639378
 20
22.4446052259
 10
-14.4660097541
 20
22.5763438282
 10
-14.4463748306
 20
22.7078174557
 10
-14.4217052482
 20
22.8380982179
 10
-14.393535749
 20
22.9640131723
 10
-14.3630874108
 20
23.0840296429
 10
-14.3306033796
 20
23.1979491643
 10
-14.2965764206
 20
23.304811746
 10
-14.2615081899
 20
23.4051618601
 10
-14.2253560224
 20
23.500402104
 10
-14.1875692811
 20
23.5914848173
 10
-14.1482870001
 20
23.6782549436
 10
-14.1081225656
 20
23.760515044
 10
-14.0672921516
 20
23.8386140229
 10
-14.0260492867
 20
23.9126420882
 10
-13.9845959157
 20
23.9827209689
 10
-13.9429439966
 20
24.0493670587
 10
-13.9012978822
 20
24.1126248779
 10
-13.8598293261
 20
24.1725504514
 10
-13.818447623
 20
24.2296213563
 10
-13.7772951851
 20
24.2838911496
 10
-13.7364898639
 20
24.3354264912
 10
-13.6958403739
 20
24.3847042227
 10
-13.6554407655
 20
24.4317734495
 10
-13.6153762259
 20
24.4766793453
 10
-13.575393487
 20
24.519858532
 10
-13.5355071104
 20
24.5613940754
 10
-13.4958251498
 20
24.6012615423
 10
-13.4562019456
 20
24.6397091564
 10
-13.4165189567
 20
24.6769127078
 10
-13.3769717643
 20
24.7127467816
 10
-13.3378815261
 20
24.747013652
 10
-13.2992614044
 20
24.7797748265
 10
-13.2612150159
 20
24.8110252137
 10
-13.2242209404
 20
24.8404961024
 10
-13.1884504281
 20
24.868155423
 10
-13.1537642422
 20
24.894214953
 10
-13.1201625203
 20
24.9188028596
 10
-13.0877127972
 20
24.9419225187
 10
-13.0562160272
 20
24.9638241807
 10
-13.0252438516
 20
24.9849947145
 10
-12.9948518755
 20
25.0054507628
 10
-12.9651252414
 20
25.0251392281
 10
-12.9356681534
 20
25.044403857
 10
-12.9065448916
 20
25.063218386
 10
-12.8777828336
 20
25.0815770755
  0
LWPOLYLINE
  5
37E
100
AcDbEntity
  8
SUPERFICI
100
AcDbPolyline
 62
250
  6
CONTINUOUS
 90
9
 70
0
 10
-10.948948289
 20
24.0988107487
 10
-10.9532818733
 20
24.0112341863
 10
-10.9527371805
 20
23.9180012524
 10
-10.9480395699
 20
23.8201451877
 10
-10.9358360615
 20
23.7187000009
 10
-10.9216646211
 20
23.6146916657
 10
-10.9170898038
 20
23.5094719359
 10
-10.927085475
 20
23.4044169024
 10
-10.9419461818
 20
23.3003885043
  0
LWPOLYLINE
  5
37F
100
AcDbEntity
  8
SUPERFICI
100
AcDbPolyline
 62
250
  6
CONTINUOUS
 90
3
 70
0
 10
-10.9419461818
 20
23.3003885043
 10
-10.9513551157
 20
23.1984284802
 10
-10.9527912695
 20
23.0998117265
  0
LINE
  5
380
100
AcDbEntity
  8
SUPERFICI
100
AcDbLine
 62
250
  6
CONTINUOUS
 10
-10.9527912695
 20
23.0998117265
 11
-10.9504227939
 21
22.9169735567
  0
LINE
  5
381
100
AcDbEntity
  8
SUPERFICI
100
AcDbLine
 62
250
  6
CONTINUOUS
 10
-10.948951644
 20
-24.0988105896
 11
-10.9436751627
 21
-24.5790207271
  0
LINE
  5
382
100
AcDbEntity
  8
SUPERFICI
100
AcDbLine
 62
250
  6
CONTINUOUS
 10
-10.9436751627
 20
-24.5790207271
 11
-10.9385480015
 21
-25.105529175
  0
LINE
  5
383
100
AcDbEntity
  8
SUPERFICI
100
AcDbLine
 62
250
  6
CONTINUOUS
 10
-10.9385480015
 20
-25.105529175
 11
-10.9337502943
 21
-25.6598159389
  0
LINE
  5
384
100
AcDbEntity
  8
SUPERFICI
100
AcDbLine
 62
7
  6
CONTINUOUS
 10
-11.25
 20
-22.2
 11
-11.25
 21
22.2
  0
LINE
  5
385
100
AcDbEntity
  8
SUPERFICI
100
AcDbLine
 62
250
  6
CONTINUOUS
 10
-10.9504227939
 20
22.9169735567
 11
-10.9500573065
 21
22.4999999945
  0
LINE
  5
386
100
AcDbEntity
  8
SUPERFICI
100
AcDbLine
 62
250
  6
CONTINUOUS
 10
-10.9504214006
 20
-22.9169735687
 11
-10.9500000003
 21
-22.5
  0
LINE
  5
387
100
AcDbEntity
  8
SUPERFICI
100
AcDbLine
 62
250
  6
CONTINUOUS
 10
-10.9419339808
 20
24.7502663304
 11
-10.9337438013
 21
25.6598161962
  0
LINE
  5
388
100
AcDbEntity
  8
SUPERFICI
100
AcDbLine
 62
250
  6
CONTINUOUS
 10
-10.9489482822
 20
24.0988099743
 11
-10.9419339808
 21
24.7502663304
  0
LINE
  5
389
100
AcDbEntity
  8
0
100
AcDbLine
 62
7
  6
CONTINUOUS
 10
2.318751
 20
-28.800022
 11
1.387619
 21
-25.899884
  0
LINE
  5
38A
100
AcDbEntity
  8
0
100
AcDbLine
 62
7
  6
CONTINUOUS
 10
1.967648
 20
-25.899884
 11
2.60878
 21
-27.89678
  0
LINE
  5
38B
100
AcDbEntity
  8
SUPERFICI
100
AcDbLine
 62
250
  6
CONTINUOUS
 10
-0.5
 20
-39.7614223771
 11
-0.5001426596
 21
-39.7514881353
  0
LINE
  5
38C
100
AcDbEntity
  8
SUPERFICI
100
AcDbLine
 62
250
  6
CONTINUOUS
 10
-0.5001426596
 20
-39.7514881353
 11
-0.500290573
 21
-39.7032583341
  0
LWPOLYLINE
  5
38D
100
AcDbEntity
  8
0
100
AcDbPolyline
 62
7
  6
CONTINUOUS
 90
4
 70
0
 43
0.3500000006
 10
-2.3571427875
 20
50.2443773804
 10
-2.3571427875
 20
51.1015198517
 10
-1.9285714102
 20
51.5300933533
 10
-1.2857142735
 20
51.5300933533
  0
LWPOLYLINE
  5
38E
100
AcDbEntity
  8
SUPERFICI
100
AcDbPolyline
 62
250
  6
CONTINUOUS
 90
3
 70
0
 10
-0.5001166727
 20
-24.9486964854
 10
-0.5001050053
 20
-25.1330950444
 10
-0.500046669
 20
-25.5105858415
  0
LINE
  5
38F
100
AcDbEntity
  8
SUPERFICI
100
AcDbLine
 62
250
  6
CONTINUOUS
 10
-0.500046669
 20
-25.5105858415
 11
-0.5
 21
-39.0969208982
  0
LWPOLYLINE
  5
390
100
AcDbEntity
  8
0
100
AcDbPolyline
 62
7
  6
CONTINUOUS
 90
13
 70
0
 43
0.3500000006
 10
0.0
 20
50.672950882
 10
0.0
 20
51.9586668549
 10
0.2142857063
 20
52.3872358246
 10
0.6428571367
 20
52.8158093262
 10
0.8571428254
 20
52.8158093262
 10
1.2857142735
 20
52.3872358246
 10
1.5000000329
 20
51.9586668549
 10
1.5000000329
 20
50.672950882
 10
1.2857142735
 20
50.2443773804
 10
0.8571428254
 20
49.8158084106
 10
0.6428571367
 20
49.8158084106
 10
0.2142857063
 20
50.2443773804
 10
0.0
 20
50.672950882
  0
LINE
  5
391
100
AcDbEntity
  8
SUPERFICI
100
AcDbLine
 62
250
  6
CONTINUOUS
 10
0.500046669
 20
25.5105858415
 11
0.5
 21
39.0969208982
  0
LWPOLYLINE
  5
392
100
AcDbEntity
  8
SUPERFICI
100
AcDbPolyline
 62
250
  6
CONTINUOUS
 90
3
 70
0
 10
-0.5000816711
 20
-24.4219432584
 10
-0.5001050057
 20
-24.5923866628
 10
-0.5001166727
 20
-24.9486964854
  0
LINE
  5
393
100
AcDbEntity
  8
SUPERFICI
100
AcDbLine
 62
250
  6
CONTINUOUS
 10
0.5001050057
 20
24.5923866628
 11
0.500046669
 21
25.5105858415
  0
LINE
  5
394
100
AcDbEntity
  8
SUPERFICI
100
AcDbLine
 62
250
  6
CONTINUOUS
 10
-0.5
 20
-22.5
 11
-0.5000816711
 21
-24.4219432584
  0
LINE
  5
395
100
AcDbEntity
  8
SUPERFICI
100
AcDbLine
 62
250
  6
CONTINUOUS
 10
-0.50004275
 20
-39.2743299448
 11
-0.5
 21
-39.0969208982
  0
LINE
  5
396
100
AcDbEntity
  8
SUPERFICI
100
AcDbLine
 62
250
  6
CONTINUOUS
 10
0.5
 20
22.5
 11
0.5001050057
 21
24.5923866628
  0
LINE
  5
397
100
AcDbEntity
  8
SUPERFICI
100
AcDbLine
 62
250
  6
CONTINUOUS
 10
-0.5000993774
 20
-39.4320922396
 11
-0.50004275
 21
-39.2743299448
  0
LWPOLYLINE
  5
398
100
AcDbEntity
  8
SUPERFICI
100
AcDbPolyline
 62
250
  6
CONTINUOUS
 90
3
 70
0
 10
0.5
 20
-39.7614223771
 10
0.5000340423
 20
-22.5055538277
 10
0.5000573062
 20
-22.5
  0
LINE
  5
399
100
AcDbEntity
  8
SUPERFICI
100
AcDbLine
 62
250
  6
CONTINUOUS
 10
-0.500290573
 20
-39.7032583341
 11
-0.5000993774
 21
-39.4320922396
  0
LINE
  5
39A
100
AcDbEntity
  8
SUPERFICI
100
AcDbLine
 62
250
  6
CONTINUOUS
 10
0.500290573
 20
39.7032583341
 11
0.5
 21
39.0969208982
  0
LINE
  5
39B
100
AcDbEntity
  8
SUPERFICI
100
AcDbLine
 62
250
  6
CONTINUOUS
 10
-0.5
 20
39.7614223771
 11
-0.5000573062
 21
22.5
  0
LWPOLYLINE
  5
39C
100
AcDbEntity
  8
SUPERFICI
100
AcDbPolyline
 62
250
  6
CONTINUOUS
 90
3
 70
0
 10
39.7659053964
 20
0.0003242561
 10
39.5342017279
 20
0.0001214594
 10
39.4609929006
 20
0.0000936974
  0
LWPOLYLINE
  5
39D
100
AcDbEntity
  8
SUPERFICI
100
AcDbPolyline
 62
250
  6
CONTINUOUS
 90
3
 70
0
 10
39.4609929006
 20
0.0000936974
 10
39.2915285295
 20
0.0000464333
 10
39.197225835
 20
0.0000274759
  0
LINE
  5
39E
100
AcDbEntity
  8
SUPERFICI
100
AcDbLine
 62
250
  6
CONTINUOUS
 10
39.197225835
 20
0.0000274759
 11
38.994900465
 21
0.0
  0
LINE
  5
39F
100
AcDbEntity
  8
SUPERFICI
100
AcDbLine
 62
250
  6
CONTINUOUS
 10
-39.7659053964
 20
-0.0003242561
 11
-38.994900465
 21
-0.0
  0
LINE
  5
3A0
100
AcDbEntity
  8
SUPERFICI
100
AcDbLine
 62
250
  6
CONTINUOUS
 10
-14.3301939983
 20
-0.0000366786
 11
-38.9949004656
 21
0.0
  0
LINE
  5
3A1
100
AcDbEntity
  8
SUPERFICI
100
AcDbLine
 62
250
  6
CONTINUOUS
 10
14.3301940013
 20
0.000013062
 11
12.0499999783
 21
-0.0002750929
  0
LINE
  5
3A2
100
AcDbEntity
  8
SUPERFICI
100
AcDbLine
 62
250
  6
CONTINUOUS
 10
14.3301940013
 20
0.000013062
 11
38.9949004656
 21
0.0
  0
LINE
  5
3A3
100
AcDbEntity
  8
SUPERFICI
100
AcDbLine
 62
250
  6
CONTINUOUS
 10
12.0499999783
 20
-0.0002750929
 11
11.6565233221
 21
-0.0002071955
  0
LINE
  5
3A4
100
AcDbEntity
  8
SUPERFICI
100
AcDbLine
 62
250
  6
CONTINUOUS
 10
11.6565233221
 20
-0.0002071955
 11
11.5031956873
 21
-0.0001513733
  0
LINE
  5
3A5
100
AcDbEntity
  8
SUPERFICI
100
AcDbLine
 62
250
  6
CONTINUOUS
 10
11.5031956873
 20
-0.0001513733
 11
11.3351840301
 21
-0.0000494996
  0
LINE
  5
3A6
100
AcDbEntity
  8
SUPERFICI
100
AcDbLine
 62
250
  6
CONTINUOUS
 10
11.3351840301
 20
-0.0000494996
 11
11.25
 21
0.0000532983
  0
LINE
  5
3A7
100
AcDbEntity
  8
SUPERFICI
100
AcDbLine
 62
250
  6
CONTINUOUS
 10
-14.3301939983
 20
-0.0000366786
 11
-11.25
 21
-0.0000532982
  0
LINE
  5
3A8
100
AcDbEntity
  8
0
100
AcDbLine
 62
7
  6
CONTINUOUS
 10
13.096695
 20
-28.800007
 11
12.515441
 21
-27.678657
  0
LINE
  5
3A9
100
AcDbEntity
  8
0
100
AcDbLine
 62
7
  6
CONTINUOUS
 10
13.1325957907
 20
-27.6089026669
 11
13.75
 21
-28.8
  0
LINE
  5
3AA
100
AcDbEntity
  8
0
100
AcDbLine
 62
7
  6
CONTINUOUS
 10
6.505031
 20
-28.800015
 11
5.956656
 21
-26.887573
  0
LINE
  5
3AB
100
AcDbEntity
  8
0
100
AcDbLine
 62
7
  6
CONTINUOUS
 10
6.253471
 20
-25.899884
 11
6.795039
 21
-27.788552
  0
LINE
  5
3AC
100
AcDbEntity
  8
SUPERFICI
100
AcDbLine
 62
250
  6
CONTINUOUS
 10
0.5
 20
39.7614223771
 11
0.5001426596
 21
39.7514881353
  0
LINE
  5
3AD
100
AcDbEntity
  8
SUPERFICI
100
AcDbLine
 62
250
  6
CONTINUOUS
 10
0.5001426596
 20
39.7514881353
 11
0.500290573
 21
39.7032583341
  0
LINE
  5
3AE
100
AcDbEntity
  8
0
100
AcDbLine
 62
7
  6
CONTINUOUS
 10
4.216605
 20
-28.800022
 11
4.216612
 21
-25.899884
  0
LINE
  5
3AF
100
AcDbEntity
  8
0
100
AcDbLine
 62
7
  6
CONTINUOUS
 10
10.102373
 20
-27.678657
 11
9.821268
 21
-26.803118
  0
LINE
  5
3B0
100
AcDbEntity
  8
0
100
AcDbLine
 62
7
  6
CONTINUOUS
 10
10.462408
 20
-28.800007
 11
10.279302
 21
-28.229679
  0
LINE
  5
3B1
100
AcDbEntity
  8
0
100
AcDbLine
 62
7
  6
CONTINUOUS
 10
10.111297
 20
-25.899877
 11
11.042437
 21
-28.800015
  0
LINE
  5
3B2
100
AcDbEntity
  8
0
100
AcDbLine
 62
7
  6
CONTINUOUS
 10
4.796634
 20
-25.899884
 11
4.796627
 21
-28.800015
  0
LINE
  5
3B3
100
AcDbEntity
  8
0
100
AcDbLine
 62
7
  6
CONTINUOUS
 10
5.376634
 20
-28.800015
 11
5.376634
 21
-25.899884
  0
LINE
  5
3B4
100
AcDbEntity
  8
0
100
AcDbLine
 62
7
  6
CONTINUOUS
 10
5.956656
 20
-26.887573
 11
5.956656
 21
-28.800015
  0
LINE
  5
3B5
100
AcDbEntity
  8
0
100
AcDbLine
 62
7
  6
CONTINUOUS
 10
7.633421
 20
-28.800015
 11
7.633414
 21
-26.887573
  0
LINE
  5
3B6
100
AcDbEntity
  8
0
100
AcDbLine
 62
7
  6
CONTINUOUS
 10
8.213443
 20
-25.899884
 11
8.213443
 21
-28.800015
  0
LWPOLYLINE
  5
3B7
100
AcDbEntity
  8
SUPERFICI
100
AcDbPolyline
 62
250
  6
CONTINUOUS
 90
4
 70
0
 10
10.9419771409
 20
23.3003885267
 10
10.9513494493
 20
23.1984285461
 10
10.9527802191
 20
23.0998118587
 10
10.9504214006
 20
22.9169735686
  0
LWPOLYLINE
  5
3B8
100
AcDbEntity
  8
SUPERFICI
100
AcDbPolyline
 62
250
  6
CONTINUOUS
 90
9
 70
0
 10
10.9489516517
 20
24.0988107592
 10
10.953268931
 20
24.0112343516
 10
10.9527267067
 20
23.9180014573
 10
10.9480475378
 20
23.820145327
 10
10.9358914802
 20
23.7187003744
 10
10.921775017
 20
23.6146933352
 10
10.9172178331
 20
23.5094743994
 10
10.9271744312
 20
23.4044180221
 10
10.9419771409
 20
23.3003885267
  0
LINE
  5
3B9
100
AcDbEntity
  8
SUPERFICI
100
AcDbLine
 62
250
  6
CONTINUOUS
 10
10.9527912694
 20
-23.0998117266
 11
10.9504227939
 21
-22.9169735566
  0
LINE
  5
3BA
100
AcDbEntity
  8
SUPERFICI
100
AcDbLine
 62
250
  6
CONTINUOUS
 10
10.948951644
 20
24.0988105901
 11
10.9436751627
 21
24.5790207277
  0
LINE
  5
3BB
100
AcDbEntity
  8
SUPERFICI
100
AcDbLine
 62
250
  6
CONTINUOUS
 10
10.9436751627
 20
24.5790207277
 11
10.9385480014
 21
25.1055291758
  0
LINE
  5
3BC
100
AcDbEntity
  8
SUPERFICI
100
AcDbLine
 62
250
  6
CONTINUOUS
 10
10.9385480014
 20
25.1055291758
 11
10.9337502943
 21
25.65981594
  0
LWPOLYLINE
  5
3BD
100
AcDbEntity
  8
SUPERFICI
100
AcDbPolyline
 62
250
  6
CONTINUOUS
 90
4
 70
0
 10
12.8372643901
 20
-21.8169232382
 10
12.8376093324
 20
-21.9742170655
 10
12.837771981
 20
-22.0505848545
 10
12.838138837
 20
-22.1990057153
  0
LINE
  5
3BE
100
AcDbEntity
  8
SUPERFICI
100
AcDbLine
 62
250
  6
CONTINUOUS
 10
12.8370906367
 20
-21.7352243895
 11
12.8372643901
 21
-21.8169232382
  0
LINE
  5
3BF
100
AcDbEntity
  8
SUPERFICI
100
AcDbLine
 62
250
  6
CONTINUOUS
 10
12.8367472642
 20
-21.5651590597
 11
12.8370906367
 21
-21.7352243895
  0
LWPOLYLINE
  5
3C0
100
AcDbEntity
  8
SUPERFICI
100
AcDbPolyline
 62
250
  6
CONTINUOUS
 90
3
 70
0
 10
12.83623698
 20
-21.2918147434
 10
12.8364067933
 20
-21.385429304
 10
12.8367472642
 20
-21.5651590597
  0
LWPOLYLINE
  5
3C1
100
AcDbEntity
  8
SUPERFICI
100
AcDbPolyline
 62
250
  6
CONTINUOUS
 90
4
 70
0
 10
12.8355623554
 20
-20.8878601422
 10
12.8357302212
 20
-20.9934936654
 10
12.8358989001
 20
-21.095846544
 10
12.83623698
 20
-21.2918147434
  0
LWPOLYLINE
  5
3C2
100
AcDbEntity
  8
SUPERFICI
100
AcDbPolyline
 62
250
  6
CONTINUOUS
 90
3
 70
0
 10
12.8350600716
 20
-20.5509068316
 10
12.8352267096
 20
-20.6667721188
 10
12.8355623554
 20
-20.8878601422
  0
LINE
  5
3C3
100
AcDbEntity
  8
SUPERFICI
100
AcDbLine
 62
250
  6
CONTINUOUS
 10
12.8345605609
 20
-20.1808183691
 11
12.8350600716
 21
-20.5509068316
  0
LINE
  5
3C4
100
AcDbEntity
  8
SUPERFICI
100
AcDbLine
 62
250
  6
CONTINUOUS
 10
12.8342288395
 20
-19.9136928355
 11
12.8345605609
 21
-20.1808183691
  0
LWPOLYLINE
  5
3C5
100
AcDbEntity
  8
SUPERFICI
100
AcDbPolyline
 62
250
  6
CONTINUOUS
 90
3
 70
0
 10
12.8335729688
 20
-19.3244506753
 10
12.8337353076
 20
-19.4788517783
 10
12.8342288395
 20
-19.9136928355
  0
LINE
  5
3C6
100
AcDbEntity
  8
SUPERFICI
100
AcDbLine
 62
250
  6
CONTINUOUS
 10
12.8330945177
 20
-18.8322837406
 11
12.8335729688
 21
-19.3244506753
  0
LINE
  5
3C7
100
AcDbEntity
  8
SUPERFICI
100
AcDbLine
 62
250
  6
CONTINUOUS
 10
12.8324846445
 20
-18.107574541
 11
12.8330945177
 21
-18.8322837406
  0
LWPOLYLINE
  5
3C8
100
AcDbEntity
  8
SUPERFICI
100
AcDbPolyline
 62
250
  6
CONTINUOUS
 90
3
 70
0
 10
12.8243907991
 20
-0.0002125486
 10
12.8248986524
 20
-1.3625954885
 10
12.8324846445
 20
-18.107574541
  0
LINE
  5
3C9
100
AcDbEntity
  8
SUPERFICI
100
AcDbLine
 62
250
  6
CONTINUOUS
 10
10.9504227939
 20
-22.9169735566
 11
10.9500419336
 21
-22.5221243189
  0
LINE
  5
3CA
100
AcDbEntity
  8
SUPERFICI
100
AcDbLine
 62
7
  6
CONTINUOUS
 10
11.25
 20
22.2
 11
11.25
 21
-22.2
  0
LINE
  5
3CB
100
AcDbEntity
  8
0
100
AcDbLine
 62
7
  6
CONTINUOUS
 10
11.429115
 20
-28.800007
 11
11.429115
 21
-25.899877
  0
LINE
  5
3CC
100
AcDbEntity
  8
0
100
AcDbLine
 62
7
  6
CONTINUOUS
 10
12.00114
 20
-26.436398
 11
12.001148
 21
-27.142128
  0
LINE
  5
3CD
100
AcDbEntity
  8
0
100
AcDbLine
 62
7
  6
CONTINUOUS
 10
12.00921
 20
-27.67865
 11
12.009144
 21
-28.800007
  0
LINE
  5
3CE
100
AcDbEntity
  8
SUPERFICI
100
AcDbLine
 62
250
  6
CONTINUOUS
 10
12.8285670101
 20
10.7061631276
 11
12.8243906479
 21
-0.0002125486
  0
LINE
  5
3CF
100
AcDbEntity
  8
SUPERFICI
100
AcDbLine
 62
250
  6
CONTINUOUS
 10
12.8368982112
 20
21.6411655484
 11
12.8285670101
 21
10.7061631276
  0
LINE
  5
3D0
100
AcDbEntity
  8
SUPERFICI
100
AcDbLine
 62
250
  6
CONTINUOUS
 10
10.9504214006
 20
22.9169735686
 11
10.9500000003
 21
22.5
  0
LINE
  5
3D1
100
AcDbEntity
  8
SUPERFICI
100
AcDbLine
 62
250
  6
CONTINUOUS
 10
10.9500419336
 20
-22.5221243189
 11
10.9500573065
 21
-22.4999999945
  0
LINE
  5
3D2
100
AcDbEntity
  8
SUPERFICI
100
AcDbLine
 62
250
  6
CONTINUOUS
 10
12.8381388188
 20
22.1990020202
 11
12.8368982112
 21
21.6411655484
  0
LINE
  5
3D3
100
AcDbEntity
  8
SUPERFICI
100
AcDbLine
 62
250
  6
CONTINUOUS
 10
10.9419339808
 20
-24.7502663309
 11
10.9337438013
 21
-25.6598161973
  0
LINE
  5
3D4
100
AcDbEntity
  8
SUPERFICI
100
AcDbLine
 62
250
  6
CONTINUOUS
 10
10.9489482822
 20
-24.0988099745
 11
10.9419339808
 21
-24.7502663309
  0
LWPOLYLINE
  5
3D5
100
AcDbEntity
  8
SUPERFICI
100
AcDbPolyline
 62
250
  6
CONTINUOUS
 90
9
 70
0
 10
10.948948289
 20
-24.0988107491
 10
10.9532818733
 20
-24.0112341868
 10
10.9527371805
 20
-23.918001253
 10
10.94803957
 20
-23.8201451883
 10
10.9358360619
 20
-23.7187000015
 10
10.9216646219
 20
-23.6146916662
 10
10.9170898046
 20
-23.5094719364
 10
10.9270854756
 20
-23.4044169027
 10
10.941946182
 20
-23.3003885045
  0
LWPOLYLINE
  5
3D6
100
AcDbEntity
  8
SUPERFICI
100
AcDbPolyline
 62
250
  6
CONTINUOUS
 90
3
 70
0
 10
10.941946182
 20
-23.3003885045
 10
10.9513551157
 20
-23.1984284804
 10
10.9527912694
 20
-23.0998117266
  0
LINE
  5
3D7
100
AcDbEntity
  8
0
100
AcDbLine
 62
7
  6
CONTINUOUS
 10
2.60878
 20
-27.89678
 11
3.249905
 21
-25.899884
  0
LINE
  5
3D8
100
AcDbEntity
  8
0
100
AcDbLine
 62
7
  6
CONTINUOUS
 10
3.829934
 20
-25.899884
 11
2.898794
 21
-28.800015
  0
LINE
  5
3D9
100
AcDbEntity
  8
SUPERFICI
100
AcDbLine
 62
250
  6
CONTINUOUS
 10
14.4935629496
 20
22.1776004335
 11
14.4977089133
 21
21.7922992394
  0
LINE
  5
3DA
100
AcDbEntity
  8
SUPERFICI
100
AcDbLine
 62
250
  6
CONTINUOUS
 10
14.4977089133
 20
21.7922992394
 11
14.5008059049
 21
21.447296255
  0
LINE
  5
3DB
100
AcDbEntity
  8
SUPERFICI
100
AcDbLine
 62
250
  6
CONTINUOUS
 10
14.5008059049
 20
21.447296255
 11
14.503735763
 21
21.0603146673
  0
LINE
  5
3DC
100
AcDbEntity
  8
SUPERFICI
100
AcDbLine
 62
250
  6
CONTINUOUS
 10
14.503735763
 20
21.0603146673
 11
14.5065334938
 21
20.623136965
  0
LINE
  5
3DD
100
AcDbEntity
  8
SUPERFICI
100
AcDbLine
 62
250
  6
CONTINUOUS
 10
14.5065334938
 20
20.623136965
 11
14.5092113827
 21
20.1268060882
  0
LINE
  5
3DE
100
AcDbEntity
  8
SUPERFICI
100
AcDbLine
 62
250
  6
CONTINUOUS
 10
14.5092113827
 20
20.1268060882
 11
14.5117021027
 21
19.561415751
  0
LINE
  5
3DF
100
AcDbEntity
  8
SUPERFICI
100
AcDbLine
 62
250
  6
CONTINUOUS
 10
14.5117021027
 20
19.561415751
 11
14.5139255274
 21
18.9186922779
  0
LINE
  5
3E0
100
AcDbEntity
  8
SUPERFICI
100
AcDbLine
 62
250
  6
CONTINUOUS
 10
14.5139255274
 20
18.9186922779
 11
14.5166935881
 21
17.803840908
  0
LINE
  5
3E1
100
AcDbEntity
  8
SUPERFICI
100
AcDbLine
 62
250
  6
CONTINUOUS
 10
14.5166935881
 20
17.803840908
 11
14.5191769784
 21
16.4949341561
  0
LINE
  5
3E2
100
AcDbEntity
  8
SUPERFICI
100
AcDbLine
 62
250
  6
CONTINUOUS
 10
14.5191769784
 20
16.4949341561
 11
14.522011001
 21
14.3940279001
  0
LINE
  5
3E3
100
AcDbEntity
  8
SUPERFICI
100
AcDbLine
 62
250
  6
CONTINUOUS
 10
14.522011001
 20
14.3940279001
 11
14.5254348621
 21
10.703996424
  0
LINE
  5
3E4
100
AcDbEntity
  8
SUPERFICI
100
AcDbLine
 62
250
  6
CONTINUOUS
 10
14.5254348621
 20
10.703996424
 11
14.5289913147
 21
5.8265602267
  0
LINE
  5
3E5
100
AcDbEntity
  8
SUPERFICI
100
AcDbLine
 62
250
  6
CONTINUOUS
 10
14.5289913147
 20
5.8265602267
 11
14.5322558109
 21
-0.0
  0
LINE
  5
3E6
100
AcDbEntity
  8
SUPERFICI
100
AcDbLine
 62
250
  6
CONTINUOUS
 10
14.5322558687
 20
0.0
 11
14.5298679662
 21
-4.4269181404
  0
LINE
  5
3E7
100
AcDbEntity
  8
SUPERFICI
100
AcDbLine
 62
250
  6
CONTINUOUS
 10
14.5298679662
 20
-4.4269181404
 11
14.5271606542
 21
-8.4785290138
  0
LINE
  5
3E8
100
AcDbEntity
  8
SUPERFICI
100
AcDbLine
 62
250
  6
CONTINUOUS
 10
14.5271606542
 20
-8.4785290138
 11
14.5239746426
 21
-12.4117284292
  0
LWPOLYLINE
  5
3E9
100
AcDbEntity
  8
SUPERFICI
100
AcDbPolyline
 62
250
  6
CONTINUOUS
 90
3
 70
0
 10
14.5239746426
 20
-12.4117284292
 10
14.5217855608
 20
-14.5923737841
 10
14.5214554489
 20
-14.8720857669
  0
LWPOLYLINE
  5
3EA
100
AcDbEntity
  8
SUPERFICI
100
AcDbPolyline
 62
250
  6
CONTINUOUS
 90
3
 70
0
 10
14.5214554489
 20
-14.8720857669
 10
14.5207758496
 20
-15.4096238619
 10
14.5204250067
 20
-15.667965137
  0
LINE
  5
3EB
100
AcDbEntity
  8
SUPERFICI
100
AcDbLine
 62
250
  6
CONTINUOUS
 10
14.5204250067
 20
-15.667965137
 11
14.5197002049
 21
-16.1643375333
  0
LINE
  5
3EC
100
AcDbEntity
  8
SUPERFICI
100
AcDbLine
 62
250
  6
CONTINUOUS
 10
14.5197002049
 20
-16.1643375333
 11
14.5189434954
 21
-16.6352836916
  0
LINE
  5
3ED
100
AcDbEntity
  8
SUPERFICI
100
AcDbLine
 62
250
  6
CONTINUOUS
 10
14.5189434954
 20
-16.6352836916
 11
14.5181495617
 21
-17.0818796462
  0
LWPOLYLINE
  5
3EE
100
AcDbEntity
  8
SUPERFICI
100
AcDbPolyline
 62
250
  6
CONTINUOUS
 90
3
 70
0
 10
14.5181495617
 20
-17.0818796462
 10
14.5173139209
 20
-17.505741321
 10
14.5168886849
 20
-17.7095537799
  0
LINE
  5
3EF
100
AcDbEntity
  8
SUPERFICI
100
AcDbLine
 62
250
  6
CONTINUOUS
 10
14.5168886849
 20
-17.7095537799
 11
14.5160391831
 21
-18.1014762795
  0
LINE
  5
3F0
100
AcDbEntity
  8
SUPERFICI
100
AcDbLine
 62
250
  6
CONTINUOUS
 10
14.5160391831
 20
-18.1014762795
 11
14.5142026972
 21
-18.8249131551
  0
LINE
  5
3F1
100
AcDbEntity
  8
SUPERFICI
100
AcDbLine
 62
250
  6
CONTINUOUS
 10
14.5142026972
 20
-18.8249131551
 11
14.5120542735
 21
-19.4700944992
  0
LINE
  5
3F2
100
AcDbEntity
  8
SUPERFICI
100
AcDbLine
 62
250
  6
CONTINUOUS
 10
14.5120542735
 20
-19.4700944992
 11
14.5096345346
 21
-20.0391315634
  0
LINE
  5
3F3
100
AcDbEntity
  8
SUPERFICI
100
AcDbLine
 62
250
  6
CONTINUOUS
 10
14.5096345346
 20
-20.0391315634
 11
14.5070205664
 21
-20.5391934682
  0
LINE
  5
3F4
100
AcDbEntity
  8
SUPERFICI
100
AcDbLine
 62
250
  6
CONTINUOUS
 10
14.5070205664
 20
-20.5391934682
 11
14.5042856274
 21
-20.980099602
  0
LINE
  5
3F5
100
AcDbEntity
  8
SUPERFICI
100
AcDbLine
 62
250
  6
CONTINUOUS
 10
14.5042856274
 20
-20.980099602
 11
14.5014301801
 21
-21.3702254169
  0
LINE
  5
3F6
100
AcDbEntity
  8
SUPERFICI
100
AcDbLine
 62
250
  6
CONTINUOUS
 10
14.5014301801
 20
-21.3702254169
 11
14.4984198717
 21
-21.7178777118
  0
LINE
  5
3F7
100
AcDbEntity
  8
SUPERFICI
100
AcDbLine
 62
250
  6
CONTINUOUS
 10
14.4984198717
 20
-21.7178777118
 11
14.4952236918
 21
-22.0315282939
  0
LINE
  5
3F8
100
AcDbEntity
  8
SUPERFICI
100
AcDbLine
 62
250
  6
CONTINUOUS
 10
14.4952236918
 20
-22.0315282939
 11
14.4935628415
 21
-22.1776075354
  0
LWPOLYLINE
  5
3F9
100
AcDbEntity
  8
SUPERFICI
100
AcDbPolyline
 62
250
  6
CONTINUOUS
 90
91
 70
0
 10
12.8381390761
 20
-22.1990057248
 10
12.8372027297
 20
-22.2688235209
 10
12.8336571669
 20
-22.338089212
 10
12.8275594885
 20
-22.4067050869
 10
12.8189061143
 20
-22.4749809938
 10
12.8077953092
 20
-22.5424190575
 10
12.7945720342
 20
-22.6077392787
 10
12.7794795447
 20
-22.6706179928
 10
12.7626768221
 20
-22.7312930392
 10
12.7445428962
 20
-22.7893852983
 10
12.7253567647
 20
-22.8447810023
 10
12.7052612042
 20
-22.8976131279
 10
12.6844535743
 20
-22.9479060699
 10
12.6631640964
 20
-22.9956030468
 10
12.6415254346
 20
-23.0408298235
 10
12.6195536533
 20
-23.0838840835
 10
12.5973766264
 20
-23.1248135044
 10
12.575132638
 20
-23.1636455154
 10
12.5528066846
 20
-23.2006330327
 10
12.5305049717
 20
-23.2358048787
 10
12.5083208024
 20
-23.2692071412
 10
12.4861820501
 20
-23.3011027556
 10
12.464163429
 20
-23.3315208176
 10
12.4423336831
 20
-23.360496923
 10
12.4205786592
 20
-23.3882856855
 10
12.3989487048
 20
-23.4149118603
 10
12.3774930196
 20
-23.440400907
 10
12.3560677368
 20
-23.464989919
 10
12.3346794332
 20
-23.488724731
 10
12.3133865261
 20
-23.5115929286
 10
12.2921034912
 20
-23.5337296802
 10
12.2707677555
 20
-23.5552339026
 10
12.2494869578
 20
-23.5760295502
 10
12.2284304248
 20
-23.5959909716
 10
12.2076019353
 20
-23.6151609336
 10
12.1870523702
 20
-23.6335364161
 10
12.1670355446
 20
-23.6509396142
 10
12.147646366
 20
-23.6673498356
 10
12.1288548245
 20
-23.6828481621
 10
12.1107350904
 20
-23.6974200729
 10
12.0933880937
 20
-23.7110412454
 10
12.0767692156
 20
-23.7237955008
 10
12.0607291505
 20
-23.7358252563
 10
12.0453388936
 20
-23.7471119246
 10
12.0305657242
 20
-23.757716836
 10
12.0160921506
 20
-23.7678861869
 10
12.0019157932
 20
-23.7776379245
 10
11.9880577887
 20
-23.7869742018
 10
11.9742231303
 20
-23.7960998812
 10
11.9603958235
 20
-23.8050296615
 10
11.9465984108
 20
-23.8137526371
 10
11.9325842358
 20
-23.8224209677
 10
11.9183586314
 20
-23.8310261169
 10
11.9039151034
 20
-23.839568009
 10
11.8889810748
 20
-23.848197837
 10
11.8735344769
 20
-23.856907342
 10
11.8575879367
 20
-23.8656800268
 10
11.8409127128
 20
-23.8746405211
 10
11.823410305
 20
-23.8838188236
 10
11.8051609076
 20
-23.8931417089
 10
11.7862002897
 20
-23.902572578
 10
11.7665860681
 20
-23.9120602516
 10
11.7462455275
 20
-23.921613379
 10
11.7250170272
 20
-23.9312798001
 10
11.7028829098
 20
-23.9410323478
 10
11.6798409126
 20
-23.9508366125
 10
11.6557478882
 20
-23.9607168799
 10
11.6305704471
 20
-23.9706416123
 10
11.6043193676
 20
-23.9805602987
 10
11.5769148075
 20
-23.9904577057
 10
11.5480972379
 20
-24.0003679799
 10
11.5181025133
 20
-24.0101491906
 10
11.4876046741
 20
-24.0195493693
 10
11.4565607086
 20
-24.0285640162
 10
11.4250185048
 20
-24.0371558671
 10
11.3938119179
 20
-24.0450994623
 10
11.3631396097
 20
-24.0523791764
 10
11.3328324764
 20
-24.0590607226
 10
11.303187095
 20
-24.0650967638
 10
11.2744879813
 20
-24.0704778423
 10
11.2464810124
 20
-24.0752910791
 10
11.2186536007
 20
-24.0796233493
 10
11.1911227429
 20
-24.0834630346
 10
11.1637897056
 20
-24.086845229
 10
11.1358100274
 20
-24.0898662447
 10
11.1070508339
 20
-24.0925123857
 10
11.077654053
 20
-24.0947379526
 10
11.0471826171
 20
-24.0965326176
 10
11.0154950149
 20
-24.0978491941
 10
10.9827469292
 20
-24.098626639
 10
10.948948289
 20
-24.0988107491
  0
LWPOLYLINE
  5
3FA
100
AcDbEntity
  8
SUPERFICI
100
AcDbPolyline
 62
250
  6
CONTINUOUS
 90
48
 70
0
 10
14.4935633765
 20
-22.1776076359
 10
14.4894756036
 20
-22.3116522175
 10
14.4802639399
 20
-22.4446052259
 10
14.4660097565
 20
-22.5763438283
 10
14.446374833
 20
-22.7078174559
 10
14.4217052505
 20
-22.8380982183
 10
14.3935357513
 20
-22.9640131729
 10
14.363087413
 20
-23.0840296436
 10
14.3306033817
 20
-23.1979491652
 10
14.2965764226
 20
-23.3048117471
 10
14.2615081919
 20
-23.4051618613
 10
14.2253560243
 20
-23.5004021053
 10
14.1875692829
 20
-23.5914848188
 10
14.1482870018
 20
-23.6782549452
 10
14.1081225673
 20
-23.7605150456
 10
14.0672921533
 20
-23.8386140245
 10
14.0260492883
 20
-23.91264209
 10
13.9845959173
 20
-23.9827209707
 10
13.9429439981
 20
-24.0493670605
 10
13.9012978837
 20
-24.1126248797
 10
13.8598293275
 20
-24.1725504533
 10
13.8184476244
 20
-24.2296213581
 10
13.7772951864
 20
-24.2838911515
 10
13.7364898653
 20
-24.335426493
 10
13.6958403753
 20
-24.3847042246
 10
13.6554407669
 20
-24.4317734514
 10
13.6153762272
 20
-24.4766793471
 10
13.5753934883
 20
-24.5198585338
 10
13.5355071117
 20
-24.5613940773
 10
13.4958251511
 20
-24.6012615441
 10
13.4562019469
 20
-24.6397091582
 10
13.4165189579
 20
-24.6769127096
 10
13.3769717656
 20
-24.7127467834
 10
13.3378815274
 20
-24.7470136539
 10
13.2992614057
 20
-24.7797748283
 10
13.2612150171
 20
-24.8110252155
 10
13.2242209416
 20
-24.8404961042
 10
13.1884504293
 20
-24.8681554248
 10
13.1537642434
 20
-24.8942149547
 10
13.1201625216
 20
-24.9188028613
 10
13.0877127985
 20
-24.9419225204
 10
13.0562160286
 20
-24.9638241823
 10
13.025243853
 20
-24.9849947162
 10
12.9948518769
 20
-25.0054507644
 10
12.9651252428
 20
-25.0251392297
 10
12.9356681549
 20
-25.0444038586
 10
12.906544893
 20
-25.0632183876
 10
12.8777828351
 20
-25.0815770771
  0
LINE
  5
3FB
100
AcDbEntity
  8
0
100
AcDbLine
 62
7
  6
CONTINUOUS
 10
6.795039
 20
-27.788552
 11
7.336606
 21
-25.899884
  0
LINE
  5
3FC
100
AcDbEntity
  8
0
100
AcDbLine
 62
7
  6
CONTINUOUS
 10
7.633414
 20
-26.887573
 11
7.085039
 21
-28.800007
  0
LINE
  5
3FD
100
AcDbEntity
  8
0
100
AcDbLine
 62
7
  6
CONTINUOUS
 10
8.600122
 20
-28.800015
 11
9.531247
 21
-25.899877
  0
LINE
  5
3FE
100
AcDbEntity
  8
0
100
AcDbLine
 62
7
  6
CONTINUOUS
 10
9.821268
 20
-26.803118
 11
9.540179
 21
-27.678657
  0
LINE
  5
3FF
100
AcDbEntity
  8
0
100
AcDbLine
 62
7
  6
CONTINUOUS
 10
9.363257
 20
-28.229679
 11
9.180144
 21
-28.800007
  0
LWPOLYLINE
  5
400
100
AcDbEntity
  8
SUPERFICI
100
AcDbPolyline
 62
250
  6
CONTINUOUS
 90
13
 70
0
 10
-12.8381390756
 20
22.1990057248
 10
-12.7502526258
 20
22.2104590952
 10
-12.6569795052
 20
22.2095576267
 10
-12.5593418655
 20
22.1981355575
 10
-12.4581081033
 20
22.1681059992
 10
-12.3537544958
 20
22.133019843
 10
-12.2485640679
 20
22.1210631908
 10
-12.1449558509
 20
22.1440994237
 10
-12.0423558947
 20
22.1789364913
 10
-11.9412114092
 20
22.2012165125
 10
-11.8434083639
 20
22.2050223398
 10
-11.7501534782
 20
22.2024461694
 10
-11.6623665998
 20
22.2003850673
  0
LINE
  5
401
100
AcDbEntity
  8
SUPERFICI
100
AcDbLine
 62
250
  6
CONTINUOUS
 10
-12.8381416122
 20
22.1990057193
 11
-13.1718971084
 21
22.194013921
  0
LINE
  5
402
100
AcDbEntity
  8
SUPERFICI
100
AcDbLine
 62
250
  6
CONTINUOUS
 10
-13.1718971084
 20
22.194013921
 11
-13.5304155761
 21
22.1890876656
  0
LINE
  5
403
100
AcDbEntity
  8
SUPERFICI
100
AcDbLine
 62
250
  6
CONTINUOUS
 10
-13.5304155761
 20
22.1890876656
 11
-13.9074915109
 21
22.1843115868
  0
LWPOLYLINE
  5
404
100
AcDbEntity
  8
SUPERFICI
100
AcDbPolyline
 62
250
  6
CONTINUOUS
 90
3
 70
0
 10
-13.9074915109
 20
22.1843115868
 10
-14.2965982032
 20
22.179767799
 10
-14.4935633753
 20
22.1776076359
  0
LINE
  5
405
100
AcDbEntity
  8
SUPERFICI
100
AcDbLine
 62
250
  6
CONTINUOUS
 10
11.8434560192
 20
22.2018753438
 11
11.662366261
 21
22.2003865156
  0
LINE
  5
406
100
AcDbEntity
  8
SUPERFICI
100
AcDbLine
 62
250
  6
CONTINUOUS
 10
10.7268074631
 20
24.0984263148
 11
10.9489516351
 21
24.0988099934
  0
LINE
  5
407
100
AcDbEntity
  8
SUPERFICI
100
AcDbLine
 62
250
  6
CONTINUOUS
 10
10.1165022329
 20
24.0976261017
 11
10.7268074631
 21
24.0984263148
  0
LINE
  5
408
100
AcDbEntity
  8
SUPERFICI
100
AcDbLine
 62
250
  6
CONTINUOUS
 10
11.662366261
 20
22.2003865156
 11
11.384026564
 21
22.2000941489
  0
LINE
  5
409
100
AcDbEntity
  8
SUPERFICI
100
AcDbLine
 62
7
  6
CONTINUOUS
 10
-10.95
 20
22.5
 11
10.95
 21
22.5
  0
LINE
  5
40A
100
AcDbEntity
  8
SUPERFICI
100
AcDbLine
 62
250
  6
CONTINUOUS
 10
-0.5
 20
24.0999834367
 11
0.5
 21
24.0999834367
  0
LINE
  5
40B
100
AcDbEntity
  8
SUPERFICI
100
AcDbLine
 62
250
  6
CONTINUOUS
 10
6.7393554588
 20
24.0964499169
 11
10.1165022329
 21
24.0976261017
  0
LINE
  5
40C
100
AcDbEntity
  8
SUPERFICI
100
AcDbLine
 62
250
  6
CONTINUOUS
 10
0.5
 20
24.0999816306
 11
6.7393554588
 21
24.0964499169
  0
LINE
  5
40D
100
AcDbEntity
  8
SUPERFICI
100
AcDbLine
 62
250
  6
CONTINUOUS
 10
11.384026564
 20
22.2000941489
 11
11.2499999953
 21
22.2000532983
  0
LINE
  5
40E
100
AcDbEntity
  8
SUPERFICI
100
AcDbLine
 62
250
  6
CONTINUOUS
 10
-10.9489482822
 20
24.0988099743
 11
-0.5
 21
24.099981639
  0
LINE
  5
40F
100
AcDbEntity
  8
SUPERFICI
100
AcDbLine
 62
250
  6
CONTINUOUS
 10
-11.6623665998
 20
22.2003850673
 11
-11.25
 21
22.2
  0
LWPOLYLINE
  5
410
100
AcDbEntity
  8
SUPERFICI
100
AcDbPolyline
 62
250
  6
CONTINUOUS
 90
91
 70
0
 10
10.9489516517
 20
24.0988107592
 10
10.983688122
 20
24.098612394
 10
11.017385308
 20
24.0977858962
 10
11.0500323485
 20
24.0963864226
 10
11.0814947313
 20
24.0944749204
 10
11.1118911748
 20
24.0921002004
 10
11.141592139
 20
24.0892786962
 10
11.1704649528
 20
24.0860577639
 10
11.1986325272
 20
24.0824562327
 10
11.2268446101
 20
24.078394586
 10
11.2550887164
 20
24.0738628627
 10
11.2833607778
 20
24.0688639186
 10
11.3124135431
 20
24.0632688552
 10
11.3425325163
 20
24.0569781464
 10
11.3733987032
 20
24.0500028125
 10
11.4048529964
 20
24.0423509023
 10
11.4371845038
 20
24.0339096084
 10
11.4700649758
 20
24.024712224
 10
11.5024256494
 20
24.0150491829
 10
11.5341315388
 20
24.004987958
 10
11.5653124555
 20
23.9945087352
 10
11.595324994
 20
23.9838607903
 10
11.6239883654
 20
23.9731691428
 10
11.6515063943
 20
23.96241771
 10
11.6778261664
 20
23.9516775168
 10
11.7029496136
 20
23.941002387
 10
11.7269024728
 20
23.9304339711
 10
11.7496697799
 20
23.9200258652
 10
11.7712109236
 20
23.909847527
 10
11.7915975948
 20
23.8999145427
 10
11.8109813714
 20
23.8901925141
 10
11.8293979779
 20
23.8807051333
 10
11.8468371415
 20
23.8714898316
 10
11.8633772885
 20
23.8625232583
 10
11.8789055186
 20
23.853897518
 10
11.8935578193
 20
23.8455709906
 10
11.9077772888
 20
23.8373039062
 10
11.9216101927
 20
23.8290775293
 10
11.9350174917
 20
23.8209294976
 10
11.9483030147
 20
23.8126849534
 10
11.9614706547
 20
23.8043433639
 10
11.9745153905
 20
23.7959089583
 10
11.9877186871
 20
23.7871995316
 10
12.0010729709
 20
23.7782120079
 10
12.0145753464
 20
23.7689392956
 10
12.0285044158
 20
23.7591787563
 10
12.0428432729
 20
23.7489203423
 10
12.0575858093
 20
23.7381482719
 10
12.0730145775
 20
23.7266348881
 10
12.08917178
 20
23.714307738
 10
12.1059724846
 20
23.7011914948
 10
12.1234977884
 20
23.6871908866
 10
12.1417926378
 20
23.6722200025
 10
12.1607537605
 20
23.6563041799
 10
12.1802385375
 20
23.6395145761
 10
12.2002692787
 20
23.6217788564
 10
12.2207619193
 20
23.6031141352
 10
12.2414263472
 20
23.5837410418
 10
12.2621788402
 20
23.5637038525
 10
12.2830578146
 20
23.5429288927
 10
12.3039691156
 20
23.5214748663
 10
12.3248165146
 20
23.499409588
 10
12.345653658
 20
23.4766446437
 10
12.366605379
 20
23.4530007819
 10
12.3876342347
 20
23.4284647211
 10
12.4087104253
 20
23.4030144656
 10
12.4299502863
 20
23.3764428088
 10
12.4513065365
 20
23.3487240312
 10
12.4727287806
 20
23.3198354577
 10
12.4943045857
 20
23.2895590916
 10
12.515968577
 20
23.2578622222
 10
12.5376499425
 20
23.2247181263
 10
12.5594000465
 20
23.1899031611
 10
12.5811323933
 20
23.1533759825
 10
12.6027489614
 20
23.1151115194
 10
12.6242522734
 20
23.0748979788
 10
12.6455248491
 20
23.0326986925
 10
12.6664428729
 20
22.9884854709
 10
12.6869640054
 20
22.9420497387
 10
12.7069898432
 20
22.8932369509
 10
12.726302308
 20
22.8421466793
 10
12.7446714325
 20
22.7889591923
 10
12.7618569661
 20
22.7340496579
 10
12.7778074165
 20
22.677048972
 10
12.7924959546
 20
22.6170212114
 10
12.8057410324
 20
22.5534414684
 10
12.8171436207
 20
22.4868612414
 10
12.8263141853
 20
22.4179799192
 10
12.8330024753
 20
22.3470900081
 10
12.8370210863
 20
22.2740622498
 10
12.8381390593
 20
22.1990020256
  0
LINE
  5
411
100
AcDbEntity
  8
SUPERFICI
100
AcDbLine
 62
250
  6
CONTINUOUS
 10
13.9074910686
 20
22.1842921858
 11
14.4935629496
 21
22.1776004335
  0
LINE
  5
412
100
AcDbEntity
  8
SUPERFICI
100
AcDbLine
 62
250
  6
CONTINUOUS
 10
13.348438889
 20
22.1915196649
 11
13.9074910686
 21
22.1842921858
  0
LINE
  5
413
100
AcDbEntity
  8
SUPERFICI
100
AcDbLine
 62
250
  6
CONTINUOUS
 10
12.8381388188
 20
22.1990020202
 11
13.348438889
 21
22.1915196649
  0
LWPOLYLINE
  5
414
100
AcDbEntity
  8
SUPERFICI
100
AcDbPolyline
 62
250
  6
CONTINUOUS
 90
8
 70
0
 10
12.8381390593
 20
22.1990020256
 10
12.7503335039
 20
22.2009253782
 10
12.6570593701
 20
22.2005158831
 10
12.5593407923
 20
22.1981268178
 10
12.458249735
 20
22.1920444478
 10
12.3548594447
 20
22.1850521628
 10
12.2503166404
 20
22.1829798392
 10
12.1457939316
 20
22.1883971356
  0
LWPOLYLINE
  5
415
100
AcDbEntity
  8
SUPERFICI
100
AcDbPolyline
 62
250
  6
CONTINUOUS
 90
3
 70
0
 10
12.0423784224
 20
22.1962850528
 10
11.9412108016
 20
22.2012223412
 10
11.8434560192
 20
22.2018753438
  0
LINE
  5
416
100
AcDbEntity
  8
SUPERFICI
100
AcDbLine
 62
250
  6
CONTINUOUS
 10
12.1457939316
 20
22.1883971356
 11
12.0423784224
 21
22.1962850528
  0
LWPOLYLINE
  5
417
100
AcDbEntity
  8
SUPERFICI
100
AcDbPolyline
 62
250
  6
CONTINUOUS
 90
3
 70
0
 10
12.8777828351
 20
-25.0815770771
 10
12.8197715956
 20
-25.118075324
 10
12.7905680907
 20
-25.1361766674
  0
LWPOLYLINE
  5
418
100
AcDbEntity
  8
SUPERFICI
100
AcDbPolyline
 62
250
  6
CONTINUOUS
 90
27
 70
0
 10
12.7905680907
 20
-25.1361766674
 10
12.730731187
 20
-25.1727099002
 10
12.7002292719
 20
-25.1910303038
 10
12.6691708999
 20
-25.2092834406
 10
12.6376963203
 20
-25.2274221029
 10
12.6060184024
 20
-25.2452807672
 10
12.5740866004
 20
-25.2625898785
 10
12.5420923059
 20
-25.2790757499
 10
12.5097589223
 20
-25.295058757
 10
12.4763326273
 20
-25.3111342405
 10
12.4413595385
 20
-25.327578381
 10
12.4048449819
 20
-25.3442462078
 10
12.3666750024
 20
-25.3610909567
 10
12.3269970619
 20
-25.3779723739
 10
12.2858152984
 20
-25.3948397614
 10
12.2428072031
 20
-25.4117555854
 10
12.1978459755
 20
-25.428706504
 10
12.150961864
 20
-25.4455926817
 10
12.1020682452
 20
-25.462326434
 10
12.0507653186
 20
-25.4789403508
 10
11.9974715862
 20
-25.4952026635
 10
11.9433368632
 20
-25.5106801637
 10
11.8882561238
 20
-25.5253368996
 10
11.8323482345
 20
-25.5391449597
 10
11.7771469824
 20
-25.5518089238
 10
11.7231790424
 20
-25.5631258596
 10
11.6697677323
 20
-25.5734346727
  0
LWPOLYLINE
  5
419
100
AcDbEntity
  8
SUPERFICI
100
AcDbPolyline
 62
250
  6
CONTINUOUS
 90
13
 70
0
 10
-11.6697677314
 20
25.5734346708
 10
-11.5631450399
 20
25.5931443705
 10
-11.5094986191
 20
25.6026447028
 10
-11.4555320161
 20
25.6116171847
 10
-11.4020743456
 20
25.6199300186
 10
-11.3490619535
 20
25.6276017488
 10
-11.2949247093
 20
25.6345888386
 10
-11.2393688101
 20
25.6407647218
 10
-11.1825672577
 20
25.6461663394
 10
-11.1236725901
 20
25.6508719688
 10
-11.0624122827
 20
25.6548145877
 10
-10.9990935678
 20
25.6578326121
 10
-10.9337437989
 20
25.6598161566
  0
LINE
  5
41A
100
AcDbEntity
  8
SUPERFICI
100
AcDbLine
 62
250
  6
CONTINUOUS
 10
-10.9337438013
 20
25.6598161962
 11
-10.7109696055
 21
25.6643278659
  0
LINE
  5
41B
100
AcDbEntity
  8
SUPERFICI
100
AcDbLine
 62
250
  6
CONTINUOUS
 10
-10.7109696055
 20
25.6643278659
 11
-10.4744223975
 21
25.6686369841
  0
LINE
  5
41C
100
AcDbEntity
  8
SUPERFICI
100
AcDbLine
 62
250
  6
CONTINUOUS
 10
-10.4744223975
 20
25.6686369841
 11
-10.2245372749
 21
25.6726918052
  0
LINE
  5
41D
100
AcDbEntity
  8
SUPERFICI
100
AcDbLine
 62
250
  6
CONTINUOUS
 10
-10.2245372749
 20
25.6726918052
 11
-9.9614854732
 21
25.6765283166
  0
LINE
  5
41E
100
AcDbEntity
  8
SUPERFICI
100
AcDbLine
 62
250
  6
CONTINUOUS
 10
-9.9614854732
 20
25.6765283166
 11
-9.685180929
 21
25.6801067117
  0
LINE
  5
41F
100
AcDbEntity
  8
SUPERFICI
100
AcDbLine
 62
250
  6
CONTINUOUS
 10
-9.685180929
 20
25.6801067117
 11
-9.3953444974
 21
25.6834166012
  0
LINE
  5
420
100
AcDbEntity
  8
SUPERFICI
100
AcDbLine
 62
250
  6
CONTINUOUS
 10
-9.3953444974
 20
25.6834166012
 11
-9.0913266577
 21
25.6864691977
  0
LINE
  5
421
100
AcDbEntity
  8
SUPERFICI
100
AcDbLine
 62
250
  6
CONTINUOUS
 10
-9.0913266577
 20
25.6864691977
 11
-8.7716171401
 21
25.6892705635
  0
LINE
  5
422
100
AcDbEntity
  8
SUPERFICI
100
AcDbLine
 62
250
  6
CONTINUOUS
 10
-8.7716171401
 20
25.6892705635
 11
-8.4352616109
 21
25.6918174235
  0
LINE
  5
423
100
AcDbEntity
  8
SUPERFICI
100
AcDbLine
 62
250
  6
CONTINUOUS
 10
-8.4352616109
 20
25.6918174235
 11
-8.0807887311
 21
25.6941111996
  0
LINE
  5
424
100
AcDbEntity
  8
SUPERFICI
100
AcDbLine
 62
250
  6
CONTINUOUS
 10
-8.0807887311
 20
25.6941111996
 11
-7.5116709605
 21
25.6970848616
  0
LINE
  5
425
100
AcDbEntity
  8
SUPERFICI
100
AcDbLine
 62
250
  6
CONTINUOUS
 10
-7.5116709605
 20
25.6970848616
 11
-6.8942241288
 21
25.6994961964
  0
LINE
  5
426
100
AcDbEntity
  8
SUPERFICI
100
AcDbLine
 62
250
  6
CONTINUOUS
 10
-6.8942241288
 20
25.6994961964
 11
-6.2256776821
 21
25.7013403134
  0
LINE
  5
427
100
AcDbEntity
  8
SUPERFICI
100
AcDbLine
 62
250
  6
CONTINUOUS
 10
-6.2256776821
 20
25.7013403134
 11
-5.5031546779
 21
25.7026208348
  0
LINE
  5
428
100
AcDbEntity
  8
SUPERFICI
100
AcDbLine
 62
250
  6
CONTINUOUS
 10
-5.5031546779
 20
25.7026208348
 11
-4.7225102963
 21
25.7033546455
  0
LINE
  5
429
100
AcDbEntity
  8
SUPERFICI
100
AcDbLine
 62
250
  6
CONTINUOUS
 10
0.5
 20
25.7021317659
 11
3.012542135
 21
25.7033783449
  0
LINE
  5
42A
100
AcDbEntity
  8
SUPERFICI
100
AcDbLine
 62
250
  6
CONTINUOUS
 10
-4.7225102963
 20
25.7033546455
 11
-3.87860034
 21
25.7035772758
  0
LINE
  5
42B
100
AcDbEntity
  8
SUPERFICI
100
AcDbLine
 62
250
  6
CONTINUOUS
 10
3.012542135
 20
25.7033783449
 11
4.2315717339
 21
25.7035446576
  0
LINE
  5
42C
100
AcDbEntity
  8
SUPERFICI
100
AcDbLine
 62
250
  6
CONTINUOUS
 10
-3.87860034
 20
25.7035772758
 11
-2.310563216
 21
25.7030284673
  0
LINE
  5
42D
100
AcDbEntity
  8
SUPERFICI
100
AcDbLine
 62
250
  6
CONTINUOUS
 10
-2.310563216
 20
25.7030284673
 11
0.5
 21
25.7021246613
  0
LINE
  5
42E
100
AcDbEntity
  8
SUPERFICI
100
AcDbLine
 62
250
  6
CONTINUOUS
 10
4.2315717339
 20
25.7035446576
 11
5.0586309264
 21
25.7031106106
  0
LINE
  5
42F
100
AcDbEntity
  8
SUPERFICI
100
AcDbLine
 62
250
  6
CONTINUOUS
 10
5.0586309264
 20
25.7031106106
 11
5.8188696943
 21
25.7021417113
  0
LINE
  5
430
100
AcDbEntity
  8
SUPERFICI
100
AcDbLine
 62
250
  6
CONTINUOUS
 10
5.8188696943
 20
25.7021417113
 11
6.518489069
 21
25.7006199003
  0
LINE
  5
431
100
AcDbEntity
  8
SUPERFICI
100
AcDbLine
 62
250
  6
CONTINUOUS
 10
6.518489069
 20
25.7006199003
 11
7.1625004055
 21
25.6985415209
  0
LINE
  5
432
100
AcDbEntity
  8
SUPERFICI
100
AcDbLine
 62
250
  6
CONTINUOUS
 10
7.1625004055
 20
25.6985415209
 11
7.755035507
 21
25.6959111014
  0
LINE
  5
433
100
AcDbEntity
  8
SUPERFICI
100
AcDbLine
 62
250
  6
CONTINUOUS
 10
7.755035507
 20
25.6959111014
 11
8.3005716915
 21
25.6927332993
  0
LINE
  5
434
100
AcDbEntity
  8
SUPERFICI
100
AcDbLine
 62
250
  6
CONTINUOUS
 10
8.3005716915
 20
25.6927332993
 11
8.6407486985
 21
25.6903076029
  0
LINE
  5
435
100
AcDbEntity
  8
SUPERFICI
100
AcDbLine
 62
250
  6
CONTINUOUS
 10
8.6407486985
 20
25.6903076029
 11
8.9635263788
 21
25.6876365737
  0
LINE
  5
436
100
AcDbEntity
  8
SUPERFICI
100
AcDbLine
 62
250
  6
CONTINUOUS
 10
8.9635263788
 20
25.6876365737
 11
9.2704152258
 21
25.6847200689
  0
LINE
  5
437
100
AcDbEntity
  8
SUPERFICI
100
AcDbLine
 62
250
  6
CONTINUOUS
 10
9.2704152258
 20
25.6847200689
 11
9.5628607145
 21
25.6815546128
  0
LINE
  5
438
100
AcDbEntity
  8
SUPERFICI
100
AcDbLine
 62
250
  6
CONTINUOUS
 10
9.5628607145
 20
25.6815546128
 11
9.8415535246
 21
25.6781367624
  0
LINE
  5
439
100
AcDbEntity
  8
SUPERFICI
100
AcDbLine
 62
250
  6
CONTINUOUS
 10
9.8415535246
 20
25.6781367624
 11
10.1072337342
 21
25.6744562893
  0
LINE
  5
43A
100
AcDbEntity
  8
SUPERFICI
100
AcDbLine
 62
250
  6
CONTINUOUS
 10
10.1072337342
 20
25.6744562893
 11
10.3598838624
 21
25.6705479968
  0
LINE
  5
43B
100
AcDbEntity
  8
SUPERFICI
100
AcDbLine
 62
250
  6
CONTINUOUS
 10
10.3598838624
 20
25.6705479968
 11
10.5995025721
 21
25.6664246355
  0
LWPOLYLINE
  5
43C
100
AcDbEntity
  8
SUPERFICI
100
AcDbPolyline
 62
250
  6
CONTINUOUS
 90
3
 70
0
 10
10.5995025721
 20
25.6664246355
 10
10.825808626
 20
25.6620459859
 10
10.9337502999
 20
25.6598160321
  0
LWPOLYLINE
  5
43D
100
AcDbEntity
  8
SUPERFICI
100
AcDbPolyline
 62
250
  6
CONTINUOUS
 90
36
 70
0
 10
10.9337502943
 20
25.65981594
 10
11.0009026301
 20
25.6577584282
 10
11.0660548234
 20
25.6546040419
 10
11.1291780074
 20
25.6504648849
 10
11.1899922978
 20
25.645510239
 10
11.2487137162
 20
25.6398057379
 10
11.3060731531
 20
25.6332652198
 10
11.3619882775
 20
25.6258017667
 10
11.4167332326
 20
25.6175907162
 10
11.471562816
 20
25.6088396028
 10
11.5260933781
 20
25.5997288958
 10
11.5797414994
 20
25.5902846273
 10
11.6331758279
 20
25.580440742
 10
11.6869390673
 20
25.5702223826
 10
11.7412261971
 20
25.5594147387
 10
11.7966398363
 20
25.5474311973
 10
11.8538911087
 20
25.5339206192
 10
11.9122103013
 20
25.5190846431
 10
11.9696433821
 20
25.5033118356
 10
12.0259537696
 20
25.4866585896
 10
12.0814069994
 20
25.4691296291
 10
12.1348973423
 20
25.4511772341
 10
12.1860718069
 20
25.4330259062
 10
12.2352276286
 20
25.4146671447
 10
12.282223606
 20
25.3962745181
 10
12.3271010478
 20
25.3779261258
 10
12.369984839
 20
25.3596499035
 10
12.4108992995
 20
25.3415311384
 10
12.4496223958
 20
25.3237718462
 10
12.4861056265
 20
25.3064785967
 10
12.5205697205
 20
25.2896097095
 10
12.553289572
 20
25.2731268944
 10
12.5849229752
 20
25.2566928144
 10
12.6164403992
 20
25.2396763349
 10
12.6477956679
 20
25.2219283509
 10
12.6784644131
 20
25.2039187045
  0
LWPOLYLINE
  5
43E
100
AcDbEntity
  8
SUPERFICI
100
AcDbPolyline
 62
250
  6
CONTINUOUS
 90
3
 70
0
 10
12.6784644131
 20
25.2039187045
 10
12.7376849382
 20
25.1684870786
 10
12.766068622
 20
25.1512143997
  0
LWPOLYLINE
  5
43F
100
AcDbEntity
  8
SUPERFICI
100
AcDbPolyline
 62
250
  6
CONTINUOUS
 90
3
 70
0
 10
12.766068622
 20
25.1512143997
 10
12.8219818301
 20
25.1166849747
 10
12.8494619464
 20
25.0994825735
  0
LWPOLYLINE
  5
440
100
AcDbEntity
  8
SUPERFICI
100
AcDbPolyline
 62
250
  6
CONTINUOUS
 90
49
 70
0
 10
12.8494619464
 20
25.0994825735
 10
12.9047637897
 20
25.064358935
 10
12.9325414656
 20
25.0464540493
 10
12.9608876338
 20
25.027943655
 10
12.9897700557
 20
25.0088259279
 10
13.0190807241
 20
24.9891562777
 10
13.0491298745
 20
24.968652628
 10
13.0798706833
 20
24.9473378808
 10
13.1113146074
 20
24.9251289158
 10
13.1438346839
 20
24.9015634638
 10
13.1776516755
 20
24.8763578686
 10
13.2126228007
 20
24.8495633597
 10
13.2485910647
 20
24.8211870987
 10
13.2856572975
 20
24.7910552042
 10
13.3236436147
 20
24.7592120085
 10
13.3619917047
 20
24.7260145074
 10
13.4005372893
 20
24.691538543
 10
13.4393573501
 20
24.655658346
 10
13.4782719112
 20
24.6184589424
 10
13.5171054227
 20
24.5800544589
 10
13.5559554753
 20
24.5402899168
 10
13.5950407654
 20
24.4988403317
 10
13.6342932269
 20
24.4556843788
 10
13.6736568869
 20
24.4107796104
 10
13.7133338455
 20
24.3637421698
 10
13.7532416363
 20
24.314526371
 10
13.7932869974
 20
24.2630865899
 10
13.8336128982
 20
24.2090110128
 10
13.8741070384
 20
24.1522379831
 10
13.9146299748
 20
24.0927275858
 10
13.9552317271
 20
24.0300794808
 10
13.9957486858
 20
23.9642457482
 10
14.0360110133
 20
23.8951578745
 10
14.0760039195
 20
23.8223552875
 10
14.1155731064
 20
23.7456920322
 10
14.1544137744
 20
23.6652345868
 10
14.1922098968
 20
23.5808948122
 10
14.2283981828
 20
23.4928440708
 10
14.26300523
 20
23.4009253002
 10
14.2965983647
 20
23.3043173821
 10
14.3290158589
 20
23.2026208056
 10
14.3599544344
 20
23.0951743724
 10
14.3895022079
 20
22.9808429819
 10
14.4174276997
 20
22.85901141
 10
14.4424335569
 20
22.7309482307
 10
14.4630551565
 20
22.5983686264
 10
14.4785877599
 20
22.4620706455
 10
14.4889005169
 20
22.321758108
 10
14.4935630495
 20
22.1776004521
  0
LINE
  5
441
100
AcDbEntity
  8
RACCORDO
100
AcDbLine
 62
7
  6
CONTINUOUS
 10
40.0
 20
3.7099727925
 11
39.9388055192
 21
3.6078157575
  0
LINE
  5
442
100
AcDbEntity
  8
RACCORDO
100
AcDbLine
 62
7
  6
CONTINUOUS
 10
39.9388055192
 20
-3.6078157575
 11
40.0
 21
-3.7099727925
  0
LINE
  5
443
100
AcDbEntity
  8
0
100
AcDbLine
 62
250
  6
CONTINUOUS
 10
37.0
 20
40.0
 11
37.0
 21
39.7689897085
  0
LINE
  5
444
100
AcDbEntity
  8
0
100
AcDbLine
 62
250
  6
CONTINUOUS
 10
37.0
 20
-40.0
 11
37.0
 21
-39.7689897085
  0
LINE
  5
445
100
AcDbEntity
  8
0
100
AcDbLine
 62
250
  6
CONTINUOUS
 10
-40.0
 20
37.0
 11
-39.7693588487
 21
37.0
  0
LINE
  5
446
100
AcDbEntity
  8
0
100
AcDbLine
 62
250
  6
CONTINUOUS
 10
39.7693588487
 20
37.0
 11
40.0
 21
37.0
  0
LINE
  5
447
100
AcDbEntity
  8
SUPERFICI
100
AcDbLine
 62
250
  6
CONTINUOUS
 10
38.9243174974
 20
36.4913887453
 11
38.9295880163
 21
36.3923247596
  0
LWPOLYLINE
  5
448
100
AcDbEntity
  8
SUPERFICI
100
AcDbPolyline
 62
250
  6
CONTINUOUS
 90
7
 70
0
 10
38.9295880163
 20
36.3923247596
 10
38.9317736919
 20
36.343474529
 10
38.933208234
 20
36.2947595326
 10
38.9341587122
 20
36.2466315016
 10
38.9348816155
 20
36.1981594035
 10
38.9353710272
 20
36.1489191797
 10
38.9506455618
 20
34.1755690501
  0
LINE
  5
449
100
AcDbEntity
  8
SUPERFICI
100
AcDbLine
 62
250
  6
CONTINUOUS
 10
38.9197066888
 20
36.5956552819
 11
38.9243174974
 21
36.4913887453
  0
LINE
  5
44A
100
AcDbEntity
  8
SUPERFICI
100
AcDbLine
 62
250
  6
CONTINUOUS
 10
38.9129849232
 20
36.7694020397
 11
38.9197066888
 21
36.5956552819
  0
LWPOLYLINE
  5
44B
100
AcDbEntity
  8
SUPERFICI
100
AcDbPolyline
 62
250
  6
CONTINUOUS
 90
3
 70
0
 10
38.9041434445
 20
37.0379684234
 10
38.9063432768
 20
36.9668469368
 10
38.9129849232
 20
36.7694020397
  0
LINE
  5
44C
100
AcDbEntity
  8
SUPERFICI
100
AcDbLine
 62
250
  6
CONTINUOUS
 10
38.9506455618
 20
34.1755690501
 11
38.9572489505
 21
33.2516700168
  0
LINE
  5
44D
100
AcDbEntity
  8
SUPERFICI
100
AcDbLine
 62
250
  6
CONTINUOUS
 10
38.9572489505
 20
33.2516700168
 11
38.9646543793
 21
32.1157181917
  0
LINE
  5
44E
100
AcDbEntity
  8
SUPERFICI
100
AcDbLine
 62
250
  6
CONTINUOUS
 10
38.9646543793
 20
32.1157181917
 11
38.969510404
 21
31.286456495
  0
LINE
  5
44F
100
AcDbEntity
  8
SUPERFICI
100
AcDbLine
 62
250
  6
CONTINUOUS
 10
38.969510404
 20
31.286456495
 11
38.9744277431
 21
30.3457901752
  0
LINE
  5
450
100
AcDbEntity
  8
SUPERFICI
100
AcDbLine
 62
250
  6
CONTINUOUS
 10
38.9744277431
 20
30.3457901752
 11
38.9782919991
 21
29.5022767723
  0
LINE
  5
451
100
AcDbEntity
  8
SUPERFICI
100
AcDbLine
 62
250
  6
CONTINUOUS
 10
38.9782919991
 20
29.5022767723
 11
38.9819495802
 21
28.5773152906
  0
LINE
  5
452
100
AcDbEntity
  8
SUPERFICI
100
AcDbLine
 62
250
  6
CONTINUOUS
 10
38.9819495802
 20
28.5773152906
 11
38.9852824868
 21
27.5659412396
  0
LINE
  5
453
100
AcDbEntity
  8
SUPERFICI
100
AcDbLine
 62
250
  6
CONTINUOUS
 10
38.9852824868
 20
27.5659412396
 11
38.9888860788
 21
26.1557434796
  0
LINE
  5
454
100
AcDbEntity
  8
SUPERFICI
100
AcDbLine
 62
250
  6
CONTINUOUS
 10
39.7691056352
 20
-36.8661732577
 11
39.7693588487
 21
-37.0
  0
LINE
  5
455
100
AcDbEntity
  8
SUPERFICI
100
AcDbLine
 62
250
  6
CONTINUOUS
 10
38.9888860788
 20
26.1557434796
 11
38.9912562246
 21
24.8894918805
  0
LINE
  5
456
100
AcDbEntity
  8
SUPERFICI
100
AcDbLine
 62
250
  6
CONTINUOUS
 10
39.7687418108
 20
-36.628317266
 11
39.7691056352
 21
-36.8661732577
  0
LINE
  5
457
100
AcDbEntity
  8
SUPERFICI
100
AcDbLine
 62
250
  6
CONTINUOUS
 10
38.9912562246
 20
24.8894918805
 11
38.993613319
 21
23.1090987922
  0
LINE
  5
458
100
AcDbEntity
  8
SUPERFICI
100
AcDbLine
 62
250
  6
CONTINUOUS
 10
38.993613319
 20
23.1090987922
 11
38.9955072969
 21
21.085490201
  0
LINE
  5
459
100
AcDbEntity
  8
SUPERFICI
100
AcDbLine
 62
250
  6
CONTINUOUS
 10
39.7685353736
 20
-36.4263533132
 11
39.7687418108
 21
-36.628317266
  0
LINE
  5
45A
100
AcDbEntity
  8
SUPERFICI
100
AcDbLine
 62
250
  6
CONTINUOUS
 10
38.9955072969
 20
21.085490201
 11
38.9968426499
 21
18.7913643529
  0
LINE
  5
45B
100
AcDbEntity
  8
SUPERFICI
100
AcDbLine
 62
250
  6
CONTINUOUS
 10
39.7684550949
 20
-36.284285557
 11
39.7685353736
 21
-36.4263533132
  0
LINE
  5
45C
100
AcDbEntity
  8
SUPERFICI
100
AcDbLine
 62
250
  6
CONTINUOUS
 10
38.9945168302
 20
-3.0256193026
 11
38.99700525
 21
-12.0289045559
  0
LWPOLYLINE
  5
45D
100
AcDbEntity
  8
SUPERFICI
100
AcDbPolyline
 62
250
  6
CONTINUOUS
 90
3
 70
0
 10
38.99700525
 20
-12.0289045559
 10
38.9974618218
 20
-14.6491122233
 10
38.9974888929
 20
-15.2592515552
  0
LINE
  5
45E
100
AcDbEntity
  8
SUPERFICI
100
AcDbLine
 62
250
  6
CONTINUOUS
 10
38.9968426499
 20
18.7913643529
 11
38.9974600817
 21
16.1925671374
  0
LINE
  5
45F
100
AcDbEntity
  8
SUPERFICI
100
AcDbLine
 62
250
  6
CONTINUOUS
 10
39.7657877888
 20
-12.7126748837
 11
39.7684550949
 21
-36.284285557
  0
LINE
  5
460
100
AcDbEntity
  8
SUPERFICI
100
AcDbLine
 62
250
  6
CONTINUOUS
 10
39.7657893057
 20
12.6193139708
 11
39.7658519361
 21
-9.0899605879
  0
LINE
  5
461
100
AcDbEntity
  8
SUPERFICI
100
AcDbLine
 62
250
  6
CONTINUOUS
 10
39.7658519361
 20
-9.0899605879
 11
39.7657877888
 21
-12.7126748837
  0
LINE
  5
462
100
AcDbEntity
  8
RACCORDO
100
AcDbLine
 62
7
  6
CONTINUOUS
 10
39.8742213297
 20
2.2629529151
 11
39.8742213297
 21
-2.2629529151
  0
LINE
  5
463
100
AcDbEntity
  8
0
100
AcDbLine
 62
7
  6
CONTINUOUS
 10
40.0
 20
-37.0000000002
 11
40.0
 21
-3.7099727925
  0
LINE
  5
464
100
AcDbEntity
  8
0
100
AcDbLine
 62
7
  6
CONTINUOUS
 10
40.0
 20
3.7099727925
 11
40.0
 21
37.0000000002
  0
LINE
  5
465
100
AcDbEntity
  8
SUPERFICI
100
AcDbLine
 62
250
  6
CONTINUOUS
 10
38.9945667315
 20
3.67080989
 11
38.9949004649
 21
0.0
  0
LINE
  5
466
100
AcDbEntity
  8
SUPERFICI
100
AcDbLine
 62
250
  6
CONTINUOUS
 10
38.994900465
 20
0.0
 11
38.9945168302
 21
-3.0256193026
  0
LINE
  5
467
100
AcDbEntity
  8
SUPERFICI
100
AcDbLine
 62
250
  6
CONTINUOUS
 10
38.9974600817
 20
16.1925671374
 11
38.9974465906
 21
14.471667757
  0
LWPOLYLINE
  5
468
100
AcDbEntity
  8
SUPERFICI
100
AcDbPolyline
 62
250
  6
CONTINUOUS
 90
3
 70
0
 10
38.9974888929
 20
-15.2592515552
 10
38.9974382352
 20
-16.4287502644
 10
38.9973600857
 20
-16.9897283426
  0
LINE
  5
469
100
AcDbEntity
  8
SUPERFICI
100
AcDbLine
 62
250
  6
CONTINUOUS
 10
39.7660889039
 20
26.4503524611
 11
39.7657893057
 21
12.6193139708
  0
LINE
  5
46A
100
AcDbEntity
  8
SUPERFICI
100
AcDbLine
 62
250
  6
CONTINUOUS
 10
38.9949039296
 20
5.3560674171
 11
38.9945667315
 21
3.67080989
  0
LWPOLYLINE
  5
46B
100
AcDbEntity
  8
SUPERFICI
100
AcDbPolyline
 62
250
  6
CONTINUOUS
 90
3
 70
0
 10
38.9974465906
 20
14.471667757
 10
38.9969903268
 20
11.9703687791
 10
38.9949039296
 20
5.3560674171
  0
LINE
  5
46C
100
AcDbEntity
  8
SUPERFICI
100
AcDbLine
 62
250
  6
CONTINUOUS
 10
38.9973600857
 20
-16.9897283426
 11
38.997102517
 21
-18.0655233232
  0
LINE
  5
46D
100
AcDbEntity
  8
SUPERFICI
100
AcDbLine
 62
250
  6
CONTINUOUS
 10
39.7669565823
 20
31.6259018327
 11
39.7660889039
 21
26.4503524611
  0
LWPOLYLINE
  5
46E
100
AcDbEntity
  8
SUPERFICI
100
AcDbPolyline
 62
250
  6
CONTINUOUS
 90
3
 70
0
 10
38.997102517
 20
-18.0655233232
 10
38.9967165176
 20
-19.0837993829
 10
38.996479337
 20
-19.5725789544
  0
LINE
  5
46F
100
AcDbEntity
  8
SUPERFICI
100
AcDbLine
 62
250
  6
CONTINUOUS
 10
38.996479337
 20
-19.5725789544
 11
38.9959196882
 21
-20.5107111054
  0
LINE
  5
470
100
AcDbEntity
  8
SUPERFICI
100
AcDbLine
 62
250
  6
CONTINUOUS
 10
38.9959196882
 20
-20.5107111054
 11
38.9952599386
 21
-21.3999701931
  0
LWPOLYLINE
  5
471
100
AcDbEntity
  8
SUPERFICI
100
AcDbPolyline
 62
250
  6
CONTINUOUS
 90
3
 70
0
 10
38.9952599386
 20
-21.3999701931
 10
38.9945094706
 20
-22.2425435456
 10
38.9941076234
 20
-22.6474469044
  0
LINE
  5
472
100
AcDbEntity
  8
SUPERFICI
100
AcDbLine
 62
250
  6
CONTINUOUS
 10
38.9941076234
 20
-22.6474469044
 11
38.9932486392
 21
-23.4251486515
  0
LINE
  5
473
100
AcDbEntity
  8
SUPERFICI
100
AcDbLine
 62
250
  6
CONTINUOUS
 10
38.9932486392
 20
-23.4251486515
 11
38.9923261332
 21
-24.1621631967
  0
LINE
  5
474
100
AcDbEntity
  8
SUPERFICI
100
AcDbLine
 62
250
  6
CONTINUOUS
 10
38.9923261332
 20
-24.1621631967
 11
38.9907459847
 21
-25.1958901032
  0
LWPOLYLINE
  5
475
100
AcDbEntity
  8
SUPERFICI
100
AcDbPolyline
 62
250
  6
CONTINUOUS
 90
3
 70
0
 10
39.7693588487
 20
37.0
 10
39.7692253388
 20
36.931287627
 10
39.7669565823
 20
31.6259018327
  0
LINE
  5
476
100
AcDbEntity
  8
SUPERFICI
100
AcDbLine
 62
250
  6
CONTINUOUS
 10
38.9907459847
 20
-25.1958901032
 11
38.9888987928
 21
-26.1495554492
  0
LINE
  5
477
100
AcDbEntity
  8
SUPERFICI
100
AcDbLine
 62
250
  6
CONTINUOUS
 10
38.9888987928
 20
-26.1495554492
 11
38.9867842466
 21
-27.0306195171
  0
LINE
  5
478
100
AcDbEntity
  8
SUPERFICI
100
AcDbLine
 62
250
  6
CONTINUOUS
 10
38.9867842466
 20
-27.0306195171
 11
38.9835862593
 21
-28.1058370269
  0
LWPOLYLINE
  5
479
100
AcDbEntity
  8
SUPERFICI
100
AcDbPolyline
 62
250
  6
CONTINUOUS
 90
3
 70
0
 10
38.9835862593
 20
-28.1058370269
 10
38.9800202457
 20
-29.0841990467
 10
38.9790788735
 20
-29.3154646899
  0
LINE
  5
47A
100
AcDbEntity
  8
SUPERFICI
100
AcDbLine
 62
250
  6
CONTINUOUS
 10
38.9790788735
 20
-29.3154646899
 11
38.9751903552
 21
-30.1878931828
  0
LINE
  5
47B
100
AcDbEntity
  8
SUPERFICI
100
AcDbLine
 62
250
  6
CONTINUOUS
 10
38.9751903552
 20
-30.1878931828
 11
38.972204919
 21
-30.7862551086
  0
LINE
  5
47C
100
AcDbEntity
  8
SUPERFICI
100
AcDbLine
 62
250
  6
CONTINUOUS
 10
38.972204919
 20
-30.7862551086
 11
38.968223708
 21
-31.5145632698
  0
LINE
  5
47D
100
AcDbEntity
  8
SUPERFICI
100
AcDbLine
 62
250
  6
CONTINUOUS
 10
38.968223708
 20
-31.5145632698
 11
38.9652755258
 21
-32.0140660688
  0
LINE
  5
47E
100
AcDbEntity
  8
SUPERFICI
100
AcDbLine
 62
250
  6
CONTINUOUS
 10
38.9652755258
 20
-32.0140660688
 11
38.962382648
 21
-32.4782013459
  0
LINE
  5
47F
100
AcDbEntity
  8
SUPERFICI
100
AcDbLine
 62
250
  6
CONTINUOUS
 10
38.962382648
 20
-32.4782013459
 11
38.9604921978
 21
-32.7697147734
  0
LINE
  5
480
100
AcDbEntity
  8
SUPERFICI
100
AcDbLine
 62
250
  6
CONTINUOUS
 10
38.9604921978
 20
-32.7697147734
 11
38.958640999
 21
-33.0473909018
  0
LWPOLYLINE
  5
481
100
AcDbEntity
  8
SUPERFICI
100
AcDbPolyline
 62
250
  6
CONTINUOUS
 90
3
 70
0
 10
38.958640999
 20
-33.0473909018
 10
38.9568395444
 20
-33.311097777
 10
38.9559586854
 20
-33.4377087182
  0
LINE
  5
482
100
AcDbEntity
  8
SUPERFICI
100
AcDbLine
 62
250
  6
CONTINUOUS
 10
38.9559586854
 20
-33.4377087182
 11
38.9542416354
 21
-33.6809581978
  0
LWPOLYLINE
  5
483
100
AcDbEntity
  8
SUPERFICI
100
AcDbPolyline
 62
250
  6
CONTINUOUS
 90
3
 70
0
 10
38.9542416354
 20
-33.6809581978
 10
38.9525844717
 20
-33.9111681821
 10
38.9517790412
 20
-34.0216743135
  0
LWPOLYLINE
  5
484
100
AcDbEntity
  8
SUPERFICI
100
AcDbPolyline
 62
250
  6
CONTINUOUS
 90
3
 70
0
 10
38.9517790412
 20
-34.0216743135
 10
38.9502142539
 20
-34.2337263497
 10
38.9494551105
 20
-34.3355208999
  0
LWPOLYLINE
  5
485
100
AcDbEntity
  8
SUPERFICI
100
AcDbPolyline
 62
250
  6
CONTINUOUS
 90
5
 70
0
 10
38.9494551105
 20
-34.3355208999
 10
38.9479831693
 20
-34.5308525083
 10
38.9472703961
 20
-34.624621922
 10
38.9465730588
 20
-34.7157853006
 10
38.9458911563
 20
-34.804524344
  0
LWPOLYLINE
  5
486
100
AcDbEntity
  8
SUPERFICI
100
AcDbPolyline
 62
250
  6
CONTINUOUS
 90
4
 70
0
 10
38.9458911563
 20
-34.804524344
 10
38.9445740376
 20
-34.9747398988
 10
38.9439379381
 20
-35.0563766242
 10
38.9433169966
 20
-35.1357551299
  0
LWPOLYLINE
  5
487
100
AcDbEntity
  8
SUPERFICI
100
AcDbPolyline
 62
250
  6
CONTINUOUS
 90
3
 70
0
 10
38.9433169966
 20
-35.1357551299
 10
38.9421174453
 20
-35.2879046114
 10
38.941534923
 20
-35.3608415402
  0
LWPOLYLINE
  5
488
100
AcDbEntity
  8
SUPERFICI
100
AcDbPolyline
 62
250
  6
CONTINUOUS
 90
46
 70
0
 10
39.7693588487
 20
-37.0
 10
39.7688346108
 20
-37.0575704889
 10
39.7669085713
 20
-37.1199824313
 10
39.7632526158
 20
-37.1871937569
 10
39.7574920442
 20
-37.2593940448
 10
39.7492599929
 20
-37.336253763
 10
39.7382677917
 20
-37.4169281901
 10
39.7241653503
 20
-37.5012955723
 10
39.7065896624
 20
-37.5892147755
 10
39.6853469539
 20
-37.6797955092
 10
39.6601299354
 20
-37.7728566236
 10
39.6306289158
 20
-37.868193281
 10
39.5967897975
 20
-37.9648795286
 10
39.5583816301
 20
-38.0626882198
 10
39.515181457
 20
-38.1613657356
 10
39.4673120681
 20
-38.2599725348
 10
39.4146456602
 20
-38.3582572455
 10
39.357067709
 20
-38.4559502675
 10
39.2948970096
 20
-38.5521445903
 10
39.2281239329
 20
-38.6465955257
 10
39.1567472558
 20
-38.7390586882
 10
39.0812707791
 20
-38.8287229555
 10
39.0017910427
 20
-38.9153957298
 10
38.9184156518
 20
-38.9988854745
 10
38.8318207764
 20
-39.0785111995
 10
38.7421908108
 20
-39.1541638614
 10
38.6497185451
 20
-39.225739186
 10
38.5552231795
 20
-39.2927200063
 10
38.4589490511
 20
-39.3551033453
 10
38.3611387929
 20
-39.4128961333
 10
38.262706922
 20
-39.4657708995
 10
38.1639217238
 20
-39.5138405577
 10
38.0650365825
 20
-39.5572298124
 10
37.9670054009
 20
-39.5958079798
 10
37.8700837646
 20
-39.6297975358
 10
37.7744996423
 20
-39.6594295704
 10
37.6811929106
 20
-39.6847547201
 10
37.5903699314
 20
-39.7060842628
 10
37.5022133087
 20
-39.723727106
 10
37.4176276442
 20
-39.7378766799
 10
37.3367547457
 20
-39.7488989964
 10
37.2597177824
 20
-39.7571469237
 10
37.1873769043
 20
-39.762911082
 10
37.1200670697
 20
-39.7665619169
 10
37.0575940505
 20
-39.7684777921
 10
37.0
 20
-39.7689897085
  0
LWPOLYLINE
  5
489
100
AcDbEntity
  8
SUPERFICI
100
AcDbPolyline
 62
250
  6
CONTINUOUS
 90
7
 70
0
 10
38.941534923
 20
-35.3608415402
 10
38.9348980998
 20
-36.1938617477
 10
38.9342005225
 20
-36.2430435751
 10
38.9332894504
 20
-36.2918839539
 10
38.9318743699
 20
-36.3413014171
 10
38.9296689892
 20
-36.3908571126
 10
38.9243242235
 20
-36.4912320341
  0
LINE
  5
48A
100
AcDbEntity
  8
SUPERFICI
100
AcDbLine
 62
250
  6
CONTINUOUS
 10
38.9129344423
 20
-36.770806563
 11
38.904143444
 21
-37.0379684233
  0
LWPOLYLINE
  5
48B
100
AcDbEntity
  8
SUPERFICI
100
AcDbPolyline
 62
250
  6
CONTINUOUS
 90
46
 70
0
 10
38.9041434548
 20
-37.0379684263
 10
38.9026086385
 20
-37.076050187
 10
38.9000763462
 20
-37.1173402826
 10
38.8963367464
 20
-37.1618109093
 10
38.8911448428
 20
-37.2095867759
 10
38.8842726423
 20
-37.2604511593
 10
38.8755527986
 20
-37.3138485061
 10
38.8647618191
 20
-37.3696998305
 10
38.8516687133
 20
-37.4279137964
 10
38.836165686
 20
-37.4879057342
 10
38.8180554449
 20
-37.5495599702
 10
38.7971431356
 20
-37.612743162
 10
38.7734128903
 20
-37.676843511
 10
38.7467177021
 20
-37.7417134843
 10
38.7169166368
 20
-37.8071916049
 10
38.6841035663
 20
-37.8726606549
 10
38.6481934086
 20
-37.9379602692
 10
38.6091119548
 20
-38.0029219885
 10
38.5670756808
 20
-38.0669526148
 10
38.5220722217
 20
-38.1298983775
 10
38.474103126
 20
-38.1916032348
 10
38.4235101889
 20
-38.2515278351
 10
38.3703544893
 20
-38.3095454894
 10
38.3147020002
 20
-38.3655396693
 10
38.2569957389
 20
-38.4190639451
 10
38.1973456808
 20
-38.4700516127
 10
38.1358749069
 20
-38.5184385128
 10
38.0731254706
 20
-38.563876267
 10
38.0092519815
 20
-38.6063606953
 10
37.9444095196
 20
-38.6458973388
 10
37.8792005832
 20
-38.6822587569
 10
37.813795998
 20
-38.7155144928
 10
37.748355566
 20
-38.7457472658
 10
37.6835030928
 20
-38.7728590289
 10
37.619399607
 20
-38.7969918859
 10
37.5561931664
 20
-38.818291693
 10
37.4945059449
 20
-38.8367688264
 10
37.4344741619
 20
-38.8526173916
 10
37.3762160986
 20
-38.8660327095
 10
37.320326722
 20
-38.8771187934
 10
37.2668992751
 20
-38.8861077095
 10
37.2160134437
 20
-38.8932244937
 10
37.1682333523
 20
-38.8986361267
 10
37.1237789322
 20
-38.9025726109
 10
37.0825234369
 20
-38.9052820205
 10
37.0444953647
 20
-38.9069761685
  0
LINE
  5
48C
100
AcDbEntity
  8
SUPERFICI
100
AcDbLine
 62
250
  6
CONTINUOUS
 10
38.9196713461
 20
-36.5965316907
 11
38.9129344423
 21
-36.770806563
  0
LINE
  5
48D
100
AcDbEntity
  8
SUPERFICI
100
AcDbLine
 62
250
  6
CONTINUOUS
 10
38.9243242235
 20
-36.4912320341
 11
38.9196713461
 21
-36.5965316907
  0
LWPOLYLINE
  5
48E
100
AcDbEntity
  8
SUPERFICI
100
AcDbPolyline
 62
250
  6
CONTINUOUS
 90
7
 70
0
 10
-36.6536113781
 20
38.9224205406
 10
-36.579959839
 20
38.9259792059
 10
-36.5059788936
 20
38.9303549292
 10
-36.4315911826
 20
38.9350871177
 10
-36.35431332
 20
38.9390614796
 10
-36.2739959136
 20
38.9417371316
 10
-36.1917526592
 20
38.9436508144
  0
LINE
  5
48F
100
AcDbEntity
  8
SUPERFICI
100
AcDbLine
 62
250
  6
CONTINUOUS
 10
-36.8024037155
 20
38.9160945857
 11
-36.6536113781
 21
38.9224205406
  0
LWPOLYLINE
  5
490
100
AcDbEntity
  8
SUPERFICI
100
AcDbPolyline
 62
250
  6
CONTINUOUS
 90
3
 70
0
 10
-37.0444954435
 20
38.9069764105
 10
-36.9616208436
 20
38.9099292109
 10
-36.8024037155
 20
38.9160945857
  0
LWPOLYLINE
  5
491
100
AcDbEntity
  8
SUPERFICI
100
AcDbPolyline
 62
250
  6
CONTINUOUS
 90
3
 70
0
 10
-36.1917526592
 20
38.9436508144
 10
-36.0179718477
 20
38.9467616419
 10
-35.0633682494
 20
38.9605794503
  0
LINE
  5
492
100
AcDbEntity
  8
SUPERFICI
100
AcDbLine
 62
250
  6
CONTINUOUS
 10
-35.0633682494
 20
38.9605794503
 11
-29.6972918269
 21
39.0461742321
  0
LINE
  5
493
100
AcDbEntity
  8
SUPERFICI
100
AcDbLine
 62
250
  6
CONTINUOUS
 10
-29.6972918269
 20
39.0461742321
 11
-28.8966934656
 21
39.0584959179
  0
LINE
  5
494
100
AcDbEntity
  8
SUPERFICI
100
AcDbLine
 62
250
  6
CONTINUOUS
 10
-28.8966934656
 20
39.0584959179
 11
-28.3446215636
 21
39.0665511283
  0
LINE
  5
495
100
AcDbEntity
  8
SUPERFICI
100
AcDbLine
 62
250
  6
CONTINUOUS
 10
-28.3446215636
 20
39.0665511283
 11
-27.8045817433
 21
39.0739096336
  0
LINE
  5
496
100
AcDbEntity
  8
SUPERFICI
100
AcDbLine
 62
250
  6
CONTINUOUS
 10
-27.8045817433
 20
39.0739096336
 11
-27.2927933477
 21
39.0803292954
  0
LINE
  5
497
100
AcDbEntity
  8
SUPERFICI
100
AcDbLine
 62
250
  6
CONTINUOUS
 10
-27.2927933477
 20
39.0803292954
 11
-26.8157707838
 21
39.0857306186
  0
LINE
  5
498
100
AcDbEntity
  8
SUPERFICI
100
AcDbLine
 62
250
  6
CONTINUOUS
 10
-26.8157707838
 20
39.0857306186
 11
-26.3788190674
 21
39.0901285317
  0
LWPOLYLINE
  5
499
100
AcDbEntity
  8
SUPERFICI
100
AcDbPolyline
 62
250
  6
CONTINUOUS
 90
7
 70
0
 10
-26.3788190674
 20
39.0901285317
 10
-25.964836072
 20
39.0937529585
 10
-25.7649051245
 20
39.0953013468
 10
-25.5672463129
 20
39.0965213041
 10
-25.3712763911
 20
39.0972167521
 10
-25.1777834066
 20
39.0975708437
 10
-24.796224446
 20
39.098661251
  0
LINE
  5
49A
100
AcDbEntity
  8
SUPERFICI
100
AcDbLine
 62
250
  6
CONTINUOUS
 10
-24.4186772554
 20
39.1003677623
 11
-23.8530472055
 21
39.1047583676
  0
LINE
  5
49B
100
AcDbEntity
  8
SUPERFICI
100
AcDbLine
 62
250
  6
CONTINUOUS
 10
-23.8530472055
 20
39.1047583676
 11
-23.4762708814
 21
39.1069624395
  0
LINE
  5
49C
100
AcDbEntity
  8
SUPERFICI
100
AcDbLine
 62
250
  6
CONTINUOUS
 10
-24.796224446
 20
39.098661251
 11
-24.4186772554
 21
39.1003677623
  0
LINE
  5
49D
100
AcDbEntity
  8
SUPERFICI
100
AcDbLine
 62
250
  6
CONTINUOUS
 10
-23.4762708814
 20
39.1069624395
 11
-23.0966902013
 21
39.1085548158
  0
LINE
  5
49E
100
AcDbEntity
  8
SUPERFICI
100
AcDbLine
 62
250
  6
CONTINUOUS
 10
18.4065436262
 20
39.0963544938
 11
19.8005083874
 21
39.1013612776
  0
LINE
  5
49F
100
AcDbEntity
  8
SUPERFICI
100
AcDbLine
 62
250
  6
CONTINUOUS
 10
17.7805695432
 20
39.0941870014
 11
18.4065436262
 21
39.0963544938
  0
LWPOLYLINE
  5
4A0
100
AcDbEntity
  8
SUPERFICI
100
AcDbPolyline
 62
250
  6
CONTINUOUS
 90
3
 70
0
 10
19.8005083874
 20
39.1013612776
 10
20.5378440329
 20
39.1039360881
 10
20.7703232905
 20
39.1047171182
  0
LINE
  5
4A1
100
AcDbEntity
  8
SUPERFICI
100
AcDbLine
 62
250
  6
CONTINUOUS
 10
16.7630654249
 20
39.0909201136
 11
17.7805695432
 21
39.0941870014
  0
LINE
  5
4A2
100
AcDbEntity
  8
SUPERFICI
100
AcDbLine
 62
250
  6
CONTINUOUS
 10
20.7703232905
 20
39.1047171182
 11
21.4340024891
 21
39.1068225903
  0
LWPOLYLINE
  5
4A3
100
AcDbEntity
  8
SUPERFICI
100
AcDbPolyline
 62
250
  6
CONTINUOUS
 90
3
 70
0
 10
21.8536722666
 20
39.1080234851
 10
22.2601516185
 20
39.1092092511
 10
22.459745827
 20
39.1095230173
  0
LINE
  5
4A4
100
AcDbEntity
  8
SUPERFICI
100
AcDbLine
 62
250
  6
CONTINUOUS
 10
21.4340024891
 20
39.1068225903
 11
21.8536722666
 21
39.1080234851
  0
LINE
  5
4A5
100
AcDbEntity
  8
SUPERFICI
100
AcDbLine
 62
250
  6
CONTINUOUS
 10
15.6496223961
 20
39.0879398601
 11
16.7630654249
 21
39.0909201136
  0
LINE
  5
4A6
100
AcDbEntity
  8
SUPERFICI
100
AcDbLine
 62
250
  6
CONTINUOUS
 10
36.761883576
 20
39.7684769922
 11
37.0
 21
39.7689897085
  0
LINE
  5
4A7
100
AcDbEntity
  8
SUPERFICI
100
AcDbLine
 62
250
  6
CONTINUOUS
 10
14.4376972877
 20
39.0856697199
 11
15.6496223961
 21
39.0879398601
  0
LINE
  5
4A8
100
AcDbEntity
  8
SUPERFICI
100
AcDbLine
 62
250
  6
CONTINUOUS
 10
-23.0966902013
 20
39.1085548158
 11
-22.7129396878
 21
39.109430339
  0
LINE
  5
4A9
100
AcDbEntity
  8
SUPERFICI
100
AcDbLine
 62
250
  6
CONTINUOUS
 10
-9.5952757714
 20
39.0855514502
 11
-2.7677997112
 21
39.0959728281
  0
LINE
  5
4AA
100
AcDbEntity
  8
SUPERFICI
100
AcDbLine
 62
250
  6
CONTINUOUS
 10
13.1207593505
 20
39.0843816064
 11
14.4376972877
 21
39.0856697199
  0
LINE
  5
4AB
100
AcDbEntity
  8
SUPERFICI
100
AcDbLine
 62
250
  6
CONTINUOUS
 10
36.2429336077
 20
39.7677936959
 11
36.761883576
 21
39.7684769922
  0
LINE
  5
4AC
100
AcDbEntity
  8
SUPERFICI
100
AcDbLine
 62
250
  6
CONTINUOUS
 10
36.0719883693
 20
39.7676763494
 11
36.2429336077
 21
39.7677936959
  0
LINE
  5
4AD
100
AcDbEntity
  8
SUPERFICI
100
AcDbLine
 62
250
  6
CONTINUOUS
 10
-11.146321194
 20
39.0843405601
 11
-9.5952757714
 21
39.0855514502
  0
LWPOLYLINE
  5
4AE
100
AcDbEntity
  8
SUPERFICI
100
AcDbPolyline
 62
250
  6
CONTINUOUS
 90
4
 70
0
 10
27.5119438265
 20
39.7613309933
 10
27.760726394
 20
39.7614696159
 10
28.0169360067
 20
39.7616219839
 10
36.0719883693
 20
39.7676763494
  0
LINE
  5
4AF
100
AcDbEntity
  8
SUPERFICI
100
AcDbLine
 62
250
  6
CONTINUOUS
 10
-2.7677997112
 20
39.0959728281
 11
-1.2779939937
 21
39.0968286374
  0
LWPOLYLINE
  5
4B0
100
AcDbEntity
  8
SUPERFICI
100
AcDbPolyline
 62
250
  6
CONTINUOUS
 90
4
 70
0
 10
26.5895656219
 20
39.7609118416
 10
26.8103650832
 20
39.760997171
 10
27.0367631711
 20
39.7610947708
 10
27.5119438265
 20
39.7613309933
  0
LWPOLYLINE
  5
4B1
100
AcDbEntity
  8
SUPERFICI
100
AcDbPolyline
 62
250
  6
CONTINUOUS
 90
3
 70
0
 10
24.0050537729
 20
39.7603118474
 10
24.195467849
 20
39.7603500722
 10
24.7701338991
 20
39.7605165578
  0
LWPOLYLINE
  5
4B2
100
AcDbEntity
  8
SUPERFICI
100
AcDbPolyline
 62
250
  6
CONTINUOUS
 90
5
 70
0
 10
24.7701338991
 20
39.7605165578
 10
25.7553795674
 20
39.760689538
 10
25.9590686142
 20
39.7607281931
 10
26.1653357445
 20
39.7607790243
 10
26.5895656219
 20
39.7609118416
  0
LWPOLYLINE
  5
4B3
100
AcDbEntity
  8
SUPERFICI
100
AcDbPolyline
 62
250
  6
CONTINUOUS
 90
3
 70
0
 10
23.4337341846
 20
39.7602538734
 10
23.6246312651
 20
39.7602629951
 10
24.0050537729
 20
39.7603118474
  0
LINE
  5
4B4
100
AcDbEntity
  8
SUPERFICI
100
AcDbLine
 62
250
  6
CONTINUOUS
 10
0.5007445958
 20
39.7614223771
 11
11.177987855
 21
39.7619772568
  0
LINE
  5
4B5
100
AcDbEntity
  8
SUPERFICI
100
AcDbLine
 62
250
  6
CONTINUOUS
 10
-15.9157798593
 20
39.7617569946
 11
-10.1247328426
 21
39.7619432147
  0
LINE
  5
4B6
100
AcDbEntity
  8
0
100
AcDbLine
 62
7
  6
CONTINUOUS
 10
37.0000000002
 20
40.0
 11
-37.0000000002
 21
40.0
  0
LINE
  5
4B7
100
AcDbEntity
  8
SUPERFICI
100
AcDbLine
 62
250
  6
CONTINUOUS
 10
-12.5835210406
 20
39.0841659678
 11
-11.146321194
 21
39.0843405601
  0
LINE
  5
4B8
100
AcDbEntity
  8
SUPERFICI
100
AcDbLine
 62
250
  6
CONTINUOUS
 10
11.6853643726
 20
39.0841563212
 11
13.1207593505
 21
39.0843816064
  0
LINE
  5
4B9
100
AcDbEntity
  8
SUPERFICI
100
AcDbLine
 62
250
  6
CONTINUOUS
 10
-1.2779939937
 20
39.0968286374
 11
1.3405408396
 21
39.0967738012
  0
LINE
  5
4BA
100
AcDbEntity
  8
SUPERFICI
100
AcDbLine
 62
250
  6
CONTINUOUS
 10
-10.1247328426
 20
39.7619432147
 11
0.5007445958
 21
39.7614223771
  0
LWPOLYLINE
  5
4BB
100
AcDbEntity
  8
SUPERFICI
100
AcDbPolyline
 62
250
  6
CONTINUOUS
 90
3
 70
0
 10
22.8559492198
 20
39.7602876058
 10
23.0497865478
 20
39.7602654761
 10
23.4337341846
 20
39.7602538734
  0
LINE
  5
4BC
100
AcDbEntity
  8
SUPERFICI
100
AcDbLine
 62
250
  6
CONTINUOUS
 10
11.177987855
 20
39.7619772568
 11
15.651775687
 21
39.7617900289
  0
LINE
  5
4BD
100
AcDbEntity
  8
SUPERFICI
100
AcDbLine
 62
250
  6
CONTINUOUS
 10
-24.2251787385
 20
39.7603636072
 11
-15.9157798593
 21
39.7617569946
  0
LWPOLYLINE
  5
4BE
100
AcDbEntity
  8
SUPERFICI
100
AcDbPolyline
 62
250
  6
CONTINUOUS
 90
3
 70
0
 10
15.651775687
 20
39.7617900289
 10
22.0626936053
 20
39.7604503998
 10
22.8559492198
 20
39.7602876058
  0
LINE
  5
4BF
100
AcDbEntity
  8
SUPERFICI
100
AcDbLine
 62
250
  6
CONTINUOUS
 10
-28.062200294
 20
39.7616507147
 11
-24.2251787385
 21
39.7603636072
  0
LINE
  5
4C0
100
AcDbEntity
  8
SUPERFICI
100
AcDbLine
 62
250
  6
CONTINUOUS
 10
10.1165453988
 20
39.0850426392
 11
11.6853643726
 21
39.0841563212
  0
LWPOLYLINE
  5
4C1
100
AcDbEntity
  8
SUPERFICI
100
AcDbPolyline
 62
250
  6
CONTINUOUS
 90
3
 70
0
 10
1.3405408396
 20
39.0967738012
 10
2.9441042699
 20
39.0957683262
 10
3.7061473213
 20
39.0948159129
  0
LINE
  5
4C2
100
AcDbEntity
  8
SUPERFICI
100
AcDbLine
 62
250
  6
CONTINUOUS
 10
-13.9141014879
 20
39.0850199202
 11
-12.5835210406
 21
39.0841659678
  0
LINE
  5
4C3
100
AcDbEntity
  8
SUPERFICI
100
AcDbLine
 62
250
  6
CONTINUOUS
 10
8.3986240657
 20
39.0870477834
 11
10.1165453988
 21
39.0850426392
  0
LINE
  5
4C4
100
AcDbEntity
  8
SUPERFICI
100
AcDbLine
 62
250
  6
CONTINUOUS
 10
-22.7129396878
 20
39.109430339
 11
-22.3231854196
 21
39.1091177687
  0
LINE
  5
4C5
100
AcDbEntity
  8
SUPERFICI
100
AcDbLine
 62
250
  6
CONTINUOUS
 10
22.459745827
 20
39.1095230173
 11
22.8535049462
 21
39.1091961172
  0
LINE
  5
4C6
100
AcDbEntity
  8
SUPERFICI
100
AcDbLine
 62
250
  6
CONTINUOUS
 10
3.7061473213
 20
39.0948159129
 11
8.3986240657
 21
39.0870477834
  0
LINE
  5
4C7
100
AcDbEntity
  8
SUPERFICI
100
AcDbLine
 62
250
  6
CONTINUOUS
 10
-15.1453187644
 20
39.086859367
 11
-13.9141014879
 21
39.0850199202
  0
LWPOLYLINE
  5
4C8
100
AcDbEntity
  8
SUPERFICI
100
AcDbPolyline
 62
250
  6
CONTINUOUS
 90
3
 70
0
 10
-37.0
 20
39.7689897085
 10
-36.9198105851
 20
39.7688062771
 10
-28.062200294
 20
39.7616507147
  0
LINE
  5
4C9
100
AcDbEntity
  8
SUPERFICI
100
AcDbLine
 62
250
  6
CONTINUOUS
 10
-16.2819332656
 20
39.0895402471
 11
-15.1453187644
 21
39.086859367
  0
LINE
  5
4CA
100
AcDbEntity
  8
SUPERFICI
100
AcDbLine
 62
250
  6
CONTINUOUS
 10
-22.3231854196
 20
39.1091177687
 11
-21.7215230388
 21
39.1076865434
  0
LINE
  5
4CB
100
AcDbEntity
  8
SUPERFICI
100
AcDbLine
 62
250
  6
CONTINUOUS
 10
-17.3260093744
 20
39.0926784164
 11
-16.2819332656
 21
39.0895402471
  0
LINE
  5
4CC
100
AcDbEntity
  8
SUPERFICI
100
AcDbLine
 62
250
  6
CONTINUOUS
 10
-21.7215230388
 20
39.1076865434
 11
-20.4094949371
 21
39.1034960866
  0
LINE
  5
4CD
100
AcDbEntity
  8
SUPERFICI
100
AcDbLine
 62
250
  6
CONTINUOUS
 10
22.8535049462
 20
39.1091961172
 11
23.241840855
 21
39.108039851
  0
LWPOLYLINE
  5
4CE
100
AcDbEntity
  8
SUPERFICI
100
AcDbPolyline
 62
250
  6
CONTINUOUS
 90
3
 70
0
 10
-20.4094949371
 20
39.1034960866
 10
-18.5762082939
 20
39.0969614934
 10
-17.3260093744
 20
39.0926784164
  0
LINE
  5
4CF
100
AcDbEntity
  8
SUPERFICI
100
AcDbLine
 62
250
  6
CONTINUOUS
 10
23.241840855
 20
39.108039851
 11
23.6259287472
 21
39.1061564813
  0
LWPOLYLINE
  5
4D0
100
AcDbEntity
  8
SUPERFICI
100
AcDbPolyline
 62
250
  6
CONTINUOUS
 90
6
 70
0
 10
24.5823375116
 20
39.0993429709
 10
24.7745446505
 20
39.0982582537
 10
24.9677505419
 20
39.0978389793
 10
25.162066173
 20
39.0977500422
 10
25.3585184457
 20
39.0973543109
 10
25.5572320516
 20
39.0964260941
  0
LINE
  5
4D1
100
AcDbEntity
  8
SUPERFICI
100
AcDbLine
 62
250
  6
CONTINUOUS
 10
25.5572320516
 20
39.0964260941
 11
25.9628842096
 21
39.0937430663
  0
LINE
  5
4D2
100
AcDbEntity
  8
SUPERFICI
100
AcDbLine
 62
250
  6
CONTINUOUS
 10
23.6259287472
 20
39.1061564813
 11
24.5823375116
 21
39.0993429709
  0
LWPOLYLINE
  5
4D3
100
AcDbEntity
  8
SUPERFICI
100
AcDbPolyline
 62
250
  6
CONTINUOUS
 90
46
 70
0
 10
37.0
 20
39.7689897085
 10
37.0576483284
 20
39.7684766352
 10
37.119847109
 20
39.7665710583
 10
37.1865553547
 20
39.7629655679
 10
37.2579328132
 20
39.7573122129
 10
37.3336863255
 20
39.7492693754
 10
37.413073055
 20
39.738562207
 10
37.4959779649
 20
39.7248625079
 10
37.5822689608
 20
39.7078303426
 10
37.6711608825
 20
39.6872701209
 10
37.7624828997
 20
39.6628883968
 10
37.8560423419
 20
39.6343891686
 10
37.9510175239
 20
39.6016944928
 10
38.0471922954
 20
39.5645747159
 10
38.1443238116
 20
39.5228076787
 10
38.2415680253
 20
39.4764677216
 10
38.3386778518
 20
39.4254153949
 10
38.4353898807
 20
39.3695223951
 10
38.5308813384
 20
39.3090320488
 10
38.6249042885
 20
39.2439078403
 10
38.7172043962
 20
39.1741248793
 10
38.807025897
 20
39.1000958304
 10
38.8941738812
 20
39.0218671058
 10
38.9784132354
 20
38.9395309032
 10
39.0590417162
 20
38.8537165029
 10
39.1359403894
 20
38.7645552439
 10
39.2089486134
 20
38.6722387126
 10
39.2774609092
 20
38.5776278377
 10
39.341448485
 20
38.48095219
 10
39.4008879891
 20
38.382447698
 10
39.455374714
 20
38.2831012529
 10
39.505003433
 20
38.1831839602
 10
39.549882652
 20
38.0829507282
 10
39.5898294167
 20
37.9834405856
 10
39.6250617007
 20
37.8849183257
 10
39.6558069045
 20
37.7876212838
 10
39.682087443
 20
37.6925839257
 10
39.7042231361
 20
37.6000243155
 10
39.7225319246
 20
37.5101352706
 10
39.7372011757
 20
37.4239180505
 10
39.748615682
 20
37.341524067
 10
39.7571464258
 20
37.2630838239
 10
39.7630945732
 20
37.1895513642
 10
39.7668529322
 20
37.1212959982
 10
39.7688243434
 20
37.0580975084
 10
39.7693588487
 20
37.0
  0
LINE
  5
4D4
100
AcDbEntity
  8
SUPERFICI
100
AcDbLine
 62
250
  6
CONTINUOUS
 10
25.9628842096
 20
39.0937430663
 11
26.3802808289
 21
39.0901271806
  0
LINE
  5
4D5
100
AcDbEntity
  8
SUPERFICI
100
AcDbLine
 62
250
  6
CONTINUOUS
 10
26.3802808289
 20
39.0901271806
 11
26.8176048137
 21
39.0857092327
  0
LINE
  5
4D6
100
AcDbEntity
  8
SUPERFICI
100
AcDbLine
 62
250
  6
CONTINUOUS
 10
26.8176048137
 20
39.0857092327
 11
27.2792565877
 21
39.0804946026
  0
LINE
  5
4D7
100
AcDbEntity
  8
SUPERFICI
100
AcDbLine
 62
250
  6
CONTINUOUS
 10
27.2792565877
 20
39.0804946026
 11
27.77101516
 21
39.0743527032
  0
LINE
  5
4D8
100
AcDbEntity
  8
SUPERFICI
100
AcDbLine
 62
250
  6
CONTINUOUS
 10
27.77101516
 20
39.0743527032
 11
28.2921555949
 21
39.0672882899
  0
LINE
  5
4D9
100
AcDbEntity
  8
SUPERFICI
100
AcDbLine
 62
250
  6
CONTINUOUS
 10
35.6940065676
 20
38.9511890313
 11
35.992551433
 21
38.9470562335
  0
LINE
  5
4DA
100
AcDbEntity
  8
SUPERFICI
100
AcDbLine
 62
250
  6
CONTINUOUS
 10
28.2921555949
 20
39.0672882899
 11
28.8429406242
 21
39.0593096514
  0
LINE
  5
4DB
100
AcDbEntity
  8
SUPERFICI
100
AcDbLine
 62
250
  6
CONTINUOUS
 10
35.4769975303
 20
38.9543914864
 11
35.6940065676
 21
38.9511890313
  0
LINE
  5
4DC
100
AcDbEntity
  8
SUPERFICI
100
AcDbLine
 62
250
  6
CONTINUOUS
 10
35.2469580534
 20
38.9578187033
 11
35.4769975303
 21
38.9543914864
  0
LINE
  5
4DD
100
AcDbEntity
  8
SUPERFICI
100
AcDbLine
 62
250
  6
CONTINUOUS
 10
35.0025559347
 20
38.9614989993
 11
35.2469580534
 21
38.9578187033
  0
LINE
  5
4DE
100
AcDbEntity
  8
SUPERFICI
100
AcDbLine
 62
250
  6
CONTINUOUS
 10
34.7430155517
 20
38.9654491136
 11
35.0025559347
 21
38.9614989993
  0
LINE
  5
4DF
100
AcDbEntity
  8
SUPERFICI
100
AcDbLine
 62
250
  6
CONTINUOUS
 10
34.4666409851
 20
38.9696997035
 11
34.7430155517
 21
38.9654491136
  0
LWPOLYLINE
  5
4E0
100
AcDbEntity
  8
SUPERFICI
100
AcDbPolyline
 62
250
  6
CONTINUOUS
 90
3
 70
0
 10
34.0164999586
 20
38.9767137929
 10
34.1714186437
 20
38.9742884144
 10
34.4666409851
 20
38.9696997035
  0
LINE
  5
4E1
100
AcDbEntity
  8
SUPERFICI
100
AcDbLine
 62
250
  6
CONTINUOUS
 10
28.8429406242
 20
39.0593096514
 11
29.725604816
 21
39.0457335875
  0
LINE
  5
4E2
100
AcDbEntity
  8
SUPERFICI
100
AcDbLine
 62
250
  6
CONTINUOUS
 10
33.6896648294
 20
38.9818717131
 11
34.0164999586
 21
38.9767137929
  0
LWPOLYLINE
  5
4E3
100
AcDbEntity
  8
SUPERFICI
100
AcDbPolyline
 62
250
  6
CONTINUOUS
 90
3
 70
0
 10
29.725604816
 20
39.0457335875
 10
30.3213232625
 20
39.0362813736
 10
30.610333022
 20
39.0316465536
  0
LWPOLYLINE
  5
4E4
100
AcDbEntity
  8
SUPERFICI
100
AcDbPolyline
 62
250
  6
CONTINUOUS
 90
3
 70
0
 10
33.1545712438
 20
38.99041534
 10
33.3393928796
 20
38.9874513021
 10
33.6896648294
 20
38.9818717131
  0
LWPOLYLINE
  5
4E5
100
AcDbEntity
  8
SUPERFICI
100
AcDbPolyline
 62
250
  6
CONTINUOUS
 90
3
 70
0
 10
30.610333022
 20
39.0316465536
 10
31.1562591618
 20
39.022835744
 10
31.4145163542
 20
39.0186472734
  0
LWPOLYLINE
  5
4E6
100
AcDbEntity
  8
SUPERFICI
100
AcDbPolyline
 62
250
  6
CONTINUOUS
 90
3
 70
0
 10
32.5596034222
 20
39.0000243794
 10
32.7649473865
 20
38.9966977141
 10
33.1545712438
 20
38.99041534
  0
LINE
  5
4E7
100
AcDbEntity
  8
SUPERFICI
100
AcDbLine
 62
250
  6
CONTINUOUS
 10
31.4145163542
 20
39.0186472734
 11
32.5596034222
 21
39.0000243794
  0
LWPOLYLINE
  5
4E8
100
AcDbEntity
  8
SUPERFICI
100
AcDbPolyline
 62
250
  6
CONTINUOUS
 90
10
 70
0
 10
35.992551433
 20
38.9470562335
 10
36.172203531
 20
38.9440745864
 10
36.2570583511
 20
38.94237615
 10
36.3396420439
 20
38.9398254187
 10
36.4188829019
 20
38.9358
 10
36.4950816306
 20
38.9309281775
 10
36.5708544873
 20
38.9264201967
 10
36.6461916766
 20
38.9227679922
 10
36.7210107871
 20
38.9194763827
 10
36.8779647945
 20
38.9130820281
  0
LINE
  5
4E9
100
AcDbEntity
  8
SUPERFICI
100
AcDbLine
 62
250
  6
CONTINUOUS
 10
36.8779647945
 20
38.9130820281
 11
37.0444954326
 21
38.9069763769
  0
LWPOLYLINE
  5
4EA
100
AcDbEntity
  8
SUPERFICI
100
AcDbPolyline
 62
250
  6
CONTINUOUS
 90
46
 70
0
 10
37.0444953648
 20
38.9069761689
 10
37.0825594995
 20
38.9052800687
 10
37.123633808
 20
38.9025837541
 10
37.1676907126
 20
38.8986905771
 10
37.2148343265
 20
38.8933728048
 10
37.2648722449
 20
38.8864180129
 10
37.3173175561
 20
38.8776666937
 10
37.3720957787
 20
38.8669093664
 10
37.4291201208
 20
38.8539305249
 10
37.4878744701
 20
38.8386221064
 10
37.5482482144
 20
38.8207981478
 10
37.6101141293
 20
38.8002740966
 10
37.6729281685
 20
38.7770196702
 10
37.7365493367
 20
38.7508900517
 10
37.8008243745
 20
38.7217436712
 10
37.8652018838
 20
38.6896407217
 10
37.9295258379
 20
38.6544887846
 10
37.9936288421
 20
38.6162079569
 10
38.0569700765
 20
38.5749692051
 10
38.1193911143
 20
38.5307474707
 10
38.1807302467
 20
38.4835296976
 10
38.2404876557
 20
38.4335963499
 10
38.298538474
 20
38.3809745031
 10
38.3547396043
 20
38.3257206998
 10
38.4086323253
 20
38.2682479642
 10
38.460144484
 20
38.2086326422
 10
38.5091735542
 20
38.1470013291
 10
38.5553112623
 20
38.0839275279
 10
38.5985364659
 20
38.0195576883
 10
38.6388400551
 20
37.9540404059
 10
38.6759486225
 20
37.8880227123
 10
38.7099234863
 20
37.8216738674
 10
38.7408379172
 20
37.7551560124
 10
38.7685582419
 20
37.6891518925
 10
38.7932224031
 20
37.6238296152
 10
38.8149750805
 20
37.5593432943
 10
38.8338096371
 20
37.4963767683
 10
38.8499269867
 20
37.4350720507
 10
38.8635312029
 20
37.375552283
 10
38.8747239931
 20
37.3184753777
 10
38.8837502207
 20
37.263939292
 10
38.8908466705
 20
37.2120285774
 10
38.8961864598
 20
37.1633708889
 10
38.9000133553
 20
37.1182091862
 10
38.9025910595
 20
37.0763986204
 10
38.9041434547
 20
37.0379684263
  0
LWPOLYLINE
  5
4EB
100
AcDbEntity
  8
0
100
AcDbPolyline
 62
7
  6
CONTINUOUS
 90
13
 70
0
 43
0.3500000006
 10
-1.9285714102
 20
51.5300933533
 10
-2.2142856617
 20
51.7443778381
 10
-2.2142856617
 20
52.3872358246
 10
-1.9285714102
 20
52.8158093262
 10
-1.2857142735
 20
52.8158093262
 10
-1.0000000219
 20
52.3872358246
 10
-1.0000000219
 20
51.7443778381
 10
-1.2857142735
 20
51.5300933533
 10
-0.8571428254
 20
51.1015198517
 10
-0.8571428254
 20
50.2443773804
 10
-1.2857142735
 20
49.8158084106
 10
-1.9285714102
 20
49.8158084106
 10
-2.3571427875
 20
50.2443773804
  0
LWPOLYLINE
  5
4EC
100
AcDbEntity
  8
SUPERFICI
100
AcDbPolyline
 62
250
  6
CONTINUOUS
 90
13
 70
0
 10
37.0
 20
-39.7689897085
 10
37.0052041257
 20
-39.7563744356
 10
37.0103393556
 20
-39.7307061982
 10
37.0153377062
 20
-39.6923247951
 10
37.0201330063
 20
-39.6417383235
 10
37.0246617728
 20
-39.5796164527
 10
37.0288640507
 20
-39.5067815585
 10
37.0326842075
 20
-39.4241978372
 10
37.0360716689
 20
-39.3329585411
 10
37.0389815889
 20
-39.2342715059
 10
37.0413754432
 20
-39.129443161
 10
37.0432215393
 20
-39.0198612356
 10
37.0444954358
 20
-38.906976387
  0
LWPOLYLINE
  5
4ED
100
AcDbEntity
  8
SUPERFICI
100
AcDbPolyline
 62
250
  6
CONTINUOUS
 90
13
 70
0
 10
39.7693588419
 20
-37.0
 10
39.7566970084
 20
-37.0044482391
 10
39.7309220601
 20
-37.0088373177
 10
39.6923767971
 20
-37.0131088623
 10
39.6415738613
 20
-37.0172060624
 10
39.5791889188
 20
-37.0210744262
 10
39.506051673
 20
-37.0246625056
 10
39.4231348304
 20
-37.0279225801
 10
39.3315411635
 20
-37.0308112915
 10
39.2324888442
 20
-37.0332902206
 10
39.1272952429
 20
-37.0353263984
 10
39.017359407
 20
-37.0368927443
 10
38.9041434548
 20
-37.0379684263
  0
LWPOLYLINE
  5
4EE
100
AcDbEntity
  8
SUPERFICI
100
AcDbPolyline
 62
250
  6
CONTINUOUS
 90
13
 70
0
 10
39.7693588487
 20
37.0
 10
39.7566970098
 20
37.0044481108
 10
39.7309220567
 20
37.0088370689
 10
39.6923767896
 20
37.0131085061
 10
39.6415738506
 20
37.017205617
 10
39.5791889056
 20
37.0210739148
 10
39.5060516581
 20
37.0246619557
 10
39.4231348146
 20
37.0279220235
 10
39.3315411474
 20
37.0308107636
 10
39.2324888287
 20
37.0332897601
 10
39.1272952286
 20
37.0353260466
 10
39.0173593945
 20
37.0368925445
 10
38.9041434445
 20
37.0379684234
  0
LWPOLYLINE
  5
4EF
100
AcDbEntity
  8
SUPERFICI
100
AcDbPolyline
 62
250
  6
CONTINUOUS
 90
13
 70
0
 10
37.0
 20
39.7689896843
 10
37.0052040326
 20
39.7563742479
 10
37.0103391739
 20
39.7307058749
 10
37.0153374443
 20
39.6923243653
 10
37.0201326764
 20
39.6417378168
 10
37.0246613904
 20
39.5796158983
 10
37.0288636349
 20
39.5067809848
 10
37.0326837803
 20
39.4241972712
 10
37.036071255
 20
39.3329580074
 10
37.0389812156
 20
39.2342710264
 10
37.0413751395
 20
39.1294427547
 10
37.0432213359
 20
39.0198609177
 10
37.0444953648
 20
38.9069761689
  0
LINE
  5
4F0
100
AcDbEntity
  8
SUPERFICI
100
AcDbLine
 62
7
  6
CONTINUOUS
 10
-62.0343009428
 20
-39.7602524715
 11
-61.8675845293
 21
-39.7689897085
  0
LINE
  5
4F1
100
AcDbEntity
  8
0
100
AcDbLine
 62
7
  6
CONTINUOUS
 10
-57.4596455814
 20
-40.0
 11
-61.8675845293
 21
-39.7689897085
  0
LINE
  5
4F2
100
AcDbEntity
  8
0
100
AcDbLine
 62
7
  6
CONTINUOUS
 10
-57.2596455814
 20
-39.0091092099
 11
-57.4596455814
 21
-38.998627654
  0
LWPOLYLINE
  5
4F3
100
AcDbEntity
  8
SUPERFICI
100
AcDbPolyline
 62
250
  6
CONTINUOUS
 90
13
 70
0
 10
-61.8675845293
 20
-39.7689897085
 10
-61.9818293583
 20
-39.7563744356
 10
-62.0938689941
 20
-39.7307061982
 10
-62.2022202438
 20
-39.6923247951
 10
-62.3054487421
 20
-39.6417383235
 10
-62.402187939
 20
-39.5796164527
 10
-62.4911571907
 20
-39.5067815585
 10
-62.5711787128
 20
-39.4241978372
 10
-62.6411931717
 20
-39.3329585411
 10
-62.7002737087
 20
-39.2342715059
 10
-62.7476382093
 20
-39.129443161
 10
-62.7826596572
 20
-39.0198612356
 10
-62.8048744348
 20
-38.906976387
  0
LWPOLYLINE
  5
4F4
100
AcDbEntity
  8
0
100
AcDbPolyline
 62
7
  6
CONTINUOUS
 90
10
 70
0
 43
0.3500000006
 10
-64.6453609772
 20
49.8158084106
 10
-63.7882185059
 20
50.672950882
 10
-63.5739294891
 20
51.5300933533
 10
-63.5739294891
 20
52.3872358246
 10
-64.0025029907
 20
52.8158093262
 10
-64.6453609772
 20
52.8158093262
 10
-65.0739299469
 20
52.3872358246
 10
-65.0739299469
 20
51.5300933533
 10
-64.6453609772
 20
51.1015198517
 10
-63.716787323
 20
51.1015198517
  0
LINE
  5
4F5
100
AcDbEntity
  8
SUPERFICI
100
AcDbLine
 62
250
  6
CONTINUOUS
 10
-62.741807006
 20
-37.0353263984
 11
-62.7985377647
 21
-37.0379684263
  0
LINE
  5
4F6
100
AcDbEntity
  8
SUPERFICI
100
AcDbLine
 62
250
  6
CONTINUOUS
 10
-62.3963791908
 20
-37.0210744262
 11
-62.741807006
 21
-37.0353263984
  0
LINE
  5
4F7
100
AcDbEntity
  8
SUPERFICI
100
AcDbLine
 62
250
  6
CONTINUOUS
 10
-61.8605409142
 20
-37.0
 11
-62.3963791908
 21
-37.0210744262
  0
LINE
  5
4F8
100
AcDbEntity
  8
0
100
AcDbLine
 62
250
  6
CONTINUOUS
 10
-61.8605409146
 20
-37.0
 11
-57.2596455814
 21
-37.0
  0
LINE
  5
4F9
100
AcDbEntity
  8
0
100
AcDbLine
 62
7
  6
CONTINUOUS
 10
-65.3621706102
 20
-28.800015
 11
-65.3634026197
 21
-28.8000212419
  0
LINE
  5
4FA
100
AcDbEntity
  8
0
100
AcDbLine
 62
7
  6
CONTINUOUS
 10
-65.3487315267
 20
-28.800007
 11
-65.3535758982
 21
-28.800015
  0
LINE
  5
4FB
100
AcDbEntity
  8
0
100
AcDbLine
 62
7
  6
CONTINUOUS
 10
-65.3210221577
 20
-28.800007
 11
-65.3304233418
 21
-28.800015
  0
LINE
  5
4FC
100
AcDbEntity
  8
0
100
AcDbLine
 62
7
  6
CONTINUOUS
 10
-65.1961608514
 20
-28.8
 11
-65.2194175101
 21
-28.800007
  0
LINE
  5
4FD
100
AcDbEntity
  8
0
100
AcDbLine
 62
7
  6
CONTINUOUS
 10
-65.3571926827
 20
-28.800015
 11
-65.3600998468
 21
-28.800015
  0
LINE
  5
4FE
100
AcDbEntity
  8
0
100
AcDbLine
 62
7
  6
CONTINUOUS
 10
-65.3359288835
 20
-28.800015
 11
-65.3430946574
 21
-28.800015
  0
LINE
  5
4FF
100
AcDbEntity
  8
0
100
AcDbLine
 62
7
  6
CONTINUOUS
 10
-65.2543045973
 20
-28.800007
 11
-65.2708511141
 21
-28.800007
  0
LINE
  5
500
100
AcDbEntity
  8
0
100
AcDbLine
 62
7
  6
CONTINUOUS
 10
-65.3639899522
 20
-28.229679
 11
-65.3964396959
 21
-28.229679
  0
LINE
  5
501
100
AcDbEntity
  8
0
100
AcDbLine
 62
7
  6
CONTINUOUS
 10
-65.4824855153
 20
-27.788552
 11
-65.4785677356
 21
-27.788552
  0
LINE
  5
502
100
AcDbEntity
  8
0
100
AcDbLine
 62
7
  6
CONTINUOUS
 10
-65.4663180633
 20
-27.678657
 11
-65.4428304808
 21
-27.678657
  0
LINE
  5
503
100
AcDbEntity
  8
0
100
AcDbLine
 62
7
  6
CONTINUOUS
 10
-65.2810620321
 20
-28.800015
 11
-65.2951419761
 21
-28.800007
  0
LINE
  5
504
100
AcDbEntity
  8
0
100
AcDbLine
 62
7
  6
CONTINUOUS
 10
-65.3625587849
 20
-27.678657
 11
-65.4049616542
 21
-27.67865
  0
LINE
  5
505
100
AcDbEntity
  8
0
100
AcDbLine
 62
7
  6
CONTINUOUS
 10
-65.4783531905
 20
-27.142128
 11
-65.4230036662
 21
-27.142128
  0
LINE
  5
506
100
AcDbEntity
  8
0
100
AcDbLine
 62
7
  6
CONTINUOUS
 10
-65.5782711341
 20
-26.887573
 11
-65.5751493969
 21
-26.887573
  0
LINE
  5
507
100
AcDbEntity
  8
0
100
AcDbLine
 62
7
  6
CONTINUOUS
 10
-65.5695953716
 20
-26.803118
 11
-65.5612387619
 21
-26.803118
  0
LINE
  5
508
100
AcDbEntity
  8
0
100
AcDbLine
 62
7
  6
CONTINUOUS
 10
-65.5216614561
 20
-26.436398
 11
-65.5746671236
 21
-26.436398
  0
LINE
  5
509
100
AcDbEntity
  8
0
100
AcDbLine
 62
7
  6
CONTINUOUS
 10
-65.6630354563
 20
-25.899884
 11
-65.6624095212
 21
-25.899884
  0
LINE
  5
50A
100
AcDbEntity
  8
0
100
AcDbLine
 62
7
  6
CONTINUOUS
 10
-65.6476888444
 20
-25.899877
 11
-65.6140461003
 21
-25.899877
  0
LINE
  5
50B
100
AcDbEntity
  8
0
100
AcDbLine
 62
7
  6
CONTINUOUS
 10
-65.6594696829
 20
-25.899877
 11
-65.6571012122
 21
-25.899877
  0
LWPOLYLINE
  5
50C
100
AcDbEntity
  8
0
100
AcDbPolyline
 62
7
  6
CONTINUOUS
 90
24
 70
0
 10
-65.6140458994
 20
-25.8998751129
 10
-65.6131611427
 20
-25.9000674057
 10
-65.6122107098
 20
-25.9006539572
 10
-65.6111946009
 20
-25.901649275
 10
-65.6101155721
 20
-25.9030660684
 10
-65.6089708672
 20
-25.904919643
 10
-65.6077522172
 20
-25.9072324381
 10
-65.6064598579
 20
-25.9100235124
 10
-65.6050935536
 20
-25.9133108651
 10
-65.6036443275
 20
-25.9171228406
 10
-65.6021119203
 20
-25.921482724
 10
-65.6004965913
 20
-25.9264109849
 10
-65.5987901428
 20
-25.9319371699
 10
-65.596992687
 20
-25.9380845613
 10
-65.5951041116
 20
-25.9448766082
 10
-65.5931158813
 20
-25.9523472186
 10
-65.5910275605
 20
-25.9605228489
 10
-65.5888395847
 20
-25.9694268214
 10
-65.5865447253
 20
-25.9790915549
 10
-65.5841394766
 20
-25.989554343
 10
-65.5816273443
 20
-26.0008286213
 10
-65.5790116166
 20
-26.0129066518
 10
-65.5762908357
 20
-26.0258068447
 10
-65.5734664594
 20
-26.0395453503
  0
LWPOLYLINE
  5
50D
100
AcDbEntity
  8
0
100
AcDbPolyline
 62
7
  6
CONTINUOUS
 90
21
 70
0
 10
-65.5216617269
 20
-26.4364
 10
-65.5212268215
 20
-26.436539058
 10
-65.5207537355
 20
-26.4369555818
 10
-65.5202424689
 20
-26.4376484339
 10
-65.5196933557
 20
-26.4386148186
 10
-65.519106062
 20
-26.4398539006
 10
-65.5184795855
 20
-26.4413703863
 10
-65.5178147296
 20
-26.4431647288
 10
-65.5171106908
 20
-26.4452384741
 10
-65.5163640574
 20
-26.4476050235
 10
-65.5155753261
 20
-26.4502692618
 10
-65.5147440002
 20
-26.4532354418
 10
-65.5138651769
 20
-26.4565238028
 10
-65.5129386901
 20
-26.4601442261
 10
-65.5119647059
 20
-26.4641024642
 10
-65.5109388204
 20
-26.4684186752
 10
-65.5098614655
 20
-26.4731009477
 10
-65.5087322093
 20
-26.4781592125
 10
-65.5075453522
 20
-26.4836216186
 10
-65.5062997675
 20
-26.489504312
 10
-65.5049965821
 20
-26.4958131807
  0
LWPOLYLINE
  5
50E
100
AcDbEntity
  8
SUPERFICI
100
AcDbPolyline
 62
250
  6
CONTINUOUS
 90
8
 70
0
 10
-66.0577982127
 20
-22.194013921
 10
-65.969410663
 20
-22.1915372688
 10
-65.8928286831
 20
-22.1890876656
 10
-65.8283840168
 20
-22.186675646
 10
-65.7763558308
 20
-22.1843115867
 10
-65.736969505
 20
-22.1820056619
 10
-65.7103956563
 20
-22.179767799
 10
-65.6967493999
 20
-22.1776076359
  0
LINE
  5
50F
100
AcDbEntity
  8
SUPERFICI
100
AcDbLine
 62
250
  6
CONTINUOUS
 10
-66.2684090027
 20
-22.1990057193
 11
-66.0577982127
 21
-22.194013921
  0
LWPOLYLINE
  5
510
100
AcDbEntity
  8
SUPERFICI
100
AcDbPolyline
 62
250
  6
CONTINUOUS
 90
7
 70
0
 10
-66.2684055146
 20
-22.1990057248
 10
-66.3255078439
 20
-22.2104590944
 10
-66.3730712644
 20
-22.209557626
 10
-66.4105964433
 20
-22.1981355576
 10
-66.4376799193
 20
-22.1681060015
 10
-66.4540809362
 20
-22.1330198481
 10
-66.4596430244
 20
-22.1209730774
  0
LINE
  5
511
100
AcDbEntity
  8
SUPERFICI
100
AcDbLine
 62
7
  6
CONTINUOUS
 10
-66.2605362315
 20
24.0988107592
 11
-66.3190854943
 21
24.0112343516
  0
LWPOLYLINE
  5
512
100
AcDbEntity
  8
SUPERFICI
100
AcDbPolyline
 62
250
  6
CONTINUOUS
 90
10
 70
0
 10
-66.1945359902
 20
24.1906426894
 10
-66.1528488894
 20
24.2526533744
 10
-66.0549987977
 20
24.412932776
 10
-65.9673691635
 20
24.5790207277
 10
-65.89030337
 20
24.7502664013
 10
-65.8241034055
 20
24.9259987575
 10
-65.7690286796
 20
25.1055291758
 10
-65.7252950068
 20
25.2881541526
 10
-65.6930737608
 20
25.4731580579
 10
-65.6724912031
 20
25.65981594
  0
LINE
  5
513
100
AcDbEntity
  8
SUPERFICI
100
AcDbLine
 62
7
  6
CONTINUOUS
 10
-66.1864854804
 20
24.2032907166
 11
-66.2052205655
 21
24.1759529015
  0
LINE
  5
514
100
AcDbEntity
  8
SUPERFICI
100
AcDbLine
 62
7
  6
CONTINUOUS
 10
-66.1945359902
 20
24.1906426894
 11
-66.2079090307
 21
24.1714360167
  0
LINE
  5
515
100
AcDbEntity
  8
SUPERFICI
100
AcDbLine
 62
7
  6
CONTINUOUS
 10
-66.2052205655
 20
24.1759529015
 11
-66.2236675423
 21
24.1496536028
  0
LINE
  5
516
100
AcDbEntity
  8
SUPERFICI
100
AcDbLine
 62
7
  6
CONTINUOUS
 10
-66.2605360053
 20
24.0988105901
 11
-66.1999133451
 21
24.1828811498
  0
LINE
  5
517
100
AcDbEntity
  8
SUPERFICI
100
AcDbLine
 62
7
  6
CONTINUOUS
 10
-66.2377294761
 20
24.1297242579
 11
-66.2605331009
 21
24.0988147523
  0
LINE
  5
518
100
AcDbEntity
  8
SUPERFICI
100
AcDbLine
 62
7
  6
CONTINUOUS
 10
-66.25953057
 20
24.1001736475
 11
-66.260220316
 21
24.099248383
  0
LINE
  5
519
100
AcDbEntity
  8
SUPERFICI
100
AcDbLine
 62
7
  6
CONTINUOUS
 10
-66.2601317195
 20
-24.0993674191
 11
-66.2494507099
 21
-24.113784004
  0
LWPOLYLINE
  5
51A
100
AcDbEntity
  8
SUPERFICI
100
AcDbPolyline
 62
7
  6
CONTINUOUS
 90
4
 70
0
 10
-66.2605332331
 20
-24.0988149195
 10
-66.2392107678
 20
-24.1276914137
 10
-66.2107873171
 20
-24.1673439724
 10
-66.1993498994
 20
-24.1836923291
  0
LINE
  5
51B
100
AcDbEntity
  8
SUPERFICI
100
AcDbLine
 62
7
  6
CONTINUOUS
 10
-66.2516903619
 20
-24.1108144899
 11
-66.2375826775
 21
-24.1302041065
  0
LINE
  5
51C
100
AcDbEntity
  8
SUPERFICI
100
AcDbLine
 62
7
  6
CONTINUOUS
 10
-66.2605335475
 20
-24.0988099745
 11
-66.1993475441
 21
-24.1836915837
  0
LINE
  5
51D
100
AcDbEntity
  8
SUPERFICI
100
AcDbLine
 62
7
  6
CONTINUOUS
 10
-66.2236675423
 20
-24.1496536027
 11
-66.2052205656
 21
-24.1759529014
  0
LINE
  5
51E
100
AcDbEntity
  8
SUPERFICI
100
AcDbLine
 62
7
  6
CONTINUOUS
 10
-66.2142505542
 20
-24.16301706
 11
-66.2021418869
 21
-24.1804009489
  0
LINE
  5
51F
100
AcDbEntity
  8
SUPERFICI
100
AcDbLine
 62
7
  6
CONTINUOUS
 10
-66.1993475441
 20
-24.1836915837
 11
-66.1938748841
 21
-24.1915967621
  0
LINE
  5
520
100
AcDbEntity
  8
SUPERFICI
100
AcDbLine
 62
7
  6
CONTINUOUS
 10
-66.2052205656
 20
-24.1759529014
 11
-66.1864854805
 21
-24.2032907166
  0
LINE
  5
521
100
AcDbEntity
  8
SUPERFICI
100
AcDbLine
 62
7
  6
CONTINUOUS
 10
-66.1913356234
 20
-24.196151064
 11
-66.179627258
 21
-24.2134622566
  0
LWPOLYLINE
  5
522
100
AcDbEntity
  8
SUPERFICI
100
AcDbPolyline
 62
250
  6
CONTINUOUS
 90
10
 70
0
 10
-66.1938748841
 20
-24.1915967621
 10
-66.1528467932
 20
-24.2526529166
 10
-66.0549970773
 20
-24.412932462
 10
-65.9673678316
 20
-24.5790205431
 10
-65.8903024379
 20
-24.7502663309
 10
-65.824102883
 20
-24.9259987858
 10
-65.7690285747
 20
-25.1055292866
 10
-65.7252953261
 20
-25.2881543292
 10
-65.6930745092
 20
-25.4731582835
 10
-65.6724923838
 20
-25.6598161973
  0
LINE
  5
523
100
AcDbEntity
  8
SUPERFICI
100
AcDbLine
 62
7
  6
CONTINUOUS
 10
-66.2605362376
 20
-24.0988107491
 11
-66.3190855784
 21
-24.0112341868
  0
LINE
  5
524
100
AcDbEntity
  8
SUPERFICI
100
AcDbLine
 62
7
  6
CONTINUOUS
 10
-66.1864854805
 20
-24.2032907166
 11
-66.1663552366
 21
-24.2334050178
  0
LINE
  5
525
100
AcDbEntity
  8
SUPERFICI
100
AcDbLine
 62
7
  6
CONTINUOUS
 10
-66.1676063753
 20
-24.2315102846
 11
-66.1489445978
 21
-24.2601018673
  0
LINE
  5
526
100
AcDbEntity
  8
SUPERFICI
100
AcDbLine
 62
7
  6
CONTINUOUS
 10
-66.1510845383
 20
-24.2567868873
 11
-66.1306485451
 21
-24.2888417527
  0
LINE
  5
527
100
AcDbEntity
  8
SUPERFICI
100
AcDbLine
 62
7
  6
CONTINUOUS
 10
-66.1343980292
 20
-24.2828929064
 11
-66.1125804744
 21
-24.3179500331
  0
LINE
  5
528
100
AcDbEntity
  8
SUPERFICI
100
AcDbLine
 62
7
  6
CONTINUOUS
 10
-66.117157326
 20
-24.3105060293
 11
-66.0946601762
 21
-24.3475739195
  0
LINE
  5
529
100
AcDbEntity
  8
SUPERFICI
100
AcDbLine
 62
250
  6
CONTINUOUS
 10
-62.9201715963
 20
-39.1076911492
 11
-62.9202180232
 21
-39.1075824293
  0
LWPOLYLINE
  5
52A
100
AcDbEntity
  8
0
100
AcDbPolyline
 62
7
  6
CONTINUOUS
 90
3
 70
0
 43
0.3500000006
 10
-62.0025023804
 20
50.1015240784
 10
-62.0739335632
 20
49.8872350616
 10
-62.2167868652
 20
49.6015239258
  0
LINE
  5
52B
100
AcDbEntity
  8
SUPERFICI
100
AcDbLine
 62
7
  6
CONTINUOUS
 10
-63.0681687548
 20
38.6887932143
 11
-63.0998652023
 21
38.5945243271
  0
LINE
  5
52C
100
AcDbEntity
  8
SUPERFICI
100
AcDbLine
 62
7
  6
CONTINUOUS
 10
-63.0352429693
 20
38.7850182179
 11
-63.0681687548
 21
38.6887932143
  0
LINE
  5
52D
100
AcDbEntity
  8
SUPERFICI
100
AcDbLine
 62
7
  6
CONTINUOUS
 10
-63.0097054535
 20
38.8584576487
 11
-63.0352429693
 21
38.7850182179
  0
LINE
  5
52E
100
AcDbEntity
  8
SUPERFICI
100
AcDbLine
 62
7
  6
CONTINUOUS
 10
-62.9834147446
 20
38.9329735372
 11
-63.0097054535
 21
38.8584576487
  0
LINE
  5
52F
100
AcDbEntity
  8
SUPERFICI
100
AcDbLine
 62
7
  6
CONTINUOUS
 10
-62.9563423598
 20
39.0085496692
 11
-62.9834147446
 21
38.9329735372
  0
LINE
  5
530
100
AcDbEntity
  8
SUPERFICI
100
AcDbLine
 62
7
  6
CONTINUOUS
 10
-62.9284587282
 20
39.0851653237
 11
-62.9563423598
 21
39.0085496692
  0
LINE
  5
531
100
AcDbEntity
  8
SUPERFICI
100
AcDbLine
 62
7
  6
CONTINUOUS
 10
-66.3190854943
 20
24.0112343516
 11
-66.3680912572
 21
23.9180014573
  0
LINE
  5
532
100
AcDbEntity
  8
SUPERFICI
100
AcDbLine
 62
7
  6
CONTINUOUS
 10
-66.0995283916
 20
-24.3394495517
 11
-66.0768854504
 21
-24.3777423185
  0
LINE
  5
533
100
AcDbEntity
  8
SUPERFICI
100
AcDbLine
 62
7
  6
CONTINUOUS
 10
-66.0814339466
 20
-24.3699452399
 11
-66.0592855834
 21
-24.4084315658
  0
LINE
  5
534
100
AcDbEntity
  8
SUPERFICI
100
AcDbLine
 62
7
  6
CONTINUOUS
 10
-66.0633123981
 20
-24.4013354694
 11
-66.0418353957
 21
-24.4397142202
  0
LINE
  5
535
100
AcDbEntity
  8
SUPERFICI
100
AcDbLine
 62
7
  6
CONTINUOUS
 10
-66.0452765938
 20
-24.4334752373
 11
-66.024541543
 21
-24.4716116716
  0
LINE
  5
536
100
AcDbEntity
  8
SUPERFICI
100
AcDbLine
 62
7
  6
CONTINUOUS
 10
-66.0272652302
 20
-24.4665263866
 11
-66.007430798
 21
-24.5041090252
  0
LINE
  5
537
100
AcDbEntity
  8
SUPERFICI
100
AcDbLine
 62
7
  6
CONTINUOUS
 10
-66.3190855784
 20
-24.0112341868
 11
-66.3680913436
 21
-23.918001253
  0
LINE
  5
538
100
AcDbEntity
  8
SUPERFICI
100
AcDbLine
 62
7
  6
CONTINUOUS
 10
-66.0094244933
 20
-24.5002723523
 11
-65.9905116868
 21
-24.5372257397
  0
LINE
  5
539
100
AcDbEntity
  8
SUPERFICI
100
AcDbLine
 62
7
  6
CONTINUOUS
 10
-65.9918143979
 20
-24.5346394388
 11
-65.9738038997
 21
-24.570960833
  0
LINE
  5
53A
100
AcDbEntity
  8
SUPERFICI
100
AcDbLine
 62
7
  6
CONTINUOUS
 10
-65.9744149622
 20
-24.5697079939
 11
-65.9572448546
 21
-24.6054875102
  0
LINE
  5
53B
100
AcDbEntity
  8
SUPERFICI
100
AcDbLine
 62
7
  6
CONTINUOUS
 10
-65.9573237429
 20
-24.6053203587
 11
-65.9403288064
 21
-24.6419755597
  0
LINE
  5
53C
100
AcDbEntity
  8
SUPERFICI
100
AcDbLine
 62
7
  6
CONTINUOUS
 10
-65.9410768232
 20
-24.6403346801
 11
-65.9236868956
 21
-24.6791800306
  0
LINE
  5
53D
100
AcDbEntity
  8
SUPERFICI
100
AcDbLine
 62
7
  6
CONTINUOUS
 10
-65.9250832001
 20
-24.6760057341
 11
-65.9073326025
 21
-24.7171257676
  0
LWPOLYLINE
  5
53E
100
AcDbEntity
  8
SUPERFICI
100
AcDbPolyline
 62
7
  6
CONTINUOUS
 90
42
 70
0
 10
-62.9202301236
 20
-39.1075334757
 10
-62.9187867852
 20
-39.1114395625
 10
-62.908239618
 20
-39.1384809522
 10
-62.8969120862
 20
-39.1652048469
 10
-62.8848137328
 20
-39.1915887325
 10
-62.8719547506
 20
-39.2176103809
 10
-62.8583459729
 20
-39.2432478695
 10
-62.8439988648
 20
-39.2684795992
 10
-62.8289255133
 20
-39.2932843127
 10
-62.8131386175
 20
-39.3176411126
 10
-62.7966514775
 20
-39.3415294788
 10
-62.7794779832
 20
-39.3649292858
 10
-62.761632603
 20
-39.3878208197
 10
-62.7431303711
 20
-39.4101847949
 10
-62.7239868754
 20
-39.4320023702
 10
-62.7042182437
 20
-39.4532551646
 10
-62.6838411308
 20
-39.4739252732
 10
-62.6628727038
 20
-39.4939952817
 10
-62.6413306282
 20
-39.5134482815
 10
-62.6192330527
 20
-39.5322678838
 10
-62.5965985942
 20
-39.5504382335
 10
-62.5734463215
 20
-39.5679440224
 10
-62.5497957402
 20
-39.5847705021
 10
-62.5256667752
 20
-39.6009034966
 10
-62.5010797549
 20
-39.6163294142
 10
-62.4760553931
 20
-39.6310352587
 10
-62.4506147725
 20
-39.6450086408
 10
-62.4247793264
 20
-39.6582377881
 10
-62.3985708204
 20
-39.6707115554
 10
-62.3720113349
 20
-39.6824194336
 10
-62.3451232455
 20
-39.6933515591
 10
-62.3179292051
 20
-39.7034987217
 10
-62.2904521241
 20
-39.7128523727
 10
-62.2627151513
 20
-39.7214046318
 10
-62.2347416545
 20
-39.7291482938
 10
-62.2065552011
 20
-39.7360768348
 10
-62.1781795373
 20
-39.7421844177
 10
-62.1496385693
 20
-39.7474658969
 10
-62.1209563422
 20
-39.7519168228
 10
-62.0921570202
 20
-39.7555334456
 10
-62.0632648663
 20
-39.7583127184
 10
-62.0343042214
 20
-39.7602522997
  0
LINE
  5
53F
100
AcDbEntity
  8
SUPERFICI
100
AcDbLine
 62
7
  6
CONTINUOUS
 10
-62.947141004
 20
-39.0339695849
 11
-62.9202103681
 21
-39.1075910811
  0
LINE
  5
540
100
AcDbEntity
  8
SUPERFICI
100
AcDbLine
 62
7
  6
CONTINUOUS
 10
-62.9744808938
 20
-38.9580431449
 11
-62.947141004
 21
-39.0339695849
  0
LINE
  5
541
100
AcDbEntity
  8
SUPERFICI
100
AcDbLine
 62
7
  6
CONTINUOUS
 10
-63.0010293462
 20
-38.8831705912
 11
-62.9744808938
 21
-38.9580431449
  0
LINE
  5
542
100
AcDbEntity
  8
SUPERFICI
100
AcDbLine
 62
7
  6
CONTINUOUS
 10
-63.0268152081
 20
-38.8093696133
 11
-63.0010293462
 21
-38.8831705912
  0
LINE
  5
543
100
AcDbEntity
  8
SUPERFICI
100
AcDbLine
 62
7
  6
CONTINUOUS
 10
-63.0600581248
 20
-38.7126572348
 11
-63.0268152081
 21
-38.8093696133
  0
LWPOLYLINE
  5
544
100
AcDbEntity
  8
SUPERFICI
100
AcDbPolyline
 62
7
  6
CONTINUOUS
 90
3
 70
0
 10
-63.0998691712
 20
-38.5945124227
 10
-63.0920572164
 20
-38.6178951496
 10
-63.0600581248
 20
-38.7126572348
  0
LWPOLYLINE
  5
545
100
AcDbEntity
  8
SUPERFICI
100
AcDbPolyline
 62
7
  6
CONTINUOUS
 90
3
 70
0
 10
-63.8244208698
 20
36.0423876765
 10
-63.8284538652
 20
36.0270175006
 10
-63.8285085054
 20
36.0268099707
  0
LINE
  5
546
100
AcDbEntity
  8
SUPERFICI
100
AcDbLine
 62
7
  6
CONTINUOUS
 10
-63.6094694297
 20
36.8630335622
 11
-63.8244208698
 21
36.0423876765
  0
LWPOLYLINE
  5
547
100
AcDbEntity
  8
SUPERFICI
100
AcDbPolyline
 62
7
  6
CONTINUOUS
 90
5
 70
0
 10
-64.0156887778
 20
35.5406154341
 10
-64.074294872
 20
35.3236485914
 10
-64.1295807124
 20
35.1153480152
 10
-64.1817661759
 20
34.915349425
 10
-64.2157413965
 20
34.7833064423
  0
LINE
  5
548
100
AcDbEntity
  8
SUPERFICI
100
AcDbLine
 62
7
  6
CONTINUOUS
 10
-63.5340715538
 20
37.1435970506
 11
-63.6094694297
 21
36.8630335622
  0
LINE
  5
549
100
AcDbEntity
  8
SUPERFICI
100
AcDbLine
 62
7
  6
CONTINUOUS
 10
-63.9537461404
 20
35.7658328228
 11
-64.0156888914
 21
35.5406150172
  0
LINE
  5
54A
100
AcDbEntity
  8
SUPERFICI
100
AcDbLine
 62
7
  6
CONTINUOUS
 10
-63.4894468608
 20
37.3061028604
 11
-63.5340715538
 21
37.1435970506
  0
LINE
  5
54B
100
AcDbEntity
  8
SUPERFICI
100
AcDbLine
 62
7
  6
CONTINUOUS
 10
-63.8886703932
 20
35.9981176094
 11
-63.9537460016
 21
35.7658333229
  0
LINE
  5
54C
100
AcDbEntity
  8
SUPERFICI
100
AcDbLine
 62
7
  6
CONTINUOUS
 10
-66.4070139438
 20
23.820145327
 11
-66.4354232682
 21
23.7187003744
  0
LINE
  5
54D
100
AcDbEntity
  8
SUPERFICI
100
AcDbLine
 62
7
  6
CONTINUOUS
 10
-63.4477737808
 20
37.4551809008
 11
-63.4894468608
 21
37.3061028604
  0
LINE
  5
54E
100
AcDbEntity
  8
SUPERFICI
100
AcDbLine
 62
7
  6
CONTINUOUS
 10
-63.4092144924
 20
37.5907746503
 11
-63.4477737808
 21
37.4551809008
  0
LINE
  5
54F
100
AcDbEntity
  8
SUPERFICI
100
AcDbLine
 62
7
  6
CONTINUOUS
 10
-63.3712923975
 20
37.7219007767
 11
-63.4092144924
 21
37.5907746503
  0
LINE
  5
550
100
AcDbEntity
  8
SUPERFICI
100
AcDbLine
 62
7
  6
CONTINUOUS
 10
-63.3351250848
 20
37.8448818214
 11
-63.3712923975
 21
37.7219007767
  0
LWPOLYLINE
  5
551
100
AcDbEntity
  8
SUPERFICI
100
AcDbPolyline
 62
7
  6
CONTINUOUS
 90
4
 70
0
 10
-63.6738144318
 20
36.7361697242
 10
-63.7490287038
 20
36.4825890827
 10
-63.8205308059
 20
36.23682253
 10
-63.888670563
 20
35.9981170089
  0
LINE
  5
552
100
AcDbEntity
  8
SUPERFICI
100
AcDbLine
 62
7
  6
CONTINUOUS
 10
-63.2960268792
 20
37.9755297353
 11
-63.3351250848
 21
37.8448818214
  0
LINE
  5
553
100
AcDbEntity
  8
SUPERFICI
100
AcDbLine
 62
7
  6
CONTINUOUS
 10
-63.5948972803
 20
36.9970716393
 11
-63.6738141245
 21
36.7361707502
  0
LINE
  5
554
100
AcDbEntity
  8
SUPERFICI
100
AcDbLine
 62
7
  6
CONTINUOUS
 10
-63.2600830592
 20
38.0935169738
 11
-63.2960268792
 21
37.9755297353
  0
LINE
  5
555
100
AcDbEntity
  8
SUPERFICI
100
AcDbLine
 62
7
  6
CONTINUOUS
 10
-63.5119804239
 20
37.2658100507
 11
-63.5948976457
 21
36.9970704432
  0
LINE
  5
556
100
AcDbEntity
  8
SUPERFICI
100
AcDbLine
 62
7
  6
CONTINUOUS
 10
-63.2283483541
 20
38.1959914925
 11
-63.2600830592
 21
38.0935169738
  0
LINE
  5
557
100
AcDbEntity
  8
SUPERFICI
100
AcDbLine
 62
7
  6
CONTINUOUS
 10
-63.1949364375
 20
38.3021569148
 11
-63.2283483541
 21
38.1959914925
  0
LWPOLYLINE
  5
558
100
AcDbEntity
  8
SUPERFICI
100
AcDbPolyline
 62
250
  6
CONTINUOUS
 90
31
 70
0
 10
-62.9202186056
 20
39.1075789641
 10
-62.9203479916
 20
39.1071758057
 10
-62.9205415041
 20
39.1061564813
 10
-62.9206232983
 20
39.1049408507
 10
-62.9205812649
 20
39.1035687024
 10
-62.9203446538
 20
39.1021996594
 10
-62.9199247869
 20
39.1007708081
 10
-62.9193483715
 20
39.0993429709
 10
-62.9186453519
 20
39.0982582537
 10
-62.9178742741
 20
39.0978389793
 10
-62.9172387816
 20
39.0977500422
 10
-62.9168590583
 20
39.0973543109
 10
-62.9166829507
 20
39.0964260941
 10
-62.9165150872
 20
39.095203382
 10
-62.916284124
 20
39.0937430663
 10
-62.9159469896
 20
39.0920524444
 10
-62.9154711449
 20
39.0901271806
 10
-62.9148268307
 20
39.0880054397
 10
-62.9140053141
 20
39.0857092327
 10
-62.9130166734
 20
39.0832153529
 10
-62.9118491715
 20
39.0804946026
 10
-62.9104901529
 20
39.0775374225
 10
-62.9089327957
 20
39.0743527032
 10
-62.9071737546
 20
39.070938758
 10
-62.9052160704
 20
39.0672882899
 10
-62.9030611124
 20
39.0634063609
 10
-62.900706515
 20
39.0593096514
 10
-62.8981410672
 20
39.0549480276
 10
-62.8953930658
 20
39.0503685069
 10
-62.8925356121
 20
39.0457335875
 10
-62.8865844308
 20
39.0362813736
  0
LWPOLYLINE
  5
559
100
AcDbEntity
  8
SUPERFICI
100
AcDbPolyline
 62
7
  6
CONTINUOUS
 90
3
 70
0
 10
-63.4079173692
 20
37.595293188
 10
-63.4241965264
 20
37.5446396141
 10
-63.5119799936
 20
37.2658114314
  0
LINE
  5
55A
100
AcDbEntity
  8
SUPERFICI
100
AcDbLine
 62
7
  6
CONTINUOUS
 10
-63.1597891761
 20
38.4119214615
 11
-63.1949364375
 21
38.3021569148
  0
LINE
  5
55B
100
AcDbEntity
  8
SUPERFICI
100
AcDbLine
 62
7
  6
CONTINUOUS
 10
-63.1303915587
 20
38.5022188851
 11
-63.1597891761
 21
38.4119214615
  0
LINE
  5
55C
100
AcDbEntity
  8
SUPERFICI
100
AcDbLine
 62
7
  6
CONTINUOUS
 10
-63.0998652023
 20
38.5945243271
 11
-63.1303915587
 21
38.5022188851
  0
LINE
  5
55D
100
AcDbEntity
  8
SUPERFICI
100
AcDbLine
 62
7
  6
CONTINUOUS
 10
-66.3680912572
 20
23.9180014573
 11
-66.4070139438
 21
23.820145327
  0
LWPOLYLINE
  5
55E
100
AcDbEntity
  8
0
100
AcDbPolyline
 62
7
  6
CONTINUOUS
 90
13
 70
0
 43
0.3500000006
 10
-76.9239335632
 20
-1.9285708809
 10
-77.1382180481
 20
-2.2142854156
 10
-77.7810715027
 20
-2.2142854156
 10
-78.2096495361
 20
-1.9285708809
 10
-78.2096495361
 20
-1.2857140274
 10
-77.7810715027
 20
-1.0000006256
 10
-77.1382180481
 20
-1.0000006256
 10
-76.9239335632
 20
-1.2857140274
 10
-76.4953645935
 20
-0.8571427917
 10
-75.6382175903
 20
-0.8571427917
 10
-75.2096440887
 20
-1.2857140274
 10
-75.2096440887
 20
-1.9285708809
 10
-75.6382175903
 20
-2.3571432495
  0
LINE
  5
55F
100
AcDbEntity
  8
SUPERFICI
100
AcDbLine
 62
7
  6
CONTINUOUS
 10
-65.9093630383
 20
-24.7123356079
 11
-65.8912909962
 21
-24.755813302
  0
LINE
  5
560
100
AcDbEntity
  8
SUPERFICI
100
AcDbLine
 62
7
  6
CONTINUOUS
 10
-65.8939248582
 20
-24.7493553273
 11
-65.8755863464
 21
-24.7952455834
  0
LINE
  5
561
100
AcDbEntity
  8
SUPERFICI
100
AcDbLine
 62
7
  6
CONTINUOUS
 10
-66.3680913436
 20
-23.918001253
 11
-66.4070139874
 21
-23.8201451883
  0
LINE
  5
562
100
AcDbEntity
  8
SUPERFICI
100
AcDbLine
 62
7
  6
CONTINUOUS
 10
-65.87879156
 20
-24.7870645499
 11
-65.8602336793
 21
-24.8354511802
  0
LWPOLYLINE
  5
563
100
AcDbEntity
  8
SUPERFICI
100
AcDbPolyline
 62
7
  6
CONTINUOUS
 90
13
 70
0
 10
-65.8639849386
 20
-24.8254660991
 10
-65.8452631244
 20
-24.876422106
 10
-65.8306987257
 20
-24.9181672796
 10
-65.8165506449
 20
-24.9607410013
 10
-65.8028507218
 20
-25.0041396945
 10
-65.7896292262
 20
-25.0483654935
 10
-65.7769001535
 20
-25.0934818587
 10
-65.7646989991
 20
-25.1394869024
 10
-65.7530618563
 20
-25.1863778039
 10
-65.7420106921
 20
-25.234216892
 10
-65.7315860478
 20
-25.283000029
 10
-65.7218291285
 20
-25.3327219106
 10
-65.7127704372
 20
-25.3834428134
  0
LWPOLYLINE
  5
564
100
AcDbEntity
  8
SUPERFICI
100
AcDbPolyline
 62
7
  6
CONTINUOUS
 90
13
 70
0
 10
-65.8495150423
 20
-24.8645961211
 10
-65.8354084986
 20
-24.9044499348
 10
-65.8216885645
 20
-24.9450327569
 10
-65.808364521
 20
-24.9863960586
 10
-65.7954649674
 20
-25.0285384419
 10
-65.7830183854
 20
-25.0714596978
 10
-65.7710392643
 20
-25.1152135261
 10
-65.7595598566
 20
-25.159797999
 10
-65.7486129393
 20
-25.2052103562
 10
-65.7382196517
 20
-25.2515031431
 10
-65.7284164795
 20
-25.2986723849
 10
-65.7192404785
 20
-25.3467130882
 10
-65.710719868
 20
-25.3956758992
  0
LINE
  5
565
100
AcDbEntity
  8
SUPERFICI
100
AcDbLine
 62
7
  6
CONTINUOUS
 10
-63.1303959037
 20
-38.5022056409
 11
-63.0998691712
 21
-38.5945124227
  0
LINE
  5
566
100
AcDbEntity
  8
SUPERFICI
100
AcDbLine
 62
7
  6
CONTINUOUS
 10
-63.1597938576
 20
-38.4119069721
 11
-63.1303959037
 21
-38.5022056409
  0
LINE
  5
567
100
AcDbEntity
  8
SUPERFICI
100
AcDbLine
 62
7
  6
CONTINUOUS
 10
-63.1949414795
 20
-38.3021410276
 11
-63.1597938576
 21
-38.4119069721
  0
LINE
  5
568
100
AcDbEntity
  8
SUPERFICI
100
AcDbLine
 62
7
  6
CONTINUOUS
 10
-63.2283537024
 20
-38.1959743565
 11
-63.1949414795
 21
-38.3021410276
  0
LINE
  5
569
100
AcDbEntity
  8
SUPERFICI
100
AcDbLine
 62
7
  6
CONTINUOUS
 10
-63.2662390301
 20
-38.0734543152
 11
-63.2283537024
 21
-38.1959743565
  0
LINE
  5
56A
100
AcDbEntity
  8
SUPERFICI
100
AcDbLine
 62
7
  6
CONTINUOUS
 10
-63.3018023509
 20
-37.9563817806
 11
-63.2662390301
 21
-38.0734543152
  0
LINE
  5
56B
100
AcDbEntity
  8
SUPERFICI
100
AcDbLine
 62
7
  6
CONTINUOUS
 10
-63.3404744199
 20
-37.82682073
 11
-63.3018023509
 21
-37.9563817806
  0
LINE
  5
56C
100
AcDbEntity
  8
SUPERFICI
100
AcDbLine
 62
7
  6
CONTINUOUS
 10
-63.3762341318
 20
-37.7049393198
 11
-63.3404744199
 21
-37.82682073
  0
LINE
  5
56D
100
AcDbEntity
  8
SUPERFICI
100
AcDbLine
 62
7
  6
CONTINUOUS
 10
-63.4137147324
 20
-37.5750667619
 11
-63.3762341318
 21
-37.7049393198
  0
LINE
  5
56E
100
AcDbEntity
  8
SUPERFICI
100
AcDbLine
 62
7
  6
CONTINUOUS
 10
-63.4557890214
 20
-37.426711147
 11
-63.4137147324
 21
-37.5750667619
  0
LINE
  5
56F
100
AcDbEntity
  8
SUPERFICI
100
AcDbLine
 62
7
  6
CONTINUOUS
 10
-66.4070139874
 20
-23.8201451883
 11
-66.4354232361
 21
-23.7187000015
  0
LINE
  5
570
100
AcDbEntity
  8
SUPERFICI
100
AcDbLine
 62
7
  6
CONTINUOUS
 10
-63.4998509848
 20
-37.2684780693
 11
-63.4557890214
 21
-37.426711147
  0
LINE
  5
571
100
AcDbEntity
  8
SUPERFICI
100
AcDbLine
 62
7
  6
CONTINUOUS
 10
-63.5446624168
 20
-37.1046028132
 11
-63.4998509848
 21
-37.2684780693
  0
LINE
  5
572
100
AcDbEntity
  8
SUPERFICI
100
AcDbLine
 62
7
  6
CONTINUOUS
 10
-63.5718963892
 20
-37.0036169105
 11
-63.5446624168
 21
-37.1046028132
  0
LINE
  5
573
100
AcDbEntity
  8
SUPERFICI
100
AcDbLine
 62
7
  6
CONTINUOUS
 10
-63.576466146
 20
-36.9865773515
 11
-63.5718963892
 21
-37.0036169105
  0
LINE
  5
574
100
AcDbEntity
  8
SUPERFICI
100
AcDbLine
 62
7
  6
CONTINUOUS
 10
-63.5790846947
 20
-36.9768024981
 11
-63.576466146
 21
-36.9865773515
  0
LWPOLYLINE
  5
575
100
AcDbEntity
  8
SUPERFICI
100
AcDbPolyline
 62
7
  6
CONTINUOUS
 90
3
 70
0
 10
-63.582285995
 20
-36.9648425371
 10
-63.5813272156
 20
-36.9684255432
 10
-63.5790846947
 20
-36.9768024981
  0
LINE
  5
576
100
AcDbEntity
  8
SUPERFICI
100
AcDbLine
 62
7
  6
CONTINUOUS
 10
-63.5838819145
 20
-36.9588768328
 11
-63.582285995
 21
-36.9648425371
  0
LWPOLYLINE
  5
577
100
AcDbEntity
  8
SUPERFICI
100
AcDbPolyline
 62
7
  6
CONTINUOUS
 90
5
 70
0
 10
-63.5935711335
 20
-36.9226375101
 10
-63.5927395442
 20
-36.9257495955
 10
-63.5919423609
 20
-36.9287324975
 10
-63.591179169
 20
-36.9315878415
 10
-63.5838819145
 20
-36.9588768328
  0
LWPOLYLINE
  5
578
100
AcDbEntity
  8
SUPERFICI
100
AcDbPolyline
 62
7
  6
CONTINUOUS
 90
4
 70
0
 10
-63.5972199207
 20
-36.9089766812
 10
-63.5962610891
 20
-36.9125674543
 10
-63.5953332935
 20
-36.9160413281
 10
-63.5935711335
 20
-36.9226375101
  0
LWPOLYLINE
  5
579
100
AcDbEntity
  8
SUPERFICI
100
AcDbPolyline
 62
7
  6
CONTINUOUS
 90
3
 70
0
 10
-63.600262077
 20
-36.8975790645
 10
-63.5992204337
 20
-36.9014825031
 10
-63.5972199207
 20
-36.9089766812
  0
LINE
  5
57A
100
AcDbEntity
  8
SUPERFICI
100
AcDbLine
 62
7
  6
CONTINUOUS
 10
-63.6024236861
 20
-36.8894757131
 11
-63.600262077
 21
-36.8975790645
  0
LWPOLYLINE
  5
57B
100
AcDbEntity
  8
SUPERFICI
100
AcDbPolyline
 62
7
  6
CONTINUOUS
 90
3
 70
0
 10
-63.6058572178
 20
-36.87659567
 10
-63.6046871112
 20
-36.8809862411
 10
-63.6024236861
 20
-36.8894757131
  0
LINE
  5
57C
100
AcDbEntity
  8
SUPERFICI
100
AcDbLine
 62
7
  6
CONTINUOUS
 10
-63.6082564474
 20
-36.8675890884
 11
-63.6058572178
 21
-36.87659567
  0
LINE
  5
57D
100
AcDbEntity
  8
SUPERFICI
100
AcDbLine
 62
7
  6
CONTINUOUS
 10
-63.6106991825
 20
-36.858413652
 11
-63.6082564474
 21
-36.8675890884
  0
LWPOLYLINE
  5
57E
100
AcDbEntity
  8
SUPERFICI
100
AcDbPolyline
 62
7
  6
CONTINUOUS
 90
3
 70
0
 10
-63.6144195939
 20
-36.8444283823
 10
-63.6131730608
 20
-36.8491155975
 10
-63.6106991825
 20
-36.858413652
  0
LINE
  5
57F
100
AcDbEntity
  8
SUPERFICI
100
AcDbLine
 62
7
  6
CONTINUOUS
 10
-63.6169269852
 20
-36.8349958063
 11
-63.6144195939
 21
-36.8444283823
  0
LINE
  5
580
100
AcDbEntity
  8
SUPERFICI
100
AcDbLine
 62
7
  6
CONTINUOUS
 10
-63.6194513274
 20
-36.8254937457
 11
-63.6169269852
 21
-36.8349958063
  0
LWPOLYLINE
  5
581
100
AcDbEntity
  8
SUPERFICI
100
AcDbPolyline
 62
7
  6
CONTINUOUS
 90
3
 70
0
 10
-63.6232555354
 20
-36.8111633714
 10
-63.6219849264
 20
-36.8159511451
 10
-63.6194513274
 20
-36.8254937457
  0
LINE
  5
582
100
AcDbEntity
  8
SUPERFICI
100
AcDbLine
 62
7
  6
CONTINUOUS
 10
-63.6258035149
 20
-36.8015581159
 11
-63.6232555354
 21
-36.8111633714
  0
LWPOLYLINE
  5
583
100
AcDbEntity
  8
SUPERFICI
100
AcDbPolyline
 62
7
  6
CONTINUOUS
 90
3
 70
0
 10
-63.6296506888
 20
-36.7870446695
 10
-63.6283647216
 20
-36.7918973736
 10
-63.6258035149
 20
-36.8015581159
  0
LINE
  5
584
100
AcDbEntity
  8
SUPERFICI
100
AcDbLine
 62
7
  6
CONTINUOUS
 10
-63.6322301776
 20
-36.7773065732
 11
-63.6296506888
 21
-36.7870446695
  0
LWPOLYLINE
  5
585
100
AcDbEntity
  8
SUPERFICI
100
AcDbPolyline
 62
7
  6
CONTINUOUS
 90
3
 70
0
 10
-63.6361157108
 20
-36.7626275232
 10
-63.6348188733
 20
-36.7675281815
 10
-63.6322301776
 20
-36.7773065732
  0
LINE
  5
586
100
AcDbEntity
  8
SUPERFICI
100
AcDbLine
 62
7
  6
CONTINUOUS
 10
-63.638713521
 20
-36.752806506
 11
-63.6361157108
 21
-36.7626275232
  0
LWPOLYLINE
  5
587
100
AcDbEntity
  8
SUPERFICI
100
AcDbPolyline
 62
7
  6
CONTINUOUS
 90
3
 70
0
 10
-63.642615512
 20
-36.7380449989
 10
-63.6413145885
 20
-36.7429678074
 10
-63.638713521
 20
-36.752806506
  0
LWPOLYLINE
  5
588
100
AcDbEntity
  8
SUPERFICI
100
AcDbPolyline
 62
7
  6
CONTINUOUS
 90
3
 70
0
 10
-63.6465173439
 20
-36.7232723384
 10
-63.6452172793
 20
-36.7281957761
 10
-63.642615512
 20
-36.7380449989
  0
LWPOLYLINE
  5
589
100
AcDbEntity
  8
SUPERFICI
100
AcDbPolyline
 62
7
  6
CONTINUOUS
 90
3
 70
0
 10
-63.6504118907
 20
-36.7085158801
 10
-63.6491147801
 20
-36.7134318798
 10
-63.6465173439
 20
-36.7232723384
  0
LINE
  5
58A
100
AcDbEntity
  8
SUPERFICI
100
AcDbLine
 62
7
  6
CONTINUOUS
 10
-63.6530023393
 20
-36.6986945367
 11
-63.6504118907
 21
-36.7085158801
  0
LWPOLYLINE
  5
58B
100
AcDbEntity
  8
SUPERFICI
100
AcDbPolyline
 62
7
  6
CONTINUOUS
 90
3
 70
0
 10
-63.6568781749
 20
-36.683990962
 10
-63.655587568
 20
-36.6888882368
 10
-63.6530023393
 20
-36.6986945367
  0
LWPOLYLINE
  5
58C
100
AcDbEntity
  8
SUPERFICI
100
AcDbPolyline
 62
7
  6
CONTINUOUS
 90
4
 70
0
 10
-63.662025163
 20
-36.6644492619
 10
-63.6607397008
 20
-36.6693314549
 10
-63.65945424
 20
-36.6742125565
 10
-63.6568781749
 20
-36.683990962
  0
LWPOLYLINE
  5
58D
100
AcDbEntity
  8
SUPERFICI
100
AcDbPolyline
 62
7
  6
CONTINUOUS
 90
3
 70
0
 10
-63.6658830777
 20
-36.6497904889
 10
-63.6645950557
 20
-36.6546855948
 10
-63.662025163
 20
-36.6644492619
  0
LINE
  5
58E
100
AcDbEntity
  8
SUPERFICI
100
AcDbLine
 62
7
  6
CONTINUOUS
 10
-63.8285708446
 20
-36.0265733077
 11
-63.8281268701
 21
-36.0282603941
  0
LWPOLYLINE
  5
58F
100
AcDbEntity
  8
SUPERFICI
100
AcDbPolyline
 62
7
  6
CONTINUOUS
 90
3
 70
0
 10
-63.6697686351
 20
-36.6350171535
 10
-63.6684702459
 20
-36.6399548312
 10
-63.6658830777
 20
-36.6497904889
  0
LWPOLYLINE
  5
590
100
AcDbEntity
  8
SUPERFICI
100
AcDbPolyline
 62
7
  6
CONTINUOUS
 90
4
 70
0
 10
-63.6749953581
 20
-36.6151297858
 10
-63.6736836006
 20
-36.6201225157
 10
-63.6723752504
 20
-36.6251012329
 10
-63.6697686351
 20
-36.6350171535
  0
LINE
  5
591
100
AcDbEntity
  8
SUPERFICI
100
AcDbLine
 62
7
  6
CONTINUOUS
 10
-63.8281268701
 20
-36.0282603941
 11
-63.8272723729
 21
-36.0315124911
  0
LWPOLYLINE
  5
592
100
AcDbEntity
  8
SUPERFICI
100
AcDbPolyline
 62
7
  6
CONTINUOUS
 90
3
 70
0
 10
-63.6789514828
 20
-36.6000659541
 10
-63.6776292282
 20
-36.6051017763
 10
-63.6749953581
 20
-36.6151297858
  0
LWPOLYLINE
  5
593
100
AcDbEntity
  8
SUPERFICI
100
AcDbPolyline
 62
7
  6
CONTINUOUS
 90
4
 70
0
 10
-63.6842767512
 20
-36.5797741986
 10
-63.6829399164
 20
-36.5848697147
 10
-63.6816067571
 20
-36.5899501903
 10
-63.6789514828
 20
-36.6000659541
  0
LINE
  5
594
100
AcDbEntity
  8
SUPERFICI
100
AcDbLine
 62
7
  6
CONTINUOUS
 10
-63.8272723729
 20
-36.0315124911
 11
-63.8260211408
 21
-36.0362811107
  0
LWPOLYLINE
  5
595
100
AcDbEntity
  8
SUPERFICI
100
AcDbPolyline
 62
7
  6
CONTINUOUS
 90
3
 70
0
 10
-63.6883101363
 20
-36.5643942436
 10
-63.6869618652
 20
-36.5695364484
 10
-63.6842767512
 20
-36.5797741986
  0
LINE
  5
596
100
AcDbEntity
  8
SUPERFICI
100
AcDbLine
 62
7
  6
CONTINUOUS
 10
-63.8260211408
 20
-36.0362811107
 11
-63.8249914094
 21
-36.0402096908
  0
LWPOLYLINE
  5
597
100
AcDbEntity
  8
SUPERFICI
100
AcDbPolyline
 62
7
  6
CONTINUOUS
 90
4
 70
0
 10
-63.6937424679
 20
-36.5436654843
 10
-63.6923788571
 20
-36.5488702948
 10
-63.6910186365
 20
-36.5540611512
 10
-63.6883101363
 20
-36.5643942436
  0
LINE
  5
598
100
AcDbEntity
  8
SUPERFICI
100
AcDbLine
 62
7
  6
CONTINUOUS
 10
-63.8249914094
 20
-36.0402096908
 11
-63.8238195803
 21
-36.0446839225
  0
LWPOLYLINE
  5
599
100
AcDbEntity
  8
SUPERFICI
100
AcDbPolyline
 62
7
  6
CONTINUOUS
 90
4
 70
0
 10
-63.6992286939
 20
-36.522714819
 10
-63.6978530897
 20
-36.5279694457
 10
-63.6964800325
 20
-36.533213346
 10
-63.6937424679
 20
-36.5436654843
  0
LINE
  5
59A
100
AcDbEntity
  8
SUPERFICI
100
AcDbLine
 62
7
  6
CONTINUOUS
 10
-63.8238195803
 20
-36.0446839225
 11
-63.8225228725
 21
-36.0496385884
  0
LWPOLYLINE
  5
59B
100
AcDbEntity
  8
SUPERFICI
100
AcDbPolyline
 62
7
  6
CONTINUOUS
 90
3
 70
0
 10
-63.7033689402
 20
-36.5068936854
 10
-63.7019869387
 20
-36.5121757131
 10
-63.6992286939
 20
-36.522714819
  0
LINE
  5
59C
100
AcDbEntity
  8
SUPERFICI
100
AcDbLine
 62
7
  6
CONTINUOUS
 10
-63.8225228725
 20
-36.0496385884
 11
-63.8211164444
 21
-36.0550161306
  0
LWPOLYLINE
  5
59D
100
AcDbEntity
  8
SUPERFICI
100
AcDbPolyline
 62
7
  6
CONTINUOUS
 90
4
 70
0
 10
-63.7089108175
 20
-36.4857029016
 10
-63.7075237581
 20
-36.491008108
 10
-63.7061376965
 20
-36.4963085508
 10
-63.7033689402
 20
-36.5068936854
  0
LWPOLYLINE
  5
59E
100
AcDbEntity
  8
SUPERFICI
100
AcDbPolyline
 62
7
  6
CONTINUOUS
 90
3
 70
0
 10
-63.8211164444
 20
-36.0550161306
 10
-63.8196106721
 20
-36.0607771057
 10
-63.8188261898
 20
-36.063779774
  0
LWPOLYLINE
  5
59F
100
AcDbEntity
  8
SUPERFICI
100
AcDbPolyline
 62
7
  6
CONTINUOUS
 90
5
 70
0
 10
-63.7158364544
 20
-36.4592000481
 10
-63.7144533602
 20
-36.4644946303
 10
-63.7130690153
 20
-36.4697931174
 10
-63.711683446
 20
-36.4750953932
 10
-63.7089108175
 20
-36.4857029016
  0
LWPOLYLINE
  5
5A0
100
AcDbEntity
  8
SUPERFICI
100
AcDbPolyline
 62
7
  6
CONTINUOUS
 90
3
 70
0
 10
-63.8188261898
 20
-36.063779774
 10
-63.8172005872
 20
-36.070004406
 10
-63.8163656445
 20
-36.0732027053
  0
LWPOLYLINE
  5
5A1
100
AcDbEntity
  8
SUPERFICI
100
AcDbPolyline
 62
7
  6
CONTINUOUS
 90
4
 70
0
 10
-63.7213523176
 20
-36.438076419
 10
-63.719976256
 20
-36.4433474533
 10
-63.7185982607
 20
-36.4486250714
 10
-63.7158364544
 20
-36.4592000481
  0
LWPOLYLINE
  5
5A2
100
AcDbEntity
  8
SUPERFICI
100
AcDbPolyline
 62
7
  6
CONTINUOUS
 90
3
 70
0
 10
-63.8163656445
 20
-36.0732027053
 10
-63.8146569508
 20
-36.0797502369
 10
-63.8137917989
 20
-36.0830664774
  0
LWPOLYLINE
  5
5A3
100
AcDbEntity
  8
SUPERFICI
100
AcDbPolyline
 62
7
  6
CONTINUOUS
 90
5
 70
0
 10
-63.7281910681
 20
-36.4118687031
 10
-63.7268295472
 20
-36.4170878875
 10
-63.725464699
 20
-36.422319085
 10
-63.7240965369
 20
-36.4275622255
 10
-63.7213523176
 20
-36.438076419
  0
LWPOLYLINE
  5
5A4
100
AcDbEntity
  8
SUPERFICI
100
AcDbPolyline
 62
7
  6
CONTINUOUS
 90
4
 70
0
 10
-63.8137917989
 20
-36.0830664774
 10
-63.812031277
 20
-36.0898167911
 10
-63.8111326129
 20
-36.0932634657
 10
-63.8102219561
 20
-36.0967567433
  0
LWPOLYLINE
  5
5A5
100
AcDbEntity
  8
SUPERFICI
100
AcDbPolyline
 62
7
  6
CONTINUOUS
 90
6
 70
0
 10
-63.7362800605
 20
-36.3808462933
 10
-63.7349421021
 20
-36.3859791927
 10
-63.7335999701
 20
-36.3911274675
 10
-63.7322537283
 20
-36.3962908534
 10
-63.7309035508
 20
-36.4014686629
 10
-63.7281910681
 20
-36.4118687031
  0
LWPOLYLINE
  5
5A6
100
AcDbEntity
  8
SUPERFICI
100
AcDbPolyline
 62
7
  6
CONTINUOUS
 90
5
 70
0
 10
-63.8102219561
 20
-36.0967567433
 10
-63.8083589641
 20
-36.1039049333
 10
-63.8074066098
 20
-36.1075599011
 10
-63.8064420658
 20
-36.1112621843
 10
-63.8054653819
 20
-36.1150115799
  0
LWPOLYLINE
  5
5A7
100
AcDbEntity
  8
SUPERFICI
100
AcDbPolyline
 62
7
  6
CONTINUOUS
 90
7
 70
0
 10
-63.7455316082
 20
-36.3453378088
 10
-63.744222167
 20
-36.3503652077
 10
-63.7429086549
 20
-36.3554077251
 10
-63.741591077
 20
-36.3604653216
 10
-63.7402694211
 20
-36.365538025
 10
-63.7389436978
 20
-36.3706257752
 10
-63.7362800605
 20
-36.3808462933
  0
LWPOLYLINE
  5
5A8
100
AcDbEntity
  8
SUPERFICI
100
AcDbPolyline
 62
7
  6
CONTINUOUS
 90
5
 70
0
 10
-63.8054653819
 20
-36.1150115799
 10
-63.8034766102
 20
-36.122647754
 10
-63.8024657826
 20
-36.1265296653
 10
-63.801443949
 20
-36.1304542782
 10
-63.8004121754
 20
-36.134417483
  0
LINE
  5
5A9
100
AcDbEntity
  8
SUPERFICI
100
AcDbLine
 62
7
  6
CONTINUOUS
 10
-63.8004121754
 20
-36.134417483
 11
-63.7455316082
 21
-36.3453378088
  0
LWPOLYLINE
  5
5AA
100
AcDbEntity
  8
SUPERFICI
100
AcDbPolyline
 62
7
  6
CONTINUOUS
 90
14
 70
0
 10
-64.2157413957
 20
-34.7833064453
 10
-64.1817661445
 20
-34.9153495466
 10
-64.1295806525
 20
-35.1153482428
 10
-64.074294784
 20
-35.32364892
 10
-64.0156887778
 20
-35.5406154341
 10
-63.9537460016
 20
-35.7658333229
 10
-63.8886703932
 20
-35.9981176094
 10
-63.8205305967
 20
-36.2368232561
 10
-63.7490284485
 20
-36.4825899516
 10
-63.6738141245
 20
-36.7361707502
 10
-63.5948972803
 20
-36.9970716393
 10
-63.5119799936
 20
-37.2658114314
 10
-63.4241965264
 20
-37.5446396141
 10
-63.4079173443
 20
-37.5952932653
  0
LINE
  5
5AB
100
AcDbEntity
  8
SUPERFICI
100
AcDbLine
 62
7
  6
CONTINUOUS
 10
-66.4354232682
 20
23.7187003744
 11
-66.4529483478
 21
23.6150832628
  0
LWPOLYLINE
  5
5AC
100
AcDbEntity
  8
0
100
AcDbPolyline
 62
7
  6
CONTINUOUS
 90
21
 70
0
 10
-65.5353887893
 20
-26.4953898344
 10
-65.5366754756
 20
-26.4891671595
 10
-65.5379051045
 20
-26.4833648284
 10
-65.5390769746
 20
-26.4779758047
 10
-65.5401917873
 20
-26.4729848141
 10
-65.5412565403
 20
-26.4683579553
 10
-65.5422718435
 20
-26.4640863318
 10
-65.5432370869
 20
-26.4601627233
 10
-65.5441574392
 20
-26.4565632232
 10
-65.5450336354
 20
-26.4532810266
 10
-65.5458649404
 20
-26.4503121622
 10
-65.546654317
 20
-26.4476428125
 10
-65.5474018688
 20
-26.4452700623
 10
-65.5481074922
 20
-26.443188957
 10
-65.5487738395
 20
-26.4413882591
 10
-65.5494014218
 20
-26.4398669434
 10
-65.5499897279
 20
-26.4386237968
 10
-65.5505398762
 20
-26.4376538624
 10
-65.5510522394
 20
-26.4369581364
 10
-65.5515264447
 20
-26.436539732
 10
-65.5519624922
 20
-26.4364
  0
LINE
  5
5AD
100
AcDbEntity
  8
0
100
AcDbLine
 62
7
  6
CONTINUOUS
 10
-65.5326271502
 20
-26.509200422
 11
-65.5353887893
 21
-26.4953898344
  0
LINE
  5
5AE
100
AcDbEntity
  8
0
100
AcDbLine
 62
7
  6
CONTINUOUS
 10
-65.5049965821
 20
-26.4958131807
 11
-65.5022088903
 21
-26.5097724425
  0
LINE
  5
5AF
100
AcDbEntity
  8
0
100
AcDbLine
 62
7
  6
CONTINUOUS
 10
-65.5734664594
 20
-26.0395453503
 11
-65.567526292
 21
-26.0694901497
  0
LINE
  5
5B0
100
AcDbEntity
  8
0
100
AcDbLine
 62
7
  6
CONTINUOUS
 10
-65.5296176421
 20
-26.5248903096
 11
-65.5326271502
 21
-26.509200422
  0
LINE
  5
5B1
100
AcDbEntity
  8
0
100
AcDbLine
 62
7
  6
CONTINUOUS
 10
-65.5022088903
 20
-26.5097724425
 11
-65.4991823215
 21
-26.5255703632
  0
LINE
  5
5B2
100
AcDbEntity
  8
0
100
AcDbLine
 62
7
  6
CONTINUOUS
 10
-65.567526292
 20
-26.0694901497
 11
-65.5612172736
 21
-26.1027008473
  0
LINE
  5
5B3
100
AcDbEntity
  8
0
100
AcDbLine
 62
7
  6
CONTINUOUS
 10
-65.5263633934
 20
-26.5425012834
 11
-65.5296176421
 21
-26.5248903096
  0
LINE
  5
5B4
100
AcDbEntity
  8
0
100
AcDbLine
 62
7
  6
CONTINUOUS
 10
-65.4991823215
 20
-26.5255703632
 11
-65.4959235503
 21
-26.5432273318
  0
LINE
  5
5B5
100
AcDbEntity
  8
0
100
AcDbLine
 62
7
  6
CONTINUOUS
 10
-65.5612172736
 20
-26.1027008473
 11
-65.5545966957
 21
-26.1389361407
  0
LINE
  5
5B6
100
AcDbEntity
  8
0
100
AcDbLine
 62
7
  6
CONTINUOUS
 10
-65.5229073976
 20
-26.5618802761
 11
-65.5263633934
 21
-26.5425012834
  0
LINE
  5
5B7
100
AcDbEntity
  8
0
100
AcDbLine
 62
7
  6
CONTINUOUS
 10
-65.4959235503
 20
-26.5432273318
 11
-65.4924463799
 21
-26.5627430804
  0
LINE
  5
5B8
100
AcDbEntity
  8
0
100
AcDbLine
 62
7
  6
CONTINUOUS
 10
-65.5545966957
 20
-26.1389361407
 11
-65.5477325378
 21
-26.1778932128
  0
LINE
  5
5B9
100
AcDbEntity
  8
0
100
AcDbLine
 62
7
  6
CONTINUOUS
 10
-65.5192699574
 20
-26.5829383202
 11
-65.5229073976
 21
-26.5618802761
  0
LINE
  5
5BA
100
AcDbEntity
  8
0
100
AcDbLine
 62
7
  6
CONTINUOUS
 10
-65.4924463799
 20
-26.5627430804
 11
-65.4887739622
 21
-26.5840303935
  0
LINE
  5
5BB
100
AcDbEntity
  8
SUPERFICI
100
AcDbLine
 62
7
  6
CONTINUOUS
 10
-66.4354232361
 20
-23.7187000015
 11
-66.4529493919
 21
-23.6150750583
  0
LWPOLYLINE
  5
5BC
100
AcDbEntity
  8
0
100
AcDbPolyline
 62
7
  6
CONTINUOUS
 90
3
 70
0
 10
-65.5477325378
 20
-26.1778932128
 10
-65.5406597434
 20
-26.2193508059
 10
-65.5370594679
 20
-26.240949925
  0
LINE
  5
5BD
100
AcDbEntity
  8
0
100
AcDbLine
 62
7
  6
CONTINUOUS
 10
-65.4887739622
 20
-26.5840303935
 11
-65.4849662895
 21
-26.6067756921
  0
LWPOLYLINE
  5
5BE
100
AcDbEntity
  8
0
100
AcDbPolyline
 62
7
  6
CONTINUOUS
 90
3
 70
0
 10
-65.5135275077
 20
-26.6174634741
 10
-65.5154713662
 20
-26.6056012477
 10
-65.5192699574
 20
-26.5829383202
  0
LWPOLYLINE
  5
5BF
100
AcDbEntity
  8
0
100
AcDbPolyline
 62
7
  6
CONTINUOUS
 90
11
 70
0
 10
-65.5412279446
 20
-27.2407879899
 10
-65.5226322113
 20
-27.4100444022
 10
-65.5039923728
 20
-27.5737695031
 10
-65.4853031085
 20
-27.7325938823
 10
-65.4665484569
 20
-27.8884093088
 10
-65.4478669477
 20
-28.0405089797
 10
-65.4291200512
 20
-28.189599698
 10
-65.4098762159
 20
-28.3396936414
 10
-65.3899915915
 20
-28.4921282025
 10
-65.3696100285
 20
-28.6455659887
 10
-65.3487315267
 20
-28.800007
  0
LINE
  5
5C0
100
AcDbEntity
  8
0
100
AcDbLine
 62
7
  6
CONTINUOUS
 10
-65.5144940575
 20
-27.5526573637
 11
-65.5336404459
 21
-27.3761943988
  0
LINE
  5
5C1
100
AcDbEntity
  8
0
100
AcDbLine
 62
7
  6
CONTINUOUS
 10
-65.6151978239
 20
-26.3395999618
 11
-65.6046845873
 21
-26.43641364
  0
LINE
  5
5C2
100
AcDbEntity
  8
0
100
AcDbLine
 62
7
  6
CONTINUOUS
 10
-65.5701061047
 20
-26.9358375799
 11
-65.5500780144
 21
-27.1206478375
  0
LWPOLYLINE
  5
5C3
100
AcDbEntity
  8
0
100
AcDbPolyline
 62
7
  6
CONTINUOUS
 90
7
 70
0
 10
-65.5617007218
 20
-26.9365306394
 10
-65.5795678945
 20
-26.7693059201
 10
-65.5973169881
 20
-26.597384101
 10
-65.6142513764
 20
-26.4241425615
 10
-65.6301388506
 20
-26.2507070948
 10
-65.6452116194
 20
-26.0759519076
 10
-65.6594696829
 20
-25.899877
  0
LINE
  5
5C4
100
AcDbEntity
  8
0
100
AcDbLine
 62
7
  6
CONTINUOUS
 10
-65.4610275183
 20
-27.0061121805
 11
-65.4634159374
 21
-26.9840338258
  0
LINE
  5
5C5
100
AcDbEntity
  8
0
100
AcDbLine
 62
7
  6
CONTINUOUS
 10
-65.4330827891
 20
-26.984204453
 11
-65.4306887067
 21
-27.0063464091
  0
LINE
  5
5C6
100
AcDbEntity
  8
0
100
AcDbLine
 62
7
  6
CONTINUOUS
 10
-65.4129139167
 20
-27.1580931335
 11
-65.4049138377
 21
-27.2318513137
  0
LINE
  5
5C7
100
AcDbEntity
  8
0
100
AcDbLine
 62
7
  6
CONTINUOUS
 10
-65.530242717
 20
-27.3960392431
 11
-65.5468200913
 21
-27.2419412831
  0
LINE
  5
5C8
100
AcDbEntity
  8
0
100
AcDbLine
 62
7
  6
CONTINUOUS
 10
-65.5526611463
 20
-27.1728617487
 11
-65.5373054697
 21
-27.3153683703
  0
LWPOLYLINE
  5
5C9
100
AcDbEntity
  8
0
100
AcDbPolyline
 62
7
  6
CONTINUOUS
 90
5
 70
0
 10
-65.6175420363
 20
-25.899877
 10
-65.6028148772
 20
-26.0396363238
 10
-65.5880281835
 20
-26.1744998453
 10
-65.5731819552
 20
-26.3044675646
 10
-65.5582451481
 20
-26.4287189645
  0
LINE
  5
5CA
100
AcDbEntity
  8
0
100
AcDbLine
 62
7
  6
CONTINUOUS
 10
-65.5412279446
 20
-27.2407879899
 11
-65.5707123712
 21
-26.9614111136
  0
LINE
  5
5CB
100
AcDbEntity
  8
SUPERFICI
100
AcDbLine
 62
7
  6
CONTINUOUS
 10
-65.6902389998
 20
-25.5415873359
 11
-65.6840018137
 21
-25.6007857024
  0
LINE
  5
5CC
100
AcDbEntity
  8
0
100
AcDbLine
 62
7
  6
CONTINUOUS
 10
-65.5336404459
 20
-27.3761943988
 11
-65.5506558072
 21
-27.2129921673
  0
LINE
  5
5CD
100
AcDbEntity
  8
0
100
AcDbLine
 62
7
  6
CONTINUOUS
 10
-65.5782711341
 20
-26.887573
 11
-65.5597742522
 21
-27.0666308558
  0
LINE
  5
5CE
100
AcDbEntity
  8
0
100
AcDbLine
 62
7
  6
CONTINUOUS
 10
-65.6253502337
 20
-26.2419274955
 11
-65.6151978239
 21
-26.3395999618
  0
LINE
  5
5CF
100
AcDbEntity
  8
0
100
AcDbLine
 62
7
  6
CONTINUOUS
 10
-65.5669640295
 20
-27.0350093749
 11
-65.5526611463
 21
-27.1728617487
  0
LINE
  5
5D0
100
AcDbEntity
  8
0
100
AcDbLine
 62
7
  6
CONTINUOUS
 10
-65.458877765
 20
-27.0269325093
 11
-65.4610275183
 21
-27.0061121805
  0
LINE
  5
5D1
100
AcDbEntity
  8
0
100
AcDbLine
 62
7
  6
CONTINUOUS
 10
-65.4306887067
 20
-27.0063464091
 11
-65.4285277981
 21
-27.0272976952
  0
LINE
  5
5D2
100
AcDbEntity
  8
0
100
AcDbLine
 62
7
  6
CONTINUOUS
 10
-65.5890242889
 20
-26.7523674357
 11
-65.5701061047
 21
-26.9358375799
  0
LINE
  5
5D3
100
AcDbEntity
  8
0
100
AcDbLine
 62
7
  6
CONTINUOUS
 10
-65.4049138377
 20
-27.2318513137
 11
-65.3976950178
 21
-27.3016210416
  0
LINE
  5
5D4
100
AcDbEntity
  8
0
100
AcDbLine
 62
7
  6
CONTINUOUS
 10
-65.5468200913
 20
-27.2419412831
 11
-65.5641973232
 21
-27.0727183678
  0
LINE
  5
5D5
100
AcDbEntity
  8
0
100
AcDbLine
 62
7
  6
CONTINUOUS
 10
-65.5506558072
 20
-27.2129921673
 11
-65.56603343
 21
-27.0596982831
  0
LWPOLYLINE
  5
5D6
100
AcDbEntity
  8
0
100
AcDbPolyline
 62
7
  6
CONTINUOUS
 90
5
 70
0
 10
-65.5697764723
 20
-26.9943117876
 10
-65.5862457838
 20
-26.8273367392
 10
-65.6017012226
 20
-26.6623509707
 10
-65.61629404
 20
-26.4987536638
 10
-65.6297511778
 20
-26.3403298138
  0
LINE
  5
5D7
100
AcDbEntity
  8
0
100
AcDbLine
 62
7
  6
CONTINUOUS
 10
-65.6350550011
 20
-26.1439692688
 11
-65.6253502337
 21
-26.2419274955
  0
LINE
  5
5D8
100
AcDbEntity
  8
0
100
AcDbLine
 62
7
  6
CONTINUOUS
 10
-65.5641973232
 20
-27.0727183678
 11
-65.5823800128
 21
-26.887573
  0
LINE
  5
5D9
100
AcDbEntity
  8
0
100
AcDbLine
 62
7
  6
CONTINUOUS
 10
-65.6065188538
 20
-26.5729227716
 11
-65.5890242889
 21
-26.7523674357
  0
LINE
  5
5DA
100
AcDbEntity
  8
0
100
AcDbLine
 62
7
  6
CONTINUOUS
 10
-65.4569774585
 20
-27.0464143249
 11
-65.458877765
 21
-27.0269325093
  0
LINE
  5
5DB
100
AcDbEntity
  8
0
100
AcDbLine
 62
7
  6
CONTINUOUS
 10
-65.56603343
 20
-27.0596982831
 11
-65.5774389695
 21
-26.9418631096
  0
LINE
  5
5DC
100
AcDbEntity
  8
0
100
AcDbLine
 62
7
  6
CONTINUOUS
 10
-65.4285277981
 20
-27.0272976952
 11
-65.4266219578
 21
-27.0468618679
  0
LINE
  5
5DD
100
AcDbEntity
  8
0
100
AcDbLine
 62
7
  6
CONTINUOUS
 10
-65.3976950178
 20
-27.3016210416
 11
-65.3912973422
 21
-27.3669640514
  0
LINE
  5
5DE
100
AcDbEntity
  8
0
100
AcDbLine
 62
7
  6
CONTINUOUS
 10
-65.5930789277
 20
-26.7676977068
 11
-65.5669640295
 21
-27.0350093749
  0
LINE
  5
5DF
100
AcDbEntity
  8
0
100
AcDbLine
 62
7
  6
CONTINUOUS
 10
-65.6442761506
 20
-26.0459808935
 11
-65.6350550011
 21
-26.1439692688
  0
LINE
  5
5E0
100
AcDbEntity
  8
0
100
AcDbLine
 62
7
  6
CONTINUOUS
 10
-65.582552895
 20
-26.8875891568
 11
-65.5935353573
 21
-26.7685867053
  0
LINE
  5
5E1
100
AcDbEntity
  8
0
100
AcDbLine
 62
7
  6
CONTINUOUS
 10
-65.3912973422
 20
-27.3669640514
 11
-65.3875201251
 21
-27.4077154247
  0
LINE
  5
5E2
100
AcDbEntity
  8
0
100
AcDbLine
 62
7
  6
CONTINUOUS
 10
-65.6052506406
 20
-26.6348303775
 11
-65.5930789277
 21
-26.7676977068
  0
LINE
  5
5E3
100
AcDbEntity
  8
0
100
AcDbLine
 62
7
  6
CONTINUOUS
 10
-65.4553357639
 20
-27.0644198141
 11
-65.4569774585
 21
-27.0464143249
  0
LINE
  5
5E4
100
AcDbEntity
  8
0
100
AcDbLine
 62
7
  6
CONTINUOUS
 10
-65.4266219578
 20
-27.0468618679
 11
-65.4249827253
 21
-27.0648809234
  0
LINE
  5
5E5
100
AcDbEntity
  8
0
100
AcDbLine
 62
7
  6
CONTINUOUS
 10
-65.5935353573
 20
-26.7685867053
 11
-65.6111517944
 21
-26.5682109288
  0
LINE
  5
5E6
100
AcDbEntity
  8
0
100
AcDbLine
 62
7
  6
CONTINUOUS
 10
-65.3875201251
 20
-27.4077154247
 11
-65.3841474442
 21
-27.4460575584
  0
LINE
  5
5E7
100
AcDbEntity
  8
SUPERFICI
100
AcDbLine
 62
7
  6
CONTINUOUS
 10
-65.6844256465
 20
-25.5963747483
 11
-65.6794611684
 21
-25.653404996
  0
LWPOLYLINE
  5
5E8
100
AcDbEntity
  8
0
100
AcDbPolyline
 62
7
  6
CONTINUOUS
 90
3
 70
0
 10
-65.6571012122
 20
-25.899877
 10
-65.6529583416
 20
-25.9484796808
 10
-65.6442761506
 20
-26.0459808935
  0
LINE
  5
5E9
100
AcDbEntity
  8
0
100
AcDbLine
 62
7
  6
CONTINUOUS
 10
-65.622567291
 20
-26.4346693029
 11
-65.6111517944
 21
-26.5682109288
  0
LINE
  5
5EA
100
AcDbEntity
  8
0
100
AcDbLine
 62
7
  6
CONTINUOUS
 10
-65.3841474442
 20
-27.4460575584
 11
-65.3811850162
 21
-27.4818844765
  0
LWPOLYLINE
  5
5EB
100
AcDbEntity
  8
0
100
AcDbPolyline
 62
7
  6
CONTINUOUS
 90
18
 70
0
 10
-65.4249827253
 20
-27.0648809234
 10
-65.423627724
 20
-27.0811797156
 10
-65.4230580808
 20
-27.0886549388
 10
-65.4225615298
 20
-27.0956651335
 10
-65.4221375742
 20
-27.102204013
 10
-65.421786795
 20
-27.1082644864
 10
-65.421509645
 20
-27.1138491392
 10
-65.4213056715
 20
-27.1189414363
 10
-65.4211740975
 20
-27.1235141744
 10
-65.4211165258
 20
-27.1275689332
 10
-65.4211313536
 20
-27.1311122631
 10
-65.4212129951
 20
-27.1341386658
 10
-65.4213629522
 20
-27.1366609156
 10
-65.4215797229
 20
-27.1386892826
 10
-65.4218532166
 20
-27.140229013
 10
-65.4221800695
 20
-27.1412996347
 10
-65.4225636452
 20
-27.1419260514
 10
-65.4230039439
 20
-27.14213
  0
LWPOLYLINE
  5
5EC
100
AcDbEntity
  8
0
100
AcDbPolyline
 62
7
  6
CONTINUOUS
 90
4
 70
0
 10
-65.6297511778
 20
-26.3403298138
 10
-65.6419816168
 20
-26.1883410857
 10
-65.6530763764
 20
-26.0415258144
 10
-65.6630354563
 20
-25.899884
  0
LINE
  5
5ED
100
AcDbEntity
  8
0
100
AcDbLine
 62
7
  6
CONTINUOUS
 10
-65.6343217261
 20
-26.2899067421
 11
-65.622567291
 21
-26.4346693029
  0
LINE
  5
5EE
100
AcDbEntity
  8
0
100
AcDbLine
 62
7
  6
CONTINUOUS
 10
-65.3811850162
 20
-27.4818844765
 11
-65.3786357841
 21
-27.5151708136
  0
LWPOLYLINE
  5
5EF
100
AcDbEntity
  8
0
100
AcDbPolyline
 62
7
  6
CONTINUOUS
 90
7
 70
0
 10
-65.6624095212
 20
-25.899884
 10
-65.6545737223
 20
-26.0060769032
 10
-65.6467040442
 20
-26.1086607239
 10
-65.6388004868
 20
-26.2076354621
 10
-65.6309239163
 20
-26.3020131815
 10
-65.6230134665
 20
-26.3927818185
 10
-65.6065188538
 20
-26.5729227716
  0
LINE
  5
5F0
100
AcDbEntity
  8
SUPERFICI
100
AcDbLine
 62
7
  6
CONTINUOUS
 10
-65.6795476159
 20
-25.6521780153
 11
-65.6763775171
 21
-25.6971723452
  0
LWPOLYLINE
  5
5F1
100
AcDbEntity
  8
0
100
AcDbPolyline
 62
7
  6
CONTINUOUS
 90
7
 70
0
 10
-65.3786357841
 20
-27.5151708136
 10
-65.3765172173
 20
-27.5456980451
 10
-65.3756213623
 20
-27.5598817371
 10
-65.3748373064
 20
-27.5733057586
 10
-65.3741660679
 20
-27.5859535732
 10
-65.3736066284
 20
-27.597822181
 10
-65.3731589878
 20
-27.6089026669
  0
LWPOLYLINE
  5
5F2
100
AcDbEntity
  8
SUPERFICI
100
AcDbPolyline
 62
7
  6
CONTINUOUS
 90
3
 70
0
 10
-65.6763773883
 20
-25.6971741037
 10
-65.6734885057
 20
-25.7426533636
 10
-65.66302909
 20
-25.9002861105
  0
LWPOLYLINE
  5
5F3
100
AcDbEntity
  8
SUPERFICI
100
AcDbPolyline
 62
250
  6
CONTINUOUS
 90
8
 70
0
 10
-65.6763774955
 20
25.6971725326
 10
-65.6763960424
 20
25.6968482685
 10
-65.6764308632
 20
25.6959111014
 10
-65.6764421733
 20
25.6949121158
 10
-65.6764307167
 20
25.6938525732
 10
-65.6763973598
 20
25.6927332993
 10
-65.6763428663
 20
25.6915513649
 10
-65.6762680788
 20
25.6903076029
  0
LINE
  5
5F4
100
AcDbEntity
  8
SUPERFICI
100
AcDbLine
 62
7
  6
CONTINUOUS
 10
-65.6640254433
 20
25.885849277
 11
-65.6763773883
 21
25.6971741037
  0
LWPOLYLINE
  5
5F5
100
AcDbEntity
  8
SUPERFICI
100
AcDbPolyline
 62
7
  6
CONTINUOUS
 90
39
 70
0
 10
-65.6763774958
 20
25.6971725283
 10
-65.679373234
 20
25.6544240244
 10
-65.6840018136
 20
25.6007857034
 10
-65.6894968106
 20
25.5480806784
 10
-65.6958093887
 20
25.496339742
 10
-65.7028956404
 20
25.4455541028
 10
-65.7107198678
 20
25.3956759001
 10
-65.7192404783
 20
25.346713089
 10
-65.7284164793
 20
25.2986723857
 10
-65.7382196515
 20
25.2515031439
 10
-65.7486129391
 20
25.2052103569
 10
-65.7595598564
 20
25.1597979997
 10
-65.7710392641
 20
25.1152135268
 10
-65.7830183852
 20
25.0714596985
 10
-65.7954649672
 20
25.0285384425
 10
-65.8083645208
 20
24.9863960592
 10
-65.8216885643
 20
24.9450327575
 10
-65.8354084984
 20
24.9044499353
 10
-65.8495150421
 20
24.8645961216
 10
-65.8639849385
 20
24.8254660996
 10
-65.8787915598
 20
24.7870645504
 10
-65.893924858
 20
24.7493553278
 10
-65.9093630381
 20
24.7123356084
 10
-65.9250832
 20
24.6760057345
 10
-65.9410768231
 20
24.6403346804
 10
-65.9573237427
 20
24.605320359
 10
-65.9738038995
 20
24.5709608333
 10
-65.9905116867
 20
24.53722574
 10
-66.0074307979
 20
24.5041090254
 10
-66.0245415429
 20
24.4716116719
 10
-66.0418353955
 20
24.4397142204
 10
-66.0592855833
 20
24.408431566
 10
-66.0768854503
 20
24.3777423187
 10
-66.0946601761
 20
24.3475739196
 10
-66.1125804743
 20
24.3179500332
 10
-66.1306485451
 20
24.2888417528
 10
-66.1489445977
 20
24.2601018674
 10
-66.1676063753
 20
24.2315102847
 10
-66.1864854804
 20
24.2032907166
  0
LINE
  5
5F6
100
AcDbEntity
  8
SUPERFICI
100
AcDbLine
 62
7
  6
CONTINUOUS
 10
-65.6539607213
 20
26.0296519358
 11
-65.6640254433
 21
25.885849277
  0
LINE
  5
5F7
100
AcDbEntity
  8
SUPERFICI
100
AcDbLine
 62
7
  6
CONTINUOUS
 10
-65.6381749565
 20
26.2406923665
 11
-65.6539607213
 21
26.0296519358
  0
LINE
  5
5F8
100
AcDbEntity
  8
SUPERFICI
100
AcDbLine
 62
7
  6
CONTINUOUS
 10
-65.621900679
 20
26.4433046435
 11
-65.6381749565
 21
26.2406923665
  0
LINE
  5
5F9
100
AcDbEntity
  8
SUPERFICI
100
AcDbLine
 62
7
  6
CONTINUOUS
 10
-65.6051036479
 20
26.6398116829
 11
-65.621900679
 21
26.4433046435
  0
LINE
  5
5FA
100
AcDbEntity
  8
SUPERFICI
100
AcDbLine
 62
7
  6
CONTINUOUS
 10
-65.5882074545
 20
26.8270890521
 11
-65.6051036479
 21
26.6398116829
  0
LINE
  5
5FB
100
AcDbEntity
  8
SUPERFICI
100
AcDbLine
 62
7
  6
CONTINUOUS
 10
-65.5660702043
 20
27.0595117267
 11
-65.5882074545
 21
26.8270890521
  0
LINE
  5
5FC
100
AcDbEntity
  8
SUPERFICI
100
AcDbLine
 62
7
  6
CONTINUOUS
 10
-65.5444988591
 20
27.2743373835
 11
-65.5660702043
 21
27.0595117267
  0
LINE
  5
5FD
100
AcDbEntity
  8
SUPERFICI
100
AcDbLine
 62
7
  6
CONTINUOUS
 10
-65.5176022074
 20
27.5291536905
 11
-65.5444988591
 21
27.2743373835
  0
LINE
  5
5FE
100
AcDbEntity
  8
SUPERFICI
100
AcDbLine
 62
7
  6
CONTINUOUS
 10
-65.4910747748
 20
27.7690062898
 11
-65.5176022074
 21
27.5291536905
  0
LINE
  5
5FF
100
AcDbEntity
  8
SUPERFICI
100
AcDbLine
 62
7
  6
CONTINUOUS
 10
-65.4610184182
 20
28.0293202627
 11
-65.4910747748
 21
27.7690062898
  0
LINE
  5
600
100
AcDbEntity
  8
SUPERFICI
100
AcDbLine
 62
7
  6
CONTINUOUS
 10
-65.4319525288
 20
28.270972826
 11
-65.4610184182
 21
28.0293202627
  0
LINE
  5
601
100
AcDbEntity
  8
SUPERFICI
100
AcDbLine
 62
7
  6
CONTINUOUS
 10
-65.3992874416
 20
28.5322480379
 11
-65.4319525288
 21
28.270972826
  0
LINE
  5
602
100
AcDbEntity
  8
SUPERFICI
100
AcDbLine
 62
7
  6
CONTINUOUS
 10
-65.3650416003
 20
28.7959707296
 11
-65.3992874416
 21
28.5322480379
  0
LINE
  5
603
100
AcDbEntity
  8
SUPERFICI
100
AcDbLine
 62
7
  6
CONTINUOUS
 10
-65.2799086408
 20
29.4139911363
 11
-65.2767789995
 21
29.4371634797
  0
LINE
  5
604
100
AcDbEntity
  8
SUPERFICI
100
AcDbLine
 62
7
  6
CONTINUOUS
 10
-65.3296085251
 20
29.0592172936
 11
-65.3650416003
 21
28.7959707296
  0
LINE
  5
605
100
AcDbEntity
  8
SUPERFICI
100
AcDbLine
 62
7
  6
CONTINUOUS
 10
-65.2932584737
 20
29.3202257452
 11
-65.3296085251
 21
29.0592172936
  0
LINE
  5
606
100
AcDbEntity
  8
SUPERFICI
100
AcDbLine
 62
7
  6
CONTINUOUS
 10
-65.2699164661
 20
29.4835138355
 11
-65.2932584737
 21
29.3202257452
  0
LWPOLYLINE
  5
607
100
AcDbEntity
  8
SUPERFICI
100
AcDbPolyline
 62
7
  6
CONTINUOUS
 90
6
 70
0
 10
-65.2767789995
 20
29.4371634797
 10
-65.0916774397
 20
30.6342684334
 10
-64.8714191313
 20
31.8576385192
 10
-64.6279389886
 20
33.0429212522
 10
-64.363178977
 20
34.1921673114
 10
-64.2157413965
 20
34.7833064423
  0
LINE
  5
608
100
AcDbEntity
  8
0
100
AcDbLine
 62
7
  6
CONTINUOUS
 10
-65.5370594679
 20
-26.240949925
 11
-65.529745582
 21
-26.2857660304
  0
LINE
  5
609
100
AcDbEntity
  8
0
100
AcDbLine
 62
7
  6
CONTINUOUS
 10
-65.4849662895
 20
-26.6067756921
 11
-65.479083333
 21
-26.6432022682
  0
LINE
  5
60A
100
AcDbEntity
  8
0
100
AcDbLine
 62
7
  6
CONTINUOUS
 10
-65.5075608403
 20
-26.6548770686
 11
-65.5135275077
 21
-26.6174634741
  0
LINE
  5
60B
100
AcDbEntity
  8
SUPERFICI
100
AcDbLine
 62
7
  6
CONTINUOUS
 10
-65.7127704372
 20
-25.3834428134
 11
-65.7028956406
 21
-25.4455541019
  0
LINE
  5
60C
100
AcDbEntity
  8
0
100
AcDbLine
 62
7
  6
CONTINUOUS
 10
-65.529745582
 20
-26.2857660304
 11
-65.5185762673
 21
-26.3565465542
  0
LWPOLYLINE
  5
60D
100
AcDbEntity
  8
SUPERFICI
100
AcDbPolyline
 62
7
  6
CONTINUOUS
 90
6
 70
0
 10
-65.2767795182
 20
-29.4371598355
 10
-65.0916781902
 20
-30.6342639438
 10
-64.8714201314
 20
-31.8576333372
 10
-64.6279402706
 20
-33.0429153683
 10
-64.3631805223
 20
-34.1921609504
 10
-64.2157413957
 20
-34.7833064453
  0
LINE
  5
60E
100
AcDbEntity
  8
0
100
AcDbLine
 62
7
  6
CONTINUOUS
 10
-65.479083333
 20
-26.6432022682
 11
-65.473097839
 21
-26.6817731321
  0
LINE
  5
60F
100
AcDbEntity
  8
0
100
AcDbLine
 62
7
  6
CONTINUOUS
 10
-65.5015326615
 20
-26.6941954941
 11
-65.5075608403
 21
-26.6548770686
  0
LINE
  5
610
100
AcDbEntity
  8
0
100
AcDbLine
 62
7
  6
CONTINUOUS
 10
-65.3731589878
 20
-27.6089026669
 11
-65.3430075598
 21
-27.8082260749
  0
LINE
  5
611
100
AcDbEntity
  8
0
100
AcDbLine
 62
7
  6
CONTINUOUS
 10
-65.5185762673
 20
-26.3565465542
 11
-65.5072301448
 21
-26.4311585172
  0
LINE
  5
612
100
AcDbEntity
  8
0
100
AcDbLine
 62
7
  6
CONTINUOUS
 10
-65.2194175101
 20
-28.800007
 11
-65.226403397
 21
-28.7533532666
  0
LINE
  5
613
100
AcDbEntity
  8
0
100
AcDbLine
 62
7
  6
CONTINUOUS
 10
-65.226403397
 20
-28.7533532666
 11
-65.2473020314
 21
-28.6135506762
  0
LINE
  5
614
100
AcDbEntity
  8
0
100
AcDbLine
 62
7
  6
CONTINUOUS
 10
-65.3028672038
 20
-28.2408532345
 11
-65.3874402947
 21
-27.678657
  0
LINE
  5
615
100
AcDbEntity
  8
0
100
AcDbLine
 62
7
  6
CONTINUOUS
 10
-65.2473020314
 20
-28.6135506762
 11
-65.2611908337
 21
-28.5204589846
  0
LINE
  5
616
100
AcDbEntity
  8
0
100
AcDbLine
 62
7
  6
CONTINUOUS
 10
-65.2611908337
 20
-28.5204589846
 11
-65.3028672038
 21
-28.2408532345
  0
LWPOLYLINE
  5
617
100
AcDbEntity
  8
0
100
AcDbPolyline
 62
7
  6
CONTINUOUS
 90
3
 70
0
 10
-65.3430075598
 20
-27.8082260749
 10
-65.2984648351
 20
-28.107276366
 10
-65.2911093999
 20
-28.1569863297
  0
LINE
  5
618
100
AcDbEntity
  8
0
100
AcDbLine
 62
7
  6
CONTINUOUS
 10
-65.2108140546
 20
-28.7009592585
 11
-65.1961608514
 21
-28.8
  0
LINE
  5
619
100
AcDbEntity
  8
0
100
AcDbLine
 62
7
  6
CONTINUOUS
 10
-65.473097839
 20
-26.6817731321
 11
-65.4671205434
 21
-26.7217771131
  0
LWPOLYLINE
  5
61A
100
AcDbEntity
  8
0
100
AcDbPolyline
 62
7
  6
CONTINUOUS
 90
8
 70
0
 10
-65.2911093999
 20
-28.1569863297
 10
-65.2691437416
 20
-28.3056963413
 10
-65.2618464495
 20
-28.3551570456
 10
-65.2545573614
 20
-28.4045741079
 10
-65.2472760927
 20
-28.4539518506
 10
-65.2399931462
 20
-28.5033289702
 10
-65.2327083332
 20
-28.5527056247
 10
-65.2108140546
 20
-28.7009592585
  0
LINE
  5
61B
100
AcDbEntity
  8
0
100
AcDbLine
 62
7
  6
CONTINUOUS
 10
-65.4955711128
 20
-26.734565124
 11
-65.5015326615
 21
-26.6941954941
  0
LINE
  5
61C
100
AcDbEntity
  8
0
100
AcDbLine
 62
7
  6
CONTINUOUS
 10
-65.2951419761
 20
-28.800007
 11
-65.3341241272
 21
-28.5335515368
  0
LINE
  5
61D
100
AcDbEntity
  8
0
100
AcDbLine
 62
7
  6
CONTINUOUS
 10
-65.5072301448
 20
-26.4311585172
 11
-65.4958141433
 21
-26.5088639401
  0
LWPOLYLINE
  5
61E
100
AcDbEntity
  8
SUPERFICI
100
AcDbPolyline
 62
7
  6
CONTINUOUS
 90
3
 70
0
 10
-65.2712940302
 20
-29.4739579936
 10
-65.2707724305
 20
-29.4775769162
 10
-65.2699629809
 20
-29.4831912231
  0
LINE
  5
61F
100
AcDbEntity
  8
SUPERFICI
100
AcDbLine
 62
7
  6
CONTINUOUS
 10
-65.2727157978
 20
-29.4640875263
 11
-65.2712940302
 21
-29.4739579936
  0
LINE
  5
620
100
AcDbEntity
  8
SUPERFICI
100
AcDbLine
 62
7
  6
CONTINUOUS
 10
-65.2746286462
 20
-29.4507921373
 11
-65.2727157978
 21
-29.4640875263
  0
LINE
  5
621
100
AcDbEntity
  8
0
100
AcDbLine
 62
7
  6
CONTINUOUS
 10
-65.3341241272
 20
-28.5335515368
 11
-65.377951948
 21
-28.229679
  0
LINE
  5
622
100
AcDbEntity
  8
0
100
AcDbLine
 62
7
  6
CONTINUOUS
 10
-65.4671205434
 20
-26.7217771131
 11
-65.4612282945
 21
-26.76268835
  0
LINE
  5
623
100
AcDbEntity
  8
0
100
AcDbLine
 62
7
  6
CONTINUOUS
 10
-65.4896954403
 20
-26.7758383013
 11
-65.4955711128
 21
-26.734565124
  0
LINE
  5
624
100
AcDbEntity
  8
0
100
AcDbLine
 62
7
  6
CONTINUOUS
 10
-65.4958141433
 20
-26.5088639401
 11
-65.4844033147
 21
-26.589120153
  0
LINE
  5
625
100
AcDbEntity
  8
SUPERFICI
100
AcDbLine
 62
7
  6
CONTINUOUS
 10
-65.3113290356
 20
-29.1915527675
 11
-65.2746286462
 21
-29.4507921373
  0
LINE
  5
626
100
AcDbEntity
  8
SUPERFICI
100
AcDbLine
 62
7
  6
CONTINUOUS
 10
-65.7044559269
 20
-25.4351555001
 11
-65.6958093888
 21
-25.4963397411
  0
LINE
  5
627
100
AcDbEntity
  8
0
100
AcDbLine
 62
7
  6
CONTINUOUS
 10
-65.4865297622
 20
-27.3665727877
 11
-65.2810620321
 21
-28.800015
  0
LINE
  5
628
100
AcDbEntity
  8
0
100
AcDbLine
 62
7
  6
CONTINUOUS
 10
-65.3706573074
 20
-28.5494111966
 11
-65.3359288835
 21
-28.800015
  0
LINE
  5
629
100
AcDbEntity
  8
0
100
AcDbLine
 62
7
  6
CONTINUOUS
 10
-65.3535758982
 20
-28.800015
 11
-65.3766672239
 21
-28.6334985478
  0
LINE
  5
62A
100
AcDbEntity
  8
0
100
AcDbLine
 62
7
  6
CONTINUOUS
 10
-65.3430946574
 20
-28.800015
 11
-65.3719667655
 21
-28.5909446715
  0
LINE
  5
62B
100
AcDbEntity
  8
0
100
AcDbLine
 62
7
  6
CONTINUOUS
 10
-65.4887750758
 20
-27.0663941924
 11
-65.4783531905
 21
-27.142128
  0
LINE
  5
62C
100
AcDbEntity
  8
0
100
AcDbLine
 62
7
  6
CONTINUOUS
 10
-65.4612282945
 20
-26.76268835
 11
-65.4560287485
 21
-26.8000890802
  0
LINE
  5
62D
100
AcDbEntity
  8
0
100
AcDbLine
 62
7
  6
CONTINUOUS
 10
-65.2708511141
 20
-28.800007
 11
-65.3098712949
 21
-28.5152267165
  0
LINE
  5
62E
100
AcDbEntity
  8
0
100
AcDbLine
 62
7
  6
CONTINUOUS
 10
-65.4557583595
 20
-27.678657
 11
-65.482545905
 21
-27.4831468503
  0
LINE
  5
62F
100
AcDbEntity
  8
0
100
AcDbLine
 62
7
  6
CONTINUOUS
 10
-65.4840077671
 20
-26.8172893953
 11
-65.4896954403
 21
-26.7758383013
  0
LINE
  5
630
100
AcDbEntity
  8
SUPERFICI
100
AcDbLine
 62
7
  6
CONTINUOUS
 10
-65.2799090992
 20
-29.4139879321
 11
-65.2767795182
 21
-29.4371598355
  0
LINE
  5
631
100
AcDbEntity
  8
0
100
AcDbLine
 62
7
  6
CONTINUOUS
 10
-65.4247910605
 20
-27.4413141819
 11
-65.3929094153
 21
-27.6770211491
  0
LINE
  5
632
100
AcDbEntity
  8
SUPERFICI
100
AcDbLine
 62
7
  6
CONTINUOUS
 10
-65.3463752312
 20
-28.93579823
 11
-65.3113290356
 21
-29.1915527675
  0
LINE
  5
633
100
AcDbEntity
  8
0
100
AcDbLine
 62
7
  6
CONTINUOUS
 10
-65.4010873973
 20
-28.3253313404
 11
-65.3706573074
 21
-28.5494111966
  0
LWPOLYLINE
  5
634
100
AcDbEntity
  8
0
100
AcDbPolyline
 62
7
  6
CONTINUOUS
 90
3
 70
0
 10
-65.3098712949
 20
-28.5152267165
 10
-65.3766979746
 20
-28.0211900163
 10
-65.4787513046
 20
-27.2659527947
  0
LINE
  5
635
100
AcDbEntity
  8
0
100
AcDbLine
 62
7
  6
CONTINUOUS
 10
-65.4844033147
 20
-26.589120153
 11
-65.4693974732
 21
-26.6986152729
  0
LINE
  5
636
100
AcDbEntity
  8
0
100
AcDbLine
 62
7
  6
CONTINUOUS
 10
-65.3719667655
 20
-28.5909446715
 11
-65.3975113504
 21
-28.4023965778
  0
LINE
  5
637
100
AcDbEntity
  8
0
100
AcDbLine
 62
7
  6
CONTINUOUS
 10
-65.4651448465
 20
-27.142128
 11
-65.4247910605
 21
-27.4413141819
  0
LWPOLYLINE
  5
638
100
AcDbEntity
  8
0
100
AcDbPolyline
 62
7
  6
CONTINUOUS
 90
5
 70
0
 10
-65.3600998468
 20
-28.800015
 10
-65.3783080353
 20
-28.6646802564
 10
-65.3956085325
 20
-28.5340654578
 10
-65.4120013384
 20
-28.4081706044
 10
-65.4274242542
 20
-28.2872999474
  0
LINE
  5
639
100
AcDbEntity
  8
0
100
AcDbLine
 62
7
  6
CONTINUOUS
 10
-65.3766672239
 20
-28.6334985478
 11
-65.3993723403
 21
-28.4660305268
  0
LINE
  5
63A
100
AcDbEntity
  8
0
100
AcDbLine
 62
7
  6
CONTINUOUS
 10
-65.3884393404
 20
-28.5684352201
 11
-65.3571926827
 21
-28.800015
  0
LWPOLYLINE
  5
63B
100
AcDbEntity
  8
0
100
AcDbPolyline
 62
7
  6
CONTINUOUS
 90
3
 70
0
 10
-65.5746671236
 20
-26.436398
 10
-65.5637882188
 20
-26.5175387317
 10
-65.4887750758
 20
-27.0663941924
  0
LINE
  5
63C
100
AcDbEntity
  8
0
100
AcDbLine
 62
7
  6
CONTINUOUS
 10
-65.525267296
 20
-27.081201649
 11
-65.4865297622
 21
-27.3665727877
  0
LWPOLYLINE
  5
63D
100
AcDbEntity
  8
0
100
AcDbPolyline
 62
7
  6
CONTINUOUS
 90
3
 70
0
 10
-65.4787513046
 20
-27.2659527947
 10
-65.5217562752
 20
-26.9452927552
 10
-65.5369340144
 20
-26.8310504355
  0
LWPOLYLINE
  5
63E
100
AcDbEntity
  8
0
100
AcDbPolyline
 62
7
  6
CONTINUOUS
 90
3
 70
0
 10
-65.4049616542
 20
-27.67865
 10
-65.3340179859
 20
-28.2078632828
 10
-65.2543045973
 20
-28.800007
  0
LINE
  5
63F
100
AcDbEntity
  8
0
100
AcDbLine
 62
7
  6
CONTINUOUS
 10
-65.3304233418
 20
-28.800015
 11
-65.3751543535
 21
-28.4655203469
  0
LINE
  5
640
100
AcDbEntity
  8
SUPERFICI
100
AcDbLine
 62
7
  6
CONTINUOUS
 10
-65.3650412204
 20
-28.7959736019
 11
-65.3463752312
 21
-28.93579823
  0
LWPOLYLINE
  5
641
100
AcDbEntity
  8
0
100
AcDbPolyline
 62
7
  6
CONTINUOUS
 90
5
 70
0
 10
-65.3635163675
 20
-28.800022
 10
-65.3813621091
 20
-28.6653255275
 10
-65.3983098968
 20
-28.5352866213
 10
-65.4143597307
 20
-28.4099052816
 10
-65.4294483642
 20
-28.2894804853
  0
LINE
  5
642
100
AcDbEntity
  8
0
100
AcDbLine
 62
7
  6
CONTINUOUS
 10
-65.482545905
 20
-27.4831468503
 11
-65.5072629991
 21
-27.2984978277
  0
LINE
  5
643
100
AcDbEntity
  8
0
100
AcDbLine
 62
7
  6
CONTINUOUS
 10
-65.3975113504
 20
-28.4023965778
 11
-65.420007316
 21
-28.2325734065
  0
LINE
  5
644
100
AcDbEntity
  8
0
100
AcDbLine
 62
7
  6
CONTINUOUS
 10
-65.3993723403
 20
-28.4660305268
 11
-65.4215122239
 21
-28.2986872474
  0
LINE
  5
645
100
AcDbEntity
  8
0
100
AcDbLine
 62
7
  6
CONTINUOUS
 10
-65.3810286502
 20
-28.3482172459
 11
-65.3210221577
 21
-28.800007
  0
LINE
  5
646
100
AcDbEntity
  8
0
100
AcDbLine
 62
7
  6
CONTINUOUS
 10
-65.4400079124
 20
-28.0301739634
 11
-65.4010873973
 21
-28.3253313404
  0
LINE
  5
647
100
AcDbEntity
  8
0
100
AcDbLine
 62
7
  6
CONTINUOUS
 10
-65.4786145326
 20
-26.8581073259
 11
-65.4840077671
 21
-26.8172893953
  0
LINE
  5
648
100
AcDbEntity
  8
0
100
AcDbLine
 62
7
  6
CONTINUOUS
 10
-65.4159338767
 20
-28.3591012733
 11
-65.3884393404
 21
-28.5684352201
  0
LINE
  5
649
100
AcDbEntity
  8
0
100
AcDbLine
 62
7
  6
CONTINUOUS
 10
-65.3964396959
 20
-28.229679
 11
-65.3810286502
 21
-28.3482172459
  0
LINE
  5
64A
100
AcDbEntity
  8
0
100
AcDbLine
 62
7
  6
CONTINUOUS
 10
-65.4693974732
 20
-26.6986152729
 11
-65.4548117792
 21
-26.8094789423
  0
LINE
  5
64B
100
AcDbEntity
  8
0
100
AcDbLine
 62
7
  6
CONTINUOUS
 10
-65.3751543535
 20
-28.4655203469
 11
-65.405802268
 21
-28.2308903678
  0
LINE
  5
64C
100
AcDbEntity
  8
0
100
AcDbLine
 62
7
  6
CONTINUOUS
 10
-65.5072629991
 20
-27.2984978277
 11
-65.5258951593
 21
-27.1557725615
  0
LINE
  5
64D
100
AcDbEntity
  8
0
100
AcDbLine
 62
7
  6
CONTINUOUS
 10
-65.420007316
 20
-28.2325734065
 11
-65.4404084071
 21
-28.0754447923
  0
LINE
  5
64E
100
AcDbEntity
  8
0
100
AcDbLine
 62
7
  6
CONTINUOUS
 10
-65.5494658107
 20
-26.8960826111
 11
-65.525267296
 21
-27.081201649
  0
LWPOLYLINE
  5
64F
100
AcDbEntity
  8
0
100
AcDbPolyline
 62
7
  6
CONTINUOUS
 90
7
 70
0
 10
-65.5369340144
 20
-26.8310504355
 10
-65.5681803757
 20
-26.5899369855
 10
-65.5842489978
 20
-26.4630658553
 10
-65.6002667927
 20
-26.3307419153
 10
-65.6161249704
 20
-26.1925730866
 10
-65.631932321
 20
-26.0489514482
 10
-65.6476888444
 20
-25.899877
  0
LINE
  5
650
100
AcDbEntity
  8
0
100
AcDbLine
 62
7
  6
CONTINUOUS
 10
-65.4215122239
 20
-28.2986872474
 11
-65.4429312158
 21
-28.1324547459
  0
LINE
  5
651
100
AcDbEntity
  8
0
100
AcDbLine
 62
7
  6
CONTINUOUS
 10
-65.405802268
 20
-28.2308903678
 11
-65.4350792077
 21
-28.0023653738
  0
LINE
  5
652
100
AcDbEntity
  8
0
100
AcDbLine
 62
7
  6
CONTINUOUS
 10
-65.4052039245
 20
-27.9993624141
 11
-65.3757271115
 21
-28.2293910736
  0
LINE
  5
653
100
AcDbEntity
  8
0
100
AcDbLine
 62
7
  6
CONTINUOUS
 10
-65.4632486196
 20
-27.8486551625
 11
-65.4400079124
 21
-28.0301739634
  0
LINE
  5
654
100
AcDbEntity
  8
0
100
AcDbLine
 62
7
  6
CONTINUOUS
 10
-65.4404084071
 20
-28.0754447923
 11
-65.4594342937
 21
-27.9257821413
  0
LWPOLYLINE
  5
655
100
AcDbEntity
  8
0
100
AcDbPolyline
 62
7
  6
CONTINUOUS
 90
5
 70
0
 10
-65.4288338234
 20
-28.2879277184
 10
-65.4135917869
 20
-28.4085352504
 10
-65.3973720794
 20
-28.5342064254
 10
-65.3802316872
 20
-28.6646996753
 10
-65.3621706102
 20
-28.800015
  0
LINE
  5
656
100
AcDbEntity
  8
0
100
AcDbLine
 62
7
  6
CONTINUOUS
 10
-65.4405724262
 20
-28.1651094155
 11
-65.4159338767
 21
-28.3591012733
  0
LINE
  5
657
100
AcDbEntity
  8
0
100
AcDbLine
 62
7
  6
CONTINUOUS
 10
-65.5258951593
 20
-27.1557725615
 11
-65.5437721874
 21
-27.0150725897
  0
LINE
  5
658
100
AcDbEntity
  8
0
100
AcDbLine
 62
7
  6
CONTINUOUS
 10
-65.5582451481
 20
-26.4287189645
 11
-65.5571976723
 21
-26.4370558042
  0
LINE
  5
659
100
AcDbEntity
  8
0
100
AcDbLine
 62
7
  6
CONTINUOUS
 10
-65.4735761629
 20
-26.8977851609
 11
-65.4786145326
 21
-26.8581073259
  0
LINE
  5
65A
100
AcDbEntity
  8
0
100
AcDbLine
 62
7
  6
CONTINUOUS
 10
-65.4548117792
 20
-26.8094789423
 11
-65.4408825471
 21
-26.9198594234
  0
LINE
  5
65B
100
AcDbEntity
  8
0
100
AcDbLine
 62
7
  6
CONTINUOUS
 10
-65.4855804632
 20
-27.6699363762
 11
-65.4632486196
 21
-27.8486551625
  0
LINE
  5
65C
100
AcDbEntity
  8
0
100
AcDbLine
 62
7
  6
CONTINUOUS
 10
-65.4429312158
 20
-28.1324547459
 11
-65.4638032151
 21
-27.9657819946
  0
LINE
  5
65D
100
AcDbEntity
  8
0
100
AcDbLine
 62
7
  6
CONTINUOUS
 10
-65.5700880203
 20
-26.7319254151
 11
-65.5494658107
 21
-26.8960826111
  0
LINE
  5
65E
100
AcDbEntity
  8
0
100
AcDbLine
 62
7
  6
CONTINUOUS
 10
-65.4350792077
 20
-28.0023653738
 11
-65.472113852
 21
-27.7052143917
  0
LINE
  5
65F
100
AcDbEntity
  8
0
100
AcDbLine
 62
7
  6
CONTINUOUS
 10
-65.4594342937
 20
-27.9257821413
 11
-65.4775246445
 21
-27.780267628
  0
LINE
  5
660
100
AcDbEntity
  8
0
100
AcDbLine
 62
7
  6
CONTINUOUS
 10
-65.4274242542
 20
-28.2872999474
 11
-65.4557336085
 21
-28.0588057148
  0
LINE
  5
661
100
AcDbEntity
  8
0
100
AcDbLine
 62
7
  6
CONTINUOUS
 10
-65.4659975373
 20
-27.9586337383
 11
-65.4405724262
 21
-28.1651094155
  0
LINE
  5
662
100
AcDbEntity
  8
SUPERFICI
100
AcDbLine
 62
7
  6
CONTINUOUS
 10
-65.6969322591
 20
-25.4878512964
 11
-65.6894968107
 21
-25.5480806774
  0
LWPOLYLINE
  5
663
100
AcDbEntity
  8
0
100
AcDbPolyline
 62
7
  6
CONTINUOUS
 90
6
 70
0
 10
-65.472113852
 20
-27.7052143917
 10
-65.4901419992
 20
-27.5572089097
 10
-65.5080873558
 20
-27.4066448193
 10
-65.5260530312
 20
-27.2532115315
 10
-65.5439359161
 20
-27.0972196354
 10
-65.5617007218
 20
-26.9365306394
  0
LINE
  5
664
100
AcDbEntity
  8
0
100
AcDbLine
 62
7
  6
CONTINUOUS
 10
-65.4451031982
 20
-27.678657
 11
-65.4052039245
 21
-27.9993624141
  0
LINE
  5
665
100
AcDbEntity
  8
0
100
AcDbLine
 62
7
  6
CONTINUOUS
 10
-65.4567268007
 20
-28.0604541742
 11
-65.4288338234
 21
-28.2879277184
  0
LINE
  5
666
100
AcDbEntity
  8
0
100
AcDbLine
 62
7
  6
CONTINUOUS
 10
-65.5437721874
 20
-27.0150725897
 11
-65.5610931686
 21
-26.8742207936
  0
LINE
  5
667
100
AcDbEntity
  8
0
100
AcDbLine
 62
7
  6
CONTINUOUS
 10
-65.5009041817
 20
-27.3958719045
 11
-65.4663180633
 21
-27.678657
  0
LINE
  5
668
100
AcDbEntity
  8
0
100
AcDbLine
 62
7
  6
CONTINUOUS
 10
-65.4775246445
 20
-27.780267628
 11
-65.4953735814
 21
-27.6333383216
  0
LINE
  5
669
100
AcDbEntity
  8
0
100
AcDbLine
 62
7
  6
CONTINUOUS
 10
-65.5075004193
 20
-27.4893801746
 11
-65.4855804632
 21
-27.6699363762
  0
LINE
  5
66A
100
AcDbEntity
  8
0
100
AcDbLine
 62
7
  6
CONTINUOUS
 10
-65.4294483642
 20
-28.2894804853
 11
-65.4571215091
 21
-28.0617066612
  0
LINE
  5
66B
100
AcDbEntity
  8
0
100
AcDbLine
 62
7
  6
CONTINUOUS
 10
-65.4689063909
 20
-26.9361894528
 11
-65.4735761629
 21
-26.8977851609
  0
LINE
  5
66C
100
AcDbEntity
  8
0
100
AcDbLine
 62
7
  6
CONTINUOUS
 10
-65.5610931686
 20
-26.8742207936
 11
-65.5695953716
 21
-26.803118
  0
LINE
  5
66D
100
AcDbEntity
  8
0
100
AcDbLine
 62
7
  6
CONTINUOUS
 10
-65.502420388
 20
-27.6218530438
 11
-65.4824855153
 21
-27.788552
  0
LINE
  5
66E
100
AcDbEntity
  8
0
100
AcDbLine
 62
7
  6
CONTINUOUS
 10
-65.5239892203
 20
-27.2023615522
 11
-65.5009041817
 21
-27.3958719045
  0
LINE
  5
66F
100
AcDbEntity
  8
0
100
AcDbLine
 62
7
  6
CONTINUOUS
 10
-65.4408825471
 20
-26.9198594234
 11
-65.427789377
 21
-27.0282254728
  0
LINE
  5
670
100
AcDbEntity
  8
0
100
AcDbLine
 62
7
  6
CONTINUOUS
 10
-65.4638032151
 20
-27.9657819946
 11
-65.4852627815
 21
-27.7888814418
  0
LINE
  5
671
100
AcDbEntity
  8
0
100
AcDbLine
 62
7
  6
CONTINUOUS
 10
-65.5881545959
 20
-26.5814245191
 11
-65.5700880203
 21
-26.7319254151
  0
LINE
  5
672
100
AcDbEntity
  8
0
100
AcDbLine
 62
7
  6
CONTINUOUS
 10
-65.4557336085
 20
-28.0588057148
 11
-65.4812360676
 21
-27.84495673
  0
LINE
  5
673
100
AcDbEntity
  8
0
100
AcDbLine
 62
7
  6
CONTINUOUS
 10
-65.4861722238
 20
-27.7889850437
 11
-65.4659975373
 21
-27.9586337383
  0
LINE
  5
674
100
AcDbEntity
  8
0
100
AcDbLine
 62
7
  6
CONTINUOUS
 10
-65.4953735814
 20
-27.6333383216
 11
-65.5129432912
 21
-27.4848819519
  0
LINE
  5
675
100
AcDbEntity
  8
0
100
AcDbLine
 62
7
  6
CONTINUOUS
 10
-65.4852627815
 20
-27.7888814418
 11
-65.4993746593
 21
-27.6692023805
  0
LINE
  5
676
100
AcDbEntity
  8
0
100
AcDbLine
 62
7
  6
CONTINUOUS
 10
-65.5291054194
 20
-27.3057582914
 11
-65.5075004193
 21
-27.4893801746
  0
LINE
  5
677
100
AcDbEntity
  8
0
100
AcDbLine
 62
7
  6
CONTINUOUS
 10
-65.4571215091
 20
-28.0617066612
 11
-65.4820399328
 21
-27.8483886708
  0
LINE
  5
678
100
AcDbEntity
  8
0
100
AcDbLine
 62
7
  6
CONTINUOUS
 10
-65.5469029563
 20
-27.0047836411
 11
-65.5239892203
 21
-27.2023615522
  0
LWPOLYLINE
  5
679
100
AcDbEntity
  8
0
100
AcDbPolyline
 62
7
  6
CONTINUOUS
 90
3
 70
0
 10
-65.4885270933
 20
-27.789244924
 10
-65.4816627303
 20
-27.8490950423
 10
-65.4567268007
 20
-28.0604541742
  0
LINE
  5
67A
100
AcDbEntity
  8
0
100
AcDbLine
 62
7
  6
CONTINUOUS
 10
-65.52066314
 20
-27.4643334969
 11
-65.502420388
 21
-27.6218530438
  0
LINE
  5
67B
100
AcDbEntity
  8
0
100
AcDbLine
 62
7
  6
CONTINUOUS
 10
-65.5129432912
 20
-27.4848819519
 11
-65.5301951142
 21
-27.3349695895
  0
LINE
  5
67C
100
AcDbEntity
  8
0
100
AcDbLine
 62
7
  6
CONTINUOUS
 10
-65.4993746593
 20
-27.6692023805
 11
-65.5144660592
 21
-27.5376805399
  0
LWPOLYLINE
  5
67D
100
AcDbEntity
  8
0
100
AcDbPolyline
 62
7
  6
CONTINUOUS
 90
3
 70
0
 10
-65.4812360676
 20
-27.84495673
 10
-65.5040604036
 20
-27.6462965985
 10
-65.5144940575
 20
-27.5526573637
  0
LWPOLYLINE
  5
67E
100
AcDbEntity
  8
0
100
AcDbPolyline
 62
7
  6
CONTINUOUS
 90
5
 70
0
 10
-65.5001184192
 20
-27.6388469283
 10
-65.5176155128
 20
-27.4849428679
 10
-65.5349767961
 20
-27.3268398188
 10
-65.5524445394
 20
-27.1626752976
 10
-65.5697764723
 20
-26.9943117876
  0
LINE
  5
67F
100
AcDbEntity
  8
0
100
AcDbLine
 62
7
  6
CONTINUOUS
 10
-65.4820399328
 20
-27.8483886708
 11
-65.4887618352
 21
-27.7892629885
  0
LWPOLYLINE
  5
680
100
AcDbEntity
  8
0
100
AcDbPolyline
 62
7
  6
CONTINUOUS
 90
3
 70
0
 10
-65.427789377
 20
-27.0282254728
 10
-65.415737883
 20
-27.1327727721
 10
-65.4129139167
 20
-27.1580931335
  0
LINE
  5
681
100
AcDbEntity
  8
0
100
AcDbLine
 62
7
  6
CONTINUOUS
 10
-65.5500780144
 20
-27.1206478375
 11
-65.5291054194
 21
-27.3057582914
  0
LINE
  5
682
100
AcDbEntity
  8
0
100
AcDbLine
 62
7
  6
CONTINUOUS
 10
-65.6046845873
 20
-26.43641364
 11
-65.5881545959
 21
-26.5814245191
  0
LINE
  5
683
100
AcDbEntity
  8
0
100
AcDbLine
 62
7
  6
CONTINUOUS
 10
-65.5695953716
 20
-26.803118
 11
-65.5469029563
 21
-27.0047836411
  0
LWPOLYLINE
  5
684
100
AcDbEntity
  8
0
100
AcDbPolyline
 62
7
  6
CONTINUOUS
 90
3
 70
0
 10
-65.4634159374
 20
-26.9840338258
 10
-65.4646996079
 20
-26.9725243868
 10
-65.4689063909
 20
-26.9361894528
  0
LINE
  5
685
100
AcDbEntity
  8
0
100
AcDbLine
 62
7
  6
CONTINUOUS
 10
-65.4336381251
 20
-26.9792226776
 11
-65.4330827891
 21
-26.984204453
  0
LINE
  5
686
100
AcDbEntity
  8
0
100
AcDbLine
 62
7
  6
CONTINUOUS
 10
-65.5373054697
 20
-27.3153683703
 11
-65.52066314
 21
-27.4643334969
  0
LINE
  5
687
100
AcDbEntity
  8
0
100
AcDbLine
 62
7
  6
CONTINUOUS
 10
-65.5301951142
 20
-27.3349695895
 11
-65.5469290932
 21
-27.184790777
  0
LINE
  5
688
100
AcDbEntity
  8
0
100
AcDbLine
 62
7
  6
CONTINUOUS
 10
-65.5144660592
 20
-27.5376805399
 11
-65.530242717
 21
-27.3960392431
  0
LWPOLYLINE
  5
689
100
AcDbEntity
  8
SUPERFICI
100
AcDbPolyline
 62
250
  6
CONTINUOUS
 90
10
 70
0
 10
-65.6745575724
 20
-25.5931443725
 10
-65.6732364169
 20
-25.6199300207
 10
-65.6729076986
 20
-25.6276017509
 10
-65.672653127
 20
-25.6345888407
 10
-65.6724689222
 20
-25.6407647239
 10
-65.6723398895
 20
-25.6461663416
 10
-65.6722662469
 20
-25.6508719709
 10
-65.6722591652
 20
-25.6548145896
 10
-65.6723326839
 20
-25.6578326137
 10
-65.6724918805
 20
-25.6598161577
  0
LINE
  5
68A
100
AcDbEntity
  8
SUPERFICI
100
AcDbLine
 62
250
  6
CONTINUOUS
 10
-66.260960524
 20
-24.0650967638
 11
-66.2606001544
 21
-24.0796233493
  0
LWPOLYLINE
  5
68B
100
AcDbEntity
  8
SUPERFICI
100
AcDbPolyline
 62
250
  6
CONTINUOUS
 90
6
 70
0
 10
-65.6763179488
 20
-25.5391449597
 10
-65.6760300183
 20
-25.5518089238
 10
-65.6757142026
 20
-25.5631258596
 10
-65.6753752684
 20
-25.5734346727
 10
-65.6749940202
 20
-25.5833405759
 10
-65.6745575724
 20
-25.5931443725
  0
LINE
  5
68C
100
AcDbEntity
  8
SUPERFICI
100
AcDbLine
 62
250
  6
CONTINUOUS
 10
-65.6845600923
 20
-24.8404961042
 11
-65.6791938201
 21
-25.0632183876
  0
LINE
  5
68D
100
AcDbEntity
  8
SUPERFICI
100
AcDbLine
 62
250
  6
CONTINUOUS
 10
-66.2612227808
 20
-24.0523791764
 11
-66.260960524
 21
-24.0650967638
  0
LINE
  5
68E
100
AcDbEntity
  8
SUPERFICI
100
AcDbLine
 62
250
  6
CONTINUOUS
 10
-66.2606001544
 20
-24.0796233493
 11
-66.2604559819
 21
-24.086845229
  0
LINE
  5
68F
100
AcDbEntity
  8
SUPERFICI
100
AcDbLine
 62
7
  6
CONTINUOUS
 10
-66.4596430227
 20
22.1209730714
 11
-66.4596458952
 21
22.1211280828
  0
LINE
  5
690
100
AcDbEntity
  8
SUPERFICI
100
AcDbLine
 62
250
  6
CONTINUOUS
 10
-65.6791938201
 20
-25.0632183876
 11
-65.6781165298
 21
-25.118075324
  0
LINE
  5
691
100
AcDbEntity
  8
SUPERFICI
100
AcDbLine
 62
250
  6
CONTINUOUS
 10
-65.6875898966
 20
-24.6769127096
 11
-65.6845600923
 21
-24.8404961042
  0
LINE
  5
692
100
AcDbEntity
  8
SUPERFICI
100
AcDbLine
 62
250
  6
CONTINUOUS
 10
-66.2614602172
 20
-24.0371558671
 11
-66.2612227808
 21
-24.0523791764
  0
LINE
  5
693
100
AcDbEntity
  8
SUPERFICI
100
AcDbLine
 62
250
  6
CONTINUOUS
 10
-65.676769669
 20
-25.5106801637
 11
-65.6763179488
 21
-25.5391449597
  0
LINE
  5
694
100
AcDbEntity
  8
SUPERFICI
100
AcDbLine
 62
250
  6
CONTINUOUS
 10
-65.6781165298
 20
-25.118075324
 11
-65.6775825307
 21
-25.1543787074
  0
LINE
  5
695
100
AcDbEntity
  8
SUPERFICI
100
AcDbLine
 62
250
  6
CONTINUOUS
 10
-65.6908715164
 20
-24.4317734514
 11
-65.6875898966
 21
-24.6769127096
  0
LWPOLYLINE
  5
696
100
AcDbEntity
  8
SUPERFICI
100
AcDbPolyline
 62
250
  6
CONTINUOUS
 90
7
 70
0
 10
-66.2604559819
 20
-24.086845229
 10
-66.2603817061
 20
-24.0925123857
 10
-66.2603700117
 20
-24.0947379526
 10
-66.2603792764
 20
-24.0965326176
 10
-66.260410646
 20
-24.0978491941
 10
-66.2604629689
 20
-24.098626639
 10
-66.2605336802
 20
-24.0988144609
  0
LINE
  5
697
100
AcDbEntity
  8
SUPERFICI
100
AcDbLine
 62
250
  6
CONTINUOUS
 10
-66.2653076378
 20
-23.5552339026
 11
-66.2621986805
 21
-23.8050296615
  0
LINE
  5
698
100
AcDbEntity
  8
SUPERFICI
100
AcDbLine
 62
250
  6
CONTINUOUS
 10
-65.6775825307
 20
-25.1543787074
 11
-65.677214774
 21
-25.1910303038
  0
LINE
  5
699
100
AcDbEntity
  8
SUPERFICI
100
AcDbLine
 62
250
  6
CONTINUOUS
 10
-66.261735765
 20
-24.0101491906
 11
-66.2614602172
 21
-24.0371558671
  0
LINE
  5
69A
100
AcDbEntity
  8
SUPERFICI
100
AcDbLine
 62
250
  6
CONTINUOUS
 10
-65.6772141952
 20
-25.462326434
 11
-65.676769669
 21
-25.5106801637
  0
LINE
  5
69B
100
AcDbEntity
  8
SUPERFICI
100
AcDbLine
 62
250
  6
CONTINUOUS
 10
-65.6936077177
 20
-24.1126248797
 11
-65.6908715164
 21
-24.4317734514
  0
LINE
  5
69C
100
AcDbEntity
  8
SUPERFICI
100
AcDbLine
 62
250
  6
CONTINUOUS
 10
-66.2621986805
 20
-23.8050296615
 11
-66.262013498
 21
-23.8310261169
  0
LINE
  5
69D
100
AcDbEntity
  8
SUPERFICI
100
AcDbLine
 62
250
  6
CONTINUOUS
 10
-66.2668692629
 20
-23.3315208176
 11
-66.2653076378
 21
-23.5552339026
  0
LINE
  5
69E
100
AcDbEntity
  8
SUPERFICI
100
AcDbLine
 62
250
  6
CONTINUOUS
 10
-65.7043393923
 20
-20.6546582653
 11
-65.7021203443
 21
-21.1809808549
  0
LINE
  5
69F
100
AcDbEntity
  8
SUPERFICI
100
AcDbLine
 62
250
  6
CONTINUOUS
 10
-65.7021203443
 20
-21.1809808549
 11
-65.6948140443
 21
-22.5763438283
  0
LINE
  5
6A0
100
AcDbEntity
  8
SUPERFICI
100
AcDbLine
 62
250
  6
CONTINUOUS
 10
-65.7056683075
 20
-20.2972322142
 11
-65.7043393923
 21
-20.6546582653
  0
LINE
  5
6A1
100
AcDbEntity
  8
SUPERFICI
100
AcDbLine
 62
250
  6
CONTINUOUS
 10
-65.7069965917
 20
-19.9038588283
 11
-65.7056683075
 21
-20.2972322142
  0
LINE
  5
6A2
100
AcDbEntity
  8
SUPERFICI
100
AcDbLine
 62
250
  6
CONTINUOUS
 10
-65.6951997189
 20
-23.7605150456
 11
-65.6936077177
 21
-24.1126248797
  0
LINE
  5
6A3
100
AcDbEntity
  8
SUPERFICI
100
AcDbLine
 62
250
  6
CONTINUOUS
 10
-65.7078799699
 20
-19.6193405586
 11
-65.7069965917
 21
-19.9038588283
  0
LINE
  5
6A4
100
AcDbEntity
  8
SUPERFICI
100
AcDbLine
 62
250
  6
CONTINUOUS
 10
-66.2619665589
 20
-23.9607168799
 11
-66.261735765
 21
-24.0101491906
  0
LINE
  5
6A5
100
AcDbEntity
  8
SUPERFICI
100
AcDbLine
 62
250
  6
CONTINUOUS
 10
-65.7091905557
 20
-19.1571658002
 11
-65.7078799699
 21
-19.6193405586
  0
LINE
  5
6A6
100
AcDbEntity
  8
SUPERFICI
100
AcDbLine
 62
250
  6
CONTINUOUS
 10
-65.7100466657
 20
-18.8249131551
 11
-65.7091905557
 21
-19.1571658002
  0
LINE
  5
6A7
100
AcDbEntity
  8
SUPERFICI
100
AcDbLine
 62
250
  6
CONTINUOUS
 10
-65.7108819232
 20
-18.4731284138
 11
-65.7100466657
 21
-18.8249131551
  0
LWPOLYLINE
  5
6A8
100
AcDbEntity
  8
SUPERFICI
100
AcDbPolyline
 62
250
  6
CONTINUOUS
 90
3
 70
0
 10
-65.7124779558
 20
-17.7095537799
 10
-65.7120857228
 20
-17.9081528062
 10
-65.7108819232
 20
-18.4731284138
  0
LINE
  5
6A9
100
AcDbEntity
  8
SUPERFICI
100
AcDbLine
 62
250
  6
CONTINUOUS
 10
-65.677214774
 20
-25.1910303038
 11
-65.6770828938
 21
-25.2274221029
  0
LINE
  5
6AA
100
AcDbEntity
  8
SUPERFICI
100
AcDbLine
 62
250
  6
CONTINUOUS
 10
-65.6773696346
 20
25.3237718462
 11
-65.6770670837
 21
25.2396763349
  0
LINE
  5
6AB
100
AcDbEntity
  8
SUPERFICI
100
AcDbLine
 62
250
  6
CONTINUOUS
 10
-66.2685376168
 20
-22.1254691093
 11
-66.2678492174
 21
-22.4067050869
  0
LWPOLYLINE
  5
6AC
100
AcDbEntity
  8
SUPERFICI
100
AcDbPolyline
 62
250
  6
CONTINUOUS
 90
3
 70
0
 10
-65.7136451509
 20
-17.0818796462
 10
-65.7132570178
 20
-17.296660771
 10
-65.7124779558
 20
-17.7095537799
  0
LINE
  5
6AD
100
AcDbEntity
  8
SUPERFICI
100
AcDbLine
 62
250
  6
CONTINUOUS
 10
-66.2690417664
 20
-21.8169232382
 11
-66.2685376168
 21
-22.1254691093
  0
LWPOLYLINE
  5
6AE
100
AcDbEntity
  8
SUPERFICI
100
AcDbPolyline
 62
250
  6
CONTINUOUS
 90
4
 70
0
 10
-66.2695392438
 20
-21.4765374041
 10
-66.269415586
 20
-21.5651590597
 10
-66.2692911725
 20
-21.6512796585
 10
-66.2690417664
 20
-21.8169232382
  0
LWPOLYLINE
  5
6AF
100
AcDbEntity
  8
SUPERFICI
100
AcDbPolyline
 62
250
  6
CONTINUOUS
 90
3
 70
0
 10
-66.2699075568
 20
-21.1952896094
 10
-66.2697851915
 20
-21.2918147434
 10
-66.2695392438
 20
-21.4765374041
  0
LINE
  5
6B0
100
AcDbEntity
  8
SUPERFICI
100
AcDbLine
 62
250
  6
CONTINUOUS
 10
-66.270515297
 20
-20.6667721188
 11
-66.2699075568
 21
-21.1952896094
  0
LINE
  5
6B1
100
AcDbEntity
  8
SUPERFICI
100
AcDbLine
 62
250
  6
CONTINUOUS
 10
-65.7245002156
 20
-8.9229767602
 11
-65.7136451509
 21
-17.0818796462
  0
LINE
  5
6B2
100
AcDbEntity
  8
SUPERFICI
100
AcDbLine
 62
250
  6
CONTINUOUS
 10
-65.7340081106
 20
0.0
 11
-65.7245002156
 21
-8.9229767602
  0
LINE
  5
6B3
100
AcDbEntity
  8
SUPERFICI
100
AcDbLine
 62
250
  6
CONTINUOUS
 10
-65.6774301846
 20
-25.3948397614
 11
-65.6772141952
 21
-25.462326434
  0
LINE
  5
6B4
100
AcDbEntity
  8
SUPERFICI
100
AcDbLine
 62
250
  6
CONTINUOUS
 10
-66.2708766617
 20
-20.3081708255
 11
-66.270515297
 21
-20.6667721188
  0
LINE
  5
6B5
100
AcDbEntity
  8
SUPERFICI
100
AcDbLine
 62
250
  6
CONTINUOUS
 10
-66.2679001212
 20
-22.9479060699
 11
-66.2668692629
 21
-23.3315208176
  0
LINE
  5
6B6
100
AcDbEntity
  8
SUPERFICI
100
AcDbLine
 62
250
  6
CONTINUOUS
 10
-65.695639572
 20
-23.5004021053
 11
-65.6951997189
 21
-23.7605150456
  0
LINE
  5
6B7
100
AcDbEntity
  8
SUPERFICI
100
AcDbLine
 62
250
  6
CONTINUOUS
 10
-66.262013498
 20
-23.8310261169
 11
-66.2619559974
 21
-23.856907342
  0
LINE
  5
6B8
100
AcDbEntity
  8
SUPERFICI
100
AcDbLine
 62
250
  6
CONTINUOUS
 10
-66.2755593699
 20
-9.7770077029
 11
-66.2708766617
 21
-20.3081708255
  0
LINE
  5
6B9
100
AcDbEntity
  8
SUPERFICI
100
AcDbLine
 62
250
  6
CONTINUOUS
 10
-66.278226799
 20
-0.0002125486
 11
-66.2755593699
 21
-9.7770077029
  0
LINE
  5
6BA
100
AcDbEntity
  8
SUPERFICI
100
AcDbLine
 62
250
  6
CONTINUOUS
 10
-65.6956114159
 20
23.4928440708
 11
-65.6945013304
 21
22.85901141
  0
LINE
  5
6BB
100
AcDbEntity
  8
SUPERFICI
100
AcDbLine
 62
7
  6
CONTINUOUS
 10
-66.4596458969
 20
23.4999933899
 11
-66.4596458969
 21
-23.4999960184
  0
LINE
  5
6BC
100
AcDbEntity
  8
SUPERFICI
100
AcDbLine
 62
250
  6
CONTINUOUS
 10
-66.2679175629
 20
22.8421466793
 11
-66.2677066465
 21
22.5534414684
  0
LINE
  5
6BD
100
AcDbEntity
  8
SUPERFICI
100
AcDbLine
 62
250
  6
CONTINUOUS
 10
-65.6948140443
 20
-22.5763438283
 11
-65.6945606785
 21
-22.8380982183
  0
LINE
  5
6BE
100
AcDbEntity
  8
SUPERFICI
100
AcDbLine
 62
250
  6
CONTINUOUS
 10
-66.2758873134
 20
8.657551596
 11
-66.2782268637
 21
-0.0002125486
  0
LWPOLYLINE
  5
6BF
100
AcDbEntity
  8
SUPERFICI
100
AcDbPolyline
 62
250
  6
CONTINUOUS
 90
3
 70
0
 10
-66.2678492174
 20
-22.4067050869
 10
-66.2677488921
 20
-22.6706179928
 10
-66.2679001212
 20
-22.9479060699
  0
LINE
  5
6C0
100
AcDbEntity
  8
SUPERFICI
100
AcDbLine
 62
250
  6
CONTINUOUS
 10
-65.7248028544
 20
8.6558767226
 11
-65.7340081108
 21
-0.0
  0
LINE
  5
6C1
100
AcDbEntity
  8
SUPERFICI
100
AcDbLine
 62
250
  6
CONTINUOUS
 10
-65.6774064801
 20
25.4146671447
 11
-65.6773696346
 21
25.3237718462
  0
LINE
  5
6C2
100
AcDbEntity
  8
SUPERFICI
100
AcDbLine
 62
250
  6
CONTINUOUS
 10
-66.2619559974
 20
-23.856907342
 11
-66.2619665589
 21
-23.9607168799
  0
LINE
  5
6C3
100
AcDbEntity
  8
SUPERFICI
100
AcDbLine
 62
250
  6
CONTINUOUS
 10
-65.6945606785
 20
-22.8380982183
 11
-65.695639572
 21
-23.5004021053
  0
LINE
  5
6C4
100
AcDbEntity
  8
SUPERFICI
100
AcDbLine
 62
250
  6
CONTINUOUS
 10
-66.2677066465
 20
22.5534414684
 11
-66.2679693281
 21
22.3470900081
  0
LINE
  5
6C5
100
AcDbEntity
  8
SUPERFICI
100
AcDbLine
 62
250
  6
CONTINUOUS
 10
-65.6945013304
 20
22.85901141
 11
-65.6947924674
 21
22.5983686264
  0
LINE
  5
6C6
100
AcDbEntity
  8
SUPERFICI
100
AcDbLine
 62
250
  6
CONTINUOUS
 10
-65.7102411148
 20
18.7455721476
 11
-65.7248028544
 21
8.6558767226
  0
LINE
  5
6C7
100
AcDbEntity
  8
SUPERFICI
100
AcDbLine
 62
250
  6
CONTINUOUS
 10
-65.6773232649
 20
-25.3111342405
 11
-65.6774301846
 21
-25.3948397614
  0
LINE
  5
6C8
100
AcDbEntity
  8
SUPERFICI
100
AcDbLine
 62
250
  6
CONTINUOUS
 10
-66.2679693281
 20
22.3470900081
 11
-66.2758873134
 21
8.657551596
  0
LINE
  5
6C9
100
AcDbEntity
  8
SUPERFICI
100
AcDbLine
 62
250
  6
CONTINUOUS
 10
-65.7053613691
 20
20.3828581897
 11
-65.7102411148
 21
18.7455721476
  0
LINE
  5
6CA
100
AcDbEntity
  8
SUPERFICI
100
AcDbLine
 62
250
  6
CONTINUOUS
 10
-65.6770670837
 20
25.2396763349
 11
-65.677146089
 21
25.2039187045
  0
LINE
  5
6CB
100
AcDbEntity
  8
SUPERFICI
100
AcDbLine
 62
250
  6
CONTINUOUS
 10
-66.2670654444
 20
23.2895590916
 11
-66.2679175629
 21
22.8421466793
  0
LINE
  5
6CC
100
AcDbEntity
  8
SUPERFICI
100
AcDbLine
 62
250
  6
CONTINUOUS
 10
-65.6944347095
 20
23.9642457482
 11
-65.6956114159
 21
23.4928440708
  0
LINE
  5
6CD
100
AcDbEntity
  8
SUPERFICI
100
AcDbLine
 62
250
  6
CONTINUOUS
 10
-65.6770828938
 20
-25.2274221029
 11
-65.6773232649
 21
-25.3111342405
  0
LINE
  5
6CE
100
AcDbEntity
  8
SUPERFICI
100
AcDbLine
 62
250
  6
CONTINUOUS
 10
-65.6947924674
 20
22.5983686264
 11
-65.6959040358
 21
22.321758108
  0
LINE
  5
6CF
100
AcDbEntity
  8
SUPERFICI
100
AcDbLine
 62
250
  6
CONTINUOUS
 10
-66.2618357357
 20
23.9945087352
 11
-66.2620222565
 21
23.8290775293
  0
LINE
  5
6D0
100
AcDbEntity
  8
SUPERFICI
100
AcDbLine
 62
250
  6
CONTINUOUS
 10
-65.6981216095
 20
21.9517808917
 11
-65.7053613691
 21
20.3828581897
  0
LINE
  5
6D1
100
AcDbEntity
  8
SUPERFICI
100
AcDbLine
 62
250
  6
CONTINUOUS
 10
-65.677168972
 20
25.4691296291
 11
-65.6774064801
 21
25.4146671447
  0
LINE
  5
6D2
100
AcDbEntity
  8
SUPERFICI
100
AcDbLine
 62
250
  6
CONTINUOUS
 10
-65.6959040358
 20
22.321758108
 11
-65.6981216095
 21
21.9517808917
  0
LINE
  5
6D3
100
AcDbEntity
  8
SUPERFICI
100
AcDbLine
 62
250
  6
CONTINUOUS
 10
-65.6920460407
 20
24.314526371
 11
-65.6944347095
 21
23.9642457482
  0
LINE
  5
6D4
100
AcDbEntity
  8
SUPERFICI
100
AcDbLine
 62
250
  6
CONTINUOUS
 10
-66.2654213158
 20
23.5429288927
 11
-66.2670654444
 21
23.2895590916
  0
LINE
  5
6D5
100
AcDbEntity
  8
SUPERFICI
100
AcDbLine
 62
250
  6
CONTINUOUS
 10
-65.677146089
 20
25.2039187045
 11
-65.6774162218
 21
25.1684870786
  0
LINE
  5
6D6
100
AcDbEntity
  8
SUPERFICI
100
AcDbLine
 62
250
  6
CONTINUOUS
 10
-66.2616058949
 20
24.024712224
 11
-66.2618357357
 21
23.9945087352
  0
LINE
  5
6D7
100
AcDbEntity
  8
SUPERFICI
100
AcDbLine
 62
250
  6
CONTINUOUS
 10
-66.2620222565
 20
23.8290775293
 11
-66.2622893544
 21
23.7959089583
  0
LINE
  5
6D8
100
AcDbEntity
  8
SUPERFICI
100
AcDbLine
 62
250
  6
CONTINUOUS
 10
-65.6768570586
 20
25.5033118356
 11
-65.677168972
 21
25.4691296291
  0
LINE
  5
6D9
100
AcDbEntity
  8
SUPERFICI
100
AcDbLine
 62
250
  6
CONTINUOUS
 10
-66.2613887615
 20
24.0423509023
 11
-66.2616058949
 21
24.024712224
  0
LINE
  5
6DA
100
AcDbEntity
  8
SUPERFICI
100
AcDbLine
 62
250
  6
CONTINUOUS
 10
-66.2637993494
 20
23.6871908866
 11
-66.2654213158
 21
23.5429288927
  0
LINE
  5
6DB
100
AcDbEntity
  8
SUPERFICI
100
AcDbLine
 62
250
  6
CONTINUOUS
 10
-65.6890389117
 20
24.5800544589
 11
-65.6920460407
 21
24.314526371
  0
LWPOLYLINE
  5
6DC
100
AcDbEntity
  8
SUPERFICI
100
AcDbPolyline
 62
250
  6
CONTINUOUS
 90
4
 70
0
 10
-66.2622893544
 20
23.7959089583
 10
-66.2632249077
 20
23.7266348881
 10
-66.263407678
 20
23.714307738
 10
-66.2637993494
 20
23.6871908866
  0
LINE
  5
6DD
100
AcDbEntity
  8
SUPERFICI
100
AcDbLine
 62
250
  6
CONTINUOUS
 10
-66.2603848918
 20
24.0921002004
 11
-66.2604702139
 21
24.0860577639
  0
LINE
  5
6DE
100
AcDbEntity
  8
SUPERFICI
100
AcDbLine
 62
250
  6
CONTINUOUS
 10
-65.6774162218
 20
25.1684870786
 11
-65.6781416034
 21
25.1166849747
  0
LINE
  5
6DF
100
AcDbEntity
  8
SUPERFICI
100
AcDbLine
 62
250
  6
CONTINUOUS
 10
-65.6861672283
 20
24.7592120085
 11
-65.6890389117
 21
24.5800544589
  0
LINE
  5
6E0
100
AcDbEntity
  8
SUPERFICI
100
AcDbLine
 62
7
  6
CONTINUOUS
 10
-66.4596430244
 20
-22.1209730774
 11
-66.4596458969
 21
-22.1211280887
  0
LINE
  5
6E1
100
AcDbEntity
  8
SUPERFICI
100
AcDbLine
 62
250
  6
CONTINUOUS
 10
-66.2611330327
 20
24.0569781464
 11
-66.2613887615
 21
24.0423509023
  0
LINE
  5
6E2
100
AcDbEntity
  8
SUPERFICI
100
AcDbLine
 62
250
  6
CONTINUOUS
 10
-65.6781416034
 20
25.1166849747
 11
-65.6791680729
 21
25.064358935
  0
LINE
  5
6E3
100
AcDbEntity
  8
SUPERFICI
100
AcDbLine
 62
250
  6
CONTINUOUS
 10
-66.2604702139
 20
24.0860577639
 11
-66.2606295884
 21
24.078394586
  0
LINE
  5
6E4
100
AcDbEntity
  8
SUPERFICI
100
AcDbLine
 62
250
  6
CONTINUOUS
 10
-65.6831921
 20
24.9015634638
 11
-65.6861672283
 21
24.7592120085
  0
LWPOLYLINE
  5
6E5
100
AcDbEntity
  8
SUPERFICI
100
AcDbPolyline
 62
250
  6
CONTINUOUS
 90
3
 70
0
 10
-65.6791680729
 20
25.064358935
 10
-65.6815124585
 20
24.968652628
 10
-65.6831921
 20
24.9015634638
  0
LWPOLYLINE
  5
6E6
100
AcDbEntity
  8
SUPERFICI
100
AcDbPolyline
 62
250
  6
CONTINUOUS
 90
3
 70
0
 10
-66.2606295884
 20
24.078394586
 10
-66.260871098
 20
24.0688639186
 10
-66.2611330327
 20
24.0569781464
  0
LWPOLYLINE
  5
6E7
100
AcDbEntity
  8
SUPERFICI
100
AcDbPolyline
 62
250
  6
CONTINUOUS
 90
6
 70
0
 10
-65.6751012888
 20
25.580440742
 10
-65.6754844536
 20
25.5702223826
 10
-65.6758280491
 20
25.5594147387
 10
-65.67613955
 20
25.5474311973
 10
-65.6764200463
 20
25.5339206192
 10
-65.6768570586
 20
25.5033118356
  0
LINE
  5
6E8
100
AcDbEntity
  8
RACCORDO
100
AcDbLine
 62
7
  6
CONTINUOUS
 10
-58.6273058341
 20
-3.6078157575
 11
-57.4596455814
 21
-3.7099727925
  0
LWPOLYLINE
  5
6E9
100
AcDbEntity
  8
SUPERFICI
100
AcDbPolyline
 62
250
  6
CONTINUOUS
 90
12
 70
0
 10
-65.6724912031
 20
25.65981594
 10
-65.6723292294
 20
25.6577584282
 10
-65.672258597
 20
25.6546040419
 10
-65.6722726038
 20
25.6504648849
 10
-65.6723540945
 20
25.645510239
 10
-65.6724924749
 20
25.6398057379
 10
-65.6726927666
 20
25.6332652198
 10
-65.6729793503
 20
25.6258017667
 10
-65.6733514275
 20
25.6175907162
 10
-65.6737867416
 20
25.6088396028
 10
-65.6742394853
 20
25.5997288958
 10
-65.6751012888
 20
25.580440742
  0
LWPOLYLINE
  5
6EA
100
AcDbEntity
  8
SUPERFICI
100
AcDbPolyline
 62
250
  6
CONTINUOUS
 90
9
 70
0
 10
-65.6762680788
 20
25.6903076029
 10
-65.6761738669
 20
25.6890035349
 10
-65.6760607399
 20
25.6876365737
 10
-65.6759294629
 20
25.686208207
 10
-65.675780753
 20
25.6847200689
 10
-65.6756147307
 20
25.6831687516
 10
-65.6754318715
 20
25.6815546128
 10
-65.6752330086
 20
25.6798785572
 10
-65.674789573
 20
25.676328033
  0
LINE
  5
6EB
100
AcDbEntity
  8
SUPERFICI
100
AcDbLine
 62
250
  6
CONTINUOUS
 10
-61.865372517
 20
-36.8661732577
 11
-61.8605409146
 21
-37.0
  0
LINE
  5
6EC
100
AcDbEntity
  8
SUPERFICI
100
AcDbLine
 62
250
  6
CONTINUOUS
 10
-62.8029228537
 20
-36.8993726825
 11
-62.7945647834
 21
-37.1618109093
  0
LINE
  5
6ED
100
AcDbEntity
  8
SUPERFICI
100
AcDbLine
 62
250
  6
CONTINUOUS
 10
-61.8692833511
 20
-36.7423311904
 11
-61.865372517
 21
-36.8661732577
  0
LINE
  5
6EE
100
AcDbEntity
  8
SUPERFICI
100
AcDbLine
 62
250
  6
CONTINUOUS
 10
-62.7945647834
 20
-37.1618109093
 11
-62.7903688326
 21
-37.3138485061
  0
LINE
  5
6EF
100
AcDbEntity
  8
SUPERFICI
100
AcDbLine
 62
250
  6
CONTINUOUS
 10
-62.8063043432
 20
-36.770806563
 11
-62.8029228537
 21
-36.8993726825
  0
LINE
  5
6F0
100
AcDbEntity
  8
SUPERFICI
100
AcDbLine
 62
250
  6
CONTINUOUS
 10
-61.8735542117
 20
-36.5751071433
 11
-61.8692833511
 21
-36.7423311904
  0
LINE
  5
6F1
100
AcDbEntity
  8
SUPERFICI
100
AcDbLine
 62
250
  6
CONTINUOUS
 10
-62.7903688326
 20
-37.3138485061
 11
-62.7876638151
 21
-37.4279137964
  0
LINE
  5
6F2
100
AcDbEntity
  8
SUPERFICI
100
AcDbLine
 62
250
  6
CONTINUOUS
 10
-61.8605409146
 20
-37.0
 11
-61.8562069196
 21
-37.1871937569
  0
LINE
  5
6F3
100
AcDbEntity
  8
SUPERFICI
100
AcDbLine
 62
250
  6
CONTINUOUS
 10
-62.7876638151
 20
-37.4279137964
 11
-62.7851622343
 21
-37.5495599702
  0
LINE
  5
6F4
100
AcDbEntity
  8
SUPERFICI
100
AcDbLine
 62
250
  6
CONTINUOUS
 10
-62.808785299
 20
-36.6520987639
 11
-62.8063043432
 21
-36.770806563
  0
LINE
  5
6F5
100
AcDbEntity
  8
SUPERFICI
100
AcDbLine
 62
250
  6
CONTINUOUS
 10
-61.8562069196
 20
-37.1871937569
 11
-61.8516149287
 21
-37.4169281901
  0
LINE
  5
6F6
100
AcDbEntity
  8
SUPERFICI
100
AcDbLine
 62
250
  6
CONTINUOUS
 10
-62.7817059811
 20
38.6544887846
 11
-62.7800647136
 21
38.5749692051
  0
LINE
  5
6F7
100
AcDbEntity
  8
SUPERFICI
100
AcDbLine
 62
250
  6
CONTINUOUS
 10
-61.8755119807
 20
-36.4745892897
 11
-61.8735542117
 21
-36.5751071433
  0
LINE
  5
6F8
100
AcDbEntity
  8
SUPERFICI
100
AcDbLine
 62
250
  6
CONTINUOUS
 10
-61.8516149287
 20
-37.4169281901
 11
-61.8486457544
 21
-37.5892147755
  0
LINE
  5
6F9
100
AcDbEntity
  8
SUPERFICI
100
AcDbLine
 62
250
  6
CONTINUOUS
 10
-62.7851622343
 20
-37.5495599702
 11
-62.782942029
 21
-37.676843511
  0
LINE
  5
6FA
100
AcDbEntity
  8
SUPERFICI
100
AcDbLine
 62
250
  6
CONTINUOUS
 10
-61.8486457544
 20
-37.5892147755
 11
-61.8459008067
 21
-37.7728566236
  0
LINE
  5
6FB
100
AcDbEntity
  8
SUPERFICI
100
AcDbLine
 62
250
  6
CONTINUOUS
 10
-62.8104687634
 20
-36.5432831387
 11
-62.808785299
 21
-36.6520987639
  0
LINE
  5
6FC
100
AcDbEntity
  8
SUPERFICI
100
AcDbLine
 62
250
  6
CONTINUOUS
 10
-62.782942029
 20
-37.676843511
 11
-62.7810720899
 21
-37.8071916049
  0
LINE
  5
6FD
100
AcDbEntity
  8
SUPERFICI
100
AcDbLine
 62
250
  6
CONTINUOUS
 10
-61.876845215
 20
-36.3793665438
 11
-61.8755119807
 21
-36.4745892897
  0
LINE
  5
6FE
100
AcDbEntity
  8
SUPERFICI
100
AcDbLine
 62
250
  6
CONTINUOUS
 10
-61.8459008067
 20
-37.7728566236
 11
-61.8434516885
 21
-37.9648795286
  0
LINE
  5
6FF
100
AcDbEntity
  8
SUPERFICI
100
AcDbLine
 62
250
  6
CONTINUOUS
 10
-62.7800647136
 20
38.5749692051
 11
-62.7788733409
 21
38.4835296976
  0
LINE
  5
700
100
AcDbEntity
  8
SUPERFICI
100
AcDbLine
 62
250
  6
CONTINUOUS
 10
-62.7810720899
 20
-37.8071916049
 11
-62.7796078856
 21
-37.9379602692
  0
LINE
  5
701
100
AcDbEntity
  8
SUPERFICI
100
AcDbLine
 62
250
  6
CONTINUOUS
 10
-61.8434516885
 20
-37.9648795286
 11
-61.8413909613
 21
-38.1613657356
  0
LINE
  5
702
100
AcDbEntity
  8
SUPERFICI
100
AcDbLine
 62
250
  6
CONTINUOUS
 10
-61.8413909613
 20
-38.1613657356
 11
-61.8397783386
 21
-38.3582572455
  0
LINE
  5
703
100
AcDbEntity
  8
SUPERFICI
100
AcDbLine
 62
250
  6
CONTINUOUS
 10
-62.8114179471
 20
-36.44044758
 11
-62.8104687634
 21
-36.5432831387
  0
LINE
  5
704
100
AcDbEntity
  8
SUPERFICI
100
AcDbLine
 62
250
  6
CONTINUOUS
 10
-61.8803363451
 20
-35.9249678808
 11
-61.8799406201
 21
-35.9798966192
  0
LINE
  5
705
100
AcDbEntity
  8
SUPERFICI
100
AcDbLine
 62
250
  6
CONTINUOUS
 10
-62.7796078856
 20
-37.9379602692
 11
-62.7785842513
 21
-38.0669526148
  0
LINE
  5
706
100
AcDbEntity
  8
SUPERFICI
100
AcDbLine
 62
250
  6
CONTINUOUS
 10
-61.8811479678
 20
-35.8103127207
 11
-61.8803363451
 21
-35.9249678808
  0
LINE
  5
707
100
AcDbEntity
  8
SUPERFICI
100
AcDbLine
 62
250
  6
CONTINUOUS
 10
-61.8828882296
 20
-35.5607896944
 11
-61.8819919481
 21
-35.6890928293
  0
LINE
  5
708
100
AcDbEntity
  8
SUPERFICI
100
AcDbLine
 62
250
  6
CONTINUOUS
 10
-61.8819919481
 20
-35.6890928293
 11
-61.8811479678
 21
-35.8103127207
  0
LINE
  5
709
100
AcDbEntity
  8
SUPERFICI
100
AcDbLine
 62
250
  6
CONTINUOUS
 10
-61.8799406201
 20
-35.9798966192
 11
-61.876845215
 21
-36.3793665438
  0
LWPOLYLINE
  5
70A
100
AcDbEntity
  8
SUPERFICI
100
AcDbPolyline
 62
250
  6
CONTINUOUS
 90
5
 70
0
 10
-61.8853294544
 20
-35.2062320831
 10
-61.8848178888
 20
-35.2812278031
 10
-61.8843181672
 20
-35.3541313811
 10
-61.8838303149
 20
-35.4249429921
 10
-61.8828882296
 20
-35.5607896944
  0
LWPOLYLINE
  5
70B
100
AcDbEntity
  8
SUPERFICI
100
AcDbPolyline
 62
250
  6
CONTINUOUS
 90
5
 70
0
 10
-61.8880717996
 20
-34.7980566816
 10
-61.8874982694
 20
-34.8843381598
 10
-61.8869372968
 20
-34.9681974344
 10
-61.8863887824
 20
-35.0497995333
 10
-61.8853294544
 20
-35.2062320831
  0
LWPOLYLINE
  5
70C
100
AcDbEntity
  8
SUPERFICI
100
AcDbPolyline
 62
250
  6
CONTINUOUS
 90
4
 70
0
 10
-61.8904915561
 20
-34.4281984458
 10
-61.8898678355
 20
-34.5245139973
 10
-61.8892566295
 20
-34.6182382487
 10
-61.8880717996
 20
-34.7980566816
  0
LWPOLYLINE
  5
70D
100
AcDbEntity
  8
SUPERFICI
100
AcDbPolyline
 62
250
  6
CONTINUOUS
 90
3
 70
0
 10
-61.8924377025
 20
-34.1229764982
 10
-61.8917764812
 20
-34.2275359144
 10
-61.8904915561
 20
-34.4281984458
  0
LINE
  5
70E
100
AcDbEntity
  8
SUPERFICI
100
AcDbLine
 62
250
  6
CONTINUOUS
 10
-61.8395719466
 20
39.2439078403
 11
-61.8385087325
 21
39.1000958304
  0
LWPOLYLINE
  5
70F
100
AcDbEntity
  8
SUPERFICI
100
AcDbPolyline
 62
250
  6
CONTINUOUS
 90
3
 70
0
 10
-61.894495473
 20
-33.7916352632
 10
-61.8937972627
 20
-33.9051457737
 10
-61.8924377025
 20
-34.1229764982
  0
LWPOLYLINE
  5
710
100
AcDbEntity
  8
SUPERFICI
100
AcDbPolyline
 62
250
  6
CONTINUOUS
 90
3
 70
0
 10
-61.8966616478
 20
-33.4319452944
 10
-61.8959278319
 20
-33.5551727189
 10
-61.894495473
 20
-33.7916352632
  0
LINE
  5
711
100
AcDbEntity
  8
SUPERFICI
100
AcDbLine
 62
250
  6
CONTINUOUS
 10
-61.8981622711
 20
-33.175391783
 11
-61.8966616478
 21
-33.4319452944
  0
LINE
  5
712
100
AcDbEntity
  8
SUPERFICI
100
AcDbLine
 62
250
  6
CONTINUOUS
 10
-62.7788733409
 20
38.4835296976
 11
-62.7781544215
 21
38.3809745031
  0
LINE
  5
713
100
AcDbEntity
  8
SUPERFICI
100
AcDbLine
 62
250
  6
CONTINUOUS
 10
-61.899703402
 20
-32.9048353408
 11
-61.8981622711
 21
-33.175391783
  0
LINE
  5
714
100
AcDbEntity
  8
SUPERFICI
100
AcDbLine
 62
250
  6
CONTINUOUS
 10
-61.9012752128
 20
-32.6204104498
 11
-61.899703402
 21
-32.9048353408
  0
LINE
  5
715
100
AcDbEntity
  8
SUPERFICI
100
AcDbLine
 62
250
  6
CONTINUOUS
 10
-61.9028722662
 20
-32.3219553604
 11
-61.9012752128
 21
-32.6204104498
  0
LINE
  5
716
100
AcDbEntity
  8
SUPERFICI
100
AcDbLine
 62
250
  6
CONTINUOUS
 10
-61.8397783386
 20
-38.3582572455
 11
-61.8386463939
 21
-38.5521445903
  0
LWPOLYLINE
  5
717
100
AcDbEntity
  8
SUPERFICI
100
AcDbPolyline
 62
250
  6
CONTINUOUS
 90
4
 70
0
 10
-62.8213985716
 20
-34.5308525083
 10
-62.8209219558
 20
-34.624621922
 10
-62.8204548292
 20
-34.7157853006
 10
-62.8195471957
 20
-34.8908443828
  0
LINE
  5
718
100
AcDbEntity
  8
SUPERFICI
100
AcDbLine
 62
250
  6
CONTINUOUS
 10
-62.8195471957
 20
-34.8908443828
 11
-62.8123958743
 21
-36.1938617477
  0
LWPOLYLINE
  5
719
100
AcDbEntity
  8
SUPERFICI
100
AcDbPolyline
 62
250
  6
CONTINUOUS
 90
4
 70
0
 10
-62.8233939752
 20
-34.1291132383
 10
-62.8228816906
 20
-34.2337263497
 10
-62.8223782027
 20
-34.3355208999
 10
-62.8213985716
 20
-34.5308525083
  0
LINE
  5
71A
100
AcDbEntity
  8
SUPERFICI
100
AcDbLine
 62
250
  6
CONTINUOUS
 10
-61.9052988871
 20
-31.846844128
 11
-61.9028722662
 21
-32.3219553604
  0
LWPOLYLINE
  5
71B
100
AcDbEntity
  8
SUPERFICI
100
AcDbPolyline
 62
250
  6
CONTINUOUS
 90
3
 70
0
 10
-62.8249824485
 20
-33.7975968204
 10
-62.82444426
 20
-33.9111681821
 10
-62.8233939752
 20
-34.1291132383
  0
LINE
  5
71C
100
AcDbEntity
  8
SUPERFICI
100
AcDbLine
 62
250
  6
CONTINUOUS
 10
-61.9069327434
 20
-31.5099643564
 11
-61.9052988871
 21
-31.846844128
  0
LWPOLYLINE
  5
71D
100
AcDbEntity
  8
SUPERFICI
100
AcDbPolyline
 62
250
  6
CONTINUOUS
 90
3
 70
0
 10
-62.8266455932
 20
-33.4377087182
 10
-62.8260830468
 20
-33.5610049067
 10
-62.8249824485
 20
-33.7975968204
  0
LINE
  5
71E
100
AcDbEntity
  8
SUPERFICI
100
AcDbLine
 62
250
  6
CONTINUOUS
 10
-62.8277919926
 20
-33.1810092248
 11
-62.8266455932
 21
-33.4377087182
  0
LINE
  5
71F
100
AcDbEntity
  8
SUPERFICI
100
AcDbLine
 62
250
  6
CONTINUOUS
 10
-61.9093915809
 20
-30.971252544
 11
-61.9069327434
 21
-31.5099643564
  0
LWPOLYLINE
  5
720
100
AcDbEntity
  8
SUPERFICI
100
AcDbPolyline
 62
250
  6
CONTINUOUS
 90
3
 70
0
 10
-62.8295582388
 20
-32.7697147734
 10
-62.8289643285
 20
-32.9102949055
 10
-62.8277919926
 20
-33.1810092248
  0
LINE
  5
721
100
AcDbEntity
  8
SUPERFICI
100
AcDbLine
 62
250
  6
CONTINUOUS
 10
-62.8307564777
 20
-32.4782013459
 11
-62.8295582388
 21
-32.7697147734
  0
LINE
  5
722
100
AcDbEntity
  8
SUPERFICI
100
AcDbLine
 62
250
  6
CONTINUOUS
 10
-62.8319654697
 20
-32.1723842935
 11
-62.8307564777
 21
-32.4782013459
  0
LINE
  5
723
100
AcDbEntity
  8
SUPERFICI
100
AcDbLine
 62
250
  6
CONTINUOUS
 10
-61.9126430723
 20
-30.1841380894
 11
-61.9093915809
 21
-30.971252544
  0
LINE
  5
724
100
AcDbEntity
  8
SUPERFICI
100
AcDbLine
 62
250
  6
CONTINUOUS
 10
-62.8331796367
 20
-31.8516559999
 11
-62.8319654697
 21
-32.1723842935
  0
LINE
  5
725
100
AcDbEntity
  8
SUPERFICI
100
AcDbLine
 62
250
  6
CONTINUOUS
 10
-62.8343964067
 20
-31.5145632698
 11
-62.8331796367
 21
-31.8516559999
  0
LINE
  5
726
100
AcDbEntity
  8
SUPERFICI
100
AcDbLine
 62
250
  6
CONTINUOUS
 10
-62.7785842513
 20
-38.0669526148
 11
-62.778025771
 21
-38.1916032348
  0
LINE
  5
727
100
AcDbEntity
  8
SUPERFICI
100
AcDbLine
 62
250
  6
CONTINUOUS
 10
-62.8356120541
 20
-31.1597395287
 11
-62.8343964067
 21
-31.5145632698
  0
LINE
  5
728
100
AcDbEntity
  8
SUPERFICI
100
AcDbLine
 62
250
  6
CONTINUOUS
 10
-61.9165302175
 20
-29.08112348
 11
-61.9126430723
 21
-30.1841380894
  0
LINE
  5
729
100
AcDbEntity
  8
SUPERFICI
100
AcDbLine
 62
250
  6
CONTINUOUS
 10
-62.8374180843
 20
-30.5919292076
 11
-62.8356120541
 21
-31.1597395287
  0
LINE
  5
72A
100
AcDbEntity
  8
SUPERFICI
100
AcDbLine
 62
250
  6
CONTINUOUS
 10
-62.8123958743
 20
-36.1938617477
 11
-62.8114179471
 21
-36.44044758
  0
LINE
  5
72B
100
AcDbEntity
  8
SUPERFICI
100
AcDbLine
 62
250
  6
CONTINUOUS
 10
-62.8386002931
 20
-30.1878931828
 11
-62.8374180843
 21
-30.5919292076
  0
LINE
  5
72C
100
AcDbEntity
  8
SUPERFICI
100
AcDbLine
 62
250
  6
CONTINUOUS
 10
-61.8386463939
 20
-38.5521445903
 11
-61.8380309092
 21
-38.7390586882
  0
LINE
  5
72D
100
AcDbEntity
  8
SUPERFICI
100
AcDbLine
 62
250
  6
CONTINUOUS
 10
-62.8403187847
 20
-29.5414615526
 11
-62.8386002931
 21
-30.1878931828
  0
LINE
  5
72E
100
AcDbEntity
  8
SUPERFICI
100
AcDbLine
 62
250
  6
CONTINUOUS
 10
-61.8385087325
 20
39.1000958304
 11
-61.8379785398
 21
38.9395309032
  0
LINE
  5
72F
100
AcDbEntity
  8
SUPERFICI
100
AcDbLine
 62
250
  6
CONTINUOUS
 10
-61.9206387507
 20
-27.5794064513
 11
-61.9165302175
 21
-29.08112348
  0
LINE
  5
730
100
AcDbEntity
  8
SUPERFICI
100
AcDbLine
 62
250
  6
CONTINUOUS
 10
-62.8419354057
 20
-28.847608778
 11
-62.8403187847
 21
-29.5414615526
  0
LINE
  5
731
100
AcDbEntity
  8
SUPERFICI
100
AcDbLine
 62
250
  6
CONTINUOUS
 10
-62.8429397273
 20
-28.3589037816
 11
-62.8419354057
 21
-28.847608778
  0
LINE
  5
732
100
AcDbEntity
  8
SUPERFICI
100
AcDbLine
 62
250
  6
CONTINUOUS
 10
-61.9229375365
 20
-26.4493159738
 11
-61.9206387507
 21
-27.5794064513
  0
LINE
  5
733
100
AcDbEntity
  8
SUPERFICI
100
AcDbLine
 62
250
  6
CONTINUOUS
 10
-62.8443252466
 20
-27.5816461526
 11
-62.8429397273
 21
-28.3589037816
  0
LINE
  5
734
100
AcDbEntity
  8
SUPERFICI
100
AcDbLine
 62
250
  6
CONTINUOUS
 10
-62.8451628768
 20
-27.0306195171
 11
-62.8443252466
 21
-27.5816461526
  0
LINE
  5
735
100
AcDbEntity
  8
SUPERFICI
100
AcDbLine
 62
250
  6
CONTINUOUS
 10
-62.8459272622
 20
-26.4510281913
 11
-62.8451628768
 21
-27.0306195171
  0
LINE
  5
736
100
AcDbEntity
  8
SUPERFICI
100
AcDbLine
 62
250
  6
CONTINUOUS
 10
-61.924845792
 20
-25.1946357805
 11
-61.9229375365
 21
-26.4493159738
  0
LINE
  5
737
100
AcDbEntity
  8
SUPERFICI
100
AcDbLine
 62
250
  6
CONTINUOUS
 10
-62.8466188008
 20
-25.8403009705
 11
-62.8459272622
 21
-26.4510281913
  0
LINE
  5
738
100
AcDbEntity
  8
SUPERFICI
100
AcDbLine
 62
250
  6
CONTINUOUS
 10
-61.9256588891
 20
-24.5150956334
 11
-61.924845792
 21
-25.1946357805
  0
LINE
  5
739
100
AcDbEntity
  8
SUPERFICI
100
AcDbLine
 62
250
  6
CONTINUOUS
 10
-62.8472392978
 20
-25.1958901032
 11
-62.8466188008
 21
-25.8403009705
  0
LINE
  5
73A
100
AcDbEntity
  8
SUPERFICI
100
AcDbLine
 62
250
  6
CONTINUOUS
 10
-62.7781544215
 20
38.3809745031
 11
-62.777919808
 21
38.2682479642
  0
LWPOLYLINE
  5
73B
100
AcDbEntity
  8
SUPERFICI
100
AcDbPolyline
 62
250
  6
CONTINUOUS
 90
3
 70
0
 10
-61.9267337743
 20
-23.4242918918
 10
-61.9263925138
 20
-23.7978220023
 10
-61.9256588891
 20
-24.5150956334
  0
LWPOLYLINE
  5
73C
100
AcDbEntity
  8
SUPERFICI
100
AcDbPolyline
 62
250
  6
CONTINUOUS
 90
3
 70
0
 10
-62.8480498572
 20
-24.1621631967
 10
-62.8477937095
 20
-24.5161642713
 10
-62.8472392978
 20
-25.1958901032
  0
LWPOLYLINE
  5
73D
100
AcDbEntity
  8
SUPERFICI
100
AcDbPolyline
 62
250
  6
CONTINUOUS
 90
3
 70
0
 10
-61.927667951
 20
-22.2418689173
 10
-61.9273744423
 20
-22.6467116844
 10
-61.9267337743
 20
-23.4242918918
  0
LWPOLYLINE
  5
73E
100
AcDbEntity
  8
SUPERFICI
100
AcDbPolyline
 62
250
  6
CONTINUOUS
 90
4
 70
0
 10
-62.8489597409
 20
-22.6474469044
 10
-62.84874958
 20
-23.0413867364
 10
-62.8485274466
 20
-23.4251486515
 10
-62.8480498572
 20
-24.1621631967
  0
LINE
  5
73F
100
AcDbEntity
  8
SUPERFICI
100
AcDbLine
 62
250
  6
CONTINUOUS
 10
-61.9281984043
 20
-21.3994215599
 11
-61.927667951
 21
-22.2418689173
  0
LWPOLYLINE
  5
740
100
AcDbEntity
  8
SUPERFICI
100
AcDbPolyline
 62
250
  6
CONTINUOUS
 90
3
 70
0
 10
-62.8495051457
 20
-21.3999701931
 10
-62.8493391681
 20
-21.8267386563
 10
-62.8489597409
 20
-22.6474469044
  0
LWPOLYLINE
  5
741
100
AcDbEntity
  8
SUPERFICI
100
AcDbPolyline
 62
250
  6
CONTINUOUS
 90
3
 70
0
 10
-61.9288265916
 20
-20.047860765
 10
-61.9286403592
 20
-20.5102886466
 10
-61.9281984043
 20
-21.3994215599
  0
LWPOLYLINE
  5
742
100
AcDbEntity
  8
SUPERFICI
100
AcDbPolyline
 62
250
  6
CONTINUOUS
 90
4
 70
0
 10
-62.8499975626
 20
-19.5725789544
 10
-62.8499018517
 20
-20.0482210907
 10
-62.8497878399
 20
-20.5107111054
 10
-62.8495051457
 20
-21.3999701931
  0
LINE
  5
743
100
AcDbEntity
  8
SUPERFICI
100
AcDbLine
 62
250
  6
CONTINUOUS
 10
-62.8489976281
 20
10.6246187989
 11
-62.8476316837
 21
4.5242351
  0
LWPOLYLINE
  5
744
100
AcDbEntity
  8
SUPERFICI
100
AcDbPolyline
 62
250
  6
CONTINUOUS
 90
3
 70
0
 10
-61.9292269188
 20
-18.5816877051
 10
-61.9291198714
 20
-19.0835602943
 10
-61.9288265916
 20
-20.047860765
  0
LINE
  5
745
100
AcDbEntity
  8
SUPERFICI
100
AcDbLine
 62
250
  6
CONTINUOUS
 10
-62.8478496579
 20
0.0
 11
-62.8475346821
 21
-2.0469822369
  0
LWPOLYLINE
  5
746
100
AcDbEntity
  8
SUPERFICI
100
AcDbPolyline
 62
250
  6
CONTINUOUS
 90
3
 70
0
 10
-61.9293741266
 20
-16.9897146875
 10
-61.9293540464
 20
-17.5347649018
 10
-61.9292269188
 20
-18.5816877051
  0
LINE
  5
747
100
AcDbEntity
  8
SUPERFICI
100
AcDbLine
 62
250
  6
CONTINUOUS
 10
-61.9264366628
 20
-0.0000151331
 11
-61.9260198497
 21
-3.0256519821
  0
LINE
  5
748
100
AcDbEntity
  8
SUPERFICI
100
AcDbLine
 62
250
  6
CONTINUOUS
 10
-62.8476316837
 20
4.5242351
 11
-62.8478496575
 21
0.0
  0
LINE
  5
749
100
AcDbEntity
  8
SUPERFICI
100
AcDbLine
 62
250
  6
CONTINUOUS
 10
-62.8475346821
 20
-2.0469822369
 11
-62.847677846
 21
-4.8909846975
  0
LINE
  5
74A
100
AcDbEntity
  8
SUPERFICI
100
AcDbLine
 62
250
  6
CONTINUOUS
 10
-61.9293344884
 20
17.7903718001
 11
-61.9267551606
 21
6.9558661696
  0
LINE
  5
74B
100
AcDbEntity
  8
SUPERFICI
100
AcDbLine
 62
250
  6
CONTINUOUS
 10
-61.9267551606
 20
6.9558661696
 11
-61.9260727965
 21
1.8866837195
  0
LINE
  5
74C
100
AcDbEntity
  8
SUPERFICI
100
AcDbLine
 62
250
  6
CONTINUOUS
 10
-61.9260198497
 20
-3.0256519821
 11
-61.9264322574
 21
-5.7823304422
  0
LINE
  5
74D
100
AcDbEntity
  8
SUPERFICI
100
AcDbLine
 62
250
  6
CONTINUOUS
 10
-62.8497490728
 20
20.6495225132
 11
-62.8489976281
 21
10.6246187989
  0
LINE
  5
74E
100
AcDbEntity
  8
SUPERFICI
100
AcDbLine
 62
250
  6
CONTINUOUS
 10
-62.8495328124
 20
-12.7123985277
 11
-62.8499975626
 21
-19.5725789544
  0
LINE
  5
74F
100
AcDbEntity
  8
SUPERFICI
100
AcDbLine
 62
250
  6
CONTINUOUS
 10
-62.847677846
 20
-4.8909846975
 11
-62.8495328124
 21
-12.7123985277
  0
LINE
  5
750
100
AcDbEntity
  8
SUPERFICI
100
AcDbLine
 62
250
  6
CONTINUOUS
 10
-62.778025771
 20
-38.1916032348
 11
-62.7779475144
 21
-38.3095454894
  0
LINE
  5
751
100
AcDbEntity
  8
SUPERFICI
100
AcDbLine
 62
250
  6
CONTINUOUS
 10
-61.9260727965
 20
1.8866837195
 11
-61.9264366628
 21
-0.0000151331
  0
LINE
  5
752
100
AcDbEntity
  8
SUPERFICI
100
AcDbLine
 62
250
  6
CONTINUOUS
 10
-61.9264322574
 20
-5.7823304422
 11
-61.9293741266
 21
-16.9897146875
  0
LINE
  5
753
100
AcDbEntity
  8
SUPERFICI
100
AcDbLine
 62
250
  6
CONTINUOUS
 10
-61.8380309092
 20
-38.7390586882
 11
-61.8379471142
 21
-38.9153957298
  0
LINE
  5
754
100
AcDbEntity
  8
SUPERFICI
100
AcDbLine
 62
250
  6
CONTINUOUS
 10
-61.9285796117
 20
20.6490805216
 11
-61.9293344884
 21
17.7903718001
  0
LINE
  5
755
100
AcDbEntity
  8
SUPERFICI
100
AcDbLine
 62
250
  6
CONTINUOUS
 10
-62.8484920664
 20
23.4837050158
 11
-62.8497490728
 21
20.6495225132
  0
LINE
  5
756
100
AcDbEntity
  8
SUPERFICI
100
AcDbLine
 62
250
  6
CONTINUOUS
 10
-61.9270073269
 20
23.1082914988
 11
-61.9285796117
 21
20.6490805216
  0
LINE
  5
757
100
AcDbEntity
  8
SUPERFICI
100
AcDbLine
 62
250
  6
CONTINUOUS
 10
-61.8379785398
 20
38.9395309032
 11
-61.8379871439
 21
38.7645552439
  0
LINE
  5
758
100
AcDbEntity
  8
SUPERFICI
100
AcDbLine
 62
250
  6
CONTINUOUS
 10
-62.8469218989
 20
25.5390217081
 11
-62.8484920664
 21
23.4837050158
  0
LINE
  5
759
100
AcDbEntity
  8
SUPERFICI
100
AcDbLine
 62
250
  6
CONTINUOUS
 10
-61.9252287133
 20
24.8883263948
 11
-61.9270073269
 21
23.1082914988
  0
LINE
  5
75A
100
AcDbEntity
  8
SUPERFICI
100
AcDbLine
 62
250
  6
CONTINUOUS
 10
-62.8447712062
 20
27.2977001146
 11
-62.8469218989
 21
25.5390217081
  0
LINE
  5
75B
100
AcDbEntity
  8
SUPERFICI
100
AcDbLine
 62
250
  6
CONTINUOUS
 10
-61.9224054172
 20
26.7393291016
 11
-61.9252287133
 21
24.8883263948
  0
LINE
  5
75C
100
AcDbEntity
  8
SUPERFICI
100
AcDbLine
 62
250
  6
CONTINUOUS
 10
-62.8425040706
 20
28.5773152906
 11
-62.8447712062
 21
27.2977001146
  0
LINE
  5
75D
100
AcDbEntity
  8
SUPERFICI
100
AcDbLine
 62
250
  6
CONTINUOUS
 10
-61.9194093467
 20
28.0806585242
 11
-61.9224054172
 21
26.7393291016
  0
LINE
  5
75E
100
AcDbEntity
  8
SUPERFICI
100
AcDbLine
 62
250
  6
CONTINUOUS
 10
-62.8381482917
 20
30.3457901752
 11
-62.8425040706
 21
28.5773152906
  0
LINE
  5
75F
100
AcDbEntity
  8
SUPERFICI
100
AcDbLine
 62
250
  6
CONTINUOUS
 10
-62.777919808
 20
38.2682479642
 11
-62.7781736386
 21
38.1470013291
  0
LINE
  5
760
100
AcDbEntity
  8
SUPERFICI
100
AcDbLine
 62
250
  6
CONTINUOUS
 10
-61.9151472588
 20
29.4989479869
 11
-61.9194093467
 21
28.0806585242
  0
LINE
  5
761
100
AcDbEntity
  8
SUPERFICI
100
AcDbLine
 62
250
  6
CONTINUOUS
 10
-61.8379871439
 20
38.7645552439
 11
-61.8385338786
 21
38.5776278377
  0
LINE
  5
762
100
AcDbEntity
  8
SUPERFICI
100
AcDbLine
 62
250
  6
CONTINUOUS
 10
-61.8379471142
 20
-38.9153957298
 11
-61.8384017274
 21
-39.0785111995
  0
LINE
  5
763
100
AcDbEntity
  8
SUPERFICI
100
AcDbLine
 62
250
  6
CONTINUOUS
 10
-62.8327835786
 20
31.9578782287
 11
-62.8381482917
 21
30.3457901752
  0
LINE
  5
764
100
AcDbEntity
  8
SUPERFICI
100
AcDbLine
 62
250
  6
CONTINUOUS
 10
-61.9088050419
 20
31.1035899214
 11
-61.9151472588
 21
29.4989479869
  0
LINE
  5
765
100
AcDbEntity
  8
SUPERFICI
100
AcDbLine
 62
250
  6
CONTINUOUS
 10
-62.8258033187
 20
33.6217056807
 11
-62.8327835786
 21
31.9578782287
  0
LINE
  5
766
100
AcDbEntity
  8
SUPERFICI
100
AcDbLine
 62
250
  6
CONTINUOUS
 10
-62.7779475144
 20
-38.3095454894
 11
-62.778357527
 21
-38.4190639451
  0
LINE
  5
767
100
AcDbEntity
  8
SUPERFICI
100
AcDbLine
 62
250
  6
CONTINUOUS
 10
-62.8185435393
 20
35.0815358756
 11
-62.8258033187
 21
33.6217056807
  0
LINE
  5
768
100
AcDbEntity
  8
SUPERFICI
100
AcDbLine
 62
250
  6
CONTINUOUS
 10
-61.9015925505
 20
32.5620363871
 11
-61.9088050419
 21
31.1035899214
  0
LWPOLYLINE
  5
769
100
AcDbEntity
  8
SUPERFICI
100
AcDbPolyline
 62
250
  6
CONTINUOUS
 90
4
 70
0
 10
-62.8144718249
 20
35.8273230287
 10
-62.815836194
 20
35.5823121447
 10
-62.8161987818
 20
35.5166189777
 10
-62.8185435393
 20
35.0815358756
  0
LINE
  5
76A
100
AcDbEntity
  8
SUPERFICI
100
AcDbLine
 62
250
  6
CONTINUOUS
 10
-62.8141561129
 20
35.8844817328
 11
-62.8144718249
 21
35.8273230287
  0
LINE
  5
76B
100
AcDbEntity
  8
SUPERFICI
100
AcDbLine
 62
250
  6
CONTINUOUS
 10
-61.8385338786
 20
38.5776278377
 11
-61.8396117857
 21
38.382447698
  0
LINE
  5
76C
100
AcDbEntity
  8
SUPERFICI
100
AcDbLine
 62
250
  6
CONTINUOUS
 10
-62.8126157848
 20
36.1489191797
 11
-62.8141561129
 21
35.8844817328
  0
LINE
  5
76D
100
AcDbEntity
  8
SUPERFICI
100
AcDbLine
 62
250
  6
CONTINUOUS
 10
-61.8914971137
 20
34.2714395857
 11
-61.9015925505
 21
32.5620363871
  0
LINE
  5
76E
100
AcDbEntity
  8
SUPERFICI
100
AcDbLine
 62
250
  6
CONTINUOUS
 10
-62.7781736386
 20
38.1470013291
 11
-62.7789100791
 21
38.0195576883
  0
LWPOLYLINE
  5
76F
100
AcDbEntity
  8
SUPERFICI
100
AcDbPolyline
 62
250
  6
CONTINUOUS
 90
6
 70
0
 10
-61.8819058404
 20
35.7014157048
 10
-61.8827857728
 20
35.5755081638
 10
-61.8832427115
 20
35.5098382991
 10
-61.8837103234
 20
35.4423082339
 10
-61.8841890018
 20
35.3729158171
 10
-61.8914971137
 20
34.2714395857
  0
LINE
  5
770
100
AcDbEntity
  8
SUPERFICI
100
AcDbLine
 62
250
  6
CONTINUOUS
 10
-62.8110465491
 20
36.4913887453
 11
-62.8126157848
 21
36.1489191797
  0
LINE
  5
771
100
AcDbEntity
  8
SUPERFICI
100
AcDbLine
 62
250
  6
CONTINUOUS
 10
-61.8384017274
 20
-39.0785111995
 11
-61.8394002475
 21
-39.225739186
  0
LINE
  5
772
100
AcDbEntity
  8
SUPERFICI
100
AcDbLine
 62
250
  6
CONTINUOUS
 10
-61.8396117857
 20
38.382447698
 11
-61.8411900171
 21
38.1831839602
  0
LINE
  5
773
100
AcDbEntity
  8
SUPERFICI
100
AcDbLine
 62
250
  6
CONTINUOUS
 10
-62.7789100791
 20
38.0195576883
 11
-62.7801176364
 21
37.8880227123
  0
LINE
  5
774
100
AcDbEntity
  8
SUPERFICI
100
AcDbLine
 62
250
  6
CONTINUOUS
 10
-62.778357527
 20
-38.4190639451
 11
-62.7792568761
 21
-38.5184385128
  0
LINE
  5
775
100
AcDbEntity
  8
SUPERFICI
100
AcDbLine
 62
250
  6
CONTINUOUS
 10
-61.8411900171
 20
38.1831839602
 11
-61.843238041
 21
37.9834405856
  0
LINE
  5
776
100
AcDbEntity
  8
SUPERFICI
100
AcDbLine
 62
250
  6
CONTINUOUS
 10
-61.876830931
 20
36.38079777
 11
-61.8819058404
 21
35.7014157048
  0
LINE
  5
777
100
AcDbEntity
  8
SUPERFICI
100
AcDbLine
 62
250
  6
CONTINUOUS
 10
-62.7801176364
 20
37.8880227123
 11
-62.781769924
 21
37.7551560124
  0
LINE
  5
778
100
AcDbEntity
  8
SUPERFICI
100
AcDbLine
 62
250
  6
CONTINUOUS
 10
-61.843238041
 20
37.9834405856
 11
-61.8456977184
 21
37.7876212838
  0
LINE
  5
779
100
AcDbEntity
  8
SUPERFICI
100
AcDbLine
 62
250
  6
CONTINUOUS
 10
-62.809732928
 20
36.5956552819
 11
-62.8110465491
 21
36.4913887453
  0
LINE
  5
77A
100
AcDbEntity
  8
SUPERFICI
100
AcDbLine
 62
250
  6
CONTINUOUS
 10
-61.8456977184
 20
37.7876212838
 11
-61.8484725198
 21
37.6000243155
  0
LINE
  5
77B
100
AcDbEntity
  8
SUPERFICI
100
AcDbLine
 62
250
  6
CONTINUOUS
 10
-61.8755090954
 20
36.4747221745
 11
-61.876830931
 21
36.38079777
  0
LINE
  5
77C
100
AcDbEntity
  8
SUPERFICI
100
AcDbLine
 62
250
  6
CONTINUOUS
 10
-62.781769924
 20
37.7551560124
 11
-62.7838186792
 21
37.6238296152
  0
LWPOLYLINE
  5
77D
100
AcDbEntity
  8
SUPERFICI
100
AcDbPolyline
 62
250
  6
CONTINUOUS
 90
19
 70
0
 10
-62.7792568761
 20
-38.5184385128
 10
-62.7806316244
 20
-38.6063606953
 10
-62.781493417
 20
-38.6458973388
 10
-62.7824648944
 20
-38.6822587569
 10
-62.7835437995
 20
-38.7155144928
 10
-62.7847279328
 20
-38.7457472658
 10
-62.7860052786
 20
-38.7728590289
 10
-62.7873705522
 20
-38.7969918859
 10
-62.788819091
 20
-38.818291693
 10
-62.7903340425
 20
-38.8367688264
 10
-62.7919076571
 20
-38.8526173916
 10
-62.7935325239
 20
-38.8660327095
 10
-62.7951862256
 20
-38.8771187934
 10
-62.7968580506
 20
-38.8861077095
 10
-62.7985369088
 20
-38.8932244937
 10
-62.8001937581
 20
-38.8986361267
 10
-62.8018083511
 20
-38.9025726109
 10
-62.8033725353
 20
-38.9052820205
 10
-62.8048728522
 20
-38.9069761685
  0
LINE
  5
77E
100
AcDbEntity
  8
SUPERFICI
100
AcDbLine
 62
250
  6
CONTINUOUS
 10
-61.8484725198
 20
37.6000243155
 11
-61.8530366821
 21
37.341524067
  0
LINE
  5
77F
100
AcDbEntity
  8
SUPERFICI
100
AcDbLine
 62
250
  6
CONTINUOUS
 10
-62.8076783412
 20
36.7089149599
 11
-62.809732928
 21
36.5956552819
  0
LINE
  5
780
100
AcDbEntity
  8
SUPERFICI
100
AcDbLine
 62
250
  6
CONTINUOUS
 10
-62.7838186792
 20
37.6238296152
 11
-62.786209002
 21
37.4963767683
  0
LINE
  5
781
100
AcDbEntity
  8
SUPERFICI
100
AcDbLine
 62
250
  6
CONTINUOUS
 10
-61.8735729934
 20
36.5742644232
 11
-61.8755090954
 21
36.4747221745
  0
LINE
  5
782
100
AcDbEntity
  8
SUPERFICI
100
AcDbLine
 62
250
  6
CONTINUOUS
 10
-61.8530366821
 20
37.341524067
 11
-61.8576491036
 21
37.1212959982
  0
LINE
  5
783
100
AcDbEntity
  8
SUPERFICI
100
AcDbLine
 62
250
  6
CONTINUOUS
 10
-62.786209002
 20
37.4963767683
 11
-62.7888607962
 21
37.375552283
  0
LINE
  5
784
100
AcDbEntity
  8
SUPERFICI
100
AcDbLine
 62
250
  6
CONTINUOUS
 10
-61.8576491036
 20
37.1212959982
 11
-61.8605409146
 21
37.0
  0
LINE
  5
785
100
AcDbEntity
  8
SUPERFICI
100
AcDbLine
 62
250
  6
CONTINUOUS
 10
-62.8047669972
 20
36.8325332329
 11
-62.8076783412
 21
36.7089149599
  0
LINE
  5
786
100
AcDbEntity
  8
SUPERFICI
100
AcDbLine
 62
250
  6
CONTINUOUS
 10
-62.7888607962
 20
37.375552283
 11
-62.7930999477
 21
37.2120285774
  0
LINE
  5
787
100
AcDbEntity
  8
SUPERFICI
100
AcDbLine
 62
250
  6
CONTINUOUS
 10
-61.8693229138
 20
36.740980478
 11
-61.8735729934
 21
36.5742644232
  0
LINE
  5
788
100
AcDbEntity
  8
SUPERFICI
100
AcDbLine
 62
250
  6
CONTINUOUS
 10
-62.8008796308
 20
36.9668469368
 11
-62.8047669972
 21
36.8325332329
  0
LWPOLYLINE
  5
789
100
AcDbEntity
  8
SUPERFICI
100
AcDbPolyline
 62
250
  6
CONTINUOUS
 90
3
 70
0
 10
-62.7930999477
 20
37.2120285774
 10
-62.7972476251
 20
37.0763986204
 10
-62.8008796308
 20
36.9668469368
  0
LINE
  5
78A
100
AcDbEntity
  8
SUPERFICI
100
AcDbLine
 62
250
  6
CONTINUOUS
 10
-61.865403745
 20
36.8652042576
 11
-61.8693229138
 21
36.740980478
  0
LINE
  5
78B
100
AcDbEntity
  8
SUPERFICI
100
AcDbLine
 62
250
  6
CONTINUOUS
 10
-61.8605409146
 20
37.0
 11
-61.865403745
 21
36.8652042576
  0
LWPOLYLINE
  5
78C
100
AcDbEntity
  8
SUPERFICI
100
AcDbPolyline
 62
250
  6
CONTINUOUS
 90
14
 70
0
 10
-65.6752605103
 20
-25.6801067117
 10
-65.6754594746
 20
-25.6817934989
 10
-65.67564194
 20
-25.6834166012
 10
-65.6758070663
 20
-25.6849753264
 10
-65.6759543634
 20
-25.6864691977
 10
-65.6760836959
 20
-25.6879014807
 10
-65.6761943444
 20
-25.6892705635
 10
-65.6762855208
 20
-25.6905750161
 10
-65.6763566755
 20
-25.6918174235
 10
-65.676406934
 20
-25.6929964068
 10
-65.6764354665
 20
-25.6941111996
 10
-65.6764415155
 20
-25.6951646929
 10
-65.6764242324
 20
-25.6961563749
 10
-65.6763775144
 20
-25.697172389
  0
LINE
  5
78D
100
AcDbEntity
  8
SUPERFICI
100
AcDbLine
 62
250
  6
CONTINUOUS
 10
-65.6748153944
 20
-25.6765283166
 11
-65.6752605103
 21
-25.6801067117
  0
LINE
  5
78E
100
AcDbEntity
  8
SUPERFICI
100
AcDbLine
 62
250
  6
CONTINUOUS
 10
-65.6743111617
 20
-25.6726918052
 11
-65.6748153944
 21
-25.6765283166
  0
LINE
  5
78F
100
AcDbEntity
  8
SUPERFICI
100
AcDbLine
 62
250
  6
CONTINUOUS
 10
-65.6734510912
 20
-25.6665186043
 11
-65.6743111617
 21
-25.6726918052
  0
LINE
  5
790
100
AcDbEntity
  8
SUPERFICI
100
AcDbLine
 62
250
  6
CONTINUOUS
 10
-65.6724923838
 20
-25.6598161973
 11
-65.6734510912
 21
-25.6665186043
  0
LINE
  5
791
100
AcDbEntity
  8
SUPERFICI
100
AcDbLine
 62
250
  6
CONTINUOUS
 10
-66.4596455262
 20
-0.0002832793
 11
-65.7340081106
 21
0.0
  0
LWPOLYLINE
  5
792
100
AcDbEntity
  8
0
100
AcDbPolyline
 62
7
  6
CONTINUOUS
 90
4
 70
0
 43
0.3500000006
 10
-75.6382175903
 20
-2.3571432495
 10
-76.4953645935
 20
-2.3571432495
 10
-76.9239335632
 20
-1.9285708809
 10
-76.9239335632
 20
-1.2857140274
  0
LWPOLYLINE
  5
793
100
AcDbEntity
  8
0
100
AcDbPolyline
 62
7
  6
CONTINUOUS
 90
13
 70
0
 43
0.3500000006
 10
-76.0667865601
 20
-0.0000003204
 10
-77.352502533
 20
-0.0000003204
 10
-77.7810715027
 20
0.2142864304
 10
-78.2096495361
 20
0.642857666
 10
-78.2096495361
 20
0.8571421509
 10
-77.7810715027
 20
1.2857133865
 10
-77.352502533
 20
1.5000001373
 10
-76.0667865601
 20
1.5000001373
 10
-75.6382175903
 20
1.2857133865
 10
-75.2096440887
 20
0.8571421509
 10
-75.2096440887
 20
0.642857666
 10
-75.6382175903
 20
0.2142864304
 10
-76.0667865601
 20
-0.0000003204
  0
LINE
  5
794
100
AcDbEntity
  8
SUPERFICI
100
AcDbLine
 62
250
  6
CONTINUOUS
 10
-61.9264367095
 20
0.0003242561
 11
-62.910750521
 21
0.0
  0
LINE
  5
795
100
AcDbEntity
  8
SUPERFICI
100
AcDbLine
 62
250
  6
CONTINUOUS
 10
-62.910750521
 20
0.0
 11
-65.734008111
 21
0.0
  0
LINE
  5
796
100
AcDbEntity
  8
SUPERFICI
100
AcDbLine
 62
250
  6
CONTINUOUS
 10
-65.6737336412
 20
25.6685168004
 11
-65.6724923731
 21
25.6598160321
  0
LINE
  5
797
100
AcDbEntity
  8
SUPERFICI
100
AcDbLine
 62
250
  6
CONTINUOUS
 10
-65.674288983
 20
25.6725276327
 11
-65.6737336412
 21
25.6685168004
  0
LINE
  5
798
100
AcDbEntity
  8
SUPERFICI
100
AcDbLine
 62
250
  6
CONTINUOUS
 10
-65.674789573
 20
25.676328033
 11
-65.674288983
 21
25.6725276327
  0
LINE
  5
799
100
AcDbEntity
  8
SUPERFICI
100
AcDbLine
 62
250
  6
CONTINUOUS
 10
-61.8431975937
 20
39.4764677216
 11
-61.841141778
 21
39.3695223951
  0
LINE
  5
79A
100
AcDbEntity
  8
SUPERFICI
100
AcDbLine
 62
250
  6
CONTINUOUS
 10
-61.841141778
 20
39.3695223951
 11
-61.8395719466
 21
39.2439078403
  0
LINE
  5
79B
100
AcDbEntity
  8
RACCORDO
100
AcDbLine
 62
7
  6
CONTINUOUS
 10
-59.8596455814
 20
2.2629529151
 11
-59.8596455814
 21
-2.2629529151
  0
LINE
  5
79C
100
AcDbEntity
  8
SUPERFICI
100
AcDbLine
 62
250
  6
CONTINUOUS
 10
-61.8394002475
 20
-39.225739186
 11
-61.84092272
 21
-39.3551033453
  0
LWPOLYLINE
  5
79D
100
AcDbEntity
  8
SUPERFICI
100
AcDbPolyline
 62
250
  6
CONTINUOUS
 90
17
 70
0
 10
-61.84092272
 20
-39.3551033453
 10
-61.8429518299
 20
-39.4657708995
 10
-61.8441460877
 20
-39.5138405577
 10
-61.8454578914
 20
-39.5572298124
 10
-61.8468655742
 20
-39.5958079798
 10
-61.8483730227
 20
-39.6297975358
 10
-61.8499763501
 20
-39.6594295704
 10
-61.8516422296
 20
-39.6847547201
 10
-61.8533748084
 20
-39.7060842628
 10
-61.8551699391
 20
-39.723727106
 10
-61.8569818531
 20
-39.7378766799
 10
-61.858814913
 20
-39.7488989964
 10
-61.8606647562
 20
-39.7571469237
 10
-61.8624725251
 20
-39.762911082
 10
-61.8642186007
 20
-39.7665619169
 10
-61.8659226021
 20
-39.7684777921
 10
-61.8675845293
 20
-39.7689897085
  0
LINE
  5
79E
100
AcDbEntity
  8
0
100
AcDbLine
 62
7
  6
CONTINUOUS
 10
-57.4596455814
 20
-40.0
 11
-57.4596455814
 21
-3.7099727925
  0
LINE
  5
79F
100
AcDbEntity
  8
0
100
AcDbLine
 62
7
  6
CONTINUOUS
 10
-57.4596455814
 20
3.7099727925
 11
-57.4596455814
 21
40.0
  0
LINE
  5
7A0
100
AcDbEntity
  8
0
100
AcDbLine
 62
7
  6
CONTINUOUS
 10
-57.2596455814
 20
39.0091092099
 11
-57.2596455814
 21
37.0000000001
  0
LINE
  5
7A1
100
AcDbEntity
  8
0
100
AcDbLine
 62
7
  6
CONTINUOUS
 10
-57.2596455814
 20
-39.0091092099
 11
-57.2596455814
 21
-37.0000000001
  0
LINE
  5
7A2
100
AcDbEntity
  8
RACCORDO
100
AcDbLine
 62
7
  6
CONTINUOUS
 10
-57.2596455814
 20
-37.0000000001
 11
-57.2596455814
 21
-4.2031338449
  0
LINE
  5
7A3
100
AcDbEntity
  8
RACCORDO
100
AcDbLine
 62
7
  6
CONTINUOUS
 10
-57.2596455814
 20
4.2031338449
 11
-57.2596455814
 21
37.0000000001
  0
LWPOLYLINE
  5
7A4
100
AcDbEntity
  8
SUPERFICI
100
AcDbPolyline
 62
250
  6
CONTINUOUS
 90
6
 70
0
 10
-62.8204197423
 20
-38.9304676075
 10
-62.8219346364
 20
-38.9392108691
 10
-62.8226912879
 20
-38.9418611108
 10
-62.8234993583
 20
-38.9437313012
 10
-62.8243383
 20
-38.9453585477
 10
-62.8252327419
 20
-38.9468156299
  0
LINE
  5
7A5
100
AcDbEntity
  8
RACCORDO
100
AcDbLine
 62
7
  6
CONTINUOUS
 10
-57.4596455814
 20
3.7099727925
 11
-58.6273058341
 21
3.6078157575
  0
LWPOLYLINE
  5
7A6
100
AcDbEntity
  8
SUPERFICI
100
AcDbPolyline
 62
250
  6
CONTINUOUS
 90
6
 70
0
 10
-66.2605336833
 20
24.0988144567
 10
-66.2604613076
 20
24.098612394
 10
-66.2604084939
 20
24.0977858962
 10
-66.2603777983
 20
24.0963864226
 10
-66.2603702831
 20
24.0944749204
 10
-66.2603848918
 20
24.0921002004
  0
LWPOLYLINE
  5
7A7
100
AcDbEntity
  8
SUPERFICI
100
AcDbPolyline
 62
250
  6
CONTINUOUS
 90
9
 70
0
 10
-62.8220300853
 20
38.9398254187
 10
-62.8205554372
 20
38.9309281775
 10
-62.8193537087
 20
38.9264201967
 10
-62.8177261456
 20
38.9227679922
 10
-62.815813044
 20
38.9194763827
 10
-62.8135948022
 20
38.9162770556
 10
-62.8110347235
 20
38.9130820281
 10
-62.8081318609
 20
38.9099815316
 10
-62.8048743621
 20
38.9069763769
  0
LWPOLYLINE
  5
7A8
100
AcDbEntity
  8
SUPERFICI
100
AcDbPolyline
 62
250
  6
CONTINUOUS
 90
31
 70
0
 10
-62.8907102287
 20
-39.0427957813
 10
-62.8932198767
 20
-39.0468307815
 10
-62.8957305854
 20
-39.0509532532
 10
-62.8982058803
 20
-39.0550594955
 10
-62.9006353259
 20
-39.0591694449
 10
-62.9029766283
 20
-39.0632658032
 10
-62.9051600739
 20
-39.0671895698
 10
-62.907170277
 20
-39.070916484
 10
-62.9089963063
 20
-39.0744737831
 10
-62.9106029323
 20
-39.0777794176
 10
-62.9119912548
 20
-39.080803169
 10
-62.9131741442
 20
-39.0835766314
 10
-62.9141528446
 20
-39.0861097401
 10
-62.9149355891
 20
-39.0883914998
 10
-62.9155509415
 20
-39.0904325423
 10
-62.9160240668
 20
-39.0922753344
 10
-62.9163411361
 20
-39.0939773896
 10
-62.9165216699
 20
-39.0954817622
 10
-62.9166357346
 20
-39.0966595561
 10
-62.9168712615
 20
-39.0973056018
 10
-62.9173091908
 20
-39.0976119531
 10
-62.9179102443
 20
-39.0980426506
 10
-62.9185943935
 20
-39.0987359743
 10
-62.9193070715
 20
-39.0995604109
 10
-62.9199338093
 20
-39.1005808936
 10
-62.9203529583
 20
-39.101938226
 10
-62.9205549127
 20
-39.1034976912
 10
-62.920616092
 20
-39.1049103151
 10
-62.9205652077
 20
-39.1060658253
 10
-62.9203756821
 20
-39.107075052
 10
-62.9202301236
 20
-39.1075334757
  0
LINE
  5
7A9
100
AcDbEntity
  8
SUPERFICI
100
AcDbLine
 62
250
  6
CONTINUOUS
 10
-62.8858023595
 20
-39.0350559857
 11
-62.8907102287
 21
-39.0427957813
  0
LINE
  5
7AA
100
AcDbEntity
  8
SUPERFICI
100
AcDbLine
 62
250
  6
CONTINUOUS
 10
-62.8787494789
 20
-39.0240974454
 11
-62.8858023595
 21
-39.0350559857
  0
LINE
  5
7AB
100
AcDbEntity
  8
SUPERFICI
100
AcDbLine
 62
250
  6
CONTINUOUS
 10
-62.8720741844
 20
-39.0138645378
 11
-62.8787494789
 21
-39.0240974454
  0
LINE
  5
7AC
100
AcDbEntity
  8
SUPERFICI
100
AcDbLine
 62
250
  6
CONTINUOUS
 10
-62.8657592823
 20
-39.0043180018
 11
-62.8720741844
 21
-39.0138645378
  0
LINE
  5
7AD
100
AcDbEntity
  8
SUPERFICI
100
AcDbLine
 62
250
  6
CONTINUOUS
 10
-62.8597995967
 20
-38.9954364954
 11
-62.8657592823
 21
-39.0043180018
  0
LINE
  5
7AE
100
AcDbEntity
  8
SUPERFICI
100
AcDbLine
 62
250
  6
CONTINUOUS
 10
-62.8560304962
 20
-38.9898869285
 11
-62.8597995967
 21
-38.9954364954
  0
LINE
  5
7AF
100
AcDbEntity
  8
SUPERFICI
100
AcDbLine
 62
250
  6
CONTINUOUS
 10
-62.8524316448
 20
-38.984637147
 11
-62.8560304962
 21
-38.9898869285
  0
LINE
  5
7B0
100
AcDbEntity
  8
SUPERFICI
100
AcDbLine
 62
250
  6
CONTINUOUS
 10
-62.8473555811
 20
-38.9773170516
 11
-62.8524316448
 21
-38.984637147
  0
LINE
  5
7B1
100
AcDbEntity
  8
SUPERFICI
100
AcDbLine
 62
250
  6
CONTINUOUS
 10
-62.8426557037
 20
-38.9706236684
 11
-62.8473555811
 21
-38.9773170516
  0
LINE
  5
7B2
100
AcDbEntity
  8
SUPERFICI
100
AcDbLine
 62
250
  6
CONTINUOUS
 10
-62.83831792
 20
-38.964514849
 11
-62.8426557037
 21
-38.9706236684
  0
LINE
  5
7B3
100
AcDbEntity
  8
SUPERFICI
100
AcDbLine
 62
250
  6
CONTINUOUS
 10
-62.8343210031
 20
-38.9589482334
 11
-62.83831792
 21
-38.964514849
  0
LWPOLYLINE
  5
7B4
100
AcDbEntity
  8
SUPERFICI
100
AcDbPolyline
 62
250
  6
CONTINUOUS
 90
9
 70
0
 10
-66.2684044949
 20
22.1990020202
 10
-66.0577929231
 20
22.1939997262
 10
-65.9694046729
 20
22.1915196649
 10
-65.8928217797
 20
22.1890680052
 10
-65.8283759851
 20
22.1866553631
 10
-65.7763464552
 20
22.1842921858
 10
-65.7369585714
 20
22.1819887059
 10
-65.710382954
 20
22.1797548977
 10
-65.6967347231
 20
22.1776004335
  0
LWPOLYLINE
  5
7B5
100
AcDbEntity
  8
SUPERFICI
100
AcDbPolyline
 62
250
  6
CONTINUOUS
 90
7
 70
0
 10
-66.2684055254
 20
22.1990020256
 10
-66.325478529
 20
22.2009253782
 10
-66.3730475642
 20
22.2005158831
 10
-66.4105967893
 20
22.1981268178
 10
-66.4377171155
 20
22.1920444478
 10
-66.4541245611
 20
22.1850521628
 10
-66.4596458902
 20
22.1829855177
  0
LINE
  5
7B6
100
AcDbEntity
  8
SUPERFICI
100
AcDbLine
 62
250
  6
CONTINUOUS
 10
-62.8286831925
 20
38.9511890313
 11
-62.8275694946
 21
38.9496853212
  0
LINE
  5
7B7
100
AcDbEntity
  8
SUPERFICI
100
AcDbLine
 62
250
  6
CONTINUOUS
 10
-62.8310227895
 20
38.9543914864
 11
-62.8286831925
 21
38.9511890313
  0
LINE
  5
7B8
100
AcDbEntity
  8
SUPERFICI
100
AcDbLine
 62
250
  6
CONTINUOUS
 10
-62.8361577254
 20
38.9614989993
 11
-62.8310227895
 21
38.9543914864
  0
LINE
  5
7B9
100
AcDbEntity
  8
SUPERFICI
100
AcDbLine
 62
250
  6
CONTINUOUS
 10
-62.8404693838
 20
38.9675367502
 11
-62.8361577254
 21
38.9614989993
  0
LINE
  5
7BA
100
AcDbEntity
  8
SUPERFICI
100
AcDbLine
 62
250
  6
CONTINUOUS
 10
-62.8452356374
 20
38.9742884144
 11
-62.8404693838
 21
38.9675367502
  0
LINE
  5
7BB
100
AcDbEntity
  8
SUPERFICI
100
AcDbLine
 62
250
  6
CONTINUOUS
 10
-62.8486967291
 20
38.9792415182
 11
-62.8452356374
 21
38.9742884144
  0
LINE
  5
7BC
100
AcDbEntity
  8
SUPERFICI
100
AcDbLine
 62
250
  6
CONTINUOUS
 10
-62.85240845
 20
38.9846037651
 11
-62.8486967291
 21
38.9792415182
  0
LINE
  5
7BD
100
AcDbEntity
  8
SUPERFICI
100
AcDbLine
 62
250
  6
CONTINUOUS
 10
-62.8563908608
 20
38.99041534
 11
-62.85240845
 21
38.9846037651
  0
LINE
  5
7BE
100
AcDbEntity
  8
SUPERFICI
100
AcDbLine
 62
250
  6
CONTINUOUS
 10
-62.8606511995
 20
38.9966977141
 11
-62.8563908608
 21
38.99041534
  0
LINE
  5
7BF
100
AcDbEntity
  8
SUPERFICI
100
AcDbLine
 62
250
  6
CONTINUOUS
 10
-62.8651959526
 20
39.0034748593
 11
-62.8606511995
 21
38.9966977141
  0
LINE
  5
7C0
100
AcDbEntity
  8
SUPERFICI
100
AcDbLine
 62
250
  6
CONTINUOUS
 10
-62.8700437939
 20
39.0107806267
 11
-62.8651959526
 21
39.0034748593
  0
LINE
  5
7C1
100
AcDbEntity
  8
SUPERFICI
100
AcDbLine
 62
250
  6
CONTINUOUS
 10
-62.8779317456
 20
39.022835744
 11
-62.8700437939
 21
39.0107806267
  0
LWPOLYLINE
  5
7C2
100
AcDbEntity
  8
SUPERFICI
100
AcDbPolyline
 62
250
  6
CONTINUOUS
 90
3
 70
0
 10
-62.8865844308
 20
39.0362813736
 10
-62.8836230327
 20
39.0316465536
 10
-62.8779317456
 20
39.022835744
  0
LWPOLYLINE
  5
7C3
100
AcDbEntity
  8
0
100
AcDbPolyline
 62
7
  6
CONTINUOUS
 90
10
 70
0
 43
0.3500000006
 10
-62.0739335632
 20
50.3158085632
 10
-62.0025023804
 20
50.1729507294
 10
-62.0025023804
 20
50.1015240784
 10
-62.1453602142
 20
49.9586662445
 10
-62.2167868652
 20
49.9586662445
 10
-62.2882180481
 20
50.0300928955
 10
-62.2882180481
 20
50.1015240784
 10
-62.2167868652
 20
50.2443773804
 10
-62.1453602142
 20
50.3158085632
 10
-62.0739335632
 20
50.3158085632
  0
LWPOLYLINE
  5
7C4
100
AcDbEntity
  8
SUPERFICI
100
AcDbPolyline
 62
250
  6
CONTINUOUS
 90
5
 70
0
 10
-62.8252327419
 20
-38.9468156299
 10
-62.8272895175
 20
-38.9493066595
 10
-62.8283774704
 20
-38.9507677527
 10
-62.8295018351
 20
-38.952299291
 10
-62.8343210031
 20
-38.9589482334
  0
LWPOLYLINE
  5
7C5
100
AcDbEntity
  8
0
100
AcDbPolyline
 62
7
  6
CONTINUOUS
 90
18
 70
0
 10
-65.4533132443
 20
-27.14213
 10
-65.4528694207
 20
-27.1419223367
 10
-65.4524834397
 20
-27.1412848466
 10
-65.4521553015
 20
-27.1401959211
 10
-65.4518816871
 20
-27.1386304167
 10
-65.4516659153
 20
-27.1365691877
 10
-65.4515179428
 20
-27.1340090114
 10
-65.4514395211
 20
-27.1309401579
 10
-65.4514288987
 20
-27.127351492
 10
-65.4514907775
 20
-27.1232548741
 10
-65.4516265545
 20
-27.1186516943
 10
-65.4518348327
 20
-27.1135392727
 10
-65.4521161237
 20
-27.1079364627
 10
-65.4524706865
 20
-27.1018566507
 10
-65.452898262
 20
-27.0952999238
 10
-65.4533985841
 20
-27.0882703347
 10
-65.4539727242
 20
-27.0807680705
 10
-65.4553357639
 20
-27.0644198141
  0
LWPOLYLINE
  5
7C6
100
AcDbEntity
  8
SUPERFICI
100
AcDbPolyline
 62
250
  6
CONTINUOUS
 90
17
 70
0
 10
-62.8048728548
 20
38.9069761689
 10
-62.8033711365
 20
38.9052800687
 10
-62.8018137346
 20
38.9025837541
 10
-62.8002130377
 20
38.8986905771
 10
-62.7985768483
 20
38.8933728048
 10
-62.7969232873
 20
38.8864180129
 10
-62.7952779856
 20
38.8776666937
 10
-62.7936512042
 20
38.8669093664
 10
-62.7920528795
 20
38.8539305249
 10
-62.7905029827
 20
38.8386221064
 10
-62.7890085378
 20
38.8207981478
 10
-62.7875769346
 20
38.8002740966
 10
-62.7862234406
 20
38.7770196702
 10
-62.7849527443
 20
38.7508900517
 10
-62.7837701933
 20
38.7217436712
 10
-62.7826870474
 20
38.6896407217
 10
-62.7817059811
 20
38.6544887846
  0
LWPOLYLINE
  5
7C7
100
AcDbEntity
  8
SUPERFICI
100
AcDbPolyline
 62
250
  6
CONTINUOUS
 90
6
 70
0
 10
-62.8275694946
 20
38.9496853212
 10
-62.8254606129
 20
38.9470562335
 10
-62.8245268812
 20
38.9455887527
 10
-62.8236388849
 20
38.9440745864
 10
-62.8227935358
 20
38.94237615
 10
-62.8220300853
 20
38.9398254187
  0
LWPOLYLINE
  5
7C8
100
AcDbEntity
  8
SUPERFICI
100
AcDbPolyline
 62
250
  6
CONTINUOUS
 90
8
 70
0
 10
-62.8048744348
 20
-38.906976387
 10
-62.8080876457
 20
-38.9099398274
 10
-62.810954057
 20
-38.9129916907
 10
-62.8134860665
 20
-38.9161311544
 10
-62.8156861367
 20
-38.9192675816
 10
-62.8175889962
 20
-38.9224894189
 10
-62.8192111502
 20
-38.9260662001
 10
-62.8204197423
 20
-38.9304676075
  0
LWPOLYLINE
  5
7C9
100
AcDbEntity
  8
SUPERFICI
100
AcDbPolyline
 62
250
  6
CONTINUOUS
 90
13
 70
0
 10
-61.867584528
 20
39.7689896843
 10
-61.9818292306
 20
39.7563742479
 10
-62.0938687245
 20
39.7307058749
 10
-62.2022198216
 20
39.6923243653
 10
-62.305448161
 20
39.6417378168
 10
-62.4021871974
 20
39.5796158983
 10
-62.4911562914
 20
39.5067809848
 10
-62.5711776626
 20
39.4241972712
 10
-62.6411919815
 20
39.3329580074
 10
-62.7002723927
 20
39.2342710264
 10
-62.7476367848
 20
39.1294427547
 10
-62.7826581441
 20
39.0198609177
 10
-62.8048728548
 20
38.9069761689
  0
LWPOLYLINE
  5
7CA
100
AcDbEntity
  8
SUPERFICI
100
AcDbPolyline
 62
7
  6
CONTINUOUS
 90
42
 70
0
 10
-62.0343034757
 20
39.7602523388
 10
-62.0632641218
 20
39.7583127574
 10
-62.092156277
 20
39.7555334845
 10
-62.1209556002
 20
39.7519168615
 10
-62.1496378286
 20
39.7474659354
 10
-62.1781787978
 20
39.7421844559
 10
-62.2065544628
 20
39.7360768728
 10
-62.2347409174
 20
39.7291483314
 10
-62.2627144153
 20
39.721404669
 10
-62.2904513893
 20
39.7128524096
 10
-62.3179284715
 20
39.7034987581
 10
-62.345122513
 20
39.693351595
 10
-62.3720106034
 20
39.682419469
 10
-62.39857009
 20
39.6707115902
 10
-62.424778597
 20
39.6582378224
 10
-62.4506140442
 20
39.6450086744
 10
-62.4760546658
 20
39.6310352916
 10
-62.5010790285
 20
39.6163294464
 10
-62.5256660497
 20
39.6009035281
 10
-62.5497950156
 20
39.5847705328
 10
-62.5734455978
 20
39.5679440523
 10
-62.5965978712
 20
39.5504382626
 10
-62.6192323305
 20
39.5322679121
 10
-62.6413299067
 20
39.5134483088
 10
-62.6628719829
 20
39.4939953081
 10
-62.6838404106
 20
39.4739252986
 10
-62.7042175241
 20
39.4532551891
 10
-62.7239861563
 20
39.4320023937
 10
-62.7431296525
 20
39.4101848174
 10
-62.7616318847
 20
39.3878208411
 10
-62.7794772653
 20
39.3649293061
 10
-62.7966507599
 20
39.341529498
 10
-62.8131379002
 20
39.3176411307
 10
-62.8289247961
 20
39.2932843297
 10
-62.8439981477
 20
39.268479615
 10
-62.8583452559
 20
39.2432478842
 10
-62.8719540336
 20
39.2176103945
 10
-62.8848130157
 20
39.1915887449
 10
-62.8969113689
 20
39.1652048582
 10
-62.9082389005
 20
39.1384809622
 10
-62.9187860674
 20
39.1114395714
 10
-62.9284587282
 20
39.0851653237
  0
LINE
  5
7CB
100
AcDbEntity
  8
0
100
AcDbLine
 62
7
  6
CONTINUOUS
 10
-57.2596455814
 20
39.0091092099
 11
-57.4596455814
 21
38.998627654
  0
LINE
  5
7CC
100
AcDbEntity
  8
SUPERFICI
100
AcDbLine
 62
7
  6
CONTINUOUS
 10
-62.0342905998
 20
39.7602530136
 11
-61.8675845293
 21
39.7689897085
  0
LINE
  5
7CD
100
AcDbEntity
  8
0
100
AcDbLine
 62
7
  6
CONTINUOUS
 10
-57.4596455814
 20
40.0
 11
-61.8675845293
 21
39.7689897085
  0
LINE
  5
7CE
100
AcDbEntity
  8
0
100
AcDbLine
 62
250
  6
CONTINUOUS
 10
-61.8605409146
 20
37.0
 11
-57.2596455814
 21
37.0
  0
LWPOLYLINE
  5
7CF
100
AcDbEntity
  8
0
100
AcDbPolyline
 62
7
  6
CONTINUOUS
 90
7
 70
0
 43
0.3500000006
 10
-59.5025016174
 20
49.8158084106
 10
-61.0025020752
 20
49.8158084106
 10
-59.5025016174
 20
51.9586668549
 10
-59.5025016174
 20
52.3872358246
 10
-59.931075119
 20
52.8158093262
 10
-60.5739331055
 20
52.8158093262
 10
-61.0025020752
 20
52.1729513397
  0
LINE
  5
7D0
100
AcDbEntity
  8
SUPERFICI
100
AcDbLine
 62
250
  6
CONTINUOUS
 10
-61.8605409146
 20
37.0
 11
-62.3963791746
 21
37.0210739148
  0
LINE
  5
7D1
100
AcDbEntity
  8
SUPERFICI
100
AcDbLine
 62
250
  6
CONTINUOUS
 10
-62.3963791746
 20
37.0210739148
 11
-62.6945851337
 21
37.0332897601
  0
LWPOLYLINE
  5
7D2
100
AcDbEntity
  8
SUPERFICI
100
AcDbPolyline
 62
250
  6
CONTINUOUS
 90
3
 70
0
 10
-62.6945851337
 20
37.0332897601
 10
-62.7766121028
 20
37.0368925445
 10
-62.7985376886
 20
37.0379684234
  0
LWPOLYLINE
  5
7D3
100
AcDbEntity
  8
SUPERFICI
100
AcDbPolyline
 62
250
  6
CONTINUOUS
 90
16
 70
0
 10
-61.8675845293
 20
39.7689897085
 10
-61.8659231213
 20
39.7684766352
 10
-61.8642261496
 20
39.7665710583
 10
-61.8624936141
 20
39.7629655679
 10
-61.8607078533
 20
39.7573122129
 10
-61.8588865288
 20
39.7492693754
 10
-61.8570826251
 20
39.738562207
 10
-61.855299897
 20
39.7248625079
 10
-61.8535345896
 20
39.7078303426
 10
-61.8518284233
 20
39.6872701209
 10
-61.8501849059
 20
39.6628883968
 10
-61.8486005294
 20
39.6343891686
 10
-61.8471064904
 20
39.6016944928
 10
-61.8457060672
 20
39.5645747159
 10
-61.8443959813
 20
39.5228076787
 10
-61.8431975937
 20
39.4764677216
  0
ARC
  5
7D4
100
AcDbEntity
  8
0
100
AcDbCircle
 62
7
  6
CONTINUOUS
 10
-37.0
 20
37.0
 40
3.0
100
AcDbArc
 50
90.0000000031
 51
179.9999999964
  0
ARC
  5
7D5
100
AcDbEntity
  8
0
100
AcDbCircle
 62
7
  6
CONTINUOUS
 10
37.0
 20
37.0
 40
3.0
100
AcDbArc
 50
0.0000000036
 51
89.9999999969
  0
ARC
  5
7D6
100
AcDbEntity
  8
0
100
AcDbCircle
 62
7
  6
CONTINUOUS
 10
37.0
 20
-37.0
 40
3.0
100
AcDbArc
 50
270.0000000031
 51
359.9999999964
  0
ARC
  5
7D7
100
AcDbEntity
  8
0
100
AcDbCircle
 62
7
  6
CONTINUOUS
 10
-37.0
 20
-37.0
 40
3.0
100
AcDbArc
 50
180.0000000036
 51
269.9999999969
  0
ARC
  5
7D8
100
AcDbEntity
  8
0
100
AcDbCircle
 62
7
  6
CONTINUOUS
 10
12.78733
 20
-26.789265
 40
0.8893898871
100
AcDbArc
 50
292.842868527
 51
90.0
  0
ARC
  5
7D9
100
AcDbEntity
  8
0
100
AcDbCircle
 62
7
  6
CONTINUOUS
 10
12.706824
 20
-26.789265
 40
0.352865
100
AcDbArc
 50
270.0
 51
90.0
  0
ARC
  5
7DA
100
AcDbEntity
  8
SUPERFICI
100
AcDbCircle
 62
7
  6
CONTINUOUS
 10
-10.95
 20
-22.2
 40
0.3
100
AcDbArc
 50
180.0
 51
270.0
  0
ARC
  5
7DB
100
AcDbEntity
  8
SUPERFICI
100
AcDbCircle
 62
7
  6
CONTINUOUS
 10
-10.95
 20
22.2
 40
0.3
100
AcDbArc
 50
90.0
 51
180.0
  0
ARC
  5
7DC
100
AcDbEntity
  8
SUPERFICI
100
AcDbCircle
 62
7
  6
CONTINUOUS
 10
10.95
 20
22.2
 40
0.3
100
AcDbArc
 50
0.0
 51
90.0
  0
ARC
  5
7DD
100
AcDbEntity
  8
SUPERFICI
100
AcDbCircle
 62
7
  6
CONTINUOUS
 10
10.95
 20
-22.2
 40
0.3
100
AcDbArc
 50
270.0
 51
360.0
  0
ARC
  5
7DE
100
AcDbEntity
  8
SUPERFICI
100
AcDbCircle
 62
7
  6
CONTINUOUS
 10
-65.4596458969
 20
-23.5
 40
1.0
100
AcDbArc
 50
180.0
 51
216.785079262
  0
ARC
  5
7DF
100
AcDbEntity
  8
SUPERFICI
100
AcDbCircle
 62
7
  6
CONTINUOUS
 10
-61.9597889202
 20
-38.7627851352
 40
1.0
100
AcDbArc
 50
199.52731501
 51
265.3304116047
  0
ARC
  5
7E0
100
AcDbEntity
  8
SUPERFICI
100
AcDbCircle
 62
7
  6
CONTINUOUS
 10
-61.9597889202
 20
-38.7627851352
 40
1.0
100
AcDbArc
 50
265.7277522881
 51
266.993370661
  0
ARC
  5
7E1
100
AcDbEntity
  8
SUPERFICI
100
AcDbCircle
 62
7
  6
CONTINUOUS
 10
-61.9596419915
 20
38.7627928354
 40
1.0
100
AcDbArc
 50
93.0000034701
 51
94.2798956704
  0
ARC
  5
7E2
100
AcDbEntity
  8
SUPERFICI
100
AcDbCircle
 62
7
  6
CONTINUOUS
 10
-65.4596458969
 20
23.5
 40
1.0
100
AcDbArc
 50
143.2149201073
 51
180.0
  0
ARC
  5
7E3
100
AcDbEntity
  8
RACCORDO
100
AcDbCircle
 62
7
  6
CONTINUOUS
 10
-58.5096455814
 20
-2.2629529151
 40
1.35
100
AcDbArc
 50
180.0
 51
265.0
  0
ARC
  5
7E4
100
AcDbEntity
  8
RACCORDO
100
AcDbCircle
 62
7
  6
CONTINUOUS
 10
-57.5596455814
 20
-4.2031338449
 40
0.3
100
AcDbArc
 50
0.0
 51
70.5273101796
  0
ARC
  5
7E5
100
AcDbEntity
  8
RACCORDO
100
AcDbCircle
 62
7
  6
CONTINUOUS
 10
-58.5096455814
 20
2.2629529151
 40
1.35
100
AcDbArc
 50
95.0
 51
180.0
  0
ARC
  5
7E6
100
AcDbEntity
  8
RACCORDO
100
AcDbCircle
 62
7
  6
CONTINUOUS
 10
-57.5596455814
 20
4.2031338449
 40
0.3
100
AcDbArc
 50
289.4726898204
 51
360.0
  0
ELLIPSE
  5
7E7
100
AcDbEntity
  8
RACCORDO
100
AcDbEllipse
 62
7
  6
CONTINUOUS
 10
-39.9449718318
 20
-2.2629529151
 30
0.0
 11
0.0
 21
1.35
 31
0.0
 40
0.0524077793
 41
-3.054326191
 42
-1.5707963268
  0
ELLIPSE
  5
7E8
100
AcDbEntity
  8
RACCORDO
100
AcDbEllipse
 62
7
  6
CONTINUOUS
 10
-39.9449718318
 20
2.2629529151
 30
0.0
 11
0.0
 21
1.35
 31
0.0
 40
0.0524077793
 41
-1.5707963268
 42
-0.0872664626
  0
ELLIPSE
  5
7E9
100
AcDbEntity
  8
RACCORDO
100
AcDbEllipse
 62
7
  6
CONTINUOUS
 10
39.9449718318
 20
2.2629529151
 30
0.0
 11
0.0
 21
1.35
 31
0.0
 40
0.0524077793
 41
0.0872664626
 42
1.5707963268
  0
ELLIPSE
  5
7EA
100
AcDbEntity
  8
RACCORDO
100
AcDbEllipse
 62
7
  6
CONTINUOUS
 10
39.9449718318
 20
-2.2629529151
 30
0.0
 11
0.0
 21
1.35
 31
0.0
 40
0.0524077793
 41
1.5707963268
 42
3.054326191
  0
ENDSEC
  0
SECTION
  2
OBJECTS
  0
DICTIONARY
  5
C
100
AcDbDictionary
280
0
281
1
  3
ACAD_GROUP
350
D
  3
ACAD_MLINESTYLE
350
17
  3
ACAD_LAYOUT
350
1A
  3
ACAD_PLOTSETTINGS
350
19
  3
ACAD_PLOTSTYLENAME
350
E
  0
DICTIONARY
  5
D
102
{ACAD_REACTORS
330
C
102
}
100
AcDbDictionary
280
0
281
1
  0
ACDBDICTIONARYWDFLT
  5
E
102
{ACAD_REACTORS
330
C
102
}
100
AcDbDictionary
281
1
  3
Normal
350
F
100
AcDbDictionaryWithDefault
340
F
  0
DICTIONARY
  5
17
102
{ACAD_REACTORS
330
C
102
}
100
AcDbDictionary
280
0
281
1
  3
Standard
350
18
  0
DICTIONARY
  5
19
102
{ACAD_REACTORS
330
C
102
}
100
AcDbDictionary
281
1
  0
DICTIONARY
  5
1A
102
{ACAD_REACTORS
330
C
102
}
100
AcDbDictionary
281
1
  3
Model
350
7EB
  3
Layout1
350
7EC
  0
ACDBPLACEHOLDER
  5
F
102
{ACAD_REACTORS
330
E
102
}
  0
MLINESTYLE
  5
18
102
{ACAD_REACTORS
330
17
102
}
100
AcDbMlineStyle
  2
STANDARD
 70
0
  3

 62
256
 51
90.0
 52
90.0
 71
2
 49
0.5
 62
256
  6
BYLAYER
 49
-0.5
 62
256
  6
BYLAYER
  0
LAYOUT
  5
7EB
102
{ACAD_REACTORS
330
1A
102
}
100
AcDbPlotSettings
  1

  2
none_device
  4
ISO_A4_(297.00_x_210.00_MM)
  6

 40
0.0
 41
0.0
 42
0.0
 43
0.0
 44
297.0
 45
210.0
 46
0.0
 47
0.0
 48
0.0
 49
0.0
140
0.0
141
0.0
142
1.0
143
1.0
 70
1024
 72
1
 73
0
 74
0
  7

 75
0
147
1.0
148
0.0
149
0.0
100
AcDbLayout
  1
Model
 70
0
 71
0
 10
0.0
 20
0.0
 11
297.0
 21
210.0
 12
0.0
 22
0.0
 32
0.0
 14
0.0
 24
0.0
 34
0.0
 15
0.0
 25
0.0
 35
0.0
146
0.0
 13
0.0
 23
0.0
 33
0.0
 16
1.0
 26
0.0
 36
0.0
 17
0.0
 27
1.0
 37
0.0
 76
0
330
21B
345
0
346
0
  0
LAYOUT
  5
7EC
102
{ACAD_REACTORS
330
1A
102
}
100
AcDbPlotSettings
  1

  2
none_device
  4
ISO_A4_(297.00_x_210.00_MM)
  6

 40
0.0
 41
0.0
 42
0.0
 43
0.0
 44
297.0
 45
210.0
 46
0.0
 47
0.0
 48
0.0
 49
0.0
140
0.0
141
0.0
142
1.0
143
1.0
 70
0
 72
1
 73
0
 74
0
  7

 75
0
147
1.0
148
0.0
149
0.0
100
AcDbLayout
  1
Layout1
 70
0
 71
1
 10
0.0
 20
0.0
 11
297.0
 21
210.0
 12
0.0
 22
0.0
 32
0.0
 14
0.0
 24
0.0
 34
0.0
 15
0.0
 25
0.0
 35
0.0
146
0.0
 13
0.0
 23
0.0
 33
0.0
 16
1.0
 26
0.0
 36
0.0
 17
0.0
 27
1.0
 37
0.0
 76
0
330
21C
345
0
346
0
  0
ENDSEC
  0
EOF
