  0
SECTION
  2
HEADER
  9
$ACADVER
  1
AC1024
  9
$DWGCODEPAGE
  3
ANSI_1252
  9
$EXTMAX
 10
297.0
 20
210.0
 30
0.0
  9
$EXTMIN
 10
0.0
 20
0.0
 30
0.0
  9
$LIMMIN
 10
0.0
 20
0.0
  9
$LIMMAX
 10
297.0
 20
210.0
  9
$VIEWCTR
 10
148.5
 20
105.0
  9
$VIEWSIZE
 40
210.0
  9
$CLAYER
  8
0
  9
$LTSCALE
 40
16.335
  9
$CELTYPE
  6
BYLAYER
  9
$DIMSCALE
 40
1.0
  9
$DIMASZ
 40
3.0
  9
$DIMEXO
 40
0.5
  9
$DIMDLI
 40
11.286
  9
$DIMEXE
 40
1.5
  9
$DIMCEN
 40
2.673
  9
$DIMLFAC
 40
1.0
  9
$DIMBLK
  1
_FILLED
  9
$DIMALT
 70
0
  9
$DIMALTF
 40
0.0393700787
  9
$DIMTXT
 40
3.0
  9
$DIMTOL
 70
1
  9
$DIMLIM
 70
0
  9
$DIMTFAC
 40
1.0
  9
$DIMTP
 40
0.01
  9
$DIMTM
 40
0.01
  9
$DIMGAP
 40
0.625
  9
$DIMDSEP
 70
44
  9
$AUNITS
 70
0
  9
$PDMODE
 70
3
  9
$PDSIZE
 40
3.0
  9
$HANDSEED
  5
3FE
  9
$TILEMODE
 70
1
  9
$MEASUREMENT
 70
1
  9
$INSUNITS
 70
4
  0
ENDSEC
  0
SECTION
  2
CLASSES
  0
CLASS
  1
ACDBDICTIONARYWDFLT
  2
AcDbDictionaryWithDefault
  3
AutoCAD 2000
 90
0
 91
1
280
0
281
0
  0
CLASS
  1
ACDBPLACEHOLDER
  2
AcDbPlaceHolder
  3
AutoCAD 2000
 90
0
 91
1
280
0
281
0
  0
CLASS
  1
LAYOUT
  2
AcDbLayout
  3
AutoCAD 2000
 90
0
 91
0
280
0
281
0
  0
ENDSEC
  0
SECTION
  2
TABLES
  0
TABLE
  2
VPORT
  5
8
100
AcDbSymbolTable
 70
2
  0
VPORT
  5
1F4
100
AcDbSymbolTableRecord
100
AcDbViewportTableRecord
  2
*ACTIVE
 70
0
 10
0.0
 20
0.0
 11
1.0
 21
1.0
 12
148.5
 22
105.0
 13
0.0
 23
0.0
 14
1.0
 24
1.0
 15
0.0
 25
0.0
 16
0.0
 26
0.0
 36
1.0
 17
0.0
 27
0.0
 37
0.0
 40
210.0
 41
1.4142857143
 42
50.0
 43
0.0
 44
0.0
 50
0.0
 51
0.0
 71
0
 72
100
 73
1
 74
1
 75
0
 76
0
 77
0
 78
0
  0
ENDTAB
  0
TABLE
  2
LTYPE
  5
5
100
AcDbSymbolTable
 70
6
  0
LTYPE
  5
14
100
AcDbSymbolTableRecord
100
AcDbLinetypeTableRecord
  2
BYBLOCK
 70
0
  3

 72
65
 73
0
 40
0.0
  0
LTYPE
  5
15
100
AcDbSymbolTableRecord
100
AcDbLinetypeTableRecord
  2
BYLAYER
 70
0
  3

 72
65
 73
0
 40
0.0
  0
LTYPE
  5
16
100
AcDbSymbolTableRecord
100
AcDbLinetypeTableRecord
  2
CONTINUOUS
 70
64
  3
Solid line
 72
65
 73
0
 40
0.0
  0
LTYPE
  5
1F5
100
AcDbSymbolTableRecord
100
AcDbLinetypeTableRecord
  2
CENTER
 70
64
  3
____ _ ____ _ ____ _ ____ _ ____ _ ____ _ ____
 72
65
 73
4
 40
0.6
 49
0.375
 74
0
 49
-0.075
 74
0
 49
0.075
 74
0
 49
-0.075
 74
0
  0
LTYPE
  5
1F6
100
AcDbSymbolTableRecord
100
AcDbLinetypeTableRecord
  2
HIDDEN
 70
64
  3
- - - - - - - - - - - - - - - - - - - -
 72
65
 73
2
 40
0.2
 49
0.1
 74
0
 49
-0.1
 74
0
  0
LTYPE
  5
1F7
100
AcDbSymbolTableRecord
100
AcDbLinetypeTableRecord
  2
PHANTOM
 70
64
  3
_____ _ _ _____ _ _ _____ _ _ _____
 72
65
 73
6
 40
0.8
 49
0.45
 74
0
 49
-0.05
 74
0
 49
0.1
 74
0
 49
-0.05
 74
0
 49
0.1
 74
0
 49
-0.05
 74
0
  0
LTYPE
  5
1F8
100
AcDbSymbolTableRecord
100
AcDbLinetypeTableRecord
  2
DOT
 70
64
  3
. . . . . . . . . . . . . . . . . . . .
 72
65
 73
2
 40
0.2
 49
0.1
 74
0
 49
-0.1
 74
0
  0
LTYPE
  5
1F9
100
AcDbSymbolTableRecord
100
AcDbLinetypeTableRecord
  2
DASHED
 70
64
  3
- - - - - - - - - - - - - - - - - - - -
 72
65
 73
2
 40
0.2
 49
0.1
 74
0
 49
-0.1
 74
0
  0
ENDTAB
  0
TABLE
  2
LAYER
  5
2
100
AcDbSymbolTable
 70
36
  0
LAYER
  5
10
100
AcDbSymbolTableRecord
100
AcDbLayerTableRecord
  2
0
 70
0
 62
7
  6
CONTINUOUS
370
-3
390
F
  0
LAYER
  5
1FA
100
AcDbSymbolTableRecord
100
AcDbLayerTableRecord
  2
DEFAULT_1
 70
0
 62
7
  6
CENTER
370
-3
390
F
  0
LAYER
  5
1FB
100
AcDbSymbolTableRecord
100
AcDbLayerTableRecord
  2
DEFAULT_2
 70
0
 62
7
  6
HIDDEN
370
-3
390
F
  0
LAYER
  5
1FC
100
AcDbSymbolTableRecord
100
AcDbLayerTableRecord
  2
DEFAULT_3
 70
0
 62
7
  6
PHANTOM
370
-3
390
F
  0
LAYER
  5
1FD
100
AcDbSymbolTableRecord
100
AcDbLayerTableRecord
  2
ASSI
 70
0
 62
7
  6
CONTINUOUS
370
-3
390
F
  0
LAYER
  5
1FE
100
AcDbSymbolTableRecord
100
AcDbLayerTableRecord
  2
COORDINATE
 70
0
 62
7
  6
CONTINUOUS
370
-3
390
F
  0
LAYER
  5
1FF
100
AcDbSymbolTableRecord
100
AcDbLayerTableRecord
  2
COPY_PUBLISH
 70
0
 62
7
  6
CONTINUOUS
370
-3
390
F
  0
LAYER
  5
200
100
AcDbSymbolTableRecord
100
AcDbLayerTableRecord
  2
COSMETICI
 70
0
 62
7
  6
CONTINUOUS
370
-3
390
F
  0
LAYER
  5
201
100
AcDbSymbolTableRecord
100
AcDbLayerTableRecord
  2
CURVE
 70
0
 62
7
  6
CONTINUOUS
370
-3
390
F
  0
LAYER
  5
202
100
AcDbSymbolTableRecord
100
AcDbLayerTableRecord
  2
DRAFT
 70
0
 62
7
  6
CONTINUOUS
370
-3
390
F
  0
LAYER
  5
203
100
AcDbSymbolTableRecord
100
AcDbLayerTableRecord
  2
IMPORT_IGES
 70
0
 62
7
  6
CONTINUOUS
370
-3
390
F
  0
LAYER
  5
204
100
AcDbSymbolTableRecord
100
AcDbLayerTableRecord
  2
INTFCLR
 70
0
 62
7
  6
CONTINUOUS
370
-3
390
F
  0
LAYER
  5
205
100
AcDbSymbolTableRecord
100
AcDbLayerTableRecord
  2
INTFCLR_17
 70
0
 62
7
  6
CONTINUOUS
370
-3
390
F
  0
LAYER
  5
206
100
AcDbSymbolTableRecord
100
AcDbLayerTableRecord
  2
INTF_1
 70
0
 62
7
  6
CONTINUOUS
370
-3
390
F
  0
LAYER
  5
207
100
AcDbSymbolTableRecord
100
AcDbLayerTableRecord
  2
INTF_11
 70
0
 62
7
  6
CONTINUOUS
370
-3
390
F
  0
LAYER
  5
208
100
AcDbSymbolTableRecord
100
AcDbLayerTableRecord
  2
INTF_2
 70
0
 62
7
  6
CONTINUOUS
370
-3
390
F
  0
LAYER
  5
209
100
AcDbSymbolTableRecord
100
AcDbLayerTableRecord
  2
INTF_5
 70
0
 62
7
  6
CONTINUOUS
370
-3
390
F
  0
LAYER
  5
20A
100
AcDbSymbolTableRecord
100
AcDbLayerTableRecord
  2
INTF_YELLOW
 70
0
 62
7
  6
CONTINUOUS
370
-3
390
F
  0
LAYER
  5
20B
100
AcDbSymbolTableRecord
100
AcDbLayerTableRecord
  2
NONE
 70
0
 62
7
  6
CONTINUOUS
370
-3
390
F
  0
LAYER
  5
20C
100
AcDbSymbolTableRecord
100
AcDbLayerTableRecord
  2
NOTE
 70
0
 62
7
  6
CONTINUOUS
370
-3
390
F
  0
LAYER
  5
20D
100
AcDbSymbolTableRecord
100
AcDbLayerTableRecord
  2
PIANI
 70
0
 62
7
  6
CONTINUOUS
370
-3
390
F
  0
LAYER
  5
20E
100
AcDbSymbolTableRecord
100
AcDbLayerTableRecord
  2
POSIZIONE_SCRITTE
 70
0
 62
7
  6
CONTINUOUS
370
-3
390
F
  0
LAYER
  5
20F
100
AcDbSymbolTableRecord
100
AcDbLayerTableRecord
  2
PUNTI
 70
0
 62
7
  6
CONTINUOUS
370
-3
390
F
  0
LAYER
  5
210
100
AcDbSymbolTableRecord
100
AcDbLayerTableRecord
  2
RACCORDO
 70
0
 62
7
  6
CONTINUOUS
370
-3
390
F
  0
LAYER
  5
211
100
AcDbSymbolTableRecord
100
AcDbLayerTableRecord
  2
RGB____0____0____0__
 70
0
 62
7
  6
CONTINUOUS
370
-3
390
F
  0
LAYER
  5
212
100
AcDbSymbolTableRecord
100
AcDbLayerTableRecord
  2
SIMBOLI
 70
0
 62
7
  6
CONTINUOUS
370
-3
390
F
  0
LAYER
  5
213
100
AcDbSymbolTableRecord
100
AcDbLayerTableRecord
  2
SMUSSO
 70
0
 62
7
  6
CONTINUOUS
370
-3
390
F
  0
LAYER
  5
214
100
AcDbSymbolTableRecord
100
AcDbLayerTableRecord
  2
SNAPLINE
 70
0
 62
7
  6
CONTINUOUS
370
-3
390
F
  0
LAYER
  5
215
100
AcDbSymbolTableRecord
100
AcDbLayerTableRecord
  2
SUPERFICI
 70
0
 62
7
  6
CONTINUOUS
370
-3
390
F
  0
LAYER
  5
216
100
AcDbSymbolTableRecord
100
AcDbLayerTableRecord
  2
TRASH
 70
0
 62
7
  6
CONTINUOUS
370
-3
390
F
  0
ENDTAB
  0
TABLE
  2
STYLE
  5
3
100
AcDbSymbolTable
 70
1
  0
STYLE
  5
11
100
AcDbSymbolTableRecord
100
AcDbTextStyleTableRecord
  2
STANDARD
 70
0
 40
0.0
 41
0.8
 50
0.0
 71
0
 42
0.2
  3
txt
  4

  0
STYLE
  5
217
100
AcDbSymbolTableRecord
100
AcDbTextStyleTableRecord
  2
TEXTSTYLE_1
 70
0
 40
0.0
 41
0.8
 50
0.0
 71
0
 42
0.2
  3
gdt
  4

  0
ENDTAB
  0
TABLE
  2
VIEW
  5
6
100
AcDbSymbolTable
 70
0
  0
ENDTAB
  0
TABLE
  2
UCS
  5
7
100
AcDbSymbolTable
 70
0
  0
ENDTAB
  0
TABLE
  2
APPID
  5
9
100
AcDbSymbolTable
 70
1
  0
APPID
  5
218
100
AcDbSymbolTableRecord
100
AcDbRegAppTableRecord
  2
ACAD
 70
0
  0
ENDTAB
  0
TABLE
  2
BLOCK_RECORD
  5
1
100
AcDbSymbolTable
 70
0
  0
BLOCK_RECORD
  5
219
100
AcDbSymbolTableRecord
100
AcDbBlockTableRecord
  2
*Model_Space
  0
BLOCK_RECORD
  5
21A
100
AcDbSymbolTableRecord
100
AcDbBlockTableRecord
  2
*Paper_Space
  0
BLOCK_RECORD
  5
21B
100
AcDbSymbolTableRecord
100
AcDbBlockTableRecord
  2
_FILLED
  0
BLOCK_RECORD
  5
21C
100
AcDbSymbolTableRecord
100
AcDbBlockTableRecord
  2
*D0
  0
BLOCK_RECORD
  5
21D
100
AcDbSymbolTableRecord
100
AcDbBlockTableRecord
  2
*D1
  0
BLOCK_RECORD
  5
21E
100
AcDbSymbolTableRecord
100
AcDbBlockTableRecord
  2
*D2
  0
ENDTAB
  0
TABLE
  2
DIMSTYLE
  5
A
100
AcDbSymbolTable
 70
1
100
AcDbDimStyleTable
 71
0
  0
DIMSTYLE
105
21F
100
AcDbSymbolTableRecord
100
AcDbDimStyleTableRecord
  2
STANDARD
 70
0
  3

  4

 40
1.0
 41
3.0
 42
0.5
 43
0.38
 44
1.5
 45
0.0
 46
0.0
 47
0.01
 48
0.01
140
3.0
141
0.0
142
0.0
143
25.4
144
1.0
145
0.0
146
1.0
147
0.625
 71
1
 72
0
 73
0
 74
0
 75
0
 76
0
 77
1
 78
8
 79
2
170
0
171
1
172
0
173
0
174
0
175
0
176
0
177
0
178
0
270
2
179
2
271
2
272
2
273
2
274
2
275
0
280
0
281
0
282
0
283
1
284
8
285
0
286
0
287
3
288
0
340
11
278
44
341
21B
342
21B
343
21B
344
21B
  0
DIMSTYLE
105
220
100
AcDbSymbolTableRecord
100
AcDbDimStyleTableRecord
  2
DIMSTYLE_1
 70
0
  3

  4

 40
1.0
 41
3.0
 42
0.5
 43
0.38
 44
1.5
 45
0.0
 46
0.0
 47
0.0
 48
0.0
140
3.0
141
0.0
142
0.0
143
25.4
144
1.0
145
0.0
146
1.0
147
0.75
 71
0
 72
0
 73
0
 74
0
 75
0
 76
0
 77
1
 78
8
 79
2
170
0
171
1
172
0
173
0
174
0
175
0
176
0
177
0
178
0
270
2
179
2
271
2
272
2
273
2
274
2
275
0
280
0
281
0
282
0
283
1
284
8
285
0
286
0
287
3
288
0
340
11
278
44
341
21B
342
21B
343
21B
344
21B
  0
DIMSTYLE
105
221
100
AcDbSymbolTableRecord
100
AcDbDimStyleTableRecord
  2
DIMSTYLE_2
 70
0
  3

  4

 40
1.0
 41
3.0
 42
0.5
 43
0.38
 44
1.5
 45
0.0
 46
0.0
 47
0.0
 48
0.0
140
3.0
141
0.0
142
0.0
143
25.4
144
1.0
145
0.0
146
1.0
147
0.75
 71
0
 72
0
 73
0
 74
0
 75
0
 76
0
 77
1
 78
8
 79
2
170
0
171
1
172
0
173
0
174
0
175
0
176
0
177
0
178
0
270
2
179
2
271
1
272
1
273
2
274
2
275
0
280
0
281
0
282
0
283
1
284
8
285
0
286
0
287
3
288
0
340
11
278
44
341
21B
342
21B
343
21B
344
21B
  0
ENDTAB
  0
ENDSEC
  0
SECTION
  2
BLOCKS
  0
BLOCK
  5
20
100
AcDbEntity
  8
0
100
AcDbBlockBegin
  2
*Model_Space
 70
0
 10
0.0
 20
0.0
 30
0.0
  3
*Model_Space
  1

  0
ENDBLK
  5
21
100
AcDbEntity
  8
0
100
AcDbBlockEnd
  0
BLOCK
  5
1C
100
AcDbEntity
  8
0
100
AcDbBlockBegin
  2
*Paper_Space
 70
0
 10
0.0
 20
0.0
 30
0.0
  3
*Paper_Space
  1

  0
ENDBLK
  5
1D
100
AcDbEntity
  8
0
100
AcDbBlockEnd
  0
BLOCK
  5
222
100
AcDbEntity
  8
0
100
AcDbBlockBegin
  2
_FILLED
 70
64
 10
0.0
 20
0.0
 30
0.0
  3
_FILLED
  1

  0
SOLID
  5
223
100
AcDbEntity
  8
0
  6
BYBLOCK
 62
0
100
AcDbTrace
 10
0.0
 20
0.0
 30
0.0
 11
-1.0
 21
0.3166666667
 31
0.0
 12
-1.0
 22
-0.3166666667
 32
0.0
 13
-1.0
 23
-0.3166666667
 33
0.0
  0
ENDBLK
  5
224
100
AcDbEntity
  8
0
  6
BYBLOCK
 62
0
100
AcDbBlockEnd
  0
BLOCK
  5
225
100
AcDbEntity
  8
0
100
AcDbBlockBegin
 62
7
  6
CONTINUOUS
  2
*D0
 70
65
 10
0.0
 20
0.0
 30
0.0
  3
*D0
  1

  0
MTEXT
  5
226
100
AcDbEntity
  8
0
100
AcDbMText
 62
7
  6
CONTINUOUS
  7
STANDARD
 71
2
 72
1
 10
72.6059229627
 20
115.4229651181
 30
0.0
 11
1.0
 21
0.0
 31
0.0
 73
2
 44
0.9
  1
{\ftxt;\W0.0001;\H0.0001;\~}{\ftxt;\W1.5714285714;\H3.0; }{\ftxt;\W0.0001;\H0.0001;\~}
 40
3.0
 41
7.0714285714
  0
LINE
  5
227
100
AcDbEntity
  8
0
100
AcDbLine
 62
7
  6
CONTINUOUS
 10
29.6059229627
 20
99.7817651144
 30
0.0
 11
29.6059229627
 21
113.1729651181
 31
0.0
  0
LINE
  5
228
100
AcDbEntity
  8
0
100
AcDbLine
 62
7
  6
CONTINUOUS
 10
115.6059229627
 20
99.7817651144
 30
0.0
 11
115.6059229627
 21
113.1729651181
 31
0.0
  0
LINE
  5
229
100
AcDbEntity
  8
0
100
AcDbLine
 62
7
  6
CONTINUOUS
 10
29.6059229627
 20
111.6729651181
 30
0.0
 11
72.6059229627
 21
111.6729651181
 31
0.0
  0
LINE
  5
22A
100
AcDbEntity
  8
0
100
AcDbLine
 62
7
  6
CONTINUOUS
 10
115.6059229627
 20
111.6729651181
 30
0.0
 11
72.6059229627
 21
111.6729651181
 31
0.0
  0
INSERT
  5
22B
100
AcDbEntity
  8
0
100
AcDbBlockReference
 62
7
  6
CONTINUOUS
  2
_FILLED
 10
29.6059229627
 20
111.6729651181
 30
0.0
 41
3.0
 42
3.0
 43
3.0
 50
180.0
  0
INSERT
  5
22C
100
AcDbEntity
  8
0
100
AcDbBlockReference
 62
7
  6
CONTINUOUS
  2
_FILLED
 10
115.6059229627
 20
111.6729651181
 30
0.0
 41
3.0
 42
3.0
 43
3.0
 50
0.0
  0
ENDBLK
  5
22D
100
AcDbEntity
  8
0
  6
BYBLOCK
 62
0
100
AcDbBlockEnd
  0
BLOCK
  5
22E
100
AcDbEntity
  8
0
100
AcDbBlockBegin
 62
7
  6
CONTINUOUS
  2
*D1
 70
65
 10
0.0
 20
0.0
 30
0.0
  3
*D1
  1

  0
MTEXT
  5
22F
100
AcDbEntity
  8
0
100
AcDbMText
 62
7
  6
CONTINUOUS
  7
STANDARD
 71
2
 72
1
 10
15.8559229627
 20
60.6729651144
 30
0.0
 11
0.0
 21
1.0
 31
0.0
 73
2
 44
0.9
  1
{\ftxt;\W0.0001;\H0.0001;\~}{\ftxt;\W1.5714285714;\H3.0; }{\ftxt;\W0.0001;\H0.0001;\~}
 40
3.0
 41
7.0714285714
  0
LINE
  5
230
100
AcDbEntity
  8
0
100
AcDbLine
 62
7
  6
CONTINUOUS
 10
33.4858615416
 20
103.6729651144
 30
0.0
 11
18.1059229627
 21
103.6729651144
 31
0.0
  0
LINE
  5
231
100
AcDbEntity
  8
0
100
AcDbLine
 62
7
  6
CONTINUOUS
 10
33.4858615416
 20
17.6729651144
 30
0.0
 11
18.1059229627
 21
17.6729651144
 31
0.0
  0
LINE
  5
232
100
AcDbEntity
  8
0
100
AcDbLine
 62
7
  6
CONTINUOUS
 10
19.6059229627
 20
103.6729651144
 30
0.0
 11
19.6059229627
 21
60.6729651144
 31
0.0
  0
LINE
  5
233
100
AcDbEntity
  8
0
100
AcDbLine
 62
7
  6
CONTINUOUS
 10
19.6059229627
 20
17.6729651144
 30
0.0
 11
19.6059229627
 21
60.6729651144
 31
0.0
  0
INSERT
  5
234
100
AcDbEntity
  8
0
100
AcDbBlockReference
 62
7
  6
CONTINUOUS
  2
_FILLED
 10
19.6059229627
 20
103.6729651144
 30
0.0
 41
3.0
 42
3.0
 43
3.0
 50
90.0
  0
INSERT
  5
235
100
AcDbEntity
  8
0
100
AcDbBlockReference
 62
7
  6
CONTINUOUS
  2
_FILLED
 10
19.6059229627
 20
17.6729651144
 30
0.0
 41
3.0
 42
3.0
 43
3.0
 50
270.0
  0
ENDBLK
  5
236
100
AcDbEntity
  8
0
  6
BYBLOCK
 62
0
100
AcDbBlockEnd
  0
BLOCK
  5
237
100
AcDbEntity
  8
0
100
AcDbBlockBegin
 62
7
  6
CONTINUOUS
  2
*D2
 70
65
 10
0.0
 20
0.0
 30
0.0
  3
*D2
  1

  0
MTEXT
  5
238
100
AcDbEntity
  8
0
100
AcDbMText
 62
7
  6
CONTINUOUS
  7
STANDARD
 71
2
 72
1
 10
154.4297800832
 20
115.4229651181
 30
0.0
 11
1.0
 21
0.0
 31
0.0
 73
2
 44
0.9
  1
{\ftxt;\W0.0001;\H0.0001;\~}{\ftxt;\W2.1428571429;\H3.0; }{\ftxt;\W0.0001;\H0.0001;\~}
 40
3.0
 41
9.6428571429
  0
LINE
  5
239
100
AcDbEntity
  8
0
100
AcDbLine
 62
7
  6
CONTINUOUS
 10
149.4760113891
 20
61.1729651142
 30
0.0
 11
149.4760113891
 21
113.1729651181
 31
0.0
  0
LINE
  5
23A
100
AcDbEntity
  8
0
100
AcDbLine
 62
7
  6
CONTINUOUS
 10
159.3835487773
 20
61.1729489456
 30
0.0
 11
159.3835487773
 21
113.1729651181
 31
0.0
  0
LINE
  5
23B
100
AcDbEntity
  8
0
100
AcDbLine
 62
7
  6
CONTINUOUS
 10
149.4760113891
 20
111.6729651181
 30
0.0
 11
145.4760113891
 21
111.6729651181
 31
0.0
  0
LINE
  5
23C
100
AcDbEntity
  8
0
100
AcDbLine
 62
7
  6
CONTINUOUS
 10
145.4760113891
 20
111.6729651181
 30
0.0
 11
154.4297800832
 21
111.6729651181
 31
0.0
  0
LINE
  5
23D
100
AcDbEntity
  8
0
100
AcDbLine
 62
7
  6
CONTINUOUS
 10
159.3835487773
 20
111.6729651181
 30
0.0
 11
163.3835487773
 21
111.6729651181
 31
0.0
  0
LINE
  5
23E
100
AcDbEntity
  8
0
100
AcDbLine
 62
7
  6
CONTINUOUS
 10
163.3835487773
 20
111.6729651181
 30
0.0
 11
154.4297800832
 21
111.6729651181
 31
0.0
  0
INSERT
  5
23F
100
AcDbEntity
  8
0
100
AcDbBlockReference
 62
7
  6
CONTINUOUS
  2
_FILLED
 10
149.4760113891
 20
111.6729651181
 30
0.0
 41
3.0
 42
3.0
 43
3.0
  0
INSERT
  5
240
100
AcDbEntity
  8
0
100
AcDbBlockReference
 62
7
  6
CONTINUOUS
  2
_FILLED
 10
159.3835487773
 20
111.6729651181
 30
0.0
 41
3.0
 42
3.0
 43
3.0
 50
180.0
  0
ENDBLK
  5
241
100
AcDbEntity
  8
0
  6
BYBLOCK
 62
0
100
AcDbBlockEnd
  0
ENDSEC
  0
SECTION
  2
ENTITIES
  0
DIMENSION
  5
242
100
AcDbEntity
  8
0
100
AcDbDimension
 62
7
  6
CONTINUOUS
  2
*D0
 10
115.6059229627
 20
111.6729651181
 30
0.0
 11
72.1773514023
 21
111.6729651181
 31
0.0
 70
160
 71
2
 72
2
 41
0.9
 42
86.0
  1
{\ftxt;\W0.0001;\H0.0001;\~}{\ftxt;\W1.5714285714;\H3.0; }{\ftxt;\W0.0001;\H0.0001;\~}
  3
DIMSTYLE_1
100
AcDbAlignedDimension
 13
29.6059229627
 23
99.2817651144
 33
0.0
 14
115.6059229627
 24
99.2817651144
 34
0.0
100
AcDbRotatedDimension
  0
DIMENSION
  5
243
100
AcDbEntity
  8
0
100
AcDbDimension
 62
7
  6
CONTINUOUS
  2
*D1
 10
19.6059229627
 20
17.6729651144
 30
0.0
 11
19.6059229627
 21
60.2443936507
 31
0.0
 70
160
 71
2
 72
2
 41
0.9
 42
86.0
  1
{\ftxt;\W0.0001;\H0.0001;\~}{\ftxt;\W1.5714285714;\H3.0; }{\ftxt;\W0.0001;\H0.0001;\~}
  3
DIMSTYLE_1
100
AcDbAlignedDimension
 13
33.9858615416
 23
103.6729651144
 33
0.0
 14
33.9858615416
 24
17.6729651144
 34
0.0
 50
270.0
100
AcDbRotatedDimension
  0
DIMENSION
  5
244
100
AcDbEntity
  8
0
100
AcDbDimension
 62
7
  6
CONTINUOUS
  2
*D2
 10
159.3835487773
 20
111.6729651181
 30
0.0
 11
154.0012071533
 21
111.6729651181
 31
0.0
 70
160
 71
2
 72
2
 41
0.9
 42
9.9075373881
  1
{\ftxt;\W0.0001;\H0.0001;\~}{\ftxt;\W2.1428571429;\H3.0; }{\ftxt;\W0.0001;\H0.0001;\~}
  3
DIMSTYLE_2
100
AcDbAlignedDimension
 13
149.4760113891
 23
60.6729651142
 33
0.0
 14
159.3835487773
 24
60.6729489456
 34
0.0
100
AcDbRotatedDimension
  0
LINE
  5
245
100
AcDbEntity
  8
0
100
AcDbLine
 62
7
  6
CONTINUOUS
 10
29.6059229579
 20
21.6724057627
 30
0.0
 11
29.6059229627
 21
82.9929651144
 31
0.0
  0
LINE
  5
246
100
AcDbEntity
  8
SUPERFICI
100
AcDbLine
 62
7
  6
CONTINUOUS
 10
29.6059229627
 20
82.9929651144
 30
0.0
 11
29.6059229579
 21
99.6735244661
 31
0.0
  0
LINE
  5
247
100
AcDbEntity
  8
RACCORDO
100
AcDbLine
 62
250
  6
CONTINUOUS
 10
30.2911487371
 20
38.3387761157
 30
0.0
 11
30.2936255657
 21
99.6916385106
 31
0.0
  0
LINE
  5
248
100
AcDbEntity
  8
RACCORDO
100
AcDbLine
 62
250
  6
CONTINUOUS
 10
30.2936255657
 20
21.6542917183
 30
0.0
 11
30.2911487371
 21
38.3387761157
 31
0.0
  0
LWPOLYLINE
  5
249
100
AcDbEntity
  8
0
100
AcDbPolyline
 62
7
  6
CONTINUOUS
 90
13
 70
0
 43
0.3500000006
 10
17.1416371536
 20
58.7443981018
 10
16.9273515358
 20
58.4586824341
 10
16.2844946823
 20
58.4586824341
 10
15.8559234467
 20
58.7443981018
 10
15.8559234467
 20
59.3872515564
 10
16.2844946823
 20
59.6729672241
 10
16.9273515358
 20
59.6729672241
 10
17.1416371536
 20
59.3872515564
 10
17.5702083893
 20
59.8158205261
 10
18.4273519936
 20
59.8158205261
 10
18.8559232292
 20
59.3872515564
 10
18.8559232292
 20
58.7443981018
 10
18.4273519936
 20
58.3158200684
  0
LINE
  5
24A
100
AcDbEntity
  8
SUPERFICI
100
AcDbLine
 62
7
  6
CONTINUOUS
 10
111.6065604082
 20
17.6729651107
 30
0.0
 11
77.577350209
 21
17.6729651144
 31
0.0
  0
LINE
  5
24B
100
AcDbEntity
  8
0
100
AcDbLine
 62
7
  6
CONTINUOUS
 10
33.6052855173
 20
17.6729651107
 30
0.0
 11
77.577350209
 21
17.6729651144
 31
0.0
  0
LINE
  5
24C
100
AcDbEntity
  8
RACCORDO
100
AcDbLine
 62
250
  6
CONTINUOUS
 10
77.6036438684
 20
18.1000818422
 30
0.0
 11
67.608202057
 21
18.1000818422
 31
0.0
  0
LINE
  5
24D
100
AcDbEntity
  8
RACCORDO
100
AcDbLine
 62
250
  6
CONTINUOUS
 10
77.6059229627
 20
18.3565088743
 30
0.0
 11
67.6059229627
 21
18.3565088743
 31
0.0
  0
LINE
  5
24E
100
AcDbEntity
  8
RACCORDO
100
AcDbLine
 62
250
  6
CONTINUOUS
 10
33.9858615416
 20
18.1030798628
 30
0.0
 11
33.9858615416
 21
17.6729651144
 31
0.0
  0
LINE
  5
24F
100
AcDbEntity
  8
RACCORDO
100
AcDbLine
 62
250
  6
CONTINUOUS
 10
33.9858615416
 20
103.242850366
 30
0.0
 11
33.9858615416
 21
103.6729651144
 31
0.0
  0
LWPOLYLINE
  5
250
100
AcDbEntity
  8
0
100
AcDbPolyline
 62
7
  6
CONTINUOUS
 90
10
 70
0
 43
0.3500000006
 10
73.6773495941
 20
115.4229615784
 10
73.0344961395
 20
114.7801081238
 10
72.6059226379
 20
113.9229611206
 10
72.6059226379
 20
112.8515386963
 10
73.0344961395
 20
112.4229606628
 10
73.6773495941
 20
112.4229606628
 10
74.1059230957
 20
112.8515386963
 10
74.1059230957
 20
113.7086766357
 10
73.6773495941
 20
114.1372546692
 10
72.7487804718
 20
114.1372546692
  0
LINE
  5
251
100
AcDbEntity
  8
RACCORDO
100
AcDbLine
 62
250
  6
CONTINUOUS
 10
30.0356969762
 20
22.0641651144
 30
0.0
 11
29.6059229627
 21
22.0641651144
 31
0.0
  0
LINE
  5
252
100
AcDbEntity
  8
RACCORDO
100
AcDbLine
 62
250
  6
CONTINUOUS
 10
115.1761489492
 20
22.0641651144
 30
0.0
 11
115.6059229627
 21
22.0641651144
 31
0.0
  0
LWPOLYLINE
  5
253
100
AcDbEntity
  8
0
100
AcDbPolyline
 62
7
  6
CONTINUOUS
 90
10
 70
0
 43
0.3500000006
 10
15.8559234467
 20
61.7443899536
 10
16.4987803001
 20
61.101536499
 10
17.3559227715
 20
60.6729675293
 10
18.4273519936
 20
60.6729675293
 10
18.8559232292
 20
61.101536499
 10
18.8559232292
 20
61.7443899536
 10
18.4273519936
 20
62.1729679871
 10
17.5702083893
 20
62.1729679871
 10
17.1416371536
 20
61.7443899536
 10
17.1416371536
 20
60.8158208313
  0
LINE
  5
254
100
AcDbEntity
  8
0
100
AcDbLine
 62
7
  6
CONTINUOUS
 10
77.3908767234
 20
32.4427853337
 30
0.0
 11
76.8889726251
 21
32.4427853337
 31
0.0
  0
LINE
  5
255
100
AcDbEntity
  8
0
100
AcDbLine
 62
7
  6
CONTINUOUS
 10
76.0899188064
 20
32.4427853337
 30
0.0
 11
75.5702254648
 21
32.4427853337
 31
0.0
  0
LINE
  5
256
100
AcDbEntity
  8
0
100
AcDbLine
 62
7
  6
CONTINUOUS
 10
75.4170019627
 20
32.4427851144
 30
0.0
 11
74.8670539627
 21
32.4427851144
 31
0.0
  0
LINE
  5
257
100
AcDbEntity
  8
0
100
AcDbLine
 62
7
  6
CONTINUOUS
 10
73.8773039627
 20
32.4427851144
 30
0.0
 11
73.3611729627
 21
32.4427851144
 31
0.0
  0
LINE
  5
258
100
AcDbEntity
  8
0
100
AcDbLine
 62
7
  6
CONTINUOUS
 10
73.2792369627
 20
32.4427851144
 30
0.0
 11
72.7687849627
 21
32.4427851144
 31
0.0
  0
LINE
  5
259
100
AcDbEntity
  8
0
100
AcDbLine
 62
7
  6
CONTINUOUS
 10
72.0411699627
 20
32.4427851144
 30
0.0
 11
71.9679879627
 21
32.4427851144
 31
0.0
  0
LINE
  5
25A
100
AcDbEntity
  8
0
100
AcDbLine
 62
7
  6
CONTINUOUS
 10
71.2432589627
 20
32.4427851144
 30
0.0
 11
70.7440729627
 21
32.4427851144
 31
0.0
  0
LINE
  5
25B
100
AcDbEntity
  8
0
100
AcDbLine
 62
7
  6
CONTINUOUS
 10
70.4631759627
 20
32.4427851144
 30
0.0
 11
69.9413829627
 21
32.4427851144
 31
0.0
  0
LINE
  5
25C
100
AcDbEntity
  8
0
100
AcDbLine
 62
7
  6
CONTINUOUS
 10
68.9442289627
 20
32.4427851144
 30
0.0
 11
68.4843989627
 21
32.4427851144
 31
0.0
  0
LINE
  5
25D
100
AcDbEntity
  8
0
100
AcDbLine
 62
7
  6
CONTINUOUS
 10
74.7318819627
 20
32.9418211144
 30
0.0
 11
74.0212869627
 21
32.9418211144
 31
0.0
  0
LINE
  5
25E
100
AcDbEntity
  8
0
100
AcDbLine
 62
7
  6
CONTINUOUS
 10
74.1280219627
 20
33.3279731144
 30
0.0
 11
74.6276019627
 21
33.3279731144
 31
0.0
  0
LINE
  5
25F
100
AcDbEntity
  8
0
100
AcDbLine
 62
7
  6
CONTINUOUS
 10
76.3696916791
 20
33.421043753
 30
0.0
 11
76.0899188064
 21
33.421043753
 31
0.0
  0
LINE
  5
260
100
AcDbEntity
  8
0
100
AcDbLine
 62
7
  6
CONTINUOUS
 10
76.0726169396
 20
33.8304400371
 30
0.0
 11
76.3708163941
 21
33.8304400371
 31
0.0
  0
LINE
  5
261
100
AcDbEntity
  8
0
100
AcDbLine
 62
7
  6
CONTINUOUS
 10
67.6919339627
 20
34.9425211144
 30
0.0
 11
68.2587619627
 21
34.9425211144
 31
0.0
  0
LINE
  5
262
100
AcDbEntity
  8
0
100
AcDbLine
 62
7
  6
CONTINUOUS
 10
69.2263079627
 20
34.9425211144
 30
0.0
 11
69.7477439627
 21
34.9425211144
 31
0.0
  0
LINE
  5
263
100
AcDbEntity
  8
0
100
AcDbLine
 62
7
  6
CONTINUOUS
 10
70.9697849627
 20
34.9425211144
 30
0.0
 11
71.4911459627
 21
34.9425211144
 31
0.0
  0
LINE
  5
264
100
AcDbEntity
  8
0
100
AcDbLine
 62
7
  6
CONTINUOUS
 10
72.5292209627
 20
34.9425211144
 30
0.0
 11
73.0454839627
 21
34.9425211144
 31
0.0
  0
LINE
  5
265
100
AcDbEntity
  8
0
100
AcDbLine
 62
7
  6
CONTINUOUS
 10
74.1452489627
 20
34.9425211144
 30
0.0
 11
74.6500209627
 21
34.9425211144
 31
0.0
  0
LINE
  5
266
100
AcDbEntity
  8
0
100
AcDbLine
 62
7
  6
CONTINUOUS
 10
69.9413829627
 20
34.9426711144
 30
0.0
 11
70.4631759627
 21
34.9426711144
 31
0.0
  0
LINE
  5
267
100
AcDbEntity
  8
RACCORDO
100
AcDbLine
 62
250
  6
CONTINUOUS
 10
114.9206801823
 20
38.1729651144
 30
0.0
 11
83.9212579842
 21
38.1729651144
 31
0.0
  0
LINE
  5
268
100
AcDbEntity
  8
RACCORDO
100
AcDbLine
 62
250
  6
CONTINUOUS
 10
30.2911657431
 20
38.1729651144
 30
0.0
 11
61.2905879412
 21
38.1729651144
 31
0.0
  0
LINE
  5
269
100
AcDbEntity
  8
RACCORDO
100
AcDbLine
 62
250
  6
CONTINUOUS
 10
30.0331751197
 20
38.3529651144
 30
0.0
 11
29.6059229627
 21
38.3529651144
 31
0.0
  0
LINE
  5
26A
100
AcDbEntity
  8
RACCORDO
100
AcDbLine
 62
250
  6
CONTINUOUS
 10
115.1786708058
 20
38.3529651144
 30
0.0
 11
115.6059229627
 21
38.3529651144
 31
0.0
  0
LINE
  5
26B
100
AcDbEntity
  8
RACCORDO
100
AcDbLine
 62
7
  6
CONTINUOUS
 10
61.8610833298
 20
38.3532016339
 30
0.0
 11
83.3507625957
 21
38.3532016339
 31
0.0
  0
LINE
  5
26C
100
AcDbEntity
  8
RACCORDO
100
AcDbLine
 62
7
  6
CONTINUOUS
 10
61.3611594822
 20
82.4928047474
 30
0.0
 11
61.3611594822
 21
38.8531254815
 31
0.0
  0
LINE
  5
26D
100
AcDbEntity
  8
RACCORDO
100
AcDbLine
 62
250
  6
CONTINUOUS
 10
83.4008198499
 20
83.0427858492
 30
0.0
 11
83.3507625957
 21
82.9927285949
 31
0.0
  0
LINE
  5
26E
100
AcDbEntity
  8
0
100
AcDbLine
 62
7
  6
CONTINUOUS
 10
71.9679879627
 20
32.4427851144
 30
0.0
 11
71.3558619627
 21
34.0750651144
 31
0.0
  0
LINE
  5
26F
100
AcDbEntity
  8
0
100
AcDbLine
 62
7
  6
CONTINUOUS
 10
71.4911459627
 20
34.9425211144
 30
0.0
 11
72.0074279627
 21
33.5546601144
 31
0.0
  0
LINE
  5
270
100
AcDbEntity
  8
0
100
AcDbLine
 62
7
  6
CONTINUOUS
 10
68.4843989627
 20
32.4427851144
 30
0.0
 11
67.6919339627
 21
34.9425211144
 31
0.0
  0
LINE
  5
271
100
AcDbEntity
  8
0
100
AcDbLine
 62
7
  6
CONTINUOUS
 10
68.2587619627
 20
34.9425211144
 30
0.0
 11
68.7352569627
 21
33.2218751144
 31
0.0
  0
LINE
  5
272
100
AcDbEntity
  8
RACCORDO
100
AcDbLine
 62
250
  6
CONTINUOUS
 10
67.6059229627
 20
37.9845853627
 30
0.0
 11
67.6059229627
 21
18.3565088743
 31
0.0
  0
LINE
  5
273
100
AcDbEntity
  8
RACCORDO
100
AcDbLine
 62
250
  6
CONTINUOUS
 10
67.6059229627
 20
83.3613448661
 30
0.0
 11
67.6059229627
 21
102.9894213545
 31
0.0
  0
LINE
  5
274
100
AcDbEntity
  8
RACCORDO
100
AcDbLine
 62
250
  6
CONTINUOUS
 10
67.6344957164
 20
18.1000816625
 30
0.0
 11
67.6344957164
 21
17.6729651144
 31
0.0
  0
LINE
  5
275
100
AcDbEntity
  8
RACCORDO
100
AcDbLine
 62
250
  6
CONTINUOUS
 10
67.6344957164
 20
103.2458485664
 30
0.0
 11
67.6344957164
 21
103.6729651144
 31
0.0
  0
LINE
  5
276
100
AcDbEntity
  8
RACCORDO
100
AcDbLine
 62
250
  6
CONTINUOUS
 10
83.9012019835
 20
82.5433202877
 30
0.0
 11
83.8506864432
 21
82.4928047474
 31
0.0
  0
LINE
  5
277
100
AcDbEntity
  8
RACCORDO
100
AcDbLine
 62
250
  6
CONTINUOUS
 10
83.3507625957
 20
38.3532016339
 30
0.0
 11
83.4008198499
 21
38.3031443797
 31
0.0
  0
LINE
  5
278
100
AcDbEntity
  8
RACCORDO
100
AcDbLine
 62
250
  6
CONTINUOUS
 10
83.8506864432
 20
38.8531254815
 30
0.0
 11
83.9012019835
 21
38.8026099412
 31
0.0
  0
LINE
  5
279
100
AcDbEntity
  8
0
100
AcDbLine
 62
7
  6
CONTINUOUS
 10
74.6500209627
 20
34.9425211144
 30
0.0
 11
75.4170019627
 21
32.4427851144
 31
0.0
  0
LINE
  5
27A
100
AcDbEntity
  8
0
100
AcDbLine
 62
7
  6
CONTINUOUS
 10
74.8670539627
 20
32.4427851144
 30
0.0
 11
74.7318819627
 21
32.9418211144
 31
0.0
  0
LINE
  5
27B
100
AcDbEntity
  8
0
100
AcDbLine
 62
7
  6
CONTINUOUS
 10
74.6276019627
 20
33.3279731144
 30
0.0
 11
74.3878309627
 21
34.2556571144
 31
0.0
  0
LINE
  5
27C
100
AcDbEntity
  8
0
100
AcDbLine
 62
7
  6
CONTINUOUS
 10
73.0454839627
 20
34.9425211144
 30
0.0
 11
73.2792369627
 21
32.4427851144
 31
0.0
  0
LINE
  5
27D
100
AcDbEntity
  8
0
100
AcDbLine
 62
7
  6
CONTINUOUS
 10
72.7687849627
 20
32.4427851144
 30
0.0
 11
72.6615809627
 21
34.0682611144
 31
0.0
  0
LINE
  5
27E
100
AcDbEntity
  8
0
100
AcDbLine
 62
7
  6
CONTINUOUS
 10
69.9413829627
 20
32.4427851144
 30
0.0
 11
69.9413829627
 21
34.9426711144
 31
0.0
  0
LWPOLYLINE
  5
27F
100
AcDbEntity
  8
0
100
AcDbPolyline
 62
7
  6
CONTINUOUS
 90
4
 70
0
 43
0.3500000006
 10
70.2487797089
 20
112.8515386963
 10
70.2487797089
 20
113.7086766357
 10
70.6773532104
 20
114.1372546692
 10
71.320206665
 20
114.1372546692
  0
LINE
  5
280
100
AcDbEntity
  8
0
100
AcDbLine
 62
7
  6
CONTINUOUS
 10
70.4631759627
 20
34.9426711144
 30
0.0
 11
70.4631759627
 21
32.4427851144
 31
0.0
  0
LWPOLYLINE
  5
281
100
AcDbEntity
  8
0
100
AcDbPolyline
 62
7
  6
CONTINUOUS
 90
4
 70
0
 43
0.3500000006
 10
18.4273519936
 20
58.3158200684
 10
17.5702083893
 20
58.3158200684
 10
17.1416371536
 20
58.7443981018
 10
17.1416371536
 20
59.3872515564
  0
LINE
  5
282
100
AcDbEntity
  8
0
100
AcDbLine
 62
250
  6
CONTINUOUS
 10
72.6059229627
 20
37.9841951814
 30
0.0
 11
72.6059229627
 21
18.3564903532
 31
0.0
  0
LINE
  5
283
100
AcDbEntity
  8
RACCORDO
100
AcDbLine
 62
250
  6
CONTINUOUS
 10
72.6059229627
 20
17.6729651144
 30
0.0
 11
72.6059229627
 21
18.3564903532
 31
0.0
  0
LINE
  5
284
100
AcDbEntity
  8
RACCORDO
100
AcDbLine
 62
250
  6
CONTINUOUS
 10
72.6059229627
 20
37.9841951814
 30
0.0
 11
72.6059229627
 21
38.3012510139
 31
0.0
  0
LINE
  5
285
100
AcDbEntity
  8
RACCORDO
100
AcDbLine
 62
250
  6
CONTINUOUS
 10
72.6059229627
 20
83.0446792149
 30
0.0
 11
72.6059229627
 21
103.6729651144
 31
0.0
  0
LINE
  5
286
100
AcDbEntity
  8
0
100
AcDbLine
 62
7
  6
CONTINUOUS
 10
75.5702254648
 20
32.4427853337
 30
0.0
 11
75.5702254648
 21
34.9133157028
 31
0.0
  0
LINE
  5
287
100
AcDbEntity
  8
0
100
AcDbLine
 62
7
  6
CONTINUOUS
 10
76.0726169396
 20
34.5166661895
 30
0.0
 11
76.0726169396
 21
33.8304400371
 31
0.0
  0
LINE
  5
288
100
AcDbEntity
  8
0
100
AcDbLine
 62
7
  6
CONTINUOUS
 10
76.0899188064
 20
33.421043753
 30
0.0
 11
76.0899188064
 21
32.4427853337
 31
0.0
  0
LINE
  5
289
100
AcDbEntity
  8
0
100
AcDbLine
 62
7
  6
CONTINUOUS
 10
71.3558619627
 20
34.0750651144
 30
0.0
 11
71.2432589627
 21
32.4427851144
 31
0.0
  0
LINE
  5
28A
100
AcDbEntity
  8
0
100
AcDbLine
 62
7
  6
CONTINUOUS
 10
70.7440729627
 20
32.4427851144
 30
0.0
 11
70.9697849627
 21
34.9425211144
 31
0.0
  0
LINE
  5
28B
100
AcDbEntity
  8
0
100
AcDbLine
 62
7
  6
CONTINUOUS
 10
68.7352569627
 20
33.2218751144
 30
0.0
 11
69.2263079627
 21
34.9425211144
 31
0.0
  0
LINE
  5
28C
100
AcDbEntity
  8
RACCORDO
100
AcDbLine
 62
250
  6
CONTINUOUS
 10
115.6059229627
 20
60.6729651144
 30
0.0
 11
83.9102580947
 21
60.6729650982
 31
0.0
  0
LINE
  5
28D
100
AcDbEntity
  8
RACCORDO
100
AcDbLine
 62
250
  6
CONTINUOUS
 10
29.6059229627
 20
60.6729651144
 30
0.0
 11
61.3015878307
 21
60.6729651307
 31
0.0
  0
LINE
  5
28E
100
AcDbEntity
  8
0
100
AcDbLine
 62
7
  6
CONTINUOUS
 10
76.9117293599
 20
33.6244109822
 30
0.0
 11
76.9117293599
 21
33.6096397244
 31
0.0
  0
LINE
  5
28F
100
AcDbEntity
  8
RACCORDO
100
AcDbLine
 62
250
  6
CONTINUOUS
 10
77.577350209
 20
18.1000816625
 30
0.0
 11
77.577350209
 21
17.6729651144
 31
0.0
  0
LINE
  5
290
100
AcDbEntity
  8
RACCORDO
100
AcDbLine
 62
250
  6
CONTINUOUS
 10
77.577350209
 20
103.2458485664
 30
0.0
 11
77.577350209
 21
103.6729651144
 31
0.0
  0
LINE
  5
291
100
AcDbEntity
  8
RACCORDO
100
AcDbLine
 62
250
  6
CONTINUOUS
 10
77.6059229627
 20
37.9845853627
 30
0.0
 11
77.6059229627
 21
18.3565088743
 31
0.0
  0
LINE
  5
292
100
AcDbEntity
  8
RACCORDO
100
AcDbLine
 62
250
  6
CONTINUOUS
 10
77.6059229627
 20
83.3613448661
 30
0.0
 11
77.6059229627
 21
102.9894213545
 31
0.0
  0
LINE
  5
293
100
AcDbEntity
  8
0
100
AcDbLine
 62
7
  6
CONTINUOUS
 10
69.7477439627
 20
34.9425211144
 30
0.0
 11
68.9442289627
 21
32.4427851144
 31
0.0
  0
LINE
  5
294
100
AcDbEntity
  8
RACCORDO
100
AcDbLine
 62
250
  6
CONTINUOUS
 10
61.3106439419
 20
38.8026099412
 30
0.0
 11
61.3611594822
 21
38.8531254815
 31
0.0
  0
LINE
  5
295
100
AcDbEntity
  8
RACCORDO
100
AcDbLine
 62
250
  6
CONTINUOUS
 10
61.8110260756
 20
38.3031443797
 30
0.0
 11
61.8610833298
 21
38.3532016339
 31
0.0
  0
LINE
  5
296
100
AcDbEntity
  8
RACCORDO
100
AcDbLine
 62
7
  6
CONTINUOUS
 10
83.8506864432
 20
38.8531254815
 30
0.0
 11
83.8506864432
 21
82.4928047474
 31
0.0
  0
LINE
  5
297
100
AcDbEntity
  8
0
100
AcDbLine
 62
7
  6
CONTINUOUS
 10
74.3878309627
 20
34.2556571144
 30
0.0
 11
74.1280219627
 21
33.3279731144
 31
0.0
  0
LINE
  5
298
100
AcDbEntity
  8
0
100
AcDbLine
 62
7
  6
CONTINUOUS
 10
74.0212869627
 20
32.9418211144
 30
0.0
 11
73.8773039627
 21
32.4427851144
 31
0.0
  0
LINE
  5
299
100
AcDbEntity
  8
0
100
AcDbLine
 62
7
  6
CONTINUOUS
 10
73.3611729627
 20
32.4427851144
 30
0.0
 11
74.1452489627
 21
34.9425211144
 31
0.0
  0
LINE
  5
29A
100
AcDbEntity
  8
0
100
AcDbLine
 62
7
  6
CONTINUOUS
 10
72.0074279627
 20
33.5546601144
 30
0.0
 11
72.5292209627
 21
34.9425211144
 31
0.0
  0
LINE
  5
29B
100
AcDbEntity
  8
0
100
AcDbLine
 62
7
  6
CONTINUOUS
 10
72.6615809627
 20
34.0682611144
 30
0.0
 11
72.0411699627
 21
32.4427851144
 31
0.0
  0
LINE
  5
29C
100
AcDbEntity
  8
RACCORDO
100
AcDbLine
 62
250
  6
CONTINUOUS
 10
61.3106439419
 20
82.5433202877
 30
0.0
 11
61.3611594822
 21
82.4928047474
 31
0.0
  0
LINE
  5
29D
100
AcDbEntity
  8
RACCORDO
100
AcDbLine
 62
250
  6
CONTINUOUS
 10
61.8110260756
 20
83.0427858492
 30
0.0
 11
61.8610833298
 21
82.9927285949
 31
0.0
  0
LINE
  5
29E
100
AcDbEntity
  8
RACCORDO
100
AcDbLine
 62
7
  6
CONTINUOUS
 10
83.3507625957
 20
82.9927285949
 30
0.0
 11
61.8610833298
 21
82.9927285949
 31
0.0
  0
LINE
  5
29F
100
AcDbEntity
  8
RACCORDO
100
AcDbLine
 62
250
  6
CONTINUOUS
 10
30.0331751197
 20
82.9929651145
 30
0.0
 11
29.6059229627
 21
82.9929651144
 31
0.0
  0
LINE
  5
2A0
100
AcDbEntity
  8
RACCORDO
100
AcDbLine
 62
250
  6
CONTINUOUS
 10
115.1786708058
 20
82.9929651145
 30
0.0
 11
115.6059229627
 21
82.9929651144
 31
0.0
  0
LINE
  5
2A1
100
AcDbEntity
  8
RACCORDO
100
AcDbLine
 62
250
  6
CONTINUOUS
 10
114.9206801823
 20
83.1729651144
 30
0.0
 11
83.9212579842
 21
83.1729651144
 31
0.0
  0
LINE
  5
2A2
100
AcDbEntity
  8
RACCORDO
100
AcDbLine
 62
250
  6
CONTINUOUS
 10
30.2911657431
 20
83.1729651144
 30
0.0
 11
61.2905879412
 21
83.1729651144
 31
0.0
  0
LINE
  5
2A3
100
AcDbEntity
  8
RACCORDO
100
AcDbLine
 62
250
  6
CONTINUOUS
 10
111.2259843839
 20
18.1030798628
 30
0.0
 11
111.2259843839
 21
17.6729651144
 31
0.0
  0
LINE
  5
2A4
100
AcDbEntity
  8
RACCORDO
100
AcDbLine
 62
250
  6
CONTINUOUS
 10
111.2259843839
 20
103.242850366
 30
0.0
 11
111.2259843839
 21
103.6729651144
 31
0.0
  0
LINE
  5
2A5
100
AcDbEntity
  8
RACCORDO
100
AcDbLine
 62
250
  6
CONTINUOUS
 10
30.0356969762
 20
99.2817651144
 30
0.0
 11
29.6059229627
 21
99.2817651144
 31
0.0
  0
LINE
  5
2A6
100
AcDbEntity
  8
RACCORDO
100
AcDbLine
 62
250
  6
CONTINUOUS
 10
115.1761489492
 20
99.2817651144
 30
0.0
 11
115.6059229627
 21
99.2817651144
 31
0.0
  0
LINE
  5
2A7
100
AcDbEntity
  8
SUPERFICI
100
AcDbLine
 62
7
  6
CONTINUOUS
 10
115.6059229675
 20
21.6724057627
 30
0.0
 11
115.6059229675
 21
99.6735244661
 31
0.0
  0
LINE
  5
2A8
100
AcDbEntity
  8
RACCORDO
100
AcDbLine
 62
250
  6
CONTINUOUS
 10
114.9206971884
 20
83.0071541136
 30
0.0
 11
114.9182203598
 21
21.6542917183
 31
0.0
  0
LINE
  5
2A9
100
AcDbEntity
  8
RACCORDO
100
AcDbLine
 62
250
  6
CONTINUOUS
 10
114.9182203598
 20
99.6916385106
 30
0.0
 11
114.9206971884
 21
83.0071541136
 31
0.0
  0
LINE
  5
2AA
100
AcDbEntity
  8
RACCORDO
100
AcDbLine
 62
250
  6
CONTINUOUS
 10
67.6059229627
 20
102.9894213545
 30
0.0
 11
77.6059229627
 21
102.9894213545
 31
0.0
  0
LINE
  5
2AB
100
AcDbEntity
  8
RACCORDO
100
AcDbLine
 62
250
  6
CONTINUOUS
 10
67.608202057
 20
103.2458483866
 30
0.0
 11
77.6036438684
 21
103.2458483866
 31
0.0
  0
LINE
  5
2AC
100
AcDbEntity
  8
SUPERFICI
100
AcDbLine
 62
7
  6
CONTINUOUS
 10
111.6065604082
 20
103.6729651181
 30
0.0
 11
77.577350209
 21
103.6729651144
 31
0.0
  0
LINE
  5
2AD
100
AcDbEntity
  8
SUPERFICI
100
AcDbLine
 62
7
  6
CONTINUOUS
 10
33.6052855173
 20
103.6729651181
 30
0.0
 11
67.6344957164
 21
103.6729651144
 31
0.0
  0
LINE
  5
2AE
100
AcDbEntity
  8
0
100
AcDbLine
 62
7
  6
CONTINUOUS
 10
67.6344957164
 20
103.6729651144
 30
0.0
 11
77.577350209
 21
103.6729651144
 31
0.0
  0
LWPOLYLINE
  5
2AF
100
AcDbEntity
  8
0
100
AcDbPolyline
 62
7
  6
CONTINUOUS
 90
13
 70
0
 43
0.3500000006
 10
70.6773532104
 20
114.1372546692
 10
70.3916375427
 20
114.3515391541
 10
70.3916375427
 20
114.9943926086
 10
70.6773532104
 20
115.4229615784
 10
71.320206665
 20
115.4229615784
 10
71.6059223328
 20
114.9943926086
 10
71.6059223328
 20
114.3515391541
 10
71.320206665
 20
114.1372546692
 10
71.7487801666
 20
113.7086766357
 10
71.7487801666
 20
112.8515386963
 10
71.320206665
 20
112.4229606628
 10
70.6773532104
 20
112.4229606628
 10
70.2487797089
 20
112.8515386963
  0
LINE
  5
2B0
100
AcDbEntity
  8
RACCORDO
100
AcDbLine
 62
7
  6
CONTINUOUS
 10
153.7524056378
 20
17.6729651144
 30
0.0
 11
156.7913771141
 21
18.1000647023
 31
0.0
  0
LINE
  5
2B1
100
AcDbEntity
  8
RACCORDO
100
AcDbLine
 62
7
  6
CONTINUOUS
 10
156.7693034836
 20
18.1000816625
 30
0.0
 11
153.7302113298
 21
17.6729651144
 31
0.0
  0
LINE
  5
2B2
100
AcDbEntity
  8
RACCORDO
100
AcDbLine
 62
250
  6
CONTINUOUS
 10
154.7847591326
 20
18.1030798628
 30
0.0
 11
151.7243336748
 21
17.6729651144
 31
0.0
  0
LINE
  5
2B3
100
AcDbEntity
  8
0
100
AcDbLine
 62
7
  6
CONTINUOUS
 10
151.680922347
 20
17.6729651107
 30
0.0
 11
153.7524056378
 21
17.6729651144
 31
0.0
  0
LINE
  5
2B4
100
AcDbEntity
  8
RACCORDO
100
AcDbLine
 62
7
  6
CONTINUOUS
 10
156.7913771141
 20
18.1000647023
 30
0.0
 11
156.7693034836
 21
18.1000816625
 31
0.0
  0
LINE
  5
2B5
100
AcDbEntity
  8
RACCORDO
100
AcDbLine
 62
250
  6
CONTINUOUS
 10
156.7690693686
 20
18.1000818422
 30
0.0
 11
154.7847591326
 21
18.1030798628
 31
0.0
  0
LINE
  5
2B6
100
AcDbEntity
  8
RACCORDO
100
AcDbLine
 62
250
  6
CONTINUOUS
 10
157.0468577354
 20
18.3564903532
 30
0.0
 11
155.0382251148
 21
18.3597446833
 31
0.0
  0
LWPOLYLINE
  5
2B7
100
AcDbEntity
  8
0
100
AcDbPolyline
 62
7
  6
CONTINUOUS
 90
10
 70
0
 43
0.3500000006
 10
151.6440687561
 20
112.4229606628
 10
152.5012157593
 20
113.280107666
 10
152.7155002441
 20
114.1372546692
 10
152.7155002441
 20
114.9943926086
 10
152.2869312744
 20
115.4229615784
 10
151.6440687561
 20
115.4229615784
 10
151.2154907227
 20
114.9943926086
 10
151.2154907227
 20
114.1372546692
 10
151.6440687561
 20
113.7086766357
 10
152.5726378784
 20
113.7086766357
  0
LINE
  5
2B8
100
AcDbEntity
  8
SUPERFICI
100
AcDbLine
 62
7
  6
CONTINUOUS
 10
149.5497967505
 20
102.366479799
 30
0.0
 11
151.6004325941
 21
103.5826803711
 31
0.0
  0
LINE
  5
2B9
100
AcDbEntity
  8
RACCORDO
100
AcDbLine
 62
250
  6
CONTINUOUS
 10
149.5502559104
 20
21.6729028629
 30
0.0
 11
151.696934218
 21
21.6711038494
 31
0.0
  0
LINE
  5
2BA
100
AcDbEntity
  8
RACCORDO
100
AcDbLine
 62
7
  6
CONTINUOUS
 10
149.5498307176
 20
18.9794433497
 30
0.0
 11
149.5497971753
 21
18.9794501793
 31
0.0
  0
LWPOLYLINE
  5
2BB
100
AcDbEntity
  8
0
100
AcDbPolyline
 62
7
  6
CONTINUOUS
 90
10
 70
0
 43
0.3500000006
 10
155.7155011597
 20
112.4229606628
 10
156.5726390991
 20
113.280107666
 10
156.786923584
 20
114.1372546692
 10
156.786923584
 20
114.9943926086
 10
156.3583546143
 20
115.4229615784
 10
155.7155011597
 20
115.4229615784
 10
155.2869140625
 20
114.9943926086
 10
155.2869140625
 20
114.1372546692
 10
155.7155011597
 20
113.7086766357
 10
156.6440612183
 20
113.7086766357
  0
LINE
  5
2BC
100
AcDbEntity
  8
RACCORDO
100
AcDbLine
 62
250
  6
CONTINUOUS
 10
149.5514348856
 20
22.0031723652
 30
0.0
 11
151.7441275323
 21
22.0672323253
 31
0.0
  0
LINE
  5
2BD
100
AcDbEntity
  8
RACCORDO
100
AcDbLine
 62
250
  6
CONTINUOUS
 10
154.8017507576
 20
22.0641651144
 30
0.0
 11
151.7437497546
 21
22.0641651144
 31
0.0
  0
LINE
  5
2BE
100
AcDbEntity
  8
RACCORDO
100
AcDbLine
 62
250
  6
CONTINUOUS
 10
154.8017507576
 20
22.0641651144
 30
0.0
 11
155.0552971372
 21
22.033370129
 31
0.0
  0
LINE
  5
2BF
100
AcDbEntity
  8
SUPERFICI
100
AcDbLine
 62
7
  6
CONTINUOUS
 10
149.5497967701
 20
18.9794504183
 30
0.0
 11
150.6727480094
 21
18.3147122232
 31
0.0
  0
LINE
  5
2C0
100
AcDbEntity
  8
SUPERFICI
100
AcDbLine
 62
7
  6
CONTINUOUS
 10
150.6727480094
 20
18.3147122232
 30
0.0
 11
151.6004325941
 21
17.7632498577
 31
0.0
  0
LINE
  5
2C1
100
AcDbEntity
  8
0
100
AcDbLine
 62
7
  6
CONTINUOUS
 10
158.6422298529
 20
32.4427851144
 30
0.0
 11
158.6365982185
 21
32.4427851144
 31
0.0
  0
LINE
  5
2C2
100
AcDbEntity
  8
0
100
AcDbLine
 62
7
  6
CONTINUOUS
 10
158.6334031012
 20
32.4427851144
 30
0.0
 11
158.5531656731
 21
32.4427851144
 31
0.0
  0
LINE
  5
2C3
100
AcDbEntity
  8
0
100
AcDbLine
 62
7
  6
CONTINUOUS
 10
158.8242442607
 20
34.9425211144
 30
0.0
 11
158.7326953167
 21
34.9425211144
 31
0.0
  0
LINE
  5
2C4
100
AcDbEntity
  8
SUPERFICI
100
AcDbLine
 62
7
  6
CONTINUOUS
 10
158.8246192129
 20
34.9718503994
 30
0.0
 11
158.7540832977
 21
34.9718503994
 31
0.0
  0
LINE
  5
2C5
100
AcDbEntity
  8
RACCORDO
100
AcDbLine
 62
250
  6
CONTINUOUS
 10
149.5766368278
 20
38.177833854
 30
0.0
 11
153.2041804167
 21
38.3533563584
 31
0.0
  0
LINE
  5
2C6
100
AcDbEntity
  8
RACCORDO
100
AcDbLine
 62
250
  6
CONTINUOUS
 10
158.8642887931
 20
38.7864414217
 30
0.0
 11
158.8643731254
 21
38.7864435308
 31
0.0
  0
LINE
  5
2C7
100
AcDbEntity
  8
RACCORDO
100
AcDbLine
 62
250
  6
CONTINUOUS
 10
149.4760113891
 20
38.1777589411
 30
0.0
 11
149.5766368278
 21
38.177833854
 31
0.0
  0
LINE
  5
2C8
100
AcDbEntity
  8
RACCORDO
100
AcDbLine
 62
250
  6
CONTINUOUS
 10
156.4901595989
 20
38.1729651144
 30
0.0
 11
158.8371467821
 21
38.1729651144
 31
0.0
  0
LINE
  5
2C9
100
AcDbEntity
  8
RACCORDO
100
AcDbLine
 62
250
  6
CONTINUOUS
 10
156.2442153521
 20
38.3529651144
 30
0.0
 11
153.2041582906
 21
38.3529651144
 31
0.0
  0
LINE
  5
2CA
100
AcDbEntity
  8
RACCORDO
100
AcDbLine
 62
250
  6
CONTINUOUS
 10
158.9465368597
 20
37.9841951814
 30
0.0
 11
158.8379964954
 21
37.9860948027
 31
0.0
  0
LINE
  5
2CB
100
AcDbEntity
  8
RACCORDO
100
AcDbLine
 62
250
  6
CONTINUOUS
 10
156.2442153543
 20
38.3529651541
 30
0.0
 11
156.4994457813
 21
38.3387760759
 31
0.0
  0
LINE
  5
2CC
100
AcDbEntity
  8
RACCORDO
100
AcDbLine
 62
250
  6
CONTINUOUS
 10
156.2349395903
 20
38.1873158471
 30
0.0
 11
156.4901595989
 21
38.1729651144
 31
0.0
  0
LWPOLYLINE
  5
2CD
100
AcDbEntity
  8
0
100
AcDbPolyline
 62
7
  6
CONTINUOUS
 90
3
 70
0
 43
0.3500000006
 10
154.2869318848
 20
112.7086763306
 10
154.2154916382
 20
112.4943918457
 10
154.0726292725
 20
112.208676178
  0
LINE
  5
2CE
100
AcDbEntity
  8
RACCORDO
100
AcDbLine
 62
7
  6
CONTINUOUS
 10
149.4764717933
 20
83.1011601273
 30
0.0
 11
149.4760113891
 21
83.1177742934
 31
0.0
  0
LINE
  5
2CF
100
AcDbEntity
  8
RACCORDO
100
AcDbLine
 62
250
  6
CONTINUOUS
 10
149.5516568958
 20
99.3427588835
 30
0.0
 11
149.5500829431
 21
99.6730265032
 31
0.0
  0
LINE
  5
2D0
100
AcDbEntity
  8
RACCORDO
100
AcDbLine
 62
7
  6
CONTINUOUS
 10
149.4760113891
 20
19.1097493115
 30
0.0
 11
149.4760113891
 21
102.2364044841
 31
0.0
  0
LINE
  5
2D1
100
AcDbEntity
  8
RACCORDO
100
AcDbLine
 62
250
  6
CONTINUOUS
 10
149.5502559104
 20
21.6729028629
 30
0.0
 11
149.5514348856
 21
22.0031723652
 31
0.0
  0
LINE
  5
2D2
100
AcDbEntity
  8
RACCORDO
100
AcDbLine
 62
7
  6
CONTINUOUS
 10
149.476471792
 20
38.2447700777
 30
0.0
 11
149.4760113891
 21
38.2281559355
 31
0.0
  0
LINE
  5
2D3
100
AcDbEntity
  8
RACCORDO
100
AcDbLine
 62
250
  6
CONTINUOUS
 10
156.4994457835
 20
83.0071541131
 30
0.0
 11
156.4901595989
 21
83.1729651144
 31
0.0
  0
LWPOLYLINE
  5
2D4
100
AcDbEntity
  8
RACCORDO
100
AcDbPolyline
 62
7
  6
CONTINUOUS
 90
8
 70
0
 10
158.835601199
 20
38.0346581579
 10
158.8356036672
 20
38.0346086193
 10
158.8355823042
 20
38.0350941194
 10
158.835540092
 20
38.0362618903
 10
158.8354842631
 20
38.0381999597
 10
158.8354272684
 20
38.0407602853
 10
158.8353745993
 20
38.0439408663
 10
158.8353304821
 20
38.0477735975
  0
LINE
  5
2D5
100
AcDbEntity
  8
RACCORDO
100
AcDbLine
 62
250
  6
CONTINUOUS
 10
156.4901595989
 20
38.1729651144
 30
0.0
 11
156.4994457835
 21
38.3387761157
 31
0.0
  0
LINE
  5
2D6
100
AcDbEntity
  8
RACCORDO
100
AcDbLine
 62
250
  6
CONTINUOUS
 10
149.4760113891
 20
60.6729651144
 30
0.0
 11
159.3835487773
 21
60.6729651144
 31
0.0
  0
LINE
  5
2D7
100
AcDbEntity
  8
RACCORDO
100
AcDbLine
 62
250
  6
CONTINUOUS
 10
158.8371467821
 20
83.1729651121
 30
0.0
 11
158.8375707839
 21
83.164910316
 31
0.0
  0
LINE
  5
2D8
100
AcDbEntity
  8
RACCORDO
100
AcDbLine
 62
7
  6
CONTINUOUS
 10
158.9681287711
 20
80.4914467667
 30
0.0
 11
158.8546315157
 21
82.7488039116
 31
0.0
  0
LINE
  5
2D9
100
AcDbEntity
  8
RACCORDO
100
AcDbLine
 62
7
  6
CONTINUOUS
 10
158.8546315157
 20
82.7488039116
 30
0.0
 11
158.8468551371
 21
82.9167625255
 31
0.0
  0
LINE
  5
2DA
100
AcDbEntity
  8
RACCORDO
100
AcDbLine
 62
7
  6
CONTINUOUS
 10
158.8468551371
 20
82.9167625255
 30
0.0
 11
158.8426281992
 21
83.0188965912
 31
0.0
  0
LINE
  5
2DB
100
AcDbEntity
  8
RACCORDO
100
AcDbLine
 62
7
  6
CONTINUOUS
 10
158.8426281992
 20
83.0188965912
 30
0.0
 11
158.839278321
 21
83.1103120417
 31
0.0
  0
LINE
  5
2DC
100
AcDbEntity
  8
RACCORDO
100
AcDbLine
 62
7
  6
CONTINUOUS
 10
158.839278321
 20
83.1103120417
 30
0.0
 11
158.8370539081
 21
83.1834030536
 31
0.0
  0
LINE
  5
2DD
100
AcDbEntity
  8
RACCORDO
100
AcDbLine
 62
7
  6
CONTINUOUS
 10
158.8370539081
 20
83.1834030536
 30
0.0
 11
158.8363099533
 21
83.2133039883
 31
0.0
  0
LINE
  5
2DE
100
AcDbEntity
  8
RACCORDO
100
AcDbLine
 62
7
  6
CONTINUOUS
 10
158.8363099533
 20
83.2133039883
 30
0.0
 11
158.8357725861
 21
83.239916648
 31
0.0
  0
LINE
  5
2DF
100
AcDbEntity
  8
RACCORDO
100
AcDbLine
 62
7
  6
CONTINUOUS
 10
158.8357725861
 20
83.239916648
 30
0.0
 11
158.8354357815
 21
83.2628695758
 31
0.0
  0
LINE
  5
2E0
100
AcDbEntity
  8
RACCORDO
100
AcDbLine
 62
7
  6
CONTINUOUS
 10
158.8354357815
 20
83.2628695758
 30
0.0
 11
158.835319882
 21
83.2759761271
 31
0.0
  0
LINE
  5
2E1
100
AcDbEntity
  8
RACCORDO
100
AcDbLine
 62
7
  6
CONTINUOUS
 10
158.8353304821
 20
38.0477735975
 30
0.0
 11
158.8352846514
 21
38.0570724436
 31
0.0
  0
LWPOLYLINE
  5
2E2
100
AcDbEntity
  8
RACCORDO
100
AcDbPolyline
 62
7
  6
CONTINUOUS
 90
9
 70
0
 10
159.3836332941
 20
60.6729650981
 10
159.3765582138
 20
63.3477083542
 10
159.3551603338
 20
66.0266110133
 10
159.3204724418
 20
68.6289983523
 10
159.2735248588
 20
71.1548399862
 10
159.2152341758
 20
73.6040962334
 10
159.1453294427
 20
75.9767063045
 10
159.0630896263
 20
78.2725229063
 10
158.9681287711
 20
80.4914467667
  0
LINE
  5
2E3
100
AcDbEntity
  8
RACCORDO
100
AcDbLine
 62
7
  6
CONTINUOUS
 10
158.835319882
 20
83.2759761271
 30
0.0
 11
158.8352839992
 21
83.2872563723
 31
0.0
  0
LINE
  5
2E4
100
AcDbEntity
  8
RACCORDO
100
AcDbLine
 62
7
  6
CONTINUOUS
 10
158.8352846514
 20
38.0570724436
 30
0.0
 11
158.8353117264
 21
38.0685553598
 31
0.0
  0
LWPOLYLINE
  5
2E5
100
AcDbEntity
  8
RACCORDO
100
AcDbPolyline
 62
7
  6
CONTINUOUS
 90
8
 70
0
 10
158.8352839992
 20
83.2872563723
 10
158.8353174323
 20
83.2966488612
 10
158.835355348
 20
83.3005454807
 10
158.8354039285
 20
83.3039030776
 10
158.8354597185
 20
83.3067121081
 10
158.8355151933
 20
83.3088513593
 10
158.8355652468
 20
83.3103795149
 10
158.8355930733
 20
83.3110809141
  0
LINE
  5
2E6
100
AcDbEntity
  8
RACCORDO
100
AcDbLine
 62
7
  6
CONTINUOUS
 10
158.8353117264
 20
38.0685553598
 30
0.0
 11
158.8354256191
 21
38.0821004855
 31
0.0
  0
LINE
  5
2E7
100
AcDbEntity
  8
RACCORDO
100
AcDbLine
 62
7
  6
CONTINUOUS
 10
158.8354256191
 20
38.0821004855
 30
0.0
 11
158.8357728259
 21
38.1060857718
 31
0.0
  0
LINE
  5
2E8
100
AcDbEntity
  8
RACCORDO
100
AcDbLine
 62
7
  6
CONTINUOUS
 10
158.8357728259
 20
38.1060857718
 30
0.0
 11
158.8363395767
 21
38.1340138378
 31
0.0
  0
LINE
  5
2E9
100
AcDbEntity
  8
RACCORDO
100
AcDbLine
 62
7
  6
CONTINUOUS
 10
158.8363395767
 20
38.1340138378
 30
0.0
 11
158.8374442239
 21
38.1766092649
 31
0.0
  0
LINE
  5
2EA
100
AcDbEntity
  8
RACCORDO
100
AcDbLine
 62
7
  6
CONTINUOUS
 10
158.8374442239
 20
38.1766092649
 30
0.0
 11
158.8390689508
 21
38.2293244691
 31
0.0
  0
LINE
  5
2EB
100
AcDbEntity
  8
RACCORDO
100
AcDbLine
 62
7
  6
CONTINUOUS
 10
158.8390689508
 20
38.2293244691
 30
0.0
 11
158.8423480684
 21
38.319835536
 31
0.0
  0
LWPOLYLINE
  5
2EC
100
AcDbEntity
  8
RACCORDO
100
AcDbPolyline
 62
7
  6
CONTINUOUS
 90
9
 70
0
 10
158.9678187776
 20
40.8478172802
 10
159.0628278433
 20
43.0667373292
 10
159.1451126933
 20
45.3625526421
 10
159.2150533975
 20
47.7351640077
 10
159.2733909885
 20
50.1844243719
 10
159.3203659405
 20
52.710268749
 10
159.3550888076
 20
55.3126558262
 10
159.3765228733
 20
57.991557338
 10
159.3836332941
 20
60.6729651253
  0
LINE
  5
2ED
100
AcDbEntity
  8
RACCORDO
100
AcDbLine
 62
7
  6
CONTINUOUS
 10
158.8423480684
 20
38.319835536
 30
0.0
 11
158.8488987704
 21
38.4752884813
 31
0.0
  0
LINE
  5
2EE
100
AcDbEntity
  8
RACCORDO
100
AcDbLine
 62
7
  6
CONTINUOUS
 10
158.8488987704
 20
38.4752884813
 30
0.0
 11
158.8570973611
 21
38.6469364128
 31
0.0
  0
LINE
  5
2EF
100
AcDbEntity
  8
RACCORDO
100
AcDbLine
 62
250
  6
CONTINUOUS
 10
158.8371467822
 20
38.1729651178
 30
0.0
 11
158.837570711
 21
38.1810174626
 31
0.0
  0
LINE
  5
2F0
100
AcDbEntity
  8
RACCORDO
100
AcDbLine
 62
7
  6
CONTINUOUS
 10
158.8570973611
 20
38.6469364128
 30
0.0
 11
158.9678187776
 21
40.8478172802
 31
0.0
  0
LINE
  5
2F1
100
AcDbEntity
  8
0
100
AcDbLine
 62
7
  6
CONTINUOUS
 10
158.8237818884
 20
34.9360138666
 30
0.0
 11
158.8242442607
 21
34.9425211144
 31
0.0
  0
LINE
  5
2F2
100
AcDbEntity
  8
0
100
AcDbLine
 62
7
  6
CONTINUOUS
 10
158.692184603
 20
33.2221453085
 30
0.0
 11
158.6961413755
 21
33.2758564724
 31
0.0
  0
LINE
  5
2F3
100
AcDbEntity
  8
0
100
AcDbLine
 62
7
  6
CONTINUOUS
 10
158.7028225976
 20
33.2213392506
 30
0.0
 11
158.7069774397
 21
33.2759028606
 31
0.0
  0
LINE
  5
2F4
100
AcDbEntity
  8
RACCORDO
100
AcDbLine
 62
250
  6
CONTINUOUS
 10
156.2349395903
 20
83.1586143818
 30
0.0
 11
156.4901595989
 21
83.1729651144
 31
0.0
  0
LINE
  5
2F5
100
AcDbEntity
  8
RACCORDO
100
AcDbLine
 62
250
  6
CONTINUOUS
 10
156.2442153521
 20
82.9929651145
 30
0.0
 11
156.4994457835
 21
83.0071541131
 31
0.0
  0
LINE
  5
2F6
100
AcDbEntity
  8
RACCORDO
100
AcDbLine
 62
250
  6
CONTINUOUS
 10
158.8379964954
 20
83.3598354262
 30
0.0
 11
158.9465368597
 21
83.3617350474
 31
0.0
  0
LINE
  5
2F7
100
AcDbEntity
  8
RACCORDO
100
AcDbLine
 62
250
  6
CONTINUOUS
 10
156.2442153521
 20
82.9929651145
 30
0.0
 11
153.2041582906
 21
82.9929651144
 31
0.0
  0
LINE
  5
2F8
100
AcDbEntity
  8
RACCORDO
100
AcDbLine
 62
250
  6
CONTINUOUS
 10
156.4901595989
 20
83.1729651144
 30
0.0
 11
158.8371467821
 21
83.1729651144
 31
0.0
  0
LINE
  5
2F9
100
AcDbEntity
  8
RACCORDO
100
AcDbLine
 62
250
  6
CONTINUOUS
 10
149.4760113891
 20
83.1681712877
 30
0.0
 11
149.5766368278
 21
83.1680963748
 31
0.0
  0
LINE
  5
2FA
100
AcDbEntity
  8
RACCORDO
100
AcDbLine
 62
250
  6
CONTINUOUS
 10
158.8642887989
 20
82.5594886989
 30
0.0
 11
158.864373131
 21
82.5594865915
 31
0.0
  0
LINE
  5
2FB
100
AcDbEntity
  8
RACCORDO
100
AcDbLine
 62
250
  6
CONTINUOUS
 10
149.5766368278
 20
83.1680963748
 30
0.0
 11
153.2041804167
 21
82.9925738704
 31
0.0
  0
LWPOLYLINE
  5
2FC
100
AcDbEntity
  8
0
100
AcDbPolyline
 62
7
  6
CONTINUOUS
 90
10
 70
0
 43
0.3500000006
 10
154.2154916382
 20
112.9229608154
 10
154.2869318848
 20
112.7801075134
 10
154.2869318848
 20
112.7086763306
 10
154.144069519
 20
112.5658230286
 10
154.0726292725
 20
112.5658230286
 10
154.0012071533
 20
112.6372542114
 10
154.0012071533
 20
112.7086763306
 10
154.0726292725
 20
112.8515386963
 10
154.144069519
 20
112.9229608154
 10
154.2154916382
 20
112.9229608154
  0
LINE
  5
2FD
100
AcDbEntity
  8
RACCORDO
100
AcDbLine
 62
250
  6
CONTINUOUS
 10
154.8017507578
 20
99.2817651129
 30
0.0
 11
155.055297137
 21
99.3125601013
 31
0.0
  0
LINE
  5
2FE
100
AcDbEntity
  8
RACCORDO
100
AcDbLine
 62
250
  6
CONTINUOUS
 10
154.7847591326
 20
103.242850366
 30
0.0
 11
156.7690693686
 21
103.2458483866
 31
0.0
  0
LINE
  5
2FF
100
AcDbEntity
  8
RACCORDO
100
AcDbLine
 62
250
  6
CONTINUOUS
 10
149.5502559104
 20
99.673027366
 30
0.0
 11
151.696934218
 21
99.6748263794
 31
0.0
  0
LINE
  5
300
100
AcDbEntity
  8
RACCORDO
100
AcDbLine
 62
250
  6
CONTINUOUS
 10
155.0382251149
 20
102.9861855456
 30
0.0
 11
157.0468577354
 21
102.9894398756
 31
0.0
  0
LINE
  5
301
100
AcDbEntity
  8
RACCORDO
100
AcDbLine
 62
7
  6
CONTINUOUS
 10
156.7693034836
 20
103.2458485664
 30
0.0
 11
156.7913771141
 21
103.2458655265
 31
0.0
  0
LINE
  5
302
100
AcDbEntity
  8
RACCORDO
100
AcDbLine
 62
250
  6
CONTINUOUS
 10
154.8017507576
 20
99.2817651144
 30
0.0
 11
151.7437497546
 21
99.2817651144
 31
0.0
  0
LINE
  5
303
100
AcDbEntity
  8
SUPERFICI
100
AcDbLine
 62
7
  6
CONTINUOUS
 10
151.680922347
 20
103.6729651181
 30
0.0
 11
153.7302113298
 21
103.6729651144
 31
0.0
  0
LINE
  5
304
100
AcDbEntity
  8
0
100
AcDbLine
 62
7
  6
CONTINUOUS
 10
153.7302113298
 20
103.6729651144
 30
0.0
 11
153.7524056378
 21
103.6729651144
 31
0.0
  0
LINE
  5
305
100
AcDbEntity
  8
RACCORDO
100
AcDbLine
 62
250
  6
CONTINUOUS
 10
149.5514348856
 20
99.3427578637
 30
0.0
 11
151.7441275323
 21
99.2786979036
 31
0.0
  0
LINE
  5
306
100
AcDbEntity
  8
RACCORDO
100
AcDbLine
 62
250
  6
CONTINUOUS
 10
154.7847591326
 20
103.242850366
 30
0.0
 11
151.7243336748
 21
103.6729651144
 31
0.0
  0
LINE
  5
307
100
AcDbEntity
  8
RACCORDO
100
AcDbLine
 62
7
  6
CONTINUOUS
 10
156.7693034836
 20
103.2458485664
 30
0.0
 11
153.7302113298
 21
103.6729651144
 31
0.0
  0
LINE
  5
308
100
AcDbEntity
  8
RACCORDO
100
AcDbLine
 62
7
  6
CONTINUOUS
 10
153.7524056378
 20
103.6729651144
 30
0.0
 11
156.7913771141
 21
103.2458655265
 31
0.0
  0
ARC
  5
309
100
AcDbEntity
  8
RACCORDO
100
AcDbCircle
 62
250
  6
CONTINUOUS
 10
170.5287188392
 20
13.5680804252
 30
0.0
 40
136.9849505272
100
AcDbArc
 50
178.1029359287
 51
178.2828202657
  0
ARC
  5
30A
100
AcDbEntity
  8
RACCORDO
100
AcDbCircle
 62
250
  6
CONTINUOUS
 10
-25.3168729035
 20
107.7778498033
 30
0.0
 40
136.9849505169
100
AcDbArc
 50
358.1029359287
 51
358.2828202657
  0
ARC
  5
30B
100
AcDbEntity
  8
RACCORDO
100
AcDbCircle
 62
250
  6
CONTINUOUS
 10
-25.3168657212
 20
13.5680806466
 30
0.0
 40
136.9849433313
100
AcDbArc
 50
1.7171797319
 51
1.8970640783
  0
ARC
  5
30C
100
AcDbEntity
  8
RACCORDO
100
AcDbCircle
 62
250
  6
CONTINUOUS
 10
170.528711643
 20
107.7778495821
 30
0.0
 40
136.9849433276
100
AcDbArc
 50
181.7171797319
 51
181.8970640783
  0
ARC
  5
30D
100
AcDbEntity
  8
RACCORDO
100
AcDbCircle
 62
250
  6
CONTINUOUS
 10
117.7165233216
 20
93.7753991459
 30
0.0
 40
72.1338775385
100
AcDbArc
 50
267.9819749025
 51
268.3233154705
  0
ARC
  5
30E
100
AcDbEntity
  8
RACCORDO
100
AcDbCircle
 62
250
  6
CONTINUOUS
 10
27.4953226038
 20
27.570531083
 30
0.0
 40
72.1338775385
100
AcDbArc
 50
87.9819749025
 51
88.3233154705
  0
ARC
  5
30F
100
AcDbEntity
  8
RACCORDO
100
AcDbCircle
 62
250
  6
CONTINUOUS
 10
27.4953229526
 20
93.7753877287
 30
0.0
 40
72.1338661159
100
AcDbArc
 50
271.676684518
 51
272.0180251412
  0
ARC
  5
310
100
AcDbEntity
  8
RACCORDO
100
AcDbCircle
 62
250
  6
CONTINUOUS
 10
117.7165229728
 20
27.570542503
 30
0.0
 40
72.1338661131
100
AcDbArc
 50
91.676684518
 51
92.0180251412
  0
ARC
  5
311
100
AcDbEntity
  8
SUPERFICI
100
AcDbCircle
 62
7
  6
CONTINUOUS
 10
111.6059229623
 20
21.6729651148
 30
0.0
 40
4.0000000006
100
AcDbArc
 50
270.009130726
 51
359.9919878833
  0
ARC
  5
312
100
AcDbEntity
  8
SUPERFICI
100
AcDbCircle
 62
7
  6
CONTINUOUS
 10
111.6059229623
 20
99.6729651141
 30
0.0
 40
4.0000000006
100
AcDbArc
 50
0.0080121167
 51
89.990869274
  0
ARC
  5
313
100
AcDbEntity
  8
0
100
AcDbCircle
 62
7
  6
CONTINUOUS
 10
33.6059229631
 20
21.6729651148
 30
0.0
 40
4.0000000006
100
AcDbArc
 50
180.0080121167
 51
269.990869274
  0
ARC
  5
314
100
AcDbEntity
  8
SUPERFICI
100
AcDbCircle
 62
7
  6
CONTINUOUS
 10
33.6059229631
 20
99.6729651141
 30
0.0
 40
4.0000000006
100
AcDbArc
 50
90.009130726
 51
179.9919878833
  0
ARC
  5
315
100
AcDbEntity
  8
RACCORDO
100
AcDbCircle
 62
250
  6
CONTINUOUS
 10
111.6010209652
 20
21.6781833236
 30
0.0
 40
3.5753493763
100
AcDbArc
 50
269.8714359511
 51
0.1294155512
  0
ARC
  5
316
100
AcDbEntity
  8
RACCORDO
100
AcDbCircle
 62
250
  6
CONTINUOUS
 10
33.610823799
 20
21.678181982
 30
0.0
 40
3.5753487047
100
AcDbArc
 50
179.8705629047
 51
270.1285827039
  0
ARC
  5
317
100
AcDbEntity
  8
RACCORDO
100
AcDbCircle
 62
250
  6
CONTINUOUS
 10
33.6107954964
 20
99.667777258
 30
0.0
 40
3.575312353
100
AcDbArc
 50
89.8709626958
 51
180.1299030252
  0
ARC
  5
318
100
AcDbEntity
  8
RACCORDO
100
AcDbCircle
 62
250
  6
CONTINUOUS
 10
111.6010528721
 20
99.667775734
 30
0.0
 40
3.5753119514
100
AcDbArc
 50
359.8701213056
 51
90.1290763972
  0
ARC
  5
319
100
AcDbEntity
  8
RACCORDO
100
AcDbCircle
 62
250
  6
CONTINUOUS
 10
33.5758874951
 20
99.7042340452
 30
0.0
 40
3.2822084673
100
AcDbArc
 50
89.7922162883
 51
180.2198689339
  0
ARC
  5
31A
100
AcDbEntity
  8
RACCORDO
100
AcDbCircle
 62
250
  6
CONTINUOUS
 10
111.6359584315
 20
21.6416961826
 30
0.0
 40
3.2822084638
100
AcDbArc
 50
269.7922162691
 51
0.2198689526
  0
ARC
  5
31B
100
AcDbEntity
  8
RACCORDO
100
AcDbCircle
 62
250
  6
CONTINUOUS
 10
33.5758850935
 20
21.6416976971
 30
0.0
 40
3.2822080881
100
AcDbArc
 50
179.7801573243
 51
270.2078255388
  0
ARC
  5
31C
100
AcDbEntity
  8
RACCORDO
100
AcDbCircle
 62
250
  6
CONTINUOUS
 10
111.6359608341
 20
99.7042325337
 30
0.0
 40
3.2822080874
100
AcDbArc
 50
359.7801572891
 51
90.2078255766
  0
ARC
  5
31D
100
AcDbEntity
  8
RACCORDO
100
AcDbCircle
 62
250
  6
CONTINUOUS
 10
61.8046762316
 20
82.5585886216
 30
0.0
 40
0.8010900357
100
AcDbArc
 50
90.0273380843
 51
179.9356246558
  0
ARC
  5
31E
100
AcDbEntity
  8
RACCORDO
100
AcDbCircle
 62
250
  6
CONTINUOUS
 10
83.4071709047
 20
82.558589188
 30
0.0
 40
0.8010888242
100
AcDbArc
 50
0.0643349278
 51
89.9726709326
  0
ARC
  5
31F
100
AcDbEntity
  8
RACCORDO
100
AcDbCircle
 62
250
  6
CONTINUOUS
 10
61.8046750208
 20
38.7873410408
 30
0.0
 40
0.8010888242
100
AcDbArc
 50
180.0643349278
 51
269.9726709326
  0
ARC
  5
320
100
AcDbEntity
  8
RACCORDO
100
AcDbCircle
 62
250
  6
CONTINUOUS
 10
83.4071709451
 20
38.787341022
 30
0.0
 40
0.8010887838
100
AcDbArc
 50
270.0273357889
 51
359.9356664199
  0
ARC
  5
321
100
AcDbEntity
  8
RACCORDO
100
AcDbCircle
 62
250
  6
CONTINUOUS
 10
61.8106393514
 20
82.5425020653
 30
0.0
 40
0.4999960883
100
AcDbArc
 50
90.0294850364
 51
179.9062367875
  0
ARC
  5
322
100
AcDbEntity
  8
RACCORDO
100
AcDbCircle
 62
250
  6
CONTINUOUS
 10
61.8106386731
 20
38.8034278435
 30
0.0
 40
0.4999954105
100
AcDbArc
 50
180.0937267764
 51
269.9705206433
  0
ARC
  5
323
100
AcDbEntity
  8
RACCORDO
100
AcDbCircle
 62
250
  6
CONTINUOUS
 10
83.4012072523
 20
82.5425023854
 30
0.0
 40
0.4999954105
100
AcDbArc
 50
0.0937267764
 51
89.9705206433
  0
ARC
  5
324
100
AcDbEntity
  8
RACCORDO
100
AcDbCircle
 62
250
  6
CONTINUOUS
 10
83.4012072976
 20
38.8034278249
 30
0.0
 40
0.4999953649
100
AcDbArc
 50
270.0294844182
 51
359.9062753731
  0
ARC
  5
325
100
AcDbEntity
  8
0
100
AcDbCircle
 62
7
  6
CONTINUOUS
 10
-90.6737640084
 20
52.2380035745
 30
0.0
 40
250.1006106935
100
AcDbArc
 50
355.460346883
 51
355.639245995
  0
ARC
  5
326
100
AcDbEntity
  8
0
100
AcDbCircle
 62
7
  6
CONTINUOUS
 10
-90.6467221259
 20
52.2359613435
 30
0.0
 40
250.0734918074
100
AcDbArc
 50
355.6517790239
 51
356.0331116075
  0
ARC
  5
327
100
AcDbEntity
  8
0
100
AcDbCircle
 62
7
  6
CONTINUOUS
 10
-90.646935221
 20
52.2354651144
 30
0.0
 40
250.0
100
AcDbArc
 50
356.0348343819
 51
356.7320779931
  0
ARC
  5
328
100
AcDbEntity
  8
0
100
AcDbCircle
 62
7
  6
CONTINUOUS
 10
-90.646935221
 20
52.2354651144
 30
0.0
 40
250.0
100
AcDbArc
 50
352.2115471205
 51
355.4590991431
  0
ARC
  5
329
100
AcDbEntity
  8
RACCORDO
100
AcDbCircle
 62
250
  6
CONTINUOUS
 10
-90.6692570945
 20
52.2354651144
 30
0.0
 40
250.0
100
AcDbArc
 50
352.2115514047
 51
356.7321675617
  0
ARC
  5
32A
100
AcDbEntity
  8
RACCORDO
100
AcDbCircle
 62
250
  6
CONTINUOUS
 10
-93.1138736082
 20
52.2354651144
 30
0.0
 40
250.0
100
AcDbArc
 50
353.0612470275
 51
356.7754085309
  0
ARC
  5
32B
100
AcDbEntity
  8
RACCORDO
100
AcDbCircle
 62
250
  6
CONTINUOUS
 10
-93.2133426602
 20
52.2355305129
 30
0.0
 40
249.8435467508
100
AcDbArc
 50
353.0639738822
 51
356.7766702218
  0
ARC
  5
32C
100
AcDbEntity
  8
0
100
AcDbCircle
 62
7
  6
CONTINUOUS
 10
-93.2050870589
 20
52.2354651144
 30
0.0
 40
246.8
100
AcDbArc
 50
352.9780256763
 51
356.7754104083
  0
ARC
  5
32D
100
AcDbEntity
  8
0
100
AcDbCircle
 62
7
  6
CONTINUOUS
 10
-82.0326330659
 20
52.0533749562
 30
0.0
 40
241.4639034624
100
AcDbArc
 50
355.527024077
 51
355.9348961113
  0
ARC
  5
32E
100
AcDbEntity
  8
0
100
AcDbCircle
 62
7
  6
CONTINUOUS
 10
-79.9781746326
 20
50.8314271954
 30
0.0
 40
239.3190907266
100
AcDbArc
 50
355.593201223
 51
355.7803191787
  0
ARC
  5
32F
100
AcDbEntity
  8
0
100
AcDbCircle
 62
7
  6
CONTINUOUS
 10
-79.938780687
 20
50.8285492172
 30
0.0
 40
239.2795917967
100
AcDbArc
 50
355.7932084163
 51
356.1932718644
  0
ARC
  5
330
100
AcDbEntity
  8
0
100
AcDbCircle
 62
7
  6
CONTINUOUS
 10
-79.9564547658
 20
50.8287277224
 30
0.0
 40
239.2172274889
100
AcDbArc
 50
355.591969492
 51
356.1922351319
  0
ARC
  5
331
100
AcDbEntity
  8
RACCORDO
100
AcDbCircle
 62
7
  6
CONTINUOUS
 10
-90.646935221
 20
69.1104651144
 30
0.0
 40
250.0
100
AcDbArc
 50
3.2679220069
 51
7.7884528795
  0
ARC
  5
332
100
AcDbEntity
  8
RACCORDO
100
AcDbCircle
 62
250
  6
CONTINUOUS
 10
-93.1138849722
 20
69.1104651144
 30
0.0
 40
250.0
100
AcDbArc
 50
3.2245913226
 51
6.9387526579
  0
ARC
  5
333
100
AcDbEntity
  8
RACCORDO
100
AcDbCircle
 62
250
  6
CONTINUOUS
 10
-90.6692570945
 20
69.1104651144
 30
0.0
 40
250.0
100
AcDbArc
 50
3.2678324383
 51
7.7884485953
  0
ARC
  5
334
100
AcDbEntity
  8
RACCORDO
100
AcDbCircle
 62
250
  6
CONTINUOUS
 10
-93.2131178009
 20
69.1104197037
 30
0.0
 40
249.8433211234
100
AcDbArc
 50
3.2233281012
 51
6.9360277948
  0
ARC
  5
335
100
AcDbEntity
  8
SUPERFICI
100
AcDbCircle
 62
7
  6
CONTINUOUS
 10
-93.2050870589
 20
69.1104651144
 30
0.0
 40
246.8
100
AcDbArc
 50
3.2245895917
 51
7.0219743237
  0
ARC
  5
336
100
AcDbEntity
  8
0
100
AcDbCircle
 62
7
  6
CONTINUOUS
 10
187.2970161005
 20
17.677151294
 30
0.0
 40
35.8229066119
100
AcDbArc
 50
172.9656757665
 51
173.5965987106
  0
ARC
  5
337
100
AcDbEntity
  8
RACCORDO
100
AcDbCircle
 62
250
  6
CONTINUOUS
 10
172.8032367508
 20
37.7592921961
 30
0.0
 40
13.9722266901
100
AcDbArc
 50
177.9715621418
 51
178.1429806052
  0
ARC
  5
338
100
AcDbEntity
  8
RACCORDO
100
AcDbCircle
 62
250
  6
CONTINUOUS
 10
169.8277120263
 20
37.8548602035
 30
0.0
 40
10.9951678078
100
AcDbArc
 50
178.1382628922
 51
178.3421251298
  0
ARC
  5
339
100
AcDbEntity
  8
RACCORDO
100
AcDbCircle
 62
250
  6
CONTINUOUS
 10
166.241597557
 20
37.9551184659
 30
0.0
 40
7.4076547193
100
AcDbArc
 50
178.3147846591
 51
178.7849979752
  0
ARC
  5
33A
100
AcDbEntity
  8
RACCORDO
100
AcDbCircle
 62
250
  6
CONTINUOUS
 10
163.7270403604
 20
38.0084374322
 30
0.0
 40
4.8925322954
100
AcDbArc
 50
178.7848552615
 51
179.0815479589
  0
ARC
  5
33B
100
AcDbEntity
  8
RACCORDO
100
AcDbCircle
 62
250
  6
CONTINUOUS
 10
155.0327336593
 20
15.3859605681
 30
0.0
 40
2.9737891855
100
AcDbArc
 50
89.8941964671
 51
90.7387141444
  0
ARC
  5
33C
100
AcDbEntity
  8
RACCORDO
100
AcDbCircle
 62
250
  6
CONTINUOUS
 10
154.7801465755
 20
15.1345406362
 30
0.0
 40
2.9685428101
100
AcDbArc
 50
89.9109731024
 51
90.7554443496
  0
ARC
  5
33D
100
AcDbEntity
  8
RACCORDO
100
AcDbCircle
 62
250
  6
CONTINUOUS
 10
158.5373846923
 20
38.0030542104
 30
0.0
 40
0.3010898167
100
AcDbArc
 50
356.7710065715
 51
7.9186382015
  0
ARC
  5
33E
100
AcDbEntity
  8
RACCORDO
100
AcDbCircle
 62
7
  6
CONTINUOUS
 10
156.7496251838
 20
18.397145123
 30
0.0
 40
0.3
100
AcDbArc
 50
278.0
 51
352.2115471205
  0
ARC
  5
33F
100
AcDbEntity
  8
RACCORDO
100
AcDbCircle
 62
7
  6
CONTINUOUS
 10
158.6470246932
 20
38.0012967054
 30
0.0
 40
0.3
100
AcDbArc
 50
356.7320779931
 51
50.119747547
  0
ARC
  5
340
100
AcDbEntity
  8
RACCORDO
100
AcDbCircle
 62
7
  6
CONTINUOUS
 10
149.7760113891
 20
38.2281559355
 30
0.0
 40
0.3
100
AcDbArc
 50
174.5055603554
 51
180.0
  0
ARC
  5
341
100
AcDbEntity
  8
RACCORDO
100
AcDbCircle
 62
250
  6
CONTINUOUS
 10
156.7273404753
 20
18.3971509023
 30
0.0
 40
0.2999639612
100
AcDbArc
 50
278.001449889
 51
352.2130620248
  0
ARC
  5
342
100
AcDbEntity
  8
RACCORDO
100
AcDbCircle
 62
250
  6
CONTINUOUS
 10
158.6248272737
 20
38.0017084183
 30
0.0
 40
0.299899219
100
AcDbArc
 50
356.7268582727
 51
44.5005975727
  0
ARC
  5
343
100
AcDbEntity
  8
RACCORDO
100
AcDbCircle
 62
7
  6
CONTINUOUS
 10
149.6260113891
 20
19.1086453869
 30
0.0
 40
0.15
100
AcDbArc
 50
180.0
 51
239.4628720357
  0
ARC
  5
344
100
AcDbEntity
  8
SUPERFICI
100
AcDbCircle
 62
7
  6
CONTINUOUS
 10
187.2970161006
 20
103.6687789349
 30
0.0
 40
35.8229066119
100
AcDbArc
 50
186.4034012894
 51
187.0343242335
  0
ARC
  5
345
100
AcDbEntity
  8
RACCORDO
100
AcDbCircle
 62
250
  6
CONTINUOUS
 10
172.3561011733
 20
83.570673462
 30
0.0
 40
13.5248064174
100
AcDbArc
 50
181.7186433642
 51
182.0372898413
  0
ARC
  5
346
100
AcDbEntity
  8
RACCORDO
100
AcDbCircle
 62
250
  6
CONTINUOUS
 10
167.9262401194
 20
83.436130375
 30
0.0
 40
9.0929023776
100
AcDbArc
 50
181.4828690232
 51
181.6584764593
  0
ARC
  5
347
100
AcDbEntity
  8
RACCORDO
100
AcDbCircle
 62
250
  6
CONTINUOUS
 10
166.1275153443
 20
83.3892090486
 30
0.0
 40
7.2935657589
100
AcDbArc
 50
181.2783222875
 51
181.4800558374
  0
ARC
  5
348
100
AcDbEntity
  8
RACCORDO
100
AcDbCircle
 62
250
  6
CONTINUOUS
 10
164.501910262
 20
83.3525745374
 30
0.0
 40
5.6675479839
100
AcDbArc
 50
181.0368856792
 51
181.274686559
  0
ARC
  5
349
100
AcDbEntity
  8
RACCORDO
100
AcDbCircle
 62
250
  6
CONTINUOUS
 10
155.0327336594
 20
105.9599696667
 30
0.0
 40
2.9737891914
100
AcDbArc
 50
269.2612858564
 51
270.105803533
  0
ARC
  5
34A
100
AcDbEntity
  8
RACCORDO
100
AcDbCircle
 62
250
  6
CONTINUOUS
 10
154.7801465665
 20
106.2113884716
 30
0.0
 40
2.9685416891
100
AcDbArc
 50
269.2445555452
 51
270.0890271056
  0
ARC
  5
34B
100
AcDbEntity
  8
RACCORDO
100
AcDbCircle
 62
250
  6
CONTINUOUS
 10
158.5373846508
 20
83.3428760157
 30
0.0
 40
0.3010898582
100
AcDbArc
 50
352.0812754056
 51
3.2289935225
  0
ARC
  5
34C
100
AcDbEntity
  8
RACCORDO
100
AcDbCircle
 62
7
  6
CONTINUOUS
 10
156.7496251838
 20
102.9487851059
 30
0.0
 40
0.3
100
AcDbArc
 50
7.7884528795
 51
82.0
  0
ARC
  5
34D
100
AcDbEntity
  8
RACCORDO
100
AcDbCircle
 62
7
  6
CONTINUOUS
 10
158.6470246932
 20
83.3446335235
 30
0.0
 40
0.3
100
AcDbArc
 50
309.8810528351
 51
3.2679220069
  0
ARC
  5
34E
100
AcDbEntity
  8
RACCORDO
100
AcDbCircle
 62
7
  6
CONTINUOUS
 10
149.7760113891
 20
83.1177742934
 30
0.0
 40
0.3
100
AcDbArc
 50
180.0
 51
185.9334221042
  0
ARC
  5
34F
100
AcDbEntity
  8
RACCORDO
100
AcDbCircle
 62
250
  6
CONTINUOUS
 10
156.7273404753
 20
102.9487793266
 30
0.0
 40
0.2999639612
100
AcDbArc
 50
7.7869379751
 51
81.998550111
  0
ARC
  5
350
100
AcDbEntity
  8
RACCORDO
100
AcDbCircle
 62
250
  6
CONTINUOUS
 10
158.6248272729
 20
83.3442218106
 30
0.0
 40
0.2998992199
100
AcDbArc
 50
315.499332378
 51
3.2731416911
  0
ARC
  5
351
100
AcDbEntity
  8
RACCORDO
100
AcDbCircle
 62
7
  6
CONTINUOUS
 10
149.6260113891
 20
102.2372848419
 30
0.0
 40
0.15
100
AcDbArc
 50
120.53711763
 51
180.0
  0
SPLINE
  5
352
100
AcDbEntity
  8
0
100
AcDbSpline
 62
7
  6
CONTINUOUS
 70
0
 71
3
 72
9
 73
5
 74
0
 42
0.0000001
 43
0.0000001
 44
0.0000000001
 40
0.0
 40
0.0
 40
0.0
 40
0.0
 40
0.6439297259
 40
1.0
 40
1.0
 40
1.0
 40
1.0
 10
76.6607463507
 20
33.2009443715
 30
0.0
 10
76.6318179508
 20
33.2779283359
 30
0.0
 10
76.5459112039
 20
33.3935220038
 30
0.0
 10
76.4151621634
 20
33.421043753
 30
0.0
 10
76.3696916791
 20
33.421043753
 30
0.0
  0
SPLINE
  5
353
100
AcDbEntity
  8
0
100
AcDbSpline
 62
7
  6
CONTINUOUS
 70
0
 71
3
 72
9
 73
5
 74
0
 42
0.0000001
 43
0.0000001
 44
0.0000000001
 40
0.0
 40
0.0
 40
0.0
 40
0.0
 40
0.4412849067
 40
1.0
 40
1.0
 40
1.0
 40
1.0
 10
76.8889726251
 20
32.4427853337
 30
0.0
 10
76.8567911245
 20
32.5547194245
 30
0.0
 10
76.7808049388
 20
32.8073345253
 30
0.0
 10
76.7126171016
 20
33.0629063725
 30
0.0
 10
76.6607463233
 20
33.2009443612
 30
0.0
  0
SPLINE
  5
354
100
AcDbEntity
  8
0
100
AcDbSpline
 62
7
  6
CONTINUOUS
 70
0
 71
3
 72
9
 73
5
 74
0
 42
0.0000001
 43
0.0000001
 44
0.0000000001
 40
0.0
 40
0.0
 40
0.0
 40
0.0
 40
0.8019701384
 40
1.0
 40
1.0
 40
1.0
 40
1.0
 10
77.2125114855
 20
33.1193041966
 30
0.0
 10
77.2616741623
 20
32.93885194
 30
0.0
 10
77.3195298177
 20
32.7129189899
 30
0.0
 10
77.3787720544
 20
32.4873537991
 30
0.0
 10
77.3908767234
 20
32.4427853337
 30
0.0
  0
SPLINE
  5
355
100
AcDbEntity
  8
0
100
AcDbSpline
 62
7
  6
CONTINUOUS
 70
0
 71
3
 72
8
 73
4
 74
0
 42
0.0000001
 43
0.0000001
 44
0.0000000001
 40
0.0
 40
0.0
 40
0.0
 40
0.0
 40
1.0
 40
1.0
 40
1.0
 40
1.0
 10
76.9117293599
 20
33.6096397244
 30
0.0
 10
76.9291077293
 20
33.6027100996
 30
0.0
 10
76.9455580942
 20
33.5941212495
 30
0.0
 10
76.9611306956
 20
33.584112337
 30
0.0
  0
SPLINE
  5
356
100
AcDbEntity
  8
0
100
AcDbSpline
 62
7
  6
CONTINUOUS
 70
0
 71
3
 72
9
 73
5
 74
0
 42
0.0000001
 43
0.0000001
 44
0.0000000001
 40
0.0
 40
0.0
 40
0.0
 40
0.0
 40
0.7313675464
 40
1.0
 40
1.0
 40
1.0
 40
1.0
 10
76.9611306956
 20
33.584112337
 30
0.0
 10
77.0678623393
 20
33.5155131576
 30
0.0
 10
77.1574191704
 20
33.3305087941
 30
0.0
 10
77.200130943
 20
33.1647471409
 30
0.0
 10
77.2125114852
 20
33.1193041965
 30
0.0
  0
SPLINE
  5
357
100
AcDbEntity
  8
0
100
AcDbSpline
 62
7
  6
CONTINUOUS
 70
0
 71
3
 72
17
 73
13
 74
0
 42
0.0000001
 43
0.0000001
 44
0.0000000001
 40
0.0
 40
0.0
 40
0.0
 40
0.0
 40
0.0799595168
 40
0.1896577306
 40
0.3223977561
 40
0.3986068941
 40
0.483386777
 40
0.5877249163
 40
0.678993766
 40
0.8312459613
 40
0.9440219048
 40
1.0
 40
1.0
 40
1.0
 40
1.0
 10
76.8579304893
 20
34.8869973703
 30
0.0
 10
76.8969761206
 20
34.8729115208
 30
0.0
 10
76.9841678788
 20
34.8248221389
 30
0.0
 10
77.110980777
 20
34.7133210882
 30
0.0
 10
77.2007965609
 20
34.570741414
 30
0.0
 10
77.248616581
 20
34.4252551868
 30
0.0
 10
77.2683471068
 20
34.2883370258
 30
0.0
 10
77.2646032531
 20
34.1417424324
 30
0.0
 10
77.2247529758
 20
33.9651179982
 30
0.0
 10
77.1352976958
 20
33.7958120424
 30
0.0
 10
77.0138078506
 20
33.6858263121
 30
0.0
 10
76.9405498618
 20
33.6281297567
 30
0.0
 10
76.9117293599
 20
33.6244109822
 30
0.0
  0
SPLINE
  5
358
100
AcDbEntity
  8
0
100
AcDbSpline
 62
7
  6
CONTINUOUS
 70
0
 71
3
 72
9
 73
5
 74
0
 42
0.0000001
 43
0.0000001
 44
0.0000000001
 40
0.0
 40
0.0
 40
0.0
 40
0.0
 40
0.7042582166
 40
1.0
 40
1.0
 40
1.0
 40
1.0
 10
75.5702254648
 20
34.9133157028
 30
0.0
 10
75.8713376788
 20
34.9576144368
 30
0.0
 10
76.3056651904
 20
35.0012129955
 30
0.0
 10
76.7377263399
 20
34.9304243805
 30
0.0
 10
76.8579304893
 20
34.8869973703
 30
0.0
  0
SPLINE
  5
359
100
AcDbEntity
  8
0
100
AcDbSpline
 62
7
  6
CONTINUOUS
 70
0
 71
3
 72
9
 73
5
 74
0
 42
0.0000001
 43
0.0000001
 44
0.0000000001
 40
0.0
 40
0.0
 40
0.0
 40
0.0
 40
0.7295958313
 40
1.0
 40
1.0
 40
1.0
 40
1.0
 10
76.4813813813
 20
34.5313827494
 30
0.0
 10
76.3823614692
 20
34.5428752357
 30
0.0
 10
76.2441403929
 20
34.5433182362
 30
0.0
 10
76.1090358319
 20
34.5228805068
 30
0.0
 10
76.0726169396
 20
34.5166661895
 30
0.0
  0
SPLINE
  5
35A
100
AcDbEntity
  8
0
100
AcDbSpline
 62
7
  6
CONTINUOUS
 70
0
 71
3
 72
9
 73
5
 74
0
 42
0.0000001
 43
0.0000001
 44
0.0000000001
 40
0.0
 40
0.0
 40
0.0
 40
0.0
 40
0.4988584794
 40
1.0
 40
1.0
 40
1.0
 40
1.0
 10
76.7761481063
 20
34.2186920269
 30
0.0
 10
76.7750032127
 20
34.2953192307
 30
0.0
 10
76.7126157445
 20
34.4551299323
 30
0.0
 10
76.5578603996
 20
34.5225064129
 30
0.0
 10
76.4813813813
 20
34.5313827496
 30
0.0
  0
SPLINE
  5
35B
100
AcDbEntity
  8
0
100
AcDbSpline
 62
7
  6
CONTINUOUS
 70
0
 71
3
 72
9
 73
5
 74
0
 42
0.0000001
 43
0.0000001
 44
0.0000000001
 40
0.0
 40
0.0
 40
0.0
 40
0.0
 40
0.479537635
 40
1.0
 40
1.0
 40
1.0
 40
1.0
 10
76.3708163941
 20
33.8304400371
 30
0.0
 10
76.4703078976
 20
33.8326622523
 30
0.0
 10
76.701393349
 20
33.8747520296
 30
0.0
 10
76.7777619488
 20
34.110676837
 30
0.0
 10
76.7761480847
 20
34.2186920266
 30
0.0
  0
SPLINE
  5
35C
100
AcDbEntity
  8
RACCORDO
100
AcDbSpline
 62
250
  6
CONTINUOUS
 70
0
 71
3
 72
13
 73
9
 74
0
 42
0.0000001
 43
0.0000001
 44
0.0000000001
 40
0.0
 40
0.0
 40
0.0
 40
0.0
 40
0.042521745
 40
0.1136614821
 40
0.2119121143
 40
0.3346437324
 40
0.6406871023
 40
1.0
 40
1.0
 40
1.0
 40
1.0
 10
115.1786708058
 20
82.9929650748
 30
0.0
 10
115.1752601346
 20
82.9943119425
 30
0.0
 10
115.1655389939
 20
82.9961364277
 30
0.0
 10
115.147468916
 20
82.9985432332
 30
0.0
 10
115.1223402339
 20
83.0006918257
 30
0.0
 10
115.0769911759
 20
83.0035600976
 30
0.0
 10
115.009054208
 20
83.0060113959
 30
0.0
 10
114.9516827069
 20
83.0069305168
 30
0.0
 10
114.9206971884
 20
83.007154153
 30
0.0
  0
SPLINE
  5
35D
100
AcDbEntity
  8
RACCORDO
100
AcDbSpline
 62
250
  6
CONTINUOUS
 70
0
 71
3
 72
13
 73
9
 74
0
 42
0.0000001
 43
0.0000001
 44
0.0000000001
 40
0.0
 40
0.0
 40
0.0
 40
0.0
 40
0.0425478101
 40
0.113698706
 40
0.2119526057
 40
0.3346822162
 40
0.6407106403
 40
1.0
 40
1.0
 40
1.0
 40
1.0
 10
115.1786549744
 20
83.1586143818
 30
0.0
 10
115.1752472469
 20
83.1599754437
 30
0.0
 10
115.1655246353
 20
83.1618222804
 30
0.0
 10
115.1474541196
 20
83.1642559534
 30
0.0
 10
115.1223242369
 20
83.166429556
 30
0.0
 10
115.0769754096
 20
83.1693303578
 30
0.0
 10
115.0090378455
 20
83.1718096743
 30
0.0
 10
114.9516658121
 20
83.1727390534
 30
0.0
 10
114.9206801823
 20
83.1729651144
 30
0.0
  0
SPLINE
  5
35E
100
AcDbEntity
  8
RACCORDO
100
AcDbSpline
 62
250
  6
CONTINUOUS
 70
0
 71
3
 72
13
 73
9
 74
0
 42
0.0000001
 43
0.0000001
 44
0.0000000001
 40
0.0
 40
0.0
 40
0.0
 40
0.0
 40
0.0464644491
 40
0.1193602235
 40
0.2181477099
 40
0.3405906424
 40
0.6443377121
 40
1.0
 40
1.0
 40
1.0
 40
1.0
 10
115.1761489492
 20
99.2817651144
 30
0.0
 10
115.1730665722
 20
99.2843936107
 30
0.0
 10
115.1632984265
 20
99.2886582995
 30
0.0
 10
115.1450720567
 20
99.2937849092
 30
0.0
 10
115.1198047568
 20
99.2985484359
 30
0.0
 10
115.0744685644
 20
99.3047364078
 30
0.0
 10
115.0064520259
 20
99.3100909966
 30
0.0
 10
114.9489886824
 20
99.3120772034
 30
0.0
 10
114.9179845784
 20
99.3125600998
 30
0.0
  0
SPLINE
  5
35F
100
AcDbEntity
  8
RACCORDO
100
AcDbSpline
 62
250
  6
CONTINUOUS
 70
0
 71
3
 72
13
 73
9
 74
0
 42
0.0000001
 43
0.0000001
 44
0.0000000001
 40
0.0
 40
0.0
 40
0.0
 40
0.0
 40
0.0466238153
 40
0.1195960744
 40
0.2184111496
 40
0.3408471052
 40
0.6445027091
 40
1.0
 40
1.0
 40
1.0
 40
1.0
 10
115.1763982637
 20
99.6598070258
 30
0.0
 10
115.1733295393
 20
99.6624771072
 30
0.0
 10
115.1635698879
 20
99.6668399782
 30
0.0
 10
115.1453397925
 20
99.672088593
 30
0.0
 10
115.1200700322
 20
99.6769856174
 30
0.0
 10
115.07473365
 20
99.6833680556
 30
0.0
 10
115.0067081443
 20
99.6889503155
 30
0.0
 10
114.9492309818
 20
99.6910854365
 30
0.0
 10
114.9182203044
 20
99.6916384587
 30
0.0
  0
SPLINE
  5
360
100
AcDbEntity
  8
RACCORDO
100
AcDbSpline
 62
250
  6
CONTINUOUS
 70
0
 71
3
 72
13
 73
9
 74
0
 42
0.0000001
 43
0.0000001
 44
0.0000000001
 40
0.0
 40
0.0
 40
0.0
 40
0.0
 40
0.0463533894
 40
0.1191652032
 40
0.2178774458
 40
0.3402613758
 40
0.6440111
 40
1.0
 40
1.0
 40
1.0
 40
1.0
 10
111.5928755753
 20
103.2431138844
 30
0.0
 10
111.5954708422
 20
103.2400458183
 30
0.0
 10
111.5996843892
 20
103.2303441985
 30
0.0
 10
111.6047803645
 20
103.2122436177
 30
0.0
 10
111.6095435568
 20
103.1871437584
 30
0.0
 10
111.6157820245
 20
103.1420859866
 30
0.0
 10
111.6212907525
 20
103.0744447607
 30
0.0
 10
111.6234600023
 20
103.0172836202
 30
0.0
 10
111.6240554706
 20
102.9864276373
 30
0.0
  0
SPLINE
  5
361
100
AcDbEntity
  8
RACCORDO
100
AcDbSpline
 62
250
  6
CONTINUOUS
 70
0
 71
3
 72
13
 73
9
 74
0
 42
0.0000001
 43
0.0000001
 44
0.0000000001
 40
0.0
 40
0.0
 40
0.0
 40
0.0
 40
0.0462446041
 40
0.119004012
 40
0.2176959139
 40
0.3400820287
 40
0.6438902663
 40
1.0
 40
1.0
 40
1.0
 40
1.0
 10
111.2259843828
 20
103.242850366
 30
0.0
 10
111.2285422424
 20
103.2397673751
 30
0.0
 10
111.2326644169
 20
103.2300540396
 30
0.0
 10
111.2376355357
 20
103.2119505323
 30
0.0
 10
111.2422526437
 20
103.1868506135
 30
0.0
 10
111.2482626289
 20
103.1417945718
 30
0.0
 10
111.2534767938
 20
103.0741688138
 30
0.0
 10
111.2554302165
 20
103.0170296502
 30
0.0
 10
111.2559167127
 20
102.9861855456
 30
0.0
  0
SPLINE
  5
362
100
AcDbEntity
  8
RACCORDO
100
AcDbSpline
 62
250
  6
CONTINUOUS
 70
0
 71
3
 72
11
 73
7
 74
0
 42
0.0000001
 43
0.0000001
 44
0.0000000001
 40
0.0
 40
0.0
 40
0.0
 40
0.0
 40
0.1120556243
 40
0.3328487739
 40
0.6394507797
 40
1.0
 40
1.0
 40
1.0
 40
1.0
 10
77.6036438684
 20
103.2458483866
 30
0.0
 10
77.6042510288
 20
103.2362889424
 30
0.0
 10
77.6045547387
 20
103.2078213442
 30
0.0
 10
77.6053529176
 20
103.1531774186
 30
0.0
 10
77.6057126119
 20
103.0772690113
 30
0.0
 10
77.6058855378
 20
103.0202416958
 30
0.0
 10
77.6059229627
 20
102.9894213545
 30
0.0
  0
SPLINE
  5
363
100
AcDbEntity
  8
RACCORDO
100
AcDbSpline
 62
250
  6
CONTINUOUS
 70
0
 71
3
 72
11
 73
7
 74
0
 42
0.0000001
 43
0.0000001
 44
0.0000000001
 40
0.0
 40
0.0
 40
0.0
 40
0.0
 40
0.1120552089
 40
0.3328483402
 40
0.6394505124
 40
1.0
 40
1.0
 40
1.0
 40
1.0
 10
77.577350209
 20
103.2458485664
 30
0.0
 10
77.5779541852
 20
103.2362889637
 30
0.0
 10
77.5782562785
 20
103.2078215829
 30
0.0
 10
77.5790502706
 20
103.1531775417
 30
0.0
 10
77.5794080658
 20
103.0772692157
 30
0.0
 10
77.5795800833
 20
103.0202418886
 30
0.0
 10
77.5796173111
 20
102.9894215488
 30
0.0
  0
SPLINE
  5
364
100
AcDbEntity
  8
RACCORDO
100
AcDbSpline
 62
250
  6
CONTINUOUS
 70
0
 71
3
 72
11
 73
7
 74
0
 42
0.0000001
 43
0.0000001
 44
0.0000000001
 40
0.0
 40
0.0
 40
0.0
 40
0.0
 40
0.1120552089
 40
0.3328483402
 40
0.6394505124
 40
1.0
 40
1.0
 40
1.0
 40
1.0
 10
67.6344957164
 20
103.2458485664
 30
0.0
 10
67.6338917403
 20
103.2362889637
 30
0.0
 10
67.633589647
 20
103.2078215829
 30
0.0
 10
67.6327956549
 20
103.1531775417
 30
0.0
 10
67.6324378597
 20
103.0772692157
 30
0.0
 10
67.6322658421
 20
103.0202418886
 30
0.0
 10
67.6322286143
 20
102.9894215488
 30
0.0
  0
SPLINE
  5
365
100
AcDbEntity
  8
RACCORDO
100
AcDbSpline
 62
250
  6
CONTINUOUS
 70
0
 71
3
 72
11
 73
7
 74
0
 42
0.0000001
 43
0.0000001
 44
0.0000000001
 40
0.0
 40
0.0
 40
0.0
 40
0.0
 40
0.1120556243
 40
0.3328487739
 40
0.6394507797
 40
1.0
 40
1.0
 40
1.0
 40
1.0
 10
67.608202057
 20
103.2458483866
 30
0.0
 10
67.6075948967
 20
103.2362889424
 30
0.0
 10
67.6072911867
 20
103.2078213442
 30
0.0
 10
67.6064930079
 20
103.1531774186
 30
0.0
 10
67.6061333136
 20
103.0772690113
 30
0.0
 10
67.6059603876
 20
103.0202416958
 30
0.0
 10
67.6059229627
 20
102.9894213545
 30
0.0
  0
SPLINE
  5
366
100
AcDbEntity
  8
RACCORDO
100
AcDbSpline
 62
250
  6
CONTINUOUS
 70
0
 71
3
 72
13
 73
9
 74
0
 42
0.0000001
 43
0.0000001
 44
0.0000000001
 40
0.0
 40
0.0
 40
0.0
 40
0.0
 40
0.046244603
 40
0.1190040105
 40
0.2176959126
 40
0.3400820277
 40
0.6438902658
 40
1.0
 40
1.0
 40
1.0
 40
1.0
 10
33.9858615416
 20
103.242850366
 30
0.0
 10
33.9833036823
 20
103.239767375
 30
0.0
 10
33.9791815083
 20
103.2300540395
 30
0.0
 10
33.9742103898
 20
103.2119505322
 30
0.0
 10
33.9695932818
 20
103.1868506135
 30
0.0
 10
33.9635832965
 20
103.1417945718
 30
0.0
 10
33.9583691315
 20
103.0741688139
 30
0.0
 10
33.9564157095
 20
103.0170296502
 30
0.0
 10
33.9559292138
 20
102.9861855456
 30
0.0
  0
SPLINE
  5
367
100
AcDbEntity
  8
RACCORDO
100
AcDbSpline
 62
250
  6
CONTINUOUS
 70
0
 71
3
 72
13
 73
9
 74
0
 42
0.0000001
 43
0.0000001
 44
0.0000000001
 40
0.0
 40
0.0
 40
0.0
 40
0.0
 40
0.0463858714
 40
0.1192130646
 40
0.2179296306
 40
0.3403098806
 40
0.6440374644
 40
1.0
 40
1.0
 40
1.0
 40
1.0
 10
33.6187048563
 20
103.2431050365
 30
0.0
 10
33.6161086826
 20
103.240034732
 30
0.0
 10
33.6118965233
 20
103.2303289883
 30
0.0
 10
33.6068124453
 20
103.2122227344
 30
0.0
 10
33.6020705904
 20
103.1871207408
 30
0.0
 10
33.595877036
 20
103.1420645166
 30
0.0
 10
33.5904449166
 20
103.0744302534
 30
0.0
 10
33.5883462421
 20
103.017278028
 30
0.0
 10
33.5877904957
 20
102.9864275906
 30
0.0
  0
SPLINE
  5
368
100
AcDbEntity
  8
RACCORDO
100
AcDbSpline
 62
250
  6
CONTINUOUS
 70
0
 71
3
 72
13
 73
9
 74
0
 42
0.0000001
 43
0.0000001
 44
0.0000000001
 40
0.0
 40
0.0
 40
0.0
 40
0.0
 40
0.0465894333
 40
0.1195453718
 40
0.2183558551
 40
0.3407957127
 40
0.6444747931
 40
1.0
 40
1.0
 40
1.0
 40
1.0
 10
30.0354382401
 20
99.6595348043
 30
0.0
 10
30.0385045618
 20
99.6622039141
 30
0.0
 10
30.0482599088
 20
99.6665680287
 30
0.0
 10
30.0664839751
 20
99.6718286976
 30
0.0
 10
30.0917514902
 20
99.6767475268
 30
0.0
 10
30.1370895236
 20
99.6831760064
 30
0.0
 10
30.2051224108
 20
99.6888369352
 30
0.0
 10
30.2626090145
 20
99.6910446318
 30
0.0
 10
30.2936255657
 20
99.6916385106
 30
0.0
  0
SPLINE
  5
369
100
AcDbEntity
  8
RACCORDO
100
AcDbSpline
 62
250
  6
CONTINUOUS
 70
0
 71
3
 72
13
 73
9
 74
0
 42
0.0000001
 43
0.0000001
 44
0.0000000001
 40
0.0
 40
0.0
 40
0.0
 40
0.0
 40
0.0464644507
 40
0.1193602255
 40
0.2181477118
 40
0.3405906438
 40
0.6443377128
 40
1.0
 40
1.0
 40
1.0
 40
1.0
 10
30.0356969762
 20
99.2817651129
 30
0.0
 10
30.0387793531
 20
99.2843936096
 30
0.0
 10
30.0485474987
 20
99.2886582991
 30
0.0
 10
30.0667738686
 20
99.2937849093
 30
0.0
 10
30.0920411686
 20
99.2985484361
 30
0.0
 10
30.1373773611
 20
99.3047364077
 30
0.0
 10
30.2053938996
 20
99.3100909963
 30
0.0
 10
30.262857243
 20
99.3120772042
 30
0.0
 10
30.2938613471
 20
99.3125601013
 30
0.0
  0
SPLINE
  5
36A
100
AcDbEntity
  8
RACCORDO
100
AcDbSpline
 62
250
  6
CONTINUOUS
 70
0
 71
3
 72
13
 73
9
 74
0
 42
0.0000001
 43
0.0000001
 44
0.0000000001
 40
0.0
 40
0.0
 40
0.0
 40
0.0
 40
0.0425478101
 40
0.113698706
 40
0.2119526057
 40
0.3346822162
 40
0.6407106403
 40
1.0
 40
1.0
 40
1.0
 40
1.0
 10
30.033190951
 20
83.1586143818
 30
0.0
 10
30.0365986786
 20
83.1599754437
 30
0.0
 10
30.0463212901
 20
83.1618222804
 30
0.0
 10
30.0643918059
 20
83.1642559534
 30
0.0
 10
30.0895216886
 20
83.166429556
 30
0.0
 10
30.1348705159
 20
83.1693303578
 30
0.0
 10
30.2028080799
 20
83.1718096743
 30
0.0
 10
30.2601801133
 20
83.1727390534
 30
0.0
 10
30.2911657431
 20
83.1729651144
 30
0.0
  0
SPLINE
  5
36B
100
AcDbEntity
  8
RACCORDO
100
AcDbSpline
 62
250
  6
CONTINUOUS
 70
0
 71
3
 72
13
 73
9
 74
0
 42
0.0000001
 43
0.0000001
 44
0.0000000001
 40
0.0
 40
0.0
 40
0.0
 40
0.0
 40
0.0425217218
 40
0.1136614519
 40
0.2119120843
 40
0.3346437057
 40
0.6406870881
 40
1.0
 40
1.0
 40
1.0
 40
1.0
 10
30.0331751197
 20
82.9929651145
 30
0.0
 10
30.036585794
 20
82.9943119685
 30
0.0
 10
30.0463069327
 20
82.996136437
 30
0.0
 10
30.0643770099
 20
82.99854323
 30
0.0
 10
30.0895056903
 20
83.0006918217
 30
0.0
 10
30.134854748
 20
83.0035600999
 30
0.0
 10
30.2027917161
 20
83.0060114028
 30
0.0
 10
30.2601632182
 20
83.0069304962
 30
0.0
 10
30.2911487371
 20
83.0071541131
 30
0.0
  0
SPLINE
  5
36C
100
AcDbEntity
  8
RACCORDO
100
AcDbSpline
 62
250
  6
CONTINUOUS
 70
0
 71
3
 72
13
 73
9
 74
0
 42
0.0000001
 43
0.0000001
 44
0.0000000001
 40
0.0
 40
0.0
 40
0.0
 40
0.0
 40
0.042521745
 40
0.1136614821
 40
0.2119121143
 40
0.3346437324
 40
0.6406871023
 40
1.0
 40
1.0
 40
1.0
 40
1.0
 10
30.0331751197
 20
38.3529651541
 30
0.0
 10
30.0365857908
 20
38.3516182864
 30
0.0
 10
30.0463069316
 20
38.3497938011
 30
0.0
 10
30.0643770094
 20
38.3473869957
 30
0.0
 10
30.0895056915
 20
38.3452384031
 30
0.0
 10
30.1348547495
 20
38.3423701312
 30
0.0
 10
30.2027917175
 20
38.339918833
 30
0.0
 10
30.2601632185
 20
38.338999712
 30
0.0
 10
30.2911487371
 20
38.3387760759
 30
0.0
  0
SPLINE
  5
36D
100
AcDbEntity
  8
RACCORDO
100
AcDbSpline
 62
250
  6
CONTINUOUS
 70
0
 71
3
 72
13
 73
9
 74
0
 42
0.0000001
 43
0.0000001
 44
0.0000000001
 40
0.0
 40
0.0
 40
0.0
 40
0.0
 40
0.0425478101
 40
0.113698706
 40
0.2119526057
 40
0.3346822162
 40
0.6407106403
 40
1.0
 40
1.0
 40
1.0
 40
1.0
 10
30.033190951
 20
38.1873158471
 30
0.0
 10
30.0365986786
 20
38.1859547851
 30
0.0
 10
30.0463212901
 20
38.1841079485
 30
0.0
 10
30.0643918059
 20
38.1816742755
 30
0.0
 10
30.0895216886
 20
38.1795006728
 30
0.0
 10
30.1348705159
 20
38.176599871
 30
0.0
 10
30.2028080799
 20
38.1741205545
 30
0.0
 10
30.2601801133
 20
38.1731911755
 30
0.0
 10
30.2911657431
 20
38.1729651144
 30
0.0
  0
SPLINE
  5
36E
100
AcDbEntity
  8
RACCORDO
100
AcDbSpline
 62
250
  6
CONTINUOUS
 70
0
 71
3
 72
13
 73
9
 74
0
 42
0.0000001
 43
0.0000001
 44
0.0000000001
 40
0.0
 40
0.0
 40
0.0
 40
0.0
 40
0.0464644491
 40
0.1193602235
 40
0.2181477099
 40
0.3405906424
 40
0.6443377121
 40
1.0
 40
1.0
 40
1.0
 40
1.0
 10
30.0356969762
 20
22.0641651144
 30
0.0
 10
30.0387793532
 20
22.0615366182
 30
0.0
 10
30.0485474989
 20
22.0572719294
 30
0.0
 10
30.0667738687
 20
22.0521453196
 30
0.0
 10
30.0920411686
 20
22.0473817929
 30
0.0
 10
30.1373773611
 20
22.041193821
 30
0.0
 10
30.2053938995
 20
22.0358392323
 30
0.0
 10
30.262857243
 20
22.0338530254
 30
0.0
 10
30.2938613471
 20
22.033370129
 30
0.0
  0
SPLINE
  5
36F
100
AcDbEntity
  8
RACCORDO
100
AcDbSpline
 62
250
  6
CONTINUOUS
 70
0
 71
3
 72
13
 73
9
 74
0
 42
0.0000001
 43
0.0000001
 44
0.0000000001
 40
0.0
 40
0.0
 40
0.0
 40
0.0
 40
0.0466238153
 40
0.1195960744
 40
0.2184111496
 40
0.3408471052
 40
0.6445027091
 40
1.0
 40
1.0
 40
1.0
 40
1.0
 10
30.0354476617
 20
21.686123203
 30
0.0
 10
30.0385163861
 20
21.6834531216
 30
0.0
 10
30.0482760375
 20
21.6790902506
 30
0.0
 10
30.0665061329
 20
21.6738416358
 30
0.0
 10
30.0917758933
 20
21.6689446115
 30
0.0
 10
30.1371122755
 20
21.6625621733
 30
0.0
 10
30.2051377811
 20
21.6569799133
 30
0.0
 10
30.2626149436
 20
21.6548447923
 30
0.0
 10
30.2936256211
 20
21.6542917701
 30
0.0
  0
SPLINE
  5
370
100
AcDbEntity
  8
RACCORDO
100
AcDbSpline
 62
250
  6
CONTINUOUS
 70
0
 71
3
 72
13
 73
9
 74
0
 42
0.0000001
 43
0.0000001
 44
0.0000000001
 40
0.0
 40
0.0
 40
0.0
 40
0.0
 40
0.0463533894
 40
0.1191652032
 40
0.2178774458
 40
0.3402613758
 40
0.6440111
 40
1.0
 40
1.0
 40
1.0
 40
1.0
 10
33.6189703501
 20
18.1028163445
 30
0.0
 10
33.6163750833
 20
18.1058844106
 30
0.0
 10
33.6121615362
 20
18.1155860303
 30
0.0
 10
33.607065561
 20
18.1336866112
 30
0.0
 10
33.6023023686
 20
18.1587864705
 30
0.0
 10
33.596063901
 20
18.2038442422
 30
0.0
 10
33.5905551729
 20
18.2714854682
 30
0.0
 10
33.5883859232
 20
18.3286466087
 30
0.0
 10
33.5877904548
 20
18.3595025916
 30
0.0
  0
SPLINE
  5
371
100
AcDbEntity
  8
RACCORDO
100
AcDbSpline
 62
250
  6
CONTINUOUS
 70
0
 71
3
 72
13
 73
9
 74
0
 42
0.0000001
 43
0.0000001
 44
0.0000000001
 40
0.0
 40
0.0
 40
0.0
 40
0.0
 40
0.0462446041
 40
0.119004012
 40
0.2176959139
 40
0.3400820287
 40
0.6438902663
 40
1.0
 40
1.0
 40
1.0
 40
1.0
 10
33.9858615427
 20
18.1030798628
 30
0.0
 10
33.9833036831
 20
18.1061628537
 30
0.0
 10
33.9791815086
 20
18.1158761892
 30
0.0
 10
33.9742103898
 20
18.1339796966
 30
0.0
 10
33.9695932817
 20
18.1590796153
 30
0.0
 10
33.9635832966
 20
18.204135657
 30
0.0
 10
33.9583691317
 20
18.271761415
 30
0.0
 10
33.9564157089
 20
18.3289005787
 30
0.0
 10
33.9559292127
 20
18.3597446833
 30
0.0
  0
SPLINE
  5
372
100
AcDbEntity
  8
RACCORDO
100
AcDbSpline
 62
250
  6
CONTINUOUS
 70
0
 71
3
 72
11
 73
7
 74
0
 42
0.0000001
 43
0.0000001
 44
0.0000000001
 40
0.0
 40
0.0
 40
0.0
 40
0.0
 40
0.1120556243
 40
0.3328487739
 40
0.6394507797
 40
1.0
 40
1.0
 40
1.0
 40
1.0
 10
67.608202057
 20
18.1000818422
 30
0.0
 10
67.6075948967
 20
18.1096412864
 30
0.0
 10
67.6072911867
 20
18.1381088846
 30
0.0
 10
67.6064930078
 20
18.1927528102
 30
0.0
 10
67.6061333135
 20
18.2686612176
 30
0.0
 10
67.6059603876
 20
18.325688533
 30
0.0
 10
67.6059229627
 20
18.3565088743
 30
0.0
  0
SPLINE
  5
373
100
AcDbEntity
  8
RACCORDO
100
AcDbSpline
 62
250
  6
CONTINUOUS
 70
0
 71
3
 72
11
 73
7
 74
0
 42
0.0000001
 43
0.0000001
 44
0.0000000001
 40
0.0
 40
0.0
 40
0.0
 40
0.0
 40
0.1120552089
 40
0.3328483402
 40
0.6394505124
 40
1.0
 40
1.0
 40
1.0
 40
1.0
 10
67.6344957164
 20
18.1000816625
 30
0.0
 10
67.6338917403
 20
18.1096412651
 30
0.0
 10
67.633589647
 20
18.1381086459
 30
0.0
 10
67.6327956549
 20
18.1927526872
 30
0.0
 10
67.6324378597
 20
18.2686610132
 30
0.0
 10
67.6322658421
 20
18.3256883402
 30
0.0
 10
67.6322286143
 20
18.3565086801
 30
0.0
  0
LINE
  5
374
100
AcDbEntity
  8
RACCORDO
100
AcDbLine
 62
250
  6
CONTINUOUS
 10
72.6059229627
 20
83.3617350474
 30
0.0
 11
77.6059229627
 21
83.3613448661
 31
0.0
  0
SPLINE
  5
375
100
AcDbEntity
  8
RACCORDO
100
AcDbSpline
 62
250
  6
CONTINUOUS
 70
0
 71
3
 72
8
 73
4
 74
0
 42
0.0000001
 43
0.0000001
 44
0.0000000001
 40
0.0
 40
0.0
 40
0.0
 40
0.0
 40
1.0
 40
1.0
 40
1.0
 40
1.0
 10
77.6059229627
 20
83.3613448661
 30
0.0
 10
79.5397116484
 20
83.3610430488
 30
0.0
 10
81.4735003228
 20
83.3605660692
 30
0.0
 10
83.4072888939
 20
83.3598354262
 30
0.0
  0
SPLINE
  5
376
100
AcDbEntity
  8
RACCORDO
100
AcDbSpline
 62
250
  6
CONTINUOUS
 70
0
 71
3
 72
9
 73
5
 74
0
 42
0.0000001
 43
0.0000001
 44
0.0000000001
 40
0.0
 40
0.0
 40
0.0
 40
0.0
 40
0.2505240325
 40
1.0
 40
1.0
 40
1.0
 40
1.0
 10
77.6059229627
 20
102.9894213545
 30
0.0
 10
80.4159670213
 20
102.9894005165
 30
0.0
 10
91.6326316655
 20
102.9892451488
 30
0.0
 10
102.8492962924
 20
102.9878629077
 30
0.0
 10
111.2559167119
 20
102.9861855456
 30
0.0
  0
LINE
  5
377
100
AcDbEntity
  8
RACCORDO
100
AcDbLine
 62
250
  6
CONTINUOUS
 10
111.2559167119
 20
102.9861855456
 30
0.0
 11
111.6240554706
 21
102.9864276373
 31
0.0
  0
SPLINE
  5
378
100
AcDbEntity
  8
RACCORDO
100
AcDbSpline
 62
250
  6
CONTINUOUS
 70
0
 71
3
 72
9
 73
5
 74
0
 42
0.0000001
 43
0.0000001
 44
0.0000000001
 40
0.0
 40
0.0
 40
0.0
 40
0.0
 40
0.2498487653
 40
1.0
 40
1.0
 40
1.0
 40
1.0
 10
84.2082592239
 20
82.5594886955
 30
0.0
 10
84.2099783215
 20
80.7367156783
 30
0.0
 10
84.2154937232
 20
73.4412090085
 30
0.0
 10
84.2173330077
 20
66.145699933
 30
0.0
 10
84.2173330035
 20
60.6729651144
 30
0.0
  0
LINE
  5
379
100
AcDbEntity
  8
RACCORDO
100
AcDbLine
 62
250
  6
CONTINUOUS
 10
33.9858615416
 20
18.1030798628
 30
0.0
 11
33.6188479066
 21
18.1028254184
 31
0.0
  0
SPLINE
  5
37A
100
AcDbEntity
  8
RACCORDO
100
AcDbSpline
 62
250
  6
CONTINUOUS
 70
0
 71
3
 72
9
 73
5
 74
0
 42
0.0000001
 43
0.0000001
 44
0.0000000001
 40
0.0
 40
0.0
 40
0.0
 40
0.0
 40
0.2505238631
 40
1.0
 40
1.0
 40
1.0
 40
1.0
 10
67.608202057
 20
18.1000818422
 30
0.0
 10
64.8004691662
 20
18.100101104
 30
0.0
 10
53.5930222752
 20
18.1002448527
 30
0.0
 10
42.3855753989
 20
18.1015245719
 30
0.0
 10
33.9858615416
 20
18.1030798628
 30
0.0
  0
LINE
  5
37B
100
AcDbEntity
  8
RACCORDO
100
AcDbLine
 62
250
  6
CONTINUOUS
 10
30.0354478729
 20
21.6862594814
 30
0.0
 11
30.0356969762
 21
22.0641651144
 31
0.0
  0
SPLINE
  5
37C
100
AcDbEntity
  8
RACCORDO
100
AcDbSpline
 62
250
  6
CONTINUOUS
 70
0
 71
3
 72
9
 73
5
 74
0
 42
0.0000001
 43
0.0000001
 44
0.0000000001
 40
0.0
 40
0.0
 40
0.0
 40
0.0
 40
0.2498392755
 40
1.0
 40
1.0
 40
1.0
 40
1.0
 10
30.0331751197
 20
38.3529651144
 30
0.0
 10
30.0330020231
 20
40.211769317
 30
0.0
 10
30.03254346
 20
47.651769311
 30
0.0
 10
30.0325052203
 20
55.09176932
 30
0.0
 10
30.0325050281
 20
60.6729651144
 30
0.0
  0
LINE
  5
37D
100
AcDbEntity
  8
RACCORDO
100
AcDbLine
 62
250
  6
CONTINUOUS
 10
115.1761489492
 20
22.0641651144
 30
0.0
 11
115.1763980526
 21
21.6862594814
 31
0.0
  0
SPLINE
  5
37E
100
AcDbEntity
  8
RACCORDO
100
AcDbSpline
 62
250
  6
CONTINUOUS
 70
0
 71
3
 72
9
 73
5
 74
0
 42
0.0000001
 43
0.0000001
 44
0.0000000001
 40
0.0
 40
0.0
 40
0.0
 40
0.0
 40
0.2494274167
 40
1.0
 40
1.0
 40
1.0
 40
1.0
 10
30.0356969762
 20
22.0641651144
 30
0.0
 10
30.0354101251
 20
23.4046837123
 30
0.0
 10
30.0343402732
 20
28.7790672503
 30
0.0
 10
30.0335858395
 20
34.1534508508
 30
0.0
 10
30.033190951
 20
38.1873158471
 30
0.0
  0
LINE
  5
37F
100
AcDbEntity
  8
RACCORDO
100
AcDbLine
 62
250
  6
CONTINUOUS
 10
30.033190951
 20
38.1873158471
 30
0.0
 11
30.0331751197
 21
38.3529651144
 31
0.0
  0
SPLINE
  5
380
100
AcDbEntity
  8
RACCORDO
100
AcDbSpline
 62
250
  6
CONTINUOUS
 70
0
 71
3
 72
11
 73
7
 74
0
 42
0.0000001
 43
0.0000001
 44
0.0000000001
 40
0.0
 40
0.0
 40
0.0
 40
0.0
 40
0.1120552089
 40
0.3328483402
 40
0.6394505124
 40
1.0
 40
1.0
 40
1.0
 40
1.0
 10
77.577350209
 20
18.1000816625
 30
0.0
 10
77.5779541852
 20
18.1096412651
 30
0.0
 10
77.5782562785
 20
18.1381086459
 30
0.0
 10
77.5790502706
 20
18.1927526872
 30
0.0
 10
77.5794080658
 20
18.2686610132
 30
0.0
 10
77.5795800833
 20
18.3256883402
 30
0.0
 10
77.5796173111
 20
18.3565086801
 30
0.0
  0
SPLINE
  5
381
100
AcDbEntity
  8
RACCORDO
100
AcDbSpline
 62
250
  6
CONTINUOUS
 70
0
 71
3
 72
11
 73
7
 74
0
 42
0.0000001
 43
0.0000001
 44
0.0000000001
 40
0.0
 40
0.0
 40
0.0
 40
0.0
 40
0.1120556243
 40
0.3328487739
 40
0.6394507797
 40
1.0
 40
1.0
 40
1.0
 40
1.0
 10
77.6036438684
 20
18.1000818422
 30
0.0
 10
77.6042510287
 20
18.1096412864
 30
0.0
 10
77.6045547387
 20
18.1381088846
 30
0.0
 10
77.6053529176
 20
18.1927528102
 30
0.0
 10
77.6057126119
 20
18.2686612176
 30
0.0
 10
77.6058855378
 20
18.325688533
 30
0.0
 10
77.6059229627
 20
18.3565088743
 30
0.0
  0
SPLINE
  5
382
100
AcDbEntity
  8
RACCORDO
100
AcDbSpline
 62
250
  6
CONTINUOUS
 70
0
 71
3
 72
13
 73
9
 74
0
 42
0.0000001
 43
0.0000001
 44
0.0000000001
 40
0.0
 40
0.0
 40
0.0
 40
0.0
 40
0.046244603
 40
0.1190040105
 40
0.2176959126
 40
0.3400820277
 40
0.6438902658
 40
1.0
 40
1.0
 40
1.0
 40
1.0
 10
111.2259843839
 20
18.1030798628
 30
0.0
 10
111.2285422432
 20
18.1061628538
 30
0.0
 10
111.2326644172
 20
18.1158761893
 30
0.0
 10
111.2376355356
 20
18.1339796966
 30
0.0
 10
111.2422526436
 20
18.1590796154
 30
0.0
 10
111.248262629
 20
18.204135657
 30
0.0
 10
111.253476794
 20
18.271761415
 30
0.0
 10
111.255430216
 20
18.3289005787
 30
0.0
 10
111.2559167117
 20
18.3597446833
 30
0.0
  0
SPLINE
  5
383
100
AcDbEntity
  8
RACCORDO
100
AcDbSpline
 62
250
  6
CONTINUOUS
 70
0
 71
3
 72
13
 73
9
 74
0
 42
0.0000001
 43
0.0000001
 44
0.0000000001
 40
0.0
 40
0.0
 40
0.0
 40
0.0
 40
0.0463858714
 40
0.1192130646
 40
0.2179296306
 40
0.3403098806
 40
0.6440374644
 40
1.0
 40
1.0
 40
1.0
 40
1.0
 10
111.5931410692
 20
18.1028251923
 30
0.0
 10
111.5957372428
 20
18.1058954969
 30
0.0
 10
111.5999494021
 20
18.1156012405
 30
0.0
 10
111.6050334802
 20
18.1337074945
 30
0.0
 10
111.6097753351
 20
18.1588094881
 30
0.0
 10
111.6159688895
 20
18.2038657122
 30
0.0
 10
111.6214010089
 20
18.2714999754
 30
0.0
 10
111.6234996833
 20
18.3286522009
 30
0.0
 10
111.6240554298
 20
18.3595026383
 30
0.0
  0
SPLINE
  5
384
100
AcDbEntity
  8
RACCORDO
100
AcDbSpline
 62
250
  6
CONTINUOUS
 70
0
 71
3
 72
13
 73
9
 74
0
 42
0.0000001
 43
0.0000001
 44
0.0000000001
 40
0.0
 40
0.0
 40
0.0
 40
0.0
 40
0.0465894333
 40
0.1195453718
 40
0.2183558551
 40
0.3407957127
 40
0.6444747931
 40
1.0
 40
1.0
 40
1.0
 40
1.0
 10
115.1764076854
 20
21.6863954246
 30
0.0
 10
115.1733413637
 20
21.6837263147
 30
0.0
 10
115.1635860166
 20
21.6793622001
 30
0.0
 10
115.1453619504
 20
21.6741015313
 30
0.0
 10
115.1200944352
 20
21.669182702
 30
0.0
 10
115.0747564018
 20
21.6627542224
 30
0.0
 10
115.0067235146
 20
21.6570932937
 30
0.0
 10
114.949236911
 20
21.6548855971
 30
0.0
 10
114.9182203598
 20
21.6542917183
 30
0.0
  0
SPLINE
  5
385
100
AcDbEntity
  8
RACCORDO
100
AcDbSpline
 62
250
  6
CONTINUOUS
 70
0
 71
3
 72
13
 73
9
 74
0
 42
0.0000001
 43
0.0000001
 44
0.0000000001
 40
0.0
 40
0.0
 40
0.0
 40
0.0
 40
0.0464644507
 40
0.1193602255
 40
0.2181477118
 40
0.3405906438
 40
0.6443377128
 40
1.0
 40
1.0
 40
1.0
 40
1.0
 10
115.1761489492
 20
22.0641651159
 30
0.0
 10
115.1730665724
 20
22.0615366193
 30
0.0
 10
115.1632984267
 20
22.0572719297
 30
0.0
 10
115.1450720568
 20
22.0521453195
 30
0.0
 10
115.1198047569
 20
22.0473817928
 30
0.0
 10
115.0744685643
 20
22.0411938211
 30
0.0
 10
115.0064520259
 20
22.0358392325
 30
0.0
 10
114.9489886824
 20
22.0338530246
 30
0.0
 10
114.9179845784
 20
22.0333701275
 30
0.0
  0
SPLINE
  5
386
100
AcDbEntity
  8
RACCORDO
100
AcDbSpline
 62
250
  6
CONTINUOUS
 70
0
 71
3
 72
13
 73
9
 74
0
 42
0.0000001
 43
0.0000001
 44
0.0000000001
 40
0.0
 40
0.0
 40
0.0
 40
0.0
 40
0.0425478101
 40
0.113698706
 40
0.2119526057
 40
0.3346822162
 40
0.6407106403
 40
1.0
 40
1.0
 40
1.0
 40
1.0
 10
115.1786549744
 20
38.1873158471
 30
0.0
 10
115.1752472469
 20
38.1859547851
 30
0.0
 10
115.1655246353
 20
38.1841079485
 30
0.0
 10
115.1474541196
 20
38.1816742755
 30
0.0
 10
115.1223242369
 20
38.1795006728
 30
0.0
 10
115.0769754096
 20
38.176599871
 30
0.0
 10
115.0090378455
 20
38.1741205545
 30
0.0
 10
114.9516658121
 20
38.1731911755
 30
0.0
 10
114.9206801823
 20
38.1729651144
 30
0.0
  0
SPLINE
  5
387
100
AcDbEntity
  8
RACCORDO
100
AcDbSpline
 62
250
  6
CONTINUOUS
 70
0
 71
3
 72
13
 73
9
 74
0
 42
0.0000001
 43
0.0000001
 44
0.0000000001
 40
0.0
 40
0.0
 40
0.0
 40
0.0
 40
0.0425217218
 40
0.1136614519
 40
0.2119120843
 40
0.3346437057
 40
0.6406870881
 40
1.0
 40
1.0
 40
1.0
 40
1.0
 10
115.1786708058
 20
38.3529651144
 30
0.0
 10
115.1752601315
 20
38.3516182604
 30
0.0
 10
115.1655389928
 20
38.3497937918
 30
0.0
 10
115.1474689155
 20
38.3473869989
 30
0.0
 10
115.1223402351
 20
38.3452384071
 30
0.0
 10
115.0769911774
 20
38.3423701289
 30
0.0
 10
115.0090542093
 20
38.339918826
 30
0.0
 10
114.9516827072
 20
38.3389997327
 30
0.0
 10
114.9206971884
 20
38.3387761157
 30
0.0
  0
SPLINE
  5
388
100
AcDbEntity
  8
RACCORDO
100
AcDbSpline
 62
250
  6
CONTINUOUS
 70
0
 71
3
 72
17
 73
13
 74
0
 42
0.0000001
 43
0.0000001
 44
0.0000000001
 40
0.0
 40
0.0
 40
0.0
 40
0.0
 40
0.1907475252
 40
0.3753802568
 40
0.5461750988
 40
0.6967709986
 40
0.8214631073
 40
0.9153964502
 40
0.94972943
 40
0.9752030695
 40
0.9917835642
 40
1.0
 40
1.0
 40
1.0
 40
1.0
 10
84.2082592238
 20
82.5594888071
 30
0.0
 10
84.1886495661
 20
82.5594954152
 30
0.0
 10
84.1500587265
 20
82.5593044817
 30
0.0
 10
84.0939143597
 20
82.5584275744
 30
0.0
 10
84.0419144898
 20
82.5569907369
 30
0.0
 10
83.9960841477
 20
82.555064193
 30
0.0
 10
83.958221618
 20
82.5527353293
 30
0.0
 10
83.932256533
 20
82.5504054078
 30
0.0
 10
83.9166707776
 20
82.548263856
 30
0.0
 10
83.9088164489
 20
82.5467776833
 30
0.0
 10
83.9041022767
 20
82.5454074323
 30
0.0
 10
83.9014618588
 20
82.5441238909
 30
0.0
 10
83.9012019836
 20
82.5433201764
 30
0.0
  0
SPLINE
  5
389
100
AcDbEntity
  8
RACCORDO
100
AcDbSpline
 62
250
  6
CONTINUOUS
 70
0
 71
3
 72
18
 73
14
 74
0
 42
0.0000001
 43
0.0000001
 44
0.0000000001
 40
0.0
 40
0.0
 40
0.0
 40
0.0
 40
0.1888560933
 40
0.372703259
 40
0.5435716995
 40
0.6948462161
 40
0.8205549552
 40
0.872146261
 40
0.9155605751
 40
0.9503426729
 40
0.9761192965
 40
0.9927031778
 40
1.0
 40
1.0
 40
1.0
 40
1.0
 10
83.9212579883
 20
83.172965111
 30
0.0
 10
83.9084191777
 20
83.1576535286
 30
0.0
 10
83.8831381785
 20
83.1273893208
 30
0.0
 10
83.8464309885
 20
83.0831140506
 30
0.0
 10
83.8124299337
 20
83.0417600161
 30
0.0
 10
83.7825210007
 20
83.0050085216
 30
0.0
 10
83.7607402848
 20
82.9779068395
 30
0.0
 10
83.7462739551
 20
82.9595820418
 30
0.0
 10
83.7378138237
 20
82.9487481876
 30
0.0
 10
83.7312088326
 20
82.9399946588
 30
0.0
 10
83.7262148153
 20
82.9334326306
 30
0.0
 10
83.7235260037
 20
82.9290878011
 30
0.0
 10
83.7218692402
 20
82.9269351365
 30
0.0
 10
83.7218302541
 20
82.9261640788
 30
0.0
  0
SPLINE
  5
38A
100
AcDbEntity
  8
RACCORDO
100
AcDbSpline
 62
250
  6
CONTINUOUS
 70
0
 71
3
 72
18
 73
14
 74
0
 42
0.0000001
 43
0.0000001
 44
0.0000000001
 40
0.0
 40
0.0
 40
0.0
 40
0.0
 40
0.1896654657
 40
0.3742213211
 40
0.5456052954
 40
0.6971314548
 40
0.8227742041
 40
0.8742011758
 40
0.9173613969
 40
0.9517995048
 40
0.9771456012
 40
0.993225426
 40
1.0
 40
1.0
 40
1.0
 40
1.0
 10
83.4072888942
 20
83.3598354262
 30
0.0
 10
83.4073060447
 20
83.3397765507
 30
0.0
 10
83.4072540148
 20
83.3001989878
 30
0.0
 10
83.4069281744
 20
83.2424972216
 30
0.0
 10
83.4063687226
 20
83.1888296094
 30
0.0
 10
83.4055947108
 20
83.1414001636
 30
0.0
 10
83.4047782416
 20
83.1066493842
 30
0.0
 10
83.403989914
 20
83.0833833456
 30
0.0
 10
83.4034451238
 20
83.0697217508
 30
0.0
 10
83.4027893387
 20
83.0589239723
 30
0.0
 10
83.402357747
 20
83.0507465827
 30
0.0
 10
83.4014870647
 20
83.0460113839
 30
0.0
 10
83.4013769972
 20
83.0432363183
 30
0.0
 10
83.4008198503
 20
83.0427858492
 30
0.0
  0
SPLINE
  5
38B
100
AcDbEntity
  8
RACCORDO
100
AcDbSpline
 62
250
  6
CONTINUOUS
 70
0
 71
3
 72
18
 73
14
 74
0
 42
0.0000001
 43
0.0000001
 44
0.0000000001
 40
0.0
 40
0.0
 40
0.0
 40
0.0
 40
0.1897769881
 40
0.3744394894
 40
0.5459171548
 40
0.6975161598
 40
0.823201928
 40
0.8746352063
 40
0.9177886724
 40
0.952202786
 40
0.977499316
 40
0.9934823123
 40
1.0
 40
1.0
 40
1.0
 40
1.0
 10
77.6059229627
 20
83.3613448661
 30
0.0
 10
77.6059300551
 20
83.341285815
 30
0.0
 10
77.6059085853
 20
83.3017082569
 30
0.0
 10
77.6057737476
 20
83.2440061282
 30
0.0
 10
77.6055429642
 20
83.1903392011
 30
0.0
 10
77.6052215377
 20
83.1429080175
 30
0.0
 10
77.6048876829
 20
83.1081620275
 30
0.0
 10
77.6045559272
 20
83.0848861748
 30
0.0
 10
77.6043436486
 20
83.0712434923
 30
0.0
 10
77.6040381354
 20
83.0603991379
 30
0.0
 10
77.6039411732
 20
83.05234183
 30
0.0
 10
77.6034301896
 20
83.0474084197
 30
0.0
 10
77.603562311
 20
83.0449035895
 30
0.0
 10
77.6032487464
 20
83.0442901813
 30
0.0
  0
LINE
  5
38C
100
AcDbEntity
  8
RACCORDO
100
AcDbLine
 62
250
  6
CONTINUOUS
 10
77.6059229627
 20
37.9845853627
 30
0.0
 11
72.6059229627
 21
37.9841951814
 31
0.0
  0
SPLINE
  5
38D
100
AcDbEntity
  8
RACCORDO
100
AcDbSpline
 62
250
  6
CONTINUOUS
 70
0
 71
3
 72
18
 73
14
 74
0
 42
0.0000001
 43
0.0000001
 44
0.0000000001
 40
0.0
 40
0.0
 40
0.0
 40
0.0
 40
0.1897769881
 40
0.3744394894
 40
0.5459171548
 40
0.6975161598
 40
0.823201928
 40
0.8746352063
 40
0.9177886724
 40
0.952202786
 40
0.977499316
 40
0.9934823123
 40
1.0
 40
1.0
 40
1.0
 40
1.0
 10
67.6059229627
 20
83.3613448661
 30
0.0
 10
67.6059158704
 20
83.341285815
 30
0.0
 10
67.6059373402
 20
83.3017082569
 30
0.0
 10
67.6060721779
 20
83.2440061282
 30
0.0
 10
67.6063029612
 20
83.1903392011
 30
0.0
 10
67.6066243877
 20
83.1429080175
 30
0.0
 10
67.6069582425
 20
83.1081620275
 30
0.0
 10
67.6072899983
 20
83.0848861748
 30
0.0
 10
67.6075022768
 20
83.0712434923
 30
0.0
 10
67.6078077901
 20
83.0603991379
 30
0.0
 10
67.6079047523
 20
83.05234183
 30
0.0
 10
67.6084157358
 20
83.0474084197
 30
0.0
 10
67.6082836144
 20
83.0449035895
 30
0.0
 10
67.6085971791
 20
83.0442901813
 30
0.0
  0
SPLINE
  5
38E
100
AcDbEntity
  8
RACCORDO
100
AcDbSpline
 62
250
  6
CONTINUOUS
 70
0
 71
3
 72
18
 73
14
 74
0
 42
0.0000001
 43
0.0000001
 44
0.0000000001
 40
0.0
 40
0.0
 40
0.0
 40
0.0
 40
0.1896654577
 40
0.374221297
 40
0.5456052683
 40
0.6971314327
 40
0.8227741876
 40
0.8742011631
 40
0.9173613888
 40
0.9517994994
 40
0.977145598
 40
0.993225425
 40
1.0
 40
1.0
 40
1.0
 40
1.0
 10
61.8045570315
 20
83.3598354262
 30
0.0
 10
61.8045398809
 20
83.3397765516
 30
0.0
 10
61.8045919107
 20
83.3001989912
 30
0.0
 10
61.804917751
 20
83.2424972279
 30
0.0
 10
61.8054772027
 20
83.1888296171
 30
0.0
 10
61.8062512144
 20
83.1414001706
 30
0.0
 10
61.8070676837
 20
83.1066493896
 30
0.0
 10
61.8078560114
 20
83.0833833495
 30
0.0
 10
61.8084008015
 20
83.0697217536
 30
0.0
 10
61.8090565868
 20
83.0589239741
 30
0.0
 10
61.8094881786
 20
83.0507465836
 30
0.0
 10
61.8103588611
 20
83.0460113844
 30
0.0
 10
61.8104689286
 20
83.0432363183
 30
0.0
 10
61.8110260756
 20
83.0427858492
 30
0.0
  0
SPLINE
  5
38F
100
AcDbEntity
  8
RACCORDO
100
AcDbSpline
 62
250
  6
CONTINUOUS
 70
0
 71
3
 72
18
 73
14
 74
0
 42
0.0000001
 43
0.0000001
 44
0.0000000001
 40
0.0
 40
0.0
 40
0.0
 40
0.0
 40
0.1888559659
 40
0.3727030091
 40
0.5435713653
 40
0.6948458432
 40
0.8205545926
 40
0.8721459247
 40
0.9155602799
 40
0.950342432
 40
0.9761191235
 40
0.992703086
 40
1.0
 40
1.0
 40
1.0
 40
1.0
 10
61.2905879385
 20
83.1729651121
 30
0.0
 10
61.3034267402
 20
83.1576535405
 30
0.0
 10
61.3287077218
 20
83.1273893541
 30
0.0
 10
61.3654148884
 20
83.0831141125
 30
0.0
 10
61.399415926
 20
83.0417600996
 30
0.0
 10
61.4293248512
 20
83.0050086156
 30
0.0
 10
61.4511055663
 20
82.9779069349
 30
0.0
 10
61.4655719019
 20
82.9595821315
 30
0.0
 10
61.4740320399
 20
82.9487482681
 30
0.0
 10
61.4806370461
 20
82.9399947257
 30
0.0
 10
61.4856310675
 20
82.9334326824
 30
0.0
 10
61.4883199122
 20
82.9290878305
 30
0.0
 10
61.4899766677
 20
82.9269351548
 30
0.0
 10
61.4900156701
 20
82.9261640882
 30
0.0
  0
SPLINE
  5
390
100
AcDbEntity
  8
RACCORDO
100
AcDbSpline
 62
250
  6
CONTINUOUS
 70
0
 71
3
 72
17
 73
13
 74
0
 42
0.0000001
 43
0.0000001
 44
0.0000000001
 40
0.0
 40
0.0
 40
0.0
 40
0.0
 40
0.1907473741
 40
0.3753800007
 40
0.5461747438
 40
0.6967705797
 40
0.8214626964
 40
0.9153961156
 40
0.9497291685
 40
0.9752028987
 40
0.9917834921
 40
1.0
 40
1.0
 40
1.0
 40
1.0
 10
61.0035867015
 20
82.5594886989
 30
0.0
 10
61.0231963398
 20
82.559495307
 30
0.0
 10
61.0617871454
 20
82.5593043761
 30
0.0
 10
61.1179314647
 20
82.5584274825
 30
0.0
 10
61.1699312974
 20
82.5569906668
 30
0.0
 10
61.2157616153
 20
82.5550641529
 30
0.0
 10
61.2536241425
 20
82.5527353236
 30
0.0
 10
61.2795892399
 20
82.5504054403
 30
0.0
 10
61.2951750233
 20
82.5482639176
 30
0.0
 10
61.3030293789
 20
82.546777775
 30
0.0
 10
61.3077435885
 20
82.545407528
 30
0.0
 10
61.310384028
 20
82.5441240285
 30
0.0
 10
61.3106439326
 20
82.5433203159
 30
0.0
  0
SPLINE
  5
391
100
AcDbEntity
  8
RACCORDO
100
AcDbSpline
 62
250
  6
CONTINUOUS
 70
0
 71
3
 72
17
 73
13
 74
0
 42
0.0000001
 43
0.0000001
 44
0.0000000001
 40
0.0
 40
0.0
 40
0.0
 40
0.0
 40
0.1907475252
 40
0.3753802568
 40
0.5461750988
 40
0.6967709986
 40
0.8214631073
 40
0.9153964502
 40
0.94972943
 40
0.9752030695
 40
0.9917835642
 40
1.0
 40
1.0
 40
1.0
 40
1.0
 10
61.0035867016
 20
38.7864414217
 30
0.0
 10
61.0231963594
 20
38.7864348137
 30
0.0
 10
61.0617871989
 20
38.7866257472
 30
0.0
 10
61.1179315657
 20
38.7875026545
 30
0.0
 10
61.1699314357
 20
38.7889394919
 30
0.0
 10
61.2157617777
 20
38.7908660358
 30
0.0
 10
61.2536243075
 20
38.7931948996
 30
0.0
 10
61.2795893924
 20
38.7955248211
 30
0.0
 10
61.2951751478
 20
38.7976663729
 30
0.0
 10
61.3030294766
 20
38.7991525456
 30
0.0
 10
61.3077436487
 20
38.8005227966
 30
0.0
 10
61.3103840666
 20
38.801806338
 30
0.0
 10
61.3106439418
 20
38.8026100525
 30
0.0
  0
SPLINE
  5
392
100
AcDbEntity
  8
RACCORDO
100
AcDbSpline
 62
250
  6
CONTINUOUS
 70
0
 71
3
 72
18
 73
14
 74
0
 42
0.0000001
 43
0.0000001
 44
0.0000000001
 40
0.0
 40
0.0
 40
0.0
 40
0.0
 40
0.1888560933
 40
0.372703259
 40
0.5435716995
 40
0.6948462161
 40
0.8205549552
 40
0.872146261
 40
0.9155605751
 40
0.9503426729
 40
0.9761192965
 40
0.9927031778
 40
1.0
 40
1.0
 40
1.0
 40
1.0
 10
61.2905879371
 20
38.1729651178
 30
0.0
 10
61.3034267478
 20
38.1882767003
 30
0.0
 10
61.3287077469
 20
38.218540908
 30
0.0
 10
61.3654149369
 20
38.2628161783
 30
0.0
 10
61.3994159917
 20
38.3041702127
 30
0.0
 10
61.4293249247
 20
38.3409217073
 30
0.0
 10
61.4511056407
 20
38.3680233893
 30
0.0
 10
61.4655719703
 20
38.386348187
 30
0.0
 10
61.4740321018
 20
38.3971820412
 30
0.0
 10
61.4806370929
 20
38.4059355701
 30
0.0
 10
61.4856311102
 20
38.4124975982
 30
0.0
 10
61.4883199217
 20
38.4168424277
 30
0.0
 10
61.4899766853
 20
38.4189950923
 30
0.0
 10
61.4900156713
 20
38.4197661501
 30
0.0
  0
SPLINE
  5
393
100
AcDbEntity
  8
RACCORDO
100
AcDbSpline
 62
250
  6
CONTINUOUS
 70
0
 71
3
 72
18
 73
14
 74
0
 42
0.0000001
 43
0.0000001
 44
0.0000000001
 40
0.0
 40
0.0
 40
0.0
 40
0.0
 40
0.1896654657
 40
0.3742213211
 40
0.5456052954
 40
0.6971314548
 40
0.8227742041
 40
0.8742011758
 40
0.9173613969
 40
0.9517995048
 40
0.9771456012
 40
0.993225426
 40
1.0
 40
1.0
 40
1.0
 40
1.0
 10
61.8045570312
 20
37.9860948027
 30
0.0
 10
61.8045398807
 20
38.0061536781
 30
0.0
 10
61.8045919106
 20
38.045731241
 30
0.0
 10
61.804917751
 20
38.1034330072
 30
0.0
 10
61.8054772029
 20
38.1571006195
 30
0.0
 10
61.8062512146
 20
38.2045300652
 30
0.0
 10
61.8070676839
 20
38.2392808447
 30
0.0
 10
61.8078560115
 20
38.2625468833
 30
0.0
 10
61.8084008016
 20
38.276208478
 30
0.0
 10
61.8090565867
 20
38.2870062565
 30
0.0
 10
61.8094881785
 20
38.2951836462
 30
0.0
 10
61.8103588607
 20
38.299918845
 30
0.0
 10
61.8104689283
 20
38.3026939105
 30
0.0
 10
61.8110260751
 20
38.3031443797
 30
0.0
  0
SPLINE
  5
394
100
AcDbEntity
  8
RACCORDO
100
AcDbSpline
 62
250
  6
CONTINUOUS
 70
0
 71
3
 72
18
 73
14
 74
0
 42
0.0000001
 43
0.0000001
 44
0.0000000001
 40
0.0
 40
0.0
 40
0.0
 40
0.0
 40
0.1897769881
 40
0.3744394894
 40
0.5459171548
 40
0.6975161598
 40
0.823201928
 40
0.8746352063
 40
0.9177886724
 40
0.952202786
 40
0.977499316
 40
0.9934823123
 40
1.0
 40
1.0
 40
1.0
 40
1.0
 10
67.6059229627
 20
37.9845853627
 30
0.0
 10
67.6059158704
 20
38.0046444139
 30
0.0
 10
67.6059373402
 20
38.044221972
 30
0.0
 10
67.6060721779
 20
38.1019241006
 30
0.0
 10
67.6063029612
 20
38.1555910278
 30
0.0
 10
67.6066243877
 20
38.2030222113
 30
0.0
 10
67.6069582425
 20
38.2377682013
 30
0.0
 10
67.6072899983
 20
38.261044054
 30
0.0
 10
67.6075022768
 20
38.2746867366
 30
0.0
 10
67.6078077901
 20
38.2855310909
 30
0.0
 10
67.6079047523
 20
38.2935883989
 30
0.0
 10
67.6084157358
 20
38.2985218091
 30
0.0
 10
67.6082836144
 20
38.3010266393
 30
0.0
 10
67.6085971791
 20
38.3016400475
 30
0.0
  0
SPLINE
  5
395
100
AcDbEntity
  8
RACCORDO
100
AcDbSpline
 62
250
  6
CONTINUOUS
 70
0
 71
3
 72
18
 73
14
 74
0
 42
0.0000001
 43
0.0000001
 44
0.0000000001
 40
0.0
 40
0.0
 40
0.0
 40
0.0
 40
0.1897769881
 40
0.3744394894
 40
0.5459171548
 40
0.6975161598
 40
0.823201928
 40
0.8746352063
 40
0.9177886724
 40
0.952202786
 40
0.977499316
 40
0.9934823123
 40
1.0
 40
1.0
 40
1.0
 40
1.0
 10
77.6059229627
 20
37.9845853627
 30
0.0
 10
77.6059300551
 20
38.0046444139
 30
0.0
 10
77.6059085853
 20
38.044221972
 30
0.0
 10
77.6057737476
 20
38.1019241006
 30
0.0
 10
77.6055429642
 20
38.1555910278
 30
0.0
 10
77.6052215377
 20
38.2030222113
 30
0.0
 10
77.6048876829
 20
38.2377682013
 30
0.0
 10
77.6045559272
 20
38.261044054
 30
0.0
 10
77.6043436486
 20
38.2746867366
 30
0.0
 10
77.6040381354
 20
38.2855310909
 30
0.0
 10
77.6039411732
 20
38.2935883989
 30
0.0
 10
77.6034301896
 20
38.2985218091
 30
0.0
 10
77.603562311
 20
38.3010266393
 30
0.0
 10
77.6032487464
 20
38.3016400475
 30
0.0
  0
SPLINE
  5
396
100
AcDbEntity
  8
RACCORDO
100
AcDbSpline
 62
250
  6
CONTINUOUS
 70
0
 71
3
 72
18
 73
14
 74
0
 42
0.0000001
 43
0.0000001
 44
0.0000000001
 40
0.0
 40
0.0
 40
0.0
 40
0.0
 40
0.1896654577
 40
0.374221297
 40
0.5456052683
 40
0.6971314327
 40
0.8227741876
 40
0.8742011631
 40
0.9173613888
 40
0.9517994994
 40
0.977145598
 40
0.993225425
 40
1.0
 40
1.0
 40
1.0
 40
1.0
 10
83.4072888939
 20
37.9860948027
 30
0.0
 10
83.4073060445
 20
38.0061536773
 30
0.0
 10
83.4072540148
 20
38.0457312376
 30
0.0
 10
83.4069281745
 20
38.103433001
 30
0.0
 10
83.4063687228
 20
38.1571006118
 30
0.0
 10
83.4055947111
 20
38.2045300583
 30
0.0
 10
83.4047782418
 20
38.2392808393
 30
0.0
 10
83.4039899141
 20
38.2625468793
 30
0.0
 10
83.4034451239
 20
38.2762084753
 30
0.0
 10
83.4027893387
 20
38.2870062548
 30
0.0
 10
83.4023577468
 20
38.2951836452
 30
0.0
 10
83.4014870644
 20
38.2999188445
 30
0.0
 10
83.4013769969
 20
38.3026939105
 30
0.0
 10
83.4008198499
 20
38.3031443797
 30
0.0
  0
SPLINE
  5
397
100
AcDbEntity
  8
RACCORDO
100
AcDbSpline
 62
250
  6
CONTINUOUS
 70
0
 71
3
 72
18
 73
14
 74
0
 42
0.0000001
 43
0.0000001
 44
0.0000000001
 40
0.0
 40
0.0
 40
0.0
 40
0.0
 40
0.1888559609
 40
0.3727029943
 40
0.5435713486
 40
0.6948458295
 40
0.8205545821
 40
0.8721459165
 40
0.9155602745
 40
0.9503424283
 40
0.9761191212
 40
0.9927030852
 40
1.0
 40
1.0
 40
1.0
 40
1.0
 10
83.921257986
 20
38.1729651159
 30
0.0
 10
83.9084191845
 20
38.188276687
 30
0.0
 10
83.8831382037
 20
38.2185408722
 30
0.0
 10
83.8464310382
 20
38.2628161124
 30
0.0
 10
83.8124300012
 20
38.3041701246
 30
0.0
 10
83.7825210759
 20
38.3409216091
 30
0.0
 10
83.7607403604
 20
38.3680232908
 30
0.0
 10
83.7462740246
 20
38.386348095
 30
0.0
 10
83.7378138862
 20
38.3971819592
 30
0.0
 10
83.73120888
 20
38.4059355023
 30
0.0
 10
83.7262148585
 20
38.4124975462
 30
0.0
 10
83.723526014
 20
38.4168423985
 30
0.0
 10
83.7218692583
 20
38.4189950747
 30
0.0
 10
83.7218302562
 20
38.4197661414
 30
0.0
  0
SPLINE
  5
398
100
AcDbEntity
  8
RACCORDO
100
AcDbSpline
 62
250
  6
CONTINUOUS
 70
0
 71
3
 72
17
 73
13
 74
0
 42
0.0000001
 43
0.0000001
 44
0.0000000001
 40
0.0
 40
0.0
 40
0.0
 40
0.0
 40
0.1907473473
 40
0.3753799353
 40
0.5461746645
 40
0.6967705044
 40
0.8214626313
 40
0.9153960719
 40
0.9497291355
 40
0.975202877
 40
0.9917834828
 40
1.0
 40
1.0
 40
1.0
 40
1.0
 10
84.2082592239
 20
38.7864415322
 30
0.0
 10
84.1886495885
 20
38.7864349241
 30
0.0
 10
84.15005879
 20
38.7866258547
 30
0.0
 10
84.0939144793
 20
38.7875027481
 30
0.0
 10
84.041914652
 20
38.788939563
 30
0.0
 10
83.9960843343
 20
38.7908660762
 30
0.0
 10
83.9582218038
 20
38.793194905
 30
0.0
 10
83.9322567023
 20
38.7955247874
 30
0.0
 10
83.9166709142
 20
38.7976663101
 30
0.0
 10
83.9088165553
 20
38.7991524521
 30
0.0
 10
83.9041023419
 20
38.8005227
 30
0.0
 10
83.9014619002
 20
38.8018061977
 30
0.0
 10
83.9012019935
 20
38.8026099106
 30
0.0
  0
SPLINE
  5
399
100
AcDbEntity
  8
RACCORDO
100
AcDbSpline
 62
250
  6
CONTINUOUS
 70
0
 71
3
 72
9
 73
5
 74
0
 42
0.0000001
 43
0.0000001
 44
0.0000000001
 40
0.0
 40
0.0
 40
0.0
 40
0.0
 40
0.2500985862
 40
1.0
 40
1.0
 40
1.0
 40
1.0
 10
115.1793408974
 20
60.6729651144
 30
0.0
 10
115.1793409543
 20
58.812231632
 30
0.0
 10
115.1792923678
 20
51.37223163
 30
0.0
 10
115.1791898949
 20
43.932231612
 30
0.0
 10
115.1786708058
 20
38.3529651144
 30
0.0
  0
LINE
  5
39A
100
AcDbEntity
  8
RACCORDO
100
AcDbLine
 62
250
  6
CONTINUOUS
 10
72.6059229627
 20
37.9841951814
 30
0.0
 11
67.6059229627
 21
37.9845853627
 31
0.0
  0
SPLINE
  5
39B
100
AcDbEntity
  8
RACCORDO
100
AcDbSpline
 62
250
  6
CONTINUOUS
 70
0
 71
3
 72
8
 73
4
 74
0
 42
0.0000001
 43
0.0000001
 44
0.0000000001
 40
0.0
 40
0.0
 40
0.0
 40
0.0
 40
1.0
 40
1.0
 40
1.0
 40
1.0
 10
67.6059229627
 20
37.9845853627
 30
0.0
 10
65.6721342771
 20
37.98488718
 30
0.0
 10
63.7383456027
 20
37.9853641596
 30
0.0
 10
61.8045570315
 20
37.9860948027
 30
0.0
  0
SPLINE
  5
39C
100
AcDbEntity
  8
RACCORDO
100
AcDbSpline
 62
250
  6
CONTINUOUS
 70
0
 71
3
 72
9
 73
5
 74
0
 42
0.0000001
 43
0.0000001
 44
0.0000000001
 40
0.0
 40
0.0
 40
0.0
 40
0.0
 40
0.2505240325
 40
1.0
 40
1.0
 40
1.0
 40
1.0
 10
67.6059229627
 20
18.3565088743
 30
0.0
 10
64.7958789041
 20
18.3565297124
 30
0.0
 10
53.5792142599
 20
18.3566850801
 30
0.0
 10
42.3625496331
 20
18.3580673211
 30
0.0
 10
33.9559292135
 20
18.3597446833
 30
0.0
  0
LINE
  5
39D
100
AcDbEntity
  8
RACCORDO
100
AcDbLine
 62
250
  6
CONTINUOUS
 10
33.9559292135
 20
18.3597446833
 30
0.0
 11
33.5877904548
 21
18.3595025916
 31
0.0
  0
SPLINE
  5
39E
100
AcDbEntity
  8
RACCORDO
100
AcDbSpline
 62
250
  6
CONTINUOUS
 70
0
 71
3
 72
9
 73
5
 74
0
 42
0.0000001
 43
0.0000001
 44
0.0000000001
 40
0.0
 40
0.0
 40
0.0
 40
0.0
 40
0.2498487653
 40
1.0
 40
1.0
 40
1.0
 40
1.0
 10
61.0035867015
 20
38.7864415334
 30
0.0
 10
61.0018676039
 20
40.6092145506
 30
0.0
 10
60.9963522022
 20
47.9047212203
 30
0.0
 10
60.9945129178
 20
55.2002302959
 30
0.0
 10
60.9945129219
 20
60.6729651144
 30
0.0
  0
LINE
  5
39F
100
AcDbEntity
  8
RACCORDO
100
AcDbLine
 62
250
  6
CONTINUOUS
 10
33.6188479066
 20
103.2431048104
 30
0.0
 11
33.9858615416
 21
103.242850366
 31
0.0
  0
SPLINE
  5
3A0
100
AcDbEntity
  8
RACCORDO
100
AcDbSpline
 62
250
  6
CONTINUOUS
 70
0
 71
3
 72
9
 73
5
 74
0
 42
0.0000001
 43
0.0000001
 44
0.0000000001
 40
0.0
 40
0.0
 40
0.0
 40
0.0
 40
0.249241006
 40
1.0
 40
1.0
 40
1.0
 40
1.0
 10
33.9858615416
 20
103.242850366
 30
0.0
 10
36.7792168321
 20
103.2433675833
 30
0.0
 10
47.9866635794
 20
103.2452024087
 30
0.0
 10
59.1941105028
 20
103.2457907151
 30
0.0
 10
67.608202057
 20
103.2458483866
 30
0.0
  0
LINE
  5
3A1
100
AcDbEntity
  8
RACCORDO
100
AcDbLine
 62
250
  6
CONTINUOUS
 10
30.0356969762
 20
99.2817651144
 30
0.0
 11
30.0354478729
 21
99.6596707475
 31
0.0
  0
LINE
  5
3A2
100
AcDbEntity
  8
RACCORDO
100
AcDbLine
 62
250
  6
CONTINUOUS
 10
111.6240554706
 20
18.3595025916
 30
0.0
 11
111.2559167114
 21
18.3597446833
 31
0.0
  0
SPLINE
  5
3A3
100
AcDbEntity
  8
RACCORDO
100
AcDbSpline
 62
250
  6
CONTINUOUS
 70
0
 71
3
 72
9
 73
5
 74
0
 42
0.0000001
 43
0.0000001
 44
0.0000000001
 40
0.0
 40
0.0
 40
0.0
 40
0.0
 40
0.2500985862
 40
1.0
 40
1.0
 40
1.0
 40
1.0
 10
30.0325050281
 20
60.6729651144
 30
0.0
 10
30.0325049712
 20
62.5336985969
 30
0.0
 10
30.0325535576
 20
69.9736985989
 30
0.0
 10
30.0326560305
 20
77.4136986169
 30
0.0
 10
30.0331751197
 20
82.9929651145
 30
0.0
  0
SPLINE
  5
3A4
100
AcDbEntity
  8
RACCORDO
100
AcDbSpline
 62
250
  6
CONTINUOUS
 70
0
 71
3
 72
9
 73
5
 74
0
 42
0.0000001
 43
0.0000001
 44
0.0000000001
 40
0.0
 40
0.0
 40
0.0
 40
0.0
 40
0.2492408193
 40
1.0
 40
1.0
 40
1.0
 40
1.0
 10
111.2559167114
 20
18.3597446833
 30
0.0
 10
108.4602660814
 20
18.3591868715
 30
0.0
 10
97.2436016045
 20
18.3572072878
 30
0.0
 10
86.0269369229
 20
18.3565712226
 30
0.0
 10
77.6059229627
 20
18.3565088743
 30
0.0
  0
LINE
  5
3A5
100
AcDbEntity
  8
RACCORDO
100
AcDbLine
 62
250
  6
CONTINUOUS
 10
30.0331751197
 20
82.9929651145
 30
0.0
 11
30.033190951
 21
83.1586143818
 31
0.0
  0
SPLINE
  5
3A6
100
AcDbEntity
  8
RACCORDO
100
AcDbSpline
 62
250
  6
CONTINUOUS
 70
0
 71
3
 72
9
 73
5
 74
0
 42
0.0000001
 43
0.0000001
 44
0.0000000001
 40
0.0
 40
0.0
 40
0.0
 40
0.0
 40
0.2505068667
 40
1.0
 40
1.0
 40
1.0
 40
1.0
 10
30.033190951
 20
83.1586143818
 30
0.0
 10
30.0333227471
 20
84.5049343824
 30
0.0
 10
30.0339252665
 20
89.879317993
 30
0.0
 10
30.0348350315
 20
95.2537015696
 30
0.0
 10
30.0356969762
 20
99.2817651144
 30
0.0
  0
SPLINE
  5
3A7
100
AcDbEntity
  8
RACCORDO
100
AcDbSpline
 62
250
  6
CONTINUOUS
 70
0
 71
3
 72
8
 73
4
 74
0
 42
0.0000001
 43
0.0000001
 44
0.0000000001
 40
0.0
 40
0.0
 40
0.0
 40
0.0
 40
1.0
 40
1.0
 40
1.0
 40
1.0
 10
83.4072888939
 20
37.9860948027
 30
0.0
 10
81.4735003228
 20
37.9853641596
 30
0.0
 10
79.5397116484
 20
37.98488718
 30
0.0
 10
77.6059229627
 20
37.9845853627
 30
0.0
  0
SPLINE
  5
3A8
100
AcDbEntity
  8
RACCORDO
100
AcDbSpline
 62
250
  6
CONTINUOUS
 70
0
 71
3
 72
9
 73
5
 74
0
 42
0.0000001
 43
0.0000001
 44
0.0000000001
 40
0.0
 40
0.0
 40
0.0
 40
0.0
 40
0.2500934806
 40
1.0
 40
1.0
 40
1.0
 40
1.0
 10
84.2173330035
 20
60.6729651144
 30
0.0
 10
84.2173330032
 20
58.8484059732
 30
0.0
 10
84.216598885
 20
51.5528974575
 30
0.0
 10
84.2134189933
 20
44.2573885706
 30
0.0
 10
84.2082592239
 20
38.7864415334
 30
0.0
  0
LINE
  5
3A9
100
AcDbEntity
  8
RACCORDO
100
AcDbLine
 62
250
  6
CONTINUOUS
 10
115.1786708058
 20
38.3529651144
 30
0.0
 11
115.1786549744
 21
38.1873158471
 31
0.0
  0
LINE
  5
3AA
100
AcDbEntity
  8
RACCORDO
100
AcDbLine
 62
250
  6
CONTINUOUS
 10
111.2259843839
 20
103.242850366
 30
0.0
 11
111.5929980189
 21
103.2431048104
 31
0.0
  0
SPLINE
  5
3AB
100
AcDbEntity
  8
RACCORDO
100
AcDbSpline
 62
250
  6
CONTINUOUS
 70
0
 71
3
 72
9
 73
5
 74
0
 42
0.0000001
 43
0.0000001
 44
0.0000000001
 40
0.0
 40
0.0
 40
0.0
 40
0.0
 40
0.2505238631
 40
1.0
 40
1.0
 40
1.0
 40
1.0
 10
77.6036438684
 20
103.2458483866
 30
0.0
 10
80.4113767592
 20
103.2458291249
 30
0.0
 10
91.6188236503
 20
103.2456853762
 30
0.0
 10
102.8262705266
 20
103.2444056569
 30
0.0
 10
111.2259843839
 20
103.242850366
 30
0.0
  0
SPLINE
  5
3AC
100
AcDbEntity
  8
RACCORDO
100
AcDbSpline
 62
250
  6
CONTINUOUS
 70
0
 71
3
 72
9
 73
5
 74
0
 42
0.0000001
 43
0.0000001
 44
0.0000000001
 40
0.0
 40
0.0
 40
0.0
 40
0.0
 40
0.2505068667
 40
1.0
 40
1.0
 40
1.0
 40
1.0
 10
115.1786549744
 20
38.1873158471
 30
0.0
 10
115.1785231784
 20
36.8409958464
 30
0.0
 10
115.177920659
 20
31.4666122358
 30
0.0
 10
115.1770108939
 20
26.0922286593
 30
0.0
 10
115.1761489492
 20
22.0641651144
 30
0.0
  0
LINE
  5
3AD
100
AcDbEntity
  8
RACCORDO
100
AcDbLine
 62
250
  6
CONTINUOUS
 10
111.5929980189
 20
18.1028254184
 30
0.0
 11
111.2259843839
 21
18.1030798628
 31
0.0
  0
LINE
  5
3AE
100
AcDbEntity
  8
RACCORDO
100
AcDbLine
 62
250
  6
CONTINUOUS
 10
115.1763980526
 20
99.6596707475
 30
0.0
 11
115.1761489492
 21
99.2817651144
 31
0.0
  0
LINE
  5
3AF
100
AcDbEntity
  8
RACCORDO
100
AcDbLine
 62
250
  6
CONTINUOUS
 10
67.6059229627
 20
83.3613448661
 30
0.0
 11
72.6059229627
 21
83.3617350474
 31
0.0
  0
LINE
  5
3B0
100
AcDbEntity
  8
RACCORDO
100
AcDbLine
 62
250
  6
CONTINUOUS
 10
33.5877904548
 20
102.9864276373
 30
0.0
 11
33.955929214
 21
102.9861855456
 31
0.0
  0
SPLINE
  5
3B1
100
AcDbEntity
  8
RACCORDO
100
AcDbSpline
 62
250
  6
CONTINUOUS
 70
0
 71
3
 72
9
 73
5
 74
0
 42
0.0000001
 43
0.0000001
 44
0.0000000001
 40
0.0
 40
0.0
 40
0.0
 40
0.0
 40
0.2492408193
 40
1.0
 40
1.0
 40
1.0
 40
1.0
 10
33.955929214
 20
102.9861855456
 30
0.0
 10
36.7515798441
 20
102.9867433574
 30
0.0
 10
47.968244321
 20
102.988722941
 30
0.0
 10
59.1849090026
 20
102.9893590062
 30
0.0
 10
67.6059229627
 20
102.9894213545
 30
0.0
  0
SPLINE
  5
3B2
100
AcDbEntity
  8
RACCORDO
100
AcDbSpline
 62
250
  6
CONTINUOUS
 70
0
 71
3
 72
8
 73
4
 74
0
 42
0.0000001
 43
0.0000001
 44
0.0000000001
 40
0.0
 40
0.0
 40
0.0
 40
0.0
 40
1.0
 40
1.0
 40
1.0
 40
1.0
 10
61.8045570315
 20
83.3598354262
 30
0.0
 10
63.7383456027
 20
83.3605660692
 30
0.0
 10
65.6721342771
 20
83.3610430488
 30
0.0
 10
67.6059229627
 20
83.3613448661
 30
0.0
  0
SPLINE
  5
3B3
100
AcDbEntity
  8
RACCORDO
100
AcDbSpline
 62
250
  6
CONTINUOUS
 70
0
 71
3
 72
9
 73
5
 74
0
 42
0.0000001
 43
0.0000001
 44
0.0000000001
 40
0.0
 40
0.0
 40
0.0
 40
0.0
 40
0.2500934806
 40
1.0
 40
1.0
 40
1.0
 40
1.0
 10
60.9945129219
 20
60.6729651144
 30
0.0
 10
60.9945129222
 20
62.4975242556
 30
0.0
 10
60.9952470405
 20
69.7930327713
 30
0.0
 10
60.9984269322
 20
77.0885416583
 30
0.0
 10
61.0035867015
 20
82.5594886955
 30
0.0
  0
SPLINE
  5
3B4
100
AcDbEntity
  8
RACCORDO
100
AcDbSpline
 62
250
  6
CONTINUOUS
 70
0
 71
3
 72
9
 73
5
 74
0
 42
0.0000001
 43
0.0000001
 44
0.0000000001
 40
0.0
 40
0.0
 40
0.0
 40
0.0
 40
0.2498392755
 40
1.0
 40
1.0
 40
1.0
 40
1.0
 10
115.1786708058
 20
82.9929651145
 30
0.0
 10
115.1788439024
 20
81.1341609118
 30
0.0
 10
115.1793024654
 20
73.6941609178
 30
0.0
 10
115.1793407052
 20
66.2541609088
 30
0.0
 10
115.1793408974
 20
60.6729651144
 30
0.0
  0
SPLINE
  5
3B5
100
AcDbEntity
  8
RACCORDO
100
AcDbSpline
 62
250
  6
CONTINUOUS
 70
0
 71
3
 72
9
 73
5
 74
0
 42
0.0000001
 43
0.0000001
 44
0.0000000001
 40
0.0
 40
0.0
 40
0.0
 40
0.0
 40
0.249241006
 40
1.0
 40
1.0
 40
1.0
 40
1.0
 10
111.2259843839
 20
18.1030798628
 30
0.0
 10
108.4326290934
 20
18.1025626456
 30
0.0
 10
97.225182346
 20
18.1007278201
 30
0.0
 10
86.0177354226
 20
18.1001395137
 30
0.0
 10
77.6036438684
 20
18.1000818422
 30
0.0
  0
SPLINE
  5
3B6
100
AcDbEntity
  8
RACCORDO
100
AcDbSpline
 62
250
  6
CONTINUOUS
 70
0
 71
3
 72
9
 73
5
 74
0
 42
0.0000001
 43
0.0000001
 44
0.0000000001
 40
0.0
 40
0.0
 40
0.0
 40
0.0
 40
0.2494274167
 40
1.0
 40
1.0
 40
1.0
 40
1.0
 10
115.1761489492
 20
99.2817651144
 30
0.0
 10
115.1764358004
 20
97.9412465166
 30
0.0
 10
115.1775056522
 20
92.5668629785
 30
0.0
 10
115.1782600859
 20
87.1924793781
 30
0.0
 10
115.1786549744
 20
83.1586143818
 30
0.0
  0
LINE
  5
3B7
100
AcDbEntity
  8
RACCORDO
100
AcDbLine
 62
250
  6
CONTINUOUS
 10
115.1786549744
 20
83.1586143818
 30
0.0
 11
115.1786708058
 21
82.9929651145
 31
0.0
  0
SPLINE
  5
3B8
100
AcDbEntity
  8
RACCORDO
100
AcDbSpline
 62
250
  6
CONTINUOUS
 70
0
 71
3
 72
8
 73
4
 74
0
 42
0.0000001
 43
0.0000001
 44
0.0000000001
 40
0.0
 40
0.0
 40
0.0
 40
0.0
 40
1.0
 40
1.0
 40
1.0
 40
1.0
 10
67.6085971791
 20
38.3016400475
 30
0.0
 10
65.6760734363
 20
38.3019409412
 30
0.0
 10
63.7435497047
 20
38.302416365
 30
0.0
 10
61.8110260756
 20
38.3031443797
 30
0.0
  0
LINE
  5
3B9
100
AcDbEntity
  8
RACCORDO
100
AcDbLine
 62
250
  6
CONTINUOUS
 10
72.6059229627
 20
38.3012510139
 30
0.0
 11
67.6085971791
 21
38.3016400475
 31
0.0
  0
LINE
  5
3BA
100
AcDbEntity
  8
RACCORDO
100
AcDbLine
 62
250
  6
CONTINUOUS
 10
77.6032487464
 20
38.3016400475
 30
0.0
 11
72.6059229627
 21
38.3012510139
 31
0.0
  0
SPLINE
  5
3BB
100
AcDbEntity
  8
RACCORDO
100
AcDbSpline
 62
250
  6
CONTINUOUS
 70
0
 71
3
 72
8
 73
4
 74
0
 42
0.0000001
 43
0.0000001
 44
0.0000000001
 40
0.0
 40
0.0
 40
0.0
 40
0.0
 40
1.0
 40
1.0
 40
1.0
 40
1.0
 10
83.4008198499
 20
38.3031443797
 30
0.0
 10
81.4682962208
 20
38.302416365
 30
0.0
 10
79.5357724892
 20
38.3019409412
 30
0.0
 10
77.6032487464
 20
38.3016400475
 30
0.0
  0
SPLINE
  5
3BC
100
AcDbEntity
  8
RACCORDO
100
AcDbSpline
 62
250
  6
CONTINUOUS
 70
0
 71
3
 72
9
 73
5
 74
0
 42
0.0000001
 43
0.0000001
 44
0.0000000001
 40
0.0
 40
0.0
 40
0.0
 40
0.0
 40
0.2500934653
 40
1.0
 40
1.0
 40
1.0
 40
1.0
 10
61.3015878307
 20
60.6729651144
 30
0.0
 10
61.3015878312
 20
62.4961762728
 30
0.0
 10
61.3023205754
 20
69.7862953172
 30
0.0
 10
61.305494227
 20
77.0764147316
 30
0.0
 10
61.3106439419
 20
82.5433202877
 30
0.0
  0
SPLINE
  5
3BD
100
AcDbEntity
  8
RACCORDO
100
AcDbSpline
 62
250
  6
CONTINUOUS
 70
0
 71
3
 72
9
 73
5
 74
0
 42
0.0000001
 43
0.0000001
 44
0.0000000001
 40
0.0
 40
0.0
 40
0.0
 40
0.0
 40
0.2498487766
 40
1.0
 40
1.0
 40
1.0
 40
1.0
 10
61.3106439419
 20
38.8026099412
 30
0.0
 10
61.3089281927
 20
40.6240364898
 30
0.0
 10
61.3034237474
 20
47.9141536942
 30
0.0
 10
61.3015878247
 20
55.2042732965
 30
0.0
 10
61.3015878307
 20
60.6729651144
 30
0.0
  0
SPLINE
  5
3BE
100
AcDbEntity
  8
RACCORDO
100
AcDbSpline
 62
250
  6
CONTINUOUS
 70
0
 71
3
 72
8
 73
4
 74
0
 42
0.0000001
 43
0.0000001
 44
0.0000000001
 40
0.0
 40
0.0
 40
0.0
 40
0.0
 40
1.0
 40
1.0
 40
1.0
 40
1.0
 10
77.6032487464
 20
83.0442901813
 30
0.0
 10
79.5357724892
 20
83.0439892877
 30
0.0
 10
81.4682962208
 20
83.0435138639
 30
0.0
 10
83.4008198499
 20
83.0427858492
 30
0.0
  0
LINE
  5
3BF
100
AcDbEntity
  8
RACCORDO
100
AcDbLine
 62
250
  6
CONTINUOUS
 10
72.6059229627
 20
83.0446792149
 30
0.0
 11
77.6032487464
 21
83.0442901813
 31
0.0
  0
LINE
  5
3C0
100
AcDbEntity
  8
RACCORDO
100
AcDbLine
 62
250
  6
CONTINUOUS
 10
67.6085971791
 20
83.0442901813
 30
0.0
 11
72.6059229627
 21
83.0446792149
 31
0.0
  0
SPLINE
  5
3C1
100
AcDbEntity
  8
RACCORDO
100
AcDbSpline
 62
250
  6
CONTINUOUS
 70
0
 71
3
 72
8
 73
4
 74
0
 42
0.0000001
 43
0.0000001
 44
0.0000000001
 40
0.0
 40
0.0
 40
0.0
 40
0.0
 40
1.0
 40
1.0
 40
1.0
 40
1.0
 10
61.8110260756
 20
83.0427858492
 30
0.0
 10
63.7435497047
 20
83.0435138639
 30
0.0
 10
65.6760734363
 20
83.0439892877
 30
0.0
 10
67.6085971791
 20
83.0442901813
 30
0.0
  0
SPLINE
  5
3C2
100
AcDbEntity
  8
RACCORDO
100
AcDbSpline
 62
250
  6
CONTINUOUS
 70
0
 71
3
 72
9
 73
5
 74
0
 42
0.0000001
 43
0.0000001
 44
0.0000000001
 40
0.0
 40
0.0
 40
0.0
 40
0.0
 40
0.2500934653
 40
1.0
 40
1.0
 40
1.0
 40
1.0
 10
83.9102580947
 20
60.6729651144
 30
0.0
 10
83.9102580943
 20
58.849753956
 30
0.0
 10
83.90952535
 20
51.5596349117
 30
0.0
 10
83.9063516984
 20
44.2695154972
 30
0.0
 10
83.9012019835
 20
38.8026099412
 30
0.0
  0
SPLINE
  5
3C3
100
AcDbEntity
  8
RACCORDO
100
AcDbSpline
 62
250
  6
CONTINUOUS
 70
0
 71
3
 72
9
 73
5
 74
0
 42
0.0000001
 43
0.0000001
 44
0.0000000001
 40
0.0
 40
0.0
 40
0.0
 40
0.0
 40
0.2498487766
 40
1.0
 40
1.0
 40
1.0
 40
1.0
 10
83.9012019835
 20
82.5433202877
 30
0.0
 10
83.9029177328
 20
80.721893739
 30
0.0
 10
83.908422178
 20
73.4317765346
 30
0.0
 10
83.9102581008
 20
66.1416569323
 30
0.0
 10
83.9102580947
 20
60.6729651144
 30
0.0
  0
SPLINE
  5
3C4
100
AcDbEntity
  8
0
100
AcDbSpline
 62
7
  6
CONTINUOUS
 70
0
 71
3
 72
9
 73
5
 74
0
 42
0.0000001
 43
0.0000001
 44
0.0000000001
 40
0.0
 40
0.0
 40
0.0
 40
0.0
 40
0.5
 40
1.0
 40
1.0
 40
1.0
 40
1.0
 10
153.7524056378
 20
60.6729651144
 30
0.0
 10
153.7524056378
 20
56.9454762855
 30
0.0
 10
153.6696898824
 20
49.4845943889
 30
0.0
 10
153.4125511445
 20
42.0518612686
 30
0.0
 10
153.2041582906
 20
38.3529651144
 30
0.0
  0
SPLINE
  5
3C5
100
AcDbEntity
  8
0
100
AcDbSpline
 62
7
  6
CONTINUOUS
 70
0
 71
3
 72
9
 73
5
 74
0
 42
0.0000001
 43
0.0000001
 44
0.0000000001
 40
0.0
 40
0.0
 40
0.0
 40
0.0
 40
0.5
 40
1.0
 40
1.0
 40
1.0
 40
1.0
 10
153.7524056378
 20
60.6729651144
 30
0.0
 10
153.7524056378
 20
64.4004539434
 30
0.0
 10
153.6696898824
 20
71.86133584
 30
0.0
 10
153.4125511445
 20
79.2940689603
 30
0.0
 10
153.2041582906
 20
82.9929651144
 30
0.0
  0
SPLINE
  5
3C6
100
AcDbEntity
  8
SUPERFICI
100
AcDbSpline
 62
7
  6
CONTINUOUS
 70
0
 71
3
 72
11
 73
7
 74
0
 42
0.0000001
 43
0.0000001
 44
0.0000000001
 40
0.0
 40
0.0
 40
0.0
 40
0.0
 40
0.3297827701
 40
0.6094904046
 40
0.8333908073
 40
1.0
 40
1.0
 40
1.0
 40
1.0
 10
151.509465496
 20
102.5568760476
 30
0.0
 10
151.509462586
 20
102.6649931252
 30
0.0
 10
151.5119618751
 20
102.8648186366
 30
0.0
 10
151.525075197
 20
103.1378458257
 30
0.0
 10
151.5467660863
 20
103.3565205989
 30
0.0
 10
151.5698024699
 20
103.4829092817
 30
0.0
 10
151.5847823161
 20
103.5354367552
 30
0.0
  0
SPLINE
  5
3C7
100
AcDbEntity
  8
SUPERFICI
100
AcDbSpline
 62
7
  6
CONTINUOUS
 70
0
 71
3
 72
11
 73
7
 74
0
 42
0.0000001
 43
0.0000001
 44
0.0000000001
 40
0.0
 40
0.0
 40
0.0
 40
0.0
 40
0.35841637
 40
0.6342453633
 40
0.8380698003
 40
1.0
 40
1.0
 40
1.0
 40
1.0
 10
151.5847823161
 20
103.5354367552
 30
0.0
 10
151.5905817432
 20
103.5557726951
 30
0.0
 10
151.6022958184
 20
103.591440614
 30
0.0
 10
151.6244758462
 20
103.6358154529
 30
0.0
 10
151.6496639685
 20
103.6652244451
 30
0.0
 10
151.6713684314
 20
103.6729510462
 30
0.0
 10
151.680922373
 20
103.6729650638
 30
0.0
  0
SPLINE
  5
3C8
100
AcDbEntity
  8
0
100
AcDbSpline
 62
7
  6
CONTINUOUS
 70
0
 71
3
 72
11
 73
7
 74
0
 42
0.0000001
 43
0.0000001
 44
0.0000000001
 40
0.0
 40
0.0
 40
0.0
 40
0.0
 40
0.3297827701
 40
0.6094904046
 40
0.8333908073
 40
1.0
 40
1.0
 40
1.0
 40
1.0
 10
151.509465496
 20
18.7890541812
 30
0.0
 10
151.509462586
 20
18.6809371036
 30
0.0
 10
151.5119618751
 20
18.4811115922
 30
0.0
 10
151.525075197
 20
18.2080844031
 30
0.0
 10
151.5467660863
 20
17.98940963
 30
0.0
 10
151.5698024699
 20
17.8630209471
 30
0.0
 10
151.5847823161
 20
17.8104934736
 30
0.0
  0
SPLINE
  5
3C9
100
AcDbEntity
  8
0
100
AcDbSpline
 62
7
  6
CONTINUOUS
 70
0
 71
3
 72
11
 73
7
 74
0
 42
0.0000001
 43
0.0000001
 44
0.0000000001
 40
0.0
 40
0.0
 40
0.0
 40
0.0
 40
0.35841637
 40
0.6342453633
 40
0.8380698003
 40
1.0
 40
1.0
 40
1.0
 40
1.0
 10
151.5847823161
 20
17.8104934736
 30
0.0
 10
151.5905817432
 20
17.7901575337
 30
0.0
 10
151.6022958184
 20
17.7544896148
 30
0.0
 10
151.6244758462
 20
17.7101147759
 30
0.0
 10
151.6496639685
 20
17.6807057837
 30
0.0
 10
151.6713684314
 20
17.6729791826
 30
0.0
 10
151.680922373
 20
17.672965165
 30
0.0
  0
SPLINE
  5
3CA
100
AcDbEntity
  8
0
100
AcDbSpline
 62
7
  6
CONTINUOUS
 70
0
 71
3
 72
11
 73
7
 74
0
 42
0.0000001
 43
0.0000001
 44
0.0000000001
 40
0.0
 40
0.0
 40
0.0
 40
0.0
 40
0.3832662848
 40
0.6865740793
 40
0.8965525069
 40
1.0
 40
1.0
 40
1.0
 40
1.0
 10
158.8253907939
 20
34.9425481122
 30
0.0
 10
158.8254663322
 20
34.9462669552
 30
0.0
 10
158.8255492846
 20
34.9529164479
 30
0.0
 10
158.8256455429
 20
34.9616619009
 30
0.0
 10
158.8253094209
 20
34.9675548276
 30
0.0
 10
158.8252725862
 20
34.9707125333
 30
0.0
 10
158.8248465999
 20
34.971621639
 30
0.0
  0
SPLINE
  5
3CB
100
AcDbEntity
  8
RACCORDO
100
AcDbSpline
 62
250
  6
CONTINUOUS
 70
0
 71
3
 72
14
 73
10
 74
0
 42
0.0000001
 43
0.0000001
 44
0.0000000001
 40
0.0
 40
0.0
 40
0.0
 40
0.0
 40
0.4298399062
 40
0.601185243
 40
0.7424974939
 40
0.8532024601
 40
0.9328153062
 40
0.9812864331
 40
1.0
 40
1.0
 40
1.0
 40
1.0
 10
158.8352903248
 20
83.2500141285
 30
0.0
 10
158.8350069082
 20
83.2658026577
 30
0.0
 10
158.8347049162
 20
83.2879046109
 30
0.0
 10
158.8347248189
 20
83.3151443284
 30
0.0
 10
158.8349360348
 20
83.3307759256
 30
0.0
 10
158.8353408808
 20
83.3427470147
 30
0.0
 10
158.8359058851
 20
83.3519754679
 30
0.0
 10
158.8366137766
 20
83.3564762591
 30
0.0
 10
158.8373091469
 20
83.3598218695
 30
0.0
 10
158.8379964954
 20
83.3598354262
 30
0.0
  0
LINE
  5
3CC
100
AcDbEntity
  8
RACCORDO
100
AcDbLine
 62
250
  6
CONTINUOUS
 10
155.0552971371
 20
99.3125600999
 30
0.0
 11
155.0088384952
 21
99.6916385106
 31
0.0
  0
SPLINE
  5
3CD
100
AcDbEntity
  8
RACCORDO
100
AcDbSpline
 62
250
  6
CONTINUOUS
 70
0
 71
3
 72
9
 73
5
 74
0
 42
0.0000001
 43
0.0000001
 44
0.0000000001
 40
0.0
 40
0.0
 40
0.0
 40
0.0
 40
0.5278470735
 40
1.0
 40
1.0
 40
1.0
 40
1.0
 10
155.0088384952
 20
99.6916385106
 30
0.0
 10
154.9653039332
 20
100.043576078
 30
0.0
 10
154.8950323995
 20
100.7118651833
 30
0.0
 10
154.8516190639
 20
101.3826187494
 30
0.0
 10
154.8412778903
 20
101.6996534642
 30
0.0
  0
SPLINE
  5
3CE
100
AcDbEntity
  8
RACCORDO
100
AcDbSpline
 62
250
  6
CONTINUOUS
 70
0
 71
3
 72
20
 73
16
 74
0
 42
0.0000001
 43
0.0000001
 44
0.0000000001
 40
0.0
 40
0.0
 40
0.0
 40
0.0
 40
0.2152753707
 40
0.4077794442
 40
0.5749449233
 40
0.6484540345
 40
0.7150138194
 40
0.7743966403
 40
0.8264499771
 40
0.8711982257
 40
0.9087953243
 40
0.9395155126
 40
0.9638765511
 40
0.9831737002
 40
1.0
 40
1.0
 40
1.0
 40
1.0
 10
154.8412778903
 20
101.6996534642
 30
0.0
 10
154.8381617864
 20
101.7951854732
 30
0.0
 10
154.8341263432
 20
101.9762161331
 30
0.0
 10
154.8350583646
 20
102.2315215111
 30
0.0
 10
154.8421750998
 20
102.4237809004
 30
0.0
 10
154.8520775512
 20
102.5598475909
 30
0.0
 10
154.8609453967
 20
102.6479733651
 30
0.0
 10
154.871562202
 20
102.726307687
 30
0.0
 10
154.8839151966
 20
102.7945737984
 30
0.0
 10
154.8979253575
 20
102.8526250818
 30
0.0
 10
154.9135056143
 20
102.9004172884
 30
0.0
 10
154.9305848359
 20
102.9379979987
 30
0.0
 10
154.9493485534
 20
102.965454441
 30
0.0
 10
154.970562733
 20
102.9829045781
 30
0.0
 10
154.9869257372
 20
102.986638708
 30
0.0
 10
154.9943936753
 20
102.9864276373
 30
0.0
  0
SPLINE
  5
3CF
100
AcDbEntity
  8
RACCORDO
100
AcDbSpline
 62
250
  6
CONTINUOUS
 70
0
 71
3
 72
9
 73
5
 74
0
 42
0.0000001
 43
0.0000001
 44
0.0000000001
 40
0.0
 40
0.0
 40
0.0
 40
0.0
 40
0.5000052784
 40
1.0
 40
1.0
 40
1.0
 40
1.0
 10
159.3835470067
 20
60.7153690295
 30
0.0
 10
159.3832433215
 20
64.3519949982
 30
0.0
 10
159.3041114444
 20
71.6251622866
 30
0.0
 10
159.0615603974
 20
78.8957084988
 30
0.0
 10
158.8660402068
 20
82.5269977932
 30
0.0
  0
SPLINE
  5
3D0
100
AcDbEntity
  8
RACCORDO
100
AcDbSpline
 62
250
  6
CONTINUOUS
 70
0
 71
3
 72
9
 73
5
 74
0
 42
0.0000001
 43
0.0000001
 44
0.0000000001
 40
0.0
 40
0.0
 40
0.0
 40
0.0
 40
0.5000278894
 40
1.0
 40
1.0
 40
1.0
 40
1.0
 10
157.0433963127
 20
60.6729651144
 30
0.0
 10
157.0433963127
 20
64.396962642
 30
0.0
 10
156.9613569136
 20
71.8445337004
 30
0.0
 10
156.7064454838
 20
79.2893301717
 30
0.0
 10
156.4993711097
 20
83.007149954
 30
0.0
  0
SPLINE
  5
3D1
100
AcDbEntity
  8
RACCORDO
100
AcDbSpline
 62
250
  6
CONTINUOUS
 70
0
 71
3
 72
9
 73
5
 74
0
 42
0.0000001
 43
0.0000001
 44
0.0000000001
 40
0.0
 40
0.0
 40
0.0
 40
0.0
 40
0.2717521945
 40
1.0
 40
1.0
 40
1.0
 40
1.0
 10
158.8642887991
 20
82.5594886955
 30
0.0
 10
158.8616965638
 20
82.6075139896
 30
0.0
 10
158.8525083507
 20
82.7842564907
 30
0.0
 10
158.8444139316
 20
82.9610620474
 30
0.0
 10
158.839843763
 20
83.0898676312
 30
0.0
  0
LINE
  5
3D2
100
AcDbEntity
  8
RACCORDO
100
AcDbLine
 62
250
  6
CONTINUOUS
 10
158.8373788338
 20
83.165044401
 30
0.0
 11
158.8371467821
 21
83.1729651144
 31
0.0
  0
LINE
  5
3D3
100
AcDbEntity
  8
RACCORDO
100
AcDbLine
 62
250
  6
CONTINUOUS
 10
156.2349395903
 20
38.1873158471
 30
0.0
 11
156.2442153521
 21
38.3529651144
 31
0.0
  0
SPLINE
  5
3D4
100
AcDbEntity
  8
RACCORDO
100
AcDbSpline
 62
250
  6
CONTINUOUS
 70
0
 71
3
 72
9
 73
5
 74
0
 42
0.0000001
 43
0.0000001
 44
0.0000000001
 40
0.0
 40
0.0
 40
0.0
 40
0.0
 40
0.4999999941
 40
1.0
 40
1.0
 40
1.0
 40
1.0
 10
149.5766368278
 20
38.177833854
 30
0.0
 10
149.5791269138
 20
41.9270216913
 30
0.0
 10
149.5816294926
 20
49.4253989939
 30
0.0
 10
149.582398676
 20
56.9237763623
 30
0.0
 10
149.5823986759
 20
60.6729651144
 30
0.0
  0
SPLINE
  5
3D5
100
AcDbEntity
  8
RACCORDO
100
AcDbSpline
 62
250
  6
CONTINUOUS
 70
0
 71
3
 72
11
 73
7
 74
0
 42
0.0000001
 43
0.0000001
 44
0.0000000001
 40
0.0
 40
0.0
 40
0.0
 40
0.0
 40
0.249999982
 40
0.4999999857
 40
0.7499999838
 40
1.0
 40
1.0
 40
1.0
 40
1.0
 10
149.5514348856
 20
22.0031723652
 30
0.0
 10
149.5559658798
 20
23.3510548776
 30
0.0
 10
149.5599275151
 20
26.0468345295
 30
0.0
 10
149.5671774565
 20
30.090497764
 30
0.0
 10
149.5732853687
 20
34.1341643
 30
0.0
 10
149.5757412284
 20
36.8299438393
 30
0.0
 10
149.5766368278
 20
38.177833854
 30
0.0
  0
SPLINE
  5
3D6
100
AcDbEntity
  8
RACCORDO
100
AcDbSpline
 62
250
  6
CONTINUOUS
 70
0
 71
3
 72
11
 73
7
 74
0
 42
0.0000001
 43
0.0000001
 44
0.0000000001
 40
0.0
 40
0.0
 40
0.0
 40
0.0
 40
0.2492812571
 40
0.4990069076
 40
0.7492850268
 40
1.0
 40
1.0
 40
1.0
 40
1.0
 10
154.7847591327
 20
18.1030798628
 30
0.0
 10
154.8164741829
 20
18.1076001484
 30
0.0
 10
154.8789423803
 20
18.1272067722
 30
0.0
 10
154.9580499072
 20
18.1849488061
 30
0.0
 10
155.0148657723
 20
18.2649360125
 30
0.0
 10
155.0339177313
 20
18.327814089
 30
0.0
 10
155.0382251147
 20
18.3597446833
 30
0.0
  0
SPLINE
  5
3D7
100
AcDbEntity
  8
RACCORDO
100
AcDbSpline
 62
250
  6
CONTINUOUS
 70
0
 71
3
 72
11
 73
7
 74
0
 42
0.0000001
 43
0.0000001
 44
0.0000000001
 40
0.0
 40
0.0
 40
0.0
 40
0.0
 40
0.2492725878
 40
0.4989814444
 40
0.7492570482
 40
1.0
 40
1.0
 40
1.0
 40
1.0
 10
154.7409570314
 20
18.1028163445
 30
0.0
 10
154.7726750934
 20
18.1073251481
 30
0.0
 10
154.8351521302
 20
18.1269157012
 30
0.0
 10
154.9142659639
 20
18.1846602478
 30
0.0
 10
154.9710700493
 20
18.2646692788
 30
0.0
 10
154.9900993416
 20
18.3275640969
 30
0.0
 10
154.9943936753
 20
18.3595025916
 30
0.0
  0
SPLINE
  5
3D8
100
AcDbEntity
  8
RACCORDO
100
AcDbSpline
 62
250
  6
CONTINUOUS
 70
0
 71
3
 72
9
 73
5
 74
0
 42
0.0000001
 43
0.0000001
 44
0.0000000001
 40
0.0
 40
0.0
 40
0.0
 40
0.0
 40
0.6703174777
 40
1.0
 40
1.0
 40
1.0
 40
1.0
 10
154.7553643743
 20
21.686123203
 30
0.0
 10
154.812011454
 20
21.6790996062
 30
0.0
 10
154.8964887403
 20
21.6683927411
 30
0.0
 10
154.9810266738
 20
21.6581233182
 30
0.0
 10
155.0088380745
 20
21.6542917701
 30
0.0
  0
SPLINE
  5
3D9
100
AcDbEntity
  8
RACCORDO
100
AcDbSpline
 62
250
  6
CONTINUOUS
 70
0
 71
3
 72
10
 73
6
 74
0
 42
0.0000001
 43
0.0000001
 44
0.0000000001
 40
0.0
 40
0.0
 40
0.0
 40
0.0
 40
0.6703075585
 40
0.8904080225
 40
1.0
 40
1.0
 40
1.0
 40
1.0
 10
154.7553292317
 20
99.6595348043
 30
0.0
 10
154.8119921049
 20
99.6665515333
 30
0.0
 10
154.8872641552
 20
99.6758587893
 30
0.0
 10
154.9717420999
 20
99.686739085
 30
0.0
 10
154.9996043603
 20
99.6902708943
 30
0.0
 10
155.0088384952
 20
99.6916385106
 30
0.0
  0
SPLINE
  5
3DA
100
AcDbEntity
  8
RACCORDO
100
AcDbSpline
 62
250
  6
CONTINUOUS
 70
0
 71
3
 72
11
 73
7
 74
0
 42
0.0000001
 43
0.0000001
 44
0.0000000001
 40
0.0
 40
0.0
 40
0.0
 40
0.0
 40
0.2492641774
 40
0.4989754185
 40
0.7492566414
 40
1.0
 40
1.0
 40
1.0
 40
1.0
 10
154.7409903557
 20
103.2431050365
 30
0.0
 10
154.7727023773
 20
103.2385899235
 30
0.0
 10
154.8351663975
 20
103.2189899414
 30
0.0
 10
154.9142633449
 20
103.1612449756
 30
0.0
 10
154.9710607265
 20
103.0812463075
 30
0.0
 10
154.9900947118
 20
103.0183614903
 30
0.0
 10
154.9943933338
 20
102.9864275906
 30
0.0
  0
SPLINE
  5
3DB
100
AcDbEntity
  8
RACCORDO
100
AcDbSpline
 62
250
  6
CONTINUOUS
 70
0
 71
3
 72
11
 73
7
 74
0
 42
0.0000001
 43
0.0000001
 44
0.0000000001
 40
0.0
 40
0.0
 40
0.0
 40
0.0
 40
0.2492812573
 40
0.4990069078
 40
0.7492850268
 40
1.0
 40
1.0
 40
1.0
 40
1.0
 10
154.7847591326
 20
103.242850366
 30
0.0
 10
154.8164741828
 20
103.2383300805
 30
0.0
 10
154.8789423803
 20
103.2187234567
 30
0.0
 10
154.9580499072
 20
103.1609814228
 30
0.0
 10
155.0148657722
 20
103.0809942163
 30
0.0
 10
155.0339177314
 20
103.0181161399
 30
0.0
 10
155.0382251149
 20
102.9861855456
 30
0.0
  0
SPLINE
  5
3DC
100
AcDbEntity
  8
RACCORDO
100
AcDbSpline
 62
250
  6
CONTINUOUS
 70
0
 71
3
 72
20
 73
16
 74
0
 42
0.0000001
 43
0.0000001
 44
0.0000000001
 40
0.0
 40
0.0
 40
0.0
 40
0.0
 40
0.0170033267
 40
0.0364264708
 40
0.060859522
 40
0.0915939758
 40
0.1291780157
 40
0.1738739595
 40
0.2258497113
 40
0.2851401041
 40
0.3516133948
 40
0.4250468673
 40
0.5920737292
 40
0.784557934
 40
1.0
 40
1.0
 40
1.0
 40
1.0
 10
154.9943936753
 20
18.3595025916
 30
0.0
 10
154.9870278587
 20
18.3592937402
 30
0.0
 10
154.970925506
 20
18.3629005216
 30
0.0
 10
154.9499455691
 20
18.3798511154
 30
0.0
 10
154.9313711132
 20
18.4065898918
 30
0.0
 10
154.9144240556
 20
18.4431792859
 30
0.0
 10
154.8989616091
 20
18.4897226103
 30
0.0
 10
154.8850085977
 20
18.5462524578
 30
0.0
 10
154.872671792
 20
18.6127359479
 30
0.0
 10
154.8620175251
 20
18.6890428167
 30
0.0
 10
154.8530677277
 20
18.774918135
 30
0.0
 10
154.8429842825
 20
18.9075656417
 30
0.0
 10
154.8354885978
 20
19.0951004343
 30
0.0
 10
154.8339347513
 20
19.3442945291
 30
0.0
 10
154.8374502305
 20
19.5210639075
 30
0.0
 10
154.8402750578
 20
19.6143878652
 30
0.0
  0
SPLINE
  5
3DD
100
AcDbEntity
  8
RACCORDO
100
AcDbSpline
 62
250
  6
CONTINUOUS
 70
0
 71
3
 72
9
 73
5
 74
0
 42
0.0000001
 43
0.0000001
 44
0.0000000001
 40
0.0
 40
0.0
 40
0.0
 40
0.0
 40
0.4710345663
 40
1.0
 40
1.0
 40
1.0
 40
1.0
 10
154.8402750578
 20
19.6143878652
 30
0.0
 10
154.8500008792
 20
19.9357002987
 30
0.0
 10
154.8933567451
 20
20.6171373602
 30
0.0
 10
154.9645219106
 20
21.2960274815
 30
0.0
 10
155.0088384952
 20
21.6542917183
 30
0.0
  0
LINE
  5
3DE
100
AcDbEntity
  8
RACCORDO
100
AcDbLine
 62
250
  6
CONTINUOUS
 10
155.0088384952
 20
21.6542917183
 30
0.0
 11
155.0552971372
 21
22.0333701291
 31
0.0
  0
SPLINE
  5
3DF
100
AcDbEntity
  8
RACCORDO
100
AcDbSpline
 62
250
  6
CONTINUOUS
 70
0
 71
3
 72
14
 73
10
 74
0
 42
0.0000001
 43
0.0000001
 44
0.0000000001
 40
0.0
 40
0.0
 40
0.0
 40
0.0
 40
0.0189017866
 40
0.0673227089
 40
0.146804327
 40
0.2573144144
 40
0.3984482964
 40
0.5697191346
 40
1.0
 40
1.0
 40
1.0
 40
1.0
 10
158.8379964954
 20
37.9860948027
 30
0.0
 10
158.8373592373
 20
37.9861071207
 30
0.0
 10
158.8366467195
 20
37.9891401114
 30
0.0
 10
158.8359902712
 20
37.9933013991
 30
0.0
 10
158.8354099062
 20
38.0017366141
 30
0.0
 10
158.83500095
 20
38.0127149406
 30
0.0
 10
158.834757271
 20
38.0270438814
 30
0.0
 10
158.8346720407
 20
38.0520546111
 30
0.0
 10
158.8349051166
 20
38.072353998
 30
0.0
 10
158.8351366472
 20
38.0868614255
 30
0.0
  0
SPLINE
  5
3E0
100
AcDbEntity
  8
RACCORDO
100
AcDbSpline
 62
250
  6
CONTINUOUS
 70
0
 71
3
 72
9
 73
5
 74
0
 42
0.0000001
 43
0.0000001
 44
0.0000000001
 40
0.0
 40
0.0
 40
0.0
 40
0.0
 40
0.2196146317
 40
1.0
 40
1.0
 40
1.0
 40
1.0
 10
158.839765308
 20
38.2538464853
 30
0.0
 10
158.8411437893
 20
38.2928523073
 30
0.0
 10
158.8480733975
 20
38.4704392994
 30
0.0
 10
158.8568134077
 20
38.6479521281
 30
0.0
 10
158.8642887991
 20
38.7864415334
 30
0.0
  0
SPLINE
  5
3E1
100
AcDbEntity
  8
RACCORDO
100
AcDbSpline
 62
250
  6
CONTINUOUS
 70
0
 71
3
 72
9
 73
5
 74
0
 42
0.0000001
 43
0.0000001
 44
0.0000000001
 40
0.0
 40
0.0
 40
0.0
 40
0.0
 40
0.4999721106
 40
1.0
 40
1.0
 40
1.0
 40
1.0
 10
156.4993745147
 20
38.3387800852
 30
0.0
 10
156.7064488932
 20
42.0565998989
 30
0.0
 10
156.9613603278
 20
49.5013964335
 30
0.0
 10
157.0433997282
 20
56.9489675552
 30
0.0
 10
157.0433997282
 20
60.6729651144
 30
0.0
  0
SPLINE
  5
3E2
100
AcDbEntity
  8
RACCORDO
100
AcDbSpline
 62
250
  6
CONTINUOUS
 70
0
 71
3
 72
9
 73
5
 74
0
 42
0.0000001
 43
0.0000001
 44
0.0000000001
 40
0.0
 40
0.0
 40
0.0
 40
0.0
 40
0.499994752
 40
1.0
 40
1.0
 40
1.0
 40
1.0
 10
158.86610585
 20
38.8201516239
 30
0.0
 10
159.061590968
 20
42.4510979675
 30
0.0
 10
159.3041285853
 20
49.7209546699
 30
0.0
 10
159.3832373372
 20
56.9934330897
 30
0.0
 10
159.3835469368
 20
60.6297142687
 30
0.0
  0
LINE
  5
3E3
100
AcDbEntity
  8
RACCORDO
100
AcDbLine
 62
250
  6
CONTINUOUS
 10
151.680922347
 20
103.6729651181
 30
0.0
 11
154.741007499
 21
103.2431048104
 31
0.0
  0
SPLINE
  5
3E4
100
AcDbEntity
  8
RACCORDO
100
AcDbSpline
 62
250
  6
CONTINUOUS
 70
0
 71
3
 72
8
 73
4
 74
0
 42
0.0000001
 43
0.0000001
 44
0.0000000001
 40
0.0
 40
0.0
 40
0.0
 40
0.0
 40
1.0
 40
1.0
 40
1.0
 40
1.0
 10
151.6975978827
 20
99.6735244653
 30
0.0
 10
152.7168385518
 20
99.6693888798
 30
0.0
 10
153.7360768288
 20
99.6646600481
 30
0.0
 10
154.755313678
 20
99.6596710663
 30
0.0
  0
SPLINE
  5
3E5
100
AcDbEntity
  8
SUPERFICI
100
AcDbSpline
 62
7
  6
CONTINUOUS
 70
0
 71
3
 72
11
 73
7
 74
0
 42
0.0000001
 43
0.0000001
 44
0.0000000001
 40
0.0
 40
0.0
 40
0.0
 40
0.0
 40
0.278847091
 40
0.5450763857
 40
0.7887003746
 40
1.0
 40
1.0
 40
1.0
 40
1.0
 10
151.6975978826
 20
99.6735244653
 30
0.0
 10
151.6676887991
 20
99.9405442058
 30
0.0
 10
151.6151377932
 20
100.4631808119
 30
0.0
 10
151.556125296
 20
101.2209300499
 30
0.0
 10
151.5196608892
 20
101.9149230825
 30
0.0
 10
151.509470976
 20
102.3532733878
 30
0.0
 10
151.509465496
 20
102.5568760476
 30
0.0
  0
SPLINE
  5
3E6
100
AcDbEntity
  8
RACCORDO
100
AcDbSpline
 62
250
  6
CONTINUOUS
 70
0
 71
3
 72
22
 73
18
 74
0
 42
0.0000001
 43
0.0000001
 44
0.0000000001
 40
0.0
 40
0.0
 40
0.0
 40
0.0
 40
0.3787460503
 40
0.5499306839
 40
0.6279786915
 40
0.699927081
 40
0.7651139683
 40
0.8228902112
 40
0.8727912511
 40
0.9144254282
 40
0.947465548
 40
0.9607871464
 40
0.9720325978
 40
0.9812780123
 40
0.9887013807
 40
0.9946989169
 40
1.0
 40
1.0
 40
1.0
 40
1.0
 10
154.755313678
 20
99.6596710663
 30
0.0
 10
154.7035268337
 20
100.1154075138
 30
0.0
 10
154.6411638302
 20
100.7787496559
 30
0.0
 10
154.5978848105
 20
101.5380994672
 30
0.0
 10
154.5848739251
 20
101.9268571594
 30
0.0
 10
154.5808478803
 20
102.1874333174
 30
0.0
 10
154.5821944617
 20
102.4234940273
 30
0.0
 10
154.5889447323
 20
102.6327550598
 30
0.0
 10
154.6009423148
 20
102.8132309397
 30
0.0
 10
154.6179055293
 20
102.9631855362
 30
0.0
 10
154.6370940498
 20
103.0681964416
 30
0.0
 10
154.6559708951
 20
103.1354138235
 30
0.0
 10
154.6702094843
 20
103.1738692753
 30
0.0
 10
154.6855562335
 20
103.2041124953
 30
0.0
 10
154.7021772862
 20
103.2262111142
 30
0.0
 10
154.7206234069
 20
103.2401775595
 30
0.0
 10
154.7345247624
 20
103.2432306028
 30
0.0
 10
154.7409434298
 20
103.2431142354
 30
0.0
  0
LINE
  5
3E7
100
AcDbEntity
  8
RACCORDO
100
AcDbLine
 62
250
  6
CONTINUOUS
 10
154.8017507576
 20
99.2817651144
 30
0.0
 11
154.7553811966
 21
99.6596707475
 31
0.0
  0
SPLINE
  5
3E8
100
AcDbEntity
  8
RACCORDO
100
AcDbSpline
 62
250
  6
CONTINUOUS
 70
0
 71
3
 72
9
 73
5
 74
0
 42
0.0000001
 43
0.0000001
 44
0.0000000001
 40
0.0
 40
0.0
 40
0.0
 40
0.0
 40
0.500005404
 40
1.0
 40
1.0
 40
1.0
 40
1.0
 10
156.7876947499
 20
60.6729651144
 30
0.0
 10
156.787693149
 20
64.3944291278
 30
0.0
 10
156.7057737677
 20
71.8372686236
 30
0.0
 10
156.4510925094
 20
79.2773362945
 30
0.0
 10
156.2442153521
 20
82.9929651145
 30
0.0
  0
LINE
  5
3E9
100
AcDbEntity
  8
RACCORDO
100
AcDbLine
 62
250
  6
CONTINUOUS
 10
156.2442153521
 20
82.9929651145
 30
0.0
 11
156.2349395903
 21
83.1586143818
 31
0.0
  0
SPLINE
  5
3EA
100
AcDbEntity
  8
RACCORDO
100
AcDbSpline
 62
250
  6
CONTINUOUS
 70
0
 71
3
 72
29
 73
25
 74
0
 42
0.0000001
 43
0.0000001
 44
0.0000000001
 40
0.0
 40
0.0
 40
0.0
 40
0.0
 40
0.0003714634
 40
0.0013342224
 40
0.0028949119
 40
0.0050546983
 40
0.0078124787
 40
0.0111659463
 40
0.0196502119
 40
0.0304865051
 40
0.0436520352
 40
0.059116574
 40
0.0768426952
 40
0.096788848
 40
0.1189049553
 40
0.1694333419
 40
0.2279412362
 40
0.293865455
 40
0.3665667019
 40
0.4453424026
 40
0.5294321201
 40
0.6180267148
 40
0.8052965855
 40
1.0
 40
1.0
 40
1.0
 40
1.0
 10
149.54979688
 20
18.9794503894
 30
0.0
 10
149.5495097014
 20
18.9796199839
 30
0.0
 10
149.5495935466
 20
18.9811067616
 30
0.0
 10
149.5491300978
 20
18.9834299697
 30
0.0
 10
149.549029033
 20
18.9877746651
 30
0.0
 10
149.5487369055
 20
18.9935230686
 30
0.0
 10
149.5485268421
 20
19.0009699662
 30
0.0
 10
149.5481862042
 20
19.0140588979
 30
0.0
 10
149.5478145138
 20
19.0344208417
 30
0.0
 10
149.5474024519
 20
19.0635823069
 30
0.0
 10
149.5470175517
 20
19.0990161772
 30
0.0
 10
149.5466585736
 20
19.1406350306
 30
0.0
 10
149.5463358447
 20
19.1883428253
 30
0.0
 10
149.5460542277
 20
19.2420228859
 30
0.0
 10
149.5457202837
 20
19.3251544922
 30
0.0
 10
149.545435245
 20
19.4429089941
 30
0.0
 10
149.5452604969
 20
19.5999967009
 30
0.0
 10
149.545243508
 20
19.7769923485
 30
0.0
 10
149.5454271751
 20
19.9721852917
 30
0.0
 10
149.5457533453
 20
20.1836878933
 30
0.0
 10
149.5462121678
 20
20.4094600799
 30
0.0
 10
149.547040401
 20
20.7326428498
 30
0.0
 10
149.5483847232
 20
21.1551387405
 30
0.0
 10
149.5495935052
 20
21.4980902227
 30
0.0
 10
149.5502559104
 20
21.6729028629
 30
0.0
  0
SPLINE
  5
3EB
100
AcDbEntity
  8
RACCORDO
100
AcDbSpline
 62
250
  6
CONTINUOUS
 70
0
 71
3
 72
9
 73
5
 74
0
 42
0.0000001
 43
0.0000001
 44
0.0000000001
 40
0.0
 40
0.0
 40
0.0
 40
0.0
 40
0.5000000058
 40
1.0
 40
1.0
 40
1.0
 40
1.0
 10
149.5823986759
 20
60.6729651144
 30
0.0
 10
149.5823986743
 20
64.4221538664
 30
0.0
 10
149.5816295393
 20
71.9205312348
 30
0.0
 10
149.5791269116
 20
79.4189085375
 30
0.0
 10
149.5766368278
 20
83.1680963748
 30
0.0
  0
LINE
  5
3EC
100
AcDbEntity
  8
RACCORDO
100
AcDbLine
 62
250
  6
CONTINUOUS
 10
151.680922347
 20
17.6729651107
 30
0.0
 11
154.7410074987
 21
18.1028254184
 31
0.0
  0
SPLINE
  5
3ED
100
AcDbEntity
  8
RACCORDO
100
AcDbSpline
 62
250
  6
CONTINUOUS
 70
0
 71
3
 72
11
 73
7
 74
0
 42
0.0000001
 43
0.0000001
 44
0.0000000001
 40
0.0
 40
0.0
 40
0.0
 40
0.0
 40
0.2500000164
 40
0.5000000147
 40
0.7500000186
 40
1.0
 40
1.0
 40
1.0
 40
1.0
 10
149.5766368278
 20
83.1680963748
 30
0.0
 10
149.5757412261
 20
84.5159863906
 30
0.0
 10
149.5732853175
 20
87.2117659321
 30
0.0
 10
149.5671775456
 20
91.2554324719
 30
0.0
 10
149.559927375
 20
95.2990957049
 30
0.0
 10
149.5559658966
 20
97.9948753548
 30
0.0
 10
149.5514348856
 20
99.3427578637
 30
0.0
  0
SPLINE
  5
3EE
100
AcDbEntity
  8
RACCORDO
100
AcDbSpline
 62
250
  6
CONTINUOUS
 70
0
 71
3
 72
29
 73
25
 74
0
 42
0.0000001
 43
0.0000001
 44
0.0000000001
 40
0.0
 40
0.0
 40
0.0
 40
0.0
 40
0.1946921072
 40
0.3819764613
 40
0.4705811343
 40
0.5546807738
 40
0.6334643763
 40
0.7061673195
 40
0.7720877821
 40
0.8305885791
 40
0.8811058396
 40
0.9032176441
 40
0.9231600829
 40
0.9408837201
 40
0.9563464167
 40
0.969510513
 40
0.9803472607
 40
0.9888324931
 40
0.9921863979
 40
0.9949443551
 40
0.9971040705
 40
0.998665062
 40
0.9996282783
 40
1.0
 40
1.0
 40
1.0
 40
1.0
 10
149.5502559104
 20
99.673027366
 30
0.0
 10
149.5495934631
 20
99.8478298518
 30
0.0
 10
149.5483852336
 20
100.1907841833
 30
0.0
 10
149.5470392193
 20
100.6132919656
 30
0.0
 10
149.5462134848
 20
100.9365056989
 30
0.0
 10
149.5457516568
 20
101.1623029283
 30
0.0
 10
149.5454271188
 20
101.3738230578
 30
0.0
 10
149.5452460383
 20
101.569021243
 30
0.0
 10
149.5452565823
 20
101.7460086702
 30
0.0
 10
149.5454391043
 20
101.9030766312
 30
0.0
 10
149.5457194454
 20
102.020810916
 30
0.0
 10
149.5460532072
 20
102.1039253359
 30
0.0
 10
149.5463357852
 20
102.1575959628
 30
0.0
 10
149.5466590326
 20
102.2052965341
 30
0.0
 10
149.5470179158
 20
102.2469102157
 30
0.0
 10
149.5474021693
 20
102.2823415584
 30
0.0
 10
149.5478143023
 20
102.311503014
 30
0.0
 10
149.5481860718
 20
102.3318666199
 30
0.0
 10
149.5485267983
 20
102.3449569766
 30
0.0
 10
149.5487368718
 20
102.3524043431
 30
0.0
 10
149.5490289835
 20
102.3581531647
 30
0.0
 10
149.5491300107
 20
102.362498394
 30
0.0
 10
149.5495936715
 20
102.3648225843
 30
0.0
 10
149.549509575
 20
102.36631
 30
0.0
 10
149.549796882
 20
102.366479833
 30
0.0
  0
SPLINE
  5
3EF
100
AcDbEntity
  8
RACCORDO
100
AcDbSpline
 62
250
  6
CONTINUOUS
 70
0
 71
3
 72
8
 73
4
 74
0
 42
0.0000001
 43
0.0000001
 44
0.0000000001
 40
0.0
 40
0.0
 40
0.0
 40
0.0
 40
1.0
 40
1.0
 40
1.0
 40
1.0
 10
151.6975978827
 20
21.6724057635
 30
0.0
 10
152.7168385554
 20
21.6765413492
 30
0.0
 10
153.7360768361
 20
21.6812701807
 30
0.0
 10
154.7553136889
 20
21.6862591628
 30
0.0
  0
SPLINE
  5
3F0
100
AcDbEntity
  8
RACCORDO
100
AcDbSpline
 62
250
  6
CONTINUOUS
 70
0
 71
3
 72
22
 73
18
 74
0
 42
0.0000001
 43
0.0000001
 44
0.0000000001
 40
0.0
 40
0.0
 40
0.0
 40
0.0
 40
0.0053005538
 40
0.0112968326
 40
0.0187205038
 40
0.027966017
 40
0.0392093754
 40
0.0525323292
 40
0.0855695272
 40
0.1272011139
 40
0.1771004104
 40
0.2348754065
 40
0.3000604823
 40
0.3720076759
 40
0.4500546981
 40
0.6212407076
 40
1.0
 40
1.0
 40
1.0
 40
1.0
 10
154.7409434207
 20
18.1028159922
 30
0.0
 10
154.7345254005
 20
18.102699244
 30
0.0
 10
154.7206264049
 20
18.1057517573
 30
0.0
 10
154.7021791993
 20
18.1197133616
 30
0.0
 10
154.6855590893
 20
18.1418122962
 30
0.0
 10
154.6702172577
 20
18.1720552054
 30
0.0
 10
154.6559698198
 20
18.2105065035
 30
0.0
 10
154.6371016567
 20
18.2777221268
 30
0.0
 10
154.6179061476
 20
18.3827258547
 30
0.0
 10
154.6009459627
 20
18.5326725142
 30
0.0
 10
154.5889463605
 20
18.713141266
 30
0.0
 10
154.5821953559
 20
18.9223965795
 30
0.0
 10
154.5808474321
 20
19.1584521315
 30
0.0
 10
154.5848729704
 20
19.4190235045
 30
0.0
 10
154.597881446
 20
19.807780345
 30
0.0
 10
154.6411613298
 20
20.5671467964
 30
0.0
 10
154.7035265797
 20
21.230506546
 30
0.0
 10
154.7553136889
 20
21.6862591628
 30
0.0
  0
SPLINE
  5
3F1
100
AcDbEntity
  8
0
100
AcDbSpline
 62
7
  6
CONTINUOUS
 70
0
 71
3
 72
11
 73
7
 74
0
 42
0.0000001
 43
0.0000001
 44
0.0000000001
 40
0.0
 40
0.0
 40
0.0
 40
0.0
 40
0.278847091
 40
0.5450763857
 40
0.7887003746
 40
1.0
 40
1.0
 40
1.0
 40
1.0
 10
151.6975978826
 20
21.6724057635
 30
0.0
 10
151.6676887991
 20
21.4053860231
 30
0.0
 10
151.6151377932
 20
20.8827494169
 30
0.0
 10
151.556125296
 20
20.1250001789
 30
0.0
 10
151.5196608892
 20
19.4310071464
 30
0.0
 10
151.509470976
 20
18.992656841
 30
0.0
 10
151.509465496
 20
18.7890541812
 30
0.0
  0
SPLINE
  5
3F2
100
AcDbEntity
  8
RACCORDO
100
AcDbSpline
 62
250
  6
CONTINUOUS
 70
0
 71
3
 72
16
 73
12
 74
0
 42
0.0000001
 43
0.0000001
 44
0.0000000001
 40
0.0
 40
0.0
 40
0.0
 40
0.0
 40
0.0043282874
 40
0.0171995481
 40
0.0385179697
 40
0.0681802571
 40
0.1521122301
 40
0.267707671
 40
0.4129873567
 40
0.5858101978
 40
1.0
 40
1.0
 40
1.0
 40
1.0
 10
149.4760113891
 20
99.6734002747
 30
0.0
 10
149.4760113891
 20
99.6732931536
 30
0.0
 10
149.4766936083
 20
99.6734877037
 30
0.0
 10
149.47740021
 20
99.6732583501
 30
0.0
 10
149.4791187596
 20
99.6733479908
 30
0.0
 10
149.4823742072
 20
99.6732385735
 30
0.0
 10
149.4881074688
 20
99.673245081
 30
0.0
 10
149.4966120784
 20
99.6731725331
 30
0.0
 10
149.5073564774
 20
99.6731362927
 30
0.0
 10
149.5254749515
 20
99.6730734172
 30
0.0
 10
149.5400051152
 20
99.6730445543
 30
0.0
 10
149.5502559108
 20
99.6730272725
 30
0.0
  0
SPLINE
  5
3F3
100
AcDbEntity
  8
RACCORDO
100
AcDbSpline
 62
250
  6
CONTINUOUS
 70
0
 71
3
 72
16
 73
12
 74
0
 42
0.0000001
 43
0.0000001
 44
0.0000000001
 40
0.0
 40
0.0
 40
0.0
 40
0.0
 40
0.0043329279
 40
0.0172245289
 40
0.03857548
 40
0.0682802917
 40
0.1523190161
 40
0.2680284341
 40
0.4133921744
 40
0.586229446
 40
1.0
 40
1.0
 40
1.0
 40
1.0
 10
149.476011389
 20
99.3430995219
 30
0.0
 10
149.476011389
 20
99.3429905838
 30
0.0
 10
149.4767059509
 20
99.3431946149
 30
0.0
 10
149.4774244245
 20
99.3429594387
 30
0.0
 10
149.479173158
 20
99.3430553994
 30
0.0
 10
149.482484625
 20
99.3429465194
 30
0.0
 10
149.4883157228
 20
99.3429584085
 30
0.0
 10
149.4969629395
 20
99.3428888241
 30
0.0
 10
149.5078832674
 20
99.3428565655
 30
0.0
 10
149.5262812877
 20
99.3427984259
 30
0.0
 10
149.5410319194
 20
99.3427722931
 30
0.0
 10
149.55143489
 20
99.3427565787
 30
0.0
  0
SPLINE
  5
3F4
100
AcDbEntity
  8
RACCORDO
100
AcDbSpline
 62
250
  6
CONTINUOUS
 70
0
 71
3
 72
16
 73
12
 74
0
 42
0.0000001
 43
0.0000001
 44
0.0000000001
 40
0.0
 40
0.0
 40
0.0
 40
0.0
 40
0.0043325166
 40
0.0172239928
 40
0.038574883
 40
0.0682796654
 40
0.1523183897
 40
0.2680278613
 40
0.4133916971
 40
0.5862290997
 40
1.0
 40
1.0
 40
1.0
 40
1.0
 10
149.476011389
 20
22.0028332888
 30
0.0
 10
149.4760113892
 20
22.0029422164
 30
0.0
 10
149.4767059998
 20
22.0027372733
 30
0.0
 10
149.4774244024
 20
22.0029727339
 30
0.0
 10
149.4791731709
 20
22.0028760689
 30
0.0
 10
149.4824846154
 20
22.0029846121
 30
0.0
 10
149.4883157285
 20
22.0029719576
 30
0.0
 10
149.4969629358
 20
22.00304094
 30
0.0
 10
149.5078832649
 20
22.0030725415
 30
0.0
 10
149.5262812821
 20
22.0031298929
 30
0.0
 10
149.541031912
 20
22.0031556043
 30
0.0
 10
149.5514348812
 20
22.0031710686
 30
0.0
  0
SPLINE
  5
3F5
100
AcDbEntity
  8
RACCORDO
100
AcDbSpline
 62
250
  6
CONTINUOUS
 70
0
 71
3
 72
16
 73
12
 74
0
 42
0.0000001
 43
0.0000001
 44
0.0000000001
 40
0.0
 40
0.0
 40
0.0
 40
0.0
 40
0.0043282688
 40
0.0171995242
 40
0.0385179436
 40
0.0681802302
 40
0.152112204
 40
0.2677076485
 40
0.4129873387
 40
0.5858101838
 40
1.0
 40
1.0
 40
1.0
 40
1.0
 10
149.4760113891
 20
21.6725300572
 30
0.0
 10
149.4760113891
 20
21.6726371778
 30
0.0
 10
149.4766936106
 20
21.6724425908
 30
0.0
 10
149.477400209
 20
21.6726719559
 30
0.0
 10
149.4791187603
 20
21.6725822866
 30
0.0
 10
149.4823742069
 20
21.6726916902
 30
0.0
 10
149.4881074693
 20
21.6726851515
 30
0.0
 10
149.4966120784
 20
21.6727576749
 30
0.0
 10
149.5073564775
 20
21.6727938885
 30
0.0
 10
149.5254749514
 20
21.6728567317
 30
0.0
 10
149.5400051149
 20
21.6728855772
 30
0.0
 10
149.5502559104
 20
21.6729028489
 30
0.0
  0
LINE
  5
3F6
100
AcDbEntity
  8
RACCORDO
100
AcDbLine
 62
250
  6
CONTINUOUS
 10
154.7553811968
 20
21.6862594814
 30
0.0
 11
154.8017507576
 21
22.0641651144
 31
0.0
  0
SPLINE
  5
3F7
100
AcDbEntity
  8
RACCORDO
100
AcDbSpline
 62
250
  6
CONTINUOUS
 70
0
 71
3
 72
9
 73
5
 74
0
 42
0.0000001
 43
0.0000001
 44
0.0000000001
 40
0.0
 40
0.0
 40
0.0
 40
0.0
 40
0.4999942574
 40
1.0
 40
1.0
 40
1.0
 40
1.0
 10
156.2442153521
 20
38.3529651144
 30
0.0
 10
156.4510880553
 20
42.0685916128
 30
0.0
 10
156.7057531612
 20
49.508659471
 30
0.0
 10
156.7876969334
 20
56.9514986266
 30
0.0
 10
156.7876947499
 20
60.6729651144
 30
0.0
  0
ELLIPSE
  5
3F8
100
AcDbEntity
  8
RACCORDO
100
AcDbEllipse
 62
7
  6
CONTINUOUS
 10
61.8612356462
 20
82.4926524309
 30
0.0
 11
-0.3536610946
 21
0.3536610946
 31
0.0
 40
0.9996954599
 41
-0.7852458701
 42
0.7852458701
  0
ELLIPSE
  5
3F9
100
AcDbEntity
  8
RACCORDO
100
AcDbEllipse
 62
7
  6
CONTINUOUS
 10
61.8612356462
 20
38.8532777979
 30
0.0
 11
-0.3536610946
 21
-0.3536610946
 31
0.0
 40
0.9996954599
 41
-0.7852458701
 42
0.7852458701
  0
ELLIPSE
  5
3FA
100
AcDbEntity
  8
RACCORDO
100
AcDbEllipse
 62
7
  6
CONTINUOUS
 10
83.3506102792
 20
82.4926524309
 30
0.0
 11
0.3536610946
 21
0.3536610946
 31
0.0
 40
0.9996954599
 41
-0.7852458701
 42
0.7852458701
  0
ELLIPSE
  5
3FB
100
AcDbEntity
  8
RACCORDO
100
AcDbEllipse
 62
7
  6
CONTINUOUS
 10
83.3506102792
 20
38.8532777979
 30
0.0
 11
-0.3536610946
 21
0.3536610946
 31
0.0
 40
0.9996954599
 41
2.3563467834
 42
3.9268385237
  0
ENDSEC
  0
SECTION
  2
OBJECTS
  0
DICTIONARY
  5
C
100
AcDbDictionary
280
0
281
1
  3
ACAD_GROUP
350
D
  3
ACAD_MLINESTYLE
350
17
  3
ACAD_LAYOUT
350
1A
  3
ACAD_PLOTSETTINGS
350
19
  3
ACAD_PLOTSTYLENAME
350
E
  0
DICTIONARY
  5
D
102
{ACAD_REACTORS
330
C
102
}
100
AcDbDictionary
280
0
281
1
  0
ACDBDICTIONARYWDFLT
  5
E
102
{ACAD_REACTORS
330
C
102
}
100
AcDbDictionary
281
1
  3
Normal
350
F
100
AcDbDictionaryWithDefault
340
F
  0
DICTIONARY
  5
17
102
{ACAD_REACTORS
330
C
102
}
100
AcDbDictionary
280
0
281
1
  3
Standard
350
18
  0
DICTIONARY
  5
19
102
{ACAD_REACTORS
330
C
102
}
100
AcDbDictionary
281
1
  0
DICTIONARY
  5
1A
102
{ACAD_REACTORS
330
C
102
}
100
AcDbDictionary
281
1
  3
Model
350
3FC
  3
Layout1
350
3FD
  0
ACDBPLACEHOLDER
  5
F
102
{ACAD_REACTORS
330
E
102
}
  0
MLINESTYLE
  5
18
102
{ACAD_REACTORS
330
17
102
}
100
AcDbMlineStyle
  2
STANDARD
 70
0
  3

 62
256
 51
90.0
 52
90.0
 71
2
 49
0.5
 62
256
  6
BYLAYER
 49
-0.5
 62
256
  6
BYLAYER
  0
LAYOUT
  5
3FC
102
{ACAD_REACTORS
330
1A
102
}
100
AcDbPlotSettings
  1

  2
none_device
  4
ISO_A4_(297.00_x_210.00_MM)
  6

 40
0.0
 41
0.0
 42
0.0
 43
0.0
 44
297.0
 45
210.0
 46
0.0
 47
0.0
 48
0.0
 49
0.0
140
0.0
141
0.0
142
1.0
143
1.0
 70
1024
 72
1
 73
0
 74
0
  7

 75
0
147
1.0
148
0.0
149
0.0
100
AcDbLayout
  1
Model
 70
0
 71
0
 10
0.0
 20
0.0
 11
297.0
 21
210.0
 12
0.0
 22
0.0
 32
0.0
 14
0.0
 24
0.0
 34
0.0
 15
0.0
 25
0.0
 35
0.0
146
0.0
 13
0.0
 23
0.0
 33
0.0
 16
1.0
 26
0.0
 36
0.0
 17
0.0
 27
1.0
 37
0.0
 76
0
330
219
345
0
346
0
  0
LAYOUT
  5
3FD
102
{ACAD_REACTORS
330
1A
102
}
100
AcDbPlotSettings
  1

  2
none_device
  4
ISO_A4_(297.00_x_210.00_MM)
  6

 40
0.0
 41
0.0
 42
0.0
 43
0.0
 44
297.0
 45
210.0
 46
0.0
 47
0.0
 48
0.0
 49
0.0
140
0.0
141
0.0
142
1.0
143
1.0
 70
0
 72
1
 73
0
 74
0
  7

 75
0
147
1.0
148
0.0
149
0.0
100
AcDbLayout
  1
Layout1
 70
0
 71
1
 10
0.0
 20
0.0
 11
297.0
 21
210.0
 12
0.0
 22
0.0
 32
0.0
 14
0.0
 24
0.0
 34
0.0
 15
0.0
 25
0.0
 35
0.0
146
0.0
 13
0.0
 23
0.0
 33
0.0
 16
1.0
 26
0.0
 36
0.0
 17
0.0
 27
1.0
 37
0.0
 76
0
330
21A
345
0
346
0
  0
ENDSEC
  0
EOF
