  0
SECTION
  2
HEADER
  9
$ACADVER
  1
AC1015
  9
$DWGCODEPAGE
  3
ANSI_1252
  9
$EXTMAX
 10
558.8
 20
431.8
 30
0.0
  9
$EXTMIN
 10
0.0
 20
0.0
 30
0.0
  9
$LIMMIN
 10
0.0
 20
0.0
  9
$LIMMAX
 10
558.8
 20
431.8
  9
$VIEWCTR
 10
279.4
 20
215.9
  9
$VIEWSIZE
 40
431.8
  9
$CLAYER
  8
0
  9
$LTSCALE
 40
30.734
  9
$CELTYPE
  6
BYLAYER
  9
$DIMSCALE
 40
1.0
  9
$DIMASZ
 40
3.0
  9
$DIMEXO
 40
3.4925
  9
$DIMDLI
 40
21.2344
  9
$DIMEXE
 40
10.0584
  9
$DIMCEN
 40
5.0292
  9
$DIMLFAC
 40
1.0
  9
$DIMBLK
  1
_FILLED
  9
$DIMTXT
 40
3.0
  9
$DIMTOL
 70
1
  9
$DIMLIM
 70
0
  9
$DIMTFAC
 40
1.0
  9
$DIMTP
 40
0.01
  9
$DIMTM
 40
0.01
  9
$PDMODE
 70
3
  9
$PDSIZE
 40
3.0
  9
$HANDSEED
  5
372
  9
$TILEMODE
 70
1
  9
$MEASUREMENT
 70
1
  9
$INSUNITS
 70
4
  0
ENDSEC
  0
SECTION
  2
CLASSES
  0
CLASS
  1
ACDBDICTIONARYWDFLT
  2
AcDbDictionaryWithDefault
  3
AutoCAD 2000
 90
0
280
0
281
0
  0
CLASS
  1
ACDBPLACEHOLDER
  2
AcDbPlaceHolder
  3
AutoCAD 2000
 90
0
280
0
281
0
  0
CLASS
  1
LAYOUT
  2
AcDbLayout
  3
AutoCAD 2000
 90
0
280
0
281
0
  0
ENDSEC
  0
SECTION
  2
TABLES
  0
TABLE
  2
VPORT
  5
8
100
AcDbSymbolTable
 70
2
  0
VPORT
  5
1F4
100
AcDbSymbolTableRecord
100
AcDbViewportTableRecord
  2
*ACTIVE
 70
0
 10
0.0
 20
0.0
 11
1.0
 21
1.0
 12
279.4
 22
215.9
 13
0.0
 23
0.0
 14
1.0
 24
1.0
 15
0.0
 25
0.0
 16
0.0
 26
0.0
 36
1.0
 17
0.0
 27
0.0
 37
0.0
 40
431.8
 41
1.2941176471
 42
50.0
 43
0.0
 44
0.0
 50
0.0
 51
0.0
 71
0
 72
100
 73
1
 74
1
 75
0
 76
0
 77
0
 78
0
  0
ENDTAB
  0
TABLE
  2
LTYPE
  5
5
100
AcDbSymbolTable
 70
6
  0
LTYPE
  5
14
100
AcDbSymbolTableRecord
100
AcDbLinetypeTableRecord
  2
BYBLOCK
 70
0
  3

 72
65
 73
0
 40
0.0
  0
LTYPE
  5
15
100
AcDbSymbolTableRecord
100
AcDbLinetypeTableRecord
  2
BYLAYER
 70
0
  3

 72
65
 73
0
 40
0.0
  0
LTYPE
  5
16
100
AcDbSymbolTableRecord
100
AcDbLinetypeTableRecord
  2
CONTINUOUS
 70
64
  3
Solid line
 72
65
 73
0
 40
0.0
  0
LTYPE
  5
1F5
100
AcDbSymbolTableRecord
100
AcDbLinetypeTableRecord
  2
CENTER
 70
64
  3
____ _ ____ _ ____ _ ____ _ ____ _ ____ _ ____
 72
65
 73
4
 40
0.6
 49
0.375
 74
0
 49
-0.075
 74
0
 49
0.075
 74
0
 49
-0.075
 74
0
  0
LTYPE
  5
1F6
100
AcDbSymbolTableRecord
100
AcDbLinetypeTableRecord
  2
HIDDEN
 70
64
  3
- - - - - - - - - - - - - - - - - - - -
 72
65
 73
2
 40
0.2
 49
0.1
 74
0
 49
-0.1
 74
0
  0
LTYPE
  5
1F7
100
AcDbSymbolTableRecord
100
AcDbLinetypeTableRecord
  2
PHANTOM
 70
64
  3
_____ _ _ _____ _ _ _____ _ _ _____
 72
65
 73
6
 40
0.8
 49
0.45
 74
0
 49
-0.05
 74
0
 49
0.1
 74
0
 49
-0.05
 74
0
 49
0.1
 74
0
 49
-0.05
 74
0
  0
LTYPE
  5
1F8
100
AcDbSymbolTableRecord
100
AcDbLinetypeTableRecord
  2
DOT
 70
64
  3
. . . . . . . . . . . . . . . . . . . .
 72
65
 73
2
 40
0.2
 49
0.1
 74
0
 49
-0.1
 74
0
  0
LTYPE
  5
1F9
100
AcDbSymbolTableRecord
100
AcDbLinetypeTableRecord
  2
DASHED
 70
64
  3
- - - - - - - - - - - - - - - - - - - -
 72
65
 73
2
 40
0.2
 49
0.1
 74
0
 49
-0.1
 74
0
  0
ENDTAB
  0
TABLE
  2
LAYER
  5
2
100
AcDbSymbolTable
 70
36
  0
LAYER
  5
10
100
AcDbSymbolTableRecord
100
AcDbLayerTableRecord
  2
0
 70
0
 62
7
  6
CONTINUOUS
370
-3
390
F
  0
LAYER
  5
1FA
100
AcDbSymbolTableRecord
100
AcDbLayerTableRecord
  2
DEFAULT_1
 70
0
 62
7
  6
CENTER
370
-3
390
F
  0
LAYER
  5
1FB
100
AcDbSymbolTableRecord
100
AcDbLayerTableRecord
  2
DEFAULT_2
 70
0
 62
7
  6
HIDDEN
370
-3
390
F
  0
LAYER
  5
1FC
100
AcDbSymbolTableRecord
100
AcDbLayerTableRecord
  2
DEFAULT_3
 70
0
 62
7
  6
PHANTOM
370
-3
390
F
  0
LAYER
  5
1FD
100
AcDbSymbolTableRecord
100
AcDbLayerTableRecord
  2
ASSI
 70
0
 62
7
  6
CONTINUOUS
370
-3
390
F
  0
LAYER
  5
1FE
100
AcDbSymbolTableRecord
100
AcDbLayerTableRecord
  2
COORDINATE
 70
0
 62
7
  6
CONTINUOUS
370
-3
390
F
  0
LAYER
  5
1FF
100
AcDbSymbolTableRecord
100
AcDbLayerTableRecord
  2
COORD_ORIGINE
 70
0
 62
7
  6
CONTINUOUS
370
-3
390
F
  0
LAYER
  5
200
100
AcDbSymbolTableRecord
100
AcDbLayerTableRecord
  2
CURVE
 70
0
 62
7
  6
CONTINUOUS
370
-3
390
F
  0
LAYER
  5
201
100
AcDbSymbolTableRecord
100
AcDbLayerTableRecord
  2
DRAFT
 70
0
 62
7
  6
CONTINUOUS
370
-3
390
F
  0
LAYER
  5
202
100
AcDbSymbolTableRecord
100
AcDbLayerTableRecord
  2
IGES_SCRITTE
 70
0
 62
7
  6
CONTINUOUS
370
-3
390
F
  0
LAYER
  5
203
100
AcDbSymbolTableRecord
100
AcDbLayerTableRecord
  2
NOTE
 70
0
 62
7
  6
CONTINUOUS
370
-3
390
F
  0
LAYER
  5
204
100
AcDbSymbolTableRecord
100
AcDbLayerTableRecord
  2
PIANI
 70
0
 62
7
  6
CONTINUOUS
370
-3
390
F
  0
LAYER
  5
205
100
AcDbSymbolTableRecord
100
AcDbLayerTableRecord
  2
PIANI_ORIGINE
 70
0
 62
7
  6
CONTINUOUS
370
-3
390
F
  0
LAYER
  5
206
100
AcDbSymbolTableRecord
100
AcDbLayerTableRecord
  2
PPP
 70
0
 62
7
  6
CONTINUOUS
370
-3
390
F
  0
LAYER
  5
207
100
AcDbSymbolTableRecord
100
AcDbLayerTableRecord
  2
PUNTI
 70
0
 62
7
  6
CONTINUOUS
370
-3
390
F
  0
LAYER
  5
208
100
AcDbSymbolTableRecord
100
AcDbLayerTableRecord
  2
RACCORDO
 70
0
 62
7
  6
CONTINUOUS
370
-3
390
F
  0
LAYER
  5
209
100
AcDbSymbolTableRecord
100
AcDbLayerTableRecord
  2
SNAPLINE
 70
0
 62
7
  6
CONTINUOUS
370
-3
390
F
  0
LAYER
  5
20A
100
AcDbSymbolTableRecord
100
AcDbLayerTableRecord
  2
SUPERFICI
 70
0
 62
7
  6
CONTINUOUS
370
-3
390
F
  0
LAYER
  5
20B
100
AcDbSymbolTableRecord
100
AcDbLayerTableRecord
  2
TRASH
 70
0
 62
7
  6
CONTINUOUS
370
-3
390
F
  0
ENDTAB
  0
TABLE
  2
STYLE
  5
3
100
AcDbSymbolTable
 70
1
  0
STYLE
  5
11
100
AcDbSymbolTableRecord
100
AcDbTextStyleTableRecord
  2
STANDARD
 70
0
 40
0.0
 41
0.8
 50
0.0
 71
0
 42
0.2
  3
txt
  4

  0
STYLE
  5
20C
100
AcDbSymbolTableRecord
100
AcDbTextStyleTableRecord
  2
TEXTSTYLE_1
 70
0
 40
0.0
 41
0.8
 50
0.0
 71
0
 42
0.2
  3
gdt
  4

  0
ENDTAB
  0
TABLE
  2
VIEW
  5
6
100
AcDbSymbolTable
 70
0
  0
ENDTAB
  0
TABLE
  2
UCS
  5
7
100
AcDbSymbolTable
 70
0
  0
ENDTAB
  0
TABLE
  2
APPID
  5
9
100
AcDbSymbolTable
 70
1
  0
APPID
  5
20D
100
AcDbSymbolTableRecord
100
AcDbRegAppTableRecord
  2
ACAD
 70
0
  0
ENDTAB
  0
TABLE
  2
BLOCK_RECORD
  5
1
100
AcDbSymbolTable
 70
0
  0
BLOCK_RECORD
  5
20E
100
AcDbSymbolTableRecord
100
AcDbBlockTableRecord
  2
*Model_Space
  0
BLOCK_RECORD
  5
20F
100
AcDbSymbolTableRecord
100
AcDbBlockTableRecord
  2
*Paper_Space
  0
BLOCK_RECORD
  5
210
100
AcDbSymbolTableRecord
100
AcDbBlockTableRecord
  2
_FILLED
  0
BLOCK_RECORD
  5
211
100
AcDbSymbolTableRecord
100
AcDbBlockTableRecord
  2
*D0
  0
BLOCK_RECORD
  5
212
100
AcDbSymbolTableRecord
100
AcDbBlockTableRecord
  2
*D1
  0
BLOCK_RECORD
  5
213
100
AcDbSymbolTableRecord
100
AcDbBlockTableRecord
  2
*D2
  0
ENDTAB
  0
TABLE
  2
DIMSTYLE
  5
A
100
AcDbSymbolTable
 70
1
100
AcDbDimStyleTable
 71
0
  0
DIMSTYLE
105
214
100
AcDbSymbolTableRecord
100
AcDbDimStyleTableRecord
  2
STANDARD
 70
0
  3

  4

 40
1.0
 41
3.0
 42
0.0625
 43
0.38
 44
0.18
 45
0.0
 46
0.0
 47
0.01
 48
0.01
140
3.0
141
0.09
142
0.0
143
25.4
144
1.0
145
0.0
146
1.0
147
0.09
 71
1.0
 72
0.0
 73
0
 74
0
 75
0
 76
0
 77
1
 78
8
170
0
171
2
172
0
173
0
174
0
175
0
176
0
177
0
178
0
270
2
271
2
272
2
273
2
274
2
275
0
280
0
281
0
282
0
283
1
284
8
285
0
286
0
287
3
288
0
340
11
341
210
342
210
343
210
344
210
  0
DIMSTYLE
105
215
100
AcDbSymbolTableRecord
100
AcDbDimStyleTableRecord
  2
DIMSTYLE_1
 70
0
  3

  4

 40
1.0
 41
3.0
 42
0.0625
 43
0.38
 44
0.18
 45
0.0
 46
0.0
 47
0.0
 48
0.0
140
3.0
141
0.09
142
0.0
143
25.4
144
1.0
145
0.0
146
1.0
147
0.09
 71
0.0
 72
0.0
 73
0
 74
0
 75
0
 76
0
 77
1
 78
8
170
0
171
2
172
0
173
0
174
0
175
0
176
0
177
0
178
0
270
2
271
1
272
1
273
2
274
2
275
0
280
0
281
0
282
0
283
1
284
8
285
0
286
0
287
3
288
0
340
11
341
210
342
210
343
210
344
210
  0
DIMSTYLE
105
216
100
AcDbSymbolTableRecord
100
AcDbDimStyleTableRecord
  2
DIMSTYLE_2
 70
0
  3

  4

 40
1.0
 41
3.0
 42
0.0625
 43
0.38
 44
0.18
 45
0.0
 46
0.0
 47
0.0
 48
0.0
140
3.0
141
0.09
142
0.0
143
25.4
144
1.0
145
0.0
146
1.0
147
0.09
 71
0.0
 72
0.0
 73
0
 74
0
 75
0
 76
0
 77
1
 78
8
170
0
171
2
172
0
173
0
174
0
175
0
176
0
177
0
178
0
270
2
271
2
272
2
273
2
274
2
275
0
280
0
281
0
282
0
283
1
284
8
285
0
286
0
287
3
288
0
340
11
341
210
342
210
343
210
344
210
  0
ENDTAB
  0
ENDSEC
  0
SECTION
  2
BLOCKS
  0
BLOCK
  5
20
100
AcDbEntity
  8
0
100
AcDbBlockBegin
  2
*Model_Space
 70
0
 10
0.0
 20
0.0
 30
0.0
  3
*Model_Space
  1

  0
ENDBLK
  5
21
100
AcDbEntity
  8
0
100
AcDbBlockEnd
  0
BLOCK
  5
1C
100
AcDbEntity
  8
0
100
AcDbBlockBegin
  2
*Paper_Space
 70
0
 10
0.0
 20
0.0
 30
0.0
  3
*Paper_Space
  1

  0
ENDBLK
  5
1D
100
AcDbEntity
  8
0
100
AcDbBlockEnd
  0
BLOCK
  5
217
100
AcDbEntity
  8
0
100
AcDbBlockBegin
  2
_FILLED
 70
64
 10
0.0
 20
0.0
  3
_FILLED
  1

  0
SOLID
  5
218
100
AcDbEntity
  8
0
  6
BYBLOCK
 62
0
100
AcDbTrace
 10
0.0
 20
0.0
 11
-1.0
 21
0.3166666667
 12
-1.0
 22
-0.3166666667
 13
-1.0
 23
-0.3166666667
  0
ENDBLK
  5
219
100
AcDbEntity
  8
0
  6
BYBLOCK
 62
0
100
AcDbBlockEnd
  0
BLOCK
  5
21A
100
AcDbEntity
  8
0
100
AcDbBlockBegin
 62
7
  6
CONTINUOUS
  2
*D0
 70
65
 10
0.0
 20
0.0
  3
*D0
  1

  0
LINE
  5
21B
100
AcDbEntity
  8
0
100
AcDbLine
 62
7
  6
CONTINUOUS
 10
-37.7453647692
 20
42.1295040045
 11
-37.7453647692
 21
50.1051642412
  0
LINE
  5
21C
100
AcDbEntity
  8
0
100
AcDbLine
 62
7
  6
CONTINUOUS
 10
-46.7608518158
 20
25.2699017588
 11
-46.7608518158
 21
50.1051642412
  0
LINE
  5
21D
100
AcDbEntity
  8
0
100
AcDbLine
 62
7
  6
CONTINUOUS
 10
-37.7453647692
 20
48.6051642412
 11
-33.7453647692
 21
48.6051642412
  0
LINE
  5
21E
100
AcDbEntity
  8
0
100
AcDbLine
 62
7
  6
CONTINUOUS
 10
-33.7453647692
 20
48.6051642412
 11
-42.2531082925
 21
48.6051642412
  0
LINE
  5
21F
100
AcDbEntity
  8
0
100
AcDbLine
 62
7
  6
CONTINUOUS
 10
-46.7608518158
 20
48.6051642412
 11
-50.7608518158
 21
48.6051642412
  0
LINE
  5
220
100
AcDbEntity
  8
0
100
AcDbLine
 62
7
  6
CONTINUOUS
 10
-50.7608518158
 20
48.6051642412
 11
-42.2531082925
 21
48.6051642412
  0
INSERT
  5
221
100
AcDbEntity
  8
0
100
AcDbBlockReference
 62
7
  6
CONTINUOUS
  2
_FILLED
 10
-37.7453647692
 20
48.6051642412
 41
3.0
 42
3.0
 43
3.0
 50
180.0
  0
INSERT
  5
222
100
AcDbEntity
  8
0
100
AcDbBlockReference
 62
7
  6
CONTINUOUS
  2
_FILLED
 10
-46.7608518158
 20
48.6051642412
 41
3.0
 42
3.0
 43
3.0
  0
ENDBLK
  5
223
100
AcDbEntity
  8
0
  6
BYBLOCK
 62
0
100
AcDbBlockEnd
  0
BLOCK
  5
224
100
AcDbEntity
  8
0
100
AcDbBlockBegin
 62
7
  6
CONTINUOUS
  2
*D1
 70
65
 10
0.0
 20
0.0
  3
*D1
  1

  0
LINE
  5
225
100
AcDbEntity
  8
0
100
AcDbLine
 62
7
  6
CONTINUOUS
 10
71.6924407484
 20
38.1051642411
 11
71.6924407484
 21
50.1051642412
  0
LINE
  5
226
100
AcDbEntity
  8
0
100
AcDbLine
 62
7
  6
CONTINUOUS
 10
-8.3075592516
 20
38.1051642411
 11
-8.3075592516
 21
50.1051642412
  0
LINE
  5
227
100
AcDbEntity
  8
0
100
AcDbLine
 62
7
  6
CONTINUOUS
 10
71.6924407484
 20
48.6051642412
 11
31.6924407484
 21
48.6051642412
  0
LINE
  5
228
100
AcDbEntity
  8
0
100
AcDbLine
 62
7
  6
CONTINUOUS
 10
-8.3075592516
 20
48.6051642412
 11
31.6924407484
 21
48.6051642412
  0
INSERT
  5
229
100
AcDbEntity
  8
0
100
AcDbBlockReference
 62
7
  6
CONTINUOUS
  2
_FILLED
 10
71.6924407484
 20
48.6051642412
 41
3.0
 42
3.0
 43
3.0
  0
INSERT
  5
22A
100
AcDbEntity
  8
0
100
AcDbBlockReference
 62
7
  6
CONTINUOUS
  2
_FILLED
 10
-8.3075592516
 20
48.6051642412
 41
3.0
 42
3.0
 43
3.0
 50
180.0
  0
ENDBLK
  5
22B
100
AcDbEntity
  8
0
  6
BYBLOCK
 62
0
100
AcDbBlockEnd
  0
BLOCK
  5
22C
100
AcDbEntity
  8
0
100
AcDbBlockBegin
 62
7
  6
CONTINUOUS
  2
*D2
 70
65
 10
0.0
 20
0.0
  3
*D2
  1

  0
LINE
  5
22D
100
AcDbEntity
  8
0
100
AcDbLine
 62
7
  6
CONTINUOUS
 10
69.1924407484
 20
40.6051642412
 11
81.1924407484
 21
40.6051642412
  0
LINE
  5
22E
100
AcDbEntity
  8
0
100
AcDbLine
 62
7
  6
CONTINUOUS
 10
69.1924407484
 20
-39.3948357588
 11
81.1924407484
 21
-39.3948357588
  0
LINE
  5
22F
100
AcDbEntity
  8
0
100
AcDbLine
 62
7
  6
CONTINUOUS
 10
79.6924407484
 20
40.6051642412
 11
79.6924407484
 21
0.6051642412
  0
LINE
  5
230
100
AcDbEntity
  8
0
100
AcDbLine
 62
7
  6
CONTINUOUS
 10
79.6924407484
 20
-39.3948357588
 11
79.6924407484
 21
0.6051642412
  0
INSERT
  5
231
100
AcDbEntity
  8
0
100
AcDbBlockReference
 62
7
  6
CONTINUOUS
  2
_FILLED
 10
79.6924407484
 20
40.6051642412
 41
3.0
 42
3.0
 43
3.0
 50
90.0
  0
INSERT
  5
232
100
AcDbEntity
  8
0
100
AcDbBlockReference
 62
7
  6
CONTINUOUS
  2
_FILLED
 10
79.6924407484
 20
-39.3948357588
 41
3.0
 42
3.0
 43
3.0
 50
270.0
  0
ENDBLK
  5
233
100
AcDbEntity
  8
0
  6
BYBLOCK
 62
0
100
AcDbBlockEnd
  0
ENDSEC
  0
SECTION
  2
ENTITIES
  0
DIMENSION
  5
234
100
AcDbEntity
  8
0
100
AcDbDimension
 62
7
  6
CONTINUOUS
  2
*D0
 10
-46.7608518158
 20
48.6051642412
 11
-43.4316797211
 21
49.3551642412
 70
160
 71
2
 42
9.0154870467
  3
DIMSTYLE_1
100
AcDbAlignedDimension
 13
-37.7453647692
 23
42.1295040045
 14
-46.7608518158
 24
25.2699017588
 50
180.0
100
AcDbRotatedDimension
  0
DIMENSION
  5
235
100
AcDbEntity
  8
0
100
AcDbDimension
 62
7
  6
CONTINUOUS
  2
*D1
 10
-8.3075592516
 20
48.6051642412
 11
29.3352978913
 21
49.3551642412
 70
160
 71
2
 42
80.0
  3
DIMSTYLE_2
100
AcDbAlignedDimension
 13
71.6924407484
 23
38.1051642411
 14
-8.3075592516
 24
38.1051642411
 50
180.0
100
AcDbRotatedDimension
  0
DIMENSION
  5
236
100
AcDbEntity
  8
0
100
AcDbDimension
 62
7
  6
CONTINUOUS
  2
*D2
 10
79.6924407484
 20
-39.3948357588
 11
78.9424407484
 21
-1.751978616
 70
160
 71
2
 42
80.0
  3
DIMSTYLE_2
100
AcDbAlignedDimension
 13
69.1924407484
 23
40.6051642412
 14
69.1924407484
 24
-39.3948357588
 50
270.0
100
AcDbRotatedDimension
  0
LINE
  5
237
100
AcDbEntity
  8
0
100
AcDbLine
 62
7
  6
CONTINUOUS
 10
-8.3075592516
 20
37.6051642411
 11
-8.3075592516
 21
4.2801415682
  0
LINE
  5
238
100
AcDbEntity
  8
0
100
AcDbLine
 62
7
  6
CONTINUOUS
 10
-8.3075592516
 20
-3.0698130859
 11
-8.3075592516
 21
-36.3948357588
  0
LINE
  5
239
100
AcDbEntity
  8
0
100
AcDbLine
 62
7
  6
CONTINUOUS
 10
-8.202743693
 20
-2.8948357588
 11
-8.202743693
 21
4.1051642412
  0
LINE
  5
23A
100
AcDbEntity
  8
0
100
AcDbLine
 62
7
  6
CONTINUOUS
 10
-5.3075592515
 20
-39.3948357588
 11
68.6924407484
 21
-39.3948357588
  0
LINE
  5
23B
100
AcDbEntity
  8
RACCORDO
100
AcDbLine
 62
253
  6
CONTINUOUS
 10
43.4424913885
 20
-39.156258042
 11
19.9423900102
 21
-39.156258042
  0
LINE
  5
23C
100
AcDbEntity
  8
RACCORDO
100
AcDbLine
 62
253
  6
CONTINUOUS
 10
43.4424407484
 20
-38.4917645819
 11
19.9424407484
 21
-38.4917645814
  0
LINE
  5
23D
100
AcDbEntity
  8
RACCORDO
100
AcDbLine
 62
253
  6
CONTINUOUS
 10
-5.3075592516
 20
-39.1642638823
 11
-5.3075592516
 21
-39.3948357588
  0
LINE
  5
23E
100
AcDbEntity
  8
RACCORDO
100
AcDbLine
 62
253
  6
CONTINUOUS
 10
-5.3075592516
 20
40.3745923646
 11
-5.3075592516
 21
40.6051642412
  0
LINE
  5
23F
100
AcDbEntity
  8
RACCORDO
100
AcDbLine
 62
253
  6
CONTINUOUS
 10
-8.3075592516
 20
-36.3948357588
 11
-8.0761912427
 21
-36.3948357588
  0
LINE
  5
240
100
AcDbEntity
  8
RACCORDO
100
AcDbLine
 62
253
  6
CONTINUOUS
 10
71.4610727396
 20
-36.3948357588
 11
71.6924407484
 21
-36.3948357588
  0
LINE
  5
241
100
AcDbEntity
  8
0
100
AcDbLine
 62
7
  6
CONTINUOUS
 10
-8.3075592516
 20
-3.0698130859
 11
-8.202743693
 21
-2.8948357588
  0
LINE
  5
242
100
AcDbEntity
  8
0
100
AcDbLine
 62
7
  6
CONTINUOUS
 10
-8.202743693
 20
4.1051642412
 11
-8.3075592516
 21
4.2801415682
  0
LINE
  5
243
100
AcDbEntity
  8
0
100
AcDbLine
 62
7
  6
CONTINUOUS
 10
52.1225847484
 20
-28.1948427588
 11
51.5425627484
 21
-28.1948507588
  0
LINE
  5
244
100
AcDbEntity
  8
0
100
AcDbLine
 62
7
  6
CONTINUOUS
 10
56.6924407484
 20
-28.1948357588
 11
56.0391357484
 21
-28.1948427588
  0
LINE
  5
245
100
AcDbEntity
  8
0
100
AcDbLine
 62
7
  6
CONTINUOUS
 10
50.0274797484
 20
-28.1948427588
 11
49.4474717484
 21
-28.1948507588
  0
LINE
  5
246
100
AcDbEntity
  8
0
100
AcDbLine
 62
7
  6
CONTINUOUS
 10
47.7390677484
 20
-28.1948507588
 11
47.1590457484
 21
-28.1948577588
  0
LINE
  5
247
100
AcDbEntity
  8
0
100
AcDbLine
 62
7
  6
CONTINUOUS
 10
45.8412347484
 20
-28.1948507588
 11
45.2611917484
 21
-28.1948577588
  0
LINE
  5
248
100
AcDbEntity
  8
0
100
AcDbLine
 62
7
  6
CONTINUOUS
 10
51.1558837484
 20
-28.1948507588
 11
50.5758617484
 21
-28.1948507588
  0
LINE
  5
249
100
AcDbEntity
  8
0
100
AcDbLine
 62
7
  6
CONTINUOUS
 10
48.8990967484
 20
-28.1948507588
 11
48.3190747484
 21
-28.1948507588
  0
LINE
  5
24A
100
AcDbEntity
  8
0
100
AcDbLine
 62
7
  6
CONTINUOUS
 10
54.9515847484
 20
-28.1948427588
 11
54.3715557484
 21
-28.1948427588
  0
LINE
  5
24B
100
AcDbEntity
  8
0
100
AcDbLine
 62
7
  6
CONTINUOUS
 10
53.9848777484
 20
-28.1948507588
 11
53.4048487484
 21
-28.1948427588
  0
LINE
  5
24C
100
AcDbEntity
  8
0
100
AcDbLine
 62
7
  6
CONTINUOUS
 10
53.2217427484
 20
-27.6245147588
 11
52.3056977484
 21
-27.6245147588
  0
LINE
  5
24D
100
AcDbEntity
  8
0
100
AcDbLine
 62
7
  6
CONTINUOUS
 10
52.4826197484
 20
-27.0734927588
 11
53.0448137484
 21
-27.0734927588
  0
LINE
  5
24E
100
AcDbEntity
  8
0
100
AcDbLine
 62
7
  6
CONTINUOUS
 10
55.4578817484
 20
-27.0734927588
 11
54.9516507484
 21
-27.0734857588
  0
LINE
  5
24F
100
AcDbEntity
  8
0
100
AcDbLine
 62
7
  6
CONTINUOUS
 10
54.9435887484
 20
-26.5369637588
 11
55.6492647484
 21
-26.5369637588
  0
LINE
  5
250
100
AcDbEntity
  8
0
100
AcDbLine
 62
7
  6
CONTINUOUS
 10
55.6492647484
 20
-25.8312337588
 11
54.9435807484
 21
-25.8312337588
  0
LINE
  5
251
100
AcDbEntity
  8
0
100
AcDbLine
 62
7
  6
CONTINUOUS
 10
44.3300597484
 20
-25.2947197588
 11
44.9100887484
 21
-25.2947197588
  0
LINE
  5
252
100
AcDbEntity
  8
0
100
AcDbLine
 62
7
  6
CONTINUOUS
 10
46.1923457484
 20
-25.2947197588
 11
46.7723747484
 21
-25.2947197588
  0
LINE
  5
253
100
AcDbEntity
  8
0
100
AcDbLine
 62
7
  6
CONTINUOUS
 10
47.1590527484
 20
-25.2947197588
 11
47.7390747484
 21
-25.2947197588
  0
LINE
  5
254
100
AcDbEntity
  8
0
100
AcDbLine
 62
7
  6
CONTINUOUS
 10
48.3190747484
 20
-25.2947197588
 11
49.1959117484
 21
-25.2947197588
  0
LINE
  5
255
100
AcDbEntity
  8
0
100
AcDbLine
 62
7
  6
CONTINUOUS
 10
50.2790467484
 20
-25.2947197588
 11
51.1558837484
 21
-25.2947197588
  0
LINE
  5
256
100
AcDbEntity
  8
0
100
AcDbLine
 62
7
  6
CONTINUOUS
 10
52.4736877484
 20
-25.2947127588
 11
53.0537377484
 21
-25.2947127588
  0
LINE
  5
257
100
AcDbEntity
  8
0
100
AcDbLine
 62
7
  6
CONTINUOUS
 10
54.3715557484
 20
-25.2947127588
 11
55.7297707484
 21
-25.2947127588
  0
LINE
  5
258
100
AcDbEntity
  8
0
100
AcDbLine
 62
7
  6
CONTINUOUS
 10
9.1924407484
 20
-21.5948357588
 11
9.1924407484
 21
22.8051642412
  0
LINE
  5
259
100
AcDbEntity
  8
RACCORDO
100
AcDbLine
 62
253
  6
CONTINUOUS
 10
43.4424407484
 20
-25.1178231747
 11
19.9424407484
 21
-25.1178231747
  0
LINE
  5
25A
100
AcDbEntity
  8
RACCORDO
100
AcDbLine
 62
253
  6
CONTINUOUS
 10
43.4424407484
 20
-23.5004843483
 11
19.9424407484
 21
-23.5004843483
  0
LINE
  5
25B
100
AcDbEntity
  8
0
100
AcDbLine
 62
7
  6
CONTINUOUS
 10
53.8924407484
 20
-21.8948357588
 11
9.4924407484
 21
-21.8948357588
  0
LINE
  5
25C
100
AcDbEntity
  8
RACCORDO
100
AcDbLine
 62
253
  6
CONTINUOUS
 10
19.9424407484
 20
-21.8948357588
 11
19.9424407484
 21
-39.156258042
  0
LINE
  5
25D
100
AcDbEntity
  8
RACCORDO
100
AcDbLine
 62
253
  6
CONTINUOUS
 10
19.9424407484
 20
40.3665865243
 11
19.9423508027
 21
23.1051642412
  0
LWPOLYLINE
  5
25E
100
AcDbEntity
  8
0
100
AcDbPolyline
 62
7
  6
CONTINUOUS
 90
4
 70
0
 43
0.3500000087
 10
29.335298941
 20
49.7837352875
 10
29.335298941
 20
50.6408771545
 10
29.7638698746
 20
51.0694502197
 10
30.4067273407
 20
51.0694502197
  0
LWPOLYLINE
  5
25F
100
AcDbEntity
  8
0
100
AcDbPolyline
 62
7
  6
CONTINUOUS
 90
13
 70
0
 43
0.3500000087
 10
31.6924401413
 20
50.2123083527
 10
31.6924401413
 20
51.4980232849
 10
31.9067266739
 20
51.9265963501
 10
32.3352976074
 20
52.3551608887
 10
32.54958414
 20
52.3551608887
 10
32.9781550735
 20
51.9265963501
 10
33.1924416061
 20
51.4980232849
 10
33.1924416061
 20
50.2123083527
 10
32.9781550735
 20
49.7837352875
 10
32.54958414
 20
49.3551622223
 10
32.3352976074
 20
49.3551622223
 10
31.9067266739
 20
49.7837352875
 10
31.6924401413
 20
50.2123083527
  0
LWPOLYLINE
  5
260
100
AcDbEntity
  8
0
100
AcDbPolyline
 62
7
  6
CONTINUOUS
 90
4
 70
0
 43
0.3500000087
 10
78.5138727173
 20
-1.7519775574
 10
77.6567265869
 20
-1.7519775574
 10
77.2281535217
 20
-1.3234066238
 10
77.2281535217
 20
-0.6805491577
  0
LWPOLYLINE
  5
261
100
AcDbEntity
  8
0
100
AcDbPolyline
 62
7
  6
CONTINUOUS
 90
13
 70
0
 43
0.3500000087
 10
78.0852996521
 20
0.6051636429
 10
76.7995804565
 20
0.6051636429
 10
76.371015918
 20
0.8194501755
 10
75.9424428528
 20
1.248021109
 10
75.9424428528
 20
1.4623076416
 10
76.371015918
 20
1.8908785751
 10
76.7995804565
 20
2.1051651077
 10
78.0852996521
 20
2.1051651077
 10
78.5138727173
 20
1.8908785751
 10
78.9424372559
 20
1.4623076416
 10
78.9424372559
 20
1.248021109
 10
78.5138727173
 20
0.8194501755
 10
78.0852996521
 20
0.6051636429
  0
LINE
  5
262
100
AcDbEntity
  8
RACCORDO
100
AcDbLine
 62
253
  6
CONTINUOUS
 10
-8.0689794316
 20
0.6051696816
 11
9.1924407484
 21
0.6050588945
  0
LINE
  5
263
100
AcDbEntity
  8
RACCORDO
100
AcDbLine
 62
253
  6
CONTINUOUS
 10
71.4538609285
 20
0.6051588007
 11
54.1924407484
 21
0.6052695879
  0
LINE
  5
264
100
AcDbEntity
  8
0
100
AcDbLine
 62
7
  6
CONTINUOUS
 10
45.2611917484
 20
-28.1948577588
 11
44.3300597484
 21
-25.2947197588
  0
LINE
  5
265
100
AcDbEntity
  8
0
100
AcDbLine
 62
7
  6
CONTINUOUS
 10
44.9100887484
 20
-25.2947197588
 11
45.5512207484
 21
-27.2916157588
  0
LINE
  5
266
100
AcDbEntity
  8
RACCORDO
100
AcDbLine
 62
253
  6
CONTINUOUS
 10
43.4424407484
 20
23.1051642412
 11
43.4424407484
 21
40.3665865243
  0
LINE
  5
267
100
AcDbEntity
  8
RACCORDO
100
AcDbLine
 62
253
  6
CONTINUOUS
 10
43.4424407484
 20
-39.156258042
 11
43.4425306942
 21
-21.8948357588
  0
LINE
  5
268
100
AcDbEntity
  8
0
100
AcDbLine
 62
7
  6
CONTINUOUS
 10
56.0391357484
 20
-28.1948427588
 11
55.4578817484
 21
-27.0734927588
  0
LINE
  5
269
100
AcDbEntity
  8
0
100
AcDbLine
 62
7
  6
CONTINUOUS
 10
56.0750365391
 20
-27.0037384258
 11
56.6924407484
 21
-28.1948357588
  0
LINE
  5
26A
100
AcDbEntity
  8
0
100
AcDbLine
 62
7
  6
CONTINUOUS
 10
49.4474717484
 20
-28.1948507588
 11
48.8990967484
 21
-26.2824087588
  0
LINE
  5
26B
100
AcDbEntity
  8
0
100
AcDbLine
 62
7
  6
CONTINUOUS
 10
49.1959117484
 20
-25.2947197588
 11
49.7374797484
 21
-27.1833877588
  0
LINE
  5
26C
100
AcDbEntity
  8
0
100
AcDbLine
 62
7
  6
CONTINUOUS
 10
47.1590457484
 20
-28.1948577588
 11
47.1590527484
 21
-25.2947197588
  0
LINE
  5
26D
100
AcDbEntity
  8
0
100
AcDbLine
 62
7
  6
CONTINUOUS
 10
53.0448137484
 20
-27.0734927588
 11
52.7637087484
 21
-26.1979537588
  0
LINE
  5
26E
100
AcDbEntity
  8
0
100
AcDbLine
 62
7
  6
CONTINUOUS
 10
53.4048487484
 20
-28.1948427588
 11
53.2217427484
 21
-27.6245147588
  0
LINE
  5
26F
100
AcDbEntity
  8
0
100
AcDbLine
 62
7
  6
CONTINUOUS
 10
53.0537377484
 20
-25.2947127588
 11
53.9848777484
 21
-28.1948507588
  0
LINE
  5
270
100
AcDbEntity
  8
0
100
AcDbLine
 62
7
  6
CONTINUOUS
 10
47.7390747484
 20
-25.2947197588
 11
47.7390677484
 21
-28.1948507588
  0
LINE
  5
271
100
AcDbEntity
  8
0
100
AcDbLine
 62
7
  6
CONTINUOUS
 10
48.3190747484
 20
-28.1948507588
 11
48.3190747484
 21
-25.2947197588
  0
LINE
  5
272
100
AcDbEntity
  8
0
100
AcDbLine
 62
7
  6
CONTINUOUS
 10
48.8990967484
 20
-26.2824087588
 11
48.8990967484
 21
-28.1948507588
  0
LINE
  5
273
100
AcDbEntity
  8
0
100
AcDbLine
 62
7
  6
CONTINUOUS
 10
50.5758617484
 20
-28.1948507588
 11
50.5758547484
 21
-26.2824087588
  0
LINE
  5
274
100
AcDbEntity
  8
0
100
AcDbLine
 62
7
  6
CONTINUOUS
 10
51.1558837484
 20
-25.2947197588
 11
51.1558837484
 21
-28.1948507588
  0
LINE
  5
275
100
AcDbEntity
  8
0
100
AcDbLine
 62
7
  6
CONTINUOUS
 10
54.1924407484
 20
22.8051642412
 11
54.1924407484
 21
-21.5948357588
  0
LINE
  5
276
100
AcDbEntity
  8
0
100
AcDbLine
 62
7
  6
CONTINUOUS
 10
54.3715557484
 20
-28.1948427588
 11
54.3715557484
 21
-25.2947127588
  0
LINE
  5
277
100
AcDbEntity
  8
0
100
AcDbLine
 62
7
  6
CONTINUOUS
 10
45.5512207484
 20
-27.2916157588
 11
46.1923457484
 21
-25.2947197588
  0
LINE
  5
278
100
AcDbEntity
  8
0
100
AcDbLine
 62
7
  6
CONTINUOUS
 10
46.7723747484
 20
-25.2947197588
 11
45.8412347484
 21
-28.1948507588
  0
LINE
  5
279
100
AcDbEntity
  8
0
100
AcDbLine
 62
7
  6
CONTINUOUS
 10
9.4924407484
 20
23.1051642412
 11
53.8924407484
 21
23.1051642412
  0
LINE
  5
27A
100
AcDbEntity
  8
0
100
AcDbLine
 62
7
  6
CONTINUOUS
 10
54.9435807484
 20
-25.8312337588
 11
54.9435887484
 21
-26.5369637588
  0
LINE
  5
27B
100
AcDbEntity
  8
0
100
AcDbLine
 62
7
  6
CONTINUOUS
 10
54.9516507484
 20
-27.0734857588
 11
54.9515847484
 21
-28.1948427588
  0
LINE
  5
27C
100
AcDbEntity
  8
0
100
AcDbLine
 62
7
  6
CONTINUOUS
 10
49.7374797484
 20
-27.1833877588
 11
50.2790467484
 21
-25.2947197588
  0
LINE
  5
27D
100
AcDbEntity
  8
0
100
AcDbLine
 62
7
  6
CONTINUOUS
 10
50.5758547484
 20
-26.2824087588
 11
50.0274797484
 21
-28.1948427588
  0
LINE
  5
27E
100
AcDbEntity
  8
RACCORDO
100
AcDbLine
 62
253
  6
CONTINUOUS
 10
19.9424407484
 20
24.7108128306
 11
43.4424407484
 21
24.7108128306
  0
LINE
  5
27F
100
AcDbEntity
  8
RACCORDO
100
AcDbLine
 62
253
  6
CONTINUOUS
 10
19.9424407484
 20
26.328151657
 11
43.4424407484
 21
26.328151657
  0
LINE
  5
280
100
AcDbEntity
  8
0
100
AcDbLine
 62
7
  6
CONTINUOUS
 10
51.5425627484
 20
-28.1948507588
 11
52.4736877484
 21
-25.2947127588
  0
LINE
  5
281
100
AcDbEntity
  8
0
100
AcDbLine
 62
7
  6
CONTINUOUS
 10
52.7637087484
 20
-26.1979537588
 11
52.4826197484
 21
-27.0734927588
  0
LINE
  5
282
100
AcDbEntity
  8
0
100
AcDbLine
 62
7
  6
CONTINUOUS
 10
52.3056977484
 20
-27.6245147588
 11
52.1225847484
 21
-28.1948427588
  0
LINE
  5
283
100
AcDbEntity
  8
0
100
AcDbLine
 62
7
  6
CONTINUOUS
 10
71.5876251899
 20
4.1051642412
 11
71.6924407484
 21
4.2801415682
  0
LINE
  5
284
100
AcDbEntity
  8
0
100
AcDbLine
 62
7
  6
CONTINUOUS
 10
71.6924407484
 20
-3.0698130859
 11
71.5876251899
 21
-2.8948357588
  0
LINE
  5
285
100
AcDbEntity
  8
RACCORDO
100
AcDbLine
 62
253
  6
CONTINUOUS
 10
68.6924407484
 20
-39.3948357588
 11
68.6924407484
 21
-39.1642638823
  0
LINE
  5
286
100
AcDbEntity
  8
RACCORDO
100
AcDbLine
 62
253
  6
CONTINUOUS
 10
68.6924407484
 20
40.3745923646
 11
68.6924407484
 21
40.6051642412
  0
LWPOLYLINE
  5
287
100
AcDbEntity
  8
0
100
AcDbPolyline
 62
7
  6
CONTINUOUS
 90
13
 70
0
 43
0.3500000087
 10
77.2281535217
 20
-1.3234066238
 10
77.0138712524
 20
-1.6091205795
 10
76.371015918
 20
-1.6091205795
 10
75.9424428528
 20
-1.3234066238
 10
75.9424428528
 20
-0.6805491577
 10
76.371015918
 20
-0.394835202
 10
77.0138712524
 20
-0.394835202
 10
77.2281535217
 20
-0.6805491577
 10
77.6567265869
 20
-0.2519782242
 10
78.5138727173
 20
-0.2519782242
 10
78.9424372559
 20
-0.6805491577
 10
78.9424372559
 20
-1.3234066238
 10
78.5138727173
 20
-1.7519775574
  0
LINE
  5
288
100
AcDbEntity
  8
RACCORDO
100
AcDbLine
 62
253
  6
CONTINUOUS
 10
71.6924407484
 20
37.6051642412
 11
71.4610727396
 21
37.6051642412
  0
LINE
  5
289
100
AcDbEntity
  8
RACCORDO
100
AcDbLine
 62
253
  6
CONTINUOUS
 10
-8.0761912427
 20
37.6051642412
 11
-8.3075592516
 21
37.6051642412
  0
LINE
  5
28A
100
AcDbEntity
  8
0
100
AcDbLine
 62
7
  6
CONTINUOUS
 10
71.5876251899
 20
-2.8948357588
 11
71.5876251899
 21
4.1051642412
  0
LINE
  5
28B
100
AcDbEntity
  8
0
100
AcDbLine
 62
7
  6
CONTINUOUS
 10
71.6924407484
 20
37.6051642411
 11
71.6924407484
 21
4.2801415682
  0
LINE
  5
28C
100
AcDbEntity
  8
0
100
AcDbLine
 62
7
  6
CONTINUOUS
 10
71.6924407484
 20
-3.0698130859
 11
71.6924407484
 21
-36.3948357588
  0
LINE
  5
28D
100
AcDbEntity
  8
RACCORDO
100
AcDbLine
 62
253
  6
CONTINUOUS
 10
19.9424407484
 20
39.7020930642
 11
43.4424407484
 21
39.7020930637
  0
LINE
  5
28E
100
AcDbEntity
  8
RACCORDO
100
AcDbLine
 62
253
  6
CONTINUOUS
 10
19.9423900787
 20
40.3665865243
 11
43.4424914894
 21
40.3665865243
  0
LINE
  5
28F
100
AcDbEntity
  8
0
100
AcDbLine
 62
7
  6
CONTINUOUS
 10
-5.3075592515
 20
40.6051642412
 11
68.6924407484
 21
40.6051642412
  0
LWPOLYLINE
  5
290
100
AcDbEntity
  8
0
100
AcDbPolyline
 62
7
  6
CONTINUOUS
 90
13
 70
0
 43
0.3500000087
 10
29.7638698746
 20
51.0694502197
 10
29.4781559189
 20
51.2837367523
 10
29.4781559189
 20
51.9265963501
 10
29.7638698746
 20
52.3551608887
 10
30.4067273407
 20
52.3551608887
 10
30.6924412964
 20
51.9265963501
 10
30.6924412964
 20
51.2837367523
 10
30.4067273407
 20
51.0694502197
 10
30.8352982742
 20
50.6408771545
 10
30.8352982742
 20
49.7837352875
 10
30.4067273407
 20
49.3551622223
 10
29.7638698746
 20
49.3551622223
 10
29.335298941
 20
49.7837352875
  0
LINE
  5
291
100
AcDbEntity
  8
RACCORDO
100
AcDbLine
 62
7
  6
CONTINUOUS
 10
-37.7453647692
 20
-39.3948357588
 11
-42.3060519626
 21
-39.155820271
  0
LINE
  5
292
100
AcDbEntity
  8
SUPERFICI
100
AcDbLine
 62
7
  6
CONTINUOUS
 10
-37.7453647692
 20
-39.3948357588
 11
-42.1449382626
 21
-39.1642638822
  0
LWPOLYLINE
  5
293
100
AcDbEntity
  8
0
100
AcDbPolyline
 62
7
  6
CONTINUOUS
 90
10
 70
0
 43
0.3500000087
 10
-43.003107309
 20
49.3551622223
 10
-42.1459654419
 20
50.2123083527
 10
-41.9316789093
 20
51.0694502197
 10
-41.9316789093
 20
51.9265963501
 10
-42.3602519745
 20
52.3551608887
 10
-43.003107309
 20
52.3551608887
 10
-43.4316803741
 20
51.9265963501
 10
-43.4316803741
 20
51.0694502197
 10
-43.003107309
 20
50.6408771545
 10
-42.0745380188
 20
50.6408771545
  0
LWPOLYLINE
  5
294
100
AcDbEntity
  8
RACCORDO
100
AcDbPolyline
 62
7
  6
CONTINUOUS
 90
8
 70
0
 10
-42.6970673668
 20
40.26387526
 10
-42.7859399697
 20
40.2141334165
 10
-42.8693188079
 20
40.1555892145
 10
-42.9463306451
 20
40.0888437307
 10
-43.0161711572
 20
40.0145809971
 10
-43.0781076134
 20
39.9335649017
 10
-43.1314876577
 20
39.8466312063
 10
-43.1757464775
 20
39.7546793721
  0
LWPOLYLINE
  5
295
100
AcDbEntity
  8
RACCORDO
100
AcDbPolyline
 62
7
  6
CONTINUOUS
 90
7
 70
0
 10
-42.692952497
 20
40.2658989408
 10
-42.7815883282
 20
40.2168537105
 10
-42.8649858334
 20
40.1589550862
 10
-42.9422323876
 20
40.092756957
 10
-43.012500337
 20
40.0188821941
 10
-43.0750141539
 20
39.9380446447
 10
-43.1290660797
 20
39.8510420961
  0
LINE
  5
296
100
AcDbEntity
  8
RACCORDO
100
AcDbLine
 62
7
  6
CONTINUOUS
 10
-42.6000675648
 20
40.3056299953
 11
-42.6970673668
 21
40.26387526
  0
LINE
  5
297
100
AcDbEntity
  8
RACCORDO
100
AcDbLine
 62
253
  6
CONTINUOUS
 10
-42.1601293716
 20
-36.3948357588
 11
-37.7453647692
 21
-36.3948357588
  0
LINE
  5
298
100
AcDbEntity
  8
0
100
AcDbLine
 62
7
  6
CONTINUOUS
 10
-45.8244305969
 20
-28.1948427588
 11
-45.8060875529
 21
-28.1948427588
  0
LINE
  5
299
100
AcDbEntity
  8
0
100
AcDbLine
 62
7
  6
CONTINUOUS
 10
-45.7837094334
 20
-28.1948427588
 11
-45.786165813
 21
-28.1948427588
  0
LINE
  5
29A
100
AcDbEntity
  8
0
100
AcDbLine
 62
7
  6
CONTINUOUS
 10
-45.7701444958
 20
-28.1948427588
 11
-45.4916732203
 21
-28.1948357588
  0
LINE
  5
29B
100
AcDbEntity
  8
0
100
AcDbLine
 62
7
  6
CONTINUOUS
 10
-45.8850774724
 20
-27.6245147588
 11
-45.8962771824
 21
-27.6245147588
  0
LINE
  5
29C
100
AcDbEntity
  8
0
100
AcDbLine
 62
7
  6
CONTINUOUS
 10
-45.9605607025
 20
-27.0734927588
 11
-45.9548668074
 21
-27.0734927588
  0
LINE
  5
29D
100
AcDbEntity
  8
0
100
AcDbLine
 62
7
  6
CONTINUOUS
 10
-45.8919715291
 20
-27.0037384258
 11
-45.6900894095
 21
-27.0037384258
  0
LINE
  5
29E
100
AcDbEntity
  8
0
100
AcDbLine
 62
7
  6
CONTINUOUS
 10
-45.9869750495
 20
-26.5369637588
 11
-45.9669707659
 21
-26.5369637588
  0
LINE
  5
29F
100
AcDbEntity
  8
0
100
AcDbLine
 62
7
  6
CONTINUOUS
 10
-45.9065928882
 20
-27.0734927588
 11
-45.9217142819
 21
-27.0734857588
  0
LINE
  5
2A0
100
AcDbEntity
  8
0
100
AcDbLine
 62
7
  6
CONTINUOUS
 10
-46.1229025008
 20
-25.2947127588
 11
-45.8930815058
 21
-25.2947127588
  0
LWPOLYLINE
  5
2A1
100
AcDbEntity
  8
RACCORDO
100
AcDbPolyline
 62
7
  6
CONTINUOUS
 90
3
 70
0
 10
-43.1290660797
 20
39.8510420961
 10
-43.1740262667
 20
39.7587519252
 10
-43.1929151796
 20
39.7109427581
  0
LINE
  5
2A2
100
AcDbEntity
  8
RACCORDO
100
AcDbLine
 62
7
  6
CONTINUOUS
 10
-46.5537853818
 20
24.7144711189
 11
-46.4576492747
 21
24.8469074499
  0
LINE
  5
2A3
100
AcDbEntity
  8
RACCORDO
100
AcDbLine
 62
7
  6
CONTINUOUS
 10
-46.5411127007
 20
24.7311308583
 11
-46.5542853884
 21
24.7138303117
  0
LINE
  5
2A4
100
AcDbEntity
  8
RACCORDO
100
AcDbLine
 62
7
  6
CONTINUOUS
 10
-46.5542416142
 20
24.7138877196
 11
-46.5542026949
 21
24.7139374484
  0
LINE
  5
2A5
100
AcDbEntity
  8
RACCORDO
100
AcDbLine
 62
7
  6
CONTINUOUS
 10
-46.554202422
 20
-23.5036084604
 11
-46.5542492552
 21
-23.5035489508
  0
LINE
  5
2A6
100
AcDbEntity
  8
RACCORDO
100
AcDbLine
 62
7
  6
CONTINUOUS
 10
-46.5542489399
 20
-23.5035496335
 11
-46.5542026949
 21
-23.5036089661
  0
LINE
  5
2A7
100
AcDbEntity
  8
RACCORDO
100
AcDbLine
 62
7
  6
CONTINUOUS
 10
-46.5542762116
 20
-23.5035138161
 11
-46.5384297573
 21
-23.5243590262
  0
LINE
  5
2A8
100
AcDbEntity
  8
RACCORDO
100
AcDbLine
 62
7
  6
CONTINUOUS
 10
-46.5537903227
 20
-23.5041343668
 11
-46.4578351126
 21
-23.636306705
  0
LWPOLYLINE
  5
2A9
100
AcDbEntity
  8
SUPERFICI
100
AcDbPolyline
 62
7
  6
CONTINUOUS
 90
12
 70
0
 10
-43.4037838943
 20
39.1199415641
 10
-43.5217759277
 20
38.7760918783
 10
-43.6360339939
 20
38.4334638938
 10
-43.7467866411
 20
38.0917264034
 10
-43.8540394309
 20
37.7512016286
 10
-43.9579081822
 20
37.4118597779
 10
-44.0587534131
 20
37.0728088401
 10
-44.1565895899
 20
36.7342445191
 10
-44.2514769594
 20
36.3962022723
 10
-44.3437956883
 20
36.0575127377
 10
-44.4337110861
 20
35.717671653
 10
-44.5210693815
 20
35.3773614571
  0
LWPOLYLINE
  5
2AA
100
AcDbEntity
  8
SUPERFICI
100
AcDbPolyline
 62
7
  6
CONTINUOUS
 90
3
 70
0
 10
-43.1929152418
 20
39.7109427991
 10
-43.2819294725
 20
39.4650043415
 10
-43.4037840431
 20
39.1199411366
  0
LWPOLYLINE
  5
2AB
100
AcDbEntity
  8
RACCORDO
100
AcDbPolyline
 62
7
  6
CONTINUOUS
 90
13
 70
0
 10
-43.1929151145
 20
-38.5006142614
 10
-43.1740654912
 20
-38.5483309979
 10
-43.1291212393
 20
-38.6406136178
 10
-43.0750845154
 20
-38.7276147633
 10
-43.0125836718
 20
-38.8084565438
 10
-42.9423252087
 20
-38.8823402802
 10
-42.8650837037
 20
-38.9485509543
 10
-42.7816863188
 20
-39.0064642793
 10
-42.6930447718
 20
-39.0555253081
 10
-42.6001469637
 20
-39.0952721739
 10
-42.5039891076
 20
-39.1253698956
 10
-42.4055571067
 20
-39.1455975549
 10
-42.3060706703
 20
-39.1558192906
  0
LINE
  5
2AC
100
AcDbEntity
  8
SUPERFICI
100
AcDbLine
 62
7
  6
CONTINUOUS
 10
-44.5210693815
 20
35.3773614571
 11
-44.6057559295
 21
35.0371794468
  0
LWPOLYLINE
  5
2AD
100
AcDbEntity
  8
SUPERFICI
100
AcDbPolyline
 62
7
  6
CONTINUOUS
 90
23
 70
0
 10
-44.6057559295
 20
35.0371794468
 10
-44.6878975094
 20
34.6967724747
 10
-44.7674036929
 20
34.3566735136
 10
-44.8438829384
 20
34.0188247243
 10
-44.9173947666
 20
33.6833208854
 10
-44.9879976745
 20
33.3502541767
 10
-45.0553734051
 20
33.0215791708
 10
-45.1196023603
 20
32.6974566661
 10
-45.1807931481
 20
32.3778939948
 10
-45.2387369661
 20
32.0646205287
 10
-45.2935235559
 20
31.7578879728
 10
-45.3453073899
 20
31.457571895
 10
-45.3940256507
 20
31.1648301086
 10
-45.4397363662
 20
30.880194478
 10
-45.4826548343
 20
30.603205719
 10
-45.5229627997
 20
30.3335274172
 10
-45.5607647277
 20
30.0712850679
 10
-45.5961920049
 20
29.8163940869
 10
-45.6294456512
 20
29.5681957821
 10
-45.6607240725
 20
29.3259212663
 10
-45.6900179742
 20
29.0903595984
 10
-45.7172258134
 20
28.8631858055
 10
-45.765590661
 20
28.4362497755
  0
LINE
  5
2AE
100
AcDbEntity
  8
SUPERFICI
100
AcDbLine
 62
7
  6
CONTINUOUS
 10
-45.9507755434
 20
-25.1175440518
 11
-45.9386700631
 21
-25.2947197588
  0
LINE
  5
2AF
100
AcDbEntity
  8
SUPERFICI
100
AcDbLine
 62
7
  6
CONTINUOUS
 10
-45.9287549361
 20
26.6438694559
 11
-45.9507756794
 21
26.3278704694
  0
LINE
  5
2B0
100
AcDbEntity
  8
SUPERFICI
100
AcDbLine
 62
7
  6
CONTINUOUS
 10
-45.9040784439
 20
26.9680709714
 11
-45.9287549361
 21
26.6438694559
  0
LINE
  5
2B1
100
AcDbEntity
  8
SUPERFICI
100
AcDbLine
 62
7
  6
CONTINUOUS
 10
-45.8758591933
 20
27.3084042486
 11
-45.9040784439
 21
26.9680709714
  0
LINE
  5
2B2
100
AcDbEntity
  8
SUPERFICI
100
AcDbLine
 62
7
  6
CONTINUOUS
 10
-45.8437737703
 20
27.6648893583
 11
-45.8758591933
 21
27.3084042486
  0
LINE
  5
2B3
100
AcDbEntity
  8
SUPERFICI
100
AcDbLine
 62
7
  6
CONTINUOUS
 10
-45.8074313699
 20
28.038121705
 11
-45.8437737703
 21
27.6648893583
  0
LINE
  5
2B4
100
AcDbEntity
  8
SUPERFICI
100
AcDbLine
 62
7
  6
CONTINUOUS
 10
-45.7655910708
 20
28.4362460175
 11
-45.8074313699
 21
28.038121705
  0
LWPOLYLINE
  5
2B5
100
AcDbEntity
  8
SUPERFICI
100
AcDbPolyline
 62
7
  6
CONTINUOUS
 90
36
 70
0
 10
-45.5483883566
 20
-28.9478703958
 10
-45.5151469565
 20
-29.1762599728
 10
-45.4802713617
 20
-29.4085245898
 10
-45.4435356714
 20
-29.6457412869
 10
-45.404813344
 20
-29.8882357021
 10
-45.364083918
 20
-30.1356461706
 10
-45.3212623484
 20
-30.3880136932
 10
-45.2762342183
 20
-30.6455257802
 10
-45.2289570914
 20
-30.9079398085
 10
-45.1794607527
 20
-31.1746430866
 10
-45.1276417931
 20
-31.4457648995
 10
-45.0734605929
 20
-31.7210858076
 10
-45.0170683817
 20
-31.9994671481
 10
-44.9584035832
 20
-32.2808896719
 10
-44.8974174077
 20
-32.5652653864
 10
-44.8343176105
 20
-32.8513563437
 10
-44.769067817
 20
-33.1391086189
 10
-44.7016326214
 20
-33.4284602388
 10
-44.6322618826
 20
-33.7181703845
 10
-44.5609821652
 20
-34.0080143271
 10
-44.4877381242
 20
-34.2981038343
 10
-44.4126896802
 20
-34.5877142315
 10
-44.3359564209
 20
-34.8763367606
 10
-44.2574182398
 20
-35.1643752402
 10
-44.1768750026
 20
-35.4524714344
 10
-44.0943189184
 20
-35.7405356156
 10
-44.0097271684
 20
-36.0285296464
 10
-43.9228505394
 20
-36.3171544435
 10
-43.8336344207
 20
-36.6064124179
 10
-43.7420732148
 20
-36.8961422895
 10
-43.6479673515
 20
-37.1867793664
 10
-43.5512456089
 20
-37.4783242284
 10
-43.45189856
 20
-37.7705852054
 10
-43.3498049294
 20
-38.0636937066
 10
-43.2448925149
 20
-38.3576193208
 10
-43.1929155756
 20
-38.5006134039
  0
LINE
  5
2B6
100
AcDbEntity
  8
SUPERFICI
100
AcDbLine
 62
7
  6
CONTINUOUS
 10
-45.6101478288
 20
-28.5030131126
 11
-45.5483883566
 21
-28.9478703958
  0
LINE
  5
2B7
100
AcDbEntity
  8
SUPERFICI
100
AcDbLine
 62
7
  6
CONTINUOUS
 10
-45.6505075812
 20
-28.1948507588
 11
-45.6101478288
 21
-28.5030131126
  0
LINE
  5
2B8
100
AcDbEntity
  8
0
100
AcDbLine
 62
7
  6
CONTINUOUS
 10
-46.7608518158
 20
24.1051537769
 11
-46.7608518158
 21
-22.894826219
  0
LINE
  5
2B9
100
AcDbEntity
  8
0
100
AcDbLine
 62
7
  6
CONTINUOUS
 10
-37.7453647692
 20
-3.0698130859
 11
-39.7453647692
 21
-2.8948357588
  0
LINE
  5
2BA
100
AcDbEntity
  8
RACCORDO
100
AcDbLine
 62
253
  6
CONTINUOUS
 10
-42.297738924
 20
0.6051588007
 11
-46.760850254
 21
0.6051642412
  0
LINE
  5
2BB
100
AcDbEntity
  8
0
100
AcDbLine
 62
7
  6
CONTINUOUS
 10
-39.7453647692
 20
-2.8948357588
 11
-39.7453647692
 21
4.1051642412
  0
LINE
  5
2BC
100
AcDbEntity
  8
0
100
AcDbLine
 62
7
  6
CONTINUOUS
 10
-37.7453647692
 20
40.6051642412
 11
-37.7453647692
 21
4.2801415682
  0
LINE
  5
2BD
100
AcDbEntity
  8
0
100
AcDbLine
 62
7
  6
CONTINUOUS
 10
-37.7453647692
 20
-39.3948357588
 11
-37.7453647692
 21
-3.0698130859
  0
LINE
  5
2BE
100
AcDbEntity
  8
0
100
AcDbLine
 62
7
  6
CONTINUOUS
 10
-39.7453647692
 20
4.1051642412
 11
-37.7453647692
 21
4.2801415682
  0
LWPOLYLINE
  5
2BF
100
AcDbEntity
  8
RACCORDO
100
AcDbPolyline
 62
7
  6
CONTINUOUS
 90
4
 70
0
 10
-42.3060703394
 20
40.3661477903
 10
-42.4070196584
 20
40.3557002361
 10
-42.506616286
 20
40.3350154131
 10
-42.6036343054
 20
40.3043053471
  0
LINE
  5
2C0
100
AcDbEntity
  8
RACCORDO
100
AcDbLine
 62
7
  6
CONTINUOUS
 10
-42.3060517562
 20
40.3661487642
 11
-37.7453647692
 21
40.6051642412
  0
LINE
  5
2C1
100
AcDbEntity
  8
SUPERFICI
100
AcDbLine
 62
7
  6
CONTINUOUS
 10
-42.1449382626
 20
40.3745923646
 11
-37.7453647692
 21
40.6051642412
  0
LINE
  5
2C2
100
AcDbEntity
  8
RACCORDO
100
AcDbLine
 62
253
  6
CONTINUOUS
 10
-37.7453647692
 20
37.6051642412
 11
-42.1601293716
 21
37.6051642412
  0
ARC
  5
2C3
100
AcDbEntity
  8
RACCORDO
100
AcDbCircle
 62
253
  6
CONTINUOUS
 10
6335.785231046
 20
-3.6305361406
 40
6329.8159751243
100
AcDbArc
 50
179.9616595845
 51
180.1623912722
  0
ARC
  5
2C4
100
AcDbEntity
  8
RACCORDO
100
AcDbCircle
 62
253
  6
CONTINUOUS
 10
-6272.4003107967
 20
4.8408646597
 40
6329.8159363718
100
AcDbArc
 50
359.9616595839
 51
0.1623912728
  0
ARC
  5
2C5
100
AcDbEntity
  8
RACCORDO
100
AcDbCircle
 62
253
  6
CONTINUOUS
 10
5887.1979208672
 20
5.2983582897
 40
5881.228856088
100
AcDbArc
 50
179.8296789908
 51
180.0457217762
  0
ARC
  5
2C6
100
AcDbEntity
  8
RACCORDO
100
AcDbCircle
 62
253
  6
CONTINUOUS
 10
-5823.8129722128
 20
-4.088029382
 40
5881.228788931
100
AcDbArc
 50
359.8296789848
 51
0.0457217725
  0
ARC
  5
2C7
100
AcDbEntity
  8
RACCORDO
100
AcDbCircle
 62
253
  6
CONTINUOUS
 10
-379.6116187618
 20
-27.4768071215
 40
389.1212231561
100
AcDbArc
 50
0.3504058156
 51
0.5849613157
  0
ARC
  5
2C8
100
AcDbEntity
  8
RACCORDO
100
AcDbCircle
 62
253
  6
CONTINUOUS
 10
442.9962825065
 20
28.6871541539
 40
389.1210056932
100
AcDbArc
 50
180.3504087426
 51
180.5849643742
  0
ARC
  5
2C9
100
AcDbEntity
  8
RACCORDO
100
AcDbCircle
 62
253
  6
CONTINUOUS
 10
425.2323677924
 20
-28.4271488031
 40
371.3695166673
100
AcDbArc
 50
179.2404432808
 51
179.4862255008
  0
ARC
  5
2CA
100
AcDbEntity
  8
RACCORDO
100
AcDbCircle
 62
253
  6
CONTINUOUS
 10
-361.8474586938
 20
29.6374777915
 40
371.3694889846
100
AcDbArc
 50
359.2404431461
 51
359.4862253844
  0
ARC
  5
2CB
100
AcDbEntity
  8
RACCORDO
100
AcDbCircle
 62
253
  6
CONTINUOUS
 10
60.6405549717
 20
-313.1389669948
 40
291.5861737579
100
AcDbArc
 50
90.6387412446
 51
90.9504888509
  0
ARC
  5
2CC
100
AcDbEntity
  8
RACCORDO
100
AcDbCircle
 62
253
  6
CONTINUOUS
 10
2.7443265264
 20
314.3492953782
 40
291.5861736589
100
AcDbArc
 50
270.6387412446
 51
270.950488851
  0
ARC
  5
2CD
100
AcDbEntity
  8
RACCORDO
100
AcDbCircle
 62
253
  6
CONTINUOUS
 10
60.641230967
 20
314.1324125323
 40
291.3693534377
100
AcDbArc
 50
269.0486707483
 51
269.3606505209
  0
ARC
  5
2CE
100
AcDbEntity
  8
RACCORDO
100
AcDbCircle
 62
253
  6
CONTINUOUS
 10
2.7436505315
 20
-312.92208392
 40
291.3693533078
100
AcDbArc
 50
89.0486707483
 51
89.360650521
  0
ARC
  5
2CF
100
AcDbEntity
  8
0
100
AcDbCircle
 62
7
  6
CONTINUOUS
 10
68.6924407485
 20
37.6051642412
 40
3.0
100
AcDbArc
 50
0.0
 51
90.0000000013
  0
ARC
  5
2D0
100
AcDbEntity
  8
0
100
AcDbCircle
 62
7
  6
CONTINUOUS
 10
-5.3075592516
 20
37.6051642412
 40
3.0
100
AcDbArc
 50
89.9999999987
 51
180.0000000008
  0
ARC
  5
2D1
100
AcDbEntity
  8
0
100
AcDbCircle
 62
7
  6
CONTINUOUS
 10
-5.3075592516
 20
-36.3948357589
 40
3.0
100
AcDbArc
 50
179.9999999992
 51
270.0000000013
  0
ARC
  5
2D2
100
AcDbEntity
  8
0
100
AcDbCircle
 62
7
  6
CONTINUOUS
 10
68.6924407485
 20
-36.3948357589
 40
3.0
100
AcDbArc
 50
269.9999999987
 51
360.0
  0
ARC
  5
2D3
100
AcDbEntity
  8
RACCORDO
100
AcDbCircle
 62
253
  6
CONTINUOUS
 10
68.6956230936
 20
-36.3987727703
 40
2.7654785697
100
AcDbArc
 50
269.9340678165
 51
0.081568647
  0
ARC
  5
2D4
100
AcDbEntity
  8
RACCORDO
100
AcDbCircle
 62
253
  6
CONTINUOUS
 10
-5.3107422392
 20
37.6091006105
 40
2.7654785695
100
AcDbArc
 50
89.9340545206
 51
180.0815553625
  0
ARC
  5
2D5
100
AcDbEntity
  8
RACCORDO
100
AcDbCircle
 62
253
  6
CONTINUOUS
 10
68.695623741
 20
37.6091006119
 40
2.7654785666
100
AcDbArc
 50
359.9184446069
 51
90.0659455813
  0
ARC
  5
2D6
100
AcDbEntity
  8
RACCORDO
100
AcDbCircle
 62
253
  6
CONTINUOUS
 10
-5.3107415643
 20
-36.3987728092
 40
2.7654785667
100
AcDbArc
 50
179.9184305469
 51
270.0659315122
  0
ARC
  5
2D7
100
AcDbEntity
  8
0
100
AcDbCircle
 62
7
  6
CONTINUOUS
 10
55.7297707484
 20
-26.1841007588
 40
0.8893898871
100
AcDbArc
 50
292.842868527
 51
90.0
  0
ARC
  5
2D8
100
AcDbEntity
  8
0
100
AcDbCircle
 62
7
  6
CONTINUOUS
 10
55.6492647484
 20
-26.1841007588
 40
0.352865
100
AcDbArc
 50
270.0
 51
90.0
  0
ARC
  5
2D9
100
AcDbEntity
  8
0
100
AcDbCircle
 62
7
  6
CONTINUOUS
 10
9.4924407484
 20
-21.5948357588
 40
0.3
100
AcDbArc
 50
180.0
 51
270.0
  0
ARC
  5
2DA
100
AcDbEntity
  8
0
100
AcDbCircle
 62
7
  6
CONTINUOUS
 10
53.8924407484
 20
22.8051642412
 40
0.3
100
AcDbArc
 50
0.0201197999
 51
89.9999998251
  0
ARC
  5
2DB
100
AcDbEntity
  8
0
100
AcDbCircle
 62
7
  6
CONTINUOUS
 10
9.4924407484
 20
22.8051642412
 40
0.3
100
AcDbArc
 50
90.0
 51
180.0
  0
ARC
  5
2DC
100
AcDbEntity
  8
0
100
AcDbCircle
 62
7
  6
CONTINUOUS
 10
53.8924407484
 20
-21.5948357588
 40
0.3
100
AcDbArc
 50
270.0171785413
 51
359.9999999708
  0
ARC
  5
2DD
100
AcDbEntity
  8
0
100
AcDbCircle
 62
7
  6
CONTINUOUS
 10
-77.596508982
 20
-29.6790581665
 40
31.8227872987
100
AcDbArc
 50
5.9554959308
 51
6.6394891249
  0
ARC
  5
2DE
100
AcDbEntity
  8
0
100
AcDbCircle
 62
7
  6
CONTINUOUS
 10
-73.6138539764
 20
-29.2813896296
 40
28.0209719673
100
AcDbArc
 50
5.753110615
 51
7.2112590799
  0
ARC
  5
2DF
100
AcDbEntity
  8
0
100
AcDbCircle
 62
7
  6
CONTINUOUS
 10
-73.3558502889
 20
-29.2436479608
 40
27.5598408187
100
AcDbArc
 50
5.4300132736
 51
5.9699100675
  0
ARC
  5
2E0
100
AcDbEntity
  8
0
100
AcDbCircle
 62
7
  6
CONTINUOUS
 10
-72.6169977127
 20
-29.1088179744
 40
26.8107414923
100
AcDbArc
 50
6.6594152406
 51
6.8581146668
  0
ARC
  5
2E1
100
AcDbEntity
  8
RACCORDO
100
AcDbCircle
 62
7
  6
CONTINUOUS
 10
-48.9441407513
 20
-25.3169549983
 40
3.0000000003
100
AcDbArc
 50
3.8112882172
 51
30.5095053836
  0
ARC
  5
2E2
100
AcDbEntity
  8
RACCORDO
100
AcDbCircle
 62
7
  6
CONTINUOUS
 10
-48.9318520949
 20
-25.331708981
 40
2.9991748336
100
AcDbArc
 50
4.4864804738
 51
34.4221860385
  0
ARC
  5
2E3
100
AcDbEntity
  8
0
100
AcDbCircle
 62
7
  6
CONTINUOUS
 10
-45.7608570798
 20
-22.8948357588
 40
1.0
100
AcDbArc
 50
179.1373717278
 51
217.5003719513
  0
ARC
  5
2E4
100
AcDbEntity
  8
RACCORDO
100
AcDbCircle
 62
7
  6
CONTINUOUS
 10
-45.7609171608
 20
-22.8948644665
 40
0.9999302364
100
AcDbArc
 50
179.9978117399
 51
217.5397736526
  0
ARC
  5
2E5
100
AcDbEntity
  8
RACCORDO
100
AcDbCircle
 62
253
  6
CONTINUOUS
 10
-42.0923574074
 20
-38.166165401
 40
0.9994978938
100
AcDbArc
 50
187.8065064924
 51
266.9843870385
  0
ARC
  5
2E6
100
AcDbEntity
  8
RACCORDO
100
AcDbCircle
 62
7
  6
CONTINUOUS
 10
-48.9441407513
 20
26.5272834806
 40
3.0000000003
100
AcDbArc
 50
329.4904946165
 51
356.1887117945
  0
ARC
  5
2E7
100
AcDbEntity
  8
RACCORDO
100
AcDbCircle
 62
7
  6
CONTINUOUS
 10
-48.9319591342
 20
26.542127034
 40
2.99931313
100
AcDbArc
 50
325.5838554559
 51
355.5111989866
  0
ARC
  5
2E8
100
AcDbEntity
  8
0
100
AcDbCircle
 62
7
  6
CONTINUOUS
 10
-45.7608518158
 20
24.1051642412
 40
1.0
100
AcDbArc
 50
142.4609252276
 51
180.8624973731
  0
ARC
  5
2E9
100
AcDbEntity
  8
RACCORDO
100
AcDbCircle
 62
7
  6
CONTINUOUS
 10
-45.7609150842
 20
24.1051922292
 40
0.9999323273
100
AcDbArc
 50
142.4602787407
 51
180.0022011947
  0
ARC
  5
2EA
100
AcDbEntity
  8
RACCORDO
100
AcDbCircle
 62
253
  6
CONTINUOUS
 10
-42.0923575519
 20
39.3764938998
 40
0.9994978677
100
AcDbArc
 50
93.0156047398
 51
172.1934933167
  0
ARC
  5
2EB
100
AcDbEntity
  8
0
100
AcDbCircle
 62
7
  6
CONTINUOUS
 10
15.2785917114
 20
-20.2077740028
 40
61.6228255475
100
AcDbArc
 50
187.0891607081
 51
187.2673179351
  0
ARC
  5
2EC
100
AcDbEntity
  8
0
100
AcDbCircle
 62
7
  6
CONTINUOUS
 10
15.2709456278
 20
-20.2087151723
 40
61.6151217626
100
AcDbArc
 50
186.9126956161
 51
187.0891696884
  0
ARC
  5
2ED
100
AcDbEntity
  8
0
100
AcDbCircle
 62
7
  6
CONTINUOUS
 10
15.1704591349
 20
-19.386207482
 40
61.5739269367
100
AcDbArc
 50
187.2855740802
 51
188.104531369
  0
ARC
  5
2EE
100
AcDbEntity
  8
0
100
AcDbCircle
 62
7
  6
CONTINUOUS
 10
15.2299805519
 20
-20.2139830919
 40
61.5738194507
100
AcDbArc
 50
187.2673086703
 51
187.4473161768
  0
ARC
  5
2EF
100
AcDbEntity
  8
0
100
AcDbCircle
 62
7
  6
CONTINUOUS
 10
13.5416884055
 20
-20.4933777621
 40
59.8698673975
100
AcDbArc
 50
186.4591957232
 51
186.7694501491
  0
ARC
  5
2F0
100
AcDbEntity
  8
0
100
AcDbCircle
 62
7
  6
CONTINUOUS
 10
12.6646191476
 20
-19.8639194426
 40
59.0414881404
100
AcDbArc
 50
187.1669629139
 51
187.9542030938
  0
ARC
  5
2F1
100
AcDbEntity
  8
0
100
AcDbCircle
 62
7
  6
CONTINUOUS
 10
11.529765462
 20
-20.0085137777
 40
57.8974615632
100
AcDbArc
 50
187.0045509976
 51
187.1651035039
  0
ARC
  5
2F2
100
AcDbEntity
  8
0
100
AcDbCircle
 62
7
  6
CONTINUOUS
 10
9.9151538212
 20
-20.2047478547
 40
56.2709702789
100
AcDbArc
 50
186.5112088398
 51
187.0067192543
  0
ARC
  5
2F3
100
AcDbEntity
  8
0
100
AcDbCircle
 62
7
  6
CONTINUOUS
 10
8.4720062227
 20
-21.0252783066
 40
54.7776294389
100
AcDbArc
 50
186.9221596649
 51
187.5207386181
  0
ARC
  5
2F4
100
AcDbEntity
  8
0
100
AcDbCircle
 62
7
  6
CONTINUOUS
 10
7.8207198635
 20
-20.249859444
 40
54.1737408786
100
AcDbArc
 50
186.0807774315
 51
186.4979950348
  0
ARC
  5
2F5
100
AcDbEntity
  8
0
100
AcDbCircle
 62
7
  6
CONTINUOUS
 10
7.8173421191
 20
-21.1050243965
 40
54.1181262496
100
AcDbArc
 50
186.4571865019
 51
186.9218799821
  0
ARC
  5
2F6
100
AcDbEntity
  8
0
100
AcDbCircle
 62
7
  6
CONTINUOUS
 10
6.763196706
 20
-20.5661691319
 40
53.0983599884
100
AcDbArc
 50
186.3344145892
 51
186.5094114959
  0
ARC
  5
2F7
100
AcDbEntity
  8
0
100
AcDbCircle
 62
7
  6
CONTINUOUS
 10
3.1610738121
 20
-20.9623413521
 40
49.4745184786
100
AcDbArc
 50
185.7751446592
 51
186.3386687152
  0
ARC
  5
2F8
100
AcDbEntity
  8
0
100
AcDbCircle
 62
7
  6
CONTINUOUS
 10
3.0641180809
 20
-20.9711111802
 40
49.3902361294
100
AcDbArc
 50
187.7404535635
 51
188.4101602644
  0
ARC
  5
2F9
100
AcDbEntity
  8
0
100
AcDbCircle
 62
7
  6
CONTINUOUS
 10
1.7933355754
 20
-21.1438114091
 40
48.1077706436
100
AcDbArc
 50
187.2388185118
 51
187.6318693602
  0
ARC
  5
2FA
100
AcDbEntity
  8
0
100
AcDbCircle
 62
7
  6
CONTINUOUS
 10
1.4716628009
 20
-21.7627039101
 40
47.7383256857
100
AcDbArc
 50
184.98430285
 51
185.3317905916
  0
ARC
  5
2FB
100
AcDbEntity
  8
0
100
AcDbCircle
 62
7
  6
CONTINUOUS
 10
1.1547821712
 20
-19.8122690605
 40
47.3936622878
100
AcDbArc
 50
188.7277206074
 51
190.1875599404
  0
ARC
  5
2FC
100
AcDbEntity
  8
0
100
AcDbCircle
 62
7
  6
CONTINUOUS
 10
0.8708114884
 20
-19.8475314329
 40
47.3072419567
100
AcDbArc
 50
188.8675543087
 51
190.0048608855
  0
ARC
  5
2FD
100
AcDbEntity
  8
0
100
AcDbCircle
 62
7
  6
CONTINUOUS
 10
-0.333244219
 20
-21.4102834725
 40
45.9645579389
100
AcDbArc
 50
186.835413144
 51
187.075307336
  0
ARC
  5
2FE
100
AcDbEntity
  8
0
100
AcDbCircle
 62
7
  6
CONTINUOUS
 10
-2.2102374033
 20
-20.684415424
 40
44.1610150854
100
AcDbArc
 50
188.482978867
 51
189.6288434778
  0
ARC
  5
2FF
100
AcDbEntity
  8
0
100
AcDbCircle
 62
7
  6
CONTINUOUS
 10
-2.1493454684
 20
-21.6270970398
 40
44.1355606528
100
AcDbArc
 50
186.4153515363
 51
186.8365499059
  0
ARC
  5
300
100
AcDbEntity
  8
0
100
AcDbCircle
 62
7
  6
CONTINUOUS
 10
-3.2843903715
 20
-21.6014627432
 40
42.997421052
100
AcDbArc
 50
184.9274748191
 51
185.575910998
  0
ARC
  5
301
100
AcDbEntity
  8
0
100
AcDbCircle
 62
7
  6
CONTINUOUS
 10
-3.6116713792
 20
-20.5599805423
 40
42.7685140779
100
AcDbArc
 50
188.6655200498
 51
188.8501992826
  0
ARC
  5
302
100
AcDbEntity
  8
0
100
AcDbCircle
 62
7
  6
CONTINUOUS
 10
-4.2812817962
 20
-21.8665601591
 40
41.9902174775
100
AcDbArc
 50
185.9768115838
 51
186.3924711558
  0
ARC
  5
303
100
AcDbEntity
  8
0
100
AcDbCircle
 62
7
  6
CONTINUOUS
 10
-5.8901877296
 20
-22.0348617856
 40
40.3725318665
100
AcDbArc
 50
185.5245359594
 51
185.9180541445
  0
ARC
  5
304
100
AcDbEntity
  8
0
100
AcDbCircle
 62
7
  6
CONTINUOUS
 10
-7.7025462345
 20
-22.2059950315
 40
38.5521087986
100
AcDbArc
 50
184.5953482223
 51
185.4008995809
  0
SPLINE
  5
305
100
AcDbEntity
  8
RACCORDO
100
AcDbSpline
 62
253
  6
CONTINUOUS
 70
0
 71
3
 72
20
 73
16
 74
14
 42
0.0000001
 43
0.0000001
 44
0.0000000001
 12
-25.2876652075
 22
-0.0015698146
 32
0.0
 13
-25.2749342419
 23
0.8023173783
 33
0.0
 40
0.0
 40
0.0
 40
0.0
 40
0.0
 40
0.2500056814
 40
0.5000103681
 40
0.6250116537
 40
0.687511733
 40
0.7500116354
 40
0.812510297
 40
0.8437594123
 40
0.8750086808
 40
0.9062578421
 40
0.9375070405
 40
0.9531316819
 40
0.9687563308
 40
1.0
 40
1.0
 40
1.0
 40
1.0
 10
19.9424407484
 20
-38.4917645814
 30
0.0
 10
17.8350874246
 20
-38.4918954022
 30
0.0
 10
13.6204150337
 20
-38.5070858247
 30
0.0
 10
8.3519869991
 20
-38.4936391147
 30
0.0
 10
4.6643569424
 20
-38.4534017091
 30
0.0
 10
2.5572051613
 20
-38.4273661662
 30
0.0
 10
0.9768171782
 20
-38.4105469515
 30
0.0
 10
-0.3399789362
 20
-38.3840182147
 30
0.0
 10
-1.3935414645
 20
-38.3719462651
 30
0.0
 10
-2.1836642031
 20
-38.3595635373
 30
0.0
 10
-2.9738017745
 20
-38.3482427737
 30
0.0
 10
-3.6322640415
 20
-38.339575516
 30
0.0
 10
-4.1590175545
 20
-38.3320423523
 30
0.0
 10
-4.6858073754
 20
-38.3282742951
 30
0.0
 10
-5.0805445994
 20
-38.3102833094
 30
0.0
 10
-5.343771828
 20
-38.3019275298
 30
0.0
 11
19.9424407484
 21
-38.4917645814
 31
0.0
 11
13.6203869371
 21
-38.5005988759
 31
0.0
 11
7.2983883002
 21
-38.4792068954
 31
0.0
 11
4.1375654113
 21
-38.4466391548
 31
0.0
 11
2.5571964036
 21
-38.4278173526
 31
0.0
 11
0.9768434895
 21
-38.4080442158
 31
0.0
 11
-0.6033832104
 21
-38.3817627639
 31
0.0
 11
-1.3935323164
 21
-38.3713914843
 31
0.0
 11
-2.1836674627
 21
-38.3597405196
 31
0.0
 11
-2.9738043571
 21
-38.3483961198
 31
0.0
 11
-3.7639504496
 21
-38.3376422872
 31
0.0
 11
-4.1590278574
 21
-38.3325129503
 31
0.0
 11
-4.5541073317
 21
-38.3275306472
 31
0.0
 11
-5.343771828
 21
-38.3019275298
 31
0.0
  0
SPLINE
  5
306
100
AcDbEntity
  8
RACCORDO
100
AcDbSpline
 62
253
  6
CONTINUOUS
 70
0
 71
3
 72
12
 73
8
 74
6
 42
0.0000001
 43
0.0000001
 44
0.0000000001
 12
-25.2499517476
 22
0.0000745654
 32
0.0
 13
-25.2499046828
 23
-0.0487521528
 33
0.0
 40
0.0
 40
0.0
 40
0.0
 40
0.0
 40
0.2500094659
 40
0.5000179851
 40
0.7500166823
 40
0.8750105008
 40
1.0
 40
1.0
 40
1.0
 40
1.0
 10
19.9423900102
 20
-39.156258042
 30
0.0
 10
17.8381476935
 20
-39.156251828
 30
0.0
 10
13.6296710311
 20
-39.15556185
 30
0.0
 10
7.3170427498
 20
-39.1562436347
 30
0.0
 10
2.0566274224
 20
-39.1585397579
 30
0.0
 10
-2.1515442772
 20
-39.1623660406
 30
0.0
 10
-4.2555682714
 20
-39.1622327132
 30
0.0
 10
-5.3075592516
 20
-39.1642638823
 30
0.0
 11
19.9423900102
 21
-39.156258042
 31
0.0
 11
13.6296630732
 21
-39.1558479766
 31
0.0
 11
7.31696007
 21
-39.1565892578
 31
0.0
 11
1.0045057766
 21
-39.159662181
 31
0.0
 11
-2.1515813481
 21
-39.1618544535
 31
0.0
 11
-5.3075592516
 21
-39.1642638823
 31
0.0
  0
SPLINE
  5
307
100
AcDbEntity
  8
RACCORDO
100
AcDbSpline
 62
253
  6
CONTINUOUS
 70
0
 71
3
 72
15
 73
11
 74
9
 42
0.0000001
 43
0.0000001
 44
0.0000000001
 12
0.4978708642
 22
0.7062461999
 32
0.0
 13
0.0060432219
 23
0.8640732445
 33
0.0
 40
0.0
 40
0.0
 40
0.0
 40
0.0
 40
0.0102156579
 40
0.0286668888
 40
0.0902255248
 40
0.1834456403
 40
0.3054341301
 40
0.4527295669
 40
0.6210735482
 40
1.0
 40
1.0
 40
1.0
 40
1.0
 10
68.6924407484
 20
-39.1642638823
 30
0.0
 10
68.6941361079
 20
-39.1618589591
 30
0.0
 10
68.696315679
 20
-39.1536422759
 30
0.0
 10
68.7012309512
 20
-39.1283447545
 30
0.0
 10
68.7059654264
 20
-39.0783970174
 30
0.0
 10
68.7115507671
 20
-38.9990095542
 30
0.0
 10
68.716471893
 20
-38.8946499645
 30
0.0
 10
68.720876903
 20
-38.7686949314
 30
0.0
 10
68.7258567918
 20
-38.5686889087
 30
0.0
 10
68.7278900123
 20
-38.411067598
 30
0.0
 10
68.7286533245
 20
-38.3019275284
 30
0.0
 11
68.6924407484
 21
-39.1642638823
 31
0.0
 11
68.6956110572
 21
-39.1560255428
 31
0.0
 11
68.6987670495
 21
-39.1403974192
 31
0.0
 11
68.7049250473
 21
-39.0875626006
 31
0.0
 11
68.710703486
 21
-39.0072191525
 31
0.0
 11
68.7159343876
 21
-38.901939455
 31
0.0
 11
68.7204659841
 21
-38.7747429937
 31
0.0
 11
68.7241680693
 21
-38.6293250228
 31
0.0
 11
68.7286533245
 21
-38.3019275284
 31
0.0
  0
SPLINE
  5
308
100
AcDbEntity
  8
RACCORDO
100
AcDbSpline
 62
253
  6
CONTINUOUS
 70
0
 71
3
 72
20
 73
16
 74
14
 42
0.0000001
 43
0.0000001
 44
0.0000000001
 12
-25.2749337351
 22
-0.8023277735
 32
0.0
 13
-25.2876650307
 23
0.0015698825
 33
0.0
 40
0.0
 40
0.0
 40
0.0
 40
0.0
 40
0.0312436535
 40
0.0468683081
 40
0.0624929502
 40
0.0937421499
 40
0.1249913127
 40
0.1562405837
 40
0.1874897014
 40
0.2499883408
 40
0.3124882587
 40
0.3749883431
 40
0.4999896307
 40
0.7499943103
 40
1.0
 40
1.0
 40
1.0
 40
1.0
 10
68.7286533245
 20
-38.3019275284
 30
0.0
 10
68.4654262342
 20
-38.310283412
 30
0.0
 10
68.070689082
 20
-38.328274101
 30
0.0
 10
67.5438993378
 20
-38.3320415275
 30
0.0
 10
67.0171457842
 20
-38.3395763722
 30
0.0
 10
66.3586834543
 20
-38.3482407923
 30
0.0
 10
65.568545946
 20
-38.3595691852
 30
0.0
 10
64.7784228998
 20
-38.3719323103
 30
0.0
 10
63.7248620578
 20
-38.3841181261
 30
0.0
 10
62.4080637175
 20
-38.4104948946
 30
0.0
 10
60.8276774153
 20
-38.4274375886
 30
0.0
 10
58.7205241265
 20
-38.4533664978
 30
0.0
 10
55.0328948197
 20
-38.4936598129
 30
0.0
 10
49.7644663922
 20
-38.5070776221
 30
0.0
 10
45.5497941272
 20
-38.4918954063
 30
0.0
 10
43.4424407484
 20
-38.4917645798
 30
0.0
 11
68.7286533245
 21
-38.3019275284
 31
0.0
 11
67.9389892212
 21
-38.3275302728
 31
0.0
 11
67.5439096002
 21
-38.3325124149
 31
0.0
 11
67.1488321878
 21
-38.3376423941
 31
0.0
 11
66.3586860634
 21
-38.3483959773
 31
0.0
 11
65.5685491531
 21
-38.3597416287
 31
0.0
 11
64.7784139852
 21
-38.3713950302
 31
0.0
 11
63.9882654603
 21
-38.3818145908
 31
0.0
 11
62.4080384561
 21
-38.4080431278
 31
0.0
 11
60.8276856414
 21
-38.4278548666
 31
0.0
 11
59.2473161065
 21
-38.4466421518
 31
0.0
 11
56.0864931323
 21
-38.4792043687
 31
0.0
 11
49.764494725
 21
-38.5005985052
 31
0.0
 11
43.4424407484
 21
-38.4917645798
 31
0.0
  0
SPLINE
  5
309
100
AcDbEntity
  8
RACCORDO
100
AcDbSpline
 62
253
  6
CONTINUOUS
 70
0
 71
3
 72
12
 73
8
 74
6
 42
0.0000001
 43
0.0000001
 44
0.0000000001
 12
-25.249904781
 22
0.048752236
 32
0.0
 13
-25.249951846
 23
-0.00007448
 33
0.0
 40
0.0
 40
0.0
 40
0.0
 40
0.0
 40
0.1249895007
 40
0.2499833111
 40
0.4999820178
 40
0.7499905314
 40
1.0
 40
1.0
 40
1.0
 40
1.0
 10
68.6924407484
 20
-39.1642638823
 30
0.0
 10
67.6404497517
 20
-39.1622327097
 30
0.0
 10
65.5364258043
 20
-39.1623664968
 30
0.0
 10
61.3282540653
 20
-39.1585375284
 30
0.0
 10
56.0678387507
 20
-39.1562443549
 30
0.0
 10
49.7552103901
 20
-39.1555616566
 30
0.0
 10
45.5467337361
 20
-39.1562518351
 30
0.0
 10
43.4424913885
 20
-39.156258042
 30
0.0
 11
68.6924407484
 21
-39.1642638823
 31
0.0
 11
65.5364627952
 21
-39.1618544591
 31
0.0
 11
62.3803758624
 21
-39.1596610435
 31
0.0
 11
56.0679213033
 21
-39.1565892358
 31
0.0
 11
49.755218418
 21
-39.1558479856
 31
0.0
 11
43.4424913885
 21
-39.156258042
 31
0.0
  0
SPLINE
  5
30A
100
AcDbEntity
  8
RACCORDO
100
AcDbSpline
 62
253
  6
CONTINUOUS
 70
0
 71
3
 72
15
 73
11
 74
9
 42
0.0000001
 43
0.0000001
 44
0.0000000001
 12
-0.6077496173
 22
-0.611185653
 32
0.0
 13
-0.8618761551
 23
-0.0087745673
 33
0.0
 40
0.0
 40
0.0
 40
0.0
 40
0.0
 40
0.0108564627
 40
0.0296319919
 40
0.0914488496
 40
0.1846617558
 40
0.3064875759
 40
0.4535277519
 40
0.6215770825
 40
1.0
 40
1.0
 40
1.0
 40
1.0
 10
71.4610499519
 20
-36.3948357539
 30
0.0
 10
71.4588506149
 20
-36.3970475254
 30
0.0
 10
71.4506487931
 20
-36.4003887112
 30
0.0
 10
71.4255306006
 20
-36.4071683375
 30
0.0
 10
71.3757110431
 20
-36.4141301808
 30
0.0
 10
71.2967227331
 20
-36.4219684045
 30
0.0
 10
71.1928503729
 20
-36.4290210472
 30
0.0
 10
71.0674995589
 20
-36.4352813338
 30
0.0
 10
70.8683598349
 20
-36.4423960635
 30
0.0
 10
70.71137202
 20
-36.4453101708
 30
0.0
 10
70.6026541237
 20
-36.4464170033
 30
0.0
 11
71.4610499519
 21
-36.3948357539
 31
0.0
 11
71.4528491397
 21
-36.3993421744
 31
0.0
 11
71.4373003712
 21
-36.4038283664
 31
0.0
 11
71.384743313
 21
-36.412583126
 31
0.0
 11
71.3048226027
 21
-36.4208014133
 31
0.0
 11
71.2000826022
 21
-36.4282456447
 31
0.0
 11
71.0735101256
 21
-36.434701073
 31
0.0
 11
70.9287612557
 21
-36.4399832589
 31
0.0
 11
70.6026541237
 21
-36.4464170033
 31
0.0
  0
SPLINE
  5
30B
100
AcDbEntity
  8
RACCORDO
100
AcDbSpline
 62
253
  6
CONTINUOUS
 70
0
 71
3
 72
11
 73
7
 74
5
 42
0.0000001
 43
0.0000001
 44
0.0000000001
 12
-0.1050290837
 22
-2.8815944537
 32
0.0
 13
-2.8820565496
 23
-0.0914753994
 33
0.0
 40
0.0
 40
0.0
 40
0.0
 40
0.0
 40
0.2500977701
 40
0.5001784423
 40
0.7501645277
 40
1.0
 40
1.0
 40
1.0
 40
1.0
 10
70.6026541237
 20
-36.4464170033
 30
0.0
 10
70.5938982771
 20
-36.6866437856
 30
0.0
 10
70.481274911
 20
-37.1682189281
 30
0.0
 10
70.0614168409
 20
-37.7742731643
 30
0.0
 10
69.450588615
 20
-38.1868040008
 30
0.0
 10
68.9686666444
 20
-38.2943095956
 30
0.0
 10
68.7286533246
 20
-38.3019275288
 30
0.0
 11
70.6026541237
 21
-36.4464170033
 31
0.0
 11
70.4394380772
 21
-37.1488632066
 31
0.0
 11
70.0294906146
 21
-37.7421103035
 31
0.0
 11
69.4317558107
 21
-38.1449984576
 31
0.0
 11
68.7286533246
 21
-38.3019275288
 31
0.0
  0
SPLINE
  5
30C
100
AcDbEntity
  8
RACCORDO
100
AcDbSpline
 62
253
  6
CONTINUOUS
 70
0
 71
3
 72
27
 73
23
 74
21
 42
0.0000001
 43
0.0000001
 44
0.0000000001
 12
0.0002269043
 22
-37.0537299212
 32
0.0
 13
-1.3415163144
 23
-37.0294374128
 33
0.0
 40
0.0
 40
0.0
 40
0.0
 40
0.0
 40
0.2500041149
 40
0.500008185
 40
0.6250101827
 40
0.6875111656
 40
0.7500121196
 40
0.8125128851
 40
0.8750130269
 40
0.9062626743
 40
0.9218873711
 40
0.9375119983
 40
0.9531365689
 40
0.9609488503
 40
0.9648549666
 40
0.9687611575
 40
0.9726670266
 40
0.9765735566
 40
0.9804796516
 40
0.984385321
 40
0.9921942992
 40
1.0
 40
1.0
 40
1.0
 40
1.0
 10
70.7894206475
 20
0.6051642412
 30
0.0
 10
70.7894395565
 20
-2.4826974102
 30
0.0
 10
70.788207351
 20
-8.6584205001
 30
0.0
 10
70.7794973085
 20
-16.3780701626
 30
0.0
 10
70.7681499386
 20
-21.7818148774
 30
0.0
 10
70.7603326076
 20
-24.8696640491
 30
0.0
 10
70.7533727489
 20
-27.185546478
 30
0.0
 10
70.738013136
 20
-29.5013849419
 30
0.0
 10
70.7156177533
 20
-31.4311510867
 30
0.0
 10
70.6960566866
 20
-32.7819203332
 30
0.0
 10
70.6845310219
 20
-33.5537744057
 30
0.0
 10
70.6759229082
 20
-34.1326609368
 30
0.0
 10
70.668436441
 20
-34.6150618479
 30
0.0
 10
70.6639114858
 20
-34.9527496489
 30
0.0
 10
70.6604261011
 20
-35.1457052835
 30
0.0
 10
70.65847298
 20
-35.2904153892
 30
0.0
 10
70.6584686035
 20
-35.4352082574
 30
0.0
 10
70.648569536
 20
-35.5796741825
 30
0.0
 10
70.6370825535
 20
-35.7239402011
 30
0.0
 10
70.6255363789
 20
-35.9165435161
 30
0.0
 10
70.6136791417
 20
-36.1573533089
 30
0.0
 10
70.6061450365
 20
-36.3500702547
 30
0.0
 10
70.6026545448
 20
-36.4464171582
 30
0.0
 11
70.7894206475
 21
0.6051642412
 31
0.0
 11
70.7867733934
 21
-8.6584203347
 31
0.0
 11
70.775755169
 21
-17.9219970719
 31
0.0
 11
70.7660845114
 21
-22.5537772399
 31
0.0
 11
70.7601497951
 21
-24.8696641755
 31
0.0
 11
70.7519727681
 21
-27.1855432102
 31
0.0
 11
70.7360939013
 21
-29.5013752586
 31
0.0
 11
70.7096588226
 21
-31.817087752
 31
0.0
 11
70.6931462287
 21
-32.9748859995
 31
0.0
 11
70.6845370213
 21
-33.5537752835
 31
0.0
 11
70.675860286
 21
-34.1326609757
 31
0.0
 11
70.6672117431
 21
-34.7115449928
 31
0.0
 11
70.6629651624
 21
-35.0009880065
 31
0.0
 11
70.6605362614
 21
-35.1457038048
 31
0.0
 11
70.6587977415
 21
-35.290432307
 31
0.0
 11
70.6568197529
 21
-35.4351458068
 31
0.0
 11
70.648304444
 21
-35.5796466308
 31
0.0
 11
70.6375530495
 21
-35.7239821471
 31
0.0
 11
70.6285930638
 21
-35.8684241316
 31
0.0
 11
70.6141650339
 21
-36.1574159596
 31
0.0
 11
70.6026545448
 21
-36.4464171582
 31
0.0
  0
SPLINE
  5
30D
100
AcDbEntity
  8
RACCORDO
100
AcDbSpline
 62
253
  6
CONTINUOUS
 70
0
 71
3
 72
13
 73
9
 74
7
 42
0.0000001
 43
0.0000001
 44
0.0000000001
 12
-0.0000113776
 22
-37.000002214
 32
0.0
 13
0.1019137104
 23
-36.9998618569
 33
0.0
 40
0.0
 40
0.0
 40
0.0
 40
0.0
 40
0.2500070721
 40
0.5000140276
 40
0.7500205769
 40
0.8750212139
 40
0.9375186913
 40
1.0
 40
1.0
 40
1.0
 40
1.0
 10
71.4538609285
 20
0.6051641646
 30
0.0
 10
71.4538599803
 20
-2.4782565762
 30
0.0
 10
71.4538929075
 20
-8.6450965901
 30
0.0
 10
71.4544281269
 20
-17.8953510529
 30
0.0
 10
71.4549592997
 20
-25.6038588132
 30
0.0
 10
71.4562784517
 20
-30.9997506608
 30
0.0
 10
71.4586346424
 20
-34.0828285298
 30
0.0
 10
71.4589501722
 20
-35.6242358289
 30
0.0
 10
71.4610727396
 20
-36.3948357588
 30
0.0
 11
71.4538609285
 21
0.6051641646
 31
0.0
 11
71.4539738791
 21
-8.645098057
 31
0.0
 11
71.4544451591
 21
-17.8953559525
 31
0.0
 11
71.4554264347
 21
-27.1455987755
 31
0.0
 11
71.4570011175
 21
-31.7706223543
 31
0.0
 11
71.4584191234
 21
-34.0830287222
 31
0.0
 11
71.4610727396
 21
-36.3948357588
 31
0.0
  0
SPLINE
  5
30E
100
AcDbEntity
  8
RACCORDO
100
AcDbSpline
 62
253
  6
CONTINUOUS
 70
0
 71
3
 72
15
 73
11
 74
9
 42
0.0000001
 43
0.0000001
 44
0.0000000001
 12
-0.6077785285
 22
0.611188416
 32
0.0
 13
-0.8618985119
 23
0.0087735298
 33
0.0
 40
0.0
 40
0.0
 40
0.0
 40
0.0
 40
0.0108566776
 40
0.0296324988
 40
0.0914500584
 40
0.1846636814
 40
0.3064900461
 40
0.4535304142
 40
0.6215794528
 40
1.0
 40
1.0
 40
1.0
 40
1.0
 10
71.4610727396
 20
37.6051642412
 30
0.0
 10
71.4588732544
 20
37.6073760664
 30
0.0
 10
71.4506710724
 20
37.6107173196
 30
0.0
 10
71.425551847
 20
37.6174970955
 30
0.0
 10
71.3757305116
 20
37.624459065
 30
0.0
 10
71.2967395682
 20
37.6322973979
 30
0.0
 10
71.192864092
 20
37.639350091
 30
0.0
 10
71.0675098902
 20
37.6456103686
 30
0.0
 10
70.868365704
 20
37.6527249872
 30
0.0
 10
70.7113745797
 20
37.6556389458
 30
0.0
 10
70.6026545442
 20
37.6567456404
 30
0.0
 11
71.4610727396
 21
37.6051642412
 31
0.0
 11
71.4528714983
 21
37.6096707691
 31
0.0
 11
71.4373220603
 21
37.6141570616
 31
0.0
 11
71.3847630168
 21
37.6229119919
 31
0.0
 11
71.3048396037
 21
37.6311303973
 31
0.0
 11
71.2000964077
 21
37.6385746868
 31
0.0
 11
71.073520475
 21
37.6450301086
 31
0.0
 11
70.9287680968
 21
37.6503122233
 31
0.0
 11
70.6026545442
 21
37.6567456404
 31
0.0
  0
SPLINE
  5
30F
100
AcDbEntity
  8
RACCORDO
100
AcDbSpline
 62
253
  6
CONTINUOUS
 70
0
 71
3
 72
27
 73
23
 74
21
 42
0.0000001
 43
0.0000001
 44
0.0000000001
 12
1.3415131462
 22
-37.0294301292
 32
0.0
 13
-0.0002269011
 23
-37.0537225277
 33
0.0
 40
0.0
 40
0.0
 40
0.0
 40
0.0
 40
0.0078057002
 40
0.0156146861
 40
0.0195203335
 40
0.0234264643
 40
0.0273330143
 40
0.031238847
 40
0.0351450788
 40
0.0390512
 40
0.0468634825
 40
0.0624880498
 40
0.078112676
 40
0.0937373721
 40
0.1249870179
 40
0.1874871567
 40
0.2499879191
 40
0.31248887
 40
0.3749898496
 40
0.4999918409
 40
0.749995898
 40
1.0
 40
1.0
 40
1.0
 40
1.0
 10
70.6026545442
 20
37.6567456404
 30
0.0
 10
70.6061450273
 20
37.5603987637
 30
0.0
 10
70.6136767431
 20
37.3676817296
 30
0.0
 10
70.6255400004
 20
37.1268721935
 30
0.0
 10
70.6370559076
 20
36.9342676849
 30
0.0
 10
70.6487378635
 20
36.790010555
 30
0.0
 10
70.6579932078
 20
36.6455164969
 30
0.0
 10
70.6589334522
 20
36.5007418787
 30
0.0
 10
70.6601638673
 20
36.3560212555
 30
0.0
 10
70.6640947334
 20
36.1630720694
 30
0.0
 10
70.6682924938
 20
35.8253792219
 30
0.0
 10
70.6759716396
 20
35.3429814316
 30
0.0
 10
70.6845185052
 20
34.7640941288
 30
0.0
 10
70.6960641997
 20
33.9922405606
 30
0.0
 10
70.7156133798
 20
32.6414714645
 30
0.0
 10
70.7380147639
 20
30.7117058953
 30
0.0
 10
70.7533722037
 20
28.3958679743
 30
0.0
 10
70.7603311028
 20
26.0799861291
 30
0.0
 10
70.768150835
 20
22.992137737
 30
0.0
 10
70.7794966802
 20
17.5883943774
 30
0.0
 10
70.7882075867
 20
9.8687466557
 30
0.0
 10
70.7894395562
 20
3.6930251167
 30
0.0
 10
70.7894206475
 20
0.6051642412
 30
0.0
 11
70.6026545442
 21
37.6567456404
 31
0.0
 11
70.6141644346
 21
37.3677444992
 31
0.0
 11
70.6285862118
 21
37.0787521268
 31
0.0
 11
70.6375626256
 21
36.9343120083
 31
0.0
 11
70.6483330055
 21
36.7899766097
 31
0.0
 11
70.6566076613
 21
36.6454610932
 31
0.0
 11
70.6589817824
 21
36.5007549233
 31
0.0
 11
70.6604501723
 21
36.3560219437
 31
0.0
 11
70.6629843401
 21
36.2113078016
 31
0.0
 11
70.6672052878
 21
35.9218644261
 31
0.0
 11
70.6758602732
 21
35.3429807452
 31
0.0
 11
70.6845372163
 21
34.7640952048
 31
0.0
 11
70.6931464992
 21
34.1852060673
 31
0.0
 11
70.7096593775
 21
33.027408111
 31
0.0
 11
70.7360939667
 21
30.7116961867
 31
0.0
 11
70.7519724252
 21
28.3958647113
 31
0.0
 11
70.7601487504
 21
26.0799862545
 31
0.0
 11
70.7660845348
 21
23.7640999044
 31
0.0
 11
70.7757551791
 21
19.1323209
 31
0.0
 11
70.7867733973
 21
9.8687464898
 31
0.0
 11
70.7894206475
 21
0.6051642412
 31
0.0
  0
SPLINE
  5
310
100
AcDbEntity
  8
RACCORDO
100
AcDbSpline
 62
253
  6
CONTINUOUS
 70
0
 71
3
 72
13
 73
9
 74
7
 42
0.0000001
 43
0.0000001
 44
0.0000000001
 12
-0.1019136971
 22
-36.9998620101
 32
0.0
 13
0.0000113794
 23
-37.0000023671
 33
0.0
 40
0.0
 40
0.0
 40
0.0
 40
0.0
 40
0.0624813109
 40
0.1249787883
 40
0.2499794251
 40
0.4999859737
 40
0.7499929285
 40
1.0
 40
1.0
 40
1.0
 40
1.0
 10
71.4610727396
 20
37.6051642412
 30
0.0
 10
71.4589501724
 20
36.8345642803
 30
0.0
 10
71.4586346348
 20
35.2931569482
 30
0.0
 10
71.4562784583
 20
32.2100790416
 30
0.0
 10
71.4549593
 20
26.8141871828
 30
0.0
 10
71.4544281248
 20
19.1056794089
 30
0.0
 10
71.453892908
 20
9.8554249327
 30
0.0
 10
71.4538599802
 20
3.6885849098
 30
0.0
 10
71.4538609285
 20
0.6051641646
 30
0.0
 11
71.4610727396
 21
37.6051642412
 31
0.0
 11
71.4584191195
 21
35.2933571118
 31
0.0
 11
71.457001119
 21
32.9809507376
 31
0.0
 11
71.4554264373
 21
28.3559271451
 31
0.0
 11
71.4544451579
 21
19.1056843085
 31
0.0
 11
71.4539738789
 21
9.8554263995
 31
0.0
 11
71.4538609285
 21
0.6051641646
 31
0.0
  0
SPLINE
  5
311
100
AcDbEntity
  8
RACCORDO
100
AcDbSpline
 62
253
  6
CONTINUOUS
 70
0
 71
3
 72
13
 73
9
 74
7
 42
0.0000001
 43
0.0000001
 44
0.0000000001
 12
0.0002110724
 22
-1.609375935
 32
0.0
 13
-0.0031344978
 23
-1.6093638191
 33
0.0
 40
0.0
 40
0.0
 40
0.0
 40
0.0
 40
0.1498773128
 40
0.3174079996
 40
0.4895815962
 40
0.6532470401
 40
0.9062302415
 40
1.0
 40
1.0
 40
1.0
 40
1.0
 10
53.890758335
 20
24.7144622836
 30
0.0
 10
53.89076888
 20
24.6340593034
 30
0.0
 10
53.89670954
 20
24.4638462522
 30
0.0
 10
53.899022184
 20
24.2011979829
 30
0.0
 10
53.8960504279
 20
23.931171013
 30
0.0
 10
53.8929364994
 20
23.615307665
 30
0.0
 10
53.8927364636
 20
23.3414862915
 30
0.0
 10
53.8925387231
 20
23.15546746
 30
0.0
 10
53.8924407494
 20
23.1051642412
 30
0.0
 11
53.890758335
 21
24.7144622836
 31
0.0
 11
53.8953888802
 21
24.473297792
 31
0.0
 11
53.8981222081
 21
24.2036917893
 31
0.0
 11
53.8960545112
 21
23.9266074587
 31
0.0
 11
53.8937236437
 21
23.6632185428
 31
0.0
 11
53.8926411473
 21
23.2560749022
 31
0.0
 11
53.8924407494
 21
23.1051642412
 31
0.0
  0
SPLINE
  5
312
100
AcDbEntity
  8
RACCORDO
100
AcDbSpline
 62
253
  6
CONTINUOUS
 70
0
 71
3
 72
24
 73
20
 74
18
 42
0.0000001
 43
0.0000001
 44
0.0000000001
 12
-1.6111994161
 22
0.0001994332
 32
0.0
 13
-0.0002828639
 23
1.6111994036
 33
0.0
 40
0.0
 40
0.0
 40
0.0
 40
0.0
 40
0.1496723516
 40
0.3171052395
 40
0.4034104328
 40
0.48927469
 40
0.5730147425
 40
0.6529926022
 40
0.7276837256
 40
0.7956105363
 40
0.8554949984
 40
0.9061462562
 40
0.9465983356
 40
0.9627558981
 40
0.9760742164
 40
0.9864916532
 40
0.9939740076
 40
0.9984879082
 40
1.0
 40
1.0
 40
1.0
 40
1.0
 10
55.803607042
 20
22.8032215866
 30
0.0
 10
55.7232230402
 20
22.8032315365
 30
0.0
 10
55.5529486534
 20
22.8078337587
 30
0.0
 10
55.336279566
 20
22.8071363704
 30
0.0
 10
55.153891407
 20
22.80716072
 30
0.0
 10
55.016453056
 20
22.8079783692
 30
0.0
 10
54.8824097905
 20
22.8082733827
 30
0.0
 10
54.7543708602
 20
22.8073208893
 30
0.0
 10
54.6348278781
 20
22.8060753493
 30
0.0
 10
54.526073955
 20
22.8055229062
 30
0.0
 10
54.4302197002
 20
22.8054694396
 30
0.0
 10
54.3491522652
 20
22.805474075
 30
0.0
 10
54.2914915638
 20
22.8053135631
 30
0.0
 10
54.2540206858
 20
22.8053226919
 30
0.0
 10
54.2324142418
 20
22.8051112476
 30
0.0
 10
54.2161193609
 20
22.8055638708
 30
0.0
 10
54.203007704
 20
22.8045086667
 30
0.0
 10
54.1976483954
 20
22.8063867542
 30
0.0
 10
54.1924408725
 20
22.8044574944
 30
0.0
 10
54.1924407299
 20
22.8052695882
 30
0.0
 11
55.803607042
 21
22.8032215866
 31
0.0
 11
55.5624763601
 21
22.8064285868
 31
0.0
 11
55.2927096755
 21
22.8071950397
 31
0.0
 11
55.1536548339
 21
22.8072958784
 31
0.0
 11
55.0153117006
 21
22.8078976496
 31
0.0
 11
54.880389869
 21
22.8080560774
 31
0.0
 11
54.751532212
 21
22.8072335853
 31
0.0
 11
54.6311947982
 21
22.8061496647
 31
0.0
 11
54.5217525976
 21
22.8055886356
 31
0.0
 11
54.4252668507
 21
22.8054773893
 31
0.0
 11
54.343657586
 21
22.8054313819
 31
0.0
 11
54.2784813068
 21
22.8053242379
 31
0.0
 11
54.252448298
 21
22.8052749623
 31
0.0
 11
54.2309898538
 21
22.8052438303
 31
0.0
 11
54.214205289
 21
22.8052330945
 31
0.0
 11
54.2021497247
 21
22.8052374785
 31
0.0
 11
54.1948769441
 21
22.8052514779
 31
0.0
 11
54.1924407299
 21
22.8052695882
 31
0.0
  0
SPLINE
  5
313
100
AcDbEntity
  8
RACCORDO
100
AcDbSpline
 62
253
  6
CONTINUOUS
 70
0
 71
3
 72
13
 73
9
 74
7
 42
0.0000001
 43
0.0000001
 44
0.0000000001
 12
-1.6111971703
 22
-0.0002377971
 32
0.0
 13
-1.6111776952
 23
0.008389649
 33
0.0
 40
0.0
 40
0.0
 40
0.0
 40
0.0
 40
0.1496728256
 40
0.3171059468
 40
0.6529923225
 40
0.79561005
 40
0.9061460402
 40
1.0
 40
1.0
 40
1.0
 40
1.0
 10
55.8036071561
 20
-21.5929146412
 30
0.0
 10
55.7232230118
 20
-21.5929265051
 30
0.0
 10
55.5529508673
 20
-21.5977093306
 30
0.0
 10
55.2022362447
 20
-21.5967309022
 30
0.0
 10
54.8553265421
 20
-21.5982730747
 30
0.0
 10
54.5389840944
 20
-21.5949478493
 30
0.0
 10
54.3526170529
 20
-21.5951397685
 30
0.0
 10
54.242845884
 20
-21.5950982262
 30
0.0
 10
54.1924407484
 20
-21.594835759
 30
0.0
 11
55.8036071561
 21
-21.5929146412
 31
0.0
 11
55.5624780657
 21
-21.5962700837
 31
0.0
 11
55.2927118936
 21
-21.5971997436
 31
0.0
 11
54.7515328286
 21
-21.5968405975
 31
0.0
 11
54.5217529509
 21
-21.5952647439
 31
0.0
 11
54.343657747
 21
-21.5951037829
 31
0.0
 11
54.1924407484
 21
-21.594835759
 31
0.0
  0
SPLINE
  5
314
100
AcDbEntity
  8
RACCORDO
100
AcDbSpline
 62
253
  6
CONTINUOUS
 70
0
 71
3
 72
22
 73
18
 74
16
 42
0.0000001
 43
0.0000001
 44
0.0000000001
 12
0.0001808393
 22
1.6093709217
 32
0.0
 13
1.6093709138
 23
0.0002411841
 33
0.0
 40
0.0
 40
0.0
 40
0.0
 40
0.0
 40
0.149877339
 40
0.3174075948
 40
0.4895817487
 40
0.6532472125
 40
0.727897154
 40
0.7957799669
 40
0.8556201804
 40
0.9062303552
 40
0.9466474683
 40
0.9627905219
 40
0.9760966747
 40
0.9865044619
 40
0.9939797869
 40
0.9984893837
 40
1.0
 40
1.0
 40
1.0
 40
1.0
 10
53.8907474536
 20
-23.5041339719
 30
0.0
 10
53.8907564881
 20
-23.4237312282
 30
0.0
 10
53.8966361821
 20
-23.2535168363
 30
0.0
 10
53.8986561988
 20
-22.9908681789
 30
0.0
 10
53.8960014087
 20
-22.720840384
 30
0.0
 10
53.8939035457
 20
-22.5006411745
 30
0.0
 10
53.8932050529
 20
-22.3363790918
 30
0.0
 10
53.8929030792
 20
-22.2278177096
 30
0.0
 10
53.8927434132
 20
-22.1321417804
 30
0.0
 10
53.8926642359
 20
-22.0512309338
 30
0.0
 10
53.8925346057
 20
-21.993684259
 30
0.0
 10
53.892577269
 20
-21.9562888515
 30
0.0
 10
53.8923809093
 20
-21.9347265493
 30
0.0
 10
53.8928382956
 20
-21.9184652308
 30
0.0
 10
53.8917800583
 20
-21.9053806487
 30
0.0
 10
53.8936554274
 20
-21.9000326028
 30
0.0
 10
53.8917203144
 20
-21.8948358668
 30
0.0
 10
53.8925306951
 20
-21.8948357453
 30
0.0
 11
53.8907474536
 21
-23.5041339719
 31
0.0
 11
53.8952902106
 21
-23.2629685206
 31
0.0
 11
53.8978604066
 21
-22.9933624474
 31
0.0
 11
53.8959709564
 21
-22.716276811
 31
0.0
 11
53.8937666476
 21
-22.4528875947
 31
0.0
 11
53.893220464
 21
-22.3327493904
 31
0.0
 11
53.8929126115
 21
-22.2235011983
 31
0.0
 11
53.8927471615
 21
-22.1271962403
 31
0.0
 11
53.8926396183
 21
-22.0457457671
 31
0.0
 11
53.892557815
 21
-21.9806996916
 31
0.0
 11
53.8925300018
 21
-21.9547195453
 31
0.0
 11
53.8925129045
 21
-21.9333050165
 31
0.0
 11
53.8925062183
 21
-21.9165550277
 31
0.0
 11
53.8925081678
 21
-21.9045244571
 31
0.0
 11
53.8925169333
 21
-21.8972668484
 31
0.0
 11
53.8925306951
 21
-21.8948357453
 31
0.0
  0
SPLINE
  5
315
100
AcDbEntity
  8
RACCORDO
100
AcDbSpline
 62
253
  6
CONTINUOUS
 70
0
 71
3
 72
13
 73
9
 74
7
 42
0.0000001
 43
0.0000001
 44
0.0000000001
 12
-0.0002110724
 22
1.6093759401
 32
0.0
 13
0.0031346375
 23
1.6093638229
 33
0.0
 40
0.0
 40
0.0
 40
0.0
 40
0.0
 40
0.1498773128
 40
0.3174079998
 40
0.4895815959
 40
0.6532470398
 40
0.9062302414
 40
1.0
 40
1.0
 40
1.0
 40
1.0
 10
9.4941231619
 20
-23.5041338015
 30
0.0
 10
9.4941126169
 20
-23.4237308211
 30
0.0
 10
9.4881718702
 20
-23.2535177715
 30
0.0
 10
9.4858590234
 20
-22.9908695022
 30
0.0
 10
9.4888310081
 20
-22.7208425326
 30
0.0
 10
9.4919450597
 20
-22.4049791851
 30
0.0
 10
9.4921450352
 20
-22.1311578101
 30
0.0
 10
9.4923427695
 20
-21.9451389779
 30
0.0
 10
9.4924407475
 20
-21.8948357588
 30
0.0
 11
9.4941231619
 21
-23.5041338015
 31
0.0
 11
9.4894925249
 21
-23.2629693109
 31
0.0
 11
9.486759073
 21
-22.9933633083
 31
0.0
 11
9.488826907
 21
-22.7162789786
 31
0.0
 11
9.4911578757
 21
-22.4528900628
 31
0.0
 11
9.4922403511
 21
-22.0457464205
 31
0.0
 11
9.4924407475
 21
-21.8948357588
 31
0.0
  0
SPLINE
  5
316
100
AcDbEntity
  8
RACCORDO
100
AcDbSpline
 62
253
  6
CONTINUOUS
 70
0
 71
3
 72
24
 73
20
 74
18
 42
0.0000001
 43
0.0000001
 44
0.0000000001
 12
1.6111994174
 22
-0.0001994332
 32
0.0
 13
0.0002828639
 23
-1.6111994049
 33
0.0
 40
0.0
 40
0.0
 40
0.0
 40
0.0
 40
0.1496723517
 40
0.3171052395
 40
0.4034104329
 40
0.48927469
 40
0.5730147425
 40
0.6529926023
 40
0.7276837256
 40
0.7956105363
 40
0.8554949984
 40
0.9061462562
 40
0.9465983356
 40
0.9627558981
 40
0.9760742164
 40
0.9864916532
 40
0.9939740076
 40
0.9984879082
 40
1.0
 40
1.0
 40
1.0
 40
1.0
 10
7.5812744548
 20
-21.5928931043
 30
0.0
 10
7.6616584568
 20
-21.5929030542
 30
0.0
 10
7.8319328413
 20
-21.5975054194
 30
0.0
 10
8.0486019296
 20
-21.5968081277
 30
0.0
 10
8.2309900884
 20
-21.5968324136
 30
0.0
 10
8.3684284402
 20
-21.5976499535
 30
0.0
 10
8.5024717058
 20
-21.597944881
 30
0.0
 10
8.630510636
 20
-21.5969923817
 30
0.0
 10
8.7500536184
 20
-21.5957468667
 30
0.0
 10
8.8588075416
 20
-21.5951944319
 30
0.0
 10
8.9546617965
 20
-21.5951409595
 30
0.0
 10
9.0357292315
 20
-21.5951455907
 30
0.0
 10
9.093389933
 20
-21.5949850794
 30
0.0
 10
9.1308608111
 20
-21.5949942094
 30
0.0
 10
9.152467255
 20
-21.5947827656
 30
0.0
 10
9.168762136
 20
-21.5952353888
 30
0.0
 10
9.1818737929
 20
-21.5941801846
 30
0.0
 10
9.1872331015
 20
-21.5960582721
 30
0.0
 10
9.1924406244
 20
-21.5941290121
 30
0.0
 10
9.1924407669
 20
-21.5949411059
 30
0.0
 11
7.5812744548
 21
-21.5928931043
 31
0.0
 11
7.8224051356
 21
-21.5961002245
 31
0.0
 11
8.0921718198
 21
-21.5968667693
 31
0.0
 11
8.2312266617
 21
-21.5969675616
 31
0.0
 11
8.3695697954
 21
-21.5975692366
 31
0.0
 11
8.5044916273
 21
-21.5977275881
 31
0.0
 11
8.6333492844
 21
-21.5969050833
 31
0.0
 11
8.7536866982
 21
-21.5958211801
 31
0.0
 11
8.863128899
 21
-21.5952601589
 31
0.0
 11
8.959614646
 21
-21.595148909
 31
0.0
 11
9.0412239107
 21
-21.5951028982
 31
0.0
 11
9.1064001899
 21
-21.5949957547
 31
0.0
 11
9.1324331988
 21
-21.5949464797
 31
0.0
 11
9.1538916431
 21
-21.5949153482
 31
0.0
 11
9.1706762079
 21
-21.5949046125
 31
0.0
 11
9.1827317721
 21
-21.5949089964
 31
0.0
 11
9.1900045528
 21
-21.5949229957
 31
0.0
 11
9.1924407669
 21
-21.5949411059
 31
0.0
  0
SPLINE
  5
317
100
AcDbEntity
  8
RACCORDO
100
AcDbSpline
 62
253
  6
CONTINUOUS
 70
0
 71
3
 72
13
 73
9
 74
7
 42
0.0000001
 43
0.0000001
 44
0.0000000001
 12
1.6111971723
 22
0.0002377971
 32
0.0
 13
1.6111776979
 23
-0.0083893932
 33
0.0
 40
0.0
 40
0.0
 40
0.0
 40
0.0
 40
0.1496728256
 40
0.3171059466
 40
0.6529923227
 40
0.79561005
 40
0.9061460402
 40
1.0
 40
1.0
 40
1.0
 40
1.0
 10
7.5812743407
 20
22.8032431235
 30
0.0
 10
7.6616584852
 20
22.8032549875
 30
0.0
 10
7.8319306275
 20
22.80803795
 30
0.0
 10
8.1826452513
 20
22.8070596874
 30
0.0
 10
8.5295549536
 20
22.8086014673
 30
0.0
 10
8.8458974022
 20
22.8052763516
 30
0.0
 10
9.0322644438
 20
22.8054682483
 30
0.0
 10
9.1420356128
 20
22.8054267006
 30
0.0
 10
9.1924407484
 20
22.8051642413
 30
0.0
 11
7.5812743407
 21
22.8032431235
 31
0.0
 11
7.8224034299
 21
22.8065986829
 31
0.0
 11
8.0921696017
 21
22.8075284381
 31
0.0
 11
8.6333486676
 21
22.8071690599
 31
0.0
 11
8.8631285456
 21
22.805593232
 31
0.0
 11
9.0412237497
 21
22.8054322639
 31
0.0
 11
9.1924407484
 21
22.8051642413
 31
0.0
  0
SPLINE
  5
318
100
AcDbEntity
  8
RACCORDO
100
AcDbSpline
 62
253
  6
CONTINUOUS
 70
0
 71
3
 72
22
 73
18
 74
16
 42
0.0000001
 43
0.0000001
 44
0.0000000001
 12
-0.0001808393
 22
-1.6093709266
 32
0.0
 13
-1.6093709187
 23
-0.0002411841
 33
0.0
 40
0.0
 40
0.0
 40
0.0
 40
0.0
 40
0.149877339
 40
0.317407595
 40
0.4895817485
 40
0.6532472123
 40
0.7278971538
 40
0.7957799668
 40
0.8556201803
 40
0.9062303551
 40
0.9466474682
 40
0.9627905218
 40
0.9760966747
 40
0.9865044619
 40
0.9939797869
 40
0.9984893837
 40
1.0
 40
1.0
 40
1.0
 40
1.0
 10
9.4941340433
 20
24.7144624545
 30
0.0
 10
9.4941250088
 20
24.6340597105
 30
0.0
 10
9.4882452246
 20
24.4638453203
 30
0.0
 10
9.4862250091
 20
24.2011966629
 30
0.0
 10
9.4888800194
 20
23.9311688681
 30
0.0
 10
9.4909779978
 20
23.7109696593
 30
0.0
 10
9.4916764432
 20
23.5467075758
 30
0.0
 10
9.4919784088
 20
23.4381461931
 30
0.0
 10
9.4921380811
 20
23.3424702636
 30
0.0
 10
9.4922172633
 20
23.2615594168
 30
0.0
 10
9.4923468927
 20
23.2040127417
 30
0.0
 10
9.4923042281
 20
23.1666173341
 30
0.0
 10
9.4925005874
 20
23.1450550318
 30
0.0
 10
9.4920432009
 20
23.1287937132
 30
0.0
 10
9.4931014383
 20
23.1157091311
 30
0.0
 10
9.4912260692
 20
23.1103610852
 30
0.0
 10
9.4931611825
 20
23.1051643491
 30
0.0
 10
9.4923508018
 20
23.1051642277
 30
0.0
 11
9.4941340433
 21
24.7144624545
 31
0.0
 11
9.4895911925
 21
24.4732970042
 31
0.0
 11
9.4870208729
 21
24.2036909311
 31
0.0
 11
9.4889104616
 21
23.9266052954
 31
0.0
 11
9.4911148719
 21
23.6632160793
 31
0.0
 11
9.4916610355
 21
23.5430778744
 31
0.0
 11
9.4919688789
 21
23.4338296818
 31
0.0
 11
9.4921343331
 21
23.3375247235
 31
0.0
 11
9.4922418802
 21
23.2560742501
 31
0.0
 11
9.4923236829
 21
23.1910281743
 31
0.0
 11
9.4923514953
 21
23.1650480278
 31
0.0
 11
9.4923685921
 21
23.143633499
 31
0.0
 11
9.4923752782
 21
23.1268835101
 31
0.0
 11
9.4923733288
 21
23.1148529395
 31
0.0
 11
9.4923645634
 21
23.1075953308
 31
0.0
 11
9.4923508018
 21
23.1051642277
 31
0.0
  0
SPLINE
  5
319
100
AcDbEntity
  8
RACCORDO
100
AcDbSpline
 62
253
  6
CONTINUOUS
 70
0
 71
3
 72
11
 73
7
 74
5
 42
0.0000001
 43
0.0000001
 44
0.0000000001
 12
-0.0001071879
 22
-22.1980808179
 32
0.0
 13
0.0575040901
 23
-22.1980063359
 33
0.0
 40
0.0
 40
0.0
 40
0.0
 40
0.0
 40
0.5000000427
 40
0.7500000589
 40
0.8750000636
 40
1.0
 40
1.0
 40
1.0
 40
1.0
 10
55.7978072598
 20
0.6051642412
 30
0.0
 10
55.7977893951
 20
-3.094516211
 30
0.0
 10
55.7975191681
 20
-8.6440365693
 30
0.0
 10
55.798996625
 20
-15.1184779248
 30
0.0
 10
55.8007521347
 20
-18.818156202
 30
0.0
 10
55.8012108667
 20
-20.6679981255
 30
0.0
 10
55.8036068692
 20
-21.5929145856
 30
0.0
 11
55.7978072598
 21
0.6051642412
 31
0.0
 11
55.7981120341
 21
-10.4938771112
 31
0.0
 11
55.7995114399
 21
-16.0433974982
 31
0.0
 11
55.8006473792
 21
-18.8181574733
 31
0.0
 11
55.8036068692
 21
-21.5929145856
 31
0.0
  0
SPLINE
  5
31A
100
AcDbEntity
  8
RACCORDO
100
AcDbSpline
 62
253
  6
CONTINUOUS
 70
0
 71
3
 72
23
 73
19
 74
17
 42
0.0000001
 43
0.0000001
 44
0.0000000001
 12
-0.0109882573
 22
-5.5325389847
 32
0.0
 13
-5.5323337224
 23
-0.0489074915
 33
0.0
 40
0.0
 40
0.0
 40
0.0
 40
0.0
 40
0.1248760231
 40
0.1873854144
 40
0.2186498923
 40
0.2499157283
 40
0.2811802898
 40
0.3124470402
 40
0.3749600955
 40
0.4374760223
 40
0.4999940918
 40
0.5625129805
 40
0.625028401
 40
0.7499061648
 40
0.8124254935
 40
0.8749489242
 40
0.9374758291
 40
1.0
 40
1.0
 40
1.0
 40
1.0
 10
57.3899794617
 20
-21.5709123564
 30
0.0
 10
57.3895220717
 20
-21.8012061783
 30
0.0
 10
57.3529958236
 20
-22.14769328
 30
0.0
 10
57.2530675129
 20
-22.5391928089
 30
0.0
 10
57.1729663365
 20
-22.7555377649
 30
0.0
 10
57.116946031
 20
-22.9191821168
 30
0.0
 10
57.0540231284
 20
-23.0804146316
 30
0.0
 10
56.9574369482
 20
-23.2899365726
 30
0.0
 10
56.8155154648
 20
-23.5415239024
 30
0.0
 10
56.6132469152
 20
-23.8229240749
 30
0.0
 10
56.3817760367
 20
-24.0808001018
 30
0.0
 10
56.1244430311
 20
-24.312958027
 30
0.0
 10
55.7509618031
 20
-24.5839923866
 30
0.0
 10
55.3398167534
 20
-24.7999991367
 30
0.0
 10
54.9031571379
 20
-24.949763481
 30
0.0
 10
54.5656854936
 20
-25.0276677206
 30
0.0
 10
54.2238074636
 20
-25.0825254847
 30
0.0
 10
53.9930831412
 20
-25.0960854095
 30
0.0
 10
53.8777816149
 20
-25.0971047096
 30
0.0
 11
57.3899794617
 21
-21.5709123564
 31
0.0
 11
57.3190273918
 21
-22.2581422207
 31
0.0
 11
57.2311382423
 21
-22.5926243014
 31
0.0
 11
57.1736447227
 21
-22.7557619926
 31
0.0
 11
57.1157950353
 21
-22.9187816971
 31
0.0
 11
57.0524368031
 21
-23.0797329485
 31
0.0
 11
56.980158335
 21
-23.2368939606
 31
0.0
 11
56.8101901057
 21
-23.5381041652
 31
0.0
 11
56.6083834357
 21
-23.8189988842
 31
0.0
 11
56.3774665753
 21
-24.0765127274
 31
0.0
 11
56.1206122883
 21
-24.3081697723
 31
0.0
 11
55.8410162036
 21
-24.5117670893
 31
0.0
 11
55.2287362011
 21
-24.8318383129
 31
0.0
 11
54.9015392811
 21
-24.9440121553
 31
0.0
 11
54.5649588356
 21
-25.0238250562
 31
0.0
 11
54.223101681
 21
-25.0767729506
 31
0.0
 11
53.8777816149
 21
-25.0971047096
 31
0.0
  0
SPLINE
  5
31B
100
AcDbEntity
  8
RACCORDO
100
AcDbSpline
 62
253
  6
CONTINUOUS
 70
0
 71
3
 72
13
 73
9
 74
7
 42
0.0000001
 43
0.0000001
 44
0.0000000001
 12
0.0174983271
 22
-2.9889000014
 32
0.0
 13
-2.9889300922
 23
0.0112389533
 33
0.0
 40
0.0
 40
0.0
 40
0.0
 40
0.0
 40
0.125283304
 40
0.2505604052
 40
0.5000379176
 40
0.6253462875
 40
0.7506340537
 40
1.0
 40
1.0
 40
1.0
 40
1.0
 10
55.8036071561
 20
-21.5929146412
 30
0.0
 10
55.8043379055
 20
-21.717734397
 30
0.0
 10
55.7801398929
 20
-21.968458573
 30
0.0
 10
55.6301372585
 20
-22.4461593563
 30
0.0
 10
55.3443702521
 20
-22.8715792559
 30
0.0
 10
54.9585457195
 20
-23.1912277783
 30
0.0
 10
54.5174627473
 20
-23.427667066
 30
0.0
 10
54.1391932472
 20
-23.505068176
 30
0.0
 10
53.8907474536
 20
-23.5041339719
 30
0.0
 11
55.8036071561
 21
-21.5929146412
 31
0.0
 11
55.7673972308
 21
-21.9656255079
 31
0.0
 11
55.6560259178
 21
-22.3231266899
 31
0.0
 11
55.2401870013
 21
-22.9420861914
 31
0.0
 11
54.9515935956
 21
-23.1808214242
 31
0.0
 11
54.6215901012
 21
-23.3578305524
 31
0.0
 11
53.8907474536
 21
-23.5041339719
 31
0.0
  0
SPLINE
  5
31C
100
AcDbEntity
  8
RACCORDO
100
AcDbSpline
 62
253
  6
CONTINUOUS
 70
0
 71
3
 72
9
 73
5
 74
3
 42
0.0000001
 43
0.0000001
 44
0.0000000001
 12
-10.4350775419
 22
-0.0788391975
 32
0.0
 13
-10.4353752349
 23
-0.0016216274
 33
0.0
 40
0.0
 40
0.0
 40
0.0
 40
0.0
 40
0.4999991301
 40
1.0
 40
1.0
 40
1.0
 40
1.0
 10
53.8777815845
 20
-25.0971019467
 30
0.0
 10
52.1386050199
 20
-25.1102417901
 30
0.0
 10
48.6601232687
 20
-25.1180921045
 30
0.0
 10
45.1816729801
 20
-25.1175527437
 30
0.0
 10
43.4424407484
 20
-25.1178230154
 30
0.0
 11
53.8777815845
 21
-25.0971019467
 31
0.0
 11
48.660137186
 21
-25.1159946793
 31
0.0
 11
43.4424407484
 21
-25.1178230154
 31
0.0
  0
SPLINE
  5
31D
100
AcDbEntity
  8
RACCORDO
100
AcDbSpline
 62
253
  6
CONTINUOUS
 70
0
 71
3
 72
9
 73
5
 74
3
 42
0.0000001
 43
0.0000001
 44
0.0000000001
 12
-10.4530198443
 22
0.0223425092
 32
0.0
 13
-10.453043716
 23
-0.0003544705
 33
0.0
 40
0.0
 40
0.0
 40
0.0
 40
0.0
 40
0.4999999266
 40
1.0
 40
1.0
 40
1.0
 40
1.0
 10
53.8954832272
 20
-23.5041343668
 30
0.0
 10
52.1533135088
 20
-23.5004106158
 30
0.0
 10
48.668961497
 20
-23.5006415814
 30
0.0
 10
45.1846149568
 20
-23.500425288
 30
0.0
 10
43.4424407484
 20
-23.5004843664
 30
0.0
 11
53.8954832272
 21
-23.5041343668
 31
0.0
 11
48.6689633762
 21
-23.5005297666
 31
0.0
 11
43.4424407484
 21
-23.5004843664
 31
0.0
  0
SPLINE
  5
31E
100
AcDbEntity
  8
RACCORDO
100
AcDbSpline
 62
253
  6
CONTINUOUS
 70
0
 71
3
 72
9
 73
5
 74
3
 42
0.0000001
 43
0.0000001
 44
0.0000000001
 12
-10.4401477877
 22
0.0016223526
 32
0.0
 13
-10.4398578406
 23
0.0778249942
 33
0.0
 40
0.0
 40
0.0
 40
0.0
 40
0.0
 40
0.5000008735
 40
1.0
 40
1.0
 40
1.0
 40
1.0
 10
19.9424407484
 20
-25.1178231936
 30
0.0
 10
18.2024130774
 20
-25.117552801
 30
0.0
 10
14.7223712413
 20
-25.1181890369
 30
0.0
 10
11.242300732
 20
-25.1100368195
 30
0.0
 10
9.502327465
 20
-25.0970660097
 30
0.0
 11
19.9424407484
 21
-25.1178231936
 31
0.0
 11
14.7223579935
 21
-25.115991917
 31
0.0
 11
9.502327465
 21
-25.0970660097
 31
0.0
  0
SPLINE
  5
31F
100
AcDbEntity
  8
RACCORDO
100
AcDbSpline
 62
253
  6
CONTINUOUS
 70
0
 71
3
 72
9
 73
5
 74
3
 42
0.0000001
 43
0.0000001
 44
0.0000000001
 12
-10.4531173039
 22
0.0003544685
 32
0.0
 13
-10.4530934036
 23
-0.022355961
 33
0.0
 40
0.0
 40
0.0
 40
0.0
 40
0.0
 40
0.5000000734
 40
1.0
 40
1.0
 40
1.0
 40
1.0
 10
19.9424407484
 20
-23.5004843435
 30
0.0
 10
18.2002542754
 20
-23.5004252654
 30
0.0
 10
14.7158832081
 20
-23.5006425779
 30
0.0
 10
11.2315066601
 20
-23.5004085784
 30
0.0
 10
9.4893246819
 20
-23.5041345714
 30
0.0
 11
19.9424407484
 21
-23.5004843435
 31
0.0
 11
14.7158813264
 21
-23.5005297499
 31
0.0
 11
9.4893246819
 21
-23.5041345714
 31
0.0
  0
SPLINE
  5
320
100
AcDbEntity
  8
RACCORDO
100
AcDbSpline
 62
253
  6
CONTINUOUS
 70
0
 71
3
 72
24
 73
20
 74
18
 42
0.0000001
 43
0.0000001
 44
0.0000000001
 12
-5.5276339312
 22
0.0563276876
 32
0.0
 13
-0.010958113
 23
5.5279100576
 33
0.0
 40
0.0
 40
0.0
 40
0.0
 40
0.0
 40
0.0625214982
 40
0.1250425053
 40
0.1875602849
 40
0.2500759628
 40
0.374948528
 40
0.4374607212
 40
0.4999767953
 40
0.5624932527
 40
0.6250090918
 40
0.6875227395
 40
0.7187900513
 40
0.7500555202
 40
0.7813190339
 40
0.8125857485
 40
0.843843981
 40
0.8751193003
 40
1.0
 40
1.0
 40
1.0
 40
1.0
 10
9.5023274187
 20
-25.0970595948
 30
0.0
 10
9.387128767
 20
-25.0958856976
 30
0.0
 10
9.156601371
 20
-25.0822949152
 30
0.0
 10
8.81520952
 20
-25.0264335061
 30
0.0
 10
8.4779965178
 20
-24.9488517378
 30
0.0
 10
8.0419610838
 20
-24.798471651
 30
0.0
 10
7.631348363
 20
-24.5824147298
 30
0.0
 10
7.2584110379
 20
-24.3113108513
 30
0.0
 10
7.0014839964
 20
-24.0791599184
 30
0.0
 10
6.7703889902
 20
-23.8213516377
 30
0.0
 10
6.5684318459
 20
-23.5400812177
 30
0.0
 10
6.42681494
 20
-23.2886117774
 30
0.0
 10
6.3302526278
 20
-23.0792750142
 30
0.0
 10
6.2678803316
 20
-22.9179916382
 30
0.0
 10
6.2113604528
 20
-22.7546709189
 30
0.0
 10
6.1520706366
 20
-22.5923034661
 30
0.0
 10
6.1033238074
 20
-22.4263190568
 30
0.0
 10
6.025645321
 20
-22.0898229948
 30
0.0
 10
5.9953579254
 20
-21.8009805207
 30
0.0
 10
5.9949017731
 20
-21.570870762
 30
0.0
 11
9.5023274187
 21
-25.0970595948
 31
0.0
 11
9.1573326248
 21
-25.0763821037
 31
0.0
 11
8.8158984043
 21
-25.0228119375
 31
0.0
 11
8.47965416
 21
-24.9429710576
 31
0.0
 11
8.1528821506
 21
-24.8305131479
 31
0.0
 11
7.5414294808
 21
-24.5101696872
 31
0.0
 11
7.2622421598
 21
-24.3065331146
 31
0.0
 11
7.0057906764
 21
-24.0748849368
 31
0.0
 11
6.7752441532
 21
-23.8174397846
 31
0.0
 11
6.5737673098
 21
-23.536665097
 31
0.0
 11
6.4040816676
 21
-23.2356239803
 31
0.0
 11
6.3319277378
 21
-23.0785615992
 31
0.0
 11
6.2688544061
 21
-22.9176485347
 31
0.0
 11
6.2109000121
 21
-22.7548332657
 31
0.0
 11
6.1538239192
 21
-22.5916892816
 31
0.0
 11
6.1049766198
 21
-22.4259443716
 31
0.0
 11
6.065823701
 21
-22.2575486064
 31
0.0
 11
5.9949017731
 21
-21.570870762
 31
0.0
  0
SPLINE
  5
321
100
AcDbEntity
  8
RACCORDO
100
AcDbSpline
 62
253
  6
CONTINUOUS
 70
0
 71
3
 72
13
 73
9
 74
7
 42
0.0000001
 43
0.0000001
 44
0.0000000001
 12
-2.98894082
 22
-0.0111106268
 32
0.0
 13
0.0175419209
 23
2.988909994
 33
0.0
 40
0.0
 40
0.0
 40
0.0
 40
0.0
 40
0.2493553957
 40
0.3746401693
 40
0.4999450538
 40
0.7494247504
 40
0.8747064928
 40
1.0
 40
1.0
 40
1.0
 40
1.0
 10
9.4941231619
 20
-23.5041338015
 30
0.0
 10
9.2456869883
 20
-23.5050572998
 30
0.0
 10
8.8674311151
 20
-23.4276705688
 30
0.0
 10
8.4263578178
 20
-23.1912431682
 30
0.0
 10
8.0405309962
 20
-22.8716023198
 30
0.0
 10
7.7547541247
 20
-22.4461814349
 30
0.0
 10
7.6047452613
 20
-21.9684633394
 30
0.0
 10
7.5805418252
 20
-21.7177234429
 30
0.0
 10
7.5812744548
 20
-21.5928931043
 30
0.0
 11
9.4941231619
 21
-23.5041338015
 31
0.0
 11
8.763308597
 21
-23.3578377369
 31
0.0
 11
8.4333093234
 21
-23.1808369462
 31
0.0
 11
8.144719378
 21
-22.9421118602
 31
0.0
 11
7.7288671319
 21
-22.3231503684
 31
0.0
 11
7.6174889242
 21
-21.9656354601
 31
0.0
 11
7.5812744548
 21
-21.5928931043
 31
0.0
  0
SPLINE
  5
322
100
AcDbEntity
  8
RACCORDO
100
AcDbSpline
 62
253
  6
CONTINUOUS
 70
0
 71
3
 72
11
 73
7
 74
5
 42
0.0000001
 43
0.0000001
 44
0.0000000001
 12
0.0574738818
 22
22.197984903
 32
0.0
 13
-0.0001072009
 23
22.1980593069
 33
0.0
 40
0.0
 40
0.0
 40
0.0
 40
0.0
 40
0.1249999364
 40
0.2499999412
 40
0.4999999573
 40
1.0
 40
1.0
 40
1.0
 40
1.0
 10
7.5812747893
 20
-21.5928930748
 30
0.0
 10
7.5836695331
 20
-20.6679775074
 30
0.0
 10
7.5841298507
 20
-18.8181373806
 30
0.0
 10
7.5858845601
 20
-15.1184626862
 30
0.0
 10
7.5873625081
 20
-8.6440276065
 30
0.0
 10
7.5870920726
 20
-3.0945126256
 30
0.0
 10
7.5870742058
 20
0.6051642412
 30
0.0
 11
7.5812747893
 21
-21.5928930748
 31
0.0
 11
7.5842341097
 21
-18.8181386501
 31
0.0
 11
7.5853700353
 21
-16.0433813641
 31
0.0
 11
7.5867694319
 21
-10.4938663551
 31
0.0
 11
7.5870742058
 21
0.6051642412
 31
0.0
  0
SPLINE
  5
323
100
AcDbEntity
  8
RACCORDO
100
AcDbSpline
 62
253
  6
CONTINUOUS
 70
0
 71
3
 72
11
 73
7
 74
5
 42
0.0000001
 43
0.0000001
 44
0.0000000001
 12
0.0001071879
 22
22.1980808179
 32
0.0
 13
-0.0575040898
 23
22.1980063359
 33
0.0
 40
0.0
 40
0.0
 40
0.0
 40
0.0
 40
0.5000000427
 40
0.7500000589
 40
0.8750000636
 40
1.0
 40
1.0
 40
1.0
 40
1.0
 10
7.5870742371
 20
0.6051642412
 30
0.0
 10
7.5870921017
 20
4.3048446933
 30
0.0
 10
7.5873623288
 20
9.8543650516
 30
0.0
 10
7.5858848719
 20
16.3288064071
 30
0.0
 10
7.5841293622
 20
20.0284846843
 30
0.0
 10
7.5836706302
 20
21.8783266078
 30
0.0
 10
7.5812746276
 20
22.8032430679
 30
0.0
 11
7.5870742371
 21
0.6051642412
 31
0.0
 11
7.5867694628
 21
11.7042055935
 31
0.0
 11
7.585370057
 21
17.2537259805
 31
0.0
 11
7.5842341177
 21
20.0284859556
 31
0.0
 11
7.5812746276
 21
22.8032430679
 31
0.0
  0
SPLINE
  5
324
100
AcDbEntity
  8
RACCORDO
100
AcDbSpline
 62
253
  6
CONTINUOUS
 70
0
 71
3
 72
23
 73
19
 74
17
 42
0.0000001
 43
0.0000001
 44
0.0000000001
 12
0.0109882571
 22
5.5325388986
 32
0.0
 13
5.532333635
 23
0.0489076335
 33
0.0
 40
0.0
 40
0.0
 40
0.0
 40
0.0
 40
0.1248760231
 40
0.1873854144
 40
0.2186498923
 40
0.2499157283
 40
0.2811802898
 40
0.3124470402
 40
0.3749600955
 40
0.4374760223
 40
0.4999940918
 40
0.5625129805
 40
0.625028401
 40
0.7499061648
 40
0.8124254935
 40
0.8749489242
 40
0.9374758291
 40
1.0
 40
1.0
 40
1.0
 40
1.0
 10
5.9949020351
 20
22.7812408387
 30
0.0
 10
5.995359425
 20
23.0115346571
 30
0.0
 10
6.0318856721
 20
23.3580217533
 30
0.0
 10
6.1318139791
 20
23.7495212766
 30
0.0
 10
6.2119151536
 20
23.9658662295
 30
0.0
 10
6.2679354587
 20
24.1295105787
 30
0.0
 10
6.3308583586
 20
24.2907430916
 30
0.0
 10
6.4274445358
 20
24.5002650301
 30
0.0
 10
6.5693660145
 20
24.7518523574
 30
0.0
 10
6.7716345578
 20
25.0332525277
 30
0.0
 10
7.0031054294
 20
25.2911285535
 30
0.0
 10
7.2604384278
 20
25.5232864785
 30
0.0
 10
7.6339196458
 20
25.7943208398
 30
0.0
 10
8.0450646854
 20
26.0103275934
 30
0.0
 10
8.4817242912
 20
26.1600919437
 30
0.0
 10
8.8191959285
 20
26.2379961896
 30
0.0
 10
9.1610739524
 20
26.2928539572
 30
0.0
 10
9.3917982709
 20
26.3064138883
 30
0.0
 10
9.5070997953
 20
26.3074331914
 30
0.0
 11
5.9949020351
 21
22.7812408387
 31
0.0
 11
6.0658541027
 21
23.4684706925
 31
0.0
 11
6.1537432493
 21
23.8029527684
 31
0.0
 11
6.2112367676
 21
23.9660904571
 31
0.0
 11
6.2690864541
 21
24.1291101592
 31
0.0
 11
6.332444684
 21
24.2900614085
 31
0.0
 11
6.4047231496
 21
24.4472224188
 31
0.0
 11
6.5746913735
 21
24.7484326202
 31
0.0
 11
6.7764980372
 21
25.0293273371
 31
0.0
 11
7.0074148908
 21
25.2868411792
 31
0.0
 11
7.2642691706
 21
25.5184982241
 31
0.0
 11
7.5438652477
 21
25.7220955422
 31
0.0
 11
8.1561452353
 21
26.0421667713
 31
0.0
 11
8.4833421481
 21
26.1543406183
 31
0.0
 11
8.8199225866
 21
26.2341535247
 31
0.0
 11
9.1617797351
 21
26.2871014241
 31
0.0
 11
9.5070997953
 21
26.3074331914
 31
0.0
  0
SPLINE
  5
325
100
AcDbEntity
  8
RACCORDO
100
AcDbSpline
 62
253
  6
CONTINUOUS
 70
0
 71
3
 72
13
 73
9
 74
7
 42
0.0000001
 43
0.0000001
 44
0.0000000001
 12
-0.0174983271
 22
2.9889000015
 32
0.0
 13
2.9889300925
 23
-0.0112388994
 33
0.0
 40
0.0
 40
0.0
 40
0.0
 40
0.0
 40
0.1252833039
 40
0.2505604052
 40
0.5000379175
 40
0.6253462875
 40
0.7506340536
 40
1.0
 40
1.0
 40
1.0
 40
1.0
 10
7.5812743407
 20
22.8032431235
 30
0.0
 10
7.5805435913
 20
22.9280628793
 30
0.0
 10
7.6047416039
 20
23.1787870553
 30
0.0
 10
7.7547442383
 20
23.6564878386
 30
0.0
 10
8.0405112448
 20
24.0819077383
 30
0.0
 10
8.4263357773
 20
24.4015562605
 30
0.0
 10
8.8674187496
 20
24.6379955494
 30
0.0
 10
9.2456882496
 20
24.7153966541
 30
0.0
 10
9.4941340433
 20
24.7144624545
 30
0.0
 11
7.5812743407
 21
22.8032431235
 31
0.0
 11
7.617484266
 21
23.1759539903
 31
0.0
 11
7.728855579
 21
23.5334551722
 31
0.0
 11
8.1446944956
 21
24.1524146738
 31
0.0
 11
8.4332879013
 21
24.3911499065
 31
0.0
 11
8.7632913957
 21
24.5681590348
 31
0.0
 11
9.4941340433
 21
24.7144624545
 31
0.0
  0
SPLINE
  5
326
100
AcDbEntity
  8
RACCORDO
100
AcDbSpline
 62
253
  6
CONTINUOUS
 70
0
 71
3
 72
9
 73
5
 74
3
 42
0.0000001
 43
0.0000001
 44
0.0000000001
 12
10.4350776285
 22
0.0788391966
 32
0.0
 13
10.4353753216
 23
0.0016216274
 33
0.0
 40
0.0
 40
0.0
 40
0.0
 40
0.0
 40
0.4999991301
 40
1.0
 40
1.0
 40
1.0
 40
1.0
 10
9.5070998257
 20
26.3074304283
 30
0.0
 10
11.2462764047
 20
26.3205702716
 30
0.0
 10
14.7247581848
 20
26.3284205871
 30
0.0
 10
18.2032085024
 20
26.327881226
 30
0.0
 10
19.9424407484
 20
26.3281514978
 30
0.0
 11
9.5070998257
 21
26.3074304283
 31
0.0
 11
14.7247442676
 21
26.3263231616
 31
0.0
 11
19.9424407484
 21
26.3281514978
 31
0.0
  0
SPLINE
  5
327
100
AcDbEntity
  8
RACCORDO
100
AcDbSpline
 62
253
  6
CONTINUOUS
 70
0
 71
3
 72
9
 73
5
 74
3
 42
0.0000001
 43
0.0000001
 44
0.0000000001
 12
10.4530199345
 22
-0.0223425157
 32
0.0
 13
10.4530438061
 23
0.0003544705
 33
0.0
 40
0.0
 40
0.0
 40
0.0
 40
0.0
 40
0.4999999266
 40
1.0
 40
1.0
 40
1.0
 40
1.0
 10
9.4893981795
 20
24.7144628494
 30
0.0
 10
11.2315679129
 20
24.7107390973
 30
0.0
 10
14.7159199548
 20
24.7109700642
 30
0.0
 10
18.2002665251
 20
24.7107537703
 30
0.0
 10
19.9424407484
 20
24.7108128487
 30
0.0
 11
9.4893981795
 21
24.7144628494
 31
0.0
 11
14.7159180756
 21
24.710858249
 31
0.0
 11
19.9424407484
 21
24.7108128487
 31
0.0
  0
SPLINE
  5
328
100
AcDbEntity
  8
RACCORDO
100
AcDbSpline
 62
253
  6
CONTINUOUS
 70
0
 71
3
 72
9
 73
5
 74
3
 42
0.0000001
 43
0.0000001
 44
0.0000000001
 12
10.4401476159
 22
-0.0016223526
 32
0.0
 13
10.4398576686
 23
-0.0778250159
 33
0.0
 40
0.0
 40
0.0
 40
0.0
 40
0.0
 40
0.5000008735
 40
1.0
 40
1.0
 40
1.0
 40
1.0
 10
43.4424407484
 20
26.3281516759
 30
0.0
 10
45.1824683909
 20
26.3278812833
 30
0.0
 10
48.6625101696
 20
26.328517517
 30
0.0
 10
52.1425806217
 20
26.3203653067
 30
0.0
 10
53.8825538601
 20
26.3073944933
 30
0.0
 11
43.4424407484
 21
26.3281516759
 31
0.0
 11
48.6625234175
 21
26.3263203994
 31
0.0
 11
53.8825538601
 21
26.3073944933
 31
0.0
  0
SPLINE
  5
329
100
AcDbEntity
  8
RACCORDO
100
AcDbSpline
 62
253
  6
CONTINUOUS
 70
0
 71
3
 72
9
 73
5
 74
3
 42
0.0000001
 43
0.0000001
 44
0.0000000001
 12
10.4531172153
 22
-0.0003544685
 32
0.0
 13
10.4530933151
 23
0.0223559546
 33
0.0
 40
0.0
 40
0.0
 40
0.0
 40
0.0
 40
0.5000000734
 40
1.0
 40
1.0
 40
1.0
 40
1.0
 10
43.4424407484
 20
24.7108128258
 30
0.0
 10
45.1846272068
 20
24.7107537477
 30
0.0
 10
48.6689982445
 20
24.7109710598
 30
0.0
 10
52.153374763
 20
24.7107370616
 30
0.0
 10
53.8955567264
 20
24.7144630535
 30
0.0
 11
43.4424407484
 21
24.7108128258
 31
0.0
 11
48.6690001262
 21
24.7108582322
 31
0.0
 11
53.8955567264
 21
24.7144630535
 31
0.0
  0
SPLINE
  5
32A
100
AcDbEntity
  8
RACCORDO
100
AcDbSpline
 62
253
  6
CONTINUOUS
 70
0
 71
3
 72
24
 73
20
 74
18
 42
0.0000001
 43
0.0000001
 44
0.0000000001
 12
5.527634105
 22
-0.0563274144
 32
0.0
 13
0.0109581133
 23
-5.5279102287
 33
0.0
 40
0.0
 40
0.0
 40
0.0
 40
0.0
 40
0.0625214983
 40
0.1250425053
 40
0.1875602849
 40
0.2500759628
 40
0.374948528
 40
0.4374607212
 40
0.4999767953
 40
0.5624932527
 40
0.6250090918
 40
0.6875227395
 40
0.7187900513
 40
0.7500555202
 40
0.7813190339
 40
0.8125857485
 40
0.843843981
 40
0.8751193003
 40
1.0
 40
1.0
 40
1.0
 40
1.0
 10
53.8825539063
 20
26.3073880786
 30
0.0
 10
53.9977525617
 20
26.3062141872
 30
0.0
 10
54.2282799658
 20
26.2926234171
 30
0.0
 10
54.569671829
 20
26.2367620157
 30
0.0
 10
54.9068848447
 20
26.1591802592
 30
0.0
 10
55.3429202982
 20
26.0088001846
 30
0.0
 10
55.753533039
 20
25.7927432702
 30
0.0
 10
56.126470384
 20
25.5216393948
 30
0.0
 10
56.3833974399
 20
25.2894884617
 30
0.0
 10
56.6144924596
 20
25.0316801789
 30
0.0
 10
56.8164496165
 20
24.7504097545
 30
0.0
 10
56.9580665313
 20
24.4989403089
 30
0.0
 10
57.0546288502
 20
24.289603541
 30
0.0
 10
57.1170011505
 20
24.1283201609
 30
0.0
 10
57.1735210316
 20
23.9649994367
 30
0.0
 10
57.2328108493
 20
23.8026319788
 30
0.0
 10
57.2815576829
 20
23.6366475652
 30
0.0
 10
57.3592361732
 20
23.300151493
 30
0.0
 10
57.3895235714
 20
23.0113090101
 30
0.0
 10
57.3899797237
 20
22.7811992444
 30
0.0
 11
53.8825539063
 21
26.3073880786
 31
0.0
 11
54.227548712
 21
26.2867106038
 31
0.0
 11
54.5689829449
 21
26.2331404477
 31
0.0
 11
54.9052272027
 21
26.1532995785
 31
0.0
 11
55.2319992266
 21
26.040841678
 31
0.0
 11
55.8434519261
 21
25.7204982281
 31
0.0
 11
56.1226392619
 21
25.5168616577
 31
0.0
 11
56.3790907597
 21
25.2852134798
 31
0.0
 11
56.6096372965
 21
25.0277683254
 31
0.0
 11
56.8111141523
 21
24.7469936335
 31
0.0
 11
56.9807998053
 21
24.4459525106
 31
0.0
 11
57.05295374
 21
24.2888901259
 31
0.0
 11
57.1160270758
 21
24.1279770573
 31
0.0
 11
57.1739814722
 21
23.9651617834
 31
0.0
 11
57.2310575673
 21
23.8020177944
 31
0.0
 11
57.2799048702
 21
23.6362728799
 31
0.0
 11
57.3190577912
 21
23.4678771097
 31
0.0
 11
57.3899797237
 21
22.7811992444
 31
0.0
  0
SPLINE
  5
32B
100
AcDbEntity
  8
RACCORDO
100
AcDbSpline
 62
253
  6
CONTINUOUS
 70
0
 71
3
 72
13
 73
9
 74
7
 42
0.0000001
 43
0.0000001
 44
0.0000000001
 12
2.9889408197
 22
0.0111106797
 32
0.0
 13
-0.0175419209
 23
-2.9889099939
 33
0.0
 40
0.0
 40
0.0
 40
0.0
 40
0.0
 40
0.2493553957
 40
0.3746401693
 40
0.4999450538
 40
0.7494247504
 40
0.8747064928
 40
1.0
 40
1.0
 40
1.0
 40
1.0
 10
53.890758335
 20
24.7144622836
 30
0.0
 10
54.1391945086
 20
24.7153857863
 30
0.0
 10
54.5174503818
 20
24.6379990501
 30
0.0
 10
54.9585236791
 20
24.4015716507
 30
0.0
 10
55.3443505006
 20
24.081930802
 30
0.0
 10
55.6301273721
 20
23.6565099172
 30
0.0
 10
55.7801362355
 20
23.1787918217
 30
0.0
 10
55.8043396716
 20
22.9280519252
 30
0.0
 10
55.803607042
 20
22.8032215866
 30
0.0
 11
53.890758335
 21
24.7144622836
 31
0.0
 11
54.6215728999
 21
24.5681662192
 31
0.0
 11
54.9515721734
 21
24.3911654285
 31
0.0
 11
55.2401621188
 21
24.1524403425
 31
0.0
 11
55.6560143649
 21
23.5334788507
 31
0.0
 11
55.7673925726
 21
23.1759639424
 31
0.0
 11
55.803607042
 21
22.8032215866
 31
0.0
  0
SPLINE
  5
32C
100
AcDbEntity
  8
RACCORDO
100
AcDbSpline
 62
253
  6
CONTINUOUS
 70
0
 71
3
 72
11
 73
7
 74
5
 42
0.0000001
 43
0.0000001
 44
0.0000000001
 12
-0.057473882
 22
-22.197984903
 32
0.0
 13
0.0001072009
 23
-22.1980593069
 33
0.0
 40
0.0
 40
0.0
 40
0.0
 40
0.0
 40
0.1249999364
 40
0.2499999412
 40
0.4999999573
 40
1.0
 40
1.0
 40
1.0
 40
1.0
 10
55.8036067076
 20
22.8032215571
 30
0.0
 10
55.8012119637
 20
21.8783059897
 30
0.0
 10
55.8007516462
 20
20.0284658629
 30
0.0
 10
55.7989969368
 20
16.3287911685
 30
0.0
 10
55.7975189888
 20
9.8543560888
 30
0.0
 10
55.7977894243
 20
4.3048411079
 30
0.0
 10
55.7978072911
 20
0.6051642412
 30
0.0
 11
55.8036067076
 21
22.8032215571
 31
0.0
 11
55.8006473871
 21
20.0284671325
 31
0.0
 11
55.7995114615
 21
17.2537098464
 31
0.0
 11
55.798112065
 21
11.7041948374
 31
0.0
 11
55.7978072911
 21
0.6051642412
 31
0.0
  0
SPLINE
  5
32D
100
AcDbEntity
  8
RACCORDO
100
AcDbSpline
 62
253
  6
CONTINUOUS
 70
0
 71
3
 72
15
 73
11
 74
9
 42
0.0000001
 43
0.0000001
 44
0.0000000001
 12
0.4978716441
 22
-0.7062455126
 32
0.0
 13
0.0060431189
 23
-0.8640731328
 33
0.0
 40
0.0
 40
0.0
 40
0.0
 40
0.0
 40
0.0102156575
 40
0.0286668865
 40
0.0902255175
 40
0.1834456281
 40
0.3054341143
 40
0.45272955
 40
0.6210735333
 40
1.0
 40
1.0
 40
1.0
 40
1.0
 10
68.6924407484
 20
40.3745922475
 30
0.0
 10
68.6941361105
 20
40.3721873267
 30
0.0
 10
68.6963156863
 20
40.3639706457
 30
0.0
 10
68.7012309665
 20
40.3386731322
 30
0.0
 10
68.7059654498
 20
40.2887254049
 30
0.0
 10
68.7115507975
 20
40.2093379569
 30
0.0
 10
68.7164719272
 20
40.1049783836
 30
0.0
 10
68.7208769369
 20
39.9790233676
 30
0.0
 10
68.7258568185
 20
39.7790173662
 30
0.0
 10
68.7278900254
 20
39.6213960708
 30
0.0
 10
68.7286533246
 20
39.5122560111
 30
0.0
 11
68.6924407484
 21
40.3745922475
 31
0.0
 11
68.6956110629
 21
40.3663539119
 31
0.0
 11
68.6987670608
 21
40.3507257931
 31
0.0
 11
68.7049250686
 21
40.2978909871
 31
0.0
 11
68.710703515
 21
40.2175475543
 31
0.0
 11
68.7159344208
 21
40.1122678738
 31
0.0
 11
68.7204660173
 21
39.9850714301
 31
0.0
 11
68.7241680974
 21
39.8396534761
 31
0.0
 11
68.7286533246
 21
39.5122560111
 31
0.0
  0
SPLINE
  5
32E
100
AcDbEntity
  8
RACCORDO
100
AcDbSpline
 62
253
  6
CONTINUOUS
 70
0
 71
3
 72
11
 73
7
 74
5
 42
0.0000001
 43
0.0000001
 44
0.0000000001
 12
2.8820565341
 22
-0.0914753495
 32
0.0
 13
0.1050304011
 23
-2.8815943885
 33
0.0
 40
0.0
 40
0.0
 40
0.0
 40
0.0
 40
0.2498354742
 40
0.4998215605
 40
0.7499022342
 40
1.0
 40
1.0
 40
1.0
 40
1.0
 10
68.7286533246
 20
39.5122560111
 30
0.0
 10
68.9686666448
 20
39.504638082
 30
0.0
 10
69.4505886167
 20
39.3971324817
 30
0.0
 10
70.0614168355
 20
38.9846016459
 30
0.0
 10
70.4812749016
 20
38.3785473827
 30
0.0
 10
70.593898169
 20
37.896972259
 30
0.0
 10
70.6026541252
 20
37.6567454862
 30
0.0
 11
68.7286533246
 21
39.5122560111
 31
0.0
 11
69.4317558116
 21
39.3553269397
 31
0.0
 11
70.0294906099
 21
38.95243878
 31
0.0
 11
70.4394380462
 21
38.3591916649
 31
0.0
 11
70.6026541252
 21
37.6567454862
 31
0.0
  0
SPLINE
  5
32F
100
AcDbEntity
  8
RACCORDO
100
AcDbSpline
 62
253
  6
CONTINUOUS
 70
0
 71
3
 72
20
 73
16
 74
14
 42
0.0000001
 43
0.0000001
 44
0.0000000001
 12
25.2876651895
 22
0.0015698153
 32
0.0
 13
25.2749340788
 23
-0.8023219515
 33
0.0
 40
0.0
 40
0.0
 40
0.0
 40
0.0
 40
0.2500056809
 40
0.5000103671
 40
0.6250116524
 40
0.6875117312
 40
0.7500116358
 40
0.812510297
 40
0.8437594146
 40
0.875008683
 40
0.9062578442
 40
0.9375070425
 40
0.953131684
 40
0.9687563333
 40
1.0
 40
1.0
 40
1.0
 40
1.0
 10
43.4424407484
 20
39.7020930637
 30
0.0
 10
45.5497940662
 20
39.7022238847
 30
0.0
 10
49.7644664344
 20
39.7174132639
 30
0.0
 10
55.0328944986
 20
39.7039704206
 30
0.0
 10
58.7205244671
 20
39.6637270345
 30
0.0
 10
60.8276763787
 20
39.6377011059
 30
0.0
 10
62.4080642759
 20
39.6208753711
 30
0.0
 10
63.7248607607
 20
39.5943698214
 30
0.0
 10
64.7784228946
 20
39.5822672071
 30
0.0
 10
65.5685457805
 20
39.5698938711
 30
0.0
 10
66.3586833166
 20
39.5585707067
 30
0.0
 10
67.0171455901
 20
39.5499040794
 30
0.0
 10
67.5438991042
 20
39.5423707854
 30
0.0
 10
68.0706889037
 20
39.5386025277
 30
0.0
 10
68.4654261188
 20
39.5206118375
 30
0.0
 10
68.7286533245
 20
39.5122560109
 30
0.0
 11
43.4424407484
 21
39.7020930637
 31
0.0
 11
49.7644945415
 21
39.7109273492
 31
0.0
 11
56.0864931648
 21
39.6895356653
 31
0.0
 11
59.2473160436
 21
39.6569679698
 31
0.0
 11
60.8276850811
 21
39.6381500041
 31
0.0
 11
62.408038071
 21
39.6183783594
 31
0.0
 11
63.9882648534
 21
39.5921026035
 31
0.0
 11
64.7784138385
 21
39.5817178245
 31
0.0
 11
65.5685490132
 21
39.5700688879
 31
0.0
 11
66.3586859066
 21
39.5587245789
 31
0.0
 11
67.1488319967
 21
39.5479707651
 31
0.0
 11
67.5439094025
 21
39.5428413746
 31
0.0
 11
67.9389888875
 21
39.5378589791
 31
0.0
 11
68.7286533245
 21
39.5122560109
 31
0.0
  0
SPLINE
  5
330
100
AcDbEntity
  8
RACCORDO
100
AcDbSpline
 62
253
  6
CONTINUOUS
 70
0
 71
3
 72
12
 73
8
 74
6
 42
0.0000001
 43
0.0000001
 44
0.0000000001
 12
25.2499517449
 22
-0.0000745651
 32
0.0
 13
25.2499046799
 23
0.0487522669
 33
0.0
 40
0.0
 40
0.0
 40
0.0
 40
0.0
 40
0.250009466
 40
0.5000179854
 40
0.7500166831
 40
0.8750105008
 40
1.0
 40
1.0
 40
1.0
 40
1.0
 10
43.4424914894
 20
40.3665865243
 30
0.0
 10
45.5467338068
 20
40.3665803103
 30
0.0
 10
49.755210471
 20
40.3658903114
 30
0.0
 10
56.0678387583
 20
40.3665721889
 30
0.0
 10
61.3282540845
 20
40.3688680206
 30
0.0
 10
65.5364257812
 20
40.3726945708
 30
0.0
 10
67.6404497684
 20
40.3725611908
 30
0.0
 10
68.6924407484
 20
40.3745923646
 30
0.0
 11
43.4424914894
 21
40.3665865243
 31
0.0
 11
49.7552184284
 21
40.3661764587
 31
0.0
 11
56.0679214351
 21
40.3669177382
 31
0.0
 11
62.3803757413
 21
40.3699905523
 31
0.0
 11
65.5364628454
 21
40.3721829371
 31
0.0
 11
68.6924407484
 21
40.3745923646
 31
0.0
  0
SPLINE
  5
331
100
AcDbEntity
  8
RACCORDO
100
AcDbSpline
 62
253
  6
CONTINUOUS
 70
0
 71
3
 72
15
 73
11
 74
9
 42
0.0000001
 43
0.0000001
 44
0.0000000001
 12
-0.4978716543
 22
-0.7062456465
 32
0.0
 13
-0.006043114
 23
-0.8640732481
 33
0.0
 40
0.0
 40
0.0
 40
0.0
 40
0.0
 40
0.0102156588
 40
0.0286668895
 40
0.0902255244
 40
0.183445639
 40
0.3054341282
 40
0.4527295649
 40
0.6210735465
 40
1.0
 40
1.0
 40
1.0
 40
1.0
 10
-5.3075592516
 20
40.3745923646
 30
0.0
 10
-5.3092546139
 20
40.3721874431
 30
0.0
 10
-5.3114341901
 20
40.3639707602
 30
0.0
 10
-5.316349471
 20
40.3386732411
 30
0.0
 10
-5.321083955
 20
40.2887255045
 30
0.0
 10
-5.3266693031
 20
40.2093380426
 30
0.0
 10
-5.331590433
 20
40.1049784531
 30
0.0
 10
-5.3359954426
 20
39.9790234197
 30
0.0
 10
-5.3409753235
 20
39.7790173956
 30
0.0
 10
-5.3430085296
 20
39.6213960835
 30
0.0
 10
-5.3437718282
 20
39.512256013
 30
0.0
 11
-5.3075592516
 21
40.3745923646
 31
0.0
 11
-5.3107295666
 21
40.3663540267
 31
0.0
 11
-5.313885565
 21
40.3507259044
 31
0.0
 11
-5.3200435737
 21
40.2978910879
 31
0.0
 11
-5.3258220206
 21
40.2175476409
 31
0.0
 11
-5.3310529267
 21
40.1122679438
 31
0.0
 11
-5.335584523
 21
39.9850714821
 31
0.0
 11
-5.3392866027
 21
39.8396535103
 31
0.0
 11
-5.3437718282
 21
39.512256013
 31
0.0
  0
SPLINE
  5
332
100
AcDbEntity
  8
RACCORDO
100
AcDbSpline
 62
253
  6
CONTINUOUS
 70
0
 71
3
 72
20
 73
16
 74
14
 42
0.0000001
 43
0.0000001
 44
0.0000000001
 12
25.2749342392
 22
0.8023028501
 32
0.0
 13
25.2876647438
 23
-0.0015699059
 33
0.0
 40
0.0
 40
0.0
 40
0.0
 40
0.0
 40
0.0312436836
 40
0.0468683314
 40
0.0624929725
 40
0.0937421704
 40
0.1249913311
 40
0.156240599
 40
0.1874897256
 40
0.2499883543
 40
0.3124882939
 40
0.3749883778
 40
0.4999896589
 40
0.7499943252
 40
1.0
 40
1.0
 40
1.0
 40
1.0
 10
-5.3437718282
 20
39.512256013
 30
0.0
 10
-5.0805444789
 20
39.5206116451
 30
0.0
 10
-4.6858072991
 20
39.5386086463
 30
0.0
 10
-4.159017275
 20
39.5423697553
 30
0.0
 10
-3.6322638219
 20
39.5499052574
 30
0.0
 10
-2.9738015003
 20
39.5585668418
 30
0.0
 10
-2.1836642352
 20
39.569907858
 30
0.0
 10
-1.3935404299
 20
39.5822179094
 30
0.0
 10
-0.3399823967
 20
39.5946063352
 30
0.0
 10
0.9768199692
 20
39.6207294726
 30
0.0
 10
2.5572046575
 20
39.6377888326
 30
0.0
 10
4.6643585625
 20
39.6636824489
 30
0.0
 10
8.3519873191
 20
39.7039993736
 30
0.0
 10
13.6204155925
 20
39.7174021311
 30
0.0
 10
17.835087519
 20
39.7022238907
 30
0.0
 10
19.9424407484
 20
39.7020930623
 30
0.0
 11
-5.3437718282
 21
39.512256013
 31
0.0
 11
-4.5541070774
 21
39.5378620161
 31
0.0
 11
-4.1590276006
 21
39.5428415142
 31
0.0
 11
-3.7639502097
 21
39.5479708708
 31
0.0
 11
-2.9738041447
 21
39.558724698
 31
0.0
 11
-2.1836672824
 21
39.570069352
 31
0.0
 11
-1.3935320835
 21
39.5817147999
 31
0.0
 11
-0.6033844543
 21
39.5922183564
 31
0.0
 11
0.9768439026
 21
39.6183478732
 31
0.0
 11
2.5571969637
 21
39.6381822567
 31
0.0
 11
4.1375664507
 21
39.6569709927
 31
0.0
 11
7.2983892181
 21
39.6895339318
 31
0.0
 11
13.6203872199
 21
39.7109270184
 31
0.0
 11
19.9424407484
 21
39.7020930623
 31
0.0
  0
SPLINE
  5
333
100
AcDbEntity
  8
RACCORDO
100
AcDbSpline
 62
253
  6
CONTINUOUS
 70
0
 71
3
 72
12
 73
8
 74
6
 42
0.0000001
 43
0.0000001
 44
0.0000000001
 12
25.2499047518
 22
-0.0487521437
 32
0.0
 13
25.2499518166
 23
0.0000744712
 33
0.0
 40
0.0
 40
0.0
 40
0.0
 40
0.0
 40
0.1249895015
 40
0.2499833008
 40
0.4999820177
 40
0.7499905317
 40
1.0
 40
1.0
 40
1.0
 40
1.0
 10
-5.3075592516
 20
40.3745923646
 30
0.0
 10
-4.2555682493
 20
40.3725611959
 30
0.0
 10
-2.1515443911
 20
40.3726954186
 30
0.0
 10
2.0566273399
 20
40.3688637387
 30
0.0
 10
7.3170426455
 20
40.3665736608
 30
0.0
 10
13.6296710853
 20
40.3658899043
 30
0.0
 10
17.8381477358
 20
40.3665803181
 30
0.0
 10
19.9423900787
 20
40.3665865243
 30
0.0
 11
-5.3075592516
 21
40.3745923646
 31
0.0
 11
-2.1515812819
 21
40.372182933
 31
0.0
 11
1.0045053652
 21
40.3699883641
 31
0.0
 11
7.3169601748
 21
40.3669177461
 31
0.0
 11
13.6296630632
 21
40.3661764685
 31
0.0
 11
19.9423900787
 21
40.3665865243
 31
0.0
  0
SPLINE
  5
334
100
AcDbEntity
  8
RACCORDO
100
AcDbSpline
 62
253
  6
CONTINUOUS
 70
0
 71
3
 72
15
 73
11
 74
9
 42
0.0000001
 43
0.0000001
 44
0.0000000001
 12
0.6077496173
 22
0.611185653
 32
0.0
 13
0.8618761551
 23
0.0087745673
 33
0.0
 40
0.0
 40
0.0
 40
0.0
 40
0.0
 40
0.0108564627
 40
0.0296319919
 40
0.0914488496
 40
0.1846617558
 40
0.3064875759
 40
0.4535277519
 40
0.6215770825
 40
1.0
 40
1.0
 40
1.0
 40
1.0
 10
-8.076168455
 20
37.6051642363
 30
0.0
 10
-8.073969118
 20
37.6073760077
 30
0.0
 10
-8.0657672962
 20
37.6107171935
 30
0.0
 10
-8.0406491037
 20
37.6174968198
 30
0.0
 10
-7.9908295463
 20
37.6244586631
 30
0.0
 10
-7.9118412362
 20
37.6322968868
 30
0.0
 10
-7.8079688761
 20
37.6393495295
 30
0.0
 10
-7.6826180621
 20
37.6456098161
 30
0.0
 10
-7.483478338
 20
37.6527245458
 30
0.0
 10
-7.3264905232
 20
37.6556386532
 30
0.0
 10
-7.2177726268
 20
37.6567454856
 30
0.0
 11
-8.076168455
 21
37.6051642363
 31
0.0
 11
-8.0679676429
 21
37.6096706567
 31
0.0
 11
-8.0524188744
 21
37.6141568487
 31
0.0
 11
-7.9998618161
 21
37.6229116083
 31
0.0
 11
-7.9199411058
 21
37.6311298956
 31
0.0
 11
-7.8152011054
 21
37.6385741271
 31
0.0
 11
-7.6886286287
 21
37.6450295553
 31
0.0
 11
-7.5438797588
 21
37.6503117412
 31
0.0
 11
-7.2177726268
 21
37.6567454856
 31
0.0
  0
SPLINE
  5
335
100
AcDbEntity
  8
RACCORDO
100
AcDbSpline
 62
253
  6
CONTINUOUS
 70
0
 71
3
 72
11
 73
7
 74
5
 42
0.0000001
 43
0.0000001
 44
0.0000000001
 12
0.1050290837
 22
2.8815944537
 32
0.0
 13
2.8820565496
 23
0.0914753994
 33
0.0
 40
0.0
 40
0.0
 40
0.0
 40
0.0
 40
0.2500977701
 40
0.5001784423
 40
0.7501645277
 40
1.0
 40
1.0
 40
1.0
 40
1.0
 10
-7.2177726268
 20
37.6567454856
 30
0.0
 10
-7.2090167802
 20
37.896972268
 30
0.0
 10
-7.0963934142
 20
38.3785474105
 30
0.0
 10
-6.676535344
 20
38.9846016466
 30
0.0
 10
-6.0657071182
 20
39.3971324831
 30
0.0
 10
-5.5837851475
 20
39.5046380779
 30
0.0
 10
-5.3437718277
 20
39.5122560111
 30
0.0
 11
-7.2177726268
 21
37.6567454856
 31
0.0
 11
-7.0545565803
 21
38.3591916889
 31
0.0
 11
-6.6446091177
 21
38.9524387858
 31
0.0
 11
-6.0468743138
 21
39.35532694
 31
0.0
 11
-5.3437718277
 21
39.5122560111
 31
0.0
  0
SPLINE
  5
336
100
AcDbEntity
  8
RACCORDO
100
AcDbSpline
 62
253
  6
CONTINUOUS
 70
0
 71
3
 72
27
 73
23
 74
21
 42
0.0000001
 43
0.0000001
 44
0.0000000001
 12
-0.0002269066
 22
37.0537139161
 32
0.0
 13
1.3415101938
 23
37.0294216188
 33
0.0
 40
0.0
 40
0.0
 40
0.0
 40
0.0
 40
0.2500040974
 40
0.50000815
 40
0.6250101389
 40
0.6875111175
 40
0.7500120671
 40
0.8125128286
 40
0.8750129665
 40
0.9062626117
 40
0.9218873075
 40
0.9375119336
 40
0.9531365048
 40
0.9609487722
 40
0.964854949
 40
0.968760989
 40
0.972667286
 40
0.9765734041
 40
0.9804796571
 40
0.984385321
 40
0.9921942998
 40
1.0
 40
1.0
 40
1.0
 40
1.0
 10
-7.4045391506
 20
0.6051642412
 30
0.0
 10
-7.4045580598
 20
3.6930243426
 30
0.0
 10
-7.4033260267
 20
9.8687443335
 30
0.0
 10
-7.3946153431
 20
17.5883901185
 30
0.0
 10
-7.3832692656
 20
22.9921321265
 30
0.0
 10
-7.3754461215
 20
26.0799797333
 30
0.0
 10
-7.3684928753
 20
28.3958610225
 30
0.0
 10
-7.3531319682
 20
30.7116983454
 30
0.0
 10
-7.3307342777
 20
32.641463468
 30
0.0
 10
-7.3111806647
 20
33.9922321878
 30
0.0
 10
-7.299639869
 20
34.7640855978
 30
0.0
 10
-7.2910792298
 20
35.3429727227
 30
0.0
 10
-7.2834375889
 20
35.8253704486
 30
0.0
 10
-7.279156964
 20
36.1630631933
 30
0.0
 10
-7.2752929445
 20
36.356010421
 30
0.0
 10
-7.2741904471
 20
36.5007409438
 30
0.0
 10
-7.2724273799
 20
36.6454873843
 30
0.0
 10
-7.2643954639
 20
36.7900481582
 30
0.0
 10
-7.251940719
 20
36.9342509838
 30
0.0
 10
-7.2408177234
 20
37.1268822875
 30
0.0
 10
-7.2287381218
 20
37.3676782825
 30
0.0
 10
-7.2212635233
 20
37.5603987862
 30
0.0
 10
-7.2177730479
 20
37.6567456405
 30
0.0
 11
-7.4045391506
 21
0.6051642412
 31
0.0
 11
-7.4018918977
 21
9.8687441673
 31
0.0
 11
-7.3908737387
 21
19.1323162551
 31
0.0
 11
-7.3812018391
 21
23.7640940953
 31
0.0
 11
-7.3752651377
 21
26.0799798658
 31
0.0
 11
-7.3670915767
 21
28.3958577491
 31
0.0
 11
-7.3512124876
 21
30.7116886462
 31
0.0
 11
-7.3247783404
 21
33.0274000039
 31
0.0
 11
-7.3082648082
 21
34.1851976587
 31
0.0
 11
-7.2996556723
 21
34.7640866535
 31
0.0
 11
-7.2909776602
 21
35.3429720377
 31
0.0
 11
-7.2823163146
 21
35.9218556351
 31
0.0
 11
-7.2780728005
 21
36.2112980529
 31
0.0
 11
-7.2755921754
 21
36.3560151496
 31
0.0
 11
-7.2740803821
 21
36.5007405441
 31
0.0
 11
-7.2713825064
 21
36.6454582092
 31
0.0
 11
-7.2636583385
 21
36.789988137
 31
0.0
 11
-7.2526253227
 21
36.934308206
 31
0.0
 11
-7.2437185221
 21
37.0787532136
 31
0.0
 11
-7.2292833466
 21
37.3677445838
 31
0.0
 11
-7.2177730479
 21
37.6567456405
 31
0.0
  0
SPLINE
  5
337
100
AcDbEntity
  8
RACCORDO
100
AcDbSpline
 62
253
  6
CONTINUOUS
 70
0
 71
3
 72
13
 73
9
 74
7
 42
0.0000001
 43
0.0000001
 44
0.0000000001
 12
0.0000113768
 22
37.0000021897
 32
0.0
 13
-0.1019139577
 23
36.999861832
 33
0.0
 40
0.0
 40
0.0
 40
0.0
 40
0.0
 40
0.2500070711
 40
0.5000140256
 40
0.7500205739
 40
0.8750212108
 40
0.9375186879
 40
1.0
 40
1.0
 40
1.0
 40
1.0
 10
-8.0689794316
 20
0.605164342
 30
0.0
 10
-8.0689784835
 20
3.6885850682
 30
0.0
 10
-8.0690114115
 20
9.855425053
 30
0.0
 10
-8.0695466275
 20
19.1056794731
 30
0.0
 10
-8.07007781
 20
26.8141872027
 30
0.0
 10
-8.0713969273
 20
32.21007903
 30
0.0
 10
-8.0737531619
 20
35.2931569336
 30
0.0
 10
-8.0740686701
 20
36.8345642699
 30
0.0
 10
-8.0761912427
 20
37.6051642412
 30
0.0
 11
-8.0689794316
 21
0.605164342
 31
0.0
 11
-8.0690923822
 21
9.8554265198
 31
0.0
 11
-8.0695636621
 21
19.1056843718
 31
0.0
 11
-8.0705449312
 21
28.3559271539
 31
0.0
 11
-8.0721196094
 21
32.9809507252
 31
0.0
 11
-8.0735376319
 21
35.2933570806
 31
0.0
 11
-8.0761912427
 21
37.6051642412
 31
0.0
  0
SPLINE
  5
338
100
AcDbEntity
  8
RACCORDO
100
AcDbSpline
 62
253
  6
CONTINUOUS
 70
0
 71
3
 72
15
 73
11
 74
9
 42
0.0000001
 43
0.0000001
 44
0.0000000001
 12
0.6077784361
 22
-0.6111885089
 32
0.0
 13
0.8618985128
 23
-0.008773512
 33
0.0
 40
0.0
 40
0.0
 40
0.0
 40
0.0
 40
0.0108566779
 40
0.029632499
 40
0.0914500585
 40
0.1846636813
 40
0.3064900458
 40
0.4535304139
 40
0.6215794525
 40
1.0
 40
1.0
 40
1.0
 40
1.0
 10
-8.0761912427
 20
-36.3948357588
 30
0.0
 10
-8.0739917578
 20
-36.3970475844
 30
0.0
 10
-8.065789576
 20
-36.4003888386
 30
0.0
 10
-8.040670351
 20
-36.4071686159
 30
0.0
 10
-7.9908490157
 20
-36.4141305869
 30
0.0
 10
-7.9118580726
 20
-36.421968921
 30
0.0
 10
-7.8079825964
 20
-36.4290216148
 30
0.0
 10
-7.6826283946
 20
-36.4352818924
 30
0.0
 10
-7.483484208
 20
-36.4423965096
 30
0.0
 10
-7.3264930835
 20
-36.4453104659
 30
0.0
 10
-7.2177730478
 20
-36.4464171583
 30
0.0
 11
-8.0761912427
 21
-36.3948357588
 31
0.0
 11
-8.0679900018
 21
-36.3993422878
 31
0.0
 11
-8.052440564
 21
-36.4038285813
 31
0.0
 11
-7.9998815209
 21
-36.4125835134
 31
0.0
 11
-7.919958108
 21
-36.4208019201
 31
0.0
 11
-7.8152149122
 21
-36.4282462104
 31
0.0
 11
-7.6886389794
 21
-36.4347016322
 31
0.0
 11
-7.543886601
 21
-36.4399837459
 31
0.0
 11
-7.2177730478
 21
-36.4464171583
 31
0.0
  0
SPLINE
  5
339
100
AcDbEntity
  8
RACCORDO
100
AcDbSpline
 62
253
  6
CONTINUOUS
 70
0
 71
3
 72
27
 73
23
 74
21
 42
0.0000001
 43
0.0000001
 44
0.0000000001
 12
-1.3415163802
 22
37.0294383528
 32
0.0
 13
0.0002269024
 23
37.053730863
 33
0.0
 40
0.0
 40
0.0
 40
0.0
 40
0.0
 40
0.0078057007
 40
0.0156146807
 40
0.019520343
 40
0.0234264476
 40
0.0273329749
 40
0.0312388468
 40
0.0351450427
 40
0.0390511551
 40
0.0468634378
 40
0.0624880083
 40
0.0781126354
 40
0.0937373321
 40
0.1249869793
 40
0.1874871206
 40
0.2499878857
 40
0.3124888393
 40
0.3749898217
 40
0.4999918186
 40
0.7499958868
 40
1.0
 40
1.0
 40
1.0
 40
1.0
 10
-7.2177730478
 20
-36.4464171583
 30
0.0
 10
-7.2212635396
 20
-36.3500702542
 30
0.0
 10
-7.2288027706
 20
-36.1573535989
 30
0.0
 10
-7.2406402627
 20
-35.9165426554
 30
0.0
 10
-7.2522206178
 20
-35.7239414388
 30
0.0
 10
-7.2636494353
 20
-35.57967169
 30
0.0
 10
-7.2736435572
 20
-35.4352106111
 30
0.0
 10
-7.2735632921
 20
-35.2904155476
 30
0.0
 10
-7.2755534721
 20
-35.1457061331
 30
0.0
 10
-7.2790248094
 20
-34.9527501894
 30
0.0
 10
-7.2835586543
 20
-34.615062587
 30
0.0
 10
-7.2910401667
 20
-34.132661553
 30
0.0
 10
-7.2996498255
 20
-33.5537750409
 30
0.0
 10
-7.3111749591
 20
-32.7819209438
 30
0.0
 10
-7.3307362153
 20
-31.4311516767
 30
0.0
 10
-7.3531316711
 20
-29.5013854957
 30
0.0
 10
-7.3684909989
 20
-27.1855469865
 30
0.0
 10
-7.3754500629
 20
-24.8696645131
 30
0.0
 10
-7.3832691037
 20
-21.7818152894
 30
0.0
 10
-7.3946153234
 20
-16.3780704728
 30
0.0
 10
-7.4033260341
 20
-8.6584206704
 30
0.0
 10
-7.4045580595
 20
-2.4826974668
 30
0.0
 10
-7.4045391506
 20
0.6051642412
 30
0.0
 11
-7.2177730478
 21
-36.4464171583
 31
0.0
 11
-7.2292834336
 21
-36.1574159539
 31
0.0
 11
-7.2437096599
 21
-35.8684239567
 31
0.0
 11
-7.2526771337
 21
-35.7239826995
 31
0.0
 11
-7.2634098899
 21
-35.579645438
 31
0.0
 11
-7.2719647564
 21
-35.4351470458
 31
0.0
 11
-7.2739083371
 21
-35.2904329705
 31
0.0
 11
-7.2756557017
 21
-35.1457043856
 31
0.0
 11
-7.2780835909
 21
-35.0009887129
 31
0.0
 11
-7.2823302396
 21
-34.7115456451
 31
0.0
 11
-7.2909787931
 21
-34.132661616
 31
0.0
 11
-7.299655501
 21
-33.5537759121
 31
0.0
 11
-7.3082646873
 21
-32.9748866172
 31
0.0
 11
-7.3247772174
 21
-31.8170883477
 31
0.0
 11
-7.3512123742
 21
-29.5013758119
 31
0.0
 11
-7.3670909332
 21
-27.1855437187
 31
0.0
 11
-7.3752675965
 21
-24.8696646401
 31
0.0
 11
-7.3812030518
 21
-22.5537776647
 31
0.0
 11
-7.3908736666
 21
-17.9219974117
 31
0.0
 11
-7.4018918978
 21
-8.6584205045
 31
0.0
 11
-7.4045391506
 21
0.6051642412
 31
0.0
  0
SPLINE
  5
33A
100
AcDbEntity
  8
RACCORDO
100
AcDbSpline
 62
253
  6
CONTINUOUS
 70
0
 71
3
 72
13
 73
9
 74
7
 42
0.0000001
 43
0.0000001
 44
0.0000000001
 12
0.1019136679
 22
36.9998620344
 32
0.0
 13
-0.000011379
 23
37.0000023914
 33
0.0
 40
0.0
 40
0.0
 40
0.0
 40
0.0
 40
0.0624813087
 40
0.1249787862
 40
0.2499794232
 40
0.4999859724
 40
0.7499929279
 40
1.0
 40
1.0
 40
1.0
 40
1.0
 10
-8.0761912427
 20
-36.3948357588
 30
0.0
 10
-8.0740686762
 20
-35.6242358245
 30
0.0
 10
-8.0737531448
 20
-34.0828285174
 30
0.0
 10
-8.0713969544
 20
-30.9997506327
 30
0.0
 10
-8.0700778067
 20
-25.6038587593
 30
0.0
 10
-8.0695466277
 20
-17.8953509624
 30
0.0
 10
-8.0690114112
 20
-8.6450964562
 30
0.0
 10
-8.0689784834
 20
-2.4782564132
 30
0.0
 10
-8.0689794316
 20
0.605164342
 30
0.0
 11
-8.0761912427
 21
-36.3948357588
 31
0.0
 11
-8.0735376262
 21
-34.0830287091
 31
0.0
 11
-8.0721196203
 21
-31.7706223302
 31
0.0
 11
-8.0705449397
 21
-27.1455987284
 31
0.0
 11
-8.0695636616
 21
-17.8953558621
 31
0.0
 11
-8.0690923821
 21
-8.645097923
 31
0.0
 11
-8.0689794316
 21
0.605164342
 31
0.0
  0
SPLINE
  5
33B
100
AcDbEntity
  8
RACCORDO
100
AcDbSpline
 62
253
  6
CONTINUOUS
 70
0
 71
3
 72
15
 73
11
 74
9
 42
0.0000001
 43
0.0000001
 44
0.0000000001
 12
-0.4978716441
 22
0.7062455126
 32
0.0
 13
-0.0060431189
 23
0.8640731328
 33
0.0
 40
0.0
 40
0.0
 40
0.0
 40
0.0
 40
0.0102156575
 40
0.0286668865
 40
0.0902255175
 40
0.1834456281
 40
0.3054341143
 40
0.45272955
 40
0.6210735333
 40
1.0
 40
1.0
 40
1.0
 40
1.0
 10
-5.3075592516
 20
-39.1642637652
 30
0.0
 10
-5.3092546136
 20
-39.1618588444
 30
0.0
 10
-5.3114341895
 20
-39.1536421634
 30
0.0
 10
-5.3163494696
 20
-39.1283446498
 30
0.0
 10
-5.3210839529
 20
-39.0783969225
 30
0.0
 10
-5.3266693006
 20
-38.9990094745
 30
0.0
 10
-5.3315904303
 20
-38.8946499012
 30
0.0
 10
-5.33599544
 20
-38.7686948853
 30
0.0
 10
-5.3409753216
 20
-38.5686888839
 30
0.0
 10
-5.3430085285
 20
-38.4110675885
 30
0.0
 10
-5.3437718277
 20
-38.3019275288
 30
0.0
 11
-5.3075592516
 21
-39.1642637652
 31
0.0
 11
-5.310729566
 21
-39.1560254296
 31
0.0
 11
-5.3138855639
 21
-39.1403973108
 31
0.0
 11
-5.3200435717
 21
-39.0875625047
 31
0.0
 11
-5.3258220181
 21
-39.007219072
 31
0.0
 11
-5.331052924
 21
-38.9019393915
 31
0.0
 11
-5.3355845204
 21
-38.7747429477
 31
0.0
 11
-5.3392866005
 21
-38.6293249938
 31
0.0
 11
-5.3437718277
 21
-38.3019275288
 31
0.0
  0
SPLINE
  5
33C
100
AcDbEntity
  8
RACCORDO
100
AcDbSpline
 62
253
  6
CONTINUOUS
 70
0
 71
3
 72
11
 73
7
 74
5
 42
0.0000001
 43
0.0000001
 44
0.0000000001
 12
-2.8820565341
 22
0.0914753495
 32
0.0
 13
-0.1050304011
 23
2.8815943885
 33
0.0
 40
0.0
 40
0.0
 40
0.0
 40
0.0
 40
0.2498354742
 40
0.4998215605
 40
0.7499022342
 40
1.0
 40
1.0
 40
1.0
 40
1.0
 10
-5.3437718277
 20
-38.3019275288
 30
0.0
 10
-5.583785148
 20
-38.2943095997
 30
0.0
 10
-6.0657071198
 20
-38.1868039994
 30
0.0
 10
-6.6765353387
 20
-37.7742731635
 30
0.0
 10
-7.0963934047
 20
-37.1682189003
 30
0.0
 10
-7.2090166721
 20
-36.6866437767
 30
0.0
 10
-7.2177726283
 20
-36.4464170038
 30
0.0
 11
-5.3437718277
 21
-38.3019275288
 31
0.0
 11
-6.0468743147
 21
-38.1449984574
 31
0.0
 11
-6.644609113
 21
-37.7421102977
 31
0.0
 11
-7.0545565493
 21
-37.1488631826
 31
0.0
 11
-7.2177726283
 21
-36.4464170038
 31
0.0
  0
SPLINE
  5
33D
100
AcDbEntity
  8
0
100
AcDbSpline
 62
7
  6
CONTINUOUS
 70
0
 71
3
 72
11
 73
7
 74
5
 42
0.0000001
 43
0.0000001
 44
0.0000000001
 12
0.0757596415
 22
0.0
 32
0.0
 13
-0.0053713382
 23
0.0755689884
 33
0.0
 40
0.0
 40
0.0
 40
0.0
 40
0.0
 40
0.0674099383
 40
0.2587882615
 40
0.5725652275
 40
1.0
 40
1.0
 40
1.0
 40
1.0
 10
-45.9669710072
 20
-26.5369657588
 30
0.0
 10
-45.9652686896
 20
-26.5369657588
 30
0.0
 10
-45.9659389044
 20
-26.5269058405
 30
0.0
 10
-45.9646806703
 20
-26.515745763
 30
0.0
 10
-45.9664076481
 20
-26.4903380941
 30
0.0
 10
-45.9673920177
 20
-26.4722625015
 30
0.0
 10
-45.9681573166
 20
-26.4614955637
 30
0.0
 11
-45.9669710072
 21
-26.5369657588
 31
0.0
 11
-45.9655337868
 21
-26.5320652115
 31
0.0
 11
-45.9652432389
 21
-26.5175693699
 31
0.0
 11
-45.9661276049
 21
-26.4938141954
 31
0.0
 11
-45.9681573166
 21
-26.4614955637
 31
0.0
  0
SPLINE
  5
33E
100
AcDbEntity
  8
0
100
AcDbSpline
 62
7
  6
CONTINUOUS
 70
0
 71
3
 72
17
 73
13
 74
11
 42
0.0000001
 43
0.0000001
 44
0.0000000001
 12
-0.0450747006
 22
0.6341528702
 32
0.0
 13
-0.6357527753
 23
0.0
 33
0.0
 40
0.0
 40
0.0
 40
0.0
 40
0.0
 40
0.2816762958
 40
0.4521328754
 40
0.6213024512
 40
0.7733325028
 40
0.8383986505
 40
0.8940130681
 40
0.9388941691
 40
0.9719489487
 40
0.9923720366
 40
1.0
 40
1.0
 40
1.0
 40
1.0
 10
-45.9681573166
 20
-26.4614955637
 30
0.0
 10
-45.9723894748
 20
-26.4019536199
 30
0.0
 10
-45.9817009215
 20
-26.3065710477
 30
0.0
 10
-45.9958397266
 20
-26.1756651817
 30
0.0
 10
-46.0080516841
 20
-26.0722084834
 30
0.0
 10
-46.018441828
 20
-25.9909612232
 30
0.0
 10
-46.0264814427
 20
-25.9338163023
 30
0.0
 10
-46.0316476439
 20
-25.8989156031
 30
0.0
 10
-46.0364045939
 20
-25.8715474078
 30
0.0
 10
-46.0399264692
 20
-25.8497485124
 30
0.0
 10
-46.0435130462
 20
-25.8395432455
 30
0.0
 10
-46.0447833237
 20
-25.8312357588
 30
0.0
 10
-46.0463998233
 20
-25.8312357588
 30
0.0
 11
-45.9681573166
 21
-26.4614955637
 31
0.0
 11
-45.9843708687
 21
-26.2831545733
 31
0.0
 11
-45.9960471057
 21
-26.1754171996
 31
0.0
 11
-46.0086609935
 21
-26.0686094367
 31
0.0
 11
-46.0210558984
 21
-25.9727539692
 31
0.0
 11
-46.0268205527
 21
-25.931791628
 31
0.0
 11
-46.0321184506
 21
-25.8968337796
 31
0.0
 11
-46.0368306755
 21
-25.8686922931
 31
0.0
 11
-46.0408463972
 21
-25.8480648782
 31
0.0
 11
-46.0440646506
 21
-25.8354860069
 31
0.0
 11
-46.0463998233
 21
-25.8312357588
 31
0.0
  0
LINE
  5
33F
100
AcDbEntity
  8
0
100
AcDbLine
 62
7
  6
CONTINUOUS
 10
-45.8060875529
 20
-28.1948427588
 11
-45.8196180587
 21
-28.1005199131
  0
LINE
  5
340
100
AcDbEntity
  8
0
100
AcDbLine
 62
7
  6
CONTINUOUS
 10
-45.8196180587
 20
-28.1005199131
 11
-45.8330057551
 21
-28.005904784
  0
LINE
  5
341
100
AcDbEntity
  8
0
100
AcDbLine
 62
7
  6
CONTINUOUS
 10
-45.8914581939
 20
-27.7115540149
 11
-45.9107961764
 21
-27.5505088523
  0
LINE
  5
342
100
AcDbEntity
  8
0
100
AcDbLine
 62
7
  6
CONTINUOUS
 10
-45.9481384561
 20
-27.2284740617
 11
-45.9661449584
 21
-27.0674683075
  0
LINE
  5
343
100
AcDbEntity
  8
0
100
AcDbLine
 62
7
  6
CONTINUOUS
 10
-45.786165813
 20
-28.1948427588
 11
-45.8088305047
 21
-28.0341708214
  0
LINE
  5
344
100
AcDbEntity
  8
0
100
AcDbLine
 62
7
  6
CONTINUOUS
 10
-45.7279611792
 20
-28.1948427588
 11
-45.7491102742
 21
-28.0710115617
  0
LINE
  5
345
100
AcDbEntity
  8
0
100
AcDbLine
 62
7
  6
CONTINUOUS
 10
-45.8881190678
 20
-27.1988537478
 11
-45.9065928882
 21
-27.0734927588
  0
SPLINE
  5
346
100
AcDbEntity
  8
RACCORDO
100
AcDbSpline
 62
253
  6
CONTINUOUS
 70
0
 71
3
 72
21
 73
17
 74
15
 42
0.0000001
 43
0.0000001
 44
0.0000000001
 12
1.2385648579
 22
1.4556535663
 32
0.0
 13
-0.0071568256
 23
-1.9112611
 33
0.0
 40
0.0
 40
0.0
 40
0.0
 40
0.0
 40
0.0010472368
 40
0.0045911319
 40
0.0106691662
 40
0.0192232594
 40
0.0433538838
 40
0.076552483
 40
0.1185119096
 40
0.1691617911
 40
0.2279635232
 40
0.2940669167
 40
0.4455635321
 40
0.6179168107
 40
0.8049770644
 40
1.0
 40
1.0
 40
1.0
 40
1.0
 10
-46.5537925401
 20
24.7144622836
 30
0.0
 10
-46.5533601832
 20
24.7149704216
 30
0.0
 10
-46.5540083789
 20
24.7089834794
 30
0.0
 10
-46.5532789097
 20
24.7053556743
 30
0.0
 10
-46.5539012644
 20
24.6919172215
 30
0.0
 10
-46.5541357242
 20
24.6683632907
 30
0.0
 10
-46.5547550639
 20
24.6255563229
 30
0.0
 10
-46.5549737199
 20
24.562695589
 30
0.0
 10
-46.5549562914
 20
24.4823936727
 30
0.0
 10
-46.5554463109
 20
24.3859852741
 30
0.0
 10
-46.5562506608
 20
24.2741257401
 30
0.0
 10
-46.5567928577
 20
24.0980402635
 30
0.0
 10
-46.5567192422
 20
23.8495991035
 30
0.0
 10
-46.5548934096
 20
23.5241083865
 30
0.0
 10
-46.5516289676
 20
23.1708942353
 30
0.0
 10
-46.5518880234
 20
22.9274681701
 30
0.0
 10
-46.5523532717
 20
22.8032215866
 30
0.0
 11
-46.5537925401
 21
24.7144622836
 31
0.0
 11
-46.5536058324
 21
24.7124694537
 31
0.0
 11
-46.5535861095
 21
24.7056961261
 31
0.0
 11
-46.5537453057
 21
24.6940804251
 31
0.0
 11
-46.5540490124
 21
24.677734026
 31
0.0
 11
-46.5545967072
 21
24.6316170311
 31
0.0
 11
-46.5549201008
 21
24.5681662192
 31
0.0
 11
-46.5550216552
 21
24.4879703014
 31
0.0
 11
-46.5554514632
 21
24.3911654285
 31
0.0
 11
-46.5561446756
 21
24.2787813155
 31
0.0
 11
-46.5565821655
 21
24.1524403425
 31
0.0
 11
-46.5564832914
 21
23.8628887417
 31
0.0
 11
-46.5547547008
 21
23.5334788507
 31
0.0
 11
-46.5522771588
 21
23.1759639424
 31
0.0
 11
-46.5523532717
 21
22.8032215866
 31
0.0
  0
SPLINE
  5
347
100
AcDbEntity
  8
RACCORDO
100
AcDbSpline
 62
253
  6
CONTINUOUS
 70
0
 71
3
 72
21
 73
17
 74
15
 42
0.0000001
 43
0.0000001
 44
0.0000000001
 12
1.4388010391
 22
-3.2194911765
 32
0.0
 13
-0.0231851908
 23
-3.5262918644
 33
0.0
 40
0.0
 40
0.0
 40
0.0
 40
0.0
 40
0.0017192915
 40
0.0058693319
 40
0.0124376274
 40
0.0210700844
 40
0.0437163423
 40
0.0756078912
 40
0.1166935666
 40
0.166451586
 40
0.2242020935
 40
0.2898938552
 40
0.4425211012
 40
0.6180661232
 40
0.8052733401
 40
1.0
 40
1.0
 40
1.0
 40
1.0
 10
-45.9418459466
 20
26.3073880786
 30
0.0
 10
-45.9410213738
 20
26.3055429973
 30
0.0
 10
-45.9417413244
 20
26.2983088089
 30
0.0
 10
-45.941148716
 20
26.2839701193
 30
0.0
 10
-45.942346895
 20
26.2610908382
 30
0.0
 10
-45.9439729794
 20
26.2167207095
 30
0.0
 10
-45.945355634
 20
26.1424132269
 30
0.0
 10
-45.9461362058
 20
26.0300434547
 30
0.0
 10
-45.9457523751
 20
25.8857606609
 30
0.0
 10
-45.9472929254
 20
25.7111029601
 30
0.0
 10
-45.94997734
 20
25.5075299724
 30
0.0
 10
-45.9519354756
 20
25.1830263554
 30
0.0
 10
-45.951811058
 20
24.7200528296
 30
0.0
 10
-45.9473420588
 20
24.1142548133
 30
0.0
 10
-45.9348466547
 20
23.4590634749
 30
0.0
 10
-45.9356169221
 20
23.0100869232
 30
0.0
 10
-45.937121847
 20
22.7811992444
 30
0.0
 11
-45.9418459466
 21
26.3073880786
 31
0.0
 11
-45.9413573884
 21
26.3013449405
 31
0.0
 11
-45.9414399929
 21
26.2867106038
 31
0.0
 11
-45.942165289
 21
26.2635597346
 31
0.0
 11
-45.9433206667
 21
26.2331404477
 31
0.0
 11
-45.9450242129
 21
26.1532995785
 31
0.0
 11
-45.9459038038
 21
26.040841678
 31
0.0
 11
-45.946030253
 21
25.8959585188
 31
0.0
 11
-45.9473282366
 21
25.7204982281
 31
0.0
 11
-45.949627149
 21
25.5168616577
 31
0.0
 11
-45.9511724041
 21
25.2852134798
 31
0.0
 11
-45.9512251961
 21
24.7469936335
 31
0.0
 11
-45.9462757203
 21
24.1279770573
 31
0.0
 11
-45.937256993
 21
23.4678771097
 31
0.0
 11
-45.937121847
 21
22.7811992444
 31
0.0
  0
LINE
  5
348
100
AcDbEntity
  8
RACCORDO
100
AcDbLine
 62
253
  6
CONTINUOUS
 10
-45.9418672752
 20
-25.0971019467
 11
-45.9506924262
 21
-25.117728929
  0
SPLINE
  5
349
100
AcDbEntity
  8
RACCORDO
100
AcDbSpline
 62
253
  6
CONTINUOUS
 70
0
 71
3
 72
21
 73
17
 74
15
 42
0.0000001
 43
0.0000001
 44
0.0000000001
 12
0.0071566629
 22
-1.9112398527
 32
0.0
 13
-1.2316842781
 23
1.4614523022
 33
0.0
 40
0.0
 40
0.0
 40
0.0
 40
0.0
 40
0.1950086283
 40
0.3820637825
 40
0.5544162417
 40
0.7059162389
 40
0.772023378
 40
0.8308280602
 40
0.8814818082
 40
0.9234427639
 40
0.9566426116
 40
0.9807773315
 40
0.9893295328
 40
0.9954064123
 40
0.9989529764
 40
1.0
 40
1.0
 40
1.0
 40
1.0
 10
-46.5523532005
 20
-21.5929146412
 30
0.0
 10
-46.5518879968
 20
-21.7171507285
 30
0.0
 10
-46.5516259792
 20
-21.9605617241
 30
0.0
 10
-46.5548923056
 20
-22.3137590583
 30
0.0
 10
-46.5567190234
 20
-22.6392445274
 30
0.0
 10
-46.5567941421
 20
-22.8876869564
 30
0.0
 10
-46.5562498697
 20
-23.0637768772
 30
0.0
 10
-46.5554482021
 20
-23.1756419342
 30
0.0
 10
-46.5549545144
 20
-23.2720544907
 30
0.0
 10
-46.5549729184
 20
-23.3523599459
 30
0.0
 10
-46.5547583711
 20
-23.4152238436
 30
0.0
 10
-46.5541336056
 20
-23.4580336935
 30
0.0
 10
-46.5538979838
 20
-23.4815865712
 30
0.0
 10
-46.5532922418
 20
-23.4950273128
 30
0.0
 10
-46.5539989165
 20
-23.4986494715
 30
0.0
 10
-46.553362534
 20
-23.5046440303
 30
0.0
 10
-46.5537924016
 20
-23.5041339719
 30
0.0
 11
-46.5523532005
 21
-21.5929146412
 31
0.0
 11
-46.5522751867
 21
-21.9656255079
 31
0.0
 11
-46.5547534519
 21
-22.3231266899
 31
0.0
 11
-46.5564832923
 21
-22.652531346
 31
0.0
 11
-46.5565825853
 21
-22.9420861914
 31
0.0
 11
-46.5561446275
 21
-23.0684329168
 31
0.0
 11
-46.5554522359
 21
-23.1808214242
 31
0.0
 11
-46.5550205512
 21
-23.2776326023
 31
0.0
 11
-46.5549201567
 21
-23.3578305524
 31
0.0
 11
-46.5545980276
 21
-23.4212830516
 31
0.0
 11
-46.5540465057
 21
-23.4674073163
 31
0.0
 11
-46.553746704
 21
-23.4837499891
 31
0.0
 11
-46.5535899377
 21
-23.4953633869
 31
0.0
 11
-46.5536037704
 21
-23.5021417548
 31
0.0
 11
-46.5537924016
 21
-23.5041339719
 31
0.0
  0
SPLINE
  5
34A
100
AcDbEntity
  8
RACCORDO
100
AcDbSpline
 62
253
  6
CONTINUOUS
 70
0
 71
3
 72
11
 73
7
 74
5
 42
0.0000001
 43
0.0000001
 44
0.0000000001
 12
0.61556013
 22
0.0133986341
 32
0.0
 13
0.6097848489
 23
0.0851835382
 33
0.0
 40
0.0
 40
0.0
 40
0.0
 40
0.0
 40
0.3868829258
 40
0.6864031002
 40
0.8921116742
 40
1.0
 40
1.0
 40
1.0
 40
1.0
 10
-46.5523532025
 20
-21.5929146075
 30
0.0
 10
-46.4729699678
 20
-21.5911867066
 30
0.0
 10
-46.3321504571
 20
-21.5877760757
 30
0.0
 10
-46.1490823004
 20
-21.5826752691
 30
0.0
 10
-46.0234564553
 20
-21.5770373044
 30
0.0
 10
-45.959050286
 20
-21.5739757928
 30
0.0
 10
-45.9371207305
 20
-21.5709123564
 30
0.0
 11
-46.5523532025
 21
-21.5929146075
 31
0.0
 11
-46.3142161587
 21
-21.587178692
 31
0.0
 11
-46.1298866065
 21
-21.5815213219
 31
0.0
 11
-46.0033483605
 21
-21.5760612821
 31
0.0
 11
-45.9371207305
 21
-21.5709123564
 31
0.0
  0
SPLINE
  5
34B
100
AcDbEntity
  8
RACCORDO
100
AcDbSpline
 62
253
  6
CONTINUOUS
 70
0
 71
3
 72
22
 73
18
 74
16
 42
0.0000001
 43
0.0000001
 44
0.0000000001
 12
0.0231970648
 22
-3.5263009771
 32
0.0
 13
-1.6409396631
 23
-3.1213224292
 33
0.0
 40
0.0
 40
0.0
 40
0.0
 40
0.0
 40
0.1948826863
 40
0.3822424715
 40
0.5578737639
 40
0.7105541279
 40
0.7762482443
 40
0.8339874826
 40
0.8837306037
 40
0.9247537295
 40
0.956564632
 40
0.9689507283
 40
0.9792036564
 40
0.9877076457
 40
0.9942271259
 40
0.9983632819
 40
1.0
 40
1.0
 40
1.0
 40
1.0
 10
-45.9371207305
 20
-21.5709123564
 30
0.0
 10
-45.9356138284
 20
-21.7999840254
 30
0.0
 10
-45.9348277892
 20
-22.2493246059
 30
0.0
 10
-45.9473589573
 20
-22.9049813633
 30
0.0
 10
-45.9518154959
 20
-23.5111244811
 30
0.0
 10
-45.9519314875
 20
-23.974265356
 30
0.0
 10
-45.949965272
 20
-24.2988225209
 30
0.0
 10
-45.947273712
 20
-24.5023660726
 30
0.0
 10
-45.945741792
 20
-24.6769256766
 30
0.0
 10
-45.9461351081
 20
-24.8210072297
 30
0.0
 10
-45.9454083483
 20
-24.921187989
 30
0.0
 10
-45.9444142612
 20
-24.9851712621
 30
0.0
 10
-45.9433141586
 20
-25.0217930022
 30
0.0
 10
-45.9423907853
 20
-25.0514052915
 30
0.0
 10
-45.9411452074
 20
-25.0741071264
 30
0.0
 10
-45.9417628515
 20
-25.0881847812
 30
0.0
 10
-45.9409811905
 20
-25.0954018013
 30
0.0
 10
-45.9418764424
 20
-25.0971047096
 30
0.0
 11
-45.9371207305
 21
-21.5709123564
 31
0.0
 11
-45.9372484808
 21
-22.2581422207
 31
0.0
 11
-45.9462859036
 21
-22.9187816971
 31
0.0
 11
-45.9512295279
 21
-23.5381041652
 31
0.0
 11
-45.9511655049
 21
-24.0765127274
 31
0.0
 11
-45.9496141845
 21
-24.3081697723
 31
0.0
 11
-45.947311553
 21
-24.5117670893
 31
0.0
 11
-45.9460205261
 21
-24.6871753502
 31
0.0
 11
-45.9458934792
 21
-24.8318383129
 31
0.0
 11
-45.9450199409
 21
-24.9440121553
 31
0.0
 11
-45.944259658
 21
-24.9876835865
 31
0.0
 11
-45.9432456151
 21
-25.0238250562
 31
0.0
 11
-45.9421811985
 21
-25.0537944343
 31
0.0
 11
-45.9414500069
 21
-25.0767729506
 31
0.0
 11
-45.9413382732
 21
-25.0913581691
 31
0.0
 11
-45.9418764424
 21
-25.0971047096
 31
0.0
  0
SPLINE
  5
34C
100
AcDbEntity
  8
RACCORDO
100
AcDbSpline
 62
253
  6
CONTINUOUS
 70
0
 71
3
 72
10
 73
6
 74
4
 42
0.0000001
 43
0.0000001
 44
0.0000000001
 12
-0.0000815225
 22
-22.1980798246
 32
0.0
 13
0.0272140688
 23
-22.198063143
 33
0.0
 40
0.0
 40
0.0
 40
0.0
 40
0.0
 40
0.500000065
 40
0.750000089
 40
1.0
 40
1.0
 40
1.0
 40
1.0
 10
-46.5567971033
 20
0.6051642412
 30
0.0
 10
-46.5568106904
 20
-3.0945162104
 30
0.0
 10
-46.5571424362
 20
-8.6440370418
 30
0.0
 10
-46.5555213445
 20
-16.0433963986
 30
0.0
 10
-46.5546177624
 20
-19.7430766489
 30
0.0
 10
-46.5523499242
 20
-21.5929145856
 30
0.0
 11
-46.5567971033
 21
0.6051642412
 31
0.0
 11
-46.5565652116
 21
-10.4938771112
 31
0.0
 11
-46.5554980852
 21
-16.0433974982
 31
0.0
 11
-46.5523499242
 21
-21.5929145856
 31
0.0
  0
SPLINE
  5
34D
100
AcDbEntity
  8
RACCORDO
100
AcDbSpline
 62
253
  6
CONTINUOUS
 70
0
 71
3
 72
13
 73
9
 74
7
 42
0.0000001
 43
0.0000001
 44
0.0000000001
 12
-0.0003059653
 22
-22.1760893313
 32
0.0
 13
0.145860469
 23
-22.1756096387
 33
0.0
 40
0.0
 40
0.0
 40
0.0
 40
0.0
 40
0.2500003138
 40
0.5000005977
 40
0.6250006778
 40
0.7500006373
 40
0.8750003474
 40
1.0
 40
1.0
 40
1.0
 40
1.0
 10
-45.951293706
 20
0.6051642412
 30
0.0
 10
-45.9513192031
 20
-1.242845523
 30
0.0
 10
-45.9516051786
 20
-4.9388647431
 30
0.0
 10
-45.9511097459
 20
-9.5588886825
 30
0.0
 10
-45.9495201473
 20
-13.2549051463
 30
0.0
 10
-45.9474270665
 20
-16.0269153173
 30
0.0
 10
-45.9446020551
 20
-18.7989140533
 30
0.0
 10
-45.9431982458
 20
-20.6469311894
 30
0.0
 10
-45.9371207432
 20
-21.5709123565
 30
0.0
 11
-45.951293706
 21
0.6051642412
 31
0.0
 11
-45.9514345982
 21
-4.9388650501
 31
0.0
 11
-45.9506129082
 21
-10.4828936169
 31
0.0
 11
-45.9493699994
 21
-13.2549062827
 31
0.0
 11
-45.947305076
 21
-16.0269157822
 31
0.0
 11
-45.9447219373
 21
-18.7989193153
 31
0.0
 11
-45.9371207432
 21
-21.5709123565
 31
0.0
  0
LINE
  5
34E
100
AcDbEntity
  8
0
100
AcDbLine
 62
7
  6
CONTINUOUS
 10
-45.7170300641
 20
-28.0663002593
 11
-45.6942314205
 21
-28.1948357588
  0
LINE
  5
34F
100
AcDbEntity
  8
0
100
AcDbLine
 62
7
  6
CONTINUOUS
 10
-46.0647065268
 20
-25.8312337588
 11
-46.0565230955
 21
-25.9099021715
  0
LINE
  5
350
100
AcDbEntity
  8
0
100
AcDbLine
 62
7
  6
CONTINUOUS
 10
-46.0565230955
 20
-25.9099021715
 11
-46.0482145998
 21
-25.9885091607
  0
LINE
  5
351
100
AcDbEntity
  8
0
100
AcDbLine
 62
7
  6
CONTINUOUS
 10
-46.0049989583
 20
-26.3806174805
 11
-45.9869750495
 21
-26.5369637588
  0
SPLINE
  5
352
100
AcDbEntity
  8
0
100
AcDbSpline
 62
7
  6
CONTINUOUS
 70
0
 71
3
 72
9
 73
5
 74
3
 42
0.0000001
 43
0.0000001
 44
0.0000000001
 12
-0.0156896019
 22
0.5328651837
 32
0.0
 13
-0.0540220612
 23
0.5303518497
 33
0.0
 40
0.0
 40
0.0
 40
0.0
 40
0.0
 40
0.4004085448
 40
1.0
 40
1.0
 40
1.0
 40
1.0
 10
-45.6900894095
 20
-27.0037384258
 30
0.0
 10
-45.6921834931
 20
-26.9326171682
 30
0.0
 10
-45.7064197606
 20
-26.755368793
 30
0.0
 10
-45.7232244171
 20
-26.578507296
 30
0.0
 10
-45.7340214725
 20
-26.4725091503
 30
0.0
 11
-45.6900894095
 21
-27.0037384258
 31
0.0
 11
-45.7039959215
 21
-26.7907356673
 31
0.0
 11
-45.7340214725
 21
-26.4725091503
 31
0.0
  0
SPLINE
  5
353
100
AcDbEntity
  8
0
100
AcDbSpline
 62
7
  6
CONTINUOUS
 70
0
 71
3
 72
15
 73
11
 74
9
 42
0.0000001
 43
0.0000001
 44
0.0000000001
 12
-0.0602709552
 22
0.4733917245
 32
0.0
 13
-0.4772130687
 23
0.0
 33
0.0
 40
0.0
 40
0.0
 40
0.0
 40
0.0
 40
0.4086372591
 40
0.579960692
 40
0.7250496869
 40
0.8411701857
 40
0.9263339523
 40
0.9790490209
 40
0.9932088486
 40
1.0
 40
1.0
 40
1.0
 40
1.0
 10
-45.8145264074
 20
-25.7639677468
 30
0.0
 10
-45.82273606
 20
-25.6994859145
 30
0.0
 10
-45.8347853012
 20
-25.6080298187
 30
0.0
 10
-45.8512403964
 20
-25.493845854
 30
0.0
 10
-45.8617787493
 20
-25.4259143165
 30
0.0
 10
-45.8711772477
 20
-25.371452631
 30
0.0
 10
-45.8790476508
 20
-25.3322092693
 30
0.0
 10
-45.8853676223
 20
-25.3081260433
 30
0.0
 10
-45.8895804193
 20
-25.2978965266
 30
0.0
 10
-45.8920013917
 20
-25.2947108717
 30
0.0
 10
-45.8930816671
 20
-25.2947108717
 30
0.0
 11
-45.8145264074
 21
-25.7639677468
 31
0.0
 11
-45.8402682974
 21
-25.5706672013
 31
0.0
 11
-45.8519906277
 21
-25.4897541507
 31
0.0
 11
-45.8627077585
 21
-25.4213502456
 31
0.0
 11
-45.8722752659
 21
-25.3667682108
 31
0.0
 11
-45.8806097645
 21
-25.3269907254
 31
0.0
 11
-45.8876193403
 21
-25.3028307116
 31
0.0
 11
-45.8905603832
 21
-25.2967470648
 31
0.0
 11
-45.8930816671
 21
-25.2947108717
 31
0.0
  0
SPLINE
  5
354
100
AcDbEntity
  8
RACCORDO
100
AcDbSpline
 62
253
  6
CONTINUOUS
 70
0
 71
3
 72
19
 73
15
 74
13
 42
0.0000001
 43
0.0000001
 44
0.0000000001
 12
-0.0784359682
 22
-0.2147375978
 32
0.0
 13
0.1628216306
 23
-0.1604791377
 33
0.0
 40
0.0
 40
0.0
 40
0.0
 40
0.0
 40
0.019792212
 40
0.0741039308
 40
0.1672640513
 40
0.2914019013
 40
0.4246166494
 40
0.5114663552
 40
0.6029215848
 40
0.7710702727
 40
0.8510537961
 40
0.893466808
 40
0.9471847232
 40
1.0
 40
1.0
 40
1.0
 40
1.0
 10
-43.1929155917
 20
39.7109406904
 30
0.0
 10
-43.1934330655
 20
39.7095239797
 30
0.0
 10
-43.1909047283
 20
39.703745812
 30
0.0
 10
-43.187521279
 20
39.692054893
 30
0.0
 10
-43.1786383559
 20
39.6729267316
 30
0.0
 10
-43.166853833
 20
39.6491052975
 30
0.0
 10
-43.1525465658
 20
39.6269909907
 30
0.0
 10
-43.1433213199
 20
39.6049857556
 30
0.0
 10
-43.1275310801
 20
39.583687978
 30
0.0
 10
-43.1135472265
 20
39.5618715046
 30
0.0
 10
-43.1001838735
 20
39.544337947
 30
0.0
 10
-43.0924372435
 20
39.5331402394
 30
0.0
 10
-43.0911669555
 20
39.5213827815
 30
0.0
 10
-43.0854752569
 20
39.5150812609
 30
0.0
 10
-43.0826087671
 20
39.5122560109
 30
0.0
 11
-43.1929155917
 21
39.7109406904
 31
0.0
 11
-43.1921559216
 21
39.7064801371
 31
0.0
 11
-43.1880575535
 21
39.6947595966
 31
0.0
 11
-43.1796148865
 21
39.6752067351
 31
0.0
 11
-43.1666832232
 21
39.6499445536
 31
0.0
 11
-43.1515832158
 21
39.6234968067
 31
0.0
 11
-43.1427824163
 21
39.6056987772
 31
0.0
 11
-43.1311682124
 21
39.5883133492
 31
0.0
 11
-43.1093680096
 21
39.5566514657
 31
0.0
 11
-43.0985607917
 21
39.5419015955
 31
0.0
 11
-43.0935980146
 21
39.5335716834
 31
0.0
 11
-43.0899431256
 21
39.5218474863
 31
0.0
 11
-43.0826087671
 21
39.5122560109
 31
0.0
  0
LINE
  5
355
100
AcDbEntity
  8
RACCORDO
100
AcDbLine
 62
253
  6
CONTINUOUS
 10
-45.9507756778
 20
26.327870464
 11
-45.9418446228
 21
26.3073944933
  0
LINE
  5
356
100
AcDbEntity
  8
0
100
AcDbLine
 62
7
  6
CONTINUOUS
 10
-45.9704654808
 20
-27.0752100539
 11
-45.9574678217
 21
-27.1911894128
  0
LINE
  5
357
100
AcDbEntity
  8
0
100
AcDbLine
 62
7
  6
CONTINUOUS
 10
-46.0835024418
 20
-25.8346715718
 11
-46.0751917194
 21
-25.9216063953
  0
LINE
  5
358
100
AcDbEntity
  8
0
100
AcDbLine
 62
7
  6
CONTINUOUS
 10
-46.0475492367
 20
-26.197510715
 11
-46.0432454094
 21
-26.2388317627
  0
LINE
  5
359
100
AcDbEntity
  8
0
100
AcDbLine
 62
7
  6
CONTINUOUS
 10
-46.0104275297
 20
-26.5416815648
 11
-46.0085299942
 21
-26.5585924392
  0
LINE
  5
35A
100
AcDbEntity
  8
0
100
AcDbLine
 62
7
  6
CONTINUOUS
 10
-45.9477872913
 20
-27.0719128163
 11
-45.9309949205
 21
-27.2056490036
  0
LINE
  5
35B
100
AcDbEntity
  8
0
100
AcDbLine
 62
7
  6
CONTINUOUS
 10
-45.8882879003
 20
-27.5328942085
 11
-45.8760916051
 21
-27.6232763024
  0
SPLINE
  5
35C
100
AcDbEntity
  8
RACCORDO
100
AcDbSpline
 62
253
  6
CONTINUOUS
 70
0
 71
3
 72
21
 73
17
 74
15
 42
0.0000001
 43
0.0000001
 44
0.0000000001
 12
2.7680568965
 22
0.1453325368
 32
0.0
 13
-0.0930349489
 23
-2.7703077495
 33
0.0
 40
0.0
 40
0.0
 40
0.0
 40
0.0
 40
0.0015868795
 40
0.0052738721
 40
0.0112888101
 40
0.0196589096
 40
0.0434245245
 40
0.0763882208
 40
0.118246051
 40
0.1686010317
 40
0.2269718502
 40
0.2927998337
 40
0.4442341007
 40
0.6170958518
 40
0.8047897588
 40
1.0
 40
1.0
 40
1.0
 40
1.0
 10
-42.1449382626
 20
40.3745923646
 30
0.0
 10
-42.1434740717
 20
40.3746692397
 30
0.0
 10
-42.1405225208
 20
40.3690788876
 30
0.0
 10
-42.1387510643
 20
40.3598567819
 30
0.0
 10
-42.1361542734
 20
40.342785934
 30
0.0
 10
-42.1331721005
 20
40.3079849164
 30
0.0
 10
-42.1301060549
 20
40.2476601644
 30
0.0
 10
-42.127584005
 20
40.1567177285
 30
0.0
 10
-42.1257609309
 20
40.0410281931
 30
0.0
 10
-42.1246994236
 20
39.9019142315
 30
0.0
 10
-42.1243662641
 20
39.7406286359
 30
0.0
 10
-42.1249364784
 20
39.4859578604
 30
0.0
 10
-42.1276897358
 20
39.1255068681
 30
0.0
 10
-42.1340389228
 20
38.6524908674
 30
0.0
 10
-42.1441902481
 20
38.1390838438
 30
0.0
 10
-42.15407558
 20
37.7854283892
 30
0.0
 10
-42.1601293716
 20
37.6051642412
 30
0.0
 11
-42.1449382626
 21
40.3745923646
 31
0.0
 11
-42.1418901592
 21
40.3714210953
 31
0.0
 11
-42.1391349066
 21
40.3615796436
 31
0.0
 11
-42.1366574843
 21
40.3450921108
 31
0.0
 11
-42.1344432785
 21
40.3219971871
 31
0.0
 11
-42.130753481
 21
40.2562254214
 31
0.0
 11
-42.1279715431
 21
40.1648967173
 31
0.0
 11
-42.1260274665
 21
40.0488885626
 31
0.0
 11
-42.1248758161
 21
39.9093158786
 31
0.0
 11
-42.1244896088
 21
39.747520048
 31
0.0
 11
-42.1248588801
 21
39.5650538419
 31
0.0
 11
-42.1279163828
 21
39.1453089514
 31
0.0
 11
-42.1343410094
 21
38.6662018095
 31
0.0
 11
-42.1447477103
 21
38.1460428852
 31
0.0
 11
-42.1601293716
 21
37.6051642412
 31
0.0
  0
SPLINE
  5
35D
100
AcDbEntity
  8
0
100
AcDbSpline
 62
7
  6
CONTINUOUS
 70
0
 71
3
 72
17
 73
13
 74
11
 42
0.0000001
 43
0.0000001
 44
0.0000000001
 12
0.6215559368
 22
0.0
 32
0.0
 13
0.0742356703
 23
-0.6171068366
 33
0.0
 40
0.0
 40
0.0
 40
0.0
 40
0.0
 40
0.0065045394
 40
0.0208843894
 40
0.0437339742
 40
0.0750777314
 40
0.1625159886
 40
0.2811536326
 40
0.4281050009
 40
0.5997623293
 40
0.791936155
 40
1.0
 40
1.0
 40
1.0
 40
1.0
 10
-46.0939500592
 20
-25.2947108717
 30
0.0
 10
-46.0926024142
 20
-25.2947108717
 30
0.0
 10
-46.0897924091
 20
-25.2992593605
 30
0.0
 10
-46.0868559437
 20
-25.3070353916
 30
0.0
 10
-46.0828229631
 20
-25.3210828961
 30
0.0
 10
-46.0763249284
 20
-25.3494679907
 30
0.0
 10
-46.067370263
 20
-25.3980205278
 30
0.0
 10
-46.0558099143
 20
-25.4701651292
 30
0.0
 10
-46.0427475386
 20
-25.5598416263
 30
0.0
 10
-46.028485269
 20
-25.6646936656
 30
0.0
 10
-46.01334814
 20
-25.782215139
 30
0.0
 10
-46.0032383131
 20
-25.8645195864
 30
0.0
 10
-45.9980897268
 20
-25.9073187934
 30
0.0
 11
-46.0939500592
 21
-25.2947108717
 31
0.0
 11
-46.0909885932
 21
-25.2974631514
 31
0.0
 11
-46.0874709061
 21
-25.3056796955
 31
0.0
 11
-46.0834471263
 21
-25.3193000619
 31
0.0
 11
-46.0789660519
 21
-25.3382596066
 31
0.0
 11
-46.0687313964
 21
-25.3916349914
 31
0.0
 11
-46.0568892948
 21
-25.4644178341
 31
0.0
 11
-46.0436178974
 21
-25.5547870255
 31
0.0
 11
-46.029175898
 21
-25.6604997166
 31
0.0
 11
-46.0138802626
 21
-25.7789631173
 31
0.0
 11
-45.9980897268
 21
-25.9073187934
 31
0.0
  0
SPLINE
  5
35E
100
AcDbEntity
  8
0
100
AcDbSpline
 62
7
  6
CONTINUOUS
 70
0
 71
3
 72
9
 73
5
 74
3
 42
0.0000001
 43
0.0000001
 44
0.0000000001
 12
0.0346650621
 22
-0.3675172915
 32
0.0
 13
0.0108766766
 23
-0.3689882437
 33
0.0
 40
0.0
 40
0.0
 40
0.0
 40
0.0
 40
0.5922565808
 40
1.0
 40
1.0
 40
1.0
 40
1.0
 10
-45.9196833956
 20
-26.6356655694
 30
0.0
 10
-45.9128398586
 20
-26.7082204142
 30
0.0
 10
-45.9020304585
 20
-26.830779756
 30
0.0
 10
-45.8934498269
 20
-26.9535875831
 30
0.0
 10
-45.8919715291
 20
-27.0037384258
 30
0.0
 11
-45.9196833956
 21
-26.6356655694
 31
0.0
 11
-45.9008177622
 21
-26.8534807283
 31
0.0
 11
-45.8919715291
 21
-27.0037384258
 31
0.0
  0
SPLINE
  5
35F
100
AcDbEntity
  8
RACCORDO
100
AcDbSpline
 62
253
  6
CONTINUOUS
 70
0
 71
3
 72
15
 73
11
 74
9
 42
0.0000001
 43
0.0000001
 44
0.0000000001
 12
-0.2085535342
 22
-0.0000398628
 32
0.0
 13
0.047325557
 23
-0.2031129486
 33
0.0
 40
0.0
 40
0.0
 40
0.0
 40
0.0
 40
0.427748325
 40
0.6003251363
 40
0.7432024465
 40
0.8550575163
 40
0.9354010937
 40
0.963638223
 40
0.9838516277
 40
1.0
 40
1.0
 40
1.0
 40
1.0
 10
-46.5523532005
 20
-21.5929146412
 30
0.0
 10
-46.5820893421
 20
-21.592920325
 30
0.0
 10
-46.6238054585
 20
-21.5938051283
 30
0.0
 10
-46.6754745639
 20
-21.5957247058
 30
0.0
 10
-46.7050732007
 20
-21.5968997183
 30
0.0
 10
-46.7285909054
 20
-21.5971707028
 30
0.0
 10
-46.7434421161
 20
-21.5975776445
 30
0.0
 10
-46.7530349089
 20
-21.5969919612
 30
0.0
 10
-46.7563995974
 20
-21.5978005629
 30
0.0
 10
-46.7611015511
 20
-21.5960594585
 30
0.0
 10
-46.7608468076
 20
-21.597152773
 30
0.0
 11
-46.5523532005
 21
-21.5929146412
 31
0.0
 11
-46.6415471953
 21
-21.5945192143
 31
0.0
 11
-46.677515288
 21
-21.5958171771
 31
0.0
 11
-46.7072956567
 21
-21.5968294683
 31
0.0
 11
-46.7306193851
 21
-21.5972637155
 31
0.0
 11
-46.7473752955
 21
-21.5972937444
 31
0.0
 11
-46.7532639686
 21
-21.5972363024
 31
0.0
 11
-46.7574790667
 21
-21.5971727561
 31
0.0
 11
-46.7608468076
 21
-21.597152773
 31
0.0
  0
SPLINE
  5
360
100
AcDbEntity
  8
RACCORDO
100
AcDbSpline
 62
253
  6
CONTINUOUS
 70
0
 71
3
 72
16
 73
12
 74
10
 42
0.0000001
 43
0.0000001
 44
0.0000000001
 12
-0.2085482471
 22
0.0000334308
 32
0.0
 13
0.0293551636
 23
0.2064719033
 33
0.0
 40
0.0
 40
0.0
 40
0.0
 40
0.0
 40
0.4277543359
 40
0.6003261769
 40
0.7431969661
 40
0.855049342
 40
0.9353941417
 40
0.9636321434
 40
0.9838457406
 40
0.9959823288
 40
1.0
 40
1.0
 40
1.0
 40
1.0
 10
-46.5523532717
 20
22.8032215866
 30
0.0
 10
-46.5820890774
 20
22.8032263533
 30
0.0
 10
-46.623829888
 20
22.8040634549
 30
0.0
 10
-46.6754425184
 20
22.805941108
 30
0.0
 10
-46.705164151
 20
22.8069551039
 30
0.0
 10
-46.7283635779
 20
22.807405685
 30
0.0
 10
-46.7438789532
 20
22.8072576747
 30
0.0
 10
-46.75257393
 20
22.8073422156
 30
0.0
 10
-46.757210816
 20
22.8069616101
 30
0.0
 10
-46.7589868391
 20
22.8074770456
 30
0.0
 10
-46.7608861243
 20
22.8069102264
 30
0.0
 10
-46.7608468111
 20
22.8071867385
 30
0.0
 11
-46.5523532717
 21
22.8032215866
 31
0.0
 11
-46.641547349
 21
22.8047643203
 31
0.0
 11
-46.6775156277
 21
22.8060016642
 31
0.0
 11
-46.7072961023
 21
22.8069463093
 31
0.0
 11
-46.730619777
 21
22.807316812
 31
0.0
 11
-46.7473755374
 21
22.8073016282
 31
0.0
 11
-46.7532641268
 21
22.8072332978
 31
0.0
 11
-46.7574791501
 21
22.8071692183
 31
0.0
 11
-46.760010078
 21
22.8071429474
 31
0.0
 11
-46.7608468111
 21
22.8071867385
 31
0.0
  0
SPLINE
  5
361
100
AcDbEntity
  8
RACCORDO
100
AcDbSpline
 62
253
  6
CONTINUOUS
 70
0
 71
3
 72
21
 73
17
 74
15
 42
0.0000001
 43
0.0000001
 44
0.0000000001
 12
-1.9420098637
 22
-36.9500250008
 32
0.0
 13
0.0002171374
 23
-37.0010236321
 33
0.0
 40
0.0
 40
0.0
 40
0.0
 40
0.0
 40
0.0156247221
 40
0.0312494014
 40
0.0468744088
 40
0.0624994166
 40
0.0937494319
 40
0.1249994464
 40
0.1874994476
 40
0.249999468
 40
0.3124995104
 40
0.3749995551
 40
0.4999996436
 40
0.6249997327
 40
0.7499998222
 40
1.0
 40
1.0
 40
1.0
 40
1.0
 10
-42.1601293716
 20
37.6051642412
 30
0.0
 10
-42.1702438264
 20
37.4127196168
 30
0.0
 10
-42.1882725434
 20
37.0276616441
 30
0.0
 10
-42.1960258085
 20
36.4495314886
 30
0.0
 10
-42.2033850246
 20
35.8714539757
 30
0.0
 10
-42.2132570395
 20
35.1006579505
 30
0.0
 10
-42.2252134162
 20
34.1371652712
 30
0.0
 10
-42.2425224866
 20
32.5955514753
 30
0.0
 10
-42.2585382882
 20
30.6684753627
 30
0.0
 10
-42.2686822411
 20
28.3559289681
 30
0.0
 10
-42.2739361767
 20
26.0433694795
 30
0.0
 10
-42.2804278478
 20
22.9599555388
 30
0.0
 10
-42.2869861606
 20
19.1056848559
 30
0.0
 10
-42.292486154
 20
14.4805567073
 30
0.0
 10
-42.2970075665
 20
8.3137165154
 30
0.0
 10
-42.297757019
 20
3.6885849932
 30
0.0
 10
-42.2977389242
 20
0.6051641646
 30
0.0
 11
-42.1601293716
 21
37.6051642412
 31
0.0
 11
-42.1850575824
 21
37.0275712139
 31
0.0
 11
-42.1959600731
 21
36.4495448955
 31
0.0
 11
-42.2033924818
 21
35.8714514052
 31
0.0
 11
-42.2107634596
 21
35.2933571118
 31
0.0
 11
-42.2249857753
 21
34.1371620274
 31
0.0
 11
-42.2378205193
 21
32.9809507376
 31
0.0
 11
-42.2570257851
 21
30.6684664669
 31
0.0
 11
-42.267867237
 21
28.3559271451
 31
0.0
 11
-42.2738719795
 21
26.0433693967
 31
0.0
 11
-42.2787011783
 21
23.7308088085
 31
0.0
 11
-42.2865911636
 21
19.1056843085
 31
0.0
 11
-42.292134665
 21
14.4805563809
 31
0.0
 11
-42.2955837015
 21
9.8554263995
 31
0.0
 11
-42.2977389242
 21
0.6051641646
 31
0.0
  0
SPLINE
  5
362
100
AcDbEntity
  8
RACCORDO
100
AcDbSpline
 62
253
  6
CONTINUOUS
 70
0
 71
3
 72
21
 73
17
 74
15
 42
0.0000001
 43
0.0000001
 44
0.0000000001
 12
-1.7406304522
 22
-37.0112542878
 32
0.0
 13
0.0001331807
 23
-37.0521623972
 33
0.0
 40
0.0
 40
0.0
 40
0.0
 40
0.0
 40
0.0156096406
 40
0.0312099583
 40
0.046834365
 40
0.0624585315
 40
0.0937068772
 40
0.1249555247
 40
0.1874550389
 40
0.2499571767
 40
0.3124604365
 40
0.3749638898
 40
0.4999709328
 40
0.6249781148
 40
0.7499853794
 40
1.0
 40
1.0
 40
1.0
 40
1.0
 10
-43.096570533
 20
37.6567456404
 30
0.0
 10
-43.105627405
 20
37.4641681813
 30
0.0
 10
-43.1211761593
 20
37.0789347969
 30
0.0
 10
-43.1221983451
 20
36.5004394221
 30
0.0
 10
-43.1291347933
 20
35.9218725534
 30
0.0
 10
-43.1359512923
 20
35.1500169135
 30
0.0
 10
-43.1446762833
 20
34.1852054037
 30
0.0
 10
-43.1561563956
 20
32.6414497209
 30
0.0
 10
-43.1658428918
 20
30.7116672306
 30
0.0
 10
-43.1712510782
 20
28.3958513341
 30
0.0
 10
-43.1742518402
 20
26.079983904
 30
0.0
 10
-43.1781269155
 20
22.9921361999
 30
0.0
 10
-43.1818896222
 20
19.1323193723
 30
0.0
 10
-43.1850047228
 20
14.500534647
 30
0.0
 10
-43.1875108
 20
8.324815697
 30
0.0
 10
-43.1879200568
 20
3.6930250161
 30
0.0
 10
-43.1879089577
 20
0.6051642412
 30
0.0
 11
-43.096570533
 21
37.6567456404
 31
0.0
 11
-43.1174616881
 21
37.0787521268
 31
0.0
 11
-43.1231817087
 21
36.5007549233
 31
0.0
 11
-43.1288302235
 21
35.9218644261
 31
0.0
 11
-43.1342607974
 21
35.3429807452
 31
0.0
 11
-43.1443662377
 21
34.1852060673
 31
0.0
 11
-43.152975291
 21
33.027408111
 31
0.0
 11
-43.1648068042
 21
30.7116961867
 31
0.0
 11
-43.1708497983
 21
28.3958647113
 31
0.0
 11
-43.1742360907
 21
26.0799862545
 31
0.0
 11
-43.1770860682
 21
23.7640999044
 31
0.0
 11
-43.1816562624
 21
19.1323209
 31
0.0
 11
-43.1847987981
 21
14.5005355597
 31
0.0
 11
-43.1867209135
 21
9.8687464898
 31
0.0
 11
-43.1879089577
 21
0.6051642412
 31
0.0
  0
SPLINE
  5
363
100
AcDbEntity
  8
RACCORDO
100
AcDbSpline
 62
253
  6
CONTINUOUS
 70
0
 71
3
 72
9
 73
5
 74
3
 42
0.0000001
 43
0.0000001
 44
0.0000000001
 12
-0.9365626877
 22
0.0493585269
 32
0.0
 13
-0.9354372258
 23
0.0674027356
 33
0.0
 40
0.0
 40
0.0
 40
0.0
 40
0.0
 40
0.6641841485
 40
1.0
 40
1.0
 40
1.0
 40
1.0
 10
-42.1601293716
 20
37.6051642412
 30
0.0
 10
-42.367479402
 20
37.6160919582
 30
0.0
 10
-42.6795877364
 20
37.6337502384
 30
0.0
 10
-42.9918589836
 20
37.6492006714
 30
0.0
 10
-43.096570533
 20
37.6567456404
 30
0.0
 11
-42.1601293716
 21
37.6051642412
 31
0.0
 11
-42.7821460861
 21
37.6385746868
 31
0.0
 11
-43.096570533
 21
37.6567456404
 31
0.0
  0
SPLINE
  5
364
100
AcDbEntity
  8
RACCORDO
100
AcDbSpline
 62
253
  6
CONTINUOUS
 70
0
 71
3
 72
21
 73
17
 74
15
 42
0.0000001
 43
0.0000001
 44
0.0000000001
 12
-0.000217104
 22
-37.0010234298
 32
0.0
 13
1.9420101144
 23
-36.9500247851
 33
0.0
 40
0.0
 40
0.0
 40
0.0
 40
0.0
 40
0.2500001788
 40
0.3750002688
 40
0.5000003584
 40
0.6250004474
 40
0.6875004924
 40
0.750000535
 40
0.8125005556
 40
0.8750005569
 40
0.9062505715
 40
0.9375005869
 40
0.9531255948
 40
0.9687506027
 40
0.9843752776
 40
1.0
 40
1.0
 40
1.0
 40
1.0
 10
-42.2977389242
 20
0.6051641646
 30
0.0
 10
-42.2977570163
 20
-2.4782566596
 30
0.0
 10
-42.297007576
 20
-7.1033881751
 30
0.0
 10
-42.292486133
 20
-13.270228358
 30
0.0
 10
-42.2869862412
 20
-17.8953565002
 30
0.0
 10
-42.2804274989
 20
-21.7496271763
 30
0.0
 10
-42.2739370978
 20
-24.8330411155
 30
0.0
 10
-42.2686820425
 20
-27.1456005965
 30
0.0
 10
-42.2585384588
 20
-29.4581469879
 30
0.0
 10
-42.2425221309
 20
-31.3852230883
 30
0.0
 10
-42.2252141122
 20
-32.9268368941
 30
0.0
 10
-42.2132548222
 20
-33.8903295327
 30
0.0
 10
-42.203388653
 20
-34.6611256396
 30
0.0
 10
-42.1960172072
 20
-35.2392029379
 30
0.0
 10
-42.1882735892
 20
-35.8173331993
 30
0.0
 10
-42.1702438279
 20
-36.2023911327
 30
0.0
 10
-42.1601293716
 20
-36.3948357588
 30
0.0
 11
-42.2977389242
 21
0.6051641646
 31
0.0
 11
-42.2955836995
 21
-8.645098057
 31
0.0
 11
-42.2921346647
 21
-13.2702280317
 31
0.0
 11
-42.2865911414
 21
-17.8953559525
 31
0.0
 11
-42.2787012814
 21
-22.5204804459
 31
0.0
 11
-42.2738725552
 21
-24.8330410318
 31
0.0
 11
-42.2678672865
 21
-27.1455987755
 31
0.0
 11
-42.2570257889
 21
-29.4581380906
 31
0.0
 11
-42.2378205493
 21
-31.7706223543
 31
0.0
 11
-42.2249857572
 21
-32.9268336405
 31
0.0
 11
-42.2107633852
 21
-34.0830287222
 31
0.0
 11
-42.2033933412
 21
-34.6611230258
 31
0.0
 11
-42.1959551172
 21
-35.2392164578
 31
0.0
 11
-42.1850567609
 21
-35.8172426906
 31
0.0
 11
-42.1601293716
 21
-36.3948357588
 31
0.0
  0
SPLINE
  5
365
100
AcDbEntity
  8
RACCORDO
100
AcDbSpline
 62
253
  6
CONTINUOUS
 70
0
 71
3
 72
21
 73
17
 74
15
 42
0.0000001
 43
0.0000001
 44
0.0000000001
 12
-0.0001331702
 22
-37.0521623571
 32
0.0
 13
1.7406297394
 23
-37.0112542812
 33
0.0
 40
0.0
 40
0.0
 40
0.0
 40
0.0
 40
0.2500146837
 40
0.3750219798
 40
0.5000291933
 40
0.6250362679
 40
0.6875397371
 40
0.7500430126
 40
0.8125451659
 40
0.8750446955
 40
0.9062933509
 40
0.9375417047
 40
0.9531658801
 40
0.9687901933
 40
0.9843903743
 40
1.0
 40
1.0
 40
1.0
 40
1.0
 10
-43.1879089577
 20
0.6051642412
 30
0.0
 10
-43.1879200559
 20
-2.4826973095
 30
0.0
 10
-43.1875107908
 20
-7.114489154
 30
0.0
 10
-43.1850047348
 20
-13.2902096555
 30
0.0
 10
-43.1818895767
 20
-17.9219955442
 30
0.0
 10
-43.1781269152
 20
-21.7818133427
 30
0.0
 10
-43.1742522198
 20
-24.8696618226
 30
0.0
 10
-43.1712510027
 20
-27.1855298324
 30
0.0
 10
-43.165842337
 20
-29.5013462957
 30
0.0
 10
-43.1561581
 20
-31.4311292853
 30
0.0
 10
-43.1446736921
 20
-32.9748853129
 30
0.0
 10
-43.135958724
 20
-33.9396972296
 30
0.0
 10
-43.129121749
 20
-34.7115517213
 30
0.0
 10
-43.1222503187
 20
-35.2901164987
 30
0.0
 10
-43.121158208
 20
-35.868608126
 30
0.0
 10
-43.1056273967
 20
-36.2538398824
 30
0.0
 10
-43.0965705371
 20
-36.4464171582
 30
0.0
 11
-43.1879089577
 21
0.6051642412
 31
0.0
 11
-43.1867209123
 21
-8.6584203347
 31
0.0
 11
-43.1847987979
 21
-13.2902105682
 31
0.0
 11
-43.1816562356
 21
-17.9219970719
 31
0.0
 11
-43.1770861915
 21
-22.5537772399
 31
0.0
 11
-43.174236347
 21
-24.8696641755
 31
0.0
 11
-43.1708497188
 21
-27.1855432102
 31
0.0
 11
-43.1648067811
 21
-29.5013752586
 31
0.0
 11
-43.1529754129
 21
-31.817087752
 31
0.0
 11
-43.1443661881
 21
-32.9748859995
 31
0.0
 11
-43.1342607328
 21
-34.1326609757
 31
0.0
 11
-43.1288305638
 21
-34.7115449928
 31
0.0
 11
-43.1232111863
 21
-35.290432307
 31
0.0
 11
-43.1174599079
 21
-35.8684241316
 31
0.0
 11
-43.0965705371
 21
-36.4464171582
 31
0.0
  0
SPLINE
  5
366
100
AcDbEntity
  8
RACCORDO
100
AcDbSpline
 62
253
  6
CONTINUOUS
 70
0
 71
3
 72
21
 73
17
 74
15
 42
0.0000001
 43
0.0000001
 44
0.0000000001
 12
0.0930371437
 22
-2.7703076751
 32
0.0
 13
-2.7680569956
 23
0.145330637
 33
0.0
 40
0.0
 40
0.0
 40
0.0
 40
0.0
 40
0.1952102409
 40
0.3829041487
 40
0.5557658994
 40
0.7072001665
 40
0.77302815
 40
0.8313989684
 40
0.8817539491
 40
0.9236117793
 40
0.9565754756
 40
0.9803410905
 40
0.98871119
 40
0.994726128
 40
0.9984131205
 40
1.0
 40
1.0
 40
1.0
 40
1.0
 10
-42.1601293716
 20
-36.3948357588
 30
0.0
 10
-42.1540754372
 20
-36.5750999017
 30
0.0
 10
-42.1441904304
 20
-36.9287553668
 30
0.0
 10
-42.1340388613
 20
-37.4421623842
 30
0.0
 10
-42.1276897591
 20
-37.915178387
 30
0.0
 10
-42.12493647
 20
-38.2756293784
 30
0.0
 10
-42.1243662646
 20
-38.530300154
 30
0.0
 10
-42.1246994246
 20
-38.6915857494
 30
0.0
 10
-42.1257609303
 20
-38.830699711
 30
0.0
 10
-42.1275840052
 20
-38.9463892463
 30
0.0
 10
-42.1301060549
 20
-39.0373316822
 30
0.0
 10
-42.1331721002
 20
-39.0976564339
 30
0.0
 10
-42.136154274
 20
-39.1324574519
 30
0.0
 10
-42.1387510631
 20
-39.1495282993
 30
0.0
 10
-42.1405225219
 20
-39.1587504057
 30
0.0
 10
-42.1434740717
 20
-39.1643407563
 30
0.0
 10
-42.1449382626
 20
-39.1642638822
 30
0.0
 11
-42.1601293716
 21
-36.3948357588
 31
0.0
 11
-42.1447477708
 21
-36.9357144035
 31
0.0
 11
-42.1343410004
 21
-37.4558733288
 31
0.0
 11
-42.1279163869
 21
-37.9349804696
 31
0.0
 11
-42.1248588768
 21
-38.3547253601
 31
0.0
 11
-42.1244896085
 21
-38.5371915661
 31
0.0
 11
-42.1248758167
 21
-38.6989873965
 31
0.0
 11
-42.1260274663
 21
-38.8385600805
 31
0.0
 11
-42.1279715432
 21
-38.9545682351
 31
0.0
 11
-42.1307534809
 21
-39.0458969391
 31
0.0
 11
-42.1344432786
 21
-39.1116687048
 31
0.0
 11
-42.1366574843
 21
-39.1347636285
 31
0.0
 11
-42.1391349063
 21
-39.1512511615
 31
0.0
 11
-42.1418901596
 21
-39.1610926126
 31
0.0
 11
-42.1449382626
 21
-39.1642638822
 31
0.0
  0
SPLINE
  5
367
100
AcDbEntity
  8
RACCORDO
100
AcDbSpline
 62
253
  6
CONTINUOUS
 70
0
 71
3
 72
18
 73
14
 74
12
 42
0.0000001
 43
0.0000001
 44
0.0000000001
 12
0.0872403665
 22
-1.8553525014
 32
0.0
 13
-1.3229683247
 23
-1.3037248935
 33
0.0
 40
0.0
 40
0.0
 40
0.0
 40
0.0
 40
0.1934142597
 40
0.3784072736
 40
0.548484621
 40
0.6978388504
 40
0.8213449715
 40
0.8720395976
 40
0.9147616113
 40
0.9491435011
 40
0.9748890196
 40
0.9918119797
 40
1.0
 40
1.0
 40
1.0
 40
1.0
 10
-43.0965675677
 20
-36.4464170033
 30
0.0
 10
-43.0909430574
 20
-36.5660342134
 30
0.0
 10
-43.0818976177
 20
-36.8001543334
 30
0.0
 10
-43.0727120886
 20
-37.1396190148
 30
0.0
 10
-43.0670095712
 20
-37.4518807013
 30
0.0
 10
-43.0642176925
 20
-37.7260965462
 30
0.0
 10
-43.0639472121
 20
-37.9264502953
 30
0.0
 10
-43.0653393365
 20
-38.0607096294
 30
0.0
 10
-43.0669098411
 20
-38.1399072725
 30
0.0
 10
-43.0693868725
 20
-38.2033081483
 30
0.0
 10
-43.0719855325
 20
-38.2515061095
 30
0.0
 10
-43.0763816562
 20
-38.2816504816
 30
0.0
 10
-43.078997938
 20
-38.2983692201
 30
0.0
 10
-43.0826087685
 20
-38.3019275288
 30
0.0
 11
-43.0965675677
 21
-36.4464170033
 31
0.0
 11
-43.08240384
 21
-36.8053858007
 31
0.0
 11
-43.0729868161
 21
-37.1488632066
 31
0.0
 11
-43.0672282462
 21
-37.4647127941
 31
0.0
 11
-43.0645017145
 21
-37.7421103035
 31
0.0
 11
-43.0645214977
 21
-37.9715108722
 31
0.0
 11
-43.0655520246
 21
-38.0656655545
 31
0.0
 11
-43.0672915418
 21
-38.1449984576
 31
0.0
 11
-43.0697844486
 21
-38.2088107877
 31
0.0
 11
-43.0731019873
 21
-38.256515359
 31
0.0
 11
-43.0773391214
 21
-38.2876612141
 31
0.0
 11
-43.0826087685
 21
-38.3019275288
 31
0.0
  0
SPLINE
  5
368
100
AcDbEntity
  8
RACCORDO
100
AcDbSpline
 62
253
  6
CONTINUOUS
 70
0
 71
3
 72
9
 73
5
 74
3
 42
0.0000001
 43
0.0000001
 44
0.0000000001
 12
-0.9365609404
 22
-0.0493579284
 32
0.0
 13
-0.9354353377
 23
-0.0674042225
 33
0.0
 40
0.0
 40
0.0
 40
0.0
 40
0.0
 40
0.6641785257
 40
1.0
 40
1.0
 40
1.0
 40
1.0
 10
-42.1601281776
 20
-36.3948357539
 30
0.0
 10
-42.3674760658
 20
-36.405763246
 30
0.0
 10
-42.6795838111
 20
-36.4234214102
 30
0.0
 10
-42.9918544763
 20
-36.4388717415
 30
0.0
 10
-43.0965675677
 20
-36.4464170033
 30
0.0
 11
-42.1601281776
 21
-36.3948357539
 31
0.0
 11
-42.7821384594
 21
-36.4282456447
 31
0.0
 11
-43.0965675677
 21
-36.4464170033
 31
0.0
  0
SPLINE
  5
369
100
AcDbEntity
  8
RACCORDO
100
AcDbSpline
 62
253
  6
CONTINUOUS
 70
0
 71
3
 72
20
 73
16
 74
14
 42
0.0000001
 43
0.0000001
 44
0.0000000001
 12
-0.1628647461
 22
-0.1605235619
 32
0.0
 13
0.0783886971
 23
-0.214820743
 33
0.0
 40
0.0
 40
0.0
 40
0.0
 40
0.0
 40
0.0528026502
 40
0.1065892202
 40
0.1489199973
 40
0.2288845339
 40
0.3971263
 40
0.4395658443
 40
0.488738751
 40
0.5753515554
 40
0.7086475615
 40
0.8327845859
 40
0.9259093931
 40
0.9802129934
 40
1.0
 40
1.0
 40
1.0
 40
1.0
 10
-43.0826087658
 20
-38.3019275284
 30
0.0
 10
-43.0854753292
 20
-38.3047528849
 30
0.0
 10
-43.0911750089
 20
-38.3110585666
 30
0.0
 10
-43.0924250064
 20
-38.3228235307
 30
0.0
 10
-43.1001821463
 20
-38.3340204305
 30
0.0
 10
-43.1137129168
 20
-38.3514267735
 30
0.0
 10
-43.1246195813
 20
-38.3709359267
 30
0.0
 10
-43.1378571142
 20
-38.3857899564
 30
0.0
 10
-43.1441360503
 20
-38.3979309937
 30
0.0
 10
-43.1528449314
 20
-38.4164642284
 30
0.0
 10
-43.1667660684
 20
-38.4388194881
 30
0.0
 10
-43.1786478911
 20
-38.4625897818
 30
0.0
 10
-43.187522145
 20
-38.4817274096
 30
0.0
 10
-43.1909064101
 20
-38.493418125
 30
0.0
 10
-43.1934324369
 20
-38.4991967053
 30
0.0
 10
-43.192915411
 20
-38.5006135918
 30
0.0
 11
-43.0826087658
 21
-38.3019275284
 31
0.0
 11
-43.0899432214
 21
-38.3115194098
 31
0.0
 11
-43.093594491
 21
-38.3232646586
 31
0.0
 11
-43.0985611082
 21
-38.3315734368
 31
0.0
 11
-43.1093686634
 21
-38.3463238141
 31
0.0
 11
-43.1311429152
 21
-38.3780419984
 31
0.0
 11
-43.1372052056
 21
-38.385620512
 31
0.0
 11
-43.1427660095
 21
-38.3953939445
 31
0.0
 11
-43.1516102633
 21
-38.4131158996
 31
0.0
 11
-43.1666832823
 21
-38.4396099056
 31
0.0
 11
-43.1796127788
 21
-38.4648816146
 31
0.0
 11
-43.1880590355
 21
-38.4844304099
 31
0.0
 11
-43.1921564248
 21
-38.4961528869
 31
0.0
 11
-43.192915411
 21
-38.5006135918
 31
0.0
  0
LINE
  5
36A
100
AcDbEntity
  8
0
100
AcDbLine
 62
7
  6
CONTINUOUS
 10
-45.9217142819
 20
-27.0734857588
 11
-45.9063447578
 21
-27.1946967506
  0
LINE
  5
36B
100
AcDbEntity
  8
0
100
AcDbLine
 62
7
  6
CONTINUOUS
 10
-45.7884988913
 20
-28.0668707497
 11
-45.7701444958
 21
-28.1948427588
  0
SPLINE
  5
36C
100
AcDbEntity
  8
RACCORDO
100
AcDbSpline
 62
253
  6
CONTINUOUS
 70
0
 71
3
 72
18
 73
14
 74
12
 42
0.0000001
 43
0.0000001
 44
0.0000000001
 12
1.3229687409
 22
-1.303724471
 32
0.0
 13
-0.087240304
 23
-1.8553525042
 33
0.0
 40
0.0
 40
0.0
 40
0.0
 40
0.0
 40
0.0081880202
 40
0.0251109805
 40
0.050856499
 40
0.0852383889
 40
0.1279604029
 40
0.1786550284
 40
0.3021611528
 40
0.4515153748
 40
0.6215927394
 40
0.8065857235
 40
1.0
 40
1.0
 40
1.0
 40
1.0
 10
-43.0826087685
 20
39.5122560111
 30
0.0
 10
-43.0789979369
 20
39.5086977037
 30
0.0
 10
-43.0763816571
 20
39.4919789628
 30
0.0
 10
-43.071985532
 20
39.4618345923
 30
0.0
 10
-43.0693868727
 20
39.4136366301
 30
0.0
 10
-43.066909841
 20
39.3502357545
 30
0.0
 10
-43.0653393366
 20
39.2710381113
 30
0.0
 10
-43.0639472117
 20
39.1367787754
 30
0.0
 10
-43.0642176938
 20
38.9364250292
 30
0.0
 10
-43.0670095688
 20
38.6622091762
 30
0.0
 10
-43.0727120945
 20
38.3499475024
 30
0.0
 10
-43.0818976025
 20
38.0104828177
 30
0.0
 10
-43.0909430717
 20
37.7763627069
 30
0.0
 10
-43.0965675785
 20
37.6567454862
 30
0.0
 11
-43.0826087685
 21
39.5122560111
 31
0.0
 11
-43.0773391214
 21
39.4979896967
 31
0.0
 11
-43.0731019873
 21
39.4668438411
 31
0.0
 11
-43.0697844486
 21
39.4191392699
 31
0.0
 11
-43.0672915418
 21
39.3553269397
 31
0.0
 11
-43.0655520246
 21
39.2759940359
 31
0.0
 11
-43.0645214977
 21
39.1818393546
 31
0.0
 11
-43.0645017149
 21
38.95243878
 31
0.0
 11
-43.0672282455
 21
38.6750412843
 31
0.0
 11
-43.0729868179
 21
38.3591916649
 31
0.0
 11
-43.0824038349
 21
38.0157143142
 31
0.0
 11
-43.0965675785
 21
37.6567454862
 31
0.0
  0
SPLINE
  5
36D
100
AcDbEntity
  8
RACCORDO
100
AcDbSpline
 62
253
  6
CONTINUOUS
 70
0
 71
3
 72
10
 73
6
 74
4
 42
0.0000001
 43
0.0000001
 44
0.0000000001
 12
-0.0269743282
 22
-22.1980419245
 32
0.0
 13
0.0000815322
 23
-22.1980583135
 33
0.0
 40
0.0
 40
0.0
 40
0.0
 40
0.0
 40
0.249999911
 40
0.499999935
 40
1.0
 40
1.0
 40
1.0
 40
1.0
 10
-46.55235018
 20
22.8032215571
 30
0.0
 10
-46.5545980399
 20
20.9533853884
 30
0.0
 10
-46.5555300274
 20
17.2537087581
 30
0.0
 10
-46.5571369015
 20
9.8543565541
 30
0.0
 10
-46.5568104887
 20
4.3048411074
 30
0.0
 10
-46.5567969
 20
0.6051642412
 30
0.0
 11
-46.55235018
 21
22.8032215571
 31
0.0
 11
-46.5554978896
 21
17.2537098464
 31
0.0
 11
-46.5565650086
 21
11.7041948374
 31
0.0
 11
-46.5567969
 21
0.6051642412
 31
0.0
  0
SPLINE
  5
36E
100
AcDbEntity
  8
RACCORDO
100
AcDbSpline
 62
253
  6
CONTINUOUS
 70
0
 71
3
 72
11
 73
7
 74
5
 42
0.0000001
 43
0.0000001
 44
0.0000000001
 12
0.6155574475
 22
-0.0134105767
 32
0.0
 13
0.6097707976
 23
-0.0852665769
 33
0.0
 40
0.0
 40
0.0
 40
0.0
 40
0.0
 40
0.3868832883
 40
0.6864035172
 40
0.8921119047
 40
1.0
 40
1.0
 40
1.0
 40
1.0
 10
-46.55235018
 20
22.8032215571
 30
0.0
 10
-46.4729672169
 20
22.8014921144
 30
0.0
 10
-46.3321482757
 20
22.7980784441
 30
0.0
 10
-46.1490808244
 20
22.7929731181
 30
0.0
 10
-46.0234559462
 20
22.7873299857
 30
0.0
 10
-45.9590500108
 20
22.7842656549
 30
0.0
 10
-45.9371210075
 20
22.7811992387
 30
0.0
 11
-46.55235018
 21
22.8032215571
 31
0.0
 11
-46.3142139734
 21
22.7974805326
 31
0.0
 11
-46.1298852689
 21
22.7918180958
 31
0.0
 11
-46.0033478522
 21
22.7863530613
 31
0.0
 11
-45.9371210075
 21
22.7811992387
 31
0.0
  0
SPLINE
  5
36F
100
AcDbEntity
  8
RACCORDO
100
AcDbSpline
 62
253
  6
CONTINUOUS
 70
0
 71
3
 72
13
 73
9
 74
7
 42
0.0000001
 43
0.0000001
 44
0.0000000001
 12
-0.1458796901
 22
-22.1755679106
 32
0.0
 13
0.0003059857
 23
-22.1760477306
 33
0.0
 40
0.0
 40
0.0
 40
0.0
 40
0.0
 40
0.1249996528
 40
0.2499993629
 40
0.3749993224
 40
0.4999994025
 40
0.7499996862
 40
1.0
 40
1.0
 40
1.0
 40
1.0
 10
-45.9371210075
 20
22.7811992387
 30
0.0
 10
-45.943199311
 20
21.8572198089
 30
0.0
 10
-45.9446016448
 20
20.0092061292
 30
0.0
 10
-45.9474272878
 20
17.2372125953
 30
0.0
 10
-45.949520044
 20
14.4652076235
 30
0.0
 10
-45.9511098374
 20
10.7691980947
 30
0.0
 10
-45.9516051646
 20
6.1491828234
 30
0.0
 10
-45.9513192211
 20
2.453170538
 30
0.0
 10
-45.9512937223
 20
0.6051642412
 30
0.0
 11
-45.9371210075
 21
22.7811992387
 31
0.0
 11
-45.9447220011
 21
20.009211393
 31
0.0
 11
-45.9473051379
 21
17.2372130587
 31
0.0
 11
-45.9493699746
 21
14.4652087602
 31
0.0
 11
-45.9506129277
 21
11.6932012952
 31
0.0
 11
-45.9514346133
 21
6.1491831305
 31
0.0
 11
-45.9512937223
 21
0.6051642412
 31
0.0
  0
ENDSEC
  0
SECTION
  2
OBJECTS
  0
DICTIONARY
  5
C
100
AcDbDictionary
280
0
281
1
  3
ACAD_GROUP
350
D
  3
ACAD_MLINESTYLE
350
17
  3
ACAD_LAYOUT
350
1A
  3
ACAD_PLOTSETTINGS
350
19
  3
ACAD_PLOTSTYLENAME
350
E
  0
DICTIONARY
  5
D
102
{ACAD_REACTORS
330
C
102
}
100
AcDbDictionary
280
0
281
1
  0
ACDBDICTIONARYWDFLT
  5
E
102
{ACAD_REACTORS
330
C
102
}
100
AcDbDictionary
281
1
  3
Normal
350
F
100
AcDbDictionaryWithDefault
340
F
  0
DICTIONARY
  5
17
102
{ACAD_REACTORS
330
C
102
}
100
AcDbDictionary
280
0
281
1
  3
Standard
350
18
  0
DICTIONARY
  5
19
102
{ACAD_REACTORS
330
C
102
}
100
AcDbDictionary
281
1
  0
DICTIONARY
  5
1A
102
{ACAD_REACTORS
330
C
102
}
100
AcDbDictionary
281
1
  3
Model
350
370
  3
Layout1
350
371
  0
ACDBPLACEHOLDER
  5
F
102
{ACAD_REACTORS
330
E
102
}
  0
MLINESTYLE
  5
18
102
{ACAD_REACTORS
330
17
102
}
100
AcDbMlineStyle
  2
STANDARD
 70
0
  3

 62
256
 51
90.0
 52
90.0
 71
2
 49
0.5
 62
256
  6
BYLAYER
 49
-0.5
 62
256
  6
BYLAYER
  0
LAYOUT
  5
370
102
{ACAD_REACTORS
330
1A
102
}
100
AcDbPlotSettings
  1

  2
none_device
  4
ANSI_C_(22.00_x_17.00_Inches)
  6

 40
0.0
 41
0.0
 42
0.0
 43
0.0
 44
558.8
 45
431.8
 46
0.0
 47
0.0
 48
0.0
 49
0.0
140
0.0
141
0.0
142
1.0
143
1.0
 70
1024
 72
1
 73
0
 74
0
  7

 75
0
147
1.0
148
0.0
149
0.0
100
AcDbLayout
  1
Model
 70
0
 71
0
 10
0.0
 20
0.0
 11
558.8
 21
431.8
 12
0.0
 22
0.0
 32
0.0
 14
0.0
 24
0.0
 34
0.0
 15
0.0
 25
0.0
 35
0.0
146
0.0
 13
0.0
 23
0.0
 33
0.0
 16
1.0
 26
0.0
 36
0.0
 17
0.0
 27
1.0
 37
0.0
 76
0
330
20E
345
0
346
0
  0
LAYOUT
  5
371
102
{ACAD_REACTORS
330
1A
102
}
100
AcDbPlotSettings
  1

  2
none_device
  4
ANSI_C_(22.00_x_17.00_Inches)
  6

 40
0.0
 41
0.0
 42
0.0
 43
0.0
 44
558.8
 45
431.8
 46
0.0
 47
0.0
 48
0.0
 49
0.0
140
0.0
141
0.0
142
1.0
143
1.0
 70
0
 72
1
 73
0
 74
0
  7

 75
0
147
1.0
148
0.0
149
0.0
100
AcDbLayout
  1
Layout1
 70
0
 71
1
 10
0.0
 20
0.0
 11
558.8
 21
431.8
 12
0.0
 22
0.0
 32
0.0
 14
0.0
 24
0.0
 34
0.0
 15
0.0
 25
0.0
 35
0.0
146
0.0
 13
0.0
 23
0.0
 33
0.0
 16
1.0
 26
0.0
 36
0.0
 17
0.0
 27
1.0
 37
0.0
 76
0
330
20F
345
0
346
0
  0
ENDSEC
  0
EOF
