  0
SECTION
  2
HEADER
  9
$ACADVER
  1
AC1015
  9
$DWGCODEPAGE
  3
ANSI_1252
  9
$EXTMAX
 10
297.0
 20
210.0
 30
0.0
  9
$EXTMIN
 10
0.0
 20
0.0
 30
0.0
  9
$LIMMIN
 10
0.0
 20
0.0
  9
$LIMMAX
 10
297.0
 20
210.0
  9
$VIEWCTR
 10
148.5
 20
105.0
  9
$VIEWSIZE
 40
210.0
  9
$CLAYER
  8
0
  9
$LTSCALE
 40
16.335
  9
$CELTYPE
  6
BYLAYER
  9
$DIMSCALE
 40
1.0
  9
$DIMASZ
 40
3.0
  9
$DIMEXO
 40
0.5
  9
$DIMDLI
 40
11.286
  9
$DIMEXE
 40
1.5
  9
$DIMCEN
 40
2.673
  9
$DIMLFAC
 40
1.0
  9
$DIMBLK
  1
_FILLED
  9
$DIMTXT
 40
3.0
  9
$DIMTOL
 70
1
  9
$DIMLIM
 70
0
  9
$DIMTFAC
 40
1.0
  9
$DIMTP
 40
0.01
  9
$DIMTM
 40
0.01
  9
$DIMGAP
 40
0.625
  9
$DIMDSEP
 70
44
  9
$PDMODE
 70
3
  9
$PDSIZE
 40
3.0
  9
$HANDSEED
  5
813
  9
$TILEMODE
 70
1
  9
$MEASUREMENT
 70
1
  9
$INSUNITS
 70
4
  0
ENDSEC
  0
SECTION
  2
CLASSES
  0
CLASS
  1
ACDBDICTIONARYWDFLT
  2
AcDbDictionaryWithDefault
  3
AutoCAD 2000
 90
0
280
0
281
0
  0
CLASS
  1
ACDBPLACEHOLDER
  2
AcDbPlaceHolder
  3
AutoCAD 2000
 90
0
280
0
281
0
  0
CLASS
  1
LAYOUT
  2
AcDbLayout
  3
AutoCAD 2000
 90
0
280
0
281
0
  0
ENDSEC
  0
SECTION
  2
TABLES
  0
TABLE
  2
VPORT
  5
8
100
AcDbSymbolTable
 70
2
  0
VPORT
  5
1F4
100
AcDbSymbolTableRecord
100
AcDbViewportTableRecord
  2
*ACTIVE
 70
0
 10
0.0
 20
0.0
 11
1.0
 21
1.0
 12
148.5
 22
105.0
 13
0.0
 23
0.0
 14
1.0
 24
1.0
 15
0.0
 25
0.0
 16
0.0
 26
0.0
 36
1.0
 17
0.0
 27
0.0
 37
0.0
 40
210.0
 41
1.4142857143
 42
50.0
 43
0.0
 44
0.0
 50
0.0
 51
0.0
 71
0
 72
100
 73
1
 74
1
 75
0
 76
0
 77
0
 78
0
  0
ENDTAB
  0
TABLE
  2
LTYPE
  5
5
100
AcDbSymbolTable
 70
6
  0
LTYPE
  5
14
100
AcDbSymbolTableRecord
100
AcDbLinetypeTableRecord
  2
BYBLOCK
 70
0
  3

 72
65
 73
0
 40
0.0
  0
LTYPE
  5
15
100
AcDbSymbolTableRecord
100
AcDbLinetypeTableRecord
  2
BYLAYER
 70
0
  3

 72
65
 73
0
 40
0.0
  0
LTYPE
  5
16
100
AcDbSymbolTableRecord
100
AcDbLinetypeTableRecord
  2
CONTINUOUS
 70
64
  3
Solid line
 72
65
 73
0
 40
0.0
  0
LTYPE
  5
1F5
100
AcDbSymbolTableRecord
100
AcDbLinetypeTableRecord
  2
CENTER
 70
64
  3
____ _ ____ _ ____ _ ____ _ ____ _ ____ _ ____
 72
65
 73
4
 40
0.6
 49
0.375
 74
0
 49
-0.075
 74
0
 49
0.075
 74
0
 49
-0.075
 74
0
  0
LTYPE
  5
1F6
100
AcDbSymbolTableRecord
100
AcDbLinetypeTableRecord
  2
HIDDEN
 70
64
  3
- - - - - - - - - - - - - - - - - - - -
 72
65
 73
2
 40
0.2
 49
0.1
 74
0
 49
-0.1
 74
0
  0
LTYPE
  5
1F7
100
AcDbSymbolTableRecord
100
AcDbLinetypeTableRecord
  2
PHANTOM
 70
64
  3
_____ _ _ _____ _ _ _____ _ _ _____
 72
65
 73
6
 40
0.8
 49
0.45
 74
0
 49
-0.05
 74
0
 49
0.1
 74
0
 49
-0.05
 74
0
 49
0.1
 74
0
 49
-0.05
 74
0
  0
LTYPE
  5
1F8
100
AcDbSymbolTableRecord
100
AcDbLinetypeTableRecord
  2
DOT
 70
64
  3
. . . . . . . . . . . . . . . . . . . .
 72
65
 73
2
 40
0.2
 49
0.1
 74
0
 49
-0.1
 74
0
  0
LTYPE
  5
1F9
100
AcDbSymbolTableRecord
100
AcDbLinetypeTableRecord
  2
DASHED
 70
64
  3
- - - - - - - - - - - - - - - - - - - -
 72
65
 73
2
 40
0.2
 49
0.1
 74
0
 49
-0.1
 74
0
  0
ENDTAB
  0
TABLE
  2
LAYER
  5
2
100
AcDbSymbolTable
 70
36
  0
LAYER
  5
10
100
AcDbSymbolTableRecord
100
AcDbLayerTableRecord
  2
0
 70
0
 62
7
  6
CONTINUOUS
370
-3
390
F
  0
LAYER
  5
1FA
100
AcDbSymbolTableRecord
100
AcDbLayerTableRecord
  2
DEFAULT_1
 70
0
 62
7
  6
CENTER
370
-3
390
F
  0
LAYER
  5
1FB
100
AcDbSymbolTableRecord
100
AcDbLayerTableRecord
  2
DEFAULT_2
 70
0
 62
7
  6
HIDDEN
370
-3
390
F
  0
LAYER
  5
1FC
100
AcDbSymbolTableRecord
100
AcDbLayerTableRecord
  2
DEFAULT_3
 70
0
 62
7
  6
PHANTOM
370
-3
390
F
  0
LAYER
  5
1FD
100
AcDbSymbolTableRecord
100
AcDbLayerTableRecord
  2
ASSI
 70
0
 62
7
  6
CONTINUOUS
370
-3
390
F
  0
LAYER
  5
1FE
100
AcDbSymbolTableRecord
100
AcDbLayerTableRecord
  2
COORDINATE
 70
0
 62
7
  6
CONTINUOUS
370
-3
390
F
  0
LAYER
  5
1FF
100
AcDbSymbolTableRecord
100
AcDbLayerTableRecord
  2
COORD_ORIGINE
 70
0
 62
7
  6
CONTINUOUS
370
-3
390
F
  0
LAYER
  5
200
100
AcDbSymbolTableRecord
100
AcDbLayerTableRecord
  2
COPY_PUBLISH
 70
0
 62
7
  6
CONTINUOUS
370
-3
390
F
  0
LAYER
  5
201
100
AcDbSymbolTableRecord
100
AcDbLayerTableRecord
  2
COSMETICI
 70
0
 62
7
  6
CONTINUOUS
370
-3
390
F
  0
LAYER
  5
202
100
AcDbSymbolTableRecord
100
AcDbLayerTableRecord
  2
CURVE
 70
0
 62
7
  6
CONTINUOUS
370
-3
390
F
  0
LAYER
  5
203
100
AcDbSymbolTableRecord
100
AcDbLayerTableRecord
  2
DRAFT
 70
0
 62
7
  6
CONTINUOUS
370
-3
390
F
  0
LAYER
  5
204
100
AcDbSymbolTableRecord
100
AcDbLayerTableRecord
  2
IGES_SCRITTE
 70
0
 62
7
  6
CONTINUOUS
370
-3
390
F
  0
LAYER
  5
205
100
AcDbSymbolTableRecord
100
AcDbLayerTableRecord
  2
IMPORT_IGES
 70
0
 62
7
  6
CONTINUOUS
370
-3
390
F
  0
LAYER
  5
206
100
AcDbSymbolTableRecord
100
AcDbLayerTableRecord
  2
INTF_1
 70
0
 62
7
  6
CONTINUOUS
370
-3
390
F
  0
LAYER
  5
207
100
AcDbSymbolTableRecord
100
AcDbLayerTableRecord
  2
INTF_7
 70
0
 62
7
  6
CONTINUOUS
370
-3
390
F
  0
LAYER
  5
208
100
AcDbSymbolTableRecord
100
AcDbLayerTableRecord
  2
NOTE
 70
0
 62
7
  6
CONTINUOUS
370
-3
390
F
  0
LAYER
  5
209
100
AcDbSymbolTableRecord
100
AcDbLayerTableRecord
  2
PIANI
 70
0
 62
7
  6
CONTINUOUS
370
-3
390
F
  0
LAYER
  5
20A
100
AcDbSymbolTableRecord
100
AcDbLayerTableRecord
  2
PIANI_ORIGINE
 70
0
 62
7
  6
CONTINUOUS
370
-3
390
F
  0
LAYER
  5
20B
100
AcDbSymbolTableRecord
100
AcDbLayerTableRecord
  2
PPP
 70
0
 62
7
  6
CONTINUOUS
370
-3
390
F
  0
LAYER
  5
20C
100
AcDbSymbolTableRecord
100
AcDbLayerTableRecord
  2
PUNTI
 70
0
 62
7
  6
CONTINUOUS
370
-3
390
F
  0
LAYER
  5
20D
100
AcDbSymbolTableRecord
100
AcDbLayerTableRecord
  2
RACCORDO
 70
0
 62
7
  6
CONTINUOUS
370
-3
390
F
  0
LAYER
  5
20E
100
AcDbSymbolTableRecord
100
AcDbLayerTableRecord
  2
RGB__255__255__255__
 70
0
 62
7
  6
CONTINUOUS
370
-3
390
F
  0
LAYER
  5
20F
100
AcDbSymbolTableRecord
100
AcDbLayerTableRecord
  2
RGB____0____0____0__
 70
0
 62
7
  6
CONTINUOUS
370
-3
390
F
  0
LAYER
  5
210
100
AcDbSymbolTableRecord
100
AcDbLayerTableRecord
  2
SIMBOLI
 70
0
 62
7
  6
CONTINUOUS
370
-3
390
F
  0
LAYER
  5
211
100
AcDbSymbolTableRecord
100
AcDbLayerTableRecord
  2
SMUSSO
 70
0
 62
7
  6
CONTINUOUS
370
-3
390
F
  0
LAYER
  5
212
100
AcDbSymbolTableRecord
100
AcDbLayerTableRecord
  2
SNAPLINE
 70
0
 62
7
  6
CONTINUOUS
370
-3
390
F
  0
LAYER
  5
213
100
AcDbSymbolTableRecord
100
AcDbLayerTableRecord
  2
SUPERFICI
 70
0
 62
7
  6
CONTINUOUS
370
-3
390
F
  0
LAYER
  5
214
100
AcDbSymbolTableRecord
100
AcDbLayerTableRecord
  2
TRASH
 70
0
 62
7
  6
CONTINUOUS
370
-3
390
F
  0
ENDTAB
  0
TABLE
  2
STYLE
  5
3
100
AcDbSymbolTable
 70
1
  0
STYLE
  5
11
100
AcDbSymbolTableRecord
100
AcDbTextStyleTableRecord
  2
STANDARD
 70
0
 40
0.0
 41
0.8
 50
0.0
 71
0
 42
0.2
  3
txt
  4

  0
STYLE
  5
215
100
AcDbSymbolTableRecord
100
AcDbTextStyleTableRecord
  2
TEXTSTYLE_1
 70
0
 40
0.0
 41
0.8
 50
0.0
 71
0
 42
0.2
  3
gdt
  4

  0
ENDTAB
  0
TABLE
  2
VIEW
  5
6
100
AcDbSymbolTable
 70
0
  0
ENDTAB
  0
TABLE
  2
UCS
  5
7
100
AcDbSymbolTable
 70
0
  0
ENDTAB
  0
TABLE
  2
APPID
  5
9
100
AcDbSymbolTable
 70
1
  0
APPID
  5
216
100
AcDbSymbolTableRecord
100
AcDbRegAppTableRecord
  2
ACAD
 70
0
  0
ENDTAB
  0
TABLE
  2
BLOCK_RECORD
  5
1
100
AcDbSymbolTable
 70
0
  0
BLOCK_RECORD
  5
217
100
AcDbSymbolTableRecord
100
AcDbBlockTableRecord
  2
*Model_Space
  0
BLOCK_RECORD
  5
218
100
AcDbSymbolTableRecord
100
AcDbBlockTableRecord
  2
*Paper_Space
  0
BLOCK_RECORD
  5
219
100
AcDbSymbolTableRecord
100
AcDbBlockTableRecord
  2
_FILLED
  0
BLOCK_RECORD
  5
21A
100
AcDbSymbolTableRecord
100
AcDbBlockTableRecord
  2
*D0
  0
BLOCK_RECORD
  5
21B
100
AcDbSymbolTableRecord
100
AcDbBlockTableRecord
  2
*D1
  0
BLOCK_RECORD
  5
21C
100
AcDbSymbolTableRecord
100
AcDbBlockTableRecord
  2
*D2
  0
ENDTAB
  0
TABLE
  2
DIMSTYLE
  5
A
100
AcDbSymbolTable
 70
1
100
AcDbDimStyleTable
 71
0
  0
DIMSTYLE
105
21D
100
AcDbSymbolTableRecord
100
AcDbDimStyleTableRecord
  2
STANDARD
 70
0
  3

  4

 40
1.0
 41
3.0
 42
0.5
 43
0.38
 44
1.5
 45
0.0
 46
0.0
 47
0.01
 48
0.01
140
3.0
141
0.09
142
0.0
143
25.4
144
1.0
145
0.0
146
1.0
147
0.625
 71
1.0
 72
0.0
 73
0
 74
0
 75
0
 76
0
 77
1
 78
8
170
0
171
2
172
0
173
0
174
0
175
0
176
0
177
0
178
0
270
2
271
2
272
2
273
2
274
2
275
0
280
0
281
0
282
0
283
1
284
8
285
0
286
0
287
3
288
0
340
11
278
44
341
219
342
219
343
219
344
219
  0
DIMSTYLE
105
21E
100
AcDbSymbolTableRecord
100
AcDbDimStyleTableRecord
  2
DIMSTYLE_1
 70
0
  3

  4

 40
1.0
 41
3.0
 42
0.5
 43
0.38
 44
1.5
 45
0.0
 46
0.0
 47
0.0
 48
0.0
140
3.0
141
0.09
142
0.0
143
25.4
144
1.0
145
0.0
146
1.0
147
0.75
 71
0.0
 72
0.0
 73
0
 74
0
 75
0
 76
0
 77
1
 78
8
170
0
171
2
172
0
173
0
174
0
175
0
176
0
177
0
178
0
270
2
271
0
272
0
273
2
274
2
275
0
280
0
281
0
282
0
283
1
284
8
285
0
286
0
287
3
288
0
340
11
278
44
341
219
342
219
343
219
344
219
  0
DIMSTYLE
105
21F
100
AcDbSymbolTableRecord
100
AcDbDimStyleTableRecord
  2
DIMSTYLE_2
 70
0
  3

  4

 40
1.0
 41
3.0
 42
0.5
 43
0.38
 44
1.5
 45
0.0
 46
0.0
 47
0.0
 48
0.0
140
3.0
141
0.09
142
0.0
143
25.4
144
1.0
145
0.0
146
1.0
147
0.75
 71
0.0
 72
0.0
 73
0
 74
0
 75
0
 76
0
 77
1
 78
8
170
0
171
2
172
0
173
0
174
0
175
0
176
0
177
0
178
0
270
2
271
2
272
2
273
2
274
2
275
0
280
0
281
0
282
0
283
1
284
8
285
0
286
0
287
3
288
0
340
11
278
44
341
219
342
219
343
219
344
219
  0
ENDTAB
  0
ENDSEC
  0
SECTION
  2
BLOCKS
  0
BLOCK
  5
20
100
AcDbEntity
  8
0
100
AcDbBlockBegin
  2
*Model_Space
 70
0
 10
0.0
 20
0.0
 30
0.0
  3
*Model_Space
  1

  0
ENDBLK
  5
21
100
AcDbEntity
  8
0
100
AcDbBlockEnd
  0
BLOCK
  5
1C
100
AcDbEntity
  8
0
100
AcDbBlockBegin
  2
*Paper_Space
 70
0
 10
0.0
 20
0.0
 30
0.0
  3
*Paper_Space
  1

  0
ENDBLK
  5
1D
100
AcDbEntity
  8
0
100
AcDbBlockEnd
  0
BLOCK
  5
220
100
AcDbEntity
  8
0
100
AcDbBlockBegin
  2
_FILLED
 70
64
 10
0.0
 20
0.0
  3
_FILLED
  1

  0
SOLID
  5
221
100
AcDbEntity
  8
0
  6
BYBLOCK
 62
0
100
AcDbTrace
 10
0.0
 20
0.0
 11
-1.0
 21
0.3166666667
 12
-1.0
 22
-0.3166666667
 13
-1.0
 23
-0.3166666667
  0
ENDBLK
  5
222
100
AcDbEntity
  8
0
  6
BYBLOCK
 62
0
100
AcDbBlockEnd
  0
BLOCK
  5
223
100
AcDbEntity
  8
0
100
AcDbBlockBegin
 62
7
  6
CONTINUOUS
  2
*D0
 70
65
 10
0.0
 20
0.0
  3
*D0
  1

  0
MTEXT
  5
224
100
AcDbEntity
  8
0
100
AcDbMText
 62
7
  6
CONTINUOUS
  7
STANDARD
 71
2
 72
1
 10
-75.0637193877
 20
51.5769964286
 30
0.0
 11
1.0
 21
0.0
 31
0.0
 44
0.9
  1
9
 40
3.0
 41
2.3571428571
  0
LINE
  5
225
100
AcDbEntity
  8
0
100
AcDbLine
 62
7
  6
CONTINUOUS
 10
-70.5559758643
 20
37.3269964285
 11
-70.5559758643
 21
49.3269964286
  0
LINE
  5
226
100
AcDbEntity
  8
0
100
AcDbLine
 62
7
  6
CONTINUOUS
 10
-79.571462911
 20
23.8269859643
 11
-79.571462911
 21
49.3269964286
  0
LINE
  5
227
100
AcDbEntity
  8
0
100
AcDbLine
 62
7
  6
CONTINUOUS
 10
-70.5559758643
 20
47.8269964286
 11
-75.0637193877
 21
47.8269964286
  0
LINE
  5
228
100
AcDbEntity
  8
0
100
AcDbLine
 62
7
  6
CONTINUOUS
 10
-79.571462911
 20
47.8269964286
 11
-75.0637193877
 21
47.8269964286
  0
INSERT
  5
229
100
AcDbEntity
  8
0
100
AcDbBlockReference
 62
7
  6
CONTINUOUS
  2
_FILLED
 10
-70.5559758643
 20
47.8269964286
 41
3.0
 42
3.0
 43
3.0
  0
INSERT
  5
22A
100
AcDbEntity
  8
0
100
AcDbBlockReference
 62
7
  6
CONTINUOUS
  2
_FILLED
 10
-79.571462911
 20
47.8269964286
 41
3.0
 42
3.0
 43
3.0
 50
180.0
  0
ENDBLK
  5
22B
100
AcDbEntity
  8
0
  6
BYBLOCK
 62
0
100
AcDbBlockEnd
  0
BLOCK
  5
22C
100
AcDbEntity
  8
0
100
AcDbBlockBegin
 62
7
  6
CONTINUOUS
  2
*D1
 70
65
 10
0.0
 20
0.0
  3
*D1
  1

  0
MTEXT
  5
22D
100
AcDbEntity
  8
0
100
AcDbMText
 62
7
  6
CONTINUOUS
  7
STANDARD
 71
2
 72
1
 10
-0.0451561224
 20
51.5769964286
 30
0.0
 11
1.0
 21
0.0
 31
0.0
 44
0.9
  1
80
 40
3.0
 41
4.7142857143
  0
LINE
  5
22E
100
AcDbEntity
  8
0
100
AcDbLine
 62
7
  6
CONTINUOUS
 10
-40.0451561224
 20
37.3269964285
 11
-40.0451561224
 21
49.3269964286
  0
LINE
  5
22F
100
AcDbEntity
  8
0
100
AcDbLine
 62
7
  6
CONTINUOUS
 10
39.9548438775
 20
37.3269964285
 11
39.9548438775
 21
49.3269964286
  0
LINE
  5
230
100
AcDbEntity
  8
0
100
AcDbLine
 62
7
  6
CONTINUOUS
 10
-40.0451561224
 20
47.8269964286
 11
-0.0451561224
 21
47.8269964286
  0
LINE
  5
231
100
AcDbEntity
  8
0
100
AcDbLine
 62
7
  6
CONTINUOUS
 10
39.9548438775
 20
47.8269964286
 11
-0.0451561224
 21
47.8269964286
  0
INSERT
  5
232
100
AcDbEntity
  8
0
100
AcDbBlockReference
 62
7
  6
CONTINUOUS
  2
_FILLED
 10
-40.0451561224
 20
47.8269964286
 41
3.0
 42
3.0
 43
3.0
 50
180.0
  0
INSERT
  5
233
100
AcDbEntity
  8
0
100
AcDbBlockReference
 62
7
  6
CONTINUOUS
  2
_FILLED
 10
39.9548438775
 20
47.8269964286
 41
3.0
 42
3.0
 43
3.0
  0
ENDBLK
  5
234
100
AcDbEntity
  8
0
  6
BYBLOCK
 62
0
100
AcDbBlockEnd
  0
BLOCK
  5
235
100
AcDbEntity
  8
0
100
AcDbBlockBegin
 62
7
  6
CONTINUOUS
  2
*D2
 70
65
 10
0.0
 20
0.0
  3
*D2
  1

  0
MTEXT
  5
236
100
AcDbEntity
  8
0
100
AcDbMText
 62
7
  6
CONTINUOUS
  7
STANDARD
 71
2
 72
1
 10
44.2048438775
 20
-0.1730035714
 30
0.0
 11
0.0
 21
1.0
 31
0.0
 44
0.9
  1
80
 40
3.0
 41
4.7142857143
  0
LINE
  5
237
100
AcDbEntity
  8
0
100
AcDbLine
 62
7
  6
CONTINUOUS
 10
37.4548438775
 20
39.8269964286
 11
49.4548438775
 21
39.8269964286
  0
LINE
  5
238
100
AcDbEntity
  8
0
100
AcDbLine
 62
7
  6
CONTINUOUS
 10
37.4548438775
 20
-40.1730035714
 11
49.4548438775
 21
-40.1730035714
  0
LINE
  5
239
100
AcDbEntity
  8
0
100
AcDbLine
 62
7
  6
CONTINUOUS
 10
47.9548438775
 20
39.8269964286
 11
47.9548438775
 21
-0.1730035714
  0
LINE
  5
23A
100
AcDbEntity
  8
0
100
AcDbLine
 62
7
  6
CONTINUOUS
 10
47.9548438775
 20
-40.1730035714
 11
47.9548438775
 21
-0.1730035714
  0
INSERT
  5
23B
100
AcDbEntity
  8
0
100
AcDbBlockReference
 62
7
  6
CONTINUOUS
  2
_FILLED
 10
47.9548438775
 20
39.8269964286
 41
3.0
 42
3.0
 43
3.0
 50
90.0
  0
INSERT
  5
23C
100
AcDbEntity
  8
0
100
AcDbBlockReference
 62
7
  6
CONTINUOUS
  2
_FILLED
 10
47.9548438775
 20
-40.1730035714
 41
3.0
 42
3.0
 43
3.0
 50
270.0
  0
ENDBLK
  5
23D
100
AcDbEntity
  8
0
  6
BYBLOCK
 62
0
100
AcDbBlockEnd
  0
ENDSEC
  0
SECTION
  2
ENTITIES
  0
DIMENSION
  5
23E
100
AcDbEntity
  8
0
100
AcDbDimension
 62
7
  6
CONTINUOUS
  2
*D0
 10
-79.571462911
 20
47.8269964286
 11
-75.0637193877
 21
47.8269964286
 70
160
 71
2
 42
9.0154870467
  3
DIMSTYLE_1
100
AcDbAlignedDimension
 13
-70.5559758643
 23
36.8269964285
 14
-79.571462911
 24
23.3269859643
 50
180.0
100
AcDbRotatedDimension
  0
DIMENSION
  5
23F
100
AcDbEntity
  8
0
100
AcDbDimension
 62
7
  6
CONTINUOUS
  2
*D1
 10
39.9548438775
 20
47.8269964286
 11
-0.0451561224
 21
47.8269964286
 70
160
 71
2
 42
80.0
  3
DIMSTYLE_2
100
AcDbAlignedDimension
 13
-40.0451561224
 23
36.8269964285
 14
39.9548438775
 24
36.8269964285
100
AcDbRotatedDimension
  0
DIMENSION
  5
240
100
AcDbEntity
  8
0
100
AcDbDimension
 62
7
  6
CONTINUOUS
  2
*D2
 10
47.9548438775
 20
-40.1730035714
 11
47.9548438775
 21
-0.1730035714
 70
160
 71
2
 42
80.0
  3
DIMSTYLE_2
100
AcDbAlignedDimension
 13
36.9548438775
 23
39.8269964286
 14
36.9548438775
 24
-40.1730035714
 50
270.0
100
AcDbRotatedDimension
  0
LWPOLYLINE
  5
241
100
AcDbEntity
  8
RACCORDO
100
AcDbPolyline
 62
253
  6
CONTINUOUS
 90
13
 70
0
 10
-39.8137653259
 20
36.8269964237
 10
-39.8012027034
 20
36.8330175934
 10
-39.7756548992
 20
36.8389594811
 10
-39.7374583456
 20
36.8447438395
 10
-39.6871160431
 20
36.8502944959
 10
-39.6252909365
 20
36.8555383552
 10
-39.5527971846
 20
36.860406362
 10
-39.4705894387
 20
36.8648344109
 10
-39.3797502714
 20
36.8687641903
 10
-39.2814759201
 20
36.8721439502
 10
-39.1770605342
 20
36.8749291837
 10
-39.0678791329
 20
36.8770832131
 10
-38.9553694977
 20
36.878577673
  0
LWPOLYLINE
  5
242
100
AcDbEntity
  8
ASSI
100
AcDbPolyline
 62
253
  6
CONTINUOUS
 90
13
 70
0
 10
-39.8137653259
 20
36.8269964237
 10
-39.8012027034
 20
36.8330175934
 10
-39.7756548992
 20
36.8389594811
 10
-39.7374583456
 20
36.8447438395
 10
-39.6871160431
 20
36.8502944959
 10
-39.6252909365
 20
36.8555383552
 10
-39.5527971846
 20
36.860406362
 10
-39.4705894387
 20
36.8648344109
 10
-39.3797502714
 20
36.8687641903
 10
-39.2814759201
 20
36.8721439502
 10
-39.1770605342
 20
36.8749291837
 10
-39.0678791329
 20
36.8770832131
 10
-38.9553694977
 20
36.878577673
  0
LWPOLYLINE
  5
243
100
AcDbEntity
  8
RACCORDO
100
AcDbPolyline
 62
253
  6
CONTINUOUS
 90
13
 70
0
 10
-39.8137881136
 20
-37.1730035714
 10
-39.8012249233
 20
-37.1790248674
 10
-39.7756761987
 20
-37.1849668691
 10
-39.7374783916
 20
-37.190751326
 10
-39.6871345299
 20
-37.1963020625
 10
-39.6253075934
 20
-37.2015459807
 10
-39.5528117826
 20
-37.206414023
 10
-39.4706017968
 20
-37.2108420819
 10
-39.3797602615
 20
-37.2147718441
 10
-39.2814834714
 20
-37.2181515586
 10
-39.1770656362
 20
-37.2209367176
 10
-39.0678818372
 20
-37.2230906434
 10
-38.9553699187
 20
-37.2245849709
  0
LWPOLYLINE
  5
244
100
AcDbEntity
  8
ASSI
100
AcDbPolyline
 62
253
  6
CONTINUOUS
 90
13
 70
0
 10
-39.8137881136
 20
-37.1730035714
 10
-39.8012249233
 20
-37.1790248674
 10
-39.7756761987
 20
-37.1849668691
 10
-39.7374783916
 20
-37.190751326
 10
-39.6871345299
 20
-37.1963020625
 10
-39.6253075934
 20
-37.2015459807
 10
-39.5528117826
 20
-37.206414023
 10
-39.4706017968
 20
-37.2108420819
 10
-39.3797602615
 20
-37.2147718441
 10
-39.2814834714
 20
-37.2181515586
 10
-39.1770656362
 20
-37.2209367176
 10
-39.0678818372
 20
-37.2230906434
 10
-38.9553699187
 20
-37.2245849709
  0
LWPOLYLINE
  5
245
100
AcDbEntity
  8
RACCORDO
100
AcDbPolyline
 62
253
  6
CONTINUOUS
 90
13
 70
0
 10
-37.0451561224
 20
39.596424552
 10
-37.0493921174
 20
39.5838027542
 10
-37.0535720109
 20
39.5581222915
 10
-37.0576404445
 20
39.5197232753
 10
-37.0615435361
 20
39.4691142615
 10
-37.0652295931
 20
39.4069655146
 10
-37.0686497975
 20
39.3341001313
 10
-37.0717588522
 20
39.2514831392
 10
-37.0745155809
 20
39.1602087159
 10
-37.0768834736
 20
39.0614856979
 10
-37.0788311698
 20
38.9566215706
 10
-37.0803328745
 20
38.8470051523
 10
-37.0813686991
 20
38.7340882004
  0
LWPOLYLINE
  5
246
100
AcDbEntity
  8
ASSI
100
AcDbPolyline
 62
253
  6
CONTINUOUS
 90
13
 70
0
 10
-37.0451561224
 20
39.596424552
 10
-37.0493921174
 20
39.5838027542
 10
-37.0535720109
 20
39.5581222915
 10
-37.0576404445
 20
39.5197232753
 10
-37.0615435361
 20
39.4691142615
 10
-37.0652295931
 20
39.4069655146
 10
-37.0686497975
 20
39.3341001313
 10
-37.0717588522
 20
39.2514831392
 10
-37.0745155809
 20
39.1602087159
 10
-37.0768834736
 20
39.0614856979
 10
-37.0788311698
 20
38.9566215706
 10
-37.0803328745
 20
38.8470051523
 10
-37.0813686991
 20
38.7340882004
  0
LWPOLYLINE
  5
247
100
AcDbEntity
  8
RACCORDO
100
AcDbPolyline
 62
253
  6
CONTINUOUS
 90
13
 70
0
 10
-37.0451561224
 20
-39.9424315778
 10
-37.0493921167
 20
-39.9298097829
 10
-37.0535720096
 20
-39.9041293249
 10
-37.0576404428
 20
-39.8657303152
 10
-37.061543534
 20
-39.8151213094
 10
-37.0652295908
 20
-39.7529725719
 10
-37.0686497951
 20
-39.6801071992
 10
-37.0717588497
 20
-39.5974902186
 10
-37.0745155786
 20
-39.5062158075
 10
-37.0768834715
 20
-39.407492802
 10
-37.0788311682
 20
-39.3026286873
 10
-37.0803328734
 20
-39.1930122814
 10
-37.0813686986
 20
-39.0800953414
  0
LWPOLYLINE
  5
248
100
AcDbEntity
  8
ASSI
100
AcDbPolyline
 62
253
  6
CONTINUOUS
 90
13
 70
0
 10
-37.0451561224
 20
-39.9424315778
 10
-37.0493921167
 20
-39.9298097829
 10
-37.0535720096
 20
-39.9041293249
 10
-37.0576404428
 20
-39.8657303152
 10
-37.061543534
 20
-39.8151213094
 10
-37.0652295908
 20
-39.7529725719
 10
-37.0686497951
 20
-39.6801071992
 10
-37.0717588497
 20
-39.5974902186
 10
-37.0745155786
 20
-39.5062158075
 10
-37.0768834715
 20
-39.407492802
 10
-37.0788311682
 20
-39.3026286873
 10
-37.0803328734
 20
-39.1930122814
 10
-37.0813686986
 20
-39.0800953414
  0
LINE
  5
249
100
AcDbEntity
  8
RACCORDO
100
AcDbLine
 62
253
  6
CONTINUOUS
 10
-38.9910352757
 20
-36.4912891404
 11
-38.9985231344
 21
-36.3930971706
  0
LINE
  5
24A
100
AcDbEntity
  8
ASSI
100
AcDbLine
 62
253
  6
CONTINUOUS
 10
-38.9910352757
 20
-36.4912891404
 11
-38.9985231344
 21
-36.3930971706
  0
LWPOLYLINE
  5
24B
100
AcDbEntity
  8
RACCORDO
100
AcDbPolyline
 62
253
  6
CONTINUOUS
 90
7
 70
0
 10
-38.9985231344
 20
-36.3930971706
 10
-39.0020460014
 20
-36.3435346653
 10
-39.0052161193
 20
-36.2938181717
 10
-39.0080651513
 20
-36.2442350943
 10
-39.0101730897
 20
-36.1946953042
 10
-39.0111170248
 20
-36.1451227935
 10
-39.0116238275
 20
-36.0437837347
  0
LWPOLYLINE
  5
24C
100
AcDbEntity
  8
ASSI
100
AcDbPolyline
 62
253
  6
CONTINUOUS
 90
7
 70
0
 10
-38.9985231344
 20
-36.3930971706
 10
-39.0020460014
 20
-36.3435346653
 10
-39.0052161193
 20
-36.2938181717
 10
-39.0080651513
 20
-36.2442350943
 10
-39.0101730897
 20
-36.1946953042
 10
-39.0111170248
 20
-36.1451227935
 10
-39.0116238275
 20
-36.0437837347
  0
LWPOLYLINE
  5
24D
100
AcDbEntity
  8
RACCORDO
100
AcDbPolyline
 62
253
  6
CONTINUOUS
 90
3
 70
0
 10
-38.9818026273
 20
-36.6378823808
 10
-38.9847200448
 20
-36.5889046167
 10
-38.9910352757
 20
-36.4912891404
  0
LWPOLYLINE
  5
24E
100
AcDbEntity
  8
ASSI
100
AcDbPolyline
 62
253
  6
CONTINUOUS
 90
3
 70
0
 10
-38.9818026273
 20
-36.6378823808
 10
-38.9847200448
 20
-36.5889046167
 10
-38.9910352757
 20
-36.4912891404
  0
LWPOLYLINE
  5
24F
100
AcDbEntity
  8
RACCORDO
100
AcDbPolyline
 62
253
  6
CONTINUOUS
 90
37
 70
0
 10
-39.8137881136
 20
36.8269964286
 10
-39.805646713
 20
37.0436077516
 10
-39.7817586721
 20
37.2511478109
 10
-39.7440274518
 20
37.4486265478
 10
-39.6943830175
 20
37.6351380815
 10
-39.6346356943
 20
37.8103684396
 10
-39.5663389938
 20
37.9745350292
 10
-39.4911809002
 20
38.127311868
 10
-39.4105841219
 20
38.2689088365
 10
-39.3252950382
 20
38.4004443019
 10
-39.2364686798
 20
38.5220617063
 10
-39.1451788764
 20
38.6339922472
 10
-39.0516115589
 20
38.737398487
 10
-38.9564484345
 20
38.8326317258
 10
-38.8605328306
 20
38.9198576298
 10
-38.7639960239
 20
38.9998412336
 10
-38.6673259146
 20
39.0729243131
 10
-38.5711231702
 20
39.1393477019
 10
-38.4755242382
 20
39.1996478425
 10
-38.3809437042
 20
39.2541245753
 10
-38.2877565973
 20
39.3030905873
 10
-38.1959340838
 20
39.3470365711
 10
-38.1057676095
 20
39.3862474157
 10
-38.017517146
 20
39.4210129633
 10
-37.9310269813
 20
39.4517568497
 10
-37.8464938938
 20
39.4787318722
 10
-37.7640948835
 20
39.5021898961
 10
-37.6835873048
 20
39.5224767225
 10
-37.6051023332
 20
39.539804906
 10
-37.5287557259
 20
39.5543848567
 10
-37.4542425028
 20
39.5664853227
 10
-37.3816496177
 20
39.5762775573
 10
-37.3110497452
 20
39.5839307663
 10
-37.2420911503
 20
39.5896408939
 10
-37.1746891311
 20
39.5935467626
 10
-37.1090302923
 20
39.5957653011
 10
-37.0451561224
 20
39.596424552
  0
LWPOLYLINE
  5
250
100
AcDbEntity
  8
ASSI
100
AcDbPolyline
 62
253
  6
CONTINUOUS
 90
37
 70
0
 10
-39.8137881136
 20
36.8269964286
 10
-39.805646713
 20
37.0436077516
 10
-39.7817586721
 20
37.2511478109
 10
-39.7440274518
 20
37.4486265478
 10
-39.6943830175
 20
37.6351380815
 10
-39.6346356943
 20
37.8103684396
 10
-39.5663389938
 20
37.9745350292
 10
-39.4911809002
 20
38.127311868
 10
-39.4105841219
 20
38.2689088365
 10
-39.3252950382
 20
38.4004443019
 10
-39.2364686798
 20
38.5220617063
 10
-39.1451788764
 20
38.6339922472
 10
-39.0516115589
 20
38.737398487
 10
-38.9564484345
 20
38.8326317258
 10
-38.8605328306
 20
38.9198576298
 10
-38.7639960239
 20
38.9998412336
 10
-38.6673259146
 20
39.0729243131
 10
-38.5711231702
 20
39.1393477019
 10
-38.4755242382
 20
39.1996478425
 10
-38.3809437042
 20
39.2541245753
 10
-38.2877565973
 20
39.3030905873
 10
-38.1959340838
 20
39.3470365711
 10
-38.1057676095
 20
39.3862474157
 10
-38.017517146
 20
39.4210129633
 10
-37.9310269813
 20
39.4517568497
 10
-37.8464938938
 20
39.4787318722
 10
-37.7640948835
 20
39.5021898961
 10
-37.6835873048
 20
39.5224767225
 10
-37.6051023332
 20
39.539804906
 10
-37.5287557259
 20
39.5543848567
 10
-37.4542425028
 20
39.5664853227
 10
-37.3816496177
 20
39.5762775573
 10
-37.3110497452
 20
39.5839307663
 10
-37.2420911503
 20
39.5896408939
 10
-37.1746891311
 20
39.5935467626
 10
-37.1090302923
 20
39.5957653011
 10
-37.0451561224
 20
39.596424552
  0
LWPOLYLINE
  5
251
100
AcDbEntity
  8
RACCORDO
100
AcDbPolyline
 62
253
  6
CONTINUOUS
 90
3
 70
0
 10
-38.9921519233
 20
36.1293227208
 10
-38.9886476778
 20
36.181214816
 10
-38.9822781055
 20
36.2836545096
  0
LWPOLYLINE
  5
252
100
AcDbEntity
  8
ASSI
100
AcDbPolyline
 62
253
  6
CONTINUOUS
 90
3
 70
0
 10
-38.9921519233
 20
36.1293227208
 10
-38.9886476778
 20
36.181214816
 10
-38.9822781055
 20
36.2836545096
  0
LWPOLYLINE
  5
253
100
AcDbEntity
  8
RACCORDO
100
AcDbPolyline
 62
253
  6
CONTINUOUS
 90
37
 70
0
 10
-38.9553694977
 20
36.878577673
 10
-38.9446989477
 20
37.0210504646
 10
-38.9241208152
 20
37.1577244423
 10
-38.8948912608
 20
37.2878060664
 10
-38.8582786321
 20
37.4107076842
 10
-38.8154540743
 20
37.5262604409
 10
-38.7673942465
 20
37.634586866
 10
-38.7151836784
 20
37.7354851471
 10
-38.6597176758
 20
37.8291129271
 10
-38.6014322599
 20
37.9161800644
 10
-38.5410608743
 20
37.9967822045
 10
-38.4792876136
 20
38.0710817533
 10
-38.4162010468
 20
38.1398323599
 10
-38.3522278685
 20
38.2032668384
 10
-38.2879020464
 20
38.2614999045
 10
-38.2232839815
 20
38.3150304112
 10
-38.1586802242
 20
38.3640808582
 10
-38.0944778707
 20
38.4088054717
 10
-38.0307562194
 20
38.4495485365
 10
-37.9677779943
 20
38.4865033669
 10
-37.9057777531
 20
38.5198755059
 10
-37.8447237394
 20
38.5499860252
 10
-37.7848015855
 20
38.577016696
 10
-37.7261806748
 20
38.6011509985
 10
-37.668755776
 20
38.6226628465
 10
-37.6126538735
 20
38.6417126772
 10
-37.5579868541
 20
38.6584627327
 10
-37.5045891553
 20
38.673141215
 10
-37.4525444407
 20
38.6858837922
 10
-37.4019265356
 20
38.6968252516
 10
-37.3525300445
 20
38.7061447392
 10
-37.3044106133
 20
38.7139513063
 10
-37.2576149869
 20
38.7203533152
 10
-37.2119080665
 20
38.7254839985
 10
-37.1672322237
 20
38.7294343268
 10
-37.1237102238
 20
38.7322754839
 10
-37.0813686986
 20
38.7340881985
  0
LWPOLYLINE
  5
254
100
AcDbEntity
  8
ASSI
100
AcDbPolyline
 62
253
  6
CONTINUOUS
 90
37
 70
0
 10
-38.9553694977
 20
36.878577673
 10
-38.9446989477
 20
37.0210504646
 10
-38.9241208152
 20
37.1577244423
 10
-38.8948912608
 20
37.2878060664
 10
-38.8582786321
 20
37.4107076842
 10
-38.8154540743
 20
37.5262604409
 10
-38.7673942465
 20
37.634586866
 10
-38.7151836784
 20
37.7354851471
 10
-38.6597176758
 20
37.8291129271
 10
-38.6014322599
 20
37.9161800644
 10
-38.5410608743
 20
37.9967822045
 10
-38.4792876136
 20
38.0710817533
 10
-38.4162010468
 20
38.1398323599
 10
-38.3522278685
 20
38.2032668384
 10
-38.2879020464
 20
38.2614999045
 10
-38.2232839815
 20
38.3150304112
 10
-38.1586802242
 20
38.3640808582
 10
-38.0944778707
 20
38.4088054717
 10
-38.0307562194
 20
38.4495485365
 10
-37.9677779943
 20
38.4865033669
 10
-37.9057777531
 20
38.5198755059
 10
-37.8447237394
 20
38.5499860252
 10
-37.7848015855
 20
38.577016696
 10
-37.7261806748
 20
38.6011509985
 10
-37.668755776
 20
38.6226628465
 10
-37.6126538735
 20
38.6417126772
 10
-37.5579868541
 20
38.6584627327
 10
-37.5045891553
 20
38.673141215
 10
-37.4525444407
 20
38.6858837922
 10
-37.4019265356
 20
38.6968252516
 10
-37.3525300445
 20
38.7061447392
 10
-37.3044106133
 20
38.7139513063
 10
-37.2576149869
 20
38.7203533152
 10
-37.2119080665
 20
38.7254839985
 10
-37.1672322237
 20
38.7294343268
 10
-37.1237102238
 20
38.7322754839
 10
-37.0813686986
 20
38.7340881985
  0
LINE
  5
255
100
AcDbEntity
  8
RACCORDO
100
AcDbLine
 62
253
  6
CONTINUOUS
 10
-38.9763838559
 20
-36.7368284965
 11
-38.9818026273
 21
-36.6378823808
  0
LINE
  5
256
100
AcDbEntity
  8
ASSI
100
AcDbLine
 62
253
  6
CONTINUOUS
 10
-38.9763838559
 20
-36.7368284965
 11
-38.9818026273
 21
-36.6378823808
  0
LINE
  5
257
100
AcDbEntity
  8
RACCORDO
100
AcDbLine
 62
253
  6
CONTINUOUS
 10
-38.971392413
 20
-36.8369686876
 11
-38.9763838559
 21
-36.7368284965
  0
LINE
  5
258
100
AcDbEntity
  8
ASSI
100
AcDbLine
 62
253
  6
CONTINUOUS
 10
-38.971392413
 20
-36.8369686876
 11
-38.9763838559
 21
-36.7368284965
  0
LINE
  5
259
100
AcDbEntity
  8
RACCORDO
100
AcDbLine
 62
253
  6
CONTINUOUS
 10
-38.9646278304
 20
-36.9877068161
 11
-38.971392413
 21
-36.8369686876
  0
LINE
  5
25A
100
AcDbEntity
  8
ASSI
100
AcDbLine
 62
253
  6
CONTINUOUS
 10
-38.9646278304
 20
-36.9877068161
 11
-38.971392413
 21
-36.8369686876
  0
LWPOLYLINE
  5
25B
100
AcDbEntity
  8
RACCORDO
100
AcDbPolyline
 62
253
  6
CONTINUOUS
 90
3
 70
0
 10
-38.9553699187
 20
-37.2245849709
 10
-38.9570149752
 20
-37.1794214355
 10
-38.9646278304
 20
-36.9877068161
  0
LWPOLYLINE
  5
25C
100
AcDbEntity
  8
ASSI
100
AcDbPolyline
 62
253
  6
CONTINUOUS
 90
3
 70
0
 10
-38.9553699187
 20
-37.2245849709
 10
-38.9570149752
 20
-37.1794214355
 10
-38.9646278304
 20
-36.9877068161
  0
LINE
  5
25D
100
AcDbEntity
  8
RACCORDO
100
AcDbLine
 62
253
  6
CONTINUOUS
 10
-39.0116238275
 20
-36.0437837347
 11
-39.0728271112
 21
-31.7841023019
  0
LINE
  5
25E
100
AcDbEntity
  8
ASSI
100
AcDbLine
 62
253
  6
CONTINUOUS
 10
-39.0116238275
 20
-36.0437837347
 11
-39.0728271112
 21
-31.7841023019
  0
LINE
  5
25F
100
AcDbEntity
  8
RACCORDO
100
AcDbLine
 62
253
  6
CONTINUOUS
 10
-39.0728271112
 20
-31.7841023019
 11
-39.0921894024
 21
-29.8904384526
  0
LINE
  5
260
100
AcDbEntity
  8
ASSI
100
AcDbLine
 62
253
  6
CONTINUOUS
 10
-39.0728271112
 20
-31.7841023019
 11
-39.0921894024
 21
-29.8904384526
  0
LINE
  5
261
100
AcDbEntity
  8
RACCORDO
100
AcDbLine
 62
253
  6
CONTINUOUS
 10
-39.0921894024
 20
-29.8904384526
 11
-39.1045476175
 21
-27.9926058619
  0
LINE
  5
262
100
AcDbEntity
  8
ASSI
100
AcDbLine
 62
253
  6
CONTINUOUS
 10
-39.0921894024
 20
-29.8904384526
 11
-39.1045476175
 21
-27.9926058619
  0
LINE
  5
263
100
AcDbEntity
  8
RACCORDO
100
AcDbLine
 62
253
  6
CONTINUOUS
 10
-39.1045476175
 20
-27.9926058619
 11
-39.1201923928
 21
-22.7446094524
  0
LINE
  5
264
100
AcDbEntity
  8
ASSI
100
AcDbLine
 62
253
  6
CONTINUOUS
 10
-39.1045476175
 20
-27.9926058619
 11
-39.1201923928
 21
-22.7446094524
  0
LINE
  5
265
100
AcDbEntity
  8
RACCORDO
100
AcDbLine
 62
253
  6
CONTINUOUS
 10
-39.1201923928
 20
-22.7446094524
 11
-39.133530526
 21
-15.4395676132
  0
LINE
  5
266
100
AcDbEntity
  8
ASSI
100
AcDbLine
 62
253
  6
CONTINUOUS
 10
-39.1201923928
 20
-22.7446094524
 11
-39.133530526
 21
-15.4395676132
  0
LINE
  5
267
100
AcDbEntity
  8
RACCORDO
100
AcDbLine
 62
253
  6
CONTINUOUS
 10
-39.133530526
 20
-15.4395676132
 11
-39.1407293565
 21
-7.2241959799
  0
LINE
  5
268
100
AcDbEntity
  8
ASSI
100
AcDbLine
 62
253
  6
CONTINUOUS
 10
-39.133530526
 20
-15.4395676132
 11
-39.1407293565
 21
-7.2241959799
  0
LINE
  5
269
100
AcDbEntity
  8
0
100
AcDbLine
 62
7
  6
CONTINUOUS
 10
-40.0451561224
 20
36.8269964285
 11
-40.0451561224
 21
3.5019737556
  0
LINE
  5
26A
100
AcDbEntity
  8
ASSI
100
AcDbLine
 62
7
  6
CONTINUOUS
 10
-40.0451561224
 20
36.8269964285
 11
-40.0451561224
 21
3.5019737556
  0
LINE
  5
26B
100
AcDbEntity
  8
0
100
AcDbLine
 62
7
  6
CONTINUOUS
 10
-40.0451561224
 20
-3.8479808985
 11
-40.0451561224
 21
-37.1730035714
  0
LINE
  5
26C
100
AcDbEntity
  8
ASSI
100
AcDbLine
 62
7
  6
CONTINUOUS
 10
-40.0451561224
 20
-3.8479808985
 11
-40.0451561224
 21
-37.1730035714
  0
LINE
  5
26D
100
AcDbEntity
  8
0
100
AcDbLine
 62
7
  6
CONTINUOUS
 10
-39.9403405639
 20
-3.6730035714
 11
-39.9403405639
 21
3.3269964286
  0
LINE
  5
26E
100
AcDbEntity
  8
ASSI
100
AcDbLine
 62
7
  6
CONTINUOUS
 10
-39.9403405639
 20
-3.6730035714
 11
-39.9403405639
 21
3.3269964286
  0
LINE
  5
26F
100
AcDbEntity
  8
RACCORDO
100
AcDbLine
 62
253
  6
CONTINUOUS
 10
-39.8079113888
 20
25.9671981555
 11
-39.8137881136
 21
36.8269964286
  0
LINE
  5
270
100
AcDbEntity
  8
ASSI
100
AcDbLine
 62
253
  6
CONTINUOUS
 10
-39.8079113888
 20
25.9671981555
 11
-39.8137881136
 21
36.8269964286
  0
LINE
  5
271
100
AcDbEntity
  8
RACCORDO
100
AcDbLine
 62
253
  6
CONTINUOUS
 10
-39.1407293565
 20
-7.2241959799
 11
-39.1410025073
 21
6.2485035701
  0
LINE
  5
272
100
AcDbEntity
  8
ASSI
100
AcDbLine
 62
253
  6
CONTINUOUS
 10
-39.1407293565
 20
-7.2241959799
 11
-39.1410025073
 21
6.2485035701
  0
LINE
  5
273
100
AcDbEntity
  8
RACCORDO
100
AcDbLine
 62
253
  6
CONTINUOUS
 10
-39.1410025073
 20
6.2485035701
 11
-39.1322707126
 21
15.9943750756
  0
LINE
  5
274
100
AcDbEntity
  8
ASSI
100
AcDbLine
 62
253
  6
CONTINUOUS
 10
-39.1410025073
 20
6.2485035701
 11
-39.1322707126
 21
15.9943750756
  0
LINE
  5
275
100
AcDbEntity
  8
RACCORDO
100
AcDbLine
 62
253
  6
CONTINUOUS
 10
-39.1322707126
 20
15.9943750756
 11
-39.1165389094
 21
23.908947107
  0
LINE
  5
276
100
AcDbEntity
  8
ASSI
100
AcDbLine
 62
253
  6
CONTINUOUS
 10
-39.1322707126
 20
15.9943750756
 11
-39.1165389094
 21
23.908947107
  0
LINE
  5
277
100
AcDbEntity
  8
RACCORDO
100
AcDbLine
 62
253
  6
CONTINUOUS
 10
-39.8137881136
 20
-37.1730035714
 11
-39.8079113888
 21
25.9671981555
  0
LINE
  5
278
100
AcDbEntity
  8
ASSI
100
AcDbLine
 62
253
  6
CONTINUOUS
 10
-39.8137881136
 20
-37.1730035714
 11
-39.8079113888
 21
25.9671981555
  0
LINE
  5
279
100
AcDbEntity
  8
RACCORDO
100
AcDbLine
 62
253
  6
CONTINUOUS
 10
-39.1165389094
 20
23.908947107
 11
-39.1012985602
 21
28.2529663848
  0
LINE
  5
27A
100
AcDbEntity
  8
ASSI
100
AcDbLine
 62
253
  6
CONTINUOUS
 10
-39.1165389094
 20
23.908947107
 11
-39.1012985602
 21
28.2529663848
  0
LINE
  5
27B
100
AcDbEntity
  8
RACCORDO
100
AcDbLine
 62
253
  6
CONTINUOUS
 10
-39.0124290629
 20
35.6353186768
 11
-39.0114909392
 21
35.7508772132
  0
LINE
  5
27C
100
AcDbEntity
  8
ASSI
100
AcDbLine
 62
253
  6
CONTINUOUS
 10
-39.0124290629
 20
35.6353186768
 11
-39.0114909392
 21
35.7508772132
  0
LINE
  5
27D
100
AcDbEntity
  8
RACCORDO
100
AcDbLine
 62
253
  6
CONTINUOUS
 10
-39.1012985602
 20
28.2529663848
 11
-39.0872991538
 21
30.0966109902
  0
LINE
  5
27E
100
AcDbEntity
  8
ASSI
100
AcDbLine
 62
253
  6
CONTINUOUS
 10
-39.1012985602
 20
28.2529663848
 11
-39.0872991538
 21
30.0966109902
  0
LINE
  5
27F
100
AcDbEntity
  8
RACCORDO
100
AcDbLine
 62
253
  6
CONTINUOUS
 10
-39.0872991538
 20
30.0966109902
 11
-39.0664713823
 21
31.9424456713
  0
LINE
  5
280
100
AcDbEntity
  8
ASSI
100
AcDbLine
 62
253
  6
CONTINUOUS
 10
-39.0872991538
 20
30.0966109902
 11
-39.0664713823
 21
31.9424456713
  0
LINE
  5
281
100
AcDbEntity
  8
RACCORDO
100
AcDbLine
 62
253
  6
CONTINUOUS
 10
-39.0664713823
 20
31.9424456713
 11
-39.0124290629
 21
35.6353186768
  0
LINE
  5
282
100
AcDbEntity
  8
ASSI
100
AcDbLine
 62
253
  6
CONTINUOUS
 10
-39.0664713823
 20
31.9424456713
 11
-39.0124290629
 21
35.6353186768
  0
LWPOLYLINE
  5
283
100
AcDbEntity
  8
RACCORDO
100
AcDbPolyline
 62
253
  6
CONTINUOUS
 90
7
 70
0
 10
-39.0114909392
 20
35.7508772132
 10
-39.0105720283
 20
35.8066448156
 10
-39.0089579304
 20
35.8617402378
 10
-39.0068310097
 20
35.9162326131
 10
-39.004095777
 20
35.9703654715
 10
-39.0004423199
 20
36.0239660056
 10
-38.9921519233
 20
36.1293227208
  0
LWPOLYLINE
  5
284
100
AcDbEntity
  8
ASSI
100
AcDbPolyline
 62
253
  6
CONTINUOUS
 90
7
 70
0
 10
-39.0114909392
 20
35.7508772132
 10
-39.0105720283
 20
35.8066448156
 10
-39.0089579304
 20
35.8617402378
 10
-39.0068310097
 20
35.9162326131
 10
-39.004095777
 20
35.9703654715
 10
-39.0004423199
 20
36.0239660056
 10
-38.9921519233
 20
36.1293227208
  0
LINE
  5
285
100
AcDbEntity
  8
RACCORDO
100
AcDbLine
 62
253
  6
CONTINUOUS
 10
-38.9625841361
 20
36.6909656528
 11
-38.9553699188
 21
36.8785778279
  0
LINE
  5
286
100
AcDbEntity
  8
ASSI
100
AcDbLine
 62
253
  6
CONTINUOUS
 10
-38.9625841361
 20
36.6909656528
 11
-38.9553699188
 21
36.8785778279
  0
LINE
  5
287
100
AcDbEntity
  8
RACCORDO
100
AcDbLine
 62
253
  6
CONTINUOUS
 10
-38.969118264
 20
36.5397871183
 11
-38.9625841361
 21
36.6909656528
  0
LINE
  5
288
100
AcDbEntity
  8
ASSI
100
AcDbLine
 62
253
  6
CONTINUOUS
 10
-38.969118264
 20
36.5397871183
 11
-38.9625841361
 21
36.6909656528
  0
LINE
  5
289
100
AcDbEntity
  8
RACCORDO
100
AcDbLine
 62
253
  6
CONTINUOUS
 10
-38.9740234025
 20
36.4370983652
 11
-38.969118264
 21
36.5397871183
  0
LINE
  5
28A
100
AcDbEntity
  8
ASSI
100
AcDbLine
 62
253
  6
CONTINUOUS
 10
-38.9740234025
 20
36.4370983652
 11
-38.969118264
 21
36.5397871183
  0
LWPOLYLINE
  5
28B
100
AcDbEntity
  8
RACCORDO
100
AcDbPolyline
 62
253
  6
CONTINUOUS
 90
3
 70
0
 10
-38.9822781055
 20
36.2836545096
 10
-38.9793671321
 20
36.3348430746
 10
-38.9740234025
 20
36.4370983652
  0
LWPOLYLINE
  5
28C
100
AcDbEntity
  8
ASSI
100
AcDbPolyline
 62
253
  6
CONTINUOUS
 90
3
 70
0
 10
-38.9822781055
 20
36.2836545096
 10
-38.9793671321
 20
36.3348430746
 10
-38.9740234025
 20
36.4370983652
  0
LWPOLYLINE
  5
28D
100
AcDbEntity
  8
RACCORDO
100
AcDbPolyline
 62
253
  6
CONTINUOUS
 90
4
 70
0
 10
36.6111658617
 20
-39.0936427319
 10
36.4315778009
 20
-39.1015898413
 10
36.3951773032
 20
-39.1028770863
 10
36.3585920009
 20
-39.1037246485
  0
LWPOLYLINE
  5
28E
100
AcDbEntity
  8
ASSI
100
AcDbPolyline
 62
253
  6
CONTINUOUS
 90
4
 70
0
 10
36.6111658617
 20
-39.0936427319
 10
36.4315778009
 20
-39.1015898413
 10
36.3951773032
 20
-39.1028770863
 10
36.3585920009
 20
-39.1037246485
  0
LINE
  5
28F
100
AcDbEntity
  8
RACCORDO
100
AcDbLine
 62
253
  6
CONTINUOUS
 10
36.8071359812
 20
-39.0862824054
 11
36.6111658617
 21
-39.0936427319
  0
LINE
  5
290
100
AcDbEntity
  8
ASSI
100
AcDbLine
 62
253
  6
CONTINUOUS
 10
36.8071359812
 20
-39.0862824054
 11
36.6111658617
 21
-39.0936427319
  0
LINE
  5
291
100
AcDbEntity
  8
RACCORDO
100
AcDbLine
 62
253
  6
CONTINUOUS
 10
36.9910564536
 20
-39.080095341
 11
36.8071359812
 21
-39.0862824054
  0
LINE
  5
292
100
AcDbEntity
  8
ASSI
100
AcDbLine
 62
253
  6
CONTINUOUS
 10
36.9910564536
 20
-39.080095341
 11
36.8071359812
 21
-39.0862824054
  0
LINE
  5
293
100
AcDbEntity
  8
RACCORDO
100
AcDbLine
 62
253
  6
CONTINUOUS
 10
32.2346714167
 20
-39.1602053391
 11
30.3974851674
 21
-39.1903093623
  0
LINE
  5
294
100
AcDbEntity
  8
ASSI
100
AcDbLine
 62
253
  6
CONTINUOUS
 10
32.2346714167
 20
-39.1602053391
 11
30.3974851674
 21
-39.1903093623
  0
LWPOLYLINE
  5
295
100
AcDbEntity
  8
RACCORDO
100
AcDbPolyline
 62
253
  6
CONTINUOUS
 90
3
 70
0
 10
36.3585920009
 20
-39.1037246485
 10
36.2460284821
 20
-39.105255921
 10
32.2346714167
 20
-39.1602053391
  0
LWPOLYLINE
  5
296
100
AcDbEntity
  8
ASSI
100
AcDbPolyline
 62
253
  6
CONTINUOUS
 90
3
 70
0
 10
36.3585920009
 20
-39.1037246485
 10
36.2460284821
 20
-39.105255921
 10
32.2346714167
 20
-39.1602053391
  0
LINE
  5
297
100
AcDbEntity
  8
RACCORDO
100
AcDbLine
 62
253
  6
CONTINUOUS
 10
30.3974851674
 20
-39.1903093623
 11
26.3793034734
 21
-39.2377155375
  0
LINE
  5
298
100
AcDbEntity
  8
ASSI
100
AcDbLine
 62
253
  6
CONTINUOUS
 10
30.3974851674
 20
-39.1903093623
 11
26.3793034734
 21
-39.2377155375
  0
LINE
  5
299
100
AcDbEntity
  8
RACCORDO
100
AcDbLine
 62
253
  6
CONTINUOUS
 10
26.3793034734
 20
-39.2377155375
 11
24.2822795951
 21
-39.2579110655
  0
LINE
  5
29A
100
AcDbEntity
  8
ASSI
100
AcDbLine
 62
253
  6
CONTINUOUS
 10
26.3793034734
 20
-39.2377155375
 11
24.2822795951
 21
-39.2579110655
  0
LINE
  5
29B
100
AcDbEntity
  8
RACCORDO
100
AcDbLine
 62
253
  6
CONTINUOUS
 10
24.2822795951
 20
-39.2579110655
 11
22.2609291999
 21
-39.2708942742
  0
LINE
  5
29C
100
AcDbEntity
  8
ASSI
100
AcDbLine
 62
253
  6
CONTINUOUS
 10
24.2822795951
 20
-39.2579110655
 11
22.2609291999
 21
-39.2708942742
  0
LINE
  5
29D
100
AcDbEntity
  8
RACCORDO
100
AcDbLine
 62
253
  6
CONTINUOUS
 10
22.2609291999
 20
-39.2708942742
 11
19.961520953
 21
-39.2779999548
  0
LINE
  5
29E
100
AcDbEntity
  8
ASSI
100
AcDbLine
 62
253
  6
CONTINUOUS
 10
22.2609291999
 20
-39.2708942742
 11
19.961520953
 21
-39.2779999548
  0
LINE
  5
29F
100
AcDbEntity
  8
RACCORDO
100
AcDbLine
 62
253
  6
CONTINUOUS
 10
-11.7951561224
 20
-39.269932394
 11
-17.6015503783
 21
-39.2783375746
  0
LINE
  5
2A0
100
AcDbEntity
  8
ASSI
100
AcDbLine
 62
253
  6
CONTINUOUS
 10
-11.7951561224
 20
-39.269932394
 11
-17.6015503783
 21
-39.2783375746
  0
LINE
  5
2A1
100
AcDbEntity
  8
0
100
AcDbLine
 62
7
  6
CONTINUOUS
 10
-37.0451561224
 20
-40.1730035714
 11
36.9548438775
 21
-40.1730035714
  0
LINE
  5
2A2
100
AcDbEntity
  8
ASSI
100
AcDbLine
 62
7
  6
CONTINUOUS
 10
-37.0451561224
 20
-40.1730035714
 11
36.9548438775
 21
-40.1730035714
  0
LINE
  5
2A3
100
AcDbEntity
  8
RACCORDO
100
AcDbLine
 62
253
  6
CONTINUOUS
 10
19.961520953
 20
-39.2779999548
 11
17.3385870321
 21
-39.2781827198
  0
LINE
  5
2A4
100
AcDbEntity
  8
ASSI
100
AcDbLine
 62
253
  6
CONTINUOUS
 10
19.961520953
 20
-39.2779999548
 11
17.3385870321
 21
-39.2781827198
  0
LINE
  5
2A5
100
AcDbEntity
  8
RACCORDO
100
AcDbLine
 62
253
  6
CONTINUOUS
 10
-17.6015503783
 20
-39.2783375746
 11
-20.1485356407
 21
-39.277855779
  0
LINE
  5
2A6
100
AcDbEntity
  8
ASSI
100
AcDbLine
 62
253
  6
CONTINUOUS
 10
-17.6015503783
 20
-39.2783375746
 11
-20.1485356407
 21
-39.277855779
  0
LINE
  5
2A7
100
AcDbEntity
  8
RACCORDO
100
AcDbLine
 62
253
  6
CONTINUOUS
 10
36.9548438775
 20
-39.9424316948
 11
-37.0451561224
 21
-39.9424316948
  0
LINE
  5
2A8
100
AcDbEntity
  8
ASSI
100
AcDbLine
 62
253
  6
CONTINUOUS
 10
36.9548438775
 20
-39.9424316948
 11
-37.0451561224
 21
-39.9424316948
  0
LWPOLYLINE
  5
2A9
100
AcDbEntity
  8
RACCORDO
100
AcDbPolyline
 62
253
  6
CONTINUOUS
 90
3
 70
0
 10
17.3385870321
 20
-39.2781827198
 10
14.9655827808
 20
-39.2742739703
 10
-11.7951561224
 20
-39.2699323939
  0
LWPOLYLINE
  5
2AA
100
AcDbEntity
  8
ASSI
100
AcDbPolyline
 62
253
  6
CONTINUOUS
 90
3
 70
0
 10
17.3385870321
 20
-39.2781827198
 10
14.9655827808
 20
-39.2742739703
 10
-11.7951561224
 20
-39.2699323939
  0
LINE
  5
2AB
100
AcDbEntity
  8
RACCORDO
100
AcDbLine
 62
253
  6
CONTINUOUS
 10
-20.1485356407
 20
-39.277855779
 11
-22.318868533
 21
-39.2710563892
  0
LINE
  5
2AC
100
AcDbEntity
  8
ASSI
100
AcDbLine
 62
253
  6
CONTINUOUS
 10
-20.1485356407
 20
-39.277855779
 11
-22.318868533
 21
-39.2710563892
  0
LINE
  5
2AD
100
AcDbEntity
  8
RACCORDO
100
AcDbLine
 62
253
  6
CONTINUOUS
 10
-22.318868533
 20
-39.2710563892
 11
-24.620191487
 21
-39.2558726939
  0
LINE
  5
2AE
100
AcDbEntity
  8
ASSI
100
AcDbLine
 62
253
  6
CONTINUOUS
 10
-22.318868533
 20
-39.2710563892
 11
-24.620191487
 21
-39.2558726939
  0
LWPOLYLINE
  5
2AF
100
AcDbEntity
  8
RACCORDO
100
AcDbPolyline
 62
253
  6
CONTINUOUS
 90
37
 70
0
 10
-37.0451561224
 20
-39.9424316948
 10
-37.1090302923
 20
-39.9417724439
 10
-37.1746891311
 20
-39.9395539055
 10
-37.2420911503
 20
-39.9356480368
 10
-37.3110497452
 20
-39.9299379092
 10
-37.3816496178
 20
-39.9222847001
 10
-37.4542425028
 20
-39.9124924655
 10
-37.5287557259
 20
-39.9003919996
 10
-37.6051023332
 20
-39.8858120488
 10
-37.6835873048
 20
-39.8684838654
 10
-37.7640948835
 20
-39.848197039
 10
-37.8464938938
 20
-39.824739015
 10
-37.9310269813
 20
-39.7977639925
 10
-38.017517146
 20
-39.7670201062
 10
-38.1057676095
 20
-39.7322545585
 10
-38.1959340838
 20
-39.6930437139
 10
-38.2877565973
 20
-39.6490977302
 10
-38.3809437042
 20
-39.6001317181
 10
-38.4755242382
 20
-39.5456549853
 10
-38.5711231702
 20
-39.4853548447
 10
-38.6673259146
 20
-39.418931456
 10
-38.7639960239
 20
-39.3458483765
 10
-38.8605328306
 20
-39.2658647726
 10
-38.9564484344
 20
-39.1786388686
 10
-39.0516115589
 20
-39.0834056298
 10
-39.1451788765
 20
-38.9799993902
 10
-39.2364686801
 20
-38.8680688493
 10
-39.3252950386
 20
-38.7464514449
 10
-39.4105841216
 20
-38.6149159793
 10
-39.4911808988
 20
-38.4733190106
 10
-39.5663389923
 20
-38.3205421718
 10
-39.6346356947
 20
-38.1563755823
 10
-39.6943830205
 20
-37.981145224
 10
-39.7440274563
 20
-37.7946336899
 10
-39.7817586763
 20
-37.5971549528
 10
-39.8056467156
 20
-37.3896148936
 10
-39.8137881136
 20
-37.1730035714
  0
LWPOLYLINE
  5
2B0
100
AcDbEntity
  8
ASSI
100
AcDbPolyline
 62
253
  6
CONTINUOUS
 90
37
 70
0
 10
-37.0451561224
 20
-39.9424316948
 10
-37.1090302923
 20
-39.9417724439
 10
-37.1746891311
 20
-39.9395539055
 10
-37.2420911503
 20
-39.9356480368
 10
-37.3110497452
 20
-39.9299379092
 10
-37.3816496178
 20
-39.9222847001
 10
-37.4542425028
 20
-39.9124924655
 10
-37.5287557259
 20
-39.9003919996
 10
-37.6051023332
 20
-39.8858120488
 10
-37.6835873048
 20
-39.8684838654
 10
-37.7640948835
 20
-39.848197039
 10
-37.8464938938
 20
-39.824739015
 10
-37.9310269813
 20
-39.7977639925
 10
-38.017517146
 20
-39.7670201062
 10
-38.1057676095
 20
-39.7322545585
 10
-38.1959340838
 20
-39.6930437139
 10
-38.2877565973
 20
-39.6490977302
 10
-38.3809437042
 20
-39.6001317181
 10
-38.4755242382
 20
-39.5456549853
 10
-38.5711231702
 20
-39.4853548447
 10
-38.6673259146
 20
-39.418931456
 10
-38.7639960239
 20
-39.3458483765
 10
-38.8605328306
 20
-39.2658647726
 10
-38.9564484344
 20
-39.1786388686
 10
-39.0516115589
 20
-39.0834056298
 10
-39.1451788765
 20
-38.9799993902
 10
-39.2364686801
 20
-38.8680688493
 10
-39.3252950386
 20
-38.7464514449
 10
-39.4105841216
 20
-38.6149159793
 10
-39.4911808988
 20
-38.4733190106
 10
-39.5663389923
 20
-38.3205421718
 10
-39.6346356947
 20
-38.1563755823
 10
-39.6943830205
 20
-37.981145224
 10
-39.7440274563
 20
-37.7946336899
 10
-39.7817586763
 20
-37.5971549528
 10
-39.8056467156
 20
-37.3896148936
 10
-39.8137881136
 20
-37.1730035714
  0
LINE
  5
2B1
100
AcDbEntity
  8
RACCORDO
100
AcDbLine
 62
253
  6
CONTINUOUS
 10
-24.620191487
 20
-39.2558726939
 11
-27.2569788338
 21
-39.2288264501
  0
LINE
  5
2B2
100
AcDbEntity
  8
ASSI
100
AcDbLine
 62
253
  6
CONTINUOUS
 10
-24.620191487
 20
-39.2558726939
 11
-27.2569788338
 21
-39.2288264501
  0
LINE
  5
2B3
100
AcDbEntity
  8
RACCORDO
100
AcDbLine
 62
253
  6
CONTINUOUS
 10
-27.2569788338
 20
-39.2288264501
 11
-30.8745180491
 21
-39.1843630203
  0
LINE
  5
2B4
100
AcDbEntity
  8
ASSI
100
AcDbLine
 62
253
  6
CONTINUOUS
 10
-27.2569788338
 20
-39.2288264501
 11
-30.8745180491
 21
-39.1843630203
  0
LWPOLYLINE
  5
2B5
100
AcDbEntity
  8
RACCORDO
100
AcDbPolyline
 62
253
  6
CONTINUOUS
 90
3
 70
0
 10
-30.8745180491
 20
-39.1843630203
 10
-32.0835286186
 20
-39.1639223229
 10
-36.4408919811
 20
-39.10389005
  0
LWPOLYLINE
  5
2B6
100
AcDbEntity
  8
ASSI
100
AcDbPolyline
 62
253
  6
CONTINUOUS
 90
3
 70
0
 10
-30.8745180491
 20
-39.1843630203
 10
-32.0835286186
 20
-39.1639223229
 10
-36.4408919811
 20
-39.10389005
  0
LWPOLYLINE
  5
2B7
100
AcDbEntity
  8
RACCORDO
100
AcDbPolyline
 62
253
  6
CONTINUOUS
 90
3
 70
0
 10
-36.4408919811
 20
-39.10389005
 10
-36.4781936459
 20
-39.1030693
 10
-36.51528499
 20
-39.1018114227
  0
LWPOLYLINE
  5
2B8
100
AcDbEntity
  8
ASSI
100
AcDbPolyline
 62
253
  6
CONTINUOUS
 90
3
 70
0
 10
-36.4408919811
 20
-39.10389005
 10
-36.4781936459
 20
-39.1030693
 10
-36.51528499
 20
-39.1018114227
  0
LINE
  5
2B9
100
AcDbEntity
  8
RACCORDO
100
AcDbLine
 62
253
  6
CONTINUOUS
 10
-36.8128220915
 20
-39.0893589388
 11
-37.0813686989
 21
-39.0800953424
  0
LINE
  5
2BA
100
AcDbEntity
  8
ASSI
100
AcDbLine
 62
253
  6
CONTINUOUS
 10
-36.8128220915
 20
-39.0893589388
 11
-37.0813686989
 21
-39.0800953424
  0
LINE
  5
2BB
100
AcDbEntity
  8
RACCORDO
100
AcDbLine
 62
253
  6
CONTINUOUS
 10
-36.6981116121
 20
-39.0937789735
 11
-36.8128220915
 21
-39.0893589388
  0
LINE
  5
2BC
100
AcDbEntity
  8
ASSI
100
AcDbLine
 62
253
  6
CONTINUOUS
 10
-36.6981116121
 20
-39.0937789735
 11
-36.8128220915
 21
-39.0893589388
  0
LWPOLYLINE
  5
2BD
100
AcDbEntity
  8
RACCORDO
100
AcDbPolyline
 62
253
  6
CONTINUOUS
 90
37
 70
0
 10
-37.0813686986
 20
-39.0800953414
 10
-37.1237102303
 20
-39.0782826277
 10
-37.1672322037
 20
-39.075441473
 10
-37.211908001
 20
-39.0714911485
 10
-37.2576148759
 20
-39.0663604711
 10
-37.3044104646
 20
-39.0599584704
 10
-37.3525298612
 20
-39.0521519138
 10
-37.4019263156
 20
-39.0428324393
 10
-37.4525441792
 20
-39.0318909958
 10
-37.5045888485
 20
-39.0191484377
 10
-37.5579865001
 20
-39.0044699782
 10
-37.6126534715
 20
-38.9877199496
 10
-37.6687553245
 20
-38.9686701502
 10
-37.7261801723
 20
-38.9471583388
 10
-37.7848010305
 20
-38.9230240782
 10
-37.8447231304
 20
-38.8959934554
 10
-37.9057770897
 20
-38.8658829903
 10
-37.9677772765
 20
-38.8325109126
 10
-38.0307554474
 20
-38.7955561517
 10
-38.0944770454
 20
-38.7548131657
 10
-38.1586793475
 20
-38.7100886402
 10
-38.2232830561
 20
-38.6610382893
 10
-38.2879010771
 20
-38.607507884
 10
-38.3522268604
 20
-38.5492749275
 10
-38.4162000039
 20
-38.4858405786
 10
-38.47928654
 20
-38.4170901338
 10
-38.5410597774
 20
-38.3427907698
 10
-38.601431154
 20
-38.262188798
 10
-38.6597165842
 20
-38.1751217596
 10
-38.7151826239
 20
-38.0814940456
 10
-38.7673932318
 20
-37.9805959866
 10
-38.8154530906
 20
-37.872270186
 10
-38.858277678
 20
-37.7567182875
 10
-38.8948904137
 20
-37.6338169007
 10
-38.9241203077
 20
-37.5037338215
 10
-38.9446989269
 20
-37.3670573693
 10
-38.9553694992
 20
-37.2245848164
  0
LWPOLYLINE
  5
2BE
100
AcDbEntity
  8
ASSI
100
AcDbPolyline
 62
253
  6
CONTINUOUS
 90
37
 70
0
 10
-37.0813686986
 20
-39.0800953414
 10
-37.1237102303
 20
-39.0782826277
 10
-37.1672322037
 20
-39.075441473
 10
-37.211908001
 20
-39.0714911485
 10
-37.2576148759
 20
-39.0663604711
 10
-37.3044104646
 20
-39.0599584704
 10
-37.3525298612
 20
-39.0521519138
 10
-37.4019263156
 20
-39.0428324393
 10
-37.4525441792
 20
-39.0318909958
 10
-37.5045888485
 20
-39.0191484377
 10
-37.5579865001
 20
-39.0044699782
 10
-37.6126534715
 20
-38.9877199496
 10
-37.6687553245
 20
-38.9686701502
 10
-37.7261801723
 20
-38.9471583388
 10
-37.7848010305
 20
-38.9230240782
 10
-37.8447231304
 20
-38.8959934554
 10
-37.9057770897
 20
-38.8658829903
 10
-37.9677772765
 20
-38.8325109126
 10
-38.0307554474
 20
-38.7955561517
 10
-38.0944770454
 20
-38.7548131657
 10
-38.1586793475
 20
-38.7100886402
 10
-38.2232830561
 20
-38.6610382893
 10
-38.2879010771
 20
-38.607507884
 10
-38.3522268604
 20
-38.5492749275
 10
-38.4162000039
 20
-38.4858405786
 10
-38.47928654
 20
-38.4170901338
 10
-38.5410597774
 20
-38.3427907698
 10
-38.601431154
 20
-38.262188798
 10
-38.6597165842
 20
-38.1751217596
 10
-38.7151826239
 20
-38.0814940456
 10
-38.7673932318
 20
-37.9805959866
 10
-38.8154530906
 20
-37.872270186
 10
-38.858277678
 20
-37.7567182875
 10
-38.8948904137
 20
-37.6338169007
 10
-38.9241203077
 20
-37.5037338215
 10
-38.9446989269
 20
-37.3670573693
 10
-38.9553694992
 20
-37.2245848164
  0
LINE
  5
2BF
100
AcDbEntity
  8
RACCORDO
100
AcDbLine
 62
253
  6
CONTINUOUS
 10
-36.51528499
 20
-39.1018114227
 11
-36.6981116121
 21
-39.0937789735
  0
LINE
  5
2C0
100
AcDbEntity
  8
ASSI
100
AcDbLine
 62
253
  6
CONTINUOUS
 10
-36.51528499
 20
-39.1018114227
 11
-36.6981116121
 21
-39.0937789735
  0
LINE
  5
2C1
100
AcDbEntity
  8
RACCORDO
100
AcDbLine
 62
253
  6
CONTINUOUS
 10
-37.0451561224
 20
-39.9424316948
 11
-37.0451561224
 21
-40.1730035714
  0
LINE
  5
2C2
100
AcDbEntity
  8
ASSI
100
AcDbLine
 62
253
  6
CONTINUOUS
 10
-37.0451561224
 20
-39.9424316948
 11
-37.0451561224
 21
-40.1730035714
  0
LINE
  5
2C3
100
AcDbEntity
  8
RACCORDO
100
AcDbLine
 62
253
  6
CONTINUOUS
 10
-37.0451561224
 20
39.596424552
 11
-37.0451561224
 21
39.8269964286
  0
LINE
  5
2C4
100
AcDbEntity
  8
ASSI
100
AcDbLine
 62
253
  6
CONTINUOUS
 10
-37.0451561224
 20
39.596424552
 11
-37.0451561224
 21
39.8269964286
  0
LINE
  5
2C5
100
AcDbEntity
  8
RACCORDO
100
AcDbLine
 62
253
  6
CONTINUOUS
 10
-40.0451561224
 20
-37.1730035714
 11
-39.8137881136
 21
-37.1730035714
  0
LINE
  5
2C6
100
AcDbEntity
  8
ASSI
100
AcDbLine
 62
253
  6
CONTINUOUS
 10
-40.0451561224
 20
-37.1730035714
 11
-39.8137881136
 21
-37.1730035714
  0
LINE
  5
2C7
100
AcDbEntity
  8
RACCORDO
100
AcDbLine
 62
253
  6
CONTINUOUS
 10
39.7234758687
 20
-37.1730035714
 11
39.9548438775
 21
-37.1730035714
  0
LINE
  5
2C8
100
AcDbEntity
  8
ASSI
100
AcDbLine
 62
253
  6
CONTINUOUS
 10
39.7234758687
 20
-37.1730035714
 11
39.9548438775
 21
-37.1730035714
  0
LINE
  5
2C9
100
AcDbEntity
  8
RACCORDO
100
AcDbLine
 62
253
  6
CONTINUOUS
 10
-25.5694645038
 20
23.0674064172
 11
-25.4705629547
 21
23.3453560689
  0
LINE
  5
2CA
100
AcDbEntity
  8
ASSI
100
AcDbLine
 62
253
  6
CONTINUOUS
 10
-25.5694645038
 20
23.0674064172
 11
-25.4705629547
 21
23.3453560689
  0
LWPOLYLINE
  5
2CB
100
AcDbEntity
  8
RACCORDO
100
AcDbPolyline
 62
253
  6
CONTINUOUS
 90
68
 70
0
 10
-25.4705629547
 20
23.3453560689
 10
-25.4559409958
 20
23.3852495078
 10
-25.4401658657
 20
23.4262558996
 10
-25.4233342387
 20
23.4683447521
 10
-25.4052739196
 20
23.5116087728
 10
-25.385904506
 20
23.5560393971
 10
-25.3652441395
 20
23.6014823582
 10
-25.3432570289
 20
23.6478224505
 10
-25.3198790789
 20
23.6950499322
 10
-25.2950591693
 20
23.7431278219
 10
-25.2687920672
 20
23.7918937756
 10
-25.2410341745
 20
23.8412993698
 10
-25.2117440936
 20
23.891294359
 10
-25.1809319383
 20
23.9417140502
 10
-25.1485599008
 20
23.9925095861
 10
-25.1145911345
 20
24.0436304281
 10
-25.0790486979
 20
24.0949134819
 10
-25.0419003962
 20
24.1463052831
 10
-25.0031160762
 20
24.1977586945
 10
-24.9627349834
 20
24.2491233187
 10
-24.92073031
 20
24.300347424
 10
-24.8770850532
 20
24.3513751933
 10
-24.8318690399
 20
24.4020533918
 10
-24.7849187861
 20
24.4524817294
 10
-24.7363735016
 20
24.502442347
 10
-24.6867891132
 20
24.5513495159
 10
-24.6360103419
 20
24.5993366556
 10
-24.5842174949
 20
24.6462330516
 10
-24.5326086134
 20
24.6910566982
 10
-24.4815188206
 20
24.7336569882
 10
-24.4308671409
 20
24.7742171774
 10
-24.3811370744
 20
24.8124827491
 10
-24.3325028875
 20
24.848445451
 10
-24.2846049978
 20
24.8825334778
 10
-24.2372334634
 20
24.9150692261
 10
-24.1906972453
 20
24.9459204228
 10
-24.1450086408
 20
24.9751655795
 10
-24.0994753061
 20
25.0033888566
 10
-24.0541164901
 20
25.0306355114
 10
-24.0089742035
 20
25.0568914013
 10
-23.9634432654
 20
25.082536995
 10
-23.9177722656
 20
25.1074965522
 10
-23.8722357833
 20
25.1315739103
 10
-23.8261611549
 20
25.1549595826
 10
-23.7794319382
 20
25.1776248914
 10
-23.7319837205
 20
25.1996740037
 10
-23.6830807095
 20
25.221491041
 10
-23.6326120245
 20
25.2430862545
 10
-23.5804549341
 20
25.2644142835
 10
-23.5258955217
 20
25.2856704758
 10
-23.4686508313
 20
25.3068388492
 10
-23.4089973906
 20
25.3276877016
 10
-23.3471133755
 20
25.3480348235
 10
-23.2826823659
 20
25.3678342275
 10
-23.2160106502
 20
25.3868886974
 10
-23.1482106188
 20
25.4048695928
 10
-23.0794104689
 20
25.4216171467
 10
-23.0094677914
 20
25.4372076835
 10
-22.938933996
 20
25.4518008
 10
-22.867863831
 20
25.4654970103
 10
-22.7953769445
 20
25.4782625589
 10
-22.7207011064
 20
25.4900195901
 10
-22.6448064768
 20
25.5005766926
 10
-22.5678728237
 20
25.5097971347
 10
-22.4882988744
 20
25.5174750482
 10
-22.4053280308
 20
25.523390717
 10
-22.3194363137
 20
25.5273867624
 10
-22.2304970755
 20
25.5292653788
  0
LWPOLYLINE
  5
2CC
100
AcDbEntity
  8
ASSI
100
AcDbPolyline
 62
253
  6
CONTINUOUS
 90
68
 70
0
 10
-25.4705629547
 20
23.3453560689
 10
-25.4559409958
 20
23.3852495078
 10
-25.4401658657
 20
23.4262558996
 10
-25.4233342387
 20
23.4683447521
 10
-25.4052739196
 20
23.5116087728
 10
-25.385904506
 20
23.5560393971
 10
-25.3652441395
 20
23.6014823582
 10
-25.3432570289
 20
23.6478224505
 10
-25.3198790789
 20
23.6950499322
 10
-25.2950591693
 20
23.7431278219
 10
-25.2687920672
 20
23.7918937756
 10
-25.2410341745
 20
23.8412993698
 10
-25.2117440936
 20
23.891294359
 10
-25.1809319383
 20
23.9417140502
 10
-25.1485599008
 20
23.9925095861
 10
-25.1145911345
 20
24.0436304281
 10
-25.0790486979
 20
24.0949134819
 10
-25.0419003962
 20
24.1463052831
 10
-25.0031160762
 20
24.1977586945
 10
-24.9627349834
 20
24.2491233187
 10
-24.92073031
 20
24.300347424
 10
-24.8770850532
 20
24.3513751933
 10
-24.8318690399
 20
24.4020533918
 10
-24.7849187861
 20
24.4524817294
 10
-24.7363735016
 20
24.502442347
 10
-24.6867891132
 20
24.5513495159
 10
-24.6360103419
 20
24.5993366556
 10
-24.5842174949
 20
24.6462330516
 10
-24.5326086134
 20
24.6910566982
 10
-24.4815188206
 20
24.7336569882
 10
-24.4308671409
 20
24.7742171774
 10
-24.3811370744
 20
24.8124827491
 10
-24.3325028875
 20
24.848445451
 10
-24.2846049978
 20
24.8825334778
 10
-24.2372334634
 20
24.9150692261
 10
-24.1906972453
 20
24.9459204228
 10
-24.1450086408
 20
24.9751655795
 10
-24.0994753061
 20
25.0033888566
 10
-24.0541164901
 20
25.0306355114
 10
-24.0089742035
 20
25.0568914013
 10
-23.9634432654
 20
25.082536995
 10
-23.9177722656
 20
25.1074965522
 10
-23.8722357833
 20
25.1315739103
 10
-23.8261611549
 20
25.1549595826
 10
-23.7794319382
 20
25.1776248914
 10
-23.7319837205
 20
25.1996740037
 10
-23.6830807095
 20
25.221491041
 10
-23.6326120245
 20
25.2430862545
 10
-23.5804549341
 20
25.2644142835
 10
-23.5258955217
 20
25.2856704758
 10
-23.4686508313
 20
25.3068388492
 10
-23.4089973906
 20
25.3276877016
 10
-23.3471133755
 20
25.3480348235
 10
-23.2826823659
 20
25.3678342275
 10
-23.2160106502
 20
25.3868886974
 10
-23.1482106188
 20
25.4048695928
 10
-23.0794104689
 20
25.4216171467
 10
-23.0094677914
 20
25.4372076835
 10
-22.938933996
 20
25.4518008
 10
-22.867863831
 20
25.4654970103
 10
-22.7953769445
 20
25.4782625589
 10
-22.7207011064
 20
25.4900195901
 10
-22.6448064768
 20
25.5005766926
 10
-22.5678728237
 20
25.5097971347
 10
-22.4882988744
 20
25.5174750482
 10
-22.4053280308
 20
25.523390717
 10
-22.3194363137
 20
25.5273867624
 10
-22.2304970755
 20
25.5292653788
  0
LINE
  5
2CD
100
AcDbEntity
  8
0
100
AcDbLine
 62
7
  6
CONTINUOUS
 10
-40.0451561224
 20
-3.8479808985
 11
-39.9403405639
 21
-3.6730035714
  0
LINE
  5
2CE
100
AcDbEntity
  8
ASSI
100
AcDbLine
 62
7
  6
CONTINUOUS
 10
-40.0451561224
 20
-3.8479808985
 11
-39.9403405639
 21
-3.6730035714
  0
LINE
  5
2CF
100
AcDbEntity
  8
0
100
AcDbLine
 62
7
  6
CONTINUOUS
 10
-39.9403405639
 20
3.3269964286
 11
-40.0451561224
 21
3.5019737556
  0
LINE
  5
2D0
100
AcDbEntity
  8
ASSI
100
AcDbLine
 62
7
  6
CONTINUOUS
 10
-39.9403405639
 20
3.3269964286
 11
-40.0451561224
 21
3.5019737556
  0
LWPOLYLINE
  5
2D1
100
AcDbEntity
  8
RACCORDO
100
AcDbPolyline
 62
253
  6
CONTINUOUS
 90
17
 70
0
 10
-25.4946298998
 20
-23.6245212937
 10
-25.5350247046
 20
-23.509425222
 10
-25.5561710764
 20
-23.449903998
 10
-25.5773800051
 20
-23.389324812
 10
-25.5977661979
 20
-23.326634838
 10
-25.6167711776
 20
-23.2619186658
 10
-25.6346604699
 20
-23.1954678691
 10
-25.6517288935
 20
-23.1263720004
 10
-25.6679149096
 20
-23.0545165048
 10
-25.6830164493
 20
-22.9797904202
 10
-25.6969871723
 20
-22.9012974962
 10
-25.70959038
 20
-22.8188920262
 10
-25.720541276
 20
-22.7328344322
 10
-25.7296246229
 20
-22.6428313303
 10
-25.7365599195
 20
-22.5487882043
 10
-25.7410232615
 20
-22.4508363085
 10
-25.7426950978
 20
-22.3490385746
  0
LWPOLYLINE
  5
2D2
100
AcDbEntity
  8
ASSI
100
AcDbPolyline
 62
253
  6
CONTINUOUS
 90
17
 70
0
 10
-25.4946298998
 20
-23.6245212937
 10
-25.5350247046
 20
-23.509425222
 10
-25.5561710764
 20
-23.449903998
 10
-25.5773800051
 20
-23.389324812
 10
-25.5977661979
 20
-23.326634838
 10
-25.6167711776
 20
-23.2619186658
 10
-25.6346604699
 20
-23.1954678691
 10
-25.6517288935
 20
-23.1263720004
 10
-25.6679149096
 20
-23.0545165048
 10
-25.6830164493
 20
-22.9797904202
 10
-25.6969871723
 20
-22.9012974962
 10
-25.70959038
 20
-22.8188920262
 10
-25.720541276
 20
-22.7328344322
 10
-25.7296246229
 20
-22.6428313303
 10
-25.7365599195
 20
-22.5487882043
 10
-25.7410232615
 20
-22.4508363085
 10
-25.7426950978
 20
-22.3490385746
  0
LWPOLYLINE
  5
2D3
100
AcDbEntity
  8
RACCORDO
100
AcDbPolyline
 62
253
  6
CONTINUOUS
 90
20
 70
0
 10
-25.7426948358
 20
22.0030730261
 10
-25.7417140977
 20
22.0792451739
 10
-25.7391648381
 20
22.152887561
 10
-25.7352067401
 20
22.2239693907
 10
-25.7300034645
 20
22.2924216506
 10
-25.7236965464
 20
22.3582778495
 10
-25.7163961696
 20
22.4216680715
 10
-25.70823653
 20
22.4825132832
 10
-25.6993426189
 20
22.5408845321
 10
-25.6897769354
 20
22.5971377754
 10
-25.6796384974
 20
22.6512410227
 10
-25.669025159
 20
22.7032217707
 10
-25.657953314
 20
22.7535236072
 10
-25.6465183906
 20
22.8021450805
 10
-25.6347637809
 20
22.8490915527
 10
-25.6225851072
 20
22.8948108706
 10
-25.6100308008
 20
22.9393150756
 10
-25.5971228288
 20
22.9826545139
 10
-25.5836723052
 20
23.0253374895
 10
-25.5694645038
 20
23.0674064172
  0
LWPOLYLINE
  5
2D4
100
AcDbEntity
  8
ASSI
100
AcDbPolyline
 62
253
  6
CONTINUOUS
 90
20
 70
0
 10
-25.7426948358
 20
22.0030730261
 10
-25.7417140977
 20
22.0792451739
 10
-25.7391648381
 20
22.152887561
 10
-25.7352067401
 20
22.2239693907
 10
-25.7300034645
 20
22.2924216506
 10
-25.7236965464
 20
22.3582778495
 10
-25.7163961696
 20
22.4216680715
 10
-25.70823653
 20
22.4825132832
 10
-25.6993426189
 20
22.5408845321
 10
-25.6897769354
 20
22.5971377754
 10
-25.6796384974
 20
22.6512410227
 10
-25.669025159
 20
22.7032217707
 10
-25.657953314
 20
22.7535236072
 10
-25.6465183906
 20
22.8021450805
 10
-25.6347637809
 20
22.8490915527
 10
-25.6225851072
 20
22.8948108706
 10
-25.6100308008
 20
22.9393150756
 10
-25.5971228288
 20
22.9826545139
 10
-25.5836723052
 20
23.0253374895
 10
-25.5694645038
 20
23.0674064172
  0
LINE
  5
2D5
100
AcDbEntity
  8
CURVE
100
AcDbLine
 62
253
  6
CONTINUOUS
 10
-4.6420045998
 20
-28.4559823028
 11
-4.8805504682
 21
-28.5155567638
  0
LINE
  5
2D6
100
AcDbEntity
  8
CURVE
100
AcDbLine
 62
253
  6
CONTINUOUS
 10
-4.9118230116
 20
-28.8730035714
 11
-4.614944032
 21
-28.8134291052
  0
LINE
  5
2D7
100
AcDbEntity
  8
CURVE
100
AcDbLine
 62
253
  6
CONTINUOUS
 10
-10.3951561224
 20
-28.8730035714
 11
-10.0982773097
 21
-28.8134291052
  0
LINE
  5
2D8
100
AcDbEntity
  8
CURVE
100
AcDbLine
 62
253
  6
CONTINUOUS
 10
-24.1451561224
 20
-29.4730035714
 11
-22.4451561224
 21
-29.4730035714
  0
LINE
  5
2D9
100
AcDbEntity
  8
CURVE
100
AcDbLine
 62
253
  6
CONTINUOUS
 10
-24.0451561224
 20
-29.3730035714
 11
-22.5451561224
 21
-29.3730035714
  0
LINE
  5
2DA
100
AcDbEntity
  8
CURVE
100
AcDbLine
 62
253
  6
CONTINUOUS
 10
-23.9451561224
 20
-29.2730035714
 11
-22.6451561224
 21
-29.2730035714
  0
LINE
  5
2DB
100
AcDbEntity
  8
0
100
AcDbLine
 62
7
  6
CONTINUOUS
 10
20.3849878775
 20
-28.9730105714
 11
19.8049658775
 21
-28.9730185714
  0
LINE
  5
2DC
100
AcDbEntity
  8
ASSI
100
AcDbLine
 62
7
  6
CONTINUOUS
 10
20.3849878775
 20
-28.9730105714
 11
19.8049658775
 21
-28.9730185714
  0
LINE
  5
2DD
100
AcDbEntity
  8
0
100
AcDbLine
 62
7
  6
CONTINUOUS
 10
24.9548438775
 20
-28.9730035714
 11
24.3015388775
 21
-28.9730105714
  0
LINE
  5
2DE
100
AcDbEntity
  8
ASSI
100
AcDbLine
 62
7
  6
CONTINUOUS
 10
24.9548438775
 20
-28.9730035714
 11
24.3015388775
 21
-28.9730105714
  0
LINE
  5
2DF
100
AcDbEntity
  8
0
100
AcDbLine
 62
7
  6
CONTINUOUS
 10
18.2898828775
 20
-28.9730105714
 11
17.7098748775
 21
-28.9730185714
  0
LINE
  5
2E0
100
AcDbEntity
  8
ASSI
100
AcDbLine
 62
7
  6
CONTINUOUS
 10
18.2898828775
 20
-28.9730105714
 11
17.7098748775
 21
-28.9730185714
  0
LINE
  5
2E1
100
AcDbEntity
  8
0
100
AcDbLine
 62
7
  6
CONTINUOUS
 10
16.0014708775
 20
-28.9730185714
 11
15.4214488775
 21
-28.9730255714
  0
LINE
  5
2E2
100
AcDbEntity
  8
ASSI
100
AcDbLine
 62
7
  6
CONTINUOUS
 10
16.0014708775
 20
-28.9730185714
 11
15.4214488775
 21
-28.9730255714
  0
LINE
  5
2E3
100
AcDbEntity
  8
0
100
AcDbLine
 62
7
  6
CONTINUOUS
 10
14.1036378775
 20
-28.9730185714
 11
13.5235948775
 21
-28.9730255714
  0
LINE
  5
2E4
100
AcDbEntity
  8
ASSI
100
AcDbLine
 62
7
  6
CONTINUOUS
 10
14.1036378775
 20
-28.9730185714
 11
13.5235948775
 21
-28.9730255714
  0
LINE
  5
2E5
100
AcDbEntity
  8
0
100
AcDbLine
 62
7
  6
CONTINUOUS
 10
19.4182868775
 20
-28.9730185714
 11
18.8382648775
 21
-28.9730185714
  0
LINE
  5
2E6
100
AcDbEntity
  8
ASSI
100
AcDbLine
 62
7
  6
CONTINUOUS
 10
19.4182868775
 20
-28.9730185714
 11
18.8382648775
 21
-28.9730185714
  0
LINE
  5
2E7
100
AcDbEntity
  8
0
100
AcDbLine
 62
7
  6
CONTINUOUS
 10
17.1614998775
 20
-28.9730185714
 11
16.5814778775
 21
-28.9730185714
  0
LINE
  5
2E8
100
AcDbEntity
  8
ASSI
100
AcDbLine
 62
7
  6
CONTINUOUS
 10
17.1614998775
 20
-28.9730185714
 11
16.5814778775
 21
-28.9730185714
  0
LINE
  5
2E9
100
AcDbEntity
  8
0
100
AcDbLine
 62
7
  6
CONTINUOUS
 10
23.2139878775
 20
-28.9730105714
 11
22.6339588775
 21
-28.9730105714
  0
LINE
  5
2EA
100
AcDbEntity
  8
ASSI
100
AcDbLine
 62
7
  6
CONTINUOUS
 10
23.2139878775
 20
-28.9730105714
 11
22.6339588775
 21
-28.9730105714
  0
LINE
  5
2EB
100
AcDbEntity
  8
0
100
AcDbLine
 62
7
  6
CONTINUOUS
 10
22.2472808775
 20
-28.9730185714
 11
21.6672518775
 21
-28.9730105714
  0
LINE
  5
2EC
100
AcDbEntity
  8
ASSI
100
AcDbLine
 62
7
  6
CONTINUOUS
 10
22.2472808775
 20
-28.9730185714
 11
21.6672518775
 21
-28.9730105714
  0
LINE
  5
2ED
100
AcDbEntity
  8
CURVE
100
AcDbLine
 62
253
  6
CONTINUOUS
 10
-11.7951561224
 20
-28.8730035714
 11
-10.3951561224
 21
-28.8730035714
  0
LINE
  5
2EE
100
AcDbEntity
  8
CURVE
100
AcDbLine
 62
253
  6
CONTINUOUS
 10
-9.1701561224
 20
-28.8730035714
 11
-8.8201561224
 21
-28.8730035714
  0
LINE
  5
2EF
100
AcDbEntity
  8
CURVE
100
AcDbLine
 62
253
  6
CONTINUOUS
 10
-7.1868226779
 20
-28.8730035714
 11
-6.8368226779
 21
-28.8730035714
  0
LINE
  5
2F0
100
AcDbEntity
  8
CURVE
100
AcDbLine
 62
253
  6
CONTINUOUS
 10
-5.4368230116
 20
-28.8730035714
 11
-4.9118230116
 21
-28.8730035714
  0
LINE
  5
2F1
100
AcDbEntity
  8
CURVE
100
AcDbLine
 62
253
  6
CONTINUOUS
 10
3.8381776559
 20
-28.8730035714
 11
3.4298438776
 21
-28.8730035714
  0
LINE
  5
2F2
100
AcDbEntity
  8
CURVE
100
AcDbLine
 62
253
  6
CONTINUOUS
 10
-2.6951561224
 20
-28.8730035714
 11
-2.3451561224
 21
-28.8730035714
  0
LINE
  5
2F3
100
AcDbEntity
  8
CURVE
100
AcDbLine
 62
253
  6
CONTINUOUS
 10
1.9715100992
 20
-28.8730035714
 11
1.6215100992
 21
-28.8730035714
  0
LINE
  5
2F4
100
AcDbEntity
  8
CURVE
100
AcDbLine
 62
253
  6
CONTINUOUS
 10
-0.9451561224
 20
-28.8730035714
 11
1.1548438776
 21
-28.8730035714
  0
LINE
  5
2F5
100
AcDbEntity
  8
CURVE
100
AcDbLine
 62
253
  6
CONTINUOUS
 10
4.3048438776
 20
-28.8730035714
 11
4.6548438776
 21
-28.8730035714
  0
LINE
  5
2F6
100
AcDbEntity
  8
CURVE
100
AcDbLine
 62
253
  6
CONTINUOUS
 10
5.1215100992
 20
-28.8730035714
 11
5.4715100992
 21
-28.8730035714
  0
LINE
  5
2F7
100
AcDbEntity
  8
CURVE
100
AcDbLine
 62
253
  6
CONTINUOUS
 10
7.1048438776
 20
-28.8730035714
 11
7.4548438776
 21
-28.8730035714
  0
LINE
  5
2F8
100
AcDbEntity
  8
CURVE
100
AcDbLine
 62
253
  6
CONTINUOUS
 10
7.9215100992
 20
-28.8730035714
 11
10.0215100992
 21
-28.8730035714
  0
LINE
  5
2F9
100
AcDbEntity
  8
CURVE
100
AcDbLine
 62
253
  6
CONTINUOUS
 10
-11.413883579
 20
-28.5155567638
 11
-10.3055503013
 21
-28.5155567638
  0
LINE
  5
2FA
100
AcDbEntity
  8
CURVE
100
AcDbLine
 62
253
  6
CONTINUOUS
 10
10.0527826427
 20
-28.5155567638
 11
8.3027826427
 21
-28.5155567638
  0
LINE
  5
2FB
100
AcDbEntity
  8
CURVE
100
AcDbLine
 62
253
  6
CONTINUOUS
 10
1.186116421
 20
-28.5155567638
 11
-0.563883579
 21
-28.5155567638
  0
LINE
  5
2FC
100
AcDbEntity
  8
CURVE
100
AcDbLine
 62
253
  6
CONTINUOUS
 10
-4.8805504682
 20
-28.5155567638
 11
-5.4055504682
 21
-28.5155567638
  0
LINE
  5
2FD
100
AcDbEntity
  8
0
100
AcDbLine
 62
7
  6
CONTINUOUS
 10
21.4841458775
 20
-28.4026825714
 11
20.5681008775
 21
-28.4026825714
  0
LINE
  5
2FE
100
AcDbEntity
  8
ASSI
100
AcDbLine
 62
7
  6
CONTINUOUS
 10
21.4841458775
 20
-28.4026825714
 11
20.5681008775
 21
-28.4026825714
  0
LINE
  5
2FF
100
AcDbEntity
  8
CURVE
100
AcDbLine
 62
253
  6
CONTINUOUS
 10
-25.2951561224
 20
-28.3230035714
 11
-24.1451561224
 21
-28.3230035714
  0
LINE
  5
300
100
AcDbEntity
  8
CURVE
100
AcDbLine
 62
253
  6
CONTINUOUS
 10
-22.4451561224
 20
-28.3230035714
 11
-21.2951561224
 21
-28.3230035714
  0
LINE
  5
301
100
AcDbEntity
  8
CURVE
100
AcDbLine
 62
253
  6
CONTINUOUS
 10
-25.1951561224
 20
-28.2230035714
 11
-24.0451561224
 21
-28.2230035714
  0
LINE
  5
302
100
AcDbEntity
  8
CURVE
100
AcDbLine
 62
253
  6
CONTINUOUS
 10
-22.5451561224
 20
-28.2230035714
 11
-21.3951561224
 21
-28.2230035714
  0
LINE
  5
303
100
AcDbEntity
  8
CURVE
100
AcDbLine
 62
253
  6
CONTINUOUS
 10
-8.5242775909
 20
-28.1581099562
 11
-7.3576110355
 21
-28.1581099562
  0
LINE
  5
304
100
AcDbEntity
  8
CURVE
100
AcDbLine
 62
253
  6
CONTINUOUS
 10
-4.0326110355
 20
-28.1581099562
 11
-4.3826110355
 21
-28.1581099562
  0
LINE
  5
305
100
AcDbEntity
  8
CURVE
100
AcDbLine
 62
253
  6
CONTINUOUS
 10
5.7673889645
 20
-28.1581099562
 11
6.9340551861
 21
-28.1581099562
  0
LINE
  5
306
100
AcDbEntity
  8
CURVE
100
AcDbLine
 62
253
  6
CONTINUOUS
 10
-25.0951561224
 20
-28.1230035714
 11
-23.9451561224
 21
-28.1230035714
  0
LINE
  5
307
100
AcDbEntity
  8
CURVE
100
AcDbLine
 62
253
  6
CONTINUOUS
 10
-22.6451561224
 20
-28.1230035714
 11
-21.4951561224
 21
-28.1230035714
  0
LINE
  5
308
100
AcDbEntity
  8
CURVE
100
AcDbLine
 62
253
  6
CONTINUOUS
 10
-18.9618227851
 20
-28.0730035357
 11
-20.0284894508
 21
-28.0730035357
  0
LINE
  5
309
100
AcDbEntity
  8
CURVE
100
AcDbLine
 62
253
  6
CONTINUOUS
 10
-8.4450961202
 20
-27.9198121122
 11
-7.3950961202
 21
-27.9198121122
  0
LINE
  5
30A
100
AcDbEntity
  8
CURVE
100
AcDbLine
 62
253
  6
CONTINUOUS
 10
5.8465711028
 20
-27.9198121122
 11
6.8965711028
 21
-27.9198121122
  0
LINE
  5
30B
100
AcDbEntity
  8
0
100
AcDbLine
 62
7
  6
CONTINUOUS
 10
20.7450228775
 20
-27.8516605714
 11
21.3072168775
 21
-27.8516605714
  0
LINE
  5
30C
100
AcDbEntity
  8
ASSI
100
AcDbLine
 62
7
  6
CONTINUOUS
 10
20.7450228775
 20
-27.8516605714
 11
21.3072168775
 21
-27.8516605714
  0
LINE
  5
30D
100
AcDbEntity
  8
0
100
AcDbLine
 62
7
  6
CONTINUOUS
 10
23.7202848775
 20
-27.8516605714
 11
23.2140538775
 21
-27.8516535714
  0
LINE
  5
30E
100
AcDbEntity
  8
ASSI
100
AcDbLine
 62
7
  6
CONTINUOUS
 10
23.7202848775
 20
-27.8516605714
 11
23.2140538775
 21
-27.8516535714
  0
LINE
  5
30F
100
AcDbEntity
  8
CURVE
100
AcDbLine
 62
253
  6
CONTINUOUS
 10
3.0726315599
 20
-27.6219397239
 11
2.0809640032
 21
-27.6219397239
  0
LINE
  5
310
100
AcDbEntity
  8
CURVE
100
AcDbLine
 62
253
  6
CONTINUOUS
 10
-10.2273689407
 20
-27.6219397239
 11
-11.3357022184
 21
-27.6219397239
  0
LINE
  5
311
100
AcDbEntity
  8
CURVE
100
AcDbLine
 62
253
  6
CONTINUOUS
 10
-0.4804901285
 20
-27.5623652629
 11
1.0361760931
 21
-27.5623652629
  0
LINE
  5
312
100
AcDbEntity
  8
0
100
AcDbLine
 62
7
  6
CONTINUOUS
 10
23.2059918775
 20
-27.3151315714
 11
23.9116678775
 21
-27.3151315714
  0
LINE
  5
313
100
AcDbEntity
  8
ASSI
100
AcDbLine
 62
7
  6
CONTINUOUS
 10
23.2059918775
 20
-27.3151315714
 11
23.9116678775
 21
-27.3151315714
  0
LINE
  5
314
100
AcDbEntity
  8
CURVE
100
AcDbLine
 62
253
  6
CONTINUOUS
 10
3.2205703214
 20
-27.264492958
 11
2.112236543
 21
-27.264492958
  0
LINE
  5
315
100
AcDbEntity
  8
CURVE
100
AcDbLine
 62
253
  6
CONTINUOUS
 10
-10.1960964009
 20
-27.264492958
 11
-11.3044296786
 21
-27.264492958
  0
LINE
  5
316
100
AcDbEntity
  8
CURVE
100
AcDbLine
 62
253
  6
CONTINUOUS
 10
1.067448633
 20
-27.204918497
 11
-0.4492175886
 21
-27.204918497
  0
LINE
  5
317
100
AcDbEntity
  8
CURVE
100
AcDbLine
 62
253
  6
CONTINUOUS
 10
-21.4951561224
 20
-26.8230035714
 11
-22.6451561224
 21
-26.8230035714
  0
LINE
  5
318
100
AcDbEntity
  8
CURVE
100
AcDbLine
 62
253
  6
CONTINUOUS
 10
-23.9451561224
 20
-26.8230035714
 11
-25.0951561224
 21
-26.8230035714
  0
LINE
  5
319
100
AcDbEntity
  8
CURVE
100
AcDbLine
 62
253
  6
CONTINUOUS
 10
-4.2627329588
 20
-26.7878972701
 11
-3.9127329588
 21
-26.7878972701
  0
LINE
  5
31A
100
AcDbEntity
  8
CURVE
100
AcDbLine
 62
253
  6
CONTINUOUS
 10
-21.3951561224
 20
-26.7230035714
 11
-22.5451561224
 21
-26.7230035714
  0
LINE
  5
31B
100
AcDbEntity
  8
CURVE
100
AcDbLine
 62
253
  6
CONTINUOUS
 10
-24.0451561224
 20
-26.7230035714
 11
-25.1951561224
 21
-26.7230035714
  0
LINE
  5
31C
100
AcDbEntity
  8
CURVE
100
AcDbLine
 62
253
  6
CONTINUOUS
 10
-21.2951561224
 20
-26.6230035714
 11
-22.4451561224
 21
-26.6230035714
  0
LINE
  5
31D
100
AcDbEntity
  8
CURVE
100
AcDbLine
 62
253
  6
CONTINUOUS
 10
-24.1451561224
 20
-26.6230035714
 11
-25.2951561224
 21
-26.6230035714
  0
LINE
  5
31E
100
AcDbEntity
  8
0
100
AcDbLine
 62
7
  6
CONTINUOUS
 10
23.9116678775
 20
-26.6094015714
 11
23.2059838775
 21
-26.6094015714
  0
LINE
  5
31F
100
AcDbEntity
  8
ASSI
100
AcDbLine
 62
7
  6
CONTINUOUS
 10
23.9116678775
 20
-26.6094015714
 11
23.2059838775
 21
-26.6094015714
  0
LINE
  5
320
100
AcDbEntity
  8
CURVE
100
AcDbLine
 62
253
  6
CONTINUOUS
 10
-11.2314604044
 20
-26.4304503373
 11
-10.1231271267
 21
-26.4304503373
  0
LINE
  5
321
100
AcDbEntity
  8
CURVE
100
AcDbLine
 62
253
  6
CONTINUOUS
 10
-5.2231272936
 20
-26.4304503373
 11
-4.6981272936
 21
-26.4304503373
  0
LINE
  5
322
100
AcDbEntity
  8
CURVE
100
AcDbLine
 62
253
  6
CONTINUOUS
 10
-0.3814604044
 20
-26.4304503373
 11
1.3685395956
 21
-26.4304503373
  0
LINE
  5
323
100
AcDbEntity
  8
CURVE
100
AcDbLine
 62
253
  6
CONTINUOUS
 10
-3.4095814252
 20
-26.3708758763
 11
-2.4762483144
 21
-26.3708758763
  0
LINE
  5
324
100
AcDbEntity
  8
CURVE
100
AcDbLine
 62
253
  6
CONTINUOUS
 10
-2.1262483144
 20
-26.3708758763
 11
-1.1929152036
 21
-26.3708758763
  0
LINE
  5
325
100
AcDbEntity
  8
CURVE
100
AcDbLine
 62
253
  6
CONTINUOUS
 10
2.1904179072
 20
-26.3708758763
 11
3.2987516856
 21
-26.3708758763
  0
LINE
  5
326
100
AcDbEntity
  8
CURVE
100
AcDbLine
 62
253
  6
CONTINUOUS
 10
8.516478357
 20
-26.0730035714
 11
8.166478357
 21
-26.0730035714
  0
LINE
  5
327
100
AcDbEntity
  8
CURVE
100
AcDbLine
 62
253
  6
CONTINUOUS
 10
6.766478357
 20
-26.0730035714
 11
6.2998121354
 21
-26.0730035714
  0
LINE
  5
328
100
AcDbEntity
  8
CURVE
100
AcDbLine
 62
253
  6
CONTINUOUS
 10
4.8998121354
 20
-26.0730035714
 11
4.5498121354
 21
-26.0730035714
  0
LINE
  5
329
100
AcDbEntity
  8
CURVE
100
AcDbLine
 62
253
  6
CONTINUOUS
 10
1.3998121354
 20
-26.0730035714
 11
-0.7001878646
 21
-26.0730035714
  0
LINE
  5
32A
100
AcDbEntity
  8
CURVE
100
AcDbLine
 62
253
  6
CONTINUOUS
 10
1.866478357
 20
-26.0730035714
 11
3.266478357
 21
-26.0730035714
  0
LINE
  5
32B
100
AcDbEntity
  8
CURVE
100
AcDbLine
 62
253
  6
CONTINUOUS
 10
-1.1668547538
 20
-26.0730035714
 11
-3.3835209754
 21
-26.0730035714
  0
LINE
  5
32C
100
AcDbEntity
  8
CURVE
100
AcDbLine
 62
253
  6
CONTINUOUS
 10
-4.6668547538
 20
-26.0730035714
 11
-5.1918547538
 21
-26.0730035714
  0
LINE
  5
32D
100
AcDbEntity
  8
CURVE
100
AcDbLine
 62
253
  6
CONTINUOUS
 10
-7.5251878646
 20
-26.0730035714
 11
-7.99185442
 21
-26.0730035714
  0
LINE
  5
32E
100
AcDbEntity
  8
CURVE
100
AcDbLine
 62
253
  6
CONTINUOUS
 10
-10.1501878646
 20
-26.0730035714
 11
-11.5501878646
 21
-26.0730035714
  0
LINE
  5
32F
100
AcDbEntity
  8
CURVE
100
AcDbLine
 62
253
  6
CONTINUOUS
 10
-14.0951564086
 20
-26.0730035714
 11
-15.6951559794
 21
-26.0730035714
  0
LINE
  5
330
100
AcDbEntity
  8
0
100
AcDbLine
 62
7
  6
CONTINUOUS
 10
12.5924628775
 20
-26.0728875714
 11
13.1724918775
 21
-26.0728875714
  0
LINE
  5
331
100
AcDbEntity
  8
ASSI
100
AcDbLine
 62
7
  6
CONTINUOUS
 10
12.5924628775
 20
-26.0728875714
 11
13.1724918775
 21
-26.0728875714
  0
LINE
  5
332
100
AcDbEntity
  8
0
100
AcDbLine
 62
7
  6
CONTINUOUS
 10
14.4547488775
 20
-26.0728875714
 11
15.0347778775
 21
-26.0728875714
  0
LINE
  5
333
100
AcDbEntity
  8
ASSI
100
AcDbLine
 62
7
  6
CONTINUOUS
 10
14.4547488775
 20
-26.0728875714
 11
15.0347778775
 21
-26.0728875714
  0
LINE
  5
334
100
AcDbEntity
  8
0
100
AcDbLine
 62
7
  6
CONTINUOUS
 10
15.4214558775
 20
-26.0728875714
 11
16.0014778775
 21
-26.0728875714
  0
LINE
  5
335
100
AcDbEntity
  8
ASSI
100
AcDbLine
 62
7
  6
CONTINUOUS
 10
15.4214558775
 20
-26.0728875714
 11
16.0014778775
 21
-26.0728875714
  0
LINE
  5
336
100
AcDbEntity
  8
0
100
AcDbLine
 62
7
  6
CONTINUOUS
 10
16.5814778775
 20
-26.0728875714
 11
17.4583148775
 21
-26.0728875714
  0
LINE
  5
337
100
AcDbEntity
  8
ASSI
100
AcDbLine
 62
7
  6
CONTINUOUS
 10
16.5814778775
 20
-26.0728875714
 11
17.4583148775
 21
-26.0728875714
  0
LINE
  5
338
100
AcDbEntity
  8
0
100
AcDbLine
 62
7
  6
CONTINUOUS
 10
18.5414498775
 20
-26.0728875714
 11
19.4182868775
 21
-26.0728875714
  0
LINE
  5
339
100
AcDbEntity
  8
ASSI
100
AcDbLine
 62
7
  6
CONTINUOUS
 10
18.5414498775
 20
-26.0728875714
 11
19.4182868775
 21
-26.0728875714
  0
LINE
  5
33A
100
AcDbEntity
  8
0
100
AcDbLine
 62
7
  6
CONTINUOUS
 10
20.7360908775
 20
-26.0728805714
 11
21.3161408775
 21
-26.0728805714
  0
LINE
  5
33B
100
AcDbEntity
  8
ASSI
100
AcDbLine
 62
7
  6
CONTINUOUS
 10
20.7360908775
 20
-26.0728805714
 11
21.3161408775
 21
-26.0728805714
  0
LINE
  5
33C
100
AcDbEntity
  8
0
100
AcDbLine
 62
7
  6
CONTINUOUS
 10
22.6339588775
 20
-26.0728805714
 11
23.9921738775
 21
-26.0728805714
  0
LINE
  5
33D
100
AcDbEntity
  8
ASSI
100
AcDbLine
 62
7
  6
CONTINUOUS
 10
22.6339588775
 20
-26.0728805714
 11
23.9921738775
 21
-26.0728805714
  0
LWPOLYLINE
  5
33E
100
AcDbEntity
  8
RACCORDO
100
AcDbPolyline
 62
253
  6
CONTINUOUS
 90
65
 70
0
 10
-22.2352694521
 20
-25.8752274074
 10
-22.3183205795
 20
-25.8733982679
 10
-22.3989948481
 20
-25.8697161972
 10
-22.4773527707
 20
-25.864334514
 10
-22.5527984233
 20
-25.8574212396
 10
-22.625854145
 20
-25.8491410802
 10
-22.6981815507
 20
-25.8395263203
 10
-22.7700343055
 20
-25.8285001751
 10
-22.8407216302
 20
-25.8162661455
 10
-22.9105418935
 20
-25.8031445288
 10
-22.9797798205
 20
-25.7893603184
 10
-23.0481820929
 20
-25.7747635285
 10
-23.1153540204
 20
-25.7590905341
 10
-23.1815602286
 20
-25.7422209364
 10
-23.2469025406
 20
-25.7242743238
 10
-23.3106445918
 20
-25.7054369193
 10
-23.372545773
 20
-25.6858399048
 10
-23.4328024066
 20
-25.6655269406
 10
-23.4913598842
 20
-25.6445899216
 10
-23.5481538005
 20
-25.623129244
 10
-23.6032547811
 20
-25.6012051836
 10
-23.656760534
 20
-25.5788664598
 10
-23.7085375956
 20
-25.5562799872
 10
-23.7587689302
 20
-25.5333974952
 10
-23.8082238815
 20
-25.5098024298
 10
-23.8572608104
 20
-25.4852397456
 10
-23.9060097826
 20
-25.4597386838
 10
-23.9545524337
 20
-25.4334349421
 10
-24.0023271216
 20
-25.4066969519
 10
-24.049197057
 20
-25.379556952
 10
-24.0960475731
 20
-25.3514966936
 10
-24.1429232896
 20
-25.3224878713
 10
-24.1897904942
 20
-25.2925083831
 10
-24.237265114
 20
-25.261043435
 10
-24.2851770395
 20
-25.2281413742
 10
-24.3332780337
 20
-25.1939050813
 10
-24.3821689763
 20
-25.1577269305
 10
-24.432308055
 20
-25.1190995647
 10
-24.4834893789
 20
-25.0780539014
 10
-24.5351916273
 20
-25.0348629082
 10
-24.5873918806
 20
-24.9894235584
 10
-24.6398554995
 20
-24.9417843517
 10
-24.6917924269
 20
-24.892515508
 10
-24.743057942
 20
-24.8416944367
 10
-24.7937030179
 20
-24.7892200167
 10
-24.8432866633
 20
-24.7354666916
 10
-24.8917205348
 20
-24.6805082493
 10
-24.9390122803
 20
-24.6243269008
 10
-24.9849065438
 20
-24.5671971323
 10
-25.0293812761
 20
-24.5091533582
 10
-25.0724252371
 20
-24.4502345242
 10
-25.1138351409
 20
-24.3907452225
 10
-25.1536135059
 20
-24.3307254648
 10
-25.1917642406
 20
-24.2702292865
 10
-25.2281168533
 20
-24.209614905
 10
-25.2626863891
 20
-24.1489512148
 10
-25.2954970064
 20
-24.0883014787
 10
-25.3264468656
 20
-24.02800069
 10
-25.3555924698
 20
-23.9680868931
 10
-25.3829872935
 20
-23.9085990225
 10
-25.4085134151
 20
-23.8499882676
 10
-25.4318695535
 20
-23.792705925
 10
-25.4534435321
 20
-23.7365614861
 10
-25.4742919475
 20
-23.6806312936
 10
-25.4946298998
 20
-23.6245212937
  0
LWPOLYLINE
  5
33F
100
AcDbEntity
  8
ASSI
100
AcDbPolyline
 62
253
  6
CONTINUOUS
 90
65
 70
0
 10
-22.2352694521
 20
-25.8752274074
 10
-22.3183205795
 20
-25.8733982679
 10
-22.3989948481
 20
-25.8697161972
 10
-22.4773527707
 20
-25.864334514
 10
-22.5527984233
 20
-25.8574212396
 10
-22.625854145
 20
-25.8491410802
 10
-22.6981815507
 20
-25.8395263203
 10
-22.7700343055
 20
-25.8285001751
 10
-22.8407216302
 20
-25.8162661455
 10
-22.9105418935
 20
-25.8031445288
 10
-22.9797798205
 20
-25.7893603184
 10
-23.0481820929
 20
-25.7747635285
 10
-23.1153540204
 20
-25.7590905341
 10
-23.1815602286
 20
-25.7422209364
 10
-23.2469025406
 20
-25.7242743238
 10
-23.3106445918
 20
-25.7054369193
 10
-23.372545773
 20
-25.6858399048
 10
-23.4328024066
 20
-25.6655269406
 10
-23.4913598842
 20
-25.6445899216
 10
-23.5481538005
 20
-25.623129244
 10
-23.6032547811
 20
-25.6012051836
 10
-23.656760534
 20
-25.5788664598
 10
-23.7085375956
 20
-25.5562799872
 10
-23.7587689302
 20
-25.5333974952
 10
-23.8082238815
 20
-25.5098024298
 10
-23.8572608104
 20
-25.4852397456
 10
-23.9060097826
 20
-25.4597386838
 10
-23.9545524337
 20
-25.4334349421
 10
-24.0023271216
 20
-25.4066969519
 10
-24.049197057
 20
-25.379556952
 10
-24.0960475731
 20
-25.3514966936
 10
-24.1429232896
 20
-25.3224878713
 10
-24.1897904942
 20
-25.2925083831
 10
-24.237265114
 20
-25.261043435
 10
-24.2851770395
 20
-25.2281413742
 10
-24.3332780337
 20
-25.1939050813
 10
-24.3821689763
 20
-25.1577269305
 10
-24.432308055
 20
-25.1190995647
 10
-24.4834893789
 20
-25.0780539014
 10
-24.5351916273
 20
-25.0348629082
 10
-24.5873918806
 20
-24.9894235584
 10
-24.6398554995
 20
-24.9417843517
 10
-24.6917924269
 20
-24.892515508
 10
-24.743057942
 20
-24.8416944367
 10
-24.7937030179
 20
-24.7892200167
 10
-24.8432866633
 20
-24.7354666916
 10
-24.8917205348
 20
-24.6805082493
 10
-24.9390122803
 20
-24.6243269008
 10
-24.9849065438
 20
-24.5671971323
 10
-25.0293812761
 20
-24.5091533582
 10
-25.0724252371
 20
-24.4502345242
 10
-25.1138351409
 20
-24.3907452225
 10
-25.1536135059
 20
-24.3307254648
 10
-25.1917642406
 20
-24.2702292865
 10
-25.2281168533
 20
-24.209614905
 10
-25.2626863891
 20
-24.1489512148
 10
-25.2954970064
 20
-24.0883014787
 10
-25.3264468656
 20
-24.02800069
 10
-25.3555924698
 20
-23.9680868931
 10
-25.3829872935
 20
-23.9085990225
 10
-25.4085134151
 20
-23.8499882676
 10
-25.4318695535
 20
-23.792705925
 10
-25.4534435321
 20
-23.7365614861
 10
-25.4742919475
 20
-23.6806312936
 10
-25.4946298998
 20
-23.6245212937
  0
LINE
  5
340
100
AcDbEntity
  8
CURVE
100
AcDbLine
 62
253
  6
CONTINUOUS
 10
-5.7232771428
 20
-28.8134291052
 11
-5.4368230116
 21
-28.8730035714
  0
LINE
  5
341
100
AcDbEntity
  8
CURVE
100
AcDbLine
 62
253
  6
CONTINUOUS
 10
-9.8637332323
 20
-26.1325780324
 11
-10.1501878646
 21
-26.0730035714
  0
LINE
  5
342
100
AcDbEntity
  8
CURVE
100
AcDbLine
 62
253
  6
CONTINUOUS
 10
-4.3803999545
 20
-26.1325780324
 11
-4.6668547538
 21
-26.0730035714
  0
LINE
  5
343
100
AcDbEntity
  8
CURVE
100
AcDbLine
 62
253
  6
CONTINUOUS
 10
-5.4055504682
 20
-28.5155567638
 11
-5.633671489
 21
-28.4559823028
  0
LINE
  5
344
100
AcDbEntity
  8
CURVE
100
AcDbLine
 62
253
  6
CONTINUOUS
 10
-4.6981272936
 20
-26.4304503373
 11
-4.4700056052
 21
-26.4900247983
  0
LINE
  5
345
100
AcDbEntity
  8
CURVE
100
AcDbLine
 62
253
  6
CONTINUOUS
 10
-10.0575810307
 20
-27.6815141849
 11
-10.2273689407
 21
-27.6219397239
  0
LINE
  5
346
100
AcDbEntity
  8
CURVE
100
AcDbLine
 62
253
  6
CONTINUOUS
 10
-10.1231271267
 20
-26.4304503373
 11
-9.9533392167
 21
-26.4900247983
  0
LINE
  5
347
100
AcDbEntity
  8
CURVE
100
AcDbLine
 62
253
  6
CONTINUOUS
 10
-9.7502780385
 20
-27.5027908019
 11
-9.8617326708
 21
-27.4432163409
  0
LINE
  5
348
100
AcDbEntity
  8
CURVE
100
AcDbLine
 62
253
  6
CONTINUOUS
 10
-5.9461867399
 20
-28.6942801676
 11
-5.7232771428
 21
-28.8134291052
  0
LINE
  5
349
100
AcDbEntity
  8
CURVE
100
AcDbLine
 62
253
  6
CONTINUOUS
 10
-5.633671489
 20
-28.4559823028
 11
-5.7982473054
 21
-28.3368333391
  0
LINE
  5
34A
100
AcDbEntity
  8
CURVE
100
AcDbLine
 62
253
  6
CONTINUOUS
 10
-9.6460362245
 20
-26.3113014154
 11
-9.8637332323
 21
-26.1325780324
  0
LINE
  5
34B
100
AcDbEntity
  8
CURVE
100
AcDbLine
 62
253
  6
CONTINUOUS
 10
-16.4951562655
 20
-28.8730035714
 11
-17.8951560986
 21
-26.0730035714
  0
LWPOLYLINE
  5
34C
100
AcDbEntity
  8
RACCORDO
100
AcDbPolyline
 62
253
  6
CONTINUOUS
 90
3
 70
0
 10
-22.243473709
 20
-24.2823016141
 10
-22.2457472189
 20
-24.1949868692
 10
-22.2475437869
 20
-24.1018115014
  0
LWPOLYLINE
  5
34D
100
AcDbEntity
  8
ASSI
100
AcDbPolyline
 62
253
  6
CONTINUOUS
 90
3
 70
0
 10
-22.243473709
 20
-24.2823016141
 10
-22.2457472189
 20
-24.1949868692
 10
-22.2475437869
 20
-24.1018115014
  0
LWPOLYLINE
  5
34E
100
AcDbEntity
  8
RACCORDO
100
AcDbPolyline
 62
253
  6
CONTINUOUS
 90
4
 70
0
 10
-22.2475437869
 20
-24.1018115014
 10
-22.2499438458
 20
-23.9021222111
 10
-22.2506051464
 20
-23.7978514497
 10
-22.2505894152
 20
-23.6921796776
  0
LWPOLYLINE
  5
34F
100
AcDbEntity
  8
ASSI
100
AcDbPolyline
 62
253
  6
CONTINUOUS
 90
4
 70
0
 10
-22.2475437869
 20
-24.1018115014
 10
-22.2499438458
 20
-23.9021222111
 10
-22.2506051464
 20
-23.7978514497
 10
-22.2505894152
 20
-23.6921796776
  0
LINE
  5
350
100
AcDbEntity
  8
RACCORDO
100
AcDbLine
 62
253
  6
CONTINUOUS
 10
-22.2482721137
 20
-24.2823104494
 11
-22.2352694521
 21
-25.8752274074
  0
LINE
  5
351
100
AcDbEntity
  8
ASSI
100
AcDbLine
 62
253
  6
CONTINUOUS
 10
-22.2482721137
 20
-24.2823104494
 11
-22.2352694521
 21
-25.8752274074
  0
LINE
  5
352
100
AcDbEntity
  8
RACCORDO
100
AcDbLine
 62
253
  6
CONTINUOUS
 10
-25.7426950284
 20
-22.349038569
 11
-25.7585278962
 21
-15.8488705244
  0
LINE
  5
353
100
AcDbEntity
  8
ASSI
100
AcDbLine
 62
253
  6
CONTINUOUS
 10
-25.7426950284
 20
-22.349038569
 11
-25.7585278962
 21
-15.8488705244
  0
LINE
  5
354
100
AcDbEntity
  8
RACCORDO
100
AcDbLine
 62
253
  6
CONTINUOUS
 10
-25.7585278962
 20
-15.8488705244
 11
-25.7656175458
 21
-9.6871707161
  0
LINE
  5
355
100
AcDbEntity
  8
ASSI
100
AcDbLine
 62
253
  6
CONTINUOUS
 10
-25.7585278962
 20
-15.8488705244
 11
-25.7656175458
 21
-9.6871707161
  0
LINE
  5
356
100
AcDbEntity
  8
RACCORDO
100
AcDbLine
 62
253
  6
CONTINUOUS
 10
-22.2503519139
 20
23.4518439608
 11
-22.2503330979
 21
23.3461723258
  0
LINE
  5
357
100
AcDbEntity
  8
ASSI
100
AcDbLine
 62
253
  6
CONTINUOUS
 10
-22.2503519139
 20
23.4518439608
 11
-22.2503330979
 21
23.3461723258
  0
LINE
  5
358
100
AcDbEntity
  8
CURVE
100
AcDbLine
 62
253
  6
CONTINUOUS
 10
-25.2951561224
 20
-26.6230035714
 11
-25.2951561224
 21
-28.3230035714
  0
LINE
  5
359
100
AcDbEntity
  8
CURVE
100
AcDbLine
 62
253
  6
CONTINUOUS
 10
-25.1951561224
 20
-26.7230035714
 11
-25.1951561224
 21
-28.2230035714
  0
LINE
  5
35A
100
AcDbEntity
  8
CURVE
100
AcDbLine
 62
253
  6
CONTINUOUS
 10
-25.0951561224
 20
-26.8230035714
 11
-25.0951561224
 21
-28.1230035714
  0
LINE
  5
35B
100
AcDbEntity
  8
CURVE
100
AcDbLine
 62
253
  6
CONTINUOUS
 10
-24.1451561224
 20
-25.4730035714
 11
-24.1451561224
 21
-26.6230035714
  0
LINE
  5
35C
100
AcDbEntity
  8
CURVE
100
AcDbLine
 62
253
  6
CONTINUOUS
 10
-24.1451561224
 20
-28.3230035714
 11
-24.1451561224
 21
-29.4730035714
  0
LINE
  5
35D
100
AcDbEntity
  8
CURVE
100
AcDbLine
 62
253
  6
CONTINUOUS
 10
-24.0451561224
 20
-25.5730035714
 11
-24.0451561224
 21
-26.7230035714
  0
LINE
  5
35E
100
AcDbEntity
  8
CURVE
100
AcDbLine
 62
253
  6
CONTINUOUS
 10
-24.0451561224
 20
-28.2230035714
 11
-24.0451561224
 21
-29.3730035714
  0
LINE
  5
35F
100
AcDbEntity
  8
CURVE
100
AcDbLine
 62
253
  6
CONTINUOUS
 10
-23.9451561224
 20
-25.6730035714
 11
-23.9451561224
 21
-26.8230035714
  0
LINE
  5
360
100
AcDbEntity
  8
CURVE
100
AcDbLine
 62
253
  6
CONTINUOUS
 10
-23.9451561224
 20
-28.1230035714
 11
-23.9451561224
 21
-29.2730035714
  0
LINE
  5
361
100
AcDbEntity
  8
CURVE
100
AcDbLine
 62
253
  6
CONTINUOUS
 10
-22.6451561224
 20
-29.2730035714
 11
-22.6451561224
 21
-28.1230035714
  0
LINE
  5
362
100
AcDbEntity
  8
CURVE
100
AcDbLine
 62
253
  6
CONTINUOUS
 10
-22.6451561224
 20
-26.8230035714
 11
-22.6451561224
 21
-25.6730035714
  0
LINE
  5
363
100
AcDbEntity
  8
CURVE
100
AcDbLine
 62
253
  6
CONTINUOUS
 10
-22.5451561224
 20
-29.3730035714
 11
-22.5451561224
 21
-28.2230035714
  0
LINE
  5
364
100
AcDbEntity
  8
CURVE
100
AcDbLine
 62
253
  6
CONTINUOUS
 10
-22.5451561224
 20
-26.7230035714
 11
-22.5451561224
 21
-25.5730035714
  0
LINE
  5
365
100
AcDbEntity
  8
0
100
AcDbLine
 62
7
  6
CONTINUOUS
 10
-22.5451561224
 20
-22.3730035714
 11
-22.5451561224
 21
22.0269964286
  0
LINE
  5
366
100
AcDbEntity
  8
ASSI
100
AcDbLine
 62
7
  6
CONTINUOUS
 10
-22.5451561224
 20
-22.3730035714
 11
-22.5451561224
 21
22.0269964286
  0
LINE
  5
367
100
AcDbEntity
  8
CURVE
100
AcDbLine
 62
253
  6
CONTINUOUS
 10
-22.4451561224
 20
-29.4730035714
 11
-22.4451561224
 21
-28.3230035714
  0
LINE
  5
368
100
AcDbEntity
  8
CURVE
100
AcDbLine
 62
253
  6
CONTINUOUS
 10
-22.4451561224
 20
-26.6230035714
 11
-22.4451561224
 21
-25.4730035714
  0
LINE
  5
369
100
AcDbEntity
  8
RACCORDO
100
AcDbLine
 62
253
  6
CONTINUOUS
 10
-25.7656175458
 20
-9.6871707161
 11
-25.7667851942
 21
6.3501044533
  0
LINE
  5
36A
100
AcDbEntity
  8
ASSI
100
AcDbLine
 62
253
  6
CONTINUOUS
 10
-25.7656175458
 20
-9.6871707161
 11
-25.7667851942
 21
6.3501044533
  0
LWPOLYLINE
  5
36B
100
AcDbEntity
  8
RACCORDO
100
AcDbPolyline
 62
253
  6
CONTINUOUS
 90
3
 70
0
 10
-22.2458797215
 20
22.7485581853
 10
-22.2452284508
 20
22.3326088961
 10
-22.2452460691
 20
22.3269964151
  0
LWPOLYLINE
  5
36C
100
AcDbEntity
  8
ASSI
100
AcDbPolyline
 62
253
  6
CONTINUOUS
 90
3
 70
0
 10
-22.2458797215
 20
22.7485581853
 10
-22.2452284508
 20
22.3326088961
 10
-22.2452460691
 20
22.3269964151
  0
LINE
  5
36D
100
AcDbEntity
  8
RACCORDO
100
AcDbLine
 62
253
  6
CONTINUOUS
 10
-25.7667851942
 20
6.3501044533
 11
-25.7622728557
 21
13.0739562391
  0
LINE
  5
36E
100
AcDbEntity
  8
ASSI
100
AcDbLine
 62
253
  6
CONTINUOUS
 10
-25.7667851942
 20
6.3501044533
 11
-25.7622728557
 21
13.0739562391
  0
LINE
  5
36F
100
AcDbEntity
  8
RACCORDO
100
AcDbLine
 62
253
  6
CONTINUOUS
 10
-25.7622728557
 20
13.0739562391
 11
-25.753055747
 21
17.9075225694
  0
LINE
  5
370
100
AcDbEntity
  8
ASSI
100
AcDbLine
 62
253
  6
CONTINUOUS
 10
-25.7622728557
 20
13.0739562391
 11
-25.753055747
 21
17.9075225694
  0
LINE
  5
371
100
AcDbEntity
  8
RACCORDO
100
AcDbLine
 62
253
  6
CONTINUOUS
 10
-22.2458747917
 20
-23.0945653386
 11
-22.2451775924
 21
-22.6786160468
  0
LINE
  5
372
100
AcDbEntity
  8
ASSI
100
AcDbLine
 62
253
  6
CONTINUOUS
 10
-22.2458747917
 20
-23.0945653386
 11
-22.2451775924
 21
-22.6786160468
  0
LINE
  5
373
100
AcDbEntity
  8
RACCORDO
100
AcDbLine
 62
253
  6
CONTINUOUS
 10
-24.1563220816
 20
-22.3710608873
 11
-24.1563222433
 21
22.0250752553
  0
LINE
  5
374
100
AcDbEntity
  8
ASSI
100
AcDbLine
 62
253
  6
CONTINUOUS
 10
-24.1563220816
 20
-22.3710608873
 11
-24.1563222433
 21
22.0250752553
  0
LINE
  5
375
100
AcDbEntity
  8
RACCORDO
100
AcDbLine
 62
253
  6
CONTINUOUS
 10
-25.753055747
 20
17.9075225694
 11
-25.7426948369
 21
22.0030730262
  0
LINE
  5
376
100
AcDbEntity
  8
ASSI
100
AcDbLine
 62
253
  6
CONTINUOUS
 10
-25.753055747
 20
17.9075225694
 11
-25.7426948369
 21
22.0030730262
  0
LWPOLYLINE
  5
377
100
AcDbEntity
  8
RACCORDO
100
AcDbPolyline
 62
253
  6
CONTINUOUS
 90
94
 70
0
 10
-24.1563225302
 20
22.025075311
 10
-24.1561222909
 20
22.0645095267
 10
-24.1551251194
 20
22.1026451878
 10
-24.1534085281
 20
22.1394670123
 10
-24.151046447
 20
22.1749387597
 10
-24.1481136906
 20
22.2090748995
 10
-24.1446815744
 20
22.2419405553
 10
-24.1408199374
 20
22.2734916929
 10
-24.1365857739
 20
22.3037653049
 10
-24.1320145974
 20
22.3329502222
 10
-24.127158298
 20
22.3610296195
 10
-24.122060249
 20
22.3880207322
 10
-24.1167211611
 20
22.4141626627
 10
-24.1111738083
 20
22.4394628458
 10
-24.10545101
 20
22.4639164197
 10
-24.0995331333
 20
22.4877415248
 10
-24.0934428922
 20
22.5109421595
 10
-24.0872013122
 20
22.5335165805
 10
-24.0807692743
 20
22.5556709521
 10
-24.0741776328
 20
22.577344479
 10
-24.0674232832
 20
22.5985984376
 10
-24.0603947826
 20
22.6198161012
 10
-24.0530854649
 20
22.641000319
 10
-24.0455006629
 20
22.6621403599
 10
-24.0375208246
 20
22.6835906988
 10
-24.0291234173
 20
22.7053721047
 10
-24.0203035953
 20
22.727446223
 10
-24.010945483
 20
22.7500703115
 10
-24.0010005964
 20
22.7732921517
 10
-23.9904675078
 20
22.7970343289
 10
-23.9792870562
 20
22.821359776
 10
-23.9674110482
 20
22.8462904973
 10
-23.954829042
 20
22.8717655388
 10
-23.9415365208
 20
22.8977212316
 10
-23.9275023632
 20
22.92414275
 10
-23.9127018398
 20
22.9510008713
 10
-23.8971445728
 20
22.9782112387
 10
-23.8808056669
 20
23.0057503011
 10
-23.8636597321
 20
23.0335935541
 10
-23.8457216756
 20
23.0616570991
 10
-23.8269692891
 20
23.0899167127
 10
-23.8073813599
 20
23.1183452886
 10
-23.7869809075
 20
23.1468571865
 10
-23.7657514618
 20
23.1754250372
 10
-23.743674613
 20
23.2040230321
 10
-23.72077735
 20
23.2325710741
 10
-23.6970456351
 20
23.261043912
 10
-23.6724675129
 20
23.2894126691
 10
-23.6470801804
 20
23.3175957308
 10
-23.6207918171
 20
23.3456547229
 10
-23.5936748214
 20
23.3734714722
 10
-23.5660360318
 20
23.4007150061
 10
-23.5378013421
 20
23.4274581984
 10
-23.5090664727
 20
23.4536071283
 10
-23.4804451053
 20
23.4786351112
 10
-23.452053225
 20
23.5025120344
 10
-23.4238623428
 20
23.5253272923
 10
-23.3963180816
 20
23.5467924312
 10
-23.3696727414
 20
23.5668176002
 10
-23.3437843101
 20
23.5856013461
 10
-23.3185146275
 20
23.6033003612
 10
-23.2940026119
 20
23.6198846275
 10
-23.270186344
 20
23.6354668541
 10
-23.2466029117
 20
23.6503859194
 10
-23.2232886016
 20
23.6646462127
 10
-23.2002441384
 20
23.6782778908
 10
-23.1769240822
 20
23.6916131977
 10
-23.1532790949
 20
23.70466886
 10
-23.1293648174
 20
23.7174141356
 10
-23.1047695386
 20
23.7300691006
 10
-23.0794353377
 20
23.7426354639
 10
-23.0534080391
 20
23.755060402
 10
-23.0264158457
 20
23.7674516418
 10
-22.998458038
 20
23.7797696807
 10
-22.9695148202
 20
23.7919742662
 10
-22.9392741928
 20
23.8041429715
 10
-22.907591009
 20
23.8162638638
 10
-22.8745811536
 20
23.828221917
 10
-22.8403212691
 20
23.8399260388
 10
-22.804619903
 20
23.8513704968
 10
-22.7676508715
 20
23.8624254851
 10
-22.730054467
 20
23.8728537952
 10
-22.6918732075
 20
23.8826236573
 10
-22.653081372
 20
23.8917091123
 10
-22.6142390853
 20
23.8999539932
 10
-22.5756693367
 20
23.9073147693
 10
-22.5370882633
 20
23.913857177
 10
-22.4981527188
 20
23.919601461
 10
-22.4592708704
 20
23.9244791925
 10
-22.4200706906
 20
23.9285424299
 10
-22.3790287303
 20
23.931874635
 10
-22.3356435833
 20
23.9343813489
 10
-22.2904467907
 20
23.9358967761
 10
-22.2434628276
 20
23.9362946419
  0
LWPOLYLINE
  5
378
100
AcDbEntity
  8
ASSI
100
AcDbPolyline
 62
253
  6
CONTINUOUS
 90
94
 70
0
 10
-24.1563225302
 20
22.025075311
 10
-24.1561222909
 20
22.0645095267
 10
-24.1551251194
 20
22.1026451878
 10
-24.1534085281
 20
22.1394670123
 10
-24.151046447
 20
22.1749387597
 10
-24.1481136906
 20
22.2090748995
 10
-24.1446815744
 20
22.2419405553
 10
-24.1408199374
 20
22.2734916929
 10
-24.1365857739
 20
22.3037653049
 10
-24.1320145974
 20
22.3329502222
 10
-24.127158298
 20
22.3610296195
 10
-24.122060249
 20
22.3880207322
 10
-24.1167211611
 20
22.4141626627
 10
-24.1111738083
 20
22.4394628458
 10
-24.10545101
 20
22.4639164197
 10
-24.0995331333
 20
22.4877415248
 10
-24.0934428922
 20
22.5109421595
 10
-24.0872013122
 20
22.5335165805
 10
-24.0807692743
 20
22.5556709521
 10
-24.0741776328
 20
22.577344479
 10
-24.0674232832
 20
22.5985984376
 10
-24.0603947826
 20
22.6198161012
 10
-24.0530854649
 20
22.641000319
 10
-24.0455006629
 20
22.6621403599
 10
-24.0375208246
 20
22.6835906988
 10
-24.0291234173
 20
22.7053721047
 10
-24.0203035953
 20
22.727446223
 10
-24.010945483
 20
22.7500703115
 10
-24.0010005964
 20
22.7732921517
 10
-23.9904675078
 20
22.7970343289
 10
-23.9792870562
 20
22.821359776
 10
-23.9674110482
 20
22.8462904973
 10
-23.954829042
 20
22.8717655388
 10
-23.9415365208
 20
22.8977212316
 10
-23.9275023632
 20
22.92414275
 10
-23.9127018398
 20
22.9510008713
 10
-23.8971445728
 20
22.9782112387
 10
-23.8808056669
 20
23.0057503011
 10
-23.8636597321
 20
23.0335935541
 10
-23.8457216756
 20
23.0616570991
 10
-23.8269692891
 20
23.0899167127
 10
-23.8073813599
 20
23.1183452886
 10
-23.7869809075
 20
23.1468571865
 10
-23.7657514618
 20
23.1754250372
 10
-23.743674613
 20
23.2040230321
 10
-23.72077735
 20
23.2325710741
 10
-23.6970456351
 20
23.261043912
 10
-23.6724675129
 20
23.2894126691
 10
-23.6470801804
 20
23.3175957308
 10
-23.6207918171
 20
23.3456547229
 10
-23.5936748214
 20
23.3734714722
 10
-23.5660360318
 20
23.4007150061
 10
-23.5378013421
 20
23.4274581984
 10
-23.5090664727
 20
23.4536071283
 10
-23.4804451053
 20
23.4786351112
 10
-23.452053225
 20
23.5025120344
 10
-23.4238623428
 20
23.5253272923
 10
-23.3963180816
 20
23.5467924312
 10
-23.3696727414
 20
23.5668176002
 10
-23.3437843101
 20
23.5856013461
 10
-23.3185146275
 20
23.6033003612
 10
-23.2940026119
 20
23.6198846275
 10
-23.270186344
 20
23.6354668541
 10
-23.2466029117
 20
23.6503859194
 10
-23.2232886016
 20
23.6646462127
 10
-23.2002441384
 20
23.6782778908
 10
-23.1769240822
 20
23.6916131977
 10
-23.1532790949
 20
23.70466886
 10
-23.1293648174
 20
23.7174141356
 10
-23.1047695386
 20
23.7300691006
 10
-23.0794353377
 20
23.7426354639
 10
-23.0534080391
 20
23.755060402
 10
-23.0264158457
 20
23.7674516418
 10
-22.998458038
 20
23.7797696807
 10
-22.9695148202
 20
23.7919742662
 10
-22.9392741928
 20
23.8041429715
 10
-22.907591009
 20
23.8162638638
 10
-22.8745811536
 20
23.828221917
 10
-22.8403212691
 20
23.8399260388
 10
-22.804619903
 20
23.8513704968
 10
-22.7676508715
 20
23.8624254851
 10
-22.730054467
 20
23.8728537952
 10
-22.6918732075
 20
23.8826236573
 10
-22.653081372
 20
23.8917091123
 10
-22.6142390853
 20
23.8999539932
 10
-22.5756693367
 20
23.9073147693
 10
-22.5370882633
 20
23.913857177
 10
-22.4981527188
 20
23.919601461
 10
-22.4592708704
 20
23.9244791925
 10
-22.4200706906
 20
23.9285424299
 10
-22.3790287303
 20
23.931874635
 10
-22.3356435833
 20
23.9343813489
 10
-22.2904467907
 20
23.9358967761
 10
-22.2434628276
 20
23.9362946419
  0
LINE
  5
379
100
AcDbEntity
  8
RACCORDO
100
AcDbLine
 62
253
  6
CONTINUOUS
 10
-22.2481986914
 20
23.9362950368
 11
-22.2304970452
 21
25.5292626157
  0
LINE
  5
37A
100
AcDbEntity
  8
ASSI
100
AcDbLine
 62
253
  6
CONTINUOUS
 10
-22.2481986914
 20
23.9362950368
 11
-22.2304970452
 21
25.5292626157
  0
LWPOLYLINE
  5
37B
100
AcDbEntity
  8
RACCORDO
100
AcDbPolyline
 62
253
  6
CONTINUOUS
 90
5
 70
0
 10
-22.2434628276
 20
23.9362946419
 10
-22.2457039729
 20
23.8489795069
 10
-22.2474623061
 20
23.7558038629
 10
-22.2487651037
 20
23.6578149897
 10
-22.2503519139
 20
23.4518439608
  0
LWPOLYLINE
  5
37C
100
AcDbEntity
  8
ASSI
100
AcDbPolyline
 62
253
  6
CONTINUOUS
 90
5
 70
0
 10
-22.2434628276
 20
23.9362946419
 10
-22.2457039729
 20
23.8489795069
 10
-22.2474623061
 20
23.7558038629
 10
-22.2487651037
 20
23.6578149897
 10
-22.2503519139
 20
23.4518439608
  0
LINE
  5
37D
100
AcDbEntity
  8
CURVE
100
AcDbLine
 62
253
  6
CONTINUOUS
 10
-5.4616724944
 20
-26.4900247983
 11
-5.2231272936
 21
-26.4304503373
  0
LINE
  5
37E
100
AcDbEntity
  8
CURVE
100
AcDbLine
 62
253
  6
CONTINUOUS
 10
-5.1918547538
 20
-26.0730035714
 11
-5.4887330654
 21
-26.1325780324
  0
LINE
  5
37F
100
AcDbEntity
  8
RACCORDO
100
AcDbLine
 62
253
  6
CONTINUOUS
 10
23.9787453188
 20
-22.3728094547
 11
24.3835737919
 21
-22.3659812309
  0
LINE
  5
380
100
AcDbEntity
  8
ASSI
100
AcDbLine
 62
253
  6
CONTINUOUS
 10
23.9787453188
 20
-22.3728094547
 11
24.3835737919
 21
-22.3659812309
  0
LWPOLYLINE
  5
381
100
AcDbEntity
  8
RACCORDO
100
AcDbPolyline
 62
253
  6
CONTINUOUS
 90
3
 70
0
 10
23.9787453188
 20
-22.3728094547
 10
23.8855856133
 20
-22.3740695385
 10
23.7875798741
 20
-22.3749004639
  0
LWPOLYLINE
  5
382
100
AcDbEntity
  8
ASSI
100
AcDbPolyline
 62
253
  6
CONTINUOUS
 90
3
 70
0
 10
23.9787453188
 20
-22.3728094547
 10
23.8855856133
 20
-22.3740695385
 10
23.7875798741
 20
-22.3749004639
  0
LINE
  5
383
100
AcDbEntity
  8
RACCORDO
100
AcDbLine
 62
253
  6
CONTINUOUS
 10
24.3835737919
 20
-22.3659812309
 11
25.6523825908
 21
-22.349080169
  0
LINE
  5
384
100
AcDbEntity
  8
ASSI
100
AcDbLine
 62
253
  6
CONTINUOUS
 10
24.3835737919
 20
-22.3659812309
 11
25.6523825908
 21
-22.349080169
  0
LINE
  5
385
100
AcDbEntity
  8
RACCORDO
100
AcDbLine
 62
253
  6
CONTINUOUS
 10
22.1401847136
 20
-25.8752697593
 11
20.0681977848
 21
-25.8866201536
  0
LINE
  5
386
100
AcDbEntity
  8
ASSI
100
AcDbLine
 62
253
  6
CONTINUOUS
 10
22.1401847136
 20
-25.8752697593
 11
20.0681977848
 21
-25.8866201536
  0
LINE
  5
387
100
AcDbEntity
  8
RACCORDO
100
AcDbLine
 62
253
  6
CONTINUOUS
 10
20.0681977848
 20
-25.8866201536
 11
17.0996461873
 21
-25.8939353576
  0
LINE
  5
388
100
AcDbEntity
  8
ASSI
100
AcDbLine
 62
253
  6
CONTINUOUS
 10
20.0681977848
 20
-25.8866201536
 11
17.0996461873
 21
-25.8939353576
  0
LINE
  5
389
100
AcDbEntity
  8
RACCORDO
100
AcDbLine
 62
253
  6
CONTINUOUS
 10
17.0996461873
 20
-25.8939353576
 11
-11.7951561224
 21
-25.8959909873
  0
LINE
  5
38A
100
AcDbEntity
  8
ASSI
100
AcDbLine
 62
253
  6
CONTINUOUS
 10
17.0996461873
 20
-25.8939353576
 11
-11.7951561224
 21
-25.8959909873
  0
LINE
  5
38B
100
AcDbEntity
  8
CURVE
100
AcDbLine
 62
253
  6
CONTINUOUS
 10
-22.6451561224
 20
-25.6730035714
 11
-23.9451561224
 21
-25.6730035714
  0
LINE
  5
38C
100
AcDbEntity
  8
CURVE
100
AcDbLine
 62
253
  6
CONTINUOUS
 10
-22.5451561224
 20
-25.5730035714
 11
-24.0451561224
 21
-25.5730035714
  0
LINE
  5
38D
100
AcDbEntity
  8
CURVE
100
AcDbLine
 62
253
  6
CONTINUOUS
 10
-22.4451561224
 20
-25.4730035714
 11
-24.1451561224
 21
-25.4730035714
  0
LINE
  5
38E
100
AcDbEntity
  8
0
100
AcDbLine
 62
7
  6
CONTINUOUS
 10
22.1548438776
 20
-22.6730035714
 11
-22.2451561224
 21
-22.6730035714
  0
LINE
  5
38F
100
AcDbEntity
  8
ASSI
100
AcDbLine
 62
7
  6
CONTINUOUS
 10
22.1548438776
 20
-22.6730035714
 11
-22.2451561224
 21
-22.6730035714
  0
LWPOLYLINE
  5
390
100
AcDbEntity
  8
RACCORDO
100
AcDbPolyline
 62
253
  6
CONTINUOUS
 90
3
 70
0
 10
-22.9675466859
 20
-22.3738665739
 10
-22.5507805723
 20
-22.3730882469
 10
-22.545156104
 20
-22.3731089185
  0
LWPOLYLINE
  5
391
100
AcDbEntity
  8
ASSI
100
AcDbPolyline
 62
253
  6
CONTINUOUS
 90
3
 70
0
 10
-22.9675466859
 20
-22.3738665739
 10
-22.5507805723
 20
-22.3730882469
 10
-22.545156104
 20
-22.3731089185
  0
LINE
  5
392
100
AcDbEntity
  8
RACCORDO
100
AcDbLine
 62
253
  6
CONTINUOUS
 10
23.7875798741
 20
-22.3749004639
 11
23.1617478347
 21
-22.3758929554
  0
LINE
  5
393
100
AcDbEntity
  8
ASSI
100
AcDbLine
 62
253
  6
CONTINUOUS
 10
23.7875798741
 20
-22.3749004639
 11
23.1617478347
 21
-22.3758929554
  0
LINE
  5
394
100
AcDbEntity
  8
RACCORDO
100
AcDbLine
 62
253
  6
CONTINUOUS
 10
-11.7951561224
 20
-25.8959910062
 11
-17.0922056773
 21
-25.8940631593
  0
LINE
  5
395
100
AcDbEntity
  8
ASSI
100
AcDbLine
 62
253
  6
CONTINUOUS
 10
-11.7951561224
 20
-25.8959910062
 11
-17.0922056773
 21
-25.8940631593
  0
LINE
  5
396
100
AcDbEntity
  8
RACCORDO
100
AcDbLine
 62
253
  6
CONTINUOUS
 10
22.1578863563
 20
-24.2823021794
 11
-22.248272189
 21
-24.282302384
  0
LINE
  5
397
100
AcDbEntity
  8
ASSI
100
AcDbLine
 62
253
  6
CONTINUOUS
 10
22.1578863563
 20
-24.2823021794
 11
-22.248272189
 21
-24.282302384
  0
LINE
  5
398
100
AcDbEntity
  8
RACCORDO
100
AcDbLine
 62
253
  6
CONTINUOUS
 10
22.8772344697
 20
-22.3738562626
 11
22.4604683383
 21
-22.3730287192
  0
LINE
  5
399
100
AcDbEntity
  8
ASSI
100
AcDbLine
 62
253
  6
CONTINUOUS
 10
22.8772344697
 20
-22.3738562626
 11
22.4604683383
 21
-22.3730287192
  0
LINE
  5
39A
100
AcDbEntity
  8
RACCORDO
100
AcDbLine
 62
253
  6
CONTINUOUS
 10
-17.0922056773
 20
-25.8940631593
 11
-19.8702771997
 21
-25.8876944637
  0
LINE
  5
39B
100
AcDbEntity
  8
ASSI
100
AcDbLine
 62
253
  6
CONTINUOUS
 10
-17.0922056773
 20
-25.8940631593
 11
-19.8702771997
 21
-25.8876944637
  0
LWPOLYLINE
  5
39C
100
AcDbEntity
  8
RACCORDO
100
AcDbPolyline
 62
253
  6
CONTINUOUS
 90
4
 70
0
 10
-23.566024213
 20
-22.3749936579
 10
-23.3549692757
 20
-22.3759354376
 10
-23.2520600849
 20
-22.3759377216
 10
-22.9675466859
 20
-22.3738665739
  0
LWPOLYLINE
  5
39D
100
AcDbEntity
  8
ASSI
100
AcDbPolyline
 62
253
  6
CONTINUOUS
 90
4
 70
0
 10
-23.566024213
 20
-22.3749936579
 10
-23.3549692757
 20
-22.3759354376
 10
-23.2520600849
 20
-22.3759377216
 10
-22.9675466859
 20
-22.3738665739
  0
LINE
  5
39E
100
AcDbEntity
  8
RACCORDO
100
AcDbLine
 62
253
  6
CONTINUOUS
 10
-19.8702771997
 20
-25.8876944637
 11
-22.2352694059
 21
-25.8752338223
  0
LINE
  5
39F
100
AcDbEntity
  8
ASSI
100
AcDbLine
 62
253
  6
CONTINUOUS
 10
-19.8702771997
 20
-25.8876944637
 11
-22.2352694059
 21
-25.8752338223
  0
LWPOLYLINE
  5
3A0
100
AcDbEntity
  8
RACCORDO
100
AcDbPolyline
 62
253
  6
CONTINUOUS
 90
82
 70
0
 10
-22.243473709
 20
-24.2823016141
 10
-22.2884988369
 20
-24.2819431967
 10
-22.3317582457
 20
-24.280561849
 10
-22.3732306371
 20
-24.2782770592
 10
-22.4123336154
 20
-24.2752524177
 10
-22.4496242326
 20
-24.2715722012
 10
-22.4867876852
 20
-24.2671293715
 10
-22.5242885338
 20
-24.2618481563
 10
-22.5616266307
 20
-24.2557947979
 10
-22.5990302103
 20
-24.2489605944
 10
-22.636724855
 20
-24.241290197
 10
-22.6744479193
 20
-24.2328117658
 10
-22.7117019345
 20
-24.2236570989
 10
-22.7484625419
 20
-24.2138575413
 10
-22.7847352701
 20
-24.2034245067
 10
-22.8200836532
 20
-24.1925146392
 10
-22.8543812872
 20
-24.181216747
 10
-22.8877581433
 20
-24.1695365694
 10
-22.9201724889
 20
-24.1575325249
 10
-22.9515738813
 20
-24.1452709407
 10
-22.9820245744
 20
-24.1327746072
 10
-23.0116516867
 20
-24.1200309113
 10
-23.0405169057
 20
-24.1070517808
 10
-23.0685691665
 20
-24.0938911765
 10
-23.0957655308
 20
-24.0805942607
 10
-23.1219624958
 20
-24.0672757099
 10
-23.1473227362
 20
-24.053892021
 10
-23.1722535905
 20
-24.0402336687
 10
-23.1967006512
 20
-24.0263382159
 10
-23.2207175503
 20
-24.012195782
 10
-23.2448493176
 20
-23.9974829413
 10
-23.2690704688
 20
-23.982192361
 10
-23.2933759362
 20
-23.9663094215
 10
-23.3183096068
 20
-23.9494497857
 10
-23.3439492853
 20
-23.9314929724
 10
-23.3701421185
 20
-23.9124808444
 10
-23.3970589569
 20
-23.892235149
 10
-23.4248111709
 20
-23.8705820707
 10
-23.4531785944
 20
-23.8475898187
 10
-23.4818358638
 20
-23.8234473188
 10
-23.5107775289
 20
-23.7980850823
 10
-23.5399112792
 20
-23.7715029183
 10
-23.5688131566
 20
-23.7440339139
 10
-23.5973985654
 20
-23.7157245234
 10
-23.6256922514
 20
-23.6865143441
 10
-23.6534686223
 20
-23.656613841
 10
-23.6806863754
 20
-23.6260559345
 10
-23.7073505474
 20
-23.5948219735
 10
-23.7333277739
 20
-23.5630663068
 10
-23.7586093859
 20
-23.530804248
 10
-23.783186153
 20
-23.4980510542
 10
-23.8069432947
 20
-23.4649760688
 10
-23.8298834063
 20
-23.4316013565
 10
-23.8520080192
 20
-23.3979491263
 10
-23.8732212353
 20
-23.3642022037
 10
-23.8935379069
 20
-23.3303860685
 10
-23.9129706236
 20
-23.2965290313
 10
-23.9314413295
 20
-23.2628295218
 10
-23.9489677585
 20
-23.2293342384
 10
-23.9655840444
 20
-23.1960558792
 10
-23.9812550347
 20
-23.1631496823
 10
-23.995973729
 20
-23.1307408826
 10
-24.0098178172
 20
-23.0987631214
 10
-24.0228779213
 20
-23.0670821067
 10
-24.0351302387
 20
-23.035875418
 10
-24.0466539608
 20
-23.0050089546
 10
-24.0576529955
 20
-22.9738652744
 10
-24.0681095145
 20
-22.9424635874
 10
-24.0780269551
 20
-22.9108028139
 10
-24.0875736192
 20
-22.8782144655
 10
-24.0967175439
 20
-22.8446418937
 10
-24.1054010014
 20
-22.8101427108
 10
-24.1136882989
 20
-22.7742042676
 10
-24.1215107155
 20
-22.7368035874
 10
-24.1287790381
 20
-22.6979619001
 10
-24.1354655239
 20
-22.6572251888
 10
-24.1414670379
 20
-22.6145019763
 10
-24.1466444494
 20
-22.5698941978
 10
-24.1508678455
 20
-22.5232403886
 10
-24.1539899287
 20
-22.4745018811
 10
-24.1558599696
 20
-22.4237637775
 10
-24.1563224161
 20
-22.3710609169
  0
LWPOLYLINE
  5
3A1
100
AcDbEntity
  8
ASSI
100
AcDbPolyline
 62
253
  6
CONTINUOUS
 90
82
 70
0
 10
-22.243473709
 20
-24.2823016141
 10
-22.2884988369
 20
-24.2819431967
 10
-22.3317582457
 20
-24.280561849
 10
-22.3732306371
 20
-24.2782770592
 10
-22.4123336154
 20
-24.2752524177
 10
-22.4496242326
 20
-24.2715722012
 10
-22.4867876852
 20
-24.2671293715
 10
-22.5242885338
 20
-24.2618481563
 10
-22.5616266307
 20
-24.2557947979
 10
-22.5990302103
 20
-24.2489605944
 10
-22.636724855
 20
-24.241290197
 10
-22.6744479193
 20
-24.2328117658
 10
-22.7117019345
 20
-24.2236570989
 10
-22.7484625419
 20
-24.2138575413
 10
-22.7847352701
 20
-24.2034245067
 10
-22.8200836532
 20
-24.1925146392
 10
-22.8543812872
 20
-24.181216747
 10
-22.8877581433
 20
-24.1695365694
 10
-22.9201724889
 20
-24.1575325249
 10
-22.9515738813
 20
-24.1452709407
 10
-22.9820245744
 20
-24.1327746072
 10
-23.0116516867
 20
-24.1200309113
 10
-23.0405169057
 20
-24.1070517808
 10
-23.0685691665
 20
-24.0938911765
 10
-23.0957655308
 20
-24.0805942607
 10
-23.1219624958
 20
-24.0672757099
 10
-23.1473227362
 20
-24.053892021
 10
-23.1722535905
 20
-24.0402336687
 10
-23.1967006512
 20
-24.0263382159
 10
-23.2207175503
 20
-24.012195782
 10
-23.2448493176
 20
-23.9974829413
 10
-23.2690704688
 20
-23.982192361
 10
-23.2933759362
 20
-23.9663094215
 10
-23.3183096068
 20
-23.9494497857
 10
-23.3439492853
 20
-23.9314929724
 10
-23.3701421185
 20
-23.9124808444
 10
-23.3970589569
 20
-23.892235149
 10
-23.4248111709
 20
-23.8705820707
 10
-23.4531785944
 20
-23.8475898187
 10
-23.4818358638
 20
-23.8234473188
 10
-23.5107775289
 20
-23.7980850823
 10
-23.5399112792
 20
-23.7715029183
 10
-23.5688131566
 20
-23.7440339139
 10
-23.5973985654
 20
-23.7157245234
 10
-23.6256922514
 20
-23.6865143441
 10
-23.6534686223
 20
-23.656613841
 10
-23.6806863754
 20
-23.6260559345
 10
-23.7073505474
 20
-23.5948219735
 10
-23.7333277739
 20
-23.5630663068
 10
-23.7586093859
 20
-23.530804248
 10
-23.783186153
 20
-23.4980510542
 10
-23.8069432947
 20
-23.4649760688
 10
-23.8298834063
 20
-23.4316013565
 10
-23.8520080192
 20
-23.3979491263
 10
-23.8732212353
 20
-23.3642022037
 10
-23.8935379069
 20
-23.3303860685
 10
-23.9129706236
 20
-23.2965290313
 10
-23.9314413295
 20
-23.2628295218
 10
-23.9489677585
 20
-23.2293342384
 10
-23.9655840444
 20
-23.1960558792
 10
-23.9812550347
 20
-23.1631496823
 10
-23.995973729
 20
-23.1307408826
 10
-24.0098178172
 20
-23.0987631214
 10
-24.0228779213
 20
-23.0670821067
 10
-24.0351302387
 20
-23.035875418
 10
-24.0466539608
 20
-23.0050089546
 10
-24.0576529955
 20
-22.9738652744
 10
-24.0681095145
 20
-22.9424635874
 10
-24.0780269551
 20
-22.9108028139
 10
-24.0875736192
 20
-22.8782144655
 10
-24.0967175439
 20
-22.8446418937
 10
-24.1054010014
 20
-22.8101427108
 10
-24.1136882989
 20
-22.7742042676
 10
-24.1215107155
 20
-22.7368035874
 10
-24.1287790381
 20
-22.6979619001
 10
-24.1354655239
 20
-22.6572251888
 10
-24.1414670379
 20
-22.6145019763
 10
-24.1466444494
 20
-22.5698941978
 10
-24.1508678455
 20
-22.5232403886
 10
-24.1539899287
 20
-22.4745018811
 10
-24.1558599696
 20
-22.4237637775
 10
-24.1563224161
 20
-22.3710609169
  0
LINE
  5
3A2
100
AcDbEntity
  8
RACCORDO
100
AcDbLine
 62
253
  6
CONTINUOUS
 10
-24.3116789909
 20
-22.3685065713
 11
-25.7426950284
 21
-22.349038569
  0
LINE
  5
3A3
100
AcDbEntity
  8
ASSI
100
AcDbLine
 62
253
  6
CONTINUOUS
 10
-24.3116789909
 20
-22.3685065713
 11
-25.7426950284
 21
-22.349038569
  0
LWPOLYLINE
  5
3A4
100
AcDbEntity
  8
RACCORDO
100
AcDbPolyline
 62
253
  6
CONTINUOUS
 90
5
 70
0
 10
-24.3116789909
 20
-22.3685065713
 10
-24.069057139
 20
-22.3727195848
 10
-23.9758972569
 20
-22.3739190801
 10
-23.8778914484
 20
-22.3746976007
 10
-23.566024213
 20
-22.3749936579
  0
LWPOLYLINE
  5
3A5
100
AcDbEntity
  8
ASSI
100
AcDbPolyline
 62
253
  6
CONTINUOUS
 90
5
 70
0
 10
-24.3116789909
 20
-22.3685065713
 10
-24.069057139
 20
-22.3727195848
 10
-23.9758972569
 20
-22.3739190801
 10
-23.8778914484
 20
-22.3746976007
 10
-23.566024213
 20
-22.3749936579
  0
LINE
  5
3A6
100
AcDbEntity
  8
CURVE
100
AcDbLine
 62
253
  6
CONTINUOUS
 10
3.266478357
 20
-26.0730035714
 11
3.5529338238
 21
-26.1325780324
  0
LINE
  5
3A7
100
AcDbEntity
  8
CURVE
100
AcDbLine
 62
253
  6
CONTINUOUS
 10
3.2987516856
 20
-26.3708758763
 11
3.4685395956
 21
-26.4304503373
  0
LINE
  5
3A8
100
AcDbEntity
  8
CURVE
100
AcDbLine
 62
253
  6
CONTINUOUS
 10
-4.1574910237
 20
-26.2517269544
 11
-4.3803999545
 21
-26.1325780324
  0
LINE
  5
3A9
100
AcDbEntity
  8
CURVE
100
AcDbLine
 62
253
  6
CONTINUOUS
 10
-4.4700056052
 20
-26.4900247983
 11
-4.3054297851
 21
-26.6091737203
  0
LINE
  5
3AA
100
AcDbEntity
  8
CURVE
100
AcDbLine
 62
253
  6
CONTINUOUS
 10
-9.9513384884
 20
-27.8006631068
 11
-10.0575810307
 21
-27.6815141849
  0
LINE
  5
3AB
100
AcDbEntity
  8
CURVE
100
AcDbLine
 62
253
  6
CONTINUOUS
 10
-9.9533392167
 20
-26.4900247983
 11
-9.8470966743
 21
-26.6091737203
  0
LINE
  5
3AC
100
AcDbEntity
  8
CURVE
100
AcDbLine
 62
253
  6
CONTINUOUS
 10
-6.158671489
 20
-28.4559823028
 11
-5.9461867399
 21
-28.6942801676
  0
LINE
  5
3AD
100
AcDbEntity
  8
CURVE
100
AcDbLine
 62
253
  6
CONTINUOUS
 10
-9.5961263984
 20
-27.7410886459
 11
-9.7502780385
 21
-27.5027908019
  0
LINE
  5
3AE
100
AcDbEntity
  8
CURVE
100
AcDbLine
 62
253
  6
CONTINUOUS
 10
-9.4918845844
 20
-26.5495992593
 11
-9.6460362245
 21
-26.3113014154
  0
LINE
  5
3AF
100
AcDbEntity
  8
CURVE
100
AcDbLine
 62
253
  6
CONTINUOUS
 10
-18.6951560509
 20
-28.8730035714
 11
-19.4951560867
 21
-26.0730035714
  0
LINE
  5
3B0
100
AcDbEntity
  8
RACCORDO
100
AcDbLine
 62
253
  6
CONTINUOUS
 10
-22.2503330979
 20
23.3461723258
 11
-22.246855234
 21
22.9331469771
  0
LINE
  5
3B1
100
AcDbEntity
  8
ASSI
100
AcDbLine
 62
253
  6
CONTINUOUS
 10
-22.2503330979
 20
23.3461723258
 11
-22.246855234
 21
22.9331469771
  0
LINE
  5
3B2
100
AcDbEntity
  8
RACCORDO
100
AcDbLine
 62
253
  6
CONTINUOUS
 10
-22.246855234
 20
22.9331469771
 11
-22.2458797215
 21
22.7485581853
  0
LINE
  5
3B3
100
AcDbEntity
  8
ASSI
100
AcDbLine
 62
253
  6
CONTINUOUS
 10
-22.246855234
 20
22.9331469771
 11
-22.2458797215
 21
22.7485581853
  0
LINE
  5
3B4
100
AcDbEntity
  8
CURVE
100
AcDbLine
 62
253
  6
CONTINUOUS
 10
-21.4951561224
 20
-28.1230035714
 11
-21.4951561224
 21
-26.8230035714
  0
LINE
  5
3B5
100
AcDbEntity
  8
CURVE
100
AcDbLine
 62
253
  6
CONTINUOUS
 10
-21.3951561224
 20
-28.2230035714
 11
-21.3951561224
 21
-26.7230035714
  0
LINE
  5
3B6
100
AcDbEntity
  8
CURVE
100
AcDbLine
 62
253
  6
CONTINUOUS
 10
-21.2951561224
 20
-28.3230035714
 11
-21.2951561224
 21
-26.6230035714
  0
LINE
  5
3B7
100
AcDbEntity
  8
RACCORDO
100
AcDbLine
 62
253
  6
CONTINUOUS
 10
-22.2451775924
 20
-22.6786160468
 11
-22.2451561234
 21
-22.6730035714
  0
LINE
  5
3B8
100
AcDbEntity
  8
ASSI
100
AcDbLine
 62
253
  6
CONTINUOUS
 10
-22.2451775924
 20
-22.6786160468
 11
-22.2451561234
 21
-22.6730035714
  0
LINE
  5
3B9
100
AcDbEntity
  8
RACCORDO
100
AcDbLine
 62
253
  6
CONTINUOUS
 10
-22.2475283839
 20
-23.3786133618
 11
-22.2458747917
 21
-23.0945653386
  0
LINE
  5
3BA
100
AcDbEntity
  8
ASSI
100
AcDbLine
 62
253
  6
CONTINUOUS
 10
-22.2475283839
 20
-23.3786133618
 11
-22.2458747917
 21
-23.0945653386
  0
LINE
  5
3BB
100
AcDbEntity
  8
RACCORDO
100
AcDbLine
 62
253
  6
CONTINUOUS
 10
-22.2505894152
 20
-23.6921796776
 11
-22.2475283839
 21
-23.3786133618
  0
LINE
  5
3BC
100
AcDbEntity
  8
ASSI
100
AcDbLine
 62
253
  6
CONTINUOUS
 10
-22.2505894152
 20
-23.6921796776
 11
-22.2475283839
 21
-23.3786133618
  0
LINE
  5
3BD
100
AcDbEntity
  8
RACCORDO
100
AcDbLine
 62
253
  6
CONTINUOUS
 10
22.4604683383
 20
-22.3730287192
 11
22.4548438775
 21
-22.3730035716
  0
LINE
  5
3BE
100
AcDbEntity
  8
ASSI
100
AcDbLine
 62
253
  6
CONTINUOUS
 10
22.4604683383
 20
-22.3730287192
 11
22.4548438775
 21
-22.3730035716
  0
LINE
  5
3BF
100
AcDbEntity
  8
RACCORDO
100
AcDbLine
 62
253
  6
CONTINUOUS
 10
23.1617478347
 20
-22.3758929554
 11
22.8772344697
 21
-22.3738562626
  0
LINE
  5
3C0
100
AcDbEntity
  8
ASSI
100
AcDbLine
 62
253
  6
CONTINUOUS
 10
23.1617478347
 20
-22.3758929554
 11
22.8772344697
 21
-22.3738562626
  0
LINE
  5
3C1
100
AcDbEntity
  8
CURVE
100
AcDbLine
 62
253
  6
CONTINUOUS
 10
-3.9450056052
 20
-26.4900247983
 11
-4.1574910237
 21
-26.2517269544
  0
LINE
  5
3C2
100
AcDbEntity
  8
CURVE
100
AcDbLine
 62
253
  6
CONTINUOUS
 10
-5.7982473054
 20
-28.3368333391
 11
-5.8992779247
 21
-28.1581099562
  0
LINE
  5
3C3
100
AcDbEntity
  8
CURVE
100
AcDbLine
 62
253
  6
CONTINUOUS
 10
-17.8951560986
 20
-26.0730035714
 11
-17.8951560986
 21
-28.8730035714
  0
LINE
  5
3C4
100
AcDbEntity
  8
CURVE
100
AcDbLine
 62
253
  6
CONTINUOUS
 10
-16.4951562655
 20
-26.0730035714
 11
-16.4951562655
 21
-28.8730035714
  0
LINE
  5
3C5
100
AcDbEntity
  8
CURVE
100
AcDbLine
 62
253
  6
CONTINUOUS
 10
-14.8951560271
 20
-26.0730035714
 11
-14.8951560271
 21
-28.8730035714
  0
LINE
  5
3C6
100
AcDbEntity
  8
CURVE
100
AcDbLine
 62
253
  6
CONTINUOUS
 10
3.5529338238
 20
-26.1325780324
 11
3.7706299972
 21
-26.3113014154
  0
LINE
  5
3C7
100
AcDbEntity
  8
CURVE
100
AcDbLine
 62
253
  6
CONTINUOUS
 10
3.4685395956
 20
-26.4304503373
 11
3.5747816373
 21
-26.5495992593
  0
LINE
  5
3C8
100
AcDbEntity
  8
CURVE
100
AcDbLine
 62
253
  6
CONTINUOUS
 10
-6.2544896809
 20
-28.2176844172
 11
-6.158671489
 21
-28.4559823028
  0
LINE
  5
3C9
100
AcDbEntity
  8
CURVE
100
AcDbLine
 62
253
  6
CONTINUOUS
 10
-9.9086414879
 20
-27.9793865732
 11
-9.9513384884
 21
-27.8006631068
  0
LINE
  5
3CA
100
AcDbEntity
  8
CURVE
100
AcDbLine
 62
253
  6
CONTINUOUS
 10
-9.5534293979
 20
-27.9198121122
 11
-9.5961263984
 21
-27.7410886459
  0
LINE
  5
3CB
100
AcDbEntity
  8
CURVE
100
AcDbLine
 62
253
  6
CONTINUOUS
 10
-9.8470966743
 20
-26.6091737203
 11
-9.8043996811
 21
-26.7878972701
  0
LINE
  5
3CC
100
AcDbEntity
  8
CURVE
100
AcDbLine
 62
253
  6
CONTINUOUS
 10
-9.4491875766
 20
-26.7283226422
 11
-9.4918845844
 21
-26.5495992593
  0
LINE
  5
3CD
100
AcDbEntity
  8
CURVE
100
AcDbLine
 62
253
  6
CONTINUOUS
 10
-12.7618228209
 20
-26.0730035714
 11
-12.7618228209
 21
-28.8730035714
  0
LINE
  5
3CE
100
AcDbEntity
  8
RACCORDO
100
AcDbLine
 62
253
  6
CONTINUOUS
 10
-11.7951561224
 20
-39.9344258546
 11
-11.7951561224
 21
-22.6730035714
  0
LINE
  5
3CF
100
AcDbEntity
  8
ASSI
100
AcDbLine
 62
253
  6
CONTINUOUS
 10
-11.7951561224
 20
-39.9344258546
 11
-11.7951561224
 21
-22.6730035714
  0
LWPOLYLINE
  5
3D0
100
AcDbEntity
  8
RACCORDO
100
AcDbPolyline
 62
253
  6
CONTINUOUS
 90
3
 70
0
 10
-11.7951561224
 20
39.5884187117
 10
-11.7952096255
 20
22.3325859118
 10
-11.7952460682
 20
22.3269964286
  0
LWPOLYLINE
  5
3D1
100
AcDbEntity
  8
ASSI
100
AcDbPolyline
 62
253
  6
CONTINUOUS
 90
3
 70
0
 10
-11.7951561224
 20
39.5884187117
 10
-11.7952096255
 20
22.3325859118
 10
-11.7952460682
 20
22.3269964286
  0
LINE
  5
3D2
100
AcDbEntity
  8
CURVE
100
AcDbLine
 62
253
  6
CONTINUOUS
 10
-19.4951560867
 20
-26.0730035714
 11
-20.2951561224
 21
-28.8730035714
  0
LINE
  5
3D3
100
AcDbEntity
  8
CURVE
100
AcDbLine
 62
253
  6
CONTINUOUS
 10
3.7706299972
 20
-26.3113014154
 11
3.9247816373
 21
-26.5495992593
  0
LINE
  5
3D4
100
AcDbEntity
  8
CURVE
100
AcDbLine
 62
253
  6
CONTINUOUS
 10
-6.8368226779
 20
-28.8730035714
 11
-7.5251878646
 21
-26.0730035714
  0
LINE
  5
3D5
100
AcDbEntity
  8
CURVE
100
AcDbLine
 62
253
  6
CONTINUOUS
 10
-7.3576110355
 20
-28.1581099562
 11
-7.1868226779
 21
-28.8730035714
  0
LINE
  5
3D6
100
AcDbEntity
  8
CURVE
100
AcDbLine
 62
253
  6
CONTINUOUS
 10
-7.3950961202
 20
-27.9198121122
 11
-7.7793696691
 21
-26.3113014154
  0
LINE
  5
3D7
100
AcDbEntity
  8
CURVE
100
AcDbLine
 62
253
  6
CONTINUOUS
 10
-6.2867626756
 20
-27.9198121122
 11
-6.2544896809
 21
-28.2176844172
  0
LINE
  5
3D8
100
AcDbEntity
  8
CURVE
100
AcDbLine
 62
253
  6
CONTINUOUS
 10
-11.5501878646
 20
-26.0730035714
 11
-11.7951561224
 21
-28.8730035714
  0
LINE
  5
3D9
100
AcDbEntity
  8
CURVE
100
AcDbLine
 62
253
  6
CONTINUOUS
 10
-11.3044296786
 20
-27.264492958
 11
-11.2314604044
 21
-26.4304503373
  0
LINE
  5
3DA
100
AcDbEntity
  8
CURVE
100
AcDbLine
 62
253
  6
CONTINUOUS
 10
-11.3357022184
 20
-27.6219397239
 11
-11.413883579
 21
-28.5155567638
  0
LINE
  5
3DB
100
AcDbEntity
  8
CURVE
100
AcDbLine
 62
253
  6
CONTINUOUS
 10
-9.9242777578
 20
-28.1581099562
 11
-9.9086414879
 21
-27.9793865732
  0
LINE
  5
3DC
100
AcDbEntity
  8
CURVE
100
AcDbLine
 62
253
  6
CONTINUOUS
 10
-9.8043996811
 20
-26.7878972701
 11
-9.8148238611
 21
-26.9070461921
  0
LINE
  5
3DD
100
AcDbEntity
  8
CURVE
100
AcDbLine
 62
253
  6
CONTINUOUS
 10
-9.5794898478
 20
-28.2176844172
 11
-9.5534293979
 21
-27.9198121122
  0
LINE
  5
3DE
100
AcDbEntity
  8
CURVE
100
AcDbLine
 62
253
  6
CONTINUOUS
 10
-9.4700359511
 20
-26.9666206531
 11
-9.4491875766
 21
-26.7283226422
  0
LINE
  5
3DF
100
AcDbEntity
  8
CURVE
100
AcDbLine
 62
253
  6
CONTINUOUS
 10
-4.3054297851
 20
-26.6091737203
 11
-4.2627329588
 21
-26.7878972701
  0
LINE
  5
3E0
100
AcDbEntity
  8
CURVE
100
AcDbLine
 62
253
  6
CONTINUOUS
 10
-5.8992779247
 20
-28.1581099562
 11
-5.9367626756
 21
-27.9198121122
  0
LINE
  5
3E1
100
AcDbEntity
  8
CURVE
100
AcDbLine
 62
253
  6
CONTINUOUS
 10
-3.9127329588
 20
-26.7878972701
 11
-3.9450056052
 21
-26.4900247983
  0
LINE
  5
3E2
100
AcDbEntity
  8
CURVE
100
AcDbLine
 62
253
  6
CONTINUOUS
 10
-6.2085813187
 20
-27.0261951141
 11
-6.2867626756
 21
-27.9198121122
  0
LINE
  5
3E3
100
AcDbEntity
  8
CURVE
100
AcDbLine
 62
253
  6
CONTINUOUS
 10
-5.9367626756
 20
-27.9198121122
 11
-5.8585813187
 21
-27.0261951141
  0
LINE
  5
3E4
100
AcDbEntity
  8
CURVE
100
AcDbLine
 62
253
  6
CONTINUOUS
 10
3.4330557399
 20
-27.5027908019
 11
3.8381776559
 21
-28.8730035714
  0
LINE
  5
3E5
100
AcDbEntity
  8
CURVE
100
AcDbLine
 62
253
  6
CONTINUOUS
 10
3.4298438776
 20
-28.8730035714
 11
3.0726315599
 21
-27.6219397239
  0
LINE
  5
3E6
100
AcDbEntity
  8
CURVE
100
AcDbLine
 62
253
  6
CONTINUOUS
 10
-3.3835209754
 20
-26.0730035714
 11
-3.4095814252
 21
-26.3708758763
  0
LINE
  5
3E7
100
AcDbEntity
  8
CURVE
100
AcDbLine
 62
253
  6
CONTINUOUS
 10
-2.4762483144
 20
-26.3708758763
 11
-2.6951561224
 21
-28.8730035714
  0
LINE
  5
3E8
100
AcDbEntity
  8
CURVE
100
AcDbLine
 62
253
  6
CONTINUOUS
 10
-2.3451561224
 20
-28.8730035714
 11
-2.1262483144
 21
-26.3708758763
  0
LWPOLYLINE
  5
3E9
100
AcDbEntity
  8
RACCORDO
100
AcDbPolyline
 62
253
  6
CONTINUOUS
 90
3
 70
0
 10
-39.8065763025
 20
-0.1729981309
 10
-22.550743817
 20
-0.1730662411
 10
-22.5451561224
 20
-0.1731089181
  0
LWPOLYLINE
  5
3EA
100
AcDbEntity
  8
ASSI
100
AcDbPolyline
 62
253
  6
CONTINUOUS
 90
3
 70
0
 10
-39.8065763025
 20
-0.1729981309
 10
-22.550743817
 20
-0.1730662411
 10
-22.5451561224
 20
-0.1731089181
  0
LWPOLYLINE
  5
3EB
100
AcDbEntity
  8
RACCORDO
100
AcDbPolyline
 62
253
  6
CONTINUOUS
 90
3
 70
0
 10
39.7162640576
 20
-0.1730090119
 10
22.4604315721
 20
-0.1729409018
 10
22.4548438776
 20
-0.1728982247
  0
LWPOLYLINE
  5
3EC
100
AcDbEntity
  8
ASSI
100
AcDbPolyline
 62
253
  6
CONTINUOUS
 90
3
 70
0
 10
39.7162640576
 20
-0.1730090119
 10
22.4604315721
 20
-0.1729409018
 10
22.4548438776
 20
-0.1728982247
  0
LINE
  5
3ED
100
AcDbEntity
  8
CURVE
100
AcDbLine
 62
253
  6
CONTINUOUS
 10
7.4548438776
 20
-28.8730035714
 11
6.766478357
 21
-26.0730035714
  0
LINE
  5
3EE
100
AcDbEntity
  8
CURVE
100
AcDbLine
 62
253
  6
CONTINUOUS
 10
3.5747816373
 20
-26.5495992593
 11
3.6174791457
 21
-26.7283226422
  0
LINE
  5
3EF
100
AcDbEntity
  8
CURVE
100
AcDbLine
 62
253
  6
CONTINUOUS
 10
3.9247816373
 20
-26.5495992593
 11
3.9674791457
 21
-26.7283226422
  0
LINE
  5
3F0
100
AcDbEntity
  8
CURVE
100
AcDbLine
 62
253
  6
CONTINUOUS
 10
6.9340551861
 20
-28.1581099562
 11
7.1048438776
 21
-28.8730035714
  0
LINE
  5
3F1
100
AcDbEntity
  8
CURVE
100
AcDbLine
 62
253
  6
CONTINUOUS
 10
6.8965711028
 20
-27.9198121122
 11
6.5122975539
 21
-26.3113014154
  0
LINE
  5
3F2
100
AcDbEntity
  8
CURVE
100
AcDbLine
 62
253
  6
CONTINUOUS
 10
-1.1929152036
 20
-26.3708758763
 11
-1.1668547538
 21
-26.0730035714
  0
LINE
  5
3F3
100
AcDbEntity
  8
CURVE
100
AcDbLine
 62
253
  6
CONTINUOUS
 10
-0.7001878646
 20
-26.0730035714
 11
-0.9451561224
 21
-28.8730035714
  0
LINE
  5
3F4
100
AcDbEntity
  8
CURVE
100
AcDbLine
 62
253
  6
CONTINUOUS
 10
-0.563883579
 20
-28.5155567638
 11
-0.4804901285
 21
-27.5623652629
  0
LINE
  5
3F5
100
AcDbEntity
  8
CURVE
100
AcDbLine
 62
253
  6
CONTINUOUS
 10
-0.4492175886
 20
-27.204918497
 11
-0.3814604044
 21
-26.4304503373
  0
LINE
  5
3F6
100
AcDbEntity
  8
CURVE
100
AcDbLine
 62
253
  6
CONTINUOUS
 10
1.0361760931
 20
-27.5623652629
 11
1.067448633
 21
-27.204918497
  0
LINE
  5
3F7
100
AcDbEntity
  8
CURVE
100
AcDbLine
 62
253
  6
CONTINUOUS
 10
1.1548438776
 20
-28.8730035714
 11
1.186116421
 21
-28.5155567638
  0
LINE
  5
3F8
100
AcDbEntity
  8
CURVE
100
AcDbLine
 62
253
  6
CONTINUOUS
 10
1.3685395956
 20
-26.4304503373
 11
1.3998121354
 21
-26.0730035714
  0
LINE
  5
3F9
100
AcDbEntity
  8
CURVE
100
AcDbLine
 62
253
  6
CONTINUOUS
 10
1.6215100992
 20
-28.8730035714
 11
1.866478357
 21
-26.0730035714
  0
LINE
  5
3FA
100
AcDbEntity
  8
CURVE
100
AcDbLine
 62
253
  6
CONTINUOUS
 10
-6.1241874097
 20
-26.7283226422
 11
-6.2085813187
 21
-27.0261951141
  0
LINE
  5
3FB
100
AcDbEntity
  8
CURVE
100
AcDbLine
 62
253
  6
CONTINUOUS
 10
-4.1170045998
 20
-28.4559823028
 11
-4.0326110355
 21
-28.1581099562
  0
LINE
  5
3FC
100
AcDbEntity
  8
CURVE
100
AcDbLine
 62
253
  6
CONTINUOUS
 10
-5.8585813187
 20
-27.0261951141
 11
-5.779399848
 21
-26.7878972701
  0
LINE
  5
3FD
100
AcDbEntity
  8
CURVE
100
AcDbLine
 62
253
  6
CONTINUOUS
 10
-9.8148238611
 20
-26.9070461921
 11
-9.8887934087
 21
-27.085769575
  0
LINE
  5
3FE
100
AcDbEntity
  8
CURVE
100
AcDbLine
 62
253
  6
CONTINUOUS
 10
-9.5440054987
 20
-27.145344036
 11
-9.4700359511
 21
-26.9666206531
  0
LINE
  5
3FF
100
AcDbEntity
  8
CURVE
100
AcDbLine
 62
253
  6
CONTINUOUS
 10
-9.9982473054
 20
-28.3368333391
 11
-9.9242777578
 21
-28.1581099562
  0
LINE
  5
400
100
AcDbEntity
  8
CURVE
100
AcDbLine
 62
253
  6
CONTINUOUS
 10
-9.653459399
 20
-28.3964078418
 11
-9.5794898478
 21
-28.2176844172
  0
LINE
  5
401
100
AcDbEntity
  8
CURVE
100
AcDbLine
 62
253
  6
CONTINUOUS
 10
-7.7793696691
 20
-26.3113014154
 11
-8.4450961202
 21
-27.9198121122
  0
LINE
  5
402
100
AcDbEntity
  8
CURVE
100
AcDbLine
 62
253
  6
CONTINUOUS
 10
-8.8201561224
 20
-28.8730035714
 11
-8.5242775909
 21
-28.1581099562
  0
LINE
  5
403
100
AcDbEntity
  8
CURVE
100
AcDbLine
 62
253
  6
CONTINUOUS
 10
-7.99185442
 20
-26.0730035714
 11
-9.1701561224
 21
-28.8730035714
  0
LINE
  5
404
100
AcDbEntity
  8
0
100
AcDbLine
 62
7
  6
CONTINUOUS
 10
13.5235948775
 20
-28.9730255714
 11
12.5924628775
 21
-26.0728875714
  0
LINE
  5
405
100
AcDbEntity
  8
ASSI
100
AcDbLine
 62
7
  6
CONTINUOUS
 10
13.5235948775
 20
-28.9730255714
 11
12.5924628775
 21
-26.0728875714
  0
LINE
  5
406
100
AcDbEntity
  8
CURVE
100
AcDbLine
 62
253
  6
CONTINUOUS
 10
2.112236543
 20
-27.264492958
 11
2.1904179072
 21
-26.3708758763
  0
LINE
  5
407
100
AcDbEntity
  8
CURVE
100
AcDbLine
 62
253
  6
CONTINUOUS
 10
2.0809640032
 20
-27.6219397239
 11
1.9715100992
 21
-28.8730035714
  0
LINE
  5
408
100
AcDbEntity
  8
CURVE
100
AcDbLine
 62
253
  6
CONTINUOUS
 10
3.6174791457
 20
-26.7283226422
 11
3.6018428612
 21
-26.9070461921
  0
LINE
  5
409
100
AcDbEntity
  8
CURVE
100
AcDbLine
 62
253
  6
CONTINUOUS
 10
3.9674791457
 20
-26.7283226422
 11
3.9466307712
 21
-26.9666206531
  0
LINE
  5
40A
100
AcDbEntity
  8
CURVE
100
AcDbLine
 62
253
  6
CONTINUOUS
 10
4.5498121354
 20
-26.0730035714
 11
4.3048438776
 21
-28.8730035714
  0
LINE
  5
40B
100
AcDbEntity
  8
CURVE
100
AcDbLine
 62
253
  6
CONTINUOUS
 10
4.6548438776
 20
-28.8730035714
 11
4.8998121354
 21
-26.0730035714
  0
LINE
  5
40C
100
AcDbEntity
  8
CURVE
100
AcDbLine
 62
253
  6
CONTINUOUS
 10
-4.3826110355
 20
-28.1581099562
 11
-4.4565804162
 21
-28.3368333391
  0
LINE
  5
40D
100
AcDbEntity
  8
CURVE
100
AcDbLine
 62
253
  6
CONTINUOUS
 10
-5.9866724944
 20
-26.4900247983
 11
-6.1241874097
 21
-26.7283226422
  0
LINE
  5
40E
100
AcDbEntity
  8
0
100
AcDbLine
 62
7
  6
CONTINUOUS
 10
13.1724918775
 20
-26.0728875714
 11
13.8136238775
 21
-28.0697835714
  0
LINE
  5
40F
100
AcDbEntity
  8
ASSI
100
AcDbLine
 62
7
  6
CONTINUOUS
 10
13.1724918775
 20
-26.0728875714
 11
13.8136238775
 21
-28.0697835714
  0
LINE
  5
410
100
AcDbEntity
  8
RACCORDO
100
AcDbLine
 62
253
  6
CONTINUOUS
 10
11.7048615719
 20
39.5784845812
 11
11.7048438775
 21
22.3269964286
  0
LINE
  5
411
100
AcDbEntity
  8
ASSI
100
AcDbLine
 62
253
  6
CONTINUOUS
 10
11.7048615719
 20
39.5784845812
 11
11.7048438775
 21
22.3269964286
  0
LWPOLYLINE
  5
412
100
AcDbEntity
  8
RACCORDO
100
AcDbPolyline
 62
253
  6
CONTINUOUS
 90
3
 70
0
 10
11.7048438776
 20
-39.9344258546
 10
11.7048973806
 20
-22.6785930547
 10
11.7049338233
 20
-22.6730035714
  0
LWPOLYLINE
  5
413
100
AcDbEntity
  8
ASSI
100
AcDbPolyline
 62
253
  6
CONTINUOUS
 90
3
 70
0
 10
11.7048438776
 20
-39.9344258546
 10
11.7048973806
 20
-22.6785930547
 10
11.7049338233
 20
-22.6730035714
  0
LINE
  5
414
100
AcDbEntity
  8
CURVE
100
AcDbLine
 62
253
  6
CONTINUOUS
 10
8.166478357
 20
-26.0730035714
 11
7.9215100992
 21
-28.8730035714
  0
LINE
  5
415
100
AcDbEntity
  8
CURVE
100
AcDbLine
 62
253
  6
CONTINUOUS
 10
8.3027826427
 20
-28.5155567638
 11
8.516478357
 21
-26.0730035714
  0
LINE
  5
416
100
AcDbEntity
  8
CURVE
100
AcDbLine
 62
253
  6
CONTINUOUS
 10
-5.779399848
 20
-26.7878972701
 11
-5.6470966743
 21
-26.6091737203
  0
LINE
  5
417
100
AcDbEntity
  8
CURVE
100
AcDbLine
 62
253
  6
CONTINUOUS
 10
-9.7398538586
 20
-27.38364188
 11
-9.5440054987
 21
-27.145344036
  0
LINE
  5
418
100
AcDbEntity
  8
CURVE
100
AcDbLine
 62
253
  6
CONTINUOUS
 10
-9.8493077607
 20
-28.6347057066
 11
-9.653459399
 21
-28.3964078418
  0
LINE
  5
419
100
AcDbEntity
  8
0
100
AcDbLine
 62
7
  6
CONTINUOUS
 10
24.3015388775
 20
-28.9730105714
 11
23.7202848775
 21
-27.8516605714
  0
LINE
  5
41A
100
AcDbEntity
  8
ASSI
100
AcDbLine
 62
7
  6
CONTINUOUS
 10
24.3015388775
 20
-28.9730105714
 11
23.7202848775
 21
-27.8516605714
  0
LINE
  5
41B
100
AcDbEntity
  8
0
100
AcDbLine
 62
7
  6
CONTINUOUS
 10
24.3374396682
 20
-27.7819062384
 11
24.9548438775
 21
-28.9730035714
  0
LINE
  5
41C
100
AcDbEntity
  8
ASSI
100
AcDbLine
 62
7
  6
CONTINUOUS
 10
24.3374396682
 20
-27.7819062384
 11
24.9548438775
 21
-28.9730035714
  0
LINE
  5
41D
100
AcDbEntity
  8
0
100
AcDbLine
 62
7
  6
CONTINUOUS
 10
17.7098748775
 20
-28.9730185714
 11
17.1614998775
 21
-27.0605765714
  0
LINE
  5
41E
100
AcDbEntity
  8
ASSI
100
AcDbLine
 62
7
  6
CONTINUOUS
 10
17.7098748775
 20
-28.9730185714
 11
17.1614998775
 21
-27.0605765714
  0
LINE
  5
41F
100
AcDbEntity
  8
0
100
AcDbLine
 62
7
  6
CONTINUOUS
 10
17.4583148775
 20
-26.0728875714
 11
17.9998828775
 21
-27.9615555714
  0
LINE
  5
420
100
AcDbEntity
  8
ASSI
100
AcDbLine
 62
7
  6
CONTINUOUS
 10
17.4583148775
 20
-26.0728875714
 11
17.9998828775
 21
-27.9615555714
  0
LINE
  5
421
100
AcDbEntity
  8
RACCORDO
100
AcDbLine
 62
253
  6
CONTINUOUS
 10
11.7048438775
 20
39.5884187117
 11
11.7048615719
 21
39.5784845812
  0
LINE
  5
422
100
AcDbEntity
  8
ASSI
100
AcDbLine
 62
253
  6
CONTINUOUS
 10
11.7048438775
 20
39.5884187117
 11
11.7048615719
 21
39.5784845812
  0
LINE
  5
423
100
AcDbEntity
  8
0
100
AcDbLine
 62
7
  6
CONTINUOUS
 10
15.4214488775
 20
-28.9730255714
 11
15.4214558775
 21
-26.0728875714
  0
LINE
  5
424
100
AcDbEntity
  8
ASSI
100
AcDbLine
 62
7
  6
CONTINUOUS
 10
15.4214488775
 20
-28.9730255714
 11
15.4214558775
 21
-26.0728875714
  0
LINE
  5
425
100
AcDbEntity
  8
CURVE
100
AcDbLine
 62
253
  6
CONTINUOUS
 10
10.0215100992
 20
-28.8730035714
 11
10.0527826427
 21
-28.5155567638
  0
LINE
  5
426
100
AcDbEntity
  8
CURVE
100
AcDbLine
 62
253
  6
CONTINUOUS
 10
3.6018428612
 20
-26.9070461921
 11
3.5278728129
 21
-27.085769575
  0
LINE
  5
427
100
AcDbEntity
  8
CURVE
100
AcDbLine
 62
253
  6
CONTINUOUS
 10
3.9466307712
 20
-26.9666206531
 11
3.872660723
 21
-27.145344036
  0
LINE
  5
428
100
AcDbEntity
  8
CURVE
100
AcDbLine
 62
253
  6
CONTINUOUS
 10
-9.8887934087
 20
-27.085769575
 11
-10.0158843109
 21
-27.204918497
  0
LINE
  5
429
100
AcDbEntity
  8
CURVE
100
AcDbLine
 62
253
  6
CONTINUOUS
 10
-10.1253382113
 20
-28.4559823028
 11
-9.9982473054
 21
-28.3368333391
  0
LINE
  5
42A
100
AcDbEntity
  8
CURVE
100
AcDbLine
 62
253
  6
CONTINUOUS
 10
-5.7324910237
 20
-26.2517269544
 11
-5.9866724944
 21
-26.4900247983
  0
LINE
  5
42B
100
AcDbEntity
  8
0
100
AcDbLine
 62
7
  6
CONTINUOUS
 10
21.3072168775
 20
-27.8516605714
 11
21.0261118775
 21
-26.9761215714
  0
LINE
  5
42C
100
AcDbEntity
  8
ASSI
100
AcDbLine
 62
7
  6
CONTINUOUS
 10
21.3072168775
 20
-27.8516605714
 11
21.0261118775
 21
-26.9761215714
  0
LINE
  5
42D
100
AcDbEntity
  8
0
100
AcDbLine
 62
7
  6
CONTINUOUS
 10
21.6672518775
 20
-28.9730105714
 11
21.4841458775
 21
-28.4026825714
  0
LINE
  5
42E
100
AcDbEntity
  8
ASSI
100
AcDbLine
 62
7
  6
CONTINUOUS
 10
21.6672518775
 20
-28.9730105714
 11
21.4841458775
 21
-28.4026825714
  0
LINE
  5
42F
100
AcDbEntity
  8
0
100
AcDbLine
 62
7
  6
CONTINUOUS
 10
21.3161408775
 20
-26.0728805714
 11
22.2472808775
 21
-28.9730185714
  0
LINE
  5
430
100
AcDbEntity
  8
ASSI
100
AcDbLine
 62
7
  6
CONTINUOUS
 10
21.3161408775
 20
-26.0728805714
 11
22.2472808775
 21
-28.9730185714
  0
LINE
  5
431
100
AcDbEntity
  8
0
100
AcDbLine
 62
7
  6
CONTINUOUS
 10
16.0014778775
 20
-26.0728875714
 11
16.0014708775
 21
-28.9730185714
  0
LINE
  5
432
100
AcDbEntity
  8
ASSI
100
AcDbLine
 62
7
  6
CONTINUOUS
 10
16.0014778775
 20
-26.0728875714
 11
16.0014708775
 21
-28.9730185714
  0
LINE
  5
433
100
AcDbEntity
  8
0
100
AcDbLine
 62
7
  6
CONTINUOUS
 10
16.5814778775
 20
-28.9730185714
 11
16.5814778775
 21
-26.0728875714
  0
LINE
  5
434
100
AcDbEntity
  8
ASSI
100
AcDbLine
 62
7
  6
CONTINUOUS
 10
16.5814778775
 20
-28.9730185714
 11
16.5814778775
 21
-26.0728875714
  0
LINE
  5
435
100
AcDbEntity
  8
0
100
AcDbLine
 62
7
  6
CONTINUOUS
 10
17.1614998775
 20
-27.0605765714
 11
17.1614998775
 21
-28.9730185714
  0
LINE
  5
436
100
AcDbEntity
  8
ASSI
100
AcDbLine
 62
7
  6
CONTINUOUS
 10
17.1614998775
 20
-27.0605765714
 11
17.1614998775
 21
-28.9730185714
  0
LINE
  5
437
100
AcDbEntity
  8
0
100
AcDbLine
 62
7
  6
CONTINUOUS
 10
18.8382648775
 20
-28.9730185714
 11
18.8382578775
 21
-27.0605765714
  0
LINE
  5
438
100
AcDbEntity
  8
ASSI
100
AcDbLine
 62
7
  6
CONTINUOUS
 10
18.8382648775
 20
-28.9730185714
 11
18.8382578775
 21
-27.0605765714
  0
LINE
  5
439
100
AcDbEntity
  8
CURVE
100
AcDbLine
 62
253
  6
CONTINUOUS
 10
6.5122975539
 20
-26.3113014154
 11
5.8465711028
 21
-27.9198121122
  0
LINE
  5
43A
100
AcDbEntity
  8
CURVE
100
AcDbLine
 62
253
  6
CONTINUOUS
 10
5.4715100992
 20
-28.8730035714
 11
5.7673889645
 21
-28.1581099562
  0
LINE
  5
43B
100
AcDbEntity
  8
CURVE
100
AcDbLine
 62
253
  6
CONTINUOUS
 10
6.2998121354
 20
-26.0730035714
 11
5.1215100992
 21
-28.8730035714
  0
LINE
  5
43C
100
AcDbEntity
  8
CURVE
100
AcDbLine
 62
253
  6
CONTINUOUS
 10
-4.3711867399
 20
-28.6942801676
 11
-4.1170045998
 21
-28.4559823028
  0
LINE
  5
43D
100
AcDbEntity
  8
CURVE
100
AcDbLine
 62
253
  6
CONTINUOUS
 10
-10.0982773097
 20
-28.8134291052
 11
-9.8493077607
 21
-28.6347057066
  0
LINE
  5
43E
100
AcDbEntity
  8
CURVE
100
AcDbLine
 62
253
  6
CONTINUOUS
 10
-5.6470966743
 20
-26.6091737203
 11
-5.4616724944
 21
-26.4900247983
  0
LWPOLYLINE
  5
43F
100
AcDbEntity
  8
RACCORDO
100
AcDbPolyline
 62
253
  6
CONTINUOUS
 90
3
 70
0
 10
22.1531614641
 20
23.936294471
 10
22.1554349353
 20
23.8489797261
 10
22.157231465
 20
23.7558043584
  0
LWPOLYLINE
  5
440
100
AcDbEntity
  8
ASSI
100
AcDbPolyline
 62
253
  6
CONTINUOUS
 90
3
 70
0
 10
22.1531614641
 20
23.936294471
 10
22.1554349353
 20
23.8489797261
 10
22.157231465
 20
23.7558043584
  0
LWPOLYLINE
  5
441
100
AcDbEntity
  8
RACCORDO
100
AcDbPolyline
 62
253
  6
CONTINUOUS
 90
4
 70
0
 10
22.157231465
 20
23.7558043584
 10
22.159631437
 20
23.5561150683
 10
22.1602926929
 20
23.4518443069
 10
22.1602769615
 20
23.3461725347
  0
LWPOLYLINE
  5
442
100
AcDbEntity
  8
ASSI
100
AcDbPolyline
 62
253
  6
CONTINUOUS
 90
4
 70
0
 10
22.157231465
 20
23.7558043584
 10
22.159631437
 20
23.5561150683
 10
22.1602926929
 20
23.4518443069
 10
22.1602769615
 20
23.3461725347
  0
LINE
  5
443
100
AcDbEntity
  8
RACCORDO
100
AcDbLine
 62
253
  6
CONTINUOUS
 10
22.1600206431
 20
-23.6921794687
 11
22.1565429998
 21
-23.2791541199
  0
LINE
  5
444
100
AcDbEntity
  8
ASSI
100
AcDbLine
 62
253
  6
CONTINUOUS
 10
22.1600206431
 20
-23.6921794687
 11
22.1565429998
 21
-23.2791541199
  0
LINE
  5
445
100
AcDbEntity
  8
RACCORDO
100
AcDbLine
 62
253
  6
CONTINUOUS
 10
22.1579597802
 20
23.9363033063
 11
22.1449570354
 21
25.529220266
  0
LINE
  5
446
100
AcDbEntity
  8
ASSI
100
AcDbLine
 62
253
  6
CONTINUOUS
 10
22.1579597802
 20
23.9363033063
 11
22.1449570354
 21
25.529220266
  0
LINE
  5
447
100
AcDbEntity
  8
RACCORDO
100
AcDbLine
 62
253
  6
CONTINUOUS
 10
22.1565429998
 20
-23.2791541199
 11
22.1552002205
 21
-22.9358760527
  0
LINE
  5
448
100
AcDbEntity
  8
ASSI
100
AcDbLine
 62
253
  6
CONTINUOUS
 10
22.1565429998
 20
-23.2791541199
 11
22.1552002205
 21
-22.9358760527
  0
LINE
  5
449
100
AcDbEntity
  8
RACCORDO
100
AcDbLine
 62
253
  6
CONTINUOUS
 10
22.1600394588
 20
-23.7978511037
 11
22.1600206431
 21
-23.6921794687
  0
LINE
  5
44A
100
AcDbEntity
  8
ASSI
100
AcDbLine
 62
253
  6
CONTINUOUS
 10
22.1600394588
 20
-23.7978511037
 11
22.1600206431
 21
-23.6921794687
  0
LINE
  5
44B
100
AcDbEntity
  8
0
100
AcDbLine
 62
7
  6
CONTINUOUS
 10
19.4182868775
 20
-26.0728875714
 11
19.4182868775
 21
-28.9730185714
  0
LINE
  5
44C
100
AcDbEntity
  8
ASSI
100
AcDbLine
 62
7
  6
CONTINUOUS
 10
19.4182868775
 20
-26.0728875714
 11
19.4182868775
 21
-28.9730185714
  0
LINE
  5
44D
100
AcDbEntity
  8
0
100
AcDbLine
 62
7
  6
CONTINUOUS
 10
22.4548438776
 20
22.0269964286
 11
22.4548438776
 21
-22.3730035714
  0
LINE
  5
44E
100
AcDbEntity
  8
ASSI
100
AcDbLine
 62
7
  6
CONTINUOUS
 10
22.4548438776
 20
22.0269964286
 11
22.4548438776
 21
-22.3730035714
  0
LINE
  5
44F
100
AcDbEntity
  8
0
100
AcDbLine
 62
7
  6
CONTINUOUS
 10
22.6339588775
 20
-28.9730105714
 11
22.6339588775
 21
-26.0728805714
  0
LINE
  5
450
100
AcDbEntity
  8
ASSI
100
AcDbLine
 62
7
  6
CONTINUOUS
 10
22.6339588775
 20
-28.9730105714
 11
22.6339588775
 21
-26.0728805714
  0
LWPOLYLINE
  5
451
100
AcDbEntity
  8
RACCORDO
100
AcDbPolyline
 62
253
  6
CONTINUOUS
 90
3
 70
0
 10
22.1552002205
 20
-22.9358760527
 10
22.1549162059
 20
-22.678616039
 10
22.1549338242
 20
-22.6730035579
  0
LWPOLYLINE
  5
452
100
AcDbEntity
  8
ASSI
100
AcDbPolyline
 62
253
  6
CONTINUOUS
 90
3
 70
0
 10
22.1552002205
 20
-22.9358760527
 10
22.1549162059
 20
-22.678616039
 10
22.1549338242
 20
-22.6730035579
  0
LINE
  5
453
100
AcDbEntity
  8
RACCORDO
100
AcDbLine
 62
253
  6
CONTINUOUS
 10
22.155955221
 20
22.838108659
 11
22.1548438785
 21
22.3269964286
  0
LINE
  5
454
100
AcDbEntity
  8
ASSI
100
AcDbLine
 62
253
  6
CONTINUOUS
 10
22.155955221
 20
22.838108659
 11
22.1548438785
 21
22.3269964286
  0
LINE
  5
455
100
AcDbEntity
  8
RACCORDO
100
AcDbLine
 62
253
  6
CONTINUOUS
 10
22.1602769615
 20
23.3461725347
 11
22.155955221
 21
22.838108659
  0
LINE
  5
456
100
AcDbEntity
  8
ASSI
100
AcDbLine
 62
253
  6
CONTINUOUS
 10
22.1602769615
 20
23.3461725347
 11
22.155955221
 21
22.838108659
  0
LINE
  5
457
100
AcDbEntity
  8
RACCORDO
100
AcDbLine
 62
253
  6
CONTINUOUS
 10
22.1578863563
 20
-24.2823021794
 11
22.1401847136
 21
-25.8752697593
  0
LINE
  5
458
100
AcDbEntity
  8
ASSI
100
AcDbLine
 62
253
  6
CONTINUOUS
 10
22.1578863563
 20
-24.2823021794
 11
22.1401847136
 21
-25.8752697593
  0
LWPOLYLINE
  5
459
100
AcDbEntity
  8
RACCORDO
100
AcDbPolyline
 62
253
  6
CONTINUOUS
 90
5
 70
0
 10
22.1531505827
 20
-24.2823017845
 10
22.1553916881
 20
-24.1949866496
 10
22.1571499822
 20
-24.1018110056
 10
22.1584527426
 20
-24.0038221326
 10
22.1600394588
 20
-23.7978511037
  0
LWPOLYLINE
  5
45A
100
AcDbEntity
  8
ASSI
100
AcDbPolyline
 62
253
  6
CONTINUOUS
 90
5
 70
0
 10
22.1531505827
 20
-24.2823017845
 10
22.1553916881
 20
-24.1949866496
 10
22.1571499822
 20
-24.1018110056
 10
22.1584527426
 20
-24.0038221326
 10
22.1600394588
 20
-23.7978511037
  0
LINE
  5
45B
100
AcDbEntity
  8
0
100
AcDbLine
 62
7
  6
CONTINUOUS
 10
13.8136238775
 20
-28.0697835714
 11
14.4547488775
 21
-26.0728875714
  0
LINE
  5
45C
100
AcDbEntity
  8
ASSI
100
AcDbLine
 62
7
  6
CONTINUOUS
 10
13.8136238775
 20
-28.0697835714
 11
14.4547488775
 21
-26.0728875714
  0
LINE
  5
45D
100
AcDbEntity
  8
0
100
AcDbLine
 62
7
  6
CONTINUOUS
 10
15.0347778775
 20
-26.0728875714
 11
14.1036378775
 21
-28.9730185714
  0
LINE
  5
45E
100
AcDbEntity
  8
ASSI
100
AcDbLine
 62
7
  6
CONTINUOUS
 10
15.0347778775
 20
-26.0728875714
 11
14.1036378775
 21
-28.9730185714
  0
LINE
  5
45F
100
AcDbEntity
  8
CURVE
100
AcDbLine
 62
253
  6
CONTINUOUS
 10
3.872660723
 20
-27.145344036
 11
3.6768123631
 21
-27.38364188
  0
LINE
  5
460
100
AcDbEntity
  8
CURVE
100
AcDbLine
 62
253
  6
CONTINUOUS
 10
3.5278728129
 20
-27.085769575
 11
3.4007824114
 21
-27.204918497
  0
LINE
  5
461
100
AcDbEntity
  8
CURVE
100
AcDbLine
 62
253
  6
CONTINUOUS
 10
-4.4565804162
 20
-28.3368333391
 11
-4.6420045998
 21
-28.4559823028
  0
LINE
  5
462
100
AcDbEntity
  8
CURVE
100
AcDbLine
 62
253
  6
CONTINUOUS
 10
-9.8617326708
 20
-27.4432163409
 11
-9.7398538586
 21
-27.38364188
  0
LINE
  5
463
100
AcDbEntity
  8
CURVE
100
AcDbLine
 62
253
  6
CONTINUOUS
 10
-5.4887330654
 20
-26.1325780324
 11
-5.7324910237
 21
-26.2517269544
  0
LINE
  5
464
100
AcDbEntity
  8
CURVE
100
AcDbLine
 62
253
  6
CONTINUOUS
 10
-10.0158843109
 20
-27.204918497
 11
-10.1960964009
 21
-27.264492958
  0
LINE
  5
465
100
AcDbEntity
  8
RACCORDO
100
AcDbLine
 62
253
  6
CONTINUOUS
 10
-24.0690575639
 20
22.0268023684
 11
-24.4738860369
 21
22.019974088
  0
LINE
  5
466
100
AcDbEntity
  8
ASSI
100
AcDbLine
 62
253
  6
CONTINUOUS
 10
-24.0690575639
 20
22.0268023684
 11
-24.4738860369
 21
22.019974088
  0
LWPOLYLINE
  5
467
100
AcDbEntity
  8
RACCORDO
100
AcDbPolyline
 62
253
  6
CONTINUOUS
 90
3
 70
0
 10
-24.0690575639
 20
22.0268023684
 10
-23.9758978585
 20
22.0280624988
 10
-23.8778921193
 20
22.0288934608
  0
LWPOLYLINE
  5
468
100
AcDbEntity
  8
ASSI
100
AcDbPolyline
 62
253
  6
CONTINUOUS
 90
3
 70
0
 10
-24.0690575639
 20
22.0268023684
 10
-23.9758978585
 20
22.0280624988
 10
-23.8778921193
 20
22.0288934608
  0
LINE
  5
469
100
AcDbEntity
  8
RACCORDO
100
AcDbLine
 62
253
  6
CONTINUOUS
 10
-24.4738860369
 20
22.019974088
 11
-25.7426948358
 21
22.0030730261
  0
LINE
  5
46A
100
AcDbEntity
  8
ASSI
100
AcDbLine
 62
253
  6
CONTINUOUS
 10
-24.4738860369
 20
22.019974088
 11
-25.7426948358
 21
22.0030730261
  0
LINE
  5
46B
100
AcDbEntity
  8
0
100
AcDbLine
 62
7
  6
CONTINUOUS
 10
-22.2451561224
 20
22.3269964286
 11
22.1548438776
 21
22.3269964286
  0
LINE
  5
46C
100
AcDbEntity
  8
ASSI
100
AcDbLine
 62
7
  6
CONTINUOUS
 10
-22.2451561224
 20
22.3269964286
 11
22.1548438776
 21
22.3269964286
  0
LWPOLYLINE
  5
46D
100
AcDbEntity
  8
RACCORDO
100
AcDbPolyline
 62
253
  6
CONTINUOUS
 90
3
 70
0
 10
22.8772344409
 20
22.027859431
 10
22.4604683274
 20
22.027081104
 10
22.4548438591
 20
22.0271017756
  0
LWPOLYLINE
  5
46E
100
AcDbEntity
  8
ASSI
100
AcDbPolyline
 62
253
  6
CONTINUOUS
 90
3
 70
0
 10
22.8772344409
 20
22.027859431
 10
22.4604683274
 20
22.027081104
 10
22.4548438591
 20
22.0271017756
  0
LINE
  5
46F
100
AcDbEntity
  8
RACCORDO
100
AcDbLine
 62
253
  6
CONTINUOUS
 10
-23.8778921193
 20
22.0288934608
 11
-23.2520600798
 21
22.0298858125
  0
LINE
  5
470
100
AcDbEntity
  8
ASSI
100
AcDbLine
 62
253
  6
CONTINUOUS
 10
-23.8778921193
 20
22.0288934608
 11
-23.2520600798
 21
22.0298858125
  0
LINE
  5
471
100
AcDbEntity
  8
RACCORDO
100
AcDbLine
 62
253
  6
CONTINUOUS
 10
-22.9675467147
 20
22.0278491197
 11
-22.5451561224
 21
22.0269964287
  0
LINE
  5
472
100
AcDbEntity
  8
ASSI
100
AcDbLine
 62
253
  6
CONTINUOUS
 10
-22.9675467147
 20
22.0278491197
 11
-22.5451561224
 21
22.0269964287
  0
LWPOLYLINE
  5
473
100
AcDbEntity
  8
RACCORDO
100
AcDbPolyline
 62
253
  6
CONTINUOUS
 90
4
 70
0
 10
23.4757119678
 20
22.0289863202
 10
23.2646570306
 20
22.0299282438
 10
23.1617478398
 20
22.0299305788
 10
22.8772344409
 20
22.027859431
  0
LWPOLYLINE
  5
474
100
AcDbEntity
  8
ASSI
100
AcDbPolyline
 62
253
  6
CONTINUOUS
 90
4
 70
0
 10
23.4757119678
 20
22.0289863202
 10
23.2646570306
 20
22.0299282438
 10
23.1617478398
 20
22.0299305788
 10
22.8772344409
 20
22.027859431
  0
LINE
  5
475
100
AcDbEntity
  8
RACCORDO
100
AcDbLine
 62
253
  6
CONTINUOUS
 10
-23.2520600798
 20
22.0298858125
 11
-22.9675467147
 21
22.0278491197
  0
LINE
  5
476
100
AcDbEntity
  8
ASSI
100
AcDbLine
 62
253
  6
CONTINUOUS
 10
-23.2520600798
 20
22.0298858125
 11
-22.9675467147
 21
22.0278491197
  0
LINE
  5
477
100
AcDbEntity
  8
RACCORDO
100
AcDbLine
 62
253
  6
CONTINUOUS
 10
24.2213667459
 20
22.0224994285
 11
25.6523827834
 21
22.0030314261
  0
LINE
  5
478
100
AcDbEntity
  8
ASSI
100
AcDbLine
 62
253
  6
CONTINUOUS
 10
24.2213667459
 20
22.0224994285
 11
25.6523827834
 21
22.0030314261
  0
LWPOLYLINE
  5
479
100
AcDbEntity
  8
RACCORDO
100
AcDbPolyline
 62
253
  6
CONTINUOUS
 90
5
 70
0
 10
24.2213667459
 20
22.0224994285
 10
23.9787448939
 20
22.026712383
 10
23.8855850118
 20
22.0279118308
 10
23.7875792032
 20
22.0286903148
 10
23.4757119678
 20
22.0289863202
  0
LWPOLYLINE
  5
47A
100
AcDbEntity
  8
ASSI
100
AcDbPolyline
 62
253
  6
CONTINUOUS
 90
5
 70
0
 10
24.2213667459
 20
22.0224994285
 10
23.9787448939
 20
22.026712383
 10
23.8855850118
 20
22.0279118308
 10
23.7875792032
 20
22.0286903148
 10
23.4757119678
 20
22.0289863202
  0
LINE
  5
47B
100
AcDbEntity
  8
RACCORDO
100
AcDbLine
 62
253
  6
CONTINUOUS
 10
25.6523827834
 20
22.0030314261
 11
25.6704926449
 21
14.1454997113
  0
LINE
  5
47C
100
AcDbEntity
  8
ASSI
100
AcDbLine
 62
253
  6
CONTINUOUS
 10
25.6523827834
 20
22.0030314261
 11
25.6704926449
 21
14.1454997113
  0
LINE
  5
47D
100
AcDbEntity
  8
RACCORDO
100
AcDbLine
 62
253
  6
CONTINUOUS
 10
25.6704926449
 20
14.1454997113
 11
25.6763168483
 21
6.9761625407
  0
LINE
  5
47E
100
AcDbEntity
  8
ASSI
100
AcDbLine
 62
253
  6
CONTINUOUS
 10
25.6704926449
 20
14.1454997113
 11
25.6763168483
 21
6.9761625407
  0
LINE
  5
47F
100
AcDbEntity
  8
0
100
AcDbLine
 62
7
  6
CONTINUOUS
 10
23.2059838775
 20
-26.6094015714
 11
23.2059918775
 21
-27.3151315714
  0
LINE
  5
480
100
AcDbEntity
  8
ASSI
100
AcDbLine
 62
7
  6
CONTINUOUS
 10
23.2059838775
 20
-26.6094015714
 11
23.2059918775
 21
-27.3151315714
  0
LINE
  5
481
100
AcDbEntity
  8
0
100
AcDbLine
 62
7
  6
CONTINUOUS
 10
23.2140538775
 20
-27.8516535714
 11
23.2139878775
 21
-28.9730105714
  0
LINE
  5
482
100
AcDbEntity
  8
ASSI
100
AcDbLine
 62
7
  6
CONTINUOUS
 10
23.2140538775
 20
-27.8516535714
 11
23.2139878775
 21
-28.9730105714
  0
LINE
  5
483
100
AcDbEntity
  8
RACCORDO
100
AcDbLine
 62
253
  6
CONTINUOUS
 10
25.6763168483
 20
6.9761625407
 11
25.6719606111
 21
-13.4199631219
  0
LINE
  5
484
100
AcDbEntity
  8
ASSI
100
AcDbLine
 62
253
  6
CONTINUOUS
 10
25.6763168483
 20
6.9761625407
 11
25.6719606111
 21
-13.4199631219
  0
LINE
  5
485
100
AcDbEntity
  8
RACCORDO
100
AcDbLine
 62
253
  6
CONTINUOUS
 10
25.6719606111
 20
-13.4199631219
 11
25.6623520253
 21
-18.39822171
  0
LINE
  5
486
100
AcDbEntity
  8
ASSI
100
AcDbLine
 62
253
  6
CONTINUOUS
 10
25.6719606111
 20
-13.4199631219
 11
25.6623520253
 21
-18.39822171
  0
LINE
  5
487
100
AcDbEntity
  8
RACCORDO
100
AcDbLine
 62
253
  6
CONTINUOUS
 10
24.0660098367
 20
22.0250537445
 11
24.0660099983
 21
-22.3710823982
  0
LINE
  5
488
100
AcDbEntity
  8
ASSI
100
AcDbLine
 62
253
  6
CONTINUOUS
 10
24.0660098367
 20
22.0250537445
 11
24.0660099983
 21
-22.3710823982
  0
LINE
  5
489
100
AcDbEntity
  8
RACCORDO
100
AcDbLine
 62
253
  6
CONTINUOUS
 10
25.6623520253
 20
-18.39822171
 11
25.6523825919
 21
-22.3490801691
  0
LINE
  5
48A
100
AcDbEntity
  8
ASSI
100
AcDbLine
 62
253
  6
CONTINUOUS
 10
25.6623520253
 20
-18.39822171
 11
25.6523825919
 21
-22.3490801691
  0
LWPOLYLINE
  5
48B
100
AcDbEntity
  8
RACCORDO
100
AcDbPolyline
 62
253
  6
CONTINUOUS
 90
94
 70
0
 10
24.0660102852
 20
-22.3710824538
 10
24.065810046
 20
-22.4105166697
 10
24.0648128744
 20
-22.4486523309
 10
24.0630962831
 20
-22.4854741555
 10
24.060734202
 20
-22.5209459028
 10
24.0578014456
 20
-22.5550820426
 10
24.0543693294
 20
-22.5879476984
 10
24.0505076924
 20
-22.6194988359
 10
24.0462735289
 20
-22.6497724479
 10
24.0417023524
 20
-22.6789573651
 10
24.036846053
 20
-22.7070367623
 10
24.031748004
 20
-22.7340278748
 10
24.0264089162
 20
-22.7601698053
 10
24.0208615635
 20
-22.7854699882
 10
24.0151387651
 20
-22.809923562
 10
24.0092208885
 20
-22.8337486669
 10
24.0031306475
 20
-22.8569493014
 10
23.9968890676
 20
-22.8795237223
 10
23.9904570297
 20
-22.9016780938
 10
23.9838653882
 20
-22.9233516206
 10
23.9771110387
 20
-22.9446055791
 10
23.9700825382
 20
-22.9658232425
 10
23.9627732205
 20
-22.9870074603
 10
23.9551884186
 20
-23.0081475011
 10
23.9472085803
 20
-23.0295978398
 10
23.9388111731
 20
-23.0513792457
 10
23.9299913511
 20
-23.073453364
 10
23.9206332388
 20
-23.0960774525
 10
23.9106883522
 20
-23.1192992928
 10
23.9001552636
 20
-23.1430414701
 10
23.8889748119
 20
-23.1673669173
 10
23.8770988039
 20
-23.1922976388
 10
23.8645167976
 20
-23.2177726806
 10
23.8512242762
 20
-23.2437283736
 10
23.8371901185
 20
-23.2701498923
 10
23.8223895948
 20
-23.2970080141
 10
23.8068323277
 20
-23.3242183819
 10
23.7904934214
 20
-23.3517574448
 10
23.7733474863
 20
-23.3796006983
 10
23.7554094294
 20
-23.4076642438
 10
23.7366570425
 20
-23.435923858
 10
23.7170691127
 20
-23.4643524346
 10
23.6966686599
 20
-23.4928643331
 10
23.6754392135
 20
-23.5214321844
 10
23.653362364
 20
-23.5500301801
 10
23.6304651002
 20
-23.5785782227
 10
23.6067333846
 20
-23.6070510614
 10
23.5821552615
 20
-23.6354198193
 10
23.556767928
 20
-23.6636028818
 10
23.5304795636
 20
-23.6916618747
 10
23.5033625666
 20
-23.7194786249
 10
23.4757237759
 20
-23.7467221596
 10
23.4474890851
 20
-23.7734653525
 10
23.4187542145
 20
-23.7996142829
 10
23.3901328461
 20
-23.8246422662
 10
23.361740965
 20
-23.8485191896
 10
23.3335500823
 20
-23.8713344475
 10
23.3060058206
 20
-23.8927995863
 10
23.2793604801
 20
-23.9128247551
 10
23.2534720487
 20
-23.9316085006
 10
23.2282023658
 20
-23.9493075156
 10
23.2036903498
 20
-23.9658917816
 10
23.1798740815
 20
-23.9814740082
 10
23.1562906488
 20
-23.9963930734
 10
23.132976338
 20
-24.0106533667
 10
23.109931874
 20
-24.0242850449
 10
23.0866118169
 20
-24.037620352
 10
23.0629668284
 20
-24.0506760145
 10
23.0390525493
 20
-24.0634212905
 10
23.0144572689
 20
-24.0760762559
 10
22.9891230663
 20
-24.0886426196
 10
22.9630957658
 20
-24.1010675581
 10
22.9361035703
 20
-24.1134587983
 10
22.9081457603
 20
-24.1257768377
 10
22.8792025399
 20
-24.1379814235
 10
22.8489619097
 20
-24.1501501293
 10
22.8172787226
 20
-24.1622710221
 10
22.7842688636
 20
-24.1742290756
 10
22.7500089757
 20
-24.1859331976
 10
22.7143076066
 20
-24.1973776555
 10
22.6773385722
 20
-24.2084326436
 10
22.6397421652
 20
-24.2188609532
 10
22.6015609037
 20
-24.2286308146
 10
22.5627690664
 20
-24.2377162686
 10
22.5239267783
 20
-24.2459611485
 10
22.4853570286
 20
-24.2533219234
 10
22.4467759545
 20
-24.2598643299
 10
22.4078404085
 20
-24.2656086128
 10
22.3689585541
 20
-24.2704863434
 10
22.3297583675
 20
-24.2745495799
 10
22.2887164099
 20
-24.2778817831
 10
22.2453312786
 20
-24.2803884944
 10
22.2001345112
 20
-24.2819039196
 10
22.1531505827
 20
-24.2823017845
  0
LWPOLYLINE
  5
48C
100
AcDbEntity
  8
ASSI
100
AcDbPolyline
 62
253
  6
CONTINUOUS
 90
94
 70
0
 10
24.0660102852
 20
-22.3710824538
 10
24.065810046
 20
-22.4105166697
 10
24.0648128744
 20
-22.4486523309
 10
24.0630962831
 20
-22.4854741555
 10
24.060734202
 20
-22.5209459028
 10
24.0578014456
 20
-22.5550820426
 10
24.0543693294
 20
-22.5879476984
 10
24.0505076924
 20
-22.6194988359
 10
24.0462735289
 20
-22.6497724479
 10
24.0417023524
 20
-22.6789573651
 10
24.036846053
 20
-22.7070367623
 10
24.031748004
 20
-22.7340278748
 10
24.0264089162
 20
-22.7601698053
 10
24.0208615635
 20
-22.7854699882
 10
24.0151387651
 20
-22.809923562
 10
24.0092208885
 20
-22.8337486669
 10
24.0031306475
 20
-22.8569493014
 10
23.9968890676
 20
-22.8795237223
 10
23.9904570297
 20
-22.9016780938
 10
23.9838653882
 20
-22.9233516206
 10
23.9771110387
 20
-22.9446055791
 10
23.9700825382
 20
-22.9658232425
 10
23.9627732205
 20
-22.9870074603
 10
23.9551884186
 20
-23.0081475011
 10
23.9472085803
 20
-23.0295978398
 10
23.9388111731
 20
-23.0513792457
 10
23.9299913511
 20
-23.073453364
 10
23.9206332388
 20
-23.0960774525
 10
23.9106883522
 20
-23.1192992928
 10
23.9001552636
 20
-23.1430414701
 10
23.8889748119
 20
-23.1673669173
 10
23.8770988039
 20
-23.1922976388
 10
23.8645167976
 20
-23.2177726806
 10
23.8512242762
 20
-23.2437283736
 10
23.8371901185
 20
-23.2701498923
 10
23.8223895948
 20
-23.2970080141
 10
23.8068323277
 20
-23.3242183819
 10
23.7904934214
 20
-23.3517574448
 10
23.7733474863
 20
-23.3796006983
 10
23.7554094294
 20
-23.4076642438
 10
23.7366570425
 20
-23.435923858
 10
23.7170691127
 20
-23.4643524346
 10
23.6966686599
 20
-23.4928643331
 10
23.6754392135
 20
-23.5214321844
 10
23.653362364
 20
-23.5500301801
 10
23.6304651002
 20
-23.5785782227
 10
23.6067333846
 20
-23.6070510614
 10
23.5821552615
 20
-23.6354198193
 10
23.556767928
 20
-23.6636028818
 10
23.5304795636
 20
-23.6916618747
 10
23.5033625666
 20
-23.7194786249
 10
23.4757237759
 20
-23.7467221596
 10
23.4474890851
 20
-23.7734653525
 10
23.4187542145
 20
-23.7996142829
 10
23.3901328461
 20
-23.8246422662
 10
23.361740965
 20
-23.8485191896
 10
23.3335500823
 20
-23.8713344475
 10
23.3060058206
 20
-23.8927995863
 10
23.2793604801
 20
-23.9128247551
 10
23.2534720487
 20
-23.9316085006
 10
23.2282023658
 20
-23.9493075156
 10
23.2036903498
 20
-23.9658917816
 10
23.1798740815
 20
-23.9814740082
 10
23.1562906488
 20
-23.9963930734
 10
23.132976338
 20
-24.0106533667
 10
23.109931874
 20
-24.0242850449
 10
23.0866118169
 20
-24.037620352
 10
23.0629668284
 20
-24.0506760145
 10
23.0390525493
 20
-24.0634212905
 10
23.0144572689
 20
-24.0760762559
 10
22.9891230663
 20
-24.0886426196
 10
22.9630957658
 20
-24.1010675581
 10
22.9361035703
 20
-24.1134587983
 10
22.9081457603
 20
-24.1257768377
 10
22.8792025399
 20
-24.1379814235
 10
22.8489619097
 20
-24.1501501293
 10
22.8172787226
 20
-24.1622710221
 10
22.7842688636
 20
-24.1742290756
 10
22.7500089757
 20
-24.1859331976
 10
22.7143076066
 20
-24.1973776555
 10
22.6773385722
 20
-24.2084326436
 10
22.6397421652
 20
-24.2188609532
 10
22.6015609037
 20
-24.2286308146
 10
22.5627690664
 20
-24.2377162686
 10
22.5239267783
 20
-24.2459611485
 10
22.4853570286
 20
-24.2533219234
 10
22.4467759545
 20
-24.2598643299
 10
22.4078404085
 20
-24.2656086128
 10
22.3689585541
 20
-24.2704863434
 10
22.3297583675
 20
-24.2745495799
 10
22.2887164099
 20
-24.2778817831
 10
22.2453312786
 20
-24.2803884944
 10
22.2001345112
 20
-24.2819039196
 10
22.1531505827
 20
-24.2823017845
  0
LWPOLYLINE
  5
48D
100
AcDbEntity
  8
RACCORDO
100
AcDbPolyline
 62
253
  6
CONTINUOUS
 90
20
 70
0
 10
25.6523825908
 20
-22.349080169
 10
25.6514018526
 20
-22.425252317
 10
25.648852593
 20
-22.4988947043
 10
25.6448944949
 20
-22.5699765341
 10
25.6396912193
 20
-22.6384287941
 10
25.6333843012
 20
-22.7042849929
 10
25.6260839244
 20
-22.7676752149
 10
25.6179242848
 20
-22.8285204265
 10
25.6090303737
 20
-22.8868916752
 10
25.5994646903
 20
-22.9431449184
 10
25.5893262523
 20
-22.9972481655
 10
25.5787129139
 20
-23.0492289132
 10
25.567641069
 20
-23.0995307494
 10
25.5562061457
 20
-23.1481522224
 10
25.5444515361
 20
-23.1950986944
 10
25.5322728624
 20
-23.240818012
 10
25.5197185562
 20
-23.2853222167
 10
25.5068105843
 20
-23.3286616547
 10
25.4933600608
 20
-23.3713446301
 10
25.4791522595
 20
-23.4134135577
  0
LWPOLYLINE
  5
48E
100
AcDbEntity
  8
ASSI
100
AcDbPolyline
 62
253
  6
CONTINUOUS
 90
20
 70
0
 10
25.6523825908
 20
-22.349080169
 10
25.6514018526
 20
-22.425252317
 10
25.648852593
 20
-22.4988947043
 10
25.6448944949
 20
-22.5699765341
 10
25.6396912193
 20
-22.6384287941
 10
25.6333843012
 20
-22.7042849929
 10
25.6260839244
 20
-22.7676752149
 10
25.6179242848
 20
-22.8285204265
 10
25.6090303737
 20
-22.8868916752
 10
25.5994646903
 20
-22.9431449184
 10
25.5893262523
 20
-22.9972481655
 10
25.5787129139
 20
-23.0492289132
 10
25.567641069
 20
-23.0995307494
 10
25.5562061457
 20
-23.1481522224
 10
25.5444515361
 20
-23.1950986944
 10
25.5322728624
 20
-23.240818012
 10
25.5197185562
 20
-23.2853222167
 10
25.5068105843
 20
-23.3286616547
 10
25.4933600608
 20
-23.3713446301
 10
25.4791522595
 20
-23.4134135577
  0
LINE
  5
48F
100
AcDbEntity
  8
0
100
AcDbLine
 62
7
  6
CONTINUOUS
 10
17.9998828775
 20
-27.9615555714
 11
18.5414498775
 21
-26.0728875714
  0
LINE
  5
490
100
AcDbEntity
  8
ASSI
100
AcDbLine
 62
7
  6
CONTINUOUS
 10
17.9998828775
 20
-27.9615555714
 11
18.5414498775
 21
-26.0728875714
  0
LINE
  5
491
100
AcDbEntity
  8
0
100
AcDbLine
 62
7
  6
CONTINUOUS
 10
18.8382578775
 20
-27.0605765714
 11
18.2898828775
 21
-28.9730105714
  0
LINE
  5
492
100
AcDbEntity
  8
ASSI
100
AcDbLine
 62
7
  6
CONTINUOUS
 10
18.8382578775
 20
-27.0605765714
 11
18.2898828775
 21
-28.9730105714
  0
LINE
  5
493
100
AcDbEntity
  8
CURVE
100
AcDbLine
 62
253
  6
CONTINUOUS
 10
-4.614944032
 20
-28.8134291052
 11
-4.3711867399
 21
-28.6942801676
  0
LINE
  5
494
100
AcDbEntity
  8
CURVE
100
AcDbLine
 62
253
  6
CONTINUOUS
 10
3.6768123631
 20
-27.38364188
 11
3.4330557399
 21
-27.5027908019
  0
LINE
  5
495
100
AcDbEntity
  8
CURVE
100
AcDbLine
 62
253
  6
CONTINUOUS
 10
-10.3055503013
 20
-28.5155567638
 11
-10.1253382113
 21
-28.4559823028
  0
LINE
  5
496
100
AcDbEntity
  8
CURVE
100
AcDbLine
 62
253
  6
CONTINUOUS
 10
3.4007824114
 20
-27.204918497
 11
3.2205703214
 21
-27.264492958
  0
LINE
  5
497
100
AcDbEntity
  8
RACCORDO
100
AcDbLine
 62
253
  6
CONTINUOUS
 10
-22.2304970452
 20
25.5292626157
 11
-20.0507017832
 21
25.5410250792
  0
LINE
  5
498
100
AcDbEntity
  8
ASSI
100
AcDbLine
 62
253
  6
CONTINUOUS
 10
-22.2304970452
 20
25.5292626157
 11
-20.0507017832
 21
25.5410250792
  0
LINE
  5
499
100
AcDbEntity
  8
RACCORDO
100
AcDbLine
 62
253
  6
CONTINUOUS
 10
-20.0507017832
 20
25.5410250792
 11
-16.6209396794
 21
25.5485954214
  0
LINE
  5
49A
100
AcDbEntity
  8
ASSI
100
AcDbLine
 62
253
  6
CONTINUOUS
 10
-20.0507017832
 20
25.5410250792
 11
-16.6209396794
 21
25.5485954214
  0
LINE
  5
49B
100
AcDbEntity
  8
RACCORDO
100
AcDbLine
 62
253
  6
CONTINUOUS
 10
-22.2481986914
 20
23.9362950368
 11
22.1579598555
 21
23.9362952409
  0
LINE
  5
49C
100
AcDbEntity
  8
ASSI
100
AcDbLine
 62
253
  6
CONTINUOUS
 10
-22.2481986914
 20
23.9362950368
 11
22.1579598555
 21
23.9362952409
  0
LINE
  5
49D
100
AcDbEntity
  8
RACCORDO
100
AcDbLine
 62
253
  6
CONTINUOUS
 10
-16.6209396794
 20
25.5485954214
 11
18.6382366949
 21
25.545077354
  0
LINE
  5
49E
100
AcDbEntity
  8
ASSI
100
AcDbLine
 62
253
  6
CONTINUOUS
 10
-16.6209396794
 20
25.5485954214
 11
18.6382366949
 21
25.545077354
  0
LINE
  5
49F
100
AcDbEntity
  8
RACCORDO
100
AcDbLine
 62
253
  6
CONTINUOUS
 10
18.6382366949
 20
25.545077354
 11
21.2023944144
 21
25.5355052579
  0
LINE
  5
4A0
100
AcDbEntity
  8
ASSI
100
AcDbLine
 62
253
  6
CONTINUOUS
 10
18.6382366949
 20
25.545077354
 11
21.2023944144
 21
25.5355052579
  0
LWPOLYLINE
  5
4A1
100
AcDbEntity
  8
RACCORDO
100
AcDbPolyline
 62
253
  6
CONTINUOUS
 90
82
 70
0
 10
22.1531614641
 20
23.936294471
 10
22.1981865582
 20
23.9359360544
 10
22.2414459426
 20
23.9345547087
 10
22.2829183189
 20
23.9322699212
 10
22.3220212949
 20
23.9292452814
 10
22.3593119189
 20
23.9255650658
 10
22.3964753778
 20
23.9211222368
 10
22.4339762285
 20
23.9158410225
 10
22.4713143269
 20
23.9097876652
 10
22.508717908
 20
23.9029534625
 10
22.5464125544
 20
23.8952830661
 10
22.5841356206
 20
23.8868046355
 10
22.6213896379
 20
23.8776499692
 10
22.6581502478
 20
23.867850412
 10
22.6944229787
 20
23.8574173777
 10
22.7297713646
 20
23.8465075102
 10
22.7640690015
 20
23.835209618
 10
22.7974458606
 20
23.8235294401
 10
22.829860209
 20
23.8115253953
 10
22.8612616039
 20
23.7992638108
 10
22.8917122995
 20
23.7867674769
 10
22.921339414
 20
23.7740237806
 10
22.9502046352
 20
23.7610446497
 10
22.978256898
 20
23.7478840449
 10
23.0054532641
 20
23.7345871287
 10
23.0316502311
 20
23.7212685773
 10
23.0570104733
 20
23.7078848877
 10
23.0819413292
 20
23.6942265349
 10
23.1063883912
 20
23.6803310817
 10
23.1304052914
 20
23.6661886474
 10
23.1545370598
 20
23.6514758064
 10
23.1787582119
 20
23.6361852258
 10
23.2030636802
 20
23.6203022859
 10
23.2279973516
 20
23.6034426498
 10
23.253637031
 20
23.5854858362
 10
23.279829865
 20
23.5664737078
 10
23.3067467042
 20
23.546228012
 10
23.3344989192
 20
23.5245749331
 10
23.3628663437
 20
23.5015826806
 10
23.3915236141
 20
23.4774401799
 10
23.4204652803
 20
23.4520779427
 10
23.4495990318
 20
23.4254957777
 10
23.4785009102
 20
23.3980267724
 10
23.5070863201
 20
23.3697173808
 10
23.5353800071
 20
23.3405072006
 10
23.5631563789
 20
23.3106066965
 10
23.5903741328
 20
23.280048789
 10
23.6170383054
 20
23.2488148271
 10
23.6430155325
 20
23.2170591595
 10
23.6682971449
 20
23.1847971
 10
23.6928739124
 20
23.1520439053
 10
23.7166310544
 20
23.1189689193
 10
23.7395711662
 20
23.0855942064
 10
23.7616957793
 20
23.0519419757
 10
23.7829089954
 20
23.0181950527
 10
23.8032256669
 20
22.984378917
 10
23.8226583836
 20
22.9505218796
 10
23.8411290894
 20
22.91682237
 10
23.8586555182
 20
22.8833270865
 10
23.8752718038
 20
22.8500487274
 10
23.8909427938
 20
22.8171425307
 10
23.9056614877
 20
22.7847337313
 10
23.9195055756
 20
22.7527559705
 10
23.9325656794
 20
22.7210749563
 10
23.9448179965
 20
22.689868268
 10
23.9563417182
 20
22.6590018052
 10
23.9673407526
 20
22.6278581255
 10
23.9777972714
 20
22.596456439
 10
23.9877147117
 20
22.5647956661
 10
23.9972613755
 20
22.5322073181
 10
24.0064053
 20
22.4986347467
 10
24.0150887573
 20
22.4641355644
 10
24.0233760546
 20
22.4281971216
 10
24.0311984711
 20
22.3907964418
 10
24.0384667936
 20
22.3519547549
 10
24.0451532792
 20
22.311218044
 10
24.0511547932
 20
22.2684948319
 10
24.0563322045
 20
22.2238870538
 10
24.0605556006
 20
22.1772332449
 10
24.0636776838
 20
22.1284947377
 10
24.0655477246
 20
22.0777566344
 10
24.0660101711
 20
22.025053774
  0
LWPOLYLINE
  5
4A2
100
AcDbEntity
  8
ASSI
100
AcDbPolyline
 62
253
  6
CONTINUOUS
 90
82
 70
0
 10
22.1531614641
 20
23.936294471
 10
22.1981865582
 20
23.9359360544
 10
22.2414459426
 20
23.9345547087
 10
22.2829183189
 20
23.9322699212
 10
22.3220212949
 20
23.9292452814
 10
22.3593119189
 20
23.9255650658
 10
22.3964753778
 20
23.9211222368
 10
22.4339762285
 20
23.9158410225
 10
22.4713143269
 20
23.9097876652
 10
22.508717908
 20
23.9029534625
 10
22.5464125544
 20
23.8952830661
 10
22.5841356206
 20
23.8868046355
 10
22.6213896379
 20
23.8776499692
 10
22.6581502478
 20
23.867850412
 10
22.6944229787
 20
23.8574173777
 10
22.7297713646
 20
23.8465075102
 10
22.7640690015
 20
23.835209618
 10
22.7974458606
 20
23.8235294401
 10
22.829860209
 20
23.8115253953
 10
22.8612616039
 20
23.7992638108
 10
22.8917122995
 20
23.7867674769
 10
22.921339414
 20
23.7740237806
 10
22.9502046352
 20
23.7610446497
 10
22.978256898
 20
23.7478840449
 10
23.0054532641
 20
23.7345871287
 10
23.0316502311
 20
23.7212685773
 10
23.0570104733
 20
23.7078848877
 10
23.0819413292
 20
23.6942265349
 10
23.1063883912
 20
23.6803310817
 10
23.1304052914
 20
23.6661886474
 10
23.1545370598
 20
23.6514758064
 10
23.1787582119
 20
23.6361852258
 10
23.2030636802
 20
23.6203022859
 10
23.2279973516
 20
23.6034426498
 10
23.253637031
 20
23.5854858362
 10
23.279829865
 20
23.5664737078
 10
23.3067467042
 20
23.546228012
 10
23.3344989192
 20
23.5245749331
 10
23.3628663437
 20
23.5015826806
 10
23.3915236141
 20
23.4774401799
 10
23.4204652803
 20
23.4520779427
 10
23.4495990318
 20
23.4254957777
 10
23.4785009102
 20
23.3980267724
 10
23.5070863201
 20
23.3697173808
 10
23.5353800071
 20
23.3405072006
 10
23.5631563789
 20
23.3106066965
 10
23.5903741328
 20
23.280048789
 10
23.6170383054
 20
23.2488148271
 10
23.6430155325
 20
23.2170591595
 10
23.6682971449
 20
23.1847971
 10
23.6928739124
 20
23.1520439053
 10
23.7166310544
 20
23.1189689193
 10
23.7395711662
 20
23.0855942064
 10
23.7616957793
 20
23.0519419757
 10
23.7829089954
 20
23.0181950527
 10
23.8032256669
 20
22.984378917
 10
23.8226583836
 20
22.9505218796
 10
23.8411290894
 20
22.91682237
 10
23.8586555182
 20
22.8833270865
 10
23.8752718038
 20
22.8500487274
 10
23.8909427938
 20
22.8171425307
 10
23.9056614877
 20
22.7847337313
 10
23.9195055756
 20
22.7527559705
 10
23.9325656794
 20
22.7210749563
 10
23.9448179965
 20
22.689868268
 10
23.9563417182
 20
22.6590018052
 10
23.9673407526
 20
22.6278581255
 10
23.9777972714
 20
22.596456439
 10
23.9877147117
 20
22.5647956661
 10
23.9972613755
 20
22.5322073181
 10
24.0064053
 20
22.4986347467
 10
24.0150887573
 20
22.4641355644
 10
24.0233760546
 20
22.4281971216
 10
24.0311984711
 20
22.3907964418
 10
24.0384667936
 20
22.3519547549
 10
24.0451532792
 20
22.311218044
 10
24.0511547932
 20
22.2684948319
 10
24.0563322045
 20
22.2238870538
 10
24.0605556006
 20
22.1772332449
 10
24.0636776838
 20
22.1284947377
 10
24.0655477246
 20
22.0777566344
 10
24.0660101711
 20
22.025053774
  0
LINE
  5
4A3
100
AcDbEntity
  8
RACCORDO
100
AcDbLine
 62
253
  6
CONTINUOUS
 10
21.2023944144
 20
25.5355052579
 11
22.1449569892
 21
25.5292266808
  0
LINE
  5
4A4
100
AcDbEntity
  8
ASSI
100
AcDbLine
 62
253
  6
CONTINUOUS
 10
21.2023944144
 20
25.5355052579
 11
22.1449569892
 21
25.5292266808
  0
LWPOLYLINE
  5
4A5
100
AcDbEntity
  8
RACCORDO
100
AcDbPolyline
 62
253
  6
CONTINUOUS
 90
65
 70
0
 10
22.1449570354
 20
25.529220266
 10
22.2280081737
 20
25.5273911302
 10
22.3086824521
 20
25.5237090627
 10
22.3870403833
 20
25.5183273823
 10
22.4624860439
 20
25.5114141104
 10
22.5355417733
 20
25.5031339532
 10
22.6078691859
 20
25.493519195
 10
22.6797219457
 20
25.4824930507
 10
22.7504092742
 20
25.4702590218
 10
22.8202295414
 20
25.4571374057
 10
22.8894674732
 20
25.4433531962
 10
22.9578697503
 20
25.4287564073
 10
23.0250416824
 20
25.4130834138
 10
23.0912478952
 20
25.3962138167
 10
23.1565902119
 20
25.3782672047
 10
23.2203322681
 20
25.3594298003
 10
23.2822334544
 20
25.3398327858
 10
23.3424900933
 20
25.3195198212
 10
23.4010475757
 20
25.2985828019
 10
23.4578414966
 20
25.2771221238
 10
23.5129424816
 20
25.2551980628
 10
23.5664482389
 20
25.2328593381
 10
23.6182253049
 20
25.2102728645
 10
23.6684566432
 20
25.1873903717
 10
23.7179115973
 20
25.1637953059
 10
23.766948528
 20
25.1392326216
 10
23.8156975023
 20
25.1137315594
 10
23.8642401559
 20
25.087427817
 10
23.9120148468
 20
25.0606898258
 10
23.9588847849
 20
25.0335498249
 10
24.0057353032
 20
25.0054895657
 10
24.0526110215
 20
24.9764807428
 10
24.0994782279
 20
24.9465012539
 10
24.1469528498
 20
24.9150363048
 10
24.1948647775
 20
24.8821342429
 10
24.2429657737
 20
24.8478979492
 10
24.2918567179
 20
24.8117197976
 10
24.3419957979
 20
24.7730924311
 10
24.3931771233
 20
24.7320467669
 10
24.4448793735
 20
24.6888557726
 10
24.4970796289
 20
24.6434164212
 10
24.54954325
 20
24.5957772128
 10
24.6014801794
 20
24.5465083674
 10
24.6527456963
 20
24.4956872943
 10
24.7033907739
 20
24.4432128725
 10
24.7529744209
 20
24.3894595456
 10
24.8014082938
 20
24.3345011016
 10
24.8487000404
 20
24.2783197514
 10
24.8945943049
 20
24.2211899814
 10
24.9390690379
 20
24.1631462059
 10
24.9821129996
 20
24.1042273705
 10
25.0235229039
 20
24.0447380676
 10
25.0633012691
 20
23.9847183089
 10
25.1014520041
 20
23.9242221296
 10
25.1378046168
 20
23.8636077473
 10
25.1723741525
 20
23.8029440565
 10
25.2051847697
 20
23.74229432
 10
25.2361346285
 20
23.6819935311
 10
25.2652802323
 20
23.6220797342
 10
25.2926750554
 20
23.5625918638
 10
25.3182011765
 20
23.5039811091
 10
25.3415573145
 20
23.4466987669
 10
25.3631312925
 20
23.3905543287
 10
25.3839797072
 20
23.3346241372
 10
25.4043176591
 20
23.2785141383
  0
LWPOLYLINE
  5
4A6
100
AcDbEntity
  8
ASSI
100
AcDbPolyline
 62
253
  6
CONTINUOUS
 90
65
 70
0
 10
22.1449570354
 20
25.529220266
 10
22.2280081737
 20
25.5273911302
 10
22.3086824521
 20
25.5237090627
 10
22.3870403833
 20
25.5183273823
 10
22.4624860439
 20
25.5114141104
 10
22.5355417733
 20
25.5031339532
 10
22.6078691859
 20
25.493519195
 10
22.6797219457
 20
25.4824930507
 10
22.7504092742
 20
25.4702590218
 10
22.8202295414
 20
25.4571374057
 10
22.8894674732
 20
25.4433531962
 10
22.9578697503
 20
25.4287564073
 10
23.0250416824
 20
25.4130834138
 10
23.0912478952
 20
25.3962138167
 10
23.1565902119
 20
25.3782672047
 10
23.2203322681
 20
25.3594298003
 10
23.2822334544
 20
25.3398327858
 10
23.3424900933
 20
25.3195198212
 10
23.4010475757
 20
25.2985828019
 10
23.4578414966
 20
25.2771221238
 10
23.5129424816
 20
25.2551980628
 10
23.5664482389
 20
25.2328593381
 10
23.6182253049
 20
25.2102728645
 10
23.6684566432
 20
25.1873903717
 10
23.7179115973
 20
25.1637953059
 10
23.766948528
 20
25.1392326216
 10
23.8156975023
 20
25.1137315594
 10
23.8642401559
 20
25.087427817
 10
23.9120148468
 20
25.0606898258
 10
23.9588847849
 20
25.0335498249
 10
24.0057353032
 20
25.0054895657
 10
24.0526110215
 20
24.9764807428
 10
24.0994782279
 20
24.9465012539
 10
24.1469528498
 20
24.9150363048
 10
24.1948647775
 20
24.8821342429
 10
24.2429657737
 20
24.8478979492
 10
24.2918567179
 20
24.8117197976
 10
24.3419957979
 20
24.7730924311
 10
24.3931771233
 20
24.7320467669
 10
24.4448793735
 20
24.6888557726
 10
24.4970796289
 20
24.6434164212
 10
24.54954325
 20
24.5957772128
 10
24.6014801794
 20
24.5465083674
 10
24.6527456963
 20
24.4956872943
 10
24.7033907739
 20
24.4432128725
 10
24.7529744209
 20
24.3894595456
 10
24.8014082938
 20
24.3345011016
 10
24.8487000404
 20
24.2783197514
 10
24.8945943049
 20
24.2211899814
 10
24.9390690379
 20
24.1631462059
 10
24.9821129996
 20
24.1042273705
 10
25.0235229039
 20
24.0447380676
 10
25.0633012691
 20
23.9847183089
 10
25.1014520041
 20
23.9242221296
 10
25.1378046168
 20
23.8636077473
 10
25.1723741525
 20
23.8029440565
 10
25.2051847697
 20
23.74229432
 10
25.2361346285
 20
23.6819935311
 10
25.2652802323
 20
23.6220797342
 10
25.2926750554
 20
23.5625918638
 10
25.3182011765
 20
23.5039811091
 10
25.3415573145
 20
23.4466987669
 10
25.3631312925
 20
23.3905543287
 10
25.3839797072
 20
23.3346241372
 10
25.4043176591
 20
23.2785141383
  0
LINE
  5
4A7
100
AcDbEntity
  8
0
100
AcDbLine
 62
7
  6
CONTINUOUS
 10
19.8049658775
 20
-28.9730185714
 11
20.7360908775
 21
-26.0728805714
  0
LINE
  5
4A8
100
AcDbEntity
  8
ASSI
100
AcDbLine
 62
7
  6
CONTINUOUS
 10
19.8049658775
 20
-28.9730185714
 11
20.7360908775
 21
-26.0728805714
  0
LINE
  5
4A9
100
AcDbEntity
  8
0
100
AcDbLine
 62
7
  6
CONTINUOUS
 10
21.0261118775
 20
-26.9761215714
 11
20.7450228775
 21
-27.8516605714
  0
LINE
  5
4AA
100
AcDbEntity
  8
ASSI
100
AcDbLine
 62
7
  6
CONTINUOUS
 10
21.0261118775
 20
-26.9761215714
 11
20.7450228775
 21
-27.8516605714
  0
LINE
  5
4AB
100
AcDbEntity
  8
0
100
AcDbLine
 62
7
  6
CONTINUOUS
 10
20.5681008775
 20
-28.4026825714
 11
20.3849878775
 21
-28.9730105714
  0
LINE
  5
4AC
100
AcDbEntity
  8
ASSI
100
AcDbLine
 62
7
  6
CONTINUOUS
 10
20.5681008775
 20
-28.4026825714
 11
20.3849878775
 21
-28.9730105714
  0
LINE
  5
4AD
100
AcDbEntity
  8
RACCORDO
100
AcDbLine
 62
253
  6
CONTINUOUS
 10
25.4791522595
 20
-23.4134135577
 11
25.3802507108
 21
-23.6913632083
  0
LINE
  5
4AE
100
AcDbEntity
  8
ASSI
100
AcDbLine
 62
253
  6
CONTINUOUS
 10
25.4791522595
 20
-23.4134135577
 11
25.3802507108
 21
-23.6913632083
  0
LWPOLYLINE
  5
4AF
100
AcDbEntity
  8
RACCORDO
100
AcDbPolyline
 62
253
  6
CONTINUOUS
 90
68
 70
0
 10
25.3802507108
 20
-23.6913632083
 10
25.3656287519
 20
-23.7312566471
 10
25.3498536219
 20
-23.7722630391
 10
25.3330219948
 20
-23.8143518919
 10
25.3149616757
 20
-23.8576159129
 10
25.2955922619
 20
-23.9020465375
 10
25.2749318952
 20
-23.947489499
 10
25.2529447845
 20
-23.9938295919
 10
25.2295668342
 20
-24.0410570741
 10
25.2047469242
 20
-24.0891349645
 10
25.1784798217
 20
-24.137900919
 10
25.1507219286
 20
-24.187306514
 10
25.121431847
 20
-24.2373015041
 10
25.0906196911
 20
-24.2877211963
 10
25.0582476528
 20
-24.3385167332
 10
25.0242788856
 20
-24.3896375764
 10
24.988736448
 20
-24.4409206314
 10
24.9515881453
 20
-24.4923124338
 10
24.912803824
 20
-24.5437658465
 10
24.8724227298
 20
-24.595130472
 10
24.830418055
 20
-24.6463545786
 10
24.7867727966
 20
-24.6973823493
 10
24.7415567815
 20
-24.7480605492
 10
24.6946065257
 20
-24.7984888882
 10
24.646061239
 20
-24.8484495073
 10
24.5964768484
 20
-24.8973566776
 10
24.5456980749
 20
-24.9453438185
 10
24.4939052259
 20
-24.9922402155
 10
24.4422963427
 20
-25.0370638626
 10
24.3912065487
 20
-25.0796641528
 10
24.3405548679
 20
-25.120224342
 10
24.2908248003
 20
-25.1584899137
 10
24.2421906122
 20
-25.1944526156
 10
24.1942927215
 20
-25.2285406423
 10
24.1469211863
 20
-25.2610763904
 10
24.1003849675
 20
-25.2919275868
 10
24.054696362
 20
-25.3211727434
 10
24.0091630261
 20
-25.3493960205
 10
23.9638042086
 20
-25.3766426756
 10
23.9186619203
 20
-25.4028985658
 10
23.8731309806
 20
-25.4285441597
 10
23.8274599793
 20
-25.453503717
 10
23.7819234951
 20
-25.4775810752
 10
23.7358488642
 20
-25.5009667478
 10
23.6891196447
 20
-25.5236320571
 10
23.6416714238
 20
-25.54568117
 10
23.5927684093
 20
-25.5674982078
 10
23.5422997204
 20
-25.5890934219
 10
23.4901426254
 20
-25.6104214516
 10
23.4355832078
 20
-25.6316776446
 10
23.3783385113
 20
-25.6528460188
 10
23.3186850642
 20
-25.6736948719
 10
23.256801043
 20
-25.6940419941
 10
23.192370028
 20
-25.7138413977
 10
23.1256983073
 20
-25.732895867
 10
23.0578982714
 20
-25.7508767615
 10
22.9890981178
 20
-25.767624314
 10
22.9191554373
 20
-25.7832148493
 10
22.8486216386
 20
-25.7978079645
 10
22.7775514693
 20
-25.8115041741
 10
22.7050645775
 20
-25.8242697223
 10
22.6303887337
 20
-25.8360267526
 10
22.5544940949
 20
-25.8465838535
 10
22.4775604329
 20
-25.8558042931
 10
22.3979864835
 20
-25.863482203
 10
22.3150156513
 20
-25.8693978675
 10
22.2291239538
 20
-25.8733939089
 10
22.140184744
 20
-25.8752725222
  0
LWPOLYLINE
  5
4B0
100
AcDbEntity
  8
ASSI
100
AcDbPolyline
 62
253
  6
CONTINUOUS
 90
68
 70
0
 10
25.3802507108
 20
-23.6913632083
 10
25.3656287519
 20
-23.7312566471
 10
25.3498536219
 20
-23.7722630391
 10
25.3330219948
 20
-23.8143518919
 10
25.3149616757
 20
-23.8576159129
 10
25.2955922619
 20
-23.9020465375
 10
25.2749318952
 20
-23.947489499
 10
25.2529447845
 20
-23.9938295919
 10
25.2295668342
 20
-24.0410570741
 10
25.2047469242
 20
-24.0891349645
 10
25.1784798217
 20
-24.137900919
 10
25.1507219286
 20
-24.187306514
 10
25.121431847
 20
-24.2373015041
 10
25.0906196911
 20
-24.2877211963
 10
25.0582476528
 20
-24.3385167332
 10
25.0242788856
 20
-24.3896375764
 10
24.988736448
 20
-24.4409206314
 10
24.9515881453
 20
-24.4923124338
 10
24.912803824
 20
-24.5437658465
 10
24.8724227298
 20
-24.595130472
 10
24.830418055
 20
-24.6463545786
 10
24.7867727966
 20
-24.6973823493
 10
24.7415567815
 20
-24.7480605492
 10
24.6946065257
 20
-24.7984888882
 10
24.646061239
 20
-24.8484495073
 10
24.5964768484
 20
-24.8973566776
 10
24.5456980749
 20
-24.9453438185
 10
24.4939052259
 20
-24.9922402155
 10
24.4422963427
 20
-25.0370638626
 10
24.3912065487
 20
-25.0796641528
 10
24.3405548679
 20
-25.120224342
 10
24.2908248003
 20
-25.1584899137
 10
24.2421906122
 20
-25.1944526156
 10
24.1942927215
 20
-25.2285406423
 10
24.1469211863
 20
-25.2610763904
 10
24.1003849675
 20
-25.2919275868
 10
24.054696362
 20
-25.3211727434
 10
24.0091630261
 20
-25.3493960205
 10
23.9638042086
 20
-25.3766426756
 10
23.9186619203
 20
-25.4028985658
 10
23.8731309806
 20
-25.4285441597
 10
23.8274599793
 20
-25.453503717
 10
23.7819234951
 20
-25.4775810752
 10
23.7358488642
 20
-25.5009667478
 10
23.6891196447
 20
-25.5236320571
 10
23.6416714238
 20
-25.54568117
 10
23.5927684093
 20
-25.5674982078
 10
23.5422997204
 20
-25.5890934219
 10
23.4901426254
 20
-25.6104214516
 10
23.4355832078
 20
-25.6316776446
 10
23.3783385113
 20
-25.6528460188
 10
23.3186850642
 20
-25.6736948719
 10
23.256801043
 20
-25.6940419941
 10
23.192370028
 20
-25.7138413977
 10
23.1256983073
 20
-25.732895867
 10
23.0578982714
 20
-25.7508767615
 10
22.9890981178
 20
-25.767624314
 10
22.9191554373
 20
-25.7832148493
 10
22.8486216386
 20
-25.7978079645
 10
22.7775514693
 20
-25.8115041741
 10
22.7050645775
 20
-25.8242697223
 10
22.6303887337
 20
-25.8360267526
 10
22.5544940949
 20
-25.8465838535
 10
22.4775604329
 20
-25.8558042931
 10
22.3979864835
 20
-25.863482203
 10
22.3150156513
 20
-25.8693978675
 10
22.2291239538
 20
-25.8733939089
 10
22.140184744
 20
-25.8752725222
  0
LINE
  5
4B1
100
AcDbEntity
  8
0
100
AcDbLine
 62
7
  6
CONTINUOUS
 10
39.850028319
 20
3.3269964286
 11
39.9548438775
 21
3.5019737556
  0
LINE
  5
4B2
100
AcDbEntity
  8
ASSI
100
AcDbLine
 62
7
  6
CONTINUOUS
 10
39.850028319
 20
3.3269964286
 11
39.9548438775
 21
3.5019737556
  0
LINE
  5
4B3
100
AcDbEntity
  8
0
100
AcDbLine
 62
7
  6
CONTINUOUS
 10
39.9548438775
 20
-3.8479808985
 11
39.850028319
 21
-3.6730035714
  0
LINE
  5
4B4
100
AcDbEntity
  8
ASSI
100
AcDbLine
 62
7
  6
CONTINUOUS
 10
39.9548438775
 20
-3.8479808985
 11
39.850028319
 21
-3.6730035714
  0
LWPOLYLINE
  5
4B5
100
AcDbEntity
  8
RACCORDO
100
AcDbPolyline
 62
253
  6
CONTINUOUS
 90
17
 70
0
 10
25.4043176591
 20
23.2785141383
 10
25.4447124636
 20
23.1634180677
 10
25.465858835
 20
23.1038968442
 10
25.4870677633
 20
23.0433176591
 10
25.5074539555
 20
22.9806276863
 10
25.5264589346
 20
22.9159115152
 10
25.5443482265
 20
22.8494607195
 10
25.5614166497
 20
22.7803648515
 10
25.5776026655
 20
22.7085093566
 10
25.592704205
 20
22.6337832728
 10
25.6066749278
 20
22.5552903496
 10
25.6192781352
 20
22.4728848804
 10
25.6302290311
 20
22.3868272872
 10
25.6393123779
 20
22.2968241859
 10
25.6462476744
 20
22.2027810605
 10
25.6507110164
 20
22.1048291652
 10
25.6523828528
 20
22.0030314318
  0
LWPOLYLINE
  5
4B6
100
AcDbEntity
  8
ASSI
100
AcDbPolyline
 62
253
  6
CONTINUOUS
 90
17
 70
0
 10
25.4043176591
 20
23.2785141383
 10
25.4447124636
 20
23.1634180677
 10
25.465858835
 20
23.1038968442
 10
25.4870677633
 20
23.0433176591
 10
25.5074539555
 20
22.9806276863
 10
25.5264589346
 20
22.9159115152
 10
25.5443482265
 20
22.8494607195
 10
25.5614166497
 20
22.7803648515
 10
25.5776026655
 20
22.7085093566
 10
25.592704205
 20
22.6337832728
 10
25.6066749278
 20
22.5552903496
 10
25.6192781352
 20
22.4728848804
 10
25.6302290311
 20
22.3868272872
 10
25.6393123779
 20
22.2968241859
 10
25.6462476744
 20
22.2027810605
 10
25.6507110164
 20
22.1048291652
 10
25.6523828528
 20
22.0030314318
  0
LINE
  5
4B7
100
AcDbEntity
  8
RACCORDO
100
AcDbLine
 62
253
  6
CONTINUOUS
 10
36.9548438776
 20
-40.1730035714
 11
36.9548438775
 21
-39.9424316948
  0
LINE
  5
4B8
100
AcDbEntity
  8
ASSI
100
AcDbLine
 62
253
  6
CONTINUOUS
 10
36.9548438776
 20
-40.1730035714
 11
36.9548438775
 21
-39.9424316948
  0
LINE
  5
4B9
100
AcDbEntity
  8
RACCORDO
100
AcDbLine
 62
253
  6
CONTINUOUS
 10
36.9548438775
 20
39.596424552
 11
36.9548438776
 21
39.8269964286
  0
LINE
  5
4BA
100
AcDbEntity
  8
ASSI
100
AcDbLine
 62
253
  6
CONTINUOUS
 10
36.9548438775
 20
39.596424552
 11
36.9548438776
 21
39.8269964286
  0
LINE
  5
4BB
100
AcDbEntity
  8
RACCORDO
100
AcDbLine
 62
253
  6
CONTINUOUS
 10
39.9548438775
 20
36.8269964286
 11
39.7234758687
 21
36.8269964286
  0
LINE
  5
4BC
100
AcDbEntity
  8
ASSI
100
AcDbLine
 62
253
  6
CONTINUOUS
 10
39.9548438775
 20
36.8269964286
 11
39.7234758687
 21
36.8269964286
  0
LINE
  5
4BD
100
AcDbEntity
  8
RACCORDO
100
AcDbLine
 62
253
  6
CONTINUOUS
 10
-39.8137881136
 20
36.8269964286
 11
-40.0451561224
 21
36.8269964286
  0
LINE
  5
4BE
100
AcDbEntity
  8
ASSI
100
AcDbLine
 62
253
  6
CONTINUOUS
 10
-39.8137881136
 20
36.8269964286
 11
-40.0451561224
 21
36.8269964286
  0
LINE
  5
4BF
100
AcDbEntity
  8
RACCORDO
100
AcDbLine
 62
253
  6
CONTINUOUS
 10
38.9003140842
 20
36.1512091618
 11
38.9082051417
 21
36.0481204742
  0
LINE
  5
4C0
100
AcDbEntity
  8
ASSI
100
AcDbLine
 62
253
  6
CONTINUOUS
 10
38.9003140842
 20
36.1512091618
 11
38.9082051417
 21
36.0481204742
  0
LWPOLYLINE
  5
4C1
100
AcDbEntity
  8
RACCORDO
100
AcDbPolyline
 62
253
  6
CONTINUOUS
 90
7
 70
0
 10
38.9082051417
 20
36.0481204742
 10
38.9118909858
 20
35.9955254973
 10
38.9151044679
 20
35.9423656158
 10
38.9179366686
 20
35.8889442401
 10
38.920043266
 20
35.8352008834
 10
38.9210224768
 20
35.7810657091
 10
38.9216594248
 20
35.6693707441
  0
LWPOLYLINE
  5
4C2
100
AcDbEntity
  8
ASSI
100
AcDbPolyline
 62
253
  6
CONTINUOUS
 90
7
 70
0
 10
38.9082051417
 20
36.0481204742
 10
38.9118909858
 20
35.9955254973
 10
38.9151044679
 20
35.9423656158
 10
38.9179366686
 20
35.8889442401
 10
38.920043266
 20
35.8352008834
 10
38.9210224768
 20
35.7810657091
 10
38.9216594248
 20
35.6693707441
  0
LINE
  5
4C3
100
AcDbEntity
  8
RACCORDO
100
AcDbLine
 62
253
  6
CONTINUOUS
 10
38.8938469739
 20
36.2521435374
 11
38.9003140842
 21
36.1512091618
  0
LINE
  5
4C4
100
AcDbEntity
  8
ASSI
100
AcDbLine
 62
253
  6
CONTINUOUS
 10
38.8938469739
 20
36.2521435374
 11
38.9003140842
 21
36.1512091618
  0
LINE
  5
4C5
100
AcDbEntity
  8
RACCORDO
100
AcDbLine
 62
253
  6
CONTINUOUS
 10
38.8881089804
 20
36.3522201161
 11
38.8938469739
 21
36.2521435374
  0
LINE
  5
4C6
100
AcDbEntity
  8
ASSI
100
AcDbLine
 62
253
  6
CONTINUOUS
 10
38.8881089804
 20
36.3522201161
 11
38.8938469739
 21
36.2521435374
  0
LINE
  5
4C7
100
AcDbEntity
  8
RACCORDO
100
AcDbLine
 62
253
  6
CONTINUOUS
 10
38.8805667631
 20
36.5017570467
 11
38.8881089804
 21
36.3522201161
  0
LINE
  5
4C8
100
AcDbEntity
  8
ASSI
100
AcDbLine
 62
253
  6
CONTINUOUS
 10
38.8805667631
 20
36.5017570467
 11
38.8881089804
 21
36.3522201161
  0
LINE
  5
4C9
100
AcDbEntity
  8
RACCORDO
100
AcDbLine
 62
253
  6
CONTINUOUS
 10
38.8739934772
 20
36.6493130527
 11
38.8805667631
 21
36.5017570467
  0
LINE
  5
4CA
100
AcDbEntity
  8
ASSI
100
AcDbLine
 62
253
  6
CONTINUOUS
 10
38.8739934772
 20
36.6493130527
 11
38.8805667631
 21
36.5017570467
  0
LWPOLYLINE
  5
4CB
100
AcDbEntity
  8
RACCORDO
100
AcDbPolyline
 62
253
  6
CONTINUOUS
 90
3
 70
0
 10
38.8650576733
 20
36.8785778278
 10
38.8666464709
 20
36.8349488267
 10
38.8739934772
 20
36.6493130527
  0
LWPOLYLINE
  5
4CC
100
AcDbEntity
  8
ASSI
100
AcDbPolyline
 62
253
  6
CONTINUOUS
 90
3
 70
0
 10
38.8650576733
 20
36.8785778278
 10
38.8666464709
 20
36.8349488267
 10
38.8739934772
 20
36.6493130527
  0
LINE
  5
4CD
100
AcDbEntity
  8
RACCORDO
100
AcDbLine
 62
253
  6
CONTINUOUS
 10
38.9216594248
 20
35.6693707441
 11
38.9960903584
 21
30.1904993548
  0
LINE
  5
4CE
100
AcDbEntity
  8
ASSI
100
AcDbLine
 62
253
  6
CONTINUOUS
 10
38.9216594248
 20
35.6693707441
 11
38.9960903584
 21
30.1904993548
  0
LINE
  5
4CF
100
AcDbEntity
  8
RACCORDO
100
AcDbLine
 62
253
  6
CONTINUOUS
 10
38.9960903584
 20
30.1904993548
 11
39.0100400974
 21
28.4101995008
  0
LINE
  5
4D0
100
AcDbEntity
  8
ASSI
100
AcDbLine
 62
253
  6
CONTINUOUS
 10
38.9960903584
 20
30.1904993548
 11
39.0100400974
 21
28.4101995008
  0
LINE
  5
4D1
100
AcDbEntity
  8
RACCORDO
100
AcDbLine
 62
253
  6
CONTINUOUS
 10
39.0100400974
 20
28.4101995008
 11
39.0253827284
 21
24.2400387597
  0
LINE
  5
4D2
100
AcDbEntity
  8
ASSI
100
AcDbLine
 62
253
  6
CONTINUOUS
 10
39.0100400974
 20
28.4101995008
 11
39.0253827284
 21
24.2400387597
  0
LINE
  5
4D3
100
AcDbEntity
  8
RACCORDO
100
AcDbLine
 62
253
  6
CONTINUOUS
 10
39.0253827284
 20
24.2400387597
 11
39.0408713583
 21
16.7172207227
  0
LINE
  5
4D4
100
AcDbEntity
  8
ASSI
100
AcDbLine
 62
253
  6
CONTINUOUS
 10
39.0253827284
 20
24.2400387597
 11
39.0408713583
 21
16.7172207227
  0
LINE
  5
4D5
100
AcDbEntity
  8
RACCORDO
100
AcDbLine
 62
253
  6
CONTINUOUS
 10
39.0408713583
 20
16.7172207227
 11
39.0504381614
 21
6.8322649552
  0
LINE
  5
4D6
100
AcDbEntity
  8
ASSI
100
AcDbLine
 62
253
  6
CONTINUOUS
 10
39.0408713583
 20
16.7172207227
 11
39.0504381614
 21
6.8322649552
  0
LINE
  5
4D7
100
AcDbEntity
  8
RACCORDO
100
AcDbLine
 62
253
  6
CONTINUOUS
 10
39.7162645833
 20
-1.1507957056
 11
39.7234758687
 21
-37.1730035714
  0
LINE
  5
4D8
100
AcDbEntity
  8
ASSI
100
AcDbLine
 62
253
  6
CONTINUOUS
 10
39.7162645833
 20
-1.1507957056
 11
39.7234758687
 21
-37.1730035714
  0
LINE
  5
4D9
100
AcDbEntity
  8
0
100
AcDbLine
 62
7
  6
CONTINUOUS
 10
39.850028319
 20
-3.6730035714
 11
39.850028319
 21
3.3269964286
  0
LINE
  5
4DA
100
AcDbEntity
  8
ASSI
100
AcDbLine
 62
7
  6
CONTINUOUS
 10
39.850028319
 20
-3.6730035714
 11
39.850028319
 21
3.3269964286
  0
LINE
  5
4DB
100
AcDbEntity
  8
0
100
AcDbLine
 62
7
  6
CONTINUOUS
 10
39.9548438775
 20
36.8269964285
 11
39.9548438775
 21
3.5019737556
  0
LINE
  5
4DC
100
AcDbEntity
  8
ASSI
100
AcDbLine
 62
7
  6
CONTINUOUS
 10
39.9548438775
 20
36.8269964285
 11
39.9548438775
 21
3.5019737556
  0
LINE
  5
4DD
100
AcDbEntity
  8
0
100
AcDbLine
 62
7
  6
CONTINUOUS
 10
39.9548438775
 20
-3.8479808985
 11
39.9548438775
 21
-37.1730035714
  0
LINE
  5
4DE
100
AcDbEntity
  8
ASSI
100
AcDbLine
 62
7
  6
CONTINUOUS
 10
39.9548438775
 20
-3.8479808985
 11
39.9548438775
 21
-37.1730035714
  0
LINE
  5
4DF
100
AcDbEntity
  8
RACCORDO
100
AcDbLine
 62
253
  6
CONTINUOUS
 10
39.0504381614
 20
6.8322649552
 11
39.0473488798
 21
-11.7588110577
  0
LINE
  5
4E0
100
AcDbEntity
  8
ASSI
100
AcDbLine
 62
253
  6
CONTINUOUS
 10
39.0504381614
 20
6.8322649552
 11
39.0473488798
 21
-11.7588110577
  0
LINE
  5
4E1
100
AcDbEntity
  8
RACCORDO
100
AcDbLine
 62
253
  6
CONTINUOUS
 10
39.0473488798
 20
-11.7588110577
 11
39.0370775738
 21
-19.2984530523
  0
LINE
  5
4E2
100
AcDbEntity
  8
ASSI
100
AcDbLine
 62
253
  6
CONTINUOUS
 10
39.0473488798
 20
-11.7588110577
 11
39.0370775738
 21
-19.2984530523
  0
LINE
  5
4E3
100
AcDbEntity
  8
RACCORDO
100
AcDbLine
 62
253
  6
CONTINUOUS
 10
39.7234758687
 20
36.8269964286
 11
39.7162645833
 21
-1.1507957056
  0
LINE
  5
4E4
100
AcDbEntity
  8
ASSI
100
AcDbLine
 62
253
  6
CONTINUOUS
 10
39.7234758687
 20
36.8269964286
 11
39.7162645833
 21
-1.1507957056
  0
LINE
  5
4E5
100
AcDbEntity
  8
RACCORDO
100
AcDbLine
 62
253
  6
CONTINUOUS
 10
39.0370775738
 20
-19.2984530523
 11
39.0205537532
 21
-26.3325254973
  0
LINE
  5
4E6
100
AcDbEntity
  8
ASSI
100
AcDbLine
 62
253
  6
CONTINUOUS
 10
39.0370775738
 20
-19.2984530523
 11
39.0205537532
 21
-26.3325254973
  0
LINE
  5
4E7
100
AcDbEntity
  8
RACCORDO
100
AcDbLine
 62
253
  6
CONTINUOUS
 10
39.0205537532
 20
-26.3325254973
 11
39.0098262718
 21
-28.7908245414
  0
LINE
  5
4E8
100
AcDbEntity
  8
ASSI
100
AcDbLine
 62
253
  6
CONTINUOUS
 10
39.0205537532
 20
-26.3325254973
 11
39.0098262718
 21
-28.7908245414
  0
LINE
  5
4E9
100
AcDbEntity
  8
RACCORDO
100
AcDbLine
 62
253
  6
CONTINUOUS
 10
38.921328281
 20
-36.0423545244
 11
38.9208197336
 21
-36.143309154
  0
LINE
  5
4EA
100
AcDbEntity
  8
ASSI
100
AcDbLine
 62
253
  6
CONTINUOUS
 10
38.921328281
 20
-36.0423545244
 11
38.9208197336
 21
-36.143309154
  0
LINE
  5
4EB
100
AcDbEntity
  8
RACCORDO
100
AcDbLine
 62
253
  6
CONTINUOUS
 10
39.0098262718
 20
-28.7908245414
 11
38.9941960034
 21
-30.7296022139
  0
LINE
  5
4EC
100
AcDbEntity
  8
ASSI
100
AcDbLine
 62
253
  6
CONTINUOUS
 10
39.0098262718
 20
-28.7908245414
 11
38.9941960034
 21
-30.7296022139
  0
LINE
  5
4ED
100
AcDbEntity
  8
RACCORDO
100
AcDbLine
 62
253
  6
CONTINUOUS
 10
38.9941960034
 20
-30.7296022139
 11
38.9721558765
 21
-32.5882494921
  0
LINE
  5
4EE
100
AcDbEntity
  8
ASSI
100
AcDbLine
 62
253
  6
CONTINUOUS
 10
38.9941960034
 20
-30.7296022139
 11
38.9721558765
 21
-32.5882494921
  0
LINE
  5
4EF
100
AcDbEntity
  8
RACCORDO
100
AcDbLine
 62
253
  6
CONTINUOUS
 10
38.9721558765
 20
-32.5882494921
 11
38.921328281
 21
-36.0423545244
  0
LINE
  5
4F0
100
AcDbEntity
  8
ASSI
100
AcDbLine
 62
253
  6
CONTINUOUS
 10
38.9721558765
 20
-32.5882494921
 11
38.921328281
 21
-36.0423545244
  0
LWPOLYLINE
  5
4F1
100
AcDbEntity
  8
RACCORDO
100
AcDbPolyline
 62
253
  6
CONTINUOUS
 90
7
 70
0
 10
38.9208197336
 20
-36.143309154
 10
38.9198951497
 20
-36.1926484525
 10
38.9178433585
 20
-36.2419088064
 10
38.915069677
 20
-36.2911740187
 10
38.9119588299
 20
-36.3405627805
 10
38.9084641726
 20
-36.3897909348
 10
38.9009941651
 20
-36.4873758581
  0
LWPOLYLINE
  5
4F2
100
AcDbEntity
  8
ASSI
100
AcDbPolyline
 62
253
  6
CONTINUOUS
 90
7
 70
0
 10
38.9208197336
 20
-36.143309154
 10
38.9198951497
 20
-36.1926484525
 10
38.9178433585
 20
-36.2419088064
 10
38.915069677
 20
-36.2911740187
 10
38.9119588299
 20
-36.3405627805
 10
38.9084641726
 20
-36.3897909348
 10
38.9009941651
 20
-36.4873758581
  0
LWPOLYLINE
  5
4F3
100
AcDbEntity
  8
RACCORDO
100
AcDbPolyline
 62
253
  6
CONTINUOUS
 90
37
 70
0
 10
39.7234758687
 20
-37.1730035714
 10
39.7153344681
 20
-37.3896148944
 10
39.6914464272
 20
-37.5971549538
 10
39.6537152069
 20
-37.7946336907
 10
39.6040707726
 20
-37.9811452244
 10
39.5443234494
 20
-38.1563755825
 10
39.4760267489
 20
-38.3205421721
 10
39.4008686553
 20
-38.4733190109
 10
39.320271877
 20
-38.6149159794
 10
39.2349827933
 20
-38.7464514448
 10
39.1461564349
 20
-38.8680688492
 10
39.0548666315
 20
-38.9799993901
 10
38.9612993141
 20
-39.0834056299
 10
38.8661361896
 20
-39.1786388687
 10
38.7702205857
 20
-39.2658647726
 10
38.673683779
 20
-39.3458483765
 10
38.5770136697
 20
-39.418931456
 10
38.4808109253
 20
-39.4853548447
 10
38.3852119933
 20
-39.5456549853
 10
38.2906314593
 20
-39.6001317181
 10
38.1974443525
 20
-39.6490977302
 10
38.1056218389
 20
-39.6930437139
 10
38.0154553646
 20
-39.7322545585
 10
37.9272049011
 20
-39.7670201062
 10
37.8407147364
 20
-39.7977639925
 10
37.7561816489
 20
-39.824739015
 10
37.6737826386
 20
-39.848197039
 10
37.5932750599
 20
-39.8684838654
 10
37.5147900883
 20
-39.8858120488
 10
37.438443481
 20
-39.9003919996
 10
37.3639302579
 20
-39.9124924655
 10
37.2913373729
 20
-39.9222847001
 10
37.2207375003
 20
-39.9299379092
 10
37.1517789054
 20
-39.9356480368
 10
37.0843768862
 20
-39.9395539055
 10
37.0187180474
 20
-39.9417724439
 10
36.9548438775
 20
-39.9424316948
  0
LWPOLYLINE
  5
4F4
100
AcDbEntity
  8
ASSI
100
AcDbPolyline
 62
253
  6
CONTINUOUS
 90
37
 70
0
 10
39.7234758687
 20
-37.1730035714
 10
39.7153344681
 20
-37.3896148944
 10
39.6914464272
 20
-37.5971549538
 10
39.6537152069
 20
-37.7946336907
 10
39.6040707726
 20
-37.9811452244
 10
39.5443234494
 20
-38.1563755825
 10
39.4760267489
 20
-38.3205421721
 10
39.4008686553
 20
-38.4733190109
 10
39.320271877
 20
-38.6149159794
 10
39.2349827933
 20
-38.7464514448
 10
39.1461564349
 20
-38.8680688492
 10
39.0548666315
 20
-38.9799993901
 10
38.9612993141
 20
-39.0834056299
 10
38.8661361896
 20
-39.1786388687
 10
38.7702205857
 20
-39.2658647726
 10
38.673683779
 20
-39.3458483765
 10
38.5770136697
 20
-39.418931456
 10
38.4808109253
 20
-39.4853548447
 10
38.3852119933
 20
-39.5456549853
 10
38.2906314593
 20
-39.6001317181
 10
38.1974443525
 20
-39.6490977302
 10
38.1056218389
 20
-39.6930437139
 10
38.0154553646
 20
-39.7322545585
 10
37.9272049011
 20
-39.7670201062
 10
37.8407147364
 20
-39.7977639925
 10
37.7561816489
 20
-39.824739015
 10
37.6737826386
 20
-39.848197039
 10
37.5932750599
 20
-39.8684838654
 10
37.5147900883
 20
-39.8858120488
 10
37.438443481
 20
-39.9003919996
 10
37.3639302579
 20
-39.9124924655
 10
37.2913373729
 20
-39.9222847001
 10
37.2207375003
 20
-39.9299379092
 10
37.1517789054
 20
-39.9356480368
 10
37.0843768862
 20
-39.9395539055
 10
37.0187180474
 20
-39.9417724439
 10
36.9548438775
 20
-39.9424316948
  0
LINE
  5
4F5
100
AcDbEntity
  8
RACCORDO
100
AcDbLine
 62
253
  6
CONTINUOUS
 10
38.8723417666
 20
-37.0352782423
 11
38.8650576739
 21
-37.2245849708
  0
LINE
  5
4F6
100
AcDbEntity
  8
ASSI
100
AcDbLine
 62
253
  6
CONTINUOUS
 10
38.8723417666
 20
-37.0352782423
 11
38.8650576739
 21
-37.2245849708
  0
LINE
  5
4F7
100
AcDbEntity
  8
RACCORDO
100
AcDbLine
 62
253
  6
CONTINUOUS
 10
38.8788939114
 20
-36.8838822716
 11
38.8723417666
 21
-37.0352782423
  0
LINE
  5
4F8
100
AcDbEntity
  8
ASSI
100
AcDbLine
 62
253
  6
CONTINUOUS
 10
38.8788939114
 20
-36.8838822716
 11
38.8723417666
 21
-37.0352782423
  0
LINE
  5
4F9
100
AcDbEntity
  8
RACCORDO
100
AcDbLine
 62
253
  6
CONTINUOUS
 10
38.8837484627
 20
-36.7823544956
 11
38.8788939114
 21
-36.8838822716
  0
LINE
  5
4FA
100
AcDbEntity
  8
ASSI
100
AcDbLine
 62
253
  6
CONTINUOUS
 10
38.8837484627
 20
-36.7823544956
 11
38.8788939114
 21
-36.8838822716
  0
LINE
  5
4FB
100
AcDbEntity
  8
RACCORDO
100
AcDbLine
 62
253
  6
CONTINUOUS
 10
38.8889585509
 20
-36.6827043665
 11
38.8837484627
 21
-36.7823544956
  0
LINE
  5
4FC
100
AcDbEntity
  8
ASSI
100
AcDbLine
 62
253
  6
CONTINUOUS
 10
38.8889585509
 20
-36.6827043665
 11
38.8837484627
 21
-36.7823544956
  0
LINE
  5
4FD
100
AcDbEntity
  8
RACCORDO
100
AcDbLine
 62
253
  6
CONTINUOUS
 10
38.894675739
 20
-36.5845422849
 11
38.8889585509
 21
-36.6827043665
  0
LINE
  5
4FE
100
AcDbEntity
  8
ASSI
100
AcDbLine
 62
253
  6
CONTINUOUS
 10
38.894675739
 20
-36.5845422849
 11
38.8889585509
 21
-36.6827043665
  0
LINE
  5
4FF
100
AcDbEntity
  8
RACCORDO
100
AcDbLine
 62
253
  6
CONTINUOUS
 10
38.9009941651
 20
-36.4873758581
 11
38.894675739
 21
-36.5845422849
  0
LINE
  5
500
100
AcDbEntity
  8
ASSI
100
AcDbLine
 62
253
  6
CONTINUOUS
 10
38.9009941651
 20
-36.4873758581
 11
38.894675739
 21
-36.5845422849
  0
LWPOLYLINE
  5
501
100
AcDbEntity
  8
RACCORDO
100
AcDbPolyline
 62
253
  6
CONTINUOUS
 90
37
 70
0
 10
38.8650572528
 20
-37.2245848159
 10
38.8543867028
 20
-37.3670576074
 10
38.8338085703
 20
-37.5037315852
 10
38.8045790159
 20
-37.6338132093
 10
38.7679663872
 20
-37.756714827
 10
38.7251418294
 20
-37.8722675838
 10
38.6770820016
 20
-37.9805940089
 10
38.6248714335
 20
-38.0814922899
 10
38.5694054309
 20
-38.17512007
 10
38.511120015
 20
-38.2621872072
 10
38.4507486294
 20
-38.3427893474
 10
38.3889753687
 20
-38.4170888962
 10
38.3258888019
 20
-38.4858395028
 10
38.2619156236
 20
-38.5492739813
 10
38.1975898016
 20
-38.6075070473
 10
38.1329717366
 20
-38.6610375541
 10
38.0683679793
 20
-38.710088001
 10
38.0041656258
 20
-38.7548126145
 10
37.9404439745
 20
-38.7955556794
 10
37.8774657494
 20
-38.8325105098
 10
37.8154655082
 20
-38.8658826487
 10
37.7544114945
 20
-38.8959931681
 10
37.6944893406
 20
-38.9230238389
 10
37.6358684299
 20
-38.9471581414
 10
37.5784435311
 20
-38.9686699893
 10
37.5223416286
 20
-38.9877198201
 10
37.4676746092
 20
-39.0044698756
 10
37.4142769104
 20
-39.0191483579
 10
37.3622321959
 20
-39.0318909351
 10
37.3116142907
 20
-39.0428323945
 10
37.2622177996
 20
-39.052151882
 10
37.2140983684
 20
-39.0599584492
 10
37.167302742
 20
-39.066360458
 10
37.1215958216
 20
-39.0714911414
 10
37.0769199789
 20
-39.0754414697
 10
37.0333979789
 20
-39.0782826267
 10
36.9910564537
 20
-39.0800953414
  0
LWPOLYLINE
  5
502
100
AcDbEntity
  8
ASSI
100
AcDbPolyline
 62
253
  6
CONTINUOUS
 90
37
 70
0
 10
38.8650572528
 20
-37.2245848159
 10
38.8543867028
 20
-37.3670576074
 10
38.8338085703
 20
-37.5037315852
 10
38.8045790159
 20
-37.6338132093
 10
38.7679663872
 20
-37.756714827
 10
38.7251418294
 20
-37.8722675838
 10
38.6770820016
 20
-37.9805940089
 10
38.6248714335
 20
-38.0814922899
 10
38.5694054309
 20
-38.17512007
 10
38.511120015
 20
-38.2621872072
 10
38.4507486294
 20
-38.3427893474
 10
38.3889753687
 20
-38.4170888962
 10
38.3258888019
 20
-38.4858395028
 10
38.2619156236
 20
-38.5492739813
 10
38.1975898016
 20
-38.6075070473
 10
38.1329717366
 20
-38.6610375541
 10
38.0683679793
 20
-38.710088001
 10
38.0041656258
 20
-38.7548126145
 10
37.9404439745
 20
-38.7955556794
 10
37.8774657494
 20
-38.8325105098
 10
37.8154655082
 20
-38.8658826487
 10
37.7544114945
 20
-38.8959931681
 10
37.6944893406
 20
-38.9230238389
 10
37.6358684299
 20
-38.9471581414
 10
37.5784435311
 20
-38.9686699893
 10
37.5223416286
 20
-38.9877198201
 10
37.4676746092
 20
-39.0044698756
 10
37.4142769104
 20
-39.0191483579
 10
37.3622321959
 20
-39.0318909351
 10
37.3116142907
 20
-39.0428323945
 10
37.2622177996
 20
-39.052151882
 10
37.2140983684
 20
-39.0599584492
 10
37.167302742
 20
-39.066360458
 10
37.1215958216
 20
-39.0714911414
 10
37.0769199789
 20
-39.0754414697
 10
37.0333979789
 20
-39.0782826267
 10
36.9910564537
 20
-39.0800953414
  0
LINE
  5
503
100
AcDbEntity
  8
RACCORDO
100
AcDbLine
 62
253
  6
CONTINUOUS
 10
-36.6926978008
 20
38.7479922732
 11
-36.5823818647
 21
38.7529837155
  0
LINE
  5
504
100
AcDbEntity
  8
ASSI
100
AcDbLine
 62
253
  6
CONTINUOUS
 10
-36.6926978008
 20
38.7479922732
 11
-36.5823818647
 21
38.7529837155
  0
LWPOLYLINE
  5
505
100
AcDbEntity
  8
RACCORDO
100
AcDbPolyline
 62
253
  6
CONTINUOUS
 90
4
 70
0
 10
-36.5823818647
 20
38.7529837155
 10
-36.508112731
 20
38.7560371487
 10
-36.4706093646
 20
38.7572462916
 10
-36.4328345523
 20
38.7580348948
  0
LWPOLYLINE
  5
506
100
AcDbEntity
  8
ASSI
100
AcDbPolyline
 62
253
  6
CONTINUOUS
 90
4
 70
0
 10
-36.5823818647
 20
38.7529837155
 10
-36.508112731
 20
38.7560371487
 10
-36.4706093646
 20
38.7572462916
 10
-36.4328345523
 20
38.7580348948
  0
LINE
  5
507
100
AcDbEntity
  8
RACCORDO
100
AcDbLine
 62
253
  6
CONTINUOUS
 10
-36.849805689
 20
38.7419887207
 11
-36.6926978008
 21
38.7479922732
  0
LINE
  5
508
100
AcDbEntity
  8
ASSI
100
AcDbLine
 62
253
  6
CONTINUOUS
 10
-36.849805689
 20
38.7419887207
 11
-36.6926978008
 21
38.7479922732
  0
LINE
  5
509
100
AcDbEntity
  8
RACCORDO
100
AcDbLine
 62
253
  6
CONTINUOUS
 10
-37.0813686991
 20
38.7340882004
 11
-36.849805689
 21
38.7419887207
  0
LINE
  5
50A
100
AcDbEntity
  8
ASSI
100
AcDbLine
 62
253
  6
CONTINUOUS
 10
-37.0813686991
 20
38.7340882004
 11
-36.849805689
 21
38.7419887207
  0
LWPOLYLINE
  5
50B
100
AcDbEntity
  8
RACCORDO
100
AcDbPolyline
 62
253
  6
CONTINUOUS
 90
3
 70
0
 10
-32.8150934914
 20
38.807910518
 10
-32.5224492174
 20
38.8115798256
 10
-30.4960620157
 20
38.843972404
  0
LWPOLYLINE
  5
50C
100
AcDbEntity
  8
ASSI
100
AcDbPolyline
 62
253
  6
CONTINUOUS
 90
3
 70
0
 10
-32.8150934914
 20
38.807910518
 10
-32.5224492174
 20
38.8115798256
 10
-30.4960620157
 20
38.843972404
  0
LINE
  5
50D
100
AcDbEntity
  8
RACCORDO
100
AcDbLine
 62
253
  6
CONTINUOUS
 10
-36.4328345523
 20
38.7580348948
 11
-32.8150934914
 21
38.807910518
  0
LINE
  5
50E
100
AcDbEntity
  8
ASSI
100
AcDbLine
 62
253
  6
CONTINUOUS
 10
-36.4328345523
 20
38.7580348948
 11
-32.8150934914
 21
38.807910518
  0
LINE
  5
50F
100
AcDbEntity
  8
RACCORDO
100
AcDbLine
 62
253
  6
CONTINUOUS
 10
-30.4960620157
 20
38.843972404
 11
-24.583596146
 21
38.9101728871
  0
LINE
  5
510
100
AcDbEntity
  8
ASSI
100
AcDbLine
 62
253
  6
CONTINUOUS
 10
-30.4960620157
 20
38.843972404
 11
-24.583596146
 21
38.9101728871
  0
LINE
  5
511
100
AcDbEntity
  8
RACCORDO
100
AcDbLine
 62
253
  6
CONTINUOUS
 10
-24.583596146
 20
38.9101728871
 11
-22.5419719493
 21
38.9239422565
  0
LINE
  5
512
100
AcDbEntity
  8
ASSI
100
AcDbLine
 62
253
  6
CONTINUOUS
 10
-24.583596146
 20
38.9101728871
 11
-22.5419719493
 21
38.9239422565
  0
LINE
  5
513
100
AcDbEntity
  8
RACCORDO
100
AcDbLine
 62
253
  6
CONTINUOUS
 10
-22.5419719493
 20
38.9239422565
 11
-20.2112907403
 21
38.9317372146
  0
LINE
  5
514
100
AcDbEntity
  8
ASSI
100
AcDbLine
 62
253
  6
CONTINUOUS
 10
-22.5419719493
 20
38.9239422565
 11
-20.2112907403
 21
38.9317372146
  0
LINE
  5
515
100
AcDbEntity
  8
RACCORDO
100
AcDbLine
 62
253
  6
CONTINUOUS
 10
11.7048438775
 20
38.9239252512
 11
17.5219246315
 21
38.9323405606
  0
LINE
  5
516
100
AcDbEntity
  8
ASSI
100
AcDbLine
 62
253
  6
CONTINUOUS
 10
11.7048438775
 20
38.9239252512
 11
17.5219246315
 21
38.9323405606
  0
LINE
  5
517
100
AcDbEntity
  8
0
100
AcDbLine
 62
7
  6
CONTINUOUS
 10
-37.0451561224
 20
39.8269964286
 11
36.9548438775
 21
39.8269964286
  0
LINE
  5
518
100
AcDbEntity
  8
ASSI
100
AcDbLine
 62
7
  6
CONTINUOUS
 10
-37.0451561224
 20
39.8269964286
 11
36.9548438775
 21
39.8269964286
  0
LINE
  5
519
100
AcDbEntity
  8
RACCORDO
100
AcDbLine
 62
253
  6
CONTINUOUS
 10
15.3553065685
 20
39.5882013901
 11
36.9548438775
 21
39.596424552
  0
LINE
  5
51A
100
AcDbEntity
  8
ASSI
100
AcDbLine
 62
253
  6
CONTINUOUS
 10
15.3553065685
 20
39.5882013901
 11
36.9548438775
 21
39.596424552
  0
LINE
  5
51B
100
AcDbEntity
  8
RACCORDO
100
AcDbLine
 62
253
  6
CONTINUOUS
 10
-20.2112907403
 20
38.9317372146
 11
-17.5466197152
 21
38.9323005225
  0
LINE
  5
51C
100
AcDbEntity
  8
ASSI
100
AcDbLine
 62
253
  6
CONTINUOUS
 10
-20.2112907403
 20
38.9317372146
 11
-17.5466197152
 21
38.9323005225
  0
LINE
  5
51D
100
AcDbEntity
  8
RACCORDO
100
AcDbLine
 62
253
  6
CONTINUOUS
 10
17.5219246315
 20
38.9323405606
 11
20.0708936486
 21
38.9318280098
  0
LINE
  5
51E
100
AcDbEntity
  8
ASSI
100
AcDbLine
 62
253
  6
CONTINUOUS
 10
17.5219246315
 20
38.9323405606
 11
20.0708936486
 21
38.9318280098
  0
LWPOLYLINE
  5
51F
100
AcDbEntity
  8
RACCORDO
100
AcDbPolyline
 62
253
  6
CONTINUOUS
 90
3
 70
0
 10
-17.5466197152
 20
38.9323005225
 10
-15.1279829494
 20
38.9284053302
 10
11.7048438775
 20
38.9239252511
  0
LWPOLYLINE
  5
520
100
AcDbEntity
  8
ASSI
100
AcDbPolyline
 62
253
  6
CONTINUOUS
 90
3
 70
0
 10
-17.5466197152
 20
38.9323005225
 10
-15.1279829494
 20
38.9284053302
 10
11.7048438775
 20
38.9239252511
  0
LINE
  5
521
100
AcDbEntity
  8
RACCORDO
100
AcDbLine
 62
253
  6
CONTINUOUS
 10
-37.0451561224
 20
39.596424552
 11
15.3553065685
 21
39.5882013901
  0
LINE
  5
522
100
AcDbEntity
  8
ASSI
100
AcDbLine
 62
253
  6
CONTINUOUS
 10
-37.0451561224
 20
39.596424552
 11
15.3553065685
 21
39.5882013901
  0
LINE
  5
523
100
AcDbEntity
  8
RACCORDO
100
AcDbLine
 62
253
  6
CONTINUOUS
 10
20.0708936486
 20
38.9318280098
 11
22.2423727881
 21
38.9249834728
  0
LINE
  5
524
100
AcDbEntity
  8
ASSI
100
AcDbLine
 62
253
  6
CONTINUOUS
 10
20.0708936486
 20
38.9318280098
 11
22.2423727881
 21
38.9249834728
  0
LINE
  5
525
100
AcDbEntity
  8
RACCORDO
100
AcDbLine
 62
253
  6
CONTINUOUS
 10
22.2423727881
 20
38.9249834728
 11
24.5444441261
 21
38.9097426518
  0
LINE
  5
526
100
AcDbEntity
  8
ASSI
100
AcDbLine
 62
253
  6
CONTINUOUS
 10
22.2423727881
 20
38.9249834728
 11
24.5444441261
 21
38.9097426518
  0
LWPOLYLINE
  5
527
100
AcDbEntity
  8
RACCORDO
100
AcDbPolyline
 62
253
  6
CONTINUOUS
 90
37
 70
0
 10
36.9548438775
 20
39.596424552
 10
37.0187180474
 20
39.5957653011
 10
37.0843768862
 20
39.5935467626
 10
37.1517789054
 20
39.5896408939
 10
37.2207375003
 20
39.5839307663
 10
37.2913373729
 20
39.5762775573
 10
37.3639302579
 20
39.5664853227
 10
37.438443481
 20
39.5543848567
 10
37.5147900883
 20
39.539804906
 10
37.5932750599
 20
39.5224767225
 10
37.6737826386
 20
39.5021898961
 10
37.7561816489
 20
39.4787318722
 10
37.8407147364
 20
39.4517568497
 10
37.9272049011
 20
39.4210129633
 10
38.0154553646
 20
39.3862474157
 10
38.1056218389
 20
39.3470365711
 10
38.1974443524
 20
39.3030905873
 10
38.2906314593
 20
39.2541245753
 10
38.3852119933
 20
39.1996478425
 10
38.4808109253
 20
39.1393477019
 10
38.5770136697
 20
39.0729243131
 10
38.673683779
 20
38.9998412337
 10
38.7702205857
 20
38.9198576298
 10
38.8661361895
 20
38.8326317258
 10
38.961299314
 20
38.737398487
 10
39.0548666316
 20
38.6339922473
 10
39.1461564352
 20
38.5220617065
 10
39.2349827937
 20
38.4004443021
 10
39.3202718767
 20
38.2689088365
 10
39.4008686539
 20
38.1273118678
 10
39.4760267474
 20
37.9745350289
 10
39.5443234498
 20
37.8103684394
 10
39.6040707756
 20
37.6351380811
 10
39.6537152114
 20
37.448626547
 10
39.6914464314
 20
37.2511478099
 10
39.7153344707
 20
37.0436077507
 10
39.7234758687
 20
36.8269964286
  0
LWPOLYLINE
  5
528
100
AcDbEntity
  8
ASSI
100
AcDbPolyline
 62
253
  6
CONTINUOUS
 90
37
 70
0
 10
36.9548438775
 20
39.596424552
 10
37.0187180474
 20
39.5957653011
 10
37.0843768862
 20
39.5935467626
 10
37.1517789054
 20
39.5896408939
 10
37.2207375003
 20
39.5839307663
 10
37.2913373729
 20
39.5762775573
 10
37.3639302579
 20
39.5664853227
 10
37.438443481
 20
39.5543848567
 10
37.5147900883
 20
39.539804906
 10
37.5932750599
 20
39.5224767225
 10
37.6737826386
 20
39.5021898961
 10
37.7561816489
 20
39.4787318722
 10
37.8407147364
 20
39.4517568497
 10
37.9272049011
 20
39.4210129633
 10
38.0154553646
 20
39.3862474157
 10
38.1056218389
 20
39.3470365711
 10
38.1974443524
 20
39.3030905873
 10
38.2906314593
 20
39.2541245753
 10
38.3852119933
 20
39.1996478425
 10
38.4808109253
 20
39.1393477019
 10
38.5770136697
 20
39.0729243131
 10
38.673683779
 20
38.9998412337
 10
38.7702205857
 20
38.9198576298
 10
38.8661361895
 20
38.8326317258
 10
38.961299314
 20
38.737398487
 10
39.0548666316
 20
38.6339922473
 10
39.1461564352
 20
38.5220617065
 10
39.2349827937
 20
38.4004443021
 10
39.3202718767
 20
38.2689088365
 10
39.4008686539
 20
38.1273118678
 10
39.4760267474
 20
37.9745350289
 10
39.5443234498
 20
37.8103684394
 10
39.6040707756
 20
37.6351380811
 10
39.6537152114
 20
37.448626547
 10
39.6914464314
 20
37.2511478099
 10
39.7153344707
 20
37.0436077507
 10
39.7234758687
 20
36.8269964286
  0
LINE
  5
529
100
AcDbEntity
  8
RACCORDO
100
AcDbLine
 62
253
  6
CONTINUOUS
 10
24.5444441261
 20
38.9097426518
 11
27.1813796354
 21
38.8826488965
  0
LINE
  5
52A
100
AcDbEntity
  8
ASSI
100
AcDbLine
 62
253
  6
CONTINUOUS
 10
24.5444441261
 20
38.9097426518
 11
27.1813796354
 21
38.8826488965
  0
LINE
  5
52B
100
AcDbEntity
  8
RACCORDO
100
AcDbLine
 62
253
  6
CONTINUOUS
 10
33.625855082
 20
38.7949157284
 11
36.3518190864
 21
38.7578579866
  0
LINE
  5
52C
100
AcDbEntity
  8
ASSI
100
AcDbLine
 62
253
  6
CONTINUOUS
 10
33.625855082
 20
38.7949157284
 11
36.3518190864
 21
38.7578579866
  0
LINE
  5
52D
100
AcDbEntity
  8
RACCORDO
100
AcDbLine
 62
253
  6
CONTINUOUS
 10
27.1813796354
 20
38.8826488965
 11
30.7971647717
 21
38.8381502639
  0
LINE
  5
52E
100
AcDbEntity
  8
ASSI
100
AcDbLine
 62
253
  6
CONTINUOUS
 10
27.1813796354
 20
38.8826488965
 11
30.7971647717
 21
38.8381502639
  0
LINE
  5
52F
100
AcDbEntity
  8
RACCORDO
100
AcDbLine
 62
253
  6
CONTINUOUS
 10
30.7971647717
 20
38.8381502639
 11
33.625855082
 21
38.7949157284
  0
LINE
  5
530
100
AcDbEntity
  8
ASSI
100
AcDbLine
 62
253
  6
CONTINUOUS
 10
30.7971647717
 20
38.8381502639
 11
33.625855082
 21
38.7949157284
  0
LWPOLYLINE
  5
531
100
AcDbEntity
  8
RACCORDO
100
AcDbPolyline
 62
253
  6
CONTINUOUS
 90
3
 70
0
 10
36.3518190864
 20
38.7578579866
 10
36.3890140618
 20
38.7570328853
 10
36.4260101531
 20
38.7557698624
  0
LWPOLYLINE
  5
532
100
AcDbEntity
  8
ASSI
100
AcDbPolyline
 62
253
  6
CONTINUOUS
 90
3
 70
0
 10
36.3518190864
 20
38.7578579866
 10
36.3890140618
 20
38.7570328853
 10
36.4260101531
 20
38.7557698624
  0
LINE
  5
533
100
AcDbEntity
  8
RACCORDO
100
AcDbLine
 62
253
  6
CONTINUOUS
 10
36.7229524561
 20
38.7433355226
 11
36.9910564536
 21
38.7340881983
  0
LINE
  5
534
100
AcDbEntity
  8
ASSI
100
AcDbLine
 62
253
  6
CONTINUOUS
 10
36.7229524561
 20
38.7433355226
 11
36.9910564536
 21
38.7340881983
  0
LINE
  5
535
100
AcDbEntity
  8
RACCORDO
100
AcDbLine
 62
253
  6
CONTINUOUS
 10
36.6084268272
 20
38.7477458183
 11
36.7229524561
 21
38.7433355226
  0
LINE
  5
536
100
AcDbEntity
  8
ASSI
100
AcDbLine
 62
253
  6
CONTINUOUS
 10
36.6084268272
 20
38.7477458183
 11
36.7229524561
 21
38.7433355226
  0
LWPOLYLINE
  5
537
100
AcDbEntity
  8
RACCORDO
100
AcDbPolyline
 62
253
  6
CONTINUOUS
 90
37
 70
0
 10
36.9910564537
 20
38.7340881985
 10
37.0333979854
 20
38.7322754849
 10
37.0769199588
 20
38.7294343301
 10
37.1215957561
 20
38.7254840057
 10
37.167302631
 20
38.7203533282
 10
37.2140982197
 20
38.7139513275
 10
37.2622176163
 20
38.7061447709
 10
37.3116140707
 20
38.6968252964
 10
37.3622319343
 20
38.6858838529
 10
37.4142766036
 20
38.6731412948
 10
37.4676742552
 20
38.6584628353
 10
37.5223412266
 20
38.6417128067
 10
37.5784430796
 20
38.6226630074
 10
37.6358679274
 20
38.601151196
 10
37.6944887856
 20
38.5770169354
 10
37.7544108855
 20
38.5499863125
 10
37.8154648448
 20
38.5198758475
 10
37.8774650316
 20
38.4865037697
 10
37.9404432025
 20
38.4495490089
 10
38.0041648005
 20
38.4088060228
 10
38.0683671026
 20
38.3640814974
 10
38.1329708112
 20
38.3150311464
 10
38.1975888322
 20
38.2615007411
 10
38.2619146155
 20
38.2032677846
 10
38.325887759
 20
38.1398334358
 10
38.3889742951
 20
38.0710829909
 10
38.4507475325
 20
37.996783627
 10
38.5111189091
 20
37.9161816551
 10
38.5694043393
 20
37.8291146167
 10
38.624870379
 20
37.7354869027
 10
38.6770809869
 20
37.6345888438
 10
38.7251408457
 20
37.5262630431
 10
38.7679654331
 20
37.4107111447
 10
38.8045781688
 20
37.2878097579
 10
38.8338080628
 20
37.1577266786
 10
38.854386682
 20
37.0210502265
 10
38.8650572543
 20
36.8785776736
  0
LWPOLYLINE
  5
538
100
AcDbEntity
  8
ASSI
100
AcDbPolyline
 62
253
  6
CONTINUOUS
 90
37
 70
0
 10
36.9910564537
 20
38.7340881985
 10
37.0333979854
 20
38.7322754849
 10
37.0769199588
 20
38.7294343301
 10
37.1215957561
 20
38.7254840057
 10
37.167302631
 20
38.7203533282
 10
37.2140982197
 20
38.7139513275
 10
37.2622176163
 20
38.7061447709
 10
37.3116140707
 20
38.6968252964
 10
37.3622319343
 20
38.6858838529
 10
37.4142766036
 20
38.6731412948
 10
37.4676742552
 20
38.6584628353
 10
37.5223412266
 20
38.6417128067
 10
37.5784430796
 20
38.6226630074
 10
37.6358679274
 20
38.601151196
 10
37.6944887856
 20
38.5770169354
 10
37.7544108855
 20
38.5499863125
 10
37.8154648448
 20
38.5198758475
 10
37.8774650316
 20
38.4865037697
 10
37.9404432025
 20
38.4495490089
 10
38.0041648005
 20
38.4088060228
 10
38.0683671026
 20
38.3640814974
 10
38.1329708112
 20
38.3150311464
 10
38.1975888322
 20
38.2615007411
 10
38.2619146155
 20
38.2032677846
 10
38.325887759
 20
38.1398334358
 10
38.3889742951
 20
38.0710829909
 10
38.4507475325
 20
37.996783627
 10
38.5111189091
 20
37.9161816551
 10
38.5694043393
 20
37.8291146167
 10
38.624870379
 20
37.7354869027
 10
38.6770809869
 20
37.6345888438
 10
38.7251408457
 20
37.5262630431
 10
38.7679654331
 20
37.4107111447
 10
38.8045781688
 20
37.2878097579
 10
38.8338080628
 20
37.1577266786
 10
38.854386682
 20
37.0210502265
 10
38.8650572543
 20
36.8785776736
  0
LINE
  5
539
100
AcDbEntity
  8
RACCORDO
100
AcDbLine
 62
253
  6
CONTINUOUS
 10
36.4260101531
 20
38.7557698624
 11
36.6084268272
 21
38.7477458183
  0
LINE
  5
53A
100
AcDbEntity
  8
ASSI
100
AcDbLine
 62
253
  6
CONTINUOUS
 10
36.4260101531
 20
38.7557698624
 11
36.6084268272
 21
38.7477458183
  0
LWPOLYLINE
  5
53B
100
AcDbEntity
  8
RACCORDO
100
AcDbPolyline
 62
253
  6
CONTINUOUS
 90
13
 70
0
 10
36.9548438776
 20
-39.9424316948
 10
36.9590798641
 20
-39.929809895
 10
36.9632597498
 20
-39.9041294306
 10
36.9673281764
 20
-39.8657304131
 10
36.9712312621
 20
-39.8151213983
 10
36.9749173148
 20
-39.7529726509
 10
36.9783375167
 20
-39.6801072674
 10
36.9814465709
 20
-39.5974902754
 10
36.9842033014
 20
-39.5062158525
 10
36.9865711984
 20
-39.4074928352
 10
36.9885189018
 20
-39.3026287088
 10
36.9900206163
 20
-39.1930122916
 10
36.9910564536
 20
-39.080095341
  0
LWPOLYLINE
  5
53C
100
AcDbEntity
  8
ASSI
100
AcDbPolyline
 62
253
  6
CONTINUOUS
 90
13
 70
0
 10
36.9548438776
 20
-39.9424316948
 10
36.9590798641
 20
-39.929809895
 10
36.9632597498
 20
-39.9041294306
 10
36.9673281764
 20
-39.8657304131
 10
36.9712312621
 20
-39.8151213983
 10
36.9749173148
 20
-39.7529726509
 10
36.9783375167
 20
-39.6801072674
 10
36.9814465709
 20
-39.5974902754
 10
36.9842033014
 20
-39.5062158525
 10
36.9865711984
 20
-39.4074928352
 10
36.9885189018
 20
-39.3026287088
 10
36.9900206163
 20
-39.1930122916
 10
36.9910564536
 20
-39.080095341
  0
LWPOLYLINE
  5
53D
100
AcDbEntity
  8
RACCORDO
100
AcDbPolyline
 62
253
  6
CONTINUOUS
 90
13
 70
0
 10
36.9548438776
 20
39.5964244349
 10
36.9590798718
 20
39.58380264
 10
36.9632597647
 20
39.5581221821
 10
36.9673281979
 20
39.5197231723
 10
36.9712312891
 20
39.4691141665
 10
36.9749173459
 20
39.406965429
 10
36.9783375502
 20
39.3341000563
 10
36.9814466048
 20
39.2514830757
 10
36.9842033337
 20
39.1602086646
 10
36.9865712266
 20
39.0614856591
 10
36.9885189233
 20
38.9566215445
 10
36.9900206285
 20
38.8470051386
 10
36.9910564537
 20
38.7340881985
  0
LWPOLYLINE
  5
53E
100
AcDbEntity
  8
ASSI
100
AcDbPolyline
 62
253
  6
CONTINUOUS
 90
13
 70
0
 10
36.9548438776
 20
39.5964244349
 10
36.9590798718
 20
39.58380264
 10
36.9632597647
 20
39.5581221821
 10
36.9673281979
 20
39.5197231723
 10
36.9712312891
 20
39.4691141665
 10
36.9749173459
 20
39.406965429
 10
36.9783375502
 20
39.3341000563
 10
36.9814466048
 20
39.2514830757
 10
36.9842033337
 20
39.1602086646
 10
36.9865712266
 20
39.0614856591
 10
36.9885189233
 20
38.9566215445
 10
36.9900206285
 20
38.8470051386
 10
36.9910564537
 20
38.7340881985
  0
LWPOLYLINE
  5
53F
100
AcDbEntity
  8
RACCORDO
100
AcDbPolyline
 62
253
  6
CONTINUOUS
 90
13
 70
0
 10
39.723453081
 20
-37.1730035665
 10
39.7108904585
 20
-37.1790247363
 10
39.6853426543
 20
-37.1849666239
 10
39.6471461007
 20
-37.1907509823
 10
39.5968037982
 20
-37.1963016388
 10
39.5349786916
 20
-37.2015454981
 10
39.4624849397
 20
-37.2064135049
 10
39.3802771938
 20
-37.2108415538
 10
39.2894380265
 20
-37.2147713332
 10
39.1911636752
 20
-37.2181510931
 10
39.0867482893
 20
-37.2209363265
 10
38.977566888
 20
-37.2230903559
 10
38.8650572528
 20
-37.2245848159
  0
LWPOLYLINE
  5
540
100
AcDbEntity
  8
ASSI
100
AcDbPolyline
 62
253
  6
CONTINUOUS
 90
13
 70
0
 10
39.723453081
 20
-37.1730035665
 10
39.7108904585
 20
-37.1790247363
 10
39.6853426543
 20
-37.1849666239
 10
39.6471461007
 20
-37.1907509823
 10
39.5968037982
 20
-37.1963016388
 10
39.5349786916
 20
-37.2015454981
 10
39.4624849397
 20
-37.2064135049
 10
39.3802771938
 20
-37.2108415538
 10
39.2894380265
 20
-37.2147713332
 10
39.1911636752
 20
-37.2181510931
 10
39.0867482893
 20
-37.2209363265
 10
38.977566888
 20
-37.2230903559
 10
38.8650572528
 20
-37.2245848159
  0
LWPOLYLINE
  5
541
100
AcDbEntity
  8
RACCORDO
100
AcDbPolyline
 62
253
  6
CONTINUOUS
 90
13
 70
0
 10
39.7234758687
 20
36.8269964286
 10
39.710912678
 20
36.8330177232
 10
39.6853639531
 20
36.8389597236
 10
39.6471661457
 20
36.8447441793
 10
39.5968222838
 20
36.8502949149
 10
39.5349953472
 20
36.8555388324
 10
39.4624995363
 20
36.8604068743
 10
39.3802895505
 20
36.864834933
 10
39.2894480153
 20
36.8687646955
 10
39.1911712254
 20
36.8721444107
 10
39.0867533903
 20
36.8749295709
 10
38.9775695915
 20
36.8770834983
 10
38.8650576733
 20
36.8785778278
  0
LWPOLYLINE
  5
542
100
AcDbEntity
  8
ASSI
100
AcDbPolyline
 62
253
  6
CONTINUOUS
 90
13
 70
0
 10
39.7234758687
 20
36.8269964286
 10
39.710912678
 20
36.8330177232
 10
39.6853639531
 20
36.8389597236
 10
39.6471661457
 20
36.8447441793
 10
39.5968222838
 20
36.8502949149
 10
39.5349953472
 20
36.8555388324
 10
39.4624995363
 20
36.8604068743
 10
39.3802895505
 20
36.864834933
 10
39.2894480153
 20
36.8687646955
 10
39.1911712254
 20
36.8721444107
 10
39.0867533903
 20
36.8749295709
 10
38.9775695915
 20
36.8770834983
 10
38.8650576733
 20
36.8785778278
  0
LWPOLYLINE
  5
543
100
AcDbEntity
  8
RACCORDO
100
AcDbPolyline
 62
253
  6
CONTINUOUS
 90
11
 70
0
 10
-75.1819618379
 20
39.5581221821
 10
-75.2903728171
 20
39.5197231723
 10
-75.3936562661
 20
39.4691141665
 10
-75.4904443012
 20
39.406965429
 10
-75.5794550639
 20
39.3341000563
 10
-75.6595096978
 20
39.2514830757
 10
-75.7295479611
 20
39.1602086646
 10
-75.7886422688
 20
39.0614856591
 10
-75.8360099771
 20
38.9566215445
 10
-75.8710237492
 20
38.8470051386
 10
-75.8932198637
 20
38.7340881985
  0
LWPOLYLINE
  5
544
100
AcDbEntity
  8
ASSI
100
AcDbPolyline
 62
253
  6
CONTINUOUS
 90
11
 70
0
 10
-75.1819618379
 20
39.5581221821
 10
-75.2903728171
 20
39.5197231723
 10
-75.3936562661
 20
39.4691141665
 10
-75.4904443012
 20
39.406965429
 10
-75.5794550639
 20
39.3341000563
 10
-75.6595096978
 20
39.2514830757
 10
-75.7295479611
 20
39.1602086646
 10
-75.7886422688
 20
39.0614856591
 10
-75.8360099771
 20
38.9566215445
 10
-75.8710237492
 20
38.8470051386
 10
-75.8932198637
 20
38.7340881985
  0
LINE
  5
545
100
AcDbEntity
  8
RACCORDO
100
AcDbLine
 62
7
  6
CONTINUOUS
 10
-70.5559758643
 20
-40.1730035714
 11
-75.1166432926
 21
-39.9339891195
  0
LINE
  5
546
100
AcDbEntity
  8
SUPERFICI
100
AcDbLine
 62
7
  6
CONTINUOUS
 10
-70.5559758644
 20
-40.1730035714
 11
-74.9555493578
 21
-39.9424316948
  0
LINE
  5
547
100
AcDbEntity
  8
ASSI
100
AcDbLine
 62
7
  6
CONTINUOUS
 10
-70.5559758643
 20
-40.1730035714
 11
-75.1166432926
 21
-39.9339891195
  0
LWPOLYLINE
  5
548
100
AcDbEntity
  8
RACCORDO
100
AcDbPolyline
 62
253
  6
CONTINUOUS
 90
3
 70
0
 10
-74.9555493578
 20
-39.9424316948
 10
-75.0698591319
 20
-39.929809895
 10
-75.1819618535
 20
-39.9041294306
  0
LWPOLYLINE
  5
549
100
AcDbEntity
  8
ASSI
100
AcDbPolyline
 62
253
  6
CONTINUOUS
 90
3
 70
0
 10
-74.9555493578
 20
-39.9424316948
 10
-75.0698591319
 20
-39.929809895
 10
-75.1819618535
 20
-39.9041294306
  0
LWPOLYLINE
  5
54A
100
AcDbEntity
  8
RACCORDO
100
AcDbPolyline
 62
253
  6
CONTINUOUS
 90
11
 70
0
 10
-75.1819618535
 20
-39.9041294306
 10
-75.2903728365
 20
-39.8657304131
 10
-75.3936562882
 20
-39.8151213983
 10
-75.490444325
 20
-39.7529726509
 10
-75.5794550882
 20
-39.6801072674
 10
-75.6595097212
 20
-39.5974902754
 10
-75.7295479823
 20
-39.5062158525
 10
-75.7886422862
 20
-39.4074928352
 10
-75.8360099893
 20
-39.3026287088
 10
-75.8710237547
 20
-39.1930122916
 10
-75.893219861
 20
-39.080095341
  0
LWPOLYLINE
  5
54B
100
AcDbEntity
  8
ASSI
100
AcDbPolyline
 62
253
  6
CONTINUOUS
 90
11
 70
0
 10
-75.1819618535
 20
-39.9041294306
 10
-75.2903728365
 20
-39.8657304131
 10
-75.3936562882
 20
-39.8151213983
 10
-75.490444325
 20
-39.7529726509
 10
-75.5794550882
 20
-39.6801072674
 10
-75.6595097212
 20
-39.5974902754
 10
-75.7295479823
 20
-39.5062158525
 10
-75.7886422862
 20
-39.4074928352
 10
-75.8360099893
 20
-39.3026287088
 10
-75.8710237547
 20
-39.1930122916
 10
-75.893219861
 20
-39.080095341
  0
LWPOLYLINE
  5
54C
100
AcDbEntity
  8
RACCORDO
100
AcDbPolyline
 62
7
  6
CONTINUOUS
 90
8
 70
0
 10
-75.5076784619
 20
39.4857074474
 10
-75.5965510648
 20
39.435965604
 10
-75.679929903
 20
39.3774214019
 10
-75.7569417402
 20
39.3106759182
 10
-75.8267822524
 20
39.2364131845
 10
-75.8887187085
 20
39.1553970891
 10
-75.9420987528
 20
39.0684633937
 10
-75.9863575726
 20
38.9765115596
  0
LWPOLYLINE
  5
54D
100
AcDbEntity
  8
ASSI
100
AcDbPolyline
 62
7
  6
CONTINUOUS
 90
8
 70
0
 10
-75.507678462
 20
39.4857074474
 10
-75.5965510649
 20
39.435965604
 10
-75.679929903
 20
39.3774214019
 10
-75.7569417403
 20
39.3106759182
 10
-75.8267822524
 20
39.2364131845
 10
-75.8887187085
 20
39.1553970891
 10
-75.9420987528
 20
39.0684633937
 10
-75.9863575726
 20
38.9765115596
  0
LWPOLYLINE
  5
54E
100
AcDbEntity
  8
RACCORDO
100
AcDbPolyline
 62
7
  6
CONTINUOUS
 90
7
 70
0
 10
-75.5035635922
 20
39.4877311282
 10
-75.5921994234
 20
39.4386858979
 10
-75.6755969286
 20
39.3807872736
 10
-75.7528434828
 20
39.3145891444
 10
-75.8231114322
 20
39.2407143815
 10
-75.8856252491
 20
39.1598768321
 10
-75.9396771749
 20
39.0728742835
  0
LWPOLYLINE
  5
54F
100
AcDbEntity
  8
ASSI
100
AcDbPolyline
 62
7
  6
CONTINUOUS
 90
7
 70
0
 10
-75.5035635922
 20
39.4877311282
 10
-75.5921994234
 20
39.4386858979
 10
-75.6755969286
 20
39.3807872736
 10
-75.7528434828
 20
39.3145891444
 10
-75.8231114322
 20
39.2407143815
 10
-75.8856252491
 20
39.1598768321
 10
-75.9396771749
 20
39.0728742835
  0
LINE
  5
550
100
AcDbEntity
  8
RACCORDO
100
AcDbLine
 62
7
  6
CONTINUOUS
 10
-75.41067866
 20
39.5274621827
 11
-75.5076784619
 21
39.4857074474
  0
LINE
  5
551
100
AcDbEntity
  8
ASSI
100
AcDbLine
 62
7
  6
CONTINUOUS
 10
-75.41067866
 20
39.5274621827
 11
-75.507678462
 21
39.4857074474
  0
LINE
  5
552
100
AcDbEntity
  8
RACCORDO
100
AcDbLine
 62
253
  6
CONTINUOUS
 10
-75.884641409
 20
-37.2230903559
 11
-75.9071786629
 21
-37.2245848159
  0
LINE
  5
553
100
AcDbEntity
  8
ASSI
100
AcDbLine
 62
253
  6
CONTINUOUS
 10
-75.884641409
 20
-37.2230903559
 11
-75.9071786629
 21
-37.2245848159
  0
LINE
  5
554
100
AcDbEntity
  8
RACCORDO
100
AcDbLine
 62
253
  6
CONTINUOUS
 10
-75.7427037228
 20
-37.2147713332
 11
-75.884641409
 21
-37.2230903559
  0
LINE
  5
555
100
AcDbEntity
  8
ASSI
100
AcDbLine
 62
253
  6
CONTINUOUS
 10
-75.7427037228
 20
-37.2147713332
 11
-75.884641409
 21
-37.2230903559
  0
LINE
  5
556
100
AcDbEntity
  8
RACCORDO
100
AcDbLine
 62
253
  6
CONTINUOUS
 10
-74.9707392728
 20
-37.1730035665
 11
-75.7427037228
 21
-37.2147713332
  0
LINE
  5
557
100
AcDbEntity
  8
ASSI
100
AcDbLine
 62
253
  6
CONTINUOUS
 10
-74.9707392728
 20
-37.1730035665
 11
-75.7427037228
 21
-37.2147713332
  0
LINE
  5
558
100
AcDbEntity
  8
RACCORDO
100
AcDbLine
 62
253
  6
CONTINUOUS
 10
-74.9707404667
 20
-37.1730035714
 11
-70.5559758643
 21
-37.1730035714
  0
LINE
  5
559
100
AcDbEntity
  8
ASSI
100
AcDbLine
 62
253
  6
CONTINUOUS
 10
-74.9707404667
 20
-37.1730035714
 11
-70.5559758643
 21
-37.1730035714
  0
LINE
  5
55A
100
AcDbEntity
  8
0
100
AcDbLine
 62
7
  6
CONTINUOUS
 10
-78.6350416921
 20
-28.9730105714
 11
-78.6166986481
 21
-28.9730105714
  0
LINE
  5
55B
100
AcDbEntity
  8
0
100
AcDbLine
 62
7
  6
CONTINUOUS
 10
-78.580755591
 20
-28.9730105714
 11
-78.5127824088
 21
-28.9730051536
  0
LINE
  5
55C
100
AcDbEntity
  8
ASSI
100
AcDbLine
 62
7
  6
CONTINUOUS
 10
-78.6350416921
 20
-28.9730105714
 11
-78.6166986481
 21
-28.9730105714
  0
LINE
  5
55D
100
AcDbEntity
  8
ASSI
100
AcDbLine
 62
7
  6
CONTINUOUS
 10
-78.580755591
 20
-28.9730105714
 11
-78.5127824088
 21
-28.9730051536
  0
LINE
  5
55E
100
AcDbEntity
  8
0
100
AcDbLine
 62
7
  6
CONTINUOUS
 10
-78.5917786131
 20
-28.9730105714
 11
-78.5943205286
 21
-28.9730105714
  0
LINE
  5
55F
100
AcDbEntity
  8
ASSI
100
AcDbLine
 62
7
  6
CONTINUOUS
 10
-78.5943205286
 20
-28.9730105714
 11
-78.5967769082
 21
-28.9730105714
  0
LINE
  5
560
100
AcDbEntity
  8
0
100
AcDbLine
 62
7
  6
CONTINUOUS
 10
-78.5048425157
 20
-28.9730035714
 11
-78.3022843155
 21
-28.9730035714
  0
LINE
  5
561
100
AcDbEntity
  8
ASSI
100
AcDbLine
 62
7
  6
CONTINUOUS
 10
-78.5048425157
 20
-28.9730035714
 11
-78.3022843155
 21
-28.9730035714
  0
LINE
  5
562
100
AcDbEntity
  8
0
100
AcDbLine
 62
7
  6
CONTINUOUS
 10
-78.6970765466
 20
-28.4026825714
 11
-78.7057744832
 21
-28.4026825714
  0
LINE
  5
563
100
AcDbEntity
  8
ASSI
100
AcDbLine
 62
7
  6
CONTINUOUS
 10
-78.6970765466
 20
-28.4026825714
 11
-78.7057744832
 21
-28.4026825714
  0
LINE
  5
564
100
AcDbEntity
  8
0
100
AcDbLine
 62
7
  6
CONTINUOUS
 10
-78.7711717977
 20
-27.8516605714
 11
-78.7654779026
 21
-27.8516605714
  0
LINE
  5
565
100
AcDbEntity
  8
ASSI
100
AcDbLine
 62
7
  6
CONTINUOUS
 10
-78.7711717977
 20
-27.8516605714
 11
-78.7654779026
 21
-27.8516605714
  0
LINE
  5
566
100
AcDbEntity
  8
0
100
AcDbLine
 62
7
  6
CONTINUOUS
 10
-78.7025826243
 20
-27.7819062384
 11
-78.5007005047
 21
-27.7819062384
  0
LINE
  5
567
100
AcDbEntity
  8
ASSI
100
AcDbLine
 62
7
  6
CONTINUOUS
 10
-78.7025826243
 20
-27.7819062384
 11
-78.5007005047
 21
-27.7819062384
  0
LINE
  5
568
100
AcDbEntity
  8
0
100
AcDbLine
 62
7
  6
CONTINUOUS
 10
-78.7975861447
 20
-27.3151315714
 11
-78.7775818611
 21
-27.3151315714
  0
LINE
  5
569
100
AcDbEntity
  8
ASSI
100
AcDbLine
 62
7
  6
CONTINUOUS
 10
-78.7975861447
 20
-27.3151315714
 11
-78.7775818611
 21
-27.3151315714
  0
LINE
  5
56A
100
AcDbEntity
  8
0
100
AcDbLine
 62
7
  6
CONTINUOUS
 10
-78.7172039834
 20
-27.8516605714
 11
-78.7323253771
 21
-27.8516535714
  0
LINE
  5
56B
100
AcDbEntity
  8
ASSI
100
AcDbLine
 62
7
  6
CONTINUOUS
 10
-78.7172039834
 20
-27.8516605714
 11
-78.7323253771
 21
-27.8516535714
  0
LINE
  5
56C
100
AcDbEntity
  8
0
100
AcDbLine
 62
7
  6
CONTINUOUS
 10
-78.8666254233
 20
-26.6094015714
 11
-78.8722761622
 21
-26.6094015714
  0
LINE
  5
56D
100
AcDbEntity
  8
0
100
AcDbLine
 62
7
  6
CONTINUOUS
 10
-78.933513596
 20
-26.0728805714
 11
-78.703692601
 21
-26.0728805714
  0
LINE
  5
56E
100
AcDbEntity
  8
ASSI
100
AcDbLine
 62
7
  6
CONTINUOUS
 10
-78.933513596
 20
-26.0728805714
 11
-78.703692601
 21
-26.0728805714
  0
LWPOLYLINE
  5
56F
100
AcDbEntity
  8
RACCORDO
100
AcDbPolyline
 62
253
  6
CONTINUOUS
 90
6
 70
0
 10
-78.9765838537
 20
-22.3609331864
 10
-78.9072852494
 20
-22.358454895
 10
-78.8495391666
 20
-22.3560206252
 10
-78.8035813188
 20
-22.3536403134
 10
-78.7695993014
 20
-22.3513236759
 10
-78.7477318257
 20
-22.349080169
  0
LWPOLYLINE
  5
570
100
AcDbEntity
  8
ASSI
100
AcDbPolyline
 62
253
  6
CONTINUOUS
 90
6
 70
0
 10
-78.9765838537
 20
-22.3609331864
 10
-78.9072852494
 20
-22.358454895
 10
-78.8495391666
 20
-22.3560206252
 10
-78.8035813188
 20
-22.3536403134
 10
-78.7695993014
 20
-22.3513236759
 10
-78.7477318257
 20
-22.349080169
  0
LINE
  5
571
100
AcDbEntity
  8
RACCORDO
100
AcDbLine
 62
253
  6
CONTINUOUS
 10
-79.1486611447
 20
-22.3659812309
 11
-78.9765838537
 21
-22.3609331864
  0
LINE
  5
572
100
AcDbEntity
  8
ASSI
100
AcDbLine
 62
253
  6
CONTINUOUS
 10
-79.1486611447
 20
-22.3659812309
 11
-78.9765838537
 21
-22.3609331864
  0
LINE
  5
573
100
AcDbEntity
  8
RACCORDO
100
AcDbLine
 62
253
  6
CONTINUOUS
 10
-79.4739379933
 20
-22.3740695385
 11
-79.1486611447
 21
-22.3659812309
  0
LINE
  5
574
100
AcDbEntity
  8
ASSI
100
AcDbLine
 62
253
  6
CONTINUOUS
 10
-79.4739379933
 20
-22.3740695385
 11
-79.1486611447
 21
-22.3659812309
  0
LWPOLYLINE
  5
575
100
AcDbEntity
  8
RACCORDO
100
AcDbPolyline
 62
253
  6
CONTINUOUS
 90
6
 70
0
 10
-79.4739379933
 20
-22.3740695385
 10
-79.5144825414
 20
-22.3749004639
 10
-79.5444193135
 20
-22.3752266393
 10
-79.5634114107
 20
-22.3752374951
 10
-79.5712450974
 20
-22.3753028987
 10
-79.571462911
 20
-22.3753496756
  0
LWPOLYLINE
  5
576
100
AcDbEntity
  8
ASSI
100
AcDbPolyline
 62
253
  6
CONTINUOUS
 90
6
 70
0
 10
-79.4739379933
 20
-22.3740695385
 10
-79.5144825414
 20
-22.3749004639
 10
-79.5444193135
 20
-22.3752266393
 10
-79.5634114107
 20
-22.3752374951
 10
-79.5712450974
 20
-22.3753028987
 10
-79.571462911
 20
-22.3753496756
  0
LINE
  5
577
100
AcDbEntity
  8
0
100
AcDbLine
 62
7
  6
CONTINUOUS
 10
-78.9045611544
 20
-26.0728786843
 11
-78.9012176685
 21
-26.0762488291
  0
LINE
  5
578
100
AcDbEntity
  8
ASSI
100
AcDbLine
 62
7
  6
CONTINUOUS
 10
-78.9045611544
 20
-26.0728786843
 11
-78.9012176685
 21
-26.0762488291
  0
LWPOLYLINE
  5
579
100
AcDbEntity
  8
RACCORDO
100
AcDbPolyline
 62
7
  6
CONTINUOUS
 90
3
 70
0
 10
-75.9396771749
 20
39.0728742835
 10
-75.9846373619
 20
38.9805841125
 10
-76.0035262748
 20
38.9327749455
  0
LWPOLYLINE
  5
57A
100
AcDbEntity
  8
ASSI
100
AcDbPolyline
 62
7
  6
CONTINUOUS
 90
3
 70
0
 10
-75.9396771749
 20
39.0728742835
 10
-75.9846373619
 20
38.9805841125
 10
-76.0035262748
 20
38.9327749455
  0
LWPOLYLINE
  5
57B
100
AcDbEntity
  8
RACCORDO
100
AcDbPolyline
 62
7
  6
CONTINUOUS
 90
10
 70
0
 10
-79.2682603699
 20
24.0687396373
 10
-79.2522186926
 20
24.0923974732
 10
-79.1502682712
 20
24.2553557927
 10
-79.0589637976
 20
24.4245091956
 10
-78.9786801468
 20
24.5991631777
 10
-78.9097469449
 20
24.7786006504
 10
-78.8524472157
 20
24.9620848851
 10
-78.8070162186
 20
25.1488625385
 10
-78.7736404829
 20
25.3381667451
 10
-78.7524570418
 20
25.529220266
  0
LWPOLYLINE
  5
57C
100
AcDbEntity
  8
ASSI
100
AcDbPolyline
 62
7
  6
CONTINUOUS
 90
10
 70
0
 10
-79.2682603699
 20
24.0687396373
 10
-79.2522186926
 20
24.0923974732
 10
-79.1502682712
 20
24.2553557927
 10
-79.0589637976
 20
24.4245091956
 10
-78.9786801468
 20
24.5991631777
 10
-78.9097469449
 20
24.7786006504
 10
-78.8524472157
 20
24.9620848851
 10
-78.8070162186
 20
25.1488625385
 10
-78.7736404829
 20
25.3381667451
 10
-78.7524570418
 20
25.529220266
  0
LINE
  5
57D
100
AcDbEntity
  8
RACCORDO
100
AcDbLine
 62
7
  6
CONTINUOUS
 10
-79.3644036352
 20
23.936294471
 11
-79.4236110284
 21
23.850154589
  0
LINE
  5
57E
100
AcDbEntity
  8
ASSI
100
AcDbLine
 62
7
  6
CONTINUOUS
 10
-79.3644036352
 20
23.936294471
 11
-79.4236110284
 21
23.850154589
  0
LINE
  5
57F
100
AcDbEntity
  8
RACCORDO
100
AcDbLine
 62
7
  6
CONTINUOUS
 10
-79.364396477
 20
23.9363033063
 11
-79.2682603699
 21
24.0687396373
  0
LINE
  5
580
100
AcDbEntity
  8
ASSI
100
AcDbLine
 62
7
  6
CONTINUOUS
 10
-79.364396477
 20
23.9363033063
 11
-79.2682603699
 21
24.0687396373
  0
LINE
  5
581
100
AcDbEntity
  8
ASSI
100
AcDbLine
 62
7
  6
CONTINUOUS
 10
-79.3648661269
 20
23.9357020662
 11
-79.3648892013
 21
23.935671358
  0
LINE
  5
582
100
AcDbEntity
  8
RACCORDO
100
AcDbLine
 62
7
  6
CONTINUOUS
 10
-79.364866127
 20
23.9357020661
 11
-79.3648892013
 21
23.9356713581
  0
LINE
  5
583
100
AcDbEntity
  8
RACCORDO
100
AcDbLine
 62
7
  6
CONTINUOUS
 10
-79.3517237959
 20
23.9529630457
 11
-79.3648964836
 21
23.9356624991
  0
LINE
  5
584
100
AcDbEntity
  8
ASSI
100
AcDbLine
 62
7
  6
CONTINUOUS
 10
-79.3517236728
 20
23.9529632087
 11
-79.3648964837
 21
23.935662499
  0
LINE
  5
585
100
AcDbEntity
  8
RACCORDO
100
AcDbLine
 62
7
  6
CONTINUOUS
 10
-79.3648527094
 20
23.935719907
 11
-79.36481379
 21
23.9357696358
  0
LINE
  5
586
100
AcDbEntity
  8
ASSI
100
AcDbLine
 62
7
  6
CONTINUOUS
 10
-79.3648527094
 20
23.935719907
 11
-79.36481379
 21
23.9357696358
  0
LINE
  5
587
100
AcDbEntity
  8
RACCORDO
100
AcDbLine
 62
7
  6
CONTINUOUS
 10
-79.3648135172
 20
-24.2817762729
 11
-79.3648603504
 21
-24.2817167634
  0
LINE
  5
588
100
AcDbEntity
  8
ASSI
100
AcDbLine
 62
7
  6
CONTINUOUS
 10
-79.3648135172
 20
-24.2817762729
 11
-79.3648603503
 21
-24.2817167634
  0
LINE
  5
589
100
AcDbEntity
  8
RACCORDO
100
AcDbLine
 62
7
  6
CONTINUOUS
 10
-79.364860035
 20
-24.2817174461
 11
-79.3648137901
 21
-24.2817767787
  0
LINE
  5
58A
100
AcDbEntity
  8
ASSI
100
AcDbLine
 62
7
  6
CONTINUOUS
 10
-79.364860035
 20
-24.2817174461
 11
-79.3648137901
 21
-24.2817767787
  0
LINE
  5
58B
100
AcDbEntity
  8
RACCORDO
100
AcDbLine
 62
7
  6
CONTINUOUS
 10
-79.3648873068
 20
-24.2816816287
 11
-79.3518134232
 21
-24.2988542746
  0
LINE
  5
58C
100
AcDbEntity
  8
RACCORDO
100
AcDbLine
 62
7
  6
CONTINUOUS
 10
-79.3518134232
 20
-24.2988542746
 11
-79.3490408508
 21
-24.302526841
  0
LINE
  5
58D
100
AcDbEntity
  8
ASSI
100
AcDbLine
 62
7
  6
CONTINUOUS
 10
-79.3648873068
 20
-24.2816816287
 11
-79.3490408532
 21
-24.3025268378
  0
LINE
  5
58E
100
AcDbEntity
  8
RACCORDO
100
AcDbLine
 62
7
  6
CONTINUOUS
 10
-79.3644014178
 20
-24.2823021794
 11
-79.2684462075
 21
-24.4144745179
  0
LINE
  5
58F
100
AcDbEntity
  8
ASSI
100
AcDbLine
 62
7
  6
CONTINUOUS
 10
-79.3644014178
 20
-24.2823021794
 11
-79.2684462077
 21
-24.4144745176
  0
LINE
  5
590
100
AcDbEntity
  8
RACCORDO
100
AcDbLine
 62
7
  6
CONTINUOUS
 10
-79.3644034967
 20
-24.2823017845
 11
-79.4236151897
 21
-24.1961556653
  0
LINE
  5
591
100
AcDbEntity
  8
ASSI
100
AcDbLine
 62
7
  6
CONTINUOUS
 10
-79.3644034967
 20
-24.2823017845
 11
-79.4236151897
 21
-24.1961556653
  0
LWPOLYLINE
  5
592
100
AcDbEntity
  8
RACCORDO
100
AcDbPolyline
 62
7
  6
CONTINUOUS
 90
10
 70
0
 10
-79.2684462075
 20
-24.4144745179
 10
-79.2522207696
 20
-24.4384007341
 10
-79.150268577
 20
-24.6013639598
 10
-79.0589634723
 20
-24.7705227032
 10
-78.978680369
 20
-24.9451823714
 10
-78.9097489224
 20
-25.1246257835
 10
-78.8524521762
 20
-25.3081161161
 10
-78.8070253999
 20
-25.4948999282
 10
-78.7736551234
 20
-25.6842102555
 10
-78.7524783704
 20
-25.8752697593
  0
LWPOLYLINE
  5
593
100
AcDbEntity
  8
ASSI
100
AcDbPolyline
 62
7
  6
CONTINUOUS
 90
10
 70
0
 10
-79.2684462077
 20
-24.4144745176
 10
-79.2522207696
 20
-24.4384007341
 10
-79.150268577
 20
-24.6013639598
 10
-79.0589634723
 20
-24.7705227032
 10
-78.978680369
 20
-24.9451823714
 10
-78.9097489224
 20
-25.1246257835
 10
-78.8524521762
 20
-25.3081161161
 10
-78.8070253999
 20
-25.4948999282
 10
-78.7736551234
 20
-25.6842102555
 10
-78.7524783704
 20
-25.8752697593
  0
LWPOLYLINE
  5
594
100
AcDbEntity
  8
SUPERFICI
100
AcDbPolyline
 62
7
  6
CONTINUOUS
 90
3
 70
0
 10
-76.3323872175
 20
37.9979234902
 10
-76.4466453273
 20
37.6552953567
 10
-76.5573980155
 20
37.313557717
  0
LWPOLYLINE
  5
595
100
AcDbEntity
  8
ASSI
100
AcDbPolyline
 62
7
  6
CONTINUOUS
 90
3
 70
0
 10
-76.3323872175
 20
37.9979234902
 10
-76.4466453273
 20
37.6552953567
 10
-76.5573980155
 20
37.313557717
  0
LINE
  5
596
100
AcDbEntity
  8
SUPERFICI
100
AcDbLine
 62
7
  6
CONTINUOUS
 10
-76.2143949895
 20
38.3417737515
 11
-76.3323870229
 21
37.9979240657
  0
LINE
  5
597
100
AcDbEntity
  8
ASSI
100
AcDbLine
 62
7
  6
CONTINUOUS
 10
-76.2143949895
 20
38.3417737515
 11
-76.3323870229
 21
37.9979240657
  0
LWPOLYLINE
  5
598
100
AcDbEntity
  8
SUPERFICI
100
AcDbPolyline
 62
7
  6
CONTINUOUS
 90
3
 70
0
 10
-76.003526337
 20
38.9327749865
 10
-76.0925405677
 20
38.6868365289
 10
-76.2143951383
 20
38.341773324
  0
LWPOLYLINE
  5
599
100
AcDbEntity
  8
ASSI
100
AcDbPolyline
 62
7
  6
CONTINUOUS
 90
3
 70
0
 10
-76.003526337
 20
38.9327749865
 10
-76.0925405677
 20
38.6868365289
 10
-76.2143951383
 20
38.341773324
  0
LINE
  5
59A
100
AcDbEntity
  8
RACCORDO
100
AcDbLine
 62
7
  6
CONTINUOUS
 10
-79.474857811
 20
23.7558043584
 11
-79.5146715091
 21
23.6589926735
  0
LINE
  5
59B
100
AcDbEntity
  8
ASSI
100
AcDbLine
 62
7
  6
CONTINUOUS
 10
-79.474857811
 20
23.7558043584
 11
-79.5146715091
 21
23.6589926735
  0
LINE
  5
59C
100
AcDbEntity
  8
RACCORDO
100
AcDbLine
 62
7
  6
CONTINUOUS
 10
-79.4244185587
 20
23.8489797261
 11
-79.4742153627
 21
23.7569911396
  0
LINE
  5
59D
100
AcDbEntity
  8
ASSI
100
AcDbLine
 62
7
  6
CONTINUOUS
 10
-79.4244185587
 20
23.8489797261
 11
-79.4742153627
 21
23.7569911396
  0
LINE
  5
59E
100
AcDbEntity
  8
RACCORDO
100
AcDbLine
 62
7
  6
CONTINUOUS
 10
-79.4244187012
 20
-24.1949866496
 11
-79.4742185957
 21
-24.1029923462
  0
LINE
  5
59F
100
AcDbEntity
  8
ASSI
100
AcDbLine
 62
7
  6
CONTINUOUS
 10
-79.4244187012
 20
-24.1949866496
 11
-79.4742185957
 21
-24.1029923462
  0
LINE
  5
5A0
100
AcDbEntity
  8
RACCORDO
100
AcDbLine
 62
7
  6
CONTINUOUS
 10
-79.4748580988
 20
-24.1018110056
 11
-79.5146738535
 21
-24.0049942603
  0
LINE
  5
5A1
100
AcDbEntity
  8
ASSI
100
AcDbLine
 62
7
  6
CONTINUOUS
 10
-79.4748580988
 20
-24.1018110056
 11
-79.5146738535
 21
-24.0049942603
  0
LWPOLYLINE
  5
5A2
100
AcDbEntity
  8
RACCORDO
100
AcDbPolyline
 62
7
  6
CONTINUOUS
 90
13
 70
0
 10
-76.0035262097
 20
-39.278782074
 10
-75.9846765864
 20
-39.3264988105
 10
-75.9397323345
 20
-39.4187814304
 10
-75.8856956105
 20
-39.5057825759
 10
-75.8231947669
 20
-39.5866243564
 10
-75.7529363039
 20
-39.6605080928
 10
-75.6756947988
 20
-39.7267187669
 10
-75.592297414
 20
-39.7846320919
 10
-75.503655867
 20
-39.8336931208
 10
-75.4107580588
 20
-39.8734399865
 10
-75.3146002028
 20
-39.9035377082
 10
-75.2161682019
 20
-39.9237653675
 10
-75.1166817654
 20
-39.9339871032
  0
LWPOLYLINE
  5
5A3
100
AcDbEntity
  8
ASSI
100
AcDbPolyline
 62
7
  6
CONTINUOUS
 90
13
 70
0
 10
-76.0035262097
 20
-39.278782074
 10
-75.9846765864
 20
-39.3264988105
 10
-75.9397323345
 20
-39.4187814304
 10
-75.8856956105
 20
-39.5057825759
 10
-75.8231947669
 20
-39.5866243564
 10
-75.7529363039
 20
-39.6605080928
 10
-75.6756947988
 20
-39.7267187669
 10
-75.592297414
 20
-39.7846320919
 10
-75.503655867
 20
-39.8336931208
 10
-75.4107580588
 20
-39.8734399865
 10
-75.3146002028
 20
-39.9035377082
 10
-75.2161682019
 20
-39.9237653675
 10
-75.1166817654
 20
-39.9339871032
  0
LINE
  5
5A4
100
AcDbEntity
  8
SUPERFICI
100
AcDbLine
 62
7
  6
CONTINUOUS
 10
-77.3316804767
 20
34.5991936445
 11
-77.4163670247
 21
34.2590116342
  0
LINE
  5
5A5
100
AcDbEntity
  8
ASSI
100
AcDbLine
 62
7
  6
CONTINUOUS
 10
-77.3316804767
 20
34.5991936445
 11
-77.4163670247
 21
34.2590116342
  0
LINE
  5
5A6
100
AcDbEntity
  8
RACCORDO
100
AcDbLine
 62
7
  6
CONTINUOUS
 10
-79.5151555696
 20
23.6578156235
 11
-79.5445235274
 21
23.557265887
  0
LINE
  5
5A7
100
AcDbEntity
  8
ASSI
100
AcDbLine
 62
7
  6
CONTINUOUS
 10
-79.5151555696
 20
23.6578156235
 11
-79.5445235274
 21
23.557265887
  0
LWPOLYLINE
  5
5A8
100
AcDbEntity
  8
SUPERFICI
100
AcDbPolyline
 62
7
  6
CONTINUOUS
 90
9
 70
0
 10
-76.5573977363
 20
37.3135585908
 10
-76.664650526
 20
36.973033816
 10
-76.7685192774
 20
36.6336919653
 10
-76.8693645083
 20
36.2946410276
 10
-76.9672006851
 20
35.9560767066
 10
-77.0620880546
 20
35.6180344597
 10
-77.1544067835
 20
35.2793449251
 10
-77.2443221813
 20
34.9395038404
 10
-77.3316804767
 20
34.5991936445
  0
LWPOLYLINE
  5
5A9
100
AcDbEntity
  8
ASSI
100
AcDbPolyline
 62
7
  6
CONTINUOUS
 90
9
 70
0
 10
-76.5573977363
 20
37.3135585908
 10
-76.664650526
 20
36.973033816
 10
-76.7685192774
 20
36.6336919653
 10
-76.8693645083
 20
36.2946410276
 10
-76.9672006851
 20
35.9560767066
 10
-77.0620880546
 20
35.6180344597
 10
-77.1544067835
 20
35.2793449251
 10
-77.2443221813
 20
34.9395038404
 10
-77.3316804767
 20
34.5991936445
  0
LWPOLYLINE
  5
5AA
100
AcDbEntity
  8
0
100
AcDbPolyline
 62
7
  6
CONTINUOUS
 90
5
 70
0
 10
-78.9012176685
 20
-26.0762488291
 10
-78.8971335856
 20
-26.0866445087
 10
-78.8923089055
 20
-26.1044542977
 10
-78.8867056157
 20
-26.1301364626
 10
-78.8803617288
 20
-26.1638751481
  0
LWPOLYLINE
  5
5AB
100
AcDbEntity
  8
ASSI
100
AcDbPolyline
 62
7
  6
CONTINUOUS
 90
5
 70
0
 10
-78.9012176685
 20
-26.0762488291
 10
-78.8971335856
 20
-26.0866445087
 10
-78.8923089055
 20
-26.1044542977
 10
-78.8867056157
 20
-26.1301364626
 10
-78.8803617288
 20
-26.1638751481
  0
LINE
  5
5AC
100
AcDbEntity
  8
RACCORDO
100
AcDbLine
 62
7
  6
CONTINUOUS
 10
-79.5151558895
 20
-24.0038221326
 11
-79.5445250892
 21
-23.9032680422
  0
LINE
  5
5AD
100
AcDbEntity
  8
ASSI
100
AcDbLine
 62
7
  6
CONTINUOUS
 10
-79.5151558895
 20
-24.0038221326
 11
-79.5445250892
 21
-23.9032680422
  0
LINE
  5
5AE
100
AcDbEntity
  8
RACCORDO
100
AcDbLine
 62
7
  6
CONTINUOUS
 10
-79.5448596515
 20
23.5561150683
 11
-79.5634370005
 21
23.4529576264
  0
LINE
  5
5AF
100
AcDbEntity
  8
ASSI
100
AcDbLine
 62
7
  6
CONTINUOUS
 10
-79.5448596515
 20
23.5561150683
 11
-79.5634370005
 21
23.4529576264
  0
LWPOLYLINE
  5
5B0
100
AcDbEntity
  8
RACCORDO
100
AcDbPolyline
 62
253
  6
CONTINUOUS
 90
16
 70
0
 10
-76.0035349877
 20
38.9327497709
 10
-76.0035760964
 20
38.9325623231
 10
-76.0035505585
 20
38.9318280098
 10
-76.0033568786
 20
38.9306694297
 10
-76.0029953004
 20
38.9291113439
 10
-76.002447342
 20
38.9272196001
 10
-76.0017295235
 20
38.9249834728
 10
-76.0008617879
 20
38.9224098293
 10
-75.9998226599
 20
38.9195915762
 10
-75.998633404
 20
38.9165277116
 10
-75.9973228829
 20
38.9132146867
 10
-75.9958725209
 20
38.9097426518
 10
-75.9943067928
 20
38.9061068008
 10
-75.9926510333
 20
38.9023079329
 10
-75.9908805941
 20
38.8984458393
 10
-75.9871068765
 20
38.8905261606
  0
LWPOLYLINE
  5
5B1
100
AcDbEntity
  8
ASSI
100
AcDbPolyline
 62
253
  6
CONTINUOUS
 90
16
 70
0
 10
-76.0035349877
 20
38.9327497709
 10
-76.0035760964
 20
38.9325623231
 10
-76.0035505585
 20
38.9318280098
 10
-76.0033568786
 20
38.9306694297
 10
-76.0029953004
 20
38.9291113439
 10
-76.002447342
 20
38.9272196001
 10
-76.0017295235
 20
38.9249834728
 10
-76.0008617879
 20
38.9224098293
 10
-75.9998226599
 20
38.9195915762
 10
-75.998633404
 20
38.9165277116
 10
-75.9973228829
 20
38.9132146867
 10
-75.9958725209
 20
38.9097426518
 10
-75.9943067928
 20
38.9061068008
 10
-75.9926510333
 20
38.9023079329
 10
-75.9908805941
 20
38.8984458393
 10
-75.9871068765
 20
38.8905261606
  0
LWPOLYLINE
  5
5B2
100
AcDbEntity
  8
SUPERFICI
100
AcDbPolyline
 62
7
  6
CONTINUOUS
 90
23
 70
0
 10
-77.4163670247
 20
34.2590116342
 10
-77.4985086046
 20
33.9186046621
 10
-77.5780147881
 20
33.5785057011
 10
-77.6544940336
 20
33.2406569117
 10
-77.7280058618
 20
32.9051530728
 10
-77.7986087697
 20
32.5720863641
 10
-77.8659845002
 20
32.2434113582
 10
-77.9302134554
 20
31.9192888535
 10
-77.9914042433
 20
31.5997261822
 10
-78.0493480612
 20
31.2864527161
 10
-78.104134651
 20
30.9797201602
 10
-78.1559184851
 20
30.6794040824
 10
-78.2046367459
 20
30.386662296
 10
-78.2503474614
 20
30.1020266654
 10
-78.2932659295
 20
29.8250379064
 10
-78.3335738949
 20
29.5553596047
 10
-78.3713758229
 20
29.2931172553
 10
-78.4068031001
 20
29.0382262743
 10
-78.4400567464
 20
28.7900279695
 10
-78.4713351677
 20
28.5477534537
 10
-78.5006290694
 20
28.3121917858
 10
-78.5278369085
 20
28.0850179929
 10
-78.5762017562
 20
27.6580819629
  0
LWPOLYLINE
  5
5B3
100
AcDbEntity
  8
ASSI
100
AcDbPolyline
 62
7
  6
CONTINUOUS
 90
23
 70
0
 10
-77.4163670247
 20
34.2590116342
 10
-77.4985086046
 20
33.9186046621
 10
-77.5780147881
 20
33.5785057011
 10
-77.6544940336
 20
33.2406569117
 10
-77.7280058618
 20
32.9051530728
 10
-77.7986087697
 20
32.5720863641
 10
-77.8659845002
 20
32.2434113582
 10
-77.9302134554
 20
31.9192888535
 10
-77.9914042433
 20
31.5997261822
 10
-78.0493480612
 20
31.2864527161
 10
-78.104134651
 20
30.9797201602
 10
-78.1559184851
 20
30.6794040824
 10
-78.2046367459
 20
30.386662296
 10
-78.2503474614
 20
30.1020266654
 10
-78.2932659295
 20
29.8250379064
 10
-78.3335738949
 20
29.5553596047
 10
-78.3713758229
 20
29.2931172553
 10
-78.4068031001
 20
29.0382262743
 10
-78.4400567464
 20
28.7900279695
 10
-78.4713351677
 20
28.5477534537
 10
-78.5006290694
 20
28.3121917858
 10
-78.5278369085
 20
28.0850179929
 10
-78.5762017562
 20
27.6580819629
  0
LINE
  5
5B4
100
AcDbEntity
  8
RACCORDO
100
AcDbLine
 62
7
  6
CONTINUOUS
 10
-79.5448599232
 20
-23.9021216395
 11
-79.5634379626
 21
-23.7989599876
  0
LINE
  5
5B5
100
AcDbEntity
  8
ASSI
100
AcDbLine
 62
7
  6
CONTINUOUS
 10
-79.5448599232
 20
-23.9021216395
 11
-79.5634379626
 21
-23.7989599876
  0
LINE
  5
5B6
100
AcDbEntity
  8
0
100
AcDbLine
 62
7
  6
CONTINUOUS
 10
-78.3022843155
 20
-28.9730035714
 11
-78.347938526
 21
-28.7146356193
  0
LINE
  5
5B7
100
AcDbEntity
  8
ASSI
100
AcDbLine
 62
7
  6
CONTINUOUS
 10
-78.3022843155
 20
-28.9730035714
 11
-78.347938526
 21
-28.7146356193
  0
LINE
  5
5B8
100
AcDbEntity
  8
0
100
AcDbLine
 62
7
  6
CONTINUOUS
 10
-78.5502938309
 20
-28.7149979939
 11
-78.5048425157
 21
-28.9730035714
  0
LINE
  5
5B9
100
AcDbEntity
  8
ASSI
100
AcDbLine
 62
7
  6
CONTINUOUS
 10
-78.5502938309
 20
-28.7149979939
 11
-78.5048425157
 21
-28.9730035714
  0
LINE
  5
5BA
100
AcDbEntity
  8
0
100
AcDbLine
 62
7
  6
CONTINUOUS
 10
-78.347938526
 20
-28.7146356193
 11
-78.3927683892
 21
-28.4527214777
  0
LINE
  5
5BB
100
AcDbEntity
  8
ASSI
100
AcDbLine
 62
7
  6
CONTINUOUS
 10
-78.347938526
 20
-28.7146356193
 11
-78.3927683892
 21
-28.4527214777
  0
LINE
  5
5BC
100
AcDbEntity
  8
0
100
AcDbLine
 62
7
  6
CONTINUOUS
 10
-78.5949527713
 20
-28.4532373376
 11
-78.5502938309
 21
-28.7149979939
  0
LINE
  5
5BD
100
AcDbEntity
  8
ASSI
100
AcDbLine
 62
7
  6
CONTINUOUS
 10
-78.5949527713
 20
-28.4532373376
 11
-78.5502938309
 21
-28.7149979939
  0
LWPOLYLINE
  5
5BE
100
AcDbEntity
  8
0
100
AcDbPolyline
 62
7
  6
CONTINUOUS
 90
5
 70
0
 10
-78.8803617288
 20
-26.1638751481
 10
-78.8733912824
 20
-26.2052396509
 10
-78.8658040309
 20
-26.2536789385
 10
-78.8575902199
 20
-26.3091438994
 10
-78.8488346247
 20
-26.3716583918
  0
LWPOLYLINE
  5
5BF
100
AcDbEntity
  8
ASSI
100
AcDbPolyline
 62
7
  6
CONTINUOUS
 90
5
 70
0
 10
-78.8803617288
 20
-26.1638751481
 10
-78.8733912824
 20
-26.2052396509
 10
-78.8658040309
 20
-26.2536789385
 10
-78.8575902199
 20
-26.3091438994
 10
-78.8488346247
 20
-26.3716583918
  0
LINE
  5
5C0
100
AcDbEntity
  8
0
100
AcDbLine
 62
7
  6
CONTINUOUS
 10
-78.5385722744
 20
-28.9730105714
 11
-78.5805750432
 21
-28.7251605707
  0
LINE
  5
5C1
100
AcDbEntity
  8
ASSI
100
AcDbLine
 62
7
  6
CONTINUOUS
 10
-78.5385722744
 20
-28.9730105714
 11
-78.5805750432
 21
-28.7251605707
  0
LINE
  5
5C2
100
AcDbEntity
  8
0
100
AcDbLine
 62
7
  6
CONTINUOUS
 10
-78.3927683892
 20
-28.4527214777
 11
-78.4367277957
 21
-28.187216819
  0
LINE
  5
5C3
100
AcDbEntity
  8
ASSI
100
AcDbLine
 62
7
  6
CONTINUOUS
 10
-78.3927683892
 20
-28.4527214777
 11
-78.4367277957
 21
-28.187216819
  0
LINE
  5
5C4
100
AcDbEntity
  8
0
100
AcDbLine
 62
7
  6
CONTINUOUS
 10
-78.6387719512
 20
-28.1876785066
 11
-78.5949527713
 21
-28.4532373376
  0
LINE
  5
5C5
100
AcDbEntity
  8
ASSI
100
AcDbLine
 62
7
  6
CONTINUOUS
 10
-78.6387719512
 20
-28.1876785066
 11
-78.5949527713
 21
-28.4532373376
  0
LINE
  5
5C6
100
AcDbEntity
  8
0
100
AcDbLine
 62
7
  6
CONTINUOUS
 10
-78.5805750432
 20
-28.7251605707
 11
-78.6212945529
 21
-28.4765455353
  0
LINE
  5
5C7
100
AcDbEntity
  8
ASSI
100
AcDbLine
 62
7
  6
CONTINUOUS
 10
-78.5805750432
 20
-28.7251605707
 11
-78.6212945529
 21
-28.4765455353
  0
LWPOLYLINE
  5
5C8
100
AcDbEntity
  8
0
100
AcDbPolyline
 62
7
  6
CONTINUOUS
 90
3
 70
0
 10
-78.4367277957
 20
-28.187216819
 10
-78.4796323072
 20
-27.9179443339
 10
-78.5007005047
 20
-27.7819062384
  0
LWPOLYLINE
  5
5C9
100
AcDbEntity
  8
ASSI
100
AcDbPolyline
 62
7
  6
CONTINUOUS
 90
3
 70
0
 10
-78.4367277957
 20
-28.187216819
 10
-78.4796323072
 20
-27.9179443339
 10
-78.5007005047
 20
-27.7819062384
  0
LINE
  5
5CA
100
AcDbEntity
  8
0
100
AcDbLine
 62
7
  6
CONTINUOUS
 10
-78.6815618281
 20
-27.9181491179
 11
-78.6387719512
 21
-28.1876785066
  0
LINE
  5
5CB
100
AcDbEntity
  8
ASSI
100
AcDbLine
 62
7
  6
CONTINUOUS
 10
-78.6815618281
 20
-27.9181491179
 11
-78.6387719512
 21
-28.1876785066
  0
LINE
  5
5CC
100
AcDbEntity
  8
0
100
AcDbLine
 62
7
  6
CONTINUOUS
 10
-78.6212945529
 20
-28.4765455353
 11
-78.6607071404
 21
-28.2271654352
  0
LINE
  5
5CD
100
AcDbEntity
  8
ASSI
100
AcDbLine
 62
7
  6
CONTINUOUS
 10
-78.6212945529
 20
-28.4765455353
 11
-78.6607071404
 21
-28.2271654352
  0
LINE
  5
5CE
100
AcDbEntity
  8
0
100
AcDbLine
 62
7
  6
CONTINUOUS
 10
-78.7025826243
 20
-27.7819062384
 11
-78.6815618281
 21
-27.9181491179
  0
LINE
  5
5CF
100
AcDbEntity
  8
ASSI
100
AcDbLine
 62
7
  6
CONTINUOUS
 10
-78.7025826243
 20
-27.7819062384
 11
-78.6815618281
 21
-27.9181491179
  0
LINE
  5
5D0
100
AcDbEntity
  8
0
100
AcDbLine
 62
7
  6
CONTINUOUS
 10
-78.6607071404
 20
-28.2271654352
 11
-78.6987181524
 21
-27.9770201505
  0
LINE
  5
5D1
100
AcDbEntity
  8
ASSI
100
AcDbLine
 62
7
  6
CONTINUOUS
 10
-78.6607071404
 20
-28.2271654352
 11
-78.6987181524
 21
-27.9770201505
  0
LINE
  5
5D2
100
AcDbEntity
  8
0
100
AcDbLine
 62
7
  6
CONTINUOUS
 10
-78.8538565046
 20
-27.0169995753
 11
-78.8191541417
 21
-27.3367615819
  0
LINE
  5
5D3
100
AcDbEntity
  8
ASSI
100
AcDbLine
 62
7
  6
CONTINUOUS
 10
-78.8538565046
 20
-27.0169995753
 11
-78.8191541417
 21
-27.3367615819
  0
LWPOLYLINE
  5
5D4
100
AcDbEntity
  8
0
100
AcDbPolyline
 62
7
  6
CONTINUOUS
 90
3
 70
0
 10
-78.8216099147
 20
-27.2027495697
 10
-78.8563561778
 20
-26.8802300404
 10
-78.8729532199
 20
-26.7188685631
  0
LWPOLYLINE
  5
5D5
100
AcDbEntity
  8
ASSI
100
AcDbPolyline
 62
7
  6
CONTINUOUS
 90
3
 70
0
 10
-78.8216099147
 20
-27.2027495697
 10
-78.8563561778
 20
-26.8802300404
 10
-78.8729532199
 20
-26.7188685631
  0
LINE
  5
5D6
100
AcDbEntity
  8
0
100
AcDbLine
 62
7
  6
CONTINUOUS
 10
-78.8671246357
 20
-26.688068982
 11
-78.8418662839
 21
-26.9237144328
  0
LINE
  5
5D7
100
AcDbEntity
  8
ASSI
100
AcDbLine
 62
7
  6
CONTINUOUS
 10
-78.8671246357
 20
-26.688068982
 11
-78.8418662839
 21
-26.9237144328
  0
LINE
  5
5D8
100
AcDbEntity
  8
0
100
AcDbLine
 62
7
  6
CONTINUOUS
 10
-78.7763132104
 20
-26.9672885133
 11
-78.7560871381
 21
-27.155422631
  0
LINE
  5
5D9
100
AcDbEntity
  8
ASSI
100
AcDbLine
 62
7
  6
CONTINUOUS
 10
-78.7763132104
 20
-26.9672885133
 11
-78.7560871381
 21
-27.155422631
  0
LINE
  5
5DA
100
AcDbEntity
  8
0
100
AcDbLine
 62
7
  6
CONTINUOUS
 10
-78.5509700787
 20
-27.189077361
 11
-78.5722736673
 21
-26.9898530727
  0
LINE
  5
5DB
100
AcDbEntity
  8
ASSI
100
AcDbLine
 62
7
  6
CONTINUOUS
 10
-78.5509700787
 20
-27.189077361
 11
-78.5722736673
 21
-26.9898530727
  0
LINE
  5
5DC
100
AcDbEntity
  8
0
100
AcDbLine
 62
7
  6
CONTINUOUS
 10
-78.8753176219
 20
-26.6094015714
 11
-78.8671246357
 21
-26.688068982
  0
LINE
  5
5DD
100
AcDbEntity
  8
ASSI
100
AcDbLine
 62
7
  6
CONTINUOUS
 10
-78.8753176219
 20
-26.6094015714
 11
-78.8671246357
 21
-26.688068982
  0
LWPOLYLINE
  5
5DE
100
AcDbEntity
  8
0
100
AcDbPolyline
 62
7
  6
CONTINUOUS
 90
4
 70
0
 10
-78.7923833344
 20
-27.0867966961
 10
-78.7971007045
 20
-27.0408075288
 10
-78.802270972
 20
-26.9933023692
 10
-78.8131149723
 20
-26.8974410055
  0
LWPOLYLINE
  5
5DF
100
AcDbEntity
  8
ASSI
100
AcDbPolyline
 62
7
  6
CONTINUOUS
 90
4
 70
0
 10
-78.7923833344
 20
-27.0867966961
 10
-78.7971007045
 20
-27.0408075288
 10
-78.802270972
 20
-26.9933023692
 10
-78.8131149723
 20
-26.8974410055
  0
LINE
  5
5E0
100
AcDbEntity
  8
0
100
AcDbLine
 62
7
  6
CONTINUOUS
 10
-78.5386364167
 20
-27.3097844783
 11
-78.5509700787
 21
-27.189077361
  0
LINE
  5
5E1
100
AcDbEntity
  8
ASSI
100
AcDbLine
 62
7
  6
CONTINUOUS
 10
-78.5386364167
 20
-27.3097844783
 11
-78.5509700787
 21
-27.189077361
  0
LINE
  5
5E2
100
AcDbEntity
  8
0
100
AcDbLine
 62
7
  6
CONTINUOUS
 10
-78.7560871381
 20
-27.155422631
 11
-78.7381918715
 21
-27.3312855584
  0
LINE
  5
5E3
100
AcDbEntity
  8
ASSI
100
AcDbLine
 62
7
  6
CONTINUOUS
 10
-78.7560871381
 20
-27.155422631
 11
-78.7381918715
 21
-27.3312855584
  0
LINE
  5
5E4
100
AcDbEntity
  8
0
100
AcDbLine
 62
7
  6
CONTINUOUS
 10
-78.8857686681
 20
-26.6997712143
 11
-78.8538565046
 21
-27.0169995753
  0
LINE
  5
5E5
100
AcDbEntity
  8
ASSI
100
AcDbLine
 62
7
  6
CONTINUOUS
 10
-78.8857686681
 20
-26.6997712143
 11
-78.8538565046
 21
-27.0169995753
  0
LINE
  5
5E6
100
AcDbEntity
  8
0
100
AcDbLine
 62
7
  6
CONTINUOUS
 10
-78.9149284986
 20
-26.3850648797
 11
-78.8857686681
 21
-26.6997712143
  0
LINE
  5
5E7
100
AcDbEntity
  8
ASSI
100
AcDbLine
 62
7
  6
CONTINUOUS
 10
-78.9149284986
 20
-26.3850648797
 11
-78.8857686681
 21
-26.6997712143
  0
LWPOLYLINE
  5
5E8
100
AcDbEntity
  8
0
100
AcDbPolyline
 62
7
  6
CONTINUOUS
 90
3
 70
0
 10
-78.8889732999
 20
-26.5574519818
 10
-78.9192437927
 20
-26.2344594791
 10
-78.933513596
 20
-26.0728805714
  0
LWPOLYLINE
  5
5E9
100
AcDbEntity
  8
ASSI
100
AcDbPolyline
 62
7
  6
CONTINUOUS
 90
3
 70
0
 10
-78.8889732999
 20
-26.5574519818
 10
-78.9192437927
 20
-26.2344594791
 10
-78.933513596
 20
-26.0728805714
  0
LWPOLYLINE
  5
5EA
100
AcDbEntity
  8
0
100
AcDbPolyline
 62
7
  6
CONTINUOUS
 90
7
 70
0
 10
-78.7381918715
 20
-27.3312855584
 10
-78.7231278219
 20
-27.4923009562
 10
-78.7167328468
 20
-27.5652266533
 10
-78.7114470873
 20
-27.6314081223
 10
-78.7073830507
 20
-27.6899844028
 10
-78.7044282297
 20
-27.7403542135
 10
-78.7025826243
 20
-27.7819062384
  0
LWPOLYLINE
  5
5EB
100
AcDbEntity
  8
ASSI
100
AcDbPolyline
 62
7
  6
CONTINUOUS
 90
7
 70
0
 10
-78.7381918715
 20
-27.3312855584
 10
-78.7231278219
 20
-27.4923009562
 10
-78.7167328468
 20
-27.5652266533
 10
-78.7114470873
 20
-27.6314081223
 10
-78.7073830507
 20
-27.6899844028
 10
-78.7044282297
 20
-27.7403542135
 10
-78.7025826243
 20
-27.7819062384
  0
LINE
  5
5EC
100
AcDbEntity
  8
0
100
AcDbLine
 62
7
  6
CONTINUOUS
 10
-78.8967990791
 20
-26.688515833
 11
-78.8706503973
 21
-26.9768557305
  0
LINE
  5
5ED
100
AcDbEntity
  8
ASSI
100
AcDbLine
 62
7
  6
CONTINUOUS
 10
-78.8967990791
 20
-26.688515833
 11
-78.8706503973
 21
-26.9768557305
  0
LWPOLYLINE
  5
5EE
100
AcDbEntity
  8
0
100
AcDbPolyline
 62
7
  6
CONTINUOUS
 90
4
 70
0
 10
-78.51737753
 20
-27.5363828058
 10
-78.5221535727
 20
-27.4823785931
 10
-78.5274021678
 20
-27.4260943965
 10
-78.5386364167
 20
-27.3097844783
  0
LWPOLYLINE
  5
5EF
100
AcDbEntity
  8
ASSI
100
AcDbPolyline
 62
7
  6
CONTINUOUS
 90
4
 70
0
 10
-78.51737753
 20
-27.5363828058
 10
-78.5221535727
 20
-27.4823785931
 10
-78.5274021678
 20
-27.4260943965
 10
-78.5386364167
 20
-27.3097844783
  0
LINE
  5
5F0
100
AcDbEntity
  8
0
100
AcDbLine
 62
7
  6
CONTINUOUS
 10
-78.9413359961
 20
-26.0728805714
 11
-78.9149284986
 21
-26.3850648797
  0
LINE
  5
5F1
100
AcDbEntity
  8
ASSI
100
AcDbLine
 62
7
  6
CONTINUOUS
 10
-78.9413359961
 20
-26.0728805714
 11
-78.9149284986
 21
-26.3850648797
  0
LWPOLYLINE
  5
5F2
100
AcDbEntity
  8
0
100
AcDbPolyline
 62
7
  6
CONTINUOUS
 90
4
 70
0
 10
-78.7788193874
 20
-27.2396714718
 10
-78.7812424612
 20
-27.2073844188
 10
-78.7843650684
 20
-27.1707656733
 10
-78.7923833344
 20
-27.0867966961
  0
LWPOLYLINE
  5
5F3
100
AcDbEntity
  8
ASSI
100
AcDbPolyline
 62
7
  6
CONTINUOUS
 90
4
 70
0
 10
-78.7788193874
 20
-27.2396714718
 10
-78.7812424612
 20
-27.2073844188
 10
-78.7843650684
 20
-27.1707656733
 10
-78.7923833344
 20
-27.0867966961
  0
LINE
  5
5F4
100
AcDbEntity
  8
RACCORDO
100
AcDbLine
 62
7
  6
CONTINUOUS
 10
-79.5636376579
 20
-23.7978511037
 11
-79.5712551304
 21
-23.6925073775
  0
LINE
  5
5F5
100
AcDbEntity
  8
ASSI
100
AcDbLine
 62
7
  6
CONTINUOUS
 10
-79.5636376579
 20
-23.7978511037
 11
-79.5712551304
 21
-23.6925073775
  0
LINE
  5
5F6
100
AcDbEntity
  8
SUPERFICI
100
AcDbLine
 62
7
  6
CONTINUOUS
 10
-78.7613866386
 20
-25.8957118644
 11
-78.7492811583
 21
-26.0728875714
  0
LINE
  5
5F7
100
AcDbEntity
  8
ASSI
100
AcDbLine
 62
7
  6
CONTINUOUS
 10
-78.7613866386
 20
-25.8957118644
 11
-78.7492811583
 21
-26.0728875714
  0
LINE
  5
5F8
100
AcDbEntity
  8
SUPERFICI
100
AcDbLine
 62
7
  6
CONTINUOUS
 10
-78.7393660313
 20
25.8657016433
 11
-78.7613867746
 21
25.5497026568
  0
LINE
  5
5F9
100
AcDbEntity
  8
ASSI
100
AcDbLine
 62
7
  6
CONTINUOUS
 10
-78.7393660313
 20
25.8657016433
 11
-78.7613867746
 21
25.5497026568
  0
LINE
  5
5FA
100
AcDbEntity
  8
RACCORDO
100
AcDbLine
 62
7
  6
CONTINUOUS
 10
-79.5636374953
 20
23.4518443069
 11
-79.5712550072
 21
23.3465018125
  0
LINE
  5
5FB
100
AcDbEntity
  8
ASSI
100
AcDbLine
 62
7
  6
CONTINUOUS
 10
-79.5636374953
 20
23.4518443069
 11
-79.5712550072
 21
23.3465018125
  0
LINE
  5
5FC
100
AcDbEntity
  8
SUPERFICI
100
AcDbLine
 62
7
  6
CONTINUOUS
 10
-78.7146895391
 20
26.1899031588
 11
-78.7393660313
 21
25.8657016433
  0
LINE
  5
5FD
100
AcDbEntity
  8
ASSI
100
AcDbLine
 62
7
  6
CONTINUOUS
 10
-78.7146895391
 20
26.1899031588
 11
-78.7393660313
 21
25.8657016433
  0
LINE
  5
5FE
100
AcDbEntity
  8
SUPERFICI
100
AcDbLine
 62
7
  6
CONTINUOUS
 10
-78.6864702885
 20
26.530236436
 11
-78.7146895391
 21
26.1899031588
  0
LINE
  5
5FF
100
AcDbEntity
  8
ASSI
100
AcDbLine
 62
7
  6
CONTINUOUS
 10
-78.6864702885
 20
26.530236436
 11
-78.7146895391
 21
26.1899031588
  0
LINE
  5
600
100
AcDbEntity
  8
SUPERFICI
100
AcDbLine
 62
7
  6
CONTINUOUS
 10
-78.6543848655
 20
26.8867215457
 11
-78.6864702885
 21
26.530236436
  0
LINE
  5
601
100
AcDbEntity
  8
ASSI
100
AcDbLine
 62
7
  6
CONTINUOUS
 10
-78.6543848655
 20
26.8867215457
 11
-78.6864702885
 21
26.530236436
  0
LINE
  5
602
100
AcDbEntity
  8
SUPERFICI
100
AcDbLine
 62
7
  6
CONTINUOUS
 10
-78.6180424651
 20
27.2599538924
 11
-78.6543848655
 21
26.8867215457
  0
LINE
  5
603
100
AcDbEntity
  8
ASSI
100
AcDbLine
 62
7
  6
CONTINUOUS
 10
-78.6180424651
 20
27.2599538924
 11
-78.6543848655
 21
26.8867215457
  0
LINE
  5
604
100
AcDbEntity
  8
SUPERFICI
100
AcDbLine
 62
7
  6
CONTINUOUS
 10
-78.576202166
 20
27.6580782049
 11
-78.6180424651
 21
27.2599538924
  0
LINE
  5
605
100
AcDbEntity
  8
ASSI
100
AcDbLine
 62
7
  6
CONTINUOUS
 10
-78.576202166
 20
27.6580782049
 11
-78.6180424651
 21
27.2599538924
  0
LINE
  5
606
100
AcDbEntity
  8
0
100
AcDbLine
 62
7
  6
CONTINUOUS
 10
-78.6987181524
 20
-27.9770201505
 11
-78.7172039834
 21
-27.8516605714
  0
LINE
  5
607
100
AcDbEntity
  8
ASSI
100
AcDbLine
 62
7
  6
CONTINUOUS
 10
-78.6987181524
 20
-27.9770201505
 11
-78.7172039834
 21
-27.8516605714
  0
LWPOLYLINE
  5
608
100
AcDbEntity
  8
SUPERFICI
100
AcDbPolyline
 62
7
  6
CONTINUOUS
 90
36
 70
0
 10
-78.3589994518
 20
-29.7260382084
 10
-78.3257580517
 20
-29.9544277854
 10
-78.2908824569
 20
-30.1866924024
 10
-78.2541467666
 20
-30.4239090994
 10
-78.2154244392
 20
-30.6664035147
 10
-78.1746950132
 20
-30.9138139832
 10
-78.1318734436
 20
-31.1661815058
 10
-78.0868453135
 20
-31.4236935928
 10
-78.0395681866
 20
-31.6861076211
 10
-77.9900718479
 20
-31.9528108991
 10
-77.9382528883
 20
-32.2239327121
 10
-77.884071688
 20
-32.4992536202
 10
-77.8276794768
 20
-32.7776349607
 10
-77.7690146784
 20
-33.0590574845
 10
-77.7080285029
 20
-33.343433199
 10
-77.6449287057
 20
-33.6295241563
 10
-77.5796789121
 20
-33.9172764315
 10
-77.5122437166
 20
-34.2066280514
 10
-77.4428729778
 20
-34.4963381971
 10
-77.3715932604
 20
-34.7861821397
 10
-77.2983492194
 20
-35.0762716469
 10
-77.2233007754
 20
-35.365882044
 10
-77.146567516
 20
-35.6545045732
 10
-77.068029335
 20
-35.9425430528
 10
-76.9874860977
 20
-36.230639247
 10
-76.9049300136
 20
-36.5187034282
 10
-76.8203382635
 20
-36.806697459
 10
-76.7334616346
 20
-37.0953222561
 10
-76.6442455159
 20
-37.3845802305
 10
-76.55268431
 20
-37.6743101021
 10
-76.4585784467
 20
-37.964947179
 10
-76.3618567041
 20
-38.256492041
 10
-76.2625096552
 20
-38.548753018
 10
-76.1604160246
 20
-38.8418615192
 10
-76.0555036101
 20
-39.1357871333
 10
-76.0035266708
 20
-39.2787812165
  0
LWPOLYLINE
  5
609
100
AcDbEntity
  8
ASSI
100
AcDbPolyline
 62
7
  6
CONTINUOUS
 90
36
 70
0
 10
-78.3589994518
 20
-29.7260382084
 10
-78.3257580517
 20
-29.9544277854
 10
-78.2908824569
 20
-30.1866924024
 10
-78.2541467666
 20
-30.4239090994
 10
-78.2154244392
 20
-30.6664035147
 10
-78.1746950132
 20
-30.9138139832
 10
-78.1318734436
 20
-31.1661815058
 10
-78.0868453135
 20
-31.4236935928
 10
-78.0395681866
 20
-31.6861076211
 10
-77.9900718479
 20
-31.9528108991
 10
-77.9382528883
 20
-32.2239327121
 10
-77.884071688
 20
-32.4992536202
 10
-77.8276794768
 20
-32.7776349607
 10
-77.7690146784
 20
-33.0590574845
 10
-77.7080285029
 20
-33.343433199
 10
-77.6449287057
 20
-33.6295241563
 10
-77.5796789121
 20
-33.9172764315
 10
-77.5122437166
 20
-34.2066280514
 10
-77.4428729778
 20
-34.4963381971
 10
-77.3715932604
 20
-34.7861821397
 10
-77.2983492194
 20
-35.0762716469
 10
-77.2233007754
 20
-35.365882044
 10
-77.146567516
 20
-35.6545045732
 10
-77.068029335
 20
-35.9425430528
 10
-76.9874860977
 20
-36.230639247
 10
-76.9049300136
 20
-36.5187034282
 10
-76.8203382635
 20
-36.806697459
 10
-76.7334616346
 20
-37.0953222561
 10
-76.6442455159
 20
-37.3845802305
 10
-76.55268431
 20
-37.6743101021
 10
-76.4585784467
 20
-37.964947179
 10
-76.3618567041
 20
-38.256492041
 10
-76.2625096552
 20
-38.548753018
 10
-76.1604160246
 20
-38.8418615192
 10
-76.0555036101
 20
-39.1357871333
 10
-76.0035266708
 20
-39.2787812165
  0
LWPOLYLINE
  5
60A
100
AcDbEntity
  8
0
100
AcDbPolyline
 62
7
  6
CONTINUOUS
 90
10
 70
0
 10
-78.6510785286
 20
-26.3474172085
 10
-78.6590376852
 20
-26.2917522011
 10
-78.6666300791
 20
-26.2415215108
 10
-78.6737186904
 20
-26.1970961804
 10
-78.6803209615
 20
-26.1586255657
 10
-78.68641945
 20
-26.1268832184
 10
-78.691824809
 20
-26.1026732501
 10
-78.6964739229
 20
-26.0858958305
 10
-78.7004299073
 20
-26.0760728038
 10
-78.7036927623
 20
-26.0728786843
  0
LWPOLYLINE
  5
60B
100
AcDbEntity
  8
ASSI
100
AcDbPolyline
 62
7
  6
CONTINUOUS
 90
10
 70
0
 10
-78.6510785286
 20
-26.3474172085
 10
-78.6590376852
 20
-26.2917522011
 10
-78.6666300791
 20
-26.2415215108
 10
-78.6737186904
 20
-26.1970961804
 10
-78.6803209615
 20
-26.1586255657
 10
-78.68641945
 20
-26.1268832184
 10
-78.691824809
 20
-26.1026732501
 10
-78.6964739229
 20
-26.0858958305
 10
-78.7004299073
 20
-26.0760728038
 10
-78.7036927623
 20
-26.0728786843
  0
LINE
  5
60C
100
AcDbEntity
  8
0
100
AcDbLine
 62
7
  6
CONTINUOUS
 10
-78.6166986481
 20
-28.9730105714
 11
-78.6436202555
 21
-28.7840730303
  0
LINE
  5
60D
100
AcDbEntity
  8
ASSI
100
AcDbLine
 62
7
  6
CONTINUOUS
 10
-78.6166986481
 20
-28.9730105714
 11
-78.6436202555
 21
-28.7840730303
  0
LINE
  5
60E
100
AcDbEntity
  8
0
100
AcDbLine
 62
7
  6
CONTINUOUS
 10
-78.6346582874
 20
-28.5916228951
 11
-78.580755591
 21
-28.9730105714
  0
LINE
  5
60F
100
AcDbEntity
  8
ASSI
100
AcDbLine
 62
7
  6
CONTINUOUS
 10
-78.6346582874
 20
-28.5916228951
 11
-78.580755591
 21
-28.9730105714
  0
LINE
  5
610
100
AcDbEntity
  8
0
100
AcDbLine
 62
7
  6
CONTINUOUS
 10
-78.5967769082
 20
-28.9730105714
 11
-78.6416757756
 21
-28.6516140717
  0
LINE
  5
611
100
AcDbEntity
  8
ASSI
100
AcDbLine
 62
7
  6
CONTINUOUS
 10
-78.5967769082
 20
-28.9730105714
 11
-78.6416757756
 21
-28.6516140717
  0
LWPOLYLINE
  5
612
100
AcDbEntity
  8
0
100
AcDbPolyline
 62
7
  6
CONTINUOUS
 90
3
 70
0
 10
-78.6989117173
 20
-28.3110635663
 10
-78.6535786846
 20
-28.6407974847
 10
-78.6056069176
 20
-28.9730185714
  0
LWPOLYLINE
  5
613
100
AcDbEntity
  8
ASSI
100
AcDbPolyline
 62
7
  6
CONTINUOUS
 90
3
 70
0
 10
-78.6989117173
 20
-28.3110635663
 10
-78.6535786846
 20
-28.6407974847
 10
-78.6056069176
 20
-28.9730185714
  0
LINE
  5
614
100
AcDbEntity
  8
SUPERFICI
100
AcDbLine
 62
7
  6
CONTINUOUS
 10
-78.420758924
 20
-29.2811809252
 11
-78.3589994518
 21
-29.7260382084
  0
LINE
  5
615
100
AcDbEntity
  8
ASSI
100
AcDbLine
 62
7
  6
CONTINUOUS
 10
-78.420758924
 20
-29.2811809252
 11
-78.3589994518
 21
-29.7260382084
  0
LINE
  5
616
100
AcDbEntity
  8
0
100
AcDbLine
 62
7
  6
CONTINUOUS
 10
-78.6340069946
 20
-26.4732367749
 11
-78.6510785286
 21
-26.3474172085
  0
LINE
  5
617
100
AcDbEntity
  8
ASSI
100
AcDbLine
 62
7
  6
CONTINUOUS
 10
-78.6340069946
 20
-26.4732367749
 11
-78.6510785286
 21
-26.3474172085
  0
LINE
  5
618
100
AcDbEntity
  8
0
100
AcDbLine
 62
7
  6
CONTINUOUS
 10
-78.6851415811
 20
-28.2178291086
 11
-78.6346582874
 21
-28.5916228951
  0
LINE
  5
619
100
AcDbEntity
  8
ASSI
100
AcDbLine
 62
7
  6
CONTINUOUS
 10
-78.6851415811
 20
-28.2178291086
 11
-78.6346582874
 21
-28.5916228951
  0
LINE
  5
61A
100
AcDbEntity
  8
0
100
AcDbLine
 62
7
  6
CONTINUOUS
 10
-78.6416757756
 20
-28.6516140717
 11
-78.6848122757
 21
-28.3300008233
  0
LINE
  5
61B
100
AcDbEntity
  8
ASSI
100
AcDbLine
 62
7
  6
CONTINUOUS
 10
-78.6416757756
 20
-28.6516140717
 11
-78.6848122757
 21
-28.3300008233
  0
LINE
  5
61C
100
AcDbEntity
  8
0
100
AcDbLine
 62
7
  6
CONTINUOUS
 10
-78.8488346247
 20
-26.3716583918
 11
-78.8296212129
 21
-26.5163386284
  0
LINE
  5
61D
100
AcDbEntity
  8
ASSI
100
AcDbLine
 62
7
  6
CONTINUOUS
 10
-78.8488346247
 20
-26.3716583918
 11
-78.8296212129
 21
-26.5163386284
  0
LINE
  5
61E
100
AcDbEntity
  8
0
100
AcDbLine
 62
7
  6
CONTINUOUS
 10
-78.7416060156
 20
-27.9838168162
 11
-78.6989117173
 21
-28.3110635663
  0
LINE
  5
61F
100
AcDbEntity
  8
ASSI
100
AcDbLine
 62
7
  6
CONTINUOUS
 10
-78.7416060156
 20
-27.9838168162
 11
-78.6989117173
 21
-28.3110635663
  0
LWPOLYLINE
  5
620
100
AcDbEntity
  8
0
100
AcDbPolyline
 62
7
  6
CONTINUOUS
 90
10
 70
0
 10
-78.8242486316
 20
-26.8071410046
 10
-78.829427898
 20
-26.7672169803
 10
-78.834393358
 20
-26.7312655867
 10
-78.8389727218
 20
-26.6994911187
 10
-78.8431450553
 20
-26.6722379745
 10
-78.8469312925
 20
-26.6497645198
 10
-78.8502219462
 20
-26.6321381877
 10
-78.8529805206
 20
-26.6194863537
 10
-78.8552435113
 20
-26.6119125931
 10
-78.8570109185
 20
-26.6094035714
  0
LWPOLYLINE
  5
621
100
AcDbEntity
  8
ASSI
100
AcDbPolyline
 62
7
  6
CONTINUOUS
 90
10
 70
0
 10
-78.8242486316
 20
-26.8071410046
 10
-78.829427898
 20
-26.7672169803
 10
-78.834393358
 20
-26.7312655867
 10
-78.8389727218
 20
-26.6994911187
 10
-78.8431450553
 20
-26.6722379745
 10
-78.8469312925
 20
-26.6497645198
 10
-78.8502219462
 20
-26.6321381877
 10
-78.8529805206
 20
-26.6194863537
 10
-78.8552435113
 20
-26.6119125931
 10
-78.8570109185
 20
-26.6094035714
  0
LINE
  5
622
100
AcDbEntity
  8
SUPERFICI
100
AcDbLine
 62
7
  6
CONTINUOUS
 10
-78.4611186763
 20
-28.9730185714
 11
-78.420758924
 21
-29.2811809252
  0
LINE
  5
623
100
AcDbEntity
  8
ASSI
100
AcDbLine
 62
7
  6
CONTINUOUS
 10
-78.4611186763
 20
-28.9730185714
 11
-78.420758924
 21
-29.2811809252
  0
LINE
  5
624
100
AcDbEntity
  8
0
100
AcDbLine
 62
7
  6
CONTINUOUS
 10
-78.6848122757
 20
-28.3300008233
 11
-78.7261773849
 21
-28.0081714225
  0
LINE
  5
625
100
AcDbEntity
  8
ASSI
100
AcDbLine
 62
7
  6
CONTINUOUS
 10
-78.6848122757
 20
-28.3300008233
 11
-78.7261773849
 21
-28.0081714225
  0
LINE
  5
626
100
AcDbEntity
  8
0
100
AcDbLine
 62
7
  6
CONTINUOUS
 10
-78.6718881028
 20
-28.6858821408
 11
-78.6350416921
 21
-28.9730105714
  0
LINE
  5
627
100
AcDbEntity
  8
ASSI
100
AcDbLine
 62
7
  6
CONTINUOUS
 10
-78.6718881028
 20
-28.6858821408
 11
-78.6350416921
 21
-28.9730105714
  0
LINE
  5
628
100
AcDbEntity
  8
0
100
AcDbLine
 62
7
  6
CONTINUOUS
 10
-78.7323253771
 20
-27.8516535714
 11
-78.6851415811
 21
-28.2178291086
  0
LINE
  5
629
100
AcDbEntity
  8
ASSI
100
AcDbLine
 62
7
  6
CONTINUOUS
 10
-78.7323253771
 20
-27.8516535714
 11
-78.6851415811
 21
-28.2178291086
  0
LINE
  5
62A
100
AcDbEntity
  8
0
100
AcDbLine
 62
7
  6
CONTINUOUS
 10
-78.616075825
 20
-26.6145139262
 11
-78.6340069946
 21
-26.4732367749
  0
LINE
  5
62B
100
AcDbEntity
  8
ASSI
100
AcDbLine
 62
7
  6
CONTINUOUS
 10
-78.616075825
 20
-26.6145139262
 11
-78.6340069946
 21
-26.4732367749
  0
LINE
  5
62C
100
AcDbEntity
  8
0
100
AcDbLine
 62
7
  6
CONTINUOUS
 10
-78.7816994459
 20
-27.6590456149
 11
-78.7416060156
 21
-27.9838168162
  0
LINE
  5
62D
100
AcDbEntity
  8
ASSI
100
AcDbLine
 62
7
  6
CONTINUOUS
 10
-78.7816994459
 20
-27.6590456149
 11
-78.7416060156
 21
-27.9838168162
  0
LWPOLYLINE
  5
62E
100
AcDbEntity
  8
0
100
AcDbPolyline
 62
7
  6
CONTINUOUS
 90
3
 70
0
 10
-78.7295926933
 20
-28.2998185415
 10
-78.6885705802
 20
-28.6343723235
 10
-78.6450125773
 20
-28.9730185714
  0
LWPOLYLINE
  5
62F
100
AcDbEntity
  8
ASSI
100
AcDbPolyline
 62
7
  6
CONTINUOUS
 90
3
 70
0
 10
-78.7295926933
 20
-28.2998185415
 10
-78.6885705802
 20
-28.6343723235
 10
-78.6450125773
 20
-28.9730185714
  0
LINE
  5
630
100
AcDbEntity
  8
0
100
AcDbLine
 62
7
  6
CONTINUOUS
 10
-78.7068882776
 20
-28.4026825714
 11
-78.6718881028
 21
-28.6858821408
  0
LINE
  5
631
100
AcDbEntity
  8
ASSI
100
AcDbLine
 62
7
  6
CONTINUOUS
 10
-78.7068882776
 20
-28.4026825714
 11
-78.6718881028
 21
-28.6858821408
  0
LINE
  5
632
100
AcDbEntity
  8
0
100
AcDbLine
 62
7
  6
CONTINUOUS
 10
-78.8131149723
 20
-26.8974410055
 11
-78.8242486316
 21
-26.8071410046
  0
LINE
  5
633
100
AcDbEntity
  8
ASSI
100
AcDbLine
 62
7
  6
CONTINUOUS
 10
-78.8131149723
 20
-26.8974410055
 11
-78.8242486316
 21
-26.8071410046
  0
LINE
  5
634
100
AcDbEntity
  8
0
100
AcDbLine
 62
7
  6
CONTINUOUS
 10
-78.8296212129
 20
-26.5163386284
 11
-78.8087306784
 21
-26.6854828994
  0
LINE
  5
635
100
AcDbEntity
  8
ASSI
100
AcDbLine
 62
7
  6
CONTINUOUS
 10
-78.8296212129
 20
-26.5163386284
 11
-78.8087306784
 21
-26.6854828994
  0
LINE
  5
636
100
AcDbEntity
  8
0
100
AcDbLine
 62
7
  6
CONTINUOUS
 10
-78.7261773849
 20
-28.0081714225
 11
-78.7657502325
 21
-27.6861187705
  0
LINE
  5
637
100
AcDbEntity
  8
ASSI
100
AcDbLine
 62
7
  6
CONTINUOUS
 10
-78.7261773849
 20
-28.0081714225
 11
-78.7657502325
 21
-27.6861187705
  0
LINE
  5
638
100
AcDbEntity
  8
0
100
AcDbLine
 62
7
  6
CONTINUOUS
 10
-78.8087306784
 20
-26.6854828994
 11
-78.7977177419
 21
-26.7778098738
  0
LINE
  5
639
100
AcDbEntity
  8
ASSI
100
AcDbLine
 62
7
  6
CONTINUOUS
 10
-78.8087306784
 20
-26.6854828994
 11
-78.7977177419
 21
-26.7778098738
  0
LINE
  5
63A
100
AcDbEntity
  8
0
100
AcDbLine
 62
7
  6
CONTINUOUS
 10
-78.5978433829
 20
-26.7652622489
 11
-78.616075825
 21
-26.6145139262
  0
LINE
  5
63B
100
AcDbEntity
  8
ASSI
100
AcDbLine
 62
7
  6
CONTINUOUS
 10
-78.5978433829
 20
-26.7652622489
 11
-78.616075825
 21
-26.6145139262
  0
LINE
  5
63C
100
AcDbEntity
  8
0
100
AcDbLine
 62
7
  6
CONTINUOUS
 10
-78.7020692891
 20
-28.4897218275
 11
-78.7403021981
 21
-28.1676559398
  0
LINE
  5
63D
100
AcDbEntity
  8
ASSI
100
AcDbLine
 62
7
  6
CONTINUOUS
 10
-78.7020692891
 20
-28.4897218275
 11
-78.7403021981
 21
-28.1676559398
  0
LINE
  5
63E
100
AcDbEntity
  8
0
100
AcDbLine
 62
7
  6
CONTINUOUS
 10
-78.7680789168
 20
-27.9693572254
 11
-78.7295926933
 21
-28.2998185415
  0
LINE
  5
63F
100
AcDbEntity
  8
ASSI
100
AcDbLine
 62
7
  6
CONTINUOUS
 10
-78.7680789168
 20
-27.9693572254
 11
-78.7295926933
 21
-28.2998185415
  0
LINE
  5
640
100
AcDbEntity
  8
0
100
AcDbLine
 62
7
  6
CONTINUOUS
 10
-78.8191541417
 20
-27.3367615819
 11
-78.7816994459
 21
-27.6590456149
  0
LINE
  5
641
100
AcDbEntity
  8
ASSI
100
AcDbLine
 62
7
  6
CONTINUOUS
 10
-78.8191541417
 20
-27.3367615819
 11
-78.7816994459
 21
-27.6590456149
  0
LINE
  5
642
100
AcDbEntity
  8
0
100
AcDbLine
 62
7
  6
CONTINUOUS
 10
-78.7657502325
 20
-27.6861187705
 11
-78.8034606938
 21
-27.3639076218
  0
LINE
  5
643
100
AcDbEntity
  8
ASSI
100
AcDbLine
 62
7
  6
CONTINUOUS
 10
-78.7657502325
 20
-27.6861187705
 11
-78.8034606938
 21
-27.3639076218
  0
LINE
  5
644
100
AcDbEntity
  8
0
100
AcDbLine
 62
7
  6
CONTINUOUS
 10
-78.8034606938
 20
-27.3639076218
 11
-78.8216099147
 21
-27.2027495697
  0
LINE
  5
645
100
AcDbEntity
  8
ASSI
100
AcDbLine
 62
7
  6
CONTINUOUS
 10
-78.8034606938
 20
-27.3639076218
 11
-78.8216099147
 21
-27.2027495697
  0
LINE
  5
646
100
AcDbEntity
  8
0
100
AcDbLine
 62
7
  6
CONTINUOUS
 10
-78.7403021981
 20
-28.1676559398
 11
-78.7767568716
 21
-27.845636202
  0
LINE
  5
647
100
AcDbEntity
  8
ASSI
100
AcDbLine
 62
7
  6
CONTINUOUS
 10
-78.7403021981
 20
-28.1676559398
 11
-78.7767568716
 21
-27.845636202
  0
LINE
  5
648
100
AcDbEntity
  8
0
100
AcDbLine
 62
7
  6
CONTINUOUS
 10
-78.7977177419
 20
-26.7778098738
 11
-78.7763132104
 21
-26.9672885133
  0
LINE
  5
649
100
AcDbEntity
  8
ASSI
100
AcDbLine
 62
7
  6
CONTINUOUS
 10
-78.7977177419
 20
-26.7778098738
 11
-78.7763132104
 21
-26.9672885133
  0
LWPOLYLINE
  5
64A
100
AcDbEntity
  8
0
100
AcDbPolyline
 62
7
  6
CONTINUOUS
 90
3
 70
0
 10
-78.5722736673
 20
-26.9898530727
 10
-78.5804170296
 20
-26.9167466546
 10
-78.5978433829
 20
-26.7652622489
  0
LWPOLYLINE
  5
64B
100
AcDbEntity
  8
ASSI
100
AcDbPolyline
 62
7
  6
CONTINUOUS
 90
3
 70
0
 10
-78.5722736673
 20
-26.9898530727
 10
-78.5804170296
 20
-26.9167466546
 10
-78.5978433829
 20
-26.7652622489
  0
LWPOLYLINE
  5
64C
100
AcDbEntity
  8
0
100
AcDbPolyline
 62
7
  6
CONTINUOUS
 90
3
 70
0
 10
-78.8418662839
 20
-26.9237144328
 10
-78.833219543
 20
-27.0021453632
 10
-78.7975861447
 20
-27.3151315714
  0
LWPOLYLINE
  5
64D
100
AcDbEntity
  8
ASSI
100
AcDbPolyline
 62
7
  6
CONTINUOUS
 90
3
 70
0
 10
-78.8418662839
 20
-26.9237144328
 10
-78.833219543
 20
-27.0021453632
 10
-78.7975861447
 20
-27.3151315714
  0
LINE
  5
64E
100
AcDbEntity
  8
0
100
AcDbLine
 62
7
  6
CONTINUOUS
 10
-78.7808486507
 20
-27.8533525757
 11
-78.7680789168
 21
-27.9693572254
  0
LINE
  5
64F
100
AcDbEntity
  8
ASSI
100
AcDbLine
 62
7
  6
CONTINUOUS
 10
-78.7808486507
 20
-27.8533525757
 11
-78.7680789168
 21
-27.9693572254
  0
LWPOLYLINE
  5
650
100
AcDbEntity
  8
RACCORDO
100
AcDbPolyline
 62
253
  6
CONTINUOUS
 90
3
 70
0
 10
-75.9154829209
 20
-37.0352782423
 10
-75.9134477928
 20
-37.084424433
 10
-75.9009370036
 20
-37.3670576074
  0
LWPOLYLINE
  5
651
100
AcDbEntity
  8
ASSI
100
AcDbPolyline
 62
253
  6
CONTINUOUS
 90
3
 70
0
 10
-75.9154829209
 20
-37.0352782423
 10
-75.9134477928
 20
-37.084424433
 10
-75.9009370036
 20
-37.3670576074
  0
LWPOLYLINE
  5
652
100
AcDbEntity
  8
0
100
AcDbPolyline
 62
7
  6
CONTINUOUS
 90
6
 70
0
 10
-78.5007005047
 20
-27.7819062384
 10
-78.5018363062
 20
-27.7528337308
 10
-78.5036295887
 20
-27.7188275805
 10
-78.5060803524
 20
-27.6800068953
 10
-78.5092502401
 20
-27.6362280251
 10
-78.51737753
 20
-27.5363828058
  0
LWPOLYLINE
  5
653
100
AcDbEntity
  8
ASSI
100
AcDbPolyline
 62
7
  6
CONTINUOUS
 90
6
 70
0
 10
-78.5007005047
 20
-27.7819062384
 10
-78.5018363062
 20
-27.7528337308
 10
-78.5036295887
 20
-27.7188275805
 10
-78.5060803524
 20
-27.6800068953
 10
-78.5092502401
 20
-27.6362280251
 10
-78.51737753
 20
-27.5363828058
  0
LWPOLYLINE
  5
654
100
AcDbEntity
  8
RACCORDO
100
AcDbPolyline
 62
253
  6
CONTINUOUS
 90
6
 70
0
 10
-78.7522996953
 20
-25.8465838535
 10
-78.7520380169
 20
-25.8558042931
 10
-78.7519147001
 20
-25.863482203
 10
-78.7519512893
 20
-25.8693978675
 10
-78.7521429943
 20
-25.8733939089
 10
-78.7524875375
 20
-25.8752725222
  0
LWPOLYLINE
  5
655
100
AcDbEntity
  8
ASSI
100
AcDbPolyline
 62
253
  6
CONTINUOUS
 90
6
 70
0
 10
-78.7522996953
 20
-25.8465838535
 10
-78.7520380169
 20
-25.8558042931
 10
-78.7519147001
 20
-25.863482203
 10
-78.7519512893
 20
-25.8693978675
 10
-78.7521429943
 20
-25.8733939089
 10
-78.7524875375
 20
-25.8752725222
  0
LWPOLYLINE
  5
656
100
AcDbEntity
  8
RACCORDO
100
AcDbPolyline
 62
253
  6
CONTINUOUS
 90
3
 70
0
 10
-78.7548476691
 20
-25.767624314
 10
-78.7544531089
 20
-25.7832148493
 10
-78.7522996953
 20
-25.8465838535
  0
LWPOLYLINE
  5
657
100
AcDbEntity
  8
ASSI
100
AcDbPolyline
 62
253
  6
CONTINUOUS
 90
3
 70
0
 10
-78.7548476691
 20
-25.767624314
 10
-78.7544531089
 20
-25.7832148493
 10
-78.7522996953
 20
-25.8465838535
  0
LINE
  5
658
100
AcDbEntity
  8
RACCORDO
100
AcDbLine
 62
253
  6
CONTINUOUS
 10
-78.7554753109
 20
-25.732895867
 11
-78.7548476691
 21
-25.767624314
  0
LINE
  5
659
100
AcDbEntity
  8
ASSI
100
AcDbLine
 62
253
  6
CONTINUOUS
 10
-78.7554753109
 20
-25.732895867
 11
-78.7548476691
 21
-25.767624314
  0
LINE
  5
65A
100
AcDbEntity
  8
RACCORDO
100
AcDbLine
 62
253
  6
CONTINUOUS
 10
-79.364778821
 20
-24.2377162686
 11
-79.3642951094
 21
-24.2656086128
  0
LINE
  5
65B
100
AcDbEntity
  8
ASSI
100
AcDbLine
 62
253
  6
CONTINUOUS
 10
-79.364778821
 20
-24.2377162686
 11
-79.3642951094
 21
-24.2656086128
  0
LINE
  5
65C
100
AcDbEntity
  8
RACCORDO
100
AcDbLine
 62
253
  6
CONTINUOUS
 10
-78.7566871568
 20
23.3346241372
 11
-78.7508984639
 21
22.9806276863
  0
LINE
  5
65D
100
AcDbEntity
  8
ASSI
100
AcDbLine
 62
253
  6
CONTINUOUS
 10
-78.7566871568
 20
23.3346241372
 11
-78.7508984639
 21
22.9806276863
  0
LINE
  5
65E
100
AcDbEntity
  8
RACCORDO
100
AcDbLine
 62
253
  6
CONTINUOUS
 10
-79.3650281199
 20
-24.2188609532
 11
-79.364778821
 21
-24.2377162686
  0
LINE
  5
65F
100
AcDbEntity
  8
ASSI
100
AcDbLine
 62
253
  6
CONTINUOUS
 10
-79.3650281199
 20
-24.2188609532
 11
-79.364778821
 21
-24.2377162686
  0
LINE
  5
660
100
AcDbEntity
  8
RACCORDO
100
AcDbLine
 62
7
  6
CONTINUOUS
 10
-79.5712551304
 20
-23.6925073775
 11
-79.571462911
 21
-23.6729939564
  0
LINE
  5
661
100
AcDbEntity
  8
ASSI
100
AcDbLine
 62
7
  6
CONTINUOUS
 10
-79.5712551304
 20
-23.6925073775
 11
-79.571462911
 21
-23.6729939564
  0
LINE
  5
662
100
AcDbEntity
  8
RACCORDO
100
AcDbLine
 62
253
  6
CONTINUOUS
 10
-78.7508984639
 20
22.9806276863
 11
-78.7486033521
 21
22.7803648515
  0
LINE
  5
663
100
AcDbEntity
  8
ASSI
100
AcDbLine
 62
253
  6
CONTINUOUS
 10
-78.7508984639
 20
22.9806276863
 11
-78.7486033521
 21
22.7803648515
  0
LWPOLYLINE
  5
664
100
AcDbEntity
  8
RACCORDO
100
AcDbPolyline
 62
253
  6
CONTINUOUS
 90
6
 70
0
 10
-79.3642951094
 20
-24.2656086128
 10
-79.3641921948
 20
-24.2745495799
 10
-79.3641900696
 20
-24.2778817831
 10
-79.3642258349
 20
-24.2803884944
 10
-79.3642969827
 20
-24.2819039196
 10
-79.3644034967
 20
-24.2823017845
  0
LWPOLYLINE
  5
665
100
AcDbEntity
  8
ASSI
100
AcDbPolyline
 62
253
  6
CONTINUOUS
 90
6
 70
0
 10
-79.3642951094
 20
-24.2656086128
 10
-79.3641921948
 20
-24.2745495799
 10
-79.3641900696
 20
-24.2778817831
 10
-79.3642258349
 20
-24.2803884944
 10
-79.3642969827
 20
-24.2819039196
 10
-79.3644034967
 20
-24.2823017845
  0
LINE
  5
666
100
AcDbEntity
  8
RACCORDO
100
AcDbLine
 62
253
  6
CONTINUOUS
 10
-78.7561310964
 20
-25.6736948719
 11
-78.7554753109
 21
-25.732895867
  0
LINE
  5
667
100
AcDbEntity
  8
ASSI
100
AcDbLine
 62
253
  6
CONTINUOUS
 10
-78.7561310964
 20
-25.6736948719
 11
-78.7554753109
 21
-25.732895867
  0
LINE
  5
668
100
AcDbEntity
  8
RACCORDO
100
AcDbLine
 62
253
  6
CONTINUOUS
 10
-78.7596984489
 20
23.6220797342
 11
-78.7566871568
 21
23.3346241372
  0
LINE
  5
669
100
AcDbEntity
  8
ASSI
100
AcDbLine
 62
253
  6
CONTINUOUS
 10
-78.7596984489
 20
23.6220797342
 11
-78.7566871568
 21
23.3346241372
  0
LINE
  5
66A
100
AcDbEntity
  8
RACCORDO
100
AcDbLine
 62
253
  6
CONTINUOUS
 10
-78.760657159
 20
-25.0370638626
 11
-78.7570593771
 21
-25.3766426756
  0
LINE
  5
66B
100
AcDbEntity
  8
ASSI
100
AcDbLine
 62
253
  6
CONTINUOUS
 10
-78.760657159
 20
-25.0370638626
 11
-78.7570593771
 21
-25.3766426756
  0
LINE
  5
66C
100
AcDbEntity
  8
RACCORDO
100
AcDbLine
 62
253
  6
CONTINUOUS
 10
-79.3653748239
 20
-24.1742290756
 11
-79.3650281199
 21
-24.2188609532
  0
LINE
  5
66D
100
AcDbEntity
  8
ASSI
100
AcDbLine
 62
253
  6
CONTINUOUS
 10
-79.3653748239
 20
-24.1742290756
 11
-79.3650281199
 21
-24.2188609532
  0
LINE
  5
66E
100
AcDbEntity
  8
RACCORDO
100
AcDbLine
 62
253
  6
CONTINUOUS
 10
-78.7486033521
 20
22.7803648515
 11
-78.7470722108
 21
22.5552903496
  0
LINE
  5
66F
100
AcDbEntity
  8
ASSI
100
AcDbLine
 62
253
  6
CONTINUOUS
 10
-78.7486033521
 20
22.7803648515
 11
-78.7470722108
 21
22.5552903496
  0
LINE
  5
670
100
AcDbEntity
  8
RACCORDO
100
AcDbLine
 62
253
  6
CONTINUOUS
 10
-79.3665939603
 20
22.9505218796
 11
-79.3631579941
 21
22.4641355644
  0
LINE
  5
671
100
AcDbEntity
  8
ASSI
100
AcDbLine
 62
253
  6
CONTINUOUS
 10
-79.3665939603
 20
22.9505218796
 11
-79.3631579941
 21
22.4641355644
  0
LINE
  5
672
100
AcDbEntity
  8
RACCORDO
100
AcDbLine
 62
253
  6
CONTINUOUS
 10
-78.761894759
 20
23.9847183089
 11
-78.7596984489
 21
23.6220797342
  0
LINE
  5
673
100
AcDbEntity
  8
ASSI
100
AcDbLine
 62
253
  6
CONTINUOUS
 10
-78.761894759
 20
23.9847183089
 11
-78.7596984489
 21
23.6220797342
  0
LINE
  5
674
100
AcDbEntity
  8
RACCORDO
100
AcDbLine
 62
253
  6
CONTINUOUS
 10
-78.7619994543
 20
-24.7984888882
 11
-78.760657159
 21
-25.0370638626
  0
LINE
  5
675
100
AcDbEntity
  8
ASSI
100
AcDbLine
 62
253
  6
CONTINUOUS
 10
-78.7619994543
 20
-24.7984888882
 11
-78.760657159
 21
-25.0370638626
  0
LINE
  5
676
100
AcDbEntity
  8
RACCORDO
100
AcDbLine
 62
253
  6
CONTINUOUS
 10
-78.7570593771
 20
-25.3766426756
 11
-78.7566489798
 21
-25.453503717
  0
LINE
  5
677
100
AcDbEntity
  8
ASSI
100
AcDbLine
 62
253
  6
CONTINUOUS
 10
-78.7570593771
 20
-25.3766426756
 11
-78.7566489798
 21
-25.453503717
  0
LINE
  5
678
100
AcDbEntity
  8
RACCORDO
100
AcDbLine
 62
253
  6
CONTINUOUS
 10
-78.7565634395
 20
-25.5890934219
 11
-78.7561310964
 21
-25.6736948719
  0
LINE
  5
679
100
AcDbEntity
  8
ASSI
100
AcDbLine
 62
253
  6
CONTINUOUS
 10
-78.7565634395
 20
-25.5890934219
 11
-78.7561310964
 21
-25.6736948719
  0
LINE
  5
67A
100
AcDbEntity
  8
RACCORDO
100
AcDbLine
 62
253
  6
CONTINUOUS
 10
-79.3671292525
 20
-23.7467221596
 11
-79.3656654395
 21
-24.037620352
  0
LINE
  5
67B
100
AcDbEntity
  8
ASSI
100
AcDbLine
 62
253
  6
CONTINUOUS
 10
-79.3671292525
 20
-23.7467221596
 11
-79.3656654395
 21
-24.037620352
  0
LINE
  5
67C
100
AcDbEntity
  8
RACCORDO
100
AcDbLine
 62
253
  6
CONTINUOUS
 10
-78.7534637127
 20
-20.8915367544
 11
-78.7467458264
 21
-22.5699765341
  0
LINE
  5
67D
100
AcDbEntity
  8
ASSI
100
AcDbLine
 62
253
  6
CONTINUOUS
 10
-78.7534637127
 20
-20.8915367544
 11
-78.7467458264
 21
-22.5699765341
  0
LINE
  5
67E
100
AcDbEntity
  8
RACCORDO
100
AcDbLine
 62
253
  6
CONTINUOUS
 10
-79.3656654395
 20
-24.037620352
 11
-79.3653748239
 21
-24.1742290756
  0
LINE
  5
67F
100
AcDbEntity
  8
ASSI
100
AcDbLine
 62
253
  6
CONTINUOUS
 10
-79.3656654395
 20
-24.037620352
 11
-79.3653748239
 21
-24.1742290756
  0
LINE
  5
680
100
AcDbEntity
  8
RACCORDO
100
AcDbLine
 62
253
  6
CONTINUOUS
 10
-79.3631579941
 20
22.4641355644
 11
-79.3625877438
 21
22.2238870538
  0
LINE
  5
681
100
AcDbEntity
  8
ASSI
100
AcDbLine
 62
253
  6
CONTINUOUS
 10
-79.3631579941
 20
22.4641355644
 11
-79.3625877438
 21
22.2238870538
  0
LINE
  5
682
100
AcDbEntity
  8
RACCORDO
100
AcDbLine
 62
253
  6
CONTINUOUS
 10
-79.3673236893
 20
23.2488148271
 11
-79.3665939603
 21
22.9505218796
  0
LINE
  5
683
100
AcDbEntity
  8
ASSI
100
AcDbLine
 62
253
  6
CONTINUOUS
 10
-79.3673236893
 20
23.2488148271
 11
-79.3665939603
 21
22.9505218796
  0
LINE
  5
684
100
AcDbEntity
  8
0
100
AcDbLine
 62
7
  6
CONTINUOUS
 10
-79.571462911
 20
23.3269859643
 11
-79.571462911
 21
-23.6729940316
  0
LINE
  5
685
100
AcDbEntity
  8
ASSI
100
AcDbLine
 62
7
  6
CONTINUOUS
 10
-79.571462911
 20
23.3269859643
 11
-79.571462911
 21
-23.6729940316
  0
LINE
  5
686
100
AcDbEntity
  8
RACCORDO
100
AcDbLine
 62
253
  6
CONTINUOUS
 10
-78.7619612939
 20
-2.0264735266
 11
-78.7534637127
 21
-20.8915367544
  0
LINE
  5
687
100
AcDbEntity
  8
ASSI
100
AcDbLine
 62
253
  6
CONTINUOUS
 10
-78.7619612939
 20
-2.0264735266
 11
-78.7534637127
 21
-20.8915367544
  0
LINE
  5
688
100
AcDbEntity
  8
RACCORDO
100
AcDbLine
 62
253
  6
CONTINUOUS
 10
-78.7470722108
 20
22.5552903496
 11
-78.7466262002
 21
22.2968241859
  0
LINE
  5
689
100
AcDbEntity
  8
ASSI
100
AcDbLine
 62
253
  6
CONTINUOUS
 10
-78.7470722108
 20
22.5552903496
 11
-78.7466262002
 21
22.2968241859
  0
LINE
  5
68A
100
AcDbEntity
  8
RACCORDO
100
AcDbLine
 62
253
  6
CONTINUOUS
 10
-78.7622888749
 20
24.3345011016
 11
-78.761894759
 21
23.9847183089
  0
LINE
  5
68B
100
AcDbEntity
  8
ASSI
100
AcDbLine
 62
253
  6
CONTINUOUS
 10
-78.7622888749
 20
24.3345011016
 11
-78.761894759
 21
23.9847183089
  0
LINE
  5
68C
100
AcDbEntity
  8
RACCORDO
100
AcDbLine
 62
253
  6
CONTINUOUS
 10
-78.7622979235
 20
-24.4923124338
 11
-78.7619994543
 21
-24.7984888882
  0
LINE
  5
68D
100
AcDbEntity
  8
ASSI
100
AcDbLine
 62
253
  6
CONTINUOUS
 10
-78.7622979235
 20
-24.4923124338
 11
-78.7619994543
 21
-24.7984888882
  0
LINE
  5
68E
100
AcDbEntity
  8
RACCORDO
100
AcDbLine
 62
253
  6
CONTINUOUS
 10
-78.7566489798
 20
-25.453503717
 11
-78.7565634395
 21
-25.5890934219
  0
LINE
  5
68F
100
AcDbEntity
  8
ASSI
100
AcDbLine
 62
253
  6
CONTINUOUS
 10
-78.7566489798
 20
-25.453503717
 11
-78.7565634395
 21
-25.5890934219
  0
LINE
  5
690
100
AcDbEntity
  8
RACCORDO
100
AcDbLine
 62
253
  6
CONTINUOUS
 10
-79.3671764751
 20
-23.4643524346
 11
-79.3671292525
 21
-23.7467221596
  0
LINE
  5
691
100
AcDbEntity
  8
ASSI
100
AcDbLine
 62
253
  6
CONTINUOUS
 10
-79.3671764751
 20
-23.4643524346
 11
-79.3671292525
 21
-23.7467221596
  0
LINE
  5
692
100
AcDbEntity
  8
RACCORDO
100
AcDbLine
 62
253
  6
CONTINUOUS
 10
-78.7467458264
 20
-22.5699765341
 11
-78.7468060625
 21
-22.8285204265
  0
LINE
  5
693
100
AcDbEntity
  8
ASSI
100
AcDbLine
 62
253
  6
CONTINUOUS
 10
-78.7467458264
 20
-22.5699765341
 11
-78.7468060625
 21
-22.8285204265
  0
LINE
  5
694
100
AcDbEntity
  8
RACCORDO
100
AcDbLine
 62
253
  6
CONTINUOUS
 10
-78.7565391475
 20
25.2551980628
 11
-78.7567345493
 21
25.087427817
  0
LINE
  5
695
100
AcDbEntity
  8
ASSI
100
AcDbLine
 62
253
  6
CONTINUOUS
 10
-78.7565391475
 20
25.2551980628
 11
-78.7567345493
 21
25.087427817
  0
LINE
  5
696
100
AcDbEntity
  8
RACCORDO
100
AcDbLine
 62
253
  6
CONTINUOUS
 10
-79.3625877438
 20
22.2238870538
 11
-79.3674294538
 21
-2.6081791311
  0
LINE
  5
697
100
AcDbEntity
  8
ASSI
100
AcDbLine
 62
253
  6
CONTINUOUS
 10
-79.3625877438
 20
22.2238870538
 11
-79.3674294538
 21
-2.6081791311
  0
LINE
  5
698
100
AcDbEntity
  8
RACCORDO
100
AcDbLine
 62
253
  6
CONTINUOUS
 10
-79.3668620299
 20
23.4774401799
 11
-79.3673236893
 21
23.2488148271
  0
LINE
  5
699
100
AcDbEntity
  8
ASSI
100
AcDbLine
 62
253
  6
CONTINUOUS
 10
-79.3668620299
 20
23.4774401799
 11
-79.3673236893
 21
23.2488148271
  0
LINE
  5
69A
100
AcDbEntity
  8
RACCORDO
100
AcDbLine
 62
253
  6
CONTINUOUS
 10
-79.3674294538
 20
-2.6081791311
 11
-79.363047148
 21
-22.7854699882
  0
LINE
  5
69B
100
AcDbEntity
  8
ASSI
100
AcDbLine
 62
253
  6
CONTINUOUS
 10
-79.3674294538
 20
-2.6081791311
 11
-79.363047148
 21
-22.7854699882
  0
LINE
  5
69C
100
AcDbEntity
  8
RACCORDO
100
AcDbLine
 62
253
  6
CONTINUOUS
 10
-79.3653990993
 20
23.8235294401
 11
-79.3658300058
 21
23.6514758064
  0
LINE
  5
69D
100
AcDbEntity
  8
ASSI
100
AcDbLine
 62
253
  6
CONTINUOUS
 10
-79.3653990993
 20
23.8235294401
 11
-79.3658300058
 21
23.6514758064
  0
LINE
  5
69E
100
AcDbEntity
  8
RACCORDO
100
AcDbLine
 62
253
  6
CONTINUOUS
 10
-78.761320675
 20
24.5957772128
 11
-78.7622888749
 21
24.3345011016
  0
LINE
  5
69F
100
AcDbEntity
  8
ASSI
100
AcDbLine
 62
253
  6
CONTINUOUS
 10
-78.761320675
 20
24.5957772128
 11
-78.7622888749
 21
24.3345011016
  0
LINE
  5
6A0
100
AcDbEntity
  8
RACCORDO
100
AcDbLine
 62
253
  6
CONTINUOUS
 10
-78.7466262002
 20
22.2968241859
 11
-78.7477329422
 21
22.0030314318
  0
LINE
  5
6A1
100
AcDbEntity
  8
ASSI
100
AcDbLine
 62
253
  6
CONTINUOUS
 10
-78.7466262002
 20
22.2968241859
 11
-78.7477329422
 21
22.0030314318
  0
LINE
  5
6A2
100
AcDbEntity
  8
RACCORDO
100
AcDbLine
 62
253
  6
CONTINUOUS
 10
-78.7609454704
 20
-24.137900919
 11
-78.7622979235
 21
-24.4923124338
  0
LINE
  5
6A3
100
AcDbEntity
  8
ASSI
100
AcDbLine
 62
253
  6
CONTINUOUS
 10
-78.7609454704
 20
-24.137900919
 11
-78.7622979235
 21
-24.4923124338
  0
LINE
  5
6A4
100
AcDbEntity
  8
RACCORDO
100
AcDbLine
 62
253
  6
CONTINUOUS
 10
-78.7477321027
 20
22.0030314261
 11
-78.7619612939
 21
-2.0264735266
  0
LINE
  5
6A5
100
AcDbEntity
  8
ASSI
100
AcDbLine
 62
253
  6
CONTINUOUS
 10
-78.7477321027
 20
22.0030314261
 11
-78.7619612939
 21
-2.0264735266
  0
LINE
  5
6A6
100
AcDbEntity
  8
RACCORDO
100
AcDbLine
 62
253
  6
CONTINUOUS
 10
-79.3658493454
 20
-23.1673669173
 11
-79.3671764751
 21
-23.4643524346
  0
LINE
  5
6A7
100
AcDbEntity
  8
ASSI
100
AcDbLine
 62
253
  6
CONTINUOUS
 10
-79.3658493454
 20
-23.1673669173
 11
-79.3671764751
 21
-23.4643524346
  0
LINE
  5
6A8
100
AcDbEntity
  8
RACCORDO
100
AcDbLine
 62
253
  6
CONTINUOUS
 10
-79.3658300058
 20
23.6514758064
 11
-79.3668620299
 21
23.4774401799
  0
LINE
  5
6A9
100
AcDbEntity
  8
ASSI
100
AcDbLine
 62
253
  6
CONTINUOUS
 10
-79.3658300058
 20
23.6514758064
 11
-79.3668620299
 21
23.4774401799
  0
LINE
  5
6AA
100
AcDbEntity
  8
RACCORDO
100
AcDbLine
 62
253
  6
CONTINUOUS
 10
-78.7468060625
 20
-22.8285204265
 11
-78.7479562897
 21
-23.0492289132
  0
LINE
  5
6AB
100
AcDbEntity
  8
ASSI
100
AcDbLine
 62
253
  6
CONTINUOUS
 10
-78.7468060625
 20
-22.8285204265
 11
-78.7479562897
 21
-23.0492289132
  0
LINE
  5
6AC
100
AcDbEntity
  8
RACCORDO
100
AcDbLine
 62
253
  6
CONTINUOUS
 10
-78.7560238706
 20
25.3398327858
 11
-78.7565391475
 21
25.2551980628
  0
LINE
  5
6AD
100
AcDbEntity
  8
ASSI
100
AcDbLine
 62
253
  6
CONTINUOUS
 10
-78.7560238706
 20
25.3398327858
 11
-78.7565391475
 21
25.2551980628
  0
LINE
  5
6AE
100
AcDbEntity
  8
RACCORDO
100
AcDbLine
 62
253
  6
CONTINUOUS
 10
-78.7567345493
 20
25.087427817
 11
-78.7572668315
 21
25.0054895657
  0
LINE
  5
6AF
100
AcDbEntity
  8
ASSI
100
AcDbLine
 62
253
  6
CONTINUOUS
 10
-78.7567345493
 20
25.087427817
 11
-78.7572668315
 21
25.0054895657
  0
LWPOLYLINE
  5
6B0
100
AcDbEntity
  8
RACCORDO
100
AcDbPolyline
 62
253
  6
CONTINUOUS
 90
3
 70
0
 10
-79.363047148
 20
-22.7854699882
 10
-79.3643659155
 20
-22.9870074603
 10
-79.3658493454
 20
-23.1673669173
  0
LWPOLYLINE
  5
6B1
100
AcDbEntity
  8
ASSI
100
AcDbPolyline
 62
253
  6
CONTINUOUS
 90
3
 70
0
 10
-79.363047148
 20
-22.7854699882
 10
-79.3643659155
 20
-22.9870074603
 10
-79.3658493454
 20
-23.1673669173
  0
LINE
  5
6B2
100
AcDbEntity
  8
RACCORDO
100
AcDbLine
 62
253
  6
CONTINUOUS
 10
-79.3650793688
 20
23.867850412
 11
-79.3653990993
 21
23.8235294401
  0
LINE
  5
6B3
100
AcDbEntity
  8
ASSI
100
AcDbLine
 62
253
  6
CONTINUOUS
 10
-79.3650793688
 20
23.867850412
 11
-79.3653990993
 21
23.8235294401
  0
LINE
  5
6B4
100
AcDbEntity
  8
RACCORDO
100
AcDbLine
 62
253
  6
CONTINUOUS
 10
-78.7599112865
 20
24.7730924311
 11
-78.761320675
 21
24.5957772128
  0
LINE
  5
6B5
100
AcDbEntity
  8
ASSI
100
AcDbLine
 62
253
  6
CONTINUOUS
 10
-78.7599112865
 20
24.7730924311
 11
-78.761320675
 21
24.5957772128
  0
LINE
  5
6B6
100
AcDbEntity
  8
RACCORDO
100
AcDbLine
 62
7
  6
CONTINUOUS
 10
-79.5712550072
 20
23.3465018125
 11
-79.571462911
 21
23.3269858639
  0
LINE
  5
6B7
100
AcDbEntity
  8
ASSI
100
AcDbLine
 62
7
  6
CONTINUOUS
 10
-79.5712550072
 20
23.3465018125
 11
-79.571462911
 21
23.3269858639
  0
LINE
  5
6B8
100
AcDbEntity
  8
RACCORDO
100
AcDbLine
 62
253
  6
CONTINUOUS
 10
-78.7577828565
 20
-23.7722630391
 11
-78.7609454704
 21
-24.137900919
  0
LINE
  5
6B9
100
AcDbEntity
  8
ASSI
100
AcDbLine
 62
253
  6
CONTINUOUS
 10
-78.7577828565
 20
-23.7722630391
 11
-78.7609454704
 21
-24.137900919
  0
LINE
  5
6BA
100
AcDbEntity
  8
RACCORDO
100
AcDbLine
 62
253
  6
CONTINUOUS
 10
-78.7572668315
 20
25.0054895657
 11
-78.7599112865
 21
24.7730924311
  0
LINE
  5
6BB
100
AcDbEntity
  8
ASSI
100
AcDbLine
 62
253
  6
CONTINUOUS
 10
-78.7572668315
 20
25.0054895657
 11
-78.7599112865
 21
24.7730924311
  0
LINE
  5
6BC
100
AcDbEntity
  8
RACCORDO
100
AcDbLine
 62
253
  6
CONTINUOUS
 10
-78.7479562897
 20
-23.0492289132
 11
-78.7503482694
 21
-23.2853222167
  0
LINE
  5
6BD
100
AcDbEntity
  8
ASSI
100
AcDbLine
 62
253
  6
CONTINUOUS
 10
-78.7479562897
 20
-23.0492289132
 11
-78.7503482694
 21
-23.2853222167
  0
LINE
  5
6BE
100
AcDbEntity
  8
RACCORDO
100
AcDbLine
 62
253
  6
CONTINUOUS
 10
-78.7555957666
 20
25.3782672047
 11
-78.7560238706
 21
25.3398327858
  0
LINE
  5
6BF
100
AcDbEntity
  8
ASSI
100
AcDbLine
 62
253
  6
CONTINUOUS
 10
-78.7555957666
 20
25.3782672047
 11
-78.7560238706
 21
25.3398327858
  0
LINE
  5
6C0
100
AcDbEntity
  8
RACCORDO
100
AcDbLine
 62
253
  6
CONTINUOUS
 10
-79.3648548869
 20
23.8868046355
 11
-79.3650793688
 21
23.867850412
  0
LINE
  5
6C1
100
AcDbEntity
  8
ASSI
100
AcDbLine
 62
253
  6
CONTINUOUS
 10
-79.3648548869
 20
23.8868046355
 11
-79.3650793688
 21
23.867850412
  0
LINE
  5
6C2
100
AcDbEntity
  8
RACCORDO
100
AcDbLine
 62
253
  6
CONTINUOUS
 10
-78.7557681115
 20
-23.6133704383
 11
-78.7577828565
 21
-23.7722630391
  0
LINE
  5
6C3
100
AcDbEntity
  8
ASSI
100
AcDbLine
 62
253
  6
CONTINUOUS
 10
-78.7557681115
 20
-23.6133704383
 11
-78.7577828565
 21
-23.7722630391
  0
LWPOLYLINE
  5
6C4
100
AcDbEntity
  8
RACCORDO
100
AcDbPolyline
 62
253
  6
CONTINUOUS
 90
3
 70
0
 10
-78.7503482694
 20
-23.2853222167
 10
-78.7522612373
 20
-23.4134135577
 10
-78.7557681115
 20
-23.6133704383
  0
LWPOLYLINE
  5
6C5
100
AcDbEntity
  8
ASSI
100
AcDbPolyline
 62
253
  6
CONTINUOUS
 90
3
 70
0
 10
-78.7503482694
 20
-23.2853222167
 10
-78.7522612373
 20
-23.4134135577
 10
-78.7557681115
 20
-23.6133704383
  0
LINE
  5
6C6
100
AcDbEntity
  8
RACCORDO
100
AcDbLine
 62
253
  6
CONTINUOUS
 10
-78.7550143738
 20
25.4130834138
 11
-78.7555957666
 21
25.3782672047
  0
LINE
  5
6C7
100
AcDbEntity
  8
ASSI
100
AcDbLine
 62
253
  6
CONTINUOUS
 10
-78.7550143738
 20
25.4130834138
 11
-78.7555957666
 21
25.3782672047
  0
LINE
  5
6C8
100
AcDbEntity
  8
RACCORDO
100
AcDbLine
 62
253
  6
CONTINUOUS
 10
-79.3642674774
 20
23.9211222368
 11
-79.3648548869
 21
23.8868046355
  0
LINE
  5
6C9
100
AcDbEntity
  8
ASSI
100
AcDbLine
 62
253
  6
CONTINUOUS
 10
-79.3642674774
 20
23.9211222368
 11
-79.3648548869
 21
23.8868046355
  0
LWPOLYLINE
  5
6CA
100
AcDbEntity
  8
RACCORDO
100
AcDbPolyline
 62
253
  6
CONTINUOUS
 90
3
 70
0
 10
-78.7538583295
 20
25.4571374057
 10
-78.7542990254
 20
25.4433531962
 10
-78.7550143738
 20
25.4130834138
  0
LWPOLYLINE
  5
6CB
100
AcDbEntity
  8
ASSI
100
AcDbPolyline
 62
253
  6
CONTINUOUS
 90
3
 70
0
 10
-78.7538583295
 20
25.4571374057
 10
-78.7542990254
 20
25.4433531962
 10
-78.7550143738
 20
25.4130834138
  0
LINE
  5
6CC
100
AcDbEntity
  8
RACCORDO
100
AcDbLine
 62
253
  6
CONTINUOUS
 10
-78.7524738449
 20
25.493519195
 11
-78.7538583295
 21
25.4571374057
  0
LINE
  5
6CD
100
AcDbEntity
  8
ASSI
100
AcDbLine
 62
253
  6
CONTINUOUS
 10
-78.7524738449
 20
25.493519195
 11
-78.7538583295
 21
25.4571374057
  0
LWPOLYLINE
  5
6CE
100
AcDbEntity
  8
RACCORDO
100
AcDbPolyline
 62
253
  6
CONTINUOUS
 90
18
 70
0
 10
-78.7613867731
 20
25.5497026522
 10
-78.7613880565
 20
25.5496722822
 10
-78.7613858662
 20
25.5495829288
 10
-78.7613756305
 20
25.5494772687
 10
-78.761357288
 20
25.5493552965
 10
-78.761330798
 20
25.5492168207
 10
-78.7612962191
 20
25.5490620686
 10
-78.7612536896
 20
25.5488914622
 10
-78.7612032723
 20
25.5487050416
 10
-78.761145165
 20
25.5485033254
 10
-78.7610796196
 20
25.5482869521
 10
-78.7610067321
 20
25.5480560175
 10
-78.7609267627
 20
25.547811137
 10
-78.7608400383
 20
25.5475530837
 10
-78.7607466994
 20
25.5472820542
 10
-78.7606470675
 20
25.5469987712
 10
-78.7605415112
 20
25.5467040648
 10
-78.7604301915
 20
25.5463981755
  0
LWPOLYLINE
  5
6CF
100
AcDbEntity
  8
ASSI
100
AcDbPolyline
 62
253
  6
CONTINUOUS
 90
18
 70
0
 10
-78.7613867731
 20
25.5497026522
 10
-78.7613880565
 20
25.5496722822
 10
-78.7613858662
 20
25.5495829288
 10
-78.7613756305
 20
25.5494772687
 10
-78.761357288
 20
25.5493552965
 10
-78.761330798
 20
25.5492168207
 10
-78.7612962191
 20
25.5490620686
 10
-78.7612536896
 20
25.5488914622
 10
-78.7612032723
 20
25.5487050416
 10
-78.761145165
 20
25.5485033254
 10
-78.7610796196
 20
25.5482869521
 10
-78.7610067321
 20
25.5480560175
 10
-78.7609267627
 20
25.547811137
 10
-78.7608400383
 20
25.5475530837
 10
-78.7607466994
 20
25.5472820542
 10
-78.7606470675
 20
25.5469987712
 10
-78.7605415112
 20
25.5467040648
 10
-78.7604301915
 20
25.5463981755
  0
LINE
  5
6D0
100
AcDbEntity
  8
RACCORDO
100
AcDbLine
 62
253
  6
CONTINUOUS
 10
-75.9009370132
 20
37.0210502265
 11
-75.9151510488
 21
36.6974337038
  0
LINE
  5
6D1
100
AcDbEntity
  8
ASSI
100
AcDbLine
 62
253
  6
CONTINUOUS
 10
-75.9009370132
 20
37.0210502265
 11
-75.9151510488
 21
36.6974337038
  0
LINE
  5
6D2
100
AcDbEntity
  8
0
100
AcDbLine
 62
7
  6
CONTINUOUS
 10
-70.5559758643
 20
-3.8479808985
 11
-72.5559758643
 21
-3.6730035714
  0
LINE
  5
6D3
100
AcDbEntity
  8
ASSI
100
AcDbLine
 62
7
  6
CONTINUOUS
 10
-70.5559758643
 20
-3.8479808985
 11
-72.5559758643
 21
-3.6730035714
  0
LINE
  5
6D4
100
AcDbEntity
  8
RACCORDO
100
AcDbLine
 62
253
  6
CONTINUOUS
 10
-74.9776253285
 20
-37.0368500115
 11
-74.9707404667
 21
-37.1730035714
  0
LINE
  5
6D5
100
AcDbEntity
  8
ASSI
100
AcDbLine
 62
253
  6
CONTINUOUS
 10
-74.9776253285
 20
-37.0368500115
 11
-74.9707404667
 21
-37.1730035714
  0
LINE
  5
6D6
100
AcDbEntity
  8
RACCORDO
100
AcDbLine
 62
253
  6
CONTINUOUS
 10
-74.9843325877
 20
-36.8916694414
 11
-74.9776253285
 21
-37.0368500115
  0
LINE
  5
6D7
100
AcDbEntity
  8
ASSI
100
AcDbLine
 62
253
  6
CONTINUOUS
 10
-74.9843325877
 20
-36.8916694414
 11
-74.9776253285
 21
-37.0368500115
  0
LINE
  5
6D8
100
AcDbEntity
  8
RACCORDO
100
AcDbLine
 62
253
  6
CONTINUOUS
 10
-74.9903823961
 20
-36.7447540845
 11
-74.9843325877
 21
-36.8916694414
  0
LINE
  5
6D9
100
AcDbEntity
  8
ASSI
100
AcDbLine
 62
253
  6
CONTINUOUS
 10
-74.9903823961
 20
-36.7447540845
 11
-74.9843325877
 21
-36.8916694414
  0
LINE
  5
6DA
100
AcDbEntity
  8
RACCORDO
100
AcDbLine
 62
253
  6
CONTINUOUS
 10
-75.9009370036
 20
-37.3670576074
 11
-75.8957374957
 21
-37.5037315852
  0
LINE
  5
6DB
100
AcDbEntity
  8
ASSI
100
AcDbLine
 62
253
  6
CONTINUOUS
 10
-75.9009370036
 20
-37.3670576074
 11
-75.8957374957
 21
-37.5037315852
  0
LINE
  5
6DC
100
AcDbEntity
  8
RACCORDO
100
AcDbLine
 62
253
  6
CONTINUOUS
 10
-75.9211758364
 20
-36.8838822716
 11
-75.9154829209
 21
-37.0352782423
  0
LINE
  5
6DD
100
AcDbEntity
  8
ASSI
100
AcDbLine
 62
253
  6
CONTINUOUS
 10
-75.9211758364
 20
-36.8838822716
 11
-75.9154829209
 21
-37.0352782423
  0
LINE
  5
6DE
100
AcDbEntity
  8
RACCORDO
100
AcDbLine
 62
253
  6
CONTINUOUS
 10
-74.995464489
 20
-36.6016927223
 11
-74.9903823961
 21
-36.7447540845
  0
LINE
  5
6DF
100
AcDbEntity
  8
ASSI
100
AcDbLine
 62
253
  6
CONTINUOUS
 10
-74.995464489
 20
-36.6016927223
 11
-74.9903823961
 21
-36.7447540845
  0
LINE
  5
6E0
100
AcDbEntity
  8
RACCORDO
100
AcDbLine
 62
253
  6
CONTINUOUS
 10
-75.9244582157
 20
-36.7823544956
 11
-75.9211758364
 21
-36.8838822716
  0
LINE
  5
6E1
100
AcDbEntity
  8
ASSI
100
AcDbLine
 62
253
  6
CONTINUOUS
 10
-75.9244582157
 20
-36.7823544956
 11
-75.9211758364
 21
-36.8838822716
  0
LINE
  5
6E2
100
AcDbEntity
  8
RACCORDO
100
AcDbLine
 62
253
  6
CONTINUOUS
 10
-75.8957374957
 20
-37.5037315852
 11
-75.8878281263
 21
-37.756714827
  0
LINE
  5
6E3
100
AcDbEntity
  8
ASSI
100
AcDbLine
 62
253
  6
CONTINUOUS
 10
-75.8957374957
 20
-37.5037315852
 11
-75.8878281263
 21
-37.756714827
  0
LINE
  5
6E4
100
AcDbEntity
  8
RACCORDO
100
AcDbLine
 62
253
  6
CONTINUOUS
 10
-74.9982874722
 20
-36.5087379397
 11
-74.995464489
 21
-36.6016927223
  0
LINE
  5
6E5
100
AcDbEntity
  8
ASSI
100
AcDbLine
 62
253
  6
CONTINUOUS
 10
-74.9982874722
 20
-36.5087379397
 11
-74.995464489
 21
-36.6016927223
  0
LINE
  5
6E6
100
AcDbEntity
  8
RACCORDO
100
AcDbLine
 62
253
  6
CONTINUOUS
 10
-74.9707404667
 20
-37.1730035714
 11
-74.9584232928
 21
-37.5971549538
  0
LINE
  5
6E7
100
AcDbEntity
  8
ASSI
100
AcDbLine
 62
253
  6
CONTINUOUS
 10
-74.9707404667
 20
-37.1730035714
 11
-74.9584232928
 21
-37.5971549538
  0
LINE
  5
6E8
100
AcDbEntity
  8
RACCORDO
100
AcDbLine
 62
253
  6
CONTINUOUS
 10
-75.9272067993
 20
-36.6827043665
 11
-75.9244582157
 21
-36.7823544956
  0
LINE
  5
6E9
100
AcDbEntity
  8
ASSI
100
AcDbLine
 62
253
  6
CONTINUOUS
 10
-75.9272067993
 20
-36.6827043665
 11
-75.9244582157
 21
-36.7823544956
  0
LINE
  5
6EA
100
AcDbEntity
  8
RACCORDO
100
AcDbLine
 62
253
  6
CONTINUOUS
 10
-75.0006276608
 20
-36.4163423964
 11
-74.9982874722
 21
-36.5087379397
  0
LINE
  5
6EB
100
AcDbEntity
  8
ASSI
100
AcDbLine
 62
253
  6
CONTINUOUS
 10
-75.0006276608
 20
-36.4163423964
 11
-74.9982874722
 21
-36.5087379397
  0
LINE
  5
6EC
100
AcDbEntity
  8
RACCORDO
100
AcDbLine
 62
253
  6
CONTINUOUS
 10
-75.8878281263
 20
-37.756714827
 11
-75.8824342105
 21
-37.9805940089
  0
LINE
  5
6ED
100
AcDbEntity
  8
ASSI
100
AcDbLine
 62
253
  6
CONTINUOUS
 10
-75.8878281263
 20
-37.756714827
 11
-75.8824342105
 21
-37.9805940089
  0
LINE
  5
6EE
100
AcDbEntity
  8
RACCORDO
100
AcDbLine
 62
253
  6
CONTINUOUS
 10
-74.9584232928
 20
-37.5971549538
 11
-74.9494729991
 21
-37.9811452244
  0
LINE
  5
6EF
100
AcDbEntity
  8
ASSI
100
AcDbLine
 62
253
  6
CONTINUOUS
 10
-74.9584232928
 20
-37.5971549538
 11
-74.9494729991
 21
-37.9811452244
  0
LINE
  5
6F0
100
AcDbEntity
  8
RACCORDO
100
AcDbLine
 62
253
  6
CONTINUOUS
 10
-75.9293866115
 20
-36.5845422849
 11
-75.9272067993
 21
-36.6827043665
  0
LINE
  5
6F1
100
AcDbEntity
  8
ASSI
100
AcDbLine
 62
253
  6
CONTINUOUS
 10
-75.9293866115
 20
-36.5845422849
 11
-75.9272067993
 21
-36.6827043665
  0
LINE
  5
6F2
100
AcDbEntity
  8
RACCORDO
100
AcDbLine
 62
253
  6
CONTINUOUS
 10
-75.0024949465
 20
-36.3236426161
 11
-75.0006276608
 21
-36.4163423964
  0
LINE
  5
6F3
100
AcDbEntity
  8
ASSI
100
AcDbLine
 62
253
  6
CONTINUOUS
 10
-75.0024949465
 20
-36.3236426161
 11
-75.0006276608
 21
-36.4163423964
  0
LINE
  5
6F4
100
AcDbEntity
  8
RACCORDO
100
AcDbLine
 62
253
  6
CONTINUOUS
 10
-75.8824342105
 20
-37.9805940089
 11
-75.8788495381
 21
-38.17512007
  0
LINE
  5
6F5
100
AcDbEntity
  8
ASSI
100
AcDbLine
 62
253
  6
CONTINUOUS
 10
-75.8824342105
 20
-37.9805940089
 11
-75.8788495381
 21
-38.17512007
  0
LINE
  5
6F6
100
AcDbEntity
  8
RACCORDO
100
AcDbLine
 62
253
  6
CONTINUOUS
 10
-75.9309645042
 20
-36.4873758581
 11
-75.9293866115
 21
-36.5845422849
  0
LINE
  5
6F7
100
AcDbEntity
  8
ASSI
100
AcDbLine
 62
253
  6
CONTINUOUS
 10
-75.9309645042
 20
-36.4873758581
 11
-75.9293866115
 21
-36.5845422849
  0
LINE
  5
6F8
100
AcDbEntity
  8
RACCORDO
100
AcDbLine
 62
253
  6
CONTINUOUS
 10
-74.9494729991
 20
-37.9811452244
 11
-74.941339691
 21
-38.4733190109
  0
LINE
  5
6F9
100
AcDbEntity
  8
ASSI
100
AcDbLine
 62
253
  6
CONTINUOUS
 10
-74.9494729991
 20
-37.9811452244
 11
-74.941339691
 21
-38.4733190109
  0
LINE
  5
6FA
100
AcDbEntity
  8
RACCORDO
100
AcDbLine
 62
253
  6
CONTINUOUS
 10
-75.8765452625
 20
38.5198758475
 11
-75.8755288246
 21
38.4495490089
  0
LINE
  5
6FB
100
AcDbEntity
  8
ASSI
100
AcDbLine
 62
253
  6
CONTINUOUS
 10
-75.8765452625
 20
38.5198758475
 11
-75.8755288246
 21
38.4495490089
  0
LINE
  5
6FC
100
AcDbEntity
  8
RACCORDO
100
AcDbLine
 62
253
  6
CONTINUOUS
 10
-75.8788495381
 20
-38.17512007
 11
-75.8765838439
 21
-38.3427893474
  0
LINE
  5
6FD
100
AcDbEntity
  8
ASSI
100
AcDbLine
 62
253
  6
CONTINUOUS
 10
-75.8788495381
 20
-38.17512007
 11
-75.8765838439
 21
-38.3427893474
  0
LINE
  5
6FE
100
AcDbEntity
  8
RACCORDO
100
AcDbLine
 62
253
  6
CONTINUOUS
 10
-74.941339691
 20
-38.4733190109
 11
-74.9370707627
 21
-38.8680688492
  0
LINE
  5
6FF
100
AcDbEntity
  8
ASSI
100
AcDbLine
 62
253
  6
CONTINUOUS
 10
-74.941339691
 20
-38.4733190109
 11
-74.9370707627
 21
-38.8680688492
  0
LINE
  5
700
100
AcDbEntity
  8
RACCORDO
100
AcDbLine
 62
253
  6
CONTINUOUS
 10
-75.0586443607
 20
-31.455774584
 11
-75.0024949465
 21
-36.3236426161
  0
LINE
  5
701
100
AcDbEntity
  8
ASSI
100
AcDbLine
 62
253
  6
CONTINUOUS
 10
-75.0586443607
 20
-31.455774584
 11
-75.0024949465
 21
-36.3236426161
  0
LINE
  5
702
100
AcDbEntity
  8
RACCORDO
100
AcDbLine
 62
253
  6
CONTINUOUS
 10
-75.8765838439
 20
-38.3427893474
 11
-75.8753146977
 21
-38.4858395028
  0
LINE
  5
703
100
AcDbEntity
  8
ASSI
100
AcDbLine
 62
253
  6
CONTINUOUS
 10
-75.8765838439
 20
-38.3427893474
 11
-75.8753146977
 21
-38.4858395028
  0
LINE
  5
704
100
AcDbEntity
  8
RACCORDO
100
AcDbLine
 62
253
  6
CONTINUOUS
 10
-75.9317981402
 20
-36.3897909348
 11
-75.9309645042
 21
-36.4873758581
  0
LINE
  5
705
100
AcDbEntity
  8
ASSI
100
AcDbLine
 62
253
  6
CONTINUOUS
 10
-75.9317981402
 20
-36.3897909348
 11
-75.9309645042
 21
-36.4873758581
  0
LINE
  5
706
100
AcDbEntity
  8
RACCORDO
100
AcDbLine
 62
253
  6
CONTINUOUS
 10
-75.969326579
 20
-31.6367387167
 11
-75.9325664464
 21
-36.1926484525
  0
LINE
  5
707
100
AcDbEntity
  8
ASSI
100
AcDbLine
 62
253
  6
CONTINUOUS
 10
-75.969326579
 20
-31.6367387167
 11
-75.9325664464
 21
-36.1926484525
  0
LINE
  5
708
100
AcDbEntity
  8
RACCORDO
100
AcDbLine
 62
253
  6
CONTINUOUS
 10
-75.8755288246
 20
38.4495490089
 11
-75.8749208004
 21
38.3640814974
  0
LINE
  5
709
100
AcDbEntity
  8
ASSI
100
AcDbLine
 62
253
  6
CONTINUOUS
 10
-75.8755288246
 20
38.4495490089
 11
-75.8749208004
 21
38.3640814974
  0
LINE
  5
70A
100
AcDbEntity
  8
RACCORDO
100
AcDbLine
 62
253
  6
CONTINUOUS
 10
-75.0762515864
 20
-28.5422613776
 11
-75.0586443607
 21
-31.455774584
  0
LINE
  5
70B
100
AcDbEntity
  8
ASSI
100
AcDbLine
 62
253
  6
CONTINUOUS
 10
-75.0762515864
 20
-28.5422613776
 11
-75.0586443607
 21
-31.455774584
  0
LINE
  5
70C
100
AcDbEntity
  8
RACCORDO
100
AcDbLine
 62
253
  6
CONTINUOUS
 10
-74.9370707627
 20
-38.8680688492
 11
-74.9352999162
 21
-39.1786388687
  0
LINE
  5
70D
100
AcDbEntity
  8
ASSI
100
AcDbLine
 62
253
  6
CONTINUOUS
 10
-74.9370707627
 20
-38.8680688492
 11
-74.9352999162
 21
-39.1786388687
  0
LINE
  5
70E
100
AcDbEntity
  8
RACCORDO
100
AcDbLine
 62
253
  6
CONTINUOUS
 10
-75.9325664464
 20
-36.1926484525
 11
-75.9317981402
 21
-36.3897909348
  0
LINE
  5
70F
100
AcDbEntity
  8
ASSI
100
AcDbLine
 62
253
  6
CONTINUOUS
 10
-75.9325664464
 20
-36.1926484525
 11
-75.9317981402
 21
-36.3897909348
  0
LINE
  5
710
100
AcDbEntity
  8
RACCORDO
100
AcDbLine
 62
253
  6
CONTINUOUS
 10
-75.8753146977
 20
-38.4858395028
 11
-75.8748114804
 21
-38.6075070473
  0
LINE
  5
711
100
AcDbEntity
  8
ASSI
100
AcDbLine
 62
253
  6
CONTINUOUS
 10
-75.8753146977
 20
-38.4858395028
 11
-75.8748114804
 21
-38.6075070473
  0
LINE
  5
712
100
AcDbEntity
  8
RACCORDO
100
AcDbLine
 62
253
  6
CONTINUOUS
 10
-74.9355320381
 20
39.1393477019
 11
-74.9351142831
 21
38.9998412337
  0
LINE
  5
713
100
AcDbEntity
  8
ASSI
100
AcDbLine
 62
253
  6
CONTINUOUS
 10
-74.9355320381
 20
39.1393477019
 11
-74.9351142831
 21
38.9998412337
  0
LINE
  5
714
100
AcDbEntity
  8
RACCORDO
100
AcDbLine
 62
253
  6
CONTINUOUS
 10
-75.9917610426
 20
-19.2984530523
 11
-75.969326579
 21
-31.6367387167
  0
LINE
  5
715
100
AcDbEntity
  8
ASSI
100
AcDbLine
 62
253
  6
CONTINUOUS
 10
-75.9917610426
 20
-19.2984530523
 11
-75.969326579
 21
-31.6367387167
  0
LINE
  5
716
100
AcDbEntity
  8
RACCORDO
100
AcDbLine
 62
253
  6
CONTINUOUS
 10
-75.108201997
 20
-3.0324895884
 11
-75.0762515864
 21
-28.5422613776
  0
LINE
  5
717
100
AcDbEntity
  8
ASSI
100
AcDbLine
 62
253
  6
CONTINUOUS
 10
-75.108201997
 20
-3.0324895884
 11
-75.0762515864
 21
-28.5422613776
  0
LINE
  5
718
100
AcDbEntity
  8
RACCORDO
100
AcDbLine
 62
253
  6
CONTINUOUS
 10
-75.8749208004
 20
38.3640814974
 11
-75.8748114792
 21
38.2615007411
  0
LINE
  5
719
100
AcDbEntity
  8
ASSI
100
AcDbLine
 62
253
  6
CONTINUOUS
 10
-75.8749208004
 20
38.3640814974
 11
-75.8748114792
 21
38.2615007411
  0
LWPOLYLINE
  5
71A
100
AcDbEntity
  8
RACCORDO
100
AcDbPolyline
 62
253
  6
CONTINUOUS
 90
3
 70
0
 10
-74.9352999162
 20
-39.1786388687
 10
-74.9352460259
 20
-39.418931456
 10
-74.9355320383
 20
-39.4853548447
  0
LWPOLYLINE
  5
71B
100
AcDbEntity
  8
ASSI
100
AcDbPolyline
 62
253
  6
CONTINUOUS
 90
3
 70
0
 10
-74.9352999162
 20
-39.1786388687
 10
-74.9352460259
 20
-39.418931456
 10
-74.9355320383
 20
-39.4853548447
  0
LINE
  5
71C
100
AcDbEntity
  8
RACCORDO
100
AcDbLine
 62
253
  6
CONTINUOUS
 10
-75.8748114804
 20
-38.6075070473
 11
-75.8749207979
 21
-38.710088001
  0
LINE
  5
71D
100
AcDbEntity
  8
ASSI
100
AcDbLine
 62
253
  6
CONTINUOUS
 10
-75.8748114804
 20
-38.6075070473
 11
-75.8749207979
 21
-38.710088001
  0
LINE
  5
71E
100
AcDbEntity
  8
RACCORDO
100
AcDbLine
 62
253
  6
CONTINUOUS
 10
-74.9351142831
 20
38.9998412337
 11
-74.9356849327
 21
38.737398487
  0
LINE
  5
71F
100
AcDbEntity
  8
ASSI
100
AcDbLine
 62
253
  6
CONTINUOUS
 10
-74.9351142831
 20
38.9998412337
 11
-74.9356849327
 21
38.737398487
  0
LINE
  5
720
100
AcDbEntity
  8
RACCORDO
100
AcDbLine
 62
253
  6
CONTINUOUS
 10
-75.8748114792
 20
38.2615007411
 11
-75.875314691
 21
38.1398334358
  0
LINE
  5
721
100
AcDbEntity
  8
ASSI
100
AcDbLine
 62
253
  6
CONTINUOUS
 10
-75.8748114792
 20
38.2615007411
 11
-75.875314691
 21
38.1398334358
  0
LINE
  5
722
100
AcDbEntity
  8
RACCORDO
100
AcDbLine
 62
253
  6
CONTINUOUS
 10
-75.9662931396
 20
31.8230811047
 11
-75.9917610426
 21
-19.2984530523
  0
LINE
  5
723
100
AcDbEntity
  8
ASSI
100
AcDbLine
 62
253
  6
CONTINUOUS
 10
-75.9662931396
 20
31.8230811047
 11
-75.9917610426
 21
-19.2984530523
  0
LINE
  5
724
100
AcDbEntity
  8
RACCORDO
100
AcDbLine
 62
253
  6
CONTINUOUS
 10
-75.0656982613
 20
30.1840245468
 11
-75.108201997
 21
-3.0324895884
  0
LINE
  5
725
100
AcDbEntity
  8
ASSI
100
AcDbLine
 62
253
  6
CONTINUOUS
 10
-75.0656982613
 20
30.1840245468
 11
-75.108201997
 21
-3.0324895884
  0
LINE
  5
726
100
AcDbEntity
  8
RACCORDO
100
AcDbLine
 62
253
  6
CONTINUOUS
 10
-75.8749207979
 20
-38.710088001
 11
-75.8755288195
 21
-38.7955556794
  0
LINE
  5
727
100
AcDbEntity
  8
ASSI
100
AcDbLine
 62
253
  6
CONTINUOUS
 10
-75.8749207979
 20
-38.710088001
 11
-75.8755288195
 21
-38.7955556794
  0
LINE
  5
728
100
AcDbEntity
  8
RACCORDO
100
AcDbLine
 62
253
  6
CONTINUOUS
 10
-74.9356849327
 20
38.737398487
 11
-74.9381911391
 21
38.4004443021
  0
LINE
  5
729
100
AcDbEntity
  8
ASSI
100
AcDbLine
 62
253
  6
CONTINUOUS
 10
-74.9356849327
 20
38.737398487
 11
-74.9381911391
 21
38.4004443021
  0
LINE
  5
72A
100
AcDbEntity
  8
RACCORDO
100
AcDbLine
 62
253
  6
CONTINUOUS
 10
-75.875314691
 20
38.1398334358
 11
-75.8765838271
 21
37.996783627
  0
LINE
  5
72B
100
AcDbEntity
  8
ASSI
100
AcDbLine
 62
253
  6
CONTINUOUS
 10
-75.875314691
 20
38.1398334358
 11
-75.8765838271
 21
37.996783627
  0
LWPOLYLINE
  5
72C
100
AcDbEntity
  8
RACCORDO
100
AcDbPolyline
 62
253
  6
CONTINUOUS
 90
3
 70
0
 10
-75.9308360825
 20
36.1512091618
 10
-75.9313994522
 20
36.0999216007
 10
-75.9326776644
 20
35.8352008834
  0
LWPOLYLINE
  5
72D
100
AcDbEntity
  8
ASSI
100
AcDbPolyline
 62
253
  6
CONTINUOUS
 90
3
 70
0
 10
-75.9308360825
 20
36.1512091618
 10
-75.9313994522
 20
36.0999216007
 10
-75.9326776644
 20
35.8352008834
  0
LINE
  5
72E
100
AcDbEntity
  8
RACCORDO
100
AcDbLine
 62
253
  6
CONTINUOUS
 10
-75.9326776644
 20
35.8352008834
 11
-75.9662931396
 21
31.8230811047
  0
LINE
  5
72F
100
AcDbEntity
  8
ASSI
100
AcDbLine
 62
253
  6
CONTINUOUS
 10
-75.9326776644
 20
35.8352008834
 11
-75.9662931396
 21
31.8230811047
  0
LINE
  5
730
100
AcDbEntity
  8
RACCORDO
100
AcDbLine
 62
253
  6
CONTINUOUS
 10
-75.0399522352
 20
32.9842620656
 11
-75.0656982613
 21
30.1840245468
  0
LINE
  5
731
100
AcDbEntity
  8
ASSI
100
AcDbLine
 62
253
  6
CONTINUOUS
 10
-75.0399522352
 20
32.9842620656
 11
-75.0656982613
 21
30.1840245468
  0
LINE
  5
732
100
AcDbEntity
  8
RACCORDO
100
AcDbLine
 62
253
  6
CONTINUOUS
 10
-75.8765838271
 20
37.996783627
 11
-75.8788495125
 21
37.8291146167
  0
LINE
  5
733
100
AcDbEntity
  8
ASSI
100
AcDbLine
 62
253
  6
CONTINUOUS
 10
-75.8765838271
 20
37.996783627
 11
-75.8788495125
 21
37.8291146167
  0
LINE
  5
734
100
AcDbEntity
  8
RACCORDO
100
AcDbLine
 62
253
  6
CONTINUOUS
 10
-74.9381911391
 20
38.4004443021
 11
-74.9435768208
 21
37.9745350289
  0
LINE
  5
735
100
AcDbEntity
  8
ASSI
100
AcDbLine
 62
253
  6
CONTINUOUS
 10
-74.9381911391
 20
38.4004443021
 11
-74.9435768208
 21
37.9745350289
  0
LINE
  5
736
100
AcDbEntity
  8
RACCORDO
100
AcDbLine
 62
253
  6
CONTINUOUS
 10
-75.0024771348
 20
35.9784907916
 11
-75.0399522352
 21
32.9842620656
  0
LINE
  5
737
100
AcDbEntity
  8
ASSI
100
AcDbLine
 62
253
  6
CONTINUOUS
 10
-75.0024771348
 20
35.9784907916
 11
-75.0399522352
 21
32.9842620656
  0
LWPOLYLINE
  5
738
100
AcDbEntity
  8
RACCORDO
100
AcDbPolyline
 62
253
  6
CONTINUOUS
 90
18
 70
0
 10
-75.8755288195
 20
-38.7955556794
 10
-75.876545256
 20
-38.8658826487
 10
-75.8771838083
 20
-38.8959931681
 10
-75.8778985138
 20
-38.9230238389
 10
-75.8786814965
 20
-38.9471581414
 10
-75.8795287615
 20
-38.9686699893
 10
-75.8804340064
 20
-38.9877198201
 10
-75.8813912348
 20
-39.0044698756
 10
-75.8823993782
 20
-39.0191483579
 10
-75.8834532664
 20
-39.0318909351
 10
-75.8845476459
 20
-39.0428323945
 10
-75.8856834658
 20
-39.052151882
 10
-75.8868563891
 20
-39.0599584492
 10
-75.8880620838
 20
-39.066360458
 10
-75.8893037341
 20
-39.0714911414
 10
-75.890580722
 20
-39.0754414697
 10
-75.8918872663
 20
-39.0782826267
 10
-75.8932198636
 20
-39.0800953414
  0
LWPOLYLINE
  5
739
100
AcDbEntity
  8
ASSI
100
AcDbPolyline
 62
253
  6
CONTINUOUS
 90
18
 70
0
 10
-75.8755288195
 20
-38.7955556794
 10
-75.876545256
 20
-38.8658826487
 10
-75.8771838083
 20
-38.8959931681
 10
-75.8778985138
 20
-38.9230238389
 10
-75.8786814965
 20
-38.9471581414
 10
-75.8795287615
 20
-38.9686699893
 10
-75.8804340064
 20
-38.9877198201
 10
-75.8813912348
 20
-39.0044698756
 10
-75.8823993782
 20
-39.0191483579
 10
-75.8834532664
 20
-39.0318909351
 10
-75.8845476459
 20
-39.0428323945
 10
-75.8856834658
 20
-39.052151882
 10
-75.8868563891
 20
-39.0599584492
 10
-75.8880620838
 20
-39.066360458
 10
-75.8893037341
 20
-39.0714911414
 10
-75.890580722
 20
-39.0754414697
 10
-75.8918872663
 20
-39.0782826267
 10
-75.8932198636
 20
-39.0800953414
  0
LINE
  5
73A
100
AcDbEntity
  8
RACCORDO
100
AcDbLine
 62
253
  6
CONTINUOUS
 10
-74.9435768208
 20
37.9745350289
 11
-74.9494729453
 21
37.6351380811
  0
LINE
  5
73B
100
AcDbEntity
  8
ASSI
100
AcDbLine
 62
253
  6
CONTINUOUS
 10
-74.9435768208
 20
37.9745350289
 11
-74.9494729453
 21
37.6351380811
  0
LINE
  5
73C
100
AcDbEntity
  8
RACCORDO
100
AcDbLine
 62
253
  6
CONTINUOUS
 10
-75.9291173646
 20
36.2521435374
 11
-75.9308360825
 21
36.1512091618
  0
LINE
  5
73D
100
AcDbEntity
  8
ASSI
100
AcDbLine
 62
253
  6
CONTINUOUS
 10
-75.9291173646
 20
36.2521435374
 11
-75.9308360825
 21
36.1512091618
  0
LINE
  5
73E
100
AcDbEntity
  8
RACCORDO
100
AcDbLine
 62
253
  6
CONTINUOUS
 10
-75.8788495125
 20
37.8291146167
 11
-75.8824341717
 21
37.6345888438
  0
LINE
  5
73F
100
AcDbEntity
  8
ASSI
100
AcDbLine
 62
253
  6
CONTINUOUS
 10
-75.8788495125
 20
37.8291146167
 11
-75.8824341717
 21
37.6345888438
  0
LINE
  5
740
100
AcDbEntity
  8
RACCORDO
100
AcDbLine
 62
253
  6
CONTINUOUS
 10
-75.0004636713
 20
36.0772670254
 11
-75.0024771348
 21
35.9784907916
  0
LINE
  5
741
100
AcDbEntity
  8
ASSI
100
AcDbLine
 62
253
  6
CONTINUOUS
 10
-75.0004636713
 20
36.0772670254
 11
-75.0024771348
 21
35.9784907916
  0
LINE
  5
742
100
AcDbEntity
  8
RACCORDO
100
AcDbLine
 62
253
  6
CONTINUOUS
 10
-75.9268125527
 20
36.3522201161
 11
-75.9291173646
 21
36.2521435374
  0
LINE
  5
743
100
AcDbEntity
  8
ASSI
100
AcDbLine
 62
253
  6
CONTINUOUS
 10
-75.9268125527
 20
36.3522201161
 11
-75.9291173646
 21
36.2521435374
  0
LINE
  5
744
100
AcDbEntity
  8
RACCORDO
100
AcDbLine
 62
253
  6
CONTINUOUS
 10
-74.9494729453
 20
37.6351380811
 11
-74.9584232171
 21
37.2511478099
  0
LINE
  5
745
100
AcDbEntity
  8
ASSI
100
AcDbLine
 62
253
  6
CONTINUOUS
 10
-74.9494729453
 20
37.6351380811
 11
-74.9584232171
 21
37.2511478099
  0
LINE
  5
746
100
AcDbEntity
  8
RACCORDO
100
AcDbLine
 62
253
  6
CONTINUOUS
 10
-75.8824341717
 20
37.6345888438
 11
-75.8878280201
 21
37.4107111447
  0
LINE
  5
747
100
AcDbEntity
  8
ASSI
100
AcDbLine
 62
253
  6
CONTINUOUS
 10
-75.8824341717
 20
37.6345888438
 11
-75.8878280201
 21
37.4107111447
  0
LINE
  5
748
100
AcDbEntity
  8
RACCORDO
100
AcDbLine
 62
253
  6
CONTINUOUS
 10
-74.9979681185
 20
36.1741134764
 11
-75.0004636713
 21
36.0772670254
  0
LINE
  5
749
100
AcDbEntity
  8
ASSI
100
AcDbLine
 62
253
  6
CONTINUOUS
 10
-74.9979681185
 20
36.1741134764
 11
-75.0004636713
 21
36.0772670254
  0
LINE
  5
74A
100
AcDbEntity
  8
RACCORDO
100
AcDbLine
 62
253
  6
CONTINUOUS
 10
-75.9239849192
 20
36.4519266668
 11
-75.9268125527
 21
36.3522201161
  0
LINE
  5
74B
100
AcDbEntity
  8
ASSI
100
AcDbLine
 62
253
  6
CONTINUOUS
 10
-75.9239849192
 20
36.4519266668
 11
-75.9268125527
 21
36.3522201161
  0
LINE
  5
74C
100
AcDbEntity
  8
RACCORDO
100
AcDbLine
 62
253
  6
CONTINUOUS
 10
-74.9584232171
 20
37.2511478099
 11
-74.9707404667
 21
36.8269964286
  0
LINE
  5
74D
100
AcDbEntity
  8
ASSI
100
AcDbLine
 62
253
  6
CONTINUOUS
 10
-74.9584232171
 20
37.2511478099
 11
-74.9707404667
 21
36.8269964286
  0
LWPOLYLINE
  5
74E
100
AcDbEntity
  8
RACCORDO
100
AcDbPolyline
 62
253
  6
CONTINUOUS
 90
3
 70
0
 10
-75.8878280201
 20
37.4107111447
 10
-75.8957374218
 20
37.1577266786
 10
-75.9009370132
 20
37.0210502265
  0
LWPOLYLINE
  5
74F
100
AcDbEntity
  8
ASSI
100
AcDbPolyline
 62
253
  6
CONTINUOUS
 90
3
 70
0
 10
-75.8878280201
 20
37.4107111447
 10
-75.8957374218
 20
37.1577266786
 10
-75.9009370132
 20
37.0210502265
  0
LINE
  5
750
100
AcDbEntity
  8
RACCORDO
100
AcDbLine
 62
253
  6
CONTINUOUS
 10
-74.9933638306
 20
36.3178415022
 11
-74.9979681185
 21
36.1741134764
  0
LINE
  5
751
100
AcDbEntity
  8
ASSI
100
AcDbLine
 62
253
  6
CONTINUOUS
 10
-74.9933638306
 20
36.3178415022
 11
-74.9979681185
 21
36.1741134764
  0
LINE
  5
752
100
AcDbEntity
  8
RACCORDO
100
AcDbLine
 62
253
  6
CONTINUOUS
 10
-75.9189259419
 20
36.600651721
 11
-75.9239849192
 21
36.4519266668
  0
LINE
  5
753
100
AcDbEntity
  8
ASSI
100
AcDbLine
 62
253
  6
CONTINUOUS
 10
-75.9189259419
 20
36.600651721
 11
-75.9239849192
 21
36.4519266668
  0
LINE
  5
754
100
AcDbEntity
  8
RACCORDO
100
AcDbLine
 62
253
  6
CONTINUOUS
 10
-75.9151510488
 20
36.6974337038
 11
-75.9189259419
 21
36.600651721
  0
LINE
  5
755
100
AcDbEntity
  8
ASSI
100
AcDbLine
 62
253
  6
CONTINUOUS
 10
-75.9151510488
 20
36.6974337038
 11
-75.9189259419
 21
36.600651721
  0
LINE
  5
756
100
AcDbEntity
  8
RACCORDO
100
AcDbLine
 62
253
  6
CONTINUOUS
 10
-74.9878831063
 20
36.4618032394
 11
-74.9933638306
 21
36.3178415022
  0
LINE
  5
757
100
AcDbEntity
  8
ASSI
100
AcDbLine
 62
253
  6
CONTINUOUS
 10
-74.9878831063
 20
36.4618032394
 11
-74.9933638306
 21
36.3178415022
  0
LINE
  5
758
100
AcDbEntity
  8
RACCORDO
100
AcDbLine
 62
253
  6
CONTINUOUS
 10
-74.9816996213
 20
36.6044643417
 11
-74.9878831063
 21
36.4618032394
  0
LINE
  5
759
100
AcDbEntity
  8
ASSI
100
AcDbLine
 62
253
  6
CONTINUOUS
 10
-74.9816996213
 20
36.6044643417
 11
-74.9878831063
 21
36.4618032394
  0
LWPOLYLINE
  5
75A
100
AcDbEntity
  8
RACCORDO
100
AcDbPolyline
 62
253
  6
CONTINUOUS
 90
3
 70
0
 10
-74.9707404667
 20
36.8269964286
 10
-74.9729537127
 20
36.7845783328
 10
-74.9816996213
 20
36.6044643417
  0
LWPOLYLINE
  5
75B
100
AcDbEntity
  8
ASSI
100
AcDbPolyline
 62
253
  6
CONTINUOUS
 90
3
 70
0
 10
-74.9707404667
 20
36.8269964286
 10
-74.9729537127
 20
36.7845783328
 10
-74.9816996213
 20
36.6044643417
  0
LINE
  5
75C
100
AcDbEntity
  8
RACCORDO
100
AcDbLine
 62
253
  6
CONTINUOUS
 10
-75.1083500191
 20
-0.1730090119
 11
-79.5714613492
 21
-0.1730035714
  0
LINE
  5
75D
100
AcDbEntity
  8
ASSI
100
AcDbLine
 62
253
  6
CONTINUOUS
 10
-75.1083500191
 20
-0.1730090119
 11
-79.5714613492
 21
-0.1730035714
  0
LINE
  5
75E
100
AcDbEntity
  8
RACCORDO
100
AcDbLine
 62
253
  6
CONTINUOUS
 10
-74.938567709
 20
39.3862474157
 11
-74.9370666179
 21
39.3030905873
  0
LINE
  5
75F
100
AcDbEntity
  8
ASSI
100
AcDbLine
 62
253
  6
CONTINUOUS
 10
-74.938567709
 20
39.3862474157
 11
-74.9370666179
 21
39.3030905873
  0
LWPOLYLINE
  5
760
100
AcDbEntity
  8
RACCORDO
100
AcDbPolyline
 62
253
  6
CONTINUOUS
 90
3
 70
0
 10
-74.9370666179
 20
39.3030905873
 10
-74.9359320666
 20
39.1996478425
 10
-74.9355320381
 20
39.1393477019
  0
LWPOLYLINE
  5
761
100
AcDbEntity
  8
ASSI
100
AcDbPolyline
 62
253
  6
CONTINUOUS
 90
3
 70
0
 10
-74.9370666179
 20
39.3030905873
 10
-74.9359320666
 20
39.1996478425
 10
-74.9355320381
 20
39.1393477019
  0
LINE
  5
762
100
AcDbEntity
  8
0
100
AcDbLine
 62
7
  6
CONTINUOUS
 10
-72.5559758643
 20
-3.6730035714
 11
-72.5559758643
 21
3.3269964286
  0
LINE
  5
763
100
AcDbEntity
  8
ASSI
100
AcDbLine
 62
7
  6
CONTINUOUS
 10
-72.5559758643
 20
-3.6730035714
 11
-72.5559758643
 21
3.3269964286
  0
LINE
  5
764
100
AcDbEntity
  8
RACCORDO
100
AcDbLine
 62
253
  6
CONTINUOUS
 10
-74.9355320383
 20
-39.4853548447
 11
-74.9364423342
 21
-39.6001317181
  0
LINE
  5
765
100
AcDbEntity
  8
ASSI
100
AcDbLine
 62
253
  6
CONTINUOUS
 10
-74.9355320383
 20
-39.4853548447
 11
-74.9364423342
 21
-39.6001317181
  0
LWPOLYLINE
  5
766
100
AcDbEntity
  8
RACCORDO
100
AcDbPolyline
 62
253
  6
CONTINUOUS
 90
17
 70
0
 10
-74.9364423342
 20
-39.6001317181
 10
-74.937775992
 20
-39.6930437139
 10
-74.938567709
 20
-39.7322545585
 10
-74.9394445167
 20
-39.7670201062
 10
-74.9403857321
 20
-39.7977639925
 10
-74.9413891777
 20
-39.824739015
 10
-74.942457031
 20
-39.848197039
 10
-74.9435751425
 20
-39.8684838654
 10
-74.9447420283
 20
-39.8858120488
 10
-74.9459591722
 20
-39.9003919996
 10
-74.9472168754
 20
-39.9124924655
 10
-74.9485136119
 20
-39.9222847001
 10
-74.9498509078
 20
-39.9299379092
 10
-74.9512236424
 20
-39.9356480368
 10
-74.9526301088
 20
-39.9395539055
 10
-74.954072014
 20
-39.9417724439
 10
-74.9555493578
 20
-39.9424316948
  0
LWPOLYLINE
  5
767
100
AcDbEntity
  8
ASSI
100
AcDbPolyline
 62
253
  6
CONTINUOUS
 90
17
 70
0
 10
-74.9364423342
 20
-39.6001317181
 10
-74.937775992
 20
-39.6930437139
 10
-74.938567709
 20
-39.7322545585
 10
-74.9394445167
 20
-39.7670201062
 10
-74.9403857321
 20
-39.7977639925
 10
-74.9413891777
 20
-39.824739015
 10
-74.942457031
 20
-39.848197039
 10
-74.9435751425
 20
-39.8684838654
 10
-74.9447420283
 20
-39.8858120488
 10
-74.9459591722
 20
-39.9003919996
 10
-74.9472168754
 20
-39.9124924655
 10
-74.9485136119
 20
-39.9222847001
 10
-74.9498509078
 20
-39.9299379092
 10
-74.9512236424
 20
-39.9356480368
 10
-74.9526301088
 20
-39.9395539055
 10
-74.954072014
 20
-39.9417724439
 10
-74.9555493578
 20
-39.9424316948
  0
LWPOLYLINE
  5
768
100
AcDbEntity
  8
RACCORDO
100
AcDbPolyline
 62
253
  6
CONTINUOUS
 90
7
 70
0
 10
-79.3644036352
 20
23.936294471
 10
-79.3643015513
 20
23.9359360544
 10
-79.3642312111
 20
23.9345547087
 10
-79.3641926291
 20
23.9322699212
 10
-79.3641868217
 20
23.9292452814
 10
-79.3642127816
 20
23.9255650658
 10
-79.3642674774
 20
23.9211222368
  0
LWPOLYLINE
  5
769
100
AcDbEntity
  8
ASSI
100
AcDbPolyline
 62
253
  6
CONTINUOUS
 90
7
 70
0
 10
-79.3644036352
 20
23.936294471
 10
-79.3643015513
 20
23.9359360544
 10
-79.3642312111
 20
23.9345547087
 10
-79.3641926291
 20
23.9322699212
 10
-79.3641868217
 20
23.9292452814
 10
-79.3642127816
 20
23.9255650658
 10
-79.3642674774
 20
23.9211222368
  0
LWPOLYLINE
  5
76A
100
AcDbEntity
  8
RACCORDO
100
AcDbPolyline
 62
253
  6
CONTINUOUS
 90
7
 70
0
 10
-78.7524570418
 20
25.529220266
 10
-78.7521452346
 20
25.5273911302
 10
-78.7519744315
 20
25.5237090627
 10
-78.7519336512
 20
25.5183273823
 10
-78.752012086
 20
25.5114141104
 10
-78.7521939898
 20
25.5031339532
 10
-78.7524738449
 20
25.493519195
  0
LWPOLYLINE
  5
76B
100
AcDbEntity
  8
ASSI
100
AcDbPolyline
 62
253
  6
CONTINUOUS
 90
7
 70
0
 10
-78.7524570418
 20
25.529220266
 10
-78.7521452346
 20
25.5273911302
 10
-78.7519744315
 20
25.5237090627
 10
-78.7519336512
 20
25.5183273823
 10
-78.752012086
 20
25.5114141104
 10
-78.7521939898
 20
25.5031339532
 10
-78.7524738449
 20
25.493519195
  0
LINE
  5
76C
100
AcDbEntity
  8
0
100
AcDbLine
 62
7
  6
CONTINUOUS
 10
-70.5559758643
 20
39.8269964286
 11
-70.5559758643
 21
3.5019737556
  0
LINE
  5
76D
100
AcDbEntity
  8
ASSI
100
AcDbLine
 62
7
  6
CONTINUOUS
 10
-70.5559758643
 20
39.8269964286
 11
-70.5559758643
 21
3.5019737556
  0
LINE
  5
76E
100
AcDbEntity
  8
0
100
AcDbLine
 62
7
  6
CONTINUOUS
 10
-70.5559758643
 20
-3.8479808985
 11
-70.5559758643
 21
-40.1730035714
  0
LINE
  5
76F
100
AcDbEntity
  8
ASSI
100
AcDbLine
 62
7
  6
CONTINUOUS
 10
-70.5559758643
 20
-3.8479808985
 11
-70.5559758643
 21
-40.1730035714
  0
LWPOLYLINE
  5
770
100
AcDbEntity
  8
RACCORDO
100
AcDbPolyline
 62
253
  6
CONTINUOUS
 90
18
 70
0
 10
-78.7603694157
 20
-25.8922399174
 10
-78.7604839918
 20
-25.8925523803
 10
-78.7605928446
 20
-25.8928536921
 10
-78.7606956457
 20
-25.8931431286
 10
-78.7607922047
 20
-25.8934203465
 10
-78.7608822041
 20
-25.8936846254
 10
-78.7609653771
 20
-25.8939353576
 10
-78.7610415902
 20
-25.8941723197
 10
-78.7611105842
 20
-25.8943948833
 10
-78.7611721601
 20
-25.8946025651
 10
-78.7612262475
 20
-25.8947952863
 10
-78.7612726695
 20
-25.8949725743
 10
-78.7613112984
 20
-25.8951340666
 10
-78.7613421161
 20
-25.8952797846
 10
-78.7613650602
 20
-25.895409472
 10
-78.7613801473
 20
-25.8955230844
 10
-78.7613874749
 20
-25.8956209326
 10
-78.7613871673
 20
-25.8957031617
  0
LWPOLYLINE
  5
771
100
AcDbEntity
  8
ASSI
100
AcDbPolyline
 62
253
  6
CONTINUOUS
 90
18
 70
0
 10
-78.7603694157
 20
-25.8922399174
 10
-78.7604839918
 20
-25.8925523803
 10
-78.7605928446
 20
-25.8928536921
 10
-78.7606956457
 20
-25.8931431286
 10
-78.7607922047
 20
-25.8934203465
 10
-78.7608822041
 20
-25.8936846254
 10
-78.7609653771
 20
-25.8939353576
 10
-78.7610415902
 20
-25.8941723197
 10
-78.7611105842
 20
-25.8943948833
 10
-78.7611721601
 20
-25.8946025651
 10
-78.7612262475
 20
-25.8947952863
 10
-78.7612726695
 20
-25.8949725743
 10
-78.7613112984
 20
-25.8951340666
 10
-78.7613421161
 20
-25.8952797846
 10
-78.7613650602
 20
-25.895409472
 10
-78.7613801473
 20
-25.8955230844
 10
-78.7613874749
 20
-25.8956209326
 10
-78.7613871673
 20
-25.8957031617
  0
LINE
  5
772
100
AcDbEntity
  8
RACCORDO
100
AcDbLine
 62
253
  6
CONTINUOUS
 10
-78.7601243758
 20
-25.891584258
 11
-78.7602494731
 21
-25.8919170836
  0
LINE
  5
773
100
AcDbEntity
  8
ASSI
100
AcDbLine
 62
253
  6
CONTINUOUS
 10
-78.7601243758
 20
-25.891584258
 11
-78.7602494731
 21
-25.8919170836
  0
LINE
  5
774
100
AcDbEntity
  8
0
100
AcDbLine
 62
7
  6
CONTINUOUS
 10
-72.5559758643
 20
3.3269964286
 11
-70.5559758643
 21
3.5019737556
  0
LINE
  5
775
100
AcDbEntity
  8
ASSI
100
AcDbLine
 62
7
  6
CONTINUOUS
 10
-72.5559758643
 20
3.3269964286
 11
-70.5559758643
 21
3.5019737556
  0
LWPOLYLINE
  5
776
100
AcDbEntity
  8
RACCORDO
100
AcDbPolyline
 62
253
  6
CONTINUOUS
 90
3
 70
0
 10
-78.7600651538
 20
25.5454209829
 10
-78.7599340883
 20
25.545077354
 10
-78.7597989241
 20
25.5447260951
  0
LWPOLYLINE
  5
777
100
AcDbEntity
  8
ASSI
100
AcDbPolyline
 62
253
  6
CONTINUOUS
 90
3
 70
0
 10
-78.7600651538
 20
25.5454209829
 10
-78.7599340883
 20
25.545077354
 10
-78.7597989241
 20
25.5447260951
  0
LINE
  5
778
100
AcDbEntity
  8
RACCORDO
100
AcDbLine
 62
253
  6
CONTINUOUS
 10
-78.7603134724
 20
25.5460819081
 11
-78.7601917449
 21
25.5457561157
  0
LINE
  5
779
100
AcDbEntity
  8
ASSI
100
AcDbLine
 62
253
  6
CONTINUOUS
 10
-78.7603134724
 20
25.5460819081
 11
-78.7601917449
 21
25.5457561157
  0
LINE
  5
77A
100
AcDbEntity
  8
RACCORDO
100
AcDbLine
 62
253
  6
CONTINUOUS
 10
-78.7598602117
 20
-25.8908919143
 11
-78.7599945011
 21
-25.8912422604
  0
LINE
  5
77B
100
AcDbEntity
  8
ASSI
100
AcDbLine
 62
253
  6
CONTINUOUS
 10
-78.7598602117
 20
-25.8908919143
 11
-78.7599945011
 21
-25.8912422604
  0
LINE
  5
77C
100
AcDbEntity
  8
RACCORDO
100
AcDbLine
 62
253
  6
CONTINUOUS
 10
-78.7595792556
 20
-25.890168112
 11
-78.7597216614
 21
-25.8905335391
  0
LINE
  5
77D
100
AcDbEntity
  8
ASSI
100
AcDbLine
 62
253
  6
CONTINUOUS
 10
-78.7595792556
 20
-25.890168112
 11
-78.7597216614
 21
-25.8905335391
  0
LINE
  5
77E
100
AcDbEntity
  8
RACCORDO
100
AcDbLine
 62
253
  6
CONTINUOUS
 10
-78.7592837667
 20
-25.8894180671
 11
-78.7594333096
 21
-25.8897963617
  0
LINE
  5
77F
100
AcDbEntity
  8
ASSI
100
AcDbLine
 62
253
  6
CONTINUOUS
 10
-78.7592837667
 20
-25.8894180671
 11
-78.7594333096
 21
-25.8897963617
  0
LINE
  5
780
100
AcDbEntity
  8
RACCORDO
100
AcDbLine
 62
253
  6
CONTINUOUS
 10
-78.7588167119
 20
-25.8882488283
 11
-78.7589752522
 21
-25.8886443634
  0
LINE
  5
781
100
AcDbEntity
  8
ASSI
100
AcDbLine
 62
253
  6
CONTINUOUS
 10
-78.7588167119
 20
-25.8882488283
 11
-78.7589752522
 21
-25.8886443634
  0
LWPOLYLINE
  5
782
100
AcDbEntity
  8
0
100
AcDbPolyline
 62
7
  6
CONTINUOUS
 90
6
 70
0
 10
-78.7775821024
 20
-27.3151335714
 10
-78.7763199406
 20
-27.312162937
 10
-78.7758066675
 20
-27.3031570147
 10
-78.7760422829
 20
-27.2880562828
 10
-78.7770563909
 20
-27.2668149184
 10
-78.7788193874
 20
-27.2396714718
  0
LWPOLYLINE
  5
783
100
AcDbEntity
  8
ASSI
100
AcDbPolyline
 62
7
  6
CONTINUOUS
 90
6
 70
0
 10
-78.7775821024
 20
-27.3151335714
 10
-78.7763199406
 20
-27.312162937
 10
-78.7758066675
 20
-27.3031570147
 10
-78.7760422829
 20
-27.2880562828
 10
-78.7770563909
 20
-27.2668149184
 10
-78.7788193874
 20
-27.2396714718
  0
LWPOLYLINE
  5
784
100
AcDbEntity
  8
RACCORDO
100
AcDbPolyline
 62
253
  6
CONTINUOUS
 90
16
 70
0
 10
-78.7582677853
 20
25.540876304
 10
-78.7581016888
 20
25.540467837
 10
-78.7579336871
 20
25.5400600647
 10
-78.7577629491
 20
25.5396525485
 10
-78.7575891716
 20
25.5392456098
 10
-78.7574121942
 20
25.5388388866
 10
-78.7572313712
 20
25.5384306048
 10
-78.7570465481
 20
25.5380203043
 10
-78.7568577108
 20
25.5376082954
 10
-78.7566643213
 20
25.537193728
 10
-78.7564661574
 20
25.5367762817
 10
-78.7562632773
 20
25.5363559348
 10
-78.7560555475
 20
25.5359322974
 10
-78.7558429507
 20
25.5355052579
 10
-78.755625606
 20
25.5350748959
 10
-78.7554036604
 20
25.5346406051
  0
LWPOLYLINE
  5
785
100
AcDbEntity
  8
ASSI
100
AcDbPolyline
 62
253
  6
CONTINUOUS
 90
16
 70
0
 10
-78.7582677853
 20
25.540876304
 10
-78.7581016888
 20
25.540467837
 10
-78.7579336871
 20
25.5400600647
 10
-78.7577629491
 20
25.5396525485
 10
-78.7575891716
 20
25.5392456098
 10
-78.7574121942
 20
25.5388388866
 10
-78.7572313712
 20
25.5384306048
 10
-78.7570465481
 20
25.5380203043
 10
-78.7568577108
 20
25.5376082954
 10
-78.7566643213
 20
25.537193728
 10
-78.7564661574
 20
25.5367762817
 10
-78.7562632773
 20
25.5363559348
 10
-78.7560555475
 20
25.5359322974
 10
-78.7558429507
 20
25.5355052579
 10
-78.755625606
 20
25.5350748959
 10
-78.7554036604
 20
25.5346406051
  0
LINE
  5
786
100
AcDbEntity
  8
RACCORDO
100
AcDbLine
 62
253
  6
CONTINUOUS
 10
-78.7585941419
 20
25.5416873232
 11
-78.7584319935
 21
25.5412834876
  0
LINE
  5
787
100
AcDbEntity
  8
ASSI
100
AcDbLine
 62
253
  6
CONTINUOUS
 10
-78.7585941419
 20
25.5416873232
 11
-78.7584319935
 21
25.5412834876
  0
LINE
  5
788
100
AcDbEntity
  8
RACCORDO
100
AcDbLine
 62
253
  6
CONTINUOUS
 10
-78.7593705679
 20
25.5436304353
 11
-78.7592208972
 21
25.5432528108
  0
LINE
  5
789
100
AcDbEntity
  8
ASSI
100
AcDbLine
 62
253
  6
CONTINUOUS
 10
-78.7593705679
 20
25.5436304353
 11
-78.7592208972
 21
25.5432528108
  0
LINE
  5
78A
100
AcDbEntity
  8
RACCORDO
100
AcDbLine
 62
253
  6
CONTINUOUS
 10
-78.7596597103
 20
25.5443672805
 11
-78.7595168117
 21
25.5440018061
  0
LINE
  5
78B
100
AcDbEntity
  8
ASSI
100
AcDbLine
 62
253
  6
CONTINUOUS
 10
-78.7596597103
 20
25.5443672805
 11
-78.7595168117
 21
25.5440018061
  0
LWPOLYLINE
  5
78C
100
AcDbEntity
  8
RACCORDO
100
AcDbPolyline
 62
253
  6
CONTINUOUS
 90
16
 70
0
 10
-78.7552181674
 20
-25.8802874073
 10
-78.7554467986
 20
-25.880731773
 10
-78.7556707952
 20
-25.8811711248
 10
-78.7558899766
 20
-25.8816062226
 10
-78.7561042032
 20
-25.8820378155
 10
-78.7563133645
 20
-25.8824658735
 10
-78.7565175001
 20
-25.8828905535
 10
-78.7567167751
 20
-25.8833123224
 10
-78.7569111407
 20
-25.8837311624
 10
-78.7571008501
 20
-25.8841472819
 10
-78.7572865045
 20
-25.8845614651
 10
-78.7574681431
 20
-25.8849734899
 10
-78.7576459099
 20
-25.8853841142
 10
-78.7578204535
 20
-25.8857954936
 10
-78.7579919472
 20
-25.8862078304
 10
-78.7581607296
 20
-25.8866201536
  0
LWPOLYLINE
  5
78D
100
AcDbEntity
  8
ASSI
100
AcDbPolyline
 62
253
  6
CONTINUOUS
 90
16
 70
0
 10
-78.7552181674
 20
-25.8802874073
 10
-78.7554467986
 20
-25.880731773
 10
-78.7556707952
 20
-25.8811711248
 10
-78.7558899766
 20
-25.8816062226
 10
-78.7561042032
 20
-25.8820378155
 10
-78.7563133645
 20
-25.8824658735
 10
-78.7565175001
 20
-25.8828905535
 10
-78.7567167751
 20
-25.8833123224
 10
-78.7569111407
 20
-25.8837311624
 10
-78.7571008501
 20
-25.8841472819
 10
-78.7572865045
 20
-25.8845614651
 10
-78.7574681431
 20
-25.8849734899
 10
-78.7576459099
 20
-25.8853841142
 10
-78.7578204535
 20
-25.8857954936
 10
-78.7579919472
 20
-25.8862078304
 10
-78.7581607296
 20
-25.8866201536
  0
LINE
  5
78E
100
AcDbEntity
  8
RACCORDO
100
AcDbLine
 62
253
  6
CONTINUOUS
 10
-78.7547476842
 20
-25.8793870163
 11
-78.7549851077
 21
-25.8798381332
  0
LINE
  5
78F
100
AcDbEntity
  8
ASSI
100
AcDbLine
 62
253
  6
CONTINUOUS
 10
-78.7547476842
 20
-25.8793870163
 11
-78.7549851077
 21
-25.8798381332
  0
LINE
  5
790
100
AcDbEntity
  8
RACCORDO
100
AcDbLine
 62
253
  6
CONTINUOUS
 10
-78.7532494758
 20
-25.8766417084
 11
-78.7535048571
 21
-25.8771174103
  0
LINE
  5
791
100
AcDbEntity
  8
ASSI
100
AcDbLine
 62
253
  6
CONTINUOUS
 10
-78.7532494758
 20
-25.8766417084
 11
-78.7535048571
 21
-25.8771174103
  0
LINE
  5
792
100
AcDbEntity
  8
RACCORDO
100
AcDbLine
 62
253
  6
CONTINUOUS
 10
-78.7542600786
 20
-25.8784910292
 11
-78.7545059403
 21
-25.8789374034
  0
LINE
  5
793
100
AcDbEntity
  8
ASSI
100
AcDbLine
 62
253
  6
CONTINUOUS
 10
-78.7542600786
 20
-25.8784910292
 11
-78.7545059403
 21
-25.8789374034
  0
LINE
  5
794
100
AcDbEntity
  8
RACCORDO
100
AcDbLine
 62
253
  6
CONTINUOUS
 10
-78.7524783704
 20
-25.8752697593
 11
-78.7527363669
 21
-25.8757032779
  0
LINE
  5
795
100
AcDbEntity
  8
ASSI
100
AcDbLine
 62
253
  6
CONTINUOUS
 10
-78.7524783704
 20
-25.8752697593
 11
-78.7527363669
 21
-25.8757032779
  0
LINE
  5
796
100
AcDbEntity
  8
RACCORDO
100
AcDbLine
 62
253
  6
CONTINUOUS
 10
-78.7527193874
 20
25.5296663832
 11
-78.7524557179
 21
25.5292266808
  0
LINE
  5
797
100
AcDbEntity
  8
ASSI
100
AcDbLine
 62
253
  6
CONTINUOUS
 10
-78.7527193874
 20
25.5296663832
 11
-78.7524557179
 21
25.5292266808
  0
LINE
  5
798
100
AcDbEntity
  8
RACCORDO
100
AcDbLine
 62
253
  6
CONTINUOUS
 10
-78.7542307067
 20
25.5324300676
 11
-78.7539848571
 21
25.5319888059
  0
LINE
  5
799
100
AcDbEntity
  8
ASSI
100
AcDbLine
 62
253
  6
CONTINUOUS
 10
-78.7542307067
 20
25.5324300676
 11
-78.7539848571
 21
25.5319888059
  0
LINE
  5
79A
100
AcDbEntity
  8
RACCORDO
100
AcDbLine
 62
253
  6
CONTINUOUS
 10
-78.7537372872
 20
25.5315408672
 11
-78.7534880783
 21
25.5310805623
  0
LINE
  5
79B
100
AcDbEntity
  8
ASSI
100
AcDbLine
 62
253
  6
CONTINUOUS
 10
-78.7537372872
 20
25.5315408672
 11
-78.7534880783
 21
25.5310805623
  0
LWPOLYLINE
  5
79C
100
AcDbEntity
  8
RACCORDO
100
AcDbPolyline
 62
253
  6
CONTINUOUS
 90
3
 70
0
 10
-78.7551773029
 20
25.534201758
 10
-78.7549467552
 20
25.5337584071
 10
-78.7547120878
 20
25.5333133895
  0
LWPOLYLINE
  5
79D
100
AcDbEntity
  8
ASSI
100
AcDbPolyline
 62
253
  6
CONTINUOUS
 90
3
 70
0
 10
-78.7551773029
 20
25.534201758
 10
-78.7549467552
 20
25.5337584071
 10
-78.7547120878
 20
25.5333133895
  0
LWPOLYLINE
  5
79E
100
AcDbEntity
  8
RACCORDO
100
AcDbPolyline
 62
253
  6
CONTINUOUS
 90
7
 70
0
 10
-75.9538414751
 20
-39.1743413623
 10
-75.9555307484
 20
-39.1774903767
 10
-75.9571757128
 20
-39.1806653201
 10
-75.958746642
 20
-39.183914286
 10
-75.9602485019
 20
-39.187190133
 10
-75.9617315798
 20
-39.1903093623
 10
-75.9632355154
 20
-39.1931379961
  0
LWPOLYLINE
  5
79F
100
AcDbEntity
  8
ASSI
100
AcDbPolyline
 62
253
  6
CONTINUOUS
 90
7
 70
0
 10
-75.9538414751
 20
-39.1743413623
 10
-75.9555307484
 20
-39.1774903767
 10
-75.9571757128
 20
-39.1806653201
 10
-75.958746642
 20
-39.183914286
 10
-75.9602485019
 20
-39.187190133
 10
-75.9617315798
 20
-39.1903093623
 10
-75.9632355154
 20
-39.1931379961
  0
LWPOLYLINE
  5
7A0
100
AcDbEntity
  8
RACCORDO
100
AcDbPolyline
 62
253
  6
CONTINUOUS
 90
25
 70
0
 10
-75.9767883027
 20
-39.2168591564
 10
-75.9786226602
 20
-39.220209694
 10
-75.980462835
 20
-39.2236335424
 10
-75.9823055823
 20
-39.2270985991
 10
-75.9841301896
 20
-39.2306137452
 10
-75.9859217481
 20
-39.234171461
 10
-75.9876830689
 20
-39.2377155375
 10
-75.9893878103
 20
-39.2412554493
 10
-75.9910187732
 20
-39.244783958
 10
-75.9925889444
 20
-39.248220562
 10
-75.9940785673
 20
-39.2515593401
 10
-75.9954704338
 20
-39.25480885
 10
-75.9967781647
 20
-39.2579110655
 10
-75.9979882089
 20
-39.2608678262
 10
-75.9990856024
 20
-39.2636798889
 10
-76.0000796606
 20
-39.266288155
 10
-76.0009563209
 20
-39.2686917362
 10
-76.0017030701
 20
-39.2708942742
 10
-76.0023305344
 20
-39.2728438263
 10
-76.0028322613
 20
-39.2745338378
 10
-76.0032010552
 20
-39.2759728675
 10
-76.0034461006
 20
-39.2771317494
 10
-76.0035692773
 20
-39.2779999548
 10
-76.0035705868
 20
-39.2785887275
 10
-76.0035280454
 20
-39.2787770531
  0
LWPOLYLINE
  5
7A1
100
AcDbEntity
  8
ASSI
100
AcDbPolyline
 62
253
  6
CONTINUOUS
 90
25
 70
0
 10
-75.9767883027
 20
-39.2168591564
 10
-75.9786226602
 20
-39.220209694
 10
-75.980462835
 20
-39.2236335424
 10
-75.9823055823
 20
-39.2270985991
 10
-75.9841301896
 20
-39.2306137452
 10
-75.9859217481
 20
-39.234171461
 10
-75.9876830689
 20
-39.2377155375
 10
-75.9893878103
 20
-39.2412554493
 10
-75.9910187732
 20
-39.244783958
 10
-75.9925889444
 20
-39.248220562
 10
-75.9940785673
 20
-39.2515593401
 10
-75.9954704338
 20
-39.25480885
 10
-75.9967781647
 20
-39.2579110655
 10
-75.9979882089
 20
-39.2608678262
 10
-75.9990856024
 20
-39.2636798889
 10
-76.0000796606
 20
-39.266288155
 10
-76.0009563209
 20
-39.2686917362
 10
-76.0017030701
 20
-39.2708942742
 10
-76.0023305344
 20
-39.2728438263
 10
-76.0028322613
 20
-39.2745338378
 10
-76.0032010552
 20
-39.2759728675
 10
-76.0034461006
 20
-39.2771317494
 10
-76.0035692773
 20
-39.2779999548
 10
-76.0035705868
 20
-39.2785887275
 10
-76.0035280454
 20
-39.2787770531
  0
LINE
  5
7A2
100
AcDbEntity
  8
RACCORDO
100
AcDbLine
 62
253
  6
CONTINUOUS
 10
-75.9647641862
 20
-39.1958088697
 11
-75.966320954
 21
-39.1985383086
  0
LINE
  5
7A3
100
AcDbEntity
  8
ASSI
100
AcDbLine
 62
253
  6
CONTINUOUS
 10
-75.9647641862
 20
-39.1958088697
 11
-75.966320954
 21
-39.1985383086
  0
LWPOLYLINE
  5
7A4
100
AcDbEntity
  8
RACCORDO
100
AcDbPolyline
 62
253
  6
CONTINUOUS
 90
3
 70
0
 10
-75.9713996631
 20
-39.2072787874
 10
-75.9731743481
 20
-39.2103854388
 10
-75.9767883027
 20
-39.2168591564
  0
LWPOLYLINE
  5
7A5
100
AcDbEntity
  8
ASSI
100
AcDbPolyline
 62
253
  6
CONTINUOUS
 90
3
 70
0
 10
-75.9713996631
 20
-39.2072787874
 10
-75.9731743481
 20
-39.2103854388
 10
-75.9767883027
 20
-39.2168591564
  0
LINE
  5
7A6
100
AcDbEntity
  8
RACCORDO
100
AcDbLine
 62
253
  6
CONTINUOUS
 10
-75.9679443758
 20
-39.2013839378
 11
-75.9713996631
 21
-39.2072787874
  0
LINE
  5
7A7
100
AcDbEntity
  8
ASSI
100
AcDbLine
 62
253
  6
CONTINUOUS
 10
-75.9679443758
 20
-39.2013839378
 11
-75.9713996631
 21
-39.2072787874
  0
LWPOLYLINE
  5
7A8
100
AcDbEntity
  8
RACCORDO
100
AcDbPolyline
 62
253
  6
CONTINUOUS
 90
20
 70
0
 10
-75.9691445023
 20
38.8574328381
 10
-75.9673200478
 20
38.8542451155
 10
-75.9655586558
 20
38.8512388586
 10
-75.9638297706
 20
38.8483283715
 10
-75.9621456107
 20
38.8452319905
 10
-75.960505914
 20
38.841783295
 10
-75.9588526788
 20
38.8381502639
 10
-75.9571214098
 20
38.8345521923
 10
-75.9553056873
 20
38.8310317052
 10
-75.9534352495
 20
38.827545406
 10
-75.9515023446
 20
38.8241844994
 10
-75.9495465179
 20
38.8209083682
 10
-75.9476236636
 20
38.8177534217
 10
-75.9457402231
 20
38.8149278114
 10
-75.9439027125
 20
38.8126019405
 10
-75.9421509997
 20
38.8106048551
 10
-75.9405330783
 20
38.8086329849
 10
-75.9390576469
 20
38.8065874977
 10
-75.9376738222
 20
38.8045694586
 10
-75.9363447816
 20
38.8025743319
  0
LWPOLYLINE
  5
7A9
100
AcDbEntity
  8
ASSI
100
AcDbPolyline
 62
253
  6
CONTINUOUS
 90
20
 70
0
 10
-75.9691445023
 20
38.8574328381
 10
-75.9673200478
 20
38.8542451155
 10
-75.9655586558
 20
38.8512388586
 10
-75.9638297706
 20
38.8483283715
 10
-75.9621456107
 20
38.8452319905
 10
-75.960505914
 20
38.841783295
 10
-75.9588526788
 20
38.8381502639
 10
-75.9571214098
 20
38.8345521923
 10
-75.9553056873
 20
38.8310317052
 10
-75.9534352495
 20
38.827545406
 10
-75.9515023446
 20
38.8241844994
 10
-75.9495465179
 20
38.8209083682
 10
-75.9476236636
 20
38.8177534217
 10
-75.9457402231
 20
38.8149278114
 10
-75.9439027125
 20
38.8126019405
 10
-75.9421509997
 20
38.8106048551
 10
-75.9405330783
 20
38.8086329849
 10
-75.9390576469
 20
38.8065874977
 10
-75.9376738222
 20
38.8045694586
 10
-75.9363447816
 20
38.8025743319
  0
LWPOLYLINE
  5
7AA
100
AcDbEntity
  8
RACCORDO
100
AcDbPolyline
 62
253
  6
CONTINUOUS
 90
9
 70
0
 10
-75.9871068765
 20
38.8905261606
 10
-75.9851268147
 20
38.8865646814
 10
-75.9831031469
 20
38.8826488965
 10
-75.9810724785
 20
38.8787623352
 10
-75.9790345531
 20
38.8749593137
 10
-75.9770058642
 20
38.8712482442
 10
-75.9750009698
 20
38.867620016
 10
-75.9730137762
 20
38.864103148
 10
-75.9691445023
 20
38.8574328381
  0
LWPOLYLINE
  5
7AB
100
AcDbEntity
  8
ASSI
100
AcDbPolyline
 62
253
  6
CONTINUOUS
 90
9
 70
0
 10
-75.9871068765
 20
38.8905261606
 10
-75.9851268147
 20
38.8865646814
 10
-75.9831031469
 20
38.8826488965
 10
-75.9810724785
 20
38.8787623352
 10
-75.9790345531
 20
38.8749593137
 10
-75.9770058642
 20
38.8712482442
 10
-75.9750009698
 20
38.867620016
 10
-75.9730137762
 20
38.864103148
 10
-75.9691445023
 20
38.8574328381
  0
LWPOLYLINE
  5
7AC
100
AcDbEntity
  8
RACCORDO
100
AcDbPolyline
 62
253
  6
CONTINUOUS
 90
12
 70
0
 10
-75.9354770335
 20
-39.1472221204
 10
-75.9366491254
 20
-39.1490693053
 10
-75.9378627438
 20
-39.1509155809
 10
-75.9391316875
 20
-39.1527212646
 10
-75.9404709171
 20
-39.1545245513
 10
-75.9419057498
 20
-39.1563928659
 10
-75.9434776637
 20
-39.1582672591
 10
-75.9451671288
 20
-39.1602053391
 10
-75.9469086197
 20
-39.1624487826
 10
-75.9486415823
 20
-39.1651597022
 10
-75.9503681639
 20
-39.1681773614
 10
-75.9538414751
 20
-39.1743413623
  0
LWPOLYLINE
  5
7AD
100
AcDbEntity
  8
ASSI
100
AcDbPolyline
 62
253
  6
CONTINUOUS
 90
12
 70
0
 10
-75.9354770335
 20
-39.1472221204
 10
-75.9366491254
 20
-39.1490693053
 10
-75.9378627438
 20
-39.1509155809
 10
-75.9391316875
 20
-39.1527212646
 10
-75.9404709171
 20
-39.1545245513
 10
-75.9419057498
 20
-39.1563928659
 10
-75.9434776637
 20
-39.1582672591
 10
-75.9451671288
 20
-39.1602053391
 10
-75.9469086197
 20
-39.1624487826
 10
-75.9486415823
 20
-39.1651597022
 10
-75.9503681639
 20
-39.1681773614
 10
-75.9538414751
 20
-39.1743413623
  0
LINE
  5
7AE
100
AcDbEntity
  8
RACCORDO
100
AcDbLine
 62
253
  6
CONTINUOUS
 10
-75.933196729
 20
-39.1436882305
 11
-75.9343273878
 21
-39.1454231483
  0
LINE
  5
7AF
100
AcDbEntity
  8
ASSI
100
AcDbLine
 62
253
  6
CONTINUOUS
 10
-75.933196729
 20
-39.1436882305
 11
-75.9343273878
 21
-39.1454231483
  0
LWPOLYLINE
  5
7B0
100
AcDbEntity
  8
RACCORDO
100
AcDbPolyline
 62
253
  6
CONTINUOUS
 90
3
 70
0
 10
-75.9299446138
 20
-39.1387797678
 10
-75.9310069657
 20
-39.1403648321
 10
-75.9320913964
 20
-39.1420015537
  0
LWPOLYLINE
  5
7B1
100
AcDbEntity
  8
ASSI
100
AcDbPolyline
 62
253
  6
CONTINUOUS
 90
3
 70
0
 10
-75.9299446138
 20
-39.1387797678
 10
-75.9310069657
 20
-39.1403648321
 10
-75.9320913964
 20
-39.1420015537
  0
LINE
  5
7B2
100
AcDbEntity
  8
RACCORDO
100
AcDbLine
 62
253
  6
CONTINUOUS
 10
-75.9278932183
 20
-39.1357558066
 11
-75.9289074079
 21
-39.1372445858
  0
LINE
  5
7B3
100
AcDbEntity
  8
ASSI
100
AcDbLine
 62
253
  6
CONTINUOUS
 10
-75.9278932183
 20
-39.1357558066
 11
-75.9289074079
 21
-39.1372445858
  0
LINE
  5
7B4
100
AcDbEntity
  8
RACCORDO
100
AcDbLine
 62
253
  6
CONTINUOUS
 10
-75.9259373759
 20
-39.1329170753
 11
-75.9269027239
 21
-39.1343132344
  0
LINE
  5
7B5
100
AcDbEntity
  8
ASSI
100
AcDbLine
 62
253
  6
CONTINUOUS
 10
-75.9259373759
 20
-39.1329170753
 11
-75.9269027239
 21
-39.1343132344
  0
LINE
  5
7B6
100
AcDbEntity
  8
RACCORDO
100
AcDbLine
 62
253
  6
CONTINUOUS
 10
-75.9240791404
 20
-39.1302556212
 11
-75.9249959498
 21
-39.1315644533
  0
LINE
  5
7B7
100
AcDbEntity
  8
ASSI
100
AcDbLine
 62
253
  6
CONTINUOUS
 10
-75.9240791404
 20
-39.1302556212
 11
-75.9249959498
 21
-39.1315644533
  0
LWPOLYLINE
  5
7B8
100
AcDbEntity
  8
RACCORDO
100
AcDbPolyline
 62
253
  6
CONTINUOUS
 90
3
 70
0
 10
-75.9239527257
 20
38.7840686896
 10
-75.9230250812
 20
38.7827526894
 10
-75.9221282693
 20
38.7814880045
  0
LWPOLYLINE
  5
7B9
100
AcDbEntity
  8
ASSI
100
AcDbPolyline
 62
253
  6
CONTINUOUS
 90
3
 70
0
 10
-75.9239527257
 20
38.7840686896
 10
-75.9230250812
 20
38.7827526894
 10
-75.9221282693
 20
38.7814880045
  0
LINE
  5
7BA
100
AcDbEntity
  8
RACCORDO
100
AcDbLine
 62
253
  6
CONTINUOUS
 10
-75.9259034468
 20
38.7868612429
 11
-75.9249107728
 21
38.7854356139
  0
LINE
  5
7BB
100
AcDbEntity
  8
ASSI
100
AcDbLine
 62
253
  6
CONTINUOUS
 10
-75.9259034468
 20
38.7868612429
 11
-75.9249107728
 21
38.7854356139
  0
LINE
  5
7BC
100
AcDbEntity
  8
RACCORDO
100
AcDbLine
 62
253
  6
CONTINUOUS
 10
-75.9279891157
 20
38.789888972
 11
-75.926929938
 21
38.7883457789
  0
LINE
  5
7BD
100
AcDbEntity
  8
ASSI
100
AcDbLine
 62
253
  6
CONTINUOUS
 10
-75.9279891157
 20
38.789888972
 11
-75.926929938
 21
38.7883457789
  0
LWPOLYLINE
  5
7BE
100
AcDbEntity
  8
RACCORDO
100
AcDbPolyline
 62
253
  6
CONTINUOUS
 90
3
 70
0
 10
-75.9313772436
 20
38.7949157284
 10
-75.9302144443
 20
38.7931739564
 10
-75.9290844178
 20
38.7914979167
  0
LWPOLYLINE
  5
7BF
100
AcDbEntity
  8
ASSI
100
AcDbPolyline
 62
253
  6
CONTINUOUS
 90
3
 70
0
 10
-75.9313772436
 20
38.7949157284
 10
-75.9302144443
 20
38.7931739564
 10
-75.9290844178
 20
38.7914979167
  0
LINE
  5
7C0
100
AcDbEntity
  8
RACCORDO
100
AcDbLine
 62
253
  6
CONTINUOUS
 10
-75.9363447816
 20
38.8025743319
 11
-75.9325749374
 21
38.7967262737
  0
LINE
  5
7C1
100
AcDbEntity
  8
ASSI
100
AcDbLine
 62
253
  6
CONTINUOUS
 10
-75.9363447816
 20
38.8025743319
 11
-75.9325749374
 21
38.7967262737
  0
LINE
  5
7C2
100
AcDbEntity
  8
RACCORDO
100
AcDbLine
 62
253
  6
CONTINUOUS
 10
-75.9350541085
 20
38.8005860642
 11
-75.9338008437
 21
38.7986217113
  0
LINE
  5
7C3
100
AcDbEntity
  8
ASSI
100
AcDbLine
 62
253
  6
CONTINUOUS
 10
-75.9350541085
 20
38.8005860642
 11
-75.9338008437
 21
38.7986217113
  0
LWPOLYLINE
  5
7C4
100
AcDbEntity
  8
RACCORDO
100
AcDbPolyline
 62
253
  6
CONTINUOUS
 90
3
 70
0
 10
-75.9214761943
 20
-39.1265800328
 10
-75.9223198297
 20
-39.1277650748
 10
-75.9231875899
 20
-39.1289903577
  0
LWPOLYLINE
  5
7C5
100
AcDbEntity
  8
ASSI
100
AcDbPolyline
 62
253
  6
CONTINUOUS
 90
3
 70
0
 10
-75.9214761943
 20
-39.1265800328
 10
-75.9223198297
 20
-39.1277650748
 10
-75.9231875899
 20
-39.1289903577
  0
LWPOLYLINE
  5
7C6
100
AcDbEntity
  8
RACCORDO
100
AcDbPolyline
 62
253
  6
CONTINUOUS
 90
4
 70
0
 10
-75.9081004213
 20
-39.1082707275
 10
-75.9085274982
 20
-39.1088618665
 10
-75.908968979
 20
-39.1094672449
 10
-75.9119509978
 20
-39.1134706582
  0
LWPOLYLINE
  5
7C7
100
AcDbEntity
  8
ASSI
100
AcDbPolyline
 62
253
  6
CONTINUOUS
 90
4
 70
0
 10
-75.9081004213
 20
-39.1082707275
 10
-75.9085274982
 20
-39.1088618665
 10
-75.908968979
 20
-39.1094672449
 10
-75.9119509978
 20
-39.1134706582
  0
LINE
  5
7C8
100
AcDbEntity
  8
RACCORDO
100
AcDbLine
 62
253
  6
CONTINUOUS
 10
-75.9168981272
 20
-39.1202343982
 11
-75.9198604292
 21
-39.124325746
  0
LINE
  5
7C9
100
AcDbEntity
  8
ASSI
100
AcDbLine
 62
253
  6
CONTINUOUS
 10
-75.9168981272
 20
-39.1202343982
 11
-75.9198604292
 21
-39.124325746
  0
LINE
  5
7CA
100
AcDbEntity
  8
RACCORDO
100
AcDbLine
 62
253
  6
CONTINUOUS
 10
-75.9136647015
 20
-39.1158073224
 11
-75.9168981272
 21
-39.1202343982
  0
LINE
  5
7CB
100
AcDbEntity
  8
ASSI
100
AcDbLine
 62
253
  6
CONTINUOUS
 10
-75.9136647015
 20
-39.1158073224
 11
-75.9168981272
 21
-39.1202343982
  0
LINE
  5
7CC
100
AcDbEntity
  8
RACCORDO
100
AcDbLine
 62
253
  6
CONTINUOUS
 10
-75.9098997564
 20
-39.1107115295
 11
-75.910388719
 21
-39.1113640761
  0
LINE
  5
7CD
100
AcDbEntity
  8
ASSI
100
AcDbLine
 62
253
  6
CONTINUOUS
 10
-75.9098997564
 20
-39.1107115295
 11
-75.910388719
 21
-39.1113640761
  0
LWPOLYLINE
  5
7CE
100
AcDbEntity
  8
RACCORDO
100
AcDbPolyline
 62
253
  6
CONTINUOUS
 90
6
 70
0
 10
-79.4739383216
 20
22.0279118308
 10
-79.5144828569
 20
22.0286903148
 10
-79.5444195569
 20
22.0289506461
 10
-79.5634115459
 20
22.0289071778
 10
-79.5712451174
 20
22.0289863202
 10
-79.571462911
 20
22.029048084
  0
LWPOLYLINE
  5
7CF
100
AcDbEntity
  8
ASSI
100
AcDbPolyline
 62
253
  6
CONTINUOUS
 90
6
 70
0
 10
-79.4739383216
 20
22.0279118308
 10
-79.5144828569
 20
22.0286903148
 10
-79.5444195569
 20
22.0289506461
 10
-79.5634115459
 20
22.0289071778
 10
-79.5712451174
 20
22.0289863202
 10
-79.571462911
 20
22.029048084
  0
LINE
  5
7D0
100
AcDbEntity
  8
RACCORDO
100
AcDbLine
 62
253
  6
CONTINUOUS
 10
-79.1486588756
 20
22.019948012
 11
-79.4739383216
 21
22.0279118308
  0
LINE
  5
7D1
100
AcDbEntity
  8
ASSI
100
AcDbLine
 62
253
  6
CONTINUOUS
 10
-79.1486588756
 20
22.019948012
 11
-79.4739383216
 21
22.0279118308
  0
LWPOLYLINE
  5
7D2
100
AcDbEntity
  8
RACCORDO
100
AcDbPolyline
 62
253
  6
CONTINUOUS
 90
7
 70
0
 10
-79.1486588756
 20
22.019948012
 10
-78.9765823385
 20
22.0148954559
 10
-78.9072841068
 20
22.012414927
 10
-78.8495383911
 20
22.0099784351
 10
-78.8035809033
 20
22.0075959189
 10
-78.7695992373
 20
22.0052770965
 10
-78.7477321027
 20
22.0030314261
  0
LWPOLYLINE
  5
7D3
100
AcDbEntity
  8
ASSI
100
AcDbPolyline
 62
253
  6
CONTINUOUS
 90
7
 70
0
 10
-79.1486588756
 20
22.019948012
 10
-78.9765823385
 20
22.0148954559
 10
-78.9072841068
 20
22.012414927
 10
-78.8495383911
 20
22.0099784351
 10
-78.8035809033
 20
22.0075959189
 10
-78.7695992373
 20
22.0052770965
 10
-78.7477321027
 20
22.0030314261
  0
LINE
  5
7D4
100
AcDbEntity
  8
RACCORDO
100
AcDbLine
 62
253
  6
CONTINUOUS
 10
-75.9100795142
 20
38.7649449927
 11
-75.9095931333
 21
38.7642988258
  0
LINE
  5
7D5
100
AcDbEntity
  8
ASSI
100
AcDbLine
 62
253
  6
CONTINUOUS
 10
-75.9100795142
 20
38.7649449927
 11
-75.9095931333
 21
38.7642988258
  0
LINE
  5
7D6
100
AcDbEntity
  8
RACCORDO
100
AcDbLine
 62
253
  6
CONTINUOUS
 10
-75.9116380409
 20
38.7670403497
 11
-75.9111019177
 21
38.7663157711
  0
LINE
  5
7D7
100
AcDbEntity
  8
ASSI
100
AcDbLine
 62
253
  6
CONTINUOUS
 10
-75.9116380409
 20
38.7670403497
 11
-75.9111019177
 21
38.7663157711
  0
LWPOLYLINE
  5
7D8
100
AcDbEntity
  8
RACCORDO
100
AcDbPolyline
 62
253
  6
CONTINUOUS
 90
17
 70
0
 10
-75.8932198637
 20
38.7340881985
 10
-75.891887266
 20
38.7322754849
 10
-75.8905807224
 20
38.7294343301
 10
-75.8893037358
 20
38.7254840057
 10
-75.8880620868
 20
38.7203533282
 10
-75.886856393
 20
38.7139513275
 10
-75.8856834701
 20
38.7061447709
 10
-75.8845476508
 20
38.6968252964
 10
-75.8834532718
 20
38.6858838529
 10
-75.8823993842
 20
38.6731412948
 10
-75.8813912413
 20
38.6584628353
 10
-75.8804340132
 20
38.6417128067
 10
-75.8795287685
 20
38.6226630074
 10
-75.8786815035
 20
38.601151196
 10
-75.8778985208
 20
38.5770169354
 10
-75.8771838151
 20
38.5499863125
 10
-75.8765452625
 20
38.5198758475
  0
LWPOLYLINE
  5
7D9
100
AcDbEntity
  8
ASSI
100
AcDbPolyline
 62
253
  6
CONTINUOUS
 90
17
 70
0
 10
-75.8932198637
 20
38.7340881985
 10
-75.891887266
 20
38.7322754849
 10
-75.8905807224
 20
38.7294343301
 10
-75.8893037358
 20
38.7254840057
 10
-75.8880620868
 20
38.7203533282
 10
-75.886856393
 20
38.7139513275
 10
-75.8856834701
 20
38.7061447709
 10
-75.8845476508
 20
38.6968252964
 10
-75.8834532718
 20
38.6858838529
 10
-75.8823993842
 20
38.6731412948
 10
-75.8813912413
 20
38.6584628353
 10
-75.8804340132
 20
38.6417128067
 10
-75.8795287685
 20
38.6226630074
 10
-75.8786815035
 20
38.601151196
 10
-75.8778985208
 20
38.5770169354
 10
-75.8771838151
 20
38.5499863125
 10
-75.8765452625
 20
38.5198758475
  0
LINE
  5
7DA
100
AcDbEntity
  8
RACCORDO
100
AcDbLine
 62
253
  6
CONTINUOUS
 10
-75.9091232281
 20
38.7636683272
 11
-75.9086701416
 21
38.7630498051
  0
LINE
  5
7DB
100
AcDbEntity
  8
ASSI
100
AcDbLine
 62
253
  6
CONTINUOUS
 10
-75.9091232281
 20
38.7636683272
 11
-75.9086701416
 21
38.7630498051
  0
LWPOLYLINE
  5
7DC
100
AcDbEntity
  8
RACCORDO
100
AcDbPolyline
 62
253
  6
CONTINUOUS
 90
3
 70
0
 10
-75.9188261804
 20
38.7768847631
 10
-75.9180643992
 20
38.7758322961
 10
-75.9127642369
 20
38.7685703895
  0
LWPOLYLINE
  5
7DD
100
AcDbEntity
  8
ASSI
100
AcDbPolyline
 62
253
  6
CONTINUOUS
 90
3
 70
0
 10
-75.9188261804
 20
38.7768847631
 10
-75.9180643992
 20
38.7758322961
 10
-75.9127642369
 20
38.7685703895
  0
LINE
  5
7DE
100
AcDbEntity
  8
RACCORDO
100
AcDbLine
 62
253
  6
CONTINUOUS
 10
-75.9078067048
 20
38.7618615816
 11
-75.9073939965
 21
38.7612878667
  0
LINE
  5
7DF
100
AcDbEntity
  8
ASSI
100
AcDbLine
 62
253
  6
CONTINUOUS
 10
-75.9078067048
 20
38.7618615816
 11
-75.9073939965
 21
38.7612878667
  0
LINE
  5
7E0
100
AcDbEntity
  8
RACCORDO
100
AcDbLine
 62
253
  6
CONTINUOUS
 10
-75.9212626562
 20
38.7802743145
 11
-75.9204238111
 21
38.7791027553
  0
LINE
  5
7E1
100
AcDbEntity
  8
ASSI
100
AcDbLine
 62
253
  6
CONTINUOUS
 10
-75.9212626562
 20
38.7802743145
 11
-75.9204238111
 21
38.7791027553
  0
LWPOLYLINE
  5
7E2
100
AcDbEntity
  8
RACCORDO
100
AcDbPolyline
 62
253
  6
CONTINUOUS
 90
23
 70
0
 10
-75.893219861
 20
-39.080095341
 10
-75.8947271025
 20
-39.0816619958
 10
-75.8960974587
 20
-39.0832153028
 10
-75.897336878
 20
-39.0847549651
 10
-75.8984503295
 20
-39.0862824054
 10
-75.8994450318
 20
-39.0877955909
 10
-75.9003301207
 20
-39.0892890564
 10
-75.9011096863
 20
-39.0907384455
 10
-75.9017938582
 20
-39.0921674237
 10
-75.9023964239
 20
-39.0936427319
 10
-75.9029099973
 20
-39.0952136368
 10
-75.9033385988
 20
-39.096830925
 10
-75.9037051165
 20
-39.0984140548
 10
-75.9039994832
 20
-39.1000191852
 10
-75.9042383555
 20
-39.1015898413
 10
-75.9044803902
 20
-39.1028770863
 10
-75.9047655238
 20
-39.1037246485
 10
-75.905081666
 20
-39.1042878152
 10
-75.9054097453
 20
-39.1047850558
 10
-75.9057545629
 20
-39.105255921
 10
-75.9061240611
 20
-39.1056602267
 10
-75.9065041128
 20
-39.1060967049
 10
-75.9068879124
 20
-39.1066028423
  0
LWPOLYLINE
  5
7E3
100
AcDbEntity
  8
ASSI
100
AcDbPolyline
 62
253
  6
CONTINUOUS
 90
23
 70
0
 10
-75.893219861
 20
-39.080095341
 10
-75.8947271025
 20
-39.0816619958
 10
-75.8960974587
 20
-39.0832153028
 10
-75.897336878
 20
-39.0847549651
 10
-75.8984503295
 20
-39.0862824054
 10
-75.8994450318
 20
-39.0877955909
 10
-75.9003301207
 20
-39.0892890564
 10
-75.9011096863
 20
-39.0907384455
 10
-75.9017938582
 20
-39.0921674237
 10
-75.9023964239
 20
-39.0936427319
 10
-75.9029099973
 20
-39.0952136368
 10
-75.9033385988
 20
-39.096830925
 10
-75.9037051165
 20
-39.0984140548
 10
-75.9039994832
 20
-39.1000191852
 10
-75.9042383555
 20
-39.1015898413
 10
-75.9044803902
 20
-39.1028770863
 10
-75.9047655238
 20
-39.1037246485
 10
-75.905081666
 20
-39.1042878152
 10
-75.9054097453
 20
-39.1047850558
 10
-75.9057545629
 20
-39.105255921
 10
-75.9061240611
 20
-39.1056602267
 10
-75.9065041128
 20
-39.1060967049
 10
-75.9068879124
 20
-39.1066028423
  0
LWPOLYLINE
  5
7E4
100
AcDbEntity
  8
RACCORDO
100
AcDbPolyline
 62
253
  6
CONTINUOUS
 90
22
 70
0
 10
-75.9066020965
 20
38.7602107561
 10
-75.9062137701
 20
38.7597629127
 10
-75.9058359355
 20
38.759350664
 10
-75.9054820696
 20
38.758880627
 10
-75.9051438276
 20
38.7583979107
 10
-75.9048179561
 20
38.7578579866
 10
-75.9045257602
 20
38.7570328853
 10
-75.9042792887
 20
38.7557698624
 10
-75.9040375476
 20
38.7542227143
 10
-75.9037426352
 20
38.7526233259
 10
-75.9033781614
 20
38.7510147706
 10
-75.9029520261
 20
38.749354344
 10
-75.9024386292
 20
38.7477458183
 10
-75.9018332469
 20
38.7462472433
 10
-75.901144829
 20
38.7448004901
 10
-75.9003602688
 20
38.7433355226
 10
-75.8994695858
 20
38.7418275443
 10
-75.8984688319
 20
38.7403020302
 10
-75.8973495727
 20
38.7387645201
 10
-75.8961050352
 20
38.7372170619
 10
-75.8947303528
 20
38.7356581932
 10
-75.8932198622
 20
38.7340881983
  0
LWPOLYLINE
  5
7E5
100
AcDbEntity
  8
ASSI
100
AcDbPolyline
 62
253
  6
CONTINUOUS
 90
22
 70
0
 10
-75.9066020965
 20
38.7602107561
 10
-75.9062137701
 20
38.7597629127
 10
-75.9058359355
 20
38.759350664
 10
-75.9054820696
 20
38.758880627
 10
-75.9051438276
 20
38.7583979107
 10
-75.9048179561
 20
38.7578579866
 10
-75.9045257602
 20
38.7570328853
 10
-75.9042792887
 20
38.7557698624
 10
-75.9040375476
 20
38.7542227143
 10
-75.9037426352
 20
38.7526233259
 10
-75.9033781614
 20
38.7510147706
 10
-75.9029520261
 20
38.749354344
 10
-75.9024386292
 20
38.7477458183
 10
-75.9018332469
 20
38.7462472433
 10
-75.901144829
 20
38.7448004901
 10
-75.9003602688
 20
38.7433355226
 10
-75.8994695858
 20
38.7418275443
 10
-75.8984688319
 20
38.7403020302
 10
-75.8973495727
 20
38.7387645201
 10
-75.8961050352
 20
38.7372170619
 10
-75.8947303528
 20
38.7356581932
 10
-75.8932198622
 20
38.7340881983
  0
LWPOLYLINE
  5
7E6
100
AcDbEntity
  8
RACCORDO
100
AcDbPolyline
 62
253
  6
CONTINUOUS
 90
3
 70
0
 10
-74.9555493517
 20
39.5964244349
 10
-75.0698591208
 20
39.58380264
 10
-75.1819618379
 20
39.5581221821
  0
LWPOLYLINE
  5
7E7
100
AcDbEntity
  8
ASSI
100
AcDbPolyline
 62
253
  6
CONTINUOUS
 90
3
 70
0
 10
-74.9555493517
 20
39.5964244349
 10
-75.0698591208
 20
39.58380264
 10
-75.1819618379
 20
39.5581221821
  0
LWPOLYLINE
  5
7E8
100
AcDbEntity
  8
RACCORDO
100
AcDbPolyline
 62
7
  6
CONTINUOUS
 90
4
 70
0
 10
-75.1166814345
 20
39.5879799777
 10
-75.2176307536
 20
39.5775324236
 10
-75.3172273812
 20
39.5568476005
 10
-75.4142454006
 20
39.5261375345
  0
LWPOLYLINE
  5
7E9
100
AcDbEntity
  8
ASSI
100
AcDbPolyline
 62
7
  6
CONTINUOUS
 90
4
 70
0
 10
-75.1166814345
 20
39.5879799777
 10
-75.2176307536
 20
39.5775324235
 10
-75.3172273812
 20
39.5568476005
 10
-75.4142454006
 20
39.5261375345
  0
LINE
  5
7EA
100
AcDbEntity
  8
RACCORDO
100
AcDbLine
 62
7
  6
CONTINUOUS
 10
-75.1166628514
 20
39.5879809516
 11
-70.5559758643
 21
39.8269964286
  0
LINE
  5
7EB
100
AcDbEntity
  8
SUPERFICI
100
AcDbLine
 62
7
  6
CONTINUOUS
 10
-74.9555493578
 20
39.596424552
 11
-70.5559758644
 21
39.8269964286
  0
LINE
  5
7EC
100
AcDbEntity
  8
ASSI
100
AcDbLine
 62
7
  6
CONTINUOUS
 10
-75.1166628514
 20
39.5879809516
 11
-70.5559758643
 21
39.8269964286
  0
LINE
  5
7ED
100
AcDbEntity
  8
RACCORDO
100
AcDbLine
 62
253
  6
CONTINUOUS
 10
-70.5559758643
 20
36.8269964286
 11
-74.9707404667
 21
36.8269964286
  0
LINE
  5
7EE
100
AcDbEntity
  8
ASSI
100
AcDbLine
 62
253
  6
CONTINUOUS
 10
-70.5559758643
 20
36.8269964286
 11
-74.9707404667
 21
36.8269964286
  0
LINE
  5
7EF
100
AcDbEntity
  8
RACCORDO
100
AcDbLine
 62
253
  6
CONTINUOUS
 10
-74.9707404667
 20
36.8269964286
 11
-75.8018652043
 21
36.8721444107
  0
LINE
  5
7F0
100
AcDbEntity
  8
ASSI
100
AcDbLine
 62
253
  6
CONTINUOUS
 10
-74.9707404667
 20
36.8269964286
 11
-75.8018652043
 21
36.8721444107
  0
LWPOLYLINE
  5
7F1
100
AcDbEntity
  8
RACCORDO
100
AcDbPolyline
 62
253
  6
CONTINUOUS
 90
3
 70
0
 10
-75.8018652043
 20
36.8721444107
 10
-75.8846458302
 20
36.8770834983
 10
-75.9071816282
 20
36.8785778278
  0
LWPOLYLINE
  5
7F2
100
AcDbEntity
  8
ASSI
100
AcDbPolyline
 62
253
  6
CONTINUOUS
 90
3
 70
0
 10
-75.8018652043
 20
36.8721444107
 10
-75.8846458302
 20
36.8770834983
 10
-75.9071816282
 20
36.8785778278
  0
LWPOLYLINE
  5
7F3
100
AcDbEntity
  8
RACCORDO
100
AcDbPolyline
 62
253
  6
CONTINUOUS
 90
15
 70
0
 10
-74.9555493578
 20
39.596424552
 10
-74.954072014
 20
39.5957653011
 10
-74.9526301089
 20
39.5935467626
 10
-74.9512236425
 20
39.5896408939
 10
-74.9498509079
 20
39.5839307663
 10
-74.948513612
 20
39.5762775573
 10
-74.9472168754
 20
39.5664853227
 10
-74.9459591722
 20
39.5543848567
 10
-74.9447420283
 20
39.539804906
 10
-74.9435751425
 20
39.5224767225
 10
-74.942457031
 20
39.5021898961
 10
-74.9413891777
 20
39.4787318722
 10
-74.9403857321
 20
39.4517568497
 10
-74.9394445167
 20
39.4210129633
 10
-74.938567709
 20
39.3862474157
  0
LWPOLYLINE
  5
7F4
100
AcDbEntity
  8
ASSI
100
AcDbPolyline
 62
253
  6
CONTINUOUS
 90
15
 70
0
 10
-74.9555493578
 20
39.596424552
 10
-74.954072014
 20
39.5957653011
 10
-74.9526301089
 20
39.5935467626
 10
-74.9512236425
 20
39.5896408939
 10
-74.9498509079
 20
39.5839307663
 10
-74.948513612
 20
39.5762775573
 10
-74.9472168754
 20
39.5664853227
 10
-74.9459591722
 20
39.5543848567
 10
-74.9447420283
 20
39.539804906
 10
-74.9435751425
 20
39.5224767225
 10
-74.942457031
 20
39.5021898961
 10
-74.9413891777
 20
39.4787318722
 10
-74.9403857321
 20
39.4517568497
 10
-74.9394445167
 20
39.4210129633
 10
-74.938567709
 20
39.3862474157
  0
ARC
  5
7F5
100
AcDbEntity
  8
0
100
AcDbCircle
 62
7
  6
CONTINUOUS
 10
36.9548438776
 20
36.8269964286
 40
3.0
100
AcDbArc
 50
0.0
 51
90.0000000013
  0
ARC
  5
7F6
100
AcDbEntity
  8
0
100
AcDbCircle
 62
7
  6
CONTINUOUS
 10
-37.0451561225
 20
36.8269964286
 40
3.0
100
AcDbArc
 50
89.9999999987
 51
180.0000000008
  0
ARC
  5
7F7
100
AcDbEntity
  8
0
100
AcDbCircle
 62
7
  6
CONTINUOUS
 10
-37.0451561225
 20
-37.1730035714
 40
3.0
100
AcDbArc
 50
179.9999999992
 51
270.0000000013
  0
ARC
  5
7F8
100
AcDbEntity
  8
0
100
AcDbCircle
 62
7
  6
CONTINUOUS
 10
36.9548438776
 20
-37.1730035714
 40
3.0
100
AcDbArc
 50
269.9999999987
 51
360.0
  0
ARC
  5
7F9
100
AcDbEntity
  8
ASSI
100
AcDbCircle
 62
7
  6
CONTINUOUS
 10
36.9548438776
 20
36.8269964286
 40
3.0
100
AcDbArc
 50
0.0
 51
90.0000000013
  0
ARC
  5
7FA
100
AcDbEntity
  8
ASSI
100
AcDbCircle
 62
7
  6
CONTINUOUS
 10
-37.0451561225
 20
36.8269964286
 40
3.0
100
AcDbArc
 50
89.9999999987
 51
180.0000000008
  0
ARC
  5
7FB
100
AcDbEntity
  8
ASSI
100
AcDbCircle
 62
7
  6
CONTINUOUS
 10
-37.0451561225
 20
-37.1730035714
 40
3.0
100
AcDbArc
 50
179.9999999992
 51
270.0000000013
  0
ARC
  5
7FC
100
AcDbEntity
  8
ASSI
100
AcDbCircle
 62
7
  6
CONTINUOUS
 10
36.9548438776
 20
-37.1730035714
 40
3.0
100
AcDbArc
 50
269.9999999987
 51
360.0
  0
ARC
  5
7FD
100
AcDbEntity
  8
0
100
AcDbCircle
 62
7
  6
CONTINUOUS
 10
23.9921738775
 20
-26.9622685714
 40
0.8893898871
100
AcDbArc
 50
292.842868527
 51
90.0
  0
ARC
  5
7FE
100
AcDbEntity
  8
ASSI
100
AcDbCircle
 62
7
  6
CONTINUOUS
 10
23.9921738775
 20
-26.9622685714
 40
0.8893898871
100
AcDbArc
 50
292.842868527
 51
90.0
  0
ARC
  5
7FF
100
AcDbEntity
  8
0
100
AcDbCircle
 62
7
  6
CONTINUOUS
 10
23.9116678775
 20
-26.9622685714
 40
0.352865
100
AcDbArc
 50
270.0
 51
90.0
  0
ARC
  5
800
100
AcDbEntity
  8
ASSI
100
AcDbCircle
 62
7
  6
CONTINUOUS
 10
23.9116678775
 20
-26.9622685714
 40
0.352865
100
AcDbArc
 50
270.0
 51
90.0
  0
ARC
  5
801
100
AcDbEntity
  8
0
100
AcDbCircle
 62
7
  6
CONTINUOUS
 10
-22.2451561224
 20
-22.3730035714
 40
0.3
100
AcDbArc
 50
180.0
 51
270.0
  0
ARC
  5
802
100
AcDbEntity
  8
0
100
AcDbCircle
 62
7
  6
CONTINUOUS
 10
22.1548438776
 20
22.0269964286
 40
0.3
100
AcDbArc
 50
0.0201197999
 51
89.9999998251
  0
ARC
  5
803
100
AcDbEntity
  8
0
100
AcDbCircle
 62
7
  6
CONTINUOUS
 10
-22.2451561224
 20
22.0269964286
 40
0.3
100
AcDbArc
 50
90.0
 51
180.0
  0
ARC
  5
804
100
AcDbEntity
  8
0
100
AcDbCircle
 62
7
  6
CONTINUOUS
 10
22.1548438776
 20
-22.3730035714
 40
0.3
100
AcDbArc
 50
270.0171785413
 51
359.9999999708
  0
ARC
  5
805
100
AcDbEntity
  8
ASSI
100
AcDbCircle
 62
7
  6
CONTINUOUS
 10
-22.2451561224
 20
-22.3730035714
 40
0.3
100
AcDbArc
 50
180.0
 51
270.0
  0
ARC
  5
806
100
AcDbEntity
  8
ASSI
100
AcDbCircle
 62
7
  6
CONTINUOUS
 10
-22.2451561224
 20
22.0269964286
 40
0.3
100
AcDbArc
 50
90.0
 51
180.0
  0
ARC
  5
807
100
AcDbEntity
  8
ASSI
100
AcDbCircle
 62
7
  6
CONTINUOUS
 10
22.1548438776
 20
22.0269964286
 40
0.3
100
AcDbArc
 50
0.0201197999
 51
89.9999998251
  0
ARC
  5
808
100
AcDbEntity
  8
ASSI
100
AcDbCircle
 62
7
  6
CONTINUOUS
 10
22.1548438776
 20
-22.3730035714
 40
0.3
100
AcDbArc
 50
270.0171785413
 51
359.9999999708
  0
ARC
  5
809
100
AcDbEntity
  8
RACCORDO
100
AcDbCircle
 62
7
  6
CONTINUOUS
 10
-81.7547518465
 20
-26.0951228109
 40
3.0000000003
100
AcDbArc
 50
3.8112882172
 51
30.5095053836
  0
ARC
  5
80A
100
AcDbEntity
  8
ASSI
100
AcDbCircle
 62
7
  6
CONTINUOUS
 10
-81.7547518465
 20
-26.0951228109
 40
3.0000000003
100
AcDbArc
 50
3.8112882172
 51
30.5095030967
  0
ARC
  5
80B
100
AcDbEntity
  8
RACCORDO
100
AcDbCircle
 62
7
  6
CONTINUOUS
 10
-81.7547518465
 20
25.749115668
 40
3.0000000003
100
AcDbArc
 50
329.4904946165
 51
356.1887117945
  0
ARC
  5
80C
100
AcDbEntity
  8
ASSI
100
AcDbCircle
 62
7
  6
CONTINUOUS
 10
-81.7547518465
 20
25.749115668
 40
3.0000000003
100
AcDbArc
 50
329.4904969034
 51
356.1887117945
  0
ARC
  5
80D
100
AcDbEntity
  8
0
100
AcDbCircle
 62
7
  6
CONTINUOUS
 10
-78.571468175
 20
-23.6730035714
 40
1.0
100
AcDbArc
 50
180.0
 51
217.5003719513
  0
ARC
  5
80E
100
AcDbEntity
  8
ASSI
100
AcDbCircle
 62
7
  6
CONTINUOUS
 10
-78.571468175
 20
-23.6730035714
 40
1.0
100
AcDbArc
 50
180.0
 51
217.5003719513
  0
ARC
  5
80F
100
AcDbEntity
  8
0
100
AcDbCircle
 62
7
  6
CONTINUOUS
 10
-78.571462911
 20
23.3269964286
 40
1.0
100
AcDbArc
 50
142.4609252276
 51
180.8624973731
  0
ARC
  5
810
100
AcDbEntity
  8
ASSI
100
AcDbCircle
 62
7
  6
CONTINUOUS
 10
-78.571462911
 20
23.3269964286
 40
1.0
100
AcDbArc
 50
142.4609252276
 51
180.8627320088
  0
ENDSEC
  0
SECTION
  2
OBJECTS
  0
DICTIONARY
  5
C
100
AcDbDictionary
280
0
281
1
  3
ACAD_GROUP
350
D
  3
ACAD_MLINESTYLE
350
17
  3
ACAD_LAYOUT
350
1A
  3
ACAD_PLOTSETTINGS
350
19
  3
ACAD_PLOTSTYLENAME
350
E
  0
DICTIONARY
  5
D
102
{ACAD_REACTORS
330
C
102
}
100
AcDbDictionary
280
0
281
1
  0
ACDBDICTIONARYWDFLT
  5
E
102
{ACAD_REACTORS
330
C
102
}
100
AcDbDictionary
281
1
  3
Normal
350
F
100
AcDbDictionaryWithDefault
340
F
  0
DICTIONARY
  5
17
102
{ACAD_REACTORS
330
C
102
}
100
AcDbDictionary
280
0
281
1
  3
Standard
350
18
  0
DICTIONARY
  5
19
102
{ACAD_REACTORS
330
C
102
}
100
AcDbDictionary
281
1
  0
DICTIONARY
  5
1A
102
{ACAD_REACTORS
330
C
102
}
100
AcDbDictionary
281
1
  3
Model
350
811
  3
Layout1
350
812
  0
ACDBPLACEHOLDER
  5
F
102
{ACAD_REACTORS
330
E
102
}
  0
MLINESTYLE
  5
18
102
{ACAD_REACTORS
330
17
102
}
100
AcDbMlineStyle
  2
STANDARD
 70
0
  3

 62
256
 51
90.0
 52
90.0
 71
2
 49
0.5
 62
256
  6
BYLAYER
 49
-0.5
 62
256
  6
BYLAYER
  0
LAYOUT
  5
811
102
{ACAD_REACTORS
330
1A
102
}
100
AcDbPlotSettings
  1

  2
none_device
  4
ISO_A4_(297.00_x_210.00_MM)
  6

 40
0.0
 41
0.0
 42
0.0
 43
0.0
 44
297.0
 45
210.0
 46
0.0
 47
0.0
 48
0.0
 49
0.0
140
0.0
141
0.0
142
1.0
143
1.0
 70
1024
 72
1
 73
0
 74
0
  7

 75
0
147
1.0
148
0.0
149
0.0
100
AcDbLayout
  1
Model
 70
0
 71
0
 10
0.0
 20
0.0
 11
297.0
 21
210.0
 12
0.0
 22
0.0
 32
0.0
 14
0.0
 24
0.0
 34
0.0
 15
0.0
 25
0.0
 35
0.0
146
0.0
 13
0.0
 23
0.0
 33
0.0
 16
1.0
 26
0.0
 36
0.0
 17
0.0
 27
1.0
 37
0.0
 76
0
330
217
345
0
346
0
  0
LAYOUT
  5
812
102
{ACAD_REACTORS
330
1A
102
}
100
AcDbPlotSettings
  1

  2
none_device
  4
ISO_A4_(297.00_x_210.00_MM)
  6

 40
0.0
 41
0.0
 42
0.0
 43
0.0
 44
297.0
 45
210.0
 46
0.0
 47
0.0
 48
0.0
 49
0.0
140
0.0
141
0.0
142
1.0
143
1.0
 70
0
 72
1
 73
0
 74
0
  7

 75
0
147
1.0
148
0.0
149
0.0
100
AcDbLayout
  1
Layout1
 70
0
 71
1
 10
0.0
 20
0.0
 11
297.0
 21
210.0
 12
0.0
 22
0.0
 32
0.0
 14
0.0
 24
0.0
 34
0.0
 15
0.0
 25
0.0
 35
0.0
146
0.0
 13
0.0
 23
0.0
 33
0.0
 16
1.0
 26
0.0
 36
0.0
 17
0.0
 27
1.0
 37
0.0
 76
0
330
218
345
0
346
0
  0
ENDSEC
  0
EOF
