  0
SECTION
  2
HEADER
  9
$ACADVER
  1
AC1024
  9
$DWGCODEPAGE
  3
ANSI_1252
  9
$EXTMAX
 10
297.0
 20
210.0
 30
0.0
  9
$EXTMIN
 10
0.0
 20
0.0
 30
0.0
  9
$LIMMIN
 10
0.0
 20
0.0
  9
$LIMMAX
 10
297.0
 20
210.0
  9
$VIEWCTR
 10
148.5
 20
105.0
  9
$VIEWSIZE
 40
210.0
  9
$CLAYER
  8
0
  9
$LTSCALE
 40
16.335
  9
$CELTYPE
  6
BYLAYER
  9
$DIMSCALE
 40
1.0
  9
$DIMASZ
 40
3.0
  9
$DIMEXO
 40
0.5
  9
$DIMDLI
 40
11.286
  9
$DIMEXE
 40
1.5
  9
$DIMCEN
 40
2.673
  9
$DIMLFAC
 40
1.0
  9
$DIMBLK
  1
_FILLED
  9
$DIMALT
 70
0
  9
$DIMALTF
 40
0.0393700787
  9
$DIMTXT
 40
3.0
  9
$DIMTOL
 70
1
  9
$DIMLIM
 70
0
  9
$DIMTFAC
 40
1.0
  9
$DIMTP
 40
0.01
  9
$DIMTM
 40
0.01
  9
$DIMGAP
 40
0.625
  9
$DIMDSEP
 70
44
  9
$AUNITS
 70
0
  9
$PDMODE
 70
3
  9
$PDSIZE
 40
3.0
  9
$HANDSEED
  5
4AF
  9
$TILEMODE
 70
1
  9
$MEASUREMENT
 70
1
  9
$INSUNITS
 70
4
  0
ENDSEC
  0
SECTION
  2
CLASSES
  0
CLASS
  1
ACDBDICTIONARYWDFLT
  2
AcDbDictionaryWithDefault
  3
AutoCAD 2000
 90
0
 91
1
280
0
281
0
  0
CLASS
  1
ACDBPLACEHOLDER
  2
AcDbPlaceHolder
  3
AutoCAD 2000
 90
0
 91
1
280
0
281
0
  0
CLASS
  1
LAYOUT
  2
AcDbLayout
  3
AutoCAD 2000
 90
0
 91
0
280
0
281
0
  0
ENDSEC
  0
SECTION
  2
TABLES
  0
TABLE
  2
VPORT
  5
8
100
AcDbSymbolTable
 70
2
  0
VPORT
  5
1F4
100
AcDbSymbolTableRecord
100
AcDbViewportTableRecord
  2
*ACTIVE
 70
0
 10
0.0
 20
0.0
 11
1.0
 21
1.0
 12
148.5
 22
105.0
 13
0.0
 23
0.0
 14
1.0
 24
1.0
 15
0.0
 25
0.0
 16
0.0
 26
0.0
 36
1.0
 17
0.0
 27
0.0
 37
0.0
 40
210.0
 41
1.4142857143
 42
50.0
 43
0.0
 44
0.0
 50
0.0
 51
0.0
 71
0
 72
100
 73
1
 74
1
 75
0
 76
0
 77
0
 78
0
  0
ENDTAB
  0
TABLE
  2
LTYPE
  5
5
100
AcDbSymbolTable
 70
6
  0
LTYPE
  5
14
100
AcDbSymbolTableRecord
100
AcDbLinetypeTableRecord
  2
BYBLOCK
 70
0
  3

 72
65
 73
0
 40
0.0
  0
LTYPE
  5
15
100
AcDbSymbolTableRecord
100
AcDbLinetypeTableRecord
  2
BYLAYER
 70
0
  3

 72
65
 73
0
 40
0.0
  0
LTYPE
  5
16
100
AcDbSymbolTableRecord
100
AcDbLinetypeTableRecord
  2
CONTINUOUS
 70
64
  3
Solid line
 72
65
 73
0
 40
0.0
  0
LTYPE
  5
1F5
100
AcDbSymbolTableRecord
100
AcDbLinetypeTableRecord
  2
CENTER
 70
64
  3
____ _ ____ _ ____ _ ____ _ ____ _ ____ _ ____
 72
65
 73
4
 40
0.6
 49
0.375
 74
0
 49
-0.075
 74
0
 49
0.075
 74
0
 49
-0.075
 74
0
  0
LTYPE
  5
1F6
100
AcDbSymbolTableRecord
100
AcDbLinetypeTableRecord
  2
HIDDEN
 70
64
  3
- - - - - - - - - - - - - - - - - - - -
 72
65
 73
2
 40
0.2
 49
0.1
 74
0
 49
-0.1
 74
0
  0
LTYPE
  5
1F7
100
AcDbSymbolTableRecord
100
AcDbLinetypeTableRecord
  2
PHANTOM
 70
64
  3
_____ _ _ _____ _ _ _____ _ _ _____
 72
65
 73
6
 40
0.8
 49
0.45
 74
0
 49
-0.05
 74
0
 49
0.1
 74
0
 49
-0.05
 74
0
 49
0.1
 74
0
 49
-0.05
 74
0
  0
LTYPE
  5
1F8
100
AcDbSymbolTableRecord
100
AcDbLinetypeTableRecord
  2
DOT
 70
64
  3
. . . . . . . . . . . . . . . . . . . .
 72
65
 73
2
 40
0.2
 49
0.1
 74
0
 49
-0.1
 74
0
  0
LTYPE
  5
1F9
100
AcDbSymbolTableRecord
100
AcDbLinetypeTableRecord
  2
DASHED
 70
64
  3
- - - - - - - - - - - - - - - - - - - -
 72
65
 73
2
 40
0.2
 49
0.1
 74
0
 49
-0.1
 74
0
  0
ENDTAB
  0
TABLE
  2
LAYER
  5
2
100
AcDbSymbolTable
 70
36
  0
LAYER
  5
10
100
AcDbSymbolTableRecord
100
AcDbLayerTableRecord
  2
0
 70
0
 62
7
  6
CONTINUOUS
370
-3
390
F
  0
LAYER
  5
1FA
100
AcDbSymbolTableRecord
100
AcDbLayerTableRecord
  2
DEFAULT_1
 70
0
 62
7
  6
CENTER
370
-3
390
F
  0
LAYER
  5
1FB
100
AcDbSymbolTableRecord
100
AcDbLayerTableRecord
  2
DEFAULT_2
 70
0
 62
7
  6
HIDDEN
370
-3
390
F
  0
LAYER
  5
1FC
100
AcDbSymbolTableRecord
100
AcDbLayerTableRecord
  2
DEFAULT_3
 70
0
 62
7
  6
PHANTOM
370
-3
390
F
  0
LAYER
  5
1FD
100
AcDbSymbolTableRecord
100
AcDbLayerTableRecord
  2
ASSI
 70
0
 62
7
  6
CONTINUOUS
370
-3
390
F
  0
LAYER
  5
1FE
100
AcDbSymbolTableRecord
100
AcDbLayerTableRecord
  2
COORDINATE
 70
0
 62
7
  6
CONTINUOUS
370
-3
390
F
  0
LAYER
  5
1FF
100
AcDbSymbolTableRecord
100
AcDbLayerTableRecord
  2
COORD_ORIGINE
 70
0
 62
7
  6
CONTINUOUS
370
-3
390
F
  0
LAYER
  5
200
100
AcDbSymbolTableRecord
100
AcDbLayerTableRecord
  2
CURVE
 70
0
 62
7
  6
CONTINUOUS
370
-3
390
F
  0
LAYER
  5
201
100
AcDbSymbolTableRecord
100
AcDbLayerTableRecord
  2
DRAFT
 70
0
 62
7
  6
CONTINUOUS
370
-3
390
F
  0
LAYER
  5
202
100
AcDbSymbolTableRecord
100
AcDbLayerTableRecord
  2
IGES_SCRITTE
 70
0
 62
7
  6
CONTINUOUS
370
-3
390
F
  0
LAYER
  5
203
100
AcDbSymbolTableRecord
100
AcDbLayerTableRecord
  2
INTF_1
 70
0
 62
7
  6
CONTINUOUS
370
-3
390
F
  0
LAYER
  5
204
100
AcDbSymbolTableRecord
100
AcDbLayerTableRecord
  2
INTF_7
 70
0
 62
7
  6
CONTINUOUS
370
-3
390
F
  0
LAYER
  5
205
100
AcDbSymbolTableRecord
100
AcDbLayerTableRecord
  2
NOTE
 70
0
 62
7
  6
CONTINUOUS
370
-3
390
F
  0
LAYER
  5
206
100
AcDbSymbolTableRecord
100
AcDbLayerTableRecord
  2
PIANI
 70
0
 62
7
  6
CONTINUOUS
370
-3
390
F
  0
LAYER
  5
207
100
AcDbSymbolTableRecord
100
AcDbLayerTableRecord
  2
PIANI_ORIGINE
 70
0
 62
7
  6
CONTINUOUS
370
-3
390
F
  0
LAYER
  5
208
100
AcDbSymbolTableRecord
100
AcDbLayerTableRecord
  2
PPP
 70
0
 62
7
  6
CONTINUOUS
370
-3
390
F
  0
LAYER
  5
209
100
AcDbSymbolTableRecord
100
AcDbLayerTableRecord
  2
PUNTI
 70
0
 62
7
  6
CONTINUOUS
370
-3
390
F
  0
LAYER
  5
20A
100
AcDbSymbolTableRecord
100
AcDbLayerTableRecord
  2
RACCORDO
 70
0
 62
7
  6
CONTINUOUS
370
-3
390
F
  0
LAYER
  5
20B
100
AcDbSymbolTableRecord
100
AcDbLayerTableRecord
  2
RGB__255__255__255__
 70
0
 62
7
  6
CONTINUOUS
370
-3
390
F
  0
LAYER
  5
20C
100
AcDbSymbolTableRecord
100
AcDbLayerTableRecord
  2
RGB____0____0____0__
 70
0
 62
7
  6
CONTINUOUS
370
-3
390
F
  0
LAYER
  5
20D
100
AcDbSymbolTableRecord
100
AcDbLayerTableRecord
  2
SNAPLINE
 70
0
 62
7
  6
CONTINUOUS
370
-3
390
F
  0
LAYER
  5
20E
100
AcDbSymbolTableRecord
100
AcDbLayerTableRecord
  2
SUPERFICI
 70
0
 62
7
  6
CONTINUOUS
370
-3
390
F
  0
LAYER
  5
20F
100
AcDbSymbolTableRecord
100
AcDbLayerTableRecord
  2
TRASH
 70
0
 62
7
  6
CONTINUOUS
370
-3
390
F
  0
ENDTAB
  0
TABLE
  2
STYLE
  5
3
100
AcDbSymbolTable
 70
1
  0
STYLE
  5
11
100
AcDbSymbolTableRecord
100
AcDbTextStyleTableRecord
  2
STANDARD
 70
0
 40
0.0
 41
0.8
 50
0.0
 71
0
 42
0.2
  3
txt
  4

  0
STYLE
  5
210
100
AcDbSymbolTableRecord
100
AcDbTextStyleTableRecord
  2
TEXTSTYLE_1
 70
0
 40
0.0
 41
0.8
 50
0.0
 71
0
 42
0.2
  3
gdt
  4

  0
ENDTAB
  0
TABLE
  2
VIEW
  5
6
100
AcDbSymbolTable
 70
0
  0
ENDTAB
  0
TABLE
  2
UCS
  5
7
100
AcDbSymbolTable
 70
0
  0
ENDTAB
  0
TABLE
  2
APPID
  5
9
100
AcDbSymbolTable
 70
1
  0
APPID
  5
211
100
AcDbSymbolTableRecord
100
AcDbRegAppTableRecord
  2
ACAD
 70
0
  0
ENDTAB
  0
TABLE
  2
BLOCK_RECORD
  5
1
100
AcDbSymbolTable
 70
0
  0
BLOCK_RECORD
  5
212
100
AcDbSymbolTableRecord
100
AcDbBlockTableRecord
  2
*Model_Space
  0
BLOCK_RECORD
  5
213
100
AcDbSymbolTableRecord
100
AcDbBlockTableRecord
  2
*Paper_Space
  0
BLOCK_RECORD
  5
214
100
AcDbSymbolTableRecord
100
AcDbBlockTableRecord
  2
_FILLED
  0
BLOCK_RECORD
  5
215
100
AcDbSymbolTableRecord
100
AcDbBlockTableRecord
  2
*D0
  0
BLOCK_RECORD
  5
216
100
AcDbSymbolTableRecord
100
AcDbBlockTableRecord
  2
*D1
  0
BLOCK_RECORD
  5
217
100
AcDbSymbolTableRecord
100
AcDbBlockTableRecord
  2
*D2
  0
ENDTAB
  0
TABLE
  2
DIMSTYLE
  5
A
100
AcDbSymbolTable
 70
1
100
AcDbDimStyleTable
 71
0
  0
DIMSTYLE
105
218
100
AcDbSymbolTableRecord
100
AcDbDimStyleTableRecord
  2
STANDARD
 70
0
  3

  4

 40
1.0
 41
3.0
 42
0.5
 43
0.38
 44
1.5
 45
0.0
 46
0.0
 47
0.01
 48
0.01
140
3.0
141
0.09
142
0.0
143
25.4
144
1.0
145
0.0
146
1.0
147
0.625
 71
1
 72
0
 73
0
 74
0
 75
0
 76
0
 77
1
 78
8
 79
2
170
0
171
1
172
0
173
0
174
0
175
0
176
0
177
0
178
0
270
2
179
2
271
2
272
2
273
2
274
2
275
0
280
0
281
0
282
0
283
1
284
8
285
0
286
0
287
3
288
0
340
11
278
44
341
214
342
214
343
214
344
214
  0
DIMSTYLE
105
219
100
AcDbSymbolTableRecord
100
AcDbDimStyleTableRecord
  2
DIMSTYLE_1
 70
0
  3

  4

 40
1.0
 41
3.0
 42
0.5
 43
0.38
 44
1.5
 45
0.0
 46
0.0
 47
0.0
 48
0.0
140
3.0
141
0.09
142
0.0
143
25.4
144
1.0
145
0.0
146
1.0
147
0.75
 71
0
 72
0
 73
0
 74
0
 75
0
 76
0
 77
1
 78
8
 79
2
170
0
171
1
172
0
173
0
174
0
175
0
176
0
177
0
178
0
270
2
179
2
271
2
272
2
273
2
274
2
275
0
280
0
281
0
282
0
283
1
284
8
285
0
286
0
287
3
288
0
340
11
278
44
341
214
342
214
343
214
344
214
  0
DIMSTYLE
105
21A
100
AcDbSymbolTableRecord
100
AcDbDimStyleTableRecord
  2
DIMSTYLE_2
 70
0
  3

  4

 40
1.0
 41
3.0
 42
0.5
 43
0.38
 44
1.5
 45
0.0
 46
0.0
 47
0.0
 48
0.0
140
3.0
141
0.09
142
0.0
143
25.4
144
1.0
145
0.0
146
1.0
147
0.75
 71
0
 72
0
 73
0
 74
0
 75
0
 76
0
 77
1
 78
8
 79
2
170
0
171
1
172
0
173
0
174
0
175
0
176
0
177
0
178
0
270
2
179
2
271
0
272
0
273
2
274
2
275
0
280
0
281
0
282
0
283
1
284
8
285
0
286
0
287
3
288
0
340
11
278
44
341
214
342
214
343
214
344
214
  0
ENDTAB
  0
ENDSEC
  0
SECTION
  2
BLOCKS
  0
BLOCK
  5
20
100
AcDbEntity
  8
0
100
AcDbBlockBegin
  2
*Model_Space
 70
0
 10
0.0
 20
0.0
 30
0.0
  3
*Model_Space
  1

  0
ENDBLK
  5
21
100
AcDbEntity
  8
0
100
AcDbBlockEnd
  0
BLOCK
  5
1C
100
AcDbEntity
  8
0
100
AcDbBlockBegin
  2
*Paper_Space
 70
0
 10
0.0
 20
0.0
 30
0.0
  3
*Paper_Space
  1

  0
ENDBLK
  5
1D
100
AcDbEntity
  8
0
100
AcDbBlockEnd
  0
BLOCK
  5
21B
100
AcDbEntity
  8
0
100
AcDbBlockBegin
  2
_FILLED
 70
64
 10
0.0
 20
0.0
  3
_FILLED
  1

  0
SOLID
  5
21C
100
AcDbEntity
  8
0
  6
BYBLOCK
 62
0
100
AcDbTrace
 10
0.0
 20
0.0
 11
-1.0
 21
0.3166666667
 12
-1.0
 22
-0.3166666667
 13
-1.0
 23
-0.3166666667
  0
ENDBLK
  5
21D
100
AcDbEntity
  8
0
  6
BYBLOCK
 62
0
100
AcDbBlockEnd
  0
BLOCK
  5
21E
100
AcDbEntity
  8
0
100
AcDbBlockBegin
 62
7
  6
CONTINUOUS
  2
*D0
 70
65
 10
0.0
 20
0.0
  3
*D0
  1

  0
LINE
  5
21F
100
AcDbEntity
  8
0
100
AcDbLine
 62
7
  6
CONTINUOUS
 10
-40.0
 20
37.5
 11
-40.0
 21
49.594617125
  0
LINE
  5
220
100
AcDbEntity
  8
0
100
AcDbLine
 62
7
  6
CONTINUOUS
 10
40.0
 20
37.5
 11
40.0
 21
49.594617125
  0
LINE
  5
221
100
AcDbEntity
  8
0
100
AcDbLine
 62
7
  6
CONTINUOUS
 10
-40.0
 20
48.094617125
 11
0.0
 21
48.094617125
  0
LINE
  5
222
100
AcDbEntity
  8
0
100
AcDbLine
 62
7
  6
CONTINUOUS
 10
40.0
 20
48.094617125
 11
0.0
 21
48.094617125
  0
INSERT
  5
223
100
AcDbEntity
  8
0
100
AcDbBlockReference
 62
7
  6
CONTINUOUS
  2
_FILLED
 10
-40.0
 20
48.094617125
 41
3.0
 42
3.0
 43
3.0
 50
180.0
  0
INSERT
  5
224
100
AcDbEntity
  8
0
100
AcDbBlockReference
 62
7
  6
CONTINUOUS
  2
_FILLED
 10
40.0
 20
48.094617125
 41
3.0
 42
3.0
 43
3.0
  0
ENDBLK
  5
225
100
AcDbEntity
  8
0
  6
BYBLOCK
 62
0
100
AcDbBlockEnd
  0
BLOCK
  5
226
100
AcDbEntity
  8
0
100
AcDbBlockBegin
 62
7
  6
CONTINUOUS
  2
*D1
 70
65
 10
0.0
 20
0.0
  3
*D1
  1

  0
LINE
  5
227
100
AcDbEntity
  8
0
100
AcDbLine
 62
7
  6
CONTINUOUS
 10
-72.5467665752
 20
23.9999874464
 11
-72.5467665752
 21
49.5
  0
LINE
  5
228
100
AcDbEntity
  8
0
100
AcDbLine
 62
7
  6
CONTINUOUS
 10
-63.5312795285
 20
37.5
 11
-63.5312795285
 21
49.5
  0
LINE
  5
229
100
AcDbEntity
  8
0
100
AcDbLine
 62
7
  6
CONTINUOUS
 10
-72.5467665752
 20
48.0
 11
-76.5467665752
 21
48.0
  0
LINE
  5
22A
100
AcDbEntity
  8
0
100
AcDbLine
 62
7
  6
CONTINUOUS
 10
-76.5467665752
 20
48.0
 11
-68.0390230519
 21
48.0
  0
LINE
  5
22B
100
AcDbEntity
  8
0
100
AcDbLine
 62
7
  6
CONTINUOUS
 10
-63.5312795285
 20
48.0
 11
-59.5312795285
 21
48.0
  0
LINE
  5
22C
100
AcDbEntity
  8
0
100
AcDbLine
 62
7
  6
CONTINUOUS
 10
-59.5312795285
 20
48.0
 11
-68.0390230519
 21
48.0
  0
INSERT
  5
22D
100
AcDbEntity
  8
0
100
AcDbBlockReference
 62
7
  6
CONTINUOUS
  2
_FILLED
 10
-72.5467665752
 20
48.0
 41
3.0
 42
3.0
 43
3.0
  0
INSERT
  5
22E
100
AcDbEntity
  8
0
100
AcDbBlockReference
 62
7
  6
CONTINUOUS
  2
_FILLED
 10
-63.5312795285
 20
48.0
 41
3.0
 42
3.0
 43
3.0
 50
180.0
  0
ENDBLK
  5
22F
100
AcDbEntity
  8
0
  6
BYBLOCK
 62
0
100
AcDbBlockEnd
  0
BLOCK
  5
230
100
AcDbEntity
  8
0
100
AcDbBlockBegin
 62
7
  6
CONTINUOUS
  2
*D2
 70
65
 10
0.0
 20
0.0
  3
*D2
  1

  0
LINE
  5
231
100
AcDbEntity
  8
0
100
AcDbLine
 62
7
  6
CONTINUOUS
 10
-64.0312795285
 20
40.0
 11
-82.0467665754
 21
40.0
  0
LINE
  5
232
100
AcDbEntity
  8
0
100
AcDbLine
 62
7
  6
CONTINUOUS
 10
-64.0312795285
 20
-40.0
 11
-82.0467665754
 21
-40.0
  0
LINE
  5
233
100
AcDbEntity
  8
0
100
AcDbLine
 62
7
  6
CONTINUOUS
 10
-80.5467665754
 20
40.0
 11
-80.5467665754
 21
0.0
  0
LINE
  5
234
100
AcDbEntity
  8
0
100
AcDbLine
 62
7
  6
CONTINUOUS
 10
-80.5467665754
 20
-40.0
 11
-80.5467665754
 21
0.0
  0
INSERT
  5
235
100
AcDbEntity
  8
0
100
AcDbBlockReference
 62
7
  6
CONTINUOUS
  2
_FILLED
 10
-80.5467665754
 20
40.0
 41
3.0
 42
3.0
 43
3.0
 50
90.0
  0
INSERT
  5
236
100
AcDbEntity
  8
0
100
AcDbBlockReference
 62
7
  6
CONTINUOUS
  2
_FILLED
 10
-80.5467665754
 20
-40.0
 41
3.0
 42
3.0
 43
3.0
 50
270.0
  0
ENDBLK
  5
237
100
AcDbEntity
  8
0
  6
BYBLOCK
 62
0
100
AcDbBlockEnd
  0
ENDSEC
  0
SECTION
  2
ENTITIES
  0
DIMENSION
  5
238
100
AcDbEntity
  8
0
100
AcDbDimension
 62
7
  6
CONTINUOUS
  2
*D0
 10
40.0
 20
48.094617125
 11
-2.3571428571
 21
48.094617125
 70
160
 71
2
 72
2
 41
0.9
 42
80.0
  3
DIMSTYLE_1
100
AcDbAlignedDimension
 13
-40.0
 23
37.0
 14
40.0
 24
37.0
100
AcDbRotatedDimension
  0
DIMENSION
  5
239
100
AcDbEntity
  8
0
100
AcDbDimension
 62
7
  6
CONTINUOUS
  2
*D1
 10
-63.5312795285
 20
48.0
 11
-69.2175944804
 21
48.0
 70
160
 71
2
 72
2
 41
0.9
 42
9.0154870467
  3
DIMSTYLE_2
100
AcDbAlignedDimension
 13
-72.5467665752
 23
23.4999874464
 14
-63.5312795285
 24
37.0
100
AcDbRotatedDimension
  0
DIMENSION
  5
23A
100
AcDbEntity
  8
0
100
AcDbDimension
 62
7
  6
CONTINUOUS
  2
*D2
 10
-80.5467665754
 20
-40.0
 11
-80.5467665754
 21
-2.3571428571
 70
160
 71
2
 72
2
 41
0.9
 42
80.0
  3
DIMSTYLE_1
100
AcDbAlignedDimension
 13
-63.5312795285
 23
40.0
 14
-63.5312795285
 24
-40.0
 50
270.0
100
AcDbRotatedDimension
  0
LWPOLYLINE
  5
23B
100
AcDbEntity
  8
RACCORDO
100
AcDbPolyline
 62
250
  6
CONTINUOUS
 90
13
 70
0
 10
-39.7686092034
 20
36.9999999951
 10
-39.756046581
 20
37.0060211648
 10
-39.7304987767
 20
37.0119630525
 10
-39.6923022231
 20
37.0177474109
 10
-39.6419599207
 20
37.0232980674
 10
-39.5801348141
 20
37.0285419266
 10
-39.5076410621
 20
37.0334099335
 10
-39.4254333163
 20
37.0378379824
 10
-39.334594149
 20
37.0417677618
 10
-39.2363197977
 20
37.0451475216
 10
-39.1319044118
 20
37.0479327551
 10
-39.0227230104
 20
37.0500867845
 10
-38.9102133752
 20
37.0515812445
  0
LWPOLYLINE
  5
23C
100
AcDbEntity
  8
RACCORDO
100
AcDbPolyline
 62
250
  6
CONTINUOUS
 90
13
 70
0
 10
-39.7686319911
 20
-37.0
 10
-39.7560688009
 20
-37.006021296
 10
-39.7305200763
 20
-37.0119632977
 10
-39.6923222692
 20
-37.0177477546
 10
-39.6419784075
 20
-37.0232984911
 10
-39.580151471
 20
-37.0285424093
 10
-39.5076556601
 20
-37.0334104516
 10
-39.4254456743
 20
-37.0378385104
 10
-39.3346041391
 20
-37.0417682727
 10
-39.236327349
 20
-37.0451479871
 10
-39.1319095138
 20
-37.0479331462
 10
-39.0227257147
 20
-37.050087072
 10
-38.9102137962
 20
-37.0515813994
  0
LWPOLYLINE
  5
23D
100
AcDbEntity
  8
RACCORDO
100
AcDbPolyline
 62
250
  6
CONTINUOUS
 90
13
 70
0
 10
-37.0
 20
39.7694281234
 10
-37.0042359949
 20
39.7568063256
 10
-37.0084158884
 20
39.7311258629
 10
-37.0124843221
 20
39.6927268468
 10
-37.0163874137
 20
39.6421178329
 10
-37.0200734707
 20
39.579969086
 10
-37.0234936751
 20
39.5071037028
 10
-37.0266027298
 20
39.4244867107
 10
-37.0293594584
 20
39.3332122874
 10
-37.0317273511
 20
39.2344892693
 10
-37.0336750474
 20
39.129625142
 10
-37.0351767521
 20
39.0200087237
 10
-37.0362125766
 20
38.9070917718
  0
LWPOLYLINE
  5
23E
100
AcDbEntity
  8
RACCORDO
100
AcDbPolyline
 62
250
  6
CONTINUOUS
 90
13
 70
0
 10
-37.0
 20
-39.7694280063
 10
-37.0042359943
 20
-39.7568062115
 10
-37.0084158872
 20
-39.7311257535
 10
-37.0124843204
 20
-39.6927267438
 10
-37.0163874116
 20
-39.6421177379
 10
-37.0200734683
 20
-39.5799690004
 10
-37.0234936726
 20
-39.5071036278
 10
-37.0266027273
 20
-39.4244866472
 10
-37.0293594561
 20
-39.333212236
 10
-37.0317273491
 20
-39.2344892306
 10
-37.0336750458
 20
-39.1296251159
 10
-37.035176751
 20
-39.02000871
 10
-37.0362125761
 20
-38.9070917699
  0
LINE
  5
23F
100
AcDbEntity
  8
RACCORDO
100
AcDbLine
 62
250
  6
CONTINUOUS
 10
-38.9458791532
 20
-36.318285569
 11
-38.953367012
 21
-36.2200935992
  0
LWPOLYLINE
  5
240
100
AcDbEntity
  8
RACCORDO
100
AcDbPolyline
 62
250
  6
CONTINUOUS
 90
7
 70
0
 10
-38.953367012
 20
-36.2200935992
 10
-38.9568898789
 20
-36.1705310939
 10
-38.9600599969
 20
-36.1208146003
 10
-38.9629090289
 20
-36.0712315228
 10
-38.9650169673
 20
-36.0216917328
 10
-38.9659609023
 20
-35.972119222
 10
-38.966467705
 20
-35.8707801633
  0
LWPOLYLINE
  5
241
100
AcDbEntity
  8
RACCORDO
100
AcDbPolyline
 62
250
  6
CONTINUOUS
 90
3
 70
0
 10
-38.9366465048
 20
-36.4648788094
 10
-38.9395639223
 20
-36.4159010453
 10
-38.9458791532
 20
-36.318285569
  0
LWPOLYLINE
  5
242
100
AcDbEntity
  8
RACCORDO
100
AcDbPolyline
 62
250
  6
CONTINUOUS
 90
37
 70
0
 10
-39.7686319911
 20
37.0
 10
-39.7604905906
 20
37.216611323
 10
-39.7366025497
 20
37.4241513823
 10
-39.6988713293
 20
37.6216301192
 10
-39.649226895
 20
37.808141653
 10
-39.5894795719
 20
37.983372011
 10
-39.5211828713
 20
38.1475386006
 10
-39.4460247778
 20
38.3003154394
 10
-39.3654279995
 20
38.441912408
 10
-39.2801389157
 20
38.5734478733
 10
-39.1913125573
 20
38.6950652777
 10
-39.100022754
 20
38.8069958187
 10
-39.0064554365
 20
38.9104020585
 10
-38.9112923121
 20
39.0056352973
 10
-38.8153767082
 20
39.0928612012
 10
-38.7188399015
 20
39.1728448051
 10
-38.6221697921
 20
39.2459278845
 10
-38.5259670478
 20
39.3123512733
 10
-38.4303681157
 20
39.3726514139
 10
-38.3357875818
 20
39.4271281467
 10
-38.2426004749
 20
39.4760941587
 10
-38.1507779613
 20
39.5200401425
 10
-38.0606114871
 20
39.5592509871
 10
-37.9723610236
 20
39.5940165348
 10
-37.8858708588
 20
39.6247604211
 10
-37.8013377714
 20
39.6517354436
 10
-37.7189387611
 20
39.6751934676
 10
-37.6384311824
 20
39.695480294
 10
-37.5599462107
 20
39.7128084774
 10
-37.4835996035
 20
39.7273884281
 10
-37.4090863803
 20
39.7394888941
 10
-37.3364934953
 20
39.7492811287
 10
-37.2658936228
 20
39.7569343377
 10
-37.1969350279
 20
39.7626444654
 10
-37.1295330087
 20
39.7665503341
 10
-37.0638741699
 20
39.7687688725
 10
-37.0
 20
39.7694281234
  0
LWPOLYLINE
  5
243
100
AcDbEntity
  8
RACCORDO
100
AcDbPolyline
 62
250
  6
CONTINUOUS
 90
3
 70
0
 10
-38.9469958008
 20
36.3023262922
 10
-38.9434915553
 20
36.3542183875
 10
-38.9371219831
 20
36.4566580811
  0
LWPOLYLINE
  5
244
100
AcDbEntity
  8
RACCORDO
100
AcDbPolyline
 62
250
  6
CONTINUOUS
 90
37
 70
0
 10
-38.9102133752
 20
37.0515812445
 10
-38.8995428253
 20
37.194054036
 10
-38.8789646928
 20
37.3307280138
 10
-38.8497351383
 20
37.4608096378
 10
-38.8131225097
 20
37.5837112556
 10
-38.7702979518
 20
37.6992640124
 10
-38.722238124
 20
37.8075904375
 10
-38.670027556
 20
37.9084887185
 10
-38.6145615534
 20
38.0021164986
 10
-38.5562761375
 20
38.0891836358
 10
-38.4959047519
 20
38.1697857759
 10
-38.4341314911
 20
38.2440853248
 10
-38.3710449244
 20
38.3128359314
 10
-38.307071746
 20
38.3762704098
 10
-38.242745924
 20
38.4345034759
 10
-38.1781278591
 20
38.4880339826
 10
-38.1135241017
 20
38.5370844296
 10
-38.0493217483
 20
38.5818090431
 10
-37.9856000969
 20
38.622552108
 10
-37.9226218718
 20
38.6595069383
 10
-37.8606216306
 20
38.6928790773
 10
-37.799567617
 20
38.7229895967
 10
-37.7396454631
 20
38.7500202674
 10
-37.6810245523
 20
38.77415457
 10
-37.6235996535
 20
38.7956664179
 10
-37.5674977511
 20
38.8147162487
 10
-37.5128307317
 20
38.8314663041
 10
-37.4594330329
 20
38.8461447864
 10
-37.4073883183
 20
38.8588873637
 10
-37.3567704132
 20
38.869828823
 10
-37.307373922
 20
38.8791483106
 10
-37.2592544908
 20
38.8869548777
 10
-37.2124588645
 20
38.8933568866
 10
-37.166751944
 20
38.8984875699
 10
-37.1220761013
 20
38.9024378983
 10
-37.0785541013
 20
38.9052790553
 10
-37.0362125761
 20
38.9070917699
  0
LINE
  5
245
100
AcDbEntity
  8
RACCORDO
100
AcDbLine
 62
250
  6
CONTINUOUS
 10
-38.9312277335
 20
-36.563824925
 11
-38.9366465048
 21
-36.4648788094
  0
LINE
  5
246
100
AcDbEntity
  8
RACCORDO
100
AcDbLine
 62
250
  6
CONTINUOUS
 10
-38.9262362906
 20
-36.6639651161
 11
-38.9312277335
 21
-36.563824925
  0
LINE
  5
247
100
AcDbEntity
  8
RACCORDO
100
AcDbLine
 62
250
  6
CONTINUOUS
 10
-38.919471708
 20
-36.8147032447
 11
-38.9262362906
 21
-36.6639651161
  0
LWPOLYLINE
  5
248
100
AcDbEntity
  8
RACCORDO
100
AcDbPolyline
 62
250
  6
CONTINUOUS
 90
3
 70
0
 10
-38.9102137962
 20
-37.0515813994
 10
-38.9118588528
 20
-37.0064178641
 10
-38.919471708
 20
-36.8147032447
  0
LINE
  5
249
100
AcDbEntity
  8
RACCORDO
100
AcDbLine
 62
250
  6
CONTINUOUS
 10
-38.966467705
 20
-35.8707801633
 11
-39.0276709888
 21
-31.6110987304
  0
LINE
  5
24A
100
AcDbEntity
  8
RACCORDO
100
AcDbLine
 62
250
  6
CONTINUOUS
 10
-39.0276709888
 20
-31.6110987304
 11
-39.04703328
 21
-29.7174348811
  0
LINE
  5
24B
100
AcDbEntity
  8
RACCORDO
100
AcDbLine
 62
250
  6
CONTINUOUS
 10
-39.04703328
 20
-29.7174348811
 11
-39.0593914951
 21
-27.8196022904
  0
LINE
  5
24C
100
AcDbEntity
  8
RACCORDO
100
AcDbLine
 62
250
  6
CONTINUOUS
 10
-39.0593914951
 20
-27.8196022904
 11
-39.0750362703
 21
-22.5716058809
  0
LINE
  5
24D
100
AcDbEntity
  8
RACCORDO
100
AcDbLine
 62
250
  6
CONTINUOUS
 10
-39.0750362703
 20
-22.5716058809
 11
-39.0883744035
 21
-15.2665640417
  0
LINE
  5
24E
100
AcDbEntity
  8
RACCORDO
100
AcDbLine
 62
250
  6
CONTINUOUS
 10
-39.0883744035
 20
-15.2665640417
 11
-39.0955732341
 21
-7.0511924084
  0
LINE
  5
24F
100
AcDbEntity
  8
0
100
AcDbLine
 62
7
  6
CONTINUOUS
 10
-40.0
 20
37.0
 11
-40.0
 21
3.6749773271
  0
LINE
  5
250
100
AcDbEntity
  8
0
100
AcDbLine
 62
7
  6
CONTINUOUS
 10
-40.0
 20
-3.6749773271
 11
-40.0
 21
-37.0
  0
LINE
  5
251
100
AcDbEntity
  8
0
100
AcDbLine
 62
7
  6
CONTINUOUS
 10
-39.8951844414
 20
-3.5
 11
-39.8951844414
 21
3.5
  0
LINE
  5
252
100
AcDbEntity
  8
RACCORDO
100
AcDbLine
 62
250
  6
CONTINUOUS
 10
-39.7627552664
 20
26.140201727
 11
-39.7686319911
 21
37.0
  0
LINE
  5
253
100
AcDbEntity
  8
RACCORDO
100
AcDbLine
 62
250
  6
CONTINUOUS
 10
-39.0955732341
 20
-7.0511924084
 11
-39.0958463848
 21
6.4215071415
  0
LINE
  5
254
100
AcDbEntity
  8
RACCORDO
100
AcDbLine
 62
250
  6
CONTINUOUS
 10
-39.0958463848
 20
6.4215071415
 11
-39.0871145902
 21
16.167378647
  0
LINE
  5
255
100
AcDbEntity
  8
RACCORDO
100
AcDbLine
 62
250
  6
CONTINUOUS
 10
-39.0871145902
 20
16.167378647
 11
-39.071382787
 21
24.0819506785
  0
LINE
  5
256
100
AcDbEntity
  8
RACCORDO
100
AcDbLine
 62
250
  6
CONTINUOUS
 10
-39.7686319911
 20
-37.0
 11
-39.7627552664
 21
26.140201727
  0
LINE
  5
257
100
AcDbEntity
  8
RACCORDO
100
AcDbLine
 62
250
  6
CONTINUOUS
 10
-39.071382787
 20
24.0819506785
 11
-39.0561424377
 21
28.4259699562
  0
LINE
  5
258
100
AcDbEntity
  8
RACCORDO
100
AcDbLine
 62
250
  6
CONTINUOUS
 10
-38.9672729405
 20
35.8083222483
 11
-38.9663348168
 21
35.9238807846
  0
LINE
  5
259
100
AcDbEntity
  8
RACCORDO
100
AcDbLine
 62
250
  6
CONTINUOUS
 10
-39.0561424377
 20
28.4259699562
 11
-39.0421430313
 21
30.2696145616
  0
LINE
  5
25A
100
AcDbEntity
  8
RACCORDO
100
AcDbLine
 62
250
  6
CONTINUOUS
 10
-39.0421430313
 20
30.2696145616
 11
-39.0213152598
 21
32.1154492428
  0
LINE
  5
25B
100
AcDbEntity
  8
RACCORDO
100
AcDbLine
 62
250
  6
CONTINUOUS
 10
-39.0213152598
 20
32.1154492428
 11
-38.9672729405
 21
35.8083222483
  0
LWPOLYLINE
  5
25C
100
AcDbEntity
  8
RACCORDO
100
AcDbPolyline
 62
250
  6
CONTINUOUS
 90
7
 70
0
 10
-38.9663348168
 20
35.9238807846
 10
-38.9654159058
 20
35.9796483871
 10
-38.963801808
 20
36.0347438092
 10
-38.9616748872
 20
36.0892361845
 10
-38.9589396545
 20
36.1433690429
 10
-38.9552861974
 20
36.196969577
 10
-38.9469958008
 20
36.3023262922
  0
LINE
  5
25D
100
AcDbEntity
  8
RACCORDO
100
AcDbLine
 62
250
  6
CONTINUOUS
 10
-38.9174280136
 20
36.8639692243
 11
-38.9102137963
 21
37.0515813993
  0
LINE
  5
25E
100
AcDbEntity
  8
RACCORDO
100
AcDbLine
 62
250
  6
CONTINUOUS
 10
-38.9239621415
 20
36.7127906897
 11
-38.9174280136
 21
36.8639692243
  0
LINE
  5
25F
100
AcDbEntity
  8
RACCORDO
100
AcDbLine
 62
250
  6
CONTINUOUS
 10
-38.9288672801
 20
36.6101019366
 11
-38.9239621415
 21
36.7127906897
  0
LWPOLYLINE
  5
260
100
AcDbEntity
  8
RACCORDO
100
AcDbPolyline
 62
250
  6
CONTINUOUS
 90
3
 70
0
 10
-38.9371219831
 20
36.4566580811
 10
-38.9342110097
 20
36.507846646
 10
-38.9288672801
 20
36.6101019366
  0
LWPOLYLINE
  5
261
100
AcDbEntity
  8
RACCORDO
100
AcDbPolyline
 62
250
  6
CONTINUOUS
 90
4
 70
0
 10
36.6563219841
 20
-38.9206391604
 10
36.4767339233
 20
-38.9285862699
 10
36.4403334256
 20
-38.9298735148
 10
36.4037481233
 20
-38.930721077
  0
LINE
  5
262
100
AcDbEntity
  8
RACCORDO
100
AcDbLine
 62
250
  6
CONTINUOUS
 10
36.8522921037
 20
-38.9132788339
 11
36.6563219841
 21
-38.9206391604
  0
LINE
  5
263
100
AcDbEntity
  8
RACCORDO
100
AcDbLine
 62
250
  6
CONTINUOUS
 10
37.036212576
 20
-38.9070917696
 11
36.8522921037
 21
-38.9132788339
  0
LINE
  5
264
100
AcDbEntity
  8
RACCORDO
100
AcDbLine
 62
250
  6
CONTINUOUS
 10
32.2798275392
 20
-38.9872017677
 11
30.4426412898
 21
-39.0173057909
  0
LWPOLYLINE
  5
265
100
AcDbEntity
  8
RACCORDO
100
AcDbPolyline
 62
250
  6
CONTINUOUS
 90
3
 70
0
 10
36.4037481233
 20
-38.930721077
 10
36.2911846046
 20
-38.9322523496
 10
32.2798275392
 20
-38.9872017677
  0
LINE
  5
266
100
AcDbEntity
  8
RACCORDO
100
AcDbLine
 62
250
  6
CONTINUOUS
 10
30.4426412898
 20
-39.0173057909
 11
26.4244595959
 21
-39.0647119661
  0
LINE
  5
267
100
AcDbEntity
  8
RACCORDO
100
AcDbLine
 62
250
  6
CONTINUOUS
 10
26.4244595959
 20
-39.0647119661
 11
24.3274357175
 21
-39.0849074941
  0
LINE
  5
268
100
AcDbEntity
  8
RACCORDO
100
AcDbLine
 62
250
  6
CONTINUOUS
 10
24.3274357175
 20
-39.0849074941
 11
22.3060853223
 21
-39.0978907028
  0
LINE
  5
269
100
AcDbEntity
  8
RACCORDO
100
AcDbLine
 62
250
  6
CONTINUOUS
 10
22.3060853223
 20
-39.0978907028
 11
20.0066770754
 21
-39.1049963834
  0
LINE
  5
26A
100
AcDbEntity
  8
RACCORDO
100
AcDbLine
 62
250
  6
CONTINUOUS
 10
-11.75
 20
-39.0969288225
 11
-17.5563942559
 21
-39.1053340032
  0
LINE
  5
26B
100
AcDbEntity
  8
0
100
AcDbLine
 62
7
  6
CONTINUOUS
 10
-36.9999999999
 20
-40.0
 11
36.9999999999
 21
-40.0
  0
LINE
  5
26C
100
AcDbEntity
  8
RACCORDO
100
AcDbLine
 62
250
  6
CONTINUOUS
 10
20.0066770754
 20
-39.1049963834
 11
17.3837431545
 21
-39.1051791484
  0
LINE
  5
26D
100
AcDbEntity
  8
RACCORDO
100
AcDbLine
 62
250
  6
CONTINUOUS
 10
-17.5563942559
 20
-39.1053340032
 11
-20.1033795182
 21
-39.1048522076
  0
LINE
  5
26E
100
AcDbEntity
  8
RACCORDO
100
AcDbLine
 62
250
  6
CONTINUOUS
 10
37.0
 20
-39.7694281234
 11
-37.0
 21
-39.7694281234
  0
LWPOLYLINE
  5
26F
100
AcDbEntity
  8
RACCORDO
100
AcDbPolyline
 62
250
  6
CONTINUOUS
 90
3
 70
0
 10
17.3837431545
 20
-39.1051791484
 10
15.0107389032
 20
-39.1012703989
 10
-11.75
 20
-39.0969288225
  0
LINE
  5
270
100
AcDbEntity
  8
RACCORDO
100
AcDbLine
 62
250
  6
CONTINUOUS
 10
-20.1033795182
 20
-39.1048522076
 11
-22.2737124106
 21
-39.0980528178
  0
LINE
  5
271
100
AcDbEntity
  8
RACCORDO
100
AcDbLine
 62
250
  6
CONTINUOUS
 10
-22.2737124106
 20
-39.0980528178
 11
-24.5750353645
 21
-39.0828691224
  0
LWPOLYLINE
  5
272
100
AcDbEntity
  8
RACCORDO
100
AcDbPolyline
 62
250
  6
CONTINUOUS
 90
37
 70
0
 10
-37.0
 20
-39.7694281234
 10
-37.0638741699
 20
-39.7687688725
 10
-37.1295330087
 20
-39.7665503341
 10
-37.1969350279
 20
-39.7626444654
 10
-37.2658936228
 20
-39.7569343377
 10
-37.3364934953
 20
-39.7492811287
 10
-37.4090863803
 20
-39.7394888941
 10
-37.4835996035
 20
-39.7273884281
 10
-37.5599462107
 20
-39.7128084774
 10
-37.6384311824
 20
-39.695480294
 10
-37.7189387611
 20
-39.6751934676
 10
-37.8013377714
 20
-39.6517354436
 10
-37.8858708588
 20
-39.6247604211
 10
-37.9723610236
 20
-39.5940165348
 10
-38.0606114871
 20
-39.5592509871
 10
-38.1507779613
 20
-39.5200401425
 10
-38.2426004749
 20
-39.4760941587
 10
-38.3357875818
 20
-39.4271281467
 10
-38.4303681157
 20
-39.3726514139
 10
-38.5259670478
 20
-39.3123512733
 10
-38.6221697922
 20
-39.2459278845
 10
-38.7188399015
 20
-39.1728448051
 10
-38.8153767081
 20
-39.0928612012
 10
-38.911292312
 20
-39.0056352972
 10
-39.0064554364
 20
-38.9104020584
 10
-39.1000227541
 20
-38.8069958187
 10
-39.1913125577
 20
-38.6950652779
 10
-39.2801389161
 20
-38.5734478735
 10
-39.3654279991
 20
-38.4419124079
 10
-39.4460247764
 20
-38.3003154392
 10
-39.5211828698
 20
-38.1475386004
 10
-39.5894795722
 20
-37.9833720109
 10
-39.6492268981
 20
-37.8081416526
 10
-39.6988713339
 20
-37.6216301185
 10
-39.7366025538
 20
-37.4241513813
 10
-39.7604905932
 20
-37.2166113221
 10
-39.7686319911
 20
-37.0
  0
LINE
  5
273
100
AcDbEntity
  8
RACCORDO
100
AcDbLine
 62
250
  6
CONTINUOUS
 10
-24.5750353645
 20
-39.0828691224
 11
-27.2118227113
 21
-39.0558228787
  0
LINE
  5
274
100
AcDbEntity
  8
RACCORDO
100
AcDbLine
 62
250
  6
CONTINUOUS
 10
-27.2118227113
 20
-39.0558228787
 11
-30.8293619266
 21
-39.0113594488
  0
LWPOLYLINE
  5
275
100
AcDbEntity
  8
RACCORDO
100
AcDbPolyline
 62
250
  6
CONTINUOUS
 90
3
 70
0
 10
-30.8293619266
 20
-39.0113594488
 10
-32.0383724962
 20
-38.9909187514
 10
-36.3957358586
 20
-38.9308864785
  0
LWPOLYLINE
  5
276
100
AcDbEntity
  8
RACCORDO
100
AcDbPolyline
 62
250
  6
CONTINUOUS
 90
3
 70
0
 10
-36.3957358586
 20
-38.9308864785
 10
-36.4330375235
 20
-38.9300657286
 10
-36.4701288675
 20
-38.9288078512
  0
LINE
  5
277
100
AcDbEntity
  8
RACCORDO
100
AcDbLine
 62
250
  6
CONTINUOUS
 10
-36.767665969
 20
-38.9163553674
 11
-37.0362125764
 21
-38.907091771
  0
LINE
  5
278
100
AcDbEntity
  8
RACCORDO
100
AcDbLine
 62
250
  6
CONTINUOUS
 10
-36.6529554897
 20
-38.920775402
 11
-36.767665969
 21
-38.9163553674
  0
LWPOLYLINE
  5
279
100
AcDbEntity
  8
RACCORDO
100
AcDbPolyline
 62
250
  6
CONTINUOUS
 90
37
 70
0
 10
-37.0362125761
 20
-38.9070917699
 10
-37.0785541079
 20
-38.9052790563
 10
-37.1220760813
 20
-38.9024379015
 10
-37.1667518786
 20
-38.8984875771
 10
-37.2124587534
 20
-38.8933568997
 10
-37.2592543421
 20
-38.886954899
 10
-37.3073737388
 20
-38.8791483424
 10
-37.3567701931
 20
-38.8698288678
 10
-37.4073880568
 20
-38.8588874243
 10
-37.4594327261
 20
-38.8461448662
 10
-37.5128303777
 20
-38.8314664068
 10
-37.5674973491
 20
-38.8147163781
 10
-37.6235992021
 20
-38.7956665788
 10
-37.6810240498
 20
-38.7741547674
 10
-37.739644908
 20
-38.7500205068
 10
-37.799567008
 20
-38.7229898839
 10
-37.8606209672
 20
-38.6928794189
 10
-37.922621154
 20
-38.6595073411
 10
-37.9855993249
 20
-38.6225525803
 10
-38.0493209229
 20
-38.5818095943
 10
-38.113523225
 20
-38.5370850688
 10
-38.1781269337
 20
-38.4880347178
 10
-38.2427449547
 20
-38.4345043125
 10
-38.307070738
 20
-38.376271356
 10
-38.3710438814
 20
-38.3128370072
 10
-38.4341304176
 20
-38.2440865624
 10
-38.4959036549
 20
-38.1697871984
 10
-38.5562750316
 20
-38.0891852265
 10
-38.6145604618
 20
-38.0021181882
 10
-38.6700265014
 20
-37.9084904741
 10
-38.7222371093
 20
-37.8075924152
 10
-38.7702969681
 20
-37.6992666145
 10
-38.8131215556
 20
-37.5837147161
 10
-38.8497342912
 20
-37.4608133293
 10
-38.8789641853
 20
-37.3307302501
 10
-38.8995428045
 20
-37.1940537979
 10
-38.9102133767
 20
-37.051581245
  0
LINE
  5
27A
100
AcDbEntity
  8
RACCORDO
100
AcDbLine
 62
250
  6
CONTINUOUS
 10
-36.4701288675
 20
-38.9288078512
 11
-36.6529554897
 21
-38.920775402
  0
LINE
  5
27B
100
AcDbEntity
  8
RACCORDO
100
AcDbLine
 62
250
  6
CONTINUOUS
 10
-37.0
 20
-39.7694281234
 11
-37.0
 21
-40.0
  0
LINE
  5
27C
100
AcDbEntity
  8
RACCORDO
100
AcDbLine
 62
250
  6
CONTINUOUS
 10
-37.0
 20
39.7694281234
 11
-37.0
 21
40.0
  0
LINE
  5
27D
100
AcDbEntity
  8
RACCORDO
100
AcDbLine
 62
250
  6
CONTINUOUS
 10
-40.0
 20
-37.0
 11
-39.7686319911
 21
-37.0
  0
LINE
  5
27E
100
AcDbEntity
  8
RACCORDO
100
AcDbLine
 62
250
  6
CONTINUOUS
 10
39.7686319911
 20
-37.0
 11
40.0
 21
-37.0
  0
LINE
  5
27F
100
AcDbEntity
  8
RACCORDO
100
AcDbLine
 62
250
  6
CONTINUOUS
 10
-25.5243083814
 20
23.2404099886
 11
-25.4254068322
 21
23.5183596403
  0
LWPOLYLINE
  5
280
100
AcDbEntity
  8
RACCORDO
100
AcDbPolyline
 62
250
  6
CONTINUOUS
 90
68
 70
0
 10
-25.4254068322
 20
23.5183596403
 10
-25.4107848733
 20
23.5582530792
 10
-25.3950097433
 20
23.599259471
 10
-25.3781781163
 20
23.6413483235
 10
-25.3601177972
 20
23.6846123442
 10
-25.3407483836
 20
23.7290429685
 10
-25.320088017
 20
23.7744859296
 10
-25.2981009065
 20
23.820826022
 10
-25.2747229565
 20
23.8680535036
 10
-25.2499030468
 20
23.9161313933
 10
-25.2236359448
 20
23.9648973471
 10
-25.1958780521
 20
24.0143029412
 10
-25.1665879711
 20
24.0642979304
 10
-25.1357758158
 20
24.1147176216
 10
-25.1034037783
 20
24.1655131575
 10
-25.069435012
 20
24.2166339995
 10
-25.0338925754
 20
24.2679170534
 10
-24.9967442738
 20
24.3193088546
 10
-24.9579599538
 20
24.3707622659
 10
-24.9175788609
 20
24.4221268902
 10
-24.8755741876
 20
24.4733509954
 10
-24.8319289308
 20
24.5243787647
 10
-24.7867129175
 20
24.5750569633
 10
-24.7397626636
 20
24.6254853008
 10
-24.6912173791
 20
24.6754459184
 10
-24.6416329908
 20
24.7243530873
 10
-24.5908542194
 20
24.772340227
 10
-24.5390613725
 20
24.819236623
 10
-24.4874524909
 20
24.8640602696
 10
-24.4363626981
 20
24.9066605597
 10
-24.3857110184
 20
24.9472207489
 10
-24.335980952
 20
24.9854863205
 10
-24.2873467651
 20
25.0214490224
 10
-24.2394488754
 20
25.0555370492
 10
-24.1920773409
 20
25.0880727975
 10
-24.1455411229
 20
25.1189239942
 10
-24.0998525183
 20
25.1481691509
 10
-24.0543191837
 20
25.176392428
 10
-24.0089603676
 20
25.2036390828
 10
-23.9638180811
 20
25.2298949727
 10
-23.9182871429
 20
25.2555405664
 10
-23.8726161432
 20
25.2805001237
 10
-23.8270796608
 20
25.3045774817
 10
-23.7810050324
 20
25.327963154
 10
-23.7342758158
 20
25.3506284628
 10
-23.6868275981
 20
25.3726775752
 10
-23.6379245871
 20
25.3944946124
 10
-23.5874559021
 20
25.4160898259
 10
-23.5352988117
 20
25.4374178549
 10
-23.4807393993
 20
25.4586740472
 10
-23.4234947088
 20
25.4798424206
 10
-23.3638412681
 20
25.500691273
 10
-23.301957253
 20
25.521038395
 10
-23.2375262434
 20
25.5408377989
 10
-23.1708545278
 20
25.5598922688
 10
-23.1030544964
 20
25.5778731642
 10
-23.0342543465
 20
25.5946207181
 10
-22.9643116689
 20
25.6102112549
 10
-22.8937778736
 20
25.6248043715
 10
-22.8227077086
 20
25.6385005817
 10
-22.750220822
 20
25.6512661303
 10
-22.675544984
 20
25.6630231616
 10
-22.5996503544
 20
25.673580264
 10
-22.5227167013
 20
25.6828007061
 10
-22.4431427519
 20
25.6904786197
 10
-22.3601719083
 20
25.6963942885
 10
-22.2742801913
 20
25.7003903338
 10
-22.1853409531
 20
25.7022689503
  0
LINE
  5
281
100
AcDbEntity
  8
0
100
AcDbLine
 62
7
  6
CONTINUOUS
 10
-40.0
 20
-3.6749773271
 11
-39.8951844414
 21
-3.5
  0
LINE
  5
282
100
AcDbEntity
  8
0
100
AcDbLine
 62
7
  6
CONTINUOUS
 10
-39.8951844414
 20
3.5
 11
-40.0
 21
3.6749773271
  0
LWPOLYLINE
  5
283
100
AcDbEntity
  8
RACCORDO
100
AcDbPolyline
 62
250
  6
CONTINUOUS
 90
17
 70
0
 10
-25.4494737773
 20
-23.4515177222
 10
-25.4898685822
 20
-23.3364216505
 10
-25.5110149539
 20
-23.2769004265
 10
-25.5322238827
 20
-23.2163212406
 10
-25.5526100755
 20
-23.1536312666
 10
-25.5716150551
 20
-23.0889150944
 10
-25.5895043474
 20
-23.0224642977
 10
-25.606572771
 20
-22.953368429
 10
-25.6227587871
 20
-22.8815129333
 10
-25.6378603268
 20
-22.8067868487
 10
-25.6518310498
 20
-22.7282939248
 10
-25.6644342575
 20
-22.6458884548
 10
-25.6753851535
 20
-22.5598308608
 10
-25.6844685005
 20
-22.4698277589
 10
-25.691403797
 20
-22.3757846328
 10
-25.695867139
 20
-22.2778327371
 10
-25.6975389753
 20
-22.1760350032
  0
LWPOLYLINE
  5
284
100
AcDbEntity
  8
RACCORDO
100
AcDbPolyline
 62
250
  6
CONTINUOUS
 90
20
 70
0
 10
-25.6975387134
 20
22.1760765976
 10
-25.6965579752
 20
22.2522487454
 10
-25.6940087157
 20
22.3258911324
 10
-25.6900506177
 20
22.3969729621
 10
-25.6848473421
 20
22.465425222
 10
-25.6785404239
 20
22.5312814209
 10
-25.6712400471
 20
22.594671643
 10
-25.6630804075
 20
22.6555168546
 10
-25.6541864964
 20
22.7138881035
 10
-25.644620813
 20
22.7701413469
 10
-25.634482375
 20
22.8242445942
 10
-25.6238690365
 20
22.8762253421
 10
-25.6127971916
 20
22.9265271786
 10
-25.6013622682
 20
22.9751486519
 10
-25.5896076585
 20
23.0220951241
 10
-25.5774289848
 20
23.067814442
 10
-25.5648746784
 20
23.1123186471
 10
-25.5519667064
 20
23.1556580853
 10
-25.5385161827
 20
23.1983410609
 10
-25.5243083814
 20
23.2404099886
  0
LINE
  5
285
100
AcDbEntity
  8
0
100
AcDbLine
 62
7
  6
CONTINUOUS
 10
20.430144
 20
-28.800007
 11
19.850122
 21
-28.800015
  0
LINE
  5
286
100
AcDbEntity
  8
0
100
AcDbLine
 62
7
  6
CONTINUOUS
 10
25.0
 20
-28.8
 11
24.346695
 21
-28.800007
  0
LINE
  5
287
100
AcDbEntity
  8
0
100
AcDbLine
 62
7
  6
CONTINUOUS
 10
18.335039
 20
-28.800007
 11
17.755031
 21
-28.800015
  0
LINE
  5
288
100
AcDbEntity
  8
0
100
AcDbLine
 62
7
  6
CONTINUOUS
 10
16.046627
 20
-28.800015
 11
15.466605
 21
-28.800022
  0
LINE
  5
289
100
AcDbEntity
  8
0
100
AcDbLine
 62
7
  6
CONTINUOUS
 10
14.148794
 20
-28.800015
 11
13.568751
 21
-28.800022
  0
LINE
  5
28A
100
AcDbEntity
  8
0
100
AcDbLine
 62
7
  6
CONTINUOUS
 10
19.463443
 20
-28.800015
 11
18.883421
 21
-28.800015
  0
LINE
  5
28B
100
AcDbEntity
  8
0
100
AcDbLine
 62
7
  6
CONTINUOUS
 10
17.206656
 20
-28.800015
 11
16.626634
 21
-28.800015
  0
LINE
  5
28C
100
AcDbEntity
  8
0
100
AcDbLine
 62
7
  6
CONTINUOUS
 10
23.259144
 20
-28.800007
 11
22.679115
 21
-28.800007
  0
LINE
  5
28D
100
AcDbEntity
  8
0
100
AcDbLine
 62
7
  6
CONTINUOUS
 10
22.292437
 20
-28.800015
 11
21.712408
 21
-28.800007
  0
LINE
  5
28E
100
AcDbEntity
  8
0
100
AcDbLine
 62
7
  6
CONTINUOUS
 10
21.529302
 20
-28.229679
 11
20.613257
 21
-28.229679
  0
LINE
  5
28F
100
AcDbEntity
  8
0
100
AcDbLine
 62
7
  6
CONTINUOUS
 10
20.790179
 20
-27.678657
 11
21.352373
 21
-27.678657
  0
LINE
  5
290
100
AcDbEntity
  8
0
100
AcDbLine
 62
7
  6
CONTINUOUS
 10
23.765441
 20
-27.678657
 11
23.25921
 21
-27.67865
  0
LINE
  5
291
100
AcDbEntity
  8
0
100
AcDbLine
 62
7
  6
CONTINUOUS
 10
23.251148
 20
-27.142128
 11
23.956824
 21
-27.142128
  0
LINE
  5
292
100
AcDbEntity
  8
0
100
AcDbLine
 62
7
  6
CONTINUOUS
 10
23.956824
 20
-26.436398
 11
23.25114
 21
-26.436398
  0
LINE
  5
293
100
AcDbEntity
  8
0
100
AcDbLine
 62
7
  6
CONTINUOUS
 10
12.637619
 20
-25.899884
 11
13.217648
 21
-25.899884
  0
LINE
  5
294
100
AcDbEntity
  8
0
100
AcDbLine
 62
7
  6
CONTINUOUS
 10
14.499905
 20
-25.899884
 11
15.079934
 21
-25.899884
  0
LINE
  5
295
100
AcDbEntity
  8
0
100
AcDbLine
 62
7
  6
CONTINUOUS
 10
15.466612
 20
-25.899884
 11
16.046634
 21
-25.899884
  0
LINE
  5
296
100
AcDbEntity
  8
0
100
AcDbLine
 62
7
  6
CONTINUOUS
 10
16.626634
 20
-25.899884
 11
17.503471
 21
-25.899884
  0
LINE
  5
297
100
AcDbEntity
  8
0
100
AcDbLine
 62
7
  6
CONTINUOUS
 10
18.586606
 20
-25.899884
 11
19.463443
 21
-25.899884
  0
LINE
  5
298
100
AcDbEntity
  8
0
100
AcDbLine
 62
7
  6
CONTINUOUS
 10
20.781247
 20
-25.899877
 11
21.361297
 21
-25.899877
  0
LINE
  5
299
100
AcDbEntity
  8
0
100
AcDbLine
 62
7
  6
CONTINUOUS
 10
22.679115
 20
-25.899877
 11
24.03733
 21
-25.899877
  0
LWPOLYLINE
  5
29A
100
AcDbEntity
  8
RACCORDO
100
AcDbPolyline
 62
250
  6
CONTINUOUS
 90
65
 70
0
 10
-22.1901133297
 20
-25.7022238359
 10
-22.273164457
 20
-25.7003946965
 10
-22.3538387257
 20
-25.6967126258
 10
-22.4321966482
 20
-25.6913309426
 10
-22.5076423008
 20
-25.6844176682
 10
-22.5806980226
 20
-25.6761375088
 10
-22.6530254283
 20
-25.6665227489
 10
-22.724878183
 20
-25.6554966037
 10
-22.7955655078
 20
-25.6432625741
 10
-22.865385771
 20
-25.6301409573
 10
-22.9346236981
 20
-25.616356747
 10
-23.0030259704
 20
-25.6017599571
 10
-23.0701978979
 20
-25.5860869627
 10
-23.1364041062
 20
-25.569217365
 10
-23.2017464182
 20
-25.5512707524
 10
-23.2654884694
 20
-25.5324333478
 10
-23.3273896506
 20
-25.5128363333
 10
-23.3876462842
 20
-25.4925233691
 10
-23.4462037617
 20
-25.4715863502
 10
-23.5029976781
 20
-25.4501256725
 10
-23.5580986586
 20
-25.4282016122
 10
-23.6116044116
 20
-25.4058628884
 10
-23.6633814731
 20
-25.3832764158
 10
-23.7136128077
 20
-25.3603939238
 10
-23.7630677591
 20
-25.3367988584
 10
-23.812104688
 20
-25.3122361742
 10
-23.8608536602
 20
-25.2867351123
 10
-23.9093963112
 20
-25.2604313706
 10
-23.9571709992
 20
-25.2336933805
 10
-24.0040409345
 20
-25.2065533806
 10
-24.0508914507
 20
-25.1784931222
 10
-24.0977671672
 20
-25.1494842999
 10
-24.1446343718
 20
-25.1195048117
 10
-24.1921089915
 20
-25.0880398635
 10
-24.240020917
 20
-25.0551378027
 10
-24.2881219113
 20
-25.0209015099
 10
-24.3370128539
 20
-24.9847233591
 10
-24.3871519325
 20
-24.9460959933
 10
-24.4383332564
 20
-24.90505033
 10
-24.4900355048
 20
-24.8618593368
 10
-24.5422357581
 20
-24.8164199869
 10
-24.5946993771
 20
-24.7687807803
 10
-24.6466363045
 20
-24.7195119366
 10
-24.6979018196
 20
-24.6686908653
 10
-24.7485468954
 20
-24.6162164453
 10
-24.7981305408
 20
-24.5624631202
 10
-24.8465644124
 20
-24.5075046779
 10
-24.8938561578
 20
-24.4513233293
 10
-24.9397504214
 20
-24.3941935609
 10
-24.9842251536
 20
-24.3361497868
 10
-25.0272691147
 20
-24.2772309527
 10
-25.0686790184
 20
-24.217741651
 10
-25.1084573834
 20
-24.1577218934
 10
-25.1466081182
 20
-24.0972257151
 10
-25.1829607308
 20
-24.0366113335
 10
-25.2175302666
 20
-23.9759476434
 10
-25.250340884
 20
-23.9152979073
 10
-25.2812907432
 20
-23.8549971186
 10
-25.3104363474
 20
-23.7950833217
 10
-25.3378311711
 20
-23.735595451
 10
-25.3633572926
 20
-23.6769846961
 10
-25.3867134311
 20
-23.6197023535
 10
-25.4082874097
 20
-23.5635579147
 10
-25.429135825
 20
-23.5076277222
 10
-25.4494737773
 20
-23.4515177222
  0
LWPOLYLINE
  5
29B
100
AcDbEntity
  8
RACCORDO
100
AcDbPolyline
 62
250
  6
CONTINUOUS
 90
3
 70
0
 10
-22.1983175866
 20
-24.1092980427
 10
-22.2005910964
 20
-24.0219832977
 10
-22.2023876645
 20
-23.9288079299
  0
LWPOLYLINE
  5
29C
100
AcDbEntity
  8
RACCORDO
100
AcDbPolyline
 62
250
  6
CONTINUOUS
 90
4
 70
0
 10
-22.2023876645
 20
-23.9288079299
 10
-22.2047877233
 20
-23.7291186397
 10
-22.2054490239
 20
-23.6248478783
 10
-22.2054332928
 20
-23.5191761061
  0
LINE
  5
29D
100
AcDbEntity
  8
RACCORDO
100
AcDbLine
 62
250
  6
CONTINUOUS
 10
-22.2031159912
 20
-24.109306878
 11
-22.1901133297
 21
-25.7022238359
  0
LINE
  5
29E
100
AcDbEntity
  8
RACCORDO
100
AcDbLine
 62
250
  6
CONTINUOUS
 10
-25.6975389059
 20
-22.1760349975
 11
-25.7133717738
 21
-15.6758669529
  0
LINE
  5
29F
100
AcDbEntity
  8
RACCORDO
100
AcDbLine
 62
250
  6
CONTINUOUS
 10
-25.7133717738
 20
-15.6758669529
 11
-25.7204614234
 21
-9.5141671447
  0
LINE
  5
2A0
100
AcDbEntity
  8
RACCORDO
100
AcDbLine
 62
250
  6
CONTINUOUS
 10
-22.2051957915
 20
23.6248475322
 11
-22.2051769755
 21
23.5191758972
  0
LINE
  5
2A1
100
AcDbEntity
  8
0
100
AcDbLine
 62
7
  6
CONTINUOUS
 10
-22.5
 20
-22.2
 11
-22.5
 21
22.2
  0
LINE
  5
2A2
100
AcDbEntity
  8
RACCORDO
100
AcDbLine
 62
250
  6
CONTINUOUS
 10
-25.7204614234
 20
-9.5141671447
 11
-25.7216290717
 21
6.5231080248
  0
LWPOLYLINE
  5
2A3
100
AcDbEntity
  8
RACCORDO
100
AcDbPolyline
 62
250
  6
CONTINUOUS
 90
3
 70
0
 10
-22.2007235991
 20
22.9215617567
 10
-22.2000723283
 20
22.5056124675
 10
-22.2000899466
 20
22.4999999865
  0
LINE
  5
2A4
100
AcDbEntity
  8
RACCORDO
100
AcDbLine
 62
250
  6
CONTINUOUS
 10
-25.7216290717
 20
6.5231080248
 11
-25.7171167332
 21
13.2469598105
  0
LINE
  5
2A5
100
AcDbEntity
  8
RACCORDO
100
AcDbLine
 62
250
  6
CONTINUOUS
 10
-25.7171167332
 20
13.2469598105
 11
-25.7078996245
 21
18.0805261408
  0
LINE
  5
2A6
100
AcDbEntity
  8
RACCORDO
100
AcDbLine
 62
250
  6
CONTINUOUS
 10
-22.2007186692
 20
-22.9215617672
 11
-22.2000214699
 21
-22.5056124754
  0
LINE
  5
2A7
100
AcDbEntity
  8
RACCORDO
100
AcDbLine
 62
250
  6
CONTINUOUS
 10
-24.1111659592
 20
-22.1980573159
 11
-24.1111661208
 21
22.1980788268
  0
LINE
  5
2A8
100
AcDbEntity
  8
RACCORDO
100
AcDbLine
 62
250
  6
CONTINUOUS
 10
-25.7078996245
 20
18.0805261408
 11
-25.6975387144
 21
22.1760765976
  0
LWPOLYLINE
  5
2A9
100
AcDbEntity
  8
RACCORDO
100
AcDbPolyline
 62
250
  6
CONTINUOUS
 90
94
 70
0
 10
-24.1111664077
 20
22.1980788824
 10
-24.1109661685
 20
22.2375130981
 10
-24.1099689969
 20
22.2756487592
 10
-24.1082524056
 20
22.3124705837
 10
-24.1058903245
 20
22.3479423311
 10
-24.1029575681
 20
22.3820784709
 10
-24.099525452
 20
22.4149441267
 10
-24.095663815
 20
22.4464952643
 10
-24.0914296515
 20
22.4767688764
 10
-24.0868584749
 20
22.5059537936
 10
-24.0820021755
 20
22.5340331909
 10
-24.0769041265
 20
22.5610243036
 10
-24.0715650387
 20
22.5871662342
 10
-24.0660176859
 20
22.6124664172
 10
-24.0602948875
 20
22.6369199911
 10
-24.0543770109
 20
22.6607450962
 10
-24.0482867698
 20
22.6839457309
 10
-24.0420451898
 20
22.7065201519
 10
-24.0356131519
 20
22.7286745236
 10
-24.0290215103
 20
22.7503480505
 10
-24.0222671607
 20
22.7716020091
 10
-24.0152386602
 20
22.7928196726
 10
-24.0079293425
 20
22.8140038905
 10
-24.0003445405
 20
22.8351439314
 10
-23.9923647021
 20
22.8565942702
 10
-23.9839672949
 20
22.8783756761
 10
-23.9751474729
 20
22.9004497945
 10
-23.9657893605
 20
22.9230738829
 10
-23.9558444739
 20
22.9462957231
 10
-23.9453113854
 20
22.9700379003
 10
-23.9341309337
 20
22.9943633474
 10
-23.9222549258
 20
23.0192940687
 10
-23.9096729195
 20
23.0447691102
 10
-23.8963803984
 20
23.070724803
 10
-23.8823462408
 20
23.0971463214
 10
-23.8675457173
 20
23.1240044428
 10
-23.8519884504
 20
23.1512148102
 10
-23.8356495445
 20
23.1787538725
 10
-23.8185036097
 20
23.2065971256
 10
-23.8005655531
 20
23.2346606705
 10
-23.7818131667
 20
23.2629202842
 10
-23.7622252374
 20
23.2913488601
 10
-23.7418247851
 20
23.319860758
 10
-23.7205953393
 20
23.3484286086
 10
-23.6985184906
 20
23.3770266035
 10
-23.6756212275
 20
23.4055746455
 10
-23.6518895127
 20
23.4340474834
 10
-23.6273113905
 20
23.4624162406
 10
-23.601924058
 20
23.4905993022
 10
-23.5756356947
 20
23.5186582943
 10
-23.5485186989
 20
23.5464750436
 10
-23.5208799093
 20
23.5737185776
 10
-23.4926452197
 20
23.6004617698
 10
-23.4639103502
 20
23.6266106997
 10
-23.4352889828
 20
23.6516386826
 10
-23.4068971025
 20
23.6755156059
 10
-23.3787062204
 20
23.6983308637
 10
-23.3511619591
 20
23.7197960027
 10
-23.3245166189
 20
23.7398211716
 10
-23.2986281876
 20
23.7586049175
 10
-23.273358505
 20
23.7763039327
 10
-23.2488464894
 20
23.7928881989
 10
-23.2250302215
 20
23.8084704255
 10
-23.2014467893
 20
23.8233894909
 10
-23.1781324792
 20
23.8376497841
 10
-23.1550880159
 20
23.8512814622
 10
-23.1317679597
 20
23.8646167691
 10
-23.1081229725
 20
23.8776724314
 10
-23.0842086949
 20
23.890417707
 10
-23.0596134162
 20
23.903072672
 10
-23.0342792153
 20
23.9156390353
 10
-23.0082519167
 20
23.9280639734
 10
-22.9812597233
 20
23.9404552132
 10
-22.9533019156
 20
23.9527732521
 10
-22.9243586978
 20
23.9649778376
 10
-22.8941180704
 20
23.977146543
 10
-22.8624348865
 20
23.9892674353
 10
-22.8294250311
 20
24.0012254884
 10
-22.7951651466
 20
24.0129296102
 10
-22.7594637806
 20
24.0243740682
 10
-22.722494749
 20
24.0354290566
 10
-22.6848983445
 20
24.0458573667
 10
-22.6467170851
 20
24.0556272288
 10
-22.6079252496
 20
24.0647126837
 10
-22.5690829629
 20
24.0729575646
 10
-22.5305132142
 20
24.0803183407
 10
-22.4919321408
 20
24.0868607484
 10
-22.4529965963
 20
24.0926050325
 10
-22.4141147479
 20
24.0974827639
 10
-22.3749145681
 20
24.1015460013
 10
-22.3338726078
 20
24.1048782064
 10
-22.2904874608
 20
24.1073849203
 10
-22.2452906683
 20
24.1089003475
 10
-22.1983067051
 20
24.1092982133
  0
LINE
  5
2AA
100
AcDbEntity
  8
RACCORDO
100
AcDbLine
 62
250
  6
CONTINUOUS
 10
-22.203042569
 20
24.1092986082
 11
-22.1853409227
 21
25.7022661872
  0
LWPOLYLINE
  5
2AB
100
AcDbEntity
  8
RACCORDO
100
AcDbPolyline
 62
250
  6
CONTINUOUS
 90
5
 70
0
 10
-22.1983067051
 20
24.1092982133
 10
-22.2005478504
 20
24.0219830784
 10
-22.2023061836
 20
23.9288074343
 10
-22.2036089813
 20
23.8308185612
 10
-22.2051957915
 20
23.6248475322
  0
LINE
  5
2AC
100
AcDbEntity
  8
RACCORDO
100
AcDbLine
 62
250
  6
CONTINUOUS
 10
24.0239014412
 20
-22.1998058833
 11
24.4287299144
 21
-22.1929776595
  0
LWPOLYLINE
  5
2AD
100
AcDbEntity
  8
RACCORDO
100
AcDbPolyline
 62
250
  6
CONTINUOUS
 90
3
 70
0
 10
24.0239014412
 20
-22.1998058833
 10
23.9307417358
 20
-22.2010659671
 10
23.8327359965
 20
-22.2018968925
  0
LINE
  5
2AE
100
AcDbEntity
  8
RACCORDO
100
AcDbLine
 62
250
  6
CONTINUOUS
 10
24.4287299144
 20
-22.1929776595
 11
25.6975387133
 21
-22.1760765976
  0
LINE
  5
2AF
100
AcDbEntity
  8
RACCORDO
100
AcDbLine
 62
250
  6
CONTINUOUS
 10
22.1853408361
 20
-25.7022661878
 11
20.1133539073
 21
-25.7136165822
  0
LINE
  5
2B0
100
AcDbEntity
  8
RACCORDO
100
AcDbLine
 62
250
  6
CONTINUOUS
 10
20.1133539073
 20
-25.7136165822
 11
17.1448023098
 21
-25.7209317862
  0
LINE
  5
2B1
100
AcDbEntity
  8
RACCORDO
100
AcDbLine
 62
250
  6
CONTINUOUS
 10
17.1448023098
 20
-25.7209317862
 11
-11.75
 21
-25.7229874159
  0
LINE
  5
2B2
100
AcDbEntity
  8
0
100
AcDbLine
 62
7
  6
CONTINUOUS
 10
22.2
 20
-22.5
 11
-22.2
 21
-22.5
  0
LWPOLYLINE
  5
2B3
100
AcDbEntity
  8
RACCORDO
100
AcDbPolyline
 62
250
  6
CONTINUOUS
 90
3
 70
0
 10
-22.9223905635
 20
-22.2008630024
 10
-22.5056244498
 20
-22.2000846755
 10
-22.4999999815
 20
-22.200105347
  0
LINE
  5
2B4
100
AcDbEntity
  8
RACCORDO
100
AcDbLine
 62
250
  6
CONTINUOUS
 10
23.8327359965
 20
-22.2018968925
 11
23.2069039571
 21
-22.2028893839
  0
LINE
  5
2B5
100
AcDbEntity
  8
RACCORDO
100
AcDbLine
 62
250
  6
CONTINUOUS
 10
-11.75
 20
-25.7229874348
 11
-17.0470495549
 21
-25.7210595879
  0
LINE
  5
2B6
100
AcDbEntity
  8
RACCORDO
100
AcDbLine
 62
250
  6
CONTINUOUS
 10
22.2030424788
 20
-24.109298608
 11
-22.2031160665
 21
-24.1092988125
  0
LINE
  5
2B7
100
AcDbEntity
  8
RACCORDO
100
AcDbLine
 62
250
  6
CONTINUOUS
 10
22.9223905921
 20
-22.2008526911
 11
22.5056244608
 21
-22.2000251478
  0
LINE
  5
2B8
100
AcDbEntity
  8
RACCORDO
100
AcDbLine
 62
250
  6
CONTINUOUS
 10
-17.0470495549
 20
-25.7210595879
 11
-19.8251210772
 21
-25.7146908923
  0
LWPOLYLINE
  5
2B9
100
AcDbEntity
  8
RACCORDO
100
AcDbPolyline
 62
250
  6
CONTINUOUS
 90
4
 70
0
 10
-23.5208680905
 20
-22.2019900865
 10
-23.3098131532
 20
-22.2029318662
 10
-23.2069039625
 20
-22.2029341502
 10
-22.9223905635
 20
-22.2008630024
  0
LINE
  5
2BA
100
AcDbEntity
  8
RACCORDO
100
AcDbLine
 62
250
  6
CONTINUOUS
 10
-19.8251210772
 20
-25.7146908923
 11
-22.1901132835
 21
-25.7022302509
  0
LWPOLYLINE
  5
2BB
100
AcDbEntity
  8
RACCORDO
100
AcDbPolyline
 62
250
  6
CONTINUOUS
 90
82
 70
0
 10
-22.1983175866
 20
-24.1092980427
 10
-22.2433427144
 20
-24.1089396253
 10
-22.2866021232
 20
-24.1075582776
 10
-22.3280745146
 20
-24.1052734878
 10
-22.367177493
 20
-24.1022488463
 10
-22.4044681102
 20
-24.0985686298
 10
-22.4416315628
 20
-24.0941258001
 10
-22.4791324114
 20
-24.0888445848
 10
-22.5164705083
 20
-24.0827912265
 10
-22.5538740878
 20
-24.0759570229
 10
-22.5915687325
 20
-24.0682866256
 10
-22.6292917968
 20
-24.0598081943
 10
-22.6665458121
 20
-24.0506535275
 10
-22.7033064195
 20
-24.0408539698
 10
-22.7395791476
 20
-24.0304209353
 10
-22.7749275307
 20
-24.0195110678
 10
-22.8092251648
 20
-24.0082131756
 10
-22.8426020209
 20
-23.996532998
 10
-22.8750163665
 20
-23.9845289534
 10
-22.9064177588
 20
-23.9722673693
 10
-22.936868452
 20
-23.9597710358
 10
-22.9664955642
 20
-23.9470273399
 10
-22.9953607833
 20
-23.9340482094
 10
-23.0234130441
 20
-23.920887605
 10
-23.0506094083
 20
-23.9075906893
 10
-23.0768063734
 20
-23.8942721385
 10
-23.1021666138
 20
-23.8808884496
 10
-23.127097468
 20
-23.8672300973
 10
-23.1515445287
 20
-23.8533346445
 10
-23.1755614278
 20
-23.8391922106
 10
-23.1996931952
 20
-23.8244793699
 10
-23.2239143463
 20
-23.8091887896
 10
-23.2482198138
 20
-23.79330585
 10
-23.2731534844
 20
-23.7764462142
 10
-23.2987931629
 20
-23.758489401
 10
-23.3249859961
 20
-23.739477273
 10
-23.3519028344
 20
-23.7192315776
 10
-23.3796550484
 20
-23.6975784992
 10
-23.408022472
 20
-23.6745862473
 10
-23.4366797413
 20
-23.6504437473
 10
-23.4656214064
 20
-23.6250815109
 10
-23.4947551567
 20
-23.5984993469
 10
-23.5236570341
 20
-23.5710303425
 10
-23.5522424429
 20
-23.542720952
 10
-23.580536129
 20
-23.5135107727
 10
-23.6083124999
 20
-23.4836102696
 10
-23.635530253
 20
-23.4530523631
 10
-23.6621944249
 20
-23.4218184021
 10
-23.6881716515
 20
-23.3900627354
 10
-23.7134532635
 20
-23.3578006766
 10
-23.7380300305
 20
-23.3250474827
 10
-23.7617871723
 20
-23.2919724974
 10
-23.7847272839
 20
-23.2585977851
 10
-23.8068518968
 20
-23.2249455549
 10
-23.8280651128
 20
-23.1911986323
 10
-23.8483817844
 20
-23.157382497
 10
-23.8678145011
 20
-23.1235254599
 10
-23.8862852071
 20
-23.0898259504
 10
-23.9038116361
 20
-23.056330667
 10
-23.920427922
 20
-23.0230523078
 10
-23.9360989122
 20
-22.9901461108
 10
-23.9508176065
 20
-22.9577373112
 10
-23.9646616947
 20
-22.92575955
 10
-23.9777217988
 20
-22.8940785353
 10
-23.9899741163
 20
-22.8628718465
 10
-24.0014978384
 20
-22.8320053832
 10
-24.0124968731
 20
-22.800861703
 10
-24.0229533921
 20
-22.769460016
 10
-24.0328708327
 20
-22.7377992425
 10
-24.0424174968
 20
-22.7052108941
 10
-24.0515614214
 20
-22.6716383222
 10
-24.0602448789
 20
-22.6371391394
 10
-24.0685321764
 20
-22.6012006962
 10
-24.0763545931
 20
-22.5638000159
 10
-24.0836229157
 20
-22.5249583287
 10
-24.0903094014
 20
-22.4842216174
 10
-24.0963109155
 20
-22.4414984048
 10
-24.1014883269
 20
-22.3968906263
 10
-24.1057117231
 20
-22.3502368172
 10
-24.1088338063
 20
-22.3014983097
 10
-24.1107038471
 20
-22.2507602061
 10
-24.1111662936
 20
-22.1980573455
  0
LINE
  5
2BC
100
AcDbEntity
  8
RACCORDO
100
AcDbLine
 62
250
  6
CONTINUOUS
 10
-24.2665228684
 20
-22.1955029999
 11
-25.6975389059
 21
-22.1760349975
  0
LWPOLYLINE
  5
2BD
100
AcDbEntity
  8
RACCORDO
100
AcDbPolyline
 62
250
  6
CONTINUOUS
 90
5
 70
0
 10
-24.2665228684
 20
-22.1955029999
 10
-24.0239010166
 20
-22.1997160134
 10
-23.9307411345
 20
-22.2009155087
 10
-23.832735326
 20
-22.2016940293
 10
-23.5208680905
 20
-22.2019900865
  0
LINE
  5
2BE
100
AcDbEntity
  8
RACCORDO
100
AcDbLine
 62
250
  6
CONTINUOUS
 10
-22.2051769755
 20
23.5191758972
 11
-22.2016991116
 21
23.1061505485
  0
LINE
  5
2BF
100
AcDbEntity
  8
RACCORDO
100
AcDbLine
 62
250
  6
CONTINUOUS
 10
-22.2016991116
 20
23.1061505485
 11
-22.2007235991
 21
22.9215617567
  0
LINE
  5
2C0
100
AcDbEntity
  8
RACCORDO
100
AcDbLine
 62
250
  6
CONTINUOUS
 10
-22.2000214699
 20
-22.5056124754
 11
-22.2000000009
 21
-22.5
  0
LINE
  5
2C1
100
AcDbEntity
  8
RACCORDO
100
AcDbLine
 62
250
  6
CONTINUOUS
 10
-22.2023722615
 20
-23.2056097904
 11
-22.2007186692
 21
-22.9215617672
  0
LINE
  5
2C2
100
AcDbEntity
  8
RACCORDO
100
AcDbLine
 62
250
  6
CONTINUOUS
 10
-22.2054332928
 20
-23.5191761061
 11
-22.2023722615
 21
-23.2056097904
  0
LINE
  5
2C3
100
AcDbEntity
  8
RACCORDO
100
AcDbLine
 62
250
  6
CONTINUOUS
 10
22.5056244608
 20
-22.2000251478
 11
22.5
 21
-22.2000000002
  0
LINE
  5
2C4
100
AcDbEntity
  8
RACCORDO
100
AcDbLine
 62
250
  6
CONTINUOUS
 10
23.2069039571
 20
-22.2028893839
 11
22.9223905921
 21
-22.2008526911
  0
LINE
  5
2C5
100
AcDbEntity
  8
RACCORDO
100
AcDbLine
 62
250
  6
CONTINUOUS
 10
-11.75
 20
-39.7614222831
 11
-11.75
 21
-22.5
  0
LWPOLYLINE
  5
2C6
100
AcDbEntity
  8
RACCORDO
100
AcDbPolyline
 62
250
  6
CONTINUOUS
 90
3
 70
0
 10
-11.75
 20
39.7614222831
 10
-11.750053503
 20
22.5055894833
 10
-11.7500899457
 20
22.5
  0
LWPOLYLINE
  5
2C7
100
AcDbEntity
  8
0
100
AcDbPolyline
 62
7
  6
CONTINUOUS
 90
4
 70
0
 43
0.3500000006
 10
-2.3571427875
 20
49.2731906433
 10
-2.3571427875
 20
50.1303331146
 10
-1.9285714102
 20
50.5589020844
 10
-1.2857142735
 20
50.5589020844
  0
LWPOLYLINE
  5
2C8
100
AcDbEntity
  8
0
100
AcDbPolyline
 62
7
  6
CONTINUOUS
 90
13
 70
0
 43
0.3500000006
 10
0.0
 20
49.701759613
 10
0.0
 20
50.9874755859
 10
0.2142857063
 20
51.4160445557
 10
0.6428571367
 20
51.8446180573
 10
0.8571428254
 20
51.8446180573
 10
1.2857142735
 20
51.4160445557
 10
1.5000000329
 20
50.9874755859
 10
1.5000000329
 20
49.701759613
 10
1.2857142735
 20
49.2731906433
 10
0.8571428254
 20
48.8446171417
 10
0.6428571367
 20
48.8446171417
 10
0.2142857063
 20
49.2731906433
 10
0.0
 20
49.701759613
  0
LWPOLYLINE
  5
2C9
100
AcDbEntity
  8
RACCORDO
100
AcDbPolyline
 62
250
  6
CONTINUOUS
 90
3
 70
0
 10
-39.7614201801
 20
0.0000054405
 10
-22.5055876945
 20
-0.0000626697
 10
-22.5
 20
-0.0001053467
  0
LWPOLYLINE
  5
2CA
100
AcDbEntity
  8
RACCORDO
100
AcDbPolyline
 62
250
  6
CONTINUOUS
 90
3
 70
0
 10
39.7614201801
 20
-0.0000054405
 10
22.5055876945
 20
0.0000626697
 10
22.5
 20
0.0001053467
  0
LINE
  5
2CB
100
AcDbEntity
  8
0
100
AcDbLine
 62
7
  6
CONTINUOUS
 10
13.568751
 20
-28.800022
 11
12.637619
 21
-25.899884
  0
LINE
  5
2CC
100
AcDbEntity
  8
0
100
AcDbLine
 62
7
  6
CONTINUOUS
 10
13.217648
 20
-25.899884
 11
13.85878
 21
-27.89678
  0
LINE
  5
2CD
100
AcDbEntity
  8
RACCORDO
100
AcDbLine
 62
250
  6
CONTINUOUS
 10
11.7500176943
 20
39.7514881526
 11
11.75
 21
22.5
  0
LWPOLYLINE
  5
2CE
100
AcDbEntity
  8
RACCORDO
100
AcDbPolyline
 62
250
  6
CONTINUOUS
 90
3
 70
0
 10
11.75
 20
-39.7614222831
 10
11.750053503
 20
-22.5055894833
 10
11.7500899457
 20
-22.5
  0
LINE
  5
2CF
100
AcDbEntity
  8
0
100
AcDbLine
 62
7
  6
CONTINUOUS
 10
24.346695
 20
-28.800007
 11
23.765441
 21
-27.678657
  0
LINE
  5
2D0
100
AcDbEntity
  8
0
100
AcDbLine
 62
7
  6
CONTINUOUS
 10
24.3825957907
 20
-27.6089026669
 11
25.0
 21
-28.8
  0
LINE
  5
2D1
100
AcDbEntity
  8
0
100
AcDbLine
 62
7
  6
CONTINUOUS
 10
17.755031
 20
-28.800015
 11
17.206656
 21
-26.887573
  0
LINE
  5
2D2
100
AcDbEntity
  8
0
100
AcDbLine
 62
7
  6
CONTINUOUS
 10
17.503471
 20
-25.899884
 11
18.045039
 21
-27.788552
  0
LINE
  5
2D3
100
AcDbEntity
  8
RACCORDO
100
AcDbLine
 62
250
  6
CONTINUOUS
 10
11.75
 20
39.7614222831
 11
11.7500176943
 21
39.7514881526
  0
LINE
  5
2D4
100
AcDbEntity
  8
0
100
AcDbLine
 62
7
  6
CONTINUOUS
 10
15.466605
 20
-28.800022
 11
15.466612
 21
-25.899884
  0
LINE
  5
2D5
100
AcDbEntity
  8
0
100
AcDbLine
 62
7
  6
CONTINUOUS
 10
21.352373
 20
-27.678657
 11
21.071268
 21
-26.803118
  0
LINE
  5
2D6
100
AcDbEntity
  8
0
100
AcDbLine
 62
7
  6
CONTINUOUS
 10
21.712408
 20
-28.800007
 11
21.529302
 21
-28.229679
  0
LINE
  5
2D7
100
AcDbEntity
  8
0
100
AcDbLine
 62
7
  6
CONTINUOUS
 10
21.361297
 20
-25.899877
 11
22.292437
 21
-28.800015
  0
LINE
  5
2D8
100
AcDbEntity
  8
0
100
AcDbLine
 62
7
  6
CONTINUOUS
 10
16.046634
 20
-25.899884
 11
16.046627
 21
-28.800015
  0
LINE
  5
2D9
100
AcDbEntity
  8
0
100
AcDbLine
 62
7
  6
CONTINUOUS
 10
16.626634
 20
-28.800015
 11
16.626634
 21
-25.899884
  0
LINE
  5
2DA
100
AcDbEntity
  8
0
100
AcDbLine
 62
7
  6
CONTINUOUS
 10
17.206656
 20
-26.887573
 11
17.206656
 21
-28.800015
  0
LINE
  5
2DB
100
AcDbEntity
  8
0
100
AcDbLine
 62
7
  6
CONTINUOUS
 10
18.883421
 20
-28.800015
 11
18.883414
 21
-26.887573
  0
LWPOLYLINE
  5
2DC
100
AcDbEntity
  8
RACCORDO
100
AcDbPolyline
 62
250
  6
CONTINUOUS
 90
3
 70
0
 10
22.1983175866
 20
24.1092980425
 10
22.2005910577
 20
24.0219832976
 10
22.2023875875
 20
23.9288079298
  0
LWPOLYLINE
  5
2DD
100
AcDbEntity
  8
RACCORDO
100
AcDbPolyline
 62
250
  6
CONTINUOUS
 90
4
 70
0
 10
22.2023875875
 20
23.9288079298
 10
22.2047875595
 20
23.7291186397
 10
22.2054488153
 20
23.6248478783
 10
22.205433084
 20
23.5191761061
  0
LINE
  5
2DE
100
AcDbEntity
  8
RACCORDO
100
AcDbLine
 62
250
  6
CONTINUOUS
 10
22.2051767656
 20
-23.5191758972
 11
22.2016991223
 21
-23.1061505485
  0
LINE
  5
2DF
100
AcDbEntity
  8
RACCORDO
100
AcDbLine
 62
250
  6
CONTINUOUS
 10
22.2031159027
 20
24.1093068778
 11
22.1901131579
 21
25.7022238375
  0
LINE
  5
2E0
100
AcDbEntity
  8
RACCORDO
100
AcDbLine
 62
250
  6
CONTINUOUS
 10
22.2016991223
 20
-23.1061505485
 11
22.2003563429
 21
-22.7628724813
  0
LINE
  5
2E1
100
AcDbEntity
  8
RACCORDO
100
AcDbLine
 62
250
  6
CONTINUOUS
 10
22.2051955813
 20
-23.6248475322
 11
22.2051767656
 21
-23.5191758972
  0
LINE
  5
2E2
100
AcDbEntity
  8
0
100
AcDbLine
 62
7
  6
CONTINUOUS
 10
19.463443
 20
-25.899884
 11
19.463443
 21
-28.800015
  0
LINE
  5
2E3
100
AcDbEntity
  8
0
100
AcDbLine
 62
7
  6
CONTINUOUS
 10
22.5
 20
22.2
 11
22.5
 21
-22.2
  0
LINE
  5
2E4
100
AcDbEntity
  8
0
100
AcDbLine
 62
7
  6
CONTINUOUS
 10
22.679115
 20
-28.800007
 11
22.679115
 21
-25.899877
  0
LWPOLYLINE
  5
2E5
100
AcDbEntity
  8
RACCORDO
100
AcDbPolyline
 62
250
  6
CONTINUOUS
 90
3
 70
0
 10
22.2003563429
 20
-22.7628724813
 10
22.2000723283
 20
-22.5056124675
 10
22.2000899466
 20
-22.4999999865
  0
LINE
  5
2E6
100
AcDbEntity
  8
RACCORDO
100
AcDbLine
 62
250
  6
CONTINUOUS
 10
22.2011113435
 20
23.0111122304
 11
22.2000000009
 21
22.5
  0
LINE
  5
2E7
100
AcDbEntity
  8
RACCORDO
100
AcDbLine
 62
250
  6
CONTINUOUS
 10
22.205433084
 20
23.5191761061
 11
22.2011113435
 21
23.0111122304
  0
LINE
  5
2E8
100
AcDbEntity
  8
RACCORDO
100
AcDbLine
 62
250
  6
CONTINUOUS
 10
22.2030424788
 20
-24.109298608
 11
22.1853408361
 21
-25.7022661878
  0
LWPOLYLINE
  5
2E9
100
AcDbEntity
  8
RACCORDO
100
AcDbPolyline
 62
250
  6
CONTINUOUS
 90
5
 70
0
 10
22.1983067051
 20
-24.1092982131
 10
22.2005478105
 20
-24.0219830782
 10
22.2023061047
 20
-23.9288074342
 10
22.2036088651
 20
-23.8308185611
 10
22.2051955813
 20
-23.6248475322
  0
LINE
  5
2EA
100
AcDbEntity
  8
0
100
AcDbLine
 62
7
  6
CONTINUOUS
 10
13.85878
 20
-27.89678
 11
14.499905
 21
-25.899884
  0
LINE
  5
2EB
100
AcDbEntity
  8
0
100
AcDbLine
 62
7
  6
CONTINUOUS
 10
15.079934
 20
-25.899884
 11
14.148794
 21
-28.800015
  0
LINE
  5
2EC
100
AcDbEntity
  8
RACCORDO
100
AcDbLine
 62
250
  6
CONTINUOUS
 10
-24.0239014415
 20
22.1998059399
 11
-24.4287299144
 21
22.1929776595
  0
LWPOLYLINE
  5
2ED
100
AcDbEntity
  8
RACCORDO
100
AcDbPolyline
 62
250
  6
CONTINUOUS
 90
3
 70
0
 10
-24.0239014415
 20
22.1998059399
 10
-23.9307417361
 20
22.2010660702
 10
-23.8327359968
 20
22.2018970322
  0
LINE
  5
2EE
100
AcDbEntity
  8
RACCORDO
100
AcDbLine
 62
250
  6
CONTINUOUS
 10
-24.4287299144
 20
22.1929776595
 11
-25.6975387134
 21
22.1760765976
  0
LINE
  5
2EF
100
AcDbEntity
  8
0
100
AcDbLine
 62
7
  6
CONTINUOUS
 10
-22.2
 20
22.5
 11
22.2
 21
22.5
  0
LWPOLYLINE
  5
2F0
100
AcDbEntity
  8
RACCORDO
100
AcDbPolyline
 62
250
  6
CONTINUOUS
 90
3
 70
0
 10
22.9223905634
 20
22.2008630024
 10
22.5056244498
 20
22.2000846755
 10
22.4999999815
 20
22.200105347
  0
LINE
  5
2F1
100
AcDbEntity
  8
RACCORDO
100
AcDbLine
 62
250
  6
CONTINUOUS
 10
-23.8327359968
 20
22.2018970322
 11
-23.2069039573
 21
22.2028893839
  0
LINE
  5
2F2
100
AcDbEntity
  8
RACCORDO
100
AcDbLine
 62
250
  6
CONTINUOUS
 10
-22.9223905922
 20
22.2008526911
 11
-22.5
 21
22.2000000002
  0
LWPOLYLINE
  5
2F3
100
AcDbEntity
  8
RACCORDO
100
AcDbPolyline
 62
250
  6
CONTINUOUS
 90
4
 70
0
 10
23.5208680902
 20
22.2019898917
 10
23.309813153
 20
22.2029318152
 10
23.2069039623
 20
22.2029341502
 10
22.9223905634
 20
22.2008630024
  0
LINE
  5
2F4
100
AcDbEntity
  8
RACCORDO
100
AcDbLine
 62
250
  6
CONTINUOUS
 10
-23.2069039573
 20
22.2028893839
 11
-22.9223905922
 21
22.2008526911
  0
LINE
  5
2F5
100
AcDbEntity
  8
RACCORDO
100
AcDbLine
 62
250
  6
CONTINUOUS
 10
24.2665228684
 20
22.1955029999
 11
25.6975389058
 21
22.1760349975
  0
LWPOLYLINE
  5
2F6
100
AcDbEntity
  8
RACCORDO
100
AcDbPolyline
 62
250
  6
CONTINUOUS
 90
5
 70
0
 10
24.2665228684
 20
22.1955029999
 10
24.0239010164
 20
22.1997159545
 10
23.9307411342
 20
22.2009154022
 10
23.8327353257
 20
22.2016938862
 10
23.5208680902
 20
22.2019898917
  0
LINE
  5
2F7
100
AcDbEntity
  8
RACCORDO
100
AcDbLine
 62
250
  6
CONTINUOUS
 10
25.6975389058
 20
22.1760349975
 11
25.7156487673
 21
14.3185032827
  0
LINE
  5
2F8
100
AcDbEntity
  8
RACCORDO
100
AcDbLine
 62
250
  6
CONTINUOUS
 10
25.7156487673
 20
14.3185032827
 11
25.7214729708
 21
7.1491661121
  0
LINE
  5
2F9
100
AcDbEntity
  8
0
100
AcDbLine
 62
7
  6
CONTINUOUS
 10
23.25114
 20
-26.436398
 11
23.251148
 21
-27.142128
  0
LINE
  5
2FA
100
AcDbEntity
  8
0
100
AcDbLine
 62
7
  6
CONTINUOUS
 10
23.25921
 20
-27.67865
 11
23.259144
 21
-28.800007
  0
LINE
  5
2FB
100
AcDbEntity
  8
RACCORDO
100
AcDbLine
 62
250
  6
CONTINUOUS
 10
25.7214729708
 20
7.1491661121
 11
25.7171167335
 21
-13.2469595505
  0
LINE
  5
2FC
100
AcDbEntity
  8
RACCORDO
100
AcDbLine
 62
250
  6
CONTINUOUS
 10
25.7171167335
 20
-13.2469595505
 11
25.7075081478
 21
-18.2252181386
  0
LINE
  5
2FD
100
AcDbEntity
  8
RACCORDO
100
AcDbLine
 62
250
  6
CONTINUOUS
 10
24.1111659591
 20
22.1980573159
 11
24.1111661208
 21
-22.1980788268
  0
LINE
  5
2FE
100
AcDbEntity
  8
RACCORDO
100
AcDbLine
 62
250
  6
CONTINUOUS
 10
25.7075081478
 20
-18.2252181386
 11
25.6975387143
 21
-22.1760765976
  0
LWPOLYLINE
  5
2FF
100
AcDbEntity
  8
RACCORDO
100
AcDbPolyline
 62
250
  6
CONTINUOUS
 90
94
 70
0
 10
24.1111664077
 20
-22.1980788824
 10
24.1109661684
 20
-22.2375130982
 10
24.1099689969
 20
-22.2756487594
 10
24.1082524056
 20
-22.312470584
 10
24.1058903244
 20
-22.3479423314
 10
24.102957568
 20
-22.3820784712
 10
24.0995254519
 20
-22.414944127
 10
24.0956638149
 20
-22.4464952645
 10
24.0914296514
 20
-22.4767688765
 10
24.0868584749
 20
-22.5059537937
 10
24.0820021755
 20
-22.5340331908
 10
24.0769041265
 20
-22.5610243034
 10
24.0715650387
 20
-22.5871662338
 10
24.0660176859
 20
-22.6124664167
 10
24.0602948876
 20
-22.6369199905
 10
24.054377011
 20
-22.6607450955
 10
24.0482867699
 20
-22.68394573
 10
24.04204519
 20
-22.7065201509
 10
24.0356131521
 20
-22.7286745224
 10
24.0290215106
 20
-22.7503480492
 10
24.0222671611
 20
-22.7716020077
 10
24.0152386606
 20
-22.7928196711
 10
24.007929343
 20
-22.8140038888
 10
24.000344541
 20
-22.8351439296
 10
23.9923647028
 20
-22.8565942684
 10
23.9839672955
 20
-22.8783756743
 10
23.9751474735
 20
-22.9004497926
 10
23.9657893613
 20
-22.923073881
 10
23.9558444746
 20
-22.9462957213
 10
23.9453113861
 20
-22.9700378986
 10
23.9341309344
 20
-22.9943633459
 10
23.9222549264
 20
-23.0192940674
 10
23.90967292
 20
-23.0447691091
 10
23.8963803987
 20
-23.0707248022
 10
23.8823462409
 20
-23.0971463209
 10
23.8675457173
 20
-23.1240044427
 10
23.8519884501
 20
-23.1512148105
 10
23.8356495439
 20
-23.1787538733
 10
23.8185036088
 20
-23.2065971269
 10
23.8005655519
 20
-23.2346606724
 10
23.781813165
 20
-23.2629202866
 10
23.7622252352
 20
-23.2913488631
 10
23.7418247823
 20
-23.3198607617
 10
23.7205953359
 20
-23.348428613
 10
23.6985184865
 20
-23.3770266086
 10
23.6756212227
 20
-23.4055746513
 10
23.651889507
 20
-23.43404749
 10
23.6273113839
 20
-23.4624162479
 10
23.6019240504
 20
-23.4905993103
 10
23.575635686
 20
-23.5186583033
 10
23.5485186891
 20
-23.5464750535
 10
23.5208798983
 20
-23.5737185881
 10
23.4926452075
 20
-23.6004617811
 10
23.4639103369
 20
-23.6266107115
 10
23.4352889685
 20
-23.6516386948
 10
23.4068970875
 20
-23.6755156182
 10
23.3787062047
 20
-23.698330876
 10
23.3511619431
 20
-23.7197960149
 10
23.3245166026
 20
-23.7398211836
 10
23.2986281711
 20
-23.7586049292
 10
23.2733584882
 20
-23.7763039441
 10
23.2488464723
 20
-23.7928882102
 10
23.225030204
 20
-23.8084704367
 10
23.2014467712
 20
-23.823389502
 10
23.1781324605
 20
-23.8376497953
 10
23.1550879965
 20
-23.8512814734
 10
23.1317679393
 20
-23.8646167805
 10
23.1081229508
 20
-23.8776724431
 10
23.0842086718
 20
-23.890417719
 10
23.0596133914
 20
-23.9030726845
 10
23.0342791888
 20
-23.9156390482
 10
23.0082518882
 20
-23.9280639867
 10
22.9812596927
 20
-23.9404552269
 10
22.9533018827
 20
-23.9527732662
 10
22.9243586623
 20
-23.9649778521
 10
22.8941180321
 20
-23.9771465579
 10
22.862434845
 20
-23.9892674507
 10
22.8294249861
 20
-24.0012255042
 10
22.7951650982
 20
-24.0129296262
 10
22.7594637291
 20
-24.0243740841
 10
22.7224946946
 20
-24.0354290722
 10
22.6848982876
 20
-24.0458573818
 10
22.6467170261
 20
-24.0556272431
 10
22.6079251889
 20
-24.0647126972
 10
22.5690829007
 20
-24.0729575771
 10
22.5305131511
 20
-24.080318352
 10
22.4919320769
 20
-24.0868607585
 10
22.4529965309
 20
-24.0926050413
 10
22.4141146766
 20
-24.097482772
 10
22.37491449
 20
-24.1015460084
 10
22.3338725324
 20
-24.1048782117
 10
22.290487401
 20
-24.107384923
 10
22.2452906336
 20
-24.1089003482
 10
22.1983067051
 20
-24.1092982131
  0
LWPOLYLINE
  5
300
100
AcDbEntity
  8
RACCORDO
100
AcDbPolyline
 62
250
  6
CONTINUOUS
 90
20
 70
0
 10
25.6975387133
 20
-22.1760765976
 10
25.696557975
 20
-22.2522487456
 10
25.6940087154
 20
-22.3258911328
 10
25.6900506174
 20
-22.3969729627
 10
25.6848473418
 20
-22.4654252226
 10
25.6785404236
 20
-22.5312814215
 10
25.6712400468
 20
-22.5946716435
 10
25.6630804072
 20
-22.655516855
 10
25.6541864961
 20
-22.7138881038
 10
25.6446208127
 20
-22.7701413469
 10
25.6344823748
 20
-22.824244594
 10
25.6238690364
 20
-22.8762253418
 10
25.6127971915
 20
-22.926527178
 10
25.6013622681
 20
-22.975148651
 10
25.5896076585
 20
-23.0220951229
 10
25.5774289849
 20
-23.0678144406
 10
25.5648746786
 20
-23.1123186453
 10
25.5519667068
 20
-23.1556580833
 10
25.5385161832
 20
-23.1983410587
 10
25.5243083819
 20
-23.2404099862
  0
LINE
  5
301
100
AcDbEntity
  8
0
100
AcDbLine
 62
7
  6
CONTINUOUS
 10
18.045039
 20
-27.788552
 11
18.586606
 21
-25.899884
  0
LINE
  5
302
100
AcDbEntity
  8
0
100
AcDbLine
 62
7
  6
CONTINUOUS
 10
18.883414
 20
-26.887573
 11
18.335039
 21
-28.800007
  0
LINE
  5
303
100
AcDbEntity
  8
RACCORDO
100
AcDbLine
 62
250
  6
CONTINUOUS
 10
-22.1853409227
 20
25.7022661872
 11
-20.0055456608
 21
25.7140286507
  0
LINE
  5
304
100
AcDbEntity
  8
RACCORDO
100
AcDbLine
 62
250
  6
CONTINUOUS
 10
-20.0055456608
 20
25.7140286507
 11
-16.575783557
 21
25.7215989929
  0
LINE
  5
305
100
AcDbEntity
  8
RACCORDO
100
AcDbLine
 62
250
  6
CONTINUOUS
 10
-22.203042569
 20
24.1092986082
 11
22.203115978
 21
24.1092988123
  0
LINE
  5
306
100
AcDbEntity
  8
RACCORDO
100
AcDbLine
 62
250
  6
CONTINUOUS
 10
-16.575783557
 20
25.7215989929
 11
18.6833928174
 21
25.7180809255
  0
LINE
  5
307
100
AcDbEntity
  8
RACCORDO
100
AcDbLine
 62
250
  6
CONTINUOUS
 10
18.6833928174
 20
25.7180809255
 11
21.2475505368
 21
25.7085088294
  0
LWPOLYLINE
  5
308
100
AcDbEntity
  8
RACCORDO
100
AcDbPolyline
 62
250
  6
CONTINUOUS
 90
82
 70
0
 10
22.1983175866
 20
24.1092980425
 10
22.2433426806
 20
24.1089396259
 10
22.286602065
 20
24.1075582801
 10
22.3280744414
 20
24.1052734926
 10
22.3671774173
 20
24.1022488529
 10
22.4044680414
 20
24.0985686373
 10
22.4416315002
 20
24.0941258082
 10
22.4791323509
 20
24.0888445939
 10
22.5164704493
 20
24.0827912366
 10
22.5538740304
 20
24.075957034
 10
22.5915686769
 20
24.0682866375
 10
22.629291743
 20
24.0598082069
 10
22.6665457603
 20
24.0506535407
 10
22.7033063703
 20
24.0408539834
 10
22.7395791011
 20
24.0304209491
 10
22.7749274871
 20
24.0195110817
 10
22.809225124
 20
24.0082131894
 10
22.842601983
 20
23.9965330115
 10
22.8750163314
 20
23.9845289667
 10
22.9064177263
 20
23.9722673822
 10
22.936868422
 20
23.9597710483
 10
22.9664955365
 20
23.947027352
 10
22.9953607577
 20
23.9340482211
 10
23.0234130204
 20
23.9208876163
 10
23.0506093865
 20
23.9075907001
 10
23.0768063535
 20
23.8942721487
 10
23.1021665958
 20
23.8808884592
 10
23.1270974517
 20
23.8672301063
 10
23.1515445137
 20
23.8533346531
 10
23.1755614139
 20
23.8391922189
 10
23.1996931823
 20
23.8244793778
 10
23.2239143343
 20
23.8091887972
 10
23.2482198027
 20
23.7933058574
 10
23.2731534741
 20
23.7764462213
 10
23.2987931534
 20
23.7584894077
 10
23.3249859874
 20
23.7394772793
 10
23.3519028267
 20
23.7192315834
 10
23.3796550416
 20
23.6975785045
 10
23.4080224662
 20
23.674586252
 10
23.4366797366
 20
23.6504437513
 10
23.4656214028
 20
23.6250815141
 10
23.4947551542
 20
23.5984993492
 10
23.5236570327
 20
23.5710303438
 10
23.5522424425
 20
23.5427209523
 10
23.5805361296
 20
23.513510772
 10
23.6083125014
 20
23.4836102679
 10
23.6355302552
 20
23.4530523604
 10
23.6621944279
 20
23.4218183985
 10
23.6881716549
 20
23.390062731
 10
23.7134532674
 20
23.3578006714
 10
23.7380300348
 20
23.3250474768
 10
23.7617871769
 20
23.2919724908
 10
23.7847272887
 20
23.2585977779
 10
23.8068519017
 20
23.2249455471
 10
23.8280651178
 20
23.1911986241
 10
23.8483817894
 20
23.1573824885
 10
23.867814506
 20
23.123525451
 10
23.8862852118
 20
23.0898259414
 10
23.9038116406
 20
23.0563306579
 10
23.9204279263
 20
23.0230522989
 10
23.9360989162
 20
22.9901461021
 10
23.9508176102
 20
22.9577373027
 10
23.964661698
 20
22.9257595419
 10
23.9777218018
 20
22.8940785277
 10
23.9899741189
 20
22.8628718394
 10
24.0014978407
 20
22.8320053766
 10
24.0124968751
 20
22.800861697
 10
24.0229533938
 20
22.7694600104
 10
24.0328708341
 20
22.7377992375
 10
24.042417498
 20
22.7052108896
 10
24.0515614224
 20
22.6716383182
 10
24.0602448797
 20
22.6371391358
 10
24.0685321771
 20
22.601200693
 10
24.0763545935
 20
22.5638000132
 10
24.083622916
 20
22.5249583263
 10
24.0903094016
 20
22.4842216154
 10
24.0963109156
 20
22.4414984033
 10
24.101488327
 20
22.3968906252
 10
24.105711723
 20
22.3502368164
 10
24.1088338062
 20
22.3014983092
 10
24.1107038471
 20
22.2507602059
 10
24.1111662936
 20
22.1980573454
  0
LINE
  5
309
100
AcDbEntity
  8
RACCORDO
100
AcDbLine
 62
250
  6
CONTINUOUS
 10
21.2475505368
 20
25.7085088294
 11
22.1901131117
 21
25.7022302522
  0
LWPOLYLINE
  5
30A
100
AcDbEntity
  8
RACCORDO
100
AcDbPolyline
 62
250
  6
CONTINUOUS
 90
65
 70
0
 10
22.1901131579
 20
25.7022238375
 10
22.2731642961
 20
25.7003947017
 10
22.3538385745
 20
25.6967126341
 10
22.4321965058
 20
25.6913309537
 10
22.5076421664
 20
25.6844176818
 10
22.5806978957
 20
25.6761375246
 10
22.6530253083
 20
25.6665227664
 10
22.7248780682
 20
25.6554966221
 10
22.7955653967
 20
25.6432625932
 10
22.8653856639
 20
25.6301409771
 10
22.9346235957
 20
25.6163567676
 10
23.0030258727
 20
25.6017599787
 10
23.0701978048
 20
25.5860869852
 10
23.1364040176
 20
25.5692173882
 10
23.2017463344
 20
25.5512707761
 10
23.2654883905
 20
25.5324333717
 10
23.3273895769
 20
25.5128363572
 10
23.3876462157
 20
25.4925233927
 10
23.4462036982
 20
25.4715863733
 10
23.502997619
 20
25.4501256952
 10
23.558098604
 20
25.4282016342
 10
23.6116043614
 20
25.4058629096
 10
23.6633814274
 20
25.383276436
 10
23.7136127657
 20
25.3603939432
 10
23.7630677197
 20
25.3367988773
 10
23.8121046505
 20
25.312236193
 10
23.8608536247
 20
25.2867351308
 10
23.9093962784
 20
25.2604313884
 10
23.9571709693
 20
25.2336933973
 10
24.0040409073
 20
25.2065533964
 10
24.0508914257
 20
25.1784931372
 10
24.097767144
 20
25.1494843142
 10
24.1446343504
 20
25.1195048253
 10
24.1921089722
 20
25.0880398762
 10
24.2400208999
 20
25.0551378144
 10
24.2881218961
 20
25.0209015206
 10
24.3370128404
 20
24.9847233691
 10
24.3871519204
 20
24.9460960025
 10
24.4383332458
 20
24.9050503384
 10
24.490035496
 20
24.861859344
 10
24.5422357514
 20
24.8164199926
 10
24.5946993724
 20
24.7687807843
 10
24.6466363018
 20
24.7195119388
 10
24.6979018188
 20
24.6686908658
 10
24.7485468963
 20
24.6162164439
 10
24.7981305433
 20
24.562463117
 10
24.8465644162
 20
24.5075046731
 10
24.8938561628
 20
24.4513233229
 10
24.9397504273
 20
24.3941935529
 10
24.9842251604
 20
24.3361497773
 10
25.0272691221
 20
24.2772309419
 10
25.0686790263
 20
24.217741639
 10
25.1084573916
 20
24.1577218803
 10
25.1466081265
 20
24.097225701
 10
25.1829607392
 20
24.0366113187
 10
25.217530275
 20
23.975947628
 10
25.2503408921
 20
23.9152978914
 10
25.281290751
 20
23.8549971025
 10
25.3104363547
 20
23.7950833056
 10
25.3378311779
 20
23.7355954352
 10
25.3633572989
 20
23.6769846805
 10
25.3867134369
 20
23.6197023383
 10
25.4082874149
 20
23.5635579001
 10
25.4291358297
 20
23.5076277086
 10
25.4494737815
 20
23.4515177097
  0
LINE
  5
30B
100
AcDbEntity
  8
0
100
AcDbLine
 62
7
  6
CONTINUOUS
 10
19.850122
 20
-28.800015
 11
20.781247
 21
-25.899877
  0
LINE
  5
30C
100
AcDbEntity
  8
0
100
AcDbLine
 62
7
  6
CONTINUOUS
 10
21.071268
 20
-26.803118
 11
20.790179
 21
-27.678657
  0
LINE
  5
30D
100
AcDbEntity
  8
0
100
AcDbLine
 62
7
  6
CONTINUOUS
 10
20.613257
 20
-28.229679
 11
20.430144
 21
-28.800007
  0
LINE
  5
30E
100
AcDbEntity
  8
RACCORDO
100
AcDbLine
 62
250
  6
CONTINUOUS
 10
25.5243083819
 20
-23.2404099862
 11
25.4254068332
 21
-23.5183596368
  0
LWPOLYLINE
  5
30F
100
AcDbEntity
  8
RACCORDO
100
AcDbPolyline
 62
250
  6
CONTINUOUS
 90
68
 70
0
 10
25.4254068332
 20
-23.5183596368
 10
25.4107848744
 20
-23.5582530757
 10
25.3950097443
 20
-23.5992594676
 10
25.3781781173
 20
-23.6413483204
 10
25.3601177981
 20
-23.6846123414
 10
25.3407483844
 20
-23.729042966
 10
25.3200880177
 20
-23.7744859276
 10
25.2981009069
 20
-23.8208260204
 10
25.2747229567
 20
-23.8680535027
 10
25.2499030467
 20
-23.9161313931
 10
25.2236359442
 20
-23.9648973476
 10
25.195878051
 20
-24.0143029426
 10
25.1665879695
 20
-24.0642979327
 10
25.1357758135
 20
-24.1147176249
 10
25.1034037752
 20
-24.1655131618
 10
25.0694350081
 20
-24.2166340049
 10
25.0338925705
 20
-24.2679170599
 10
24.9967442677
 20
-24.3193088624
 10
24.9579599465
 20
-24.370762275
 10
24.9175788523
 20
-24.4221269006
 10
24.8755741774
 20
-24.4733510072
 10
24.831928919
 20
-24.5243787778
 10
24.7867129039
 20
-24.5750569778
 10
24.7397626481
 20
-24.6254853168
 10
24.6912173614
 20
-24.6754459359
 10
24.6416329709
 20
-24.7243531062
 10
24.5908541974
 20
-24.7723402471
 10
24.5390613484
 20
-24.8192366441
 10
24.4874524652
 20
-24.8640602912
 10
24.4363626711
 20
-24.9066605814
 10
24.3857109903
 20
-24.9472207706
 10
24.3359809227
 20
-24.9854863423
 10
24.2873467346
 20
-25.0214490442
 10
24.2394488439
 20
-25.0555370709
 10
24.1920773087
 20
-25.0880728189
 10
24.14554109
 20
-25.1189240154
 10
24.0998524845
 20
-25.1481691719
 10
24.0543191486
 20
-25.1763924491
 10
24.008960331
 20
-25.2036391042
 10
23.9638180428
 20
-25.2298949944
 10
23.918287103
 20
-25.2555405883
 10
23.8726161017
 20
-25.2805001456
 10
23.8270796175
 20
-25.3045775038
 10
23.7810049867
 20
-25.3279631764
 10
23.7342757671
 20
-25.3506284857
 10
23.6868275463
 20
-25.3726775986
 10
23.6379245318
 20
-25.3944946364
 10
23.5874558428
 20
-25.4160898505
 10
23.5352987478
 20
-25.4374178802
 10
23.4807393302
 20
-25.4586740732
 10
23.4234946338
 20
-25.4798424474
 10
23.3638411866
 20
-25.5006913005
 10
23.3019571655
 20
-25.5210384226
 10
23.2375261504
 20
-25.5408378263
 10
23.1708544297
 20
-25.5598922956
 10
23.1030543938
 20
-25.57787319
 10
23.0342542403
 20
-25.5946207426
 10
22.9643115598
 20
-25.6102112779
 10
22.893777761
 20
-25.6248043931
 10
22.8227075918
 20
-25.6385006027
 10
22.7502207
 20
-25.6512661509
 10
22.6755448561
 20
-25.6630231811
 10
22.5996502173
 20
-25.673580282
 10
22.5227165553
 20
-25.6828007217
 10
22.4431426059
 20
-25.6904786316
 10
22.3601717737
 20
-25.6963942961
 10
22.2742800763
 20
-25.7003903375
 10
22.1853408664
 20
-25.7022689508
  0
LINE
  5
310
100
AcDbEntity
  8
0
100
AcDbLine
 62
7
  6
CONTINUOUS
 10
39.8951844414
 20
3.5
 11
40.0
 21
3.6749773271
  0
LINE
  5
311
100
AcDbEntity
  8
0
100
AcDbLine
 62
7
  6
CONTINUOUS
 10
40.0
 20
-3.6749773271
 11
39.8951844414
 21
-3.5
  0
LWPOLYLINE
  5
312
100
AcDbEntity
  8
RACCORDO
100
AcDbPolyline
 62
250
  6
CONTINUOUS
 90
17
 70
0
 10
25.4494737815
 20
23.4515177097
 10
25.489868586
 20
23.3364216392
 10
25.5110149575
 20
23.2769004156
 10
25.5322238857
 20
23.2163212306
 10
25.552610078
 20
23.1536312577
 10
25.5716150571
 20
23.0889150866
 10
25.589504349
 20
23.0224642909
 10
25.6065727722
 20
22.9533684229
 10
25.622758788
 20
22.881512928
 10
25.6378603274
 20
22.8067868442
 10
25.6518310502
 20
22.728293921
 10
25.6644342577
 20
22.6458884518
 10
25.6753851535
 20
22.5598308586
 10
25.6844685004
 20
22.4698277574
 10
25.6914037969
 20
22.3757846319
 10
25.6958671389
 20
22.2778327366
 10
25.6975389752
 20
22.1760350032
  0
LINE
  5
313
100
AcDbEntity
  8
RACCORDO
100
AcDbLine
 62
250
  6
CONTINUOUS
 10
37.0
 20
-40.0
 11
37.0
 21
-39.7694281234
  0
LINE
  5
314
100
AcDbEntity
  8
RACCORDO
100
AcDbLine
 62
250
  6
CONTINUOUS
 10
37.0
 20
39.7694281234
 11
37.0
 21
40.0
  0
LINE
  5
315
100
AcDbEntity
  8
RACCORDO
100
AcDbLine
 62
250
  6
CONTINUOUS
 10
40.0
 20
37.0
 11
39.7686319911
 21
37.0
  0
LINE
  5
316
100
AcDbEntity
  8
RACCORDO
100
AcDbLine
 62
250
  6
CONTINUOUS
 10
-39.7686319911
 20
37.0
 11
-40.0
 21
37.0
  0
LINE
  5
317
100
AcDbEntity
  8
RACCORDO
100
AcDbLine
 62
250
  6
CONTINUOUS
 10
38.9454702066
 20
36.3242127333
 11
38.9533612642
 21
36.2211240456
  0
LWPOLYLINE
  5
318
100
AcDbEntity
  8
RACCORDO
100
AcDbPolyline
 62
250
  6
CONTINUOUS
 90
7
 70
0
 10
38.9533612642
 20
36.2211240456
 10
38.9570471082
 20
36.1685290687
 10
38.9602605904
 20
36.1153691873
 10
38.963092791
 20
36.0619478115
 10
38.9651993884
 20
36.0082044548
 10
38.9661785993
 20
35.9540692805
 10
38.9668155472
 20
35.8423743155
  0
LINE
  5
319
100
AcDbEntity
  8
RACCORDO
100
AcDbLine
 62
250
  6
CONTINUOUS
 10
38.9390030964
 20
36.4251471088
 11
38.9454702066
 21
36.3242127333
  0
LINE
  5
31A
100
AcDbEntity
  8
RACCORDO
100
AcDbLine
 62
250
  6
CONTINUOUS
 10
38.9332651028
 20
36.5252236876
 11
38.9390030964
 21
36.4251471088
  0
LINE
  5
31B
100
AcDbEntity
  8
RACCORDO
100
AcDbLine
 62
250
  6
CONTINUOUS
 10
38.9257228856
 20
36.6747606181
 11
38.9332651028
 21
36.5252236876
  0
LINE
  5
31C
100
AcDbEntity
  8
RACCORDO
100
AcDbLine
 62
250
  6
CONTINUOUS
 10
38.9191495996
 20
36.8223166241
 11
38.9257228856
 21
36.6747606181
  0
LWPOLYLINE
  5
31D
100
AcDbEntity
  8
RACCORDO
100
AcDbPolyline
 62
250
  6
CONTINUOUS
 90
3
 70
0
 10
38.9102137958
 20
37.0515813993
 10
38.9118025933
 20
37.0079523981
 10
38.9191495996
 20
36.8223166241
  0
LINE
  5
31E
100
AcDbEntity
  8
RACCORDO
100
AcDbLine
 62
250
  6
CONTINUOUS
 10
38.9668155472
 20
35.8423743155
 11
39.0412464808
 21
30.3635029262
  0
LINE
  5
31F
100
AcDbEntity
  8
RACCORDO
100
AcDbLine
 62
250
  6
CONTINUOUS
 10
39.0412464808
 20
30.3635029262
 11
39.0551962198
 21
28.5832030722
  0
LINE
  5
320
100
AcDbEntity
  8
RACCORDO
100
AcDbLine
 62
250
  6
CONTINUOUS
 10
39.0551962198
 20
28.5832030722
 11
39.0705388508
 21
24.4130423312
  0
LINE
  5
321
100
AcDbEntity
  8
RACCORDO
100
AcDbLine
 62
250
  6
CONTINUOUS
 10
39.0705388508
 20
24.4130423312
 11
39.0860274808
 21
16.8902242941
  0
LINE
  5
322
100
AcDbEntity
  8
RACCORDO
100
AcDbLine
 62
250
  6
CONTINUOUS
 10
39.0860274808
 20
16.8902242941
 11
39.0955942839
 21
7.0052685266
  0
LINE
  5
323
100
AcDbEntity
  8
RACCORDO
100
AcDbLine
 62
250
  6
CONTINUOUS
 10
39.7614207058
 20
-0.9777921341
 11
39.7686319911
 21
-37.0
  0
LINE
  5
324
100
AcDbEntity
  8
0
100
AcDbLine
 62
7
  6
CONTINUOUS
 10
39.8951844414
 20
-3.5
 11
39.8951844414
 21
3.5
  0
LINE
  5
325
100
AcDbEntity
  8
0
100
AcDbLine
 62
7
  6
CONTINUOUS
 10
40.0
 20
37.0
 11
40.0
 21
3.6749773271
  0
LINE
  5
326
100
AcDbEntity
  8
0
100
AcDbLine
 62
7
  6
CONTINUOUS
 10
40.0
 20
-3.6749773271
 11
40.0
 21
-37.0
  0
LINE
  5
327
100
AcDbEntity
  8
RACCORDO
100
AcDbLine
 62
250
  6
CONTINUOUS
 10
39.0955942839
 20
7.0052685266
 11
39.0925050023
 21
-11.5858074862
  0
LINE
  5
328
100
AcDbEntity
  8
RACCORDO
100
AcDbLine
 62
250
  6
CONTINUOUS
 10
39.0925050023
 20
-11.5858074862
 11
39.0822336962
 21
-19.1254494809
  0
LINE
  5
329
100
AcDbEntity
  8
RACCORDO
100
AcDbLine
 62
250
  6
CONTINUOUS
 10
39.7686319911
 20
37.0
 11
39.7614207058
 21
-0.9777921341
  0
LINE
  5
32A
100
AcDbEntity
  8
RACCORDO
100
AcDbLine
 62
250
  6
CONTINUOUS
 10
39.0822336962
 20
-19.1254494809
 11
39.0657098756
 21
-26.1595219258
  0
LINE
  5
32B
100
AcDbEntity
  8
RACCORDO
100
AcDbLine
 62
250
  6
CONTINUOUS
 10
39.0657098756
 20
-26.1595219258
 11
39.0549823942
 21
-28.61782097
  0
LINE
  5
32C
100
AcDbEntity
  8
RACCORDO
100
AcDbLine
 62
250
  6
CONTINUOUS
 10
38.9664844034
 20
-35.869350953
 11
38.9659758561
 21
-35.9703055826
  0
LINE
  5
32D
100
AcDbEntity
  8
RACCORDO
100
AcDbLine
 62
250
  6
CONTINUOUS
 10
39.0549823942
 20
-28.61782097
 11
39.0393521258
 21
-30.5565986425
  0
LINE
  5
32E
100
AcDbEntity
  8
RACCORDO
100
AcDbLine
 62
250
  6
CONTINUOUS
 10
39.0393521258
 20
-30.5565986425
 11
39.017311999
 21
-32.4152459207
  0
LINE
  5
32F
100
AcDbEntity
  8
RACCORDO
100
AcDbLine
 62
250
  6
CONTINUOUS
 10
39.017311999
 20
-32.4152459207
 11
38.9664844034
 21
-35.869350953
  0
LWPOLYLINE
  5
330
100
AcDbEntity
  8
RACCORDO
100
AcDbPolyline
 62
250
  6
CONTINUOUS
 90
7
 70
0
 10
38.9659758561
 20
-35.9703055826
 10
38.9650512721
 20
-36.0196448811
 10
38.962999481
 20
-36.068905235
 10
38.9602257995
 20
-36.1181704473
 10
38.9571149523
 20
-36.1675592091
 10
38.953620295
 20
-36.2167873633
 10
38.9461502875
 20
-36.3143722867
  0
LWPOLYLINE
  5
331
100
AcDbEntity
  8
RACCORDO
100
AcDbPolyline
 62
250
  6
CONTINUOUS
 90
37
 70
0
 10
39.7686319911
 20
-37.0
 10
39.7604905906
 20
-37.216611323
 10
39.7366025497
 20
-37.4241513823
 10
39.6988713293
 20
-37.6216301192
 10
39.649226895
 20
-37.808141653
 10
39.5894795719
 20
-37.983372011
 10
39.5211828713
 20
-38.1475386006
 10
39.4460247778
 20
-38.3003154394
 10
39.3654279995
 20
-38.441912408
 10
39.2801389157
 20
-38.5734478733
 10
39.1913125573
 20
-38.6950652777
 10
39.100022754
 20
-38.8069958187
 10
39.0064554365
 20
-38.9104020585
 10
38.9112923121
 20
-39.0056352973
 10
38.8153767082
 20
-39.0928612012
 10
38.7188399015
 20
-39.1728448051
 10
38.6221697921
 20
-39.2459278845
 10
38.5259670478
 20
-39.3123512733
 10
38.4303681157
 20
-39.3726514139
 10
38.3357875818
 20
-39.4271281467
 10
38.2426004749
 20
-39.4760941587
 10
38.1507779613
 20
-39.5200401425
 10
38.0606114871
 20
-39.5592509871
 10
37.9723610236
 20
-39.5940165348
 10
37.8858708588
 20
-39.6247604211
 10
37.8013377714
 20
-39.6517354436
 10
37.7189387611
 20
-39.6751934676
 10
37.6384311824
 20
-39.695480294
 10
37.5599462107
 20
-39.7128084774
 10
37.4835996035
 20
-39.7273884281
 10
37.4090863803
 20
-39.7394888941
 10
37.3364934953
 20
-39.7492811287
 10
37.2658936228
 20
-39.7569343377
 10
37.1969350279
 20
-39.7626444654
 10
37.1295330087
 20
-39.7665503341
 10
37.0638741699
 20
-39.7687688725
 10
37.0
 20
-39.7694281234
  0
LINE
  5
332
100
AcDbEntity
  8
RACCORDO
100
AcDbLine
 62
250
  6
CONTINUOUS
 10
38.917497889
 20
-36.8622746708
 11
38.9102137963
 21
-37.0515813994
  0
LINE
  5
333
100
AcDbEntity
  8
RACCORDO
100
AcDbLine
 62
250
  6
CONTINUOUS
 10
38.9240500339
 20
-36.7108787002
 11
38.917497889
 21
-36.8622746708
  0
LINE
  5
334
100
AcDbEntity
  8
RACCORDO
100
AcDbLine
 62
250
  6
CONTINUOUS
 10
38.9289045851
 20
-36.6093509241
 11
38.9240500339
 21
-36.7108787002
  0
LINE
  5
335
100
AcDbEntity
  8
RACCORDO
100
AcDbLine
 62
250
  6
CONTINUOUS
 10
38.9341146733
 20
-36.509700795
 11
38.9289045851
 21
-36.6093509241
  0
LINE
  5
336
100
AcDbEntity
  8
RACCORDO
100
AcDbLine
 62
250
  6
CONTINUOUS
 10
38.9398318614
 20
-36.4115387135
 11
38.9341146733
 21
-36.509700795
  0
LINE
  5
337
100
AcDbEntity
  8
RACCORDO
100
AcDbLine
 62
250
  6
CONTINUOUS
 10
38.9461502875
 20
-36.3143722867
 11
38.9398318614
 21
-36.4115387135
  0
LWPOLYLINE
  5
338
100
AcDbEntity
  8
RACCORDO
100
AcDbPolyline
 62
250
  6
CONTINUOUS
 90
37
 70
0
 10
38.9102133752
 20
-37.0515812445
 10
38.8995428253
 20
-37.194054036
 10
38.8789646928
 20
-37.3307280138
 10
38.8497351383
 20
-37.4608096378
 10
38.8131225097
 20
-37.5837112556
 10
38.7702979518
 20
-37.6992640124
 10
38.722238124
 20
-37.8075904375
 10
38.670027556
 20
-37.9084887185
 10
38.6145615534
 20
-38.0021164986
 10
38.5562761375
 20
-38.0891836358
 10
38.4959047519
 20
-38.1697857759
 10
38.4341314911
 20
-38.2440853248
 10
38.3710449244
 20
-38.3128359314
 10
38.307071746
 20
-38.3762704098
 10
38.242745924
 20
-38.4345034759
 10
38.1781278591
 20
-38.4880339826
 10
38.1135241017
 20
-38.5370844296
 10
38.0493217483
 20
-38.5818090431
 10
37.9856000969
 20
-38.622552108
 10
37.9226218718
 20
-38.6595069383
 10
37.8606216306
 20
-38.6928790773
 10
37.799567617
 20
-38.7229895967
 10
37.7396454631
 20
-38.7500202674
 10
37.6810245523
 20
-38.77415457
 10
37.6235996535
 20
-38.7956664179
 10
37.5674977511
 20
-38.8147162487
 10
37.5128307317
 20
-38.8314663041
 10
37.4594330329
 20
-38.8461447864
 10
37.4073883183
 20
-38.8588873637
 10
37.3567704132
 20
-38.869828823
 10
37.307373922
 20
-38.8791483106
 10
37.2592544908
 20
-38.8869548777
 10
37.2124588645
 20
-38.8933568866
 10
37.166751944
 20
-38.8984875699
 10
37.1220761013
 20
-38.9024378983
 10
37.0785541013
 20
-38.9052790553
 10
37.0362125761
 20
-38.9070917699
  0
LINE
  5
339
100
AcDbEntity
  8
RACCORDO
100
AcDbLine
 62
250
  6
CONTINUOUS
 10
-36.6475416784
 20
38.9209958446
 11
-36.5372257422
 21
38.9259872869
  0
LWPOLYLINE
  5
33A
100
AcDbEntity
  8
RACCORDO
100
AcDbPolyline
 62
250
  6
CONTINUOUS
 90
4
 70
0
 10
-36.5372257422
 20
38.9259872869
 10
-36.4629566085
 20
38.9290407201
 10
-36.4254532421
 20
38.930249863
 10
-36.3876784299
 20
38.9310384662
  0
LINE
  5
33B
100
AcDbEntity
  8
RACCORDO
100
AcDbLine
 62
250
  6
CONTINUOUS
 10
-36.8046495666
 20
38.9149922922
 11
-36.6475416784
 21
38.9209958446
  0
LINE
  5
33C
100
AcDbEntity
  8
RACCORDO
100
AcDbLine
 62
250
  6
CONTINUOUS
 10
-37.0362125766
 20
38.9070917718
 11
-36.8046495666
 21
38.9149922922
  0
LWPOLYLINE
  5
33D
100
AcDbEntity
  8
RACCORDO
100
AcDbPolyline
 62
250
  6
CONTINUOUS
 90
3
 70
0
 10
-32.769937369
 20
38.9809140894
 10
-32.4772930949
 20
38.984583397
 10
-30.4509058933
 20
39.0169759755
  0
LINE
  5
33E
100
AcDbEntity
  8
RACCORDO
100
AcDbLine
 62
250
  6
CONTINUOUS
 10
-36.3876784299
 20
38.9310384662
 11
-32.769937369
 21
38.9809140894
  0
LINE
  5
33F
100
AcDbEntity
  8
RACCORDO
100
AcDbLine
 62
250
  6
CONTINUOUS
 10
-30.4509058933
 20
39.0169759755
 11
-24.5384400236
 21
39.0831764585
  0
LINE
  5
340
100
AcDbEntity
  8
RACCORDO
100
AcDbLine
 62
250
  6
CONTINUOUS
 10
-24.5384400236
 20
39.0831764585
 11
-22.4968158269
 21
39.0969458279
  0
LINE
  5
341
100
AcDbEntity
  8
RACCORDO
100
AcDbLine
 62
250
  6
CONTINUOUS
 10
-22.4968158269
 20
39.0969458279
 11
-20.1661346179
 21
39.104740786
  0
LINE
  5
342
100
AcDbEntity
  8
RACCORDO
100
AcDbLine
 62
250
  6
CONTINUOUS
 10
11.75
 20
39.0969288226
 11
17.5670807539
 21
39.105344132
  0
LINE
  5
343
100
AcDbEntity
  8
0
100
AcDbLine
 62
7
  6
CONTINUOUS
 10
-36.9999999999
 20
40.0
 11
36.9999999999
 21
40.0
  0
LINE
  5
344
100
AcDbEntity
  8
RACCORDO
100
AcDbLine
 62
250
  6
CONTINUOUS
 10
15.400462691
 20
39.7612049615
 11
37.0
 21
39.7694281234
  0
LINE
  5
345
100
AcDbEntity
  8
RACCORDO
100
AcDbLine
 62
250
  6
CONTINUOUS
 10
-20.1661346179
 20
39.104740786
 11
-17.5014635927
 21
39.1053040939
  0
LINE
  5
346
100
AcDbEntity
  8
RACCORDO
100
AcDbLine
 62
250
  6
CONTINUOUS
 10
17.5670807539
 20
39.105344132
 11
20.1160497711
 21
39.1048315812
  0
LWPOLYLINE
  5
347
100
AcDbEntity
  8
RACCORDO
100
AcDbPolyline
 62
250
  6
CONTINUOUS
 90
3
 70
0
 10
-17.5014635927
 20
39.1053040939
 10
-15.0828268269
 20
39.1014089016
 10
11.75
 20
39.0969288225
  0
LINE
  5
348
100
AcDbEntity
  8
RACCORDO
100
AcDbLine
 62
250
  6
CONTINUOUS
 10
-37.0
 20
39.7694281234
 11
15.400462691
 21
39.7612049615
  0
LINE
  5
349
100
AcDbEntity
  8
RACCORDO
100
AcDbLine
 62
250
  6
CONTINUOUS
 10
20.1160497711
 20
39.1048315812
 11
22.2875289106
 21
39.0979870443
  0
LINE
  5
34A
100
AcDbEntity
  8
RACCORDO
100
AcDbLine
 62
250
  6
CONTINUOUS
 10
22.2875289106
 20
39.0979870443
 11
24.5896002486
 21
39.0827462232
  0
LWPOLYLINE
  5
34B
100
AcDbEntity
  8
RACCORDO
100
AcDbPolyline
 62
250
  6
CONTINUOUS
 90
37
 70
0
 10
37.0
 20
39.7694281234
 10
37.0638741699
 20
39.7687688725
 10
37.1295330087
 20
39.7665503341
 10
37.1969350279
 20
39.7626444654
 10
37.2658936228
 20
39.7569343377
 10
37.3364934953
 20
39.7492811287
 10
37.4090863803
 20
39.7394888941
 10
37.4835996035
 20
39.7273884281
 10
37.5599462107
 20
39.7128084774
 10
37.6384311824
 20
39.695480294
 10
37.7189387611
 20
39.6751934676
 10
37.8013377714
 20
39.6517354436
 10
37.8858708588
 20
39.6247604211
 10
37.9723610236
 20
39.5940165348
 10
38.0606114871
 20
39.5592509871
 10
38.1507779613
 20
39.5200401425
 10
38.2426004749
 20
39.4760941587
 10
38.3357875818
 20
39.4271281467
 10
38.4303681157
 20
39.3726514139
 10
38.5259670478
 20
39.3123512733
 10
38.6221697922
 20
39.2459278845
 10
38.7188399015
 20
39.1728448051
 10
38.8153767081
 20
39.0928612012
 10
38.911292312
 20
39.0056352972
 10
39.0064554364
 20
38.9104020584
 10
39.1000227541
 20
38.8069958187
 10
39.1913125577
 20
38.6950652779
 10
39.2801389161
 20
38.5734478735
 10
39.3654279991
 20
38.4419124079
 10
39.4460247764
 20
38.3003154392
 10
39.5211828698
 20
38.1475386004
 10
39.5894795722
 20
37.9833720109
 10
39.6492268981
 20
37.8081416526
 10
39.6988713339
 20
37.6216301185
 10
39.7366025538
 20
37.4241513813
 10
39.7604905932
 20
37.2166113221
 10
39.7686319911
 20
37.0
  0
LINE
  5
34C
100
AcDbEntity
  8
RACCORDO
100
AcDbLine
 62
250
  6
CONTINUOUS
 10
24.5896002486
 20
39.0827462232
 11
27.2265357579
 21
39.0556524679
  0
LINE
  5
34D
100
AcDbEntity
  8
RACCORDO
100
AcDbLine
 62
250
  6
CONTINUOUS
 10
33.6710112044
 20
38.9679192999
 11
36.3969752089
 21
38.930861558
  0
LINE
  5
34E
100
AcDbEntity
  8
RACCORDO
100
AcDbLine
 62
250
  6
CONTINUOUS
 10
27.2265357579
 20
39.0556524679
 11
30.8423208942
 21
39.0111538353
  0
LINE
  5
34F
100
AcDbEntity
  8
RACCORDO
100
AcDbLine
 62
250
  6
CONTINUOUS
 10
30.8423208942
 20
39.0111538353
 11
33.6710112044
 21
38.9679192999
  0
LWPOLYLINE
  5
350
100
AcDbEntity
  8
RACCORDO
100
AcDbPolyline
 62
250
  6
CONTINUOUS
 90
3
 70
0
 10
36.3969752089
 20
38.930861558
 10
36.4341701842
 20
38.9300364567
 10
36.4711662755
 20
38.9287734339
  0
LINE
  5
351
100
AcDbEntity
  8
RACCORDO
100
AcDbLine
 62
250
  6
CONTINUOUS
 10
36.7681085786
 20
38.9163390941
 11
37.0362125761
 21
38.9070917697
  0
LINE
  5
352
100
AcDbEntity
  8
RACCORDO
100
AcDbLine
 62
250
  6
CONTINUOUS
 10
36.6535829496
 20
38.9207493897
 11
36.7681085786
 21
38.9163390941
  0
LWPOLYLINE
  5
353
100
AcDbEntity
  8
RACCORDO
100
AcDbPolyline
 62
250
  6
CONTINUOUS
 90
37
 70
0
 10
37.0362125761
 20
38.9070917699
 10
37.0785541079
 20
38.9052790563
 10
37.1220760813
 20
38.9024379015
 10
37.1667518786
 20
38.8984875771
 10
37.2124587534
 20
38.8933568997
 10
37.2592543421
 20
38.886954899
 10
37.3073737388
 20
38.8791483424
 10
37.3567701931
 20
38.8698288678
 10
37.4073880568
 20
38.8588874243
 10
37.4594327261
 20
38.8461448662
 10
37.5128303777
 20
38.8314664068
 10
37.5674973491
 20
38.8147163781
 10
37.6235992021
 20
38.7956665788
 10
37.6810240498
 20
38.7741547674
 10
37.739644908
 20
38.7500205068
 10
37.799567008
 20
38.7229898839
 10
37.8606209672
 20
38.6928794189
 10
37.922621154
 20
38.6595073411
 10
37.9855993249
 20
38.6225525803
 10
38.0493209229
 20
38.5818095943
 10
38.113523225
 20
38.5370850688
 10
38.1781269337
 20
38.4880347178
 10
38.2427449547
 20
38.4345043125
 10
38.307070738
 20
38.376271356
 10
38.3710438814
 20
38.3128370072
 10
38.4341304176
 20
38.2440865624
 10
38.4959036549
 20
38.1697871984
 10
38.5562750316
 20
38.0891852265
 10
38.6145604618
 20
38.0021181882
 10
38.6700265014
 20
37.9084904741
 10
38.7222371093
 20
37.8075924152
 10
38.7702969681
 20
37.6992666145
 10
38.8131215556
 20
37.5837147161
 10
38.8497342912
 20
37.4608133293
 10
38.8789641853
 20
37.3307302501
 10
38.8995428045
 20
37.1940537979
 10
38.9102133767
 20
37.051581245
  0
LINE
  5
354
100
AcDbEntity
  8
RACCORDO
100
AcDbLine
 62
250
  6
CONTINUOUS
 10
36.4711662755
 20
38.9287734339
 11
36.6535829496
 21
38.9207493897
  0
LWPOLYLINE
  5
355
100
AcDbEntity
  8
0
100
AcDbPolyline
 62
7
  6
CONTINUOUS
 90
13
 70
0
 43
0.3500000006
 10
-1.9285714102
 20
50.5589020844
 10
-2.2142856617
 20
50.7731865692
 10
-2.2142856617
 20
51.4160445557
 10
-1.9285714102
 20
51.8446180573
 10
-1.2857142735
 20
51.8446180573
 10
-1.0000000219
 20
51.4160445557
 10
-1.0000000219
 20
50.7731865692
 10
-1.2857142735
 20
50.5589020844
 10
-0.8571428254
 20
50.1303331146
 10
-0.8571428254
 20
49.2731906433
 10
-1.2857142735
 20
48.8446171417
 10
-1.9285714102
 20
48.8446171417
 10
-2.3571427875
 20
49.2731906433
  0
LWPOLYLINE
  5
356
100
AcDbEntity
  8
RACCORDO
100
AcDbPolyline
 62
250
  6
CONTINUOUS
 90
13
 70
0
 10
37.0
 20
-39.7694281234
 10
37.0042359866
 20
-39.7568063236
 10
37.0084158722
 20
-39.7311258592
 10
37.0124842989
 20
-39.6927268417
 10
37.0163873846
 20
-39.6421178269
 10
37.0200734373
 20
-39.5799690794
 10
37.0234936392
 20
-39.5071036959
 10
37.0266026934
 20
-39.424486704
 10
37.0293594239
 20
-39.3332122811
 10
37.0317273209
 20
-39.2344892637
 10
37.0336750242
 20
-39.1296251374
 10
37.0351767387
 20
-39.0200087202
 10
37.036212576
 20
-38.9070917696
  0
LWPOLYLINE
  5
357
100
AcDbEntity
  8
RACCORDO
100
AcDbPolyline
 62
250
  6
CONTINUOUS
 90
13
 70
0
 10
37.0
 20
39.7694280063
 10
37.0042359943
 20
39.7568062115
 10
37.0084158872
 20
39.7311257535
 10
37.0124843204
 20
39.6927267438
 10
37.0163874116
 20
39.6421177379
 10
37.0200734683
 20
39.5799690004
 10
37.0234936726
 20
39.5071036278
 10
37.0266027273
 20
39.4244866472
 10
37.0293594561
 20
39.333212236
 10
37.0317273491
 20
39.2344892306
 10
37.0336750458
 20
39.1296251159
 10
37.035176751
 20
39.02000871
 10
37.0362125761
 20
38.9070917699
  0
LWPOLYLINE
  5
358
100
AcDbEntity
  8
RACCORDO
100
AcDbPolyline
 62
250
  6
CONTINUOUS
 90
13
 70
0
 10
39.7686092034
 20
-36.9999999951
 10
39.756046581
 20
-37.0060211648
 10
39.7304987767
 20
-37.0119630525
 10
39.6923022231
 20
-37.0177474109
 10
39.6419599207
 20
-37.0232980674
 10
39.5801348141
 20
-37.0285419266
 10
39.5076410621
 20
-37.0334099335
 10
39.4254333163
 20
-37.0378379824
 10
39.334594149
 20
-37.0417677618
 10
39.2363197977
 20
-37.0451475216
 10
39.1319044118
 20
-37.0479327551
 10
39.0227230104
 20
-37.0500867845
 10
38.9102133752
 20
-37.0515812445
  0
LWPOLYLINE
  5
359
100
AcDbEntity
  8
RACCORDO
100
AcDbPolyline
 62
250
  6
CONTINUOUS
 90
13
 70
0
 10
39.7686319911
 20
37.0
 10
39.7560688005
 20
37.0060212946
 10
39.7305200755
 20
37.011963295
 10
39.6923222681
 20
37.0177477508
 10
39.6419784063
 20
37.0232984863
 10
39.5801514696
 20
37.0285424038
 10
39.5076556587
 20
37.0334104457
 10
39.425445673
 20
37.0378385044
 10
39.3346041378
 20
37.041768267
 10
39.2363273478
 20
37.0451479821
 10
39.1319095128
 20
37.0479331423
 10
39.022725714
 20
37.0500870697
 10
38.9102137958
 20
37.0515813993
  0
LINE
  5
35A
100
AcDbEntity
  8
RACCORDO
100
AcDbLine
 62
7
  6
CONTINUOUS
 10
-63.5312795285
 20
-40.0
 11
-68.091966722
 21
-39.7609845122
  0
LWPOLYLINE
  5
35B
100
AcDbEntity
  8
RACCORDO
100
AcDbPolyline
 62
250
  6
CONTINUOUS
 90
13
 70
0
 10
-67.930853022
 20
-39.7694281234
 10
-68.0451627961
 20
-39.7568063236
 10
-68.1572655177
 20
-39.7311258592
 10
-68.2656765006
 20
-39.6927268417
 10
-68.3689599524
 20
-39.6421178269
 10
-68.4657479892
 20
-39.5799690794
 10
-68.5547587524
 20
-39.5071036959
 10
-68.6348133854
 20
-39.424486704
 10
-68.7048516465
 20
-39.3332122811
 10
-68.7639459504
 20
-39.2344892637
 10
-68.8113136535
 20
-39.1296251374
 10
-68.8463274189
 20
-39.0200087202
 10
-68.8685235252
 20
-38.9070917696
  0
LWPOLYLINE
  5
35C
100
AcDbEntity
  8
0
100
AcDbPolyline
 62
7
  6
CONTINUOUS
 90
10
 70
0
 43
0.3500000006
 10
-68.789022171
 20
48.7500009613
 10
-67.9318796997
 20
49.6071434326
 10
-67.7175952148
 20
50.4642859039
 10
-67.7175952148
 20
51.3214283752
 10
-68.1461641846
 20
51.7500018768
 10
-68.789022171
 20
51.7500018768
 10
-69.2175956726
 20
51.3214283752
 10
-69.2175956726
 20
50.4642859039
 10
-68.789022171
 20
50.0357124023
 10
-67.8604530487
 20
50.0357124023
  0
LWPOLYLINE
  5
35D
100
AcDbEntity
  8
RACCORDO
100
AcDbPolyline
 62
7
  6
CONTINUOUS
 90
8
 70
0
 10
-68.4829821262
 20
39.6587110188
 10
-68.5718547291
 20
39.6089691754
 10
-68.6552335672
 20
39.5504249733
 10
-68.7322454045
 20
39.4836794896
 10
-68.8020859166
 20
39.4094167559
 10
-68.8640223728
 20
39.3284006605
 10
-68.917402417
 20
39.2414669651
 10
-68.9616612368
 20
39.149515131
  0
LWPOLYLINE
  5
35E
100
AcDbEntity
  8
RACCORDO
100
AcDbPolyline
 62
7
  6
CONTINUOUS
 90
7
 70
0
 10
-68.4788672564
 20
39.6607346996
 10
-68.5675030876
 20
39.6116894693
 10
-68.6509005928
 20
39.553790845
 10
-68.728147147
 20
39.4875927158
 10
-68.7984150964
 20
39.4137179529
 10
-68.8609289133
 20
39.3328804035
 10
-68.9149808392
 20
39.2458778549
  0
LINE
  5
35F
100
AcDbEntity
  8
RACCORDO
100
AcDbLine
 62
7
  6
CONTINUOUS
 10
-68.3859823242
 20
39.7004657541
 11
-68.4829821262
 21
39.6587110188
  0
LINE
  5
360
100
AcDbEntity
  8
RACCORDO
100
AcDbLine
 62
250
  6
CONTINUOUS
 10
-68.8599450732
 20
-37.0500867845
 11
-68.8824823271
 21
-37.0515812445
  0
LINE
  5
361
100
AcDbEntity
  8
RACCORDO
100
AcDbLine
 62
250
  6
CONTINUOUS
 10
-68.718007387
 20
-37.0417677618
 11
-68.8599450732
 21
-37.0500867845
  0
LINE
  5
362
100
AcDbEntity
  8
RACCORDO
100
AcDbLine
 62
250
  6
CONTINUOUS
 10
-67.946042937
 20
-36.9999999951
 11
-68.718007387
 21
-37.0417677618
  0
LINE
  5
363
100
AcDbEntity
  8
RACCORDO
100
AcDbLine
 62
250
  6
CONTINUOUS
 10
-67.9460441309
 20
-37.0
 11
-63.5312795285
 21
-37.0
  0
LINE
  5
364
100
AcDbEntity
  8
0
100
AcDbLine
 62
7
  6
CONTINUOUS
 10
-71.6103453563
 20
-28.800007
 11
-71.5920023123
 21
-28.800007
  0
LINE
  5
365
100
AcDbEntity
  8
0
100
AcDbLine
 62
7
  6
CONTINUOUS
 10
-71.5696241928
 20
-28.800007
 11
-71.5720805724
 21
-28.800007
  0
LINE
  5
366
100
AcDbEntity
  8
0
100
AcDbLine
 62
7
  6
CONTINUOUS
 10
-71.5560592552
 20
-28.800007
 11
-71.2775879797
 21
-28.8
  0
LINE
  5
367
100
AcDbEntity
  8
0
100
AcDbLine
 62
7
  6
CONTINUOUS
 10
-71.6709922318
 20
-28.229679
 11
-71.6821919418
 21
-28.229679
  0
LINE
  5
368
100
AcDbEntity
  8
0
100
AcDbLine
 62
7
  6
CONTINUOUS
 10
-71.7464754619
 20
-27.678657
 11
-71.7407815668
 21
-27.678657
  0
LINE
  5
369
100
AcDbEntity
  8
0
100
AcDbLine
 62
7
  6
CONTINUOUS
 10
-71.6778862885
 20
-27.6089026669
 11
-71.4760041689
 21
-27.6089026669
  0
LINE
  5
36A
100
AcDbEntity
  8
0
100
AcDbLine
 62
7
  6
CONTINUOUS
 10
-71.7728898089
 20
-27.142128
 11
-71.7528855253
 21
-27.142128
  0
LINE
  5
36B
100
AcDbEntity
  8
0
100
AcDbLine
 62
7
  6
CONTINUOUS
 10
-71.6925076476
 20
-27.678657
 11
-71.7076290413
 21
-27.67865
  0
LINE
  5
36C
100
AcDbEntity
  8
0
100
AcDbLine
 62
7
  6
CONTINUOUS
 10
-71.9088172602
 20
-25.899877
 11
-71.6789962652
 21
-25.899877
  0
LWPOLYLINE
  5
36D
100
AcDbEntity
  8
RACCORDO
100
AcDbPolyline
 62
250
  6
CONTINUOUS
 90
6
 70
0
 10
-71.9518875179
 20
-22.187929615
 10
-71.8825889136
 20
-22.1854513236
 10
-71.8248428308
 20
-22.1830170537
 10
-71.778884983
 20
-22.180636742
 10
-71.7449029656
 20
-22.1783201045
 10
-71.7230354899
 20
-22.1760765976
  0
LINE
  5
36E
100
AcDbEntity
  8
RACCORDO
100
AcDbLine
 62
250
  6
CONTINUOUS
 10
-72.1239648089
 20
-22.1929776595
 11
-71.9518875179
 21
-22.187929615
  0
LINE
  5
36F
100
AcDbEntity
  8
RACCORDO
100
AcDbLine
 62
250
  6
CONTINUOUS
 10
-72.4492416575
 20
-22.2010659671
 11
-72.1239648089
 21
-22.1929776595
  0
LWPOLYLINE
  5
370
100
AcDbEntity
  8
RACCORDO
100
AcDbPolyline
 62
250
  6
CONTINUOUS
 90
6
 70
0
 10
-72.4492416575
 20
-22.2010659671
 10
-72.4897862056
 20
-22.2018968925
 10
-72.5197229777
 20
-22.2022230678
 10
-72.5387150749
 20
-22.2022339237
 10
-72.5465487616
 20
-22.2022993273
 10
-72.5467665752
 20
-22.2023461042
  0
LWPOLYLINE
  5
371
100
AcDbEntity
  8
0
100
AcDbPolyline
 62
7
  6
CONTINUOUS
 90
10
 70
0
 10
-71.8798648186
 20
-25.8998751129
 10
-71.8765213327
 20
-25.9032452577
 10
-71.8724372497
 20
-25.9136409373
 10
-71.8676125697
 20
-25.9314507263
 10
-71.8620092799
 20
-25.9571328912
 10
-71.855665393
 20
-25.9908715766
 10
-71.8486949466
 20
-26.0322360794
 10
-71.8411076951
 20
-26.0806753671
 10
-71.8328938841
 20
-26.136140328
 10
-71.8241382889
 20
-26.1986548204
  0
LWPOLYLINE
  5
372
100
AcDbEntity
  8
RACCORDO
100
AcDbPolyline
 62
7
  6
CONTINUOUS
 90
3
 70
0
 10
-68.9149808392
 20
39.2458778549
 10
-68.9599410261
 20
39.1535876839
 10
-68.978829939
 20
39.1057785169
  0
LWPOLYLINE
  5
373
100
AcDbEntity
  8
RACCORDO
100
AcDbPolyline
 62
250
  6
CONTINUOUS
 90
9
 70
0
 10
-72.1565462198
 20
24.3763441388
 10
-72.1255719354
 20
24.4283593641
 10
-72.0342674618
 20
24.5975127671
 10
-71.953983811
 20
24.7721667492
 10
-71.8850506091
 20
24.9516042218
 10
-71.8277508799
 20
25.1350884565
 10
-71.7823198828
 20
25.3218661099
 10
-71.7489441471
 20
25.5111703165
 10
-71.727760706
 20
25.7022238375
  0
LWPOLYLINE
  5
374
100
AcDbEntity
  8
RACCORDO
100
AcDbPolyline
 62
7
  6
CONTINUOUS
 90
3
 70
0
 10
-72.2435640341
 20
24.2417432087
 10
-72.2275223568
 20
24.2654010447
 10
-72.1565462198
 20
24.3763441388
  0
LWPOLYLINE
  5
375
100
AcDbEntity
  8
RACCORDO
100
AcDbPolyline
 62
7
  6
CONTINUOUS
 90
8
 70
0
 10
-72.3397072994
 20
24.1092980425
 10
-72.3997222229
 20
24.0219832976
 10
-72.4501614752
 20
23.9288079298
 10
-72.4904592338
 20
23.8308191949
 10
-72.5201633157
 20
23.7291186397
 10
-72.5389411595
 20
23.6248478783
 10
-72.5465824821
 20
23.5191761061
 10
-72.5467665752
 20
23.4999895922
  0
LINE
  5
376
100
AcDbEntity
  8
RACCORDO
100
AcDbLine
 62
7
  6
CONTINUOUS
 10
-72.3397001411
 20
24.1093068778
 11
-72.2435640341
 21
24.2417432087
  0
LINE
  5
377
100
AcDbEntity
  8
RACCORDO
100
AcDbLine
 62
7
  6
CONTINUOUS
 10
-72.340190971
 20
-24.1086780573
 11
-72.3243445122
 21
-24.1295232733
  0
LINE
  5
378
100
AcDbEntity
  8
RACCORDO
100
AcDbLine
 62
7
  6
CONTINUOUS
 10
-72.339705082
 20
-24.109298608
 11
-72.2437498712
 21
-24.2414709472
  0
LWPOLYLINE
  5
379
100
AcDbEntity
  8
RACCORDO
100
AcDbPolyline
 62
7
  6
CONTINUOUS
 90
8
 70
0
 10
-72.3397071609
 20
-24.1092982131
 10
-72.3997223654
 20
-24.0219830782
 10
-72.450161763
 20
-23.9288074342
 10
-72.4904595537
 20
-23.8308185611
 10
-72.5201635874
 20
-23.7291180681
 10
-72.5389413221
 20
-23.6248475322
 10
-72.5465825059
 20
-23.5191758972
 10
-72.5467665752
 20
-23.499990396
  0
LWPOLYLINE
  5
37A
100
AcDbEntity
  8
RACCORDO
100
AcDbPolyline
 62
7
  6
CONTINUOUS
 90
4
 70
0
 10
-72.2437498712
 20
-24.2414709472
 10
-72.2275244338
 20
-24.2653971627
 10
-72.1255722412
 20
-24.4283603884
 10
-72.094440407
 20
-24.4831791154
  0
LWPOLYLINE
  5
37B
100
AcDbEntity
  8
SUPERFICI
100
AcDbPolyline
 62
7
  6
CONTINUOUS
 90
3
 70
0
 10
-69.3076908817
 20
38.1709270616
 10
-69.4219489915
 20
37.8282989281
 10
-69.5327016797
 20
37.4865612884
  0
LINE
  5
37C
100
AcDbEntity
  8
SUPERFICI
100
AcDbLine
 62
7
  6
CONTINUOUS
 10
-69.1896986537
 20
38.5147773229
 11
-69.3076906871
 21
38.1709276371
  0
LWPOLYLINE
  5
37D
100
AcDbEntity
  8
SUPERFICI
100
AcDbPolyline
 62
7
  6
CONTINUOUS
 90
3
 70
0
 10
-68.9788300012
 20
39.105778558
 10
-69.0678442319
 20
38.8598401003
 10
-69.1896988025
 20
38.5147768955
  0
LWPOLYLINE
  5
37E
100
AcDbEntity
  8
RACCORDO
100
AcDbPolyline
 62
250
  6
CONTINUOUS
 90
8
 70
0
 10
-72.094440407
 20
-24.4831791154
 10
-72.0342671365
 20
-24.5975191318
 10
-71.9539840332
 20
-24.7721788
 10
-71.8850525866
 20
-24.9516222121
 10
-71.8277558404
 20
-25.1351125446
 10
-71.7823290641
 20
-25.3218963568
 10
-71.7489587876
 20
-25.5112066841
 10
-71.7277820346
 20
-25.7022661878
  0
LWPOLYLINE
  5
37F
100
AcDbEntity
  8
RACCORDO
100
AcDbPolyline
 62
7
  6
CONTINUOUS
 90
13
 70
0
 10
-68.9788298739
 20
-39.1057785026
 10
-68.9599802506
 20
-39.1534952391
 10
-68.9150359987
 20
-39.245777859
 10
-68.8609992748
 20
-39.3327790045
 10
-68.7984984312
 20
-39.4136207849
 10
-68.7282399681
 20
-39.4875045214
 10
-68.6509984631
 20
-39.5537151954
 10
-68.5676010782
 20
-39.6116285204
 10
-68.4789595312
 20
-39.6606895493
 10
-68.386061723
 20
-39.700436415
 10
-68.289903867
 20
-39.7305341367
 10
-68.1914718661
 20
-39.7507617961
 10
-68.0919854296
 20
-39.7609835318
  0
LINE
  5
380
100
AcDbEntity
  8
SUPERFICI
100
AcDbLine
 62
7
  6
CONTINUOUS
 10
-70.3069841409
 20
34.7721972159
 11
-70.3916706889
 21
34.4320152056
  0
LWPOLYLINE
  5
381
100
AcDbEntity
  8
SUPERFICI
100
AcDbPolyline
 62
7
  6
CONTINUOUS
 90
9
 70
0
 10
-69.5327014005
 20
37.4865621622
 10
-69.6399541902
 20
37.1460373874
 10
-69.7438229416
 20
36.8066955367
 10
-69.8446681725
 20
36.467644599
 10
-69.9425043493
 20
36.129080278
 10
-70.0373917188
 20
35.7910380312
 10
-70.1297104477
 20
35.4523484965
 10
-70.2196258455
 20
35.1125074118
 10
-70.3069841409
 20
34.7721972159
  0
LWPOLYLINE
  5
382
100
AcDbEntity
  8
0
100
AcDbPolyline
 62
7
  6
CONTINUOUS
 90
13
 70
0
 43
0.3500000006
 10
-83.0110558777
 20
-1.9285708809
 10
-83.2253403625
 20
-2.2142854156
 10
-83.8681938171
 20
-2.2142854156
 10
-84.2967627869
 20
-1.9285708809
 10
-84.2967627869
 20
-1.2857140274
 10
-83.8681938171
 20
-1.0000006256
 10
-83.2253403625
 20
-1.0000006256
 10
-83.0110558777
 20
-1.2857140274
 10
-82.5824778442
 20
-0.8571427917
 10
-81.7253399048
 20
-0.8571427917
 10
-81.2967709351
 20
-1.2857140274
 10
-81.2967709351
 20
-1.9285708809
 10
-81.7253399048
 20
-2.3571432495
  0
LWPOLYLINE
  5
383
100
AcDbEntity
  8
RACCORDO
100
AcDbPolyline
 62
250
  6
CONTINUOUS
 90
16
 70
0
 10
-68.9788386519
 20
39.1057533424
 10
-68.9788797606
 20
39.1055658945
 10
-68.9788542226
 20
39.1048315812
 10
-68.9786605428
 20
39.1036730012
 10
-68.9782989646
 20
39.1021149153
 10
-68.9777510062
 20
39.1002231716
 10
-68.9770331877
 20
39.0979870443
 10
-68.9761654521
 20
39.0954134007
 10
-68.9751263241
 20
39.0925951476
 10
-68.9739370682
 20
39.089531283
 10
-68.9726265471
 20
39.0862182581
 10
-68.9711761851
 20
39.0827462232
 10
-68.969610457
 20
39.0791103722
 10
-68.9679546975
 20
39.0753115044
 10
-68.9661842583
 20
39.0714494107
 10
-68.9624105407
 20
39.063529732
  0
LWPOLYLINE
  5
384
100
AcDbEntity
  8
SUPERFICI
100
AcDbPolyline
 62
7
  6
CONTINUOUS
 90
23
 70
0
 10
-70.3916706889
 20
34.4320152056
 10
-70.4738122688
 20
34.0916082335
 10
-70.5533184523
 20
33.7515092725
 10
-70.6297976978
 20
33.4136604831
 10
-70.703309526
 20
33.0781566442
 10
-70.7739124339
 20
32.7450899355
 10
-70.8412881644
 20
32.4164149296
 10
-70.9055171196
 20
32.0922924249
 10
-70.9667079075
 20
31.7727297536
 10
-71.0246517254
 20
31.4594562875
 10
-71.0794383152
 20
31.1527237316
 10
-71.1312221493
 20
30.8524076538
 10
-71.1799404101
 20
30.5596658674
 10
-71.2256511256
 20
30.2750302368
 10
-71.2685695937
 20
29.9980414779
 10
-71.3088775591
 20
29.7283631761
 10
-71.3466794871
 20
29.4661208267
 10
-71.3821067643
 20
29.2112298457
 10
-71.4153604106
 20
28.9630315409
 10
-71.4466388319
 20
28.7207570251
 10
-71.4759327336
 20
28.4851953572
 10
-71.5031405727
 20
28.2580215644
 10
-71.5515054203
 20
27.8310855343
  0
LINE
  5
385
100
AcDbEntity
  8
0
100
AcDbLine
 62
7
  6
CONTINUOUS
 10
-71.2775879797
 20
-28.8
 11
-71.3232421902
 21
-28.5416320479
  0
LINE
  5
386
100
AcDbEntity
  8
0
100
AcDbLine
 62
7
  6
CONTINUOUS
 10
-71.5255974951
 20
-28.5419944225
 11
-71.4801461799
 21
-28.8
  0
LINE
  5
387
100
AcDbEntity
  8
0
100
AcDbLine
 62
7
  6
CONTINUOUS
 10
-71.3232421902
 20
-28.5416320479
 11
-71.3680720534
 21
-28.2797179062
  0
LINE
  5
388
100
AcDbEntity
  8
0
100
AcDbLine
 62
7
  6
CONTINUOUS
 10
-71.5702564355
 20
-28.2802337662
 11
-71.5255974951
 21
-28.5419944225
  0
LINE
  5
389
100
AcDbEntity
  8
0
100
AcDbLine
 62
7
  6
CONTINUOUS
 10
-71.5138759386
 20
-28.800007
 11
-71.5558787074
 21
-28.5521569993
  0
LINE
  5
38A
100
AcDbEntity
  8
0
100
AcDbLine
 62
7
  6
CONTINUOUS
 10
-71.3680720534
 20
-28.2797179062
 11
-71.4120314599
 21
-28.0142132476
  0
LINE
  5
38B
100
AcDbEntity
  8
0
100
AcDbLine
 62
7
  6
CONTINUOUS
 10
-71.6140756154
 20
-28.0146749352
 11
-71.5702564355
 21
-28.2802337662
  0
LINE
  5
38C
100
AcDbEntity
  8
0
100
AcDbLine
 62
7
  6
CONTINUOUS
 10
-71.5558787074
 20
-28.5521569993
 11
-71.5965982171
 21
-28.3035419639
  0
LWPOLYLINE
  5
38D
100
AcDbEntity
  8
0
100
AcDbPolyline
 62
7
  6
CONTINUOUS
 90
3
 70
0
 10
-71.4120314599
 20
-28.0142132476
 10
-71.4549359714
 20
-27.7449407625
 10
-71.4760041689
 20
-27.6089026669
  0
LINE
  5
38E
100
AcDbEntity
  8
0
100
AcDbLine
 62
7
  6
CONTINUOUS
 10
-71.6568654923
 20
-27.7451455465
 11
-71.6140756154
 21
-28.0146749352
  0
LINE
  5
38F
100
AcDbEntity
  8
0
100
AcDbLine
 62
7
  6
CONTINUOUS
 10
-71.5965982171
 20
-28.3035419639
 11
-71.6360108046
 21
-28.0541618638
  0
LINE
  5
390
100
AcDbEntity
  8
0
100
AcDbLine
 62
7
  6
CONTINUOUS
 10
-71.6778862885
 20
-27.6089026669
 11
-71.6568654923
 21
-27.7451455465
  0
LWPOLYLINE
  5
391
100
AcDbEntity
  8
0
100
AcDbPolyline
 62
7
  6
CONTINUOUS
 90
3
 70
0
 10
-71.6360108046
 20
-28.0541618638
 10
-71.6740218166
 20
-27.8040165791
 10
-71.6925076476
 20
-27.678657
  0
LINE
  5
392
100
AcDbEntity
  8
0
100
AcDbLine
 62
7
  6
CONTINUOUS
 10
-71.8291601688
 20
-26.8439960038
 11
-71.7944578059
 21
-27.1637580105
  0
LWPOLYLINE
  5
393
100
AcDbEntity
  8
0
100
AcDbPolyline
 62
7
  6
CONTINUOUS
 90
3
 70
0
 10
-71.7969135789
 20
-27.0297459983
 10
-71.831659842
 20
-26.7072264689
 10
-71.8482568841
 20
-26.5458649917
  0
LINE
  5
394
100
AcDbEntity
  8
0
100
AcDbLine
 62
7
  6
CONTINUOUS
 10
-71.8424282999
 20
-26.5150654106
 11
-71.8171699481
 21
-26.7507108614
  0
LINE
  5
395
100
AcDbEntity
  8
0
100
AcDbLine
 62
7
  6
CONTINUOUS
 10
-71.7516168746
 20
-26.7942849419
 11
-71.7313908023
 21
-26.9824190596
  0
LINE
  5
396
100
AcDbEntity
  8
0
100
AcDbLine
 62
7
  6
CONTINUOUS
 10
-71.5262737429
 20
-27.0160737896
 11
-71.5475773315
 21
-26.8168495013
  0
LINE
  5
397
100
AcDbEntity
  8
0
100
AcDbLine
 62
7
  6
CONTINUOUS
 10
-71.8506212861
 20
-26.436398
 11
-71.8424282999
 21
-26.5150654106
  0
LWPOLYLINE
  5
398
100
AcDbEntity
  8
0
100
AcDbPolyline
 62
7
  6
CONTINUOUS
 90
4
 70
0
 10
-71.7676869986
 20
-26.9137931247
 10
-71.7724043687
 20
-26.8678039574
 10
-71.7775746362
 20
-26.8202987978
 10
-71.7884186365
 20
-26.7244374341
  0
LINE
  5
399
100
AcDbEntity
  8
0
100
AcDbLine
 62
7
  6
CONTINUOUS
 10
-71.5139400809
 20
-27.1367809069
 11
-71.5262737429
 21
-27.0160737896
  0
LINE
  5
39A
100
AcDbEntity
  8
0
100
AcDbLine
 62
7
  6
CONTINUOUS
 10
-71.7313908023
 20
-26.9824190596
 11
-71.7134955357
 21
-27.158281987
  0
LINE
  5
39B
100
AcDbEntity
  8
0
100
AcDbLine
 62
7
  6
CONTINUOUS
 10
-71.8610723323
 20
-26.5267676429
 11
-71.8291601688
 21
-26.8439960038
  0
LINE
  5
39C
100
AcDbEntity
  8
0
100
AcDbLine
 62
7
  6
CONTINUOUS
 10
-71.8902321628
 20
-26.2120613083
 11
-71.8610723323
 21
-26.5267676429
  0
LWPOLYLINE
  5
39D
100
AcDbEntity
  8
0
100
AcDbPolyline
 62
7
  6
CONTINUOUS
 90
3
 70
0
 10
-71.8642769641
 20
-26.3844484103
 10
-71.8945474569
 20
-26.0614559076
 10
-71.9088172602
 20
-25.899877
  0
LWPOLYLINE
  5
39E
100
AcDbEntity
  8
0
100
AcDbPolyline
 62
7
  6
CONTINUOUS
 90
7
 70
0
 10
-71.7134955357
 20
-27.158281987
 10
-71.6984314861
 20
-27.3192973847
 10
-71.692036511
 20
-27.3922230819
 10
-71.6867507515
 20
-27.4584045509
 10
-71.6826867149
 20
-27.5169808313
 10
-71.6797318939
 20
-27.5673506421
 10
-71.6778862885
 20
-27.6089026669
  0
LINE
  5
39F
100
AcDbEntity
  8
0
100
AcDbLine
 62
7
  6
CONTINUOUS
 10
-71.8721027433
 20
-26.5155122616
 11
-71.8459540615
 21
-26.8038521591
  0
LWPOLYLINE
  5
3A0
100
AcDbEntity
  8
0
100
AcDbPolyline
 62
7
  6
CONTINUOUS
 90
4
 70
0
 10
-71.4926811942
 20
-27.3633792344
 10
-71.4974572369
 20
-27.3093750217
 10
-71.502705832
 20
-27.2530908251
 10
-71.5139400809
 20
-27.1367809069
  0
LINE
  5
3A1
100
AcDbEntity
  8
0
100
AcDbLine
 62
7
  6
CONTINUOUS
 10
-71.9166396603
 20
-25.899877
 11
-71.8902321628
 21
-26.2120613083
  0
LINE
  5
3A2
100
AcDbEntity
  8
SUPERFICI
100
AcDbLine
 62
7
  6
CONTINUOUS
 10
-71.7366903028
 20
-25.7227082929
 11
-71.7245848225
 21
-25.899884
  0
LINE
  5
3A3
100
AcDbEntity
  8
SUPERFICI
100
AcDbLine
 62
7
  6
CONTINUOUS
 10
-71.7146696955
 20
26.0387052147
 11
-71.7366904388
 21
25.7227062282
  0
LINE
  5
3A4
100
AcDbEntity
  8
SUPERFICI
100
AcDbLine
 62
7
  6
CONTINUOUS
 10
-71.6899932033
 20
26.3629067302
 11
-71.7146696955
 21
26.0387052147
  0
LINE
  5
3A5
100
AcDbEntity
  8
SUPERFICI
100
AcDbLine
 62
7
  6
CONTINUOUS
 10
-71.6617739527
 20
26.7032400074
 11
-71.6899932033
 21
26.3629067302
  0
LINE
  5
3A6
100
AcDbEntity
  8
SUPERFICI
100
AcDbLine
 62
7
  6
CONTINUOUS
 10
-71.6296885297
 20
27.0597251172
 11
-71.6617739527
 21
26.7032400074
  0
LINE
  5
3A7
100
AcDbEntity
  8
SUPERFICI
100
AcDbLine
 62
7
  6
CONTINUOUS
 10
-71.5933461293
 20
27.4329574638
 11
-71.6296885297
 21
27.0597251172
  0
LINE
  5
3A8
100
AcDbEntity
  8
SUPERFICI
100
AcDbLine
 62
7
  6
CONTINUOUS
 10
-71.5515058302
 20
27.8310817763
 11
-71.5933461293
 21
27.4329574638
  0
LWPOLYLINE
  5
3A9
100
AcDbEntity
  8
SUPERFICI
100
AcDbPolyline
 62
7
  6
CONTINUOUS
 90
36
 70
0
 10
-71.334303116
 20
-29.5530346369
 10
-71.3010617159
 20
-29.781424214
 10
-71.2661861211
 20
-30.013688831
 10
-71.2294504308
 20
-30.250905528
 10
-71.1907281034
 20
-30.4933999433
 10
-71.1499986774
 20
-30.7408104117
 10
-71.1071771078
 20
-30.9931779344
 10
-71.0621489777
 20
-31.2506900214
 10
-71.0148718508
 20
-31.5131040497
 10
-70.9653755121
 20
-31.7798073277
 10
-70.9135565525
 20
-32.0509291407
 10
-70.8593753522
 20
-32.3262500488
 10
-70.802983141
 20
-32.6046313893
 10
-70.7443183426
 20
-32.8860539131
 10
-70.6833321671
 20
-33.1704296276
 10
-70.6202323699
 20
-33.4565205849
 10
-70.5549825763
 20
-33.7442728601
 10
-70.4875473808
 20
-34.03362448
 10
-70.418176642
 20
-34.3233346257
 10
-70.3468969246
 20
-34.6131785683
 10
-70.2736528836
 20
-34.9032680755
 10
-70.1986044396
 20
-35.1928784726
 10
-70.1218711802
 20
-35.4815010017
 10
-70.0433329992
 20
-35.7695394814
 10
-69.9627897619
 20
-36.0576356755
 10
-69.8802336778
 20
-36.3456998568
 10
-69.7956419277
 20
-36.6336938875
 10
-69.7087652988
 20
-36.9223186846
 10
-69.6195491801
 20
-37.2115766591
 10
-69.5279879742
 20
-37.5013065307
 10
-69.4338821109
 20
-37.7919436076
 10
-69.3371603683
 20
-38.0834884695
 10
-69.2378133194
 20
-38.3757494466
 10
-69.1357196888
 20
-38.6688579478
 10
-69.0308072743
 20
-38.9627835619
 10
-68.978830335
 20
-39.1057776451
  0
LWPOLYLINE
  5
3AA
100
AcDbEntity
  8
0
100
AcDbPolyline
 62
7
  6
CONTINUOUS
 90
10
 70
0
 10
-71.6263821928
 20
-26.1744136371
 10
-71.6343413494
 20
-26.1187486297
 10
-71.6419337433
 20
-26.0685179393
 10
-71.6490223546
 20
-26.024092609
 10
-71.6556246257
 20
-25.9856219943
 10
-71.6617231142
 20
-25.953879647
 10
-71.6671284732
 20
-25.9296696786
 10
-71.6717775871
 20
-25.912892259
 10
-71.6757335715
 20
-25.9030692323
 10
-71.6789964265
 20
-25.8998751129
  0
LINE
  5
3AB
100
AcDbEntity
  8
0
100
AcDbLine
 62
7
  6
CONTINUOUS
 10
-71.5920023123
 20
-28.800007
 11
-71.6189239197
 21
-28.6110694589
  0
LINE
  5
3AC
100
AcDbEntity
  8
0
100
AcDbLine
 62
7
  6
CONTINUOUS
 10
-71.6099619516
 20
-28.4186193237
 11
-71.5560592552
 21
-28.800007
  0
LINE
  5
3AD
100
AcDbEntity
  8
0
100
AcDbLine
 62
7
  6
CONTINUOUS
 10
-71.5720805724
 20
-28.800007
 11
-71.6169794398
 21
-28.4786105002
  0
LWPOLYLINE
  5
3AE
100
AcDbEntity
  8
0
100
AcDbPolyline
 62
7
  6
CONTINUOUS
 90
3
 70
0
 10
-71.6742153815
 20
-28.1380599949
 10
-71.6288823488
 20
-28.4677939133
 10
-71.5809105818
 20
-28.800015
  0
LINE
  5
3AF
100
AcDbEntity
  8
SUPERFICI
100
AcDbLine
 62
7
  6
CONTINUOUS
 10
-71.3960625882
 20
-29.1081773537
 11
-71.334303116
 21
-29.5530346369
  0
LINE
  5
3B0
100
AcDbEntity
  8
0
100
AcDbLine
 62
7
  6
CONTINUOUS
 10
-71.6093106588
 20
-26.3002332034
 11
-71.6263821928
 21
-26.1744136371
  0
LINE
  5
3B1
100
AcDbEntity
  8
0
100
AcDbLine
 62
7
  6
CONTINUOUS
 10
-71.6604452453
 20
-28.0448255372
 11
-71.6099619516
 21
-28.4186193237
  0
LINE
  5
3B2
100
AcDbEntity
  8
0
100
AcDbLine
 62
7
  6
CONTINUOUS
 10
-71.6169794398
 20
-28.4786105002
 11
-71.6601159399
 21
-28.1569972519
  0
LINE
  5
3B3
100
AcDbEntity
  8
0
100
AcDbLine
 62
7
  6
CONTINUOUS
 10
-71.8241382889
 20
-26.1986548204
 11
-71.8049248771
 21
-26.343335057
  0
LINE
  5
3B4
100
AcDbEntity
  8
0
100
AcDbLine
 62
7
  6
CONTINUOUS
 10
-71.7169096798
 20
-27.8108132447
 11
-71.6742153815
 21
-28.1380599949
  0
LWPOLYLINE
  5
3B5
100
AcDbEntity
  8
0
100
AcDbPolyline
 62
7
  6
CONTINUOUS
 90
10
 70
0
 10
-71.7995522958
 20
-26.6341374332
 10
-71.8047315622
 20
-26.5942134088
 10
-71.8096970222
 20
-26.5582620153
 10
-71.814276386
 20
-26.5264875473
 10
-71.8184487194
 20
-26.4992344031
 10
-71.8222349567
 20
-26.4767609484
 10
-71.8255256104
 20
-26.4591346163
 10
-71.8282841848
 20
-26.4464827823
 10
-71.8305471755
 20
-26.4389090217
 10
-71.8323145827
 20
-26.4364
  0
LINE
  5
3B6
100
AcDbEntity
  8
SUPERFICI
100
AcDbLine
 62
7
  6
CONTINUOUS
 10
-71.4364223405
 20
-28.800015
 11
-71.3960625882
 21
-29.1081773537
  0
LINE
  5
3B7
100
AcDbEntity
  8
0
100
AcDbLine
 62
7
  6
CONTINUOUS
 10
-71.6601159399
 20
-28.1569972519
 11
-71.7014810491
 21
-27.8351678511
  0
LINE
  5
3B8
100
AcDbEntity
  8
0
100
AcDbLine
 62
7
  6
CONTINUOUS
 10
-71.647191767
 20
-28.5128785694
 11
-71.6103453563
 21
-28.800007
  0
LINE
  5
3B9
100
AcDbEntity
  8
0
100
AcDbLine
 62
7
  6
CONTINUOUS
 10
-71.7076290413
 20
-27.67865
 11
-71.6604452453
 21
-28.0448255372
  0
LINE
  5
3BA
100
AcDbEntity
  8
0
100
AcDbLine
 62
7
  6
CONTINUOUS
 10
-71.5913794892
 20
-26.4415103547
 11
-71.6093106588
 21
-26.3002332034
  0
LINE
  5
3BB
100
AcDbEntity
  8
0
100
AcDbLine
 62
7
  6
CONTINUOUS
 10
-71.7570031101
 20
-27.4860420435
 11
-71.7169096798
 21
-27.8108132447
  0
LWPOLYLINE
  5
3BC
100
AcDbEntity
  8
0
100
AcDbPolyline
 62
7
  6
CONTINUOUS
 90
3
 70
0
 10
-71.7048963575
 20
-28.1268149701
 10
-71.6638742444
 20
-28.4613687521
 10
-71.6203162415
 20
-28.800015
  0
LINE
  5
3BD
100
AcDbEntity
  8
0
100
AcDbLine
 62
7
  6
CONTINUOUS
 10
-71.6821919418
 20
-28.229679
 11
-71.647191767
 21
-28.5128785694
  0
LINE
  5
3BE
100
AcDbEntity
  8
0
100
AcDbLine
 62
7
  6
CONTINUOUS
 10
-71.7884186365
 20
-26.7244374341
 11
-71.7995522958
 21
-26.6341374332
  0
LINE
  5
3BF
100
AcDbEntity
  8
0
100
AcDbLine
 62
7
  6
CONTINUOUS
 10
-71.8049248771
 20
-26.343335057
 11
-71.7840343426
 21
-26.512479328
  0
LINE
  5
3C0
100
AcDbEntity
  8
0
100
AcDbLine
 62
7
  6
CONTINUOUS
 10
-71.7014810491
 20
-27.8351678511
 11
-71.7410538967
 21
-27.5131151991
  0
LINE
  5
3C1
100
AcDbEntity
  8
0
100
AcDbLine
 62
7
  6
CONTINUOUS
 10
-71.7840343426
 20
-26.512479328
 11
-71.7730214061
 21
-26.6048063024
  0
LINE
  5
3C2
100
AcDbEntity
  8
0
100
AcDbLine
 62
7
  6
CONTINUOUS
 10
-71.5731470471
 20
-26.5922586775
 11
-71.5913794892
 21
-26.4415103547
  0
LINE
  5
3C3
100
AcDbEntity
  8
0
100
AcDbLine
 62
7
  6
CONTINUOUS
 10
-71.6773729533
 20
-28.3167182561
 11
-71.7156058623
 21
-27.9946523684
  0
LINE
  5
3C4
100
AcDbEntity
  8
0
100
AcDbLine
 62
7
  6
CONTINUOUS
 10
-71.743382581
 20
-27.796353654
 11
-71.7048963575
 21
-28.1268149701
  0
LINE
  5
3C5
100
AcDbEntity
  8
0
100
AcDbLine
 62
7
  6
CONTINUOUS
 10
-71.7944578059
 20
-27.1637580105
 11
-71.7570031101
 21
-27.4860420435
  0
LINE
  5
3C6
100
AcDbEntity
  8
0
100
AcDbLine
 62
7
  6
CONTINUOUS
 10
-71.7410538967
 20
-27.5131151991
 11
-71.778764358
 21
-27.1909040504
  0
LINE
  5
3C7
100
AcDbEntity
  8
0
100
AcDbLine
 62
7
  6
CONTINUOUS
 10
-71.778764358
 20
-27.1909040504
 11
-71.7969135789
 21
-27.0297459983
  0
LINE
  5
3C8
100
AcDbEntity
  8
0
100
AcDbLine
 62
7
  6
CONTINUOUS
 10
-71.7156058623
 20
-27.9946523684
 11
-71.7520605358
 21
-27.6726326306
  0
LINE
  5
3C9
100
AcDbEntity
  8
0
100
AcDbLine
 62
7
  6
CONTINUOUS
 10
-71.7730214061
 20
-26.6048063024
 11
-71.7516168746
 21
-26.7942849419
  0
LWPOLYLINE
  5
3CA
100
AcDbEntity
  8
0
100
AcDbPolyline
 62
7
  6
CONTINUOUS
 90
3
 70
0
 10
-71.5475773315
 20
-26.8168495013
 10
-71.5557206938
 20
-26.7437430832
 10
-71.5731470471
 20
-26.5922586775
  0
LWPOLYLINE
  5
3CB
100
AcDbEntity
  8
0
100
AcDbPolyline
 62
7
  6
CONTINUOUS
 90
3
 70
0
 10
-71.8171699481
 20
-26.7507108614
 10
-71.8085232072
 20
-26.8291417918
 10
-71.7728898089
 20
-27.142128
  0
LINE
  5
3CC
100
AcDbEntity
  8
0
100
AcDbLine
 62
7
  6
CONTINUOUS
 10
-71.7561523149
 20
-27.6803490043
 11
-71.743382581
 21
-27.796353654
  0
LWPOLYLINE
  5
3CD
100
AcDbEntity
  8
RACCORDO
100
AcDbPolyline
 62
250
  6
CONTINUOUS
 90
3
 70
0
 10
-68.8907865851
 20
-36.8622746708
 10
-68.888751457
 20
-36.9114208616
 10
-68.8762406678
 20
-37.194054036
  0
LWPOLYLINE
  5
3CE
100
AcDbEntity
  8
0
100
AcDbPolyline
 62
7
  6
CONTINUOUS
 90
6
 70
0
 10
-71.4760041689
 20
-27.6089026669
 10
-71.4771399704
 20
-27.5798301593
 10
-71.4789332529
 20
-27.5458240091
 10
-71.4813840166
 20
-27.5070033239
 10
-71.4845539043
 20
-27.4632244537
 10
-71.4926811942
 20
-27.3633792344
  0
LWPOLYLINE
  5
3CF
100
AcDbEntity
  8
RACCORDO
100
AcDbPolyline
 62
250
  6
CONTINUOUS
 90
6
 70
0
 10
-71.7276033595
 20
-25.673580282
 10
-71.7273416811
 20
-25.6828007217
 10
-71.7272183643
 20
-25.6904786316
 10
-71.7272549535
 20
-25.6963942961
 10
-71.7274466585
 20
-25.7003903375
 10
-71.7277912017
 20
-25.7022689508
  0
LWPOLYLINE
  5
3D0
100
AcDbEntity
  8
RACCORDO
100
AcDbPolyline
 62
250
  6
CONTINUOUS
 90
3
 70
0
 10
-71.7301513333
 20
-25.5946207426
 10
-71.7297567731
 20
-25.6102112779
 10
-71.7276033595
 20
-25.673580282
  0
LINE
  5
3D1
100
AcDbEntity
  8
RACCORDO
100
AcDbLine
 62
250
  6
CONTINUOUS
 10
-71.730778975
 20
-25.5598922956
 11
-71.7301513333
 21
-25.5946207426
  0
LINE
  5
3D2
100
AcDbEntity
  8
RACCORDO
100
AcDbLine
 62
250
  6
CONTINUOUS
 10
-72.3400824852
 20
-24.0647126972
 11
-72.3395987736
 21
-24.0926050413
  0
LINE
  5
3D3
100
AcDbEntity
  8
RACCORDO
100
AcDbLine
 62
250
  6
CONTINUOUS
 10
-71.731990821
 20
23.5076277086
 11
-71.7262021281
 21
23.1536312577
  0
LINE
  5
3D4
100
AcDbEntity
  8
RACCORDO
100
AcDbLine
 62
250
  6
CONTINUOUS
 10
-72.3403317841
 20
-24.0458573818
 11
-72.3400824852
 21
-24.0647126972
  0
LINE
  5
3D5
100
AcDbEntity
  8
RACCORDO
100
AcDbLine
 62
250
  6
CONTINUOUS
 10
-71.7262021281
 20
23.1536312577
 11
-71.7239070163
 21
22.9533684229
  0
LWPOLYLINE
  5
3D6
100
AcDbEntity
  8
RACCORDO
100
AcDbPolyline
 62
250
  6
CONTINUOUS
 90
6
 70
0
 10
-72.3395987736
 20
-24.0926050413
 10
-72.339495859
 20
-24.1015460084
 10
-72.3394937338
 20
-24.1048782117
 10
-72.3395294991
 20
-24.107384923
 10
-72.3396006469
 20
-24.1089003482
 10
-72.3397071609
 20
-24.1092982131
  0
LINE
  5
3D7
100
AcDbEntity
  8
RACCORDO
100
AcDbLine
 62
250
  6
CONTINUOUS
 10
-71.7314347606
 20
-25.5006913005
 11
-71.730778975
 21
-25.5598922956
  0
LINE
  5
3D8
100
AcDbEntity
  8
RACCORDO
100
AcDbLine
 62
250
  6
CONTINUOUS
 10
-71.735002113
 20
23.7950833056
 11
-71.731990821
 21
23.5076277086
  0
LINE
  5
3D9
100
AcDbEntity
  8
RACCORDO
100
AcDbLine
 62
250
  6
CONTINUOUS
 10
-71.7359608232
 20
-24.8640602912
 11
-71.7323630413
 21
-25.2036391042
  0
LINE
  5
3DA
100
AcDbEntity
  8
RACCORDO
100
AcDbLine
 62
250
  6
CONTINUOUS
 10
-72.3406784881
 20
-24.0012255042
 11
-72.3403317841
 21
-24.0458573818
  0
LINE
  5
3DB
100
AcDbEntity
  8
RACCORDO
100
AcDbLine
 62
250
  6
CONTINUOUS
 10
-71.7239070163
 20
22.9533684229
 11
-71.722375875
 21
22.728293921
  0
LINE
  5
3DC
100
AcDbEntity
  8
RACCORDO
100
AcDbLine
 62
250
  6
CONTINUOUS
 10
-72.3418976245
 20
23.123525451
 11
-72.3384616583
 21
22.6371391358
  0
LINE
  5
3DD
100
AcDbEntity
  8
RACCORDO
100
AcDbLine
 62
250
  6
CONTINUOUS
 10
-71.7371984232
 20
24.1577218803
 11
-71.735002113
 21
23.7950833056
  0
LINE
  5
3DE
100
AcDbEntity
  8
RACCORDO
100
AcDbLine
 62
250
  6
CONTINUOUS
 10
-71.7373031185
 20
-24.6254853168
 11
-71.7359608232
 21
-24.8640602912
  0
LINE
  5
3DF
100
AcDbEntity
  8
RACCORDO
100
AcDbLine
 62
250
  6
CONTINUOUS
 10
-71.7323630413
 20
-25.2036391042
 11
-71.731952644
 21
-25.2805001456
  0
LINE
  5
3E0
100
AcDbEntity
  8
RACCORDO
100
AcDbLine
 62
250
  6
CONTINUOUS
 10
-71.7318671037
 20
-25.4160898505
 11
-71.7314347606
 21
-25.5006913005
  0
LINE
  5
3E1
100
AcDbEntity
  8
RACCORDO
100
AcDbLine
 62
250
  6
CONTINUOUS
 10
-72.3424329167
 20
-23.5737185881
 11
-72.3409691037
 21
-23.8646167805
  0
LINE
  5
3E2
100
AcDbEntity
  8
RACCORDO
100
AcDbLine
 62
250
  6
CONTINUOUS
 10
-71.7287673769
 20
-20.718533183
 11
-71.7220494906
 21
-22.3969729627
  0
LINE
  5
3E3
100
AcDbEntity
  8
RACCORDO
100
AcDbLine
 62
250
  6
CONTINUOUS
 10
-72.3409691037
 20
-23.8646167805
 11
-72.3406784881
 21
-24.0012255042
  0
LINE
  5
3E4
100
AcDbEntity
  8
RACCORDO
100
AcDbLine
 62
250
  6
CONTINUOUS
 10
-72.3384616583
 20
22.6371391358
 11
-72.337891408
 21
22.3968906252
  0
LINE
  5
3E5
100
AcDbEntity
  8
RACCORDO
100
AcDbLine
 62
250
  6
CONTINUOUS
 10
-72.3426273535
 20
23.4218183985
 11
-72.3418976245
 21
23.123525451
  0
LINE
  5
3E6
100
AcDbEntity
  8
0
100
AcDbLine
 62
7
  6
CONTINUOUS
 10
-72.5467665752
 20
23.4999874464
 11
-72.5467665752
 21
-23.4999886603
  0
LINE
  5
3E7
100
AcDbEntity
  8
RACCORDO
100
AcDbLine
 62
250
  6
CONTINUOUS
 10
-71.7372649581
 20
-1.8534699552
 11
-71.7287673769
 21
-20.718533183
  0
LINE
  5
3E8
100
AcDbEntity
  8
RACCORDO
100
AcDbLine
 62
250
  6
CONTINUOUS
 10
-71.722375875
 20
22.728293921
 11
-71.7219298644
 21
22.4698277574
  0
LINE
  5
3E9
100
AcDbEntity
  8
RACCORDO
100
AcDbLine
 62
250
  6
CONTINUOUS
 10
-71.7375925391
 20
24.5075046731
 11
-71.7371984232
 21
24.1577218803
  0
LINE
  5
3EA
100
AcDbEntity
  8
RACCORDO
100
AcDbLine
 62
250
  6
CONTINUOUS
 10
-71.7376015877
 20
-24.3193088624
 11
-71.7373031185
 21
-24.6254853168
  0
LINE
  5
3EB
100
AcDbEntity
  8
RACCORDO
100
AcDbLine
 62
250
  6
CONTINUOUS
 10
-71.731952644
 20
-25.2805001456
 11
-71.7318671037
 21
-25.4160898505
  0
LINE
  5
3EC
100
AcDbEntity
  8
RACCORDO
100
AcDbLine
 62
250
  6
CONTINUOUS
 10
-72.3424801393
 20
-23.2913488631
 11
-72.3424329167
 21
-23.5737185881
  0
LINE
  5
3ED
100
AcDbEntity
  8
RACCORDO
100
AcDbLine
 62
250
  6
CONTINUOUS
 10
-71.7220494906
 20
-22.3969729627
 11
-71.7221097267
 21
-22.655516855
  0
LINE
  5
3EE
100
AcDbEntity
  8
RACCORDO
100
AcDbLine
 62
250
  6
CONTINUOUS
 10
-71.7318428117
 20
25.4282016342
 11
-71.7320382135
 21
25.2604313884
  0
LINE
  5
3EF
100
AcDbEntity
  8
RACCORDO
100
AcDbLine
 62
250
  6
CONTINUOUS
 10
-72.337891408
 20
22.3968906252
 11
-72.342733118
 21
-2.4351755597
  0
LINE
  5
3F0
100
AcDbEntity
  8
RACCORDO
100
AcDbLine
 62
250
  6
CONTINUOUS
 10
-72.3421656941
 20
23.6504437513
 11
-72.3426273535
 21
23.4218183985
  0
LINE
  5
3F1
100
AcDbEntity
  8
RACCORDO
100
AcDbLine
 62
250
  6
CONTINUOUS
 10
-72.342733118
 20
-2.4351755597
 11
-72.3383508122
 21
-22.6124664167
  0
LINE
  5
3F2
100
AcDbEntity
  8
RACCORDO
100
AcDbLine
 62
250
  6
CONTINUOUS
 10
-72.3407027635
 20
23.9965330115
 11
-72.34113367
 21
23.8244793778
  0
LINE
  5
3F3
100
AcDbEntity
  8
RACCORDO
100
AcDbLine
 62
250
  6
CONTINUOUS
 10
-71.7366243392
 20
24.7687807843
 11
-71.7375925391
 21
24.5075046731
  0
LINE
  5
3F4
100
AcDbEntity
  8
RACCORDO
100
AcDbLine
 62
250
  6
CONTINUOUS
 10
-71.7219298644
 20
22.4698277574
 11
-71.7230366064
 21
22.1760350032
  0
LINE
  5
3F5
100
AcDbEntity
  8
RACCORDO
100
AcDbLine
 62
250
  6
CONTINUOUS
 10
-71.7362491346
 20
-23.9648973476
 11
-71.7376015877
 21
-24.3193088624
  0
LINE
  5
3F6
100
AcDbEntity
  8
RACCORDO
100
AcDbLine
 62
250
  6
CONTINUOUS
 10
-71.7230357669
 20
22.1760349975
 11
-71.7372649581
 21
-1.8534699552
  0
LINE
  5
3F7
100
AcDbEntity
  8
RACCORDO
100
AcDbLine
 62
250
  6
CONTINUOUS
 10
-72.3411530096
 20
-22.9943633459
 11
-72.3424801393
 21
-23.2913488631
  0
LINE
  5
3F8
100
AcDbEntity
  8
RACCORDO
100
AcDbLine
 62
250
  6
CONTINUOUS
 10
-72.34113367
 20
23.8244793778
 11
-72.3421656941
 21
23.6504437513
  0
LINE
  5
3F9
100
AcDbEntity
  8
RACCORDO
100
AcDbLine
 62
250
  6
CONTINUOUS
 10
-71.7221097267
 20
-22.655516855
 11
-71.7232599539
 21
-22.8762253418
  0
LINE
  5
3FA
100
AcDbEntity
  8
RACCORDO
100
AcDbLine
 62
250
  6
CONTINUOUS
 10
-71.7313275348
 20
25.5128363572
 11
-71.7318428117
 21
25.4282016342
  0
LINE
  5
3FB
100
AcDbEntity
  8
RACCORDO
100
AcDbLine
 62
250
  6
CONTINUOUS
 10
-71.7320382135
 20
25.2604313884
 11
-71.7325704957
 21
25.1784931372
  0
LWPOLYLINE
  5
3FC
100
AcDbEntity
  8
RACCORDO
100
AcDbPolyline
 62
250
  6
CONTINUOUS
 90
3
 70
0
 10
-72.3383508122
 20
-22.6124664167
 10
-72.3396695797
 20
-22.8140038888
 10
-72.3411530096
 20
-22.9943633459
  0
LINE
  5
3FD
100
AcDbEntity
  8
RACCORDO
100
AcDbLine
 62
250
  6
CONTINUOUS
 10
-72.340383033
 20
24.0408539834
 11
-72.3407027635
 21
23.9965330115
  0
LINE
  5
3FE
100
AcDbEntity
  8
RACCORDO
100
AcDbLine
 62
250
  6
CONTINUOUS
 10
-71.7352149507
 20
24.9460960025
 11
-71.7366243392
 21
24.7687807843
  0
LINE
  5
3FF
100
AcDbEntity
  8
RACCORDO
100
AcDbLine
 62
250
  6
CONTINUOUS
 10
-71.7330865207
 20
-23.5992594676
 11
-71.7362491346
 21
-23.9648973476
  0
LINE
  5
400
100
AcDbEntity
  8
RACCORDO
100
AcDbLine
 62
250
  6
CONTINUOUS
 10
-71.7325704957
 20
25.1784931372
 11
-71.7352149507
 21
24.9460960025
  0
LINE
  5
401
100
AcDbEntity
  8
RACCORDO
100
AcDbLine
 62
250
  6
CONTINUOUS
 10
-71.7232599539
 20
-22.8762253418
 11
-71.7256519336
 21
-23.1123186453
  0
LINE
  5
402
100
AcDbEntity
  8
RACCORDO
100
AcDbLine
 62
250
  6
CONTINUOUS
 10
-71.7308994308
 20
25.5512707761
 11
-71.7313275348
 21
25.5128363572
  0
LINE
  5
403
100
AcDbEntity
  8
RACCORDO
100
AcDbLine
 62
250
  6
CONTINUOUS
 10
-72.340158551
 20
24.0598082069
 11
-72.340383033
 21
24.0408539834
  0
LINE
  5
404
100
AcDbEntity
  8
RACCORDO
100
AcDbLine
 62
250
  6
CONTINUOUS
 10
-71.7310717757
 20
-23.4403668669
 11
-71.7330865207
 21
-23.5992594676
  0
LWPOLYLINE
  5
405
100
AcDbEntity
  8
RACCORDO
100
AcDbPolyline
 62
250
  6
CONTINUOUS
 90
3
 70
0
 10
-71.7256519336
 20
-23.1123186453
 10
-71.7275649015
 20
-23.2404099862
 10
-71.7310717757
 20
-23.4403668669
  0
LINE
  5
406
100
AcDbEntity
  8
RACCORDO
100
AcDbLine
 62
250
  6
CONTINUOUS
 10
-71.730318038
 20
25.5860869852
 11
-71.7308994308
 21
25.5512707761
  0
LINE
  5
407
100
AcDbEntity
  8
RACCORDO
100
AcDbLine
 62
250
  6
CONTINUOUS
 10
-72.3395711416
 20
24.0941258082
 11
-72.340158551
 21
24.0598082069
  0
LWPOLYLINE
  5
408
100
AcDbEntity
  8
RACCORDO
100
AcDbPolyline
 62
250
  6
CONTINUOUS
 90
3
 70
0
 10
-71.7291619937
 20
25.6301409771
 10
-71.7296026896
 20
25.6163567676
 10
-71.730318038
 20
25.5860869852
  0
LINE
  5
409
100
AcDbEntity
  8
RACCORDO
100
AcDbLine
 62
250
  6
CONTINUOUS
 10
-71.7277775091
 20
25.6665227664
 11
-71.7291619937
 21
25.6301409771
  0
LWPOLYLINE
  5
40A
100
AcDbEntity
  8
RACCORDO
100
AcDbPolyline
 62
250
  6
CONTINUOUS
 90
18
 70
0
 10
-71.7366904373
 20
25.7227062236
 10
-71.7366917207
 20
25.7226758536
 10
-71.7366895304
 20
25.7225865002
 10
-71.7366792947
 20
25.7224808402
 10
-71.7366609522
 20
25.7223588679
 10
-71.7366344622
 20
25.7222203921
 10
-71.7365998833
 20
25.72206564
 10
-71.7365573538
 20
25.7218950336
 10
-71.7365069365
 20
25.7217086131
 10
-71.7364488292
 20
25.7215068969
 10
-71.7363832838
 20
25.7212905235
 10
-71.7363103962
 20
25.7210595889
 10
-71.7362304269
 20
25.7208147085
 10
-71.7361437025
 20
25.7205566551
 10
-71.7360503636
 20
25.7202856256
 10
-71.7359507317
 20
25.7200023427
 10
-71.7358451754
 20
25.7197076362
 10
-71.7357338557
 20
25.7194017469
  0
LINE
  5
40B
100
AcDbEntity
  8
RACCORDO
100
AcDbLine
 62
250
  6
CONTINUOUS
 10
-68.8762406774
 20
37.1940537979
 11
-68.890454713
 21
36.8704372752
  0
LWPOLYLINE
  5
40C
100
AcDbEntity
  8
0
100
AcDbPolyline
 62
7
  6
CONTINUOUS
 90
4
 70
0
 43
0.3500000006
 10
-81.7253399048
 20
-2.3571432495
 10
-82.5824778442
 20
-2.3571432495
 10
-83.0110558777
 20
-1.9285708809
 10
-83.0110558777
 20
-1.2857140274
  0
LINE
  5
40D
100
AcDbEntity
  8
0
100
AcDbLine
 62
7
  6
CONTINUOUS
 10
-63.5312795285
 20
-3.6749773271
 11
-65.5312795285
 21
-3.5
  0
LINE
  5
40E
100
AcDbEntity
  8
RACCORDO
100
AcDbLine
 62
250
  6
CONTINUOUS
 10
-67.9529289927
 20
-36.8638464401
 11
-67.9460441309
 21
-37.0
  0
LINE
  5
40F
100
AcDbEntity
  8
RACCORDO
100
AcDbLine
 62
250
  6
CONTINUOUS
 10
-67.9596362519
 20
-36.71866587
 11
-67.9529289927
 21
-36.8638464401
  0
LINE
  5
410
100
AcDbEntity
  8
RACCORDO
100
AcDbLine
 62
250
  6
CONTINUOUS
 10
-67.9656860603
 20
-36.5717505131
 11
-67.9596362519
 21
-36.71866587
  0
LINE
  5
411
100
AcDbEntity
  8
RACCORDO
100
AcDbLine
 62
250
  6
CONTINUOUS
 10
-68.8762406678
 20
-37.194054036
 11
-68.8710411599
 21
-37.3307280138
  0
LINE
  5
412
100
AcDbEntity
  8
RACCORDO
100
AcDbLine
 62
250
  6
CONTINUOUS
 10
-68.8964795006
 20
-36.7108787002
 11
-68.8907865851
 21
-36.8622746708
  0
LINE
  5
413
100
AcDbEntity
  8
RACCORDO
100
AcDbLine
 62
250
  6
CONTINUOUS
 10
-67.9707681532
 20
-36.4286891509
 11
-67.9656860603
 21
-36.5717505131
  0
LINE
  5
414
100
AcDbEntity
  8
RACCORDO
100
AcDbLine
 62
250
  6
CONTINUOUS
 10
-68.8997618799
 20
-36.6093509241
 11
-68.8964795006
 21
-36.7108787002
  0
LINE
  5
415
100
AcDbEntity
  8
RACCORDO
100
AcDbLine
 62
250
  6
CONTINUOUS
 10
-68.8710411599
 20
-37.3307280138
 11
-68.8631317905
 21
-37.5837112556
  0
LINE
  5
416
100
AcDbEntity
  8
RACCORDO
100
AcDbLine
 62
250
  6
CONTINUOUS
 10
-67.9735911364
 20
-36.3357343682
 11
-67.9707681532
 21
-36.4286891509
  0
LINE
  5
417
100
AcDbEntity
  8
RACCORDO
100
AcDbLine
 62
250
  6
CONTINUOUS
 10
-67.9460441309
 20
-37.0
 11
-67.933726957
 21
-37.4241513823
  0
LINE
  5
418
100
AcDbEntity
  8
RACCORDO
100
AcDbLine
 62
250
  6
CONTINUOUS
 10
-68.9025104635
 20
-36.509700795
 11
-68.8997618799
 21
-36.6093509241
  0
LINE
  5
419
100
AcDbEntity
  8
RACCORDO
100
AcDbLine
 62
250
  6
CONTINUOUS
 10
-67.975931325
 20
-36.243338825
 11
-67.9735911364
 21
-36.3357343682
  0
LINE
  5
41A
100
AcDbEntity
  8
RACCORDO
100
AcDbLine
 62
250
  6
CONTINUOUS
 10
-68.8631317905
 20
-37.5837112556
 11
-68.8577378747
 21
-37.8075904375
  0
LINE
  5
41B
100
AcDbEntity
  8
RACCORDO
100
AcDbLine
 62
250
  6
CONTINUOUS
 10
-67.933726957
 20
-37.4241513823
 11
-67.9247766632
 21
-37.808141653
  0
LINE
  5
41C
100
AcDbEntity
  8
RACCORDO
100
AcDbLine
 62
250
  6
CONTINUOUS
 10
-68.9046902757
 20
-36.4115387135
 11
-68.9025104635
 21
-36.509700795
  0
LINE
  5
41D
100
AcDbEntity
  8
RACCORDO
100
AcDbLine
 62
250
  6
CONTINUOUS
 10
-67.9777986107
 20
-36.1506390447
 11
-67.975931325
 21
-36.243338825
  0
LINE
  5
41E
100
AcDbEntity
  8
RACCORDO
100
AcDbLine
 62
250
  6
CONTINUOUS
 10
-68.8577378747
 20
-37.8075904375
 11
-68.8541532023
 21
-38.0021164986
  0
LINE
  5
41F
100
AcDbEntity
  8
RACCORDO
100
AcDbLine
 62
250
  6
CONTINUOUS
 10
-68.9062681684
 20
-36.3143722867
 11
-68.9046902757
 21
-36.4115387135
  0
LINE
  5
420
100
AcDbEntity
  8
RACCORDO
100
AcDbLine
 62
250
  6
CONTINUOUS
 10
-67.9247766632
 20
-37.808141653
 11
-67.9166433552
 21
-38.3003154394
  0
LINE
  5
421
100
AcDbEntity
  8
RACCORDO
100
AcDbLine
 62
250
  6
CONTINUOUS
 10
-68.8518489267
 20
38.6928794189
 11
-68.8508324888
 21
38.6225525803
  0
LINE
  5
422
100
AcDbEntity
  8
RACCORDO
100
AcDbLine
 62
250
  6
CONTINUOUS
 10
-68.8541532023
 20
-38.0021164986
 11
-68.8518875081
 21
-38.1697857759
  0
LINE
  5
423
100
AcDbEntity
  8
RACCORDO
100
AcDbLine
 62
250
  6
CONTINUOUS
 10
-67.9166433552
 20
-38.3003154394
 11
-67.9123744269
 21
-38.6950652777
  0
LINE
  5
424
100
AcDbEntity
  8
RACCORDO
100
AcDbLine
 62
250
  6
CONTINUOUS
 10
-68.0339480249
 20
-31.2827710125
 11
-67.9777986107
 21
-36.1506390447
  0
LINE
  5
425
100
AcDbEntity
  8
RACCORDO
100
AcDbLine
 62
250
  6
CONTINUOUS
 10
-68.8518875081
 20
-38.1697857759
 11
-68.8506183619
 21
-38.3128359314
  0
LINE
  5
426
100
AcDbEntity
  8
RACCORDO
100
AcDbLine
 62
250
  6
CONTINUOUS
 10
-68.9071018044
 20
-36.2167873633
 11
-68.9062681684
 21
-36.3143722867
  0
LINE
  5
427
100
AcDbEntity
  8
RACCORDO
100
AcDbLine
 62
250
  6
CONTINUOUS
 10
-68.9446302432
 20
-31.4637351453
 11
-68.9078701105
 21
-36.0196448811
  0
LINE
  5
428
100
AcDbEntity
  8
RACCORDO
100
AcDbLine
 62
250
  6
CONTINUOUS
 10
-68.8508324888
 20
38.6225525803
 11
-68.8502244646
 21
38.5370850688
  0
LINE
  5
429
100
AcDbEntity
  8
RACCORDO
100
AcDbLine
 62
250
  6
CONTINUOUS
 10
-68.0515552506
 20
-28.3692578062
 11
-68.0339480249
 21
-31.2827710125
  0
LINE
  5
42A
100
AcDbEntity
  8
RACCORDO
100
AcDbLine
 62
250
  6
CONTINUOUS
 10
-67.9123744269
 20
-38.6950652777
 11
-67.9106035804
 21
-39.0056352973
  0
LINE
  5
42B
100
AcDbEntity
  8
RACCORDO
100
AcDbLine
 62
250
  6
CONTINUOUS
 10
-68.9078701105
 20
-36.0196448811
 11
-68.9071018044
 21
-36.2167873633
  0
LINE
  5
42C
100
AcDbEntity
  8
RACCORDO
100
AcDbLine
 62
250
  6
CONTINUOUS
 10
-68.8506183619
 20
-38.3128359314
 11
-68.8501151446
 21
-38.4345034759
  0
LINE
  5
42D
100
AcDbEntity
  8
RACCORDO
100
AcDbLine
 62
250
  6
CONTINUOUS
 10
-67.9108357023
 20
39.3123512733
 11
-67.9104179473
 21
39.1728448051
  0
LINE
  5
42E
100
AcDbEntity
  8
RACCORDO
100
AcDbLine
 62
250
  6
CONTINUOUS
 10
-68.9670647068
 20
-19.1254494809
 11
-68.9446302432
 21
-31.4637351453
  0
LINE
  5
42F
100
AcDbEntity
  8
RACCORDO
100
AcDbLine
 62
250
  6
CONTINUOUS
 10
-68.0835056612
 20
-2.8594860169
 11
-68.0515552506
 21
-28.3692578062
  0
LINE
  5
430
100
AcDbEntity
  8
RACCORDO
100
AcDbLine
 62
250
  6
CONTINUOUS
 10
-68.8502244646
 20
38.5370850688
 11
-68.8501151434
 21
38.4345043125
  0
LWPOLYLINE
  5
431
100
AcDbEntity
  8
RACCORDO
100
AcDbPolyline
 62
250
  6
CONTINUOUS
 90
3
 70
0
 10
-67.9106035804
 20
-39.0056352973
 10
-67.9105496901
 20
-39.2459278845
 10
-67.9108357025
 20
-39.3123512733
  0
LINE
  5
432
100
AcDbEntity
  8
RACCORDO
100
AcDbLine
 62
250
  6
CONTINUOUS
 10
-68.8501151446
 20
-38.4345034759
 11
-68.8502244621
 21
-38.5370844296
  0
LINE
  5
433
100
AcDbEntity
  8
RACCORDO
100
AcDbLine
 62
250
  6
CONTINUOUS
 10
-67.9104179473
 20
39.1728448051
 11
-67.9109885969
 21
38.9104020584
  0
LINE
  5
434
100
AcDbEntity
  8
RACCORDO
100
AcDbLine
 62
250
  6
CONTINUOUS
 10
-68.8501151434
 20
38.4345043125
 11
-68.8506183552
 21
38.3128370072
  0
LINE
  5
435
100
AcDbEntity
  8
RACCORDO
100
AcDbLine
 62
250
  6
CONTINUOUS
 10
-68.9415968038
 20
31.9960846761
 11
-68.9670647068
 21
-19.1254494809
  0
LINE
  5
436
100
AcDbEntity
  8
RACCORDO
100
AcDbLine
 62
250
  6
CONTINUOUS
 10
-68.0410019254
 20
30.3570281183
 11
-68.0835056612
 21
-2.8594860169
  0
LINE
  5
437
100
AcDbEntity
  8
RACCORDO
100
AcDbLine
 62
250
  6
CONTINUOUS
 10
-68.8502244621
 20
-38.5370844296
 11
-68.8508324837
 21
-38.622552108
  0
LINE
  5
438
100
AcDbEntity
  8
RACCORDO
100
AcDbLine
 62
250
  6
CONTINUOUS
 10
-67.9109885969
 20
38.9104020584
 11
-67.9134948033
 21
38.5734478735
  0
LINE
  5
439
100
AcDbEntity
  8
RACCORDO
100
AcDbLine
 62
250
  6
CONTINUOUS
 10
-68.8506183552
 20
38.3128370072
 11
-68.8518874913
 21
38.1697871984
  0
LWPOLYLINE
  5
43A
100
AcDbEntity
  8
RACCORDO
100
AcDbPolyline
 62
250
  6
CONTINUOUS
 90
3
 70
0
 10
-68.9061397467
 20
36.3242127333
 10
-68.9067031164
 20
36.2729251721
 10
-68.9079813286
 20
36.0082044548
  0
LINE
  5
43B
100
AcDbEntity
  8
RACCORDO
100
AcDbLine
 62
250
  6
CONTINUOUS
 10
-68.9079813286
 20
36.0082044548
 11
-68.9415968038
 21
31.9960846761
  0
LINE
  5
43C
100
AcDbEntity
  8
RACCORDO
100
AcDbLine
 62
250
  6
CONTINUOUS
 10
-68.0152558994
 20
33.157265637
 11
-68.0410019254
 21
30.3570281183
  0
LINE
  5
43D
100
AcDbEntity
  8
RACCORDO
100
AcDbLine
 62
250
  6
CONTINUOUS
 10
-68.8518874913
 20
38.1697871984
 11
-68.8541531767
 21
38.0021181882
  0
LINE
  5
43E
100
AcDbEntity
  8
RACCORDO
100
AcDbLine
 62
250
  6
CONTINUOUS
 10
-67.9134948033
 20
38.5734478735
 11
-67.918880485
 21
38.1475386004
  0
LINE
  5
43F
100
AcDbEntity
  8
RACCORDO
100
AcDbLine
 62
250
  6
CONTINUOUS
 10
-67.977780799
 20
36.151494363
 11
-68.0152558994
 21
33.157265637
  0
LWPOLYLINE
  5
440
100
AcDbEntity
  8
RACCORDO
100
AcDbPolyline
 62
250
  6
CONTINUOUS
 90
18
 70
0
 10
-68.8508324837
 20
-38.622552108
 10
-68.8518489202
 20
-38.6928790773
 10
-68.8524874725
 20
-38.7229895967
 10
-68.853202178
 20
-38.7500202674
 10
-68.8539851607
 20
-38.77415457
 10
-68.8548324257
 20
-38.7956664179
 10
-68.8557376706
 20
-38.8147162487
 10
-68.856694899
 20
-38.8314663041
 10
-68.8577030424
 20
-38.8461447864
 10
-68.8587569306
 20
-38.8588873637
 10
-68.8598513101
 20
-38.869828823
 10
-68.86098713
 20
-38.8791483106
 10
-68.8621600533
 20
-38.8869548777
 10
-68.863365748
 20
-38.8933568866
 10
-68.8646073983
 20
-38.8984875699
 10
-68.8658843862
 20
-38.9024378983
 10
-68.8671909305
 20
-38.9052790553
 10
-68.8685235278
 20
-38.9070917699
  0
LINE
  5
441
100
AcDbEntity
  8
RACCORDO
100
AcDbLine
 62
250
  6
CONTINUOUS
 10
-67.918880485
 20
38.1475386004
 11
-67.9247766095
 21
37.8081416526
  0
LINE
  5
442
100
AcDbEntity
  8
RACCORDO
100
AcDbLine
 62
250
  6
CONTINUOUS
 10
-68.9044210288
 20
36.4251471088
 11
-68.9061397467
 21
36.3242127333
  0
LINE
  5
443
100
AcDbEntity
  8
RACCORDO
100
AcDbLine
 62
250
  6
CONTINUOUS
 10
-68.8541531767
 20
38.0021181882
 11
-68.8577378359
 21
37.8075924152
  0
LINE
  5
444
100
AcDbEntity
  8
RACCORDO
100
AcDbLine
 62
250
  6
CONTINUOUS
 10
-67.9757673355
 20
36.2502705968
 11
-67.977780799
 21
36.151494363
  0
LINE
  5
445
100
AcDbEntity
  8
RACCORDO
100
AcDbLine
 62
250
  6
CONTINUOUS
 10
-68.9021162169
 20
36.5252236876
 11
-68.9044210288
 21
36.4251471088
  0
LINE
  5
446
100
AcDbEntity
  8
RACCORDO
100
AcDbLine
 62
250
  6
CONTINUOUS
 10
-67.9247766095
 20
37.8081416526
 11
-67.9337268813
 21
37.4241513813
  0
LINE
  5
447
100
AcDbEntity
  8
RACCORDO
100
AcDbLine
 62
250
  6
CONTINUOUS
 10
-68.8577378359
 20
37.8075924152
 11
-68.8631316843
 21
37.5837147161
  0
LINE
  5
448
100
AcDbEntity
  8
RACCORDO
100
AcDbLine
 62
250
  6
CONTINUOUS
 10
-67.9732717827
 20
36.3471170479
 11
-67.9757673355
 21
36.2502705968
  0
LINE
  5
449
100
AcDbEntity
  8
RACCORDO
100
AcDbLine
 62
250
  6
CONTINUOUS
 10
-68.8992885834
 20
36.6249302383
 11
-68.9021162169
 21
36.5252236876
  0
LINE
  5
44A
100
AcDbEntity
  8
RACCORDO
100
AcDbLine
 62
250
  6
CONTINUOUS
 10
-67.9337268813
 20
37.4241513813
 11
-67.9460441309
 21
37.0
  0
LWPOLYLINE
  5
44B
100
AcDbEntity
  8
RACCORDO
100
AcDbPolyline
 62
250
  6
CONTINUOUS
 90
3
 70
0
 10
-68.8631316843
 20
37.5837147161
 10
-68.871041086
 20
37.3307302501
 10
-68.8762406774
 20
37.1940537979
  0
LINE
  5
44C
100
AcDbEntity
  8
RACCORDO
100
AcDbLine
 62
250
  6
CONTINUOUS
 10
-67.9686674948
 20
36.4908450737
 11
-67.9732717827
 21
36.3471170479
  0
LINE
  5
44D
100
AcDbEntity
  8
RACCORDO
100
AcDbLine
 62
250
  6
CONTINUOUS
 10
-68.8942296061
 20
36.7736552924
 11
-68.8992885834
 21
36.6249302383
  0
LINE
  5
44E
100
AcDbEntity
  8
RACCORDO
100
AcDbLine
 62
250
  6
CONTINUOUS
 10
-68.890454713
 20
36.8704372752
 11
-68.8942296061
 21
36.7736552924
  0
LINE
  5
44F
100
AcDbEntity
  8
RACCORDO
100
AcDbLine
 62
250
  6
CONTINUOUS
 10
-67.9631867705
 20
36.6348068108
 11
-67.9686674948
 21
36.4908450737
  0
LINE
  5
450
100
AcDbEntity
  8
RACCORDO
100
AcDbLine
 62
250
  6
CONTINUOUS
 10
-67.9570032855
 20
36.7774679131
 11
-67.9631867705
 21
36.6348068108
  0
LWPOLYLINE
  5
451
100
AcDbEntity
  8
RACCORDO
100
AcDbPolyline
 62
250
  6
CONTINUOUS
 90
3
 70
0
 10
-67.9460441309
 20
37.0
 10
-67.9482573769
 20
36.9575819043
 10
-67.9570032855
 20
36.7774679131
  0
LWPOLYLINE
  5
452
100
AcDbEntity
  8
0
100
AcDbPolyline
 62
7
  6
CONTINUOUS
 90
13
 70
0
 43
0.3500000006
 10
-82.1539088745
 20
-0.0000003204
 10
-83.4396248474
 20
-0.0000003204
 10
-83.8681938171
 20
0.2142864304
 10
-84.2967627869
 20
0.642857666
 10
-84.2967627869
 20
0.8571421509
 10
-83.8681938171
 20
1.2857133865
 10
-83.4396248474
 20
1.5000001373
 10
-82.1539088745
 20
1.5000001373
 10
-81.7253399048
 20
1.2857133865
 10
-81.2967709351
 20
0.8571421509
 10
-81.2967709351
 20
0.642857666
 10
-81.7253399048
 20
0.2142864304
 10
-82.1539088745
 20
-0.0000003204
  0
LINE
  5
453
100
AcDbEntity
  8
RACCORDO
100
AcDbLine
 62
250
  6
CONTINUOUS
 10
-68.0836536833
 20
-0.0000054405
 11
-72.5467650134
 21
0.0
  0
LINE
  5
454
100
AcDbEntity
  8
RACCORDO
100
AcDbLine
 62
250
  6
CONTINUOUS
 10
-67.9138713732
 20
39.5592509871
 11
-67.9123702821
 21
39.4760941587
  0
LWPOLYLINE
  5
455
100
AcDbEntity
  8
RACCORDO
100
AcDbPolyline
 62
250
  6
CONTINUOUS
 90
3
 70
0
 10
-67.9123702821
 20
39.4760941587
 10
-67.9112357308
 20
39.3726514139
 10
-67.9108357023
 20
39.3123512733
  0
LINE
  5
456
100
AcDbEntity
  8
0
100
AcDbLine
 62
7
  6
CONTINUOUS
 10
-65.5312795285
 20
-3.5
 11
-65.5312795285
 21
3.5
  0
LINE
  5
457
100
AcDbEntity
  8
RACCORDO
100
AcDbLine
 62
250
  6
CONTINUOUS
 10
-67.9108357025
 20
-39.3123512733
 11
-67.9117459984
 21
-39.4271281467
  0
LWPOLYLINE
  5
458
100
AcDbEntity
  8
RACCORDO
100
AcDbPolyline
 62
250
  6
CONTINUOUS
 90
17
 70
0
 10
-67.9117459984
 20
-39.4271281467
 10
-67.9130796562
 20
-39.5200401425
 10
-67.9138713732
 20
-39.5592509871
 10
-67.9147481809
 20
-39.5940165348
 10
-67.9156893963
 20
-39.6247604211
 10
-67.9166928419
 20
-39.6517354436
 10
-67.9177606952
 20
-39.6751934676
 10
-67.9188788067
 20
-39.695480294
 10
-67.9200456925
 20
-39.7128084774
 10
-67.9212628364
 20
-39.7273884281
 10
-67.9225205396
 20
-39.7394888941
 10
-67.9238172761
 20
-39.7492811287
 10
-67.925154572
 20
-39.7569343377
 10
-67.9265273066
 20
-39.7626444654
 10
-67.927933773
 20
-39.7665503341
 10
-67.9293756782
 20
-39.7687688725
 10
-67.930853022
 20
-39.7694281234
  0
LWPOLYLINE
  5
459
100
AcDbEntity
  8
RACCORDO
100
AcDbPolyline
 62
250
  6
CONTINUOUS
 90
7
 70
0
 10
-72.3397072994
 20
24.1092980425
 10
-72.3396052155
 20
24.1089396259
 10
-72.3395348753
 20
24.1075582801
 10
-72.3394962933
 20
24.1052734926
 10
-72.3394904859
 20
24.1022488529
 10
-72.3395164458
 20
24.0985686373
 10
-72.3395711416
 20
24.0941258082
  0
LWPOLYLINE
  5
45A
100
AcDbEntity
  8
RACCORDO
100
AcDbPolyline
 62
250
  6
CONTINUOUS
 90
7
 70
0
 10
-71.727760706
 20
25.7022238375
 10
-71.7274488988
 20
25.7003947017
 10
-71.7272780957
 20
25.6967126341
 10
-71.7272373154
 20
25.6913309537
 10
-71.7273157502
 20
25.6844176818
 10
-71.727497654
 20
25.6761375246
 10
-71.7277775091
 20
25.6665227664
  0
LINE
  5
45B
100
AcDbEntity
  8
0
100
AcDbLine
 62
7
  6
CONTINUOUS
 10
-63.5312795285
 20
40.0
 11
-63.5312795285
 21
3.6749773271
  0
LINE
  5
45C
100
AcDbEntity
  8
0
100
AcDbLine
 62
7
  6
CONTINUOUS
 10
-63.5312795285
 20
-3.6749773271
 11
-63.5312795285
 21
-40.0
  0
LWPOLYLINE
  5
45D
100
AcDbEntity
  8
RACCORDO
100
AcDbPolyline
 62
250
  6
CONTINUOUS
 90
18
 70
0
 10
-71.7356730799
 20
-25.719236346
 10
-71.735787656
 20
-25.7195488089
 10
-71.7358965088
 20
-25.7198501206
 10
-71.7359993099
 20
-25.7201395572
 10
-71.7360958689
 20
-25.720416775
 10
-71.7361858683
 20
-25.720681054
 10
-71.7362690413
 20
-25.7209317862
 10
-71.7363452544
 20
-25.7211687482
 10
-71.7364142484
 20
-25.7213913119
 10
-71.7364758243
 20
-25.7215989937
 10
-71.7365299117
 20
-25.7217917149
 10
-71.7365763337
 20
-25.7219690028
 10
-71.7366149626
 20
-25.7221304951
 10
-71.7366457803
 20
-25.7222762132
 10
-71.7366687244
 20
-25.7224059005
 10
-71.7366838115
 20
-25.7225195129
 10
-71.7366911391
 20
-25.7226173612
 10
-71.7366908315
 20
-25.7226995903
  0
LINE
  5
45E
100
AcDbEntity
  8
RACCORDO
100
AcDbLine
 62
250
  6
CONTINUOUS
 10
-71.73542804
 20
-25.7185806865
 11
-71.7355531373
 21
-25.7189135122
  0
LINE
  5
45F
100
AcDbEntity
  8
0
100
AcDbLine
 62
7
  6
CONTINUOUS
 10
-65.5312795285
 20
3.5
 11
-63.5312795285
 21
3.6749773271
  0
LWPOLYLINE
  5
460
100
AcDbEntity
  8
RACCORDO
100
AcDbPolyline
 62
250
  6
CONTINUOUS
 90
3
 70
0
 10
-71.735368818
 20
25.7184245544
 10
-71.7352377524
 20
25.7180809255
 10
-71.7351025883
 20
25.7177296665
  0
LINE
  5
461
100
AcDbEntity
  8
RACCORDO
100
AcDbLine
 62
250
  6
CONTINUOUS
 10
-71.7356171366
 20
25.7190854795
 11
-71.7354954091
 21
25.7187596871
  0
LINE
  5
462
100
AcDbEntity
  8
RACCORDO
100
AcDbLine
 62
250
  6
CONTINUOUS
 10
-71.7351638759
 20
-25.7178883429
 11
-71.7352981653
 21
-25.7182386889
  0
LINE
  5
463
100
AcDbEntity
  8
RACCORDO
100
AcDbLine
 62
250
  6
CONTINUOUS
 10
-71.7348829198
 20
-25.7171645406
 11
-71.7350253256
 21
-25.7175299677
  0
LINE
  5
464
100
AcDbEntity
  8
RACCORDO
100
AcDbLine
 62
250
  6
CONTINUOUS
 10
-71.7345874309
 20
-25.7164144956
 11
-71.7347369738
 21
-25.7167927902
  0
LINE
  5
465
100
AcDbEntity
  8
RACCORDO
100
AcDbLine
 62
250
  6
CONTINUOUS
 10
-71.7341203761
 20
-25.7152452569
 11
-71.7342789164
 21
-25.715640792
  0
LWPOLYLINE
  5
466
100
AcDbEntity
  8
0
100
AcDbPolyline
 62
7
  6
CONTINUOUS
 90
9
 70
0
 10
-71.7528857666
 20
-27.14213
 10
-71.7516236048
 20
-27.1391593655
 10
-71.7511103317
 20
-27.1301534433
 10
-71.7513459471
 20
-27.1150527114
 10
-71.7523600551
 20
-27.093811347
 10
-71.7541230516
 20
-27.0666679004
 10
-71.7565461254
 20
-27.0343808473
 10
-71.7596687326
 20
-26.9977621018
 10
-71.7676869986
 20
-26.9137931247
  0
LWPOLYLINE
  5
467
100
AcDbEntity
  8
RACCORDO
100
AcDbPolyline
 62
250
  6
CONTINUOUS
 90
16
 70
0
 10
-71.7335714495
 20
25.7138798754
 10
-71.733405353
 20
25.7134714084
 10
-71.7332373513
 20
25.7130636361
 10
-71.7330666133
 20
25.7126561199
 10
-71.7328928358
 20
25.7122491813
 10
-71.7327158584
 20
25.711842458
 10
-71.7325350354
 20
25.7114341762
 10
-71.7323502123
 20
25.7110238758
 10
-71.732161375
 20
25.7106118668
 10
-71.7319679855
 20
25.7101972995
 10
-71.7317698216
 20
25.7097798531
 10
-71.7315669415
 20
25.7093595063
 10
-71.7313592117
 20
25.7089358688
 10
-71.7311466149
 20
25.7085088294
 10
-71.7309292702
 20
25.7080784674
 10
-71.7307073246
 20
25.7076441765
  0
LINE
  5
468
100
AcDbEntity
  8
RACCORDO
100
AcDbLine
 62
250
  6
CONTINUOUS
 10
-71.7338978061
 20
25.7146908946
 11
-71.7337356577
 21
25.714287059
  0
LINE
  5
469
100
AcDbEntity
  8
RACCORDO
100
AcDbLine
 62
250
  6
CONTINUOUS
 10
-71.7346742321
 20
25.7166340068
 11
-71.7345245614
 21
25.7162563823
  0
LINE
  5
46A
100
AcDbEntity
  8
RACCORDO
100
AcDbLine
 62
250
  6
CONTINUOUS
 10
-71.7349633745
 20
25.717370852
 11
-71.7348204759
 21
25.7170053775
  0
LWPOLYLINE
  5
46B
100
AcDbEntity
  8
RACCORDO
100
AcDbPolyline
 62
250
  6
CONTINUOUS
 90
16
 70
0
 10
-71.7305218316
 20
-25.7072838359
 10
-71.7307504628
 20
-25.7077282015
 10
-71.7309744594
 20
-25.7081675534
 10
-71.7311936408
 20
-25.7086026512
 10
-71.7314078674
 20
-25.7090342441
 10
-71.7316170287
 20
-25.709462302
 10
-71.7318211643
 20
-25.7098869821
 10
-71.7320204393
 20
-25.710308751
 10
-71.7322148049
 20
-25.710727591
 10
-71.7324045143
 20
-25.7111437105
 10
-71.7325901687
 20
-25.7115578936
 10
-71.7327718073
 20
-25.7119699185
 10
-71.7329495741
 20
-25.7123805427
 10
-71.7331241176
 20
-25.7127919222
 10
-71.7332956114
 20
-25.7132042589
 10
-71.7334643938
 20
-25.7136165822
  0
LINE
  5
46C
100
AcDbEntity
  8
RACCORDO
100
AcDbLine
 62
250
  6
CONTINUOUS
 10
-71.7300513484
 20
-25.7063834448
 11
-71.7302887719
 21
-25.7068345618
  0
LINE
  5
46D
100
AcDbEntity
  8
RACCORDO
100
AcDbLine
 62
250
  6
CONTINUOUS
 10
-71.72855314
 20
-25.703638137
 11
-71.7288085213
 21
-25.7041138389
  0
LINE
  5
46E
100
AcDbEntity
  8
RACCORDO
100
AcDbLine
 62
250
  6
CONTINUOUS
 10
-71.7295637428
 20
-25.7054874578
 11
-71.7298096045
 21
-25.705933832
  0
LINE
  5
46F
100
AcDbEntity
  8
RACCORDO
100
AcDbLine
 62
250
  6
CONTINUOUS
 10
-71.7277820346
 20
-25.7022661878
 11
-71.728040031
 21
-25.7026997065
  0
LINE
  5
470
100
AcDbEntity
  8
RACCORDO
100
AcDbLine
 62
250
  6
CONTINUOUS
 10
-71.7280230516
 20
25.7026699547
 11
-71.7277593821
 21
25.7022302522
  0
LINE
  5
471
100
AcDbEntity
  8
RACCORDO
100
AcDbLine
 62
250
  6
CONTINUOUS
 10
-71.7295343709
 20
25.7054336391
 11
-71.7292885213
 21
25.7049923773
  0
LINE
  5
472
100
AcDbEntity
  8
RACCORDO
100
AcDbLine
 62
250
  6
CONTINUOUS
 10
-71.7290409514
 20
25.7045444386
 11
-71.7287917425
 21
25.7040841337
  0
LWPOLYLINE
  5
473
100
AcDbEntity
  8
RACCORDO
100
AcDbPolyline
 62
250
  6
CONTINUOUS
 90
3
 70
0
 10
-71.7304809671
 20
25.7072053294
 10
-71.7302504194
 20
25.7067619785
 10
-71.730015752
 20
25.7063169609
  0
LWPOLYLINE
  5
474
100
AcDbEntity
  8
RACCORDO
100
AcDbPolyline
 62
250
  6
CONTINUOUS
 90
7
 70
0
 10
-68.9291451393
 20
-39.0013377909
 10
-68.9308344126
 20
-39.0044868053
 10
-68.932479377
 20
-39.0076617487
 10
-68.9340503062
 20
-39.0109107146
 10
-68.9355521661
 20
-39.0141865616
 10
-68.937035244
 20
-39.0173057909
 10
-68.9385391796
 20
-39.0201344246
  0
LWPOLYLINE
  5
475
100
AcDbEntity
  8
RACCORDO
100
AcDbPolyline
 62
250
  6
CONTINUOUS
 90
25
 70
0
 10
-68.9520919669
 20
-39.043855585
 10
-68.9539263244
 20
-39.0472061226
 10
-68.9557664992
 20
-39.050629971
 10
-68.9576092465
 20
-39.0540950277
 10
-68.9594338538
 20
-39.0576101738
 10
-68.9612254123
 20
-39.0611678896
 10
-68.9629867331
 20
-39.0647119661
 10
-68.9646914745
 20
-39.0682518779
 10
-68.9663224374
 20
-39.0717803866
 10
-68.9678926086
 20
-39.0752169905
 10
-68.9693822315
 20
-39.0785557686
 10
-68.970774098
 20
-39.0818052786
 10
-68.9720818289
 20
-39.0849074941
 10
-68.9732918731
 20
-39.0878642547
 10
-68.9743892666
 20
-39.0906763175
 10
-68.9753833248
 20
-39.0932845836
 10
-68.9762599851
 20
-39.0956881648
 10
-68.9770067343
 20
-39.0978907028
 10
-68.9776341986
 20
-39.0998402549
 10
-68.9781359255
 20
-39.1015302664
 10
-68.9785047194
 20
-39.1029692961
 10
-68.9787497648
 20
-39.104128178
 10
-68.9788729415
 20
-39.1049963834
 10
-68.978874251
 20
-39.1055851561
 10
-68.9788317096
 20
-39.1057734817
  0
LINE
  5
476
100
AcDbEntity
  8
RACCORDO
100
AcDbLine
 62
250
  6
CONTINUOUS
 10
-68.9400678504
 20
-39.0228052983
 11
-68.9416246182
 21
-39.0255347372
  0
LWPOLYLINE
  5
477
100
AcDbEntity
  8
RACCORDO
100
AcDbPolyline
 62
250
  6
CONTINUOUS
 90
3
 70
0
 10
-68.9467033273
 20
-39.0342752159
 10
-68.9484780123
 20
-39.0373818674
 10
-68.9520919669
 20
-39.043855585
  0
LINE
  5
478
100
AcDbEntity
  8
RACCORDO
100
AcDbLine
 62
250
  6
CONTINUOUS
 10
-68.9432480399
 20
-39.0283803664
 11
-68.9467033273
 21
-39.0342752159
  0
LWPOLYLINE
  5
479
100
AcDbEntity
  8
RACCORDO
100
AcDbPolyline
 62
250
  6
CONTINUOUS
 90
20
 70
0
 10
-68.9444481665
 20
39.0304364096
 10
-68.942623712
 20
39.027248687
 10
-68.94086232
 20
39.02424243
 10
-68.9391334348
 20
39.021331943
 10
-68.9374492749
 20
39.0182355619
 10
-68.9358095782
 20
39.0147868665
 10
-68.934156343
 20
39.0111538353
 10
-68.932425074
 20
39.0075557638
 10
-68.9306093515
 20
39.0040352766
 10
-68.9287389137
 20
39.0005489774
 10
-68.9268060088
 20
38.9971880709
 10
-68.9248501821
 20
38.9939119396
 10
-68.9229273278
 20
38.9907569931
 10
-68.9210438873
 20
38.9879313828
 10
-68.9192063767
 20
38.9856055119
 10
-68.9174546639
 20
38.9836084265
 10
-68.9158367425
 20
38.9816365563
 10
-68.9143613111
 20
38.9795910691
 10
-68.9129774864
 20
38.97757303
 10
-68.9116484458
 20
38.9755779034
  0
LWPOLYLINE
  5
47A
100
AcDbEntity
  8
RACCORDO
100
AcDbPolyline
 62
250
  6
CONTINUOUS
 90
9
 70
0
 10
-68.9624105407
 20
39.063529732
 10
-68.9604304789
 20
39.0595682528
 10
-68.9584068111
 20
39.0556524679
 10
-68.9563761427
 20
39.0517659066
 10
-68.9543382173
 20
39.0479628851
 10
-68.9523095284
 20
39.0442518156
 10
-68.950304634
 20
39.0406235874
 10
-68.9483174404
 20
39.0371067194
 10
-68.9444481665
 20
39.0304364096
  0
LWPOLYLINE
  5
47B
100
AcDbEntity
  8
RACCORDO
100
AcDbPolyline
 62
250
  6
CONTINUOUS
 90
12
 70
0
 10
-68.9107806977
 20
-38.974218549
 10
-68.9119527896
 20
-38.9760657339
 10
-68.913166408
 20
-38.9779120095
 10
-68.9144353517
 20
-38.9797176932
 10
-68.9157745813
 20
-38.9815209799
 10
-68.917209414
 20
-38.9833892945
 10
-68.9187813279
 20
-38.9852636877
 10
-68.920470793
 20
-38.9872017677
 10
-68.9222122839
 20
-38.9894452112
 10
-68.9239452465
 20
-38.9921561308
 10
-68.9256718281
 20
-38.99517379
 10
-68.9291451393
 20
-39.0013377909
  0
LINE
  5
47C
100
AcDbEntity
  8
RACCORDO
100
AcDbLine
 62
250
  6
CONTINUOUS
 10
-68.9085003932
 20
-38.9706846591
 11
-68.909631052
 21
-38.9724195768
  0
LWPOLYLINE
  5
47D
100
AcDbEntity
  8
RACCORDO
100
AcDbPolyline
 62
250
  6
CONTINUOUS
 90
3
 70
0
 10
-68.905248278
 20
-38.9657761963
 10
-68.9063106299
 20
-38.9673612607
 10
-68.9073950606
 20
-38.9689979823
  0
LINE
  5
47E
100
AcDbEntity
  8
RACCORDO
100
AcDbLine
 62
250
  6
CONTINUOUS
 10
-68.9031968825
 20
-38.9627522351
 11
-68.9042110721
 21
-38.9642410144
  0
LINE
  5
47F
100
AcDbEntity
  8
RACCORDO
100
AcDbLine
 62
250
  6
CONTINUOUS
 10
-68.9012410401
 20
-38.9599135038
 11
-68.902206388
 21
-38.961309663
  0
LINE
  5
480
100
AcDbEntity
  8
RACCORDO
100
AcDbLine
 62
250
  6
CONTINUOUS
 10
-68.8993828046
 20
-38.9572520497
 11
-68.900299614
 21
-38.9585608819
  0
LWPOLYLINE
  5
481
100
AcDbEntity
  8
RACCORDO
100
AcDbPolyline
 62
250
  6
CONTINUOUS
 90
3
 70
0
 10
-68.8992563899
 20
38.957072261
 10
-68.8983287454
 20
38.9557562608
 10
-68.8974319335
 20
38.9544915759
  0
LINE
  5
482
100
AcDbEntity
  8
RACCORDO
100
AcDbLine
 62
250
  6
CONTINUOUS
 10
-68.901207111
 20
38.9598648143
 11
-68.900214437
 21
38.9584391853
  0
LINE
  5
483
100
AcDbEntity
  8
RACCORDO
100
AcDbLine
 62
250
  6
CONTINUOUS
 10
-68.9032927799
 20
38.9628925434
 11
-68.9022336022
 21
38.9613493504
  0
LWPOLYLINE
  5
484
100
AcDbEntity
  8
RACCORDO
100
AcDbPolyline
 62
250
  6
CONTINUOUS
 90
3
 70
0
 10
-68.9066809078
 20
38.9679192999
 10
-68.9055181085
 20
38.9661775278
 10
-68.904388082
 20
38.9645014882
  0
LINE
  5
485
100
AcDbEntity
  8
RACCORDO
100
AcDbLine
 62
250
  6
CONTINUOUS
 10
-68.9116484458
 20
38.9755779034
 11
-68.9078786016
 21
38.9697298451
  0
LINE
  5
486
100
AcDbEntity
  8
RACCORDO
100
AcDbLine
 62
250
  6
CONTINUOUS
 10
-68.9103577727
 20
38.9735896357
 11
-68.9091045079
 21
38.9716252827
  0
LWPOLYLINE
  5
487
100
AcDbEntity
  8
RACCORDO
100
AcDbPolyline
 62
250
  6
CONTINUOUS
 90
3
 70
0
 10
-68.8967798585
 20
-38.9535764613
 10
-68.8976234939
 20
-38.9547615033
 10
-68.8984912541
 20
-38.9559867863
  0
LWPOLYLINE
  5
488
100
AcDbEntity
  8
RACCORDO
100
AcDbPolyline
 62
250
  6
CONTINUOUS
 90
4
 70
0
 10
-68.8834040855
 20
-38.935267156
 10
-68.8838311624
 20
-38.9358582951
 10
-68.8842726432
 20
-38.9364636735
 10
-68.887254662
 20
-38.9404670868
  0
LINE
  5
489
100
AcDbEntity
  8
RACCORDO
100
AcDbLine
 62
250
  6
CONTINUOUS
 10
-68.8922017914
 20
-38.9472308268
 11
-68.8951640934
 21
-38.9513221746
  0
LINE
  5
48A
100
AcDbEntity
  8
RACCORDO
100
AcDbLine
 62
250
  6
CONTINUOUS
 10
-68.8889683657
 20
-38.942803751
 11
-68.8922017914
 21
-38.9472308268
  0
LINE
  5
48B
100
AcDbEntity
  8
RACCORDO
100
AcDbLine
 62
250
  6
CONTINUOUS
 10
-68.8852034206
 20
-38.9377079581
 11
-68.8856923832
 21
-38.9383605046
  0
LWPOLYLINE
  5
48C
100
AcDbEntity
  8
RACCORDO
100
AcDbPolyline
 62
250
  6
CONTINUOUS
 90
6
 70
0
 10
-72.4492419858
 20
22.2009154022
 10
-72.4897865211
 20
22.2016938862
 10
-72.5197232211
 20
22.2019542175
 10
-72.5387152101
 20
22.2019107492
 10
-72.5465487816
 20
22.2019898917
 10
-72.5467665752
 20
22.2020516554
  0
LINE
  5
48D
100
AcDbEntity
  8
RACCORDO
100
AcDbLine
 62
250
  6
CONTINUOUS
 10
-72.1239625398
 20
22.1929515834
 11
-72.4492419858
 21
22.2009154022
  0
LWPOLYLINE
  5
48E
100
AcDbEntity
  8
RACCORDO
100
AcDbPolyline
 62
250
  6
CONTINUOUS
 90
7
 70
0
 10
-72.1239625398
 20
22.1929515834
 10
-71.9518860027
 20
22.1878990273
 10
-71.882587771
 20
22.1854184984
 10
-71.8248420553
 20
22.1829820066
 10
-71.7788845675
 20
22.1805994904
 10
-71.7449029015
 20
22.178280668
 10
-71.7230357669
 20
22.1760349975
  0
LINE
  5
48F
100
AcDbEntity
  8
RACCORDO
100
AcDbLine
 62
250
  6
CONTINUOUS
 10
-68.8853831784
 20
38.9379485641
 11
-68.8848967975
 21
38.9373023973
  0
LINE
  5
490
100
AcDbEntity
  8
RACCORDO
100
AcDbLine
 62
250
  6
CONTINUOUS
 10
-68.8869417051
 20
38.9400439212
 11
-68.8864055819
 21
38.9393193425
  0
LWPOLYLINE
  5
491
100
AcDbEntity
  8
RACCORDO
100
AcDbPolyline
 62
250
  6
CONTINUOUS
 90
17
 70
0
 10
-68.8685235278
 20
38.9070917699
 10
-68.8671909302
 20
38.9052790563
 10
-68.8658843866
 20
38.9024379015
 10
-68.8646074
 20
38.8984875771
 10
-68.863365751
 20
38.8933568997
 10
-68.8621600572
 20
38.886954899
 10
-68.8609871343
 20
38.8791483424
 10
-68.859851315
 20
38.8698288678
 10
-68.858756936
 20
38.8588874243
 10
-68.8577030484
 20
38.8461448662
 10
-68.8566949055
 20
38.8314664068
 10
-68.8557376774
 20
38.8147163781
 10
-68.8548324327
 20
38.7956665788
 10
-68.8539851677
 20
38.7741547674
 10
-68.853202185
 20
38.7500205068
 10
-68.8524874793
 20
38.7229898839
 10
-68.8518489267
 20
38.6928794189
  0
LINE
  5
492
100
AcDbEntity
  8
RACCORDO
100
AcDbLine
 62
250
  6
CONTINUOUS
 10
-68.8844268923
 20
38.9366718986
 11
-68.8839738058
 21
38.9360533765
  0
LWPOLYLINE
  5
493
100
AcDbEntity
  8
RACCORDO
100
AcDbPolyline
 62
250
  6
CONTINUOUS
 90
3
 70
0
 10
-68.8941298446
 20
38.9498883346
 10
-68.8933680634
 20
38.9488358675
 10
-68.8880679011
 20
38.941573961
  0
LINE
  5
494
100
AcDbEntity
  8
RACCORDO
100
AcDbLine
 62
250
  6
CONTINUOUS
 10
-68.883110369
 20
38.934865153
 11
-68.8826976607
 21
38.9342914381
  0
LINE
  5
495
100
AcDbEntity
  8
RACCORDO
100
AcDbLine
 62
250
  6
CONTINUOUS
 10
-68.8965663204
 20
38.9532778859
 11
-68.8957274753
 21
38.9521063267
  0
LWPOLYLINE
  5
496
100
AcDbEntity
  8
RACCORDO
100
AcDbPolyline
 62
250
  6
CONTINUOUS
 90
23
 70
0
 10
-68.8685235252
 20
-38.9070917696
 10
-68.8700307667
 20
-38.9086584244
 10
-68.8714011229
 20
-38.9102117314
 10
-68.8726405422
 20
-38.9117513937
 10
-68.8737539937
 20
-38.9132788339
 10
-68.874748696
 20
-38.9147920195
 10
-68.8756337848
 20
-38.9162854849
 10
-68.8764133505
 20
-38.9177348741
 10
-68.8770975224
 20
-38.9191638523
 10
-68.8777000881
 20
-38.9206391604
 10
-68.8782136615
 20
-38.9222100653
 10
-68.878642263
 20
-38.9238273536
 10
-68.8790087807
 20
-38.9254104834
 10
-68.8793031474
 20
-38.9270156138
 10
-68.8795420197
 20
-38.9285862699
 10
-68.8797840544
 20
-38.9298735148
 10
-68.880069188
 20
-38.930721077
 10
-68.8803853302
 20
-38.9312842438
 10
-68.8807134095
 20
-38.9317814843
 10
-68.8810582271
 20
-38.9322523496
 10
-68.8814277253
 20
-38.9326566553
 10
-68.881807777
 20
-38.9330931334
 10
-68.8821915766
 20
-38.9335992709
  0
LWPOLYLINE
  5
497
100
AcDbEntity
  8
RACCORDO
100
AcDbPolyline
 62
250
  6
CONTINUOUS
 90
22
 70
0
 10
-68.8819057607
 20
38.9332143275
 10
-68.8815174343
 20
38.9327664841
 10
-68.8811395997
 20
38.9323542354
 10
-68.8807857338
 20
38.9318841985
 10
-68.8804474918
 20
38.9314014821
 10
-68.8801216203
 20
38.930861558
 10
-68.8798294244
 20
38.9300364567
 10
-68.8795829529
 20
38.9287734339
 10
-68.8793412118
 20
38.9272262857
 10
-68.8790462994
 20
38.9256268974
 10
-68.8786818256
 20
38.924018342
 10
-68.8782556903
 20
38.9223579154
 10
-68.8777422934
 20
38.9207493897
 10
-68.877136911
 20
38.9192508147
 10
-68.8764484932
 20
38.9178040615
 10
-68.875663933
 20
38.9163390941
 10
-68.87477325
 20
38.9148311157
 10
-68.8737724961
 20
38.9133056016
 10
-68.8726532369
 20
38.9117680916
 10
-68.8714086994
 20
38.9102206333
 10
-68.870034017
 20
38.9086617646
 10
-68.8685235264
 20
38.9070917697
  0
LWPOLYLINE
  5
498
100
AcDbEntity
  8
RACCORDO
100
AcDbPolyline
 62
250
  6
CONTINUOUS
 90
13
 70
0
 10
-67.9308530159
 20
39.7694280063
 10
-68.045162785
 20
39.7568062115
 10
-68.1572655021
 20
39.7311257535
 10
-68.2656764813
 20
39.6927267438
 10
-68.3689599303
 20
39.6421177379
 10
-68.4657479654
 20
39.5799690004
 10
-68.5547587281
 20
39.5071036278
 10
-68.634813362
 20
39.4244866472
 10
-68.7048516253
 20
39.333212236
 10
-68.763945933
 20
39.2344892306
 10
-68.8113136413
 20
39.1296251159
 10
-68.8463274134
 20
39.02000871
 10
-68.8685235278
 20
38.9070917699
  0
LWPOLYLINE
  5
499
100
AcDbEntity
  8
RACCORDO
100
AcDbPolyline
 62
7
  6
CONTINUOUS
 90
4
 70
0
 10
-68.0919850987
 20
39.7609835491
 10
-68.1929344178
 20
39.750535995
 10
-68.2925310454
 20
39.7298511719
 10
-68.3895490648
 20
39.6991411059
  0
LINE
  5
49A
100
AcDbEntity
  8
RACCORDO
100
AcDbLine
 62
7
  6
CONTINUOUS
 10
-68.0919665156
 20
39.760984523
 11
-63.5312795285
 21
40.0
  0
LINE
  5
49B
100
AcDbEntity
  8
RACCORDO
100
AcDbLine
 62
250
  6
CONTINUOUS
 10
-63.5312795285
 20
37.0
 11
-67.9460441309
 21
37.0
  0
LINE
  5
49C
100
AcDbEntity
  8
RACCORDO
100
AcDbLine
 62
250
  6
CONTINUOUS
 10
-67.9460441309
 20
37.0
 11
-68.7771688685
 21
37.0451479821
  0
LWPOLYLINE
  5
49D
100
AcDbEntity
  8
RACCORDO
100
AcDbPolyline
 62
250
  6
CONTINUOUS
 90
3
 70
0
 10
-68.7771688685
 20
37.0451479821
 10
-68.8599494944
 20
37.0500870697
 10
-68.8824852924
 20
37.0515813993
  0
LWPOLYLINE
  5
49E
100
AcDbEntity
  8
RACCORDO
100
AcDbPolyline
 62
250
  6
CONTINUOUS
 90
15
 70
0
 10
-67.930853022
 20
39.7694281234
 10
-67.9293756782
 20
39.7687688725
 10
-67.9279337731
 20
39.7665503341
 10
-67.9265273067
 20
39.7626444654
 10
-67.9251545721
 20
39.7569343377
 10
-67.9238172761
 20
39.7492811287
 10
-67.9225205396
 20
39.7394888941
 10
-67.9212628364
 20
39.7273884281
 10
-67.9200456925
 20
39.7128084774
 10
-67.9188788067
 20
39.695480294
 10
-67.9177606952
 20
39.6751934676
 10
-67.9166928419
 20
39.6517354436
 10
-67.9156893963
 20
39.6247604211
 10
-67.9147481809
 20
39.5940165348
 10
-67.9138713732
 20
39.5592509871
  0
ARC
  5
49F
100
AcDbEntity
  8
0
100
AcDbCircle
 62
7
  6
CONTINUOUS
 10
37.0
 20
37.0
 40
3.0
100
AcDbArc
 50
0.0
 51
90.0000000013
  0
ARC
  5
4A0
100
AcDbEntity
  8
0
100
AcDbCircle
 62
7
  6
CONTINUOUS
 10
-37.0
 20
37.0
 40
3.0
100
AcDbArc
 50
89.9999999987
 51
180.0000000008
  0
ARC
  5
4A1
100
AcDbEntity
  8
0
100
AcDbCircle
 62
7
  6
CONTINUOUS
 10
-37.0
 20
-37.0
 40
3.0
100
AcDbArc
 50
179.9999999992
 51
270.0000000013
  0
ARC
  5
4A2
100
AcDbEntity
  8
0
100
AcDbCircle
 62
7
  6
CONTINUOUS
 10
37.0
 20
-37.0
 40
3.0
100
AcDbArc
 50
269.9999999987
 51
360.0
  0
ARC
  5
4A3
100
AcDbEntity
  8
0
100
AcDbCircle
 62
7
  6
CONTINUOUS
 10
24.03733
 20
-26.789265
 40
0.8893898871
100
AcDbArc
 50
292.842868527
 51
90.0
  0
ARC
  5
4A4
100
AcDbEntity
  8
0
100
AcDbCircle
 62
7
  6
CONTINUOUS
 10
23.956824
 20
-26.789265
 40
0.352865
100
AcDbArc
 50
270.0
 51
90.0
  0
ARC
  5
4A5
100
AcDbEntity
  8
0
100
AcDbCircle
 62
7
  6
CONTINUOUS
 10
22.2
 20
22.2
 40
0.3
100
AcDbArc
 50
0.0
 51
90.0
  0
ARC
  5
4A6
100
AcDbEntity
  8
0
100
AcDbCircle
 62
7
  6
CONTINUOUS
 10
22.2
 20
-22.2
 40
0.3
100
AcDbArc
 50
270.0
 51
360.0
  0
ARC
  5
4A7
100
AcDbEntity
  8
0
100
AcDbCircle
 62
7
  6
CONTINUOUS
 10
-22.2
 20
-22.2
 40
0.3
100
AcDbArc
 50
180.0
 51
270.0
  0
ARC
  5
4A8
100
AcDbEntity
  8
0
100
AcDbCircle
 62
7
  6
CONTINUOUS
 10
-22.2
 20
22.2
 40
0.3
100
AcDbArc
 50
90.0
 51
180.0
  0
ARC
  5
4A9
100
AcDbEntity
  8
RACCORDO
100
AcDbCircle
 62
7
  6
CONTINUOUS
 10
-74.7300555107
 20
-25.9221192395
 40
3.0000000003
100
AcDbArc
 50
3.8112882172
 51
30.5095053836
  0
ARC
  5
4AA
100
AcDbEntity
  8
RACCORDO
100
AcDbCircle
 62
7
  6
CONTINUOUS
 10
-74.7300555107
 20
25.9221192395
 40
3.0000000003
100
AcDbArc
 50
329.4904946165
 51
356.1887117945
  0
ARC
  5
4AB
100
AcDbEntity
  8
0
100
AcDbCircle
 62
7
  6
CONTINUOUS
 10
-71.5467665752
 20
23.5
 40
1.0
100
AcDbArc
 50
142.4612159624
 51
180.0
  0
ARC
  5
4AC
100
AcDbEntity
  8
0
100
AcDbCircle
 62
7
  6
CONTINUOUS
 10
-71.5467665752
 20
-23.5
 40
1.0
100
AcDbArc
 50
180.0
 51
217.5387966249
  0
ENDSEC
  0
SECTION
  2
OBJECTS
  0
DICTIONARY
  5
C
100
AcDbDictionary
280
0
281
1
  3
ACAD_GROUP
350
D
  3
ACAD_MLINESTYLE
350
17
  3
ACAD_LAYOUT
350
1A
  3
ACAD_PLOTSETTINGS
350
19
  3
ACAD_PLOTSTYLENAME
350
E
  0
DICTIONARY
  5
D
102
{ACAD_REACTORS
330
C
102
}
100
AcDbDictionary
280
0
281
1
  0
ACDBDICTIONARYWDFLT
  5
E
102
{ACAD_REACTORS
330
C
102
}
100
AcDbDictionary
281
1
  3
Normal
350
F
100
AcDbDictionaryWithDefault
340
F
  0
DICTIONARY
  5
17
102
{ACAD_REACTORS
330
C
102
}
100
AcDbDictionary
280
0
281
1
  3
Standard
350
18
  0
DICTIONARY
  5
19
102
{ACAD_REACTORS
330
C
102
}
100
AcDbDictionary
281
1
  0
DICTIONARY
  5
1A
102
{ACAD_REACTORS
330
C
102
}
100
AcDbDictionary
281
1
  3
Model
350
4AD
  3
Layout1
350
4AE
  0
ACDBPLACEHOLDER
  5
F
102
{ACAD_REACTORS
330
E
102
}
  0
MLINESTYLE
  5
18
102
{ACAD_REACTORS
330
17
102
}
100
AcDbMlineStyle
  2
STANDARD
 70
0
  3

 62
256
 51
90.0
 52
90.0
 71
2
 49
0.5
 62
256
  6
BYLAYER
 49
-0.5
 62
256
  6
BYLAYER
  0
LAYOUT
  5
4AD
102
{ACAD_REACTORS
330
1A
102
}
100
AcDbPlotSettings
  1

  2
none_device
  4
ISO_A4_(297.00_x_210.00_MM)
  6

 40
0.0
 41
0.0
 42
0.0
 43
0.0
 44
297.0
 45
210.0
 46
0.0
 47
0.0
 48
0.0
 49
0.0
140
0.0
141
0.0
142
1.0
143
1.0
 70
1024
 72
1
 73
0
 74
0
  7

 75
0
147
1.0
148
0.0
149
0.0
100
AcDbLayout
  1
Model
 70
0
 71
0
 10
0.0
 20
0.0
 11
297.0
 21
210.0
 12
0.0
 22
0.0
 32
0.0
 14
0.0
 24
0.0
 34
0.0
 15
0.0
 25
0.0
 35
0.0
146
0.0
 13
0.0
 23
0.0
 33
0.0
 16
1.0
 26
0.0
 36
0.0
 17
0.0
 27
1.0
 37
0.0
 76
0
330
212
345
0
346
0
  0
LAYOUT
  5
4AE
102
{ACAD_REACTORS
330
1A
102
}
100
AcDbPlotSettings
  1

  2
none_device
  4
ISO_A4_(297.00_x_210.00_MM)
  6

 40
0.0
 41
0.0
 42
0.0
 43
0.0
 44
297.0
 45
210.0
 46
0.0
 47
0.0
 48
0.0
 49
0.0
140
0.0
141
0.0
142
1.0
143
1.0
 70
0
 72
1
 73
0
 74
0
  7

 75
0
147
1.0
148
0.0
149
0.0
100
AcDbLayout
  1
Layout1
 70
0
 71
1
 10
0.0
 20
0.0
 11
297.0
 21
210.0
 12
0.0
 22
0.0
 32
0.0
 14
0.0
 24
0.0
 34
0.0
 15
0.0
 25
0.0
 35
0.0
146
0.0
 13
0.0
 23
0.0
 33
0.0
 16
1.0
 26
0.0
 36
0.0
 17
0.0
 27
1.0
 37
0.0
 76
0
330
213
345
0
346
0
  0
ENDSEC
  0
EOF
