  0
SECTION
  2
HEADER
  9
$ACADVER
  1
AC1024
  9
$DWGCODEPAGE
  3
ANSI_1252
  9
$EXTMAX
 10
297.0
 20
210.0
 30
0.0
  9
$EXTMIN
 10
0.0
 20
0.0
 30
0.0
  9
$LIMMIN
 10
0.0
 20
0.0
  9
$LIMMAX
 10
297.0
 20
210.0
  9
$VIEWCTR
 10
148.5
 20
105.0
  9
$VIEWSIZE
 40
210.0
  9
$CLAYER
  8
0
  9
$LTSCALE
 40
16.335
  9
$CELTYPE
  6
BYLAYER
  9
$DIMSCALE
 40
1.0
  9
$DIMASZ
 40
3.0
  9
$DIMEXO
 40
0.5
  9
$DIMDLI
 40
11.286
  9
$DIMEXE
 40
1.5
  9
$DIMCEN
 40
2.673
  9
$DIMLFAC
 40
1.0
  9
$DIMBLK
  1
_FILLED
  9
$DIMALT
 70
0
  9
$DIMALTF
 40
0.0393700787
  9
$DIMTXT
 40
3.0
  9
$DIMTOL
 70
1
  9
$DIMLIM
 70
0
  9
$DIMTFAC
 40
1.0
  9
$DIMTP
 40
0.01
  9
$DIMTM
 40
0.01
  9
$DIMGAP
 40
0.625
  9
$DIMDSEP
 70
44
  9
$AUNITS
 70
0
  9
$PDMODE
 70
3
  9
$PDSIZE
 40
3.0
  9
$HANDSEED
  5
620
  9
$TILEMODE
 70
1
  9
$MEASUREMENT
 70
1
  9
$INSUNITS
 70
4
  0
ENDSEC
  0
SECTION
  2
CLASSES
  0
CLASS
  1
ACDBDICTIONARYWDFLT
  2
AcDbDictionaryWithDefault
  3
AutoCAD 2000
 90
0
 91
1
280
0
281
0
  0
CLASS
  1
ACDBPLACEHOLDER
  2
AcDbPlaceHolder
  3
AutoCAD 2000
 90
0
 91
1
280
0
281
0
  0
CLASS
  1
LAYOUT
  2
AcDbLayout
  3
AutoCAD 2000
 90
0
 91
0
280
0
281
0
  0
ENDSEC
  0
SECTION
  2
TABLES
  0
TABLE
  2
VPORT
  5
8
100
AcDbSymbolTable
 70
2
  0
VPORT
  5
1F4
100
AcDbSymbolTableRecord
100
AcDbViewportTableRecord
  2
*ACTIVE
 70
0
 10
0.0
 20
0.0
 11
1.0
 21
1.0
 12
148.5
 22
105.0
 13
0.0
 23
0.0
 14
1.0
 24
1.0
 15
0.0
 25
0.0
 16
0.0
 26
0.0
 36
1.0
 17
0.0
 27
0.0
 37
0.0
 40
210.0
 41
1.4142857143
 42
50.0
 43
0.0
 44
0.0
 50
0.0
 51
0.0
 71
0
 72
100
 73
1
 74
1
 75
0
 76
0
 77
0
 78
0
  0
ENDTAB
  0
TABLE
  2
LTYPE
  5
5
100
AcDbSymbolTable
 70
6
  0
LTYPE
  5
14
100
AcDbSymbolTableRecord
100
AcDbLinetypeTableRecord
  2
BYBLOCK
 70
0
  3

 72
65
 73
0
 40
0.0
  0
LTYPE
  5
15
100
AcDbSymbolTableRecord
100
AcDbLinetypeTableRecord
  2
BYLAYER
 70
0
  3

 72
65
 73
0
 40
0.0
  0
LTYPE
  5
16
100
AcDbSymbolTableRecord
100
AcDbLinetypeTableRecord
  2
CONTINUOUS
 70
64
  3
Solid line
 72
65
 73
0
 40
0.0
  0
LTYPE
  5
1F5
100
AcDbSymbolTableRecord
100
AcDbLinetypeTableRecord
  2
CENTER
 70
64
  3
____ _ ____ _ ____ _ ____ _ ____ _ ____ _ ____
 72
65
 73
4
 40
0.6
 49
0.375
 74
0
 49
-0.075
 74
0
 49
0.075
 74
0
 49
-0.075
 74
0
  0
LTYPE
  5
1F6
100
AcDbSymbolTableRecord
100
AcDbLinetypeTableRecord
  2
HIDDEN
 70
64
  3
- - - - - - - - - - - - - - - - - - - -
 72
65
 73
2
 40
0.2
 49
0.1
 74
0
 49
-0.1
 74
0
  0
LTYPE
  5
1F7
100
AcDbSymbolTableRecord
100
AcDbLinetypeTableRecord
  2
PHANTOM
 70
64
  3
_____ _ _ _____ _ _ _____ _ _ _____
 72
65
 73
6
 40
0.8
 49
0.45
 74
0
 49
-0.05
 74
0
 49
0.1
 74
0
 49
-0.05
 74
0
 49
0.1
 74
0
 49
-0.05
 74
0
  0
LTYPE
  5
1F8
100
AcDbSymbolTableRecord
100
AcDbLinetypeTableRecord
  2
DOT
 70
64
  3
. . . . . . . . . . . . . . . . . . . .
 72
65
 73
2
 40
0.2
 49
0.1
 74
0
 49
-0.1
 74
0
  0
LTYPE
  5
1F9
100
AcDbSymbolTableRecord
100
AcDbLinetypeTableRecord
  2
DASHED
 70
64
  3
- - - - - - - - - - - - - - - - - - - -
 72
65
 73
2
 40
0.2
 49
0.1
 74
0
 49
-0.1
 74
0
  0
ENDTAB
  0
TABLE
  2
LAYER
  5
2
100
AcDbSymbolTable
 70
36
  0
LAYER
  5
10
100
AcDbSymbolTableRecord
100
AcDbLayerTableRecord
  2
0
 70
0
 62
7
  6
CONTINUOUS
370
-3
390
F
  0
LAYER
  5
1FA
100
AcDbSymbolTableRecord
100
AcDbLayerTableRecord
  2
DEFAULT_1
 70
0
 62
7
  6
CENTER
370
-3
390
F
  0
LAYER
  5
1FB
100
AcDbSymbolTableRecord
100
AcDbLayerTableRecord
  2
DEFAULT_2
 70
0
 62
7
  6
HIDDEN
370
-3
390
F
  0
LAYER
  5
1FC
100
AcDbSymbolTableRecord
100
AcDbLayerTableRecord
  2
DEFAULT_3
 70
0
 62
7
  6
PHANTOM
370
-3
390
F
  0
LAYER
  5
1FD
100
AcDbSymbolTableRecord
100
AcDbLayerTableRecord
  2
ASSI
 70
0
 62
7
  6
CONTINUOUS
370
-3
390
F
  0
LAYER
  5
1FE
100
AcDbSymbolTableRecord
100
AcDbLayerTableRecord
  2
COLOR5
 70
0
 62
7
  6
CONTINUOUS
370
-3
390
F
  0
LAYER
  5
1FF
100
AcDbSymbolTableRecord
100
AcDbLayerTableRecord
  2
COORDINATE
 70
0
 62
7
  6
CONTINUOUS
370
-3
390
F
  0
LAYER
  5
200
100
AcDbSymbolTableRecord
100
AcDbLayerTableRecord
  2
COORD_ORIGINE
 70
0
 62
7
  6
CONTINUOUS
370
-3
390
F
  0
LAYER
  5
201
100
AcDbSymbolTableRecord
100
AcDbLayerTableRecord
  2
CURVE
 70
0
 62
7
  6
CONTINUOUS
370
-3
390
F
  0
LAYER
  5
202
100
AcDbSymbolTableRecord
100
AcDbLayerTableRecord
  2
DRAFT
 70
0
 62
7
  6
CONTINUOUS
370
-3
390
F
  0
LAYER
  5
203
100
AcDbSymbolTableRecord
100
AcDbLayerTableRecord
  2
ESTRATTORI
 70
0
 62
7
  6
CONTINUOUS
370
-3
390
F
  0
LAYER
  5
204
100
AcDbSymbolTableRecord
100
AcDbLayerTableRecord
  2
IGES
 70
0
 62
7
  6
CONTINUOUS
370
-3
390
F
  0
LAYER
  5
205
100
AcDbSymbolTableRecord
100
AcDbLayerTableRecord
  2
INTF_5
 70
0
 62
7
  6
CONTINUOUS
370
-3
390
F
  0
LAYER
  5
206
100
AcDbSymbolTableRecord
100
AcDbLayerTableRecord
  2
INTF_MAGENTA
 70
0
 62
7
  6
CONTINUOUS
370
-3
390
F
  0
LAYER
  5
207
100
AcDbSymbolTableRecord
100
AcDbLayerTableRecord
  2
INTF_RED
 70
0
 62
7
  6
CONTINUOUS
370
-3
390
F
  0
LAYER
  5
208
100
AcDbSymbolTableRecord
100
AcDbLayerTableRecord
  2
NOTE
 70
0
 62
7
  6
CONTINUOUS
370
-3
390
F
  0
LAYER
  5
209
100
AcDbSymbolTableRecord
100
AcDbLayerTableRecord
  2
PIANI
 70
0
 62
7
  6
CONTINUOUS
370
-3
390
F
  0
LAYER
  5
20A
100
AcDbSymbolTableRecord
100
AcDbLayerTableRecord
  2
PIANI_ORIGINE
 70
0
 62
7
  6
CONTINUOUS
370
-3
390
F
  0
LAYER
  5
20B
100
AcDbSymbolTableRecord
100
AcDbLayerTableRecord
  2
PLACCA
 70
0
 62
7
  6
CONTINUOUS
370
-3
390
F
  0
LAYER
  5
20C
100
AcDbSymbolTableRecord
100
AcDbLayerTableRecord
  2
PUNTI
 70
0
 62
7
  6
CONTINUOUS
370
-3
390
F
  0
LAYER
  5
20D
100
AcDbSymbolTableRecord
100
AcDbLayerTableRecord
  2
RACCORDO
 70
0
 62
7
  6
CONTINUOUS
370
-3
390
F
  0
LAYER
  5
20E
100
AcDbSymbolTableRecord
100
AcDbLayerTableRecord
  2
SMUSSO
 70
0
 62
7
  6
CONTINUOUS
370
-3
390
F
  0
LAYER
  5
20F
100
AcDbSymbolTableRecord
100
AcDbLayerTableRecord
  2
SNAPLINE
 70
0
 62
7
  6
CONTINUOUS
370
-3
390
F
  0
LAYER
  5
210
100
AcDbSymbolTableRecord
100
AcDbLayerTableRecord
  2
SUPERFICI
 70
0
 62
7
  6
CONTINUOUS
370
-3
390
F
  0
LAYER
  5
211
100
AcDbSymbolTableRecord
100
AcDbLayerTableRecord
  2
SUPPORTO
 70
0
 62
7
  6
CONTINUOUS
370
-3
390
F
  0
LAYER
  5
212
100
AcDbSymbolTableRecord
100
AcDbLayerTableRecord
  2
TRASH
 70
0
 62
7
  6
CONTINUOUS
370
-3
390
F
  0
LAYER
  5
213
100
AcDbSymbolTableRecord
100
AcDbLayerTableRecord
  2
XSEC_DATUMS
 70
0
 62
7
  6
CONTINUOUS
370
-3
390
F
  0
ENDTAB
  0
TABLE
  2
STYLE
  5
3
100
AcDbSymbolTable
 70
1
  0
STYLE
  5
11
100
AcDbSymbolTableRecord
100
AcDbTextStyleTableRecord
  2
STANDARD
 70
0
 40
0.0
 41
0.8
 50
0.0
 71
0
 42
0.2
  3
txt
  4

  0
STYLE
  5
214
100
AcDbSymbolTableRecord
100
AcDbTextStyleTableRecord
  2
TEXTSTYLE_1
 70
0
 40
0.0
 41
0.8
 50
0.0
 71
0
 42
0.2
  3
gdt
  4

  0
ENDTAB
  0
TABLE
  2
VIEW
  5
6
100
AcDbSymbolTable
 70
0
  0
ENDTAB
  0
TABLE
  2
UCS
  5
7
100
AcDbSymbolTable
 70
0
  0
ENDTAB
  0
TABLE
  2
APPID
  5
9
100
AcDbSymbolTable
 70
1
  0
APPID
  5
215
100
AcDbSymbolTableRecord
100
AcDbRegAppTableRecord
  2
ACAD
 70
0
  0
ENDTAB
  0
TABLE
  2
BLOCK_RECORD
  5
1
100
AcDbSymbolTable
 70
0
  0
BLOCK_RECORD
  5
216
100
AcDbSymbolTableRecord
100
AcDbBlockTableRecord
  2
*Model_Space
  0
BLOCK_RECORD
  5
217
100
AcDbSymbolTableRecord
100
AcDbBlockTableRecord
  2
*Paper_Space
  0
BLOCK_RECORD
  5
218
100
AcDbSymbolTableRecord
100
AcDbBlockTableRecord
  2
_FILLED
  0
BLOCK_RECORD
  5
219
100
AcDbSymbolTableRecord
100
AcDbBlockTableRecord
  2
*D0
  0
BLOCK_RECORD
  5
21A
100
AcDbSymbolTableRecord
100
AcDbBlockTableRecord
  2
*D1
  0
BLOCK_RECORD
  5
21B
100
AcDbSymbolTableRecord
100
AcDbBlockTableRecord
  2
*D2
  0
ENDTAB
  0
TABLE
  2
DIMSTYLE
  5
A
100
AcDbSymbolTable
 70
1
100
AcDbDimStyleTable
 71
0
  0
DIMSTYLE
105
21C
100
AcDbSymbolTableRecord
100
AcDbDimStyleTableRecord
  2
STANDARD
 70
0
  3

  4

 40
1.0
 41
3.0
 42
0.5
 43
0.38
 44
1.5
 45
0.0
 46
0.0
 47
0.01
 48
0.01
140
3.0
141
0.09
142
0.0
143
25.4
144
1.0
145
0.0
146
1.0
147
0.625
 71
1
 72
0
 73
0
 74
0
 75
0
 76
0
 77
1
 78
8
 79
2
170
0
171
1
172
0
173
0
174
0
175
0
176
0
177
0
178
0
270
2
179
2
271
2
272
2
273
2
274
2
275
0
280
0
281
0
282
0
283
1
284
8
285
0
286
0
287
3
288
0
340
11
278
44
341
218
342
218
343
218
344
218
  0
DIMSTYLE
105
21D
100
AcDbSymbolTableRecord
100
AcDbDimStyleTableRecord
  2
DIMSTYLE_1
 70
0
  3

  4

 40
1.0
 41
3.0
 42
0.5
 43
0.38
 44
1.5
 45
0.0
 46
0.0
 47
0.0
 48
0.0
140
3.0
141
0.09
142
0.0
143
25.4
144
1.0
145
0.0
146
1.0
147
0.75
 71
0
 72
0
 73
0
 74
0
 75
0
 76
0
 77
1
 78
8
 79
2
170
0
171
1
172
0
173
0
174
0
175
0
176
0
177
0
178
0
270
2
179
2
271
2
272
2
273
2
274
2
275
0
280
0
281
0
282
0
283
1
284
8
285
0
286
0
287
3
288
0
340
11
278
44
341
218
342
218
343
218
344
218
  0
DIMSTYLE
105
21E
100
AcDbSymbolTableRecord
100
AcDbDimStyleTableRecord
  2
DIMSTYLE_2
 70
0
  3

  4

 40
1.0
 41
3.0
 42
0.5
 43
0.38
 44
1.5
 45
0.0
 46
0.0
 47
0.0
 48
0.0
140
3.0
141
0.09
142
0.0
143
25.4
144
1.0
145
0.0
146
1.0
147
0.75
 71
0
 72
0
 73
0
 74
0
 75
0
 76
0
 77
1
 78
8
 79
2
170
0
171
1
172
0
173
0
174
0
175
0
176
0
177
0
178
0
270
2
179
2
271
1
272
1
273
2
274
2
275
0
280
0
281
0
282
0
283
1
284
8
285
0
286
0
287
3
288
0
340
11
278
44
341
218
342
218
343
218
344
218
  0
ENDTAB
  0
ENDSEC
  0
SECTION
  2
BLOCKS
  0
BLOCK
  5
20
100
AcDbEntity
  8
0
100
AcDbBlockBegin
  2
*Model_Space
 70
0
 10
0.0
 20
0.0
 30
0.0
  3
*Model_Space
  1

  0
ENDBLK
  5
21
100
AcDbEntity
  8
0
100
AcDbBlockEnd
  0
BLOCK
  5
1C
100
AcDbEntity
  8
0
100
AcDbBlockBegin
  2
*Paper_Space
 70
0
 10
0.0
 20
0.0
 30
0.0
  3
*Paper_Space
  1

  0
ENDBLK
  5
1D
100
AcDbEntity
  8
0
100
AcDbBlockEnd
  0
BLOCK
  5
21F
100
AcDbEntity
  8
0
100
AcDbBlockBegin
  2
_FILLED
 70
64
 10
0.0
 20
0.0
  3
_FILLED
  1

  0
SOLID
  5
220
100
AcDbEntity
  8
0
  6
BYBLOCK
 62
0
100
AcDbTrace
 10
0.0
 20
0.0
 11
-1.0
 21
0.3166666667
 12
-1.0
 22
-0.3166666667
 13
-1.0
 23
-0.3166666667
  0
ENDBLK
  5
221
100
AcDbEntity
  8
0
  6
BYBLOCK
 62
0
100
AcDbBlockEnd
  0
BLOCK
  5
222
100
AcDbEntity
  8
0
100
AcDbBlockBegin
 62
7
  6
CONTINUOUS
  2
*D0
 70
65
 10
0.0
 20
0.0
  3
*D0
  1

  0
LINE
  5
223
100
AcDbEntity
  8
0
100
AcDbLine
 62
7
  6
CONTINUOUS
 10
-40.0
 20
37.4999998429
 11
-40.0
 21
52.0
  0
LINE
  5
224
100
AcDbEntity
  8
0
100
AcDbLine
 62
7
  6
CONTINUOUS
 10
40.0
 20
37.4999998429
 11
40.0
 21
52.0
  0
LINE
  5
225
100
AcDbEntity
  8
0
100
AcDbLine
 62
7
  6
CONTINUOUS
 10
-40.0
 20
50.5
 11
0.0
 21
50.5
  0
LINE
  5
226
100
AcDbEntity
  8
0
100
AcDbLine
 62
7
  6
CONTINUOUS
 10
40.0
 20
50.5
 11
0.0
 21
50.5
  0
INSERT
  5
227
100
AcDbEntity
  8
0
100
AcDbBlockReference
 62
7
  6
CONTINUOUS
  2
_FILLED
 10
-40.0
 20
50.5
 41
3.0
 42
3.0
 43
3.0
 50
180.0
  0
INSERT
  5
228
100
AcDbEntity
  8
0
100
AcDbBlockReference
 62
7
  6
CONTINUOUS
  2
_FILLED
 10
40.0
 20
50.5
 41
3.0
 42
3.0
 43
3.0
  0
ENDBLK
  5
229
100
AcDbEntity
  8
0
  6
BYBLOCK
 62
0
100
AcDbBlockEnd
  0
BLOCK
  5
22A
100
AcDbEntity
  8
0
100
AcDbBlockBegin
 62
7
  6
CONTINUOUS
  2
*D1
 70
65
 10
0.0
 20
0.0
  3
*D1
  1

  0
LINE
  5
22B
100
AcDbEntity
  8
0
100
AcDbLine
 62
7
  6
CONTINUOUS
 10
-66.6962691582
 20
22.6997392258
 11
-66.6945130398
 21
52.0002754765
  0
LINE
  5
22C
100
AcDbEntity
  8
0
100
AcDbLine
 62
7
  6
CONTINUOUS
 10
-57.5025641804
 20
39.5095107921
 11
-57.5018155833
 21
51.9997245151
  0
LINE
  5
22D
100
AcDbEntity
  8
0
100
AcDbLine
 62
7
  6
CONTINUOUS
 10
-66.6946029418
 20
50.5002754792
 11
-70.6946029347
 21
50.5005152179
  0
LINE
  5
22E
100
AcDbEntity
  8
0
100
AcDbLine
 62
7
  6
CONTINUOUS
 10
-70.6946029347
 20
50.5005152179
 11
-62.0982542136
 21
50.4999999985
  0
LINE
  5
22F
100
AcDbEntity
  8
0
100
AcDbLine
 62
7
  6
CONTINUOUS
 10
-57.5019054854
 20
50.4997245178
 11
-53.5019054926
 21
50.499484779
  0
LINE
  5
230
100
AcDbEntity
  8
0
100
AcDbLine
 62
7
  6
CONTINUOUS
 10
-53.5019054926
 20
50.499484779
 11
-62.0982542136
 21
50.4999999985
  0
INSERT
  5
231
100
AcDbEntity
  8
0
100
AcDbBlockReference
 62
7
  6
CONTINUOUS
  2
_FILLED
 10
-66.6946029418
 20
50.5002754792
 41
3.0
 42
3.0
 43
3.0
 50
359.9965659955
  0
INSERT
  5
232
100
AcDbEntity
  8
0
100
AcDbBlockReference
 62
7
  6
CONTINUOUS
  2
_FILLED
 10
-57.5019054854
 20
50.4997245178
 41
3.0
 42
3.0
 43
3.0
 50
179.9965659955
  0
ENDBLK
  5
233
100
AcDbEntity
  8
0
  6
BYBLOCK
 62
0
100
AcDbBlockEnd
  0
BLOCK
  5
234
100
AcDbEntity
  8
0
100
AcDbBlockBegin
 62
7
  6
CONTINUOUS
  2
*D2
 70
65
 10
0.0
 20
0.0
  3
*D2
  1

  0
LINE
  5
235
100
AcDbEntity
  8
0
100
AcDbLine
 62
7
  6
CONTINUOUS
 10
-58.2025941347
 20
40.0000045336
 11
-76.1980720073
 21
40.0000045336
  0
LINE
  5
236
100
AcDbEntity
  8
0
100
AcDbLine
 62
7
  6
CONTINUOUS
 10
-58.2025941348
 20
-40.0000045336
 11
-76.1980720073
 21
-40.0000045336
  0
LINE
  5
237
100
AcDbEntity
  8
0
100
AcDbLine
 62
7
  6
CONTINUOUS
 10
-74.6980720073
 20
40.0000045336
 11
-74.6980720073
 21
-0.0
  0
LINE
  5
238
100
AcDbEntity
  8
0
100
AcDbLine
 62
7
  6
CONTINUOUS
 10
-74.6980720073
 20
-40.0000045336
 11
-74.6980720073
 21
-0.0
  0
INSERT
  5
239
100
AcDbEntity
  8
0
100
AcDbBlockReference
 62
7
  6
CONTINUOUS
  2
_FILLED
 10
-74.6980720073
 20
40.0000045336
 41
3.0
 42
3.0
 43
3.0
 50
90.0
  0
INSERT
  5
23A
100
AcDbEntity
  8
0
100
AcDbBlockReference
 62
7
  6
CONTINUOUS
  2
_FILLED
 10
-74.6980720073
 20
-40.0000045336
 41
3.0
 42
3.0
 43
3.0
 50
270.0
  0
ENDBLK
  5
23B
100
AcDbEntity
  8
0
  6
BYBLOCK
 62
0
100
AcDbBlockEnd
  0
ENDSEC
  0
SECTION
  2
ENTITIES
  0
DIMENSION
  5
23C
100
AcDbEntity
  8
0
100
AcDbDimension
 62
7
  6
CONTINUOUS
  2
*D0
 10
40.0
 20
50.5
 11
-2.3571428571
 21
50.5
 70
160
 71
2
 72
2
 41
0.9
 42
80.0
  3
DIMSTYLE_1
100
AcDbAlignedDimension
 13
-40.0
 23
36.9999998429
 14
40.0
 24
36.9999998429
100
AcDbRotatedDimension
  0
DIMENSION
  5
23D
100
AcDbEntity
  8
0
100
AcDbDimension
 62
7
  6
CONTINUOUS
  2
*D1
 10
-57.5019054854
 20
50.4997245178
 11
-65.3126101494
 21
50.5001926499
 70
160
 71
2
 72
2
 41
0.9
 42
9.192697473
  3
DIMSTYLE_2
100
AcDbAlignedDimension
 13
-66.6962991256
 23
22.1997392267
 14
-57.5025941477
 24
39.009510793
 50
359.9965659955
100
AcDbRotatedDimension
  0
DIMENSION
  5
23E
100
AcDbEntity
  8
0
100
AcDbDimension
 62
7
  6
CONTINUOUS
  2
*D2
 10
-74.6980720073
 20
-40.0000045336
 11
-74.6980720073
 21
-2.3571428571
 70
160
 71
2
 72
2
 41
0.9
 42
80.0000090671
  3
DIMSTYLE_1
100
AcDbAlignedDimension
 13
-57.7025941347
 23
40.0000045336
 14
-57.7025941348
 24
-40.0000045336
 50
270.0
100
AcDbRotatedDimension
  0
LWPOLYLINE
  5
23F
100
AcDbEntity
  8
0
100
AcDbPolyline
 62
250
  6
CONTINUOUS
 90
19
 70
0
 10
-39.0789449279
 20
37.1475760374
 10
-39.0591584361
 20
37.322716217
 10
-39.0241737347
 20
37.4965555434
 10
-38.9743542954
 20
37.6676448047
 10
-38.9098136931
 20
37.8346466262
 10
-38.8307035905
 20
37.9962144978
 10
-38.7375894933
 20
38.1508222442
 10
-38.6312086538
 20
38.2972110563
 10
-38.5122726297
 20
38.4341846742
 10
-38.3819768882
 20
38.5601041783
 10
-38.2418192062
 20
38.6737682381
 10
-38.0927588298
 20
38.7747302122
 10
-37.9353258472
 20
38.8625955198
 10
-37.7707682483
 20
38.9364801778
 10
-37.5992785449
 20
38.9961443318
 10
-37.4200428368
 20
39.0414608581
 10
-37.2337020499
 20
39.0711898264
 10
-37.0419127722
 20
39.0836277797
 10
-36.8461853515
 20
39.0842599925
  0
LWPOLYLINE
  5
240
100
AcDbEntity
  8
0
100
AcDbPolyline
 62
250
  6
CONTINUOUS
 90
10
 70
0
 10
-34.6972374882
 20
32.5149489992
 10
-34.7626256502
 20
32.3630466046
 10
-34.8255142214
 20
32.2066386098
 10
-34.885914049
 20
32.0460431089
 10
-34.9438491357
 20
31.8814837079
 10
-34.9992893155
 20
31.712923592
 10
-35.0521872665
 20
31.5402891733
 10
-35.1024969508
 20
31.3636207652
 10
-35.1501832905
 20
31.18295489
 10
-35.1952253949
 20
30.9983204474
  0
LWPOLYLINE
  5
241
100
AcDbEntity
  8
0
100
AcDbPolyline
 62
250
  6
CONTINUOUS
 90
10
 70
0
 10
-34.5835975041
 20
32.7555229602
 10
-34.5965799248
 20
32.7294359594
 10
-34.6094716954
 20
32.703188987
 10
-34.6222737069
 20
32.6767811549
 10
-34.6349876546
 20
32.6502099779
 10
-34.6476137545
 20
32.6234761368
 10
-34.6601508229
 20
32.5965835182
 10
-34.6725992835
 20
32.5695328446
 10
-34.6849610879
 20
32.5423216357
 10
-34.6972374882
 20
32.5149489992
  0
LWPOLYLINE
  5
242
100
AcDbEntity
  8
0
100
AcDbPolyline
 62
250
  6
CONTINUOUS
 90
13
 70
0
 10
-32.5136085933
 20
34.6983583088
 10
-32.7570745919
 20
34.5837533239
 10
-32.9873760448
 20
34.46140093
 10
-33.2026974111
 20
34.3318731803
 10
-33.4014737656
 20
34.1963191139
 10
-33.5850882932
 20
34.054167057
 10
-33.7572404231
 20
33.9024203178
 10
-33.9161059117
 20
33.742217615
 10
-34.0624645266
 20
33.573833184
 10
-34.2023134711
 20
33.3914035707
 10
-34.3367610921
 20
33.1929078587
 10
-34.4637702311
 20
32.9809783681
 10
-34.5835975041
 20
32.7555229602
  0
LWPOLYLINE
  5
243
100
AcDbEntity
  8
0
100
AcDbPolyline
 62
250
  6
CONTINUOUS
 90
10
 70
0
 10
-32.5136085933
 20
-34.6983583088
 10
-32.3618589216
 20
-34.763403648
 10
-32.2056275999
 20
-34.8259950121
 10
-32.0452713638
 20
-34.8861476878
 10
-31.8810243252
 20
-34.9438874994
 10
-31.7128253159
 20
-34.9991838692
 10
-31.540564219
 20
-35.051985856
 10
-31.3642961208
 20
-35.1022386719
 10
-31.1840807703
 20
-35.1498928416
 10
-30.9999605717
 20
-35.1949136289
  0
LWPOLYLINE
  5
244
100
AcDbEntity
  8
0
100
AcDbPolyline
 62
250
  6
CONTINUOUS
 90
13
 70
0
 10
-32.5136085933
 20
-34.6983583088
 10
-32.7570745918
 20
-34.5837533239
 10
-32.9873760448
 20
-34.46140093
 10
-33.202697411
 20
-34.3318731803
 10
-33.4014737655
 20
-34.196319114
 10
-33.5850882931
 20
-34.0541670571
 10
-33.757240423
 20
-33.9024203179
 10
-33.9161059116
 20
-33.7422176152
 10
-34.0624645265
 20
-33.5738331841
 10
-34.202313471
 20
-33.3914035708
 10
-34.3367610921
 20
-33.1929078588
 10
-34.4637702311
 20
-32.9809783682
 10
-34.5835975041
 20
-32.7555229602
  0
LWPOLYLINE
  5
245
100
AcDbEntity
  8
0
100
AcDbPolyline
 62
250
  6
CONTINUOUS
 90
10
 70
0
 10
-34.6972374882
 20
-32.5149489992
 10
-34.6849611087
 20
-32.5423215896
 10
-34.6725993191
 20
-32.5695327668
 10
-34.660150867
 20
-32.5965834232
 10
-34.6476137988
 20
-32.6234760426
 10
-34.6349876924
 20
-32.6502098985
 10
-34.6222737364
 20
-32.6767810936
 10
-34.6094717168
 20
-32.7031889431
 10
-34.5965799364
 20
-32.7294359359
 10
-34.5835975041
 20
-32.7555229602
  0
LWPOLYLINE
  5
246
100
AcDbEntity
  8
0
100
AcDbPolyline
 62
250
  6
CONTINUOUS
 90
10
 70
0
 10
-34.6972374882
 20
-32.5149489992
 10
-34.7626256502
 20
-32.3630466045
 10
-34.8255142214
 20
-32.2066386097
 10
-34.885914049
 20
-32.0460431089
 10
-34.9438491357
 20
-31.8814837078
 10
-34.9992893156
 20
-31.7129235919
 10
-35.0521872665
 20
-31.5402891732
 10
-35.1024969508
 20
-31.3636207652
 10
-35.1501832905
 20
-31.18295489
 10
-35.1952253949
 20
-30.9983204474
  0
LWPOLYLINE
  5
247
100
AcDbEntity
  8
0
100
AcDbPolyline
 62
250
  6
CONTINUOUS
 90
19
 70
0
 10
-39.0789449383
 20
-37.1475758827
 10
-39.0591584538
 20
-37.3227160731
 10
-39.0241737596
 20
-37.4965554099
 10
-38.9743543271
 20
-37.6676446817
 10
-38.9098137313
 20
-37.8346465136
 10
-38.830703635
 20
-37.9962143954
 10
-38.7375895439
 20
-38.1508221514
 10
-38.6312087107
 20
-38.2972109724
 10
-38.5122726931
 20
-38.4341845988
 10
-38.3819769585
 20
-38.5601041107
 10
-38.241819284
 20
-38.6737681778
 10
-38.0927589159
 20
-38.7747301587
 10
-37.9353259422
 20
-38.8625954731
 10
-37.7707683529
 20
-38.936480138
 10
-37.5992786596
 20
-38.9961442989
 10
-37.420042962
 20
-39.0414608329
 10
-37.2337021853
 20
-39.0711898093
 10
-37.0419129179
 20
-39.0836277713
 10
36.8461856633
 20
-39.0842599932
  0
LWPOLYLINE
  5
248
100
AcDbEntity
  8
0
100
AcDbPolyline
 62
250
  6
CONTINUOUS
 90
6
 70
0
 10
-39.0843029895
 20
-36.9825290218
 10
-39.0839716084
 20
-37.0160789679
 10
-39.0833404176
 20
-37.0493700113
 10
-39.082337619
 20
-37.082385433
 10
-39.0808943226
 20
-37.1151236719
 10
-39.078944917
 20
-37.1475761919
  0
LINE
  5
249
100
AcDbEntity
  8
0
100
AcDbLine
 62
250
  6
CONTINUOUS
 10
-39.0844780677
 20
36.9486243349
 11
-39.0841077741
 21
36.7817620208
  0
LINE
  5
24A
100
AcDbEntity
  8
0
100
AcDbLine
 62
7
  6
CONTINUOUS
 10
-40.0
 20
-36.9999998428
 11
-40.0
 21
-3.7099727925
  0
LINE
  5
24B
100
AcDbEntity
  8
0
100
AcDbLine
 62
7
  6
CONTINUOUS
 10
-40.0
 20
3.7099727925
 11
-40.0
 21
36.9999998429
  0
LINE
  5
24C
100
AcDbEntity
  8
0
100
AcDbLine
 62
7
  6
CONTINUOUS
 10
-39.8674790937
 20
3.5
 11
-39.8674790937
 21
-3.5
  0
LINE
  5
24D
100
AcDbEntity
  8
0
100
AcDbLine
 62
250
  6
CONTINUOUS
 10
-39.7484790161
 20
-37.0
 11
-39.7484790161
 21
37.0
  0
LINE
  5
24E
100
AcDbEntity
  8
0
100
AcDbLine
 62
250
  6
CONTINUOUS
 10
-39.0841077741
 20
36.7817620208
 11
-39.0841154644
 21
-36.8140017208
  0
LWPOLYLINE
  5
24F
100
AcDbEntity
  8
0
100
AcDbPolyline
 62
250
  6
CONTINUOUS
 90
3
 70
0
 10
-39.0841154644
 20
-36.8140017208
 10
-39.0843712969
 20
-36.9147658058
 10
-39.0843029895
 20
-36.9825290218
  0
LWPOLYLINE
  5
250
100
AcDbEntity
  8
0
100
AcDbPolyline
 62
250
  6
CONTINUOUS
 90
7
 70
0
 10
-39.0789198005
 20
37.1475743012
 10
-39.0808481862
 20
37.1150698818
 10
-39.082303283
 20
37.082294643
 10
-39.0833367483
 20
37.0492556694
 10
-39.0840031632
 20
37.0159451117
 10
-39.0843603974
 20
36.9823852604
 10
-39.0844780677
 20
36.9486243349
  0
LWPOLYLINE
  5
251
100
AcDbEntity
  8
0
100
AcDbPolyline
 62
250
  6
CONTINUOUS
 90
10
 70
0
 10
-35.1952253949
 20
30.9983204474
 10
-35.2648566681
 20
30.679690642
 10
-35.3268090686
 20
30.3518166958
 10
-35.3814348012
 20
30.0147149102
 10
-35.4290927349
 20
29.6688189355
 10
-35.4703374174
 20
29.3145188853
 10
-35.5059552722
 20
28.9521845502
 10
-35.5366347701
 20
28.582121643
 10
-35.5625288406
 20
28.204380184
 10
-35.5837101741
 20
27.8189626045
  0
LWPOLYLINE
  5
252
100
AcDbEntity
  8
0
100
AcDbPolyline
 62
250
  6
CONTINUOUS
 90
10
 70
0
 10
-30.4507359896
 20
26.5522107386
 10
-30.5484964764
 20
26.2883480867
 10
-30.6390492012
 20
26.0162331498
 10
-30.722059568
 20
25.7358549972
 10
-30.7970821816
 20
25.4476533838
 10
-30.8638385335
 20
25.1515461774
 10
-30.9222087075
 20
24.8464812604
 10
-30.9718215211
 20
24.5322534906
 10
-31.0121708204
 20
24.2095664688
 10
-31.0428583296
 20
23.8787684896
  0
LWPOLYLINE
  5
253
100
AcDbEntity
  8
0
100
AcDbPolyline
 62
250
  6
CONTINUOUS
 90
10
 70
0
 10
-29.8401316492
 20
27.7802643023
 10
-29.9154951454
 20
27.656215458
 10
-29.9890794587
 20
27.5292057248
 10
-30.0608432376
 20
27.3991768255
 10
-30.130596232
 20
27.2663356545
 10
-30.1983474576
 20
27.130555307
 10
-30.2643057782
 20
26.9912741797
 10
-30.3284748159
 20
26.848310927
 10
-30.3906521024
 20
26.701933737
 10
-30.4507359896
 20
26.5522107386
  0
LINE
  5
254
100
AcDbEntity
  8
0
100
AcDbLine
 62
250
  6
CONTINUOUS
 10
-29.8129998538
 20
27.8235309344
 11
-29.8401316492
 21
27.7802643023
  0
LINE
  5
255
100
AcDbEntity
  8
0
100
AcDbLine
 62
250
  6
CONTINUOUS
 10
-29.7856820021
 20
27.8663844402
 11
-29.8129998538
 21
27.8235309344
  0
LINE
  5
256
100
AcDbEntity
  8
0
100
AcDbLine
 62
250
  6
CONTINUOUS
 10
-29.7581615566
 20
27.9088557501
 11
-29.7856820021
 21
27.8663844402
  0
LWPOLYLINE
  5
257
100
AcDbEntity
  8
0
100
AcDbPolyline
 62
250
  6
CONTINUOUS
 90
3
 70
0
 10
-29.716425002
 20
27.9719715713
 10
-29.7303985312
 20
27.9510104123
 10
-29.7581615566
 20
27.9088557501
  0
LWPOLYLINE
  5
258
100
AcDbEntity
  8
0
100
AcDbPolyline
 62
250
  6
CONTINUOUS
 90
10
 70
0
 10
-27.9537134761
 20
29.7297993469
 10
-28.1866757628
 20
29.5675769089
 10
-28.4107752962
 20
29.3966616331
 10
-28.6247402729
 20
29.2180951308
 10
-28.826605898
 20
29.0339232151
 10
-29.0178578705
 20
28.8432786509
 10
-29.2025640835
 20
28.6419866449
 10
-29.3815628102
 20
28.428692395
 10
-29.5529372846
 20
28.2053040438
 10
-29.716425002
 20
27.9719715713
  0
LWPOLYLINE
  5
259
100
AcDbEntity
  8
0
100
AcDbPolyline
 62
250
  6
CONTINUOUS
 90
10
 70
0
 10
-26.7549907543
 20
30.369619874
 10
-26.9012377024
 20
30.3062621107
 10
-27.0442024106
 20
30.2407993541
 10
-27.1838621817
 20
30.173319193
 10
-27.3201173988
 20
30.1039523052
 10
-27.4530673259
 20
30.0327323845
 10
-27.5829198025
 20
29.9596265407
 10
-27.709679872
 20
29.8846999516
 10
-27.8332533948
 20
29.8080797047
 10
-27.9537134761
 20
29.7297993469
  0
LWPOLYLINE
  5
25A
100
AcDbEntity
  8
0
100
AcDbPolyline
 62
250
  6
CONTINUOUS
 90
10
 70
0
 10
30.9999605717
 20
-35.1949136289
 10
31.1840807533
 20
-35.1498927153
 10
31.3642962145
 20
-35.1022384041
 10
31.5405652879
 20
-35.0519856384
 10
31.7128274807
 20
-34.9991835686
 10
31.8810244438
 20
-34.9438861428
 10
32.0452765642
 20
-34.8861475821
 10
32.2056289486
 20
-34.8259940014
 10
32.3618605515
 20
-34.7634032407
 10
32.5136085933
 20
-34.6983583088
  0
LINE
  5
25B
100
AcDbEntity
  8
0
100
AcDbLine
 62
7
  6
CONTINUOUS
 10
36.9999998429
 20
-40.0
 11
-36.9999998429
 21
-40.0
  0
LINE
  5
25C
100
AcDbEntity
  8
0
100
AcDbLine
 62
250
  6
CONTINUOUS
 10
36.9999998429
 20
-39.7484790161
 11
-36.9999998429
 21
-39.7484790161
  0
LWPOLYLINE
  5
25D
100
AcDbEntity
  8
0
100
AcDbPolyline
 62
250
  6
CONTINUOUS
 90
10
 70
0
 10
-26.7549907543
 20
-30.369619874
 10
-26.9012377024
 20
-30.3062621107
 10
-27.0442024106
 20
-30.2407993541
 10
-27.1838621817
 20
-30.173319193
 10
-27.3201173988
 20
-30.1039523052
 10
-27.4530673259
 20
-30.0327323845
 10
-27.5829198025
 20
-29.9596265407
 10
-27.709679872
 20
-29.8846999516
 10
-27.8332533948
 20
-29.8080797047
 10
-27.9537134761
 20
-29.7297993469
  0
LWPOLYLINE
  5
25E
100
AcDbEntity
  8
0
100
AcDbPolyline
 62
250
  6
CONTINUOUS
 90
10
 70
0
 10
-27.9537134761
 20
-29.7297993469
 10
-28.1866757628
 20
-29.5675769089
 10
-28.4107752962
 20
-29.3966616331
 10
-28.6247402729
 20
-29.2180951308
 10
-28.826605898
 20
-29.0339232151
 10
-29.0178578705
 20
-28.8432786509
 10
-29.2025640835
 20
-28.6419866449
 10
-29.3815628102
 20
-28.428692395
 10
-29.5529372846
 20
-28.2053040438
 10
-29.716425002
 20
-27.9719715713
  0
LINE
  5
25F
100
AcDbEntity
  8
0
100
AcDbLine
 62
250
  6
CONTINUOUS
 10
-29.716425002
 20
-27.9719715713
 11
-29.7443103262
 21
-27.9299725379
  0
LINE
  5
260
100
AcDbEntity
  8
0
100
AcDbLine
 62
250
  6
CONTINUOUS
 10
-29.7443103262
 20
-27.9299725379
 11
-29.7719508528
 21
-27.887661773
  0
LINE
  5
261
100
AcDbEntity
  8
0
100
AcDbLine
 62
250
  6
CONTINUOUS
 10
-29.7719508528
 20
-27.887661773
 11
-29.799363798
 21
-27.8450096072
  0
LWPOLYLINE
  5
262
100
AcDbEntity
  8
0
100
AcDbPolyline
 62
250
  6
CONTINUOUS
 90
3
 70
0
 10
-29.799363798
 20
-27.8450096072
 10
-29.8265887552
 20
-27.8019499753
 10
-29.8401316492
 20
-27.7802643023
  0
LWPOLYLINE
  5
263
100
AcDbEntity
  8
0
100
AcDbPolyline
 62
250
  6
CONTINUOUS
 90
10
 70
0
 10
-30.4507359896
 20
-26.5522107386
 10
-30.3906768919
 20
-26.7018740058
 10
-30.3285242807
 20
-26.8481981572
 10
-30.2643787937
 20
-26.9911157109
 10
-30.1984490122
 20
-27.1303457983
 10
-30.1307288258
 20
-27.2660785101
 10
-30.0609811421
 20
-27.3989197626
 10
-29.9891933571
 20
-27.5290008477
 10
-29.9155703501
 20
-27.6560900174
 10
-29.8401316492
 20
-27.7802643023
  0
LWPOLYLINE
  5
264
100
AcDbEntity
  8
0
100
AcDbPolyline
 62
250
  6
CONTINUOUS
 90
10
 70
0
 10
-30.4507359896
 20
-26.5522107386
 10
-30.5484964764
 20
-26.2883480867
 10
-30.6390492012
 20
-26.0162331498
 10
-30.722059568
 20
-25.7358549972
 10
-30.7970821816
 20
-25.4476533838
 10
-30.8638385335
 20
-25.1515461774
 10
-30.9222087075
 20
-24.8464812604
 10
-30.9718215211
 20
-24.5322534906
 10
-31.0121708204
 20
-24.2095664688
 10
-31.0428583296
 20
-23.8787684896
  0
LWPOLYLINE
  5
265
100
AcDbEntity
  8
0
100
AcDbPolyline
 62
250
  6
CONTINUOUS
 90
10
 70
0
 10
-35.1952253949
 20
-30.9983204474
 10
-35.2648566681
 20
-30.679690642
 10
-35.3268090686
 20
-30.3518166958
 10
-35.3814348012
 20
-30.0147149102
 10
-35.4290927349
 20
-29.6688189355
 10
-35.4703374174
 20
-29.3145188853
 10
-35.5059552722
 20
-28.9521845501
 10
-35.5366347701
 20
-28.5821216429
 10
-35.5625288406
 20
-28.204380184
 10
-35.5837101741
 20
-27.8189626045
  0
LINE
  5
266
100
AcDbEntity
  8
0
100
AcDbLine
 62
250
  6
CONTINUOUS
 10
-35.5837101741
 20
-27.8189626045
 11
-35.6251694307
 21
-26.598565327
  0
LINE
  5
267
100
AcDbEntity
  8
0
100
AcDbLine
 62
250
  6
CONTINUOUS
 10
-35.6251694307
 20
-26.598565327
 11
-35.6946295393
 21
-24.055123363
  0
LINE
  5
268
100
AcDbEntity
  8
0
100
AcDbLine
 62
250
  6
CONTINUOUS
 10
-35.6946295393
 20
-24.055123363
 11
-35.7601260278
 21
-21.3775904367
  0
LINE
  5
269
100
AcDbEntity
  8
0
100
AcDbLine
 62
250
  6
CONTINUOUS
 10
-35.7601260278
 20
-21.3775904367
 11
-35.8208183804
 21
-18.5539350253
  0
LINE
  5
26A
100
AcDbEntity
  8
0
100
AcDbLine
 62
250
  6
CONTINUOUS
 10
-35.8208183804
 20
-18.5539350253
 11
-35.8754991765
 21
-15.5773500164
  0
LINE
  5
26B
100
AcDbEntity
  8
0
100
AcDbLine
 62
250
  6
CONTINUOUS
 10
-35.8754991765
 20
-15.5773500164
 11
-35.9228399476
 21
-12.4376310346
  0
LINE
  5
26C
100
AcDbEntity
  8
0
100
AcDbLine
 62
250
  6
CONTINUOUS
 10
-35.9228399476
 20
-12.4376310346
 11
-35.9613061941
 21
-9.1225107815
  0
LWPOLYLINE
  5
26D
100
AcDbEntity
  8
0
100
AcDbPolyline
 62
250
  6
CONTINUOUS
 90
5
 70
0
 10
-35.9613061941
 20
-9.1225107815
 10
-35.989073566
 20
-5.6234702374
 10
-35.9983275805
 20
-3.7983642338
 10
-36.004099957
 20
-1.9238725791
 10
-36.0060918145
 20
-0.0
  0
LINE
  5
26E
100
AcDbEntity
  8
0
100
AcDbLine
 62
250
  6
CONTINUOUS
 10
-36.9999998429
 20
-40.0
 11
-36.9999998429
 21
-39.7484790161
  0
LINE
  5
26F
100
AcDbEntity
  8
0
100
AcDbLine
 62
250
  6
CONTINUOUS
 10
-36.9999998429
 20
39.7484790161
 11
-36.9999998429
 21
40.0
  0
LWPOLYLINE
  5
270
100
AcDbEntity
  8
0
100
AcDbPolyline
 62
250
  6
CONTINUOUS
 90
4
 70
0
 10
-35.9890735705
 20
5.6234694884
 10
-35.9983275827
 20
3.7983636934
 10
-36.0040999576
 20
1.9238722884
 10
-36.0060918145
 20
-0.0
  0
LINE
  5
271
100
AcDbEntity
  8
0
100
AcDbLine
 62
250
  6
CONTINUOUS
 10
-35.9613062043
 20
9.1225097423
 11
-35.9890735705
 21
5.6234694884
  0
LINE
  5
272
100
AcDbEntity
  8
0
100
AcDbLine
 62
250
  6
CONTINUOUS
 10
-35.9228399635
 20
12.4376298495
 11
-35.9613062043
 21
9.1225097423
  0
LINE
  5
273
100
AcDbEntity
  8
0
100
AcDbLine
 62
250
  6
CONTINUOUS
 10
-35.8754991966
 20
15.5773488177
 11
-35.9228399635
 21
12.4376298495
  0
LINE
  5
274
100
AcDbEntity
  8
0
100
AcDbLine
 62
250
  6
CONTINUOUS
 10
-35.8208184023
 20
18.5539339284
 11
-35.8754991966
 21
15.5773488177
  0
LINE
  5
275
100
AcDbEntity
  8
0
100
AcDbLine
 62
250
  6
CONTINUOUS
 10
-35.7601260484
 20
21.3775895441
 11
-35.8208184023
 21
18.5539339284
  0
LINE
  5
276
100
AcDbEntity
  8
0
100
AcDbLine
 62
250
  6
CONTINUOUS
 10
-35.6946295547
 20
24.0551227684
 11
-35.7601260484
 21
21.3775895441
  0
LWPOLYLINE
  5
277
100
AcDbEntity
  8
0
100
AcDbPolyline
 62
250
  6
CONTINUOUS
 90
3
 70
0
 10
-35.5837101741
 20
27.8189626045
 10
-35.6251694371
 20
26.5985651086
 10
-35.6946295547
 20
24.0551227684
  0
LWPOLYLINE
  5
278
100
AcDbEntity
  8
0
100
AcDbPolyline
 62
7
  6
CONTINUOUS
 90
10
 70
0
 10
-25.3342758969
 20
23.9867323983
 10
-25.344111002
 20
23.9677959524
 10
-25.3538145021
 20
23.9488018121
 10
-25.3633871744
 20
23.9297484976
 10
-25.3728281702
 20
23.9106378499
 10
-25.382139945
 20
23.8914650781
 10
-25.391328029
 20
23.872218663
 10
-25.4003945628
 20
23.8528936676
 10
-25.4093385273
 20
23.8334918333
 10
-25.4181605135
 20
23.8140115601
  0
LWPOLYLINE
  5
279
100
AcDbEntity
  8
0
100
AcDbPolyline
 62
250
  6
CONTINUOUS
 90
10
 70
0
 10
24.0865663579
 20
-31.0246453689
 10
24.4194233623
 20
-30.9867183478
 10
24.7440592551
 20
-30.9389530781
 10
25.0601043683
 20
-30.8817925962
 10
25.3672939211
 20
-30.8156839022
 10
25.6652859109
 20
-30.7411126747
 10
25.953604301
 20
-30.6586394507
 10
26.2310874778
 20
-30.5690171573
 10
26.4982262259
 20
-30.4725193503
 10
26.7549907543
 20
-30.369619874
  0
LWPOLYLINE
  5
27A
100
AcDbEntity
  8
0
100
AcDbPolyline
 62
250
  6
CONTINUOUS
 90
10
 70
0
 10
27.8243897177
 20
-35.5828566402
 10
28.2093585764
 20
-35.5617382045
 10
28.5867111019
 20
-35.5364476262
 10
28.9563227792
 20
-35.5062999463
 10
29.3181750637
 20
-35.4707001043
 10
29.6720725767
 20
-35.4291677258
 10
30.0176305017
 20
-35.3813439738
 10
30.3542196702
 20
-35.3266824015
 10
30.6816106979
 20
-35.2646677222
 10
30.9999605717
 20
-35.1949136289
  0
LINE
  5
27B
100
AcDbEntity
  8
0
100
AcDbLine
 62
250
  6
CONTINUOUS
 10
26.8052253306
 20
-35.6181326356
 11
27.8243897177
 21
-35.5828566402
  0
LINE
  5
27C
100
AcDbEntity
  8
0
100
AcDbLine
 62
250
  6
CONTINUOUS
 10
23.594347618
 20
-35.696351842
 11
26.8052253306
 21
-35.6181326356
  0
LINE
  5
27D
100
AcDbEntity
  8
0
100
AcDbLine
 62
250
  6
CONTINUOUS
 10
20.1368473665
 20
-35.7679479351
 11
23.594347618
 21
-35.696351842
  0
LINE
  5
27E
100
AcDbEntity
  8
0
100
AcDbLine
 62
250
  6
CONTINUOUS
 10
17.6824077937
 20
-35.8105206921
 11
20.1368473665
 21
-35.7679479351
  0
LINE
  5
27F
100
AcDbEntity
  8
0
100
AcDbLine
 62
250
  6
CONTINUOUS
 10
15.1008182429
 20
-35.8476407837
 11
17.6824077937
 21
-35.8105206921
  0
LINE
  5
280
100
AcDbEntity
  8
0
100
AcDbLine
 62
250
  6
CONTINUOUS
 10
12.3834808214
 20
-35.8779633818
 11
15.1008182429
 21
-35.8476407837
  0
LWPOLYLINE
  5
281
100
AcDbEntity
  8
0
100
AcDbPolyline
 62
250
  6
CONTINUOUS
 90
3
 70
0
 10
8.0381477473
 20
-35.9069674183
 10
9.5243803005
 20
-35.8999983905
 10
12.3834808214
 20
-35.8779633818
  0
LINE
  5
282
100
AcDbEntity
  8
0
100
AcDbLine
 62
250
  6
CONTINUOUS
 10
4.9485476714
 20
-35.9116376503
 11
8.0381477473
 21
-35.9069674183
  0
LINE
  5
283
100
AcDbEntity
  8
0
100
AcDbLine
 62
250
  6
CONTINUOUS
 10
-40.0
 20
-36.9999998428
 11
-39.7484790161
 21
-37.0
  0
LINE
  5
284
100
AcDbEntity
  8
0
100
AcDbLine
 62
250
  6
CONTINUOUS
 10
40.0
 20
-36.9999998428
 11
39.7484790161
 21
-37.0
  0
LINE
  5
285
100
AcDbEntity
  8
0
100
AcDbLine
 62
250
  6
CONTINUOUS
 10
1.6909259485
 20
-35.9102247811
 11
4.9485476714
 21
-35.9116376503
  0
LWPOLYLINE
  5
286
100
AcDbEntity
  8
0
100
AcDbPolyline
 62
250
  6
CONTINUOUS
 90
3
 70
0
 10
-8.0293087036
 20
-35.9069980047
 10
-6.5059878887
 20
-35.9106127353
 10
1.6909259485
 20
-35.9102247811
  0
LINE
  5
287
100
AcDbEntity
  8
0
100
AcDbLine
 62
250
  6
CONTINUOUS
 10
-10.9637905482
 20
-35.8901491605
 11
-8.0293087036
 21
-35.9069980047
  0
LINE
  5
288
100
AcDbEntity
  8
0
100
AcDbLine
 62
250
  6
CONTINUOUS
 10
-13.7515737482
 20
-35.8638468417
 11
-10.9637905482
 21
-35.8901491605
  0
LINE
  5
289
100
AcDbEntity
  8
0
100
AcDbLine
 62
250
  6
CONTINUOUS
 10
-16.4015253399
 20
-35.829932418
 11
-13.7515737482
 21
-35.8638468417
  0
LINE
  5
28A
100
AcDbEntity
  8
0
100
AcDbLine
 62
250
  6
CONTINUOUS
 10
-18.9211618729
 20
-35.7899081187
 11
-16.4015253399
 21
-35.829932418
  0
LINE
  5
28B
100
AcDbEntity
  8
0
100
AcDbLine
 62
250
  6
CONTINUOUS
 10
-22.4685436258
 20
-35.7211334737
 11
-18.9211618729
 21
-35.7899081187
  0
LWPOLYLINE
  5
28C
100
AcDbEntity
  8
0
100
AcDbPolyline
 62
250
  6
CONTINUOUS
 90
4
 70
0
 10
-27.8243897177
 20
-35.5828566402
 10
-26.8046467912
 20
-35.6181478313
 10
-25.7601169818
 20
-35.644810834
 10
-22.4685436258
 20
-35.7211334737
  0
LWPOLYLINE
  5
28D
100
AcDbEntity
  8
0
100
AcDbPolyline
 62
250
  6
CONTINUOUS
 90
10
 70
0
 10
-27.8243897177
 20
-35.5828566402
 10
-28.2093585763
 20
-35.5617382045
 10
-28.5867111018
 20
-35.5364476262
 10
-28.9563227791
 20
-35.5062999463
 10
-29.3181750636
 20
-35.4707001043
 10
-29.6720725766
 20
-35.4291677258
 10
-30.0176305016
 20
-35.3813439738
 10
-30.3542196701
 20
-35.3266824015
 10
-30.6816106978
 20
-35.2646677222
 10
-30.9999605717
 20
-35.1949136289
  0
LWPOLYLINE
  5
28E
100
AcDbEntity
  8
0
100
AcDbPolyline
 62
250
  6
CONTINUOUS
 90
10
 70
0
 10
-24.0865663579
 20
-31.0246453689
 10
-24.4194233623
 20
-30.9867183478
 10
-24.7440592551
 20
-30.9389530781
 10
-25.0601043683
 20
-30.8817925962
 10
-25.3672939211
 20
-30.8156839022
 10
-25.6652859109
 20
-30.7411126747
 10
-25.953604301
 20
-30.6586394507
 10
-26.2310874778
 20
-30.5690171573
 10
-26.4982262259
 20
-30.4725193503
 10
-26.7549907543
 20
-30.369619874
  0
LWPOLYLINE
  5
28F
100
AcDbEntity
  8
0
100
AcDbPolyline
 62
7
  6
CONTINUOUS
 90
10
 70
0
 10
-25.3342758969
 20
-23.9867323983
 10
-25.344111002
 20
-23.9677959524
 10
-25.3538145021
 20
-23.9488018121
 10
-25.3633871744
 20
-23.9297484976
 10
-25.3728281702
 20
-23.9106378499
 10
-25.382139945
 20
-23.8914650781
 10
-25.391328029
 20
-23.872218663
 10
-25.4003945628
 20
-23.8528936676
 10
-25.4093385273
 20
-23.8334918333
 10
-25.4181605135
 20
-23.8140115601
  0
LINE
  5
290
100
AcDbEntity
  8
0
100
AcDbLine
 62
250
  6
CONTINUOUS
 10
-31.0428583296
 20
-23.8787684896
 11
-31.0753277209
 21
-23.3424457485
  0
LINE
  5
291
100
AcDbEntity
  8
0
100
AcDbLine
 62
250
  6
CONTINUOUS
 10
-31.0753277209
 20
-23.3424457485
 11
-31.1672112533
 21
-21.6493161037
  0
LINE
  5
292
100
AcDbEntity
  8
0
100
AcDbLine
 62
250
  6
CONTINUOUS
 10
-31.1672112533
 20
-21.6493161037
 11
-31.258333052
 21
-19.8264803094
  0
LINE
  5
293
100
AcDbEntity
  8
0
100
AcDbLine
 62
250
  6
CONTINUOUS
 10
-31.258333052
 20
-19.8264803094
 11
-31.347630099
 21
-17.859779274
  0
LINE
  5
294
100
AcDbEntity
  8
0
100
AcDbLine
 62
250
  6
CONTINUOUS
 10
-31.347630099
 20
-17.859779274
 11
-31.4053978822
 21
-16.4624397285
  0
LINE
  5
295
100
AcDbEntity
  8
0
100
AcDbLine
 62
250
  6
CONTINUOUS
 10
-31.4053978822
 20
-16.4624397285
 11
-31.4611154439
 21
-14.9916275732
  0
LINE
  5
296
100
AcDbEntity
  8
0
100
AcDbLine
 62
250
  6
CONTINUOUS
 10
-31.4611154439
 20
-14.9916275732
 11
-31.5141534554
 21
-13.4426690786
  0
LINE
  5
297
100
AcDbEntity
  8
0
100
AcDbLine
 62
250
  6
CONTINUOUS
 10
-31.5141534554
 20
-13.4426690786
 11
-31.5637339692
 21
-11.8121770174
  0
LINE
  5
298
100
AcDbEntity
  8
0
100
AcDbLine
 62
250
  6
CONTINUOUS
 10
-31.5637339692
 20
-11.8121770174
 11
-31.6090299193
 21
-10.0947437671
  0
LINE
  5
299
100
AcDbEntity
  8
0
100
AcDbLine
 62
250
  6
CONTINUOUS
 10
-31.6090299193
 20
-10.0947437671
 11
-31.6490868437
 21
-8.2842338753
  0
LINE
  5
29A
100
AcDbEntity
  8
0
100
AcDbLine
 62
250
  6
CONTINUOUS
 10
-31.6490868437
 20
-8.2842338753
 11
-31.6827554854
 21
-6.3763100428
  0
LINE
  5
29B
100
AcDbEntity
  8
0
100
AcDbLine
 62
250
  6
CONTINUOUS
 10
-31.6827554854
 20
-6.3763100428
 11
-31.7087683936
 21
-4.363995468
  0
LINE
  5
29C
100
AcDbEntity
  8
0
100
AcDbLine
 62
250
  6
CONTINUOUS
 10
-31.7087683936
 20
-4.363995468
 11
-31.7256531596
 21
-2.2393457783
  0
LINE
  5
29D
100
AcDbEntity
  8
0
100
AcDbLine
 62
250
  6
CONTINUOUS
 10
-31.7256531596
 20
-2.2393457783
 11
-31.7316879503
 21
-0.0
  0
LINE
  5
29E
100
AcDbEntity
  8
0
100
AcDbLine
 62
250
  6
CONTINUOUS
 10
-31.7256531596
 20
2.2393457783
 11
-31.7316879503
 21
0.0
  0
LINE
  5
29F
100
AcDbEntity
  8
0
100
AcDbLine
 62
250
  6
CONTINUOUS
 10
-31.7087683936
 20
4.363995468
 11
-31.7256531596
 21
2.2393457783
  0
LINE
  5
2A0
100
AcDbEntity
  8
0
100
AcDbLine
 62
250
  6
CONTINUOUS
 10
-31.6827554854
 20
6.3763100428
 11
-31.7087683936
 21
4.363995468
  0
LINE
  5
2A1
100
AcDbEntity
  8
0
100
AcDbLine
 62
250
  6
CONTINUOUS
 10
-31.6490868437
 20
8.2842338753
 11
-31.6827554854
 21
6.3763100428
  0
LINE
  5
2A2
100
AcDbEntity
  8
0
100
AcDbLine
 62
250
  6
CONTINUOUS
 10
-31.6090299193
 20
10.0947437671
 11
-31.6490868437
 21
8.2842338753
  0
LINE
  5
2A3
100
AcDbEntity
  8
0
100
AcDbLine
 62
250
  6
CONTINUOUS
 10
-31.5637339692
 20
11.8121770174
 11
-31.6090299193
 21
10.0947437671
  0
LINE
  5
2A4
100
AcDbEntity
  8
0
100
AcDbLine
 62
250
  6
CONTINUOUS
 10
-31.4880174848
 20
14.227080089
 11
-31.5637339692
 21
11.8121770174
  0
LINE
  5
2A5
100
AcDbEntity
  8
0
100
AcDbLine
 62
250
  6
CONTINUOUS
 10
-31.4053978822
 20
16.4624397285
 11
-31.4880174848
 21
14.227080089
  0
LINE
  5
2A6
100
AcDbEntity
  8
0
100
AcDbLine
 62
250
  6
CONTINUOUS
 10
-31.3181449811
 20
18.5323017732
 11
-31.4053978822
 21
16.4624397285
  0
LINE
  5
2A7
100
AcDbEntity
  8
0
100
AcDbLine
 62
250
  6
CONTINUOUS
 10
-31.2281015008
 20
20.4495969736
 11
-31.3181449811
 21
18.5323017732
  0
LWPOLYLINE
  5
2A8
100
AcDbEntity
  8
0
100
AcDbPolyline
 62
250
  6
CONTINUOUS
 90
4
 70
0
 10
-31.0428583296
 20
23.8787684896
 10
-31.0753277209
 20
23.3424457485
 10
-31.1061009202
 20
22.7919621591
 10
-31.2281015008
 20
20.4495969736
  0
LWPOLYLINE
  5
2A9
100
AcDbEntity
  8
0
100
AcDbPolyline
 62
7
  6
CONTINUOUS
 90
10
 70
0
 10
-25.4181604325
 20
23.8140117406
 10
-25.4678936115
 20
23.697017673
 10
-25.51296893
 20
23.5779988012
 10
-25.5534315262
 20
23.4567686096
 10
-25.589149998
 20
23.3336271421
 10
-25.6199937973
 20
23.2089529043
 10
-25.6459039926
 20
23.0829203639
 10
-25.6668525527
 20
22.9556027088
 10
-25.682793026
 20
22.8271116364
 10
-25.6936771012
 20
22.697553935
  0
LINE
  5
2AA
100
AcDbEntity
  8
0
100
AcDbLine
 62
7
  6
CONTINUOUS
 10
-39.8674790937
 20
-3.5
 11
-40.0
 21
-3.7099727925
  0
LWPOLYLINE
  5
2AB
100
AcDbEntity
  8
0
100
AcDbPolyline
 62
7
  6
CONTINUOUS
 90
10
 70
0
 10
-23.8140066113
 20
25.4181496252
 10
-24.0235756409
 20
25.314708272
 10
-24.2263667662
 20
25.1951699226
 10
-24.4204510519
 20
25.0603794742
 10
-24.6044108959
 20
24.9113158795
 10
-24.7772683977
 20
24.7487208566
 10
-24.9376437094
 20
24.5737927688
 10
-25.0844954392
 20
24.3877815811
 10
-25.2171973569
 20
24.1913765898
 10
-25.334275989
 20
23.9867322225
  0
LINE
  5
2AC
100
AcDbEntity
  8
0
100
AcDbLine
 62
250
  6
CONTINUOUS
 10
23.4704915319
 20
-31.0718057336
 11
24.0865663579
 21
-31.0246453689
  0
LINE
  5
2AD
100
AcDbEntity
  8
0
100
AcDbLine
 62
250
  6
CONTINUOUS
 10
21.5062819963
 20
-31.1850948923
 11
23.4704915319
 21
-31.0718057336
  0
LINE
  5
2AE
100
AcDbEntity
  8
0
100
AcDbLine
 62
250
  6
CONTINUOUS
 10
20.1107826258
 20
-31.2571143767
 11
21.5062819963
 21
-31.1850948923
  0
LINE
  5
2AF
100
AcDbEntity
  8
0
100
AcDbLine
 62
250
  6
CONTINUOUS
 10
18.6408520341
 20
-31.3260687252
 11
20.1107826258
 21
-31.2571143767
  0
LINE
  5
2B0
100
AcDbEntity
  8
0
100
AcDbLine
 62
250
  6
CONTINUOUS
 10
17.0915176699
 20
-31.3910568595
 11
18.6408520341
 21
-31.3260687252
  0
LINE
  5
2B1
100
AcDbEntity
  8
0
100
AcDbLine
 62
250
  6
CONTINUOUS
 10
15.4590158824
 20
-31.4514135349
 11
17.0915176699
 21
-31.3910568595
  0
LINE
  5
2B2
100
AcDbEntity
  8
0
100
AcDbLine
 62
250
  6
CONTINUOUS
 10
13.737508598
 20
-31.5063665256
 11
15.4590158824
 21
-31.4514135349
  0
LINE
  5
2B3
100
AcDbEntity
  8
0
100
AcDbLine
 62
250
  6
CONTINUOUS
 10
11.9211480513
 20
-31.554625312
 11
13.737508598
 21
-31.5063665256
  0
LINE
  5
2B4
100
AcDbEntity
  8
0
100
AcDbLine
 62
250
  6
CONTINUOUS
 10
10.005824294
 20
-31.5945871013
 11
11.9211480513
 21
-31.554625312
  0
LWPOLYLINE
  5
2B5
100
AcDbEntity
  8
0
100
AcDbPolyline
 62
250
  6
CONTINUOUS
 90
3
 70
0
 10
6.9331614168
 20
-31.6353247313
 10
7.9851491095
 20
-31.6248559347
 10
10.005824294
 20
-31.5945871013
  0
LINE
  5
2B6
100
AcDbEntity
  8
0
100
AcDbLine
 62
250
  6
CONTINUOUS
 10
4.7437860093
 20
-31.6461530537
 11
6.9331614168
 21
-31.6353247313
  0
LWPOLYLINE
  5
2B7
100
AcDbEntity
  8
0
100
AcDbPolyline
 62
250
  6
CONTINUOUS
 90
5
 70
0
 10
-8.038600986
 20
-31.6241940973
 10
-6.9821782917
 20
-31.6349712968
 10
-5.8962792595
 20
-31.6422284812
 10
-4.7809194228
 20
-31.6462085815
 10
4.7437860093
 20
-31.6461530537
  0
LINE
  5
2B8
100
AcDbEntity
  8
0
100
AcDbLine
 62
250
  6
CONTINUOUS
 10
-10.0652720164
 20
-31.5935211002
 11
-8.038600986
 21
-31.6241940973
  0
LINE
  5
2B9
100
AcDbEntity
  8
0
100
AcDbLine
 62
250
  6
CONTINUOUS
 10
-11.9831080797
 20
-31.5531397882
 11
-10.0652720164
 21
-31.5935211002
  0
LINE
  5
2BA
100
AcDbEntity
  8
0
100
AcDbLine
 62
250
  6
CONTINUOUS
 10
-13.7990494514
 20
-31.5045674265
 11
-11.9831080797
 21
-31.5531397882
  0
LINE
  5
2BB
100
AcDbEntity
  8
0
100
AcDbLine
 62
250
  6
CONTINUOUS
 10
-15.5174972198
 20
-31.4493826685
 11
-13.7990494514
 21
-31.5045674265
  0
LINE
  5
2BC
100
AcDbEntity
  8
0
100
AcDbLine
 62
250
  6
CONTINUOUS
 10
-17.1447396564
 20
-31.3889478129
 11
-15.5174972198
 21
-31.4493826685
  0
LINE
  5
2BD
100
AcDbEntity
  8
0
100
AcDbLine
 62
250
  6
CONTINUOUS
 10
-18.6867504689
 20
-31.3240307057
 11
-17.1447396564
 21
-31.3889478129
  0
LINE
  5
2BE
100
AcDbEntity
  8
0
100
AcDbLine
 62
250
  6
CONTINUOUS
 10
-20.1474317188
 20
-31.2553421256
 11
-18.6867504689
 21
-31.3240307057
  0
LINE
  5
2BF
100
AcDbEntity
  8
0
100
AcDbLine
 62
250
  6
CONTINUOUS
 10
-21.5326261783
 20
-31.1834522811
 11
-20.1474317188
 21
-31.2553421256
  0
LWPOLYLINE
  5
2C0
100
AcDbEntity
  8
0
100
AcDbPolyline
 62
250
  6
CONTINUOUS
 90
3
 70
0
 10
-24.0865663579
 20
-31.0246453689
 10
-23.4774918237
 20
-31.0711595159
 10
-21.5326261783
 20
-31.1834522811
  0
LWPOLYLINE
  5
2C1
100
AcDbEntity
  8
0
100
AcDbPolyline
 62
7
  6
CONTINUOUS
 90
10
 70
0
 10
-23.8140066113
 20
-25.4181496252
 10
-24.0235756409
 20
-25.314708272
 10
-24.2263667662
 20
-25.1951699226
 10
-24.4204510519
 20
-25.0603794742
 10
-24.6044108959
 20
-24.9113158795
 10
-24.7772683977
 20
-24.7487208566
 10
-24.9376437094
 20
-24.5737927688
 10
-25.0844954392
 20
-24.3877815811
 10
-25.2171973569
 20
-24.1913765898
 10
-25.334275989
 20
-23.9867322225
  0
LINE
  5
2C2
100
AcDbEntity
  8
0
100
AcDbLine
 62
7
  6
CONTINUOUS
 10
-40.0
 20
3.7099727925
 11
-39.8674790937
 21
3.5
  0
LWPOLYLINE
  5
2C3
100
AcDbEntity
  8
0
100
AcDbPolyline
 62
7
  6
CONTINUOUS
 90
10
 70
0
 10
-25.4181604325
 20
-23.8140117406
 10
-25.4678936115
 20
-23.697017673
 10
-25.51296893
 20
-23.5779988012
 10
-25.5534315262
 20
-23.4567686096
 10
-25.589149998
 20
-23.3336271421
 10
-25.6199937973
 20
-23.2089529043
 10
-25.6459039926
 20
-23.0829203639
 10
-25.6668525527
 20
-22.9556027088
 10
-25.682793026
 20
-22.8271116364
 10
-25.6936771012
 20
-22.697553935
  0
LWPOLYLINE
  5
2C4
100
AcDbEntity
  8
0
100
AcDbPolyline
 62
7
  6
CONTINUOUS
 90
10
 70
0
 10
-25.6930384606
 20
-22.6975045784
 10
-25.6944476909
 20
-22.6751820589
 10
-25.6957103446
 20
-22.6528295776
 10
-25.6968261675
 20
-22.6304478342
 10
-25.6977948831
 20
-22.6080380883
 10
-25.6986162664
 20
-22.5856004856
 10
-25.6992901074
 20
-22.5631340533
 10
-25.6998161291
 20
-22.5406389347
 10
-25.7001940244
 20
-22.5181163937
 10
-25.7004235043
 20
-22.4955671375
  0
LINE
  5
2C5
100
AcDbEntity
  8
0
100
AcDbLine
 62
7
  6
CONTINUOUS
 10
-25.7004235043
 20
-22.4955671375
 11
-25.7004239475
 21
22.49556714
  0
LWPOLYLINE
  5
2C6
100
AcDbEntity
  8
0
100
AcDbPolyline
 62
7
  6
CONTINUOUS
 90
19
 70
0
 10
-24.2143662665
 20
22.2017569107
 10
-24.2069053906
 20
22.3674857603
 10
-24.1846488959
 20
22.5348522837
 10
-24.1477917097
 20
22.7018962828
 10
-24.0963824886
 20
22.867041807
 10
-24.0307127218
 20
23.0277768381
 10
-23.9516812676
 20
23.180811689
 10
-23.8602700616
 20
23.3238245589
 10
-23.7572819844
 20
23.4568535124
 10
-23.6435772414
 20
23.5803621957
 10
-23.5202001968
 20
23.6940603734
 10
-23.3874271619
 20
23.7970058353
 10
-23.2447103937
 20
23.8884292903
 10
-23.092043117
 20
23.9674847044
 10
-22.9316723226
 20
24.0332231745
 10
-22.7665598755
 20
24.0848335163
 10
-22.5990895373
 20
24.121964676
 10
-22.4309459621
 20
24.1444490721
 10
-22.2641175103
 20
24.1520056669
  0
LWPOLYLINE
  5
2C7
100
AcDbEntity
  8
0
100
AcDbPolyline
 62
7
  6
CONTINUOUS
 90
10
 70
0
 10
-25.6936770885
 20
22.6975541339
 10
-25.6950061096
 20
22.6755226629
 10
-25.6961779841
 20
22.6533831959
 10
-25.6971977759
 20
22.6311377598
 10
-25.698070696
 20
22.6087881447
 10
-25.6988020687
 20
22.5863367585
 10
-25.6993973519
 20
22.5637866297
 10
-25.699862173
 20
22.5411402683
 10
-25.7002023128
 20
22.5183996634
 10
-25.7004236849
 20
22.4955671387
  0
LWPOLYLINE
  5
2C8
100
AcDbEntity
  8
0
100
AcDbPolyline
 62
7
  6
CONTINUOUS
 90
10
 70
0
 10
22.6975533314
 20
-25.6936696952
 10
22.8270109643
 20
-25.6827822297
 10
22.9554414908
 20
-25.6668385782
 10
23.0827290869
 20
-25.6458881794
 10
23.2087476853
 20
-25.619979807
 10
23.3334210376
 20
-25.5891416529
 10
23.456582434
 20
-25.5534289545
 10
23.5778524188
 20
-25.5129698746
 10
23.6969291707
 20
-25.4678941966
 10
23.8140068827
 20
-25.4181495036
  0
LWPOLYLINE
  5
2C9
100
AcDbEntity
  8
0
100
AcDbPolyline
 62
7
  6
CONTINUOUS
 90
10
 70
0
 10
22.4957839709
 20
-25.7004235177
 10
22.5185916229
 20
-25.7002013582
 10
22.5413074399
 20
-25.6998603545
 10
22.5639291437
 20
-25.6993946194
 10
22.5864548083
 20
-25.6987984009
 10
22.6088819521
 20
-25.6980661039
 10
22.6312075406
 20
-25.6971923076
 10
22.6534291943
 20
-25.696171727
 10
22.675545185
 20
-25.6949991919
 10
22.6975535308
 20
-25.6936696823
  0
LINE
  5
2CA
100
AcDbEntity
  8
0
100
AcDbLine
 62
7
  6
CONTINUOUS
 10
20.430144
 20
-28.800007
 11
19.850122
 21
-28.800015
  0
LINE
  5
2CB
100
AcDbEntity
  8
0
100
AcDbLine
 62
7
  6
CONTINUOUS
 10
25.0
 20
-28.8
 11
24.346695
 21
-28.800007
  0
LINE
  5
2CC
100
AcDbEntity
  8
0
100
AcDbLine
 62
7
  6
CONTINUOUS
 10
18.335039
 20
-28.800007
 11
17.755031
 21
-28.800015
  0
LINE
  5
2CD
100
AcDbEntity
  8
0
100
AcDbLine
 62
7
  6
CONTINUOUS
 10
16.046627
 20
-28.800015
 11
15.466605
 21
-28.800022
  0
LINE
  5
2CE
100
AcDbEntity
  8
0
100
AcDbLine
 62
7
  6
CONTINUOUS
 10
14.148794
 20
-28.800015
 11
13.568751
 21
-28.800022
  0
LINE
  5
2CF
100
AcDbEntity
  8
0
100
AcDbLine
 62
7
  6
CONTINUOUS
 10
19.463443
 20
-28.800015
 11
18.883421
 21
-28.800015
  0
LINE
  5
2D0
100
AcDbEntity
  8
0
100
AcDbLine
 62
7
  6
CONTINUOUS
 10
17.206656
 20
-28.800015
 11
16.626634
 21
-28.800015
  0
LINE
  5
2D1
100
AcDbEntity
  8
0
100
AcDbLine
 62
7
  6
CONTINUOUS
 10
23.259144
 20
-28.800007
 11
22.679115
 21
-28.800007
  0
LINE
  5
2D2
100
AcDbEntity
  8
0
100
AcDbLine
 62
7
  6
CONTINUOUS
 10
22.292437
 20
-28.800015
 11
21.712408
 21
-28.800007
  0
LINE
  5
2D3
100
AcDbEntity
  8
0
100
AcDbLine
 62
7
  6
CONTINUOUS
 10
21.529302
 20
-28.229679
 11
20.613257
 21
-28.229679
  0
LINE
  5
2D4
100
AcDbEntity
  8
0
100
AcDbLine
 62
7
  6
CONTINUOUS
 10
20.790179
 20
-27.678657
 11
21.352373
 21
-27.678657
  0
LINE
  5
2D5
100
AcDbEntity
  8
0
100
AcDbLine
 62
7
  6
CONTINUOUS
 10
23.765441
 20
-27.678657
 11
23.25921
 21
-27.67865
  0
LINE
  5
2D6
100
AcDbEntity
  8
0
100
AcDbLine
 62
7
  6
CONTINUOUS
 10
23.251148
 20
-27.142128
 11
23.956824
 21
-27.142128
  0
LINE
  5
2D7
100
AcDbEntity
  8
0
100
AcDbLine
 62
7
  6
CONTINUOUS
 10
23.956824
 20
-26.436398
 11
23.25114
 21
-26.436398
  0
LINE
  5
2D8
100
AcDbEntity
  8
0
100
AcDbLine
 62
7
  6
CONTINUOUS
 10
12.637619
 20
-25.899884
 11
13.217648
 21
-25.899884
  0
LINE
  5
2D9
100
AcDbEntity
  8
0
100
AcDbLine
 62
7
  6
CONTINUOUS
 10
14.499905
 20
-25.899884
 11
15.079934
 21
-25.899884
  0
LINE
  5
2DA
100
AcDbEntity
  8
0
100
AcDbLine
 62
7
  6
CONTINUOUS
 10
15.466612
 20
-25.899884
 11
16.046634
 21
-25.899884
  0
LINE
  5
2DB
100
AcDbEntity
  8
0
100
AcDbLine
 62
7
  6
CONTINUOUS
 10
16.626634
 20
-25.899884
 11
17.503471
 21
-25.899884
  0
LINE
  5
2DC
100
AcDbEntity
  8
0
100
AcDbLine
 62
7
  6
CONTINUOUS
 10
18.586606
 20
-25.899884
 11
19.463443
 21
-25.899884
  0
LINE
  5
2DD
100
AcDbEntity
  8
0
100
AcDbLine
 62
7
  6
CONTINUOUS
 10
20.781247
 20
-25.899877
 11
21.361297
 21
-25.899877
  0
LINE
  5
2DE
100
AcDbEntity
  8
0
100
AcDbLine
 62
7
  6
CONTINUOUS
 10
22.679115
 20
-25.899877
 11
24.03733
 21
-25.899877
  0
LINE
  5
2DF
100
AcDbEntity
  8
0
100
AcDbLine
 62
7
  6
CONTINUOUS
 10
22.4957839709
 20
-25.7004235177
 11
-22.4957839733
 21
-25.7004239387
  0
LWPOLYLINE
  5
2E0
100
AcDbEntity
  8
0
100
AcDbPolyline
 62
7
  6
CONTINUOUS
 90
10
 70
0
 10
-22.4957839721
 20
-25.7004236916
 10
-22.5185916092
 20
-25.7002015469
 10
-22.5413074102
 20
-25.6998605383
 10
-22.5639290977
 20
-25.6993947837
 10
-22.5864547454
 20
-25.698798536
 10
-22.6088818731
 20
-25.6980662048
 10
-22.6312074492
 20
-25.6971923741
 10
-22.6534290953
 20
-25.6961717633
 10
-22.675545083
 20
-25.6949992068
 10
-22.6975534312
 20
-25.693669689
  0
LWPOLYLINE
  5
2E1
100
AcDbEntity
  8
0
100
AcDbPolyline
 62
7
  6
CONTINUOUS
 90
19
 70
0
 10
-22.2641175103
 20
-24.1520056669
 10
-22.4282233247
 20
-24.1445786966
 10
-22.5932347003
 20
-24.1224341054
 10
-22.7577331105
 20
-24.0857848258
 10
-22.920743773
 20
-24.0346804368
 10
-23.0802498466
 20
-23.969449621
 10
-23.2333424771
 20
-23.8911099415
 10
-23.3779506404
 20
-23.8007412241
 10
-23.5135025815
 20
-23.6985854893
 10
-23.6393763692
 20
-23.5845551549
 10
-23.7542934612
 20
-23.4591516611
 10
-23.8575712091
 20
-23.3235996516
 10
-23.9491455036
 20
-23.1785739981
 10
-24.0287385701
 20
-23.0245460108
 10
-24.0951319798
 20
-22.8636575553
 10
-24.1471152263
 20
-22.6992065893
 10
-24.1843452248
 20
-22.5333842837
 10
-24.2068291227
 20
-22.3670833129
 10
-24.2143662665
 20
-22.2017569107
  0
LWPOLYLINE
  5
2E2
100
AcDbEntity
  8
0
100
AcDbPolyline
 62
7
  6
CONTINUOUS
 90
10
 70
0
 10
-22.6975532318
 20
-25.6936697018
 10
-22.8270108659
 20
-25.6827822401
 10
-22.9554413937
 20
-25.6668385923
 10
-23.082728991
 20
-25.6458881973
 10
-23.2087475905
 20
-25.6199798285
 10
-23.3334209439
 20
-25.5891416781
 10
-23.4565823413
 20
-25.5534289835
 10
-23.5778523269
 20
-25.5129699074
 10
-23.6969290795
 20
-25.4678942332
 10
-23.8140067922
 20
-25.418149544
  0
LWPOLYLINE
  5
2E3
100
AcDbEntity
  8
0
100
AcDbPolyline
 62
250
  6
CONTINUOUS
 90
10
 70
0
 10
-22.4957839733
 20
25.7004239387
 10
-22.4886018462
 20
25.5189004216
 10
-22.4766876582
 20
25.3376249076
 10
-22.4600414093
 20
25.157345567
 10
-22.4385398816
 20
24.9784221342
 10
-22.4123062929
 20
24.8021063296
 10
-22.3817102961
 20
24.6304417911
 10
-22.3468751089
 20
24.4645722492
 10
-22.3076775137
 20
24.3048422292
 10
-22.2641175103
 20
24.1520063295
  0
LWPOLYLINE
  5
2E4
100
AcDbEntity
  8
0
100
AcDbPolyline
 62
250
  6
CONTINUOUS
 90
4
 70
0
 10
-22.2608300941
 20
22.6039831841
 10
-22.2601465936
 20
22.5764399572
 10
-22.2594375878
 20
22.5589831378
 10
-22.2587064677
 20
22.5518812228
  0
LINE
  5
2E5
100
AcDbEntity
  8
0
100
AcDbLine
 62
250
  6
CONTINUOUS
 10
-22.2621034276
 20
22.6877963108
 11
-22.2608300941
 21
22.6039831841
  0
LINE
  5
2E6
100
AcDbEntity
  8
0
100
AcDbLine
 62
250
  6
CONTINUOUS
 10
-22.2637502834
 20
22.8830389768
 11
-22.2621034276
 21
22.6877963108
  0
LINE
  5
2E7
100
AcDbEntity
  8
0
100
AcDbLine
 62
250
  6
CONTINUOUS
 10
-22.2654002121
 20
23.3539077327
 11
-22.2637502834
 21
22.8830389768
  0
LINE
  5
2E8
100
AcDbEntity
  8
0
100
AcDbLine
 62
250
  6
CONTINUOUS
 10
-22.2641175103
 20
-24.1520055875
 11
-22.2654998753
 21
-23.6710893347
  0
LINE
  5
2E9
100
AcDbEntity
  8
0
100
AcDbLine
 62
250
  6
CONTINUOUS
 10
-24.2143661822
 20
-22.2017569107
 11
-24.2143661822
 21
22.2017569107
  0
LINE
  5
2EA
100
AcDbEntity
  8
0
100
AcDbLine
 62
250
  6
CONTINUOUS
 10
-22.6016323361
 20
-22.2089552239
 11
-22.6016323361
 21
22.2089552239
  0
LINE
  5
2EB
100
AcDbEntity
  8
0
100
AcDbLine
 62
7
  6
CONTINUOUS
 10
-22.5751466214
 20
-22.2089552239
 11
-22.5751466214
 21
22.2089552239
  0
LINE
  5
2EC
100
AcDbEntity
  8
0
100
AcDbLine
 62
250
  6
CONTINUOUS
 10
-22.2587064677
 20
22.5518810923
 11
-22.2587064677
 21
22.5253953777
  0
LINE
  5
2ED
100
AcDbEntity
  8
0
100
AcDbLine
 62
250
  6
CONTINUOUS
 10
-22.2587064677
 20
-22.5253953777
 11
-22.2587064677
 21
-22.5518810923
  0
LINE
  5
2EE
100
AcDbEntity
  8
0
100
AcDbLine
 62
250
  6
CONTINUOUS
 10
-22.2648923294
 20
23.9716647502
 11
-22.2654002121
 21
23.3539077327
  0
LINE
  5
2EF
100
AcDbEntity
  8
0
100
AcDbLine
 62
250
  6
CONTINUOUS
 10
-22.2654998753
 20
-23.6710893347
 11
-22.2646065206
 21
-23.0542360144
  0
LINE
  5
2F0
100
AcDbEntity
  8
0
100
AcDbLine
 62
250
  6
CONTINUOUS
 10
-22.2641175103
 20
24.1520055875
 11
-22.2648923294
 21
23.9716647502
  0
LINE
  5
2F1
100
AcDbEntity
  8
0
100
AcDbLine
 62
250
  6
CONTINUOUS
 10
-22.2646065206
 20
-23.0542360144
 11
-22.2626909246
 21
-22.7437497346
  0
LWPOLYLINE
  5
2F2
100
AcDbEntity
  8
0
100
AcDbPolyline
 62
250
  6
CONTINUOUS
 90
6
 70
0
 10
-22.2626909246
 20
-22.7437497346
 10
-22.2614830826
 20
-22.641203883
 10
-22.2608300941
 20
-22.6039831841
 10
-22.2601465936
 20
-22.5764399572
 10
-22.2594375878
 20
-22.5589831378
 10
-22.2587064677
 20
-22.5518812228
  0
LWPOLYLINE
  5
2F3
100
AcDbEntity
  8
0
100
AcDbPolyline
 62
250
  6
CONTINUOUS
 90
10
 70
0
 10
-22.4957839733
 20
-25.7004239387
 10
-22.4886018462
 20
-25.5189004216
 10
-22.4766876582
 20
-25.3376249076
 10
-22.4600414093
 20
-25.157345567
 10
-22.4385398816
 20
-24.9784221342
 10
-22.4123062929
 20
-24.8021063296
 10
-22.3817102961
 20
-24.6304417911
 10
-22.3468751089
 20
-24.4645722492
 10
-22.3076775137
 20
-24.3048422292
 10
-22.2641175103
 20
-24.1520063295
  0
LWPOLYLINE
  5
2F4
100
AcDbEntity
  8
0
100
AcDbPolyline
 62
250
  6
CONTINUOUS
 90
16
 70
0
 10
39.7453132125
 20
37.1319684617
 10
39.7381417727
 20
37.1293479934
 10
39.7252979394
 20
37.1218151165
 10
39.7067463912
 20
37.1092473734
 10
39.6824861438
 20
37.0915407211
 10
39.652551665
 20
37.0686100634
 10
39.6170143648
 20
37.0403898713
 10
39.5759979167
 20
37.006846205
 10
39.5296501939
 20
36.9679535166
 10
39.4781330604
 20
36.923683165
 10
39.4214722446
 20
36.873866167
 10
39.3601530107
 20
36.8187151298
 10
39.2951971686
 20
36.7589366184
 10
39.2273180732
 20
36.6949807763
 10
39.1568081734
 20
36.6268975403
 10
39.0842009192
 20
36.5549468208
  0
LWPOLYLINE
  5
2F5
100
AcDbEntity
  8
0
100
AcDbPolyline
 62
250
  6
CONTINUOUS
 90
16
 70
0
 10
39.7484790162
 20
36.83145662
 10
39.7413355048
 20
36.8290777688
 10
39.7285122922
 20
36.8218423971
 10
39.7099729698
 20
36.809614462
 10
39.6857272927
 20
36.792282909
 10
39.655805979
 20
36.7697435505
 10
39.6202439026
 20
36.7418820972
 10
39.5791558069
 20
36.708631728
 10
39.532687177
 20
36.669935803
 10
39.4809511923
 20
36.6256903958
 10
39.4239471245
 20
36.5756614615
 10
39.3621889168
 20
36.5200367308
 10
39.2967342
 20
36.4595046319
 10
39.228328436
 20
36.3944945498
 10
39.1572919411
 20
36.3250245523
 10
39.0842009192
 20
36.2513322422
  0
LWPOLYLINE
  5
2F6
100
AcDbEntity
  8
0
100
AcDbPolyline
 62
250
  6
CONTINUOUS
 90
10
 70
0
 10
-25.7004239475
 20
-22.49556714
 10
-25.5271788914
 20
-22.4867199811
 10
-25.3538504051
 20
-22.4718420982
 10
-25.1811922409
 20
-22.450933491
 10
-25.0096571746
 20
-22.4238860015
 10
-24.8404391484
 20
-22.3908077877
 10
-24.6753887701
 20
-22.3520233243
 10
-24.5156371806
 20
-22.3076407694
 10
-24.3616816551
 20
-22.2575519649
 10
-24.2143670218
 20
-22.2017569107
  0
LWPOLYLINE
  5
2F7
100
AcDbEntity
  8
0
100
AcDbPolyline
 62
250
  6
CONTINUOUS
 90
5
 70
0
 10
22.6921275524
 20
-22.2051885428
 10
22.654422234
 20
-22.2060732679
 10
22.6265128881
 20
-22.2070001667
 10
22.6088237232
 20
-22.2079623586
 10
22.6016324719
 20
-22.2089552239
  0
LINE
  5
2F8
100
AcDbEntity
  8
0
100
AcDbLine
 62
250
  6
CONTINUOUS
 10
22.7959784812
 20
-22.2035542302
 11
22.6921275524
 21
-22.2051885428
  0
LINE
  5
2F9
100
AcDbEntity
  8
0
100
AcDbLine
 62
250
  6
CONTINUOUS
 10
23.0198965761
 20
-22.2015098413
 11
22.7959784812
 21
-22.2035542302
  0
LINE
  5
2FA
100
AcDbEntity
  8
0
100
AcDbLine
 62
250
  6
CONTINUOUS
 10
-24.2143661822
 20
-22.2017569107
 11
-23.8366654275
 21
-22.1999989718
  0
LINE
  5
2FB
100
AcDbEntity
  8
0
100
AcDbLine
 62
250
  6
CONTINUOUS
 10
23.4132029252
 20
-22.1999190729
 11
23.0198965761
 21
-22.2015098413
  0
LINE
  5
2FC
100
AcDbEntity
  8
0
100
AcDbLine
 62
250
  6
CONTINUOUS
 10
22.2641175103
 20
-24.1520063295
 11
-22.2641175103
 21
-24.1520055875
  0
LINE
  5
2FD
100
AcDbEntity
  8
0
100
AcDbLine
 62
250
  6
CONTINUOUS
 10
22.2587064677
 20
-22.5518810923
 11
-22.2587064677
 21
-22.5518810923
  0
LINE
  5
2FE
100
AcDbEntity
  8
0
100
AcDbLine
 62
7
  6
CONTINUOUS
 10
22.2587064677
 20
-22.5253953777
 11
-22.2587064677
 21
-22.5253953777
  0
LINE
  5
2FF
100
AcDbEntity
  8
0
100
AcDbLine
 62
250
  6
CONTINUOUS
 10
-22.6016323361
 20
-22.2089552239
 11
-22.5751466214
 21
-22.2089552239
  0
LINE
  5
300
100
AcDbEntity
  8
0
100
AcDbLine
 62
250
  6
CONTINUOUS
 10
22.5751466214
 20
-22.2089552239
 11
22.6016323361
 21
-22.2089552239
  0
LINE
  5
301
100
AcDbEntity
  8
0
100
AcDbLine
 62
250
  6
CONTINUOUS
 10
-23.8366654275
 20
-22.1999989718
 11
-23.3086003032
 21
-22.2001690963
  0
LINE
  5
302
100
AcDbEntity
  8
0
100
AcDbLine
 62
250
  6
CONTINUOUS
 10
23.9374526759
 20
-22.2002874674
 11
23.4132029252
 21
-22.1999190729
  0
LINE
  5
303
100
AcDbEntity
  8
0
100
AcDbLine
 62
250
  6
CONTINUOUS
 10
24.2143661822
 20
-22.2017569107
 11
23.9374526759
 21
-22.2002874674
  0
LINE
  5
304
100
AcDbEntity
  8
0
100
AcDbLine
 62
250
  6
CONTINUOUS
 10
-23.3086003032
 20
-22.2001690963
 11
-22.9370300568
 21
-22.2021238754
  0
LINE
  5
305
100
AcDbEntity
  8
0
100
AcDbLine
 62
250
  6
CONTINUOUS
 10
-22.9370300568
 20
-22.2021238754
 11
-22.7959784812
 21
-22.2035542302
  0
LWPOLYLINE
  5
306
100
AcDbEntity
  8
0
100
AcDbPolyline
 62
250
  6
CONTINUOUS
 90
6
 70
0
 10
-22.7959784812
 20
-22.2035542302
 10
-22.6921275524
 20
-22.2051885428
 10
-22.654422234
 20
-22.2060732679
 10
-22.6265128881
 20
-22.2070001667
 10
-22.6088237232
 20
-22.2079623586
 10
-22.6016324719
 20
-22.2089552239
  0
LWPOLYLINE
  5
307
100
AcDbEntity
  8
0
100
AcDbPolyline
 62
250
  6
CONTINUOUS
 90
10
 70
0
 10
25.7004239475
 20
-22.49556714
 10
25.5271788914
 20
-22.4867199811
 10
25.3538504051
 20
-22.4718420982
 10
25.1811922409
 20
-22.450933491
 10
25.0096571746
 20
-22.4238860015
 10
24.8404391484
 20
-22.3908077877
 10
24.6753887701
 20
-22.3520233243
 10
24.5156371806
 20
-22.3076407694
 10
24.3616816551
 20
-22.2575519649
 10
24.2143670218
 20
-22.2017569107
  0
LWPOLYLINE
  5
308
100
AcDbEntity
  8
0
100
AcDbPolyline
 62
250
  6
CONTINUOUS
 90
16
 70
0
 10
39.7484790161
 20
-36.8314569315
 10
39.7413355122
 20
-36.829078078
 10
39.7285123122
 20
-36.8218426991
 10
39.7099730051
 20
-36.8096147515
 10
39.685727343
 20
-36.7922831809
 10
39.6558060415
 20
-36.7697438002
 10
39.6202439715
 20
-36.7418823205
 10
39.5791558709
 20
-36.7086319195
 10
39.5326872255
 20
-36.6699359611
 10
39.4809512224
 20
-36.6256905287
 10
39.4239471355
 20
-36.575661578
 10
39.3621889077
 20
-36.5200368369
 10
39.2967341778
 20
-36.4595047378
 10
39.2283284116
 20
-36.3944946663
 10
39.1572919239
 20
-36.3250246863
 10
39.0842009192
 20
-36.2513323977
  0
LWPOLYLINE
  5
309
100
AcDbEntity
  8
0
100
AcDbPolyline
 62
250
  6
CONTINUOUS
 90
16
 70
0
 10
39.7453131978
 20
-37.1319687685
 10
39.7381417597
 20
-37.1293482995
 10
39.7252979298
 20
-37.1218154205
 10
39.7067463866
 20
-37.109247674
 10
39.6824861454
 20
-37.0915410169
 10
39.6525516737
 20
-37.0686103531
 10
39.6170143803
 20
-37.0403901532
 10
39.5759979384
 20
-37.0068464773
 10
39.5296502205
 20
-36.9679537776
 10
39.47813309
 20
-36.9236834128
 10
39.4214722746
 20
-36.8738663996
 10
39.3601530384
 20
-36.8187153458
 10
39.2951971921
 20
-36.7589368178
 10
39.2273180908
 20
-36.6949809601
 10
39.1568081831
 20
-36.62689771
 10
39.0842009192
 20
-36.5549469784
  0
LWPOLYLINE
  5
30A
100
AcDbEntity
  8
0
100
AcDbPolyline
 62
250
  6
CONTINUOUS
 90
16
 70
0
 10
-36.83145662
 20
-39.7484790161
 10
-36.8288572139
 20
-39.741555372
 10
-36.8209520423
 20
-39.7292475878
 10
-36.8075981033
 20
-39.7114818886
 10
-36.7886994878
 20
-39.6882456506
 10
-36.7641529379
 20
-39.6595197549
 10
-36.7337977008
 20
-39.6252320608
 10
-36.6975687516
 20
-39.5854339712
 10
-36.6554187483
 20
-39.5402062053
 10
-36.6071677055
 20
-39.4895053574
 10
-36.552747223
 20
-39.4334307373
 10
-36.4922561566
 20
-39.3722731498
 10
-36.4257872556
 20
-39.3063347359
 10
-36.3534985013
 20
-39.2360051443
 10
-36.275619779
 20
-39.1617688703
 10
-36.192447177
 20
-39.0842009192
  0
LWPOLYLINE
  5
30B
100
AcDbEntity
  8
0
100
AcDbPolyline
 62
250
  6
CONTINUOUS
 90
16
 70
0
 10
-36.8314563088
 20
39.7484790161
 10
-36.8288569034
 20
39.7415553707
 10
-36.8209517341
 20
39.7292475843
 10
-36.8075977992
 20
39.7114818821
 10
-36.7886991895
 20
39.6882456407
 10
-36.7641526475
 20
39.6595197416
 10
-36.7337974201
 20
39.6252320445
 10
-36.6975684831
 20
39.5854339529
 10
-36.6554184938
 20
39.5402061861
 10
-36.6071674658
 20
39.4895053376
 10
-36.5527469975
 20
39.4334307164
 10
-36.4922559446
 20
39.3722731279
 10
-36.4257870578
 20
39.3063347152
 10
-36.3534983185
 20
39.236005128
 10
-36.2756196105
 20
39.1617688608
 10
-36.1924470213
 20
39.0842009192
  0
LWPOLYLINE
  5
30C
100
AcDbEntity
  8
0
100
AcDbPolyline
 62
250
  6
CONTINUOUS
 90
10
 70
0
 10
31.4098632768
 20
39.0842009192
 10
30.9902141686
 20
38.7138142218
 10
30.5765857645
 20
38.339364559
 10
30.1687903287
 20
37.9607199963
 10
29.7670289893
 20
37.5781238121
 10
29.3707237947
 20
37.1910869313
 10
28.9785599634
 20
36.7983346399
 10
28.5900207521
 20
36.3993053543
 10
28.2053451903
 20
35.9942038887
 10
27.8243897177
 20
35.5828566402
  0
LWPOLYLINE
  5
30D
100
AcDbEntity
  8
0
100
AcDbPolyline
 62
250
  6
CONTINUOUS
 90
10
 70
0
 10
31.4098631222
 20
-39.0842009192
 10
30.9902143013
 20
-38.7138144738
 10
30.5765861183
 20
-38.3393650071
 10
30.1687908379
 20
-37.9607205825
 10
29.7670295893
 20
-37.5781244774
 10
29.3707244194
 20
-37.1910876127
 10
28.9785605413
 20
-36.7983352665
 10
28.5900212098
 20
-36.3993058505
 10
28.2053454556
 20
-35.9942041772
 10
27.8243897177
 20
-35.5828566402
  0
LWPOLYLINE
  5
30E
100
AcDbEntity
  8
0
100
AcDbPolyline
 62
250
  6
CONTINUOUS
 90
10
 70
0
 10
-35.5837101741
 20
-27.8189626045
 10
-35.9900429279
 20
-28.2114149744
 10
-36.3905800566
 20
-28.6040784568
 10
-36.7858260468
 20
-28.9974353244
 10
-37.1759090419
 20
-29.3915846798
 10
-37.5617175941
 20
-29.7873882031
 10
-37.9448616503
 20
-30.1864885798
 10
-38.3261838012
 20
-30.589781731
 10
-38.7057983673
 20
-30.9973984531
 10
-39.0842009193
 20
-31.4098631156
  0
LWPOLYLINE
  5
30F
100
AcDbEntity
  8
0
100
AcDbPolyline
 62
250
  6
CONTINUOUS
 90
3
 70
0
 10
26.9226577414
 20
21.0634111805
 10
26.311916774
 20
20.7004627201
 10
25.7004238655
 20
20.3502128378
  0
LWPOLYLINE
  5
310
100
AcDbEntity
  8
0
100
AcDbPolyline
 62
250
  6
CONTINUOUS
 90
3
 70
0
 10
26.9226566964
 20
-21.063410393
 10
26.3119161364
 20
-20.7004621605
 10
25.7004238655
 20
-20.3502126373
  0
LWPOLYLINE
  5
311
100
AcDbEntity
  8
0
100
AcDbPolyline
 62
250
  6
CONTINUOUS
 90
6
 70
0
 10
-35.5837101741
 20
27.8189626045
 10
-35.0688064133
 20
27.3299966454
 10
-34.5569960197
 20
26.8537005956
 10
-34.0479405759
 20
26.3901497679
 10
-33.5413134522
 20
25.9393390336
 10
-33.036974329
 20
25.5013436722
  0
LWPOLYLINE
  5
312
100
AcDbEntity
  8
0
100
AcDbPolyline
 62
250
  6
CONTINUOUS
 90
9
 70
0
 10
-39.0842009192
 20
35.0340785899
 10
-38.6612634854
 20
34.5781174976
 10
-38.2360648583
 20
34.1240768224
 10
-37.8085961059
 20
33.6719463248
 10
-37.3788622327
 20
33.2217302966
 10
-36.9468405471
 20
32.7734038741
 10
-36.5124799011
 20
32.3269136277
 10
-36.075756549
 20
31.8822355288
 10
-35.6366749083
 20
31.4393743613
  0
LWPOLYLINE
  5
313
100
AcDbEntity
  8
0
100
AcDbPolyline
 62
250
  6
CONTINUOUS
 90
10
 70
0
 10
-39.0842009193
 20
31.4098633476
 10
-38.703582923
 20
30.9950019318
 10
-38.3223598084
 20
30.5857071112
 10
-37.9400424761
 20
30.1814310172
 10
-37.5566358238
 20
29.7821356213
 10
-37.1712086475
 20
29.3867995748
 10
-36.7818431621
 20
28.993441695
 10
-36.3875539024
 20
28.6010896078
 10
-35.9883380253
 20
28.2097560918
 10
-35.5837101741
 20
27.8189626045
  0
LWPOLYLINE
  5
314
100
AcDbEntity
  8
0
100
AcDbPolyline
 62
7
  6
CONTINUOUS
 90
4
 70
0
 43
0.3500000006
 10
-2.3571427875
 20
51.678570694
 10
-2.3571427875
 20
52.5357131653
 10
-1.9285714102
 20
52.9642866669
 10
-1.2857142735
 20
52.9642866669
  0
LINE
  5
315
100
AcDbEntity
  8
0
100
AcDbLine
 62
250
  6
CONTINUOUS
 10
0.0
 20
-22.5518877464
 11
-0.0
 21
-39.7484790161
  0
LINE
  5
316
100
AcDbEntity
  8
0
100
AcDbLine
 62
250
  6
CONTINUOUS
 10
-0.0
 20
22.5518877464
 11
0.0
 21
39.7484790162
  0
LWPOLYLINE
  5
317
100
AcDbEntity
  8
0
100
AcDbPolyline
 62
7
  6
CONTINUOUS
 90
13
 70
0
 43
0.3500000006
 10
0.0
 20
52.1071441956
 10
0.0
 20
53.3928556366
 10
0.2142857063
 20
53.8214291382
 10
0.6428571367
 20
54.2499981079
 10
0.8571428254
 20
54.2499981079
 10
1.2857142735
 20
53.8214291382
 10
1.5000000329
 20
53.3928556366
 10
1.5000000329
 20
52.1071441956
 10
1.2857142735
 20
51.678570694
 10
0.8571428254
 20
51.2500017242
 10
0.6428571367
 20
51.2500017242
 10
0.2142857063
 20
51.678570694
 10
0.0
 20
52.1071441956
  0
LINE
  5
318
100
AcDbEntity
  8
0
100
AcDbLine
 62
250
  6
CONTINUOUS
 10
-20.350212833
 20
-25.7004238655
 11
-20.7394420181
 21
-26.2906917528
  0
LWPOLYLINE
  5
319
100
AcDbEntity
  8
0
100
AcDbPolyline
 62
250
  6
CONTINUOUS
 90
9
 70
0
 10
-20.7394420181
 20
-26.2906917528
 10
-21.1385103021
 20
-26.8863153962
 10
-21.5464405836
 20
-27.4857580997
 10
-21.9633363183
 20
-28.0890392744
 10
-22.3869640774
 20
-28.692776879
 10
-22.8126885719
 20
-29.2903437214
 10
-23.2381158818
 20
-29.8784815824
 10
-23.6631567948
 20
-30.4571427318
 10
-24.0865663579
 20
-31.0246453689
  0
LINE
  5
31A
100
AcDbEntity
  8
0
100
AcDbLine
 62
250
  6
CONTINUOUS
 10
24.0865663579
 20
31.0246453689
 11
24.5100663149
 21
31.5835977812
  0
LWPOLYLINE
  5
31B
100
AcDbEntity
  8
0
100
AcDbPolyline
 62
250
  6
CONTINUOUS
 90
3
 70
0
 10
-24.9291580173
 20
-32.1278033469
 10
-24.5102072586
 20
-31.5837823543
 10
-24.0865663579
 20
-31.0246453689
  0
LWPOLYLINE
  5
31C
100
AcDbEntity
  8
0
100
AcDbPolyline
 62
250
  6
CONTINUOUS
 90
3
 70
0
 10
24.5100663149
 20
31.5835977812
 10
24.9289181177
 20
32.1274945659
 10
25.3446520858
 20
32.6575859739
  0
LWPOLYLINE
  5
31D
100
AcDbEntity
  8
0
100
AcDbPolyline
 62
250
  6
CONTINUOUS
 90
7
 70
0
 10
25.3446520858
 20
32.6575859739
 10
25.7596992713
 20
33.176266384
 10
26.1745313417
 20
33.6834840114
 10
26.5875875507
 20
34.1769168804
 10
26.999068198
 20
34.656636207
 10
27.4110125517
 20
35.1249338001
 10
27.8243897177
 20
35.5828566402
  0
LINE
  5
31E
100
AcDbEntity
  8
0
100
AcDbLine
 62
250
  6
CONTINUOUS
 10
25.4081788417
 20
28.8031759562
 11
26.7549907543
 21
30.369619874
  0
LWPOLYLINE
  5
31F
100
AcDbEntity
  8
0
100
AcDbPolyline
 62
250
  6
CONTINUOUS
 90
7
 70
0
 10
27.7241344841
 20
31.5030348965
 10
28.6765651597
 20
32.6093465129
 10
29.1459235561
 20
33.1475226488
 10
29.6128577943
 20
33.6763005449
 10
30.0779607955
 20
34.195055479
 10
30.5403749571
 20
34.7016560778
 10
30.9999605717
 20
35.1949136289
  0
LINE
  5
320
100
AcDbEntity
  8
0
100
AcDbLine
 62
250
  6
CONTINUOUS
 10
-24.9631660791
 20
-28.288699842
 11
-26.3035328713
 21
-29.8429973539
  0
LINE
  5
321
100
AcDbEntity
  8
0
100
AcDbLine
 62
250
  6
CONTINUOUS
 10
24.0704068947
 20
27.2613395494
 11
25.4081788417
 21
28.8031759562
  0
LINE
  5
322
100
AcDbEntity
  8
0
100
AcDbLine
 62
250
  6
CONTINUOUS
 10
-23.6180063525
 20
-26.7431388719
 11
-24.9631660791
 21
-28.288699842
  0
LINE
  5
323
100
AcDbEntity
  8
0
100
AcDbLine
 62
250
  6
CONTINUOUS
 10
-22.6975534312
 20
-25.693669689
 11
-23.6180063525
 21
-26.7431388719
  0
LINE
  5
324
100
AcDbEntity
  8
0
100
AcDbLine
 62
250
  6
CONTINUOUS
 10
22.6975534312
 20
25.693669689
 11
24.0704068947
 21
27.2613395494
  0
LINE
  5
325
100
AcDbEntity
  8
0
100
AcDbLine
 62
250
  6
CONTINUOUS
 10
-31.0137895563
 20
-33.0786636823
 11
-28.9724299469
 21
-30.8390049764
  0
LINE
  5
326
100
AcDbEntity
  8
0
100
AcDbLine
 62
250
  6
CONTINUOUS
 10
-28.9724299469
 20
-30.8390049764
 11
-27.9537134761
 21
-29.7297993469
  0
LINE
  5
327
100
AcDbEntity
  8
0
100
AcDbLine
 62
250
  6
CONTINUOUS
 10
27.9537134761
 20
29.7297993469
 11
28.9702527568
 21
30.8366199007
  0
LWPOLYLINE
  5
328
100
AcDbEntity
  8
0
100
AcDbPolyline
 62
250
  6
CONTINUOUS
 90
3
 70
0
 10
31.0155955736
 20
33.0806356018
 10
32.0197307602
 20
34.1696869313
 10
32.5136085933
 20
34.6983583088
  0
LWPOLYLINE
  5
329
100
AcDbEntity
  8
0
100
AcDbPolyline
 62
250
  6
CONTINUOUS
 90
3
 70
0
 10
-32.5136085933
 20
-34.6983583088
 10
-32.0184511867
 20
-34.1683103274
 10
-31.0137895563
 20
-33.0786636823
  0
LINE
  5
32A
100
AcDbEntity
  8
0
100
AcDbLine
 62
250
  6
CONTINUOUS
 10
-27.0383935992
 20
-28.748684566
 11
-27.9537134761
 21
-29.7297993469
  0
LINE
  5
32B
100
AcDbEntity
  8
0
100
AcDbLine
 62
250
  6
CONTINUOUS
 10
27.0383935992
 20
28.748684566
 11
27.9537134761
 21
29.7297993469
  0
LINE
  5
32C
100
AcDbEntity
  8
0
100
AcDbLine
 62
250
  6
CONTINUOUS
 10
32.9777680049
 20
35.1897075977
 11
32.5136085933
 21
34.6983583088
  0
LINE
  5
32D
100
AcDbEntity
  8
0
100
AcDbLine
 62
250
  6
CONTINUOUS
 10
-32.9777680049
 20
-35.1897075977
 11
-32.5136085933
 21
-34.6983583088
  0
LINE
  5
32E
100
AcDbEntity
  8
0
100
AcDbLine
 62
250
  6
CONTINUOUS
 10
26.134866205
 20
27.795581925
 11
27.0383935992
 21
28.748684566
  0
LINE
  5
32F
100
AcDbEntity
  8
0
100
AcDbLine
 62
250
  6
CONTINUOUS
 10
-26.134866205
 20
-27.795581925
 11
-27.0383935992
 21
-28.748684566
  0
LWPOLYLINE
  5
330
100
AcDbEntity
  8
0
100
AcDbPolyline
 62
250
  6
CONTINUOUS
 90
10
 70
0
 10
30.9999605717
 20
35.1949136289
 10
31.4286543139
 20
35.645041731
 10
31.8628735391
 20
36.0913241186
 10
32.3023966821
 20
36.5335281653
 10
32.7471584954
 20
36.9715735671
 10
33.1967842334
 20
37.4050719211
 10
33.6505731043
 20
37.8333430937
 10
34.108128495
 20
38.2560229217
 10
34.5693745149
 20
38.6730468405
 10
35.0340785908
 20
39.0842009192
  0
LINE
  5
331
100
AcDbEntity
  8
0
100
AcDbLine
 62
250
  6
CONTINUOUS
 10
33.4495863146
 20
35.6835055225
 11
32.9777680049
 21
35.1897075977
  0
LINE
  5
332
100
AcDbEntity
  8
0
100
AcDbLine
 62
250
  6
CONTINUOUS
 10
-33.4495863146
 20
-35.6835055225
 11
-32.9777680049
 21
-35.1897075977
  0
LINE
  5
333
100
AcDbEntity
  8
0
100
AcDbLine
 62
250
  6
CONTINUOUS
 10
25.2261876458
 20
26.8530722229
 11
26.134866205
 21
27.795581925
  0
LINE
  5
334
100
AcDbEntity
  8
0
100
AcDbLine
 62
250
  6
CONTINUOUS
 10
-25.2261876458
 20
-26.8530722229
 11
-26.134866205
 21
-27.795581925
  0
LWPOLYLINE
  5
335
100
AcDbEntity
  8
0
100
AcDbPolyline
 62
250
  6
CONTINUOUS
 90
4
 70
0
 10
34.902642432
 20
37.1706635021
 10
34.4130755237
 20
36.6751070837
 10
33.9279971691
 20
36.1786265745
 10
33.4495863146
 20
35.6835055225
  0
LWPOLYLINE
  5
336
100
AcDbEntity
  8
0
100
AcDbPolyline
 62
250
  6
CONTINUOUS
 90
3
 70
0
 10
23.8140067922
 20
25.418149544
 10
24.2949450392
 20
25.9030893903
 10
25.2261876458
 20
26.8530722229
  0
LWPOLYLINE
  5
337
100
AcDbEntity
  8
0
100
AcDbPolyline
 62
250
  6
CONTINUOUS
 90
11
 70
0
 10
37.141188736
 20
39.4161630055
 10
37.1955360928
 20
39.4706550169
 10
37.2436547249
 20
39.519426062
 10
37.2858403501
 20
39.5627294204
 10
37.322057456
 20
39.6004869431
 10
37.3522839143
 20
39.632628309
 10
37.3767767339
 20
39.6593761628
 10
37.3958620538
 20
39.6810464101
 10
37.4096261676
 20
39.6977101577
 10
37.4180718972
 20
39.709337553
 10
37.4212973073
 20
39.716002577
  0
LWPOLYLINE
  5
338
100
AcDbEntity
  8
0
100
AcDbPolyline
 62
250
  6
CONTINUOUS
 90
10
 70
0
 10
-35.1952253949
 20
-30.9983204474
 10
-35.6367491376
 20
-31.4394488673
 10
-36.0758886038
 20
-31.8823693186
 10
-36.512653636
 20
-32.3270912912
 10
-36.9470438407
 20
-32.7736137023
 10
-37.3790794095
 20
-33.2219565297
 10
-37.8088005635
 20
-33.6721612488
 10
-38.2362267209
 20
-34.1242484596
 10
-38.6613570536
 20
-34.578217449
 10
-39.0842009192
 20
-35.0340781245
  0
LINE
  5
339
100
AcDbEntity
  8
0
100
AcDbLine
 62
250
  6
CONTINUOUS
 10
37.0163444743
 20
39.2927209935
 11
37.141188736
 21
39.4161630055
  0
LINE
  5
33A
100
AcDbEntity
  8
0
100
AcDbLine
 62
250
  6
CONTINUOUS
 10
-37.1379610334
 20
-34.9280154245
 11
-39.0841885048
 21
-36.8461856528
  0
LINE
  5
33B
100
AcDbEntity
  8
0
100
AcDbLine
 62
250
  6
CONTINUOUS
 10
-32.498951578
 20
-30.3444247515
 11
-37.1379610334
 21
-34.9280154245
  0
LINE
  5
33C
100
AcDbEntity
  8
0
100
AcDbLine
 62
250
  6
CONTINUOUS
 10
-32.3784480586
 20
-30.5678851625
 11
-31.3020876948
 21
-29.5071445606
  0
LINE
  5
33D
100
AcDbEntity
  8
0
100
AcDbLine
 62
250
  6
CONTINUOUS
 10
-37.5854250511
 20
-35.7016917216
 11
-32.3784480586
 21
-30.5678851625
  0
LWPOLYLINE
  5
33E
100
AcDbEntity
  8
0
100
AcDbPolyline
 62
250
  6
CONTINUOUS
 90
3
 70
0
 10
-31.3020876948
 20
-29.5071445606
 10
-30.2385428015
 20
-28.4725107116
 10
-29.716425002
 20
-27.9719715713
  0
LWPOLYLINE
  5
33F
100
AcDbEntity
  8
0
100
AcDbPolyline
 62
250
  6
CONTINUOUS
 90
5
 70
0
 10
36.8461855074
 20
39.0842599932
 10
36.364392594
 20
38.6179109233
 10
35.8793848627
 20
38.1430818074
 10
35.3921672423
 20
37.6607195938
 10
34.902642432
 20
37.1706635021
  0
LINE
  5
340
100
AcDbEntity
  8
0
100
AcDbLine
 62
250
  6
CONTINUOUS
 10
-39.078944917
 20
-37.1475761919
 11
-37.5854250511
 21
-35.7016917216
  0
LINE
  5
341
100
AcDbEntity
  8
0
100
AcDbLine
 62
250
  6
CONTINUOUS
 10
39.078944917
 20
37.1475761919
 11
38.0868820711
 21
36.1886542031
  0
LWPOLYLINE
  5
342
100
AcDbEntity
  8
0
100
AcDbPolyline
 62
250
  6
CONTINUOUS
 90
3
 70
0
 10
36.8013077801
 20
39.0842009193
 10
36.8762625291
 20
39.1563767175
 10
37.0163444743
 20
39.2927209935
  0
LWPOLYLINE
  5
343
100
AcDbEntity
  8
0
100
AcDbPolyline
 62
250
  6
CONTINUOUS
 90
3
 70
0
 10
29.716425002
 20
27.9719715713
 10
30.2384693456
 20
28.472439897
 10
31.3020037595
 20
29.5070622801
  0
LWPOLYLINE
  5
344
100
AcDbEntity
  8
0
100
AcDbPolyline
 62
250
  6
CONTINUOUS
 90
5
 70
0
 10
-29.8401316492
 20
-27.7802643023
 10
-30.3613573043
 20
-28.2737438988
 10
-30.8897856556
 20
-28.7794966731
 10
-31.4237633528
 20
-29.2951921465
 10
-32.498951578
 20
-30.3444247515
  0
LWPOLYLINE
  5
345
100
AcDbEntity
  8
0
100
AcDbPolyline
 62
250
  6
CONTINUOUS
 90
5
 70
0
 10
29.8401316492
 20
27.7802643023
 10
30.3613573043
 20
28.2737438988
 10
30.8897856556
 20
28.7794966731
 10
31.4237633528
 20
29.2951921465
 10
32.498951578
 20
30.3444247515
  0
LWPOLYLINE
  5
346
100
AcDbEntity
  8
0
100
AcDbPolyline
 62
250
  6
CONTINUOUS
 90
10
 70
0
 10
-30.4507359896
 20
-26.5522107386
 10
-30.9628023746
 20
-27.0037443911
 10
-31.4807788704
 20
-27.4682144478
 10
-32.0034146447
 20
-27.9443025432
 10
-32.5281306165
 20
-28.4294454463
 10
-33.0548884223
 20
-28.9234045928
 10
-33.5861566848
 20
-29.428401054
 10
-34.1217055223
 20
-29.9442246314
 10
-34.6586364307
 20
-30.4680944955
 10
-35.1952253949
 20
-30.9983204474
  0
LWPOLYLINE
  5
347
100
AcDbEntity
  8
0
100
AcDbPolyline
 62
250
  6
CONTINUOUS
 90
10
 70
0
 10
30.4507359896
 20
26.5522107386
 10
30.9628023746
 20
27.0037443911
 10
31.4807788704
 20
27.4682144478
 10
32.0034146447
 20
27.9443025432
 10
32.5281306165
 20
28.4294454463
 10
33.0548884223
 20
28.9234045928
 10
33.5861566848
 20
29.428401054
 10
34.1217055223
 20
29.9442246314
 10
34.6586364307
 20
30.4680944955
 10
35.1952253949
 20
30.9983204474
  0
LWPOLYLINE
  5
348
100
AcDbEntity
  8
0
100
AcDbPolyline
 62
250
  6
CONTINUOUS
 90
10
 70
0
 10
25.334275989
 20
23.9867322225
 10
25.8460486251
 20
24.4329305039
 10
26.3444170114
 20
24.871743588
 10
26.8328430451
 20
25.3063346716
 10
27.3149616058
 20
25.7400160942
 10
27.7935381874
 20
26.1753137864
 10
28.2704552234
 20
26.6139195757
 10
28.7480809379
 20
27.0579354367
 10
29.2292928662
 20
27.5099305677
 10
29.716425002
 20
27.9719715713
  0
LWPOLYLINE
  5
349
100
AcDbEntity
  8
0
100
AcDbPolyline
 62
250
  6
CONTINUOUS
 90
10
 70
0
 10
25.4181605135
 20
23.8140115601
 10
25.9343214451
 20
24.2573805412
 10
26.437356823
 20
24.6938846803
 10
26.9305398336
 20
25.1264679629
 10
27.4171638453
 20
25.5580854054
 10
27.8999884781
 20
25.9912129442
 10
28.3812352294
 20
26.4278246734
 10
28.8633192076
 20
26.870048918
 10
29.3488617469
 20
27.3201987548
 10
29.8401316492
 20
27.7802643023
  0
LWPOLYLINE
  5
34A
100
AcDbEntity
  8
0
100
AcDbPolyline
 62
250
  6
CONTINUOUS
 90
7
 70
0
 10
-32.5352043444
 20
-25.0765076321
 10
-33.0372143084
 20
-25.5015494815
 10
-33.5415355096
 20
-25.9395342711
 10
-34.0481280251
 20
-26.3903185337
 10
-34.5571363276
 20
-26.8538297842
 10
-35.0688840839
 20
-27.3300696784
 10
-35.5837101741
 20
-27.8189626046
  0
LINE
  5
34B
100
AcDbEntity
  8
0
100
AcDbLine
 62
250
  6
CONTINUOUS
 10
-32.035499488
 20
-24.6644265658
 11
-32.5352043444
 21
-25.0765076321
  0
LINE
  5
34C
100
AcDbEntity
  8
0
100
AcDbLine
 62
250
  6
CONTINUOUS
 10
-31.5380350913
 20
-24.2652045712
 11
-32.035499488
 21
-24.6644265658
  0
LINE
  5
34D
100
AcDbEntity
  8
0
100
AcDbLine
 62
250
  6
CONTINUOUS
 10
-31.0428583296
 20
-23.8787684896
 11
-31.5380350913
 21
-24.2652045712
  0
LINE
  5
34E
100
AcDbEntity
  8
0
100
AcDbLine
 62
250
  6
CONTINUOUS
 10
31.0428583296
 20
23.8787684896
 11
31.5380350913
 21
24.2652045712
  0
LWPOLYLINE
  5
34F
100
AcDbEntity
  8
0
100
AcDbPolyline
 62
250
  6
CONTINUOUS
 90
9
 70
0
 10
26.2524766057
 20
23.120498017
 10
26.7990140023
 20
23.541159171
 10
27.3350604267
 20
23.9608734642
 10
27.8611318351
 20
24.3799633182
 10
28.3799863253
 20
24.8005156085
 10
28.8965964186
 20
25.2265219527
 10
29.4135629733
 20
25.6601637499
 10
29.9311453745
 20
26.1016740701
 10
30.4507359896
 20
26.5522107386
  0
LINE
  5
350
100
AcDbEntity
  8
0
100
AcDbLine
 62
250
  6
CONTINUOUS
 10
25.6936771012
 20
22.697553935
 11
26.2524766057
 21
23.120498017
  0
LWPOLYLINE
  5
351
100
AcDbEntity
  8
0
100
AcDbPolyline
 62
250
  6
CONTINUOUS
 90
8
 70
0
 10
31.0428583296
 20
23.8787684896
 10
30.486583075
 20
23.4579662798
 10
29.9174967181
 20
23.0417276593
 10
29.3365161174
 20
22.6308493099
 10
28.7429365457
 20
22.2250394516
 10
28.1392954029
 20
21.8262624963
 10
27.5315938437
 20
21.4385099803
 10
26.9226577414
 20
21.0634111805
  0
LINE
  5
352
100
AcDbEntity
  8
0
100
AcDbLine
 62
250
  6
CONTINUOUS
 10
22.6016392606
 20
0.0
 11
39.7484790161
 21
-0.0
  0
LINE
  5
353
100
AcDbEntity
  8
0
100
AcDbLine
 62
250
  6
CONTINUOUS
 10
-22.6016392606
 20
0.0
 11
-39.7484790161
 21
0.0
  0
LWPOLYLINE
  5
354
100
AcDbEntity
  8
0
100
AcDbPolyline
 62
250
  6
CONTINUOUS
 90
8
 70
0
 10
31.0428583296
 20
-23.8787684896
 10
30.4865829488
 20
-23.4579661854
 10
29.9174964351
 20
-23.0417274514
 10
29.3365156464
 20
-22.6308489675
 10
28.7429357752
 20
-22.2250388984
 10
28.139294299
 20
-21.8262617103
 10
27.5315926181
 20
-21.4385090994
 10
26.9226566964
 20
-21.063410393
  0
LWPOLYLINE
  5
355
100
AcDbEntity
  8
0
100
AcDbPolyline
 62
250
  6
CONTINUOUS
 90
8
 70
0
 10
-31.0428583296
 20
23.8787684896
 10
-30.486583075
 20
23.4579662797
 10
-29.917496718
 20
23.0417276592
 10
-29.3365161172
 20
22.6308493098
 10
-28.7429365455
 20
22.2250394515
 10
-28.1392954028
 20
21.8262624962
 10
-27.5315938436
 20
21.4385099803
 10
-26.9226577413
 20
21.0634111804
  0
LINE
  5
356
100
AcDbEntity
  8
0
100
AcDbLine
 62
250
  6
CONTINUOUS
 10
25.6936771078
 20
-22.6975538356
 11
26.2524765176
 21
-23.1204978491
  0
LWPOLYLINE
  5
357
100
AcDbEntity
  8
0
100
AcDbPolyline
 62
250
  6
CONTINUOUS
 90
9
 70
0
 10
26.2524765176
 20
-23.1204978491
 10
26.7990138395
 20
-23.541158954
 10
27.3350602079
 20
-23.960873215
 10
27.8611315715
 20
-24.3799630465
 10
28.3799860343
 20
-24.8005153279
 10
28.8965961376
 20
-25.2265216926
 10
29.4135627469
 20
-25.6601635456
 10
29.9311452412
 20
-26.101673952
 10
30.4507359896
 20
-26.5522107386
  0
LWPOLYLINE
  5
358
100
AcDbEntity
  8
0
100
AcDbPolyline
 62
250
  6
CONTINUOUS
 90
3
 70
0
 10
-32.0353143458
 20
24.6642759387
 10
-31.5379258553
 20
24.2651181182
 10
-31.0428583296
 20
23.8787684896
  0
LWPOLYLINE
  5
359
100
AcDbEntity
  8
0
100
AcDbPolyline
 62
250
  6
CONTINUOUS
 90
3
 70
0
 10
-33.036974329
 20
25.5013436722
 10
-32.5349749437
 20
25.0763159266
 10
-32.0353143458
 20
24.6642759387
  0
LWPOLYLINE
  5
35A
100
AcDbEntity
  8
0
100
AcDbPolyline
 62
250
  6
CONTINUOUS
 90
10
 70
0
 10
-29.8401316492
 20
27.7802643023
 10
-29.3426874185
 20
27.3144454927
 10
-28.8526349737
 20
26.8601964124
 10
-28.3675444922
 20
26.4153364099
 10
-27.8845512971
 20
25.9772886444
 10
-27.4012930339
 20
25.5439315095
 10
-26.9158944047
 20
25.1135531207
 10
-26.4257514735
 20
24.6837621435
 10
-25.9275431553
 20
24.2515297501
 10
-25.4181604325
 20
23.8140117406
  0
LWPOLYLINE
  5
35B
100
AcDbEntity
  8
0
100
AcDbPolyline
 62
250
  6
CONTINUOUS
 90
10
 70
0
 10
29.8401316492
 20
-27.7802643023
 10
29.3426873082
 20
-27.3144453857
 10
28.8526347864
 20
-26.8601962244
 10
28.3675442579
 20
-26.4153361644
 10
27.8845510418
 20
-25.9772883628
 10
27.4012927829
 20
-25.5439312135
 10
26.9158941848
 20
-25.1135528346
 10
26.4257513121
 20
-24.6837618937
 10
25.92754308
 20
-24.2515295645
 10
25.4181604729
 20
-23.8140116503
  0
LWPOLYLINE
  5
35C
100
AcDbEntity
  8
0
100
AcDbPolyline
 62
250
  6
CONTINUOUS
 90
3
 70
0
 10
-29.8401316492
 20
27.7802643023
 10
-30.3613573043
 20
28.2737438988
 10
-30.8897856556
 20
28.7794966731
  0
LWPOLYLINE
  5
35D
100
AcDbEntity
  8
0
100
AcDbPolyline
 62
250
  6
CONTINUOUS
 90
3
 70
0
 10
29.8401316492
 20
-27.7802643023
 10
30.3613573043
 20
-28.2737438988
 10
30.8897856556
 20
-28.7794966731
  0
LWPOLYLINE
  5
35E
100
AcDbEntity
  8
0
100
AcDbPolyline
 62
250
  6
CONTINUOUS
 90
10
 70
0
 10
-29.716425002
 20
27.9719715713
 10
-29.2227715693
 20
27.5037751137
 10
-28.7368100687
 20
27.0474039446
 10
-28.2560252707
 20
26.6005786187
 10
-27.7772684051
 20
26.1604358933
 10
-27.2982252715
 20
25.7248807122
 10
-26.8173895424
 20
25.2925125246
 10
-26.3321647789
 20
24.8609012565
 10
-25.8388865376
 20
24.4266566181
 10
-25.3342758969
 20
23.9867323983
  0
LWPOLYLINE
  5
35F
100
AcDbEntity
  8
0
100
AcDbPolyline
 62
250
  6
CONTINUOUS
 90
10
 70
0
 10
29.716425002
 20
-27.9719715713
 10
29.2227714532
 20
-27.5037749999
 10
28.7368098722
 20
-27.0474037453
 10
28.2560250253
 20
-26.6005783593
 10
27.7772681382
 20
-26.1604355966
 10
27.2982250093
 20
-25.724880401
 10
26.817389313
 20
-25.292512225
 10
26.3321646115
 20
-24.8609009967
 10
25.8388864614
 20
-24.4266564276
 10
25.3342759429
 20
-23.9867323104
  0
LINE
  5
360
100
AcDbEntity
  8
0
100
AcDbLine
 62
250
  6
CONTINUOUS
 10
-30.2385428015
 20
28.4725107116
 11
-29.716425002
 21
27.9719715713
  0
LINE
  5
361
100
AcDbEntity
  8
0
100
AcDbLine
 62
250
  6
CONTINUOUS
 10
30.2385428015
 20
-28.4725107116
 11
29.716425002
 21
-27.9719715713
  0
LWPOLYLINE
  5
362
100
AcDbEntity
  8
0
100
AcDbPolyline
 62
250
  6
CONTINUOUS
 90
5
 70
0
 10
36.8461853515
 20
-39.0842599925
 10
36.3643933075
 20
-38.6179117594
 10
35.8793861565
 20
-38.1430831999
 10
35.3921688187
 20
-37.6607212506
 10
34.9026438743
 20
-37.1706650087
  0
LINE
  5
363
100
AcDbEntity
  8
0
100
AcDbLine
 62
250
  6
CONTINUOUS
 10
38.0860644889
 20
-36.1878586838
 11
39.0789449279
 21
-37.1475760374
  0
LINE
  5
364
100
AcDbEntity
  8
0
100
AcDbLine
 62
250
  6
CONTINUOUS
 10
36.8013076207
 20
-39.0842009192
 11
36.9480879494
 21
-39.2260346427
  0
LINE
  5
365
100
AcDbEntity
  8
0
100
AcDbLine
 62
250
  6
CONTINUOUS
 10
-37.5844063377
 20
35.7006960715
 11
-39.0789449279
 21
37.1475760374
  0
LINE
  5
366
100
AcDbEntity
  8
0
100
AcDbLine
 62
250
  6
CONTINUOUS
 10
-30.8897856556
 20
28.7794966731
 11
-31.9601867564
 21
29.8171014515
  0
LINE
  5
367
100
AcDbEntity
  8
0
100
AcDbLine
 62
250
  6
CONTINUOUS
 10
-31.3020876948
 20
29.5071445606
 11
-30.2385428015
 21
28.4725107116
  0
LINE
  5
368
100
AcDbEntity
  8
0
100
AcDbLine
 62
250
  6
CONTINUOUS
 10
-31.9601867564
 20
29.8171014515
 11
-33.0430622152
 21
30.8794756718
  0
LWPOLYLINE
  5
369
100
AcDbEntity
  8
0
100
AcDbPolyline
 62
250
  6
CONTINUOUS
 90
13
 70
0
 10
36.9480879494
 20
-39.2260346427
 10
37.0809938819
 20
-39.3563804812
 10
37.1411885155
 20
-39.4161630019
 10
37.1955358571
 20
-39.4706550172
 10
37.2436544753
 20
-39.5194260675
 10
37.2858400879
 20
-39.5627294319
 10
37.3220571832
 20
-39.6004869611
 10
37.3522836327
 20
-39.6326283338
 10
37.3767764455
 20
-39.6593761942
 10
37.3958617601
 20
-39.6810464473
 10
37.4096258702
 20
-39.6977101995
 10
37.4180715977
 20
-39.709337598
 10
37.4212970071
 20
-39.7160026235
  0
LINE
  5
36A
100
AcDbEntity
  8
0
100
AcDbLine
 62
250
  6
CONTINUOUS
 10
-39.0841885055
 20
36.8461861193
 11
-36.6475615458
 21
34.4438420384
  0
LWPOLYLINE
  5
36B
100
AcDbEntity
  8
0
100
AcDbPolyline
 62
250
  6
CONTINUOUS
 90
10
 70
0
 10
-35.1952253949
 20
30.9983204474
 10
-34.6586525299
 20
30.4681103034
 10
-34.1217438384
 20
29.9442617763
 10
-33.5862233345
 20
29.4284648294
 10
-33.0550027128
 20
28.9235125031
 10
-32.5282984684
 20
28.4296017546
 10
-32.0036016721
 20
27.9444742062
 10
-31.4809372593
 20
27.4683576178
 10
-30.9628980977
 20
27.0038295228
 10
-30.4507359896
 20
26.5522107386
  0
LINE
  5
36C
100
AcDbEntity
  8
0
100
AcDbLine
 62
250
  6
CONTINUOUS
 10
-36.6475615458
 20
34.4438420384
 11
-33.0430622152
 21
30.8794756718
  0
LINE
  5
36D
100
AcDbEntity
  8
0
100
AcDbLine
 62
250
  6
CONTINUOUS
 10
-32.9234481072
 20
31.1079532154
 11
-31.3020876948
 21
29.5071445606
  0
LWPOLYLINE
  5
36E
100
AcDbEntity
  8
0
100
AcDbPolyline
 62
250
  6
CONTINUOUS
 90
3
 70
0
 10
-37.5844063377
 20
35.7006960715
 10
-34.0280822716
 20
32.2046010034
 10
-32.9234481072
 20
31.1079532154
  0
LINE
  5
36F
100
AcDbEntity
  8
0
100
AcDbLine
 62
250
  6
CONTINUOUS
 10
-35.6366749083
 20
31.4393743613
 11
-35.1952253949
 21
30.9983204474
  0
LWPOLYLINE
  5
370
100
AcDbEntity
  8
0
100
AcDbPolyline
 62
250
  6
CONTINUOUS
 90
4
 70
0
 10
34.9026438743
 20
-37.1706650087
 10
34.4130765288
 20
-36.6751081353
 10
33.927997776
 20
-36.1786272113
 10
33.449586676
 20
-35.6835059023
  0
LINE
  5
371
100
AcDbEntity
  8
0
100
AcDbLine
 62
250
  6
CONTINUOUS
 10
24.4376067026
 20
-26.046032248
 11
23.8140067018
 21
-25.4181495847
  0
LINE
  5
372
100
AcDbEntity
  8
0
100
AcDbLine
 62
250
  6
CONTINUOUS
 10
24.875638982
 20
-26.4921918898
 11
24.4376067026
 21
-26.046032248
  0
LINE
  5
373
100
AcDbEntity
  8
0
100
AcDbLine
 62
250
  6
CONTINUOUS
 10
25.5602823531
 20
-27.197752393
 11
24.8764503485
 21
-26.4944915653
  0
LINE
  5
374
100
AcDbEntity
  8
0
100
AcDbLine
 62
250
  6
CONTINUOUS
 10
-26.1215585608
 20
27.7816630166
 11
-25.2136230994
 21
26.8401509905
  0
LINE
  5
375
100
AcDbEntity
  8
0
100
AcDbLine
 62
250
  6
CONTINUOUS
 10
26.2379557295
 20
-27.9035252198
 11
25.5602823531
 21
-27.197752393
  0
LINE
  5
376
100
AcDbEntity
  8
0
100
AcDbLine
 62
250
  6
CONTINUOUS
 10
33.449586676
 20
-35.6835059023
 11
32.9777681634
 21
-35.1897077649
  0
LINE
  5
377
100
AcDbEntity
  8
0
100
AcDbLine
 62
250
  6
CONTINUOUS
 10
-33.449586676
 20
35.6835059023
 11
-32.9777681634
 21
35.1897077649
  0
LWPOLYLINE
  5
378
100
AcDbEntity
  8
0
100
AcDbPolyline
 62
250
  6
CONTINUOUS
 90
10
 70
0
 10
30.9999605717
 20
-35.1949136289
 10
31.4286545266
 20
-35.6450419575
 10
31.8628739048
 20
-36.0913245105
 10
32.3023971414
 20
-36.5335286627
 10
32.7471589879
 20
-36.9715741104
 10
33.1967847007
 20
-37.4050724535
 10
33.6505734927
 20
-37.833343564
 10
34.1081287531
 20
-38.2560232819
 10
34.5693745913
 20
-38.6730470431
 10
35.0340784353
 20
-39.0842009192
  0
LINE
  5
379
100
AcDbEntity
  8
0
100
AcDbLine
 62
250
  6
CONTINUOUS
 10
26.9172809232
 20
-28.6200142181
 11
26.2379557295
 21
-27.9035252198
  0
LINE
  5
37A
100
AcDbEntity
  8
0
100
AcDbLine
 62
250
  6
CONTINUOUS
 10
32.9777681634
 20
-35.1897077649
 11
32.5136085933
 21
-34.6983583088
  0
LINE
  5
37B
100
AcDbEntity
  8
0
100
AcDbLine
 62
250
  6
CONTINUOUS
 10
-32.9777681634
 20
35.1897077649
 11
-32.5136085933
 21
34.6983583088
  0
LINE
  5
37C
100
AcDbEntity
  8
0
100
AcDbLine
 62
250
  6
CONTINUOUS
 10
-27.0291692888
 20
28.7388749235
 11
-26.1215585608
 21
27.7816630166
  0
LINE
  5
37D
100
AcDbEntity
  8
0
100
AcDbLine
 62
250
  6
CONTINUOUS
 10
-32.5136085933
 20
34.6983583088
 11
-32.0184511867
 21
34.1683103274
  0
LINE
  5
37E
100
AcDbEntity
  8
0
100
AcDbLine
 62
250
  6
CONTINUOUS
 10
32.5136085933
 20
-34.6983583088
 11
32.0184511867
 21
-34.1683103274
  0
LINE
  5
37F
100
AcDbEntity
  8
0
100
AcDbLine
 62
250
  6
CONTINUOUS
 10
27.604679702
 20
-29.3539167174
 11
26.9172809232
 21
-28.6200142181
  0
LWPOLYLINE
  5
380
100
AcDbEntity
  8
0
100
AcDbPolyline
 62
250
  6
CONTINUOUS
 90
6
 70
0
 10
30.9999605717
 20
-35.1949136289
 10
30.5402837547
 20
-34.7015571414
 10
30.0777892849
 20
-34.1948658086
 10
29.6126166391
 20
-33.6760293972
 10
29.1456057855
 20
-33.1471603795
 10
28.6761812748
 20
-32.6089040144
  0
LINE
  5
381
100
AcDbEntity
  8
0
100
AcDbLine
 62
250
  6
CONTINUOUS
 10
-27.9537134761
 20
29.7297993469
 11
-27.0291692888
 21
28.7388749235
  0
LINE
  5
382
100
AcDbEntity
  8
0
100
AcDbLine
 62
250
  6
CONTINUOUS
 10
-32.0184511867
 20
34.1683103274
 11
-31.0137895563
 21
33.0786636823
  0
LINE
  5
383
100
AcDbEntity
  8
0
100
AcDbLine
 62
250
  6
CONTINUOUS
 10
32.0184511867
 20
-34.1683103274
 11
31.0137895563
 21
-33.0786636823
  0
LINE
  5
384
100
AcDbEntity
  8
0
100
AcDbLine
 62
250
  6
CONTINUOUS
 10
-28.9724299469
 20
30.8390049764
 11
-27.9537134761
 21
29.7297993469
  0
LWPOLYLINE
  5
385
100
AcDbEntity
  8
0
100
AcDbPolyline
 62
250
  6
CONTINUOUS
 90
3
 70
0
 10
28.9724299469
 20
-30.8390049764
 10
28.4619509717
 20
-30.2812044051
 10
27.604679702
 20
-29.3539167174
  0
LINE
  5
386
100
AcDbEntity
  8
0
100
AcDbLine
 62
250
  6
CONTINUOUS
 10
-31.0137895563
 20
33.0786636823
 11
-28.9724299469
 21
30.8390049764
  0
LWPOLYLINE
  5
387
100
AcDbEntity
  8
0
100
AcDbPolyline
 62
250
  6
CONTINUOUS
 90
6
 70
0
 10
27.8243897177
 20
-35.5828566402
 10
27.4111097175
 20
-35.1250428453
 10
26.9992417548
 20
-34.6568360298
 10
26.5878182787
 20
-34.177189201
 10
26.1748094836
 20
-33.6838202213
 10
25.7600077624
 20
-33.176647809
  0
LINE
  5
388
100
AcDbEntity
  8
0
100
AcDbLine
 62
250
  6
CONTINUOUS
 10
24.3796653561
 20
-27.6097984924
 11
24.2421070008
 21
-27.454981476
  0
LINE
  5
389
100
AcDbEntity
  8
0
100
AcDbLine
 62
250
  6
CONTINUOUS
 10
24.2421070008
 20
-27.454981476
 11
24.1051015881
 21
-27.299015529
  0
LINE
  5
38A
100
AcDbEntity
  8
0
100
AcDbLine
 62
250
  6
CONTINUOUS
 10
23.9663463616
 20
-27.1420014813
 11
22.6975533314
 21
-25.6936696952
  0
LINE
  5
38B
100
AcDbEntity
  8
0
100
AcDbLine
 62
250
  6
CONTINUOUS
 10
-24.5073191424
 20
27.7633325673
 11
-22.6975532318
 21
25.6936697018
  0
LINE
  5
38C
100
AcDbEntity
  8
0
100
AcDbLine
 62
250
  6
CONTINUOUS
 10
24.1051015881
 20
-27.299015529
 11
23.9686146567
 21
-27.1419329574
  0
LINE
  5
38D
100
AcDbEntity
  8
0
100
AcDbLine
 62
250
  6
CONTINUOUS
 10
-25.8480526568
 20
29.3132468793
 11
-24.5073191424
 21
27.7633325673
  0
LINE
  5
38E
100
AcDbEntity
  8
0
100
AcDbLine
 62
250
  6
CONTINUOUS
 10
25.9608385636
 20
-29.4442748751
 11
24.3966743904
 21
-27.6360631274
  0
LWPOLYLINE
  5
38F
100
AcDbEntity
  8
0
100
AcDbPolyline
 62
250
  6
CONTINUOUS
 90
3
 70
0
 10
-28.6761812748
 20
32.6089040144
 10
-27.7238182207
 20
31.5026654787
 10
-25.8480526568
 20
29.3132468793
  0
LINE
  5
390
100
AcDbEntity
  8
0
100
AcDbLine
 62
250
  6
CONTINUOUS
 10
28.6761812748
 20
-32.6089040144
 11
27.7238182207
 21
-31.5026654787
  0
LINE
  5
391
100
AcDbEntity
  8
0
100
AcDbLine
 62
250
  6
CONTINUOUS
 10
26.7549907543
 20
-30.369619874
 11
25.9608385636
 21
-29.4442748751
  0
LWPOLYLINE
  5
392
100
AcDbEntity
  8
0
100
AcDbPolyline
 62
250
  6
CONTINUOUS
 90
3
 70
0
 10
25.7600077624
 20
-33.176647809
 10
25.3449503706
 20
-32.6579626087
 10
24.9291580173
 20
-32.1278033469
  0
LWPOLYLINE
  5
393
100
AcDbEntity
  8
0
100
AcDbPolyline
 62
250
  6
CONTINUOUS
 90
3
 70
0
 10
-24.9291580173
 20
32.1278033469
 10
-24.5102072586
 20
31.5837823543
 10
-24.0865663579
 20
31.0246453689
  0
LWPOLYLINE
  5
394
100
AcDbEntity
  8
0
100
AcDbPolyline
 62
250
  6
CONTINUOUS
 90
3
 70
0
 10
24.9291580173
 20
-32.1278033469
 10
24.5102072586
 20
-31.5837823543
 10
24.0865663579
 20
-31.0246453689
  0
LWPOLYLINE
  5
395
100
AcDbEntity
  8
0
100
AcDbPolyline
 62
250
  6
CONTINUOUS
 90
9
 70
0
 10
-20.7394420181
 20
26.2906917528
 10
-21.1385103021
 20
26.8863153962
 10
-21.5464405836
 20
27.4857580997
 10
-21.9633363183
 20
28.0890392745
 10
-22.3869640774
 20
28.692776879
 10
-22.8126885719
 20
29.2903437215
 10
-23.2381158818
 20
29.8784815824
 10
-23.6631567948
 20
30.4571427318
 10
-24.0865663579
 20
31.0246453689
  0
LINE
  5
396
100
AcDbEntity
  8
0
100
AcDbLine
 62
250
  6
CONTINUOUS
 10
-20.350212833
 20
25.7004238655
 11
-20.7394420181
 21
26.2906917528
  0
LINE
  5
397
100
AcDbEntity
  8
0
100
AcDbLine
 62
250
  6
CONTINUOUS
 10
20.3502126327
 20
25.7004238655
 11
20.7394415048
 21
26.2906912631
  0
LWPOLYLINE
  5
398
100
AcDbEntity
  8
0
100
AcDbPolyline
 62
250
  6
CONTINUOUS
 90
9
 70
0
 10
20.7394415048
 20
26.2906912631
 10
21.1385096052
 20
26.8863145951
 10
21.5464398305
 20
27.4857571674
 10
21.9633356819
 20
28.0890384619
 10
22.3869636741
 20
28.6927763599
 10
22.8126883621
 20
29.2903434505
 10
23.2381157766
 20
29.8784814443
 10
23.6631567585
 20
30.4571426836
 10
24.0865663579
 20
31.0246453689
  0
LWPOLYLINE
  5
399
100
AcDbEntity
  8
0
100
AcDbPolyline
 62
250
  6
CONTINUOUS
 90
3
 70
0
 10
-25.7600077624
 20
-33.176647809
 10
-25.3449503706
 20
-32.6579626087
 10
-24.9291580173
 20
-32.1278033469
  0
LINE
  5
39A
100
AcDbEntity
  8
0
100
AcDbLine
 62
250
  6
CONTINUOUS
 10
26.7549907543
 20
30.369619874
 11
27.7241344841
 21
31.5030348965
  0
LWPOLYLINE
  5
39B
100
AcDbEntity
  8
0
100
AcDbPolyline
 62
250
  6
CONTINUOUS
 90
6
 70
0
 10
-27.8243897177
 20
-35.5828566402
 10
-27.4111097175
 20
-35.1250428453
 10
-26.9992417548
 20
-34.6568360298
 10
-26.5878182787
 20
-34.177189201
 10
-26.1748094836
 20
-33.6838202213
 10
-25.7600077624
 20
-33.176647809
  0
LINE
  5
39C
100
AcDbEntity
  8
0
100
AcDbLine
 62
250
  6
CONTINUOUS
 10
28.9702527568
 20
30.8366199007
 11
31.0155955736
 21
33.0806356018
  0
LWPOLYLINE
  5
39D
100
AcDbEntity
  8
0
100
AcDbPolyline
 62
250
  6
CONTINUOUS
 90
8
 70
0
 10
-30.9999605717
 20
-35.1949136289
 10
-30.5402837547
 20
-34.7015571414
 10
-30.0777892849
 20
-34.1948658086
 10
-29.6126166391
 20
-33.6760293972
 10
-29.1456057855
 20
-33.1471603795
 10
-28.6761812748
 20
-32.6089040144
 10
-28.2024149279
 20
-32.0604266834
 10
-26.3035328713
 20
-29.8429973539
  0
LWPOLYLINE
  5
39E
100
AcDbEntity
  8
0
100
AcDbPolyline
 62
250
  6
CONTINUOUS
 90
10
 70
0
 10
-30.9999605717
 20
-35.1949136289
 10
-31.4286543139
 20
-35.645041731
 10
-31.8628735391
 20
-36.0913241186
 10
-32.3023966821
 20
-36.5335281653
 10
-32.7471584954
 20
-36.9715735671
 10
-33.1967842334
 20
-37.4050719211
 10
-33.6505731043
 20
-37.8333430937
 10
-34.108128495
 20
-38.2560229217
 10
-34.5693745149
 20
-38.6730468405
 10
-35.0340785908
 20
-39.0842009192
  0
LWPOLYLINE
  5
39F
100
AcDbEntity
  8
0
100
AcDbPolyline
 62
250
  6
CONTINUOUS
 90
4
 70
0
 10
-34.902642432
 20
-37.1706635021
 10
-34.4130755237
 20
-36.6751070837
 10
-33.9279971691
 20
-36.1786265745
 10
-33.4495863146
 20
-35.6835055225
  0
LWPOLYLINE
  5
3A0
100
AcDbEntity
  8
0
100
AcDbPolyline
 62
250
  6
CONTINUOUS
 90
3
 70
0
 10
-23.8140067922
 20
-25.418149544
 10
-24.2949450392
 20
-25.9030893903
 10
-25.2261876458
 20
-26.8530722229
  0
LWPOLYLINE
  5
3A1
100
AcDbEntity
  8
0
100
AcDbPolyline
 62
250
  6
CONTINUOUS
 90
11
 70
0
 10
-37.1411887365
 20
-39.4161630065
 10
-37.1955360933
 20
-39.4706550182
 10
-37.2436547255
 20
-39.5194260634
 10
-37.2858403506
 20
-39.562729422
 10
-37.3220574566
 20
-39.6004869448
 10
-37.3522839147
 20
-39.6326283108
 10
-37.3767767344
 20
-39.6593761647
 10
-37.3958620542
 20
-39.681046412
 10
-37.4096261679
 20
-39.6977101596
 10
-37.4180718976
 20
-39.709337555
 10
-37.4212973076
 20
-39.716002579
  0
LWPOLYLINE
  5
3A2
100
AcDbEntity
  8
0
100
AcDbPolyline
 62
250
  6
CONTINUOUS
 90
10
 70
0
 10
35.1952253949
 20
30.9983204474
 10
35.6367491376
 20
31.4394488673
 10
36.0758886038
 20
31.8823693186
 10
36.512653636
 20
32.3270912912
 10
36.9470438407
 20
32.7736137023
 10
37.3790794095
 20
33.2219565297
 10
37.8088005635
 20
33.6721612488
 10
38.2362267209
 20
34.1242484596
 10
38.6613570536
 20
34.578217449
 10
39.0842009192
 20
35.0340781245
  0
LINE
  5
3A3
100
AcDbEntity
  8
0
100
AcDbLine
 62
250
  6
CONTINUOUS
 10
-37.0163444746
 20
-39.292720994
 11
-37.1411887365
 21
-39.4161630065
  0
LINE
  5
3A4
100
AcDbEntity
  8
0
100
AcDbLine
 62
250
  6
CONTINUOUS
 10
37.1379610334
 20
34.9280154245
 11
39.0841885048
 21
36.8461856528
  0
LINE
  5
3A5
100
AcDbEntity
  8
0
100
AcDbLine
 62
250
  6
CONTINUOUS
 10
32.498951578
 20
30.3444247515
 11
37.1379610334
 21
34.9280154245
  0
LWPOLYLINE
  5
3A6
100
AcDbEntity
  8
0
100
AcDbPolyline
 62
250
  6
CONTINUOUS
 90
3
 70
0
 10
38.0868820711
 20
36.1886542031
 10
37.5854250511
 20
35.7016917216
 10
31.3020037595
 20
29.5070622801
  0
LWPOLYLINE
  5
3A7
100
AcDbEntity
  8
0
100
AcDbPolyline
 62
250
  6
CONTINUOUS
 90
5
 70
0
 10
-36.8461855074
 20
-39.0842599932
 10
-36.364392594
 20
-38.6179109233
 10
-35.8793848627
 20
-38.1430818074
 10
-35.3921672423
 20
-37.6607195938
 10
-34.902642432
 20
-37.1706635021
  0
LWPOLYLINE
  5
3A8
100
AcDbEntity
  8
0
100
AcDbPolyline
 62
250
  6
CONTINUOUS
 90
10
 70
0
 10
35.5837101741
 20
27.8189626045
 10
35.9900429279
 20
28.2114149744
 10
36.3905800566
 20
28.6040784568
 10
36.7858260468
 20
28.9974353244
 10
37.1759090419
 20
29.3915846798
 10
37.5617175941
 20
29.7873882031
 10
37.9448616503
 20
30.1864885798
 10
38.3261838012
 20
30.589781731
 10
38.7057983673
 20
30.9973984531
 10
39.0842009193
 20
31.4098631156
  0
LWPOLYLINE
  5
3A9
100
AcDbEntity
  8
0
100
AcDbPolyline
 62
250
  6
CONTINUOUS
 90
3
 70
0
 10
-36.8013077801
 20
-39.0842009192
 10
-36.8762625292
 20
-39.1563767176
 10
-37.0163444746
 20
-39.292720994
  0
LWPOLYLINE
  5
3AA
100
AcDbEntity
  8
0
100
AcDbPolyline
 62
250
  6
CONTINUOUS
 90
10
 70
0
 10
-25.334275989
 20
-23.9867322225
 10
-25.8460486251
 20
-24.4329305039
 10
-26.3444170114
 20
-24.871743588
 10
-26.8328430451
 20
-25.3063346716
 10
-27.3149616058
 20
-25.7400160942
 10
-27.7935381874
 20
-26.1753137864
 10
-28.2704552234
 20
-26.6139195757
 10
-28.7480809379
 20
-27.0579354367
 10
-29.2292928662
 20
-27.5099305677
 10
-29.716425002
 20
-27.9719715713
  0
LWPOLYLINE
  5
3AB
100
AcDbEntity
  8
0
100
AcDbPolyline
 62
250
  6
CONTINUOUS
 90
10
 70
0
 10
-25.4181605135
 20
-23.8140115601
 10
-25.9343214451
 20
-24.2573805412
 10
-26.437356823
 20
-24.6938846803
 10
-26.9305398336
 20
-25.1264679629
 10
-27.4171638453
 20
-25.5580854054
 10
-27.8999884781
 20
-25.9912129442
 10
-28.3812352294
 20
-26.4278246734
 10
-28.8633192076
 20
-26.870048918
 10
-29.3488617469
 20
-27.3201987548
 10
-29.8401316492
 20
-27.7802643023
  0
LWPOLYLINE
  5
3AC
100
AcDbEntity
  8
0
100
AcDbPolyline
 62
250
  6
CONTINUOUS
 90
7
 70
0
 10
32.5352043444
 20
25.0765076321
 10
33.0372143084
 20
25.5015494815
 10
33.5415355096
 20
25.9395342711
 10
34.0481280251
 20
26.3903185337
 10
34.5571363276
 20
26.8538297842
 10
35.0688840839
 20
27.3300696784
 10
35.5837101741
 20
27.8189626046
  0
LINE
  5
3AD
100
AcDbEntity
  8
0
100
AcDbLine
 62
250
  6
CONTINUOUS
 10
32.035499488
 20
24.6644265658
 11
32.5352043444
 21
25.0765076321
  0
LINE
  5
3AE
100
AcDbEntity
  8
0
100
AcDbLine
 62
250
  6
CONTINUOUS
 10
31.5380350913
 20
24.2652045712
 11
32.035499488
 21
24.6644265658
  0
LWPOLYLINE
  5
3AF
100
AcDbEntity
  8
0
100
AcDbPolyline
 62
250
  6
CONTINUOUS
 90
9
 70
0
 10
-26.2524766057
 20
-23.120498017
 10
-26.7990140023
 20
-23.541159171
 10
-27.3350604267
 20
-23.9608734642
 10
-27.8611318351
 20
-24.3799633182
 10
-28.3799863253
 20
-24.8005156085
 10
-28.8965964186
 20
-25.2265219527
 10
-29.4135629733
 20
-25.6601637499
 10
-29.9311453745
 20
-26.1016740701
 10
-30.4507359896
 20
-26.5522107386
  0
LINE
  5
3B0
100
AcDbEntity
  8
0
100
AcDbLine
 62
250
  6
CONTINUOUS
 10
-25.6936771012
 20
-22.697553935
 11
-26.2524766057
 21
-23.120498017
  0
LWPOLYLINE
  5
3B1
100
AcDbEntity
  8
0
100
AcDbPolyline
 62
250
  6
CONTINUOUS
 90
9
 70
0
 10
-26.3078912077
 20
-20.6981138925
 10
-26.9157929727
 20
-21.0592580387
 10
-27.5230635696
 20
-21.4331630776
 10
-28.1304121997
 20
-21.820496313
 10
-28.7348116408
 20
-22.219579961
 10
-29.3297402173
 20
-22.6261383073
 10
-29.912471548
 20
-23.0381139319
 10
-30.4838315289
 20
-23.455919762
 10
-31.0428583296
 20
-23.8787684896
  0
LWPOLYLINE
  5
3B2
100
AcDbEntity
  8
0
100
AcDbPolyline
 62
250
  6
CONTINUOUS
 90
3
 70
0
 10
-26.9226577413
 20
21.0634111804
 10
-26.3119167739
 20
20.7004627201
 10
-25.7004238655
 20
20.3502128378
  0
LINE
  5
3B3
100
AcDbEntity
  8
0
100
AcDbLine
 62
250
  6
CONTINUOUS
 10
-25.6936771012
 20
22.697553935
 11
-26.2524766057
 21
23.120498017
  0
LWPOLYLINE
  5
3B4
100
AcDbEntity
  8
0
100
AcDbPolyline
 62
250
  6
CONTINUOUS
 90
9
 70
0
 10
-26.2524766057
 20
23.120498017
 10
-26.7990140023
 20
23.541159171
 10
-27.3350604267
 20
23.9608734642
 10
-27.8611318351
 20
24.3799633182
 10
-28.3799863253
 20
24.8005156085
 10
-28.8965964186
 20
25.2265219527
 10
-29.4135629733
 20
25.6601637499
 10
-29.9311453745
 20
26.1016740701
 10
-30.4507359896
 20
26.5522107386
  0
LWPOLYLINE
  5
3B5
100
AcDbEntity
  8
0
100
AcDbPolyline
 62
250
  6
CONTINUOUS
 90
3
 70
0
 10
32.0353143458
 20
-24.6642759387
 10
31.5379258553
 20
-24.2651181182
 10
31.0428583296
 20
-23.8787684896
  0
LWPOLYLINE
  5
3B6
100
AcDbEntity
  8
0
100
AcDbPolyline
 62
250
  6
CONTINUOUS
 90
3
 70
0
 10
33.036974329
 20
-25.5013436722
 10
32.5349749437
 20
-25.0763159266
 10
32.0353143458
 20
-24.6642759387
  0
LWPOLYLINE
  5
3B7
100
AcDbEntity
  8
0
100
AcDbPolyline
 62
250
  6
CONTINUOUS
 90
6
 70
0
 10
35.5837101741
 20
-27.8189626045
 10
35.0688064133
 20
-27.3299966454
 10
34.5569960197
 20
-26.8537005956
 10
34.0479405759
 20
-26.3901497679
 10
33.5413134522
 20
-25.9393390336
 10
33.036974329
 20
-25.5013436722
  0
LWPOLYLINE
  5
3B8
100
AcDbEntity
  8
0
100
AcDbPolyline
 62
250
  6
CONTINUOUS
 90
5
 70
0
 10
-36.8461853515
 20
39.0842599925
 10
-36.3643933075
 20
38.6179117594
 10
-35.8793861565
 20
38.1430831999
 10
-35.3921688187
 20
37.6607212506
 10
-34.9026438743
 20
37.1706650087
  0
LINE
  5
3B9
100
AcDbEntity
  8
0
100
AcDbLine
 62
250
  6
CONTINUOUS
 10
-36.8013076207
 20
39.0842009192
 11
-36.9480877506
 21
39.2260344511
  0
LINE
  5
3BA
100
AcDbEntity
  8
0
100
AcDbLine
 62
250
  6
CONTINUOUS
 10
30.8897856556
 20
-28.7794966731
 11
31.9601867564
 21
-29.8171014515
  0
LINE
  5
3BB
100
AcDbEntity
  8
0
100
AcDbLine
 62
250
  6
CONTINUOUS
 10
31.3020876948
 20
-29.5071445606
 11
30.2385428015
 21
-28.4725107116
  0
LINE
  5
3BC
100
AcDbEntity
  8
0
100
AcDbLine
 62
250
  6
CONTINUOUS
 10
36.576069408
 20
-34.7170272631
 11
38.0860644889
 21
-36.1878586838
  0
LINE
  5
3BD
100
AcDbEntity
  8
0
100
AcDbLine
 62
250
  6
CONTINUOUS
 10
31.9601867564
 20
-29.8171014515
 11
33.0430622152
 21
-30.8794756718
  0
LWPOLYLINE
  5
3BE
100
AcDbEntity
  8
0
100
AcDbPolyline
 62
250
  6
CONTINUOUS
 90
13
 70
0
 10
-36.9480877506
 20
39.2260344511
 10
-37.0809936077
 20
39.3563802171
 10
-37.1411882444
 20
39.4161627418
 10
-37.1955356075
 20
39.4706547794
 10
-37.2436542638
 20
39.5194258691
 10
-37.2858399242
 20
39.5627292832
 10
-37.3220570644
 20
39.6004868598
 10
-37.3522835539
 20
39.6326282754
 10
-37.3767764011
 20
39.6593761735
 10
-37.3958617403
 20
39.6810464544
 10
-37.4096258656
 20
39.6977102247
 10
-37.4180716014
 20
39.7093376338
 10
-37.4212970134
 20
39.7160026637
  0
LINE
  5
3BF
100
AcDbEntity
  8
0
100
AcDbLine
 62
250
  6
CONTINUOUS
 10
39.0841885055
 20
-36.8461861193
 11
36.6475615458
 21
-34.4438420384
  0
LWPOLYLINE
  5
3C0
100
AcDbEntity
  8
0
100
AcDbPolyline
 62
250
  6
CONTINUOUS
 90
10
 70
0
 10
35.1952253949
 20
-30.9983204474
 10
34.6586525299
 20
-30.4681103034
 10
34.1217438384
 20
-29.9442617763
 10
33.5862233345
 20
-29.4284648294
 10
33.0550027128
 20
-28.9235125031
 10
32.5282984684
 20
-28.4296017546
 10
32.0036016721
 20
-27.9444742062
 10
31.4809372593
 20
-27.4683576178
 10
30.9628980977
 20
-27.0038295228
 10
30.4507359896
 20
-26.5522107386
  0
LINE
  5
3C1
100
AcDbEntity
  8
0
100
AcDbLine
 62
250
  6
CONTINUOUS
 10
33.0430622152
 20
-30.8794756718
 11
36.6475615458
 21
-34.4438420384
  0
LINE
  5
3C2
100
AcDbEntity
  8
0
100
AcDbLine
 62
250
  6
CONTINUOUS
 10
32.9234481072
 20
-31.1079532154
 11
31.3020876948
 21
-29.5071445606
  0
LWPOLYLINE
  5
3C3
100
AcDbEntity
  8
0
100
AcDbPolyline
 62
250
  6
CONTINUOUS
 90
3
 70
0
 10
36.576069408
 20
-34.7170272631
 10
34.0280822716
 20
-32.2046010034
 10
32.9234481072
 20
-31.1079532154
  0
LINE
  5
3C4
100
AcDbEntity
  8
0
100
AcDbLine
 62
250
  6
CONTINUOUS
 10
35.6366749083
 20
-31.4393743613
 11
35.1952253949
 21
-30.9983204474
  0
LWPOLYLINE
  5
3C5
100
AcDbEntity
  8
0
100
AcDbPolyline
 62
250
  6
CONTINUOUS
 90
4
 70
0
 10
-34.9026438743
 20
37.1706650087
 10
-34.4130765288
 20
36.6751081353
 10
-33.927997776
 20
36.1786272113
 10
-33.449586676
 20
35.6835059023
  0
LWPOLYLINE
  5
3C6
100
AcDbEntity
  8
0
100
AcDbPolyline
 62
250
  6
CONTINUOUS
 90
3
 70
0
 10
-25.2136230994
 20
26.8401509905
 10
-24.7548049744
 20
26.3702910034
 10
-23.8140066113
 20
25.4181496252
  0
LWPOLYLINE
  5
3C7
100
AcDbEntity
  8
0
100
AcDbPolyline
 62
250
  6
CONTINUOUS
 90
10
 70
0
 10
-30.9999605717
 20
35.1949136289
 10
-31.4286545266
 20
35.6450419575
 10
-31.8628739048
 20
36.0913245105
 10
-32.3023971414
 20
36.5335286627
 10
-32.7471589879
 20
36.9715741104
 10
-33.1967847007
 20
37.4050724535
 10
-33.6505734927
 20
37.833343564
 10
-34.1081287531
 20
38.2560232819
 10
-34.5693745913
 20
38.6730470431
 10
-35.0340784353
 20
39.0842009192
  0
LWPOLYLINE
  5
3C8
100
AcDbEntity
  8
0
100
AcDbPolyline
 62
250
  6
CONTINUOUS
 90
6
 70
0
 10
-30.9999605717
 20
35.1949136289
 10
-30.5402837547
 20
34.7015571414
 10
-30.0777892849
 20
34.1948658086
 10
-29.6126166391
 20
33.6760293972
 10
-29.1456057855
 20
33.1471603795
 10
-28.6761812748
 20
32.6089040144
  0
LINE
  5
3C9
100
AcDbEntity
  8
0
100
AcDbLine
 62
250
  6
CONTINUOUS
 10
31.0137895563
 20
-33.0786636823
 11
28.9724299469
 21
-30.8390049764
  0
LWPOLYLINE
  5
3CA
100
AcDbEntity
  8
0
100
AcDbPolyline
 62
250
  6
CONTINUOUS
 90
6
 70
0
 10
-27.8243897177
 20
35.5828566402
 10
-27.4111097175
 20
35.1250428453
 10
-26.9992417548
 20
34.6568360298
 10
-26.5878182787
 20
34.177189201
 10
-26.1748094836
 20
33.6838202213
 10
-25.7600077624
 20
33.176647809
  0
LINE
  5
3CB
100
AcDbEntity
  8
0
100
AcDbLine
 62
250
  6
CONTINUOUS
 10
27.7238182207
 20
-31.5026654787
 11
26.7549907543
 21
-30.369619874
  0
LWPOLYLINE
  5
3CC
100
AcDbEntity
  8
0
100
AcDbPolyline
 62
250
  6
CONTINUOUS
 90
3
 70
0
 10
-25.7600077624
 20
33.176647809
 10
-25.3449503706
 20
32.6579626087
 10
-24.9291580173
 20
32.1278033469
  0
LWPOLYLINE
  5
3CD
100
AcDbEntity
  8
0
100
AcDbPolyline
 62
250
  6
CONTINUOUS
 90
7
 70
0
 10
22.1498938455
 20
-28.3560486585
 10
22.4723826933
 20
-28.8134040604
 10
22.7957141116
 20
-29.2666909731
 10
23.1193430681
 20
-29.7151838777
 10
23.4427246315
 20
-30.1581573895
 10
23.7653139712
 20
-30.5948862585
 10
24.0865663579
 20
-31.0246453689
  0
LINE
  5
3CE
100
AcDbEntity
  8
0
100
AcDbLine
 62
250
  6
CONTINUOUS
 10
21.6475870897
 20
-27.6295714026
 11
22.1477880523
 21
-28.3494899274
  0
LINE
  5
3CF
100
AcDbEntity
  8
0
100
AcDbLine
 62
250
  6
CONTINUOUS
 10
21.1589812086
 20
-26.9133453001
 11
21.6475870897
 21
-27.6295714026
  0
LINE
  5
3D0
100
AcDbEntity
  8
0
100
AcDbLine
 62
250
  6
CONTINUOUS
 10
20.6837265866
 20
-26.2036199227
 11
21.1589812086
 21
-26.9133453001
  0
LWPOLYLINE
  5
3D1
100
AcDbEntity
  8
0
100
AcDbPolyline
 62
250
  6
CONTINUOUS
 90
3
 70
0
 10
20.350212833
 20
-25.7004238655
 10
20.4051514076
 20
-25.7843215119
 10
20.6830431872
 20
-26.2057485146
  0
LINE
  5
3D2
100
AcDbEntity
  8
0
100
AcDbLine
 62
7
  6
CONTINUOUS
 10
13.568751
 20
-28.800022
 11
12.637619
 21
-25.899884
  0
LINE
  5
3D3
100
AcDbEntity
  8
0
100
AcDbLine
 62
7
  6
CONTINUOUS
 10
13.217648
 20
-25.899884
 11
13.85878
 21
-27.89678
  0
LWPOLYLINE
  5
3D4
100
AcDbEntity
  8
0
100
AcDbPolyline
 62
250
  6
CONTINUOUS
 90
10
 70
0
 10
-31.4098632768
 20
-39.0842009192
 10
-30.9902141686
 20
-38.7138142218
 10
-30.5765857645
 20
-38.339364559
 10
-30.1687903287
 20
-37.9607199963
 10
-29.7670289893
 20
-37.5781238121
 10
-29.3707237947
 20
-37.1910869313
 10
-28.9785599634
 20
-36.7983346399
 10
-28.5900207521
 20
-36.3993053543
 10
-28.2053451903
 20
-35.9942038887
 10
-27.8243897177
 20
-35.5828566402
  0
LINE
  5
3D5
100
AcDbEntity
  8
0
100
AcDbLine
 62
250
  6
CONTINUOUS
 10
-25.7004238655
 20
-20.3502126373
 11
-26.3078912077
 21
-20.6981138925
  0
LWPOLYLINE
  5
3D6
100
AcDbEntity
  8
0
100
AcDbPolyline
 62
250
  6
CONTINUOUS
 90
10
 70
0
 10
-31.4098631222
 20
39.0842009192
 10
-30.9902143013
 20
38.7138144738
 10
-30.5765861183
 20
38.3393650071
 10
-30.1687908379
 20
37.9607205825
 10
-29.7670295893
 20
37.5781244774
 10
-29.3707244194
 20
37.1910876127
 10
-28.9785605413
 20
36.7983352665
 10
-28.5900212098
 20
36.3993058505
 10
-28.2053454556
 20
35.9942041772
 10
-27.8243897177
 20
35.5828566402
  0
LWPOLYLINE
  5
3D7
100
AcDbEntity
  8
0
100
AcDbPolyline
 62
250
  6
CONTINUOUS
 90
9
 70
0
 10
39.0842009192
 20
-35.0340785899
 10
38.6612634854
 20
-34.5781174977
 10
38.2360648583
 20
-34.1240768224
 10
37.808596106
 20
-33.6719463249
 10
37.3788622327
 20
-33.2217302966
 10
36.9468405471
 20
-32.7734038741
 10
36.5124799011
 20
-32.3269136277
 10
36.075756549
 20
-31.8822355289
 10
35.6366749083
 20
-31.4393743613
  0
LWPOLYLINE
  5
3D8
100
AcDbEntity
  8
0
100
AcDbPolyline
 62
250
  6
CONTINUOUS
 90
10
 70
0
 10
39.0842009192
 20
-31.4098635796
 10
38.7035823286
 20
-30.995001505
 10
38.3223588201
 20
-30.5857062355
 10
37.9400412972
 20
-30.1814299074
 10
37.5566347422
 20
-29.7821345813
 10
37.1712078784
 20
-29.3867988318
 10
36.7818426829
 20
-28.9934412315
 10
36.3875536079
 20
-28.6010893219
 10
35.9883378907
 20
-28.2097559614
 10
35.5837101741
 20
-27.8189626045
  0
LINE
  5
3D9
100
AcDbEntity
  8
0
100
AcDbLine
 62
7
  6
CONTINUOUS
 10
24.346695
 20
-28.800007
 11
23.765441
 21
-27.678657
  0
LINE
  5
3DA
100
AcDbEntity
  8
0
100
AcDbLine
 62
7
  6
CONTINUOUS
 10
24.3825957907
 20
-27.6089026669
 11
25.0
 21
-28.8
  0
LINE
  5
3DB
100
AcDbEntity
  8
0
100
AcDbLine
 62
7
  6
CONTINUOUS
 10
21.352373
 20
-27.678657
 11
21.071268
 21
-26.803118
  0
LINE
  5
3DC
100
AcDbEntity
  8
0
100
AcDbLine
 62
7
  6
CONTINUOUS
 10
21.712408
 20
-28.800007
 11
21.529302
 21
-28.229679
  0
LINE
  5
3DD
100
AcDbEntity
  8
0
100
AcDbLine
 62
7
  6
CONTINUOUS
 10
21.361297
 20
-25.899877
 11
22.292437
 21
-28.800015
  0
LINE
  5
3DE
100
AcDbEntity
  8
0
100
AcDbLine
 62
7
  6
CONTINUOUS
 10
17.755031
 20
-28.800015
 11
17.206656
 21
-26.887573
  0
LINE
  5
3DF
100
AcDbEntity
  8
0
100
AcDbLine
 62
7
  6
CONTINUOUS
 10
17.503471
 20
-25.899884
 11
18.045039
 21
-27.788552
  0
LINE
  5
3E0
100
AcDbEntity
  8
0
100
AcDbLine
 62
7
  6
CONTINUOUS
 10
15.466605
 20
-28.800022
 11
15.466612
 21
-25.899884
  0
LINE
  5
3E1
100
AcDbEntity
  8
0
100
AcDbLine
 62
7
  6
CONTINUOUS
 10
16.046634
 20
-25.899884
 11
16.046627
 21
-28.800015
  0
LINE
  5
3E2
100
AcDbEntity
  8
0
100
AcDbLine
 62
7
  6
CONTINUOUS
 10
16.626634
 20
-28.800015
 11
16.626634
 21
-25.899884
  0
LINE
  5
3E3
100
AcDbEntity
  8
0
100
AcDbLine
 62
7
  6
CONTINUOUS
 10
17.206656
 20
-26.887573
 11
17.206656
 21
-28.800015
  0
LWPOLYLINE
  5
3E4
100
AcDbEntity
  8
0
100
AcDbPolyline
 62
250
  6
CONTINUOUS
 90
10
 70
0
 10
22.4957839733
 20
-25.7004239387
 10
22.4886018462
 20
-25.5189004216
 10
22.4766876582
 20
-25.3376249076
 10
22.4600414093
 20
-25.157345567
 10
22.4385398816
 20
-24.9784221342
 10
22.4123062929
 20
-24.8021063296
 10
22.3817102961
 20
-24.6304417911
 10
22.3468751089
 20
-24.4645722492
 10
22.3076775137
 20
-24.3048422292
 10
22.2641175103
 20
-24.1520063295
  0
LWPOLYLINE
  5
3E5
100
AcDbEntity
  8
0
100
AcDbPolyline
 62
250
  6
CONTINUOUS
 90
4
 70
0
 10
22.2608300941
 20
-22.6039831841
 10
22.2601465936
 20
-22.5764399572
 10
22.2594375878
 20
-22.5589831378
 10
22.2587064677
 20
-22.5518812228
  0
LINE
  5
3E6
100
AcDbEntity
  8
0
100
AcDbLine
 62
7
  6
CONTINUOUS
 10
18.883421
 20
-28.800015
 11
18.883414
 21
-26.887573
  0
LINE
  5
3E7
100
AcDbEntity
  8
0
100
AcDbLine
 62
7
  6
CONTINUOUS
 10
19.463443
 20
-25.899884
 11
19.463443
 21
-28.800015
  0
LWPOLYLINE
  5
3E8
100
AcDbEntity
  8
0
100
AcDbPolyline
 62
250
  6
CONTINUOUS
 90
10
 70
0
 10
22.4957839733
 20
25.7004239387
 10
22.4886018462
 20
25.5189004216
 10
22.4766876582
 20
25.3376249076
 10
22.4600414093
 20
25.157345567
 10
22.4385398816
 20
24.9784221342
 10
22.4123062929
 20
24.8021063296
 10
22.3817102961
 20
24.6304417911
 10
22.3468751089
 20
24.4645722492
 10
22.3076775137
 20
24.3048422292
 10
22.2641175103
 20
24.1520063295
  0
LINE
  5
3E9
100
AcDbEntity
  8
0
100
AcDbLine
 62
7
  6
CONTINUOUS
 10
13.85878
 20
-27.89678
 11
14.499905
 21
-25.899884
  0
LWPOLYLINE
  5
3EA
100
AcDbEntity
  8
0
100
AcDbPolyline
 62
250
  6
CONTINUOUS
 90
16
 70
0
 10
36.83145662
 20
39.7484790161
 10
36.8288572139
 20
39.741555372
 10
36.8209520423
 20
39.7292475878
 10
36.8075981033
 20
39.7114818886
 10
36.7886994878
 20
39.6882456506
 10
36.7641529379
 20
39.6595197549
 10
36.7337977008
 20
39.6252320608
 10
36.6975687516
 20
39.5854339712
 10
36.6554187483
 20
39.5402062053
 10
36.6071677055
 20
39.4895053574
 10
36.552747223
 20
39.4334307373
 10
36.4922561566
 20
39.3722731498
 10
36.4257872556
 20
39.3063347359
 10
36.3534985013
 20
39.2360051443
 10
36.275619779
 20
39.1617688703
 10
36.192447177
 20
39.0842009192
  0
LWPOLYLINE
  5
3EB
100
AcDbEntity
  8
0
100
AcDbPolyline
 62
250
  6
CONTINUOUS
 90
16
 70
0
 10
-39.7453132159
 20
-37.1319684619
 10
-39.7381417761
 20
-37.1293479935
 10
-39.7252979428
 20
-37.1218151167
 10
-39.7067463945
 20
-37.1092473737
 10
-39.6824861471
 20
-37.0915407215
 10
-39.6525516682
 20
-37.068610064
 10
-39.6170143678
 20
-37.0403898719
 10
-39.5759979195
 20
-37.0068462058
 10
-39.5296501965
 20
-36.9679535174
 10
-39.4781330626
 20
-36.9236831658
 10
-39.4214722464
 20
-36.8738661678
 10
-39.3601530121
 20
-36.8187151305
 10
-39.2951971696
 20
-36.7589366189
 10
-39.2273180738
 20
-36.6949807766
 10
-39.1568081736
 20
-36.6268975404
 10
-39.0842009192
 20
-36.5549468208
  0
LWPOLYLINE
  5
3EC
100
AcDbEntity
  8
0
100
AcDbPolyline
 62
250
  6
CONTINUOUS
 90
10
 70
0
 10
25.7004239475
 20
22.49556714
 10
25.5271788914
 20
22.4867199811
 10
25.3538504051
 20
22.4718420982
 10
25.1811922409
 20
22.450933491
 10
25.0096571746
 20
22.4238860015
 10
24.8404391484
 20
22.3908077877
 10
24.6753887701
 20
22.3520233243
 10
24.5156371806
 20
22.3076407694
 10
24.3616816551
 20
22.2575519649
 10
24.2143670218
 20
22.2017569107
  0
LWPOLYLINE
  5
3ED
100
AcDbEntity
  8
0
100
AcDbPolyline
 62
250
  6
CONTINUOUS
 90
10
 70
0
 10
-25.7004239475
 20
22.49556714
 10
-25.5271788914
 20
22.4867199811
 10
-25.3538504051
 20
22.4718420982
 10
-25.1811922409
 20
22.450933491
 10
-25.0096571746
 20
22.4238860015
 10
-24.8404391484
 20
22.3908077877
 10
-24.6753887701
 20
22.3520233243
 10
-24.5156371806
 20
22.3076407694
 10
-24.3616816551
 20
22.2575519649
 10
-24.2143670218
 20
22.2017569107
  0
LWPOLYLINE
  5
3EE
100
AcDbEntity
  8
0
100
AcDbPolyline
 62
250
  6
CONTINUOUS
 90
16
 70
0
 10
-39.745312102
 20
37.1319684083
 10
-39.7381406548
 20
37.1293479329
 10
-39.7252968178
 20
37.121815037
 10
-39.7067452715
 20
37.1092472655
 10
-39.6824850314
 20
37.0915405762
 10
-39.6525505673
 20
37.0686098758
 10
-39.6170132971
 20
37.040389643
 10
-39.5759968987
 20
37.0068459443
 10
-39.5296492455
 20
36.9679532346
 10
-39.4781322057
 20
36.9236828797
 10
-39.4214715127
 20
36.8738659049
 10
-39.3601524249
 20
36.8187149175
 10
-39.2951967365
 20
36.7589364743
 10
-39.2273177923
 20
36.6949807152
 10
-39.156808039
 20
36.62689758
 10
-39.0842009193
 20
36.5549469784
  0
LWPOLYLINE
  5
3EF
100
AcDbEntity
  8
0
100
AcDbPolyline
 62
250
  6
CONTINUOUS
 90
16
 70
0
 10
36.8314563088
 20
-39.7484790161
 10
36.8288569034
 20
-39.7415553707
 10
36.8209517341
 20
-39.7292475843
 10
36.8075977992
 20
-39.7114818821
 10
36.7886991895
 20
-39.6882456407
 10
36.7641526475
 20
-39.6595197416
 10
36.7337974201
 20
-39.6252320445
 10
36.6975684831
 20
-39.5854339529
 10
36.6554184938
 20
-39.5402061861
 10
36.6071674658
 20
-39.4895053376
 10
36.5527469975
 20
-39.4334307164
 10
36.4922559446
 20
-39.3722731279
 10
36.4257870578
 20
-39.3063347152
 10
36.3534983185
 20
-39.236005128
 10
36.2756196105
 20
-39.1617688608
 10
36.1924470213
 20
-39.0842009192
  0
LWPOLYLINE
  5
3F0
100
AcDbEntity
  8
0
100
AcDbPolyline
 62
7
  6
CONTINUOUS
 90
19
 70
0
 10
24.2143662665
 20
22.2017569107
 10
24.2069053907
 20
22.3674857601
 10
24.1846488959
 20
22.5348522834
 10
24.1477917099
 20
22.7018962824
 10
24.0963824888
 20
22.8670418065
 10
24.0307127221
 20
23.0277768376
 10
23.9516812679
 20
23.1808116885
 10
23.8602700618
 20
23.3238245585
 10
23.7572819847
 20
23.456853512
 10
23.6435772417
 20
23.5803621954
 10
23.5202001972
 20
23.6940603731
 10
23.3874271623
 20
23.797005835
 10
23.2447103941
 20
23.8884292901
 10
23.0920431174
 20
23.9674847042
 10
22.931672323
 20
24.0332231743
 10
22.7665598758
 20
24.0848335162
 10
22.5990895376
 20
24.1219646759
 10
22.4309459622
 20
24.1444490721
 10
22.2641175103
 20
24.1520056669
  0
LINE
  5
3F1
100
AcDbEntity
  8
0
100
AcDbLine
 62
250
  6
CONTINUOUS
 10
22.2621034276
 20
-22.6877963108
 11
22.2608300941
 21
-22.6039831841
  0
LINE
  5
3F2
100
AcDbEntity
  8
0
100
AcDbLine
 62
250
  6
CONTINUOUS
 10
22.2637502834
 20
-22.8830389768
 11
22.2621034276
 21
-22.6877963108
  0
LINE
  5
3F3
100
AcDbEntity
  8
0
100
AcDbLine
 62
250
  6
CONTINUOUS
 10
22.2654002121
 20
-23.3539077327
 11
22.2637502834
 21
-22.8830389768
  0
LINE
  5
3F4
100
AcDbEntity
  8
0
100
AcDbLine
 62
250
  6
CONTINUOUS
 10
22.2641175103
 20
24.1520055875
 11
22.2654998753
 21
23.6710893347
  0
LINE
  5
3F5
100
AcDbEntity
  8
0
100
AcDbLine
 62
250
  6
CONTINUOUS
 10
22.2587064677
 20
-22.5518810923
 11
22.2587064677
 21
-22.5253953777
  0
LINE
  5
3F6
100
AcDbEntity
  8
0
100
AcDbLine
 62
250
  6
CONTINUOUS
 10
22.2587064677
 20
22.5253953777
 11
22.2587064677
 21
22.5518810923
  0
LINE
  5
3F7
100
AcDbEntity
  8
0
100
AcDbLine
 62
7
  6
CONTINUOUS
 10
22.5751466214
 20
-22.2089552239
 11
22.5751466214
 21
22.2089552239
  0
LINE
  5
3F8
100
AcDbEntity
  8
0
100
AcDbLine
 62
250
  6
CONTINUOUS
 10
22.6016323361
 20
-22.2089552239
 11
22.6016323361
 21
22.2089552239
  0
LINE
  5
3F9
100
AcDbEntity
  8
0
100
AcDbLine
 62
7
  6
CONTINUOUS
 10
22.679115
 20
-28.800007
 11
22.679115
 21
-25.899877
  0
LINE
  5
3FA
100
AcDbEntity
  8
0
100
AcDbLine
 62
7
  6
CONTINUOUS
 10
23.25114
 20
-26.436398
 11
23.251148
 21
-27.142128
  0
LINE
  5
3FB
100
AcDbEntity
  8
0
100
AcDbLine
 62
250
  6
CONTINUOUS
 10
24.2143670218
 20
22.2017569107
 11
24.2143661822
 21
-22.2017569107
  0
LINE
  5
3FC
100
AcDbEntity
  8
0
100
AcDbLine
 62
7
  6
CONTINUOUS
 10
25.7004239475
 20
-22.49556714
 11
25.7004239475
 21
22.49556714
  0
LINE
  5
3FD
100
AcDbEntity
  8
0
100
AcDbLine
 62
7
  6
CONTINUOUS
 10
23.25921
 20
-27.67865
 11
23.259144
 21
-28.800007
  0
LINE
  5
3FE
100
AcDbEntity
  8
0
100
AcDbLine
 62
250
  6
CONTINUOUS
 10
22.2648923294
 20
-23.9716647502
 11
22.2654002121
 21
-23.3539077327
  0
LINE
  5
3FF
100
AcDbEntity
  8
0
100
AcDbLine
 62
250
  6
CONTINUOUS
 10
22.2654998753
 20
23.6710893347
 11
22.2646065206
 21
23.0542360144
  0
LINE
  5
400
100
AcDbEntity
  8
0
100
AcDbLine
 62
250
  6
CONTINUOUS
 10
22.2641175103
 20
-24.1520055875
 11
22.2648923294
 21
-23.9716647502
  0
LINE
  5
401
100
AcDbEntity
  8
0
100
AcDbLine
 62
250
  6
CONTINUOUS
 10
22.2646065206
 20
23.0542360144
 11
22.2626909246
 21
22.7437497346
  0
LWPOLYLINE
  5
402
100
AcDbEntity
  8
0
100
AcDbPolyline
 62
250
  6
CONTINUOUS
 90
6
 70
0
 10
22.2626909246
 20
22.7437497346
 10
22.2614830826
 20
22.641203883
 10
22.2608300941
 20
22.6039831841
 10
22.2601465936
 20
22.5764399572
 10
22.2594375878
 20
22.5589831378
 10
22.2587064677
 20
22.5518812228
  0
LWPOLYLINE
  5
403
100
AcDbEntity
  8
0
100
AcDbPolyline
 62
7
  6
CONTINUOUS
 90
19
 70
0
 10
24.2143662665
 20
-22.2017569107
 10
24.2069053906
 20
-22.3674857602
 10
24.1846488959
 20
-22.5348522835
 10
24.1477917098
 20
-22.7018962826
 10
24.0963824887
 20
-22.8670418067
 10
24.0307127219
 20
-23.0277768378
 10
23.9516812678
 20
-23.1808116888
 10
23.8602700617
 20
-23.3238245587
 10
23.7572819846
 20
-23.4568535122
 10
23.6435772416
 20
-23.5803621955
 10
23.520200197
 20
-23.6940603732
 10
23.3874271621
 20
-23.7970058352
 10
23.2447103938
 20
-23.8884292902
 10
23.0920431172
 20
-23.9674847043
 10
22.9316723228
 20
-24.0332231744
 10
22.7665598756
 20
-24.0848335163
 10
22.5990895374
 20
-24.1219646759
 10
22.4309459621
 20
-24.1444490721
 10
22.2641175103
 20
-24.1520056669
  0
LINE
  5
404
100
AcDbEntity
  8
0
100
AcDbLine
 62
7
  6
CONTINUOUS
 10
18.045039
 20
-27.788552
 11
18.586606
 21
-25.899884
  0
LINE
  5
405
100
AcDbEntity
  8
0
100
AcDbLine
 62
7
  6
CONTINUOUS
 10
18.883414
 20
-26.887573
 11
18.335039
 21
-28.800007
  0
LINE
  5
406
100
AcDbEntity
  8
0
100
AcDbLine
 62
7
  6
CONTINUOUS
 10
15.079934
 20
-25.899884
 11
14.148794
 21
-28.800015
  0
LWPOLYLINE
  5
407
100
AcDbEntity
  8
0
100
AcDbPolyline
 62
250
  6
CONTINUOUS
 90
16
 70
0
 10
-39.7484790162
 20
-36.83145662
 10
-39.7413355048
 20
-36.8290777688
 10
-39.7285122922
 20
-36.8218423971
 10
-39.7099729698
 20
-36.809614462
 10
-39.6857272927
 20
-36.792282909
 10
-39.655805979
 20
-36.7697435505
 10
-39.6202439026
 20
-36.7418820972
 10
-39.5791558069
 20
-36.708631728
 10
-39.5326871771
 20
-36.669935803
 10
-39.4809511923
 20
-36.6256903958
 10
-39.4239471245
 20
-36.5756614615
 10
-39.3621889168
 20
-36.5200367308
 10
-39.2967342
 20
-36.4595046319
 10
-39.228328436
 20
-36.3944945498
 10
-39.1572919411
 20
-36.3250245523
 10
-39.0842009192
 20
-36.2513322422
  0
LWPOLYLINE
  5
408
100
AcDbEntity
  8
0
100
AcDbPolyline
 62
250
  6
CONTINUOUS
 90
5
 70
0
 10
-22.6921275524
 20
22.2051885428
 10
-22.654422234
 20
22.2060732679
 10
-22.6265128881
 20
22.2070001667
 10
-22.6088237232
 20
22.2079623586
 10
-22.6016324719
 20
22.2089552239
  0
LINE
  5
409
100
AcDbEntity
  8
0
100
AcDbLine
 62
250
  6
CONTINUOUS
 10
-22.7959784812
 20
22.2035542302
 11
-22.6921275524
 21
22.2051885428
  0
LWPOLYLINE
  5
40A
100
AcDbEntity
  8
0
100
AcDbPolyline
 62
7
  6
CONTINUOUS
 90
10
 70
0
 10
-22.4957839721
 20
25.7004236916
 10
-22.5185916092
 20
25.7002015469
 10
-22.5413074102
 20
25.6998605383
 10
-22.5639290977
 20
25.6993947837
 10
-22.5864547454
 20
25.698798536
 10
-22.6088818731
 20
25.6980662048
 10
-22.6312074492
 20
25.6971923741
 10
-22.6534290953
 20
25.6961717633
 10
-22.675545083
 20
25.6949992068
 10
-22.6975534312
 20
25.693669689
  0
LINE
  5
40B
100
AcDbEntity
  8
0
100
AcDbLine
 62
250
  6
CONTINUOUS
 10
-23.0198965761
 20
22.2015098413
 11
-22.7959784812
 21
22.2035542302
  0
LINE
  5
40C
100
AcDbEntity
  8
0
100
AcDbLine
 62
250
  6
CONTINUOUS
 10
24.2143662665
 20
22.2017569107
 11
23.8372214896
 21
22.2000002583
  0
LINE
  5
40D
100
AcDbEntity
  8
0
100
AcDbLine
 62
250
  6
CONTINUOUS
 10
-23.4132029252
 20
22.1999190729
 11
-23.0198965761
 21
22.2015098413
  0
LINE
  5
40E
100
AcDbEntity
  8
0
100
AcDbLine
 62
250
  6
CONTINUOUS
 10
22.6016323361
 20
22.2089552239
 11
22.5751466214
 21
22.2089552239
  0
LINE
  5
40F
100
AcDbEntity
  8
0
100
AcDbLine
 62
250
  6
CONTINUOUS
 10
-22.5751466214
 20
22.2089552239
 11
-22.6016323361
 21
22.2089552239
  0
LINE
  5
410
100
AcDbEntity
  8
0
100
AcDbLine
 62
7
  6
CONTINUOUS
 10
22.2587064677
 20
22.5253953777
 11
-22.2587064677
 21
22.5253953777
  0
LINE
  5
411
100
AcDbEntity
  8
0
100
AcDbLine
 62
250
  6
CONTINUOUS
 10
22.2587064677
 20
22.5518810923
 11
-22.2587064677
 21
22.5518810923
  0
LINE
  5
412
100
AcDbEntity
  8
0
100
AcDbLine
 62
250
  6
CONTINUOUS
 10
-22.2641175103
 20
24.1520063295
 11
22.2641175103
 21
24.1520055875
  0
LINE
  5
413
100
AcDbEntity
  8
0
100
AcDbLine
 62
7
  6
CONTINUOUS
 10
22.4957839733
 20
25.7004239387
 11
-22.4957839721
 21
25.7004236916
  0
LINE
  5
414
100
AcDbEntity
  8
0
100
AcDbLine
 62
250
  6
CONTINUOUS
 10
23.8372214896
 20
22.2000002583
 11
23.3096121106
 21
22.2001661416
  0
LINE
  5
415
100
AcDbEntity
  8
0
100
AcDbLine
 62
250
  6
CONTINUOUS
 10
-23.9374526759
 20
22.2002874674
 11
-23.4132029252
 21
22.1999190729
  0
LINE
  5
416
100
AcDbEntity
  8
0
100
AcDbLine
 62
250
  6
CONTINUOUS
 10
-24.2143661822
 20
22.2017569107
 11
-23.9374526759
 21
22.2002874674
  0
LINE
  5
417
100
AcDbEntity
  8
0
100
AcDbLine
 62
250
  6
CONTINUOUS
 10
23.3096121106
 20
22.2001661416
 11
22.9377086987
 21
22.2021183158
  0
LWPOLYLINE
  5
418
100
AcDbEntity
  8
0
100
AcDbPolyline
 62
7
  6
CONTINUOUS
 90
10
 70
0
 10
22.4957839709
 20
25.7004235177
 10
22.5185905511
 20
25.7001839745
 10
22.5413058806
 20
25.6998338825
 10
22.5639276812
 20
25.6993656036
 10
22.5864544511
 20
25.6987716554
 10
22.6088832816
 20
25.6980447658
 10
22.6312098636
 20
25.6971779153
 10
22.6534313958
 20
25.696164247
 10
22.6755465778
 20
25.6949970188
 10
22.6975534312
 20
25.693669689
  0
LINE
  5
419
100
AcDbEntity
  8
0
100
AcDbLine
 62
250
  6
CONTINUOUS
 10
22.9377086987
 20
22.2021183158
 11
22.7963781599
 21
22.2035492262
  0
LWPOLYLINE
  5
41A
100
AcDbEntity
  8
0
100
AcDbPolyline
 62
250
  6
CONTINUOUS
 90
6
 70
0
 10
22.7963781599
 20
22.2035492262
 10
22.6922850854
 20
22.2051854311
 10
22.6545020068
 20
22.2060712237
 10
22.6265463537
 20
22.2069989751
 10
22.6088319621
 20
22.2079618632
 10
22.6016323361
 20
22.2089552239
  0
LWPOLYLINE
  5
41B
100
AcDbEntity
  8
0
100
AcDbPolyline
 62
250
  6
CONTINUOUS
 90
16
 70
0
 10
-39.7484790161
 20
36.83145662
 10
-39.7413355048
 20
36.8290777688
 10
-39.7285122924
 20
36.821842397
 10
-39.7099729708
 20
36.8096144619
 10
-39.6857272953
 20
36.7922829088
 10
-39.6558059842
 20
36.7697435502
 10
-39.6202439111
 20
36.7418820964
 10
-39.5791558199
 20
36.7086317263
 10
-39.5326871954
 20
36.6699357993
 10
-39.480951215
 20
36.6256903875
 10
-39.4239471495
 20
36.5756614454
 10
-39.3621889423
 20
36.5200367046
 10
-39.2967342234
 20
36.4595045938
 10
-39.2283284545
 20
36.3944944985
 10
-39.1572919517
 20
36.3250244875
 10
-39.0842009192
 20
36.2513321645
  0
LWPOLYLINE
  5
41C
100
AcDbEntity
  8
0
100
AcDbPolyline
 62
7
  6
CONTINUOUS
 90
10
 70
0
 10
25.6936770885
 20
22.6975541339
 10
25.6950061096
 20
22.6755226629
 10
25.6961779841
 20
22.6533831959
 10
25.6971977759
 20
22.6311377598
 10
25.698070696
 20
22.6087881447
 10
25.6988020687
 20
22.5863367585
 10
25.6993973519
 20
22.5637866297
 10
25.699862173
 20
22.5411402683
 10
25.7002023128
 20
22.5183996634
 10
25.7004236849
 20
22.4955671387
  0
LWPOLYLINE
  5
41D
100
AcDbEntity
  8
0
100
AcDbPolyline
 62
7
  6
CONTINUOUS
 90
10
 70
0
 10
25.6936770951
 20
-22.6975540345
 10
25.6950039067
 20
-22.6755240941
 10
25.696170401
 20
-22.6533854613
 10
25.6971831799
 20
-22.6311401594
 10
25.6980490414
 20
-22.6087895465
 10
25.6987748973
 20
-22.5863364559
 10
25.6993678184
 20
-22.5637852038
 10
25.6998351241
 20
-22.541138732
 10
25.7001843395
 20
-22.5183986009
 10
25.7004231432
 20
-22.495567135
  0
LINE
  5
41E
100
AcDbEntity
  8
0
100
AcDbLine
 62
7
  6
CONTINUOUS
 10
19.850122
 20
-28.800015
 11
20.781247
 21
-25.899877
  0
LINE
  5
41F
100
AcDbEntity
  8
0
100
AcDbLine
 62
7
  6
CONTINUOUS
 10
21.071268
 20
-26.803118
 11
20.790179
 21
-27.678657
  0
LINE
  5
420
100
AcDbEntity
  8
0
100
AcDbLine
 62
7
  6
CONTINUOUS
 10
20.613257
 20
-28.229679
 11
20.430144
 21
-28.800007
  0
LWPOLYLINE
  5
421
100
AcDbEntity
  8
0
100
AcDbPolyline
 62
7
  6
CONTINUOUS
 90
10
 70
0
 10
-22.6975532318
 20
25.6936697018
 10
-22.8270108659
 20
25.6827822401
 10
-22.9554413937
 20
25.6668385923
 10
-23.082728991
 20
25.6458881973
 10
-23.2087475905
 20
25.6199798285
 10
-23.3334209439
 20
25.5891416781
 10
-23.4565823413
 20
25.5534289835
 10
-23.5778523269
 20
25.5129699074
 10
-23.6969290795
 20
25.4678942332
 10
-23.8140067922
 20
25.418149544
  0
LWPOLYLINE
  5
422
100
AcDbEntity
  8
0
100
AcDbPolyline
 62
7
  6
CONTINUOUS
 90
10
 70
0
 10
22.6975532318
 20
25.6936697018
 10
22.8270108659
 20
25.6827822401
 10
22.9554413937
 20
25.6668385923
 10
23.082728991
 20
25.6458881973
 10
23.2087475905
 20
25.6199798285
 10
23.3334209439
 20
25.5891416781
 10
23.4565823413
 20
25.5534289835
 10
23.5778523269
 20
25.5129699074
 10
23.6969290795
 20
25.4678942332
 10
23.8140067922
 20
25.418149544
  0
LINE
  5
423
100
AcDbEntity
  8
0
100
AcDbLine
 62
250
  6
CONTINUOUS
 10
31.0428583296
 20
23.8787684896
 11
31.0753277209
 21
23.3424457485
  0
LINE
  5
424
100
AcDbEntity
  8
0
100
AcDbLine
 62
250
  6
CONTINUOUS
 10
31.0753277209
 20
23.3424457485
 11
31.1672112533
 21
21.6493161037
  0
LINE
  5
425
100
AcDbEntity
  8
0
100
AcDbLine
 62
250
  6
CONTINUOUS
 10
31.1672112533
 20
21.6493161037
 11
31.258333052
 21
19.8264803094
  0
LINE
  5
426
100
AcDbEntity
  8
0
100
AcDbLine
 62
250
  6
CONTINUOUS
 10
31.258333052
 20
19.8264803094
 11
31.347630099
 21
17.859779274
  0
LINE
  5
427
100
AcDbEntity
  8
0
100
AcDbLine
 62
250
  6
CONTINUOUS
 10
31.347630099
 20
17.859779274
 11
31.4053978822
 21
16.4624397285
  0
LINE
  5
428
100
AcDbEntity
  8
0
100
AcDbLine
 62
250
  6
CONTINUOUS
 10
31.4053978822
 20
16.4624397285
 11
31.4611154439
 21
14.9916275732
  0
LINE
  5
429
100
AcDbEntity
  8
0
100
AcDbLine
 62
250
  6
CONTINUOUS
 10
31.4611154439
 20
14.9916275732
 11
31.5141534554
 21
13.4426690786
  0
LINE
  5
42A
100
AcDbEntity
  8
0
100
AcDbLine
 62
250
  6
CONTINUOUS
 10
31.5141534554
 20
13.4426690786
 11
31.5637339692
 21
11.8121770174
  0
LINE
  5
42B
100
AcDbEntity
  8
0
100
AcDbLine
 62
250
  6
CONTINUOUS
 10
31.5637339692
 20
11.8121770174
 11
31.6090299193
 21
10.0947437671
  0
LINE
  5
42C
100
AcDbEntity
  8
0
100
AcDbLine
 62
250
  6
CONTINUOUS
 10
31.6090299193
 20
10.0947437671
 11
31.6490868437
 21
8.2842338753
  0
LINE
  5
42D
100
AcDbEntity
  8
0
100
AcDbLine
 62
250
  6
CONTINUOUS
 10
31.6490868437
 20
8.2842338753
 11
31.6827554854
 21
6.3763100428
  0
LINE
  5
42E
100
AcDbEntity
  8
0
100
AcDbLine
 62
250
  6
CONTINUOUS
 10
31.6827554854
 20
6.3763100428
 11
31.7087683936
 21
4.363995468
  0
LINE
  5
42F
100
AcDbEntity
  8
0
100
AcDbLine
 62
250
  6
CONTINUOUS
 10
31.7087683936
 20
4.363995468
 11
31.7256531596
 21
2.2393457783
  0
LINE
  5
430
100
AcDbEntity
  8
0
100
AcDbLine
 62
250
  6
CONTINUOUS
 10
31.7256531596
 20
2.2393457783
 11
31.7316879503
 21
0.0
  0
LINE
  5
431
100
AcDbEntity
  8
0
100
AcDbLine
 62
250
  6
CONTINUOUS
 10
31.7316879503
 20
0.0
 11
31.725650438
 21
-2.2398450192
  0
LINE
  5
432
100
AcDbEntity
  8
0
100
AcDbLine
 62
250
  6
CONTINUOUS
 10
31.725650438
 20
-2.2398450192
 11
31.7087588959
 21
-4.3648931361
  0
LINE
  5
433
100
AcDbEntity
  8
0
100
AcDbLine
 62
250
  6
CONTINUOUS
 10
31.7087588959
 20
-4.3648931361
 11
31.6827370458
 21
-6.3775082039
  0
LINE
  5
434
100
AcDbEntity
  8
0
100
AcDbLine
 62
250
  6
CONTINUOUS
 10
31.6827370458
 20
-6.3775082039
 11
31.6490587491
 21
-8.2856457193
  0
LINE
  5
435
100
AcDbEntity
  8
0
100
AcDbLine
 62
250
  6
CONTINUOUS
 10
31.6490587491
 20
-8.2856457193
 11
31.608992378
 21
-10.0962925363
  0
LINE
  5
436
100
AcDbEntity
  8
0
100
AcDbLine
 62
250
  6
CONTINUOUS
 10
31.608992378
 20
-10.0962925363
 11
31.5636877964
 21
-11.8137942894
  0
LINE
  5
437
100
AcDbEntity
  8
0
100
AcDbLine
 62
250
  6
CONTINUOUS
 10
31.5636877964
 20
-11.8137942894
 11
31.51410059
 21
-13.4442914689
  0
LINE
  5
438
100
AcDbEntity
  8
0
100
AcDbLine
 62
250
  6
CONTINUOUS
 10
31.51410059
 20
-13.4442914689
 11
31.4610589351
 21
-14.993196492
  0
LINE
  5
439
100
AcDbEntity
  8
0
100
AcDbLine
 62
250
  6
CONTINUOUS
 10
31.4610589351
 20
-14.993196492
 11
31.4053396968
 21
-16.4639088598
  0
LINE
  5
43A
100
AcDbEntity
  8
0
100
AcDbLine
 62
250
  6
CONTINUOUS
 10
31.4053396968
 20
-16.4639088598
 11
31.3475720392
 21
-17.8611012
  0
LINE
  5
43B
100
AcDbEntity
  8
0
100
AcDbLine
 62
250
  6
CONTINUOUS
 10
31.3475720392
 20
-17.8611012
 11
31.2582877975
 21
-19.8275030121
  0
LINE
  5
43C
100
AcDbEntity
  8
0
100
AcDbLine
 62
250
  6
CONTINUOUS
 10
31.2582877975
 20
-19.8275030121
 11
31.1672019934
 21
-21.6499587879
  0
LWPOLYLINE
  5
43D
100
AcDbEntity
  8
0
100
AcDbPolyline
 62
250
  6
CONTINUOUS
 90
3
 70
0
 10
31.1672019934
 20
-21.6499587879
 10
31.0753216694
 20
-23.3426168297
 10
31.0428583296
 20
-23.8787684896
  0
LWPOLYLINE
  5
43E
100
AcDbEntity
  8
0
100
AcDbPolyline
 62
7
  6
CONTINUOUS
 90
10
 70
0
 10
25.4181604729
 20
-23.8140116503
 10
25.467893648
 20
-23.697017582
 10
25.5129689628
 20
-23.5779987095
 10
25.5534315552
 20
-23.4567685171
 10
25.5891500232
 20
-23.3336270487
 10
25.6199938188
 20
-23.20895281
 10
25.6459040104
 20
-23.0829202684
 10
25.6668525668
 20
-22.9556026122
 10
25.6827930364
 20
-22.8271115384
 10
25.6936771078
 20
-22.6975538356
  0
LWPOLYLINE
  5
43F
100
AcDbEntity
  8
0
100
AcDbPolyline
 62
7
  6
CONTINUOUS
 90
10
 70
0
 10
25.3342759429
 20
-23.9867323104
 10
25.3441110474
 20
-23.9677958642
 10
25.3538145468
 20
-23.9488017236
 10
25.3633872185
 20
-23.9297484089
 10
25.3728282137
 20
-23.9106377609
 10
25.3821399879
 20
-23.8914649889
 10
25.3913280712
 20
-23.8722185735
 10
25.4003946044
 20
-23.8528935779
 10
25.4093385683
 20
-23.8334917433
 10
25.4181605539
 20
-23.8140114698
  0
LINE
  5
440
100
AcDbEntity
  8
0
100
AcDbLine
 62
7
  6
CONTINUOUS
 10
40.0
 20
3.7099727925
 11
39.8674790937
 21
3.5
  0
LWPOLYLINE
  5
441
100
AcDbEntity
  8
0
100
AcDbPolyline
 62
7
  6
CONTINUOUS
 90
10
 70
0
 10
23.8140067018
 20
-25.4181495847
 10
24.0235757257
 20
-25.3147082268
 10
24.2263668455
 20
-25.1951698725
 10
24.4204511259
 20
-25.0603794193
 10
24.6044109648
 20
-24.9113158196
 10
24.7772684617
 20
-24.7487207917
 10
24.9376437687
 20
-24.5737926985
 10
25.084495494
 20
-24.3877815052
 10
25.2171974073
 20
-24.191376508
 10
25.334276035
 20
-23.9867321345
  0
LWPOLYLINE
  5
442
100
AcDbEntity
  8
0
100
AcDbPolyline
 62
250
  6
CONTINUOUS
 90
10
 70
0
 10
-24.0865663579
 20
31.0246453689
 10
-24.4194233623
 20
30.9867183478
 10
-24.7440592551
 20
30.9389530781
 10
-25.0601043683
 20
30.8817925962
 10
-25.3672939211
 20
30.8156839022
 10
-25.6652859109
 20
30.7411126747
 10
-25.953604301
 20
30.6586394507
 10
-26.2310874778
 20
30.5690171573
 10
-26.4982262259
 20
30.4725193503
 10
-26.7549907543
 20
30.369619874
  0
LINE
  5
443
100
AcDbEntity
  8
0
100
AcDbLine
 62
250
  6
CONTINUOUS
 10
-23.4704915319
 20
31.0718057336
 11
-24.0865663579
 21
31.0246453689
  0
LINE
  5
444
100
AcDbEntity
  8
0
100
AcDbLine
 62
250
  6
CONTINUOUS
 10
-21.5062819963
 20
31.1850948923
 11
-23.4704915319
 21
31.0718057336
  0
LINE
  5
445
100
AcDbEntity
  8
0
100
AcDbLine
 62
250
  6
CONTINUOUS
 10
-20.1107826258
 20
31.2571143767
 11
-21.5062819963
 21
31.1850948923
  0
LINE
  5
446
100
AcDbEntity
  8
0
100
AcDbLine
 62
250
  6
CONTINUOUS
 10
-18.6408520341
 20
31.3260687252
 11
-20.1107826258
 21
31.2571143767
  0
LINE
  5
447
100
AcDbEntity
  8
0
100
AcDbLine
 62
250
  6
CONTINUOUS
 10
-17.0915176699
 20
31.3910568595
 11
-18.6408520341
 21
31.3260687252
  0
LINE
  5
448
100
AcDbEntity
  8
0
100
AcDbLine
 62
250
  6
CONTINUOUS
 10
-15.4590158824
 20
31.4514135349
 11
-17.0915176699
 21
31.3910568595
  0
LINE
  5
449
100
AcDbEntity
  8
0
100
AcDbLine
 62
250
  6
CONTINUOUS
 10
-13.737508598
 20
31.5063665256
 11
-15.4590158824
 21
31.4514135349
  0
LINE
  5
44A
100
AcDbEntity
  8
0
100
AcDbLine
 62
250
  6
CONTINUOUS
 10
-11.9211480513
 20
31.554625312
 11
-13.737508598
 21
31.5063665256
  0
LINE
  5
44B
100
AcDbEntity
  8
0
100
AcDbLine
 62
250
  6
CONTINUOUS
 10
-10.005824294
 20
31.5945871013
 11
-11.9211480513
 21
31.554625312
  0
LWPOLYLINE
  5
44C
100
AcDbEntity
  8
0
100
AcDbPolyline
 62
250
  6
CONTINUOUS
 90
3
 70
0
 10
-6.9331614168
 20
31.6353247313
 10
-7.9851491095
 20
31.6248559347
 10
-10.005824294
 20
31.5945871013
  0
LINE
  5
44D
100
AcDbEntity
  8
0
100
AcDbLine
 62
250
  6
CONTINUOUS
 10
-4.7437860093
 20
31.6461530537
 11
-6.9331614168
 21
31.6353247313
  0
LWPOLYLINE
  5
44E
100
AcDbEntity
  8
0
100
AcDbPolyline
 62
250
  6
CONTINUOUS
 90
5
 70
0
 10
8.0386009857
 20
31.6241940973
 10
6.9821782914
 20
31.6349712968
 10
5.8962792593
 20
31.6422284812
 10
4.7809194226
 20
31.6462085815
 10
-4.7437860093
 20
31.6461530537
  0
LINE
  5
44F
100
AcDbEntity
  8
0
100
AcDbLine
 62
250
  6
CONTINUOUS
 10
10.065272016
 20
31.5935211002
 11
8.0386009857
 21
31.6241940973
  0
LINE
  5
450
100
AcDbEntity
  8
0
100
AcDbLine
 62
250
  6
CONTINUOUS
 10
11.9831080793
 20
31.5531397882
 11
10.065272016
 21
31.5935211002
  0
LINE
  5
451
100
AcDbEntity
  8
0
100
AcDbLine
 62
250
  6
CONTINUOUS
 10
13.799049451
 20
31.5045674265
 11
11.9831080793
 21
31.5531397882
  0
LINE
  5
452
100
AcDbEntity
  8
0
100
AcDbLine
 62
250
  6
CONTINUOUS
 10
15.5174972195
 20
31.4493826686
 11
13.799049451
 21
31.5045674265
  0
LINE
  5
453
100
AcDbEntity
  8
0
100
AcDbLine
 62
250
  6
CONTINUOUS
 10
17.1447396561
 20
31.3889478129
 11
15.5174972195
 21
31.4493826686
  0
LINE
  5
454
100
AcDbEntity
  8
0
100
AcDbLine
 62
250
  6
CONTINUOUS
 10
18.6867504686
 20
31.3240307057
 11
17.1447396561
 21
31.3889478129
  0
LINE
  5
455
100
AcDbEntity
  8
0
100
AcDbLine
 62
250
  6
CONTINUOUS
 10
20.1474317185
 20
31.2553421256
 11
18.6867504686
 21
31.3240307057
  0
LINE
  5
456
100
AcDbEntity
  8
0
100
AcDbLine
 62
250
  6
CONTINUOUS
 10
21.5326261781
 20
31.1834522811
 11
20.1474317185
 21
31.2553421256
  0
LWPOLYLINE
  5
457
100
AcDbEntity
  8
0
100
AcDbPolyline
 62
250
  6
CONTINUOUS
 90
3
 70
0
 10
24.0865663579
 20
31.0246453689
 10
23.4774918237
 20
31.0711595159
 10
21.5326261781
 20
31.1834522811
  0
LWPOLYLINE
  5
458
100
AcDbEntity
  8
0
100
AcDbPolyline
 62
250
  6
CONTINUOUS
 90
10
 70
0
 10
24.0865663579
 20
31.0246453689
 10
24.4194233623
 20
30.9867183478
 10
24.7440592551
 20
30.9389530781
 10
25.0601043683
 20
30.8817925962
 10
25.3672939211
 20
30.8156839022
 10
25.6652859109
 20
30.7411126747
 10
25.953604301
 20
30.6586394507
 10
26.2310874778
 20
30.5690171573
 10
26.4982262259
 20
30.4725193503
 10
26.7549907543
 20
30.369619874
  0
LWPOLYLINE
  5
459
100
AcDbEntity
  8
0
100
AcDbPolyline
 62
7
  6
CONTINUOUS
 90
10
 70
0
 10
23.8140066113
 20
25.4181496252
 10
24.0235756409
 20
25.314708272
 10
24.2263667662
 20
25.1951699226
 10
24.4204510519
 20
25.0603794742
 10
24.6044108959
 20
24.9113158795
 10
24.7772683977
 20
24.7487208566
 10
24.9376437094
 20
24.5737927688
 10
25.0844954392
 20
24.3877815811
 10
25.2171973569
 20
24.1913765898
 10
25.334275989
 20
23.9867322225
  0
LINE
  5
45A
100
AcDbEntity
  8
0
100
AcDbLine
 62
7
  6
CONTINUOUS
 10
39.8674790937
 20
-3.5
 11
40.0
 21
-3.7099727925
  0
LWPOLYLINE
  5
45B
100
AcDbEntity
  8
0
100
AcDbPolyline
 62
7
  6
CONTINUOUS
 90
10
 70
0
 10
25.3342758969
 20
23.9867323983
 10
25.344111002
 20
23.9677959524
 10
25.3538145021
 20
23.9488018121
 10
25.3633871744
 20
23.9297484976
 10
25.3728281702
 20
23.9106378499
 10
25.382139945
 20
23.8914650781
 10
25.391328029
 20
23.872218663
 10
25.4003945628
 20
23.8528936676
 10
25.4093385273
 20
23.8334918333
 10
25.4181605135
 20
23.8140115601
  0
LWPOLYLINE
  5
45C
100
AcDbEntity
  8
0
100
AcDbPolyline
 62
7
  6
CONTINUOUS
 90
10
 70
0
 10
25.4181604325
 20
23.8140117406
 10
25.4678936115
 20
23.697017673
 10
25.51296893
 20
23.5779988012
 10
25.5534315262
 20
23.4567686096
 10
25.589149998
 20
23.3336271421
 10
25.6199937973
 20
23.2089529043
 10
25.6459039926
 20
23.0829203639
 10
25.6668525527
 20
22.9556027088
 10
25.682793026
 20
22.8271116364
 10
25.6936771012
 20
22.697553935
  0
LINE
  5
45D
100
AcDbEntity
  8
0
100
AcDbLine
 62
250
  6
CONTINUOUS
 10
35.5837101741
 20
27.8189626045
 11
35.6251694307
 21
26.5985653274
  0
LINE
  5
45E
100
AcDbEntity
  8
0
100
AcDbLine
 62
250
  6
CONTINUOUS
 10
35.6251694307
 20
26.5985653274
 11
35.6946295393
 21
24.0551233639
  0
LINE
  5
45F
100
AcDbEntity
  8
0
100
AcDbLine
 62
250
  6
CONTINUOUS
 10
35.6946295393
 20
24.0551233639
 11
35.7601260278
 21
21.3775904381
  0
LINE
  5
460
100
AcDbEntity
  8
0
100
AcDbLine
 62
250
  6
CONTINUOUS
 10
35.7601260278
 20
21.3775904381
 11
35.8208183804
 21
18.553935027
  0
LINE
  5
461
100
AcDbEntity
  8
0
100
AcDbLine
 62
250
  6
CONTINUOUS
 10
35.8208183804
 20
18.553935027
 11
35.8754991765
 21
15.5773500183
  0
LINE
  5
462
100
AcDbEntity
  8
0
100
AcDbLine
 62
250
  6
CONTINUOUS
 10
35.8754991765
 20
15.5773500183
 11
35.9228399476
 21
12.4376310365
  0
LINE
  5
463
100
AcDbEntity
  8
0
100
AcDbLine
 62
250
  6
CONTINUOUS
 10
35.9228399476
 20
12.4376310365
 11
35.9613061941
 21
9.1225107832
  0
LWPOLYLINE
  5
464
100
AcDbEntity
  8
0
100
AcDbPolyline
 62
250
  6
CONTINUOUS
 90
5
 70
0
 10
35.9613061941
 20
9.1225107832
 10
35.989073566
 20
5.6234702386
 10
35.9983275805
 20
3.7983642346
 10
36.004099957
 20
1.9238725795
 10
36.0060918145
 20
-0.0
  0
LINE
  5
465
100
AcDbEntity
  8
0
100
AcDbLine
 62
250
  6
CONTINUOUS
 10
36.9999998429
 20
40.0
 11
36.9999998429
 21
39.7484790161
  0
LINE
  5
466
100
AcDbEntity
  8
0
100
AcDbLine
 62
250
  6
CONTINUOUS
 10
36.9999998429
 20
-39.7484790161
 11
36.9999998429
 21
-40.0
  0
LWPOLYLINE
  5
467
100
AcDbEntity
  8
0
100
AcDbPolyline
 62
250
  6
CONTINUOUS
 90
4
 70
0
 10
35.989073566
 20
-5.6234702386
 10
35.9983275805
 20
-3.7983642346
 10
36.004099957
 20
-1.9238725795
 10
36.0060918145
 20
0.0
  0
LINE
  5
468
100
AcDbEntity
  8
0
100
AcDbLine
 62
250
  6
CONTINUOUS
 10
35.9613061941
 20
-9.1225107832
 11
35.989073566
 21
-5.6234702386
  0
LINE
  5
469
100
AcDbEntity
  8
0
100
AcDbLine
 62
250
  6
CONTINUOUS
 10
35.9228399476
 20
-12.4376310365
 11
35.9613061941
 21
-9.1225107832
  0
LINE
  5
46A
100
AcDbEntity
  8
0
100
AcDbLine
 62
250
  6
CONTINUOUS
 10
35.8754991765
 20
-15.5773500183
 11
35.9228399476
 21
-12.4376310365
  0
LINE
  5
46B
100
AcDbEntity
  8
0
100
AcDbLine
 62
250
  6
CONTINUOUS
 10
35.8208183804
 20
-18.553935027
 11
35.8754991765
 21
-15.5773500183
  0
LINE
  5
46C
100
AcDbEntity
  8
0
100
AcDbLine
 62
250
  6
CONTINUOUS
 10
35.7601260278
 20
-21.3775904381
 11
35.8208183804
 21
-18.553935027
  0
LINE
  5
46D
100
AcDbEntity
  8
0
100
AcDbLine
 62
250
  6
CONTINUOUS
 10
35.6946295393
 20
-24.0551233639
 11
35.7601260278
 21
-21.3775904381
  0
LWPOLYLINE
  5
46E
100
AcDbEntity
  8
0
100
AcDbPolyline
 62
250
  6
CONTINUOUS
 90
3
 70
0
 10
35.5837101741
 20
-27.8189626045
 10
35.6251694307
 20
-26.5985653274
 10
35.6946295393
 20
-24.0551233639
  0
LWPOLYLINE
  5
46F
100
AcDbEntity
  8
0
100
AcDbPolyline
 62
250
  6
CONTINUOUS
 90
10
 70
0
 10
30.4507359896
 20
-26.5522107386
 10
30.5484964764
 20
-26.2883480867
 10
30.6390492012
 20
-26.0162331498
 10
30.722059568
 20
-25.7358549972
 10
30.7970821816
 20
-25.4476533838
 10
30.8638385335
 20
-25.1515461774
 10
30.9222087075
 20
-24.8464812604
 10
30.9718215211
 20
-24.5322534906
 10
31.0121708204
 20
-24.2095664688
 10
31.0428583296
 20
-23.8787684896
  0
LWPOLYLINE
  5
470
100
AcDbEntity
  8
0
100
AcDbPolyline
 62
250
  6
CONTINUOUS
 90
10
 70
0
 10
26.7549907543
 20
-30.369619874
 10
26.9012377025
 20
-30.3062621107
 10
27.0442024106
 20
-30.2407993541
 10
27.1838621817
 20
-30.173319193
 10
27.3201173988
 20
-30.1039523052
 10
27.4530673259
 20
-30.0327323845
 10
27.5829198025
 20
-29.9596265407
 10
27.709679872
 20
-29.8846999516
 10
27.8332533948
 20
-29.8080797047
 10
27.9537134761
 20
-29.7297993469
  0
LWPOLYLINE
  5
471
100
AcDbEntity
  8
0
100
AcDbPolyline
 62
250
  6
CONTINUOUS
 90
10
 70
0
 10
-27.8243897177
 20
35.5828566402
 10
-28.2093585764
 20
35.5617382045
 10
-28.5867111019
 20
35.5364476262
 10
-28.9563227792
 20
35.5062999463
 10
-29.3181750637
 20
35.4707001043
 10
-29.6720725767
 20
35.4291677258
 10
-30.0176305017
 20
35.3813439738
 10
-30.3542196702
 20
35.3266824015
 10
-30.6816106979
 20
35.2646677222
 10
-30.9999605717
 20
35.1949136289
  0
LINE
  5
472
100
AcDbEntity
  8
0
100
AcDbLine
 62
250
  6
CONTINUOUS
 10
-26.8052253306
 20
35.6181326356
 11
-27.8243897177
 21
35.5828566402
  0
LINE
  5
473
100
AcDbEntity
  8
0
100
AcDbLine
 62
250
  6
CONTINUOUS
 10
-23.594347618
 20
35.696351842
 11
-26.8052253306
 21
35.6181326356
  0
LINE
  5
474
100
AcDbEntity
  8
0
100
AcDbLine
 62
250
  6
CONTINUOUS
 10
-20.1368473665
 20
35.7679479351
 11
-23.594347618
 21
35.696351842
  0
LINE
  5
475
100
AcDbEntity
  8
0
100
AcDbLine
 62
250
  6
CONTINUOUS
 10
-17.6824077937
 20
35.8105206921
 11
-20.1368473665
 21
35.7679479351
  0
LINE
  5
476
100
AcDbEntity
  8
0
100
AcDbLine
 62
250
  6
CONTINUOUS
 10
-15.1008182429
 20
35.8476407837
 11
-17.6824077937
 21
35.8105206921
  0
LINE
  5
477
100
AcDbEntity
  8
0
100
AcDbLine
 62
250
  6
CONTINUOUS
 10
-12.3834808214
 20
35.8779633818
 11
-15.1008182429
 21
35.8476407837
  0
LWPOLYLINE
  5
478
100
AcDbEntity
  8
0
100
AcDbPolyline
 62
250
  6
CONTINUOUS
 90
3
 70
0
 10
-8.0381477473
 20
35.9069674183
 10
-9.5243803005
 20
35.8999983905
 10
-12.3834808214
 20
35.8779633818
  0
LINE
  5
479
100
AcDbEntity
  8
0
100
AcDbLine
 62
250
  6
CONTINUOUS
 10
-4.9485476714
 20
35.9116376503
 11
-8.0381477473
 21
35.9069674183
  0
LINE
  5
47A
100
AcDbEntity
  8
0
100
AcDbLine
 62
250
  6
CONTINUOUS
 10
-40.0
 20
36.9999998429
 11
-39.7484790161
 21
37.0
  0
LINE
  5
47B
100
AcDbEntity
  8
0
100
AcDbLine
 62
250
  6
CONTINUOUS
 10
40.0
 20
36.9999998429
 11
39.7484790161
 21
37.0
  0
LINE
  5
47C
100
AcDbEntity
  8
0
100
AcDbLine
 62
250
  6
CONTINUOUS
 10
-4.9485476714
 20
35.9116376503
 11
4.9485476711
 21
35.9116376503
  0
LINE
  5
47D
100
AcDbEntity
  8
0
100
AcDbLine
 62
250
  6
CONTINUOUS
 10
4.9485476711
 20
35.9116376503
 11
8.0381477468
 21
35.9069674183
  0
LINE
  5
47E
100
AcDbEntity
  8
0
100
AcDbLine
 62
250
  6
CONTINUOUS
 10
8.0381477468
 20
35.9069674183
 11
10.9728660745
 21
35.8900789509
  0
LINE
  5
47F
100
AcDbEntity
  8
0
100
AcDbLine
 62
250
  6
CONTINUOUS
 10
10.9728660745
 20
35.8900789509
 11
13.7594234654
 21
35.8637590433
  0
LINE
  5
480
100
AcDbEntity
  8
0
100
AcDbLine
 62
250
  6
CONTINUOUS
 10
13.7594234654
 20
35.8637590433
 11
16.4075393809
 21
35.8298458345
  0
LINE
  5
481
100
AcDbEntity
  8
0
100
AcDbLine
 62
250
  6
CONTINUOUS
 10
16.4075393809
 20
35.8298458345
 11
18.9255457174
 21
35.7898319937
  0
LINE
  5
482
100
AcDbEntity
  8
0
100
AcDbLine
 62
250
  6
CONTINUOUS
 10
18.9255457174
 20
35.7898319937
 11
21.3187529608
 21
35.7449814354
  0
LINE
  5
483
100
AcDbEntity
  8
0
100
AcDbLine
 62
250
  6
CONTINUOUS
 10
21.3187529608
 20
35.7449814354
 11
23.5943476177
 21
35.696351842
  0
LWPOLYLINE
  5
484
100
AcDbEntity
  8
0
100
AcDbPolyline
 62
250
  6
CONTINUOUS
 90
4
 70
0
 10
23.5943476177
 20
35.696351842
 10
25.7612513682
 20
35.6447825738
 10
26.8052253305
 20
35.6181326356
 10
27.8243897177
 20
35.5828566402
  0
LWPOLYLINE
  5
485
100
AcDbEntity
  8
0
100
AcDbPolyline
 62
250
  6
CONTINUOUS
 90
10
 70
0
 10
27.8243897177
 20
35.5828566402
 10
28.2093585763
 20
35.5617382045
 10
28.5867111018
 20
35.5364476262
 10
28.9563227791
 20
35.5062999463
 10
29.3181750636
 20
35.4707001043
 10
29.6720725766
 20
35.4291677258
 10
30.0176305016
 20
35.3813439738
 10
30.3542196701
 20
35.3266824015
 10
30.6816106978
 20
35.2646677222
 10
30.9999605717
 20
35.1949136289
  0
LWPOLYLINE
  5
486
100
AcDbEntity
  8
0
100
AcDbPolyline
 62
250
  6
CONTINUOUS
 90
10
 70
0
 10
26.7549907543
 20
30.369619874
 10
26.9012377025
 20
30.3062621107
 10
27.0442024106
 20
30.2407993541
 10
27.1838621817
 20
30.173319193
 10
27.3201173988
 20
30.1039523052
 10
27.4530673259
 20
30.0327323845
 10
27.5829198025
 20
29.9596265407
 10
27.709679872
 20
29.8846999516
 10
27.8332533948
 20
29.8080797047
 10
27.9537134761
 20
29.7297993469
  0
LWPOLYLINE
  5
487
100
AcDbEntity
  8
0
100
AcDbPolyline
 62
250
  6
CONTINUOUS
 90
10
 70
0
 10
30.4507359896
 20
26.5522107386
 10
30.5484964764
 20
26.2883480867
 10
30.6390492012
 20
26.0162331498
 10
30.722059568
 20
25.7358549972
 10
30.7970821816
 20
25.4476533838
 10
30.8638385335
 20
25.1515461774
 10
30.9222087075
 20
24.8464812604
 10
30.9718215211
 20
24.5322534906
 10
31.0121708204
 20
24.2095664688
 10
31.0428583296
 20
23.8787684896
  0
LWPOLYLINE
  5
488
100
AcDbEntity
  8
0
100
AcDbPolyline
 62
250
  6
CONTINUOUS
 90
6
 70
0
 10
39.0843029895
 20
36.9825290218
 10
39.0839716084
 20
37.0160789679
 10
39.0833404176
 20
37.0493700113
 10
39.082337619
 20
37.082385433
 10
39.0808943226
 20
37.1151236719
 10
39.078944917
 20
37.1475761919
  0
LINE
  5
489
100
AcDbEntity
  8
0
100
AcDbLine
 62
250
  6
CONTINUOUS
 10
39.0844780677
 20
-36.9486243349
 11
39.0841077741
 21
-36.7817620208
  0
LINE
  5
48A
100
AcDbEntity
  8
0
100
AcDbLine
 62
250
  6
CONTINUOUS
 10
39.7484790161
 20
-37.0
 11
39.7484790161
 21
37.0
  0
LINE
  5
48B
100
AcDbEntity
  8
0
100
AcDbLine
 62
7
  6
CONTINUOUS
 10
39.8674790937
 20
3.5
 11
39.8674790937
 21
-3.5
  0
LINE
  5
48C
100
AcDbEntity
  8
0
100
AcDbLine
 62
7
  6
CONTINUOUS
 10
40.0
 20
36.9999998429
 11
40.0
 21
3.7099727925
  0
LINE
  5
48D
100
AcDbEntity
  8
0
100
AcDbLine
 62
7
  6
CONTINUOUS
 10
40.0
 20
-3.7099727925
 11
40.0
 21
-36.9999998428
  0
LINE
  5
48E
100
AcDbEntity
  8
0
100
AcDbLine
 62
250
  6
CONTINUOUS
 10
39.0841077741
 20
-36.7817620208
 11
39.0842057723
 21
-36.6199089681
  0
LWPOLYLINE
  5
48F
100
AcDbEntity
  8
0
100
AcDbPolyline
 62
250
  6
CONTINUOUS
 90
4
 70
0
 10
39.0842057723
 20
-36.6199089681
 10
39.0842691411
 20
36.8805733275
 10
39.0843712969
 20
36.9147658058
 10
39.0843029895
 20
36.9825290218
  0
LWPOLYLINE
  5
490
100
AcDbEntity
  8
0
100
AcDbPolyline
 62
250
  6
CONTINUOUS
 90
7
 70
0
 10
39.0789198005
 20
-37.1475743012
 10
39.0808481862
 20
-37.1150698818
 10
39.082303283
 20
-37.082294643
 10
39.0833367483
 20
-37.0492556694
 10
39.0840031632
 20
-37.0159451117
 10
39.0843603974
 20
-36.9823852604
 10
39.0844780677
 20
-36.9486243349
  0
LWPOLYLINE
  5
491
100
AcDbEntity
  8
0
100
AcDbPolyline
 62
250
  6
CONTINUOUS
 90
10
 70
0
 10
35.1952253949
 20
-30.9983204474
 10
35.2648566681
 20
-30.679690642
 10
35.3268090686
 20
-30.3518166958
 10
35.3814348012
 20
-30.0147149102
 10
35.4290927349
 20
-29.6688189355
 10
35.4703374174
 20
-29.3145188853
 10
35.5059552722
 20
-28.9521845501
 10
35.5366347701
 20
-28.5821216429
 10
35.5625288406
 20
-28.204380184
 10
35.5837101741
 20
-27.8189626045
  0
LWPOLYLINE
  5
492
100
AcDbEntity
  8
0
100
AcDbPolyline
 62
250
  6
CONTINUOUS
 90
10
 70
0
 10
29.8401316492
 20
-27.7802643023
 10
29.9154951454
 20
-27.656215458
 10
29.9890794587
 20
-27.5292057248
 10
30.0608432376
 20
-27.3991768255
 10
30.130596232
 20
-27.2663356545
 10
30.1983474576
 20
-27.130555307
 10
30.2643057782
 20
-26.9912741797
 10
30.3284748159
 20
-26.848310927
 10
30.3906521024
 20
-26.701933737
 10
30.4507359896
 20
-26.5522107386
  0
LINE
  5
493
100
AcDbEntity
  8
0
100
AcDbLine
 62
250
  6
CONTINUOUS
 10
29.8129998538
 20
-27.8235309344
 11
29.8401316492
 21
-27.7802643023
  0
LINE
  5
494
100
AcDbEntity
  8
0
100
AcDbLine
 62
250
  6
CONTINUOUS
 10
29.7856820021
 20
-27.8663844402
 11
29.8129998538
 21
-27.8235309344
  0
LINE
  5
495
100
AcDbEntity
  8
0
100
AcDbLine
 62
250
  6
CONTINUOUS
 10
29.7581615566
 20
-27.9088557501
 11
29.7856820021
 21
-27.8663844402
  0
LWPOLYLINE
  5
496
100
AcDbEntity
  8
0
100
AcDbPolyline
 62
250
  6
CONTINUOUS
 90
3
 70
0
 10
29.716425002
 20
-27.9719715713
 10
29.7303985312
 20
-27.9510104123
 10
29.7581615566
 20
-27.9088557501
  0
LWPOLYLINE
  5
497
100
AcDbEntity
  8
0
100
AcDbPolyline
 62
250
  6
CONTINUOUS
 90
10
 70
0
 10
27.9537134761
 20
-29.7297993469
 10
28.1866757628
 20
-29.5675769089
 10
28.4107752962
 20
-29.3966616331
 10
28.6247402729
 20
-29.2180951308
 10
28.826605898
 20
-29.0339232151
 10
29.0178578705
 20
-28.8432786509
 10
29.2025640835
 20
-28.6419866449
 10
29.3815628102
 20
-28.428692395
 10
29.5529372846
 20
-28.2053040438
 10
29.716425002
 20
-27.9719715713
  0
LWPOLYLINE
  5
498
100
AcDbEntity
  8
0
100
AcDbPolyline
 62
250
  6
CONTINUOUS
 90
10
 70
0
 10
-30.9999605717
 20
35.1949136289
 10
-31.1840807533
 20
35.1498927153
 10
-31.3642962145
 20
35.1022384041
 10
-31.5405652879
 20
35.0519856384
 10
-31.7128274807
 20
34.9991835686
 10
-31.8810244438
 20
34.9438861428
 10
-32.0452765642
 20
34.8861475821
 10
-32.2056289486
 20
34.8259940014
 10
-32.3618605515
 20
34.7634032407
 10
-32.5136085933
 20
34.6983583088
  0
LINE
  5
499
100
AcDbEntity
  8
0
100
AcDbLine
 62
250
  6
CONTINUOUS
 10
36.9999998429
 20
39.7484790161
 11
-36.9999998429
 21
39.7484790161
  0
LINE
  5
49A
100
AcDbEntity
  8
0
100
AcDbLine
 62
7
  6
CONTINUOUS
 10
-36.9999998429
 20
40.0
 11
36.9999998429
 21
40.0
  0
LWPOLYLINE
  5
49B
100
AcDbEntity
  8
0
100
AcDbPolyline
 62
250
  6
CONTINUOUS
 90
10
 70
0
 10
30.9999605717
 20
35.1949136289
 10
31.1840797534
 20
35.1498929698
 10
31.3642944848
 20
35.1022388795
 10
31.540563095
 20
35.0519862867
 10
31.7128251044
 20
34.9991843228
 10
31.8810221465
 20
34.9438869255
 10
32.0452745433
 20
34.8861483132
 10
32.2056274224
 20
34.8259946042
 10
32.3618595865
 20
34.7634035722
 10
32.5136086677
 20
34.6983583302
  0
LWPOLYLINE
  5
49C
100
AcDbEntity
  8
0
100
AcDbPolyline
 62
250
  6
CONTINUOUS
 90
10
 70
0
 10
27.9537134761
 20
29.7297993469
 10
28.1866757628
 20
29.5675769089
 10
28.4107752962
 20
29.3966616331
 10
28.6247402729
 20
29.2180951308
 10
28.826605898
 20
29.0339232151
 10
29.0178578705
 20
28.8432786509
 10
29.2025640835
 20
28.6419866449
 10
29.3815628102
 20
28.428692395
 10
29.5529372846
 20
28.2053040438
 10
29.716425002
 20
27.9719715713
  0
LWPOLYLINE
  5
49D
100
AcDbEntity
  8
0
100
AcDbPolyline
 62
7
  6
CONTINUOUS
 90
13
 70
0
 43
0.3500000006
 10
-1.9285714102
 20
52.9642866669
 10
-2.2142856617
 20
53.1785711517
 10
-2.2142856617
 20
53.8214291382
 10
-1.9285714102
 20
54.2499981079
 10
-1.2857142735
 20
54.2499981079
 10
-1.0000000219
 20
53.8214291382
 10
-1.0000000219
 20
53.1785711517
 10
-1.2857142735
 20
52.9642866669
 10
-0.8571428254
 20
52.5357131653
 10
-0.8571428254
 20
51.678570694
 10
-1.2857142735
 20
51.2500017242
 10
-1.9285714102
 20
51.2500017242
 10
-2.3571427875
 20
51.678570694
  0
LINE
  5
49E
100
AcDbEntity
  8
0
100
AcDbLine
 62
250
  6
CONTINUOUS
 10
29.716425002
 20
27.9719715713
 11
29.7443103262
 21
27.9299725379
  0
LINE
  5
49F
100
AcDbEntity
  8
0
100
AcDbLine
 62
250
  6
CONTINUOUS
 10
29.7443103262
 20
27.9299725379
 11
29.7719508528
 21
27.887661773
  0
LINE
  5
4A0
100
AcDbEntity
  8
0
100
AcDbLine
 62
250
  6
CONTINUOUS
 10
29.7719508528
 20
27.887661773
 11
29.799363798
 21
27.8450096072
  0
LWPOLYLINE
  5
4A1
100
AcDbEntity
  8
0
100
AcDbPolyline
 62
250
  6
CONTINUOUS
 90
3
 70
0
 10
29.799363798
 20
27.8450096072
 10
29.8265887552
 20
27.8019499753
 10
29.8401316492
 20
27.7802643023
  0
LWPOLYLINE
  5
4A2
100
AcDbEntity
  8
0
100
AcDbPolyline
 62
250
  6
CONTINUOUS
 90
10
 70
0
 10
29.8401316492
 20
27.7802643023
 10
29.9154951454
 20
27.656215458
 10
29.9890794587
 20
27.5292057248
 10
30.0608432376
 20
27.3991768255
 10
30.130596232
 20
27.2663356545
 10
30.1983474576
 20
27.130555307
 10
30.2643057782
 20
26.9912741797
 10
30.3284748159
 20
26.848310927
 10
30.3906521024
 20
26.701933737
 10
30.4507359896
 20
26.5522107386
  0
LWPOLYLINE
  5
4A3
100
AcDbEntity
  8
0
100
AcDbPolyline
 62
250
  6
CONTINUOUS
 90
10
 70
0
 10
35.1952253949
 20
30.9983204474
 10
35.2648566681
 20
30.679690642
 10
35.3268090686
 20
30.3518166958
 10
35.3814348012
 20
30.0147149102
 10
35.4290927349
 20
29.6688189355
 10
35.4703374174
 20
29.3145188853
 10
35.5059552722
 20
28.9521845501
 10
35.5366347701
 20
28.5821216429
 10
35.5625288406
 20
28.204380184
 10
35.5837101741
 20
27.8189626045
  0
LWPOLYLINE
  5
4A4
100
AcDbEntity
  8
0
100
AcDbPolyline
 62
250
  6
CONTINUOUS
 90
19
 70
0
 10
39.0789449279
 20
-37.1475760374
 10
39.0591584361
 20
-37.322716217
 10
39.0241737347
 20
-37.4965555434
 10
38.9743542954
 20
-37.6676448047
 10
38.9098136931
 20
-37.8346466262
 10
38.8307035905
 20
-37.9962144978
 10
38.7375894933
 20
-38.1508222442
 10
38.6312086538
 20
-38.2972110563
 10
38.5122726297
 20
-38.4341846742
 10
38.3819768882
 20
-38.5601041783
 10
38.2418192062
 20
-38.6737682381
 10
38.0927588298
 20
-38.7747302122
 10
37.9353258472
 20
-38.8625955198
 10
37.7707682483
 20
-38.9364801778
 10
37.5992785449
 20
-38.9961443318
 10
37.4200428368
 20
-39.0414608581
 10
37.2337020499
 20
-39.0711898264
 10
37.0419127722
 20
-39.0836277797
 10
36.8461853515
 20
-39.0842599925
  0
LWPOLYLINE
  5
4A5
100
AcDbEntity
  8
0
100
AcDbPolyline
 62
250
  6
CONTINUOUS
 90
10
 70
0
 10
34.6972374882
 20
-32.5149489992
 10
34.7626256502
 20
-32.3630466046
 10
34.8255142214
 20
-32.2066386098
 10
34.885914049
 20
-32.0460431089
 10
34.9438491357
 20
-31.8814837079
 10
34.9992893155
 20
-31.712923592
 10
35.0521872665
 20
-31.5402891733
 10
35.1024969508
 20
-31.3636207652
 10
35.1501832905
 20
-31.18295489
 10
35.1952253949
 20
-30.9983204474
  0
LWPOLYLINE
  5
4A6
100
AcDbEntity
  8
0
100
AcDbPolyline
 62
250
  6
CONTINUOUS
 90
10
 70
0
 10
34.5835975041
 20
-32.7555229602
 10
34.5965799248
 20
-32.7294359594
 10
34.6094716954
 20
-32.703188987
 10
34.6222737069
 20
-32.6767811549
 10
34.6349876546
 20
-32.6502099779
 10
34.6476137545
 20
-32.6234761368
 10
34.6601508229
 20
-32.5965835182
 10
34.6725992835
 20
-32.5695328446
 10
34.6849610879
 20
-32.5423216357
 10
34.6972374882
 20
-32.5149489992
  0
LWPOLYLINE
  5
4A7
100
AcDbEntity
  8
0
100
AcDbPolyline
 62
250
  6
CONTINUOUS
 90
13
 70
0
 10
32.5136085933
 20
-34.6983583088
 10
32.7570745919
 20
-34.5837533239
 10
32.9873760448
 20
-34.46140093
 10
33.2026974111
 20
-34.3318731803
 10
33.4014737656
 20
-34.1963191139
 10
33.5850882932
 20
-34.054167057
 10
33.7572404231
 20
-33.9024203178
 10
33.9161059117
 20
-33.742217615
 10
34.0624645266
 20
-33.573833184
 10
34.2023134711
 20
-33.3914035707
 10
34.3367610921
 20
-33.1929078587
 10
34.4637702311
 20
-32.9809783681
 10
34.5835975041
 20
-32.7555229602
  0
LWPOLYLINE
  5
4A8
100
AcDbEntity
  8
0
100
AcDbPolyline
 62
250
  6
CONTINUOUS
 90
13
 70
0
 10
32.5136085933
 20
34.6983583088
 10
32.7570745918
 20
34.5837533239
 10
32.9873760448
 20
34.46140093
 10
33.202697411
 20
34.3318731803
 10
33.4014737655
 20
34.196319114
 10
33.5850882931
 20
34.0541670571
 10
33.757240423
 20
33.9024203179
 10
33.9161059116
 20
33.7422176152
 10
34.0624645265
 20
33.5738331841
 10
34.202313471
 20
33.3914035708
 10
34.3367610921
 20
33.1929078588
 10
34.4637702311
 20
32.9809783682
 10
34.5835975041
 20
32.7555229602
  0
LWPOLYLINE
  5
4A9
100
AcDbEntity
  8
0
100
AcDbPolyline
 62
250
  6
CONTINUOUS
 90
10
 70
0
 10
34.5835975041
 20
32.7555229602
 10
34.5965799248
 20
32.7294359594
 10
34.6094716954
 20
32.703188987
 10
34.6222737069
 20
32.6767811549
 10
34.6349876546
 20
32.6502099779
 10
34.6476137545
 20
32.6234761368
 10
34.6601508229
 20
32.5965835182
 10
34.6725992835
 20
32.5695328446
 10
34.6849610879
 20
32.5423216357
 10
34.6972374882
 20
32.5149489992
  0
LWPOLYLINE
  5
4AA
100
AcDbEntity
  8
0
100
AcDbPolyline
 62
250
  6
CONTINUOUS
 90
10
 70
0
 10
34.6972374882
 20
32.5149489992
 10
34.7626256502
 20
32.3630466045
 10
34.8255142214
 20
32.2066386097
 10
34.885914049
 20
32.0460431089
 10
34.9438491357
 20
31.8814837078
 10
34.9992893156
 20
31.7129235919
 10
35.0521872665
 20
31.5402891732
 10
35.1024969508
 20
31.3636207652
 10
35.1501832905
 20
31.18295489
 10
35.1952253949
 20
30.9983204474
  0
LWPOLYLINE
  5
4AB
100
AcDbEntity
  8
0
100
AcDbPolyline
 62
250
  6
CONTINUOUS
 90
19
 70
0
 10
39.0789449383
 20
37.1475758827
 10
39.0591584538
 20
37.3227160731
 10
39.0241737596
 20
37.4965554099
 10
38.9743543271
 20
37.6676446817
 10
38.9098137313
 20
37.8346465136
 10
38.830703635
 20
37.9962143954
 10
38.7375895439
 20
38.1508221514
 10
38.6312087107
 20
38.2972109724
 10
38.5122726931
 20
38.4341845988
 10
38.3819769585
 20
38.5601041107
 10
38.241819284
 20
38.6737681778
 10
38.0927589159
 20
38.7747301587
 10
37.9353259422
 20
38.8625954731
 10
37.7707683529
 20
38.936480138
 10
37.5992786596
 20
38.9961442989
 10
37.420042962
 20
39.0414608329
 10
37.2337021853
 20
39.0711898093
 10
37.0419129179
 20
39.0836277713
 10
-36.8461856633
 20
39.0842599932
  0
LINE
  5
4AC
100
AcDbEntity
  8
0
100
AcDbLine
 62
7
  6
CONTINUOUS
 10
-62.2577272463
 20
-39.7484790161
 11
-57.7025941862
 21
-40.0
  0
LWPOLYLINE
  5
4AD
100
AcDbEntity
  8
0
100
AcDbPolyline
 62
7
  6
CONTINUOUS
 90
9
 70
0
 10
-62.2577272463
 20
-39.7484790161
 10
-62.3346627548
 20
-39.7415553707
 10
-62.4108045655
 20
-39.7292475843
 10
-62.4858209094
 20
-39.7114818821
 10
-62.5592810945
 20
-39.6882456407
 10
-62.6308853525
 20
-39.6595197416
 10
-62.7004265687
 20
-39.6252320445
 10
-62.7674127049
 20
-39.5854339529
 10
-62.8313566171
 20
-39.5402061861
  0
LWPOLYLINE
  5
4AE
100
AcDbEntity
  8
0
100
AcDbPolyline
 62
7
  6
CONTINUOUS
 90
10
 70
0
 43
0.3500000006
 10
-64.8839951477
 20
51.2500017242
 10
-64.0268526764
 20
52.1071441956
 10
-63.8125636597
 20
52.9642866669
 10
-63.8125636597
 20
53.8214291382
 10
-64.2411371613
 20
54.2499981079
 10
-64.8839951477
 20
54.2499981079
 10
-65.3125641174
 20
53.8214291382
 10
-65.3125641174
 20
52.9642866669
 10
-64.8839951477
 20
52.5357131653
 10
-63.9554214935
 20
52.5357131653
  0
LWPOLYLINE
  5
4AF
100
AcDbEntity
  8
0
100
AcDbPolyline
 62
7
  6
CONTINUOUS
 90
7
 70
0
 10
-62.5355952358
 20
39.696619903
 10
-62.5563028732
 20
39.6895481257
 10
-62.5767131914
 20
39.6820918804
 10
-62.5968377771
 20
39.6742543503
 10
-62.6166591669
 20
39.6660496392
 10
-62.6361183962
 20
39.657511973
 10
-62.6552102298
 20
39.6486556236
  0
LINE
  5
4B0
100
AcDbEntity
  8
0
100
AcDbLine
 62
7
  6
CONTINUOUS
 10
-62.4933468036
 20
39.7095604891
 11
-62.5146087668
 21
39.7032933975
  0
LINE
  5
4B1
100
AcDbEntity
  8
0
100
AcDbLine
 62
250
  6
CONTINUOUS
 10
-57.7025941862
 20
-36.9999998428
 11
-62.2577272463
 21
-37.0
  0
LINE
  5
4B2
100
AcDbEntity
  8
0
100
AcDbLine
 62
250
  6
CONTINUOUS
 10
-57.5025941862
 20
-36.81098041
 11
-57.7025941862
 21
-36.810980399
  0
LWPOLYLINE
  5
4B3
100
AcDbEntity
  8
0
100
AcDbPolyline
 62
250
  6
CONTINUOUS
 90
16
 70
0
 10
-62.2577272463
 20
-36.8314569315
 10
-62.3357703051
 20
-36.829078078
 10
-62.4130503231
 20
-36.8218426991
 10
-62.4892141122
 20
-36.8096147515
 10
-62.5638518315
 20
-36.7922831809
 10
-62.6365839888
 20
-36.7697438002
 10
-62.7070462202
 20
-36.7418823205
 10
-62.7747361631
 20
-36.7086319195
 10
-62.8391463196
 20
-36.6699359611
 10
-62.8998131237
 20
-36.6256905287
 10
-62.9563254937
 20
-36.575661578
 10
-63.0077388312
 20
-36.5200368369
 10
-63.0528990076
 20
-36.4595047378
 10
-63.0911425073
 20
-36.3944946663
 10
-63.1220708673
 20
-36.3250246863
 10
-63.1450960407
 20
-36.2513323977
  0
LWPOLYLINE
  5
4B4
100
AcDbEntity
  8
0
100
AcDbPolyline
 62
250
  6
CONTINUOUS
 90
16
 70
0
 10
-62.2577275996
 20
-37.1319687685
 10
-62.3364104862
 20
-37.1293482995
 10
-62.4143060557
 20
-37.1218154205
 10
-62.4910516928
 20
-37.109247674
 10
-62.5662545007
 20
-37.0915410169
 10
-62.6394934656
 20
-37.0686103531
 10
-62.7103175135
 20
-37.0403901532
 10
-62.7782226906
 20
-37.0068464773
 10
-62.8427043706
 20
-36.9679537776
 10
-62.9032464916
 20
-36.9236834128
 10
-62.9594354719
 20
-36.8738663996
 10
-63.0103769973
 20
-36.8187153458
 10
-63.054959437
 20
-36.7589368178
 10
-63.0925515062
 20
-36.6949809601
 10
-63.1227811463
 20
-36.62689771
 10
-63.1450960407
 20
-36.5549469784
  0
LINE
  5
4B5
100
AcDbEntity
  8
0
100
AcDbLine
 62
7
  6
CONTINUOUS
 10
-57.7025941862
 20
-38.9984499308
 11
-57.5025941862
 21
-39.0095062737
  0
LWPOLYLINE
  5
4B6
100
AcDbEntity
  8
0
100
AcDbPolyline
 62
250
  6
CONTINUOUS
 90
3
 70
0
 10
-62.4110323087
 20
-39.6977101995
 10
-62.3347277944
 20
-39.709337598
 10
-62.2577286274
 20
-39.7160026235
  0
LWPOLYLINE
  5
4B7
100
AcDbEntity
  8
0
100
AcDbPolyline
 62
7
  6
CONTINUOUS
 90
14
 70
0
 10
-62.5116382526
 20
-39.7042016031
 10
-62.4925585864
 20
-39.7097864355
 10
-62.4732736855
 20
-39.7150344805
 10
-62.4537859123
 20
-39.7199406823
 10
-62.4340985808
 20
-39.7244997452
 10
-62.4142291524
 20
-39.7287035712
 10
-62.3941794946
 20
-39.7325480683
 10
-62.3739541861
 20
-39.7360286323
 10
-62.3535757061
 20
-39.7391382447
 10
-62.3330460739
 20
-39.7418739431
 10
-62.3123706253
 20
-39.7442323554
 10
-62.2915779662
 20
-39.7462083153
 10
-62.2706721232
 20
-39.7478002489
 10
-62.2577273068
 20
-39.7485897653
  0
LWPOLYLINE
  5
4B8
100
AcDbEntity
  8
0
100
AcDbPolyline
 62
7
  6
CONTINUOUS
 90
4
 70
0
 10
-62.5857162741
 20
-39.6786490856
 10
-62.5675451881
 20
-39.6855046763
 10
-62.5491339985
 20
-39.6920549014
 10
-62.5304974884
 20
-39.6982891652
  0
LWPOLYLINE
  5
4B9
100
AcDbEntity
  8
0
100
AcDbPolyline
 62
7
  6
CONTINUOUS
 90
4
 70
0
 10
-62.744827072
 20
39.6002092957
 10
-62.7615878221
 20
39.5897769732
 10
-62.7779730888
 20
39.5791194985
 10
-62.7939938378
 20
39.5682412785
  0
LWPOLYLINE
  5
4BA
100
AcDbEntity
  8
0
100
AcDbPolyline
 62
7
  6
CONTINUOUS
 90
4
 70
0
 10
-62.6739397792
 20
39.6394900118
 10
-62.6922680121
 20
39.6300471775
 10
-62.7101782841
 20
39.6203506963
 10
-62.7276917208
 20
39.6104039054
  0
LWPOLYLINE
  5
4BB
100
AcDbEntity
  8
0
100
AcDbPolyline
 62
7
  6
CONTINUOUS
 90
4
 70
0
 10
-62.655858674
 20
-39.64834924
 10
-62.6387572725
 20
-39.6563194806
 10
-62.6213550767
 20
-39.6640366842
 10
-62.603657866
 20
-39.671489381
  0
LWPOLYLINE
  5
4BC
100
AcDbEntity
  8
0
100
AcDbPolyline
 62
7
  6
CONTINUOUS
 90
4
 70
0
 10
-62.8096515824
 20
39.5571522493
 10
-62.8249468895
 20
39.5458628413
 10
-62.8398884687
 20
39.5343770041
 10
-62.8544775148
 20
39.5227037046
  0
LINE
  5
4BD
100
AcDbEntity
  8
0
100
AcDbLine
 62
7
  6
CONTINUOUS
 10
-62.7674127049
 20
39.5854339529
 11
-62.8313566171
 21
39.5402061861
  0
LWPOLYLINE
  5
4BE
100
AcDbEntity
  8
0
100
AcDbPolyline
 62
7
  6
CONTINUOUS
 90
9
 70
0
 10
-62.7956625739
 20
-39.5670838729
 10
-62.781353706
 20
-39.5768649798
 10
-62.7667478057
 20
-39.5864732668
 10
-62.7518434041
 20
-39.5959013621
 10
-62.7366329608
 20
-39.6051453355
 10
-62.7211169698
 20
-39.6141958938
 10
-62.7052927875
 20
-39.6230454715
 10
-62.6891474283
 20
-39.6316916222
 10
-62.6726652908
 20
-39.6401319457
  0
LWPOLYLINE
  5
4BF
100
AcDbEntity
  8
0
100
AcDbPolyline
 62
7
  6
CONTINUOUS
 90
9
 70
0
 10
-62.8687143916
 20
39.5108524265
 10
-62.8826058536
 20
39.498826942
 10
-62.8961531503
 20
39.4866351275
 10
-62.9093561377
 20
39.4742859759
 10
-62.9222189623
 20
39.4617842247
 10
-62.9347432837
 20
39.4491365215
 10
-62.9469282894
 20
39.4363518636
 10
-62.9587742823
 20
39.4234381151
 10
-62.970283165
 20
39.4104012332
  0
LWPOLYLINE
  5
4C0
100
AcDbEntity
  8
0
100
AcDbPolyline
 62
7
  6
CONTINUOUS
 90
5
 70
0
 10
-62.8313565921
 20
39.5402062053
 10
-62.8919207338
 20
39.4895053574
 10
-62.9485225786
 20
39.4334307373
 10
-63.0004001869
 20
39.3722731498
 10
-63.0468198125
 20
39.3063347359
  0
LINE
  5
4C1
100
AcDbEntity
  8
0
100
AcDbLine
 62
7
  6
CONTINUOUS
 10
-65.5400019873
 20
-28.8000136606
 11
-65.5406770746
 21
-28.800015
  0
LINE
  5
4C2
100
AcDbEntity
  8
0
100
AcDbLine
 62
7
  6
CONTINUOUS
 10
-65.448487654
 20
-28.8
 11
-65.4740229703
 21
-28.800007
  0
LINE
  5
4C3
100
AcDbEntity
  8
0
100
AcDbLine
 62
7
  6
CONTINUOUS
 10
-65.5053099495
 20
-28.800007
 11
-65.5150423951
 21
-28.800007
  0
LINE
  5
4C4
100
AcDbEntity
  8
0
100
AcDbLine
 62
7
  6
CONTINUOUS
 10
-62.8313565921
 20
-39.5402062053
 11
-62.8919207338
 21
-39.4895053574
  0
LWPOLYLINE
  5
4C5
100
AcDbEntity
  8
0
100
AcDbPolyline
 62
7
  6
CONTINUOUS
 90
4
 70
0
 10
-62.8919207555
 20
-39.4895053376
 10
-62.948522598
 20
-39.4334307164
 10
-63.0004002038
 20
-39.3722731279
 10
-63.0468198257
 20
-39.3063347152
  0
LWPOLYLINE
  5
4C6
100
AcDbEntity
  8
0
100
AcDbPolyline
 62
7
  6
CONTINUOUS
 90
6
 70
0
 10
-62.9814541016
 20
39.3972501228
 10
-62.9922837193
 20
39.383997015
 10
-63.002783821
 20
39.3706351481
 10
-63.0129439211
 20
39.3571854811
 10
-63.0227307683
 20
39.3437032295
 10
-63.0321772293
 20
39.3301547047
  0
LINE
  5
4C7
100
AcDbEntity
  8
0
100
AcDbLine
 62
7
  6
CONTINUOUS
 10
-65.6358949401
 20
-27.678657
 11
-65.6201311864
 21
-27.678657
  0
LINE
  5
4C8
100
AcDbEntity
  8
0
100
AcDbLine
 62
7
  6
CONTINUOUS
 10
-65.7162241408
 20
-27.142128
 11
-65.6670659029
 21
-27.142128
  0
LINE
  5
4C9
100
AcDbEntity
  8
0
100
AcDbLine
 62
7
  6
CONTINUOUS
 10
-65.7837486386
 20
-26.436398
 11
-65.7535082531
 21
-26.436398
  0
LINE
  5
4CA
100
AcDbEntity
  8
0
100
AcDbLine
 62
7
  6
CONTINUOUS
 10
-65.8028554581
 20
-26.436398
 11
-65.8045425342
 21
-26.436398
  0
LINE
  5
4CB
100
AcDbEntity
  8
0
100
AcDbLine
 62
7
  6
CONTINUOUS
 10
-65.882053581
 20
-25.899877
 11
-65.8433867205
 21
-25.899877
  0
LINE
  5
4CC
100
AcDbEntity
  8
0
100
AcDbLine
 62
7
  6
CONTINUOUS
 10
-65.6473926702
 20
-27.6786511652
 11
-65.6492649546
 21
-27.67865
  0
LWPOLYLINE
  5
4CD
100
AcDbEntity
  8
0
100
AcDbPolyline
 62
7
  6
CONTINUOUS
 90
5
 70
0
 10
-63.0321757547
 20
39.3301578819
 10
-63.0412554836
 20
39.3165924606
 10
-63.049860999
 20
39.3031956296
 10
-63.0579790419
 20
39.2900267956
 10
-63.065655589
 20
39.2770502456
  0
LWPOLYLINE
  5
4CE
100
AcDbEntity
  8
0
100
AcDbPolyline
 62
250
  6
CONTINUOUS
 90
11
 70
0
 10
-63.0539601528
 20
39.2927209935
 10
-63.0081392217
 20
39.3563804872
 10
-62.9554775757
 20
39.4161630055
 10
-62.8976146762
 20
39.4706550169
 10
-62.8357454705
 20
39.519426062
 10
-62.7702751122
 20
39.5627294204
 10
-62.7019728705
 20
39.6004869431
 10
-62.63173471
 20
39.632628309
 10
-62.5599121983
 20
39.6593761628
 10
-62.4862968335
 20
39.6810464101
 10
-62.4110322925
 20
39.6977101577
  0
LWPOLYLINE
  5
4CF
100
AcDbEntity
  8
0
100
AcDbPolyline
 62
7
  6
CONTINUOUS
 90
7
 70
0
 10
-65.8433865048
 20
-25.8998751129
 10
-65.8407117346
 20
-25.9012990135
 10
-65.8376081438
 20
-25.9056708784
 10
-65.8340757324
 20
-25.9131349819
 10
-65.8301145003
 20
-25.9238262001
 10
-65.8257244475
 20
-25.9378681356
 10
-65.820905574
 20
-25.9553711595
  0
LWPOLYLINE
  5
4D0
100
AcDbEntity
  8
0
100
AcDbPolyline
 62
7
  6
CONTINUOUS
 90
20
 70
0
 10
-63.0221830387
 20
-39.3444732063
 10
-63.0134948097
 20
-39.3564417987
 10
-63.0045318799
 20
-39.3683599209
 10
-62.9952938399
 20
-39.3802210577
 10
-62.9857785652
 20
-39.392020875
 10
-62.9759855064
 20
-39.4037529711
 10
-62.965916998
 20
-39.4154077081
 10
-62.955572508
 20
-39.4269790706
 10
-62.9449505725
 20
-39.4384620278
 10
-62.9340525915
 20
-39.4498484572
 10
-62.9228787561
 20
-39.4611316829
 10
-62.9114273491
 20
-39.4723069144
 10
-62.8996970908
 20
-39.483368748
 10
-62.8876878414
 20
-39.4943106122
 10
-62.8753983051
 20
-39.5051269265
 10
-62.8628253672
 20
-39.5158134743
 10
-62.8499686479
 20
-39.5263634664
 10
-62.8368270114
 20
-39.5367706562
 10
-62.8233959459
 20
-39.5470311925
 10
-62.8096748194
 20
-39.5571379128
  0
LWPOLYLINE
  5
4D1
100
AcDbEntity
  8
0
100
AcDbPolyline
 62
250
  6
CONTINUOUS
 90
11
 70
0
 10
-63.0539601611
 20
-39.2927209865
 10
-63.0081392343
 20
-39.3563804812
 10
-62.9554775931
 20
-39.4161630019
 10
-62.897614698
 20
-39.4706550172
 10
-62.835745496
 20
-39.5194260675
 10
-62.7702751405
 20
-39.5627294319
 10
-62.7019729
 20
-39.6004869611
 10
-62.6317347388
 20
-39.6326283338
 10
-62.5599122244
 20
-39.6593761942
 10
-62.4862968553
 20
-39.6810464473
 10
-62.4110323087
 20
-39.6977101995
  0
LWPOLYLINE
  5
4D2
100
AcDbEntity
  8
0
100
AcDbPolyline
 62
7
  6
CONTINUOUS
 90
4
 70
0
 10
-63.0728855492
 20
39.2643129079
 10
-63.0798230668
 20
39.2515686699
 10
-63.0863383677
 20
39.2390818658
 10
-63.0920489982
 20
39.2276777144
  0
LWPOLYLINE
  5
4D3
100
AcDbEntity
  8
0
100
AcDbPolyline
 62
7
  6
CONTINUOUS
 90
3
 70
0
 10
-63.0468198125
 20
39.3063347359
 10
-63.0869873555
 20
39.2360051443
 10
-63.1200491133
 20
39.1617688703
  0
LINE
  5
4D4
100
AcDbEntity
  8
0
100
AcDbLine
 62
250
  6
CONTINUOUS
 10
-63.0922392799
 20
39.2260346492
 11
-63.0869873555
 21
39.2360051443
  0
LINE
  5
4D5
100
AcDbEntity
  8
0
100
AcDbLine
 62
250
  6
CONTINUOUS
 10
-65.9092412184
 20
22.49556714
 11
-66.482545638
 21
22.2017569107
  0
LINE
  5
4D6
100
AcDbEntity
  8
0
100
AcDbLine
 62
250
  6
CONTINUOUS
 10
-66.4825445781
 20
-22.2017569107
 11
-66.6962980384
 21
-22.1997392344
  0
LINE
  5
4D7
100
AcDbEntity
  8
0
100
AcDbLine
 62
250
  6
CONTINUOUS
 10
-65.9092412184
 20
-22.49556714
 11
-66.482545638
 21
-22.2017569107
  0
LINE
  5
4D8
100
AcDbEntity
  8
0
100
AcDbLine
 62
7
  6
CONTINUOUS
 10
-65.782176944
 20
-26.4380041479
 11
-65.7837488782
 21
-26.4364
  0
LWPOLYLINE
  5
4D9
100
AcDbEntity
  8
0
100
AcDbPolyline
 62
7
  6
CONTINUOUS
 90
5
 70
0
 10
-63.0614452107
 20
-39.284233664
 10
-63.0541755646
 20
-39.2962640751
 10
-63.0466129286
 20
-39.308317076
 10
-63.0387609006
 20
-39.3203752863
 10
-63.0306081839
 20
-39.3324444812
  0
LINE
  5
4DA
100
AcDbEntity
  8
0
100
AcDbLine
 62
7
  6
CONTINUOUS
 10
-63.0683786776
 20
-39.2723143561
 11
-63.0614452107
 21
-39.284233664
  0
LINE
  5
4DB
100
AcDbEntity
  8
0
100
AcDbLine
 62
250
  6
CONTINUOUS
 10
-63.0922392846
 20
-39.2260346427
 11
-63.0869873638
 21
-39.236005128
  0
LWPOLYLINE
  5
4DC
100
AcDbEntity
  8
0
100
AcDbPolyline
 62
7
  6
CONTINUOUS
 90
3
 70
0
 10
-63.0468198257
 20
-39.3063347152
 10
-63.0869873638
 20
-39.236005128
 10
-63.1200491169
 20
-39.1617688608
  0
LWPOLYLINE
  5
4DD
100
AcDbEntity
  8
0
100
AcDbPolyline
 62
7
  6
CONTINUOUS
 90
4
 70
0
 10
-63.0920496897
 20
39.2276759197
 10
-63.0969227014
 20
39.2175681364
 10
-63.1011089187
 20
39.2085804581
 10
-63.1045483916
 20
39.2009666995
  0
LINE
  5
4DE
100
AcDbEntity
  8
0
100
AcDbLine
 62
7
  6
CONTINUOUS
 10
-66.4923644625
 20
24.1520016183
 11
-66.5527511612
 21
24.064207024
  0
LINE
  5
4DF
100
AcDbEntity
  8
0
100
AcDbLine
 62
7
  6
CONTINUOUS
 10
-66.4923688798
 20
24.1520050044
 11
-66.3849377235
 21
24.3022287053
  0
LINE
  5
4E0
100
AcDbEntity
  8
0
100
AcDbLine
 62
7
  6
CONTINUOUS
 10
-66.3969654879
 20
24.2807987674
 11
-66.492370609
 21
24.1520063295
  0
LINE
  5
4E1
100
AcDbEntity
  8
0
100
AcDbLine
 62
7
  6
CONTINUOUS
 10
-66.4923696408
 20
-24.1520055875
 11
-66.5527511612
 21
-24.064207024
  0
LWPOLYLINE
  5
4E2
100
AcDbEntity
  8
0
100
AcDbPolyline
 62
7
  6
CONTINUOUS
 90
3
 70
0
 10
-63.081393259
 20
-39.2486073004
 10
-63.0750474248
 20
-39.2603988888
 10
-63.0683786776
 20
-39.2723143561
  0
LINE
  5
4E3
100
AcDbEntity
  8
0
100
AcDbLine
 62
7
  6
CONTINUOUS
 10
-63.0872065507
 20
-39.2373769041
 11
-63.081393259
 21
-39.2486073004
  0
LWPOLYLINE
  5
4E4
100
AcDbEntity
  8
0
100
AcDbPolyline
 62
7
  6
CONTINUOUS
 90
4
 70
0
 10
-63.1015545726
 20
-39.2076062222
 10
-63.0974457664
 20
-39.2164613452
 10
-63.0925637212
 20
-39.2266270064
 10
-63.0872065507
 20
-39.2373769041
  0
LWPOLYLINE
  5
4E5
100
AcDbEntity
  8
0
100
AcDbPolyline
 62
7
  6
CONTINUOUS
 90
3
 70
0
 43
0.3500000006
 10
-62.2411365509
 20
51.5357128601
 10
-62.3125632019
 20
51.3214283752
 10
-62.4554210358
 20
51.0357127075
  0
LWPOLYLINE
  5
4E6
100
AcDbEntity
  8
0
100
AcDbPolyline
 62
7
  6
CONTINUOUS
 90
4
 70
0
 10
-63.1271228334
 20
39.144895024
 10
-63.1302314328
 20
39.1359505531
 10
-63.1330414447
 20
39.1274541642
 10
-63.1355744272
 20
39.1194083347
  0
LINE
  5
4E7
100
AcDbEntity
  8
0
100
AcDbLine
 62
7
  6
CONTINUOUS
 10
-63.173784184
 20
39.0032806636
 11
-63.2834252929
 21
38.6901449145
  0
LINE
  5
4E8
100
AcDbEntity
  8
0
100
AcDbLine
 62
7
  6
CONTINUOUS
 10
-63.1453893275
 20
39.0833716139
 11
-63.173716089
 21
39.003401954
  0
LINE
  5
4E9
100
AcDbEntity
  8
0
100
AcDbLine
 62
7
  6
CONTINUOUS
 10
-63.1170658489
 20
39.1712460957
 11
-63.1171246799
 21
39.1710967873
  0
LWPOLYLINE
  5
4EA
100
AcDbEntity
  8
0
100
AcDbPolyline
 62
7
  6
CONTINUOUS
 90
5
 70
0
 10
-63.1156079223
 20
39.1748889173
 10
-63.1188113349
 20
39.1669209888
 10
-63.1213621353
 20
39.1604175947
 10
-63.124143651
 20
39.1530782642
 10
-63.1271228334
 20
39.144895024
  0
LINE
  5
4EB
100
AcDbEntity
  8
0
100
AcDbLine
 62
7
  6
CONTINUOUS
 10
-63.1142348706
 20
39.1782713028
 11
-63.1156039108
 21
39.1748987961
  0
LWPOLYLINE
  5
4EC
100
AcDbEntity
  8
0
100
AcDbPolyline
 62
7
  6
CONTINUOUS
 90
4
 70
0
 10
-63.1071464175
 20
39.1950682163
 10
-63.1090921776
 20
39.1905627687
 10
-63.1107323209
 20
39.1867042048
 10
-63.1171246799
 20
39.1710967873
  0
LINE
  5
4ED
100
AcDbEntity
  8
0
100
AcDbLine
 62
250
  6
CONTINUOUS
 10
-63.1252566593
 20
39.1496542822
 11
-63.1090921776
 21
39.1905627687
  0
LINE
  5
4EE
100
AcDbEntity
  8
0
100
AcDbLine
 62
250
  6
CONTINUOUS
 10
-63.1071464175
 20
39.1950682163
 11
-63.0922392799
 21
39.2260346492
  0
LINE
  5
4EF
100
AcDbEntity
  8
0
100
AcDbLine
 62
7
  6
CONTINUOUS
 10
-66.1993590847
 20
24.6243903216
 11
-66.1191432488
 21
24.8021063296
  0
LINE
  5
4F0
100
AcDbEntity
  8
0
100
AcDbLine
 62
7
  6
CONTINUOUS
 10
-66.2871277289
 20
24.4599024236
 11
-66.1963891765
 21
24.6304417911
  0
LINE
  5
4F1
100
AcDbEntity
  8
0
100
AcDbLine
 62
7
  6
CONTINUOUS
 10
-66.6029775474
 20
23.9716647502
 11
-66.5507014963
 21
24.0671408711
  0
LWPOLYLINE
  5
4F2
100
AcDbEntity
  8
0
100
AcDbPolyline
 62
7
  6
CONTINUOUS
 90
3
 70
0
 10
-66.2844459152
 20
24.4645722492
 10
-66.383200346
 20
24.3048422292
 10
-66.3969654879
 20
24.2807987674
  0
LWPOLYLINE
  5
4F3
100
AcDbEntity
  8
0
100
AcDbPolyline
 62
7
  6
CONTINUOUS
 90
4
 70
0
 10
-66.5507014963
 20
-24.0671408711
 10
-66.6029775474
 20
-23.9716647502
 10
-66.642728185
 20
-23.874916934
 10
-66.6717427934
 20
-23.7744460009
  0
LINE
  5
4F4
100
AcDbEntity
  8
0
100
AcDbLine
 62
250
  6
CONTINUOUS
 10
-63.1252582133
 20
-39.1496499814
 11
-63.1118422209
 21
-39.1837532187
  0
LINE
  5
4F5
100
AcDbEntity
  8
0
100
AcDbLine
 62
250
  6
CONTINUOUS
 10
-63.1073529979
 20
-39.1945936876
 11
-63.0922392846
 21
-39.2260346427
  0
LINE
  5
4F6
100
AcDbEntity
  8
0
100
AcDbLine
 62
250
  6
CONTINUOUS
 10
-63.1116358703
 20
-39.1842339588
 11
-63.1094415033
 21
-39.1897458334
  0
LWPOLYLINE
  5
4F7
100
AcDbEntity
  8
0
100
AcDbPolyline
 62
7
  6
CONTINUOUS
 90
4
 70
0
 10
-63.1109522106
 20
-39.1861827243
 10
-63.1094415033
 20
-39.1897458334
 10
-63.1073529979
 20
-39.1945936876
 10
-63.1047863944
 20
-39.2004319631
  0
LWPOLYLINE
  5
4F8
100
AcDbEntity
  8
0
100
AcDbPolyline
 62
7
  6
CONTINUOUS
 90
3
 70
0
 10
-63.1150425361
 20
-39.1761783954
 10
-63.1134983128
 20
-39.1798632487
 10
-63.1124528985
 20
-39.1823257356
  0
LINE
  5
4F9
100
AcDbEntity
  8
0
100
AcDbLine
 62
7
  6
CONTINUOUS
 10
-63.116985391
 20
-39.1714553403
 11
-63.1120282512
 21
-39.1836153739
  0
LWPOLYLINE
  5
4FA
100
AcDbEntity
  8
0
100
AcDbPolyline
 62
7
  6
CONTINUOUS
 90
3
 70
0
 10
-63.1216276926
 20
-39.1597284884
 10
-63.119199185
 20
-39.1659452293
 10
-63.116985391
 20
-39.1714553403
  0
LWPOLYLINE
  5
4FB
100
AcDbEntity
  8
0
100
AcDbPolyline
 62
7
  6
CONTINUOUS
 90
3
 70
0
 10
-63.1271227719
 20
-39.1448951976
 10
-63.1242789463
 20
-39.1527141661
 10
-63.1216276926
 20
-39.1597284884
  0
LINE
  5
4FC
100
AcDbEntity
  8
0
100
AcDbLine
 62
7
  6
CONTINUOUS
 10
-63.1965628548
 20
-38.9387424199
 11
-63.145389896
 21
-39.0833693552
  0
LINE
  5
4FD
100
AcDbEntity
  8
0
100
AcDbLine
 62
7
  6
CONTINUOUS
 10
-63.130231373
 20
-39.1359507299
 11
-63.1271227719
 21
-39.1448951976
  0
LWPOLYLINE
  5
4FE
100
AcDbEntity
  8
0
100
AcDbPolyline
 62
7
  6
CONTINUOUS
 90
14
 70
0
 10
-64.3617922206
 20
35.1488858399
 10
-64.4219941634
 20
34.9209786825
 10
-64.4810943691
 20
34.692768156
 10
-64.5391833483
 20
34.4636900363
 10
-64.596350648
 20
34.2331892126
 10
-64.6519703911
 20
34.003702514
 10
-64.70609946
 20
33.7750417717
 10
-64.7588855411
 20
33.5466569374
 10
-64.8098658102
 20
33.3207298895
 10
-64.8590671185
 20
33.0974447383
 10
-64.9066339368
 20
32.8764717382
 10
-64.9522795068
 20
32.6595345262
 10
-64.9960302066
 20
32.4469748348
 10
-65.0778869118
 20
32.0367480799
  0
LINE
  5
4FF
100
AcDbEntity
  8
0
100
AcDbLine
 62
7
  6
CONTINUOUS
 10
-64.2403455622
 20
35.5965598345
 11
-64.3617922206
 21
35.1488858399
  0
LINE
  5
500
100
AcDbEntity
  8
0
100
AcDbLine
 62
250
  6
CONTINUOUS
 10
-63.2620577454
 20
38.6730468405
 11
-63.1450960407
 21
39.0842009192
  0
LWPOLYLINE
  5
501
100
AcDbEntity
  8
0
100
AcDbPolyline
 62
7
  6
CONTINUOUS
 90
5
 70
0
 10
-63.1378549037
 20
39.1118023366
 10
-63.1398986542
 20
39.104650556
 10
-63.1417140126
 20
39.0979937187
 10
-63.1433164294
 20
39.0918470354
 10
-63.1447270166
 20
39.0861988786
  0
LINE
  5
502
100
AcDbEntity
  8
0
100
AcDbLine
 62
7
  6
CONTINUOUS
 10
-63.1450960407
 20
39.0842009193
 11
-63.1252596105
 21
39.1496461132
  0
LINE
  5
503
100
AcDbEntity
  8
0
100
AcDbLine
 62
7
  6
CONTINUOUS
 10
-66.0552921415
 20
24.9722723857
 11
-65.9992222059
 21
25.157345567
  0
LWPOLYLINE
  5
504
100
AcDbEntity
  8
0
100
AcDbPolyline
 62
250
  6
CONTINUOUS
 90
10
 70
0
 10
-63.1450960407
 20
39.0842009192
 10
-63.2634719095
 20
38.7138142218
 10
-63.3800407676
 20
38.339364559
 10
-63.4948559636
 20
37.9607199963
 10
-63.6078615254
 20
37.5781238121
 10
-63.7192207272
 20
37.1910869313
 10
-63.8293031228
 20
36.7983346399
 10
-63.9382532541
 20
36.3993053543
 10
-64.0460036243
 20
35.9942038887
 10
-64.152594186
 20
35.5828566402
  0
LWPOLYLINE
  5
505
100
AcDbEntity
  8
0
100
AcDbPolyline
 62
7
  6
CONTINUOUS
 90
12
 70
0
 10
-63.2834252929
 20
38.6901449145
 10
-63.3704238751
 20
38.4369178534
 10
-63.4576339334
 20
38.1784215875
 10
-63.5459977749
 20
37.9113510773
 10
-63.6347854548
 20
37.6373789
 10
-63.7217180515
 20
37.3633171554
 10
-63.8070044723
 20
37.0885578029
 10
-63.8909685
 20
36.8121302801
 10
-63.9716409337
 20
36.5408412719
 10
-64.0485289169
 20
36.2769959412
 10
-64.1225733142
 20
36.0180090329
 10
-64.2403455622
 20
35.5965598345
  0
LINE
  5
506
100
AcDbEntity
  8
0
100
AcDbLine
 62
7
  6
CONTINUOUS
 10
-66.1218362512
 20
24.7955773588
 11
-66.0532122809
 21
24.9784221342
  0
LWPOLYLINE
  5
507
100
AcDbEntity
  8
0
100
AcDbPolyline
 62
7
  6
CONTINUOUS
 90
5
 70
0
 10
-66.6029775474
 20
23.9716647502
 10
-66.642728185
 20
23.874916934
 10
-66.6717427934
 20
23.7744460009
 10
-66.6896991984
 20
23.6710893347
 10
-66.6963870199
 20
23.5636475559
  0
LWPOLYLINE
  5
508
100
AcDbEntity
  8
0
100
AcDbPolyline
 62
250
  6
CONTINUOUS
 90
10
 70
0
 10
-63.1450960407
 20
-39.0842009192
 10
-63.26347183
 20
-38.7138144738
 10
-63.3800406299
 20
-38.3393650071
 10
-63.4948557882
 20
-37.9607205825
 10
-63.6078613314
 20
-37.5781244774
 10
-63.7192205337
 20
-37.1910876127
 10
-63.8293029494
 20
-36.7983352665
 10
-63.9382531204
 20
-36.3993058505
 10
-64.0460035485
 20
-35.9942041772
 10
-64.152594186
 20
-35.5828566402
  0
LWPOLYLINE
  5
509
100
AcDbEntity
  8
0
100
AcDbPolyline
 62
7
  6
CONTINUOUS
 90
3
 70
0
 10
-63.1355743812
 20
-39.1194084846
 10
-63.1330413903
 20
-39.1274543333
 10
-63.130231373
 20
-39.1359507299
  0
LINE
  5
50A
100
AcDbEntity
  8
0
100
AcDbLine
 62
7
  6
CONTINUOUS
 10
-63.1450960407
 20
-39.0842009192
 11
-63.1252687177
 21
-39.149620902
  0
LWPOLYLINE
  5
50B
100
AcDbEntity
  8
0
100
AcDbPolyline
 62
7
  6
CONTINUOUS
 90
11
 70
0
 10
-64.048535361
 20
-36.2769736108
 10
-63.9716497309
 20
-36.5408113797
 10
-63.8909791695
 20
-36.8120947723
 10
-63.8070164732
 20
-37.0885187185
 10
-63.7217306236
 20
-37.3632770893
 10
-63.634797663
 20
-37.6373408246
 10
-63.5460088039
 20
-37.9113174028
 10
-63.457643173
 20
-38.17839394
 10
-63.3704307558
 20
-38.4368976478
 10
-63.2834291123
 20
-38.6901338935
 10
-63.1965628548
 20
-38.9387424199
  0
LINE
  5
50C
100
AcDbEntity
  8
0
100
AcDbLine
 62
250
  6
CONTINUOUS
 10
-63.2620576885
 20
-38.6730470431
 11
-63.1450960407
 21
-39.0842009192
  0
LINE
  5
50D
100
AcDbEntity
  8
0
100
AcDbLine
 62
7
  6
CONTINUOUS
 10
-64.1525941888
 20
-35.9116382894
 11
-64.048535361
 21
-36.2769736108
  0
LINE
  5
50E
100
AcDbEntity
  8
0
100
AcDbLine
 62
7
  6
CONTINUOUS
 10
-64.2403455622
 20
-35.5965598345
 11
-64.1525941888
 21
-35.911638295
  0
LINE
  5
50F
100
AcDbEntity
  8
0
100
AcDbLine
 62
7
  6
CONTINUOUS
 10
-65.2651235998
 20
31.0244877263
 11
-65.3728638176
 21
30.3751572677
  0
LINE
  5
510
100
AcDbEntity
  8
0
100
AcDbLine
 62
7
  6
CONTINUOUS
 10
-65.2345811052
 20
31.1989591545
 11
-65.2821759924
 21
30.9251962219
  0
LINE
  5
511
100
AcDbEntity
  8
0
100
AcDbLine
 62
250
  6
CONTINUOUS
 10
-65.5883532683
 20
27.3239774045
 11
-65.4209870425
 21
28.2697775956
  0
LINE
  5
512
100
AcDbEntity
  8
0
100
AcDbLine
 62
7
  6
CONTINUOUS
 10
-65.2645959817
 20
31.0274079981
 11
-65.2651235998
 21
31.0244877263
  0
LINE
  5
513
100
AcDbEntity
  8
0
100
AcDbLine
 62
7
  6
CONTINUOUS
 10
-65.1934957388
 20
31.427369835
 11
-65.2345811052
 21
31.1989591545
  0
LINE
  5
514
100
AcDbEntity
  8
0
100
AcDbLine
 62
250
  6
CONTINUOUS
 10
-65.4209870425
 20
28.2697775956
 11
-65.2448724347
 21
29.2346797185
  0
LWPOLYLINE
  5
515
100
AcDbEntity
  8
0
100
AcDbPolyline
 62
250
  6
CONTINUOUS
 90
10
 70
0
 10
-65.1525941829
 20
30.369619874
 10
-65.0465564805
 20
30.9385708785
 10
-64.9383094324
 20
31.5030348965
 10
-64.8283667793
 20
32.0608781361
 10
-64.7173749207
 20
32.6093465129
 10
-64.6056175339
 20
33.1475226488
 10
-64.4929768357
 20
33.6763005449
 10
-64.3796241603
 20
34.195055479
 10
-64.266060858
 20
34.7016560778
 10
-64.1525941895
 20
35.1949136289
  0
LWPOLYLINE
  5
516
100
AcDbEntity
  8
0
100
AcDbPolyline
 62
7
  6
CONTINUOUS
 90
4
 70
0
 10
-66.6824648772
 20
23.7127299261
 10
-66.669717979
 20
23.7808763627
 10
-66.6399567659
 20
23.8806537279
 10
-66.6001086906
 20
23.9763883636
  0
LWPOLYLINE
  5
517
100
AcDbEntity
  8
0
100
AcDbPolyline
 62
250
  6
CONTINUOUS
 90
10
 70
0
 10
-65.1525941816
 20
31.0246453689
 10
-65.0479057785
 20
31.5835977812
 10
-64.9413509372
 20
32.1274945659
 10
-64.8329478818
 20
32.6575859739
 10
-64.7224581933
 20
33.176266384
 10
-64.6101475232
 20
33.6834840114
 10
-64.4968445494
 20
34.1769168804
 10
-64.3828992084
 20
34.656636207
 10
-64.26812364
 20
35.1249338001
 10
-64.152594186
 20
35.5828566402
  0
LINE
  5
518
100
AcDbEntity
  8
0
100
AcDbLine
 62
7
  6
CONTINUOUS
 10
-65.1525941846
 20
31.6476916034
 11
-65.1934957388
 21
31.427369835
  0
LINE
  5
519
100
AcDbEntity
  8
0
100
AcDbLine
 62
250
  6
CONTINUOUS
 10
-65.7484166953
 20
24.6938846803
 11
-65.5865522195
 21
25.5580854054
  0
LINE
  5
51A
100
AcDbEntity
  8
0
100
AcDbLine
 62
250
  6
CONTINUOUS
 10
-65.2448724347
 20
29.2346797185
 11
-65.0485778592
 21
30.2796691544
  0
LINE
  5
51B
100
AcDbEntity
  8
0
100
AcDbLine
 62
250
  6
CONTINUOUS
 10
-65.7478371973
 20
24.871743588
 11
-65.5031552787
 21
26.1753137864
  0
LINE
  5
51C
100
AcDbEntity
  8
0
100
AcDbLine
 62
7
  6
CONTINUOUS
 10
-65.0778869118
 20
32.0367480799
 11
-65.1525941847
 21
31.6477316921
  0
LINE
  5
51D
100
AcDbEntity
  8
0
100
AcDbLine
 62
250
  6
CONTINUOUS
 10
-65.0485778592
 20
30.2796691544
 11
-64.8319184823
 21
31.3977916104
  0
LINE
  5
51E
100
AcDbEntity
  8
0
100
AcDbLine
 62
250
  6
CONTINUOUS
 10
-65.5865522195
 20
25.5580854054
 11
-65.3332234068
 21
26.870048918
  0
LINE
  5
51F
100
AcDbEntity
  8
0
100
AcDbLine
 62
250
  6
CONTINUOUS
 10
-65.5031552787
 20
26.1753137864
 11
-65.2440673892
 21
27.5099305677
  0
LINE
  5
520
100
AcDbEntity
  8
0
100
AcDbLine
 62
250
  6
CONTINUOUS
 10
-65.5935931749
 20
24.3799633182
 11
-65.4259244621
 21
25.2265219527
  0
LINE
  5
521
100
AcDbEntity
  8
0
100
AcDbLine
 62
250
  6
CONTINUOUS
 10
-64.8319184823
 20
31.3977916104
 11
-64.6070481999
 21
32.5234521509
  0
LINE
  5
522
100
AcDbEntity
  8
0
100
AcDbLine
 62
250
  6
CONTINUOUS
 10
-65.3332234068
 20
26.870048918
 11
-65.0531138141
 21
28.2737438988
  0
LINE
  5
523
100
AcDbEntity
  8
0
100
AcDbLine
 62
250
  6
CONTINUOUS
 10
-65.2440673892
 20
27.5099305677
 11
-64.948853319
 21
28.9849387224
  0
LINE
  5
524
100
AcDbEntity
  8
0
100
AcDbLine
 62
250
  6
CONTINUOUS
 10
-65.4259244621
 20
25.2265219527
 11
-65.2468558035
 21
26.1016740701
  0
LINE
  5
525
100
AcDbEntity
  8
0
100
AcDbLine
 62
250
  6
CONTINUOUS
 10
-65.0531138141
 20
28.2737438988
 11
-64.8435810982
 21
29.2951921465
  0
LINE
  5
526
100
AcDbEntity
  8
0
100
AcDbLine
 62
250
  6
CONTINUOUS
 10
-64.6070481999
 20
32.5234521509
 11
-64.3793144614
 21
33.62984269
  0
LINE
  5
527
100
AcDbEntity
  8
0
100
AcDbLine
 62
250
  6
CONTINUOUS
 10
-64.948853319
 20
28.9849387224
 11
-64.6217763648
 21
30.5680633817
  0
LINE
  5
528
100
AcDbEntity
  8
0
100
AcDbLine
 62
250
  6
CONTINUOUS
 10
-64.8435810982
 20
29.2951921465
 11
-64.6235283275
 21
30.3444247515
  0
LINE
  5
529
100
AcDbEntity
  8
0
100
AcDbLine
 62
250
  6
CONTINUOUS
 10
-65.2468558035
 20
26.1016740701
 11
-65.0567256731
 21
27.0037443911
  0
LINE
  5
52A
100
AcDbEntity
  8
0
100
AcDbLine
 62
250
  6
CONTINUOUS
 10
-64.6217763648
 20
30.5680633817
 11
-64.3912501874
 21
31.6549570786
  0
LINE
  5
52B
100
AcDbEntity
  8
0
100
AcDbLine
 62
250
  6
CONTINUOUS
 10
-64.3793144614
 20
33.62984269
 11
-64.152594191
 21
34.6983583088
  0
LINE
  5
52C
100
AcDbEntity
  8
0
100
AcDbLine
 62
250
  6
CONTINUOUS
 10
-64.6235283275
 20
30.3444247515
 11
-64.3925331067
 21
31.4217205327
  0
LINE
  5
52D
100
AcDbEntity
  8
0
100
AcDbLine
 62
250
  6
CONTINUOUS
 10
-64.3912501874
 20
31.6549570786
 11
-64.1525941895
 21
32.7555229602
  0
LINE
  5
52E
100
AcDbEntity
  8
0
100
AcDbLine
 62
250
  6
CONTINUOUS
 10
-65.0567256731
 20
27.0037443911
 11
-64.8525933565
 21
27.9443025432
  0
LINE
  5
52F
100
AcDbEntity
  8
0
100
AcDbLine
 62
250
  6
CONTINUOUS
 10
-63.9371379891
 20
35.6835055225
 11
-64.152594191
 21
34.6983583088
  0
LINE
  5
530
100
AcDbEntity
  8
0
100
AcDbLine
 62
250
  6
CONTINUOUS
 10
-64.3925331067
 20
31.4217205327
 11
-64.152594176
 21
32.5149489992
  0
LINE
  5
531
100
AcDbEntity
  8
0
100
AcDbLine
 62
250
  6
CONTINUOUS
 10
-64.8525933565
 20
27.9443025432
 11
-64.6342198549
 21
28.9234045928
  0
LINE
  5
532
100
AcDbEntity
  8
0
100
AcDbLine
 62
250
  6
CONTINUOUS
 10
-63.8252887297
 20
34.2245870898
 11
-64.1525941895
 21
32.7555229602
  0
LINE
  5
533
100
AcDbEntity
  8
0
100
AcDbLine
 62
250
  6
CONTINUOUS
 10
-64.152594176
 20
32.5149489992
 11
-63.9372415705
 21
33.4739417897
  0
LINE
  5
534
100
AcDbEntity
  8
0
100
AcDbLine
 62
250
  6
CONTINUOUS
 10
-63.714036114
 20
36.6751070837
 11
-63.9371379891
 21
35.6835055225
  0
LWPOLYLINE
  5
535
100
AcDbEntity
  8
0
100
AcDbPolyline
 62
250
  6
CONTINUOUS
 90
9
 70
0
 10
-65.2511608136
 20
23.4579662798
 10
-65.3467163963
 20
23.0417276593
 10
-65.4390602685
 20
22.6308493099
 10
-65.5282278979
 20
22.2250394516
 10
-65.6137530257
 20
21.8262624963
 10
-65.6947753696
 20
21.4385099803
 10
-65.770982557
 20
21.0634111805
 10
-65.8425022948
 20
20.7004627201
 10
-65.9092399863
 20
20.3502128378
  0
LINE
  5
536
100
AcDbEntity
  8
0
100
AcDbLine
 62
250
  6
CONTINUOUS
 10
-64.6342198549
 20
28.9234045928
 11
-64.4004714588
 21
29.9442246314
  0
LINE
  5
537
100
AcDbEntity
  8
0
100
AcDbLine
 62
250
  6
CONTINUOUS
 10
-63.4864306845
 20
35.7016917216
 11
-63.8252887297
 21
34.2245870898
  0
LINE
  5
538
100
AcDbEntity
  8
0
100
AcDbLine
 62
250
  6
CONTINUOUS
 10
-63.9372415705
 20
33.4739417897
 11
-63.6023146206
 21
34.9280154245
  0
LINE
  5
539
100
AcDbEntity
  8
0
100
AcDbLine
 62
250
  6
CONTINUOUS
 10
-63.4860349303
 20
37.6607195938
 11
-63.714036114
 21
36.6751070837
  0
LINE
  5
53A
100
AcDbEntity
  8
0
100
AcDbLine
 62
7
  6
CONTINUOUS
 10
-66.0006316765
 20
25.1520735595
 11
-65.9572900086
 21
25.3376249076
  0
LWPOLYLINE
  5
53B
100
AcDbEntity
  8
0
100
AcDbPolyline
 62
250
  6
CONTINUOUS
 90
9
 70
0
 10
-64.1525941895
 20
35.1949136289
 10
-64.04643382
 20
35.645041731
 10
-63.9386684487
 20
36.0913241186
 10
-63.8293529428
 20
36.5335281653
 10
-63.7185031694
 20
36.9715735671
 10
-63.6062120531
 20
37.4050719211
 10
-63.4926545009
 20
37.8333430937
 10
-63.3779300106
 20
38.2560229217
 10
-63.2620577454
 20
38.6730468405
  0
LINE
  5
53C
100
AcDbEntity
  8
0
100
AcDbLine
 62
250
  6
CONTINUOUS
 10
-64.4004714588
 20
29.9442246314
 11
-64.1525941875
 21
30.9983204474
  0
LINE
  5
53D
100
AcDbEntity
  8
0
100
AcDbLine
 62
250
  6
CONTINUOUS
 10
-63.6023146206
 20
34.9280154245
 11
-63.3743725232
 21
35.8936635161
  0
LINE
  5
53E
100
AcDbEntity
  8
0
100
AcDbLine
 62
250
  6
CONTINUOUS
 10
-63.1450960407
 20
37.1475761919
 11
-63.4864306845
 21
35.7016917216
  0
LINE
  5
53F
100
AcDbEntity
  8
0
100
AcDbLine
 62
250
  6
CONTINUOUS
 10
-65.2511608136
 20
23.4579662798
 11
-65.0604496591
 21
24.2652045712
  0
LINE
  5
540
100
AcDbEntity
  8
0
100
AcDbLine
 62
250
  6
CONTINUOUS
 10
-63.3743725232
 20
35.8936635161
 11
-63.1450960407
 21
36.8461856528
  0
LINE
  5
541
100
AcDbEntity
  8
0
100
AcDbLine
 62
7
  6
CONTINUOUS
 10
-63.1450960407
 20
39.0845848122
 11
-63.1534553655
 21
39.0500666062
  0
LINE
  5
542
100
AcDbEntity
  8
0
100
AcDbLine
 62
250
  6
CONTINUOUS
 10
-64.1525941875
 20
30.9983204474
 11
-63.9396132894
 21
31.8823693186
  0
LWPOLYLINE
  5
543
100
AcDbEntity
  8
0
100
AcDbPolyline
 62
250
  6
CONTINUOUS
 90
3
 70
0
 10
-63.1534371291
 20
39.0500621777
 10
-63.2583784694
 20
38.6179109233
 10
-63.4860349303
 20
37.6607195938
  0
LINE
  5
544
100
AcDbEntity
  8
0
100
AcDbLine
 62
250
  6
CONTINUOUS
 10
-65.0604496591
 20
24.2652045712
 11
-64.8623816735
 21
25.0765076321
  0
LINE
  5
545
100
AcDbEntity
  8
0
100
AcDbLine
 62
250
  6
CONTINUOUS
 10
-63.9396132894
 20
31.8823693186
 11
-63.7204263204
 21
32.7736137023
  0
LINE
  5
546
100
AcDbEntity
  8
0
100
AcDbLine
 62
250
  6
CONTINUOUS
 10
-63.7204263204
 20
32.7736137023
 11
-63.4950079205
 21
33.6721612488
  0
LINE
  5
547
100
AcDbEntity
  8
0
100
AcDbLine
 62
250
  6
CONTINUOUS
 10
-64.8623816735
 20
25.0765076321
 11
-64.6453404091
 21
25.9395342711
  0
LWPOLYLINE
  5
548
100
AcDbEntity
  8
0
100
AcDbPolyline
 62
250
  6
CONTINUOUS
 90
3
 70
0
 10
-63.4950079205
 20
33.6721612488
 10
-63.2633068789
 20
34.578217449
 10
-63.1450960407
 20
35.0340781245
  0
LINE
  5
549
100
AcDbEntity
  8
0
100
AcDbLine
 62
250
  6
CONTINUOUS
 10
-64.6453404091
 20
25.9395342711
 11
-64.4088836743
 21
26.8538297842
  0
LINE
  5
54A
100
AcDbEntity
  8
0
100
AcDbLine
 62
250
  6
CONTINUOUS
 10
-64.4088836743
 20
26.8538297842
 11
-64.1525941761
 21
27.8189626046
  0
LINE
  5
54B
100
AcDbEntity
  8
0
100
AcDbLine
 62
250
  6
CONTINUOUS
 10
-64.1525941761
 20
27.8189626045
 11
-63.9394064064
 21
28.6040784568
  0
LINE
  5
54C
100
AcDbEntity
  8
0
100
AcDbLine
 62
250
  6
CONTINUOUS
 10
-63.9394064064
 20
28.6040784568
 11
-63.7214706763
 21
29.3915846798
  0
LINE
  5
54D
100
AcDbEntity
  8
0
100
AcDbLine
 62
250
  6
CONTINUOUS
 10
-63.7214706763
 20
29.3915846798
 11
-63.4974304886
 21
30.1864885798
  0
LWPOLYLINE
  5
54E
100
AcDbEntity
  8
0
100
AcDbPolyline
 62
250
  6
CONTINUOUS
 90
3
 70
0
 10
-63.4974304886
 20
30.1864885798
 10
-63.2648653232
 20
30.9973984531
 10
-63.1450960407
 20
31.4098631156
  0
LWPOLYLINE
  5
54F
100
AcDbEntity
  8
0
100
AcDbPolyline
 62
7
  6
CONTINUOUS
 90
13
 70
0
 43
0.3500000006
 10
-77.1623547363
 20
-1.9285708809
 10
-77.3766392212
 20
-2.2142854156
 10
-78.0195017395
 20
-2.2142854156
 10
-78.4480707092
 20
-1.9285708809
 10
-78.4480707092
 20
-1.2857140274
 10
-78.0195017395
 20
-1.0000006256
 10
-77.3766392212
 20
-1.0000006256
 10
-77.1623547363
 20
-1.2857140274
 10
-76.7337857666
 20
-0.8571427917
 10
-75.8766432953
 20
-0.8571427917
 10
-75.4480697937
 20
-1.2857140274
 10
-75.4480697937
 20
-1.9285708809
 10
-75.8766432953
 20
-2.3571432495
  0
LINE
  5
550
100
AcDbEntity
  8
0
100
AcDbLine
 62
250
  6
CONTINUOUS
 10
-63.1450960407
 20
-31.4098635796
 11
-63.3834291042
 21
-30.5857062355
  0
LINE
  5
551
100
AcDbEntity
  8
0
100
AcDbLine
 62
250
  6
CONTINUOUS
 10
-63.3834291042
 20
-30.5857062355
 11
-63.6118957805
 21
-29.7821345813
  0
LINE
  5
552
100
AcDbEntity
  8
0
100
AcDbLine
 62
250
  6
CONTINUOUS
 10
-63.6118957805
 20
-29.7821345813
 11
-63.8321619351
 21
-28.9934412315
  0
LINE
  5
553
100
AcDbEntity
  8
0
100
AcDbLine
 62
250
  6
CONTINUOUS
 10
-63.8321619351
 20
-28.9934412315
 11
-64.046992921
 21
-28.2097559614
  0
LINE
  5
554
100
AcDbEntity
  8
0
100
AcDbLine
 62
250
  6
CONTINUOUS
 10
-64.046992921
 20
-28.2097559614
 11
-64.2832622672
 21
-27.3299966454
  0
LINE
  5
555
100
AcDbEntity
  8
0
100
AcDbLine
 62
250
  6
CONTINUOUS
 10
-64.2832622672
 20
-27.3299966454
 11
-64.5296046039
 21
-26.3901497679
  0
LINE
  5
556
100
AcDbEntity
  8
0
100
AcDbLine
 62
250
  6
CONTINUOUS
 10
-63.1450960407
 20
-35.0340785899
 11
-63.379987322
 21
-34.1240768224
  0
LINE
  5
557
100
AcDbEntity
  8
0
100
AcDbLine
 62
250
  6
CONTINUOUS
 10
-64.5296046039
 20
-26.3901497679
 11
-64.7563215981
 21
-25.5013436722
  0
LWPOLYLINE
  5
558
100
AcDbEntity
  8
0
100
AcDbPolyline
 62
250
  6
CONTINUOUS
 90
10
 70
0
 10
-64.152594186
 20
-35.5828566402
 10
-64.2680965129
 20
-35.1250428453
 10
-64.3828509746
 20
-34.6568360298
 10
-64.4967809221
 20
-34.177189201
 10
-64.6100716781
 20
-33.6838202213
 10
-64.7223753222
 20
-33.176647809
 10
-64.8328692435
 20
-32.6579626087
 10
-64.9412891088
 20
-32.1278033469
 10
-65.0478704099
 20
-31.5837823543
 10
-65.1525941816
 20
-31.0246453689
  0
LINE
  5
559
100
AcDbEntity
  8
0
100
AcDbLine
 62
250
  6
CONTINUOUS
 10
-63.379987322
 20
-34.1240768224
 11
-63.6085573073
 21
-33.2217302966
  0
LWPOLYLINE
  5
55A
100
AcDbEntity
  8
0
100
AcDbPolyline
 62
7
  6
CONTINUOUS
 90
13
 70
0
 10
-65.820905574
 20
-25.9553711595
 10
-65.8159245898
 20
-25.9752035338
 10
-65.8107291698
 20
-25.9978595247
 10
-65.8053193141
 20
-26.0232424137
 10
-65.7996667167
 20
-26.0512528667
 10
-65.7937996836
 20
-26.081772289
 10
-65.7878031326
 20
-26.1146581411
 10
-65.7816818176
 20
-26.1497661596
 10
-65.7754309846
 20
-26.1869678223
 10
-65.7691212899
 20
-26.2261325465
 10
-65.7627589517
 20
-26.2670978067
 10
-65.7563377517
 20
-26.3097261596
 10
-65.7499096913
 20
-26.3539273094
  0
LWPOLYLINE
  5
55B
100
AcDbEntity
  8
0
100
AcDbPolyline
 62
7
  6
CONTINUOUS
 90
5
 70
0
 10
-63.1447270329
 20
-39.0861988121
 10
-63.1433164347
 20
-39.0918470147
 10
-63.1417140063
 20
-39.0979937426
 10
-63.1398986345
 20
-39.1046506266
 10
-63.1378548698
 20
-39.1118024527
  0
LINE
  5
55C
100
AcDbEntity
  8
0
100
AcDbLine
 62
250
  6
CONTINUOUS
 10
-63.6085573073
 20
-33.2217302966
 11
-63.8308393838
 21
-32.3269136277
  0
LINE
  5
55D
100
AcDbEntity
  8
0
100
AcDbLine
 62
250
  6
CONTINUOUS
 10
-64.7563215981
 20
-25.5013436722
 11
-64.9637792682
 21
-24.6642759387
  0
LINE
  5
55E
100
AcDbEntity
  8
0
100
AcDbLine
 62
7
  6
CONTINUOUS
 10
-63.1540673117
 20
-39.0475484869
 11
-63.1450960407
 21
-39.0845848162
  0
LINE
  5
55F
100
AcDbEntity
  8
0
100
AcDbLine
 62
250
  6
CONTINUOUS
 10
-63.8308393838
 20
-32.3269136277
 11
-64.0468966849
 21
-31.4393743613
  0
LINE
  5
560
100
AcDbEntity
  8
0
100
AcDbLine
 62
250
  6
CONTINUOUS
 10
-63.1540673117
 20
-39.0475484869
 11
-63.3721037511
 21
-38.1430831999
  0
LINE
  5
561
100
AcDbEntity
  8
0
100
AcDbLine
 62
250
  6
CONTINUOUS
 10
-63.1450960407
 20
-36.8461861193
 11
-63.3741037517
 21
-35.8947914666
  0
LINE
  5
562
100
AcDbEntity
  8
0
100
AcDbLine
 62
250
  6
CONTINUOUS
 10
-64.9637792682
 20
-24.6642759387
 11
-65.1525941783
 21
-23.8787684896
  0
LINE
  5
563
100
AcDbEntity
  8
0
100
AcDbLine
 62
250
  6
CONTINUOUS
 10
-64.0468966849
 20
-31.4393743613
 11
-64.2781164325
 21
-30.4681103034
  0
LWPOLYLINE
  5
564
100
AcDbEntity
  8
0
100
AcDbPolyline
 62
250
  6
CONTINUOUS
 90
9
 70
0
 10
-64.1525941895
 20
-35.1949136289
 10
-64.0464337659
 20
-35.6450419575
 10
-63.938668353
 20
-36.0913245105
 10
-63.8293528184
 20
-36.5335286627
 10
-63.7185030304
 20
-36.9715741104
 10
-63.6062119135
 20
-37.4050724535
 10
-63.4926543747
 20
-37.833343564
 10
-63.3779299117
 20
-38.2560232819
 10
-63.2620576885
 20
-38.6730470431
  0
LWPOLYLINE
  5
565
100
AcDbEntity
  8
0
100
AcDbPolyline
 62
250
  6
CONTINUOUS
 90
10
 70
0
 10
-65.1525941783
 20
-23.8787684896
 10
-65.2511608353
 20
-23.4579661854
 10
-65.3467164426
 20
-23.0417274514
 10
-65.4390603413
 20
-22.6308489675
 10
-65.5282280103
 20
-22.2250388984
 10
-65.6137531774
 20
-21.8262617103
 10
-65.694775528
 20
-21.4385090994
 10
-65.7709826836
 20
-21.063410393
 10
-65.842502367
 20
-20.7004621605
 10
-65.9092399863
 20
-20.3502126373
  0
LINE
  5
566
100
AcDbEntity
  8
0
100
AcDbLine
 62
250
  6
CONTINUOUS
 10
-63.4866624373
 20
-35.7006960715
 11
-63.1450960407
 21
-37.1475760374
  0
LINE
  5
567
100
AcDbEntity
  8
0
100
AcDbLine
 62
250
  6
CONTINUOUS
 10
-63.3721037511
 20
-38.1430831999
 11
-63.6001894912
 21
-37.1706650087
  0
LINE
  5
568
100
AcDbEntity
  8
0
100
AcDbLine
 62
250
  6
CONTINUOUS
 10
-63.3741037517
 20
-35.8947914666
 11
-63.7149442684
 21
-34.4438420384
  0
LINE
  5
569
100
AcDbEntity
  8
0
100
AcDbLine
 62
250
  6
CONTINUOUS
 10
-64.2781164325
 20
-30.4681103034
 11
-64.5193382222
 21
-29.4284648294
  0
LWPOLYLINE
  5
56A
100
AcDbEntity
  8
0
100
AcDbPolyline
 62
250
  6
CONTINUOUS
 90
10
 70
0
 10
-64.1525941895
 20
-35.1949136289
 10
-64.266083324
 20
-34.7015571414
 10
-64.3796661376
 20
-34.1948658086
 10
-64.493035335
 20
-33.6760293972
 10
-64.6056937297
 20
-33.1471603795
 10
-64.7174656389
 20
-32.6089040144
 10
-64.8284569497
 20
-32.0604266834
 10
-64.938381262
 20
-31.5026654787
 10
-65.0465976819
 20
-30.9383529884
 10
-65.1525941829
 20
-30.369619874
  0
LINE
  5
56B
100
AcDbEntity
  8
0
100
AcDbLine
 62
250
  6
CONTINUOUS
 10
-63.7149442684
 20
-34.4438420384
 11
-63.937059869
 21
-33.4747426401
  0
LINE
  5
56C
100
AcDbEntity
  8
0
100
AcDbLine
 62
250
  6
CONTINUOUS
 10
-63.8254652869
 20
-34.2238066192
 11
-63.4866624373
 21
-35.7006960715
  0
LINE
  5
56D
100
AcDbEntity
  8
0
100
AcDbLine
 62
250
  6
CONTINUOUS
 10
-63.6001894912
 20
-37.1706650087
 11
-63.8265193879
 21
-36.1786272113
  0
LINE
  5
56E
100
AcDbEntity
  8
0
100
AcDbLine
 62
250
  6
CONTINUOUS
 10
-64.5193382222
 20
-29.4284648294
 11
-64.7450786727
 21
-28.4296017546
  0
LINE
  5
56F
100
AcDbEntity
  8
0
100
AcDbLine
 62
250
  6
CONTINUOUS
 10
-63.937059869
 20
-33.4747426401
 11
-64.152594176
 21
-32.5149489992
  0
LINE
  5
570
100
AcDbEntity
  8
0
100
AcDbLine
 62
250
  6
CONTINUOUS
 10
-64.1525941895
 20
-32.7555229602
 11
-63.8254652869
 21
-34.2238066192
  0
LINE
  5
571
100
AcDbEntity
  8
0
100
AcDbLine
 62
250
  6
CONTINUOUS
 10
-63.8265193879
 20
-36.1786272113
 11
-64.0459112476
 21
-35.1897077649
  0
LINE
  5
572
100
AcDbEntity
  8
0
100
AcDbLine
 62
250
  6
CONTINUOUS
 10
-64.7450786727
 20
-28.4296017546
 11
-64.9566098164
 21
-27.4683576178
  0
LINE
  5
573
100
AcDbEntity
  8
0
100
AcDbLine
 62
250
  6
CONTINUOUS
 10
-64.3925331067
 20
-31.4217205327
 11
-64.152594176
 21
-32.5149489992
  0
LINE
  5
574
100
AcDbEntity
  8
0
100
AcDbLine
 62
250
  6
CONTINUOUS
 10
-64.1525941895
 20
-32.7555229602
 11
-64.3913035578
 21
-31.6547081419
  0
LINE
  5
575
100
AcDbEntity
  8
0
100
AcDbLine
 62
250
  6
CONTINUOUS
 10
-64.0459112476
 20
-35.1897077649
 11
-64.2659372023
 21
-34.1683103274
  0
LINE
  5
576
100
AcDbEntity
  8
0
100
AcDbLine
 62
250
  6
CONTINUOUS
 10
-64.6235283275
 20
-30.3444247515
 11
-64.3925331067
 21
-31.4217205327
  0
LINE
  5
577
100
AcDbEntity
  8
0
100
AcDbLine
 62
250
  6
CONTINUOUS
 10
-64.9566098164
 20
-27.4683576178
 11
-65.152594183
 21
-26.5522107386
  0
LINE
  5
578
100
AcDbEntity
  8
0
100
AcDbLine
 62
250
  6
CONTINUOUS
 10
-64.3913035578
 20
-31.6547081419
 11
-64.6218137621
 21
-30.5678851625
  0
LWPOLYLINE
  5
579
100
AcDbEntity
  8
0
100
AcDbPolyline
 62
7
  6
CONTINUOUS
 90
13
 70
0
 10
-64.9522795068
 20
-32.6595345262
 10
-64.9066339368
 20
-32.8764717382
 10
-64.8590671185
 20
-33.0974447383
 10
-64.8098658102
 20
-33.3207298895
 10
-64.7588855411
 20
-33.5466569374
 10
-64.70609946
 20
-33.7750417717
 10
-64.6519703911
 20
-34.003702514
 10
-64.596350648
 20
-34.2331892126
 10
-64.5391833483
 20
-34.4636900363
 10
-64.4810943691
 20
-34.692768156
 10
-64.4219941634
 20
-34.9209786825
 10
-64.3617922206
 20
-35.1488858399
 10
-64.2403455622
 20
-35.5965598345
  0
LINE
  5
57A
100
AcDbEntity
  8
0
100
AcDbLine
 62
250
  6
CONTINUOUS
 10
-64.8435810982
 20
-29.2951921465
 11
-64.6235283275
 21
-30.3444247515
  0
LINE
  5
57B
100
AcDbEntity
  8
0
100
AcDbLine
 62
250
  6
CONTINUOUS
 10
-64.2659372023
 20
-34.1683103274
 11
-64.4936203366
 21
-33.0786636823
  0
LINE
  5
57C
100
AcDbEntity
  8
0
100
AcDbLine
 62
250
  6
CONTINUOUS
 10
-65.337888677
 20
-25.6601635456
 11
-65.152594183
 21
-26.5522107386
  0
LINE
  5
57D
100
AcDbEntity
  8
0
100
AcDbLine
 62
250
  6
CONTINUOUS
 10
-64.6218137621
 20
-30.5678851625
 11
-64.948833074
 21
-28.9850382879
  0
LINE
  5
57E
100
AcDbEntity
  8
0
100
AcDbLine
 62
250
  6
CONTINUOUS
 10
-65.0531138141
 20
-28.2737438988
 11
-64.8435810982
 21
-29.2951921465
  0
LINE
  5
57F
100
AcDbEntity
  8
0
100
AcDbLine
 62
7
  6
CONTINUOUS
 10
-65.0379701949
 20
-32.2388579459
 11
-64.9522795068
 21
-32.6595345262
  0
LINE
  5
580
100
AcDbEntity
  8
0
100
AcDbLine
 62
250
  6
CONTINUOUS
 10
-64.4936203366
 20
-33.0786636823
 11
-64.7199690985
 21
-31.96241728
  0
LINE
  5
581
100
AcDbEntity
  8
0
100
AcDbLine
 62
250
  6
CONTINUOUS
 10
-64.948833074
 20
-28.9850382879
 11
-65.2452803926
 21
-27.5037749999
  0
LINE
  5
582
100
AcDbEntity
  8
0
100
AcDbLine
 62
250
  6
CONTINUOUS
 10
-65.0531138141
 20
-28.2737438988
 11
-65.3351582598
 21
-26.8601962244
  0
LWPOLYLINE
  5
583
100
AcDbEntity
  8
0
100
AcDbPolyline
 62
250
  6
CONTINUOUS
 90
3
 70
0
 10
-65.5935932167
 20
-24.3799630465
 10
-65.5110122175
 20
-24.8005153279
 10
-65.337888677
 20
-25.6601635456
  0
LINE
  5
584
100
AcDbEntity
  8
0
100
AcDbLine
 62
250
  6
CONTINUOUS
 10
-64.7199690985
 20
-31.96241728
 11
-64.9410392532
 21
-30.8390049764
  0
LINE
  5
585
100
AcDbEntity
  8
0
100
AcDbLine
 62
7
  6
CONTINUOUS
 10
-65.1157260278
 20
-31.8414752532
 11
-65.0379701949
 21
-32.2388579459
  0
LINE
  5
586
100
AcDbEntity
  8
0
100
AcDbLine
 62
250
  6
CONTINUOUS
 10
-65.3351582598
 20
-26.8601962244
 11
-65.5065838297
 21
-25.9772883628
  0
LINE
  5
587
100
AcDbEntity
  8
0
100
AcDbLine
 62
250
  6
CONTINUOUS
 10
-65.2452803926
 20
-27.5037749999
 11
-65.5059962179
 21
-26.1604355966
  0
LINE
  5
588
100
AcDbEntity
  8
0
100
AcDbLine
 62
250
  6
CONTINUOUS
 10
-64.9410392532
 20
-30.8390049764
 11
-65.1525941914
 21
-29.7297993469
  0
LWPOLYLINE
  5
589
100
AcDbEntity
  8
0
100
AcDbPolyline
 62
250
  6
CONTINUOUS
 90
3
 70
0
 10
-65.5065838297
 20
-25.9772883628
 10
-65.6703150041
 20
-25.1135528346
 10
-65.7502890786
 20
-24.6837618937
  0
LWPOLYLINE
  5
58A
100
AcDbEntity
  8
0
100
AcDbPolyline
 62
7
  6
CONTINUOUS
 90
4
 70
0
 10
-66.6824648772
 20
-23.7127299261
 10
-66.669717979
 20
-23.7808763627
 10
-66.6399567659
 20
-23.8806537279
 10
-66.6001086906
 20
-23.9763883636
  0
LINE
  5
58B
100
AcDbEntity
  8
0
100
AcDbLine
 62
7
  6
CONTINUOUS
 10
-65.1752820363
 20
-31.5263413195
 11
-65.1157260278
 21
-31.8414752532
  0
LINE
  5
58C
100
AcDbEntity
  8
0
100
AcDbLine
 62
250
  6
CONTINUOUS
 10
-65.5059962179
 20
-26.1604355966
 11
-65.7498367148
 21
-24.8609009967
  0
LINE
  5
58D
100
AcDbEntity
  8
0
100
AcDbLine
 62
250
  6
CONTINUOUS
 10
-65.1525941914
 20
-29.7297993469
 11
-65.3576613139
 21
-28.6200142181
  0
LINE
  5
58E
100
AcDbEntity
  8
0
100
AcDbLine
 62
7
  6
CONTINUOUS
 10
-65.2156964901
 20
-31.3048416967
 11
-65.1752820363
 21
-31.5263413195
  0
LWPOLYLINE
  5
58F
100
AcDbEntity
  8
0
100
AcDbPolyline
 62
250
  6
CONTINUOUS
 90
3
 70
0
 10
-65.1525941829
 20
-30.369619874
 10
-65.3186868554
 20
-29.4442748751
 10
-65.3976857708
 20
-28.988003308
  0
LINE
  5
590
100
AcDbEntity
  8
0
100
AcDbLine
 62
250
  6
CONTINUOUS
 10
-65.3576613139
 20
-28.6200142181
 11
-65.5488967713
 21
-27.5497431572
  0
LINE
  5
591
100
AcDbEntity
  8
0
100
AcDbLine
 62
7
  6
CONTINUOUS
 10
-65.2519035962
 20
-31.1004772165
 11
-65.2156964901
 21
-31.3048416967
  0
LINE
  5
592
100
AcDbEntity
  8
0
100
AcDbLine
 62
250
  6
CONTINUOUS
 10
-65.5488967713
 20
-27.5497431572
 11
-65.6102766225
 21
-27.197752393
  0
LWPOLYLINE
  5
593
100
AcDbEntity
  8
0
100
AcDbPolyline
 62
7
  6
CONTINUOUS
 90
3
 70
0
 10
-66.6717427934
 20
-23.7744460009
 10
-66.6896991984
 20
-23.6710893347
 10
-66.6963870199
 20
-23.5636475559
  0
LINE
  5
594
100
AcDbEntity
  8
0
100
AcDbLine
 62
7
  6
CONTINUOUS
 10
-65.2944693005
 20
-30.852842076
 11
-65.2519035962
 21
-31.1004772165
  0
LINE
  5
595
100
AcDbEntity
  8
0
100
AcDbLine
 62
7
  6
CONTINUOUS
 10
-65.2647652899
 20
-31.0264709074
 11
-65.3728638176
 21
-30.3751572678
  0
LINE
  5
596
100
AcDbEntity
  8
0
100
AcDbLine
 62
7
  6
CONTINUOUS
 10
-65.8253940218
 20
-26.4790840203
 11
-65.8716968628
 21
-26.0520953474
  0
LINE
  5
597
100
AcDbEntity
  8
0
100
AcDbLine
 62
7
  6
CONTINUOUS
 10
-65.9092399863
 20
-25.7004238655
 11
-65.882721525
 21
-25.9525171472
  0
LINE
  5
598
100
AcDbEntity
  8
0
100
AcDbLine
 62
7
  6
CONTINUOUS
 10
-65.7340423343
 20
-27.6734078781
 11
-65.8028924839
 21
-27.0010855906
  0
LWPOLYLINE
  5
599
100
AcDbEntity
  8
0
100
AcDbPolyline
 62
7
  6
CONTINUOUS
 90
10
 70
0
 10
-65.9092410856
 20
-25.7004239387
 10
-65.9272932099
 20
-25.5189004216
 10
-65.9572900086
 20
-25.3376249076
 10
-65.9992222059
 20
-25.157345567
 10
-66.0532122809
 20
-24.9784221342
 10
-66.1191432488
 20
-24.8021063296
 10
-66.1963891765
 20
-24.6304417911
 10
-66.2844459152
 20
-24.4645722492
 10
-66.383200346
 20
-24.3048422292
 10
-66.492370609
 20
-24.1520063295
  0
LWPOLYLINE
  5
59A
100
AcDbEntity
  8
0
100
AcDbPolyline
 62
7
  6
CONTINUOUS
 90
10
 70
0
 10
-65.6775103022
 20
-26.950962155
 10
-65.6604242274
 20
-27.123190824
 10
-65.6529329949
 20
-27.2034897279
 10
-65.6462774304
 20
-27.2794386593
 10
-65.6405070075
 20
-27.3504977736
 10
-65.6355722528
 20
-27.4158343211
 10
-65.6314623866
 20
-27.4747865926
 10
-65.628173816
 20
-27.5268526678
 10
-65.625710134
 20
-27.5716643466
 10
-65.6240713407
 20
-27.6089026669
  0
LINE
  5
59B
100
AcDbEntity
  8
0
100
AcDbLine
 62
7
  6
CONTINUOUS
 10
-65.8028924839
 20
-27.0010855906
 11
-65.82023011
 21
-26.8061217036
  0
LWPOLYLINE
  5
59C
100
AcDbEntity
  8
0
100
AcDbPolyline
 62
7
  6
CONTINUOUS
 90
9
 70
0
 10
-65.6998798325
 20
-27.0557370386
 10
-65.7023763438
 20
-27.0249530197
 10
-65.7054627836
 20
-26.9900371761
 10
-65.7090382789
 20
-26.9518251893
 10
-65.7131377894
 20
-26.910968381
 10
-65.7177263554
 20
-26.8680472371
 10
-65.7225982248
 20
-26.8240057055
 10
-65.7277788142
 20
-26.7795386655
 10
-65.7387079009
 20
-26.6925122037
  0
LINE
  5
59D
100
AcDbEntity
  8
0
100
AcDbLine
 62
7
  6
CONTINUOUS
 10
-66.6972697125
 20
-23.5737005271
 11
-66.68893388
 21
-23.678145866
  0
LINE
  5
59E
100
AcDbEntity
  8
0
100
AcDbLine
 62
7
  6
CONTINUOUS
 10
-65.8943333126
 20
-25.9007905747
 11
-65.9085149441
 21
-25.7101694541
  0
LINE
  5
59F
100
AcDbEntity
  8
0
100
AcDbLine
 62
7
  6
CONTINUOUS
 10
-66.6972697125
 20
23.5737005271
 11
-66.68893388
 21
23.678145866
  0
LINE
  5
5A0
100
AcDbEntity
  8
0
100
AcDbLine
 62
7
  6
CONTINUOUS
 10
-65.9092410856
 20
25.7004239387
 11
-65.9272932099
 21
25.5189004216
  0
LWPOLYLINE
  5
5A1
100
AcDbEntity
  8
0
100
AcDbPolyline
 62
250
  6
CONTINUOUS
 90
10
 70
0
 10
-65.9092399863
 20
25.7004238655
 10
-65.8456826112
 20
26.2906912631
 10
-65.7764199105
 20
26.8863145951
 10
-65.7015879065
 20
27.4857571674
 10
-65.6211107899
 20
28.0890384619
 10
-65.5353553984
 20
28.6927763599
 10
-65.4452510234
 20
29.2903434505
 10
-65.3513480529
 20
29.8784814443
 10
-65.2536985615
 20
30.4571426836
 10
-65.1525941816
 20
31.0246453689
  0
LINE
  5
5A2
100
AcDbEntity
  8
0
100
AcDbLine
 62
7
  6
CONTINUOUS
 10
-65.9092399863
 20
25.7004281986
 11
-65.9092988877
 21
25.6999672856
  0
LINE
  5
5A3
100
AcDbEntity
  8
0
100
AcDbLine
 62
7
  6
CONTINUOUS
 10
-65.9076171789
 20
25.7128348809
 11
-65.9092149908
 21
25.700816166
  0
LWPOLYLINE
  5
5A4
100
AcDbEntity
  8
0
100
AcDbPolyline
 62
250
  6
CONTINUOUS
 90
10
 70
0
 10
-65.9092399863
 20
25.693669689
 10
-65.8342314143
 20
26.2209718628
 10
-65.7574336881
 20
26.7431388719
 10
-65.6786798407
 20
27.2613395494
 10
-65.5979375815
 20
27.7759030054
 10
-65.5149376243
 20
28.288699842
 10
-65.4291288115
 20
28.8031759562
 10
-65.3401890333
 20
29.3211933954
 10
-65.2480699562
 20
29.8429973539
 10
-65.1525941829
 20
30.369619874
  0
LWPOLYLINE
  5
5A5
100
AcDbEntity
  8
0
100
AcDbPolyline
 62
7
  6
CONTINUOUS
 90
8
 70
0
 10
-65.3728638176
 20
30.3751572677
 10
-65.4746385581
 20
29.7078142738
 10
-65.5692567265
 20
29.0312644139
 10
-65.6559045387
 20
28.3518639953
 10
-65.7340423343
 20
27.6734078781
 10
-65.8028924839
 20
27.0010855906
 10
-65.8615365271
 20
26.3416256082
 10
-65.9092399863
 20
25.7004238655
  0
LINE
  5
5A6
100
AcDbEntity
  8
0
100
AcDbLine
 62
7
  6
CONTINUOUS
 10
-65.3494457083
 20
30.5206885969
 11
-65.390430959
 21
30.2635402786
  0
LINE
  5
5A7
100
AcDbEntity
  8
0
100
AcDbLine
 62
7
  6
CONTINUOUS
 10
-65.958090449
 20
25.3336023334
 11
-65.9275913953
 21
25.5166374379
  0
LINE
  5
5A8
100
AcDbEntity
  8
0
100
AcDbLine
 62
250
  6
CONTINUOUS
 10
-65.9092399863
 20
25.418149544
 11
-65.7498760488
 21
26.3804295307
  0
LINE
  5
5A9
100
AcDbEntity
  8
0
100
AcDbLine
 62
250
  6
CONTINUOUS
 10
-65.7498760488
 20
26.3804295307
 11
-65.5883532683
 21
27.3239774045
  0
LINE
  5
5AA
100
AcDbEntity
  8
0
100
AcDbLine
 62
250
  6
CONTINUOUS
 10
-65.9092399863
 20
23.9867322225
 11
-65.7478371973
 21
24.871743588
  0
LINE
  5
5AB
100
AcDbEntity
  8
0
100
AcDbLine
 62
250
  6
CONTINUOUS
 10
-65.9092399863
 20
23.8140115601
 11
-65.7484166953
 21
24.6938846803
  0
LINE
  5
5AC
100
AcDbEntity
  8
0
100
AcDbLine
 62
250
  6
CONTINUOUS
 10
-65.9092399863
 20
22.697553935
 11
-65.7539380936
 21
23.541159171
  0
LINE
  5
5AD
100
AcDbEntity
  8
0
100
AcDbLine
 62
250
  6
CONTINUOUS
 10
-65.7539380936
 20
23.541159171
 11
-65.5935931749
 21
24.3799633182
  0
LINE
  5
5AE
100
AcDbEntity
  8
0
100
AcDbLine
 62
250
  6
CONTINUOUS
 10
-65.7539381181
 20
-23.541158954
 11
-65.5935932167
 21
-24.3799630465
  0
LINE
  5
5AF
100
AcDbEntity
  8
0
100
AcDbLine
 62
250
  6
CONTINUOUS
 10
-65.9092399863
 20
-22.6975538356
 11
-65.7539381181
 21
-23.541158954
  0
LINE
  5
5B0
100
AcDbEntity
  8
0
100
AcDbLine
 62
250
  6
CONTINUOUS
 10
-65.7502890786
 20
-24.6837618937
 11
-65.9092399863
 21
-23.8140116503
  0
LINE
  5
5B1
100
AcDbEntity
  8
0
100
AcDbLine
 62
250
  6
CONTINUOUS
 10
-65.7498367148
 20
-24.8609009967
 11
-65.9092399863
 21
-23.9867323104
  0
LINE
  5
5B2
100
AcDbEntity
  8
0
100
AcDbLine
 62
250
  6
CONTINUOUS
 10
-65.6102766225
 20
-27.197752393
 11
-65.7306363016
 21
-26.4944915653
  0
LWPOLYLINE
  5
5B3
100
AcDbEntity
  8
0
100
AcDbPolyline
 62
250
  6
CONTINUOUS
 90
3
 70
0
 10
-65.3976857708
 20
-28.988003308
 10
-65.5482721602
 20
-28.0846233154
 10
-65.6201323016
 20
-27.6360631274
  0
LINE
  5
5B4
100
AcDbEntity
  8
0
100
AcDbLine
 62
250
  6
CONTINUOUS
 10
-65.8209055652
 20
-25.9553712137
 11
-65.9092399863
 21
-25.4181495847
  0
LINE
  5
5B5
100
AcDbEntity
  8
0
100
AcDbLine
 62
7
  6
CONTINUOUS
 10
-65.3882199112
 20
-30.2776290002
 11
-65.3479487502
 21
-30.5299232711
  0
LWPOLYLINE
  5
5B6
100
AcDbEntity
  8
0
100
AcDbPolyline
 62
7
  6
CONTINUOUS
 90
3
 70
0
 10
-65.3728638176
 20
-30.3751572678
 10
-65.4746385581
 20
-29.7078142738
 10
-65.5692567265
 20
-29.0312644139
  0
LWPOLYLINE
  5
5B7
100
AcDbEntity
  8
0
100
AcDbPolyline
 62
250
  6
CONTINUOUS
 90
6
 70
0
 10
-65.5175891429
 20
-28.8134040604
 10
-65.4489179114
 20
-29.2666909731
 10
-65.3779505502
 20
-29.7151838777
 10
-65.304819321
 20
-30.1581573895
 10
-65.2296564606
 20
-30.5948862585
 10
-65.1525941816
 20
-31.0246453689
  0
LINE
  5
5B8
100
AcDbEntity
  8
0
100
AcDbLine
 62
250
  6
CONTINUOUS
 10
-65.7149593312
 20
-27.0247050083
 11
-65.8028554449
 21
-26.4363980032
  0
LINE
  5
5B9
100
AcDbEntity
  8
0
100
AcDbLine
 62
7
  6
CONTINUOUS
 10
-65.5636628135
 20
-28.0241108895
 11
-65.448487654
 21
-28.8
  0
LINE
  5
5BA
100
AcDbEntity
  8
0
100
AcDbLine
 62
7
  6
CONTINUOUS
 10
-65.4740229703
 20
-28.800007
 11
-65.5480793799
 21
-28.2964819102
  0
LINE
  5
5BB
100
AcDbEntity
  8
0
100
AcDbLine
 62
7
  6
CONTINUOUS
 10
-65.6240713407
 20
-27.6089026669
 11
-65.5636628135
 21
-28.0241108895
  0
LINE
  5
5BC
100
AcDbEntity
  8
0
100
AcDbLine
 62
250
  6
CONTINUOUS
 10
-65.7725452545
 20
-26.4363980006
 11
-65.8499105005
 21
-25.8998770008
  0
LINE
  5
5BD
100
AcDbEntity
  8
0
100
AcDbLine
 62
250
  6
CONTINUOUS
 10
-65.8802065897
 20
-25.899877005
 11
-65.9092399863
 21
-25.6936696952
  0
LINE
  5
5BE
100
AcDbEntity
  8
0
100
AcDbLine
 62
7
  6
CONTINUOUS
 10
-65.5480793799
 20
-28.2964819102
 11
-65.6358949401
 21
-27.678657
  0
LINE
  5
5BF
100
AcDbEntity
  8
0
100
AcDbLine
 62
7
  6
CONTINUOUS
 10
-65.5268296838
 20
-28.800007
 11
-65.5801831537
 21
-28.4207993644
  0
LWPOLYLINE
  5
5C0
100
AcDbEntity
  8
0
100
AcDbPolyline
 62
7
  6
CONTINUOUS
 90
3
 70
0
 10
-65.7499096913
 20
-26.3539273094
 10
-65.7370676566
 20
-26.4464790662
 10
-65.7306363486
 20
-26.4944912021
  0
LINE
  5
5C1
100
AcDbEntity
  8
0
100
AcDbLine
 62
7
  6
CONTINUOUS
 10
-65.5801831537
 20
-28.4207993644
 11
-65.6063288218
 21
-28.229679
  0
LINE
  5
5C2
100
AcDbEntity
  8
0
100
AcDbLine
 62
7
  6
CONTINUOUS
 10
-65.9092231019
 20
-25.7006941504
 11
-65.9079640648
 21
-25.7101284703
  0
LWPOLYLINE
  5
5C3
100
AcDbEntity
  8
0
100
AcDbPolyline
 62
7
  6
CONTINUOUS
 90
12
 70
0
 10
-65.7387079009
 20
-26.6925122037
 10
-65.744186403
 20
-26.6514275845
 10
-65.7496662065
 20
-26.6128526891
 10
-65.7548292885
 20
-26.5779444304
 10
-65.759596713
 20
-26.547215514
 10
-65.7640474161
 20
-26.520455445
 10
-65.7681001836
 20
-26.4975077642
 10
-65.7717334563
 20
-26.4783996401
 10
-65.7749687933
 20
-26.4630568459
 10
-65.7777896577
 20
-26.4512527361
 10
-65.7801905371
 20
-26.4429141231
 10
-65.782176944
 20
-26.4380041479
  0
LINE
  5
5C4
100
AcDbEntity
  8
0
100
AcDbLine
 62
7
  6
CONTINUOUS
 10
-65.516647438
 20
-28.800007
 11
-65.5704602672
 21
-28.3994452082
  0
LINE
  5
5C5
100
AcDbEntity
  8
0
100
AcDbLine
 62
7
  6
CONTINUOUS
 10
-65.5406770746
 20
-28.800015
 11
-65.6205174015
 21
-28.1975047275
  0
LWPOLYLINE
  5
5C6
100
AcDbEntity
  8
0
100
AcDbPolyline
 62
7
  6
CONTINUOUS
 90
6
 70
0
 10
-65.7306363486
 20
-26.4944912021
 10
-65.7189696908
 20
-26.5847375594
 10
-65.7078348388
 20
-26.6765373909
 10
-65.6972317924
 20
-26.7688389892
 10
-65.6871051445
 20
-26.8606444507
 10
-65.6775103022
 20
-26.950962155
  0
LINE
  5
5C7
100
AcDbEntity
  8
0
100
AcDbLine
 62
7
  6
CONTINUOUS
 10
-65.5714593326
 20
-28.2946694753
 11
-65.5053099495
 21
-28.800007
  0
LINE
  5
5C8
100
AcDbEntity
  8
0
100
AcDbLine
 62
7
  6
CONTINUOUS
 10
-65.9093114807
 20
-25.6998675464
 11
-65.9092399863
 21
-25.7004249822
  0
LINE
  5
5C9
100
AcDbEntity
  8
0
100
AcDbLine
 62
7
  6
CONTINUOUS
 10
-65.5692567265
 20
-29.0312644139
 11
-65.6559045387
 21
-28.3518639954
  0
LINE
  5
5CA
100
AcDbEntity
  8
0
100
AcDbLine
 62
7
  6
CONTINUOUS
 10
-65.8370872293
 20
-26.2477528041
 11
-65.882053581
 21
-25.899877
  0
LINE
  5
5CB
100
AcDbEntity
  8
0
100
AcDbLine
 62
7
  6
CONTINUOUS
 10
-65.8517932244
 20
-25.899877
 11
-65.8062109993
 21
-26.252795359
  0
LINE
  5
5CC
100
AcDbEntity
  8
0
100
AcDbLine
 62
7
  6
CONTINUOUS
 10
-65.5704602672
 20
-28.3994452082
 11
-65.6196234178
 21
-28.017115802
  0
LINE
  5
5CD
100
AcDbEntity
  8
0
100
AcDbLine
 62
7
  6
CONTINUOUS
 10
-65.7293107438
 20
-27.2385119837
 11
-65.659097849
 21
-27.7921380578
  0
LINE
  5
5CE
100
AcDbEntity
  8
0
100
AcDbLine
 62
7
  6
CONTINUOUS
 10
-65.6492649546
 20
-27.67865
 11
-65.5714593326
 21
-28.2946694753
  0
LINE
  5
5CF
100
AcDbEntity
  8
0
100
AcDbLine
 62
7
  6
CONTINUOUS
 10
-65.6789494177
 20
-27.678657
 11
-65.7280930051
 21
-27.2876791163
  0
LINE
  5
5D0
100
AcDbEntity
  8
0
100
AcDbLine
 62
7
  6
CONTINUOUS
 10
-65.8048749657
 20
-26.436398
 11
-65.7162241408
 21
-27.142128
  0
LINE
  5
5D1
100
AcDbEntity
  8
0
100
AcDbLine
 62
7
  6
CONTINUOUS
 10
-65.6205174015
 20
-28.1975047275
 11
-65.6852149003
 21
-27.6830922836
  0
LINE
  5
5D2
100
AcDbEntity
  8
0
100
AcDbLine
 62
7
  6
CONTINUOUS
 10
-65.8062109993
 20
-26.252795359
 11
-65.7834610963
 21
-26.436398
  0
LINE
  5
5D3
100
AcDbEntity
  8
0
100
AcDbLine
 62
7
  6
CONTINUOUS
 10
-65.6196234178
 20
-28.017115802
 11
-65.8370872293
 21
-26.2477528041
  0
LINE
  5
5D4
100
AcDbEntity
  8
0
100
AcDbLine
 62
7
  6
CONTINUOUS
 10
-65.6971028756
 20
-27.142128
 11
-65.6332525745
 21
-27.6651255584
  0
LINE
  5
5D5
100
AcDbEntity
  8
0
100
AcDbLine
 62
7
  6
CONTINUOUS
 10
-65.7280930051
 20
-27.2876791163
 11
-65.7750447474
 21
-26.8996589749
  0
LINE
  5
5D6
100
AcDbEntity
  8
0
100
AcDbLine
 62
7
  6
CONTINUOUS
 10
-65.8263188705
 20
-26.427485956
 11
-65.7293107438
 21
-27.2385119837
  0
LINE
  5
5D7
100
AcDbEntity
  8
0
100
AcDbLine
 62
7
  6
CONTINUOUS
 10
-65.6559045387
 20
-28.3518639954
 11
-65.7340423343
 21
-27.6734078781
  0
LINE
  5
5D8
100
AcDbEntity
  8
0
100
AcDbLine
 62
7
  6
CONTINUOUS
 10
-65.7750447474
 20
-26.8996589749
 11
-65.7944143866
 21
-26.7561560358
  0
LINE
  5
5D9
100
AcDbEntity
  8
0
100
AcDbLine
 62
7
  6
CONTINUOUS
 10
-65.7944143866
 20
-26.7561560358
 11
-65.8253940218
 21
-26.4790840203
  0
LINE
  5
5DA
100
AcDbEntity
  8
0
100
AcDbLine
 62
7
  6
CONTINUOUS
 10
-66.6963870415
 20
23.5636444853
 11
-66.6946877273
 21
23.5264237223
  0
LINE
  5
5DB
100
AcDbEntity
  8
0
100
AcDbLine
 62
7
  6
CONTINUOUS
 10
-66.6949674951
 20
23.4847884715
 11
-66.6972697125
 21
23.5737005271
  0
LINE
  5
5DC
100
AcDbEntity
  8
0
100
AcDbLine
 62
7
  6
CONTINUOUS
 10
-66.4886942074
 20
23.9674847042
 11
-66.4899134794
 21
24.1520056669
  0
LINE
  5
5DD
100
AcDbEntity
  8
0
100
AcDbLine
 62
7
  6
CONTINUOUS
 10
-66.6963321708
 20
-23.2151421113
 11
-66.6944057485
 21
-23.5636305844
  0
LINE
  5
5DE
100
AcDbEntity
  8
0
100
AcDbLine
 62
7
  6
CONTINUOUS
 10
-66.4850009495
 20
22.2017569107
 11
-66.4886942074
 21
23.9674847042
  0
LINE
  5
5DF
100
AcDbEntity
  8
0
100
AcDbLine
 62
250
  6
CONTINUOUS
 10
-66.482545638
 20
22.2017569107
 11
-66.4825445781
 21
-22.2017569107
  0
LINE
  5
5E0
100
AcDbEntity
  8
0
100
AcDbLine
 62
7
  6
CONTINUOUS
 10
-65.9092399863
 20
-25.7005678786
 11
-65.9092399863
 21
25.7004235177
  0
LINE
  5
5E1
100
AcDbEntity
  8
0
100
AcDbLine
 62
7
  6
CONTINUOUS
 10
-65.1525941849
 20
-31.6476916018
 11
-65.1525941847
 21
-31.6477316921
  0
LINE
  5
5E2
100
AcDbEntity
  8
0
100
AcDbLine
 62
250
  6
CONTINUOUS
 10
-65.1525941846
 20
-31.6477299026
 11
-65.1525941846
 21
31.6476916034
  0
LINE
  5
5E3
100
AcDbEntity
  8
0
100
AcDbLine
 62
7
  6
CONTINUOUS
 10
-66.6963321708
 20
23.2151421113
 11
-66.6963321708
 21
-23.2151421113
  0
LINE
  5
5E4
100
AcDbEntity
  8
0
100
AcDbLine
 62
7
  6
CONTINUOUS
 10
-65.9092399863
 20
25.7006287919
 11
-65.9092410856
 21
25.7004239387
  0
LINE
  5
5E5
100
AcDbEntity
  8
0
100
AcDbLine
 62
7
  6
CONTINUOUS
 10
-66.4850009495
 20
-22.2017569107
 11
-66.4893853339
 21
-24.0848335163
  0
LINE
  5
5E6
100
AcDbEntity
  8
0
100
AcDbLine
 62
7
  6
CONTINUOUS
 10
-66.6944057485
 20
23.5636305844
 11
-66.6963321708
 21
23.2151421113
  0
LINE
  5
5E7
100
AcDbEntity
  8
0
100
AcDbLine
 62
7
  6
CONTINUOUS
 10
-66.4893853339
 20
-24.0848335163
 11
-66.4899134794
 21
-24.1520056669
  0
LINE
  5
5E8
100
AcDbEntity
  8
0
100
AcDbLine
 62
7
  6
CONTINUOUS
 10
-66.6949674951
 20
-23.4847884715
 11
-66.6972697125
 21
-23.5737005271
  0
LINE
  5
5E9
100
AcDbEntity
  8
0
100
AcDbLine
 62
7
  6
CONTINUOUS
 10
-66.6963870415
 20
-23.5636444853
 11
-66.6946877273
 21
-23.5264237223
  0
LINE
  5
5EA
100
AcDbEntity
  8
0
100
AcDbLine
 62
7
  6
CONTINUOUS
 10
-60.1025941862
 20
-3.5
 11
-57.7025941862
 21
-3.7099727925
  0
LINE
  5
5EB
100
AcDbEntity
  8
0
100
AcDbLine
 62
250
  6
CONTINUOUS
 10
-64.1525941888
 20
-35.911638295
 11
-64.1525941888
 21
35.911638295
  0
LINE
  5
5EC
100
AcDbEntity
  8
0
100
AcDbLine
 62
7
  6
CONTINUOUS
 10
-63.1450960407
 20
39.0845838933
 11
-63.1450960407
 21
39.0842599932
  0
LINE
  5
5ED
100
AcDbEntity
  8
0
100
AcDbLine
 62
7
  6
CONTINUOUS
 10
-63.1450960407
 20
-39.0845838976
 11
-63.1450960407
 21
-39.0842599925
  0
LINE
  5
5EE
100
AcDbEntity
  8
0
100
AcDbLine
 62
250
  6
CONTINUOUS
 10
-63.1450960407
 20
-39.0836277797
 11
-63.1450960407
 21
39.0836277713
  0
LINE
  5
5EF
100
AcDbEntity
  8
0
100
AcDbLine
 62
250
  6
CONTINUOUS
 10
-62.2577274747
 20
-39.7484831532
 11
-62.2577274747
 21
39.7484831532
  0
LWPOLYLINE
  5
5F0
100
AcDbEntity
  8
0
100
AcDbPolyline
 62
7
  6
CONTINUOUS
 90
4
 70
0
 43
0.3500000006
 10
-75.8766432953
 20
-2.3571432495
 10
-76.7337857666
 20
-2.3571432495
 10
-77.1623547363
 20
-1.9285708809
 10
-77.1623547363
 20
-1.2857140274
  0
LWPOLYLINE
  5
5F1
100
AcDbEntity
  8
0
100
AcDbPolyline
 62
7
  6
CONTINUOUS
 90
13
 70
0
 43
0.3500000006
 10
-76.3052167969
 20
-0.0000003204
 10
-77.5909327698
 20
-0.0000003204
 10
-78.0195017395
 20
0.2142864304
 10
-78.4480707092
 20
0.642857666
 10
-78.4480707092
 20
0.8571421509
 10
-78.0195017395
 20
1.2857133865
 10
-77.5909327698
 20
1.5000001373
 10
-76.3052167969
 20
1.5000001373
 10
-75.8766432953
 20
1.2857133865
 10
-75.4480697937
 20
0.8571421509
 10
-75.4480697937
 20
0.642857666
 10
-75.8766432953
 20
0.2142864304
 10
-76.3052167969
 20
-0.0000003204
  0
LINE
  5
5F2
100
AcDbEntity
  8
0
100
AcDbLine
 62
250
  6
CONTINUOUS
 10
-66.6976296599
 20
0.000000041
 11
-62.2577272463
 21
-0.0
  0
LINE
  5
5F3
100
AcDbEntity
  8
0
100
AcDbLine
 62
7
  6
CONTINUOUS
 10
-60.1025941862
 20
3.5
 11
-60.1025941862
 21
-3.5
  0
LINE
  5
5F4
100
AcDbEntity
  8
0
100
AcDbLine
 62
7
  6
CONTINUOUS
 10
-57.7025941862
 20
-3.7099727925
 11
-57.7025941862
 21
-40.0
  0
LINE
  5
5F5
100
AcDbEntity
  8
0
100
AcDbLine
 62
7
  6
CONTINUOUS
 10
-57.7025941862
 20
3.7099727925
 11
-57.7025941862
 21
40.0
  0
LINE
  5
5F6
100
AcDbEntity
  8
RACCORDO
100
AcDbLine
 62
7
  6
CONTINUOUS
 10
-57.5025941862
 20
36.8110147285
 11
-57.5025941862
 21
4.2031338449
  0
LINE
  5
5F7
100
AcDbEntity
  8
0
100
AcDbLine
 62
7
  6
CONTINUOUS
 10
-57.5025941862
 20
-39.0095062737
 11
-57.5025941862
 21
-36.8110147293
  0
LINE
  5
5F8
100
AcDbEntity
  8
RACCORDO
100
AcDbLine
 62
7
  6
CONTINUOUS
 10
-57.5025941862
 20
-4.2031338449
 11
-57.5025941862
 21
-36.8110147293
  0
LINE
  5
5F9
100
AcDbEntity
  8
0
100
AcDbLine
 62
7
  6
CONTINUOUS
 10
-57.5025941862
 20
36.8110147285
 11
-57.5025941862
 21
39.0095062729
  0
LINE
  5
5FA
100
AcDbEntity
  8
0
100
AcDbLine
 62
7
  6
CONTINUOUS
 10
-57.7025941862
 20
3.7099727925
 11
-60.1025941862
 21
3.5
  0
LWPOLYLINE
  5
5FB
100
AcDbEntity
  8
0
100
AcDbPolyline
 62
7
  6
CONTINUOUS
 90
7
 70
0
 10
-65.6973190334
 20
-27.14213
 10
-65.6963187826
 20
-27.139736118
 10
-65.6958893521
 20
-27.1325020284
 10
-65.6960307418
 20
-27.1204008867
 10
-65.6967365824
 20
-27.1035121559
 10
-65.6980132432
 20
-27.0819396106
 10
-65.6998798325
 20
-27.0557370386
  0
LINE
  5
5FC
100
AcDbEntity
  8
0
100
AcDbLine
 62
250
  6
CONTINUOUS
 10
-66.4850009495
 20
22.2017569107
 11
-66.6982533166
 21
22.1997392345
  0
LWPOLYLINE
  5
5FD
100
AcDbEntity
  8
0
100
AcDbPolyline
 62
7
  6
CONTINUOUS
 90
10
 70
0
 43
0.3500000006
 10
-62.3125632019
 20
51.7500018768
 10
-62.2411365509
 20
51.607144043
 10
-62.2411365509
 20
51.5357128601
 10
-62.3839943848
 20
51.3928550262
 10
-62.4554210358
 20
51.3928550262
 10
-62.5268522186
 20
51.4642862091
 10
-62.5268522186
 20
51.5357128601
 10
-62.4554210358
 20
51.678570694
 10
-62.3839943848
 20
51.7500018768
 10
-62.3125632019
 20
51.7500018768
  0
LWPOLYLINE
  5
5FE
100
AcDbEntity
  8
0
100
AcDbPolyline
 62
250
  6
CONTINUOUS
 90
16
 70
0
 10
-62.2577275996
 20
37.1319684617
 10
-62.3364104986
 20
37.1293479934
 10
-62.4143060786
 20
37.1218151165
 10
-62.4910517245
 20
37.1092473734
 10
-62.5662545396
 20
37.0915407211
 10
-62.63949351
 20
37.0686100634
 10
-62.7103175603
 20
37.0403898713
 10
-62.7782227368
 20
37.006846205
 10
-62.842704414
 20
36.9679535166
 10
-62.9032465299
 20
36.923683165
 10
-62.9594355032
 20
36.873866167
 10
-63.0103770205
 20
36.8187151298
 10
-63.0549594526
 20
36.7589366184
 10
-63.0925515153
 20
36.6949807763
 10
-63.12278115
 20
36.6268975403
 10
-63.1450960407
 20
36.5549468208
  0
LWPOLYLINE
  5
5FF
100
AcDbEntity
  8
0
100
AcDbPolyline
 62
250
  6
CONTINUOUS
 90
16
 70
0
 10
-62.2577272463
 20
36.83145662
 10
-62.3357703621
 20
36.8290777688
 10
-62.4130504213
 20
36.8218423971
 10
-62.4892142366
 20
36.809614462
 10
-62.5638519684
 20
36.792282909
 10
-62.6365841256
 20
36.7697435505
 10
-62.7070463444
 20
36.7418820972
 10
-62.7747362597
 20
36.708631728
 10
-62.8391463813
 20
36.669935803
 10
-62.8998131561
 20
36.6256903958
 10
-62.9563255037
 20
36.5756614615
 10
-63.0077388243
 20
36.5200367308
 10
-63.0528989937
 20
36.4595046319
 10
-63.0911424951
 20
36.3944945498
 10
-63.1220708609
 20
36.3250245523
 10
-63.1450960407
 20
36.2513322422
  0
LINE
  5
600
100
AcDbEntity
  8
0
100
AcDbLine
 62
250
  6
CONTINUOUS
 10
-57.5025941862
 20
36.8109804092
 11
-57.7025941862
 21
36.8109803982
  0
LINE
  5
601
100
AcDbEntity
  8
0
100
AcDbLine
 62
250
  6
CONTINUOUS
 10
-57.7025941862
 20
36.9999998429
 11
-62.2577272463
 21
37.0
  0
LWPOLYLINE
  5
602
100
AcDbEntity
  8
0
100
AcDbPolyline
 62
7
  6
CONTINUOUS
 90
6
 70
0
 10
-62.383218713
 20
39.7344834639
 10
-62.4057196467
 20
39.7303836405
 10
-62.4280011507
 20
39.7258319379
 10
-62.4500380281
 20
39.7208391648
 10
-62.471825018
 20
39.7154128571
 10
-62.4933595777
 20
39.7095599201
  0
LWPOLYLINE
  5
603
100
AcDbEntity
  8
0
100
AcDbPolyline
 62
250
  6
CONTINUOUS
 90
3
 70
0
 10
-62.4110322925
 20
39.6977101577
 10
-62.3347277855
 20
39.709337553
 10
-62.2577286274
 20
39.716002577
  0
LWPOLYLINE
  5
604
100
AcDbEntity
  8
0
100
AcDbPolyline
 62
7
  6
CONTINUOUS
 90
8
 70
0
 10
-62.2577272463
 20
39.7484790161
 10
-62.3346627448
 20
39.741555372
 10
-62.4108045476
 20
39.7292475878
 10
-62.4858208856
 20
39.7114818886
 10
-62.5592810667
 20
39.6882456506
 10
-62.6308853227
 20
39.6595197549
 10
-62.7004265387
 20
39.6252320608
 10
-62.7674126768
 20
39.5854339712
  0
LWPOLYLINE
  5
605
100
AcDbEntity
  8
0
100
AcDbPolyline
 62
7
  6
CONTINUOUS
 90
5
 70
0
 10
-62.2677478557
 20
39.7479916626
 10
-62.2911898633
 20
39.7462414635
 10
-62.3144666349
 20
39.7440112441
 10
-62.3375713386
 20
39.7413048618
 10
-62.3605002349
 20
39.7381259645
  0
LINE
  5
606
100
AcDbEntity
  8
0
100
AcDbLine
 62
7
  6
CONTINUOUS
 10
-62.2577271484
 20
39.7485868981
 11
-62.2677403741
 21
39.7479892632
  0
LINE
  5
607
100
AcDbEntity
  8
0
100
AcDbLine
 62
7
  6
CONTINUOUS
 10
-57.5025941862
 20
39.0095062729
 11
-57.7025941862
 21
38.99844993
  0
LINE
  5
608
100
AcDbEntity
  8
0
100
AcDbLine
 62
7
  6
CONTINUOUS
 10
-57.7025941862
 20
40.0
 11
-62.2577272463
 21
39.7484790161
  0
LWPOLYLINE
  5
609
100
AcDbEntity
  8
0
100
AcDbPolyline
 62
7
  6
CONTINUOUS
 90
7
 70
0
 43
0.3500000006
 10
-59.741135788
 20
51.2500017242
 10
-61.2411362457
 20
51.2500017242
 10
-59.741135788
 20
53.3928556366
 10
-59.741135788
 20
53.8214291382
 10
-60.1697092896
 20
54.2499981079
 10
-60.812567276
 20
54.2499981079
 10
-61.2411362457
 20
53.6071446533
  0
ARC
  5
60A
100
AcDbEntity
  8
0
100
AcDbCircle
 62
7
  6
CONTINUOUS
 10
-37.0000029587
 20
-37.0000029587
 40
3.0000015798
100
AcDbArc
 50
180.0007154428
 51
269.9992845571
  0
ARC
  5
60B
100
AcDbEntity
  8
0
100
AcDbCircle
 62
250
  6
CONTINUOUS
 10
-37.0000027106
 20
-37.0000027106
 40
2.7484804117
100
AcDbArc
 50
179.999946626
 51
270.0000565066
  0
ARC
  5
60C
100
AcDbEntity
  8
0
100
AcDbCircle
 62
250
  6
CONTINUOUS
 10
-22.2587064677
 20
-22.2089552239
 40
0.3429258685
100
AcDbArc
 50
180.0000000014
 51
269.9999999986
  0
ARC
  5
60D
100
AcDbEntity
  8
0
100
AcDbCircle
 62
7
  6
CONTINUOUS
 10
-22.2587064677
 20
-22.2089552239
 40
0.3164401538
100
AcDbArc
 50
179.9999999959
 51
270.0000000041
  0
ARC
  5
60E
100
AcDbEntity
  8
0
100
AcDbCircle
 62
7
  6
CONTINUOUS
 10
-37.0000029587
 20
37.0000029587
 40
3.0000015798
100
AcDbArc
 50
90.0007154434
 51
179.9992845567
  0
ARC
  5
60F
100
AcDbEntity
  8
0
100
AcDbCircle
 62
250
  6
CONTINUOUS
 10
-37.0000027106
 20
37.0000027106
 40
2.7484804228
100
AcDbArc
 50
89.9999434935
 51
180.0000533738
  0
ARC
  5
610
100
AcDbEntity
  8
0
100
AcDbCircle
 62
250
  6
CONTINUOUS
 10
-22.2587064677
 20
22.2089552239
 40
0.3429258685
100
AcDbArc
 50
90.0000000014
 51
179.9999999987
  0
ARC
  5
611
100
AcDbEntity
  8
0
100
AcDbCircle
 62
7
  6
CONTINUOUS
 10
-22.2587064677
 20
22.2089552239
 40
0.3164401538
100
AcDbArc
 50
89.9999999959
 51
180.0000000041
  0
ARC
  5
612
100
AcDbEntity
  8
0
100
AcDbCircle
 62
7
  6
CONTINUOUS
 10
37.0000029753
 20
-37.0000029753
 40
3.0000015585
100
AcDbArc
 50
270.000714333
 51
359.9992856681
  0
ARC
  5
613
100
AcDbEntity
  8
0
100
AcDbCircle
 62
250
  6
CONTINUOUS
 10
37.0000027251
 20
-37.0000027251
 40
2.7484803964
100
AcDbArc
 50
269.9999431908
 51
0.0000536768
  0
ARC
  5
614
100
AcDbEntity
  8
0
100
AcDbCircle
 62
7
  6
CONTINUOUS
 10
24.03733
 20
-26.789265
 40
0.8893898871
100
AcDbArc
 50
292.842868527
 51
90.0
  0
ARC
  5
615
100
AcDbEntity
  8
0
100
AcDbCircle
 62
7
  6
CONTINUOUS
 10
23.956824
 20
-26.789265
 40
0.352865
100
AcDbArc
 50
270.0
 51
90.0
  0
ARC
  5
616
100
AcDbEntity
  8
0
100
AcDbCircle
 62
250
  6
CONTINUOUS
 10
22.2587064677
 20
-22.2089552239
 40
0.3429258685
100
AcDbArc
 50
270.0000000014
 51
359.9999999987
  0
ARC
  5
617
100
AcDbEntity
  8
0
100
AcDbCircle
 62
7
  6
CONTINUOUS
 10
22.2587064677
 20
-22.2089552239
 40
0.3164401538
100
AcDbArc
 50
269.9999999959
 51
360.0
  0
ARC
  5
618
100
AcDbEntity
  8
0
100
AcDbCircle
 62
7
  6
CONTINUOUS
 10
37.0000029753
 20
37.0000029753
 40
3.0000015585
100
AcDbArc
 50
0.000714332
 51
89.9992856686
  0
ARC
  5
619
100
AcDbEntity
  8
0
100
AcDbCircle
 62
250
  6
CONTINUOUS
 10
37.0000027251
 20
37.0000027251
 40
2.7484803931
100
AcDbArc
 50
359.9999463232
 51
90.0000568094
  0
ARC
  5
61A
100
AcDbEntity
  8
0
100
AcDbCircle
 62
250
  6
CONTINUOUS
 10
22.2587064677
 20
22.2089552239
 40
0.3429258685
100
AcDbArc
 50
0.0000000014
 51
89.9999999986
  0
ARC
  5
61B
100
AcDbEntity
  8
0
100
AcDbCircle
 62
7
  6
CONTINUOUS
 10
22.2587064677
 20
22.2089552239
 40
0.3164401538
100
AcDbArc
 50
0.0
 51
90.0000000041
  0
ARC
  5
61C
100
AcDbEntity
  8
RACCORDO
100
AcDbCircle
 62
7
  6
CONTINUOUS
 10
-57.8025941862
 20
4.2031338449
 40
0.3
100
AcDbArc
 50
289.4783484122
 51
360.0
  0
ARC
  5
61D
100
AcDbEntity
  8
RACCORDO
100
AcDbCircle
 62
7
  6
CONTINUOUS
 10
-57.8025941862
 20
-4.2031338449
 40
0.3
100
AcDbArc
 50
0.0
 51
70.5216515878
  0
ENDSEC
  0
SECTION
  2
OBJECTS
  0
DICTIONARY
  5
C
100
AcDbDictionary
280
0
281
1
  3
ACAD_GROUP
350
D
  3
ACAD_MLINESTYLE
350
17
  3
ACAD_LAYOUT
350
1A
  3
ACAD_PLOTSETTINGS
350
19
  3
ACAD_PLOTSTYLENAME
350
E
  0
DICTIONARY
  5
D
102
{ACAD_REACTORS
330
C
102
}
100
AcDbDictionary
280
0
281
1
  0
ACDBDICTIONARYWDFLT
  5
E
102
{ACAD_REACTORS
330
C
102
}
100
AcDbDictionary
281
1
  3
Normal
350
F
100
AcDbDictionaryWithDefault
340
F
  0
DICTIONARY
  5
17
102
{ACAD_REACTORS
330
C
102
}
100
AcDbDictionary
280
0
281
1
  3
Standard
350
18
  0
DICTIONARY
  5
19
102
{ACAD_REACTORS
330
C
102
}
100
AcDbDictionary
281
1
  0
DICTIONARY
  5
1A
102
{ACAD_REACTORS
330
C
102
}
100
AcDbDictionary
281
1
  3
Model
350
61E
  3
Layout1
350
61F
  0
ACDBPLACEHOLDER
  5
F
102
{ACAD_REACTORS
330
E
102
}
  0
MLINESTYLE
  5
18
102
{ACAD_REACTORS
330
17
102
}
100
AcDbMlineStyle
  2
STANDARD
 70
0
  3

 62
256
 51
90.0
 52
90.0
 71
2
 49
0.5
 62
256
  6
BYLAYER
 49
-0.5
 62
256
  6
BYLAYER
  0
LAYOUT
  5
61E
102
{ACAD_REACTORS
330
1A
102
}
100
AcDbPlotSettings
  1

  2
none_device
  4
ISO_A4_(297.00_x_210.00_MM)
  6

 40
0.0
 41
0.0
 42
0.0
 43
0.0
 44
297.0
 45
210.0
 46
0.0
 47
0.0
 48
0.0
 49
0.0
140
0.0
141
0.0
142
1.0
143
1.0
 70
1024
 72
1
 73
0
 74
0
  7

 75
0
147
1.0
148
0.0
149
0.0
100
AcDbLayout
  1
Model
 70
0
 71
0
 10
0.0
 20
0.0
 11
297.0
 21
210.0
 12
0.0
 22
0.0
 32
0.0
 14
0.0
 24
0.0
 34
0.0
 15
0.0
 25
0.0
 35
0.0
146
0.0
 13
0.0
 23
0.0
 33
0.0
 16
1.0
 26
0.0
 36
0.0
 17
0.0
 27
1.0
 37
0.0
 76
0
330
216
345
0
346
0
  0
LAYOUT
  5
61F
102
{ACAD_REACTORS
330
1A
102
}
100
AcDbPlotSettings
  1

  2
none_device
  4
ISO_A4_(297.00_x_210.00_MM)
  6

 40
0.0
 41
0.0
 42
0.0
 43
0.0
 44
297.0
 45
210.0
 46
0.0
 47
0.0
 48
0.0
 49
0.0
140
0.0
141
0.0
142
1.0
143
1.0
 70
0
 72
1
 73
0
 74
0
  7

 75
0
147
1.0
148
0.0
149
0.0
100
AcDbLayout
  1
Layout1
 70
0
 71
1
 10
0.0
 20
0.0
 11
297.0
 21
210.0
 12
0.0
 22
0.0
 32
0.0
 14
0.0
 24
0.0
 34
0.0
 15
0.0
 25
0.0
 35
0.0
146
0.0
 13
0.0
 23
0.0
 33
0.0
 16
1.0
 26
0.0
 36
0.0
 17
0.0
 27
1.0
 37
0.0
 76
0
330
217
345
0
346
0
  0
ENDSEC
  0
EOF
