  0
SECTION
  2
HEADER
  9
$ACADVER
  1
AC1024
  9
$DWGCODEPAGE
  3
ANSI_1252
  9
$EXTMAX
 10
297.0
 20
210.0
 30
0.0
  9
$EXTMIN
 10
0.0
 20
0.0
 30
0.0
  9
$LIMMIN
 10
0.0
 20
0.0
  9
$LIMMAX
 10
297.0
 20
210.0
  9
$VIEWCTR
 10
148.5
 20
105.0
  9
$VIEWSIZE
 40
210.0
  9
$CLAYER
  8
0
  9
$LTSCALE
 40
16.335
  9
$CELTYPE
  6
BYLAYER
  9
$DIMSCALE
 40
1.0
  9
$DIMASZ
 40
3.0
  9
$DIMEXO
 40
0.5
  9
$DIMDLI
 40
11.286
  9
$DIMEXE
 40
1.5
  9
$DIMCEN
 40
2.673
  9
$DIMLFAC
 40
1.0
  9
$DIMBLK
  1
_FILLED
  9
$DIMALT
 70
0
  9
$DIMALTF
 40
0.0393700787
  9
$DIMTXT
 40
3.0
  9
$DIMTOL
 70
1
  9
$DIMLIM
 70
0
  9
$DIMTFAC
 40
1.0
  9
$DIMTP
 40
0.01
  9
$DIMTM
 40
0.01
  9
$DIMGAP
 40
0.625
  9
$DIMDSEP
 70
44
  9
$AUNITS
 70
0
  9
$PDMODE
 70
3
  9
$PDSIZE
 40
3.0
  9
$HANDSEED
  5
51A
  9
$TILEMODE
 70
1
  9
$MEASUREMENT
 70
1
  9
$INSUNITS
 70
4
  0
ENDSEC
  0
SECTION
  2
CLASSES
  0
CLASS
  1
ACDBDICTIONARYWDFLT
  2
AcDbDictionaryWithDefault
  3
AutoCAD 2000
 90
0
 91
1
280
0
281
0
  0
CLASS
  1
ACDBPLACEHOLDER
  2
AcDbPlaceHolder
  3
AutoCAD 2000
 90
0
 91
1
280
0
281
0
  0
CLASS
  1
LAYOUT
  2
AcDbLayout
  3
AutoCAD 2000
 90
0
 91
0
280
0
281
0
  0
ENDSEC
  0
SECTION
  2
TABLES
  0
TABLE
  2
VPORT
  5
8
100
AcDbSymbolTable
 70
2
  0
VPORT
  5
1F4
100
AcDbSymbolTableRecord
100
AcDbViewportTableRecord
  2
*ACTIVE
 70
0
 10
0.0
 20
0.0
 11
1.0
 21
1.0
 12
148.5
 22
105.0
 13
0.0
 23
0.0
 14
1.0
 24
1.0
 15
0.0
 25
0.0
 16
0.0
 26
0.0
 36
1.0
 17
0.0
 27
0.0
 37
0.0
 40
210.0
 41
1.4142857143
 42
50.0
 43
0.0
 44
0.0
 50
0.0
 51
0.0
 71
0
 72
100
 73
1
 74
1
 75
0
 76
0
 77
0
 78
0
  0
ENDTAB
  0
TABLE
  2
LTYPE
  5
5
100
AcDbSymbolTable
 70
6
  0
LTYPE
  5
14
100
AcDbSymbolTableRecord
100
AcDbLinetypeTableRecord
  2
BYBLOCK
 70
0
  3

 72
65
 73
0
 40
0.0
  0
LTYPE
  5
15
100
AcDbSymbolTableRecord
100
AcDbLinetypeTableRecord
  2
BYLAYER
 70
0
  3

 72
65
 73
0
 40
0.0
  0
LTYPE
  5
16
100
AcDbSymbolTableRecord
100
AcDbLinetypeTableRecord
  2
CONTINUOUS
 70
64
  3
Solid line
 72
65
 73
0
 40
0.0
  0
LTYPE
  5
1F5
100
AcDbSymbolTableRecord
100
AcDbLinetypeTableRecord
  2
CENTER
 70
64
  3
____ _ ____ _ ____ _ ____ _ ____ _ ____ _ ____
 72
65
 73
4
 40
0.6
 49
0.375
 74
0
 49
-0.075
 74
0
 49
0.075
 74
0
 49
-0.075
 74
0
  0
LTYPE
  5
1F6
100
AcDbSymbolTableRecord
100
AcDbLinetypeTableRecord
  2
HIDDEN
 70
64
  3
- - - - - - - - - - - - - - - - - - - -
 72
65
 73
2
 40
0.2
 49
0.1
 74
0
 49
-0.1
 74
0
  0
LTYPE
  5
1F7
100
AcDbSymbolTableRecord
100
AcDbLinetypeTableRecord
  2
PHANTOM
 70
64
  3
_____ _ _ _____ _ _ _____ _ _ _____
 72
65
 73
6
 40
0.8
 49
0.45
 74
0
 49
-0.05
 74
0
 49
0.1
 74
0
 49
-0.05
 74
0
 49
0.1
 74
0
 49
-0.05
 74
0
  0
LTYPE
  5
1F8
100
AcDbSymbolTableRecord
100
AcDbLinetypeTableRecord
  2
DOT
 70
64
  3
. . . . . . . . . . . . . . . . . . . .
 72
65
 73
2
 40
0.2
 49
0.1
 74
0
 49
-0.1
 74
0
  0
LTYPE
  5
1F9
100
AcDbSymbolTableRecord
100
AcDbLinetypeTableRecord
  2
DASHED
 70
64
  3
- - - - - - - - - - - - - - - - - - - -
 72
65
 73
2
 40
0.2
 49
0.1
 74
0
 49
-0.1
 74
0
  0
ENDTAB
  0
TABLE
  2
LAYER
  5
2
100
AcDbSymbolTable
 70
36
  0
LAYER
  5
10
100
AcDbSymbolTableRecord
100
AcDbLayerTableRecord
  2
0
 70
0
 62
7
  6
CONTINUOUS
370
-3
390
F
  0
LAYER
  5
1FA
100
AcDbSymbolTableRecord
100
AcDbLayerTableRecord
  2
DEFAULT_1
 70
0
 62
7
  6
CENTER
370
-3
390
F
  0
LAYER
  5
1FB
100
AcDbSymbolTableRecord
100
AcDbLayerTableRecord
  2
DEFAULT_2
 70
0
 62
7
  6
HIDDEN
370
-3
390
F
  0
LAYER
  5
1FC
100
AcDbSymbolTableRecord
100
AcDbLayerTableRecord
  2
DEFAULT_3
 70
0
 62
7
  6
PHANTOM
370
-3
390
F
  0
LAYER
  5
1FD
100
AcDbSymbolTableRecord
100
AcDbLayerTableRecord
  2
217142080
 70
0
 62
7
  6
CONTINUOUS
370
-3
390
F
  0
LAYER
  5
1FE
100
AcDbSymbolTableRecord
100
AcDbLayerTableRecord
  2
284_6020
 70
0
 62
7
  6
CONTINUOUS
370
-3
390
F
  0
LAYER
  5
1FF
100
AcDbSymbolTableRecord
100
AcDbLayerTableRecord
  2
ASSI
 70
0
 62
7
  6
CONTINUOUS
370
-3
390
F
  0
LAYER
  5
200
100
AcDbSymbolTableRecord
100
AcDbLayerTableRecord
  2
COLOR2
 70
0
 62
7
  6
CONTINUOUS
370
-3
390
F
  0
LAYER
  5
201
100
AcDbSymbolTableRecord
100
AcDbLayerTableRecord
  2
COORDINATE
 70
0
 62
7
  6
CONTINUOUS
370
-3
390
F
  0
LAYER
  5
202
100
AcDbSymbolTableRecord
100
AcDbLayerTableRecord
  2
COORD_ORIGINE
 70
0
 62
7
  6
CONTINUOUS
370
-3
390
F
  0
LAYER
  5
203
100
AcDbSymbolTableRecord
100
AcDbLayerTableRecord
  2
COSMETICI
 70
0
 62
7
  6
CONTINUOUS
370
-3
390
F
  0
LAYER
  5
204
100
AcDbSymbolTableRecord
100
AcDbLayerTableRecord
  2
CURVE
 70
0
 62
7
  6
CONTINUOUS
370
-3
390
F
  0
LAYER
  5
205
100
AcDbSymbolTableRecord
100
AcDbLayerTableRecord
  2
DRAFT
 70
0
 62
7
  6
CONTINUOUS
370
-3
390
F
  0
LAYER
  5
206
100
AcDbSymbolTableRecord
100
AcDbLayerTableRecord
  2
IGES-SCRITTE
 70
0
 62
7
  6
CONTINUOUS
370
-3
390
F
  0
LAYER
  5
207
100
AcDbSymbolTableRecord
100
AcDbLayerTableRecord
  2
IGES_SUPERFICE
 70
0
 62
7
  6
CONTINUOUS
370
-3
390
F
  0
LAYER
  5
208
100
AcDbSymbolTableRecord
100
AcDbLayerTableRecord
  2
INTF_1
 70
0
 62
7
  6
CONTINUOUS
370
-3
390
F
  0
LAYER
  5
209
100
AcDbSymbolTableRecord
100
AcDbLayerTableRecord
  2
INTF_3
 70
0
 62
7
  6
CONTINUOUS
370
-3
390
F
  0
LAYER
  5
20A
100
AcDbSymbolTableRecord
100
AcDbLayerTableRecord
  2
INTF_5
 70
0
 62
7
  6
CONTINUOUS
370
-3
390
F
  0
LAYER
  5
20B
100
AcDbSymbolTableRecord
100
AcDbLayerTableRecord
  2
INTF_7
 70
0
 62
7
  6
CONTINUOUS
370
-3
390
F
  0
LAYER
  5
20C
100
AcDbSymbolTableRecord
100
AcDbLayerTableRecord
  2
INTF_MAGENTA
 70
0
 62
7
  6
CONTINUOUS
370
-3
390
F
  0
LAYER
  5
20D
100
AcDbSymbolTableRecord
100
AcDbLayerTableRecord
  2
NOTE
 70
0
 62
7
  6
CONTINUOUS
370
-3
390
F
  0
LAYER
  5
20E
100
AcDbSymbolTableRecord
100
AcDbLayerTableRecord
  2
PIANI
 70
0
 62
7
  6
CONTINUOUS
370
-3
390
F
  0
LAYER
  5
20F
100
AcDbSymbolTableRecord
100
AcDbLayerTableRecord
  2
PIANI_ORIGINE
 70
0
 62
7
  6
CONTINUOUS
370
-3
390
F
  0
LAYER
  5
210
100
AcDbSymbolTableRecord
100
AcDbLayerTableRecord
  2
PIANI_RIFERIMENTO
 70
0
 62
7
  6
CONTINUOUS
370
-3
390
F
  0
LAYER
  5
211
100
AcDbSymbolTableRecord
100
AcDbLayerTableRecord
  2
PIANO_RIFERIMENTO
 70
0
 62
7
  6
CONTINUOUS
370
-3
390
F
  0
LAYER
  5
212
100
AcDbSymbolTableRecord
100
AcDbLayerTableRecord
  2
PLACCA_PRT
 70
0
 62
7
  6
CONTINUOUS
370
-3
390
F
  0
LAYER
  5
213
100
AcDbSymbolTableRecord
100
AcDbLayerTableRecord
  2
PORTELLO
 70
0
 62
7
  6
CONTINUOUS
370
-3
390
F
  0
LAYER
  5
214
100
AcDbSymbolTableRecord
100
AcDbLayerTableRecord
  2
PPP
 70
0
 62
7
  6
CONTINUOUS
370
-3
390
F
  0
LAYER
  5
215
100
AcDbSymbolTableRecord
100
AcDbLayerTableRecord
  2
PUNTI
 70
0
 62
7
  6
CONTINUOUS
370
-3
390
F
  0
LAYER
  5
216
100
AcDbSymbolTableRecord
100
AcDbLayerTableRecord
  2
RACCORDO
 70
0
 62
7
  6
CONTINUOUS
370
-3
390
F
  0
LAYER
  5
217
100
AcDbSymbolTableRecord
100
AcDbLayerTableRecord
  2
RGB__255__255__255__
 70
0
 62
7
  6
CONTINUOUS
370
-3
390
F
  0
LAYER
  5
218
100
AcDbSymbolTableRecord
100
AcDbLayerTableRecord
  2
RGB____0____0____0__
 70
0
 62
7
  6
CONTINUOUS
370
-3
390
F
  0
LAYER
  5
219
100
AcDbSymbolTableRecord
100
AcDbLayerTableRecord
  2
SIMULAZIONE_IGES
 70
0
 62
7
  6
CONTINUOUS
370
-3
390
F
  0
LAYER
  5
21A
100
AcDbSymbolTableRecord
100
AcDbLayerTableRecord
  2
SMUSSO
 70
0
 62
7
  6
CONTINUOUS
370
-3
390
F
  0
LAYER
  5
21B
100
AcDbSymbolTableRecord
100
AcDbLayerTableRecord
  2
SNAPLINE
 70
0
 62
7
  6
CONTINUOUS
370
-3
390
F
  0
LAYER
  5
21C
100
AcDbSymbolTableRecord
100
AcDbLayerTableRecord
  2
SUPERFICI
 70
0
 62
7
  6
CONTINUOUS
370
-3
390
F
  0
LAYER
  5
21D
100
AcDbSymbolTableRecord
100
AcDbLayerTableRecord
  2
TESTI
 70
0
 62
7
  6
CONTINUOUS
370
-3
390
F
  0
LAYER
  5
21E
100
AcDbSymbolTableRecord
100
AcDbLayerTableRecord
  2
TESTO
 70
0
 62
7
  6
CONTINUOUS
370
-3
390
F
  0
LAYER
  5
21F
100
AcDbSymbolTableRecord
100
AcDbLayerTableRecord
  2
TRASH
 70
0
 62
7
  6
CONTINUOUS
370
-3
390
F
  0
LAYER
  5
220
100
AcDbSymbolTableRecord
100
AcDbLayerTableRecord
  2
XSEC_DATUMS
 70
0
 62
7
  6
CONTINUOUS
370
-3
390
F
  0
ENDTAB
  0
TABLE
  2
STYLE
  5
3
100
AcDbSymbolTable
 70
1
  0
STYLE
  5
11
100
AcDbSymbolTableRecord
100
AcDbTextStyleTableRecord
  2
STANDARD
 70
0
 40
0.0
 41
0.8
 50
0.0
 71
0
 42
0.2
  3
txt
  4

  0
STYLE
  5
221
100
AcDbSymbolTableRecord
100
AcDbTextStyleTableRecord
  2
TEXTSTYLE_1
 70
0
 40
0.0
 41
0.8
 50
0.0
 71
0
 42
0.2
  3
gdt
  4

  0
ENDTAB
  0
TABLE
  2
VIEW
  5
6
100
AcDbSymbolTable
 70
0
  0
ENDTAB
  0
TABLE
  2
UCS
  5
7
100
AcDbSymbolTable
 70
0
  0
ENDTAB
  0
TABLE
  2
APPID
  5
9
100
AcDbSymbolTable
 70
1
  0
APPID
  5
222
100
AcDbSymbolTableRecord
100
AcDbRegAppTableRecord
  2
ACAD
 70
0
  0
ENDTAB
  0
TABLE
  2
BLOCK_RECORD
  5
1
100
AcDbSymbolTable
 70
0
  0
BLOCK_RECORD
  5
223
100
AcDbSymbolTableRecord
100
AcDbBlockTableRecord
  2
*Model_Space
  0
BLOCK_RECORD
  5
224
100
AcDbSymbolTableRecord
100
AcDbBlockTableRecord
  2
*Paper_Space
  0
BLOCK_RECORD
  5
225
100
AcDbSymbolTableRecord
100
AcDbBlockTableRecord
  2
_FILLED
  0
BLOCK_RECORD
  5
226
100
AcDbSymbolTableRecord
100
AcDbBlockTableRecord
  2
*D0
  0
BLOCK_RECORD
  5
227
100
AcDbSymbolTableRecord
100
AcDbBlockTableRecord
  2
*D1
  0
BLOCK_RECORD
  5
228
100
AcDbSymbolTableRecord
100
AcDbBlockTableRecord
  2
*D2
  0
ENDTAB
  0
TABLE
  2
DIMSTYLE
  5
A
100
AcDbSymbolTable
 70
1
100
AcDbDimStyleTable
 71
0
  0
DIMSTYLE
105
229
100
AcDbSymbolTableRecord
100
AcDbDimStyleTableRecord
  2
STANDARD
 70
0
  3

  4

 40
1.0
 41
3.0
 42
0.5
 43
0.38
 44
1.5
 45
0.0
 46
0.0
 47
0.01
 48
0.01
140
3.0
141
0.09
142
0.0
143
25.4
144
1.0
145
0.0
146
1.0
147
0.625
 71
1
 72
0
 73
0
 74
0
 75
0
 76
0
 77
1
 78
8
 79
2
170
0
171
1
172
0
173
0
174
0
175
0
176
0
177
0
178
0
270
2
179
2
271
2
272
2
273
2
274
2
275
0
280
0
281
0
282
0
283
1
284
8
285
0
286
0
287
3
288
0
340
11
278
44
341
225
342
225
343
225
344
225
  0
DIMSTYLE
105
22A
100
AcDbSymbolTableRecord
100
AcDbDimStyleTableRecord
  2
DIMSTYLE_1
 70
0
  3

  4

 40
1.0
 41
3.0
 42
0.5
 43
0.38
 44
1.5
 45
0.0
 46
0.0
 47
0.0
 48
0.0
140
3.0
141
0.09
142
0.0
143
25.4
144
1.0
145
0.0
146
1.0
147
0.75
 71
0
 72
0
 73
0
 74
0
 75
0
 76
0
 77
1
 78
8
 79
2
170
0
171
1
172
0
173
0
174
0
175
0
176
0
177
0
178
0
270
2
179
2
271
2
272
2
273
2
274
2
275
0
280
0
281
0
282
0
283
1
284
8
285
0
286
0
287
3
288
0
340
11
278
44
341
225
342
225
343
225
344
225
  0
ENDTAB
  0
ENDSEC
  0
SECTION
  2
BLOCKS
  0
BLOCK
  5
20
100
AcDbEntity
  8
0
100
AcDbBlockBegin
  2
*Model_Space
 70
0
 10
0.0
 20
0.0
 30
0.0
  3
*Model_Space
  1

  0
ENDBLK
  5
21
100
AcDbEntity
  8
0
100
AcDbBlockEnd
  0
BLOCK
  5
1C
100
AcDbEntity
  8
0
100
AcDbBlockBegin
  2
*Paper_Space
 70
0
 10
0.0
 20
0.0
 30
0.0
  3
*Paper_Space
  1

  0
ENDBLK
  5
1D
100
AcDbEntity
  8
0
100
AcDbBlockEnd
  0
BLOCK
  5
22B
100
AcDbEntity
  8
0
100
AcDbBlockBegin
  2
_FILLED
 70
64
 10
0.0
 20
0.0
  3
_FILLED
  1

  0
SOLID
  5
22C
100
AcDbEntity
  8
0
  6
BYBLOCK
 62
0
100
AcDbTrace
 10
0.0
 20
0.0
 11
-1.0
 21
0.3166666667
 12
-1.0
 22
-0.3166666667
 13
-1.0
 23
-0.3166666667
  0
ENDBLK
  5
22D
100
AcDbEntity
  8
0
  6
BYBLOCK
 62
0
100
AcDbBlockEnd
  0
BLOCK
  5
22E
100
AcDbEntity
  8
0
100
AcDbBlockBegin
 62
7
  6
CONTINUOUS
  2
*D0
 70
65
 10
0.0
 20
0.0
  3
*D0
  1

  0
LINE
  5
22F
100
AcDbEntity
  8
0
100
AcDbLine
 62
7
  6
CONTINUOUS
 10
-40.0
 20
37.5
 11
-40.0
 21
51.3480970221
  0
LINE
  5
230
100
AcDbEntity
  8
0
100
AcDbLine
 62
7
  6
CONTINUOUS
 10
40.0
 20
37.5
 11
40.0
 21
51.3480970221
  0
LINE
  5
231
100
AcDbEntity
  8
0
100
AcDbLine
 62
7
  6
CONTINUOUS
 10
-40.0
 20
49.8480970221
 11
0.0
 21
49.8480970221
  0
LINE
  5
232
100
AcDbEntity
  8
0
100
AcDbLine
 62
7
  6
CONTINUOUS
 10
40.0
 20
49.8480970221
 11
0.0
 21
49.8480970221
  0
INSERT
  5
233
100
AcDbEntity
  8
0
100
AcDbBlockReference
 62
7
  6
CONTINUOUS
  2
_FILLED
 10
-40.0
 20
49.8480970221
 41
3.0
 42
3.0
 43
3.0
 50
180.0
  0
INSERT
  5
234
100
AcDbEntity
  8
0
100
AcDbBlockReference
 62
7
  6
CONTINUOUS
  2
_FILLED
 10
40.0
 20
49.8480970221
 41
3.0
 42
3.0
 43
3.0
  0
ENDBLK
  5
235
100
AcDbEntity
  8
0
  6
BYBLOCK
 62
0
100
AcDbBlockEnd
  0
BLOCK
  5
236
100
AcDbEntity
  8
0
100
AcDbBlockBegin
 62
7
  6
CONTINUOUS
  2
*D1
 70
65
 10
0.0
 20
0.0
  3
*D1
  1

  0
LINE
  5
237
100
AcDbEntity
  8
0
100
AcDbLine
 62
7
  6
CONTINUOUS
 10
-75.9862032084
 20
0.5
 11
-75.9862032084
 21
51.2691833495
  0
LINE
  5
238
100
AcDbEntity
  8
0
100
AcDbLine
 62
7
  6
CONTINUOUS
 10
-61.3862032084
 20
40.5
 11
-61.3862032084
 21
51.2691833495
  0
LINE
  5
239
100
AcDbEntity
  8
0
100
AcDbLine
 62
7
  6
CONTINUOUS
 10
-75.9862032084
 20
49.7691833495
 11
-79.9862032084
 21
49.7691833495
  0
LINE
  5
23A
100
AcDbEntity
  8
0
100
AcDbLine
 62
7
  6
CONTINUOUS
 10
-79.9862032084
 20
49.7691833495
 11
-68.6862032084
 21
49.7691833495
  0
LINE
  5
23B
100
AcDbEntity
  8
0
100
AcDbLine
 62
7
  6
CONTINUOUS
 10
-61.3862032084
 20
49.7691833495
 11
-57.3862032084
 21
49.7691833495
  0
LINE
  5
23C
100
AcDbEntity
  8
0
100
AcDbLine
 62
7
  6
CONTINUOUS
 10
-57.3862032084
 20
49.7691833495
 11
-68.6862032084
 21
49.7691833495
  0
INSERT
  5
23D
100
AcDbEntity
  8
0
100
AcDbBlockReference
 62
7
  6
CONTINUOUS
  2
_FILLED
 10
-75.9862032084
 20
49.7691833495
 41
3.0
 42
3.0
 43
3.0
  0
INSERT
  5
23E
100
AcDbEntity
  8
0
100
AcDbBlockReference
 62
7
  6
CONTINUOUS
  2
_FILLED
 10
-61.3862032084
 20
49.7691833495
 41
3.0
 42
3.0
 43
3.0
 50
180.0
  0
ENDBLK
  5
23F
100
AcDbEntity
  8
0
  6
BYBLOCK
 62
0
100
AcDbBlockEnd
  0
BLOCK
  5
240
100
AcDbEntity
  8
0
100
AcDbBlockBegin
 62
7
  6
CONTINUOUS
  2
*D2
 70
65
 10
0.0
 20
0.0
  3
*D2
  1

  0
LINE
  5
241
100
AcDbEntity
  8
0
100
AcDbLine
 62
7
  6
CONTINUOUS
 10
-61.8862032084
 20
40.0
 11
-88.8288274422
 21
40.0
  0
LINE
  5
242
100
AcDbEntity
  8
0
100
AcDbLine
 62
7
  6
CONTINUOUS
 10
-61.8862032084
 20
-40.0
 11
-88.8288274422
 21
-40.0
  0
LINE
  5
243
100
AcDbEntity
  8
0
100
AcDbLine
 62
7
  6
CONTINUOUS
 10
-87.3288274422
 20
40.0
 11
-87.3288274422
 21
0.0
  0
LINE
  5
244
100
AcDbEntity
  8
0
100
AcDbLine
 62
7
  6
CONTINUOUS
 10
-87.3288274422
 20
-40.0
 11
-87.3288274422
 21
0.0
  0
INSERT
  5
245
100
AcDbEntity
  8
0
100
AcDbBlockReference
 62
7
  6
CONTINUOUS
  2
_FILLED
 10
-87.3288274422
 20
40.0
 41
3.0
 42
3.0
 43
3.0
 50
90.0
  0
INSERT
  5
246
100
AcDbEntity
  8
0
100
AcDbBlockReference
 62
7
  6
CONTINUOUS
  2
_FILLED
 10
-87.3288274422
 20
-40.0
 41
3.0
 42
3.0
 43
3.0
 50
270.0
  0
ENDBLK
  5
247
100
AcDbEntity
  8
0
  6
BYBLOCK
 62
0
100
AcDbBlockEnd
  0
ENDSEC
  0
SECTION
  2
ENTITIES
  0
DIMENSION
  5
248
100
AcDbEntity
  8
0
100
AcDbDimension
 62
7
  6
CONTINUOUS
  2
*D0
 10
40.0
 20
49.8480970221
 11
-2.3571428571
 21
49.8480970221
 70
160
 71
2
 72
2
 41
0.9
 42
80.0
  3
DIMSTYLE_1
100
AcDbAlignedDimension
 13
-40.0
 23
37.0
 14
40.0
 24
37.0
100
AcDbRotatedDimension
  0
DIMENSION
  5
249
100
AcDbEntity
  8
0
100
AcDbDimension
 62
7
  6
CONTINUOUS
  2
*D1
 10
-61.3862032084
 20
49.7691833495
 11
-72.7576317798
 21
49.7691833495
 70
160
 71
2
 72
2
 41
0.9
 42
14.6
  3
DIMSTYLE_1
100
AcDbAlignedDimension
 13
-75.9862032084
 23
0.0
 14
-61.3862032084
 24
40.0
100
AcDbRotatedDimension
  0
DIMENSION
  5
24A
100
AcDbEntity
  8
0
100
AcDbDimension
 62
7
  6
CONTINUOUS
  2
*D2
 10
-87.3288274422
 20
-40.0
 11
-87.3288274422
 21
-2.3571428571
 70
160
 71
2
 72
2
 41
0.9
 42
80.0
  3
DIMSTYLE_1
100
AcDbAlignedDimension
 13
-61.3862032084
 23
40.0
 14
-61.3862032084
 24
-40.0
 50
270.0
100
AcDbRotatedDimension
  0
LWPOLYLINE
  5
24B
100
AcDbEntity
  8
PLACCA_PRT
100
AcDbPolyline
 62
250
  6
CONTINUOUS
 90
22
 70
0
 10
-38.9102130862
 20
-37.0515811381
 10
-38.9002780688
 20
-37.1874959259
 10
-38.8804320879
 20
-37.3228616054
 10
-38.8507762441
 20
-37.4568022687
 10
-38.8114837031
 20
-37.5885762813
 10
-38.7627673704
 20
-37.7174864561
 10
-38.704853329
 20
-37.8428202643
 10
-38.6380288379
 20
-37.9639141491
 10
-38.5626513665
 20
-38.0801157567
 10
-38.4791049432
 20
-38.1907457359
 10
-38.3877988633
 20
-38.2952006713
 10
-38.289224749
 20
-38.3929459558
 10
-38.1839179916
 20
-38.483426522
 10
-38.0723942696
 20
-38.5661561687
 10
-37.9552744633
 20
-38.6407201884
 10
-37.8332694611
 20
-38.7066944331
 10
-37.7070497865
 20
-38.7637126043
 10
-37.577253949
 20
-38.8115335103
 10
-37.4445538631
 20
-38.8499473298
 10
-37.3096270827
 20
-38.878746182
 10
-37.1732355829
 20
-38.8978077352
 10
-37.0362124695
 20
-38.9070913689
  0
LINE
  5
24C
100
AcDbEntity
  8
PLACCA_PRT
100
AcDbLine
 62
250
  6
CONTINUOUS
 10
-38.9612447773
 20
-36.1111155161
 11
-38.9467653014
 21
-36.3056647202
  0
LINE
  5
24D
100
AcDbEntity
  8
PLACCA_PRT
100
AcDbLine
 62
250
  6
CONTINUOUS
 10
-38.9467653014
 20
-36.3056647202
 11
-38.9413620455
 21
-36.3868682483
  0
LINE
  5
24E
100
AcDbEntity
  8
PLACCA_PRT
100
AcDbLine
 62
250
  6
CONTINUOUS
 10
-38.9413620455
 20
-36.3868682483
 11
-38.9362118465
 21
-36.4724057667
  0
LINE
  5
24F
100
AcDbEntity
  8
PLACCA_PRT
100
AcDbLine
 62
250
  6
CONTINUOUS
 10
-38.9362118465
 20
-36.4724057667
 11
-38.9312575937
 21
-36.5632563335
  0
LWPOLYLINE
  5
250
100
AcDbEntity
  8
PLACCA_PRT
100
AcDbPolyline
 62
250
  6
CONTINUOUS
 90
22
 70
0
 10
-39.7686319911
 20
-37.0
 10
-39.7612478574
 20
-37.2066179338
 10
-39.7384204869
 20
-37.4121768093
 10
-39.7002639175
 20
-37.6155202395
 10
-39.646978526
 20
-37.8154952692
 10
-39.5788524607
 20
-38.0109813599
 10
-39.4962545566
 20
-38.2008969481
 10
-39.3996268412
 20
-38.3841808342
 10
-39.2895018453
 20
-38.5597799753
 10
-39.1665025076
 20
-38.7266818817
 10
-39.0313082629
 20
-38.8839456596
 10
-38.8846743197
 20
-39.0306729723
 10
-38.7274514966
 20
-39.1660050557
 10
-38.5605061447
 20
-39.289191968
 10
-38.384793752
 20
-39.3995227313
 10
-38.2014004731
 20
-39.4963265308
 10
-38.0114202096
 20
-39.5790605404
 10
-37.8158832453
 20
-39.6473072965
 10
-37.6158427245
 20
-39.7007131093
 10
-37.4124080746
 20
-39.7389908799
 10
-37.2067417773
 20
-39.7619344928
 10
-37.0
 20
-39.7694281234
  0
LINE
  5
251
100
AcDbEntity
  8
PLACCA_PRT
100
AcDbLine
 62
250
  6
CONTINUOUS
 10
-38.9313394794
 20
36.5616166081
 11
-38.9371857731
 21
36.4556540434
  0
LINE
  5
252
100
AcDbEntity
  8
PLACCA_PRT
100
AcDbLine
 62
250
  6
CONTINUOUS
 10
-38.9371857731
 20
36.4556540434
 11
-38.943274968
 21
36.357045665
  0
LWPOLYLINE
  5
253
100
AcDbEntity
  8
PLACCA_PRT
100
AcDbPolyline
 62
250
  6
CONTINUOUS
 90
3
 70
0
 10
-38.943274968
 20
36.357045665
 10
-38.9496797595
 20
36.2666097276
 10
-38.9528640264
 20
36.2232788047
  0
LWPOLYLINE
  5
254
100
AcDbEntity
  8
PLACCA_PRT
100
AcDbPolyline
 62
250
  6
CONTINUOUS
 90
7
 70
0
 10
-38.9528640264
 20
36.2232788047
 10
-38.9594081372
 20
36.1398735667
 10
-38.9620170065
 20
36.0992531705
 10
-38.9636579981
 20
36.0591959272
 10
-38.9646599298
 20
36.0196302801
 10
-38.965421248
 20
35.9795994074
 10
-38.9659632337
 20
35.9389617805
  0
LWPOLYLINE
  5
255
100
AcDbEntity
  8
PLACCA_PRT
100
AcDbPolyline
 62
250
  6
CONTINUOUS
 90
22
 70
0
 10
37.0362124695
 20
-38.907091369
 10
37.1732355814
 20
-38.8978077328
 10
37.3096271317
 20
-38.8787461708
 10
37.4445539537
 20
-38.8499473095
 10
37.5772540481
 20
-38.8115334831
 10
37.7070498751
 20
-38.7637125714
 10
37.8332695371
 20
-38.7066943947
 10
37.9552745349
 20
-38.6407201439
 10
38.0723943422
 20
-38.5661561171
 10
38.1839180662
 20
-38.4834264624
 10
38.289224823
 20
-38.3929458874
 10
38.3877989341
 20
-38.295200595
 10
38.479105009
 20
-38.1907456542
 10
38.5626514267
 20
-38.0801156737
 10
38.6380288925
 20
-37.9639140646
 10
38.7048533786
 20
-37.8428201713
 10
38.7627674153
 20
-37.717486341
 10
38.8114837431
 20
-37.5885761399
 10
38.8507762771
 20
-37.4568021226
 10
38.8804321094
 20
-37.3228615018
 10
38.9002780754
 20
-37.1874959003
 10
38.9102130862
 20
-37.0515811381
  0
LWPOLYLINE
  5
256
100
AcDbEntity
  8
PLACCA_PRT
100
AcDbPolyline
 62
250
  6
CONTINUOUS
 90
22
 70
0
 10
37.0
 20
-39.7694281234
 10
37.2067417772
 20
-39.7619344928
 10
37.4124080746
 20
-39.73899088
 10
37.6158427245
 20
-39.7007131094
 10
37.8158832453
 20
-39.6473072966
 10
38.0114202096
 20
-39.5790605404
 10
38.2014004731
 20
-39.4963265308
 10
38.384793752
 20
-39.3995227313
 10
38.5605061447
 20
-39.289191968
 10
38.7274514966
 20
-39.1660050557
 10
38.8846743197
 20
-39.0306729723
 10
39.0313082629
 20
-38.8839456596
 10
39.1665025076
 20
-38.7266818817
 10
39.2895018453
 20
-38.5597799753
 10
39.3996268413
 20
-38.3841808342
 10
39.4962545566
 20
-38.2008969482
 10
39.5788524607
 20
-38.0109813599
 10
39.6469785259
 20
-37.8154952692
 10
39.7002639174
 20
-37.6155202396
 10
39.7384204867
 20
-37.4121768093
 10
39.7612478573
 20
-37.2066179339
 10
39.7686319911
 20
-37.0
  0
LINE
  5
257
100
AcDbEntity
  8
PLACCA_PRT
100
AcDbLine
 62
250
  6
CONTINUOUS
 10
-38.9312575937
 20
-36.5632563335
 11
-38.9240003207
 21
-36.7118954663
  0
LINE
  5
258
100
AcDbEntity
  8
PLACCA_PRT
100
AcDbLine
 62
250
  6
CONTINUOUS
 10
-38.9240003207
 20
-36.7118954663
 11
-38.9169937679
 21
-36.8745629101
  0
LINE
  5
259
100
AcDbEntity
  8
PLACCA_PRT
100
AcDbLine
 62
250
  6
CONTINUOUS
 10
-38.9169937679
 20
-36.8745629101
 11
-38.9102137944
 21
-37.0515813986
  0
LWPOLYLINE
  5
25A
100
AcDbEntity
  8
PLACCA_PRT
100
AcDbPolyline
 62
250
  6
CONTINUOUS
 90
3
 70
0
 10
-38.9645954689
 20
-36.035023156
 10
-38.9634157954
 20
-36.0729820718
 10
-38.9612447773
 20
-36.1111155161
  0
LINE
  5
25B
100
AcDbEntity
  8
PLACCA_PRT
100
AcDbLine
 62
250
  6
CONTINUOUS
 10
-39.0149959404
 20
-32.5843171755
 11
-38.9668211804
 21
-35.8417544653
  0
LINE
  5
25C
100
AcDbEntity
  8
PLACCA_PRT
100
AcDbLine
 62
250
  6
CONTINUOUS
 10
-39.0417197595
 20
-30.3141099105
 11
-39.0149959404
 21
-32.5843171755
  0
LINE
  5
25D
100
AcDbEntity
  8
PLACCA_PRT
100
AcDbLine
 62
250
  6
CONTINUOUS
 10
-38.9668211804
 20
-35.8417544653
 11
-38.9645954689
 21
-36.035023156
  0
LWPOLYLINE
  5
25E
100
AcDbEntity
  8
PLACCA_PRT
100
AcDbPolyline
 62
250
  6
CONTINUOUS
 90
13
 70
0
 10
-37.0362125784
 20
-38.9070917783
 10
-37.0351766179
 20
-39.0200087361
 10
-37.0336748082
 20
-39.1296251597
 10
-37.0317270365
 20
-39.2344892914
 10
-37.0293590968
 20
-39.333212313
 10
-37.0266023477
 20
-39.4244867386
 10
-37.0234932969
 20
-39.5071037316
 10
-37.0200731181
 20
-39.5799691142
 10
-37.0163871058
 20
-39.6421178589
 10
-37.0124840752
 20
-39.6927268688
 10
-37.0084157156
 20
-39.7311258793
 10
-37.0042359056
 20
-39.7568063347
 10
-37.0
 20
-39.7694281234
  0
LINE
  5
25F
100
AcDbEntity
  8
PLACCA_PRT
100
AcDbLine
 62
250
  6
CONTINUOUS
 10
-39.0595136693
 20
-27.7939100709
 11
-39.0417197595
 21
-30.3141099105
  0
LINE
  5
260
100
AcDbEntity
  8
PLACCA_PRT
100
AcDbLine
 62
250
  6
CONTINUOUS
 10
-39.0838423836
 20
-18.2245031915
 11
-39.0595136693
 21
-27.7939100709
  0
LINE
  5
261
100
AcDbEntity
  8
PLACCA_PRT
100
AcDbLine
 62
250
  6
CONTINUOUS
 10
-39.7686319911
 20
37.0
 11
-39.7641929519
 21
31.6495554399
  0
LINE
  5
262
100
AcDbEntity
  8
PLACCA_PRT
100
AcDbLine
 62
250
  6
CONTINUOUS
 10
-39.0968085517
 20
-2.7929255567
 11
-39.0838423836
 21
-18.2245031915
  0
LINE
  5
263
100
AcDbEntity
  8
PLACCA_PRT
100
AcDbLine
 62
7
  6
CONTINUOUS
 10
-40.0
 20
37.0
 11
-40.0
 21
3.6749773271
  0
LINE
  5
264
100
AcDbEntity
  8
PLACCA_PRT
100
AcDbLine
 62
7
  6
CONTINUOUS
 10
-40.0
 20
-3.6749773271
 11
-40.0
 21
-37.0
  0
LINE
  5
265
100
AcDbEntity
  8
PLACCA_PRT
100
AcDbLine
 62
7
  6
CONTINUOUS
 10
-39.8951844414
 20
3.5
 11
-39.8951844414
 21
-3.5
  0
LINE
  5
266
100
AcDbEntity
  8
PLACCA_PRT
100
AcDbLine
 62
250
  6
CONTINUOUS
 10
-39.7641929519
 20
31.6495554399
 11
-39.7627408793
 21
26.0225289609
  0
LINE
  5
267
100
AcDbEntity
  8
PLACCA_PRT
100
AcDbLine
 62
250
  6
CONTINUOUS
 10
-37.0
 20
-40.0
 11
-37.0
 21
-39.7694281234
  0
LINE
  5
268
100
AcDbEntity
  8
PLACCA_PRT
100
AcDbLine
 62
250
  6
CONTINUOUS
 10
-37.0
 20
39.7694281234
 11
-37.0
 21
40.0
  0
LINE
  5
269
100
AcDbEntity
  8
PLACCA_PRT
100
AcDbLine
 62
250
  6
CONTINUOUS
 10
-39.7627408793
 20
26.0225289609
 11
-39.7639696749
 21
-31.155277901
  0
LINE
  5
26A
100
AcDbEntity
  8
PLACCA_PRT
100
AcDbLine
 62
250
  6
CONTINUOUS
 10
-39.7639696749
 20
-31.155277901
 11
-39.7677048709
 21
-36.6213176702
  0
LINE
  5
26B
100
AcDbEntity
  8
PLACCA_PRT
100
AcDbLine
 62
250
  6
CONTINUOUS
 10
-39.7677048709
 20
-36.6213176702
 11
-39.7686319911
 21
-37.0
  0
LINE
  5
26C
100
AcDbEntity
  8
PLACCA_PRT
100
AcDbLine
 62
250
  6
CONTINUOUS
 10
-39.0518702216
 20
29.0873990051
 11
-39.0968085517
 21
-2.7929255567
  0
LINE
  5
26D
100
AcDbEntity
  8
PLACCA_PRT
100
AcDbLine
 62
250
  6
CONTINUOUS
 10
-38.9659632337
 20
35.9389617805
 11
-38.9666551501
 21
35.8549700744
  0
LWPOLYLINE
  5
26E
100
AcDbEntity
  8
PLACCA_PRT
100
AcDbPolyline
 62
250
  6
CONTINUOUS
 90
13
 70
0
 10
-37.0362124695
 20
38.907091369
 10
-37.0351765741
 20
39.0200058201
 10
-37.0336748195
 20
39.1296196064
 10
-37.0317270923
 20
39.2344810404
 10
-37.0293591858
 20
39.3332013736
 10
-37.0266024581
 20
39.4244731877
 10
-37.0234934175
 20
39.5070877102
 10
-37.0200732381
 20
39.5799508229
 10
-37.0163872151
 20
39.6420975517
 10
-37.0124841651
 20
39.6927048468
 10
-37.0084157787
 20
39.7311024825
 10
-37.0042359362
 20
39.7567819337
 10
-36.9999999945
 20
39.7694031107
  0
LINE
  5
26F
100
AcDbEntity
  8
PLACCA_PRT
100
AcDbLine
 62
250
  6
CONTINUOUS
 10
-39.0308344597
 20
31.3444578262
 11
-39.0518702216
 21
29.0873990051
  0
LINE
  5
270
100
AcDbEntity
  8
PLACCA_PRT
100
AcDbLine
 62
250
  6
CONTINUOUS
 10
-38.9666551501
 20
35.8549700744
 11
-39.0308344597
 21
31.3444578262
  0
LINE
  5
271
100
AcDbEntity
  8
PLACCA_PRT
100
AcDbLine
 62
250
  6
CONTINUOUS
 10
-38.9102137983
 20
37.0515814002
 11
-38.9177942145
 21
36.8549652479
  0
LINE
  5
272
100
AcDbEntity
  8
PLACCA_PRT
100
AcDbLine
 62
250
  6
CONTINUOUS
 10
-38.9177942145
 20
36.8549652479
 11
-38.9257375714
 21
36.6745444677
  0
LINE
  5
273
100
AcDbEntity
  8
PLACCA_PRT
100
AcDbLine
 62
250
  6
CONTINUOUS
 10
-38.9257375714
 20
36.6745444677
 11
-38.9313394794
 21
36.5616166081
  0
LWPOLYLINE
  5
274
100
AcDbEntity
  8
PLACCA_PRT
100
AcDbPolyline
 62
7
  6
CONTINUOUS
 90
10
 70
0
 10
-27.2600567768
 20
29.0825595559
 10
-27.1539274304
 20
29.2527808002
 10
-27.0343703913
 20
29.416453255
 10
-26.9013856593
 20
29.573396237
 10
-26.7528867743
 20
29.725870252
 10
-26.5909601964
 20
29.8712120081
 10
-26.4218653069
 20
30.0026206728
 10
-26.2476885661
 20
30.118621629
 10
-26.0663435137
 20
30.2222547189
 10
-25.8778301496
 20
30.3142494559
  0
LWPOLYLINE
  5
275
100
AcDbEntity
  8
PORTELLO
100
AcDbPolyline
 62
250
  6
CONTINUOUS
 90
16
 70
0
 10
-27.2905911896
 20
27.5999999978
 10
-27.2756382423
 20
27.6069595785
 10
-27.2463334697
 20
27.6138518057
 10
-27.2029604734
 20
27.6206099789
 10
-27.1459390027
 20
27.6271686946
 10
-27.075820892
 20
27.6334644796
 10
-26.9932847205
 20
27.6394364054
 10
-26.8991292455
 20
27.6450266774
 10
-26.7942656715
 20
27.650181195
 10
-26.6797088329
 20
27.6548500745
 10
-26.5565673717
 20
27.6589881318
 10
-26.4260330094
 20
27.6625553204
 10
-26.2893690132
 20
27.6655171181
 10
-26.1478979709
 20
27.6678448617
 10
-26.0029889914
 20
27.6695160242
 10
-25.8560444545
 20
27.6705144325
  0
LINE
  5
276
100
AcDbEntity
  8
PLACCA_PRT
100
AcDbLine
 62
250
  6
CONTINUOUS
 10
36.4801934442
 20
-38.9284661424
 11
36.6596296019
 21
-38.9205102636
  0
LINE
  5
277
100
AcDbEntity
  8
PLACCA_PRT
100
AcDbLine
 62
250
  6
CONTINUOUS
 10
36.6596296019
 20
-38.9205102636
 11
36.8548548816
 21
-38.9131880143
  0
LINE
  5
278
100
AcDbEntity
  8
PLACCA_PRT
100
AcDbLine
 62
250
  6
CONTINUOUS
 10
36.8548548816
 20
-38.9131880143
 11
37.0362125772
 21
-38.9070917744
  0
LWPOLYLINE
  5
279
100
AcDbEntity
  8
PLACCA_PRT
100
AcDbPolyline
 62
250
  6
CONTINUOUS
 90
3
 70
0
 10
36.4073581096
 20
-38.9306446285
 10
36.4439100036
 20
-38.9297784966
 10
36.4801934442
 20
-38.9284661424
  0
LWPOLYLINE
  5
27A
100
AcDbEntity
  8
PLACCA_PRT
100
AcDbPolyline
 62
250
  6
CONTINUOUS
 90
13
 70
0
 10
38.9102137945
 20
-37.0515813988
 10
39.0227257125
 20
-37.0500871261
 10
39.1319095112
 20
-37.0479332425
 10
39.2363273461
 20
-37.0451481135
 10
39.3346041359
 20
-37.0417684176
 10
39.4254456711
 20
-37.0378386632
 10
39.5076556569
 20
-37.0334106024
 10
39.5801514679
 20
-37.0285425492
 10
39.6419784047
 20
-37.0232986126
 10
39.6923222668
 20
-37.0177478514
 10
39.7305200746
 20
-37.0119633651
 10
39.7560688
 20
-37.0060213307
 10
39.7686319911
 20
-37.0
  0
LINE
  5
27B
100
AcDbEntity
  8
PLACCA_PRT
100
AcDbLine
 62
250
  6
CONTINUOUS
 10
30.0790994558
 20
-39.0219328934
 11
32.1355154994
 21
-38.9895713833
  0
LINE
  5
27C
100
AcDbEntity
  8
PLACCA_PRT
100
AcDbLine
 62
250
  6
CONTINUOUS
 10
32.1355154994
 20
-38.9895713833
 11
35.5278386922
 21
-38.9418624895
  0
LWPOLYLINE
  5
27D
100
AcDbEntity
  8
PLACCA_PRT
100
AcDbPolyline
 62
250
  6
CONTINUOUS
 90
3
 70
0
 10
35.5278386922
 20
-38.9418624895
 10
36.2952383485
 20
-38.9322054775
 10
36.4073581096
 20
-38.9306446285
  0
LINE
  5
27E
100
AcDbEntity
  8
PLACCA_PRT
100
AcDbLine
 62
250
  6
CONTINUOUS
 10
24.7116739585
 20
-39.0817110858
 11
30.0790994558
 21
-39.0219328934
  0
LINE
  5
27F
100
AcDbEntity
  8
PLACCA_PRT
100
AcDbLine
 62
250
  6
CONTINUOUS
 10
22.5099072241
 20
-39.0968623421
 11
24.7116739585
 21
-39.0817110858
  0
LINE
  5
280
100
AcDbEntity
  8
PLACCA_PRT
100
AcDbLine
 62
250
  6
CONTINUOUS
 10
20.4481971271
 20
-39.104214484
 11
22.5099072241
 21
-39.0968623421
  0
LINE
  5
281
100
AcDbEntity
  8
PLACCA_PRT
100
AcDbLine
 62
250
  6
CONTINUOUS
 10
-37.0
 20
-39.7694281234
 11
-24.2246956756
 21
-39.7617049657
  0
LINE
  5
282
100
AcDbEntity
  8
PLACCA_PRT
100
AcDbLine
 62
7
  6
CONTINUOUS
 10
-36.9999999999
 20
-40.0
 11
37.0
 21
-40.0
  0
LINE
  5
283
100
AcDbEntity
  8
PLACCA_PRT
100
AcDbLine
 62
250
  6
CONTINUOUS
 10
-40.0
 20
-37.0
 11
-39.7686319911
 21
-37.0
  0
LINE
  5
284
100
AcDbEntity
  8
PLACCA_PRT
100
AcDbLine
 62
250
  6
CONTINUOUS
 10
40.0
 20
-37.0
 11
39.7686319911
 21
-37.0
  0
LINE
  5
285
100
AcDbEntity
  8
PLACCA_PRT
100
AcDbLine
 62
250
  6
CONTINUOUS
 10
-24.2246956756
 20
-39.7617049657
 11
11.7500506969
 21
-39.7614222831
  0
LINE
  5
286
100
AcDbEntity
  8
PLACCA_PRT
100
AcDbLine
 62
250
  6
CONTINUOUS
 10
11.7500506969
 20
-39.7614222831
 11
24.2946593267
 21
-39.7617272842
  0
LINE
  5
287
100
AcDbEntity
  8
PLACCA_PRT
100
AcDbLine
 62
250
  6
CONTINUOUS
 10
18.0479591186
 20
-39.105749052
 11
20.4481971271
 21
-39.104214484
  0
LINE
  5
288
100
AcDbEntity
  8
PLACCA_PRT
100
AcDbLine
 62
250
  6
CONTINUOUS
 10
24.2946593267
 20
-39.7617272842
 11
36.5017132735
 21
-39.7687347221
  0
LINE
  5
289
100
AcDbEntity
  8
PLACCA_PRT
100
AcDbLine
 62
250
  6
CONTINUOUS
 10
-20.4175548968
 20
-39.1042789021
 11
11.75
 21
-39.0969288231
  0
LWPOLYLINE
  5
28A
100
AcDbEntity
  8
PLACCA_PRT
100
AcDbPolyline
 62
250
  6
CONTINUOUS
 90
3
 70
0
 10
11.75
 20
-39.0969288224
 10
14.5457649187
 20
-39.1003268727
 10
18.0479591186
 20
-39.105749052
  0
LINE
  5
28B
100
AcDbEntity
  8
PLACCA_PRT
100
AcDbLine
 62
250
  6
CONTINUOUS
 10
36.5017132735
 20
-39.7687347221
 11
37.0
 21
-39.7694281234
  0
LINE
  5
28C
100
AcDbEntity
  8
PLACCA_PRT
100
AcDbLine
 62
250
  6
CONTINUOUS
 10
-23.0565324631
 20
-39.0938333813
 11
-20.4175548968
 21
-39.1042789021
  0
LINE
  5
28D
100
AcDbEntity
  8
PLACCA_PRT
100
AcDbLine
 62
250
  6
CONTINUOUS
 10
-25.9909905916
 20
-39.069373572
 11
-23.0565324631
 21
-39.0938333813
  0
LWPOLYLINE
  5
28E
100
AcDbEntity
  8
PLACCA_PRT
100
AcDbPolyline
 62
250
  6
CONTINUOUS
 90
13
 70
0
 10
-38.9102130862
 20
-37.0515811381
 10
-39.0227211578
 20
-37.0500865556
 10
-39.131900924
 20
-37.0479324277
 10
-39.2363146443
 20
-37.0451471207
 10
-39.3345873403
 20
-37.0417673126
 10
-39.425424902
 20
-37.0378375104
 10
-39.5076311294
 20
-37.0334094637
 10
-39.5801234847
 20
-37.0285414833
 10
-39.641947348
 20
-37.0232976733
 10
-39.6922885879
 20
-37.0177470876
 10
-39.7304842826
 20
-37.0119628197
 10
-39.7560314499
 20
-37.0060210398
 10
-39.7685936703
 20
-36.9999999927
  0
LINE
  5
28F
100
AcDbEntity
  8
PLACCA_PRT
100
AcDbLine
 62
250
  6
CONTINUOUS
 10
-30.9397790524
 20
-39.0095675935
 11
-25.9909905916
 21
-39.069373572
  0
LINE
  5
290
100
AcDbEntity
  8
PLACCA_PRT
100
AcDbLine
 62
250
  6
CONTINUOUS
 10
-32.0101555314
 20
-38.9914150373
 11
-30.9397790524
 21
-39.0095675935
  0
LINE
  5
291
100
AcDbEntity
  8
PLACCA_PRT
100
AcDbLine
 62
250
  6
CONTINUOUS
 10
-37.0362125784
 20
-38.9070917783
 11
-36.7799137914
 21
-38.9159013382
  0
LINE
  5
292
100
AcDbEntity
  8
PLACCA_PRT
100
AcDbLine
 62
250
  6
CONTINUOUS
 10
-36.7799137914
 20
-38.9159013382
 11
-36.6706551541
 21
-38.9200720025
  0
LINE
  5
293
100
AcDbEntity
  8
PLACCA_PRT
100
AcDbLine
 62
250
  6
CONTINUOUS
 10
-36.6706551541
 20
-38.9200720025
 11
-36.5672013772
 21
-38.9245245656
  0
LWPOLYLINE
  5
294
100
AcDbEntity
  8
PLACCA_PRT
100
AcDbPolyline
 62
250
  6
CONTINUOUS
 90
6
 70
0
 10
-36.5672013772
 20
-38.9245245656
 10
-36.4983586378
 20
-38.9277894311
 10
-36.4637649494
 20
-38.9291645341
 10
-36.4288910269
 20
-38.930118815
 10
-36.3938170654
 20
-38.9308037233
 10
-32.0101555314
 20
-38.9914150373
  0
LWPOLYLINE
  5
295
100
AcDbEntity
  8
PORTELLO
100
AcDbPolyline
 62
250
  6
CONTINUOUS
 90
13
 70
0
 10
-24.5
 20
30.3911653476
 10
-24.505767784
 20
30.3763395767
 10
-24.5114804032
 20
30.3473287385
 10
-24.5170832202
 20
30.3044103028
 10
-24.5225226479
 20
30.2479947568
 10
-24.5277466616
 20
30.1786216784
 10
-24.532705297
 20
30.0969545763
 10
-24.537351128
 20
30.0037745432
 10
-24.5416397205
 20
29.8999727859
 10
-24.5455300568
 20
29.7865421008
 10
-24.5489849285
 20
29.6645673789
 10
-24.5519712921
 20
29.5352152293
 10
-24.556428999
 20
29.2593860524
  0
LINE
  5
296
100
AcDbEntity
  8
PLACCA_PRT
100
AcDbLine
 62
7
  6
CONTINUOUS
 10
-39.8951844414
 20
-3.5
 11
-40.0
 21
-3.6749773271
  0
LWPOLYLINE
  5
297
100
AcDbEntity
  8
PORTELLO
100
AcDbPolyline
 62
250
  6
CONTINUOUS
 90
13
 70
0
 10
-27.2837299456
 20
-24.5
 10
-27.2687493219
 20
-24.5055637896
 10
-27.2393855673
 20
-24.5110736168
 10
-27.1959234782
 20
-24.5164760425
 10
-27.1387845895
 20
-24.5217186691
 10
-27.0685230861
 20
-24.5267506489
 10
-26.9858204279
 20
-24.5315231772
 10
-26.8914787407
 20
-24.5359899656
 10
-26.7864130359
 20
-24.5401076914
 10
-26.6716423363
 20
-24.5438364171
 10
-26.5482797925
 20
-24.5471399783
 10
-26.4175218867
 20
-24.5499863342
 10
-26.1389522522
 20
-24.5542017062
  0
LINE
  5
298
100
AcDbEntity
  8
PLACCA_PRT
100
AcDbLine
 62
7
  6
CONTINUOUS
 10
-40.0
 20
3.6749773271
 11
-39.8951844414
 21
3.5
  0
LWPOLYLINE
  5
299
100
AcDbEntity
  8
PORTELLO
100
AcDbPolyline
 62
250
  6
CONTINUOUS
 90
12
 70
0
 10
-24.4999999978
 20
-27.2837144187
 10
-24.5055637861
 20
-27.2687340802
 10
-24.5110736113
 20
-27.2393707727
 10
-24.5164760345
 20
-27.1959092864
 10
-24.5217186582
 20
-27.1387711474
 10
-24.526750635
 20
-27.0685105293
 10
-24.5315231604
 20
-26.9858088788
 10
-24.5359899463
 20
-26.891468306
 10
-24.54010767
 20
-26.7864038052
 10
-24.5438363943
 20
-26.6716343804
 10
-24.547139955
 20
-26.5482731619
 10
-24.5499863112
 20
-26.4175166107
  0
LINE
  5
29A
100
AcDbEntity
  8
PORTELLO
100
AcDbLine
 62
7
  6
CONTINUOUS
 10
-27.5198094731
 20
26.2938707199
 11
-27.5244426432
 21
27.0366419061
  0
LINE
  5
29B
100
AcDbEntity
  8
PORTELLO
100
AcDbLine
 62
7
  6
CONTINUOUS
 10
-27.5002321495
 20
24.1784480235
 11
-27.5198094731
 21
26.2938707199
  0
LINE
  5
29C
100
AcDbEntity
  8
PLACCA_PRT
100
AcDbLine
 62
7
  6
CONTINUOUS
 10
-27.626793091
 20
25.2868753402
 11
-27.637363018
 21
27.6
  0
LWPOLYLINE
  5
29D
100
AcDbEntity
  8
PORTELLO
100
AcDbPolyline
 62
250
  6
CONTINUOUS
 90
3
 70
0
 10
-25.8376493638
 20
21.0278559332
 10
-25.8458388048
 20
24.3151785658
 10
-25.8560448164
 20
27.6705148355
  0
LINE
  5
29E
100
AcDbEntity
  8
PORTELLO
100
AcDbLine
 62
250
  6
CONTINUOUS
 10
-27.2780499193
 20
20.9845322419
 11
-27.2906065936
 21
27.6
  0
LINE
  5
29F
100
AcDbEntity
  8
PORTELLO
100
AcDbLine
 62
7
  6
CONTINUOUS
 10
-27.5244426432
 20
27.0366419061
 11
-27.5259592973
 21
27.6
  0
LINE
  5
2A0
100
AcDbEntity
  8
PORTELLO
100
AcDbLine
 62
250
  6
CONTINUOUS
 10
-25.8257809058
 20
14.6561011419
 11
-25.8376493638
 21
21.0278559332
  0
LINE
  5
2A1
100
AcDbEntity
  8
PORTELLO
100
AcDbLine
 62
250
  6
CONTINUOUS
 10
-27.2700849855
 20
14.6313964713
 11
-27.2780499193
 21
20.9845322419
  0
LINE
  5
2A2
100
AcDbEntity
  8
PORTELLO
100
AcDbLine
 62
250
  6
CONTINUOUS
 10
-25.8184661745
 20
8.5630525051
 11
-25.8257809058
 21
14.6561011419
  0
LINE
  5
2A3
100
AcDbEntity
  8
PORTELLO
100
AcDbLine
 62
250
  6
CONTINUOUS
 10
-27.2649558401
 20
5.6244271642
 11
-27.2700849855
 21
14.6313964713
  0
LINE
  5
2A4
100
AcDbEntity
  8
PORTELLO
100
AcDbLine
 62
250
  6
CONTINUOUS
 10
-25.8151457006
 20
2.778535578
 11
-25.8184661745
 21
8.5630525051
  0
LINE
  5
2A5
100
AcDbEntity
  8
PORTELLO
100
AcDbLine
 62
7
  6
CONTINUOUS
 10
-27.5002321495
 20
24.1784480235
 11
-27.5
 21
-24.5
  0
LINE
  5
2A6
100
AcDbEntity
  8
PORTELLO
100
AcDbLine
 62
250
  6
CONTINUOUS
 10
-25.8200538706
 20
-10.2200680499
 11
-25.8151457006
 21
2.778535578
  0
LINE
  5
2A7
100
AcDbEntity
  8
PORTELLO
100
AcDbLine
 62
250
  6
CONTINUOUS
 10
-27.2768014005
 20
-20.4034456675
 11
-27.2649558401
 21
5.6244271642
  0
LINE
  5
2A8
100
AcDbEntity
  8
PORTELLO
100
AcDbLine
 62
250
  6
CONTINUOUS
 10
-27.2837299456
 20
-24.5
 11
-27.2768014005
 21
-20.4034456675
  0
LINE
  5
2A9
100
AcDbEntity
  8
PORTELLO
100
AcDbLine
 62
250
  6
CONTINUOUS
 10
-25.8413889569
 20
-22.5336093585
 11
-25.8200538706
 21
-10.2200680499
  0
LINE
  5
2AA
100
AcDbEntity
  8
PORTELLO
100
AcDbLine
 62
250
  6
CONTINUOUS
 10
-25.8467145151
 20
-24.5563193923
 11
-25.8413889569
 21
-22.5336093585
  0
LINE
  5
2AB
100
AcDbEntity
  8
PLACCA_PRT
100
AcDbLine
 62
7
  6
CONTINUOUS
 10
-27.637363018
 20
27.6
 11
-27.6335104246
 21
27.7719512143
  0
LWPOLYLINE
  5
2AC
100
AcDbEntity
  8
PORTELLO
100
AcDbPolyline
 62
250
  6
CONTINUOUS
 90
25
 70
0
 10
-25.8560444545
 20
27.6705144325
 10
-25.8535178177
 20
27.7555561108
 10
-25.845434442
 20
27.8402708018
 10
-25.8318122086
 20
27.9242462409
 10
-25.8127155281
 20
28.0070996476
 10
-25.7882395584
 20
28.0884992227
 10
-25.7584702752
 20
28.1681318654
 10
-25.7235194648
 20
28.2456771508
 10
-25.6835547351
 20
28.3207815123
 10
-25.6387576101
 20
28.393084316
 10
-25.5893249888
 20
28.4622537997
 10
-25.5354771531
 20
28.5280167961
 10
-25.4774355291
 20
28.5901036494
 10
-25.4154399874
 20
28.6482371207
 10
-25.349766302
 20
28.702175642
 10
-25.2806846129
 20
28.7516980163
 10
-25.2084676733
 20
28.7965826691
 10
-25.1334451248
 20
28.8366303045
 10
-25.0559770136
 20
28.8716602836
 10
-24.9764170278
 20
28.9015046173
 10
-24.8950859479
 20
28.9260486029
 10
-24.8122972468
 20
28.9452071332
 10
-24.7283832991
 20
28.9588855496
 10
-24.6437245011
 20
28.9670162105
 10
-24.5587330356
 20
28.9695818341
  0
LWPOLYLINE
  5
2AD
100
AcDbEntity
  8
PORTELLO
100
AcDbPolyline
 62
250
  6
CONTINUOUS
 90
25
 70
0
 10
-27.2906065936
 20
27.6
 10
-27.2848263583
 20
27.7826811519
 10
-27.2670913596
 20
27.9645611583
 10
-27.2374846468
 20
28.1448582359
 10
-27.196146685
 20
28.3227770632
 10
-27.1432583999
 20
28.4975765438
 10
-27.0790265922
 20
28.6685684914
 10
-27.0037021585
 20
28.8350557832
 10
-26.917618425
 20
28.9962779406
 10
-26.8211769998
 20
29.151482085
 10
-26.7148212504
 20
29.2999758277
 10
-26.598996938
 20
29.441157034
 10
-26.4741781727
 20
29.5744530836
 10
-26.3409010444
 20
29.6992913832
 10
-26.1997387758
 20
29.8151357224
 10
-26.0512644453
 20
29.9215112108
 10
-25.8960808542
 20
30.0179723408
 10
-25.7348803743
 20
30.1040764903
 10
-25.568415535
 20
30.1794220058
 10
-25.3974470649
 20
30.2436759931
 10
-25.2226722001
 20
30.2965881529
 10
-25.044778651
 20
30.3379517227
 10
-24.864507412
 20
30.3675860849
 10
-24.6826539699
 20
30.3853514634
 10
-24.5
 20
30.3911653476
  0
LWPOLYLINE
  5
2AE
100
AcDbEntity
  8
PLACCA_PRT
100
AcDbPolyline
 62
7
  6
CONTINUOUS
 90
9
 70
0
 10
-27.6335104246
 20
27.7719512143
 10
-27.6199056913
 20
27.9433762041
 10
-27.5966012518
 20
28.1137212366
 10
-27.5636798147
 20
28.2824505574
 10
-27.5212560043
 20
28.4490077316
 10
-27.4694834688
 20
28.6128182401
 10
-27.4085479794
 20
28.773345502
 10
-27.3386591214
 20
28.9300917026
 10
-27.2600567768
 20
29.0825595559
  0
LINE
  5
2AF
100
AcDbEntity
  8
PORTELLO
100
AcDbLine
 62
7
  6
CONTINUOUS
 10
-24.5
 20
-27.5
 11
-22.0
 21
-27.5
  0
LINE
  5
2B0
100
AcDbEntity
  8
PORTELLO
100
AcDbLine
 62
7
  6
CONTINUOUS
 10
22.0
 20
-27.5
 11
24.5
 21
-27.5
  0
LINE
  5
2B1
100
AcDbEntity
  8
PORTELLO
100
AcDbLine
 62
7
  6
CONTINUOUS
 10
-21.7956096608
 20
-27.2956096608
 11
21.7956096608
 21
-27.2956096608
  0
LINE
  5
2B2
100
AcDbEntity
  8
PORTELLO
100
AcDbLine
 62
250
  6
CONTINUOUS
 10
7.7643113443
 20
-25.8178047793
 11
-24.5563193936
 21
-25.8467145165
  0
LINE
  5
2B3
100
AcDbEntity
  8
PORTELLO
100
AcDbLine
 62
250
  6
CONTINUOUS
 10
20.4028964087
 20
-27.2768006117
 11
-24.5
 21
-27.2837299456
  0
LINE
  5
2B4
100
AcDbEntity
  8
PORTELLO
100
AcDbLine
 62
250
  6
CONTINUOUS
 10
24.5
 20
-27.2837299456
 11
20.4028964087
 21
-27.2768006117
  0
LINE
  5
2B5
100
AcDbEntity
  8
PORTELLO
100
AcDbLine
 62
250
  6
CONTINUOUS
 10
20.443668235
 20
-25.8364841135
 11
7.7643113443
 21
-25.8178047793
  0
LINE
  5
2B6
100
AcDbEntity
  8
PORTELLO
100
AcDbLine
 62
250
  6
CONTINUOUS
 10
24.5563193923
 20
-25.8467145151
 11
20.443668235
 21
-25.8364841135
  0
LWPOLYLINE
  5
2B7
100
AcDbEntity
  8
PORTELLO
100
AcDbPolyline
 62
250
  6
CONTINUOUS
 90
25
 70
0
 10
-24.5563193817
 20
-25.8467145036
 10
-24.6408314217
 20
-25.8441639669
 10
-24.7250144252
 20
-25.836089127
 10
-24.8084583424
 20
-25.8225080461
 10
-24.8907822666
 20
-25.8034852562
 10
-24.9716563303
 20
-25.7791155689
 10
-25.0507697263
 20
-25.7494843921
 10
-25.1278043078
 20
-25.7147029407
 10
-25.2024091968
 20
-25.6749380285
 10
-25.2742267815
 20
-25.6303701911
 10
-25.3429282999
 20
-25.581195163
 10
-25.4082428889
 20
-25.5276320461
 10
-25.4699028804
 20
-25.4699013806
 10
-25.5276334882
 20
-25.4082417818
 10
-25.5811956675
 20
-25.3429271765
 10
-25.6303704133
 20
-25.2742261216
 10
-25.6749384685
 20
-25.202409563
 10
-25.7147025308
 20
-25.1278048605
 10
-25.7494837253
 20
-25.0507698458
 10
-25.7791160053
 20
-24.9716553972
 10
-25.8034856626
 20
-24.8907802302
 10
-25.822508208
 20
-24.8084568195
 10
-25.8360901497
 20
-24.7250155459
 10
-25.8441646182
 20
-24.6408333665
 10
-25.8467145035
 20
-24.5563193816
  0
LWPOLYLINE
  5
2B8
100
AcDbEntity
  8
PORTELLO
100
AcDbPolyline
 62
250
  6
CONTINUOUS
 90
25
 70
0
 10
-24.5
 20
-27.2837299456
 10
-24.6821908218
 20
-27.2779237132
 10
-24.8635810171
 20
-27.2601980077
 10
-25.0433913369
 20
-27.2306354372
 10
-25.2208285366
 20
-27.1893757751
 10
-25.395154272
 20
-27.1365992763
 10
-25.5656838081
 20
-27.0725118522
 10
-25.7317227367
 20
-26.9973628045
 10
-25.8925120379
 20
-26.9114841847
 10
-26.0473003723
 20
-26.8152768366
 10
-26.1953975323
 20
-26.7091822791
 10
-26.3362027628
 20
-26.593644682
 10
-26.469143992
 20
-26.4691379085
 10
-26.5936500215
 20
-26.336196669
 10
-26.7091865266
 20
-26.1953919852
 10
-26.8152800716
 20
-26.0472955125
 10
-26.9114864154
 20
-25.89250815
 10
-26.9973641609
 20
-25.7317199557
 10
-27.0725129019
 20
-25.565681236
 10
-27.1366008208
 20
-25.3951496732
 10
-27.1893778287
 20
-25.2208208085
 10
-27.2306372496
 20
-25.0433821459
 10
-27.260199042
 20
-24.863573066
 10
-27.2779240261
 20
-24.6821859365
 10
-27.2837299456
 20
-24.5
  0
LINE
  5
2B9
100
AcDbEntity
  8
PORTELLO
100
AcDbLine
 62
250
  6
CONTINUOUS
 10
-24.5499863112
 20
-26.4175166107
 11
-24.5542016871
 21
-26.1389496846
  0
LINE
  5
2BA
100
AcDbEntity
  8
PORTELLO
100
AcDbLine
 62
250
  6
CONTINUOUS
 10
-24.5542016871
 20
-26.1389496846
 11
-24.5563193817
 21
-25.8467145036
  0
LINE
  5
2BB
100
AcDbEntity
  8
PLACCA_PRT
100
AcDbLine
 62
250
  6
CONTINUOUS
 10
-24.6
 20
30.6
 11
-24.6
 21
30.6487889455
  0
LINE
  5
2BC
100
AcDbEntity
  8
PORTELLO
100
AcDbLine
 62
250
  6
CONTINUOUS
 10
-24.5
 20
-27.5
 11
-24.5
 21
-27.2837299456
  0
LINE
  5
2BD
100
AcDbEntity
  8
PORTELLO
100
AcDbLine
 62
250
  6
CONTINUOUS
 10
-24.5
 20
30.3911653476
 11
-24.5
 21
30.5385305444
  0
LINE
  5
2BE
100
AcDbEntity
  8
PORTELLO
100
AcDbLine
 62
250
  6
CONTINUOUS
 10
-24.556428999
 20
29.2593860524
 11
-24.5587330456
 21
28.969581847
  0
LINE
  5
2BF
100
AcDbEntity
  8
PORTELLO
100
AcDbLine
 62
250
  6
CONTINUOUS
 10
26.4175166107
 20
-24.5499863112
 11
26.1389496846
 21
-24.5542016871
  0
LINE
  5
2C0
100
AcDbEntity
  8
PORTELLO
100
AcDbLine
 62
250
  6
CONTINUOUS
 10
26.1389496846
 20
-24.5542016871
 11
25.8467145036
 21
-24.5563193817
  0
LINE
  5
2C1
100
AcDbEntity
  8
PORTELLO
100
AcDbLine
 62
7
  6
CONTINUOUS
 10
20.430144
 20
-25.000007
 11
19.850122
 21
-25.000015
  0
LINE
  5
2C2
100
AcDbEntity
  8
PORTELLO
100
AcDbLine
 62
7
  6
CONTINUOUS
 10
25.0
 20
-25.0
 11
24.346695
 21
-25.000007
  0
LINE
  5
2C3
100
AcDbEntity
  8
PORTELLO
100
AcDbLine
 62
7
  6
CONTINUOUS
 10
18.335039
 20
-25.000007
 11
17.755031
 21
-25.000015
  0
LINE
  5
2C4
100
AcDbEntity
  8
PORTELLO
100
AcDbLine
 62
7
  6
CONTINUOUS
 10
16.046627
 20
-25.000015
 11
15.466605
 21
-25.000022
  0
LINE
  5
2C5
100
AcDbEntity
  8
PORTELLO
100
AcDbLine
 62
7
  6
CONTINUOUS
 10
14.148794
 20
-25.000015
 11
13.568751
 21
-25.000022
  0
LINE
  5
2C6
100
AcDbEntity
  8
PORTELLO
100
AcDbLine
 62
7
  6
CONTINUOUS
 10
19.463443
 20
-25.000015
 11
18.883421
 21
-25.000015
  0
LINE
  5
2C7
100
AcDbEntity
  8
PORTELLO
100
AcDbLine
 62
7
  6
CONTINUOUS
 10
17.206656
 20
-25.000015
 11
16.626634
 21
-25.000015
  0
LINE
  5
2C8
100
AcDbEntity
  8
PORTELLO
100
AcDbLine
 62
7
  6
CONTINUOUS
 10
23.259144
 20
-25.000007
 11
22.679115
 21
-25.000007
  0
LINE
  5
2C9
100
AcDbEntity
  8
PORTELLO
100
AcDbLine
 62
7
  6
CONTINUOUS
 10
22.292437
 20
-25.000015
 11
21.712408
 21
-25.000007
  0
LINE
  5
2CA
100
AcDbEntity
  8
PORTELLO
100
AcDbLine
 62
250
  6
CONTINUOUS
 10
-27.5
 20
-24.5
 11
-27.2837299456
 21
-24.5
  0
LINE
  5
2CB
100
AcDbEntity
  8
PORTELLO
100
AcDbLine
 62
250
  6
CONTINUOUS
 10
27.5
 20
-24.5
 11
27.2837299456
 21
-24.5
  0
LINE
  5
2CC
100
AcDbEntity
  8
PORTELLO
100
AcDbLine
 62
7
  6
CONTINUOUS
 10
21.529302
 20
-24.429679
 11
20.613257
 21
-24.429679
  0
LINE
  5
2CD
100
AcDbEntity
  8
PORTELLO
100
AcDbLine
 62
7
  6
CONTINUOUS
 10
20.790179
 20
-23.878657
 11
21.352373
 21
-23.878657
  0
LINE
  5
2CE
100
AcDbEntity
  8
PORTELLO
100
AcDbLine
 62
7
  6
CONTINUOUS
 10
23.765441
 20
-23.878657
 11
23.25921
 21
-23.87865
  0
LINE
  5
2CF
100
AcDbEntity
  8
PORTELLO
100
AcDbLine
 62
7
  6
CONTINUOUS
 10
23.251148
 20
-23.342128
 11
23.956824
 21
-23.342128
  0
LINE
  5
2D0
100
AcDbEntity
  8
PORTELLO
100
AcDbLine
 62
7
  6
CONTINUOUS
 10
23.956824
 20
-22.636398
 11
23.25114
 21
-22.636398
  0
LINE
  5
2D1
100
AcDbEntity
  8
PORTELLO
100
AcDbLine
 62
7
  6
CONTINUOUS
 10
12.637619
 20
-22.099884
 11
13.217648
 21
-22.099884
  0
LINE
  5
2D2
100
AcDbEntity
  8
PORTELLO
100
AcDbLine
 62
7
  6
CONTINUOUS
 10
14.499905
 20
-22.099884
 11
15.079934
 21
-22.099884
  0
LINE
  5
2D3
100
AcDbEntity
  8
PORTELLO
100
AcDbLine
 62
7
  6
CONTINUOUS
 10
15.466612
 20
-22.099884
 11
16.046634
 21
-22.099884
  0
LINE
  5
2D4
100
AcDbEntity
  8
PORTELLO
100
AcDbLine
 62
7
  6
CONTINUOUS
 10
16.626634
 20
-22.099884
 11
17.503471
 21
-22.099884
  0
LINE
  5
2D5
100
AcDbEntity
  8
PORTELLO
100
AcDbLine
 62
7
  6
CONTINUOUS
 10
18.586606
 20
-22.099884
 11
19.463443
 21
-22.099884
  0
LINE
  5
2D6
100
AcDbEntity
  8
PORTELLO
100
AcDbLine
 62
7
  6
CONTINUOUS
 10
20.781247
 20
-22.099877
 11
21.361297
 21
-22.099877
  0
LINE
  5
2D7
100
AcDbEntity
  8
PORTELLO
100
AcDbLine
 62
7
  6
CONTINUOUS
 10
22.679115
 20
-22.099877
 11
24.03733
 21
-22.099877
  0
LINE
  5
2D8
100
AcDbEntity
  8
PORTELLO
100
AcDbLine
 62
250
  6
CONTINUOUS
 10
-26.1389522522
 20
-24.5542017062
 11
-25.8467145151
 21
-24.5563193923
  0
LINE
  5
2D9
100
AcDbEntity
  8
PLACCA_PRT
100
AcDbLine
 62
250
  6
CONTINUOUS
 10
-11.75
 20
-27.2956096608
 11
-11.75
 21
-39.7614222831
  0
LINE
  5
2DA
100
AcDbEntity
  8
PLACCA_PRT
100
AcDbLine
 62
250
  6
CONTINUOUS
 10
-11.75
 20
30.6403033623
 11
-11.7500525492
 21
39.7614222831
  0
LWPOLYLINE
  5
2DB
100
AcDbEntity
  8
0
100
AcDbPolyline
 62
7
  6
CONTINUOUS
 90
4
 70
0
 43
0.3500000006
 10
-2.3571427875
 20
51.0266671143
 10
-2.3571427875
 20
51.8838095856
 10
-1.9285714102
 20
52.3123830872
 10
-1.2857142735
 20
52.3123830872
  0
LINE
  5
2DC
100
AcDbEntity
  8
PORTELLO
100
AcDbLine
 62
250
  6
CONTINUOUS
 10
0.0
 20
-27.2642402984
 11
0.0
 21
30.3703170676
  0
LWPOLYLINE
  5
2DD
100
AcDbEntity
  8
0
100
AcDbPolyline
 62
7
  6
CONTINUOUS
 90
13
 70
0
 43
0.3500000006
 10
0.0
 20
51.4552406158
 10
0.0
 20
52.7409520569
 10
0.2142857063
 20
53.1695255585
 10
0.6428571367
 20
53.5980990601
 10
0.8571428254
 20
53.5980990601
 10
1.2857142735
 20
53.1695255585
 10
1.5000000329
 20
52.7409520569
 10
1.5000000329
 20
51.4552406158
 10
1.2857142735
 20
51.0266671143
 10
0.8571428254
 20
50.5980981445
 10
0.6428571367
 20
50.5980981445
 10
0.2142857063
 20
51.0266671143
 10
0.0
 20
51.4552406158
  0
LINE
  5
2DE
100
AcDbEntity
  8
PLACCA_PRT
100
AcDbLine
 62
250
  6
CONTINUOUS
 10
39.7614201801
 20
0.0000054405
 11
27.5
 21
0.0
  0
LINE
  5
2DF
100
AcDbEntity
  8
PORTELLO
100
AcDbLine
 62
250
  6
CONTINUOUS
 10
-27.2642402984
 20
0.0
 11
27.2642402984
 21
0.0
  0
LINE
  5
2E0
100
AcDbEntity
  8
PLACCA_PRT
100
AcDbLine
 62
250
  6
CONTINUOUS
 10
-27.5
 20
0.0
 11
-39.7614201801
 21
-0.0000054405
  0
LINE
  5
2E1
100
AcDbEntity
  8
PORTELLO
100
AcDbLine
 62
7
  6
CONTINUOUS
 10
22.0
 20
-27.5
 11
21.7956096608
 21
-27.2956096608
  0
LINE
  5
2E2
100
AcDbEntity
  8
PORTELLO
100
AcDbLine
 62
7
  6
CONTINUOUS
 10
-22.0
 20
-27.5
 11
-21.7956096608
 21
-27.2956096608
  0
LINE
  5
2E3
100
AcDbEntity
  8
PORTELLO
100
AcDbLine
 62
7
  6
CONTINUOUS
 10
13.568751
 20
-25.000022
 11
12.637619
 21
-22.099884
  0
LINE
  5
2E4
100
AcDbEntity
  8
PORTELLO
100
AcDbLine
 62
7
  6
CONTINUOUS
 10
13.217648
 20
-22.099884
 11
13.85878
 21
-24.09678
  0
LINE
  5
2E5
100
AcDbEntity
  8
PORTELLO
100
AcDbLine
 62
7
  6
CONTINUOUS
 10
24.346695
 20
-25.000007
 11
23.765441
 21
-23.878657
  0
LINE
  5
2E6
100
AcDbEntity
  8
PORTELLO
100
AcDbLine
 62
7
  6
CONTINUOUS
 10
24.3825957907
 20
-23.8089026669
 11
25.0
 21
-25.0
  0
LINE
  5
2E7
100
AcDbEntity
  8
PORTELLO
100
AcDbLine
 62
7
  6
CONTINUOUS
 10
17.755031
 20
-25.000015
 11
17.206656
 21
-23.087573
  0
LINE
  5
2E8
100
AcDbEntity
  8
PORTELLO
100
AcDbLine
 62
7
  6
CONTINUOUS
 10
17.503471
 20
-22.099884
 11
18.045039
 21
-23.988552
  0
LINE
  5
2E9
100
AcDbEntity
  8
PLACCA_PRT
100
AcDbLine
 62
250
  6
CONTINUOUS
 10
11.7500525492
 20
-39.7614222831
 11
11.75
 21
-27.2956096608
  0
LINE
  5
2EA
100
AcDbEntity
  8
PLACCA_PRT
100
AcDbLine
 62
250
  6
CONTINUOUS
 10
11.75
 20
30.6403033623
 11
11.75
 21
39.7614222831
  0
LINE
  5
2EB
100
AcDbEntity
  8
PORTELLO
100
AcDbLine
 62
7
  6
CONTINUOUS
 10
15.466605
 20
-25.000022
 11
15.466612
 21
-22.099884
  0
LINE
  5
2EC
100
AcDbEntity
  8
PORTELLO
100
AcDbLine
 62
7
  6
CONTINUOUS
 10
16.046634
 20
-22.099884
 11
16.046627
 21
-25.000015
  0
LINE
  5
2ED
100
AcDbEntity
  8
PORTELLO
100
AcDbLine
 62
7
  6
CONTINUOUS
 10
21.352373
 20
-23.878657
 11
21.071268
 21
-23.003118
  0
LINE
  5
2EE
100
AcDbEntity
  8
PORTELLO
100
AcDbLine
 62
7
  6
CONTINUOUS
 10
21.712408
 20
-25.000007
 11
21.529302
 21
-24.429679
  0
LINE
  5
2EF
100
AcDbEntity
  8
PORTELLO
100
AcDbLine
 62
7
  6
CONTINUOUS
 10
21.361297
 20
-22.099877
 11
22.292437
 21
-25.000015
  0
LINE
  5
2F0
100
AcDbEntity
  8
PORTELLO
100
AcDbLine
 62
7
  6
CONTINUOUS
 10
16.626634
 20
-25.000015
 11
16.626634
 21
-22.099884
  0
LINE
  5
2F1
100
AcDbEntity
  8
PORTELLO
100
AcDbLine
 62
7
  6
CONTINUOUS
 10
17.206656
 20
-23.087573
 11
17.206656
 21
-25.000015
  0
LINE
  5
2F2
100
AcDbEntity
  8
PORTELLO
100
AcDbLine
 62
7
  6
CONTINUOUS
 10
18.883421
 20
-25.000015
 11
18.883414
 21
-23.087573
  0
LINE
  5
2F3
100
AcDbEntity
  8
PORTELLO
100
AcDbLine
 62
7
  6
CONTINUOUS
 10
19.463443
 20
-22.099884
 11
19.463443
 21
-25.000015
  0
LINE
  5
2F4
100
AcDbEntity
  8
PORTELLO
100
AcDbLine
 62
7
  6
CONTINUOUS
 10
13.85878
 20
-24.09678
 11
14.499905
 21
-22.099884
  0
LINE
  5
2F5
100
AcDbEntity
  8
PORTELLO
100
AcDbLine
 62
7
  6
CONTINUOUS
 10
15.079934
 20
-22.099884
 11
14.148794
 21
-25.000015
  0
LWPOLYLINE
  5
2F6
100
AcDbEntity
  8
PLACCA_PRT
100
AcDbPolyline
 62
7
  6
CONTINUOUS
 90
3
 70
0
 10
27.626793091
 20
25.2868753402
 10
27.5351492618
 20
25.2676018653
 10
27.5093902014
 20
25.2623352521
  0
LWPOLYLINE
  5
2F7
100
AcDbEntity
  8
PLACCA_PRT
100
AcDbPolyline
 62
7
  6
CONTINUOUS
 90
3
 70
0
 10
-27.5093902028
 20
25.2623353835
 10
-27.5355384975
 20
25.2676825708
 10
-27.626793091
 20
25.2868753402
  0
LINE
  5
2F8
100
AcDbEntity
  8
PORTELLO
100
AcDbLine
 62
250
  6
CONTINUOUS
 10
24.5519712755
 20
29.5352099903
 11
24.5564289839
 21
29.2593835011
  0
LINE
  5
2F9
100
AcDbEntity
  8
PORTELLO
100
AcDbLine
 62
250
  6
CONTINUOUS
 10
24.5564289839
 20
29.2593835011
 11
24.5587330357
 21
28.9695818342
  0
LINE
  5
2FA
100
AcDbEntity
  8
PORTELLO
100
AcDbLine
 62
250
  6
CONTINUOUS
 10
25.8244420424
 20
-13.7788095675
 11
25.8467145165
 21
-24.5563193936
  0
LINE
  5
2FB
100
AcDbEntity
  8
PORTELLO
100
AcDbLine
 62
250
  6
CONTINUOUS
 10
25.8151312166
 20
-2.6554487257
 11
25.8244420424
 21
-13.7788095675
  0
LINE
  5
2FC
100
AcDbEntity
  8
PORTELLO
100
AcDbLine
 62
7
  6
CONTINUOUS
 10
22.679115
 20
-25.000007
 11
22.679115
 21
-22.099877
  0
LINE
  5
2FD
100
AcDbEntity
  8
PORTELLO
100
AcDbLine
 62
7
  6
CONTINUOUS
 10
23.25114
 20
-22.636398
 11
23.251148
 21
-23.342128
  0
LINE
  5
2FE
100
AcDbEntity
  8
PORTELLO
100
AcDbLine
 62
250
  6
CONTINUOUS
 10
24.5
 20
-27.5
 11
24.5
 21
-27.2837299456
  0
LINE
  5
2FF
100
AcDbEntity
  8
PORTELLO
100
AcDbLine
 62
250
  6
CONTINUOUS
 10
24.5
 20
30.3911653476
 11
24.5
 21
30.5385305444
  0
LINE
  5
300
100
AcDbEntity
  8
PLACCA_PRT
100
AcDbLine
 62
250
  6
CONTINUOUS
 10
24.6
 20
30.6
 11
24.6
 21
30.6487889455
  0
LINE
  5
301
100
AcDbEntity
  8
PORTELLO
100
AcDbLine
 62
7
  6
CONTINUOUS
 10
23.25921
 20
-23.87865
 11
23.259144
 21
-25.000007
  0
LINE
  5
302
100
AcDbEntity
  8
PORTELLO
100
AcDbLine
 62
250
  6
CONTINUOUS
 10
25.8151316347
 20
2.7518125241
 11
25.8151312166
 21
-2.6554487257
  0
LINE
  5
303
100
AcDbEntity
  8
PORTELLO
100
AcDbLine
 62
250
  6
CONTINUOUS
 10
25.8184213143
 20
8.5113771367
 11
25.8151316347
 21
2.7518125241
  0
LINE
  5
304
100
AcDbEntity
  8
PORTELLO
100
AcDbLine
 62
250
  6
CONTINUOUS
 10
25.8257365592
 20
14.6249830132
 11
25.8184213143
 21
8.5113771367
  0
LWPOLYLINE
  5
305
100
AcDbEntity
  8
PORTELLO
100
AcDbPolyline
 62
250
  6
CONTINUOUS
 90
4
 70
0
 10
25.8560448121
 20
27.6705148308
 10
25.8458253007
 20
24.3109990644
 10
25.8376246012
 20
21.017723292
 10
25.8257365592
 20
14.6249830132
  0
LINE
  5
306
100
AcDbEntity
  8
PORTELLO
100
AcDbLine
 62
250
  6
CONTINUOUS
 10
24.554201706
 20
-26.1389522522
 11
24.5563193923
 21
-25.8467145151
  0
LWPOLYLINE
  5
307
100
AcDbEntity
  8
PORTELLO
100
AcDbPolyline
 62
250
  6
CONTINUOUS
 90
25
 70
0
 10
25.8467145036
 20
-24.5563193817
 10
25.8441639669
 20
-24.6408314217
 10
25.836089127
 20
-24.7250144252
 10
25.8225080461
 20
-24.8084583424
 10
25.8034852562
 20
-24.8907822666
 10
25.7791155689
 20
-24.9716563303
 10
25.7494843921
 20
-25.0507697263
 10
25.7147029407
 20
-25.1278043078
 10
25.6749380285
 20
-25.2024091968
 10
25.6303701911
 20
-25.2742267815
 10
25.581195163
 20
-25.3429282999
 10
25.5276320461
 20
-25.4082428889
 10
25.4699013806
 20
-25.4699028804
 10
25.4082417818
 20
-25.5276334882
 10
25.3429271765
 20
-25.5811956675
 10
25.2742261216
 20
-25.6303704133
 10
25.202409563
 20
-25.6749384685
 10
25.1278048605
 20
-25.7147025308
 10
25.0507698458
 20
-25.7494837253
 10
24.9716553972
 20
-25.7791160053
 10
24.8907802302
 20
-25.8034856626
 10
24.8084568195
 20
-25.822508208
 10
24.7250155459
 20
-25.8360901497
 10
24.6408333665
 20
-25.8441646182
 10
24.5563193816
 20
-25.8467145035
  0
LINE
  5
308
100
AcDbEntity
  8
PORTELLO
100
AcDbLine
 62
7
  6
CONTINUOUS
 10
18.045039
 20
-23.988552
 11
18.586606
 21
-22.099884
  0
LINE
  5
309
100
AcDbEntity
  8
PORTELLO
100
AcDbLine
 62
7
  6
CONTINUOUS
 10
18.883414
 20
-23.087573
 11
18.335039
 21
-25.000007
  0
LINE
  5
30A
100
AcDbEntity
  8
PORTELLO
100
AcDbLine
 62
7
  6
CONTINUOUS
 10
19.850122
 20
-25.000015
 11
20.781247
 21
-22.099877
  0
LINE
  5
30B
100
AcDbEntity
  8
PLACCA_PRT
100
AcDbLine
 62
7
  6
CONTINUOUS
 10
27.6335104244
 20
27.7719512184
 11
27.637363018
 21
27.6
  0
LWPOLYLINE
  5
30C
100
AcDbEntity
  8
PORTELLO
100
AcDbPolyline
 62
7
  6
CONTINUOUS
 90
37
 70
0
 10
27.5259592973
 20
27.6
 10
27.5234463036
 20
27.7265496227
 10
27.515488551
 20
27.852971388
 10
27.5020892922
 20
27.9790246199
 10
27.4832536127
 20
28.1046102297
 10
27.4590037511
 20
28.2293451334
 10
27.4294384333
 20
28.3525680079
 10
27.3946105445
 20
28.4741779767
 10
27.3546657268
 20
28.5938191839
 10
27.310009536
 20
28.7104926219
 10
27.2610049831
 20
28.8237043533
 10
27.2077663679
 20
28.9336333179
 10
27.1504079099
 20
29.0403299108
 10
27.0893477805
 20
29.1433096181
 10
27.0246162843
 20
29.2428081879
 10
26.9555856479
 20
29.3398684869
 10
26.8822942384
 20
29.4343366298
 10
26.8048759488
 20
29.5259549258
 10
26.7226094068
 20
29.6154242821
 10
26.6355188307
 20
29.7024122831
 10
26.5436190167
 20
29.7866397717
 10
26.445976709
 20
29.8686632341
 10
26.3421848015
 20
29.9482632762
 10
26.2325809517
 20
30.0247019164
 10
26.1172631953
 20
30.0976239635
 10
25.9958360316
 20
30.1667454438
 10
25.8687916753
 20
30.2313080806
 10
25.737655733
 20
30.2904384412
 10
25.6027290703
 20
30.3437825257
 10
25.4641338109
 20
30.3910759814
 10
25.3232383044
 20
30.4319544899
 10
25.1787693946
 20
30.4666812953
 10
25.0325138802
 20
30.4945853416
 10
24.8905984945
 20
30.514956468
 10
24.7553328995
 20
30.5284402907
 10
24.6250615738
 20
30.5360618515
 10
24.5
 20
30.5385305444
  0
LINE
  5
30D
100
AcDbEntity
  8
PORTELLO
100
AcDbLine
 62
250
  6
CONTINUOUS
 10
27.2686234039
 20
-12.5887535123
 11
27.2837299456
 21
-24.5
  0
LINE
  5
30E
100
AcDbEntity
  8
PORTELLO
100
AcDbLine
 62
250
  6
CONTINUOUS
 10
27.2642402984
 20
0.0
 11
27.2686234039
 21
-12.5887535123
  0
LINE
  5
30F
100
AcDbEntity
  8
PORTELLO
100
AcDbLine
 62
250
  6
CONTINUOUS
 10
27.2661694282
 20
8.4979304995
 11
27.2642402984
 21
0.0
  0
LINE
  5
310
100
AcDbEntity
  8
PORTELLO
100
AcDbLine
 62
250
  6
CONTINUOUS
 10
27.2700610531
 20
14.6003463384
 11
27.2661694282
 21
8.4979304995
  0
LINE
  5
311
100
AcDbEntity
  8
PORTELLO
100
AcDbLine
 62
250
  6
CONTINUOUS
 10
27.2780345792
 20
20.974430014
 11
27.2700610531
 21
14.6003463384
  0
LINE
  5
312
100
AcDbEntity
  8
PORTELLO
100
AcDbLine
 62
250
  6
CONTINUOUS
 10
27.2906065936
 20
27.6
 11
27.2780345792
 21
20.974430014
  0
LINE
  5
313
100
AcDbEntity
  8
PORTELLO
100
AcDbLine
 62
7
  6
CONTINUOUS
 10
27.5
 20
-24.5
 11
27.5005589185
 21
24.2566870347
  0
LINE
  5
314
100
AcDbEntity
  8
PLACCA_PRT
100
AcDbLine
 62
7
  6
CONTINUOUS
 10
27.626793091
 20
25.2868753402
 11
27.6328334997
 21
26.7787982735
  0
LINE
  5
315
100
AcDbEntity
  8
PORTELLO
100
AcDbLine
 62
7
  6
CONTINUOUS
 10
27.5227930301
 20
26.708714099
 11
27.5259592973
 21
27.6
  0
LINE
  5
316
100
AcDbEntity
  8
PLACCA_PRT
100
AcDbLine
 62
7
  6
CONTINUOUS
 10
27.6328334997
 20
26.7787982735
 11
27.637363018
 21
27.6
  0
LINE
  5
317
100
AcDbEntity
  8
PORTELLO
100
AcDbLine
 62
7
  6
CONTINUOUS
 10
27.5135252568
 20
25.653731283
 11
27.5227930301
 21
26.708714099
  0
LINE
  5
318
100
AcDbEntity
  8
PORTELLO
100
AcDbLine
 62
7
  6
CONTINUOUS
 10
27.5005589185
 20
24.2566870347
 11
27.5135252568
 21
25.653731283
  0
LWPOLYLINE
  5
319
100
AcDbEntity
  8
PORTELLO
100
AcDbPolyline
 62
250
  6
CONTINUOUS
 90
25
 70
0
 10
27.2837299456
 20
-24.5
 10
27.2779237132
 20
-24.6821908218
 10
27.2601980077
 20
-24.8635810171
 10
27.2306354372
 20
-25.0433913369
 10
27.1893757751
 20
-25.2208285366
 10
27.1365992763
 20
-25.395154272
 10
27.0725118522
 20
-25.5656838081
 10
26.9973628045
 20
-25.7317227367
 10
26.9114841847
 20
-25.8925120379
 10
26.8152768366
 20
-26.0473003723
 10
26.7091822791
 20
-26.1953975323
 10
26.593644682
 20
-26.3362027628
 10
26.4691379085
 20
-26.469143992
 10
26.336196669
 20
-26.5936500215
 10
26.1953919852
 20
-26.7091865266
 10
26.0472955125
 20
-26.8152800716
 10
25.89250815
 20
-26.9114864154
 10
25.7317199557
 20
-26.9973641609
 10
25.565681236
 20
-27.0725129019
 10
25.3951496732
 20
-27.1366008208
 10
25.2208208085
 20
-27.1893778287
 10
25.0433821459
 20
-27.2306372496
 10
24.863573066
 20
-27.260199042
 10
24.6821859365
 20
-27.2779240261
 10
24.5
 20
-27.2837299456
  0
LINE
  5
31A
100
AcDbEntity
  8
PORTELLO
100
AcDbLine
 62
7
  6
CONTINUOUS
 10
21.071268
 20
-23.003118
 11
20.790179
 21
-23.878657
  0
LINE
  5
31B
100
AcDbEntity
  8
PORTELLO
100
AcDbLine
 62
7
  6
CONTINUOUS
 10
20.613257
 20
-24.429679
 11
20.430144
 21
-25.000007
  0
LWPOLYLINE
  5
31C
100
AcDbEntity
  8
PORTELLO
100
AcDbPolyline
 62
7
  6
CONTINUOUS
 90
37
 70
0
 10
-24.5
 20
30.5385305444
 10
-24.6235221653
 20
30.5361115809
 10
-24.7526828485
 20
30.528640725
 10
-24.8872700895
 20
30.5153585133
 10
-25.0290078239
 20
30.4951722839
 10
-25.1755102879
 20
30.4673824765
 10
-25.320435945
 20
30.4326953083
 10
-25.4619657762
 20
30.3917609766
 10
-25.6013849065
 20
30.3442786239
 10
-25.7371846161
 20
30.2906375101
 10
-25.869213545
 20
30.2311056749
 10
-25.9971820981
 20
30.1660206835
 10
-26.1194944769
 20
30.0962830338
 10
-26.2356625848
 20
30.0226497227
 10
-26.3460674219
 20
29.9454153049
 10
-26.4505251409
 20
29.8650027451
 10
-26.5486845766
 20
29.7821816943
 10
-26.6409778207
 20
29.6971726365
 10
-26.728320602
 20
29.6094537244
 10
-26.8107057801
 20
29.5193197353
 10
-26.888121088
 20
29.4271160861
 10
-26.9612817666
 20
29.3321751215
 10
-27.0300656377
 20
29.2347705988
 10
-27.0944515858
 20
29.1350653075
 10
-27.1550742995
 20
29.032040063
 10
-27.2119124865
 20
28.9254854691
 10
-27.2645779662
 20
28.815879719
 10
-27.3129939529
 20
28.7031438872
 10
-27.3570556209
 20
28.5871241987
 10
-27.3964273946
 20
28.4682962801
 10
-27.4307516796
 20
28.3475561968
 10
-27.459889212
 20
28.2252532909
 10
-27.4837900502
 20
28.1014855888
 10
-27.502371835
 20
27.9768091824
 10
-27.515606017
 20
27.8515669078
 10
-27.523472797
 20
27.7258852614
 10
-27.5259592973
 20
27.6
  0
LWPOLYLINE
  5
31D
100
AcDbEntity
  8
PLACCA_PRT
100
AcDbPolyline
 62
7
  6
CONTINUOUS
 90
28
 70
0
 10
-24.6
 20
30.6487889455
 10
-24.7059734974
 20
30.6472267563
 10
-24.8120496671
 20
30.6419418917
 10
-24.918096053
 20
30.6329180073
 10
-25.0240516222
 20
30.6201346342
 10
-25.1297081149
 20
30.6035887604
 10
-25.2347137276
 20
30.5833203394
 10
-25.3389611554
 20
30.55934892
 10
-25.4422941606
 20
30.5317094786
 10
-25.5442998894
 20
30.5005252509
 10
-25.644540842
 20
30.4659802569
 10
-25.7432288042
 20
30.4280548917
 10
-25.840910982
 20
30.386532836
 10
-25.9371732067
 20
30.3415616388
 10
-26.0321617661
 20
30.2930415463
 10
-26.1271574092
 20
30.2401699107
 10
-26.2219072192
 20
30.1828364138
 10
-26.3161897541
 20
30.1209162915
 10
-26.4111291371
 20
30.053286002
 10
-26.5061734791
 20
29.9798206112
 10
-26.601067476
 20
29.9001718527
 10
-26.6970453552
 20
29.812526996
 10
-26.7936077161
 20
29.7162785838
 10
-26.8897613806
 20
29.6112217553
 10
-26.985560187
 20
29.4958399441
 10
-27.0801853824
 20
29.3693020796
 10
-27.1721177702
 20
29.2316307618
 10
-27.2600567768
 20
29.0825595559
  0
LINE
  5
31E
100
AcDbEntity
  8
PORTELLO
100
AcDbLine
 62
250
  6
CONTINUOUS
 10
13.7560754274
 20
28.9465829591
 11
24.5587330468
 21
28.9695818486
  0
LINE
  5
31F
100
AcDbEntity
  8
PLACCA_PRT
100
AcDbLine
 62
7
  6
CONTINUOUS
 10
24.6
 20
30.6487889455
 11
22.3011109933
 21
30.6441403218
  0
LINE
  5
320
100
AcDbEntity
  8
PORTELLO
100
AcDbLine
 62
250
  6
CONTINUOUS
 10
12.5641920494
 20
30.3750857369
 11
24.5
 21
30.3911653476
  0
LINE
  5
321
100
AcDbEntity
  8
PLACCA_PRT
100
AcDbLine
 62
7
  6
CONTINUOUS
 10
22.3011109933
 20
30.6441403218
 11
18.7535539399
 21
30.6408939616
  0
LINE
  5
322
100
AcDbEntity
  8
PORTELLO
100
AcDbLine
 62
250
  6
CONTINUOUS
 10
2.6473787867
 20
28.9368238454
 11
13.7560754274
 21
28.9465829591
  0
LINE
  5
323
100
AcDbEntity
  8
PORTELLO
100
AcDbLine
 62
250
  6
CONTINUOUS
 10
27.2906065936
 20
27.6
 11
27.5259592973
 21
27.6
  0
LINE
  5
324
100
AcDbEntity
  8
PORTELLO
100
AcDbLine
 62
250
  6
CONTINUOUS
 10
-27.2906065936
 20
27.6
 11
-27.5259592973
 21
27.6
  0
LINE
  5
325
100
AcDbEntity
  8
PLACCA_PRT
100
AcDbLine
 62
7
  6
CONTINUOUS
 10
25.8778301496
 20
30.3142494559
 11
25.6774289847
 21
30.3142494559
  0
LINE
  5
326
100
AcDbEntity
  8
PLACCA_PRT
100
AcDbLine
 62
7
  6
CONTINUOUS
 10
-25.6774077928
 20
30.3142494559
 11
-25.8778301496
 21
30.3142494559
  0
LINE
  5
327
100
AcDbEntity
  8
PORTELLO
100
AcDbLine
 62
7
  6
CONTINUOUS
 10
-24.5
 20
30.5385305444
 11
24.5
 21
30.5385305444
  0
LINE
  5
328
100
AcDbEntity
  8
PLACCA_PRT
100
AcDbLine
 62
7
  6
CONTINUOUS
 10
24.6
 20
30.6
 11
-24.6
 21
30.6
  0
LWPOLYLINE
  5
329
100
AcDbEntity
  8
PLACCA_PRT
100
AcDbPolyline
 62
7
  6
CONTINUOUS
 90
3
 70
0
 10
18.7535539399
 20
30.6408939616
 10
12.9544005792
 20
30.6402225597
 10
-17.0014377934
 20
30.6402633179
  0
LINE
  5
32A
100
AcDbEntity
  8
PLACCA_PRT
100
AcDbLine
 62
7
  6
CONTINUOUS
 10
-17.0014377934
 20
30.6402633179
 11
-21.3322080123
 21
30.6429245036
  0
LINE
  5
32B
100
AcDbEntity
  8
PORTELLO
100
AcDbLine
 62
250
  6
CONTINUOUS
 10
-24.5
 20
30.3911653476
 11
12.5641920494
 21
30.3750857369
  0
LWPOLYLINE
  5
32C
100
AcDbEntity
  8
PLACCA_PRT
100
AcDbPolyline
 62
7
  6
CONTINUOUS
 90
3
 70
0
 10
-21.3322080123
 20
30.6429245036
 10
-24.2748677384
 20
30.647939369
 10
-24.6
 20
30.6487889455
  0
LINE
  5
32D
100
AcDbEntity
  8
PORTELLO
100
AcDbLine
 62
250
  6
CONTINUOUS
 10
-24.5587330456
 20
28.969581847
 11
2.6473787867
 21
28.9368238454
  0
LWPOLYLINE
  5
32E
100
AcDbEntity
  8
PORTELLO
100
AcDbPolyline
 62
250
  6
CONTINUOUS
 90
25
 70
0
 10
24.5587330357
 20
28.9695818342
 10
24.6437225147
 20
28.967015562
 10
24.7283820961
 20
28.9588845305
 10
24.8122986559
 20
28.9452069939
 10
24.8950878366
 20
28.9260482364
 10
24.9764177769
 20
28.9015042389
 10
25.0559766858
 20
28.8716610381
 10
25.1334443451
 20
28.8366308295
 10
25.2084670687
 20
28.7965823641
 10
25.280685043
 20
28.7516979458
 10
25.3497672206
 20
28.7021752971
 10
25.4154409205
 20
28.6482358312
 10
25.4774368879
 20
28.5901022881
 10
25.535478482
 20
28.5280158139
 10
25.589325401
 20
28.4622527906
 10
25.6387577589
 20
28.3930837653
 10
25.683555117
 20
28.3207819874
 10
25.7235190087
 20
28.2456778121
 10
25.7584695727
 20
28.1681320798
 10
25.788239959
 20
28.0884983676
 10
25.8127158961
 20
28.0070977199
 10
25.8318123408
 20
27.9242448643
 10
25.8454354476
 20
27.8402720613
 10
25.853518458
 20
27.7555581296
 10
25.8560444543
 20
27.6705144327
  0
LWPOLYLINE
  5
32F
100
AcDbEntity
  8
PORTELLO
100
AcDbPolyline
 62
250
  6
CONTINUOUS
 90
25
 70
0
 10
24.5
 20
30.3911653476
 10
24.6826587985
 20
30.3853511542
 10
24.8645152462
 20
30.3675850662
 10
25.0447876619
 20
30.3379499465
 10
25.2226796778
 20
30.296586167
 10
25.3974513425
 20
30.2436745585
 10
25.5684177304
 20
30.1794211126
 10
25.7348827384
 20
30.1040753392
 10
25.8960843001
 20
30.0179703638
 10
26.0512688654
 20
29.9215082667
 10
26.1997439211
 20
29.815131779
 10
26.3409067949
 20
29.6992863392
 10
26.4741839702
 20
29.5744472794
 10
26.5990020451
 20
29.4411511976
 10
26.7148253165
 20
29.2999705091
 10
26.8211800921
 20
29.1514774308
 10
26.917620537
 20
28.9962742509
 10
27.0037034129
 20
28.8350532035
 10
27.0790275541
 20
28.6685661268
 10
27.1432598653
 20
28.497572171
 10
27.1961486685
 20
28.3227695841
 10
27.2374864071
 20
28.1448492874
 10
27.2670923652
 20
27.9645534006
 10
27.2848266619
 20
27.7826763791
 10
27.2906065936
 20
27.6
  0
LWPOLYLINE
  5
330
100
AcDbEntity
  8
PORTELLO
100
AcDbPolyline
 62
250
  6
CONTINUOUS
 90
13
 70
0
 10
24.5
 20
-27.2837299456
 10
24.5055637896
 20
-27.2687493219
 10
24.5110736168
 20
-27.2393855672
 10
24.5164760424
 20
-27.1959234781
 10
24.521718669
 20
-27.1387845894
 10
24.5267506487
 20
-27.068523086
 10
24.531523177
 20
-26.9858204279
 10
24.5359899654
 20
-26.8914787407
 10
24.5401076911
 20
-26.7864130358
 10
24.5438364168
 20
-26.6716423362
 10
24.5471399781
 20
-26.5482797924
 10
24.549986334
 20
-26.4175218866
 10
24.554201706
 20
-26.1389522522
  0
LINE
  5
331
100
AcDbEntity
  8
PLACCA_PRT
100
AcDbLine
 62
7
  6
CONTINUOUS
 10
40.0
 20
3.6749773271
 11
39.8951844414
 21
3.5
  0
LWPOLYLINE
  5
332
100
AcDbEntity
  8
PORTELLO
100
AcDbPolyline
 62
250
  6
CONTINUOUS
 90
12
 70
0
 10
27.2837144187
 20
-24.4999999978
 10
27.2687340802
 20
-24.5055637861
 10
27.2393707727
 20
-24.5110736113
 10
27.1959092864
 20
-24.5164760345
 10
27.1387711474
 20
-24.5217186582
 10
27.0685105293
 20
-24.526750635
 10
26.9858088788
 20
-24.5315231604
 10
26.891468306
 20
-24.5359899463
 10
26.7864038052
 20
-24.54010767
 10
26.6716343804
 20
-24.5438363943
 10
26.5482731619
 20
-24.547139955
 10
26.4175166107
 20
-24.5499863112
  0
LWPOLYLINE
  5
333
100
AcDbEntity
  8
PORTELLO
100
AcDbPolyline
 62
250
  6
CONTINUOUS
 90
16
 70
0
 10
27.2906065936
 20
27.6
 10
27.2756540861
 20
27.6069596164
 10
27.2463494861
 20
27.613851883
 10
27.2029763975
 20
27.6206100979
 10
27.145954576
 20
27.6271688564
 10
27.0758358671
 20
27.6334646843
 10
26.9932988651
 20
27.6394366515
 10
26.8991423461
 20
27.6450269626
 10
26.7942775375
 20
27.6501815157
 10
26.6797192991
 20
27.654850426
 10
26.556576302
 20
27.6589885088
 10
26.4260402987
 20
27.6625557166
 10
26.2893745896
 20
27.6655175265
 10
26.1479017972
 20
27.6678452748
 10
26.002991066
 20
27.6695164339
 10
25.8560448121
 20
27.6705148308
  0
LINE
  5
334
100
AcDbEntity
  8
PLACCA_PRT
100
AcDbLine
 62
7
  6
CONTINUOUS
 10
39.8951844414
 20
-3.5
 11
40.0
 21
-3.6749773271
  0
LWPOLYLINE
  5
335
100
AcDbEntity
  8
PORTELLO
100
AcDbPolyline
 62
250
  6
CONTINUOUS
 90
12
 70
0
 10
24.4999999978
 20
30.3911498204
 10
24.5057677824
 20
30.3763243563
 10
24.5114804012
 20
30.3473139827
 10
24.5170832171
 20
30.3043961631
 10
24.5225226431
 20
30.2479813759
 10
24.5277466547
 20
30.1786091882
 10
24.5327052879
 20
30.0969430953
 10
24.5373511167
 20
30.0037641751
 10
24.5416397071
 20
29.8999636174
 10
24.5455300417
 20
29.7865342003
 10
24.5489849123
 20
29.6645607951
 10
24.5519712755
 20
29.5352099903
  0
LINE
  5
336
100
AcDbEntity
  8
PLACCA_PRT
100
AcDbLine
 62
250
  6
CONTINUOUS
 10
38.9592984257
 20
36.1414514286
 11
38.9527538947
 21
36.2247226238
  0
LWPOLYLINE
  5
337
100
AcDbEntity
  8
PLACCA_PRT
100
AcDbPolyline
 62
250
  6
CONTINUOUS
 90
22
 70
0
 10
38.9102130862
 20
37.0515811381
 10
38.9002780688
 20
37.1874959259
 10
38.8804320879
 20
37.3228616054
 10
38.8507762441
 20
37.4568022687
 10
38.8114837031
 20
37.5885762813
 10
38.7627673704
 20
37.7174864561
 10
38.704853329
 20
37.8428202643
 10
38.6380288379
 20
37.9639141491
 10
38.5626513665
 20
38.0801157567
 10
38.4791049432
 20
38.1907457359
 10
38.3877988633
 20
38.2952006713
 10
38.289224749
 20
38.3929459558
 10
38.1839179916
 20
38.483426522
 10
38.0723942696
 20
38.5661561687
 10
37.9552744633
 20
38.6407201884
 10
37.8332694611
 20
38.7066944331
 10
37.7070497865
 20
38.7637126043
 10
37.577253949
 20
38.8115335103
 10
37.4445538631
 20
38.8499473298
 10
37.3096270827
 20
38.878746182
 10
37.1732355829
 20
38.8978077352
 10
37.0362124695
 20
38.9070913689
  0
LWPOLYLINE
  5
338
100
AcDbEntity
  8
PLACCA_PRT
100
AcDbPolyline
 62
250
  6
CONTINUOUS
 90
3
 70
0
 10
38.9527538947
 20
36.2247226238
 10
38.9463534016
 20
36.3122297068
 10
38.9431910599
 20
36.3583263901
  0
LINE
  5
339
100
AcDbEntity
  8
PLACCA_PRT
100
AcDbLine
 62
250
  6
CONTINUOUS
 10
38.9431910599
 20
36.3583263901
 11
38.9371181864
 21
36.456812846
  0
LINE
  5
33A
100
AcDbEntity
  8
PLACCA_PRT
100
AcDbLine
 62
250
  6
CONTINUOUS
 10
38.9371181864
 20
36.456812846
 11
38.9312875473
 21
36.5626113079
  0
LINE
  5
33B
100
AcDbEntity
  8
PLACCA_PRT
100
AcDbLine
 62
250
  6
CONTINUOUS
 10
38.9312875473
 20
36.5626113079
 11
38.9257004939
 21
36.6753297331
  0
LINE
  5
33C
100
AcDbEntity
  8
PLACCA_PRT
100
AcDbLine
 62
250
  6
CONTINUOUS
 10
38.9257004939
 20
36.6753297331
 11
38.9177767228
 21
36.8553905267
  0
LINE
  5
33D
100
AcDbEntity
  8
PLACCA_PRT
100
AcDbLine
 62
250
  6
CONTINUOUS
 10
38.9177767228
 20
36.8553905267
 11
38.9102137984
 21
37.0515814001
  0
LWPOLYLINE
  5
33E
100
AcDbEntity
  8
PLACCA_PRT
100
AcDbPolyline
 62
250
  6
CONTINUOUS
 90
22
 70
0
 10
39.7686319911
 20
37.0
 10
39.7612478574
 20
37.2066179338
 10
39.7384204869
 20
37.4121768093
 10
39.7002639175
 20
37.6155202395
 10
39.646978526
 20
37.8154952692
 10
39.5788524607
 20
38.0109813599
 10
39.4962545566
 20
38.2008969481
 10
39.3996268412
 20
38.3841808342
 10
39.2895018453
 20
38.5597799753
 10
39.1665025076
 20
38.7266818817
 10
39.0313082629
 20
38.8839456596
 10
38.8846743197
 20
39.0306729723
 10
38.7274514966
 20
39.1660050557
 10
38.5605061447
 20
39.289191968
 10
38.384793752
 20
39.3995227313
 10
38.2014004731
 20
39.4963265308
 10
38.0114202096
 20
39.5790605404
 10
37.8158832453
 20
39.6473072965
 10
37.6158427245
 20
39.7007131093
 10
37.4124080746
 20
39.7389908799
 10
37.2067417773
 20
39.7619344928
 10
37.0
 20
39.7694281234
  0
LINE
  5
33F
100
AcDbEntity
  8
PLACCA_PRT
100
AcDbLine
 62
250
  6
CONTINUOUS
 10
38.9672306963
 20
35.8131008179
 11
38.9666263043
 21
35.8573295247
  0
LINE
  5
340
100
AcDbEntity
  8
PLACCA_PRT
100
AcDbLine
 62
250
  6
CONTINUOUS
 10
39.0415120418
 20
30.3362802949
 11
38.9672306963
 21
35.8131008179
  0
LWPOLYLINE
  5
341
100
AcDbEntity
  8
PLACCA_PRT
100
AcDbPolyline
 62
250
  6
CONTINUOUS
 90
13
 70
0
 10
37.0362125773
 20
38.9070917744
 10
37.0351767389
 20
39.0200087287
 10
37.0336750233
 20
39.1296251493
 10
37.0317273192
 20
39.2344892784
 10
37.0293594215
 20
39.3332122979
 10
37.0266026904
 20
39.4244867222
 10
37.0234936358
 20
39.5071037147
 10
37.0200734336
 20
39.5799690977
 10
37.0163873807
 20
39.6421178437
 10
37.0124842952
 20
39.6927268559
 10
37.0084158693
 20
39.7311258697
 10
37.0042359849
 20
39.7568063294
 10
37.0
 20
39.7694281234
  0
LWPOLYLINE
  5
342
100
AcDbEntity
  8
PLACCA_PRT
100
AcDbPolyline
 62
250
  6
CONTINUOUS
 90
7
 70
0
 10
38.9666263043
 20
35.8573295247
 10
38.9659514441
 20
35.9409912401
 10
38.965406678
 20
35.9814963046
 10
38.9646217399
 20
36.0214262498
 10
38.9635851911
 20
36.0609140872
 10
38.9619177732
 20
36.100901427
 10
38.9592984257
 20
36.1414514286
  0
LINE
  5
343
100
AcDbEntity
  8
PLACCA_PRT
100
AcDbLine
 62
250
  6
CONTINUOUS
 10
39.0586389199
 20
27.9699988103
 11
39.0415120418
 21
30.3362802949
  0
LINE
  5
344
100
AcDbEntity
  8
PLACCA_PRT
100
AcDbLine
 62
250
  6
CONTINUOUS
 10
37.0
 20
-40.0
 11
37.0
 21
-39.7694281234
  0
LINE
  5
345
100
AcDbEntity
  8
PLACCA_PRT
100
AcDbLine
 62
250
  6
CONTINUOUS
 10
37.0
 20
39.7694281234
 11
37.0
 21
40.0
  0
LINE
  5
346
100
AcDbEntity
  8
PLACCA_PRT
100
AcDbLine
 62
250
  6
CONTINUOUS
 10
39.7686319911
 20
-37.0
 11
39.7627543169
 21
-26.1321546875
  0
LINE
  5
347
100
AcDbEntity
  8
PLACCA_PRT
100
AcDbLine
 62
250
  6
CONTINUOUS
 10
39.7627543169
 20
-26.1321546875
 11
39.7614206999
 21
0.9695920932
  0
LINE
  5
348
100
AcDbEntity
  8
PLACCA_PRT
100
AcDbLine
 62
7
  6
CONTINUOUS
 10
39.8951844414
 20
3.5
 11
39.8951844414
 21
-3.5
  0
LINE
  5
349
100
AcDbEntity
  8
PLACCA_PRT
100
AcDbLine
 62
7
  6
CONTINUOUS
 10
40.0
 20
-37.0
 11
40.0
 21
-3.6749773271
  0
LINE
  5
34A
100
AcDbEntity
  8
PLACCA_PRT
100
AcDbLine
 62
7
  6
CONTINUOUS
 10
40.0
 20
3.6749773271
 11
40.0
 21
37.0
  0
LINE
  5
34B
100
AcDbEntity
  8
PLACCA_PRT
100
AcDbLine
 62
250
  6
CONTINUOUS
 10
39.7614206999
 20
0.9695920932
 11
39.7631694963
 21
28.6793556877
  0
LINE
  5
34C
100
AcDbEntity
  8
PLACCA_PRT
100
AcDbLine
 62
250
  6
CONTINUOUS
 10
39.7631694963
 20
28.6793556877
 11
39.7669805592
 21
36.1648771892
  0
LINE
  5
34D
100
AcDbEntity
  8
PLACCA_PRT
100
AcDbLine
 62
250
  6
CONTINUOUS
 10
39.7669805592
 20
36.1648771892
 11
39.7686319911
 21
37.0
  0
LINE
  5
34E
100
AcDbEntity
  8
PLACCA_PRT
100
AcDbLine
 62
250
  6
CONTINUOUS
 10
39.0609163814
 20
-27.4889857552
 11
39.0586389199
 21
27.9699988103
  0
LINE
  5
34F
100
AcDbEntity
  8
PLACCA_PRT
100
AcDbLine
 62
250
  6
CONTINUOUS
 10
39.0437749688
 20
-30.0933176368
 11
39.0609163814
 21
-27.4889857552
  0
LWPOLYLINE
  5
350
100
AcDbEntity
  8
PLACCA_PRT
100
AcDbPolyline
 62
250
  6
CONTINUOUS
 90
13
 70
0
 10
37.0362124695
 20
-38.907091369
 10
37.0351765741
 20
-39.0200058201
 10
37.0336748195
 20
-39.1296196064
 10
37.0317270923
 20
-39.2344810404
 10
37.0293591857
 20
-39.3332013736
 10
37.0266024581
 20
-39.4244731877
 10
37.0234934175
 20
-39.5070877102
 10
37.0200732381
 20
-39.5799508229
 10
37.0163872151
 20
-39.6420975517
 10
37.012484165
 20
-39.6927048468
 10
37.0084157787
 20
-39.7311024825
 10
37.0042359362
 20
-39.7567819337
 10
36.9999999945
 20
-39.7694031107
  0
LINE
  5
351
100
AcDbEntity
  8
PLACCA_PRT
100
AcDbLine
 62
250
  6
CONTINUOUS
 10
39.0170610211
 20
-32.4340872844
 11
39.0437749688
 21
-30.0933176368
  0
LINE
  5
352
100
AcDbEntity
  8
PLACCA_PRT
100
AcDbLine
 62
250
  6
CONTINUOUS
 10
38.9646656021
 20
-36.0327924978
 11
38.9674446123
 21
-35.7975936803
  0
LINE
  5
353
100
AcDbEntity
  8
PLACCA_PRT
100
AcDbLine
 62
250
  6
CONTINUOUS
 10
38.9674446123
 20
-35.7975936803
 11
39.0170610211
 21
-32.4340872844
  0
LINE
  5
354
100
AcDbEntity
  8
PLACCA_PRT
100
AcDbLine
 62
250
  6
CONTINUOUS
 10
38.9102137945
 20
-37.0515813988
 11
38.9170123429
 21
-36.8741051418
  0
LINE
  5
355
100
AcDbEntity
  8
PLACCA_PRT
100
AcDbLine
 62
250
  6
CONTINUOUS
 10
38.9170123429
 20
-36.8741051418
 11
38.9240388757
 21
-36.7110542046
  0
LINE
  5
356
100
AcDbEntity
  8
PLACCA_PRT
100
AcDbLine
 62
250
  6
CONTINUOUS
 10
38.9240388757
 20
-36.7110542046
 11
38.9313169656
 21
-36.5621179741
  0
LINE
  5
357
100
AcDbEntity
  8
PLACCA_PRT
100
AcDbLine
 62
250
  6
CONTINUOUS
 10
38.9313169656
 20
-36.5621179741
 11
38.9362863033
 21
-36.4711050965
  0
LWPOLYLINE
  5
358
100
AcDbEntity
  8
PLACCA_PRT
100
AcDbPolyline
 62
250
  6
CONTINUOUS
 90
3
 70
0
 10
38.9613619318
 20
-36.1090585023
 10
38.9635124688
 20
-36.0708434444
 10
38.9646656021
 20
-36.0327924978
  0
LINE
  5
359
100
AcDbEntity
  8
PLACCA_PRT
100
AcDbLine
 62
250
  6
CONTINUOUS
 10
38.9362863033
 20
-36.4711050965
 11
38.941454586
 21
-36.3854136042
  0
LINE
  5
35A
100
AcDbEntity
  8
PLACCA_PRT
100
AcDbLine
 62
250
  6
CONTINUOUS
 10
38.941454586
 20
-36.3854136042
 11
38.9468785653
 21
-36.3040539895
  0
LINE
  5
35B
100
AcDbEntity
  8
PLACCA_PRT
100
AcDbLine
 62
250
  6
CONTINUOUS
 10
38.9468785653
 20
-36.3040539895
 11
38.9613619318
 21
-36.1090585023
  0
LWPOLYLINE
  5
35C
100
AcDbEntity
  8
PLACCA_PRT
100
AcDbPolyline
 62
250
  6
CONTINUOUS
 90
22
 70
0
 10
-37.0362124695
 20
38.907091369
 10
-37.1732355814
 20
38.8978077328
 10
-37.3096271317
 20
38.8787461708
 10
-37.4445539537
 20
38.8499473095
 10
-37.5772540481
 20
38.8115334831
 10
-37.7070498751
 20
38.7637125714
 10
-37.8332695371
 20
38.7066943947
 10
-37.9552745349
 20
38.6407201439
 10
-38.0723943422
 20
38.5661561171
 10
-38.1839180662
 20
38.4834264624
 10
-38.289224823
 20
38.3929458874
 10
-38.3877989341
 20
38.295200595
 10
-38.479105009
 20
38.1907456542
 10
-38.5626514267
 20
38.0801156737
 10
-38.6380288925
 20
37.9639140646
 10
-38.7048533786
 20
37.8428201713
 10
-38.7627674153
 20
37.717486341
 10
-38.8114837431
 20
37.5885761399
 10
-38.8507762771
 20
37.4568021226
 10
-38.8804321094
 20
37.3228615018
 10
-38.9002780754
 20
37.1874959003
 10
-38.9102130862
 20
37.0515811381
  0
LINE
  5
35D
100
AcDbEntity
  8
PLACCA_PRT
100
AcDbLine
 62
250
  6
CONTINUOUS
 10
-36.4932338375
 20
38.927986913
 11
-36.7040250154
 21
38.9187476998
  0
LWPOLYLINE
  5
35E
100
AcDbEntity
  8
PLACCA_PRT
100
AcDbPolyline
 62
250
  6
CONTINUOUS
 90
22
 70
0
 10
-37.0
 20
39.7694281234
 10
-37.2067417772
 20
39.7619344928
 10
-37.4124080746
 20
39.73899088
 10
-37.6158427245
 20
39.7007131094
 10
-37.8158832453
 20
39.6473072966
 10
-38.0114202096
 20
39.5790605404
 10
-38.2014004731
 20
39.4963265308
 10
-38.384793752
 20
39.3995227313
 10
-38.5605061447
 20
39.289191968
 10
-38.7274514966
 20
39.1660050557
 10
-38.8846743197
 20
39.0306729723
 10
-39.0313082629
 20
38.8839456596
 10
-39.1665025076
 20
38.7266818817
 10
-39.2895018453
 20
38.5597799753
 10
-39.3996268413
 20
38.3841808342
 10
-39.4962545566
 20
38.2008969482
 10
-39.5788524607
 20
38.0109813599
 10
-39.6469785259
 20
37.8154952692
 10
-39.7002639174
 20
37.6155202396
 10
-39.7384204867
 20
37.4121768093
 10
-39.7612478573
 20
37.2066179339
 10
-39.7686319911
 20
37.0
  0
LINE
  5
35F
100
AcDbEntity
  8
PLACCA_PRT
100
AcDbLine
 62
250
  6
CONTINUOUS
 10
-36.7040250154
 20
38.9187476998
 11
-36.9444745394
 21
38.910099689
  0
LINE
  5
360
100
AcDbEntity
  8
PLACCA_PRT
100
AcDbLine
 62
250
  6
CONTINUOUS
 10
-36.9444745394
 20
38.910099689
 11
-37.0362125778
 21
38.9070917766
  0
LWPOLYLINE
  5
361
100
AcDbEntity
  8
PLACCA_PRT
100
AcDbPolyline
 62
250
  6
CONTINUOUS
 90
3
 70
0
 10
-36.4227338993
 20
38.9302796455
 10
-36.4581244963
 20
38.9293501694
 10
-36.4932338375
 20
38.927986913
  0
LINE
  5
362
100
AcDbEntity
  8
PLACCA_PRT
100
AcDbLine
 62
250
  6
CONTINUOUS
 10
-36.3509956853
 20
38.9314903885
 11
-36.4227338993
 21
38.9302796455
  0
LINE
  5
363
100
AcDbEntity
  8
PLACCA_PRT
100
AcDbLine
 62
250
  6
CONTINUOUS
 10
-30.2541936564
 20
39.0199146755
 11
-32.1070332039
 21
38.9897032595
  0
LWPOLYLINE
  5
364
100
AcDbEntity
  8
PLACCA_PRT
100
AcDbPolyline
 62
250
  6
CONTINUOUS
 90
13
 70
0
 10
-38.9102137983
 20
37.0515814002
 10
-39.0227257173
 20
37.0500870818
 10
-39.1319095168
 20
37.047933163
 10
-39.2363273523
 20
37.0451480088
 10
-39.3346041427
 20
37.0417682973
 10
-39.425445678
 20
37.0378385362
 10
-39.5076556638
 20
37.0334104768
 10
-39.5801514744
 20
37.0285424325
 10
-39.6419784106
 20
37.023298511
 10
-39.6923222718
 20
37.0177477702
 10
-39.7305200782
 20
37.0119633085
 10
-39.7560688019
 20
37.0060213015
 10
-39.7686319911
 20
37.0
  0
LINE
  5
365
100
AcDbEntity
  8
PLACCA_PRT
100
AcDbLine
 62
250
  6
CONTINUOUS
 10
-32.1070332039
 20
38.9897032595
 11
-35.2676923467
 21
38.9453205246
  0
LINE
  5
366
100
AcDbEntity
  8
PLACCA_PRT
100
AcDbLine
 62
250
  6
CONTINUOUS
 10
-35.2676923467
 20
38.9453205246
 11
-36.3509956853
 21
38.9314903885
  0
LINE
  5
367
100
AcDbEntity
  8
PLACCA_PRT
100
AcDbLine
 62
250
  6
CONTINUOUS
 10
-24.4876406994
 20
39.0835995785
 11
-30.2541936564
 21
39.0199146755
  0
LINE
  5
368
100
AcDbEntity
  8
PLACCA_PRT
100
AcDbLine
 62
250
  6
CONTINUOUS
 10
-22.1997319614
 20
39.0983998172
 11
-24.4876406994
 21
39.0835995785
  0
LINE
  5
369
100
AcDbEntity
  8
PLACCA_PRT
100
AcDbLine
 62
250
  6
CONTINUOUS
 10
-20.0447066755
 20
39.1049450338
 11
-22.1997319614
 21
39.0983998172
  0
LINE
  5
36A
100
AcDbEntity
  8
PLACCA_PRT
100
AcDbLine
 62
250
  6
CONTINUOUS
 10
-40.0
 20
37.0
 11
-39.7686319911
 21
37.0
  0
LINE
  5
36B
100
AcDbEntity
  8
PLACCA_PRT
100
AcDbLine
 62
250
  6
CONTINUOUS
 10
40.0
 20
37.0
 11
39.7686319911
 21
37.0
  0
LINE
  5
36C
100
AcDbEntity
  8
PLACCA_PRT
100
AcDbLine
 62
250
  6
CONTINUOUS
 10
13.079385915
 20
39.098080836
 11
-11.75
 21
39.0969288231
  0
LINE
  5
36D
100
AcDbEntity
  8
PLACCA_PRT
100
AcDbLine
 62
250
  6
CONTINUOUS
 10
37.0
 20
39.7694281234
 11
18.9599808184
 21
39.7609854854
  0
LINE
  5
36E
100
AcDbEntity
  8
PLACCA_PRT
100
AcDbLine
 62
7
  6
CONTINUOUS
 10
37.0
 20
40.0
 11
-36.9999999999
 21
40.0
  0
LINE
  5
36F
100
AcDbEntity
  8
PLACCA_PRT
100
AcDbLine
 62
250
  6
CONTINUOUS
 10
18.9599808184
 20
39.7609854854
 11
-25.2910080115
 21
39.7620846974
  0
LINE
  5
370
100
AcDbEntity
  8
PLACCA_PRT
100
AcDbLine
 62
250
  6
CONTINUOUS
 10
19.4675445433
 20
39.1056228185
 11
13.079385915
 21
39.098080836
  0
LINE
  5
371
100
AcDbEntity
  8
PLACCA_PRT
100
AcDbLine
 62
250
  6
CONTINUOUS
 10
-17.5178550882
 20
39.1052965384
 11
-20.0447066755
 21
39.1049450338
  0
LINE
  5
372
100
AcDbEntity
  8
PLACCA_PRT
100
AcDbLine
 62
250
  6
CONTINUOUS
 10
-25.2910080115
 20
39.7620846974
 11
-32.2635739358
 21
39.7659393048
  0
LINE
  5
373
100
AcDbEntity
  8
PLACCA_PRT
100
AcDbLine
 62
250
  6
CONTINUOUS
 10
-32.2635739358
 20
39.7659393048
 11
-36.6125082768
 21
39.7688375496
  0
LWPOLYLINE
  5
374
100
AcDbEntity
  8
PLACCA_PRT
100
AcDbPolyline
 62
250
  6
CONTINUOUS
 90
3
 70
0
 10
-11.75
 20
39.0969288227
 10
-14.6233061938
 20
39.1004679095
 10
-17.5178550882
 20
39.1052965384
  0
LINE
  5
375
100
AcDbEntity
  8
PLACCA_PRT
100
AcDbLine
 62
250
  6
CONTINUOUS
 10
-36.6125082768
 20
39.7688375496
 11
-37.0
 21
39.7694281234
  0
LINE
  5
376
100
AcDbEntity
  8
PLACCA_PRT
100
AcDbLine
 62
250
  6
CONTINUOUS
 10
22.2532240717
 20
39.0981424772
 11
19.4675445433
 21
39.1056228185
  0
LINE
  5
377
100
AcDbEntity
  8
PLACCA_PRT
100
AcDbLine
 62
250
  6
CONTINUOUS
 10
25.0050310349
 20
39.0790897178
 11
22.2532240717
 21
39.0981424772
  0
LINE
  5
378
100
AcDbEntity
  8
PLACCA_PRT
100
AcDbLine
 62
250
  6
CONTINUOUS
 10
28.7110224841
 20
39.0380821521
 11
25.0050310349
 21
39.0790897178
  0
LWPOLYLINE
  5
379
100
AcDbEntity
  8
PLACCA_PRT
100
AcDbPolyline
 62
250
  6
CONTINUOUS
 90
13
 70
0
 10
38.9102130862
 20
37.0515811381
 10
39.0227211578
 20
37.0500865556
 10
39.131900924
 20
37.0479324277
 10
39.2363146443
 20
37.0451471207
 10
39.3345873403
 20
37.0417673126
 10
39.425424902
 20
37.0378375104
 10
39.5076311294
 20
37.0334094638
 10
39.5801234847
 20
37.0285414833
 10
39.641947348
 20
37.0232976733
 10
39.6922885879
 20
37.0177470876
 10
39.7304842826
 20
37.0119628197
 10
39.7560314499
 20
37.0060210398
 10
39.7685936703
 20
36.9999999927
  0
LINE
  5
37A
100
AcDbEntity
  8
PLACCA_PRT
100
AcDbLine
 62
250
  6
CONTINUOUS
 10
30.8052669503
 20
39.0117462316
 11
28.7110224841
 21
39.0380821521
  0
LWPOLYLINE
  5
37B
100
AcDbEntity
  8
PLACCA_PRT
100
AcDbPolyline
 62
250
  6
CONTINUOUS
 90
3
 70
0
 10
34.7217244242
 20
38.9527848514
 10
31.9117962481
 20
38.9929817199
 10
30.8052669503
 20
39.0117462316
  0
LWPOLYLINE
  5
37C
100
AcDbEntity
  8
PLACCA_PRT
100
AcDbPolyline
 62
250
  6
CONTINUOUS
 90
4
 70
0
 10
36.4721771369
 20
38.9287431731
 10
36.4354652477
 20
38.9300081755
 10
36.3984196841
 20
38.9308355164
 10
34.7217244242
 20
38.9527848514
  0
LINE
  5
37D
100
AcDbEntity
  8
PLACCA_PRT
100
AcDbLine
 62
250
  6
CONTINUOUS
 10
37.0362125773
 20
38.9070917744
 11
36.7676742811
 21
38.9163544228
  0
LINE
  5
37E
100
AcDbEntity
  8
PLACCA_PRT
100
AcDbLine
 62
250
  6
CONTINUOUS
 10
36.7676742811
 20
38.9163544228
 11
36.6536484932
 21
38.9207503662
  0
LINE
  5
37F
100
AcDbEntity
  8
PLACCA_PRT
100
AcDbLine
 62
250
  6
CONTINUOUS
 10
36.6536484932
 20
38.9207503662
 11
36.4721771369
 21
38.9287431731
  0
LWPOLYLINE
  5
380
100
AcDbEntity
  8
PLACCA_PRT
100
AcDbPolyline
 62
7
  6
CONTINUOUS
 90
10
 70
0
 10
25.8778301496
 20
30.3142494559
 10
26.0663435409
 20
30.2222547094
 10
26.2476886294
 20
30.1186215941
 10
26.421865415
 20
30.0026205951
 10
26.5909603789
 20
29.8712118431
 10
26.7528870399
 20
29.7258699772
 10
26.9013859546
 20
29.5733959093
 10
27.0343706417
 20
29.4164529653
 10
27.1539275824
 20
29.2527806182
 10
27.2600567768
 20
29.0825595559
  0
LWPOLYLINE
  5
381
100
AcDbEntity
  8
0
100
AcDbPolyline
 62
7
  6
CONTINUOUS
 90
13
 70
0
 43
0.3500000006
 10
-1.9285714102
 20
52.3123830872
 10
-2.2142856617
 20
52.526667572
 10
-2.2142856617
 20
53.1695255585
 10
-1.9285714102
 20
53.5980990601
 10
-1.2857142735
 20
53.5980990601
 10
-1.0000000219
 20
53.1695255585
 10
-1.0000000219
 20
52.526667572
 10
-1.2857142735
 20
52.3123830872
 10
-0.8571428254
 20
51.8838095856
 10
-0.8571428254
 20
51.0266671143
 10
-1.2857142735
 20
50.5980981445
 10
-1.9285714102
 20
50.5980981445
 10
-2.3571427875
 20
51.0266671143
  0
LWPOLYLINE
  5
382
100
AcDbEntity
  8
PLACCA_PRT
100
AcDbPolyline
 62
7
  6
CONTINUOUS
 90
31
 70
0
 10
27.2600567768
 20
29.0825595559
 10
27.1807047004
 20
29.2179063315
 10
27.0980393875
 20
29.3438169696
 10
27.0130466155
 20
29.4604873042
 10
26.9268640767
 20
29.5679014095
 10
26.8401442268
 20
29.6666589293
 10
26.7529386132
 20
29.7578677755
 10
26.6660053391
 20
29.8417044854
 10
26.5797911534
 20
29.9186079471
 10
26.4935816197
 20
29.9898944882
 10
26.4077203452
 20
30.0558033519
 10
26.3225861223
 20
30.1165310005
 10
26.2372690293
 20
30.1730910638
 10
26.1518990526
 20
30.2256550424
 10
26.0667740655
 20
30.2742932545
 10
25.9810744773
 20
30.3196604407
 10
25.8949408008
 20
30.3617996226
 10
25.8085014701
 20
30.4007598547
 10
25.720812054
 20
30.4370184998
 10
25.6316247059
 20
30.4706527971
 10
25.5413505047
 20
30.5014821993
 10
25.4499885529
 20
30.5294950123
 10
25.3575377184
 20
30.5546693009
 10
25.2641745725
 20
30.5769376662
 10
25.1701682388
 20
30.59623263
 10
25.0756133907
 20
30.6125368794
 10
24.9806066019
 20
30.6258344891
 10
24.8854263533
 20
30.6360984202
 10
24.7902311944
 20
30.6433338695
 10
24.6950572001
 20
30.6475592101
 10
24.6
 20
30.6487889455
  0
LWPOLYLINE
  5
383
100
AcDbEntity
  8
PLACCA_PRT
100
AcDbPolyline
 62
7
  6
CONTINUOUS
 90
9
 70
0
 10
27.2600567768
 20
29.0825595559
 10
27.3386591172
 20
28.9300917112
 10
27.4085479733
 20
28.7733455168
 10
27.4694834625
 20
28.6128182584
 10
27.5212559991
 20
28.4490077497
 10
27.5636798113
 20
28.2824505724
 10
27.5966012499
 20
28.1137212478
 10
27.6199056905
 20
27.943376212
 10
27.6335104244
 20
27.7719512184
  0
LINE
  5
384
100
AcDbEntity
  8
PLACCA_PRT
100
AcDbLine
 62
7
  6
CONTINUOUS
 10
-61.3862032084
 20
-40.0
 11
-65.9469028991
 21
-39.7609838572
  0
LINE
  5
385
100
AcDbEntity
  8
PLACCA_PRT
100
AcDbLine
 62
250
  6
CONTINUOUS
 10
-66.7374089634
 20
-37.0515813988
 11
-66.7148731628
 21
-37.0500871261
  0
LINE
  5
386
100
AcDbEntity
  8
PLACCA_PRT
100
AcDbLine
 62
250
  6
CONTINUOUS
 10
-66.7148731628
 20
-37.0500871261
 11
-66.5729378462
 21
-37.0417684176
  0
LINE
  5
387
100
AcDbEntity
  8
PLACCA_PRT
100
AcDbLine
 62
250
  6
CONTINUOUS
 10
-66.5729378462
 20
-37.0417684176
 11
-65.8009678108
 21
-37.0
  0
LINE
  5
388
100
AcDbEntity
  8
PLACCA_PRT
100
AcDbLine
 62
250
  6
CONTINUOUS
 10
-61.3862032084
 20
-37.0
 11
-65.8009678108
 21
-37.0
  0
LINE
  5
389
100
AcDbEntity
  8
PLACCA_PRT
100
AcDbLine
 62
7
  6
CONTINUOUS
 10
-66.0305809693
 20
-39.7530617686
 11
-65.9469091172
 21
-39.7609835314
  0
LINE
  5
38A
100
AcDbEntity
  8
PLACCA_PRT
100
AcDbLine
 62
7
  6
CONTINUOUS
 10
-66.1159241217
 20
-39.7375481699
 11
-66.031801741
 21
-39.7528933838
  0
LWPOLYLINE
  5
38B
100
AcDbEntity
  8
0
100
AcDbPolyline
 62
7
  6
CONTINUOUS
 90
3
 70
0
 43
0.3500000006
 10
-72.7576311951
 20
52.6620387726
 10
-71.9004887238
 20
53.5191812439
 10
-71.9004887238
 20
50.5191848602
  0
LINE
  5
38C
100
AcDbEntity
  8
PLACCA_PRT
100
AcDbLine
 62
7
  6
CONTINUOUS
 10
-66.1984600307
 20
-39.7150620613
 11
-66.1137109085
 21
-39.7380479469
  0
LINE
  5
38D
100
AcDbEntity
  8
PLACCA_PRT
100
AcDbLine
 62
7
  6
CONTINUOUS
 10
-66.2788076394
 20
-39.6855894569
 11
-66.1954837356
 21
-39.7160063884
  0
LWPOLYLINE
  5
38E
100
AcDbEntity
  8
0
100
AcDbPolyline
 62
7
  6
CONTINUOUS
 90
10
 70
0
 43
0.3500000006
 10
-65.9004868927
 20
53.5191812439
 10
-66.5433448792
 20
52.8763277893
 10
-66.9719183807
 20
52.019185318
 10
-66.9719183807
 20
50.94775383
 10
-66.5433448792
 20
50.5191848602
 10
-65.9004868927
 20
50.5191848602
 10
-65.471917923
 20
50.94775383
 10
-65.471917923
 20
51.8048963013
 10
-65.9004868927
 20
52.2334698029
 10
-66.8290605469
 20
52.2334698029
  0
LINE
  5
38F
100
AcDbEntity
  8
PORTELLO
100
AcDbLine
 62
7
  6
CONTINUOUS
 10
-69.7862032084
 20
-27.5
 11
-74.2847662992
 21
-27.2642402984
  0
LINE
  5
390
100
AcDbEntity
  8
PORTELLO
100
AcDbLine
 62
250
  6
CONTINUOUS
 10
-75.3188394086
 20
-24.5555298226
 11
-75.3320812231
 21
-24.5563193817
  0
LINE
  5
391
100
AcDbEntity
  8
PORTELLO
100
AcDbLine
 62
250
  6
CONTINUOUS
 10
-75.2494311847
 20
-24.5523478567
 11
-75.3188394086
 21
-24.5555298226
  0
LINE
  5
392
100
AcDbEntity
  8
PORTELLO
100
AcDbLine
 62
250
  6
CONTINUOUS
 10
-74.2044094369
 20
-24.5110736113
 11
-75.2494311847
 21
-24.5523478567
  0
LINE
  5
393
100
AcDbEntity
  8
PORTELLO
100
AcDbLine
 62
250
  6
CONTINUOUS
 10
-73.912880864
 20
-24.4999999978
 11
-74.2044094369
 21
-24.5110736113
  0
LINE
  5
394
100
AcDbEntity
  8
PORTELLO
100
AcDbLine
 62
7
  6
CONTINUOUS
 10
-75.539125479
 20
-25.0000136641
 11
-75.5416032866
 21
-25.000015
  0
LINE
  5
395
100
AcDbEntity
  8
PORTELLO
100
AcDbLine
 62
7
  6
CONTINUOUS
 10
-75.6019433396
 20
-25.000015
 11
-75.5884487581
 21
-25.0000136643
  0
LINE
  5
396
100
AcDbEntity
  8
PORTELLO
100
AcDbLine
 62
7
  6
CONTINUOUS
 10
-75.6566161631
 20
-25.000015
 11
-75.6265954338
 21
-25.000015
  0
LINE
  5
397
100
AcDbEntity
  8
PORTELLO
100
AcDbLine
 62
7
  6
CONTINUOUS
 10
-75.6115689771
 20
-25.000015
 11
-75.6243939306
 21
-25.000015
  0
LINE
  5
398
100
AcDbEntity
  8
PORTELLO
100
AcDbLine
 62
7
  6
CONTINUOUS
 10
-75.4413673435
 20
-25.000007
 11
-75.4113280041
 21
-25.000007
  0
LINE
  5
399
100
AcDbEntity
  8
PORTELLO
100
AcDbLine
 62
7
  6
CONTINUOUS
 10
-75.526460005
 20
-25.000007
 11
-75.4964283529
 21
-25.000007
  0
LINE
  5
39A
100
AcDbEntity
  8
PORTELLO
100
AcDbLine
 62
7
  6
CONTINUOUS
 10
-75.5778417203
 20
-25.000007
 11
-75.5629759539
 21
-25.000015
  0
LINE
  5
39B
100
AcDbEntity
  8
PORTELLO
100
AcDbLine
 62
7
  6
CONTINUOUS
 10
-75.4573006918
 20
-25.000007
 11
-75.4726477061
 21
-25.000015
  0
LINE
  5
39C
100
AcDbEntity
  8
PORTELLO
100
AcDbLine
 62
7
  6
CONTINUOUS
 10
-75.4032286691
 20
-25.000007
 11
-75.34869721
 21
-25.0
  0
LINE
  5
39D
100
AcDbEntity
  8
PORTELLO
100
AcDbLine
 62
250
  6
CONTINUOUS
 10
-69.7862032084
 20
-24.5
 11
-73.9128816776
 21
-24.5
  0
LINE
  5
39E
100
AcDbEntity
  8
PORTELLO
100
AcDbLine
 62
7
  6
CONTINUOUS
 10
-75.5160715287
 20
-24.429679
 11
-75.5416306214
 21
-24.429679
  0
LINE
  5
39F
100
AcDbEntity
  8
PORTELLO
100
AcDbLine
 62
7
  6
CONTINUOUS
 10
-75.5554534625
 20
-23.878657
 11
-75.5399323876
 21
-23.878657
  0
LINE
  5
3A0
100
AcDbEntity
  8
PORTELLO
100
AcDbLine
 62
7
  6
CONTINUOUS
 10
-75.4452660793
 20
-23.8089026669
 11
-75.4152271391
 21
-23.8089026669
  0
LINE
  5
3A1
100
AcDbEntity
  8
PORTELLO
100
AcDbLine
 62
7
  6
CONTINUOUS
 10
-75.4999024976
 20
-23.342128
 11
-75.4761670983
 21
-23.342128
  0
LINE
  5
3A2
100
AcDbEntity
  8
PORTELLO
100
AcDbLine
 62
7
  6
CONTINUOUS
 10
-75.4874013407
 20
-25.000008336
 11
-75.4902905502
 21
-25.000007
  0
LINE
  5
3A3
100
AcDbEntity
  8
PORTELLO
100
AcDbLine
 62
7
  6
CONTINUOUS
 10
-75.4645598882
 20
-23.878657
 11
-75.4816083754
 21
-23.87865
  0
LINE
  5
3A4
100
AcDbEntity
  8
PORTELLO
100
AcDbLine
 62
250
  6
CONTINUOUS
 10
-75.3320815058
 20
-25.8467145151
 11
-75.4349205795
 21
-25.8388864909
  0
LINE
  5
3A5
100
AcDbEntity
  8
PORTELLO
100
AcDbLine
 62
250
  6
CONTINUOUS
 10
-75.4349205795
 20
-25.8388864909
 11
-75.5188384052
 21
-25.8320047874
  0
LINE
  5
3A6
100
AcDbEntity
  8
PORTELLO
100
AcDbLine
 62
250
  6
CONTINUOUS
 10
-75.5188384052
 20
-25.8320047874
 11
-75.5854572796
 21
-25.8261500302
  0
LINE
  5
3A7
100
AcDbEntity
  8
PORTELLO
100
AcDbLine
 62
250
  6
CONTINUOUS
 10
-75.5854572796
 20
-25.8261500302
 11
-75.6514340719
 21
-25.8200529884
  0
LWPOLYLINE
  5
3A8
100
AcDbEntity
  8
PORTELLO
100
AcDbPolyline
 62
250
  6
CONTINUOUS
 90
4
 70
0
 10
-75.6514340719
 20
-25.8200529884
 10
-75.7020671982
 20
-25.815131002
 10
-75.704625644
 20
-25.8148705558
 10
-75.705478896
 20
-25.8147741682
  0
LWPOLYLINE
  5
3A9
100
AcDbEntity
  8
PORTELLO
100
AcDbPolyline
 62
250
  6
CONTINUOUS
 90
16
 70
0
 10
-73.9128816776
 20
-27.2837299456
 10
-74.0597393365
 20
-27.2687493219
 10
-74.204411236
 20
-27.2393855672
 10
-74.3454942166
 20
-27.1959234781
 10
-74.4816199271
 20
-27.1387845894
 10
-74.6114680965
 20
-27.068523086
 10
-74.7337793393
 20
-26.9858204279
 10
-74.8473673696
 20
-26.8914787407
 10
-74.9511305075
 20
-26.7864130358
 10
-75.0440623636
 20
-26.6716423362
 10
-75.1252616003
 20
-26.5482797924
 10
-75.1939406735
 20
-26.4175218866
 10
-75.249433471
 20
-26.2806368279
 10
-75.2912017733
 20
-26.1389522522
 10
-75.3188404733
 20
-25.9938423453
 10
-75.3320815058
 20
-25.8467145151
  0
LWPOLYLINE
  5
3AA
100
AcDbEntity
  8
PLACCA_PRT
100
AcDbPolyline
 62
250
  6
CONTINUOUS
 90
6
 70
0
 10
-69.7862032084
 20
-22.1874322226
 10
-69.7359480148
 20
-22.1856202514
 10
-69.6794240609
 20
-22.1832170752
 10
-69.634428187
 20
-22.180865822
 10
-69.601139871
 20
-22.1785758696
 10
-69.5796918925
 20
-22.1763563516
  0
LINE
  5
3AB
100
AcDbEntity
  8
PORTELLO
100
AcDbLine
 62
7
  6
CONTINUOUS
 10
-75.7537947054
 20
-22.099884
 11
-75.735695838
 21
-22.099884
  0
LINE
  5
3AC
100
AcDbEntity
  8
PORTELLO
100
AcDbLine
 62
7
  6
CONTINUOUS
 10
-75.7109892389
 20
-22.099884
 11
-75.6126395
 21
-22.099884
  0
LINE
  5
3AD
100
AcDbEntity
  8
PORTELLO
100
AcDbLine
 62
7
  6
CONTINUOUS
 10
-75.5566636732
 20
-22.099877
 11
-75.4827266209
 21
-22.099877
  0
LINE
  5
3AE
100
AcDbEntity
  8
PORTELLO
100
AcDbLine
 62
7
  6
CONTINUOUS
 10
-75.6102628751
 20
-22.099877
 11
-75.5647618034
 21
-22.099877
  0
LWPOLYLINE
  5
3AF
100
AcDbEntity
  8
PORTELLO
100
AcDbPolyline
 62
7
  6
CONTINUOUS
 90
12
 70
0
 10
-75.5127593479
 20
-22.0998751129
 10
-75.5100999989
 20
-22.1029567845
 10
-75.5072969368
 20
-22.112179694
 10
-75.5043501615
 20
-22.1274788175
 10
-75.5012377114
 20
-22.1487475025
 10
-75.4979815481
 20
-22.1758371037
 10
-75.4946475565
 20
-22.2085569747
 10
-75.4912339265
 20
-22.2466769571
 10
-75.4877424681
 20
-22.2899325212
 10
-75.4842444971
 20
-22.3380258751
 10
-75.4807395487
 20
-22.3906233137
 10
-75.4772280875
 20
-22.4473603557
  0
LWPOLYLINE
  5
3B0
100
AcDbEntity
  8
PLACCA_PRT
100
AcDbPolyline
 62
7
  6
CONTINUOUS
 90
8
 70
0
 10
-66.7744170645
 20
-39.2376169806
 10
-66.7302803073
 20
-39.3115295177
 10
-66.680040966
 20
-39.3812566562
 10
-66.6241036836
 20
-39.4463023701
 10
-66.5629181825
 20
-39.506205513
 10
-66.4969530332
 20
-39.5605636306
 10
-66.4266890579
 20
-39.6090255891
 10
-66.3526182684
 20
-39.6512830011
  0
LWPOLYLINE
  5
3B1
100
AcDbEntity
  8
PLACCA_PRT
100
AcDbPolyline
 62
7
  6
CONTINUOUS
 90
9
 70
0
 10
-66.776563705
 20
-39.2336206911
 10
-66.7329394501
 20
-39.3074609618
 10
-66.6831628683
 20
-39.3772734511
 10
-66.6276051688
 20
-39.4425479129
 10
-66.5666804773
 20
-39.502807555
 10
-66.5008394058
 20
-39.5576155811
 10
-66.4305652656
 20
-39.6065768603
 10
-66.3563708212
 20
-39.649339191
 10
-66.2753282038
 20
-39.6870299799
  0
LWPOLYLINE
  5
3B2
100
AcDbEntity
  8
0
100
AcDbPolyline
 62
7
  6
CONTINUOUS
 90
13
 70
0
 43
0.3500000006
 10
-89.7931117859
 20
-1.9285708809
 10
-90.0073962708
 20
-2.2142854156
 10
-90.6502587891
 20
-2.2142854156
 10
-91.0788277588
 20
-1.9285708809
 10
-91.0788277588
 20
-1.2857140274
 10
-90.6502587891
 20
-1.0000006256
 10
-90.0073962708
 20
-1.0000006256
 10
-89.7931117859
 20
-1.2857140274
 10
-89.3645428162
 20
-0.8571427917
 10
-88.507395813
 20
-0.8571427917
 10
-88.0788268433
 20
-1.2857140274
 10
-88.0788268433
 20
-1.9285708809
 10
-88.507395813
 20
-2.3571432495
  0
LINE
  5
3B3
100
AcDbEntity
  8
PLACCA_PRT
100
AcDbLine
 62
7
  6
CONTINUOUS
 10
-66.813709553
 20
-39.1562929406
 11
-66.7744170645
 21
-39.2376169806
  0
LWPOLYLINE
  5
3B4
100
AcDbEntity
  8
0
100
AcDbPolyline
 62
7
  6
CONTINUOUS
 90
3
 70
0
 43
0.3500000006
 10
-67.9719186859
 20
50.8048959961
 10
-68.0433453369
 20
50.5906115112
 10
-68.1862031708
 20
50.3048958435
  0
LWPOLYLINE
  5
3B5
100
AcDbEntity
  8
PLACCA_PRT
100
AcDbPolyline
 62
7
  6
CONTINUOUS
 90
27
 70
0
 10
-66.8337540382
 20
39.1057775811
 10
-66.9135208135
 20
38.8856251029
 10
-67.0311884389
 20
38.5533089942
 10
-67.1452751406
 20
38.2220785816
 10
-67.25589144
 20
37.8919539215
 10
-67.3632303405
 20
37.5626770968
 10
-67.4672989036
 20
37.2345333726
 10
-67.5682005007
 20
36.9075024292
 10
-67.6662456446
 20
36.5808408675
 10
-67.7614414228
 20
36.2547556793
 10
-67.853853412
 20
35.9292524365
 10
-67.9438378788
 20
35.6032531689
 10
-68.0315158532
 20
35.2764289532
 10
-68.1167841755
 20
34.9492732435
 10
-68.1996401568
 20
34.6219252181
 10
-68.280219913
 20
34.2939566285
 10
-68.3584072495
 20
33.9659525136
 10
-68.4338537727
 20
33.6395820636
 10
-68.5066095881
 20
33.3149089777
 10
-68.5767144293
 20
32.9920373555
 10
-68.6438679208
 20
32.6727127971
 10
-68.7081391201
 20
32.3570525196
 10
-68.769611247
 20
32.0450953244
 10
-68.828065491
 20
31.7384759286
 10
-68.8835811265
 20
31.4373889352
 10
-68.9362832996
 20
31.1417681831
 10
-68.9860706688
 20
30.8528513726
  0
LWPOLYLINE
  5
3B6
100
AcDbEntity
  8
0
100
AcDbPolyline
 62
7
  6
CONTINUOUS
 90
4
 70
0
 43
0.3500000006
 10
-88.507395813
 20
-2.3571432495
 10
-89.3645428162
 20
-2.3571432495
 10
-89.7931117859
 20
-1.9285708809
 10
-89.7931117859
 20
-1.2857140274
  0
LWPOLYLINE
  5
3B7
100
AcDbEntity
  8
0
100
AcDbPolyline
 62
7
  6
CONTINUOUS
 90
13
 70
0
 43
0.3500000006
 10
-88.9359738464
 20
-0.0000003204
 10
-90.2216807556
 20
-0.0000003204
 10
-90.6502587891
 20
0.2142864304
 10
-91.0788277588
 20
0.642857666
 10
-91.0788277588
 20
0.8571421509
 10
-90.6502587891
 20
1.2857133865
 10
-90.2216807556
 20
1.5000001373
 10
-88.9359738464
 20
1.5000001373
 10
-88.507395813
 20
1.2857133865
 10
-88.0788268433
 20
0.8571421509
 10
-88.0788268433
 20
0.642857666
 10
-88.507395813
 20
0.2142864304
 10
-88.9359738464
 20
-0.0000003204
  0
LINE
  5
3B8
100
AcDbEntity
  8
PLACCA_PRT
100
AcDbLine
 62
250
  6
CONTINUOUS
 10
-65.9385773632
 20
0.0000054405
 11
-69.7862032084
 21
-0.0000008404
  0
LINE
  5
3B9
100
AcDbEntity
  8
PORTELLO
100
AcDbLine
 62
250
  6
CONTINUOUS
 10
-74.2847662992
 20
0.0
 11
-75.9862032084
 21
0.0
  0
LINE
  5
3BA
100
AcDbEntity
  8
PLACCA_PRT
100
AcDbLine
 62
7
  6
CONTINUOUS
 10
-63.3862032084
 20
-3.5
 11
-61.3862032084
 21
-3.6749773271
  0
LINE
  5
3BB
100
AcDbEntity
  8
PLACCA_PRT
100
AcDbLine
 62
7
  6
CONTINUOUS
 10
-66.8337535585
 20
-39.1057785076
 11
-66.8120910697
 21
-39.1600487229
  0
LINE
  5
3BC
100
AcDbEntity
  8
PLACCA_PRT
100
AcDbLine
 62
7
  6
CONTINUOUS
 10
-66.8658791069
 20
-39.0175996801
 11
-66.8337536437
 21
-39.1057786601
  0
LINE
  5
3BD
100
AcDbEntity
  8
PLACCA_PRT
100
AcDbLine
 62
7
  6
CONTINUOUS
 10
-61.3862032084
 20
3.6749773271
 11
-63.3862032084
 21
3.5
  0
LWPOLYLINE
  5
3BE
100
AcDbEntity
  8
PLACCA_PRT
100
AcDbPolyline
 62
250
  6
CONTINUOUS
 90
6
 70
0
 10
-69.7862032084
 20
-24.8128096173
 10
-69.7383740418
 20
-24.9387491773
 10
-69.6822914025
 20
-25.1203093743
 10
-69.6378168212
 20
-25.305056591
 10
-69.6051287548
 20
-25.4922495181
 10
-69.5843583664
 20
-25.6811370327
  0
LWPOLYLINE
  5
3BF
100
AcDbEntity
  8
PLACCA_PRT
100
AcDbPolyline
 62
7
  6
CONTINUOUS
 90
18
 70
0
 10
-68.2185914472
 20
-34.5456705029
 10
-68.1526600899
 20
-34.8087178911
 10
-68.0853033963
 20
-35.0711692338
 10
-68.0164426136
 20
-35.3332877517
 10
-67.9460444376
 20
-35.5951418831
 10
-67.8741533713
 20
-35.8565099916
 10
-67.8007161686
 20
-36.1175293063
 10
-67.7255406227
 20
-36.3787984305
 10
-67.6485987278
 20
-36.6403069845
 10
-67.5698862929
 20
-36.9019613739
 10
-67.4892277086
 20
-37.1642214234
 10
-67.4065797798
 20
-37.4270843268
 10
-67.321935854
 20
-37.6904276125
 10
-67.2351607419
 20
-37.9545185955
 10
-67.1462025076
 20
-38.2193483465
 10
-67.0550512
 20
-38.4847793223
 10
-66.9616262504
 20
-38.7508760228
 10
-66.8658774291
 20
-39.0176043023
  0
LWPOLYLINE
  5
3C0
100
AcDbEntity
  8
PORTELLO
100
AcDbPolyline
 62
7
  6
CONTINUOUS
 90
12
 70
0
 10
-75.4433349447
 20
-22.5151876112
 10
-75.4471742037
 20
-22.4479948361
 10
-75.4510258161
 20
-22.3854919945
 10
-75.4548814674
 20
-22.3283034344
 10
-75.4587494722
 20
-22.2767373401
 10
-75.4625452971
 20
-22.2310566305
 10
-75.4662744252
 20
-22.1915920025
 10
-75.4699313734
 20
-22.1588148506
 10
-75.4734151596
 20
-22.1331095501
 10
-75.4766921231
 20
-22.114669399
 10
-75.4797959246
 20
-22.1035743493
 10
-75.482726564
 20
-22.0998751129
  0
LINE
  5
3C1
100
AcDbEntity
  8
PORTELLO
100
AcDbLine
 62
7
  6
CONTINUOUS
 10
-75.34869721
 20
-25.0
 11
-75.3936042625
 21
-24.2076558284
  0
LWPOLYLINE
  5
3C2
100
AcDbEntity
  8
PORTELLO
100
AcDbPolyline
 62
7
  6
CONTINUOUS
 90
10
 70
0
 10
-75.4827737369
 20
-22.8132717912
 10
-75.4846520566
 20
-22.7789712508
 10
-75.4865872283
 20
-22.7476317509
 10
-75.4885142167
 20
-22.7194466812
 10
-75.4904402432
 20
-22.6947291435
 10
-75.4923580864
 20
-22.6739862809
 10
-75.4941810465
 20
-22.6576284886
 10
-75.4958802239
 20
-22.6458608926
 10
-75.4974845183
 20
-22.6387663396
 10
-75.4989939297
 20
-22.6364
  0
LINE
  5
3C3
100
AcDbEntity
  8
PORTELLO
100
AcDbLine
 62
7
  6
CONTINUOUS
 10
-75.4032286691
 20
-25.000007
 11
-75.4513118197
 21
-24.1290291995
  0
LINE
  5
3C4
100
AcDbEntity
  8
PORTELLO
100
AcDbLine
 62
7
  6
CONTINUOUS
 10
-75.4452660793
 20
-23.8089026669
 11
-75.3787424903
 21
-25.0
  0
LINE
  5
3C5
100
AcDbEntity
  8
PORTELLO
100
AcDbLine
 62
7
  6
CONTINUOUS
 10
-75.3936042625
 20
-24.2076558284
 11
-75.4152271391
 21
-23.8089026669
  0
LINE
  5
3C6
100
AcDbEntity
  8
PORTELLO
100
AcDbLine
 62
7
  6
CONTINUOUS
 10
-75.4772280875
 20
-22.4473603557
 11
-75.470404912
 21
-22.5716674582
  0
LINE
  5
3C7
100
AcDbEntity
  8
PORTELLO
100
AcDbLine
 62
7
  6
CONTINUOUS
 10
-75.4513118197
 20
-24.1290291995
 11
-75.4645598882
 21
-23.878657
  0
LINE
  5
3C8
100
AcDbEntity
  8
PORTELLO
100
AcDbLine
 62
7
  6
CONTINUOUS
 10
-75.4360316166
 20
-22.6604904084
 11
-75.4433349447
 21
-22.5151876112
  0
LINE
  5
3C9
100
AcDbEntity
  8
PORTELLO
100
AcDbLine
 62
7
  6
CONTINUOUS
 10
-75.470404912
 20
-22.5716674582
 11
-75.4639169171
 21
-22.7075295681
  0
LINE
  5
3CA
100
AcDbEntity
  8
PORTELLO
100
AcDbLine
 62
7
  6
CONTINUOUS
 10
-75.4791739671
 20
-22.8894152172
 11
-75.4827737369
 21
-22.8132717912
  0
LINE
  5
3CB
100
AcDbEntity
  8
PORTELLO
100
AcDbLine
 62
7
  6
CONTINUOUS
 10
-75.4902905502
 20
-25.000007
 11
-75.5160715287
 21
-24.429679
  0
LINE
  5
3CC
100
AcDbEntity
  8
PORTELLO
100
AcDbLine
 62
7
  6
CONTINUOUS
 10
-75.4293056917
 20
-22.8163192984
 11
-75.4360316166
 21
-22.6604904084
  0
LINE
  5
3CD
100
AcDbEntity
  8
PORTELLO
100
AcDbLine
 62
7
  6
CONTINUOUS
 10
-75.4639169171
 20
-22.7075295681
 11
-75.4579752047
 21
-22.851254313
  0
LINE
  5
3CE
100
AcDbEntity
  8
PORTELLO
100
AcDbLine
 62
7
  6
CONTINUOUS
 10
-75.5399323876
 20
-23.878657
 11
-75.5757956436
 21
-23.003118
  0
LINE
  5
3CF
100
AcDbEntity
  8
PORTELLO
100
AcDbLine
 62
7
  6
CONTINUOUS
 10
-75.590522074
 20
-25.000015
 11
-75.6237967447
 21
-24.154337659
  0
LINE
  5
3D0
100
AcDbEntity
  8
PORTELLO
100
AcDbLine
 62
7
  6
CONTINUOUS
 10
-75.5947874151
 20
-22.099877
 11
-75.4726477061
 21
-25.000015
  0
LINE
  5
3D1
100
AcDbEntity
  8
PORTELLO
100
AcDbLine
 62
7
  6
CONTINUOUS
 10
-75.5270283932
 20
-23.0673983621
 11
-75.5647618034
 21
-22.099877
  0
LINE
  5
3D2
100
AcDbEntity
  8
PORTELLO
100
AcDbLine
 62
7
  6
CONTINUOUS
 10
-75.4113280041
 20
-25.000007
 11
-75.4268352768
 21
-24.5793400686
  0
LINE
  5
3D3
100
AcDbEntity
  8
PORTELLO
100
AcDbLine
 62
7
  6
CONTINUOUS
 10
-75.4233903375
 20
-22.9783313825
 11
-75.4293056917
 21
-22.8163192984
  0
LINE
  5
3D4
100
AcDbEntity
  8
PORTELLO
100
AcDbLine
 62
7
  6
CONTINUOUS
 10
-75.6654709087
 20
-25.000022
 11
-75.6980242023
 21
-24.0970738655
  0
LINE
  5
3D5
100
AcDbEntity
  8
PORTELLO
100
AcDbLine
 62
7
  6
CONTINUOUS
 10
-75.6237967447
 20
-24.154337659
 11
-75.6625479799
 21
-23.087573
  0
LINE
  5
3D6
100
AcDbEntity
  8
PORTELLO
100
AcDbLine
 62
7
  6
CONTINUOUS
 10
-75.4816083754
 20
-23.87865
 11
-75.4413673435
 21
-25.000007
  0
LINE
  5
3D7
100
AcDbEntity
  8
PORTELLO
100
AcDbLine
 62
7
  6
CONTINUOUS
 10
-75.4604226765
 20
-25.000007
 11
-75.5002400902
 21
-23.8798710876
  0
LINE
  5
3D8
100
AcDbEntity
  8
PORTELLO
100
AcDbLine
 62
250
  6
CONTINUOUS
 10
-75.3685046183
 20
-23.553547873
 11
-75.3261304304
 21
-24.7250144252
  0
LINE
  5
3D9
100
AcDbEntity
  8
PORTELLO
100
AcDbLine
 62
7
  6
CONTINUOUS
 10
-75.6704442895
 20
-22.5224441911
 11
-75.6179668227
 21
-23.988552
  0
LINE
  5
3DA
100
AcDbEntity
  8
PORTELLO
100
AcDbLine
 62
7
  6
CONTINUOUS
 10
-75.4579752047
 20
-22.851254313
 11
-75.4527666601
 21
-22.9988121342
  0
LINE
  5
3DB
100
AcDbEntity
  8
PORTELLO
100
AcDbLine
 62
7
  6
CONTINUOUS
 10
-75.6843863435
 20
-22.099884
 11
-75.6704442895
 21
-22.5224441911
  0
LWPOLYLINE
  5
3DC
100
AcDbEntity
  8
PORTELLO
100
AcDbPolyline
 62
7
  6
CONTINUOUS
 90
3
 70
0
 10
-75.4747432223
 20
-23.011012319
 10
-75.4760728652
 20
-22.9703343915
 10
-75.4791739671
 20
-22.8894152172
  0
LINE
  5
3DD
100
AcDbEntity
  8
PORTELLO
100
AcDbLine
 62
7
  6
CONTINUOUS
 10
-75.565259558
 20
-25.000015
 11
-75.6009048961
 21
-23.9415488291
  0
LINE
  5
3DE
100
AcDbEntity
  8
PORTELLO
100
AcDbLine
 62
7
  6
CONTINUOUS
 10
-75.5002400902
 20
-23.8798710876
 11
-75.5369953261
 21
-22.7507130648
  0
LINE
  5
3DF
100
AcDbEntity
  8
PORTELLO
100
AcDbLine
 62
7
  6
CONTINUOUS
 10
-75.5224623742
 20
-22.636398
 11
-75.4999024976
 21
-23.342128
  0
LINE
  5
3E0
100
AcDbEntity
  8
PORTELLO
100
AcDbLine
 62
7
  6
CONTINUOUS
 10
-75.6134499607
 20
-25.000015
 11
-75.6497601332
 21
-23.8815760724
  0
LINE
  5
3E1
100
AcDbEntity
  8
PORTELLO
100
AcDbLine
 62
7
  6
CONTINUOUS
 10
-75.7404370634
 20
-22.5467950946
 11
-75.6896269576
 21
-24.09678
  0
LINE
  5
3E2
100
AcDbEntity
  8
PORTELLO
100
AcDbLine
 62
7
  6
CONTINUOUS
 10
-75.6348035338
 20
-25.000022
 11
-75.6672233695
 21
-23.9900507978
  0
LINE
  5
3E3
100
AcDbEntity
  8
PORTELLO
100
AcDbLine
 62
7
  6
CONTINUOUS
 10
-75.6672233695
 20
-23.9900507978
 11
-75.6754373241
 21
-23.720107079
  0
LINE
  5
3E4
100
AcDbEntity
  8
PORTELLO
100
AcDbLine
 62
7
  6
CONTINUOUS
 10
-75.6009048961
 20
-23.9415488291
 11
-75.6274342976
 21
-23.087573
  0
LINE
  5
3E5
100
AcDbEntity
  8
PORTELLO
100
AcDbLine
 62
7
  6
CONTINUOUS
 10
-75.5369953261
 20
-22.7507130648
 11
-75.5566636732
 21
-22.099877
  0
LINE
  5
3E6
100
AcDbEntity
  8
PORTELLO
100
AcDbLine
 62
7
  6
CONTINUOUS
 10
-75.7537947054
 20
-22.099884
 11
-75.7404370634
 21
-22.5467950946
  0
LWPOLYLINE
  5
3E7
100
AcDbEntity
  8
PORTELLO
100
AcDbPolyline
 62
7
  6
CONTINUOUS
 90
3
 70
0
 10
-75.6625479799
 20
-23.087573
 10
-75.6562537468
 20
-23.3016649744
 10
-75.6019433396
 20
-25.000015
  0
LINE
  5
3E8
100
AcDbEntity
  8
PORTELLO
100
AcDbLine
 62
250
  6
CONTINUOUS
 10
-75.3261304304
 20
-24.7250144252
 11
-75.3211089683
 21
-24.8907822666
  0
LINE
  5
3E9
100
AcDbEntity
  8
PORTELLO
100
AcDbLine
 62
7
  6
CONTINUOUS
 10
-75.7054787826
 20
-25.8147741645
 11
-75.779016315
 21
-23.2517461404
  0
LINE
  5
3EA
100
AcDbEntity
  8
PORTELLO
100
AcDbLine
 62
7
  6
CONTINUOUS
 10
-75.6497601332
 20
-23.8815760724
 11
-75.6831155436
 21
-22.7506878748
  0
LINE
  5
3EB
100
AcDbEntity
  8
PORTELLO
100
AcDbLine
 62
7
  6
CONTINUOUS
 10
-75.4185274414
 20
-23.1403333732
 11
-75.4233903375
 21
-22.9783313825
  0
LINE
  5
3EC
100
AcDbEntity
  8
PORTELLO
100
AcDbLine
 62
7
  6
CONTINUOUS
 10
-75.6426611142
 20
-22.099884
 11
-75.5512979733
 21
-25.000015
  0
LINE
  5
3ED
100
AcDbEntity
  8
PORTELLO
100
AcDbLine
 62
7
  6
CONTINUOUS
 10
-75.6039548583
 20
-22.4084676943
 11
-75.6126395
 21
-22.099884
  0
LINE
  5
3EE
100
AcDbEntity
  8
PORTELLO
100
AcDbLine
 62
7
  6
CONTINUOUS
 10
-75.4527666601
 20
-22.9988121342
 11
-75.4484035641
 21
-23.1460583597
  0
LINE
  5
3EF
100
AcDbEntity
  8
PORTELLO
100
AcDbLine
 62
7
  6
CONTINUOUS
 10
-75.6831155436
 20
-22.7506878748
 11
-75.7008124145
 21
-22.099884
  0
LINE
  5
3F0
100
AcDbEntity
  8
PORTELLO
100
AcDbLine
 62
7
  6
CONTINUOUS
 10
-75.7109892389
 20
-22.099884
 11
-75.6243939306
 21
-25.000015
  0
LINE
  5
3F1
100
AcDbEntity
  8
PORTELLO
100
AcDbLine
 62
7
  6
CONTINUOUS
 10
-75.4964283529
 20
-25.000007
 11
-75.5052735894
 21
-24.6714859341
  0
LINE
  5
3F2
100
AcDbEntity
  8
PORTELLO
100
AcDbLine
 62
7
  6
CONTINUOUS
 10
-75.5416306214
 20
-24.429679
 11
-75.526460005
 21
-25.000007
  0
LINE
  5
3F3
100
AcDbEntity
  8
PORTELLO
100
AcDbLine
 62
7
  6
CONTINUOUS
 10
-75.5416032866
 20
-25.000015
 11
-75.5706209737
 21
-23.8812531794
  0
LWPOLYLINE
  5
3F4
100
AcDbEntity
  8
PORTELLO
100
AcDbPolyline
 62
7
  6
CONTINUOUS
 90
3
 70
0
 10
-75.6274342976
 20
-23.087573
 10
-75.6223522921
 20
-23.3016215093
 10
-75.5778417203
 20
-25.000007
  0
LINE
  5
3F5
100
AcDbEntity
  8
PORTELLO
100
AcDbLine
 62
250
  6
CONTINUOUS
 10
-75.3211089683
 20
-24.8907822666
 11
-75.31710701
 21
-25.0507697263
  0
LINE
  5
3F6
100
AcDbEntity
  8
PORTELLO
100
AcDbLine
 62
7
  6
CONTINUOUS
 10
-75.6179668227
 20
-23.988552
 11
-75.6435466294
 21
-22.9429750387
  0
LINE
  5
3F7
100
AcDbEntity
  8
PORTELLO
100
AcDbLine
 62
7
  6
CONTINUOUS
 10
-75.5757956436
 20
-23.003118
 11
-75.5554534625
 21
-23.878657
  0
LWPOLYLINE
  5
3F8
100
AcDbEntity
  8
PORTELLO
100
AcDbPolyline
 62
7
  6
CONTINUOUS
 90
9
 70
0
 10
-75.779016315
 20
-23.2517461404
 10
-75.8373803365
 20
-20.612298522
 10
-75.8824753323
 20
-17.8968535233
 10
-75.9167067943
 20
-15.1071676019
 10
-75.9429252623
 20
-12.2426495345
 10
-75.9626161467
 20
-9.2999591107
 10
-75.9761021804
 20
-6.2779447062
 10
-75.9837847587
 20
-3.1779184806
 10
-75.9862032084
 20
0.0
  0
LINE
  5
3F9
100
AcDbEntity
  8
PORTELLO
100
AcDbLine
 62
7
  6
CONTINUOUS
 10
-75.5706209737
 20
-23.8812531794
 11
-75.5967037193
 21
-22.7505612849
  0
LINE
  5
3FA
100
AcDbEntity
  8
PORTELLO
100
AcDbLine
 62
7
  6
CONTINUOUS
 10
-75.4484035641
 20
-23.1460583597
 11
-75.4450434576
 21
-23.2887608621
  0
LINE
  5
3FB
100
AcDbEntity
  8
PORTELLO
100
AcDbLine
 62
7
  6
CONTINUOUS
 10
-75.4148420825
 20
-23.296829358
 11
-75.4185274414
 21
-23.1403333732
  0
LINE
  5
3FC
100
AcDbEntity
  8
PORTELLO
100
AcDbLine
 62
7
  6
CONTINUOUS
 10
-75.6435466294
 20
-22.9429750387
 11
-75.6622302518
 21
-22.099884
  0
LINE
  5
3FD
100
AcDbEntity
  8
PORTELLO
100
AcDbLine
 62
7
  6
CONTINUOUS
 10
-75.7268237382
 20
-22.099884
 11
-75.6566161631
 21
-25.000015
  0
LINE
  5
3FE
100
AcDbEntity
  8
PORTELLO
100
AcDbLine
 62
7
  6
CONTINUOUS
 10
-75.5967037193
 20
-22.7505612849
 11
-75.6102628751
 21
-22.099877
  0
LINE
  5
3FF
100
AcDbEntity
  8
PORTELLO
100
AcDbLine
 62
250
  6
CONTINUOUS
 10
-75.31710701
 20
-25.0507697263
 11
-75.3141931782
 21
-25.2024091968
  0
LINE
  5
400
100
AcDbEntity
  8
PORTELLO
100
AcDbLine
 62
7
  6
CONTINUOUS
 10
-75.4450434576
 20
-23.2887608621
 11
-75.4427753263
 21
-23.4230081506
  0
LINE
  5
401
100
AcDbEntity
  8
PORTELLO
100
AcDbLine
 62
250
  6
CONTINUOUS
 10
-73.9128816776
 20
-24.5
 11
-73.9019723578
 21
-25.2208285366
  0
LWPOLYLINE
  5
402
100
AcDbEntity
  8
PORTELLO
100
AcDbPolyline
 62
250
  6
CONTINUOUS
 90
16
 70
0
 10
-75.3141931782
 20
-25.2024091968
 10
-75.3124240509
 20
-25.3429282999
 10
-75.3119794559
 20
-25.4082428889
 10
-75.3118307701
 20
-25.4699028804
 10
-75.3119794421
 20
-25.5276334882
 10
-75.3124240751
 20
-25.5811956675
 10
-75.313162674
 20
-25.6303704133
 10
-75.3141931465
 20
-25.6749384685
 10
-75.3155103016
 20
-25.7147025308
 10
-75.3171070317
 20
-25.7494837253
 10
-75.3189760037
 20
-25.7791160053
 10
-75.3211090296
 20
-25.8034856626
 10
-75.3234969707
 20
-25.822508208
 10
-75.3261303494
 20
-25.8360901497
 10
-75.3289968995
 20
-25.8441646182
 10
-75.33208122
 20
-25.8467145035
  0
LINE
  5
403
100
AcDbEntity
  8
PORTELLO
100
AcDbLine
 62
250
  6
CONTINUOUS
 10
-73.9019723578
 20
-25.2208285366
 11
-73.8950857324
 21
-25.8925120379
  0
LWPOLYLINE
  5
404
100
AcDbEntity
  8
PORTELLO
100
AcDbPolyline
 62
7
  6
CONTINUOUS
 90
8
 70
0
 10
-75.4427753263
 20
-23.4230081506
 10
-75.4416441562
 20
-23.5451698649
 10
-75.4415233954
 20
-23.6006908646
 10
-75.4416953352
 20
-23.6520002971
 10
-75.4421559736
 20
-23.6987813245
 10
-75.4429039768
 20
-23.7407188501
 10
-75.4439406787
 20
-23.7775112787
 10
-75.4452660793
 20
-23.8089026669
  0
LINE
  5
405
100
AcDbEntity
  8
PORTELLO
100
AcDbLine
 62
250
  6
CONTINUOUS
 10
-73.7538219758
 20
30.0179703638
 11
-73.7527758881
 21
29.815131779
  0
LINE
  5
406
100
AcDbEntity
  8
PORTELLO
100
AcDbLine
 62
250
  6
CONTINUOUS
 10
-73.8950857324
 20
-25.8925120379
 11
-73.8928831581
 21
-26.3362027628
  0
LWPOLYLINE
  5
407
100
AcDbEntity
  8
PORTELLO
100
AcDbPolyline
 62
250
  6
CONTINUOUS
 90
21
 70
0
 10
-74.2839007004
 20
-1.3341447682
 10
-74.2813511711
 20
-2.6515631094
 10
-74.2771177114
 20
-3.9522550237
 10
-74.2711852056
 20
-5.2362208739
 10
-74.2635687694
 20
-6.503460297
 10
-74.2543137494
 20
-7.753972205
 10
-74.243411701
 20
-8.9877572932
 10
-74.2308710688
 20
-10.2048148661
 10
-74.2167625335
 20
-11.4051417496
 10
-74.201131664
 20
-12.5887535123
 10
-74.1839328914
 20
-13.7556345856
 10
-74.165100189
 20
-14.9057350889
 10
-74.1447030034
 20
-16.0390518476
 10
-74.1226718882
 20
-17.1555880364
 10
-74.098732477
 20
-18.2553032996
 10
-74.0728522546
 20
-19.3381943606
 10
-74.0450637363
 20
-20.4042644961
 10
-74.0151901015
 20
-21.4534831804
 10
-73.98317241
 20
-22.4858402381
 10
-73.9490696021
 20
-23.5013458447
 10
-73.9128816776
 20
-24.5
  0
LWPOLYLINE
  5
408
100
AcDbEntity
  8
PORTELLO
100
AcDbPolyline
 62
250
  6
CONTINUOUS
 90
21
 70
0
 10
-75.7054788961
 20
0.0
 10
-75.7046251598
 20
-1.3360630713
 10
-75.7020652189
 20
-2.6554487257
 10
-75.6978062488
 20
-3.9581510159
 10
-75.691857595
 20
-5.2441640382
 10
-75.6842281429
 20
-6.5134880624
 10
-75.6749298346
 20
-7.7661266276
 10
-75.6639804215
 20
-9.0020763306
 10
-75.6514107138
 20
-10.2213234736
 10
-75.6372565422
 20
-11.4238570433
 10
-75.6215461164
 20
-12.6096719628
 10
-75.6042714025
 20
-13.7788095675
 10
-75.5854203514
 20
-14.9313261541
 10
-75.5649667708
 20
-16.0672662063
 10
-75.5427994714
 20
-17.1866244171
 10
-75.5187968631
 20
-18.2893791305
 10
-75.4928564012
 20
-19.3755234149
 10
-75.4649046099
 20
-20.4450408113
 10
-75.4348881893
 20
-21.4978962941
 10
-75.4027661448
 20
-22.5340684373
 10
-75.3685046183
 20
-23.553547873
  0
LWPOLYLINE
  5
409
100
AcDbEntity
  8
PORTELLO
100
AcDbPolyline
 62
7
  6
CONTINUOUS
 90
10
 70
0
 10
-75.9862032084
 20
0.0
 10
-75.9830493103
 20
3.6114152025
 10
-75.972967802
 20
7.1227790197
 10
-75.9551962154
 20
10.5339224165
 10
-75.9292032048
 20
13.8424294754
 10
-75.8939858713
 20
17.05037598
 10
-75.8457802144
 20
20.1638218348
 10
-75.7807156877
 20
23.1842070812
 10
-75.6958481086
 20
26.1085808887
 10
-75.5889415509
 20
28.9364475643
  0
LINE
  5
40A
100
AcDbEntity
  8
PORTELLO
100
AcDbLine
 62
250
  6
CONTINUOUS
 10
-73.8928831581
 20
-26.3362027628
 11
-73.8928832298
 21
-26.5936500215
  0
LINE
  5
40B
100
AcDbEntity
  8
PORTELLO
100
AcDbLine
 62
250
  6
CONTINUOUS
 10
-73.7527758881
 20
29.815131779
 11
-73.7530963623
 21
29.5744472794
  0
LWPOLYLINE
  5
40C
100
AcDbEntity
  8
PORTELLO
100
AcDbPolyline
 62
250
  6
CONTINUOUS
 90
11
 70
0
 10
-73.8928832298
 20
-26.5936500215
 10
-73.8940597438
 20
-26.8152800716
 10
-73.8950859703
 20
-26.9114864154
 10
-73.8964011962
 20
-26.9973641609
 10
-73.8979864333
 20
-27.0725129019
 10
-73.8998445534
 20
-27.1366008208
 10
-73.9019726846
 20
-27.1893778287
 10
-73.9043432231
 20
-27.2306372496
 10
-73.9069469674
 20
-27.260199042
 10
-73.9097931189
 20
-27.2779240261
 10
-73.9128816776
 20
-27.2837299456
  0
LINE
  5
40D
100
AcDbEntity
  8
PORTELLO
100
AcDbLine
 62
250
  6
CONTINUOUS
 10
-73.7530963623
 20
29.5744472794
 11
-73.7561210543
 21
29.1514774308
  0
LINE
  5
40E
100
AcDbEntity
  8
PORTELLO
100
AcDbLine
 62
250
  6
CONTINUOUS
 10
-73.7561210543
 20
29.1514774308
 11
-73.7620759733
 21
28.6685661268
  0
LINE
  5
40F
100
AcDbEntity
  8
PORTELLO
100
AcDbLine
 62
250
  6
CONTINUOUS
 10
-73.7620759733
 20
28.6685661268
 11
-73.7740980854
 21
27.9645534006
  0
LINE
  5
410
100
AcDbEntity
  8
PORTELLO
100
AcDbLine
 62
250
  6
CONTINUOUS
 10
-75.1720986695
 20
28.5280158139
 11
-75.1744666133
 21
28.3930837653
  0
LINE
  5
411
100
AcDbEntity
  8
PORTELLO
100
AcDbLine
 62
250
  6
CONTINUOUS
 10
-73.7740980854
 20
27.9645534006
 11
-73.7816674167
 21
27.6
  0
LINE
  5
412
100
AcDbEntity
  8
PORTELLO
100
AcDbLine
 62
250
  6
CONTINUOUS
 10
-75.1744666133
 20
28.3930837653
 11
-75.1781463578
 21
28.2456778121
  0
LWPOLYLINE
  5
413
100
AcDbEntity
  8
PORTELLO
100
AcDbPolyline
 62
250
  6
CONTINUOUS
 90
9
 70
0
 10
-75.3411958487
 20
24.3109990644
 10
-75.4486510154
 20
21.017723292
 10
-75.5299380057
 20
17.7911207767
 10
-75.5913790923
 20
14.6249830132
 10
-75.6366224109
 20
11.5254308279
 10
-75.6685519978
 20
8.5113771367
 10
-75.6898061694
 20
5.588972359
 10
-75.7017956987
 20
2.7518125241
 10
-75.70548522
 20
-0.0000000004
  0
LINE
  5
414
100
AcDbEntity
  8
PORTELLO
100
AcDbLine
 62
250
  6
CONTINUOUS
 10
-75.1781463578
 20
28.2456778121
 11
-75.1830652768
 21
28.0884983676
  0
LINE
  5
415
100
AcDbEntity
  8
PORTELLO
100
AcDbLine
 62
250
  6
CONTINUOUS
 10
-75.1830652768
 20
28.0884983676
 11
-75.189134626
 21
27.9242448643
  0
LWPOLYLINE
  5
416
100
AcDbEntity
  8
PORTELLO
100
AcDbPolyline
 62
250
  6
CONTINUOUS
 90
10
 70
0
 10
-73.7816674167
 20
27.6
 10
-73.9121689168
 20
24.2549383213
 10
-74.0215557432
 20
20.974430014
 10
-74.1098278959
 20
17.7584750782
 10
-74.1736996845
 20
14.6003463384
 10
-74.2164567994
 20
11.5067709701
 10
-74.2479563112
 20
8.4979304995
 10
-74.2714839103
 20
5.580552102
 10
-74.2837539063
 20
2.7479086022
 10
-74.2839007004
 20
-1.3341447682
  0
LWPOLYLINE
  5
417
100
AcDbEntity
  8
PORTELLO
100
AcDbPolyline
 62
7
  6
CONTINUOUS
 90
9
 70
0
 10
-75.4152271391
 20
-23.8089026669
 10
-75.4137859271
 20
-23.7741821288
 10
-75.4126937915
 20
-23.7329647831
 10
-75.4119507321
 20
-23.6855837659
 10
-75.4115560413
 20
-23.6324177923
 10
-75.4115104269
 20
-23.5739052207
 10
-75.4118160115
 20
-23.5105461205
 10
-75.4124814715
 20
-23.4428892911
 10
-75.4148420825
 20
-23.296829358
  0
LINE
  5
418
100
AcDbEntity
  8
PORTELLO
100
AcDbLine
 62
250
  6
CONTINUOUS
 10
-75.189134626
 20
27.9242448643
 11
-75.3411958487
 21
24.3109990644
  0
LINE
  5
419
100
AcDbEntity
  8
PORTELLO
100
AcDbLine
 62
7
  6
CONTINUOUS
 10
-69.7451377158
 20
24.4899856007
 11
-69.7197759379
 21
24.6453690383
  0
LINE
  5
41A
100
AcDbEntity
  8
PLACCA_PRT
100
AcDbLine
 62
7
  6
CONTINUOUS
 10
-68.9860785189
 20
30.852804433
 11
-69.0216560654
 21
30.6400682179
  0
LINE
  5
41B
100
AcDbEntity
  8
PORTELLO
100
AcDbLine
 62
7
  6
CONTINUOUS
 10
-69.7197759379
 20
24.6453690383
 11
-69.6929854791
 21
24.8007270738
  0
LINE
  5
41C
100
AcDbEntity
  8
PORTELLO
100
AcDbLine
 62
7
  6
CONTINUOUS
 10
-69.6929854791
 20
24.8007270738
 11
-69.6654348922
 21
24.9543762707
  0
LINE
  5
41D
100
AcDbEntity
  8
PORTELLO
100
AcDbLine
 62
7
  6
CONTINUOUS
 10
-69.6654348922
 20
24.9543762707
 11
-69.6370789337
 21
25.1066259917
  0
LWPOLYLINE
  5
41E
100
AcDbEntity
  8
PORTELLO
100
AcDbPolyline
 62
7
  6
CONTINUOUS
 90
17
 70
0
 10
-69.4762846613
 20
25.9141654512
 10
-69.4589129636
 20
26.0055844866
 10
-69.4416615977
 20
26.0993861614
 10
-69.4245794365
 20
26.1955105729
 10
-69.4082159449
 20
26.2938707199
 10
-69.392646951
 20
26.394608983
 10
-69.3777966266
 20
26.4975829817
 10
-69.3639869525
 20
26.6022785729
 10
-69.3512862851
 20
26.708714099
 10
-69.339626268
 20
26.8168712176
 10
-69.3291238128
 20
26.9261807584
 10
-69.3198097933
 20
27.0366419061
 10
-69.3116533358
 20
27.1482554759
 10
-69.3046787295
 20
27.2604547427
 10
-69.2988940711
 20
27.3730507981
 10
-69.2942912641
 20
27.4862325506
 10
-69.2908703084
 20
27.6
  0
LINE
  5
41F
100
AcDbEntity
  8
PORTELLO
100
AcDbLine
 62
7
  6
CONTINUOUS
 10
-69.6370789337
 20
25.1066259917
 11
-69.6078123524
 21
25.2583708059
  0
LWPOLYLINE
  5
420
100
AcDbEntity
  8
PLACCA_PRT
100
AcDbPolyline
 62
250
  6
CONTINUOUS
 90
13
 70
0
 10
-66.7234472401
 20
38.9070917744
 10
-66.7012511327
 20
39.0200087287
 10
-66.6662373654
 20
39.1296251493
 10
-66.61886966
 20
39.2344892784
 10
-66.5597753532
 20
39.3332122979
 10
-66.489737089
 20
39.4244867222
 10
-66.4096824524
 20
39.5071037147
 10
-66.3206716855
 20
39.5799690977
 10
-66.223883645
 20
39.6421178437
 10
-66.1206001896
 20
39.6927268559
 10
-66.0121892031
 20
39.7311258697
 10
-65.9000864785
 20
39.7568063294
 10
-65.7857767019
 20
39.7694281234
  0
LINE
  5
421
100
AcDbEntity
  8
PORTELLO
100
AcDbLine
 62
7
  6
CONTINUOUS
 10
-69.6078123524
 20
25.2583708059
 11
-69.5612499106
 21
25.4908915419
  0
LWPOLYLINE
  5
422
100
AcDbEntity
  8
PORTELLO
100
AcDbPolyline
 62
7
  6
CONTINUOUS
 90
3
 70
0
 10
-69.5612499106
 20
25.4908915419
 10
-69.5281259344
 20
25.653731283
 10
-69.4762846613
 20
25.9141654512
  0
LWPOLYLINE
  5
423
100
AcDbEntity
  8
PLACCA_PRT
100
AcDbPolyline
 62
250
  6
CONTINUOUS
 90
13
 70
0
 10
-66.7234442958
 20
-38.907091369
 10
-66.7012465326
 20
-39.0200058201
 10
-66.666231478
 20
-39.1296196064
 10
-66.6188628596
 20
-39.2344810404
 10
-66.559768011
 20
-39.3332013736
 10
-66.4897295641
 20
-39.4244731877
 10
-66.4096750841
 20
-39.5070877102
 10
-66.320664785
 20
-39.5799508229
 10
-66.2238774886
 20
-39.6420975517
 10
-66.1205950125
 20
-39.6927048468
 10
-66.0121851943
 20
-39.7311024825
 10
-65.9000837764
 20
-39.7567819337
 10
-65.7857753913
 20
-39.7694031107
  0
LWPOLYLINE
  5
424
100
AcDbEntity
  8
PLACCA_PRT
100
AcDbPolyline
 62
7
  6
CONTINUOUS
 90
17
 70
0
 10
-69.0356373595
 20
-30.5549339223
 10
-68.9982739641
 20
-30.7804964943
 10
-68.959182513
 20
-31.0101041933
 10
-68.9182842547
 20
-31.2438607223
 10
-68.8755419504
 20
-31.4816211233
 10
-68.8309717443
 20
-31.7229608334
 10
-68.784495254
 20
-31.9679812851
 10
-68.7360831546
 20
-32.2165148888
 10
-68.6858418307
 20
-32.4677311284
 10
-68.6337224829
 20
-32.7216206839
 10
-68.5796874355
 20
-32.9781145846
 10
-68.5238844629
 20
-33.2362948694
 10
-68.4662824847
 20
-33.4961230149
 10
-68.406851624
 20
-33.7575520618
 10
-68.3457686364
 20
-34.0196566676
 10
-68.2830228088
 20
-34.2823690082
 10
-68.2185914472
 20
-34.5456705029
  0
LINE
  5
425
100
AcDbEntity
  8
PLACCA_PRT
100
AcDbLine
 62
7
  6
CONTINUOUS
 10
-69.1053504943
 20
-30.1163481527
 11
-69.0356373595
 21
-30.5549339223
  0
LINE
  5
426
100
AcDbEntity
  8
PLACCA_PRT
100
AcDbLine
 62
7
  6
CONTINUOUS
 10
-69.1688678889
 20
-29.6937602661
 11
-69.1053504943
 21
-30.1163481527
  0
LINE
  5
427
100
AcDbEntity
  8
PLACCA_PRT
100
AcDbLine
 62
7
  6
CONTINUOUS
 10
-69.2269097541
 20
-29.2850038272
 11
-69.1688678889
 21
-29.6937602661
  0
LINE
  5
428
100
AcDbEntity
  8
PLACCA_PRT
100
AcDbLine
 62
7
  6
CONTINUOUS
 10
-69.2802259577
 20
-28.8869973671
 11
-69.2269097541
 21
-29.2850038272
  0
LINE
  5
429
100
AcDbEntity
  8
PLACCA_PRT
100
AcDbLine
 62
7
  6
CONTINUOUS
 10
-69.4371287121
 20
-27.541959117
 11
-69.396579293
 21
-27.9206764671
  0
LINE
  5
42A
100
AcDbEntity
  8
PLACCA_PRT
100
AcDbLine
 62
7
  6
CONTINUOUS
 10
-69.4737900444
 20
-27.1739240815
 11
-69.4371287121
 21
-27.541959117
  0
LINE
  5
42B
100
AcDbEntity
  8
PLACCA_PRT
100
AcDbLine
 62
7
  6
CONTINUOUS
 10
-69.5065104503
 20
-26.8195722981
 11
-69.4737900444
 21
-27.1739240815
  0
LINE
  5
42C
100
AcDbEntity
  8
PLACCA_PRT
100
AcDbLine
 62
7
  6
CONTINUOUS
 10
-69.535339248
 20
-26.4816570786
 11
-69.5065104503
 21
-26.8195722981
  0
LWPOLYLINE
  5
42D
100
AcDbEntity
  8
PLACCA_PRT
100
AcDbPolyline
 62
250
  6
CONTINUOUS
 90
20
 70
0
 10
-66.8337606869
 20
-39.1057581025
 10
-66.8338058699
 20
-39.105179035
 10
-66.833688979
 20
-39.104214484
 10
-66.8334127314
 20
-39.1028709789
 10
-66.8329621475
 20
-39.1012019887
 10
-66.8323507735
 20
-39.099196515
 10
-66.8315939598
 20
-39.0968623421
 10
-66.830673098
 20
-39.0942815904
 10
-66.8296068603
 20
-39.0914516759
 10
-66.8284196827
 20
-39.0883711151
 10
-66.8270948918
 20
-39.0851245333
 10
-66.8256538582
 20
-39.0817110858
 10
-66.824120489
 20
-39.0781278568
 10
-66.8224754684
 20
-39.0744573937
 10
-66.8207404619
 20
-39.0706928895
 10
-66.818941956
 20
-39.0668379119
 10
-66.8170657222
 20
-39.0629915304
 10
-66.8151350593
 20
-39.0591652994
 10
-66.8131840773
 20
-39.0553449347
 10
-66.811209768
 20
-39.0515917549
  0
LINE
  5
42E
100
AcDbEntity
  8
PLACCA_PRT
100
AcDbLine
 62
7
  6
CONTINUOUS
 10
-69.559885228
 20
-26.1696566389
 11
-69.535339248
 21
-26.4816570786
  0
LINE
  5
42F
100
AcDbEntity
  8
PLACCA_PRT
100
AcDbLine
 62
7
  6
CONTINUOUS
 10
-69.5801432976
 20
-25.8908102713
 11
-69.559885228
 21
-26.1696566389
  0
LINE
  5
430
100
AcDbEntity
  8
PLACCA_PRT
100
AcDbLine
 62
7
  6
CONTINUOUS
 10
-69.5930266921
 20
-25.7014374253
 11
-69.5801432976
 21
-25.8908102713
  0
LWPOLYLINE
  5
431
100
AcDbEntity
  8
PLACCA_PRT
100
AcDbPolyline
 62
250
  6
CONTINUOUS
 90
6
 70
0
 10
-69.5859946655
 20
-25.6011648663
 10
-69.5839709301
 20
-25.6609799419
 10
-69.5838224401
 20
-25.6689807772
 10
-69.5838459139
 20
-25.6751082744
 10
-69.5840296581
 20
-25.6792288754
 10
-69.584369156
 20
-25.6811396218
  0
LWPOLYLINE
  5
432
100
AcDbEntity
  8
PLACCA_PRT
100
AcDbPolyline
 62
250
  6
CONTINUOUS
 90
3
 70
0
 10
-69.5868312576
 20
-25.5696234427
 10
-69.5864448245
 20
-25.5859697561
 10
-69.5859946655
 20
-25.6011648663
  0
LINE
  5
433
100
AcDbEntity
  8
PLACCA_PRT
100
AcDbLine
 62
250
  6
CONTINUOUS
 10
-69.5874321762
 20
-25.5332132606
 11
-69.5868312576
 21
-25.5696234427
  0
LINE
  5
434
100
AcDbEntity
  8
PLACCA_PRT
100
AcDbLine
 62
250
  6
CONTINUOUS
 10
-69.5886885166
 20
23.5052036502
 11
-69.5821764439
 21
23.0903400406
  0
LINE
  5
435
100
AcDbEntity
  8
PLACCA_PRT
100
AcDbLine
 62
250
  6
CONTINUOUS
 10
-69.5924830092
 20
-24.8332461854
 11
-69.5888367974
 21
-25.1877702196
  0
LINE
  5
436
100
AcDbEntity
  8
PLACCA_PRT
100
AcDbLine
 62
250
  6
CONTINUOUS
 10
-69.5880404608
 20
-25.4714800005
 11
-69.5874321762
 21
-25.5332132606
  0
LINE
  5
437
100
AcDbEntity
  8
PLACCA_PRT
100
AcDbLine
 62
250
  6
CONTINUOUS
 10
-69.5821764439
 20
23.0903400406
 11
-69.5798637445
 21
22.8549374218
  0
LINE
  5
438
100
AcDbEntity
  8
PLACCA_PRT
100
AcDbLine
 62
250
  6
CONTINUOUS
 10
-69.5918925661
 20
23.8344311137
 11
-69.5886885166
 21
23.5052036502
  0
LINE
  5
439
100
AcDbEntity
  8
PLACCA_PRT
100
AcDbLine
 62
250
  6
CONTINUOUS
 10
-69.5937823293
 20
-24.583061451
 11
-69.5924830092
 21
-24.8332461854
  0
LINE
  5
43A
100
AcDbEntity
  8
PLACCA_PRT
100
AcDbLine
 62
250
  6
CONTINUOUS
 10
-69.5883579041
 20
-25.4059812774
 11
-69.5880404608
 21
-25.4714800005
  0
LINE
  5
43B
100
AcDbEntity
  8
PLACCA_PRT
100
AcDbLine
 62
250
  6
CONTINUOUS
 10
-69.5888367974
 20
-25.1877702196
 11
-69.5884424025
 21
-25.2668841758
  0
LINE
  5
43C
100
AcDbEntity
  8
PLACCA_PRT
100
AcDbLine
 62
250
  6
CONTINUOUS
 10
-69.5938643739
 20
24.2303112881
 11
-69.5918925661
 21
23.8344311137
  0
LINE
  5
43D
100
AcDbEntity
  8
PLACCA_PRT
100
AcDbLine
 62
250
  6
CONTINUOUS
 10
-69.5798637445
 20
22.8549374218
 11
-69.5786703658
 21
22.588843385
  0
LINE
  5
43E
100
AcDbEntity
  8
PLACCA_PRT
100
AcDbLine
 62
250
  6
CONTINUOUS
 10
-69.5854573267
 20
-20.6584242372
 11
-69.5788912646
 21
-22.3392363458
  0
LWPOLYLINE
  5
43F
100
AcDbEntity
  8
0
100
AcDbPolyline
 62
7
  6
CONTINUOUS
 90
2
 70
0
 43
0.3500000006
 10
-70.0433459473
 20
50.5191848602
 10
-70.0433459473
 20
52.019185318
  0
LINE
  5
440
100
AcDbEntity
  8
PORTELLO
100
AcDbLine
 62
7
  6
CONTINUOUS
 10
-69.7862032084
 20
-27.5
 11
-69.7862032084
 21
24.1
  0
LINE
  5
441
100
AcDbEntity
  8
PLACCA_PRT
100
AcDbLine
 62
7
  6
CONTINUOUS
 10
-69.7862032084
 20
30.3142494559
 11
-69.7862032084
 21
30.6
  0
LINE
  5
442
100
AcDbEntity
  8
PLACCA_PRT
100
AcDbLine
 62
250
  6
CONTINUOUS
 10
-69.5936019907
 20
-1.8235812298
 11
-69.5854573267
 21
-20.6584242372
  0
LINE
  5
443
100
AcDbEntity
  8
PLACCA_PRT
100
AcDbLine
 62
250
  6
CONTINUOUS
 10
-69.5884424025
 20
-25.2668841758
 11
-69.5883579041
 21
-25.4059812774
  0
LINE
  5
444
100
AcDbEntity
  8
PLACCA_PRT
100
AcDbLine
 62
250
  6
CONTINUOUS
 10
-69.5939258313
 20
-24.2591204494
 11
-69.5937823293
 21
-24.583061451
  0
LINE
  5
445
100
AcDbEntity
  8
PLACCA_PRT
100
AcDbLine
 62
250
  6
CONTINUOUS
 10
-69.5939086072
 20
24.5339759994
 11
-69.5938643739
 21
24.2303112881
  0
LINE
  5
446
100
AcDbEntity
  8
PLACCA_PRT
100
AcDbLine
 62
250
  6
CONTINUOUS
 10
-69.5788912646
 20
-22.3392363458
 11
-69.5787551881
 21
-22.6293510089
  0
LINE
  5
447
100
AcDbEntity
  8
PLACCA_PRT
100
AcDbLine
 62
250
  6
CONTINUOUS
 10
-69.5786703658
 20
22.588843385
 11
-69.5790972175
 21
22.2856880328
  0
LINE
  5
448
100
AcDbEntity
  8
PLACCA_PRT
100
AcDbLine
 62
250
  6
CONTINUOUS
 10
-69.5927620982
 20
24.7958228008
 11
-69.5939086072
 21
24.5339759994
  0
LINE
  5
449
100
AcDbEntity
  8
PLACCA_PRT
100
AcDbLine
 62
250
  6
CONTINUOUS
 10
-69.5790972175
 20
22.2856880328
 11
-69.5936019907
 21
-1.8235812298
  0
LINE
  5
44A
100
AcDbEntity
  8
PLACCA_PRT
100
AcDbLine
 62
250
  6
CONTINUOUS
 10
-69.5922410065
 20
-23.8821059591
 11
-69.5939258313
 21
-24.2591204494
  0
LINE
  5
44B
100
AcDbEntity
  8
PLACCA_PRT
100
AcDbLine
 62
250
  6
CONTINUOUS
 10
-69.5787551881
 20
-22.6293510089
 11
-69.5800083322
 21
-22.8750738419
  0
LINE
  5
44C
100
AcDbEntity
  8
PLACCA_PRT
100
AcDbLine
 62
250
  6
CONTINUOUS
 10
-69.5920728594
 20
24.885808015
 11
-69.5927620982
 21
24.7958228008
  0
LINE
  5
44D
100
AcDbEntity
  8
PLACCA_PRT
100
AcDbLine
 62
250
  6
CONTINUOUS
 10
-69.5890980401
 20
-23.5412502476
 11
-69.5922410065
 21
-23.8821059591
  0
LINE
  5
44E
100
AcDbEntity
  8
PLACCA_PRT
100
AcDbLine
 62
250
  6
CONTINUOUS
 10
-69.5800083322
 20
-22.8750738419
 11
-69.5821213824
 21
-23.0864885012
  0
LINE
  5
44F
100
AcDbEntity
  8
PLACCA_PRT
100
AcDbLine
 62
250
  6
CONTINUOUS
 10
-69.5873981838
 20
-23.4102852094
 11
-69.5890980401
 21
-23.5412502476
  0
LINE
  5
450
100
AcDbEntity
  8
PLACCA_PRT
100
AcDbLine
 62
250
  6
CONTINUOUS
 10
-69.5821213824
 20
-23.0864885012
 11
-69.5873981838
 21
-23.4102852094
  0
LWPOLYLINE
  5
451
100
AcDbEntity
  8
PORTELLO
100
AcDbPolyline
 62
7
  6
CONTINUOUS
 90
35
 70
0
 10
-69.2908703084
 20
27.6
 10
-69.2883080333
 20
27.7265496227
 10
-69.2885496401
 20
27.852971388
 10
-69.2915951286
 20
27.9790246199
 10
-69.297164067
 20
28.1046102297
 10
-69.3055368871
 20
28.2293451334
 10
-69.3175548849
 20
28.3525680079
 10
-69.3333629467
 20
28.4741779767
 10
-69.3528161861
 20
28.5938191839
 10
-69.3763212408
 20
28.7104926219
 10
-69.4039459335
 20
28.8237043533
 10
-69.4356224414
 20
28.9336333179
 10
-69.4715539335
 20
29.0403299108
 10
-69.511690745
 20
29.1433096181
 10
-69.5560825408
 20
29.2428081879
 10
-69.6050814843
 20
29.3398684869
 10
-69.6587663226
 20
29.4343366298
 10
-69.7170583086
 20
29.5259549258
 10
-69.7800733641
 20
29.6154242821
 10
-69.8480019379
 20
29.7024122831
 10
-69.9206535812
 20
29.7866397717
 10
-69.9975728697
 20
29.8686632341
 10
-70.079579308
 20
29.9482632762
 10
-70.1658533915
 20
30.0247019164
 10
-70.2534811823
 20
30.0976239635
 10
-70.3431958777
 20
30.1667454438
 10
-70.4342642804
 20
30.2313080806
 10
-70.5215728602
 20
30.2904384412
 10
-70.6050629185
 20
30.3437825257
 10
-70.6847931539
 20
30.3910759814
 10
-70.7558261318
 20
30.4319544899
 10
-70.8176418345
 20
30.4666812953
 10
-70.8707602796
 20
30.4945853416
 10
-70.9118040862
 20
30.514956468
 10
-70.9554161961
 20
30.5360618515
  0
LWPOLYLINE
  5
452
100
AcDbEntity
  8
PORTELLO
100
AcDbPolyline
 62
7
  6
CONTINUOUS
 90
6
 70
0
 10
-69.7862032084
 20
24.1
 10
-69.7817735329
 20
24.1784480235
 10
-69.7755384089
 20
24.2566870347
 10
-69.7674978363
 20
24.3347170335
 10
-69.7572205003
 20
24.4124558233
 10
-69.7451377158
 20
24.4899856007
  0
LWPOLYLINE
  5
453
100
AcDbEntity
  8
PLACCA_PRT
100
AcDbPolyline
 62
7
  6
CONTINUOUS
 90
9
 70
0
 10
-69.2749605766
 20
25.2868753402
 10
-69.2604646001
 20
25.5285751861
 10
-69.2440831566
 20
25.7730566224
 10
-69.2258162461
 20
26.0203196493
 10
-69.2057877805
 20
26.2689683858
 10
-69.1838738479
 20
26.5203987129
 10
-69.1597027125
 20
26.7787982735
 10
-69.1331504626
 20
27.0455629487
 10
-69.1043410101
 20
27.3192968576
  0
LWPOLYLINE
  5
454
100
AcDbEntity
  8
PLACCA_PRT
100
AcDbPolyline
 62
7
  6
CONTINUOUS
 90
20
 70
0
 10
-68.8392436586
 20
30.1165310005
 10
-68.8354387546
 20
30.1730910638
 10
-68.8322869135
 20
30.2256550424
 10
-68.8297360382
 20
30.2742932545
 10
-68.8277058793
 20
30.3196604407
 10
-68.8261757449
 20
30.3617996226
 10
-68.825166327
 20
30.4007598547
 10
-68.8246594525
 20
30.4370184998
 10
-68.8246488601
 20
30.4706527971
 10
-68.8251408112
 20
30.5014821993
 10
-68.8261359159
 20
30.5294950123
 10
-68.8276606888
 20
30.5546693009
 10
-68.8296886153
 20
30.5769376662
 10
-68.8321407631
 20
30.59623263
 10
-68.8350037754
 20
30.6125368794
 10
-68.8382910089
 20
30.6258344891
 10
-68.8419636013
 20
30.6360984202
 10
-68.8460085986
 20
30.6433338695
 10
-68.8504389549
 20
30.6475592101
 10
-68.8552546702
 20
30.6487889455
  0
LINE
  5
455
100
AcDbEntity
  8
PLACCA_PRT
100
AcDbLine
 62
7
  6
CONTINUOUS
 10
-68.8539973656
 20
29.9186079471
 11
-68.8392436586
 21
30.1165310005
  0
LINE
  5
456
100
AcDbEntity
  8
PLACCA_PRT
100
AcDbLine
 62
7
  6
CONTINUOUS
 10
-68.8893961162
 20
29.4604873042
 11
-68.8539973656
 21
29.9186079471
  0
LINE
  5
457
100
AcDbEntity
  8
PLACCA_PRT
100
AcDbLine
 62
7
  6
CONTINUOUS
 10
-68.9217249503
 20
29.0825595559
 11
-68.8893961162
 21
29.4604873042
  0
LINE
  5
458
100
AcDbEntity
  8
PLACCA_PRT
100
AcDbLine
 62
7
  6
CONTINUOUS
 10
-68.9217249503
 20
29.0825595559
 11
-68.9660680948
 21
28.6128182584
  0
LINE
  5
459
100
AcDbEntity
  8
PLACCA_PRT
100
AcDbLine
 62
7
  6
CONTINUOUS
 10
-68.9660680948
 20
28.6128182584
 11
-68.9993094597
 21
28.2824505724
  0
LINE
  5
45A
100
AcDbEntity
  8
PLACCA_PRT
100
AcDbLine
 62
7
  6
CONTINUOUS
 10
-68.9993094597
 20
28.2824505724
 11
-69.0350805432
 21
27.943376212
  0
LINE
  5
45B
100
AcDbEntity
  8
PLACCA_PRT
100
AcDbLine
 62
7
  6
CONTINUOUS
 10
-69.0350805432
 20
27.943376212
 11
-69.1043410101
 21
27.3192968576
  0
LINE
  5
45C
100
AcDbEntity
  8
PLACCA_PRT
100
AcDbLine
 62
7
  6
CONTINUOUS
 10
-69.3293526631
 20
-28.49750685
 11
-69.2802259577
 21
-28.8869973671
  0
LINE
  5
45D
100
AcDbEntity
  8
PLACCA_PRT
100
AcDbLine
 62
7
  6
CONTINUOUS
 10
-69.3750457426
 20
-28.1117098983
 11
-69.3293526631
 21
-28.49750685
  0
LINE
  5
45E
100
AcDbEntity
  8
PLACCA_PRT
100
AcDbLine
 62
7
  6
CONTINUOUS
 10
-69.3965683525
 20
-27.9207751812
 11
-69.3750457426
 21
-28.1117098983
  0
LINE
  5
45F
100
AcDbEntity
  8
PLACCA_PRT
100
AcDbLine
 62
250
  6
CONTINUOUS
 10
-65.8009678108
 20
-37.0
 11
-65.8095883406
 21
-36.8276538856
  0
LINE
  5
460
100
AcDbEntity
  8
PLACCA_PRT
100
AcDbLine
 62
250
  6
CONTINUOUS
 10
-65.8095883406
 20
-36.8276538856
 11
-65.8166567109
 21
-36.6698492917
  0
LINE
  5
461
100
AcDbEntity
  8
PLACCA_PRT
100
AcDbLine
 62
250
  6
CONTINUOUS
 10
-66.7314319256
 20
-37.1874959003
 11
-66.7452287866
 21
-36.8741051418
  0
LINE
  5
462
100
AcDbEntity
  8
PLACCA_PRT
100
AcDbLine
 62
250
  6
CONTINUOUS
 10
-66.7262456075
 20
-37.3228615018
 11
-66.7314319256
 21
-37.1874959003
  0
LINE
  5
463
100
AcDbEntity
  8
PLACCA_PRT
100
AcDbLine
 62
250
  6
CONTINUOUS
 10
-65.8166567109
 20
-36.6698492917
 11
-65.8223161304
 21
-36.5262976283
  0
LINE
  5
464
100
AcDbEntity
  8
PLACCA_PRT
100
AcDbLine
 62
250
  6
CONTINUOUS
 10
-66.7452287866
 20
-36.8741051418
 11
-66.7513977183
 21
-36.7110542046
  0
LINE
  5
465
100
AcDbEntity
  8
PLACCA_PRT
100
AcDbLine
 62
250
  6
CONTINUOUS
 10
-65.8223161304
 20
-36.5262976283
 11
-65.8266880585
 21
-36.397340379
  0
LINE
  5
466
100
AcDbEntity
  8
PLACCA_PRT
100
AcDbLine
 62
250
  6
CONTINUOUS
 10
-66.7513977183
 20
-36.7110542046
 11
-66.7546607351
 21
-36.6101708585
  0
LINE
  5
467
100
AcDbEntity
  8
PLACCA_PRT
100
AcDbLine
 62
250
  6
CONTINUOUS
 10
-66.7179211199
 20
-37.5885761399
 11
-66.7262456075
 21
-37.3228615018
  0
LINE
  5
468
100
AcDbEntity
  8
PLACCA_PRT
100
AcDbLine
 62
250
  6
CONTINUOUS
 10
-65.7888622584
 20
-37.4121768093
 11
-65.8009678108
 21
-37.0
  0
LINE
  5
469
100
AcDbEntity
  8
PLACCA_PRT
100
AcDbLine
 62
250
  6
CONTINUOUS
 10
-66.7546607351
 20
-36.6101708585
 11
-66.7572788632
 21
-36.5158096681
  0
LINE
  5
46A
100
AcDbEntity
  8
PLACCA_PRT
100
AcDbLine
 62
250
  6
CONTINUOUS
 10
-65.8266880585
 20
-36.397340379
 11
-65.8299937621
 21
-36.2796931924
  0
LINE
  5
46B
100
AcDbEntity
  8
PLACCA_PRT
100
AcDbLine
 62
250
  6
CONTINUOUS
 10
-66.7572788632
 20
-36.5158096681
 11
-66.7592985121
 21
-36.4276169286
  0
LINE
  5
46C
100
AcDbEntity
  8
PLACCA_PRT
100
AcDbLine
 62
250
  6
CONTINUOUS
 10
-66.7119373005
 20
-37.8428201713
 11
-66.7179211199
 21
-37.5885761399
  0
LINE
  5
46D
100
AcDbEntity
  8
PLACCA_PRT
100
AcDbLine
 62
250
  6
CONTINUOUS
 10
-65.7795908811
 20
-37.8154952692
 11
-65.7888622584
 21
-37.4121768093
  0
LINE
  5
46E
100
AcDbEntity
  8
PLACCA_PRT
100
AcDbLine
 62
250
  6
CONTINUOUS
 10
-65.8299937621
 20
-36.2796931924
 11
-65.8324227089
 21
-36.1682481256
  0
LINE
  5
46F
100
AcDbEntity
  8
PLACCA_PRT
100
AcDbLine
 62
250
  6
CONTINUOUS
 10
-66.7592985121
 20
-36.4276169286
 11
-66.7607684515
 21
-36.344426438
  0
LINE
  5
470
100
AcDbEntity
  8
PLACCA_PRT
100
AcDbLine
 62
250
  6
CONTINUOUS
 10
-65.7730037806
 20
-38.2008969482
 11
-65.7795908811
 21
-37.8154952692
  0
LINE
  5
471
100
AcDbEntity
  8
PLACCA_PRT
100
AcDbLine
 62
250
  6
CONTINUOUS
 10
-66.7079255869
 20
-38.0801156737
 11
-66.7119373005
 21
-37.8428201713
  0
LINE
  5
472
100
AcDbEntity
  8
PLACCA_PRT
100
AcDbLine
 62
250
  6
CONTINUOUS
 10
-65.8324227089
 20
-36.1682481256
 11
-65.8345989954
 21
-36.0207383005
  0
LWPOLYLINE
  5
473
100
AcDbEntity
  8
PLACCA_PRT
100
AcDbPolyline
 62
250
  6
CONTINUOUS
 90
8
 70
0
 10
-65.7663818905
 20
39.3995227313
 10
-65.7676003806
 20
39.4963265308
 10
-65.7692710997
 20
39.5790605404
 10
-65.7714157157
 20
39.6473072965
 10
-65.774129097
 20
39.7007131093
 10
-65.7774428666
 20
39.7389908799
 10
-65.7813254015
 20
39.7619344928
 10
-65.7857767019
 20
39.7694281234
  0
LINE
  5
474
100
AcDbEntity
  8
PLACCA_PRT
100
AcDbLine
 62
250
  6
CONTINUOUS
 10
-65.8345989954
 20
-36.0207383005
 11
-65.8667438519
 21
-33.4540421442
  0
LINE
  5
475
100
AcDbEntity
  8
PLACCA_PRT
100
AcDbLine
 62
250
  6
CONTINUOUS
 10
-65.8667438519
 20
-33.4540421442
 11
-65.8716641554
 21
-33.0258960061
  0
LINE
  5
476
100
AcDbEntity
  8
PLACCA_PRT
100
AcDbLine
 62
250
  6
CONTINUOUS
 10
-65.7685542256
 20
-38.5597799753
 11
-65.7730037806
 21
-38.2008969482
  0
LINE
  5
477
100
AcDbEntity
  8
PLACCA_PRT
100
AcDbLine
 62
250
  6
CONTINUOUS
 10
-66.7607684515
 20
-36.344426438
 11
-66.7617265501
 21
-36.2642454875
  0
LINE
  5
478
100
AcDbEntity
  8
PLACCA_PRT
100
AcDbLine
 62
250
  6
CONTINUOUS
 10
-65.8716641554
 20
-33.0258960061
 11
-65.8848706339
 21
-31.7371381939
  0
LINE
  5
479
100
AcDbEntity
  8
PLACCA_PRT
100
AcDbLine
 62
250
  6
CONTINUOUS
 10
-66.7056609852
 20
-38.295200595
 11
-66.7079255869
 21
-38.0801156737
  0
LINE
  5
47A
100
AcDbEntity
  8
PLACCA_PRT
100
AcDbLine
 62
250
  6
CONTINUOUS
 10
-66.7869560111
 20
-33.3621138434
 11
-66.7911631982
 21
-32.8052391539
  0
LINE
  5
47B
100
AcDbEntity
  8
PLACCA_PRT
100
AcDbLine
 62
250
  6
CONTINUOUS
 10
-65.8848706339
 20
-31.7371381939
 11
-65.8952950962
 21
-30.4484006612
  0
LINE
  5
47C
100
AcDbEntity
  8
PLACCA_PRT
100
AcDbLine
 62
250
  6
CONTINUOUS
 10
-65.7660325846
 20
-38.8839456596
 11
-65.7685542256
 21
-38.5597799753
  0
LINE
  5
47D
100
AcDbEntity
  8
PLACCA_PRT
100
AcDbLine
 62
250
  6
CONTINUOUS
 10
-66.7624467714
 20
-36.0708434444
 11
-66.7869560111
 21
-33.3621138434
  0
LINE
  5
47E
100
AcDbEntity
  8
PLACCA_PRT
100
AcDbLine
 62
250
  6
CONTINUOUS
 10
-66.7911631982
 20
-32.8052391539
 11
-66.8004644888
 21
-31.289654394
  0
LINE
  5
47F
100
AcDbEntity
  8
PLACCA_PRT
100
AcDbLine
 62
250
  6
CONTINUOUS
 10
-66.7617265501
 20
-36.2642454875
 11
-66.7622226399
 21
-36.186062587
  0
LINE
  5
480
100
AcDbEntity
  8
PLACCA_PRT
100
AcDbLine
 62
250
  6
CONTINUOUS
 10
-65.8952950962
 20
-30.4484006612
 11
-65.9032544792
 21
-29.1016200554
  0
LINE
  5
481
100
AcDbEntity
  8
PLACCA_PRT
100
AcDbLine
 62
250
  6
CONTINUOUS
 10
-66.8004644888
 20
-31.289654394
 11
-66.8070092105
 21
-29.7133265287
  0
LWPOLYLINE
  5
482
100
AcDbEntity
  8
PLACCA_PRT
100
AcDbPolyline
 62
250
  6
CONTINUOUS
 90
10
 70
0
 10
-66.7050205261
 20
38.483426522
 10
-66.7052930633
 20
38.5661561687
 10
-66.7059659981
 20
38.6407201884
 10
-66.7070478397
 20
38.7066944331
 10
-66.7085487349
 20
38.7637126043
 10
-66.7104948776
 20
38.8115335103
 10
-66.7129195794
 20
38.8499473298
 10
-66.7158565732
 20
38.878746182
 10
-66.7193481098
 20
38.8978077352
 10
-66.7234442953
 20
38.9070913689
  0
LINE
  5
483
100
AcDbEntity
  8
PLACCA_PRT
100
AcDbLine
 62
250
  6
CONTINUOUS
 10
-65.9032544792
 20
-29.1016200554
 11
-65.9095391635
 21
-27.4861229995
  0
LINE
  5
484
100
AcDbEntity
  8
PLACCA_PRT
100
AcDbLine
 62
250
  6
CONTINUOUS
 10
-65.7653367365
 20
39.1660050557
 11
-65.7663818905
 21
39.3995227313
  0
LINE
  5
485
100
AcDbEntity
  8
PLACCA_PRT
100
AcDbLine
 62
250
  6
CONTINUOUS
 10
-65.9095391635
 20
-27.4861229995
 11
-65.9193834965
 21
-23.2043195535
  0
LINE
  5
486
100
AcDbEntity
  8
PLACCA_PRT
100
AcDbLine
 62
250
  6
CONTINUOUS
 10
-66.8070092105
 20
-29.7133265287
 11
-66.8117805291
 21
-27.7388278844
  0
LINE
  5
487
100
AcDbEntity
  8
PLACCA_PRT
100
AcDbLine
 62
250
  6
CONTINUOUS
 10
-65.9193834965
 20
-23.2043195535
 11
-65.9279941772
 21
-18.1036087153
  0
LINE
  5
488
100
AcDbEntity
  8
PLACCA_PRT
100
AcDbLine
 62
250
  6
CONTINUOUS
 10
-66.8117805291
 20
-27.7388278844
 11
-66.8195587706
 21
-21.6739276069
  0
LINE
  5
489
100
AcDbEntity
  8
PLACCA_PRT
100
AcDbLine
 62
250
  6
CONTINUOUS
 10
-65.9279941772
 20
-18.1036087153
 11
-65.9342022157
 21
-12.5020154388
  0
LINE
  5
48A
100
AcDbEntity
  8
PLACCA_PRT
100
AcDbLine
 62
250
  6
CONTINUOUS
 10
-65.7653367365
 20
-39.1660050557
 11
-65.7660325846
 21
-38.8839456596
  0
LINE
  5
48B
100
AcDbEntity
  8
PLACCA_PRT
100
AcDbLine
 62
250
  6
CONTINUOUS
 10
-66.7622226399
 20
-36.186062587
 11
-66.7624467714
 21
-36.0708434444
  0
LINE
  5
48C
100
AcDbEntity
  8
PLACCA_PRT
100
AcDbLine
 62
250
  6
CONTINUOUS
 10
-66.8195587706
 20
-21.6739276069
 11
-66.8250586597
 21
-14.9143780926
  0
LINE
  5
48D
100
AcDbEntity
  8
PLACCA_PRT
100
AcDbLine
 62
250
  6
CONTINUOUS
 10
-65.9342022157
 20
-12.5020154388
 11
-65.9377541186
 21
-6.0972443399
  0
LINE
  5
48E
100
AcDbEntity
  8
PLACCA_PRT
100
AcDbLine
 62
250
  6
CONTINUOUS
 10
-66.8250586597
 20
-14.9143780926
 11
-66.8281513787
 21
-6.8826685313
  0
LINE
  5
48F
100
AcDbEntity
  8
PLACCA_PRT
100
AcDbLine
 62
250
  6
CONTINUOUS
 10
-66.8281513787
 20
-6.8826685313
 11
-66.8286677638
 21
2.8348089444
  0
LINE
  5
490
100
AcDbEntity
  8
PLACCA_PRT
100
AcDbLine
 62
250
  6
CONTINUOUS
 10
-65.9377541186
 20
-6.0972443399
 11
-65.9385190652
 21
1.9144927114
  0
LINE
  5
491
100
AcDbEntity
  8
PLACCA_PRT
100
AcDbLine
 62
250
  6
CONTINUOUS
 10
-66.8286677638
 20
2.8348089444
 11
-66.8267828128
 21
11.4669371513
  0
LINE
  5
492
100
AcDbEntity
  8
PLACCA_PRT
100
AcDbLine
 62
250
  6
CONTINUOUS
 10
-65.9385190652
 20
1.9144927114
 11
-65.9363621478
 21
9.3583563486
  0
LINE
  5
493
100
AcDbEntity
  8
PLACCA_PRT
100
AcDbLine
 62
250
  6
CONTINUOUS
 10
-66.8267828128
 20
11.4669371513
 11
-66.8213594977
 21
19.8317473525
  0
LINE
  5
494
100
AcDbEntity
  8
PLACCA_PRT
100
AcDbLine
 62
250
  6
CONTINUOUS
 10
-65.9363621478
 20
9.3583563486
 11
-65.9315998455
 21
15.2112307411
  0
LINE
  5
495
100
AcDbEntity
  8
PLACCA_PRT
100
AcDbLine
 62
250
  6
CONTINUOUS
 10
-66.8213594977
 20
19.8317473525
 11
-66.8130588617
 21
26.9352829609
  0
LINE
  5
496
100
AcDbEntity
  8
PLACCA_PRT
100
AcDbLine
 62
250
  6
CONTINUOUS
 10
-65.9315998455
 20
15.2112307411
 11
-65.9224875694
 21
21.5603877334
  0
LINE
  5
497
100
AcDbEntity
  8
PLACCA_PRT
100
AcDbLine
 62
250
  6
CONTINUOUS
 10
-65.9224875694
 20
21.5603877334
 11
-65.9125342127
 21
26.3764519394
  0
LINE
  5
498
100
AcDbEntity
  8
PLACCA_PRT
100
AcDbLine
 62
250
  6
CONTINUOUS
 10
-66.8130588617
 20
26.9352829609
 11
-66.8054913972
 21
30.1481047404
  0
LINE
  5
499
100
AcDbEntity
  8
PLACCA_PRT
100
AcDbLine
 62
250
  6
CONTINUOUS
 10
-65.7660325844
 20
38.8839456596
 11
-65.7653367365
 21
39.1660050557
  0
LINE
  5
49A
100
AcDbEntity
  8
PLACCA_PRT
100
AcDbLine
 62
250
  6
CONTINUOUS
 10
-65.9125342127
 20
26.3764519394
 11
-65.9051984208
 21
28.6793556877
  0
LINE
  5
49B
100
AcDbEntity
  8
PLACCA_PRT
100
AcDbLine
 62
250
  6
CONTINUOUS
 10
-66.7625675564
 20
36.0609140872
 11
-66.76202566
 21
36.2247226238
  0
LINE
  5
49C
100
AcDbEntity
  8
PLACCA_PRT
100
AcDbLine
 62
250
  6
CONTINUOUS
 10
-66.7056609846
 20
38.2952006713
 11
-66.7050205261
 21
38.483426522
  0
LINE
  5
49D
100
AcDbEntity
  8
PLACCA_PRT
100
AcDbLine
 62
250
  6
CONTINUOUS
 10
-66.8054913972
 20
30.1481047404
 11
-66.7983498654
 21
31.6829963416
  0
LINE
  5
49E
100
AcDbEntity
  8
PLACCA_PRT
100
AcDbLine
 62
250
  6
CONTINUOUS
 10
-65.9051984208
 20
28.6793556877
 11
-65.8973593092
 21
30.1419729212
  0
LINE
  5
49F
100
AcDbEntity
  8
PLACCA_PRT
100
AcDbLine
 62
250
  6
CONTINUOUS
 10
-66.7983498654
 20
31.6829963416
 11
-66.7878873256
 21
33.2432313073
  0
LINE
  5
4A0
100
AcDbEntity
  8
PLACCA_PRT
100
AcDbLine
 62
250
  6
CONTINUOUS
 10
-65.8973593092
 20
30.1419729212
 11
-65.8868183034
 21
31.5208182169
  0
LINE
  5
4A1
100
AcDbEntity
  8
PLACCA_PRT
100
AcDbLine
 62
250
  6
CONTINUOUS
 10
-65.7685542259
 20
38.5597799753
 11
-65.7660325844
 21
38.8839456596
  0
LINE
  5
4A2
100
AcDbEntity
  8
PLACCA_PRT
100
AcDbLine
 62
250
  6
CONTINUOUS
 10
-66.7878873256
 20
33.2432313073
 11
-66.7662942381
 21
35.6714165218
  0
LINE
  5
4A3
100
AcDbEntity
  8
PLACCA_PRT
100
AcDbLine
 62
250
  6
CONTINUOUS
 10
-66.76202566
 20
36.2247226238
 11
-66.7612072791
 21
36.3122297068
  0
LINE
  5
4A4
100
AcDbEntity
  8
PLACCA_PRT
100
AcDbLine
 62
250
  6
CONTINUOUS
 10
-65.8868183034
 20
31.5208182169
 11
-65.8732180382
 21
32.8863052656
  0
LINE
  5
4A5
100
AcDbEntity
  8
PLACCA_PRT
100
AcDbLine
 62
250
  6
CONTINUOUS
 10
-66.7662942381
 20
35.6714165218
 11
-66.7625675564
 21
36.0609140872
  0
LINE
  5
4A6
100
AcDbEntity
  8
PLACCA_PRT
100
AcDbLine
 62
250
  6
CONTINUOUS
 10
-66.7079255858
 20
38.0801157567
 11
-66.7056609846
 21
38.2952006713
  0
LINE
  5
4A7
100
AcDbEntity
  8
PLACCA_PRT
100
AcDbLine
 62
250
  6
CONTINUOUS
 10
-65.8732180382
 20
32.8863052656
 11
-65.8464166882
 21
35.0956039866
  0
LINE
  5
4A8
100
AcDbEntity
  8
PLACCA_PRT
100
AcDbLine
 62
250
  6
CONTINUOUS
 10
-65.7730037817
 20
38.2008969481
 11
-65.7685542259
 21
38.5597799753
  0
LINE
  5
4A9
100
AcDbEntity
  8
PLACCA_PRT
100
AcDbLine
 62
250
  6
CONTINUOUS
 10
-65.8464166882
 20
35.0956039866
 11
-65.8324790083
 21
36.1648771892
  0
LINE
  5
4AA
100
AcDbEntity
  8
PLACCA_PRT
100
AcDbLine
 62
250
  6
CONTINUOUS
 10
-66.7612072791
 20
36.3122297068
 11
-66.7597109156
 21
36.4066280404
  0
LINE
  5
4AB
100
AcDbEntity
  8
PLACCA_PRT
100
AcDbLine
 62
250
  6
CONTINUOUS
 10
-65.779590879
 20
37.8154952692
 11
-65.7730037817
 21
38.2008969481
  0
LINE
  5
4AC
100
AcDbEntity
  8
PLACCA_PRT
100
AcDbLine
 62
250
  6
CONTINUOUS
 10
-66.7119372988
 20
37.8428202643
 11
-66.7079255858
 21
38.0801157567
  0
LINE
  5
4AD
100
AcDbEntity
  8
PLACCA_PRT
100
AcDbLine
 62
250
  6
CONTINUOUS
 10
-65.8324790083
 20
36.1648771892
 11
-65.8308140303
 21
36.245535803
  0
LINE
  5
4AE
100
AcDbEntity
  8
PLACCA_PRT
100
AcDbLine
 62
250
  6
CONTINUOUS
 10
-66.7597109156
 20
36.4066280404
 11
-66.7574556234
 21
36.5087860642
  0
LINE
  5
4AF
100
AcDbEntity
  8
PLACCA_PRT
100
AcDbLine
 62
250
  6
CONTINUOUS
 10
-65.7888622555
 20
37.4121768093
 11
-65.779590879
 21
37.8154952692
  0
LINE
  5
4B0
100
AcDbEntity
  8
PLACCA_PRT
100
AcDbLine
 62
250
  6
CONTINUOUS
 10
-66.7179211156
 20
37.5885762813
 11
-66.7119372988
 21
37.8428202643
  0
LINE
  5
4B1
100
AcDbEntity
  8
PLACCA_PRT
100
AcDbLine
 62
250
  6
CONTINUOUS
 10
-65.8308140303
 20
36.245535803
 11
-65.8286325885
 21
36.3312437235
  0
LINE
  5
4B2
100
AcDbEntity
  8
PLACCA_PRT
100
AcDbLine
 62
250
  6
CONTINUOUS
 10
-66.7574556234
 20
36.5087860642
 11
-66.7544172951
 21
36.6182215305
  0
LINE
  5
4B3
100
AcDbEntity
  8
PLACCA_PRT
100
AcDbLine
 62
250
  6
CONTINUOUS
 10
-65.8286325885
 20
36.3312437235
 11
-65.8258046194
 21
36.425274122
  0
LINE
  5
4B4
100
AcDbEntity
  8
PLACCA_PRT
100
AcDbLine
 62
250
  6
CONTINUOUS
 10
-65.8009678108
 20
37.0
 11
-65.7888622555
 21
37.4121768093
  0
LINE
  5
4B5
100
AcDbEntity
  8
PLACCA_PRT
100
AcDbLine
 62
250
  6
CONTINUOUS
 10
-66.7544172951
 20
36.6182215305
 11
-66.7506030891
 21
36.7337489112
  0
LINE
  5
4B6
100
AcDbEntity
  8
PLACCA_PRT
100
AcDbLine
 62
250
  6
CONTINUOUS
 10
-65.8258046194
 20
36.425274122
 11
-65.820279973
 21
36.5802933431
  0
LWPOLYLINE
  5
4B7
100
AcDbEntity
  8
PLACCA_PRT
100
AcDbPolyline
 62
250
  6
CONTINUOUS
 90
3
 70
0
 10
-66.7314319249
 20
37.1874959259
 10
-66.726245604
 20
37.3228616054
 10
-66.7179211156
 20
37.5885762813
  0
LINE
  5
4B8
100
AcDbEntity
  8
PLACCA_PRT
100
AcDbLine
 62
250
  6
CONTINUOUS
 10
-66.7506030891
 20
36.7337489112
 11
-66.7459888391
 21
36.8553905267
  0
LWPOLYLINE
  5
4B9
100
AcDbEntity
  8
PLACCA_PRT
100
AcDbPolyline
 62
250
  6
CONTINUOUS
 90
3
 70
0
 10
-66.7459888391
 20
36.8553905267
 10
-66.740496048
 20
36.9843919223
 10
-66.7314319249
 20
37.1874959259
  0
LINE
  5
4BA
100
AcDbEntity
  8
PLACCA_PRT
100
AcDbLine
 62
250
  6
CONTINUOUS
 10
-65.820279973
 20
36.5802933431
 11
-65.8131854285
 21
36.7497374034
  0
LWPOLYLINE
  5
4BB
100
AcDbEntity
  8
PLACCA_PRT
100
AcDbPolyline
 62
250
  6
CONTINUOUS
 90
3
 70
0
 10
-65.8131854285
 20
36.7497374034
 10
-65.8043295144
 20
36.9346895642
 10
-65.8009678108
 20
37.0
  0
LINE
  5
4BC
100
AcDbEntity
  8
PLACCA_PRT
100
AcDbLine
 62
7
  6
CONTINUOUS
 10
-63.3862032084
 20
3.5
 11
-63.3862032084
 21
-3.5
  0
LINE
  5
4BD
100
AcDbEntity
  8
PLACCA_PRT
100
AcDbLine
 62
7
  6
CONTINUOUS
 10
-61.3862032084
 20
-40.0
 11
-61.3862032084
 21
-3.6749773271
  0
LINE
  5
4BE
100
AcDbEntity
  8
PLACCA_PRT
100
AcDbLine
 62
7
  6
CONTINUOUS
 10
-61.3862032084
 20
3.6749773271
 11
-61.3862032084
 21
40.0
  0
LWPOLYLINE
  5
4BF
100
AcDbEntity
  8
PLACCA_PRT
100
AcDbPolyline
 62
250
  6
CONTINUOUS
 90
18
 70
0
 10
-69.5920244565
 20
-25.6979430258
 10
-69.5921378607
 20
-25.6982580235
 10
-69.5922455939
 20
-25.6985618265
 10
-69.5923473234
 20
-25.6988536917
 10
-69.5924428092
 20
-25.6991331293
 10
-69.5925317396
 20
-25.6993994218
 10
-69.5926138592
 20
-25.6996519842
 10
-69.5926890161
 20
-25.6998905293
 10
-69.5927569618
 20
-25.7001144405
 10
-69.5928175221
 20
-25.7003232943
 10
-69.5928706393
 20
-25.7005170434
 10
-69.5929161509
 20
-25.7006952428
 10
-69.5929539445
 20
-25.700857566
 10
-69.5929840146
 20
-25.7010040748
 10
-69.5930063083
 20
-25.7011345348
 10
-69.59302085
 20
-25.7012489244
 10
-69.593027742
 20
-25.7013475841
 10
-69.593026736
 20
-25.7014367396
  0
LINE
  5
4C0
100
AcDbEntity
  8
PLACCA_PRT
100
AcDbLine
 62
250
  6
CONTINUOUS
 10
-69.5917820118
 20
-25.6972824375
 11
-69.5919057432
 21
-25.6976176335
  0
LWPOLYLINE
  5
4C1
100
AcDbEntity
  8
PORTELLO
100
AcDbPolyline
 62
7
  6
CONTINUOUS
 90
13
 70
0
 10
-75.4761671648
 20
-23.34213
 10
-75.4748106099
 20
-23.3397696951
 10
-75.4736522998
 20
-23.3327075331
 10
-75.4726922347
 20
-23.321019211
 10
-75.4719224708
 20
-23.3048173525
 10
-75.4713509519
 20
-23.2843166324
 10
-75.4710015086
 20
-23.2598903588
 10
-75.4708827597
 20
-23.2320150282
 10
-75.4709860865
 20
-23.201005118
 10
-75.4713094637
 20
-23.1670409149
 10
-75.4718641352
 20
-23.1303541293
 10
-75.4726388573
 20
-23.0915791296
 10
-75.4747432223
 20
-23.011012319
  0
LINE
  5
4C2
100
AcDbEntity
  8
PLACCA_PRT
100
AcDbLine
 62
250
  6
CONTINUOUS
 10
-69.5915210924
 20
-25.6965862177
 11
-69.5916536727
 21
-25.6969383499
  0
LINE
  5
4C3
100
AcDbEntity
  8
PLACCA_PRT
100
AcDbLine
 62
250
  6
CONTINUOUS
 10
-69.5912443001
 20
-25.6958603737
 11
-69.5913844818
 21
-25.6962265153
  0
LINE
  5
4C4
100
AcDbEntity
  8
PLACCA_PRT
100
AcDbLine
 62
250
  6
CONTINUOUS
 10
-69.5909540747
 20
-25.6951105555
 11
-69.5911008589
 21
-25.6954884989
  0
LINE
  5
4C5
100
AcDbEntity
  8
PLACCA_PRT
100
AcDbLine
 62
250
  6
CONTINUOUS
 10
-69.5903400405
 20
-25.6935464091
 11
-69.5904970513
 21
-25.6939453309
  0
LINE
  5
4C6
100
AcDbEntity
  8
PLACCA_PRT
100
AcDbLine
 62
250
  6
CONTINUOUS
 10
-69.5898581537
 20
-25.6923301445
 11
-69.5900206145
 21
-25.6927374611
  0
LWPOLYLINE
  5
4C7
100
AcDbEntity
  8
PLACCA_PRT
100
AcDbPolyline
 62
250
  6
CONTINUOUS
 90
14
 70
0
 10
-69.5872170592
 20
-25.6865115252
 10
-69.5874332274
 20
-25.6869431632
 10
-69.5876453426
 20
-25.6873718184
 10
-69.5878532723
 20
-25.6877979938
 10
-69.5880569709
 20
-25.6882218058
 10
-69.5882562391
 20
-25.6886429424
 10
-69.5884508104
 20
-25.6890609511
 10
-69.5886405536
 20
-25.6894756985
 10
-69.5888257647
 20
-25.6898876982
 10
-69.589006885
 20
-25.6902976293
 10
-69.5891838883
 20
-25.6907051109
 10
-69.5893570021
 20
-25.6911108224
 10
-69.589526956
 20
-25.6915168291
 10
-69.5896939059
 20
-25.6919234362
  0
LWPOLYLINE
  5
4C8
100
AcDbEntity
  8
PLACCA_PRT
100
AcDbPolyline
 62
250
  6
CONTINUOUS
 90
4
 70
0
 10
-69.5863155716
 20
-25.6847607884
 10
-69.5865464962
 20
-25.6851996635
 10
-69.586773777
 20
-25.6856391186
 10
-69.5869972014
 20
-25.6860768276
  0
LINE
  5
4C9
100
AcDbEntity
  8
PLACCA_PRT
100
AcDbLine
 62
250
  6
CONTINUOUS
 10
-69.5848624587
 20
-25.6820481798
 11
-69.5851114705
 21
-25.6825191073
  0
LINE
  5
4CA
100
AcDbEntity
  8
PLACCA_PRT
100
AcDbLine
 62
250
  6
CONTINUOUS
 10
-69.5853582086
 20
-25.682982991
 11
-69.5863155716
 21
-25.6847607884
  0
LINE
  5
4CB
100
AcDbEntity
  8
PLACCA_PRT
100
AcDbLine
 62
250
  6
CONTINUOUS
 10
-69.5843583664
 20
-25.6811370327
 11
-69.584611867
 21
-25.6815777545
  0
LWPOLYLINE
  5
4CC
100
AcDbEntity
  8
PLACCA_PRT
100
AcDbPolyline
 62
250
  6
CONTINUOUS
 90
6
 70
0
 10
-69.7862032084
 20
22.1873963331
 10
-69.7359468905
 20
22.1855824303
 10
-69.6794232947
 20
22.1831767707
 10
-69.6344277709
 20
22.1808230912
 10
-69.6011397958
 20
22.1785307707
 10
-69.5796921471
 20
22.1763089431
  0
LWPOLYLINE
  5
4CD
100
AcDbEntity
  8
PORTELLO
100
AcDbPolyline
 62
250
  6
CONTINUOUS
 90
9
 70
0
 10
-73.771005756
 20
30.3911653476
 10
-73.767788396
 20
30.3853511542
 10
-73.7648723904
 20
30.3675850662
 10
-73.7622577393
 20
30.3379499465
 10
-73.7599360073
 20
30.296586167
 10
-73.7579156298
 20
30.2436745585
 10
-73.7562219126
 20
30.1794211126
 10
-73.7548586141
 20
30.1040753392
 10
-73.7538219758
 20
30.0179703638
  0
LINE
  5
4CE
100
AcDbEntity
  8
PORTELLO
100
AcDbLine
 62
250
  6
CONTINUOUS
 10
-73.7816674167
 20
27.6
 11
-69.2908703084
 21
27.6
  0
LWPOLYLINE
  5
4CF
100
AcDbEntity
  8
PORTELLO
100
AcDbPolyline
 62
250
  6
CONTINUOUS
 90
14
 70
0
 10
-75.1894050946
 20
28.9695818342
 10
-75.1861912739
 20
28.967015562
 10
-75.1832546166
 20
28.9588845305
 10
-75.1806110176
 20
28.9452069939
 10
-75.1782728195
 20
28.9260482364
 10
-75.1762486964
 20
28.9015042389
 10
-75.1745470033
 20
28.8716610381
 10
-75.1731750453
 20
28.8366308295
 10
-75.1721385599
 20
28.7965823641
 10
-75.1714428662
 20
28.7516979458
 10
-75.1710913569
 20
28.7021752971
 10
-75.1710838539
 20
28.6482358312
 10
-75.1714199591
 20
28.5901022881
 10
-75.1720986695
 20
28.5280158139
  0
LWPOLYLINE
  5
4D0
100
AcDbEntity
  8
PLACCA_PRT
100
AcDbPolyline
 62
250
  6
CONTINUOUS
 90
11
 70
0
 10
-66.7234442958
 20
-38.907091369
 10
-66.7193481103
 20
-38.8978077328
 10
-66.7158565723
 20
-38.8787461708
 10
-66.7129195774
 20
-38.8499473095
 10
-66.7104948756
 20
-38.8115334831
 10
-66.7085487335
 20
-38.7637125714
 10
-66.707047839
 20
-38.7066943947
 10
-66.7059659977
 20
-38.6407201439
 10
-66.7052930631
 20
-38.5661561171
 10
-66.705020526
 20
-38.4834264624
 10
-66.7056609852
 20
-38.295200595
  0
LWPOLYLINE
  5
4D1
100
AcDbEntity
  8
PLACCA_PRT
100
AcDbPolyline
 62
250
  6
CONTINUOUS
 90
14
 70
0
 10
-66.7896134157
 20
-39.0122835586
 10
-66.787947253
 20
-39.008866734
 10
-66.7862209057
 20
-39.0053753055
 10
-66.7844160585
 20
-39.0019564404
 10
-66.7825630099
 20
-38.99859728
 10
-66.7806889718
 20
-38.9953082074
 10
-66.7787941186
 20
-38.9922710767
 10
-66.7769075903
 20
-38.9895713833
 10
-66.7750855645
 20
-38.9871207219
 10
-66.7733561301
 20
-38.9848410323
 10
-66.7717255426
 20
-38.9827645234
 10
-66.7702051089
 20
-38.9808588309
 10
-66.768795114
 20
-38.9789503666
 10
-66.7674759483
 20
-38.9769656347
  0
LWPOLYLINE
  5
4D2
100
AcDbEntity
  8
PLACCA_PRT
100
AcDbPolyline
 62
250
  6
CONTINUOUS
 90
4
 70
0
 10
-66.811209768
 20
-39.0515917549
 10
-66.8072685285
 20
-39.0443050319
 10
-66.8053182635
 20
-39.040791397
 10
-66.8033865019
 20
-39.0373798106
  0
LINE
  5
4D3
100
AcDbEntity
  8
PORTELLO
100
AcDbLine
 62
250
  6
CONTINUOUS
 10
-75.5889416617
 20
28.9364475691
 11
-75.5880010233
 21
28.9365491744
  0
LWPOLYLINE
  5
4D4
100
AcDbEntity
  8
PORTELLO
100
AcDbPolyline
 62
250
  6
CONTINUOUS
 90
16
 70
0
 10
-73.7710049424
 20
30.3911498204
 10
-73.9168355838
 20
30.3763243563
 10
-74.0605206374
 20
30.3473139827
 10
-74.2006858583
 20
30.3043961631
 10
-74.3359906663
 20
30.2479813759
 10
-74.4651409677
 20
30.1786091882
 10
-74.586901532
 20
30.0969430953
 10
-74.7001078066
 20
30.0037641751
 10
-74.8036770542
 20
29.8999636174
 10
-74.8966187092
 20
29.7865342003
 10
-74.9780438509
 20
29.6645607951
 10
-75.047173706
 20
29.5352099903
 10
-75.103347097
 20
29.3997189339
 10
-75.1460267655
 20
29.2593835011
 10
-75.1748045108
 20
29.1155458998
 10
-75.1894050946
 20
28.9695818342
  0
LINE
  5
4D5
100
AcDbEntity
  8
PORTELLO
100
AcDbLine
 62
250
  6
CONTINUOUS
 10
-75.5880010233
 20
28.9365491744
 11
-75.5555333589
 21
28.9396355037
  0
LINE
  5
4D6
100
AcDbEntity
  8
PORTELLO
100
AcDbLine
 62
250
  6
CONTINUOUS
 10
-75.5555333589
 20
28.9396355037
 11
-75.4789012959
 21
28.9465829591
  0
LINE
  5
4D7
100
AcDbEntity
  8
PORTELLO
100
AcDbLine
 62
250
  6
CONTINUOUS
 10
-75.4789012959
 20
28.9465829591
 11
-75.3869697196
 21
28.9544631548
  0
LINE
  5
4D8
100
AcDbEntity
  8
PORTELLO
100
AcDbLine
 62
250
  6
CONTINUOUS
 10
-75.3869697196
 20
28.9544631548
 11
-75.2977117318
 21
28.9615700918
  0
LINE
  5
4D9
100
AcDbEntity
  8
PORTELLO
100
AcDbLine
 62
250
  6
CONTINUOUS
 10
-75.2977117318
 20
28.9615700918
 11
-75.1894053776
 21
28.9695818486
  0
LINE
  5
4DA
100
AcDbEntity
  8
PORTELLO
100
AcDbLine
 62
7
  6
CONTINUOUS
 10
-74.1688146368
 20
30.3703170676
 11
-70.9591102932
 21
30.5385305444
  0
LINE
  5
4DB
100
AcDbEntity
  8
PLACCA_PRT
100
AcDbLine
 62
7
  6
CONTINUOUS
 10
-69.7862032084
 20
30.6
 11
-68.8552546702
 21
30.6487889455
  0
LINE
  5
4DC
100
AcDbEntity
  8
PORTELLO
100
AcDbLine
 62
250
  6
CONTINUOUS
 10
-73.7816674167
 20
27.6
 11
-74.9115263929
 21
27.654850426
  0
LWPOLYLINE
  5
4DD
100
AcDbEntity
  8
PORTELLO
100
AcDbPolyline
 62
250
  6
CONTINUOUS
 90
5
 70
0
 10
-74.9115263929
 20
27.654850426
 10
-75.1170262095
 20
27.6655175265
 10
-75.1589197171
 20
27.6678452748
 10
-75.1867247978
 20
27.6695164339
 10
-75.2001723598
 20
27.6705148308
  0
LINE
  5
4DE
100
AcDbEntity
  8
0
100
AcDbLine
 62
7
  6
CONTINUOUS
 10
-69.5928229109
 20
25.3340846172
 11
-69.3207152778
 21
25.2219384055
  0
LINE
  5
4DF
100
AcDbEntity
  8
PORTELLO
100
AcDbLine
 62
7
  6
CONTINUOUS
 10
-70.9554161961
 20
30.5360618515
 11
-70.9591102932
 21
30.5385305444
  0
LINE
  5
4E0
100
AcDbEntity
  8
PLACCA_PRT
100
AcDbLine
 62
250
  6
CONTINUOUS
 10
-66.8033865019
 20
-39.0373798106
 11
-66.7996401842
 21
-39.0308609082
  0
LWPOLYLINE
  5
4E1
100
AcDbEntity
  8
PLACCA_PRT
100
AcDbPolyline
 62
250
  6
CONTINUOUS
 90
9
 70
0
 10
-65.7857767019
 20
-39.7694281234
 10
-65.7813254007
 20
-39.7619344928
 10
-65.7774428652
 20
-39.73899088
 10
-65.7741290956
 20
-39.7007131094
 10
-65.7714157146
 20
-39.6473072966
 10
-65.7692710995
 20
-39.5790605404
 10
-65.767600381
 20
-39.4963265308
 10
-65.7663818908
 20
-39.3995227313
 10
-65.7653367365
 20
-39.1660050557
  0
LWPOLYLINE
  5
4E2
100
AcDbEntity
  8
PLACCA_PRT
100
AcDbPolyline
 62
250
  6
CONTINUOUS
 90
5
 70
0
 10
-66.7996401842
 20
-39.0308609082
 10
-66.7961036358
 20
-39.0249262131
 10
-66.7944437386
 20
-39.0219328934
 10
-66.7928391765
 20
-39.0187940534
 10
-66.7896134157
 20
-39.0122835586
  0
LINE
  5
4E3
100
AcDbEntity
  8
PLACCA_PRT
100
AcDbLine
 62
250
  6
CONTINUOUS
 10
-66.7674759483
 20
-38.9769656347
 11
-66.7649601933
 21
-38.9730483401
  0
LWPOLYLINE
  5
4E4
100
AcDbEntity
  8
PLACCA_PRT
100
AcDbPolyline
 62
250
  6
CONTINUOUS
 90
3
 70
0
 10
-66.7649601933
 20
-38.9730483401
 10
-66.7625552374
 20
-38.9693610351
 10
-66.7613979978
 20
-38.9676070326
  0
LINE
  5
4E5
100
AcDbEntity
  8
PLACCA_PRT
100
AcDbLine
 62
250
  6
CONTINUOUS
 10
-66.7613979978
 20
-38.9676070326
 11
-66.7591767111
 21
-38.9643027706
  0
LINE
  5
4E6
100
AcDbEntity
  8
PLACCA_PRT
100
AcDbLine
 62
250
  6
CONTINUOUS
 10
-66.7591767111
 20
-38.9643027706
 11
-66.7570837744
 21
-38.9612424654
  0
LINE
  5
4E7
100
AcDbEntity
  8
PLACCA_PRT
100
AcDbLine
 62
250
  6
CONTINUOUS
 10
-66.7570837744
 20
-38.9612424654
 11
-66.7551214533
 21
-38.9584151022
  0
LINE
  5
4E8
100
AcDbEntity
  8
PLACCA_PRT
100
AcDbLine
 62
250
  6
CONTINUOUS
 10
-66.7551214533
 20
-38.9584151022
 11
-66.7532831441
 21
-38.9558003736
  0
LINE
  5
4E9
100
AcDbEntity
  8
PLACCA_PRT
100
AcDbLine
 62
250
  6
CONTINUOUS
 10
-66.7532831441
 20
-38.9558003736
 11
-66.7515597078
 21
-38.9533749226
  0
LINE
  5
4EA
100
AcDbEntity
  8
PLACCA_PRT
100
AcDbLine
 62
250
  6
CONTINUOUS
 10
-66.7515597078
 20
-38.9533749226
 11
-66.7491735039
 21
-38.9500540298
  0
LINE
  5
4EB
100
AcDbEntity
  8
PLACCA_PRT
100
AcDbLine
 62
250
  6
CONTINUOUS
 10
-66.7386967548
 20
-38.9357783457
 11
-66.738273288
 21
-38.9351913327
  0
LINE
  5
4EC
100
AcDbEntity
  8
PLACCA_PRT
100
AcDbLine
 62
250
  6
CONTINUOUS
 10
-66.7378604931
 20
-38.9346235444
 11
-66.7374593509
 21
-38.9340729939
  0
LINE
  5
4ED
100
AcDbEntity
  8
PLACCA_PRT
100
AcDbLine
 62
250
  6
CONTINUOUS
 10
-66.7491735039
 20
-38.9500540298
 11
-66.7456532924
 21
-38.9452127795
  0
LINE
  5
4EE
100
AcDbEntity
  8
PLACCA_PRT
100
AcDbLine
 62
250
  6
CONTINUOUS
 10
-66.7450116875
 20
-38.9443342055
 11
-66.7420880103
 21
-38.940344353
  0
LINE
  5
4EF
100
AcDbEntity
  8
PLACCA_PRT
100
AcDbLine
 62
250
  6
CONTINUOUS
 10
-66.7420880103
 20
-38.940344353
 11
-66.7391340551
 21
-38.9363791851
  0
LINE
  5
4F0
100
AcDbEntity
  8
PLACCA_PRT
100
AcDbLine
 62
250
  6
CONTINUOUS
 10
-66.7400556359
 20
-38.9376124205
 11
-66.7395870155
 21
-38.9369889433
  0
LWPOLYLINE
  5
4F1
100
AcDbEntity
  8
PLACCA_PRT
100
AcDbPolyline
 62
250
  6
CONTINUOUS
 90
23
 70
0
 10
-66.7370700445
 20
-38.9335416227
 10
-66.7366891754
 20
-38.9330406774
 10
-66.7363118091
 20
-38.9326079124
 10
-66.7359452582
 20
-38.9322054775
 10
-66.7356040369
 20
-38.9317312096
 10
-66.7352762256
 20
-38.9312234911
 10
-66.7349598516
 20
-38.9306446285
 10
-66.7346790835
 20
-38.9297784966
 10
-66.7344441037
 20
-38.9284661424
 10
-66.734208531
 20
-38.9268679261
 10
-66.7339071979
 20
-38.9252470267
 10
-66.7335293375
 20
-38.9236686985
 10
-66.7330910066
 20
-38.9220674104
 10
-66.7325717271
 20
-38.9205102636
 10
-66.7319652634
 20
-38.9190405479
 10
-66.7312768034
 20
-38.9176151427
 10
-66.7304939158
 20
-38.9161720185
 10
-66.7296074582
 20
-38.914688578
 10
-66.7286142855
 20
-38.9131880143
 10
-66.7275072563
 20
-38.9116771258
 10
-66.7262803325
 20
-38.9101583659
 10
-66.7249287131
 20
-38.9086298289
 10
-66.7234472399
 20
-38.9070917744
  0
LWPOLYLINE
  5
4F2
100
AcDbEntity
  8
PLACCA_PRT
100
AcDbPolyline
 62
250
  6
CONTINUOUS
 90
3
 70
0
 10
-66.7393046536
 20
38.9366098656
 10
-66.7397687627
 20
38.9372331996
 10
-66.7402489404
 20
38.937871233
  0
LINE
  5
4F3
100
AcDbEntity
  8
PLACCA_PRT
100
AcDbLine
 62
250
  6
CONTINUOUS
 10
-66.7407451043
 20
38.9385331994
 11
-66.7423286911
 21
38.9406718472
  0
LINE
  5
4F4
100
AcDbEntity
  8
PLACCA_PRT
100
AcDbLine
 62
250
  6
CONTINUOUS
 10
-66.7423286911
 20
38.9406718472
 11
-66.7466432292
 21
38.9465696585
  0
LINE
  5
4F5
100
AcDbEntity
  8
PLACCA_PRT
100
AcDbLine
 62
250
  6
CONTINUOUS
 10
-66.7473380445
 20
38.9475229034
 11
-66.7495507547
 21
38.9505766308
  0
LWPOLYLINE
  5
4F6
100
AcDbEntity
  8
PLACCA_PRT
100
AcDbPolyline
 62
250
  6
CONTINUOUS
 90
3
 70
0
 10
-66.7375916518
 20
38.9342511542
 10
-66.7380006434
 20
38.9348193104
 10
-66.7393046536
 20
38.9366098656
  0
LINE
  5
4F7
100
AcDbEntity
  8
PLACCA_PRT
100
AcDbLine
 62
250
  6
CONTINUOUS
 10
-66.7495507547
 20
38.9505766308
 11
-66.7519648561
 21
38.9539428027
  0
LINE
  5
4F8
100
AcDbEntity
  8
PLACCA_PRT
100
AcDbLine
 62
250
  6
CONTINUOUS
 10
-66.7519648561
 20
38.9539428027
 11
-66.7536923555
 21
38.9563796503
  0
LINE
  5
4F9
100
AcDbEntity
  8
PLACCA_PRT
100
AcDbLine
 62
250
  6
CONTINUOUS
 10
-66.7536923555
 20
38.9563796503
 11
-66.7555160984
 21
38.9589808223
  0
LINE
  5
4FA
100
AcDbEntity
  8
PLACCA_PRT
100
AcDbLine
 62
250
  6
CONTINUOUS
 10
-66.7555160984
 20
38.9589808223
 11
-66.7574373233
 21
38.961756119
  0
LINE
  5
4FB
100
AcDbEntity
  8
PLACCA_PRT
100
AcDbLine
 62
250
  6
CONTINUOUS
 10
-66.7574373233
 20
38.961756119
 11
-66.7594552202
 21
38.9647135267
  0
LWPOLYLINE
  5
4FC
100
AcDbEntity
  8
PLACCA_PRT
100
AcDbPolyline
 62
250
  6
CONTINUOUS
 90
3
 70
0
 10
-66.7594552202
 20
38.9647135267
 10
-66.7615661321
 20
38.9678597597
 10
-66.7626554922
 20
38.9695113785
  0
LINE
  5
4FD
100
AcDbEntity
  8
PLACCA_PRT
100
AcDbLine
 62
250
  6
CONTINUOUS
 10
-66.7626554922
 20
38.9695113785
 11
-66.7649028994
 21
38.9729593422
  0
LWPOLYLINE
  5
4FE
100
AcDbEntity
  8
PLACCA_PRT
100
AcDbPolyline
 62
250
  6
CONTINUOUS
 90
22
 70
0
 10
-66.7649028994
 20
38.9729593422
 10
-66.7672394087
 20
38.9766117106
 10
-66.7684595507
 20
38.9784582421
 10
-66.7697489156
 20
38.9802535609
 10
-66.7711198015
 20
38.9820449274
 10
-66.7725802736
 20
38.9839302302
 10
-66.7741494445
 20
38.9858788948
 10
-66.7758312781
 20
38.9879199598
 10
-66.7775895637
 20
38.990241337
 10
-66.7793539993
 20
38.9929817199
 10
-66.7810977022
 20
38.9960059273
 10
-66.7828219682
 20
38.9990926398
 10
-66.7845253974
 20
39.0021831467
 10
-66.7861892414
 20
39.0053368822
 10
-66.7878212506
 20
39.0085087793
 10
-66.7893871692
 20
39.0117462316
 10
-66.7908731728
 20
39.0150040668
 10
-66.7923158213
 20
39.018099185
 10
-66.7937905408
 20
39.0208876332
 10
-66.7953236647
 20
39.0235092229
 10
-66.7969206916
 20
39.0262041636
 10
-66.8002834249
 20
39.0319619514
  0
LWPOLYLINE
  5
4FF
100
AcDbEntity
  8
PLACCA_PRT
100
AcDbPolyline
 62
250
  6
CONTINUOUS
 90
29
 70
0
 10
-66.8002834249
 20
39.0319619514
 10
-66.8020290069
 20
39.0349693355
 10
-66.8037971926
 20
39.0380821521
 10
-66.8055881706
 20
39.0412868591
 10
-66.8074036926
 20
39.0445616893
 10
-66.8092326548
 20
39.0479106384
 10
-66.8110640738
 20
39.0513302012
 10
-66.8128957377
 20
39.0547877631
 10
-66.8147070443
 20
39.0582924869
 10
-66.8164828834
 20
39.0618366035
 10
-66.8182264615
 20
39.0653626124
 10
-66.8199130906
 20
39.068879063
 10
-66.821524498
 20
39.0723796555
 10
-66.8230713666
 20
39.075785317
 10
-66.8245375491
 20
39.0790897178
 10
-66.8259076455
 20
39.0823015655
 10
-66.827194045
 20
39.0853648828
 10
-66.8283827816
 20
39.0882818497
 10
-66.8294588731
 20
39.0910529041
 10
-66.8304310231
 20
39.0936199878
 10
-66.8312866255
 20
39.0959819063
 10
-66.832013869
 20
39.0981424772
 10
-66.8326225073
 20
39.100051461
 10
-66.8331068283
 20
39.1017022887
 10
-66.8334601528
 20
39.103103434
 10
-66.8336908738
 20
39.1042272946
 10
-66.833801528
 20
39.1050633895
 10
-66.8337926342
 20
39.1056228185
 10
-66.8337557015
 20
39.1057727472
  0
LWPOLYLINE
  5
500
100
AcDbEntity
  8
0
100
AcDbPolyline
 62
7
  6
CONTINUOUS
 90
10
 70
0
 43
0.3500000006
 10
-68.0433453369
 20
51.0191850128
 10
-67.9719186859
 20
50.876327179
 10
-67.9719186859
 20
50.8048959961
 10
-68.1147765198
 20
50.6620426941
 10
-68.1862031708
 20
50.6620426941
 10
-68.2576298218
 20
50.7334693451
 10
-68.2576298218
 20
50.8048959961
 10
-68.1862031708
 20
50.94775383
 10
-68.1147765198
 20
51.0191850128
 10
-68.0433453369
 20
51.0191850128
  0
LWPOLYLINE
  5
501
100
AcDbEntity
  8
PLACCA_PRT
100
AcDbPolyline
 62
7
  6
CONTINUOUS
 90
15
 70
0
 10
-65.9469091539
 20
39.7609835294
 10
-66.0305701458
 20
39.7530632577
 10
-66.1136896474
 20
39.7380527284
 10
-66.195454422
 20
39.7160156473
 10
-66.2752935534
 20
39.6870442608
 10
-66.3525806762
 20
39.651302388
 10
-66.4266500523
 20
39.6090501238
 10
-66.4969137601
 20
39.5605932936
 10
-66.562880025
 20
39.5062398274
 10
-66.6240680686
 20
39.446340395
 10
-66.6800091419
 20
39.381297089
 10
-66.7302531523
 20
39.3115708939
 10
-66.7743951119
 20
39.2376576866
 10
-66.8120745008
 20
39.1600870318
 10
-66.8337535877
 20
39.105778529
  0
LINE
  5
502
100
AcDbEntity
  8
PLACCA_PRT
100
AcDbLine
 62
7
  6
CONTINUOUS
 10
-61.3862032084
 20
40.0
 11
-65.9469030978
 21
39.7609838468
  0
LINE
  5
503
100
AcDbEntity
  8
PLACCA_PRT
100
AcDbLine
 62
250
  6
CONTINUOUS
 10
-61.3862032084
 20
37.0
 11
-65.8009678108
 21
37.0
  0
LINE
  5
504
100
AcDbEntity
  8
PLACCA_PRT
100
AcDbLine
 62
250
  6
CONTINUOUS
 10
-66.6320820844
 20
37.0451471207
 11
-65.8009658031
 21
36.9999999927
  0
LWPOLYLINE
  5
505
100
AcDbEntity
  8
PLACCA_PRT
100
AcDbPolyline
 62
250
  6
CONTINUOUS
 90
3
 70
0
 10
-66.7374039696
 20
37.0515811381
 10
-66.7148658098
 20
37.0500865556
 10
-66.6320820844
 20
37.0451471207
  0
LWPOLYLINE
  5
506
100
AcDbEntity
  8
PLACCA_PRT
100
AcDbPolyline
 62
250
  6
CONTINUOUS
 90
20
 70
0
 10
-66.7234472401
 20
38.9070917744
 10
-66.7249637417
 20
38.9086686187
 10
-66.7263422132
 20
38.9102326376
 10
-66.7275885231
 20
38.9117835379
 10
-66.7287077617
 20
38.9133227105
 10
-66.7297073394
 20
38.9148481373
 10
-66.7305964969
 20
38.9163544228
 10
-66.7313790412
 20
38.9178161794
 10
-66.732064297
 20
38.9192581609
 10
-66.7326651221
 20
38.9207503662
 10
-66.7331741393
 20
38.9223491589
 10
-66.7335994857
 20
38.9239979985
 10
-66.7339677173
 20
38.925598064
 10
-66.7342666502
 20
38.9271948558
 10
-66.7345040311
 20
38.9287431731
 10
-66.7347420549
 20
38.9300081755
 10
-66.7350281692
 20
38.9308355164
 10
-66.7353544494
 20
38.9313779361
 10
-66.7356937218
 20
38.9318616206
 10
-66.7371950107
 20
38.9337002617
  0
LWPOLYLINE
  5
507
100
AcDbEntity
  8
PLACCA_PRT
100
AcDbPolyline
 62
250
  6
CONTINUOUS
 90
3
 70
0
 10
-66.7360451141
 20
38.9323304249
 10
-66.7364203683
 20
38.9327399529
 10
-66.7368061327
 20
38.9331841611
  0
LWPOLYLINE
  5
508
100
AcDbEntity
  8
0
100
AcDbPolyline
 62
7
  6
CONTINUOUS
 90
3
 70
0
 43
0.3500000006
 10
-69.5433457947
 20
51.1620383148
 10
-71.0433462524
 20
51.1620383148
 10
-70.400488266
 20
53.5191812439
  0
ARC
  5
509
100
AcDbEntity
  8
PORTELLO
100
AcDbCircle
 62
7
  6
CONTINUOUS
 10
24.5
 20
-24.5
 40
3.0
100
AcDbArc
 50
270.0
 51
360.0
  0
ARC
  5
50A
100
AcDbEntity
  8
PORTELLO
100
AcDbCircle
 62
7
  6
CONTINUOUS
 10
-24.5
 20
-24.5
 40
3.0
100
AcDbArc
 50
180.0
 51
270.0
  0
ARC
  5
50B
100
AcDbEntity
  8
PLACCA_PRT
100
AcDbCircle
 62
7
  6
CONTINUOUS
 10
37.0
 20
37.0
 40
3.0
100
AcDbArc
 50
0.0
 51
90.000000001
  0
ARC
  5
50C
100
AcDbEntity
  8
PLACCA_PRT
100
AcDbCircle
 62
7
  6
CONTINUOUS
 10
-37.0
 20
37.0
 40
3.0
100
AcDbArc
 50
89.999999999
 51
180.0000000005
  0
ARC
  5
50D
100
AcDbEntity
  8
PLACCA_PRT
100
AcDbCircle
 62
7
  6
CONTINUOUS
 10
-37.0
 20
-37.0
 40
3.0
100
AcDbArc
 50
179.9999999995
 51
270.000000001
  0
ARC
  5
50E
100
AcDbEntity
  8
PLACCA_PRT
100
AcDbCircle
 62
7
  6
CONTINUOUS
 10
37.0
 20
-37.0
 40
3.0
100
AcDbArc
 50
269.999999999
 51
360.0
  0
ARC
  5
50F
100
AcDbEntity
  8
PLACCA_PRT
100
AcDbCircle
 62
7
  6
CONTINUOUS
 10
24.6
 20
27.6
 40
3.0
100
AcDbArc
 50
64.7896088882
 51
90.0
  0
ARC
  5
510
100
AcDbEntity
  8
PLACCA_PRT
100
AcDbCircle
 62
7
  6
CONTINUOUS
 10
-24.6
 20
27.6
 40
3.0
100
AcDbArc
 50
90.0
 51
115.2103911118
  0
ARC
  5
511
100
AcDbEntity
  8
PORTELLO
100
AcDbCircle
 62
7
  6
CONTINUOUS
 10
24.03733
 20
-22.989265
 40
0.8893898871
100
AcDbArc
 50
292.842868527
 51
90.0
  0
ARC
  5
512
100
AcDbEntity
  8
PORTELLO
100
AcDbCircle
 62
7
  6
CONTINUOUS
 10
23.956824
 20
-22.989265
 40
0.352865
100
AcDbArc
 50
270.0
 51
90.0
  0
ARC
  5
513
100
AcDbEntity
  8
PLACCA_PRT
100
AcDbCircle
 62
7
  6
CONTINUOUS
 10
-72.4862032084
 20
27.5
 40
3.9
100
AcDbArc
 50
315.647462368
 51
325.4261598844
  0
ARC
  5
514
100
AcDbEntity
  8
PLACCA_PRT
100
AcDbCircle
 62
7
  6
CONTINUOUS
 10
-72.4862032084
 20
27.5
 40
3.9
100
AcDbArc
 50
23.9402973865
 51
46.1869385396
  0
ARC
  5
515
100
AcDbEntity
  8
PLACCA_PRT
100
AcDbCircle
 62
7
  6
CONTINUOUS
 10
-72.586472067
 20
-25.8996413092
 40
3.0000000002
100
AcDbArc
 50
3.7881875554
 51
20.9922567065
  0
ARC
  5
516
100
AcDbEntity
  8
PORTELLO
100
AcDbCircle
 62
7
  6
CONTINUOUS
 10
-74.0903108117
 20
28.8723727597
 40
1.5
100
AcDbArc
 50
92.9999958187
 51
177.5517776385
  0
ARC
  5
517
100
AcDbEntity
  8
PORTELLO
100
AcDbCircle
 62
7
  6
CONTINUOUS
 10
-74.2062624824
 20
-25.7662959902
 40
1.5
100
AcDbArc
 50
181.8520525132
 51
267.0000044972
  0
ENDSEC
  0
SECTION
  2
OBJECTS
  0
DICTIONARY
  5
C
100
AcDbDictionary
280
0
281
1
  3
ACAD_GROUP
350
D
  3
ACAD_MLINESTYLE
350
17
  3
ACAD_LAYOUT
350
1A
  3
ACAD_PLOTSETTINGS
350
19
  3
ACAD_PLOTSTYLENAME
350
E
  0
DICTIONARY
  5
D
102
{ACAD_REACTORS
330
C
102
}
100
AcDbDictionary
280
0
281
1
  0
ACDBDICTIONARYWDFLT
  5
E
102
{ACAD_REACTORS
330
C
102
}
100
AcDbDictionary
281
1
  3
Normal
350
F
100
AcDbDictionaryWithDefault
340
F
  0
DICTIONARY
  5
17
102
{ACAD_REACTORS
330
C
102
}
100
AcDbDictionary
280
0
281
1
  3
Standard
350
18
  0
DICTIONARY
  5
19
102
{ACAD_REACTORS
330
C
102
}
100
AcDbDictionary
281
1
  0
DICTIONARY
  5
1A
102
{ACAD_REACTORS
330
C
102
}
100
AcDbDictionary
281
1
  3
Model
350
518
  3
Layout1
350
519
  0
ACDBPLACEHOLDER
  5
F
102
{ACAD_REACTORS
330
E
102
}
  0
MLINESTYLE
  5
18
102
{ACAD_REACTORS
330
17
102
}
100
AcDbMlineStyle
  2
STANDARD
 70
0
  3

 62
256
 51
90.0
 52
90.0
 71
2
 49
0.5
 62
256
  6
BYLAYER
 49
-0.5
 62
256
  6
BYLAYER
  0
LAYOUT
  5
518
102
{ACAD_REACTORS
330
1A
102
}
100
AcDbPlotSettings
  1

  2
none_device
  4
ISO_A4_(297.00_x_210.00_MM)
  6

 40
0.0
 41
0.0
 42
0.0
 43
0.0
 44
297.0
 45
210.0
 46
0.0
 47
0.0
 48
0.0
 49
0.0
140
0.0
141
0.0
142
1.0
143
1.0
 70
1024
 72
1
 73
0
 74
0
  7

 75
0
147
1.0
148
0.0
149
0.0
100
AcDbLayout
  1
Model
 70
0
 71
0
 10
0.0
 20
0.0
 11
297.0
 21
210.0
 12
0.0
 22
0.0
 32
0.0
 14
0.0
 24
0.0
 34
0.0
 15
0.0
 25
0.0
 35
0.0
146
0.0
 13
0.0
 23
0.0
 33
0.0
 16
1.0
 26
0.0
 36
0.0
 17
0.0
 27
1.0
 37
0.0
 76
0
330
223
345
0
346
0
  0
LAYOUT
  5
519
102
{ACAD_REACTORS
330
1A
102
}
100
AcDbPlotSettings
  1

  2
none_device
  4
ISO_A4_(297.00_x_210.00_MM)
  6

 40
0.0
 41
0.0
 42
0.0
 43
0.0
 44
297.0
 45
210.0
 46
0.0
 47
0.0
 48
0.0
 49
0.0
140
0.0
141
0.0
142
1.0
143
1.0
 70
0
 72
1
 73
0
 74
0
  7

 75
0
147
1.0
148
0.0
149
0.0
100
AcDbLayout
  1
Layout1
 70
0
 71
1
 10
0.0
 20
0.0
 11
297.0
 21
210.0
 12
0.0
 22
0.0
 32
0.0
 14
0.0
 24
0.0
 34
0.0
 15
0.0
 25
0.0
 35
0.0
146
0.0
 13
0.0
 23
0.0
 33
0.0
 16
1.0
 26
0.0
 36
0.0
 17
0.0
 27
1.0
 37
0.0
 76
0
330
224
345
0
346
0
  0
ENDSEC
  0
EOF
