  0
SECTION
  2
HEADER
  9
$ACADVER
  1
AC1024
  9
$DWGCODEPAGE
  3
ANSI_1252
  9
$EXTMAX
 10
297.0
 20
210.0
 30
0.0
  9
$EXTMIN
 10
0.0
 20
0.0
 30
0.0
  9
$LIMMIN
 10
0.0
 20
0.0
  9
$LIMMAX
 10
297.0
 20
210.0
  9
$VIEWCTR
 10
148.5
 20
105.0
  9
$VIEWSIZE
 40
210.0
  9
$CLAYER
  8
0
  9
$LTSCALE
 40
16.335
  9
$CELTYPE
  6
BYLAYER
  9
$DIMSCALE
 40
1.0
  9
$DIMASZ
 40
3.0
  9
$DIMEXO
 40
0.5
  9
$DIMDLI
 40
11.286
  9
$DIMEXE
 40
1.5
  9
$DIMCEN
 40
2.673
  9
$DIMLFAC
 40
1.0
  9
$DIMBLK
  1
_FILLED
  9
$DIMALT
 70
0
  9
$DIMALTF
 40
0.0393700787
  9
$DIMTXT
 40
3.0
  9
$DIMTOL
 70
1
  9
$DIMLIM
 70
0
  9
$DIMTFAC
 40
1.0
  9
$DIMTP
 40
0.01
  9
$DIMTM
 40
0.01
  9
$DIMGAP
 40
0.625
  9
$DIMDSEP
 70
44
  9
$AUNITS
 70
0
  9
$PDMODE
 70
3
  9
$PDSIZE
 40
3.0
  9
$HANDSEED
  5
40A
  9
$TILEMODE
 70
1
  9
$MEASUREMENT
 70
1
  9
$INSUNITS
 70
4
  0
ENDSEC
  0
SECTION
  2
CLASSES
  0
CLASS
  1
ACDBDICTIONARYWDFLT
  2
AcDbDictionaryWithDefault
  3
AutoCAD 2000
 90
0
 91
1
280
0
281
0
  0
CLASS
  1
ACDBPLACEHOLDER
  2
AcDbPlaceHolder
  3
AutoCAD 2000
 90
0
 91
1
280
0
281
0
  0
CLASS
  1
LAYOUT
  2
AcDbLayout
  3
AutoCAD 2000
 90
0
 91
0
280
0
281
0
  0
ENDSEC
  0
SECTION
  2
TABLES
  0
TABLE
  2
VPORT
  5
8
100
AcDbSymbolTable
 70
2
  0
VPORT
  5
1F4
100
AcDbSymbolTableRecord
100
AcDbViewportTableRecord
  2
*ACTIVE
 70
0
 10
0.0
 20
0.0
 11
1.0
 21
1.0
 12
148.5
 22
105.0
 13
0.0
 23
0.0
 14
1.0
 24
1.0
 15
0.0
 25
0.0
 16
0.0
 26
0.0
 36
1.0
 17
0.0
 27
0.0
 37
0.0
 40
210.0
 41
1.4142857143
 42
50.0
 43
0.0
 44
0.0
 50
0.0
 51
0.0
 71
0
 72
100
 73
1
 74
1
 75
0
 76
0
 77
0
 78
0
  0
ENDTAB
  0
TABLE
  2
LTYPE
  5
5
100
AcDbSymbolTable
 70
6
  0
LTYPE
  5
14
100
AcDbSymbolTableRecord
100
AcDbLinetypeTableRecord
  2
BYBLOCK
 70
0
  3

 72
65
 73
0
 40
0.0
  0
LTYPE
  5
15
100
AcDbSymbolTableRecord
100
AcDbLinetypeTableRecord
  2
BYLAYER
 70
0
  3

 72
65
 73
0
 40
0.0
  0
LTYPE
  5
16
100
AcDbSymbolTableRecord
100
AcDbLinetypeTableRecord
  2
CONTINUOUS
 70
64
  3
Solid line
 72
65
 73
0
 40
0.0
  0
LTYPE
  5
1F5
100
AcDbSymbolTableRecord
100
AcDbLinetypeTableRecord
  2
CENTER
 70
64
  3
____ _ ____ _ ____ _ ____ _ ____ _ ____ _ ____
 72
65
 73
4
 40
0.6
 49
0.375
 74
0
 49
-0.075
 74
0
 49
0.075
 74
0
 49
-0.075
 74
0
  0
LTYPE
  5
1F6
100
AcDbSymbolTableRecord
100
AcDbLinetypeTableRecord
  2
HIDDEN
 70
64
  3
- - - - - - - - - - - - - - - - - - - -
 72
65
 73
2
 40
0.2
 49
0.1
 74
0
 49
-0.1
 74
0
  0
LTYPE
  5
1F7
100
AcDbSymbolTableRecord
100
AcDbLinetypeTableRecord
  2
PHANTOM
 70
64
  3
_____ _ _ _____ _ _ _____ _ _ _____
 72
65
 73
6
 40
0.8
 49
0.45
 74
0
 49
-0.05
 74
0
 49
0.1
 74
0
 49
-0.05
 74
0
 49
0.1
 74
0
 49
-0.05
 74
0
  0
LTYPE
  5
1F8
100
AcDbSymbolTableRecord
100
AcDbLinetypeTableRecord
  2
DOT
 70
64
  3
. . . . . . . . . . . . . . . . . . . .
 72
65
 73
2
 40
0.2
 49
0.1
 74
0
 49
-0.1
 74
0
  0
LTYPE
  5
1F9
100
AcDbSymbolTableRecord
100
AcDbLinetypeTableRecord
  2
DASHED
 70
64
  3
- - - - - - - - - - - - - - - - - - - -
 72
65
 73
2
 40
0.2
 49
0.1
 74
0
 49
-0.1
 74
0
  0
ENDTAB
  0
TABLE
  2
LAYER
  5
2
100
AcDbSymbolTable
 70
36
  0
LAYER
  5
10
100
AcDbSymbolTableRecord
100
AcDbLayerTableRecord
  2
0
 70
0
 62
7
  6
CONTINUOUS
370
-3
390
F
  0
LAYER
  5
1FA
100
AcDbSymbolTableRecord
100
AcDbLayerTableRecord
  2
DEFAULT_1
 70
0
 62
7
  6
CENTER
370
-3
390
F
  0
LAYER
  5
1FB
100
AcDbSymbolTableRecord
100
AcDbLayerTableRecord
  2
DEFAULT_2
 70
0
 62
7
  6
HIDDEN
370
-3
390
F
  0
LAYER
  5
1FC
100
AcDbSymbolTableRecord
100
AcDbLayerTableRecord
  2
DEFAULT_3
 70
0
 62
7
  6
PHANTOM
370
-3
390
F
  0
LAYER
  5
1FD
100
AcDbSymbolTableRecord
100
AcDbLayerTableRecord
  2
ASSI
 70
0
 62
7
  6
CONTINUOUS
370
-3
390
F
  0
LAYER
  5
1FE
100
AcDbSymbolTableRecord
100
AcDbLayerTableRecord
  2
COORDINATE
 70
0
 62
7
  6
CONTINUOUS
370
-3
390
F
  0
LAYER
  5
1FF
100
AcDbSymbolTableRecord
100
AcDbLayerTableRecord
  2
COPY_PUBLISH
 70
0
 62
7
  6
CONTINUOUS
370
-3
390
F
  0
LAYER
  5
200
100
AcDbSymbolTableRecord
100
AcDbLayerTableRecord
  2
COSMETICI
 70
0
 62
7
  6
CONTINUOUS
370
-3
390
F
  0
LAYER
  5
201
100
AcDbSymbolTableRecord
100
AcDbLayerTableRecord
  2
CURVE
 70
0
 62
7
  6
CONTINUOUS
370
-3
390
F
  0
LAYER
  5
202
100
AcDbSymbolTableRecord
100
AcDbLayerTableRecord
  2
DRAFT
 70
0
 62
7
  6
CONTINUOUS
370
-3
390
F
  0
LAYER
  5
203
100
AcDbSymbolTableRecord
100
AcDbLayerTableRecord
  2
IMPORT_IGES
 70
0
 62
7
  6
CONTINUOUS
370
-3
390
F
  0
LAYER
  5
204
100
AcDbSymbolTableRecord
100
AcDbLayerTableRecord
  2
INTFCLR
 70
0
 62
7
  6
CONTINUOUS
370
-3
390
F
  0
LAYER
  5
205
100
AcDbSymbolTableRecord
100
AcDbLayerTableRecord
  2
INTFCLR_17
 70
0
 62
7
  6
CONTINUOUS
370
-3
390
F
  0
LAYER
  5
206
100
AcDbSymbolTableRecord
100
AcDbLayerTableRecord
  2
INTF_1
 70
0
 62
7
  6
CONTINUOUS
370
-3
390
F
  0
LAYER
  5
207
100
AcDbSymbolTableRecord
100
AcDbLayerTableRecord
  2
INTF_11
 70
0
 62
7
  6
CONTINUOUS
370
-3
390
F
  0
LAYER
  5
208
100
AcDbSymbolTableRecord
100
AcDbLayerTableRecord
  2
INTF_2
 70
0
 62
7
  6
CONTINUOUS
370
-3
390
F
  0
LAYER
  5
209
100
AcDbSymbolTableRecord
100
AcDbLayerTableRecord
  2
INTF_5
 70
0
 62
7
  6
CONTINUOUS
370
-3
390
F
  0
LAYER
  5
20A
100
AcDbSymbolTableRecord
100
AcDbLayerTableRecord
  2
INTF_YELLOW
 70
0
 62
7
  6
CONTINUOUS
370
-3
390
F
  0
LAYER
  5
20B
100
AcDbSymbolTableRecord
100
AcDbLayerTableRecord
  2
NONE
 70
0
 62
7
  6
CONTINUOUS
370
-3
390
F
  0
LAYER
  5
20C
100
AcDbSymbolTableRecord
100
AcDbLayerTableRecord
  2
NOTE
 70
0
 62
7
  6
CONTINUOUS
370
-3
390
F
  0
LAYER
  5
20D
100
AcDbSymbolTableRecord
100
AcDbLayerTableRecord
  2
PIANI
 70
0
 62
7
  6
CONTINUOUS
370
-3
390
F
  0
LAYER
  5
20E
100
AcDbSymbolTableRecord
100
AcDbLayerTableRecord
  2
POSIZIONE_SCRITTE
 70
0
 62
7
  6
CONTINUOUS
370
-3
390
F
  0
LAYER
  5
20F
100
AcDbSymbolTableRecord
100
AcDbLayerTableRecord
  2
PUNTI
 70
0
 62
7
  6
CONTINUOUS
370
-3
390
F
  0
LAYER
  5
210
100
AcDbSymbolTableRecord
100
AcDbLayerTableRecord
  2
RACCORDO
 70
0
 62
7
  6
CONTINUOUS
370
-3
390
F
  0
LAYER
  5
211
100
AcDbSymbolTableRecord
100
AcDbLayerTableRecord
  2
RGB____0____0____0__
 70
0
 62
7
  6
CONTINUOUS
370
-3
390
F
  0
LAYER
  5
212
100
AcDbSymbolTableRecord
100
AcDbLayerTableRecord
  2
SIMBOLI
 70
0
 62
7
  6
CONTINUOUS
370
-3
390
F
  0
LAYER
  5
213
100
AcDbSymbolTableRecord
100
AcDbLayerTableRecord
  2
SMUSSO
 70
0
 62
7
  6
CONTINUOUS
370
-3
390
F
  0
LAYER
  5
214
100
AcDbSymbolTableRecord
100
AcDbLayerTableRecord
  2
SNAPLINE
 70
0
 62
7
  6
CONTINUOUS
370
-3
390
F
  0
LAYER
  5
215
100
AcDbSymbolTableRecord
100
AcDbLayerTableRecord
  2
SUPERFICI
 70
0
 62
7
  6
CONTINUOUS
370
-3
390
F
  0
LAYER
  5
216
100
AcDbSymbolTableRecord
100
AcDbLayerTableRecord
  2
TRASH
 70
0
 62
7
  6
CONTINUOUS
370
-3
390
F
  0
ENDTAB
  0
TABLE
  2
STYLE
  5
3
100
AcDbSymbolTable
 70
1
  0
STYLE
  5
11
100
AcDbSymbolTableRecord
100
AcDbTextStyleTableRecord
  2
STANDARD
 70
0
 40
0.0
 41
0.8
 50
0.0
 71
0
 42
0.2
  3
txt
  4

  0
STYLE
  5
217
100
AcDbSymbolTableRecord
100
AcDbTextStyleTableRecord
  2
TEXTSTYLE_1
 70
0
 40
0.0
 41
0.8
 50
0.0
 71
0
 42
0.2
  3
gdt
  4

  0
ENDTAB
  0
TABLE
  2
VIEW
  5
6
100
AcDbSymbolTable
 70
0
  0
ENDTAB
  0
TABLE
  2
UCS
  5
7
100
AcDbSymbolTable
 70
0
  0
ENDTAB
  0
TABLE
  2
APPID
  5
9
100
AcDbSymbolTable
 70
1
  0
APPID
  5
218
100
AcDbSymbolTableRecord
100
AcDbRegAppTableRecord
  2
ACAD
 70
0
  0
ENDTAB
  0
TABLE
  2
BLOCK_RECORD
  5
1
100
AcDbSymbolTable
 70
0
  0
BLOCK_RECORD
  5
219
100
AcDbSymbolTableRecord
100
AcDbBlockTableRecord
  2
*Model_Space
  0
BLOCK_RECORD
  5
21A
100
AcDbSymbolTableRecord
100
AcDbBlockTableRecord
  2
*Paper_Space
  0
BLOCK_RECORD
  5
21B
100
AcDbSymbolTableRecord
100
AcDbBlockTableRecord
  2
_FILLED
  0
BLOCK_RECORD
  5
21C
100
AcDbSymbolTableRecord
100
AcDbBlockTableRecord
  2
*D0
  0
BLOCK_RECORD
  5
21D
100
AcDbSymbolTableRecord
100
AcDbBlockTableRecord
  2
*D1
  0
BLOCK_RECORD
  5
21E
100
AcDbSymbolTableRecord
100
AcDbBlockTableRecord
  2
*D2
  0
ENDTAB
  0
TABLE
  2
DIMSTYLE
  5
A
100
AcDbSymbolTable
 70
1
100
AcDbDimStyleTable
 71
0
  0
DIMSTYLE
105
21F
100
AcDbSymbolTableRecord
100
AcDbDimStyleTableRecord
  2
STANDARD
 70
0
  3

  4

 40
1.0
 41
3.0
 42
0.5
 43
0.38
 44
1.5
 45
0.0
 46
0.0
 47
0.01
 48
0.01
140
3.0
141
0.0
142
0.0
143
25.4
144
1.0
145
0.0
146
1.0
147
0.625
 71
1
 72
0
 73
0
 74
0
 75
0
 76
0
 77
1
 78
8
 79
2
170
0
171
1
172
0
173
0
174
0
175
0
176
0
177
0
178
0
270
2
179
2
271
2
272
2
273
2
274
2
275
0
280
0
281
0
282
0
283
1
284
8
285
0
286
0
287
3
288
0
340
11
278
44
341
21B
342
21B
343
21B
344
21B
  0
DIMSTYLE
105
220
100
AcDbSymbolTableRecord
100
AcDbDimStyleTableRecord
  2
DIMSTYLE_1
 70
0
  3

  4

 40
1.0
 41
3.0
 42
0.5
 43
0.38
 44
1.5
 45
0.0
 46
0.0
 47
0.0
 48
0.0
140
3.0
141
0.0
142
0.0
143
25.4
144
1.0
145
0.0
146
1.0
147
0.75
 71
0
 72
0
 73
0
 74
0
 75
0
 76
0
 77
1
 78
8
 79
2
170
0
171
1
172
0
173
0
174
0
175
0
176
0
177
0
178
0
270
2
179
2
271
2
272
2
273
2
274
2
275
0
280
0
281
0
282
0
283
1
284
8
285
0
286
0
287
3
288
0
340
11
278
44
341
21B
342
21B
343
21B
344
21B
  0
DIMSTYLE
105
221
100
AcDbSymbolTableRecord
100
AcDbDimStyleTableRecord
  2
DIMSTYLE_2
 70
0
  3

  4

 40
1.0
 41
3.0
 42
0.5
 43
0.38
 44
1.5
 45
0.0
 46
0.0
 47
0.0
 48
0.0
140
3.0
141
0.0
142
0.0
143
25.4
144
1.0
145
0.0
146
1.0
147
0.75
 71
0
 72
0
 73
0
 74
0
 75
0
 76
0
 77
1
 78
8
 79
2
170
0
171
1
172
0
173
0
174
0
175
0
176
0
177
0
178
0
270
2
179
2
271
1
272
1
273
2
274
2
275
0
280
0
281
0
282
0
283
1
284
8
285
0
286
0
287
3
288
0
340
11
278
44
341
21B
342
21B
343
21B
344
21B
  0
ENDTAB
  0
ENDSEC
  0
SECTION
  2
BLOCKS
  0
BLOCK
  5
20
100
AcDbEntity
  8
0
100
AcDbBlockBegin
  2
*Model_Space
 70
0
 10
0.0
 20
0.0
 30
0.0
  3
*Model_Space
  1

  0
ENDBLK
  5
21
100
AcDbEntity
  8
0
100
AcDbBlockEnd
  0
BLOCK
  5
1C
100
AcDbEntity
  8
0
100
AcDbBlockBegin
  2
*Paper_Space
 70
0
 10
0.0
 20
0.0
 30
0.0
  3
*Paper_Space
  1

  0
ENDBLK
  5
1D
100
AcDbEntity
  8
0
100
AcDbBlockEnd
  0
BLOCK
  5
222
100
AcDbEntity
  8
0
100
AcDbBlockBegin
  2
_FILLED
 70
64
 10
0.0
 20
0.0
 30
0.0
  3
_FILLED
  1

  0
SOLID
  5
223
100
AcDbEntity
  8
0
  6
BYBLOCK
 62
0
100
AcDbTrace
 10
0.0
 20
0.0
 30
0.0
 11
-1.0
 21
0.3166666667
 31
0.0
 12
-1.0
 22
-0.3166666667
 32
0.0
 13
-1.0
 23
-0.3166666667
 33
0.0
  0
ENDBLK
  5
224
100
AcDbEntity
  8
0
  6
BYBLOCK
 62
0
100
AcDbBlockEnd
  0
BLOCK
  5
225
100
AcDbEntity
  8
0
100
AcDbBlockBegin
 62
7
  6
CONTINUOUS
  2
*D0
 70
65
 10
0.0
 20
0.0
 30
0.0
  3
*D0
  1

  0
MTEXT
  5
226
100
AcDbEntity
  8
0
100
AcDbMText
 62
7
  6
CONTINUOUS
  7
STANDARD
 71
2
 72
1
 10
69.2207485441
 20
127.2547238372
 30
0.0
 11
1.0
 21
0.0
 31
0.0
 73
2
 44
0.9
  1
{\ftxt;\W0.0001;\H0.0001;\~}{\ftxt;\W1.5714285714;\H3.0; }{\ftxt;\W0.0001;\H0.0001;\~}
 40
3.0
 41
7.0714285714
  0
LINE
  5
227
100
AcDbEntity
  8
0
100
AcDbLine
 62
7
  6
CONTINUOUS
 10
26.2207485441
 20
111.6135238372
 30
0.0
 11
26.2207485441
 21
125.0047238372
 31
0.0
  0
LINE
  5
228
100
AcDbEntity
  8
0
100
AcDbLine
 62
7
  6
CONTINUOUS
 10
112.2207485441
 20
111.6135238372
 30
0.0
 11
112.2207485441
 21
125.0047238372
 31
0.0
  0
LINE
  5
229
100
AcDbEntity
  8
0
100
AcDbLine
 62
7
  6
CONTINUOUS
 10
26.2207485441
 20
123.5047238372
 30
0.0
 11
69.2207485441
 21
123.5047238372
 31
0.0
  0
LINE
  5
22A
100
AcDbEntity
  8
0
100
AcDbLine
 62
7
  6
CONTINUOUS
 10
112.2207485441
 20
123.5047238372
 30
0.0
 11
69.2207485441
 21
123.5047238372
 31
0.0
  0
INSERT
  5
22B
100
AcDbEntity
  8
0
100
AcDbBlockReference
 62
7
  6
CONTINUOUS
  2
_FILLED
 10
26.2207485441
 20
123.5047238372
 30
0.0
 41
3.0
 42
3.0
 43
3.0
 50
180.0
  0
INSERT
  5
22C
100
AcDbEntity
  8
0
100
AcDbBlockReference
 62
7
  6
CONTINUOUS
  2
_FILLED
 10
112.2207485441
 20
123.5047238372
 30
0.0
 41
3.0
 42
3.0
 43
3.0
 50
0.0
  0
ENDBLK
  5
22D
100
AcDbEntity
  8
0
  6
BYBLOCK
 62
0
100
AcDbBlockEnd
  0
BLOCK
  5
22E
100
AcDbEntity
  8
0
100
AcDbBlockBegin
 62
7
  6
CONTINUOUS
  2
*D1
 70
65
 10
0.0
 20
0.0
 30
0.0
  3
*D1
  1

  0
MTEXT
  5
22F
100
AcDbEntity
  8
0
100
AcDbMText
 62
7
  6
CONTINUOUS
  7
STANDARD
 71
2
 72
1
 10
11.4707485441
 20
72.5047238372
 30
0.0
 11
0.0
 21
1.0
 31
0.0
 73
2
 44
0.9
  1
{\ftxt;\W0.0001;\H0.0001;\~}{\ftxt;\W1.5714285714;\H3.0; }{\ftxt;\W0.0001;\H0.0001;\~}
 40
3.0
 41
7.0714285714
  0
LINE
  5
230
100
AcDbEntity
  8
0
100
AcDbLine
 62
7
  6
CONTINUOUS
 10
30.1622281943
 20
115.5047238372
 30
0.0
 11
13.7207485441
 21
115.5047238372
 31
0.0
  0
LINE
  5
231
100
AcDbEntity
  8
0
100
AcDbLine
 62
7
  6
CONTINUOUS
 10
30.1622281943
 20
29.5047238372
 30
0.0
 11
13.7207485441
 21
29.5047238372
 31
0.0
  0
LINE
  5
232
100
AcDbEntity
  8
0
100
AcDbLine
 62
7
  6
CONTINUOUS
 10
15.2207485441
 20
115.5047238372
 30
0.0
 11
15.2207485441
 21
72.5047238372
 31
0.0
  0
LINE
  5
233
100
AcDbEntity
  8
0
100
AcDbLine
 62
7
  6
CONTINUOUS
 10
15.2207485441
 20
29.5047238372
 30
0.0
 11
15.2207485441
 21
72.5047238372
 31
0.0
  0
INSERT
  5
234
100
AcDbEntity
  8
0
100
AcDbBlockReference
 62
7
  6
CONTINUOUS
  2
_FILLED
 10
15.2207485441
 20
115.5047238372
 30
0.0
 41
3.0
 42
3.0
 43
3.0
 50
90.0
  0
INSERT
  5
235
100
AcDbEntity
  8
0
100
AcDbBlockReference
 62
7
  6
CONTINUOUS
  2
_FILLED
 10
15.2207485441
 20
29.5047238372
 30
0.0
 41
3.0
 42
3.0
 43
3.0
 50
270.0
  0
ENDBLK
  5
236
100
AcDbEntity
  8
0
  6
BYBLOCK
 62
0
100
AcDbBlockEnd
  0
BLOCK
  5
237
100
AcDbEntity
  8
0
100
AcDbBlockBegin
 62
7
  6
CONTINUOUS
  2
*D2
 70
65
 10
0.0
 20
0.0
 30
0.0
  3
*D2
  1

  0
MTEXT
  5
238
100
AcDbEntity
  8
0
100
AcDbMText
 62
7
  6
CONTINUOUS
  7
STANDARD
 71
2
 72
1
 10
152.9624253495
 20
127.2547238372
 30
0.0
 11
1.0
 21
0.0
 31
0.0
 73
2
 44
0.9
  1
{\ftxt;\W0.0001;\H0.0001;\~}{\ftxt;\W2.1428571429;\H3.0; }{\ftxt;\W0.0001;\H0.0001;\~}
 40
3.0
 41
9.6428571429
  0
LINE
  5
239
100
AcDbEntity
  8
0
100
AcDbLine
 62
7
  6
CONTINUOUS
 10
148.1815147544
 20
73.0047238372
 30
0.0
 11
148.1815147544
 21
125.0047238372
 31
0.0
  0
LINE
  5
23A
100
AcDbEntity
  8
0
100
AcDbLine
 62
7
  6
CONTINUOUS
 10
157.7433359446
 20
73.0047063994
 30
0.0
 11
157.7433359446
 21
125.0047238372
 31
0.0
  0
LINE
  5
23B
100
AcDbEntity
  8
0
100
AcDbLine
 62
7
  6
CONTINUOUS
 10
148.1815147544
 20
123.5047238372
 30
0.0
 11
144.1815147544
 21
123.5047238372
 31
0.0
  0
LINE
  5
23C
100
AcDbEntity
  8
0
100
AcDbLine
 62
7
  6
CONTINUOUS
 10
144.1815147544
 20
123.5047238372
 30
0.0
 11
152.9624253495
 21
123.5047238372
 31
0.0
  0
LINE
  5
23D
100
AcDbEntity
  8
0
100
AcDbLine
 62
7
  6
CONTINUOUS
 10
157.7433359446
 20
123.5047238372
 30
0.0
 11
161.7433359446
 21
123.5047238372
 31
0.0
  0
LINE
  5
23E
100
AcDbEntity
  8
0
100
AcDbLine
 62
7
  6
CONTINUOUS
 10
161.7433359446
 20
123.5047238372
 30
0.0
 11
152.9624253495
 21
123.5047238372
 31
0.0
  0
INSERT
  5
23F
100
AcDbEntity
  8
0
100
AcDbBlockReference
 62
7
  6
CONTINUOUS
  2
_FILLED
 10
148.1815147544
 20
123.5047238372
 30
0.0
 41
3.0
 42
3.0
 43
3.0
  0
INSERT
  5
240
100
AcDbEntity
  8
0
100
AcDbBlockReference
 62
7
  6
CONTINUOUS
  2
_FILLED
 10
157.7433359446
 20
123.5047238372
 30
0.0
 41
3.0
 42
3.0
 43
3.0
 50
180.0
  0
ENDBLK
  5
241
100
AcDbEntity
  8
0
  6
BYBLOCK
 62
0
100
AcDbBlockEnd
  0
ENDSEC
  0
SECTION
  2
ENTITIES
  0
DIMENSION
  5
242
100
AcDbEntity
  8
0
100
AcDbDimension
 62
7
  6
CONTINUOUS
  2
*D0
 10
112.2207485441
 20
123.5047238372
 30
0.0
 11
68.7921786118
 21
123.5047238372
 31
0.0
 70
160
 71
2
 72
2
 41
0.9
 42
86.0
  1
{\ftxt;\W0.0001;\H0.0001;\~}{\ftxt;\W1.5714285714;\H3.0; }{\ftxt;\W0.0001;\H0.0001;\~}
  3
DIMSTYLE_1
100
AcDbAlignedDimension
 13
26.2207485441
 23
111.1135238372
 33
0.0
 14
112.2207485441
 24
111.1135238372
 34
0.0
100
AcDbRotatedDimension
  0
DIMENSION
  5
243
100
AcDbEntity
  8
0
100
AcDbDimension
 62
7
  6
CONTINUOUS
  2
*D1
 10
15.2207485441
 20
29.5047238372
 30
0.0
 11
15.2207485441
 21
72.0761525634
 31
0.0
 70
160
 71
2
 72
2
 41
0.9
 42
86.0
  1
{\ftxt;\W0.0001;\H0.0001;\~}{\ftxt;\W1.5714285714;\H3.0; }{\ftxt;\W0.0001;\H0.0001;\~}
  3
DIMSTYLE_1
100
AcDbAlignedDimension
 13
30.6622281943
 23
115.5047238372
 33
0.0
 14
30.6622281943
 24
29.5047238372
 34
0.0
 50
270.0
100
AcDbRotatedDimension
  0
DIMENSION
  5
244
100
AcDbEntity
  8
0
100
AcDbDimension
 62
7
  6
CONTINUOUS
  2
*D2
 10
157.7433359446
 20
123.5047238372
 30
0.0
 11
152.5338496857
 21
123.5047238372
 31
0.0
 70
160
 71
2
 72
2
 41
0.9
 42
9.5618211902
  1
{\ftxt;\W0.0001;\H0.0001;\~}{\ftxt;\W2.1428571429;\H3.0; }{\ftxt;\W0.0001;\H0.0001;\~}
  3
DIMSTYLE_2
100
AcDbAlignedDimension
 13
148.1815147544
 23
72.5047238372
 33
0.0
 14
157.7433359446
 24
72.5047063994
 34
0.0
100
AcDbRotatedDimension
  0
LINE
  5
245
100
AcDbEntity
  8
0
100
AcDbLine
 62
7
  6
CONTINUOUS
 10
26.2207485394
 20
33.5041222292
 30
0.0
 11
26.2207485441
 21
94.8247238372
 31
0.0
  0
LINE
  5
246
100
AcDbEntity
  8
SUPERFICI
100
AcDbLine
 62
7
  6
CONTINUOUS
 10
26.2207485441
 20
94.8247238372
 30
0.0
 11
26.2207485394
 21
111.5053254452
 31
0.0
  0
LWPOLYLINE
  5
247
100
AcDbEntity
  8
0
100
AcDbPolyline
 62
7
  6
CONTINUOUS
 90
13
 70
0
 43
0.3500000006
 10
12.756462925
 20
70.5761519165
 10
12.5421773071
 20
70.2904362488
 10
11.8993204536
 20
70.2904362488
 10
11.470748085
 20
70.5761519165
 10
11.470748085
 20
71.2190053711
 10
11.8993204536
 20
71.5047210388
 10
12.5421773071
 20
71.5047210388
 10
12.756462925
 20
71.2190053711
 10
13.1850341606
 20
71.6475834045
 10
14.0421766319
 20
71.6475834045
 10
14.4707490005
 20
71.2190053711
 10
14.4707490005
 20
70.5761519165
 10
14.0421766319
 20
70.1475829468
  0
LINE
  5
248
100
AcDbEntity
  8
SUPERFICI
100
AcDbLine
 62
7
  6
CONTINUOUS
 10
108.2207485441
 20
29.5047238372
 30
0.0
 11
80.3133603701
 21
29.5047238372
 31
0.0
  0
LINE
  5
249
100
AcDbEntity
  8
0
100
AcDbLine
 62
7
  6
CONTINUOUS
 10
30.2207485441
 20
29.5047238372
 30
0.0
 11
80.3133603701
 21
29.5047238372
 31
0.0
  0
LINE
  5
24A
100
AcDbEntity
  8
RACCORDO
100
AcDbLine
 62
250
  6
CONTINUOUS
 10
26.9009656537
 20
50.1705963812
 30
0.0
 11
26.9034355777
 21
111.5235487836
 31
0.0
  0
LINE
  5
24B
100
AcDbEntity
  8
RACCORDO
100
AcDbLine
 62
250
  6
CONTINUOUS
 10
26.9034355777
 20
33.4858988908
 30
0.0
 11
26.9009656537
 21
50.1705963812
 31
0.0
  0
LWPOLYLINE
  5
24C
100
AcDbEntity
  8
0
100
AcDbPolyline
 62
7
  6
CONTINUOUS
 90
10
 70
0
 43
0.3500000006
 10
70.2921768036
 20
127.2547244568
 10
69.6493188171
 20
126.6118710022
 10
69.2207498474
 20
125.754723999
 10
69.2207498474
 20
124.683292511
 10
69.6493188171
 20
124.2547235413
 10
70.2921768036
 20
124.2547235413
 10
70.7207503052
 20
124.683292511
 10
70.7207503052
 20
125.5404395142
 10
70.2921768036
 20
125.9690084839
 10
69.3636076813
 20
125.9690084839
  0
LINE
  5
24D
100
AcDbEntity
  8
RACCORDO
100
AcDbLine
 62
250
  6
CONTINUOUS
 10
80.3661702136
 20
29.9318925887
 30
0.0
 11
58.0753268746
 21
29.9318925887
 31
0.0
  0
LINE
  5
24E
100
AcDbEntity
  8
RACCORDO
100
AcDbLine
 62
250
  6
CONTINUOUS
 10
80.3707485441
 20
30.1883238136
 30
0.0
 11
58.0707485441
 21
30.1883238136
 31
0.0
  0
LWPOLYLINE
  5
24F
100
AcDbEntity
  8
0
100
AcDbPolyline
 62
7
  6
CONTINUOUS
 90
10
 70
0
 43
0.3500000006
 10
11.470748085
 20
73.576152832
 10
12.1136060715
 20
72.9332993774
 10
12.9707485428
 20
72.504721344
 10
14.0421766319
 20
72.504721344
 10
14.4707490005
 20
72.9332993774
 10
14.4707490005
 20
73.576152832
 10
14.0421766319
 20
74.0047218018
 10
13.1850341606
 20
74.0047218018
 10
12.756462925
 20
73.576152832
 10
12.756462925
 20
72.6475837097
  0
LINE
  5
250
100
AcDbEntity
  8
RACCORDO
100
AcDbLine
 62
250
  6
CONTINUOUS
 10
30.6622281943
 20
29.9358845501
 30
0.0
 11
30.6622281943
 21
29.5047238372
 31
0.0
  0
LINE
  5
251
100
AcDbEntity
  8
RACCORDO
100
AcDbLine
 62
250
  6
CONTINUOUS
 10
30.6622281943
 20
115.0735631243
 30
0.0
 11
30.6622281943
 21
115.5047238372
 31
0.0
  0
LINE
  5
252
100
AcDbEntity
  8
RACCORDO
100
AcDbLine
 62
250
  6
CONTINUOUS
 10
26.653170392
 20
33.8959238372
 30
0.0
 11
26.2207485441
 21
33.8959238372
 31
0.0
  0
LINE
  5
253
100
AcDbEntity
  8
RACCORDO
100
AcDbLine
 62
250
  6
CONTINUOUS
 10
111.7883266963
 20
33.8959238372
 30
0.0
 11
112.2207485441
 21
33.8959238372
 31
0.0
  0
LINE
  5
254
100
AcDbEntity
  8
0
100
AcDbLine
 62
7
  6
CONTINUOUS
 10
74.0057023048
 20
44.2745440565
 30
0.0
 11
73.5037982065
 21
44.2745440565
 31
0.0
  0
LINE
  5
255
100
AcDbEntity
  8
0
100
AcDbLine
 62
7
  6
CONTINUOUS
 10
72.7047443878
 20
44.2745440565
 30
0.0
 11
72.1850510462
 21
44.2745440565
 31
0.0
  0
LINE
  5
256
100
AcDbEntity
  8
0
100
AcDbLine
 62
7
  6
CONTINUOUS
 10
72.0318275441
 20
44.2745438372
 30
0.0
 11
71.4818795441
 21
44.2745438372
 31
0.0
  0
LINE
  5
257
100
AcDbEntity
  8
0
100
AcDbLine
 62
7
  6
CONTINUOUS
 10
70.4921295441
 20
44.2745438372
 30
0.0
 11
69.9759985441
 21
44.2745438372
 31
0.0
  0
LINE
  5
258
100
AcDbEntity
  8
0
100
AcDbLine
 62
7
  6
CONTINUOUS
 10
69.8940625441
 20
44.2745438372
 30
0.0
 11
69.3836105441
 21
44.2745438372
 31
0.0
  0
LINE
  5
259
100
AcDbEntity
  8
0
100
AcDbLine
 62
7
  6
CONTINUOUS
 10
68.6559955441
 20
44.2745438372
 30
0.0
 11
68.5828135441
 21
44.2745438372
 31
0.0
  0
LINE
  5
25A
100
AcDbEntity
  8
0
100
AcDbLine
 62
7
  6
CONTINUOUS
 10
67.8580845441
 20
44.2745438372
 30
0.0
 11
67.3588985441
 21
44.2745438372
 31
0.0
  0
LINE
  5
25B
100
AcDbEntity
  8
0
100
AcDbLine
 62
7
  6
CONTINUOUS
 10
67.0780015441
 20
44.2745438372
 30
0.0
 11
66.5562085441
 21
44.2745438372
 31
0.0
  0
LINE
  5
25C
100
AcDbEntity
  8
0
100
AcDbLine
 62
7
  6
CONTINUOUS
 10
65.5590545441
 20
44.2745438372
 30
0.0
 11
65.0992245441
 21
44.2745438372
 31
0.0
  0
LINE
  5
25D
100
AcDbEntity
  8
0
100
AcDbLine
 62
7
  6
CONTINUOUS
 10
71.3467075441
 20
44.7735798372
 30
0.0
 11
70.6361125441
 21
44.7735798372
 31
0.0
  0
LINE
  5
25E
100
AcDbEntity
  8
0
100
AcDbLine
 62
7
  6
CONTINUOUS
 10
70.7428475441
 20
45.1597318372
 30
0.0
 11
71.2424275441
 21
45.1597318372
 31
0.0
  0
LINE
  5
25F
100
AcDbEntity
  8
0
100
AcDbLine
 62
7
  6
CONTINUOUS
 10
72.9845172605
 20
45.2528024758
 30
0.0
 11
72.7047443878
 21
45.2528024758
 31
0.0
  0
LINE
  5
260
100
AcDbEntity
  8
0
100
AcDbLine
 62
7
  6
CONTINUOUS
 10
72.687442521
 20
45.6621987599
 30
0.0
 11
72.9856419755
 21
45.6621987599
 31
0.0
  0
LINE
  5
261
100
AcDbEntity
  8
RACCORDO
100
AcDbLine
 62
7
  6
CONTINUOUS
 10
46.7259850636
 20
94.4995634701
 30
0.0
 11
46.7259850636
 21
50.5098842043
 31
0.0
  0
LINE
  5
262
100
AcDbEntity
  8
0
100
AcDbLine
 62
7
  6
CONTINUOUS
 10
64.3067595441
 20
46.7742798372
 30
0.0
 11
64.8735875441
 21
46.7742798372
 31
0.0
  0
LINE
  5
263
100
AcDbEntity
  8
0
100
AcDbLine
 62
7
  6
CONTINUOUS
 10
65.8411335441
 20
46.7742798372
 30
0.0
 11
66.3625695441
 21
46.7742798372
 31
0.0
  0
LINE
  5
264
100
AcDbEntity
  8
0
100
AcDbLine
 62
7
  6
CONTINUOUS
 10
67.5846105441
 20
46.7742798372
 30
0.0
 11
68.1059715441
 21
46.7742798372
 31
0.0
  0
LINE
  5
265
100
AcDbEntity
  8
0
100
AcDbLine
 62
7
  6
CONTINUOUS
 10
69.1440465441
 20
46.7742798372
 30
0.0
 11
69.6603095441
 21
46.7742798372
 31
0.0
  0
LINE
  5
266
100
AcDbEntity
  8
0
100
AcDbLine
 62
7
  6
CONTINUOUS
 10
70.7600745441
 20
46.7742798372
 30
0.0
 11
71.2648465441
 21
46.7742798372
 31
0.0
  0
LINE
  5
267
100
AcDbEntity
  8
0
100
AcDbLine
 62
7
  6
CONTINUOUS
 10
66.5562085441
 20
46.7744298372
 30
0.0
 11
67.0780015441
 21
46.7744298372
 31
0.0
  0
LINE
  5
268
100
AcDbEntity
  8
RACCORDO
100
AcDbLine
 62
250
  6
CONTINUOUS
 10
26.9009829975
 20
50.0047238372
 30
0.0
 11
46.501882349
 21
50.0047238372
 31
0.0
  0
LINE
  5
269
100
AcDbEntity
  8
RACCORDO
100
AcDbLine
 62
250
  6
CONTINUOUS
 10
91.9396147393
 20
50.0047238372
 30
0.0
 11
111.5405140907
 21
50.0047238372
 31
0.0
  0
LINE
  5
26A
100
AcDbEntity
  8
RACCORDO
100
AcDbLine
 62
7
  6
CONTINUOUS
 10
47.2259089112
 20
50.0099603567
 30
0.0
 11
91.2155881771
 21
50.0099603567
 31
0.0
  0
LINE
  5
26B
100
AcDbEntity
  8
RACCORDO
100
AcDbLine
 62
250
  6
CONTINUOUS
 10
26.6506382013
 20
50.1847238372
 30
0.0
 11
26.2207485441
 21
50.1847238372
 31
0.0
  0
LINE
  5
26C
100
AcDbEntity
  8
RACCORDO
100
AcDbLine
 62
250
  6
CONTINUOUS
 10
111.790858887
 20
50.1847238372
 30
0.0
 11
112.2207485441
 21
50.1847238372
 31
0.0
  0
LINE
  5
26D
100
AcDbEntity
  8
RACCORDO
100
AcDbLine
 62
250
  6
CONTINUOUS
 10
58.0707485441
 20
49.6426669544
 30
0.0
 11
58.0707485441
 21
30.1883238136
 31
0.0
  0
LINE
  5
26E
100
AcDbEntity
  8
RACCORDO
100
AcDbLine
 62
250
  6
CONTINUOUS
 10
58.0707485441
 20
95.36678072
 30
0.0
 11
58.0707485441
 21
114.8211238608
 31
0.0
  0
LINE
  5
26F
100
AcDbEntity
  8
RACCORDO
100
AcDbLine
 62
250
  6
CONTINUOUS
 10
58.1281554688
 20
29.9318919122
 30
0.0
 11
58.1281367182
 21
29.5047238372
 31
0.0
  0
LINE
  5
270
100
AcDbEntity
  8
RACCORDO
100
AcDbLine
 62
250
  6
CONTINUOUS
 10
58.1281554688
 20
115.0775557622
 30
0.0
 11
58.1281367182
 21
115.5047238372
 31
0.0
  0
LINE
  5
271
100
AcDbEntity
  8
0
100
AcDbLine
 62
7
  6
CONTINUOUS
 10
68.5828135441
 20
44.2745438372
 30
0.0
 11
67.9706875441
 21
45.9068238372
 31
0.0
  0
LINE
  5
272
100
AcDbEntity
  8
0
100
AcDbLine
 62
7
  6
CONTINUOUS
 10
68.1059715441
 20
46.7742798372
 30
0.0
 11
68.6222535441
 21
45.3864188372
 31
0.0
  0
LINE
  5
273
100
AcDbEntity
  8
0
100
AcDbLine
 62
7
  6
CONTINUOUS
 10
65.0992245441
 20
44.2745438372
 30
0.0
 11
64.3067595441
 21
46.7742798372
 31
0.0
  0
LINE
  5
274
100
AcDbEntity
  8
0
100
AcDbLine
 62
7
  6
CONTINUOUS
 10
64.8735875441
 20
46.7742798372
 30
0.0
 11
65.3500825441
 21
45.0536338372
 31
0.0
  0
LINE
  5
275
100
AcDbEntity
  8
0
100
AcDbLine
 62
7
  6
CONTINUOUS
 10
71.2648465441
 20
46.7742798372
 30
0.0
 11
72.0318275441
 21
44.2745438372
 31
0.0
  0
LINE
  5
276
100
AcDbEntity
  8
0
100
AcDbLine
 62
7
  6
CONTINUOUS
 10
69.6603095441
 20
46.7742798372
 30
0.0
 11
69.8940625441
 21
44.2745438372
 31
0.0
  0
LINE
  5
277
100
AcDbEntity
  8
0
100
AcDbLine
 62
7
  6
CONTINUOUS
 10
69.3836105441
 20
44.2745438372
 30
0.0
 11
69.2764065441
 21
45.9000198372
 31
0.0
  0
LINE
  5
278
100
AcDbEntity
  8
0
100
AcDbLine
 62
7
  6
CONTINUOUS
 10
66.5562085441
 20
44.2745438372
 30
0.0
 11
66.5562085441
 21
46.7744298372
 31
0.0
  0
LWPOLYLINE
  5
279
100
AcDbEntity
  8
0
100
AcDbPolyline
 62
7
  6
CONTINUOUS
 90
4
 70
0
 43
0.3500000006
 10
66.8636069183
 20
124.683292511
 10
66.8636069183
 20
125.5404395142
 10
67.2921758881
 20
125.9690084839
 10
67.9350338745
 20
125.9690084839
  0
LINE
  5
27A
100
AcDbEntity
  8
0
100
AcDbLine
 62
7
  6
CONTINUOUS
 10
67.0780015441
 20
46.7744298372
 30
0.0
 11
67.0780015441
 21
44.2745438372
 31
0.0
  0
LINE
  5
27B
100
AcDbEntity
  8
RACCORDO
100
AcDbLine
 62
250
  6
CONTINUOUS
 10
91.2598129627
 20
95.0437121033
 30
0.0
 11
91.2155881771
 21
94.9994873177
 31
0.0
  0
LINE
  5
27C
100
AcDbEntity
  8
RACCORDO
100
AcDbLine
 62
250
  6
CONTINUOUS
 10
46.6816546206
 20
50.4655537612
 30
0.0
 11
46.7259850636
 21
50.5098842043
 31
0.0
  0
LINE
  5
27D
100
AcDbEntity
  8
RACCORDO
100
AcDbLine
 62
250
  6
CONTINUOUS
 10
91.7598424677
 20
94.5438939132
 30
0.0
 11
91.7155120247
 21
94.4995634701
 31
0.0
  0
LINE
  5
27E
100
AcDbEntity
  8
RACCORDO
100
AcDbLine
 62
250
  6
CONTINUOUS
 10
47.1816841256
 20
49.9657355711
 30
0.0
 11
47.2259089112
 21
50.0099603567
 31
0.0
  0
LWPOLYLINE
  5
27F
100
AcDbEntity
  8
0
100
AcDbPolyline
 62
7
  6
CONTINUOUS
 90
4
 70
0
 43
0.3500000006
 10
14.0421766319
 20
70.1475829468
 10
13.1850341606
 20
70.1475829468
 10
12.756462925
 20
70.5761519165
 10
12.756462925
 20
71.2190053711
  0
LINE
  5
280
100
AcDbEntity
  8
0
100
AcDbLine
 62
7
  6
CONTINUOUS
 10
71.4818795441
 20
44.2745438372
 30
0.0
 11
71.3467075441
 21
44.7735798372
 31
0.0
  0
LINE
  5
281
100
AcDbEntity
  8
0
100
AcDbLine
 62
7
  6
CONTINUOUS
 10
71.2424275441
 20
45.1597318372
 30
0.0
 11
71.0026565441
 21
46.0874158372
 31
0.0
  0
LINE
  5
282
100
AcDbEntity
  8
RACCORDO
100
AcDbLine
 62
250
  6
CONTINUOUS
 10
69.2207485441
 20
49.9581850489
 30
0.0
 11
69.2207485441
 21
49.6409191748
 31
0.0
  0
LINE
  5
283
100
AcDbEntity
  8
0
100
AcDbLine
 62
250
  6
CONTINUOUS
 10
69.2207485441
 20
49.6409191748
 30
0.0
 11
69.2207485441
 21
30.188249076
 31
0.0
  0
LINE
  5
284
100
AcDbEntity
  8
RACCORDO
100
AcDbLine
 62
250
  6
CONTINUOUS
 10
69.2207485441
 20
29.5047238372
 30
0.0
 11
69.2207485441
 21
30.188249076
 31
0.0
  0
LINE
  5
285
100
AcDbEntity
  8
RACCORDO
100
AcDbLine
 62
250
  6
CONTINUOUS
 10
69.2207485441
 20
95.0512626255
 30
0.0
 11
69.2207485441
 21
115.5047238372
 31
0.0
  0
LINE
  5
286
100
AcDbEntity
  8
0
100
AcDbLine
 62
7
  6
CONTINUOUS
 10
72.1850510462
 20
44.2745440565
 30
0.0
 11
72.1850510462
 21
46.7450744256
 31
0.0
  0
LINE
  5
287
100
AcDbEntity
  8
0
100
AcDbLine
 62
7
  6
CONTINUOUS
 10
67.9706875441
 20
45.9068238372
 30
0.0
 11
67.8580845441
 21
44.2745438372
 31
0.0
  0
LINE
  5
288
100
AcDbEntity
  8
0
100
AcDbLine
 62
7
  6
CONTINUOUS
 10
67.3588985441
 20
44.2745438372
 30
0.0
 11
67.5846105441
 21
46.7742798372
 31
0.0
  0
LINE
  5
289
100
AcDbEntity
  8
RACCORDO
100
AcDbLine
 62
250
  6
CONTINUOUS
 10
26.2207485441
 20
72.5047238372
 30
0.0
 11
46.672442803
 21
72.5047238186
 31
0.0
  0
LINE
  5
28A
100
AcDbEntity
  8
RACCORDO
100
AcDbLine
 62
250
  6
CONTINUOUS
 10
91.7690542853
 20
72.5047238558
 30
0.0
 11
112.2207485441
 21
72.5047238372
 31
0.0
  0
LINE
  5
28B
100
AcDbEntity
  8
RACCORDO
100
AcDbLine
 62
250
  6
CONTINUOUS
 10
46.6816546206
 20
94.5438939132
 30
0.0
 11
46.7259850636
 21
94.4995634701
 31
0.0
  0
LINE
  5
28C
100
AcDbEntity
  8
RACCORDO
100
AcDbLine
 62
250
  6
CONTINUOUS
 10
91.2155881771
 20
50.0099603567
 30
0.0
 11
91.2598129627
 21
49.9657355711
 31
0.0
  0
LINE
  5
28D
100
AcDbEntity
  8
RACCORDO
100
AcDbLine
 62
250
  6
CONTINUOUS
 10
47.1816841256
 20
95.0437121033
 30
0.0
 11
47.2259089112
 21
94.9994873177
 31
0.0
  0
LINE
  5
28E
100
AcDbEntity
  8
RACCORDO
100
AcDbLine
 62
250
  6
CONTINUOUS
 10
91.7155120247
 20
50.5098842043
 30
0.0
 11
91.7598424677
 21
50.4655537612
 31
0.0
  0
LINE
  5
28F
100
AcDbEntity
  8
0
100
AcDbLine
 62
7
  6
CONTINUOUS
 10
72.687442521
 20
46.3484249122
 30
0.0
 11
72.687442521
 21
45.6621987599
 31
0.0
  0
LINE
  5
290
100
AcDbEntity
  8
0
100
AcDbLine
 62
7
  6
CONTINUOUS
 10
72.7047443878
 20
45.2528024758
 30
0.0
 11
72.7047443878
 21
44.2745440565
 31
0.0
  0
LINE
  5
291
100
AcDbEntity
  8
0
100
AcDbLine
 62
7
  6
CONTINUOUS
 10
73.5265549414
 20
45.456169705
 30
0.0
 11
73.5265549414
 21
45.4413984471
 31
0.0
  0
LINE
  5
292
100
AcDbEntity
  8
0
100
AcDbLine
 62
7
  6
CONTINUOUS
 10
65.3500825441
 20
45.0536338372
 30
0.0
 11
65.8411335441
 21
46.7742798372
 31
0.0
  0
LINE
  5
293
100
AcDbEntity
  8
0
100
AcDbLine
 62
7
  6
CONTINUOUS
 10
66.3625695441
 20
46.7742798372
 30
0.0
 11
65.5590545441
 21
44.2745438372
 31
0.0
  0
LINE
  5
294
100
AcDbEntity
  8
RACCORDO
100
AcDbLine
 62
250
  6
CONTINUOUS
 10
80.3133416195
 20
115.0775557622
 30
0.0
 11
80.3133603701
 21
115.5047238372
 31
0.0
  0
LINE
  5
295
100
AcDbEntity
  8
RACCORDO
100
AcDbLine
 62
250
  6
CONTINUOUS
 10
80.3133416195
 20
29.9318919122
 30
0.0
 11
80.3133603701
 21
29.5047238372
 31
0.0
  0
LINE
  5
296
100
AcDbEntity
  8
RACCORDO
100
AcDbLine
 62
250
  6
CONTINUOUS
 10
80.3707485441
 20
49.6426669544
 30
0.0
 11
80.3707485441
 21
30.1883238136
 31
0.0
  0
LINE
  5
297
100
AcDbEntity
  8
RACCORDO
100
AcDbLine
 62
250
  6
CONTINUOUS
 10
80.3707485441
 20
95.36678072
 30
0.0
 11
80.3707485441
 21
114.8211238608
 31
0.0
  0
LINE
  5
298
100
AcDbEntity
  8
0
100
AcDbLine
 62
7
  6
CONTINUOUS
 10
71.0026565441
 20
46.0874158372
 30
0.0
 11
70.7428475441
 21
45.1597318372
 31
0.0
  0
LINE
  5
299
100
AcDbEntity
  8
0
100
AcDbLine
 62
7
  6
CONTINUOUS
 10
70.6361125441
 20
44.7735798372
 30
0.0
 11
70.4921295441
 21
44.2745438372
 31
0.0
  0
LINE
  5
29A
100
AcDbEntity
  8
0
100
AcDbLine
 62
7
  6
CONTINUOUS
 10
69.9759985441
 20
44.2745438372
 30
0.0
 11
70.7600745441
 21
46.7742798372
 31
0.0
  0
LINE
  5
29B
100
AcDbEntity
  8
0
100
AcDbLine
 62
7
  6
CONTINUOUS
 10
68.6222535441
 20
45.3864188372
 30
0.0
 11
69.1440465441
 21
46.7742798372
 31
0.0
  0
LINE
  5
29C
100
AcDbEntity
  8
0
100
AcDbLine
 62
7
  6
CONTINUOUS
 10
69.2764065441
 20
45.9000198372
 30
0.0
 11
68.6559955441
 21
44.2745438372
 31
0.0
  0
LINE
  5
29D
100
AcDbEntity
  8
RACCORDO
100
AcDbLine
 62
7
  6
CONTINUOUS
 10
91.7155120247
 20
50.5098842043
 30
0.0
 11
91.7155120247
 21
94.4995634701
 31
0.0
  0
LINE
  5
29E
100
AcDbEntity
  8
RACCORDO
100
AcDbLine
 62
250
  6
CONTINUOUS
 10
26.6506382013
 20
94.8247238372
 30
0.0
 11
26.2207485441
 21
94.8247238372
 31
0.0
  0
LINE
  5
29F
100
AcDbEntity
  8
RACCORDO
100
AcDbLine
 62
250
  6
CONTINUOUS
 10
111.790858887
 20
94.8247238372
 30
0.0
 11
112.2207485441
 21
94.8247238372
 31
0.0
  0
LINE
  5
2A0
100
AcDbEntity
  8
RACCORDO
100
AcDbLine
 62
7
  6
CONTINUOUS
 10
91.2155881771
 20
94.9994873177
 30
0.0
 11
47.2259089112
 21
94.9994873177
 31
0.0
  0
LINE
  5
2A1
100
AcDbEntity
  8
RACCORDO
100
AcDbLine
 62
250
  6
CONTINUOUS
 10
111.5405140907
 20
95.0047238372
 30
0.0
 11
91.9396147393
 21
95.0047238372
 31
0.0
  0
LINE
  5
2A2
100
AcDbEntity
  8
RACCORDO
100
AcDbLine
 62
250
  6
CONTINUOUS
 10
46.501882349
 20
95.0047238372
 30
0.0
 11
26.9009829975
 21
95.0047238372
 31
0.0
  0
LINE
  5
2A3
100
AcDbEntity
  8
RACCORDO
100
AcDbLine
 62
250
  6
CONTINUOUS
 10
107.779268894
 20
29.9358845501
 30
0.0
 11
107.779268894
 21
29.5047238372
 31
0.0
  0
LINE
  5
2A4
100
AcDbEntity
  8
RACCORDO
100
AcDbLine
 62
250
  6
CONTINUOUS
 10
107.779268894
 20
115.0735631243
 30
0.0
 11
107.779268894
 21
115.5047238372
 31
0.0
  0
LINE
  5
2A5
100
AcDbEntity
  8
RACCORDO
100
AcDbLine
 62
250
  6
CONTINUOUS
 10
26.653170392
 20
111.1135238372
 30
0.0
 11
26.2207485441
 21
111.1135238372
 31
0.0
  0
LINE
  5
2A6
100
AcDbEntity
  8
RACCORDO
100
AcDbLine
 62
250
  6
CONTINUOUS
 10
111.7883266963
 20
111.1135238372
 30
0.0
 11
112.2207485441
 21
111.1135238372
 31
0.0
  0
LINE
  5
2A7
100
AcDbEntity
  8
SUPERFICI
100
AcDbLine
 62
7
  6
CONTINUOUS
 10
112.2207485489
 20
33.5041222292
 30
0.0
 11
112.2207485489
 21
111.5053254452
 31
0.0
  0
LINE
  5
2A8
100
AcDbEntity
  8
RACCORDO
100
AcDbLine
 62
250
  6
CONTINUOUS
 10
111.5405314345
 20
94.8388512932
 30
0.0
 11
111.5380615106
 21
33.4858988908
 31
0.0
  0
LINE
  5
2A9
100
AcDbEntity
  8
RACCORDO
100
AcDbLine
 62
250
  6
CONTINUOUS
 10
111.5380615106
 20
111.5235487836
 30
0.0
 11
111.5405314345
 21
94.8388512932
 31
0.0
  0
LINE
  5
2AA
100
AcDbEntity
  8
RACCORDO
100
AcDbLine
 62
250
  6
CONTINUOUS
 10
58.0707485441
 20
114.8211238608
 30
0.0
 11
80.3707485441
 21
114.8211238608
 31
0.0
  0
LINE
  5
2AB
100
AcDbEntity
  8
RACCORDO
100
AcDbLine
 62
250
  6
CONTINUOUS
 10
58.0753268746
 20
115.0775550857
 30
0.0
 11
80.3661702136
 21
115.0775550857
 31
0.0
  0
LINE
  5
2AC
100
AcDbEntity
  8
SUPERFICI
100
AcDbLine
 62
7
  6
CONTINUOUS
 10
108.2207485441
 20
115.5047238372
 30
0.0
 11
80.3133603701
 21
115.5047238372
 31
0.0
  0
LINE
  5
2AD
100
AcDbEntity
  8
SUPERFICI
100
AcDbLine
 62
7
  6
CONTINUOUS
 10
30.2207485441
 20
115.5047238372
 30
0.0
 11
58.1281367182
 21
115.5047238372
 31
0.0
  0
LINE
  5
2AE
100
AcDbEntity
  8
0
100
AcDbLine
 62
7
  6
CONTINUOUS
 10
58.1281367182
 20
115.5047238372
 30
0.0
 11
80.3133603701
 21
115.5047238372
 31
0.0
  0
LWPOLYLINE
  5
2AF
100
AcDbEntity
  8
0
100
AcDbPolyline
 62
7
  6
CONTINUOUS
 90
13
 70
0
 43
0.3500000006
 10
67.2921758881
 20
125.9690084839
 10
67.0064647522
 20
126.1832929688
 10
67.0064647522
 20
126.8261554871
 10
67.2921758881
 20
127.2547244568
 10
67.9350338745
 20
127.2547244568
 10
68.2207495422
 20
126.8261554871
 10
68.2207495422
 20
126.1832929688
 10
67.9350338745
 20
125.9690084839
 10
68.3636073761
 20
125.5404395142
 10
68.3636073761
 20
124.683292511
 10
67.9350338745
 20
124.2547235413
 10
67.2921758881
 20
124.2547235413
 10
66.8636069183
 20
124.683292511
  0
LINE
  5
2B0
100
AcDbEntity
  8
0
100
AcDbLine
 62
7
  6
CONTINUOUS
 10
150.4739437774
 20
29.5047238372
 30
0.0
 11
152.4579090031
 21
29.5047238372
 31
0.0
  0
LWPOLYLINE
  5
2B1
100
AcDbEntity
  8
0
100
AcDbPolyline
 62
7
  6
CONTINUOUS
 90
10
 70
0
 43
0.3500000006
 10
150.1767067566
 20
124.2547235413
 10
151.0338537598
 20
125.1118705444
 10
151.2481382446
 20
125.9690084839
 10
151.2481382446
 20
126.8261554871
 10
150.8195692749
 20
127.2547244568
 10
150.1767067566
 20
127.2547244568
 10
149.7481377869
 20
126.8261554871
 10
149.7481377869
 20
125.9690084839
 10
150.1767067566
 20
125.5404395142
 10
151.1052849426
 20
125.5404395142
  0
LWPOLYLINE
  5
2B2
100
AcDbEntity
  8
0
100
AcDbPolyline
 62
7
  6
CONTINUOUS
 90
10
 70
0
 43
0.3500000006
 10
154.8909926147
 20
127.2547244568
 10
154.2481391602
 20
126.6118710022
 10
153.8195701904
 20
125.754723999
 10
153.8195701904
 20
124.683292511
 10
154.2481391602
 20
124.2547235413
 10
154.8909926147
 20
124.2547235413
 10
155.3195615845
 20
124.683292511
 10
155.3195615845
 20
125.5404395142
 10
154.8909926147
 20
125.9690084839
 10
153.9624325562
 20
125.9690084839
  0
LWPOLYLINE
  5
2B3
100
AcDbEntity
  8
SUPERFICI
100
AcDbPolyline
 62
7
  6
CONTINUOUS
 90
3
 70
0
 10
148.2574866734
 20
114.1978201316
 10
148.4906037918
 20
114.3302185815
 10
150.3745618273
 20
115.4075164998
  0
LINE
  5
2B4
100
AcDbEntity
  8
RACCORDO
100
AcDbLine
 62
7
  6
CONTINUOUS
 10
152.4579090031
 20
29.5047238372
 30
0.0
 11
155.4968804794
 21
29.9318234251
 31
0.0
  0
LINE
  5
2B5
100
AcDbEntity
  8
RACCORDO
100
AcDbLine
 62
250
  6
CONTINUOUS
 10
155.3978827623
 20
29.9318919122
 30
0.0
 11
152.3584236386
 21
29.5047238372
 31
0.0
  0
LINE
  5
2B6
100
AcDbEntity
  8
RACCORDO
100
AcDbLine
 62
250
  6
CONTINUOUS
 10
153.6006813252
 20
29.9358845501
 30
0.0
 11
150.5328134429
 21
29.5047238372
 31
0.0
  0
LINE
  5
2B7
100
AcDbEntity
  8
RACCORDO
100
AcDbLine
 62
7
  6
CONTINUOUS
 10
155.4968804794
 20
29.9318234251
 30
0.0
 11
155.3978827623
 21
29.9318919122
 31
0.0
  0
LINE
  5
2B8
100
AcDbEntity
  8
RACCORDO
100
AcDbLine
 62
250
  6
CONTINUOUS
 10
155.3978827623
 20
29.9318919122
 30
0.0
 11
153.6006813252
 21
29.9358845501
 31
0.0
  0
LINE
  5
2B9
100
AcDbEntity
  8
RACCORDO
100
AcDbLine
 62
250
  6
CONTINUOUS
 10
155.7523611007
 20
30.188249076
 30
0.0
 11
153.8534721823
 21
30.1926286703
 31
0.0
  0
LINE
  5
2BA
100
AcDbEntity
  8
RACCORDO
100
AcDbLine
 62
7
  6
CONTINUOUS
 10
148.2575210638
 20
30.8116211324
 30
0.0
 11
148.2574871042
 21
30.8116272984
 31
0.0
  0
LINE
  5
2BB
100
AcDbEntity
  8
RACCORDO
100
AcDbLine
 62
250
  6
CONTINUOUS
 10
148.2569376789
 20
33.8338878161
 30
0.0
 11
150.4496128166
 21
33.8988442163
 31
0.0
  0
LINE
  5
2BC
100
AcDbEntity
  8
RACCORDO
100
AcDbLine
 62
250
  6
CONTINUOUS
 10
153.5260944436
 20
33.8959238372
 30
0.0
 11
150.4492531199
 21
33.8959238372
 31
0.0
  0
LINE
  5
2BD
100
AcDbEntity
  8
RACCORDO
100
AcDbLine
 62
250
  6
CONTINUOUS
 10
148.2557707744
 20
33.5046541467
 30
0.0
 11
150.4028850277
 21
33.502638992
 31
0.0
  0
LINE
  5
2BE
100
AcDbEntity
  8
RACCORDO
100
AcDbLine
 62
250
  6
CONTINUOUS
 10
153.5260944436
 20
33.8959238372
 30
0.0
 11
153.778556121
 21
33.8652610188
 31
0.0
  0
LINE
  5
2BF
100
AcDbEntity
  8
SUPERFICI
100
AcDbLine
 62
7
  6
CONTINUOUS
 10
148.2574867278
 20
30.811627512
 30
0.0
 11
149.2464845763
 21
30.2484240199
 31
0.0
  0
LINE
  5
2C0
100
AcDbEntity
  8
SUPERFICI
100
AcDbLine
 62
7
  6
CONTINUOUS
 10
149.2464845763
 20
30.2484240199
 30
0.0
 11
150.3745618273
 21
29.6019311746
 31
0.0
  0
LINE
  5
2C1
100
AcDbEntity
  8
0
100
AcDbLine
 62
7
  6
CONTINUOUS
 10
157.3483627715
 20
44.2745438372
 30
0.0
 11
157.3432896362
 21
44.2745438372
 31
0.0
  0
LINE
  5
2C2
100
AcDbEntity
  8
0
100
AcDbLine
 62
7
  6
CONTINUOUS
 10
157.3404113966
 20
44.2745438372
 30
0.0
 11
157.2601734961
 21
44.2745438372
 31
0.0
  0
LINE
  5
2C3
100
AcDbEntity
  8
0
100
AcDbLine
 62
7
  6
CONTINUOUS
 10
157.5307595691
 20
46.7742798372
 30
0.0
 11
157.4403373292
 21
46.7742798372
 31
0.0
  0
LINE
  5
2C4
100
AcDbEntity
  8
SUPERFICI
100
AcDbLine
 62
7
  6
CONTINUOUS
 10
157.5312987873
 20
46.8036091222
 30
0.0
 11
157.4596037742
 21
46.8036091222
 31
0.0
  0
LINE
  5
2C5
100
AcDbEntity
  8
RACCORDO
100
AcDbLine
 62
250
  6
CONTINUOUS
 10
148.2821401762
 20
50.0095926881
 30
0.0
 11
151.9096837381
 21
50.1851158894
 31
0.0
  0
LINE
  5
2C6
100
AcDbEntity
  8
RACCORDO
100
AcDbLine
 62
250
  6
CONTINUOUS
 10
148.1815147544
 20
50.0095177785
 30
0.0
 11
148.2821401762
 21
50.0095926881
 31
0.0
  0
LINE
  5
2C7
100
AcDbEntity
  8
RACCORDO
100
AcDbLine
 62
250
  6
CONTINUOUS
 10
155.2133231463
 20
50.0047238372
 30
0.0
 11
157.197230104
 21
50.0047238372
 31
0.0
  0
LINE
  5
2C8
100
AcDbEntity
  8
RACCORDO
100
AcDbLine
 62
250
  6
CONTINUOUS
 10
154.9684855062
 20
50.1847238372
 30
0.0
 11
151.9096616559
 21
50.1847238372
 31
0.0
  0
LINE
  5
2C9
100
AcDbEntity
  8
RACCORDO
100
AcDbLine
 62
7
  6
CONTINUOUS
 10
157.3477201503
 20
49.9581850489
 30
0.0
 11
157.1969084579
 21
49.9608174768
 31
0.0
  0
LINE
  5
2CA
100
AcDbEntity
  8
RACCORDO
100
AcDbLine
 62
250
  6
CONTINUOUS
 10
157.2090857504
 20
49.6484978661
 30
0.0
 11
157.641984528
 21
49.6409191748
 31
0.0
  0
LINE
  5
2CB
100
AcDbEntity
  8
RACCORDO
100
AcDbLine
 62
250
  6
CONTINUOUS
 10
154.9684855084
 20
50.1847238767
 30
0.0
 11
155.2226122553
 21
50.1705963416
 31
0.0
  0
LINE
  5
2CC
100
AcDbEntity
  8
RACCORDO
100
AcDbLine
 62
250
  6
CONTINUOUS
 10
154.9592067036
 20
50.0190123852
 30
0.0
 11
155.2133231463
 21
50.0047238372
 31
0.0
  0
LINE
  5
2CD
100
AcDbEntity
  8
RACCORDO
100
AcDbLine
 62
250
  6
CONTINUOUS
 10
157.2155225273
 20
50.4492034506
 30
0.0
 11
157.215146831
 21
50.4492096892
 31
0.0
  0
LWPOLYLINE
  5
2CE
100
AcDbEntity
  8
0
100
AcDbPolyline
 62
7
  6
CONTINUOUS
 90
3
 70
0
 43
0.3500000006
 10
152.8195698853
 20
124.540439209
 10
152.7481477661
 20
124.3261547241
 10
152.6052854004
 20
124.0404390564
  0
LINE
  5
2CF
100
AcDbEntity
  8
RACCORDO
100
AcDbLine
 62
7
  6
CONTINUOUS
 10
148.181999536
 20
94.9324850276
 30
0.0
 11
148.1815147544
 21
94.9495330161
 31
0.0
  0
LINE
  5
2D0
100
AcDbEntity
  8
RACCORDO
100
AcDbLine
 62
250
  6
CONTINUOUS
 10
148.2571579213
 20
111.1755608728
 30
0.0
 11
148.2555995271
 21
111.504792688
 31
0.0
  0
LINE
  5
2D1
100
AcDbEntity
  8
RACCORDO
100
AcDbLine
 62
7
  6
CONTINUOUS
 10
148.1815147544
 20
30.9428811491
 30
0.0
 11
148.1815147544
 21
114.0673599676
 31
0.0
  0
LINE
  5
2D2
100
AcDbEntity
  8
RACCORDO
100
AcDbLine
 62
250
  6
CONTINUOUS
 10
148.2557707744
 20
33.5046541467
 30
0.0
 11
148.2569376789
 21
33.8338878161
 31
0.0
  0
LINE
  5
2D3
100
AcDbEntity
  8
RACCORDO
100
AcDbLine
 62
7
  6
CONTINUOUS
 10
148.1819995361
 20
50.0769626485
 30
0.0
 11
148.1815147544
 21
50.0599146583
 31
0.0
  0
LINE
  5
2D4
100
AcDbEntity
  8
RACCORDO
100
AcDbLine
 62
250
  6
CONTINUOUS
 10
155.2226122575
 20
94.8388512932
 30
0.0
 11
155.2133231463
 21
95.0047238372
 31
0.0
  0
LINE
  5
2D5
100
AcDbEntity
  8
RACCORDO
100
AcDbLine
 62
250
  6
CONTINUOUS
 10
155.2133231463
 20
50.0047238372
 30
0.0
 11
155.2226122575
 21
50.1705963812
 31
0.0
  0
LINE
  5
2D6
100
AcDbEntity
  8
RACCORDO
100
AcDbLine
 62
250
  6
CONTINUOUS
 10
148.1815147544
 20
72.5047238372
 30
0.0
 11
157.7433359446
 21
72.5047238372
 31
0.0
  0
LWPOLYLINE
  5
2D7
100
AcDbEntity
  8
RACCORDO
100
AcDbPolyline
 62
7
  6
CONTINUOUS
 90
15
 70
0
 10
157.1992252365
 20
49.7311436075
 10
157.1993367931
 20
49.7304074916
 10
157.1995105792
 20
49.7291610477
 10
157.1994987823
 20
49.7292693211
 10
157.1993390994
 20
49.7308247601
 10
157.199103495
 20
49.7334671443
 10
157.198816868
 20
49.7371607615
 10
157.1984922463
 20
49.7419811155
 10
157.1981574497
 20
49.7477250683
 10
157.1978228482
 20
49.7543747008
 10
157.1974956549
 20
49.7619739599
 10
157.1971885513
 20
49.7704080225
 10
157.1969075075
 20
49.7796626661
 10
157.196656456
 20
49.789762688
 10
157.1964404991
 20
49.8006467812
  0
LINE
  5
2D8
100
AcDbEntity
  8
RACCORDO
100
AcDbLine
 62
250
  6
CONTINUOUS
 10
157.1979903086
 20
94.9948706743
 30
0.0
 11
157.197230104
 21
95.0047238386
 31
0.0
  0
LINE
  5
2D9
100
AcDbEntity
  8
RACCORDO
100
AcDbLine
 62
7
  6
CONTINUOUS
 10
157.2119507119
 20
94.6281190274
 30
0.0
 11
157.2067851083
 21
94.7379163609
 31
0.0
  0
LINE
  5
2DA
100
AcDbEntity
  8
RACCORDO
100
AcDbLine
 62
7
  6
CONTINUOUS
 10
157.2067851083
 20
94.7379163609
 30
0.0
 11
157.2025361846
 21
94.8439815583
 31
0.0
  0
LINE
  5
2DB
100
AcDbEntity
  8
RACCORDO
100
AcDbLine
 62
7
  6
CONTINUOUS
 10
157.2025361846
 20
94.8439815583
 30
0.0
 11
157.1992880002
 21
94.9442329039
 31
0.0
  0
LINE
  5
2DC
100
AcDbEntity
  8
RACCORDO
100
AcDbLine
 62
7
  6
CONTINUOUS
 10
157.1992880002
 20
94.9442329039
 30
0.0
 11
157.1975532606
 21
95.014581325
 31
0.0
  0
LINE
  5
2DD
100
AcDbEntity
  8
RACCORDO
100
AcDbLine
 62
7
  6
CONTINUOUS
 10
157.1976917907
 20
95.0081425037
 30
0.0
 11
157.196666058
 21
95.0633598438
 31
0.0
  0
LINE
  5
2DE
100
AcDbEntity
  8
RACCORDO
100
AcDbLine
 62
7
  6
CONTINUOUS
 10
157.196666058
 20
95.0633598438
 30
0.0
 11
157.1962764206
 21
95.094034356
 31
0.0
  0
LINE
  5
2DF
100
AcDbEntity
  8
RACCORDO
100
AcDbLine
 62
7
  6
CONTINUOUS
 10
157.1964404991
 20
49.8006467812
 30
0.0
 11
157.1961232239
 21
49.8247693539
 31
0.0
  0
LINE
  5
2E0
100
AcDbEntity
  8
RACCORDO
100
AcDbLine
 62
7
  6
CONTINUOUS
 10
157.1962764206
 20
95.094034356
 30
0.0
 11
157.1960470966
 21
95.1229987128
 31
0.0
  0
LINE
  5
2E1
100
AcDbEntity
  8
RACCORDO
100
AcDbLine
 62
7
  6
CONTINUOUS
 10
157.1961232239
 20
49.8247693539
 30
0.0
 11
157.1959782972
 21
49.8518162038
 31
0.0
  0
LWPOLYLINE
  5
2E2
100
AcDbEntity
  8
RACCORDO
100
AcDbPolyline
 62
7
  6
CONTINUOUS
 90
10
 70
0
 10
157.7437130889
 20
72.5047238185
 10
157.7364931347
 20
75.2072819026
 10
157.7147339442
 20
77.9067439055
 10
157.6794847367
 20
80.5291006056
 10
157.6317967915
 20
83.074322974
 10
157.5725503946
 20
85.542371768
 10
157.5014408822
 20
87.933177055
 10
157.4177056275
 20
90.2465845099
 10
157.320954638
 20
92.4824912409
 10
157.2119507119
 20
94.6281190274
  0
LINE
  5
2E3
100
AcDbEntity
  8
RACCORDO
100
AcDbLine
 62
7
  6
CONTINUOUS
 10
157.1960470966
 20
95.1229987128
 30
0.0
 11
157.1959713951
 21
95.1500804494
 31
0.0
  0
LINE
  5
2E4
100
AcDbEntity
  8
RACCORDO
100
AcDbLine
 62
7
  6
CONTINUOUS
 10
157.7364931347
 20
69.8021657718
 30
0.0
 11
157.7437130889
 21
72.5047238461
 31
0.0
  0
LINE
  5
2E5
100
AcDbEntity
  8
RACCORDO
100
AcDbLine
 62
7
  6
CONTINUOUS
 10
157.1959782972
 20
49.8518162038
 30
0.0
 11
157.1960230851
 21
49.8816479154
 31
0.0
  0
LINE
  5
2E6
100
AcDbEntity
  8
RACCORDO
100
AcDbLine
 62
7
  6
CONTINUOUS
 10
157.1959713951
 20
95.1500804494
 30
0.0
 11
157.1960482191
 21
95.1750609068
 31
0.0
  0
LINE
  5
2E7
100
AcDbEntity
  8
RACCORDO
100
AcDbLine
 62
7
  6
CONTINUOUS
 10
157.7147339442
 20
67.1027037689
 30
0.0
 11
157.7365287926
 21
69.8088331687
 31
0.0
  0
LINE
  5
2E8
100
AcDbEntity
  8
RACCORDO
100
AcDbLine
 62
7
  6
CONTINUOUS
 10
157.1960230851
 20
49.8816479154
 30
0.0
 11
157.1962651421
 21
49.9141074509
 31
0.0
  0
LINE
  5
2E9
100
AcDbEntity
  8
RACCORDO
100
AcDbLine
 62
7
  6
CONTINUOUS
 10
157.1960482191
 20
95.1750609068
 30
0.0
 11
157.1962710155
 21
95.1978143362
 31
0.0
  0
LINE
  5
2EA
100
AcDbEntity
  8
RACCORDO
100
AcDbLine
 62
7
  6
CONTINUOUS
 10
157.6794847367
 20
64.4803470688
 30
0.0
 11
157.7148057681
 21
67.1093712478
 31
0.0
  0
LINE
  5
2EB
100
AcDbEntity
  8
RACCORDO
100
AcDbLine
 62
7
  6
CONTINUOUS
 10
157.1962651421
 20
49.9141074509
 30
0.0
 11
157.1967115928
 21
49.9489547105
 31
0.0
  0
LINE
  5
2EC
100
AcDbEntity
  8
RACCORDO
100
AcDbLine
 62
7
  6
CONTINUOUS
 10
157.6317967915
 20
61.9351247004
 30
0.0
 11
157.6795922366
 21
64.487014339
 31
0.0
  0
LINE
  5
2ED
100
AcDbEntity
  8
RACCORDO
100
AcDbLine
 62
7
  6
CONTINUOUS
 10
157.1967115928
 20
49.9489547105
 30
0.0
 11
157.1973706184
 21
49.9859844372
 31
0.0
  0
LWPOLYLINE
  5
2EE
100
AcDbEntity
  8
RACCORDO
100
AcDbPolyline
 62
7
  6
CONTINUOUS
 90
13
 70
0
 10
157.1962710155
 20
95.1978143362
 10
157.1966259075
 20
95.2182168869
 10
157.1968463506
 20
95.2274603876
 10
157.197092977
 20
95.2360664156
 10
157.1973616597
 20
95.2439834072
 10
157.1976496062
 20
95.2512309347
 10
157.1979520082
 20
95.2577900596
 10
157.1982581494
 20
95.2635575451
 10
157.1985624547
 20
95.2685704292
 10
157.1988557253
 20
95.2728117055
 10
157.1991149328
 20
95.2761102195
 10
157.199328841
 20
95.278511079
 10
157.1994150756
 20
95.2793882285
  0
LINE
  5
2EF
100
AcDbEntity
  8
RACCORDO
100
AcDbLine
 62
7
  6
CONTINUOUS
 10
157.1973706184
 20
49.9859844372
 30
0.0
 11
157.1982429377
 21
50.0252484394
 31
0.0
  0
LINE
  5
2F0
100
AcDbEntity
  8
RACCORDO
100
AcDbLine
 62
7
  6
CONTINUOUS
 10
157.5725503946
 20
59.4670759064
 30
0.0
 11
157.6319387784
 21
61.9417913354
 31
0.0
  0
LINE
  5
2F1
100
AcDbEntity
  8
RACCORDO
100
AcDbLine
 62
7
  6
CONTINUOUS
 10
157.1979903061
 20
50.0145768981
 30
0.0
 11
157.1995043412
 21
50.0728825252
 31
0.0
  0
LINE
  5
2F2
100
AcDbEntity
  8
RACCORDO
100
AcDbLine
 62
7
  6
CONTINUOUS
 10
157.5014408822
 20
57.0762706194
 30
0.0
 11
157.5727289197
 21
59.4737420507
 31
0.0
  0
LINE
  5
2F3
100
AcDbEntity
  8
RACCORDO
100
AcDbLine
 62
7
  6
CONTINUOUS
 10
157.1992883961
 20
50.0652271401
 30
0.0
 11
157.2025368285
 21
50.1654828782
 31
0.0
  0
LINE
  5
2F4
100
AcDbEntity
  8
RACCORDO
100
AcDbLine
 62
7
  6
CONTINUOUS
 10
157.4177056275
 20
54.7628631645
 30
0.0
 11
157.501659896
 21
57.0829359418
 31
0.0
  0
LINE
  5
2F5
100
AcDbEntity
  8
RACCORDO
100
AcDbLine
 62
7
  6
CONTINUOUS
 10
157.2010397409
 20
50.1224532122
 30
0.0
 11
157.2048794255
 21
50.2263221953
 31
0.0
  0
LINE
  5
2F6
100
AcDbEntity
  8
RACCORDO
100
AcDbLine
 62
7
  6
CONTINUOUS
 10
157.320954638
 20
52.5269564335
 30
0.0
 11
157.4179698407
 21
54.7695271792
 31
0.0
  0
LINE
  5
2F7
100
AcDbEntity
  8
RACCORDO
100
AcDbLine
 62
7
  6
CONTINUOUS
 10
157.2045409485
 20
50.2179167392
 30
0.0
 11
157.2096717199
 21
50.3348226811
 31
0.0
  0
LINE
  5
2F8
100
AcDbEntity
  8
RACCORDO
100
AcDbLine
 62
7
  6
CONTINUOUS
 10
157.2092565194
 20
50.3261053019
 30
0.0
 11
157.3212678117
 21
52.5336185059
 31
0.0
  0
LINE
  5
2F9
100
AcDbEntity
  8
RACCORDO
100
AcDbLine
 62
250
  6
CONTINUOUS
 10
157.2230990362
 20
50.5985489919
 30
0.0
 11
157.2151468311
 21
50.4492096918
 31
0.0
  0
LINE
  5
2FA
100
AcDbEntity
  8
RACCORDO
100
AcDbLine
 62
7
  6
CONTINUOUS
 10
157.2148574694
 20
50.4369433206
 30
0.0
 11
157.2155225254
 21
50.449203425
 31
0.0
  0
LINE
  5
2FB
100
AcDbEntity
  8
0
100
AcDbLine
 62
7
  6
CONTINUOUS
 10
157.5303050755
 20
46.7678680223
 30
0.0
 11
157.5307595691
 21
46.7742798372
 31
0.0
  0
LINE
  5
2FC
100
AcDbEntity
  8
0
100
AcDbLine
 62
7
  6
CONTINUOUS
 10
157.3993766579
 20
45.0538780424
 30
0.0
 11
157.4033484874
 21
45.1076143687
 31
0.0
  0
LINE
  5
2FD
100
AcDbEntity
  8
0
100
AcDbLine
 62
7
  6
CONTINUOUS
 10
157.4089595215
 20
45.0531511176
 30
0.0
 11
157.4131103433
 21
45.1076620638
 31
0.0
  0
LINE
  5
2FE
100
AcDbEntity
  8
RACCORDO
100
AcDbLine
 62
250
  6
CONTINUOUS
 10
157.1979902185
 20
50.014573209
 30
0.0
 11
157.197230104
 21
50.0047238349
 31
0.0
  0
LINE
  5
2FF
100
AcDbEntity
  8
RACCORDO
100
AcDbLine
 62
250
  6
CONTINUOUS
 10
154.9592067036
 20
94.9904352892
 30
0.0
 11
155.2133231463
 21
95.0047238372
 31
0.0
  0
LINE
  5
300
100
AcDbEntity
  8
RACCORDO
100
AcDbLine
 62
250
  6
CONTINUOUS
 10
154.9684855062
 20
94.8247238372
 30
0.0
 11
155.2226122575
 21
94.8388512932
 31
0.0
  0
LINE
  5
301
100
AcDbEntity
  8
RACCORDO
100
AcDbLine
 62
7
  6
CONTINUOUS
 10
157.3477201503
 20
95.0512626255
 30
0.0
 11
157.1969029697
 21
95.0486301018
 31
0.0
  0
LINE
  5
302
100
AcDbEntity
  8
RACCORDO
100
AcDbLine
 62
250
  6
CONTINUOUS
 10
157.641984528
 20
95.3685284996
 30
0.0
 11
157.2090857504
 21
95.3609498083
 31
0.0
  0
LINE
  5
303
100
AcDbEntity
  8
RACCORDO
100
AcDbLine
 62
250
  6
CONTINUOUS
 10
157.2155225218
 20
94.5602443174
 30
0.0
 11
157.2151468261
 21
94.5602380752
 31
0.0
  0
LINE
  5
304
100
AcDbEntity
  8
RACCORDO
100
AcDbLine
 62
250
  6
CONTINUOUS
 10
154.9684855062
 20
94.8247238372
 30
0.0
 11
151.9096616559
 21
94.8247238372
 31
0.0
  0
LINE
  5
305
100
AcDbEntity
  8
RACCORDO
100
AcDbLine
 62
250
  6
CONTINUOUS
 10
157.197230104
 20
95.0047238372
 30
0.0
 11
155.2133231463
 21
95.0047238372
 31
0.0
  0
LINE
  5
306
100
AcDbEntity
  8
RACCORDO
100
AcDbLine
 62
250
  6
CONTINUOUS
 10
148.1815147544
 20
94.9999298959
 30
0.0
 11
148.2821401762
 21
94.9998549863
 31
0.0
  0
LINE
  5
307
100
AcDbEntity
  8
RACCORDO
100
AcDbLine
 62
250
  6
CONTINUOUS
 10
148.2821401762
 20
94.9998549863
 30
0.0
 11
151.9096837381
 21
94.824331785
 31
0.0
  0
LWPOLYLINE
  5
308
100
AcDbEntity
  8
0
100
AcDbPolyline
 62
7
  6
CONTINUOUS
 90
10
 70
0
 43
0.3500000006
 10
152.7481477661
 20
124.7547236938
 10
152.8195698853
 20
124.6118703918
 10
152.8195698853
 20
124.540439209
 10
152.6767075195
 20
124.3975768433
 10
152.6052854004
 20
124.3975768433
 10
152.5338451538
 20
124.4690080261
 10
152.5338451538
 20
124.540439209
 10
152.6052854004
 20
124.683292511
 10
152.6767075195
 20
124.7547236938
 10
152.7481477661
 20
124.7547236938
  0
LINE
  5
309
100
AcDbEntity
  8
RACCORDO
100
AcDbLine
 62
250
  6
CONTINUOUS
 10
153.5260944438
 20
111.1135238357
 30
0.0
 11
153.7785561208
 21
111.1441866571
 31
0.0
  0
LINE
  5
30A
100
AcDbEntity
  8
RACCORDO
100
AcDbLine
 62
250
  6
CONTINUOUS
 10
153.6006813252
 20
115.0735631243
 30
0.0
 11
155.3969374928
 21
115.0775550857
 31
0.0
  0
LINE
  5
30B
100
AcDbEntity
  8
RACCORDO
100
AcDbLine
 62
250
  6
CONTINUOUS
 10
148.2557707744
 20
111.5047935277
 30
0.0
 11
150.4028850277
 21
111.5068086824
 31
0.0
  0
LINE
  5
30C
100
AcDbEntity
  8
RACCORDO
100
AcDbLine
 62
250
  6
CONTINUOUS
 10
153.8534721822
 20
114.8168190041
 30
0.0
 11
155.7523611007
 21
114.8211985984
 31
0.0
  0
LINE
  5
30D
100
AcDbEntity
  8
RACCORDO
100
AcDbLine
 62
7
  6
CONTINUOUS
 10
155.3978827623
 20
115.0775557622
 30
0.0
 11
155.4968804794
 21
115.0776242493
 31
0.0
  0
LINE
  5
30E
100
AcDbEntity
  8
RACCORDO
100
AcDbLine
 62
250
  6
CONTINUOUS
 10
153.5260944436
 20
111.1135238372
 30
0.0
 11
150.4492531199
 21
111.1135238372
 31
0.0
  0
LINE
  5
30F
100
AcDbEntity
  8
SUPERFICI
100
AcDbLine
 62
7
  6
CONTINUOUS
 10
150.4739437774
 20
115.5047238372
 30
0.0
 11
152.3584236386
 21
115.5047238372
 31
0.0
  0
LINE
  5
310
100
AcDbEntity
  8
0
100
AcDbLine
 62
7
  6
CONTINUOUS
 10
152.3584236386
 20
115.5047238372
 30
0.0
 11
152.4579090031
 21
115.5047238372
 31
0.0
  0
LINE
  5
311
100
AcDbEntity
  8
RACCORDO
100
AcDbLine
 62
250
  6
CONTINUOUS
 10
148.2569376789
 20
111.1755598583
 30
0.0
 11
150.4496128166
 21
111.1106034581
 31
0.0
  0
LINE
  5
312
100
AcDbEntity
  8
RACCORDO
100
AcDbLine
 62
250
  6
CONTINUOUS
 10
153.6006813252
 20
115.0735631243
 30
0.0
 11
150.5328134429
 21
115.5047238372
 31
0.0
  0
LINE
  5
313
100
AcDbEntity
  8
RACCORDO
100
AcDbLine
 62
250
  6
CONTINUOUS
 10
155.3978827623
 20
115.0775557622
 30
0.0
 11
152.3584236386
 21
115.5047238372
 31
0.0
  0
LINE
  5
314
100
AcDbEntity
  8
RACCORDO
100
AcDbLine
 62
7
  6
CONTINUOUS
 10
152.4579090031
 20
115.5047238372
 30
0.0
 11
155.4968804794
 21
115.0776242493
 31
0.0
  0
ARC
  5
315
100
AcDbEntity
  8
RACCORDO
100
AcDbCircle
 62
250
  6
CONTINUOUS
 10
30.5432373397
 20
-175.8000995544
 30
0.0
 40
205.9927455452
100
AcDbArc
 50
89.9765040533
 51
90.0955288521
  0
ARC
  5
316
100
AcDbEntity
  8
RACCORDO
100
AcDbCircle
 62
250
  6
CONTINUOUS
 10
30.588368253
 20
-174.2941123463
 30
0.0
 40
204.2300102522
100
AcDbArc
 50
89.9792789365
 51
90.0988010558
  0
ARC
  5
317
100
AcDbEntity
  8
RACCORDO
100
AcDbCircle
 62
250
  6
CONTINUOUS
 10
-154.9530713114
 20
33.8566258277
 30
0.0
 40
181.6062459553
100
AcDbArc
 50
359.8931082962
 51
0.0123983076
  0
ARC
  5
318
100
AcDbEntity
  8
RACCORDO
100
AcDbCircle
 62
250
  6
CONTINUOUS
 10
24.2739398313
 20
43.2649541511
 30
0.0
 40
68.268135602
100
AcDbArc
 50
88.0030356129
 51
88.3658694019
  0
ARC
  5
319
100
AcDbEntity
  8
0
100
AcDbCircle
 62
7
  6
CONTINUOUS
 10
30.2207485425
 20
33.5047238358
 30
0.0
 40
3.9999999986
100
AcDbArc
 50
180.0086173667
 51
270.0000000229
  0
ARC
  5
31A
100
AcDbEntity
  8
RACCORDO
100
AcDbCircle
 62
250
  6
CONTINUOUS
 10
30.226245197
 20
33.5090730501
 30
0.0
 40
3.5734052774
100
AcDbArc
 50
179.8597696096
 51
270.1594981168
  0
ARC
  5
31B
100
AcDbEntity
  8
RACCORDO
100
AcDbCircle
 62
250
  6
CONTINUOUS
 10
30.1845904822
 20
33.473761675
 30
0.0
 40
3.2812564068
100
AcDbArc
 50
179.7880599703
 51
270.2653450057
  0
ARC
  5
31C
100
AcDbEntity
  8
RACCORDO
100
AcDbCircle
 62
250
  6
CONTINUOUS
 10
47.1677835594
 20
50.450053465
 30
0.0
 40
0.8010885715
100
AcDbArc
 50
180.0603486927
 51
269.93644548
  0
ARC
  5
31D
100
AcDbEntity
  8
RACCORDO
100
AcDbCircle
 62
250
  6
CONTINUOUS
 10
47.1818228639
 20
50.466299846
 30
0.0
 40
0.5001687998
100
AcDbArc
 50
180.0854662006
 51
269.9145047757
  0
ARC
  5
31E
100
AcDbEntity
  8
RACCORDO
100
AcDbCircle
 62
250
  6
CONTINUOUS
 10
30.5432333917
 20
320.8057919699
 30
0.0
 40
205.9889902883
100
AcDbArc
 50
269.9044726205
 51
270.0234974731
  0
ARC
  5
31F
100
AcDbEntity
  8
RACCORDO
100
AcDbCircle
 62
250
  6
CONTINUOUS
 10
30.5883683216
 20
319.3036607006
 30
0.0
 40
204.2301109321
100
AcDbArc
 50
269.9011989737
 51
270.020721034
  0
ARC
  5
320
100
AcDbEntity
  8
RACCORDO
100
AcDbCircle
 62
250
  6
CONTINUOUS
 10
-154.9531420603
 20
111.1528217635
 30
0.0
 40
181.6063167041
100
AcDbArc
 50
359.9876017235
 51
0.1068916884
  0
ARC
  5
321
100
AcDbEntity
  8
RACCORDO
100
AcDbCircle
 62
250
  6
CONTINUOUS
 10
24.2739401333
 20
101.7444834147
 30
0.0
 40
68.2681254889
100
AcDbArc
 50
271.6341305866
 51
271.9969644306
  0
ARC
  5
322
100
AcDbEntity
  8
SUPERFICI
100
AcDbCircle
 62
7
  6
CONTINUOUS
 10
30.2207485425
 20
111.5047238386
 30
0.0
 40
3.9999999986
100
AcDbArc
 50
89.9999999771
 51
179.9913826333
  0
ARC
  5
323
100
AcDbEntity
  8
RACCORDO
100
AcDbCircle
 62
250
  6
CONTINUOUS
 10
30.2262465629
 20
111.5003774651
 30
0.0
 40
3.5734045348
100
AcDbArc
 50
89.8405236559
 51
180.1402758823
  0
ARC
  5
324
100
AcDbEntity
  8
RACCORDO
100
AcDbCircle
 62
250
  6
CONTINUOUS
 10
30.1845909016
 20
111.5356897853
 30
0.0
 40
3.2812548571
100
AcDbArc
 50
89.7345291794
 51
180.212006111
  0
ARC
  5
325
100
AcDbEntity
  8
RACCORDO
100
AcDbCircle
 62
250
  6
CONTINUOUS
 10
47.1677682064
 20
94.5593988789
 30
0.0
 40
0.8010732136
100
AcDbArc
 50
90.0634299697
 51
179.9399841307
  0
ARC
  5
326
100
AcDbEntity
  8
RACCORDO
100
AcDbCircle
 62
250
  6
CONTINUOUS
 10
47.1818137964
 20
94.5431505893
 30
0.0
 40
0.5001597282
100
AcDbArc
 50
90.085383632
 51
179.9148485274
  0
ARC
  5
327
100
AcDbEntity
  8
RACCORDO
100
AcDbCircle
 62
250
  6
CONTINUOUS
 10
107.8982636966
 20
-175.7963442815
 30
0.0
 40
205.9889902743
100
AcDbArc
 50
89.9044726205
 51
90.0234974731
  0
ARC
  5
328
100
AcDbEntity
  8
RACCORDO
100
AcDbCircle
 62
250
  6
CONTINUOUS
 10
107.8531287667
 20
-174.2942130428
 30
0.0
 40
204.2301109487
100
AcDbArc
 50
89.9011989737
 51
90.020721034
  0
ARC
  5
329
100
AcDbEntity
  8
RACCORDO
100
AcDbCircle
 62
250
  6
CONTINUOUS
 10
293.3946391641
 20
33.856625911
 30
0.0
 40
181.6063167197
100
AcDbArc
 50
179.9876017235
 51
180.1068916884
  0
ARC
  5
32A
100
AcDbEntity
  8
RACCORDO
100
AcDbCircle
 62
250
  6
CONTINUOUS
 10
114.1675569549
 20
43.2649642614
 30
0.0
 40
68.2681254873
100
AcDbArc
 50
91.6341305866
 51
91.9969644306
  0
ARC
  5
32B
100
AcDbEntity
  8
SUPERFICI
100
AcDbCircle
 62
7
  6
CONTINUOUS
 10
108.2207485457
 20
33.5047238358
 30
0.0
 40
3.9999999986
100
AcDbArc
 50
269.9999999771
 51
359.9913826333
  0
ARC
  5
32C
100
AcDbEntity
  8
RACCORDO
100
AcDbCircle
 62
250
  6
CONTINUOUS
 10
108.2152505235
 20
33.5090702111
 30
0.0
 40
3.5734045351
100
AcDbArc
 50
269.8405236854
 51
0.1402758548
  0
ARC
  5
32D
100
AcDbEntity
  8
RACCORDO
100
AcDbCircle
 62
250
  6
CONTINUOUS
 10
108.2569051843
 20
33.4737588918
 30
0.0
 40
3.2812557494
100
AcDbArc
 50
269.7345467613
 51
0.2119885379
  0
ARC
  5
32E
100
AcDbEntity
  8
RACCORDO
100
AcDbCircle
 62
250
  6
CONTINUOUS
 10
91.2737310518
 20
50.4500481355
 30
0.0
 40
0.801071043
100
AcDbArc
 50
270.0634607629
 51
359.9400311723
  0
ARC
  5
32F
100
AcDbEntity
  8
RACCORDO
100
AcDbCircle
 62
250
  6
CONTINUOUS
 10
91.259684815
 20
50.4662966213
 30
0.0
 40
0.5001582044
100
AcDbArc
 50
270.0854151933
 51
359.9149013951
  0
ARC
  5
330
100
AcDbEntity
  8
RACCORDO
100
AcDbCircle
 62
250
  6
CONTINUOUS
 10
107.8982597486
 20
320.8095472206
 30
0.0
 40
205.9927455371
100
AcDbArc
 50
269.9765040533
 51
270.0955288521
  0
ARC
  5
331
100
AcDbEntity
  8
RACCORDO
100
AcDbCircle
 62
250
  6
CONTINUOUS
 10
107.8531288353
 20
319.3035600227
 30
0.0
 40
204.2300102542
100
AcDbArc
 50
269.9792789365
 51
270.0988010558
  0
ARC
  5
332
100
AcDbEntity
  8
RACCORDO
100
AcDbCircle
 62
250
  6
CONTINUOUS
 10
293.3945684075
 20
111.1528218468
 30
0.0
 40
181.6062459631
100
AcDbArc
 50
179.8931082962
 51
180.0123983076
  0
ARC
  5
333
100
AcDbEntity
  8
RACCORDO
100
AcDbCircle
 62
250
  6
CONTINUOUS
 10
114.167557257
 20
101.7444935225
 30
0.0
 40
68.2681356012
100
AcDbArc
 50
268.0030356129
 51
268.3658694019
  0
ARC
  5
334
100
AcDbEntity
  8
SUPERFICI
100
AcDbCircle
 62
7
  6
CONTINUOUS
 10
108.2207485457
 20
111.5047238386
 30
0.0
 40
3.9999999986
100
AcDbArc
 50
0.0086173667
 51
90.0000000229
  0
ARC
  5
335
100
AcDbEntity
  8
RACCORDO
100
AcDbCircle
 62
250
  6
CONTINUOUS
 10
108.2152518889
 20
111.5003746219
 30
0.0
 40
3.5734052771
100
AcDbArc
 50
359.8597696476
 51
90.1594980798
  0
ARC
  5
336
100
AcDbEntity
  8
RACCORDO
100
AcDbCircle
 62
250
  6
CONTINUOUS
 10
108.2569076126
 20
111.5356870063
 30
0.0
 40
3.2812555108
100
AcDbArc
 50
359.7880423235
 51
90.265362662
  0
ARC
  5
337
100
AcDbEntity
  8
RACCORDO
100
AcDbCircle
 62
250
  6
CONTINUOUS
 10
91.2737135289
 20
94.5593942094
 30
0.0
 40
0.8010885715
100
AcDbArc
 50
0.0603486927
 51
89.9364440796
  0
ARC
  5
338
100
AcDbEntity
  8
RACCORDO
100
AcDbCircle
 62
250
  6
CONTINUOUS
 10
91.2596742244
 20
94.5431478284
 30
0.0
 40
0.5001687998
100
AcDbArc
 50
0.0854662006
 51
89.9145047757
  0
ARC
  5
339
100
AcDbEntity
  8
0
100
AcDbCircle
 62
7
  6
CONTINUOUS
 10
-91.9648489153
 20
64.0695306573
 30
0.0
 40
250.0978189131
100
AcDbArc
 50
355.4603493359
 51
355.6392626543
  0
ARC
  5
33A
100
AcDbEntity
  8
0
100
AcDbCircle
 62
7
  6
CONTINUOUS
 10
-91.9373563179
 20
64.0674543974
 30
0.0
 40
250.0702480293
100
AcDbArc
 50
355.6517836685
 51
356.0333086669
  0
ARC
  5
33B
100
AcDbEntity
  8
0
100
AcDbCircle
 62
7
  6
CONTINUOUS
 10
-91.9414318558
 20
64.0672238372
 30
0.0
 40
250.0
100
AcDbArc
 50
356.0348198403
 51
356.6918968425
  0
ARC
  5
33C
100
AcDbEntity
  8
0
100
AcDbCircle
 62
7
  6
CONTINUOUS
 10
-91.9414318558
 20
64.0672238372
 30
0.0
 40
250.0
100
AcDbArc
 50
352.2115471205
 51
355.4590991844
  0
ARC
  5
33D
100
AcDbEntity
  8
RACCORDO
100
AcDbCircle
 62
250
  6
CONTINUOUS
 10
-92.0414318558
 20
64.0672238372
 30
0.0
 40
250.0
100
AcDbArc
 50
352.2115644085
 51
356.6922980726
  0
ARC
  5
33E
100
AcDbEntity
  8
RACCORDO
100
AcDbCircle
 62
250
  6
CONTINUOUS
 10
-94.3906774889
 20
64.0672238372
 30
0.0
 40
250.0
100
AcDbArc
 50
353.0612788366
 51
356.775408111
  0
ARC
  5
33F
100
AcDbEntity
  8
RACCORDO
100
AcDbCircle
 62
250
  6
CONTINUOUS
 10
-94.5016982899
 20
64.0672875107
 30
0.0
 40
249.8561529243
100
AcDbArc
 50
353.0643259484
 51
356.7768191363
  0
ARC
  5
340
100
AcDbEntity
  8
0
100
AcDbCircle
 62
7
  6
CONTINUOUS
 10
-94.4995836936
 20
64.0672238372
 30
0.0
 40
246.8
100
AcDbArc
 50
352.9780256763
 51
356.7754104083
  0
ARC
  5
341
100
AcDbEntity
  8
0
100
AcDbCircle
 62
7
  6
CONTINUOUS
 10
-84.1510277841
 20
63.9024183382
 30
0.0
 40
242.2879680613
100
AcDbArc
 50
355.538168434
 51
355.9446703151
  0
ARC
  5
342
100
AcDbEntity
  8
0
100
AcDbCircle
 62
7
  6
CONTINUOUS
 10
-82.2894726136
 20
62.7970955204
 30
0.0
 40
240.3446821371
100
AcDbArc
 50
355.5800254592
 51
355.7663420721
  0
ARC
  5
343
100
AcDbEntity
  8
0
100
AcDbCircle
 62
7
  6
CONTINUOUS
 10
-82.2508209888
 20
62.7942623035
 30
0.0
 40
240.3059268151
100
AcDbArc
 50
355.7791826334
 51
356.1775448787
  0
ARC
  5
344
100
AcDbEntity
  8
0
100
AcDbCircle
 62
7
  6
CONTINUOUS
 10
-82.2705769982
 20
62.7946386321
 30
0.0
 40
240.2456541618
100
AcDbArc
 50
355.5787876326
 51
356.176494528
  0
ARC
  5
345
100
AcDbEntity
  8
RACCORDO
100
AcDbCircle
 62
7
  6
CONTINUOUS
 10
-91.9414318558
 20
80.9422238372
 30
0.0
 40
250.0
100
AcDbArc
 50
3.3081031575
 51
7.7884528795
  0
ARC
  5
346
100
AcDbEntity
  8
RACCORDO
100
AcDbCircle
 62
250
  6
CONTINUOUS
 10
-94.3906913941
 20
80.9422238372
 30
0.0
 40
250.0
100
AcDbArc
 50
3.2245917098
 51
6.9387207784
  0
ARC
  5
347
100
AcDbEntity
  8
RACCORDO
100
AcDbCircle
 62
250
  6
CONTINUOUS
 10
-92.0414318558
 20
80.9422238372
 30
0.0
 40
250.0
100
AcDbArc
 50
3.3077019274
 51
7.7884355915
  0
ARC
  5
348
100
AcDbEntity
  8
RACCORDO
100
AcDbCircle
 62
250
  6
CONTINUOUS
 10
-94.5014792064
 20
80.9421796371
 30
0.0
 40
249.8559330925
100
AcDbArc
 50
3.22317923
 51
6.9356756853
  0
ARC
  5
349
100
AcDbEntity
  8
SUPERFICI
100
AcDbCircle
 62
7
  6
CONTINUOUS
 10
-94.4995836936
 20
80.9422238372
 30
0.0
 40
246.8
100
AcDbArc
 50
3.2245895917
 51
7.0219743237
  0
ARC
  5
34A
100
AcDbEntity
  8
0
100
AcDbCircle
 62
7
  6
CONTINUOUS
 10
180.0502706484
 20
30.2439622636
 30
0.0
 40
29.8254431997
100
AcDbArc
 50
172.9667971108
 51
173.7245728377
  0
ARC
  5
34B
100
AcDbEntity
  8
RACCORDO
100
AcDbCircle
 62
250
  6
CONTINUOUS
 10
173.1431474507
 20
49.5771056739
 30
0.0
 40
15.951857859
100
AcDbArc
 50
176.8660199234
 51
178.1179108798
  0
ARC
  5
34C
100
AcDbEntity
  8
RACCORDO
100
AcDbCircle
 62
250
  6
CONTINUOUS
 10
168.7004213989
 20
49.7341841885
 30
0.0
 40
11.5063749653
100
AcDbArc
 50
178.17309578
 51
178.604349489
  0
ARC
  5
34D
100
AcDbEntity
  8
RACCORDO
100
AcDbCircle
 62
250
  6
CONTINUOUS
 10
165.9414599512
 20
49.8012615923
 30
0.0
 40
8.7465966241
100
AcDbArc
 50
178.6670724599
 51
179.201882307
  0
ARC
  5
34E
100
AcDbEntity
  8
RACCORDO
100
AcDbCircle
 62
250
  6
CONTINUOUS
 10
153.8419080437
 20
26.2292858294
 30
0.0
 40
3.9633597116
100
AcDbArc
 50
89.8328243399
 51
90.6881607443
  0
ARC
  5
34F
100
AcDbEntity
  8
RACCORDO
100
AcDbCircle
 62
250
  6
CONTINUOUS
 10
153.5905933699
 20
25.9948105347
 30
0.0
 40
3.9410869264
100
AcDbArc
 50
89.853340486
 51
90.7107188294
  0
ARC
  5
350
100
AcDbEntity
  8
RACCORDO
100
AcDbCircle
 62
250
  6
CONTINUOUS
 10
156.9069558512
 20
49.6655440393
 30
0.0
 40
0.3026103898
100
AcDbArc
 50
356.7707948203
 51
15.6587513589
  0
ARC
  5
351
100
AcDbEntity
  8
RACCORDO
100
AcDbCircle
 62
7
  6
CONTINUOUS
 10
155.4551285491
 20
30.2289038457
 30
0.0
 40
0.3
100
AcDbArc
 50
278.0
 51
352.2115471205
  0
ARC
  5
352
100
AcDbEntity
  8
RACCORDO
100
AcDbCircle
 62
7
  6
CONTINUOUS
 10
157.3424844283
 20
49.6582307404
 30
0.0
 40
0.3
100
AcDbArc
 50
356.6918968425
 51
89.0
  0
ARC
  5
353
100
AcDbEntity
  8
RACCORDO
100
AcDbCircle
 62
7
  6
CONTINUOUS
 10
148.4815147544
 20
50.0599146583
 30
0.0
 40
0.3
100
AcDbArc
 50
174.0665778257
 51
180.0
  0
ARC
  5
354
100
AcDbEntity
  8
RACCORDO
100
AcDbCircle
 62
250
  6
CONTINUOUS
 10
157.2425884036
 20
49.6599808515
 30
0.0
 40
0.299997044
100
AcDbArc
 50
356.6914197131
 51
88.9913944616
  0
ARC
  5
355
100
AcDbEntity
  8
RACCORDO
100
AcDbCircle
 62
250
  6
CONTINUOUS
 10
155.3561024714
 20
30.2289434346
 30
0.0
 40
0.2999764235
100
AcDbArc
 50
278.0061323819
 51
352.2175951243
  0
ARC
  5
356
100
AcDbEntity
  8
RACCORDO
100
AcDbCircle
 62
7
  6
CONTINUOUS
 10
148.3315147544
 20
30.9420876945
 30
0.0
 40
0.15
100
AcDbArc
 50
180.0000000001
 51
240.4278447996
  0
ARC
  5
357
100
AcDbEntity
  8
SUPERFICI
100
AcDbCircle
 62
7
  6
CONTINUOUS
 10
180.0502706485
 20
114.7654854108
 30
0.0
 40
29.8254431997
100
AcDbArc
 50
186.2754271623
 51
187.0332028892
  0
ARC
  5
358
100
AcDbEntity
  8
RACCORDO
100
AcDbCircle
 62
250
  6
CONTINUOUS
 10
172.2074761558
 20
95.3912034536
 30
0.0
 40
15.015340229
100
AcDbArc
 50
181.8072349278
 51
183.1724323049
  0
ARC
  5
359
100
AcDbEntity
  8
RACCORDO
100
AcDbCircle
 62
250
  6
CONTINUOUS
 10
168.8569374903
 20
95.2804021983
 30
0.0
 40
11.6629749388
100
AcDbArc
 50
181.5644620655
 51
181.7822773152
  0
ARC
  5
35A
100
AcDbEntity
  8
RACCORDO
100
AcDbCircle
 62
250
  6
CONTINUOUS
 10
167.5015551778
 20
95.2437039487
 30
0.0
 40
10.3070959402
100
AcDbArc
 50
181.3285778053
 51
181.5662384823
  0
ARC
  5
35B
100
AcDbEntity
  8
RACCORDO
100
AcDbCircle
 62
250
  6
CONTINUOUS
 10
166.2102998119
 20
95.214264969
 30
0.0
 40
9.0155051464
100
AcDbArc
 50
181.0523513531
 51
181.3318059818
  0
ARC
  5
35C
100
AcDbEntity
  8
RACCORDO
100
AcDbCircle
 62
250
  6
CONTINUOUS
 10
164.8527380699
 20
95.1901260595
 30
0.0
 40
7.6577290896
100
AcDbArc
 50
180.7149241249
 51
181.0583227392
  0
ARC
  5
35D
100
AcDbEntity
  8
RACCORDO
100
AcDbCircle
 62
250
  6
CONTINUOUS
 10
153.8419074947
 20
118.7800884873
 30
0.0
 40
3.9632863558
100
AcDbArc
 50
269.3118498201
 51
270.1671866891
  0
ARC
  5
35E
100
AcDbEntity
  8
RACCORDO
100
AcDbCircle
 62
250
  6
CONTINUOUS
 10
153.5905933798
 20
119.0146391495
 30
0.0
 40
3.9410889362
100
AcDbArc
 50
269.2892813892
 51
270.1466592954
  0
ARC
  5
35F
100
AcDbEntity
  8
RACCORDO
100
AcDbCircle
 62
250
  6
CONTINUOUS
 10
156.9069558216
 20
95.3439036339
 30
0.0
 40
0.3026104193
100
AcDbArc
 50
344.3415446482
 51
3.2292050882
  0
ARC
  5
360
100
AcDbEntity
  8
RACCORDO
100
AcDbCircle
 62
7
  6
CONTINUOUS
 10
155.4551285491
 20
114.7805438287
 30
0.0
 40
0.3
100
AcDbArc
 50
7.7884528795
 51
82.0
  0
ARC
  5
361
100
AcDbEntity
  8
RACCORDO
100
AcDbCircle
 62
7
  6
CONTINUOUS
 10
157.3424844283
 20
95.351216934
 30
0.0
 40
0.3
100
AcDbArc
 50
271.0
 51
3.3081031575
  0
ARC
  5
362
100
AcDbEntity
  8
RACCORDO
100
AcDbCircle
 62
7
  6
CONTINUOUS
 10
148.4815147544
 20
94.9495330161
 30
0.0
 40
0.3
100
AcDbArc
 50
180.0000000011
 51
185.4933238183
  0
ARC
  5
363
100
AcDbEntity
  8
RACCORDO
100
AcDbCircle
 62
250
  6
CONTINUOUS
 10
157.2425884055
 20
95.349466825
 30
0.0
 40
0.2999970437
100
AcDbArc
 50
271.0086051695
 51
3.3085799057
  0
ARC
  5
364
100
AcDbEntity
  8
RACCORDO
100
AcDbCircle
 62
250
  6
CONTINUOUS
 10
155.3561024714
 20
114.7805042398
 30
0.0
 40
0.2999764235
100
AcDbArc
 50
7.7824048758
 51
81.993867618
  0
ARC
  5
365
100
AcDbEntity
  8
RACCORDO
100
AcDbCircle
 62
7
  6
CONTINUOUS
 10
148.3315147544
 20
114.0673599799
 30
0.0
 40
0.15
100
AcDbArc
 50
119.5721332756
 51
179.9999999999
  0
SPLINE
  5
366
100
AcDbEntity
  8
0
100
AcDbSpline
 62
7
  6
CONTINUOUS
 70
0
 71
3
 72
9
 73
5
 74
0
 42
0.0000001
 43
0.0000001
 44
0.0000000001
 40
0.0
 40
0.0
 40
0.0
 40
0.0
 40
0.479537635
 40
1.0
 40
1.0
 40
1.0
 40
1.0
 10
72.9856419755
 20
45.6621987599
 30
0.0
 10
73.085133479
 20
45.6644209751
 30
0.0
 10
73.3162189304
 20
45.7065107524
 30
0.0
 10
73.3925875303
 20
45.9424355598
 30
0.0
 10
73.3909736661
 20
46.0504507494
 30
0.0
  0
SPLINE
  5
367
100
AcDbEntity
  8
0
100
AcDbSpline
 62
7
  6
CONTINUOUS
 70
0
 71
3
 72
9
 73
5
 74
0
 42
0.0000001
 43
0.0000001
 44
0.0000000001
 40
0.0
 40
0.0
 40
0.0
 40
0.0
 40
0.4988584794
 40
1.0
 40
1.0
 40
1.0
 40
1.0
 10
73.3909736877
 20
46.0504507497
 30
0.0
 10
73.3898287941
 20
46.1270779535
 30
0.0
 10
73.3274413259
 20
46.2868886551
 30
0.0
 10
73.1726859811
 20
46.3542651357
 30
0.0
 10
73.0962069627
 20
46.3631414723
 30
0.0
  0
SPLINE
  5
368
100
AcDbEntity
  8
0
100
AcDbSpline
 62
7
  6
CONTINUOUS
 70
0
 71
3
 72
9
 73
5
 74
0
 42
0.0000001
 43
0.0000001
 44
0.0000000001
 40
0.0
 40
0.0
 40
0.0
 40
0.0
 40
0.7295958313
 40
1.0
 40
1.0
 40
1.0
 40
1.0
 10
73.0962069627
 20
46.3631414722
 30
0.0
 10
72.9971870506
 20
46.3746339585
 30
0.0
 10
72.8589659743
 20
46.375076959
 30
0.0
 10
72.7238614133
 20
46.3546392296
 30
0.0
 10
72.687442521
 20
46.3484249122
 30
0.0
  0
SPLINE
  5
369
100
AcDbEntity
  8
0
100
AcDbSpline
 62
7
  6
CONTINUOUS
 70
0
 71
3
 72
9
 73
5
 74
0
 42
0.0000001
 43
0.0000001
 44
0.0000000001
 40
0.0
 40
0.0
 40
0.0
 40
0.0
 40
0.7042582166
 40
1.0
 40
1.0
 40
1.0
 40
1.0
 10
72.1850510462
 20
46.7450744256
 30
0.0
 10
72.4861632603
 20
46.7893731596
 30
0.0
 10
72.9204907718
 20
46.8329717183
 30
0.0
 10
73.3525519213
 20
46.7621831033
 30
0.0
 10
73.4727560707
 20
46.718756093
 30
0.0
  0
SPLINE
  5
36A
100
AcDbEntity
  8
0
100
AcDbSpline
 62
7
  6
CONTINUOUS
 70
0
 71
3
 72
17
 73
13
 74
0
 42
0.0000001
 43
0.0000001
 44
0.0000000001
 40
0.0
 40
0.0
 40
0.0
 40
0.0
 40
0.0799595168
 40
0.1896577306
 40
0.3223977561
 40
0.3986068941
 40
0.483386777
 40
0.5877249163
 40
0.678993766
 40
0.8312459613
 40
0.9440219048
 40
1.0
 40
1.0
 40
1.0
 40
1.0
 10
73.4727560707
 20
46.718756093
 30
0.0
 10
73.511801702
 20
46.7046702436
 30
0.0
 10
73.5989934602
 20
46.6565808617
 30
0.0
 10
73.7258063584
 20
46.5450798109
 30
0.0
 10
73.8156221423
 20
46.4025001367
 30
0.0
 10
73.8634421624
 20
46.2570139096
 30
0.0
 10
73.8831726882
 20
46.1200957485
 30
0.0
 10
73.8794288345
 20
45.9735011552
 30
0.0
 10
73.8395785573
 20
45.796876721
 30
0.0
 10
73.7501232772
 20
45.6275707652
 30
0.0
 10
73.628633432
 20
45.5175850348
 30
0.0
 10
73.5553754432
 20
45.4598884794
 30
0.0
 10
73.5265549414
 20
45.456169705
 30
0.0
  0
SPLINE
  5
36B
100
AcDbEntity
  8
0
100
AcDbSpline
 62
7
  6
CONTINUOUS
 70
0
 71
3
 72
8
 73
4
 74
0
 42
0.0000001
 43
0.0000001
 44
0.0000000001
 40
0.0
 40
0.0
 40
0.0
 40
0.0
 40
1.0
 40
1.0
 40
1.0
 40
1.0
 10
73.5265549414
 20
45.4413984471
 30
0.0
 10
73.5439131453
 20
45.4344768633
 30
0.0
 10
73.5603454972
 20
45.4258999026
 30
0.0
 10
73.5759020633
 20
45.4159058964
 30
0.0
  0
SPLINE
  5
36C
100
AcDbEntity
  8
0
100
AcDbSpline
 62
7
  6
CONTINUOUS
 70
0
 71
3
 72
9
 73
5
 74
0
 42
0.0000001
 43
0.0000001
 44
0.0000000001
 40
0.0
 40
0.0
 40
0.0
 40
0.0
 40
0.7314008052
 40
1.0
 40
1.0
 40
1.0
 40
1.0
 10
73.5759020633
 20
45.4159058964
 30
0.0
 10
73.6826657416
 20
45.3473176963
 30
0.0
 10
73.7722394631
 20
45.1622880421
 30
0.0
 10
73.8149565244
 20
44.9965058636
 30
0.0
 10
73.8273370666
 20
44.9510629193
 30
0.0
  0
SPLINE
  5
36D
100
AcDbEntity
  8
0
100
AcDbSpline
 62
7
  6
CONTINUOUS
 70
0
 71
3
 72
9
 73
5
 74
0
 42
0.0000001
 43
0.0000001
 44
0.0000000001
 40
0.0
 40
0.0
 40
0.0
 40
0.0
 40
0.8019701384
 40
1.0
 40
1.0
 40
1.0
 40
1.0
 10
73.827337067
 20
44.9510629194
 30
0.0
 10
73.8764997437
 20
44.7706106628
 30
0.0
 10
73.9343553992
 20
44.5446777127
 30
0.0
 10
73.9935976358
 20
44.3191125219
 30
0.0
 10
74.0057023048
 20
44.2745440565
 30
0.0
  0
SPLINE
  5
36E
100
AcDbEntity
  8
0
100
AcDbSpline
 62
7
  6
CONTINUOUS
 70
0
 71
3
 72
9
 73
5
 74
0
 42
0.0000001
 43
0.0000001
 44
0.0000000001
 40
0.0
 40
0.0
 40
0.0
 40
0.0
 40
0.4412849067
 40
1.0
 40
1.0
 40
1.0
 40
1.0
 10
73.5037982065
 20
44.2745440565
 30
0.0
 10
73.471616706
 20
44.3864781473
 30
0.0
 10
73.3956305202
 20
44.6390932481
 30
0.0
 10
73.327442683
 20
44.8946650953
 30
0.0
 10
73.2755719047
 20
45.032703084
 30
0.0
  0
SPLINE
  5
36F
100
AcDbEntity
  8
0
100
AcDbSpline
 62
7
  6
CONTINUOUS
 70
0
 71
3
 72
9
 73
5
 74
0
 42
0.0000001
 43
0.0000001
 44
0.0000000001
 40
0.0
 40
0.0
 40
0.0
 40
0.0
 40
0.6439297259
 40
1.0
 40
1.0
 40
1.0
 40
1.0
 10
73.2755719321
 20
45.0327030943
 30
0.0
 10
73.2466435322
 20
45.1096870587
 30
0.0
 10
73.1607367853
 20
45.2252807266
 30
0.0
 10
73.0299877448
 20
45.2528024758
 30
0.0
 10
72.9845172605
 20
45.2528024758
 30
0.0
  0
SPLINE
  5
370
100
AcDbEntity
  8
RACCORDO
100
AcDbSpline
 62
250
  6
CONTINUOUS
 70
0
 71
3
 72
9
 73
5
 74
0
 42
0.0000001
 43
0.0000001
 44
0.0000000001
 40
0.0
 40
0.0
 40
0.0
 40
0.0
 40
0.2498392903
 40
1.0
 40
1.0
 40
1.0
 40
1.0
 10
26.6506382013
 20
50.1847238372
 30
0.0
 10
26.6504643953
 20
52.04352815
 30
0.0
 10
26.6500039479
 20
59.4835281439
 30
0.0
 10
26.6499655532
 20
66.923528153
 30
0.0
 10
26.6499653613
 20
72.5047238372
 30
0.0
  0
SPLINE
  5
371
100
AcDbEntity
  8
RACCORDO
100
AcDbSpline
 62
250
  6
CONTINUOUS
 70
0
 71
3
 72
9
 73
5
 74
0
 42
0.0000001
 43
0.0000001
 44
0.0000000001
 40
0.0
 40
0.0
 40
0.0
 40
0.0
 40
0.2500985784
 40
1.0
 40
1.0
 40
1.0
 40
1.0
 10
111.791531727
 20
72.5047238372
 30
0.0
 10
111.7915317839
 20
70.6439904127
 30
0.0
 10
111.7914829993
 20
63.2039904107
 30
0.0
 10
111.7913801052
 20
55.7639903925
 30
0.0
 10
111.790858887
 20
50.1847238372
 30
0.0
  0
SPLINE
  5
372
100
AcDbEntity
  8
RACCORDO
100
AcDbSpline
 62
250
  6
CONTINUOUS
 70
0
 71
3
 72
9
 73
5
 74
0
 42
0.0000001
 43
0.0000001
 44
0.0000000001
 40
0.0
 40
0.0
 40
0.0
 40
0.0
 40
0.2494274766
 40
1.0
 40
1.0
 40
1.0
 40
1.0
 10
26.653170392
 20
33.8959238372
 30
0.0
 10
26.6528823672
 20
35.2364375867
 30
0.0
 10
26.6518081368
 20
40.6108003962
 30
0.0
 10
26.6510506115
 20
45.9851632686
 30
0.0
 10
26.6506541035
 20
50.0190123852
 30
0.0
  0
LINE
  5
373
100
AcDbEntity
  8
RACCORDO
100
AcDbLine
 62
250
  6
CONTINUOUS
 10
26.6506541035
 20
50.0190123852
 30
0.0
 11
26.6506382013
 21
50.1847238372
 31
0.0
  0
SPLINE
  5
374
100
AcDbEntity
  8
RACCORDO
100
AcDbSpline
 62
250
  6
CONTINUOUS
 70
0
 71
3
 72
11
 73
7
 74
0
 42
0.0000001
 43
0.0000001
 44
0.0000000001
 40
0.0
 40
0.0
 40
0.0
 40
0.0
 40
0.1121756376
 40
0.3329741146
 40
0.6395280322
 40
1.0
 40
1.0
 40
1.0
 40
1.0
 10
58.0753268746
 20
29.9318925887
 30
0.0
 10
58.0741131351
 20
29.9414066559
 30
0.0
 10
58.0734922682
 20
29.9699362429
 30
0.0
 10
58.0718963266
 20
30.0245473605
 30
0.0
 10
58.0711701406
 20
30.1004789962
 30
0.0
 10
58.0708237312
 20
30.1575030443
 30
0.0
 10
58.0707485441
 20
30.1883238136
 30
0.0
  0
SPLINE
  5
375
100
AcDbEntity
  8
RACCORDO
100
AcDbSpline
 62
250
  6
CONTINUOUS
 70
0
 71
3
 72
11
 73
7
 74
0
 42
0.0000001
 43
0.0000001
 44
0.0000000001
 40
0.0
 40
0.0
 40
0.0
 40
0.0
 40
0.1121741321
 40
0.3329725425
 40
0.6395270635
 40
1.0
 40
1.0
 40
1.0
 40
1.0
 10
58.1281554688
 20
29.9318919122
 30
0.0
 10
58.1269473932
 20
29.9414065427
 30
0.0
 10
58.1263295744
 20
29.9699353622
 30
0.0
 10
58.1247410495
 20
30.0245468835
 30
0.0
 10
58.1240182822
 20
30.1004782319
 30
0.0
 10
58.1236734528
 20
30.1575023206
 30
0.0
 10
58.1235985958
 20
30.188323085
 30
0.0
  0
SPLINE
  5
376
100
AcDbEntity
  8
RACCORDO
100
AcDbSpline
 62
250
  6
CONTINUOUS
 70
0
 71
3
 72
11
 73
7
 74
0
 42
0.0000001
 43
0.0000001
 44
0.0000000001
 40
0.0
 40
0.0
 40
0.0
 40
0.0
 40
0.1121741321
 40
0.3329725425
 40
0.6395270635
 40
1.0
 40
1.0
 40
1.0
 40
1.0
 10
80.3133416195
 20
29.9318919122
 30
0.0
 10
80.3145496952
 20
29.9414065427
 30
0.0
 10
80.3151675139
 20
29.9699353622
 30
0.0
 10
80.3167560388
 20
30.0245468835
 30
0.0
 10
80.3174788061
 20
30.1004782319
 30
0.0
 10
80.3178236355
 20
30.1575023206
 30
0.0
 10
80.3178984924
 20
30.188323085
 30
0.0
  0
SPLINE
  5
377
100
AcDbEntity
  8
RACCORDO
100
AcDbSpline
 62
250
  6
CONTINUOUS
 70
0
 71
3
 72
11
 73
7
 74
0
 42
0.0000001
 43
0.0000001
 44
0.0000000001
 40
0.0
 40
0.0
 40
0.0
 40
0.0
 40
0.1121756376
 40
0.3329741146
 40
0.6395280322
 40
1.0
 40
1.0
 40
1.0
 40
1.0
 10
80.3661702136
 20
29.9318925887
 30
0.0
 10
80.3673839532
 20
29.9414066559
 30
0.0
 10
80.36800482
 20
29.9699362429
 30
0.0
 10
80.3696007617
 20
30.0245473605
 30
0.0
 10
80.3703269476
 20
30.1004789962
 30
0.0
 10
80.3706733571
 20
30.1575030443
 30
0.0
 10
80.3707485441
 20
30.1883238136
 30
0.0
  0
SPLINE
  5
378
100
AcDbEntity
  8
RACCORDO
100
AcDbSpline
 62
250
  6
CONTINUOUS
 70
0
 71
3
 72
13
 73
9
 74
0
 42
0.0000001
 43
0.0000001
 44
0.0000000001
 40
0.0
 40
0.0
 40
0.0
 40
0.0
 40
0.0477070464
 40
0.121149586
 40
0.2200613901
 40
0.3423482091
 40
0.6452884961
 40
1.0
 40
1.0
 40
1.0
 40
1.0
 10
107.7792688761
 20
29.9358845501
 30
0.0
 10
107.7821358105
 20
29.9388851658
 30
0.0
 10
107.7869569387
 20
29.9485657245
 30
0.0
 10
107.7926892359
 20
29.9667486916
 30
0.0
 10
107.7980399158
 20
29.9918895856
 30
0.0
 10
107.8049643327
 20
30.0369468228
 30
0.0
 10
107.8109833109
 20
30.1046000595
 30
0.0
 10
107.8132292382
 20
30.1617771515
 30
0.0
 10
107.813785928
 20
30.1926286703
 30
0.0
  0
SPLINE
  5
379
100
AcDbEntity
  8
RACCORDO
100
AcDbSpline
 62
250
  6
CONTINUOUS
 70
0
 71
3
 72
13
 73
9
 74
0
 42
0.0000001
 43
0.0000001
 44
0.0000000001
 40
0.0
 40
0.0
 40
0.0
 40
0.0
 40
0.0479332102
 40
0.1214851114
 40
0.2204356907
 40
0.3427116763
 40
0.6455206683
 40
1.0
 40
1.0
 40
1.0
 40
1.0
 10
108.2053036557
 20
29.93559426
 30
0.0
 10
108.2082220342
 20
29.9385782309
 30
0.0
 10
108.2131675607
 20
29.9482452424
 30
0.0
 10
108.2190526214
 20
29.9664349921
 30
0.0
 10
108.2245655349
 20
29.9915796219
 30
0.0
 10
108.2317204304
 20
30.0366380469
 30
0.0
 10
108.2380001776
 20
30.1043041929
 30
0.0
 10
108.2404081825
 20
30.1615002506
 30
0.0
 10
108.2410390052
 20
30.1923605702
 30
0.0
  0
SPLINE
  5
37A
100
AcDbEntity
  8
RACCORDO
100
AcDbSpline
 62
250
  6
CONTINUOUS
 70
0
 71
3
 72
13
 73
9
 74
0
 42
0.0000001
 43
0.0000001
 44
0.0000000001
 40
0.0
 40
0.0
 40
0.0
 40
0.0
 40
0.0467968206
 40
0.1196749602
 40
0.2181981546
 40
0.3402606774
 40
0.6434684279
 40
1.0
 40
1.0
 40
1.0
 40
1.0
 10
111.7886479373
 20
33.5179529989
 30
0.0
 10
111.7856592974
 20
33.5153472271
 30
0.0
 10
111.7762062832
 20
33.5110531372
 30
0.0
 10
111.7585398099
 20
33.5058718548
 30
0.0
 10
111.7340875959
 20
33.501008295
 30
0.0
 10
111.6901793926
 20
33.4946216094
 30
0.0
 10
111.6241222094
 20
33.4889093531
 30
0.0
 10
111.5682627151
 20
33.4865832831
 30
0.0
 10
111.5380615106
 20
33.4858988908
 30
0.0
  0
SPLINE
  5
37B
100
AcDbEntity
  8
RACCORDO
100
AcDbSpline
 62
250
  6
CONTINUOUS
 70
0
 71
3
 72
13
 73
9
 74
0
 42
0.0000001
 43
0.0000001
 44
0.0000000001
 40
0.0
 40
0.0
 40
0.0
 40
0.0
 40
0.0466596313
 40
0.1194712926
 40
0.2179688846
 40
0.340034603
 40
0.6433171332
 40
1.0
 40
1.0
 40
1.0
 40
1.0
 10
111.7883266963
 20
33.8959238387
 30
0.0
 10
111.7853212619
 20
33.8933610868
 30
0.0
 10
111.7758544863
 20
33.8891720772
 30
0.0
 10
111.7581856281
 20
33.8841330288
 30
0.0
 10
111.7337336514
 20
33.8794339269
 30
0.0
 10
111.6898274549
 20
33.8733023162
 30
0.0
 10
111.6237878215
 20
33.8679160652
 30
0.0
 10
111.5679532933
 20
33.8658264381
 30
0.0
 10
111.5377654759
 20
33.8652610173
 30
0.0
  0
SPLINE
  5
37C
100
AcDbEntity
  8
RACCORDO
100
AcDbSpline
 62
250
  6
CONTINUOUS
 70
0
 71
3
 72
13
 73
9
 74
0
 42
0.0000001
 43
0.0000001
 44
0.0000000001
 40
0.0
 40
0.0
 40
0.0
 40
0.0
 40
0.0426877663
 40
0.1137151411
 40
0.2116562017
 40
0.3340005373
 40
0.6395928454
 40
1.0
 40
1.0
 40
1.0
 40
1.0
 10
111.7908429848
 20
50.0190123852
 30
0.0
 10
111.7875250533
 20
50.0176872508
 30
0.0
 10
111.7780957577
 20
50.0158674552
 30
0.0
 10
111.760585857
 20
50.0134796746
 30
0.0
 10
111.736271636
 20
50.0113339056
 30
0.0
 10
111.6923612228
 20
50.0084606231
 30
0.0
 10
111.6264098458
 20
50.0059658579
 30
0.0
 10
111.5706773123
 20
50.0049884724
 30
0.0
 10
111.5405140907
 20
50.0047238372
 30
0.0
  0
SPLINE
  5
37D
100
AcDbEntity
  8
RACCORDO
100
AcDbSpline
 62
250
  6
CONTINUOUS
 70
0
 71
3
 72
13
 73
9
 74
0
 42
0.0000001
 43
0.0000001
 44
0.0000000001
 40
0.0
 40
0.0
 40
0.0
 40
0.0
 40
0.042661272
 40
0.1136772143
 40
0.2116148606
 40
0.3339611623
 40
0.6395686365
 40
1.0
 40
1.0
 40
1.0
 40
1.0
 10
111.790858887
 20
50.1847238372
 30
0.0
 10
111.7875381215
 20
50.1834125526
 30
0.0
 10
111.7781101873
 20
50.1816147463
 30
0.0
 10
111.7606007855
 20
50.1792533852
 30
0.0
 10
111.7362877507
 20
50.1771322967
 30
0.0
 10
111.6923771689
 20
50.17429125
 30
0.0
 10
111.6264264403
 20
50.1718246788
 30
0.0
 10
111.5706945069
 20
50.1708581327
 30
0.0
 10
111.5405314345
 20
50.1705963812
 30
0.0
  0
SPLINE
  5
37E
100
AcDbEntity
  8
RACCORDO
100
AcDbSpline
 62
250
  6
CONTINUOUS
 70
0
 71
3
 72
18
 73
14
 74
0
 42
0.0000001
 43
0.0000001
 44
0.0000000001
 40
0.0
 40
0.0
 40
0.0
 40
0.0
 40
0.00728935
 40
0.0239014955
 40
0.0497450363
 40
0.0846297971
 40
0.1281747607
 40
0.1799148672
 40
0.3059325576
 40
0.4574381162
 40
0.6283388976
 40
0.8118934752
 40
1.0
 40
1.0
 40
1.0
 40
1.0
 10
91.6753687531
 20
94.8212968659
 30
0.0
 10
91.6756070827
 20
94.8220415391
 30
0.0
 10
91.6778441854
 20
94.823678326
 30
0.0
 10
91.6816791494
 20
94.8271557328
 30
0.0
 10
91.6884231944
 20
94.832143997
 30
0.0
 10
91.697356195
 20
94.8388101983
 30
0.0
 10
91.7086996238
 20
94.8469768213
 30
0.0
 10
91.7280341745
 20
94.860737038
 30
0.0
 10
91.7569956262
 20
94.8809589882
 30
0.0
 10
91.7966056789
 20
94.9082438991
 30
0.0
 10
91.8414596992
 20
94.9387981534
 30
0.0
 10
91.8896965428
 20
94.9713574829
 30
0.0
 10
91.9228255406
 20
94.9935330659
 30
0.0
 10
91.9396147378
 20
95.0047238395
 30
0.0
  0
SPLINE
  5
37F
100
AcDbEntity
  8
RACCORDO
100
AcDbSpline
 62
250
  6
CONTINUOUS
 70
0
 71
3
 72
17
 73
13
 74
0
 42
0.0000001
 43
0.0000001
 44
0.0000000001
 40
0.0
 40
0.0
 40
0.0
 40
0.0
 40
0.0082416938
 40
0.0249141755
 40
0.0505433113
 40
0.0850879057
 40
0.1795523538
 40
0.3047974816
 40
0.4557817718
 40
0.6265916512
 40
0.810648281
 40
1.0
 40
1.0
 40
1.0
 40
1.0
 10
91.7598424677
 20
94.5438939121
 30
0.0
 10
91.7601071103
 20
94.5447217026
 30
0.0
 10
91.7628349822
 20
94.546041154
 30
0.0
 10
91.7676940318
 20
94.547448498
 30
0.0
 10
91.7758021245
 20
94.5489749479
 30
0.0
 10
91.7918825717
 20
94.5511713037
 30
0.0
 10
91.8186541335
 20
94.5535543341
 30
0.0
 10
91.8576463687
 20
94.5559241958
 30
0.0
 10
91.9047574543
 20
94.5578675343
 30
0.0
 10
91.9580773084
 20
94.5592930253
 30
0.0
 10
92.0154597453
 20
94.5601286966
 30
0.0
 10
92.0548350596
 20
94.5602735145
 30
0.0
 10
92.074801656
 20
94.5602379852
 30
0.0
  0
SPLINE
  5
380
100
AcDbEntity
  8
RACCORDO
100
AcDbSpline
 62
250
  6
CONTINUOUS
 70
0
 71
3
 72
9
 73
5
 74
0
 42
0.0000001
 43
0.0000001
 44
0.0000000001
 40
0.0
 40
0.0
 40
0.0
 40
0.0
 40
0.7500175962
 40
1.0
 40
1.0
 40
1.0
 40
1.0
 10
69.2207485441
 20
49.6409191748
 30
0.0
 10
72.0083139839
 20
49.6409191748
 30
0.0
 10
75.7249807262
 20
49.6413560731
 30
0.0
 10
79.4416473087
 20
49.6423756549
 30
0.0
 10
80.3707485441
 20
49.6426669544
 30
0.0
  0
SPLINE
  5
381
100
AcDbEntity
  8
RACCORDO
100
AcDbSpline
 62
250
  6
CONTINUOUS
 70
0
 71
3
 72
17
 73
13
 74
0
 42
0.0000001
 43
0.0000001
 44
0.0000000001
 40
0.0
 40
0.0
 40
0.0
 40
0.0
 40
0.0082417317
 40
0.0249142339
 40
0.0505433828
 40
0.0850879867
 40
0.1795524516
 40
0.3047975818
 40
0.4557818682
 40
0.6265917258
 40
0.8106483114
 40
1.0
 40
1.0
 40
1.0
 40
1.0
 10
91.7598424678
 20
50.4655538535
 30
0.0
 10
91.7601071088
 20
50.4647260582
 30
0.0
 10
91.7628349765
 20
50.463406586
 30
0.0
 10
91.7676940338
 20
50.4619992289
 30
0.0
 10
91.7758021267
 20
50.4604727599
 30
0.0
 10
91.7918825775
 20
50.4582763803
 30
0.0
 10
91.8186541418
 20
50.4558933226
 30
0.0
 10
91.857646381
 20
50.4535234348
 30
0.0
 10
91.9047574676
 20
50.451580075
 30
0.0
 10
91.9580773189
 20
50.4501545687
 30
0.0
 10
92.0154597508
 20
50.4493188885
 30
0.0
 10
92.0548350609
 20
50.4491740694
 30
0.0
 10
92.0748016559
 20
50.4492095992
 30
0.0
  0
SPLINE
  5
382
100
AcDbEntity
  8
RACCORDO
100
AcDbSpline
 62
250
  6
CONTINUOUS
 70
0
 71
3
 72
18
 73
14
 74
0
 42
0.0000001
 43
0.0000001
 44
0.0000000001
 40
0.0
 40
0.0
 40
0.0
 40
0.0
 40
0.0072893502
 40
0.0239014964
 40
0.0497450379
 40
0.0846297996
 40
0.1281747647
 40
0.1799148725
 40
0.3059325646
 40
0.4574381248
 40
0.6283389052
 40
0.8118934777
 40
1.0
 40
1.0
 40
1.0
 40
1.0
 10
91.675368753
 20
50.1881508083
 30
0.0
 10
91.6756070827
 20
50.1874061351
 30
0.0
 10
91.6778441855
 20
50.1857693483
 30
0.0
 10
91.6816791497
 20
50.1822919414
 30
0.0
 10
91.688423195
 20
50.1773036772
 30
0.0
 10
91.6973561959
 20
50.1706374758
 30
0.0
 10
91.7086996251
 20
50.1624708527
 30
0.0
 10
91.7280341763
 20
50.1487106358
 30
0.0
 10
91.7569956285
 20
50.1284886855
 30
0.0
 10
91.7966056815
 20
50.1012037746
 30
0.0
 10
91.8414597014
 20
50.0706495207
 30
0.0
 10
91.8896965443
 20
50.0380901918
 30
0.0
 10
91.9228255415
 20
50.0159146093
 30
0.0
 10
91.9396147385
 20
50.0047238359
 30
0.0
  0
SPLINE
  5
383
100
AcDbEntity
  8
RACCORDO
100
AcDbSpline
 62
250
  6
CONTINUOUS
 70
0
 71
3
 72
18
 73
14
 74
0
 42
0.0000001
 43
0.0000001
 44
0.0000000001
 40
0.0
 40
0.0
 40
0.0
 40
0.0
 40
0.0078236472
 40
0.02433451
 40
0.0499085672
 40
0.0844636574
 40
0.1276659879
 40
0.1790781757
 40
0.3045575279
 40
0.4557848911
 40
0.6267685344
 40
0.8108512371
 40
1.0
 40
1.0
 40
1.0
 40
1.0
 10
91.2598129616
 20
49.9657355711
 30
0.0
 10
91.2605911508
 20
49.9654468099
 30
0.0
 10
91.2616503405
 20
49.9626330604
 30
0.0
 10
91.2629138898
 20
49.9578137091
 30
0.0
 10
91.2642049667
 20
49.9496123574
 30
0.0
 10
91.2654884226
 20
49.9387941931
 30
0.0
 10
91.2667301353
 20
49.9251190039
 30
0.0
 10
91.2684217672
 20
49.9018409424
 30
0.0
 10
91.2702153307
 20
49.8670653118
 30
0.0
 10
91.2718942689
 20
49.8195999117
 30
0.0
 10
91.2731137683
 20
49.7658970571
 30
0.0
 10
91.2738214451
 20
49.70816325
 30
0.0
 10
91.2739338233
 20
49.6685652588
 30
0.0
 10
91.2738958633
 20
49.6484978661
 30
0.0
  0
SPLINE
  5
384
100
AcDbEntity
  8
RACCORDO
100
AcDbSpline
 62
250
  6
CONTINUOUS
 70
0
 71
3
 72
18
 73
14
 74
0
 42
0.0000001
 43
0.0000001
 44
0.0000000001
 40
0.0
 40
0.0
 40
0.0
 40
0.0
 40
0.0066801284
 40
0.0227262664
 40
0.0480580394
 40
0.0824929047
 40
0.1256574589
 40
0.1770942995
 40
0.302768054
 40
0.4543318484
 40
0.6257510605
 40
0.8103309133
 40
1.0
 40
1.0
 40
1.0
 40
1.0
 10
80.3653767721
 20
49.9599279561
 30
0.0
 10
80.365883163
 20
49.9594348698
 30
0.0
 10
80.3658833518
 20
49.9567181336
 30
0.0
 10
80.3666832881
 20
49.9519396973
 30
0.0
 10
80.3670003854
 20
49.9437818333
 30
0.0
 10
80.3675626205
 20
49.9329656185
 30
0.0
 10
80.3680085939
 20
49.9192969618
 30
0.0
 10
80.3686663858
 20
49.8960100949
 30
0.0
 10
80.3693426186
 20
49.8612337974
 30
0.0
 10
80.3699860454
 20
49.8137699532
 30
0.0
 10
80.3704501112
 20
49.7600675364
 30
0.0
 10
80.3707202962
 20
49.7023331795
 30
0.0
 10
80.3707630469
 20
49.6627351365
 30
0.0
 10
80.3707485441
 20
49.6426669544
 30
0.0
  0
SPLINE
  5
385
100
AcDbEntity
  8
RACCORDO
100
AcDbSpline
 62
250
  6
CONTINUOUS
 70
0
 71
3
 72
18
 73
14
 74
0
 42
0.0000001
 43
0.0000001
 44
0.0000000001
 40
0.0
 40
0.0
 40
0.0
 40
0.0
 40
0.0066801283
 40
0.0227262663
 40
0.0480580394
 40
0.0824929046
 40
0.1256574589
 40
0.1770942995
 40
0.302768054
 40
0.4543318484
 40
0.6257510605
 40
0.8103309133
 40
1.0
 40
1.0
 40
1.0
 40
1.0
 10
58.0761203162
 20
49.9599279561
 30
0.0
 10
58.0756139252
 20
49.9594348698
 30
0.0
 10
58.0756137365
 20
49.9567181336
 30
0.0
 10
58.0748138003
 20
49.9519396973
 30
0.0
 10
58.074496703
 20
49.9437818333
 30
0.0
 10
58.0739344679
 20
49.9329656185
 30
0.0
 10
58.0734884945
 20
49.9192969618
 30
0.0
 10
58.0728307026
 20
49.8960100949
 30
0.0
 10
58.0721544698
 20
49.8612337974
 30
0.0
 10
58.071511043
 20
49.8137699532
 30
0.0
 10
58.0710469772
 20
49.7600675364
 30
0.0
 10
58.0707767921
 20
49.7023331795
 30
0.0
 10
58.0707340414
 20
49.6627351365
 30
0.0
 10
58.0707485441
 20
49.6426669544
 30
0.0
  0
SPLINE
  5
386
100
AcDbEntity
  8
RACCORDO
100
AcDbSpline
 62
250
  6
CONTINUOUS
 70
0
 71
3
 72
18
 73
14
 74
0
 42
0.0000001
 43
0.0000001
 44
0.0000000001
 40
0.0
 40
0.0
 40
0.0
 40
0.0
 40
0.0078236475
 40
0.0243345128
 40
0.0499085728
 40
0.0844636666
 40
0.1276660035
 40
0.1790781966
 40
0.3045575563
 40
0.4557849265
 40
0.6267685661
 40
0.8108512475
 40
1.0
 40
1.0
 40
1.0
 40
1.0
 10
47.1816841256
 20
49.9657355711
 30
0.0
 10
47.1809059363
 20
49.9654468098
 30
0.0
 10
47.1798467474
 20
49.9626330595
 30
0.0
 10
47.1785831982
 20
49.9578137078
 30
0.0
 10
47.1772921215
 20
49.949612355
 30
0.0
 10
47.1760086654
 20
49.9387941894
 30
0.0
 10
47.1747669529
 20
49.9251189986
 30
0.0
 10
47.1730753208
 20
49.9018409351
 30
0.0
 10
47.1712817576
 20
49.8670653024
 30
0.0
 10
47.1696028193
 20
49.8195999013
 30
0.0
 10
47.1683833197
 20
49.7658970487
 30
0.0
 10
47.1676756436
 20
49.7081632454
 30
0.0
 10
47.1675632672
 20
49.6685652577
 30
0.0
 10
47.1676012282
 20
49.6484978661
 30
0.0
  0
SPLINE
  5
387
100
AcDbEntity
  8
RACCORDO
100
AcDbSpline
 62
250
  6
CONTINUOUS
 70
0
 71
3
 72
18
 73
14
 74
0
 42
0.0000001
 43
0.0000001
 44
0.0000000001
 40
0.0
 40
0.0
 40
0.0
 40
0.0
 40
0.00728935
 40
0.0239014955
 40
0.0497450363
 40
0.0846297971
 40
0.1281747607
 40
0.1799148672
 40
0.3059325576
 40
0.4574381162
 40
0.6283388976
 40
0.8118934752
 40
1.0
 40
1.0
 40
1.0
 40
1.0
 10
46.7661283351
 20
50.1881508085
 30
0.0
 10
46.7658900056
 20
50.1874061353
 30
0.0
 10
46.7636529029
 20
50.1857693484
 30
0.0
 10
46.7598179389
 20
50.1822919416
 30
0.0
 10
46.7530738939
 20
50.1773036774
 30
0.0
 10
46.7441408933
 20
50.1706374761
 30
0.0
 10
46.7327974645
 20
50.1624708531
 30
0.0
 10
46.7134629138
 20
50.1487106364
 30
0.0
 10
46.6845014621
 20
50.1284886862
 30
0.0
 10
46.6448914094
 20
50.1012037753
 30
0.0
 10
46.6000373891
 20
50.070649521
 30
0.0
 10
46.5518005455
 20
50.0380901915
 30
0.0
 10
46.5186715477
 20
50.0159146085
 30
0.0
 10
46.5018823505
 20
50.0047238349
 30
0.0
  0
SPLINE
  5
388
100
AcDbEntity
  8
RACCORDO
100
AcDbSpline
 62
250
  6
CONTINUOUS
 70
0
 71
3
 72
17
 73
13
 74
0
 42
0.0000001
 43
0.0000001
 44
0.0000000001
 40
0.0
 40
0.0
 40
0.0
 40
0.0
 40
0.0082416938
 40
0.0249141755
 40
0.0505433113
 40
0.0850879057
 40
0.1795523538
 40
0.3047974816
 40
0.4557817718
 40
0.6265916512
 40
0.810648281
 40
1.0
 40
1.0
 40
1.0
 40
1.0
 10
46.6816546206
 20
50.4655537623
 30
0.0
 10
46.681389978
 20
50.4647259718
 30
0.0
 10
46.6786621061
 20
50.4634065204
 30
0.0
 10
46.6738030565
 20
50.4619991764
 30
0.0
 10
46.6656949638
 20
50.4604727265
 30
0.0
 10
46.6496145166
 20
50.4582763707
 30
0.0
 10
46.6228429547
 20
50.4558933403
 30
0.0
 10
46.5838507196
 20
50.4535234786
 30
0.0
 10
46.536739634
 20
50.4515801401
 30
0.0
 10
46.4834197799
 20
50.4501546491
 30
0.0
 10
46.426037343
 20
50.4493189778
 30
0.0
 10
46.3866620287
 20
50.4491741599
 30
0.0
 10
46.3666954322
 20
50.4492096892
 30
0.0
  0
SPLINE
  5
389
100
AcDbEntity
  8
RACCORDO
100
AcDbSpline
 62
250
  6
CONTINUOUS
 70
0
 71
3
 72
17
 73
13
 74
0
 42
0.0000001
 43
0.0000001
 44
0.0000000001
 40
0.0
 40
0.0
 40
0.0
 40
0.0
 40
0.0082417317
 40
0.0249142339
 40
0.0505433828
 40
0.0850879867
 40
0.1795524516
 40
0.3047975818
 40
0.4557818682
 40
0.6265917258
 40
0.8106483114
 40
1.0
 40
1.0
 40
1.0
 40
1.0
 10
46.6816546205
 20
94.5438938209
 30
0.0
 10
46.6813899795
 20
94.5447216162
 30
0.0
 10
46.6786621118
 20
94.5460410884
 30
0.0
 10
46.6738030545
 20
94.5474484455
 30
0.0
 10
46.6656949616
 20
94.5489749145
 30
0.0
 10
46.6496145108
 20
94.5511712941
 30
0.0
 10
46.6228429465
 20
94.5535543518
 30
0.0
 10
46.5838507073
 20
94.5559242396
 30
0.0
 10
46.5367396207
 20
94.5578675994
 30
0.0
 10
46.4834197694
 20
94.5592931057
 30
0.0
 10
46.4260373375
 20
94.5601287859
 30
0.0
 10
46.3866620274
 20
94.560273605
 30
0.0
 10
46.3666954323
 20
94.5602380752
 30
0.0
  0
SPLINE
  5
38A
100
AcDbEntity
  8
RACCORDO
100
AcDbSpline
 62
250
  6
CONTINUOUS
 70
0
 71
3
 72
18
 73
14
 74
0
 42
0.0000001
 43
0.0000001
 44
0.0000000001
 40
0.0
 40
0.0
 40
0.0
 40
0.0
 40
0.0072893502
 40
0.0239014962
 40
0.0497450376
 40
0.0846297991
 40
0.1281747639
 40
0.1799148714
 40
0.3059325632
 40
0.457438123
 40
0.6283389036
 40
0.8118934771
 40
1.0
 40
1.0
 40
1.0
 40
1.0
 10
46.7661283353
 20
94.8212968661
 30
0.0
 10
46.7658900056
 20
94.8220415393
 30
0.0
 10
46.7636529028
 20
94.8236783261
 30
0.0
 10
46.7598179386
 20
94.827155733
 30
0.0
 10
46.7530738934
 20
94.8321439972
 30
0.0
 10
46.7441408925
 20
94.8388101985
 30
0.0
 10
46.7327974634
 20
94.8469768216
 30
0.0
 10
46.7134629123
 20
94.8607370384
 30
0.0
 10
46.6845014602
 20
94.8809589887
 30
0.0
 10
46.6448914072
 20
94.9082438996
 30
0.0
 10
46.6000373872
 20
94.9387981536
 30
0.0
 10
46.5518005442
 20
94.9713574825
 30
0.0
 10
46.5186715469
 20
94.9935330652
 30
0.0
 10
46.5018823499
 20
95.0047238386
 30
0.0
  0
SPLINE
  5
38B
100
AcDbEntity
  8
RACCORDO
100
AcDbSpline
 62
250
  6
CONTINUOUS
 70
0
 71
3
 72
18
 73
14
 74
0
 42
0.0000001
 43
0.0000001
 44
0.0000000001
 40
0.0
 40
0.0
 40
0.0
 40
0.0
 40
0.0078236472
 40
0.0243345095
 40
0.0499085662
 40
0.0844636556
 40
0.127665985
 40
0.1790781718
 40
0.3045575225
 40
0.4557848842
 40
0.6267685283
 40
0.8108512351
 40
1.0
 40
1.0
 40
1.0
 40
1.0
 10
47.181684127
 20
95.0437121033
 30
0.0
 10
47.1809059377
 20
95.0440008645
 30
0.0
 10
47.1798467479
 20
95.0468146138
 30
0.0
 10
47.1785831986
 20
95.051633965
 30
0.0
 10
47.1772921216
 20
95.0598353166
 30
0.0
 10
47.1760086657
 20
95.0706534806
 30
0.0
 10
47.1747669531
 20
95.0843286694
 30
0.0
 10
47.1730753211
 20
95.1076067306
 30
0.0
 10
47.1712817577
 20
95.1423823608
 30
0.0
 10
47.1696028194
 20
95.1898477607
 30
0.0
 10
47.16838332
 20
95.2435506157
 30
0.0
 10
47.1676756431
 20
95.3012844236
 30
0.0
 10
47.1675632647
 20
95.3408824154
 30
0.0
 10
47.1676012245
 20
95.3609498083
 30
0.0
  0
SPLINE
  5
38C
100
AcDbEntity
  8
RACCORDO
100
AcDbSpline
 62
250
  6
CONTINUOUS
 70
0
 71
3
 72
18
 73
14
 74
0
 42
0.0000001
 43
0.0000001
 44
0.0000000001
 40
0.0
 40
0.0
 40
0.0
 40
0.0
 40
0.0066801284
 40
0.0227262664
 40
0.0480580394
 40
0.0824929047
 40
0.1256574589
 40
0.1770942995
 40
0.302768054
 40
0.4543318484
 40
0.6257510605
 40
0.8103309133
 40
1.0
 40
1.0
 40
1.0
 40
1.0
 10
58.0761203162
 20
95.0495197183
 30
0.0
 10
58.0756139252
 20
95.0500128046
 30
0.0
 10
58.0756137365
 20
95.0527295408
 30
0.0
 10
58.0748138002
 20
95.0575079771
 30
0.0
 10
58.0744967029
 20
95.0656658411
 30
0.0
 10
58.0739344678
 20
95.0764820559
 30
0.0
 10
58.0734884944
 20
95.0901507126
 30
0.0
 10
58.0728307024
 20
95.1134375795
 30
0.0
 10
58.0721544697
 20
95.148213877
 30
0.0
 10
58.0715110429
 20
95.1956777212
 30
0.0
 10
58.0710469771
 20
95.249380138
 30
0.0
 10
58.0707767921
 20
95.3071144949
 30
0.0
 10
58.0707340414
 20
95.3467125379
 30
0.0
 10
58.0707485441
 20
95.36678072
 30
0.0
  0
SPLINE
  5
38D
100
AcDbEntity
  8
RACCORDO
100
AcDbSpline
 62
250
  6
CONTINUOUS
 70
0
 71
3
 72
18
 73
14
 74
0
 42
0.0000001
 43
0.0000001
 44
0.0000000001
 40
0.0
 40
0.0
 40
0.0
 40
0.0
 40
0.0066801283
 40
0.0227262663
 40
0.0480580394
 40
0.0824929046
 40
0.1256574589
 40
0.1770942995
 40
0.302768054
 40
0.4543318484
 40
0.6257510605
 40
0.8103309133
 40
1.0
 40
1.0
 40
1.0
 40
1.0
 10
80.3653767721
 20
95.0495197183
 30
0.0
 10
80.365883163
 20
95.0500128046
 30
0.0
 10
80.3658833518
 20
95.0527295408
 30
0.0
 10
80.366683288
 20
95.0575079771
 30
0.0
 10
80.3670003853
 20
95.0656658411
 30
0.0
 10
80.3675626204
 20
95.0764820559
 30
0.0
 10
80.3680085938
 20
95.0901507126
 30
0.0
 10
80.3686663857
 20
95.1134375795
 30
0.0
 10
80.3693426185
 20
95.148213877
 30
0.0
 10
80.3699860453
 20
95.1956777212
 30
0.0
 10
80.3704501111
 20
95.249380138
 30
0.0
 10
80.3707202961
 20
95.3071144949
 30
0.0
 10
80.3707630469
 20
95.3467125379
 30
0.0
 10
80.3707485441
 20
95.36678072
 30
0.0
  0
SPLINE
  5
38E
100
AcDbEntity
  8
RACCORDO
100
AcDbSpline
 62
250
  6
CONTINUOUS
 70
0
 71
3
 72
18
 73
14
 74
0
 42
0.0000001
 43
0.0000001
 44
0.0000000001
 40
0.0
 40
0.0
 40
0.0
 40
0.0
 40
0.0078236475
 40
0.0243345128
 40
0.0499085728
 40
0.0844636666
 40
0.1276660035
 40
0.1790781966
 40
0.3045575563
 40
0.4557849265
 40
0.6267685661
 40
0.8108512475
 40
1.0
 40
1.0
 40
1.0
 40
1.0
 10
91.2598129627
 20
95.0437121033
 30
0.0
 10
91.2605911519
 20
95.0440008646
 30
0.0
 10
91.2616503408
 20
95.0468146149
 30
0.0
 10
91.2629138901
 20
95.0516339666
 30
0.0
 10
91.2642049668
 20
95.0598353194
 30
0.0
 10
91.2654884228
 20
95.070653485
 30
0.0
 10
91.2667301354
 20
95.0843286758
 30
0.0
 10
91.2684217675
 20
95.1076067393
 30
0.0
 10
91.2702153307
 20
95.142382372
 30
0.0
 10
91.271894269
 20
95.1898477731
 30
0.0
 10
91.2731137686
 20
95.2435506257
 30
0.0
 10
91.2738214447
 20
95.301284429
 30
0.0
 10
91.2739338211
 20
95.3408824167
 30
0.0
 10
91.2738958601
 20
95.3609498083
 30
0.0
  0
LINE
  5
38F
100
AcDbEntity
  8
RACCORDO
100
AcDbLine
 62
250
  6
CONTINUOUS
 10
111.790858887
 20
50.1847238372
 30
0.0
 11
111.7908429848
 21
50.0190123852
 31
0.0
  0
SPLINE
  5
390
100
AcDbEntity
  8
RACCORDO
100
AcDbSpline
 62
250
  6
CONTINUOUS
 70
0
 71
3
 72
9
 73
5
 74
0
 42
0.0000001
 43
0.0000001
 44
0.0000000001
 40
0.0
 40
0.0
 40
0.0
 40
0.0
 40
0.2499824038
 40
1.0
 40
1.0
 40
1.0
 40
1.0
 10
58.0707485441
 20
49.6426669544
 30
0.0
 10
58.9998497796
 20
49.6423756549
 30
0.0
 10
62.716516362
 20
49.6413560731
 30
0.0
 10
66.4331831043
 20
49.6409191748
 30
0.0
 10
69.2207485441
 20
49.6409191748
 30
0.0
  0
SPLINE
  5
391
100
AcDbEntity
  8
RACCORDO
100
AcDbSpline
 62
250
  6
CONTINUOUS
 70
0
 71
3
 72
9
 73
5
 74
0
 42
0.0000001
 43
0.0000001
 44
0.0000000001
 40
0.0
 40
0.0
 40
0.0
 40
0.0
 40
0.2499026248
 40
1.0
 40
1.0
 40
1.0
 40
1.0
 10
47.1676012282
 20
49.6484978661
 30
0.0
 10
48.0758427671
 20
49.647749529
 30
0.0
 10
51.7102247876
 20
49.6450796526
 30
0.0
 10
55.3446075417
 20
49.6435216765
 30
0.0
 10
58.0707485441
 20
49.6426669544
 30
0.0
  0
SPLINE
  5
392
100
AcDbEntity
  8
RACCORDO
100
AcDbSpline
 62
250
  6
CONTINUOUS
 70
0
 71
3
 72
9
 73
5
 74
0
 42
0.0000001
 43
0.0000001
 44
0.0000000001
 40
0.0
 40
0.0
 40
0.0
 40
0.0
 40
0.5010415525
 40
1.0
 40
1.0
 40
1.0
 40
1.0
 10
58.0707485441
 20
30.1883238136
 30
0.0
 10
53.4873811144
 20
30.1883890871
 30
0.0
 10
44.3397017818
 20
30.1884432836
 30
0.0
 10
35.1920227209
 20
30.1909434605
 30
0.0
 10
30.6277111785
 20
30.1926286703
 30
0.0
  0
SPLINE
  5
393
100
AcDbEntity
  8
RACCORDO
100
AcDbSpline
 62
250
  6
CONTINUOUS
 70
0
 71
3
 72
9
 73
5
 74
0
 42
0.0000001
 43
0.0000001
 44
0.0000000001
 40
0.0
 40
0.0
 40
0.0
 40
0.0
 40
0.250095363
 40
1.0
 40
1.0
 40
1.0
 40
1.0
 10
46.3574503973
 20
72.5047238372
 30
0.0
 10
46.3574503983
 20
70.666063038
 30
0.0
 10
46.3581971019
 20
63.3142243159
 30
0.0
 10
46.361425493
 20
55.9623851964
 30
0.0
 10
46.3666954322
 20
50.4492096918
 30
0.0
  0
SPLINE
  5
394
100
AcDbEntity
  8
RACCORDO
100
AcDbSpline
 62
250
  6
CONTINUOUS
 70
0
 71
3
 72
9
 73
5
 74
0
 42
0.0000001
 43
0.0000001
 44
0.0000000001
 40
0.0
 40
0.0
 40
0.0
 40
0.0
 40
0.2500731346
 40
1.0
 40
1.0
 40
1.0
 40
1.0
 10
80.3707485441
 20
49.6426669544
 30
0.0
 10
81.2796100431
 20
49.6429519081
 30
0.0
 10
84.9139927868
 20
49.6442310207
 30
0.0
 10
88.5483753512
 20
49.6462521992
 30
0.0
 10
91.2738958601
 20
49.6484978661
 30
0.0
  0
LINE
  5
395
100
AcDbEntity
  8
RACCORDO
100
AcDbLine
 62
250
  6
CONTINUOUS
 10
30.2207485441
 20
115.5047238372
 30
0.0
 11
30.2361934366
 21
115.0738534144
 31
0.0
  0
SPLINE
  5
396
100
AcDbEntity
  8
RACCORDO
100
AcDbSpline
 62
250
  6
CONTINUOUS
 70
0
 71
3
 72
9
 73
5
 74
0
 42
0.0000001
 43
0.0000001
 44
0.0000000001
 40
0.0
 40
0.0
 40
0.0
 40
0.0
 40
0.4989594157
 40
1.0
 40
1.0
 40
1.0
 40
1.0
 10
30.6622281943
 20
115.0735631243
 30
0.0
 10
35.2215692292
 20
115.075125964
 30
0.0
 10
44.3592687366
 20
115.0774465186
 30
0.0
 10
53.4969684784
 20
115.0774943861
 30
0.0
 10
58.0753268746
 20
115.0775550857
 30
0.0
  0
SPLINE
  5
397
100
AcDbEntity
  8
RACCORDO
100
AcDbSpline
 62
250
  6
CONTINUOUS
 70
0
 71
3
 72
9
 73
5
 74
0
 42
0.0000001
 43
0.0000001
 44
0.0000000001
 40
0.0
 40
0.0
 40
0.0
 40
0.0
 40
0.2500985784
 40
1.0
 40
1.0
 40
1.0
 40
1.0
 10
26.6499653613
 20
72.5047238372
 30
0.0
 10
26.6499653044
 20
74.3654572617
 30
0.0
 10
26.650014089
 20
81.8054572637
 30
0.0
 10
26.650116983
 20
89.2454572819
 30
0.0
 10
26.6506382013
 20
94.8247238372
 30
0.0
  0
LINE
  5
398
100
AcDbEntity
  8
RACCORDO
100
AcDbLine
 62
250
  6
CONTINUOUS
 10
26.6506382013
 20
94.8247238372
 30
0.0
 11
26.6506541035
 21
94.9904352892
 31
0.0
  0
SPLINE
  5
399
100
AcDbEntity
  8
RACCORDO
100
AcDbSpline
 62
250
  6
CONTINUOUS
 70
0
 71
3
 72
9
 73
5
 74
0
 42
0.0000001
 43
0.0000001
 44
0.0000000001
 40
0.0
 40
0.0
 40
0.0
 40
0.0
 40
0.250506814
 40
1.0
 40
1.0
 40
1.0
 40
1.0
 10
26.6506541035
 20
94.9904352892
 30
0.0
 10
26.6507864401
 20
96.336749814
 30
0.0
 10
26.6513914296
 20
101.7111126967
 30
0.0
 10
26.6523049208
 20
107.0854755451
 30
0.0
 10
26.653170392
 20
111.1135238372
 30
0.0
  0
SPLINE
  5
39A
100
AcDbEntity
  8
RACCORDO
100
AcDbSpline
 62
250
  6
CONTINUOUS
 70
0
 71
3
 72
9
 73
5
 74
0
 42
0.0000001
 43
0.0000001
 44
0.0000000001
 40
0.0
 40
0.0
 40
0.0
 40
0.0
 40
0.498958736
 40
1.0
 40
1.0
 40
1.0
 40
1.0
 10
107.8137859104
 20
30.1926286703
 30
0.0
 10
103.2494717281
 20
30.1909452259
 30
0.0
 10
94.101792668
 20
30.1884423315
 30
0.0
 10
84.9541133348
 20
30.1883890892
 30
0.0
 10
80.3707485441
 20
30.1883238136
 30
0.0
  0
SPLINE
  5
39B
100
AcDbEntity
  8
RACCORDO
100
AcDbSpline
 62
250
  6
CONTINUOUS
 70
0
 71
3
 72
9
 73
5
 74
0
 42
0.0000001
 43
0.0000001
 44
0.0000000001
 40
0.0
 40
0.0
 40
0.0
 40
0.0
 40
0.2498453159
 40
1.0
 40
1.0
 40
1.0
 40
1.0
 10
92.074801656
 20
50.4492096918
 30
0.0
 10
92.0765574387
 20
52.2860313553
 30
0.0
 10
92.0821848615
 20
59.6378681745
 30
0.0
 10
92.084046688
 20
66.9897074805
 30
0.0
 10
92.084046691
 20
72.5047238372
 30
0.0
  0
LINE
  5
39C
100
AcDbEntity
  8
RACCORDO
100
AcDbLine
 62
250
  6
CONTINUOUS
 10
108.2207485441
 20
115.5047238372
 30
0.0
 11
108.2053036517
 21
115.0738534144
 31
0.0
  0
SPLINE
  5
39D
100
AcDbEntity
  8
RACCORDO
100
AcDbSpline
 62
250
  6
CONTINUOUS
 70
0
 71
3
 72
9
 73
5
 74
0
 42
0.0000001
 43
0.0000001
 44
0.0000000001
 40
0.0
 40
0.0
 40
0.0
 40
0.0
 40
0.250506814
 40
1.0
 40
1.0
 40
1.0
 40
1.0
 10
111.7908429848
 20
50.0190123852
 30
0.0
 10
111.7907106482
 20
48.6726978604
 30
0.0
 10
111.7901056587
 20
43.2983349777
 30
0.0
 10
111.7891921675
 20
37.9239721293
 30
0.0
 10
111.7883266963
 20
33.8959238372
 30
0.0
  0
SPLINE
  5
39E
100
AcDbEntity
  8
RACCORDO
100
AcDbSpline
 62
250
  6
CONTINUOUS
 70
0
 71
3
 72
9
 73
5
 74
0
 42
0.0000001
 43
0.0000001
 44
0.0000000001
 40
0.0
 40
0.0
 40
0.0
 40
0.0
 40
0.5010408726
 40
1.0
 40
1.0
 40
1.0
 40
1.0
 10
80.3661702136
 20
115.0775550857
 30
0.0
 10
84.944531244
 20
115.0774943872
 30
0.0
 10
94.0822309856
 20
115.0774458119
 30
0.0
 10
103.2199304936
 20
115.0751272442
 30
0.0
 10
107.779268894
 20
115.0735631243
 30
0.0
  0
SPLINE
  5
39F
100
AcDbEntity
  8
RACCORDO
100
AcDbSpline
 62
250
  6
CONTINUOUS
 70
0
 71
3
 72
9
 73
5
 74
0
 42
0.0000001
 43
0.0000001
 44
0.0000000001
 40
0.0
 40
0.0
 40
0.0
 40
0.0
 40
0.4989594157
 40
1.0
 40
1.0
 40
1.0
 40
1.0
 10
107.779268894
 20
29.9358845501
 30
0.0
 10
103.2199278591
 20
29.9343217104
 30
0.0
 10
94.0822283517
 20
29.9320011558
 30
0.0
 10
84.9445286099
 20
29.9319532883
 30
0.0
 10
80.3661702136
 20
29.9318925887
 30
0.0
  0
SPLINE
  5
3A0
100
AcDbEntity
  8
RACCORDO
100
AcDbSpline
 62
250
  6
CONTINUOUS
 70
0
 71
3
 72
9
 73
5
 74
0
 42
0.0000001
 43
0.0000001
 44
0.0000000001
 40
0.0
 40
0.0
 40
0.0
 40
0.0
 40
0.7500175962
 40
1.0
 40
1.0
 40
1.0
 40
1.0
 10
69.2207485441
 20
95.3685284996
 30
0.0
 10
66.4331831043
 20
95.3685284996
 30
0.0
 10
62.716516362
 20
95.3680916013
 30
0.0
 10
58.9998497796
 20
95.3670720195
 30
0.0
 10
58.0707485441
 20
95.36678072
 30
0.0
  0
SPLINE
  5
3A1
100
AcDbEntity
  8
RACCORDO
100
AcDbSpline
 62
250
  6
CONTINUOUS
 70
0
 71
3
 72
9
 73
5
 74
0
 42
0.0000001
 43
0.0000001
 44
0.0000000001
 40
0.0
 40
0.0
 40
0.0
 40
0.0
 40
0.2500731346
 40
1.0
 40
1.0
 40
1.0
 40
1.0
 10
58.0707485441
 20
95.36678072
 30
0.0
 10
57.1618870452
 20
95.3664957663
 30
0.0
 10
53.5275043015
 20
95.3652166537
 30
0.0
 10
49.8931217371
 20
95.3631954752
 30
0.0
 10
47.1676012282
 20
95.3609498083
 30
0.0
  0
SPLINE
  5
3A2
100
AcDbEntity
  8
RACCORDO
100
AcDbSpline
 62
250
  6
CONTINUOUS
 70
0
 71
3
 72
9
 73
5
 74
0
 42
0.0000001
 43
0.0000001
 44
0.0000000001
 40
0.0
 40
0.0
 40
0.0
 40
0.0
 40
0.498958736
 40
1.0
 40
1.0
 40
1.0
 40
1.0
 10
30.6277111779
 20
114.8168190041
 30
0.0
 10
35.1920253602
 20
114.8185024485
 30
0.0
 10
44.3397044203
 20
114.8210053429
 30
0.0
 10
53.4873837535
 20
114.8210585852
 30
0.0
 10
58.0707485441
 20
114.8211238608
 30
0.0
  0
SPLINE
  5
3A3
100
AcDbEntity
  8
RACCORDO
100
AcDbSpline
 62
250
  6
CONTINUOUS
 70
0
 71
3
 72
9
 73
5
 74
0
 42
0.0000001
 43
0.0000001
 44
0.0000000001
 40
0.0
 40
0.0
 40
0.0
 40
0.0
 40
0.2498453159
 40
1.0
 40
1.0
 40
1.0
 40
1.0
 10
46.3666954322
 20
94.5602379826
 30
0.0
 10
46.3649396495
 20
92.7234163191
 30
0.0
 10
46.3593122268
 20
85.3715794999
 30
0.0
 10
46.3574504003
 20
78.0197401939
 30
0.0
 10
46.3574503973
 20
72.5047238372
 30
0.0
  0
SPLINE
  5
3A4
100
AcDbEntity
  8
RACCORDO
100
AcDbSpline
 62
250
  6
CONTINUOUS
 70
0
 71
3
 72
9
 73
5
 74
0
 42
0.0000001
 43
0.0000001
 44
0.0000000001
 40
0.0
 40
0.0
 40
0.0
 40
0.0
 40
0.2498392903
 40
1.0
 40
1.0
 40
1.0
 40
1.0
 10
111.790858887
 20
94.8247238372
 30
0.0
 10
111.791032693
 20
92.9659195244
 30
0.0
 10
111.7914931404
 20
85.5259195305
 30
0.0
 10
111.7915315351
 20
78.0859195214
 30
0.0
 10
111.791531727
 20
72.5047238372
 30
0.0
  0
SPLINE
  5
3A5
100
AcDbEntity
  8
RACCORDO
100
AcDbSpline
 62
250
  6
CONTINUOUS
 70
0
 71
3
 72
9
 73
5
 74
0
 42
0.0000001
 43
0.0000001
 44
0.0000000001
 40
0.0
 40
0.0
 40
0.0
 40
0.0
 40
0.2494274766
 40
1.0
 40
1.0
 40
1.0
 40
1.0
 10
111.7883266963
 20
111.1135238372
 30
0.0
 10
111.7886147211
 20
109.7730100877
 30
0.0
 10
111.7896889514
 20
104.3986472782
 30
0.0
 10
111.7904464768
 20
99.0242844058
 30
0.0
 10
111.7908429848
 20
94.9904352892
 30
0.0
  0
LINE
  5
3A6
100
AcDbEntity
  8
RACCORDO
100
AcDbLine
 62
250
  6
CONTINUOUS
 10
111.7908429848
 20
94.9904352892
 30
0.0
 11
111.790858887
 21
94.8247238372
 31
0.0
  0
SPLINE
  5
3A7
100
AcDbEntity
  8
RACCORDO
100
AcDbSpline
 62
250
  6
CONTINUOUS
 70
0
 71
3
 72
13
 73
9
 74
0
 42
0.0000001
 43
0.0000001
 44
0.0000000001
 40
0.0
 40
0.0
 40
0.0
 40
0.0
 40
0.0426612958
 40
0.1136772453
 40
0.2116148913
 40
0.3339611893
 40
0.6395686507
 40
1.0
 40
1.0
 40
1.0
 40
1.0
 10
111.790858887
 20
94.8247237977
 30
0.0
 10
111.7875381246
 20
94.8260350958
 30
0.0
 10
111.7781101885
 20
94.8278329188
 30
0.0
 10
111.760600786
 20
94.8301942924
 30
0.0
 10
111.7362877496
 20
94.8323153816
 30
0.0
 10
111.6923771674
 20
94.8351564221
 30
0.0
 10
111.626426439
 20
94.8376229887
 30
0.0
 10
111.5706945066
 20
94.8385895624
 30
0.0
 10
111.5405314345
 20
94.8388513328
 30
0.0
  0
SPLINE
  5
3A8
100
AcDbEntity
  8
RACCORDO
100
AcDbSpline
 62
250
  6
CONTINUOUS
 70
0
 71
3
 72
13
 73
9
 74
0
 42
0.0000001
 43
0.0000001
 44
0.0000000001
 40
0.0
 40
0.0
 40
0.0
 40
0.0
 40
0.0426877663
 40
0.1137151411
 40
0.2116562017
 40
0.3340005373
 40
0.6395928454
 40
1.0
 40
1.0
 40
1.0
 40
1.0
 10
111.7908429848
 20
94.9904352892
 30
0.0
 10
111.7875250533
 20
94.9917604236
 30
0.0
 10
111.7780957577
 20
94.9935802192
 30
0.0
 10
111.760585857
 20
94.9959679998
 30
0.0
 10
111.736271636
 20
94.9981137688
 30
0.0
 10
111.6923612228
 20
95.0009870513
 30
0.0
 10
111.6264098458
 20
95.0034818165
 30
0.0
 10
111.5706773123
 20
95.004459202
 30
0.0
 10
111.5405140907
 20
95.0047238372
 30
0.0
  0
SPLINE
  5
3A9
100
AcDbEntity
  8
RACCORDO
100
AcDbSpline
 62
250
  6
CONTINUOUS
 70
0
 71
3
 72
13
 73
9
 74
0
 42
0.0000001
 43
0.0000001
 44
0.0000000001
 40
0.0
 40
0.0
 40
0.0
 40
0.0
 40
0.0466596296
 40
0.1194712905
 40
0.2179688827
 40
0.3400346014
 40
0.6433171324
 40
1.0
 40
1.0
 40
1.0
 40
1.0
 10
111.7883266963
 20
111.1135238372
 30
0.0
 10
111.7853212618
 20
111.1160865887
 30
0.0
 10
111.7758544862
 20
111.1202755975
 30
0.0
 10
111.758185628
 20
111.1253146455
 30
0.0
 10
111.7337336513
 20
111.1300137474
 30
0.0
 10
111.6898274549
 20
111.1361453583
 30
0.0
 10
111.6237878215
 20
111.1415316094
 30
0.0
 10
111.5679532933
 20
111.1436212355
 30
0.0
 10
111.5377654759
 20
111.1441866556
 30
0.0
  0
SPLINE
  5
3AA
100
AcDbEntity
  8
RACCORDO
100
AcDbSpline
 62
250
  6
CONTINUOUS
 70
0
 71
3
 72
13
 73
9
 74
0
 42
0.0000001
 43
0.0000001
 44
0.0000000001
 40
0.0
 40
0.0
 40
0.0
 40
0.0
 40
0.04682853
 40
0.1197219235
 40
0.2182495274
 40
0.3403085339
 40
0.6434945142
 40
1.0
 40
1.0
 40
1.0
 40
1.0
 10
111.7886387346
 20
111.4917623695
 30
0.0
 10
111.7856476116
 20
111.4943685118
 30
0.0
 10
111.7761903971
 20
111.4986602074
 30
0.0
 10
111.7585182315
 20
111.5038287572
 30
0.0
 10
111.7340638889
 20
111.5086703208
 30
0.0
 10
111.6901572547
 20
111.5150115913
 30
0.0
 10
111.6241072657
 20
111.5206473353
 30
0.0
 10
111.5682569491
 20
111.5229035444
 30
0.0
 10
111.5380614432
 20
111.523548731
 30
0.0
  0
SPLINE
  5
3AB
100
AcDbEntity
  8
RACCORDO
100
AcDbSpline
 62
250
  6
CONTINUOUS
 70
0
 71
3
 72
13
 73
9
 74
0
 42
0.0000001
 43
0.0000001
 44
0.0000000001
 40
0.0
 40
0.0
 40
0.0
 40
0.0
 40
0.0479552755
 40
0.1215195069
 40
0.2204770703
 40
0.3427557576
 40
0.6455557279
 40
1.0
 40
1.0
 40
1.0
 40
1.0
 10
108.2053039628
 20
115.0738662062
 30
0.0
 10
108.2082346006
 20
115.0708891478
 30
0.0
 10
108.2132137512
 20
115.0612303793
 30
0.0
 10
108.2191524016
 20
115.0430458135
 30
0.0
 10
108.2247333723
 20
115.017903214
 30
0.0
 10
108.2320028727
 20
114.9728438536
 30
0.0
 10
108.2384439512
 20
114.9051679701
 30
0.0
 10
108.2409809817
 20
114.8479575006
 30
0.0
 10
108.2416796316
 20
114.8170889009
 30
0.0
  0
SPLINE
  5
3AC
100
AcDbEntity
  8
RACCORDO
100
AcDbSpline
 62
250
  6
CONTINUOUS
 70
0
 71
3
 72
13
 73
9
 74
0
 42
0.0000001
 43
0.0000001
 44
0.0000000001
 40
0.0
 40
0.0
 40
0.0
 40
0.0
 40
0.0477070344
 40
0.1211495686
 40
0.220061371
 40
0.3423481907
 40
0.6452884849
 40
1.0
 40
1.0
 40
1.0
 40
1.0
 10
107.7792688927
 20
115.0735631243
 30
0.0
 10
107.7821358247
 20
115.0705625079
 30
0.0
 10
107.7869569474
 20
115.0608819488
 30
0.0
 10
107.7926892388
 20
115.0426989823
 30
0.0
 10
107.7980399132
 20
115.0175580886
 30
0.0
 10
107.8049643233
 20
114.9725008513
 30
0.0
 10
107.810983296
 20
114.9048476147
 30
0.0
 10
107.8132292217
 20
114.8476705229
 30
0.0
 10
107.8137859113
 20
114.8168190041
 30
0.0
  0
SPLINE
  5
3AD
100
AcDbEntity
  8
RACCORDO
100
AcDbSpline
 62
250
  6
CONTINUOUS
 70
0
 71
3
 72
11
 73
7
 74
0
 42
0.0000001
 43
0.0000001
 44
0.0000000001
 40
0.0
 40
0.0
 40
0.0
 40
0.0
 40
0.1121756376
 40
0.3329741146
 40
0.6395280322
 40
1.0
 40
1.0
 40
1.0
 40
1.0
 10
80.3661702136
 20
115.0775550857
 30
0.0
 10
80.3673839532
 20
115.0680410185
 30
0.0
 10
80.36800482
 20
115.0395114315
 30
0.0
 10
80.3696007617
 20
114.9849003139
 30
0.0
 10
80.3703269476
 20
114.9089686782
 30
0.0
 10
80.3706733571
 20
114.8519446301
 30
0.0
 10
80.3707485441
 20
114.8211238608
 30
0.0
  0
SPLINE
  5
3AE
100
AcDbEntity
  8
RACCORDO
100
AcDbSpline
 62
250
  6
CONTINUOUS
 70
0
 71
3
 72
11
 73
7
 74
0
 42
0.0000001
 43
0.0000001
 44
0.0000000001
 40
0.0
 40
0.0
 40
0.0
 40
0.0
 40
0.1121741321
 40
0.3329725425
 40
0.6395270635
 40
1.0
 40
1.0
 40
1.0
 40
1.0
 10
80.3133416195
 20
115.0775557622
 30
0.0
 10
80.3145496951
 20
115.0680411317
 30
0.0
 10
80.3151675138
 20
115.0395123122
 30
0.0
 10
80.3167560388
 20
114.9849007909
 30
0.0
 10
80.3174788061
 20
114.9089694425
 30
0.0
 10
80.3178236355
 20
114.8519453538
 30
0.0
 10
80.3178984924
 20
114.8211245894
 30
0.0
  0
SPLINE
  5
3AF
100
AcDbEntity
  8
RACCORDO
100
AcDbSpline
 62
250
  6
CONTINUOUS
 70
0
 71
3
 72
11
 73
7
 74
0
 42
0.0000001
 43
0.0000001
 44
0.0000000001
 40
0.0
 40
0.0
 40
0.0
 40
0.0
 40
0.1121741321
 40
0.3329725425
 40
0.6395270635
 40
1.0
 40
1.0
 40
1.0
 40
1.0
 10
58.1281554687
 20
115.0775557622
 30
0.0
 10
58.1269473931
 20
115.0680411317
 30
0.0
 10
58.1263295744
 20
115.0395123122
 30
0.0
 10
58.1247410494
 20
114.9849007909
 30
0.0
 10
58.1240182822
 20
114.9089694425
 30
0.0
 10
58.1236734528
 20
114.8519453538
 30
0.0
 10
58.1235985958
 20
114.8211245894
 30
0.0
  0
SPLINE
  5
3B0
100
AcDbEntity
  8
RACCORDO
100
AcDbSpline
 62
250
  6
CONTINUOUS
 70
0
 71
3
 72
11
 73
7
 74
0
 42
0.0000001
 43
0.0000001
 44
0.0000000001
 40
0.0
 40
0.0
 40
0.0
 40
0.0
 40
0.1121756376
 40
0.3329741146
 40
0.6395280322
 40
1.0
 40
1.0
 40
1.0
 40
1.0
 10
58.0753268746
 20
115.0775550857
 30
0.0
 10
58.0741131351
 20
115.0680410185
 30
0.0
 10
58.0734922682
 20
115.0395114315
 30
0.0
 10
58.0718963266
 20
114.9849003139
 30
0.0
 10
58.0711701406
 20
114.9089686782
 30
0.0
 10
58.0708237312
 20
114.8519446301
 30
0.0
 10
58.0707485441
 20
114.8211238608
 30
0.0
  0
SPLINE
  5
3B1
100
AcDbEntity
  8
RACCORDO
100
AcDbSpline
 62
250
  6
CONTINUOUS
 70
0
 71
3
 72
13
 73
9
 74
0
 42
0.0000001
 43
0.0000001
 44
0.0000000001
 40
0.0
 40
0.0
 40
0.0
 40
0.0
 40
0.0477070464
 40
0.121149586
 40
0.2200613901
 40
0.3423482091
 40
0.6452884961
 40
1.0
 40
1.0
 40
1.0
 40
1.0
 10
30.6622282122
 20
115.0735631243
 30
0.0
 10
30.6593612778
 20
115.0705625086
 30
0.0
 10
30.6545401496
 20
115.0608819499
 30
0.0
 10
30.6488078524
 20
115.0426989828
 30
0.0
 10
30.6434571725
 20
115.0175580888
 30
0.0
 10
30.6365327556
 20
114.9725008516
 30
0.0
 10
30.6305137774
 20
114.9048476149
 30
0.0
 10
30.6282678501
 20
114.8476705229
 30
0.0
 10
30.6277111603
 20
114.8168190041
 30
0.0
  0
SPLINE
  5
3B2
100
AcDbEntity
  8
RACCORDO
100
AcDbSpline
 62
250
  6
CONTINUOUS
 70
0
 71
3
 72
13
 73
9
 74
0
 42
0.0000001
 43
0.0000001
 44
0.0000000001
 40
0.0
 40
0.0
 40
0.0
 40
0.0
 40
0.0479332102
 40
0.1214851114
 40
0.2204356907
 40
0.3427116763
 40
0.6455206683
 40
1.0
 40
1.0
 40
1.0
 40
1.0
 10
30.2361934326
 20
115.0738534144
 30
0.0
 10
30.2332750541
 20
115.0708694435
 30
0.0
 10
30.2283295275
 20
115.061202432
 30
0.0
 10
30.2224444669
 20
115.0430126823
 30
0.0
 10
30.2169315534
 20
115.0178680525
 30
0.0
 10
30.2097766578
 20
114.9728096275
 30
0.0
 10
30.2034969106
 20
114.9051434815
 30
0.0
 10
30.2010889058
 20
114.8479474238
 30
0.0
 10
30.2004580831
 20
114.8170871042
 30
0.0
  0
SPLINE
  5
3B3
100
AcDbEntity
  8
RACCORDO
100
AcDbSpline
 62
250
  6
CONTINUOUS
 70
0
 71
3
 72
13
 73
9
 74
0
 42
0.0000001
 43
0.0000001
 44
0.0000000001
 40
0.0
 40
0.0
 40
0.0
 40
0.0
 40
0.0467968206
 40
0.1196749602
 40
0.2181981546
 40
0.3402606774
 40
0.6434684279
 40
1.0
 40
1.0
 40
1.0
 40
1.0
 10
26.652849151
 20
111.4914946755
 30
0.0
 10
26.6558377909
 20
111.4941004473
 30
0.0
 10
26.665290805
 20
111.4983945372
 30
0.0
 10
26.6829572783
 20
111.5035758196
 30
0.0
 10
26.7074094924
 20
111.5084393794
 30
0.0
 10
26.7513176957
 20
111.514826065
 30
0.0
 10
26.8173748789
 20
111.5205383213
 30
0.0
 10
26.8732343731
 20
111.5228643913
 30
0.0
 10
26.9034355777
 20
111.5235487836
 30
0.0
  0
SPLINE
  5
3B4
100
AcDbEntity
  8
RACCORDO
100
AcDbSpline
 62
250
  6
CONTINUOUS
 70
0
 71
3
 72
13
 73
9
 74
0
 42
0.0000001
 43
0.0000001
 44
0.0000000001
 40
0.0
 40
0.0
 40
0.0
 40
0.0
 40
0.0466596313
 40
0.1194712926
 40
0.2179688846
 40
0.340034603
 40
0.6433171332
 40
1.0
 40
1.0
 40
1.0
 40
1.0
 10
26.653170392
 20
111.1135238357
 30
0.0
 10
26.6561758264
 20
111.1160865876
 30
0.0
 10
26.6656426019
 20
111.1202755972
 30
0.0
 10
26.6833114602
 20
111.1253146456
 30
0.0
 10
26.7077634369
 20
111.1300137475
 30
0.0
 10
26.7516696334
 20
111.1361453582
 30
0.0
 10
26.8177092668
 20
111.1415316092
 30
0.0
 10
26.8735437949
 20
111.1436212363
 30
0.0
 10
26.9037316124
 20
111.1441866571
 30
0.0
  0
SPLINE
  5
3B5
100
AcDbEntity
  8
RACCORDO
100
AcDbSpline
 62
250
  6
CONTINUOUS
 70
0
 71
3
 72
13
 73
9
 74
0
 42
0.0000001
 43
0.0000001
 44
0.0000000001
 40
0.0
 40
0.0
 40
0.0
 40
0.0
 40
0.0426877663
 40
0.1137151411
 40
0.2116562017
 40
0.3340005373
 40
0.6395928454
 40
1.0
 40
1.0
 40
1.0
 40
1.0
 10
26.6506541035
 20
94.9904352892
 30
0.0
 10
26.653972035
 20
94.9917604236
 30
0.0
 10
26.6634013306
 20
94.9935802192
 30
0.0
 10
26.6809112313
 20
94.9959679998
 30
0.0
 10
26.7052254523
 20
94.9981137688
 30
0.0
 10
26.7491358654
 20
95.0009870513
 30
0.0
 10
26.8150872424
 20
95.0034818165
 30
0.0
 10
26.8708197759
 20
95.004459202
 30
0.0
 10
26.9009829975
 20
95.0047238372
 30
0.0
  0
SPLINE
  5
3B6
100
AcDbEntity
  8
RACCORDO
100
AcDbSpline
 62
250
  6
CONTINUOUS
 70
0
 71
3
 72
13
 73
9
 74
0
 42
0.0000001
 43
0.0000001
 44
0.0000000001
 40
0.0
 40
0.0
 40
0.0
 40
0.0
 40
0.042661272
 40
0.1136772143
 40
0.2116148606
 40
0.3339611623
 40
0.6395686365
 40
1.0
 40
1.0
 40
1.0
 40
1.0
 10
26.6506382013
 20
94.8247238372
 30
0.0
 10
26.6539589668
 20
94.8260351218
 30
0.0
 10
26.663386901
 20
94.8278329281
 30
0.0
 10
26.6808963028
 20
94.8301942892
 30
0.0
 10
26.7052093376
 20
94.8323153777
 30
0.0
 10
26.7491199194
 20
94.8351564244
 30
0.0
 10
26.8150706479
 20
94.8376229956
 30
0.0
 10
26.8708025814
 20
94.8385895417
 30
0.0
 10
26.9009656537
 20
94.8388512932
 30
0.0
  0
SPLINE
  5
3B7
100
AcDbEntity
  8
RACCORDO
100
AcDbSpline
 62
250
  6
CONTINUOUS
 70
0
 71
3
 72
13
 73
9
 74
0
 42
0.0000001
 43
0.0000001
 44
0.0000000001
 40
0.0
 40
0.0
 40
0.0
 40
0.0
 40
0.0426612958
 40
0.1136772453
 40
0.2116148913
 40
0.3339611893
 40
0.6395686507
 40
1.0
 40
1.0
 40
1.0
 40
1.0
 10
26.6506382013
 20
50.1847238767
 30
0.0
 10
26.6539589637
 20
50.1834125786
 30
0.0
 10
26.6633868998
 20
50.1816147556
 30
0.0
 10
26.6808963022
 20
50.179253382
 30
0.0
 10
26.7052093387
 20
50.1771322928
 30
0.0
 10
26.7491199208
 20
50.1742912523
 30
0.0
 10
26.8150706493
 20
50.1718246857
 30
0.0
 10
26.8708025817
 20
50.170858112
 30
0.0
 10
26.9009656537
 20
50.1705963416
 30
0.0
  0
SPLINE
  5
3B8
100
AcDbEntity
  8
RACCORDO
100
AcDbSpline
 62
250
  6
CONTINUOUS
 70
0
 71
3
 72
13
 73
9
 74
0
 42
0.0000001
 43
0.0000001
 44
0.0000000001
 40
0.0
 40
0.0
 40
0.0
 40
0.0
 40
0.0426877663
 40
0.1137151411
 40
0.2116562017
 40
0.3340005373
 40
0.6395928454
 40
1.0
 40
1.0
 40
1.0
 40
1.0
 10
26.6506541035
 20
50.0190123852
 30
0.0
 10
26.653972035
 20
50.0176872508
 30
0.0
 10
26.6634013306
 20
50.0158674552
 30
0.0
 10
26.6809112313
 20
50.0134796746
 30
0.0
 10
26.7052254523
 20
50.0113339056
 30
0.0
 10
26.7491358654
 20
50.0084606231
 30
0.0
 10
26.8150872424
 20
50.0059658579
 30
0.0
 10
26.8708197759
 20
50.0049884724
 30
0.0
 10
26.9009829975
 20
50.0047238372
 30
0.0
  0
SPLINE
  5
3B9
100
AcDbEntity
  8
RACCORDO
100
AcDbSpline
 62
250
  6
CONTINUOUS
 70
0
 71
3
 72
13
 73
9
 74
0
 42
0.0000001
 43
0.0000001
 44
0.0000000001
 40
0.0
 40
0.0
 40
0.0
 40
0.0
 40
0.0466596296
 40
0.1194712905
 40
0.2179688827
 40
0.3400346014
 40
0.6433171324
 40
1.0
 40
1.0
 40
1.0
 40
1.0
 10
26.653170392
 20
33.8959238372
 30
0.0
 10
26.6561758265
 20
33.8933610857
 30
0.0
 10
26.6656426021
 20
33.8891720769
 30
0.0
 10
26.6833114603
 20
33.8841330289
 30
0.0
 10
26.7077634369
 20
33.879433927
 30
0.0
 10
26.7516696333
 20
33.8733023161
 30
0.0
 10
26.8177092668
 20
33.867916065
 30
0.0
 10
26.8735437949
 20
33.8658264389
 30
0.0
 10
26.9037316124
 20
33.8652610188
 30
0.0
  0
SPLINE
  5
3BA
100
AcDbEntity
  8
RACCORDO
100
AcDbSpline
 62
250
  6
CONTINUOUS
 70
0
 71
3
 72
13
 73
9
 74
0
 42
0.0000001
 43
0.0000001
 44
0.0000000001
 40
0.0
 40
0.0
 40
0.0
 40
0.0
 40
0.04682853
 40
0.1197219235
 40
0.2182495274
 40
0.3403085339
 40
0.6434945142
 40
1.0
 40
1.0
 40
1.0
 40
1.0
 10
26.6528583537
 20
33.5176853049
 30
0.0
 10
26.6558494767
 20
33.5150791626
 30
0.0
 10
26.6653066912
 20
33.510787467
 30
0.0
 10
26.6829788567
 20
33.5056189172
 30
0.0
 10
26.7074331993
 20
33.5007773536
 30
0.0
 10
26.7513398335
 20
33.4944360831
 30
0.0
 10
26.8173898226
 20
33.4888003391
 30
0.0
 10
26.8732401391
 20
33.48654413
 30
0.0
 10
26.9034356451
 20
33.4858989434
 30
0.0
  0
SPLINE
  5
3BB
100
AcDbEntity
  8
RACCORDO
100
AcDbSpline
 62
250
  6
CONTINUOUS
 70
0
 71
3
 72
13
 73
9
 74
0
 42
0.0000001
 43
0.0000001
 44
0.0000000001
 40
0.0
 40
0.0
 40
0.0
 40
0.0
 40
0.0479552755
 40
0.1215195069
 40
0.2204770703
 40
0.3427557576
 40
0.6455557279
 40
1.0
 40
1.0
 40
1.0
 40
1.0
 10
30.2361931255
 20
29.9355814682
 30
0.0
 10
30.2332624877
 20
29.9385585266
 30
0.0
 10
30.2282833371
 20
29.9482172951
 30
0.0
 10
30.2223446867
 20
29.9664018609
 30
0.0
 10
30.216763716
 20
29.9915444604
 30
0.0
 10
30.2094942155
 20
30.0366038208
 30
0.0
 10
30.2030531371
 20
30.1042797043
 30
0.0
 10
30.2005161066
 20
30.1614901738
 30
0.0
 10
30.1998174567
 20
30.1923587735
 30
0.0
  0
SPLINE
  5
3BC
100
AcDbEntity
  8
RACCORDO
100
AcDbSpline
 62
250
  6
CONTINUOUS
 70
0
 71
3
 72
13
 73
9
 74
0
 42
0.0000001
 43
0.0000001
 44
0.0000000001
 40
0.0
 40
0.0
 40
0.0
 40
0.0
 40
0.0477070344
 40
0.1211495686
 40
0.220061371
 40
0.3423481907
 40
0.6452884849
 40
1.0
 40
1.0
 40
1.0
 40
1.0
 10
30.6622281956
 20
29.9358845501
 30
0.0
 10
30.6593612636
 20
29.9388851665
 30
0.0
 10
30.6545401409
 20
29.9485657256
 30
0.0
 10
30.6488078494
 20
29.9667486921
 30
0.0
 10
30.6434571751
 20
29.9918895858
 30
0.0
 10
30.636532765
 20
30.0369468231
 30
0.0
 10
30.6305137923
 20
30.1046000597
 30
0.0
 10
30.6282678666
 20
30.1617771515
 30
0.0
 10
30.627711177
 20
30.1926286703
 30
0.0
  0
SPLINE
  5
3BD
100
AcDbEntity
  8
RACCORDO
100
AcDbSpline
 62
250
  6
CONTINUOUS
 70
0
 71
3
 72
9
 73
5
 74
0
 42
0.0000001
 43
0.0000001
 44
0.0000000001
 40
0.0
 40
0.0
 40
0.0
 40
0.0
 40
0.2499824038
 40
1.0
 40
1.0
 40
1.0
 40
1.0
 10
80.3707485441
 20
95.36678072
 30
0.0
 10
79.4416473087
 20
95.3670720195
 30
0.0
 10
75.7249807263
 20
95.3680916013
 30
0.0
 10
72.008313984
 20
95.3685284996
 30
0.0
 10
69.2207485441
 20
95.3685284996
 30
0.0
  0
SPLINE
  5
3BE
100
AcDbEntity
  8
RACCORDO
100
AcDbSpline
 62
250
  6
CONTINUOUS
 70
0
 71
3
 72
9
 73
5
 74
0
 42
0.0000001
 43
0.0000001
 44
0.0000000001
 40
0.0
 40
0.0
 40
0.0
 40
0.0
 40
0.2499026248
 40
1.0
 40
1.0
 40
1.0
 40
1.0
 10
91.2738958601
 20
95.3609498083
 30
0.0
 10
90.3656543212
 20
95.3616981454
 30
0.0
 10
86.7312723007
 20
95.3643680218
 30
0.0
 10
83.0968895466
 20
95.3659259979
 30
0.0
 10
80.3707485441
 20
95.36678072
 30
0.0
  0
SPLINE
  5
3BF
100
AcDbEntity
  8
RACCORDO
100
AcDbSpline
 62
250
  6
CONTINUOUS
 70
0
 71
3
 72
9
 73
5
 74
0
 42
0.0000001
 43
0.0000001
 44
0.0000000001
 40
0.0
 40
0.0
 40
0.0
 40
0.0
 40
0.5010415525
 40
1.0
 40
1.0
 40
1.0
 40
1.0
 10
80.3707485441
 20
114.8211238608
 30
0.0
 10
84.9541159739
 20
114.8210585873
 30
0.0
 10
94.1017953065
 20
114.8210043908
 30
0.0
 10
103.2494743675
 20
114.8185042139
 30
0.0
 10
107.8137859098
 20
114.8168190041
 30
0.0
  0
SPLINE
  5
3C0
100
AcDbEntity
  8
RACCORDO
100
AcDbSpline
 62
250
  6
CONTINUOUS
 70
0
 71
3
 72
9
 73
5
 74
0
 42
0.0000001
 43
0.0000001
 44
0.0000000001
 40
0.0
 40
0.0
 40
0.0
 40
0.0
 40
0.250095363
 40
1.0
 40
1.0
 40
1.0
 40
1.0
 10
92.084046691
 20
72.5047238372
 30
0.0
 10
92.08404669
 20
74.3433846364
 30
0.0
 10
92.0832999864
 20
81.6952233585
 30
0.0
 10
92.0800715953
 20
89.047062478
 30
0.0
 10
92.074801656
 20
94.5602379826
 30
0.0
  0
LINE
  5
3C1
100
AcDbEntity
  8
RACCORDO
100
AcDbLine
 62
250
  6
CONTINUOUS
 10
30.2207485441
 20
29.5047238372
 30
0.0
 11
30.2361934366
 21
29.93559426
 31
0.0
  0
SPLINE
  5
3C2
100
AcDbEntity
  8
RACCORDO
100
AcDbSpline
 62
250
  6
CONTINUOUS
 70
0
 71
3
 72
9
 73
5
 74
0
 42
0.0000001
 43
0.0000001
 44
0.0000000001
 40
0.0
 40
0.0
 40
0.0
 40
0.0
 40
0.5010408726
 40
1.0
 40
1.0
 40
1.0
 40
1.0
 10
58.0753268746
 20
29.9318925887
 30
0.0
 10
53.4969658443
 20
29.9319532872
 30
0.0
 10
44.3592661027
 20
29.9320018625
 30
0.0
 10
35.2215665947
 20
29.9343204302
 30
0.0
 10
30.6622281943
 20
29.9358845501
 30
0.0
  0
LINE
  5
3C3
100
AcDbEntity
  8
RACCORDO
100
AcDbLine
 62
250
  6
CONTINUOUS
 10
108.2207485441
 20
29.5047238372
 30
0.0
 11
108.2053036517
 21
29.93559426
 31
0.0
  0
SPLINE
  5
3C4
100
AcDbEntity
  8
RACCORDO
100
AcDbSpline
 62
250
  6
CONTINUOUS
 70
0
 71
3
 72
9
 73
5
 74
0
 42
0.0000001
 43
0.0000001
 44
0.0000000001
 40
0.0
 40
0.0
 40
0.0
 40
0.0
 40
0.2499026244
 40
1.0
 40
1.0
 40
1.0
 40
1.0
 10
47.1816841256
 20
49.9657355711
 30
0.0
 10
48.0892000202
 20
49.9649906495
 30
0.0
 10
51.7206783359
 20
49.9623324678
 30
0.0
 10
55.3521573786
 20
49.9607800254
 30
0.0
 10
58.0761203162
 20
49.9599279561
 30
0.0
  0
SPLINE
  5
3C5
100
AcDbEntity
  8
RACCORDO
100
AcDbSpline
 62
250
  6
CONTINUOUS
 70
0
 71
3
 72
9
 73
5
 74
0
 42
0.0000001
 43
0.0000001
 44
0.0000000001
 40
0.0
 40
0.0
 40
0.0
 40
0.0
 40
0.2499824037
 40
1.0
 40
1.0
 40
1.0
 40
1.0
 10
58.0761203162
 20
49.9599279561
 30
0.0
 10
59.0047739353
 20
49.9596374686
 30
0.0
 10
62.7196499275
 20
49.9586207291
 30
0.0
 10
66.4345260787
 20
49.9581850489
 30
0.0
 10
69.2207485441
 20
49.9581850489
 30
0.0
  0
SPLINE
  5
3C6
100
AcDbEntity
  8
RACCORDO
100
AcDbSpline
 62
250
  6
CONTINUOUS
 70
0
 71
3
 72
9
 73
5
 74
0
 42
0.0000001
 43
0.0000001
 44
0.0000000001
 40
0.0
 40
0.0
 40
0.0
 40
0.0
 40
0.7500175963
 40
1.0
 40
1.0
 40
1.0
 40
1.0
 10
69.2207485441
 20
49.9581850489
 30
0.0
 10
72.0069710095
 20
49.9581850489
 30
0.0
 10
75.7218471607
 20
49.9586207291
 30
0.0
 10
79.436723153
 20
49.9596374686
 30
0.0
 10
80.3653767721
 20
49.9599279561
 30
0.0
  0
SPLINE
  5
3C7
100
AcDbEntity
  8
RACCORDO
100
AcDbSpline
 62
250
  6
CONTINUOUS
 70
0
 71
3
 72
9
 73
5
 74
0
 42
0.0000001
 43
0.0000001
 44
0.0000000001
 40
0.0
 40
0.0
 40
0.0
 40
0.0
 40
0.2500731269
 40
1.0
 40
1.0
 40
1.0
 40
1.0
 10
80.3653767721
 20
49.9599279561
 30
0.0
 10
81.2735121028
 20
49.9602120254
 30
0.0
 10
84.9049911355
 20
49.9614869069
 30
0.0
 10
88.53646999
 20
49.9635001536
 30
0.0
 10
91.2598129627
 20
49.9657355711
 30
0.0
  0
SPLINE
  5
3C8
100
AcDbEntity
  8
RACCORDO
100
AcDbSpline
 62
250
  6
CONTINUOUS
 70
0
 71
3
 72
9
 73
5
 74
0
 42
0.0000001
 43
0.0000001
 44
0.0000000001
 40
0.0
 40
0.0
 40
0.0
 40
0.0
 40
0.2498453269
 40
1.0
 40
1.0
 40
1.0
 40
1.0
 10
46.6816546206
 20
94.5438939132
 30
0.0
 10
46.6799059133
 20
92.7084333278
 30
0.0
 10
46.6742999754
 20
85.3620445234
 30
0.0
 10
46.6724427963
 20
78.0156532496
 30
0.0
 10
46.672442803
 20
72.5047238372
 30
0.0
  0
SPLINE
  5
3C9
100
AcDbEntity
  8
RACCORDO
100
AcDbSpline
 62
250
  6
CONTINUOUS
 70
0
 71
3
 72
9
 73
5
 74
0
 42
0.0000001
 43
0.0000001
 44
0.0000000001
 40
0.0
 40
0.0
 40
0.0
 40
0.0
 40
0.2500953476
 40
1.0
 40
1.0
 40
1.0
 40
1.0
 10
46.672442803
 20
72.5047238372
 30
0.0
 10
46.6724428008
 20
70.6674256781
 30
0.0
 10
46.6731870173
 20
63.3210349831
 30
0.0
 10
46.676405919
 20
55.9746438961
 30
0.0
 10
46.6816546206
 20
50.4655537612
 30
0.0
  0
SPLINE
  5
3CA
100
AcDbEntity
  8
RACCORDO
100
AcDbSpline
 62
250
  6
CONTINUOUS
 70
0
 71
3
 72
9
 73
5
 74
0
 42
0.0000001
 43
0.0000001
 44
0.0000000001
 40
0.0
 40
0.0
 40
0.0
 40
0.0
 40
0.2499026244
 40
1.0
 40
1.0
 40
1.0
 40
1.0
 10
91.2598129627
 20
95.0437121033
 30
0.0
 10
90.3522970681
 20
95.0444570249
 30
0.0
 10
86.7208187524
 20
95.0471152066
 30
0.0
 10
83.0893397096
 20
95.048667649
 30
0.0
 10
80.3653767721
 20
95.0495197183
 30
0.0
  0
SPLINE
  5
3CB
100
AcDbEntity
  8
RACCORDO
100
AcDbSpline
 62
250
  6
CONTINUOUS
 70
0
 71
3
 72
9
 73
5
 74
0
 42
0.0000001
 43
0.0000001
 44
0.0000000001
 40
0.0
 40
0.0
 40
0.0
 40
0.0
 40
0.2499824037
 40
1.0
 40
1.0
 40
1.0
 40
1.0
 10
80.3653767721
 20
95.0495197183
 30
0.0
 10
79.436723153
 20
95.0498102058
 30
0.0
 10
75.7218471608
 20
95.0508269453
 30
0.0
 10
72.0069710095
 20
95.0512626255
 30
0.0
 10
69.2207485441
 20
95.0512626255
 30
0.0
  0
SPLINE
  5
3CC
100
AcDbEntity
  8
RACCORDO
100
AcDbSpline
 62
250
  6
CONTINUOUS
 70
0
 71
3
 72
9
 73
5
 74
0
 42
0.0000001
 43
0.0000001
 44
0.0000000001
 40
0.0
 40
0.0
 40
0.0
 40
0.0
 40
0.7500175963
 40
1.0
 40
1.0
 40
1.0
 40
1.0
 10
69.2207485441
 20
95.0512626255
 30
0.0
 10
66.4345260788
 20
95.0512626255
 30
0.0
 10
62.7196499275
 20
95.0508269453
 30
0.0
 10
59.0047739353
 20
95.0498102058
 30
0.0
 10
58.0761203162
 20
95.0495197183
 30
0.0
  0
SPLINE
  5
3CD
100
AcDbEntity
  8
RACCORDO
100
AcDbSpline
 62
250
  6
CONTINUOUS
 70
0
 71
3
 72
9
 73
5
 74
0
 42
0.0000001
 43
0.0000001
 44
0.0000000001
 40
0.0
 40
0.0
 40
0.0
 40
0.0
 40
0.2500731269
 40
1.0
 40
1.0
 40
1.0
 40
1.0
 10
58.0761203162
 20
95.0495197183
 30
0.0
 10
57.1679849855
 20
95.049235649
 30
0.0
 10
53.5365059527
 20
95.0479607675
 30
0.0
 10
49.9050270983
 20
95.0459475209
 30
0.0
 10
47.1816841256
 20
95.0437121033
 30
0.0
  0
SPLINE
  5
3CE
100
AcDbEntity
  8
RACCORDO
100
AcDbSpline
 62
250
  6
CONTINUOUS
 70
0
 71
3
 72
9
 73
5
 74
0
 42
0.0000001
 43
0.0000001
 44
0.0000000001
 40
0.0
 40
0.0
 40
0.0
 40
0.0
 40
0.2498453269
 40
1.0
 40
1.0
 40
1.0
 40
1.0
 10
91.7598424677
 20
50.4655537612
 30
0.0
 10
91.761591175
 20
52.3010143466
 30
0.0
 10
91.7671971129
 20
59.647403151
 30
0.0
 10
91.769054292
 20
66.9937944248
 30
0.0
 10
91.7690542853
 20
72.5047238372
 30
0.0
  0
SPLINE
  5
3CF
100
AcDbEntity
  8
RACCORDO
100
AcDbSpline
 62
250
  6
CONTINUOUS
 70
0
 71
3
 72
9
 73
5
 74
0
 42
0.0000001
 43
0.0000001
 44
0.0000000001
 40
0.0
 40
0.0
 40
0.0
 40
0.0
 40
0.2500953476
 40
1.0
 40
1.0
 40
1.0
 40
1.0
 10
91.7690542853
 20
72.5047238372
 30
0.0
 10
91.7690542875
 20
74.3420219963
 30
0.0
 10
91.768310071
 20
81.6884126913
 30
0.0
 10
91.7650911693
 20
89.0348037783
 30
0.0
 10
91.7598424677
 20
94.5438939132
 30
0.0
  0
SPLINE
  5
3D0
100
AcDbEntity
  8
0
100
AcDbSpline
 62
7
  6
CONTINUOUS
 70
0
 71
3
 72
9
 73
5
 74
0
 42
0.0000001
 43
0.0000001
 44
0.0000000001
 40
0.0
 40
0.0
 40
0.0
 40
0.0
 40
0.5
 40
1.0
 40
1.0
 40
1.0
 40
1.0
 10
152.4579090031
 20
72.5047238372
 30
0.0
 10
152.4579090031
 20
68.7772350083
 30
0.0
 10
152.3751932477
 20
61.3163531116
 30
0.0
 10
152.1180545098
 20
53.8836199914
 30
0.0
 10
151.9096616559
 20
50.1847238372
 30
0.0
  0
SPLINE
  5
3D1
100
AcDbEntity
  8
0
100
AcDbSpline
 62
7
  6
CONTINUOUS
 70
0
 71
3
 72
9
 73
5
 74
0
 42
0.0000001
 43
0.0000001
 44
0.0000000001
 40
0.0
 40
0.0
 40
0.0
 40
0.0
 40
0.5
 40
1.0
 40
1.0
 40
1.0
 40
1.0
 10
152.4579090031
 20
72.5047238372
 30
0.0
 10
152.4579090031
 20
76.2322126661
 30
0.0
 10
152.3751932477
 20
83.6930945628
 30
0.0
 10
152.1180545098
 20
91.125827683
 30
0.0
 10
151.9096616559
 20
94.8247238372
 30
0.0
  0
SPLINE
  5
3D2
100
AcDbEntity
  8
SUPERFICI
100
AcDbSpline
 62
7
  6
CONTINUOUS
 70
0
 71
3
 72
12
 73
8
 74
0
 42
0.0000001
 43
0.0000001
 44
0.0000000001
 40
0.0
 40
0.0
 40
0.0
 40
0.0
 40
0.3336892527
 40
0.6155312724
 40
0.8388439017
 40
0.9270540482
 40
1.0
 40
1.0
 40
1.0
 40
1.0
 10
150.2439135058
 20
114.1070209747
 30
0.0
 10
150.2439192509
 20
114.2482465216
 30
0.0
 10
150.2476894024
 20
114.508813186
 30
0.0
 10
150.2678741228
 20
114.8633231887
 30
0.0
 10
150.2966597839
 20
115.1131597894
 30
0.0
 10
150.3289268455
 20
115.2727308383
 30
0.0
 10
150.3476850444
 20
115.3384508507
 30
0.0
 10
150.3580866273
 20
115.367518363
 30
0.0
  0
SPLINE
  5
3D3
100
AcDbEntity
  8
SUPERFICI
100
AcDbSpline
 62
7
  6
CONTINUOUS
 70
0
 71
3
 72
11
 73
7
 74
0
 42
0.0000001
 43
0.0000001
 44
0.0000000001
 40
0.0
 40
0.0
 40
0.0
 40
0.0
 40
0.3437207549
 40
0.6144082575
 40
0.8237916007
 40
1.0
 40
1.0
 40
1.0
 40
1.0
 10
150.3580866273
 20
115.367518363
 30
0.0
 10
150.3653962426
 20
115.3879452859
 30
0.0
 10
150.3801636581
 20
115.423945735
 30
0.0
 10
150.4074454986
 20
115.4685414208
 30
0.0
 10
150.4382244977
 20
115.4976050453
 30
0.0
 10
150.4628216421
 20
115.5047238372
 30
0.0
 10
150.4739437774
 20
115.5047238372
 30
0.0
  0
SPLINE
  5
3D4
100
AcDbEntity
  8
0
100
AcDbSpline
 62
7
  6
CONTINUOUS
 70
0
 71
3
 72
12
 73
8
 74
0
 42
0.0000001
 43
0.0000001
 44
0.0000000001
 40
0.0
 40
0.0
 40
0.0
 40
0.0
 40
0.3336892527
 40
0.6155312724
 40
0.8388439017
 40
0.9270540482
 40
1.0
 40
1.0
 40
1.0
 40
1.0
 10
150.2439135058
 20
30.9024266997
 30
0.0
 10
150.2439192509
 20
30.7612011528
 30
0.0
 10
150.2476894024
 20
30.5006344884
 30
0.0
 10
150.2678741228
 20
30.1461244857
 30
0.0
 10
150.2966597839
 20
29.896287885
 30
0.0
 10
150.3289268455
 20
29.7367168361
 30
0.0
 10
150.3476850444
 20
29.6709968237
 30
0.0
 10
150.3580866273
 20
29.6419293114
 30
0.0
  0
SPLINE
  5
3D5
100
AcDbEntity
  8
0
100
AcDbSpline
 62
7
  6
CONTINUOUS
 70
0
 71
3
 72
11
 73
7
 74
0
 42
0.0000001
 43
0.0000001
 44
0.0000000001
 40
0.0
 40
0.0
 40
0.0
 40
0.0
 40
0.3437207549
 40
0.6144082575
 40
0.8237916007
 40
1.0
 40
1.0
 40
1.0
 40
1.0
 10
150.3580866273
 20
29.6419293114
 30
0.0
 10
150.3653962426
 20
29.6215023885
 30
0.0
 10
150.3801636581
 20
29.5855019394
 30
0.0
 10
150.4074454986
 20
29.5409062536
 30
0.0
 10
150.4382244977
 20
29.5118426291
 30
0.0
 10
150.4628216421
 20
29.5047238372
 30
0.0
 10
150.4739437774
 20
29.5047238372
 30
0.0
  0
SPLINE
  5
3D6
100
AcDbEntity
  8
0
100
AcDbSpline
 62
7
  6
CONTINUOUS
 70
0
 71
3
 72
11
 73
7
 74
0
 42
0.0000001
 43
0.0000001
 44
0.0000000001
 40
0.0
 40
0.0
 40
0.0
 40
0.0
 40
0.3834300166
 40
0.6868459928
 40
0.8968323226
 40
1.0
 40
1.0
 40
1.0
 40
1.0
 10
157.531792584
 20
46.774306849
 30
0.0
 10
157.5318861909
 20
46.7780255084
 30
0.0
 10
157.5320053121
 20
46.7846766558
 30
0.0
 10
157.532156444
 20
46.7934140255
 30
0.0
 10
157.5318852491
 20
46.7993193542
 30
0.0
 10
157.5318858081
 20
46.8024557658
 30
0.0
 10
157.5315021268
 20
46.803380183
 30
0.0
  0
SPLINE
  5
3D7
100
AcDbEntity
  8
RACCORDO
100
AcDbSpline
 62
250
  6
CONTINUOUS
 70
0
 71
3
 72
9
 73
5
 74
0
 42
0.0000001
 43
0.0000001
 44
0.0000000001
 40
0.0
 40
0.0
 40
0.0
 40
0.0
 40
0.500005265
 40
1.0
 40
1.0
 40
1.0
 40
1.0
 10
157.743298949
 20
72.3108465267
 30
0.0
 10
157.7419170354
 20
68.6907625608
 30
0.0
 10
157.6614744292
 20
61.4507001325
 30
0.0
 10
157.4185063633
 20
54.2132791117
 30
0.0
 10
157.2232552445
 20
50.5985405511
 30
0.0
  0
LINE
  5
3D8
100
AcDbEntity
  8
RACCORDO
100
AcDbLine
 62
250
  6
CONTINUOUS
 10
157.1974598962
 20
50.0144367692
 30
0.0
 11
157.197230104
 21
50.0047238372
 31
0.0
  0
SPLINE
  5
3D9
100
AcDbEntity
  8
RACCORDO
100
AcDbSpline
 62
250
  6
CONTINUOUS
 70
0
 71
3
 72
9
 73
5
 74
0
 42
0.0000001
 43
0.0000001
 44
0.0000000001
 40
0.0
 40
0.0
 40
0.0
 40
0.0
 40
0.4999721109
 40
1.0
 40
1.0
 40
1.0
 40
1.0
 10
155.2225250392
 20
50.1706012391
 30
0.0
 10
155.4295979465
 20
53.8884107017
 30
0.0
 10
155.6845077874
 20
61.3331864178
 30
0.0
 10
155.7665467754
 20
68.7807367007
 30
0.0
 10
155.7665467754
 20
72.5047238372
 30
0.0
  0
LINE
  5
3DA
100
AcDbEntity
  8
RACCORDO
100
AcDbLine
 62
250
  6
CONTINUOUS
 10
150.4739437774
 20
115.5047238372
 30
0.0
 11
153.5417078694
 21
115.0738534144
 31
0.0
  0
SPLINE
  5
3DB
100
AcDbEntity
  8
RACCORDO
100
AcDbSpline
 62
250
  6
CONTINUOUS
 70
0
 71
3
 72
8
 73
4
 74
0
 42
0.0000001
 43
0.0000001
 44
0.0000000001
 40
0.0
 40
0.0
 40
0.0
 40
0.0
 40
1.0
 40
1.0
 40
1.0
 40
1.0
 10
150.4035437283
 20
111.5053254443
 30
0.0
 10
151.4289003409
 20
111.5012735786
 30
0.0
 10
152.45425449
 20
111.4965932257
 30
0.0
 10
153.4796070903
 20
111.4916287832
 30
0.0
  0
SPLINE
  5
3DC
100
AcDbEntity
  8
SUPERFICI
100
AcDbSpline
 62
7
  6
CONTINUOUS
 70
0
 71
3
 72
11
 73
7
 74
0
 42
0.0000001
 43
0.0000001
 44
0.0000000001
 40
0.0
 40
0.0
 40
0.0
 40
0.0
 40
0.2720143348
 40
0.5347303845
 40
0.7792195703
 40
1.0
 40
1.0
 40
1.0
 40
1.0
 10
150.4035437283
 20
111.5053254443
 30
0.0
 10
150.3777442418
 20
111.7403586604
 30
0.0
 10
150.3325366068
 20
112.2030120809
 30
0.0
 10
150.2823883049
 20
112.8785477513
 30
0.0
 10
150.2518941048
 20
113.5106718761
 30
0.0
 10
150.2439056987
 20
113.9151104154
 30
0.0
 10
150.2439135058
 20
114.1070209747
 30
0.0
  0
SPLINE
  5
3DD
100
AcDbEntity
  8
RACCORDO
100
AcDbSpline
 62
250
  6
CONTINUOUS
 70
0
 71
3
 72
22
 73
18
 74
0
 42
0.0000001
 43
0.0000001
 44
0.0000000001
 40
0.0
 40
0.0
 40
0.0
 40
0.0
 40
0.1923855068
 40
0.3774971943
 40
0.5480494436
 40
0.6257884268
 40
0.6974446386
 40
0.7623705741
 40
0.8199383259
 40
0.8697137576
 40
0.9113400225
 40
0.9445556658
 40
0.9695586039
 40
0.9791929604
 40
0.9871553283
 40
0.9938639521
 40
1.0
 40
1.0
 40
1.0
 40
1.0
 10
153.4796070903
 20
111.4916287832
 30
0.0
 10
153.4531699388
 20
111.7239700873
 30
0.0
 10
153.4071272613
 20
112.1805558213
 30
0.0
 10
153.3576772022
 20
112.8449356242
 30
0.0
 10
153.3342548167
 20
113.371317611
 30
0.0
 10
153.327889405
 20
113.760178243
 30
0.0
 10
153.3292522935
 20
114.0207017415
 30
0.0
 10
153.3364317342
 20
114.2566058729
 30
0.0
 10
153.3493601126
 20
114.4656453389
 30
0.0
 10
153.3678215907
 20
114.6458161563
 30
0.0
 10
153.3912940117
 20
114.7956056036
 30
0.0
 10
153.4197588616
 20
114.9136594687
 30
0.0
 10
153.4490343031
 20
114.9913718868
 30
0.0
 10
153.4764130095
 20
115.0355434376
 30
0.0
 10
153.4965055817
 20
115.0575313314
 30
0.0
 10
153.5183370873
 20
115.0711434482
 30
0.0
 10
153.5341597766
 20
115.0740012524
 30
0.0
 10
153.5416167915
 20
115.0738662065
 30
0.0
  0
LINE
  5
3DE
100
AcDbEntity
  8
RACCORDO
100
AcDbLine
 62
250
  6
CONTINUOUS
 10
153.5260944436
 20
111.1135238372
 30
0.0
 11
153.479673511
 21
111.4916284736
 31
0.0
  0
SPLINE
  5
3DF
100
AcDbEntity
  8
RACCORDO
100
AcDbSpline
 62
250
  6
CONTINUOUS
 70
0
 71
3
 72
9
 73
5
 74
0
 42
0.0000001
 43
0.0000001
 44
0.0000000001
 40
0.0
 40
0.0
 40
0.0
 40
0.0
 40
0.5000054029
 40
1.0
 40
1.0
 40
1.0
 40
1.0
 10
155.5119453481
 20
72.5047238372
 30
0.0
 10
155.5119437471
 20
76.2261877349
 30
0.0
 10
155.4300260753
 20
83.6690270429
 30
0.0
 10
155.1753526005
 20
91.1090945576
 30
0.0
 10
154.9684855062
 20
94.8247238372
 30
0.0
  0
LINE
  5
3E0
100
AcDbEntity
  8
RACCORDO
100
AcDbLine
 62
250
  6
CONTINUOUS
 10
154.9684855062
 20
94.8247238372
 30
0.0
 11
154.9592067036
 21
94.9904352892
 31
0.0
  0
SPLINE
  5
3E1
100
AcDbEntity
  8
RACCORDO
100
AcDbSpline
 62
250
  6
CONTINUOUS
 70
0
 71
3
 72
9
 73
5
 74
0
 42
0.0000001
 43
0.0000001
 44
0.0000000001
 40
0.0
 40
0.0
 40
0.0
 40
0.0
 40
0.5000000059
 40
1.0
 40
1.0
 40
1.0
 40
1.0
 10
148.2879020412
 20
72.5047238372
 30
0.0
 10
148.2879020396
 20
76.2539125707
 30
0.0
 10
148.2871333085
 20
83.7522899022
 30
0.0
 10
148.2846301541
 20
91.2506671675
 30
0.0
 10
148.2821401762
 20
94.9998549863
 30
0.0
  0
SPLINE
  5
3E2
100
AcDbEntity
  8
RACCORDO
100
AcDbSpline
 62
250
  6
CONTINUOUS
 70
0
 71
3
 72
11
 73
7
 74
0
 42
0.0000001
 43
0.0000001
 44
0.0000000001
 40
0.0
 40
0.0
 40
0.0
 40
0.0
 40
0.2500000176
 40
0.5000000188
 40
0.7500000214
 40
1.0
 40
1.0
 40
1.0
 40
1.0
 10
148.2821401762
 20
94.9998549863
 30
0.0
 10
148.2812446212
 20
96.3478319861
 30
0.0
 10
148.2788448785
 20
99.0437855218
 30
0.0
 10
148.2730758858
 20
103.0877134738
 30
0.0
 10
148.2659794102
 20
107.1316380189
 30
0.0
 10
148.2614818856
 20
109.8275904311
 30
0.0
 10
148.2569376789
 20
111.1755598583
 30
0.0
  0
SPLINE
  5
3E3
100
AcDbEntity
  8
RACCORDO
100
AcDbSpline
 62
250
  6
CONTINUOUS
 70
0
 71
3
 72
29
 73
25
 74
0
 42
0.0000001
 43
0.0000001
 44
0.0000000001
 40
0.0
 40
0.0
 40
0.0
 40
0.0
 40
0.1947298249
 40
0.3820462293
 40
0.4706637521
 40
0.5547706354
 40
0.6335542599
 40
0.7062519833
 40
0.7721611223
 40
0.8306482402
 40
0.8811543457
 40
0.9032594811
 40
0.9231929134
 40
0.9409067197
 40
0.9563608493
 40
0.9695223921
 40
0.9803627015
 40
0.9888537305
 40
0.9922089223
 40
0.9949659994
 40
0.9971226654
 40
0.9986773344
 40
0.9996329667
 40
1.0
 40
1.0
 40
1.0
 40
1.0
 10
148.2557707744
 20
111.5047935277
 30
0.0
 10
148.2551201204
 20
111.6796028068
 30
0.0
 10
148.2539434255
 20
112.0225666928
 30
0.0
 10
148.2526925433
 20
112.4450834244
 30
0.0
 10
148.2519965599
 20
112.768294157
 30
0.0
 10
148.2516782078
 20
112.9940746825
 30
0.0
 10
148.2515280236
 20
113.2055640508
 30
0.0
 10
148.2515709619
 20
113.4007172301
 30
0.0
 10
148.2518328411
 20
113.5776499011
 30
0.0
 10
148.25227418
 20
113.7346605429
 30
0.0
 10
148.2527698592
 20
113.8523475848
 30
0.0
 10
148.2532588495
 20
113.9354242603
 30
0.0
 10
148.253643043
 20
113.9890630332
 30
0.0
 10
148.2540563094
 20
114.0367309119
 30
0.0
 10
148.2544924395
 20
114.0783185803
 30
0.0
 10
148.2549437011
 20
114.1137368868
 30
0.0
 10
148.2554117305
 20
114.1428989856
 30
0.0
 10
148.2558219603
 20
114.1632684813
 30
0.0
 10
148.2561860463
 20
114.1763613887
 30
0.0
 10
148.2564082024
 20
114.1838056055
 30
0.0
 10
148.2567092624
 20
114.1895420621
 30
0.0
 10
148.2568157584
 20
114.1938749281
 30
0.0
 10
148.2572812436
 20
114.1961758853
 30
0.0
 10
148.2572005024
 20
114.197657131
 30
0.0
 10
148.2574868263
 20
114.1978201691
 30
0.0
  0
SPLINE
  5
3E4
100
AcDbEntity
  8
RACCORDO
100
AcDbSpline
 62
250
  6
CONTINUOUS
 70
0
 71
3
 72
13
 73
9
 74
0
 42
0.0000001
 43
0.0000001
 44
0.0000000001
 40
0.0
 40
0.0
 40
0.0
 40
0.0
 40
0.0242492843
 40
0.0747929454
 40
0.155337908
 40
0.266184851
 40
0.5768526174
 40
1.0
 40
1.0
 40
1.0
 40
1.0
 10
157.2090857504
 20
95.3609498083
 30
0.0
 10
157.2078134849
 20
95.3609265994
 30
0.0
 10
157.205104217
 20
95.3569567775
 30
0.0
 10
157.2033208453
 20
95.3495098835
 30
0.0
 10
157.2010336579
 20
95.3367486503
 30
0.0
 10
157.1984476276
 20
95.310666227
 30
0.0
 10
157.1961995444
 20
95.2662750894
 30
0.0
 10
157.1955110435
 20
95.2278094147
 30
0.0
 10
157.1953010382
 20
95.2056058186
 30
0.0
  0
SPLINE
  5
3E5
100
AcDbEntity
  8
RACCORDO
100
AcDbSpline
 62
250
  6
CONTINUOUS
 70
0
 71
3
 72
9
 73
5
 74
0
 42
0.0000001
 43
0.0000001
 44
0.0000000001
 40
0.0
 40
0.0
 40
0.0
 40
0.0
 40
0.2281805906
 40
1.0
 40
1.0
 40
1.0
 40
1.0
 10
157.1953010382
 20
95.2056058186
 30
0.0
 10
157.1952211676
 20
95.1971611993
 30
0.0
 10
157.1950040684
 20
95.1601514541
 30
0.0
 10
157.195250063
 20
95.1231400239
 30
0.0
 10
157.1956051076
 20
95.094577081
 30
0.0
  0
LINE
  5
3E6
100
AcDbEntity
  8
RACCORDO
100
AcDbLine
 62
250
  6
CONTINUOUS
 10
153.778556121
 20
111.1441866557
 30
0.0
 11
153.7320469897
 21
111.5235487836
 31
0.0
  0
SPLINE
  5
3E7
100
AcDbEntity
  8
RACCORDO
100
AcDbSpline
 62
250
  6
CONTINUOUS
 70
0
 71
3
 72
22
 73
18
 74
0
 42
0.0000001
 43
0.0000001
 44
0.0000000001
 40
0.0
 40
0.0
 40
0.0
 40
0.0
 40
0.1921125809
 40
0.3769911649
 40
0.5473106666
 40
0.6249262011
 40
0.6964486798
 40
0.7612357979
 40
0.8186634867
 40
0.8683165789
 40
0.9098607577
 40
0.9430695012
 40
0.9682191222
 40
0.978028521
 40
0.9862649778
 40
0.9933664769
 40
1.0
 40
1.0
 40
1.0
 40
1.0
 10
153.7320469897
 20
111.5235487836
 30
0.0
 10
153.7055897812
 20
111.7371953856
 30
0.0
 10
153.6594575157
 20
112.1571869871
 30
0.0
 10
153.609966145
 20
112.7685776902
 30
0.0
 10
153.5865211088
 20
113.2531357234
 30
0.0
 10
153.5801569958
 20
113.6110841859
 30
0.0
 10
153.5815446991
 20
113.8508277892
 30
0.0
 10
153.5887491355
 20
114.0678387479
 30
0.0
 10
153.6017443665
 20
114.2600457217
 30
0.0
 10
153.6202318609
 20
114.4256140365
 30
0.0
 10
153.6437911485
 20
114.5631776216
 30
0.0
 10
153.6723791765
 20
114.6715112235
 30
0.0
 10
153.7017833536
 20
114.7426644588
 30
0.0
 10
153.7291675483
 20
114.7828168698
 30
0.0
 10
153.7493925477
 20
114.8027918957
 30
0.0
 10
153.7712702868
 20
114.8149291723
 30
0.0
 10
153.7868770902
 20
114.8172947759
 30
0.0
 10
153.7943076423
 20
114.8170879836
 30
0.0
  0
SPLINE
  5
3E8
100
AcDbEntity
  8
RACCORDO
100
AcDbSpline
 62
250
  6
CONTINUOUS
 70
0
 71
3
 72
9
 73
5
 74
0
 42
0.0000001
 43
0.0000001
 44
0.0000000001
 40
0.0
 40
0.0
 40
0.0
 40
0.0
 40
0.5000278891
 40
1.0
 40
1.0
 40
1.0
 40
1.0
 10
155.7665425961
 20
72.5047238372
 30
0.0
 10
155.7665425961
 20
76.2287109349
 30
0.0
 10
155.6845036096
 20
83.6762611404
 30
0.0
 10
155.4295937746
 20
91.1210367791
 30
0.0
 10
155.2225208728
 20
94.8388462033
 30
0.0
  0
SPLINE
  5
3E9
100
AcDbEntity
  8
RACCORDO
100
AcDbSpline
 62
250
  6
CONTINUOUS
 70
0
 71
3
 72
9
 73
5
 74
0
 42
0.0000001
 43
0.0000001
 44
0.0000000001
 40
0.0
 40
0.0
 40
0.0
 40
0.0
 40
0.4999947313
 40
1.0
 40
1.0
 40
1.0
 40
1.0
 10
157.2232137517
 20
94.4116752766
 30
0.0
 10
157.4184998338
 20
90.7964840252
 30
0.0
 10
157.6614976983
 20
83.5581550376
 30
0.0
 10
157.7419315473
 20
76.3171844312
 30
0.0
 10
157.7432996915
 20
72.6966464791
 30
0.0
  0
LINE
  5
3EA
100
AcDbEntity
  8
RACCORDO
100
AcDbLine
 62
250
  6
CONTINUOUS
 10
150.4739437774
 20
29.5047238372
 30
0.0
 11
153.5417078694
 21
29.93559426
 31
0.0
  0
SPLINE
  5
3EB
100
AcDbEntity
  8
RACCORDO
100
AcDbSpline
 62
250
  6
CONTINUOUS
 70
0
 71
3
 72
8
 73
4
 74
0
 42
0.0000001
 43
0.0000001
 44
0.0000000001
 40
0.0
 40
0.0
 40
0.0
 40
0.0
 40
1.0
 40
1.0
 40
1.0
 40
1.0
 10
150.4035437283
 20
33.5041222301
 30
0.0
 10
151.4289003444
 20
33.508174096
 30
0.0
 10
152.454254497
 20
33.5128544486
 30
0.0
 10
153.4796071008
 20
33.5178188913
 30
0.0
  0
SPLINE
  5
3EC
100
AcDbEntity
  8
RACCORDO
100
AcDbSpline
 62
250
  6
CONTINUOUS
 70
0
 71
3
 72
22
 73
18
 74
0
 42
0.0000001
 43
0.0000001
 44
0.0000000001
 40
0.0
 40
0.0
 40
0.0
 40
0.0
 40
0.0061354262
 40
0.0128426438
 40
0.020804851
 40
0.0304399893
 40
0.0554415425
 40
0.0886539919
 40
0.130277803
 40
0.1800517483
 40
0.2376179334
 40
0.3025422706
 40
0.3741972191
 40
0.4519354483
 40
0.6224890482
 40
0.8076021892
 40
1.0
 40
1.0
 40
1.0
 40
1.0
 10
153.5416167915
 20
29.9355814679
 30
0.0
 10
153.53416054
 20
29.9354459515
 30
0.0
 10
153.5183404467
 20
29.938303622
 30
0.0
 10
153.4965095824
 20
29.9519106842
 30
0.0
 10
153.4764144442
 20
29.97389584
 30
0.0
 10
153.4490454013
 20
30.0180724057
 30
0.0
 10
153.4197601203
 20
30.0957743066
 30
0.0
 10
153.3912988841
 20
30.2138217264
 30
0.0
 10
153.367825356
 20
30.3636016114
 30
0.0
 10
153.3493642999
 20
30.5437659931
 30
0.0
 10
153.3364330143
 20
30.7527995492
 30
0.0
 10
153.3292536469
 20
30.988698372
 30
0.0
 10
153.3278888247
 20
31.2492174697
 30
0.0
 10
153.3342528067
 20
31.6380773802
 30
0.0
 10
153.3576746924
 20
32.1644619174
 30
0.0
 10
153.4071223141
 20
32.8288604236
 30
0.0
 10
153.4531691375
 20
33.285462602
 30
0.0
 10
153.4796071008
 20
33.5178188913
 30
0.0
  0
SPLINE
  5
3ED
100
AcDbEntity
  8
0
100
AcDbSpline
 62
7
  6
CONTINUOUS
 70
0
 71
3
 72
11
 73
7
 74
0
 42
0.0000001
 43
0.0000001
 44
0.0000000001
 40
0.0
 40
0.0
 40
0.0
 40
0.0
 40
0.2720143348
 40
0.5347303845
 40
0.7792195703
 40
1.0
 40
1.0
 40
1.0
 40
1.0
 10
150.4035437283
 20
33.5041222301
 30
0.0
 10
150.3777442418
 20
33.269089014
 30
0.0
 10
150.3325366068
 20
32.8064355935
 30
0.0
 10
150.2823883049
 20
32.1308999231
 30
0.0
 10
150.2518941048
 20
31.4987757983
 30
0.0
 10
150.2439056987
 20
31.094337259
 30
0.0
 10
150.2439135058
 20
30.9024266997
 30
0.0
  0
SPLINE
  5
3EE
100
AcDbEntity
  8
RACCORDO
100
AcDbSpline
 62
250
  6
CONTINUOUS
 70
0
 71
3
 72
29
 73
25
 74
0
 42
0.0000001
 43
0.0000001
 44
0.0000000001
 40
0.0
 40
0.0
 40
0.0
 40
0.0
 40
0.0003666125
 40
0.0013220039
 40
0.002877106
 40
0.0050334113
 40
0.0077903024
 40
0.0111454983
 40
0.0196363503
 40
0.0304770077
 40
0.043638888
 40
0.059093911
 40
0.0768088348
 40
0.0967441102
 40
0.1188515621
 40
0.1693637166
 40
0.2278575259
 40
0.2937712236
 40
0.3664694597
 40
0.4452485665
 40
0.5293464185
 40
0.6179545212
 40
0.8052585252
 40
1.0
 40
1.0
 40
1.0
 40
1.0
 10
148.2574868254
 20
30.8116274887
 30
0.0
 10
148.2572006833
 20
30.8117900825
 30
0.0
 10
148.2572810825
 20
30.8132709548
 30
0.0
 10
148.256815777
 20
30.8155713203
 30
0.0
 10
148.2567093326
 20
30.8199043093
 30
0.0
 10
148.2564083141
 20
30.8256405623
 30
0.0
 10
148.256186073
 20
30.8330843285
 30
0.0
 10
148.2558219802
 20
30.8461768942
 30
0.0
 10
148.2554118278
 20
30.8665465618
 30
0.0
 10
148.2549436678
 20
30.8957091099
 30
0.0
 10
148.2544924916
 20
30.9311288379
 30
0.0
 10
148.2540562271
 20
30.972718613
 30
0.0
 10
148.2536429302
 20
31.0203899528
 30
0.0
 10
148.2532589903
 20
31.0740334658
 30
0.0
 10
148.2527697422
 20
31.1571193057
 30
0.0
 10
148.2522743022
 20
31.2748198674
 30
0.0
 10
148.2518317722
 20
31.4318460391
 30
0.0
 10
148.2515722059
 20
31.6087892764
 30
0.0
 10
148.2515271501
 20
31.8039429552
 30
0.0
 10
148.2516790526
 20
32.0154206243
 30
0.0
 10
148.2519961061
 20
32.2411805358
 30
0.0
 10
148.2526928615
 20
32.5643635775
 30
0.0
 10
148.253943311
 20
32.9868711875
 30
0.0
 10
148.2551202035
 20
33.3298344057
 30
0.0
 10
148.2557707744
 20
33.5046541467
 30
0.0
  0
LINE
  5
3EF
100
AcDbEntity
  8
RACCORDO
100
AcDbLine
 62
250
  6
CONTINUOUS
 10
153.4796735114
 20
33.5178192009
 30
0.0
 11
153.5260944436
 21
33.8959238372
 31
0.0
  0
SPLINE
  5
3F0
100
AcDbEntity
  8
RACCORDO
100
AcDbSpline
 62
250
  6
CONTINUOUS
 70
0
 71
3
 72
9
 73
5
 74
0
 42
0.0000001
 43
0.0000001
 44
0.0000000001
 40
0.0
 40
0.0
 40
0.0
 40
0.0
 40
0.4999942585
 40
1.0
 40
1.0
 40
1.0
 40
1.0
 10
154.9684855062
 20
50.1847238372
 30
0.0
 10
155.1753481458
 20
53.9003507955
 30
0.0
 10
155.4300054498
 20
61.340418498
 30
0.0
 10
155.5119475303
 20
68.7832574654
 30
0.0
 10
155.5119453481
 20
72.5047238372
 30
0.0
  0
LINE
  5
3F1
100
AcDbEntity
  8
RACCORDO
100
AcDbLine
 62
250
  6
CONTINUOUS
 10
154.9592067036
 20
50.0190123852
 30
0.0
 11
154.9684855062
 21
50.1847238372
 31
0.0
  0
SPLINE
  5
3F2
100
AcDbEntity
  8
RACCORDO
100
AcDbSpline
 62
250
  6
CONTINUOUS
 70
0
 71
3
 72
9
 73
5
 74
0
 42
0.0000001
 43
0.0000001
 44
0.0000000001
 40
0.0
 40
0.0
 40
0.0
 40
0.0
 40
0.4999999941
 40
1.0
 40
1.0
 40
1.0
 40
1.0
 10
148.2821401762
 20
50.0095926881
 30
0.0
 10
148.2846301548
 20
53.758780507
 30
0.0
 10
148.2871332994
 20
61.2571577723
 30
0.0
 10
148.2879020412
 20
68.7555351037
 30
0.0
 10
148.2879020412
 20
72.5047238372
 30
0.0
  0
SPLINE
  5
3F3
100
AcDbEntity
  8
RACCORDO
100
AcDbSpline
 62
250
  6
CONTINUOUS
 70
0
 71
3
 72
11
 73
7
 74
0
 42
0.0000001
 43
0.0000001
 44
0.0000000001
 40
0.0
 40
0.0
 40
0.0
 40
0.0
 40
0.2499999788
 40
0.4999999814
 40
0.7499999825
 40
1.0
 40
1.0
 40
1.0
 40
1.0
 10
148.2569376789
 20
33.8338878161
 30
0.0
 10
148.2614818203
 20
35.1818572448
 30
0.0
 10
148.2659794138
 20
37.8778096576
 30
0.0
 10
148.2730758842
 20
41.9217342033
 30
0.0
 10
148.2788448783
 20
45.9656621538
 30
0.0
 10
148.2812446213
 20
48.6616156887
 30
0.0
 10
148.2821401762
 20
50.0095926881
 30
0.0
  0
SPLINE
  5
3F4
100
AcDbEntity
  8
RACCORDO
100
AcDbSpline
 62
250
  6
CONTINUOUS
 70
0
 71
3
 72
8
 73
4
 74
0
 42
0.0000001
 43
0.0000001
 44
0.0000000001
 40
0.0
 40
0.0
 40
0.0
 40
0.0
 40
1.0
 40
1.0
 40
1.0
 40
1.0
 10
155.3969374928
 20
29.9318925887
 30
0.0
 10
155.4393541675
 20
29.9378557913
 30
0.0
 10
155.48137663
 20
29.9534549431
 30
0.0
 10
155.5174001728
 20
29.9766290331
 30
0.0
  0
SPLINE
  5
3F5
100
AcDbEntity
  8
RACCORDO
100
AcDbSpline
 62
250
  6
CONTINUOUS
 70
0
 71
3
 72
11
 73
7
 74
0
 42
0.0000001
 43
0.0000001
 44
0.0000000001
 40
0.0
 40
0.0
 40
0.0
 40
0.0
 40
0.2490388533
 40
0.4986730222
 40
0.749045394
 40
1.0
 40
1.0
 40
1.0
 40
1.0
 10
153.6006813254
 20
29.9358845501
 30
0.0
 10
153.6323254619
 20
29.9404166129
 30
0.0
 10
153.6946627346
 20
29.9600565626
 30
0.0
 10
153.7735639465
 20
30.0178376159
 30
0.0
 10
153.830207497
 20
30.0978419208
 30
0.0
 10
153.8491848309
 20
30.1607023171
 30
0.0
 10
153.8534721821
 20
30.1926286703
 30
0.0
  0
SPLINE
  5
3F6
100
AcDbEntity
  8
RACCORDO
100
AcDbSpline
 62
250
  6
CONTINUOUS
 70
0
 71
3
 72
11
 73
7
 74
0
 42
0.0000001
 43
0.0000001
 44
0.0000000001
 40
0.0
 40
0.0
 40
0.0
 40
0.0
 40
0.2490096445
 40
0.498613012
 40
0.7489881037
 40
1.0
 40
1.0
 40
1.0
 40
1.0
 10
153.5416168087
 20
29.9355814682
 30
0.0
 10
153.5732596172
 20
29.9400981892
 30
0.0
 10
153.6355989111
 20
29.9597175885
 30
0.0
 10
153.7144925228
 20
30.017504446
 30
0.0
 10
153.7711051178
 20
30.0975400332
 30
0.0
 10
153.7900437451
 20
30.160421997
 30
0.0
 10
153.7943106695
 20
30.1923587735
 30
0.0
  0
SPLINE
  5
3F7
100
AcDbEntity
  8
RACCORDO
100
AcDbSpline
 62
250
  6
CONTINUOUS
 70
0
 71
3
 72
9
 73
5
 74
0
 42
0.0000001
 43
0.0000001
 44
0.0000000001
 40
0.0
 40
0.0
 40
0.0
 40
0.0
 40
0.6625079531
 40
1.0
 40
1.0
 40
1.0
 40
1.0
 10
153.4796569769
 20
33.5176853049
 30
0.0
 10
153.5354061837
 20
33.5107652564
 30
0.0
 10
153.619527712
 20
33.5001161596
 30
0.0
 10
153.7036960322
 20
33.4897986323
 30
0.0
 10
153.7320465629
 20
33.4858989434
 30
0.0
  0
SPLINE
  5
3F8
100
AcDbEntity
  8
RACCORDO
100
AcDbSpline
 62
250
  6
CONTINUOUS
 70
0
 71
3
 72
9
 73
5
 74
0
 42
0.0000001
 43
0.0000001
 44
0.0000000001
 40
0.0
 40
0.0
 40
0.0
 40
0.0
 40
0.6624997981
 40
1.0
 40
1.0
 40
1.0
 40
1.0
 10
153.4796224166
 20
111.4914946755
 30
0.0
 10
153.5353868144
 20
111.4984099848
 30
0.0
 10
153.6195127315
 20
111.5091842142
 30
0.0
 10
153.7037215216
 20
111.5194123143
 30
0.0
 10
153.7320469897
 20
111.5235487836
 30
0.0
  0
SPLINE
  5
3F9
100
AcDbEntity
  8
RACCORDO
100
AcDbSpline
 62
250
  6
CONTINUOUS
 70
0
 71
3
 72
11
 73
7
 74
0
 42
0.0000001
 43
0.0000001
 44
0.0000000001
 40
0.0
 40
0.0
 40
0.0
 40
0.0
 40
0.2490065506
 40
0.498618898
 40
0.7489996229
 40
1.0
 40
1.0
 40
1.0
 40
1.0
 10
153.5417078689
 20
115.0738534144
 30
0.0
 10
153.5733459871
 20
115.0693278016
 30
0.0
 10
153.6356742627
 20
115.0496951598
 30
0.0
 10
153.7145560513
 20
114.9919082891
 30
0.0
 10
153.771171437
 20
114.9118875851
 30
0.0
 10
153.7901243095
 20
114.849018147
 30
0.0
 10
153.7944002272
 20
114.8170871042
 30
0.0
  0
SPLINE
  5
3FA
100
AcDbEntity
  8
RACCORDO
100
AcDbSpline
 62
250
  6
CONTINUOUS
 70
0
 71
3
 72
11
 73
7
 74
0
 42
0.0000001
 43
0.0000001
 44
0.0000000001
 40
0.0
 40
0.0
 40
0.0
 40
0.0
 40
0.2490388516
 40
0.4986730199
 40
0.7490453924
 40
1.0
 40
1.0
 40
1.0
 40
1.0
 10
153.6006813276
 20
115.0735631243
 30
0.0
 10
153.6323254637
 20
115.0690310615
 30
0.0
 10
153.6946627354
 20
115.0493911116
 30
0.0
 10
153.7735639458
 20
114.9916100582
 30
0.0
 10
153.8302074952
 20
114.9116057533
 30
0.0
 10
153.8491848286
 20
114.8487453572
 30
0.0
 10
153.8534721798
 20
114.8168190041
 30
0.0
  0
SPLINE
  5
3FB
100
AcDbEntity
  8
RACCORDO
100
AcDbSpline
 62
250
  6
CONTINUOUS
 70
0
 71
3
 72
8
 73
4
 74
0
 42
0.0000001
 43
0.0000001
 44
0.0000000001
 40
0.0
 40
0.0
 40
0.0
 40
0.0
 40
1.0
 40
1.0
 40
1.0
 40
1.0
 10
155.3969374928
 20
115.0775550857
 30
0.0
 10
155.4393541675
 20
115.0715918831
 30
0.0
 10
155.48137663
 20
115.0559927313
 30
0.0
 10
155.5174001728
 20
115.0328186413
 30
0.0
  0
SPLINE
  5
3FC
100
AcDbEntity
  8
RACCORDO
100
AcDbSpline
 62
250
  6
CONTINUOUS
 70
0
 71
3
 72
16
 73
12
 74
0
 42
0.0000001
 43
0.0000001
 44
0.0000000001
 40
0.0
 40
0.0
 40
0.0
 40
0.0
 40
0.0043277359
 40
0.0171990101
 40
0.0385176567
 40
0.0681803131
 40
0.1521133234
 40
0.2677099534
 40
0.4129905984
 40
0.5858137716
 40
1.0
 40
1.0
 40
1.0
 40
1.0
 10
148.1815147544
 20
33.5042882977
 30
0.0
 10
148.1815147544
 20
33.5043954216
 30
0.0
 10
148.1821971637
 20
33.5041996031
 30
0.0
 10
148.1829037798
 20
33.5044293648
 30
0.0
 10
148.1846226735
 20
33.5043387385
 30
0.0
 10
148.1878786352
 20
33.5044476835
 30
0.0
 10
148.1936128728
 20
33.5044401047
 30
0.0
 10
148.2021188598
 20
33.5045118239
 30
0.0
 10
148.2128649774
 20
33.5045471546
 30
0.0
 10
148.2309861776
 20
33.5046089175
 30
0.0
 10
148.2455184932
 20
33.5046371811
 30
0.0
 10
148.2557707743
 20
33.5046541283
 30
0.0
  0
SPLINE
  5
3FD
100
AcDbEntity
  8
RACCORDO
100
AcDbSpline
 62
250
  6
CONTINUOUS
 70
0
 71
3
 72
16
 73
12
 74
0
 42
0.0000001
 43
0.0000001
 44
0.0000000001
 40
0.0
 40
0.0
 40
0.0
 40
0.0
 40
0.004332592
 40
0.0172240824
 40
0.0385749686
 40
0.0682797362
 40
0.1523184087
 40
0.2680278145
 40
0.4133915911
 40
0.5862289616
 40
1.0
 40
1.0
 40
1.0
 40
1.0
 10
148.1815147543
 20
33.8335477418
 30
0.0
 10
148.1815147545
 20
33.8336566705
 30
0.0
 10
148.1822093499
 20
33.8334519058
 30
0.0
 10
148.18292776
 20
33.8336873114
 30
0.0
 10
148.1846765072
 20
33.8335907856
 30
0.0
 10
148.1879879287
 20
33.8336993976
 30
0.0
 10
148.1938189912
 20
33.8336868957
 30
0.0
 10
148.2024661308
 20
33.833755997
 30
0.0
 10
148.2133863742
 20
33.8337877282
 30
0.0
 10
148.231784256
 20
33.8338452379
 30
0.0
 10
148.2465347791
 20
33.8338710341
 30
0.0
 10
148.2569376747
 20
33.8338865455
 30
0.0
  0
SPLINE
  5
3FE
100
AcDbEntity
  8
RACCORDO
100
AcDbSpline
 62
250
  6
CONTINUOUS
 70
0
 71
3
 72
9
 73
5
 74
0
 42
0.0000001
 43
0.0000001
 44
0.0000000001
 40
0.0
 40
0.0
 40
0.0
 40
0.0
 40
0.2685459006
 40
1.0
 40
1.0
 40
1.0
 40
1.0
 10
157.195711903
 20
49.9230958325
 30
0.0
 10
157.1955852908
 20
49.9137696613
 30
0.0
 10
157.1951808905
 20
49.8790404778
 30
0.0
 10
157.1950508383
 20
49.8443073455
 30
0.0
 10
157.1951893334
 20
49.8189031468
 30
0.0
  0
SPLINE
  5
3FF
100
AcDbEntity
  8
RACCORDO
100
AcDbSpline
 62
250
  6
CONTINUOUS
 70
0
 71
3
 72
14
 73
10
 74
0
 42
0.0000001
 43
0.0000001
 44
0.0000000001
 40
0.0
 40
0.0
 40
0.0
 40
0.0
 40
0.4227356665
 40
0.5928838493
 40
0.7339311762
 40
0.8450833344
 40
0.925806689
 40
0.9762944698
 40
1.0
 40
1.0
 40
1.0
 40
1.0
 10
157.1951893334
 20
49.8189031468
 30
0.0
 10
157.195321825
 20
49.7946001686
 30
0.0
 10
157.1957923042
 20
49.7605025687
 30
0.0
 10
157.197428739
 20
49.7183606083
 30
0.0
 10
157.1989802394
 20
49.6940770281
 30
0.0
 10
157.2007104586
 20
49.6751424397
 30
0.0
 10
157.2030735321
 20
49.6610738248
 30
0.0
 10
157.2049025891
 20
49.6529789762
 30
0.0
 10
157.2077231398
 20
49.6485231867
 30
0.0
 10
157.2090857504
 20
49.6484978661
 30
0.0
  0
SPLINE
  5
400
100
AcDbEntity
  8
RACCORDO
100
AcDbSpline
 62
250
  6
CONTINUOUS
 70
0
 71
3
 72
16
 73
12
 74
0
 42
0.0000001
 43
0.0000001
 44
0.0000000001
 40
0.0
 40
0.0
 40
0.0
 40
0.0
 40
0.0043329983
 40
0.0172246118
 40
0.0385755583
 40
0.0682803549
 40
0.1523190275
 40
0.2680283805
 40
0.4133920627
 40
0.5862293038
 40
1.0
 40
1.0
 40
1.0
 40
1.0
 10
148.1815147543
 20
111.175902474
 30
0.0
 10
148.1815147543
 20
111.175793535
 30
0.0
 10
148.1822093016
 20
111.1759974021
 30
0.0
 10
148.1829277818
 20
111.1757622764
 30
0.0
 10
148.1846764945
 20
111.1758581088
 30
0.0
 10
148.1879879382
 20
111.1757491652
 30
0.0
 10
148.1938189856
 20
111.1757609138
 30
0.0
 10
148.2024661345
 20
111.1756912199
 30
0.0
 10
148.2133863766
 20
111.1756588419
 30
0.0
 10
148.2317842616
 20
111.1756005563
 30
0.0
 10
148.2465347863
 20
111.1755743453
 30
0.0
 10
148.2569376833
 20
111.1755585877
 30
0.0
  0
SPLINE
  5
401
100
AcDbEntity
  8
RACCORDO
100
AcDbSpline
 62
250
  6
CONTINUOUS
 70
0
 71
3
 72
16
 73
12
 74
0
 42
0.0000001
 43
0.0000001
 44
0.0000000001
 40
0.0
 40
0.0
 40
0.0
 40
0.0
 40
0.0043277491
 40
0.017199027
 40
0.0385176751
 40
0.068180332
 40
0.1521133417
 40
0.2677099689
 40
0.4129906108
 40
0.5858137814
 40
1.0
 40
1.0
 40
1.0
 40
1.0
 10
148.1815147544
 20
111.5051594514
 30
0.0
 10
148.1815147544
 20
111.5050523272
 30
0.0
 10
148.1821971621
 20
111.505248119
 30
0.0
 10
148.1829037804
 20
111.5050183656
 30
0.0
 10
148.184622673
 20
111.5051089712
 30
0.0
 10
148.1878786354
 20
111.5050000163
 30
0.0
 10
148.1936128724
 20
111.5050075726
 30
0.0
 10
148.2021188597
 20
111.5049358356
 30
0.0
 10
148.2128649772
 20
111.5049004856
 30
0.0
 10
148.2309861777
 20
111.5048386993
 30
0.0
 10
148.2455184934
 20
111.5048104232
 30
0.0
 10
148.2557707746
 20
111.5047934686
 30
0.0
  0
SPLINE
  5
402
100
AcDbEntity
  8
RACCORDO
100
AcDbSpline
 62
250
  6
CONTINUOUS
 70
0
 71
3
 72
22
 73
18
 74
0
 42
0.0000001
 43
0.0000001
 44
0.0000000001
 40
0.0
 40
0.0
 40
0.0
 40
0.0
 40
0.0066329337
 40
0.0137329776
 40
0.0219689515
 40
0.0317795084
 40
0.0569278422
 40
0.0901334726
 40
0.1316753322
 40
0.1813270026
 40
0.2387531687
 40
0.303538676
 40
0.3750598561
 40
0.4526746332
 40
0.6229953611
 40
0.8078752428
 40
1.0
 40
1.0
 40
1.0
 40
1.0
 10
153.7943065795
 20
30.1923596748
 30
0.0
 10
153.7868767087
 20
30.192152244
 30
0.0
 10
153.7712723952
 20
30.1945182764
 30
0.0
 10
153.749395511
 20
30.2066505507
 30
0.0
 10
153.7291711494
 20
30.2266257948
 30
0.0
 10
153.7017922399
 20
30.266780634
 30
0.0
 10
153.6723817294
 20
30.3379262969
 30
0.0
 10
153.6437947937
 20
30.4462532279
 30
0.0
 10
153.6202360432
 20
30.5838087236
 30
0.0
 10
153.6017473993
 20
30.7493710196
 30
0.0
 10
153.5887511937
 20
30.9415727156
 30
0.0
 10
153.581545633
 20
31.1585785961
 30
0.0
 10
153.5801563105
 20
31.3983179952
 30
0.0
 10
153.5865195766
 20
31.7562654236
 30
0.0
 10
153.6099633424
 20
32.2408253032
 30
0.0
 10
153.6594530663
 20
32.8522324773
 30
0.0
 10
153.7055885154
 20
33.2722387751
 30
0.0
 10
153.7320469897
 20
33.4858988908
 30
0.0
  0
LINE
  5
403
100
AcDbEntity
  8
RACCORDO
100
AcDbLine
 62
250
  6
CONTINUOUS
 10
153.7320469897
 20
33.4858988908
 30
0.0
 11
153.778556121
 21
33.8652610188
 31
0.0
  0
ELLIPSE
  5
404
100
AcDbEntity
  8
RACCORDO
100
AcDbEllipse
 62
7
  6
CONTINUOUS
 10
47.2260612276
 20
94.4994111537
 30
0.0
 11
-0.3536610946
 21
0.3536610946
 31
0.0
 40
0.9996954599
 41
-0.7852458701
 42
0.7852458701
  0
ELLIPSE
  5
405
100
AcDbEntity
  8
RACCORDO
100
AcDbEllipse
 62
7
  6
CONTINUOUS
 10
47.2260612276
 20
50.5100365207
 30
0.0
 11
-0.3536610946
 21
-0.3536610946
 31
0.0
 40
0.9996954599
 41
-0.7852458701
 42
0.7852458701
  0
ELLIPSE
  5
406
100
AcDbEntity
  8
RACCORDO
100
AcDbEllipse
 62
7
  6
CONTINUOUS
 10
91.2154358606
 20
94.4994111537
 30
0.0
 11
0.3536610946
 21
0.3536610946
 31
0.0
 40
0.9996954599
 41
-0.7852458701
 42
0.7852458701
  0
ELLIPSE
  5
407
100
AcDbEntity
  8
RACCORDO
100
AcDbEllipse
 62
7
  6
CONTINUOUS
 10
91.2154358606
 20
50.5100365207
 30
0.0
 11
-0.3536610946
 21
0.3536610946
 31
0.0
 40
0.9996954599
 41
2.3563467834
 42
3.9268385237
  0
ENDSEC
  0
SECTION
  2
OBJECTS
  0
DICTIONARY
  5
C
100
AcDbDictionary
280
0
281
1
  3
ACAD_GROUP
350
D
  3
ACAD_MLINESTYLE
350
17
  3
ACAD_LAYOUT
350
1A
  3
ACAD_PLOTSETTINGS
350
19
  3
ACAD_PLOTSTYLENAME
350
E
  0
DICTIONARY
  5
D
102
{ACAD_REACTORS
330
C
102
}
100
AcDbDictionary
280
0
281
1
  0
ACDBDICTIONARYWDFLT
  5
E
102
{ACAD_REACTORS
330
C
102
}
100
AcDbDictionary
281
1
  3
Normal
350
F
100
AcDbDictionaryWithDefault
340
F
  0
DICTIONARY
  5
17
102
{ACAD_REACTORS
330
C
102
}
100
AcDbDictionary
280
0
281
1
  3
Standard
350
18
  0
DICTIONARY
  5
19
102
{ACAD_REACTORS
330
C
102
}
100
AcDbDictionary
281
1
  0
DICTIONARY
  5
1A
102
{ACAD_REACTORS
330
C
102
}
100
AcDbDictionary
281
1
  3
Model
350
408
  3
Layout1
350
409
  0
ACDBPLACEHOLDER
  5
F
102
{ACAD_REACTORS
330
E
102
}
  0
MLINESTYLE
  5
18
102
{ACAD_REACTORS
330
17
102
}
100
AcDbMlineStyle
  2
STANDARD
 70
0
  3

 62
256
 51
90.0
 52
90.0
 71
2
 49
0.5
 62
256
  6
BYLAYER
 49
-0.5
 62
256
  6
BYLAYER
  0
LAYOUT
  5
408
102
{ACAD_REACTORS
330
1A
102
}
100
AcDbPlotSettings
  1

  2
none_device
  4
ISO_A4_(297.00_x_210.00_MM)
  6

 40
0.0
 41
0.0
 42
0.0
 43
0.0
 44
297.0
 45
210.0
 46
0.0
 47
0.0
 48
0.0
 49
0.0
140
0.0
141
0.0
142
1.0
143
1.0
 70
1024
 72
1
 73
0
 74
0
  7

 75
0
147
1.0
148
0.0
149
0.0
100
AcDbLayout
  1
Model
 70
0
 71
0
 10
0.0
 20
0.0
 11
297.0
 21
210.0
 12
0.0
 22
0.0
 32
0.0
 14
0.0
 24
0.0
 34
0.0
 15
0.0
 25
0.0
 35
0.0
146
0.0
 13
0.0
 23
0.0
 33
0.0
 16
1.0
 26
0.0
 36
0.0
 17
0.0
 27
1.0
 37
0.0
 76
0
330
219
345
0
346
0
  0
LAYOUT
  5
409
102
{ACAD_REACTORS
330
1A
102
}
100
AcDbPlotSettings
  1

  2
none_device
  4
ISO_A4_(297.00_x_210.00_MM)
  6

 40
0.0
 41
0.0
 42
0.0
 43
0.0
 44
297.0
 45
210.0
 46
0.0
 47
0.0
 48
0.0
 49
0.0
140
0.0
141
0.0
142
1.0
143
1.0
 70
0
 72
1
 73
0
 74
0
  7

 75
0
147
1.0
148
0.0
149
0.0
100
AcDbLayout
  1
Layout1
 70
0
 71
1
 10
0.0
 20
0.0
 11
297.0
 21
210.0
 12
0.0
 22
0.0
 32
0.0
 14
0.0
 24
0.0
 34
0.0
 15
0.0
 25
0.0
 35
0.0
146
0.0
 13
0.0
 23
0.0
 33
0.0
 16
1.0
 26
0.0
 36
0.0
 17
0.0
 27
1.0
 37
0.0
 76
0
330
21A
345
0
346
0
  0
ENDSEC
  0
EOF
