  0
SECTION
  2
HEADER
  9
$ACADVER
  1
AC1024
  9
$DWGCODEPAGE
  3
ANSI_1252
  9
$EXTMAX
 10
297.0
 20
210.0
 30
0.0
  9
$EXTMIN
 10
0.0
 20
0.0
 30
0.0
  9
$LIMMIN
 10
0.0
 20
0.0
  9
$LIMMAX
 10
297.0
 20
210.0
  9
$VIEWCTR
 10
148.5
 20
105.0
  9
$VIEWSIZE
 40
210.0
  9
$CLAYER
  8
0
  9
$LTSCALE
 40
16.335
  9
$CELTYPE
  6
BYLAYER
  9
$DIMSCALE
 40
1.0
  9
$DIMASZ
 40
3.0
  9
$DIMEXO
 40
0.5
  9
$DIMDLI
 40
11.286
  9
$DIMEXE
 40
1.5
  9
$DIMCEN
 40
2.673
  9
$DIMLFAC
 40
1.0
  9
$DIMBLK
  1
_FILLED
  9
$DIMALT
 70
0
  9
$DIMALTF
 40
0.0393700787
  9
$DIMTXT
 40
3.0
  9
$DIMTOL
 70
1
  9
$DIMLIM
 70
0
  9
$DIMTFAC
 40
1.0
  9
$DIMTP
 40
0.01
  9
$DIMTM
 40
0.01
  9
$DIMGAP
 40
0.625
  9
$DIMDSEP
 70
44
  9
$AUNITS
 70
0
  9
$PDMODE
 70
3
  9
$PDSIZE
 40
3.0
  9
$HANDSEED
  5
3B3
  9
$TILEMODE
 70
1
  9
$MEASUREMENT
 70
1
  9
$INSUNITS
 70
4
  0
ENDSEC
  0
SECTION
  2
CLASSES
  0
CLASS
  1
ACDBDICTIONARYWDFLT
  2
AcDbDictionaryWithDefault
  3
AutoCAD 2000
 90
0
 91
1
280
0
281
0
  0
CLASS
  1
ACDBPLACEHOLDER
  2
AcDbPlaceHolder
  3
AutoCAD 2000
 90
0
 91
1
280
0
281
0
  0
CLASS
  1
LAYOUT
  2
AcDbLayout
  3
AutoCAD 2000
 90
0
 91
0
280
0
281
0
  0
ENDSEC
  0
SECTION
  2
TABLES
  0
TABLE
  2
VPORT
  5
8
100
AcDbSymbolTable
 70
2
  0
VPORT
  5
1F4
100
AcDbSymbolTableRecord
100
AcDbViewportTableRecord
  2
*ACTIVE
 70
0
 10
0.0
 20
0.0
 11
1.0
 21
1.0
 12
148.5
 22
105.0
 13
0.0
 23
0.0
 14
1.0
 24
1.0
 15
0.0
 25
0.0
 16
0.0
 26
0.0
 36
1.0
 17
0.0
 27
0.0
 37
0.0
 40
210.0
 41
1.4142857143
 42
50.0
 43
0.0
 44
0.0
 50
0.0
 51
0.0
 71
0
 72
100
 73
1
 74
1
 75
0
 76
0
 77
0
 78
0
  0
ENDTAB
  0
TABLE
  2
LTYPE
  5
5
100
AcDbSymbolTable
 70
6
  0
LTYPE
  5
14
100
AcDbSymbolTableRecord
100
AcDbLinetypeTableRecord
  2
BYBLOCK
 70
0
  3

 72
65
 73
0
 40
0.0
  0
LTYPE
  5
15
100
AcDbSymbolTableRecord
100
AcDbLinetypeTableRecord
  2
BYLAYER
 70
0
  3

 72
65
 73
0
 40
0.0
  0
LTYPE
  5
16
100
AcDbSymbolTableRecord
100
AcDbLinetypeTableRecord
  2
CONTINUOUS
 70
64
  3
Solid line
 72
65
 73
0
 40
0.0
  0
LTYPE
  5
1F5
100
AcDbSymbolTableRecord
100
AcDbLinetypeTableRecord
  2
CENTER
 70
64
  3
____ _ ____ _ ____ _ ____ _ ____ _ ____ _ ____
 72
65
 73
4
 40
0.6
 49
0.375
 74
0
 49
-0.075
 74
0
 49
0.075
 74
0
 49
-0.075
 74
0
  0
LTYPE
  5
1F6
100
AcDbSymbolTableRecord
100
AcDbLinetypeTableRecord
  2
HIDDEN
 70
64
  3
- - - - - - - - - - - - - - - - - - - -
 72
65
 73
2
 40
0.2
 49
0.1
 74
0
 49
-0.1
 74
0
  0
LTYPE
  5
1F7
100
AcDbSymbolTableRecord
100
AcDbLinetypeTableRecord
  2
PHANTOM
 70
64
  3
_____ _ _ _____ _ _ _____ _ _ _____
 72
65
 73
6
 40
0.8
 49
0.45
 74
0
 49
-0.05
 74
0
 49
0.1
 74
0
 49
-0.05
 74
0
 49
0.1
 74
0
 49
-0.05
 74
0
  0
LTYPE
  5
1F8
100
AcDbSymbolTableRecord
100
AcDbLinetypeTableRecord
  2
DOT
 70
64
  3
. . . . . . . . . . . . . . . . . . . .
 72
65
 73
2
 40
0.2
 49
0.1
 74
0
 49
-0.1
 74
0
  0
LTYPE
  5
1F9
100
AcDbSymbolTableRecord
100
AcDbLinetypeTableRecord
  2
DASHED
 70
64
  3
- - - - - - - - - - - - - - - - - - - -
 72
65
 73
2
 40
0.2
 49
0.1
 74
0
 49
-0.1
 74
0
  0
ENDTAB
  0
TABLE
  2
LAYER
  5
2
100
AcDbSymbolTable
 70
36
  0
LAYER
  5
10
100
AcDbSymbolTableRecord
100
AcDbLayerTableRecord
  2
0
 70
0
 62
7
  6
CONTINUOUS
370
-3
390
F
  0
LAYER
  5
1FA
100
AcDbSymbolTableRecord
100
AcDbLayerTableRecord
  2
DEFAULT_1
 70
0
 62
7
  6
CENTER
370
-3
390
F
  0
LAYER
  5
1FB
100
AcDbSymbolTableRecord
100
AcDbLayerTableRecord
  2
DEFAULT_2
 70
0
 62
7
  6
HIDDEN
370
-3
390
F
  0
LAYER
  5
1FC
100
AcDbSymbolTableRecord
100
AcDbLayerTableRecord
  2
DEFAULT_3
 70
0
 62
7
  6
PHANTOM
370
-3
390
F
  0
LAYER
  5
1FD
100
AcDbSymbolTableRecord
100
AcDbLayerTableRecord
  2
ASSI
 70
0
 62
7
  6
CONTINUOUS
370
-3
390
F
  0
LAYER
  5
1FE
100
AcDbSymbolTableRecord
100
AcDbLayerTableRecord
  2
COORDINATE
 70
0
 62
7
  6
CONTINUOUS
370
-3
390
F
  0
LAYER
  5
1FF
100
AcDbSymbolTableRecord
100
AcDbLayerTableRecord
  2
COPY_PUBLISH
 70
0
 62
7
  6
CONTINUOUS
370
-3
390
F
  0
LAYER
  5
200
100
AcDbSymbolTableRecord
100
AcDbLayerTableRecord
  2
COSMETICI
 70
0
 62
7
  6
CONTINUOUS
370
-3
390
F
  0
LAYER
  5
201
100
AcDbSymbolTableRecord
100
AcDbLayerTableRecord
  2
CURVE
 70
0
 62
7
  6
CONTINUOUS
370
-3
390
F
  0
LAYER
  5
202
100
AcDbSymbolTableRecord
100
AcDbLayerTableRecord
  2
DRAFT
 70
0
 62
7
  6
CONTINUOUS
370
-3
390
F
  0
LAYER
  5
203
100
AcDbSymbolTableRecord
100
AcDbLayerTableRecord
  2
IMPORT_IGES
 70
0
 62
7
  6
CONTINUOUS
370
-3
390
F
  0
LAYER
  5
204
100
AcDbSymbolTableRecord
100
AcDbLayerTableRecord
  2
INTF_1
 70
0
 62
7
  6
CONTINUOUS
370
-3
390
F
  0
LAYER
  5
205
100
AcDbSymbolTableRecord
100
AcDbLayerTableRecord
  2
INTF_7
 70
0
 62
7
  6
CONTINUOUS
370
-3
390
F
  0
LAYER
  5
206
100
AcDbSymbolTableRecord
100
AcDbLayerTableRecord
  2
NOTE
 70
0
 62
7
  6
CONTINUOUS
370
-3
390
F
  0
LAYER
  5
207
100
AcDbSymbolTableRecord
100
AcDbLayerTableRecord
  2
PIANI
 70
0
 62
7
  6
CONTINUOUS
370
-3
390
F
  0
LAYER
  5
208
100
AcDbSymbolTableRecord
100
AcDbLayerTableRecord
  2
PUNTI
 70
0
 62
7
  6
CONTINUOUS
370
-3
390
F
  0
LAYER
  5
209
100
AcDbSymbolTableRecord
100
AcDbLayerTableRecord
  2
RACCORDO
 70
0
 62
7
  6
CONTINUOUS
370
-3
390
F
  0
LAYER
  5
20A
100
AcDbSymbolTableRecord
100
AcDbLayerTableRecord
  2
RGB__255__255__255__
 70
0
 62
7
  6
CONTINUOUS
370
-3
390
F
  0
LAYER
  5
20B
100
AcDbSymbolTableRecord
100
AcDbLayerTableRecord
  2
RGB____0____0____0__
 70
0
 62
7
  6
CONTINUOUS
370
-3
390
F
  0
LAYER
  5
20C
100
AcDbSymbolTableRecord
100
AcDbLayerTableRecord
  2
SIMBOLI
 70
0
 62
7
  6
CONTINUOUS
370
-3
390
F
  0
LAYER
  5
20D
100
AcDbSymbolTableRecord
100
AcDbLayerTableRecord
  2
SMUSSO
 70
0
 62
7
  6
CONTINUOUS
370
-3
390
F
  0
LAYER
  5
20E
100
AcDbSymbolTableRecord
100
AcDbLayerTableRecord
  2
SNAPLINE
 70
0
 62
7
  6
CONTINUOUS
370
-3
390
F
  0
LAYER
  5
20F
100
AcDbSymbolTableRecord
100
AcDbLayerTableRecord
  2
SUPERFICI
 70
0
 62
7
  6
CONTINUOUS
370
-3
390
F
  0
LAYER
  5
210
100
AcDbSymbolTableRecord
100
AcDbLayerTableRecord
  2
TRASH
 70
0
 62
7
  6
CONTINUOUS
370
-3
390
F
  0
LAYER
  5
211
100
AcDbSymbolTableRecord
100
AcDbLayerTableRecord
  2
XSEC_DATUMS
 70
0
 62
7
  6
CONTINUOUS
370
-3
390
F
  0
ENDTAB
  0
TABLE
  2
STYLE
  5
3
100
AcDbSymbolTable
 70
1
  0
STYLE
  5
11
100
AcDbSymbolTableRecord
100
AcDbTextStyleTableRecord
  2
STANDARD
 70
0
 40
0.0
 41
0.8
 50
0.0
 71
0
 42
0.2
  3
txt
  4

  0
STYLE
  5
212
100
AcDbSymbolTableRecord
100
AcDbTextStyleTableRecord
  2
TEXTSTYLE_1
 70
0
 40
0.0
 41
0.8
 50
0.0
 71
0
 42
0.2
  3
gdt
  4

  0
ENDTAB
  0
TABLE
  2
VIEW
  5
6
100
AcDbSymbolTable
 70
0
  0
ENDTAB
  0
TABLE
  2
UCS
  5
7
100
AcDbSymbolTable
 70
0
  0
ENDTAB
  0
TABLE
  2
APPID
  5
9
100
AcDbSymbolTable
 70
1
  0
APPID
  5
213
100
AcDbSymbolTableRecord
100
AcDbRegAppTableRecord
  2
ACAD
 70
0
  0
ENDTAB
  0
TABLE
  2
BLOCK_RECORD
  5
1
100
AcDbSymbolTable
 70
0
  0
BLOCK_RECORD
  5
214
100
AcDbSymbolTableRecord
100
AcDbBlockTableRecord
  2
*Model_Space
  0
BLOCK_RECORD
  5
215
100
AcDbSymbolTableRecord
100
AcDbBlockTableRecord
  2
*Paper_Space
  0
BLOCK_RECORD
  5
216
100
AcDbSymbolTableRecord
100
AcDbBlockTableRecord
  2
_FILLED
  0
BLOCK_RECORD
  5
217
100
AcDbSymbolTableRecord
100
AcDbBlockTableRecord
  2
*D0
  0
BLOCK_RECORD
  5
218
100
AcDbSymbolTableRecord
100
AcDbBlockTableRecord
  2
*D1
  0
BLOCK_RECORD
  5
219
100
AcDbSymbolTableRecord
100
AcDbBlockTableRecord
  2
*D2
  0
ENDTAB
  0
TABLE
  2
DIMSTYLE
  5
A
100
AcDbSymbolTable
 70
1
100
AcDbDimStyleTable
 71
0
  0
DIMSTYLE
105
21A
100
AcDbSymbolTableRecord
100
AcDbDimStyleTableRecord
  2
STANDARD
 70
0
  3

  4

 40
1.0
 41
3.0
 42
0.5
 43
0.38
 44
1.5
 45
0.0
 46
0.0
 47
0.01
 48
0.01
140
3.0
141
0.09
142
0.0
143
25.4
144
1.0
145
0.0
146
1.0
147
0.625
 71
1.0
 72
0.0
 73
0
 74
0
 75
0
 76
0
 77
1
 78
8
 79
2
170
0
171
1
172
0
173
0
174
0
175
0
176
0
177
0
178
0
270
2
179
2
271
2
272
2
273
2
274
2
275
0
280
0
281
0
282
0
283
1
284
8
285
0
286
0
287
3
288
0
340
11
278
44
341
216
342
216
343
216
344
216
  0
DIMSTYLE
105
21B
100
AcDbSymbolTableRecord
100
AcDbDimStyleTableRecord
  2
DIMSTYLE_1
 70
0
  3

  4

 40
1.0
 41
3.0
 42
0.5
 43
0.38
 44
1.5
 45
0.0
 46
0.0
 47
0.0
 48
0.0
140
3.0
141
0.09
142
0.0
143
25.4
144
1.0
145
0.0
146
1.0
147
0.75
 71
0.0
 72
0.0
 73
0
 74
0
 75
0
 76
0
 77
1
 78
8
 79
2
170
0
171
1
172
0
173
0
174
0
175
0
176
0
177
0
178
0
270
2
179
2
271
2
272
2
273
2
274
2
275
0
280
0
281
0
282
0
283
1
284
8
285
0
286
0
287
3
288
0
340
11
278
44
341
216
342
216
343
216
344
216
  0
ENDTAB
  0
ENDSEC
  0
SECTION
  2
BLOCKS
  0
BLOCK
  5
20
100
AcDbEntity
  8
0
100
AcDbBlockBegin
  2
*Model_Space
 70
0
 10
0.0
 20
0.0
 30
0.0
  3
*Model_Space
  1

  0
ENDBLK
  5
21
100
AcDbEntity
  8
0
100
AcDbBlockEnd
  0
BLOCK
  5
1C
100
AcDbEntity
  8
0
100
AcDbBlockBegin
  2
*Paper_Space
 70
0
 10
0.0
 20
0.0
 30
0.0
  3
*Paper_Space
  1

  0
ENDBLK
  5
1D
100
AcDbEntity
  8
0
100
AcDbBlockEnd
  0
BLOCK
  5
21C
100
AcDbEntity
  8
0
100
AcDbBlockBegin
  2
_FILLED
 70
64
 10
0.0
 20
0.0
  3
_FILLED
  1

  0
SOLID
  5
21D
100
AcDbEntity
  8
0
  6
BYBLOCK
 62
0
100
AcDbTrace
 10
0.0
 20
0.0
 11
-1.0
 21
0.3166666667
 12
-1.0
 22
-0.3166666667
 13
-1.0
 23
-0.3166666667
  0
ENDBLK
  5
21E
100
AcDbEntity
  8
0
  6
BYBLOCK
 62
0
100
AcDbBlockEnd
  0
BLOCK
  5
21F
100
AcDbEntity
  8
0
100
AcDbBlockBegin
 62
7
  6
CONTINUOUS
  2
*D0
 70
65
 10
0.0
 20
0.0
  3
*D0
  1

  0
LINE
  5
220
100
AcDbEntity
  8
0
100
AcDbLine
 62
7
  6
CONTINUOUS
 10
-40.0
 20
73.0
 11
-40.0
 21
85.0
  0
LINE
  5
221
100
AcDbEntity
  8
0
100
AcDbLine
 62
7
  6
CONTINUOUS
 10
40.0
 20
73.0
 11
40.0
 21
85.0
  0
LINE
  5
222
100
AcDbEntity
  8
0
100
AcDbLine
 62
7
  6
CONTINUOUS
 10
-40.0
 20
83.5
 11
0.0
 21
83.5
  0
LINE
  5
223
100
AcDbEntity
  8
0
100
AcDbLine
 62
7
  6
CONTINUOUS
 10
40.0
 20
83.5
 11
0.0
 21
83.5
  0
INSERT
  5
224
100
AcDbEntity
  8
0
100
AcDbBlockReference
 62
7
  6
CONTINUOUS
  2
_FILLED
 10
-40.0
 20
83.5
 41
3.0
 42
3.0
 43
3.0
 50
180.0
  0
INSERT
  5
225
100
AcDbEntity
  8
0
100
AcDbBlockReference
 62
7
  6
CONTINUOUS
  2
_FILLED
 10
40.0
 20
83.5
 41
3.0
 42
3.0
 43
3.0
 50
0.0
  0
ENDBLK
  5
226
100
AcDbEntity
  8
0
  6
BYBLOCK
 62
0
100
AcDbBlockEnd
  0
BLOCK
  5
227
100
AcDbEntity
  8
0
100
AcDbBlockBegin
 62
7
  6
CONTINUOUS
  2
*D1
 70
65
 10
0.0
 20
0.0
  3
*D1
  1

  0
LINE
  5
228
100
AcDbEntity
  8
0
100
AcDbLine
 62
7
  6
CONTINUOUS
 10
37.5
 20
75.5
 11
49.5
 21
75.5
  0
LINE
  5
229
100
AcDbEntity
  8
0
100
AcDbLine
 62
7
  6
CONTINUOUS
 10
37.5
 20
-75.5
 11
49.5
 21
-75.5
  0
LINE
  5
22A
100
AcDbEntity
  8
0
100
AcDbLine
 62
7
  6
CONTINUOUS
 10
48.0
 20
75.5
 11
48.0
 21
0.0
  0
LINE
  5
22B
100
AcDbEntity
  8
0
100
AcDbLine
 62
7
  6
CONTINUOUS
 10
48.0
 20
-75.5
 11
48.0
 21
0.0
  0
INSERT
  5
22C
100
AcDbEntity
  8
0
100
AcDbBlockReference
 62
7
  6
CONTINUOUS
  2
_FILLED
 10
48.0
 20
75.5
 41
3.0
 42
3.0
 43
3.0
 50
90.0
  0
INSERT
  5
22D
100
AcDbEntity
  8
0
100
AcDbBlockReference
 62
7
  6
CONTINUOUS
  2
_FILLED
 10
48.0
 20
-75.5
 41
3.0
 42
3.0
 43
3.0
 50
270.0
  0
ENDBLK
  5
22E
100
AcDbEntity
  8
0
  6
BYBLOCK
 62
0
100
AcDbBlockEnd
  0
BLOCK
  5
22F
100
AcDbEntity
  8
0
100
AcDbBlockBegin
 62
7
  6
CONTINUOUS
  2
*D2
 70
65
 10
0.0
 20
0.0
  3
*D2
  1

  0
LINE
  5
230
100
AcDbEntity
  8
0
100
AcDbLine
 62
7
  6
CONTINUOUS
 10
-65.7192411642
 20
73.0
 11
-65.7192411642
 21
85.0
  0
LINE
  5
231
100
AcDbEntity
  8
0
100
AcDbLine
 62
7
  6
CONTINUOUS
 10
-75.0192411642
 20
58.2500000089
 11
-75.0192411642
 21
85.0
  0
LINE
  5
232
100
AcDbEntity
  8
0
100
AcDbLine
 62
7
  6
CONTINUOUS
 10
-65.7192411642
 20
83.5
 11
-61.7192411642
 21
83.5
  0
LINE
  5
233
100
AcDbEntity
  8
0
100
AcDbLine
 62
7
  6
CONTINUOUS
 10
-61.7192411642
 20
83.5
 11
-70.3692411642
 21
83.5
  0
LINE
  5
234
100
AcDbEntity
  8
0
100
AcDbLine
 62
7
  6
CONTINUOUS
 10
-75.0192411642
 20
83.5
 11
-79.0192411642
 21
83.5
  0
LINE
  5
235
100
AcDbEntity
  8
0
100
AcDbLine
 62
7
  6
CONTINUOUS
 10
-79.0192411642
 20
83.5
 11
-70.3692411642
 21
83.5
  0
INSERT
  5
236
100
AcDbEntity
  8
0
100
AcDbBlockReference
 62
7
  6
CONTINUOUS
  2
_FILLED
 10
-65.7192411642
 20
83.5
 41
3.0
 42
3.0
 43
3.0
 50
180.0
  0
INSERT
  5
237
100
AcDbEntity
  8
0
100
AcDbBlockReference
 62
7
  6
CONTINUOUS
  2
_FILLED
 10
-75.0192411642
 20
83.5
 41
3.0
 42
3.0
 43
3.0
  0
ENDBLK
  5
238
100
AcDbEntity
  8
0
  6
BYBLOCK
 62
0
100
AcDbBlockEnd
  0
ENDSEC
  0
SECTION
  2
ENTITIES
  0
DIMENSION
  5
239
100
AcDbEntity
  8
0
100
AcDbDimension
 62
7
  6
CONTINUOUS
  2
*D0
 10
40.0
 20
83.5
 11
-2.3571428571
 21
83.5
 70
160
 71
2
 72
2
 41
0.9
 42
80.0
  3
DIMSTYLE_1
100
AcDbAlignedDimension
 13
-40.0
 23
72.5
 14
40.0
 24
72.5
100
AcDbRotatedDimension
  0
DIMENSION
  5
23A
100
AcDbEntity
  8
0
100
AcDbDimension
 62
7
  6
CONTINUOUS
  2
*D1
 10
48.0
 20
-75.5
 11
48.0
 21
-2.7857142857
 70
160
 71
2
 72
2
 41
0.9
 42
151.0
  3
DIMSTYLE_1
100
AcDbAlignedDimension
 13
37.0
 23
75.5
 14
37.0
 24
-75.5
 50
270.0
100
AcDbRotatedDimension
  0
DIMENSION
  5
23B
100
AcDbEntity
  8
0
100
AcDbDimension
 62
7
  6
CONTINUOUS
  2
*D2
 10
-75.0192411642
 20
83.5
 11
-73.4763840214
 21
83.5
 70
160
 71
2
 72
2
 41
0.9
 42
9.3
  3
DIMSTYLE_1
100
AcDbAlignedDimension
 13
-65.7192411642
 23
72.5
 14
-75.0192411642
 24
57.7500000089
 50
180.0
100
AcDbRotatedDimension
  0
LINE
  5
23C
100
AcDbEntity
  8
RACCORDO
100
AcDbLine
 62
7
  6
CONTINUOUS
 10
37.0
 20
-75.5
 11
4.1331429141
 21
-75.5
  0
LINE
  5
23D
100
AcDbEntity
  8
RACCORDO
100
AcDbLine
 62
7
  6
CONTINUOUS
 10
-4.1331429141
 20
-75.5
 11
-37.0
 21
-75.5
  0
LINE
  5
23E
100
AcDbEntity
  8
RACCORDO
100
AcDbLine
 62
7
  6
CONTINUOUS
 10
3.041834413
 20
-75.3881826404
 11
-3.041834413
 21
-75.3881826404
  0
LINE
  5
23F
100
AcDbEntity
  8
RACCORDO
100
AcDbLine
 62
250
  6
CONTINUOUS
 10
-11.7500274807
 20
-75.2278567606
 11
11.7500274807
 21
-75.2278567606
  0
LINE
  5
240
100
AcDbEntity
  8
RACCORDO
100
AcDbLine
 62
250
  6
CONTINUOUS
 10
-11.7500137403
 20
-74.5628707566
 11
11.7500137403
 21
-74.5628707566
  0
LINE
  5
241
100
AcDbEntity
  8
RACCORDO
100
AcDbLine
 62
250
  6
CONTINUOUS
 10
-40.0
 20
-72.5
 11
-39.7359525724
 21
-72.4999313674
  0
LINE
  5
242
100
AcDbEntity
  8
RACCORDO
100
AcDbLine
 62
250
  6
CONTINUOUS
 10
40.0
 20
-72.5
 11
39.7359527728
 21
-72.5
  0
LINE
  5
243
100
AcDbEntity
  8
RACCORDO
100
AcDbLine
 62
7
  6
CONTINUOUS
 10
3.635045565
 20
75.4744820414
 11
3.539931762
 21
75.413700599
  0
LINE
  5
244
100
AcDbEntity
  8
RACCORDO
100
AcDbLine
 62
250
  6
CONTINUOUS
 10
-11.7499306751
 20
-61.3576119267
 11
11.7499306751
 21
-61.3576119267
  0
LINE
  5
245
100
AcDbEntity
  8
RACCORDO
100
AcDbLine
 62
250
  6
CONTINUOUS
 10
-11.7498613503
 20
-59.7537950195
 11
11.7498613503
 21
-59.7537950195
  0
LINE
  5
246
100
AcDbEntity
  8
0
100
AcDbLine
 62
250
  6
CONTINUOUS
 10
-22.25
 20
-58.1538626693
 11
22.25
 21
-58.1538626693
  0
LINE
  5
247
100
AcDbEntity
  8
0
100
AcDbLine
 62
7
  6
CONTINUOUS
 10
-22.25
 20
-58.05
 11
22.25
 21
-58.05
  0
LINE
  5
248
100
AcDbEntity
  8
RACCORDO
100
AcDbLine
 62
250
  6
CONTINUOUS
 10
22.6538626693
 20
-57.75
 11
24.2603442858
 21
-57.7499995593
  0
LINE
  5
249
100
AcDbEntity
  8
0
100
AcDbLine
 62
250
  6
CONTINUOUS
 10
22.55
 20
-57.75
 11
22.6538626693
 21
-57.75
  0
LINE
  5
24A
100
AcDbEntity
  8
0
100
AcDbLine
 62
250
  6
CONTINUOUS
 10
-22.55
 20
-57.75
 11
-22.6538626693
 21
-57.75
  0
LINE
  5
24B
100
AcDbEntity
  8
RACCORDO
100
AcDbLine
 62
250
  6
CONTINUOUS
 10
-22.6538626693
 20
-57.75
 11
-24.2603442864
 21
-57.7499999075
  0
LINE
  5
24C
100
AcDbEntity
  8
RACCORDO
100
AcDbLine
 62
7
  6
CONTINUOUS
 10
3.635045565
 20
-75.4744820414
 11
3.539931762
 21
-75.413700599
  0
LINE
  5
24D
100
AcDbEntity
  8
0
100
AcDbLine
 62
7
  6
CONTINUOUS
 10
-40.0
 20
-72.5
 11
-40.0
 21
72.5
  0
LINE
  5
24E
100
AcDbEntity
  8
RACCORDO
100
AcDbLine
 62
250
  6
CONTINUOUS
 10
-39.7278543933
 20
35.5000028329
 11
-39.7278543933
 21
-35.5000028329
  0
LINE
  5
24F
100
AcDbEntity
  8
RACCORDO
100
AcDbLine
 62
250
  6
CONTINUOUS
 10
-37.0
 20
75.5
 11
-36.9999321447
 21
75.2368092286
  0
LINE
  5
250
100
AcDbEntity
  8
RACCORDO
100
AcDbLine
 62
250
  6
CONTINUOUS
 10
-39.062921579
 20
35.5000014127
 11
-39.062921579
 21
-35.5000014126
  0
LINE
  5
251
100
AcDbEntity
  8
RACCORDO
100
AcDbLine
 62
250
  6
CONTINUOUS
 10
-37.0
 20
-75.5
 11
-37.0
 21
-75.2368093679
  0
LINE
  5
252
100
AcDbEntity
  8
RACCORDO
100
AcDbLine
 62
250
  6
CONTINUOUS
 10
-39.7278543933
 20
-35.5000028329
 11
-24.2535132686
 21
-35.499979157
  0
LINE
  5
253
100
AcDbEntity
  8
RACCORDO
100
AcDbLine
 62
250
  6
CONTINUOUS
 10
39.7278543933
 20
-35.500002839
 11
24.2535132686
 21
-35.4999791554
  0
LINE
  5
254
100
AcDbEntity
  8
RACCORDO
100
AcDbLine
 62
250
  6
CONTINUOUS
 10
-25.856390866
 20
35.4999895777
 11
-25.8563908662
 21
13.25
  0
LINE
  5
255
100
AcDbEntity
  8
RACCORDO
100
AcDbLine
 62
250
  6
CONTINUOUS
 10
-25.8563908662
 20
-13.25
 11
-25.856390866
 21
-35.4999895793
  0
LINE
  5
256
100
AcDbEntity
  8
RACCORDO
100
AcDbLine
 62
250
  6
CONTINUOUS
 10
-24.2535132686
 20
35.4999791555
 11
-24.2535132687
 21
13.2499923962
  0
LINE
  5
257
100
AcDbEntity
  8
RACCORDO
100
AcDbLine
 62
250
  6
CONTINUOUS
 10
-24.2535132687
 20
-13.2499783234
 11
-24.2535132686
 21
-35.4999791571
  0
LINE
  5
258
100
AcDbEntity
  8
RACCORDO
100
AcDbLine
 62
250
  6
CONTINUOUS
 10
-23.4974023291
 20
-9.7994637939
 11
-23.4974019012
 21
9.7994636661
  0
LINE
  5
259
100
AcDbEntity
  8
0
100
AcDbLine
 62
250
  6
CONTINUOUS
 10
-22.6538626693
 20
57.75
 11
-22.6538626693
 21
13.25
  0
LINE
  5
25A
100
AcDbEntity
  8
0
100
AcDbLine
 62
250
  6
CONTINUOUS
 10
-22.6538626693
 20
-13.25
 11
-22.6538626693
 21
-57.75
  0
LINE
  5
25B
100
AcDbEntity
  8
0
100
AcDbLine
 62
7
  6
CONTINUOUS
 10
-22.55
 20
57.75
 11
-22.55
 21
13.25
  0
LINE
  5
25C
100
AcDbEntity
  8
0
100
AcDbLine
 62
7
  6
CONTINUOUS
 10
-22.55
 20
-13.25
 11
-22.55
 21
-57.75
  0
LINE
  5
25D
100
AcDbEntity
  8
0
100
AcDbLine
 62
250
  6
CONTINUOUS
 10
-22.25
 20
12.95
 11
-22.25
 21
12.8461373307
  0
LINE
  5
25E
100
AcDbEntity
  8
0
100
AcDbLine
 62
250
  6
CONTINUOUS
 10
-22.25
 20
-12.95
 11
-22.25
 21
-12.8461373307
  0
LINE
  5
25F
100
AcDbEntity
  8
RACCORDO
100
AcDbLine
 62
250
  6
CONTINUOUS
 10
-22.25
 20
-12.8461373307
 11
-22.25
 21
-9.5809109269
  0
LINE
  5
260
100
AcDbEntity
  8
RACCORDO
100
AcDbLine
 62
250
  6
CONTINUOUS
 10
-22.25
 20
9.5809109269
 11
-22.25
 21
12.8461373307
  0
LINE
  5
261
100
AcDbEntity
  8
0
100
AcDbLine
 62
250
  6
CONTINUOUS
 10
-22.25
 20
-58.05
 11
-22.25
 21
-58.1538626693
  0
LINE
  5
262
100
AcDbEntity
  8
0
100
AcDbLine
 62
250
  6
CONTINUOUS
 10
-22.25
 20
58.05
 11
-22.25
 21
58.1538626693
  0
LINE
  5
263
100
AcDbEntity
  8
RACCORDO
100
AcDbLine
 62
250
  6
CONTINUOUS
 10
-22.25
 20
58.1538626693
 11
-22.2500000032
 21
59.758209193
  0
LINE
  5
264
100
AcDbEntity
  8
RACCORDO
100
AcDbLine
 62
250
  6
CONTINUOUS
 10
-22.25
 20
-58.1538626693
 11
-22.2500004021
 21
-59.7582091935
  0
LINE
  5
265
100
AcDbEntity
  8
RACCORDO
100
AcDbLine
 62
250
  6
CONTINUOUS
 10
-23.4974067317
 20
9.7994651035
 11
-22.9188423999
 21
11.3998704614
  0
LINE
  5
266
100
AcDbEntity
  8
RACCORDO
100
AcDbLine
 62
250
  6
CONTINUOUS
 10
-23.4974067317
 20
-9.7994651035
 11
-22.9188423999
 21
-11.3998704614
  0
LINE
  5
267
100
AcDbEntity
  8
RACCORDO
100
AcDbLine
 62
250
  6
CONTINUOUS
 10
-11.7500274807
 20
75.2278567606
 11
-11.7498613503
 21
59.7537950195
  0
LINE
  5
268
100
AcDbEntity
  8
RACCORDO
100
AcDbLine
 62
250
  6
CONTINUOUS
 10
-11.7500274807
 20
-75.2278567606
 11
-11.7498613503
 21
-59.7537950195
  0
LINE
  5
269
100
AcDbEntity
  8
RACCORDO
100
AcDbLine
 62
250
  6
CONTINUOUS
 10
-25.8563908662
 20
-13.25
 11
-22.6538626693
 21
-13.25
  0
LINE
  5
26A
100
AcDbEntity
  8
RACCORDO
100
AcDbLine
 62
250
  6
CONTINUOUS
 10
25.8563908662
 20
-13.25
 11
22.6538626693
 21
-13.25
  0
LINE
  5
26B
100
AcDbEntity
  8
0
100
AcDbLine
 62
250
  6
CONTINUOUS
 10
22.55
 20
-13.25
 11
22.6538626693
 21
-13.25
  0
LINE
  5
26C
100
AcDbEntity
  8
0
100
AcDbLine
 62
250
  6
CONTINUOUS
 10
-22.55
 20
-13.25
 11
-22.6538626693
 21
-13.25
  0
LINE
  5
26D
100
AcDbEntity
  8
0
100
AcDbLine
 62
7
  6
CONTINUOUS
 10
22.25
 20
-12.95
 11
-22.25
 21
-12.95
  0
LINE
  5
26E
100
AcDbEntity
  8
0
100
AcDbLine
 62
250
  6
CONTINUOUS
 10
22.25
 20
-12.8461373307
 11
-22.25
 21
-12.8461373307
  0
LINE
  5
26F
100
AcDbEntity
  8
RACCORDO
100
AcDbLine
 62
250
  6
CONTINUOUS
 10
22.25
 20
-11.2826847062
 11
-22.25
 21
-11.2826847062
  0
LINE
  5
270
100
AcDbEntity
  8
RACCORDO
100
AcDbLine
 62
250
  6
CONTINUOUS
 10
22.25
 20
-9.5809109269
 11
-22.25
 21
-9.5809109269
  0
LWPOLYLINE
  5
271
100
AcDbEntity
  8
0
100
AcDbPolyline
 62
7
  6
CONTINUOUS
 90
4
 70
0
 43
0.3500000006
 10
-2.3571427875
 20
84.6785671692
 10
-2.3571427875
 20
85.5357141724
 10
-1.9285714102
 20
85.9642831421
 10
-1.2857142735
 20
85.9642831421
  0
LWPOLYLINE
  5
272
100
AcDbEntity
  8
0
100
AcDbPolyline
 62
7
  6
CONTINUOUS
 90
13
 70
0
 43
0.3500000006
 10
0.0
 20
85.1071452026
 10
0.0
 20
86.3928611755
 10
0.2142857063
 20
86.8214301453
 10
0.6428571367
 20
87.249999115
 10
0.8571428254
 20
87.249999115
 10
1.2857142735
 20
86.8214301453
 10
1.5000000329
 20
86.3928611755
 10
1.5000000329
 20
85.1071452026
 10
1.2857142735
 20
84.6785671692
 10
0.8571428254
 20
84.2499981995
 10
0.6428571367
 20
84.2499981995
 10
0.2142857063
 20
84.6785671692
 10
0.0
 20
85.1071452026
  0
LINE
  5
273
100
AcDbEntity
  8
RACCORDO
100
AcDbLine
 62
250
  6
CONTINUOUS
 10
11.7498613503
 20
-59.7537950195
 11
11.7500274807
 21
-75.2278567606
  0
LINE
  5
274
100
AcDbEntity
  8
RACCORDO
100
AcDbLine
 62
250
  6
CONTINUOUS
 10
11.7498613503
 20
59.7537950195
 11
11.7500274807
 21
75.2278567606
  0
LINE
  5
275
100
AcDbEntity
  8
RACCORDO
100
AcDbLine
 62
250
  6
CONTINUOUS
 10
-22.25
 20
9.5809109269
 11
22.25
 21
9.5809109269
  0
LINE
  5
276
100
AcDbEntity
  8
RACCORDO
100
AcDbLine
 62
250
  6
CONTINUOUS
 10
-22.25
 20
11.2826847062
 11
22.25
 21
11.2826847062
  0
LINE
  5
277
100
AcDbEntity
  8
0
100
AcDbLine
 62
250
  6
CONTINUOUS
 10
-22.25
 20
12.8461373307
 11
22.25
 21
12.8461373307
  0
LINE
  5
278
100
AcDbEntity
  8
0
100
AcDbLine
 62
7
  6
CONTINUOUS
 10
-22.25
 20
12.95
 11
22.25
 21
12.95
  0
LINE
  5
279
100
AcDbEntity
  8
0
100
AcDbLine
 62
250
  6
CONTINUOUS
 10
22.55
 20
13.25
 11
22.6538626693
 21
13.25
  0
LINE
  5
27A
100
AcDbEntity
  8
0
100
AcDbLine
 62
250
  6
CONTINUOUS
 10
-22.55
 20
13.25
 11
-22.6538626693
 21
13.25
  0
LINE
  5
27B
100
AcDbEntity
  8
RACCORDO
100
AcDbLine
 62
250
  6
CONTINUOUS
 10
-22.6538626693
 20
13.25
 11
-25.8563908662
 21
13.25
  0
LINE
  5
27C
100
AcDbEntity
  8
RACCORDO
100
AcDbLine
 62
250
  6
CONTINUOUS
 10
22.6538626693
 20
13.25
 11
25.8563908662
 21
13.25
  0
LINE
  5
27D
100
AcDbEntity
  8
RACCORDO
100
AcDbLine
 62
250
  6
CONTINUOUS
 10
22.25
 20
58.1538626693
 11
22.2500004021
 21
59.7582091935
  0
LINE
  5
27E
100
AcDbEntity
  8
0
100
AcDbLine
 62
250
  6
CONTINUOUS
 10
22.25
 20
12.95
 11
22.25
 21
12.8461373307
  0
LINE
  5
27F
100
AcDbEntity
  8
0
100
AcDbLine
 62
250
  6
CONTINUOUS
 10
22.25
 20
-12.95
 11
22.25
 21
-12.8461373307
  0
LINE
  5
280
100
AcDbEntity
  8
RACCORDO
100
AcDbLine
 62
250
  6
CONTINUOUS
 10
22.25
 20
-12.8461373307
 11
22.25
 21
-9.5809109269
  0
LINE
  5
281
100
AcDbEntity
  8
RACCORDO
100
AcDbLine
 62
250
  6
CONTINUOUS
 10
22.25
 20
9.5809109269
 11
22.25
 21
12.8461373307
  0
LINE
  5
282
100
AcDbEntity
  8
RACCORDO
100
AcDbLine
 62
250
  6
CONTINUOUS
 10
22.25
 20
-58.1538626693
 11
22.2500000032
 21
-59.758209193
  0
LINE
  5
283
100
AcDbEntity
  8
0
100
AcDbLine
 62
250
  6
CONTINUOUS
 10
22.25
 20
-58.05
 11
22.25
 21
-58.1538626693
  0
LINE
  5
284
100
AcDbEntity
  8
0
100
AcDbLine
 62
250
  6
CONTINUOUS
 10
22.25
 20
58.05
 11
22.25
 21
58.1538626693
  0
LINE
  5
285
100
AcDbEntity
  8
0
100
AcDbLine
 62
7
  6
CONTINUOUS
 10
22.55
 20
-57.75
 11
22.55
 21
-13.25
  0
LINE
  5
286
100
AcDbEntity
  8
0
100
AcDbLine
 62
7
  6
CONTINUOUS
 10
22.55
 20
13.25
 11
22.55
 21
57.75
  0
LINE
  5
287
100
AcDbEntity
  8
0
100
AcDbLine
 62
250
  6
CONTINUOUS
 10
22.6538626693
 20
-57.75
 11
22.6538626693
 21
-13.25
  0
LINE
  5
288
100
AcDbEntity
  8
0
100
AcDbLine
 62
250
  6
CONTINUOUS
 10
22.6538626693
 20
13.25
 11
22.6538626693
 21
57.75
  0
LINE
  5
289
100
AcDbEntity
  8
RACCORDO
100
AcDbLine
 62
250
  6
CONTINUOUS
 10
23.4974021827
 20
9.7994637503
 11
23.4974017576
 21
-9.7994636234
  0
LINE
  5
28A
100
AcDbEntity
  8
RACCORDO
100
AcDbLine
 62
250
  6
CONTINUOUS
 10
24.2535132686
 20
-35.4999791554
 11
24.2535132687
 21
-13.2499924022
  0
LINE
  5
28B
100
AcDbEntity
  8
RACCORDO
100
AcDbLine
 62
250
  6
CONTINUOUS
 10
24.2535132687
 20
13.2499783485
 11
24.2535132686
 21
35.4999791554
  0
LINE
  5
28C
100
AcDbEntity
  8
RACCORDO
100
AcDbLine
 62
250
  6
CONTINUOUS
 10
25.856390866
 20
-35.4999895777
 11
25.8563908662
 21
-13.25
  0
LINE
  5
28D
100
AcDbEntity
  8
RACCORDO
100
AcDbLine
 62
250
  6
CONTINUOUS
 10
25.8563908662
 20
13.25
 11
25.856390866
 21
35.4999895777
  0
LINE
  5
28E
100
AcDbEntity
  8
RACCORDO
100
AcDbLine
 62
250
  6
CONTINUOUS
 10
23.4974067317
 20
-9.7994651035
 11
22.9188423999
 21
-11.3998704614
  0
LINE
  5
28F
100
AcDbEntity
  8
RACCORDO
100
AcDbLine
 62
250
  6
CONTINUOUS
 10
23.4974067317
 20
9.7994651035
 11
22.9188423999
 21
11.3998704614
  0
LWPOLYLINE
  5
290
100
AcDbEntity
  8
0
100
AcDbPolyline
 62
7
  6
CONTINUOUS
 90
3
 70
0
 43
0.3500000006
 10
45.1071423798
 20
-2.7857144852
 10
44.2499999084
 20
-1.9285708809
 10
47.250000824
 20
-1.9285708809
  0
LWPOLYLINE
  5
291
100
AcDbEntity
  8
0
100
AcDbPolyline
 62
7
  6
CONTINUOUS
 90
3
 70
0
 43
0.3500000006
 10
45.1071423798
 20
1.0714289017
 10
44.2499999084
 20
1.928571373
 10
47.250000824
 20
1.928571373
  0
LINE
  5
292
100
AcDbEntity
  8
RACCORDO
100
AcDbLine
 62
250
  6
CONTINUOUS
 10
37.0
 20
-75.5
 11
36.9999321447
 21
-75.2368092286
  0
LINE
  5
293
100
AcDbEntity
  8
RACCORDO
100
AcDbLine
 62
250
  6
CONTINUOUS
 10
37.0
 20
75.5
 11
37.0
 21
75.2368093679
  0
LINE
  5
294
100
AcDbEntity
  8
RACCORDO
100
AcDbLine
 62
250
  6
CONTINUOUS
 10
39.062921579
 20
-35.5000014187
 11
39.062921579
 21
35.5000014128
  0
LINE
  5
295
100
AcDbEntity
  8
RACCORDO
100
AcDbLine
 62
250
  6
CONTINUOUS
 10
39.7278543933
 20
-35.500002839
 11
39.7278543933
 21
35.500002833
  0
LINE
  5
296
100
AcDbEntity
  8
0
100
AcDbLine
 62
7
  6
CONTINUOUS
 10
40.0
 20
72.5
 11
40.0
 21
-72.5
  0
LINE
  5
297
100
AcDbEntity
  8
RACCORDO
100
AcDbLine
 62
250
  6
CONTINUOUS
 10
-39.7278543933
 20
35.5000028329
 11
-24.2535132686
 21
35.4999791554
  0
LINE
  5
298
100
AcDbEntity
  8
RACCORDO
100
AcDbLine
 62
250
  6
CONTINUOUS
 10
24.2535132686
 20
35.4999791554
 11
39.7278543933
 21
35.500002833
  0
LWPOLYLINE
  5
299
100
AcDbEntity
  8
0
100
AcDbPolyline
 62
7
  6
CONTINUOUS
 90
8
 70
0
 43
0.3500000006
 10
47.250000824
 20
-1.0714295425
 10
47.250000824
 20
-0.2142848053
 10
46.8214273224
 20
0.2142864304
 10
45.9642848511
 20
0.2142864304
 10
45.5357158813
 20
-0.2142848053
 10
45.5357158813
 20
-1.0714295425
 10
44.2499999084
 20
-1.0714295425
 10
44.2499999084
 20
0.2142864304
  0
LINE
  5
29A
100
AcDbEntity
  8
RACCORDO
100
AcDbLine
 62
7
  6
CONTINUOUS
 10
-3.539931762
 20
-75.413700599
 11
-3.635045565
 21
-75.4744820414
  0
LINE
  5
29B
100
AcDbEntity
  8
0
100
AcDbLine
 62
250
  6
CONTINUOUS
 10
22.55
 20
57.75
 11
22.6538626693
 21
57.75
  0
LINE
  5
29C
100
AcDbEntity
  8
0
100
AcDbLine
 62
250
  6
CONTINUOUS
 10
-22.55
 20
57.75
 11
-22.6538626693
 21
57.75
  0
LINE
  5
29D
100
AcDbEntity
  8
RACCORDO
100
AcDbLine
 62
250
  6
CONTINUOUS
 10
22.6538626693
 20
57.75
 11
24.2603442864
 21
57.7499999075
  0
LINE
  5
29E
100
AcDbEntity
  8
RACCORDO
100
AcDbLine
 62
250
  6
CONTINUOUS
 10
-22.6538626693
 20
57.75
 11
-24.2603442858
 21
57.7499995593
  0
LINE
  5
29F
100
AcDbEntity
  8
0
100
AcDbLine
 62
7
  6
CONTINUOUS
 10
22.25
 20
58.05
 11
-22.25
 21
58.05
  0
LINE
  5
2A0
100
AcDbEntity
  8
0
100
AcDbLine
 62
250
  6
CONTINUOUS
 10
22.25
 20
58.1538626693
 11
-22.25
 21
58.1538626693
  0
LINE
  5
2A1
100
AcDbEntity
  8
RACCORDO
100
AcDbLine
 62
250
  6
CONTINUOUS
 10
11.7498613503
 20
59.7537950195
 11
-11.7498613503
 21
59.7537950195
  0
LINE
  5
2A2
100
AcDbEntity
  8
RACCORDO
100
AcDbLine
 62
250
  6
CONTINUOUS
 10
11.7499306751
 20
61.3576119267
 11
-11.7499306751
 21
61.3576119267
  0
LINE
  5
2A3
100
AcDbEntity
  8
RACCORDO
100
AcDbLine
 62
7
  6
CONTINUOUS
 10
-3.539931762
 20
75.413700599
 11
-3.635045565
 21
75.4744820414
  0
LWPOLYLINE
  5
2A4
100
AcDbEntity
  8
0
100
AcDbPolyline
 62
7
  6
CONTINUOUS
 90
13
 70
0
 43
0.3500000006
 10
-1.9285714102
 20
85.9642831421
 10
-2.2142856617
 20
86.178567627
 10
-2.2142856617
 20
86.8214301453
 10
-1.9285714102
 20
87.249999115
 10
-1.2857142735
 20
87.249999115
 10
-1.0000000219
 20
86.8214301453
 10
-1.0000000219
 20
86.178567627
 10
-1.2857142735
 20
85.9642831421
 10
-0.8571428254
 20
85.5357141724
 10
-0.8571428254
 20
84.6785671692
 10
-1.2857142735
 20
84.2499981995
 10
-1.9285714102
 20
84.2499981995
 10
-2.3571427875
 20
84.6785671692
  0
LINE
  5
2A5
100
AcDbEntity
  8
RACCORDO
100
AcDbLine
 62
250
  6
CONTINUOUS
 10
40.0
 20
72.5
 11
39.7359525724
 21
72.4999313674
  0
LINE
  5
2A6
100
AcDbEntity
  8
RACCORDO
100
AcDbLine
 62
250
  6
CONTINUOUS
 10
-40.0
 20
72.5
 11
-39.7359527728
 21
72.5
  0
LINE
  5
2A7
100
AcDbEntity
  8
RACCORDO
100
AcDbLine
 62
250
  6
CONTINUOUS
 10
11.7500137403
 20
74.5628707566
 11
-11.7500137403
 21
74.5628707566
  0
LINE
  5
2A8
100
AcDbEntity
  8
RACCORDO
100
AcDbLine
 62
250
  6
CONTINUOUS
 10
11.7500274807
 20
75.2278567606
 11
-11.7500274807
 21
75.2278567606
  0
LINE
  5
2A9
100
AcDbEntity
  8
RACCORDO
100
AcDbLine
 62
7
  6
CONTINUOUS
 10
3.041834413
 20
75.3881826404
 11
-3.041834413
 21
75.3881826404
  0
LINE
  5
2AA
100
AcDbEntity
  8
RACCORDO
100
AcDbLine
 62
7
  6
CONTINUOUS
 10
-37.0
 20
75.5
 11
-4.1331429141
 21
75.5
  0
LINE
  5
2AB
100
AcDbEntity
  8
RACCORDO
100
AcDbLine
 62
7
  6
CONTINUOUS
 10
4.1331429141
 20
75.5
 11
37.0
 21
75.5
  0
LINE
  5
2AC
100
AcDbEntity
  8
RACCORDO
100
AcDbLine
 62
7
  6
CONTINUOUS
 10
-65.7192411642
 20
-75.5
 11
-70.595638217
 21
-75.2273670786
  0
LINE
  5
2AD
100
AcDbEntity
  8
SUPERFICI
100
AcDbLine
 62
7
  6
CONTINUOUS
 10
-65.7192411642
 20
-75.5
 11
-70.4267504988
 21
-75.2368093679
  0
LWPOLYLINE
  5
2AE
100
AcDbEntity
  8
0
100
AcDbPolyline
 62
7
  6
CONTINUOUS
 90
5
 70
0
 43
0.3500000006
 10
-68.5478139038
 20
85.9642831421
 10
-68.1906715851
 20
86.178567627
 10
-68.1906715851
 20
86.8214301453
 10
-68.5478139038
 20
87.249999115
 10
-69.4049563751
 20
87.249999115
  0
LINE
  5
2AF
100
AcDbEntity
  8
RACCORDO
100
AcDbLine
 62
250
  6
CONTINUOUS
 10
-65.7192411642
 20
-72.5
 11
-70.4420718251
 21
-72.5
  0
LWPOLYLINE
  5
2B0
100
AcDbEntity
  8
0
100
AcDbPolyline
 62
7
  6
CONTINUOUS
 90
10
 70
0
 43
0.3500000006
 10
-73.0478107452
 20
84.2499981995
 10
-72.1906682739
 20
85.1071452026
 10
-71.9763837891
 20
85.9642831421
 10
-71.9763837891
 20
86.8214301453
 10
-72.4049572906
 20
87.249999115
 10
-73.0478107452
 20
87.249999115
 10
-73.4763842468
 20
86.8214301453
 10
-73.4763842468
 20
85.9642831421
 10
-73.0478107452
 20
85.5357141724
 10
-72.1192416229
 20
85.5357141724
  0
LINE
  5
2B1
100
AcDbEntity
  8
RACCORDO
100
AcDbLine
 62
250
  6
CONTINUOUS
 10
-75.0192411642
 20
-57.75
 11
-74.8114216218
 21
-57.7499995593
  0
LINE
  5
2B2
100
AcDbEntity
  8
RACCORDO
100
AcDbLine
 62
7
  6
CONTINUOUS
 10
-74.8110464903
 20
59.7608456673
 11
-74.8128392576
 21
59.7584999206
  0
LINE
  5
2B3
100
AcDbEntity
  8
RACCORDO
100
AcDbLine
 62
7
  6
CONTINUOUS
 10
-74.8128392576
 20
-59.7584999206
 11
-74.8112675953
 21
-59.7605556963
  0
LINE
  5
2B4
100
AcDbEntity
  8
RACCORDO
100
AcDbLine
 62
7
  6
CONTINUOUS
 10
-74.7622624721
 20
59.8276581459
 11
-74.7763892229
 21
59.8079323638
  0
LINE
  5
2B5
100
AcDbEntity
  8
RACCORDO
100
AcDbLine
 62
7
  6
CONTINUOUS
 10
-74.7763892229
 20
59.8079323638
 11
-74.7869779588
 21
59.7933647865
  0
LINE
  5
2B6
100
AcDbEntity
  8
RACCORDO
100
AcDbLine
 62
7
  6
CONTINUOUS
 10
-74.7869779588
 20
59.7933647865
 11
-74.7970653697
 21
59.7796559335
  0
LINE
  5
2B7
100
AcDbEntity
  8
RACCORDO
100
AcDbLine
 62
7
  6
CONTINUOUS
 10
-74.7970653697
 20
59.7796559335
 11
-74.8059557382
 21
59.7677075551
  0
LINE
  5
2B8
100
AcDbEntity
  8
RACCORDO
100
AcDbLine
 62
7
  6
CONTINUOUS
 10
-74.8059557382
 20
59.7677075551
 11
-74.8145346611
 21
59.7562941699
  0
LINE
  5
2B9
100
AcDbEntity
  8
RACCORDO
100
AcDbLine
 62
7
  6
CONTINUOUS
 10
-74.8118248238
 20
59.7598842171
 11
-74.8188076238
 21
59.7506515583
  0
LINE
  5
2BA
100
AcDbEntity
  8
RACCORDO
100
AcDbLine
 62
250
  6
CONTINUOUS
 10
-74.816637537
 20
-35.4999791554
 11
-70.5869219533
 21
-35.500002839
  0
LINE
  5
2BB
100
AcDbEntity
  8
RACCORDO
100
AcDbLine
 62
7
  6
CONTINUOUS
 10
-74.8188188039
 20
-59.7506368323
 11
-74.8094831119
 21
-59.7630010354
  0
LINE
  5
2BC
100
AcDbEntity
  8
RACCORDO
100
AcDbLine
 62
7
  6
CONTINUOUS
 10
-74.8094831119
 20
-59.7630010354
 11
-74.8018125939
 21
-59.7732604252
  0
LINE
  5
2BD
100
AcDbEntity
  8
RACCORDO
100
AcDbLine
 62
7
  6
CONTINUOUS
 10
-74.8018125939
 20
-59.7732604252
 11
-74.7946591708
 21
-59.7829112277
  0
LINE
  5
2BE
100
AcDbEntity
  8
RACCORDO
100
AcDbLine
 62
7
  6
CONTINUOUS
 10
-74.7946591708
 20
-59.7829112277
 11
-74.7874153653
 21
-59.7927669792
  0
LINE
  5
2BF
100
AcDbEntity
  8
RACCORDO
100
AcDbLine
 62
7
  6
CONTINUOUS
 10
-74.7874153653
 20
-59.7927669792
 11
-74.7768310855
 21
-59.8073207942
  0
LWPOLYLINE
  5
2C0
100
AcDbEntity
  8
RACCORDO
100
AcDbPolyline
 62
7
  6
CONTINUOUS
 90
70
 70
0
 10
-74.7768310855
 20
-59.8073207942
 10
-74.7627146109
 20
-59.8270215704
 10
-74.7543957143
 20
-59.83879071
 10
-74.7453327951
 20
-59.8517504806
 10
-74.7359426414
 20
-59.8653334348
 10
-74.726325804
 20
-59.8794120014
 10
-74.7164001536
 20
-59.8941251425
 10
-74.7062969116
 20
-59.9092969653
 10
-74.6960447754
 20
-59.9248995131
 10
-74.68563019
 20
-59.9409690863
 10
-74.6751165073
 20
-59.957422989
 10
-74.6645125631
 20
-59.974260982
 10
-74.6538229324
 20
-59.9914897951
 10
-74.6431016112
 20
-60.0090351304
 10
-74.6323531233
 20
-60.026900907
 10
-74.6215841233
 20
-60.0450876758
 10
-74.6108486471
 20
-60.0635140333
 10
-74.6001625205
 20
-60.0821603401
 10
-74.5895177431
 20
-60.1010482389
 10
-74.578930466
 20
-60.1201568902
 10
-74.5684077125
 20
-60.1394808817
 10
-74.5579498257
 20
-60.1590269997
 10
-74.5475624487
 20
-60.1787923392
 10
-74.5372491308
 20
-60.1987778676
 10
-74.5270138693
 20
-60.2189837277
 10
-74.5168628528
 20
-60.2394056204
 10
-74.5067998489
 20
-60.260043922
 10
-74.4968286425
 20
-60.280899006
 10
-74.4869552842
 20
-60.3019663981
 10
-74.477183516
 20
-60.3232463397
 10
-74.4675171388
 20
-60.3447389731
 10
-74.457962116
 20
-60.3664395042
 10
-74.4485221691
 20
-60.3883479939
 10
-74.4392010795
 20
-60.4104643883
 10
-74.4300047094
 20
-60.4327835479
 10
-74.4209367866
 20
-60.455305243
 10
-74.4120010128
 20
-60.4780293248
 10
-74.4032030106
 20
-60.5009506057
 10
-74.3945465137
 20
-60.524068526
 10
-74.386035126
 20
-60.547382881
 10
-74.3776740824
 20
-60.5708888558
 10
-74.3694669677
 20
-60.5945860012
 10
-74.3614174538
 20
-60.6184736275
 10
-74.3535307103
 20
-60.6425464046
 10
-74.3458102934
 20
-60.666803598
 10
-74.3382597763
 20
-60.6912444202
 10
-74.3308841414
 20
-60.7158633084
 10
-74.3236868712
 20
-60.7406593353
 10
-74.3166714601
 20
-60.7656315254
 10
-74.309842685
 20
-60.7907740947
 10
-74.3032039405
 20
-60.8160859286
 10
-74.2967586305
 20
-60.841565862
 10
-74.2905113114
 20
-60.8672078921
 10
-74.2844652775
 20
-60.8930107192
 10
-74.2786238287
 20
-60.9189729921
 10
-74.2729912862
 20
-60.9450884943
 10
-74.2675708307
 20
-60.9713557444
 10
-74.2623656453
 20
-60.9977732101
 10
-74.2573798012
 20
-61.0243344676
 10
-74.2526163527
 20
-61.0510378593
 10
-74.2480783534
 20
-61.077881677
 10
-74.2437696095
 20
-61.1048592985
 10
-74.2396930368
 20
-61.1319688956
 10
-74.2358515472
 20
-61.1592085908
 10
-74.2322486673
 20
-61.1865715737
 10
-74.2288871627
 20
-61.2140558529
 10
-74.2257697912
 20
-61.2416593889
 10
-74.2228997866
 20
-61.2693751945
 10
-74.2202797525
 20
-61.297201123
 10
-74.2179122812
 20
-61.3251349817
  0
LWPOLYLINE
  5
2C1
100
AcDbEntity
  8
SUPERFICI
100
AcDbPolyline
 62
7
  6
CONTINUOUS
 90
16
 70
0
 10
-71.817602063
 20
73.6058614169
 10
-71.8938339252
 20
73.3771043077
 10
-71.9683914879
 20
73.1490674774
 10
-72.0413419242
 20
72.9216592784
 10
-72.1126960502
 20
72.6949562701
 10
-72.1824842958
 20
72.4689716819
 10
-72.2507976806
 20
72.2435128287
 10
-72.3176443023
 20
72.0186489305
 10
-72.3830501089
 20
71.7943884571
 10
-72.4471248232
 20
71.5704406246
 10
-72.5098765781
 20
71.3468533442
 10
-72.5713216924
 20
71.1236447546
 10
-72.6315723525
 20
70.9004723559
 10
-72.6906713761
 20
70.6772276542
 10
-72.7485885988
 20
70.4540746442
 10
-72.8053220451
 20
70.2310760714
  0
LWPOLYLINE
  5
2C2
100
AcDbEntity
  8
0
100
AcDbPolyline
 62
7
  6
CONTINUOUS
 90
3
 70
0
 43
0.3500000006
 10
-70.4049566803
 20
84.5357138672
 10
-70.4763833313
 20
84.3214293823
 10
-70.6192411652
 20
84.0357137146
  0
LWPOLYLINE
  5
2C3
100
AcDbEntity
  8
SUPERFICI
100
AcDbPolyline
 62
7
  6
CONTINUOUS
 90
4
 70
0
 10
-71.5785842033
 20
74.2960866145
 10
-71.6600105318
 20
74.065375668
 10
-71.7396663247
 20
73.8353089052
 10
-71.817602063
 20
73.6058614169
  0
LINE
  5
2C4
100
AcDbEntity
  8
SUPERFICI
100
AcDbLine
 62
7
  6
CONTINUOUS
 10
-71.4793140345
 20
74.5714838306
 11
-71.5785842033
 21
74.2960866145
  0
LWPOLYLINE
  5
2C5
100
AcDbEntity
  8
RACCORDO
100
AcDbPolyline
 62
7
  6
CONTINUOUS
 90
21
 70
0
 10
-71.4793139872
 20
-74.571483962
 10
-71.4757186339
 20
-74.5811882349
 10
-71.4525379657
 20
-74.6375101567
 10
-71.4259775365
 20
-74.692305002
 10
-71.3961379489
 20
-74.7453706223
 10
-71.3631318507
 20
-74.7965114907
 10
-71.3270834001
 20
-74.8455395441
 10
-71.288128072
 20
-74.8922744751
 10
-71.2464122157
 20
-74.9365444502
 10
-71.202092338
 20
-74.9781870053
 10
-71.1553336829
 20
-75.0170502894
 10
-71.106309806
 20
-75.0529931002
 10
-71.055205152
 20
-75.0858832554
 10
-71.0022078868
 20
-75.1156025758
 10
-70.9475075563
 20
-75.1420465219
 10
-70.8912946283
 20
-75.1651226387
 10
-70.8337881516
 20
-75.1847406376
 10
-70.7752297787
 20
-75.2008218127
 10
-70.7158469288
 20
-75.2133111361
 10
-70.6558500166
 20
-75.2221716661
 10
-70.5956386714
 20
-75.2273670532
  0
LINE
  5
2C6
100
AcDbEntity
  8
SUPERFICI
100
AcDbLine
 62
7
  6
CONTINUOUS
 10
-71.5531594467
 20
-74.3672251563
 11
-71.4793140284
 21
-74.5714838473
  0
LWPOLYLINE
  5
2C7
100
AcDbEntity
  8
SUPERFICI
100
AcDbPolyline
 62
7
  6
CONTINUOUS
 90
11
 70
0
 10
-72.2281503546
 20
-72.318734128
 10
-72.1664789128
 20
-72.521180671
 10
-72.1035826982
 20
-72.7241521459
 10
-72.0394547552
 20
-72.9275970069
 10
-71.9740356435
 20
-73.1316265062
 10
-71.9073042368
 20
-73.336224875
 10
-71.839250687
 20
-73.5413403775
 10
-71.7698293242
 20
-73.7470266376
 10
-71.6990188008
 20
-73.9532602354
 10
-71.6268068402
 20
-74.1599900258
 10
-71.5531594467
 20
-74.3672251563
  0
LWPOLYLINE
  5
2C8
100
AcDbEntity
  8
SUPERFICI
100
AcDbPolyline
 62
7
  6
CONTINUOUS
 90
8
 70
0
 10
-72.6284532282
 20
-70.9121335914
 10
-72.5744042074
 20
-71.1123320298
 10
-72.5193440159
 20
-71.3127421393
 10
-72.4632672638
 20
-71.5133350922
 10
-72.4061648248
 20
-71.7140950668
 10
-72.34795333
 20
-71.9152596916
 10
-72.2886170771
 20
-72.1168205103
 10
-72.2281503813
 20
-72.3187340405
  0
LWPOLYLINE
  5
2C9
100
AcDbEntity
  8
SUPERFICI
100
AcDbPolyline
 62
7
  6
CONTINUOUS
 90
3
 70
0
 10
-72.7850441933
 20
-70.3112955108
 10
-72.733769485
 20
-70.5115960181
 10
-72.6284532282
 20
-70.9121335914
  0
LINE
  5
2CA
100
AcDbEntity
  8
SUPERFICI
100
AcDbLine
 62
7
  6
CONTINUOUS
 10
-73.542238243
 20
66.7949335327
 11
-73.6108688844
 21
66.401353661
  0
LINE
  5
2CB
100
AcDbEntity
  8
SUPERFICI
100
AcDbLine
 62
7
  6
CONTINUOUS
 10
-73.4684126151
 20
67.1994052148
 11
-73.542238243
 21
66.7949335327
  0
LINE
  5
2CC
100
AcDbEntity
  8
SUPERFICI
100
AcDbLine
 62
7
  6
CONTINUOUS
 10
-73.3893265449
 20
67.613584547
 11
-73.4684126151
 21
67.1994052148
  0
LINE
  5
2CD
100
AcDbEntity
  8
SUPERFICI
100
AcDbLine
 62
7
  6
CONTINUOUS
 10
-73.3049622611
 20
68.0361772888
 11
-73.3893265449
 21
67.613584547
  0
LWPOLYLINE
  5
2CE
100
AcDbEntity
  8
SUPERFICI
100
AcDbPolyline
 62
7
  6
CONTINUOUS
 90
9
 70
0
 10
-72.8609093414
 20
70.0081366105
 10
-72.9153267579
 20
69.785404707
 10
-72.9684862989
 20
69.5633105753
 10
-73.0204016186
 20
69.341879704
 10
-73.071085247
 20
69.1211413218
 10
-73.1204584186
 20
68.9015342529
 10
-73.1685390389
 20
68.6830879829
 10
-73.2153460534
 20
68.4658258271
 10
-73.3049622611
 20
68.0361772888
  0
LINE
  5
2CF
100
AcDbEntity
  8
SUPERFICI
100
AcDbLine
 62
7
  6
CONTINUOUS
 10
-72.8053220451
 20
70.2310760714
 11
-72.8609094507
 21
70.0081361677
  0
LINE
  5
2D0
100
AcDbEntity
  8
SUPERFICI
100
AcDbLine
 62
7
  6
CONTINUOUS
 10
-72.9331400789
 20
-69.7114911081
 11
-72.7850441138
 21
-70.3112958242
  0
LINE
  5
2D1
100
AcDbEntity
  8
SUPERFICI
100
AcDbLine
 62
7
  6
CONTINUOUS
 10
-73.0269339975
 20
-69.3136879309
 11
-72.9331400789
 21
-69.7114911081
  0
LINE
  5
2D2
100
AcDbEntity
  8
SUPERFICI
100
AcDbLine
 62
7
  6
CONTINUOUS
 10
-73.1166741414
 20
-68.9185319344
 11
-73.0269339975
 21
-69.3136879309
  0
LINE
  5
2D3
100
AcDbEntity
  8
SUPERFICI
100
AcDbLine
 62
7
  6
CONTINUOUS
 10
-73.2022513982
 20
-68.5270794639
 11
-73.1166741414
 21
-68.9185319344
  0
LINE
  5
2D4
100
AcDbEntity
  8
SUPERFICI
100
AcDbLine
 62
7
  6
CONTINUOUS
 10
-73.2835878003
 20
-68.1403679148
 11
-73.2022513982
 21
-68.5270794639
  0
LINE
  5
2D5
100
AcDbEntity
  8
SUPERFICI
100
AcDbLine
 62
7
  6
CONTINUOUS
 10
-73.3606918091
 20
-67.759126722
 11
-73.2835878003
 21
-68.1403679148
  0
LINE
  5
2D6
100
AcDbEntity
  8
SUPERFICI
100
AcDbLine
 62
7
  6
CONTINUOUS
 10
-73.433533565
 20
-67.3843630278
 11
-73.3606918091
 21
-67.759126722
  0
LINE
  5
2D7
100
AcDbEntity
  8
SUPERFICI
100
AcDbLine
 62
7
  6
CONTINUOUS
 10
-73.5021193533
 20
-67.0170088151
 11
-73.433533565
 21
-67.3843630278
  0
LINE
  5
2D8
100
AcDbEntity
  8
SUPERFICI
100
AcDbLine
 62
7
  6
CONTINUOUS
 10
-73.5665076374
 20
-66.6578070944
 11
-73.5021193533
 21
-67.0170088151
  0
LINE
  5
2D9
100
AcDbEntity
  8
SUPERFICI
100
AcDbLine
 62
7
  6
CONTINUOUS
 10
-73.5971203351
 20
-66.4816652345
 11
-73.566507728
 21
-66.6578065787
  0
LINE
  5
2DA
100
AcDbEntity
  8
SUPERFICI
100
AcDbLine
 62
7
  6
CONTINUOUS
 10
-74.0595230653
 20
-63.1439894451
 11
-74.0294102211
 21
-63.4225441436
  0
LINE
  5
2DB
100
AcDbEntity
  8
SUPERFICI
100
AcDbLine
 62
7
  6
CONTINUOUS
 10
-74.0875056711
 20
-62.8712880355
 11
-74.0595230653
 21
-63.1439894451
  0
LWPOLYLINE
  5
2DC
100
AcDbEntity
  8
SUPERFICI
100
AcDbPolyline
 62
7
  6
CONTINUOUS
 90
3
 70
0
 10
-74.1254750691
 20
-62.4753699765
 10
-74.1133529863
 20
-62.6054034395
 10
-74.0875056711
 20
-62.8712880355
  0
LINE
  5
2DD
100
AcDbEntity
  8
SUPERFICI
100
AcDbLine
 62
7
  6
CONTINUOUS
 10
-74.1110334593
 20
62.6298755295
 11
-74.1342204273
 21
62.3791985543
  0
LINE
  5
2DE
100
AcDbEntity
  8
SUPERFICI
100
AcDbLine
 62
7
  6
CONTINUOUS
 10
-74.0857115264
 20
62.8892180486
 11
-74.1110334593
 21
62.6298755295
  0
LINE
  5
2DF
100
AcDbEntity
  8
SUPERFICI
100
AcDbLine
 62
7
  6
CONTINUOUS
 10
-74.0580811052
 20
63.1576610061
 11
-74.0857115264
 21
62.8892180486
  0
LINE
  5
2E0
100
AcDbEntity
  8
SUPERFICI
100
AcDbLine
 62
7
  6
CONTINUOUS
 10
-74.0279910031
 20
63.4353307119
 11
-74.0580811052
 21
63.1576610061
  0
LINE
  5
2E1
100
AcDbEntity
  8
SUPERFICI
100
AcDbLine
 62
7
  6
CONTINUOUS
 10
-73.9952987332
 20
63.7222024887
 11
-74.0279910031
 21
63.4353307119
  0
LINE
  5
2E2
100
AcDbEntity
  8
SUPERFICI
100
AcDbLine
 62
7
  6
CONTINUOUS
 10
-73.9598081764
 20
64.0185925968
 11
-73.9952987332
 21
63.7222024887
  0
LINE
  5
2E3
100
AcDbEntity
  8
SUPERFICI
100
AcDbLine
 62
7
  6
CONTINUOUS
 10
-73.92133792
 20
64.3245916411
 11
-73.9598081764
 21
64.0185925968
  0
LINE
  5
2E4
100
AcDbEntity
  8
SUPERFICI
100
AcDbLine
 62
7
  6
CONTINUOUS
 10
-73.8797442877
 20
64.639947685
 11
-73.92133792
 21
64.3245916411
  0
LINE
  5
2E5
100
AcDbEntity
  8
SUPERFICI
100
AcDbLine
 62
7
  6
CONTINUOUS
 10
-73.8346470881
 20
64.9660786781
 11
-73.8797442877
 21
64.639947685
  0
LINE
  5
2E6
100
AcDbEntity
  8
SUPERFICI
100
AcDbLine
 62
7
  6
CONTINUOUS
 10
-73.7856966838
 20
65.3038934271
 11
-73.8346470881
 21
64.9660786781
  0
LINE
  5
2E7
100
AcDbEntity
  8
SUPERFICI
100
AcDbLine
 62
7
  6
CONTINUOUS
 10
-73.732387468
 20
65.6550818033
 11
-73.7856966838
 21
65.3038934271
  0
LINE
  5
2E8
100
AcDbEntity
  8
SUPERFICI
100
AcDbLine
 62
7
  6
CONTINUOUS
 10
-73.6742185626
 20
66.0209312609
 11
-73.732387468
 21
65.6550818033
  0
LINE
  5
2E9
100
AcDbEntity
  8
SUPERFICI
100
AcDbLine
 62
7
  6
CONTINUOUS
 10
-73.6108688844
 20
66.401353661
 11
-73.6742185626
 21
66.0209312609
  0
LINE
  5
2EA
100
AcDbEntity
  8
RACCORDO
100
AcDbLine
 62
250
  6
CONTINUOUS
 10
-75.0192411642
 20
-13.25
 11
-74.216010614
 21
-13.25
  0
LINE
  5
2EB
100
AcDbEntity
  8
SUPERFICI
100
AcDbLine
 62
7
  6
CONTINUOUS
 10
-73.6552239352
 20
-66.1368576616
 11
-73.5971203351
 21
-66.4816652345
  0
LINE
  5
2EC
100
AcDbEntity
  8
SUPERFICI
100
AcDbLine
 62
7
  6
CONTINUOUS
 10
-73.7090902247
 20
-65.8036509175
 11
-73.6552240241
 21
-66.1368571225
  0
LINE
  5
2ED
100
AcDbEntity
  8
SUPERFICI
100
AcDbLine
 62
7
  6
CONTINUOUS
 10
-73.7590572202
 20
-65.4814232186
 11
-73.7090901366
 21
-65.8036514741
  0
LINE
  5
2EE
100
AcDbEntity
  8
SUPERFICI
100
AcDbLine
 62
7
  6
CONTINUOUS
 10
-73.8054410041
 20
-65.1695193744
 11
-73.7590571327
 21
-65.4814237951
  0
LINE
  5
2EF
100
AcDbEntity
  8
SUPERFICI
100
AcDbLine
 62
7
  6
CONTINUOUS
 10
-73.8486846542
 20
-64.8661913386
 11
-73.8054410041
 21
-65.1695193744
  0
LINE
  5
2F0
100
AcDbEntity
  8
SUPERFICI
100
AcDbLine
 62
7
  6
CONTINUOUS
 10
-73.8891881403
 20
-64.5696450604
 11
-73.8486845673
 21
-64.8661919615
  0
LINE
  5
2F1
100
AcDbEntity
  8
SUPERFICI
100
AcDbLine
 62
7
  6
CONTINUOUS
 10
-73.9272380346
 20
-64.2786055854
 11
-73.8891881403
 21
-64.5696450604
  0
LINE
  5
2F2
100
AcDbEntity
  8
SUPERFICI
100
AcDbLine
 62
7
  6
CONTINUOUS
 10
-73.9632205553
 20
-63.9907150472
 11
-73.9272379484
 21
-64.2786062599
  0
LINE
  5
2F3
100
AcDbEntity
  8
SUPERFICI
100
AcDbLine
 62
7
  6
CONTINUOUS
 10
-73.9972709839
 20
-63.705293078
 11
-73.9632205553
 21
-63.9907150472
  0
LINE
  5
2F4
100
AcDbEntity
  8
SUPERFICI
100
AcDbLine
 62
7
  6
CONTINUOUS
 10
-74.0294102211
 20
-63.4225441436
 11
-73.9972709839
 21
-63.705293078
  0
LINE
  5
2F5
100
AcDbEntity
  8
SUPERFICI
100
AcDbLine
 62
7
  6
CONTINUOUS
 10
-74.1480928672
 20
-62.2222134371
 11
-74.1254750691
 21
-62.4753699765
  0
LINE
  5
2F6
100
AcDbEntity
  8
SUPERFICI
100
AcDbLine
 62
7
  6
CONTINUOUS
 10
-74.1685137163
 20
-61.9799892639
 11
-74.1480928672
 21
-62.2222134371
  0
LINE
  5
2F7
100
AcDbEntity
  8
SUPERFICI
100
AcDbLine
 62
7
  6
CONTINUOUS
 10
-74.1864871072
 20
-61.7539673025
 11
-74.1685137163
 21
-61.9799892639
  0
LINE
  5
2F8
100
AcDbEntity
  8
RACCORDO
100
AcDbLine
 62
7
  6
CONTINUOUS
 10
-74.2179122812
 20
-61.3251349817
 11
-74.2155084072
 21
-61.3573469977
  0
LWPOLYLINE
  5
2F9
100
AcDbEntity
  8
SUPERFICI
100
AcDbPolyline
 62
7
  6
CONTINUOUS
 90
3
 70
0
 10
-74.2155063086
 20
-61.3573769854
 10
-74.2087845848
 20
-61.4531877706
 10
-74.1864871072
 20
-61.7539673025
  0
LINE
  5
2FA
100
AcDbEntity
  8
RACCORDO
100
AcDbLine
 62
7
  6
CONTINUOUS
 10
-74.2158003009
 20
-61.3531696191
 11
-74.2155081158
 21
-61.3573483226
  0
LINE
  5
2FB
100
AcDbEntity
  8
0
100
AcDbLine
 62
7
  6
CONTINUOUS
 10
-75.0192411642
 20
-59.1500573674
 11
-75.0192411642
 21
-11.8499426326
  0
LINE
  5
2FC
100
AcDbEntity
  8
0
100
AcDbLine
 62
7
  6
CONTINUOUS
 10
-75.0192411642
 20
11.8499426326
 11
-75.0192411642
 21
59.1500573674
  0
LINE
  5
2FD
100
AcDbEntity
  8
RACCORDO
100
AcDbLine
 62
250
  6
CONTINUOUS
 10
-74.8427813545
 20
-11.3998704614
 11
-74.8427813545
 21
-11.2826847062
  0
LINE
  5
2FE
100
AcDbEntity
  8
RACCORDO
100
AcDbLine
 62
250
  6
CONTINUOUS
 10
-74.8427813545
 20
11.2826847062
 11
-74.8427813545
 21
11.3998704614
  0
LINE
  5
2FF
100
AcDbEntity
  8
RACCORDO
100
AcDbLine
 62
250
  6
CONTINUOUS
 10
-74.816637537
 20
-35.4999791554
 11
-74.816637537
 21
-13.2499924022
  0
LINE
  5
300
100
AcDbEntity
  8
RACCORDO
100
AcDbLine
 62
250
  6
CONTINUOUS
 10
-74.816637537
 20
13.2499783485
 11
-74.816637537
 21
35.4999791554
  0
LWPOLYLINE
  5
301
100
AcDbEntity
  8
RACCORDO
100
AcDbPolyline
 62
7
  6
CONTINUOUS
 90
71
 70
0
 10
-74.2155084072
 20
61.3573469977
 10
-74.2157975688
 20
61.3532111277
 10
-74.2179076566
 20
61.3251952132
 10
-74.2202729112
 20
61.2972797676
 10
-74.2228904135
 20
61.2694719484
 10
-74.2257575804
 20
61.2417739446
 10
-74.2288718181
 20
61.2141878993
 10
-74.2322299011
 20
61.1867208063
 10
-74.2358290808
 20
61.1593747018
 10
-74.239666601
 20
61.1321515742
 10
-74.2437389429
 20
61.105058241
 10
-74.2480432039
 20
61.0780965771
 10
-74.252576477
 20
61.0512684082
 10
-74.2573349635
 20
61.024580364
 10
-74.2623156188
 20
60.9980341506
 10
-74.2675153969
 20
60.9716314235
 10
-74.2729302338
 20
60.9453786148
 10
-74.2785569549
 20
60.9192772549
 10
-74.2843923879
 20
60.8933288237
 10
-74.290432218
 20
60.8675395463
 10
-74.2966731534
 20
60.8419107725
 10
-74.3031119079
 20
60.816443801
 10
-74.309743931
 20
60.7911446433
 10
-74.3165658266
 20
60.7660144639
 10
-74.3235742077
 20
60.7410543766
 10
-74.3307643031
 20
60.7162701746
 10
-74.3381326254
 20
60.6916628329
 10
-74.3456756996
 20
60.6672332784
 10
-74.3533885482
 20
60.6429870836
 10
-74.3612676051
 20
60.6189250355
 10
-74.3693093209
 20
60.5950478688
 10
-74.37750853
 20
60.5713609243
 10
-74.3858615666
 20
60.5478648934
 10
-74.3943648529
 20
60.524560224
 10
-74.403013159
 20
60.5014517374
 10
-74.4118028876
 20
60.4785396382
 10
-74.4207303109
 20
60.4558244872
 10
-74.4297898107
 20
60.4333114802
 10
-74.4389776921
 20
60.4110007638
 10
-74.4482902323
 20
60.3888925715
 10
-74.4577215691
 20
60.3669920596
 10
-74.4672679262
 20
60.3452992834
 10
-74.4769255876
 20
60.3238141823
 10
-74.4866885896
 20
60.3025415666
 10
-74.4965531361
 20
60.2814812953
 10
-74.50651549
 20
60.2606331275
 10
-74.5165696004
 20
60.2400015517
 10
-74.5267116865
 20
60.2195861963
 10
-74.5369379854
 20
60.1993866852
 10
-74.547242309
 20
60.1794073291
 10
-74.5576206674
 20
60.1596479802
 10
-74.5680695121
 20
60.1401076786
 10
-74.5785831886
 20
60.12078936
 10
-74.5891611698
 20
60.1016865717
 10
-74.5997966183
 20
60.082804392
 10
-74.6104739478
 20
60.0641627012
 10
-74.6212013583
 20
60.0457395591
 10
-74.6319628758
 20
60.0275549318
 10
-74.6427045296
 20
60.009690214
 10
-74.6534197383
 20
59.9921447882
 10
-74.6641039506
 20
59.9749148318
 10
-74.6747030802
 20
59.9580748767
 10
-74.685212753
 20
59.9416179159
 10
-74.6956239671
 20
59.9255444923
 10
-74.7058727037
 20
59.9099383921
 10
-74.7159724656
 20
59.8947633647
 10
-74.7258945946
 20
59.880047314
 10
-74.7355073031
 20
59.8659670471
 10
-74.7448911425
 20
59.8523857599
 10
-74.7539470779
 20
59.8394288291
 10
-74.7622624721
 20
59.8276581459
  0
LINE
  5
302
100
AcDbEntity
  8
SUPERFICI
100
AcDbLine
 62
7
  6
CONTINUOUS
 10
-74.1997984914
 20
61.5774056443
 11
-74.2155062948
 21
61.3573771853
  0
LINE
  5
303
100
AcDbEntity
  8
SUPERFICI
100
AcDbLine
 62
7
  6
CONTINUOUS
 10
-74.1835262506
 20
61.792124999
 11
-74.1997984914
 21
61.5774056443
  0
LINE
  5
304
100
AcDbEntity
  8
SUPERFICI
100
AcDbLine
 62
7
  6
CONTINUOUS
 10
-74.1652917328
 20
62.0191697696
 11
-74.1835262506
 21
61.792124999
  0
LWPOLYLINE
  5
305
100
AcDbEntity
  8
SUPERFICI
100
AcDbPolyline
 62
7
  6
CONTINUOUS
 90
3
 70
0
 10
-74.1342204273
 20
62.3791985543
 10
-74.1450490537
 20
62.2571482904
 10
-74.1652917328
 20
62.0191697696
  0
LINE
  5
306
100
AcDbEntity
  8
RACCORDO
100
AcDbLine
 62
7
  6
CONTINUOUS
 10
-74.3134019251
 20
9.7994637503
 11
-74.3134019251
 21
-9.7994636234
  0
LINE
  5
307
100
AcDbEntity
  8
RACCORDO
100
AcDbLine
 62
250
  6
CONTINUOUS
 10
-74.216010614
 20
-35.4999895777
 11
-74.216010614
 21
-13.25
  0
LINE
  5
308
100
AcDbEntity
  8
RACCORDO
100
AcDbLine
 62
250
  6
CONTINUOUS
 10
-74.216010614
 20
13.25
 11
-74.216010614
 21
35.4999895777
  0
LINE
  5
309
100
AcDbEntity
  8
RACCORDO
100
AcDbLine
 62
250
  6
CONTINUOUS
 10
-71.4738477355
 20
-35.5000014187
 11
-71.4738477355
 21
35.5000014128
  0
LINE
  5
30A
100
AcDbEntity
  8
RACCORDO
100
AcDbLine
 62
250
  6
CONTINUOUS
 10
-70.5869219533
 20
-35.500002839
 11
-70.5869219533
 21
35.500002833
  0
LINE
  5
30B
100
AcDbEntity
  8
0
100
AcDbLine
 62
7
  6
CONTINUOUS
 10
-65.7192411642
 20
72.5
 11
-65.7192411642
 21
-72.5
  0
LINE
  5
30C
100
AcDbEntity
  8
SUPERFICI
100
AcDbLine
 62
7
  6
CONTINUOUS
 10
-65.7192411642
 20
-75.5
 11
-65.7192411642
 21
-72.5
  0
LINE
  5
30D
100
AcDbEntity
  8
SUPERFICI
100
AcDbLine
 62
7
  6
CONTINUOUS
 10
-65.7192411642
 20
72.5
 11
-65.7192411642
 21
75.5
  0
LINE
  5
30E
100
AcDbEntity
  8
RACCORDO
100
AcDbLine
 62
250
  6
CONTINUOUS
 10
-75.0192411642
 20
13.25
 11
-74.216010614
 21
13.25
  0
LINE
  5
30F
100
AcDbEntity
  8
RACCORDO
100
AcDbLine
 62
250
  6
CONTINUOUS
 10
-70.5869219533
 20
35.500002833
 11
-74.816637537
 21
35.4999791554
  0
LWPOLYLINE
  5
310
100
AcDbEntity
  8
0
100
AcDbPolyline
 62
7
  6
CONTINUOUS
 90
10
 70
0
 43
0.3500000006
 10
-70.4763833313
 20
84.7499983521
 10
-70.4049566803
 20
84.60714505
 10
-70.4049566803
 20
84.5357138672
 10
-70.5478145142
 20
84.3928605652
 10
-70.6192411652
 20
84.3928605652
 10
-70.6906678162
 20
84.4642826843
 10
-70.6906678162
 20
84.5357138672
 10
-70.6192411652
 20
84.6785671692
 10
-70.5478145142
 20
84.7499983521
 10
-70.4763833313
 20
84.7499983521
  0
LINE
  5
311
100
AcDbEntity
  8
RACCORDO
100
AcDbLine
 62
250
  6
CONTINUOUS
 10
-75.0192411642
 20
57.75
 11
-74.8114216213
 21
57.7499999075
  0
LWPOLYLINE
  5
312
100
AcDbEntity
  8
RACCORDO
100
AcDbPolyline
 62
7
  6
CONTINUOUS
 90
21
 70
0
 10
-70.5956384934
 20
75.2273670631
 10
-70.6539879646
 20
75.2223874225
 10
-70.7124705235
 20
75.2139089388
 10
-70.7706948037
 20
75.201909086
 10
-70.8285430513
 20
75.1863380978
 10
-70.8856874979
 20
75.1672086157
 10
-70.9416112942
 20
75.1446563213
 10
-70.9959907304
 20
75.118817122
 10
-71.0487498665
 20
75.089732611
 10
-71.0997612671
 20
75.0574566888
 10
-71.1488456199
 20
75.0220746761
 10
-71.1957907779
 20
74.9837101283
 10
-71.2404194077
 20
74.9424783363
 10
-71.2825543777
 20
74.8985093394
 10
-71.3220174333
 20
74.8519533915
 10
-71.3586400217
 20
74.8029725948
 10
-71.3922655538
 20
74.7517377061
 10
-71.4227493128
 20
74.6984269355
 10
-71.4499560062
 20
74.6432297112
 10
-71.4737615556
 20
74.5863446884
 10
-71.4793139823
 20
74.5714839738
  0
LINE
  5
313
100
AcDbEntity
  8
RACCORDO
100
AcDbLine
 62
7
  6
CONTINUOUS
 10
-65.7192411642
 20
75.5
 11
-70.595638217
 21
75.2273670786
  0
LINE
  5
314
100
AcDbEntity
  8
RACCORDO
100
AcDbLine
 62
250
  6
CONTINUOUS
 10
-65.7192411642
 20
72.5
 11
-70.442075409
 21
72.4999313674
  0
LWPOLYLINE
  5
315
100
AcDbEntity
  8
0
100
AcDbPolyline
 62
7
  6
CONTINUOUS
 90
6
 70
0
 43
0.3500000006
 10
-69.4049563751
 20
84.2499981995
 10
-68.3335248871
 20
84.2499981995
 10
-68.1192404022
 20
84.4642826843
 10
-68.1192404022
 20
85.5357141724
 10
-68.5478139038
 20
85.9642831421
 10
-68.9763828735
 20
85.9642831421
  0
ARC
  5
316
100
AcDbEntity
  8
RACCORDO
100
AcDbCircle
 62
250
  6
CONTINUOUS
 10
-378.7309920046
 20
-64.7815447741
 40
356.5163832991
100
AcDbArc
 50
0.5535334445
 51
0.8073274157
  0
ARC
  5
317
100
AcDbEntity
  8
RACCORDO
100
AcDbCircle
 62
250
  6
CONTINUOUS
 10
-29.2568171185
 20
-349.5508746758
 40
291.8436485557
100
AcDbArc
 50
89.0190268183
 51
89.3278101461
  0
ARC
  5
318
100
AcDbEntity
  8
RACCORDO
100
AcDbCircle
 62
250
  6
CONTINUOUS
 10
-22.25
 20
-13.25
 40
3.6690890731
100
AcDbArc
 50
90.0
 51
109.8754150651
  0
ARC
  5
319
100
AcDbEntity
  8
SUPERFICI
100
AcDbCircle
 62
7
  6
CONTINUOUS
 10
-37.0
 20
-72.5
 40
3.0
100
AcDbArc
 50
180.0
 51
270.0
  0
ARC
  5
31A
100
AcDbEntity
  8
RACCORDO
100
AcDbCircle
 62
250
  6
CONTINUOUS
 10
-37.0034072798
 20
-72.5041916986
 40
2.7326082237
100
AcDbArc
 50
179.9106698087
 51
270.0714416265
  0
ARC
  5
31B
100
AcDbEntity
  8
RACCORDO
100
AcDbCircle
 62
250
  6
CONTINUOUS
 10
-22.25
 20
-13.25
 40
1.9673152938
100
AcDbArc
 50
90.0
 51
109.8754866725
  0
ARC
  5
31C
100
AcDbEntity
  8
0
100
AcDbCircle
 62
250
  6
CONTINUOUS
 10
-22.25
 20
-57.75
 40
0.4038626693
100
AcDbArc
 50
180.0
 51
270.0
  0
ARC
  5
31D
100
AcDbEntity
  8
0
100
AcDbCircle
 62
250
  6
CONTINUOUS
 10
-22.25
 20
-13.25
 40
0.4038626693
100
AcDbArc
 50
90.0
 51
180.0
  0
ARC
  5
31E
100
AcDbEntity
  8
0
100
AcDbCircle
 62
7
  6
CONTINUOUS
 10
-22.25
 20
-57.75
 40
0.3
100
AcDbArc
 50
180.0
 51
270.0
  0
ARC
  5
31F
100
AcDbEntity
  8
0
100
AcDbCircle
 62
7
  6
CONTINUOUS
 10
-22.25
 20
-13.25
 40
0.3
100
AcDbArc
 50
90.0
 51
180.0
  0
ARC
  5
320
100
AcDbEntity
  8
RACCORDO
100
AcDbCircle
 62
250
  6
CONTINUOUS
 10
-378.6889379506
 20
64.7810432794
 40
356.4743263541
100
AcDbArc
 50
359.1926579373
 51
359.4464818722
  0
ARC
  5
321
100
AcDbEntity
  8
RACCORDO
100
AcDbCircle
 62
250
  6
CONTINUOUS
 10
-29.2571360157
 20
349.5729262687
 40
291.8657023767
100
AcDbArc
 50
270.6722016752
 51
270.9809616669
  0
ARC
  5
322
100
AcDbEntity
  8
RACCORDO
100
AcDbCircle
 62
250
  6
CONTINUOUS
 10
-22.25
 20
13.25
 40
3.6690890731
100
AcDbArc
 50
250.1245918981
 51
270.0
  0
ARC
  5
323
100
AcDbEntity
  8
SUPERFICI
100
AcDbCircle
 62
7
  6
CONTINUOUS
 10
-37.0
 20
72.5
 40
3.0
100
AcDbArc
 50
90.0
 51
180.0
  0
ARC
  5
324
100
AcDbEntity
  8
RACCORDO
100
AcDbCircle
 62
250
  6
CONTINUOUS
 10
-37.0034071588
 20
72.5041917572
 40
2.7326082628
100
AcDbArc
 50
89.9271381642
 51
180.087892332
  0
ARC
  5
325
100
AcDbEntity
  8
RACCORDO
100
AcDbCircle
 62
250
  6
CONTINUOUS
 10
-22.25
 20
13.25
 40
1.9673152938
100
AcDbArc
 50
250.1245133275
 51
270.0
  0
ARC
  5
326
100
AcDbEntity
  8
0
100
AcDbCircle
 62
250
  6
CONTINUOUS
 10
-22.25
 20
13.25
 40
0.4038626693
100
AcDbArc
 50
180.0
 51
270.0
  0
ARC
  5
327
100
AcDbEntity
  8
0
100
AcDbCircle
 62
250
  6
CONTINUOUS
 10
-22.25
 20
57.75
 40
0.4038626693
100
AcDbArc
 50
90.0
 51
180.0
  0
ARC
  5
328
100
AcDbEntity
  8
0
100
AcDbCircle
 62
7
  6
CONTINUOUS
 10
-22.25
 20
13.25
 40
0.3
100
AcDbArc
 50
180.0
 51
270.0
  0
ARC
  5
329
100
AcDbEntity
  8
0
100
AcDbCircle
 62
7
  6
CONTINUOUS
 10
-22.25
 20
57.75
 40
0.3
100
AcDbArc
 50
90.0
 51
180.0
  0
ARC
  5
32A
100
AcDbEntity
  8
RACCORDO
100
AcDbCircle
 62
250
  6
CONTINUOUS
 10
378.6889379507
 20
-64.7810432794
 40
356.4743263542
100
AcDbArc
 50
179.1926579373
 51
179.4464818722
  0
ARC
  5
32B
100
AcDbEntity
  8
RACCORDO
100
AcDbCircle
 62
250
  6
CONTINUOUS
 10
29.2571360156
 20
-349.5729262679
 40
291.8657023759
100
AcDbArc
 50
90.6722016752
 51
90.9809616669
  0
ARC
  5
32C
100
AcDbEntity
  8
RACCORDO
100
AcDbCircle
 62
250
  6
CONTINUOUS
 10
22.25
 20
-13.25
 40
3.6690890731
100
AcDbArc
 50
70.1245942333
 51
90.0
  0
ARC
  5
32D
100
AcDbEntity
  8
SUPERFICI
100
AcDbCircle
 62
7
  6
CONTINUOUS
 10
37.0
 20
-72.5
 40
3.0
100
AcDbArc
 50
270.0
 51
360.0
  0
ARC
  5
32E
100
AcDbEntity
  8
RACCORDO
100
AcDbCircle
 62
250
  6
CONTINUOUS
 10
37.0034068464
 20
-72.5041914449
 40
2.7326082628
100
AcDbArc
 50
269.9271447215
 51
0.0878857733
  0
ARC
  5
32F
100
AcDbEntity
  8
RACCORDO
100
AcDbCircle
 62
250
  6
CONTINUOUS
 10
22.25
 20
-13.25
 40
1.9673152938
100
AcDbArc
 50
70.1245133275
 51
90.0
  0
ARC
  5
330
100
AcDbEntity
  8
0
100
AcDbCircle
 62
250
  6
CONTINUOUS
 10
22.25
 20
-13.25
 40
0.4038626693
100
AcDbArc
 50
0.0
 51
90.0
  0
ARC
  5
331
100
AcDbEntity
  8
0
100
AcDbCircle
 62
250
  6
CONTINUOUS
 10
22.25
 20
-57.75
 40
0.4038626693
100
AcDbArc
 50
270.0
 51
360.0
  0
ARC
  5
332
100
AcDbEntity
  8
0
100
AcDbCircle
 62
7
  6
CONTINUOUS
 10
22.25
 20
-13.25
 40
0.3
100
AcDbArc
 50
0.0
 51
90.0
  0
ARC
  5
333
100
AcDbEntity
  8
0
100
AcDbCircle
 62
7
  6
CONTINUOUS
 10
22.25
 20
-57.75
 40
0.3
100
AcDbArc
 50
270.0
 51
360.0
  0
ARC
  5
334
100
AcDbEntity
  8
RACCORDO
100
AcDbCircle
 62
250
  6
CONTINUOUS
 10
378.7309920127
 20
64.7815447742
 40
356.5163833071
100
AcDbArc
 50
180.5535334445
 51
180.8073274157
  0
ARC
  5
335
100
AcDbEntity
  8
RACCORDO
100
AcDbCircle
 62
250
  6
CONTINUOUS
 10
29.2568171187
 20
349.5508746859
 40
291.8436485658
100
AcDbArc
 50
269.0190268183
 51
269.3278101461
  0
ARC
  5
336
100
AcDbEntity
  8
RACCORDO
100
AcDbCircle
 62
250
  6
CONTINUOUS
 10
22.25
 20
13.25
 40
3.6690890731
100
AcDbArc
 50
270.0
 51
289.8754126829
  0
ARC
  5
337
100
AcDbEntity
  8
SUPERFICI
100
AcDbCircle
 62
7
  6
CONTINUOUS
 10
37.0
 20
72.5
 40
3.0
100
AcDbArc
 50
0.0
 51
90.0
  0
ARC
  5
338
100
AcDbEntity
  8
RACCORDO
100
AcDbCircle
 62
250
  6
CONTINUOUS
 10
37.0034069674
 20
72.5041913862
 40
2.7326082237
100
AcDbArc
 50
359.9106763687
 51
90.0714350678
  0
ARC
  5
339
100
AcDbEntity
  8
RACCORDO
100
AcDbCircle
 62
250
  6
CONTINUOUS
 10
22.25
 20
13.25
 40
1.9673152938
100
AcDbArc
 50
270.0
 51
289.8754866725
  0
ARC
  5
33A
100
AcDbEntity
  8
0
100
AcDbCircle
 62
250
  6
CONTINUOUS
 10
22.25
 20
57.75
 40
0.4038626693
100
AcDbArc
 50
0.0
 51
90.0
  0
ARC
  5
33B
100
AcDbEntity
  8
0
100
AcDbCircle
 62
250
  6
CONTINUOUS
 10
22.25
 20
13.25
 40
0.4038626693
100
AcDbArc
 50
270.0
 51
360.0
  0
ARC
  5
33C
100
AcDbEntity
  8
0
100
AcDbCircle
 62
7
  6
CONTINUOUS
 10
22.25
 20
57.75
 40
0.3
100
AcDbArc
 50
0.0
 51
90.0
  0
ARC
  5
33D
100
AcDbEntity
  8
0
100
AcDbCircle
 62
7
  6
CONTINUOUS
 10
22.25
 20
13.25
 40
0.3
100
AcDbArc
 50
270.0
 51
360.0
  0
ARC
  5
33E
100
AcDbEntity
  8
RACCORDO
100
AcDbCircle
 62
7
  6
CONTINUOUS
 10
-77.3134019251
 20
-9.5809109269
 40
3.0
100
AcDbArc
 50
325.4407668808
 51
360.0
  0
ARC
  5
33F
100
AcDbEntity
  8
RACCORDO
100
AcDbCircle
 62
7
  6
CONTINUOUS
 10
-77.3134019251
 20
9.5809109269
 40
3.0
100
AcDbArc
 50
0.0
 51
34.5592331192
  0
ARC
  5
340
100
AcDbEntity
  8
RACCORDO
100
AcDbCircle
 62
250
  6
CONTINUOUS
 10
-77.194253783
 20
-61.5824491531
 40
2.9996543511
100
AcDbArc
 50
4.6877639867
 51
37.4558598028
  0
ARC
  5
341
100
AcDbEntity
  8
RACCORDO
100
AcDbCircle
 62
250
  6
CONTINUOUS
 10
-77.1942522504
 20
61.5824509929
 40
2.9996542053
100
AcDbArc
 50
322.5440944995
 51
355.3121985964
  0
ARC
  5
342
100
AcDbEntity
  8
0
100
AcDbCircle
 62
7
  6
CONTINUOUS
 10
-74.0192411642
 20
59.1500573674
 40
1.0
100
AcDbArc
 50
142.5440123349
 51
180.0
  0
ARC
  5
343
100
AcDbEntity
  8
RACCORDO
100
AcDbCircle
 62
7
  6
CONTINUOUS
 10
-74.0192411642
 20
59.1500573674
 40
1.0
100
AcDbArc
 50
142.544012406
 51
180.0
  0
ARC
  5
344
100
AcDbEntity
  8
0
100
AcDbCircle
 62
7
  6
CONTINUOUS
 10
-74.0192411642
 20
11.8499426326
 40
1.0
100
AcDbArc
 50
180.0
 51
214.5592331192
  0
ARC
  5
345
100
AcDbEntity
  8
RACCORDO
100
AcDbCircle
 62
7
  6
CONTINUOUS
 10
-74.0192411642
 20
11.8499426326
 40
1.0
100
AcDbArc
 50
180.0
 51
214.5592331192
  0
ARC
  5
346
100
AcDbEntity
  8
0
100
AcDbCircle
 62
7
  6
CONTINUOUS
 10
-74.0192411642
 20
-11.8499426326
 40
1.0
100
AcDbArc
 50
145.4407668808
 51
180.0
  0
ARC
  5
347
100
AcDbEntity
  8
RACCORDO
100
AcDbCircle
 62
7
  6
CONTINUOUS
 10
-74.0192411642
 20
-11.8499426326
 40
1.0
100
AcDbArc
 50
145.4407668808
 51
180.0
  0
ARC
  5
348
100
AcDbEntity
  8
0
100
AcDbCircle
 62
7
  6
CONTINUOUS
 10
-74.0192411642
 20
-59.1500573674
 40
1.0
100
AcDbArc
 50
180.0
 51
217.4559875568
  0
ARC
  5
349
100
AcDbEntity
  8
RACCORDO
100
AcDbCircle
 62
7
  6
CONTINUOUS
 10
-74.0192411642
 20
-59.1500573674
 40
1.0
100
AcDbArc
 50
180.0
 51
217.4559875562
  0
ARC
  5
34A
100
AcDbEntity
  8
RACCORDO
100
AcDbCircle
 62
7
  6
CONTINUOUS
 10
-70.5310581083
 20
-74.2294159963
 40
1.0
100
AcDbArc
 50
263.0599223351
 51
266.8000001086
  0
ARC
  5
34B
100
AcDbEntity
  8
RACCORDO
100
AcDbCircle
 62
7
  6
CONTINUOUS
 10
-70.5310581066
 20
74.2294159964
 40
1.0
100
AcDbArc
 50
93.1999999869
 51
96.9400777613
  0
ARC
  5
34C
100
AcDbEntity
  8
RACCORDO
100
AcDbCircle
 62
250
  6
CONTINUOUS
 10
-70.370664301
 20
74.2389295336
 40
0.9994719842
100
AcDbArc
 50
93.2169454172
 51
172.2448207485
  0
ARC
  5
34D
100
AcDbEntity
  8
RACCORDO
100
AcDbCircle
 62
250
  6
CONTINUOUS
 10
-70.3706648176
 20
-74.2389272856
 40
0.9994715105
100
AcDbArc
 50
187.7553109254
 51
266.7830913403
  0
SPLINE
  5
34E
100
AcDbEntity
  8
RACCORDO
100
AcDbSpline
 62
250
  6
CONTINUOUS
 70
0
 71
3
 72
15
 73
11
 74
0
 42
0.0000001
 43
0.0000001
 44
0.0000000001
 40
0.0
 40
0.0
 40
0.0
 40
0.0
 40
0.2500002338
 40
0.5000004583
 40
0.6250005566
 40
0.7500006222
 40
0.8125006425
 40
0.8750006597
 40
0.9375006202
 40
1.0
 40
1.0
 40
1.0
 40
1.0
 10
-25.8563908699
 20
-35.5000000016
 30
0.0
 10
-25.8563705331
 20
-37.3522794582
 30
0.0
 10
-25.8569102506
 20
-41.0568382766
 30
0.0
 10
-25.8550292978
 20
-45.6875368111
 30
0.0
 10
-25.8510441655
 20
-49.3920931533
 30
0.0
 10
-25.847104118
 20
-51.7074385246
 30
0.0
 10
-25.8426746927
 20
-53.5597119143
 30
0.0
 10
-25.838046035
 20
-54.948912568
 30
0.0
 10
-25.8347112737
 20
-56.338112418
 30
0.0
 10
-25.8335595912
 20
-57.2642457839
 30
0.0
 10
-25.833007529
 20
-57.7273102911
 30
0.0
  0
SPLINE
  5
34F
100
AcDbEntity
  8
RACCORDO
100
AcDbSpline
 62
250
  6
CONTINUOUS
 70
0
 71
3
 72
34
 73
30
 74
0
 42
0.0000001
 43
0.0000001
 44
0.0000000001
 40
0.0
 40
0.0
 40
0.0
 40
0.0
 40
0.0624918006
 40
0.124981313
 40
0.1562354408
 40
0.1874881955
 40
0.2031152978
 40
0.2187415022
 40
0.2343681424
 40
0.2499953873
 40
0.265623332
 40
0.2812510847
 40
0.3125047061
 40
0.3437590669
 40
0.3750140514
 40
0.4375025721
 40
0.4999922623
 40
0.5624816898
 40
0.5937364017
 40
0.624990764
 40
0.6562459333
 40
0.6875013514
 40
0.7499890198
 40
0.7812444889
 40
0.8125000494
 40
0.8437555835
 40
0.8750109244
 40
0.9375079728
 40
1.0
 40
1.0
 40
1.0
 40
1.0
 10
-25.833007529
 20
-57.7273102911
 30
0.0
 10
-25.8328674101
 20
-57.8454137055
 30
0.0
 10
-25.8208110793
 20
-58.0817613366
 30
0.0
 10
-25.7759243149
 20
-58.3741596611
 30
0.0
 10
-25.7218308341
 20
-58.604199977
 30
0.0
 10
-25.6809144739
 20
-58.7461627853
 30
0.0
 10
-25.6433066063
 20
-58.858169438
 30
0.0
 10
-25.6121018953
 20
-58.9411044316
 30
0.0
 10
-25.5794549886
 20
-59.0234710123
 30
0.0
 10
-25.5485318621
 20
-59.1065041235
 30
0.0
 10
-25.517065664
 20
-59.1893380703
 30
0.0
 10
-25.4720203717
 20
-59.2985664041
 30
0.0
 10
-25.4100691984
 20
-59.4326969219
 30
0.0
 10
-25.3272042486
 20
-59.5894312451
 30
0.0
 10
-25.2055311242
 20
-59.7920329114
 30
0.0
 10
-25.0330872171
 20
-60.0324921527
 30
0.0
 10
-24.7962622412
 20
-60.2968837664
 30
0.0
 10
-24.5766326434
 20
-60.4951037212
 30
0.0
 10
-24.3895206031
 20
-60.6394548264
 30
0.0
 10
-24.243584299
 20
-60.7401267545
 30
0.0
 10
-24.0928061707
 20
-60.8333519795
 30
0.0
 10
-23.8864608223
 20
-60.948521029
 30
0.0
 10
-23.6710356366
 20
-61.0467250617
 30
0.0
 10
-23.4493316067
 20
-61.1284858105
 30
0.0
 10
-23.2801974363
 20
-61.1816150501
 30
0.0
 10
-23.1086710036
 20
-61.2264628294
 30
0.0
 10
-22.8774076492
 20
-61.2748933796
 30
0.0
 10
-22.585751252
 20
-61.3232777662
 30
0.0
 10
-22.3493465491
 20
-61.3363770289
 30
0.0
 10
-22.231246233
 20
-61.337300403
 30
0.0
  0
SPLINE
  5
350
100
AcDbEntity
  8
RACCORDO
100
AcDbSpline
 62
250
  6
CONTINUOUS
 70
0
 71
3
 72
11
 73
7
 74
0
 42
0.0000001
 43
0.0000001
 44
0.0000000001
 40
0.0
 40
0.0
 40
0.0
 40
0.0
 40
0.2499992093
 40
0.499999311
 40
0.7499996783
 40
1.0
 40
1.0
 40
1.0
 40
1.0
 10
-22.231246233
 20
-61.337300403
 30
0.0
 10
-21.3578355221
 20
-61.3441508454
 30
0.0
 10
-19.6109609092
 20
-61.3507056095
 30
0.0
 10
-16.9906494522
 20
-61.3565974512
 30
0.0
 10
-14.3703242177
 20
-61.3576560483
 30
0.0
 10
-12.6234414493
 20
-61.3574625484
 30
0.0
 10
-11.75
 20
-61.3576119577
 30
0.0
  0
SPLINE
  5
351
100
AcDbEntity
  8
RACCORDO
100
AcDbSpline
 62
250
  6
CONTINUOUS
 70
0
 71
3
 72
32
 73
28
 74
0
 42
0.0000001
 43
0.0000001
 44
0.0000000001
 40
0.0
 40
0.0
 40
0.0
 40
0.0
 40
0.0078092672
 40
0.0156202041
 40
0.0195261759
 40
0.0234323681
 40
0.0273385135
 40
0.0312446755
 40
0.039056978
 40
0.0468692825
 40
0.0624938547
 40
0.0781183935
 40
0.0937429035
 40
0.1249919009
 40
0.1562410058
 40
0.171865572
 40
0.187489975
 40
0.218738759
 40
0.2499881882
 40
0.3124878974
 40
0.3749877897
 40
0.4374880807
 40
0.4999888857
 40
0.6249913513
 40
0.7499942183
 40
0.8749970963
 40
1.0
 40
1.0
 40
1.0
 40
1.0
 10
-37.0373529125
 20
-74.3738010161
 30
0.0
 10
-36.9715554458
 20
-74.3758428421
 30
0.0
 10
-36.8399559742
 20
-74.3802239731
 30
0.0
 10
-36.6754654023
 20
-74.3862179917
 30
0.0
 10
-36.543884463
 20
-74.39171187
 30
0.0
 10
-36.4452310521
 20
-74.3969153441
 30
0.0
 10
-36.3464509329
 20
-74.3986224519
 30
0.0
 10
-36.2147534944
 20
-74.4001153918
 30
0.0
 10
-36.0501267651
 20
-74.4021008278
 30
0.0
 10
-35.7867303081
 20
-74.4054665644
 30
0.0
 10
-35.4574838282
 20
-74.4096580887
 30
0.0
 10
-35.0623921995
 20
-74.4149176566
 30
0.0
 10
-34.5356065384
 20
-74.4221058211
 30
0.0
 10
-33.8771290038
 20
-74.4314509313
 30
0.0
 10
-33.2186585999
 20
-74.4413175267
 30
0.0
 10
-32.6918744634
 20
-74.4486379335
 30
0.0
 10
-32.1650757652
 20
-74.454680384
 30
0.0
 10
-31.5066335398
 20
-74.4664121597
 30
0.0
 10
-30.4530986357
 20
-74.4842314364
 30
0.0
 10
-29.1360540769
 20
-74.4988510087
 30
0.0
 10
-27.5556173746
 20
-74.517826346
 30
0.0
 10
-25.9751558807
 20
-74.5357099917
 30
0.0
 10
-23.8678136502
 20
-74.5555883543
 30
0.0
 10
-21.2335341445
 20
-74.5702050846
 30
0.0
 10
-18.0723517594
 20
-74.5729818726
 30
0.0
 10
-14.911177688
 20
-74.5670015534
 30
0.0
 10
-12.8037267374
 20
-74.5629345586
 30
0.0
 10
-11.75
 20
-74.5628707424
 30
0.0
  0
SPLINE
  5
352
100
AcDbEntity
  8
RACCORDO
100
AcDbSpline
 62
250
  6
CONTINUOUS
 70
0
 71
3
 72
15
 73
11
 74
0
 42
0.0000001
 43
0.0000001
 44
0.0000000001
 40
0.0
 40
0.0
 40
0.0
 40
0.0
 40
0.1249237348
 40
0.2499025422
 40
0.3749166894
 40
0.4999447771
 40
0.6249770839
 40
0.7500054918
 40
0.8750152151
 40
1.0
 40
1.0
 40
1.0
 40
1.0
 10
-38.876126114
 20
-72.5528968235
 30
0.0
 10
-38.8719735562
 20
-72.6711875611
 30
0.0
 10
-38.8403659279
 20
-72.9076083895
 30
0.0
 10
-38.7268325544
 20
-73.2463195496
 30
0.0
 10
-38.5520545098
 20
-73.5581057631
 30
0.0
 10
-38.3223844899
 20
-73.8319951752
 30
0.0
 10
-38.045935014
 20
-74.0585943335
 30
0.0
 10
-37.7322476135
 20
-74.2300017913
 30
0.0
 10
-37.3923679744
 20
-74.3402318307
 30
0.0
 10
-37.1557172109
 20
-74.3701224513
 30
0.0
 10
-37.0373529125
 20
-74.3738010161
 30
0.0
  0
SPLINE
  5
353
100
AcDbEntity
  8
RACCORDO
100
AcDbSpline
 62
250
  6
CONTINUOUS
 70
0
 71
3
 72
15
 73
11
 74
0
 42
0.0000001
 43
0.0000001
 44
0.0000000001
 40
0.0
 40
0.0
 40
0.0
 40
0.0
 40
0.062479463
 40
0.1249766972
 40
0.1874762073
 40
0.2499773593
 40
0.3749808679
 40
0.4999845624
 40
0.7499922166
 40
1.0
 40
1.0
 40
1.0
 40
1.0
 10
-39.7359527728
 20
72.5
 30
0.0
 10
-39.7336301609
 20
71.7294234554
 30
0.0
 10
-39.733184783
 20
70.1880416895
 30
0.0
 10
-39.731238778
 20
67.8758368952
 30
0.0
 10
-39.7301793154
 20
65.5633627743
 30
0.0
 10
-39.7293679999
 20
62.4799781823
 30
0.0
 10
-39.7289795535
 20
58.625708426
 30
0.0
 10
-39.7283155041
 20
52.4588585615
 30
0.0
 10
-39.7279178863
 20
44.7502892429
 30
0.0
 10
-39.7278533343
 20
38.583432168
 30
0.0
 10
-39.7278543933
 20
35.5000028329
 30
0.0
  0
SPLINE
  5
354
100
AcDbEntity
  8
RACCORDO
100
AcDbSpline
 62
250
  6
CONTINUOUS
 70
0
 71
3
 72
15
 73
11
 74
0
 42
0.0000001
 43
0.0000001
 44
0.0000000001
 40
0.0
 40
0.0
 40
0.0
 40
0.0
 40
0.2500077827
 40
0.5000154363
 40
0.6250191304
 40
0.7500226388
 40
0.8125237909
 40
0.8750233011
 40
0.9375205352
 40
1.0
 40
1.0
 40
1.0
 40
1.0
 10
-39.7278543933
 20
-35.5000028329
 30
0.0
 10
-39.7278533343
 20
-38.5834264403
 30
0.0
 10
-39.7279178953
 20
-44.7502720598
 30
0.0
 10
-39.7283154774
 20
-52.458827059
 30
0.0
 10
-39.7289795876
 20
-58.6256654686
 30
0.0
 10
-39.729367982
 20
-62.479928069
 30
0.0
 10
-39.7301792999
 20
-65.5633069404
 30
0.0
 10
-39.7312387298
 20
-67.8757767737
 30
0.0
 10
-39.7331847951
 20
-70.1879773016
 30
0.0
 10
-39.7336299752
 20
-71.7293562301
 30
0.0
 10
-39.7359525724
 20
-72.4999313674
 30
0.0
  0
SPLINE
  5
355
100
AcDbEntity
  8
RACCORDO
100
AcDbSpline
 62
250
  6
CONTINUOUS
 70
0
 71
3
 72
32
 73
28
 74
0
 42
0.0000001
 43
0.0000001
 44
0.0000000001
 40
0.0
 40
0.0
 40
0.0
 40
0.0
 40
0.0078092672
 40
0.0156202041
 40
0.0195261759
 40
0.0234323681
 40
0.0273385135
 40
0.0312446755
 40
0.039056978
 40
0.0468692825
 40
0.0624938547
 40
0.0781183935
 40
0.0937429035
 40
0.1249919009
 40
0.1562410058
 40
0.171865572
 40
0.187489975
 40
0.218738759
 40
0.2499881882
 40
0.3124878974
 40
0.3749877897
 40
0.4374880807
 40
0.4999888857
 40
0.6249913513
 40
0.7499942183
 40
0.8749970963
 40
1.0
 40
1.0
 40
1.0
 40
1.0
 10
37.0373529125
 20
74.3738010161
 30
0.0
 10
36.9715554458
 20
74.3758428421
 30
0.0
 10
36.8399559742
 20
74.3802239731
 30
0.0
 10
36.6754654023
 20
74.3862179917
 30
0.0
 10
36.543884463
 20
74.39171187
 30
0.0
 10
36.4452310521
 20
74.3969153441
 30
0.0
 10
36.3464509329
 20
74.3986224519
 30
0.0
 10
36.2147534944
 20
74.4001153918
 30
0.0
 10
36.0501267651
 20
74.4021008278
 30
0.0
 10
35.7867303081
 20
74.4054665644
 30
0.0
 10
35.4574838282
 20
74.4096580887
 30
0.0
 10
35.0623921995
 20
74.4149176566
 30
0.0
 10
34.5356065384
 20
74.4221058211
 30
0.0
 10
33.8771290038
 20
74.4314509313
 30
0.0
 10
33.2186585999
 20
74.4413175267
 30
0.0
 10
32.6918744634
 20
74.4486379335
 30
0.0
 10
32.1650757652
 20
74.454680384
 30
0.0
 10
31.5066335398
 20
74.4664121597
 30
0.0
 10
30.4530986357
 20
74.4842314364
 30
0.0
 10
29.1360540769
 20
74.4988510087
 30
0.0
 10
27.5556173746
 20
74.517826346
 30
0.0
 10
25.9751558807
 20
74.5357099917
 30
0.0
 10
23.8678136502
 20
74.5555883543
 30
0.0
 10
21.2335341445
 20
74.5702050846
 30
0.0
 10
18.0723517594
 20
74.5729818726
 30
0.0
 10
14.911177688
 20
74.5670015534
 30
0.0
 10
12.8037267374
 20
74.5629345586
 30
0.0
 10
11.75
 20
74.5628707424
 30
0.0
  0
SPLINE
  5
356
100
AcDbEntity
  8
RACCORDO
100
AcDbSpline
 62
250
  6
CONTINUOUS
 70
0
 71
3
 72
15
 73
11
 74
0
 42
0.0000001
 43
0.0000001
 44
0.0000000001
 40
0.0
 40
0.0
 40
0.0
 40
0.0
 40
0.1249237348
 40
0.2499025422
 40
0.3749166894
 40
0.4999447771
 40
0.6249770839
 40
0.7500054918
 40
0.8750152151
 40
1.0
 40
1.0
 40
1.0
 40
1.0
 10
38.876126114
 20
72.5528968235
 30
0.0
 10
38.8719735562
 20
72.6711875611
 30
0.0
 10
38.8403659279
 20
72.9076083895
 30
0.0
 10
38.7268325544
 20
73.2463195496
 30
0.0
 10
38.5520545098
 20
73.5581057631
 30
0.0
 10
38.3223844899
 20
73.8319951752
 30
0.0
 10
38.045935014
 20
74.0585943335
 30
0.0
 10
37.7322476135
 20
74.2300017913
 30
0.0
 10
37.3923679744
 20
74.3402318307
 30
0.0
 10
37.1557172109
 20
74.3701224513
 30
0.0
 10
37.0373529125
 20
74.3738010161
 30
0.0
  0
SPLINE
  5
357
100
AcDbEntity
  8
RACCORDO
100
AcDbSpline
 62
250
  6
CONTINUOUS
 70
0
 71
3
 72
14
 73
10
 74
0
 42
0.0000001
 43
0.0000001
 44
0.0000000001
 40
0.0
 40
0.0
 40
0.0
 40
0.0
 40
0.0624913181
 40
0.1249885116
 40
0.2499817852
 40
0.3749798674
 40
0.4999803264
 40
0.7499896209
 40
1.0
 40
1.0
 40
1.0
 40
1.0
 10
-37.0
 20
-75.2368093679
 30
0.0
 10
-36.4740331016
 20
-75.2356914095
 30
0.0
 10
-35.422046693
 20
-75.2354490166
 30
0.0
 10
-33.3180364366
 20
-75.2336692078
 30
0.0
 10
-30.687927694
 20
-75.2315518227
 30
0.0
 10
-27.5317501773
 20
-75.2297645762
 30
0.0
 10
-23.3233555031
 20
-75.2275137762
 30
0.0
 10
-18.0627742608
 20
-75.2271501102
 30
0.0
 10
-13.8542794756
 20
-75.2278497906
 30
0.0
 10
-11.7500274807
 20
-75.2278567606
 30
0.0
  0
SPLINE
  5
358
100
AcDbEntity
  8
RACCORDO
100
AcDbSpline
 62
250
  6
CONTINUOUS
 70
0
 71
3
 72
14
 73
10
 74
0
 42
0.0000001
 43
0.0000001
 44
0.0000000001
 40
0.0
 40
0.0
 40
0.0
 40
0.0
 40
0.2500103789
 40
0.5000196728
 40
0.6250201317
 40
0.7500182137
 40
0.8750114875
 40
0.9375086809
 40
1.0
 40
1.0
 40
1.0
 40
1.0
 10
11.7500274807
 20
-75.2278567606
 30
0.0
 10
13.8542738189
 20
-75.2278497884
 30
0.0
 10
18.0627572882
 20
-75.227150113
 30
0.0
 10
23.3233243863
 20
-75.2275137764
 30
0.0
 10
27.531707744
 20
-75.2297645366
 30
0.0
 10
30.6878767777
 20
-75.2315518461
 30
0.0
 10
33.3179784513
 20
-75.2336691258
 30
0.0
 10
35.4219830623
 20
-75.2354490148
 30
0.0
 10
36.4739666515
 20
-75.2356912749
 30
0.0
 10
36.9999321447
 20
-75.2368092286
 30
0.0
  0
SPLINE
  5
359
100
AcDbEntity
  8
RACCORDO
100
AcDbSpline
 62
250
  6
CONTINUOUS
 70
0
 71
3
 72
15
 73
11
 74
0
 42
0.0000001
 43
0.0000001
 44
0.0000000001
 40
0.0
 40
0.0
 40
0.0
 40
0.0
 40
0.062479463
 40
0.1249766972
 40
0.1874762073
 40
0.2499773593
 40
0.3749808679
 40
0.4999845624
 40
0.7499922166
 40
1.0
 40
1.0
 40
1.0
 40
1.0
 10
39.7359527728
 20
-72.5
 30
0.0
 10
39.7336301609
 20
-71.7294234555
 30
0.0
 10
39.733184783
 20
-70.1880416899
 30
0.0
 10
39.731238778
 20
-67.875836896
 30
0.0
 10
39.7301793154
 20
-65.5633627754
 30
0.0
 10
39.7293679999
 20
-62.4799781839
 30
0.0
 10
39.7289795535
 20
-58.6257084283
 30
0.0
 10
39.7283155041
 20
-52.4588585648
 30
0.0
 10
39.7279178863
 20
-44.7502892475
 30
0.0
 10
39.7278533343
 20
-38.5834321736
 30
0.0
 10
39.7278543933
 20
-35.500002839
 30
0.0
  0
SPLINE
  5
35A
100
AcDbEntity
  8
RACCORDO
100
AcDbSpline
 62
250
  6
CONTINUOUS
 70
0
 71
3
 72
15
 73
11
 74
0
 42
0.0000001
 43
0.0000001
 44
0.0000000001
 40
0.0
 40
0.0
 40
0.0
 40
0.0
 40
0.2500077827
 40
0.5000154363
 40
0.6250191304
 40
0.7500226388
 40
0.8125237909
 40
0.8750233011
 40
0.9375205352
 40
1.0
 40
1.0
 40
1.0
 40
1.0
 10
39.7278543933
 20
35.500002833
 30
0.0
 10
39.7278533343
 20
38.5834264404
 30
0.0
 10
39.7279178953
 20
44.75027206
 30
0.0
 10
39.7283154774
 20
52.4588270591
 30
0.0
 10
39.7289795876
 20
58.6256654687
 30
0.0
 10
39.729367982
 20
62.479928069
 30
0.0
 10
39.7301792999
 20
65.5633069404
 30
0.0
 10
39.7312387298
 20
67.8757767737
 30
0.0
 10
39.7331847951
 20
70.1879773016
 30
0.0
 10
39.7336299752
 20
71.7293562301
 30
0.0
 10
39.7359525724
 20
72.4999313674
 30
0.0
  0
SPLINE
  5
35B
100
AcDbEntity
  8
RACCORDO
100
AcDbSpline
 62
250
  6
CONTINUOUS
 70
0
 71
3
 72
32
 73
28
 74
0
 42
0.0000001
 43
0.0000001
 44
0.0000000001
 40
0.0
 40
0.0
 40
0.0
 40
0.0
 40
0.1250029025
 40
0.2500057794
 40
0.375008645
 40
0.5000111091
 40
0.5625119134
 40
0.625012204
 40
0.6875120954
 40
0.7500118057
 40
0.7812612372
 40
0.8125100313
 40
0.8281344299
 40
0.8437589956
 40
0.8750081016
 40
0.9062570987
 40
0.9218816086
 40
0.9375061473
 40
0.9531307194
 40
0.9609430237
 40
0.9687553267
 40
0.9726614904
 40
0.9765676354
 40
0.980473823
 40
0.9843797963
 40
0.9921907331
 40
1.0
 40
1.0
 40
1.0
 40
1.0
 10
-11.75
 20
74.5628707425
 30
0.0
 10
-12.8037267461
 20
74.5629345599
 30
0.0
 10
-14.911177715
 20
74.5670016068
 30
0.0
 10
-18.0723518096
 20
74.5729817318
 30
0.0
 10
-21.233534223
 20
74.570205495
 30
0.0
 10
-23.8678137277
 20
74.5555873189
 30
0.0
 10
-25.9751560144
 20
74.5357128015
 30
0.0
 10
-27.5556174512
 20
74.5178231203
 30
0.0
 10
-29.1360543274
 20
74.4988603283
 30
0.0
 10
-30.4530988664
 20
74.4842354337
 30
0.0
 10
-31.5066342788
 20
74.4664461012
 30
0.0
 10
-32.165074043
 20
74.4545410577
 30
0.0
 10
-32.6918748606
 20
74.4486611007
 30
0.0
 10
-33.218658973
 20
74.4413377623
 30
0.0
 10
-33.8771289638
 20
74.4314433253
 30
0.0
 10
-34.5356066499
 20
74.4221070311
 30
0.0
 10
-35.0623922881
 20
74.4149169044
 30
0.0
 10
-35.4574839488
 20
74.4096595731
 30
0.0
 10
-35.7867303589
 20
74.4054620468
 30
0.0
 10
-36.0501269419
 20
74.4021063234
 30
0.0
 10
-36.2147535041
 20
74.4001046031
 30
0.0
 10
-36.3464511505
 20
74.3986291674
 30
0.0
 10
-36.4452312575
 20
74.3969168494
 30
0.0
 10
-36.5438839786
 20
74.3917000902
 30
0.0
 10
-36.6754653956
 20
74.386217069
 30
0.0
 10
-36.839955979
 20
74.3802243948
 30
0.0
 10
-36.9715554455
 20
74.3758427866
 30
0.0
 10
-37.0373529125
 20
74.3738010161
 30
0.0
  0
SPLINE
  5
35C
100
AcDbEntity
  8
RACCORDO
100
AcDbSpline
 62
250
  6
CONTINUOUS
 70
0
 71
3
 72
11
 73
7
 74
0
 42
0.0000001
 43
0.0000001
 44
0.0000000001
 40
0.0
 40
0.0
 40
0.0
 40
0.0
 40
0.2500003218
 40
0.5000006889
 40
0.7500007912
 40
1.0
 40
1.0
 40
1.0
 40
1.0
 10
-11.75
 20
61.3576119575
 30
0.0
 10
-12.6234414507
 20
61.3574623418
 30
0.0
 10
-14.3703242296
 20
61.357659103
 30
0.0
 10
-16.9906494303
 20
61.3565888698
 30
0.0
 10
-19.6109610239
 20
61.3507259198
 30
0.0
 10
-21.3578353732
 20
61.3441317236
 30
0.0
 10
-22.231246233
 20
61.337300403
 30
0.0
  0
SPLINE
  5
35D
100
AcDbEntity
  8
RACCORDO
100
AcDbSpline
 62
250
  6
CONTINUOUS
 70
0
 71
3
 72
38
 73
34
 74
0
 42
0.0000001
 43
0.0000001
 44
0.0000000001
 40
0.0
 40
0.0
 40
0.0
 40
0.0
 40
0.0624906201
 40
0.0781191036
 40
0.0937473351
 40
0.1093757575
 40
0.1250042265
 40
0.1406325389
 40
0.1562609156
 40
0.1875157673
 40
0.2187706322
 40
0.2500254799
 40
0.3125120057
 40
0.3437668413
 40
0.3750213123
 40
0.4062748935
 40
0.4375288146
 40
0.5000165076
 40
0.5625048315
 40
0.6249916488
 40
0.6562457665
 40
0.6874992875
 40
0.7187522244
 40
0.7343794923
 40
0.7500071304
 40
0.7656340928
 40
0.7812604128
 40
0.79688649
 40
0.812513393
 40
0.8437657935
 40
0.875019625
 40
0.9375085304
 40
1.0
 40
1.0
 40
1.0
 40
1.0
 10
-22.231246233
 20
61.337300403
 30
0.0
 10
-22.3493462302
 20
61.3363770805
 30
0.0
 10
-22.4970718954
 20
61.327750685
 30
0.0
 10
-22.6729972228
 20
61.3067056681
 30
0.0
 10
-22.760648308
 20
61.2935893828
 30
0.0
 10
-22.8478926981
 20
61.2780742923
 30
0.0
 10
-22.9350778393
 20
61.2622426629
 30
0.0
 10
-23.0219682208
 20
61.2448278286
 30
0.0
 10
-23.1372333689
 20
61.2188734582
 30
0.0
 10
-23.2802033192
 20
61.1816560091
 30
0.0
 10
-23.4493274518
 20
61.128475802
 30
0.0
 10
-23.6710346737
 20
61.0467318317
 30
0.0
 10
-23.8864598848
 20
60.9485227931
 30
0.0
 10
-24.0928040986
 20
60.8333523176
 30
0.0
 10
-24.2435833428
 20
60.7401294985
 30
0.0
 10
-24.3895181557
 20
60.6394567095
 30
0.0
 10
-24.5766278955
 20
60.495105277
 30
0.0
 10
-24.7962583498
 20
60.296888693
 30
0.0
 10
-25.0330822356
 20
60.0324984078
 30
0.0
 10
-25.2055241418
 20
59.7920404487
 30
0.0
 10
-25.3272012645
 20
59.5894423603
 30
0.0
 10
-25.4100533963
 20
59.4327041285
 30
0.0
 10
-25.4720474733
 20
59.2985918531
 30
0.0
 10
-25.5170052919
 20
59.1893287342
 30
0.0
 10
-25.5485672306
 20
59.1065321627
 30
0.0
 10
-25.5794206148
 20
59.0234722879
 30
0.0
 10
-25.6121509982
 20
58.9411374613
 30
0.0
 10
-25.6432846078
 20
58.8581751302
 30
0.0
 10
-25.6809167574
 20
58.7461764848
 30
0.0
 10
-25.7218248581
 20
58.6042089272
 30
0.0
 10
-25.7759250443
 20
58.374168401
 30
0.0
 10
-25.8208101775
 20
58.0817657143
 30
0.0
 10
-25.8328672079
 20
57.8454154197
 30
0.0
 10
-25.833007529
 20
57.7273102911
 30
0.0
  0
SPLINE
  5
35E
100
AcDbEntity
  8
RACCORDO
100
AcDbSpline
 62
250
  6
CONTINUOUS
 70
0
 71
3
 72
15
 73
11
 74
0
 42
0.0000001
 43
0.0000001
 44
0.0000000001
 40
0.0
 40
0.0
 40
0.0
 40
0.0
 40
0.0624993802
 40
0.1249993411
 40
0.187499358
 40
0.2499993784
 40
0.3749994438
 40
0.4999995421
 40
0.7499997664
 40
1.0
 40
1.0
 40
1.0
 40
1.0
 10
-25.833007529
 20
57.7273102911
 30
0.0
 10
-25.8335614834
 20
57.2642457835
 30
0.0
 10
-25.8347110846
 20
56.3381124066
 30
0.0
 10
-25.8380556871
 20
54.9489125788
 30
0.0
 10
-25.8426633379
 20
53.5597118635
 30
0.0
 10
-25.8471125439
 20
51.7074385286
 30
0.0
 10
-25.8510408839
 20
49.3920931307
 30
0.0
 10
-25.8550312507
 20
45.687536804
 30
0.0
 10
-25.856909529
 20
41.0568382681
 30
0.0
 10
-25.8563705486
 20
37.3522794549
 30
0.0
 10
-25.8563908699
 20
35.5
 30
0.0
  0
SPLINE
  5
35F
100
AcDbEntity
  8
RACCORDO
100
AcDbSpline
 62
250
  6
CONTINUOUS
 70
0
 71
3
 72
18
 73
14
 74
0
 42
0.0000001
 43
0.0000001
 44
0.0000000001
 40
0.0
 40
0.0
 40
0.0
 40
0.0
 40
0.1941910836
 40
0.3780372658
 40
0.5460295099
 40
0.6932522878
 40
0.8153422951
 40
0.8658158851
 40
0.9087284009
 40
0.943779397
 40
0.9707392198
 40
0.9894575675
 40
1.0
 40
1.0
 40
1.0
 40
1.0
 10
-37.0373529126
 20
-74.3738010164
 30
0.0
 10
-37.0369433883
 20
-74.4297822713
 30
0.0
 10
-37.0357916433
 20
-74.5387604343
 30
0.0
 10
-37.0330106626
 20
-74.6961502632
 30
0.0
 10
-37.0292990858
 20
-74.8399777773
 30
0.0
 10
-37.0247745734
 20
-74.9659666796
 30
0.0
 10
-37.0202450579
 20
-75.0580540071
 30
0.0
 10
-37.016150203
 20
-75.1200346105
 30
0.0
 10
-37.0131869254
 20
-75.1569549443
 30
0.0
 10
-37.0101231181
 20
-75.1870214045
 30
0.0
 10
-37.0071282843
 20
-75.2101780433
 30
0.0
 10
-37.0039968086
 20
-75.2259474992
 30
0.0
 10
-37.0017126448
 20
-75.2342986188
 30
0.0
 10
-37.0
 20
-75.2368093679
 30
0.0
  0
SPLINE
  5
360
100
AcDbEntity
  8
RACCORDO
100
AcDbSpline
 62
250
  6
CONTINUOUS
 70
0
 71
3
 72
35
 73
31
 74
0
 42
0.0000001
 43
0.0000001
 44
0.0000000001
 40
0.0
 40
0.0
 40
0.0
 40
0.0
 40
0.007805145
 40
0.0156135971
 40
0.0195189946
 40
0.0234250023
 40
0.0253781426
 40
0.0273312791
 40
0.0312371622
 40
0.0351432487
 40
0.0390493757
 40
0.0429555025
 40
0.046861625
 40
0.0546738768
 40
0.0624861439
 40
0.0781107233
 40
0.0937353777
 40
0.1093601235
 40
0.1249849673
 40
0.156234923
 40
0.1874851541
 40
0.2499860285
 40
0.2812365744
 40
0.3124871331
 40
0.3749882634
 40
0.4374894074
 40
0.4999905636
 40
0.6249929008
 40
0.7499952602
 40
1.0
 40
1.0
 40
1.0
 40
1.0
 10
-38.876126114
 20
72.5528968235
 30
0.0
 10
-38.8795030162
 20
72.4565493018
 30
0.0
 10
-38.8868019265
 20
72.263831808
 30
0.0
 10
-38.8980680494
 20
72.0229969378
 30
0.0
 10
-38.9091846005
 20
71.8303829553
 30
0.0
 10
-38.9178192947
 20
71.710077686
 30
0.0
 10
-38.9250953954
 20
71.6138649078
 30
0.0
 10
-38.9323293106
 20
71.5176140543
 30
0.0
 10
-38.9322790692
 20
71.3969143959
 30
0.0
 10
-38.9342609184
 20
71.2522131772
 30
0.0
 10
-38.936704788
 20
71.1074861372
 30
0.0
 10
-38.9388688144
 20
70.9627622803
 30
0.0
 10
-38.9416206997
 20
70.7697924598
 30
0.0
 10
-38.9451692241
 20
70.5285825114
 30
0.0
 10
-38.9509481899
 20
70.1426466957
 30
0.0
 10
-38.9581161913
 20
69.6602246931
 30
0.0
 10
-38.9666916388
 20
69.0813156213
 30
0.0
 10
-38.9751053437
 20
68.5024009105
 30
0.0
 10
-38.9859139397
 20
67.7305019405
 30
0.0
 10
-38.998134834
 20
66.7656028852
 30
0.0
 10
-39.0140960709
 20
65.2217105002
 30
0.0
 10
-39.0245094255
 20
63.6777590122
 30
0.0
 10
-39.0306054725
 20
62.1337859555
 30
0.0
 10
-39.0350536814
 20
60.5898041451
 30
0.0
 10
-39.0398876456
 20
58.6598246567
 30
0.0
 10
-39.045103328
 20
56.3438474235
 30
0.0
 10
-39.0509613916
 20
53.2558747414
 30
0.0
 10
-39.0565329788
 20
49.3959050921
 30
0.0
 10
-39.0620302114
 20
43.2199489045
 30
0.0
 10
-39.0629399374
 20
38.587979447
 30
0.0
 10
-39.0629215791
 20
35.4999999922
 30
0.0
  0
SPLINE
  5
361
100
AcDbEntity
  8
RACCORDO
100
AcDbSpline
 62
250
  6
CONTINUOUS
 70
0
 71
3
 72
15
 73
11
 74
0
 42
0.0000001
 43
0.0000001
 44
0.0000000001
 40
0.0
 40
0.0
 40
0.0
 40
0.0
 40
0.1249847134
 40
0.2499944551
 40
0.3750228719
 40
0.5000551803
 40
0.6250832927
 40
0.7500974453
 40
0.8750762583
 40
1.0
 40
1.0
 40
1.0
 40
1.0
 10
-37.0373529125
 20
74.3738010161
 30
0.0
 10
-37.1557171184
 20
74.3701216808
 30
0.0
 10
-37.3923679234
 20
74.340232769
 30
0.0
 10
-37.7322475641
 20
74.2300022752
 30
0.0
 10
-38.0459348628
 20
74.0585947082
 30
0.0
 10
-38.3223842571
 20
73.8319953667
 30
0.0
 10
-38.5520541645
 20
73.558105858
 30
0.0
 10
-38.7268321253
 20
73.2463194699
 30
0.0
 10
-38.8403648945
 20
72.9076083223
 30
0.0
 10
-38.8719744766
 20
72.6711875992
 30
0.0
 10
-38.876126114
 20
72.5528968235
 30
0.0
  0
SPLINE
  5
362
100
AcDbEntity
  8
RACCORDO
100
AcDbSpline
 62
250
  6
CONTINUOUS
 70
0
 71
3
 72
18
 73
14
 74
0
 42
0.0000001
 43
0.0000001
 44
0.0000000001
 40
0.0
 40
0.0
 40
0.0
 40
0.0
 40
0.1939299056
 40
0.3774731023
 40
0.5451658717
 40
0.6921385689
 40
0.8140772481
 40
0.8645310179
 40
0.9074734817
 40
0.9426191008
 40
0.9697640574
 40
0.9888138861
 40
1.0
 40
1.0
 40
1.0
 40
1.0
 10
-38.8761260679
 20
-72.5528968059
 30
0.0
 10
-38.9319421655
 20
-72.5523084827
 30
0.0
 10
-39.040580538
 20
-72.5506633511
 30
0.0
 10
-39.1974493748
 20
-72.5467103257
 30
0.0
 10
-39.3407578173
 20
-72.5414458426
 30
0.0
 10
-39.4662655064
 20
-72.5350376864
 30
0.0
 10
-39.5579793091
 20
-72.5286237293
 30
0.0
 10
-39.6196861479
 20
-72.5228357666
 30
0.0
 10
-39.6564613437
 20
-72.5186342271
 30
0.0
 10
-39.6864133141
 20
-72.5143222917
 30
0.0
 10
-39.7095249881
 20
-72.5100156047
 30
0.0
 10
-39.725301338
 20
-72.505682916
 30
0.0
 10
-39.7336358692
 20
-72.5022385249
 30
0.0
 10
-39.735950086
 20
-72.4999999999
 30
0.0
  0
SPLINE
  5
363
100
AcDbEntity
  8
RACCORDO
100
AcDbSpline
 62
250
  6
CONTINUOUS
 70
0
 71
3
 72
35
 73
31
 74
0
 42
0.0000001
 43
0.0000001
 44
0.0000000001
 40
0.0
 40
0.0
 40
0.0
 40
0.0
 40
0.2500047413
 40
0.3750071015
 40
0.5000094395
 40
0.562510596
 40
0.6250117404
 40
0.6875128712
 40
0.7187634302
 40
0.750013976
 40
0.8125148514
 40
0.8437650829
 40
0.875015039
 40
0.890639883
 40
0.9062646289
 40
0.9218892833
 40
0.9375138629
 40
0.94532613
 40
0.9531383819
 40
0.9570445044
 40
0.9609506312
 40
0.9648567584
 40
0.9687628479
 40
0.9726687154
 40
0.9746218579
 40
0.976575
 40
0.9804810065
 40
0.9843864036
 40
0.9921948552
 40
1.0
 40
1.0
 40
1.0
 40
1.0
 10
39.0629215791
 20
35.4999999922
 30
0.0
 10
39.0629399373
 20
38.5879794386
 30
0.0
 10
39.0620299874
 20
43.2199488831
 30
0.0
 10
39.0565333432
 20
49.3959050555
 30
0.0
 10
39.0509603409
 20
53.2558746908
 30
0.0
 10
39.0451051277
 20
56.3438473724
 30
0.0
 10
39.0398814462
 20
58.659824578
 30
0.0
 10
39.0350665129
 20
60.5898041196
 30
0.0
 10
39.0305930069
 20
62.1337858451
 30
0.0
 10
39.0245171524
 20
63.6777589801
 30
0.0
 10
39.0140947394
 20
65.2217104333
 30
0.0
 10
38.9981354504
 20
66.7656028389
 30
0.0
 10
38.9859125495
 20
67.7305018728
 30
0.0
 10
38.975105588
 20
68.5024008654
 30
0.0
 10
38.9666919235
 20
69.0813155761
 30
0.0
 10
38.9581161087
 20
69.660224641
 30
0.0
 10
38.9509482168
 20
70.1426466454
 30
0.0
 10
38.9451694289
 20
70.5285824602
 30
0.0
 10
38.9416207472
 20
70.7697924122
 30
0.0
 10
38.9388685882
 20
70.9627622151
 30
0.0
 10
38.9367052415
 20
71.1074861243
 30
0.0
 10
38.9342601734
 20
71.2522130335
 30
0.0
 10
38.9322790475
 20
71.3969146704
 30
0.0
 10
38.9322975364
 20
71.5176121166
 30
0.0
 10
38.9251270616
 20
71.6138671568
 30
0.0
 10
38.9178090294
 20
71.7100769776
 30
0.0
 10
38.909188727
 20
71.8303833035
 30
0.0
 10
38.8980660407
 20
72.0229968167
 30
0.0
 10
38.8868026149
 20
72.263831876
 30
0.0
 10
38.8795030715
 20
72.456549308
 30
0.0
 10
38.876126114
 20
72.5528968235
 30
0.0
  0
SPLINE
  5
364
100
AcDbEntity
  8
RACCORDO
100
AcDbSpline
 62
250
  6
CONTINUOUS
 70
0
 71
3
 72
14
 73
10
 74
0
 42
0.0000001
 43
0.0000001
 44
0.0000000001
 40
0.0
 40
0.0
 40
0.0
 40
0.0
 40
0.0624913181
 40
0.1249885116
 40
0.2499817852
 40
0.3749798674
 40
0.4999803264
 40
0.7499896209
 40
1.0
 40
1.0
 40
1.0
 40
1.0
 10
37.0
 20
75.2368093679
 30
0.0
 10
36.4740331016
 20
75.2356914095
 30
0.0
 10
35.422046693
 20
75.2354490166
 30
0.0
 10
33.3180364366
 20
75.2336692078
 30
0.0
 10
30.687927694
 20
75.2315518227
 30
0.0
 10
27.5317501773
 20
75.2297645762
 30
0.0
 10
23.3233555031
 20
75.2275137762
 30
0.0
 10
18.0627742608
 20
75.2271501102
 30
0.0
 10
13.8542794756
 20
75.2278497906
 30
0.0
 10
11.7500274807
 20
75.2278567606
 30
0.0
  0
SPLINE
  5
365
100
AcDbEntity
  8
RACCORDO
100
AcDbSpline
 62
250
  6
CONTINUOUS
 70
0
 71
3
 72
18
 73
14
 74
0
 42
0.0000001
 43
0.0000001
 44
0.0000000001
 40
0.0
 40
0.0
 40
0.0
 40
0.0
 40
0.1939297291
 40
0.3774728222
 40
0.5451655556
 40
0.6921382739
 40
0.814077015
 40
0.8645308251
 40
0.9074733318
 40
0.942618994
 40
0.9697639914
 40
0.9888138566
 40
1.0
 40
1.0
 40
1.0
 40
1.0
 10
-38.8761261126
 20
72.552896823
 30
0.0
 10
-38.9319423306
 20
72.5523085159
 30
0.0
 10
-39.0405809559
 20
72.5506634112
 30
0.0
 10
-39.1974501834
 20
72.5467104132
 30
0.0
 10
-39.3407590319
 20
72.5414459438
 30
0.0
 10
-39.4662671203
 20
72.5350377886
 30
0.0
 10
-39.5579812402
 20
72.5286238227
 30
0.0
 10
-39.6196883105
 20
72.5228358468
 30
0.0
 10
-39.6564636556
 20
72.5186342953
 30
0.0
 10
-39.6864157547
 20
72.5143223459
 30
0.0
 10
-39.7095275339
 20
72.5100156434
 30
0.0
 10
-39.725303964
 20
72.5056829378
 30
0.0
 10
-39.7336385385
 20
72.5022385334
 30
0.0
 10
-39.7359527728
 20
72.5
 30
0.0
  0
SPLINE
  5
366
100
AcDbEntity
  8
RACCORDO
100
AcDbSpline
 62
250
  6
CONTINUOUS
 70
0
 71
3
 72
18
 73
14
 74
0
 42
0.0000001
 43
0.0000001
 44
0.0000000001
 40
0.0
 40
0.0
 40
0.0
 40
0.0
 40
0.1941912614
 40
0.3780375478
 40
0.5460298276
 40
0.6932525834
 40
0.8153425274
 40
0.8658160766
 40
0.908728549
 40
0.9437795018
 40
0.9707392838
 40
0.9894575956
 40
1.0
 40
1.0
 40
1.0
 40
1.0
 10
-37.0373529021
 20
74.3738009785
 30
0.0
 10
-37.0369433693
 20
74.4297821144
 30
0.0
 10
-37.0357916109
 20
74.5387600271
 30
0.0
 10
-37.0330106181
 20
74.6961494688
 30
0.0
 10
-37.0292990366
 20
74.839976579
 30
0.0
 10
-37.0247745257
 20
74.9659650834
 30
0.0
 10
-37.0202450156
 20
75.0580520942
 30
0.0
 10
-37.0161501674
 20
75.120032466
 30
0.0
 10
-37.0131868957
 20
75.1569526505
 30
0.0
 10
-37.0101230948
 20
75.1870189817
 30
0.0
 10
-37.0071282681
 20
75.2101755157
 30
0.0
 10
-37.0039967997
 20
75.2259448911
 30
0.0
 10
-37.0017126415
 20
75.2342959679
 30
0.0
 10
-36.9999999999
 20
75.2368066982
 30
0.0
  0
SPLINE
  5
367
100
AcDbEntity
  8
RACCORDO
100
AcDbSpline
 62
250
  6
CONTINUOUS
 70
0
 71
3
 72
18
 73
14
 74
0
 42
0.0000001
 43
0.0000001
 44
0.0000000001
 40
0.0
 40
0.0
 40
0.0
 40
0.0
 40
0.1250150991
 40
0.2500116656
 40
0.3749861506
 40
0.4999362132
 40
0.6248712387
 40
0.6873785602
 40
0.7498875438
 40
0.812404399
 40
0.8749307674
 40
0.937462329
 40
1.0
 40
1.0
 40
1.0
 40
1.0
 10
-25.8563908662
 20
13.25
 30
0.0
 10
-25.8563940606
 20
13.0653923368
 30
0.0
 10
-25.8284121459
 20
12.6955905162
 30
0.0
 10
-25.7032773583
 20
12.1541130741
 30
0.0
 10
-25.4975227969
 20
11.6377201652
 30
0.0
 10
-25.2148439019
 20
11.159369305
 30
0.0
 10
-24.922984681
 20
10.7998277715
 30
0.0
 10
-24.6602902074
 20
10.5401541112
 30
0.0
 10
-24.4492874527
 20
10.3604180542
 30
0.0
 10
-24.2266989041
 20
10.1953200245
 30
0.0
 10
-23.9942320424
 20
10.0443474052
 30
0.0
 10
-23.7514935122
 20
9.9103198668
 30
0.0
 10
-23.5829670863
 20
9.8342022001
 30
0.0
 10
-23.4974019012
 20
9.7994630331
 30
0.0
  0
SPLINE
  5
368
100
AcDbEntity
  8
RACCORDO
100
AcDbSpline
 62
250
  6
CONTINUOUS
 70
0
 71
3
 72
18
 73
14
 74
0
 42
0.0000001
 43
0.0000001
 44
0.0000000001
 40
0.0
 40
0.0
 40
0.0
 40
0.0
 40
0.062533705
 40
0.1250611943
 40
0.1875832553
 40
0.2500958746
 40
0.3126002483
 40
0.3751024533
 40
0.500027709
 40
0.6249695671
 40
0.7499453976
 40
0.8749553916
 40
1.0
 40
1.0
 40
1.0
 40
1.0
 10
-23.4974023291
 20
-9.799463213
 30
0.0
 10
-23.5829620733
 20
-9.8342002078
 30
0.0
 10
-23.7514775492
 20
-9.9103130348
 30
0.0
 10
-23.9942021416
 20
-10.044328123
 30
0.0
 10
-24.226653597
 20
-10.1952900627
 30
0.0
 10
-24.4492317906
 20
-10.3603695025
 30
0.0
 10
-24.6602185541
 20
-10.5400924745
 30
0.0
 10
-24.9229021918
 20
-10.7997358205
 30
0.0
 10
-25.2147526611
 20
-11.1592399873
 30
0.0
 10
-25.4974471452
 20
-11.6375528691
 30
0.0
 10
-25.7032243124
 20
-12.1539478882
 30
0.0
 10
-25.8283967014
 20
-12.6954829899
 30
0.0
 10
-25.8564000183
 20
-13.065348765
 30
0.0
 10
-25.8563908662
 20
-13.25
 30
0.0
  0
SPLINE
  5
369
100
AcDbEntity
  8
RACCORDO
100
AcDbSpline
 62
250
  6
CONTINUOUS
 70
0
 71
3
 72
18
 73
14
 74
0
 42
0.0000001
 43
0.0000001
 44
0.0000000001
 40
0.0
 40
0.0
 40
0.0
 40
0.0
 40
0.1250150974
 40
0.250011663
 40
0.3749861445
 40
0.499936207
 40
0.6248712321
 40
0.6873785542
 40
0.7498875372
 40
0.8124043929
 40
0.8749307622
 40
0.9374623261
 40
1.0
 40
1.0
 40
1.0
 40
1.0
 10
25.8563908662
 20
-13.25
 30
0.0
 10
25.8563940579
 20
-13.0653923324
 30
0.0
 10
25.828412129
 20
-12.6955905037
 30
0.0
 10
25.7032773553
 20
-12.1541130459
 30
0.0
 10
25.4975227666
 20
-11.6377201314
 30
0.0
 10
25.2148438705
 20
-11.1593692568
 30
0.0
 10
24.9229846484
 20
-10.7998276998
 30
0.0
 10
24.660290152
 20
-10.5401540428
 30
0.0
 10
24.4492873432
 20
-10.3604180278
 30
0.0
 10
24.2266987673
 20
-10.1953200312
 30
0.0
 10
23.9942320956
 20
-10.0443470781
 30
0.0
 10
23.7514933685
 20
-9.91031984
 30
0.0
 10
23.5829669436
 20
-9.834202157
 30
0.0
 10
23.4974017576
 20
-9.7994629716
 30
0.0
  0
SPLINE
  5
36A
100
AcDbEntity
  8
RACCORDO
100
AcDbSpline
 62
250
  6
CONTINUOUS
 70
0
 71
3
 72
18
 73
14
 74
0
 42
0.0000001
 43
0.0000001
 44
0.0000000001
 40
0.0
 40
0.0
 40
0.0
 40
0.0
 40
0.0625337082
 40
0.1250612004
 40
0.187583263
 40
0.2500958832
 40
0.3126002569
 40
0.3751024623
 40
0.5000277186
 40
0.6249695762
 40
0.7499454047
 40
0.8749553956
 40
1.0
 40
1.0
 40
1.0
 40
1.0
 10
23.4974021827
 20
9.7994631501
 30
0.0
 10
23.5829619301
 20
9.8342001594
 30
0.0
 10
23.7514774086
 20
9.9103129976
 30
0.0
 10
23.9942022122
 20
10.0443277675
 30
0.0
 10
24.2266534645
 20
10.1952900657
 30
0.0
 10
24.4492317112
 20
10.3603694441
 30
0.0
 10
24.6602184926
 20
10.5400924205
 30
0.0
 10
24.9229021582
 20
10.7997357593
 30
0.0
 10
25.2147526534
 20
11.1592399336
 30
0.0
 10
25.4974471227
 20
11.6375528462
 30
0.0
 10
25.703224303
 20
12.1539478735
 30
0.0
 10
25.8283966909
 20
12.6954829855
 30
0.0
 10
25.8564000076
 20
13.0653487634
 30
0.0
 10
25.8563908662
 20
13.25
 30
0.0
  0
SPLINE
  5
36B
100
AcDbEntity
  8
RACCORDO
100
AcDbSpline
 62
250
  6
CONTINUOUS
 70
0
 71
3
 72
18
 73
14
 74
0
 42
0.0000001
 43
0.0000001
 44
0.0000000001
 40
0.0
 40
0.0
 40
0.0
 40
0.0
 40
0.1941910836
 40
0.3780372658
 40
0.5460295099
 40
0.6932522878
 40
0.8153422951
 40
0.8658158851
 40
0.9087284009
 40
0.943779397
 40
0.9707392198
 40
0.9894575675
 40
1.0
 40
1.0
 40
1.0
 40
1.0
 10
37.0373529126
 20
74.3738010164
 30
0.0
 10
37.0369433883
 20
74.4297822713
 30
0.0
 10
37.0357916433
 20
74.5387604343
 30
0.0
 10
37.0330106626
 20
74.6961502632
 30
0.0
 10
37.0292990858
 20
74.8399777773
 30
0.0
 10
37.0247745734
 20
74.9659666796
 30
0.0
 10
37.0202450579
 20
75.0580540071
 30
0.0
 10
37.016150203
 20
75.1200346105
 30
0.0
 10
37.0131869254
 20
75.1569549443
 30
0.0
 10
37.0101231181
 20
75.1870214045
 30
0.0
 10
37.0071282843
 20
75.2101780433
 30
0.0
 10
37.0039968086
 20
75.2259474992
 30
0.0
 10
37.0017126448
 20
75.2342986188
 30
0.0
 10
37.0
 20
75.2368093679
 30
0.0
  0
SPLINE
  5
36C
100
AcDbEntity
  8
RACCORDO
100
AcDbSpline
 62
250
  6
CONTINUOUS
 70
0
 71
3
 72
18
 73
14
 74
0
 42
0.0000001
 43
0.0000001
 44
0.0000000001
 40
0.0
 40
0.0
 40
0.0
 40
0.0
 40
0.1939299056
 40
0.3774731023
 40
0.5451658717
 40
0.6921385689
 40
0.8140772481
 40
0.8645310179
 40
0.9074734817
 40
0.9426191008
 40
0.9697640574
 40
0.9888138861
 40
1.0
 40
1.0
 40
1.0
 40
1.0
 10
38.8761260679
 20
72.5528968059
 30
0.0
 10
38.9319421655
 20
72.5523084827
 30
0.0
 10
39.040580538
 20
72.5506633511
 30
0.0
 10
39.1974493748
 20
72.5467103257
 30
0.0
 10
39.3407578173
 20
72.5414458426
 30
0.0
 10
39.4662655064
 20
72.5350376864
 30
0.0
 10
39.5579793091
 20
72.5286237293
 30
0.0
 10
39.6196861479
 20
72.5228357666
 30
0.0
 10
39.6564613437
 20
72.5186342271
 30
0.0
 10
39.6864133141
 20
72.5143222917
 30
0.0
 10
39.7095249881
 20
72.5100156047
 30
0.0
 10
39.725301338
 20
72.505682916
 30
0.0
 10
39.7336358692
 20
72.5022385249
 30
0.0
 10
39.735950086
 20
72.4999999999
 30
0.0
  0
SPLINE
  5
36D
100
AcDbEntity
  8
RACCORDO
100
AcDbSpline
 62
250
  6
CONTINUOUS
 70
0
 71
3
 72
18
 73
14
 74
0
 42
0.0000001
 43
0.0000001
 44
0.0000000001
 40
0.0
 40
0.0
 40
0.0
 40
0.0
 40
0.1939297291
 40
0.3774728222
 40
0.5451655556
 40
0.6921382739
 40
0.814077015
 40
0.8645308251
 40
0.9074733318
 40
0.942618994
 40
0.9697639914
 40
0.9888138566
 40
1.0
 40
1.0
 40
1.0
 40
1.0
 10
38.8761261126
 20
-72.552896823
 30
0.0
 10
38.9319423306
 20
-72.5523085159
 30
0.0
 10
39.0405809559
 20
-72.5506634112
 30
0.0
 10
39.1974501834
 20
-72.5467104132
 30
0.0
 10
39.3407590319
 20
-72.5414459438
 30
0.0
 10
39.4662671203
 20
-72.5350377886
 30
0.0
 10
39.5579812402
 20
-72.5286238227
 30
0.0
 10
39.6196883105
 20
-72.5228358468
 30
0.0
 10
39.6564636556
 20
-72.5186342953
 30
0.0
 10
39.6864157547
 20
-72.5143223459
 30
0.0
 10
39.7095275339
 20
-72.5100156434
 30
0.0
 10
39.725303964
 20
-72.5056829378
 30
0.0
 10
39.7336385385
 20
-72.5022385334
 30
0.0
 10
39.7359527728
 20
-72.5
 30
0.0
  0
SPLINE
  5
36E
100
AcDbEntity
  8
RACCORDO
100
AcDbSpline
 62
250
  6
CONTINUOUS
 70
0
 71
3
 72
18
 73
14
 74
0
 42
0.0000001
 43
0.0000001
 44
0.0000000001
 40
0.0
 40
0.0
 40
0.0
 40
0.0
 40
0.1941912614
 40
0.3780375478
 40
0.5460298276
 40
0.6932525834
 40
0.8153425274
 40
0.8658160766
 40
0.908728549
 40
0.9437795018
 40
0.9707392838
 40
0.9894575956
 40
1.0
 40
1.0
 40
1.0
 40
1.0
 10
37.0373529021
 20
-74.3738009785
 30
0.0
 10
37.0369433693
 20
-74.4297821144
 30
0.0
 10
37.0357916109
 20
-74.5387600271
 30
0.0
 10
37.0330106181
 20
-74.6961494688
 30
0.0
 10
37.0292990366
 20
-74.839976579
 30
0.0
 10
37.0247745257
 20
-74.9659650834
 30
0.0
 10
37.0202450156
 20
-75.0580520942
 30
0.0
 10
37.0161501674
 20
-75.120032466
 30
0.0
 10
37.0131868957
 20
-75.1569526505
 30
0.0
 10
37.0101230948
 20
-75.1870189817
 30
0.0
 10
37.0071282681
 20
-75.2101755157
 30
0.0
 10
37.0039967997
 20
-75.2259448911
 30
0.0
 10
37.0017126415
 20
-75.2342959679
 30
0.0
 10
36.9999999999
 20
-75.2368066982
 30
0.0
  0
SPLINE
  5
36F
100
AcDbEntity
  8
RACCORDO
100
AcDbSpline
 62
250
  6
CONTINUOUS
 70
0
 71
3
 72
11
 73
7
 74
0
 42
0.0000001
 43
0.0000001
 44
0.0000000001
 40
0.0
 40
0.0
 40
0.0
 40
0.0
 40
0.2499647441
 40
0.499925776
 40
0.7499044103
 40
1.0
 40
1.0
 40
1.0
 40
1.0
 10
-24.2535132541
 20
13.2499923962
 30
0.0
 10
-24.2535138046
 20
13.0481637953
 30
0.0
 10
-24.188441129
 20
12.6416446602
 30
0.0
 10
-23.9066094522
 20
12.0947806893
 30
0.0
 10
-23.4714834096
 20
11.6604109887
 30
0.0
 10
-23.1087481442
 20
11.4685235702
 30
0.0
 10
-22.9188423999
 20
11.3998704614
 30
0.0
  0
SPLINE
  5
370
100
AcDbEntity
  8
RACCORDO
100
AcDbSpline
 62
250
  6
CONTINUOUS
 70
0
 71
3
 72
14
 73
10
 74
0
 42
0.0000001
 43
0.0000001
 44
0.0000000001
 40
0.0
 40
0.0
 40
0.0
 40
0.0
 40
0.2500103789
 40
0.5000196728
 40
0.6250201317
 40
0.7500182137
 40
0.8750114875
 40
0.9375086809
 40
1.0
 40
1.0
 40
1.0
 40
1.0
 10
-11.7500274807
 20
75.2278567606
 30
0.0
 10
-13.8542738189
 20
75.2278497884
 30
0.0
 10
-18.0627572882
 20
75.227150113
 30
0.0
 10
-23.3233243863
 20
75.2275137764
 30
0.0
 10
-27.531707744
 20
75.2297645366
 30
0.0
 10
-30.6878767777
 20
75.2315518461
 30
0.0
 10
-33.3179784513
 20
75.2336691258
 30
0.0
 10
-35.4219830623
 20
75.2354490148
 30
0.0
 10
-36.4739666515
 20
75.2356912749
 30
0.0
 10
-36.9999321447
 20
75.2368092286
 30
0.0
  0
SPLINE
  5
371
100
AcDbEntity
  8
RACCORDO
100
AcDbSpline
 62
250
  6
CONTINUOUS
 70
0
 71
3
 72
13
 73
9
 74
0
 42
0.0000001
 43
0.0000001
 44
0.0000000001
 40
0.0
 40
0.0
 40
0.0
 40
0.0
 40
0.1249999285
 40
0.2499999325
 40
0.3749999398
 40
0.4999999505
 40
0.7499999749
 40
1.0
 40
1.0
 40
1.0
 40
1.0
 10
-24.2603442858
 20
57.7499995593
 30
0.0
 10
-24.2577725223
 20
56.8229193593
 30
0.0
 10
-24.2569684916
 20
54.9687490144
 30
0.0
 10
-24.2554806442
 20
52.1874979374
 30
0.0
 10
-24.2544451111
 20
49.4062448025
 30
0.0
 10
-24.2536403656
 20
45.6979074624
 30
0.0
 10
-24.2533684293
 20
41.0624854754
 30
0.0
 10
-24.2535038618
 20
37.3541479357
 30
0.0
 10
-24.2535132686
 20
35.4999791555
 30
0.0
  0
SPLINE
  5
372
100
AcDbEntity
  8
RACCORDO
100
AcDbSpline
 62
250
  6
CONTINUOUS
 70
0
 71
3
 72
17
 73
13
 74
0
 42
0.0000001
 43
0.0000001
 44
0.0000000001
 40
0.0
 40
0.0
 40
0.0
 40
0.0
 40
0.1249435121
 40
0.2499118759
 40
0.3124688034
 40
0.3750229695
 40
0.4999934271
 40
0.6249697231
 40
0.7499447397
 40
0.8124985253
 40
0.8750526545
 40
1.0
 40
1.0
 40
1.0
 40
1.0
 10
-22.2500000032
 20
59.758209193
 30
0.0
 10
-22.3811456332
 20
59.7587829779
 30
0.0
 10
-22.6442718132
 20
59.7323566113
 30
0.0
 10
-22.9597057751
 20
59.6351769765
 30
0.0
 10
-23.1974187598
 20
59.5229447579
 30
0.0
 10
-23.4224132104
 20
59.3869489108
 30
0.0
 10
-23.6765986418
 20
59.176079623
 30
0.0
 10
-23.9277885827
 20
58.870181236
 30
0.0
 10
-24.0851095039
 20
58.57991808
 30
0.0
 10
-24.1764656604
 20
58.3334099568
 30
0.0
 10
-24.2417204829
 20
58.0788237374
 30
0.0
 10
-24.2610395943
 20
57.8811486251
 30
0.0
 10
-24.2603442846
 20
57.7499995593
 30
0.0
  0
SPLINE
  5
373
100
AcDbEntity
  8
RACCORDO
100
AcDbSpline
 62
250
  6
CONTINUOUS
 70
0
 71
3
 72
15
 73
11
 74
0
 42
0.0000001
 43
0.0000001
 44
0.0000000001
 40
0.0
 40
0.0
 40
0.0
 40
0.0
 40
0.2500002338
 40
0.5000004583
 40
0.6250005566
 40
0.7500006222
 40
0.8125006425
 40
0.8750006597
 40
0.9375006202
 40
1.0
 40
1.0
 40
1.0
 40
1.0
 10
25.8563908699
 20
35.5
 30
0.0
 10
25.8563705331
 20
37.3522794568
 30
0.0
 10
25.8569102506
 20
41.0568382755
 30
0.0
 10
25.8550292978
 20
45.6875368103
 30
0.0
 10
25.8510441655
 20
49.3920931527
 30
0.0
 10
25.847104118
 20
51.7074385242
 30
0.0
 10
25.8426746927
 20
53.559711914
 30
0.0
 10
25.838046035
 20
54.9489125678
 30
0.0
 10
25.8347112737
 20
56.3381124179
 30
0.0
 10
25.8335595912
 20
57.2642457839
 30
0.0
 10
25.833007529
 20
57.7273102911
 30
0.0
  0
SPLINE
  5
374
100
AcDbEntity
  8
RACCORDO
100
AcDbSpline
 62
250
  6
CONTINUOUS
 70
0
 71
3
 72
10
 73
6
 74
0
 42
0.0000001
 43
0.0000001
 44
0.0000000001
 40
0.0
 40
0.0
 40
0.0
 40
0.0
 40
0.2499999228
 40
0.4999999319
 40
1.0
 40
1.0
 40
1.0
 40
1.0
 10
22.2500004021
 20
59.7582091935
 30
0.0
 10
21.3749911961
 20
59.7562047585
 30
0.0
 10
19.6249673416
 20
59.7548310572
 30
0.0
 10
16.1249209974
 20
59.7533340596
 30
0.0
 10
13.4998851317
 20
59.7537330531
 30
0.0
 10
11.7498613503
 20
59.7537950195
 30
0.0
  0
SPLINE
  5
375
100
AcDbEntity
  8
RACCORDO
100
AcDbSpline
 62
250
  6
CONTINUOUS
 70
0
 71
3
 72
10
 73
6
 74
0
 42
0.0000001
 43
0.0000001
 44
0.0000000001
 40
0.0
 40
0.0
 40
0.0
 40
0.0
 40
0.5000000682
 40
0.750000077
 40
1.0
 40
1.0
 40
1.0
 40
1.0
 10
-11.7498613503
 20
59.7537950195
 30
0.0
 10
-13.4998850654
 20
59.7537328874
 30
0.0
 10
-16.1249208353
 20
59.7533295619
 30
0.0
 10
-19.6249670333
 20
59.7548368761
 30
0.0
 10
-21.3749908425
 20
59.7561992507
 30
0.0
 10
-22.2500000032
 20
59.758209193
 30
0.0
  0
SPLINE
  5
376
100
AcDbEntity
  8
RACCORDO
100
AcDbSpline
 62
250
  6
CONTINUOUS
 70
0
 71
3
 72
34
 73
30
 74
0
 42
0.0000001
 43
0.0000001
 44
0.0000000001
 40
0.0
 40
0.0
 40
0.0
 40
0.0
 40
0.0624918006
 40
0.124981313
 40
0.1562354408
 40
0.1874881955
 40
0.2031152978
 40
0.2187415022
 40
0.2343681424
 40
0.2499953873
 40
0.265623332
 40
0.2812510847
 40
0.3125047061
 40
0.3437590669
 40
0.3750140514
 40
0.4375025721
 40
0.4999922623
 40
0.5624816898
 40
0.5937364017
 40
0.624990764
 40
0.6562459333
 40
0.6875013514
 40
0.7499890198
 40
0.7812444889
 40
0.8125000494
 40
0.8437555835
 40
0.8750109244
 40
0.9375079728
 40
1.0
 40
1.0
 40
1.0
 40
1.0
 10
25.833007529
 20
57.7273102911
 30
0.0
 10
25.8328674101
 20
57.8454137055
 30
0.0
 10
25.8208110793
 20
58.0817613366
 30
0.0
 10
25.7759243149
 20
58.3741596611
 30
0.0
 10
25.7218308341
 20
58.604199977
 30
0.0
 10
25.6809144739
 20
58.7461627853
 30
0.0
 10
25.6433066063
 20
58.858169438
 30
0.0
 10
25.6121018953
 20
58.9411044316
 30
0.0
 10
25.5794549886
 20
59.0234710123
 30
0.0
 10
25.5485318621
 20
59.1065041235
 30
0.0
 10
25.517065664
 20
59.1893380703
 30
0.0
 10
25.4720203717
 20
59.2985664041
 30
0.0
 10
25.4100691984
 20
59.4326969219
 30
0.0
 10
25.3272042486
 20
59.5894312451
 30
0.0
 10
25.2055311242
 20
59.7920329114
 30
0.0
 10
25.0330872171
 20
60.0324921527
 30
0.0
 10
24.7962622412
 20
60.2968837664
 30
0.0
 10
24.5766326434
 20
60.4951037212
 30
0.0
 10
24.3895206031
 20
60.6394548264
 30
0.0
 10
24.243584299
 20
60.7401267545
 30
0.0
 10
24.0928061707
 20
60.8333519795
 30
0.0
 10
23.8864608223
 20
60.948521029
 30
0.0
 10
23.6710356366
 20
61.0467250617
 30
0.0
 10
23.4493316067
 20
61.1284858105
 30
0.0
 10
23.2801974363
 20
61.1816150501
 30
0.0
 10
23.1086710036
 20
61.2264628294
 30
0.0
 10
22.8774076492
 20
61.2748933796
 30
0.0
 10
22.585751252
 20
61.3232777662
 30
0.0
 10
22.3493465491
 20
61.3363770289
 30
0.0
 10
22.231246233
 20
61.337300403
 30
0.0
  0
SPLINE
  5
377
100
AcDbEntity
  8
RACCORDO
100
AcDbSpline
 62
250
  6
CONTINUOUS
 70
0
 71
3
 72
17
 73
13
 74
0
 42
0.0000001
 43
0.0000001
 44
0.0000000001
 40
0.0
 40
0.0
 40
0.0
 40
0.0
 40
0.124945911
 40
0.1874995059
 40
0.2500531056
 40
0.375028644
 40
0.500005397
 40
0.6249765705
 40
0.6875308189
 40
0.7500876585
 40
0.8750562131
 40
1.0
 40
1.0
 40
1.0
 40
1.0
 10
24.2603442862
 20
57.7499999075
 30
0.0
 10
24.2610395935
 20
57.8811474371
 30
0.0
 10
24.2417208336
 20
58.0788204003
 30
0.0
 10
24.1764673622
 20
58.3334045501
 30
0.0
 10
24.0851122903
 20
58.579912796
 30
0.0
 10
23.9277914775
 20
58.8701769052
 30
0.0
 10
23.6766012557
 20
59.1760772579
 30
0.0
 10
23.4224149917
 20
59.3869475429
 30
0.0
 10
23.1974201427
 20
59.522944048
 30
0.0
 10
22.9597071029
 20
59.6351764755
 30
0.0
 10
22.6442728914
 20
59.7323563828
 30
0.0
 10
22.3811462902
 20
59.758782954
 30
0.0
 10
22.2500004021
 20
59.7582091945
 30
0.0
  0
SPLINE
  5
378
100
AcDbEntity
  8
RACCORDO
100
AcDbSpline
 62
250
  6
CONTINUOUS
 70
0
 71
3
 72
11
 73
7
 74
0
 42
0.0000001
 43
0.0000001
 44
0.0000000001
 40
0.0
 40
0.0
 40
0.0
 40
0.0
 40
0.2499992093
 40
0.499999311
 40
0.7499996783
 40
1.0
 40
1.0
 40
1.0
 40
1.0
 10
22.231246233
 20
61.337300403
 30
0.0
 10
21.3578355221
 20
61.3441508454
 30
0.0
 10
19.6109609092
 20
61.3507056095
 30
0.0
 10
16.9906494522
 20
61.3565974512
 30
0.0
 10
14.3703242177
 20
61.3576560483
 30
0.0
 10
12.6234414493
 20
61.3574625484
 30
0.0
 10
11.75
 20
61.3576119577
 30
0.0
  0
SPLINE
  5
379
100
AcDbEntity
  8
RACCORDO
100
AcDbSpline
 62
250
  6
CONTINUOUS
 70
0
 71
3
 72
13
 73
9
 74
0
 42
0.0000001
 43
0.0000001
 44
0.0000000001
 40
0.0
 40
0.0
 40
0.0
 40
0.0
 40
0.2500000251
 40
0.5000000496
 40
0.6250000602
 40
0.7500000676
 40
0.8750000716
 40
1.0
 40
1.0
 40
1.0
 40
1.0
 10
24.2535132686
 20
35.4999791554
 30
0.0
 10
24.2535038578
 20
37.3541479649
 30
0.0
 10
24.2533684334
 20
41.0624855632
 30
0.0
 10
24.2536403638
 20
45.6979076234
 30
0.0
 10
24.2544450605
 20
49.4062450221
 30
0.0
 10
24.2554812206
 20
52.1874982012
 30
0.0
 10
24.2569669783
 20
54.968749321
 30
0.0
 10
24.2577711172
 20
56.8229196979
 30
0.0
 10
24.2603442864
 20
57.7499999075
 30
0.0
  0
SPLINE
  5
37A
100
AcDbEntity
  8
RACCORDO
100
AcDbSpline
 62
250
  6
CONTINUOUS
 70
0
 71
3
 72
11
 73
7
 74
0
 42
0.0000001
 43
0.0000001
 44
0.0000000001
 40
0.0
 40
0.0
 40
0.0
 40
0.0
 40
0.2500798351
 40
0.5000396757
 40
0.7499924243
 40
1.0
 40
1.0
 40
1.0
 40
1.0
 10
22.9188423999
 20
11.3998704614
 30
0.0
 10
23.1087350819
 20
11.4685188491
 30
0.0
 10
23.471444056
 20
11.66038805
 30
0.0
 10
23.9065566593
 20
12.0947146612
 30
0.0
 10
24.1884197738
 20
12.6415707658
 30
0.0
 10
24.2535147742
 20
13.0481163323
 30
0.0
 10
24.2535132101
 20
13.2499783485
 30
0.0
  0
SPLINE
  5
37B
100
AcDbEntity
  8
RACCORDO
100
AcDbSpline
 62
250
  6
CONTINUOUS
 70
0
 71
3
 72
15
 73
11
 74
0
 42
0.0000001
 43
0.0000001
 44
0.0000000001
 40
0.0
 40
0.0
 40
0.0
 40
0.0
 40
0.1249847134
 40
0.2499944551
 40
0.3750228719
 40
0.5000551803
 40
0.6250832927
 40
0.7500974453
 40
0.8750762583
 40
1.0
 40
1.0
 40
1.0
 40
1.0
 10
37.0373529125
 20
-74.3738010161
 30
0.0
 10
37.1557171184
 20
-74.3701216808
 30
0.0
 10
37.3923679234
 20
-74.340232769
 30
0.0
 10
37.7322475641
 20
-74.2300022752
 30
0.0
 10
38.0459348628
 20
-74.0585947082
 30
0.0
 10
38.3223842571
 20
-73.8319953667
 30
0.0
 10
38.5520541645
 20
-73.558105858
 30
0.0
 10
38.7268321253
 20
-73.2463194699
 30
0.0
 10
38.8403648945
 20
-72.9076083223
 30
0.0
 10
38.8719744766
 20
-72.6711875992
 30
0.0
 10
38.876126114
 20
-72.5528968235
 30
0.0
  0
SPLINE
  5
37C
100
AcDbEntity
  8
RACCORDO
100
AcDbSpline
 62
250
  6
CONTINUOUS
 70
0
 71
3
 72
17
 73
13
 74
0
 42
0.0000001
 43
0.0000001
 44
0.0000000001
 40
0.0
 40
0.0
 40
0.0
 40
0.0
 40
0.124945911
 40
0.1874995059
 40
0.2500531056
 40
0.375028644
 40
0.500005397
 40
0.6249765705
 40
0.6875308189
 40
0.7500876585
 40
0.8750562131
 40
1.0
 40
1.0
 40
1.0
 40
1.0
 10
-24.2603442862
 20
-57.7499999075
 30
0.0
 10
-24.2610395935
 20
-57.8811474371
 30
0.0
 10
-24.2417208336
 20
-58.0788204003
 30
0.0
 10
-24.1764673622
 20
-58.3334045501
 30
0.0
 10
-24.0851122903
 20
-58.579912796
 30
0.0
 10
-23.9277914775
 20
-58.8701769052
 30
0.0
 10
-23.6766012557
 20
-59.1760772579
 30
0.0
 10
-23.4224149917
 20
-59.3869475429
 30
0.0
 10
-23.1974201427
 20
-59.522944048
 30
0.0
 10
-22.9597071029
 20
-59.6351764755
 30
0.0
 10
-22.6442728914
 20
-59.7323563828
 30
0.0
 10
-22.3811462902
 20
-59.758782954
 30
0.0
 10
-22.2500004021
 20
-59.7582091945
 30
0.0
  0
SPLINE
  5
37D
100
AcDbEntity
  8
RACCORDO
100
AcDbSpline
 62
250
  6
CONTINUOUS
 70
0
 71
3
 72
32
 73
28
 74
0
 42
0.0000001
 43
0.0000001
 44
0.0000000001
 40
0.0
 40
0.0
 40
0.0
 40
0.0
 40
0.1250029025
 40
0.2500057794
 40
0.375008645
 40
0.5000111091
 40
0.5625119134
 40
0.625012204
 40
0.6875120954
 40
0.7500118057
 40
0.7812612372
 40
0.8125100313
 40
0.8281344299
 40
0.8437589956
 40
0.8750081016
 40
0.9062570987
 40
0.9218816086
 40
0.9375061473
 40
0.9531307194
 40
0.9609430237
 40
0.9687553267
 40
0.9726614904
 40
0.9765676354
 40
0.980473823
 40
0.9843797963
 40
0.9921907331
 40
1.0
 40
1.0
 40
1.0
 40
1.0
 10
11.75
 20
-74.5628707425
 30
0.0
 10
12.8037267461
 20
-74.5629345599
 30
0.0
 10
14.911177715
 20
-74.5670016068
 30
0.0
 10
18.0723518096
 20
-74.5729817318
 30
0.0
 10
21.233534223
 20
-74.570205495
 30
0.0
 10
23.8678137277
 20
-74.5555873189
 30
0.0
 10
25.9751560144
 20
-74.5357128015
 30
0.0
 10
27.5556174512
 20
-74.5178231203
 30
0.0
 10
29.1360543274
 20
-74.4988603283
 30
0.0
 10
30.4530988664
 20
-74.4842354337
 30
0.0
 10
31.5066342788
 20
-74.4664461012
 30
0.0
 10
32.165074043
 20
-74.4545410577
 30
0.0
 10
32.6918748606
 20
-74.4486611007
 30
0.0
 10
33.218658973
 20
-74.4413377623
 30
0.0
 10
33.8771289638
 20
-74.4314433253
 30
0.0
 10
34.5356066499
 20
-74.4221070311
 30
0.0
 10
35.0623922881
 20
-74.4149169044
 30
0.0
 10
35.4574839488
 20
-74.4096595731
 30
0.0
 10
35.7867303589
 20
-74.4054620468
 30
0.0
 10
36.0501269419
 20
-74.4021063234
 30
0.0
 10
36.2147535041
 20
-74.4001046031
 30
0.0
 10
36.3464511505
 20
-74.3986291674
 30
0.0
 10
36.4452312575
 20
-74.3969168494
 30
0.0
 10
36.5438839786
 20
-74.3917000902
 30
0.0
 10
36.6754653956
 20
-74.386217069
 30
0.0
 10
36.839955979
 20
-74.3802243948
 30
0.0
 10
36.9715554455
 20
-74.3758427866
 30
0.0
 10
37.0373529125
 20
-74.3738010161
 30
0.0
  0
SPLINE
  5
37E
100
AcDbEntity
  8
RACCORDO
100
AcDbSpline
 62
250
  6
CONTINUOUS
 70
0
 71
3
 72
13
 73
9
 74
0
 42
0.0000001
 43
0.0000001
 44
0.0000000001
 40
0.0
 40
0.0
 40
0.0
 40
0.0
 40
0.2500000251
 40
0.5000000496
 40
0.6250000602
 40
0.7500000676
 40
0.8750000716
 40
1.0
 40
1.0
 40
1.0
 40
1.0
 10
-24.2535132686
 20
-35.4999791571
 30
0.0
 10
-24.2535038578
 20
-37.3541479664
 30
0.0
 10
-24.2533684334
 20
-41.0624855644
 30
0.0
 10
-24.2536403638
 20
-45.6979076243
 30
0.0
 10
-24.2544450605
 20
-49.4062450227
 30
0.0
 10
-24.2554812206
 20
-52.1874982016
 30
0.0
 10
-24.2569669783
 20
-54.9687493212
 30
0.0
 10
-24.2577711172
 20
-56.822919698
 30
0.0
 10
-24.2603442864
 20
-57.7499999075
 30
0.0
  0
SPLINE
  5
37F
100
AcDbEntity
  8
RACCORDO
100
AcDbSpline
 62
250
  6
CONTINUOUS
 70
0
 71
3
 72
11
 73
7
 74
0
 42
0.0000001
 43
0.0000001
 44
0.0000000001
 40
0.0
 40
0.0
 40
0.0
 40
0.0
 40
0.2500798293
 40
0.5000396684
 40
0.7499924181
 40
1.0
 40
1.0
 40
1.0
 40
1.0
 10
-22.9188423999
 20
-11.3998704614
 30
0.0
 10
-23.1087350738
 20
-11.4685188516
 30
0.0
 10
-23.4714440411
 20
-11.6603880398
 30
0.0
 10
-23.9065566429
 20
-12.0947146382
 30
0.0
 10
-24.188419763
 20
-12.6415707366
 30
0.0
 10
-24.2535147756
 20
-13.0481163043
 30
0.0
 10
-24.25351321
 20
-13.2499783234
 30
0.0
  0
SPLINE
  5
380
100
AcDbEntity
  8
RACCORDO
100
AcDbSpline
 62
250
  6
CONTINUOUS
 70
0
 71
3
 72
11
 73
7
 74
0
 42
0.0000001
 43
0.0000001
 44
0.0000000001
 40
0.0
 40
0.0
 40
0.0
 40
0.0
 40
0.2500003218
 40
0.5000006889
 40
0.7500007912
 40
1.0
 40
1.0
 40
1.0
 40
1.0
 10
11.75
 20
-61.3576119575
 30
0.0
 10
12.6234414507
 20
-61.3574623418
 30
0.0
 10
14.3703242296
 20
-61.357659103
 30
0.0
 10
16.9906494303
 20
-61.3565888698
 30
0.0
 10
19.6109610239
 20
-61.3507259198
 30
0.0
 10
21.3578353732
 20
-61.3441317236
 30
0.0
 10
22.231246233
 20
-61.337300403
 30
0.0
  0
SPLINE
  5
381
100
AcDbEntity
  8
RACCORDO
100
AcDbSpline
 62
250
  6
CONTINUOUS
 70
0
 71
3
 72
38
 73
34
 74
0
 42
0.0000001
 43
0.0000001
 44
0.0000000001
 40
0.0
 40
0.0
 40
0.0
 40
0.0
 40
0.0624906201
 40
0.0781191036
 40
0.0937473351
 40
0.1093757575
 40
0.1250042265
 40
0.1406325389
 40
0.1562609156
 40
0.1875157673
 40
0.2187706322
 40
0.2500254799
 40
0.3125120057
 40
0.3437668413
 40
0.3750213123
 40
0.4062748935
 40
0.4375288146
 40
0.5000165076
 40
0.5625048315
 40
0.6249916488
 40
0.6562457665
 40
0.6874992875
 40
0.7187522244
 40
0.7343794923
 40
0.7500071304
 40
0.7656340928
 40
0.7812604128
 40
0.79688649
 40
0.812513393
 40
0.8437657935
 40
0.875019625
 40
0.9375085304
 40
1.0
 40
1.0
 40
1.0
 40
1.0
 10
22.231246233
 20
-61.337300403
 30
0.0
 10
22.3493462302
 20
-61.3363770805
 30
0.0
 10
22.4970718954
 20
-61.327750685
 30
0.0
 10
22.6729972228
 20
-61.3067056681
 30
0.0
 10
22.760648308
 20
-61.2935893828
 30
0.0
 10
22.8478926981
 20
-61.2780742923
 30
0.0
 10
22.9350778393
 20
-61.2622426629
 30
0.0
 10
23.0219682208
 20
-61.2448278286
 30
0.0
 10
23.1372333689
 20
-61.2188734582
 30
0.0
 10
23.2802033192
 20
-61.1816560091
 30
0.0
 10
23.4493274518
 20
-61.128475802
 30
0.0
 10
23.6710346737
 20
-61.0467318317
 30
0.0
 10
23.8864598848
 20
-60.9485227931
 30
0.0
 10
24.0928040986
 20
-60.8333523176
 30
0.0
 10
24.2435833428
 20
-60.7401294985
 30
0.0
 10
24.3895181557
 20
-60.6394567095
 30
0.0
 10
24.5766278955
 20
-60.495105277
 30
0.0
 10
24.7962583498
 20
-60.296888693
 30
0.0
 10
25.0330822356
 20
-60.0324984078
 30
0.0
 10
25.2055241418
 20
-59.7920404487
 30
0.0
 10
25.3272012645
 20
-59.5894423603
 30
0.0
 10
25.4100533963
 20
-59.4327041285
 30
0.0
 10
25.4720474733
 20
-59.2985918531
 30
0.0
 10
25.5170052919
 20
-59.1893287342
 30
0.0
 10
25.5485672306
 20
-59.1065321627
 30
0.0
 10
25.5794206148
 20
-59.0234722879
 30
0.0
 10
25.6121509982
 20
-58.9411374613
 30
0.0
 10
25.6432846078
 20
-58.8581751302
 30
0.0
 10
25.6809167574
 20
-58.7461764848
 30
0.0
 10
25.7218248581
 20
-58.6042089272
 30
0.0
 10
25.7759250443
 20
-58.374168401
 30
0.0
 10
25.8208101775
 20
-58.0817657143
 30
0.0
 10
25.8328672079
 20
-57.8454154197
 30
0.0
 10
25.833007529
 20
-57.7273102911
 30
0.0
  0
SPLINE
  5
382
100
AcDbEntity
  8
RACCORDO
100
AcDbSpline
 62
250
  6
CONTINUOUS
 70
0
 71
3
 72
11
 73
7
 74
0
 42
0.0000001
 43
0.0000001
 44
0.0000000001
 40
0.0
 40
0.0
 40
0.0
 40
0.0
 40
0.2499647418
 40
0.4999257715
 40
0.7499044056
 40
1.0
 40
1.0
 40
1.0
 40
1.0
 10
24.2535132541
 20
-13.2499924022
 30
0.0
 10
24.2535138043
 20
-13.0481638027
 30
0.0
 10
24.1884411313
 20
-12.6416446704
 30
0.0
 10
23.906609459
 20
-12.0947806996
 30
0.0
 10
23.4714834171
 20
-11.6604109949
 30
0.0
 10
23.1087481494
 20
-11.4685235682
 30
0.0
 10
22.9188423999
 20
-11.3998704614
 30
0.0
  0
SPLINE
  5
383
100
AcDbEntity
  8
RACCORDO
100
AcDbSpline
 62
250
  6
CONTINUOUS
 70
0
 71
3
 72
15
 73
11
 74
0
 42
0.0000001
 43
0.0000001
 44
0.0000000001
 40
0.0
 40
0.0
 40
0.0
 40
0.0
 40
0.0624993802
 40
0.1249993411
 40
0.187499358
 40
0.2499993784
 40
0.3749994438
 40
0.4999995421
 40
0.7499997664
 40
1.0
 40
1.0
 40
1.0
 40
1.0
 10
25.833007529
 20
-57.7273102911
 30
0.0
 10
25.8335614834
 20
-57.2642457835
 30
0.0
 10
25.8347110846
 20
-56.3381124066
 30
0.0
 10
25.8380556871
 20
-54.9489125788
 30
0.0
 10
25.8426633379
 20
-53.5597118635
 30
0.0
 10
25.8471125439
 20
-51.7074385286
 30
0.0
 10
25.8510408839
 20
-49.3920931307
 30
0.0
 10
25.8550312507
 20
-45.6875368039
 30
0.0
 10
25.856909529
 20
-41.0568382681
 30
0.0
 10
25.8563705486
 20
-37.3522794549
 30
0.0
 10
25.8563908699
 20
-35.5
 30
0.0
  0
SPLINE
  5
384
100
AcDbEntity
  8
RACCORDO
100
AcDbSpline
 62
250
  6
CONTINUOUS
 70
0
 71
3
 72
13
 73
9
 74
0
 42
0.0000001
 43
0.0000001
 44
0.0000000001
 40
0.0
 40
0.0
 40
0.0
 40
0.0
 40
0.1249999285
 40
0.2499999325
 40
0.3749999398
 40
0.4999999505
 40
0.7499999749
 40
1.0
 40
1.0
 40
1.0
 40
1.0
 10
24.2603442858
 20
-57.7499995593
 30
0.0
 10
24.2577725223
 20
-56.8229193593
 30
0.0
 10
24.2569684916
 20
-54.9687490144
 30
0.0
 10
24.2554806442
 20
-52.1874979374
 30
0.0
 10
24.2544451111
 20
-49.4062448025
 30
0.0
 10
24.2536403656
 20
-45.6979074623
 30
0.0
 10
24.2533684293
 20
-41.0624854754
 30
0.0
 10
24.2535038618
 20
-37.3541479356
 30
0.0
 10
24.2535132686
 20
-35.4999791554
 30
0.0
  0
SPLINE
  5
385
100
AcDbEntity
  8
RACCORDO
100
AcDbSpline
 62
250
  6
CONTINUOUS
 70
0
 71
3
 72
17
 73
13
 74
0
 42
0.0000001
 43
0.0000001
 44
0.0000000001
 40
0.0
 40
0.0
 40
0.0
 40
0.0
 40
0.1249435121
 40
0.2499118759
 40
0.3124688034
 40
0.3750229695
 40
0.4999934271
 40
0.6249697231
 40
0.7499447397
 40
0.8124985253
 40
0.8750526545
 40
1.0
 40
1.0
 40
1.0
 40
1.0
 10
22.2500000032
 20
-59.758209193
 30
0.0
 10
22.3811456332
 20
-59.7587829779
 30
0.0
 10
22.6442718132
 20
-59.7323566113
 30
0.0
 10
22.9597057751
 20
-59.6351769765
 30
0.0
 10
23.1974187598
 20
-59.5229447579
 30
0.0
 10
23.4224132104
 20
-59.3869489108
 30
0.0
 10
23.6765986418
 20
-59.176079623
 30
0.0
 10
23.9277885827
 20
-58.870181236
 30
0.0
 10
24.0851095039
 20
-58.57991808
 30
0.0
 10
24.1764656604
 20
-58.3334099568
 30
0.0
 10
24.2417204829
 20
-58.0788237374
 30
0.0
 10
24.2610395943
 20
-57.8811486251
 30
0.0
 10
24.2603442846
 20
-57.7499995593
 30
0.0
  0
SPLINE
  5
386
100
AcDbEntity
  8
RACCORDO
100
AcDbSpline
 62
250
  6
CONTINUOUS
 70
0
 71
3
 72
35
 73
31
 74
0
 42
0.0000001
 43
0.0000001
 44
0.0000000001
 40
0.0
 40
0.0
 40
0.0
 40
0.0
 40
0.007805145
 40
0.0156135971
 40
0.0195189946
 40
0.0234250023
 40
0.0253781426
 40
0.0273312791
 40
0.0312371622
 40
0.0351432487
 40
0.0390493757
 40
0.0429555025
 40
0.046861625
 40
0.0546738768
 40
0.0624861439
 40
0.0781107233
 40
0.0937353777
 40
0.1093601235
 40
0.1249849673
 40
0.156234923
 40
0.1874851541
 40
0.2499860285
 40
0.2812365744
 40
0.3124871331
 40
0.3749882634
 40
0.4374894074
 40
0.4999905636
 40
0.6249929008
 40
0.7499952602
 40
1.0
 40
1.0
 40
1.0
 40
1.0
 10
38.876126114
 20
-72.5528968235
 30
0.0
 10
38.8795030162
 20
-72.4565493018
 30
0.0
 10
38.8868019265
 20
-72.2638318081
 30
0.0
 10
38.8980680494
 20
-72.0229969379
 30
0.0
 10
38.9091846005
 20
-71.8303829554
 30
0.0
 10
38.9178192947
 20
-71.7100776862
 30
0.0
 10
38.9250953954
 20
-71.613864908
 30
0.0
 10
38.9323293106
 20
-71.5176140545
 30
0.0
 10
38.9322790692
 20
-71.3969143961
 30
0.0
 10
38.9342609184
 20
-71.2522131775
 30
0.0
 10
38.936704788
 20
-71.1074861374
 30
0.0
 10
38.9388688144
 20
-70.9627622806
 30
0.0
 10
38.9416206997
 20
-70.7697924601
 30
0.0
 10
38.9451692241
 20
-70.5285825118
 30
0.0
 10
38.9509481899
 20
-70.1426466961
 30
0.0
 10
38.9581161913
 20
-69.6602246936
 30
0.0
 10
38.9666916388
 20
-69.0813156218
 30
0.0
 10
38.9751053437
 20
-68.5024009112
 30
0.0
 10
38.9859139397
 20
-67.7305019413
 30
0.0
 10
38.998134834
 20
-66.7656028862
 30
0.0
 10
39.0140960709
 20
-65.2217105014
 30
0.0
 10
39.0245094255
 20
-63.6777590137
 30
0.0
 10
39.0306054725
 20
-62.1337859572
 30
0.0
 10
39.0350536814
 20
-60.5898041471
 30
0.0
 10
39.0398876456
 20
-58.659824659
 30
0.0
 10
39.045103328
 20
-56.3438474262
 30
0.0
 10
39.0509613916
 20
-53.2558747447
 30
0.0
 10
39.0565329788
 20
-49.395905096
 30
0.0
 10
39.0620302114
 20
-43.2199489095
 30
0.0
 10
39.0629399374
 20
-38.5879794527
 30
0.0
 10
39.0629215791
 20
-35.4999999984
 30
0.0
  0
SPLINE
  5
387
100
AcDbEntity
  8
RACCORDO
100
AcDbSpline
 62
250
  6
CONTINUOUS
 70
0
 71
3
 72
10
 73
6
 74
0
 42
0.0000001
 43
0.0000001
 44
0.0000000001
 40
0.0
 40
0.0
 40
0.0
 40
0.0
 40
0.2499999228
 40
0.4999999319
 40
1.0
 40
1.0
 40
1.0
 40
1.0
 10
-22.2500004021
 20
-59.7582091935
 30
0.0
 10
-21.3749911961
 20
-59.7562047585
 30
0.0
 10
-19.6249673416
 20
-59.7548310572
 30
0.0
 10
-16.1249209974
 20
-59.7533340596
 30
0.0
 10
-13.4998851317
 20
-59.7537330531
 30
0.0
 10
-11.7498613503
 20
-59.7537950195
 30
0.0
  0
SPLINE
  5
388
100
AcDbEntity
  8
RACCORDO
100
AcDbSpline
 62
250
  6
CONTINUOUS
 70
0
 71
3
 72
10
 73
6
 74
0
 42
0.0000001
 43
0.0000001
 44
0.0000000001
 40
0.0
 40
0.0
 40
0.0
 40
0.0
 40
0.5000000682
 40
0.750000077
 40
1.0
 40
1.0
 40
1.0
 40
1.0
 10
11.7498613503
 20
-59.7537950195
 30
0.0
 10
13.4998850654
 20
-59.7537328874
 30
0.0
 10
16.1249208353
 20
-59.7533295619
 30
0.0
 10
19.6249670333
 20
-59.7548368761
 30
0.0
 10
21.3749908425
 20
-59.7561992507
 30
0.0
 10
22.2500000032
 20
-59.758209193
 30
0.0
  0
SPLINE
  5
389
100
AcDbEntity
  8
RACCORDO
100
AcDbSpline
 62
250
  6
CONTINUOUS
 70
0
 71
3
 72
35
 73
31
 74
0
 42
0.0000001
 43
0.0000001
 44
0.0000000001
 40
0.0
 40
0.0
 40
0.0
 40
0.0
 40
0.2500047413
 40
0.3750071015
 40
0.5000094395
 40
0.562510596
 40
0.6250117404
 40
0.6875128712
 40
0.7187634302
 40
0.750013976
 40
0.8125148514
 40
0.8437650829
 40
0.875015039
 40
0.890639883
 40
0.9062646289
 40
0.9218892833
 40
0.9375138629
 40
0.94532613
 40
0.9531383819
 40
0.9570445044
 40
0.9609506312
 40
0.9648567584
 40
0.9687628479
 40
0.9726687154
 40
0.9746218579
 40
0.976575
 40
0.9804810065
 40
0.9843864036
 40
0.9921948552
 40
1.0
 40
1.0
 40
1.0
 40
1.0
 10
-39.0629215791
 20
-35.4999999921
 30
0.0
 10
-39.0629399373
 20
-38.5879794385
 30
0.0
 10
-39.0620299874
 20
-43.219948883
 30
0.0
 10
-39.0565333432
 20
-49.3959050555
 30
0.0
 10
-39.0509603409
 20
-53.2558746908
 30
0.0
 10
-39.0451051277
 20
-56.3438473723
 30
0.0
 10
-39.0398814462
 20
-58.659824578
 30
0.0
 10
-39.0350665129
 20
-60.5898041196
 30
0.0
 10
-39.0305930069
 20
-62.1337858451
 30
0.0
 10
-39.0245171524
 20
-63.6777589801
 30
0.0
 10
-39.0140947394
 20
-65.2217104333
 30
0.0
 10
-38.9981354504
 20
-66.7656028388
 30
0.0
 10
-38.9859125495
 20
-67.7305018728
 30
0.0
 10
-38.975105588
 20
-68.5024008653
 30
0.0
 10
-38.9666919235
 20
-69.0813155761
 30
0.0
 10
-38.9581161087
 20
-69.660224641
 30
0.0
 10
-38.9509482168
 20
-70.1426466454
 30
0.0
 10
-38.9451694289
 20
-70.5285824602
 30
0.0
 10
-38.9416207472
 20
-70.7697924122
 30
0.0
 10
-38.9388685882
 20
-70.9627622151
 30
0.0
 10
-38.9367052415
 20
-71.1074861243
 30
0.0
 10
-38.9342601734
 20
-71.2522130335
 30
0.0
 10
-38.9322790475
 20
-71.3969146704
 30
0.0
 10
-38.9322975364
 20
-71.5176121165
 30
0.0
 10
-38.9251270616
 20
-71.6138671568
 30
0.0
 10
-38.9178090294
 20
-71.7100769776
 30
0.0
 10
-38.909188727
 20
-71.8303833035
 30
0.0
 10
-38.8980660407
 20
-72.0229968167
 30
0.0
 10
-38.8868026149
 20
-72.263831876
 30
0.0
 10
-38.8795030715
 20
-72.456549308
 30
0.0
 10
-38.876126114
 20
-72.5528968235
 30
0.0
  0
LINE
  5
38A
100
AcDbEntity
  8
RACCORDO
100
AcDbLine
 62
7
  6
CONTINUOUS
 10
-74.2046336872
 20
61.337300403
 11
-74.2154481692
 21
61.3574840545
  0
SPLINE
  5
38B
100
AcDbEntity
  8
RACCORDO
100
AcDbSpline
 62
250
  6
CONTINUOUS
 70
0
 71
3
 72
13
 73
9
 74
0
 42
0.0000001
 43
0.0000001
 44
0.0000000001
 40
0.0
 40
0.0
 40
0.0
 40
0.0
 40
0.3162595436
 40
0.603471435
 40
0.7281047253
 40
0.8366938045
 40
0.9282294258
 40
1.0
 40
1.0
 40
1.0
 40
1.0
 10
-74.216010614
 20
-13.25
 30
0.0
 10
-74.2160088319
 20
-12.8860630439
 30
0.0
 10
-74.2231272754
 20
-12.1915934926
 30
0.0
 10
-74.2484957716
 20
-11.354055878
 30
0.0
 10
-74.2746535652
 20
-10.7557321566
 30
0.0
 10
-74.2931262372
 20
-10.3824690588
 30
0.0
 10
-74.3082986799
 20
-10.069960748
 30
0.0
 10
-74.3134019044
 20
-9.8820532517
 30
0.0
 10
-74.3134019251
 20
-9.7994629716
 30
0.0
  0
SPLINE
  5
38C
100
AcDbEntity
  8
RACCORDO
100
AcDbSpline
 62
250
  6
CONTINUOUS
 70
0
 71
3
 72
13
 73
9
 74
0
 42
0.0000001
 43
0.0000001
 44
0.0000000001
 40
0.0
 40
0.0
 40
0.0
 40
0.0
 40
0.0717650776
 40
0.1632924718
 40
0.2718706853
 40
0.3964901522
 40
0.6836877536
 40
1.0
 40
1.0
 40
1.0
 40
1.0
 10
-74.3134019251
 20
9.7994631501
 30
0.0
 10
-74.3134019061
 20
9.8820471007
 30
0.0
 10
-74.3082997322
 20
10.0699388088
 30
0.0
 10
-74.2931285189
 20
10.3824188423
 30
0.0
 10
-74.2746579392
 20
10.7556440936
 30
0.0
 10
-74.2485003027
 20
11.3539228991
 30
0.0
 10
-74.2231307444
 20
12.1914886933
 30
0.0
 10
-74.2160055112
 20
12.8860024152
 30
0.0
 10
-74.216010614
 20
13.25
 30
0.0
  0
SPLINE
  5
38D
100
AcDbEntity
  8
RACCORDO
100
AcDbSpline
 62
250
  6
CONTINUOUS
 70
0
 71
3
 72
30
 73
26
 74
0
 42
0.0000001
 43
0.0000001
 44
0.0000000001
 40
0.0
 40
0.0
 40
0.0
 40
0.0
 40
0.0524704019
 40
0.0779820408
 40
0.1060904961
 40
0.1227531856
 40
0.1318590199
 40
0.1509756025
 40
0.1901380248
 40
0.2308342547
 40
0.3155856421
 40
0.3583499524
 40
0.398933967
 40
0.4414674251
 40
0.4899011122
 40
0.535536838
 40
0.5769441699
 40
0.6435638763
 40
0.7097927595
 40
0.8334202082
 40
0.9261028999
 40
0.9578347092
 40
0.9801470971
 40
0.9938044189
 40
1.0
 40
1.0
 40
1.0
 40
1.0
 10
-71.3610112235
 20
74.3738010161
 30
0.0
 10
-71.3639883144
 20
74.376560237
 30
0.0
 10
-71.3679002537
 20
74.3812543469
 30
0.0
 10
-71.3716746696
 20
74.3886504727
 30
0.0
 10
-71.3726933907
 20
74.3939475321
 30
0.0
 10
-71.3734092426
 20
74.3982332234
 30
0.0
 10
-71.3758858534
 20
74.4007621317
 30
0.0
 10
-71.3789016208
 20
74.404989895
 30
0.0
 10
-71.3837615394
 20
74.4109276151
 30
0.0
 10
-71.3914956919
 20
74.4210361761
 30
0.0
 10
-71.3993604448
 20
74.4314148657
 30
0.0
 10
-71.4066555073
 20
74.4421786974
 30
0.0
 10
-71.4123873386
 20
74.450063335
 30
0.0
 10
-71.4195445205
 20
74.4573851006
 30
0.0
 10
-71.4246783054
 20
74.4666994301
 30
0.0
 10
-71.4300866518
 20
74.4756676841
 30
0.0
 10
-71.4349114053
 20
74.4865735934
 30
0.0
 10
-71.4426551807
 20
74.4976686399
 30
0.0
 10
-71.452907608
 20
74.514646261
 30
0.0
 10
-71.4637675445
 20
74.5336218739
 30
0.0
 10
-71.4721111717
 20
74.5509485746
 30
0.0
 10
-71.4764631118
 20
74.5613987749
 30
0.0
 10
-71.4783164282
 20
74.5663546903
 30
0.0
 10
-71.479121069
 20
74.5694288518
 30
0.0
 10
-71.479478145
 20
74.5710335858
 30
0.0
 10
-71.4793140109
 20
74.5714838956
 30
0.0
  0
SPLINE
  5
38E
100
AcDbEntity
  8
RACCORDO
100
AcDbSpline
 62
250
  6
CONTINUOUS
 70
0
 71
3
 72
27
 73
23
 74
0
 42
0.0000001
 43
0.0000001
 44
0.0000000001
 40
0.0
 40
0.0
 40
0.0
 40
0.0
 40
0.0078124511
 40
0.0156248985
 40
0.0234373201
 40
0.0312498077
 40
0.0468748076
 40
0.0624998077
 40
0.0781248078
 40
0.0937498082
 40
0.1249998072
 40
0.1562498065
 40
0.1874998078
 40
0.2499997968
 40
0.3124998109
 40
0.3749998279
 40
0.437499845
 40
0.4999998622
 40
0.624999896
 40
0.7499999302
 40
0.874999965
 40
1.0
 40
1.0
 40
1.0
 40
1.0
 10
-70.4420718251
 20
-72.5
 30
0.0
 10
-70.4472590205
 20
-72.403783183
 30
0.0
 10
-70.4568656294
 20
-72.2113068484
 30
0.0
 10
-70.4685609635
 20
-71.9224699769
 30
0.0
 10
-70.4766349197
 20
-71.6334995311
 30
0.0
 10
-70.4809010207
 20
-71.2480892843
 30
0.0
 10
-70.4878121848
 20
-70.7663557023
 30
0.0
 10
-70.4953811188
 20
-70.1882615139
 30
0.0
 10
-70.5029912717
 20
-69.610168954
 30
0.0
 10
-70.5127735525
 20
-68.8393737969
 30
0.0
 10
-70.5241270565
 20
-67.8758688489
 30
0.0
 10
-70.5354529992
 20
-66.7196377465
 30
0.0
 10
-70.5473646659
 20
-65.1779684674
 30
0.0
 10
-70.5563493578
 20
-63.2508425187
 30
0.0
 10
-70.5618853557
 20
-60.9382773479
 30
0.0
 10
-70.5669986603
 20
-58.6257109607
 30
0.0
 10
-70.5714724874
 20
-56.3131431657
 30
0.0
 10
-70.5765649866
 20
-53.2297179019
 30
0.0
 10
-70.5813932918
 20
-49.37543394
 30
0.0
 10
-70.5849588697
 20
-44.7502910028
 30
0.0
 10
-70.5866866122
 20
-40.1251470509
 30
0.0
 10
-70.5869314244
 20
-37.0417175708
 30
0.0
 10
-70.5869219533
 20
-35.500002839
 30
0.0
  0
SPLINE
  5
38F
100
AcDbEntity
  8
RACCORDO
100
AcDbSpline
 62
250
  6
CONTINUOUS
 70
0
 71
3
 72
27
 73
23
 74
0
 42
0.0000001
 43
0.0000001
 44
0.0000000001
 40
0.0
 40
0.0
 40
0.0
 40
0.0
 40
0.125000035
 40
0.2500000697
 40
0.375000104
 40
0.5000001377
 40
0.5625001549
 40
0.625000172
 40
0.6875001889
 40
0.7500002031
 40
0.8125001923
 40
0.8437501938
 40
0.8750001931
 40
0.9062501922
 40
0.9218751925
 40
0.9375001927
 40
0.9531251927
 40
0.9687501927
 40
0.9765626803
 40
0.9843751018
 40
0.9921875491
 40
1.0
 40
1.0
 40
1.0
 40
1.0
 10
-70.5869219533
 20
35.500002833
 30
0.0
 10
-70.5869314244
 20
37.0417147012
 30
0.0
 10
-70.5866866156
 20
40.1251384541
 30
0.0
 10
-70.5849588535
 20
44.7502738151
 30
0.0
 10
-70.5813933963
 20
49.3754081618
 30
0.0
 10
-70.5765648209
 20
53.2296849642
 30
0.0
 10
-70.571472983
 20
56.3131045022
 30
0.0
 10
-70.5669974868
 20
58.6256679984
 30
0.0
 10
-70.5618878242
 20
60.9382300988
 30
0.0
 10
-70.5563489678
 20
63.2507909704
 30
0.0
 10
-70.5473650576
 20
65.1779133465
 30
0.0
 10
-70.5354535092
 20
66.7195797691
 30
0.0
 10
-70.5241276022
 20
67.8758087271
 30
0.0
 10
-70.5127743209
 20
68.8393118897
 30
0.0
 10
-70.5029920951
 20
69.6101056162
 30
0.0
 10
-70.495381947
 20
70.1881971025
 30
0.0
 10
-70.4878131345
 20
70.7662902179
 30
0.0
 10
-70.4809016898
 20
71.2480229037
 30
0.0
 10
-70.4766361739
 20
71.6334324376
 30
0.0
 10
-70.4685633698
 20
71.9224023752
 30
0.0
 10
-70.4568686961
 20
72.2112387326
 30
0.0
 10
-70.4472625713
 20
72.4037147298
 30
0.0
 10
-70.442075409
 20
72.4999313674
 30
0.0
  0
SPLINE
  5
390
100
AcDbEntity
  8
RACCORDO
100
AcDbSpline
 62
250
  6
CONTINUOUS
 70
0
 71
3
 72
21
 73
17
 74
0
 42
0.0000001
 43
0.0000001
 44
0.0000000001
 40
0.0
 40
0.0
 40
0.0
 40
0.0
 40
0.1932439081
 40
0.3781154089
 40
0.5481836407
 40
0.6975777516
 40
0.7628844759
 40
0.8211576357
 40
0.8718917561
 40
0.9146511126
 40
0.9490627746
 40
0.9748248282
 40
0.984399519
 40
0.9917541644
 40
0.9969131583
 40
1.0
 40
1.0
 40
1.0
 40
1.0
 10
-71.3751831064
 20
72.5528968235
 30
0.0
 10
-71.3694857583
 20
72.670189121
 30
0.0
 10
-71.3602869589
 20
72.8997881551
 30
0.0
 10
-71.3509011999
 20
73.2327813904
 30
0.0
 10
-71.34507092
 20
73.5392034003
 30
0.0
 10
-71.3425545559
 20
73.773010199
 30
0.0
 10
-71.3420375557
 20
73.9388909232
 30
0.0
 10
-71.3423440217
 20
74.0448191231
 30
0.0
 10
-71.3433298379
 20
74.1370389544
 30
0.0
 10
-71.3449924378
 20
74.2147538435
 30
0.0
 10
-71.3473822004
 20
74.27724959
 30
0.0
 10
-71.3501152765
 20
74.3195829355
 30
0.0
 10
-71.3530243807
 20
74.3453390505
 30
0.0
 10
-71.355186742
 20
74.3586493318
 30
0.0
 10
-71.3575301351
 20
74.3677352483
 30
0.0
 10
-71.3596364229
 20
74.3725248493
 30
0.0
 10
-71.3610112235
 20
74.3738010161
 30
0.0
  0
SPLINE
  5
391
100
AcDbEntity
  8
RACCORDO
100
AcDbSpline
 62
250
  6
CONTINUOUS
 70
0
 71
3
 72
30
 73
26
 74
0
 42
0.0000001
 43
0.0000001
 44
0.0000000001
 40
0.0
 40
0.0
 40
0.0
 40
0.0
 40
0.0005140174
 40
0.0016300718
 40
0.0033495389
 40
0.0056740313
 40
0.0122363786
 40
0.0208869668
 40
0.0311211448
 40
0.0435339442
 40
0.0582475108
 40
0.0752371021
 40
0.0944920172
 40
0.1160799202
 40
0.1657862956
 40
0.22365346
 40
0.2894471279
 40
0.3625707555
 40
0.4423187509
 40
0.5277894034
 40
0.6179605788
 40
0.7100582754
 40
0.8049921592
 40
0.9019859695
 40
1.0
 40
1.0
 40
1.0
 40
1.0
 10
-74.2046336872
 20
-61.337300403
 30
0.0
 10
-74.2042721794
 20
-61.3367984618
 30
0.0
 10
-74.204192292
 20
-61.3346971099
 30
0.0
 10
-74.2038370902
 20
-61.3307903066
 30
0.0
 10
-74.2038303603
 20
-61.324519691
 30
0.0
 10
-74.2038750421
 20
-61.3117908683
 30
0.0
 10
-74.2044908906
 20
-61.2906673048
 30
0.0
 10
-74.2057167294
 20
-61.2600803062
 30
0.0
 10
-74.2066143782
 20
-61.2224215373
 30
0.0
 10
-74.20732832
 20
-61.1774686215
 30
0.0
 10
-74.2078207233
 20
-61.1243804612
 30
0.0
 10
-74.2081162597
 20
-61.0630578263
 30
0.0
 10
-74.2082115805
 20
-60.9934617117
 30
0.0
 10
-74.2079486661
 20
-60.8844935601
 30
0.0
 10
-74.2096266061
 20
-60.7290642981
 30
0.0
 10
-74.212566227
 20
-60.5204541609
 30
0.0
 10
-74.2141029349
 20
-60.2836445042
 30
0.0
 10
-74.2147056689
 20
-60.0205011656
 30
0.0
 10
-74.2140436167
 20
-59.7336771618
 30
0.0
 10
-74.2118775331
 20
-59.4263463817
 30
0.0
 10
-74.2085786364
 20
-59.1041594197
 30
0.0
 10
-74.2015010238
 20
-58.7706412474
 30
0.0
 10
-74.1983543571
 20
-58.4288510179
 30
0.0
 10
-74.1973036397
 20
-58.0799326201
 30
0.0
 10
-74.1982974685
 20
-57.8452579579
 30
0.0
 10
-74.1991807615
 20
-57.7273102911
 30
0.0
  0
SPLINE
  5
392
100
AcDbEntity
  8
RACCORDO
100
AcDbSpline
 62
250
  6
CONTINUOUS
 70
0
 71
3
 72
23
 73
19
 74
0
 42
0.0000001
 43
0.0000001
 44
0.0000000001
 40
0.0
 40
0.0
 40
0.0
 40
0.0
 40
0.0016053981
 40
0.0053000698
 40
0.0113222907
 40
0.0197038187
 40
0.0304358738
 40
0.0434993928
 40
0.0765026682
 40
0.1184064635
 40
0.1688096498
 40
0.2272292192
 40
0.2931009379
 40
0.3657879614
 40
0.4445899206
 40
0.6174424424
 40
0.804985836
 40
1.0
 40
1.0
 40
1.0
 40
1.0
 10
-70.4267502842
 20
-75.2368093774
 30
0.0
 10
-70.4252865325
 20
-75.236888956
 30
0.0
 10
-70.4222733859
 20
-75.2314131752
 30
0.0
 10
-70.4204757256
 20
-75.2222376615
 30
0.0
 10
-70.4178322821
 20
-75.2053729738
 30
0.0
 10
-70.4158438933
 20
-75.1827307419
 30
0.0
 10
-70.4138640033
 20
-75.153327465
 30
0.0
 10
-70.4114217402
 20
-75.1015596863
 30
0.0
 10
-70.409104497
 20
-75.0212345496
 30
0.0
 10
-70.4072593625
 20
-74.9068368996
 30
0.0
 10
-70.4061737076
 20
-74.7692051952
 30
0.0
 10
-70.4058376919
 20
-74.6096901488
 30
0.0
 10
-70.4062522595
 20
-74.429825825
 30
0.0
 10
-70.4074304991
 20
-74.2313537173
 30
0.0
 10
-70.4101452746
 20
-73.9352045734
 30
0.0
 10
-70.4156997319
 20
-73.5342019252
 30
0.0
 10
-70.4260038308
 20
-73.0271496665
 30
0.0
 10
-70.4359787643
 20
-72.6779661156
 30
0.0
 10
-70.4420718251
 20
-72.5
 30
0.0
  0
SPLINE
  5
393
100
AcDbEntity
  8
RACCORDO
100
AcDbSpline
 62
250
  6
CONTINUOUS
 70
0
 71
3
 72
13
 73
9
 74
0
 42
0.0000001
 43
0.0000001
 44
0.0000000001
 40
0.0
 40
0.0
 40
0.0
 40
0.0
 40
0.0118197742
 40
0.0558913918
 40
0.1325281953
 40
0.2416890237
 40
0.5576254738
 40
1.0
 40
1.0
 40
1.0
 40
1.0
 10
-74.8130618978
 20
-59.758209193
 30
0.0
 10
-74.812945003
 20
-59.7583617758
 30
0.0
 10
-74.8128406711
 20
-59.7565500063
 30
0.0
 10
-74.8127862027
 20
-59.7553804181
 30
0.0
 10
-74.8127444639
 20
-59.7510509208
 30
0.0
 10
-74.8127758686
 20
-59.7432631364
 30
0.0
 10
-74.8130007554
 20
-59.728871766
 30
0.0
 10
-74.8132114725
 20
-59.7166449433
 30
0.0
 10
-74.8133070281
 20
-59.7094516801
 30
0.0
  0
SPLINE
  5
394
100
AcDbEntity
  8
RACCORDO
100
AcDbSpline
 62
250
  6
CONTINUOUS
 70
0
 71
3
 72
14
 73
10
 74
0
 42
0.0000001
 43
0.0000001
 44
0.0000000001
 40
0.0
 40
0.0
 40
0.0
 40
0.0
 40
0.0522356809
 40
0.1312034977
 40
0.2071618439
 40
0.2955894022
 40
0.5039344401
 40
0.7434172862
 40
1.0
 40
1.0
 40
1.0
 40
1.0
 10
-74.8133070281
 20
-59.7094516801
 30
0.0
 10
-74.8137602149
 20
-59.6753365649
 30
0.0
 10
-74.8141405728
 20
-59.5896390141
 30
0.0
 10
-74.8141521158
 20
-59.4543297531
 30
0.0
 10
-74.8155703781
 20
-59.2953862935
 30
0.0
 10
-74.8161534369
 20
-59.0519344662
 30
0.0
 10
-74.8156270572
 20
-58.7016719788
 30
0.0
 10
-74.8107059866
 20
-58.2416032434
 30
0.0
 10
-74.8107371224
 20
-57.9175870772
 30
0.0
 10
-74.8114216227
 20
-57.7499995593
 30
0.0
  0
SPLINE
  5
395
100
AcDbEntity
  8
RACCORDO
100
AcDbSpline
 62
250
  6
CONTINUOUS
 70
0
 71
3
 72
15
 73
11
 74
0
 42
0.0000001
 43
0.0000001
 44
0.0000000001
 40
0.0
 40
0.0
 40
0.0
 40
0.0
 40
0.0624999964
 40
0.1249998821
 40
0.2499995348
 40
0.3749994695
 40
0.4999995203
 40
0.624999622
 40
0.7499997446
 40
1.0
 40
1.0
 40
1.0
 40
1.0
 10
-74.1991807615
 20
-57.7273102911
 30
0.0
 10
-74.2026468866
 20
-57.2642538989
 30
0.0
 10
-74.2062118962
 20
-56.3381182112
 30
0.0
 10
-74.2087015823
 20
-54.4858468227
 30
0.0
 10
-74.2112605961
 20
-52.1705046482
 30
0.0
 10
-74.2138618178
 20
-49.392092321
 30
0.0
 10
-74.2152710647
 20
-46.6136755746
 30
0.0
 10
-74.2160028551
 20
-43.835257287
 30
0.0
 10
-74.2162892426
 20
-40.1306985954
 30
0.0
 10
-74.2160378413
 20
-37.3522794555
 30
0.0
 10
-74.2160106138
 20
-35.5
 30
0.0
  0
SPLINE
  5
396
100
AcDbEntity
  8
RACCORDO
100
AcDbSpline
 62
250
  6
CONTINUOUS
 70
0
 71
3
 72
13
 73
9
 74
0
 42
0.0000001
 43
0.0000001
 44
0.0000000001
 40
0.0
 40
0.0
 40
0.0
 40
0.0
 40
0.1249998959
 40
0.2499998998
 40
0.3749999098
 40
0.4999999255
 40
0.7499999622
 40
1.0
 40
1.0
 40
1.0
 40
1.0
 10
-74.8114216218
 20
-57.7499995593
 30
0.0
 10
-74.8134019552
 20
-56.8229181964
 30
0.0
 10
-74.8140089538
 20
-54.9687490907
 30
0.0
 10
-74.8151461196
 20
-52.1874978203
 30
0.0
 10
-74.8159314865
 20
-49.4062447983
 30
0.0
 10
-74.816541601
 20
-45.6979074309
 30
0.0
 10
-74.816747053
 20
-41.0624854791
 30
0.0
 10
-74.8166446554
 20
-37.3541479356
 30
0.0
 10
-74.816637537
 20
-35.4999791554
 30
0.0
  0
SPLINE
  5
397
100
AcDbEntity
  8
RACCORDO
100
AcDbSpline
 62
250
  6
CONTINUOUS
 70
0
 71
3
 72
31
 73
27
 74
0
 42
0.0000001
 43
0.0000001
 44
0.0000000001
 40
0.0
 40
0.0
 40
0.0
 40
0.0
 40
0.0061954076
 40
0.0198526672
 40
0.0421647774
 40
0.0738967167
 40
0.1665732282
 40
0.2902031827
 40
0.3564142591
 40
0.4231949326
 40
0.4644484184
 40
0.5100863222
 40
0.5584094154
 40
0.5810193193
 40
0.6010058662
 40
0.6416013368
 40
0.6844101022
 40
0.7691635958
 40
0.8098595538
 40
0.8490214485
 40
0.8681307862
 40
0.8772406522
 40
0.8938640841
 40
0.9220319728
 40
0.9475308264
 40
1.0
 40
1.0
 40
1.0
 40
1.0
 10
-71.4793140064
 20
-74.5714838931
 30
0.0
 10
-71.4794780936
 20
-74.571033577
 30
0.0
 10
-71.4791211135
 20
-74.5694288845
 30
0.0
 10
-71.4783164273
 20
-74.5663547042
 30
0.0
 10
-71.4764630353
 20
-74.5613988339
 30
0.0
 10
-71.4721118995
 20
-74.5509486638
 30
0.0
 10
-71.463762095
 20
-74.533625568
 30
0.0
 10
-71.4529214324
 20
-74.5146401703
 30
0.0
 10
-71.4426263977
 20
-74.4976751649
 30
0.0
 10
-71.4349601904
 20
-74.486533717
 30
0.0
 10
-71.4300560067
 20
-74.4756733615
 30
0.0
 10
-71.4247364594
 20
-74.4666619521
 30
0.0
 10
-71.4201445713
 20
-74.4588885213
 30
0.0
 10
-71.4158397106
 20
-74.4533037625
 30
0.0
 10
-71.4112665284
 20
-74.4487571829
 30
0.0
 10
-71.4066787004
 20
-74.4421640632
 30
0.0
 10
-71.3993506402
 20
-74.4314316854
 30
0.0
 10
-71.3914981056
 20
-74.4210339437
 30
0.0
 10
-71.3837605489
 20
-74.4109285108
 30
0.0
 10
-71.3789039696
 20
-74.4049889173
 30
0.0
 10
-71.3758836516
 20
-74.4007647955
 30
0.0
 10
-71.3734128697
 20
-74.3982359562
 30
0.0
 10
-71.3726849322
 20
-74.3939526296
 30
0.0
 10
-71.3716809531
 20
-74.3886506942
 30
0.0
 10
-71.3678967971
 20
-74.3812544097
 30
0.0
 10
-71.3639883058
 20
-74.3765601469
 30
0.0
 10
-71.3610112235
 20
-74.3738010161
 30
0.0
  0
SPLINE
  5
398
100
AcDbEntity
  8
RACCORDO
100
AcDbSpline
 62
250
  6
CONTINUOUS
 70
0
 71
3
 72
29
 73
25
 74
0
 42
0.0000001
 43
0.0000001
 44
0.0000000001
 40
0.0
 40
0.0
 40
0.0
 40
0.0
 40
0.0078071704
 40
0.0156111671
 40
0.0234076257
 40
0.0273042471
 40
0.0312097671
 40
0.0351159659
 40
0.0390219439
 40
0.046834048
 40
0.0624582587
 40
0.0937066613
 40
0.1249553365
 40
0.156204695
 40
0.1874548578
 40
0.2499569799
 40
0.31246025
 40
0.3749637219
 40
0.4374672404
 40
0.4999708016
 40
0.6249780177
 40
0.7499853149
 40
0.8749926513
 40
1.0
 40
1.0
 40
1.0
 40
1.0
 10
-71.3751831064
 20
-72.5528968235
 30
0.0
 10
-71.3798616923
 20
-72.4565825303
 30
0.0
 10
-71.3883697172
 20
-72.2639494825
 30
0.0
 10
-71.3978979124
 20
-71.9749903725
 30
0.0
 10
-71.4024196242
 20
-71.7342005918
 30
0.0
 10
-71.4022588414
 20
-71.5415357517
 30
0.0
 10
-71.4038716819
 20
-71.3969311998
 30
0.0
 10
-71.4054811338
 20
-71.2522130274
 30
0.0
 10
-71.4073687657
 20
-71.0592436029
 30
0.0
 10
-71.4108251935
 20
-70.7215514768
 30
0.0
 10
-71.4175688812
 20
-70.0461636305
 30
0.0
 10
-71.4266651984
 20
-69.0813153436
 30
0.0
 10
-71.4360070188
 20
-67.9234722698
 30
0.0
 10
-71.4433225388
 20
-66.7655928507
 30
0.0
 10
-71.4506333233
 20
-65.2216902391
 30
0.0
 10
-71.4556224066
 20
-63.2917527196
 30
0.0
 10
-71.4588933305
 20
-60.9757972094
 30
0.0
 10
-71.4620607872
 20
-58.6598241007
 30
0.0
 10
-71.4647533513
 20
-56.3438468399
 30
0.0
 10
-71.4678065606
 20
-53.2558737697
 30
0.0
 10
-71.4706487637
 20
-49.3959040119
 30
0.0
 10
-71.4727185106
 20
-44.7639375633
 30
0.0
 10
-71.4737113141
 20
-40.1319691398
 30
0.0
 10
-71.4738537889
 20
-37.043989761
 30
0.0
 10
-71.4738477354
 20
-35.4999999984
 30
0.0
  0
SPLINE
  5
399
100
AcDbEntity
  8
RACCORDO
100
AcDbSpline
 62
250
  6
CONTINUOUS
 70
0
 71
3
 72
11
 73
7
 74
0
 42
0.0000001
 43
0.0000001
 44
0.0000000001
 40
0.0
 40
0.0
 40
0.0
 40
0.0
 40
0.3231132081
 40
0.6142152037
 40
0.8459379747
 40
1.0
 40
1.0
 40
1.0
 40
1.0
 10
-74.816637548
 20
-13.2499924022
 30
0.0
 10
-74.8166374225
 20
-13.0507018715
 30
0.0
 10
-74.8186885071
 20
-12.6718634958
 30
0.0
 10
-74.8268255702
 20
-12.1501520465
 30
0.0
 10
-74.8366152481
 20
-11.7327933429
 30
0.0
 10
-74.842781266
 20
-11.4948932027
 30
0.0
 10
-74.8427813545
 20
-11.3998704614
 30
0.0
  0
SPLINE
  5
39A
100
AcDbEntity
  8
RACCORDO
100
AcDbSpline
 62
250
  6
CONTINUOUS
 70
0
 71
3
 72
15
 73
11
 74
0
 42
0.0000001
 43
0.0000001
 44
0.0000000001
 40
0.0
 40
0.0
 40
0.0
 40
0.0
 40
0.2500002556
 40
0.3750003784
 40
0.5000004802
 40
0.6250005312
 40
0.7500004659
 40
0.8750001182
 40
0.9375000038
 40
1.0
 40
1.0
 40
1.0
 40
1.0
 10
-74.2160106138
 20
35.5
 30
0.0
 10
-74.2160378485
 20
37.3522794575
 30
0.0
 10
-74.2162892451
 20
40.1306986002
 30
0.0
 10
-74.2160028448
 20
43.8352572956
 30
0.0
 10
-74.2152710834
 20
46.6136755863
 30
0.0
 10
-74.2138618862
 20
49.3920923352
 30
0.0
 10
-74.2112598791
 20
52.1705046593
 30
0.0
 10
-74.2087038871
 20
54.4858468362
 30
0.0
 10
-74.2062111761
 20
56.3381182125
 30
0.0
 10
-74.2026474379
 20
57.2642539048
 30
0.0
 10
-74.1991807615
 20
57.7273102911
 30
0.0
  0
LINE
  5
39B
100
AcDbEntity
  8
RACCORDO
100
AcDbLine
 62
250
  6
CONTINUOUS
 10
-74.215508259
 20
-61.3573494247
 11
-74.2046336872
 21
-61.337300403
  0
SPLINE
  5
39C
100
AcDbEntity
  8
RACCORDO
100
AcDbSpline
 62
250
  6
CONTINUOUS
 70
0
 71
3
 72
30
 73
26
 74
0
 42
0.0000001
 43
0.0000001
 44
0.0000000001
 40
0.0
 40
0.0
 40
0.0
 40
0.0
 40
0.0980126106
 40
0.195005468
 40
0.2899387487
 40
0.3820345979
 40
0.4722073418
 40
0.5576788743
 40
0.6374276392
 40
0.7105515091
 40
0.7763460535
 40
0.8342131327
 40
0.8839196244
 40
0.9055076672
 40
0.9247626716
 40
0.9417523145
 40
0.9564657227
 40
0.9688787709
 40
0.9791132741
 40
0.9877618003
 40
0.9943268322
 40
0.9966503866
 40
0.998369964
 40
0.9994858976
 40
1.0
 40
1.0
 40
1.0
 40
1.0
 10
-74.1991807615
 20
57.7273102911
 30
0.0
 10
-74.1982974448
 20
57.8452562487
 30
0.0
 10
-74.19730358
 20
58.0799280569
 30
0.0
 10
-74.1983546635
 20
58.4288428665
 30
0.0
 10
-74.2014997123
 20
58.7706290226
 30
0.0
 10
-74.2085810754
 20
59.1041460723
 30
0.0
 10
-74.2118767924
 20
59.4263337984
 30
0.0
 10
-74.2140437445
 20
59.73366844
 30
0.0
 10
-74.214705595
 20
60.0204947224
 30
0.0
 10
-74.2141030124
 20
60.2836403328
 30
0.0
 10
-74.2125661631
 20
60.5204512321
 30
0.0
 10
-74.2096266195
 20
60.7290624623
 30
0.0
 10
-74.2079486918
 20
60.8844919296
 30
0.0
 10
-74.2082116098
 20
60.9934604969
 30
0.0
 10
-74.2081162521
 20
61.0630569489
 30
0.0
 10
-74.207820715
 20
61.1243795633
 30
0.0
 10
-74.207328333
 20
61.1774678922
 30
0.0
 10
-74.2066146984
 20
61.2224213181
 30
0.0
 10
-74.2057158329
 20
61.260078262
 30
0.0
 10
-74.2044923076
 20
61.2906664683
 30
0.0
 10
-74.2038742993
 20
61.311789618
 30
0.0
 10
-74.2038305221
 20
61.3245206768
 30
0.0
 10
-74.2038369573
 20
61.3307901574
 30
0.0
 10
-74.2041924279
 20
61.3346970318
 30
0.0
 10
-74.2042721338
 20
61.3367983686
 30
0.0
 10
-74.2046336872
 20
61.337300403
 30
0.0
  0
SPLINE
  5
39D
100
AcDbEntity
  8
RACCORDO
100
AcDbSpline
 62
250
  6
CONTINUOUS
 70
0
 71
3
 72
29
 73
25
 74
0
 42
0.0000001
 43
0.0000001
 44
0.0000000001
 40
0.0
 40
0.0
 40
0.0
 40
0.0
 40
0.1250073485
 40
0.2500146845
 40
0.3750219815
 40
0.5000291973
 40
0.5625327584
 40
0.6250362767
 40
0.6875397488
 40
0.7500430187
 40
0.8125451412
 40
0.8437953041
 40
0.8750446625
 40
0.9062933381
 40
0.9375417405
 40
0.9531659512
 40
0.9609780553
 40
0.9648840332
 40
0.9687902326
 40
0.9726957359
 40
0.9765923857
 40
0.984388834
 40
0.9921928299
 40
1.0
 40
1.0
 40
1.0
 40
1.0
 10
-71.4738477354
 20
35.4999999922
 30
0.0
 10
-71.4738537889
 20
37.0439897509
 30
0.0
 10
-71.4737113122
 20
40.1319691218
 30
0.0
 10
-71.4727185131
 20
44.7639375336
 30
0.0
 10
-71.4706487498
 20
49.3959039705
 30
0.0
 10
-71.4678066018
 20
53.2558737188
 30
0.0
 10
-71.4647533357
 20
56.3438467803
 30
0.0
 10
-71.4620610462
 20
58.6598240391
 30
0.0
 10
-71.4588935954
 20
60.9757971438
 30
0.0
 10
-71.4556218717
 20
63.2917526555
 30
0.0
 10
-71.4506333783
 20
65.2216901788
 30
0.0
 10
-71.4433224858
 20
66.7655927939
 30
0.0
 10
-71.4360072718
 20
67.9234722189
 30
0.0
 10
-71.4266650352
 20
69.0813152899
 30
0.0
 10
-71.4175689142
 20
70.0461635805
 30
0.0
 10
-71.4108251477
 20
70.7215514237
 30
0.0
 10
-71.4073688522
 20
71.0592435504
 30
0.0
 10
-71.4054809078
 20
71.252212978
 30
0.0
 10
-71.4038731201
 20
71.3969309706
 30
0.0
 10
-71.4022614055
 20
71.5415356783
 30
0.0
 10
-71.4024168554
 20
71.734200516
 30
0.0
 10
-71.3978987829
 20
71.974990537
 30
0.0
 10
-71.3883694741
 20
72.2639494998
 30
0.0
 10
-71.3798616721
 20
72.4565825335
 30
0.0
 10
-71.3751831064
 20
72.5528968235
 30
0.0
  0
SPLINE
  5
39E
100
AcDbEntity
  8
RACCORDO
100
AcDbSpline
 62
250
  6
CONTINUOUS
 70
0
 71
3
 72
23
 73
19
 74
0
 42
0.0000001
 43
0.0000001
 44
0.0000000001
 40
0.0
 40
0.0
 40
0.0
 40
0.0
 40
0.1950128293
 40
0.3825556116
 40
0.5554081036
 40
0.6342101909
 40
0.7068974051
 40
0.7727693641
 40
0.8311892
 40
0.8815926351
 40
0.9234966825
 40
0.9565001601
 40
0.969563706
 40
0.9802957975
 40
0.9886774516
 40
0.9946999191
 40
0.9983947238
 40
1.0
 40
1.0
 40
1.0
 40
1.0
 10
-70.4420739023
 20
72.4999313674
 30
0.0
 10
-70.4359819315
 20
72.6779007974
 30
0.0
 10
-70.4260044893
 20
73.0270913062
 30
0.0
 10
-70.4157002287
 20
73.5341545725
 30
0.0
 10
-70.4101460086
 20
73.9351668729
 30
0.0
 10
-70.407430377
 20
74.2313237477
 30
0.0
 10
-70.4062522834
 20
74.4298013768
 30
0.0
 10
-70.4058380183
 20
74.6096708767
 30
0.0
 10
-70.4061734803
 20
74.7691906392
 30
0.0
 10
-70.4072592859
 20
74.9068265202
 30
0.0
 10
-70.4091046319
 20
75.0212276904
 30
0.0
 10
-70.4114216457
 20
75.1015553118
 30
0.0
 10
-70.4138639078
 20
75.153324628
 30
0.0
 10
-70.415843985
 20
75.182728846
 30
0.0
 10
-70.4178321253
 20
75.2053719494
 30
0.0
 10
-70.4204760106
 20
75.2222377418
 30
0.0
 10
-70.4222722104
 20
75.2314134745
 30
0.0
 10
-70.4252868652
 20
75.2368897478
 30
0.0
 10
-70.4267504988
 20
75.2368093679
 30
0.0
  0
SPLINE
  5
39F
100
AcDbEntity
  8
RACCORDO
100
AcDbSpline
 62
250
  6
CONTINUOUS
 70
0
 71
3
 72
11
 73
7
 74
0
 42
0.0000001
 43
0.0000001
 44
0.0000000001
 40
0.0
 40
0.0
 40
0.0
 40
0.0
 40
0.1121039169
 40
0.335220602
 40
0.6432069057
 40
1.0
 40
1.0
 40
1.0
 40
1.0
 10
-71.3751827778
 20
72.5528968059
 30
0.0
 10
-71.3403573272
 20
72.5502674065
 30
0.0
 10
-71.2360847598
 20
72.5443333078
 30
0.0
 10
-71.0360515774
 20
72.5325852705
 30
0.0
 10
-70.7598573692
 20
72.517320937
 30
0.0
 10
-70.5530639116
 20
72.5060024297
 30
0.0
 10
-70.4420716749
 20
72.4999999999
 30
0.0
  0
SPLINE
  5
3A0
100
AcDbEntity
  8
RACCORDO
100
AcDbSpline
 62
250
  6
CONTINUOUS
 70
0
 71
3
 72
11
 73
7
 74
0
 42
0.0000001
 43
0.0000001
 44
0.0000000001
 40
0.0
 40
0.0
 40
0.0
 40
0.0
 40
0.1121034032
 40
0.3352199227
 40
0.6432064281
 40
1.0
 40
1.0
 40
1.0
 40
1.0
 10
-71.3751830967
 20
-72.552896823
 30
0.0
 10
-71.3403577964
 20
-72.5502674737
 30
0.0
 10
-71.2360854223
 20
-72.5443333883
 30
0.0
 10
-71.0360523508
 20
-72.5325853715
 30
0.0
 10
-70.7598579347
 20
-72.517320998
 30
0.0
 10
-70.5530642297
 20
-72.5060024535
 30
0.0
 10
-70.4420718251
 20
-72.5
 30
0.0
  0
SPLINE
  5
3A1
100
AcDbEntity
  8
RACCORDO
100
AcDbSpline
 62
250
  6
CONTINUOUS
 70
0
 71
3
 72
11
 73
7
 74
0
 42
0.0000001
 43
0.0000001
 44
0.0000000001
 40
0.0
 40
0.0
 40
0.0
 40
0.0
 40
0.1540496913
 40
0.3857476662
 40
0.676832596
 40
1.0
 40
1.0
 40
1.0
 40
1.0
 10
-74.8427813545
 20
11.3998704614
 30
0.0
 10
-74.8427812559
 20
11.4948848736
 30
0.0
 10
-74.8366162426
 20
11.7327603164
 30
0.0
 10
-74.8268270214
 20
12.1500824261
 30
0.0
 10
-74.818689283
 20
12.6717975051
 30
0.0
 10
-74.8166372257
 20
13.0506559048
 30
0.0
 10
-74.8166375812
 20
13.2499783485
 30
0.0
  0
SPLINE
  5
3A2
100
AcDbEntity
  8
RACCORDO
100
AcDbSpline
 62
250
  6
CONTINUOUS
 70
0
 71
3
 72
13
 73
9
 74
0
 42
0.0000001
 43
0.0000001
 44
0.0000000001
 40
0.0
 40
0.0
 40
0.0
 40
0.0
 40
0.2500000378
 40
0.5000000746
 40
0.6250000902
 40
0.7500001002
 40
0.8750001043
 40
1.0
 40
1.0
 40
1.0
 40
1.0
 10
-74.816637537
 20
35.4999791554
 30
0.0
 10
-74.8166446583
 20
37.3541479649
 30
0.0
 10
-74.8167470545
 20
41.062485567
 30
0.0
 10
-74.8165415898
 20
45.6979075919
 30
0.0
 10
-74.8159315463
 20
49.406245018
 30
0.0
 10
-74.8151456021
 20
52.1874980841
 30
0.0
 10
-74.8140104092
 20
54.9687493981
 30
0.0
 10
-74.8134023629
 20
56.8229185321
 30
0.0
 10
-74.8114216213
 20
57.7499999075
 30
0.0
  0
SPLINE
  5
3A3
100
AcDbEntity
  8
RACCORDO
100
AcDbSpline
 62
250
  6
CONTINUOUS
 70
0
 71
3
 72
21
 73
17
 74
0
 42
0.0000001
 43
0.0000001
 44
0.0000000001
 40
0.0
 40
0.0
 40
0.0
 40
0.0
 40
0.0030869536
 40
0.008245857
 40
0.0156003386
 40
0.0251749078
 40
0.050936873
 40
0.0853485779
 40
0.1281080038
 40
0.1788421555
 40
0.2371153179
 40
0.3024221176
 40
0.4518163152
 40
0.6218846146
 40
0.8067561131
 40
1.0
 40
1.0
 40
1.0
 40
1.0
 10
-71.3610112235
 20
-74.3738010161
 30
0.0
 10
-71.3596365252
 20
-74.3725246393
 30
0.0
 10
-71.3575302222
 20
-74.3677351658
 30
0.0
 10
-71.3551867571
 20
-74.3586492693
 30
0.0
 10
-71.3530243383
 20
-74.3453392676
 30
0.0
 10
-71.3501151964
 20
-74.319583364
 30
0.0
 10
-71.3473821209
 20
-74.2772501341
 30
0.0
 10
-71.3449923846
 20
-74.2147543668
 30
0.0
 10
-71.3433298049
 20
-74.1370393935
 30
0.0
 10
-71.3423439967
 20
-74.0448194999
 30
0.0
 10
-71.3420375261
 20
-73.9388912355
 30
0.0
 10
-71.3425545759
 20
-73.7730104137
 30
0.0
 10
-71.3450709446
 20
-73.5392034794
 30
0.0
 10
-71.3509012501
 20
-73.2327813814
 30
0.0
 10
-71.3602871061
 20
-72.8997881292
 30
0.0
 10
-71.3694856156
 20
-72.6701890994
 30
0.0
 10
-71.3751831064
 20
-72.5528968235
 30
0.0
  0
SPLINE
  5
3A4
100
AcDbEntity
  8
RACCORDO
100
AcDbSpline
 62
250
  6
CONTINUOUS
 70
0
 71
3
 72
27
 73
23
 74
0
 42
0.0000001
 43
0.0000001
 44
0.0000000001
 40
0.0
 40
0.0
 40
0.0
 40
0.0
 40
0.1949890701
 40
0.2899984813
 40
0.382024309
 40
0.5542770798
 40
0.6329752809
 40
0.7057235319
 40
0.7718295964
 40
0.8306560672
 40
0.8813539307
 40
0.9233409625
 40
0.9410711393
 40
0.9565699785
 40
0.9698010887
 40
0.9807284984
 40
0.9892951192
 40
0.9953738942
 40
0.9974712903
 40
0.9989401468
 40
0.9997801738
 40
1.0
 40
1.0
 40
1.0
 40
1.0
 10
-74.8114216215
 20
57.7499999075
 30
0.0
 10
-74.8108884898
 20
57.8805285762
 30
0.0
 10
-74.8107870894
 20
58.0746614241
 30
0.0
 10
-74.8119302125
 20
58.330394755
 30
0.0
 10
-74.8142712757
 20
58.570898645
 30
0.0
 10
-74.8156161624
 20
58.8004917305
 30
0.0
 10
-74.8160165888
 20
59.0171826237
 30
0.0
 10
-74.8158948625
 20
59.1628168744
 30
0.0
 10
-74.8154773878
 20
59.2951481704
 30
0.0
 10
-74.8146227929
 20
59.4127158611
 30
0.0
 10
-74.8140167874
 20
59.5141388963
 30
0.0
 10
-74.8140907974
 20
59.588054635
 30
0.0
 10
-74.8138981802
 20
59.6384034394
 30
0.0
 10
-74.8137208855
 20
59.6695092643
 30
0.0
 10
-74.8134813068
 20
59.6960411277
 30
0.0
 10
-74.8132112824
 20
59.7179872207
 30
0.0
 10
-74.8128773992
 20
59.734997773
 30
0.0
 10
-74.8127634369
 20
59.7464224718
 30
0.0
 10
-74.8127422316
 20
59.7525914154
 30
0.0
 10
-74.8128247493
 20
59.7559977329
 30
0.0
 10
-74.8128285988
 20
59.7569338968
 30
0.0
 10
-74.8129724047
 20
59.7583260111
 30
0.0
 10
-74.8130618967
 20
59.7582091945
 30
0.0
  0
SPLINE
  5
3A5
100
AcDbEntity
  8
RACCORDO
100
AcDbSpline
 62
250
  6
CONTINUOUS
 70
0
 71
3
 72
11
 73
7
 74
0
 42
0.0000001
 43
0.0000001
 44
0.0000000001
 40
0.0
 40
0.0
 40
0.0
 40
0.0
 40
0.2482983423
 40
0.497319082
 40
0.7477136174
 40
1.0
 40
1.0
 40
1.0
 40
1.0
 10
-74.3134019251
 20
-9.7994651035
 30
0.0
 10
-74.3134019251
 20
-9.9411942119
 30
0.0
 10
-74.3362593401
 20
-10.2255835011
 30
0.0
 10
-74.4382924772
 20
-10.6418021755
 30
0.0
 10
-74.6056304763
 20
-11.0387696495
 30
0.0
 10
-74.7576898125
 20
-11.2836938277
 30
0.0
 10
-74.8427813545
 20
-11.3998704614
 30
0.0
  0
SPLINE
  5
3A6
100
AcDbEntity
  8
RACCORDO
100
AcDbSpline
 62
250
  6
CONTINUOUS
 70
0
 71
3
 72
12
 73
8
 74
0
 42
0.0000001
 43
0.0000001
 44
0.0000000001
 40
0.0
 40
0.0
 40
0.0
 40
0.0
 40
0.0425737099
 40
0.1096506198
 40
0.3159163088
 40
0.6147123839
 40
1.0
 40
1.0
 40
1.0
 40
1.0
 10
-74.1991802475
 20
-57.7273102872
 30
0.0
 10
-74.2077952671
 20
-57.7284919377
 30
0.0
 10
-74.2301277583
 20
-57.7303833945
 30
0.0
 10
-74.2945184166
 20
-57.7344241108
 30
0.0
 10
-74.4113038887
 20
-57.7390787785
 30
0.0
 10
-74.5930621603
 20
-57.744756241
 30
0.0
 10
-74.7327473214
 20
-57.7481938636
 30
0.0
 10
-74.8114215907
 20
-57.75
 30
0.0
  0
SPLINE
  5
3A7
100
AcDbEntity
  8
RACCORDO
100
AcDbSpline
 62
250
  6
CONTINUOUS
 70
0
 71
3
 72
12
 73
8
 74
0
 42
0.0000001
 43
0.0000001
 44
0.0000000001
 40
0.0
 40
0.0
 40
0.0
 40
0.0
 40
0.0425736442
 40
0.1096505088
 40
0.3159161635
 40
0.6147122762
 40
1.0
 40
1.0
 40
1.0
 40
1.0
 10
-74.1991807637
 20
57.7273102911
 30
0.0
 10
-74.2077957657
 20
57.7284919201
 30
0.0
 10
-74.2301282176
 20
57.7303833514
 30
0.0
 10
-74.2945187971
 20
57.7344240352
 30
0.0
 10
-74.4113041665
 20
57.7390787075
 30
0.0
 10
-74.5930623154
 20
57.7447561994
 30
0.0
 10
-74.732747394
 20
57.7481938497
 30
0.0
 10
-74.8114216223
 20
57.75
 30
0.0
  0
SPLINE
  5
3A8
100
AcDbEntity
  8
RACCORDO
100
AcDbSpline
 62
250
  6
CONTINUOUS
 70
0
 71
3
 72
11
 73
7
 74
0
 42
0.0000001
 43
0.0000001
 44
0.0000000001
 40
0.0
 40
0.0
 40
0.0
 40
0.0
 40
0.2482983403
 40
0.4973190795
 40
0.7477136156
 40
1.0
 40
1.0
 40
1.0
 40
1.0
 10
-74.3134019251
 20
9.7994651035
 30
0.0
 10
-74.3134019251
 20
9.9411942108
 30
0.0
 10
-74.3362593402
 20
10.2255834984
 30
0.0
 10
-74.4382924775
 20
10.6418021715
 30
0.0
 10
-74.6056304767
 20
11.0387696465
 30
0.0
 10
-74.7576898125
 20
11.2836938265
 30
0.0
 10
-74.8427813545
 20
11.3998704614
 30
0.0
  0
ELLIPSE
  5
3A9
100
AcDbEntity
  8
RACCORDO
100
AcDbEllipse
 62
7
  6
CONTINUOUS
 10
4.1331429141
 20
75.4720456601
 30
0.0
 11
0.5
 21
0.0
 31
0.0
 40
0.0559086798
 41
1.5707963268
 42
3.054326191
  0
ELLIPSE
  5
3AA
100
AcDbEntity
  8
RACCORDO
100
AcDbEllipse
 62
7
  6
CONTINUOUS
 10
-4.1331429141
 20
75.4720456601
 30
0.0
 11
0.5
 21
-0.0
 31
0.0
 40
0.0559086798
 41
0.0872664626
 42
1.5707963268
  0
ELLIPSE
  5
3AB
100
AcDbEntity
  8
RACCORDO
100
AcDbEllipse
 62
7
  6
CONTINUOUS
 10
4.1331429141
 20
-75.4720456601
 30
0.0
 11
0.5
 21
-0.0
 31
0.0
 40
0.0559086798
 41
-3.054326191
 42
-1.5707963268
  0
ELLIPSE
  5
3AC
100
AcDbEntity
  8
RACCORDO
100
AcDbEllipse
 62
7
  6
CONTINUOUS
 10
-4.1331429141
 20
-75.4720456601
 30
0.0
 11
0.5
 21
0.0
 31
0.0
 40
0.0559086798
 41
-1.5707963268
 42
-0.0872664626
  0
ELLIPSE
  5
3AD
100
AcDbEntity
  8
RACCORDO
100
AcDbEllipse
 62
7
  6
CONTINUOUS
 10
-3.041834413
 20
-75.4161369803
 30
0.0
 11
0.5
 21
-0.0
 31
0.0
 40
0.0559086798
 41
1.5707963268
 42
3.054326191
  0
ELLIPSE
  5
3AE
100
AcDbEntity
  8
RACCORDO
100
AcDbEllipse
 62
7
  6
CONTINUOUS
 10
3.041834413
 20
-75.4161369803
 30
0.0
 11
0.5
 21
0.0
 31
0.0
 40
0.0559086798
 41
0.0872664626
 42
1.5707963268
  0
ELLIPSE
  5
3AF
100
AcDbEntity
  8
RACCORDO
100
AcDbEllipse
 62
7
  6
CONTINUOUS
 10
-3.041834413
 20
75.4161369803
 30
0.0
 11
0.5
 21
-0.0
 31
0.0
 40
0.0559086798
 41
-3.054326191
 42
-1.5707963268
  0
ELLIPSE
  5
3B0
100
AcDbEntity
  8
RACCORDO
100
AcDbEllipse
 62
7
  6
CONTINUOUS
 10
3.041834413
 20
75.4161369803
 30
0.0
 11
0.5
 21
-0.0
 31
0.0
 40
0.0559086798
 41
-1.5707963268
 42
-0.0872664626
  0
ENDSEC
  0
SECTION
  2
OBJECTS
  0
DICTIONARY
  5
C
100
AcDbDictionary
280
0
281
1
  3
ACAD_GROUP
350
D
  3
ACAD_MLINESTYLE
350
17
  3
ACAD_LAYOUT
350
1A
  3
ACAD_PLOTSETTINGS
350
19
  3
ACAD_PLOTSTYLENAME
350
E
  0
DICTIONARY
  5
D
102
{ACAD_REACTORS
330
C
102
}
100
AcDbDictionary
280
0
281
1
  0
ACDBDICTIONARYWDFLT
  5
E
102
{ACAD_REACTORS
330
C
102
}
100
AcDbDictionary
281
1
  3
Normal
350
F
100
AcDbDictionaryWithDefault
340
F
  0
DICTIONARY
  5
17
102
{ACAD_REACTORS
330
C
102
}
100
AcDbDictionary
280
0
281
1
  3
Standard
350
18
  0
DICTIONARY
  5
19
102
{ACAD_REACTORS
330
C
102
}
100
AcDbDictionary
281
1
  0
DICTIONARY
  5
1A
102
{ACAD_REACTORS
330
C
102
}
100
AcDbDictionary
281
1
  3
Model
350
3B1
  3
Layout1
350
3B2
  0
ACDBPLACEHOLDER
  5
F
102
{ACAD_REACTORS
330
E
102
}
  0
MLINESTYLE
  5
18
102
{ACAD_REACTORS
330
17
102
}
100
AcDbMlineStyle
  2
STANDARD
 70
0
  3

 62
256
 51
90.0
 52
90.0
 71
2
 49
0.5
 62
256
  6
BYLAYER
 49
-0.5
 62
256
  6
BYLAYER
  0
LAYOUT
  5
3B1
102
{ACAD_REACTORS
330
1A
102
}
100
AcDbPlotSettings
  1

  2
none_device
  4
ISO_A4_(297.00_x_210.00_MM)
  6

 40
0.0
 41
0.0
 42
0.0
 43
0.0
 44
297.0
 45
210.0
 46
0.0
 47
0.0
 48
0.0
 49
0.0
140
0.0
141
0.0
142
1.0
143
1.0
 70
1024
 72
1
 73
0
 74
0
  7

 75
0
147
1.0
148
0.0
149
0.0
100
AcDbLayout
  1
Model
 70
0
 71
0
 10
0.0
 20
0.0
 11
297.0
 21
210.0
 12
0.0
 22
0.0
 32
0.0
 14
0.0
 24
0.0
 34
0.0
 15
0.0
 25
0.0
 35
0.0
146
0.0
 13
0.0
 23
0.0
 33
0.0
 16
1.0
 26
0.0
 36
0.0
 17
0.0
 27
1.0
 37
0.0
 76
0
330
214
345
0
346
0
  0
LAYOUT
  5
3B2
102
{ACAD_REACTORS
330
1A
102
}
100
AcDbPlotSettings
  1

  2
none_device
  4
ISO_A4_(297.00_x_210.00_MM)
  6

 40
0.0
 41
0.0
 42
0.0
 43
0.0
 44
297.0
 45
210.0
 46
0.0
 47
0.0
 48
0.0
 49
0.0
140
0.0
141
0.0
142
1.0
143
1.0
 70
0
 72
1
 73
0
 74
0
  7

 75
0
147
1.0
148
0.0
149
0.0
100
AcDbLayout
  1
Layout1
 70
0
 71
1
 10
0.0
 20
0.0
 11
297.0
 21
210.0
 12
0.0
 22
0.0
 32
0.0
 14
0.0
 24
0.0
 34
0.0
 15
0.0
 25
0.0
 35
0.0
146
0.0
 13
0.0
 23
0.0
 33
0.0
 16
1.0
 26
0.0
 36
0.0
 17
0.0
 27
1.0
 37
0.0
 76
0
330
215
345
0
346
0
  0
ENDSEC
  0
EOF
