  0
SECTION
  2
HEADER
  9
$ACADVER
  1
AC1015
  9
$DWGCODEPAGE
  3
ANSI_1252
  9
$EXTMAX
 10
297.0
 20
210.0
 30
0.0
  9
$EXTMIN
 10
0.0
 20
0.0
 30
0.0
  9
$LIMMIN
 10
0.0
 20
0.0
  9
$LIMMAX
 10
297.0
 20
210.0
  9
$VIEWCTR
 10
148.5
 20
105.0
  9
$VIEWSIZE
 40
210.0
  9
$CLAYER
  8
0
  9
$LTSCALE
 40
16.335
  9
$CELTYPE
  6
BYLAYER
  9
$DIMSCALE
 40
1.0
  9
$DIMASZ
 40
3.0
  9
$DIMEXO
 40
1.85625
  9
$DIMDLI
 40
11.286
  9
$DIMEXE
 40
5.346
  9
$DIMCEN
 40
2.673
  9
$DIMLFAC
 40
1.0
  9
$DIMBLK
  1
_FILLED
  9
$DIMTXT
 40
3.0
  9
$DIMTOL
 70
1
  9
$DIMLIM
 70
0
  9
$DIMTFAC
 40
1.0
  9
$DIMTP
 40
0.01
  9
$DIMTM
 40
0.01
  9
$PDMODE
 70
3
  9
$PDSIZE
 40
3.0
  9
$HANDSEED
  5
4D4
  9
$TILEMODE
 70
1
  9
$MEASUREMENT
 70
1
  9
$INSUNITS
 70
4
  0
ENDSEC
  0
SECTION
  2
CLASSES
  0
CLASS
  1
ACDBDICTIONARYWDFLT
  2
AcDbDictionaryWithDefault
  3
AutoCAD 2000
 90
0
280
0
281
0
  0
CLASS
  1
ACDBPLACEHOLDER
  2
AcDbPlaceHolder
  3
AutoCAD 2000
 90
0
280
0
281
0
  0
CLASS
  1
LAYOUT
  2
AcDbLayout
  3
AutoCAD 2000
 90
0
280
0
281
0
  0
ENDSEC
  0
SECTION
  2
TABLES
  0
TABLE
  2
VPORT
  5
8
100
AcDbSymbolTable
 70
2
  0
VPORT
  5
1F4
100
AcDbSymbolTableRecord
100
AcDbViewportTableRecord
  2
*ACTIVE
 70
0
 10
0.0
 20
0.0
 11
1.0
 21
1.0
 12
148.5
 22
105.0
 13
0.0
 23
0.0
 14
1.0
 24
1.0
 15
0.0
 25
0.0
 16
0.0
 26
0.0
 36
1.0
 17
0.0
 27
0.0
 37
0.0
 40
210.0
 41
1.4142857143
 42
50.0
 43
0.0
 44
0.0
 50
0.0
 51
0.0
 71
0
 72
100
 73
1
 74
1
 75
0
 76
0
 77
0
 78
0
  0
ENDTAB
  0
TABLE
  2
LTYPE
  5
5
100
AcDbSymbolTable
 70
6
  0
LTYPE
  5
14
100
AcDbSymbolTableRecord
100
AcDbLinetypeTableRecord
  2
BYBLOCK
 70
0
  3

 72
65
 73
0
 40
0.0
  0
LTYPE
  5
15
100
AcDbSymbolTableRecord
100
AcDbLinetypeTableRecord
  2
BYLAYER
 70
0
  3

 72
65
 73
0
 40
0.0
  0
LTYPE
  5
16
100
AcDbSymbolTableRecord
100
AcDbLinetypeTableRecord
  2
CONTINUOUS
 70
64
  3
Solid line
 72
65
 73
0
 40
0.0
  0
LTYPE
  5
1F5
100
AcDbSymbolTableRecord
100
AcDbLinetypeTableRecord
  2
CENTER
 70
64
  3
____ _ ____ _ ____ _ ____ _ ____ _ ____ _ ____
 72
65
 73
4
 40
0.6
 49
0.375
 74
0
 49
-0.075
 74
0
 49
0.075
 74
0
 49
-0.075
 74
0
  0
LTYPE
  5
1F6
100
AcDbSymbolTableRecord
100
AcDbLinetypeTableRecord
  2
HIDDEN
 70
64
  3
- - - - - - - - - - - - - - - - - - - -
 72
65
 73
2
 40
0.2
 49
0.1
 74
0
 49
-0.1
 74
0
  0
LTYPE
  5
1F7
100
AcDbSymbolTableRecord
100
AcDbLinetypeTableRecord
  2
PHANTOM
 70
64
  3
_____ _ _ _____ _ _ _____ _ _ _____
 72
65
 73
6
 40
0.8
 49
0.45
 74
0
 49
-0.05
 74
0
 49
0.1
 74
0
 49
-0.05
 74
0
 49
0.1
 74
0
 49
-0.05
 74
0
  0
LTYPE
  5
1F8
100
AcDbSymbolTableRecord
100
AcDbLinetypeTableRecord
  2
DOT
 70
64
  3
. . . . . . . . . . . . . . . . . . . .
 72
65
 73
2
 40
0.2
 49
0.1
 74
0
 49
-0.1
 74
0
  0
LTYPE
  5
1F9
100
AcDbSymbolTableRecord
100
AcDbLinetypeTableRecord
  2
DASHED
 70
64
  3
- - - - - - - - - - - - - - - - - - - -
 72
65
 73
2
 40
0.2
 49
0.1
 74
0
 49
-0.1
 74
0
  0
ENDTAB
  0
TABLE
  2
LAYER
  5
2
100
AcDbSymbolTable
 70
36
  0
LAYER
  5
10
100
AcDbSymbolTableRecord
100
AcDbLayerTableRecord
  2
0
 70
0
 62
7
  6
CONTINUOUS
370
-3
390
F
  0
LAYER
  5
1FA
100
AcDbSymbolTableRecord
100
AcDbLayerTableRecord
  2
DEFAULT_1
 70
0
 62
7
  6
CENTER
370
-3
390
F
  0
LAYER
  5
1FB
100
AcDbSymbolTableRecord
100
AcDbLayerTableRecord
  2
DEFAULT_2
 70
0
 62
7
  6
HIDDEN
370
-3
390
F
  0
LAYER
  5
1FC
100
AcDbSymbolTableRecord
100
AcDbLayerTableRecord
  2
DEFAULT_3
 70
0
 62
7
  6
PHANTOM
370
-3
390
F
  0
LAYER
  5
1FD
100
AcDbSymbolTableRecord
100
AcDbLayerTableRecord
  2
ASSI
 70
0
 62
7
  6
CONTINUOUS
370
-3
390
F
  0
LAYER
  5
1FE
100
AcDbSymbolTableRecord
100
AcDbLayerTableRecord
  2
COORDINATE
 70
0
 62
7
  6
CONTINUOUS
370
-3
390
F
  0
LAYER
  5
1FF
100
AcDbSymbolTableRecord
100
AcDbLayerTableRecord
  2
COPY_PUBLISH
 70
0
 62
7
  6
CONTINUOUS
370
-3
390
F
  0
LAYER
  5
200
100
AcDbSymbolTableRecord
100
AcDbLayerTableRecord
  2
COSMETICI
 70
0
 62
7
  6
CONTINUOUS
370
-3
390
F
  0
LAYER
  5
201
100
AcDbSymbolTableRecord
100
AcDbLayerTableRecord
  2
CURVE
 70
0
 62
7
  6
CONTINUOUS
370
-3
390
F
  0
LAYER
  5
202
100
AcDbSymbolTableRecord
100
AcDbLayerTableRecord
  2
DRAFT
 70
0
 62
7
  6
CONTINUOUS
370
-3
390
F
  0
LAYER
  5
203
100
AcDbSymbolTableRecord
100
AcDbLayerTableRecord
  2
IMPORT_IGES
 70
0
 62
7
  6
CONTINUOUS
370
-3
390
F
  0
LAYER
  5
204
100
AcDbSymbolTableRecord
100
AcDbLayerTableRecord
  2
NOTE
 70
0
 62
7
  6
CONTINUOUS
370
-3
390
F
  0
LAYER
  5
205
100
AcDbSymbolTableRecord
100
AcDbLayerTableRecord
  2
PIANI
 70
0
 62
7
  6
CONTINUOUS
370
-3
390
F
  0
LAYER
  5
206
100
AcDbSymbolTableRecord
100
AcDbLayerTableRecord
  2
PUNTI
 70
0
 62
7
  6
CONTINUOUS
370
-3
390
F
  0
LAYER
  5
207
100
AcDbSymbolTableRecord
100
AcDbLayerTableRecord
  2
RACCORDO
 70
0
 62
7
  6
CONTINUOUS
370
-3
390
F
  0
LAYER
  5
208
100
AcDbSymbolTableRecord
100
AcDbLayerTableRecord
  2
SIMBOLI
 70
0
 62
7
  6
CONTINUOUS
370
-3
390
F
  0
LAYER
  5
209
100
AcDbSymbolTableRecord
100
AcDbLayerTableRecord
  2
SMUSSO
 70
0
 62
7
  6
CONTINUOUS
370
-3
390
F
  0
LAYER
  5
20A
100
AcDbSymbolTableRecord
100
AcDbLayerTableRecord
  2
SNAPLINE
 70
0
 62
7
  6
CONTINUOUS
370
-3
390
F
  0
LAYER
  5
20B
100
AcDbSymbolTableRecord
100
AcDbLayerTableRecord
  2
SUPERFICI
 70
0
 62
7
  6
CONTINUOUS
370
-3
390
F
  0
LAYER
  5
20C
100
AcDbSymbolTableRecord
100
AcDbLayerTableRecord
  2
TRASH
 70
0
 62
7
  6
CONTINUOUS
370
-3
390
F
  0
LAYER
  5
20D
100
AcDbSymbolTableRecord
100
AcDbLayerTableRecord
  2
XSEC_DATUMS
 70
0
 62
7
  6
CONTINUOUS
370
-3
390
F
  0
ENDTAB
  0
TABLE
  2
STYLE
  5
3
100
AcDbSymbolTable
 70
1
  0
STYLE
  5
11
100
AcDbSymbolTableRecord
100
AcDbTextStyleTableRecord
  2
STANDARD
 70
0
 40
0.0
 41
0.8
 50
0.0
 71
0
 42
0.2
  3
txt
  4

  0
STYLE
  5
20E
100
AcDbSymbolTableRecord
100
AcDbTextStyleTableRecord
  2
TEXTSTYLE_1
 70
0
 40
0.0
 41
0.8
 50
0.0
 71
0
 42
0.2
  3
gdt
  4

  0
ENDTAB
  0
TABLE
  2
VIEW
  5
6
100
AcDbSymbolTable
 70
0
  0
ENDTAB
  0
TABLE
  2
UCS
  5
7
100
AcDbSymbolTable
 70
0
  0
ENDTAB
  0
TABLE
  2
APPID
  5
9
100
AcDbSymbolTable
 70
1
  0
APPID
  5
20F
100
AcDbSymbolTableRecord
100
AcDbRegAppTableRecord
  2
ACAD
 70
0
  0
ENDTAB
  0
TABLE
  2
BLOCK_RECORD
  5
1
100
AcDbSymbolTable
 70
0
  0
BLOCK_RECORD
  5
210
100
AcDbSymbolTableRecord
100
AcDbBlockTableRecord
  2
*Model_Space
  0
BLOCK_RECORD
  5
211
100
AcDbSymbolTableRecord
100
AcDbBlockTableRecord
  2
*Paper_Space
  0
BLOCK_RECORD
  5
212
100
AcDbSymbolTableRecord
100
AcDbBlockTableRecord
  2
_FILLED
  0
BLOCK_RECORD
  5
213
100
AcDbSymbolTableRecord
100
AcDbBlockTableRecord
  2
*D0
  0
BLOCK_RECORD
  5
214
100
AcDbSymbolTableRecord
100
AcDbBlockTableRecord
  2
*D1
  0
BLOCK_RECORD
  5
215
100
AcDbSymbolTableRecord
100
AcDbBlockTableRecord
  2
*D2
  0
ENDTAB
  0
TABLE
  2
DIMSTYLE
  5
A
100
AcDbSymbolTable
 70
1
100
AcDbDimStyleTable
 71
0
  0
DIMSTYLE
105
216
100
AcDbSymbolTableRecord
100
AcDbDimStyleTableRecord
  2
STANDARD
 70
0
  3

  4

 40
1.0
 41
3.0
 42
0.0625
 43
0.38
 44
0.18
 45
0.0
 46
0.0
 47
0.01
 48
0.01
140
3.0
141
0.09
142
0.0
143
25.4
144
1.0
145
0.0
146
1.0
147
0.09
 71
1.0
 72
0.0
 73
0
 74
0
 75
0
 76
0
 77
1
 78
8
170
0
171
2
172
0
173
0
174
0
175
0
176
0
177
0
178
0
270
2
271
2
272
2
273
2
274
2
275
0
280
0
281
0
282
0
283
1
284
8
285
0
286
0
287
3
288
0
340
11
341
212
342
212
343
212
344
212
  0
DIMSTYLE
105
217
100
AcDbSymbolTableRecord
100
AcDbDimStyleTableRecord
  2
DIMSTYLE_1
 70
0
  3

  4

 40
1.0
 41
3.0
 42
0.0625
 43
0.38
 44
0.18
 45
0.0
 46
0.0
 47
0.0
 48
0.0
140
3.0
141
0.09
142
0.0
143
25.4
144
1.0
145
0.0
146
1.0
147
0.09
 71
0.0
 72
0.0
 73
0
 74
0
 75
0
 76
0
 77
1
 78
8
170
0
171
2
172
0
173
0
174
0
175
0
176
0
177
0
178
0
270
2
271
2
272
2
273
2
274
2
275
0
280
0
281
0
282
0
283
1
284
8
285
0
286
0
287
3
288
0
340
11
341
212
342
212
343
212
344
212
  0
ENDTAB
  0
ENDSEC
  0
SECTION
  2
BLOCKS
  0
BLOCK
  5
20
100
AcDbEntity
  8
0
100
AcDbBlockBegin
  2
*Model_Space
 70
0
 10
0.0
 20
0.0
 30
0.0
  3
*Model_Space
  1

  0
ENDBLK
  5
21
100
AcDbEntity
  8
0
100
AcDbBlockEnd
  0
BLOCK
  5
1C
100
AcDbEntity
  8
0
100
AcDbBlockBegin
  2
*Paper_Space
 70
0
 10
0.0
 20
0.0
 30
0.0
  3
*Paper_Space
  1

  0
ENDBLK
  5
1D
100
AcDbEntity
  8
0
100
AcDbBlockEnd
  0
BLOCK
  5
218
100
AcDbEntity
  8
0
100
AcDbBlockBegin
  2
_FILLED
 70
64
 10
0.0
 20
0.0
  3
_FILLED
  1

  0
SOLID
  5
219
100
AcDbEntity
  8
0
  6
BYBLOCK
 62
0
100
AcDbTrace
 10
0.0
 20
0.0
 11
-1.0
 21
0.3166666667
 12
-1.0
 22
-0.3166666667
 13
-1.0
 23
-0.3166666667
  0
ENDBLK
  5
21A
100
AcDbEntity
  8
0
  6
BYBLOCK
 62
0
100
AcDbBlockEnd
  0
BLOCK
  5
21B
100
AcDbEntity
  8
0
100
AcDbBlockBegin
 62
7
  6
CONTINUOUS
  2
*D0
 70
65
 10
0.0
 20
0.0
  3
*D0
  1

  0
LINE
  5
21C
100
AcDbEntity
  8
0
100
AcDbLine
 62
7
  6
CONTINUOUS
 10
-40.0
 20
108.5
 11
-40.0
 21
120.5
  0
LINE
  5
21D
100
AcDbEntity
  8
0
100
AcDbLine
 62
7
  6
CONTINUOUS
 10
40.0
 20
108.5
 11
40.0
 21
120.5
  0
LINE
  5
21E
100
AcDbEntity
  8
0
100
AcDbLine
 62
7
  6
CONTINUOUS
 10
-40.0
 20
119.0
 11
0.0
 21
119.0
  0
LINE
  5
21F
100
AcDbEntity
  8
0
100
AcDbLine
 62
7
  6
CONTINUOUS
 10
40.0
 20
119.0
 11
0.0
 21
119.0
  0
INSERT
  5
220
100
AcDbEntity
  8
0
100
AcDbBlockReference
 62
7
  6
CONTINUOUS
  2
_FILLED
 10
-40.0
 20
119.0
 41
3.0
 42
3.0
 43
3.0
 50
180.0
  0
INSERT
  5
221
100
AcDbEntity
  8
0
100
AcDbBlockReference
 62
7
  6
CONTINUOUS
  2
_FILLED
 10
40.0
 20
119.0
 41
3.0
 42
3.0
 43
3.0
  0
ENDBLK
  5
222
100
AcDbEntity
  8
0
  6
BYBLOCK
 62
0
100
AcDbBlockEnd
  0
BLOCK
  5
223
100
AcDbEntity
  8
0
100
AcDbBlockBegin
 62
7
  6
CONTINUOUS
  2
*D1
 70
65
 10
0.0
 20
0.0
  3
*D1
  1

  0
LINE
  5
224
100
AcDbEntity
  8
0
100
AcDbLine
 62
7
  6
CONTINUOUS
 10
-68.5568241619
 20
108.5
 11
-68.5568241619
 21
120.5
  0
LINE
  5
225
100
AcDbEntity
  8
0
100
AcDbLine
 62
7
  6
CONTINUOUS
 10
-77.8568241619
 20
93.7500000078
 11
-77.8568241619
 21
120.5
  0
LINE
  5
226
100
AcDbEntity
  8
0
100
AcDbLine
 62
7
  6
CONTINUOUS
 10
-68.5568241619
 20
119.0
 11
-64.5568241619
 21
119.0
  0
LINE
  5
227
100
AcDbEntity
  8
0
100
AcDbLine
 62
7
  6
CONTINUOUS
 10
-64.5568241619
 20
119.0
 11
-73.2068241619
 21
119.0
  0
LINE
  5
228
100
AcDbEntity
  8
0
100
AcDbLine
 62
7
  6
CONTINUOUS
 10
-77.8568241619
 20
119.0
 11
-81.8568241619
 21
119.0
  0
LINE
  5
229
100
AcDbEntity
  8
0
100
AcDbLine
 62
7
  6
CONTINUOUS
 10
-81.8568241619
 20
119.0
 11
-73.2068241619
 21
119.0
  0
INSERT
  5
22A
100
AcDbEntity
  8
0
100
AcDbBlockReference
 62
7
  6
CONTINUOUS
  2
_FILLED
 10
-68.5568241619
 20
119.0
 41
3.0
 42
3.0
 43
3.0
 50
180.0
  0
INSERT
  5
22B
100
AcDbEntity
  8
0
100
AcDbBlockReference
 62
7
  6
CONTINUOUS
  2
_FILLED
 10
-77.8568241619
 20
119.0
 41
3.0
 42
3.0
 43
3.0
  0
ENDBLK
  5
22C
100
AcDbEntity
  8
0
  6
BYBLOCK
 62
0
100
AcDbBlockEnd
  0
BLOCK
  5
22D
100
AcDbEntity
  8
0
100
AcDbBlockBegin
 62
7
  6
CONTINUOUS
  2
*D2
 70
65
 10
0.0
 20
0.0
  3
*D2
  1

  0
LINE
  5
22E
100
AcDbEntity
  8
0
100
AcDbLine
 62
7
  6
CONTINUOUS
 10
37.5
 20
-111.0
 11
49.5
 21
-111.0
  0
LINE
  5
22F
100
AcDbEntity
  8
0
100
AcDbLine
 62
7
  6
CONTINUOUS
 10
37.5
 20
111.0
 11
49.5
 21
111.0
  0
LINE
  5
230
100
AcDbEntity
  8
0
100
AcDbLine
 62
7
  6
CONTINUOUS
 10
48.0
 20
-111.0
 11
48.0
 21
-0.0
  0
LINE
  5
231
100
AcDbEntity
  8
0
100
AcDbLine
 62
7
  6
CONTINUOUS
 10
48.0
 20
111.0
 11
48.0
 21
-0.0
  0
INSERT
  5
232
100
AcDbEntity
  8
0
100
AcDbBlockReference
 62
7
  6
CONTINUOUS
  2
_FILLED
 10
48.0
 20
-111.0
 41
3.0
 42
3.0
 43
3.0
 50
270.0
  0
INSERT
  5
233
100
AcDbEntity
  8
0
100
AcDbBlockReference
 62
7
  6
CONTINUOUS
  2
_FILLED
 10
48.0
 20
111.0
 41
3.0
 42
3.0
 43
3.0
 50
90.0
  0
ENDBLK
  5
234
100
AcDbEntity
  8
0
  6
BYBLOCK
 62
0
100
AcDbBlockEnd
  0
ENDSEC
  0
SECTION
  2
ENTITIES
  0
DIMENSION
  5
235
100
AcDbEntity
  8
0
100
AcDbDimension
 62
7
  6
CONTINUOUS
  2
*D0
 10
40.0
 20
119.0
 11
-2.3571428571
 21
119.75
 70
160
 71
2
 42
80.0
  3
DIMSTYLE_1
100
AcDbAlignedDimension
 13
-40.0
 23
108.5
 14
40.0
 24
108.5
100
AcDbRotatedDimension
  0
DIMENSION
  5
236
100
AcDbEntity
  8
0
100
AcDbDimension
 62
7
  6
CONTINUOUS
  2
*D1
 10
-77.8568241619
 20
119.0
 11
-76.313967019
 21
119.75
 70
160
 71
2
 42
9.3
  3
DIMSTYLE_1
100
AcDbAlignedDimension
 13
-68.5568241619
 23
108.5
 14
-77.8568241619
 24
93.7500000078
 50
180.0
100
AcDbRotatedDimension
  0
DIMENSION
  5
237
100
AcDbEntity
  8
0
100
AcDbDimension
 62
7
  6
CONTINUOUS
  2
*D2
 10
48.0
 20
111.0
 11
47.25
 21
-3.5357142857
 70
160
 71
2
 42
222.0
  3
DIMSTYLE_1
100
AcDbAlignedDimension
 13
37.5
 23
-111.0
 14
37.5
 24
111.0
 50
90.0
100
AcDbRotatedDimension
  0
LINE
  5
238
100
AcDbEntity
  8
RACCORDO
100
AcDbLine
 62
7
  6
CONTINUOUS
 10
37.0
 20
-111.0
 11
4.1331429141
 21
-111.0
  0
LINE
  5
239
100
AcDbEntity
  8
RACCORDO
100
AcDbLine
 62
7
  6
CONTINUOUS
 10
-4.1331429141
 20
-111.0
 11
-37.0
 21
-111.0
  0
LINE
  5
23A
100
AcDbEntity
  8
RACCORDO
100
AcDbLine
 62
7
  6
CONTINUOUS
 10
3.041834413
 20
-110.8881826404
 11
-3.041834413
 21
-110.8881826404
  0
LINE
  5
23B
100
AcDbEntity
  8
RACCORDO
100
AcDbLine
 62
253
  6
CONTINUOUS
 10
-11.7500274807
 20
-110.7278567606
 11
11.7500274807
 21
-110.7278567606
  0
LINE
  5
23C
100
AcDbEntity
  8
RACCORDO
100
AcDbLine
 62
253
  6
CONTINUOUS
 10
-11.7500137403
 20
-110.0628707566
 11
11.7500137403
 21
-110.0628707566
  0
LINE
  5
23D
100
AcDbEntity
  8
RACCORDO
100
AcDbLine
 62
253
  6
CONTINUOUS
 10
-40.0
 20
-108.0
 11
-39.7359525722
 21
-107.999931628
  0
LINE
  5
23E
100
AcDbEntity
  8
RACCORDO
100
AcDbLine
 62
253
  6
CONTINUOUS
 10
40.0
 20
-108.0
 11
39.7359527728
 21
-108.0
  0
LINE
  5
23F
100
AcDbEntity
  8
RACCORDO
100
AcDbLine
 62
253
  6
CONTINUOUS
 10
-11.7499306751
 20
-96.8576119267
 11
11.7499306751
 21
-96.8576119267
  0
LINE
  5
240
100
AcDbEntity
  8
RACCORDO
100
AcDbLine
 62
253
  6
CONTINUOUS
 10
-11.7498613503
 20
-95.2537950195
 11
11.7498613503
 21
-95.2537950195
  0
LINE
  5
241
100
AcDbEntity
  8
0
100
AcDbLine
 62
253
  6
CONTINUOUS
 10
-22.25
 20
-93.6538626693
 11
22.25
 21
-93.6538626693
  0
LINE
  5
242
100
AcDbEntity
  8
0
100
AcDbLine
 62
7
  6
CONTINUOUS
 10
-22.25
 20
-93.55
 11
22.25
 21
-93.55
  0
LINE
  5
243
100
AcDbEntity
  8
RACCORDO
100
AcDbLine
 62
7
  6
CONTINUOUS
 10
3.635045565
 20
110.9744820414
 11
3.539931762
 21
110.913700599
  0
LINE
  5
244
100
AcDbEntity
  8
RACCORDO
100
AcDbLine
 62
253
  6
CONTINUOUS
 10
22.6538626693
 20
-93.25
 11
24.2603442858
 21
-93.24999955
  0
LINE
  5
245
100
AcDbEntity
  8
0
100
AcDbLine
 62
253
  6
CONTINUOUS
 10
22.55
 20
-93.25
 11
22.6538626693
 21
-93.25
  0
LINE
  5
246
100
AcDbEntity
  8
0
100
AcDbLine
 62
253
  6
CONTINUOUS
 10
-22.55
 20
-93.25
 11
-22.6538626693
 21
-93.25
  0
LINE
  5
247
100
AcDbEntity
  8
RACCORDO
100
AcDbLine
 62
253
  6
CONTINUOUS
 10
-22.6538626693
 20
-93.25
 11
-24.2603442864
 21
-93.2499999186
  0
LINE
  5
248
100
AcDbEntity
  8
RACCORDO
100
AcDbLine
 62
7
  6
CONTINUOUS
 10
3.635045565
 20
-110.9744820414
 11
3.539931762
 21
-110.913700599
  0
LINE
  5
249
100
AcDbEntity
  8
RACCORDO
100
AcDbLine
 62
253
  6
CONTINUOUS
 10
-39.7278543933
 20
-71.0000028421
 11
-24.2535132686
 21
-70.9999791553
  0
LINE
  5
24A
100
AcDbEntity
  8
RACCORDO
100
AcDbLine
 62
253
  6
CONTINUOUS
 10
39.7278543933
 20
-71.0000028344
 11
24.2535132686
 21
-70.9999791554
  0
LINE
  5
24B
100
AcDbEntity
  8
RACCORDO
100
AcDbLine
 62
253
  6
CONTINUOUS
 10
-25.8563908662
 20
-48.75
 11
-22.6538626693
 21
-48.75
  0
LINE
  5
24C
100
AcDbEntity
  8
RACCORDO
100
AcDbLine
 62
253
  6
CONTINUOUS
 10
25.8563908662
 20
-48.75
 11
22.6538626693
 21
-48.75
  0
LINE
  5
24D
100
AcDbEntity
  8
0
100
AcDbLine
 62
253
  6
CONTINUOUS
 10
22.55
 20
-48.75
 11
22.6538626693
 21
-48.75
  0
LINE
  5
24E
100
AcDbEntity
  8
0
100
AcDbLine
 62
253
  6
CONTINUOUS
 10
-22.55
 20
-48.75
 11
-22.6538626693
 21
-48.75
  0
LINE
  5
24F
100
AcDbEntity
  8
0
100
AcDbLine
 62
7
  6
CONTINUOUS
 10
22.25
 20
-48.45
 11
-22.25
 21
-48.45
  0
LINE
  5
250
100
AcDbEntity
  8
0
100
AcDbLine
 62
253
  6
CONTINUOUS
 10
22.25
 20
-48.3461373307
 11
-22.25
 21
-48.3461373307
  0
LINE
  5
251
100
AcDbEntity
  8
RACCORDO
100
AcDbLine
 62
253
  6
CONTINUOUS
 10
22.25
 20
-46.7826847062
 11
-22.25
 21
-46.7826847062
  0
LINE
  5
252
100
AcDbEntity
  8
0
100
AcDbLine
 62
7
  6
CONTINUOUS
 10
-40.0
 20
-108.0
 11
-40.0
 21
108.0
  0
LINE
  5
253
100
AcDbEntity
  8
RACCORDO
100
AcDbLine
 62
253
  6
CONTINUOUS
 10
-39.7278543933
 20
71.0000028436
 11
-39.7278543933
 21
-71.0000028422
  0
LINE
  5
254
100
AcDbEntity
  8
RACCORDO
100
AcDbLine
 62
253
  6
CONTINUOUS
 10
-39.062921579
 20
71.0000014233
 11
-39.062921579
 21
-71.0000014219
  0
LINE
  5
255
100
AcDbEntity
  8
RACCORDO
100
AcDbLine
 62
253
  6
CONTINUOUS
 10
22.25
 20
-45.0809109269
 11
-22.25
 21
-45.0809109269
  0
LINE
  5
256
100
AcDbEntity
  8
RACCORDO
100
AcDbLine
 62
253
  6
CONTINUOUS
 10
-37.0
 20
111.0
 11
-36.9999320747
 21
110.7368092287
  0
LINE
  5
257
100
AcDbEntity
  8
RACCORDO
100
AcDbLine
 62
253
  6
CONTINUOUS
 10
-37.0
 20
-111.0
 11
-37.0
 21
-110.7368093679
  0
LINE
  5
258
100
AcDbEntity
  8
RACCORDO
100
AcDbLine
 62
253
  6
CONTINUOUS
 10
-23.4974067317
 20
45.2994651035
 11
-22.9188423999
 21
46.8998704614
  0
LINE
  5
259
100
AcDbEntity
  8
RACCORDO
100
AcDbLine
 62
253
  6
CONTINUOUS
 10
-23.4974067317
 20
-45.2994651035
 11
-22.9188423999
 21
-46.8998704614
  0
LINE
  5
25A
100
AcDbEntity
  8
RACCORDO
100
AcDbLine
 62
253
  6
CONTINUOUS
 10
-25.856390866
 20
70.999989576
 11
-25.8563908662
 21
48.75
  0
LINE
  5
25B
100
AcDbEntity
  8
RACCORDO
100
AcDbLine
 62
253
  6
CONTINUOUS
 10
-25.8563908662
 20
22.25
 11
-25.8563908662
 21
-22.25
  0
LINE
  5
25C
100
AcDbEntity
  8
RACCORDO
100
AcDbLine
 62
253
  6
CONTINUOUS
 10
-25.8563908662
 20
-48.75
 11
-25.856390866
 21
-70.9999895776
  0
LINE
  5
25D
100
AcDbEntity
  8
RACCORDO
100
AcDbLine
 62
253
  6
CONTINUOUS
 10
-24.2535132686
 20
70.9999791536
 11
-24.2535132687
 21
48.7499924139
  0
LINE
  5
25E
100
AcDbEntity
  8
RACCORDO
100
AcDbLine
 62
253
  6
CONTINUOUS
 10
-24.2535132687
 20
22.2500221487
 11
-24.2535132687
 21
-22.2500075861
  0
LINE
  5
25F
100
AcDbEntity
  8
RACCORDO
100
AcDbLine
 62
253
  6
CONTINUOUS
 10
-24.2535132687
 20
-48.7499778513
 11
-24.2535132686
 21
-70.9999791553
  0
LINE
  5
260
100
AcDbEntity
  8
RACCORDO
100
AcDbLine
 62
253
  6
CONTINUOUS
 10
-23.4974023527
 20
25.7005361991
 11
-23.4974018958
 21
45.2994636646
  0
LINE
  5
261
100
AcDbEntity
  8
RACCORDO
100
AcDbLine
 62
253
  6
CONTINUOUS
 10
-23.4974023527
 20
-45.2994638009
 11
-23.4974018958
 21
-25.7005363354
  0
LINE
  5
262
100
AcDbEntity
  8
0
100
AcDbLine
 62
253
  6
CONTINUOUS
 10
-22.6538626693
 20
93.25
 11
-22.6538626693
 21
48.75
  0
LINE
  5
263
100
AcDbEntity
  8
0
100
AcDbLine
 62
253
  6
CONTINUOUS
 10
-22.6538626693
 20
22.25
 11
-22.6538626693
 21
-22.25
  0
LINE
  5
264
100
AcDbEntity
  8
0
100
AcDbLine
 62
253
  6
CONTINUOUS
 10
-22.6538626693
 20
-48.75
 11
-22.6538626693
 21
-93.25
  0
LINE
  5
265
100
AcDbEntity
  8
0
100
AcDbLine
 62
7
  6
CONTINUOUS
 10
-22.55
 20
93.25
 11
-22.55
 21
48.75
  0
LINE
  5
266
100
AcDbEntity
  8
0
100
AcDbLine
 62
7
  6
CONTINUOUS
 10
-22.55
 20
22.25
 11
-22.55
 21
-22.25
  0
LINE
  5
267
100
AcDbEntity
  8
0
100
AcDbLine
 62
7
  6
CONTINUOUS
 10
-22.55
 20
-48.75
 11
-22.55
 21
-93.25
  0
LINE
  5
268
100
AcDbEntity
  8
RACCORDO
100
AcDbLine
 62
253
  6
CONTINUOUS
 10
-22.25
 20
-25.9190890731
 11
22.25
 21
-25.9190890731
  0
LINE
  5
269
100
AcDbEntity
  8
RACCORDO
100
AcDbLine
 62
253
  6
CONTINUOUS
 10
-22.25
 20
-24.2173152938
 11
22.25
 21
-24.2173152938
  0
LINE
  5
26A
100
AcDbEntity
  8
0
100
AcDbLine
 62
253
  6
CONTINUOUS
 10
-22.25
 20
-22.6538626693
 11
22.25
 21
-22.6538626693
  0
LINE
  5
26B
100
AcDbEntity
  8
0
100
AcDbLine
 62
7
  6
CONTINUOUS
 10
-22.25
 20
-22.55
 11
22.25
 21
-22.55
  0
LINE
  5
26C
100
AcDbEntity
  8
RACCORDO
100
AcDbLine
 62
253
  6
CONTINUOUS
 10
-22.25
 20
-93.6538626693
 11
-22.24999965
 21
-95.2582091924
  0
LINE
  5
26D
100
AcDbEntity
  8
0
100
AcDbLine
 62
253
  6
CONTINUOUS
 10
-22.25
 20
48.45
 11
-22.25
 21
48.3461373307
  0
LINE
  5
26E
100
AcDbEntity
  8
0
100
AcDbLine
 62
253
  6
CONTINUOUS
 10
-22.25
 20
-48.45
 11
-22.25
 21
-48.3461373307
  0
LINE
  5
26F
100
AcDbEntity
  8
RACCORDO
100
AcDbLine
 62
253
  6
CONTINUOUS
 10
-22.25
 20
-22.6538626693
 11
-22.25
 21
-25.9190890731
  0
LINE
  5
270
100
AcDbEntity
  8
0
100
AcDbLine
 62
253
  6
CONTINUOUS
 10
-22.25
 20
-22.55
 11
-22.25
 21
-22.6538626693
  0
LINE
  5
271
100
AcDbEntity
  8
RACCORDO
100
AcDbLine
 62
253
  6
CONTINUOUS
 10
-22.25
 20
-45.0809109269
 11
-22.25
 21
-48.3461373307
  0
LINE
  5
272
100
AcDbEntity
  8
0
100
AcDbLine
 62
253
  6
CONTINUOUS
 10
-22.25
 20
22.55
 11
-22.25
 21
22.6538626693
  0
LINE
  5
273
100
AcDbEntity
  8
RACCORDO
100
AcDbLine
 62
253
  6
CONTINUOUS
 10
-22.25
 20
22.6538626693
 11
-22.25
 21
25.9190890731
  0
LINE
  5
274
100
AcDbEntity
  8
RACCORDO
100
AcDbLine
 62
253
  6
CONTINUOUS
 10
-22.25
 20
45.0809109269
 11
-22.25
 21
48.3461373307
  0
LINE
  5
275
100
AcDbEntity
  8
0
100
AcDbLine
 62
253
  6
CONTINUOUS
 10
-22.25
 20
-93.55
 11
-22.25
 21
-93.6538626693
  0
LINE
  5
276
100
AcDbEntity
  8
0
100
AcDbLine
 62
253
  6
CONTINUOUS
 10
-22.25
 20
93.55
 11
-22.25
 21
93.6538626693
  0
LINE
  5
277
100
AcDbEntity
  8
RACCORDO
100
AcDbLine
 62
253
  6
CONTINUOUS
 10
-22.25
 20
93.6538626693
 11
-22.249999991
 21
95.2582091929
  0
LINE
  5
278
100
AcDbEntity
  8
0
100
AcDbLine
 62
253
  6
CONTINUOUS
 10
22.55
 20
-22.25
 11
22.6538626693
 21
-22.25
  0
LINE
  5
279
100
AcDbEntity
  8
0
100
AcDbLine
 62
253
  6
CONTINUOUS
 10
-22.55
 20
-22.25
 11
-22.6538626693
 21
-22.25
  0
LINE
  5
27A
100
AcDbEntity
  8
RACCORDO
100
AcDbLine
 62
253
  6
CONTINUOUS
 10
-22.6538626693
 20
-22.25
 11
-25.8563908662
 21
-22.25
  0
LINE
  5
27B
100
AcDbEntity
  8
RACCORDO
100
AcDbLine
 62
253
  6
CONTINUOUS
 10
22.6538626693
 20
-22.25
 11
25.8563908662
 21
-22.25
  0
LINE
  5
27C
100
AcDbEntity
  8
RACCORDO
100
AcDbLine
 62
253
  6
CONTINUOUS
 10
-11.7500274807
 20
110.7278567606
 11
-11.7498613503
 21
95.2537950195
  0
LINE
  5
27D
100
AcDbEntity
  8
RACCORDO
100
AcDbLine
 62
253
  6
CONTINUOUS
 10
-11.7500274807
 20
-110.7278567606
 11
-11.7498613503
 21
-95.2537950195
  0
LINE
  5
27E
100
AcDbEntity
  8
RACCORDO
100
AcDbLine
 62
253
  6
CONTINUOUS
 10
-23.4974067317
 20
-25.7005348965
 11
-22.9188423999
 21
-24.1001295386
  0
LINE
  5
27F
100
AcDbEntity
  8
RACCORDO
100
AcDbLine
 62
253
  6
CONTINUOUS
 10
-23.4974067317
 20
25.7005348965
 11
-22.9188423999
 21
24.1001295386
  0
LWPOLYLINE
  5
280
100
AcDbEntity
  8
0
100
AcDbPolyline
 62
7
  6
CONTINUOUS
 90
4
 70
0
 43
0.3500000006
 10
-2.3571427875
 20
120.1785689392
 10
-2.3571427875
 20
121.0357159424
 10
-1.9285714102
 20
121.4642849121
 10
-1.2857142735
 20
121.4642849121
  0
LWPOLYLINE
  5
281
100
AcDbEntity
  8
0
100
AcDbPolyline
 62
7
  6
CONTINUOUS
 90
13
 70
0
 43
0.3500000006
 10
0.0
 20
120.6071469727
 10
0.0
 20
121.8928538818
 10
0.2142857063
 20
122.3214319153
 10
0.6428571367
 20
122.750000885
 10
0.8571428254
 20
122.750000885
 10
1.2857142735
 20
122.3214319153
 10
1.5000000329
 20
121.8928538818
 10
1.5000000329
 20
120.6071469727
 10
1.2857142735
 20
120.1785689392
 10
0.8571428254
 20
119.7499999695
 10
0.6428571367
 20
119.7499999695
 10
0.2142857063
 20
120.1785689392
 10
0.0
 20
120.6071469727
  0
LINE
  5
282
100
AcDbEntity
  8
RACCORDO
100
AcDbLine
 62
253
  6
CONTINUOUS
 10
11.7498613503
 20
-95.2537950195
 11
11.7500274807
 21
-110.7278567606
  0
LINE
  5
283
100
AcDbEntity
  8
RACCORDO
100
AcDbLine
 62
253
  6
CONTINUOUS
 10
11.7498613503
 20
95.2537950195
 11
11.7500274807
 21
110.7278567606
  0
LINE
  5
284
100
AcDbEntity
  8
RACCORDO
100
AcDbLine
 62
253
  6
CONTINUOUS
 10
23.4974067317
 20
25.7005348965
 11
22.9188423999
 21
24.1001295386
  0
LINE
  5
285
100
AcDbEntity
  8
RACCORDO
100
AcDbLine
 62
253
  6
CONTINUOUS
 10
23.4974067317
 20
-25.7005348965
 11
22.9188423999
 21
-24.1001295386
  0
LINE
  5
286
100
AcDbEntity
  8
0
100
AcDbLine
 62
253
  6
CONTINUOUS
 10
22.25
 20
48.45
 11
22.25
 21
48.3461373307
  0
LINE
  5
287
100
AcDbEntity
  8
0
100
AcDbLine
 62
253
  6
CONTINUOUS
 10
22.25
 20
-48.45
 11
22.25
 21
-48.3461373307
  0
LINE
  5
288
100
AcDbEntity
  8
RACCORDO
100
AcDbLine
 62
253
  6
CONTINUOUS
 10
22.25
 20
-22.6538626693
 11
22.25
 21
-25.9190890731
  0
LINE
  5
289
100
AcDbEntity
  8
0
100
AcDbLine
 62
253
  6
CONTINUOUS
 10
22.25
 20
-22.55
 11
22.25
 21
-22.6538626693
  0
LINE
  5
28A
100
AcDbEntity
  8
RACCORDO
100
AcDbLine
 62
253
  6
CONTINUOUS
 10
22.25
 20
-45.0809109269
 11
22.25
 21
-48.3461373307
  0
LINE
  5
28B
100
AcDbEntity
  8
0
100
AcDbLine
 62
253
  6
CONTINUOUS
 10
22.25
 20
22.55
 11
22.25
 21
22.6538626693
  0
LINE
  5
28C
100
AcDbEntity
  8
RACCORDO
100
AcDbLine
 62
253
  6
CONTINUOUS
 10
22.25
 20
22.6538626693
 11
22.25
 21
25.9190890731
  0
LINE
  5
28D
100
AcDbEntity
  8
RACCORDO
100
AcDbLine
 62
253
  6
CONTINUOUS
 10
22.25
 20
45.0809109269
 11
22.25
 21
48.3461373307
  0
LINE
  5
28E
100
AcDbEntity
  8
RACCORDO
100
AcDbLine
 62
253
  6
CONTINUOUS
 10
22.25
 20
-93.6538626693
 11
22.249999991
 21
-95.2582091929
  0
LINE
  5
28F
100
AcDbEntity
  8
0
100
AcDbLine
 62
253
  6
CONTINUOUS
 10
22.25
 20
-93.55
 11
22.25
 21
-93.6538626693
  0
LINE
  5
290
100
AcDbEntity
  8
0
100
AcDbLine
 62
253
  6
CONTINUOUS
 10
22.25
 20
93.55
 11
22.25
 21
93.6538626693
  0
LINE
  5
291
100
AcDbEntity
  8
RACCORDO
100
AcDbLine
 62
253
  6
CONTINUOUS
 10
22.25
 20
93.6538626693
 11
22.24999965
 21
95.2582091924
  0
LINE
  5
292
100
AcDbEntity
  8
0
100
AcDbLine
 62
7
  6
CONTINUOUS
 10
22.55
 20
-93.25
 11
22.55
 21
-48.75
  0
LINE
  5
293
100
AcDbEntity
  8
0
100
AcDbLine
 62
7
  6
CONTINUOUS
 10
22.55
 20
-22.25
 11
22.55
 21
22.25
  0
LINE
  5
294
100
AcDbEntity
  8
0
100
AcDbLine
 62
7
  6
CONTINUOUS
 10
22.55
 20
48.75
 11
22.55
 21
93.25
  0
LINE
  5
295
100
AcDbEntity
  8
0
100
AcDbLine
 62
253
  6
CONTINUOUS
 10
22.6538626693
 20
-93.25
 11
22.6538626693
 21
-48.75
  0
LINE
  5
296
100
AcDbEntity
  8
0
100
AcDbLine
 62
253
  6
CONTINUOUS
 10
22.6538626693
 20
-22.25
 11
22.6538626693
 21
22.25
  0
LINE
  5
297
100
AcDbEntity
  8
0
100
AcDbLine
 62
253
  6
CONTINUOUS
 10
22.6538626693
 20
48.75
 11
22.6538626693
 21
93.25
  0
LINE
  5
298
100
AcDbEntity
  8
RACCORDO
100
AcDbLine
 62
253
  6
CONTINUOUS
 10
23.4974022065
 20
45.2994637574
 11
23.4974017518
 21
25.7005363778
  0
LINE
  5
299
100
AcDbEntity
  8
RACCORDO
100
AcDbLine
 62
253
  6
CONTINUOUS
 10
23.4974022065
 20
-25.7005362426
 11
23.4974017518
 21
-45.2994636222
  0
LINE
  5
29A
100
AcDbEntity
  8
RACCORDO
100
AcDbLine
 62
253
  6
CONTINUOUS
 10
24.2535132686
 20
-70.9999791554
 11
24.2535132687
 21
-48.7499924203
  0
LINE
  5
29B
100
AcDbEntity
  8
RACCORDO
100
AcDbLine
 62
253
  6
CONTINUOUS
 10
24.2535132687
 20
-22.2500221412
 11
24.2535132687
 21
22.2500075797
  0
LINE
  5
29C
100
AcDbEntity
  8
RACCORDO
100
AcDbLine
 62
253
  6
CONTINUOUS
 10
24.2535132687
 20
48.7499778588
 11
24.2535132686
 21
70.9999791554
  0
LINE
  5
29D
100
AcDbEntity
  8
RACCORDO
100
AcDbLine
 62
253
  6
CONTINUOUS
 10
-25.8563908662
 20
22.25
 11
-22.6538626693
 21
22.25
  0
LINE
  5
29E
100
AcDbEntity
  8
RACCORDO
100
AcDbLine
 62
253
  6
CONTINUOUS
 10
25.8563908662
 20
22.25
 11
22.6538626693
 21
22.25
  0
LINE
  5
29F
100
AcDbEntity
  8
0
100
AcDbLine
 62
253
  6
CONTINUOUS
 10
22.55
 20
22.25
 11
22.6538626693
 21
22.25
  0
LINE
  5
2A0
100
AcDbEntity
  8
0
100
AcDbLine
 62
253
  6
CONTINUOUS
 10
-22.55
 20
22.25
 11
-22.6538626693
 21
22.25
  0
LINE
  5
2A1
100
AcDbEntity
  8
0
100
AcDbLine
 62
7
  6
CONTINUOUS
 10
22.25
 20
22.55
 11
-22.25
 21
22.55
  0
LINE
  5
2A2
100
AcDbEntity
  8
0
100
AcDbLine
 62
253
  6
CONTINUOUS
 10
22.25
 20
22.6538626693
 11
-22.25
 21
22.6538626693
  0
LINE
  5
2A3
100
AcDbEntity
  8
RACCORDO
100
AcDbLine
 62
253
  6
CONTINUOUS
 10
22.25
 20
24.2173152938
 11
-22.25
 21
24.2173152938
  0
LINE
  5
2A4
100
AcDbEntity
  8
RACCORDO
100
AcDbLine
 62
253
  6
CONTINUOUS
 10
25.856390866
 20
-70.9999895777
 11
25.8563908662
 21
-48.75
  0
LINE
  5
2A5
100
AcDbEntity
  8
RACCORDO
100
AcDbLine
 62
253
  6
CONTINUOUS
 10
25.8563908662
 20
-22.25
 11
25.8563908662
 21
22.25
  0
LINE
  5
2A6
100
AcDbEntity
  8
RACCORDO
100
AcDbLine
 62
253
  6
CONTINUOUS
 10
25.8563908662
 20
48.75
 11
25.856390866
 21
70.9999895777
  0
LINE
  5
2A7
100
AcDbEntity
  8
RACCORDO
100
AcDbLine
 62
253
  6
CONTINUOUS
 10
22.25
 20
25.9190890731
 11
-22.25
 21
25.9190890731
  0
LINE
  5
2A8
100
AcDbEntity
  8
RACCORDO
100
AcDbLine
 62
253
  6
CONTINUOUS
 10
37.0
 20
-111.0
 11
36.9999320747
 21
-110.7368092287
  0
LINE
  5
2A9
100
AcDbEntity
  8
RACCORDO
100
AcDbLine
 62
253
  6
CONTINUOUS
 10
37.0
 20
111.0
 11
37.0
 21
110.7368093679
  0
LINE
  5
2AA
100
AcDbEntity
  8
RACCORDO
100
AcDbLine
 62
253
  6
CONTINUOUS
 10
39.062921579
 20
-71.0000014142
 11
39.062921579
 21
71.0000014174
  0
LINE
  5
2AB
100
AcDbEntity
  8
RACCORDO
100
AcDbLine
 62
253
  6
CONTINUOUS
 10
39.7278543933
 20
-71.0000028344
 11
39.7278543933
 21
71.0000028376
  0
LINE
  5
2AC
100
AcDbEntity
  8
0
100
AcDbLine
 62
7
  6
CONTINUOUS
 10
40.0
 20
-108.0
 11
40.0
 21
108.0
  0
LINE
  5
2AD
100
AcDbEntity
  8
RACCORDO
100
AcDbLine
 62
253
  6
CONTINUOUS
 10
23.4974067317
 20
-45.2994651035
 11
22.9188423999
 21
-46.8998704614
  0
LINE
  5
2AE
100
AcDbEntity
  8
RACCORDO
100
AcDbLine
 62
253
  6
CONTINUOUS
 10
23.4974067317
 20
45.2994651035
 11
22.9188423999
 21
46.8998704614
  0
LWPOLYLINE
  5
2AF
100
AcDbEntity
  8
0
100
AcDbPolyline
 62
7
  6
CONTINUOUS
 90
7
 70
0
 43
0.3500000006
 10
47.250000824
 20
2.6785716019
 10
47.250000824
 20
1.1785711441
 10
45.1071423798
 20
2.6785716019
 10
44.67857341
 20
2.6785716019
 10
44.2499999084
 20
2.2500003662
 10
44.2499999084
 20
1.6071423798
 10
44.8928578949
 20
1.1785711441
  0
LWPOLYLINE
  5
2B0
100
AcDbEntity
  8
0
100
AcDbPolyline
 62
7
  6
CONTINUOUS
 90
7
 70
0
 43
0.3500000006
 10
47.250000824
 20
0.3214286728
 10
47.250000824
 20
-1.178571785
 10
45.1071423798
 20
0.3214286728
 10
44.67857341
 20
0.3214286728
 10
44.2499999084
 20
-0.1071425629
 10
44.2499999084
 20
-0.7500005493
 10
44.8928578949
 20
-1.178571785
  0
LWPOLYLINE
  5
2B1
100
AcDbEntity
  8
0
100
AcDbPolyline
 62
7
  6
CONTINUOUS
 90
7
 70
0
 43
0.3500000006
 10
47.250000824
 20
-2.0357142563
 10
47.250000824
 20
-3.5357147141
 10
45.1071423798
 20
-2.0357142563
 10
44.67857341
 20
-2.0357142563
 10
44.2499999084
 20
-2.4642854919
 10
44.2499999084
 20
-3.1071423454
 10
44.8928578949
 20
-3.5357147141
  0
LINE
  5
2B2
100
AcDbEntity
  8
RACCORDO
100
AcDbLine
 62
253
  6
CONTINUOUS
 10
-22.25
 20
45.0809109269
 11
22.25
 21
45.0809109269
  0
LINE
  5
2B3
100
AcDbEntity
  8
RACCORDO
100
AcDbLine
 62
253
  6
CONTINUOUS
 10
-22.25
 20
46.7826847062
 11
22.25
 21
46.7826847062
  0
LINE
  5
2B4
100
AcDbEntity
  8
0
100
AcDbLine
 62
253
  6
CONTINUOUS
 10
-22.25
 20
48.3461373307
 11
22.25
 21
48.3461373307
  0
LINE
  5
2B5
100
AcDbEntity
  8
0
100
AcDbLine
 62
7
  6
CONTINUOUS
 10
-22.25
 20
48.45
 11
22.25
 21
48.45
  0
LINE
  5
2B6
100
AcDbEntity
  8
0
100
AcDbLine
 62
253
  6
CONTINUOUS
 10
22.55
 20
48.75
 11
22.6538626693
 21
48.75
  0
LINE
  5
2B7
100
AcDbEntity
  8
0
100
AcDbLine
 62
253
  6
CONTINUOUS
 10
-22.55
 20
48.75
 11
-22.6538626693
 21
48.75
  0
LINE
  5
2B8
100
AcDbEntity
  8
RACCORDO
100
AcDbLine
 62
253
  6
CONTINUOUS
 10
-22.6538626693
 20
48.75
 11
-25.8563908662
 21
48.75
  0
LINE
  5
2B9
100
AcDbEntity
  8
RACCORDO
100
AcDbLine
 62
253
  6
CONTINUOUS
 10
22.6538626693
 20
48.75
 11
25.8563908662
 21
48.75
  0
LINE
  5
2BA
100
AcDbEntity
  8
RACCORDO
100
AcDbLine
 62
253
  6
CONTINUOUS
 10
-39.7278543933
 20
71.0000028436
 11
-24.2535132686
 21
70.9999791537
  0
LINE
  5
2BB
100
AcDbEntity
  8
RACCORDO
100
AcDbLine
 62
253
  6
CONTINUOUS
 10
24.2535132686
 20
70.9999791554
 11
39.7278543933
 21
71.0000028376
  0
LINE
  5
2BC
100
AcDbEntity
  8
RACCORDO
100
AcDbLine
 62
7
  6
CONTINUOUS
 10
-3.539931762
 20
-110.913700599
 11
-3.635045565
 21
-110.9744820414
  0
LINE
  5
2BD
100
AcDbEntity
  8
0
100
AcDbLine
 62
253
  6
CONTINUOUS
 10
22.55
 20
93.25
 11
22.6538626693
 21
93.25
  0
LINE
  5
2BE
100
AcDbEntity
  8
0
100
AcDbLine
 62
253
  6
CONTINUOUS
 10
-22.55
 20
93.25
 11
-22.6538626693
 21
93.25
  0
LINE
  5
2BF
100
AcDbEntity
  8
RACCORDO
100
AcDbLine
 62
253
  6
CONTINUOUS
 10
22.6538626693
 20
93.25
 11
24.2603442864
 21
93.2499999186
  0
LINE
  5
2C0
100
AcDbEntity
  8
RACCORDO
100
AcDbLine
 62
253
  6
CONTINUOUS
 10
-22.6538626693
 20
93.25
 11
-24.2603442858
 21
93.24999955
  0
LINE
  5
2C1
100
AcDbEntity
  8
0
100
AcDbLine
 62
7
  6
CONTINUOUS
 10
22.25
 20
93.55
 11
-22.25
 21
93.55
  0
LINE
  5
2C2
100
AcDbEntity
  8
0
100
AcDbLine
 62
253
  6
CONTINUOUS
 10
22.25
 20
93.6538626693
 11
-22.25
 21
93.6538626693
  0
LINE
  5
2C3
100
AcDbEntity
  8
RACCORDO
100
AcDbLine
 62
253
  6
CONTINUOUS
 10
11.7498613503
 20
95.2537950195
 11
-11.7498613503
 21
95.2537950195
  0
LINE
  5
2C4
100
AcDbEntity
  8
RACCORDO
100
AcDbLine
 62
7
  6
CONTINUOUS
 10
-3.539931762
 20
110.913700599
 11
-3.635045565
 21
110.9744820414
  0
LINE
  5
2C5
100
AcDbEntity
  8
RACCORDO
100
AcDbLine
 62
253
  6
CONTINUOUS
 10
11.7499306751
 20
96.8576119267
 11
-11.7499306751
 21
96.8576119267
  0
LWPOLYLINE
  5
2C6
100
AcDbEntity
  8
0
100
AcDbPolyline
 62
7
  6
CONTINUOUS
 90
13
 70
0
 43
0.3500000006
 10
-1.9285714102
 20
121.4642849121
 10
-2.2142856617
 20
121.678569397
 10
-2.2142856617
 20
122.3214319153
 10
-1.9285714102
 20
122.750000885
 10
-1.2857142735
 20
122.750000885
 10
-1.0000000219
 20
122.3214319153
 10
-1.0000000219
 20
121.678569397
 10
-1.2857142735
 20
121.4642849121
 10
-0.8571428254
 20
121.0357159424
 10
-0.8571428254
 20
120.1785689392
 10
-1.2857142735
 20
119.7499999695
 10
-1.9285714102
 20
119.7499999695
 10
-2.3571427875
 20
120.1785689392
  0
LINE
  5
2C7
100
AcDbEntity
  8
RACCORDO
100
AcDbLine
 62
253
  6
CONTINUOUS
 10
40.0
 20
108.0
 11
39.7359525722
 21
107.999931628
  0
LINE
  5
2C8
100
AcDbEntity
  8
RACCORDO
100
AcDbLine
 62
253
  6
CONTINUOUS
 10
-40.0
 20
108.0
 11
-39.7359527728
 21
108.0
  0
LINE
  5
2C9
100
AcDbEntity
  8
RACCORDO
100
AcDbLine
 62
253
  6
CONTINUOUS
 10
11.7500137403
 20
110.0628707566
 11
-11.7500137403
 21
110.0628707566
  0
LINE
  5
2CA
100
AcDbEntity
  8
RACCORDO
100
AcDbLine
 62
253
  6
CONTINUOUS
 10
11.7500274807
 20
110.7278567606
 11
-11.7500274807
 21
110.7278567606
  0
LINE
  5
2CB
100
AcDbEntity
  8
RACCORDO
100
AcDbLine
 62
7
  6
CONTINUOUS
 10
3.041834413
 20
110.8881826404
 11
-3.041834413
 21
110.8881826404
  0
LINE
  5
2CC
100
AcDbEntity
  8
RACCORDO
100
AcDbLine
 62
7
  6
CONTINUOUS
 10
-37.0
 20
111.0
 11
-4.1331429141
 21
111.0
  0
LINE
  5
2CD
100
AcDbEntity
  8
RACCORDO
100
AcDbLine
 62
7
  6
CONTINUOUS
 10
4.1331429141
 20
111.0
 11
37.0
 21
111.0
  0
LINE
  5
2CE
100
AcDbEntity
  8
RACCORDO
100
AcDbLine
 62
7
  6
CONTINUOUS
 10
-68.5568241619
 20
-111.0
 11
-73.4332193366
 21
-110.7273671836
  0
LINE
  5
2CF
100
AcDbEntity
  8
SUPERFICI
100
AcDbLine
 62
7
  6
CONTINUOUS
 10
-68.5568241619
 20
-111.0
 11
-73.2643334964
 21
-110.7368093679
  0
LWPOLYLINE
  5
2D0
100
AcDbEntity
  8
0
100
AcDbPolyline
 62
7
  6
CONTINUOUS
 90
5
 70
0
 43
0.3500000006
 10
-71.3853974762
 20
121.4642849121
 10
-71.0282506256
 20
121.678569397
 10
-71.0282506256
 20
122.3214319153
 10
-71.3853974762
 20
122.750000885
 10
-72.2425399475
 20
122.750000885
  0
LWPOLYLINE
  5
2D1
100
AcDbEntity
  8
RACCORDO
100
AcDbPolyline
 62
7
  6
CONTINUOUS
 90
15
 70
0
 10
-73.6714196135
 20
110.6847257146
 10
-73.7289280587
 20
110.6651036828
 10
-73.7851423799
 20
110.642023356
 10
-73.8398442415
 20
110.6155747191
 10
-73.8928424103
 20
110.5858505852
 10
-73.9439469234
 20
110.5529558537
 10
-73.9929695624
 20
110.5170089403
 10
-74.0397260887
 20
110.4781420888
 10
-74.0840429938
 20
110.4364966758
 10
-74.1257551302
 20
110.3922246998
 10
-74.1647061484
 20
110.3454887113
 10
-74.2007498612
 20
110.2964606106
 10
-74.2337509498
 20
110.2453207688
 10
-74.2635854081
 20
110.1922573125
 10
-74.2901407541
 20
110.1374658057
  0
LWPOLYLINE
  5
2D2
100
AcDbEntity
  8
RACCORDO
100
AcDbPolyline
 62
7
  6
CONTINUOUS
 90
17
 70
0
 10
-73.6673041738
 20
110.685982008
 10
-73.7245239614
 20
110.6667455946
 10
-73.7805079731
 20
110.6440787743
 10
-73.8349567841
 20
110.6181067616
 10
-73.8877678792
 20
110.5888825467
 10
-73.938799536
 20
110.5564712796
 10
-73.9878703737
 20
110.5209654839
 10
-74.0347743611
 20
110.4824905695
 10
-74.0793346528
 20
110.4411677722
 10
-74.1213766181
 20
110.397132088
 10
-74.1607269258
 20
110.3505364044
 10
-74.19722199
 20
110.3015449427
 10
-74.2307099071
 20
110.2503305744
 10
-74.2610504966
 20
110.1970737381
 10
-74.2881134938
 20
110.1419652378
 10
-74.3117800433
 20
110.0852045255
 10
-74.3168969903
 20
110.0714838078
  0
LINE
  5
2D3
100
AcDbEntity
  8
RACCORDO
100
AcDbLine
 62
253
  6
CONTINUOUS
 10
-68.5568241619
 20
-108.0
 11
-73.2796548227
 21
-108.0
  0
LINE
  5
2D4
100
AcDbEntity
  8
RACCORDO
100
AcDbLine
 62
253
  6
CONTINUOUS
 10
-77.8568241619
 20
-93.25
 11
-77.6490046194
 21
-93.24999955
  0
LWPOLYLINE
  5
2D5
100
AcDbEntity
  8
0
100
AcDbPolyline
 62
7
  6
CONTINUOUS
 90
10
 70
0
 43
0.3500000006
 10
-75.8853943176
 20
119.7499999695
 10
-75.0282518463
 20
120.6071469727
 10
-74.8139673615
 20
121.4642849121
 10
-74.8139673615
 20
122.3214319153
 10
-75.2425363312
 20
122.750000885
 10
-75.8853943176
 20
122.750000885
 10
-76.3139632874
 20
122.3214319153
 10
-76.3139632874
 20
121.4642849121
 10
-75.8853943176
 20
121.0357159424
 10
-74.9568251953
 20
121.0357159424
  0
LINE
  5
2D6
100
AcDbEntity
  8
RACCORDO
100
AcDbLine
 62
253
  6
CONTINUOUS
 10
-77.6542205347
 20
-70.9999791554
 11
-73.424504951
 21
-71.0000028344
  0
LINE
  5
2D7
100
AcDbEntity
  8
RACCORDO
100
AcDbLine
 62
7
  6
CONTINUOUS
 10
-77.5870029376
 20
95.3458880586
 11
-77.5966737196
 21
95.3321337943
  0
LINE
  5
2D8
100
AcDbEntity
  8
RACCORDO
100
AcDbLine
 62
7
  6
CONTINUOUS
 10
-77.5946714756
 20
95.3349680808
 11
-77.605907337
 21
95.3191524711
  0
LINE
  5
2D9
100
AcDbEntity
  8
RACCORDO
100
AcDbLine
 62
7
  6
CONTINUOUS
 10
-77.6041110702
 20
95.3216663803
 11
-77.6149455316
 21
95.3065856632
  0
LINE
  5
2DA
100
AcDbEntity
  8
RACCORDO
100
AcDbLine
 62
7
  6
CONTINUOUS
 10
-77.61317848
 20
95.3090318672
 11
-77.6236988383
 21
95.2945440295
  0
LINE
  5
2DB
100
AcDbEntity
  8
RACCORDO
100
AcDbLine
 62
7
  6
CONTINUOUS
 10
-77.6219239617
 20
95.2969755263
 11
-77.6319248732
 21
95.2833411316
  0
LINE
  5
2DC
100
AcDbEntity
  8
RACCORDO
100
AcDbLine
 62
7
  6
CONTINUOUS
 10
-77.6304291885
 20
95.2853700094
 11
-77.6404615367
 21
95.2718291368
  0
LINE
  5
2DD
100
AcDbEntity
  8
RACCORDO
100
AcDbLine
 62
7
  6
CONTINUOUS
 10
-77.6393091444
 20
95.2733764889
 11
-77.6533629126
 21
95.2546465478
  0
LINE
  5
2DE
100
AcDbEntity
  8
RACCORDO
100
AcDbLine
 62
7
  6
CONTINUOUS
 10
-77.6470128498
 20
95.2630718748
 11
-77.6527547665
 21
95.2554507596
  0
LINE
  5
2DF
100
AcDbEntity
  8
RACCORDO
100
AcDbLine
 62
7
  6
CONTINUOUS
 10
-77.654063939
 20
95.2537202893
 11
-77.6551038051
 21
95.2523479885
  0
LINE
  5
2E0
100
AcDbEntity
  8
RACCORDO
100
AcDbLine
 62
7
  6
CONTINUOUS
 10
-77.6495029587
 20
95.2597011563
 11
-77.6501223843
 21
95.2588912989
  0
LINE
  5
2E1
100
AcDbEntity
  8
RACCORDO
100
AcDbLine
 62
7
  6
CONTINUOUS
 10
-77.6504429453
 20
-95.2584728615
 11
-77.6496404039
 21
-95.2595219696
  0
LINE
  5
2E2
100
AcDbEntity
  8
RACCORDO
100
AcDbLine
 62
7
  6
CONTINUOUS
 10
-77.6550738672
 20
-95.2523874487
 11
-77.654065242
 21
-95.2537185577
  0
LINE
  5
2E3
100
AcDbEntity
  8
RACCORDO
100
AcDbLine
 62
7
  6
CONTINUOUS
 10
-77.6528750327
 20
-95.2552916746
 11
-77.6449974944
 21
-95.2657586973
  0
LINE
  5
2E4
100
AcDbEntity
  8
RACCORDO
100
AcDbLine
 62
7
  6
CONTINUOUS
 10
-77.6449974944
 20
-95.2657586973
 11
-77.6365348165
 21
-95.2771101925
  0
LINE
  5
2E5
100
AcDbEntity
  8
RACCORDO
100
AcDbLine
 62
7
  6
CONTINUOUS
 10
-77.6365348165
 20
-95.2771101925
 11
-77.6271005707
 21
-95.2898980709
  0
LINE
  5
2E6
100
AcDbEntity
  8
RACCORDO
100
AcDbLine
 62
7
  6
CONTINUOUS
 10
-77.6271005707
 20
-95.2898980709
 11
-77.6167431911
 21
-95.30410242
  0
LINE
  5
2E7
100
AcDbEntity
  8
RACCORDO
100
AcDbLine
 62
7
  6
CONTINUOUS
 10
-77.6167431911
 20
-95.30410242
 11
-77.605907337
 21
-95.3191524711
  0
LINE
  5
2E8
100
AcDbEntity
  8
RACCORDO
100
AcDbLine
 62
7
  6
CONTINUOUS
 10
-77.605907337
 20
-95.3191524711
 11
-77.5946714756
 21
-95.3349680808
  0
LINE
  5
2E9
100
AcDbEntity
  8
RACCORDO
100
AcDbLine
 62
7
  6
CONTINUOUS
 10
-77.5946714756
 20
-95.3349680808
 11
-77.5870029376
 21
-95.3458880586
  0
LINE
  5
2EA
100
AcDbEntity
  8
RACCORDO
100
AcDbLine
 62
7
  6
CONTINUOUS
 10
-77.4360646003
 20
95.5851222554
 11
-77.4438776011
 21
95.5714230247
  0
LINE
  5
2EB
100
AcDbEntity
  8
RACCORDO
100
AcDbLine
 62
7
  6
CONTINUOUS
 10
-77.4438776011
 20
95.5714230247
 11
-77.4517075935
 21
95.5578596068
  0
LINE
  5
2EC
100
AcDbEntity
  8
RACCORDO
100
AcDbLine
 62
7
  6
CONTINUOUS
 10
-77.4517075935
 20
95.5578596068
 11
-77.4595523276
 21
95.5444324566
  0
LINE
  5
2ED
100
AcDbEntity
  8
RACCORDO
100
AcDbLine
 62
7
  6
CONTINUOUS
 10
-77.4595523276
 20
95.5444324566
 11
-77.468281783
 21
95.5296762724
  0
LINE
  5
2EE
100
AcDbEntity
  8
RACCORDO
100
AcDbLine
 62
7
  6
CONTINUOUS
 10
-77.4674097368
 20
95.5311416957
 11
-77.4762119441
 21
95.5164357362
  0
LINE
  5
2EF
100
AcDbEntity
  8
RACCORDO
100
AcDbLine
 62
7
  6
CONTINUOUS
 10
-77.4752775714
 20
95.5179877407
 11
-77.4841502181
 21
95.5033344577
  0
LINE
  5
2F0
100
AcDbEntity
  8
RACCORDO
100
AcDbLine
 62
7
  6
CONTINUOUS
 10
-77.483153583
 20
95.5049709823
 11
-77.492094279
 21
95.4903728561
  0
LINE
  5
2F1
100
AcDbEntity
  8
RACCORDO
100
AcDbLine
 62
7
  6
CONTINUOUS
 10
-77.4910357139
 20
95.4920914797
 11
-77.5000418039
 21
95.4775513223
  0
LINE
  5
2F2
100
AcDbEntity
  8
RACCORDO
100
AcDbLine
 62
7
  6
CONTINUOUS
 10
-77.4989217216
 20
95.4793495816
 11
-77.507990676
 21
95.4648698984
  0
LINE
  5
2F3
100
AcDbEntity
  8
RACCORDO
100
AcDbLine
 62
7
  6
CONTINUOUS
 10
-77.5068093675
 20
95.4667456108
 11
-77.5159385798
 21
95.4523289318
  0
LINE
  5
2F4
100
AcDbEntity
  8
RACCORDO
100
AcDbLine
 62
7
  6
CONTINUOUS
 10
-77.5146966075
 20
95.4542795659
 11
-77.5238832038
 21
95.4399287438
  0
LINE
  5
2F5
100
AcDbEntity
  8
RACCORDO
100
AcDbLine
 62
7
  6
CONTINUOUS
 10
-77.5225812122
 20
95.4419517291
 11
-77.5318224443
 21
95.4276693185
  0
LINE
  5
2F6
100
AcDbEntity
  8
RACCORDO
100
AcDbLine
 62
7
  6
CONTINUOUS
 10
-77.5304609545
 20
95.4297623623
 11
-77.5397539972
 21
95.4155509403
  0
LINE
  5
2F7
100
AcDbEntity
  8
RACCORDO
100
AcDbLine
 62
7
  6
CONTINUOUS
 10
-77.5383338021
 20
95.4177114154
 11
-77.5476752175
 21
95.4035743902
  0
LINE
  5
2F8
100
AcDbEntity
  8
RACCORDO
100
AcDbLine
 62
7
  6
CONTINUOUS
 10
-77.5461974715
 20
95.405799215
 11
-77.555584942
 21
95.3917382069
  0
LINE
  5
2F9
100
AcDbEntity
  8
RACCORDO
100
AcDbLine
 62
7
  6
CONTINUOUS
 10
-77.5540497483
 20
95.3940259661
 11
-77.5634861578
 21
95.3800348674
  0
LINE
  5
2FA
100
AcDbEntity
  8
RACCORDO
100
AcDbLine
 62
7
  6
CONTINUOUS
 10
-77.5618896568
 20
95.3823900325
 11
-77.5713709323
 21
95.3684730765
  0
LINE
  5
2FB
100
AcDbEntity
  8
RACCORDO
100
AcDbLine
 62
7
  6
CONTINUOUS
 10
-77.5697243348
 20
95.3708779764
 11
-77.5792234133
 21
95.3570726323
  0
LINE
  5
2FC
100
AcDbEntity
  8
RACCORDO
100
AcDbLine
 62
7
  6
CONTINUOUS
 10
-77.5775216282
 20
95.3595337671
 11
-77.5870029376
 21
95.3458880586
  0
LINE
  5
2FD
100
AcDbEntity
  8
RACCORDO
100
AcDbLine
 62
7
  6
CONTINUOUS
 10
-77.5852597333
 20
95.3483848291
 11
-77.5890924282
 21
95.3429023591
  0
LINE
  5
2FE
100
AcDbEntity
  8
RACCORDO
100
AcDbLine
 62
7
  6
CONTINUOUS
 10
-77.5870029376
 20
-95.3458880586
 11
-77.5792234133
 21
-95.3570726323
  0
LINE
  5
2FF
100
AcDbEntity
  8
RACCORDO
100
AcDbLine
 62
7
  6
CONTINUOUS
 10
-77.5792234133
 20
-95.3570726323
 11
-77.5713709323
 21
-95.3684730765
  0
LINE
  5
300
100
AcDbEntity
  8
RACCORDO
100
AcDbLine
 62
7
  6
CONTINUOUS
 10
-77.5713709323
 20
-95.3684730765
 11
-77.5634861578
 21
-95.3800348674
  0
LINE
  5
301
100
AcDbEntity
  8
RACCORDO
100
AcDbLine
 62
7
  6
CONTINUOUS
 10
-77.5634861578
 20
-95.3800348674
 11
-77.555584942
 21
-95.3917382069
  0
LINE
  5
302
100
AcDbEntity
  8
RACCORDO
100
AcDbLine
 62
7
  6
CONTINUOUS
 10
-77.555584942
 20
-95.3917382069
 11
-77.5476752175
 21
-95.4035743902
  0
LINE
  5
303
100
AcDbEntity
  8
RACCORDO
100
AcDbLine
 62
7
  6
CONTINUOUS
 10
-77.5476752175
 20
-95.4035743902
 11
-77.5397539972
 21
-95.4155509403
  0
LINE
  5
304
100
AcDbEntity
  8
RACCORDO
100
AcDbLine
 62
7
  6
CONTINUOUS
 10
-77.5397539972
 20
-95.4155509403
 11
-77.5318224443
 21
-95.4276693185
  0
LINE
  5
305
100
AcDbEntity
  8
RACCORDO
100
AcDbLine
 62
7
  6
CONTINUOUS
 10
-77.5318224443
 20
-95.4276693185
 11
-77.5238832038
 21
-95.4399287438
  0
LINE
  5
306
100
AcDbEntity
  8
RACCORDO
100
AcDbLine
 62
7
  6
CONTINUOUS
 10
-77.5238832038
 20
-95.4399287438
 11
-77.5159385798
 21
-95.4523289318
  0
LINE
  5
307
100
AcDbEntity
  8
RACCORDO
100
AcDbLine
 62
7
  6
CONTINUOUS
 10
-77.5159385798
 20
-95.4523289318
 11
-77.507990676
 21
-95.4648698984
  0
LINE
  5
308
100
AcDbEntity
  8
RACCORDO
100
AcDbLine
 62
7
  6
CONTINUOUS
 10
-77.507990676
 20
-95.4648698984
 11
-77.5000418039
 21
-95.4775513223
  0
LINE
  5
309
100
AcDbEntity
  8
RACCORDO
100
AcDbLine
 62
7
  6
CONTINUOUS
 10
-77.5000418039
 20
-95.4775513223
 11
-77.492094279
 21
-95.4903728561
  0
LINE
  5
30A
100
AcDbEntity
  8
RACCORDO
100
AcDbLine
 62
7
  6
CONTINUOUS
 10
-77.492094279
 20
-95.4903728561
 11
-77.4841502181
 21
-95.5033344577
  0
LINE
  5
30B
100
AcDbEntity
  8
RACCORDO
100
AcDbLine
 62
7
  6
CONTINUOUS
 10
-77.4841502181
 20
-95.5033344577
 11
-77.4762119441
 21
-95.5164357362
  0
LINE
  5
30C
100
AcDbEntity
  8
RACCORDO
100
AcDbLine
 62
7
  6
CONTINUOUS
 10
-77.4762119441
 20
-95.5164357362
 11
-77.468281783
 21
-95.5296762724
  0
LINE
  5
30D
100
AcDbEntity
  8
RACCORDO
100
AcDbLine
 62
7
  6
CONTINUOUS
 10
-77.468281783
 20
-95.5296762724
 11
-77.4603618628
 21
-95.5430559586
  0
LINE
  5
30E
100
AcDbEntity
  8
RACCORDO
100
AcDbLine
 62
7
  6
CONTINUOUS
 10
-77.4603618628
 20
-95.5430559586
 11
-77.4524545132
 21
-95.5565743306
  0
LINE
  5
30F
100
AcDbEntity
  8
RACCORDO
100
AcDbLine
 62
7
  6
CONTINUOUS
 10
-77.4524545132
 20
-95.5565743306
 11
-77.4445620652
 21
-95.570230895
  0
LINE
  5
310
100
AcDbEntity
  8
RACCORDO
100
AcDbLine
 62
7
  6
CONTINUOUS
 10
-77.4445620652
 20
-95.570230895
 11
-77.4366866498
 21
-95.5840254818
  0
LINE
  5
311
100
AcDbEntity
  8
RACCORDO
100
AcDbLine
 62
7
  6
CONTINUOUS
 10
-77.314877397
 20
95.8230034207
 11
-77.3221676692
 21
95.8070897989
  0
LINE
  5
312
100
AcDbEntity
  8
RACCORDO
100
AcDbLine
 62
7
  6
CONTINUOUS
 10
-77.3221676692
 20
95.8070897989
 11
-77.3295114906
 21
95.7913025662
  0
LINE
  5
313
100
AcDbEntity
  8
RACCORDO
100
AcDbLine
 62
7
  6
CONTINUOUS
 10
-77.3295114906
 20
95.7913025662
 11
-77.336906581
 21
95.7756427861
  0
LINE
  5
314
100
AcDbEntity
  8
RACCORDO
100
AcDbLine
 62
7
  6
CONTINUOUS
 10
-77.336906581
 20
95.7756427861
 11
-77.3443508393
 21
95.760111092
  0
LINE
  5
315
100
AcDbEntity
  8
RACCORDO
100
AcDbLine
 62
7
  6
CONTINUOUS
 10
-77.3443508393
 20
95.760111092
 11
-77.3518841345
 21
95.7446222898
  0
LINE
  5
316
100
AcDbEntity
  8
RACCORDO
100
AcDbLine
 62
7
  6
CONTINUOUS
 10
-77.3518841345
 20
95.7446222898
 11
-77.3593776335
 21
95.7294359783
  0
LINE
  5
317
100
AcDbEntity
  8
RACCORDO
100
AcDbLine
 62
7
  6
CONTINUOUS
 10
-77.3593776335
 20
95.7294359783
 11
-77.3669557228
 21
95.7142940989
  0
LINE
  5
318
100
AcDbEntity
  8
RACCORDO
100
AcDbLine
 62
7
  6
CONTINUOUS
 10
-77.366881682
 20
95.7144408992
 11
-77.374573894
 21
95.6992837882
  0
LINE
  5
319
100
AcDbEntity
  8
RACCORDO
100
AcDbLine
 62
7
  6
CONTINUOUS
 10
-77.3706564739
 20
95.7069762172
 11
-77.3783972639
 21
95.6918282797
  0
LINE
  5
31A
100
AcDbEntity
  8
RACCORDO
100
AcDbLine
 62
7
  6
CONTINUOUS
 10
-77.374440786
 20
95.6995441635
 11
-77.3820371178
 21
95.6847777951
  0
LINE
  5
31B
100
AcDbEntity
  8
RACCORDO
100
AcDbLine
 62
7
  6
CONTINUOUS
 10
-77.3820371178
 20
95.6847777951
 11
-77.3896683709
 21
95.6701426546
  0
LINE
  5
31C
100
AcDbEntity
  8
RACCORDO
100
AcDbLine
 62
7
  6
CONTINUOUS
 10
-77.3896683709
 20
95.6701426546
 11
-77.3973324332
 21
95.6556391908
  0
LINE
  5
31D
100
AcDbEntity
  8
RACCORDO
100
AcDbLine
 62
7
  6
CONTINUOUS
 10
-77.3973324332
 20
95.6556391908
 11
-77.4050269834
 21
95.6412682154
  0
LINE
  5
31E
100
AcDbEntity
  8
RACCORDO
100
AcDbLine
 62
7
  6
CONTINUOUS
 10
-77.4050269834
 20
95.6412682154
 11
-77.4127496902
 21
95.6270305146
  0
LINE
  5
31F
100
AcDbEntity
  8
RACCORDO
100
AcDbLine
 62
7
  6
CONTINUOUS
 10
-77.4127496902
 20
95.6270305146
 11
-77.420498425
 21
95.6129264663
  0
LINE
  5
320
100
AcDbEntity
  8
RACCORDO
100
AcDbLine
 62
7
  6
CONTINUOUS
 10
-77.420498425
 20
95.6129264663
 11
-77.4282708412
 21
95.5989568162
  0
LINE
  5
321
100
AcDbEntity
  8
RACCORDO
100
AcDbLine
 62
7
  6
CONTINUOUS
 10
-77.4282708412
 20
95.5989568162
 11
-77.4360646003
 21
95.5851222554
  0
LINE
  5
322
100
AcDbEntity
  8
RACCORDO
100
AcDbLine
 62
253
  6
CONTINUOUS
 10
-77.8568241619
 20
-48.75
 11
-77.0535936117
 21
-48.75
  0
LINE
  5
323
100
AcDbEntity
  8
RACCORDO
100
AcDbLine
 62
7
  6
CONTINUOUS
 10
-77.4366866498
 20
-95.5840254818
 11
-77.4288305783
 21
-95.5979575868
  0
LINE
  5
324
100
AcDbEntity
  8
RACCORDO
100
AcDbLine
 62
7
  6
CONTINUOUS
 10
-77.4288305783
 20
-95.5979575868
 11
-77.4209962145
 21
-95.6120265816
  0
LINE
  5
325
100
AcDbEntity
  8
RACCORDO
100
AcDbLine
 62
7
  6
CONTINUOUS
 10
-77.4209962145
 20
-95.6120265816
 11
-77.4131857278
 21
-95.6262321572
  0
LINE
  5
326
100
AcDbEntity
  8
RACCORDO
100
AcDbLine
 62
7
  6
CONTINUOUS
 10
-77.4131857278
 20
-95.6262321572
 11
-77.4054015207
 21
-95.6405735536
  0
LINE
  5
327
100
AcDbEntity
  8
RACCORDO
100
AcDbLine
 62
7
  6
CONTINUOUS
 10
-77.4054015207
 20
-95.6405735536
 11
-77.3976459817
 21
-95.6550499932
  0
LINE
  5
328
100
AcDbEntity
  8
RACCORDO
100
AcDbLine
 62
7
  6
CONTINUOUS
 10
-77.3976459817
 20
-95.6550499932
 11
-77.3899212824
 21
-95.6696610678
  0
LINE
  5
329
100
AcDbEntity
  8
RACCORDO
100
AcDbLine
 62
7
  6
CONTINUOUS
 10
-77.3899212824
 20
-95.6696610678
 11
-77.3822297981
 21
-95.6844059506
  0
LINE
  5
32A
100
AcDbEntity
  8
RACCORDO
100
AcDbLine
 62
7
  6
CONTINUOUS
 10
-77.3822297981
 20
-95.6844059506
 11
-77.374573894
 21
-95.6992837882
  0
LINE
  5
32B
100
AcDbEntity
  8
RACCORDO
100
AcDbLine
 62
7
  6
CONTINUOUS
 10
-77.374573894
 20
-95.6992837882
 11
-77.3669557228
 21
-95.7142940989
  0
LINE
  5
32C
100
AcDbEntity
  8
RACCORDO
100
AcDbLine
 62
7
  6
CONTINUOUS
 10
-77.3669557228
 20
-95.7142940989
 11
-77.3593776335
 21
-95.7294359783
  0
LINE
  5
32D
100
AcDbEntity
  8
RACCORDO
100
AcDbLine
 62
7
  6
CONTINUOUS
 10
-77.3593776335
 20
-95.7294359783
 11
-77.3518419625
 21
-95.744708495
  0
LINE
  5
32E
100
AcDbEntity
  8
RACCORDO
100
AcDbLine
 62
7
  6
CONTINUOUS
 10
-77.3518419625
 20
-95.744708495
 11
-77.3443508393
 21
-95.760111092
  0
LINE
  5
32F
100
AcDbEntity
  8
RACCORDO
100
AcDbLine
 62
7
  6
CONTINUOUS
 10
-77.3443508393
 20
-95.760111092
 11
-77.336906581
 21
-95.7756427861
  0
LINE
  5
330
100
AcDbEntity
  8
RACCORDO
100
AcDbLine
 62
7
  6
CONTINUOUS
 10
-77.336906581
 20
-95.7756427861
 11
-77.3295114906
 21
-95.7913025662
  0
LINE
  5
331
100
AcDbEntity
  8
RACCORDO
100
AcDbLine
 62
7
  6
CONTINUOUS
 10
-77.3295114906
 20
-95.7913025662
 11
-77.3221676692
 21
-95.8070897989
  0
LINE
  5
332
100
AcDbEntity
  8
RACCORDO
100
AcDbLine
 62
7
  6
CONTINUOUS
 10
-77.3221676692
 20
-95.8070897989
 11
-77.314877397
 21
-95.8230034207
  0
LWPOLYLINE
  5
333
100
AcDbEntity
  8
0
100
AcDbPolyline
 62
7
  6
CONTINUOUS
 90
3
 70
0
 43
0.3500000006
 10
-73.2425402527
 20
120.0357156372
 10
-73.3139669037
 20
119.8214311523
 10
-73.4568247375
 20
119.5357154846
  0
LWPOLYLINE
  5
334
100
AcDbEntity
  8
SUPERFICI
100
AcDbPolyline
 62
7
  6
CONTINUOUS
 90
18
 70
0
 10
-74.6207626241
 20
109.2077442423
 10
-74.6921007206
 20
108.9956293325
 10
-74.7619885734
 20
108.7841243605
 10
-74.8304769107
 20
108.5731675839
 10
-74.8975758685
 20
108.3628171377
 10
-74.9633089991
 20
108.1530882455
 10
-75.0277434572
 20
107.9438505516
 10
-75.0908865751
 20
107.7351601936
 10
-75.1527599564
 20
107.5270255431
 10
-75.2134467578
 20
107.3192396251
 10
-75.2729527628
 20
107.1118494862
 10
-75.331294629
 20
106.9048638511
 10
-75.3885648487
 20
106.6980129293
 10
-75.4447789654
 20
106.4912901354
 10
-75.4999357215
 20
106.2847496264
 10
-75.5540959562
 20
106.078208366
 10
-75.6073017945
 20
105.8715408264
 10
-75.6595191623
 20
105.6649144208
  0
LWPOLYLINE
  5
335
100
AcDbEntity
  8
SUPERFICI
100
AcDbPolyline
 62
7
  6
CONTINUOUS
 90
5
 70
0
 10
-74.316896962
 20
110.0714840231
 10
-74.3978285516
 20
109.8474405692
 10
-74.4736522737
 20
109.6336714888
 10
-74.5479509696
 20
109.4204435243
 10
-74.6207626748
 20
109.2077440928
  0
LINE
  5
336
100
AcDbEntity
  8
RACCORDO
100
AcDbLine
 62
7
  6
CONTINUOUS
 10
-77.2196438344
 20
96.0584806443
 11
-77.2268720617
 21
96.0384002329
  0
LINE
  5
337
100
AcDbEntity
  8
RACCORDO
100
AcDbLine
 62
7
  6
CONTINUOUS
 10
-77.2259598681
 20
96.0409100362
 11
-77.2332335344
 21
96.0210890042
  0
LINE
  5
338
100
AcDbEntity
  8
RACCORDO
100
AcDbLine
 62
7
  6
CONTINUOUS
 10
-77.2323588332
 20
96.0234501569
 11
-77.2396744483
 21
96.0038882816
  0
LINE
  5
339
100
AcDbEntity
  8
RACCORDO
100
AcDbLine
 62
7
  6
CONTINUOUS
 10
-77.2388388457
 20
96.0061020273
 11
-77.2461929409
 21
95.9867990365
  0
LINE
  5
33A
100
AcDbEntity
  8
RACCORDO
100
AcDbLine
 62
7
  6
CONTINUOUS
 10
-77.2453978486
 20
95.9888670607
 11
-77.252786978
 21
95.9698226241
  0
LINE
  5
33B
100
AcDbEntity
  8
RACCORDO
100
AcDbLine
 62
7
  6
CONTINUOUS
 10
-77.2520337615
 20
95.9717466439
 11
-77.2594545036
 21
95.9529603735
  0
LINE
  5
33C
100
AcDbEntity
  8
RACCORDO
100
AcDbLine
 62
7
  6
CONTINUOUS
 10
-77.2587446468
 20
95.9547417215
 11
-77.266193605
 21
95.9362131812
  0
LINE
  5
33D
100
AcDbEntity
  8
RACCORDO
100
AcDbLine
 62
7
  6
CONTINUOUS
 10
-77.2655283876
 20
95.937853628
 11
-77.2723828457
 21
95.9210836699
  0
LINE
  5
33E
100
AcDbEntity
  8
RACCORDO
100
AcDbLine
 62
7
  6
CONTINUOUS
 10
-77.2723828457
 20
95.9210836699
 11
-77.279306035
 21
95.904432714
  0
LINE
  5
33F
100
AcDbEntity
  8
RACCORDO
100
AcDbLine
 62
7
  6
CONTINUOUS
 10
-77.279306035
 20
95.904432714
 11
-77.2862957842
 21
95.887902014
  0
LINE
  5
340
100
AcDbEntity
  8
RACCORDO
100
AcDbLine
 62
7
  6
CONTINUOUS
 10
-77.2862957842
 20
95.887902014
 11
-77.2933499026
 21
95.8714927952
  0
LINE
  5
341
100
AcDbEntity
  8
RACCORDO
100
AcDbLine
 62
7
  6
CONTINUOUS
 10
-77.2933499026
 20
95.8714927952
 11
-77.3004663607
 21
95.8552058464
  0
LINE
  5
342
100
AcDbEntity
  8
RACCORDO
100
AcDbLine
 62
7
  6
CONTINUOUS
 10
-77.3004663607
 20
95.8552058464
 11
-77.3076429382
 21
95.8390423402
  0
LINE
  5
343
100
AcDbEntity
  8
RACCORDO
100
AcDbLine
 62
7
  6
CONTINUOUS
 10
-77.3076429382
 20
95.8390423402
 11
-77.314877397
 21
95.8230034207
  0
LINE
  5
344
100
AcDbEntity
  8
RACCORDO
100
AcDbLine
 62
7
  6
CONTINUOUS
 10
-77.314877397
 20
-95.8230034207
 11
-77.3076429382
 21
-95.8390423402
  0
LINE
  5
345
100
AcDbEntity
  8
RACCORDO
100
AcDbLine
 62
7
  6
CONTINUOUS
 10
-77.3076429382
 20
-95.8390423402
 11
-77.3004663607
 21
-95.8552058464
  0
LINE
  5
346
100
AcDbEntity
  8
RACCORDO
100
AcDbLine
 62
7
  6
CONTINUOUS
 10
-77.3004663607
 20
-95.8552058464
 11
-77.2933499026
 21
-95.8714927952
  0
LINE
  5
347
100
AcDbEntity
  8
RACCORDO
100
AcDbLine
 62
7
  6
CONTINUOUS
 10
-77.2933499026
 20
-95.8714927952
 11
-77.2862957842
 21
-95.887902014
  0
LINE
  5
348
100
AcDbEntity
  8
RACCORDO
100
AcDbLine
 62
7
  6
CONTINUOUS
 10
-77.2862957842
 20
-95.887902014
 11
-77.279306035
 21
-95.904432714
  0
LINE
  5
349
100
AcDbEntity
  8
RACCORDO
100
AcDbLine
 62
7
  6
CONTINUOUS
 10
-77.279306035
 20
-95.904432714
 11
-77.2723828457
 21
-95.9210836699
  0
LINE
  5
34A
100
AcDbEntity
  8
RACCORDO
100
AcDbLine
 62
7
  6
CONTINUOUS
 10
-77.2723828457
 20
-95.9210836699
 11
-77.2655283876
 21
-95.937853628
  0
LINE
  5
34B
100
AcDbEntity
  8
RACCORDO
100
AcDbLine
 62
7
  6
CONTINUOUS
 10
-77.2655283876
 20
-95.937853628
 11
-77.2587446468
 21
-95.9547417215
  0
LINE
  5
34C
100
AcDbEntity
  8
RACCORDO
100
AcDbLine
 62
7
  6
CONTINUOUS
 10
-77.2587446468
 20
-95.9547417215
 11
-77.2520337615
 21
-95.9717466439
  0
LINE
  5
34D
100
AcDbEntity
  8
RACCORDO
100
AcDbLine
 62
7
  6
CONTINUOUS
 10
-77.2520337615
 20
-95.9717466439
 11
-77.2453978486
 21
-95.9888670607
  0
LINE
  5
34E
100
AcDbEntity
  8
RACCORDO
100
AcDbLine
 62
7
  6
CONTINUOUS
 10
-77.2453978486
 20
-95.9888670607
 11
-77.2388388457
 21
-96.0061020273
  0
LINE
  5
34F
100
AcDbEntity
  8
RACCORDO
100
AcDbLine
 62
7
  6
CONTINUOUS
 10
-77.2388388457
 20
-96.0061020273
 11
-77.2323588332
 21
-96.0234501569
  0
LWPOLYLINE
  5
350
100
AcDbEntity
  8
RACCORDO
100
AcDbPolyline
 62
7
  6
CONTINUOUS
 90
21
 70
0
 10
-74.3168969674
 20
-110.0714838393
 10
-74.313316556
 20
-110.0811484155
 10
-74.2901407541
 20
-110.1374658058
 10
-74.2635854081
 20
-110.1922573126
 10
-74.2337509497
 20
-110.2453207689
 10
-74.2007498612
 20
-110.2964606107
 10
-74.1647061484
 20
-110.3454887113
 10
-74.1257551302
 20
-110.3922246998
 10
-74.0840429937
 20
-110.4364966758
 10
-74.0397260887
 20
-110.4781420888
 10
-73.9929695624
 20
-110.5170089403
 10
-73.9439469233
 20
-110.5529558537
 10
-73.8928424102
 20
-110.5858505852
 10
-73.8398442415
 20
-110.6155747191
 10
-73.7851423798
 20
-110.6420233561
 10
-73.7289280586
 20
-110.6651036829
 10
-73.6714196134
 20
-110.6847257146
 10
-73.6128568393
 20
-110.7008111268
 10
-73.5534664731
 20
-110.7133045922
 10
-73.4934595474
 20
-110.7221685623
 10
-73.4332216067
 20
-110.7273670566
  0
LINE
  5
351
100
AcDbEntity
  8
RACCORDO
100
AcDbLine
 62
7
  6
CONTINUOUS
 10
-77.2323588332
 20
-96.0234501569
 11
-77.2259598681
 21
-96.0409100362
  0
LINE
  5
352
100
AcDbEntity
  8
SUPERFICI
100
AcDbLine
 62
7
  6
CONTINUOUS
 10
-74.3753233804
 20
-109.9101631399
 11
-74.3168969702
 21
-110.0714840006
  0
LINE
  5
353
100
AcDbEntity
  8
RACCORDO
100
AcDbLine
 62
7
  6
CONTINUOUS
 10
-77.2259598681
 20
-96.0409100362
 11
-77.2196438344
 21
-96.0584806443
  0
LWPOLYLINE
  5
354
100
AcDbEntity
  8
SUPERFICI
100
AcDbPolyline
 62
7
  6
CONTINUOUS
 90
4
 70
0
 10
-74.5782838108
 20
-109.3322918477
 10
-74.5118620591
 20
-109.524487155
 10
-74.4442171696
 20
-109.7171103038
 10
-74.3753233804
 20
-109.9101631399
  0
LINE
  5
355
100
AcDbEntity
  8
SUPERFICI
100
AcDbLine
 62
7
  6
CONTINUOUS
 10
-74.6434922747
 20
-109.1405665633
 11
-74.5782837743
 21
-109.332291954
  0
LINE
  5
356
100
AcDbEntity
  8
RACCORDO
100
AcDbLine
 62
7
  6
CONTINUOUS
 10
-77.1472089137
 20
96.2915889685
 11
-77.1522630381
 21
96.2728773665
  0
LINE
  5
357
100
AcDbEntity
  8
RACCORDO
100
AcDbLine
 62
7
  6
CONTINUOUS
 10
-77.151017513
 20
96.2774446875
 11
-77.156190872
 21
96.2586578107
  0
LINE
  5
358
100
AcDbEntity
  8
RACCORDO
100
AcDbLine
 62
7
  6
CONTINUOUS
 10
-77.154829508
 20
96.2635552036
 11
-77.1600400848
 21
96.2449797108
  0
LINE
  5
359
100
AcDbEntity
  8
RACCORDO
100
AcDbLine
 62
7
  6
CONTINUOUS
 10
-77.1588170324
 20
96.249299215
 11
-77.1641473351
 21
96.2306524277
  0
LINE
  5
35A
100
AcDbEntity
  8
RACCORDO
100
AcDbLine
 62
7
  6
CONTINUOUS
 10
-77.1626838561
 20
96.235726494
 11
-77.1680471562
 21
96.2172906532
  0
LINE
  5
35B
100
AcDbEntity
  8
RACCORDO
100
AcDbLine
 62
7
  6
CONTINUOUS
 10
-77.1668510076
 20
96.2213647768
 11
-77.1723343928
 21
96.2028616574
  0
LINE
  5
35C
100
AcDbEntity
  8
RACCORDO
100
AcDbLine
 62
7
  6
CONTINUOUS
 10
-77.1707663424
 20
96.2081081343
 11
-77.1762785495
 21
96.1898154101
  0
LINE
  5
35D
100
AcDbEntity
  8
RACCORDO
100
AcDbLine
 62
7
  6
CONTINUOUS
 10
-77.1751136245
 20
96.1936467202
 11
-77.1807461427
 21
96.1752907656
  0
LINE
  5
35E
100
AcDbEntity
  8
RACCORDO
100
AcDbLine
 62
7
  6
CONTINUOUS
 10
-77.1790712211
 20
96.1807053018
 11
-77.1847284343
 21
96.1625590791
  0
LINE
  5
35F
100
AcDbEntity
  8
RACCORDO
100
AcDbLine
 62
7
  6
CONTINUOUS
 10
-77.1835989372
 20
96.1661502699
 11
-77.189376553
 21
96.1479448944
  0
LINE
  5
360
100
AcDbEntity
  8
RACCORDO
100
AcDbLine
 62
7
  6
CONTINUOUS
 10
-77.18759262
 20
96.1535230537
 11
-77.1933908562
 21
96.1355266368
  0
LINE
  5
361
100
AcDbEntity
  8
RACCORDO
100
AcDbLine
 62
7
  6
CONTINUOUS
 10
-77.1923008717
 20
96.1388805265
 11
-77.1992809008
 21
96.1176317474
  0
LINE
  5
362
100
AcDbEntity
  8
RACCORDO
100
AcDbLine
 62
7
  6
CONTINUOUS
 10
-77.1982194668
 20
96.1208290607
 11
-77.2052608812
 21
96.0998399319
  0
LINE
  5
363
100
AcDbEntity
  8
RACCORDO
100
AcDbLine
 62
7
  6
CONTINUOUS
 10
-77.2042296731
 20
96.1028821507
 11
-77.2113288985
 21
96.0821527111
  0
LINE
  5
364
100
AcDbEntity
  8
RACCORDO
100
AcDbLine
 62
7
  6
CONTINUOUS
 10
-77.2103296957
 20
96.0850409314
 11
-77.2174831745
 21
96.0645711674
  0
LINE
  5
365
100
AcDbEntity
  8
RACCORDO
100
AcDbLine
 62
7
  6
CONTINUOUS
 10
-77.216517576
 20
96.0673069355
 11
-77.2205920264
 21
96.0558205624
  0
LINE
  5
366
100
AcDbEntity
  8
RACCORDO
100
AcDbLine
 62
7
  6
CONTINUOUS
 10
-77.2196438344
 20
-96.0584806443
 11
-77.2134127495
 21
-96.0761605148
  0
LINE
  5
367
100
AcDbEntity
  8
RACCORDO
100
AcDbLine
 62
7
  6
CONTINUOUS
 10
-77.2134127495
 20
-96.0761605148
 11
-77.2072686062
 21
-96.093948154
  0
LINE
  5
368
100
AcDbEntity
  8
RACCORDO
100
AcDbLine
 62
7
  6
CONTINUOUS
 10
-77.2072686062
 20
-96.093948154
 11
-77.2012132304
 21
-96.1118424647
  0
LINE
  5
369
100
AcDbEntity
  8
SUPERFICI
100
AcDbLine
 62
7
  6
CONTINUOUS
 10
-74.7075050875
 20
-108.9493298688
 11
-74.6434923156
 21
-109.140566442
  0
LINE
  5
36A
100
AcDbEntity
  8
RACCORDO
100
AcDbLine
 62
7
  6
CONTINUOUS
 10
-77.2012132304
 20
-96.1118424647
 11
-77.1952485716
 21
-96.129841902
  0
LINE
  5
36B
100
AcDbEntity
  8
SUPERFICI
100
AcDbLine
 62
7
  6
CONTINUOUS
 10
-74.7703579365
 20
-108.7585436535
 11
-74.7075050422
 21
-108.9493300052
  0
LINE
  5
36C
100
AcDbEntity
  8
RACCORDO
100
AcDbLine
 62
7
  6
CONTINUOUS
 10
-77.1952485716
 20
-96.129841902
 11
-77.189376553
 21
-96.1479448944
  0
LINE
  5
36D
100
AcDbEntity
  8
RACCORDO
100
AcDbLine
 62
7
  6
CONTINUOUS
 10
-77.189376553
 20
-96.1479448944
 11
-77.1835989372
 21
-96.1661502699
  0
LWPOLYLINE
  5
36E
100
AcDbEntity
  8
SUPERFICI
100
AcDbPolyline
 62
7
  6
CONTINUOUS
 90
4
 70
0
 10
-74.9521058228
 20
-108.1890953204
 10
-74.8926279519
 20
-108.3784556878
 10
-74.832060161
 20
-108.5682466256
 10
-74.770357986
 20
-108.758543502
  0
LINE
  5
36F
100
AcDbEntity
  8
RACCORDO
100
AcDbLine
 62
7
  6
CONTINUOUS
 10
-77.1835989372
 20
-96.1661502699
 11
-77.1779176009
 21
-96.1844564068
  0
LWPOLYLINE
  5
370
100
AcDbEntity
  8
SUPERFICI
100
AcDbPolyline
 62
7
  6
CONTINUOUS
 90
3
 70
0
 10
-75.0678272274
 20
-107.8117995314
 10
-75.0105000895
 20
-108.0002071668
 10
-74.9521058536
 20
-108.1890952223
  0
LINE
  5
371
100
AcDbEntity
  8
RACCORDO
100
AcDbLine
 62
7
  6
CONTINUOUS
 10
-77.1779176009
 20
-96.1844564068
 11
-77.1723343929
 21
-96.2028616574
  0
LINE
  5
372
100
AcDbEntity
  8
SUPERFICI
100
AcDbLine
 62
7
  6
CONTINUOUS
 10
-75.1794561804
 20
-107.4360732439
 11
-75.0678272274
 21
-107.8117995314
  0
LINE
  5
373
100
AcDbEntity
  8
RACCORDO
100
AcDbLine
 62
7
  6
CONTINUOUS
 10
-77.1723343929
 20
-96.2028616574
 11
-77.1668510076
 21
-96.2213647768
  0
LINE
  5
374
100
AcDbEntity
  8
RACCORDO
100
AcDbLine
 62
7
  6
CONTINUOUS
 10
-77.1668510076
 20
-96.2213647768
 11
-77.1614692442
 21
-96.2399640685
  0
LINE
  5
375
100
AcDbEntity
  8
SUPERFICI
100
AcDbLine
 62
7
  6
CONTINUOUS
 10
-75.2871714234
 20
-107.0617435108
 11
-75.1794561804
 21
-107.4360732439
  0
LINE
  5
376
100
AcDbEntity
  8
RACCORDO
100
AcDbLine
 62
7
  6
CONTINUOUS
 10
-77.1614692442
 20
-96.2399640685
 11
-77.156190872
 21
-96.2586578106
  0
LINE
  5
377
100
AcDbEntity
  8
SUPERFICI
100
AcDbLine
 62
7
  6
CONTINUOUS
 10
-75.3912040336
 20
-106.6883904785
 11
-75.2871714234
 21
-107.0617435108
  0
LWPOLYLINE
  5
378
100
AcDbEntity
  8
RACCORDO
100
AcDbPolyline
 62
7
  6
CONTINUOUS
 90
3
 70
0
 10
-77.156190872
 20
-96.2586578106
 10
-77.151017513
 20
-96.2774446875
 10
-77.1484707728
 20
-96.2868724187
  0
LINE
  5
379
100
AcDbEntity
  8
SUPERFICI
100
AcDbLine
 62
7
  6
CONTINUOUS
 10
-75.4918137305
 20
-106.3154000907
 11
-75.3912040336
 21
-106.6883904785
  0
LINE
  5
37A
100
AcDbEntity
  8
SUPERFICI
100
AcDbLine
 62
7
  6
CONTINUOUS
 10
-75.589118594
 20
-105.942600329
 11
-75.4918138227
 21
-106.3153997431
  0
LINE
  5
37B
100
AcDbEntity
  8
SUPERFICI
100
AcDbLine
 62
7
  6
CONTINUOUS
 10
-76.3130499142
 20
102.6615366641
 11
-76.3811397333
 21
102.2875391008
  0
LINE
  5
37C
100
AcDbEntity
  8
RACCORDO
100
AcDbLine
 62
7
  6
CONTINUOUS
 10
-77.0952873262
 20
96.5225686164
 11
-77.0989668441
 21
96.5029045726
  0
LINE
  5
37D
100
AcDbEntity
  8
SUPERFICI
100
AcDbLine
 62
7
  6
CONTINUOUS
 10
-76.2404552387
 20
103.0439444553
 11
-76.3130499142
 21
102.6615366641
  0
LINE
  5
37E
100
AcDbEntity
  8
RACCORDO
100
AcDbLine
 62
7
  6
CONTINUOUS
 10
-77.0977129252
 20
96.5095254306
 11
-77.1015031645
 21
96.4897559144
  0
LINE
  5
37F
100
AcDbEntity
  8
RACCORDO
100
AcDbLine
 62
7
  6
CONTINUOUS
 10
-77.1008525462
 20
96.4930984037
 11
-77.1047149226
 21
96.4735394952
  0
LINE
  5
380
100
AcDbEntity
  8
SUPERFICI
100
AcDbLine
 62
7
  6
CONTINUOUS
 10
-76.1633384765
 20
103.4337371409
 11
-76.2404552387
 21
103.0439444553
  0
LINE
  5
381
100
AcDbEntity
  8
RACCORDO
100
AcDbLine
 62
7
  6
CONTINUOUS
 10
-77.1034445669
 20
96.4798981178
 11
-77.1074191585
 21
96.4602373231
  0
LINE
  5
382
100
AcDbEntity
  8
SUPERFICI
100
AcDbLine
 62
7
  6
CONTINUOUS
 10
-76.0817138094
 20
103.8298455331
 11
-76.1633384765
 21
103.4337371409
  0
LINE
  5
383
100
AcDbEntity
  8
RACCORDO
100
AcDbLine
 62
7
  6
CONTINUOUS
 10
-77.1066913261
 20
96.4637869264
 11
-77.1107336148
 21
96.4443372644
  0
LINE
  5
384
100
AcDbEntity
  8
RACCORDO
100
AcDbLine
 62
7
  6
CONTINUOUS
 10
-77.1094519775
 20
96.4504349345
 11
-77.1136078561
 21
96.4308870325
  0
LINE
  5
385
100
AcDbEntity
  8
SUPERFICI
100
AcDbLine
 62
7
  6
CONTINUOUS
 10
-75.9955580326
 20
104.2314850582
 11
-76.0817138094
 21
103.8298455331
  0
LINE
  5
386
100
AcDbEntity
  8
RACCORDO
100
AcDbLine
 62
7
  6
CONTINUOUS
 10
-77.1127992202
 20
96.4346403354
 11
-77.1170183691
 21
96.4153039664
  0
LINE
  5
387
100
AcDbEntity
  8
RACCORDO
100
AcDbLine
 62
7
  6
CONTINUOUS
 10
-77.1157305321
 20
96.4211421207
 11
-77.1200645247
 21
96.4017112148
  0
LINE
  5
388
100
AcDbEntity
  8
SUPERFICI
100
AcDbLine
 62
7
  6
CONTINUOUS
 10
-75.9049408994
 20
104.6375337005
 11
-75.9955580326
 21
104.2314850582
  0
LINE
  5
389
100
AcDbEntity
  8
RACCORDO
100
AcDbLine
 62
7
  6
CONTINUOUS
 10
-77.1191716242
 20
96.405664684
 11
-77.1235644779
 21
96.3864455881
  0
LINE
  5
38A
100
AcDbEntity
  8
SUPERFICI
100
AcDbLine
 62
7
  6
CONTINUOUS
 10
-75.8099674865
 20
105.0468424963
 11
-75.9049408994
 21
104.6375337005
  0
LINE
  5
38B
100
AcDbEntity
  8
RACCORDO
100
AcDbLine
 62
7
  6
CONTINUOUS
 10
-77.1222754446
 20
96.3920258142
 11
-77.1267842729
 21
96.3727159383
  0
LINE
  5
38C
100
AcDbEntity
  8
RACCORDO
100
AcDbLine
 62
7
  6
CONTINUOUS
 10
-77.1258037795
 20
96.3768659252
 11
-77.1303670811
 21
96.3577680138
  0
LINE
  5
38D
100
AcDbEntity
  8
SUPERFICI
100
AcDbLine
 62
7
  6
CONTINUOUS
 10
-75.7106949611
 20
105.4585849982
 11
-75.8099674865
 21
105.0468424963
  0
LINE
  5
38E
100
AcDbEntity
  8
RACCORDO
100
AcDbLine
 62
7
  6
CONTINUOUS
 10
-77.1290817717
 20
96.3630920481
 11
-77.1337620541
 21
96.3439071643
  0
LINE
  5
38F
100
AcDbEntity
  8
SUPERFICI
100
AcDbLine
 62
7
  6
CONTINUOUS
 10
-75.6595191623
 20
105.6649144208
 11
-75.7106950943
 21
105.4585844561
  0
LINE
  5
390
100
AcDbEntity
  8
RACCORDO
100
AcDbLine
 62
7
  6
CONTINUOUS
 10
-77.1326907759
 20
96.3482499087
 11
-77.1374211694
 21
96.3292770228
  0
LINE
  5
391
100
AcDbEntity
  8
RACCORDO
100
AcDbLine
 62
7
  6
CONTINUOUS
 10
-77.1361444156
 20
96.3343467474
 11
-77.1409926697
 21
96.3152907447
  0
LINE
  5
392
100
AcDbEntity
  8
RACCORDO
100
AcDbLine
 62
7
  6
CONTINUOUS
 10
-77.1398275549
 20
96.3198223781
 11
-77.1447215876
 21
96.3009782867
  0
LINE
  5
393
100
AcDbEntity
  8
RACCORDO
100
AcDbLine
 62
7
  6
CONTINUOUS
 10
-77.1434581278
 20
96.3057957268
 11
-77.1484707728
 21
96.2868724187
  0
LINE
  5
394
100
AcDbEntity
  8
RACCORDO
100
AcDbLine
 62
253
  6
CONTINUOUS
 10
-77.8568241619
 20
-22.25
 11
-77.0535936117
 21
-22.25
  0
LINE
  5
395
100
AcDbEntity
  8
RACCORDO
100
AcDbLine
 62
7
  6
CONTINUOUS
 10
-77.1484707728
 20
-96.2868724187
 11
-77.1434581278
 21
-96.3057957268
  0
LINE
  5
396
100
AcDbEntity
  8
RACCORDO
100
AcDbLine
 62
7
  6
CONTINUOUS
 10
-77.1434581278
 20
-96.3057957268
 11
-77.1385546744
 21
-96.3248079181
  0
LINE
  5
397
100
AcDbEntity
  8
SUPERFICI
100
AcDbLine
 62
7
  6
CONTINUOUS
 10
-75.6832428892
 20
-105.5697472733
 11
-75.589118594
 21
-105.942600329
  0
LINE
  5
398
100
AcDbEntity
  8
RACCORDO
100
AcDbLine
 62
7
  6
CONTINUOUS
 10
-77.1385546744
 20
-96.3248079181
 11
-77.1337620541
 21
-96.3439071643
  0
LINE
  5
399
100
AcDbEntity
  8
RACCORDO
100
AcDbLine
 62
7
  6
CONTINUOUS
 10
-77.1337620541
 20
-96.3439071643
 11
-77.1290817717
 21
-96.3630920481
  0
LINE
  5
39A
100
AcDbEntity
  8
SUPERFICI
100
AcDbLine
 62
7
  6
CONTINUOUS
 10
-75.7740103815
 20
-105.1977955408
 11
-75.6832428892
 21
-105.5697472733
  0
LINE
  5
39B
100
AcDbEntity
  8
RACCORDO
100
AcDbLine
 62
7
  6
CONTINUOUS
 10
-77.1290817717
 20
-96.3630920481
 11
-77.1245154116
 21
-96.3823606967
  0
LINE
  5
39C
100
AcDbEntity
  8
SUPERFICI
100
AcDbLine
 62
7
  6
CONTINUOUS
 10
-75.861357627
 20
-104.8273321884
 11
-75.7740103815
 21
-105.1977955408
  0
LINE
  5
39D
100
AcDbEntity
  8
RACCORDO
100
AcDbLine
 62
7
  6
CONTINUOUS
 10
-77.1245154116
 20
-96.3823606967
 11
-77.1200645247
 21
-96.4017112148
  0
LINE
  5
39E
100
AcDbEntity
  8
SUPERFICI
100
AcDbLine
 62
7
  6
CONTINUOUS
 10
-75.9451723893
 20
-104.4592237676
 11
-75.861357627
 21
-104.8273321884
  0
LINE
  5
39F
100
AcDbEntity
  8
RACCORDO
100
AcDbLine
 62
7
  6
CONTINUOUS
 10
-77.1200645247
 20
-96.4017112148
 11
-77.1157305321
 21
-96.4211421207
  0
LINE
  5
3A0
100
AcDbEntity
  8
SUPERFICI
100
AcDbLine
 62
7
  6
CONTINUOUS
 10
-76.0253682191
 20
-104.0943184368
 11
-75.9451724973
 21
-104.4592232847
  0
LINE
  5
3A1
100
AcDbEntity
  8
RACCORDO
100
AcDbLine
 62
7
  6
CONTINUOUS
 10
-77.1157305321
 20
-96.4211421207
 11
-77.1115149247
 21
-96.4406514766
  0
LINE
  5
3A2
100
AcDbEntity
  8
SUPERFICI
100
AcDbLine
 62
7
  6
CONTINUOUS
 10
-76.1019303048
 20
-103.7332179434
 11
-76.0253683285
 21
-104.0943179299
  0
LINE
  5
3A3
100
AcDbEntity
  8
RACCORDO
100
AcDbLine
 62
7
  6
CONTINUOUS
 10
-77.1115149247
 20
-96.4406514766
 11
-77.1074191585
 21
-96.4602373231
  0
LINE
  5
3A4
100
AcDbEntity
  8
SUPERFICI
100
AcDbLine
 62
7
  6
CONTINUOUS
 10
-76.1748093448
 20
-103.3767560624
 11
-76.1019304151
 21
-103.7332174136
  0
LINE
  5
3A5
100
AcDbEntity
  8
RACCORDO
100
AcDbLine
 62
7
  6
CONTINUOUS
 10
-77.1074191585
 20
-96.4602373231
 11
-77.1034445669
 21
-96.4798981178
  0
LINE
  5
3A6
100
AcDbEntity
  8
SUPERFICI
100
AcDbLine
 62
7
  6
CONTINUOUS
 10
-76.2439796025
 20
-103.0257400231
 11
-76.1748094555
 21
-103.3767555109
  0
LINE
  5
3A7
100
AcDbEntity
  8
RACCORDO
100
AcDbLine
 62
7
  6
CONTINUOUS
 10
-77.1034445669
 20
-96.4798981178
 11
-77.0995925433
 21
-96.499631861
  0
LINE
  5
3A8
100
AcDbEntity
  8
SUPERFICI
100
AcDbLine
 62
7
  6
CONTINUOUS
 10
-76.3094782136
 20
-102.6807298759
 11
-76.2439796025
 21
-103.0257400231
  0
LINE
  5
3A9
100
AcDbEntity
  8
RACCORDO
100
AcDbLine
 62
7
  6
CONTINUOUS
 10
-77.0995925433
 20
-96.499631861
 11
-77.0958644447
 21
-96.5194365332
  0
LINE
  5
3AA
100
AcDbEntity
  8
SUPERFICI
100
AcDbLine
 62
7
  6
CONTINUOUS
 10
-76.3713207122
 20
-102.3424571299
 11
-76.3094782136
 21
-102.6807298759
  0
LWPOLYLINE
  5
3AB
100
AcDbEntity
  8
SUPERFICI
100
AcDbPolyline
 62
7
  6
CONTINUOUS
 90
3
 70
0
 10
-76.9128142407
 20
-98.4926965183
 10
-76.8995917108
 20
-98.6203390579
 10
-76.871807752
 20
-98.8789478879
  0
LINE
  5
3AC
100
AcDbEntity
  8
SUPERFICI
100
AcDbLine
 62
7
  6
CONTINUOUS
 10
-76.8859140912
 20
98.7491944736
 11
-76.9123245477
 21
98.4974803976
  0
LINE
  5
3AD
100
AcDbEntity
  8
RACCORDO
100
AcDbLine
 62
7
  6
CONTINUOUS
 10
-77.0621377795
 20
96.7530963727
 11
-77.0643293843
 21
96.7327690318
  0
LINE
  5
3AE
100
AcDbEntity
  8
SUPERFICI
100
AcDbLine
 62
7
  6
CONTINUOUS
 10
-76.8573613921
 20
99.0087580686
 11
-76.8859140912
 21
98.7491944736
  0
LINE
  5
3AF
100
AcDbEntity
  8
SUPERFICI
100
AcDbLine
 62
7
  6
CONTINUOUS
 10
-76.8265246792
 20
99.2763784085
 11
-76.8573612828
 21
99.0087590399
  0
LINE
  5
3B0
100
AcDbEntity
  8
RACCORDO
100
AcDbLine
 62
7
  6
CONTINUOUS
 10
-77.0643293843
 20
96.7327690318
 11
-77.0668609193
 21
96.7107577108
  0
LINE
  5
3B1
100
AcDbEntity
  8
SUPERFICI
100
AcDbLine
 62
7
  6
CONTINUOUS
 10
-76.7932658986
 20
99.5521272347
 11
-76.8265246792
 21
99.2763784085
  0
LINE
  5
3B2
100
AcDbEntity
  8
RACCORDO
100
AcDbLine
 62
7
  6
CONTINUOUS
 10
-77.0666556839
 20
96.7124891323
 11
-77.0693521321
 21
96.6903745757
  0
LINE
  5
3B3
100
AcDbEntity
  8
SUPERFICI
100
AcDbLine
 62
7
  6
CONTINUOUS
 10
-76.7574485619
 20
99.8360165301
 11
-76.7932658986
 21
99.5521272347
  0
LINE
  5
3B4
100
AcDbEntity
  8
RACCORDO
100
AcDbLine
 62
7
  6
CONTINUOUS
 10
-77.0691158081
 20
96.6922584057
 11
-77.0719781827
 21
96.6700438318
  0
LINE
  5
3B5
100
AcDbEntity
  8
SUPERFICI
100
AcDbLine
 62
7
  6
CONTINUOUS
 10
-76.718908844
 20
100.1282250027
 11
-76.7574485619
 21
99.8360165301
  0
LINE
  5
3B6
100
AcDbEntity
  8
RACCORDO
100
AcDbLine
 62
7
  6
CONTINUOUS
 10
-77.0717088015
 20
96.6720790044
 11
-77.0747380484
 21
96.6497676625
  0
LINE
  5
3B7
100
AcDbEntity
  8
SUPERFICI
100
AcDbLine
 62
7
  6
CONTINUOUS
 10
-76.6774321673
 20
100.4292269757
 11
-76.718908844
 21
100.1282250027
  0
LINE
  5
3B8
100
AcDbEntity
  8
RACCORDO
100
AcDbLine
 62
7
  6
CONTINUOUS
 10
-77.0744336695
 20
96.6519530667
 11
-77.077630731
 21
96.6295477937
  0
LINE
  5
3B9
100
AcDbEntity
  8
SUPERFICI
100
AcDbLine
 62
7
  6
CONTINUOUS
 10
-76.6326662556
 20
100.7403174272
 11
-76.6774321673
 21
100.4292269757
  0
LINE
  5
3BA
100
AcDbEntity
  8
RACCORDO
100
AcDbLine
 62
7
  6
CONTINUOUS
 10
-77.0772894415
 20
96.6318822826
 11
-77.0806551371
 21
96.6093863784
  0
LINE
  5
3BB
100
AcDbEntity
  8
SUPERFICI
100
AcDbLine
 62
7
  6
CONTINUOUS
 10
-76.5842249321
 20
101.0627550997
 11
-76.6326662556
 21
100.7403174272
  0
LINE
  5
3BC
100
AcDbEntity
  8
SUPERFICI
100
AcDbLine
 62
7
  6
CONTINUOUS
 10
-76.5317786807
 20
101.3971829751
 11
-76.5842249321
 21
101.0627550997
  0
LINE
  5
3BD
100
AcDbEntity
  8
RACCORDO
100
AcDbLine
 62
7
  6
CONTINUOUS
 10
-77.0802750539
 20
96.6118687609
 11
-77.083810134
 21
96.5892855526
  0
LINE
  5
3BE
100
AcDbEntity
  8
SUPERFICI
100
AcDbLine
 62
7
  6
CONTINUOUS
 10
-76.4748839191
 20
101.7447550176
 11
-76.5317786807
 21
101.3971829751
  0
LINE
  5
3BF
100
AcDbEntity
  8
RACCORDO
100
AcDbLine
 62
7
  6
CONTINUOUS
 10
-77.0833894051
 20
96.591914594
 11
-77.0870946235
 21
96.5692469951
  0
LINE
  5
3C0
100
AcDbEntity
  8
RACCORDO
100
AcDbLine
 62
7
  6
CONTINUOUS
 10
-77.0866314271
 20
96.5720214266
 11
-77.0905074042
 21
96.5492728088
  0
LWPOLYLINE
  5
3C1
100
AcDbEntity
  8
SUPERFICI
100
AcDbPolyline
 62
7
  6
CONTINUOUS
 90
3
 70
0
 10
-76.3811397333
 20
102.2875391008
 10
-76.4135366424
 20
102.1038417495
 10
-76.4748839191
 20
101.7447550176
  0
LINE
  5
3C2
100
AcDbEntity
  8
RACCORDO
100
AcDbLine
 62
7
  6
CONTINUOUS
 10
-77.0899999514
 20
96.552191319
 11
-77.0934937721
 21
96.5324263139
  0
LINE
  5
3C3
100
AcDbEntity
  8
RACCORDO
100
AcDbLine
 62
7
  6
CONTINUOUS
 10
-77.0922615129
 20
96.5393105344
 11
-77.0958644447
 21
96.5194365332
  0
LINE
  5
3C4
100
AcDbEntity
  8
RACCORDO
100
AcDbLine
 62
7
  6
CONTINUOUS
 10
-77.0958644447
 20
-96.5194365332
 11
-77.0922615129
 21
-96.5393105344
  0
LINE
  5
3C5
100
AcDbEntity
  8
SUPERFICI
100
AcDbLine
 62
7
  6
CONTINUOUS
 10
-76.4295018382
 20
-102.011851742
 11
-76.3713207122
 21
-102.3424571299
  0
LINE
  5
3C6
100
AcDbEntity
  8
RACCORDO
100
AcDbLine
 62
7
  6
CONTINUOUS
 10
-77.0922615129
 20
-96.5393105344
 11
-77.08878504
 21
-96.5592518073
  0
LINE
  5
3C7
100
AcDbEntity
  8
SUPERFICI
100
AcDbLine
 62
7
  6
CONTINUOUS
 10
-76.4840689077
 20
-101.6896380164
 11
-76.4295018382
 21
-102.011851742
  0
LINE
  5
3C8
100
AcDbEntity
  8
RACCORDO
100
AcDbLine
 62
7
  6
CONTINUOUS
 10
-77.08878504
 20
-96.5592518073
 11
-77.0854362799
 21
-96.5792582759
  0
LINE
  5
3C9
100
AcDbEntity
  8
SUPERFICI
100
AcDbLine
 62
7
  6
CONTINUOUS
 10
-76.534957162
 20
-101.3773158196
 11
-76.4840689077
 21
-101.6896380164
  0
LINE
  5
3CA
100
AcDbEntity
  8
RACCORDO
100
AcDbLine
 62
7
  6
CONTINUOUS
 10
-77.0854362799
 20
-96.5792582759
 11
-77.0822163798
 21
-96.5993282865
  0
LINE
  5
3CB
100
AcDbEntity
  8
SUPERFICI
100
AcDbLine
 62
7
  6
CONTINUOUS
 10
-76.58238862
 20
-101.0747114124
 11
-76.5349572675
 21
-101.3773151592
  0
LINE
  5
3CC
100
AcDbEntity
  8
RACCORDO
100
AcDbLine
 62
7
  6
CONTINUOUS
 10
-77.0822163798
 20
-96.5993282865
 11
-77.0791265261
 21
-96.6194597282
  0
LINE
  5
3CD
100
AcDbEntity
  8
SUPERFICI
100
AcDbLine
 62
7
  6
CONTINUOUS
 10
-76.6266098214
 20
-100.7814007267
 11
-76.58238862
 21
-101.0747114124
  0
LINE
  5
3CE
100
AcDbEntity
  8
RACCORDO
100
AcDbLine
 62
7
  6
CONTINUOUS
 10
-77.0791265261
 20
-96.6194597282
 11
-77.0761678668
 21
-96.6396504728
  0
LINE
  5
3CF
100
AcDbEntity
  8
SUPERFICI
100
AcDbLine
 62
7
  6
CONTINUOUS
 10
-76.6679864322
 20
-100.4959996646
 11
-76.6266098214
 21
-100.7814007267
  0
LINE
  5
3D0
100
AcDbEntity
  8
SUPERFICI
100
AcDbLine
 62
7
  6
CONTINUOUS
 10
-76.706851976
 20
-100.2170860435
 11
-76.6679864322
 21
-100.4959996646
  0
LINE
  5
3D1
100
AcDbEntity
  8
RACCORDO
100
AcDbLine
 62
7
  6
CONTINUOUS
 10
-77.0761678668
 20
-96.6396504728
 11
-77.0733414504
 21
-96.6598988171
  0
LINE
  5
3D2
100
AcDbEntity
  8
SUPERFICI
100
AcDbLine
 62
7
  6
CONTINUOUS
 10
-76.7434467451
 20
-99.9436763318
 11
-76.706851976
 21
-100.2170860435
  0
LINE
  5
3D3
100
AcDbEntity
  8
RACCORDO
100
AcDbLine
 62
7
  6
CONTINUOUS
 10
-77.0733414504
 20
-96.6598988171
 11
-77.070648355
 21
-96.680202601
  0
LINE
  5
3D4
100
AcDbEntity
  8
SUPERFICI
100
AcDbLine
 62
7
  6
CONTINUOUS
 10
-76.7780633574
 20
-99.6741776104
 11
-76.7434467451
 21
-99.9436763318
  0
LINE
  5
3D5
100
AcDbEntity
  8
RACCORDO
100
AcDbLine
 62
7
  6
CONTINUOUS
 10
-77.070648355
 20
-96.680202601
 11
-77.0680896188
 21
-96.7005596483
  0
LINE
  5
3D6
100
AcDbEntity
  8
SUPERFICI
100
AcDbLine
 62
7
  6
CONTINUOUS
 10
-76.8109692888
 20
-99.406907085
 11
-76.7780633574
 21
-99.6741776104
  0
LINE
  5
3D7
100
AcDbEntity
  8
RACCORDO
100
AcDbLine
 62
7
  6
CONTINUOUS
 10
-77.0680896188
 20
-96.7005596483
 11
-77.0656661888
 21
-96.7209682109
  0
LINE
  5
3D8
100
AcDbEntity
  8
SUPERFICI
100
AcDbLine
 62
7
  6
CONTINUOUS
 10
-76.8422335966
 20
-99.1415863471
 11
-76.8109692888
 21
-99.406907085
  0
LINE
  5
3D9
100
AcDbEntity
  8
SUPERFICI
100
AcDbLine
 62
7
  6
CONTINUOUS
 10
-76.871807752
 20
-98.8789478879
 11
-76.8422335966
 21
-99.1415863471
  0
LWPOLYLINE
  5
3DA
100
AcDbEntity
  8
RACCORDO
100
AcDbPolyline
 62
7
  6
CONTINUOUS
 90
3
 70
0
 10
-77.0656661888
 20
-96.7209682109
 10
-77.0633790315
 20
-96.7414260839
 10
-77.0622868489
 20
-96.7516727911
  0
LINE
  5
3DB
100
AcDbEntity
  8
RACCORDO
100
AcDbLine
 62
7
  6
CONTINUOUS
 10
-77.0622868489
 20
-96.7516727911
 11
-77.0602057961
 21
-96.7722007419
  0
LINE
  5
3DC
100
AcDbEntity
  8
SUPERFICI
100
AcDbLine
 62
7
  6
CONTINUOUS
 10
-76.937836015
 20
-98.2419864951
 11
-76.9128142407
 21
-98.4926965183
  0
LINE
  5
3DD
100
AcDbEntity
  8
SUPERFICI
100
AcDbLine
 62
7
  6
CONTINUOUS
 10
-76.9609990172
 20
-97.9977182395
 11
-76.937836015
 21
-98.2419864951
  0
LINE
  5
3DE
100
AcDbEntity
  8
RACCORDO
100
AcDbLine
 62
7
  6
CONTINUOUS
 10
-77.0602057961
 20
-96.7722007419
 11
-77.0582632363
 21
-96.7927726522
  0
LINE
  5
3DF
100
AcDbEntity
  8
SUPERFICI
100
AcDbLine
 62
7
  6
CONTINUOUS
 10
-76.9823329114
 20
-97.7605663251
 11
-76.9609990172
 21
-97.9977182395
  0
LINE
  5
3E0
100
AcDbEntity
  8
RACCORDO
100
AcDbLine
 62
7
  6
CONTINUOUS
 10
-77.0582632363
 20
-96.7927726522
 11
-77.056459959
 21
-96.8133867152
  0
LINE
  5
3E1
100
AcDbEntity
  8
SUPERFICI
100
AcDbLine
 62
7
  6
CONTINUOUS
 10
-77.0017000992
 20
-97.5333596558
 11
-76.9823329114
 21
-97.7605663251
  0
LINE
  5
3E2
100
AcDbEntity
  8
RACCORDO
100
AcDbLine
 62
7
  6
CONTINUOUS
 10
-77.056459959
 20
-96.8133867152
 11
-77.0547967581
 21
-96.8340406679
  0
LINE
  5
3E3
100
AcDbEntity
  8
SUPERFICI
100
AcDbLine
 62
7
  6
CONTINUOUS
 10
-77.0269256044
 20
-97.2167969452
 11
-77.0017000992
 21
-97.5333596558
  0
LWPOLYLINE
  5
3E4
100
AcDbEntity
  8
RACCORDO
100
AcDbPolyline
 62
7
  6
CONTINUOUS
 90
3
 70
0
 10
-77.0547967581
 20
-96.8340406679
 10
-77.0532743854
 20
-96.8547322356
 10
-77.0530913884
 20
-96.8573593241
  0
LWPOLYLINE
  5
3E5
100
AcDbEntity
  8
SUPERFICI
100
AcDbPolyline
 62
7
  6
CONTINUOUS
 90
3
 70
0
 10
-77.0530902178
 20
-96.8573638162
 10
-77.0472675297
 20
-96.9405080989
 10
-77.0269256044
 20
-97.2167969452
  0
LINE
  5
3E6
100
AcDbEntity
  8
RACCORDO
100
AcDbLine
 62
7
  6
CONTINUOUS
 10
-77.0530911721
 20
96.8573602055
 11
-77.0542071964
 21
96.8418687545
  0
LINE
  5
3E7
100
AcDbEntity
  8
SUPERFICI
100
AcDbLine
 62
7
  6
CONTINUOUS
 10
-77.0390680538
 20
97.0544146521
 11
-77.0530902671
 21
96.8573631037
  0
LINE
  5
3E8
100
AcDbEntity
  8
SUPERFICI
100
AcDbLine
 62
7
  6
CONTINUOUS
 10
-77.0162477909
 20
97.3539591939
 11
-77.0390680538
 21
97.0544146521
  0
LINE
  5
3E9
100
AcDbEntity
  8
RACCORDO
100
AcDbLine
 62
7
  6
CONTINUOUS
 10
-77.0539650451
 20
96.8450996568
 11
-77.0555402361
 21
96.8245848293
  0
LINE
  5
3EA
100
AcDbEntity
  8
SUPERFICI
100
AcDbLine
 62
7
  6
CONTINUOUS
 10
-76.9988982157
 20
97.5670087154
 11
-77.0162477909
 21
97.3539591939
  0
LINE
  5
3EB
100
AcDbEntity
  8
RACCORDO
100
AcDbLine
 62
7
  6
CONTINUOUS
 10
-77.0555402361
 20
96.8245848293
 11
-77.0572537436
 21
96.8041081952
  0
LINE
  5
3EC
100
AcDbEntity
  8
SUPERFICI
100
AcDbLine
 62
7
  6
CONTINUOUS
 10
-76.9798852789
 20
97.788432272
 11
-76.9988982157
 21
97.5670087154
  0
LINE
  5
3ED
100
AcDbEntity
  8
SUPERFICI
100
AcDbLine
 62
7
  6
CONTINUOUS
 10
-76.9591713083
 20
98.0174643854
 11
-76.9798852789
 21
97.788432272
  0
LINE
  5
3EE
100
AcDbEntity
  8
RACCORDO
100
AcDbLine
 62
7
  6
CONTINUOUS
 10
-77.0572537436
 20
96.8041081952
 11
-77.0591048523
 21
96.7836715394
  0
LINE
  5
3EF
100
AcDbEntity
  8
SUPERFICI
100
AcDbLine
 62
7
  6
CONTINUOUS
 10
-76.9367031036
 20
98.2536175444
 11
-76.9591713083
 21
98.0174643854
  0
LWPOLYLINE
  5
3F0
100
AcDbEntity
  8
RACCORDO
100
AcDbPolyline
 62
7
  6
CONTINUOUS
 90
3
 70
0
 10
-77.0591048523
 20
96.7836715394
 10
-77.061092774
 20
96.7632770717
 10
-77.0621377795
 20
96.7530963727
  0
LINE
  5
3F1
100
AcDbEntity
  8
SUPERFICI
100
AcDbLine
 62
7
  6
CONTINUOUS
 10
-76.9123245477
 20
98.4974803976
 11
-76.9367031036
 21
98.2536175444
  0
LINE
  5
3F2
100
AcDbEntity
  8
0
100
AcDbLine
 62
7
  6
CONTINUOUS
 10
-77.8568241619
 20
-94.6500573674
 11
-77.8568241619
 21
-47.3499426326
  0
LINE
  5
3F3
100
AcDbEntity
  8
0
100
AcDbLine
 62
7
  6
CONTINUOUS
 10
-77.8568241619
 20
-23.6500573674
 11
-77.8568241619
 21
23.6500573674
  0
LINE
  5
3F4
100
AcDbEntity
  8
0
100
AcDbLine
 62
7
  6
CONTINUOUS
 10
-77.8568241619
 20
47.3499426326
 11
-77.8568241619
 21
94.6500573674
  0
LINE
  5
3F5
100
AcDbEntity
  8
RACCORDO
100
AcDbLine
 62
253
  6
CONTINUOUS
 10
-77.6803643521
 20
-46.8998704614
 11
-77.6803643521
 21
-46.7826847062
  0
LINE
  5
3F6
100
AcDbEntity
  8
RACCORDO
100
AcDbLine
 62
253
  6
CONTINUOUS
 10
-77.6803643521
 20
-24.2173152938
 11
-77.6803643521
 21
-24.1001295386
  0
LINE
  5
3F7
100
AcDbEntity
  8
RACCORDO
100
AcDbLine
 62
253
  6
CONTINUOUS
 10
-77.6803643521
 20
24.1001295386
 11
-77.6803643521
 21
24.2173152938
  0
LINE
  5
3F8
100
AcDbEntity
  8
RACCORDO
100
AcDbLine
 62
253
  6
CONTINUOUS
 10
-77.6803643521
 20
46.7826847062
 11
-77.6803643521
 21
46.8998704614
  0
LINE
  5
3F9
100
AcDbEntity
  8
RACCORDO
100
AcDbLine
 62
253
  6
CONTINUOUS
 10
-77.6542205347
 20
-70.9999791554
 11
-77.6542205346
 21
-48.7499924203
  0
LINE
  5
3FA
100
AcDbEntity
  8
RACCORDO
100
AcDbLine
 62
253
  6
CONTINUOUS
 10
-77.6542205346
 20
-22.2500221412
 11
-77.6542205346
 21
22.2500075797
  0
LINE
  5
3FB
100
AcDbEntity
  8
RACCORDO
100
AcDbLine
 62
253
  6
CONTINUOUS
 10
-77.6542205346
 20
48.7499778588
 11
-77.6542205347
 21
70.9999791554
  0
LINE
  5
3FC
100
AcDbEntity
  8
RACCORDO
100
AcDbLine
 62
7
  6
CONTINUOUS
 10
-77.1509849228
 20
45.2994637574
 11
-77.1509849228
 21
25.7005363778
  0
LINE
  5
3FD
100
AcDbEntity
  8
RACCORDO
100
AcDbLine
 62
7
  6
CONTINUOUS
 10
-77.1509849228
 20
-25.7005362426
 11
-77.1509849228
 21
-45.2994636222
  0
LINE
  5
3FE
100
AcDbEntity
  8
RACCORDO
100
AcDbLine
 62
253
  6
CONTINUOUS
 10
-77.0535936117
 20
-70.9999895777
 11
-77.0535936117
 21
-48.75
  0
LINE
  5
3FF
100
AcDbEntity
  8
RACCORDO
100
AcDbLine
 62
253
  6
CONTINUOUS
 10
-77.0535936117
 20
-22.25
 11
-77.0535936117
 21
22.25
  0
LINE
  5
400
100
AcDbEntity
  8
RACCORDO
100
AcDbLine
 62
253
  6
CONTINUOUS
 10
-77.0535936117
 20
48.75
 11
-77.0535936117
 21
70.9999895777
  0
LINE
  5
401
100
AcDbEntity
  8
RACCORDO
100
AcDbLine
 62
253
  6
CONTINUOUS
 10
-74.3114307332
 20
-71.0000014142
 11
-74.3114307332
 21
71.0000014174
  0
LINE
  5
402
100
AcDbEntity
  8
RACCORDO
100
AcDbLine
 62
253
  6
CONTINUOUS
 10
-73.424504951
 20
-71.0000028344
 11
-73.424504951
 21
71.0000028376
  0
LINE
  5
403
100
AcDbEntity
  8
SUPERFICI
100
AcDbLine
 62
7
  6
CONTINUOUS
 10
-68.5568241619
 20
-111.0
 11
-68.5568241619
 21
-108.0
  0
LINE
  5
404
100
AcDbEntity
  8
0
100
AcDbLine
 62
7
  6
CONTINUOUS
 10
-68.5568241619
 20
-108.0
 11
-68.5568241619
 21
108.0
  0
LINE
  5
405
100
AcDbEntity
  8
SUPERFICI
100
AcDbLine
 62
7
  6
CONTINUOUS
 10
-68.5568241619
 20
108.0
 11
-68.5568241619
 21
111.0
  0
LINE
  5
406
100
AcDbEntity
  8
RACCORDO
100
AcDbLine
 62
253
  6
CONTINUOUS
 10
-77.8568241619
 20
22.25
 11
-77.0535936117
 21
22.25
  0
LINE
  5
407
100
AcDbEntity
  8
RACCORDO
100
AcDbLine
 62
253
  6
CONTINUOUS
 10
-77.8568241619
 20
48.75
 11
-77.0535936117
 21
48.75
  0
LWPOLYLINE
  5
408
100
AcDbEntity
  8
0
100
AcDbPolyline
 62
7
  6
CONTINUOUS
 90
10
 70
0
 43
0.3500000006
 10
-73.3139669037
 20
120.2500001221
 10
-73.2425402527
 20
120.1071468201
 10
-73.2425402527
 20
120.0357156372
 10
-73.3853935547
 20
119.8928532715
 10
-73.4568247375
 20
119.8928532715
 10
-73.5282513885
 20
119.9642844543
 10
-73.5282513885
 20
120.0357156372
 10
-73.4568247375
 20
120.1785689392
 10
-73.3853935547
 20
120.2500001221
 10
-73.3139669037
 20
120.2500001221
  0
LINE
  5
409
100
AcDbEntity
  8
RACCORDO
100
AcDbLine
 62
253
  6
CONTINUOUS
 10
-73.424504951
 20
71.0000028376
 11
-77.6542205347
 21
70.9999791554
  0
LINE
  5
40A
100
AcDbEntity
  8
RACCORDO
100
AcDbLine
 62
253
  6
CONTINUOUS
 10
-77.8568241619
 20
93.25
 11
-77.6490046189
 21
93.2499999186
  0
LINE
  5
40B
100
AcDbEntity
  8
RACCORDO
100
AcDbLine
 62
7
  6
CONTINUOUS
 10
-73.6093014518
 20
110.7016656072
 11
-73.6714196135
 21
110.6847257146
  0
LINE
  5
40C
100
AcDbEntity
  8
RACCORDO
100
AcDbLine
 62
7
  6
CONTINUOUS
 10
-73.5508202447
 20
110.7137742295
 11
-73.6128568393
 21
110.7008111268
  0
LINE
  5
40D
100
AcDbEntity
  8
RACCORDO
100
AcDbLine
 62
7
  6
CONTINUOUS
 10
-73.4934595475
 20
110.7221685623
 11
-73.5534664731
 21
110.7133045922
  0
LINE
  5
40E
100
AcDbEntity
  8
RACCORDO
100
AcDbLine
 62
7
  6
CONTINUOUS
 10
-73.4332214802
 20
110.7273670637
 11
-73.4919997965
 21
110.7223380438
  0
LINE
  5
40F
100
AcDbEntity
  8
RACCORDO
100
AcDbLine
 62
7
  6
CONTINUOUS
 10
-68.5568241619
 20
111.0
 11
-73.4332193366
 21
110.7273671836
  0
LINE
  5
410
100
AcDbEntity
  8
RACCORDO
100
AcDbLine
 62
253
  6
CONTINUOUS
 10
-68.5568241619
 20
108.0
 11
-73.2796584113
 21
107.999931628
  0
LWPOLYLINE
  5
411
100
AcDbEntity
  8
0
100
AcDbPolyline
 62
7
  6
CONTINUOUS
 90
6
 70
0
 43
0.3500000006
 10
-72.2425399475
 20
119.7499999695
 10
-71.1711084595
 20
119.7499999695
 10
-70.9568239746
 20
119.9642844543
 10
-70.9568239746
 20
121.0357159424
 10
-71.3853974762
 20
121.4642849121
 10
-71.8139664459
 20
121.4642849121
  0
ARC
  5
412
100
AcDbEntity
  8
RACCORDO
100
AcDbCircle
 62
253
  6
CONTINUOUS
 10
-378.7210413017
 20
-100.281424148
 40
356.5064318846
100
AcDbArc
 50
0.553529489
 51
0.8073305672
  0
ARC
  5
413
100
AcDbEntity
  8
RACCORDO
100
AcDbCircle
 62
253
  6
CONTINUOUS
 10
-29.2568181422
 20
-385.0509456703
 40
291.8437195573
100
AcDbArc
 50
89.019026856
 51
89.3278101087
  0
ARC
  5
414
100
AcDbEntity
  8
RACCORDO
100
AcDbCircle
 62
253
  6
CONTINUOUS
 10
-22.25
 20
-48.75
 40
3.6690890731
100
AcDbArc
 50
90.0
 51
109.8754154481
  0
ARC
  5
415
100
AcDbEntity
  8
RACCORDO
100
AcDbCircle
 62
253
  6
CONTINUOUS
 10
-22.25
 20
-22.25
 40
3.6690890731
100
AcDbArc
 50
250.1245919849
 51
270.0
  0
ARC
  5
416
100
AcDbEntity
  8
SUPERFICI
100
AcDbCircle
 62
7
  6
CONTINUOUS
 10
-37.0
 20
-108.0
 40
3.0
100
AcDbArc
 50
180.0
 51
270.0
  0
ARC
  5
417
100
AcDbEntity
  8
RACCORDO
100
AcDbCircle
 62
253
  6
CONTINUOUS
 10
-37.003407288
 20
-108.0041917118
 40
2.7326082097
100
AcDbArc
 50
179.9106749982
 51
270.0714417993
  0
ARC
  5
418
100
AcDbEntity
  8
RACCORDO
100
AcDbCircle
 62
253
  6
CONTINUOUS
 10
-22.25
 20
-22.25
 40
1.9673152938
100
AcDbArc
 50
250.1245133275
 51
270.0
  0
ARC
  5
419
100
AcDbEntity
  8
RACCORDO
100
AcDbCircle
 62
253
  6
CONTINUOUS
 10
-22.25
 20
-48.75
 40
1.9673152938
100
AcDbArc
 50
90.0
 51
109.8754866725
  0
ARC
  5
41A
100
AcDbEntity
  8
0
100
AcDbCircle
 62
253
  6
CONTINUOUS
 10
-22.25
 20
-22.25
 40
0.4038626693
100
AcDbArc
 50
180.0
 51
270.0
  0
ARC
  5
41B
100
AcDbEntity
  8
0
100
AcDbCircle
 62
253
  6
CONTINUOUS
 10
-22.25
 20
-93.25
 40
0.4038626693
100
AcDbArc
 50
180.0
 51
270.0
  0
ARC
  5
41C
100
AcDbEntity
  8
0
100
AcDbCircle
 62
253
  6
CONTINUOUS
 10
-22.25
 20
-48.75
 40
0.4038626693
100
AcDbArc
 50
90.0
 51
180.0
  0
ARC
  5
41D
100
AcDbEntity
  8
0
100
AcDbCircle
 62
7
  6
CONTINUOUS
 10
-22.25
 20
-22.25
 40
0.3
100
AcDbArc
 50
180.0
 51
270.0
  0
ARC
  5
41E
100
AcDbEntity
  8
0
100
AcDbCircle
 62
7
  6
CONTINUOUS
 10
-22.25
 20
-93.25
 40
0.3
100
AcDbArc
 50
180.0
 51
270.0
  0
ARC
  5
41F
100
AcDbEntity
  8
0
100
AcDbCircle
 62
7
  6
CONTINUOUS
 10
-22.25
 20
-48.75
 40
0.3
100
AcDbArc
 50
90.0
 51
180.0
  0
ARC
  5
420
100
AcDbEntity
  8
RACCORDO
100
AcDbCircle
 62
253
  6
CONTINUOUS
 10
-378.6848446799
 20
100.2809946666
 40
356.4702328048
100
AcDbArc
 50
359.1926564799
 51
359.4464833296
  0
ARC
  5
421
100
AcDbEntity
  8
RACCORDO
100
AcDbCircle
 62
253
  6
CONTINUOUS
 10
-29.2571975508
 20
385.0771912809
 40
291.8699678173
100
AcDbArc
 50
270.6722039316
 51
270.980959411
  0
ARC
  5
422
100
AcDbEntity
  8
RACCORDO
100
AcDbCircle
 62
253
  6
CONTINUOUS
 10
-22.25
 20
22.25
 40
3.6690890731
100
AcDbArc
 50
90.0
 51
109.8754154481
  0
ARC
  5
423
100
AcDbEntity
  8
RACCORDO
100
AcDbCircle
 62
253
  6
CONTINUOUS
 10
-22.25
 20
48.75
 40
3.6690890731
100
AcDbArc
 50
250.1245919849
 51
270.0
  0
ARC
  5
424
100
AcDbEntity
  8
SUPERFICI
100
AcDbCircle
 62
7
  6
CONTINUOUS
 10
-37.0
 20
108.0
 40
3.0
100
AcDbArc
 50
90.0
 51
180.0
  0
ARC
  5
425
100
AcDbEntity
  8
RACCORDO
100
AcDbCircle
 62
253
  6
CONTINUOUS
 10
-37.0034071646
 20
108.0041917699
 40
2.7326082501
100
AcDbArc
 50
89.9271365727
 51
180.0878925987
  0
ARC
  5
426
100
AcDbEntity
  8
RACCORDO
100
AcDbCircle
 62
253
  6
CONTINUOUS
 10
-22.25
 20
48.75
 40
1.9673152938
100
AcDbArc
 50
250.1245133275
 51
270.0
  0
ARC
  5
427
100
AcDbEntity
  8
RACCORDO
100
AcDbCircle
 62
253
  6
CONTINUOUS
 10
-22.25
 20
22.25
 40
1.9673152938
100
AcDbArc
 50
90.0
 51
109.8754866725
  0
ARC
  5
428
100
AcDbEntity
  8
0
100
AcDbCircle
 62
253
  6
CONTINUOUS
 10
-22.25
 20
48.75
 40
0.4038626693
100
AcDbArc
 50
180.0
 51
270.0
  0
ARC
  5
429
100
AcDbEntity
  8
0
100
AcDbCircle
 62
253
  6
CONTINUOUS
 10
-22.25
 20
93.25
 40
0.4038626693
100
AcDbArc
 50
90.0
 51
180.0
  0
ARC
  5
42A
100
AcDbEntity
  8
0
100
AcDbCircle
 62
253
  6
CONTINUOUS
 10
-22.25
 20
22.25
 40
0.4038626693
100
AcDbArc
 50
90.0
 51
180.0
  0
ARC
  5
42B
100
AcDbEntity
  8
0
100
AcDbCircle
 62
7
  6
CONTINUOUS
 10
-22.25
 20
48.75
 40
0.3
100
AcDbArc
 50
180.0
 51
270.0
  0
ARC
  5
42C
100
AcDbEntity
  8
0
100
AcDbCircle
 62
7
  6
CONTINUOUS
 10
-22.25
 20
93.25
 40
0.3
100
AcDbArc
 50
90.0
 51
180.0
  0
ARC
  5
42D
100
AcDbEntity
  8
0
100
AcDbCircle
 62
7
  6
CONTINUOUS
 10
-22.25
 20
22.25
 40
0.3
100
AcDbArc
 50
90.0
 51
180.0
  0
ARC
  5
42E
100
AcDbEntity
  8
RACCORDO
100
AcDbCircle
 62
253
  6
CONTINUOUS
 10
378.6848446832
 20
-100.2809946666
 40
356.4702328081
100
AcDbArc
 50
179.1926564799
 51
179.4464833296
  0
ARC
  5
42F
100
AcDbEntity
  8
RACCORDO
100
AcDbCircle
 62
253
  6
CONTINUOUS
 10
29.257197551
 20
-385.0771912982
 40
291.8699678347
100
AcDbArc
 50
90.6722039316
 51
90.980959411
  0
ARC
  5
430
100
AcDbEntity
  8
RACCORDO
100
AcDbCircle
 62
253
  6
CONTINUOUS
 10
22.25
 20
-48.75
 40
3.6690890731
100
AcDbArc
 50
70.1245943256
 51
90.0
  0
ARC
  5
431
100
AcDbEntity
  8
RACCORDO
100
AcDbCircle
 62
253
  6
CONTINUOUS
 10
22.25
 20
-22.25
 40
3.6690890731
100
AcDbArc
 50
270.0
 51
289.8754130709
  0
ARC
  5
432
100
AcDbEntity
  8
SUPERFICI
100
AcDbCircle
 62
7
  6
CONTINUOUS
 10
37.0
 20
-108.0
 40
3.0
100
AcDbArc
 50
270.0
 51
360.0
  0
ARC
  5
433
100
AcDbEntity
  8
RACCORDO
100
AcDbCircle
 62
253
  6
CONTINUOUS
 10
37.0034068523
 20
-108.0041914575
 40
2.7326082501
100
AcDbArc
 50
269.9271431291
 51
0.0878860381
  0
ARC
  5
434
100
AcDbEntity
  8
RACCORDO
100
AcDbCircle
 62
253
  6
CONTINUOUS
 10
22.25
 20
-22.25
 40
1.9673152938
100
AcDbArc
 50
270.0
 51
289.8754866725
  0
ARC
  5
435
100
AcDbEntity
  8
RACCORDO
100
AcDbCircle
 62
253
  6
CONTINUOUS
 10
22.25
 20
-48.75
 40
1.9673152938
100
AcDbArc
 50
70.1245133275
 51
90.0
  0
ARC
  5
436
100
AcDbEntity
  8
0
100
AcDbCircle
 62
253
  6
CONTINUOUS
 10
22.25
 20
-22.25
 40
0.4038626693
100
AcDbArc
 50
270.0
 51
360.0
  0
ARC
  5
437
100
AcDbEntity
  8
0
100
AcDbCircle
 62
253
  6
CONTINUOUS
 10
22.25
 20
-93.25
 40
0.4038626693
100
AcDbArc
 50
270.0
 51
360.0
  0
ARC
  5
438
100
AcDbEntity
  8
0
100
AcDbCircle
 62
253
  6
CONTINUOUS
 10
22.25
 20
-48.75
 40
0.4038626693
100
AcDbArc
 50
0.0
 51
90.0
  0
ARC
  5
439
100
AcDbEntity
  8
0
100
AcDbCircle
 62
7
  6
CONTINUOUS
 10
22.25
 20
-22.25
 40
0.3
100
AcDbArc
 50
270.0
 51
360.0
  0
ARC
  5
43A
100
AcDbEntity
  8
0
100
AcDbCircle
 62
7
  6
CONTINUOUS
 10
22.25
 20
-93.25
 40
0.3
100
AcDbArc
 50
270.0
 51
360.0
  0
ARC
  5
43B
100
AcDbEntity
  8
0
100
AcDbCircle
 62
7
  6
CONTINUOUS
 10
22.25
 20
-48.75
 40
0.3
100
AcDbArc
 50
0.0
 51
90.0
  0
ARC
  5
43C
100
AcDbEntity
  8
RACCORDO
100
AcDbCircle
 62
253
  6
CONTINUOUS
 10
378.7210412983
 20
100.281424148
 40
356.5064318812
100
AcDbArc
 50
180.553529489
 51
180.8073305672
  0
ARC
  5
43D
100
AcDbEntity
  8
RACCORDO
100
AcDbCircle
 62
253
  6
CONTINUOUS
 10
29.2568181422
 20
385.0509456671
 40
291.8437195542
100
AcDbArc
 50
269.019026856
 51
269.3278101087
  0
ARC
  5
43E
100
AcDbEntity
  8
RACCORDO
100
AcDbCircle
 62
253
  6
CONTINUOUS
 10
22.25
 20
22.25
 40
3.6690890731
100
AcDbArc
 50
70.1245943256
 51
90.0
  0
ARC
  5
43F
100
AcDbEntity
  8
RACCORDO
100
AcDbCircle
 62
253
  6
CONTINUOUS
 10
22.25
 20
48.75
 40
3.6690890731
100
AcDbArc
 50
270.0
 51
289.8754130709
  0
ARC
  5
440
100
AcDbEntity
  8
SUPERFICI
100
AcDbCircle
 62
7
  6
CONTINUOUS
 10
37.0
 20
108.0
 40
3.0
100
AcDbArc
 50
0.0
 51
90.0
  0
ARC
  5
441
100
AcDbEntity
  8
RACCORDO
100
AcDbCircle
 62
253
  6
CONTINUOUS
 10
37.0034069756
 20
108.0041913994
 40
2.7326082097
100
AcDbArc
 50
359.9106815581
 51
90.0714352395
  0
ARC
  5
442
100
AcDbEntity
  8
RACCORDO
100
AcDbCircle
 62
253
  6
CONTINUOUS
 10
22.25
 20
48.75
 40
1.9673152938
100
AcDbArc
 50
270.0
 51
289.8754866725
  0
ARC
  5
443
100
AcDbEntity
  8
RACCORDO
100
AcDbCircle
 62
253
  6
CONTINUOUS
 10
22.25
 20
22.25
 40
1.9673152938
100
AcDbArc
 50
70.1245133275
 51
90.0
  0
ARC
  5
444
100
AcDbEntity
  8
0
100
AcDbCircle
 62
253
  6
CONTINUOUS
 10
22.25
 20
48.75
 40
0.4038626693
100
AcDbArc
 50
270.0
 51
360.0
  0
ARC
  5
445
100
AcDbEntity
  8
0
100
AcDbCircle
 62
253
  6
CONTINUOUS
 10
22.25
 20
93.25
 40
0.4038626693
100
AcDbArc
 50
0.0
 51
90.0
  0
ARC
  5
446
100
AcDbEntity
  8
0
100
AcDbCircle
 62
253
  6
CONTINUOUS
 10
22.25
 20
22.25
 40
0.4038626693
100
AcDbArc
 50
0.0
 51
90.0
  0
ARC
  5
447
100
AcDbEntity
  8
0
100
AcDbCircle
 62
7
  6
CONTINUOUS
 10
22.25
 20
48.75
 40
0.3
100
AcDbArc
 50
270.0
 51
360.0
  0
ARC
  5
448
100
AcDbEntity
  8
0
100
AcDbCircle
 62
7
  6
CONTINUOUS
 10
22.25
 20
93.25
 40
0.3
100
AcDbArc
 50
0.0
 51
90.0
  0
ARC
  5
449
100
AcDbEntity
  8
0
100
AcDbCircle
 62
7
  6
CONTINUOUS
 10
22.25
 20
22.25
 40
0.3
100
AcDbArc
 50
0.0
 51
90.0
  0
ARC
  5
44A
100
AcDbEntity
  8
RACCORDO
100
AcDbCircle
 62
7
  6
CONTINUOUS
 10
-80.1509849228
 20
-25.9190890731
 40
3.0
100
AcDbArc
 50
0.0
 51
34.5592331192
  0
ARC
  5
44B
100
AcDbEntity
  8
RACCORDO
100
AcDbCircle
 62
7
  6
CONTINUOUS
 10
-80.1509849228
 20
-45.0809109269
 40
3.0
100
AcDbArc
 50
325.4407668808
 51
360.0
  0
ARC
  5
44C
100
AcDbEntity
  8
RACCORDO
100
AcDbCircle
 62
7
  6
CONTINUOUS
 10
-80.0455564708
 20
-97.0650079379
 40
2.999999998
100
AcDbArc
 50
37.0321099645
 51
37.1380579892
  0
ARC
  5
44D
100
AcDbEntity
  8
RACCORDO
100
AcDbCircle
 62
253
  6
CONTINUOUS
 10
-80.0318367843
 20
-97.0824491547
 40
2.9996543549
100
AcDbArc
 50
4.6877640103
 51
37.4558597836
  0
ARC
  5
44E
100
AcDbEntity
  8
0
100
AcDbCircle
 62
7
  6
CONTINUOUS
 10
-76.8568241619
 20
-23.6500573674
 40
1.0
100
AcDbArc
 50
180.0
 51
214.5592331192
  0
ARC
  5
44F
100
AcDbEntity
  8
RACCORDO
100
AcDbCircle
 62
7
  6
CONTINUOUS
 10
-76.8568241619
 20
-23.6500573674
 40
1.0
100
AcDbArc
 50
180.0
 51
214.5592331192
  0
ARC
  5
450
100
AcDbEntity
  8
0
100
AcDbCircle
 62
7
  6
CONTINUOUS
 10
-76.8568241619
 20
-94.6500573674
 40
1.0
100
AcDbArc
 50
180.0
 51
217.4559875559
  0
ARC
  5
451
100
AcDbEntity
  8
RACCORDO
100
AcDbCircle
 62
7
  6
CONTINUOUS
 10
-76.8568241619
 20
-94.6500573674
 40
1.0
100
AcDbArc
 50
180.0
 51
217.455987555
  0
ARC
  5
452
100
AcDbEntity
  8
0
100
AcDbCircle
 62
7
  6
CONTINUOUS
 10
-76.8568241619
 20
-47.3499426326
 40
1.0
100
AcDbArc
 50
145.4407668808
 51
180.0
  0
ARC
  5
453
100
AcDbEntity
  8
RACCORDO
100
AcDbCircle
 62
7
  6
CONTINUOUS
 10
-76.8568241619
 20
-47.3499426326
 40
1.0
100
AcDbArc
 50
145.4407668808
 51
180.0
  0
ARC
  5
454
100
AcDbEntity
  8
RACCORDO
100
AcDbCircle
 62
7
  6
CONTINUOUS
 10
-80.1509849228
 20
45.0809109269
 40
3.0
100
AcDbArc
 50
0.0
 51
34.5592331192
  0
ARC
  5
455
100
AcDbEntity
  8
RACCORDO
100
AcDbCircle
 62
7
  6
CONTINUOUS
 10
-80.1509849228
 20
25.9190890731
 40
3.0
100
AcDbArc
 50
325.4407668808
 51
360.0
  0
ARC
  5
456
100
AcDbEntity
  8
RACCORDO
100
AcDbCircle
 62
253
  6
CONTINUOUS
 10
-80.0318370635
 20
97.0824487759
 40
2.9996543264
100
AcDbArc
 50
322.5441492043
 51
355.3122436376
  0
ARC
  5
457
100
AcDbEntity
  8
0
100
AcDbCircle
 62
7
  6
CONTINUOUS
 10
-76.8568241619
 20
47.3499426326
 40
1.0
100
AcDbArc
 50
180.0
 51
214.5592331192
  0
ARC
  5
458
100
AcDbEntity
  8
RACCORDO
100
AcDbCircle
 62
7
  6
CONTINUOUS
 10
-76.8568241619
 20
47.3499426326
 40
1.0
100
AcDbArc
 50
180.0
 51
214.5592331192
  0
ARC
  5
459
100
AcDbEntity
  8
0
100
AcDbCircle
 62
7
  6
CONTINUOUS
 10
-76.8568241619
 20
94.6500573674
 40
1.0
100
AcDbArc
 50
142.5440124441
 51
180.0
  0
ARC
  5
45A
100
AcDbEntity
  8
RACCORDO
100
AcDbCircle
 62
7
  6
CONTINUOUS
 10
-76.8568241619
 20
94.6500573674
 40
1.0
100
AcDbArc
 50
142.5440124807
 51
180.0
  0
ARC
  5
45B
100
AcDbEntity
  8
0
100
AcDbCircle
 62
7
  6
CONTINUOUS
 10
-76.8568241619
 20
23.6500573674
 40
1.0
100
AcDbArc
 50
145.4407668808
 51
180.0
  0
ARC
  5
45C
100
AcDbEntity
  8
RACCORDO
100
AcDbCircle
 62
7
  6
CONTINUOUS
 10
-76.8568241619
 20
23.6500573674
 40
1.0
100
AcDbArc
 50
145.4407668808
 51
180.0
  0
ARC
  5
45D
100
AcDbEntity
  8
RACCORDO
100
AcDbCircle
 62
7
  6
CONTINUOUS
 10
-73.3686411045
 20
-109.7294159964
 40
1.0
100
AcDbArc
 50
263.0599222542
 51
266.8000000249
  0
ARC
  5
45E
100
AcDbEntity
  8
RACCORDO
100
AcDbCircle
 62
253
  6
CONTINUOUS
 10
-73.2082478157
 20
-109.7389272835
 40
0.9994715101
100
AcDbArc
 50
187.7553110491
 51
266.7830913741
  0
ARC
  5
45F
100
AcDbEntity
  8
RACCORDO
100
AcDbCircle
 62
7
  6
CONTINUOUS
 10
-73.3686411043
 20
109.7294159964
 40
1.0
100
AcDbArc
 50
93.1999999869
 51
96.9400777613
  0
ARC
  5
460
100
AcDbEntity
  8
RACCORDO
100
AcDbCircle
 62
253
  6
CONTINUOUS
 10
-73.2082472987
 20
109.7389295323
 40
0.9994719856
100
AcDbArc
 50
93.2169454077
 51
172.2448206717
  0
SPLINE
  5
461
100
AcDbEntity
  8
RACCORDO
100
AcDbSpline
 62
253
  6
CONTINUOUS
 70
0
 71
3
 72
32
 73
28
 74
26
 42
0.0000001
 43
0.0000001
 44
0.0000000001
 12
25.2766868901
 22
-0.7843888457
 32
0.0
 13
25.2888545343
 23
0.0015315179
 33
0.0
 40
0.0
 40
0.0
 40
0.0
 40
0.0
 40
0.0078092678
 40
0.0156202078
 40
0.0195261803
 40
0.0234323775
 40
0.0273385434
 40
0.031244709
 40
0.0390570119
 40
0.0468693163
 40
0.0624938883
 40
0.078118427
 40
0.0937429368
 40
0.1249919339
 40
0.1562410385
 40
0.1718656039
 40
0.1874900065
 40
0.2187387785
 40
0.2499882106
 40
0.3124879174
 40
0.3749878089
 40
0.4374880986
 40
0.4999889011
 40
0.6249913606
 40
0.7499942229
 40
0.8749970993
 40
1.0
 40
1.0
 40
1.0
 40
1.0
 10
-37.0373529125
 20
-109.8738010161
 30
0.0
 10
-36.9715554401
 20
-109.8758428503
 30
0.0
 10
-36.839955896
 20
-109.8802232591
 30
0.0
 10
-36.675465438
 20
-109.8862200358
 30
0.0
 10
-36.5438839165
 20
-109.891702991
 30
0.0
 10
-36.4452309628
 20
-109.8969198415
 30
0.0
 10
-36.3464506454
 20
-109.8986346885
 30
0.0
 10
-36.2147528436
 20
-109.9001138127
 30
0.0
 10
-36.0501261143
 20
-109.9021025253
 30
0.0
 10
-35.7867296196
 20
-109.9054654207
 30
0.0
 10
-35.4574831583
 20
-109.9096585131
 30
0.0
 10
-35.062391523
 20
-109.9149175634
 30
0.0
 10
-34.5356058716
 20
-109.9221064618
 30
0.0
 10
-33.8771282506
 20
-109.9314454783
 30
0.0
 10
-33.2186581487
 20
-109.9413332205
 30
0.0
 10
-32.6918736453
 20
-109.9486264096
 30
0.0
 10
-32.1650750271
 20
-109.9546661017
 30
0.0
 10
-31.5066328419
 20
-109.96639641
 30
0.0
 10
-30.4530987663
 20
-109.9842612857
 30
0.0
 10
-29.1360535905
 20
-109.9988393056
 30
0.0
 10
-27.5556171189
 20
-110.0178294314
 30
0.0
 10
-25.9751555847
 20
-110.0357087614
 30
0.0
 10
-23.8678134269
 20
-110.055587789
 30
0.0
 10
-21.2335340034
 20
-110.0702053549
 30
0.0
 10
-18.0723516875
 20
-110.0729816478
 30
0.0
 10
-14.9111776592
 20
-110.0670016733
 30
0.0
 10
-12.8037267243
 20
-110.0629345583
 30
0.0
 10
-11.75
 20
-110.0628707436
 30
0.0
 11
-37.0373529125
 21
-109.8738010161
 31
0.0
 11
-36.8399733286
 21
-109.8803269645
 31
0.0
 11
-36.6425793042
 21
-109.8876475705
 31
0.0
 11
-36.5438927474
 21
-109.8918869473
 31
0.0
 11
-36.4452097428
 21
-109.8963361684
 31
0.0
 11
-36.3464517292
 21
-109.8985337723
 31
0.0
 11
-36.2476768054
 21
-109.8997533543
 31
0.0
 11
-36.05012685
 21
-109.9021251453
 31
0.0
 11
-35.852578425
 21
-109.9046239984
 31
0.0
 11
-35.4574834544
 21
-109.9096964081
 31
0.0
 11
-35.0623915585
 21
-109.9149396722
 31
0.0
 11
-34.6673024074
 21
-109.9203327658
 31
0.0
 11
-33.8771307536
 21
-109.9315552088
 31
0.0
 11
-33.086961101
 21
-109.9431051036
 31
0.0
 11
-32.6918701584
 21
-109.9484697442
 31
0.0
 11
-32.2967781107
 21
-109.9534348932
 31
0.0
 11
-31.5066369158
 21
-109.9662833298
 31
0.0
 11
-30.71648142
 21
-109.9792780764
 31
0.0
 11
-29.1360595817
 21
-109.9990886876
 31
0.0
 11
-27.555617837
 21
-110.0176442418
 31
0.0
 11
-25.9751547532
 21
-110.0352136827
 31
0.0
 11
-24.3946496145
 21
-110.0499358885
 31
0.0
 11
-21.2335307569
 21
-110.0677445411
 31
0.0
 11
-18.0723538072
 21
-110.0715222695
 31
0.0
 11
-14.9111775058
 21
-110.0669815574
 31
0.0
 11
-11.75
 21
-110.0628707436
 31
0.0
  0
SPLINE
  5
462
100
AcDbEntity
  8
RACCORDO
100
AcDbSpline
 62
253
  6
CONTINUOUS
 70
0
 71
3
 72
18
 73
14
 74
12
 42
0.0000001
 43
0.0000001
 44
0.0000000001
 12
0.0063265811
 22
-0.864837675
 32
0.0
 13
0.4873578151
 23
-0.7144694465
 33
0.0
 40
0.0
 40
0.0
 40
0.0
 40
0.0
 40
0.1941910833
 40
0.3780372652
 40
0.546029509
 40
0.6932522866
 40
0.8153422937
 40
0.8658158837
 40
0.9087283995
 40
0.9437793957
 40
0.9707392187
 40
0.9894575667
 40
1.0
 40
1.0
 40
1.0
 40
1.0
 10
-37.0373529126
 20
-109.8738010166
 30
0.0
 10
-37.0369433908
 20
-109.9297822715
 30
0.0
 10
-37.0357916497
 20
-110.0387604345
 30
0.0
 10
-37.033010673
 20
-110.1961502636
 30
0.0
 10
-37.0292990982
 20
-110.3399777777
 30
0.0
 10
-37.0247745859
 20
-110.46596668
 30
0.0
 10
-37.0202450692
 20
-110.5580540075
 30
0.0
 10
-37.0161502125
 20
-110.6200346108
 30
0.0
 10
-37.0131869335
 20
-110.6569549446
 30
0.0
 10
-37.0101231245
 20
-110.6870214047
 30
0.0
 10
-37.0071282889
 20
-110.7101780436
 30
0.0
 10
-37.0039968113
 20
-110.7259474994
 30
0.0
 10
-37.0017126457
 20
-110.7342986191
 30
0.0
 10
-37.0
 20
-110.7368093679
 30
0.0
 11
-37.0373529126
 21
-109.8738010166
 31
0.0
 11
-37.0355559935
 21
-110.041739662
 31
0.0
 11
-37.0327047483
 21
-110.2007154542
 31
0.0
 11
-37.0288841673
 21
-110.3459551209
 31
0.0
 11
-37.0242072899
 21
-110.4731964099
 31
0.0
 11
-37.0188126406
 21
-110.5786493763
 31
0.0
 11
-37.0158955463
 21
-110.6222044297
 31
0.0
 11
-37.0128607969
 21
-110.6591934997
 31
0.0
 11
-37.0097304041
 21
-110.68934567
 31
0.0
 11
-37.0065265488
 21
-110.7124409991
 31
0.0
 11
-37.0032736392
 21
-110.728299584
 31
0.0
 11
-37.0
 21
-110.7368093679
 31
0.0
  0
SPLINE
  5
463
100
AcDbEntity
  8
RACCORDO
100
AcDbSpline
 62
253
  6
CONTINUOUS
 70
0
 71
3
 72
18
 73
14
 74
12
 42
0.0000001
 43
0.0000001
 44
0.0000000001
 12
-0.8634475106
 22
0.0091010701
 32
0.0
 13
-0.6206490137
 23
0.6003492606
 33
0.0
 40
0.0
 40
0.0
 40
0.0
 40
0.0
 40
0.193929905
 40
0.3774731014
 40
0.5451658707
 40
0.692138568
 40
0.8140772474
 40
0.8645310174
 40
0.9074734812
 40
0.9426191005
 40
0.9697640572
 40
0.988813886
 40
1.0
 40
1.0
 40
1.0
 40
1.0
 10
-38.8761260681
 20
-108.052896806
 30
0.0
 10
-38.931942166
 20
-108.0523084827
 30
0.0
 10
-39.0405805393
 20
-108.0506633512
 30
0.0
 10
-39.1974493774
 20
-108.0467103258
 30
0.0
 10
-39.3407578211
 20
-108.0414458427
 30
0.0
 10
-39.4662655115
 20
-108.0350376865
 30
0.0
 10
-39.5579793152
 20
-108.0286237294
 30
0.0
 10
-39.6196861547
 20
-108.0228357667
 30
0.0
 10
-39.656461351
 20
-108.0186342272
 30
0.0
 10
-39.6864133218
 20
-108.0143222918
 30
0.0
 10
-39.7095249961
 20
-108.0100156047
 30
0.0
 10
-39.7253013462
 20
-108.0056829161
 30
0.0
 10
-39.7336358776
 20
-108.0022385249
 30
0.0
 10
-39.7359500944
 20
-107.9999999999
 30
0.0
 11
-38.8761260681
 21
-108.052896806
 31
0.0
 11
-39.0435639879
 21
-108.0503298669
 31
0.0
 11
-39.2020008883
 21
-108.0462773677
 31
0.0
 11
-39.3467014455
 21
-108.0408595572
 31
0.0
 11
-39.4734387413
 21
-108.0342359898
 31
0.0
 11
-39.5784551311
 21
-108.026601952
 31
0.0
 11
-39.621825881
 21
-108.0224755897
 31
0.0
 11
-39.658657277
 21
-108.0181836342
 31
0.0
 11
-39.6886807963
 21
-108.0137570732
 31
0.0
 11
-39.7116784476
 21
-108.0092271273
 31
0.0
 11
-39.7274719117
 21
-108.0046281492
 31
0.0
 11
-39.7359500944
 21
-107.9999999999
 31
0.0
  0
SPLINE
  5
464
100
AcDbEntity
  8
RACCORDO
100
AcDbSpline
 62
253
  6
CONTINUOUS
 70
0
 71
3
 72
18
 73
14
 74
12
 42
0.0000001
 43
0.0000001
 44
0.0000000001
 12
-0.8634501415
 22
-0.0091009404
 32
0.0
 13
-0.6206524223
 23
-0.6003495186
 33
0.0
 40
0.0
 40
0.0
 40
0.0
 40
0.0
 40
0.1939297322
 40
0.377472828
 40
0.5451655637
 40
0.6921382834
 40
0.814077025
 40
0.8645308349
 40
0.9074733409
 40
0.9426190021
 40
0.9697639979
 40
0.9888138607
 40
1.0
 40
1.0
 40
1.0
 40
1.0
 10
-38.8761261139
 20
108.0528968235
 30
0.0
 10
-38.9319423322
 20
108.0523085092
 30
0.0
 10
-39.0405809579
 20
108.0506633925
 30
0.0
 10
-39.1974501859
 20
108.0467103826
 30
0.0
 10
-39.3407590348
 20
108.0414459075
 30
0.0
 10
-39.4662671231
 20
108.0350377518
 30
0.0
 10
-39.5579812429
 20
108.0286237894
 30
0.0
 10
-39.619688313
 20
108.0228358187
 30
0.0
 10
-39.6564636576
 20
108.0186342716
 30
0.0
 10
-39.6864157563
 20
108.0143223272
 30
0.0
 10
-39.7095275347
 20
108.0100156303
 30
0.0
 10
-39.7253039637
 20
108.0056829301
 30
0.0
 10
-39.733638538
 20
108.0022385311
 30
0.0
 10
-39.7359527728
 20
108.0
 30
0.0
 11
-38.8761261139
 21
108.0528968235
 31
0.0
 11
-39.0435643949
 21
108.050329908
 31
0.0
 11
-39.2020016915
 21
108.0462774246
 31
0.0
 11
-39.3467026612
 21
108.040859622
 31
0.0
 11
-39.4734403635
 21
108.0342360547
 31
0.0
 11
-39.5784571281
 21
108.0266020097
 31
0.0
 11
-39.6218280452
 21
108.0224756412
 31
0.0
 11
-39.6586595907
 21
108.0181836779
 31
0.0
 11
-39.6886832386
 21
108.0137571077
 31
0.0
 11
-39.7116809949
 21
108.0092271514
 31
0.0
 11
-39.7274745384
 21
108.0046281617
 31
0.0
 11
-39.7359527728
 21
108.0
 31
0.0
  0
SPLINE
  5
465
100
AcDbEntity
  8
RACCORDO
100
AcDbSpline
 62
253
  6
CONTINUOUS
 70
0
 71
3
 72
18
 73
14
 74
12
 42
0.0000001
 43
0.0000001
 44
0.0000000001
 12
0.0063267441
 22
0.86483504
 32
0.0
 13
0.4873579808
 23
0.7144661452
 33
0.0
 40
0.0
 40
0.0
 40
0.0
 40
0.0
 40
0.1941912616
 40
0.3780375481
 40
0.5460298279
 40
0.6932525837
 40
0.8153425276
 40
0.8658160768
 40
0.9087285491
 40
0.9437795019
 40
0.9707392838
 40
0.9894575956
 40
1.0
 40
1.0
 40
1.0
 40
1.0
 10
-37.0373529021
 20
109.8738009785
 30
0.0
 10
-37.0369433693
 20
109.9297821143
 30
0.0
 10
-37.0357916109
 20
110.0387600267
 30
0.0
 10
-37.0330106181
 20
110.196149468
 30
0.0
 10
-37.0292990366
 20
110.3399765779
 30
0.0
 10
-37.0247745257
 20
110.4659650819
 30
0.0
 10
-37.0202450156
 20
110.5580520924
 30
0.0
 10
-37.0161501673
 20
110.620032464
 30
0.0
 10
-37.0131868956
 20
110.6569526484
 30
0.0
 10
-37.0101230948
 20
110.6870189795
 30
0.0
 10
-37.0071282681
 20
110.7101755134
 30
0.0
 10
-37.0039967997
 20
110.7259448887
 30
0.0
 10
-37.0017126415
 20
110.7342959654
 30
0.0
 10
-36.9999999999
 20
110.7368066957
 30
0.0
 11
-37.0373529021
 21
109.8738009785
 31
0.0
 11
-37.0355559555
 21
110.0417392664
 31
0.0
 11
-37.0327046939
 21
110.2007146645
 31
0.0
 11
-37.0288841062
 21
110.3459539195
 31
0.0
 11
-37.0242072303
 21
110.4731948016
 31
0.0
 11
-37.0188125895
 21
110.5786473918
 31
0.0
 11
-37.0158955016
 21
110.6222022771
 31
0.0
 11
-37.0128607596
 21
110.6591911966
 31
0.0
 11
-37.0097303753
 21
110.6893432371
 31
0.0
 11
-37.0065265291
 21
110.71243846
 31
0.0
 11
-37.0032736292
 21
110.7282969646
 31
0.0
 11
-36.9999999999
 21
110.7368066957
 31
0.0
  0
SPLINE
  5
466
100
AcDbEntity
  8
RACCORDO
100
AcDbSpline
 62
253
  6
CONTINUOUS
 70
0
 71
3
 72
18
 73
14
 74
12
 42
0.0000001
 43
0.0000001
 44
0.0000000001
 12
-0.0063265811
 22
0.864837675
 32
0.0
 13
-0.4873578151
 23
0.7144694465
 33
0.0
 40
0.0
 40
0.0
 40
0.0
 40
0.0
 40
0.1941910833
 40
0.3780372652
 40
0.546029509
 40
0.6932522866
 40
0.8153422937
 40
0.8658158837
 40
0.9087283995
 40
0.9437793957
 40
0.9707392187
 40
0.9894575667
 40
1.0
 40
1.0
 40
1.0
 40
1.0
 10
37.0373529126
 20
109.8738010166
 30
0.0
 10
37.0369433908
 20
109.9297822715
 30
0.0
 10
37.0357916497
 20
110.0387604345
 30
0.0
 10
37.033010673
 20
110.1961502636
 30
0.0
 10
37.0292990982
 20
110.3399777777
 30
0.0
 10
37.0247745859
 20
110.46596668
 30
0.0
 10
37.0202450692
 20
110.5580540075
 30
0.0
 10
37.0161502125
 20
110.6200346108
 30
0.0
 10
37.0131869335
 20
110.6569549446
 30
0.0
 10
37.0101231245
 20
110.6870214047
 30
0.0
 10
37.0071282889
 20
110.7101780436
 30
0.0
 10
37.0039968113
 20
110.7259474994
 30
0.0
 10
37.0017126457
 20
110.7342986191
 30
0.0
 10
37.0
 20
110.7368093679
 30
0.0
 11
37.0373529126
 21
109.8738010166
 31
0.0
 11
37.0355559935
 21
110.041739662
 31
0.0
 11
37.0327047483
 21
110.2007154542
 31
0.0
 11
37.0288841673
 21
110.3459551209
 31
0.0
 11
37.0242072899
 21
110.4731964099
 31
0.0
 11
37.0188126406
 21
110.5786493763
 31
0.0
 11
37.0158955463
 21
110.6222044297
 31
0.0
 11
37.0128607969
 21
110.6591934997
 31
0.0
 11
37.0097304041
 21
110.68934567
 31
0.0
 11
37.0065265488
 21
110.7124409991
 31
0.0
 11
37.0032736392
 21
110.728299584
 31
0.0
 11
37.0
 21
110.7368093679
 31
0.0
  0
SPLINE
  5
467
100
AcDbEntity
  8
RACCORDO
100
AcDbSpline
 62
253
  6
CONTINUOUS
 70
0
 71
3
 72
18
 73
14
 74
12
 42
0.0000001
 43
0.0000001
 44
0.0000000001
 12
0.8634475106
 22
-0.0091010701
 32
0.0
 13
0.6206490137
 23
-0.6003492606
 33
0.0
 40
0.0
 40
0.0
 40
0.0
 40
0.0
 40
0.193929905
 40
0.3774731014
 40
0.5451658707
 40
0.692138568
 40
0.8140772474
 40
0.8645310174
 40
0.9074734812
 40
0.9426191005
 40
0.9697640572
 40
0.988813886
 40
1.0
 40
1.0
 40
1.0
 40
1.0
 10
38.8761260681
 20
108.052896806
 30
0.0
 10
38.931942166
 20
108.0523084827
 30
0.0
 10
39.0405805393
 20
108.0506633512
 30
0.0
 10
39.1974493774
 20
108.0467103258
 30
0.0
 10
39.3407578211
 20
108.0414458427
 30
0.0
 10
39.4662655115
 20
108.0350376865
 30
0.0
 10
39.5579793152
 20
108.0286237294
 30
0.0
 10
39.6196861547
 20
108.0228357667
 30
0.0
 10
39.656461351
 20
108.0186342272
 30
0.0
 10
39.6864133218
 20
108.0143222918
 30
0.0
 10
39.7095249961
 20
108.0100156047
 30
0.0
 10
39.7253013462
 20
108.0056829161
 30
0.0
 10
39.7336358776
 20
108.0022385249
 30
0.0
 10
39.7359500944
 20
107.9999999999
 30
0.0
 11
38.8761260681
 21
108.052896806
 31
0.0
 11
39.0435639879
 21
108.0503298669
 31
0.0
 11
39.2020008883
 21
108.0462773677
 31
0.0
 11
39.3467014455
 21
108.0408595572
 31
0.0
 11
39.4734387413
 21
108.0342359898
 31
0.0
 11
39.5784551311
 21
108.026601952
 31
0.0
 11
39.621825881
 21
108.0224755897
 31
0.0
 11
39.658657277
 21
108.0181836342
 31
0.0
 11
39.6886807963
 21
108.0137570732
 31
0.0
 11
39.7116784476
 21
108.0092271273
 31
0.0
 11
39.7274719117
 21
108.0046281492
 31
0.0
 11
39.7359500944
 21
107.9999999999
 31
0.0
  0
SPLINE
  5
468
100
AcDbEntity
  8
RACCORDO
100
AcDbSpline
 62
253
  6
CONTINUOUS
 70
0
 71
3
 72
15
 73
11
 74
9
 42
0.0000001
 43
0.0000001
 44
0.0000000001
 12
0.0997215961
 22
-2.8407109012
 32
0.0
 13
2.8410889743
 23
-0.0882964383
 33
0.0
 40
0.0
 40
0.0
 40
0.0
 40
0.0
 40
0.1249235801
 40
0.2499024165
 40
0.3749166045
 40
0.499944713
 40
0.6249770594
 40
0.750005469
 40
0.8750151808
 40
1.0
 40
1.0
 40
1.0
 40
1.0
 10
-38.876126114
 20
-108.0528968235
 30
0.0
 10
-38.8719735877
 20
-108.1711874155
 30
0.0
 10
-38.8403659421
 20
-108.4076081182
 30
0.0
 10
-38.7268327099
 20
-108.7463192364
 30
0.0
 10
-38.5520546534
 20
-109.0581055463
 30
0.0
 10
-38.3223846191
 20
-109.3319950716
 30
0.0
 10
-38.0459350985
 20
-109.5585942726
 30
0.0
 10
-37.7322476856
 20
-109.7300017625
 30
0.0
 10
-37.3923680287
 20
-109.8402318269
 30
0.0
 10
-37.1557172431
 20
-109.8701224447
 30
0.0
 10
-37.0373529125
 20
-109.8738010161
 30
0.0
 11
-38.876126114
 21
-108.0528968235
 31
0.0
 11
-38.829360687
 21
-108.4048942147
 31
0.0
 11
-38.7166449645
 21
-108.7417857444
 31
0.0
 11
-38.5429179256
 21
-109.0517713206
 31
0.0
 11
-38.3145923109
 21
-109.3241087544
 31
0.0
 11
-38.0397230842
 21
-109.5493990884
 31
0.0
 11
-37.7278589958
 21
-109.7198152346
 31
0.0
 11
-37.3898241756
 21
-109.829339476
 31
0.0
 11
-37.0373529125
 21
-109.8738010161
 31
0.0
  0
SPLINE
  5
469
100
AcDbEntity
  8
RACCORDO
100
AcDbSpline
 62
253
  6
CONTINUOUS
 70
0
 71
3
 72
15
 73
11
 74
9
 42
0.0000001
 43
0.0000001
 44
0.0000000001
 12
0.1115223436
 22
-36.999832
 32
0.0
 13
-0.0000127079
 23
-37.0000000711
 33
0.0
 40
0.0
 40
0.0
 40
0.0
 40
0.0
 40
0.0624794595
 40
0.1249766939
 40
0.1874762042
 40
0.2499773564
 40
0.3749808655
 40
0.4999845604
 40
0.7499922157
 40
1.0
 40
1.0
 40
1.0
 40
1.0
 10
-39.7359527728
 20
108.0
 30
0.0
 10
-39.7336301542
 20
107.2294234982
 30
0.0
 10
-39.7331847887
 20
105.6880417729
 30
0.0
 10
-39.7312387686
 20
103.3758370173
 30
0.0
 10
-39.7301793174
 20
101.0633628902
 30
0.0
 10
-39.7293679837
 20
97.9799782887
 30
0.0
 10
-39.7289795574
 20
94.1257085194
 30
0.0
 10
-39.7283154995
 20
87.9588586328
 30
0.0
 10
-39.7279178881
 20
80.2502892867
 30
0.0
 10
-39.7278533343
 20
74.0834321898
 30
0.0
 10
-39.7278543933
 20
71.0000028436
 30
0.0
 11
-39.7359527728
 21
108.0
 31
0.0
 11
-39.7329719366
 21
105.6882619155
 31
0.0
 11
-39.7313865836
 21
103.375864782
 31
0.0
 11
-39.7302544872
 21
101.0633831738
 31
0.0
 11
-39.7296125375
 21
98.750840628
 31
0.0
 11
-39.7289742359
 21
94.1257108247
 31
0.0
 11
-39.728510345
 21
89.5005741268
 31
0.0
 11
-39.727981272
 21
80.2502908811
 31
0.0
 11
-39.7278543933
 21
71.0000028436
 31
0.0
  0
SPLINE
  5
46A
100
AcDbEntity
  8
RACCORDO
100
AcDbSpline
 62
253
  6
CONTINUOUS
 70
0
 71
3
 72
35
 73
31
 74
29
 42
0.0000001
 43
0.0000001
 44
0.0000000001
 12
0.0002202935
 22
37.0550502507
 32
0.0
 13
-1.2979641719
 23
37.0323107318
 33
0.0
 40
0.0
 40
0.0
 40
0.0
 40
0.0
 40
0.2500047593
 40
0.3750071286
 40
0.5000094756
 40
0.5625106366
 40
0.6250117855
 40
0.6875129207
 40
0.7187634818
 40
0.7500140301
 40
0.8125149094
 40
0.8437651428
 40
0.8750151009
 40
0.890639946
 40
0.906264693
 40
0.9218893486
 40
0.9375139293
 40
0.9453261969
 40
0.9531384494
 40
0.9570445721
 40
0.9609506993
 40
0.9648568263
 40
0.968762914
 40
0.972668758
 40
0.9746218674
 40
0.9765750059
 40
0.9804810111
 40
0.9843864071
 40
0.9921948569
 40
1.0
 40
1.0
 40
1.0
 40
1.0
 10
39.0629215791
 20
70.999999997
 30
0.0
 10
39.0629399373
 20
74.0879796368
 30
0.0
 10
39.0620302023
 20
78.7199493718
 30
0.0
 10
39.0565329907
 20
84.8959059294
 30
0.0
 10
39.0509613587
 20
88.7558758098
 30
0.0
 10
39.0451033843
 20
91.8438486771
 30
0.0
 10
39.0398874938
 20
94.1598260484
 30
0.0
 10
39.0350540677
 20
96.0898056539
 30
0.0
 10
39.0306053463
 20
97.633787555
 30
0.0
 10
39.0245094187
 20
99.1777607027
 30
0.0
 10
39.0140963073
 20
100.7217122845
 30
0.0
 10
38.9981344049
 20
102.2656047506
 30
0.0
 10
38.9859149516
 20
103.230503881
 30
0.0
 10
38.9751052518
 20
104.0024028812
 30
0.0
 10
38.9666918021
 20
104.5813176306
 30
0.0
 10
38.9581161361
 20
105.1602267338
 30
0.0
 10
38.9509477544
 20
105.6426487601
 30
0.0
 10
38.945169961
 20
106.0285846153
 30
0.0
 10
38.9416188643
 20
106.2697945417
 30
0.0
 10
38.938871176
 20
106.4627644309
 30
0.0
 10
38.9367050828
 20
106.6074882758
 30
0.0
 10
38.9342562717
 20
106.752215211
 30
0.0
 10
38.9322853972
 20
106.8969162931
 30
0.0
 10
38.9323069878
 20
107.0176141766
 30
0.0
 10
38.925094708
 20
107.1138654779
 30
0.0
 10
38.9178275713
 20
107.2100786162
 30
0.0
 10
38.9091818553
 20
107.3303829801
 30
0.0
 10
38.8980703429
 20
107.5229972498
 30
0.0
 10
38.886801077
 20
107.7638318313
 30
0.0
 10
38.8795030461
 20
107.9565493283
 30
0.0
 10
38.876126114
 20
108.0528968235
 30
0.0
 11
39.0629215791
 21
70.999999997
 31
0.0
 11
39.0602988799
 21
80.2639385452
 31
0.0
 11
39.0561058153
 21
84.8959057216
 31
0.0
 11
39.0493801422
 21
89.5278690887
 31
0.0
 11
39.0449663155
 21
91.8438485443
 31
0.0
 11
39.0397901231
 21
94.1598259742
 31
0.0
 11
39.0338933884
 21
96.4758011721
 31
0.0
 11
39.0303994434
 21
97.633787015
 31
0.0
 11
39.0256736234
 21
98.7917680087
 31
0.0
 11
39.0096433826
 21
101.1076857522
 31
0.0
 11
38.9976856956
 21
102.2656029815
 31
0.0
 11
38.983126304
 21
103.4234802174
 31
0.0
 11
38.9750541932
 21
104.002403363
 31
0.0
 11
38.9666647415
 21
104.5813183632
 31
0.0
 11
38.9581117182
 21
105.1602275808
 31
0.0
 11
38.9494997068
 21
105.739133149
 31
0.0
 11
38.9451819614
 21
106.028584918
 31
0.0
 11
38.940939707
 21
106.3180372398
 31
0.0
 11
38.9388536223
 21
106.4627637799
 31
0.0
 11
38.9366579619
 21
106.6074888651
 31
0.0
 11
38.9343359123
 21
106.7522119715
 31
0.0
 11
38.9326181696
 21
106.8969420522
 31
0.0
 11
38.9299016562
 21
107.0416478013
 31
0.0
 11
38.9250878962
 21
107.1138601008
 31
0.0
 11
38.9196733429
 21
107.1860309193
 31
0.0
 11
38.9095212595
 21
107.3304116608
 31
0.0
 11
38.901021368
 21
107.4748764661
 31
0.0
 11
38.8872284644
 21
107.7638900255
 31
0.0
 11
38.876126114
 21
108.0528968235
 31
0.0
  0
SPLINE
  5
46B
100
AcDbEntity
  8
RACCORDO
100
AcDbSpline
 62
253
  6
CONTINUOUS
 70
0
 71
3
 72
15
 73
11
 74
9
 42
0.0000001
 43
0.0000001
 44
0.0000000001
 12
-0.0002440722
 22
22.2273327088
 32
0.0
 13
-0.0265128508
 23
22.2273168978
 33
0.0
 40
0.0
 40
0.0
 40
0.0
 40
0.0
 40
0.2500002344
 40
0.5000004595
 40
0.6250005582
 40
0.7500006238
 40
0.8125006444
 40
0.8750006623
 40
0.9375006217
 40
1.0
 40
1.0
 40
1.0
 40
1.0
 10
25.8563908699
 20
71.0
 30
0.0
 10
25.8563705306
 20
72.8522794624
 30
0.0
 10
25.85691181
 20
76.5568382959
 30
0.0
 10
25.8550250228
 20
81.1875368318
 30
0.0
 10
25.8510516644
 20
84.8920932107
 30
0.0
 10
25.8470837791
 20
87.2074385237
 30
0.0
 10
25.842695007
 20
89.0597120259
 30
0.0
 10
25.8380415909
 20
90.448912604
 30
0.0
 10
25.8346967923
 20
91.8381124267
 30
0.0
 10
25.8335598746
 20
92.7642457953
 30
0.0
 10
25.833007529
 20
93.2273102911
 30
0.0
 11
25.8563908699
 21
71.0
 31
0.0
 11
25.8563991327
 21
76.5568383876
 31
0.0
 11
25.8538263556
 21
82.1136759729
 31
0.0
 11
25.8507547567
 21
84.8920930573
 31
0.0
 11
25.8458853804
 21
87.6705068383
 31
0.0
 11
25.8424680338
 21
89.0597113873
 31
0.0
 11
25.8382596906
 21
90.4489137039
 31
0.0
 11
25.8349700204
 21
91.8381172018
 31
0.0
 11
25.833007529
 21
93.2273102911
 31
0.0
  0
SPLINE
  5
46C
100
AcDbEntity
  8
RACCORDO
100
AcDbSpline
 62
253
  6
CONTINUOUS
 70
0
 71
3
 72
34
 73
30
 74
28
 42
0.0000001
 43
0.0000001
 44
0.0000000001
 12
-0.0067264543
 22
5.6697067597
 32
0.0
 13
-5.6695375138
 23
0.0443211568
 33
0.0
 40
0.0
 40
0.0
 40
0.0
 40
0.0
 40
0.0624920114
 40
0.124981588
 40
0.1562358067
 40
0.1874886379
 40
0.2031157128
 40
0.2187420178
 40
0.2343686655
 40
0.249995985
 40
0.2656238603
 40
0.2812515019
 40
0.3125051458
 40
0.3437596104
 40
0.375014812
 40
0.4375036563
 40
0.49999315
 40
0.5624818933
 40
0.59373625
 40
0.6249901543
 40
0.6562451951
 40
0.687500768
 40
0.7499887377
 40
0.7812443135
 40
0.8124999264
 40
0.8437555915
 40
0.8750110686
 40
0.9375083553
 40
1.0
 40
1.0
 40
1.0
 40
1.0
 10
25.833007529
 20
93.2273102911
 30
0.0
 10
25.8328674125
 20
93.3454140843
 30
0.0
 10
25.8208105721
 20
93.5817619781
 30
0.0
 10
25.7759251883
 20
93.8741617412
 30
0.0
 10
25.7218269394
 20
94.1042005655
 30
0.0
 10
25.680925222
 20
94.246169022
 30
0.0
 10
25.643284056
 20
94.3581639547
 30
0.0
 10
25.6121421622
 20
94.4411225961
 30
0.0
 10
25.5794370128
 20
94.5234671363
 30
0.0
 10
25.5485538412
 20
94.6065156737
 30
0.0
 10
25.517007933
 20
94.6893183762
 30
0.0
 10
25.472054888
 20
94.7985837895
 30
0.0
 10
25.4100565344
 20
94.9326950687
 30
0.0
 10
25.3272056356
 20
95.089435708
 30
0.0
 10
25.2055266388
 20
95.2920361523
 30
0.0
 10
25.0330846187
 20
95.5324967888
 30
0.0
 10
24.7962589338
 20
95.7968865333
 30
0.0
 10
24.5766313391
 20
95.9951053216
 30
0.0
 10
24.3895192668
 20
96.1394514353
 30
0.0
 10
24.2435888808
 20
96.2401288333
 30
0.0
 10
24.0928083997
 20
96.3333487427
 30
0.0
 10
23.8864655305
 20
96.4485232902
 30
0.0
 10
23.6710371804
 20
96.5467234329
 30
0.0
 10
23.4493327401
 20
96.6284851917
 30
0.0
 10
23.2801982695
 20
96.6816151545
 30
0.0
 10
23.1086715082
 20
96.7264643543
 30
0.0
 10
22.8774052029
 20
96.7748853084
 30
0.0
 10
22.5857505284
 20
96.8232781131
 30
0.0
 10
22.3493458077
 20
96.836377169
 30
0.0
 10
22.231246233
 20
96.837300403
 30
0.0
 11
25.833007529
 21
93.2273102911
 31
0.0
 11
25.8148477451
 21
93.5811562359
 31
0.0
 11
25.7608904102
 21
93.9313212745
 31
0.0
 11
25.7204091916
 21
94.1038378079
 31
0.0
 11
25.6711053547
 21
94.2740348322
 31
0.0
 11
25.6427984352
 21
94.3579922888
 31
0.0
 11
25.6118818847
 21
94.4410195714
 31
0.0
 11
25.5797413081
 21
94.5235828222
 31
0.0
 11
25.5484438643
 21
94.6064734248
 31
0.0
 11
25.5166461719
 21
94.689176793
 31
0.0
 11
25.4829050272
 21
94.771105059
 31
0.0
 11
25.4086484817
 21
94.9319947536
 31
0.0
 11
25.3258025698
 21
95.0886399979
 31
0.0
 11
25.2345729809
 21
95.2405604388
 31
0.0
 11
25.0281004104
 21
95.5284720296
 31
0.0
 11
24.7918061733
 21
95.7924637881
 31
0.0
 11
24.528925662
 21
96.0299873391
 31
0.0
 11
24.3885897423
 21
96.1381852612
 31
0.0
 11
24.2427826547
 21
96.2388845404
 31
0.0
 11
24.0921421918
 21
96.3322107755
 31
0.0
 11
23.9372653962
 21
96.41833036
 31
0.0
 11
23.6151186964
 21
96.5657820336
 31
0.0
 11
23.4488619519
 21
96.6271180379
 31
0.0
 11
23.2797996189
 21
96.680235007
 31
0.0
 11
23.1083474508
 21
96.7250428625
 31
0.0
 11
22.9350292248
 21
96.761975294
 31
0.0
 11
22.5849666039
 21
96.8168759962
 31
0.0
 11
22.231246233
 21
96.837300403
 31
0.0
  0
SPLINE
  5
46D
100
AcDbEntity
  8
RACCORDO
100
AcDbSpline
 62
253
  6
CONTINUOUS
 70
0
 71
3
 72
13
 73
9
 74
7
 42
0.0000001
 43
0.0000001
 44
0.0000000001
 12
-10.4809661948
 22
0.0818569906
 32
0.0
 13
-10.4812856998
 23
0.0017383994
 33
0.0
 40
0.0
 40
0.0
 40
0.0
 40
0.0
 40
0.124999168
 40
0.2499992336
 40
0.374999232
 40
0.4999993648
 40
0.7499996874
 40
1.0
 40
1.0
 40
1.0
 40
1.0
 10
22.231246233
 20
96.837300403
 30
0.0
 10
21.794542215
 20
96.8407110883
 30
0.0
 10
20.9211150907
 20
96.8454077764
 30
0.0
 10
19.6109662202
 20
96.8502473769
 30
0.0
 10
18.3008094585
 20
96.8538821493
 30
0.0
 10
16.5539287752
 20
96.856617065
 30
0.0
 10
14.3703247302
 20
96.8577301495
 30
0.0
 10
12.623441567
 20
96.8574671061
 30
0.0
 10
11.75
 20
96.8576119729
 30
0.0
 11
22.231246233
 21
96.837300403
 31
0.0
 11
20.9211170849
 21
96.8450401894
 31
0.0
 11
19.6109652321
 21
96.850046571
 31
0.0
 11
18.3008093867
 21
96.8536182172
 31
0.0
 11
16.9906490465
 21
96.8557796316
 31
0.0
 11
14.3703247315
 21
96.8574417717
 31
0.0
 11
11.75
 21
96.8576119729
 31
0.0
  0
SPLINE
  5
46E
100
AcDbEntity
  8
RACCORDO
100
AcDbSpline
 62
253
  6
CONTINUOUS
 70
0
 71
3
 72
32
 73
28
 74
26
 42
0.0000001
 43
0.0000001
 44
0.0000000001
 12
-25.2766868901
 22
0.7843888457
 32
0.0
 13
-25.2888545343
 23
-0.0015315179
 33
0.0
 40
0.0
 40
0.0
 40
0.0
 40
0.0
 40
0.0078092678
 40
0.0156202078
 40
0.0195261803
 40
0.0234323775
 40
0.0273385434
 40
0.031244709
 40
0.0390570119
 40
0.0468693163
 40
0.0624938883
 40
0.078118427
 40
0.0937429368
 40
0.1249919339
 40
0.1562410385
 40
0.1718656039
 40
0.1874900065
 40
0.2187387785
 40
0.2499882106
 40
0.3124879174
 40
0.3749878089
 40
0.4374880986
 40
0.4999889011
 40
0.6249913606
 40
0.7499942229
 40
0.8749970993
 40
1.0
 40
1.0
 40
1.0
 40
1.0
 10
37.0373529125
 20
109.8738010161
 30
0.0
 10
36.9715554401
 20
109.8758428503
 30
0.0
 10
36.839955896
 20
109.8802232591
 30
0.0
 10
36.675465438
 20
109.8862200358
 30
0.0
 10
36.5438839165
 20
109.891702991
 30
0.0
 10
36.4452309628
 20
109.8969198415
 30
0.0
 10
36.3464506454
 20
109.8986346885
 30
0.0
 10
36.2147528436
 20
109.9001138127
 30
0.0
 10
36.0501261143
 20
109.9021025253
 30
0.0
 10
35.7867296196
 20
109.9054654207
 30
0.0
 10
35.4574831583
 20
109.9096585131
 30
0.0
 10
35.062391523
 20
109.9149175634
 30
0.0
 10
34.5356058716
 20
109.9221064618
 30
0.0
 10
33.8771282506
 20
109.9314454783
 30
0.0
 10
33.2186581487
 20
109.9413332205
 30
0.0
 10
32.6918736453
 20
109.9486264096
 30
0.0
 10
32.1650750271
 20
109.9546661017
 30
0.0
 10
31.5066328419
 20
109.96639641
 30
0.0
 10
30.4530987663
 20
109.9842612857
 30
0.0
 10
29.1360535905
 20
109.9988393056
 30
0.0
 10
27.5556171189
 20
110.0178294314
 30
0.0
 10
25.9751555847
 20
110.0357087614
 30
0.0
 10
23.8678134269
 20
110.055587789
 30
0.0
 10
21.2335340034
 20
110.0702053549
 30
0.0
 10
18.0723516875
 20
110.0729816478
 30
0.0
 10
14.9111776592
 20
110.0670016733
 30
0.0
 10
12.8037267243
 20
110.0629345583
 30
0.0
 10
11.75
 20
110.0628707436
 30
0.0
 11
37.0373529125
 21
109.8738010161
 31
0.0
 11
36.8399733286
 21
109.8803269645
 31
0.0
 11
36.6425793042
 21
109.8876475705
 31
0.0
 11
36.5438927474
 21
109.8918869473
 31
0.0
 11
36.4452097428
 21
109.8963361684
 31
0.0
 11
36.3464517292
 21
109.8985337723
 31
0.0
 11
36.2476768054
 21
109.8997533543
 31
0.0
 11
36.05012685
 21
109.9021251453
 31
0.0
 11
35.852578425
 21
109.9046239984
 31
0.0
 11
35.4574834544
 21
109.9096964081
 31
0.0
 11
35.0623915585
 21
109.9149396722
 31
0.0
 11
34.6673024074
 21
109.9203327658
 31
0.0
 11
33.8771307536
 21
109.9315552088
 31
0.0
 11
33.086961101
 21
109.9431051036
 31
0.0
 11
32.6918701584
 21
109.9484697442
 31
0.0
 11
32.2967781107
 21
109.9534348932
 31
0.0
 11
31.5066369158
 21
109.9662833298
 31
0.0
 11
30.71648142
 21
109.9792780764
 31
0.0
 11
29.1360595817
 21
109.9990886876
 31
0.0
 11
27.555617837
 21
110.0176442418
 31
0.0
 11
25.9751547532
 21
110.0352136827
 31
0.0
 11
24.3946496145
 21
110.0499358885
 31
0.0
 11
21.2335307569
 21
110.0677445411
 31
0.0
 11
18.0723538072
 21
110.0715222695
 31
0.0
 11
14.9111775058
 21
110.0669815574
 31
0.0
 11
11.75
 21
110.0628707436
 31
0.0
  0
SPLINE
  5
46F
100
AcDbEntity
  8
RACCORDO
100
AcDbSpline
 62
253
  6
CONTINUOUS
 70
0
 71
3
 72
15
 73
11
 74
9
 42
0.0000001
 43
0.0000001
 44
0.0000000001
 12
-0.0997215961
 22
2.8407109012
 32
0.0
 13
-2.8410889743
 23
0.0882964383
 33
0.0
 40
0.0
 40
0.0
 40
0.0
 40
0.0
 40
0.1249235801
 40
0.2499024165
 40
0.3749166045
 40
0.499944713
 40
0.6249770594
 40
0.750005469
 40
0.8750151808
 40
1.0
 40
1.0
 40
1.0
 40
1.0
 10
38.876126114
 20
108.0528968235
 30
0.0
 10
38.8719735877
 20
108.1711874155
 30
0.0
 10
38.8403659421
 20
108.4076081182
 30
0.0
 10
38.7268327099
 20
108.7463192364
 30
0.0
 10
38.5520546534
 20
109.0581055463
 30
0.0
 10
38.3223846191
 20
109.3319950716
 30
0.0
 10
38.0459350985
 20
109.5585942726
 30
0.0
 10
37.7322476856
 20
109.7300017625
 30
0.0
 10
37.3923680287
 20
109.8402318269
 30
0.0
 10
37.1557172431
 20
109.8701224447
 30
0.0
 10
37.0373529125
 20
109.8738010161
 30
0.0
 11
38.876126114
 21
108.0528968235
 31
0.0
 11
38.829360687
 21
108.4048942147
 31
0.0
 11
38.7166449645
 21
108.7417857444
 31
0.0
 11
38.5429179256
 21
109.0517713206
 31
0.0
 11
38.3145923109
 21
109.3241087544
 31
0.0
 11
38.0397230842
 21
109.5493990884
 31
0.0
 11
37.7278589958
 21
109.7198152346
 31
0.0
 11
37.3898241756
 21
109.829339476
 31
0.0
 11
37.0373529125
 21
109.8738010161
 31
0.0
  0
SPLINE
  5
470
100
AcDbEntity
  8
RACCORDO
100
AcDbSpline
 62
253
  6
CONTINUOUS
 70
0
 71
3
 72
32
 73
28
 74
26
 42
0.0000001
 43
0.0000001
 44
0.0000000001
 12
-25.2888545532
 22
0.001531573
 32
0.0
 13
-25.2766878315
 23
-0.7843591198
 33
0.0
 40
0.0
 40
0.0
 40
0.0
 40
0.0
 40
0.1250028995
 40
0.2500057744
 40
0.3750086354
 40
0.5000110937
 40
0.5625118956
 40
0.6250121845
 40
0.6875120753
 40
0.7500117833
 40
0.7812612137
 40
0.8125100049
 40
0.8281344035
 40
0.843758968
 40
0.8750080736
 40
0.9062570704
 40
0.9218815801
 40
0.9375061185
 40
0.9531306904
 40
0.9609429946
 40
0.968755299
 40
0.972661459
 40
0.9765676124
 40
0.9804738196
 40
0.9843797957
 40
0.9921907326
 40
1.0
 40
1.0
 40
1.0
 40
1.0
 10
-11.75
 20
110.0628707434
 30
0.0
 10
-12.8037267147
 20
110.0629345604
 30
0.0
 10
-14.9111776286
 20
110.0670017014
 30
0.0
 10
-18.0723516259
 20
110.0729816321
 30
0.0
 10
-21.2335339112
 20
110.0702052967
 30
0.0
 10
-23.8678133082
 20
110.0555879262
 30
0.0
 10
-25.9751554508
 20
110.0357086454
 30
0.0
 10
-27.5556169106
 20
110.017825806
 30
0.0
 10
-29.1360536509
 20
109.998853895
 30
0.0
 10
-30.4530979415
 20
109.9842162463
 30
0.0
 10
-31.5066336497
 20
109.9664480517
 30
0.0
 10
-32.1650733577
 20
109.95454319
 30
0.0
 10
-32.6918740147
 20
109.9486530878
 30
0.0
 10
-33.2186581415
 20
109.9413323193
 30
0.0
 10
-33.8771282275
 20
109.9314455195
 30
0.0
 10
-34.535605861
 20
109.9221064278
 30
0.0
 10
-35.0623915034
 20
109.9149173894
 30
0.0
 10
-35.4574831382
 20
109.9096585837
 30
0.0
 10
-35.7867295857
 20
109.9054648617
 30
0.0
 10
-36.0501261189
 20
109.9021038764
 30
0.0
 10
-36.2147527054
 20
109.9001075315
 30
0.0
 10
-36.3464503514
 20
109.8986244623
 30
0.0
 10
-36.4452305393
 20
109.8969129039
 30
0.0
 10
-36.5438844113
 20
109.8917151475
 30
0.0
 10
-36.6754650379
 20
109.8862099312
 30
0.0
 10
-36.839956086
 20
109.8802269207
 30
0.0
 10
-36.9715554415
 20
109.8758427728
 30
0.0
 10
-37.0373529125
 20
109.8738010161
 30
0.0
 11
-11.75
 21
110.0628707434
 31
0.0
 11
-14.9111774769
 21
110.0669815718
 31
0.0
 11
-18.0723537443
 21
110.0715222541
 31
0.0
 11
-21.2335306641
 21
110.067744529
 31
0.0
 11
-24.3946494921
 21
110.0499359283
 31
0.0
 11
-25.9751546118
 21
110.0352130134
 31
0.0
 11
-27.5556176822
 21
110.0176442372
 31
0.0
 11
-29.1360594055
 21
109.9990883156
 31
0.0
 11
-30.7164811691
 21
109.9792692403
 31
0.0
 11
-31.5066368455
 21
109.9662879783
 31
0.0
 11
-32.2967774489
 21
109.9533734793
 31
0.0
 11
-32.6918702191
 21
109.9484742761
 31
0.0
 11
-33.0869611902
 21
109.9431134588
 31
0.0
 11
-33.8771307478
 21
109.9315550463
 31
0.0
 11
-34.6673023936
 21
109.9203326901
 31
0.0
 11
-35.0623915401
 21
109.9149395565
 31
0.0
 11
-35.4574834318
 21
109.909696312
 31
0.0
 11
-35.8525784005
 21
109.9046241181
 31
0.0
 11
-36.0501268165
 21
109.9021247313
 31
0.0
 11
-36.247676729
 21
109.8997462658
 31
0.0
 11
-36.3464514844
 21
109.8985245868
 31
0.0
 11
-36.4452092915
 21
109.8963318722
 31
0.0
 11
-36.5438930225
 21
109.8918931367
 31
0.0
 11
-36.6425793267
 21
109.8876457999
 31
0.0
 11
-36.8399733391
 21
109.880326939
 31
0.0
 11
-37.0373529125
 21
109.8738010161
 31
0.0
  0
SPLINE
  5
471
100
AcDbEntity
  8
RACCORDO
100
AcDbSpline
 62
253
  6
CONTINUOUS
 70
0
 71
3
 72
13
 73
9
 74
7
 42
0.0000001
 43
0.0000001
 44
0.0000000001
 12
-10.4812856949
 22
-0.0017417268
 32
0.0
 13
-10.4809668408
 23
-0.0817736767
 33
0.0
 40
0.0
 40
0.0
 40
0.0
 40
0.0
 40
0.2500003128
 40
0.5000006353
 40
0.6250007685
 40
0.7500007673
 40
0.8750008318
 40
1.0
 40
1.0
 40
1.0
 40
1.0
 10
-11.75
 20
96.8576119728
 30
0.0
 10
-12.6234415673
 20
96.8574668287
 30
0.0
 10
-14.3703247309
 20
96.8577306186
 30
0.0
 10
-16.5539287755
 20
96.8566163915
 30
0.0
 10
-18.3008094626
 20
96.8538831063
 30
0.0
 10
-19.6109662245
 20
96.8502488528
 30
0.0
 10
-20.9211150772
 20
96.8454040909
 30
0.0
 10
-21.7945421872
 20
96.8407076169
 30
0.0
 10
-22.231246233
 20
96.837300403
 30
0.0
 11
-11.75
 21
96.8576119728
 31
0.0
 11
-14.3703247324
 21
96.8574418257
 31
0.0
 11
-16.9906490463
 21
96.8557795778
 31
0.0
 11
-18.3008093908
 21
96.8536190569
 31
0.0
 11
-19.6109652385
 21
96.8500471001
 31
0.0
 11
-20.9211170665
 21
96.8450374177
 31
0.0
 11
-22.231246233
 21
96.837300403
 31
0.0
  0
SPLINE
  5
472
100
AcDbEntity
  8
RACCORDO
100
AcDbSpline
 62
253
  6
CONTINUOUS
 70
0
 71
3
 72
38
 73
34
 74
32
 42
0.0000001
 43
0.0000001
 44
0.0000000001
 12
-5.6696504363
 22
-0.0443263231
 32
0.0
 13
-0.0067362464
 23
-5.6698197075
 33
0.0
 40
0.0
 40
0.0
 40
0.0
 40
0.0
 40
0.0624907113
 40
0.0781193623
 40
0.0937478314
 40
0.109376308
 40
0.1250048325
 40
0.1406332145
 40
0.1562616987
 40
0.1875167004
 40
0.2187716207
 40
0.2500264523
 40
0.3125128844
 40
0.3437677098
 40
0.3750220564
 40
0.4062752811
 40
0.4375289336
 40
0.5000160679
 40
0.5625036562
 40
0.6249909668
 40
0.6562455756
 40
0.6874994518
 40
0.7187523752
 40
0.7343796713
 40
0.7500072518
 40
0.7656342543
 40
0.781260568
 40
0.7968865181
 40
0.8125134246
 40
0.8437658633
 40
0.8750196865
 40
0.9375085396
 40
1.0
 40
1.0
 40
1.0
 40
1.0
 10
-22.231246233
 20
96.837300403
 30
0.0
 10
-22.349346396
 20
96.8363770752
 30
0.0
 10
-22.4970740544
 20
96.8277637376
 30
0.0
 10
-22.6729978548
 20
96.8066998321
 30
0.0
 10
-22.7606519372
 20
96.7935975388
 30
0.0
 10
-22.8478940179
 20
96.7780647113
 30
0.0
 10
-22.9350794867
 20
96.7622338084
 30
0.0
 10
-23.021973054
 20
96.7448323144
 30
0.0
 10
-23.1372371208
 20
96.7188699311
 30
0.0
 10
-23.2802080327
 20
96.6816546157
 30
0.0
 10
-23.4493326262
 20
96.6284743636
 30
0.0
 10
-23.6710393512
 20
96.5467294413
 30
0.0
 10
-23.886463998
 20
96.4485197601
 30
0.0
 10
-24.0928079174
 20
96.333349823
 30
0.0
 10
-24.2435877084
 20
96.24012948
 30
0.0
 10
-24.3895179139
 20
96.1394525876
 30
0.0
 10
-24.5766291367
 20
95.995106916
 30
0.0
 10
-24.796255683
 20
95.7968900589
 30
0.0
 10
-25.0330794993
 20
95.5325021343
 30
0.0
 10
-25.2055224136
 20
95.2920440401
 30
0.0
 10
-25.3271998107
 20
95.0894434404
 30
0.0
 10
-25.4100566606
 20
94.932705449
 30
0.0
 10
-25.4720380753
 20
94.7985871932
 30
0.0
 10
-25.5170168551
 20
94.6893325793
 30
0.0
 10
-25.5485502587
 20
94.6065249731
 30
0.0
 10
-25.5794408357
 20
94.523479375
 30
0.0
 10
-25.6121061366
 20
94.4411196858
 30
0.0
 10
-25.6433012302
 20
94.3581807076
 30
0.0
 10
-25.6809080741
 20
94.2461729276
 30
0.0
 10
-25.7218273454
 20
94.1042095224
 30
0.0
 10
-25.7759240243
 20
93.8741676032
 30
0.0
 10
-25.8208106022
 20
93.5817657435
 30
0.0
 10
-25.8328672097
 20
93.3454153957
 30
0.0
 10
-25.833007529
 20
93.2273102911
 30
0.0
 11
-22.231246233
 21
96.837300403
 31
0.0
 11
-22.5849684124
 21
96.8168766676
 31
0.0
 11
-22.6729432388
 21
96.8062718329
 31
0.0
 11
-22.760583296
 21
96.7931924466
 31
0.0
 11
-22.8478845205
 21
96.7780150431
 31
0.0
 11
-22.9350310985
 21
96.7619719933
 31
0.0
 11
-23.0218990703
 21
96.7444872032
 31
0.0
 11
-23.1083500006
 21
96.7250423667
 31
0.0
 11
-23.2798018367
 21
96.6802341531
 31
0.0
 11
-23.4488639013
 21
96.6271176513
 31
0.0
 11
-23.6151198936
 21
96.5657815993
 31
0.0
 11
-23.9372644398
 21
96.4183292061
 31
0.0
 11
-24.0921413453
 21
96.3322112762
 31
0.0
 11
-24.2427815325
 21
96.2388853656
 31
0.0
 11
-24.3885883925
 21
96.138186325
 31
0.0
 11
-24.5289239492
 21
96.0299886891
 31
0.0
 11
-24.7918032182
 21
95.7924668422
 31
0.0
 11
-25.0280953058
 21
95.5284781843
 31
0.0
 11
-25.2345678515
 21
95.2405685911
 31
0.0
 11
-25.3257979091
 21
95.0886482333
 31
0.0
 11
-25.4086443509
 21
94.9320030501
 31
0.0
 11
-25.482897899
 21
94.771112583
 31
0.0
 11
-25.5166497501
 21
94.6891889365
 31
0.0
 11
-25.5484436136
 21
94.6064839952
 31
0.0
 11
-25.5797372734
 21
94.5235919984
 31
0.0
 11
-25.6118613649
 21
94.44102247
 31
0.0
 11
-25.6428023161
 21
94.3580045414
 31
0.0
 11
-25.6711008061
 21
94.2740433875
 31
0.0
 11
-25.7204058913
 21
94.1038453666
 31
0.0
 11
-25.7608898253
 21
93.9313281472
 31
0.0
 11
-25.8148474407
 21
93.5811601605
 31
0.0
 11
-25.833007529
 21
93.2273102911
 31
0.0
  0
SPLINE
  5
473
100
AcDbEntity
  8
RACCORDO
100
AcDbSpline
 62
253
  6
CONTINUOUS
 70
0
 71
3
 72
15
 73
11
 74
9
 42
0.0000001
 43
0.0000001
 44
0.0000000001
 12
-0.0265949619
 22
-22.2273167935
 32
0.0
 13
-0.0002438795
 23
-22.2273327026
 33
0.0
 40
0.0
 40
0.0
 40
0.0
 40
0.0
 40
0.0624993788
 40
0.1249993387
 40
0.1874993562
 40
0.2499993768
 40
0.3749994424
 40
0.4999995409
 40
0.7499997658
 40
1.0
 40
1.0
 40
1.0
 40
1.0
 10
-25.833007529
 20
93.2273102911
 30
0.0
 10
-25.8335615852
 20
92.7642457938
 30
0.0
 10
-25.8346988732
 20
91.8381124174
 30
0.0
 10
-25.8380497606
 20
90.4489126082
 30
0.0
 10
-25.8426832486
 20
89.0597119712
 30
0.0
 10
-25.8470930898
 20
87.2074385271
 30
0.0
 10
-25.8510480299
 20
84.8920931853
 30
0.0
 10
-25.855027181
 20
81.1875368235
 30
0.0
 10
-25.8569110115
 20
76.5568382863
 30
0.0
 10
-25.8563705466
 20
72.8522794587
 30
0.0
 10
-25.8563908699
 20
70.9999999983
 30
0.0
 11
-25.833007529
 21
93.2273102911
 31
0.0
 11
-25.8349730236
 21
91.8381171954
 31
0.0
 11
-25.8382635242
 21
90.44891369
 31
0.0
 11
-25.8424622304
 21
89.0597113507
 31
0.0
 11
-25.8458868051
 21
87.6705068213
 31
0.0
 11
-25.8507544353
 21
84.8920930394
 31
0.0
 11
-25.8538263858
 21
82.1136759589
 31
0.0
 11
-25.8563991291
 21
76.5568383797
 31
0.0
 11
-25.8563908699
 21
70.9999999983
 31
0.0
  0
SPLINE
  5
474
100
AcDbEntity
  8
RACCORDO
100
AcDbSpline
 62
253
  6
CONTINUOUS
 70
0
 71
3
 72
35
 73
31
 74
29
 42
0.0000001
 43
0.0000001
 44
0.0000000001
 12
-1.2979495756
 22
-37.032311082
 32
0.0
 13
0.0002202947
 23
-37.0550500894
 33
0.0
 40
0.0
 40
0.0
 40
0.0
 40
0.0
 40
0.0078051432
 40
0.0156135928
 40
0.0195189884
 40
0.0234249941
 40
0.0253781341
 40
0.0273312427
 40
0.0312370827
 40
0.0351431706
 40
0.0390492975
 40
0.0429554245
 40
0.0468615474
 40
0.0546737999
 40
0.0624860675
 40
0.0781106483
 40
0.0937353039
 40
0.109360051
 40
0.1249848961
 40
0.1562348543
 40
0.1874850878
 40
0.2499859673
 40
0.2812365156
 40
0.3124870769
 40
0.3749882123
 40
0.4374893615
 40
0.4999905227
 40
0.6249928701
 40
0.7499952398
 40
1.0
 40
1.0
 40
1.0
 40
1.0
 10
-38.876126114
 20
108.0528968235
 30
0.0
 10
-38.8795030081
 20
107.9565493267
 30
0.0
 10
-38.8868015828
 20
107.763831868
 30
0.0
 10
-38.8980689717
 20
107.522997162
 30
0.0
 10
-38.909184183
 20
107.3303831541
 30
0.0
 10
-38.9178212785
 20
107.2100781556
 30
0.0
 10
-38.9251030209
 20
107.1138660513
 30
0.0
 10
-38.9322951594
 20
107.0176134738
 30
0.0
 10
-38.932290235
 20
106.8969164198
 30
0.0
 10
-38.9342550052
 20
106.7522151292
 30
0.0
 10
-38.9367059195
 20
106.6074882714
 30
0.0
 10
-38.9388675343
 20
106.4627643505
 30
0.0
 10
-38.9416210246
 20
106.2697945502
 30
0.0
 10
-38.9451693855
 20
106.0285845807
 30
0.0
 10
-38.9509482035
 20
105.6426487413
 30
0.0
 10
-38.9581160187
 20
105.1602267069
 30
0.0
 10
-38.9666918338
 20
104.5813176066
 30
0.0
 10
-38.9751052554
 20
104.0024028575
 30
0.0
 10
-38.9859148736
 20
103.2305038571
 30
0.0
 10
-38.9981344455
 20
102.2656047294
 30
0.0
 10
-39.0140962397
 20
100.7217122645
 30
0.0
 10
-39.0245094271
 20
99.1777606848
 30
0.0
 10
-39.0306046363
 20
97.6337875366
 30
0.0
 10
-39.0350554376
 20
96.0898056431
 30
0.0
 10
-39.0398869362
 20
94.1598260333
 30
0.0
 10
-39.0451035736
 20
91.843848666
 30
0.0
 10
-39.0509612467
 20
88.7558758006
 30
0.0
 10
-39.056533031
 20
84.8959059238
 30
0.0
 10
-39.0620301768
 20
78.7199493713
 30
0.0
 10
-39.0629399374
 20
74.0879796403
 30
0.0
 10
-39.0629215791
 20
71.0000000032
 30
0.0
 11
-38.876126114
 21
108.0528968235
 31
0.0
 11
-38.8872284592
 21
107.7638900244
 31
0.0
 11
-38.9010213548
 21
107.4748764713
 31
0.0
 11
-38.9095214
 21
107.3304116892
 31
0.0
 11
-38.9196724921
 21
107.1860308621
 31
0.0
 11
-38.9250918683
 21
107.1138603497
 31
0.0
 11
-38.9298976541
 21
107.0416475504
 31
0.0
 11
-38.9326186563
 21
106.8969420329
 31
0.0
 11
-38.9343360137
 21
106.7522119409
 31
0.0
 11
-38.9366577016
 21
106.6074888349
 31
0.0
 11
-38.9388514522
 21
106.4627637273
 31
0.0
 11
-38.940939751
 21
106.3180372147
 31
0.0
 11
-38.9451820612
 21
106.0285848934
 31
0.0
 11
-38.9494997766
 21
105.7391331244
 31
0.0
 11
-38.958111739
 21
105.1602275561
 31
0.0
 11
-38.9666647437
 21
104.5813183387
 31
0.0
 11
-38.9750541913
 21
104.0024033391
 31
0.0
 11
-38.9831262611
 21
103.4234801937
 31
0.0
 11
-38.997685699
 21
102.2656029599
 31
0.0
 11
-39.0096433574
 21
101.1076857319
 31
0.0
 11
-39.0256733861
 21
98.7917679905
 31
0.0
 11
-39.0303990833
 21
97.6337869987
 31
0.0
 11
-39.0338939366
 21
96.4758011578
 31
0.0
 11
-39.0397900755
 21
94.1598259606
 31
0.0
 11
-39.0449663427
 21
91.8438485328
 31
0.0
 11
-39.0493801408
 21
89.5278690791
 31
0.0
 11
-39.056105817
 21
84.895905716
 31
0.0
 11
-39.0602988791
 21
80.2639385435
 31
0.0
 11
-39.0629215791
 21
71.0000000032
 31
0.0
  0
SPLINE
  5
475
100
AcDbEntity
  8
RACCORDO
100
AcDbSpline
 62
253
  6
CONTINUOUS
 70
0
 71
3
 72
15
 73
11
 74
9
 42
0.0000001
 43
0.0000001
 44
0.0000000001
 12
-2.8410883761
 22
-0.0883150133
 32
0.0
 13
-0.0996992089
 23
-2.8407116662
 33
0.0
 40
0.0
 40
0.0
 40
0.0
 40
0.0
 40
0.1249847577
 40
0.2499944876
 40
0.3750229029
 40
0.5000552537
 40
0.6250833961
 40
0.7500975884
 40
0.8750764381
 40
1.0
 40
1.0
 40
1.0
 40
1.0
 10
-37.0373529125
 20
109.8738010161
 30
0.0
 10
-37.1557171599
 20
109.8701216726
 30
0.0
 10
-37.3923679965
 20
109.8402327638
 30
0.0
 10
-37.7322476577
 20
109.7300022344
 30
0.0
 10
-38.045934968
 20
109.5585946362
 30
0.0
 10
-38.3223844083
 20
109.3319952398
 30
0.0
 10
-38.5520543292
 20
109.0581056054
 30
0.0
 10
-38.7268323095
 20
108.7463191058
 30
0.0
 10
-38.8403648958
 20
108.4076080075
 30
0.0
 10
-38.8719745206
 20
108.17118743
 30
0.0
 10
-38.876126114
 20
108.0528968235
 30
0.0
 11
-37.0373529125
 21
109.8738010161
 31
0.0
 11
-37.3898240534
 21
109.8293399259
 31
0.0
 11
-37.727858951
 21
109.7198157643
 31
0.0
 11
-38.0397229568
 21
109.5493994387
 31
0.0
 11
-38.3145920745
 21
109.3241089562
 31
0.0
 11
-38.5429176224
 21
109.0517713441
 31
0.0
 11
-38.716644469
 21
108.741785649
 31
0.0
 11
-38.8293602505
 21
108.4048941018
 31
0.0
 11
-38.876126114
 21
108.0528968235
 31
0.0
  0
SPLINE
  5
476
100
AcDbEntity
  8
RACCORDO
100
AcDbSpline
 62
253
  6
CONTINUOUS
 70
0
 71
3
 72
14
 73
10
 74
8
 42
0.0000001
 43
0.0000001
 44
0.0000000001
 12
-25.2499186114
 22
-0.0536694317
 32
0.0
 13
-25.2499756491
 23
0.0000836501
 33
0.0
 40
0.0
 40
0.0
 40
0.0
 40
0.0
 40
0.0624913213
 40
0.1249885151
 40
0.2499817891
 40
0.3749798717
 40
0.4999803298
 40
0.7499896207
 40
1.0
 40
1.0
 40
1.0
 40
1.0
 10
37.0
 20
110.7368093679
 30
0.0
 10
36.4740330745
 20
110.73569141
 30
0.0
 10
35.422046636
 20
110.7354490157
 30
0.0
 10
33.3180363474
 20
110.7336692098
 30
0.0
 10
30.687927596
 20
110.7315518203
 30
0.0
 10
27.531750081
 20
110.7297645796
 30
0.0
 10
23.3233554407
 20
110.7275137922
 30
0.0
 10
18.0627742343
 20
110.7271501071
 30
0.0
 10
13.8542794772
 20
110.7278497895
 30
0.0
 10
11.7500274807
 20
110.7278567606
 30
0.0
 11
37.0
 21
110.7368093679
 31
0.0
 11
35.4220963933
 21
110.7352871694
 31
0.0
 11
33.8440442019
 21
110.734121329
 31
0.0
 11
30.6879680246
 21
110.7316774572
 31
0.0
 11
27.5317700523
 21
110.7297811265
 31
0.0
 11
24.3755119052
 21
110.7282398348
 31
0.0
 11
18.0627834537
 21
110.7273977648
 31
0.0
 11
11.7500274807
 21
110.7278567606
 31
0.0
  0
SPLINE
  5
477
100
AcDbEntity
  8
RACCORDO
100
AcDbSpline
 62
253
  6
CONTINUOUS
 70
0
 71
3
 72
14
 73
10
 74
8
 42
0.0000001
 43
0.0000001
 44
0.0000000001
 12
-25.2499077237
 22
-0.0000836669
 32
0.0
 13
-25.2498506859
 23
0.05366938
 33
0.0
 40
0.0
 40
0.0
 40
0.0
 40
0.0
 40
0.2500103791
 40
0.5000196699
 40
0.625020128
 40
0.7500182101
 40
0.8750114841
 40
0.9375086777
 40
1.0
 40
1.0
 40
1.0
 40
1.0
 10
-11.7500274807
 20
110.7278567606
 30
0.0
 10
-13.8542738149
 20
110.7278497881
 30
0.0
 10
-18.0627572481
 20
110.7271501081
 30
0.0
 10
-23.3233242998
 20
110.7275137987
 30
0.0
 10
-27.5317076134
 20
110.7297645308
 30
0.0
 10
-30.6878766334
 20
110.731551877
 30
0.0
 10
-33.3179783044
 20
110.73366912
 30
0.0
 10
-35.4219829403
 20
110.7354490175
 30
0.0
 10
-36.4739665558
 20
110.7356912718
 30
0.0
 10
-36.9999320747
 20
110.7368092287
 30
0.0
 11
-11.7500274807
 21
110.7278567606
 31
0.0
 11
-18.0627664666
 21
110.7273977663
 31
0.0
 11
-24.3754779338
 21
110.7282398224
 31
0.0
 11
-27.5317275883
 21
110.7297811021
 31
0.0
 11
-30.687917057
 21
110.731677467
 31
0.0
 11
-33.8439847457
 21
110.7341212795
 31
0.0
 11
-35.4220326878
 21
110.7352871247
 31
0.0
 11
-36.9999320747
 21
110.7368092287
 31
0.0
  0
SPLINE
  5
478
100
AcDbEntity
  8
RACCORDO
100
AcDbSpline
 62
253
  6
CONTINUOUS
 70
0
 71
3
 72
15
 73
11
 74
9
 42
0.0000001
 43
0.0000001
 44
0.0000000001
 12
0.0000127081
 22
-36.9999317004
 32
0.0
 13
-0.1115213566
 23
-36.999763632
 33
0.0
 40
0.0
 40
0.0
 40
0.0
 40
0.0
 40
0.2500077837
 40
0.5000154383
 40
0.6250191329
 40
0.7500226417
 40
0.8125237937
 40
0.8750233039
 40
0.9375205382
 40
1.0
 40
1.0
 40
1.0
 40
1.0
 10
-39.7278543933
 20
-71.0000028422
 30
0.0
 10
-39.7278533343
 20
-74.0834264826
 30
0.0
 10
-39.7279178863
 20
-80.2502721681
 30
0.0
 10
-39.7283155014
 20
-87.9588272499
 30
0.0
 10
-39.7289795483
 20
-94.125665725
 30
0.0
 10
-39.7293679891
 20
-97.9799283627
 30
0.0
 10
-39.7301793009
 20
-101.0633072598
 30
0.0
 10
-39.7312387193
 20
-103.3757771099
 30
0.0
 10
-39.7331847992
 20
-105.6879776183
 30
0.0
 10
-39.733629974
 20
-107.2293565223
 30
0.0
 10
-39.7359525722
 20
-107.999931628
 30
0.0
 11
-39.7278543933
 21
-71.0000028422
 31
0.0
 11
-39.7279812714
 21
-80.2502737625
 31
0.0
 11
-39.728510343
 21
-89.5005398909
 31
0.0
 11
-39.7289742311
 21
-94.1256680304
 31
0.0
 11
-39.7296125346
 21
-98.750789275
 31
0.0
 11
-39.730254468
 21
-101.0633275429
 31
0.0
 11
-39.7313865498
 21
-103.3758048745
 31
0.0
 11
-39.7329718895
 21
-105.6881977314
 31
0.0
 11
-39.7359525722
 21
-107.999931628
 31
0.0
  0
SPLINE
  5
479
100
AcDbEntity
  8
RACCORDO
100
AcDbSpline
 62
253
  6
CONTINUOUS
 70
0
 71
3
 72
32
 73
28
 74
26
 42
0.0000001
 43
0.0000001
 44
0.0000000001
 12
25.2888545532
 22
-0.001531573
 32
0.0
 13
25.2766878315
 23
0.7843591198
 33
0.0
 40
0.0
 40
0.0
 40
0.0
 40
0.0
 40
0.1250028995
 40
0.2500057744
 40
0.3750086354
 40
0.5000110937
 40
0.5625118956
 40
0.6250121845
 40
0.6875120753
 40
0.7500117833
 40
0.7812612137
 40
0.8125100049
 40
0.8281344035
 40
0.843758968
 40
0.8750080736
 40
0.9062570704
 40
0.9218815801
 40
0.9375061185
 40
0.9531306904
 40
0.9609429946
 40
0.968755299
 40
0.972661459
 40
0.9765676124
 40
0.9804738196
 40
0.9843797957
 40
0.9921907326
 40
1.0
 40
1.0
 40
1.0
 40
1.0
 10
11.75
 20
-110.0628707434
 30
0.0
 10
12.8037267147
 20
-110.0629345604
 30
0.0
 10
14.9111776286
 20
-110.0670017014
 30
0.0
 10
18.0723516259
 20
-110.0729816321
 30
0.0
 10
21.2335339112
 20
-110.0702052967
 30
0.0
 10
23.8678133082
 20
-110.0555879262
 30
0.0
 10
25.9751554508
 20
-110.0357086454
 30
0.0
 10
27.5556169106
 20
-110.017825806
 30
0.0
 10
29.1360536509
 20
-109.998853895
 30
0.0
 10
30.4530979415
 20
-109.9842162463
 30
0.0
 10
31.5066336497
 20
-109.9664480517
 30
0.0
 10
32.1650733577
 20
-109.95454319
 30
0.0
 10
32.6918740147
 20
-109.9486530878
 30
0.0
 10
33.2186581415
 20
-109.9413323193
 30
0.0
 10
33.8771282275
 20
-109.9314455195
 30
0.0
 10
34.535605861
 20
-109.9221064278
 30
0.0
 10
35.0623915034
 20
-109.9149173894
 30
0.0
 10
35.4574831382
 20
-109.9096585837
 30
0.0
 10
35.7867295857
 20
-109.9054648617
 30
0.0
 10
36.0501261189
 20
-109.9021038764
 30
0.0
 10
36.2147527054
 20
-109.9001075315
 30
0.0
 10
36.3464503514
 20
-109.8986244623
 30
0.0
 10
36.4452305393
 20
-109.8969129039
 30
0.0
 10
36.5438844113
 20
-109.8917151475
 30
0.0
 10
36.6754650379
 20
-109.8862099312
 30
0.0
 10
36.839956086
 20
-109.8802269207
 30
0.0
 10
36.9715554415
 20
-109.8758427728
 30
0.0
 10
37.0373529125
 20
-109.8738010161
 30
0.0
 11
11.75
 21
-110.0628707434
 31
0.0
 11
14.9111774769
 21
-110.0669815718
 31
0.0
 11
18.0723537443
 21
-110.0715222541
 31
0.0
 11
21.2335306641
 21
-110.067744529
 31
0.0
 11
24.3946494921
 21
-110.0499359283
 31
0.0
 11
25.9751546118
 21
-110.0352130134
 31
0.0
 11
27.5556176822
 21
-110.0176442372
 31
0.0
 11
29.1360594055
 21
-109.9990883156
 31
0.0
 11
30.7164811691
 21
-109.9792692403
 31
0.0
 11
31.5066368455
 21
-109.9662879783
 31
0.0
 11
32.2967774489
 21
-109.9533734793
 31
0.0
 11
32.6918702191
 21
-109.9484742761
 31
0.0
 11
33.0869611902
 21
-109.9431134588
 31
0.0
 11
33.8771307478
 21
-109.9315550463
 31
0.0
 11
34.6673023935
 21
-109.9203326901
 31
0.0
 11
35.0623915401
 21
-109.9149395565
 31
0.0
 11
35.4574834318
 21
-109.909696312
 31
0.0
 11
35.8525784005
 21
-109.9046241181
 31
0.0
 11
36.0501268165
 21
-109.9021247313
 31
0.0
 11
36.247676729
 21
-109.8997462658
 31
0.0
 11
36.3464514844
 21
-109.8985245868
 31
0.0
 11
36.4452092915
 21
-109.8963318722
 31
0.0
 11
36.5438930225
 21
-109.8918931367
 31
0.0
 11
36.6425793267
 21
-109.8876457999
 31
0.0
 11
36.8399733391
 21
-109.880326939
 31
0.0
 11
37.0373529125
 21
-109.8738010161
 31
0.0
  0
SPLINE
  5
47A
100
AcDbEntity
  8
RACCORDO
100
AcDbSpline
 62
253
  6
CONTINUOUS
 70
0
 71
3
 72
18
 73
14
 74
12
 42
0.0000001
 43
0.0000001
 44
0.0000000001
 12
-0.0000764473
 22
-4.4300488721
 32
0.0
 13
4.1046549201
 23
-1.666475623
 33
0.0
 40
0.0
 40
0.0
 40
0.0
 40
0.0
 40
0.1250152549
 40
0.2500118527
 40
0.3749863834
 40
0.4999364221
 40
0.6248713596
 40
0.6873786497
 40
0.7498876068
 40
0.812404442
 40
0.8749307914
 40
0.9374623376
 40
1.0
 40
1.0
 40
1.0
 40
1.0
 10
-25.8563908662
 20
48.75
 30
0.0
 10
-25.8563940519
 20
48.5653921036
 30
0.0
 10
-25.8284120955
 20
48.1955899926
 30
0.0
 10
-25.7032770505
 20
47.6541122593
 30
0.0
 10
-25.4975226552
 20
47.1377191924
 30
0.0
 10
-25.2148436365
 20
46.6593684783
 30
0.0
 10
-24.9229842757
 20
46.2998273289
 30
0.0
 10
-24.6602898843
 20
46.0401538896
 30
0.0
 10
-24.4492872168
 20
45.8604179006
 30
0.0
 10
-24.2266987426
 20
45.6953199287
 30
0.0
 10
-23.9942319962
 20
45.5443472664
 30
0.0
 10
-23.7514934558
 20
45.4103198655
 30
0.0
 10
-23.5829670704
 20
45.334202194
 30
0.0
 10
-23.4974018958
 20
45.2994630307
 30
0.0
 11
-25.8563908662
 21
48.75
 31
0.0
 11
-25.8145458405
 21
48.197759407
 31
0.0
 11
-25.6898258542
 21
47.658246607
 31
0.0
 11
-25.4846793539
 21
47.144013398
 31
0.0
 11
-25.203574894
 21
46.6671685244
 31
0.0
 11
-24.8549411027
 21
46.2373067183
 31
0.0
 11
-24.6579737014
 21
46.0426706868
 31
0.0
 11
-24.4473690681
 21
45.8628676821
 31
0.0
 11
-24.2250684607
 21
45.6976853525
 31
0.0
 11
-23.9925309941
 21
45.5471780869
 31
0.0
 11
-23.7498281409
 21
45.4136333768
 31
0.0
 11
-23.4974018958
 21
45.2994630307
 31
0.0
  0
SPLINE
  5
47B
100
AcDbEntity
  8
RACCORDO
100
AcDbSpline
 62
253
  6
CONTINUOUS
 70
0
 71
3
 72
18
 73
14
 74
12
 42
0.0000001
 43
0.0000001
 44
0.0000000001
 12
-4.1046541003
 22
-1.6664770624
 32
0.0
 13
0.0002247858
 23
-4.4300486489
 33
0.0
 40
0.0
 40
0.0
 40
0.0
 40
0.0
 40
0.062533857
 40
0.1250615023
 40
0.1875837279
 40
0.2500965063
 40
0.3126010342
 40
0.375103403
 40
0.5000290051
 40
0.6249718138
 40
0.74994904
 40
0.8749591026
 40
1.0
 40
1.0
 40
1.0
 40
1.0
 10
-23.4974023527
 20
25.7005367767
 30
0.0
 10
-23.5829623035
 20
25.6657996973
 30
0.0
 10
-23.7514781916
 20
25.5896866753
 30
0.0
 10
-23.9942033298
 20
25.4556711434
 30
0.0
 10
-24.2266553772
 20
25.3047088059
 30
0.0
 10
-24.4492338155
 20
25.1396285199
 30
0.0
 10
-24.6602211514
 20
24.9599051463
 30
0.0
 10
-24.9229052251
 20
24.7002608337
 30
0.0
 10
-25.2147565792
 20
24.340754611
 30
0.0
 10
-25.4974524051
 20
23.8624378676
 30
0.0
 10
-25.7032289532
 20
23.3460386068
 30
0.0
 10
-25.8283969497
 20
22.8045059993
 30
0.0
 10
-25.8564002354
 20
22.4346457529
 30
0.0
 10
-25.8563908662
 20
22.25
 30
0.0
 11
-23.4974023527
 21
25.7005367767
 31
0.0
 11
-23.7498134517
 21
25.5863738845
 31
0.0
 11
-23.992502448
 21
25.4528398656
 31
0.0
 11
-24.2250258975
 21
25.3023445906
 31
0.0
 11
-24.4473153659
 21
25.1371774252
 31
0.0
 11
-24.6579068837
 21
24.9573892997
 31
0.0
 11
-24.854864589
 21
24.7627744928
 31
0.0
 11
-25.2034889354
 21
24.3329583095
 31
0.0
 11
-25.4846011985
 21
23.8561552495
 31
0.0
 11
-25.6897724251
 21
23.3419190778
 31
0.0
 11
-25.8145268817
 21
22.8023530522
 31
0.0
 11
-25.8563908662
 21
22.25
 31
0.0
  0
SPLINE
  5
47C
100
AcDbEntity
  8
RACCORDO
100
AcDbSpline
 62
253
  6
CONTINUOUS
 70
0
 71
3
 72
18
 73
14
 74
12
 42
0.0000001
 43
0.0000001
 44
0.0000000001
 12
-0.0000764473
 22
-4.4300488721
 32
0.0
 13
4.1046549201
 23
-1.666475623
 33
0.0
 40
0.0
 40
0.0
 40
0.0
 40
0.0
 40
0.1250152549
 40
0.2500118527
 40
0.3749863834
 40
0.4999364221
 40
0.6248713596
 40
0.6873786497
 40
0.7498876068
 40
0.812404442
 40
0.8749307914
 40
0.9374623376
 40
1.0
 40
1.0
 40
1.0
 40
1.0
 10
-25.8563908662
 20
-22.25
 30
0.0
 10
-25.8563940519
 20
-22.4346078964
 30
0.0
 10
-25.8284120955
 20
-22.8044100074
 30
0.0
 10
-25.7032770505
 20
-23.3458877407
 30
0.0
 10
-25.4975226552
 20
-23.8622808076
 30
0.0
 10
-25.2148436365
 20
-24.3406315217
 30
0.0
 10
-24.9229842757
 20
-24.7001726711
 30
0.0
 10
-24.6602898843
 20
-24.9598461104
 30
0.0
 10
-24.4492872168
 20
-25.1395820994
 30
0.0
 10
-24.2266987426
 20
-25.3046800713
 30
0.0
 10
-23.9942319962
 20
-25.4556527336
 30
0.0
 10
-23.7514934558
 20
-25.5896801345
 30
0.0
 10
-23.5829670704
 20
-25.665797806
 30
0.0
 10
-23.4974018958
 20
-25.7005369693
 30
0.0
 11
-25.8563908662
 21
-22.25
 31
0.0
 11
-25.8145458405
 21
-22.802240593
 31
0.0
 11
-25.6898258542
 21
-23.341753393
 31
0.0
 11
-25.4846793539
 21
-23.855986602
 31
0.0
 11
-25.203574894
 21
-24.3328314756
 31
0.0
 11
-24.8549411027
 21
-24.7626932817
 31
0.0
 11
-24.6579737014
 21
-24.9573293132
 31
0.0
 11
-24.4473690681
 21
-25.1371323179
 31
0.0
 11
-24.2250684607
 21
-25.3023146475
 31
0.0
 11
-23.9925309941
 21
-25.4528219131
 31
0.0
 11
-23.7498281409
 21
-25.5863666232
 31
0.0
 11
-23.4974018958
 21
-25.7005369693
 31
0.0
  0
SPLINE
  5
47D
100
AcDbEntity
  8
RACCORDO
100
AcDbSpline
 62
253
  6
CONTINUOUS
 70
0
 71
3
 72
18
 73
14
 74
12
 42
0.0000001
 43
0.0000001
 44
0.0000000001
 12
-4.1046541003
 22
-1.6664770624
 32
0.0
 13
0.0002247858
 23
-4.4300486489
 33
0.0
 40
0.0
 40
0.0
 40
0.0
 40
0.0
 40
0.062533857
 40
0.1250615023
 40
0.1875837279
 40
0.2500965063
 40
0.3126010342
 40
0.375103403
 40
0.5000290051
 40
0.6249718138
 40
0.74994904
 40
0.8749591026
 40
1.0
 40
1.0
 40
1.0
 40
1.0
 10
-23.4974023527
 20
-45.2994632233
 30
0.0
 10
-23.5829623035
 20
-45.3342003027
 30
0.0
 10
-23.7514781916
 20
-45.4103133247
 30
0.0
 10
-23.9942033298
 20
-45.5443288566
 30
0.0
 10
-24.2266553772
 20
-45.6952911941
 30
0.0
 10
-24.4492338155
 20
-45.8603714801
 30
0.0
 10
-24.6602211514
 20
-46.0400948537
 30
0.0
 10
-24.9229052251
 20
-46.2997391663
 30
0.0
 10
-25.2147565792
 20
-46.659245389
 30
0.0
 10
-25.4974524051
 20
-47.1375621324
 30
0.0
 10
-25.7032289532
 20
-47.6539613932
 30
0.0
 10
-25.8283969497
 20
-48.1954940007
 30
0.0
 10
-25.8564002354
 20
-48.5653542471
 30
0.0
 10
-25.8563908662
 20
-48.75
 30
0.0
 11
-23.4974023527
 21
-45.2994632233
 31
0.0
 11
-23.7498134517
 21
-45.4136261155
 31
0.0
 11
-23.992502448
 21
-45.5471601344
 31
0.0
 11
-24.2250258975
 21
-45.6976554094
 31
0.0
 11
-24.4473153659
 21
-45.8628225748
 31
0.0
 11
-24.6579068837
 21
-46.0426107003
 31
0.0
 11
-24.854864589
 21
-46.2372255072
 31
0.0
 11
-25.2034889354
 21
-46.6670416904
 31
0.0
 11
-25.4846011985
 21
-47.1438447505
 31
0.0
 11
-25.6897724251
 21
-47.6580809222
 31
0.0
 11
-25.8145268817
 21
-48.1976469478
 31
0.0
 11
-25.8563908662
 21
-48.75
 31
0.0
  0
SPLINE
  5
47E
100
AcDbEntity
  8
RACCORDO
100
AcDbSpline
 62
253
  6
CONTINUOUS
 70
0
 71
3
 72
18
 73
14
 74
12
 42
0.0000001
 43
0.0000001
 44
0.0000000001
 12
0.0000763772
 22
4.4300490396
 32
0.0
 13
-4.1046547729
 23
1.6664764309
 33
0.0
 40
0.0
 40
0.0
 40
0.0
 40
0.0
 40
0.1250152532
 40
0.2500118501
 40
0.3749863772
 40
0.499936416
 40
0.6248713529
 40
0.6873786436
 40
0.7498876002
 40
0.8124044358
 40
0.8749307862
 40
0.9374623346
 40
1.0
 40
1.0
 40
1.0
 40
1.0
 10
25.8563908662
 20
-48.75
 30
0.0
 10
25.856394049
 20
-48.5653920992
 30
0.0
 10
25.8284120788
 20
-48.19558998
 30
0.0
 10
25.7032770476
 20
-47.654112231
 30
0.0
 10
25.4975226243
 20
-47.1377191589
 30
0.0
 10
25.2148436048
 20
-46.6593684302
 30
0.0
 10
24.9229842429
 20
-46.2998272572
 30
0.0
 10
24.6602898285
 20
-46.0401538213
 30
0.0
 10
24.4492871068
 20
-45.8604178743
 30
0.0
 10
24.2266986057
 20
-45.6953199349
 30
0.0
 10
23.9942320487
 20
-45.5443469396
 30
0.0
 10
23.7514933119
 20
-45.410319838
 30
0.0
 10
23.5829669273
 20
-45.3342021507
 30
0.0
 10
23.4974017518
 20
-45.2994629689
 30
0.0
 11
25.8563908662
 21
-48.75
 31
0.0
 11
25.8145458296
 21
-48.1977593945
 31
0.0
 11
25.6898258434
 21
-47.6582465772
 31
0.0
 11
25.4846793299
 21
-47.1440133677
 31
0.0
 11
25.2035748623
 21
-46.6671684743
 31
0.0
 11
24.8549410632
 21
-46.2373066503
 31
0.0
 11
24.6579736382
 21
-46.0426706239
 31
0.0
 11
24.447368964
 21
-45.8628676551
 31
0.0
 11
24.2250683611
 21
-45.6976852986
 31
0.0
 11
23.9925309845
 21
-45.5471778667
 31
0.0
 11
23.7498280312
 21
-45.4136332961
 31
0.0
 11
23.4974017518
 21
-45.2994629689
 31
0.0
  0
SPLINE
  5
47F
100
AcDbEntity
  8
RACCORDO
100
AcDbSpline
 62
253
  6
CONTINUOUS
 70
0
 71
3
 72
18
 73
14
 74
12
 42
0.0000001
 43
0.0000001
 44
0.0000000001
 12
4.1046540429
 22
1.6664776697
 32
0.0
 13
-0.0002247223
 23
4.4300488243
 33
0.0
 40
0.0
 40
0.0
 40
0.0
 40
0.0
 40
0.0625338603
 40
0.1250615084
 40
0.1875837358
 40
0.2500965151
 40
0.3126010431
 40
0.3751034123
 40
0.500029015
 40
0.6249718234
 40
0.7499490473
 40
0.8749591068
 40
1.0
 40
1.0
 40
1.0
 40
1.0
 10
23.4974022065
 20
-25.7005368395
 30
0.0
 10
23.5829621606
 20
-25.6657997456
 30
0.0
 10
23.7514780496
 20
-25.5896867092
 30
0.0
 10
23.9942034071
 20
-25.4556715094
 30
0.0
 10
24.2266552432
 20
-25.3047088
 30
0.0
 10
24.4492337423
 20
-25.139628586
 30
0.0
 10
24.6602210888
 20
-24.9599051985
 30
0.0
 10
24.9229051924
 20
-24.7002608959
 30
0.0
 10
25.2147565725
 20
-24.3407546648
 30
0.0
 10
25.4974523796
 20
-23.8624378891
 30
0.0
 10
25.7032289441
 20
-23.3460386203
 30
0.0
 10
25.8283969238
 20
-22.8045060016
 30
0.0
 10
25.8564002327
 20
-22.4346457539
 30
0.0
 10
25.8563908662
 20
-22.25
 30
0.0
 11
23.4974022065
 21
-25.7005368395
 31
0.0
 11
23.7498133469
 21
-25.5863739769
 31
0.0
 11
23.9925024554
 21
-25.4528401131
 31
0.0
 11
24.2250258102
 21
-25.3023446577
 31
0.0
 11
24.4473152856
 21
-25.137177476
 31
0.0
 11
24.6579068228
 21
-24.9573893557
 31
0.0
 11
24.8548645483
 21
-24.7627745509
 31
0.0
 11
25.2034889214
 21
-24.3329583581
 31
0.0
 11
25.4846011806
 21
-23.8561552716
 31
0.0
 11
25.6897724111
 21
-23.3419190888
 31
0.0
 11
25.8145268648
 21
-22.8023530538
 31
0.0
 11
25.8563908662
 21
-22.25
 31
0.0
  0
SPLINE
  5
480
100
AcDbEntity
  8
RACCORDO
100
AcDbSpline
 62
253
  6
CONTINUOUS
 70
0
 71
3
 72
18
 73
14
 74
12
 42
0.0000001
 43
0.0000001
 44
0.0000000001
 12
0.0000763772
 22
4.4300490396
 32
0.0
 13
-4.1046547729
 23
1.6664764309
 33
0.0
 40
0.0
 40
0.0
 40
0.0
 40
0.0
 40
0.1250152532
 40
0.2500118501
 40
0.3749863772
 40
0.499936416
 40
0.6248713529
 40
0.6873786436
 40
0.7498876002
 40
0.8124044358
 40
0.8749307862
 40
0.9374623346
 40
1.0
 40
1.0
 40
1.0
 40
1.0
 10
25.8563908662
 20
22.25
 30
0.0
 10
25.856394049
 20
22.4346079008
 30
0.0
 10
25.8284120788
 20
22.80441002
 30
0.0
 10
25.7032770476
 20
23.345887769
 30
0.0
 10
25.4975226243
 20
23.8622808411
 30
0.0
 10
25.2148436048
 20
24.3406315698
 30
0.0
 10
24.9229842429
 20
24.7001727428
 30
0.0
 10
24.6602898285
 20
24.9598461787
 30
0.0
 10
24.4492871068
 20
25.1395821257
 30
0.0
 10
24.2266986057
 20
25.3046800651
 30
0.0
 10
23.9942320487
 20
25.4556530604
 30
0.0
 10
23.7514933119
 20
25.589680162
 30
0.0
 10
23.5829669273
 20
25.6657978493
 30
0.0
 10
23.4974017518
 20
25.7005370311
 30
0.0
 11
25.8563908662
 21
22.25
 31
0.0
 11
25.8145458296
 21
22.8022406055
 31
0.0
 11
25.6898258434
 21
23.3417534228
 31
0.0
 11
25.4846793299
 21
23.8559866323
 31
0.0
 11
25.2035748623
 21
24.3328315257
 31
0.0
 11
24.8549410632
 21
24.7626933497
 31
0.0
 11
24.6579736382
 21
24.9573293761
 31
0.0
 11
24.447368964
 21
25.1371323449
 31
0.0
 11
24.2250683611
 21
25.3023147014
 31
0.0
 11
23.9925309845
 21
25.4528221333
 31
0.0
 11
23.7498280312
 21
25.5863667039
 31
0.0
 11
23.4974017518
 21
25.7005370311
 31
0.0
  0
SPLINE
  5
481
100
AcDbEntity
  8
RACCORDO
100
AcDbSpline
 62
253
  6
CONTINUOUS
 70
0
 71
3
 72
18
 73
14
 74
12
 42
0.0000001
 43
0.0000001
 44
0.0000000001
 12
4.1046540429
 22
1.6664776697
 32
0.0
 13
-0.0002247223
 23
4.4300488243
 33
0.0
 40
0.0
 40
0.0
 40
0.0
 40
0.0
 40
0.0625338603
 40
0.1250615084
 40
0.1875837358
 40
0.2500965151
 40
0.3126010431
 40
0.3751034123
 40
0.500029015
 40
0.6249718234
 40
0.7499490473
 40
0.8749591068
 40
1.0
 40
1.0
 40
1.0
 40
1.0
 10
23.4974022065
 20
45.2994631605
 30
0.0
 10
23.5829621606
 20
45.3342002544
 30
0.0
 10
23.7514780496
 20
45.4103132908
 30
0.0
 10
23.9942034071
 20
45.5443284906
 30
0.0
 10
24.2266552432
 20
45.6952912
 30
0.0
 10
24.4492337423
 20
45.860371414
 30
0.0
 10
24.6602210888
 20
46.0400948015
 30
0.0
 10
24.9229051924
 20
46.2997391041
 30
0.0
 10
25.2147565725
 20
46.6592453352
 30
0.0
 10
25.4974523796
 20
47.1375621109
 30
0.0
 10
25.7032289441
 20
47.6539613797
 30
0.0
 10
25.8283969238
 20
48.1954939984
 30
0.0
 10
25.8564002327
 20
48.5653542461
 30
0.0
 10
25.8563908662
 20
48.75
 30
0.0
 11
23.4974022065
 21
45.2994631605
 31
0.0
 11
23.7498133469
 21
45.4136260231
 31
0.0
 11
23.9925024554
 21
45.5471598869
 31
0.0
 11
24.2250258102
 21
45.6976553423
 31
0.0
 11
24.4473152856
 21
45.862822524
 31
0.0
 11
24.6579068228
 21
46.0426106443
 31
0.0
 11
24.8548645483
 21
46.2372254491
 31
0.0
 11
25.2034889214
 21
46.6670416419
 31
0.0
 11
25.4846011806
 21
47.1438447284
 31
0.0
 11
25.6897724111
 21
47.6580809112
 31
0.0
 11
25.8145268648
 21
48.1976469462
 31
0.0
 11
25.8563908662
 21
48.75
 31
0.0
  0
SPLINE
  5
482
100
AcDbEntity
  8
RACCORDO
100
AcDbSpline
 62
253
  6
CONTINUOUS
 70
0
 71
3
 72
18
 73
14
 74
12
 42
0.0000001
 43
0.0000001
 44
0.0000000001
 12
0.8634501415
 22
0.0091009404
 32
0.0
 13
0.6206524223
 23
0.6003495186
 33
0.0
 40
0.0
 40
0.0
 40
0.0
 40
0.0
 40
0.1939297322
 40
0.377472828
 40
0.5451655637
 40
0.6921382834
 40
0.814077025
 40
0.8645308349
 40
0.9074733409
 40
0.9426190021
 40
0.9697639979
 40
0.9888138607
 40
1.0
 40
1.0
 40
1.0
 40
1.0
 10
38.8761261139
 20
-108.0528968235
 30
0.0
 10
38.9319423322
 20
-108.0523085092
 30
0.0
 10
39.0405809579
 20
-108.0506633925
 30
0.0
 10
39.1974501859
 20
-108.0467103826
 30
0.0
 10
39.3407590348
 20
-108.0414459075
 30
0.0
 10
39.4662671231
 20
-108.0350377518
 30
0.0
 10
39.5579812429
 20
-108.0286237894
 30
0.0
 10
39.619688313
 20
-108.0228358187
 30
0.0
 10
39.6564636576
 20
-108.0186342716
 30
0.0
 10
39.6864157563
 20
-108.0143223272
 30
0.0
 10
39.7095275347
 20
-108.0100156303
 30
0.0
 10
39.7253039637
 20
-108.0056829301
 30
0.0
 10
39.733638538
 20
-108.0022385311
 30
0.0
 10
39.7359527728
 20
-108.0
 30
0.0
 11
38.8761261139
 21
-108.0528968235
 31
0.0
 11
39.0435643949
 21
-108.050329908
 31
0.0
 11
39.2020016915
 21
-108.0462774246
 31
0.0
 11
39.3467026612
 21
-108.040859622
 31
0.0
 11
39.4734403635
 21
-108.0342360547
 31
0.0
 11
39.5784571281
 21
-108.0266020097
 31
0.0
 11
39.6218280452
 21
-108.0224756412
 31
0.0
 11
39.6586595907
 21
-108.0181836779
 31
0.0
 11
39.6886832386
 21
-108.0137571077
 31
0.0
 11
39.7116809949
 21
-108.0092271514
 31
0.0
 11
39.7274745384
 21
-108.0046281617
 31
0.0
 11
39.7359527728
 21
-108.0
 31
0.0
  0
SPLINE
  5
483
100
AcDbEntity
  8
RACCORDO
100
AcDbSpline
 62
253
  6
CONTINUOUS
 70
0
 71
3
 72
18
 73
14
 74
12
 42
0.0000001
 43
0.0000001
 44
0.0000000001
 12
-0.0063267441
 22
-0.86483504
 32
0.0
 13
-0.4873579808
 23
-0.7144661453
 33
0.0
 40
0.0
 40
0.0
 40
0.0
 40
0.0
 40
0.1941912616
 40
0.3780375481
 40
0.5460298279
 40
0.6932525837
 40
0.8153425276
 40
0.8658160768
 40
0.9087285491
 40
0.9437795019
 40
0.9707392838
 40
0.9894575956
 40
1.0
 40
1.0
 40
1.0
 40
1.0
 10
37.0373529021
 20
-109.8738009785
 30
0.0
 10
37.0369433693
 20
-109.9297821143
 30
0.0
 10
37.0357916109
 20
-110.0387600267
 30
0.0
 10
37.0330106181
 20
-110.196149468
 30
0.0
 10
37.0292990366
 20
-110.3399765779
 30
0.0
 10
37.0247745257
 20
-110.4659650819
 30
0.0
 10
37.0202450156
 20
-110.5580520924
 30
0.0
 10
37.0161501673
 20
-110.620032464
 30
0.0
 10
37.0131868956
 20
-110.6569526484
 30
0.0
 10
37.0101230948
 20
-110.6870189795
 30
0.0
 10
37.0071282681
 20
-110.7101755134
 30
0.0
 10
37.0039967997
 20
-110.7259448887
 30
0.0
 10
37.0017126415
 20
-110.7342959654
 30
0.0
 10
36.9999999999
 20
-110.7368066957
 30
0.0
 11
37.0373529021
 21
-109.8738009785
 31
0.0
 11
37.0355559555
 21
-110.0417392664
 31
0.0
 11
37.0327046939
 21
-110.2007146645
 31
0.0
 11
37.0288841062
 21
-110.3459539195
 31
0.0
 11
37.0242072303
 21
-110.4731948016
 31
0.0
 11
37.0188125895
 21
-110.5786473918
 31
0.0
 11
37.0158955016
 21
-110.6222022771
 31
0.0
 11
37.0128607596
 21
-110.6591911966
 31
0.0
 11
37.0097303753
 21
-110.6893432371
 31
0.0
 11
37.0065265291
 21
-110.71243846
 31
0.0
 11
37.0032736292
 21
-110.7282969646
 31
0.0
 11
36.9999999999
 21
-110.7368066957
 31
0.0
  0
SPLINE
  5
484
100
AcDbEntity
  8
RACCORDO
100
AcDbSpline
 62
253
  6
CONTINUOUS
 70
0
 71
3
 72
11
 73
7
 74
5
 42
0.0000001
 43
0.0000001
 44
0.0000000001
 12
2.2779842994
 22
0.8235175113
 32
0.0
 13
-0.0000190998
 23
2.4222703316
 33
0.0
 40
0.0
 40
0.0
 40
0.0
 40
0.0
 40
0.2500804462
 40
0.5000409152
 40
0.7499958621
 40
1.0
 40
1.0
 40
1.0
 40
1.0
 10
22.9188423999
 20
46.8998704614
 30
0.0
 10
23.1087355098
 20
46.9685190036
 30
0.0
 10
23.4714452862
 20
47.1603887746
 30
0.0
 10
23.9065593592
 20
47.5947177664
 30
0.0
 10
24.1884208195
 20
48.1415742831
 30
0.0
 10
24.2535148022
 20
48.5481186568
 30
0.0
 10
24.2535132105
 20
48.7499778588
 30
0.0
 11
22.9188423999
 21
46.8998704614
 31
0.0
 11
23.4533715037
 21
47.1848735795
 31
0.0
 11
23.881028856
 21
47.6134821698
 31
0.0
 11
24.1577037633
 21
48.1520273702
 31
0.0
 11
24.2535132105
 21
48.7499778588
 31
0.0
  0
SPLINE
  5
485
100
AcDbEntity
  8
RACCORDO
100
AcDbSpline
 62
253
  6
CONTINUOUS
 70
0
 71
3
 72
11
 73
7
 74
5
 42
0.0000001
 43
0.0000001
 44
0.0000000001
 12
-0.0000065951
 22
-2.4222848284
 32
0.0
 13
2.2779979347
 23
-0.8235224342
 33
0.0
 40
0.0
 40
0.0
 40
0.0
 40
0.0
 40
0.2499649362
 40
0.4999259671
 40
0.7499044625
 40
1.0
 40
1.0
 40
1.0
 40
1.0
 10
-24.2535132541
 20
48.7499924139
 30
0.0
 10
-24.2535138036
 20
48.5481636564
 30
0.0
 10
-24.1884410597
 20
48.1416443566
 30
0.0
 10
-23.9066092283
 20
47.5947804122
 30
0.0
 10
-23.4714832387
 20
47.1604108924
 30
0.0
 10
-23.1087481058
 20
46.9685235567
 30
0.0
 10
-22.9188423999
 20
46.8998704614
 30
0.0
 11
-24.2535132541
 21
48.7499924139
 31
0.0
 11
-24.1577372574
 21
48.1521290644
 31
0.0
 11
-23.8810810131
 21
47.6135536347
 31
0.0
 11
-23.4534041993
 21
47.1848976611
 31
0.0
 11
-22.9188423999
 21
46.8998704614
 31
0.0
  0
SPLINE
  5
486
100
AcDbEntity
  8
RACCORDO
100
AcDbSpline
 62
253
  6
CONTINUOUS
 70
0
 71
3
 72
13
 73
9
 74
7
 42
0.0000001
 43
0.0000001
 44
0.0000000001
 12
10.4812856949
 22
0.0017417268
 32
0.0
 13
10.4809668408
 23
0.0817736767
 33
0.0
 40
0.0
 40
0.0
 40
0.0
 40
0.0
 40
0.2500003128
 40
0.5000006353
 40
0.6250007685
 40
0.7500007673
 40
0.8750008318
 40
1.0
 40
1.0
 40
1.0
 40
1.0
 10
11.75
 20
-96.8576119728
 30
0.0
 10
12.6234415673
 20
-96.8574668287
 30
0.0
 10
14.3703247309
 20
-96.8577306186
 30
0.0
 10
16.5539287755
 20
-96.8566163915
 30
0.0
 10
18.3008094626
 20
-96.8538831063
 30
0.0
 10
19.6109662245
 20
-96.8502488528
 30
0.0
 10
20.9211150772
 20
-96.8454040909
 30
0.0
 10
21.7945421872
 20
-96.8407076169
 30
0.0
 10
22.231246233
 20
-96.837300403
 30
0.0
 11
11.75
 21
-96.8576119728
 31
0.0
 11
14.3703247324
 21
-96.8574418257
 31
0.0
 11
16.9906490463
 21
-96.8557795778
 31
0.0
 11
18.3008093908
 21
-96.8536190569
 31
0.0
 11
19.6109652385
 21
-96.8500471001
 31
0.0
 11
20.9211170665
 21
-96.8450374177
 31
0.0
 11
22.231246233
 21
-96.837300403
 31
0.0
  0
SPLINE
  5
487
100
AcDbEntity
  8
RACCORDO
100
AcDbSpline
 62
253
  6
CONTINUOUS
 70
0
 71
3
 72
13
 73
9
 74
7
 42
0.0000001
 43
0.0000001
 44
0.0000000001
 12
0.0617188593
 22
-22.2499375197
 32
0.0
 13
-0.0001128891
 23
-22.2500231199
 33
0.0
 40
0.0
 40
0.0
 40
0.0
 40
0.0
 40
0.1249999281
 40
0.2499999321
 40
0.3749999396
 40
0.4999999503
 40
0.7499999748
 40
1.0
 40
1.0
 40
1.0
 40
1.0
 10
-24.2603442858
 20
93.24999955
 30
0.0
 10
-24.2577726681
 20
92.3229193532
 30
0.0
 10
-24.2569668509
 20
90.4687490135
 30
0.0
 10
-24.2554810301
 20
87.6874979377
 30
0.0
 10
-24.2544451484
 20
84.9062448024
 30
0.0
 10
-24.2536402959
 20
81.1979074616
 30
0.0
 10
-24.253368458
 20
76.5624854742
 30
0.0
 10
-24.2535038612
 20
72.854147934
 30
0.0
 10
-24.2535132686
 20
70.9999791536
 30
0.0
 11
-24.2603442858
 21
93.24999955
 31
0.0
 11
-24.2569206687
 21
90.4687503666
 31
0.0
 11
-24.25555602
 21
87.6874977217
 31
0.0
 11
-24.2545171888
 21
84.9062448607
 31
0.0
 11
-24.2538904575
 21
82.1249918026
 31
0.0
 11
-24.2534566764
 21
76.5624854946
 31
0.0
 11
-24.2535132686
 21
70.9999791536
 31
0.0
  0
SPLINE
  5
488
100
AcDbEntity
  8
RACCORDO
100
AcDbSpline
 62
253
  6
CONTINUOUS
 70
0
 71
3
 72
38
 73
34
 74
32
 42
0.0000001
 43
0.0000001
 44
0.0000000001
 12
5.6696504363
 22
0.0443263231
 32
0.0
 13
0.0067362464
 23
5.6698197075
 33
0.0
 40
0.0
 40
0.0
 40
0.0
 40
0.0
 40
0.0624907113
 40
0.0781193623
 40
0.0937478314
 40
0.109376308
 40
0.1250048325
 40
0.1406332145
 40
0.1562616987
 40
0.1875167004
 40
0.2187716207
 40
0.2500264523
 40
0.3125128844
 40
0.3437677098
 40
0.3750220564
 40
0.4062752811
 40
0.4375289336
 40
0.5000160679
 40
0.5625036562
 40
0.6249909668
 40
0.6562455756
 40
0.6874994518
 40
0.7187523752
 40
0.7343796713
 40
0.7500072518
 40
0.7656342543
 40
0.781260568
 40
0.7968865181
 40
0.8125134246
 40
0.8437658633
 40
0.8750196865
 40
0.9375085396
 40
1.0
 40
1.0
 40
1.0
 40
1.0
 10
22.231246233
 20
-96.837300403
 30
0.0
 10
22.349346396
 20
-96.8363770752
 30
0.0
 10
22.4970740544
 20
-96.8277637376
 30
0.0
 10
22.6729978548
 20
-96.8066998321
 30
0.0
 10
22.7606519372
 20
-96.7935975388
 30
0.0
 10
22.8478940179
 20
-96.7780647113
 30
0.0
 10
22.9350794867
 20
-96.7622338084
 30
0.0
 10
23.021973054
 20
-96.7448323144
 30
0.0
 10
23.1372371209
 20
-96.7188699311
 30
0.0
 10
23.2802080327
 20
-96.6816546157
 30
0.0
 10
23.4493326262
 20
-96.6284743636
 30
0.0
 10
23.6710393512
 20
-96.5467294413
 30
0.0
 10
23.886463998
 20
-96.4485197601
 30
0.0
 10
24.0928079174
 20
-96.333349823
 30
0.0
 10
24.2435877084
 20
-96.24012948
 30
0.0
 10
24.3895179139
 20
-96.1394525876
 30
0.0
 10
24.5766291367
 20
-95.995106916
 30
0.0
 10
24.796255683
 20
-95.7968900589
 30
0.0
 10
25.0330794993
 20
-95.5325021343
 30
0.0
 10
25.2055224136
 20
-95.2920440401
 30
0.0
 10
25.3271998107
 20
-95.0894434404
 30
0.0
 10
25.4100566606
 20
-94.932705449
 30
0.0
 10
25.4720380753
 20
-94.7985871932
 30
0.0
 10
25.5170168551
 20
-94.6893325793
 30
0.0
 10
25.5485502587
 20
-94.6065249731
 30
0.0
 10
25.5794408357
 20
-94.523479375
 30
0.0
 10
25.6121061366
 20
-94.4411196858
 30
0.0
 10
25.6433012302
 20
-94.3581807076
 30
0.0
 10
25.6809080741
 20
-94.2461729276
 30
0.0
 10
25.7218273454
 20
-94.1042095224
 30
0.0
 10
25.7759240243
 20
-93.8741676032
 30
0.0
 10
25.8208106022
 20
-93.5817657435
 30
0.0
 10
25.8328672097
 20
-93.3454153957
 30
0.0
 10
25.833007529
 20
-93.2273102911
 30
0.0
 11
22.231246233
 21
-96.837300403
 31
0.0
 11
22.5849684124
 21
-96.8168766676
 31
0.0
 11
22.6729432388
 21
-96.8062718329
 31
0.0
 11
22.760583296
 21
-96.7931924466
 31
0.0
 11
22.8478845205
 21
-96.7780150431
 31
0.0
 11
22.9350310985
 21
-96.7619719933
 31
0.0
 11
23.0218990703
 21
-96.7444872032
 31
0.0
 11
23.1083500006
 21
-96.7250423667
 31
0.0
 11
23.2798018367
 21
-96.6802341531
 31
0.0
 11
23.4488639013
 21
-96.6271176513
 31
0.0
 11
23.6151198936
 21
-96.5657815993
 31
0.0
 11
23.9372644398
 21
-96.4183292061
 31
0.0
 11
24.0921413453
 21
-96.3322112762
 31
0.0
 11
24.2427815325
 21
-96.2388853656
 31
0.0
 11
24.3885883925
 21
-96.138186325
 31
0.0
 11
24.5289239492
 21
-96.0299886891
 31
0.0
 11
24.7918032182
 21
-95.7924668422
 31
0.0
 11
25.0280953058
 21
-95.5284781843
 31
0.0
 11
25.2345678515
 21
-95.2405685911
 31
0.0
 11
25.3257979091
 21
-95.0886482333
 31
0.0
 11
25.4086443509
 21
-94.9320030501
 31
0.0
 11
25.482897899
 21
-94.771112583
 31
0.0
 11
25.5166497501
 21
-94.6891889365
 31
0.0
 11
25.5484436136
 21
-94.6064839952
 31
0.0
 11
25.5797372734
 21
-94.5235919984
 31
0.0
 11
25.6118613649
 21
-94.44102247
 31
0.0
 11
25.6428023161
 21
-94.3580045414
 31
0.0
 11
25.6711008061
 21
-94.2740433875
 31
0.0
 11
25.7204058913
 21
-94.1038453666
 31
0.0
 11
25.7608898253
 21
-93.9313281472
 31
0.0
 11
25.8148474407
 21
-93.5811601605
 31
0.0
 11
25.833007529
 21
-93.2273102911
 31
0.0
  0
SPLINE
  5
489
100
AcDbEntity
  8
RACCORDO
100
AcDbSpline
 62
253
  6
CONTINUOUS
 70
0
 71
3
 72
17
 73
13
 74
11
 42
0.0000001
 43
0.0000001
 44
0.0000000001
 12
-3.1489181328
 22
0.0137770226
 32
0.0
 13
0.0166944307
 23
-3.1489040172
 33
0.0
 40
0.0
 40
0.0
 40
0.0
 40
0.0
 40
0.1249442323
 40
0.249913016
 40
0.3124698738
 40
0.3750238401
 40
0.4999932275
 40
0.6249692753
 40
0.7499450294
 40
0.8124985865
 40
0.8750527275
 40
1.0
 40
1.0
 40
1.0
 40
1.0
 10
-22.249999991
 20
95.2582091929
 30
0.0
 10
-22.3811463772
 20
95.2587829794
 30
0.0
 10
-22.6442737864
 20
95.2323564372
 30
0.0
 10
-22.9597086519
 20
95.1351758739
 30
0.0
 10
-23.1974216394
 20
95.0229432686
 30
0.0
 10
-23.4224144395
 20
94.8869474261
 30
0.0
 10
-23.6765987971
 20
94.6760794657
 30
0.0
 10
-23.9277883778
 20
94.3701815402
 30
0.0
 10
-24.0851095572
 20
94.079918197
 30
0.0
 10
-24.1764658268
 20
93.8334095297
 30
0.0
 10
-24.2417204738
 20
93.5788235799
 30
0.0
 10
-24.2610395924
 20
93.3811485394
 30
0.0
 10
-24.2603442846
 20
93.24999955
 30
0.0
 11
-22.249999991
 21
95.2582091929
 31
0.0
 11
-22.6415377203
 21
95.2195369651
 31
0.0
 11
-23.0178042865
 21
95.1042909381
 31
0.0
 11
-23.1958333199
 21
95.0199697829
 31
0.0
 11
-23.3644597634
 21
94.9181565743
 31
0.0
 11
-23.6676325749
 21
94.6672663234
 31
0.0
 11
-23.917380523
 21
94.3631246761
 31
0.0
 11
-24.1050306819
 21
94.0172014633
 31
0.0
 11
-24.1732021493
 21
93.8323962952
 31
0.0
 11
-24.2221424698
 21
93.6415930755
 31
0.0
 11
-24.2603442846
 21
93.24999955
 31
0.0
  0
SPLINE
  5
48A
100
AcDbEntity
  8
RACCORDO
100
AcDbSpline
 62
253
  6
CONTINUOUS
 70
0
 71
3
 72
15
 73
11
 74
9
 42
0.0000001
 43
0.0000001
 44
0.0000000001
 12
0.0265949619
 22
22.2273167918
 32
0.0
 13
0.0002438795
 23
22.2273327009
 33
0.0
 40
0.0
 40
0.0
 40
0.0
 40
0.0
 40
0.0624993788
 40
0.1249993387
 40
0.1874993562
 40
0.2499993768
 40
0.3749994424
 40
0.4999995409
 40
0.7499997658
 40
1.0
 40
1.0
 40
1.0
 40
1.0
 10
25.833007529
 20
-93.2273102911
 30
0.0
 10
25.8335615852
 20
-92.7642457939
 30
0.0
 10
25.8346988732
 20
-91.8381124175
 30
0.0
 10
25.8380497606
 20
-90.4489126084
 30
0.0
 10
25.8426832486
 20
-89.0597119715
 30
0.0
 10
25.8470930898
 20
-87.2074385276
 30
0.0
 10
25.8510480299
 20
-84.892093186
 30
0.0
 10
25.855027181
 20
-81.1875368244
 30
0.0
 10
25.8569110115
 20
-76.5568382876
 30
0.0
 10
25.8563705466
 20
-72.8522794602
 30
0.0
 10
25.8563908699
 20
-71.0
 30
0.0
 11
25.833007529
 21
-93.2273102911
 31
0.0
 11
25.8349730236
 21
-91.8381171955
 31
0.0
 11
25.8382635242
 21
-90.4489136902
 31
0.0
 11
25.8424622304
 21
-89.059711351
 31
0.0
 11
25.8458868051
 21
-87.6705068217
 31
0.0
 11
25.8507544353
 21
-84.89209304
 31
0.0
 11
25.8538263858
 21
-82.1136759598
 31
0.0
 11
25.8563991291
 21
-76.556838381
 31
0.0
 11
25.8563908699
 21
-71.0
 31
0.0
  0
SPLINE
  5
48B
100
AcDbEntity
  8
RACCORDO
100
AcDbSpline
 62
253
  6
CONTINUOUS
 70
0
 71
3
 72
10
 73
6
 74
4
 42
0.0000001
 43
0.0000001
 44
0.0000000001
 12
-10.5001128476
 22
-0.0241077342
 32
0.0
 13
-10.5001405167
 23
0.0003548173
 33
0.0
 40
0.0
 40
0.0
 40
0.0
 40
0.0
 40
0.2499999134
 40
0.4999999284
 40
1.0
 40
1.0
 40
1.0
 40
1.0
 10
22.24999965
 20
95.2582091924
 30
0.0
 10
21.3749905491
 20
95.2562002153
 30
0.0
 10
19.6249668453
 20
95.2548038424
 30
0.0
 10
16.1249207243
 20
95.2533578257
 30
0.0
 10
13.4998850203
 20
95.2537358833
 30
0.0
 10
11.7498613503
 20
95.2537950195
 30
0.0
 11
22.24999965
 21
95.2582091924
 31
0.0
 11
19.6249674243
 21
95.2549721838
 31
0.0
 11
16.9999323626
 21
95.2538818377
 31
0.0
 11
11.7498613503
 21
95.2537950195
 31
0.0
  0
SPLINE
  5
48C
100
AcDbEntity
  8
RACCORDO
100
AcDbSpline
 62
253
  6
CONTINUOUS
 70
0
 71
3
 72
10
 73
6
 74
4
 42
0.0000001
 43
0.0000001
 44
0.0000000001
 12
-10.5001408576
 22
-0.0003556045
 32
0.0
 13
-10.5001131239
 23
0.0241359045
 33
0.0
 40
0.0
 40
0.0
 40
0.0
 40
0.0
 40
0.5000000716
 40
0.7500000866
 40
1.0
 40
1.0
 40
1.0
 40
1.0
 10
-11.7498613503
 20
95.2537950195
 30
0.0
 10
-13.4998850772
 20
95.2537357521
 30
0.0
 10
-16.1249208682
 20
95.2533572182
 30
0.0
 10
-19.6249670988
 20
95.2548049805
 30
0.0
 10
-21.3749908672
 20
95.2561978683
 30
0.0
 10
-22.249999991
 20
95.2582091929
 30
0.0
 11
-11.7498613503
 21
95.2537950195
 31
0.0
 11
-16.9999325334
 21
95.253881865
 31
0.0
 11
-19.6249676806
 21
95.2549722324
 31
0.0
 11
-22.249999991
 21
95.2582091929
 31
0.0
  0
SPLINE
  5
48D
100
AcDbEntity
  8
RACCORDO
100
AcDbSpline
 62
253
  6
CONTINUOUS
 70
0
 71
3
 72
17
 73
13
 74
11
 42
0.0000001
 43
0.0000001
 44
0.0000000001
 12
0.0166946179
 22
3.1489040037
 32
0.0
 13
-3.1489181214
 23
-0.0137767744
 33
0.0
 40
0.0
 40
0.0
 40
0.0
 40
0.0
 40
0.124946164
 40
0.1874999258
 40
0.2500535322
 40
0.3750293388
 40
0.5000062178
 40
0.6249760823
 40
0.6875302319
 40
0.750087321
 40
0.8750562808
 40
1.0
 40
1.0
 40
1.0
 40
1.0
 10
24.2603442862
 20
93.2499999186
 30
0.0
 10
24.2610395957
 20
93.3811477439
 30
0.0
 10
24.2417207189
 20
93.5788211923
 30
0.0
 10
24.1764670219
 20
93.8334058142
 30
0.0
 10
24.0851114774
 20
94.0799144466
 30
0.0
 10
23.9277902104
 20
94.3701788666
 30
0.0
 10
23.6766001685
 20
94.6760782953
 30
0.0
 10
23.4224146433
 20
94.8869473499
 30
0.0
 10
23.1974210196
 20
95.0229436418
 30
0.0
 10
22.9597074065
 20
95.1351763861
 30
0.0
 10
22.6442725319
 20
95.2323565608
 30
0.0
 10
22.3811454971
 20
95.2587829654
 30
0.0
 10
22.24999965
 20
95.2582091916
 30
0.0
 11
24.2603442862
 21
93.2499999186
 31
0.0
 11
24.2221431005
 21
93.6415899967
 31
0.0
 11
24.1732034934
 21
93.8323921656
 31
0.0
 11
24.105032418
 21
94.0171976433
 31
0.0
 11
23.9173827744
 21
94.3631213216
 31
0.0
 11
23.6676335707
 21
94.6672653229
 31
0.0
 11
23.3644596884
 21
94.9181566338
 31
0.0
 11
23.1958327339
 21
95.019970111
 31
0.0
 11
23.0178029957
 21
95.1042914784
 31
0.0
 11
22.6415357868
 21
95.2195372953
 31
0.0
 11
22.24999965
 21
95.2582091916
 31
0.0
  0
SPLINE
  5
48E
100
AcDbEntity
  8
RACCORDO
100
AcDbSpline
 62
253
  6
CONTINUOUS
 70
0
 71
3
 72
13
 73
9
 74
7
 42
0.0000001
 43
0.0000001
 44
0.0000000001
 12
-0.0001129385
 22
22.2500234876
 32
0.0
 13
0.0617495943
 23
22.2499378021
 33
0.0
 40
0.0
 40
0.0
 40
0.0
 40
0.0
 40
0.2500000253
 40
0.5000000498
 40
0.6250000605
 40
0.750000068
 40
0.875000072
 40
1.0
 40
1.0
 40
1.0
 40
1.0
 10
24.2535132686
 20
70.9999791554
 30
0.0
 10
24.2535038571
 20
72.8541479667
 30
0.0
 10
24.2533684765
 20
76.5624855686
 30
0.0
 10
24.2536402563
 20
81.1979076332
 30
0.0
 10
24.2544451574
 20
84.9062450357
 30
0.0
 10
24.2554815324
 20
87.6874982177
 30
0.0
 10
24.2569650578
 20
90.4687493388
 30
0.0
 10
24.2577713881
 20
92.322919711
 30
0.0
 10
24.2603442864
 20
93.2499999186
 30
0.0
 11
24.2535132686
 21
70.9999791554
 31
0.0
 11
24.2534566776
 21
76.562485589
 31
0.0
 11
24.2538904381
 21
82.1249919897
 31
0.0
 11
24.254517274
 21
84.9062450939
 31
0.0
 11
24.2555560575
 21
87.6874980014
 31
0.0
 11
24.2569193864
 21
90.468750694
 31
0.0
 11
24.2603442864
 21
93.2499999186
 31
0.0
  0
SPLINE
  5
48F
100
AcDbEntity
  8
RACCORDO
100
AcDbSpline
 62
253
  6
CONTINUOUS
 70
0
 71
3
 72
14
 73
10
 74
8
 42
0.0000001
 43
0.0000001
 44
0.0000000001
 12
25.2499186114
 22
0.0536694317
 32
0.0
 13
25.2499756491
 23
-0.0000836501
 33
0.0
 40
0.0
 40
0.0
 40
0.0
 40
0.0
 40
0.0624913213
 40
0.1249885151
 40
0.2499817891
 40
0.3749798717
 40
0.4999803298
 40
0.7499896207
 40
1.0
 40
1.0
 40
1.0
 40
1.0
 10
-37.0
 20
-110.7368093679
 30
0.0
 10
-36.4740330745
 20
-110.73569141
 30
0.0
 10
-35.422046636
 20
-110.7354490157
 30
0.0
 10
-33.3180363474
 20
-110.7336692098
 30
0.0
 10
-30.687927596
 20
-110.7315518203
 30
0.0
 10
-27.531750081
 20
-110.7297645796
 30
0.0
 10
-23.3233554407
 20
-110.7275137922
 30
0.0
 10
-18.0627742343
 20
-110.7271501071
 30
0.0
 10
-13.8542794772
 20
-110.7278497895
 30
0.0
 10
-11.7500274807
 20
-110.7278567606
 30
0.0
 11
-37.0
 21
-110.7368093679
 31
0.0
 11
-35.4220963933
 21
-110.7352871694
 31
0.0
 11
-33.8440442019
 21
-110.734121329
 31
0.0
 11
-30.6879680246
 21
-110.7316774572
 31
0.0
 11
-27.5317700523
 21
-110.7297811265
 31
0.0
 11
-24.3755119052
 21
-110.7282398348
 31
0.0
 11
-18.0627834537
 21
-110.7273977648
 31
0.0
 11
-11.7500274807
 21
-110.7278567606
 31
0.0
  0
SPLINE
  5
490
100
AcDbEntity
  8
RACCORDO
100
AcDbSpline
 62
253
  6
CONTINUOUS
 70
0
 71
3
 72
11
 73
7
 74
5
 42
0.0000001
 43
0.0000001
 44
0.0000000001
 12
2.2779842994
 22
0.8235175113
 32
0.0
 13
-0.0000190998
 23
2.4222703316
 33
0.0
 40
0.0
 40
0.0
 40
0.0
 40
0.0
 40
0.2500804462
 40
0.5000409152
 40
0.7499958621
 40
1.0
 40
1.0
 40
1.0
 40
1.0
 10
22.9188423999
 20
-24.1001295386
 30
0.0
 10
23.1087355098
 20
-24.0314809964
 30
0.0
 10
23.4714452862
 20
-23.8396112254
 30
0.0
 10
23.9065593592
 20
-23.4052822336
 30
0.0
 10
24.1884208195
 20
-22.8584257169
 30
0.0
 10
24.2535148022
 20
-22.4518813432
 30
0.0
 10
24.2535132105
 20
-22.2500221412
 30
0.0
 11
22.9188423999
 21
-24.1001295386
 31
0.0
 11
23.4533715037
 21
-23.8151264205
 31
0.0
 11
23.881028856
 21
-23.3865178302
 31
0.0
 11
24.1577037633
 21
-22.8479726298
 31
0.0
 11
24.2535132105
 21
-22.2500221412
 31
0.0
  0
SPLINE
  5
491
100
AcDbEntity
  8
RACCORDO
100
AcDbSpline
 62
253
  6
CONTINUOUS
 70
0
 71
3
 72
14
 73
10
 74
8
 42
0.0000001
 43
0.0000001
 44
0.0000000001
 12
25.2499077237
 22
0.0000836669
 32
0.0
 13
25.2498506859
 23
-0.05366938
 33
0.0
 40
0.0
 40
0.0
 40
0.0
 40
0.0
 40
0.2500103791
 40
0.5000196699
 40
0.625020128
 40
0.7500182101
 40
0.8750114841
 40
0.9375086777
 40
1.0
 40
1.0
 40
1.0
 40
1.0
 10
11.7500274807
 20
-110.7278567606
 30
0.0
 10
13.8542738149
 20
-110.7278497881
 30
0.0
 10
18.0627572481
 20
-110.7271501081
 30
0.0
 10
23.3233242998
 20
-110.7275137987
 30
0.0
 10
27.5317076134
 20
-110.7297645308
 30
0.0
 10
30.6878766334
 20
-110.731551877
 30
0.0
 10
33.3179783044
 20
-110.73366912
 30
0.0
 10
35.4219829403
 20
-110.7354490175
 30
0.0
 10
36.4739665558
 20
-110.7356912718
 30
0.0
 10
36.9999320747
 20
-110.7368092287
 30
0.0
 11
11.7500274807
 21
-110.7278567606
 31
0.0
 11
18.0627664666
 21
-110.7273977663
 31
0.0
 11
24.3754779338
 21
-110.7282398224
 31
0.0
 11
27.5317275883
 21
-110.7297811021
 31
0.0
 11
30.687917057
 21
-110.731677467
 31
0.0
 11
33.8439847457
 21
-110.7341212795
 31
0.0
 11
35.4220326879
 21
-110.7352871247
 31
0.0
 11
36.9999320747
 21
-110.7368092287
 31
0.0
  0
SPLINE
  5
492
100
AcDbEntity
  8
RACCORDO
100
AcDbSpline
 62
253
  6
CONTINUOUS
 70
0
 71
3
 72
11
 73
7
 74
5
 42
0.0000001
 43
0.0000001
 44
0.0000000001
 12
-0.0000065951
 22
-2.4222848284
 32
0.0
 13
2.2779979347
 23
-0.8235224342
 33
0.0
 40
0.0
 40
0.0
 40
0.0
 40
0.0
 40
0.2499649362
 40
0.4999259671
 40
0.7499044625
 40
1.0
 40
1.0
 40
1.0
 40
1.0
 10
-24.2535132541
 20
-22.2500075861
 30
0.0
 10
-24.2535138036
 20
-22.4518363436
 30
0.0
 10
-24.1884410597
 20
-22.8583556434
 30
0.0
 10
-23.9066092283
 20
-23.4052195878
 30
0.0
 10
-23.4714832387
 20
-23.8395891076
 30
0.0
 10
-23.1087481058
 20
-24.0314764433
 30
0.0
 10
-22.9188423999
 20
-24.1001295386
 30
0.0
 11
-24.2535132541
 21
-22.2500075861
 31
0.0
 11
-24.1577372574
 21
-22.8478709356
 31
0.0
 11
-23.8810810131
 21
-23.3864463653
 31
0.0
 11
-23.4534041993
 21
-23.8151023389
 31
0.0
 11
-22.9188423999
 21
-24.1001295386
 31
0.0
  0
SPLINE
  5
493
100
AcDbEntity
  8
RACCORDO
100
AcDbSpline
 62
253
  6
CONTINUOUS
 70
0
 71
3
 72
11
 73
7
 74
5
 42
0.0000001
 43
0.0000001
 44
0.0000000001
 12
-2.2779842714
 22
-0.8235175676
 32
0.0
 13
0.0000191016
 23
-2.4222703244
 33
0.0
 40
0.0
 40
0.0
 40
0.0
 40
0.0
 40
0.2500804402
 40
0.5000409077
 40
0.7499958556
 40
1.0
 40
1.0
 40
1.0
 40
1.0
 10
-22.9188423999
 20
24.1001295386
 30
0.0
 10
-23.108735503
 20
24.0314809933
 30
0.0
 10
-23.4714452752
 20
23.8396112336
 30
0.0
 10
-23.906559348
 20
23.40528225
 30
0.0
 10
-24.1884208152
 20
22.858425734
 30
0.0
 10
-24.2535148023
 20
22.4518813554
 30
0.0
 10
-24.2535132105
 20
22.2500221487
 30
0.0
 11
-22.9188423999
 21
24.1001295386
 31
0.0
 11
-23.4533714903
 21
23.8151264298
 31
0.0
 11
-23.8810288438
 21
23.3865178484
 31
0.0
 11
-24.1577037573
 21
22.8479726504
 31
0.0
 11
-24.2535132105
 21
22.2500221487
 31
0.0
  0
SPLINE
  5
494
100
AcDbEntity
  8
RACCORDO
100
AcDbSpline
 62
253
  6
CONTINUOUS
 70
0
 71
3
 72
15
 73
11
 74
9
 42
0.0000001
 43
0.0000001
 44
0.0000000001
 12
-0.1115223436
 22
36.9998320092
 32
0.0
 13
0.0000127079
 23
37.0000000803
 33
0.0
 40
0.0
 40
0.0
 40
0.0
 40
0.0
 40
0.0624794595
 40
0.1249766939
 40
0.1874762042
 40
0.2499773564
 40
0.3749808655
 40
0.4999845604
 40
0.7499922157
 40
1.0
 40
1.0
 40
1.0
 40
1.0
 10
39.7359527728
 20
-108.0
 30
0.0
 10
39.7336301542
 20
-107.229423498
 30
0.0
 10
39.7331847887
 20
-105.6880417724
 30
0.0
 10
39.7312387686
 20
-103.3758370162
 30
0.0
 10
39.7301793174
 20
-101.0633628885
 30
0.0
 10
39.7293679837
 20
-97.9799782862
 30
0.0
 10
39.7289795574
 20
-94.1257085159
 30
0.0
 10
39.7283154995
 20
-87.9588586278
 30
0.0
 10
39.7279178881
 20
-80.2502892798
 30
0.0
 10
39.7278533343
 20
-74.0834321813
 30
0.0
 10
39.7278543933
 20
-71.0000028344
 30
0.0
 11
39.7359527728
 21
-108.0
 31
0.0
 11
39.7329719366
 21
-105.6882619149
 31
0.0
 11
39.7313865836
 21
-103.3758647808
 31
0.0
 11
39.7302544872
 21
-101.063383172
 31
0.0
 11
39.7296125375
 21
-98.7508406257
 31
0.0
 11
39.7289742359
 21
-94.1257108212
 31
0.0
 11
39.728510345
 21
-89.5005741221
 31
0.0
 11
39.727981272
 21
-80.2502908742
 31
0.0
 11
39.7278543933
 21
-71.0000028344
 31
0.0
  0
SPLINE
  5
495
100
AcDbEntity
  8
RACCORDO
100
AcDbSpline
 62
253
  6
CONTINUOUS
 70
0
 71
3
 72
11
 73
7
 74
5
 42
0.0000001
 43
0.0000001
 44
0.0000000001
 12
0.0000065909
 22
2.4222848345
 32
0.0
 13
-2.2779979554
 23
0.8235223949
 33
0.0
 40
0.0
 40
0.0
 40
0.0
 40
0.0
 40
0.2499649339
 40
0.4999259625
 40
0.7499044578
 40
1.0
 40
1.0
 40
1.0
 40
1.0
 10
24.2535132541
 20
22.2500075797
 30
0.0
 10
24.2535138033
 20
22.4518363358
 30
0.0
 10
24.1884410622
 20
22.8583556329
 30
0.0
 10
23.9066092352
 20
23.4052195773
 30
0.0
 10
23.4714832464
 20
23.8395891014
 30
0.0
 10
23.1087481111
 20
24.0314764453
 30
0.0
 10
22.9188423999
 20
24.1001295386
 30
0.0
 11
24.2535132541
 21
22.2500075797
 31
0.0
 11
24.15773726
 21
22.8478709255
 31
0.0
 11
23.8810810211
 21
23.3864463534
 31
0.0
 11
23.4534042098
 21
23.8151023313
 31
0.0
 11
22.9188423999
 21
24.1001295386
 31
0.0
  0
SPLINE
  5
496
100
AcDbEntity
  8
RACCORDO
100
AcDbSpline
 62
253
  6
CONTINUOUS
 70
0
 71
3
 72
15
 73
11
 74
9
 42
0.0000001
 43
0.0000001
 44
0.0000000001
 12
-0.0000127081
 22
36.999931705
 32
0.0
 13
0.1115213566
 23
36.9997636365
 33
0.0
 40
0.0
 40
0.0
 40
0.0
 40
0.0
 40
0.2500077837
 40
0.5000154383
 40
0.6250191329
 40
0.7500226417
 40
0.8125237937
 40
0.8750233039
 40
0.9375205382
 40
1.0
 40
1.0
 40
1.0
 40
1.0
 10
39.7278543933
 20
71.0000028376
 30
0.0
 10
39.7278533343
 20
74.0834264784
 30
0.0
 10
39.7279178863
 20
80.2502721646
 30
0.0
 10
39.7283155014
 20
87.9588272474
 30
0.0
 10
39.7289795483
 20
94.1256657233
 30
0.0
 10
39.7293679891
 20
97.9799283614
 30
0.0
 10
39.7301793009
 20
101.0633072589
 30
0.0
 10
39.7312387193
 20
103.3757771093
 30
0.0
 10
39.7331847992
 20
105.687977618
 30
0.0
 10
39.733629974
 20
107.2293565222
 30
0.0
 10
39.7359525722
 20
107.999931628
 30
0.0
 11
39.7278543933
 21
71.0000028376
 31
0.0
 11
39.7279812714
 21
80.2502737591
 31
0.0
 11
39.728510343
 21
89.5005398887
 31
0.0
 11
39.7289742311
 21
94.1256680287
 31
0.0
 11
39.7296125346
 21
98.7507892739
 31
0.0
 11
39.730254468
 21
101.063327542
 31
0.0
 11
39.7313865498
 21
103.3758048739
 31
0.0
 11
39.7329718895
 21
105.6881977312
 31
0.0
 11
39.7359525722
 21
107.999931628
 31
0.0
  0
SPLINE
  5
497
100
AcDbEntity
  8
RACCORDO
100
AcDbSpline
 62
253
  6
CONTINUOUS
 70
0
 71
3
 72
17
 73
13
 74
11
 42
0.0000001
 43
0.0000001
 44
0.0000000001
 12
3.1489181328
 22
-0.0137770226
 32
0.0
 13
-0.0166944307
 23
3.1489040172
 33
0.0
 40
0.0
 40
0.0
 40
0.0
 40
0.0
 40
0.1249442323
 40
0.249913016
 40
0.3124698738
 40
0.3750238401
 40
0.4999932275
 40
0.6249692753
 40
0.7499450294
 40
0.8124985865
 40
0.8750527275
 40
1.0
 40
1.0
 40
1.0
 40
1.0
 10
22.249999991
 20
-95.2582091929
 30
0.0
 10
22.3811463772
 20
-95.2587829794
 30
0.0
 10
22.6442737864
 20
-95.2323564372
 30
0.0
 10
22.9597086519
 20
-95.1351758739
 30
0.0
 10
23.1974216394
 20
-95.0229432686
 30
0.0
 10
23.4224144395
 20
-94.8869474261
 30
0.0
 10
23.6765987971
 20
-94.6760794657
 30
0.0
 10
23.9277883778
 20
-94.3701815402
 30
0.0
 10
24.0851095572
 20
-94.079918197
 30
0.0
 10
24.1764658268
 20
-93.8334095297
 30
0.0
 10
24.2417204738
 20
-93.5788235799
 30
0.0
 10
24.2610395924
 20
-93.3811485394
 30
0.0
 10
24.2603442846
 20
-93.24999955
 30
0.0
 11
22.249999991
 21
-95.2582091929
 31
0.0
 11
22.6415377203
 21
-95.2195369651
 31
0.0
 11
23.0178042865
 21
-95.1042909381
 31
0.0
 11
23.1958333199
 21
-95.0199697829
 31
0.0
 11
23.3644597634
 21
-94.9181565743
 31
0.0
 11
23.6676325749
 21
-94.6672663234
 31
0.0
 11
23.917380523
 21
-94.3631246761
 31
0.0
 11
24.1050306819
 21
-94.0172014633
 31
0.0
 11
24.1732021493
 21
-93.8323962952
 31
0.0
 11
24.2221424698
 21
-93.6415930755
 31
0.0
 11
24.2603442846
 21
-93.24999955
 31
0.0
  0
SPLINE
  5
498
100
AcDbEntity
  8
RACCORDO
100
AcDbSpline
 62
253
  6
CONTINUOUS
 70
0
 71
3
 72
35
 73
31
 74
29
 42
0.0000001
 43
0.0000001
 44
0.0000000001
 12
1.2979495759
 22
37.0323110915
 32
0.0
 13
-0.0002202947
 23
37.0550500989
 33
0.0
 40
0.0
 40
0.0
 40
0.0
 40
0.0
 40
0.0078051432
 40
0.0156135928
 40
0.0195189884
 40
0.0234249941
 40
0.0253781341
 40
0.0273312427
 40
0.0312370827
 40
0.0351431706
 40
0.0390492975
 40
0.0429554245
 40
0.0468615474
 40
0.0546737999
 40
0.0624860675
 40
0.0781106483
 40
0.0937353039
 40
0.109360051
 40
0.1249848961
 40
0.1562348543
 40
0.1874850878
 40
0.2499859673
 40
0.2812365156
 40
0.3124870769
 40
0.3749882123
 40
0.4374893615
 40
0.4999905227
 40
0.6249928701
 40
0.7499952398
 40
1.0
 40
1.0
 40
1.0
 40
1.0
 10
38.876126114
 20
-108.0528968235
 30
0.0
 10
38.8795030081
 20
-107.9565493267
 30
0.0
 10
38.8868015828
 20
-107.7638318679
 30
0.0
 10
38.8980689717
 20
-107.5229971619
 30
0.0
 10
38.909184183
 20
-107.3303831539
 30
0.0
 10
38.9178212785
 20
-107.2100781554
 30
0.0
 10
38.925103021
 20
-107.113866051
 30
0.0
 10
38.9322951594
 20
-107.0176134735
 30
0.0
 10
38.932290235
 20
-106.8969164195
 30
0.0
 10
38.9342550052
 20
-106.7522151289
 30
0.0
 10
38.9367059195
 20
-106.6074882711
 30
0.0
 10
38.9388675343
 20
-106.4627643501
 30
0.0
 10
38.9416210246
 20
-106.2697945497
 30
0.0
 10
38.9451693856
 20
-106.0285845802
 30
0.0
 10
38.9509482035
 20
-105.6426487407
 30
0.0
 10
38.9581160187
 20
-105.1602267062
 30
0.0
 10
38.9666918338
 20
-104.5813176057
 30
0.0
 10
38.9751052554
 20
-104.0024028564
 30
0.0
 10
38.9859148736
 20
-103.2305038559
 30
0.0
 10
38.9981344456
 20
-102.2656047279
 30
0.0
 10
39.0140962397
 20
-100.7217122627
 30
0.0
 10
39.0245094271
 20
-99.1777606826
 30
0.0
 10
39.0306046363
 20
-97.633787534
 30
0.0
 10
39.0350554376
 20
-96.08980564
 30
0.0
 10
39.0398869362
 20
-94.1598260298
 30
0.0
 10
39.0451035737
 20
-91.8438486618
 30
0.0
 10
39.0509612467
 20
-88.7558757957
 30
0.0
 10
39.0565330311
 20
-84.8959059179
 30
0.0
 10
39.0620301768
 20
-78.7199493639
 30
0.0
 10
39.0629399374
 20
-74.0879796317
 30
0.0
 10
39.0629215791
 20
-70.9999999937
 30
0.0
 11
38.876126114
 21
-108.0528968235
 31
0.0
 11
38.8872284592
 21
-107.7638900243
 31
0.0
 11
38.9010213548
 21
-107.4748764711
 31
0.0
 11
38.9095214
 21
-107.3304116891
 31
0.0
 11
38.9196724921
 21
-107.1860308619
 31
0.0
 11
38.9250918683
 21
-107.1138603494
 31
0.0
 11
38.9298976541
 21
-107.0416475501
 31
0.0
 11
38.9326186563
 21
-106.8969420326
 31
0.0
 11
38.9343360137
 21
-106.7522119405
 31
0.0
 11
38.9366577016
 21
-106.6074888345
 31
0.0
 11
38.9388514522
 21
-106.4627637269
 31
0.0
 11
38.940939751
 21
-106.3180372142
 31
0.0
 11
38.9451820612
 21
-106.0285848929
 31
0.0
 11
38.9494997766
 21
-105.7391331238
 31
0.0
 11
38.958111739
 21
-105.1602275553
 31
0.0
 11
38.9666647437
 21
-104.5813183379
 31
0.0
 11
38.9750541913
 21
-104.0024033381
 31
0.0
 11
38.9831262611
 21
-103.4234801925
 31
0.0
 11
38.997685699
 21
-102.2656029584
 31
0.0
 11
39.0096433574
 21
-101.1076857302
 31
0.0
 11
39.0256733861
 21
-98.7917679881
 31
0.0
 11
39.0303990833
 21
-97.6337869961
 31
0.0
 11
39.0338939366
 21
-96.4758011549
 31
0.0
 11
39.0397900755
 21
-94.159825957
 31
0.0
 11
39.0449663427
 21
-91.8438485287
 31
0.0
 11
39.0493801408
 21
-89.5278690743
 31
0.0
 11
39.056105817
 21
-84.8959057101
 31
0.0
 11
39.0602988791
 21
-80.2639385364
 31
0.0
 11
39.0629215791
 21
-70.9999999937
 31
0.0
  0
SPLINE
  5
499
100
AcDbEntity
  8
RACCORDO
100
AcDbSpline
 62
253
  6
CONTINUOUS
 70
0
 71
3
 72
10
 73
6
 74
4
 42
0.0000001
 43
0.0000001
 44
0.0000000001
 12
10.5001128477
 22
0.0241077342
 32
0.0
 13
10.5001405167
 23
-0.0003548173
 33
0.0
 40
0.0
 40
0.0
 40
0.0
 40
0.0
 40
0.2499999134
 40
0.4999999284
 40
1.0
 40
1.0
 40
1.0
 40
1.0
 10
-22.24999965
 20
-95.2582091924
 30
0.0
 10
-21.3749905491
 20
-95.2562002153
 30
0.0
 10
-19.6249668453
 20
-95.2548038424
 30
0.0
 10
-16.1249207243
 20
-95.2533578257
 30
0.0
 10
-13.4998850203
 20
-95.2537358833
 30
0.0
 10
-11.7498613503
 20
-95.2537950195
 30
0.0
 11
-22.24999965
 21
-95.2582091924
 31
0.0
 11
-19.6249674243
 21
-95.2549721838
 31
0.0
 11
-16.9999323626
 21
-95.2538818377
 31
0.0
 11
-11.7498613503
 21
-95.2537950195
 31
0.0
  0
SPLINE
  5
49A
100
AcDbEntity
  8
RACCORDO
100
AcDbSpline
 62
253
  6
CONTINUOUS
 70
0
 71
3
 72
10
 73
6
 74
4
 42
0.0000001
 43
0.0000001
 44
0.0000000001
 12
10.5001408576
 22
0.0003556045
 32
0.0
 13
10.5001131239
 23
-0.0241359045
 33
0.0
 40
0.0
 40
0.0
 40
0.0
 40
0.0
 40
0.5000000716
 40
0.7500000866
 40
1.0
 40
1.0
 40
1.0
 40
1.0
 10
11.7498613503
 20
-95.2537950195
 30
0.0
 10
13.4998850772
 20
-95.2537357521
 30
0.0
 10
16.1249208681
 20
-95.2533572182
 30
0.0
 10
19.6249670988
 20
-95.2548049805
 30
0.0
 10
21.3749908672
 20
-95.2561978683
 30
0.0
 10
22.249999991
 20
-95.2582091929
 30
0.0
 11
11.7498613503
 21
-95.2537950195
 31
0.0
 11
16.9999325334
 21
-95.253881865
 31
0.0
 11
19.6249676806
 21
-95.2549722324
 31
0.0
 11
22.249999991
 21
-95.2582091929
 31
0.0
  0
SPLINE
  5
49B
100
AcDbEntity
  8
RACCORDO
100
AcDbSpline
 62
253
  6
CONTINUOUS
 70
0
 71
3
 72
15
 73
11
 74
9
 42
0.0000001
 43
0.0000001
 44
0.0000000001
 12
2.8410883761
 22
0.0883150133
 32
0.0
 13
0.0996992089
 23
2.8407116662
 33
0.0
 40
0.0
 40
0.0
 40
0.0
 40
0.0
 40
0.1249847577
 40
0.2499944876
 40
0.3750229029
 40
0.5000552537
 40
0.6250833961
 40
0.7500975884
 40
0.8750764381
 40
1.0
 40
1.0
 40
1.0
 40
1.0
 10
37.0373529125
 20
-109.8738010161
 30
0.0
 10
37.1557171599
 20
-109.8701216726
 30
0.0
 10
37.3923679965
 20
-109.8402327638
 30
0.0
 10
37.7322476577
 20
-109.7300022344
 30
0.0
 10
38.045934968
 20
-109.5585946362
 30
0.0
 10
38.3223844083
 20
-109.3319952398
 30
0.0
 10
38.5520543292
 20
-109.0581056054
 30
0.0
 10
38.7268323095
 20
-108.7463191058
 30
0.0
 10
38.8403648958
 20
-108.4076080075
 30
0.0
 10
38.8719745206
 20
-108.17118743
 30
0.0
 10
38.876126114
 20
-108.0528968235
 30
0.0
 11
37.0373529125
 21
-109.8738010161
 31
0.0
 11
37.3898240534
 21
-109.8293399259
 31
0.0
 11
37.727858951
 21
-109.7198157643
 31
0.0
 11
38.0397229568
 21
-109.5493994387
 31
0.0
 11
38.3145920745
 21
-109.3241089562
 31
0.0
 11
38.5429176224
 21
-109.0517713441
 31
0.0
 11
38.716644469
 21
-108.741785649
 31
0.0
 11
38.8293602505
 21
-108.4048941018
 31
0.0
 11
38.876126114
 21
-108.0528968235
 31
0.0
  0
SPLINE
  5
49C
100
AcDbEntity
  8
RACCORDO
100
AcDbSpline
 62
253
  6
CONTINUOUS
 70
0
 71
3
 72
17
 73
13
 74
11
 42
0.0000001
 43
0.0000001
 44
0.0000000001
 12
-0.0166946179
 22
-3.1489040037
 32
0.0
 13
3.1489181214
 23
0.0137767744
 33
0.0
 40
0.0
 40
0.0
 40
0.0
 40
0.0
 40
0.124946164
 40
0.1874999258
 40
0.2500535322
 40
0.3750293388
 40
0.5000062178
 40
0.6249760823
 40
0.6875302319
 40
0.750087321
 40
0.8750562808
 40
1.0
 40
1.0
 40
1.0
 40
1.0
 10
-24.2603442862
 20
-93.2499999186
 30
0.0
 10
-24.2610395957
 20
-93.3811477439
 30
0.0
 10
-24.2417207189
 20
-93.5788211923
 30
0.0
 10
-24.1764670219
 20
-93.8334058142
 30
0.0
 10
-24.0851114774
 20
-94.0799144466
 30
0.0
 10
-23.9277902104
 20
-94.3701788666
 30
0.0
 10
-23.6766001685
 20
-94.6760782953
 30
0.0
 10
-23.4224146433
 20
-94.8869473499
 30
0.0
 10
-23.1974210196
 20
-95.0229436418
 30
0.0
 10
-22.9597074065
 20
-95.1351763861
 30
0.0
 10
-22.6442725319
 20
-95.2323565608
 30
0.0
 10
-22.3811454971
 20
-95.2587829654
 30
0.0
 10
-22.24999965
 20
-95.2582091916
 30
0.0
 11
-24.2603442862
 21
-93.2499999186
 31
0.0
 11
-24.2221431005
 21
-93.6415899966
 31
0.0
 11
-24.1732034934
 21
-93.8323921656
 31
0.0
 11
-24.105032418
 21
-94.0171976433
 31
0.0
 11
-23.9173827744
 21
-94.3631213216
 31
0.0
 11
-23.6676335707
 21
-94.6672653229
 31
0.0
 11
-23.3644596884
 21
-94.9181566338
 31
0.0
 11
-23.1958327339
 21
-95.019970111
 31
0.0
 11
-23.0178029957
 21
-95.1042914784
 31
0.0
 11
-22.6415357868
 21
-95.2195372953
 31
0.0
 11
-22.24999965
 21
-95.2582091916
 31
0.0
  0
SPLINE
  5
49D
100
AcDbEntity
  8
RACCORDO
100
AcDbSpline
 62
253
  6
CONTINUOUS
 70
0
 71
3
 72
35
 73
31
 74
29
 42
0.0000001
 43
0.0000001
 44
0.0000000001
 12
-0.0002202935
 22
-37.0550502461
 32
0.0
 13
1.2979641717
 23
-37.0323107272
 33
0.0
 40
0.0
 40
0.0
 40
0.0
 40
0.0
 40
0.2500047593
 40
0.3750071286
 40
0.5000094756
 40
0.5625106366
 40
0.6250117855
 40
0.6875129207
 40
0.7187634818
 40
0.7500140301
 40
0.8125149094
 40
0.8437651428
 40
0.8750151009
 40
0.890639946
 40
0.906264693
 40
0.9218893486
 40
0.9375139293
 40
0.9453261969
 40
0.9531384494
 40
0.9570445721
 40
0.9609506993
 40
0.9648568263
 40
0.968762914
 40
0.972668758
 40
0.9746218674
 40
0.9765750059
 40
0.9804810111
 40
0.9843864071
 40
0.9921948569
 40
1.0
 40
1.0
 40
1.0
 40
1.0
 10
-39.0629215791
 20
-71.0000000016
 30
0.0
 10
-39.0629399373
 20
-74.087979641
 30
0.0
 10
-39.0620302023
 20
-78.7199493755
 30
0.0
 10
-39.0565329907
 20
-84.8959059322
 30
0.0
 10
-39.0509613587
 20
-88.7558758122
 30
0.0
 10
-39.0451033843
 20
-91.8438486791
 30
0.0
 10
-39.0398874938
 20
-94.1598260502
 30
0.0
 10
-39.0350540677
 20
-96.0898056554
 30
0.0
 10
-39.0306053463
 20
-97.6337875563
 30
0.0
 10
-39.0245094186
 20
-99.1777607038
 30
0.0
 10
-39.0140963073
 20
-100.7217122854
 30
0.0
 10
-38.9981344049
 20
-102.2656047513
 30
0.0
 10
-38.9859149516
 20
-103.2305038816
 30
0.0
 10
-38.9751052517
 20
-104.0024028817
 30
0.0
 10
-38.9666918021
 20
-104.581317631
 30
0.0
 10
-38.9581161361
 20
-105.1602267341
 30
0.0
 10
-38.9509477544
 20
-105.6426487604
 30
0.0
 10
-38.945169961
 20
-106.0285846156
 30
0.0
 10
-38.9416188643
 20
-106.2697945419
 30
0.0
 10
-38.938871176
 20
-106.4627644311
 30
0.0
 10
-38.9367050828
 20
-106.607488276
 30
0.0
 10
-38.9342562717
 20
-106.7522152111
 30
0.0
 10
-38.9322853972
 20
-106.8969162933
 30
0.0
 10
-38.9323069878
 20
-107.0176141768
 30
0.0
 10
-38.925094708
 20
-107.113865478
 30
0.0
 10
-38.9178275713
 20
-107.2100786163
 30
0.0
 10
-38.9091818553
 20
-107.3303829802
 30
0.0
 10
-38.8980703429
 20
-107.5229972499
 30
0.0
 10
-38.886801077
 20
-107.7638318313
 30
0.0
 10
-38.8795030461
 20
-107.9565493283
 30
0.0
 10
-38.876126114
 20
-108.0528968235
 30
0.0
 11
-39.0629215791
 21
-71.0000000016
 31
0.0
 11
-39.0602988799
 21
-80.2639385487
 31
0.0
 11
-39.0561058153
 21
-84.8959057245
 31
0.0
 11
-39.0493801422
 21
-89.527869091
 31
0.0
 11
-39.0449663155
 21
-91.8438485464
 31
0.0
 11
-39.0397901231
 21
-94.159825976
 31
0.0
 11
-39.0338933884
 21
-96.4758011735
 31
0.0
 11
-39.0303994434
 21
-97.6337870163
 31
0.0
 11
-39.0256736234
 21
-98.7917680099
 31
0.0
 11
-39.0096433826
 21
-101.1076857531
 31
0.0
 11
-38.9976856956
 21
-102.2656029822
 31
0.0
 11
-38.983126304
 21
-103.4234802179
 31
0.0
 11
-38.9750541932
 21
-104.0024033635
 31
0.0
 11
-38.9666647415
 21
-104.5813183636
 31
0.0
 11
-38.9581117182
 21
-105.1602275812
 31
0.0
 11
-38.9494997068
 21
-105.7391331493
 31
0.0
 11
-38.9451819614
 21
-106.0285849182
 31
0.0
 11
-38.940939707
 21
-106.31803724
 31
0.0
 11
-38.9388536223
 21
-106.4627637801
 31
0.0
 11
-38.9366579619
 21
-106.6074888653
 31
0.0
 11
-38.9343359123
 21
-106.7522119716
 31
0.0
 11
-38.9326181696
 21
-106.8969420524
 31
0.0
 11
-38.9299016562
 21
-107.0416478015
 31
0.0
 11
-38.9250878962
 21
-107.113860101
 31
0.0
 11
-38.9196733429
 21
-107.1860309194
 31
0.0
 11
-38.9095212595
 21
-107.3304116609
 31
0.0
 11
-38.901021368
 21
-107.4748764662
 31
0.0
 11
-38.8872284644
 21
-107.7638900255
 31
0.0
 11
-38.876126114
 21
-108.0528968235
 31
0.0
  0
SPLINE
  5
49E
100
AcDbEntity
  8
RACCORDO
100
AcDbSpline
 62
253
  6
CONTINUOUS
 70
0
 71
3
 72
13
 73
9
 74
7
 42
0.0000001
 43
0.0000001
 44
0.0000000001
 12
0.0001129385
 22
-22.2500234877
 32
0.0
 13
-0.0617495943
 23
-22.2499378023
 33
0.0
 40
0.0
 40
0.0
 40
0.0
 40
0.0
 40
0.2500000253
 40
0.5000000498
 40
0.6250000605
 40
0.750000068
 40
0.875000072
 40
1.0
 40
1.0
 40
1.0
 40
1.0
 10
-24.2535132686
 20
-70.9999791553
 30
0.0
 10
-24.2535038571
 20
-72.8541479666
 30
0.0
 10
-24.2533684765
 20
-76.5624855685
 30
0.0
 10
-24.2536402563
 20
-81.1979076332
 30
0.0
 10
-24.2544451574
 20
-84.9062450356
 30
0.0
 10
-24.2554815324
 20
-87.6874982176
 30
0.0
 10
-24.2569650578
 20
-90.4687493388
 30
0.0
 10
-24.2577713881
 20
-92.322919711
 30
0.0
 10
-24.2603442864
 20
-93.2499999186
 30
0.0
 11
-24.2535132686
 21
-70.9999791553
 31
0.0
 11
-24.2534566776
 21
-76.5624855889
 31
0.0
 11
-24.2538904381
 21
-82.1249919896
 31
0.0
 11
-24.254517274
 21
-84.9062450939
 31
0.0
 11
-24.2555560575
 21
-87.6874980014
 31
0.0
 11
-24.2569193864
 21
-90.468750694
 31
0.0
 11
-24.2603442864
 21
-93.2499999186
 31
0.0
  0
SPLINE
  5
49F
100
AcDbEntity
  8
RACCORDO
100
AcDbSpline
 62
253
  6
CONTINUOUS
 70
0
 71
3
 72
11
 73
7
 74
5
 42
0.0000001
 43
0.0000001
 44
0.0000000001
 12
-2.2779842714
 22
-0.8235175676
 32
0.0
 13
0.0000191016
 23
-2.4222703244
 33
0.0
 40
0.0
 40
0.0
 40
0.0
 40
0.0
 40
0.2500804402
 40
0.5000409077
 40
0.7499958556
 40
1.0
 40
1.0
 40
1.0
 40
1.0
 10
-22.9188423999
 20
-46.8998704614
 30
0.0
 10
-23.108735503
 20
-46.9685190067
 30
0.0
 10
-23.4714452752
 20
-47.1603887664
 30
0.0
 10
-23.906559348
 20
-47.59471775
 30
0.0
 10
-24.1884208152
 20
-48.141574266
 30
0.0
 10
-24.2535148023
 20
-48.5481186446
 30
0.0
 10
-24.2535132105
 20
-48.7499778513
 30
0.0
 11
-22.9188423999
 21
-46.8998704614
 31
0.0
 11
-23.4533714903
 21
-47.1848735702
 31
0.0
 11
-23.8810288438
 21
-47.6134821516
 31
0.0
 11
-24.1577037573
 21
-48.1520273496
 31
0.0
 11
-24.2535132105
 21
-48.7499778513
 31
0.0
  0
SPLINE
  5
4A0
100
AcDbEntity
  8
RACCORDO
100
AcDbSpline
 62
253
  6
CONTINUOUS
 70
0
 71
3
 72
15
 73
11
 74
9
 42
0.0000001
 43
0.0000001
 44
0.0000000001
 12
0.0002440722
 22
-22.2273327088
 32
0.0
 13
0.0265128508
 23
-22.2273168979
 33
0.0
 40
0.0
 40
0.0
 40
0.0
 40
0.0
 40
0.2500002344
 40
0.5000004595
 40
0.6250005582
 40
0.7500006238
 40
0.8125006444
 40
0.8750006623
 40
0.9375006217
 40
1.0
 40
1.0
 40
1.0
 40
1.0
 10
-25.8563908699
 20
-70.9999999999
 30
0.0
 10
-25.8563705306
 20
-72.8522794623
 30
0.0
 10
-25.85691181
 20
-76.5568382958
 30
0.0
 10
-25.8550250228
 20
-81.1875368317
 30
0.0
 10
-25.8510516644
 20
-84.8920932106
 30
0.0
 10
-25.8470837791
 20
-87.2074385236
 30
0.0
 10
-25.842695007
 20
-89.0597120259
 30
0.0
 10
-25.8380415909
 20
-90.448912604
 30
0.0
 10
-25.8346967923
 20
-91.8381124267
 30
0.0
 10
-25.8335598746
 20
-92.7642457953
 30
0.0
 10
-25.833007529
 20
-93.2273102911
 30
0.0
 11
-25.8563908699
 21
-70.9999999999
 31
0.0
 11
-25.8563991327
 21
-76.5568383875
 31
0.0
 11
-25.8538263556
 21
-82.1136759729
 31
0.0
 11
-25.8507547567
 21
-84.8920930572
 31
0.0
 11
-25.8458853804
 21
-87.6705068383
 31
0.0
 11
-25.8424680338
 21
-89.0597113873
 31
0.0
 11
-25.8382596906
 21
-90.4489137039
 31
0.0
 11
-25.8349700204
 21
-91.8381172018
 31
0.0
 11
-25.833007529
 21
-93.2273102911
 31
0.0
  0
SPLINE
  5
4A1
100
AcDbEntity
  8
RACCORDO
100
AcDbSpline
 62
253
  6
CONTINUOUS
 70
0
 71
3
 72
34
 73
30
 74
28
 42
0.0000001
 43
0.0000001
 44
0.0000000001
 12
0.0067264543
 22
-5.6697067597
 32
0.0
 13
5.6695375138
 23
-0.0443211568
 33
0.0
 40
0.0
 40
0.0
 40
0.0
 40
0.0
 40
0.0624920114
 40
0.124981588
 40
0.1562358067
 40
0.1874886379
 40
0.2031157128
 40
0.2187420178
 40
0.2343686655
 40
0.249995985
 40
0.2656238603
 40
0.2812515019
 40
0.3125051458
 40
0.3437596104
 40
0.375014812
 40
0.4375036563
 40
0.49999315
 40
0.5624818933
 40
0.59373625
 40
0.6249901543
 40
0.6562451951
 40
0.687500768
 40
0.7499887377
 40
0.7812443135
 40
0.8124999264
 40
0.8437555915
 40
0.8750110686
 40
0.9375083553
 40
1.0
 40
1.0
 40
1.0
 40
1.0
 10
-25.833007529
 20
-93.2273102911
 30
0.0
 10
-25.8328674125
 20
-93.3454140843
 30
0.0
 10
-25.8208105721
 20
-93.5817619781
 30
0.0
 10
-25.7759251883
 20
-93.8741617412
 30
0.0
 10
-25.7218269394
 20
-94.1042005655
 30
0.0
 10
-25.680925222
 20
-94.246169022
 30
0.0
 10
-25.643284056
 20
-94.3581639547
 30
0.0
 10
-25.6121421622
 20
-94.4411225961
 30
0.0
 10
-25.5794370128
 20
-94.5234671363
 30
0.0
 10
-25.5485538412
 20
-94.6065156737
 30
0.0
 10
-25.517007933
 20
-94.6893183762
 30
0.0
 10
-25.472054888
 20
-94.7985837895
 30
0.0
 10
-25.4100565344
 20
-94.9326950687
 30
0.0
 10
-25.3272056356
 20
-95.089435708
 30
0.0
 10
-25.2055266388
 20
-95.2920361523
 30
0.0
 10
-25.0330846187
 20
-95.5324967888
 30
0.0
 10
-24.7962589338
 20
-95.7968865333
 30
0.0
 10
-24.5766313391
 20
-95.9951053216
 30
0.0
 10
-24.3895192668
 20
-96.1394514353
 30
0.0
 10
-24.2435888808
 20
-96.2401288333
 30
0.0
 10
-24.0928083997
 20
-96.3333487427
 30
0.0
 10
-23.8864655305
 20
-96.4485232902
 30
0.0
 10
-23.6710371804
 20
-96.5467234329
 30
0.0
 10
-23.4493327401
 20
-96.6284851917
 30
0.0
 10
-23.2801982695
 20
-96.6816151545
 30
0.0
 10
-23.1086715082
 20
-96.7264643543
 30
0.0
 10
-22.8774052029
 20
-96.7748853084
 30
0.0
 10
-22.5857505284
 20
-96.8232781131
 30
0.0
 10
-22.3493458077
 20
-96.836377169
 30
0.0
 10
-22.231246233
 20
-96.837300403
 30
0.0
 11
-25.833007529
 21
-93.2273102911
 31
0.0
 11
-25.8148477451
 21
-93.5811562359
 31
0.0
 11
-25.7608904102
 21
-93.9313212745
 31
0.0
 11
-25.7204091916
 21
-94.1038378079
 31
0.0
 11
-25.6711053547
 21
-94.2740348322
 31
0.0
 11
-25.6427984352
 21
-94.3579922888
 31
0.0
 11
-25.6118818847
 21
-94.4410195714
 31
0.0
 11
-25.5797413081
 21
-94.5235828222
 31
0.0
 11
-25.5484438643
 21
-94.6064734248
 31
0.0
 11
-25.5166461719
 21
-94.689176793
 31
0.0
 11
-25.4829050272
 21
-94.771105059
 31
0.0
 11
-25.4086484817
 21
-94.9319947536
 31
0.0
 11
-25.3258025698
 21
-95.0886399979
 31
0.0
 11
-25.2345729809
 21
-95.2405604388
 31
0.0
 11
-25.0281004104
 21
-95.5284720296
 31
0.0
 11
-24.7918061733
 21
-95.7924637881
 31
0.0
 11
-24.528925662
 21
-96.0299873391
 31
0.0
 11
-24.3885897423
 21
-96.1381852612
 31
0.0
 11
-24.2427826547
 21
-96.2388845404
 31
0.0
 11
-24.0921421918
 21
-96.3322107755
 31
0.0
 11
-23.9372653962
 21
-96.41833036
 31
0.0
 11
-23.6151186964
 21
-96.5657820336
 31
0.0
 11
-23.4488619519
 21
-96.6271180379
 31
0.0
 11
-23.2797996189
 21
-96.680235007
 31
0.0
 11
-23.1083474508
 21
-96.7250428625
 31
0.0
 11
-22.9350292248
 21
-96.761975294
 31
0.0
 11
-22.5849666039
 21
-96.8168759962
 31
0.0
 11
-22.231246233
 21
-96.837300403
 31
0.0
  0
SPLINE
  5
4A2
100
AcDbEntity
  8
RACCORDO
100
AcDbSpline
 62
253
  6
CONTINUOUS
 70
0
 71
3
 72
11
 73
7
 74
5
 42
0.0000001
 43
0.0000001
 44
0.0000000001
 12
0.0000065909
 22
2.4222848345
 32
0.0
 13
-2.2779979554
 23
0.8235223949
 33
0.0
 40
0.0
 40
0.0
 40
0.0
 40
0.0
 40
0.2499649339
 40
0.4999259625
 40
0.7499044578
 40
1.0
 40
1.0
 40
1.0
 40
1.0
 10
24.2535132541
 20
-48.7499924203
 30
0.0
 10
24.2535138033
 20
-48.5481636642
 30
0.0
 10
24.1884410622
 20
-48.1416443671
 30
0.0
 10
23.9066092352
 20
-47.5947804227
 30
0.0
 10
23.4714832464
 20
-47.1604108986
 30
0.0
 10
23.1087481111
 20
-46.9685235547
 30
0.0
 10
22.9188423999
 20
-46.8998704614
 30
0.0
 11
24.2535132541
 21
-48.7499924203
 31
0.0
 11
24.15773726
 21
-48.1521290745
 31
0.0
 11
23.8810810211
 21
-47.6135536466
 31
0.0
 11
23.4534042098
 21
-47.1848976687
 31
0.0
 11
22.9188423999
 21
-46.8998704614
 31
0.0
  0
SPLINE
  5
4A3
100
AcDbEntity
  8
RACCORDO
100
AcDbSpline
 62
253
  6
CONTINUOUS
 70
0
 71
3
 72
13
 73
9
 74
7
 42
0.0000001
 43
0.0000001
 44
0.0000000001
 12
10.4809661948
 22
-0.0818569906
 32
0.0
 13
10.4812856998
 23
-0.0017383994
 33
0.0
 40
0.0
 40
0.0
 40
0.0
 40
0.0
 40
0.124999168
 40
0.2499992336
 40
0.374999232
 40
0.4999993648
 40
0.7499996874
 40
1.0
 40
1.0
 40
1.0
 40
1.0
 10
-22.231246233
 20
-96.837300403
 30
0.0
 10
-21.794542215
 20
-96.8407110883
 30
0.0
 10
-20.9211150907
 20
-96.8454077764
 30
0.0
 10
-19.6109662202
 20
-96.8502473769
 30
0.0
 10
-18.3008094585
 20
-96.8538821493
 30
0.0
 10
-16.5539287752
 20
-96.856617065
 30
0.0
 10
-14.3703247302
 20
-96.8577301495
 30
0.0
 10
-12.623441567
 20
-96.8574671061
 30
0.0
 10
-11.75
 20
-96.8576119729
 30
0.0
 11
-22.231246233
 21
-96.837300403
 31
0.0
 11
-20.9211170849
 21
-96.8450401894
 31
0.0
 11
-19.6109652321
 21
-96.850046571
 31
0.0
 11
-18.3008093867
 21
-96.8536182172
 31
0.0
 11
-16.9906490465
 21
-96.8557796316
 31
0.0
 11
-14.3703247315
 21
-96.8574417717
 31
0.0
 11
-11.75
 21
-96.8576119729
 31
0.0
  0
SPLINE
  5
4A4
100
AcDbEntity
  8
RACCORDO
100
AcDbSpline
 62
253
  6
CONTINUOUS
 70
0
 71
3
 72
13
 73
9
 74
7
 42
0.0000001
 43
0.0000001
 44
0.0000000001
 12
-0.0617188593
 22
22.2499375179
 32
0.0
 13
0.0001128891
 23
22.2500231181
 33
0.0
 40
0.0
 40
0.0
 40
0.0
 40
0.0
 40
0.1249999281
 40
0.2499999321
 40
0.3749999396
 40
0.4999999503
 40
0.7499999748
 40
1.0
 40
1.0
 40
1.0
 40
1.0
 10
24.2603442858
 20
-93.24999955
 30
0.0
 10
24.2577726681
 20
-92.3229193532
 30
0.0
 10
24.2569668509
 20
-90.4687490137
 30
0.0
 10
24.2554810301
 20
-87.6874979382
 30
0.0
 10
24.2544451484
 20
-84.906244803
 30
0.0
 10
24.2536402959
 20
-81.1979074626
 30
0.0
 10
24.253368458
 20
-76.5624854755
 30
0.0
 10
24.2535038612
 20
-72.8541479356
 30
0.0
 10
24.2535132686
 20
-70.9999791554
 30
0.0
 11
24.2603442858
 21
-93.24999955
 31
0.0
 11
24.2569206687
 21
-90.4687503668
 31
0.0
 11
24.25555602
 21
-87.6874977221
 31
0.0
 11
24.2545171888
 21
-84.9062448613
 31
0.0
 11
24.2538904575
 21
-82.1249918035
 31
0.0
 11
24.2534566764
 21
-76.5624854959
 31
0.0
 11
24.2535132686
 21
-70.9999791554
 31
0.0
  0
SPLINE
  5
4A5
100
AcDbEntity
  8
RACCORDO
100
AcDbSpline
 62
7
  6
CONTINUOUS
 70
0
 71
3
 72
11
 73
7
 74
5
 42
0.0000001
 43
0.0000001
 44
0.0000000001
 12
-0.0134023448
 22
0.0185765368
 32
0.0
 13
0.0015468909
 23
0.0228542709
 33
0.0
 40
0.0
 40
0.0
 40
0.0
 40
0.0
 40
0.5232957475
 40
0.8065564292
 40
0.9482292688
 40
1.0
 40
1.0
 40
1.0
 40
1.0
 10
-77.0422166848
 20
96.837300403
 30
0.0
 10
-77.0445544815
 20
96.8405407439
 30
0.0
 10
-77.0480063243
 20
96.8456506373
 30
0.0
 10
-77.0511327586
 20
96.8522482978
 30
0.0
 10
-77.0525097748
 20
96.855544287
 30
0.0
 10
-77.0531177637
 20
96.8569643139
 30
0.0
 10
-77.0530910692
 20
96.857358708
 30
0.0
 11
-77.0422166848
 21
96.837300403
 31
0.0
 11
-77.0487000014
 21
96.8473826909
 31
0.0
 11
-77.0515224561
 21
96.853225186
 31
0.0
 11
-77.0527958594
 21
96.8562101502
 31
0.0
 11
-77.0530910692
 21
96.857358708
 31
0.0
  0
SPLINE
  5
4A6
100
AcDbEntity
  8
RACCORDO
100
AcDbSpline
 62
253
  6
CONTINUOUS
 70
0
 71
3
 72
30
 73
26
 74
24
 42
0.0000001
 43
0.0000001
 44
0.0000000001
 12
-0.0794853215
 22
0.2180392988
 32
0.0
 13
0.170215284
 23
0.1577523668
 33
0.0
 40
0.0
 40
0.0
 40
0.0
 40
0.0
 40
0.0061960451
 40
0.0198538981
 40
0.0421672839
 40
0.0738987596
 40
0.1665883256
 40
0.2902144103
 40
0.3564678935
 40
0.4230987563
 40
0.4644625692
 40
0.5101086943
 40
0.5584720559
 40
0.6010080763
 40
0.6416236669
 40
0.6844062716
 40
0.7691593572
 40
0.809855892
 40
0.849018806
 40
0.8681338836
 40
0.8772430105
 40
0.8938617805
 40
0.9220311096
 40
0.9475295253
 40
1.0
 40
1.0
 40
1.0
 40
1.0
 10
-74.3168970282
 20
-110.0714837154
 30
0.0
 10
-74.3170611931
 20
-110.0710333883
 30
0.0
 10
-74.3167039476
 20
-110.069428591
 30
0.0
 10
-74.3158993373
 20
-110.0663543724
 30
0.0
 10
-74.3140459949
 20
-110.0613984459
 30
0.0
 10
-74.309693704
 20
-110.0509480126
 30
0.0
 10
-74.301350632
 20
-110.0336210255
 30
0.0
 10
-74.2904912351
 20
-110.0146429318
 30
0.0
 10
-74.2802315225
 20
-109.9976666898
 30
0.0
 10
-74.2725202368
 20
-109.9865538731
 30
0.0
 10
-74.2676580103
 20
-109.9756697429
 30
0.0
 10
-74.2622761657
 20
-109.9666952932
 30
0.0
 10
-74.2570938925
 20
-109.9574179489
 30
0.0
 10
-74.2499681703
 20
-109.9500755357
 30
0.0
 10
-74.244234867
 20
-109.9421871937
 30
0.0
 10
-74.2369474001
 20
-109.9314135398
 30
0.0
 10
-74.2290783363
 20
-109.9210362197
 30
0.0
 10
-74.2213441789
 20
-109.9109277149
 30
0.0
 10
-74.2164855752
 20
-109.904989368
 30
0.0
 10
-74.2134675419
 20
-109.9007630093
 30
0.0
 10
-74.2109957332
 20
-109.8982351051
 30
0.0
 10
-74.210267959
 20
-109.8939519633
 30
0.0
 10
-74.2092640308
 20
-109.8886505447
 30
0.0
 10
-74.2054795732
 20
-109.8812544237
 30
0.0
 10
-74.2015713134
 20
-109.87656013
 30
0.0
 10
-74.1985942212
 20
-109.8738010161
 30
0.0
 11
-74.3168970282
 21
-110.0714837154
 31
0.0
 11
-74.3168361101
 21
-110.0700470559
 31
0.0
 11
-74.31602149
 21
-110.0669838717
 31
0.0
 11
-74.31428275
 21
-110.0621061145
 31
0.0
 11
-74.3114696223
 21
-110.0553005089
 31
0.0
 11
-74.3022007047
 21
-110.0358889289
 31
0.0
 11
-74.2881602795
 21
-110.0108686097
 31
0.0
 11
-74.2801059845
 21
-109.9977711314
 31
0.0
 11
-74.2719203653
 21
-109.9846519791
 31
0.0
 11
-74.2676340784
 21
-109.9760625264
 31
0.0
 11
-74.2624241486
 21
-109.9668388791
 31
0.0
 11
-74.256455123
 21
-109.9573337305
 31
0.0
 11
-74.2500524581
 21
-109.9498201583
 31
0.0
 11
-74.2443767903
 21
-109.9422945953
 31
0.0
 11
-74.2387170324
 21
-109.9341368919
 31
0.0
 11
-74.2270056235
 21
-109.9183344529
 31
0.0
 11
-74.2212284588
 21
-109.9108627625
 31
0.0
 11
-74.2156146809
 21
-109.9037149692
 31
0.0
 11
-74.212885616
 21
-109.9002176046
 31
0.0
 11
-74.2115439009
 21
-109.8985839524
 31
0.0
 11
-74.2104191141
 21
-109.8948948011
 31
0.0
 11
-74.2089098744
 21
-109.8885339874
 31
0.0
 11
-74.2063206248
 21
-109.8832129646
 31
0.0
 11
-74.1985942212
 21
-109.8738010161
 31
0.0
  0
SPLINE
  5
4A7
100
AcDbEntity
  8
RACCORDO
100
AcDbSpline
 62
253
  6
CONTINUOUS
 70
0
 71
3
 72
29
 73
25
 74
23
 42
0.0000001
 43
0.0000001
 44
0.0000000001
 12
-0.0001452776
 22
37.0535759055
 32
0.0
 13
1.7977977478
 23
37.0099366477
 33
0.0
 40
0.0
 40
0.0
 40
0.0
 40
0.0
 40
0.1250073563
 40
0.2500147002
 40
0.3750220051
 40
0.5000292287
 40
0.5625327937
 40
0.625036316
 40
0.6875397917
 40
0.7500430656
 40
0.8125451914
 40
0.8437953561
 40
0.8750447166
 40
0.9062933935
 40
0.9375417979
 40
0.9531660095
 40
0.9609781141
 40
0.9648840912
 40
0.9687902914
 40
0.9726957655
 40
0.9765923917
 40
0.9843888379
 40
0.9921928317
 40
1.0
 40
1.0
 40
1.0
 40
1.0
 10
-74.3114307331
 20
70.999999997
 30
0.0
 10
-74.3114367867
 20
72.5439898523
 30
0.0
 10
-74.3112943111
 20
75.6319694166
 30
0.0
 10
-74.3103015091
 20
80.2639381184
 30
0.0
 10
-74.3082317563
 20
84.8959048453
 30
0.0
 10
-74.3053895706
 20
88.755874835
 30
0.0
 10
-74.3023363375
 20
91.8438480906
 30
0.0
 10
-74.2996438229
 20
94.1598254907
 30
0.0
 10
-74.2964762836
 20
96.4757987381
 30
0.0
 10
-74.2932054299
 20
98.7917543861
 30
0.0
 10
-74.2882162439
 20
100.7216920184
 30
0.0
 10
-74.2809056508
 20
102.2655947238
 30
0.0
 10
-74.2735896425
 20
103.4234742079
 30
0.0
 10
-74.2642483137
 20
104.5813173541
 30
0.0
 10
-74.2551515832
 20
105.5461656913
 30
0.0
 10
-74.2484085474
 20
106.2215535826
 30
0.0
 10
-74.2449513025
 20
106.559245707
 30
0.0
 10
-74.2430649574
 20
106.7522151554
 30
0.0
 10
-74.2414537332
 20
106.8969327529
 30
0.0
 10
-74.2398463199
 20
107.0415368557
 30
0.0
 10
-74.239998893
 20
107.2342009988
 30
0.0
 10
-74.2354820601
 20
107.4749906806
 30
0.0
 10
-74.2259523644
 20
107.7639495682
 30
0.0
 10
-74.2174446739
 20
107.9565825553
 30
0.0
 10
-74.2127661041
 20
108.0528968235
 30
0.0
 11
-74.3114307331
 21
70.999999997
 31
0.0
 11
-74.3111644629
 21
75.6319695554
 31
0.0
 11
-74.310122017
 21
80.2639385452
 31
0.0
 11
-74.3080082772
 21
84.8959057216
 31
0.0
 11
-74.3045613042
 21
89.5278690887
 31
0.0
 11
-74.3022692382
 21
91.8438485443
 31
0.0
 11
-74.2995646506
 21
94.1598259742
 31
0.0
 11
-74.296459057
 21
96.4758011721
 31
0.0
 11
-74.2927526968
 21
98.7917680087
 31
0.0
 11
-74.2861119014
 21
101.1076857522
 31
0.0
 11
-74.2806000522
 21
102.2656029815
 31
0.0
 11
-74.2732520032
 21
103.4234802174
 31
0.0
 11
-74.2639858113
 21
104.5813183632
 31
0.0
 11
-74.2531892559
 21
105.739133149
 31
0.0
 11
-74.2474125949
 21
106.3180372398
 31
0.0
 11
-74.2444871456
 21
106.6074888651
 31
0.0
 11
-74.243032229
 21
106.7522119715
 31
0.0
 11
-74.2414540546
 21
106.8969420522
 31
0.0
 11
-74.2401326191
 21
107.0416478013
 31
0.0
 11
-74.239647222
 21
107.1860309193
 31
0.0
 11
-74.2348001874
 21
107.4748764661
 31
0.0
 11
-74.2254158555
 21
107.7638900255
 31
0.0
 11
-74.2127661041
 21
108.0528968235
 31
0.0
  0
SPLINE
  5
4A8
100
AcDbEntity
  8
RACCORDO
100
AcDbSpline
 62
253
  6
CONTINUOUS
 70
0
 71
3
 72
15
 73
11
 74
9
 42
0.0000001
 43
0.0000001
 44
0.0000000001
 12
-0.0003268301
 22
22.2273307627
 32
0.0
 13
0.1663931509
 23
22.2267079492
 33
0.0
 40
0.0
 40
0.0
 40
0.0
 40
0.0
 40
0.2500002564
 40
0.3750003795
 40
0.5000004817
 40
0.6250005331
 40
0.7500004675
 40
0.8750001206
 40
0.9375000047
 40
1.0
 40
1.0
 40
1.0
 40
1.0
 10
-77.0535936114
 20
71.0
 30
0.0
 10
-77.0536208473
 20
72.852279463
 30
0.0
 10
-77.0538722657
 20
75.6306986142
 30
0.0
 10
-77.0535857887
 20
79.3352573209
 30
0.0
 10
-77.052854229
 20
82.1136756205
 30
0.0
 10
-77.0514447194
 20
84.8920923737
 30
0.0
 10
-77.0488419632
 20
87.6705047035
 30
0.0
 10
-77.0462917455
 20
89.9858468805
 30
0.0
 10
-77.0437937821
 20
91.8381182375
 30
0.0
 10
-77.0402302829
 20
92.76425391
 30
0.0
 10
-77.0367637592
 20
93.2273102911
 30
0.0
 11
-77.0535936114
 21
71.0
 31
0.0
 11
-77.053748838
 21
76.5568383876
 31
0.0
 11
-77.0534996717
 21
79.3352574581
 31
0.0
 11
-77.0527412371
 21
82.1136759729
 31
0.0
 11
-77.0512458439
 21
84.8920930573
 31
0.0
 11
-77.0487657099
 21
87.6705068383
 31
0.0
 11
-77.0456291066
 21
90.4489137039
 31
0.0
 11
-77.0432151552
 21
91.8381172018
 31
0.0
 11
-77.0367637592
 21
93.2273102911
 31
0.0
  0
SPLINE
  5
4A9
100
AcDbEntity
  8
RACCORDO
100
AcDbSpline
 62
253
  6
CONTINUOUS
 70
0
 71
3
 72
30
 73
26
 74
24
 42
0.0000001
 43
0.0000001
 44
0.0000000001
 12
0.027036859
 22
3.6101259967
 32
0.0
 13
-2.1100838146
 23
2.9293833821
 33
0.0
 40
0.0
 40
0.0
 40
0.0
 40
0.0
 40
0.0980129238
 40
0.1950058389
 40
0.2899393211
 40
0.3820357197
 40
0.4722081204
 40
0.5576799456
 40
0.6374290346
 40
0.710552535
 40
0.7763460844
 40
0.8342130894
 40
0.8839196292
 40
0.9055074153
 40
0.9247624176
 40
0.94175215
 40
0.9564657693
 40
0.9688787907
 40
0.9791120815
 40
0.9877591154
 40
0.9943264814
 40
0.9966504369
 40
0.9983699106
 40
0.9994860432
 40
1.0
 40
1.0
 40
1.0
 40
1.0
 10
-77.0367637592
 20
93.2273102911
 30
0.0
 10
-77.0358804387
 20
93.3452566257
 30
0.0
 10
-77.034886586
 20
93.5799288804
 30
0.0
 10
-77.0359376404
 20
93.9288443809
 30
0.0
 10
-77.0390830694
 20
94.2706315046
 30
0.0
 10
-77.0461632113
 20
94.6041490656
 30
0.0
 10
-77.0494600102
 20
94.9263373785
 30
0.0
 10
-77.051626724
 20
95.2336723531
 30
0.0
 10
-77.052288596
 20
95.5204989329
 30
0.0
 10
-77.0516860037
 20
95.7836432922
 30
0.0
 10
-77.0501490924
 20
96.0204524596
 30
0.0
 10
-77.0472100006
 20
96.2290624659
 30
0.0
 10
-77.0455315521
 20
96.384491589
 30
0.0
 10
-77.045794587
 20
96.4934599032
 30
0.0
 10
-77.0456992774
 20
96.5630561514
 30
0.0
 10
-77.0454037647
 20
96.6243791257
 30
0.0
 10
-77.0449112535
 20
96.6774677824
 30
0.0
 10
-77.0441977117
 20
96.7224199736
 30
0.0
 10
-77.0432989614
 20
96.7600736281
 30
0.0
 10
-77.0420761971
 20
96.7906614192
 30
0.0
 10
-77.0414576185
 20
96.8117860481
 30
0.0
 10
-77.0414134214
 20
96.8245202663
 30
0.0
 10
-77.0414201226
 20
96.8307903413
 30
0.0
 10
-77.0417752451
 20
96.8346971533
 30
0.0
 10
-77.0418551875
 20
96.8367985442
 30
0.0
 10
-77.0422166848
 20
96.837300403
 30
0.0
 11
-77.0367637592
 21
93.2273102911
 31
0.0
 11
-77.0353110385
 21
93.5811562359
 31
0.0
 11
-77.036310256
 21
93.9313212745
 31
0.0
 11
-77.0398116002
 21
94.2740348322
 31
0.0
 11
-77.0455967965
 21
94.6064734248
 31
0.0
 11
-77.0493406086
 21
94.9319947536
 31
0.0
 11
-77.0514229387
 21
95.2405604388
 31
0.0
 11
-77.0520768187
 21
95.5284720296
 31
0.0
 11
-77.0514712564
 21
95.7924637881
 31
0.0
 11
-77.0497671354
 21
96.0299873391
 31
0.0
 11
-77.047194863
 21
96.2388845404
 31
0.0
 11
-77.0457171669
 21
96.41833036
 31
0.0
 11
-77.045749413
 21
96.4962671666
 31
0.0
 11
-77.045653082
 21
96.5657820336
 31
0.0
 11
-77.0453417201
 21
96.6271180379
 31
0.0
 11
-77.044822241
 21
96.680235007
 31
0.0
 11
-77.0440906202
 21
96.7250428625
 31
0.0
 11
-77.0431461898
 21
96.761975294
 31
0.0
 11
-77.0420390764
 21
96.7931734137
 31
0.0
 11
-77.0414588371
 21
96.8168759962
 31
0.0
 11
-77.0414182019
 21
96.8252659053
 31
0.0
 11
-77.041530096
 21
96.8314725875
 31
0.0
 11
-77.0417955436
 21
96.835493327
 31
0.0
 11
-77.0422166848
 21
96.837300403
 31
0.0
  0
SPLINE
  5
4AA
100
AcDbEntity
  8
RACCORDO
100
AcDbSpline
 62
253
  6
CONTINUOUS
 70
0
 71
3
 72
15
 73
11
 74
9
 42
0.0000001
 43
0.0000001
 44
0.0000000001
 12
-0.1663699528
 22
22.2267081218
 32
0.0
 13
0.0003267414
 23
22.2273307616
 33
0.0
 40
0.0
 40
0.0
 40
0.0
 40
0.0
 40
0.0624999956
 40
0.1249998799
 40
0.2499995332
 40
0.3749994677
 40
0.4999995189
 40
0.624999621
 40
0.7499997439
 40
1.0
 40
1.0
 40
1.0
 40
1.0
 10
-77.0367637592
 20
-93.2273102911
 30
0.0
 10
-77.0402297996
 20
-92.7642539044
 30
0.0
 10
-77.0437943786
 20
-91.8381182338
 30
0.0
 10
-77.0462890765
 20
-89.9858468642
 30
0.0
 10
-77.048842634
 20
-87.6705046894
 30
0.0
 10
-77.0514447052
 20
-84.8920923578
 30
0.0
 10
-77.0528541965
 20
-82.1136756071
 30
0.0
 10
-77.0535858012
 20
-79.3352573111
 30
0.0
 10
-77.0538722628
 20
-75.6306986087
 30
0.0
 10
-77.0536208399
 20
-72.8522794609
 30
0.0
 10
-77.0535936114
 20
-71.0
 30
0.0
 11
-77.0367637592
 21
-93.2273102911
 31
0.0
 11
-77.0432150735
 21
-91.8381171955
 31
0.0
 11
-77.0456277488
 21
-90.4489136902
 31
0.0
 11
-77.0487655986
 21
-87.6705068217
 31
0.0
 11
-77.0512459408
 21
-84.89209304
 31
0.0
 11
-77.0527412151
 21
-82.1136759598
 31
0.0
 11
-77.0534996747
 21
-79.3352574483
 31
0.0
 11
-77.0537488397
 21
-76.556838381
 31
0.0
 11
-77.0535936114
 21
-71.0
 31
0.0
  0
SPLINE
  5
4AB
100
AcDbEntity
  8
RACCORDO
100
AcDbSpline
 62
253
  6
CONTINUOUS
 70
0
 71
3
 72
31
 73
27
 74
25
 42
0.0000001
 43
0.0000001
 44
0.0000000001
 12
-0.1702219114
 22
0.1577654526
 32
0.0
 13
0.0794912142
 23
0.2180517921
 33
0.0
 40
0.0
 40
0.0
 40
0.0
 40
0.0
 40
0.0524672619
 40
0.0779691851
 40
0.1060692572
 40
0.1227716229
 40
0.1318615028
 40
0.1509757767
 40
0.1901359322
 40
0.2308300494
 40
0.3155782284
 40
0.3583549532
 40
0.3989231254
 40
0.4412330363
 40
0.4660410616
 40
0.4898987948
 40
0.5355523954
 40
0.5769287163
 40
0.6435531495
 40
0.7098014615
 40
0.8334233629
 40
0.9261045794
 40
0.9578342353
 40
0.9801466788
 40
0.993804108
 40
1.0
 40
1.0
 40
1.0
 40
1.0
 10
-74.1985942212
 20
109.8738010161
 30
0.0
 10
-74.201571247
 20
109.8765601899
 30
0.0
 10
-74.2054824911
 20
109.8812537468
 30
0.0
 10
-74.2092574836
 20
109.8886481135
 30
0.0
 10
-74.2102800712
 20
109.8939453126
 30
0.0
 10
-74.2109869706
 20
109.8982368691
 30
0.0
 10
-74.2134713883
 20
109.9007618914
 30
0.0
 10
-74.2164832315
 20
109.9049910096
 30
0.0
 10
-74.2213447211
 20
109.9109272208
 30
0.0
 10
-74.2290792583
 20
109.9210353795
 30
0.0
 10
-74.2369374704
 20
109.9314206289
 30
0.0
 10
-74.2442494536
 20
109.9421710129
 30
0.0
 10
-74.2499078714
 20
109.950090718
 30
0.0
 10
-74.2559873206
 20
109.9559143875
 30
0.0
 10
-74.2594455866
 20
109.9620842952
 30
0.0
 10
-74.2633510638
 20
109.9682393755
 30
0.0
 10
-74.2676303719
 20
109.975688959
 30
0.0
 10
-74.2725216995
 20
109.9865497453
 30
0.0
 10
-74.2802305034
 20
109.9976680027
 30
0.0
 10
-74.2904920532
 20
110.0146420319
 30
0.0
 10
-74.301348724
 20
110.0336220144
 30
0.0
 10
-74.3096938708
 20
110.050947902
 30
0.0
 10
-74.3140458734
 20
110.0613982666
 30
0.0
 10
-74.3158993207
 20
110.0663542289
 30
0.0
 10
-74.3167039047
 20
110.0694285206
 30
0.0
 10
-74.3170612155
 20
110.0710333661
 30
0.0
 10
-74.3168970425
 20
110.0714837078
 30
0.0
 11
-74.1985942212
 21
109.8738010161
 31
0.0
 11
-74.2063206205
 21
109.8832129373
 31
0.0
 11
-74.208909682
 21
109.8885353469
 31
0.0
 11
-74.2104206803
 21
109.8948796192
 31
0.0
 11
-74.2115433373
 21
109.8985899331
 31
0.0
 11
-74.2128857009
 21
109.9002174284
 31
0.0
 11
-74.2156146446
 21
109.9037149844
 31
0.0
 11
-74.2212284207
 21
109.91086265
 31
0.0
 11
-74.2270055625
 21
109.9183343566
 31
0.0
 11
-74.2387170867
 21
109.9341367438
 31
0.0
 11
-74.2443791565
 21
109.942291898
 31
0.0
 11
-74.2500562906
 21
109.9498032643
 31
0.0
 11
-74.2564835156
 21
109.9572273357
 31
0.0
 11
-74.2595246298
 21
109.9621163507
 31
0.0
 11
-74.2624255082
 21
109.9668327741
 31
0.0
 11
-74.2676335912
 21
109.9760601776
 31
0.0
 11
-74.2719146382
 21
109.9846561221
 31
0.0
 11
-74.2801057243
 21
109.9977711831
 31
0.0
 11
-74.2881601199
 21
110.0108682604
 31
0.0
 11
-74.3021999761
 21
110.0358897356
 31
0.0
 11
-74.3114695325
 21
110.0553002761
 31
0.0
 11
-74.3142826554
 21
110.062105899
 31
0.0
 11
-74.3160214507
 21
110.0669837302
 31
0.0
 11
-74.3168360981
 21
110.0700469997
 31
0.0
 11
-74.3168970425
 21
110.0714837078
 31
0.0
  0
SPLINE
  5
4AC
100
AcDbEntity
  8
RACCORDO
100
AcDbSpline
 62
253
  6
CONTINUOUS
 70
0
 71
3
 72
21
 73
17
 74
15
 42
0.0000001
 43
0.0000001
 44
0.0000000001
 12
0.088448064
 22
1.8208951355
 32
0.0
 13
-1.3361224982
 23
1.2402656265
 33
0.0
 40
0.0
 40
0.0
 40
0.0
 40
0.0
 40
0.1932436709
 40
0.3781152296
 40
0.5481835312
 40
0.6975776839
 40
0.7628844212
 40
0.821157614
 40
0.8718917466
 40
0.9146510998
 40
0.94906276
 40
0.9748248181
 40
0.9843995125
 40
0.9917541596
 40
0.996913156
 40
1.0
 40
1.0
 40
1.0
 40
1.0
 10
-74.2127661041
 20
108.0528968235
 30
0.0
 10
-74.2070687612
 20
108.1701889769
 30
0.0
 10
-74.1978699655
 20
108.399787902
 30
0.0
 10
-74.1884842092
 20
108.7327810708
 30
0.0
 10
-74.1826539165
 20
109.0392031834
 30
0.0
 10
-74.1801375568
 20
109.2730100578
 30
0.0
 10
-74.1796205507
 20
109.4388908352
 30
0.0
 10
-74.1799270197
 20
109.5448190704
 30
0.0
 10
-74.1809128355
 20
109.6370389273
 30
0.0
 10
-74.1825754338
 20
109.7147538208
 30
0.0
 10
-74.1849651974
 20
109.7772495668
 30
0.0
 10
-74.187698272
 20
109.8195829161
 30
0.0
 10
-74.1906073763
 20
109.8453390372
 30
0.0
 10
-74.1927697385
 20
109.858649323
 30
0.0
 10
-74.1951131329
 20
109.8677352436
 30
0.0
 10
-74.1972194206
 20
109.8725248473
 30
0.0
 10
-74.1985942212
 20
109.8738010161
 30
0.0
 11
-74.2127661041
 21
108.0528968235
 31
0.0
 11
-74.1983780076
 21
108.4048942147
 31
0.0
 11
-74.1887662455
 21
108.7417857444
 31
0.0
 11
-74.1828694537
 21
109.0517713206
 31
0.0
 11
-74.1800705877
 21
109.3241087544
 31
0.0
 11
-74.1797332707
 21
109.4431652019
 31
0.0
 11
-74.1800878544
 21
109.5493990884
 31
0.0
 11
-74.1811436716
 21
109.6418835168
 31
0.0
 11
-74.182926031
 21
109.7198152346
 31
0.0
 11
-74.1854802493
 21
109.7824971174
 31
0.0
 11
-74.1888764475
 21
109.829339476
 31
0.0
 11
-74.1909197754
 21
109.8466745352
 31
0.0
 11
-74.193210826
 21
109.8598851753
 31
0.0
 11
-74.1957640286
 21
109.8689370504
 31
0.0
 11
-74.1985942212
 21
109.8738010161
 31
0.0
  0
SPLINE
  5
4AD
100
AcDbEntity
  8
RACCORDO
100
AcDbSpline
 62
253
  6
CONTINUOUS
 70
0
 71
3
 72
23
 73
19
 74
17
 42
0.0000001
 43
0.0000001
 44
0.0000000001
 12
2.7353063611
 22
-0.1487036216
 32
0.0
 13
-0.0937327253
 23
2.7377413743
 33
0.0
 40
0.0
 40
0.0
 40
0.0
 40
0.0
 40
0.0016054002
 40
0.0053000758
 40
0.0113222989
 40
0.0197038316
 40
0.030435893
 40
0.0434994134
 40
0.0765026892
 40
0.1184064789
 40
0.1688096779
 40
0.2272292865
 40
0.2931010228
 40
0.3657880633
 40
0.444590066
 40
0.6174426634
 40
0.804986132
 40
1.0
 40
1.0
 40
1.0
 40
1.0
 10
-73.2643332814
 20
-110.7368093774
 30
0.0
 10
-73.2628695276
 20
-110.7368889537
 30
0.0
 10
-73.259856387
 20
-110.7314131625
 30
0.0
 10
-73.2580587204
 20
-110.7222376448
 30
0.0
 10
-73.2554152768
 20
-110.705372946
 30
0.0
 10
-73.2534268865
 20
-110.6827307028
 30
0.0
 10
-73.2514469974
 20
-110.6533274143
 30
0.0
 10
-73.2490047363
 20
-110.6015596283
 30
0.0
 10
-73.2466874917
 20
-110.5212344951
 30
0.0
 10
-73.2448423598
 20
-110.4068368383
 30
0.0
 10
-73.2437567062
 20
-110.2692050917
 30
0.0
 10
-73.2434206863
 20
-110.109689982
 30
0.0
 10
-73.243835259
 20
-109.929825591
 30
0.0
 10
-73.2450135018
 20
-109.7313534123
 30
0.0
 10
-73.2477282724
 20
-109.4352041444
 30
0.0
 10
-73.2532827411
 20
-109.0342013195
 30
0.0
 10
-73.2635868526
 20
-108.5271491944
 30
0.0
 10
-73.2735617623
 20
-108.177965845
 30
0.0
 10
-73.2796548227
 20
-108.0
 30
0.0
 11
-73.2643332814
 21
-110.7368093774
 31
0.0
 11
-73.2612434047
 21
-110.7336800275
 31
0.0
 11
-73.2584461299
 21
-110.7239532733
 31
0.0
 11
-73.2559284576
 21
-110.707649572
 31
0.0
 11
-73.2536774218
 21
-110.6848002729
 31
0.0
 11
-73.251680157
 21
-110.6554693714
 31
0.0
 11
-73.2499238216
 21
-110.6197270019
 31
0.0
 11
-73.2470908575
 21
-110.5293640247
 31
0.0
 11
-73.2451105925
 21
-110.4145921501
 31
0.0
 11
-73.2439376934
 21
-110.2765253566
 31
0.0
 11
-73.2435456266
 21
-110.1164943462
 31
0.0
 11
-73.243924759
 21
-109.9360493014
 31
0.0
 11
-73.2450832199
 21
-109.7369377556
 31
0.0
 11
-73.2470465916
 21
-109.5210807748
 31
0.0
 11
-73.2535865269
 21
-109.0476229598
 31
0.0
 11
-73.2641398391
 21
-108.5339850108
 31
0.0
 11
-73.2796548227
 21
-108.0
 31
0.0
  0
SPLINE
  5
4AE
100
AcDbEntity
  8
RACCORDO
100
AcDbSpline
 62
253
  6
CONTINUOUS
 70
0
 71
3
 72
29
 73
25
 74
23
 42
0.0000001
 43
0.0000001
 44
0.0000000001
 12
-1.797807334
 22
37.0099361831
 32
0.0
 13
0.0001452738
 23
37.0535759066
 33
0.0
 40
0.0
 40
0.0
 40
0.0
 40
0.0
 40
0.0078071683
 40
0.0156111619
 40
0.0234076099
 40
0.0273042414
 40
0.0312097091
 40
0.0351159096
 40
0.0390218867
 40
0.0468339911
 40
0.0624582027
 40
0.0937066071
 40
0.124955284
 40
0.1562046445
 40
0.1874548091
 40
0.2499569349
 40
0.3124602087
 40
0.3749636844
 40
0.4374672066
 40
0.4999707716
 40
0.6249779951
 40
0.7499852999
 40
0.8749926438
 40
1.0
 40
1.0
 40
1.0
 40
1.0
 10
-74.2127661041
 20
-108.0528968235
 30
0.0
 10
-74.2174446989
 20
-107.9565825561
 30
0.0
 10
-74.2259523054
 20
-107.7639495689
 30
0.0
 10
-74.235482234
 20
-107.4749906623
 30
0.0
 10
-74.239998412
 20
-107.2342008948
 30
0.0
 10
-74.2398475942
 20
-107.041536753
 30
0.0
 10
-74.241453273
 20
-106.8969326462
 30
0.0
 10
-74.2430650492
 20
-106.7522151292
 30
0.0
 10
-74.2449513598
 20
-106.5592456784
 30
0.0
 10
-74.2484085218
 20
-106.221553555
 30
0.0
 10
-74.2551515745
 20
-105.5461656659
 30
0.0
 10
-74.2642483063
 20
-104.5813173289
 30
0.0
 10
-74.2735896704
 20
-103.4234741836
 30
0.0
 10
-74.2809056382
 20
-102.2655947004
 30
0.0
 10
-74.2882162454
 20
-100.7216919964
 30
0.0
 10
-74.2932055781
 20
-98.7917543664
 30
0.0
 10
-74.2964760665
 20
-96.4757987194
 30
0.0
 10
-74.2996439365
 20
-94.1598254742
 30
0.0
 10
-74.302336308
 20
-91.8438480748
 30
0.0
 10
-74.3053895977
 20
-88.7558748211
 30
0.0
 10
-74.3082317471
 20
-84.8959048337
 30
0.0
 10
-74.3103015112
 20
-80.2639381096
 30
0.0
 10
-74.3112943103
 20
-75.6319694106
 30
0.0
 10
-74.3114367865
 20
-72.5439898481
 30
0.0
 10
-74.3114307331
 20
-70.9999999937
 30
0.0
 11
-74.2127661041
 21
-108.0528968235
 31
0.0
 11
-74.2254158562
 21
-107.7638900243
 31
0.0
 11
-74.2348001905
 21
-107.4748764711
 31
0.0
 11
-74.2396473691
 21
-107.1860308619
 31
0.0
 11
-74.2401333859
 21
-107.0416475501
 31
0.0
 11
-74.241453975
 21
-106.8969420326
 31
0.0
 11
-74.2430322243
 21
-106.7522119405
 31
0.0
 11
-74.2444872104
 21
-106.6074888345
 31
0.0
 11
-74.2474126017
 21
-106.3180372142
 31
0.0
 11
-74.2531892409
 21
-105.7391331238
 31
0.0
 11
-74.2639858095
 21
-104.5813183379
 31
0.0
 11
-74.2732520185
 21
-103.4234801925
 31
0.0
 11
-74.2806000481
 21
-102.2656029584
 31
0.0
 11
-74.286111908
 21
-101.1076857302
 31
0.0
 11
-74.2927527548
 21
-98.7917679881
 31
0.0
 11
-74.2964589559
 21
-96.4758011549
 31
0.0
 11
-74.2995646852
 21
-94.159825957
 31
0.0
 11
-74.3022692397
 21
-91.8438485287
 31
0.0
 11
-74.30456131
 21
-89.5278690743
 31
0.0
 11
-74.3080082771
 21
-84.8959057101
 31
0.0
 11
-74.3101220168
 21
-80.2639385364
 31
0.0
 11
-74.3111644628
 21
-75.6319695493
 31
0.0
 11
-74.3114307331
 21
-70.9999999937
 31
0.0
  0
SPLINE
  5
4AF
100
AcDbEntity
  8
RACCORDO
100
AcDbSpline
 62
253
  6
CONTINUOUS
 70
0
 71
3
 72
21
 73
17
 74
15
 42
0.0000001
 43
0.0000001
 44
0.0000000001
 12
1.3359744671
 22
1.2404250389
 32
0.0
 13
-0.0884502942
 23
1.8208949995
 33
0.0
 40
0.0
 40
0.0
 40
0.0
 40
0.0
 40
0.0030869565
 40
0.0082458632
 40
0.0156003472
 40
0.0251749208
 40
0.0509368925
 40
0.0853485969
 40
0.1281080188
 40
0.1788421823
 40
0.2371153795
 40
0.3024221957
 40
0.4518164485
 40
0.6218848184
 40
0.8067563895
 40
1.0
 40
1.0
 40
1.0
 40
1.0
 10
-74.1985942212
 20
-109.8738010161
 30
0.0
 10
-74.1972195228
 20
-109.8725246367
 30
0.0
 10
-74.19511322
 20
-109.8677351597
 30
0.0
 10
-74.1927697534
 20
-109.8586492579
 30
0.0
 10
-74.1906073333
 20
-109.8453392503
 30
0.0
 10
-74.1876981913
 20
-109.8195833385
 30
0.0
 10
-74.1849651177
 20
-109.7772501022
 30
0.0
 10
-74.1825753801
 20
-109.7147543338
 30
0.0
 10
-74.1809128024
 20
-109.6370393561
 30
0.0
 10
-74.1799269947
 20
-109.5448194366
 30
0.0
 10
-74.1796205211
 20
-109.4388911339
 30
0.0
 10
-74.1801375773
 20
-109.2730102475
 30
0.0
 10
-74.182653941
 20
-109.0392032267
 30
0.0
 10
-74.1884842613
 20
-108.7327810086
 30
0.0
 10
-74.1978701148
 20
-108.3997878375
 30
0.0
 10
-74.2070686193
 20
-108.1701889315
 30
0.0
 10
-74.2127661041
 20
-108.0528968235
 30
0.0
 11
-74.1985942212
 21
-109.8738010161
 31
0.0
 11
-74.1957640693
 21
-109.8689367895
 31
0.0
 11
-74.193210845
 21
-109.8598850906
 31
0.0
 11
-74.1909197524
 21
-109.8466747599
 31
0.0
 11
-74.1888763951
 21
-109.8293399259
 31
0.0
 11
-74.185480178
 21
-109.7824977274
 31
0.0
 11
-74.1829259746
 21
-109.7198157643
 31
0.0
 11
-74.1811436346
 21
-109.641883922
 31
0.0
 11
-74.1800878269
 21
-109.5493994387
 31
0.0
 11
-74.179733247
 21
-109.4431655457
 31
0.0
 11
-74.1800705895
 21
-109.3241089562
 31
0.0
 11
-74.1828694817
 21
-109.0517713441
 31
0.0
 11
-74.1887663081
 21
-108.741785649
 31
0.0
 11
-74.1983780716
 21
-108.4048941018
 31
0.0
 11
-74.2127661041
 21
-108.0528968235
 31
0.0
  0
SPLINE
  5
4B0
100
AcDbEntity
  8
RACCORDO
100
AcDbSpline
 62
253
  6
CONTINUOUS
 70
0
 71
3
 72
13
 73
9
 74
7
 42
0.0000001
 43
0.0000001
 44
0.0000000001
 12
0.0000168603
 22
3.4522622046
 32
0.0
 13
-0.0000008684
 23
3.4522622046
 33
0.0
 40
0.0
 40
0.0
 40
0.0
 40
0.0
 40
0.3162597794
 40
0.6034716879
 40
0.7281048338
 40
0.8366938466
 40
0.9282294555
 40
1.0
 40
1.0
 40
1.0
 40
1.0
 10
-77.0535936117
 20
-48.75
 30
0.0
 10
-77.0535918343
 20
-48.3860627722
 30
0.0
 10
-77.060710292
 20
-47.6915929297
 30
0.0
 10
-77.086078766
 20
-46.8540551885
 30
0.0
 10
-77.112236589
 20
-46.2557316911
 30
0.0
 10
-77.1307092469
 20
-45.8824688494
 30
0.0
 10
-77.1458816827
 20
-45.5699606631
 30
0.0
 10
-77.150984902
 20
-45.382053215
 30
0.0
 10
-77.1509849228
 20
-45.2994629689
 30
0.0
 11
-77.0535936117
 21
-48.75
 31
0.0
 11
-77.0648726034
 21
-47.6582465772
 31
0.0
 11
-77.0948318086
 21
-46.6671684743
 31
0.0
 11
-77.1134838936
 21
-46.2373066503
 31
0.0
 11
-77.131615702
 21
-45.8628676551
 31
0.0
 11
-77.1457248733
 21
-45.5471778667
 31
0.0
 11
-77.1509849228
 21
-45.2994629689
 31
0.0
  0
SPLINE
  5
4B1
100
AcDbEntity
  8
RACCORDO
100
AcDbSpline
 62
253
  6
CONTINUOUS
 70
0
 71
3
 72
13
 73
9
 74
7
 42
0.0000001
 43
0.0000001
 44
0.0000000001
 12
0.000000789
 22
3.4522620102
 32
0.0
 13
-0.0000495214
 23
3.4522620099
 33
0.0
 40
0.0
 40
0.0
 40
0.0
 40
0.0
 40
0.0717652814
 40
0.1632930212
 40
0.2718715805
 40
0.3964915142
 40
0.683692207
 40
1.0
 40
1.0
 40
1.0
 40
1.0
 10
-77.1509849228
 20
-25.7005368395
 30
0.0
 10
-77.1509849039
 20
-25.6179526547
 30
0.0
 10
-77.1458826833
 20
-25.4300603157
 30
0.0
 10
-77.1307114405
 20
-25.1175792536
 30
0.0
 10
-77.1122407784
 20
-24.7443526728
 30
0.0
 10
-77.0860829818
 20
-24.1460693789
 30
0.0
 10
-77.0607136514
 20
-23.3085046108
 30
0.0
 10
-77.0535883903
 20
-22.613992459
 30
0.0
 10
-77.0535936117
 20
-22.25
 30
0.0
 11
-77.1509849228
 21
-25.7005368395
 31
0.0
 11
-77.1457256446
 21
-25.4528401131
 31
0.0
 11
-77.1316178078
 21
-25.137177476
 31
0.0
 11
-77.1134876865
 21
-24.7627745509
 31
0.0
 11
-77.0948366988
 21
-24.3329583581
 31
0.0
 11
-77.0648761538
 21
-23.3419190888
 31
0.0
 11
-77.0535936117
 21
-22.25
 31
0.0
  0
SPLINE
  5
4B2
100
AcDbEntity
  8
RACCORDO
100
AcDbSpline
 62
253
  6
CONTINUOUS
 70
0
 71
3
 72
13
 73
9
 74
7
 42
0.0000001
 43
0.0000001
 44
0.0000000001
 12
0.0000168603
 22
3.4522622046
 32
0.0
 13
-0.0000008684
 23
3.4522622046
 33
0.0
 40
0.0
 40
0.0
 40
0.0
 40
0.0
 40
0.3162597794
 40
0.6034716879
 40
0.7281048338
 40
0.8366938466
 40
0.9282294555
 40
1.0
 40
1.0
 40
1.0
 40
1.0
 10
-77.0535936117
 20
22.25
 30
0.0
 10
-77.0535918343
 20
22.6139372278
 30
0.0
 10
-77.060710292
 20
23.3084070703
 30
0.0
 10
-77.086078766
 20
24.1459448115
 30
0.0
 10
-77.112236589
 20
24.7442683089
 30
0.0
 10
-77.1307092469
 20
25.1175311506
 30
0.0
 10
-77.1458816827
 20
25.4300393369
 30
0.0
 10
-77.150984902
 20
25.617946785
 30
0.0
 10
-77.1509849228
 20
25.7005370311
 30
0.0
 11
-77.0535936117
 21
22.25
 31
0.0
 11
-77.0648726034
 21
23.3417534228
 31
0.0
 11
-77.0948318086
 21
24.3328315257
 31
0.0
 11
-77.1134838936
 21
24.7626933497
 31
0.0
 11
-77.131615702
 21
25.1371323449
 31
0.0
 11
-77.1457248733
 21
25.4528221333
 31
0.0
 11
-77.1509849228
 21
25.7005370311
 31
0.0
  0
SPLINE
  5
4B3
100
AcDbEntity
  8
RACCORDO
100
AcDbSpline
 62
253
  6
CONTINUOUS
 70
0
 71
3
 72
13
 73
9
 74
7
 42
0.0000001
 43
0.0000001
 44
0.0000000001
 12
-0.0475259342
 22
22.2499712334
 32
0.0
 13
0.0000854255
 23
22.2500219909
 33
0.0
 40
0.0
 40
0.0
 40
0.0
 40
0.0
 40
0.1249998955
 40
0.2499998995
 40
0.3749999096
 40
0.4999999253
 40
0.7499999621
 40
1.0
 40
1.0
 40
1.0
 40
1.0
 10
-77.6490046194
 20
-93.24999955
 30
0.0
 10
-77.650984865
 20
-92.3229181907
 30
0.0
 10
-77.651593188
 20
-90.4687490895
 30
0.0
 10
-77.6527288263
 20
-87.6874978213
 30
0.0
 10
-77.6535144556
 20
-84.9062447989
 30
0.0
 10
-77.6541246516
 20
-81.1979074311
 30
0.0
 10
-77.6543300288
 20
-76.5624854793
 30
0.0
 10
-77.6542276534
 20
-72.8541479356
 30
0.0
 10
-77.6542205347
 20
-70.9999791554
 30
0.0
 11
-77.6490046194
 21
-93.24999955
 31
0.0
 11
-77.65163038
 21
-90.4687503668
 31
0.0
 11
-77.6526704914
 21
-87.6874977221
 31
0.0
 11
-77.6534597918
 21
-84.9062448613
 31
0.0
 11
-77.6539349447
 21
-82.1249918035
 31
0.0
 11
-77.6542633595
 21
-76.5624854959
 31
0.0
 11
-77.6542205347
 21
-70.9999791554
 31
0.0
  0
SPLINE
  5
4B4
100
AcDbEntity
  8
RACCORDO
100
AcDbSpline
 62
253
  6
CONTINUOUS
 70
0
 71
3
 72
13
 73
9
 74
7
 42
0.0000001
 43
0.0000001
 44
0.0000000001
 12
0.000000789
 22
3.4522620102
 32
0.0
 13
-0.0000495214
 23
3.4522620099
 33
0.0
 40
0.0
 40
0.0
 40
0.0
 40
0.0
 40
0.0717652814
 40
0.1632930212
 40
0.2718715805
 40
0.3964915142
 40
0.683692207
 40
1.0
 40
1.0
 40
1.0
 40
1.0
 10
-77.1509849228
 20
45.2994631605
 30
0.0
 10
-77.1509849039
 20
45.3820473453
 30
0.0
 10
-77.1458826833
 20
45.5699396843
 30
0.0
 10
-77.1307114405
 20
45.8824207464
 30
0.0
 10
-77.1122407784
 20
46.2556473272
 30
0.0
 10
-77.0860829818
 20
46.8539306211
 30
0.0
 10
-77.0607136514
 20
47.6914953892
 30
0.0
 10
-77.0535883903
 20
48.386007541
 30
0.0
 10
-77.0535936117
 20
48.75
 30
0.0
 11
-77.1509849228
 21
45.2994631605
 31
0.0
 11
-77.1457256446
 21
45.5471598869
 31
0.0
 11
-77.1316178078
 21
45.862822524
 31
0.0
 11
-77.1134876865
 21
46.2372254491
 31
0.0
 11
-77.0948366988
 21
46.6670416419
 31
0.0
 11
-77.0648761538
 21
47.6580809112
 31
0.0
 11
-77.0535936117
 21
48.75
 31
0.0
  0
SPLINE
  5
4B5
100
AcDbEntity
  8
RACCORDO
100
AcDbSpline
 62
253
  6
CONTINUOUS
 70
0
 71
3
 72
13
 73
9
 74
7
 42
0.0000001
 43
0.0000001
 44
0.0000000001
 12
0.032157158
 22
-0.0419746797
 32
0.0
 13
-0.0006607262
 23
0.0528726771
 33
0.0
 40
0.0
 40
0.0
 40
0.0
 40
0.0
 40
0.0119630667
 40
0.0562031765
 40
0.1329952621
 40
0.242290101
 40
0.5584195364
 40
1.0
 40
1.0
 40
1.0
 40
1.0
 10
-77.6506448955
 20
-95.258209193
 30
0.0
 10
-77.6505166628
 20
-95.2583765749
 30
0.0
 10
-77.6504300583
 20
-95.2563932647
 30
0.0
 10
-77.6503544949
 20
-95.255127442
 30
0.0
 10
-77.6503303797
 20
-95.2504221336
 30
0.0
 10
-77.6503665179
 20
-95.2419752517
 30
0.0
 10
-77.6506383626
 20
-95.2263843555
 30
0.0
 10
-77.6508454865
 20
-95.2131428826
 30
0.0
 10
-77.6509427411
 20
-95.2053603688
 30
0.0
 11
-77.6506448955
 21
-95.258209193
 31
0.0
 11
-77.6504822716
 21
-95.2575978856
 31
0.0
 11
-77.6503804845
 21
-95.2552608255
 31
0.0
 11
-77.650339381
 21
-95.2512005134
 31
0.0
 11
-77.6503584181
 21
-95.2454213828
 31
0.0
 11
-77.6505937273
 21
-95.2287071245
 31
0.0
 11
-77.6509427411
 21
-95.2053603688
 31
0.0
  0
SPLINE
  5
4B6
100
AcDbEntity
  8
RACCORDO
100
AcDbSpline
 62
253
  6
CONTINUOUS
 70
0
 71
3
 72
15
 73
11
 74
9
 42
0.0000001
 43
0.0000001
 44
0.0000000001
 12
-0.0244336197
 22
1.9552288934
 32
0.0
 13
-0.0079865495
 23
1.9553652452
 33
0.0
 40
0.0
 40
0.0
 40
0.0
 40
0.0
 40
0.1330991691
 40
0.1825129562
 40
0.2375859456
 40
0.3630277911
 40
0.5059197218
 40
0.662384614
 40
0.8286464998
 40
1.0
 40
1.0
 40
1.0
 40
1.0
 10
-77.6509427411
 20
-95.2053603688
 30
0.0
 10
-77.6520267726
 20
-95.1186139218
 30
0.0
 10
-77.651405926
 20
-94.9996455932
 30
0.0
 10
-77.6527790316
 20
-94.8447943621
 30
0.0
 10
-77.6534419062
 20
-94.6949294058
 30
0.0
 10
-77.6536796537
 20
-94.4841346753
 30
0.0
 10
-77.6528950148
 20
-94.2072528959
 30
0.0
 10
-77.6500352428
 20
-93.9037782554
 30
0.0
 10
-77.6482465299
 20
-93.5817431569
 30
0.0
 10
-77.648548446
 20
-93.3616857763
 30
0.0
 10
-77.6490046204
 20
-93.24999955
 30
0.0
 11
-77.6509427411
 21
-95.2053603688
 31
0.0
 11
-77.6520124053
 21
-94.9451029066
 31
0.0
 11
-77.6526786385
 21
-94.8484823958
 31
0.0
 11
-77.6532029477
 21
-94.7407949645
 31
0.0
 11
-77.6535153988
 21
-94.4955084925
 31
0.0
 11
-77.6526271522
 21
-94.2161016587
 31
0.0
 11
-77.6502866961
 21
-93.9101620466
 31
0.0
 11
-77.6486346017
 21
-93.5850608194
 31
0.0
 11
-77.6490046204
 21
-93.24999955
 31
0.0
  0
SPLINE
  5
4B7
100
AcDbEntity
  8
RACCORDO
100
AcDbSpline
 62
253
  6
CONTINUOUS
 70
0
 71
3
 72
11
 73
7
 74
5
 42
0.0000001
 43
0.0000001
 44
0.0000000001
 12
0.9319598696
 22
-0.0703650562
 32
0.0
 13
0.9332487531
 23
-0.0504698375
 33
0.0
 40
0.0
 40
0.0
 40
0.0
 40
0.0
 40
0.1121039152
 40
0.3352205998
 40
0.6432069042
 40
1.0
 40
1.0
 40
1.0
 40
1.0
 10
-74.2127657763
 20
108.052896806
 30
0.0
 10
-74.1779403262
 20
108.0502674065
 30
0.0
 10
-74.0736677595
 20
108.044333308
 30
0.0
 10
-73.8736345774
 20
108.0325852706
 30
0.0
 10
-73.5974403686
 20
108.0173209371
 30
0.0
 10
-73.3906469103
 20
108.0060024297
 30
0.0
 10
-73.279654673
 20
107.9999999999
 30
0.0
 11
-74.2127657763
 21
108.052896806
 31
0.0
 11
-74.1082013729
 21
108.0462773677
 31
0.0
 11
-73.9000216943
 21
108.0342359898
 31
0.0
 11
-73.6126218013
 21
108.0181836342
 31
0.0
 11
-73.279654673
 21
107.9999999999
 31
0.0
  0
SPLINE
  5
4B8
100
AcDbEntity
  8
RACCORDO
100
AcDbSpline
 62
253
  6
CONTINUOUS
 70
0
 71
3
 72
11
 73
7
 74
5
 42
0.0000001
 43
0.0000001
 44
0.0000000001
 12
0.9319600606
 22
0.0703648924
 32
0.0
 13
0.9332489281
 23
0.050469901
 33
0.0
 40
0.0
 40
0.0
 40
0.0
 40
0.0
 40
0.112103404
 40
0.3352199239
 40
0.6432064291
 40
1.0
 40
1.0
 40
1.0
 40
1.0
 10
-74.2127661036
 20
-108.0528968235
 30
0.0
 10
-74.1779408052
 20
-108.0502674421
 30
0.0
 10
-74.0736684285
 20
-108.0443333613
 30
0.0
 10
-73.8736353561
 20
-108.0325853292
 30
0.0
 10
-73.597440936
 20
-108.0173209765
 30
0.0
 10
-73.3906472286
 20
-108.0060024454
 30
0.0
 10
-73.2796548227
 20
-108.0
 30
0.0
 11
-74.2127661036
 21
-108.0528968235
 31
0.0
 11
-74.1082021564
 21
-108.0462774246
 31
0.0
 11
-73.9000225917
 21
-108.0342360547
 31
0.0
 11
-73.6126224569
 21
-108.0181836779
 31
0.0
 11
-73.2796548227
 21
-108.0
 31
0.0
  0
SPLINE
  5
4B9
100
AcDbEntity
  8
RACCORDO
100
AcDbSpline
 62
253
  6
CONTINUOUS
 70
0
 71
3
 72
11
 73
7
 74
5
 42
0.0000001
 43
0.0000001
 44
0.0000000001
 12
0.0000011641
 22
1.8503471317
 32
0.0
 13
-0.0000017303
 23
1.8503471317
 33
0.0
 40
0.0
 40
0.0
 40
0.0
 40
0.0
 40
0.3231134499
 40
0.6142154082
 40
0.8459380158
 40
1.0
 40
1.0
 40
1.0
 40
1.0
 10
-77.6542205457
 20
-48.7499924203
 30
0.0
 10
-77.6542204203
 20
-48.5507017386
 30
0.0
 10
-77.6562715062
 20
-48.1718632329
 30
0.0
 10
-77.6644085753
 20
-47.6501517534
 30
0.0
 10
-77.6741982499
 20
-47.2327931948
 30
0.0
 10
-77.6803642633
 20
-46.9948931783
 30
0.0
 10
-77.6803643521
 20
-46.8998704614
 30
0.0
 11
-77.6542205457
 21
-48.7499924203
 31
0.0
 11
-77.6574457949
 21
-48.1521290745
 31
0.0
 11
-77.6657648382
 21
-47.6135536466
 31
0.0
 11
-77.6755330354
 21
-47.1848976687
 31
0.0
 11
-77.6803643521
 21
-46.8998704614
 31
0.0
  0
SPLINE
  5
4BA
100
AcDbEntity
  8
RACCORDO
100
AcDbSpline
 62
253
  6
CONTINUOUS
 70
0
 71
3
 72
30
 73
26
 74
24
 42
0.0000001
 43
0.0000001
 44
0.0000000001
 12
2.109889588
 22
2.9295232859
 32
0.0
 13
-0.027035689
 23
3.6101260127
 33
0.0
 40
0.0
 40
0.0
 40
0.0
 40
0.0
 40
0.000514003
 40
0.0016300697
 40
0.0033496578
 40
0.0056733314
 40
0.0122356008
 40
0.020888836
 40
0.0311213496
 40
0.0435344703
 40
0.0582479601
 40
0.0752377056
 40
0.0944925558
 40
0.1160806932
 40
0.1657866843
 40
0.2236535439
 40
0.2894466211
 40
0.3625692626
 40
0.4423177982
 40
0.5277895831
 40
0.6179613547
 40
0.7100583089
 40
0.8049922578
 40
0.9019859894
 40
1.0
 40
1.0
 40
1.0
 40
1.0
 10
-77.0422166848
 20
-96.837300403
 30
0.0
 10
-77.0418551883
 20
-96.8367984751
 30
0.0
 10
-77.0417752667
 20
-96.8346971358
 30
0.0
 10
-77.0414200736
 20
-96.8307901868
 30
0.0
 10
-77.0414134633
 20
-96.8245204017
 30
0.0
 10
-77.041457576
 20
-96.8117924998
 30
0.0
 10
-77.0420737873
 20
-96.7906668303
 30
0.0
 10
-77.0432995626
 20
-96.7600787472
 30
0.0
 10
-77.0441974835
 20
-96.722418415
 30
0.0
 10
-77.0449114152
 20
-96.6774672072
 30
0.0
 10
-77.0454036816
 20
-96.6243785659
 30
0.0
 10
-77.0456993298
 20
-96.5630559165
 30
0.0
 10
-77.0457944865
 20
-96.4934594119
 30
0.0
 10
-77.04553191
 20
-96.3844915183
 30
0.0
 10
-77.0472098336
 20
-96.2290628052
 30
0.0
 10
-77.0501491407
 20
-96.0204542031
 30
0.0
 10
-77.0516859539
 20
-95.7836468117
 30
0.0
 10
-77.0522886287
 20
-95.5205047199
 30
0.0
 10
-77.0516266948
 20
-95.2336798883
 30
0.0
 10
-77.0494602828
 20
-94.9263463813
 30
0.0
 10
-77.0461626521
 20
-94.6041582154
 30
0.0
 10
-77.0390836832
 20
-94.2706401621
 30
0.0
 10
-77.0359374253
 20
-93.9288508351
 30
0.0
 10
-77.0348866143
 20
-93.5799324787
 30
0.0
 10
-77.0358804671
 20
-93.3452579342
 30
0.0
 10
-77.0367637592
 20
-93.2273102911
 30
0.0
 11
-77.0422166848
 21
-96.837300403
 31
0.0
 11
-77.0417955457
 21
-96.8354931553
 31
0.0
 11
-77.0415300865
 21
-96.8314726549
 31
0.0
 11
-77.0414182162
 21
-96.8252655595
 31
0.0
 11
-77.041458767
 21
-96.8168766676
 31
0.0
 11
-77.0420372149
 21
-96.7931924466
 31
0.0
 11
-77.0431462608
 21
-96.7619719933
 31
0.0
 11
-77.0440906372
 21
-96.7250423667
 31
0.0
 11
-77.0448222883
 21
-96.6802341531
 31
0.0
 11
-77.0453417047
 21
-96.6271176513
 31
0.0
 11
-77.0456530865
 21
-96.5657815993
 31
0.0
 11
-77.0457493886
 21
-96.4962672812
 31
0.0
 11
-77.0457173245
 21
-96.4183292061
 31
0.0
 11
-77.0471948459
 21
-96.2388853656
 31
0.0
 11
-77.0497671299
 21
-96.0299886891
 31
0.0
 11
-77.0514712398
 21
-95.7924668422
 31
0.0
 11
-77.052076827
 21
-95.5284781843
 31
0.0
 11
-77.0514229693
 21
-95.2405685911
 31
0.0
 11
-77.0493406935
 21
-94.9320030501
 31
0.0
 11
-77.0455965951
 21
-94.6064839952
 31
0.0
 11
-77.0398118814
 21
-94.2740433875
 31
0.0
 11
-77.0363102263
 21
-93.9313281472
 31
0.0
 11
-77.0353110256
 21
-93.5811601605
 31
0.0
 11
-77.0367637592
 21
-93.2273102911
 31
0.0
  0
SPLINE
  5
4BB
100
AcDbEntity
  8
RACCORDO
100
AcDbSpline
 62
253
  6
CONTINUOUS
 70
0
 71
3
 72
27
 73
23
 74
21
 42
0.0000001
 43
0.0000001
 44
0.0000000001
 12
-1.9919013405
 22
36.9474887723
 32
0.0
 13
0.0002273052
 23
37.0011431915
 33
0.0
 40
0.0
 40
0.0
 40
0.0
 40
0.0
 40
0.0078124499
 40
0.0156248963
 40
0.0234373168
 40
0.031249804
 40
0.046874804
 40
0.0624998041
 40
0.0781248044
 40
0.0937498048
 40
0.1249998039
 40
0.1562498032
 40
0.1874998046
 40
0.2499997939
 40
0.3124998082
 40
0.3749998255
 40
0.4374998428
 40
0.4999998603
 40
0.6249998945
 40
0.7499999292
 40
0.8749999645
 40
1.0
 40
1.0
 40
1.0
 40
1.0
 10
-73.2796548227
 20
-108.0
 30
0.0
 10
-73.2848420326
 20
-107.9037831979
 30
0.0
 10
-73.2944485669
 20
-107.7113068873
 30
0.0
 10
-73.3061440689
 20
-107.4224700609
 30
0.0
 10
-73.3142174851
 20
-107.133499633
 30
0.0
 10
-73.3184844253
 20
-106.7480894172
 30
0.0
 10
-73.3253950407
 20
-106.2663558298
 30
0.0
 10
-73.3329641515
 20
-105.6882616419
 30
0.0
 10
-73.3405742557
 20
-105.110169079
 30
0.0
 10
-73.3503565512
 20
-104.3393739193
 30
0.0
 10
-73.3617102098
 20
-103.3758689699
 30
0.0
 10
-73.3730359363
 20
-102.219637862
 30
0.0
 10
-73.3849477677
 20
-100.6779685795
 30
0.0
 10
-73.3939323028
 20
-98.7508426237
 30
0.0
 10
-73.3994693698
 20
-96.438277447
 30
0.0
 10
-73.4045814275
 20
-94.1257110478
 30
0.0
 10
-73.4090555193
 20
-91.8131432442
 30
0.0
 10
-73.4141480062
 20
-88.729717968
 30
0.0
 10
-73.4189762858
 20
-84.8754339907
 30
0.0
 10
-73.4225418669
 20
-80.2502910351
 30
0.0
 10
-73.4242696077
 20
-75.6251470647
 30
0.0
 10
-73.4245144221
 20
-72.5417175723
 30
0.0
 10
-73.424504951
 20
-71.0000028344
 30
0.0
 11
-73.2796548227
 21
-108.0
 31
0.0
 11
-73.293996188
 21
-107.7112863933
 31
0.0
 11
-73.3055403972
 21
-107.422447551
 31
0.0
 11
-73.3134052652
 21
-107.1334860744
 31
0.0
 11
-73.3175228135
 21
-106.8444444439
 31
0.0
 11
-73.3252744356
 21
-106.2663535493
 31
0.0
 11
-73.3329709837
 21
-105.6882619149
 31
0.0
 11
-73.3405286919
 21
-105.1101684446
 31
0.0
 11
-73.3478526968
 21
-104.5320719601
 31
0.0
 11
-73.3613270991
 21
-103.3758647808
 31
0.0
 11
-73.372637294
 21
-102.2196343961
 31
0.0
 11
-73.381576127
 21
-101.063383172
 31
0.0
 11
-73.3930582391
 21
-98.7508406257
 31
0.0
 11
-73.3993985347
 21
-96.4382773366
 31
0.0
 11
-73.4044750998
 21
-94.1257108212
 31
0.0
 11
-73.4089463982
 21
-91.813143053
 31
0.0
 11
-73.4127723959
 21
-89.5005741221
 31
0.0
 11
-73.4186048934
 21
-84.8754336347
 31
0.0
 11
-73.4222355602
 21
-80.2502908742
 31
0.0
 11
-73.4240428545
 21
-75.6251470251
 31
0.0
 11
-73.424504951
 21
-71.0000028344
 31
0.0
  0
SPLINE
  5
4BC
100
AcDbEntity
  8
RACCORDO
100
AcDbSpline
 62
253
  6
CONTINUOUS
 70
0
 71
3
 72
11
 73
7
 74
5
 42
0.0000001
 43
0.0000001
 44
0.0000000001
 12
-0.0
 22
1.71240501
 32
0.0
 13
-1.0118446398
 23
1.3814851948
 33
0.0
 40
0.0
 40
0.0
 40
0.0
 40
0.0
 40
0.2482983403
 40
0.4973190794
 40
0.7477136156
 40
1.0
 40
1.0
 40
1.0
 40
1.0
 10
-77.1509849228
 20
45.2994651035
 30
0.0
 10
-77.1509849228
 20
45.4411942108
 30
0.0
 10
-77.1738423379
 20
45.7255834983
 30
0.0
 10
-77.2758754751
 20
46.1418021714
 30
0.0
 10
-77.4432134744
 20
46.5387696464
 30
0.0
 10
-77.5952728102
 20
46.7836938264
 30
0.0
 10
-77.6803643521
 20
46.8998704614
 30
0.0
 11
-77.1509849228
 21
45.2994651035
 31
0.0
 11
-77.1850281806
 21
45.723287372
 31
0.0
 11
-77.2863853249
 21
46.1374907823
 31
0.0
 11
-77.4527560043
 21
46.532674779
 31
0.0
 11
-77.6803643521
 21
46.8998704614
 31
0.0
  0
SPLINE
  5
4BD
100
AcDbEntity
  8
RACCORDO
100
AcDbSpline
 62
253
  6
CONTINUOUS
 70
0
 71
3
 72
11
 73
7
 74
5
 42
0.0000001
 43
0.0000001
 44
0.0000000001
 12
-0.0014025484
 22
0.0228606239
 32
0.0
 13
0.0134131266
 23
0.0185651098
 33
0.0
 40
0.0
 40
0.0
 40
0.0
 40
0.0
 40
0.0520449497
 40
0.1939166201
 40
0.4772128799
 40
1.0
 40
1.0
 40
1.0
 40
1.0
 10
-77.053091268
 20
-96.8573555478
 30
0.0
 10
-77.0531155998
 20
-96.8569589545
 30
0.0
 10
-77.052507859
 20
-96.8555370014
 30
0.0
 10
-77.0511259247
 20
-96.8522373128
 30
0.0
 10
-77.0480035455
 20
-96.8456429043
 30
0.0
 10
-77.0445540881
 20
-96.8405356031
 30
0.0
 10
-77.0422166848
 20
-96.837300403
 30
0.0
 11
-77.053091268
 21
-96.8573555478
 31
0.0
 11
-77.0527927058
 21
-96.8562015264
 31
0.0
 11
-77.0515166288
 21
-96.8532132069
 31
0.0
 11
-77.0486942639
 21
-96.8473706926
 31
0.0
 11
-77.0422166848
 21
-96.837300403
 31
0.0
  0
SPLINE
  5
4BE
100
AcDbEntity
  8
RACCORDO
100
AcDbSpline
 62
253
  6
CONTINUOUS
 70
0
 71
3
 72
27
 73
23
 74
21
 42
0.0000001
 43
0.0000001
 44
0.0000000001
 12
-0.0002273078
 22
37.0010747211
 32
0.0
 13
1.9918837468
 23
36.947421151
 33
0.0
 40
0.0
 40
0.0
 40
0.0
 40
0.0
 40
0.1250000355
 40
0.2500000707
 40
0.3750001055
 40
0.5000001397
 40
0.5625001572
 40
0.6250001745
 40
0.6875001917
 40
0.7500002061
 40
0.8125001953
 40
0.8437501967
 40
0.8750001961
 40
0.9062501952
 40
0.9218751956
 40
0.9375001958
 40
0.9531251959
 40
0.9687501959
 40
0.9765626831
 40
0.9843751036
 40
0.9921875501
 40
1.0
 40
1.0
 40
1.0
 40
1.0
 10
-73.424504951
 20
71.0000028376
 30
0.0
 10
-73.4245144222
 20
72.5417147225
 30
0.0
 10
-73.4242696095
 20
75.6251385088
 30
0.0
 10
-73.4225418758
 20
80.2502739199
 30
0.0
 10
-73.4189763113
 20
84.8754083164
 30
0.0
 10
-73.4141480421
 20
88.7296851611
 30
0.0
 10
-73.4090555585
 20
91.8131047311
 30
0.0
 10
-73.4045817182
 20
94.1256682556
 30
0.0
 10
-73.3994686861
 20
96.438230373
 30
0.0
 10
-73.3939324799
 20
98.7507912722
 30
0.0
 10
-73.3849480324
 20
100.6779136623
 30
0.0
 10
-73.3730364549
 20
102.2195800938
 30
0.0
 10
-73.361710794
 20
103.3758090627
 30
0.0
 10
-73.3503572973
 20
104.3393122309
 30
0.0
 10
-73.340575078
 20
105.1101059649
 30
0.0
 10
-73.3329649797
 20
105.6881974581
 30
0.0
 10
-73.3253959667
 20
106.2662905765
 30
0.0
 10
-73.318485226
 20
106.7480232734
 30
0.0
 10
-73.3142185411
 20
107.1334327741
 30
0.0
 10
-73.3061465177
 20
107.4224027049
 30
0.0
 10
-73.2944516108
 20
107.7112390231
 30
0.0
 10
-73.2848455753
 20
107.9037150023
 30
0.0
 10
-73.2796584113
 20
107.999931628
 30
0.0
 11
-73.424504951
 21
71.0000028376
 31
0.0
 11
-73.4240428571
 21
75.6251384692
 31
0.0
 11
-73.4222355707
 21
80.2502737591
 31
0.0
 11
-73.4186049182
 21
84.8754079604
 31
0.0
 11
-73.4127724322
 21
89.5005398887
 31
0.0
 11
-73.4089464789
 21
91.81310454
 31
0.0
 11
-73.4044751862
 21
94.1256680287
 31
0.0
 11
-73.3993981569
 21
96.4382302634
 31
0.0
 11
-73.3930582903
 21
98.7507892739
 31
0.0
 11
-73.3815764705
 21
101.063327542
 31
0.0
 11
-73.3726377918
 21
102.2195766277
 31
0.0
 11
-73.3613277048
 21
103.3758048739
 31
0.0
 11
-73.3478534575
 21
104.5320099152
 31
0.0
 11
-73.3405295057
 21
105.1101053304
 31
0.0
 11
-73.3329718272
 21
105.6881977312
 31
0.0
 11
-73.3252753203
 21
106.2662882961
 31
0.0
 11
-73.3175237076
 21
106.8443781209
 31
0.0
 11
-73.3134065214
 21
107.133419222
 31
0.0
 11
-73.3055427131
 21
107.4223801925
 31
0.0
 11
-73.2939992573
 21
107.7112185321
 31
0.0
 11
-73.2796584113
 21
107.999931628
 31
0.0
  0
SPLINE
  5
4BF
100
AcDbEntity
  8
RACCORDO
100
AcDbSpline
 62
253
  6
CONTINUOUS
 70
0
 71
3
 72
12
 73
8
 74
6
 42
0.0000001
 43
0.0000001
 44
0.0000000001
 12
-0.6070658607
 22
0.0832648303
 32
0.0
 13
-0.6125881261
 23
0.0140633875
 33
0.0
 40
0.0
 40
0.0
 40
0.0
 40
0.0
 40
0.0425736441
 40
0.1096505087
 40
0.3159161634
 40
0.6147122761
 40
1.0
 40
1.0
 40
1.0
 40
1.0
 10
-77.0367637616
 20
93.2273102911
 30
0.0
 10
-77.0453787635
 20
93.2284919202
 30
0.0
 10
-77.0677112154
 20
93.2303833515
 30
0.0
 10
-77.1321017949
 20
93.2344240355
 30
0.0
 10
-77.2488871642
 20
93.2390787078
 30
0.0
 10
-77.430645313
 20
93.2447561996
 30
0.0
 10
-77.5703303916
 20
93.2481938498
 30
0.0
 10
-77.6490046199
 20
93.25
 30
0.0
 11
-77.0367637616
 21
93.2273102911
 31
0.0
 11
-77.0627231778
 21
93.2298869685
 31
0.0
 11
-77.1037370167
 21
93.2325671401
 31
0.0
 11
-77.2300016069
 21
93.2381777562
 31
0.0
 11
-77.4129952854
 21
93.244028284
 31
0.0
 11
-77.6490046199
 21
93.25
 31
0.0
  0
SPLINE
  5
4C0
100
AcDbEntity
  8
RACCORDO
100
AcDbSpline
 62
253
  6
CONTINUOUS
 70
0
 71
3
 72
11
 73
7
 74
5
 42
0.0000001
 43
0.0000001
 44
0.0000000001
 12
-0.0
 22
1.71240501
 32
0.0
 13
-1.0118446398
 23
1.3814851948
 33
0.0
 40
0.0
 40
0.0
 40
0.0
 40
0.0
 40
0.2482983403
 40
0.4973190794
 40
0.7477136156
 40
1.0
 40
1.0
 40
1.0
 40
1.0
 10
-77.1509849228
 20
-25.7005348965
 30
0.0
 10
-77.1509849228
 20
-25.5588057892
 30
0.0
 10
-77.1738423379
 20
-25.2744165017
 30
0.0
 10
-77.2758754751
 20
-24.8581978286
 30
0.0
 10
-77.4432134744
 20
-24.4612303536
 30
0.0
 10
-77.5952728102
 20
-24.2163061736
 30
0.0
 10
-77.6803643521
 20
-24.1001295386
 30
0.0
 11
-77.1509849228
 21
-25.7005348965
 31
0.0
 11
-77.1850281806
 21
-25.276712628
 31
0.0
 11
-77.2863853249
 21
-24.8625092177
 31
0.0
 11
-77.4527560043
 21
-24.467325221
 31
0.0
 11
-77.6803643521
 21
-24.1001295386
 31
0.0
  0
SPLINE
  5
4C1
100
AcDbEntity
  8
RACCORDO
100
AcDbSpline
 62
253
  6
CONTINUOUS
 70
0
 71
3
 72
23
 73
19
 74
17
 42
0.0000001
 43
0.0000001
 44
0.0000000001
 12
0.0937165918
 22
2.737810841
 32
0.0
 13
-2.7352927862
 23
-0.1502144278
 33
0.0
 40
0.0
 40
0.0
 40
0.0
 40
0.0
 40
0.1950125801
 40
0.3825554241
 40
0.5554079918
 40
0.6342101137
 40
0.7068973373
 40
0.772769309
 40
0.8311891819
 40
0.881592629
 40
0.9234966703
 40
0.9565001458
 40
0.9695636921
 40
0.980295788
 40
0.9886774456
 40
0.9946999147
 40
0.9983947222
 40
1.0
 40
1.0
 40
1.0
 40
1.0
 10
-73.2796568923
 20
107.9999316281
 30
0.0
 10
-73.2735649208
 20
108.1779008133
 30
0.0
 10
-73.2635875025
 20
108.527091118
 30
0.0
 10
-73.2532832329
 20
109.0341542334
 30
0.0
 10
-73.2477290045
 20
109.4351666523
 30
0.0
 10
-73.2450133775
 20
109.731323608
 30
0.0
 10
-73.2438352824
 20
109.9298012699
 30
0.0
 10
-73.2434210128
 20
110.1096708065
 30
0.0
 10
-73.2437564789
 20
110.2691906101
 30
0.0
 10
-73.244842284
 20
110.406826517
 30
0.0
 10
-73.2466876281
 20
110.5212276798
 30
0.0
 10
-73.2490046426
 20
110.6015552864
 30
0.0
 10
-73.2514469033
 20
110.6533246002
 30
0.0
 10
-73.25342698
 20
110.6827288231
 30
0.0
 10
-73.2554151211
 20
110.7053719325
 30
0.0
 10
-73.2580590066
 20
110.7222377314
 30
0.0
 10
-73.2598552104
 20
110.7314134661
 30
0.0
 10
-73.2628698615
 20
110.7368897465
 30
0.0
 10
-73.2643334964
 20
110.7368093679
 30
0.0
 11
-73.2796568923
 21
107.9999316281
 31
0.0
 11
-73.2641410803
 21
108.5339265221
 31
0.0
 11
-73.2535871078
 21
109.047575666
 31
0.0
 11
-73.2470469995
 21
109.5210453032
 31
0.0
 11
-73.2450832165
 21
109.7369080346
 31
0.0
 11
-73.2439248202
 21
109.9360250887
 31
0.0
 11
-73.2435458002
 21
110.1164753154
 31
0.0
 11
-73.2439375714
 21
110.2765110743
 31
0.0
 11
-73.2451105435
 21
110.4145820184
 31
0.0
 11
-73.2470909081
 21
110.5293574669
 31
0.0
 11
-73.2499237407
 21
110.6197232699
 31
0.0
 11
-73.2516801029
 21
110.65546661
 31
0.0
 11
-73.253677422
 21
110.6847983434
 31
0.0
 11
-73.2559284211
 21
110.70764857
 31
0.0
 11
-73.2584459106
 21
110.723953401
 31
0.0
 11
-73.261243138
 21
110.7336808098
 31
0.0
 11
-73.2643334964
 21
110.7368093679
 31
0.0
  0
SPLINE
  5
4C2
100
AcDbEntity
  8
RACCORDO
100
AcDbSpline
 62
253
  6
CONTINUOUS
 70
0
 71
3
 72
11
 73
7
 74
5
 42
0.0000001
 43
0.0000001
 44
0.0000000001
 12
-0.0
 22
-1.7124050106
 32
0.0
 13
-1.0118446479
 23
-1.3814851895
 33
0.0
 40
0.0
 40
0.0
 40
0.0
 40
0.0
 40
0.2482983423
 40
0.4973190821
 40
0.7477136175
 40
1.0
 40
1.0
 40
1.0
 40
1.0
 10
-77.1509849228
 20
25.7005348965
 30
0.0
 10
-77.1509849228
 20
25.558805788
 30
0.0
 10
-77.1738423377
 20
25.2744164988
 30
0.0
 10
-77.2758754749
 20
24.8581978244
 30
0.0
 10
-77.4432134739
 20
24.4612303504
 30
0.0
 10
-77.5952728102
 20
24.2163061722
 30
0.0
 10
-77.6803643521
 20
24.1001295386
 30
0.0
 11
-77.1509849228
 21
25.7005348965
 31
0.0
 11
-77.1850281806
 21
25.2767126244
 31
0.0
 11
-77.286385325
 21
24.8625092128
 31
0.0
 11
-77.4527560044
 21
24.4673252174
 31
0.0
 11
-77.6803643521
 21
24.1001295386
 31
0.0
  0
SPLINE
  5
4C3
100
AcDbEntity
  8
RACCORDO
100
AcDbSpline
 62
253
  6
CONTINUOUS
 70
0
 71
3
 72
11
 73
7
 74
5
 42
0.0000001
 43
0.0000001
 44
0.0000000001
 12
0.0000011641
 22
1.8503471317
 32
0.0
 13
-0.0000017303
 23
1.8503471317
 33
0.0
 40
0.0
 40
0.0
 40
0.0
 40
0.0
 40
0.3231134499
 40
0.6142154082
 40
0.8459380158
 40
1.0
 40
1.0
 40
1.0
 40
1.0
 10
-77.6542205457
 20
22.2500075797
 30
0.0
 10
-77.6542204203
 20
22.4492982614
 30
0.0
 10
-77.6562715062
 20
22.8281367671
 30
0.0
 10
-77.6644085753
 20
23.3498482466
 30
0.0
 10
-77.6741982499
 20
23.7672068052
 30
0.0
 10
-77.6803642633
 20
24.0051068217
 30
0.0
 10
-77.6803643521
 20
24.1001295386
 30
0.0
 11
-77.6542205457
 21
22.2500075797
 31
0.0
 11
-77.6574457949
 21
22.8478709255
 31
0.0
 11
-77.6657648382
 21
23.3864463534
 31
0.0
 11
-77.6755330354
 21
23.8151023313
 31
0.0
 11
-77.6803643521
 21
24.1001295386
 31
0.0
  0
SPLINE
  5
4C4
100
AcDbEntity
  8
RACCORDO
100
AcDbSpline
 62
253
  6
CONTINUOUS
 70
0
 71
3
 72
11
 73
7
 74
5
 42
0.0000001
 43
0.0000001
 44
0.0000000001
 12
-0.0
 22
-1.7124050106
 32
0.0
 13
-1.0118446479
 23
-1.3814851895
 33
0.0
 40
0.0
 40
0.0
 40
0.0
 40
0.0
 40
0.2482983423
 40
0.4973190821
 40
0.7477136175
 40
1.0
 40
1.0
 40
1.0
 40
1.0
 10
-77.1509849228
 20
-45.2994651035
 30
0.0
 10
-77.1509849228
 20
-45.441194212
 30
0.0
 10
-77.1738423377
 20
-45.7255835012
 30
0.0
 10
-77.2758754749
 20
-46.1418021756
 30
0.0
 10
-77.4432134739
 20
-46.5387696496
 30
0.0
 10
-77.5952728102
 20
-46.7836938278
 30
0.0
 10
-77.6803643521
 20
-46.8998704614
 30
0.0
 11
-77.1509849228
 21
-45.2994651035
 31
0.0
 11
-77.1850281806
 21
-45.7232873756
 31
0.0
 11
-77.286385325
 21
-46.1374907872
 31
0.0
 11
-77.4527560044
 21
-46.5326747826
 31
0.0
 11
-77.6803643521
 21
-46.8998704614
 31
0.0
  0
SPLINE
  5
4C5
100
AcDbEntity
  8
RACCORDO
100
AcDbSpline
 62
253
  6
CONTINUOUS
 70
0
 71
3
 72
12
 73
8
 74
6
 42
0.0000001
 43
0.0000001
 44
0.0000000001
 12
-0.6070661228
 22
-0.0832665233
 32
0.0
 13
-0.6125886188
 23
-0.0140632656
 33
0.0
 40
0.0
 40
0.0
 40
0.0
 40
0.0
 40
0.0425737112
 40
0.1096506215
 40
0.3159163105
 40
0.6147123848
 40
1.0
 40
1.0
 40
1.0
 40
1.0
 10
-77.0367632444
 20
-93.2273102871
 30
0.0
 10
-77.0453782637
 20
-93.2284919421
 30
0.0
 10
-77.0677107551
 20
-93.2303834036
 30
0.0
 10
-77.1321014134
 20
-93.2344241259
 30
0.0
 10
-77.248886886
 20
-93.239078792
 30
0.0
 10
-77.4306451578
 20
-93.2447562486
 30
0.0
 10
-77.570330319
 20
-93.248193866
 30
0.0
 10
-77.6490045884
 20
-93.25
 30
0.0
 11
-77.0367632444
 21
-93.2273102871
 31
0.0
 11
-77.0627227182
 21
-93.2298870122
 31
0.0
 11
-77.1037366162
 21
-93.2325672125
 31
0.0
 11
-77.2300013281
 21
-93.2381778397
 31
0.0
 11
-77.4129951305
 21
-93.2440283358
 31
0.0
 11
-77.6490045884
 21
-93.25
 31
0.0
  0
SPLINE
  5
4C6
100
AcDbEntity
  8
RACCORDO
100
AcDbSpline
 62
253
  6
CONTINUOUS
 70
0
 71
3
 72
11
 73
7
 74
5
 42
0.0000001
 43
0.0000001
 44
0.0000000001
 12
0.000001918
 22
1.8503325694
 32
0.0
 13
-0.000003318
 23
1.8503325694
 33
0.0
 40
0.0
 40
0.0
 40
0.0
 40
0.0
 40
0.1540501744
 40
0.3857489912
 40
0.6768369089
 40
1.0
 40
1.0
 40
1.0
 40
1.0
 10
-77.6803643521
 20
46.8998704614
 30
0.0
 10
-77.6803642536
 20
46.9948851464
 30
0.0
 10
-77.67419921
 20
47.2327613431
 30
0.0
 10
-77.6644099382
 20
47.6500860019
 30
0.0
 10
-77.6562722533
 20
48.1718006458
 30
0.0
 10
-77.6542202212
 20
48.5506581279
 30
0.0
 10
-77.6542205786
 20
48.7499778588
 30
0.0
 11
-77.6803643521
 21
46.8998704614
 31
0.0
 11
-77.675533625
 21
47.1848735795
 31
0.0
 11
-77.6657662904
 21
47.6134821698
 31
0.0
 11
-77.6574469359
 21
48.1520273702
 31
0.0
 11
-77.6542205786
 21
48.7499778588
 31
0.0
  0
SPLINE
  5
4C7
100
AcDbEntity
  8
RACCORDO
100
AcDbSpline
 62
253
  6
CONTINUOUS
 70
0
 71
3
 72
11
 73
7
 74
5
 42
0.0000001
 43
0.0000001
 44
0.0000000001
 12
0.000001918
 22
1.8503325694
 32
0.0
 13
-0.000003318
 23
1.8503325694
 33
0.0
 40
0.0
 40
0.0
 40
0.0
 40
0.0
 40
0.1540501744
 40
0.3857489912
 40
0.6768369089
 40
1.0
 40
1.0
 40
1.0
 40
1.0
 10
-77.6803643521
 20
-24.1001295386
 30
0.0
 10
-77.6803642536
 20
-24.0051148536
 30
0.0
 10
-77.67419921
 20
-23.7672386569
 30
0.0
 10
-77.6644099382
 20
-23.3499139981
 30
0.0
 10
-77.6562722533
 20
-22.8281993542
 30
0.0
 10
-77.6542202212
 20
-22.4493418721
 30
0.0
 10
-77.6542205786
 20
-22.2500221412
 30
0.0
 11
-77.6803643521
 21
-24.1001295386
 31
0.0
 11
-77.675533625
 21
-23.8151264205
 31
0.0
 11
-77.6657662904
 21
-23.3865178302
 31
0.0
 11
-77.6574469359
 21
-22.8479726298
 31
0.0
 11
-77.6542205786
 21
-22.2500221412
 31
0.0
  0
SPLINE
  5
4C8
100
AcDbEntity
  8
RACCORDO
100
AcDbSpline
 62
253
  6
CONTINUOUS
 70
0
 71
3
 72
27
 73
23
 74
21
 42
0.0000001
 43
0.0000001
 44
0.0000000001
 12
0.008202487
 22
2.008245916
 32
0.0
 13
-1.2213439342
 23
-1.5941888012
 33
0.0
 40
0.0
 40
0.0
 40
0.0
 40
0.0
 40
0.1949895065
 40
0.2899991807
 40
0.3820250063
 40
0.554278102
 40
0.6329765915
 40
0.705724579
 40
0.7718299617
 40
0.8306557179
 40
0.8813536186
 40
0.9233408685
 40
0.9410711144
 40
0.9565699784
 40
0.9698011327
 40
0.9807285943
 40
0.9892952747
 40
0.9953739756
 40
0.997471357
 40
0.9989401821
 40
0.9997801874
 40
1.0
 40
1.0
 40
1.0
 40
1.0
 10
-77.6490046191
 20
93.2499999186
 30
0.0
 10
-77.6484714861
 20
93.3805288786
 30
0.0
 10
-77.6483701045
 20
93.5746621935
 30
0.0
 10
-77.6495131861
 20
93.83039599
 30
0.0
 10
-77.6518543398
 20
94.0709002698
 30
0.0
 10
-77.65319917
 20
94.3004937636
 30
0.0
 10
-77.6535995819
 20
94.5171848895
 30
0.0
 10
-77.6534778811
 20
94.6628186999
 30
0.0
 10
-77.6530602919
 20
94.7951488833
 30
0.0
 10
-77.6522059667
 20
94.9127156649
 30
0.0
 10
-77.651599747
 20
95.0141383909
 30
0.0
 10
-77.6516738037
 20
95.0880543466
 30
0.0
 10
-77.6514811706
 20
95.1384033595
 30
0.0
 10
-77.6513038986
 20
95.1695092768
 30
0.0
 10
-77.6510642789
 20
95.1960412205
 30
0.0
 10
-77.6507943202
 20
95.2179874184
 30
0.0
 10
-77.6504602343
 20
95.2349979929
 30
0.0
 10
-77.6503464811
 20
95.2464226711
 30
0.0
 10
-77.6503252142
 20
95.2525915396
 30
0.0
 10
-77.6504077595
 20
95.2559977981
 30
0.0
 10
-77.65041159
 20
95.2569339478
 30
0.0
 10
-77.6505554076
 20
95.2583259992
 30
0.0
 10
-77.6506448966
 20
95.2582091916
 30
0.0
 11
-77.6490046191
 21
93.2499999186
 31
0.0
 11
-77.6487732798
 21
93.6415899967
 31
0.0
 11
-77.649692188
 21
93.8323921656
 31
0.0
 11
-77.6512484151
 21
94.0171976433
 31
0.0
 11
-77.6532486535
 21
94.3631213216
 31
0.0
 11
-77.6535334783
 21
94.5211683035
 31
0.0
 11
-77.6534149721
 21
94.6672653229
 31
0.0
 11
-77.6529486558
 21
94.800021476
 31
0.0
 11
-77.6521937035
 21
94.9181566338
 31
0.0
 11
-77.6516944512
 21
95.019970111
 31
0.0
 11
-77.6515946677
 21
95.1042914784
 31
0.0
 11
-77.6514635877
 21
95.1398982281
 31
0.0
 11
-77.6512766286
 21
95.1710234565
 31
0.0
 11
-77.6510343666
 21
95.1975939854
 31
0.0
 11
-77.6507453527
 21
95.2195372953
 31
0.0
 11
-77.6504591497
 21
95.236739059
 31
0.0
 11
-77.6503401715
 21
95.2489461073
 31
0.0
 11
-77.6503496569
 21
95.2531581893
 31
0.0
 11
-77.6504034497
 21
95.2561074855
 31
0.0
 11
-77.6505018679
 21
95.2577915632
 31
0.0
 11
-77.6506448966
 21
95.2582091916
 31
0.0
  0
SPLINE
  5
4C9
100
AcDbEntity
  8
RACCORDO
100
AcDbSpline
 62
253
  6
CONTINUOUS
 70
0
 71
3
 72
13
 73
9
 74
7
 42
0.0000001
 43
0.0000001
 44
0.0000000001
 12
-0.0000854624
 22
22.2500223599
 32
0.0
 13
0.0475343297
 23
22.2499715845
 33
0.0
 40
0.0
 40
0.0
 40
0.0
 40
0.0
 40
0.2500000379
 40
0.5000000748
 40
0.6250000905
 40
0.7500001006
 40
0.8750001047
 40
1.0
 40
1.0
 40
1.0
 40
1.0
 10
-77.6542205347
 20
70.9999791554
 30
0.0
 10
-77.6542276565
 20
72.8541479667
 30
0.0
 10
-77.6543300191
 20
76.5624855723
 30
0.0
 10
-77.6541246699
 20
81.1979076017
 30
0.0
 10
-77.6535144688
 20
84.9062450316
 30
0.0
 10
-77.6527283698
 20
87.6874981007
 30
0.0
 10
-77.6515948364
 20
90.4687494152
 30
0.0
 10
-77.6509852143
 20
92.3229185459
 30
0.0
 10
-77.6490046189
 20
93.2499999186
 30
0.0
 11
-77.6542205347
 21
70.9999791554
 31
0.0
 11
-77.6542633586
 21
76.562485589
 31
0.0
 11
-77.6539349595
 21
82.1249919897
 31
0.0
 11
-77.6534597274
 21
84.9062450939
 31
0.0
 11
-77.652670464
 21
87.6874980014
 31
0.0
 11
-77.6516313528
 21
90.468750694
 31
0.0
 11
-77.6490046189
 21
93.2499999186
 31
0.0
  0
ELLIPSE
  5
4CA
100
AcDbEntity
  8
RACCORDO
100
AcDbEllipse
 62
7
  6
CONTINUOUS
 10
4.1331429141
 20
-110.9720456601
 30
0.0
 11
0.5
 21
0.0
 31
0.0
 40
0.0559086798
 41
-3.054326191
 42
-1.5707963268
  0
ELLIPSE
  5
4CB
100
AcDbEntity
  8
RACCORDO
100
AcDbEllipse
 62
7
  6
CONTINUOUS
 10
-4.1331429141
 20
-110.9720456601
 30
0.0
 11
0.5
 21
0.0
 31
0.0
 40
0.0559086798
 41
-1.5707963268
 42
-0.0872664626
  0
ELLIPSE
  5
4CC
100
AcDbEntity
  8
RACCORDO
100
AcDbEllipse
 62
7
  6
CONTINUOUS
 10
-3.041834413
 20
110.9161369803
 30
0.0
 11
0.5
 21
0.0
 31
0.0
 40
0.0559086798
 41
-3.054326191
 42
-1.5707963268
  0
ELLIPSE
  5
4CD
100
AcDbEntity
  8
RACCORDO
100
AcDbEllipse
 62
7
  6
CONTINUOUS
 10
3.041834413
 20
110.9161369803
 30
0.0
 11
0.5
 21
-0.0
 31
0.0
 40
0.0559086798
 41
-1.5707963268
 42
-0.0872664626
  0
ELLIPSE
  5
4CE
100
AcDbEntity
  8
RACCORDO
100
AcDbEllipse
 62
7
  6
CONTINUOUS
 10
-3.041834413
 20
-110.9161369803
 30
0.0
 11
0.5
 21
-0.0
 31
0.0
 40
0.0559086798
 41
1.5707963268
 42
3.054326191
  0
ELLIPSE
  5
4CF
100
AcDbEntity
  8
RACCORDO
100
AcDbEllipse
 62
7
  6
CONTINUOUS
 10
3.041834413
 20
-110.9161369803
 30
0.0
 11
0.5
 21
0.0
 31
0.0
 40
0.0559086798
 41
0.0872664626
 42
1.5707963268
  0
ELLIPSE
  5
4D0
100
AcDbEntity
  8
RACCORDO
100
AcDbEllipse
 62
7
  6
CONTINUOUS
 10
4.1331429141
 20
110.9720456601
 30
0.0
 11
0.5
 21
0.0
 31
0.0
 40
0.0559086798
 41
1.5707963268
 42
3.054326191
  0
ELLIPSE
  5
4D1
100
AcDbEntity
  8
RACCORDO
100
AcDbEllipse
 62
7
  6
CONTINUOUS
 10
-4.1331429141
 20
110.9720456601
 30
0.0
 11
0.5
 21
0.0
 31
0.0
 40
0.0559086798
 41
0.0872664626
 42
1.5707963268
  0
ENDSEC
  0
SECTION
  2
OBJECTS
  0
DICTIONARY
  5
C
100
AcDbDictionary
280
0
281
1
  3
ACAD_GROUP
350
D
  3
ACAD_MLINESTYLE
350
17
  3
ACAD_LAYOUT
350
1A
  3
ACAD_PLOTSETTINGS
350
19
  3
ACAD_PLOTSTYLENAME
350
E
  0
DICTIONARY
  5
D
102
{ACAD_REACTORS
330
C
102
}
100
AcDbDictionary
280
0
281
1
  0
ACDBDICTIONARYWDFLT
  5
E
102
{ACAD_REACTORS
330
C
102
}
100
AcDbDictionary
281
1
  3
Normal
350
F
100
AcDbDictionaryWithDefault
340
F
  0
DICTIONARY
  5
17
102
{ACAD_REACTORS
330
C
102
}
100
AcDbDictionary
280
0
281
1
  3
Standard
350
18
  0
DICTIONARY
  5
19
102
{ACAD_REACTORS
330
C
102
}
100
AcDbDictionary
281
1
  0
DICTIONARY
  5
1A
102
{ACAD_REACTORS
330
C
102
}
100
AcDbDictionary
281
1
  3
Model
350
4D2
  3
Layout1
350
4D3
  0
ACDBPLACEHOLDER
  5
F
102
{ACAD_REACTORS
330
E
102
}
  0
MLINESTYLE
  5
18
102
{ACAD_REACTORS
330
17
102
}
100
AcDbMlineStyle
  2
STANDARD
 70
0
  3

 62
256
 51
90.0
 52
90.0
 71
2
 49
0.5
 62
256
  6
BYLAYER
 49
-0.5
 62
256
  6
BYLAYER
  0
LAYOUT
  5
4D2
102
{ACAD_REACTORS
330
1A
102
}
100
AcDbPlotSettings
  1

  2
none_device
  4
ISO_A4_(297.00_x_210.00_MM)
  6

 40
0.0
 41
0.0
 42
0.0
 43
0.0
 44
297.0
 45
210.0
 46
0.0
 47
0.0
 48
0.0
 49
0.0
140
0.0
141
0.0
142
1.0
143
1.0
 70
1024
 72
1
 73
0
 74
0
  7

 75
0
147
1.0
148
0.0
149
0.0
100
AcDbLayout
  1
Model
 70
0
 71
0
 10
0.0
 20
0.0
 11
297.0
 21
210.0
 12
0.0
 22
0.0
 32
0.0
 14
0.0
 24
0.0
 34
0.0
 15
0.0
 25
0.0
 35
0.0
146
0.0
 13
0.0
 23
0.0
 33
0.0
 16
1.0
 26
0.0
 36
0.0
 17
0.0
 27
1.0
 37
0.0
 76
0
330
210
345
0
346
0
  0
LAYOUT
  5
4D3
102
{ACAD_REACTORS
330
1A
102
}
100
AcDbPlotSettings
  1

  2
none_device
  4
ISO_A4_(297.00_x_210.00_MM)
  6

 40
0.0
 41
0.0
 42
0.0
 43
0.0
 44
297.0
 45
210.0
 46
0.0
 47
0.0
 48
0.0
 49
0.0
140
0.0
141
0.0
142
1.0
143
1.0
 70
0
 72
1
 73
0
 74
0
  7

 75
0
147
1.0
148
0.0
149
0.0
100
AcDbLayout
  1
Layout1
 70
0
 71
1
 10
0.0
 20
0.0
 11
297.0
 21
210.0
 12
0.0
 22
0.0
 32
0.0
 14
0.0
 24
0.0
 34
0.0
 15
0.0
 25
0.0
 35
0.0
146
0.0
 13
0.0
 23
0.0
 33
0.0
 16
1.0
 26
0.0
 36
0.0
 17
0.0
 27
1.0
 37
0.0
 76
0
330
211
345
0
346
0
  0
ENDSEC
  0
EOF
