  0
SECTION
  2
HEADER
  9
$ACADVER
  1
AC1024
  9
$DWGCODEPAGE
  3
ANSI_1252
  9
$EXTMAX
 10
297.0
 20
210.0
 30
0.0
  9
$EXTMIN
 10
0.0
 20
0.0
 30
0.0
  9
$LIMMIN
 10
0.0
 20
0.0
  9
$LIMMAX
 10
297.0
 20
210.0
  9
$VIEWCTR
 10
148.5
 20
105.0
  9
$VIEWSIZE
 40
210.0
  9
$CLAYER
  8
0
  9
$LTSCALE
 40
16.335
  9
$CELTYPE
  6
BYLAYER
  9
$DIMSCALE
 40
1.0
  9
$DIMASZ
 40
3.0
  9
$DIMEXO
 40
0.5
  9
$DIMDLI
 40
11.286
  9
$DIMEXE
 40
1.5
  9
$DIMCEN
 40
2.673
  9
$DIMLFAC
 40
1.0
  9
$DIMBLK
  1
_FILLED
  9
$DIMALT
 70
0
  9
$DIMALTF
 40
0.0393700787
  9
$DIMTXT
 40
3.0
  9
$DIMTOL
 70
1
  9
$DIMLIM
 70
0
  9
$DIMTFAC
 40
1.0
  9
$DIMTP
 40
0.01
  9
$DIMTM
 40
0.01
  9
$DIMGAP
 40
0.625
  9
$DIMDSEP
 70
44
  9
$AUNITS
 70
0
  9
$PDMODE
 70
3
  9
$PDSIZE
 40
3.0
  9
$HANDSEED
  5
56D
  9
$TILEMODE
 70
1
  9
$MEASUREMENT
 70
1
  9
$INSUNITS
 70
4
  0
ENDSEC
  0
SECTION
  2
CLASSES
  0
CLASS
  1
ACDBDICTIONARYWDFLT
  2
AcDbDictionaryWithDefault
  3
AutoCAD 2000
 90
0
 91
1
280
0
281
0
  0
CLASS
  1
ACDBPLACEHOLDER
  2
AcDbPlaceHolder
  3
AutoCAD 2000
 90
0
 91
1
280
0
281
0
  0
CLASS
  1
LAYOUT
  2
AcDbLayout
  3
AutoCAD 2000
 90
0
 91
0
280
0
281
0
  0
ENDSEC
  0
SECTION
  2
TABLES
  0
TABLE
  2
VPORT
  5
8
100
AcDbSymbolTable
 70
2
  0
VPORT
  5
1F4
100
AcDbSymbolTableRecord
100
AcDbViewportTableRecord
  2
*ACTIVE
 70
0
 10
0.0
 20
0.0
 11
1.0
 21
1.0
 12
148.5
 22
105.0
 13
0.0
 23
0.0
 14
1.0
 24
1.0
 15
0.0
 25
0.0
 16
0.0
 26
0.0
 36
1.0
 17
0.0
 27
0.0
 37
0.0
 40
210.0
 41
1.4142857143
 42
50.0
 43
0.0
 44
0.0
 50
0.0
 51
0.0
 71
0
 72
100
 73
1
 74
1
 75
0
 76
0
 77
0
 78
0
  0
ENDTAB
  0
TABLE
  2
LTYPE
  5
5
100
AcDbSymbolTable
 70
6
  0
LTYPE
  5
14
100
AcDbSymbolTableRecord
100
AcDbLinetypeTableRecord
  2
BYBLOCK
 70
0
  3

 72
65
 73
0
 40
0.0
  0
LTYPE
  5
15
100
AcDbSymbolTableRecord
100
AcDbLinetypeTableRecord
  2
BYLAYER
 70
0
  3

 72
65
 73
0
 40
0.0
  0
LTYPE
  5
16
100
AcDbSymbolTableRecord
100
AcDbLinetypeTableRecord
  2
CONTINUOUS
 70
64
  3
Solid line
 72
65
 73
0
 40
0.0
  0
LTYPE
  5
1F5
100
AcDbSymbolTableRecord
100
AcDbLinetypeTableRecord
  2
CENTER
 70
64
  3
____ _ ____ _ ____ _ ____ _ ____ _ ____ _ ____
 72
65
 73
4
 40
0.6
 49
0.375
 74
0
 49
-0.075
 74
0
 49
0.075
 74
0
 49
-0.075
 74
0
  0
LTYPE
  5
1F6
100
AcDbSymbolTableRecord
100
AcDbLinetypeTableRecord
  2
HIDDEN
 70
64
  3
- - - - - - - - - - - - - - - - - - - -
 72
65
 73
2
 40
0.2
 49
0.1
 74
0
 49
-0.1
 74
0
  0
LTYPE
  5
1F7
100
AcDbSymbolTableRecord
100
AcDbLinetypeTableRecord
  2
PHANTOM
 70
64
  3
_____ _ _ _____ _ _ _____ _ _ _____
 72
65
 73
6
 40
0.8
 49
0.45
 74
0
 49
-0.05
 74
0
 49
0.1
 74
0
 49
-0.05
 74
0
 49
0.1
 74
0
 49
-0.05
 74
0
  0
LTYPE
  5
1F8
100
AcDbSymbolTableRecord
100
AcDbLinetypeTableRecord
  2
DOT
 70
64
  3
. . . . . . . . . . . . . . . . . . . .
 72
65
 73
2
 40
0.2
 49
0.1
 74
0
 49
-0.1
 74
0
  0
LTYPE
  5
1F9
100
AcDbSymbolTableRecord
100
AcDbLinetypeTableRecord
  2
DASHED
 70
64
  3
- - - - - - - - - - - - - - - - - - - -
 72
65
 73
2
 40
0.2
 49
0.1
 74
0
 49
-0.1
 74
0
  0
ENDTAB
  0
TABLE
  2
LAYER
  5
2
100
AcDbSymbolTable
 70
36
  0
LAYER
  5
10
100
AcDbSymbolTableRecord
100
AcDbLayerTableRecord
  2
0
 70
0
 62
7
  6
CONTINUOUS
370
-3
390
F
  0
LAYER
  5
1FA
100
AcDbSymbolTableRecord
100
AcDbLayerTableRecord
  2
DEFAULT_1
 70
0
 62
7
  6
CENTER
370
-3
390
F
  0
LAYER
  5
1FB
100
AcDbSymbolTableRecord
100
AcDbLayerTableRecord
  2
DEFAULT_2
 70
0
 62
7
  6
HIDDEN
370
-3
390
F
  0
LAYER
  5
1FC
100
AcDbSymbolTableRecord
100
AcDbLayerTableRecord
  2
DEFAULT_3
 70
0
 62
7
  6
PHANTOM
370
-3
390
F
  0
LAYER
  5
1FD
100
AcDbSymbolTableRecord
100
AcDbLayerTableRecord
  2
ALTRI_PIANI
 70
0
 62
7
  6
CONTINUOUS
370
-3
390
F
  0
LAYER
  5
1FE
100
AcDbSymbolTableRecord
100
AcDbLayerTableRecord
  2
ASSI
 70
0
 62
7
  6
CONTINUOUS
370
-3
390
F
  0
LAYER
  5
1FF
100
AcDbSymbolTableRecord
100
AcDbLayerTableRecord
  2
COORDINATE
 70
0
 62
7
  6
CONTINUOUS
370
-3
390
F
  0
LAYER
  5
200
100
AcDbSymbolTableRecord
100
AcDbLayerTableRecord
  2
COPY_PUBLISH
 70
0
 62
7
  6
CONTINUOUS
370
-3
390
F
  0
LAYER
  5
201
100
AcDbSymbolTableRecord
100
AcDbLayerTableRecord
  2
COSMETIC
 70
0
 62
7
  6
CONTINUOUS
370
-3
390
F
  0
LAYER
  5
202
100
AcDbSymbolTableRecord
100
AcDbLayerTableRecord
  2
COSMETICI
 70
0
 62
7
  6
CONTINUOUS
370
-3
390
F
  0
LAYER
  5
203
100
AcDbSymbolTableRecord
100
AcDbLayerTableRecord
  2
CURVE
 70
0
 62
7
  6
CONTINUOUS
370
-3
390
F
  0
LAYER
  5
204
100
AcDbSymbolTableRecord
100
AcDbLayerTableRecord
  2
DRAFT
 70
0
 62
7
  6
CONTINUOUS
370
-3
390
F
  0
LAYER
  5
205
100
AcDbSymbolTableRecord
100
AcDbLayerTableRecord
  2
IMPORT_IGES
 70
0
 62
7
  6
CONTINUOUS
370
-3
390
F
  0
LAYER
  5
206
100
AcDbSymbolTableRecord
100
AcDbLayerTableRecord
  2
INTF_1
 70
0
 62
7
  6
CONTINUOUS
370
-3
390
F
  0
LAYER
  5
207
100
AcDbSymbolTableRecord
100
AcDbLayerTableRecord
  2
INTF_MAGENTA
 70
0
 62
7
  6
CONTINUOUS
370
-3
390
F
  0
LAYER
  5
208
100
AcDbSymbolTableRecord
100
AcDbLayerTableRecord
  2
NOTE
 70
0
 62
7
  6
CONTINUOUS
370
-3
390
F
  0
LAYER
  5
209
100
AcDbSymbolTableRecord
100
AcDbLayerTableRecord
  2
PIANI
 70
0
 62
7
  6
CONTINUOUS
370
-3
390
F
  0
LAYER
  5
20A
100
AcDbSymbolTableRecord
100
AcDbLayerTableRecord
  2
PUNTI
 70
0
 62
7
  6
CONTINUOUS
370
-3
390
F
  0
LAYER
  5
20B
100
AcDbSymbolTableRecord
100
AcDbLayerTableRecord
  2
RACCORDO
 70
0
 62
7
  6
CONTINUOUS
370
-3
390
F
  0
LAYER
  5
20C
100
AcDbSymbolTableRecord
100
AcDbLayerTableRecord
  2
SIMBOLI
 70
0
 62
7
  6
CONTINUOUS
370
-3
390
F
  0
LAYER
  5
20D
100
AcDbSymbolTableRecord
100
AcDbLayerTableRecord
  2
SNAPLINE
 70
0
 62
7
  6
CONTINUOUS
370
-3
390
F
  0
LAYER
  5
20E
100
AcDbSymbolTableRecord
100
AcDbLayerTableRecord
  2
SUPERFICI
 70
0
 62
7
  6
CONTINUOUS
370
-3
390
F
  0
LAYER
  5
20F
100
AcDbSymbolTableRecord
100
AcDbLayerTableRecord
  2
TRASH
 70
0
 62
7
  6
CONTINUOUS
370
-3
390
F
  0
ENDTAB
  0
TABLE
  2
STYLE
  5
3
100
AcDbSymbolTable
 70
1
  0
STYLE
  5
11
100
AcDbSymbolTableRecord
100
AcDbTextStyleTableRecord
  2
STANDARD
 70
0
 40
0.0
 41
0.8
 50
0.0
 71
0
 42
0.2
  3
txt
  4

  0
STYLE
  5
210
100
AcDbSymbolTableRecord
100
AcDbTextStyleTableRecord
  2
TEXTSTYLE_1
 70
0
 40
0.0
 41
0.8
 50
0.0
 71
0
 42
0.2
  3
gdt
  4

  0
ENDTAB
  0
TABLE
  2
VIEW
  5
6
100
AcDbSymbolTable
 70
0
  0
ENDTAB
  0
TABLE
  2
UCS
  5
7
100
AcDbSymbolTable
 70
0
  0
ENDTAB
  0
TABLE
  2
APPID
  5
9
100
AcDbSymbolTable
 70
1
  0
APPID
  5
211
100
AcDbSymbolTableRecord
100
AcDbRegAppTableRecord
  2
ACAD
 70
0
  0
ENDTAB
  0
TABLE
  2
BLOCK_RECORD
  5
1
100
AcDbSymbolTable
 70
0
  0
BLOCK_RECORD
  5
212
100
AcDbSymbolTableRecord
100
AcDbBlockTableRecord
  2
*Model_Space
  0
BLOCK_RECORD
  5
213
100
AcDbSymbolTableRecord
100
AcDbBlockTableRecord
  2
*Paper_Space
  0
BLOCK_RECORD
  5
214
100
AcDbSymbolTableRecord
100
AcDbBlockTableRecord
  2
_FILLED
  0
BLOCK_RECORD
  5
215
100
AcDbSymbolTableRecord
100
AcDbBlockTableRecord
  2
*D0
  0
BLOCK_RECORD
  5
216
100
AcDbSymbolTableRecord
100
AcDbBlockTableRecord
  2
*D1
  0
BLOCK_RECORD
  5
217
100
AcDbSymbolTableRecord
100
AcDbBlockTableRecord
  2
*D2
  0
ENDTAB
  0
TABLE
  2
DIMSTYLE
  5
A
100
AcDbSymbolTable
 70
1
100
AcDbDimStyleTable
 71
0
  0
DIMSTYLE
105
218
100
AcDbSymbolTableRecord
100
AcDbDimStyleTableRecord
  2
STANDARD
 70
0
  3

  4

 40
1.0
 41
3.0
 42
0.5
 43
0.38
 44
1.5
 45
0.0
 46
0.0
 47
0.01
 48
0.01
140
3.0
141
0.09
142
0.0
143
25.4
144
1.0
145
0.0
146
1.0
147
0.625
 71
1
 72
0
 73
0
 74
0
 75
0
 76
0
 77
1
 78
8
 79
2
170
0
171
1
172
0
173
0
174
0
175
0
176
0
177
0
178
0
270
2
179
2
271
2
272
2
273
2
274
2
275
0
280
0
281
0
282
0
283
1
284
8
285
0
286
0
287
3
288
0
340
11
278
44
341
214
342
214
343
214
344
214
  0
DIMSTYLE
105
219
100
AcDbSymbolTableRecord
100
AcDbDimStyleTableRecord
  2
DIMSTYLE_1
 70
0
  3

  4

 40
1.0
 41
3.0
 42
0.5
 43
0.38
 44
1.5
 45
0.0
 46
0.0
 47
0.0
 48
0.0
140
3.0
141
0.09
142
0.0
143
25.4
144
1.0
145
0.0
146
1.0
147
0.75
 71
0
 72
0
 73
0
 74
0
 75
0
 76
0
 77
1
 78
8
 79
2
170
0
171
1
172
0
173
0
174
0
175
0
176
0
177
0
178
0
270
2
179
2
271
0
272
0
273
2
274
2
275
0
280
0
281
0
282
0
283
1
284
8
285
0
286
0
287
3
288
0
340
11
278
44
341
214
342
214
343
214
344
214
  0
DIMSTYLE
105
21A
100
AcDbSymbolTableRecord
100
AcDbDimStyleTableRecord
  2
DIMSTYLE_2
 70
0
  3

  4

 40
1.0
 41
3.0
 42
0.5
 43
0.38
 44
1.5
 45
0.0
 46
0.0
 47
0.0
 48
0.0
140
3.0
141
0.09
142
0.0
143
25.4
144
1.0
145
0.0
146
1.0
147
0.75
 71
0
 72
0
 73
0
 74
0
 75
0
 76
0
 77
1
 78
8
 79
2
170
0
171
1
172
0
173
0
174
0
175
0
176
0
177
0
178
0
270
2
179
2
271
2
272
2
273
2
274
2
275
0
280
0
281
0
282
0
283
1
284
8
285
0
286
0
287
3
288
0
340
11
278
44
341
214
342
214
343
214
344
214
  0
ENDTAB
  0
ENDSEC
  0
SECTION
  2
BLOCKS
  0
BLOCK
  5
20
100
AcDbEntity
  8
0
100
AcDbBlockBegin
  2
*Model_Space
 70
0
 10
0.0
 20
0.0
 30
0.0
  3
*Model_Space
  1

  0
ENDBLK
  5
21
100
AcDbEntity
  8
0
100
AcDbBlockEnd
  0
BLOCK
  5
1C
100
AcDbEntity
  8
0
100
AcDbBlockBegin
  2
*Paper_Space
 70
0
 10
0.0
 20
0.0
 30
0.0
  3
*Paper_Space
  1

  0
ENDBLK
  5
1D
100
AcDbEntity
  8
0
100
AcDbBlockEnd
  0
BLOCK
  5
21B
100
AcDbEntity
  8
0
100
AcDbBlockBegin
  2
_FILLED
 70
64
 10
0.0
 20
0.0
  3
_FILLED
  1

  0
SOLID
  5
21C
100
AcDbEntity
  8
0
  6
BYBLOCK
 62
0
100
AcDbTrace
 10
0.0
 20
0.0
 11
-1.0
 21
0.3166666667
 12
-1.0
 22
-0.3166666667
 13
-1.0
 23
-0.3166666667
  0
ENDBLK
  5
21D
100
AcDbEntity
  8
0
  6
BYBLOCK
 62
0
100
AcDbBlockEnd
  0
BLOCK
  5
21E
100
AcDbEntity
  8
0
100
AcDbBlockBegin
 62
7
  6
CONTINUOUS
  2
*D0
 70
65
 10
0.0
 20
0.0
  3
*D0
  1

  0
LINE
  5
21F
100
AcDbEntity
  8
0
100
AcDbLine
 62
7
  6
CONTINUOUS
 10
-79.5856572464
 20
40.4999586231
 11
-79.5856572464
 21
49.4999648
  0
LINE
  5
220
100
AcDbEntity
  8
0
100
AcDbLine
 62
7
  6
CONTINUOUS
 10
-88.5767906735
 20
24.0667194573
 11
-88.5767906735
 21
49.4999648
  0
LINE
  5
221
100
AcDbEntity
  8
0
100
AcDbLine
 62
7
  6
CONTINUOUS
 10
-79.5856572464
 20
47.9999648
 11
-75.5856572464
 21
47.9999648
  0
LINE
  5
222
100
AcDbEntity
  8
0
100
AcDbLine
 62
7
  6
CONTINUOUS
 10
-75.5856572464
 20
47.9999648
 11
-84.08122396
 21
47.9999648
  0
LINE
  5
223
100
AcDbEntity
  8
0
100
AcDbLine
 62
7
  6
CONTINUOUS
 10
-88.5767906735
 20
47.9999648
 11
-92.5767906735
 21
47.9999648
  0
LINE
  5
224
100
AcDbEntity
  8
0
100
AcDbLine
 62
7
  6
CONTINUOUS
 10
-92.5767906735
 20
47.9999648
 11
-84.08122396
 21
47.9999648
  0
INSERT
  5
225
100
AcDbEntity
  8
0
100
AcDbBlockReference
 62
7
  6
CONTINUOUS
  2
_FILLED
 10
-79.5856572464
 20
47.9999648
 41
3.0
 42
3.0
 43
3.0
 50
180.0
  0
INSERT
  5
226
100
AcDbEntity
  8
0
100
AcDbBlockReference
 62
7
  6
CONTINUOUS
  2
_FILLED
 10
-88.5767906735
 20
47.9999648
 41
3.0
 42
3.0
 43
3.0
  0
ENDBLK
  5
227
100
AcDbEntity
  8
0
  6
BYBLOCK
 62
0
100
AcDbBlockEnd
  0
BLOCK
  5
228
100
AcDbEntity
  8
0
100
AcDbBlockBegin
 62
7
  6
CONTINUOUS
  2
*D1
 70
65
 10
0.0
 20
0.0
  3
*D1
  1

  0
LINE
  5
229
100
AcDbEntity
  8
0
100
AcDbLine
 62
7
  6
CONTINUOUS
 10
-80.085657446
 20
39.9999586078
 11
-98.0789909915
 21
39.9999586078
  0
LINE
  5
22A
100
AcDbEntity
  8
0
100
AcDbLine
 62
7
  6
CONTINUOUS
 10
-80.0856574173
 20
-39.9999643802
 11
-98.0789909915
 21
-39.9999643802
  0
LINE
  5
22B
100
AcDbEntity
  8
0
100
AcDbLine
 62
7
  6
CONTINUOUS
 10
-96.5789909915
 20
39.9999586078
 11
-96.5789909915
 21
-0.0000028862
  0
LINE
  5
22C
100
AcDbEntity
  8
0
100
AcDbLine
 62
7
  6
CONTINUOUS
 10
-96.5789909915
 20
-39.9999643802
 11
-96.5789909915
 21
-0.0000028862
  0
INSERT
  5
22D
100
AcDbEntity
  8
0
100
AcDbBlockReference
 62
7
  6
CONTINUOUS
  2
_FILLED
 10
-96.5789909915
 20
39.9999586078
 41
3.0
 42
3.0
 43
3.0
 50
90.0
  0
INSERT
  5
22E
100
AcDbEntity
  8
0
100
AcDbBlockReference
 62
7
  6
CONTINUOUS
  2
_FILLED
 10
-96.5789909915
 20
-39.9999643802
 41
3.0
 42
3.0
 43
3.0
 50
270.0
  0
ENDBLK
  5
22F
100
AcDbEntity
  8
0
  6
BYBLOCK
 62
0
100
AcDbBlockEnd
  0
BLOCK
  5
230
100
AcDbEntity
  8
0
100
AcDbBlockBegin
 62
7
  6
CONTINUOUS
  2
*D2
 70
65
 10
0.0
 20
0.0
  3
*D2
  1

  0
LINE
  5
231
100
AcDbEntity
  8
0
100
AcDbLine
 62
7
  6
CONTINUOUS
 10
-68.4999397647
 20
37.4999672828
 11
-68.4999397647
 21
49.4999648
  0
LINE
  5
232
100
AcDbEntity
  8
0
100
AcDbLine
 62
7
  6
CONTINUOUS
 10
68.4999396754
 20
37.4999672828
 11
68.4999396754
 21
49.4999648
  0
LINE
  5
233
100
AcDbEntity
  8
0
100
AcDbLine
 62
7
  6
CONTINUOUS
 10
-68.4999397647
 20
47.9999648
 11
-0.0000000447
 21
47.9999648
  0
LINE
  5
234
100
AcDbEntity
  8
0
100
AcDbLine
 62
7
  6
CONTINUOUS
 10
68.4999396754
 20
47.9999648
 11
-0.0000000447
 21
47.9999648
  0
INSERT
  5
235
100
AcDbEntity
  8
0
100
AcDbBlockReference
 62
7
  6
CONTINUOUS
  2
_FILLED
 10
-68.4999397647
 20
47.9999648
 41
3.0
 42
3.0
 43
3.0
 50
180.0
  0
INSERT
  5
236
100
AcDbEntity
  8
0
100
AcDbBlockReference
 62
7
  6
CONTINUOUS
  2
_FILLED
 10
68.4999396754
 20
47.9999648
 41
3.0
 42
3.0
 43
3.0
  0
ENDBLK
  5
237
100
AcDbEntity
  8
0
  6
BYBLOCK
 62
0
100
AcDbBlockEnd
  0
ENDSEC
  0
SECTION
  2
ENTITIES
  0
DIMENSION
  5
238
100
AcDbEntity
  8
0
100
AcDbDimension
 62
7
  6
CONTINUOUS
  2
*D0
 10
-88.5767906735
 20
47.9999648
 11
-85.2597953885
 21
47.9999648
 70
160
 71
2
 72
2
 41
0.9
 42
8.9911334271
  3
DIMSTYLE_1
100
AcDbAlignedDimension
 13
-79.5856572464
 23
39.9999586231
 14
-88.5767906735
 24
23.5667194573
 50
180.0
100
AcDbRotatedDimension
  0
DIMENSION
  5
239
100
AcDbEntity
  8
0
100
AcDbDimension
 62
7
  6
CONTINUOUS
  2
*D1
 10
-96.5789909915
 20
-39.9999643802
 11
-96.5789909915
 21
-2.3571457433
 70
160
 71
2
 72
2
 41
0.9
 42
79.9999229879
  3
DIMSTYLE_2
100
AcDbAlignedDimension
 13
-79.585657446
 23
39.9999586078
 14
-79.5856574173
 24
-39.9999643802
 50
270.0
100
AcDbRotatedDimension
  0
DIMENSION
  5
23A
100
AcDbEntity
  8
0
100
AcDbDimension
 62
7
  6
CONTINUOUS
  2
*D2
 10
68.4999396754
 20
47.9999648
 11
-3.1071429018
 21
47.9999648
 70
160
 71
2
 72
2
 41
0.9
 42
136.9998794401
  3
DIMSTYLE_2
100
AcDbAlignedDimension
 13
-68.4999397647
 23
36.9999672828
 14
68.4999396754
 24
36.9999672828
100
AcDbRotatedDimension
  0
LINE
  5
23B
100
AcDbEntity
  8
0
100
AcDbLine
 62
7
  6
CONTINUOUS
 10
-68.4999397647
 20
-36.9999672829
 11
-68.4999397647
 21
-3.6749773271
  0
LINE
  5
23C
100
AcDbEntity
  8
0
100
AcDbLine
 62
7
  6
CONTINUOUS
 10
-68.4999397647
 20
3.6749773271
 11
-68.4999397647
 21
36.9999672828
  0
LINE
  5
23D
100
AcDbEntity
  8
0
100
AcDbLine
 62
7
  6
CONTINUOUS
 10
-68.3895056761
 20
3.5
 11
-68.3895056761
 21
-3.5
  0
LINE
  5
23E
100
AcDbEntity
  8
0
100
AcDbLine
 62
250
  6
CONTINUOUS
 10
-68.2484190021
 20
-36.9999674392
 11
-68.2484190021
 21
36.99996744
  0
LWPOLYLINE
  5
23F
100
AcDbEntity
  8
0
100
AcDbPolyline
 62
250
  6
CONTINUOUS
 90
9
 70
0
 10
-67.5861143683
 20
36.9650640572
 10
-67.5532908981
 20
37.3725010426
 10
-67.4440824887
 20
37.7585204914
 10
-67.2687485491
 20
38.1086699139
 10
-67.0336830392
 20
38.4164065887
 10
-66.7443935871
 20
38.6761803653
 10
-66.4093880443
 20
38.8783937238
 10
-66.0402831503
 20
39.0146001352
 10
-65.6475607445
 20
39.0787103673
  0
LWPOLYLINE
  5
240
100
AcDbEntity
  8
0
100
AcDbPolyline
 62
250
  6
CONTINUOUS
 90
10
 70
0
 10
-63.6951961222
 20
30.9983738641
 10
-63.7681123139
 20
30.6634568121
 10
-63.8317302225
 20
30.3231930026
 10
-63.8868488419
 20
29.9777142951
 10
-63.9341961506
 20
29.6275980819
 10
-63.9746847835
 20
29.2732027016
 10
-64.0092517406
 20
28.9149580761
 10
-64.038720223
 20
28.553258299
 10
-64.0636397573
 20
28.1876506086
 10
-64.0837422787
 20
27.8188863015
  0
LWPOLYLINE
  5
241
100
AcDbEntity
  8
0
100
AcDbPolyline
 62
250
  6
CONTINUOUS
 90
10
 70
0
 10
-63.6952052526
 20
30.9982497584
 10
-63.5552234052
 20
31.5296819676
 10
-63.3881024411
 20
32.0398027648
 10
-63.1918533522
 20
32.5267036157
 10
-62.9629618591
 20
32.9821701453
 10
-62.6976559901
 20
33.3976768339
 10
-62.3899324797
 20
33.7699337291
 10
-62.0391855765
 20
34.0914138395
 10
-61.6567947415
 20
34.3608095369
 10
-61.253785477
 20
34.5853365143
  0
LWPOLYLINE
  5
242
100
AcDbEntity
  8
0
100
AcDbPolyline
 62
250
  6
CONTINUOUS
 90
10
 70
0
 10
-63.6952060506
 20
-30.9983678845
 10
-63.7681192436
 20
-30.6634530651
 10
-63.8317315334
 20
-30.3231932001
 10
-63.886847031
 20
-29.9777171019
 10
-63.9341942574
 20
-29.6276021917
 10
-63.9746837943
 20
-29.2732077126
 10
-64.0092513784
 20
-28.9149632693
 10
-64.0387200173
 20
-28.553262673
 10
-64.0636397765
 20
-28.187653269
 10
-64.0837423718
 20
-27.8188862838
  0
LINE
  5
243
100
AcDbEntity
  8
0
100
AcDbLine
 62
250
  6
CONTINUOUS
 10
-64.0837604894
 20
-27.818184901
 11
-64.1687173836
 21
-25.0254852992
  0
LWPOLYLINE
  5
244
100
AcDbEntity
  8
0
100
AcDbPolyline
 62
250
  6
CONTINUOUS
 90
9
 70
0
 10
-64.1687173836
 20
-25.0254852992
 10
-64.2418220038
 20
-22.1597653762
 10
-64.3071225544
 20
-19.2208980446
 10
-64.3645334127
 20
-16.2110236286
 10
-64.4132068734
 20
-13.1282614487
 10
-64.452490128
 20
-9.9663992279
 10
-64.4816082866
 20
-6.7233546424
 10
-64.4997175945
 20
-3.4012103186
 10
-64.5059596208
 20
0.0000000012
  0
LWPOLYLINE
  5
245
100
AcDbEntity
  8
0
100
AcDbPolyline
 62
250
  6
CONTINUOUS
 90
10
 70
0
 10
-67.5791638264
 20
-36.5517706527
 10
-67.5794785691
 20
-36.5182652645
 10
-67.5801569261
 20
-36.4870707606
 10
-67.5812471698
 20
-36.4537952533
 10
-67.5827704863
 20
-36.4198817979
 10
-67.5844991208
 20
-36.3872822496
 10
-67.5860207455
 20
-36.3556600132
 10
-67.5871656347
 20
-36.324267184
 10
-67.5879925643
 20
-36.2924070265
 10
-67.5884659152
 20
-36.2594242994
  0
LINE
  5
246
100
AcDbEntity
  8
0
100
AcDbLine
 62
250
  6
CONTINUOUS
 10
-67.5829877255
 20
36.5174065858
 11
-67.5861143683
 21
36.9650640572
  0
LINE
  5
247
100
AcDbEntity
  8
0
100
AcDbLine
 62
250
  6
CONTINUOUS
 10
-67.584550219
 20
34.6522647137
 11
-67.5854518691
 21
35.3031447374
  0
LINE
  5
248
100
AcDbEntity
  8
0
100
AcDbLine
 62
250
  6
CONTINUOUS
 10
-65.4999422476
 20
39.9999648
 11
-65.4999422476
 21
39.7484440374
  0
LINE
  5
249
100
AcDbEntity
  8
0
100
AcDbLine
 62
250
  6
CONTINUOUS
 10
-65.4999422476
 20
-39.9999648
 11
-65.4999422476
 21
-39.7484440375
  0
LINE
  5
24A
100
AcDbEntity
  8
0
100
AcDbLine
 62
250
  6
CONTINUOUS
 10
-67.5830043405
 20
36.4513345585
 11
-67.5829877255
 21
36.5174065858
  0
LINE
  5
24B
100
AcDbEntity
  8
0
100
AcDbLine
 62
250
  6
CONTINUOUS
 10
-67.5854518691
 20
35.3031447374
 11
-67.5852317734
 21
36.1157611664
  0
LINE
  5
24C
100
AcDbEntity
  8
0
100
AcDbLine
 62
250
  6
CONTINUOUS
 10
-67.5854759615
 20
-36.2526779638
 11
-67.584550219
 21
34.6522647137
  0
LINE
  5
24D
100
AcDbEntity
  8
0
100
AcDbLine
 62
250
  6
CONTINUOUS
 10
-67.5837883587
 20
36.3188241448
 11
-67.5830043405
 21
36.4513345585
  0
LINE
  5
24E
100
AcDbEntity
  8
0
100
AcDbLine
 62
250
  6
CONTINUOUS
 10
-67.5852317734
 20
36.1157611664
 11
-67.5837883587
 21
36.3188241448
  0
LWPOLYLINE
  5
24F
100
AcDbEntity
  8
0
100
AcDbPolyline
 62
250
  6
CONTINUOUS
 90
9
 70
0
 10
-64.1688374441
 20
25.0257454136
 10
-64.2419367311
 20
22.1601355756
 10
-64.3072517348
 20
19.2213430148
 10
-64.3646333469
 20
16.2115087873
 10
-64.4132233897
 20
13.1287460439
 10
-64.4524485631
 20
9.9668355359
 10
-64.4815504053
 20
6.7236929359
 10
-64.4996764971
 20
3.4014035258
 10
-64.5059596208
 20
0.0000000012
  0
LINE
  5
250
100
AcDbEntity
  8
0
100
AcDbLine
 62
250
  6
CONTINUOUS
 10
-64.0837604064
 20
27.8180977451
 11
-64.1688374441
 21
25.0257454136
  0
LWPOLYLINE
  5
251
100
AcDbEntity
  8
0
100
AcDbPolyline
 62
250
  6
CONTINUOUS
 90
10
 70
0
 10
-58.9506663471
 20
26.5522377984
 10
-59.051938576
 20
26.2784603453
 10
-59.1447061341
 20
25.9981818489
 10
-59.2287301803
 20
25.7118247448
 10
-59.303914833
 20
25.4194878383
 10
-59.3700849489
 20
25.1215015392
 10
-59.4271132763
 20
24.8181268635
 10
-59.4749279711
 20
24.5096824533
 10
-59.5134946919
 20
24.196378728
 10
-59.5427891886
 20
23.8786784775
  0
LWPOLYLINE
  5
252
100
AcDbEntity
  8
0
100
AcDbPolyline
 62
250
  6
CONTINUOUS
 90
10
 70
0
 10
-58.9506997245
 20
-26.5521427962
 10
-58.7717740405
 20
-26.9748933888
 10
-58.5717866442
 20
-27.3786403401
 10
-58.3519087556
 20
-27.7611654466
 10
-58.1138707715
 20
-28.1206991131
 10
-57.858109677
 20
-28.4576555588
 10
-57.5821066896
 20
-28.7752008742
 10
-57.2851423041
 20
-29.073038444
 10
-56.9703644429
 20
-29.3484596748
 10
-56.6401157382
 20
-29.6011403017
  0
LWPOLYLINE
  5
253
100
AcDbEntity
  8
0
100
AcDbPolyline
 62
250
  6
CONTINUOUS
 90
10
 70
0
 10
-59.5423489271
 20
-23.8784638104
 10
-59.5133734345
 20
-24.1961235913
 10
-59.4749514124
 20
-24.5094142774
 10
-59.4271587664
 20
-24.8179744563
 10
-59.3701178879
 20
-25.1214094954
 10
-59.3039497474
 20
-25.4194143467
 10
-59.2287648134
 20
-25.7117843312
 10
-59.1447512801
 20
-25.9981090399
 10
-59.0519938668
 20
-26.2783499819
 10
-58.9506227973
 20
-26.5523472031
  0
LWPOLYLINE
  5
254
100
AcDbEntity
  8
0
100
AcDbPolyline
 62
250
  6
CONTINUOUS
 90
13
 70
0
 10
-60.23162193
 20
-0.0000002513
 10
-60.2254150668
 20
-2.2582627155
 10
-60.2075538702
 20
-4.4656075322
 10
-60.1788509299
 20
-6.622008955
 10
-60.14006046
 20
-8.7260522895
 10
-60.0919182164
 20
-10.7791132433
 10
-60.0351262664
 20
-12.7853792497
 10
-59.9703595952
 20
-14.7450587269
 10
-59.8974608632
 20
-16.6577602675
 10
-59.8182310642
 20
-18.5272830928
 10
-59.7325944906
 20
-20.3545952935
 10
-59.6401344939
 20
-22.1386721503
 10
-59.542331575
 20
-23.8786867373
  0
LWPOLYLINE
  5
255
100
AcDbEntity
  8
0
100
AcDbPolyline
 62
250
  6
CONTINUOUS
 90
16
 70
0
 10
-59.542214553
 20
23.8786443414
 10
-59.6197268237
 20
22.536206451
 10
-59.6925425474
 20
21.1604153972
 10
-59.7618405113
 20
19.7513085577
 10
-59.8279675365
 20
18.3098413644
 10
-59.8904006346
 20
16.8351284823
 10
-59.9489072967
 20
15.3245023755
 10
-60.003109041
 20
13.7780359717
 10
-60.0525966545
 20
12.1956746754
 10
-60.0970375236
 20
10.5745483574
 10
-60.1359795954
 20
8.9147480484
 10
-60.168961495
 20
7.216189211
 10
-60.1955495865
 20
5.475739244
 10
-60.2152278116
 20
3.6923598258
 10
-60.2274398602
 20
1.8671089916
 10
-60.2316350025
 20
0.0000000598
  0
LWPOLYLINE
  5
256
100
AcDbEntity
  8
0
100
AcDbPolyline
 62
250
  6
CONTINUOUS
 90
10
 70
0
 10
-56.6401232015
 20
29.6011364606
 10
-56.9699255852
 20
29.3488187292
 10
-57.2844390502
 20
29.0736989544
 10
-57.5812879813
 20
28.7760812237
 10
-57.8573387471
 20
28.4586091273
 10
-58.1132483838
 20
28.1215913897
 10
-58.3514114128
 20
27.761962578
 10
-58.5715014243
 20
27.3791941855
 10
-58.771594078
 20
26.9752911003
 10
-58.9506384653
 20
26.5523158033
  0
LWPOLYLINE
  5
257
100
AcDbEntity
  8
0
100
AcDbPolyline
 62
250
  6
CONTINUOUS
 90
10
 70
0
 10
-61.2537909461
 20
34.5853351946
 10
-61.0744454368
 20
34.6709217304
 10
-60.8902461792
 20
34.7515175088
 10
-60.7016758451
 20
34.8274732094
 10
-60.5095208695
 20
34.8989887816
 10
-60.3141242847
 20
34.9662876613
 10
-60.1153882021
 20
35.029463625
 10
-59.9133564965
 20
35.0885760405
 10
-59.7081637293
 20
35.1436894392
 10
-59.4999079368
 20
35.1948819243
  0
LWPOLYLINE
  5
258
100
AcDbEntity
  8
0
100
AcDbPolyline
 62
250
  6
CONTINUOUS
 90
10
 70
0
 10
-61.2537909461
 20
-34.5853351946
 10
-61.0744485004
 20
-34.6709203305
 10
-60.890251478
 20
-34.7515152644
 10
-60.7016827118
 20
-34.8274706343
 10
-60.5095295593
 20
-34.898986605
 10
-60.3141364875
 20
-34.9662867562
 10
-60.1154062554
 20
-35.0294646953
 10
-59.9133808331
 20
-35.0885792722
 10
-59.708192168
 20
-35.1436945127
 10
-59.4999364736
 20
-35.1948881012
  0
LWPOLYLINE
  5
259
100
AcDbEntity
  8
0
100
AcDbPolyline
 62
250
  6
CONTINUOUS
 90
10
 70
0
 10
-61.2538804454
 20
-34.5852935667
 10
-61.6713477952
 20
-34.3517097146
 10
-62.0614253964
 20
-34.07354185
 10
-62.413383238
 20
-33.7449919091
 10
-62.7167042477
 20
-33.3712463079
 10
-62.9754975424
 20
-32.9599430702
 10
-63.199282349
 20
-32.5102296761
 10
-63.3922429551
 20
-32.0285153049
 10
-63.5569232224
 20
-31.5239361541
 10
-63.6951330737
 20
-30.9984632034
  0
LWPOLYLINE
  5
25A
100
AcDbEntity
  8
0
100
AcDbPolyline
 62
7
  6
CONTINUOUS
 90
10
 70
0
 10
-54.1936120786
 20
-22.6972086427
 10
-54.1949172814
 20
-22.6754015464
 10
-54.1960800763
 20
-22.653045511
 10
-54.1970961441
 20
-22.6304016752
 10
-54.1979581538
 20
-22.6078217565
 10
-54.1986682867
 20
-22.5854501438
 10
-54.1992422682
 20
-22.5630761947
 10
-54.1996914055
 20
-22.5406045937
 10
-54.2000247665
 20
-22.5181012267
 10
-54.2002552388
 20
-22.4955463437
  0
LINE
  5
25B
100
AcDbEntity
  8
0
100
AcDbLine
 62
250
  6
CONTINUOUS
 10
-54.2003764966
 20
20.3501861109
 11
-54.2003766385
 21
-0.0000002517
  0
LINE
  5
25C
100
AcDbEntity
  8
0
100
AcDbLine
 62
7
  6
CONTINUOUS
 10
-54.2002552388
 20
-22.4955463437
 11
-54.2003777683
 21
-0.0000000001
  0
LINE
  5
25D
100
AcDbEntity
  8
0
100
AcDbLine
 62
250
  6
CONTINUOUS
 10
-52.714910444
 20
-0.0000000979
 11
-52.713598422
 21
-22.2017372611
  0
LINE
  5
25E
100
AcDbEntity
  8
0
100
AcDbLine
 62
7
  6
CONTINUOUS
 10
-54.2002489005
 20
22.4955469295
 11
-54.200329476
 21
20.3499909867
  0
LINE
  5
25F
100
AcDbEntity
  8
0
100
AcDbLine
 62
250
  6
CONTINUOUS
 10
-52.714910444
 20
0.0000000979
 11
-52.713598422
 21
22.2017372611
  0
LWPOLYLINE
  5
260
100
AcDbEntity
  8
0
100
AcDbPolyline
 62
7
  6
CONTINUOUS
 90
10
 70
0
 10
-54.1929451532
 20
22.6975340496
 10
-54.1943592626
 20
22.6751981376
 10
-54.1956267157
 20
22.6528335153
 10
-54.1967472681
 20
22.6304410566
 10
-54.1977206701
 20
22.608021773
 10
-54.1985466841
 20
22.5855764067
 10
-54.199225076
 20
22.5631054301
 10
-54.1997555953
 20
22.540609588
 10
-54.200137984
 20
22.5180898988
 10
-54.2003719884
 20
22.4955472473
  0
LWPOLYLINE
  5
261
100
AcDbEntity
  8
0
100
AcDbPolyline
 62
250
  6
CONTINUOUS
 90
10
 70
0
 10
-51.1021039666
 20
22.2089330653
 10
-51.0970625875
 20
22.2655019628
 10
-51.0819639829
 20
22.3219238851
 10
-51.057180131
 20
22.3760685421
 10
-51.0230116176
 20
22.4259756921
 10
-50.9803236676
 20
22.4696520554
 10
-50.9307316659
 20
22.5050280197
 10
-50.875883395
 20
22.5307947024
 10
-50.8177393275
 20
22.5465432392
 10
-50.7586615471
 20
22.5518616677
  0
LWPOLYLINE
  5
262
100
AcDbEntity
  8
0
100
AcDbPolyline
 62
7
  6
CONTINUOUS
 90
10
 70
0
 10
-51.0571690446
 20
22.2089364822
 10
-51.0491119094
 20
22.2584785016
 10
-51.0338679066
 20
22.3049241887
 10
-51.0114370364
 20
22.3482735435
 10
-50.9806081956
 20
22.3898563368
 10
-50.9425924873
 20
22.4283427978
 10
-50.9010232207
 20
22.4597436138
 10
-50.857111499
 20
22.4827290141
 10
-50.809646219
 20
22.4986287695
 10
-50.7586273808
 20
22.50744288
  0
LINE
  5
263
100
AcDbEntity
  8
0
100
AcDbLine
 62
7
  6
CONTINUOUS
 10
-68.3895056761
 20
-3.5
 11
-68.4999397647
 21
-3.6749773271
  0
LWPOLYLINE
  5
264
100
AcDbEntity
  8
0
100
AcDbPolyline
 62
250
  6
CONTINUOUS
 90
10
 70
0
 10
-56.6401233268
 20
29.60113473
 10
-56.4997394522
 20
29.6988476976
 10
-56.3559816571
 20
29.7935263183
 10
-56.2087527194
 20
29.8852066598
 10
-56.0579905311
 20
29.9738895623
 10
-55.9037657278
 20
30.0595099394
 10
-55.7462745418
 20
30.1419380317
 10
-55.5856058494
 20
30.221115644
 10
-55.4218032393
 20
30.2970149412
 10
-55.2549419787
 20
30.3695929826
  0
LINE
  5
265
100
AcDbEntity
  8
0
100
AcDbLine
 62
7
  6
CONTINUOUS
 10
-68.4999397647
 20
3.6749773271
 11
-68.3895056761
 21
3.5
  0
LWPOLYLINE
  5
266
100
AcDbEntity
  8
0
100
AcDbPolyline
 62
250
  6
CONTINUOUS
 90
10
 70
0
 10
-50.9957391557
 20
25.7004001326
 10
-50.9885664088
 20
25.5189995756
 10
-50.9766615065
 20
25.3378160127
 10
-50.9600244494
 20
25.1575965022
 10
-50.9385350144
 20
24.9787004104
 10
-50.9123134256
 20
24.8023796645
 10
-50.8817203538
 20
24.6306787748
 10
-50.8468760225
 20
24.4647432761
 10
-50.8076602081
 20
24.3049203664
 10
-50.7640729105
 20
24.1519680352
  0
LWPOLYLINE
  5
267
100
AcDbEntity
  8
0
100
AcDbPolyline
 62
250
  6
CONTINUOUS
 90
3
 70
0
 10
-50.7620321163
 20
22.6770833879
 10
-50.7604851781
 20
22.5860368455
 10
-50.758659366
 20
22.5515570988
  0
LINE
  5
268
100
AcDbEntity
  8
0
100
AcDbLine
 62
250
  6
CONTINUOUS
 10
-50.7643283594
 20
23.0059548546
 11
-50.7620321163
 21
22.6770833879
  0
LINE
  5
269
100
AcDbEntity
  8
0
100
AcDbLine
 62
250
  6
CONTINUOUS
 10
-50.7640728729
 20
-24.152177415
 11
-50.7654393749
 21
-23.4662046092
  0
LINE
  5
26A
100
AcDbEntity
  8
0
100
AcDbLine
 62
250
  6
CONTINUOUS
 10
-51.1015874114
 20
-22.20893568
 11
-51.1015874114
 21
22.2089356795
  0
LINE
  5
26B
100
AcDbEntity
  8
0
100
AcDbLine
 62
7
  6
CONTINUOUS
 10
-51.0571690446
 20
22.20893568
 11
-51.0571690446
 21
-22.20893568
  0
LINE
  5
26C
100
AcDbEntity
  8
0
100
AcDbLine
 62
250
  6
CONTINUOUS
 10
-50.7586618447
 20
-22.50744288
 11
-50.7586618447
 21
-22.5518612467
  0
LINE
  5
26D
100
AcDbEntity
  8
0
100
AcDbLine
 62
250
  6
CONTINUOUS
 10
-50.7586618447
 20
22.50744288
 11
-50.7586618447
 21
22.5518612467
  0
LINE
  5
26E
100
AcDbEntity
  8
0
100
AcDbLine
 62
250
  6
CONTINUOUS
 10
-50.7653737656
 20
23.7070190138
 11
-50.7643283594
 21
23.0059548546
  0
LINE
  5
26F
100
AcDbEntity
  8
0
100
AcDbLine
 62
250
  6
CONTINUOUS
 10
-50.7640728729
 20
24.152177415
 11
-50.7653737656
 21
23.7070190138
  0
LWPOLYLINE
  5
270
100
AcDbEntity
  8
0
100
AcDbPolyline
 62
250
  6
CONTINUOUS
 90
5
 70
0
 10
-50.7654393749
 20
-23.4662046092
 10
-50.7633006768
 20
-22.819018846
 10
-50.7620321163
 20
-22.6770833879
 10
-50.7604851781
 20
-22.5860368455
 10
-50.758659366
 20
-22.5515570988
  0
LWPOLYLINE
  5
271
100
AcDbEntity
  8
0
100
AcDbPolyline
 62
250
  6
CONTINUOUS
 90
10
 70
0
 10
-50.9957391557
 20
-25.7004001326
 10
-50.9885664088
 20
-25.5189995756
 10
-50.9766615065
 20
-25.3378160127
 10
-50.9600244494
 20
-25.1575965022
 10
-50.9385350144
 20
-24.9787004104
 10
-50.9123134256
 20
-24.8023796645
 10
-50.8817203538
 20
-24.6306787748
 10
-50.8468760225
 20
-24.4647432761
 10
-50.8076602081
 20
-24.3049203664
 10
-50.7640729105
 20
-24.1519680352
  0
LWPOLYLINE
  5
272
100
AcDbEntity
  8
0
100
AcDbPolyline
 62
7
  6
CONTINUOUS
 90
10
 70
0
 10
-52.4866992272
 20
25.3341824125
 10
-52.8029474246
 20
25.1444989076
 10
-53.0940442956
 20
24.9202984355
 10
-53.3563360938
 20
24.6656612254
 10
-53.5858187047
 20
24.3858258891
 10
-53.7808520005
 20
24.0843431294
 10
-53.9403948284
 20
23.7627229829
 10
-54.0636762739
 20
23.4216561618
 10
-54.1485646731
 20
23.0650864985
 10
-54.1932826495
 20
22.6975760489
  0
LWPOLYLINE
  5
273
100
AcDbEntity
  8
0
100
AcDbPolyline
 62
250
  6
CONTINUOUS
 90
10
 70
0
 10
-55.2549911229
 20
30.3695621769
 10
-54.9835614902
 20
30.4778874683
 10
-54.7053184572
 20
30.5774757407
 10
-54.4202750903
 20
30.6683256478
 10
-54.1284482842
 20
30.7504780469
 10
-53.830957809
 20
30.8236604651
 10
-53.5277457108
 20
30.8877983389
 10
-53.2184979155
 20
30.9426385309
 10
-52.9042239404
 20
30.9881372516
 10
-52.5863320909
 20
31.0244296137
  0
LWPOLYLINE
  5
274
100
AcDbEntity
  8
0
100
AcDbPolyline
 62
250
  6
CONTINUOUS
 90
10
 70
0
 10
-65.6475093734
 20
-39.078598104
 10
-66.0441122934
 20
-39.0119695221
 10
-66.4142354249
 20
-38.8730090771
 10
-66.7484612268
 20
-38.6689111352
 10
-67.0360598342
 20
-38.4085217512
 10
-67.268180136
 20
-38.1031019936
 10
-67.4417349783
 20
-37.756343886
 10
-67.5506780484
 20
-37.3727546375
 10
-67.5841568576
 20
-36.9677225751
 10
-67.5831437112
 20
-36.5556875449
  0
LWPOLYLINE
  5
275
100
AcDbEntity
  8
0
100
AcDbPolyline
 62
250
  6
CONTINUOUS
 90
10
 70
0
 10
-59.4999211416
 20
-35.1948917582
 10
-59.1659322226
 20
-35.2678441534
 10
-58.8267159926
 20
-35.3314847537
 10
-58.4821599408
 20
-35.3866337719
 10
-58.132694655
 20
-35.4341672835
 10
-57.7788506449
 20
-35.4748925711
 10
-57.4210730951
 20
-35.509482232
 10
-57.0594464939
 20
-35.5385685672
 10
-56.6941648148
 20
-35.5633098992
 10
-56.3251578795
 20
-35.5837392352
  0
LWPOLYLINE
  5
276
100
AcDbEntity
  8
0
100
AcDbPolyline
 62
250
  6
CONTINUOUS
 90
10
 70
0
 10
-55.2550341959
 20
-30.3695455406
 10
-54.9835247426
 20
-30.477992992
 10
-54.7052972827
 20
-30.5776497832
 10
-54.4202721441
 20
-30.6685742046
 10
-54.1284918939
 20
-30.7508137677
 10
-53.83107758
 20
-30.8240838613
 10
-53.5279629184
 20
-30.8883417707
 10
-53.2191396958
 20
-30.9434737313
 10
-52.9052666659
 20
-30.989185545
 10
-52.5870035673
 20
-31.0251781346
  0
LWPOLYLINE
  5
277
100
AcDbEntity
  8
0
100
AcDbPolyline
 62
250
  6
CONTINUOUS
 90
10
 70
0
 10
-55.2550968773
 20
-30.3695265585
 10
-55.4219497988
 20
-30.2969493547
 10
-55.5857363525
 20
-30.2210543034
 10
-55.7463838847
 20
-30.1418831795
 10
-55.9038534887
 20
-30.0594619353
 10
-56.0580598703
 20
-29.9738479524
 10
-56.2088065252
 20
-29.8851726537
 10
-56.356021857
 20
-29.7935029077
 10
-56.4997637115
 20
-29.6988365384
 10
-56.6401221805
 20
-29.6011341513
  0
LWPOLYLINE
  5
278
100
AcDbEntity
  8
0
100
AcDbPolyline
 62
7
  6
CONTINUOUS
 90
10
 70
0
 10
-52.4864263456
 20
-25.3337784113
 10
-52.8013458787
 20
-25.145114145
 10
-53.0917722736
 20
-24.9219450202
 10
-53.3539565529
 20
-24.6680946619
 10
-53.5838476488
 20
-24.3885262153
 10
-53.7795412187
 20
-24.0867581002
 10
-53.9396602802
 20
-23.7646623944
 10
-54.0633419018
 20
-23.4231076295
 10
-54.1484981213
 20
-23.0658972811
 10
-54.1933137854
 20
-22.6976404246
  0
LWPOLYLINE
  5
279
100
AcDbEntity
  8
0
100
AcDbPolyline
 62
7
  6
CONTINUOUS
 90
5
 70
0
 43
0.3500000006
 10
-0.5357143278
 20
50.464249649
 10
-0.178571478
 20
50.6785341339
 10
-0.178571478
 20
51.3213921204
 10
-0.5357143278
 20
51.7499656219
 10
-1.392857224
 20
51.7499656219
  0
LWPOLYLINE
  5
27A
100
AcDbEntity
  8
0
100
AcDbPolyline
 62
250
  6
CONTINUOUS
 90
6
 70
0
 10
65.6480772264
 20
-39.0786941513
 10
65.6097130819
 20
-39.0809873998
 10
65.5727234009
 20
-39.0826353278
 10
65.534748735
 20
-39.0837064193
 10
65.496144839
 20
-39.0842688615
 10
65.4576669964
 20
-39.0845056717
  0
LWPOLYLINE
  5
27B
100
AcDbEntity
  8
0
100
AcDbPolyline
 62
250
  6
CONTINUOUS
 90
10
 70
0
 10
-65.9212380287
 20
-39.7159631744
 10
-65.9120931403
 20
-39.7006076859
 10
-65.8864904565
 20
-39.6698103203
 10
-65.8445893585
 20
-39.623826364
 10
-65.7864180563
 20
-39.5627780507
 10
-65.712735808
 20
-39.4875397474
 10
-65.6256799376
 20
-39.4003234721
 10
-65.5272176175
 20
-39.3031288077
 10
-65.4185168013
 20
-39.1971773437
 10
-65.3012400527
 20
-39.0841856593
  0
LWPOLYLINE
  5
27C
100
AcDbEntity
  8
0
100
AcDbPolyline
 62
7
  6
CONTINUOUS
 90
3
 70
0
 43
0.3500000006
 10
-3.1071428747
 20
50.8928231506
 10
-2.2499999785
 20
51.7499656219
 10
-2.2499999785
 20
48.7499647064
  0
LWPOLYLINE
  5
27D
100
AcDbEntity
  8
0
100
AcDbPolyline
 62
250
  6
CONTINUOUS
 90
10
 70
0
 10
56.3252036807
 20
-35.5838190153
 10
56.6957188378
 20
-35.5636562379
 10
57.0617780949
 20
-35.538803907
 10
57.4239065381
 20
-35.5094876172
 10
57.7817107154
 20
-35.4746775741
 10
58.1352289716
 20
-35.4338568047
 10
58.4842503585
 20
-35.3863362436
 10
58.8282858637
 20
-35.331241446
 10
59.1667999327
 20
-35.2676977019
 10
59.5000008706
 20
-35.1949359515
  0
LWPOLYLINE
  5
27E
100
AcDbEntity
  8
0
100
AcDbPolyline
 62
250
  6
CONTINUOUS
 90
4
 70
0
 10
50.0971472234
 20
-35.7394317989
 10
52.2237313477
 20
-35.693564865
 10
54.2985208393
 20
-35.6442996734
 10
56.3254094034
 20
-35.5840440585
  0
LINE
  5
27F
100
AcDbEntity
  8
0
100
AcDbLine
 62
250
  6
CONTINUOUS
 10
-65.2336596832
 20
-39.083966119
 11
-65.4177873162
 21
-39.0847023851
  0
LWPOLYLINE
  5
280
100
AcDbEntity
  8
0
100
AcDbPolyline
 62
250
  6
CONTINUOUS
 90
7
 70
0
 10
-65.4177873162
 20
-39.0847023851
 10
-65.4564552427
 20
-39.0847219113
 10
-65.4949533609
 20
-39.0844233139
 10
-65.5333083868
 20
-39.0837166806
 10
-65.5715313304
 20
-39.0825460077
 10
-65.6096000737
 20
-39.0808575278
 10
-65.6475093734
 20
-39.078598104
  0
LINE
  5
281
100
AcDbEntity
  8
0
100
AcDbLine
 62
7
  6
CONTINUOUS
 10
-65.4999508249
 20
-39.9999648
 11
65.4999507355
 21
-39.9999648
  0
LINE
  5
282
100
AcDbEntity
  8
0
100
AcDbLine
 62
250
  6
CONTINUOUS
 10
-65.4999422476
 20
-39.7484440375
 11
-28.4999749647
 21
-39.7484440375
  0
LINE
  5
283
100
AcDbEntity
  8
0
100
AcDbLine
 62
250
  6
CONTINUOUS
 10
65.4999421569
 20
-39.7484440375
 11
28.4999748753
 21
-39.7484440375
  0
LINE
  5
284
100
AcDbEntity
  8
0
100
AcDbLine
 62
7
  6
CONTINUOUS
 10
-28.4999749647
 20
-39.7484440375
 11
28.4999748753
 21
-39.7484440375
  0
LINE
  5
285
100
AcDbEntity
  8
0
100
AcDbLine
 62
7
  6
CONTINUOUS
 10
28.4999748802
 20
-39.0841275939
 11
-28.4999749695
 21
-39.0841469206
  0
LINE
  5
286
100
AcDbEntity
  8
0
100
AcDbLine
 62
250
  6
CONTINUOUS
 10
-68.4999397647
 20
-36.9999672829
 11
-68.2484190021
 21
-36.9999674392
  0
LINE
  5
287
100
AcDbEntity
  8
0
100
AcDbLine
 62
250
  6
CONTINUOUS
 10
68.4999396754
 20
-36.9999672829
 11
68.2484189128
 21
-36.9999674392
  0
LWPOLYLINE
  5
288
100
AcDbEntity
  8
0
100
AcDbPolyline
 62
250
  6
CONTINUOUS
 90
3
 70
0
 10
60.3397727378
 20
-39.0818048779
 10
31.9584981292
 20
-39.0814735323
 10
28.4999753263
 20
-39.0823499143
  0
LINE
  5
289
100
AcDbEntity
  8
0
100
AcDbLine
 62
250
  6
CONTINUOUS
 10
64.6905684852
 20
-39.0824682685
 11
60.7618205401
 21
-39.0839662234
  0
LINE
  5
28A
100
AcDbEntity
  8
0
100
AcDbLine
 62
250
  6
CONTINUOUS
 10
65.3021002637
 20
-39.0842162464
 11
64.6905475309
 21
-39.0845070695
  0
LWPOLYLINE
  5
28B
100
AcDbEntity
  8
0
100
AcDbPolyline
 62
250
  6
CONTINUOUS
 90
4
 70
0
 10
-65.2336596832
 20
-39.083966119
 10
-60.760663915
 20
-39.0839675003
 10
-60.3391141099
 20
-39.0817979174
 10
-28.4999754244
 20
-39.0823588292
  0
LWPOLYLINE
  5
28C
100
AcDbEntity
  8
0
100
AcDbPolyline
 62
250
  6
CONTINUOUS
 90
3
 70
0
 10
65.4576669964
 20
-39.0845056717
 10
65.3373831852
 20
-39.0843452298
 10
65.3021002637
 20
-39.0842162464
  0
LINE
  5
28D
100
AcDbEntity
  8
0
100
AcDbLine
 62
250
  6
CONTINUOUS
 10
60.7618205401
 20
-39.0839662234
 11
60.3397727378
 21
-39.0818048779
  0
LWPOLYLINE
  5
28E
100
AcDbEntity
  8
0
100
AcDbPolyline
 62
250
  6
CONTINUOUS
 90
9
 70
0
 10
-52.1813672426
 20
-35.6931902438
 10
-50.0394338928
 20
-35.7397543101
 10
-47.8509787355
 20
-35.7820533083
 10
-45.6148552936
 20
-35.8191954441
 10
-43.3280864003
 20
-35.8508306334
 10
-40.9910448253
 20
-35.8768299438
 10
-38.6033639975
 20
-35.8964854671
 10
-36.1608232973
 20
-35.9081449088
 10
-33.6620277461
 20
-35.9118487038
  0
LWPOLYLINE
  5
28F
100
AcDbEntity
  8
0
100
AcDbPolyline
 62
250
  6
CONTINUOUS
 90
3
 70
0
 10
-56.3252960164
 20
-35.5837324934
 10
-54.2754175945
 20
-35.6435271359
 10
-52.1813672426
 20
-35.6931902438
  0
LWPOLYLINE
  5
290
100
AcDbEntity
  8
0
100
AcDbPolyline
 62
250
  6
CONTINUOUS
 90
10
 70
0
 10
-65.9212378566
 20
39.7159587482
 10
-65.9121029934
 20
39.7006017354
 10
-65.8865132782
 20
39.6698064341
 10
-65.8446249695
 20
39.623826737
 10
-65.7864621202
 20
39.5627827458
 10
-65.7127775348
 20
39.4875446157
 10
-65.6257071789
 20
39.4003226386
 10
-65.5272268435
 20
39.3031212623
 10
-65.4185147549
 20
39.1971683284
 10
-65.301243369
 20
39.0841860074
  0
LWPOLYLINE
  5
291
100
AcDbEntity
  8
0
100
AcDbPolyline
 62
250
  6
CONTINUOUS
 90
15
 70
0
 10
-32.2409603905
 20
-31.6476840772
 10
32.2274173087
 20
-31.6477108502
 10
34.0282730312
 20
-31.6437977744
 10
35.7863781355
 20
-31.6320999455
 10
37.502491777
 20
-31.6113352478
 10
39.1789488789
 20
-31.5818090397
 10
40.8155625392
 20
-31.5448034436
 10
42.412515785
 20
-31.5010091807
 10
43.9726576702
 20
-31.4507364818
 10
45.4956405094
 20
-31.3945984733
 10
46.9818075612
 20
-31.33288861
 10
48.4346943119
 20
-31.2654924486
 10
49.8536626146
 20
-31.1934817761
 10
51.2416755984
 20
-31.1153732386
 10
52.586746302
 20
-31.0249701103
  0
LWPOLYLINE
  5
292
100
AcDbEntity
  8
0
100
AcDbPolyline
 62
250
  6
CONTINUOUS
 90
9
 70
0
 10
-33.6620277461
 20
-35.9118487038
 10
33.7066279485
 20
-35.9119073204
 10
36.2209904337
 20
-35.908049475
 10
38.6746733438
 20
-35.8961802291
 10
41.0690052539
 20
-35.8762891058
 10
43.4080274333
 20
-35.8500452505
 10
45.6918169282
 20
-35.8181908077
 10
47.9202664024
 20
-35.7811394399
 10
50.0971472234
 20
-35.7394317989
  0
LWPOLYLINE
  5
293
100
AcDbEntity
  8
0
100
AcDbPolyline
 62
250
  6
CONTINUOUS
 90
14
 70
0
 10
-32.2409603905
 20
-31.6476840772
 10
-34.0468135809
 20
-31.6436877695
 10
-35.808679694
 20
-31.63184541
 10
-37.5273711723
 20
-31.6109064213
 10
-39.2053832352
 20
-31.5812165554
 10
-40.8425320217
 20
-31.5440715324
 10
-42.4389942325
 20
-31.5001583445
 10
-43.9977697988
 20
-31.4498001344
 10
-45.5185302374
 20
-31.3936293217
 10
-47.0016341209
 20
-31.3319563028
 10
-48.4507068884
 20
-31.2647180534
 10
-49.8651658178
 20
-31.1929763668
 10
-51.24786533
 20
-31.1152570091
 10
-52.5870035673
 20
-31.0251781349
  0
LINE
  5
294
100
AcDbEntity
  8
0
100
AcDbLine
 62
250
  6
CONTINUOUS
 10
-28.4999749865
 20
-22.5522245626
 11
-28.4999749647
 21
-39.7484453473
  0
LINE
  5
295
100
AcDbEntity
  8
0
100
AcDbLine
 62
250
  6
CONTINUOUS
 10
-28.4999749868
 20
22.5522245626
 11
-28.4999749647
 21
39.7484477705
  0
LWPOLYLINE
  5
296
100
AcDbEntity
  8
0
100
AcDbPolyline
 62
250
  6
CONTINUOUS
 90
10
 70
0
 10
-48.8501980017
 20
-25.70040786
 10
-49.2375202427
 20
-26.289573029
 10
-49.6338461033
 20
-26.8818272678
 10
-50.0379629407
 20
-27.4757097253
 10
-50.4476174353
 20
-28.0682748234
 10
-50.862620063
 20
-28.6595905714
 10
-51.28500262
 20
-29.2525714221
 10
-51.7148298464
 20
-29.846950438
 10
-52.1496376153
 20
-30.4389230023
 10
-52.5872617907
 20
-31.0251529753
  0
LWPOLYLINE
  5
297
100
AcDbEntity
  8
0
100
AcDbPolyline
 62
7
  6
CONTINUOUS
 90
10
 70
0
 10
51.1975411467
 20
-25.6933157562
 10
51.3498886964
 20
-25.6796963415
 10
51.5004461464
 20
-25.6592295496
 10
51.649058516
 20
-25.6320218167
 10
51.7955806005
 20
-25.5981594671
 10
51.9397751468
 20
-25.5577465283
 10
52.0811160081
 20
-25.5109847656
 10
52.219311146
 20
-25.4580433968
 10
52.3544407935
 20
-25.3989542888
 10
52.4864600217
 20
-25.3337608315
  0
LWPOLYLINE
  5
298
100
AcDbEntity
  8
0
100
AcDbPolyline
 62
7
  6
CONTINUOUS
 90
10
 70
0
 10
50.9957547409
 20
-25.7009920373
 10
51.0180103889
 20
-25.7008436003
 10
51.0403076456
 20
-25.7005076435
 10
51.0626457411
 20
-25.6999885284
 10
51.0850245333
 20
-25.6992906742
 10
51.1074425942
 20
-25.6984186267
 10
51.1298972149
 20
-25.6973771082
 10
51.1523869551
 20
-25.6961708997
 10
51.1749116379
 20
-25.6948047935
 10
51.1974704399
 20
-25.6932836964
  0
LWPOLYLINE
  5
299
100
AcDbEntity
  8
0
100
AcDbPolyline
 62
7
  6
CONTINUOUS
 90
3
 70
0
 10
50.2921338661
 20
-25.7004262414
 10
50.5277718025
 20
-25.700250204
 10
50.9957383909
 20
-25.700324791
  0
LWPOLYLINE
  5
29A
100
AcDbEntity
  8
0
100
AcDbPolyline
 62
7
  6
CONTINUOUS
 90
10
 70
0
 10
-50.9957548517
 20
-25.7009928571
 10
-51.0180151433
 20
-25.700859939
 10
-51.0403165635
 20
-25.7005472901
 10
-51.0626582562
 20
-25.7000580394
 10
-51.0850398244
 20
-25.6993953584
 10
-51.1074599193
 20
-25.6985625106
 10
-51.1299162435
 20
-25.6975628873
 10
-51.1524074311
 20
-25.6963999239
 10
-51.1749330443
 20
-25.6950770654
 10
-51.1974921644
 20
-25.6935978409
  0
LWPOLYLINE
  5
29B
100
AcDbEntity
  8
0
100
AcDbPolyline
 62
7
  6
CONTINUOUS
 90
10
 70
0
 10
-50.7640424334
 20
-24.1519880919
 10
-51.0980908619
 20
-24.1221295196
 10
-51.4262362007
 20
-24.0339216632
 10
-51.7354942222
 20
-23.8895757954
 10
-52.0154407343
 20
-23.6937956199
 10
-52.2569143998
 20
-23.4522476198
 10
-52.4525418693
 20
-23.172277493
 10
-52.596488572
 20
-22.8631424907
 10
-52.6840935477
 20
-22.53531961
 10
-52.713689185
 20
-22.201730707
  0
LWPOLYLINE
  5
29C
100
AcDbEntity
  8
0
100
AcDbPolyline
 62
7
  6
CONTINUOUS
 90
10
 70
0
 10
-51.1975650384
 20
-25.6937939972
 10
-51.3471218298
 20
-25.6803509093
 10
-51.4958297289
 20
-25.660059115
 10
-51.6435296749
 20
-25.6331387182
 10
-51.7903318569
 20
-25.5994992738
 10
-51.9356910561
 20
-25.5589916527
 10
-52.0782281428
 20
-25.5120124526
 10
-52.2173673616
 20
-25.4588394183
 10
-52.3534568011
 20
-25.3994117953
 10
-52.4864263461
 20
-25.3337784119
  0
LWPOLYLINE
  5
29D
100
AcDbEntity
  8
0
100
AcDbPolyline
 62
250
  6
CONTINUOUS
 90
10
 70
0
 10
-50.7586615471
 20
-22.5518616677
 10
-50.8176683406
 20
-22.5465559867
 10
-50.8757649523
 20
-22.5308380372
 10
-50.9305934283
 20
-22.5051087857
 10
-50.9801924674
 20
-22.4697645441
 10
-51.0229061318
 20
-22.4261043197
 10
-51.0571086096
 20
-22.376195219
 10
-51.0819263527
 20
-22.3220285033
 10
-51.097051693
 20
-22.2655630702
 10
-51.1021039666
 20
-22.2089330658
  0
LWPOLYLINE
  5
29E
100
AcDbEntity
  8
0
100
AcDbPolyline
 62
7
  6
CONTINUOUS
 90
10
 70
0
 10
-50.7586626449
 20
-22.50744288
 10
-50.8082016421
 20
-22.4993873015
 10
-50.8546450931
 20
-22.4841448432
 10
-50.8979929978
 20
-22.4617155051
 10
-50.9395751677
 20
-22.4308886849
 10
-50.9780617913
 20
-22.3928749848
 10
-51.0094634343
 20
-22.3513062117
 10
-51.0324502851
 20
-22.307392968
 10
-51.0483521552
 20
-22.2599246513
 10
-51.0571690446
 20
-22.2089012616
  0
LWPOLYLINE
  5
29F
100
AcDbEntity
  8
0
100
AcDbPolyline
 62
250
  6
CONTINUOUS
 90
10
 70
0
 10
-52.5870035673
 20
-31.0251781349
 10
-52.9963558001
 20
-31.5659463066
 10
-53.4047170748
 20
-32.0966610484
 10
-53.8134795173
 20
-32.6183312633
 10
-54.2250148899
 20
-33.1331390896
 10
-54.6397844532
 20
-33.6408190842
 10
-55.0562528189
 20
-34.1388927445
 10
-55.4747272239
 20
-34.6274545328
 10
-55.8974344711
 20
-35.1089095916
 10
-56.3252960164
 20
-35.5837324934
  0
LINE
  5
2A0
100
AcDbEntity
  8
0
100
AcDbLine
 62
250
  6
CONTINUOUS
 10
-54.8028892223
 20
-29.8421720273
 11
-53.9047127208
 21
-28.7992199698
  0
LINE
  5
2A1
100
AcDbEntity
  8
0
100
AcDbLine
 62
250
  6
CONTINUOUS
 10
-53.9047127208
 20
-28.7992199698
 11
-53.0083791001
 21
-27.7647337916
  0
LINE
  5
2A2
100
AcDbEntity
  8
0
100
AcDbLine
 62
250
  6
CONTINUOUS
 10
-53.0083791001
 20
-27.7647337916
 11
-52.1084477443
 21
-26.7324101414
  0
LINE
  5
2A3
100
AcDbEntity
  8
0
100
AcDbLine
 62
250
  6
CONTINUOUS
 10
-52.1084477443
 20
-26.7324101414
 11
-51.1975650384
 21
-25.6937939972
  0
LWPOLYLINE
  5
2A4
100
AcDbEntity
  8
0
100
AcDbPolyline
 62
250
  6
CONTINUOUS
 90
4
 70
0
 10
-58.1598718598
 20
-31.2394167741
 10
-57.6502510944
 20
-30.6868611808
 10
-57.1432821339
 20
-30.1399045833
 10
-56.6401232015
 20
-29.6011364606
  0
LWPOLYLINE
  5
2A5
100
AcDbEntity
  8
0
100
AcDbPolyline
 62
250
  6
CONTINUOUS
 90
5
 70
0
 10
-61.2537854771
 20
-34.5853365143
 10
-60.7323412315
 20
-34.0279088096
 10
-60.2121191751
 20
-33.4677792805
 10
-59.6939297947
 20
-32.9068809443
 10
-58.1598718598
 20
-31.2394167741
  0
LWPOLYLINE
  5
2A6
100
AcDbEntity
  8
0
100
AcDbPolyline
 62
250
  6
CONTINUOUS
 90
7
 70
0
 10
-56.6401157382
 20
-29.6011403017
 10
-56.1772185501
 20
-29.1096581502
 10
-55.7189941611
 20
-28.6268774992
 10
-55.2633593363
 20
-28.15071647
 10
-54.8065146415
 20
-27.6773177161
 10
-54.3475487554
 20
-27.2058263245
 10
-53.8883692236
 20
-26.7381886442
  0
LWPOLYLINE
  5
2A7
100
AcDbEntity
  8
0
100
AcDbPolyline
 62
250
  6
CONTINUOUS
 90
10
 70
0
 10
-63.6951330737
 20
-30.9984632034
 10
-64.1380792753
 20
-31.4409758787
 10
-64.5783215776
 20
-31.8849481965
 10
-65.015863888
 20
-32.330383626
 10
-65.4507039817
 20
-32.7772792484
 10
-65.8828520746
 20
-33.2256448145
 10
-66.3123304886
 20
-33.6755030048
 10
-66.7391490422
 20
-34.1268638983
 10
-67.1633053854
 20
-34.5797247132
 10
-67.5848033387
 20
-35.0340890469
  0
LWPOLYLINE
  5
2A8
100
AcDbEntity
  8
0
100
AcDbPolyline
 62
250
  6
CONTINUOUS
 90
10
 70
0
 10
-63.6952237905
 20
-30.9982925827
 10
-63.174480921
 20
-30.4838459068
 10
-62.6498001456
 20
-29.9717722367
 10
-62.1225756542
 20
-29.4635924726
 10
-61.5955550926
 20
-28.9621565916
 10
-61.0688868219
 20
-28.4678022062
 10
-60.5400542681
 20
-27.9784049266
 10
-60.0091251167
 20
-27.4943412919
 10
-59.4788290054
 20
-27.0184338322
 10
-58.9506255038
 20
-26.5523373183
  0
LWPOLYLINE
  5
2A9
100
AcDbEntity
  8
0
100
AcDbPolyline
 62
250
  6
CONTINUOUS
 90
10
 70
0
 10
-67.5831437112
 20
-36.5556875449
 10
-67.6987426374
 20
-36.6692136921
 10
-67.808404388
 20
-36.772591094
 10
-67.9099530823
 20
-36.8647460803
 10
-68.0016752385
 20
-36.9449901677
 10
-68.0813037834
 20
-37.0120349137
 10
-68.146451086
 20
-37.064455953
 10
-68.1958700409
 20
-37.1018464766
 10
-68.2290003704
 20
-37.1243410892
 10
-68.2452479287
 20
-37.1319514149
  0
LWPOLYLINE
  5
2AA
100
AcDbEntity
  8
0
100
AcDbPolyline
 62
250
  6
CONTINUOUS
 90
10
 70
0
 10
-64.0837423718
 20
-27.8188862838
 10
-64.4902152699
 20
-28.2114986025
 10
-64.8909482039
 20
-28.604343995
 10
-65.2864350923
 20
-28.9979041393
 10
-65.6768646628
 20
-29.3923500269
 10
-66.0630427693
 20
-29.788471441
 10
-66.4463607426
 20
-30.1876918888
 10
-66.8275873463
 20
-30.5908291966
 10
-67.206900473
 20
-30.9980806256
 10
-67.5847873597
 20
-31.409962838
  0
LINE
  5
2AB
100
AcDbEntity
  8
0
100
AcDbLine
 62
250
  6
CONTINUOUS
 10
-67.5884659152
 20
-36.2594242994
 11
-67.7056006352
 21
-36.3713296601
  0
LWPOLYLINE
  5
2AC
100
AcDbEntity
  8
0
100
AcDbPolyline
 62
250
  6
CONTINUOUS
 90
10
 70
0
 10
-64.0836601474
 20
-27.8189388512
 10
-63.5868830271
 20
-27.3470797601
 10
-63.0889482584
 20
-26.8832817413
 10
-62.5893871758
 20
-26.4277034263
 10
-62.0875603033
 20
-25.9803062006
 10
-61.5832723516
 20
-25.5414063568
 10
-61.0768035678
 20
-25.1116585589
 10
-60.5680761833
 20
-24.6913270005
 10
-60.0566209497
 20
-24.2803027906
 10
-59.542214553
 20
-23.8786443414
  0
LWPOLYLINE
  5
2AD
100
AcDbEntity
  8
0
100
AcDbPolyline
 62
250
  6
CONTINUOUS
 90
10
 70
0
 10
3.2092828897
 20
-23.7508151118
 10
3.3643186466
 20
-23.7355467718
 10
3.5173497544
 20
-23.6943201478
 10
3.6680018704
 20
-23.6320130932
 10
3.8152489032
 20
-23.5541143374
 10
3.9591380659
 20
-23.4657558482
 10
4.1006207438
 20
-23.3716889412
 10
4.2392604251
 20
-23.2778996825
 10
4.3734428357
 20
-23.1912109325
 10
4.5020299233
 20
-23.1196408002
  0
LWPOLYLINE
  5
2AE
100
AcDbEntity
  8
0
100
AcDbPolyline
 62
250
  6
CONTINUOUS
 90
10
 70
0
 10
-6.2412901419
 20
-22.5518616549
 10
-6.1827458542
 20
-22.5466405205
 10
-6.1251407062
 20
-22.5311971802
 10
-6.07068302
 20
-22.5059574477
 10
-6.0214334673
 20
-22.4714899463
 10
-5.9788798001
 20
-22.4289638588
 10
-5.9443684824
 20
-22.3797173079
 10
-5.9190810549
 20
-22.3252316012
 10
-5.9035994297
 20
-22.2675659284
 10
-5.8983621104
 20
-22.2089336225
  0
LWPOLYLINE
  5
2AF
100
AcDbEntity
  8
0
100
AcDbPolyline
 62
250
  6
CONTINUOUS
 90
10
 70
0
 10
-6.2358304873
 20
-24.1519787045
 10
-6.0038698561
 20
-24.1375655133
 10
-5.7727743297
 20
-24.0942265775
 10
-5.5465821276
 20
-24.0231615415
 10
-5.3280234171
 20
-23.9255374344
 10
-5.122356563
 20
-23.8022627139
 10
-4.9367604782
 20
-23.6556306768
 10
-4.7753876691
 20
-23.4886713672
 10
-4.6391609547
 20
-23.3044149284
 10
-4.5285961389
 20
-23.1073378963
  0
LWPOLYLINE
  5
2B0
100
AcDbEntity
  8
0
100
AcDbPolyline
 62
7
  6
CONTINUOUS
 90
3
 70
0
 10
51.2297997854
 20
-22.204557068
 10
51.1379784034
 20
-22.206581441
 10
51.1027601656
 20
-22.2089344175
  0
LWPOLYLINE
  5
2B1
100
AcDbEntity
  8
0
100
AcDbPolyline
 62
7
  6
CONTINUOUS
 90
4
 70
0
 10
-5.628030839
 20
-22.2028249318
 10
-5.7712807393
 20
-22.2045237604
 10
-5.8623642347
 20
-22.2065663223
 10
-5.8971896726
 20
-22.2089536915
  0
LINE
  5
2B2
100
AcDbEntity
  8
0
100
AcDbLine
 62
7
  6
CONTINUOUS
 10
51.567019411
 20
-22.2014082527
 11
51.2297997854
 21
-22.204557068
  0
LINE
  5
2B3
100
AcDbEntity
  8
0
100
AcDbLine
 62
7
  6
CONTINUOUS
 10
-5.2024677281
 20
-22.2003112699
 11
-5.628030839
 21
-22.2028249318
  0
LINE
  5
2B4
100
AcDbEntity
  8
0
100
AcDbLine
 62
7
  6
CONTINUOUS
 10
4.286351418
 20
-22.2017372612
 11
4.7182645692
 21
-22.1998197087
  0
LINE
  5
2B5
100
AcDbEntity
  8
0
100
AcDbLine
 62
7
  6
CONTINUOUS
 10
-52.713598422
 20
-22.2017372611
 11
-52.2816838612
 21
-22.1998226716
  0
LINE
  5
2B6
100
AcDbEntity
  8
0
100
AcDbLine
 62
7
  6
CONTINUOUS
 10
52.0426673264
 20
-22.1997249543
 11
51.567019411
 21
-22.2014082527
  0
LINE
  5
2B7
100
AcDbEntity
  8
0
100
AcDbLine
 62
7
  6
CONTINUOUS
 10
-48.850169195
 20
-25.7004005275
 11
-50.9957391557
 21
-25.7004001326
  0
LINE
  5
2B8
100
AcDbEntity
  8
0
100
AcDbLine
 62
250
  6
CONTINUOUS
 10
48.8503235399
 20
-25.7004054961
 11
-48.8501980017
 21
-25.70040786
  0
LINE
  5
2B9
100
AcDbEntity
  8
0
100
AcDbLine
 62
250
  6
CONTINUOUS
 10
50.7640728212
 20
-24.1519680352
 11
6.2358769672
 21
-24.1521644958
  0
LINE
  5
2BA
100
AcDbEntity
  8
0
100
AcDbLine
 62
250
  6
CONTINUOUS
 10
-6.2357737467
 20
-24.151971997
 11
-50.7640728729
 21
-24.152177415
  0
LINE
  5
2BB
100
AcDbEntity
  8
0
100
AcDbLine
 62
250
  6
CONTINUOUS
 10
3.2088029178
 20
-23.7508281938
 11
-3.2088030072
 21
-23.7508281938
  0
LINE
  5
2BC
100
AcDbEntity
  8
0
100
AcDbLine
 62
250
  6
CONTINUOUS
 10
6.2412879958
 20
-22.5518612467
 11
50.7586617553
 21
-22.5518612467
  0
LINE
  5
2BD
100
AcDbEntity
  8
0
100
AcDbLine
 62
250
  6
CONTINUOUS
 10
-6.2412880851
 20
-22.5518612467
 11
-50.7586618447
 21
-22.5518612467
  0
LINE
  5
2BE
100
AcDbEntity
  8
0
100
AcDbLine
 62
7
  6
CONTINUOUS
 10
50.7586617553
 20
-22.50744288
 11
6.2412879954
 21
-22.50744288
  0
LINE
  5
2BF
100
AcDbEntity
  8
0
100
AcDbLine
 62
7
  6
CONTINUOUS
 10
-6.2412880847
 20
-22.50744288
 11
-50.7586618447
 21
-22.50744288
  0
LINE
  5
2C0
100
AcDbEntity
  8
0
100
AcDbLine
 62
250
  6
CONTINUOUS
 10
-5.9427808847
 20
-22.20893568
 11
-5.898362518
 21
-22.20893568
  0
LINE
  5
2C1
100
AcDbEntity
  8
0
100
AcDbLine
 62
250
  6
CONTINUOUS
 10
5.9427807953
 20
-22.20893568
 11
5.8983624287
 21
-22.20893568
  0
LINE
  5
2C2
100
AcDbEntity
  8
0
100
AcDbLine
 62
250
  6
CONTINUOUS
 10
51.0571689553
 20
-22.20893568
 11
51.1015873221
 21
-22.20893568
  0
LINE
  5
2C3
100
AcDbEntity
  8
0
100
AcDbLine
 62
250
  6
CONTINUOUS
 10
-51.0571690446
 20
-22.20893568
 11
-51.1015874114
 21
-22.20893568
  0
LINE
  5
2C4
100
AcDbEntity
  8
0
100
AcDbLine
 62
250
  6
CONTINUOUS
 10
-4.2856307351
 20
-22.2017373731
 11
-2.8452106784
 21
-22.2017373731
  0
LINE
  5
2C5
100
AcDbEntity
  8
0
100
AcDbLine
 62
7
  6
CONTINUOUS
 10
4.2856306458
 20
-22.2017373731
 11
2.8452105891
 21
-22.2017373731
  0
LINE
  5
2C6
100
AcDbEntity
  8
0
100
AcDbLine
 62
7
  6
CONTINUOUS
 10
48.8501030184
 20
-25.700405501
 11
50.2921338661
 21
-25.7004262414
  0
LINE
  5
2C7
100
AcDbEntity
  8
0
100
AcDbLine
 62
7
  6
CONTINUOUS
 10
-4.7181142671
 20
-22.1998750579
 11
-5.2024677281
 21
-22.2003112699
  0
LINE
  5
2C8
100
AcDbEntity
  8
0
100
AcDbLine
 62
7
  6
CONTINUOUS
 10
-52.2816838612
 20
-22.1998226716
 11
-51.7983806049
 21
-22.2002812535
  0
LINE
  5
2C9
100
AcDbEntity
  8
0
100
AcDbLine
 62
7
  6
CONTINUOUS
 10
4.7182645692
 20
-22.1998197087
 11
5.2015673346
 21
-22.2002790319
  0
LINE
  5
2CA
100
AcDbEntity
  8
0
100
AcDbLine
 62
7
  6
CONTINUOUS
 10
-4.2863515073
 20
-22.2017372612
 11
-4.7181142671
 21
-22.1998750579
  0
LWPOLYLINE
  5
2CB
100
AcDbEntity
  8
0
100
AcDbPolyline
 62
7
  6
CONTINUOUS
 90
3
 70
0
 10
52.7135983327
 20
-22.2017372611
 10
52.5085285522
 20
-22.2004931761
 10
52.0426673264
 20
-22.1997249543
  0
LWPOLYLINE
  5
2CC
100
AcDbEntity
  8
0
100
AcDbPolyline
 62
7
  6
CONTINUOUS
 90
5
 70
0
 10
-51.7983806049
 20
-22.2002812535
 10
-51.3736732803
 20
-22.2028602911
 10
-51.2297998747
 20
-22.204557068
 10
-51.1379784927
 20
-22.206581441
 10
-51.1027602549
 20
-22.2089344175
  0
LWPOLYLINE
  5
2CD
100
AcDbEntity
  8
0
100
AcDbPolyline
 62
7
  6
CONTINUOUS
 90
5
 70
0
 10
5.2015673346
 20
-22.2002790319
 10
5.6262753272
 20
-22.2028610935
 10
5.770149268
 20
-22.204557988
 10
5.8619711254
 20
-22.2065818649
 10
5.8971895851
 20
-22.2089337315
  0
LWPOLYLINE
  5
2CE
100
AcDbEntity
  8
0
100
AcDbPolyline
 62
250
  6
CONTINUOUS
 90
10
 70
0
 10
6.2358302302
 20
-24.151978567
 10
6.0039441924
 20
-24.1375744772
 10
5.772898925
 20
-24.0942572129
 10
5.5467311479
 20
-24.0232175881
 10
5.3281664757
 20
-23.9256120243
 10
5.1224715306
 20
-23.8023424115
 10
4.9368431034
 20
-23.6557052158
 10
4.7754403876
 20
-23.4887330109
 10
4.6391851757
 20
-23.3044516867
 10
4.5285960541
 20
-23.1073378996
  0
LWPOLYLINE
  5
2CF
100
AcDbEntity
  8
0
100
AcDbPolyline
 62
250
  6
CONTINUOUS
 90
10
 70
0
 10
6.241290053
 20
-22.5518616545
 10
6.1827444073
 20
-22.5466413773
 10
6.1251380211
 20
-22.5311984384
 10
6.070679351
 20
-22.5059587094
 10
6.0214291615
 20
-22.4714908341
 10
5.9788753163
 20
-22.4289641339
 10
5.9443643788
 20
-22.3797170191
 10
5.9190778836
 20
-22.3252309981
 10
5.9035976396
 20
-22.2675653691
 10
5.8983620206
 20
-22.2089336229
  0
LWPOLYLINE
  5
2D0
100
AcDbEntity
  8
0
100
AcDbPolyline
 62
250
  6
CONTINUOUS
 90
10
 70
0
 10
-3.2092841975
 20
-23.7508151118
 10
-3.3643147186
 20
-23.7355475624
 10
-3.5173372612
 20
-23.6943244
 10
-3.6679782451
 20
-23.6320244829
 10
-3.8152036419
 20
-23.5541403518
 10
-3.9590700878
 20
-23.4658001238
 10
-4.1005443604
 20
-23.3717401295
 10
-4.2391992403
 20
-23.2779410988
 10
-4.3734120719
 20
-23.1912328913
 10
-4.5020142977
 20
-23.1196408002
  0
LWPOLYLINE
  5
2D1
100
AcDbEntity
  8
0
100
AcDbPolyline
 62
250
  6
CONTINUOUS
 90
10
 70
0
 10
6.0058382532
 20
-25.700341285
 10
5.6101052338
 20
-25.6372328142
 10
5.2306287715
 20
-25.5321396197
 10
4.8674088663
 20
-25.3850409171
 10
4.5139539703
 20
-25.1910212473
 10
4.1767556312
 20
-24.9549399506
 10
3.8752884932
 20
-24.6914494591
 10
3.6160441041
 20
-24.4054369995
 10
3.392530916
 20
-24.0920130456
 10
3.2047489289
 20
-23.7511901611
  0
LWPOLYLINE
  5
2D2
100
AcDbEntity
  8
0
100
AcDbPolyline
 62
7
  6
CONTINUOUS
 90
10
 70
0
 10
6.2412871926
 20
-22.50744288
 10
6.1917464161
 20
-22.4993865028
 10
6.1453016442
 20
-22.4841432132
 10
6.1019528767
 20
-22.4617130109
 10
6.0603703201
 20
-22.4308849846
 10
6.0218837679
 20
-22.3928700457
 10
5.9904826013
 20
-22.3513009285
 10
5.9674966138
 20
-22.3073885446
 10
5.9515960118
 20
-22.2599219824
 10
5.9427807953
 20
-22.2089012419
  0
LWPOLYLINE
  5
2D3
100
AcDbEntity
  8
0
100
AcDbPolyline
 62
250
  6
CONTINUOUS
 90
10
 70
0
 10
-64.0837422787
 20
27.8188863015
 10
-64.4901565697
 20
28.2114440581
 10
-64.890841651
 20
28.6042480872
 10
-65.2862920959
 20
28.9977801473
 10
-65.676698028
 20
29.3922120501
 10
-66.0628655189
 20
29.7883332314
 10
-66.4461850037
 20
30.1875656507
 10
-66.827425768
 20
30.5907269372
 10
-67.206767583
 20
30.9980155375
 10
-67.5846990472
 20
31.4099487518
  0
LWPOLYLINE
  5
2D4
100
AcDbEntity
  8
0
100
AcDbPolyline
 62
250
  6
CONTINUOUS
 90
10
 70
0
 10
-67.5885782574
 20
36.256403241
 10
-67.7046593809
 20
36.3695088431
 10
-67.8137541669
 20
36.4696536068
 10
-67.914774616
 20
36.5598412152
 10
-68.0058927982
 20
36.6394254341
 10
-68.0848585442
 20
36.7061788674
 10
-68.1496865677
 20
36.7585533443
 10
-68.199077274
 20
36.7959056718
 10
-68.2321969119
 20
36.8181090481
 10
-68.2484215951
 20
36.8254150188
  0
LWPOLYLINE
  5
2D5
100
AcDbEntity
  8
0
100
AcDbPolyline
 62
250
  6
CONTINUOUS
 90
10
 70
0
 10
-67.5831506308
 20
36.5572519249
 10
-67.6988035541
 20
36.6706572867
 10
-67.8085674701
 20
36.7737241501
 10
-67.9102221173
 20
36.8654910239
 10
-68.0020166367
 20
36.945376368
 10
-68.081641429
 20
37.0121819897
 10
-68.1467081624
 20
37.0644887941
 10
-68.1960147173
 20
37.1018420253
 10
-68.2290477328
 20
37.124337263
 10
-68.2452525218
 20
37.1319514136
  0
LWPOLYLINE
  5
2D6
100
AcDbEntity
  8
0
100
AcDbPolyline
 62
250
  6
CONTINUOUS
 90
10
 70
0
 10
-63.6952554575
 20
30.998413275
 10
-63.1743038167
 20
30.4841475511
 10
-62.6494869584
 20
29.9721030343
 10
-62.1222824551
 20
29.4638912423
 10
-61.5953636023
 20
28.9623369246
 10
-61.0687979434
 20
28.4677989232
 10
-60.5400543082
 20
27.9782520697
 10
-60.0091985268
 20
27.4941420705
 10
-59.4789228552
 20
27.0182644958
 10
-58.9506663471
 20
26.5522377984
  0
LWPOLYLINE
  5
2D7
100
AcDbEntity
  8
0
100
AcDbPolyline
 62
250
  6
CONTINUOUS
 90
10
 70
0
 10
-61.2538863813
 20
34.5852880123
 10
-61.7302381949
 20
35.09000516
 10
-62.2124901445
 20
35.5963352631
 10
-62.6991918748
 20
36.1028149175
 10
-63.1885702835
 20
36.607650503
 10
-63.6796295473
 20
37.1098546169
 10
-64.1721816242
 20
37.609244988
 10
-64.665347207
 20
38.1049109
 10
-65.1575244365
 20
38.5952134735
 10
-65.6475098533
 20
39.0789205705
  0
LWPOLYLINE
  5
2D8
100
AcDbEntity
  8
0
100
AcDbPolyline
 62
250
  6
CONTINUOUS
 90
3
 70
0
 10
-56.6401221805
 20
29.6011341513
 10
-57.1442303724
 20
30.1409107964
 10
-57.6519112898
 20
30.6886352372
  0
LWPOLYLINE
  5
2D9
100
AcDbEntity
  8
0
100
AcDbPolyline
 62
250
  6
CONTINUOUS
 90
3
 70
0
 10
-60.2135658849
 20
33.4693184889
 10
-60.7331589031
 20
34.0287701392
 10
-61.2537909461
 20
34.5853351946
  0
LWPOLYLINE
  5
2DA
100
AcDbEntity
  8
0
100
AcDbPolyline
 62
250
  6
CONTINUOUS
 90
10
 70
0
 10
-67.5847140734
 20
35.0340218069
 10
-67.1633642156
 20
34.5797829364
 10
-66.7393363157
 20
34.1270299422
 10
-66.3126230765
 20
33.6757552118
 10
-65.8832296304
 20
33.225964049
 10
-65.4511363485
 20
32.7776356537
 10
-65.0162981602
 20
32.3307236476
 10
-64.5786944574
 20
31.8852078501
 10
-64.1383297748
 20
31.4410937521
 10
-63.6951961222
 20
30.9983738641
  0
LWPOLYLINE
  5
2DB
100
AcDbEntity
  8
0
100
AcDbPolyline
 62
250
  6
CONTINUOUS
 90
3
 70
0
 10
-57.6519112898
 20
30.6886352372
 10
-59.1821547738
 20
32.3510181929
 10
-60.2135658849
 20
33.4693184889
  0
LINE
  5
2DC
100
AcDbEntity
  8
0
100
AcDbLine
 62
250
  6
CONTINUOUS
 10
-52.1086211067
 20
26.7323988074
 11
-51.1975568458
 21
25.6934705715
  0
LINE
  5
2DD
100
AcDbEntity
  8
0
100
AcDbLine
 62
250
  6
CONTINUOUS
 10
-53.0086955314
 20
27.7649524633
 11
-52.1086211067
 21
26.7323988074
  0
LINE
  5
2DE
100
AcDbEntity
  8
0
100
AcDbLine
 62
250
  6
CONTINUOUS
 10
-53.9049653375
 20
28.7994665244
 11
-53.0086955314
 21
27.7649524633
  0
LINE
  5
2DF
100
AcDbEntity
  8
0
100
AcDbLine
 62
250
  6
CONTINUOUS
 10
-54.8029380904
 20
29.8423071991
 11
-53.9049653375
 21
28.7994665244
  0
LINE
  5
2E0
100
AcDbEntity
  8
0
100
AcDbLine
 62
250
  6
CONTINUOUS
 10
-56.6712540664
 20
32.02409871
 11
-54.8029380904
 21
29.8423071991
  0
LWPOLYLINE
  5
2E1
100
AcDbEntity
  8
0
100
AcDbPolyline
 62
250
  6
CONTINUOUS
 90
10
 70
0
 10
-52.5863320909
 20
31.0244296137
 10
-52.1497227095
 20
30.437534085
 10
-51.7157993624
 20
29.8460817768
 10
-51.2863122393
 20
29.2524397879
 10
-50.8638145418
 20
28.6599339409
 10
-50.4485852352
 20
28.0686988223
 10
-50.0387586634
 20
27.4759382344
 10
-49.6345700609
 20
26.8818876899
 10
-49.2381110066
 20
26.2896150622
 10
-48.8501030064
 20
25.700405501
  0
LWPOLYLINE
  5
2E2
100
AcDbEntity
  8
0
100
AcDbPolyline
 62
250
  6
CONTINUOUS
 90
8
 70
0
 10
-59.4999364736
 20
-35.1948881012
 10
-59.0260167302
 20
-34.685821069
 10
-58.5530767419
 20
-34.167001778
 10
-58.0811510189
 20
-33.6398581844
 10
-57.6109526502
 20
-33.1066557294
 10
-57.1418214428
 20
-32.5681727576
 10
-56.6717838315
 20
-32.0236876327
 10
-54.8028892223
 20
-29.8421720273
  0
LWPOLYLINE
  5
2E3
100
AcDbEntity
  8
0
100
AcDbPolyline
 62
7
  6
CONTINUOUS
 90
10
 70
0
 10
-59.4999093306
 20
-35.1948945819
 10
-59.9399917299
 20
-35.656786656
 10
-60.3826914222
 20
-36.1115045189
 10
-60.8275546909
 20
-36.5589174128
 10
-61.2741132412
 20
-36.9986636548
 10
-61.7222953559
 20
-37.4307026225
 10
-62.1724405273
 20
-37.8553235659
 10
-62.6246042967
 20
-38.2724842084
 10
-63.0784980198
 20
-38.6818279754
 10
-63.5340066797
 20
-39.0831719009
  0
LINE
  5
2E4
100
AcDbEntity
  8
0
100
AcDbLine
 62
250
  6
CONTINUOUS
 10
-53.8883692236
 20
-26.7381886442
 11
-53.4277518462
 21
-26.2730451967
  0
LWPOLYLINE
  5
2E5
100
AcDbEntity
  8
0
100
AcDbPolyline
 62
250
  6
CONTINUOUS
 90
3
 70
0
 10
-53.4277518462
 20
-26.2730451967
 10
-52.961389229
 20
-25.8059093756
 10
-52.4864263456
 20
-25.3337784113
  0
LWPOLYLINE
  5
2E6
100
AcDbEntity
  8
0
100
AcDbPolyline
 62
250
  6
CONTINUOUS
 90
10
 70
0
 10
-65.6475172114
 20
-39.0787137911
 10
-65.1559465493
 20
-38.593408312
 10
-64.6625622386
 20
-38.101880079
 10
-64.1685812231
 20
-37.6053816937
 10
-63.675602104
 20
-37.1055551747
 10
-63.1845175384
 20
-36.6033307882
 10
-62.6955431325
 20
-36.0989249053
 10
-62.2096712893
 20
-35.5933272251
 10
-61.7286429533
 20
-35.0883035932
 10
-61.2538804454
 20
-34.5852935667
  0
LWPOLYLINE
  5
2E7
100
AcDbEntity
  8
0
100
AcDbPolyline
 62
250
  6
CONTINUOUS
 90
10
 70
0
 10
-64.6905685704
 20
-39.0824682685
 10
-64.8120148912
 20
-39.1963060654
 10
-64.9245512697
 20
-39.305061455
 10
-65.026522134
 20
-39.4065263237
 10
-65.1167077314
 20
-39.4989304577
 10
-65.1931038802
 20
-39.579788229
 10
-65.2534869659
 20
-39.6463837549
 10
-65.2968840036
 20
-39.6972223411
 10
-65.3229980099
 20
-39.7315323656
 10
-65.331377724
 20
-39.7484440375
  0
LWPOLYLINE
  5
2E8
100
AcDbEntity
  8
0
100
AcDbPolyline
 62
250
  6
CONTINUOUS
 90
8
 70
0
 10
-67.7056006352
 20
-36.3713296601
 10
-67.9168172667
 20
-36.5616188781
 10
-68.0079835292
 20
-36.6423549618
 10
-68.086595631
 20
-36.7098542645
 10
-68.150867065
 20
-36.7628633181
 10
-68.1997018762
 20
-36.8009048417
 10
-68.2324039899
 20
-36.8237908065
 10
-68.2484190923
 20
-36.8314128471
  0
LWPOLYLINE
  5
2E9
100
AcDbEntity
  8
0
100
AcDbPolyline
 62
250
  6
CONTINUOUS
 90
10
 70
0
 10
-54.2003745103
 20
-22.4955473137
 10
-54.0276573322
 20
-22.4867574901
 10
-53.8546872923
 20
-22.4719258986
 10
-53.6822171241
 20
-22.45105254
 10
-53.510661731
 20
-22.4240336361
 10
-53.3412647939
 20
-22.3909729667
 10
-53.1760043166
 20
-22.3521818695
 10
-53.0160522237
 20
-22.3077641235
 10
-52.8618701406
 20
-22.2576159503
 10
-52.7143079697
 20
-22.20173735
  0
LWPOLYLINE
  5
2EA
100
AcDbEntity
  8
0
100
AcDbPolyline
 62
250
  6
CONTINUOUS
 90
10
 70
0
 10
54.2003668959
 20
-22.4955466754
 10
54.0276507797
 20
-22.4867568444
 10
53.8546817701
 20
-22.47192526
 10
53.682212591
 20
-22.451051923
 10
53.5106581428
 20
-22.4240330484
 10
53.3412620908
 20
-22.3909724228
 10
53.1760024121
 20
-22.3521814043
 10
53.0160510201
 20
-22.3077637786
 10
52.8618695428
 20
-22.2576157604
 10
52.7143078804
 20
-22.20173735
  0
LWPOLYLINE
  5
2EB
100
AcDbEntity
  8
0
100
AcDbPolyline
 62
250
  6
CONTINUOUS
 90
10
 70
0
 10
-59.5433534003
 20
23.8788134189
 10
-58.9842585861
 20
23.4559075999
 10
-58.4131602849
 20
23.0382997914
 10
-57.831038252
 20
22.6267631079
 10
-57.2375361785
 20
22.221173456
 10
-56.6349483467
 20
21.8232498176
 10
-56.0284032483
 20
21.4363683023
 10
-55.4204214943
 20
21.0619660899
 10
-54.8107285762
 20
20.699725305
 10
-54.2003764966
 20
20.3501861109
  0
LWPOLYLINE
  5
2EC
100
AcDbEntity
  8
0
100
AcDbPolyline
 62
250
  6
CONTINUOUS
 90
10
 70
0
 10
-59.5427891886
 20
23.8786784775
 10
-60.0572234918
 20
24.2802546892
 10
-60.5686042906
 20
24.6912027926
 10
-61.0772230605
 20
25.1114595019
 10
-61.5836426061
 20
25.5411491961
 10
-62.0878988459
 20
25.9799664792
 10
-62.5897138277
 20
26.4273037088
 10
-63.0892441333
 20
26.8828735179
 10
-63.5870887472
 20
27.3467290609
 10
-64.0837294692
 20
27.8187352177
  0
LWPOLYLINE
  5
2ED
100
AcDbEntity
  8
0
100
AcDbPolyline
 62
250
  6
CONTINUOUS
 90
10
 70
0
 10
-64.6905687326
 20
39.0824682702
 10
-64.8120161061
 20
39.1963062901
 10
-64.9245546135
 20
39.3050617782
 10
-65.0265283206
 20
39.40652663
 10
-65.1167170973
 20
39.4989305989
 10
-65.1931165042
 20
39.5797881621
 10
-65.2535027015
 20
39.6463836025
 10
-65.2969023785
 20
39.6972222247
 10
-65.3230182092
 20
39.7315323172
 10
-65.3313986466
 20
39.7484440375
  0
LWPOLYLINE
  5
2EE
100
AcDbEntity
  8
0
100
AcDbPolyline
 62
250
  6
CONTINUOUS
 90
10
 70
0
 10
-52.4866992272
 20
25.3341824125
 10
-52.9660179152
 20
25.8106637608
 10
-53.4354941763
 20
26.2809647464
 10
-53.8980582905
 20
26.7481418891
 10
-54.3580155063
 20
27.2166554576
 10
-54.816699749
 20
27.68794933
 10
-55.2724035379
 20
28.1602487656
 10
-55.7260565316
 20
28.6343920418
 10
-56.1813051148
 20
29.1140427787
 10
-56.6401233268
 20
29.60113473
  0
LWPOLYLINE
  5
2EF
100
AcDbEntity
  8
0
100
AcDbPolyline
 62
7
  6
CONTINUOUS
 90
10
 70
0
 10
-59.500000962
 20
35.1949359384
 10
-59.9407117367
 20
35.6574188321
 10
-60.3838096015
 20
36.112605848
 10
-60.8287562161
 20
36.5604509227
 10
-61.2751255972
 20
37.0005733067
 10
-61.7229313707
 20
37.4328790015
 10
-62.1726419415
 20
37.8575668512
 10
-62.6244751402
 20
38.2744739056
 10
-63.0782992162
 20
38.6831265799
 10
-63.5341499484
 20
39.0832305683
  0
LWPOLYLINE
  5
2F0
100
AcDbEntity
  8
0
100
AcDbPolyline
 62
250
  6
CONTINUOUS
 90
7
 70
0
 10
-59.4999079368
 20
35.1948819243
 10
-59.025867503
 20
34.6859001055
 10
-58.5528062434
 20
34.167181627
 10
-58.0807699479
 20
33.640138135
 10
-57.610480523
 20
33.1070151511
 10
-57.141292584
 20
32.5685779794
 10
-56.6712540664
 20
32.02409871
  0
LWPOLYLINE
  5
2F1
100
AcDbEntity
  8
0
100
AcDbPolyline
 62
250
  6
CONTINUOUS
 90
10
 70
0
 10
-56.3247051306
 20
35.5832735874
 10
-55.8964246484
 20
35.1086804376
 10
-55.4736522117
 20
34.6275300827
 10
-55.0552447646
 20
34.1388854812
 10
-54.6390072206
 20
33.64050862
 10
-54.2246078835
 20
33.132369463
 10
-53.8134377291
 20
32.6170312845
 10
-53.4048392442
 20
32.0950036415
 10
-52.9963013729
 20
31.5643874765
 10
-52.5863321223
 20
31.0244295907
  0
LWPOLYLINE
  5
2F2
100
AcDbEntity
  8
0
100
AcDbPolyline
 62
250
  6
CONTINUOUS
 90
10
 70
0
 10
-59.9100510024
 20
-39.0828903012
 10
-59.4944366625
 20
-38.7165360474
 10
-59.083003699
 20
-38.3444133348
 10
-58.6755310002
 20
-37.9663301171
 10
-58.2710326485
 20
-37.5813581907
 10
-57.8700671832
 20
-37.1900166033
 10
-57.4748336638
 20
-36.7944333076
 10
-57.0861389538
 20
-36.3953892317
 10
-56.7031089321
 20
-35.9919978175
 10
-56.3251578795
 20
-35.5837392352
  0
LWPOLYLINE
  5
2F3
100
AcDbEntity
  8
0
100
AcDbPolyline
 62
250
  6
CONTINUOUS
 90
10
 70
0
 10
-54.1933137854
 20
-22.6976404246
 10
-54.7456312017
 20
-23.1155276755
 10
-55.2884338801
 20
-23.5330961517
 10
-55.8234082709
 20
-23.9517212086
 10
-56.3523214744
 20
-24.372852215
 10
-56.8765445108
 20
-24.7976252799
 10
-57.3970883124
 20
-25.2268474092
 10
-57.9152663773
 20
-25.6615360735
 10
-58.4326769336
 20
-26.1029438384
 10
-58.9506997245
 20
-26.5521427962
  0
LWPOLYLINE
  5
2F4
100
AcDbEntity
  8
0
100
AcDbPolyline
 62
250
  6
CONTINUOUS
 90
10
 70
0
 10
-54.1932826495
 20
22.6975760489
 10
-54.7454756744
 20
23.115376502
 10
-55.2881910319
 20
23.5328924858
 10
-55.823107784
 20
23.9514923492
 10
-56.3519934411
 20
24.3726216823
 10
-56.8762202648
 20
24.7974127732
 10
-57.3967971643
 20
25.2266703797
 10
-57.915036247
 20
25.661413794
 10
-58.4325366125
 20
26.1028993527
 10
-58.9506784541
 20
26.5522025206
  0
LWPOLYLINE
  5
2F5
100
AcDbEntity
  8
0
100
AcDbPolyline
 62
250
  6
CONTINUOUS
 90
10
 70
0
 10
-59.9102419713
 20
39.0828850723
 10
-59.4937039586
 20
38.7157403238
 10
-59.0819130908
 20
38.3433526403
 10
-58.6746582469
 20
37.9655401075
 10
-58.2714455352
 20
37.5818484715
 10
-57.8723553726
 20
37.1923602236
 10
-57.4781319962
 20
36.7977806012
 10
-57.089061566
 20
36.3983439773
 10
-56.7047422804
 20
35.9936330501
 10
-56.3247051306
 20
35.5832735874
  0
LWPOLYLINE
  5
2F6
100
AcDbEntity
  8
0
100
AcDbPolyline
 62
250
  6
CONTINUOUS
 90
10
 70
0
 10
-6.0042107731
 20
-25.7004001325
 10
-6.0114723558
 20
-25.5189938163
 10
-6.0234419108
 20
-25.3378055876
 10
-6.0401194377
 20
-25.1575825309
 10
-6.0616263524
 20
-24.978683259
 10
-6.087841238
 20
-24.8023604748
 10
-6.1183998449
 20
-24.6306608087
 10
-6.1531807572
 20
-24.4647302074
 10
-6.1923053911
 20
-24.3049147582
 10
-6.2357737467
 20
-24.151971997
  0
LWPOLYLINE
  5
2F7
100
AcDbEntity
  8
0
100
AcDbPolyline
 62
250
  6
CONTINUOUS
 90
10
 70
0
 10
-6.0030945042
 20
25.7004001337
 10
-5.998729565
 20
25.5264456831
 10
-6.0035731977
 20
25.3511771019
 10
-6.0176254013
 20
25.175313487
 10
-6.0430915254
 20
24.9998157318
 10
-6.0777662185
 20
24.8253414615
 10
-6.115033428
 20
24.6522889521
 10
-6.1526878019
 20
24.4815252476
 10
-6.1929346896
 20
24.3143482567
 10
-6.2357740899
 20
24.1519720259
  0
LWPOLYLINE
  5
2F8
100
AcDbEntity
  8
0
100
AcDbPolyline
 62
250
  6
CONTINUOUS
 90
3
 70
0
 10
-6.2379178121
 20
-22.6770802006
 10
-6.2394646155
 20
-22.5860358843
 10
-6.2412902381
 20
-22.5515570988
  0
LINE
  5
2F9
100
AcDbEntity
  8
0
100
AcDbLine
 62
250
  6
CONTINUOUS
 10
-6.2356216523
 20
-23.0059463991
 11
-6.2379178121
 21
-22.6770802006
  0
LINE
  5
2FA
100
AcDbEntity
  8
0
100
AcDbLine
 62
250
  6
CONTINUOUS
 10
-6.2358770565
 20
24.1521644958
 11
-6.2345104936
 21
23.4661929261
  0
LINE
  5
2FB
100
AcDbEntity
  8
0
100
AcDbLine
 62
250
  6
CONTINUOUS
 10
-6.2412880851
 20
22.5518612467
 11
-6.2412880847
 21
22.50744288
  0
LINE
  5
2FC
100
AcDbEntity
  8
0
100
AcDbLine
 62
250
  6
CONTINUOUS
 10
-6.2412880851
 20
-22.5518612467
 11
-6.2412880847
 21
-22.50744288
  0
LINE
  5
2FD
100
AcDbEntity
  8
0
100
AcDbLine
 62
7
  6
CONTINUOUS
 10
-5.9427808847
 20
22.20893568
 11
-5.9427808847
 21
-22.20893568
  0
LINE
  5
2FE
100
AcDbEntity
  8
0
100
AcDbLine
 62
250
  6
CONTINUOUS
 10
-5.898362518
 20
-22.20893568
 11
-5.898362518
 21
22.2089356795
  0
LINE
  5
2FF
100
AcDbEntity
  8
0
100
AcDbLine
 62
250
  6
CONTINUOUS
 10
-6.2345761463
 20
-23.7070061879
 11
-6.2356216523
 21
-23.0059463991
  0
LINE
  5
300
100
AcDbEntity
  8
0
100
AcDbLine
 62
250
  6
CONTINUOUS
 10
-6.2358770565
 20
-24.1521644958
 11
-6.2345761463
 21
-23.7070061879
  0
LWPOLYLINE
  5
301
100
AcDbEntity
  8
0
100
AcDbPolyline
 62
250
  6
CONTINUOUS
 90
16
 70
0
 10
-4.518672598
 20
23.1336703006
 10
-4.5183041455
 20
23.2180330296
 10
-4.495833348
 20
23.3020343883
 10
-4.4539129946
 20
23.3807773042
 10
-4.3950845073
 20
23.4498806304
 10
-4.3221160163
 20
23.5082794657
 10
-4.2378926666
 20
23.5581757068
 10
-4.1459820896
 20
23.6005559738
 10
-4.0479951884
 20
23.6362699774
 10
-3.9428369902
 20
23.666605718
 10
-3.8335075152
 20
23.6915536366
 10
-3.7205519888
 20
23.7117775811
 10
-3.5985800615
 20
23.7283394929
 10
-3.4678583453
 20
23.7408002942
 10
-3.3347963283
 20
23.7483521206
 10
-3.2047590238
 20
23.7508456996
  0
LWPOLYLINE
  5
302
100
AcDbEntity
  8
0
100
AcDbPolyline
 62
250
  6
CONTINUOUS
 90
5
 70
0
 10
-6.2345104936
 20
23.4661929261
 10
-6.2366492878
 20
22.8190128803
 10
-6.2379178511
 20
22.6770802005
 10
-6.2394647774
 20
22.5860358843
 10
-6.2412905631
 20
22.5515570988
  0
LWPOLYLINE
  5
303
100
AcDbEntity
  8
0
100
AcDbPolyline
 62
250
  6
CONTINUOUS
 90
10
 70
0
 10
3.2046613464
 20
23.750845986
 10
3.1304389473
 20
23.5893943899
 10
3.0646576965
 20
23.4247765303
 10
3.0073175941
 20
23.2569924071
 10
2.9582456514
 20
23.0853095492
 10
2.9176148571
 20
22.9104604277
 10
2.8859441773
 20
22.7346424559
 10
2.8634066007
 20
22.5585881049
 10
2.8498291386
 20
22.3815649036
 10
2.845211791
 20
22.2035728519
  0
LWPOLYLINE
  5
304
100
AcDbEntity
  8
0
100
AcDbPolyline
 62
250
  6
CONTINUOUS
 90
10
 70
0
 10
4.5099955549
 20
23.114475124
 10
4.4624306835
 20
23.0184326875
 10
4.4203500218
 20
22.9201664872
 10
4.3838952198
 20
22.8199956176
 10
4.3531238231
 20
22.7182993371
 10
4.3280744471
 20
22.6155006316
 10
4.3087817288
 20
22.5120441583
 10
4.295266641
 20
22.4083417556
 10
4.2875437744
 20
22.3047711413
 10
4.2856254625
 20
22.2017160777
  0
LWPOLYLINE
  5
305
100
AcDbEntity
  8
0
100
AcDbPolyline
 62
250
  6
CONTINUOUS
 90
10
 70
0
 10
-54.2003359172
 20
-20.3496924909
 10
-54.8025248356
 20
-20.6946779411
 10
-55.4053429215
 20
-21.0527612933
 10
-56.0078317967
 20
-21.4235846969
 10
-56.6093845297
 20
-21.8070092931
 10
-57.2083263405
 20
-22.2022194904
 10
-57.8022691878
 20
-22.6077774072
 10
-58.3897740091
 20
-23.0226976835
 10
-58.9701693907
 20
-23.4465149099
 10
-59.5423489271
 20
-23.8784638104
  0
LWPOLYLINE
  5
306
100
AcDbEntity
  8
0
100
AcDbPolyline
 62
7
  6
CONTINUOUS
 90
40
 70
0
 10
4.5020299233
 20
-23.1196408002
 10
4.4827881743
 20
-23.0837682444
 10
4.4648720182
 20
-23.0484839449
 10
4.4482006874
 20
-23.0138340237
 10
4.4327076327
 20
-22.9798929445
 10
4.4182933132
 20
-22.9466691741
 10
4.4048326226
 20
-22.9141026335
 10
4.392253289
 20
-22.8822283005
 10
4.3804841835
 20
-22.8510719536
 10
4.3694159393
 20
-22.8205515852
 10
4.3589871783
 20
-22.7906823156
 10
4.349146609
 20
-22.7614930346
 10
4.3398123165
 20
-22.7329163527
 10
4.3309405196
 20
-22.7049713985
 10
4.3224905007
 20
-22.6776712863
 10
4.3144351614
 20
-22.6509352681
 10
4.306870793
 20
-22.6247545563
 10
4.2999106708
 20
-22.5991610669
 10
4.2936382275
 20
-22.5741322681
 10
4.2881385672
 20
-22.5496861702
 10
4.2834797635
 20
-22.5258220683
 10
4.2797075056
 20
-22.5024874764
 10
4.2768721191
 20
-22.4796889605
 10
4.2750122332
 20
-22.4574322961
 10
4.2741454846
 20
-22.4356623049
 10
4.2739576101
 20
-22.4142880422
 10
4.2736714225
 20
-22.3934090507
 10
4.272569001
 20
-22.3732551955
 10
4.2700715893
 20
-22.3538496818
 10
4.26572914
 20
-22.3351754475
 10
4.2593074942
 20
-22.3174013145
 10
4.2523416991
 20
-22.3002604362
 10
4.2491846933
 20
-22.2840226455
 10
4.2526153998
 20
-22.2696602112
 10
4.261420756
 20
-22.2583500073
 10
4.2726950824
 20
-22.248912818
 10
4.2861425172
 20
-22.238787491
 10
4.2996138955
 20
-22.2271220636
 10
4.3066720558
 20
-22.2147714757
 10
4.3001450505
 20
-22.201737334
  0
LWPOLYLINE
  5
307
100
AcDbEntity
  8
0
100
AcDbPolyline
 62
250
  6
CONTINUOUS
 90
10
 70
0
 10
-5.8973356622
 20
22.2089454032
 10
-5.9024088452
 20
22.2649829941
 10
-5.9173782129
 20
22.3210377089
 10
-5.9418058538
 20
22.3749371662
 10
-5.975535016
 20
22.4249366814
 10
-6.0181463492
 20
22.4688341472
 10
-6.0680279294
 20
22.5044350318
 10
-6.1231135042
 20
22.5305598396
 10
-6.1816541457
 20
22.5465102608
 10
-6.2412905539
 20
22.5518661667
  0
LWPOLYLINE
  5
308
100
AcDbEntity
  8
0
100
AcDbPolyline
 62
250
  6
CONTINUOUS
 90
10
 70
0
 10
-2.8452118803
 20
22.2035728519
 10
-2.8498257138
 20
22.38157832
 10
-2.8634021521
 20
22.5586113505
 10
-2.8859411953
 20
22.7346719435
 10
-2.9176179811
 20
22.9104922594
 10
-2.9582573717
 20
23.0853401378
 10
-3.0073339538
 20
23.2570190977
 10
-3.0646725896
 20
23.4247969789
 10
-3.130448417
 20
23.5894059417
 10
-3.2046614358
 20
23.750845986
  0
LINE
  5
309
100
AcDbEntity
  8
0
100
AcDbLine
 62
250
  6
CONTINUOUS
 10
-4.2856307351
 20
-22.2017373731
 11
-4.2856307351
 21
22.2017373732
  0
LINE
  5
30A
100
AcDbEntity
  8
0
100
AcDbLine
 62
250
  6
CONTINUOUS
 10
-2.8452118803
 20
22.2035728519
 11
-2.8452118803
 21
-22.1825790869
  0
LWPOLYLINE
  5
30B
100
AcDbEntity
  8
0
100
AcDbPolyline
 62
250
  6
CONTINUOUS
 90
13
 70
0
 10
-2.8452118803
 20
-22.1825790869
 10
-2.8459542971
 20
-22.3079309897
 10
-2.851442082
 20
-22.4336684553
 10
-2.8616752352
 20
-22.5597914837
 10
-2.8762541013
 20
-22.6857475568
 10
-2.8955783356
 20
-22.8120891927
 10
-2.9208469039
 20
-22.9404739452
 10
-2.9521218413
 20
-23.0716830294
 10
-2.9893411128
 20
-23.2049352301
 10
-3.033517579
 20
-23.339544456
 10
-3.0849888603
 20
-23.4752820101
 10
-3.1434173364
 20
-23.6123765893
 10
-3.2088030072
 20
-23.7508281938
  0
LWPOLYLINE
  5
30C
100
AcDbEntity
  8
0
100
AcDbPolyline
 62
7
  6
CONTINUOUS
 90
10
 70
0
 10
-5.9427808847
 20
-22.2089006405
 10
-5.951445374
 20
-22.2596935969
 10
-5.967256454
 20
-22.3070241138
 10
-5.9902141246
 20
-22.3508921909
 10
-6.021679506
 20
-22.3925551077
 10
-6.0602914781
 20
-22.4307555848
 10
-6.1019666803
 20
-22.4617217844
 10
-6.1453439922
 20
-22.4841964271
 10
-6.1917845341
 20
-22.4994367923
 10
-6.2412883061
 20
-22.50744288
  0
LINE
  5
30D
100
AcDbEntity
  8
0
100
AcDbLine
 62
250
  6
CONTINUOUS
 10
67.5856690768
 20
-0.0000646313
 11
68.2484189128
 21
0.0000003884
  0
LINE
  5
30E
100
AcDbEntity
  8
0
100
AcDbLine
 62
250
  6
CONTINUOUS
 10
-5.8992441249
 20
0.0000002191
 11
-4.2850513473
 21
0.0000000979
  0
LINE
  5
30F
100
AcDbEntity
  8
0
100
AcDbLine
 62
250
  6
CONTINUOUS
 10
5.8992440356
 20
-0.0000002192
 11
4.285051258
 21
-0.0000000979
  0
LINE
  5
310
100
AcDbEntity
  8
0
100
AcDbLine
 62
250
  6
CONTINUOUS
 10
51.1007057189
 20
-0.0000002191
 11
67.5846053812
 21
-0.0000003308
  0
LINE
  5
311
100
AcDbEntity
  8
0
100
AcDbLine
 62
250
  6
CONTINUOUS
 10
-51.1006606256
 20
0.0000000979
 11
-67.5846054705
 21
-0.000000331
  0
LINE
  5
312
100
AcDbEntity
  8
0
100
AcDbLine
 62
250
  6
CONTINUOUS
 10
-67.585372663
 20
0.0000654048
 11
-68.2484190021
 21
-0.0000003884
  0
LWPOLYLINE
  5
313
100
AcDbEntity
  8
0
100
AcDbPolyline
 62
250
  6
CONTINUOUS
 90
13
 70
0
 10
2.845211791
 20
-22.1825790869
 10
2.8458914435
 20
-22.3083760706
 10
2.8513711397
 20
-22.4344983288
 10
2.8616508797
 20
-22.5609458617
 10
2.8763675269
 20
-22.6871809518
 10
2.8958842179
 20
-22.8137413166
 10
2.9212903619
 20
-22.9422401076
 10
2.9526076744
 20
-23.0734497798
 10
2.9898144399
 20
-23.2065978784
 10
3.0339349208
 20
-23.3409801903
 10
3.0853105378
 20
-23.4763619781
 10
3.1435998701
 20
-23.6129779792
 10
3.2088029178
 20
-23.7508281938
  0
LWPOLYLINE
  5
314
100
AcDbEntity
  8
0
100
AcDbPolyline
 62
7
  6
CONTINUOUS
 90
4
 70
0
 43
0.3500000006
 10
0.7499999456
 20
51.1071076355
 10
0.7499999456
 20
51.7499656219
 10
2.2499999785
 20
51.7499656219
 10
1.3928570824
 20
48.7499647064
  0
LINE
  5
315
100
AcDbEntity
  8
0
100
AcDbLine
 62
250
  6
CONTINUOUS
 10
2.845211791
 20
-22.1825790869
 11
2.845211791
 21
22.2035728519
  0
LINE
  5
316
100
AcDbEntity
  8
0
100
AcDbLine
 62
250
  6
CONTINUOUS
 10
4.2856306458
 20
22.2017373732
 11
4.2856306458
 21
-22.2017373731
  0
LINE
  5
317
100
AcDbEntity
  8
0
100
AcDbLine
 62
250
  6
CONTINUOUS
 10
5.8983624287
 20
-22.20893568
 11
5.8983624287
 21
22.2089356795
  0
LINE
  5
318
100
AcDbEntity
  8
0
100
AcDbLine
 62
7
  6
CONTINUOUS
 10
5.9427807953
 20
22.20893568
 11
5.9427807953
 21
-22.20893568
  0
LWPOLYLINE
  5
319
100
AcDbEntity
  8
0
100
AcDbPolyline
 62
250
  6
CONTINUOUS
 90
10
 70
0
 10
5.8983575042
 20
22.2089338428
 10
5.9034479354
 20
22.2670839889
 10
5.9186935676
 20
22.3244551941
 10
5.9438272332
 20
22.3787848769
 10
5.9781915052
 20
22.4282610724
 10
6.0208385256
 20
22.4710921715
 10
6.0702966611
 20
22.5057394141
 10
6.1248076169
 20
22.531182235
 10
6.1825698088
 20
22.5466752585
 10
6.2412901395
 20
22.5518661705
  0
LWPOLYLINE
  5
31A
100
AcDbEntity
  8
0
100
AcDbPolyline
 62
7
  6
CONTINUOUS
 90
10
 70
0
 10
5.9427807953
 20
22.2089006575
 10
5.9514451033
 20
22.2596932332
 10
5.9672560157
 20
22.307023486
 10
5.9902135324
 20
22.3508914158
 10
6.0216787314
 20
22.3925543312
 10
6.0602905348
 20
22.4307549236
 10
6.1019657086
 20
22.4617212672
 10
6.1453431749
 20
22.4841960535
 10
6.1917840116
 20
22.4994365911
 10
6.2412882188
 20
22.50744288
  0
LWPOLYLINE
  5
31B
100
AcDbEntity
  8
0
100
AcDbPolyline
 62
250
  6
CONTINUOUS
 90
3
 70
0
 10
6.2379177228
 20
22.6770802006
 10
6.2394645262
 20
22.5860358843
 10
6.2412901488
 20
22.5515570988
  0
LINE
  5
31C
100
AcDbEntity
  8
0
100
AcDbLine
 62
250
  6
CONTINUOUS
 10
6.235621563
 20
23.0059463991
 11
6.2379177228
 21
22.6770802006
  0
LINE
  5
31D
100
AcDbEntity
  8
0
100
AcDbLine
 62
250
  6
CONTINUOUS
 10
6.2358769672
 20
-24.1521644958
 11
6.2345104554
 21
-23.4661929269
  0
LINE
  5
31E
100
AcDbEntity
  8
0
100
AcDbLine
 62
250
  6
CONTINUOUS
 10
6.2412879954
 20
-22.50744288
 11
6.2412879958
 21
-22.5518612467
  0
LINE
  5
31F
100
AcDbEntity
  8
0
100
AcDbLine
 62
250
  6
CONTINUOUS
 10
6.2412879954
 20
22.50744288
 11
6.2412879958
 21
22.5518612467
  0
LINE
  5
320
100
AcDbEntity
  8
0
100
AcDbLine
 62
250
  6
CONTINUOUS
 10
6.234576057
 20
23.7070061879
 11
6.235621563
 21
23.0059463991
  0
LINE
  5
321
100
AcDbEntity
  8
0
100
AcDbLine
 62
250
  6
CONTINUOUS
 10
6.2358769672
 20
24.1521644958
 11
6.234576057
 21
23.7070061879
  0
LWPOLYLINE
  5
322
100
AcDbEntity
  8
0
100
AcDbPolyline
 62
250
  6
CONTINUOUS
 90
5
 70
0
 10
6.2345104554
 20
-23.4661929269
 10
6.2366492422
 20
-22.8190128804
 10
6.2379177228
 20
-22.6770802006
 10
6.2394645262
 20
-22.5860358843
 10
6.2412901487
 20
-22.5515570988
  0
LWPOLYLINE
  5
323
100
AcDbEntity
  8
0
100
AcDbPolyline
 62
250
  6
CONTINUOUS
 90
10
 70
0
 10
6.0042106838
 20
-25.7004001325
 10
6.0114722665
 20
-25.5189938163
 10
6.0234418215
 20
-25.3378055876
 10
6.0401193484
 20
-25.1575825309
 10
6.0616262631
 20
-24.978683259
 10
6.0878411486
 20
-24.8023604748
 10
6.1183997556
 20
-24.6306608087
 10
6.1531806679
 20
-24.4647302074
 10
6.1923053018
 20
-24.3049147582
 10
6.2357736574
 20
-24.151971997
  0
LWPOLYLINE
  5
324
100
AcDbEntity
  8
0
100
AcDbPolyline
 62
7
  6
CONTINUOUS
 90
31
 70
0
 10
-4.5020142977
 20
-23.1196408002
 10
-4.4803685394
 20
-23.0794397895
 10
-4.4601485496
 20
-23.0397850881
 10
-4.44129987
 20
-23.0007348654
 10
-4.4237858378
 20
-22.9623762964
 10
-4.4075348523
 20
-22.9247267069
 10
-4.3924469043
 20
-22.8877306125
 10
-4.3784743461
 20
-22.8514258094
 10
-4.3655724005
 20
-22.8158512862
 10
-4.3536571452
 20
-22.7809438283
 10
-4.3426853383
 20
-22.7467246751
 10
-4.3326199765
 20
-22.7132289836
 10
-4.3233960348
 20
-22.6804076164
 10
-4.3149751685
 20
-22.6482849037
 10
-4.3073098315
 20
-22.6168780576
 10
-4.3003302195
 20
-22.5861223499
 10
-4.2939922907
 20
-22.5560263747
 10
-4.2882569909
 20
-22.5266114322
 10
-4.283070768
 20
-22.4978282875
 10
-4.2783961663
 20
-22.4696764413
 10
-4.2742015628
 20
-22.4421777835
 10
-4.2704641176
 20
-22.4153142955
 10
-4.2672237561
 20
-22.3890831614
 10
-4.2645289113
 20
-22.3635022319
 10
-4.2624153324
 20
-22.3385828376
 10
-4.2609100174
 20
-22.3143869066
 10
-4.2597653697
 20
-22.2908623795
 10
-4.2583682065
 20
-22.2678484353
 10
-4.2572456024
 20
-22.2452936112
 10
-4.2664120978
 20
-22.223255769
 10
-4.2842911776
 20
-22.2017374028
  0
LWPOLYLINE
  5
325
100
AcDbEntity
  8
0
100
AcDbPolyline
 62
250
  6
CONTINUOUS
 90
10
 70
0
 10
-3.2049373778
 20
-23.7511901654
 10
-3.3934169694
 20
-24.0928583639
 10
-3.6174019937
 20
-24.4068082892
 10
-3.8768924505
 20
-24.6930274464
 10
-4.1783183599
 20
-24.9562619417
 10
-4.5152497019
 20
-25.191768545
 10
-4.8683964166
 20
-25.3853257517
 10
-5.231328484
 20
-25.5322176118
 10
-5.6104759241
 20
-25.637215901
 10
-6.005838737
 20
-25.7003413298
  0
LWPOLYLINE
  5
326
100
AcDbEntity
  8
0
100
AcDbPolyline
 62
250
  6
CONTINUOUS
 90
10
 70
0
 10
59.910082507
 20
39.0828848525
 10
59.4932423064
 20
38.7154648087
 10
59.0811053594
 20
38.3427315035
 10
58.6734436695
 20
37.9644928561
 10
58.2695514865
 20
37.5800965717
 10
57.8696925111
 20
37.1897975757
 10
57.4752101388
 20
36.794889819
 10
57.0866277468
 20
36.3958556942
 10
56.7033580427
 20
35.992103517
 10
56.3248455533
 20
35.5831925741
  0
LWPOLYLINE
  5
327
100
AcDbEntity
  8
0
100
AcDbPolyline
 62
250
  6
CONTINUOUS
 90
10
 70
0
 10
54.2003765134
 20
20.3503457118
 10
54.7968209984
 20
20.6917650797
 10
55.3945393646
 20
21.0465187285
 10
55.9925618249
 20
21.414138078
 10
56.5887800106
 20
21.7937475192
 10
57.1828797587
 20
22.1853226153
 10
57.7762507963
 20
22.5900095838
 10
58.3685440489
 20
23.0078236458
 10
58.9576556586
 20
23.4375371205
 10
59.5422691528
 20
23.8784301008
  0
LWPOLYLINE
  5
328
100
AcDbEntity
  8
0
100
AcDbPolyline
 62
250
  6
CONTINUOUS
 90
10
 70
0
 10
59.9100509149
 20
-39.0828903009
 10
59.4946975154
 20
-38.7167734376
 10
59.0834885561
 20
-38.3448691142
 10
58.6762072089
 20
-37.9669831909
 10
58.2719159434
 20
-37.5822278804
 10
57.8711320129
 20
-37.191078531
 10
57.4759223049
 20
-36.7955284651
 10
57.0870478508
 20
-36.3963051006
 10
56.7036739603
 20
-35.9925669502
 10
56.3252036807
 20
-35.5838190153
  0
LWPOLYLINE
  5
329
100
AcDbEntity
  8
0
100
AcDbPolyline
 62
250
  6
CONTINUOUS
 90
10
 70
0
 10
-4.5173738107
 20
23.134962223
 10
-4.6482116763
 20
23.3402242365
 10
-4.8013949825
 20
23.5262809401
 10
-4.9761254988
 20
23.6900131982
 10
-5.1688114108
 20
23.8306590066
 10
-5.3739230755
 20
23.9471976003
 10
-5.5867985629
 20
24.0376826595
 10
-5.8038345556
 20
24.1015766849
 10
-6.0211752003
 20
24.1397273052
 10
-6.2354793399
 20
24.1524135648
  0
LWPOLYLINE
  5
32A
100
AcDbEntity
  8
0
100
AcDbPolyline
 62
250
  6
CONTINUOUS
 90
10
 70
0
 10
-3.2048787429
 20
23.7512227696
 10
-3.4100895633
 20
24.1076188856
 10
-3.6469029407
 20
24.4320158457
 10
-3.9153188752
 20
24.7243995818
 10
-4.2221977091
 20
24.9887296685
 10
-4.5606791001
 20
25.2210588476
 10
-4.9101820206
 20
25.4095427987
 10
-5.2638461283
 20
25.5502630314
 10
-5.6285317655
 20
25.6472076775
 10
-6.0042389323
 20
25.7004012126
  0
LWPOLYLINE
  5
32B
100
AcDbEntity
  8
0
100
AcDbPolyline
 62
250
  6
CONTINUOUS
 90
10
 70
0
 10
-4.5201169661
 20
23.1334309322
 10
-4.4706563781
 20
23.0361203777
 10
-4.426831472
 20
22.9363557192
 10
-4.3888192831
 20
22.8344618504
 10
-4.3567070915
 20
22.7308371666
 10
-4.3305378388
 20
22.6259141259
 10
-4.3103491732
 20
22.5201232287
 10
-4.2961753255
 20
22.41388895
 10
-4.2880473836
 20
22.3076295384
 10
-4.2859911072
 20
22.2017593138
  0
LWPOLYLINE
  5
32C
100
AcDbEntity
  8
0
100
AcDbPolyline
 62
250
  6
CONTINUOUS
 90
10
 70
0
 10
64.6905686392
 20
39.0824682702
 10
64.8120149432
 20
39.1963060801
 10
64.9245513114
 20
39.3050614776
 10
65.0265221723
 20
39.4065263492
 10
65.1167077733
 20
39.4989304809
 10
65.1931039347
 20
39.5797882465
 10
65.2534870444
 20
39.6463837664
 10
65.2968841182
 20
39.6972223473
 10
65.3229981722
 20
39.7315323677
 10
65.3313779459
 20
39.7484440374
  0
LWPOLYLINE
  5
32D
100
AcDbEntity
  8
0
100
AcDbPolyline
 62
250
  6
CONTINUOUS
 90
10
 70
0
 10
54.1932889009
 20
22.6976800659
 10
54.7456479572
 20
23.1156008908
 10
55.2884836718
 20
23.5331950693
 10
55.8234776755
 20
23.9518336871
 10
56.3523987887
 20
24.3729687888
 10
56.8766213238
 20
24.7977408732
 10
57.3971566685
 20
25.2269574824
 10
57.9153171278
 20
25.6616340248
 10
58.4326999767
 20
26.1030211891
 10
58.9506836578
 20
26.552188924
  0
LWPOLYLINE
  5
32E
100
AcDbEntity
  8
0
100
AcDbPolyline
 62
250
  6
CONTINUOUS
 90
10
 70
0
 10
54.1933206938
 20
-22.6975349085
 10
54.7454804447
 20
-23.115307558
 10
55.2881678459
 20
-23.5328006764
 10
55.8230671127
 20
-23.9513872107
 10
56.3519449885
 20
-24.3725111981
 10
56.876171174
 20
-24.7973015526
 10
57.3967539195
 20
-25.2265623777
 10
57.9150061024
 20
-25.6613144297
 10
58.4325276212
 20
-26.1028155448
 10
58.9506996343
 20
-26.5521428092
  0
LWPOLYLINE
  5
32F
100
AcDbEntity
  8
0
100
AcDbPolyline
 62
250
  6
CONTINUOUS
 90
10
 70
0
 10
64.6905684852
 20
-39.0824682685
 10
64.8120158755
 20
-39.1963062754
 10
64.9245543933
 20
-39.3050617556
 10
65.0265281038
 20
-39.4065266046
 10
65.1167168771
 20
-39.4989305759
 10
65.1931162715
 20
-39.5797881447
 10
65.2535024448
 20
-39.6463835911
 10
65.2969020857
 20
-39.6972222186
 10
65.3230178686
 20
-39.7315323152
 10
65.3313982461
 20
-39.7484440375
  0
LWPOLYLINE
  5
330
100
AcDbEntity
  8
0
100
AcDbPolyline
 62
250
  6
CONTINUOUS
 90
10
 70
0
 10
6.2354792506
 20
24.1524135648
 10
6.1916343686
 20
24.3153340312
 10
6.1514699854
 20
24.4831164591
 10
6.1144899004
 20
24.6544593188
 10
6.0780752434
 20
24.8280080464
 10
6.0435208295
 20
25.0025862407
 10
6.017299297
 20
25.1776190532
 10
6.0025018795
 20
25.3526926767
 10
5.9975526442
 20
25.5270886967
 10
6.0030876955
 20
25.7002813813
  0
LINE
  5
331
100
AcDbEntity
  8
0
100
AcDbLine
 62
250
  6
CONTINUOUS
 10
53.4569273779
 20
28.2814659454
 11
52.5594246809
 21
27.2486665193
  0
LWPOLYLINE
  5
332
100
AcDbEntity
  8
0
100
AcDbPolyline
 62
250
  6
CONTINUOUS
 90
3
 70
0
 10
52.5594246809
 20
27.2486665193
 10
51.6550122381
 20
26.2142351114
 10
51.1976705309
 20
25.6934629862
  0
LWPOLYLINE
  5
333
100
AcDbEntity
  8
0
100
AcDbPolyline
 62
250
  6
CONTINUOUS
 90
4
 70
0
 10
58.1598717703
 20
31.239416774
 10
57.6502510049
 20
30.6868611808
 10
57.1432820445
 20
30.1399045832
 10
56.6401231122
 20
29.6011364606
  0
LWPOLYLINE
  5
334
100
AcDbEntity
  8
0
100
AcDbPolyline
 62
250
  6
CONTINUOUS
 90
8
 70
0
 10
59.4999097559
 20
35.1948915165
 10
59.02587895
 20
34.6859712905
 10
58.5528066902
 20
34.1672706102
 10
58.0807571683
 20
33.6402140377
 10
57.6104692636
 20
33.1070582431
 10
57.1413187965
 20
32.568584941
 10
56.6713513556
 20
32.0240818504
 10
54.8028807993
 20
29.842234328
  0
LWPOLYLINE
  5
335
100
AcDbEntity
  8
0
100
AcDbPolyline
 62
250
  6
CONTINUOUS
 90
5
 70
0
 10
61.2537853877
 20
34.5853365143
 10
60.732341142
 20
34.0279088096
 10
60.2121190855
 20
33.4677792805
 10
59.6939297051
 20
32.9068809443
 10
58.1598717703
 20
31.239416774
  0
LWPOLYLINE
  5
336
100
AcDbEntity
  8
0
100
AcDbPolyline
 62
7
  6
CONTINUOUS
 90
10
 70
0
 10
59.5000752652
 20
35.1949183674
 10
59.9407860387
 20
35.6574014738
 10
60.3838844599
 20
36.1125890834
 10
60.8288324347
 20
36.5604349743
 10
61.2752038306
 20
37.0005584299
 10
61.7230120608
 20
37.4328656145
 10
62.1727252605
 20
37.8575556297
 10
62.6245608406
 20
38.2744657534
 10
63.0783865831
 20
38.683122564
 10
63.5342378447
 20
39.0832319381
  0
LWPOLYLINE
  5
337
100
AcDbEntity
  8
0
100
AcDbPolyline
 62
250
  6
CONTINUOUS
 90
10
 70
0
 10
52.4867010016
 20
25.334181439
 10
52.9660196391
 20
25.8106628385
 10
53.4354957401
 20
26.2809639341
 10
53.8980596185
 20
26.7481412286
 10
54.3580165621
 20
27.2166549816
 10
54.8167005225
 20
27.6879490472
 10
55.2724040312
 20
28.1602486451
 10
55.7260567685
 20
28.6343920283
 10
56.1813051497
 20
29.1140428096
 10
56.6401232356
 20
29.6011347277
  0
LWPOLYLINE
  5
338
100
AcDbEntity
  8
0
100
AcDbPolyline
 62
250
  6
CONTINUOUS
 90
10
 70
0
 10
65.6475606563
 20
39.078710371
 10
65.1557547364
 20
38.5931731386
 10
64.6621903208
 20
38.1014668008
 10
64.1680862531
 20
37.6048467438
 10
63.6750408412
 20
37.1049554966
 10
63.1839483596
 20
36.6027257205
 10
62.6950278321
 20
36.0983780746
 10
62.2092713612
 20
35.5929027823
 10
61.7284159494
 20
35.0880624045
 10
61.253880356
 20
34.5852935667
  0
LWPOLYLINE
  5
339
100
AcDbEntity
  8
0
100
AcDbPolyline
 62
250
  6
CONTINUOUS
 90
10
 70
0
 10
67.5831505429
 20
36.557251925
 10
67.699059964
 20
36.6709170485
 10
67.8089862572
 20
36.7742479585
 10
67.9107002594
 20
36.866406626
 10
68.0024470977
 20
36.9469319198
 10
68.0819342144
 20
37.0147256428
 10
68.1468200672
 20
37.068213456
 10
68.1959438887
 20
37.1066678529
 10
68.2288284228
 20
37.1299612981
 10
68.2449606997
 20
37.1378855709
  0
LWPOLYLINE
  5
33A
100
AcDbEntity
  8
0
100
AcDbPolyline
 62
250
  6
CONTINUOUS
 90
10
 70
0
 10
67.5885781684
 20
36.256403241
 10
67.7046592921
 20
36.3695088429
 10
67.8137540777
 20
36.4696536069
 10
67.9147745266
 20
36.5598412154
 10
68.0058927087
 20
36.6394254343
 10
68.0848584548
 20
36.7061788675
 10
68.1496864784
 20
36.7585533444
 10
68.1990771847
 20
36.7959056718
 10
68.2321968226
 20
36.8181090481
 10
68.2484215058
 20
36.8254150188
  0
LWPOLYLINE
  5
33B
100
AcDbEntity
  8
0
100
AcDbPolyline
 62
250
  6
CONTINUOUS
 90
10
 70
0
 10
59.5422691522
 20
23.8784300935
 10
60.0566865162
 20
24.2799756417
 10
60.5681117065
 20
24.6909909256
 10
61.0768031633
 20
25.1113754946
 10
61.5832473175
 20
25.5411231359
 10
62.0875655057
 20
25.9799369414
 10
62.5894976881
 20
26.4272577234
 10
63.0891497999
 20
26.8828444113
 10
63.587061801
 20
27.3467813687
 10
64.0837237915
 20
27.8189894555
  0
LWPOLYLINE
  5
33C
100
AcDbEntity
  8
0
100
AcDbPolyline
 62
250
  6
CONTINUOUS
 90
10
 70
0
 10
54.200374421
 20
22.4955473137
 10
54.0276572436
 20
22.4867574899
 10
53.8546872041
 20
22.4719258982
 10
53.6822170361
 20
22.4510525394
 10
53.5106616428
 20
22.4240336352
 10
53.3412647054
 20
22.3909729656
 10
53.1760042278
 20
22.3521818683
 10
53.0160521345
 20
22.3077641225
 10
52.861870051
 20
22.2576159496
 10
52.7143078798
 20
22.2017373497
  0
LWPOLYLINE
  5
33D
100
AcDbEntity
  8
0
100
AcDbPolyline
 62
250
  6
CONTINUOUS
 90
10
 70
0
 10
-54.2003739342
 20
22.4955472648
 10
-54.0276568381
 20
22.4867574405
 10
-53.8546868775
 20
22.4719258493
 10
-53.6822167852
 20
22.4510524922
 10
-53.5106614643
 20
22.4240335903
 10
-53.3412645947
 20
22.390972924
 10
-53.1760041782
 20
22.3521818327
 10
-53.0160521386
 20
22.3077640961
 10
-52.8618701014
 20
22.257615935
 10
-52.7143079692
 20
22.2017373497
  0
LWPOLYLINE
  5
33E
100
AcDbEntity
  8
0
100
AcDbPolyline
 62
7
  6
CONTINUOUS
 90
10
 70
0
 10
-6.2413231135
 20
22.50744288
 10
-6.1905321047
 20
22.4987792982
 10
-6.1432030157
 20
22.4829691321
 10
-6.0993358466
 20
22.4600123815
 10
-6.0576732738
 20
22.4285482373
 10
-6.019472621
 20
22.3899375086
 10
-5.9885058586
 20
22.3482626235
 10
-5.9660303102
 20
22.3048843912
 10
-5.9507886522
 20
22.2584420024
 10
-5.9427808847
 20
22.2089354572
  0
LWPOLYLINE
  5
33F
100
AcDbEntity
  8
0
100
AcDbPolyline
 62
250
  6
CONTINUOUS
 90
10
 70
0
 10
59.5423734997
 20
-23.8785762141
 10
58.9730551654
 20
-23.4487132027
 10
58.3951480244
 20
-23.0265949823
 10
57.8094614404
 20
-22.612802365
 10
57.2163589787
 20
-22.2076494629
 10
56.6173395981
 20
-21.8122428685
 10
56.0149123305
 20
-21.4281697889
 10
55.4107598494
 20
-21.0563046227
 10
54.8055499078
 20
-20.6968570548
 10
54.2003727763
 20
-20.350305614
  0
LWPOLYLINE
  5
340
100
AcDbEntity
  8
0
100
AcDbPolyline
 62
250
  6
CONTINUOUS
 90
10
 70
0
 10
59.5423734958
 20
-23.8785762041
 10
60.0567767533
 20
-24.2802590001
 10
60.5682242364
 20
-24.69133281
 10
61.0769319135
 20
-25.1116991416
 10
61.5833879578
 20
-25.541400383
 10
62.0877152076
 20
-25.9801788277
 10
62.5896361943
 20
-26.4274672552
 10
63.0892562178
 20
-26.8830073587
 10
63.5871209998
 20
-27.3468744378
 10
64.0837263938
 20
-27.8189918571
  0
LWPOLYLINE
  5
341
100
AcDbEntity
  8
0
100
AcDbPolyline
 62
250
  6
CONTINUOUS
 90
10
 70
0
 10
67.5884660885
 20
-36.2594256098
 10
67.7053355882
 20
-36.3718738301
 10
67.8147834046
 20
-36.4706883727
 10
67.915974559
 20
-36.5602035519
 10
68.0071425783
 20
-36.6397967264
 10
68.0859580792
 20
-36.7064606151
 10
68.1504573579
 20
-36.7585243105
 10
68.1994848689
 20
-36.7956946542
 10
68.2323310535
 20
-36.8179738257
 10
68.2484197556
 20
-36.8254067135
  0
LWPOLYLINE
  5
342
100
AcDbEntity
  8
0
100
AcDbPolyline
 62
250
  6
CONTINUOUS
 90
10
 70
0
 10
67.5831436216
 20
-36.555687546
 10
67.6987423524
 20
-36.6692149487
 10
67.8084038106
 20
-36.7725955837
 10
67.9099521871
 20
-36.8647546962
 10
68.0016740484
 20
-36.9450027964
 10
68.0813024018
 20
-37.0120504837
 10
68.1464497046
 20
-37.0644724945
 10
68.1958688767
 20
-37.1018612694
 10
68.2289996289
 20
-37.1243507922
 10
68.2452478043
 20
-37.1319521851
  0
LWPOLYLINE
  5
343
100
AcDbEntity
  8
0
100
AcDbPolyline
 62
250
  6
CONTINUOUS
 90
3
 70
0
 10
52.4864600217
 20
-25.3337608315
 10
52.9658001914
 20
-25.8102705059
 10
53.4353111272
 20
-26.2806146721
  0
LWPOLYLINE
  5
344
100
AcDbEntity
  8
0
100
AcDbPolyline
 62
250
  6
CONTINUOUS
 90
8
 70
0
 10
53.4353111272
 20
-26.2806146721
 10
53.8979169725
 20
-26.7478410256
 10
54.3579142365
 20
-27.2163984224
 10
54.8166339349
 20
-27.6877257917
 10
55.2723716481
 20
-28.1600578394
 10
55.7260553019
 20
-28.6342430131
 10
56.1813245134
 20
-29.1139489417
 10
56.6401502507
 20
-29.6011162397
  0
LWPOLYLINE
  5
345
100
AcDbEntity
  8
0
100
AcDbPolyline
 62
7
  6
CONTINUOUS
 90
10
 70
0
 10
59.5000008706
 20
-35.1949359515
 10
59.9406858299
 20
-35.657393338
 10
60.3837656341
 20
-36.1125593055
 10
60.8287031135
 20
-36.5603819808
 10
61.2750745469
 20
-37.0004796089
 10
61.7228922352
 20
-37.4327552446
 10
62.1726188428
 20
-37.8574075246
 10
62.6244690714
 20
-38.2742814204
 10
63.0783115361
 20
-38.6829143191
 10
63.5341807297
 20
-39.0830208591
  0
LWPOLYLINE
  5
346
100
AcDbEntity
  8
0
100
AcDbPolyline
 62
250
  6
CONTINUOUS
 90
10
 70
0
 10
61.2537572159
 20
-34.5853526348
 10
61.7262466982
 20
-35.0859586311
 10
62.2053658366
 20
-35.5890136373
 10
62.6897651839
 20
-36.0930968006
 10
63.177567585
 20
-36.5962710344
 10
63.667986932
 20
-37.0977434193
 10
64.1613576558
 20
-37.5978587194
 10
64.6569442383
 20
-38.0958570972
 10
65.1529315907
 20
-38.589890445
 10
65.6480772264
 20
-39.0786941513
  0
LWPOLYLINE
  5
347
100
AcDbEntity
  8
0
100
AcDbPolyline
 62
250
  6
CONTINUOUS
 90
3
 70
0
 10
61.2537853878
 20
-34.5853365143
 10
60.7323411422
 20
-34.0279088096
 10
60.2121190858
 20
-33.4677792805
  0
LWPOLYLINE
  5
348
100
AcDbEntity
  8
0
100
AcDbPolyline
 62
250
  6
CONTINUOUS
 90
7
 70
0
 10
59.4999078387
 20
-35.1948819193
 10
59.0258674074
 20
-34.6859001182
 10
58.5528061641
 20
-34.1671816428
 10
58.0807698929
 20
-33.6401381427
 10
57.6104804941
 20
-33.1070151432
 10
57.1412925772
 20
-32.5685779528
 10
56.671254072
 20
-32.0240986676
  0
LWPOLYLINE
  5
349
100
AcDbEntity
  8
0
100
AcDbPolyline
 62
250
  6
CONTINUOUS
 90
3
 70
0
 10
57.650251005
 20
-30.6868611808
 10
57.1432820446
 20
-30.1399045833
 10
56.6401231122
 20
-29.6011364606
  0
LWPOLYLINE
  5
34A
100
AcDbEntity
  8
0
100
AcDbPolyline
 62
250
  6
CONTINUOUS
 90
3
 70
0
 10
60.2121190858
 20
-33.4677792805
 10
59.1799736641
 20
-32.3486772858
 10
57.650251005
 20
-30.6868611808
  0
LWPOLYLINE
  5
34B
100
AcDbEntity
  8
0
100
AcDbPolyline
 62
250
  6
CONTINUOUS
 90
10
 70
0
 10
56.3252036807
 20
-35.5838190154
 10
55.8971042954
 20
-35.1087288075
 10
55.4745008799
 20
-34.6275067789
 10
55.0560974424
 20
-34.1390478966
 10
54.6395740126
 20
-33.6409334853
 10
54.2247365377
 20
-33.1332546744
 10
53.8130899544
 20
-32.6184449919
 10
53.4041892154
 20
-32.0967009371
 10
52.9958318279
 20
-31.5658670457
 10
52.586746302
 20
-31.0249701103
  0
LINE
  5
34C
100
AcDbEntity
  8
0
100
AcDbLine
 62
250
  6
CONTINUOUS
 10
52.108375067
 20
-26.7320101318
 11
51.1975411467
 21
-25.6933157562
  0
LWPOLYLINE
  5
34D
100
AcDbEntity
  8
0
100
AcDbPolyline
 62
250
  6
CONTINUOUS
 90
3
 70
0
 10
53.4566738595
 20
-28.2812308307
 10
53.0083310045
 20
-27.7645080604
 10
52.108375067
 20
-26.7320101318
  0
LWPOLYLINE
  5
34E
100
AcDbEntity
  8
0
100
AcDbPolyline
 62
250
  6
CONTINUOUS
 90
10
 70
0
 10
48.8511175879
 20
25.7004075554
 10
49.24208553
 20
26.2934673633
 10
49.6414974234
 20
26.8897455476
 10
50.048310541
 20
27.4877238154
 10
50.461317298
 20
28.0856300557
 10
50.8795541193
 20
28.6820387645
 10
51.3023647861
 20
29.2759170245
 10
51.7288539803
 20
29.8658444597
 10
52.1574247056
 20
30.4495012163
 10
52.5859507012
 20
31.0240089346
  0
LWPOLYLINE
  5
34F
100
AcDbEntity
  8
0
100
AcDbPolyline
 62
250
  6
CONTINUOUS
 90
10
 70
0
 10
52.5864932495
 20
31.0247303975
 10
52.9957026335
 20
31.5650710471
 10
53.403981655
 20
32.0955995252
 10
53.8126974955
 20
32.6172368613
 10
54.224166757
 20
33.1320516795
 10
54.6388604759
 20
33.6397585413
 10
55.0552980152
 20
34.1379173115
 10
55.4737580615
 20
34.6264999775
 10
55.896424216
 20
35.1077343342
 10
56.3245713033
 20
35.5827343856
  0
LWPOLYLINE
  5
350
100
AcDbEntity
  8
0
100
AcDbPolyline
 62
250
  6
CONTINUOUS
 90
3
 70
0
 10
54.8028807993
 20
29.842234328
 10
53.9048560222
 20
28.7993019721
 10
53.4569273779
 20
28.2814659454
  0
LWPOLYLINE
  5
351
100
AcDbEntity
  8
0
100
AcDbPolyline
 62
250
  6
CONTINUOUS
 90
10
 70
0
 10
63.6951839159
 20
30.998416927
 10
64.1384365363
 20
31.4414392946
 10
64.5790607797
 20
31.8859300607
 10
65.0171216462
 20
32.3319613154
 10
65.4527686486
 20
32.7797168398
 10
65.8858017093
 20
33.2290073999
 10
66.3155798336
 20
33.6791741682
 10
66.7418889686
 20
34.1299889953
 10
67.1649479503
 20
34.5816785488
 10
67.5847648931
 20
35.0342484816
  0
LWPOLYLINE
  5
352
100
AcDbEntity
  8
0
100
AcDbPolyline
 62
250
  6
CONTINUOUS
 90
10
 70
0
 10
63.6952205146
 20
30.9982610505
 10
63.1743748837
 20
30.4838344492
 10
62.6496546239
 20
29.971732979
 10
62.1224435843
 20
29.4635064162
 10
61.5954549361
 20
28.9619901183
 10
61.068829714
 20
28.4675596594
 10
60.5400420658
 20
27.9781255861
 10
60.0091627176
 20
27.4940861002
 10
59.4789025373
 20
27.0182717612
 10
58.9506436297
 20
26.55229585
  0
LWPOLYLINE
  5
353
100
AcDbEntity
  8
0
100
AcDbPolyline
 62
250
  6
CONTINUOUS
 90
10
 70
0
 10
64.0837190813
 20
27.8190902899
 10
64.4847685578
 20
28.2058394336
 10
64.8816593771
 20
28.5945168445
 10
65.2748716735
 20
28.9855792038
 10
65.6647971257
 20
29.3793839648
 10
66.0519604834
 20
29.7764175276
 10
66.4370378953
 20
30.1773829674
 10
66.82058649
 20
30.5829311116
 10
67.2030298855
 20
30.9935652382
 10
67.5848442701
 20
31.4098193854
  0
LWPOLYLINE
  5
354
100
AcDbEntity
  8
0
100
AcDbPolyline
 62
250
  6
CONTINUOUS
 90
10
 70
0
 10
6.0042384888
 20
25.7004012126
 10
5.624181878
 20
25.645338849
 10
5.2563467522
 20
25.5468475783
 10
4.9007331115
 20
25.4049027874
 10
4.5506374982
 20
25.2153238189
 10
4.2127633699
 20
24.9822219795
 10
3.9072210998
 20
24.7180203537
 10
3.6407141455
 20
24.426860025
 10
3.4065390494
 20
24.1045894248
 10
3.2046958114
 20
23.7512227631
  0
LWPOLYLINE
  5
355
100
AcDbEntity
  8
0
100
AcDbPolyline
 62
250
  6
CONTINUOUS
 90
10
 70
0
 10
6.2359067915
 20
24.1519881079
 10
6.0044330983
 20
24.1369661052
 10
5.7740843753
 20
24.094147901
 10
5.5492543368
 20
24.0241927829
 10
5.3339211736
 20
23.9278343209
 10
5.131477291
 20
23.8065286313
 10
4.9453043616
 20
23.6622015223
 10
4.7783873497
 20
23.4969453382
 10
4.632758346
 20
23.3133170827
 10
4.5099955549
 20
23.114475124
  0
LWPOLYLINE
  5
356
100
AcDbEntity
  8
0
100
AcDbPolyline
 62
7
  6
CONTINUOUS
 90
3
 70
0
 10
5.7701383726
 20
22.2045573436
 10
5.8619674335
 20
22.2065814731
 10
5.8971895851
 20
22.2089337318
  0
LWPOLYLINE
  5
357
100
AcDbEntity
  8
0
100
AcDbPolyline
 62
7
  6
CONTINUOUS
 90
3
 70
0
 10
-51.2298107682
 20
22.2045564055
 10
-51.137982184
 20
22.2065810375
 10
-51.1027602549
 20
22.2089344175
  0
LWPOLYLINE
  5
358
100
AcDbEntity
  8
0
100
AcDbPolyline
 62
7
  6
CONTINUOUS
 90
10
 70
0
 10
-50.995739103
 20
25.7003981386
 10
-51.0183348823
 20
25.7001888524
 10
-51.0408905622
 20
25.699843301
 10
-51.0634049982
 20
25.6993598652
 10
-51.0858770742
 20
25.6987369401
 10
-51.1083056444
 20
25.6979729373
 10
-51.1306895333
 20
25.6970662858
 10
-51.1530276128
 20
25.6960154292
 10
-51.1753188021
 20
25.6948188247
 10
-51.1975620095
 20
25.6934749452
  0
LINE
  5
359
100
AcDbEntity
  8
0
100
AcDbLine
 62
7
  6
CONTINUOUS
 10
5.4329094076
 20
22.2014071782
 11
5.7701383726
 21
22.2045573436
  0
LINE
  5
35A
100
AcDbEntity
  8
0
100
AcDbLine
 62
7
  6
CONTINUOUS
 10
-51.5670387506
 20
22.2014075676
 11
-51.2298107682
 21
22.2045564055
  0
LINE
  5
35B
100
AcDbEntity
  8
0
100
AcDbLine
 62
7
  6
CONTINUOUS
 10
52.7135983327
 20
22.2017372611
 11
52.2816892818
 21
22.199822543
  0
LINE
  5
35C
100
AcDbEntity
  8
0
100
AcDbLine
 62
7
  6
CONTINUOUS
 10
-4.2863515073
 20
22.2017372612
 11
-4.7182660332
 21
22.1998228383
  0
LINE
  5
35D
100
AcDbEntity
  8
0
100
AcDbLine
 62
7
  6
CONTINUOUS
 10
4.9572712577
 20
22.1997214741
 11
5.4329094076
 21
22.2014071782
  0
LINE
  5
35E
100
AcDbEntity
  8
0
100
AcDbLine
 62
7
  6
CONTINUOUS
 10
-52.0426767662
 20
22.1997247125
 11
-51.5670387506
 21
22.2014075676
  0
LINE
  5
35F
100
AcDbEntity
  8
0
100
AcDbLine
 62
250
  6
CONTINUOUS
 10
2.8452105891
 20
22.2017373732
 11
4.2856306458
 21
22.2017373732
  0
LINE
  5
360
100
AcDbEntity
  8
0
100
AcDbLine
 62
250
  6
CONTINUOUS
 10
-2.8452106784
 20
22.2017373732
 11
-4.2856307351
 21
22.2017373732
  0
LINE
  5
361
100
AcDbEntity
  8
0
100
AcDbLine
 62
250
  6
CONTINUOUS
 10
5.8983624287
 20
22.2089356795
 11
5.9427807953
 21
22.20893568
  0
LINE
  5
362
100
AcDbEntity
  8
0
100
AcDbLine
 62
250
  6
CONTINUOUS
 10
-5.898362518
 20
22.2089356795
 11
-5.9427808847
 21
22.20893568
  0
LINE
  5
363
100
AcDbEntity
  8
0
100
AcDbLine
 62
250
  6
CONTINUOUS
 10
-51.1015874114
 20
22.2089356795
 11
-51.0571690446
 21
22.20893568
  0
LINE
  5
364
100
AcDbEntity
  8
0
100
AcDbLine
 62
250
  6
CONTINUOUS
 10
51.1015873221
 20
22.2089356795
 11
51.0571689553
 21
22.20893568
  0
LINE
  5
365
100
AcDbEntity
  8
0
100
AcDbLine
 62
7
  6
CONTINUOUS
 10
50.7586617553
 20
22.50744288
 11
6.2412879954
 21
22.50744288
  0
LINE
  5
366
100
AcDbEntity
  8
0
100
AcDbLine
 62
7
  6
CONTINUOUS
 10
-6.2412880847
 20
22.50744288
 11
-50.7586618447
 21
22.50744288
  0
LINE
  5
367
100
AcDbEntity
  8
0
100
AcDbLine
 62
250
  6
CONTINUOUS
 10
6.2412879958
 20
22.5518612467
 11
50.7586617553
 21
22.5518612467
  0
LINE
  5
368
100
AcDbEntity
  8
0
100
AcDbLine
 62
250
  6
CONTINUOUS
 10
-6.2412880851
 20
22.5518612467
 11
-50.7586618447
 21
22.5518612467
  0
LINE
  5
369
100
AcDbEntity
  8
0
100
AcDbLine
 62
250
  6
CONTINUOUS
 10
-3.2046614358
 20
23.750845986
 11
3.2046613464
 21
23.750845986
  0
LINE
  5
36A
100
AcDbEntity
  8
0
100
AcDbLine
 62
250
  6
CONTINUOUS
 10
6.2357740006
 20
24.1519720259
 11
50.7640727835
 21
24.152177415
  0
LINE
  5
36B
100
AcDbEntity
  8
0
100
AcDbLine
 62
250
  6
CONTINUOUS
 10
-50.7640728729
 20
24.152177415
 11
-6.2358770565
 21
24.1521644958
  0
LINE
  5
36C
100
AcDbEntity
  8
0
100
AcDbLine
 62
250
  6
CONTINUOUS
 10
-28.4999749646
 20
25.7004012498
 11
48.8511175879
 21
25.7004075554
  0
LINE
  5
36D
100
AcDbEntity
  8
0
100
AcDbLine
 62
7
  6
CONTINUOUS
 10
48.8501691032
 20
25.7004005275
 11
50.9957390664
 21
25.7004001326
  0
LINE
  5
36E
100
AcDbEntity
  8
0
100
AcDbLine
 62
7
  6
CONTINUOUS
 10
-28.4999749649
 20
25.7004042738
 11
-49.0937876454
 21
25.7002998486
  0
LINE
  5
36F
100
AcDbEntity
  8
0
100
AcDbLine
 62
7
  6
CONTINUOUS
 10
-49.0937876454
 20
25.7002998486
 11
-50.9957384972
 21
25.7003247908
  0
LINE
  5
370
100
AcDbEntity
  8
0
100
AcDbLine
 62
7
  6
CONTINUOUS
 10
-4.7182660332
 20
22.1998228383
 11
-5.2015692765
 21
22.2002812084
  0
LINE
  5
371
100
AcDbEntity
  8
0
100
AcDbLine
 62
7
  6
CONTINUOUS
 10
52.2816892818
 20
22.199822543
 11
51.7983954037
 21
22.2002808062
  0
LWPOLYLINE
  5
372
100
AcDbEntity
  8
0
100
AcDbPolyline
 62
7
  6
CONTINUOUS
 90
3
 70
0
 10
-52.713598422
 20
22.2017372611
 10
-52.5085309275
 20
22.2004931282
 10
-52.0426767662
 20
22.1997247125
  0
LWPOLYLINE
  5
373
100
AcDbEntity
  8
0
100
AcDbPolyline
 62
7
  6
CONTINUOUS
 90
3
 70
0
 10
4.286351418
 20
22.2017372612
 10
4.4914181423
 20
22.2004912377
 10
4.9572712577
 20
22.1997214741
  0
LWPOLYLINE
  5
374
100
AcDbEntity
  8
0
100
AcDbPolyline
 62
7
  6
CONTINUOUS
 90
5
 70
0
 10
-5.2015692765
 20
22.2002812084
 10
-5.626276617
 20
22.2028607913
 10
-5.770150036
 20
22.2045599229
 10
-5.86197143
 20
22.2065877865
 10
-5.8971896734
 20
22.2089453892
  0
LWPOLYLINE
  5
375
100
AcDbEntity
  8
0
100
AcDbPolyline
 62
7
  6
CONTINUOUS
 90
5
 70
0
 10
51.7983954037
 20
22.2002808062
 10
51.3736907827
 20
22.2028595147
 10
51.2298106789
 20
22.2045564055
 10
51.1379820947
 20
22.2065810375
 10
51.1027601656
 20
22.2089344175
  0
LWPOLYLINE
  5
376
100
AcDbEntity
  8
0
100
AcDbPolyline
 62
7
  6
CONTINUOUS
 90
9
 70
0
 10
50.9957385751
 20
25.7003247888
 10
51.040883866
 20
25.6997739796
 10
51.0634021193
 20
25.6993748692
 10
51.0858799091
 20
25.6988741262
 10
51.1083139962
 20
25.6982553139
 10
51.1307017484
 20
25.6975020899
 10
51.1530399743
 20
25.6965982338
 10
51.1753249254
 20
25.695527664
 10
51.1975531695
 20
25.6942744065
  0
LWPOLYLINE
  5
377
100
AcDbEntity
  8
0
100
AcDbPolyline
 62
250
  6
CONTINUOUS
 90
13
 70
0
 10
3.204695984
 20
23.7508452284
 10
3.3633501203
 20
23.7471082452
 10
3.5269692164
 20
23.7357160775
 10
3.6868919767
 20
23.7167631027
 10
3.8330774599
 20
23.6915485519
 10
3.965432109
 20
23.6605482715
 10
4.0920345758
 20
23.6211729158
 10
4.212199575
 20
23.5711331639
 10
4.3184294359
 20
23.510510624
 10
4.4068763072
 20
23.4379479624
 10
4.4729424613
 20
23.3519259421
 10
4.5115216185
 20
23.2512513797
 10
4.5173737214
 20
23.134962223
  0
LWPOLYLINE
  5
378
100
AcDbEntity
  8
0
100
AcDbPolyline
 62
250
  6
CONTINUOUS
 90
10
 70
0
 10
64.0837216798
 20
-27.8190926956
 10
64.4851525173
 20
-28.2062621646
 10
64.8823117733
 20
-28.5952236867
 10
65.2756791969
 20
-28.9864420891
 10
65.6656226449
 20
-29.3802542772
 10
66.0526979267
 20
-29.7771784293
 10
66.4376583552
 20
-30.1779960276
 10
66.8210788662
 20
-30.583373847
 10
67.2033520892
 20
-30.9937828989
 10
67.5849573516
 20
-31.4097674607
  0
LWPOLYLINE
  5
379
100
AcDbEntity
  8
0
100
AcDbPolyline
 62
250
  6
CONTINUOUS
 90
10
 70
0
 10
63.6952226327
 20
-30.9982859628
 10
63.174477893
 20
-30.483836323
 10
62.6497973076
 20
-29.9717638824
 10
62.1225790481
 20
-29.4635985685
 10
61.5955561695
 20
-28.962158481
 10
61.0688851237
 20
-28.4677976793
 10
60.5400488176
 20
-27.9784001181
 10
60.0091310813
 20
-27.4943463996
 10
59.4788589951
 20
-27.0184592864
 10
58.9506254141
 20
-26.5523373245
  0
LWPOLYLINE
  5
37A
100
AcDbEntity
  8
0
100
AcDbPolyline
 62
250
  6
CONTINUOUS
 90
10
 70
0
 10
67.5847629623
 20
-35.034048431
 10
67.1650986243
 20
-34.5816145117
 10
66.7425471798
 20
-34.1304194861
 10
66.3170844266
 20
-33.6804638205
 10
65.8889806981
 20
-33.232038888
 10
65.4579503757
 20
-32.7848411683
 10
65.0231432724
 20
-32.3379763631
 10
64.5842805214
 20
-31.891135735
 10
64.141643922
 20
-31.4445989631
 10
63.6952050193
 20
-30.9983607254
  0
LINE
  5
37B
100
AcDbEntity
  8
0
100
AcDbLine
 62
250
  6
CONTINUOUS
 10
54.3530020524
 20
-29.3189755699
 11
53.4566738595
 21
-28.2812308307
  0
LINE
  5
37C
100
AcDbEntity
  8
0
100
AcDbLine
 62
250
  6
CONTINUOUS
 10
55.255000266
 20
-30.369569068
 11
54.3530020524
 21
-29.3189755699
  0
LINE
  5
37D
100
AcDbEntity
  8
0
100
AcDbLine
 62
250
  6
CONTINUOUS
 10
56.671254072
 20
-32.0240986676
 11
55.2550509831
 21
-30.3695472764
  0
LWPOLYLINE
  5
37E
100
AcDbEntity
  8
0
100
AcDbPolyline
 62
250
  6
CONTINUOUS
 90
10
 70
0
 10
52.586746318
 20
-31.0249700986
 10
52.1603913198
 20
-30.4540300634
 10
51.7339553612
 20
-29.8737760702
 10
51.3087132653
 20
-29.2860572819
 10
50.8859063667
 20
-28.6926769649
 10
50.466743639
 20
-28.0953919399
 10
50.0524197692
 20
-27.4959007691
 10
49.6441131369
 20
-26.8958466443
 10
49.2429697959
 20
-26.296829291
 10
48.8501030184
 20
-25.700405501
  0
LINE
  5
37F
100
AcDbEntity
  8
0
100
AcDbLine
 62
250
  6
CONTINUOUS
 10
28.4999748753
 20
39.7484478394
 11
28.4999748972
 21
22.5522245626
  0
LINE
  5
380
100
AcDbEntity
  8
0
100
AcDbLine
 62
250
  6
CONTINUOUS
 10
28.4999748753
 20
-39.7484453473
 11
28.4999748974
 21
-22.5522245626
  0
LWPOLYLINE
  5
381
100
AcDbEntity
  8
0
100
AcDbPolyline
 62
7
  6
CONTINUOUS
 90
10
 70
0
 10
-50.7640424334
 20
24.1519880919
 10
-51.0980908611
 20
24.1221295197
 10
-51.4262361996
 20
24.0339216635
 10
-51.7354942213
 20
23.8895757959
 10
-52.0154407342
 20
23.6937956199
 10
-52.2569144007
 20
23.4522476188
 10
-52.4525418705
 20
23.1722774911
 10
-52.5964885727
 20
22.8631424888
 10
-52.684093548
 20
22.5353196087
 10
-52.713689185
 20
22.201730707
  0
LWPOLYLINE
  5
382
100
AcDbEntity
  8
0
100
AcDbPolyline
 62
7
  6
CONTINUOUS
 90
10
 70
0
 10
-51.1975568458
 20
25.6934705715
 10
-51.3497879315
 20
25.6799639425
 10
-51.5002786906
 20
25.6595948891
 10
-51.64886437
 20
25.6324650268
 10
-51.7953976239
 20
25.5986547582
 10
-51.9396383876
 20
25.5582661257
 10
-52.0810503809
 20
25.5115080897
 10
-52.2193377166
 20
25.4585502725
 10
-52.3545830693
 20
25.3994198362
 10
-52.4866992272
 20
25.3341824125
  0
LINE
  5
383
100
AcDbEntity
  8
0
100
AcDbLine
 62
250
  6
CONTINUOUS
 10
32.2237299082
 20
31.6477206393
 11
-28.4999749646
 21
31.6473169066
  0
LINE
  5
384
100
AcDbEntity
  8
0
100
AcDbLine
 62
250
  6
CONTINUOUS
 10
-33.0930204335
 20
31.6466344283
 11
-28.4999781557
 21
31.6472633692
  0
LWPOLYLINE
  5
385
100
AcDbEntity
  8
0
100
AcDbPolyline
 62
250
  6
CONTINUOUS
 90
14
 70
0
 10
32.2237299082
 20
31.6477206393
 10
34.0232305366
 20
31.6438380119
 10
35.7803285747
 20
31.6322194627
 10
37.4957612784
 20
31.6115599776
 10
39.1718036119
 20
31.5821562775
 10
40.8082656816
 20
31.5452604816
 10
42.4053464239
 20
31.5015356633
 10
43.9658637387
 20
31.4512901891
 10
45.4894447698
 20
31.3951094205
 10
46.9764352188
 20
31.3332754343
 10
48.4303924681
 20
31.265703292
 10
49.8507087198
 20
31.1935500582
 10
51.2404096047
 20
31.1153213071
 10
52.5864932495
 20
31.0247303975
  0
LWPOLYLINE
  5
386
100
AcDbEntity
  8
0
100
AcDbPolyline
 62
7
  6
CONTINUOUS
 90
10
 70
0
 10
51.1976705309
 20
25.6934629862
 10
51.3498882259
 20
25.6799571883
 10
51.5003656442
 20
25.6595890341
 10
51.6489380354
 20
25.6324601403
 10
51.7954577947
 20
25.5986509787
 10
51.9396851384
 20
25.5582635471
 10
52.0810845581
 20
25.5115065311
 10
52.2193603663
 20
25.4585493495
 10
52.3545949324
 20
25.3994191442
 10
52.4867010016
 20
25.334181439
  0
LWPOLYLINE
  5
387
100
AcDbEntity
  8
0
100
AcDbPolyline
 62
7
  6
CONTINUOUS
 90
10
 70
0
 10
50.7640423441
 20
24.1519880919
 10
51.0981355324
 20
24.1221225495
 10
51.4263067165
 20
24.0338975287
 10
51.7355704339
 20
23.88953357
 10
52.0154998372
 20
23.6937479036
 10
52.2569460178
 20
23.4522115609
 10
52.4525547054
 20
23.1722569776
 10
52.596493204
 20
22.8631316737
 10
52.6840945297
 20
22.535316082
 10
52.7136890956
 20
22.201730707
  0
LWPOLYLINE
  5
388
100
AcDbEntity
  8
0
100
AcDbPolyline
 62
7
  6
CONTINUOUS
 90
10
 70
0
 10
50.7586625556
 20
22.50744288
 10
50.8082014826
 20
22.4993873079
 10
50.8546448844
 20
22.484144865
 10
50.897992761
 20
22.4617155513
 10
50.9395749284
 20
22.4308887787
 10
50.9780615706
 20
22.3928751352
 10
51.0094632393
 20
22.3513063853
 10
51.0324501182
 20
22.3073931168
 10
51.0483520235
 20
22.2599247418
 10
51.0571689553
 20
22.2089012603
  0
LWPOLYLINE
  5
389
100
AcDbEntity
  8
0
100
AcDbPolyline
 62
250
  6
CONTINUOUS
 90
10
 70
0
 10
65.9212373412
 20
39.715958813
 10
65.912095289
 20
39.7006027001
 10
65.8865024165
 20
39.6698075312
 10
65.844614186
 20
39.6238275001
 10
65.7864536064
 20
39.5627830143
 10
65.7127721021
 20
39.4875445364
 10
65.6257038089
 20
39.4003220807
 10
65.5272246954
 20
39.3031203262
 10
65.4185135191
 20
39.1971674591
 10
65.3012432798
 20
39.0841860075
  0
LWPOLYLINE
  5
38A
100
AcDbEntity
  8
0
100
AcDbPolyline
 62
250
  6
CONTINUOUS
 90
11
 70
0
 10
-52.586590369
 20
31.0244045754
 10
-50.8814195601
 20
31.1357597711
 10
-49.1169062761
 20
31.2323858731
 10
-47.3028427776
 20
31.3195764989
 10
-45.4393563062
 20
31.3977722002
 10
-43.5251031744
 20
31.4665804322
 10
-41.5543708727
 20
31.5258634036
 10
-39.5269287656
 20
31.5748016499
 10
-37.4432342385
 20
31.6123264652
 10
-35.2990476439
 20
31.6362781895
 10
-33.0930204335
 20
31.6466344283
  0
LWPOLYLINE
  5
38B
100
AcDbEntity
  8
0
100
AcDbPolyline
 62
250
  6
CONTINUOUS
 90
4
 70
0
 10
-50.0398084056
 20
35.7407924935
 10
-52.1815748734
 20
35.6946255098
 10
-54.2754699619
 20
35.6445465978
 10
-56.3244125673
 20
35.5829538049
  0
LINE
  5
38C
100
AcDbEntity
  8
0
100
AcDbLine
 62
250
  6
CONTINUOUS
 10
-68.4999397647
 20
36.9999672828
 11
-68.2484190021
 21
36.99996744
  0
LINE
  5
38D
100
AcDbEntity
  8
0
100
AcDbLine
 62
250
  6
CONTINUOUS
 10
68.2484189128
 20
36.99996744
 11
68.4999396754
 21
36.9999672828
  0
LWPOLYLINE
  5
38E
100
AcDbEntity
  8
0
100
AcDbPolyline
 62
250
  6
CONTINUOUS
 90
9
 70
0
 10
33.6437517942
 20
35.9117578091
 10
-33.6608174827
 20
35.9116975686
 10
-36.1595668228
 20
35.9081443352
 10
-38.602635882
 20
35.8966542294
 10
-40.991212311
 20
35.8771409037
 10
-43.3288704319
 20
35.8512201361
 10
-45.6156839394
 20
35.8195708817
 10
-47.8515368745
 20
35.7825718679
 10
-50.0398084056
 20
35.7407924935
  0
LWPOLYLINE
  5
38F
100
AcDbEntity
  8
0
100
AcDbPolyline
 62
250
  6
CONTINUOUS
 90
9
 70
0
 10
52.1672701773
 20
35.6929984495
 10
50.020128429
 20
35.7396193602
 10
47.8278234987
 20
35.7821718824
 10
45.5891827295
 20
35.8198105271
 10
43.3010892597
 20
35.8517033042
 10
40.9634922967
 20
35.8775223165
 10
38.5764560479
 20
35.8968604907
 10
36.1368842207
 20
35.9082338239
 10
33.6437517942
 20
35.9117578091
  0
LWPOLYLINE
  5
390
100
AcDbEntity
  8
0
100
AcDbPolyline
 62
250
  6
CONTINUOUS
 90
3
 70
0
 10
56.3245713033
 20
35.5827343856
 10
54.2677769702
 20
35.643135695
 10
52.1672701773
 20
35.6929984495
  0
LWPOLYLINE
  5
391
100
AcDbEntity
  8
0
100
AcDbPolyline
 62
250
  6
CONTINUOUS
 90
10
 70
0
 10
52.5864932494
 20
31.0247303964
 10
52.9050831487
 20
30.9880864556
 10
53.2194997455
 20
30.9426447089
 10
53.5282614587
 20
30.8878711472
 10
53.8315164458
 20
30.8236889769
 10
54.1291873612
 20
30.7504031048
 10
54.4208578985
 20
30.6682532249
 10
54.7058166915
 20
30.5773906137
 10
54.9840095048
 20
30.4777675703
 10
55.2550183375
 20
30.3695748642
  0
LWPOLYLINE
  5
392
100
AcDbEntity
  8
0
100
AcDbPolyline
 62
250
  6
CONTINUOUS
 90
10
 70
0
 10
65.9212379389
 20
-39.7159631716
 10
65.9121648567
 20
-39.7006016933
 10
65.8866051754
 20
-39.6698092974
 10
65.8447172514
 20
-39.623839385
 10
65.7865084029
 20
-39.5628159595
 10
65.7127566457
 20
-39.4876047675
 10
65.6256540975
 20
-39.4004002833
 10
65.5271830649
 20
-39.3031963365
 10
65.4184906353
 20
-39.1972190862
 10
65.3012398823
 20
-39.084185658
  0
LWPOLYLINE
  5
393
100
AcDbEntity
  8
0
100
AcDbPolyline
 62
250
  6
CONTINUOUS
 90
6
 70
0
 10
-65.6475098533
 20
39.0789205705
 10
-65.6096311147
 20
39.0811569454
 10
-65.571567945
 20
39.0827066114
 10
-65.5333377014
 20
39.0837097698
 10
-65.4949526175
 20
39.0843023853
 10
-65.4564277372
 20
39.0845829666
  0
LWPOLYLINE
  5
394
100
AcDbEntity
  8
0
100
AcDbPolyline
 62
250
  6
CONTINUOUS
 90
3
 70
0
 10
35.7786951083
 20
39.0824602111
 10
32.1617017351
 20
39.0780844357
 10
28.4999754109
 20
39.0823351899
  0
LINE
  5
395
100
AcDbEntity
  8
0
100
AcDbLine
 62
250
  6
CONTINUOUS
 10
-60.3370589805
 20
39.0817853939
 11
-35.7787840652
 21
39.0824606286
  0
LINE
  5
396
100
AcDbEntity
  8
0
100
AcDbLine
 62
7
  6
CONTINUOUS
 10
-28.4999749639
 20
39.0841305406
 11
28.4999748746
 21
39.0841484628
  0
LINE
  5
397
100
AcDbEntity
  8
0
100
AcDbLine
 62
250
  6
CONTINUOUS
 10
-65.4999422476
 20
39.7484440374
 11
-28.4999749488
 21
39.7484440374
  0
LINE
  5
398
100
AcDbEntity
  8
0
100
AcDbLine
 62
250
  6
CONTINUOUS
 10
65.4999421569
 20
39.7484440374
 11
28.4999748753
 21
39.7484440374
  0
LINE
  5
399
100
AcDbEntity
  8
0
100
AcDbLine
 62
7
  6
CONTINUOUS
 10
28.4999748753
 20
39.7484440374
 11
-28.4999749488
 21
39.7484440374
  0
LINE
  5
39A
100
AcDbEntity
  8
0
100
AcDbLine
 62
7
  6
CONTINUOUS
 10
-65.4999217314
 20
39.9999648
 11
65.499921353
 21
39.9999648
  0
LWPOLYLINE
  5
39B
100
AcDbEntity
  8
0
100
AcDbPolyline
 62
250
  6
CONTINUOUS
 90
3
 70
0
 10
-35.7787840652
 20
39.0824606286
 10
-32.1617481886
 20
39.0780648186
 10
-28.4999755002
 20
39.0823284469
  0
LINE
  5
39C
100
AcDbEntity
  8
0
100
AcDbLine
 62
250
  6
CONTINUOUS
 10
-65.4564277372
 20
39.0845829666
 11
-65.3790370347
 21
39.0845543433
  0
LWPOLYLINE
  5
39D
100
AcDbEntity
  8
0
100
AcDbPolyline
 62
250
  6
CONTINUOUS
 90
4
 70
0
 10
65.4564590575
 20
39.084702928
 10
60.75643475
 20
39.0840222268
 10
60.3369083637
 20
39.0817848807
 10
35.7786951083
 20
39.0824602111
  0
LINE
  5
39E
100
AcDbEntity
  8
0
100
AcDbLine
 62
250
  6
CONTINUOUS
 10
-65.3790370347
 20
39.0845543433
 11
-60.7565900139
 21
39.0840224534
  0
LINE
  5
39F
100
AcDbEntity
  8
0
100
AcDbLine
 62
250
  6
CONTINUOUS
 10
-60.7565900139
 20
39.0840224534
 11
-60.3370589805
 21
39.0817853939
  0
LWPOLYLINE
  5
3A0
100
AcDbEntity
  8
0
100
AcDbPolyline
 62
250
  6
CONTINUOUS
 90
6
 70
0
 10
65.4564590575
 20
39.084702928
 10
65.4949629677
 20
39.0843941825
 10
65.5333263711
 20
39.083680149
 10
65.5715570277
 20
39.0825043033
 10
65.6096336561
 20
39.0808122659
 10
65.6475498074
 20
39.0785503459
  0
LWPOLYLINE
  5
3A1
100
AcDbEntity
  8
0
100
AcDbPolyline
 62
250
  6
CONTINUOUS
 90
10
 70
0
 10
-59.4999143354
 20
35.1948440085
 10
-59.1642587743
 20
35.268120722
 10
-58.8237012698
 20
35.3318982641
 10
-58.478183481
 20
35.387092905
 10
-58.1280986302
 20
35.4346180118
 10
-57.7739929953
 20
35.4752788443
 10
-57.4165318383
 20
35.5098311507
 10
-57.0559520902
 20
35.538985328
 10
-56.691693711
 20
35.5630005689
 10
-56.3247051306
 20
35.5832735874
  0
LWPOLYLINE
  5
3A2
100
AcDbEntity
  8
0
100
AcDbPolyline
 62
250
  6
CONTINUOUS
 90
10
 70
0
 10
59.4999580755
 20
35.1948580397
 10
59.1659012493
 20
35.2677525959
 10
58.8265889371
 20
35.3313510865
 10
58.4819087262
 20
35.3864528581
 10
58.1322779156
 20
35.4339470856
 10
57.7782411418
 20
35.4746019784
 10
57.4204130709
 20
35.5091540371
 10
57.058986189
 20
35.538326952
 10
56.6935072357
 20
35.5626416223
 10
56.3248455533
 20
35.5831925741
  0
LWPOLYLINE
  5
3A3
100
AcDbEntity
  8
0
100
AcDbPolyline
 62
250
  6
CONTINUOUS
 90
10
 70
0
 10
51.1026141743
 20
22.2089344315
 10
51.0975430086
 20
22.2649705807
 10
51.0825756689
 20
22.32102615
 10
51.0581500004
 20
22.3749267828
 10
51.0244222822
 20
22.4249276899
 10
50.9818113485
 20
22.4688273031
 10
50.9319290757
 20
22.5044307217
 10
50.8768419301
 20
22.530557782
 10
50.8182988201
 20
22.5465097251
 10
50.758659286
 20
22.5518661679
  0
LWPOLYLINE
  5
3A4
100
AcDbEntity
  8
0
100
AcDbPolyline
 62
250
  6
CONTINUOUS
 90
10
 70
0
 10
50.9957390664
 20
-25.7004001326
 10
50.9885663194
 20
-25.5189995756
 10
50.9766614172
 20
-25.3378160127
 10
50.9600243601
 20
-25.1575965022
 10
50.9385349251
 20
-24.9787004104
 10
50.9123133362
 20
-24.8023796645
 10
50.8817202645
 20
-24.6306787748
 10
50.8468759332
 20
-24.4647432761
 10
50.8076601188
 20
-24.3049203664
 10
50.7640728212
 20
-24.1519680352
  0
LWPOLYLINE
  5
3A5
100
AcDbEntity
  8
0
100
AcDbPolyline
 62
250
  6
CONTINUOUS
 90
3
 70
0
 10
50.7620320269
 20
-22.6770833879
 10
50.7604850888
 20
-22.5860368455
 10
50.7586592767
 20
-22.5515570988
  0
LINE
  5
3A6
100
AcDbEntity
  8
0
100
AcDbLine
 62
250
  6
CONTINUOUS
 10
50.7643282701
 20
-23.0059548546
 11
50.7620320269
 21
-22.6770833879
  0
LINE
  5
3A7
100
AcDbEntity
  8
0
100
AcDbLine
 62
250
  6
CONTINUOUS
 10
50.7640727835
 20
24.152177415
 11
50.7654392856
 21
23.4662046092
  0
LINE
  5
3A8
100
AcDbEntity
  8
0
100
AcDbLine
 62
250
  6
CONTINUOUS
 10
50.7586617553
 20
22.5518612467
 11
50.7586617553
 21
22.50744288
  0
LINE
  5
3A9
100
AcDbEntity
  8
0
100
AcDbLine
 62
250
  6
CONTINUOUS
 10
50.7586617553
 20
-22.5518612467
 11
50.7586617553
 21
-22.50744288
  0
LINE
  5
3AA
100
AcDbEntity
  8
0
100
AcDbLine
 62
7
  6
CONTINUOUS
 10
51.0571689553
 20
22.20893568
 11
51.0571689553
 21
-22.20893568
  0
LINE
  5
3AB
100
AcDbEntity
  8
0
100
AcDbLine
 62
250
  6
CONTINUOUS
 10
51.1015873221
 20
-22.20893568
 11
51.1015873221
 21
22.2089356795
  0
LINE
  5
3AC
100
AcDbEntity
  8
0
100
AcDbLine
 62
250
  6
CONTINUOUS
 10
52.7143078804
 20
-22.20173735
 11
52.7135983327
 21
22.2017372611
  0
LINE
  5
3AD
100
AcDbEntity
  8
0
100
AcDbLine
 62
250
  6
CONTINUOUS
 10
50.7653736763
 20
-23.7070190138
 11
50.7643282701
 21
-23.0059548546
  0
LINE
  5
3AE
100
AcDbEntity
  8
0
100
AcDbLine
 62
250
  6
CONTINUOUS
 10
50.7640727835
 20
-24.152177415
 11
50.7653736763
 21
-23.7070190138
  0
LWPOLYLINE
  5
3AF
100
AcDbEntity
  8
0
100
AcDbPolyline
 62
250
  6
CONTINUOUS
 90
5
 70
0
 10
50.7654392856
 20
23.4662046092
 10
50.7633005875
 20
22.819018846
 10
50.7620320269
 20
22.6770833879
 10
50.7604850888
 20
22.5860368455
 10
50.7586592767
 20
22.5515570988
  0
LWPOLYLINE
  5
3B0
100
AcDbEntity
  8
0
100
AcDbPolyline
 62
250
  6
CONTINUOUS
 90
10
 70
0
 10
50.9957390664
 20
25.7004001326
 10
50.9885663194
 20
25.5189995756
 10
50.9766614172
 20
25.3378160127
 10
50.9600243601
 20
25.1575965022
 10
50.9385349251
 20
24.9787004104
 10
50.9123133362
 20
24.8023796645
 10
50.8817202645
 20
24.6306787748
 10
50.8468759332
 20
24.4647432761
 10
50.8076601188
 20
24.3049203664
 10
50.7640728212
 20
24.1519680352
  0
LWPOLYLINE
  5
3B1
100
AcDbEntity
  8
0
100
AcDbPolyline
 62
250
  6
CONTINUOUS
 90
10
 70
0
 10
51.1021038773
 20
-22.2089330658
 10
51.097062498
 20
-22.2655019637
 10
51.0819638931
 20
-22.3219238865
 10
51.0571800407
 20
-22.3760685439
 10
51.0230115266
 20
-22.4259756943
 10
50.9803235755
 20
-22.4696520577
 10
50.9307315733
 20
-22.5050280216
 10
50.8758833028
 20
-22.5307947037
 10
50.8177392364
 20
-22.5465432398
 10
50.7586614578
 20
-22.5518616678
  0
LWPOLYLINE
  5
3B2
100
AcDbEntity
  8
0
100
AcDbPolyline
 62
7
  6
CONTINUOUS
 90
10
 70
0
 10
52.4864373526
 20
-25.3337727446
 10
52.8013634975
 20
-25.1450907956
 10
53.0918080637
 20
-24.9218913744
 10
53.3540058604
 20
-24.6680077102
 10
53.5839087856
 20
-24.3883990369
 10
53.779606984
 20
-24.0865900692
 10
53.9397158196
 20
-23.764472038
 10
54.063378
 20
-23.4229231019
 10
54.148515222
 20
-23.0657450236
 10
54.1933206938
 20
-22.6975349085
  0
LWPOLYLINE
  5
3B3
100
AcDbEntity
  8
0
100
AcDbPolyline
 62
250
  6
CONTINUOUS
 90
10
 70
0
 10
55.2550335148
 20
-30.369554618
 10
54.9836640124
 20
-30.4779469062
 10
54.7054843237
 20
-30.577594849
 10
54.420498717
 20
-30.6685063571
 10
54.1287302833
 20
-30.7507270096
 10
53.8312888305
 20
-30.8239579352
 10
53.5281001022
 20
-30.8881486382
 10
53.2191358123
 20
-30.9432416302
 10
52.9051027692
 20
-30.9889557712
 10
52.586746318
 20
-31.0249700986
  0
LWPOLYLINE
  5
3B4
100
AcDbEntity
  8
0
100
AcDbPolyline
 62
7
  6
CONTINUOUS
 90
6
 70
0
 43
0.3500000006
 10
-1.392857224
 20
48.7499647064
 10
-0.3214286038
 20
48.7499647064
 10
-0.1071428974
 20
48.9642491913
 10
-0.1071428974
 20
50.0356806793
 10
-0.5357143278
 20
50.464249649
 10
-0.9642857759
 20
50.464249649
  0
LWPOLYLINE
  5
3B5
100
AcDbEntity
  8
0
100
AcDbPolyline
 62
250
  6
CONTINUOUS
 90
10
 70
0
 10
65.6475498074
 20
39.0785503459
 10
66.0444518439
 20
39.0118154278
 10
66.4148186044
 20
38.8726763943
 10
66.7492151767
 20
38.6683432623
 10
67.0369561958
 20
38.4076131932
 10
67.2690664349
 20
38.1018507456
 10
67.4423556529
 20
37.7550639433
 10
67.550875325
 20
37.3720097772
 10
67.5841164107
 20
36.9675101597
 10
67.5831505429
 20
36.557251925
  0
LWPOLYLINE
  5
3B6
100
AcDbEntity
  8
0
100
AcDbPolyline
 62
7
  6
CONTINUOUS
 90
10
 70
0
 10
52.4867010016
 20
25.334181439
 10
52.8028987432
 20
25.1445463913
 10
53.0939566692
 20
24.9204030842
 10
53.3562218822
 20
24.6658288497
 10
53.5856811041
 20
24.3860727121
 10
53.7807075203
 20
24.0846703786
 10
53.9402783099
 20
23.7630858316
 10
54.0636087796
 20
23.421988754
 10
54.1485439262
 20
23.065327883
 10
54.1932889009
 20
22.6976800659
  0
LWPOLYLINE
  5
3B7
100
AcDbEntity
  8
0
100
AcDbPolyline
 62
7
  6
CONTINUOUS
 90
10
 70
0
 10
54.1929445115
 20
22.69765613
 10
54.1943587335
 20
22.6753248077
 10
54.1956263524
 20
22.6529616498
 10
54.1967471008
 20
22.6305671673
 10
54.1977206755
 20
22.6081427583
 10
54.1985468559
 20
22.5856880526
 10
54.1992254454
 20
22.5632009036
 10
54.199756141
 20
22.5406809342
 10
54.2001385914
 20
22.5181295439
 10
54.2003724751
 20
22.4955472473
  0
LINE
  5
3B8
100
AcDbEntity
  8
0
100
AcDbLine
 62
250
  6
CONTINUOUS
 10
54.2003727763
 20
-20.350305614
 11
54.2003767404
 21
0.0000004756
  0
LINE
  5
3B9
100
AcDbEntity
  8
0
100
AcDbLine
 62
7
  6
CONTINUOUS
 10
54.2002459855
 20
22.4955463003
 11
54.2003798054
 21
0.0000000001
  0
LINE
  5
3BA
100
AcDbEntity
  8
0
100
AcDbLine
 62
7
  6
CONTINUOUS
 10
54.2002551493
 20
-22.4955463651
 11
54.2003327773
 21
-20.3502831321
  0
LWPOLYLINE
  5
3BB
100
AcDbEntity
  8
0
100
AcDbPolyline
 62
7
  6
CONTINUOUS
 90
10
 70
0
 10
54.1936119893
 20
-22.6972086427
 10
54.1949171919
 20
-22.6754015487
 10
54.1960799867
 20
-22.6530455157
 10
54.1970960545
 20
-22.6304016823
 10
54.1979580642
 20
-22.607821766
 10
54.1986681971
 20
-22.5854501557
 10
54.1992421785
 20
-22.5630762089
 10
54.1996913159
 20
-22.5406046103
 10
54.200024677
 20
-22.5181012458
 10
54.2002551493
 20
-22.4955463651
  0
LWPOLYLINE
  5
3BC
100
AcDbEntity
  8
0
100
AcDbPolyline
 62
7
  6
CONTINUOUS
 90
10
 70
0
 10
52.7143204794
 20
-22.2017373417
 10
52.6837849849
 20
-22.5327371493
 10
52.5958387587
 20
-22.8630890226
 10
52.4518324826
 20
-23.1767213905
 10
52.2522479925
 20
-23.4609271799
 10
52.0047250523
 20
-23.7071163341
 10
51.7202899568
 20
-23.9030703256
 10
51.4097025346
 20
-24.0420944925
 10
51.0857524168
 20
-24.1250194381
 10
50.7640715771
 20
-24.1519845451
  0
LWPOLYLINE
  5
3BD
100
AcDbEntity
  8
0
100
AcDbPolyline
 62
7
  6
CONTINUOUS
 90
10
 70
0
 10
51.0571689553
 20
-22.2089364821
 10
51.049111802
 20
-22.2584785607
 10
51.0338677767
 20
-22.3049242878
 10
51.0114368792
 20
-22.3482736637
 10
50.9806079943
 20
-22.3898564533
 10
50.9425922373
 20
-22.4283428915
 10
50.901022954
 20
-22.4597436828
 10
50.8571112596
 20
-22.4827290621
 10
50.8096460389
 20
-22.4986287945
 10
50.7586272919
 20
-22.50744288
  0
LINE
  5
3BE
100
AcDbEntity
  8
0
100
AcDbLine
 62
7
  6
CONTINUOUS
 10
68.4999396754
 20
3.6749773271
 11
68.3895055868
 21
3.5
  0
LWPOLYLINE
  5
3BF
100
AcDbEntity
  8
0
100
AcDbPolyline
 62
250
  6
CONTINUOUS
 90
10
 70
0
 10
56.6401502507
 20
-29.6011162397
 10
56.4997846072
 20
-29.6988170772
 10
56.3560185523
 20
-29.7935026054
 10
56.2087826318
 20
-29.8851899403
 10
56.0580243765
 20
-29.9738727414
 10
55.9038075535
 20
-30.0594898343
 10
55.7463247902
 20
-30.1419142126
 10
55.5856625413
 20
-30.2210896114
 10
55.4218619895
 20
-30.2969893501
 10
55.255000266
 20
-30.369569068
  0
LWPOLYLINE
  5
3C0
100
AcDbEntity
  8
0
100
AcDbPolyline
 62
250
  6
CONTINUOUS
 90
10
 70
0
 10
61.2537666649
 20
-34.5853479317
 10
61.0743867936
 20
-34.6709257397
 10
60.890181037
 20
-34.7515335236
 10
60.7016114043
 20
-34.8275022692
 10
60.509454236
 20
-34.8990209803
 10
60.3140565034
 20
-34.9663160193
 10
60.1153247592
 20
-35.0294853811
 10
59.9133055504
 20
-35.0885906824
 10
59.7081342201
 20
-35.1436968907
 10
59.4999078387
 20
-35.1948819193
  0
LWPOLYLINE
  5
3C1
100
AcDbEntity
  8
0
100
AcDbPolyline
 62
250
  6
CONTINUOUS
 90
10
 70
0
 10
61.2537908568
 20
34.5853351946
 10
61.0744450816
 20
34.67092185
 10
60.8902457894
 20
34.7515175946
 10
60.7016757202
 20
34.8274733817
 10
60.5095218111
 20
34.8989902263
 10
60.3141270839
 20
34.9662927106
 10
60.1153927549
 20
35.0294741852
 10
59.9133618296
 20
35.0885913783
 10
59.7081683299
 20
35.1437052517
 10
59.4999097559
 20
35.1948915165
  0
LWPOLYLINE
  5
3C2
100
AcDbEntity
  8
0
100
AcDbPolyline
 62
250
  6
CONTINUOUS
 90
10
 70
0
 10
56.6401232356
 20
29.6011347277
 10
56.4997393782
 20
29.6988476948
 10
56.3559815991
 20
29.7935263128
 10
56.2087526766
 20
29.8852066519
 10
56.0579905033
 20
29.9738895531
 10
55.9037657147
 20
30.0595099298
 10
55.7462745429
 20
30.1419380221
 10
55.5856058642
 20
30.2211156346
 10
55.4218032671
 20
30.2970149321
 10
55.254942019
 20
30.369592974
  0
LINE
  5
3C3
100
AcDbEntity
  8
0
100
AcDbLine
 62
7
  6
CONTINUOUS
 10
68.3895055868
 20
-3.5
 11
68.4999396754
 21
-3.6749773271
  0
LWPOLYLINE
  5
3C4
100
AcDbEntity
  8
0
100
AcDbPolyline
 62
250
  6
CONTINUOUS
 90
13
 70
0
 10
60.2316055366
 20
-0.0000002343
 10
60.2254381812
 20
2.2561699538
 10
60.2075823795
 20
4.4616524897
 10
60.1788596795
 20
6.6164300574
 10
60.1401284228
 20
8.7189729166
 10
60.0920952841
 20
10.7707896214
 10
60.0353661733
 20
12.7764341378
 10
59.9705969043
 20
14.7362585766
 10
59.8977303722
 20
16.6497085209
 10
59.8186382435
 20
18.5204764665
 10
59.7330737802
 20
20.3494810707
 10
59.6402025932
 20
22.1357012644
 10
59.5422691531
 20
23.8784301011
  0
LWPOLYLINE
  5
3C5
100
AcDbEntity
  8
0
100
AcDbPolyline
 62
250
  6
CONTINUOUS
 90
13
 70
0
 10
59.5423735219
 20
-23.8785762062
 10
59.6391356772
 20
-22.1621466875
 10
59.7306116669
 20
-20.3982634665
 10
59.8158642884
 20
-18.5868069988
 10
59.8947567722
 20
-16.7292162601
 10
59.967305614
 20
-14.8242270231
 10
60.0324792643
 20
-12.8677992563
 10
60.0896793023
 20
-10.8601165566
 10
60.1383859369
 20
-8.8010060706
 10
60.1778222457
 20
-6.6858830395
 10
60.2070676194
 20
-4.5132293171
 10
60.2252686187
 20
-2.2845943485
 10
60.2316055366
 20
-0.0000002344
  0
LWPOLYLINE
  5
3C6
100
AcDbEntity
  8
0
100
AcDbPolyline
 62
250
  6
CONTINUOUS
 90
10
 70
0
 10
61.253880356
 20
34.5852935667
 10
61.671336363
 20
34.3517168449
 10
62.0614105739
 20
34.0735537466
 10
62.4133715696
 20
33.7450040227
 10
62.7167026746
 20
33.3712492283
 10
62.9755101024
 20
32.959927436
 10
63.1992974563
 20
32.5101946884
 10
63.3922343786
 20
32.0284680095
 10
63.556903901
 20
31.5238849801
 10
63.6951839159
 20
30.998416927
  0
LWPOLYLINE
  5
3C7
100
AcDbEntity
  8
0
100
AcDbPolyline
 62
250
  6
CONTINUOUS
 90
3
 70
0
 10
64.2413521004
 20
22.1823386301
 10
64.1685335188
 20
25.0387775047
 10
64.0837224711
 20
27.8190164789
  0
LINE
  5
3C8
100
AcDbEntity
  8
0
100
AcDbLine
 62
250
  6
CONTINUOUS
 10
67.585230214
 20
36.1157387764
 11
67.5831262681
 21
36.4182490215
  0
LWPOLYLINE
  5
3C9
100
AcDbEntity
  8
0
100
AcDbPolyline
 62
250
  6
CONTINUOUS
 90
8
 70
0
 10
64.5059432394
 20
0.0000000203
 10
64.4995485181
 20
3.4148644082
 10
64.4813868877
 20
6.7471459958
 10
64.4521972791
 20
9.9968169145
 10
64.412830901
 20
13.161615052
 10
64.3641267469
 20
16.2437557731
 10
64.3066551069
 20
19.2499210752
 10
64.2413521004
 20
22.1823386301
  0
LINE
  5
3CA
100
AcDbEntity
  8
0
100
AcDbLine
 62
250
  6
CONTINUOUS
 10
67.5831262681
 20
36.4182490215
 11
67.5829535443
 21
36.4843903858
  0
LINE
  5
3CB
100
AcDbEntity
  8
0
100
AcDbLine
 62
250
  6
CONTINUOUS
 10
67.5848126355
 20
-35.0341006924
 11
67.5857241802
 21
-35.3042766445
  0
LINE
  5
3CC
100
AcDbEntity
  8
0
100
AcDbLine
 62
250
  6
CONTINUOUS
 10
65.4999421582
 20
39.9999648
 11
65.4999421569
 21
39.7484440374
  0
LINE
  5
3CD
100
AcDbEntity
  8
0
100
AcDbLine
 62
250
  6
CONTINUOUS
 10
65.4999421569
 20
-39.7484440375
 11
65.4999421582
 21
-39.9999648
  0
LINE
  5
3CE
100
AcDbEntity
  8
0
100
AcDbLine
 62
250
  6
CONTINUOUS
 10
68.2484189128
 20
-36.9999674392
 11
68.2484189128
 21
36.99996744
  0
LINE
  5
3CF
100
AcDbEntity
  8
0
100
AcDbLine
 62
7
  6
CONTINUOUS
 10
68.3895055868
 20
3.5
 11
68.3895055868
 21
-3.5
  0
LINE
  5
3D0
100
AcDbEntity
  8
0
100
AcDbLine
 62
7
  6
CONTINUOUS
 10
68.4999396754
 20
36.9999672828
 11
68.4999396754
 21
3.6749773271
  0
LINE
  5
3D1
100
AcDbEntity
  8
0
100
AcDbLine
 62
7
  6
CONTINUOUS
 10
68.4999396754
 20
-3.6749773271
 11
68.4999396754
 21
-36.9999672829
  0
LINE
  5
3D2
100
AcDbEntity
  8
0
100
AcDbLine
 62
250
  6
CONTINUOUS
 10
67.5844421849
 20
-32.2566940068
 11
67.5847629623
 21
-35.034048431
  0
LINE
  5
3D3
100
AcDbEntity
  8
0
100
AcDbLine
 62
250
  6
CONTINUOUS
 10
67.5853637265
 20
35.1685553604
 11
67.585230214
 21
36.1157387764
  0
LINE
  5
3D4
100
AcDbEntity
  8
0
100
AcDbLine
 62
250
  6
CONTINUOUS
 10
67.5847146145
 20
35.0340997006
 11
67.5844421849
 21
-32.2566940068
  0
LINE
  5
3D5
100
AcDbEntity
  8
0
100
AcDbLine
 62
250
  6
CONTINUOUS
 10
67.583297242
 20
-36.4234039753
 11
67.5830787319
 21
-36.965220996
  0
LINE
  5
3D6
100
AcDbEntity
  8
0
100
AcDbLine
 62
250
  6
CONTINUOUS
 10
67.5829535443
 20
36.4843903858
 11
67.5831195968
 21
36.5503761794
  0
LINE
  5
3D7
100
AcDbEntity
  8
0
100
AcDbLine
 62
250
  6
CONTINUOUS
 10
67.5857241802
 20
-35.3042766445
 11
67.5840512318
 21
-36.2576917487
  0
LINE
  5
3D8
100
AcDbEntity
  8
0
100
AcDbLine
 62
250
  6
CONTINUOUS
 10
67.5847648931
 20
35.0342484816
 11
67.5853637265
 21
35.1685553604
  0
LINE
  5
3D9
100
AcDbEntity
  8
0
100
AcDbLine
 62
250
  6
CONTINUOUS
 10
67.5840512318
 20
-36.2576917487
 11
67.583297242
 21
-36.4234039753
  0
LWPOLYLINE
  5
3DA
100
AcDbEntity
  8
0
100
AcDbPolyline
 62
250
  6
CONTINUOUS
 90
9
 70
0
 10
64.1689454228
 20
-25.0279462083
 10
64.2416458777
 20
-22.1631778603
 10
64.3069431238
 20
-19.2251356151
 10
64.36447751
 20
-16.2157699069
 10
64.4131905883
 20
-13.1330397551
 10
64.4524691758
 20
-9.9707028628
 10
64.4815817379
 20
-6.7266893349
 10
64.4996964386
 20
-3.4031122988
 10
64.5059432394
 20
0.0000000014
  0
LINE
  5
3DB
100
AcDbEntity
  8
0
100
AcDbLine
 62
250
  6
CONTINUOUS
 10
64.0837262523
 20
-27.8189902043
 11
64.1689454228
 21
-25.0279462083
  0
LWPOLYLINE
  5
3DC
100
AcDbEntity
  8
0
100
AcDbPolyline
 62
250
  6
CONTINUOUS
 90
10
 70
0
 10
63.6952050193
 20
-30.9983607254
 10
63.7680202157
 20
-30.6637842009
 10
63.8316182063
 20
-30.3237406373
 10
63.886731763
 20
-29.9784131332
 10
63.9340751302
 20
-29.628358031
 10
63.9745678513
 20
-29.2739464919
 10
64.0091620157
 20
-28.915636449
 10
64.038686701
 20
-28.5538435658
 10
64.063704659
 20
-28.1880996985
 10
64.0837216798
 20
-27.8190926956
  0
LWPOLYLINE
  5
3DD
100
AcDbEntity
  8
0
100
AcDbPolyline
 62
250
  6
CONTINUOUS
 90
10
 70
0
 10
58.9506254141
 20
-26.5523373245
 10
59.0518941656
 20
-26.2786193462
 10
59.144663012
 20
-25.9983090371
 10
59.2286846479
 20
-25.7119180977
 10
59.3038734199
 20
-25.4195614804
 10
59.3700208132
 20
-25.1215587766
 10
59.4269601788
 20
-24.8181507196
 10
59.4746399925
 20
-24.5096536016
 10
59.5130959305
 20
-24.1962968389
 10
59.5423734958
 20
-23.8785762041
  0
LWPOLYLINE
  5
3DE
100
AcDbEntity
  8
0
100
AcDbPolyline
 62
250
  6
CONTINUOUS
 90
10
 70
0
 10
58.9506996343
 20
-26.5521428092
 10
58.7717646748
 20
-26.9749136397
 10
58.5717664564
 20
-27.3786779709
 10
58.3518765714
 20
-27.7612174298
 10
58.1138234681
 20
-28.1207654685
 10
57.8580465393
 20
-28.4577325707
 10
57.5820350102
 20
-28.7752774061
 10
57.2850739948
 20
-29.0731038828
 10
56.9703156355
 20
-29.3484980227
 10
56.6401084988
 20
-29.6011461118
  0
LWPOLYLINE
  5
3DF
100
AcDbEntity
  8
0
100
AcDbPolyline
 62
250
  6
CONTINUOUS
 90
10
 70
0
 10
58.9506836578
 20
26.552188924
 10
58.7717378492
 20
26.9749758503
 10
58.5717276598
 20
27.3787531466
 10
58.3518249849
 20
27.7613025516
 10
58.1137530703
 20
28.1208646498
 10
57.8579561326
 20
28.4578423846
 10
57.5819426613
 20
28.7753755857
 10
57.2850100386
 20
29.0731646232
 10
56.9702851174
 20
29.3485208226
 10
56.6401232372
 20
29.6011347295
  0
LWPOLYLINE
  5
3E0
100
AcDbEntity
  8
0
100
AcDbPolyline
 62
250
  6
CONTINUOUS
 90
10
 70
0
 10
58.9506436297
 20
26.55229585
 10
59.0519015541
 20
26.2784835946
 10
59.1446771658
 20
25.9981689293
 10
59.2287139076
 20
25.7117810531
 10
59.3038991241
 20
25.4194191178
 10
59.3700346024
 20
25.1213998376
 10
59.4269662643
 20
24.8179781227
 10
59.4746351773
 20
24.5094765123
 10
59.5130598585
 20
24.1961277459
 10
59.5422691522
 20
23.8784300935
  0
LWPOLYLINE
  5
3E1
100
AcDbEntity
  8
0
100
AcDbPolyline
 62
250
  6
CONTINUOUS
 90
10
 70
0
 10
63.6952030408
 20
30.9983352779
 10
63.7680302534
 20
30.6637358885
 10
63.8316404357
 20
30.3236890591
 10
63.8867468751
 20
29.9783559928
 10
63.9340764167
 20
29.6282924911
 10
63.9745614896
 20
29.2738780587
 10
64.0091580934
 20
28.9155737917
 10
64.0386936856
 20
28.5537949398
 10
64.0637189871
 20
28.1880725079
 10
64.0837190813
 20
27.8190902899
  0
LWPOLYLINE
  5
3E2
100
AcDbEntity
  8
0
100
AcDbPolyline
 62
250
  6
CONTINUOUS
 90
9
 70
0
 10
67.5830787319
 20
-36.965220996
 10
67.5498964572
 20
-37.3677686682
 10
67.4406664233
 20
-37.7517375853
 10
67.2637813678
 20
-38.1035352554
 10
67.0250410453
 20
-38.4145232335
 10
66.7329429089
 20
-38.6754735199
 10
66.3985171464
 20
-38.8769873093
 10
66.0330642702
 20
-39.0129860913
 10
65.6474846778
 20
-39.0787161961
  0
LWPOLYLINE
  5
3E3
100
AcDbEntity
  8
0
100
AcDbPolyline
 62
250
  6
CONTINUOUS
 90
10
 70
0
 10
63.6952351536
 20
-30.9982314648
 10
63.5554021548
 20
-31.5297690286
 10
63.3880910473
 20
-32.0398992028
 10
63.1917831012
 20
-32.5268063804
 10
62.962913203
 20
-32.9822635925
 10
62.6976153757
 20
-33.3977386129
 10
62.3898996388
 20
-33.7699680576
 10
62.03916251
 20
-34.0914320893
 10
61.656783202
 20
-34.3608166748
 10
61.2537853878
 20
-34.5853365143
  0
LINE
  5
3E4
100
AcDbEntity
  8
0
100
AcDbLine
 62
7
  6
CONTINUOUS
 10
-84.140786497
 20
-39.7484440375
 11
-79.585657446
 21
-39.9999648
  0
LWPOLYLINE
  5
3E5
100
AcDbEntity
  8
0
100
AcDbPolyline
 62
250
  6
CONTINUOUS
 90
10
 70
0
 10
-84.1407852682
 20
-39.7159631716
 10
-84.2774328991
 20
-39.7006016933
 10
-84.4094592234
 20
-39.6698092974
 10
-84.5351112841
 20
-39.623839385
 10
-84.6529845474
 20
-39.5628159595
 10
-84.7602560416
 20
-39.4876047675
 10
-84.85335101
 20
-39.4004002833
 10
-84.9300958835
 20
-39.3031963365
 10
-84.9890387077
 20
-39.1972190862
 10
-85.0049261826
 20
-39.1588107955
  0
LWPOLYLINE
  5
3E6
100
AcDbEntity
  8
0
100
AcDbPolyline
 62
7
  6
CONTINUOUS
 90
3
 70
0
 10
-84.3729178583
 20
-39.7104482681
 10
-84.2124219923
 20
-39.7422819605
 10
-84.1407889477
 20
-39.7485500066
  0
LWPOLYLINE
  5
3E7
100
AcDbEntity
  8
0
100
AcDbPolyline
 62
7
  6
CONTINUOUS
 90
3
 70
0
 10
-84.4168586799
 20
-39.6972222186
 10
-84.2822170967
 20
-39.7315323152
 10
-84.1407864968
 20
-39.7484440375
  0
LWPOLYLINE
  5
3E8
100
AcDbEntity
  8
0
100
AcDbPolyline
 62
7
  6
CONTINUOUS
 90
5
 70
0
 10
-84.4518111693
 20
-39.6851894596
 10
-84.4067360094
 20
-39.700537833
 10
-84.3600634617
 20
-39.7140542385
 10
-84.3121973499
 20
-39.7255362731
 10
-84.2863046094
 20
-39.7304907131
  0
LWPOLYLINE
  5
3E9
100
AcDbEntity
  8
0
100
AcDbPolyline
 62
7
  6
CONTINUOUS
 90
10
 70
0
 43
0.3500000006
 10
-84.8312232056
 20
48.7499647064
 10
-83.9740852661
 20
49.6071071777
 10
-83.7597917175
 20
50.464249649
 10
-83.7597917175
 20
51.3213921204
 10
-84.188369751
 20
51.7499656219
 10
-84.8312232056
 20
51.7499656219
 10
-85.2597921753
 20
51.3213921204
 10
-85.2597921753
 20
50.464249649
 10
-84.8312232056
 20
50.0356806793
 10
-83.9026540833
 20
50.0356806793
  0
LINE
  5
3EA
100
AcDbEntity
  8
0
100
AcDbLine
 62
7
  6
CONTINUOUS
 10
-84.5770479342
 20
39.6294417798
 11
-84.6150741882
 21
39.6082264446
  0
LWPOLYLINE
  5
3EB
100
AcDbEntity
  8
0
100
AcDbPolyline
 62
7
  6
CONTINUOUS
 90
7
 70
0
 10
-84.5703693312
 20
39.6324381328
 10
-84.597546669
 20
39.6177212389
 10
-84.6239195866
 20
39.6023719169
 10
-84.6494886161
 20
39.5864247536
 10
-84.6742620293
 20
39.5699080747
 10
-84.6982390381
 20
39.5528545674
 10
-84.7214181757
 20
39.5352967735
  0
LINE
  5
3EC
100
AcDbEntity
  8
0
100
AcDbLine
 62
7
  6
CONTINUOUS
 10
-84.5370770969
 20
39.6494756021
 11
-84.577023611
 21
39.6294546586
  0
LWPOLYLINE
  5
3ED
100
AcDbEntity
  8
0
100
AcDbPolyline
 62
7
  6
CONTINUOUS
 90
3
 70
0
 10
-84.483950972
 20
39.6724552415
 10
-84.5136066116
 20
39.6598279771
 10
-84.5423905339
 20
39.6464853305
  0
LINE
  5
3EE
100
AcDbEntity
  8
0
100
AcDbLine
 62
7
  6
CONTINUOUS
 10
-84.5433068897
 20
39.6463537141
 11
-84.4168582863
 21
39.6972223473
  0
LWPOLYLINE
  5
3EF
100
AcDbEntity
  8
0
100
AcDbPolyline
 62
7
  6
CONTINUOUS
 90
3
 70
0
 10
-84.4518182668
 20
39.6851868581
 10
-84.4952564708
 20
39.6681328026
 10
-84.5370770969
 20
39.6494756021
  0
LINE
  5
3F0
100
AcDbEntity
  8
0
100
AcDbLine
 62
250
  6
CONTINUOUS
 10
-79.585657446
 20
-36.9999672829
 11
-84.1407864974
 21
-36.9999674392
  0
LINE
  5
3F1
100
AcDbEntity
  8
0
100
AcDbLine
 62
7
  6
CONTINUOUS
 10
-84.5433159582
 20
-39.6463485851
 11
-84.4168586799
 21
-39.6972222186
  0
LWPOLYLINE
  5
3F2
100
AcDbEntity
  8
0
100
AcDbPolyline
 62
7
  6
CONTINUOUS
 90
4
 70
0
 10
-84.5770161577
 20
-39.6294586051
 10
-84.537069716
 20
-39.6494790979
 10
-84.4952492022
 20
-39.6681358502
 10
-84.4518111693
 20
-39.6851894596
  0
LWPOLYLINE
  5
3F3
100
AcDbEntity
  8
0
100
AcDbPolyline
 62
7
  6
CONTINUOUS
 90
3
 70
0
 10
-84.6545324849
 20
-39.5831442123
 10
-84.5221874133
 20
-39.65596775
 10
-84.3729178583
 20
-39.7104482681
  0
LINE
  5
3F4
100
AcDbEntity
  8
0
100
AcDbLine
 62
7
  6
CONTINUOUS
 10
-84.6602881313
 20
-39.579788229
 11
-84.5433159582
 21
-39.6463485851
  0
LWPOLYLINE
  5
3F5
100
AcDbEntity
  8
0
100
AcDbPolyline
 62
7
  6
CONTINUOUS
 90
8
 70
0
 10
-84.6150493411
 20
39.6082410315
 10
-84.651243883
 20
39.5859280457
 10
-84.6855880036
 20
39.5626650084
 10
-84.7181077978
 20
39.5385722672
 10
-84.7488363817
 20
39.5137600656
 10
-84.7777764991
 20
39.4883610441
 10
-84.8049636491
 20
39.4624799477
 10
-84.8304391578
 20
39.4362113746
  0
LWPOLYLINE
  5
3F6
100
AcDbEntity
  8
0
100
AcDbPolyline
 62
7
  6
CONTINUOUS
 90
4
 70
0
 10
-84.7438057376
 20
39.5172603002
 10
-84.7654014488
 20
39.4987745364
 10
-84.7862034174
 20
39.479869673
 10
-84.8062148375
 20
39.4605705379
  0
LWPOLYLINE
  5
3F7
100
AcDbEntity
  8
0
100
AcDbPolyline
 62
7
  6
CONTINUOUS
 90
3
 70
0
 10
-87.0356507719
 20
-31.6472897125
 10
-87.0359194556
 20
-31.6473340716
 10
-87.0360236089
 20
-31.6478512256
  0
LINE
  5
3F8
100
AcDbEntity
  8
0
100
AcDbLine
 62
7
  6
CONTINUOUS
 10
-84.8304640429
 20
39.4361846718
 11
-84.854248204
 21
39.4096403801
  0
LWPOLYLINE
  5
3F9
100
AcDbEntity
  8
0
100
AcDbPolyline
 62
7
  6
CONTINUOUS
 90
4
 70
0
 10
-84.8254366723
 20
39.4409028524
 10
-84.843866019
 20
39.4208956815
 10
-84.8615004236
 20
39.4005776042
 10
-84.8783485448
 20
39.3799632345
  0
LWPOLYLINE
  5
3FA
100
AcDbEntity
  8
0
100
AcDbPolyline
 62
7
  6
CONTINUOUS
 90
5
 70
0
 10
-84.8542238549
 20
39.4096686511
 10
-84.8763643386
 20
39.3829360714
 10
-84.8969046155
 20
39.3560965075
 10
-84.9158705405
 20
39.3292563695
 10
-84.933373362
 20
39.3023923123
  0
LWPOLYLINE
  5
3FB
100
AcDbEntity
  8
0
100
AcDbPolyline
 62
7
  6
CONTINUOUS
 90
3
 70
0
 10
-84.9314862972
 20
-39.3050617556
 10
-84.8566306346
 20
-39.4065266046
 10
-84.7656928968
 20
-39.4989305759
  0
LWPOLYLINE
  5
3FC
100
AcDbEntity
  8
0
100
AcDbPolyline
 62
7
  6
CONTINUOUS
 90
4
 70
0
 10
-84.8944003858
 20
39.3590888498
 10
-84.9096298551
 20
39.3380162481
 10
-84.9240327039
 20
39.3167832788
 10
-84.9315049569
 20
39.3050266945
  0
LINE
  5
3FD
100
AcDbEntity
  8
0
100
AcDbLine
 62
250
  6
CONTINUOUS
 10
-87.7922749025
 20
22.4955473137
 11
-88.3655853187
 21
22.2017373497
  0
LINE
  5
3FE
100
AcDbEntity
  8
0
100
AcDbLine
 62
7
  6
CONTINUOUS
 10
-88.5557811227
 20
-22.1996971177
 11
-88.5547584456
 21
-22.1996959053
  0
LINE
  5
3FF
100
AcDbEntity
  8
0
100
AcDbLine
 62
7
  6
CONTINUOUS
 10
-88.3646754352
 20
-22.2017372611
 11
-88.5557811227
 21
-22.1996971177
  0
LINE
  5
400
100
AcDbEntity
  8
0
100
AcDbLine
 62
250
  6
CONTINUOUS
 10
-87.7922754038
 20
-22.4955466754
 11
-88.3655853188
 21
-22.20173735
  0
LWPOLYLINE
  5
401
100
AcDbEntity
  8
0
100
AcDbPolyline
 62
7
  6
CONTINUOUS
 90
4
 70
0
 10
-84.9397882864
 20
-39.2919040929
 10
-84.8634110849
 20
-39.3982972252
 10
-84.7680831799
 20
-39.4963861359
 10
-84.6549471862
 20
-39.582827361
  0
LWPOLYLINE
  5
402
100
AcDbEntity
  8
0
100
AcDbPolyline
 62
7
  6
CONTINUOUS
 90
6
 70
0
 10
-84.9315049569
 20
39.3050266945
 10
-84.9314864727
 20
39.3050614776
 10
-84.8566308528
 20
39.4065263492
 10
-84.7656930044
 20
39.4989304809
 10
-84.6602881052
 20
39.5797882465
 10
-84.5433068897
 20
39.6463537141
  0
LINE
  5
403
100
AcDbEntity
  8
0
100
AcDbLine
 62
7
  6
CONTINUOUS
 10
-84.9493986689
 20
39.2756623217
 11
-84.9499718327
 21
39.2746212797
  0
LINE
  5
404
100
AcDbEntity
  8
0
100
AcDbLine
 62
7
  6
CONTINUOUS
 10
-84.9333943292
 20
39.3023587639
 11
-84.9494184807
 21
39.2756278311
  0
LWPOLYLINE
  5
405
100
AcDbEntity
  8
0
100
AcDbPolyline
 62
7
  6
CONTINUOUS
 90
15
 70
0
 10
-84.9390177289
 20
-39.2929774765
 10
-84.9333678538
 20
-39.302401125
 10
-84.915864724
 20
-39.3292649413
 10
-84.896898516
 20
-39.3561048026
 10
-84.8763579825
 20
-39.382944056
 10
-84.8542172639
 20
-39.4096763032
 10
-84.8304323526
 20
-39.4362186766
 10
-84.8049566548
 20
-39.4624868796
 10
-84.777769343
 20
-39.4883675878
 10
-84.7488290932
 20
-39.5137662044
 10
-84.7181004077
 20
-39.5385779865
 10
-84.6855805448
 20
-39.5626702961
 10
-84.6512363895
 20
-39.5859328923
 10
-84.6150418489
 20
-39.6082454299
 10
-84.5770161577
 20
-39.6294586051
  0
LINE
  5
406
100
AcDbEntity
  8
0
100
AcDbLine
 62
7
  6
CONTINUOUS
 10
-84.9892804881
 20
-39.1963062754
 11
-84.9314862972
 21
-39.3050617556
  0
LWPOLYLINE
  5
407
100
AcDbEntity
  8
0
100
AcDbPolyline
 62
7
  6
CONTINUOUS
 90
3
 70
0
 10
-84.9913611699
 20
39.1921443836
 10
-84.9938574264
 20
39.1863904249
 10
-84.996081006
 20
39.1811337532
  0
LINE
  5
408
100
AcDbEntity
  8
0
100
AcDbLine
 62
250
  6
CONTINUOUS
 10
-84.9938574264
 20
39.1863904249
 11
-84.9961037047
 21
39.1809649155
  0
LWPOLYLINE
  5
409
100
AcDbEntity
  8
0
100
AcDbPolyline
 62
7
  6
CONTINUOUS
 90
3
 70
0
 10
-84.9913611699
 20
39.1921443836
 10
-84.9901345242
 20
39.1949533354
 10
-84.9904353251
 20
39.1942728549
  0
LINE
  5
40A
100
AcDbEntity
  8
0
100
AcDbLine
 62
7
  6
CONTINUOUS
 10
-85.0007234945
 20
39.1532959616
 11
-85.0017989337
 21
39.1508744475
  0
LINE
  5
40B
100
AcDbEntity
  8
0
100
AcDbLine
 62
7
  6
CONTINUOUS
 10
-85.0005861916
 20
39.1536010745
 11
-85.0007928538
 21
39.153138064
  0
LINE
  5
40C
100
AcDbEntity
  8
0
100
AcDbLine
 62
7
  6
CONTINUOUS
 10
-88.3756777395
 20
24.152177415
 11
-88.4997069675
 21
23.9397232107
  0
LINE
  5
40D
100
AcDbEntity
  8
0
100
AcDbLine
 62
7
  6
CONTINUOUS
 10
-88.1558927838
 20
24.4831164591
 11
-88.2599286606
 21
24.3143482567
  0
LINE
  5
40E
100
AcDbEntity
  8
0
100
AcDbLine
 62
7
  6
CONTINUOUS
 10
-88.2680403852
 20
24.3021866686
 11
-88.1673782679
 21
24.4647432761
  0
LINE
  5
40F
100
AcDbEntity
  8
0
100
AcDbLine
 62
7
  6
CONTINUOUS
 10
-88.2661698682
 20
24.3049203664
 11
-88.2863679337
 21
24.2749596438
  0
LINE
  5
410
100
AcDbEntity
  8
0
100
AcDbLine
 62
7
  6
CONTINUOUS
 10
-88.3738682732
 20
24.1524135648
 11
-88.2581153325
 21
24.3153340312
  0
LINE
  5
411
100
AcDbEntity
  8
0
100
AcDbLine
 62
7
  6
CONTINUOUS
 10
-88.2803665879
 20
24.283775565
 11
-88.3754124604
 21
24.1519680352
  0
LINE
  5
412
100
AcDbEntity
  8
0
100
AcDbLine
 62
7
  6
CONTINUOUS
 10
-88.2863294409
 20
-24.2750159613
 11
-88.3754124604
 21
-24.1519680352
  0
LINE
  5
413
100
AcDbEntity
  8
0
100
AcDbLine
 62
7
  6
CONTINUOUS
 10
-88.2661736079
 20
-24.3049147582
 11
-88.3754094377
 21
-24.151971997
  0
LINE
  5
414
100
AcDbEntity
  8
0
100
AcDbLine
 62
7
  6
CONTINUOUS
 10
-88.3756777395
 20
-24.152177415
 11
-88.4997069675
 21
-23.9397232108
  0
LINE
  5
415
100
AcDbEntity
  8
0
100
AcDbLine
 62
7
  6
CONTINUOUS
 10
-87.0360236089
 20
-31.6478512256
 11
-87.036038819
 21
-31.6478204894
  0
LINE
  5
416
100
AcDbEntity
  8
0
100
AcDbLine
 62
7
  6
CONTINUOUS
 10
-85.0286537878
 20
-39.082685275
 11
-85.0287323981
 21
-39.0825151649
  0
LINE
  5
417
100
AcDbEntity
  8
0
100
AcDbLine
 62
7
  6
CONTINUOUS
 10
-84.9961037047
 20
39.1809649155
 11
-85.0281663703
 21
39.0841860075
  0
LINE
  5
418
100
AcDbEntity
  8
0
100
AcDbLine
 62
7
  6
CONTINUOUS
 10
-85.0286261163
 20
39.0828210933
 11
-85.02994602
 21
39.0790192805
  0
LINE
  5
419
100
AcDbEntity
  8
0
100
AcDbLine
 62
7
  6
CONTINUOUS
 10
-85.0304726849
 20
39.0776079669
 11
-85.0288019819
 21
39.0823351899
  0
LWPOLYLINE
  5
41A
100
AcDbEntity
  8
0
100
AcDbPolyline
 62
250
  6
CONTINUOUS
 90
10
 70
0
 10
-85.0269584532
 20
36.256403241
 10
-84.9854787905
 20
36.3695088429
 10
-84.9250404823
 20
36.4696536069
 10
-84.8473574837
 20
36.5598412154
 10
-84.7544526169
 20
36.6394254343
 10
-84.6486422571
 20
36.7061788675
 10
-84.5324428173
 20
36.7585533444
 10
-84.4079962145
 20
36.7959056718
 10
-84.2769187263
 20
36.8181090481
 10
-84.1407868175
 20
36.8254150188
  0
LINE
  5
41B
100
AcDbEntity
  8
0
100
AcDbLine
 62
7
  6
CONTINUOUS
 10
-85.0286904013
 20
39.0826202982
 11
-85.0287122212
 21
39.0825610581
  0
LINE
  5
41C
100
AcDbEntity
  8
0
100
AcDbLine
 62
7
  6
CONTINUOUS
 10
-87.9910183132
 20
24.8280080464
 11
-88.0688438757
 21
24.6522889521
  0
LINE
  5
41D
100
AcDbEntity
  8
0
100
AcDbLine
 62
7
  6
CONTINUOUS
 10
-88.0825015961
 20
24.6242837199
 11
-88.0020786627
 21
24.8023796645
  0
LINE
  5
41E
100
AcDbEntity
  8
0
100
AcDbLine
 62
7
  6
CONTINUOUS
 10
-88.0669479529
 20
24.6544593188
 11
-88.1578298663
 21
24.4815252476
  0
LINE
  5
41F
100
AcDbEntity
  8
0
100
AcDbLine
 62
7
  6
CONTINUOUS
 10
-88.1702536948
 20
24.4598265235
 11
-88.079312549
 21
24.6306787748
  0
LINE
  5
420
100
AcDbEntity
  8
0
100
AcDbLine
 62
7
  6
CONTINUOUS
 10
-85.0049261826
 20
-39.1588107955
 11
-85.0072344388
 21
-39.1526133742
  0
LWPOLYLINE
  5
421
100
AcDbEntity
  8
0
100
AcDbPolyline
 62
250
  6
CONTINUOUS
 90
10
 70
0
 10
-85.0269925102
 20
-36.2594256098
 10
-84.9851876859
 20
-36.3718738301
 10
-84.9243642132
 20
-36.4706883727
 10
-84.8462599561
 20
-36.5602035519
 10
-84.7529499932
 20
-36.6397967264
 10
-84.6468617823
 20
-36.7064606151
 10
-84.5306284485
 20
-36.7585243105
 10
-84.4064473002
 20
-36.7956946542
 10
-84.2759543677
 20
-36.8179738257
 10
-84.1407875825
 20
-36.8254067135
  0
LINE
  5
422
100
AcDbEntity
  8
0
100
AcDbLine
 62
7
  6
CONTINUOUS
 10
-85.0287323981
 20
-39.0825151649
 11
-85.0288218986
 21
-39.0822684523
  0
LINE
  5
423
100
AcDbEntity
  8
0
100
AcDbLine
 62
7
  6
CONTINUOUS
 10
-85.144057865
 20
-38.7544155999
 11
-85.0281086232
 21
-39.0841275939
  0
LINE
  5
424
100
AcDbEntity
  8
0
100
AcDbLine
 62
7
  6
CONTINUOUS
 10
-85.0285935205
 20
-39.0824682685
 11
-84.9892804881
 21
-39.1963062754
  0
LINE
  5
425
100
AcDbEntity
  8
0
100
AcDbLine
 62
7
  6
CONTINUOUS
 10
-85.2140844131
 20
-38.5522064039
 11
-85.144057865
 21
-38.7544155999
  0
LINE
  5
426
100
AcDbEntity
  8
0
100
AcDbLine
 62
7
  6
CONTINUOUS
 10
-85.2795324896
 20
-38.3602591854
 11
-85.2140844131
 21
-38.5522064039
  0
LINE
  5
427
100
AcDbEntity
  8
0
100
AcDbLine
 62
7
  6
CONTINUOUS
 10
-85.3497977364
 20
-38.1511350201
 11
-85.2795324896
 21
-38.3602591854
  0
LINE
  5
428
100
AcDbEntity
  8
0
100
AcDbLine
 62
7
  6
CONTINUOUS
 10
-85.4162949405
 20
-37.9502725687
 11
-85.3497977364
 21
-38.1511350201
  0
LINE
  5
429
100
AcDbEntity
  8
0
100
AcDbLine
 62
7
  6
CONTINUOUS
 10
-85.4384559172
 20
-37.8826542619
 11
-85.4162949405
 21
-37.9502725687
  0
LINE
  5
42A
100
AcDbEntity
  8
0
100
AcDbLine
 62
7
  6
CONTINUOUS
 10
-86.4706946484
 20
34.2711999846
 11
-86.5227014349
 21
34.0576304549
  0
LINE
  5
42B
100
AcDbEntity
  8
0
100
AcDbLine
 62
7
  6
CONTINUOUS
 10
-86.4099585423
 20
34.5150470804
 11
-86.4703809374
 21
34.2724074447
  0
LINE
  5
42C
100
AcDbEntity
  8
0
100
AcDbLine
 62
7
  6
CONTINUOUS
 10
-86.3462675871
 20
34.7649105649
 11
-86.4162361897
 21
34.4899235139
  0
LINE
  5
42D
100
AcDbEntity
  8
0
100
AcDbLine
 62
7
  6
CONTINUOUS
 10
-85.7048230297
 20
36.5604349743
 11
-85.5926351315
 21
36.9988005483
  0
LINE
  5
42E
100
AcDbEntity
  8
0
100
AcDbLine
 62
7
  6
CONTINUOUS
 10
-86.2910113923
 20
34.9773026016
 11
-86.3607919559
 21
34.7080365333
  0
LINE
  5
42F
100
AcDbEntity
  8
0
100
AcDbLine
 62
7
  6
CONTINUOUS
 10
-85.5926351315
 20
36.9988005483
 11
-85.4787840929
 21
37.4328656145
  0
LWPOLYLINE
  5
430
100
AcDbEntity
  8
0
100
AcDbPolyline
 62
250
  6
CONTINUOUS
 90
3
 70
0
 10
-85.8222069199
 20
36.3958556942
 10
-85.929580147
 20
35.992103517
 10
-86.0355270005
 20
35.5831925741
  0
LINE
  5
431
100
AcDbEntity
  8
0
100
AcDbLine
 62
7
  6
CONTINUOUS
 10
-86.2374706798
 20
35.1794927253
 11
-86.3044000917
 21
34.9254853252
  0
LINE
  5
432
100
AcDbEntity
  8
0
100
AcDbLine
 62
7
  6
CONTINUOUS
 10
-85.4787840929
 20
37.4328656145
 11
-85.3650552207
 21
37.8575556297
  0
LINE
  5
433
100
AcDbEntity
  8
0
100
AcDbLine
 62
7
  6
CONTINUOUS
 10
-86.1726790811
 20
35.4184303749
 11
-86.2476146773
 21
35.1403894555
  0
LWPOLYLINE
  5
434
100
AcDbEntity
  8
0
100
AcDbPolyline
 62
7
  6
CONTINUOUS
 90
3
 70
0
 10
-85.3650552207
 20
37.8575556297
 10
-85.139199612
 20
38.683122564
 10
-85.0284071354
 20
39.0832319381
  0
LINE
  5
435
100
AcDbEntity
  8
0
100
AcDbLine
 62
7
  6
CONTINUOUS
 10
-86.116042749
 20
35.6248771172
 11
-86.1874647745
 21
35.3651743809
  0
LINE
  5
436
100
AcDbEntity
  8
0
100
AcDbLine
 62
7
  6
CONTINUOUS
 10
-86.0360617166
 20
35.9117597563
 11
-86.1230108187
 21
35.6002068184
  0
LINE
  5
437
100
AcDbEntity
  8
0
100
AcDbLine
 62
7
  6
CONTINUOUS
 10
-85.9416280017
 20
36.2433074203
 11
-86.0359760158
 21
35.9117083844
  0
LINE
  5
438
100
AcDbEntity
  8
0
100
AcDbLine
 62
7
  6
CONTINUOUS
 10
-85.0287570078
 20
39.082142174
 11
-85.0290372069
 21
39.0811767612
  0
LINE
  5
439
100
AcDbEntity
  8
0
100
AcDbLine
 62
7
  6
CONTINUOUS
 10
-88.5668410494
 20
23.7070190138
 11
-88.4978792212
 21
23.941384543
  0
LINE
  5
43A
100
AcDbEntity
  8
0
100
AcDbLine
 62
7
  6
CONTINUOUS
 10
-85.8462496014
 20
36.5704658114
 11
-85.9435846222
 21
36.2365268764
  0
LINE
  5
43B
100
AcDbEntity
  8
0
100
AcDbLine
 62
7
  6
CONTINUOUS
 10
-87.8766215171
 20
25.1776190532
 11
-87.9291430554
 21
24.9998157318
  0
LINE
  5
43C
100
AcDbEntity
  8
0
100
AcDbLine
 62
7
  6
CONTINUOUS
 10
-85.0282927845
 20
39.0836932631
 11
-85.028781504
 21
39.0820411589
  0
LWPOLYLINE
  5
43D
100
AcDbEntity
  8
0
100
AcDbPolyline
 62
250
  6
CONTINUOUS
 90
6
 70
0
 10
-85.2621411186
 20
38.3427315035
 10
-85.3768181774
 20
37.9644928561
 10
-85.4903240861
 20
37.5800965717
 10
-85.6025958781
 20
37.1897975757
 10
-85.7132682967
 20
36.794889819
 10
-85.8222069199
 20
36.3958556942
  0
LINE
  5
43E
100
AcDbEntity
  8
0
100
AcDbLine
 62
7
  6
CONTINUOUS
 10
-87.9384481997
 20
24.9721169965
 11
-87.8822137676
 21
25.1575965022
  0
LWPOLYLINE
  5
43F
100
AcDbEntity
  8
0
100
AcDbPolyline
 62
7
  6
CONTINUOUS
 90
3
 70
0
 10
-85.6278720086
 20
37.2897829258
 10
-85.741855559
 20
36.9193893704
 10
-85.8478040084
 20
36.5652097778
  0
LINE
  5
440
100
AcDbEntity
  8
0
100
AcDbLine
 62
250
  6
CONTINUOUS
 10
-85.1460833941
 20
38.7154648087
 11
-85.2621411186
 21
38.3427315035
  0
LINE
  5
441
100
AcDbEntity
  8
0
100
AcDbLine
 62
250
  6
CONTINUOUS
 10
-85.0285697508
 20
39.0828848525
 11
-85.1460833941
 21
38.7154648087
  0
LINE
  5
442
100
AcDbEntity
  8
0
100
AcDbLine
 62
7
  6
CONTINUOUS
 10
-85.0285697508
 20
39.0828848525
 11
-85.0289262595
 21
39.0817848807
  0
LWPOLYLINE
  5
443
100
AcDbEntity
  8
0
100
AcDbPolyline
 62
250
  6
CONTINUOUS
 90
10
 70
0
 10
-85.0283350159
 20
36.557251925
 10
-84.988495644
 20
36.6709170485
 10
-84.9289043978
 20
36.7742479585
 10
-84.8517114827
 20
36.866406626
 10
-84.7585967648
 20
36.9469319198
 10
-84.6517507713
 20
37.0147256428
 10
-84.5343799467
 20
37.068213456
 10
-84.4090724451
 20
37.1066678529
 10
-84.277304521
 20
37.1299612981
 10
-84.1407858137
 20
37.1378855709
  0
LINE
  5
444
100
AcDbEntity
  8
0
100
AcDbLine
 62
7
  6
CONTINUOUS
 10
-87.9277409719
 20
25.0025862407
 11
-87.9927499484
 21
24.8253414615
  0
LINE
  5
445
100
AcDbEntity
  8
0
100
AcDbLine
 62
7
  6
CONTINUOUS
 10
-88.0049894382
 20
24.7954425896
 11
-87.9361731071
 21
24.9787004104
  0
LWPOLYLINE
  5
446
100
AcDbEntity
  8
0
100
AcDbPolyline
 62
7
  6
CONTINUOUS
 90
13
 70
0
 43
0.3500000006
 10
-99.0432732239
 20
-1.9285742798
 10
-99.2575667725
 20
-2.2142888145
 10
-99.9004202271
 20
-2.2142888145
 10
-100.3289891968
 20
-1.9285742798
 10
-100.3289891968
 20
-1.2857162933
 10
-99.9004202271
 20
-1.0000028915
 10
-99.2575667725
 20
-1.0000028915
 10
-99.0432732239
 20
-1.2857162933
 10
-98.6147042542
 20
-0.8571450577
 10
-97.7575663147
 20
-0.8571450577
 10
-97.3289882813
 20
-1.2857162933
 10
-97.3289882813
 20
-1.9285742798
 10
-97.7575663147
 20
-2.3571455154
  0
LWPOLYLINE
  5
447
100
AcDbEntity
  8
0
100
AcDbPolyline
 62
7
  6
CONTINUOUS
 90
5
 70
0
 10
-87.9361788801
 20
-24.978683259
 10
-88.0020865492
 20
-24.8023604748
 10
-88.0793213454
 20
-24.6306608087
 10
-88.1673857685
 20
-24.4647302074
 10
-88.2661718981
 20
-24.3049175243
  0
LWPOLYLINE
  5
448
100
AcDbEntity
  8
0
100
AcDbPolyline
 62
250
  6
CONTINUOUS
 90
10
 70
0
 10
-85.0283351016
 20
-36.555687546
 10
-84.9886168034
 20
-36.6692149487
 10
-84.9292070913
 20
-36.7725955837
 10
-84.8522052391
 20
-36.8647546962
 10
-84.7592472378
 20
-36.9450027964
 10
-84.6524858906
 20
-37.0120504837
 10
-84.53510326
 20
-37.0644724945
 10
-84.4096742266
 20
-37.1018612694
 10
-84.2776666047
 20
-37.1243507922
 10
-84.1407851743
 20
-37.1319521851
  0
LINE
  5
449
100
AcDbEntity
  8
0
100
AcDbLine
 62
7
  6
CONTINUOUS
 10
-85.5019373868
 20
-37.6869729278
 11
-85.4384559172
 21
-37.8826542619
  0
LINE
  5
44A
100
AcDbEntity
  8
0
100
AcDbLine
 62
7
  6
CONTINUOUS
 10
-85.1065462847
 20
-38.8410261826
 11
-85.0281654401
 21
-39.084141675
  0
LINE
  5
44B
100
AcDbEntity
  8
0
100
AcDbLine
 62
250
  6
CONTINUOUS
 10
-85.1065462847
 20
-38.8410261826
 11
-85.1456709465
 21
-38.7167734376
  0
LINE
  5
44C
100
AcDbEntity
  8
0
100
AcDbLine
 62
7
  6
CONTINUOUS
 10
-85.5646857693
 20
-37.4905180053
 11
-85.5019373868
 21
-37.6869729278
  0
LINE
  5
44D
100
AcDbEntity
  8
0
100
AcDbLine
 62
7
  6
CONTINUOUS
 10
-85.6321320992
 20
-37.2758984079
 11
-85.5646857693
 21
-37.4905180053
  0
LINE
  5
44E
100
AcDbEntity
  8
0
100
AcDbLine
 62
250
  6
CONTINUOUS
 10
-85.1456709465
 20
-38.7167734376
 11
-85.2614858241
 21
-38.3448691142
  0
LINE
  5
44F
100
AcDbEntity
  8
0
100
AcDbLine
 62
7
  6
CONTINUOUS
 10
-85.7007153585
 20
-37.0540931019
 11
-85.6294024533
 21
-37.2846528231
  0
LINE
  5
450
100
AcDbEntity
  8
0
100
AcDbLine
 62
250
  6
CONTINUOUS
 10
-85.2614858241
 20
-38.3448691142
 11
-85.3760760967
 21
-37.9669831909
  0
LINE
  5
451
100
AcDbEntity
  8
0
100
AcDbLine
 62
7
  6
CONTINUOUS
 10
-87.8824513589
 20
-25.1561448111
 11
-87.9360184663
 21
-24.9792131047
  0
LINE
  5
452
100
AcDbEntity
  8
0
100
AcDbLine
 62
7
  6
CONTINUOUS
 10
-85.7545637748
 20
-36.8772648529
 11
-85.6988412392
 21
-37.0601998057
  0
LWPOLYLINE
  5
453
100
AcDbEntity
  8
0
100
AcDbPolyline
 62
250
  6
CONTINUOUS
 90
4
 70
0
 10
-85.3760760967
 20
-37.9669831909
 10
-85.4897077447
 20
-37.5822278804
 10
-85.60223801
 20
-37.191078531
 10
-85.7130972669
 20
-36.7955284651
  0
LINE
  5
454
100
AcDbEntity
  8
0
100
AcDbLine
 62
7
  6
CONTINUOUS
 10
-85.8620455783
 20
-36.5162583849
 11
-85.7536474823
 21
-36.8802970843
  0
LINE
  5
455
100
AcDbEntity
  8
0
100
AcDbLine
 62
7
  6
CONTINUOUS
 10
-85.8992250072
 20
-36.388616154
 11
-85.8620455783
 21
-36.5162583849
  0
LINE
  5
456
100
AcDbEntity
  8
0
100
AcDbLine
 62
7
  6
CONTINUOUS
 10
-85.0285870268
 20
-39.0826509541
 11
-85.0293534317
 21
-39.0799974361
  0
LINE
  5
457
100
AcDbEntity
  8
0
100
AcDbLine
 62
7
  6
CONTINUOUS
 10
-88.4978792212
 20
-23.941384543
 11
-88.5668410494
 21
-23.7070190138
  0
LWPOLYLINE
  5
458
100
AcDbEntity
  8
0
100
AcDbPolyline
 62
7
  6
CONTINUOUS
 90
3
 70
0
 10
-86.0456283915
 20
-35.8788882669
 10
-86.0399936988
 20
-35.8984926299
 10
-86.0140214997
 20
-35.9864578259
  0
LINE
  5
459
100
AcDbEntity
  8
0
100
AcDbLine
 62
7
  6
CONTINUOUS
 10
-86.1566036824
 20
-35.4764487265
 11
-86.1566479064
 21
-35.4762935274
  0
LINE
  5
45A
100
AcDbEntity
  8
0
100
AcDbLine
 62
7
  6
CONTINUOUS
 10
-86.0081110099
 20
-36.0079433492
 11
-85.8992250072
 21
-36.388616154
  0
LINE
  5
45B
100
AcDbEntity
  8
0
100
AcDbLine
 62
7
  6
CONTINUOUS
 10
-85.0281606145
 20
-39.0841056217
 11
-85.0279301747
 21
-39.0849205093
  0
LINE
  5
45C
100
AcDbEntity
  8
0
100
AcDbLine
 62
7
  6
CONTINUOUS
 10
-86.1786000344
 20
-35.3981249431
 11
-86.155671311
 21
-35.4798002675
  0
LINE
  5
45D
100
AcDbEntity
  8
0
100
AcDbLine
 62
7
  6
CONTINUOUS
 10
-86.0522472255
 20
-35.8552954251
 11
-86.0456283915
 21
-35.8788882669
  0
LINE
  5
45E
100
AcDbEntity
  8
0
100
AcDbLine
 62
7
  6
CONTINUOUS
 10
-86.0643317228
 20
-35.8109512326
 11
-86.1690957751
 21
-35.4291389922
  0
LINE
  5
45F
100
AcDbEntity
  8
0
100
AcDbLine
 62
7
  6
CONTINUOUS
 10
-86.1983272783
 20
-35.3263494035
 11
-86.1777699079
 21
-35.4011121449
  0
LINE
  5
460
100
AcDbEntity
  8
0
100
AcDbLine
 62
250
  6
CONTINUOUS
 10
-85.7130972669
 20
-36.7955284651
 11
-85.8220903123
 21
-36.3963051006
  0
LINE
  5
461
100
AcDbEntity
  8
0
100
AcDbLine
 62
7
  6
CONTINUOUS
 10
-86.0592981603
 20
-35.8295833019
 11
-86.0523628192
 21
-35.8548671284
  0
LINE
  5
462
100
AcDbEntity
  8
0
100
AcDbLine
 62
7
  6
CONTINUOUS
 10
-86.0641842539
 20
-35.8115158362
 11
-86.0589109405
 21
-35.8309963908
  0
LINE
  5
463
100
AcDbEntity
  8
0
100
AcDbLine
 62
7
  6
CONTINUOUS
 10
-86.22372556
 20
-35.2320825378
 11
-86.193607765
 21
-35.3436585779
  0
LWPOLYLINE
  5
464
100
AcDbEntity
  8
0
100
AcDbPolyline
 62
7
  6
CONTINUOUS
 90
4
 70
0
 10
-85.4788115101
 20
-37.4327552446
 10
-85.3650911599
 20
-37.8574075246
 10
-85.2516716952
 20
-38.2742814204
 10
-85.0284644368
 20
-39.0830208591
  0
LWPOLYLINE
  5
465
100
AcDbEntity
  8
0
100
AcDbPolyline
 62
250
  6
CONTINUOUS
 90
3
 70
0
 10
-85.8220903123
 20
-36.3963051006
 10
-85.929461478
 20
-35.9925669502
 10
-86.0353693856
 20
-35.5838190153
  0
LINE
  5
466
100
AcDbEntity
  8
0
100
AcDbLine
 62
7
  6
CONTINUOUS
 10
-86.2755383869
 20
-35.0368789503
 11
-86.2215179731
 21
-35.2403350593
  0
LINE
  5
467
100
AcDbEntity
  8
0
100
AcDbLine
 62
7
  6
CONTINUOUS
 10
-85.6096022532
 20
-36.9332195547
 11
-85.4788115101
 21
-37.4327552446
  0
LINE
  5
468
100
AcDbEntity
  8
0
100
AcDbLine
 62
7
  6
CONTINUOUS
 10
-86.3503846781
 20
-34.7489487544
 11
-86.2755383869
 21
-35.0368789503
  0
LWPOLYLINE
  5
469
100
AcDbEntity
  8
0
100
AcDbPolyline
 62
7
  6
CONTINUOUS
 90
5
 70
0
 10
-85.0281184438
 20
-39.0843262249
 10
-85.0243348566
 20
-39.0997309336
 10
-85.0197786592
 20
-39.1157225664
 10
-85.0145301019
 20
-39.1323352838
 10
-85.0079407904
 20
-39.1511615307
  0
LWPOLYLINE
  5
46A
100
AcDbEntity
  8
0
100
AcDbPolyline
 62
250
  6
CONTINUOUS
 90
10
 70
0
 10
-86.0353693855
 20
-35.5838190154
 10
-86.1551589457
 20
-35.1087288075
 10
-86.2729130896
 20
-34.6275067789
 10
-86.3886492855
 20
-34.1390478966
 10
-86.5026802769
 20
-33.6409334853
 10
-86.6147251255
 20
-33.1332546744
 10
-86.7240454272
 20
-32.6184449919
 10
-86.830459924
 20
-32.0967009371
 10
-86.9342758833
 20
-31.5658670457
 10
-87.0355499827
 20
-31.0249701103
  0
LINE
  5
46B
100
AcDbEntity
  8
0
100
AcDbLine
 62
7
  6
CONTINUOUS
 10
-86.4197255782
 20
-34.4759064599
 11
-86.3503846781
 21
-34.7489487544
  0
LINE
  5
46C
100
AcDbEntity
  8
0
100
AcDbLine
 62
7
  6
CONTINUOUS
 10
-86.4799754144
 20
-34.2331696279
 11
-86.4197255782
 21
-34.4759064599
  0
LINE
  5
46D
100
AcDbEntity
  8
0
100
AcDbLine
 62
7
  6
CONTINUOUS
 10
-86.5223482759
 20
-34.0590531921
 11
-86.4799754144
 21
-34.2331696279
  0
LINE
  5
46E
100
AcDbEntity
  8
0
100
AcDbLine
 62
7
  6
CONTINUOUS
 10
-87.3066619504
 20
30.0764766224
 11
-87.3406023939
 21
29.8557143119
  0
LINE
  5
46F
100
AcDbEntity
  8
0
100
AcDbLine
 62
7
  6
CONTINUOUS
 10
-87.8372363534
 20
25.3526926767
 11
-87.80923409
 21
25.5270886967
  0
LINE
  5
470
100
AcDbEntity
  8
0
100
AcDbLine
 62
7
  6
CONTINUOUS
 10
-87.2686078996
 20
30.3164893711
 11
-87.3066619504
 21
30.0764766224
  0
LINE
  5
471
100
AcDbEntity
  8
0
100
AcDbLine
 62
7
  6
CONTINUOUS
 10
-87.2310736977
 20
30.5460893135
 11
-87.2686078996
 21
30.3164893711
  0
LINE
  5
472
100
AcDbEntity
  8
0
100
AcDbLine
 62
7
  6
CONTINUOUS
 10
-87.8412219564
 20
25.333467907
 11
-87.8103305299
 21
25.5189995756
  0
LINE
  5
473
100
AcDbEntity
  8
0
100
AcDbLine
 62
250
  6
CONTINUOUS
 10
-87.7922952011
 20
25.334181439
 11
-87.6330582756
 21
26.2809639341
  0
LINE
  5
474
100
AcDbEntity
  8
0
100
AcDbLine
 62
7
  6
CONTINUOUS
 10
-87.1937590529
 20
30.767921808
 11
-87.2310736977
 21
30.5460893135
  0
LINE
  5
475
100
AcDbEntity
  8
0
100
AcDbLine
 62
250
  6
CONTINUOUS
 10
-87.6330582756
 20
26.2809639341
 11
-87.4708898316
 21
27.2166549816
  0
LINE
  5
476
100
AcDbEntity
  8
0
100
AcDbLine
 62
7
  6
CONTINUOUS
 10
-87.1546820763
 20
30.9939217713
 11
-87.1937590529
 21
30.767921808
  0
LINE
  5
477
100
AcDbEntity
  8
0
100
AcDbLine
 62
250
  6
CONTINUOUS
 10
-87.4708898316
 20
27.2166549816
 11
-87.3022800337
 21
28.1602486451
  0
LWPOLYLINE
  5
478
100
AcDbEntity
  8
0
100
AcDbPolyline
 62
250
  6
CONTINUOUS
 90
10
 70
0
 10
-87.0356508795
 20
30.369592974
 10
-87.1312573795
 20
29.842234328
 10
-87.2235977473
 20
29.3191463815
 10
-87.3128390702
 20
28.7993019721
 10
-87.3991829148
 20
28.2814659454
 10
-87.4827702936
 20
27.7647623458
 10
-87.5636923123
 20
27.2486665193
 10
-87.6421106892
 20
26.7322593836
 10
-87.7182471475
 20
26.2142351114
 10
-87.7922958013
 20
25.6934629862
  0
LINE
  5
479
100
AcDbEntity
  8
0
100
AcDbLine
 62
250
  6
CONTINUOUS
 10
-87.3022800337
 20
28.1602486451
 11
-87.1269239317
 21
29.1140428096
  0
LINE
  5
47A
100
AcDbEntity
  8
0
100
AcDbLine
 62
250
  6
CONTINUOUS
 10
-87.7922959343
 20
22.6976800659
 11
-87.6385098813
 21
23.5331950693
  0
LWPOLYLINE
  5
47B
100
AcDbEntity
  8
0
100
AcDbPolyline
 62
250
  6
CONTINUOUS
 90
10
 70
0
 10
-87.0356024628
 20
31.0247303975
 10
-86.9344729387
 20
31.5650710471
 10
-86.8307442443
 20
32.0955995252
 10
-86.7243722987
 20
32.6172368613
 10
-86.6150621623
 20
33.1320516795
 10
-86.503009567
 20
33.6397585413
 10
-86.388956908
 20
34.1379173115
 10
-86.273177552
 20
34.6264999775
 10
-86.1554116452
 20
35.1077343342
 10
-86.0356424164
 20
35.5827343856
  0
LINE
  5
47C
100
AcDbEntity
  8
0
100
AcDbLine
 62
7
  6
CONTINUOUS
 10
-87.0236383125
 20
31.7137602942
 11
-87.1546820763
 21
30.9939217713
  0
LINE
  5
47D
100
AcDbEntity
  8
0
100
AcDbLine
 62
250
  6
CONTINUOUS
 10
-86.9333404796
 20
30.1399045832
 11
-87.1269239317
 21
29.1140428096
  0
LINE
  5
47E
100
AcDbEntity
  8
0
100
AcDbLine
 62
250
  6
CONTINUOUS
 10
-87.6385098813
 20
23.5331950693
 11
-87.478020038
 21
24.3729687888
  0
LINE
  5
47F
100
AcDbEntity
  8
0
100
AcDbLine
 62
7
  6
CONTINUOUS
 10
-86.9848474372
 20
31.9167375557
 11
-87.0241629423
 21
31.710905449
  0
LINE
  5
480
100
AcDbEntity
  8
0
100
AcDbLine
 62
250
  6
CONTINUOUS
 10
-86.7200103721
 20
31.239416774
 11
-86.9333404796
 21
30.1399045832
  0
LINE
  5
481
100
AcDbEntity
  8
0
100
AcDbLine
 62
7
  6
CONTINUOUS
 10
-86.9396397037
 20
32.1475142865
 11
-86.9855118284
 21
31.9131641173
  0
LINE
  5
482
100
AcDbEntity
  8
0
100
AcDbLine
 62
250
  6
CONTINUOUS
 10
-87.478020038
 20
24.3729687888
 11
-87.3088926219
 21
25.2269574824
  0
LINE
  5
483
100
AcDbEntity
  8
0
100
AcDbLine
 62
250
  6
CONTINUOUS
 10
-86.4989804601
 20
32.3486772858
 11
-86.7200103721
 21
31.239416774
  0
LINE
  5
484
100
AcDbEntity
  8
0
100
AcDbLine
 62
7
  6
CONTINUOUS
 10
-86.8870394713
 20
32.4097988743
 11
-86.940281852
 21
32.1442223599
  0
LINE
  5
485
100
AcDbEntity
  8
0
100
AcDbLine
 62
250
  6
CONTINUOUS
 10
-86.2701812318
 20
33.4677792805
 11
-86.4989804601
 21
32.3486772858
  0
LINE
  5
486
100
AcDbEntity
  8
0
100
AcDbLine
 62
250
  6
CONTINUOUS
 10
-87.3088926219
 20
25.2269574824
 11
-87.1296284574
 21
26.1030211891
  0
LINE
  5
487
100
AcDbEntity
  8
0
100
AcDbLine
 62
7
  6
CONTINUOUS
 10
-86.8337759311
 20
32.6691442292
 11
-86.8891946194
 21
32.3992047596
  0
LINE
  5
488
100
AcDbEntity
  8
0
100
AcDbLine
 62
7
  6
CONTINUOUS
 10
-85.0283305414
 20
39.0834757517
 11
-85.0282742757
 21
39.0837435329
  0
LINE
  5
489
100
AcDbEntity
  8
0
100
AcDbLine
 62
250
  6
CONTINUOUS
 10
-86.0356521354
 20
34.5853365143
 11
-86.2701812318
 21
33.4677792805
  0
LINE
  5
48A
100
AcDbEntity
  8
0
100
AcDbLine
 62
7
  6
CONTINUOUS
 10
-86.7892899804
 20
32.8807672839
 11
-86.8383240679
 21
32.6472272711
  0
LINE
  5
48B
100
AcDbEntity
  8
0
100
AcDbLine
 62
250
  6
CONTINUOUS
 10
-86.9366993493
 20
27.0182717612
 11
-87.1296284574
 21
26.1030211891
  0
LINE
  5
48C
100
AcDbEntity
  8
0
100
AcDbLine
 62
7
  6
CONTINUOUS
 10
-86.7521903746
 20
33.0537990625
 11
-86.7901527657
 21
32.8767180328
  0
LINE
  5
48D
100
AcDbEntity
  8
0
100
AcDbLine
 62
250
  6
CONTINUOUS
 10
-85.8186936453
 20
35.5929027823
 11
-86.0356514911
 21
34.5852935667
  0
LINE
  5
48E
100
AcDbEntity
  8
0
100
AcDbLine
 62
250
  6
CONTINUOUS
 10
-86.7282294666
 20
27.9781255861
 11
-86.9366993493
 21
27.0182717612
  0
LINE
  5
48F
100
AcDbEntity
  8
0
100
AcDbLine
 62
7
  6
CONTINUOUS
 10
-86.6987736123
 20
33.2974141188
 11
-86.7559801129
 21
33.0363014729
  0
LINE
  5
490
100
AcDbEntity
  8
0
100
AcDbLine
 62
250
  6
CONTINUOUS
 10
-85.5961026486
 20
36.6027257205
 11
-85.8186936453
 21
35.5929027823
  0
LINE
  5
491
100
AcDbEntity
  8
0
100
AcDbLine
 62
250
  6
CONTINUOUS
 10
-86.5085974856
 20
28.9619901183
 11
-86.7282294666
 21
27.9781255861
  0
LINE
  5
492
100
AcDbEntity
  8
0
100
AcDbLine
 62
7
  6
CONTINUOUS
 10
-87.8372363534
 20
25.3526926767
 11
-87.8775491524
 21
25.175313487
  0
LINE
  5
493
100
AcDbEntity
  8
0
100
AcDbLine
 62
7
  6
CONTINUOUS
 10
-86.6445675441
 20
33.5380721054
 11
-86.7152096311
 21
33.2231193218
  0
LINE
  5
494
100
AcDbEntity
  8
0
100
AcDbLine
 62
250
  6
CONTINUOUS
 10
-85.3701361703
 20
37.6048467438
 11
-85.5961026486
 21
36.6027257205
  0
LWPOLYLINE
  5
495
100
AcDbEntity
  8
0
100
AcDbPolyline
 62
250
  6
CONTINUOUS
 90
10
 70
0
 10
-86.0356503608
 20
35.1948915165
 10
-86.1526730703
 20
34.6859712905
 10
-86.2688184886
 20
34.1672706102
 10
-86.3838000369
 20
33.6402140377
 10
-86.4971590179
 20
33.1070582431
 10
-86.6087571369
 20
32.568584941
 10
-86.7187396714
 20
32.0240818504
 10
-86.8268890931
 20
31.4744678903
 10
-86.9326610308
 20
30.9223172106
 10
-87.0356497338
 20
30.3695449661
  0
LINE
  5
496
100
AcDbEntity
  8
0
100
AcDbLine
 62
250
  6
CONTINUOUS
 10
-86.2772160281
 20
29.971732979
 11
-86.5085974856
 21
28.9619901183
  0
LINE
  5
497
100
AcDbEntity
  8
0
100
AcDbLine
 62
250
  6
CONTINUOUS
 10
-85.1421478867
 20
38.5931731386
 11
-85.3701361703
 21
37.6048467438
  0
LINE
  5
498
100
AcDbEntity
  8
0
100
AcDbLine
 62
7
  6
CONTINUOUS
 10
-86.6043831911
 20
33.7125389515
 11
-86.6679820026
 21
33.434866045
  0
LINE
  5
499
100
AcDbEntity
  8
0
100
AcDbLine
 62
7
  6
CONTINUOUS
 10
-87.8837801075
 20
25.1519165025
 11
-87.8403096985
 21
25.3378160127
  0
LINE
  5
49A
100
AcDbEntity
  8
0
100
AcDbLine
 62
250
  6
CONTINUOUS
 10
-85.0281612661
 20
39.078710371
 11
-85.1421478867
 21
38.5931731386
  0
LWPOLYLINE
  5
49B
100
AcDbEntity
  8
0
100
AcDbPolyline
 62
7
  6
CONTINUOUS
 90
4
 70
0
 10
-86.0356382058
 20
35.1949183674
 10
-85.926566157
 20
35.6574014738
 10
-85.8163745408
 20
36.1125890834
 10
-85.7048230297
 20
36.5604349743
  0
LINE
  5
49C
100
AcDbEntity
  8
0
100
AcDbLine
 62
250
  6
CONTINUOUS
 10
-86.0356442352
 20
30.9982610505
 11
-86.2772160281
 21
29.971732979
  0
LINE
  5
49D
100
AcDbEntity
  8
0
100
AcDbLine
 62
7
  6
CONTINUOUS
 10
-86.553657006
 20
33.928298316
 11
-86.6059842512
 21
33.7056427482
  0
LINE
  5
49E
100
AcDbEntity
  8
0
100
AcDbLine
 62
250
  6
CONTINUOUS
 10
-87.1391567329
 20
23.4375371205
 11
-86.9399030529
 21
24.2799756417
  0
LINE
  5
49F
100
AcDbEntity
  8
0
100
AcDbLine
 62
7
  6
CONTINUOUS
 10
-86.5168623914
 20
34.0818554748
 11
-86.5582409051
 21
33.9090058955
  0
LINE
  5
4A0
100
AcDbEntity
  8
0
100
AcDbLine
 62
250
  6
CONTINUOUS
 10
-86.0356442527
 20
30.998416927
 11
-85.8218559887
 21
31.8859300607
  0
LINE
  5
4A1
100
AcDbEntity
  8
0
100
AcDbLine
 62
7
  6
CONTINUOUS
 10
-85.0276922709
 20
39.0866965308
 11
-85.0359130396
 21
39.0526914283
  0
LINE
  5
4A2
100
AcDbEntity
  8
0
100
AcDbLine
 62
7
  6
CONTINUOUS
 10
-85.0359130396
 20
39.0526914283
 11
-85.0359949708
 21
39.0523566261
  0
LINE
  5
4A3
100
AcDbEntity
  8
0
100
AcDbLine
 62
250
  6
CONTINUOUS
 10
-86.9399030529
 20
24.2799756417
 11
-86.7367506064
 21
25.1113754946
  0
LINE
  5
4A4
100
AcDbEntity
  8
0
100
AcDbLine
 62
250
  6
CONTINUOUS
 10
-85.8218559887
 20
31.8859300607
 11
-85.6019839964
 21
32.7797168398
  0
LINE
  5
4A5
100
AcDbEntity
  8
0
100
AcDbLine
 62
250
  6
CONTINUOUS
 10
-85.6019839964
 20
32.7797168398
 11
-85.3762406122
 21
33.6791741682
  0
LINE
  5
4A6
100
AcDbEntity
  8
0
100
AcDbLine
 62
250
  6
CONTINUOUS
 10
-86.7367506064
 20
25.1113754946
 11
-86.5180072817
 21
25.9799369414
  0
LWPOLYLINE
  5
4A7
100
AcDbEntity
  8
0
100
AcDbPolyline
 62
250
  6
CONTINUOUS
 90
3
 70
0
 10
-85.3762406122
 20
33.6791741682
 10
-85.14537201
 20
34.5816785488
 10
-85.0280036216
 20
35.0342484816
  0
LINE
  5
4A8
100
AcDbEntity
  8
0
100
AcDbLine
 62
250
  6
CONTINUOUS
 10
-86.5180072817
 20
25.9799369414
 11
-86.2841878866
 21
26.8828444113
  0
LINE
  5
4A9
100
AcDbEntity
  8
0
100
AcDbLine
 62
250
  6
CONTINUOUS
 10
-86.2841878866
 20
26.8828444113
 11
-86.035643573
 21
27.8189894555
  0
LINE
  5
4AA
100
AcDbEntity
  8
0
100
AcDbLine
 62
250
  6
CONTINUOUS
 10
-86.0356435431
 20
27.8190902899
 11
-85.8248597699
 21
28.5945168445
  0
LINE
  5
4AB
100
AcDbEntity
  8
0
100
AcDbLine
 62
250
  6
CONTINUOUS
 10
-85.8248597699
 20
28.5945168445
 11
-85.6075832519
 21
29.3793839648
  0
LINE
  5
4AC
100
AcDbEntity
  8
0
100
AcDbLine
 62
250
  6
CONTINUOUS
 10
-85.6075832519
 20
29.3793839648
 11
-85.3823153994
 21
30.1773829674
  0
LWPOLYLINE
  5
4AD
100
AcDbEntity
  8
0
100
AcDbPolyline
 62
250
  6
CONTINUOUS
 90
3
 70
0
 10
-85.3823153994
 20
30.1773829674
 10
-85.1482579096
 20
30.9935652382
 10
-85.0279477706
 20
31.4098193854
  0
LINE
  5
4AE
100
AcDbEntity
  8
0
100
AcDbLine
 62
250
  6
CONTINUOUS
 10
-85.3820907883
 20
-30.1779960276
 11
-85.0278988662
 21
-31.4097674607
  0
LINE
  5
4AF
100
AcDbEntity
  8
0
100
AcDbLine
 62
250
  6
CONTINUOUS
 10
-85.6072742242
 20
-29.3802542772
 11
-85.3820907883
 21
-30.1779960276
  0
LINE
  5
4B0
100
AcDbEntity
  8
0
100
AcDbLine
 62
250
  6
CONTINUOUS
 10
-85.8246502114
 20
-28.5952236867
 11
-85.6072742242
 21
-29.3802542772
  0
LINE
  5
4B1
100
AcDbEntity
  8
0
100
AcDbLine
 62
250
  6
CONTINUOUS
 10
-86.0356427773
 20
-27.8190926956
 11
-85.8246502114
 21
-28.5952236867
  0
LINE
  5
4B2
100
AcDbEntity
  8
0
100
AcDbLine
 62
250
  6
CONTINUOUS
 10
-86.2841610937
 20
-26.8830073587
 11
-86.0356428064
 21
-27.8189918571
  0
LINE
  5
4B3
100
AcDbEntity
  8
0
100
AcDbLine
 62
250
  6
CONTINUOUS
 10
-86.5179700822
 20
-25.9801788277
 11
-86.2841610937
 21
-26.8830073587
  0
LINE
  5
4B4
100
AcDbEntity
  8
0
100
AcDbLine
 62
250
  6
CONTINUOUS
 10
-85.0279831855
 20
-35.034048431
 11
-85.2612644161
 21
-34.1304194861
  0
LINE
  5
4B5
100
AcDbEntity
  8
0
100
AcDbLine
 62
250
  6
CONTINUOUS
 10
-85.2612644161
 20
-34.1304194861
 11
-85.4889410076
 21
-33.232038888
  0
LINE
  5
4B6
100
AcDbEntity
  8
0
100
AcDbLine
 62
250
  6
CONTINUOUS
 10
-86.7367139758
 20
-25.1116991416
 11
-86.5179700822
 21
-25.9801788277
  0
LWPOLYLINE
  5
4B7
100
AcDbEntity
  8
0
100
AcDbPolyline
 62
7
  6
CONTINUOUS
 90
3
 70
0
 10
-85.0336901656
 20
-39.062866309
 10
-85.0388798642
 20
-39.0420064171
 10
-85.0281401921
 20
-39.0841858293
  0
LINE
  5
4B8
100
AcDbEntity
  8
0
100
AcDbLine
 62
250
  6
CONTINUOUS
 10
-85.4889410076
 20
-33.232038888
 11
-85.7111803674
 21
-32.3379763631
  0
LINE
  5
4B9
100
AcDbEntity
  8
0
100
AcDbLine
 62
7
  6
CONTINUOUS
 10
-85.0281704903
 20
-39.0847430846
 11
-85.0278146002
 21
-39.0862049973
  0
LINE
  5
4BA
100
AcDbEntity
  8
0
100
AcDbLine
 62
250
  6
CONTINUOUS
 10
-86.9398724503
 20
-24.2802590001
 11
-86.7367139758
 21
-25.1116991416
  0
LINE
  5
4BB
100
AcDbEntity
  8
0
100
AcDbLine
 62
250
  6
CONTINUOUS
 10
-85.7111803674
 20
-32.3379763631
 11
-85.9287277974
 21
-31.4445989631
  0
LINE
  5
4BC
100
AcDbEntity
  8
0
100
AcDbLine
 62
250
  6
CONTINUOUS
 10
-85.9287277974
 20
-31.4445989631
 11
-86.1574997257
 21
-30.483836323
  0
LINE
  5
4BD
100
AcDbEntity
  8
0
100
AcDbLine
 62
7
  6
CONTINUOUS
 10
-86.5827070531
 20
-33.8055702543
 11
-86.5223482759
 21
-34.0590531921
  0
LWPOLYLINE
  5
4BE
100
AcDbEntity
  8
0
100
AcDbPolyline
 62
7
  6
CONTINUOUS
 90
5
 70
0
 10
-86.0356381842
 20
-35.1949359515
 10
-85.926571933
 20
-35.657393338
 10
-85.816385199
 20
-36.1125593055
 10
-85.7048386134
 20
-36.5603819808
 10
-85.6096022532
 20
-36.9332195547
  0
LWPOLYLINE
  5
4BF
100
AcDbEntity
  8
0
100
AcDbPolyline
 62
250
  6
CONTINUOUS
 90
10
 70
0
 10
-86.9398724503
 20
-24.2802590001
 10
-87.1364953029
 20
-23.4487132027
 10
-87.2333877126
 20
-23.0265949823
 10
-87.3262814578
 20
-22.612802365
 10
-87.4151615535
 20
-22.2076494629
 10
-87.4998329625
 20
-21.8122428685
 10
-87.5799910554
 20
-21.4281697889
 10
-87.6554775839
 20
-21.0563046227
 10
-87.7262686413
 20
-20.6968570548
 10
-87.7922877956
 20
-20.350305614
  0
LINE
  5
4C0
100
AcDbEntity
  8
0
100
AcDbLine
 62
250
  6
CONTINUOUS
 10
-85.2575418671
 20
-38.0958570972
 11
-85.030212142
 21
-39.0760261307
  0
LINE
  5
4C1
100
AcDbEntity
  8
0
100
AcDbLine
 62
250
  6
CONTINUOUS
 10
-86.1574997257
 20
-30.483836323
 11
-86.3943946411
 21
-29.4635985685
  0
LWPOLYLINE
  5
4C2
100
AcDbEntity
  8
0
100
AcDbPolyline
 62
250
  6
CONTINUOUS
 90
10
 70
0
 10
-86.0356518515
 20
-35.1948819193
 10
-86.1526856918
 20
-34.6859001182
 10
-86.2688362375
 20
-34.1671816428
 10
-86.3838186052
 20
-33.6401381427
 10
-86.4971753678
 20
-33.1070151432
 10
-86.608770597
 20
-32.5685779528
 10
-86.7187515441
 20
-32.0240986676
 10
-86.8268997466
 20
-31.4744930542
 10
-86.9326686949
 20
-30.9223375581
 10
-87.0356508878
 20
-30.3695472764
  0
LINE
  5
4C3
100
AcDbEntity
  8
0
100
AcDbLine
 62
7
  6
CONTINUOUS
 10
-86.6362874553
 20
-33.5747204994
 11
-86.5827070531
 21
-33.8055702543
  0
LINE
  5
4C4
100
AcDbEntity
  8
0
100
AcDbLine
 62
250
  6
CONTINUOUS
 10
-85.4851416723
 20
-37.0977434193
 11
-85.2575418671
 21
-38.0958570972
  0
LINE
  5
4C5
100
AcDbEntity
  8
0
100
AcDbLine
 62
7
  6
CONTINUOUS
 10
-86.6828713553
 20
-33.3692355878
 11
-86.6362874553
 21
-33.5747204994
  0
LINE
  5
4C6
100
AcDbEntity
  8
0
100
AcDbLine
 62
250
  6
CONTINUOUS
 10
-86.3943946411
 20
-29.4635985685
 11
-86.619662051
 21
-28.4677976793
  0
LINE
  5
4C7
100
AcDbEntity
  8
0
100
AcDbLine
 62
250
  6
CONTINUOUS
 10
-85.7090961483
 20
-36.0930968006
 11
-85.4851416723
 21
-37.0977434193
  0
LINE
  5
4C8
100
AcDbEntity
  8
0
100
AcDbLine
 62
7
  6
CONTINUOUS
 10
-86.7315922321
 20
-33.1490741637
 11
-86.6828713553
 21
-33.3692355878
  0
LINE
  5
4C9
100
AcDbEntity
  8
0
100
AcDbLine
 62
250
  6
CONTINUOUS
 10
-86.619662051
 20
-28.4677976793
 11
-86.8340924222
 21
-27.4943463996
  0
LINE
  5
4CA
100
AcDbEntity
  8
0
100
AcDbLine
 62
250
  6
CONTINUOUS
 10
-85.9285164349
 20
-35.0859586311
 11
-85.7090961483
 21
-36.0930968006
  0
LINE
  5
4CB
100
AcDbEntity
  8
0
100
AcDbLine
 62
7
  6
CONTINUOUS
 10
-86.7766243219
 20
-32.9404861624
 11
-86.7315922321
 21
-33.1490741637
  0
LINE
  5
4CC
100
AcDbEntity
  8
0
100
AcDbLine
 62
250
  6
CONTINUOUS
 10
-86.8340924222
 20
-27.4943463996
 11
-87.0356509874
 21
-26.5523373245
  0
LINE
  5
4CD
100
AcDbEntity
  8
0
100
AcDbLine
 62
250
  6
CONTINUOUS
 10
-85.9285164349
 20
-35.0859586311
 11
-86.153414931
 21
-34.0279088096
  0
LINE
  5
4CE
100
AcDbEntity
  8
0
100
AcDbLine
 62
7
  6
CONTINUOUS
 10
-86.8241483761
 20
-32.7153701961
 11
-86.7766243219
 21
-32.9404861624
  0
LWPOLYLINE
  5
4CF
100
AcDbEntity
  8
0
100
AcDbPolyline
 62
7
  6
CONTINUOUS
 90
4
 70
0
 10
-85.0330996799
 20
-39.0625765524
 10
-85.0318938571
 20
-39.0683701967
 10
-85.030212142
 20
-39.0760261307
 10
-85.0281704903
 20
-39.0847430846
  0
LINE
  5
4D0
100
AcDbEntity
  8
0
100
AcDbLine
 62
250
  6
CONTINUOUS
 10
-87.2206978481
 20
-25.6613144297
 11
-87.0356512584
 21
-26.5521428092
  0
LINE
  5
4D1
100
AcDbEntity
  8
0
100
AcDbLine
 62
250
  6
CONTINUOUS
 10
-86.153414931
 20
-34.0279088096
 11
-86.385592102
 21
-32.9068809443
  0
LINE
  5
4D2
100
AcDbEntity
  8
0
100
AcDbLine
 62
7
  6
CONTINUOUS
 10
-86.8761706736
 20
-32.463239696
 11
-86.8241483761
 21
-32.7153701961
  0
LINE
  5
4D3
100
AcDbEntity
  8
0
100
AcDbLine
 62
250
  6
CONTINUOUS
 10
-86.385592102
 20
-32.9068809443
 11
-86.610290956
 21
-31.7936423751
  0
LINE
  5
4D4
100
AcDbEntity
  8
0
100
AcDbLine
 62
7
  6
CONTINUOUS
 10
-86.9306940967
 20
-32.1927771383
 11
-86.8761706736
 21
-32.463239696
  0
LINE
  5
4D5
100
AcDbEntity
  8
0
100
AcDbLine
 62
250
  6
CONTINUOUS
 10
-87.3946967742
 20
-24.7973015526
 11
-87.2206978481
 21
-25.6613144297
  0
LINE
  5
4D6
100
AcDbEntity
  8
0
100
AcDbLine
 62
7
  6
CONTINUOUS
 10
-85.0330996799
 20
-39.0625765524
 11
-85.0344254969
 21
-39.0558878715
  0
LINE
  5
4D7
100
AcDbEntity
  8
0
100
AcDbLine
 62
250
  6
CONTINUOUS
 10
-86.610290956
 20
-31.7936423751
 11
-86.8279551928
 21
-30.6868611808
  0
LINE
  5
4D8
100
AcDbEntity
  8
0
100
AcDbLine
 62
7
  6
CONTINUOUS
 10
-86.9769194162
 20
-31.9581271402
 11
-86.9300537872
 21
-32.1959894728
  0
LINE
  5
4D9
100
AcDbEntity
  8
0
100
AcDbLine
 62
7
  6
CONTINUOUS
 10
-85.0344993389
 20
-39.0555045165
 11
-85.0339958863
 21
-39.0580908148
  0
LINE
  5
4DA
100
AcDbEntity
  8
0
100
AcDbLine
 62
250
  6
CONTINUOUS
 10
-87.5593073572
 20
-23.9513872107
 11
-87.3946967742
 21
-24.7973015526
  0
LINE
  5
4DB
100
AcDbEntity
  8
0
100
AcDbLine
 62
7
  6
CONTINUOUS
 10
-87.0140116641
 20
-31.7650504335
 11
-86.9745848983
 21
-31.9701199898
  0
LINE
  5
4DC
100
AcDbEntity
  8
0
100
AcDbLine
 62
250
  6
CONTINUOUS
 10
-86.8279551928
 20
-30.6868611808
 11
-87.0356505508
 21
-29.6011364606
  0
LINE
  5
4DD
100
AcDbEntity
  8
0
100
AcDbLine
 62
7
  6
CONTINUOUS
 10
-87.0519997128
 20
-31.5618068362
 11
-87.01167444
 21
-31.7773706284
  0
LINE
  5
4DE
100
AcDbEntity
  8
0
100
AcDbLine
 62
250
  6
CONTINUOUS
 10
-87.2157108435
 20
-28.6342430131
 11
-87.0356506528
 21
-29.6011162397
  0
LINE
  5
4DF
100
AcDbEntity
  8
0
100
AcDbLine
 62
7
  6
CONTINUOUS
 10
-87.1020306619
 20
-31.2892755101
 11
-87.0395268837
 21
-31.6290123972
  0
LWPOLYLINE
  5
4E0
100
AcDbEntity
  8
0
100
AcDbPolyline
 62
250
  6
CONTINUOUS
 90
3
 70
0
 10
-87.7922949423
 20
-22.6975349085
 10
-87.7161323252
 20
-23.115307558
 10
-87.5593073572
 20
-23.9513872107
  0
LWPOLYLINE
  5
4E1
100
AcDbEntity
  8
0
100
AcDbPolyline
 62
250
  6
CONTINUOUS
 90
10
 70
0
 10
-87.0356508281
 20
-30.369569068
 10
-87.1312764195
 20
-29.8421226501
 10
-87.2236306126
 20
-29.3189755699
 10
-87.3128808671
 20
-28.7990930925
 10
-87.3992293743
 20
-28.2812308307
 10
-87.4828170472
 20
-27.7645080604
 10
-87.56373467
 20
-27.2484050772
 10
-87.6421447034
 20
-26.7320101318
 10
-87.7182701563
 20
-26.2140216582
 10
-87.7923060377
 20
-25.6933157562
  0
LINE
  5
4E2
100
AcDbEntity
  8
0
100
AcDbLine
 62
250
  6
CONTINUOUS
 10
-87.3873335095
 20
-27.6877257917
 11
-87.2157108435
 21
-28.6342430131
  0
LWPOLYLINE
  5
4E3
100
AcDbEntity
  8
0
100
AcDbPolyline
 62
250
  6
CONTINUOUS
 90
10
 70
0
 10
-87.0355499846
 20
-31.0249700986
 10
-87.1373063533
 20
-30.4540300634
 10
-87.2352034889
 20
-29.8737760702
 10
-87.3289893964
 20
-29.2860572819
 10
-87.4184198337
 20
-28.6926769649
 10
-87.5032583877
 20
-28.0953919399
 10
-87.5832783388
 20
-27.4959007691
 10
-87.6582622
 20
-26.8958466443
 10
-87.7279998219
 20
-26.296829291
 10
-87.7922882899
 20
-25.700405501
  0
LINE
  5
4E4
100
AcDbEntity
  8
0
100
AcDbLine
 62
7
  6
CONTINUOUS
 10
-87.1532120102
 20
-31.0024122696
 11
-87.1020306619
 21
-31.2892755101
  0
LINE
  5
4E5
100
AcDbEntity
  8
0
100
AcDbLine
 62
250
  6
CONTINUOUS
 10
-87.5527451656
 20
-26.7478410256
 11
-87.3873335095
 21
-27.6877257917
  0
LINE
  5
4E6
100
AcDbEntity
  8
0
100
AcDbLine
 62
7
  6
CONTINUOUS
 10
-87.203076366
 20
-30.7132331409
 11
-87.1526616147
 21
-31.0055630372
  0
LINE
  5
4E7
100
AcDbEntity
  8
0
100
AcDbLine
 62
7
  6
CONTINUOUS
 10
-87.2139995836
 20
-30.6484935392
 11
-87.199728836
 21
-30.7329752519
  0
LWPOLYLINE
  5
4E8
100
AcDbEntity
  8
0
100
AcDbPolyline
 62
250
  6
CONTINUOUS
 90
3
 70
0
 10
-87.7923351395
 20
-25.3337608315
 10
-87.7127696449
 20
-25.8102705059
 10
-87.5527451656
 20
-26.7478410256
  0
LWPOLYLINE
  5
4E9
100
AcDbEntity
  8
0
100
AcDbPolyline
 62
7
  6
CONTINUOUS
 90
3
 70
0
 10
-87.8103312873
 20
-25.5189938163
 10
-87.840311759
 20
-25.3378055876
 10
-87.8822174804
 20
-25.1575825309
  0
LINE
  5
4EA
100
AcDbEntity
  8
0
100
AcDbLine
 62
7
  6
CONTINUOUS
 10
-87.7922960286
 20
-25.7004060711
 11
-87.7921294331
 21
-25.701948351
  0
LINE
  5
4EB
100
AcDbEntity
  8
0
100
AcDbLine
 62
7
  6
CONTINUOUS
 10
-87.6337789842
 20
-27.5579111338
 11
-87.6030870192
 21
-27.8448775808
  0
LINE
  5
4EC
100
AcDbEntity
  8
0
100
AcDbLine
 62
250
  6
CONTINUOUS
 10
-87.036038819
 20
-31.6478204894
 11
-87.0360502335
 21
-31.6477069873
  0
LINE
  5
4ED
100
AcDbEntity
  8
0
100
AcDbLine
 62
7
  6
CONTINUOUS
 10
-87.6610020705
 20
-27.2893860802
 11
-87.6337789842
 21
-27.5579111338
  0
LINE
  5
4EE
100
AcDbEntity
  8
0
100
AcDbLine
 62
7
  6
CONTINUOUS
 10
-87.7922774777
 20
-25.7004001325
 11
-87.8103309922
 21
-25.5189967812
  0
LINE
  5
4EF
100
AcDbEntity
  8
0
100
AcDbLine
 62
7
  6
CONTINUOUS
 10
-87.6853000788
 20
-27.0366400855
 11
-87.6610020705
 21
-27.2893860802
  0
LINE
  5
4F0
100
AcDbEntity
  8
0
100
AcDbLine
 62
7
  6
CONTINUOUS
 10
-87.7070703997
 20
-26.7979215032
 11
-87.6853000788
 21
-27.0366400855
  0
LINE
  5
4F1
100
AcDbEntity
  8
0
100
AcDbLine
 62
7
  6
CONTINUOUS
 10
-88.5668410494
 20
-23.7070190138
 11
-88.5790020077
 21
-23.5648347664
  0
LINE
  5
4F2
100
AcDbEntity
  8
0
100
AcDbLine
 62
7
  6
CONTINUOUS
 10
-87.7266126833
 20
-26.5720780956
 11
-87.7070703997
 21
-26.7979215032
  0
LINE
  5
4F3
100
AcDbEntity
  8
0
100
AcDbLine
 62
7
  6
CONTINUOUS
 10
-87.7524048729
 20
-26.2538091287
 11
-87.7266126833
 21
-26.5720780956
  0
LINE
  5
4F4
100
AcDbEntity
  8
0
100
AcDbLine
 62
7
  6
CONTINUOUS
 10
-87.7737468797
 20
-25.9688035927
 11
-87.7524048729
 21
-26.2538091287
  0
LINE
  5
4F5
100
AcDbEntity
  8
0
100
AcDbLine
 62
7
  6
CONTINUOUS
 10
-87.7857609131
 20
-25.7975520931
 11
-87.7737468797
 21
-25.9688035927
  0
LINE
  5
4F6
100
AcDbEntity
  8
0
100
AcDbLine
 62
7
  6
CONTINUOUS
 10
-87.7923024464
 20
-25.7002994703
 11
-87.7922959957
 21
-25.7004062807
  0
LINE
  5
4F7
100
AcDbEntity
  8
0
100
AcDbLine
 62
7
  6
CONTINUOUS
 10
-88.5668430917
 20
23.7070061879
 11
-88.5790030987
 21
23.5647505383
  0
LINE
  5
4F8
100
AcDbEntity
  8
0
100
AcDbLine
 62
250
  6
CONTINUOUS
 10
-87.0360184869
 20
31.6478369008
 11
-87.0360227932
 21
31.6477902032
  0
LINE
  5
4F9
100
AcDbEntity
  8
0
100
AcDbLine
 62
7
  6
CONTINUOUS
 10
-87.7915973234
 20
25.7070454107
 11
-87.8106997131
 21
25.5165484849
  0
LWPOLYLINE
  5
4FA
100
AcDbEntity
  8
0
100
AcDbPolyline
 62
250
  6
CONTINUOUS
 90
10
 70
0
 10
-87.7922844597
 20
25.7004075554
 10
-87.7283712425
 20
26.2934673633
 10
-87.6589828033
 20
26.8897455476
 10
-87.5843043606
 20
27.4877238154
 10
-87.5045567114
 20
28.0856300557
 10
-87.419917301
 20
28.6820387645
 10
-87.3304952483
 20
29.2759170245
 10
-87.236439906
 20
29.8658444597
 10
-87.1380483284
 20
30.4495012163
 10
-87.0357345041
 20
31.0240089346
  0
LINE
  5
4FB
100
AcDbEntity
  8
0
100
AcDbLine
 62
7
  6
CONTINUOUS
 10
-87.7921201061
 20
25.7020223548
 11
-87.7922593225
 21
25.700732675
  0
LINE
  5
4FC
100
AcDbEntity
  8
0
100
AcDbLine
 62
7
  6
CONTINUOUS
 10
-87.7922593225
 20
25.700732675
 11
-87.7923628407
 21
25.6998237442
  0
LINE
  5
4FD
100
AcDbEntity
  8
0
100
AcDbLine
 62
7
  6
CONTINUOUS
 10
-87.7920372063
 20
25.7025722428
 11
-87.7929966064
 21
25.6946710261
  0
LINE
  5
4FE
100
AcDbEntity
  8
0
100
AcDbLine
 62
7
  6
CONTINUOUS
 10
-87.5168017143
 20
28.580036575
 11
-87.5435200182
 21
28.3617071413
  0
LINE
  5
4FF
100
AcDbEntity
  8
0
100
AcDbLine
 62
7
  6
CONTINUOUS
 10
-87.4899367239
 20
28.791754094
 11
-87.5168017143
 21
28.580036575
  0
LINE
  5
500
100
AcDbEntity
  8
0
100
AcDbLine
 62
7
  6
CONTINUOUS
 10
-87.7921201061
 20
25.7020223548
 11
-87.7971324771
 21
25.6644543872
  0
LINE
  5
501
100
AcDbEntity
  8
0
100
AcDbLine
 62
7
  6
CONTINUOUS
 10
-87.4579361431
 20
29.0346656492
 11
-87.4899367239
 21
28.791754094
  0
LINE
  5
502
100
AcDbEntity
  8
0
100
AcDbLine
 62
7
  6
CONTINUOUS
 10
-87.4263996505
 20
29.2652887189
 11
-87.4579361431
 21
29.0346656492
  0
LINE
  5
503
100
AcDbEntity
  8
0
100
AcDbLine
 62
7
  6
CONTINUOUS
 10
-87.3955124627
 20
29.4836573265
 11
-87.4263996505
 21
29.2652887189
  0
LINE
  5
504
100
AcDbEntity
  8
0
100
AcDbLine
 62
7
  6
CONTINUOUS
 10
-87.3603272966
 20
29.7242876636
 11
-87.3955124627
 21
29.4836573265
  0
LINE
  5
505
100
AcDbEntity
  8
0
100
AcDbLine
 62
7
  6
CONTINUOUS
 10
-87.3406023939
 20
29.8557143119
 11
-87.3603272966
 21
29.7242876636
  0
LWPOLYLINE
  5
506
100
AcDbEntity
  8
0
100
AcDbPolyline
 62
250
  6
CONTINUOUS
 90
9
 70
0
 10
-87.7922960372
 20
20.3503457118
 10
-87.7272651352
 20
20.6917650797
 10
-87.6574477018
 20
21.0465187285
 10
-87.5828840518
 20
21.414138078
 10
-87.503763001
 20
21.7937475192
 10
-87.4200474711
 20
22.1853226153
 10
-87.3314132864
 20
22.5900095838
 10
-87.2377349521
 20
23.0078236458
 10
-87.1391567329
 20
23.4375371205
  0
LINE
  5
507
100
AcDbEntity
  8
0
100
AcDbLine
 62
7
  6
CONTINUOUS
 10
-85.0281401921
 20
-39.0841858293
 11
-85.0281184438
 21
-39.0843262249
  0
LINE
  5
508
100
AcDbEntity
  8
0
100
AcDbLine
 62
7
  6
CONTINUOUS
 10
-87.7975278499
 20
-25.6615073767
 11
-87.7914933635
 21
-25.7067492373
  0
LINE
  5
509
100
AcDbEntity
  8
0
100
AcDbLine
 62
7
  6
CONTINUOUS
 10
-87.7933055395
 20
-25.6921447646
 11
-87.7925194825
 21
-25.6985898915
  0
LINE
  5
50A
100
AcDbEntity
  8
0
100
AcDbLine
 62
7
  6
CONTINUOUS
 10
-87.7923430693
 20
-25.6999944862
 11
-87.7922960286
 21
-25.7004060711
  0
LINE
  5
50B
100
AcDbEntity
  8
0
100
AcDbLine
 62
7
  6
CONTINUOUS
 10
-87.6030870192
 20
-27.8448775808
 11
-87.5944836745
 21
-27.9226549071
  0
LINE
  5
50C
100
AcDbEntity
  8
0
100
AcDbLine
 62
7
  6
CONTINUOUS
 10
-88.5789753882
 20
23.5667421505
 11
-88.5753963255
 21
23.4662046092
  0
LINE
  5
50D
100
AcDbEntity
  8
0
100
AcDbLine
 62
7
  6
CONTINUOUS
 10
-88.5789621583
 20
-23.5676039643
 11
-88.5789753883
 21
-23.5667421429
  0
LINE
  5
50E
100
AcDbEntity
  8
0
100
AcDbLine
 62
7
  6
CONTINUOUS
 10
-87.7922380157
 20
-25.7009920373
 11
-87.7922875675
 21
-25.6932836964
  0
LINE
  5
50F
100
AcDbEntity
  8
0
100
AcDbLine
 62
7
  6
CONTINUOUS
 10
-88.5810857707
 20
22.8753941732
 11
-88.5768981146
 21
22.2691086228
  0
LWPOLYLINE
  5
510
100
AcDbEntity
  8
0
100
AcDbPolyline
 62
250
  6
CONTINUOUS
 90
3
 70
0
 10
-87.0360502335
 20
-31.6477069873
 10
-87.0360713343
 20
-31.6437977744
 10
-87.0358280843
 20
-31.5818090397
  0
LINE
  5
511
100
AcDbEntity
  8
0
100
AcDbLine
 62
7
  6
CONTINUOUS
 10
-88.5810857707
 20
-22.8753941884
 11
-88.577432073
 21
-23.5667194434
  0
LINE
  5
512
100
AcDbEntity
  8
0
100
AcDbLine
 62
250
  6
CONTINUOUS
 10
-87.0360337828
 20
31.6438380119
 11
-87.0356375902
 21
31.5452604816
  0
LINE
  5
513
100
AcDbEntity
  8
0
100
AcDbLine
 62
7
  6
CONTINUOUS
 10
-88.3730974116
 20
24.1221225495
 11
-88.3651003806
 21
22.201730707
  0
LINE
  5
514
100
AcDbEntity
  8
0
100
AcDbLine
 62
250
  6
CONTINUOUS
 10
-87.0361718456
 20
31.1935500582
 11
-87.0356024628
 21
31.0247303975
  0
LINE
  5
515
100
AcDbEntity
  8
0
100
AcDbLine
 62
7
  6
CONTINUOUS
 10
-88.5768981146
 20
22.2691086228
 11
-88.5767906735
 21
22.2000536749
  0
LINE
  5
516
100
AcDbEntity
  8
0
100
AcDbLine
 62
7
  6
CONTINUOUS
 10
-88.581308577
 20
-22.1997193598
 11
-88.5806262973
 21
-22.797539293
  0
LINE
  5
517
100
AcDbEntity
  8
0
100
AcDbLine
 62
7
  6
CONTINUOUS
 10
-88.560018692
 20
0.0000050667
 11
-88.5557811227
 21
-22.1996971177
  0
LINE
  5
518
100
AcDbEntity
  8
0
100
AcDbLine
 62
250
  6
CONTINUOUS
 10
-87.7922877956
 20
-20.350305614
 11
-87.7923007788
 21
0.0000004756
  0
LINE
  5
519
100
AcDbEntity
  8
0
100
AcDbLine
 62
7
  6
CONTINUOUS
 10
-87.7922960243
 20
-25.7004108117
 11
-87.792296024
 21
-25.700324791
  0
LINE
  5
51A
100
AcDbEntity
  8
0
100
AcDbLine
 62
7
  6
CONTINUOUS
 10
-87.7923060377
 20
-25.6933157562
 11
-87.7922920025
 21
-20.3502831321
  0
LINE
  5
51B
100
AcDbEntity
  8
0
100
AcDbLine
 62
7
  6
CONTINUOUS
 10
-87.7922960241
 20
25.7003247888
 11
-87.792318007
 21
0.0000000001
  0
LINE
  5
51C
100
AcDbEntity
  8
0
100
AcDbLine
 62
7
  6
CONTINUOUS
 10
-88.5557811227
 20
22.1996969272
 11
-88.5600186919
 21
-0.0000044194
  0
LINE
  5
51D
100
AcDbEntity
  8
0
100
AcDbLine
 62
250
  6
CONTINUOUS
 10
-88.3655853188
 20
-22.20173735
 11
-88.3646754352
 21
22.2017372611
  0
LINE
  5
51E
100
AcDbEntity
  8
0
100
AcDbLine
 62
250
  6
CONTINUOUS
 10
-87.0356255685
 20
24.1961277459
 11
-87.0355499846
 21
-31.0249700986
  0
LINE
  5
51F
100
AcDbEntity
  8
0
100
AcDbLine
 62
250
  6
CONTINUOUS
 10
-87.036029208
 20
31.6477206393
 11
-87.0360337828
 21
31.6438380119
  0
LWPOLYLINE
  5
520
100
AcDbEntity
  8
0
100
AcDbPolyline
 62
7
  6
CONTINUOUS
 90
3
 70
0
 10
-88.5767906734
 20
-22.2000543033
 10
-88.5768981146
 20
-22.2691086305
 10
-88.5810857707
 20
-22.8753941884
  0
LINE
  5
521
100
AcDbEntity
  8
0
100
AcDbLine
 62
7
  6
CONTINUOUS
 10
-88.5806272349
 20
22.7976981536
 11
-88.5813085777
 21
22.1997189481
  0
LINE
  5
522
100
AcDbEntity
  8
0
100
AcDbLine
 62
250
  6
CONTINUOUS
 10
-87.0358280843
 20
-31.5818090397
 11
-87.0359063542
 21
-31.1153732386
  0
LINE
  5
523
100
AcDbEntity
  8
0
100
AcDbLine
 62
250
  6
CONTINUOUS
 10
-87.0356375902
 20
31.5452604816
 11
-87.0361718456
 21
31.1935500582
  0
LINE
  5
524
100
AcDbEntity
  8
0
100
AcDbLine
 62
250
  6
CONTINUOUS
 10
-87.0356024629
 20
31.0247303964
 11
-87.0356255685
 21
24.1961277459
  0
LINE
  5
525
100
AcDbEntity
  8
0
100
AcDbLine
 62
7
  6
CONTINUOUS
 10
-88.372988643
 20
24.1519880919
 11
-88.3730974116
 21
24.1221225495
  0
LINE
  5
526
100
AcDbEntity
  8
0
100
AcDbLine
 62
250
  6
CONTINUOUS
 10
-87.0359063542
 20
-31.1153732386
 11
-87.0355499827
 21
-31.0249701103
  0
LWPOLYLINE
  5
527
100
AcDbEntity
  8
0
100
AcDbPolyline
 62
7
  6
CONTINUOUS
 90
3
 70
0
 10
-88.3680564017
 20
-22.2017373417
 10
-88.3713929486
 20
-24.0420944925
 10
-88.3721931673
 20
-24.1250194381
  0
LINE
  5
528
100
AcDbEntity
  8
0
100
AcDbLine
 62
7
  6
CONTINUOUS
 10
-88.5777105518
 20
23.5375377263
 11
-88.5810857707
 21
22.8753941732
  0
LINE
  5
529
100
AcDbEntity
  8
0
100
AcDbLine
 62
7
  6
CONTINUOUS
 10
-88.5774320729
 20
23.5667194573
 11
-88.5777105518
 21
23.5375377263
  0
LINE
  5
52A
100
AcDbEntity
  8
0
100
AcDbLine
 62
7
  6
CONTINUOUS
 10
-88.5789621582
 20
23.567603972
 11
-88.5789753882
 21
23.5667421505
  0
LWPOLYLINE
  5
52B
100
AcDbEntity
  8
0
100
AcDbPolyline
 62
7
  6
CONTINUOUS
 90
3
 70
0
 10
-86.0360617166
 20
35.9117597563
 10
-86.0360837185
 20
35.9107005595
 10
-86.0359231712
 20
35.9102159821
  0
LINE
  5
52C
100
AcDbEntity
  8
0
100
AcDbLine
 62
7
  6
CONTINUOUS
 10
-88.3721931673
 20
-24.1250194381
 11
-88.3729689872
 21
-24.1519845451
  0
LINE
  5
52D
100
AcDbEntity
  8
0
100
AcDbLine
 62
7
  6
CONTINUOUS
 10
-88.5789753883
 20
-23.5667421429
 11
-88.5753963255
 21
-23.4662046092
  0
LWPOLYLINE
  5
52E
100
AcDbEntity
  8
0
100
AcDbPolyline
 62
7
  6
CONTINUOUS
 90
3
 70
0
 10
-85.0286557624
 20
39.0826204399
 10
-85.0286497867
 20
39.0826961926
 10
-85.0286846059
 20
39.082627333
  0
LWPOLYLINE
  5
52F
100
AcDbEntity
  8
0
100
AcDbPolyline
 62
7
  6
CONTINUOUS
 90
4
 70
0
 43
0.3500000006
 10
-97.7575663147
 20
-2.3571455154
 10
-98.6147042542
 20
-2.3571455154
 10
-99.0432732239
 20
-1.9285742798
 10
-99.0432732239
 20
-1.2857162933
  0
LINE
  5
530
100
AcDbEntity
  8
0
100
AcDbLine
 62
7
  6
CONTINUOUS
 10
-81.585657446
 20
-3.5
 11
-79.585657446
 21
-3.6749773271
  0
LINE
  5
531
100
AcDbEntity
  8
0
100
AcDbLine
 62
250
  6
CONTINUOUS
 10
-86.0359767794
 20
35.9082338239
 11
-86.0360407369
 21
35.9117420507
  0
LINE
  5
532
100
AcDbEntity
  8
0
100
AcDbLine
 62
7
  6
CONTINUOUS
 10
-85.0281663703
 20
39.0841860075
 11
-85.0281730844
 21
39.0847172952
  0
LWPOLYLINE
  5
533
100
AcDbEntity
  8
0
100
AcDbPolyline
 62
250
  6
CONTINUOUS
 90
4
 70
0
 10
-86.0356424164
 20
35.5827343856
 10
-86.0363564353
 20
35.643135695
 10
-86.036558635
 20
35.6929984495
 10
-86.0363771519
 20
35.7396193602
  0
LINE
  5
534
100
AcDbEntity
  8
0
100
AcDbLine
 62
7
  6
CONTINUOUS
 10
-85.0286543908
 20
-39.0826284911
 11
-85.0286538507
 21
-39.0826793482
  0
LINE
  5
535
100
AcDbEntity
  8
0
100
AcDbLine
 62
250
  6
CONTINUOUS
 10
-85.0281730844
 20
39.0847172952
 11
-85.0281631235
 21
39.0837145618
  0
LINE
  5
536
100
AcDbEntity
  8
0
100
AcDbLine
 62
250
  6
CONTINUOUS
 10
-86.0353693856
 20
-35.5838190153
 11
-86.0356501766
 21
-35.538803907
  0
LWPOLYLINE
  5
537
100
AcDbEntity
  8
0
100
AcDbPolyline
 62
250
  6
CONTINUOUS
 90
4
 70
0
 10
-86.036037437
 20
-35.9119294613
 10
-86.0360382849
 20
-35.908049475
 10
-86.0359313829
 20
-35.8961802291
 10
-86.0357302764
 20
-35.8500452505
  0
LINE
  5
538
100
AcDbEntity
  8
0
100
AcDbLine
 62
250
  6
CONTINUOUS
 10
-84.1407850566
 20
39.7484388793
 11
-84.1407852535
 21
-39.7484437192
  0
LINE
  5
539
100
AcDbEntity
  8
0
100
AcDbLine
 62
250
  6
CONTINUOUS
 10
-85.0281631235
 20
39.0837145618
 11
-85.0283350159
 21
36.557251925
  0
LINE
  5
53A
100
AcDbEntity
  8
0
100
AcDbLine
 62
250
  6
CONTINUOUS
 10
-86.0356501766
 20
-35.538803907
 11
-86.0357989492
 21
35.538326952
  0
LINE
  5
53B
100
AcDbEntity
  8
0
100
AcDbLine
 62
250
  6
CONTINUOUS
 10
-86.0357302764
 20
-35.8500452505
 11
-86.0356150371
 21
-35.6442996734
  0
LINE
  5
53C
100
AcDbEntity
  8
0
100
AcDbLine
 62
250
  6
CONTINUOUS
 10
-85.0283348363
 20
36.5503761794
 11
-85.0281813051
 21
-39.0836619131
  0
LWPOLYLINE
  5
53D
100
AcDbEntity
  8
0
100
AcDbPolyline
 62
250
  6
CONTINUOUS
 90
3
 70
0
 10
-86.0357989492
 20
35.538326952
 10
-86.0357192241
 20
35.5626416223
 10
-86.0355270005
 20
35.5831925741
  0
LINE
  5
53E
100
AcDbEntity
  8
0
100
AcDbLine
 62
250
  6
CONTINUOUS
 10
-85.0281813051
 20
-39.0836619131
 11
-85.0281845511
 21
-39.0845469543
  0
LINE
  5
53F
100
AcDbEntity
  8
0
100
AcDbLine
 62
250
  6
CONTINUOUS
 10
-86.0356150371
 20
-35.6442996734
 11
-86.0353118244
 21
-35.5840440585
  0
LWPOLYLINE
  5
540
100
AcDbEntity
  8
0
100
AcDbPolyline
 62
250
  6
CONTINUOUS
 90
5
 70
0
 10
-86.0363771519
 20
35.7396193602
 10
-86.0356854109
 20
35.8198105271
 10
-86.0355724228
 20
35.8517033042
 10
-86.0356694976
 20
35.8775223165
 10
-86.0359767794
 20
35.9082338239
  0
LINE
  5
541
100
AcDbEntity
  8
0
100
AcDbLine
 62
7
  6
CONTINUOUS
 10
-85.0281866055
 20
-39.084548495
 11
-85.0281825388
 21
-39.0842162464
  0
LINE
  5
542
100
AcDbEntity
  8
0
100
AcDbLine
 62
7
  6
CONTINUOUS
 10
-86.0359350882
 20
-35.9106470146
 11
-86.0359477732
 21
-35.9108547979
  0
LWPOLYLINE
  5
543
100
AcDbEntity
  8
0
100
AcDbPolyline
 62
7
  6
CONTINUOUS
 90
13
 70
0
 43
0.3500000006
 10
-98.1861352844
 20
-0.0000025864
 10
-99.4718512573
 20
-0.0000025864
 10
-99.9004202271
 20
0.2142818985
 10
-100.3289891968
 20
0.6428531342
 10
-100.3289891968
 20
0.8571398849
 10
-99.9004202271
 20
1.2857111206
 10
-99.4718512573
 20
1.4999978714
 10
-98.1861352844
 20
1.4999978714
 10
-97.7575663147
 20
1.2857111206
 10
-97.3289882813
 20
0.8571398849
 10
-97.3289882813
 20
0.6428531342
 10
-97.7575663147
 20
0.2142818985
 10
-98.1861352844
 20
-0.0000025864
  0
LINE
  5
544
100
AcDbEntity
  8
0
100
AcDbLine
 62
250
  6
CONTINUOUS
 10
-88.5600186919
 20
0.0000043744
 11
-84.1407864975
 21
0.0000003884
  0
LINE
  5
545
100
AcDbEntity
  8
0
100
AcDbLine
 62
7
  6
CONTINUOUS
 10
-81.585657446
 20
3.5
 11
-81.585657446
 21
-3.5
  0
LINE
  5
546
100
AcDbEntity
  8
0
100
AcDbLine
 62
7
  6
CONTINUOUS
 10
-86.0359477732
 20
-35.9108547979
 11
-86.036036589
 21
-35.911932024
  0
LWPOLYLINE
  5
547
100
AcDbEntity
  8
0
100
AcDbPolyline
 62
7
  6
CONTINUOUS
 90
3
 70
0
 10
-88.5753963255
 20
-23.4662046092
 10
-88.5251900168
 20
-23.2274828744
 10
-88.4176853106
 20
-23.0059548546
  0
LWPOLYLINE
  5
548
100
AcDbEntity
  8
0
100
AcDbPolyline
 62
7
  6
CONTINUOUS
 90
3
 70
0
 10
-88.5753963255
 20
23.4662046092
 10
-88.5251900168
 20
23.2274828744
 10
-88.4176853106
 20
23.0059548546
  0
LINE
  5
549
100
AcDbEntity
  8
0
100
AcDbLine
 62
7
  6
CONTINUOUS
 10
-79.585657446
 20
-3.6749773271
 11
-79.585657446
 21
-39.9999648
  0
LINE
  5
54A
100
AcDbEntity
  8
0
100
AcDbLine
 62
7
  6
CONTINUOUS
 10
-79.585657446
 20
3.6749773271
 11
-79.585657446
 21
39.9999648
  0
LINE
  5
54B
100
AcDbEntity
  8
0
100
AcDbLine
 62
7
  6
CONTINUOUS
 10
-79.585657446
 20
3.6749773271
 11
-81.585657446
 21
3.5
  0
LINE
  5
54C
100
AcDbEntity
  8
0
100
AcDbLine
 62
7
  6
CONTINUOUS
 10
-87.0359110712
 20
31.6473404498
 11
-87.0360183694
 21
31.647837534
  0
LINE
  5
54D
100
AcDbEntity
  8
0
100
AcDbLine
 62
7
  6
CONTINUOUS
 10
-85.0281825388
 20
-39.0842162464
 11
-85.0281595702
 21
-39.0841160755
  0
LWPOLYLINE
  5
54E
100
AcDbEntity
  8
0
100
AcDbPolyline
 62
7
  6
CONTINUOUS
 90
5
 70
0
 10
-85.0282267728
 20
39.0838981341
 10
-85.0282151008
 20
39.0838557334
 10
-85.0282042204
 20
39.0838217716
 10
-85.0281946816
 20
39.0839053834
 10
-85.0281866454
 20
39.0841210476
  0
LINE
  5
54F
100
AcDbEntity
  8
0
100
AcDbLine
 62
7
  6
CONTINUOUS
 10
-88.3754124604
 20
-24.1519680352
 11
-88.3754419692
 21
-24.1519972732
  0
LINE
  5
550
100
AcDbEntity
  8
0
100
AcDbLine
 62
7
  6
CONTINUOUS
 10
-88.37509117
 20
24.1517710229
 11
-88.3756777395
 21
24.152177415
  0
LINE
  5
551
100
AcDbEntity
  8
0
100
AcDbLine
 62
7
  6
CONTINUOUS
 10
-88.3646754352
 20
22.2017372611
 11
-88.5557811227
 21
22.1996969272
  0
LINE
  5
552
100
AcDbEntity
  8
0
100
AcDbLine
 62
7
  6
CONTINUOUS
 10
-88.5557811227
 20
22.1996969272
 11
-88.5547584377
 21
22.1996956961
  0
LINE
  5
553
100
AcDbEntity
  8
0
100
AcDbLine
 62
7
  6
CONTINUOUS
 10
-87.03565736
 20
31.6472488809
 11
-87.0359110712
 21
31.6473404498
  0
LINE
  5
554
100
AcDbEntity
  8
0
100
AcDbLine
 62
7
  6
CONTINUOUS
 10
-84.4168582863
 20
39.6972223473
 11
-84.2822168152
 21
39.7315323677
  0
LWPOLYLINE
  5
555
100
AcDbEntity
  8
0
100
AcDbPolyline
 62
7
  6
CONTINUOUS
 90
5
 70
0
 10
-84.2863041992
 20
39.7304907998
 10
-84.3122221236
 20
39.7255309337
 10
-84.3600898772
 20
39.7140472479
 10
-84.4067639282
 20
39.7005290378
 10
-84.4518182668
 20
39.6851868581
  0
LWPOLYLINE
  5
556
100
AcDbEntity
  8
0
100
AcDbPolyline
 62
7
  6
CONTINUOUS
 90
7
 70
0
 10
-84.2594585135
 20
39.7355746268
 10
-84.2929982385
 20
39.7294937622
 10
-84.3260796109
 20
39.7224032413
 10
-84.3587153822
 20
39.7143126928
 10
-84.3908571392
 20
39.7052462736
 10
-84.4224368482
 20
39.6952392655
 10
-84.4534909899
 20
39.6842957723
  0
LINE
  5
557
100
AcDbEntity
  8
0
100
AcDbLine
 62
7
  6
CONTINUOUS
 10
-84.2822168152
 20
39.7315323677
 11
-84.1407864972
 21
39.7484440374
  0
LWPOLYLINE
  5
558
100
AcDbEntity
  8
0
100
AcDbPolyline
 62
250
  6
CONTINUOUS
 90
10
 70
0
 10
-84.1407850614
 20
39.715958813
 10
-84.2774932963
 20
39.7006027001
 10
-84.4095606331
 20
39.6698075312
 10
-84.5352349344
 20
39.6238275001
 10
-84.653116856
 20
39.5627830143
 10
-84.7603830241
 20
39.4875445364
 10
-84.8534550559
 20
39.4003220807
 10
-84.9301639723
 20
39.3031203262
 10
-84.9890686634
 20
39.1971674591
 10
-84.9901345242
 20
39.1949533354
  0
LWPOLYLINE
  5
559
100
AcDbEntity
  8
0
100
AcDbPolyline
 62
7
  6
CONTINUOUS
 90
5
 70
0
 10
-84.1407889787
 20
39.7485503307
 10
-84.1559501769
 20
39.7476114424
 10
-84.1909203097
 20
39.7446545339
 10
-84.2254371496
 20
39.7406340413
 10
-84.2594585135
 20
39.7355746268
  0
LINE
  5
55A
100
AcDbEntity
  8
0
100
AcDbLine
 62
7
  6
CONTINUOUS
 10
-79.585657446
 20
39.9999648
 11
-84.1407864975
 21
39.7484440374
  0
LINE
  5
55B
100
AcDbEntity
  8
0
100
AcDbLine
 62
250
  6
CONTINUOUS
 10
-84.1407864975
 20
36.99996744
 11
-79.585657446
 21
36.9999672828
  0
ARC
  5
55C
100
AcDbEntity
  8
0
100
AcDbCircle
 62
7
  6
CONTINUOUS
 10
-65.4999457321
 20
36.9999596788
 40
2.9999990303
100
AcDbArc
 50
89.9995416204
 51
179.9993113102
  0
ARC
  5
55D
100
AcDbEntity
  8
0
100
AcDbCircle
 62
7
  6
CONTINUOUS
 10
65.4999457317
 20
36.9999595954
 40
2.9999990277
100
AcDbArc
 50
0.0006997565
 51
90.0004655987
  0
ARC
  5
55E
100
AcDbEntity
  8
0
100
AcDbCircle
 62
7
  6
CONTINUOUS
 10
-65.4999437586
 20
-36.9999687939
 40
2.9999955862
100
AcDbArc
 50
179.9999765438
 51
269.9998650444
  0
ARC
  5
55F
100
AcDbEntity
  8
0
100
AcDbCircle
 62
7
  6
CONTINUOUS
 10
65.4999436693
 20
-36.9999687939
 40
2.9999955862
100
AcDbArc
 50
270.0001349559
 51
0.0000234751
  0
ARC
  5
560
100
AcDbEntity
  8
0
100
AcDbCircle
 62
250
  6
CONTINUOUS
 10
-65.4999459388
 20
36.9999611879
 40
2.748477693
100
AcDbArc
 50
89.9999726823
 51
179.9998704265
  0
ARC
  5
561
100
AcDbEntity
  8
0
100
AcDbCircle
 62
250
  6
CONTINUOUS
 10
65.4999458513
 20
36.9999611863
 40
2.748477693
100
AcDbArc
 50
0.000129608
 51
90.0000273542
  0
ARC
  5
562
100
AcDbEntity
  8
0
100
AcDbCircle
 62
250
  6
CONTINUOUS
 10
-65.4999436395
 20
-36.9999686748
 40
2.7484750471
100
AcDbArc
 50
179.9999751271
 51
269.9998348718
  0
ARC
  5
563
100
AcDbEntity
  8
0
100
AcDbCircle
 62
250
  6
CONTINUOUS
 10
65.4999435501
 20
-36.9999686748
 40
2.7484750444
100
AcDbArc
 50
270.0001651283
 51
0.0000248729
  0
ARC
  5
564
100
AcDbEntity
  8
0
100
AcDbCircle
 62
7
  6
CONTINUOUS
 10
-38.1891591941
 20
22.41076499
 40
49.7121000371
100
AcDbArc
 50
169.9807819862
 51
176.2057506117
  0
ARC
  5
565
100
AcDbEntity
  8
0
100
AcDbCircle
 62
7
  6
CONTINUOUS
 10
-38.2090432768
 20
-22.4132854164
 40
49.6920964752
100
AcDbArc
 50
183.7928687202
 51
190.7092011914
  0
ARC
  5
566
100
AcDbEntity
  8
0
100
AcDbCircle
 62
7
  6
CONTINUOUS
 10
-39.592733889
 20
-22.9121858076
 40
48.2276370806
100
AcDbArc
 50
195.6361443978
 51
196.0817807507
  0
ARC
  5
567
100
AcDbEntity
  8
0
100
AcDbCircle
 62
7
  6
CONTINUOUS
 10
-39.592733889
 20
-22.9121858076
 40
48.2276370806
100
AcDbArc
 50
199.1525034007
 51
199.338924971
  0
ARC
  5
568
100
AcDbEntity
  8
0
100
AcDbCircle
 62
7
  6
CONTINUOUS
 10
-39.5967279329
 20
22.9134578629
 40
48.2234475975
100
AcDbArc
 50
160.4074921568
 51
160.9006336368
  0
ARC
  5
569
100
AcDbEntity
  8
0
100
AcDbCircle
 62
7
  6
CONTINUOUS
 10
-84.0856774963
 20
38.7500030251
 40
0.9999645552
100
AcDbArc
 50
145.7902742546
 51
156.7034869172
  0
ARC
  5
56A
100
AcDbEntity
  8
0
100
AcDbCircle
 62
7
  6
CONTINUOUS
 10
-84.0856832946
 20
-38.750004185
 40
0.9999605529
100
AcDbArc
 50
203.4400772074
 51
214.2096024422
  0
ENDSEC
  0
SECTION
  2
OBJECTS
  0
DICTIONARY
  5
C
100
AcDbDictionary
280
0
281
1
  3
ACAD_GROUP
350
D
  3
ACAD_MLINESTYLE
350
17
  3
ACAD_LAYOUT
350
1A
  3
ACAD_PLOTSETTINGS
350
19
  3
ACAD_PLOTSTYLENAME
350
E
  0
DICTIONARY
  5
D
102
{ACAD_REACTORS
330
C
102
}
100
AcDbDictionary
280
0
281
1
  0
ACDBDICTIONARYWDFLT
  5
E
102
{ACAD_REACTORS
330
C
102
}
100
AcDbDictionary
281
1
  3
Normal
350
F
100
AcDbDictionaryWithDefault
340
F
  0
DICTIONARY
  5
17
102
{ACAD_REACTORS
330
C
102
}
100
AcDbDictionary
280
0
281
1
  3
Standard
350
18
  0
DICTIONARY
  5
19
102
{ACAD_REACTORS
330
C
102
}
100
AcDbDictionary
281
1
  0
DICTIONARY
  5
1A
102
{ACAD_REACTORS
330
C
102
}
100
AcDbDictionary
281
1
  3
Model
350
56B
  3
Layout1
350
56C
  0
ACDBPLACEHOLDER
  5
F
102
{ACAD_REACTORS
330
E
102
}
  0
MLINESTYLE
  5
18
102
{ACAD_REACTORS
330
17
102
}
100
AcDbMlineStyle
  2
STANDARD
 70
0
  3

 62
256
 51
90.0
 52
90.0
 71
2
 49
0.5
 62
256
  6
BYLAYER
 49
-0.5
 62
256
  6
BYLAYER
  0
LAYOUT
  5
56B
102
{ACAD_REACTORS
330
1A
102
}
100
AcDbPlotSettings
  1

  2
none_device
  4
ISO_A4_(297.00_x_210.00_MM)
  6

 40
0.0
 41
0.0
 42
0.0
 43
0.0
 44
297.0
 45
210.0
 46
0.0
 47
0.0
 48
0.0
 49
0.0
140
0.0
141
0.0
142
1.0
143
1.0
 70
1024
 72
1
 73
0
 74
0
  7

 75
0
147
1.0
148
0.0
149
0.0
100
AcDbLayout
  1
Model
 70
0
 71
0
 10
0.0
 20
0.0
 11
297.0
 21
210.0
 12
0.0
 22
0.0
 32
0.0
 14
0.0
 24
0.0
 34
0.0
 15
0.0
 25
0.0
 35
0.0
146
0.0
 13
0.0
 23
0.0
 33
0.0
 16
1.0
 26
0.0
 36
0.0
 17
0.0
 27
1.0
 37
0.0
 76
0
330
212
345
0
346
0
  0
LAYOUT
  5
56C
102
{ACAD_REACTORS
330
1A
102
}
100
AcDbPlotSettings
  1

  2
none_device
  4
ISO_A4_(297.00_x_210.00_MM)
  6

 40
0.0
 41
0.0
 42
0.0
 43
0.0
 44
297.0
 45
210.0
 46
0.0
 47
0.0
 48
0.0
 49
0.0
140
0.0
141
0.0
142
1.0
143
1.0
 70
0
 72
1
 73
0
 74
0
  7

 75
0
147
1.0
148
0.0
149
0.0
100
AcDbLayout
  1
Layout1
 70
0
 71
1
 10
0.0
 20
0.0
 11
297.0
 21
210.0
 12
0.0
 22
0.0
 32
0.0
 14
0.0
 24
0.0
 34
0.0
 15
0.0
 25
0.0
 35
0.0
146
0.0
 13
0.0
 23
0.0
 33
0.0
 16
1.0
 26
0.0
 36
0.0
 17
0.0
 27
1.0
 37
0.0
 76
0
330
213
345
0
346
0
  0
ENDSEC
  0
EOF
