  0
SECTION
  2
HEADER
  9
$ACADVER
  1
AC1015
  9
$DWGCODEPAGE
  3
ANSI_1252
  9
$EXTMAX
 10
297.0
 20
210.0
 30
0.0
  9
$EXTMIN
 10
0.0
 20
0.0
 30
0.0
  9
$LIMMIN
 10
0.0
 20
0.0
  9
$LIMMAX
 10
297.0
 20
210.0
  9
$VIEWCTR
 10
148.5
 20
105.0
  9
$VIEWSIZE
 40
210.0
  9
$CLAYER
  8
0
  9
$LTSCALE
 40
16.335
  9
$CELTYPE
  6
BYLAYER
  9
$DIMSCALE
 40
1.0
  9
$DIMASZ
 40
3.0
  9
$DIMEXO
 40
1.85625
  9
$DIMDLI
 40
11.286
  9
$DIMEXE
 40
5.346
  9
$DIMCEN
 40
2.673
  9
$DIMLFAC
 40
1.0
  9
$DIMBLK
  1
_FILLED
  9
$DIMTXT
 40
3.0
  9
$DIMTOL
 70
1
  9
$DIMLIM
 70
0
  9
$DIMTFAC
 40
1.0
  9
$DIMTP
 40
0.01
  9
$DIMTM
 40
0.01
  9
$PDMODE
 70
3
  9
$PDSIZE
 40
3.0
  9
$HANDSEED
  5
3BB
  9
$TILEMODE
 70
1
  9
$MEASUREMENT
 70
1
  9
$INSUNITS
 70
4
  0
ENDSEC
  0
SECTION
  2
CLASSES
  0
CLASS
  1
ACDBDICTIONARYWDFLT
  2
AcDbDictionaryWithDefault
  3
AutoCAD 2000
 90
0
280
0
281
0
  0
CLASS
  1
ACDBPLACEHOLDER
  2
AcDbPlaceHolder
  3
AutoCAD 2000
 90
0
280
0
281
0
  0
CLASS
  1
LAYOUT
  2
AcDbLayout
  3
AutoCAD 2000
 90
0
280
0
281
0
  0
ENDSEC
  0
SECTION
  2
TABLES
  0
TABLE
  2
VPORT
  5
8
100
AcDbSymbolTable
 70
2
  0
VPORT
  5
1F4
100
AcDbSymbolTableRecord
100
AcDbViewportTableRecord
  2
*ACTIVE
 70
0
 10
0.0
 20
0.0
 11
1.0
 21
1.0
 12
148.5
 22
105.0
 13
0.0
 23
0.0
 14
1.0
 24
1.0
 15
0.0
 25
0.0
 16
0.0
 26
0.0
 36
1.0
 17
0.0
 27
0.0
 37
0.0
 40
210.0
 41
1.4142857143
 42
50.0
 43
0.0
 44
0.0
 50
0.0
 51
0.0
 71
0
 72
100
 73
1
 74
1
 75
0
 76
0
 77
0
 78
0
  0
ENDTAB
  0
TABLE
  2
LTYPE
  5
5
100
AcDbSymbolTable
 70
6
  0
LTYPE
  5
14
100
AcDbSymbolTableRecord
100
AcDbLinetypeTableRecord
  2
BYBLOCK
 70
0
  3

 72
65
 73
0
 40
0.0
  0
LTYPE
  5
15
100
AcDbSymbolTableRecord
100
AcDbLinetypeTableRecord
  2
BYLAYER
 70
0
  3

 72
65
 73
0
 40
0.0
  0
LTYPE
  5
16
100
AcDbSymbolTableRecord
100
AcDbLinetypeTableRecord
  2
CONTINUOUS
 70
64
  3
Solid line
 72
65
 73
0
 40
0.0
  0
LTYPE
  5
1F5
100
AcDbSymbolTableRecord
100
AcDbLinetypeTableRecord
  2
CENTER
 70
64
  3
____ _ ____ _ ____ _ ____ _ ____ _ ____ _ ____
 72
65
 73
4
 40
0.6
 49
0.375
 74
0
 49
-0.075
 74
0
 49
0.075
 74
0
 49
-0.075
 74
0
  0
LTYPE
  5
1F6
100
AcDbSymbolTableRecord
100
AcDbLinetypeTableRecord
  2
HIDDEN
 70
64
  3
- - - - - - - - - - - - - - - - - - - -
 72
65
 73
2
 40
0.2
 49
0.1
 74
0
 49
-0.1
 74
0
  0
LTYPE
  5
1F7
100
AcDbSymbolTableRecord
100
AcDbLinetypeTableRecord
  2
PHANTOM
 70
64
  3
_____ _ _ _____ _ _ _____ _ _ _____
 72
65
 73
6
 40
0.8
 49
0.45
 74
0
 49
-0.05
 74
0
 49
0.1
 74
0
 49
-0.05
 74
0
 49
0.1
 74
0
 49
-0.05
 74
0
  0
LTYPE
  5
1F8
100
AcDbSymbolTableRecord
100
AcDbLinetypeTableRecord
  2
DOT
 70
64
  3
. . . . . . . . . . . . . . . . . . . .
 72
65
 73
2
 40
0.2
 49
0.1
 74
0
 49
-0.1
 74
0
  0
LTYPE
  5
1F9
100
AcDbSymbolTableRecord
100
AcDbLinetypeTableRecord
  2
DASHED
 70
64
  3
- - - - - - - - - - - - - - - - - - - -
 72
65
 73
2
 40
0.2
 49
0.1
 74
0
 49
-0.1
 74
0
  0
ENDTAB
  0
TABLE
  2
LAYER
  5
2
100
AcDbSymbolTable
 70
36
  0
LAYER
  5
10
100
AcDbSymbolTableRecord
100
AcDbLayerTableRecord
  2
0
 70
0
 62
7
  6
CONTINUOUS
370
-3
390
F
  0
LAYER
  5
1FA
100
AcDbSymbolTableRecord
100
AcDbLayerTableRecord
  2
DEFAULT_1
 70
0
 62
7
  6
CENTER
370
-3
390
F
  0
LAYER
  5
1FB
100
AcDbSymbolTableRecord
100
AcDbLayerTableRecord
  2
DEFAULT_2
 70
0
 62
7
  6
HIDDEN
370
-3
390
F
  0
LAYER
  5
1FC
100
AcDbSymbolTableRecord
100
AcDbLayerTableRecord
  2
DEFAULT_3
 70
0
 62
7
  6
PHANTOM
370
-3
390
F
  0
LAYER
  5
1FD
100
AcDbSymbolTableRecord
100
AcDbLayerTableRecord
  2
ASSI
 70
0
 62
7
  6
CONTINUOUS
370
-3
390
F
  0
LAYER
  5
1FE
100
AcDbSymbolTableRecord
100
AcDbLayerTableRecord
  2
COORDINATE
 70
0
 62
7
  6
CONTINUOUS
370
-3
390
F
  0
LAYER
  5
1FF
100
AcDbSymbolTableRecord
100
AcDbLayerTableRecord
  2
COPY_PUBLISH
 70
0
 62
7
  6
CONTINUOUS
370
-3
390
F
  0
LAYER
  5
200
100
AcDbSymbolTableRecord
100
AcDbLayerTableRecord
  2
COSMETIC
 70
0
 62
7
  6
CONTINUOUS
370
-3
390
F
  0
LAYER
  5
201
100
AcDbSymbolTableRecord
100
AcDbLayerTableRecord
  2
CURVE
 70
0
 62
7
  6
CONTINUOUS
370
-3
390
F
  0
LAYER
  5
202
100
AcDbSymbolTableRecord
100
AcDbLayerTableRecord
  2
DRAFT
 70
0
 62
7
  6
CONTINUOUS
370
-3
390
F
  0
LAYER
  5
203
100
AcDbSymbolTableRecord
100
AcDbLayerTableRecord
  2
IMPORT_IGES
 70
0
 62
7
  6
CONTINUOUS
370
-3
390
F
  0
LAYER
  5
204
100
AcDbSymbolTableRecord
100
AcDbLayerTableRecord
  2
INTFCLR_1
 70
0
 62
7
  6
CONTINUOUS
370
-3
390
F
  0
LAYER
  5
205
100
AcDbSymbolTableRecord
100
AcDbLayerTableRecord
  2
PIANI
 70
0
 62
7
  6
CONTINUOUS
370
-3
390
F
  0
LAYER
  5
206
100
AcDbSymbolTableRecord
100
AcDbLayerTableRecord
  2
PUNTI
 70
0
 62
7
  6
CONTINUOUS
370
-3
390
F
  0
LAYER
  5
207
100
AcDbSymbolTableRecord
100
AcDbLayerTableRecord
  2
RACCORDO
 70
0
 62
7
  6
CONTINUOUS
370
-3
390
F
  0
LAYER
  5
208
100
AcDbSymbolTableRecord
100
AcDbLayerTableRecord
  2
SNAPLINE
 70
0
 62
7
  6
CONTINUOUS
370
-3
390
F
  0
LAYER
  5
209
100
AcDbSymbolTableRecord
100
AcDbLayerTableRecord
  2
SUPERFICI
 70
0
 62
7
  6
CONTINUOUS
370
-3
390
F
  0
LAYER
  5
20A
100
AcDbSymbolTableRecord
100
AcDbLayerTableRecord
  2
TRASH
 70
0
 62
7
  6
CONTINUOUS
370
-3
390
F
  0
ENDTAB
  0
TABLE
  2
STYLE
  5
3
100
AcDbSymbolTable
 70
1
  0
STYLE
  5
11
100
AcDbSymbolTableRecord
100
AcDbTextStyleTableRecord
  2
STANDARD
 70
0
 40
0.0
 41
0.8
 50
0.0
 71
0
 42
0.2
  3
txt
  4

  0
STYLE
  5
20B
100
AcDbSymbolTableRecord
100
AcDbTextStyleTableRecord
  2
TEXTSTYLE_1
 70
0
 40
0.0
 41
0.8
 50
0.0
 71
0
 42
0.2
  3
gdt
  4

  0
ENDTAB
  0
TABLE
  2
VIEW
  5
6
100
AcDbSymbolTable
 70
0
  0
ENDTAB
  0
TABLE
  2
UCS
  5
7
100
AcDbSymbolTable
 70
0
  0
ENDTAB
  0
TABLE
  2
APPID
  5
9
100
AcDbSymbolTable
 70
1
  0
APPID
  5
20C
100
AcDbSymbolTableRecord
100
AcDbRegAppTableRecord
  2
ACAD
 70
0
  0
ENDTAB
  0
TABLE
  2
BLOCK_RECORD
  5
1
100
AcDbSymbolTable
 70
0
  0
BLOCK_RECORD
  5
20D
100
AcDbSymbolTableRecord
100
AcDbBlockTableRecord
  2
*Model_Space
  0
BLOCK_RECORD
  5
20E
100
AcDbSymbolTableRecord
100
AcDbBlockTableRecord
  2
*Paper_Space
  0
BLOCK_RECORD
  5
20F
100
AcDbSymbolTableRecord
100
AcDbBlockTableRecord
  2
_FILLED
  0
BLOCK_RECORD
  5
210
100
AcDbSymbolTableRecord
100
AcDbBlockTableRecord
  2
*D0
  0
BLOCK_RECORD
  5
211
100
AcDbSymbolTableRecord
100
AcDbBlockTableRecord
  2
*D1
  0
BLOCK_RECORD
  5
212
100
AcDbSymbolTableRecord
100
AcDbBlockTableRecord
  2
*D2
  0
ENDTAB
  0
TABLE
  2
DIMSTYLE
  5
A
100
AcDbSymbolTable
 70
1
100
AcDbDimStyleTable
 71
0
  0
DIMSTYLE
105
213
100
AcDbSymbolTableRecord
100
AcDbDimStyleTableRecord
  2
STANDARD
 70
0
  3

  4

 40
1.0
 41
3.0
 42
0.0625
 43
0.38
 44
0.18
 45
0.0
 46
0.0
 47
0.01
 48
0.01
140
3.0
141
0.09
142
0.0
143
25.4
144
1.0
145
0.0
146
1.0
147
0.09
 71
1.0
 72
0.0
 73
0
 74
0
 75
0
 76
0
 77
1
 78
8
170
0
171
2
172
0
173
0
174
0
175
0
176
0
177
0
178
0
270
2
271
2
272
2
273
2
274
2
275
0
280
0
281
0
282
0
283
1
284
8
285
0
286
0
287
3
288
0
340
11
341
20F
342
20F
343
20F
344
20F
  0
DIMSTYLE
105
214
100
AcDbSymbolTableRecord
100
AcDbDimStyleTableRecord
  2
DIMSTYLE_1
 70
0
  3

  4

 40
1.0
 41
3.0
 42
0.0625
 43
0.38
 44
0.18
 45
0.0
 46
0.0
 47
0.0
 48
0.0
140
3.0
141
0.09
142
0.0
143
25.4
144
1.0
145
0.0
146
1.0
147
0.09
 71
0.0
 72
0.0
 73
0
 74
0
 75
0
 76
0
 77
1
 78
8
170
0
171
2
172
0
173
0
174
0
175
0
176
0
177
0
178
0
270
2
271
2
272
2
273
2
274
2
275
0
280
0
281
0
282
0
283
1
284
8
285
0
286
0
287
3
288
0
340
11
341
20F
342
20F
343
20F
344
20F
  0
ENDTAB
  0
ENDSEC
  0
SECTION
  2
BLOCKS
  0
BLOCK
  5
20
100
AcDbEntity
  8
0
100
AcDbBlockBegin
  2
*Model_Space
 70
0
 10
0.0
 20
0.0
 30
0.0
  3
*Model_Space
  1

  0
ENDBLK
  5
21
100
AcDbEntity
  8
0
100
AcDbBlockEnd
  0
BLOCK
  5
1C
100
AcDbEntity
  8
0
100
AcDbBlockBegin
  2
*Paper_Space
 70
0
 10
0.0
 20
0.0
 30
0.0
  3
*Paper_Space
  1

  0
ENDBLK
  5
1D
100
AcDbEntity
  8
0
100
AcDbBlockEnd
  0
BLOCK
  5
215
100
AcDbEntity
  8
0
100
AcDbBlockBegin
  2
_FILLED
 70
64
 10
0.0
 20
0.0
  3
_FILLED
  1

  0
SOLID
  5
216
100
AcDbEntity
  8
0
  6
BYBLOCK
 62
0
100
AcDbTrace
 10
0.0
 20
0.0
 11
-1.0
 21
0.3166666667
 12
-1.0
 22
-0.3166666667
 13
-1.0
 23
-0.3166666667
  0
ENDBLK
  5
217
100
AcDbEntity
  8
0
  6
BYBLOCK
 62
0
100
AcDbBlockEnd
  0
BLOCK
  5
218
100
AcDbEntity
  8
0
100
AcDbBlockBegin
 62
7
  6
CONTINUOUS
  2
*D0
 70
65
 10
0.0
 20
0.0
  3
*D0
  1

  0
MTEXT
  5
219
100
AcDbEntity
  8
0
100
AcDbMText
 62
7
  6
CONTINUOUS
  7
STANDARD
 71
2
 72
1
 10
8.2115837412
 20
60.0694159304
 30
0.0
 11
1.0
 21
0.0
 31
0.0
 44
0.9
  1
95
 40
3.0
 41
4.5
  0
LINE
  5
21A
100
AcDbEntity
  8
0
100
AcDbLine
 62
7
  6
CONTINUOUS
 10
55.7115837412
 20
45.7778492807
 11
55.7115837412
 21
57.8194159304
  0
LINE
  5
21B
100
AcDbEntity
  8
0
100
AcDbLine
 62
7
  6
CONTINUOUS
 10
-39.2884162588
 20
46.5173039501
 11
-39.2884162588
 21
57.8194159304
  0
LINE
  5
21C
100
AcDbEntity
  8
0
100
AcDbLine
 62
7
  6
CONTINUOUS
 10
55.7115837412
 20
56.3194159304
 11
8.2115837412
 21
56.3194159304
  0
LINE
  5
21D
100
AcDbEntity
  8
0
100
AcDbLine
 62
7
  6
CONTINUOUS
 10
-39.2884162588
 20
56.3194159304
 11
8.2115837412
 21
56.3194159304
  0
INSERT
  5
21E
100
AcDbEntity
  8
0
100
AcDbBlockReference
 62
7
  6
CONTINUOUS
  2
_FILLED
 10
55.7115837412
 20
56.3194159304
 41
3.0
 42
3.0
 43
3.0
 50
0.0
  0
INSERT
  5
21F
100
AcDbEntity
  8
0
100
AcDbBlockReference
 62
7
  6
CONTINUOUS
  2
_FILLED
 10
-39.2884162588
 20
56.3194159304
 41
3.0
 42
3.0
 43
3.0
 50
180.0
  0
ENDBLK
  5
220
100
AcDbEntity
  8
0
  6
BYBLOCK
 62
0
100
AcDbBlockEnd
  0
BLOCK
  5
221
100
AcDbEntity
  8
0
100
AcDbBlockBegin
 62
7
  6
CONTINUOUS
  2
*D1
 70
65
 10
0.0
 20
0.0
  3
*D1
  1

  0
MTEXT
  5
222
100
AcDbEntity
  8
0
100
AcDbMText
 62
7
  6
CONTINUOUS
  7
STANDARD
 71
2
 72
1
 10
59.9615837412
 20
0.8194159304
 30
0.0
 11
0.0
 21
1.0
 31
0.0
 44
0.9
  1
95
 40
3.0
 41
4.5
  0
LINE
  5
223
100
AcDbEntity
  8
0
100
AcDbLine
 62
7
  6
CONTINUOUS
 10
53.2726269605
 20
48.3194159304
 11
65.2115837412
 21
48.3194159304
  0
LINE
  5
224
100
AcDbEntity
  8
0
100
AcDbLine
 62
7
  6
CONTINUOUS
 10
54.0974251024
 20
-46.6805840696
 11
65.2115837412
 21
-46.6805840696
  0
LINE
  5
225
100
AcDbEntity
  8
0
100
AcDbLine
 62
7
  6
CONTINUOUS
 10
63.7115837412
 20
48.3194159304
 11
63.7115837412
 21
0.8194159304
  0
LINE
  5
226
100
AcDbEntity
  8
0
100
AcDbLine
 62
7
  6
CONTINUOUS
 10
63.7115837412
 20
-46.6805840696
 11
63.7115837412
 21
0.8194159304
  0
INSERT
  5
227
100
AcDbEntity
  8
0
100
AcDbBlockReference
 62
7
  6
CONTINUOUS
  2
_FILLED
 10
63.7115837412
 20
48.3194159304
 41
3.0
 42
3.0
 43
3.0
 50
90.0
  0
INSERT
  5
228
100
AcDbEntity
  8
0
100
AcDbBlockReference
 62
7
  6
CONTINUOUS
  2
_FILLED
 10
63.7115837412
 20
-46.6805840696
 41
3.0
 42
3.0
 43
3.0
 50
270.0
  0
ENDBLK
  5
229
100
AcDbEntity
  8
0
  6
BYBLOCK
 62
0
100
AcDbBlockEnd
  0
BLOCK
  5
22A
100
AcDbEntity
  8
0
100
AcDbBlockBegin
 62
7
  6
CONTINUOUS
  2
*D2
 70
65
 10
0.0
 20
0.0
  3
*D2
  1

  0
MTEXT
  5
22B
100
AcDbEntity
  8
0
100
AcDbMText
 62
7
  6
CONTINUOUS
  7
STANDARD
 71
2
 72
1
 10
-52.5844863504
 20
60.0694159304
 30
0.0
 11
1.0
 21
0.0
 31
0.0
 44
0.9
  1
9
 40
3.0
 41
2.3571428571
  0
LINE
  5
22C
100
AcDbEntity
  8
0
100
AcDbLine
 62
7
  6
CONTINUOUS
 10
-48.0844877834
 20
49.148170935
 11
-48.0844877834
 21
57.8194159304
  0
LINE
  5
22D
100
AcDbEntity
  8
0
100
AcDbLine
 62
7
  6
CONTINUOUS
 10
-57.0844849174
 20
26.0313430353
 11
-57.0844849174
 21
57.8194159304
  0
LINE
  5
22E
100
AcDbEntity
  8
0
100
AcDbLine
 62
7
  6
CONTINUOUS
 10
-48.0844877834
 20
56.3194159304
 11
-52.5844863504
 21
56.3194159304
  0
LINE
  5
22F
100
AcDbEntity
  8
0
100
AcDbLine
 62
7
  6
CONTINUOUS
 10
-57.0844849174
 20
56.3194159304
 11
-52.5844863504
 21
56.3194159304
  0
INSERT
  5
230
100
AcDbEntity
  8
0
100
AcDbBlockReference
 62
7
  6
CONTINUOUS
  2
_FILLED
 10
-48.0844877834
 20
56.3194159304
 41
3.0
 42
3.0
 43
3.0
  0
INSERT
  5
231
100
AcDbEntity
  8
0
100
AcDbBlockReference
 62
7
  6
CONTINUOUS
  2
_FILLED
 10
-57.0844849174
 20
56.3194159304
 41
3.0
 42
3.0
 43
3.0
 50
180.0
  0
ENDBLK
  5
232
100
AcDbEntity
  8
0
  6
BYBLOCK
 62
0
100
AcDbBlockEnd
  0
ENDSEC
  0
SECTION
  2
ENTITIES
  0
DIMENSION
  5
233
100
AcDbEntity
  8
0
100
AcDbDimension
 62
7
  6
CONTINUOUS
  2
*D0
 10
-39.2884162588
 20
56.3194159304
 11
5.9615837412
 21
58.5694159304
 70
160
 71
2
 42
95.0
  3
DIMSTYLE_1
100
AcDbAlignedDimension
 13
55.7115837412
 23
45.7778492807
 14
-39.2884162588
 24
46.5173039501
 50
180.0
100
AcDbRotatedDimension
  0
DIMENSION
  5
234
100
AcDbEntity
  8
0
100
AcDbDimension
 62
7
  6
CONTINUOUS
  2
*D1
 10
63.7115837412
 20
-46.6805840696
 11
62.4697493774
 21
-1.1920765627
 70
160
 71
2
 42
95.0
  3
DIMSTYLE_1
100
AcDbAlignedDimension
 13
53.2726269605
 23
48.3194159304
 14
54.0974251024
 24
-46.6805840696
 50
270.0
100
AcDbRotatedDimension
  0
DIMENSION
  5
235
100
AcDbEntity
  8
0
100
AcDbDimension
 62
7
  6
CONTINUOUS
  2
*D2
 10
-57.0844849174
 20
56.3194159304
 11
-53.763057779
 21
58.5694159304
 70
160
 71
2
 42
8.999997134
  3
DIMSTYLE_1
100
AcDbAlignedDimension
 13
-48.0844877834
 23
49.148170935
 14
-57.0844849174
 24
26.0313430353
 50
180.0
100
AcDbRotatedDimension
  0
LINE
  5
236
100
AcDbEntity
  8
RACCORDO
100
AcDbLine
 62
7
  6
CONTINUOUS
 10
-39.2884162588
 20
45.3194159304
 11
-39.2884162588
 21
5.021209157
  0
LINE
  5
237
100
AcDbEntity
  8
RACCORDO
100
AcDbLine
 62
7
  6
CONTINUOUS
 10
-39.2884162588
 20
-3.3823772963
 11
-39.2884162588
 21
-43.6805840696
  0
LINE
  5
238
100
AcDbEntity
  8
RACCORDO
100
AcDbLine
 62
7
  6
CONTINUOUS
 10
-39.1836007003
 20
-2.2420958382
 11
-39.1836007003
 21
3.8809276989
  0
LINE
  5
239
100
AcDbEntity
  8
RACCORDO
100
AcDbLine
 62
253
  6
CONTINUOUS
 10
-39.0531849361
 20
12.5694159316
 11
-39.0531849361
 21
-10.9305840708
  0
LINE
  5
23A
100
AcDbEntity
  8
RACCORDO
100
AcDbLine
 62
253
  6
CONTINUOUS
 10
-38.2896904822
 20
12.5694159304
 11
-38.2896904822
 21
-10.9305840696
  0
LINE
  5
23B
100
AcDbEntity
  8
RACCORDO
100
AcDbLine
 62
253
  6
CONTINUOUS
 10
-36.2884162588
 20
-46.6805840696
 11
-36.2884176486
 21
-46.4497510876
  0
LINE
  5
23C
100
AcDbEntity
  8
RACCORDO
100
AcDbLine
 62
253
  6
CONTINUOUS
 10
-36.2884162588
 20
48.3194159304
 11
-36.2890505651
 21
48.0885879613
  0
LINE
  5
23D
100
AcDbEntity
  8
RACCORDO
100
AcDbLine
 62
253
  6
CONTINUOUS
 10
-39.2884162588
 20
-43.6805840696
 11
-39.0576265237
 21
-43.6805261411
  0
LINE
  5
23E
100
AcDbEntity
  8
SUPERFICI
100
AcDbLine
 62
7
  6
CONTINUOUS
 10
-36.2884162588
 20
-46.6805840696
 11
52.7115837412
 21
-46.6805840696
  0
LINE
  5
23F
100
AcDbEntity
  8
RACCORDO
100
AcDbLine
 62
253
  6
CONTINUOUS
 10
-3.5384162584
 20
-46.4453527471
 11
19.9615837407
 21
-46.4453527471
  0
LINE
  5
240
100
AcDbEntity
  8
RACCORDO
100
AcDbLine
 62
253
  6
CONTINUOUS
 10
-3.5384162588
 20
-45.6818582924
 11
19.9615837412
 21
-45.6818582924
  0
LINE
  5
241
100
AcDbEntity
  8
RACCORDO
100
AcDbLine
 62
253
  6
CONTINUOUS
 10
55.7115837412
 20
-43.6805840696
 11
55.4807941153
 21
-43.6805906521
  0
LINE
  5
242
100
AcDbEntity
  8
RACCORDO
100
AcDbLine
 62
7
  6
CONTINUOUS
 10
-39.2656326631
 20
-2.8866548656
 11
-39.206384296
 21
-2.7378182688
  0
LINE
  5
243
100
AcDbEntity
  8
RACCORDO
100
AcDbLine
 62
7
  6
CONTINUOUS
 10
-39.206384296
 20
4.3766501295
 11
-39.2656326631
 21
4.5254867263
  0
LINE
  5
244
100
AcDbEntity
  8
0
100
AcDbLine
 62
7
  6
CONTINUOUS
 10
32.9600820203
 20
-28.1178825952
 11
32.3778812968
 21
-28.1178825952
  0
LINE
  5
245
100
AcDbEntity
  8
0
100
AcDbLine
 62
7
  6
CONTINUOUS
 10
31.4509916519
 20
-28.1178825952
 11
30.8481556908
 21
-28.1178825952
  0
LINE
  5
246
100
AcDbEntity
  8
0
100
AcDbLine
 62
7
  6
CONTINUOUS
 10
30.6704187412
 20
-28.1178830696
 11
30.0324877412
 21
-28.1178830696
  0
LINE
  5
247
100
AcDbEntity
  8
0
100
AcDbLine
 62
7
  6
CONTINUOUS
 10
28.8843947412
 20
-28.1178830696
 11
28.2856897412
 21
-28.1178830696
  0
LINE
  5
248
100
AcDbEntity
  8
0
100
AcDbLine
 62
7
  6
CONTINUOUS
 10
28.1906457412
 20
-28.1178830696
 11
27.5985297412
 21
-28.1178830696
  0
LINE
  5
249
100
AcDbEntity
  8
0
100
AcDbLine
 62
7
  6
CONTINUOUS
 10
26.7545067412
 20
-28.1178830696
 11
26.6696177412
 21
-28.1178830696
  0
LINE
  5
24A
100
AcDbEntity
  8
0
100
AcDbLine
 62
7
  6
CONTINUOUS
 10
25.8289437412
 20
-28.1178830696
 11
25.2498957412
 21
-28.1178830696
  0
LINE
  5
24B
100
AcDbEntity
  8
0
100
AcDbLine
 62
7
  6
CONTINUOUS
 10
24.9240597412
 20
-28.1178830696
 11
24.3187877412
 21
-28.1178830696
  0
LINE
  5
24C
100
AcDbEntity
  8
0
100
AcDbLine
 62
7
  6
CONTINUOUS
 10
23.1621057412
 20
-28.1178830696
 11
22.6287097412
 21
-28.1178830696
  0
LINE
  5
24D
100
AcDbEntity
  8
0
100
AcDbLine
 62
7
  6
CONTINUOUS
 10
29.8756907412
 20
-27.5390090696
 11
29.0514117412
 21
-27.5390090696
  0
LINE
  5
24E
100
AcDbEntity
  8
0
100
AcDbLine
 62
7
  6
CONTINUOUS
 10
29.1752227412
 20
-27.0910780696
 11
29.7547277412
 21
-27.0910780696
  0
LINE
  5
24F
100
AcDbEntity
  8
0
100
AcDbLine
 62
7
  6
CONTINUOUS
 10
31.7755237079
 20
-26.983118481
 11
31.4509916519
 21
-26.983118481
  0
LINE
  5
250
100
AcDbEntity
  8
0
100
AcDbLine
 62
7
  6
CONTINUOUS
 10
31.4309217633
 20
-26.5082253418
 11
31.7768283594
 21
-26.5082253418
  0
LINE
  5
251
100
AcDbEntity
  8
RACCORDO
100
AcDbLine
 62
253
  6
CONTINUOUS
 10
-17.7146705926
 20
12.5694159304
 11
-17.7146705926
 21
-10.9305840696
  0
LINE
  5
252
100
AcDbEntity
  8
RACCORDO
100
AcDbLine
 62
253
  6
CONTINUOUS
 10
-16.0262061594
 20
12.5694159304
 11
-16.0262061588
 21
-10.9306757832
  0
LINE
  5
253
100
AcDbEntity
  8
0
100
AcDbLine
 62
253
  6
CONTINUOUS
 10
-14.4304289784
 20
-10.9305482073
 11
-14.4304289784
 21
12.5694159304
  0
LINE
  5
254
100
AcDbEntity
  8
0
100
AcDbLine
 62
7
  6
CONTINUOUS
 10
-14.3384162588
 20
23.0694159304
 11
-14.3384162588
 21
-21.4305840696
  0
LINE
  5
255
100
AcDbEntity
  8
0
100
AcDbLine
 62
253
  6
CONTINUOUS
 10
-14.0384162588
 20
-21.7305840696
 11
-14.0384162588
 21
-21.8225880925
  0
LINE
  5
256
100
AcDbEntity
  8
0
100
AcDbLine
 62
253
  6
CONTINUOUS
 10
-14.0384162588
 20
23.3694159304
 11
-14.0384162588
 21
23.4614196877
  0
LINE
  5
257
100
AcDbEntity
  8
RACCORDO
100
AcDbLine
 62
253
  6
CONTINUOUS
 10
-17.7093152709
 20
-21.4322873018
 11
-16.0273913972
 21
-21.4310020863
  0
LINE
  5
258
100
AcDbEntity
  8
0
100
AcDbLine
 62
7
  6
CONTINUOUS
 10
21.7094637412
 20
-25.2182290696
 11
22.3669747412
 21
-25.2182290696
  0
LINE
  5
259
100
AcDbEntity
  8
0
100
AcDbLine
 62
7
  6
CONTINUOUS
 10
23.4893127412
 20
-25.2182290696
 11
24.0941707412
 21
-25.2182290696
  0
LINE
  5
25A
100
AcDbEntity
  8
0
100
AcDbLine
 62
7
  6
CONTINUOUS
 10
25.5117177412
 20
-25.2182290696
 11
26.1164887412
 21
-25.2182290696
  0
LINE
  5
25B
100
AcDbEntity
  8
0
100
AcDbLine
 62
7
  6
CONTINUOUS
 10
27.3206387412
 20
-25.2182290696
 11
27.9194957412
 21
-25.2182290696
  0
LINE
  5
25C
100
AcDbEntity
  8
0
100
AcDbLine
 62
7
  6
CONTINUOUS
 10
29.1952057412
 20
-25.2182290696
 11
29.7807337412
 21
-25.2182290696
  0
LINE
  5
25D
100
AcDbEntity
  8
0
100
AcDbLine
 62
7
  6
CONTINUOUS
 10
24.3187877412
 20
-25.2180550696
 11
24.9240597412
 21
-25.2180550696
  0
LINE
  5
25E
100
AcDbEntity
  8
RACCORDO
100
AcDbLine
 62
253
  6
CONTINUOUS
 10
-3.5384162588
 20
-25.1068386218
 11
19.9615837412
 21
-25.1068386217
  0
LINE
  5
25F
100
AcDbEntity
  8
RACCORDO
100
AcDbLine
 62
253
  6
CONTINUOUS
 10
-3.5384162588
 20
-23.4183739641
 11
19.961690261
 21
-23.4183739632
  0
LINE
  5
260
100
AcDbEntity
  8
0
100
AcDbLine
 62
253
  6
CONTINUOUS
 10
19.9615420897
 20
-21.8225967885
 11
-3.5384162588
 21
-21.8225967884
  0
LINE
  5
261
100
AcDbEntity
  8
0
100
AcDbLine
 62
7
  6
CONTINUOUS
 10
-14.0384162588
 20
-21.7305840696
 11
30.4615837412
 21
-21.7305840696
  0
LINE
  5
262
100
AcDbEntity
  8
0
100
AcDbLine
 62
253
  6
CONTINUOUS
 10
-14.3384162588
 20
-21.4305840696
 11
-14.4304288645
 21
-21.4305840696
  0
LINE
  5
263
100
AcDbEntity
  8
0
100
AcDbLine
 62
253
  6
CONTINUOUS
 10
30.7615837412
 20
-21.4305840696
 11
30.8535963469
 21
-21.4305840696
  0
LINE
  5
264
100
AcDbEntity
  8
RACCORDO
100
AcDbLine
 62
253
  6
CONTINUOUS
 10
34.1324188077
 20
-21.4323863274
 11
32.4505727901
 21
-21.4310022776
  0
LINE
  5
265
100
AcDbEntity
  8
RACCORDO
100
AcDbLine
 62
253
  6
CONTINUOUS
 10
-3.5384162588
 20
-21.8225967877
 11
-3.5384162584
 21
-46.4453527471
  0
LINE
  5
266
100
AcDbEntity
  8
RACCORDO
100
AcDbLine
 62
253
  6
CONTINUOUS
 10
-3.5384162588
 20
23.4614286484
 11
-3.5384162584
 21
48.0841846078
  0
LINE
  5
267
100
AcDbEntity
  8
RACCORDO
100
AcDbLine
 62
253
  6
CONTINUOUS
 10
30.8535964606
 20
-10.9305840696
 11
55.4763524184
 21
-10.9305840708
  0
LINE
  5
268
100
AcDbEntity
  8
RACCORDO
100
AcDbLine
 62
253
  6
CONTINUOUS
 10
-39.0531849361
 20
-10.9305840708
 11
-14.4304289783
 21
-10.9305482073
  0
LINE
  5
269
100
AcDbEntity
  8
0
100
AcDbLine
 62
7
  6
CONTINUOUS
 10
22.6287097412
 20
-28.1178830696
 11
21.7094637412
 21
-25.2182290696
  0
LINE
  5
26A
100
AcDbEntity
  8
0
100
AcDbLine
 62
7
  6
CONTINUOUS
 10
26.6696177412
 20
-28.1178830696
 11
25.9595617412
 21
-26.2244640696
  0
LINE
  5
26B
100
AcDbEntity
  8
0
100
AcDbLine
 62
7
  6
CONTINUOUS
 10
26.1164887412
 20
-25.2182290696
 11
26.7153677412
 21
-26.8281260696
  0
LINE
  5
26C
100
AcDbEntity
  8
0
100
AcDbLine
 62
7
  6
CONTINUOUS
 10
22.3669747412
 20
-25.2182290696
 11
22.9197017412
 21
-27.2141500696
  0
LINE
  5
26D
100
AcDbEntity
  8
RACCORDO
100
AcDbLine
 62
253
  6
CONTINUOUS
 10
19.9615837412
 20
23.4614286484
 11
19.9615837407
 21
48.0841846078
  0
LINE
  5
26E
100
AcDbEntity
  8
RACCORDO
100
AcDbLine
 62
253
  6
CONTINUOUS
 10
19.9615837407
 20
-46.4453527471
 11
19.9615420897
 21
-21.8225967877
  0
LINE
  5
26F
100
AcDbEntity
  8
RACCORDO
100
AcDbLine
 62
253
  6
CONTINUOUS
 10
-14.4304289783
 20
12.5694159304
 11
-39.0531849361
 21
12.5694159315
  0
LINE
  5
270
100
AcDbEntity
  8
RACCORDO
100
AcDbLine
 62
253
  6
CONTINUOUS
 10
55.4763524184
 20
12.5694159315
 11
30.8535964606
 21
12.569380068
  0
LINE
  5
271
100
AcDbEntity
  8
0
100
AcDbLine
 62
7
  6
CONTINUOUS
 10
29.7807337412
 20
-25.2182290696
 11
30.6704187412
 21
-28.1178830696
  0
LINE
  5
272
100
AcDbEntity
  8
0
100
AcDbLine
 62
7
  6
CONTINUOUS
 10
30.0324877412
 20
-28.1178830696
 11
29.8756907412
 21
-27.5390090696
  0
LINE
  5
273
100
AcDbEntity
  8
0
100
AcDbLine
 62
7
  6
CONTINUOUS
 10
29.7547277412
 20
-27.0910780696
 11
29.4765977412
 21
-26.0149800696
  0
LINE
  5
274
100
AcDbEntity
  8
0
100
AcDbLine
 62
7
  6
CONTINUOUS
 10
27.9194957412
 20
-25.2182290696
 11
28.1906457412
 21
-28.1178830696
  0
LINE
  5
275
100
AcDbEntity
  8
0
100
AcDbLine
 62
7
  6
CONTINUOUS
 10
27.5985297412
 20
-28.1178830696
 11
27.4741747412
 21
-26.2323570696
  0
LINE
  5
276
100
AcDbEntity
  8
0
100
AcDbLine
 62
7
  6
CONTINUOUS
 10
24.3187877412
 20
-28.1178830696
 11
24.3187877412
 21
-25.2180550696
  0
LINE
  5
277
100
AcDbEntity
  8
0
100
AcDbLine
 62
7
  6
CONTINUOUS
 10
24.9240597412
 20
-25.2180550696
 11
24.9240597412
 21
-28.1178830696
  0
LINE
  5
278
100
AcDbEntity
  8
0
100
AcDbLine
 62
253
  6
CONTINUOUS
 10
30.4615837412
 20
-21.7305840696
 11
30.4615837412
 21
-21.8225880923
  0
LINE
  5
279
100
AcDbEntity
  8
0
100
AcDbLine
 62
253
  6
CONTINUOUS
 10
30.4615837412
 20
23.3694159304
 11
30.4615837412
 21
23.4614199532
  0
LINE
  5
27A
100
AcDbEntity
  8
0
100
AcDbLine
 62
7
  6
CONTINUOUS
 10
30.7615837412
 20
-21.4305840696
 11
30.7615837412
 21
23.0694159304
  0
LINE
  5
27B
100
AcDbEntity
  8
0
100
AcDbLine
 62
7
  6
CONTINUOUS
 10
30.8481556908
 20
-28.1178825952
 11
30.8481556908
 21
-25.2521068956
  0
LINE
  5
27C
100
AcDbEntity
  8
0
100
AcDbLine
 62
253
  6
CONTINUOUS
 10
30.8535964607
 20
12.569380068
 11
30.8535964607
 21
-10.9305840696
  0
LINE
  5
27D
100
AcDbEntity
  8
0
100
AcDbLine
 62
7
  6
CONTINUOUS
 10
25.9595617412
 20
-26.2244640696
 11
25.8289437412
 21
-28.1178830696
  0
LINE
  5
27E
100
AcDbEntity
  8
0
100
AcDbLine
 62
7
  6
CONTINUOUS
 10
25.2498957412
 20
-28.1178830696
 11
25.5117177412
 21
-25.2182290696
  0
LINE
  5
27F
100
AcDbEntity
  8
0
100
AcDbLine
 62
7
  6
CONTINUOUS
 10
22.9197017412
 20
-27.2141500696
 11
23.4893127412
 21
-25.2182290696
  0
LINE
  5
280
100
AcDbEntity
  8
RACCORDO
100
AcDbLine
 62
253
  6
CONTINUOUS
 10
34.1324196019
 20
23.0712178452
 11
32.4505593155
 21
23.0698339468
  0
LINE
  5
281
100
AcDbEntity
  8
0
100
AcDbLine
 62
253
  6
CONTINUOUS
 10
-14.3384162588
 20
23.0694159304
 11
-14.4304290819
 21
23.0694159304
  0
LINE
  5
282
100
AcDbEntity
  8
0
100
AcDbLine
 62
253
  6
CONTINUOUS
 10
30.7615837412
 20
23.0694159304
 11
30.8535963468
 21
23.0694159304
  0
LINE
  5
283
100
AcDbEntity
  8
0
100
AcDbLine
 62
7
  6
CONTINUOUS
 10
30.4615837412
 20
23.3694159304
 11
-14.0384162588
 21
23.3694159304
  0
LINE
  5
284
100
AcDbEntity
  8
0
100
AcDbLine
 62
253
  6
CONTINUOUS
 10
-3.5384162588
 20
23.4614286492
 11
19.9615837412
 21
23.4614286491
  0
LINE
  5
285
100
AcDbEntity
  8
RACCORDO
100
AcDbLine
 62
253
  6
CONTINUOUS
 10
-17.7093250018
 20
23.0707152877
 11
-14.4304265332
 21
23.0694159321
  0
LINE
  5
286
100
AcDbEntity
  8
0
100
AcDbLine
 62
7
  6
CONTINUOUS
 10
31.4309217633
 20
-25.7122139846
 11
31.4309217633
 21
-26.5082253418
  0
LINE
  5
287
100
AcDbEntity
  8
0
100
AcDbLine
 62
7
  6
CONTINUOUS
 10
31.4509916519
 20
-26.983118481
 11
31.4509916519
 21
-28.1178825952
  0
LINE
  5
288
100
AcDbEntity
  8
RACCORDO
100
AcDbLine
 62
253
  6
CONTINUOUS
 10
32.4493736417
 20
-10.9305840696
 11
32.4493736411
 21
12.5695076452
  0
LINE
  5
289
100
AcDbEntity
  8
RACCORDO
100
AcDbLine
 62
253
  6
CONTINUOUS
 10
34.1378380749
 20
-10.9305840696
 11
34.1378380749
 21
12.5694159304
  0
LINE
  5
28A
100
AcDbEntity
  8
0
100
AcDbLine
 62
7
  6
CONTINUOUS
 10
24.0941707412
 20
-25.2182290696
 11
23.1621057412
 21
-28.1178830696
  0
LINE
  5
28B
100
AcDbEntity
  8
0
100
AcDbLine
 62
7
  6
CONTINUOUS
 10
26.7153677412
 20
-26.8281260696
 11
27.3206387412
 21
-25.2182290696
  0
LINE
  5
28C
100
AcDbEntity
  8
RACCORDO
100
AcDbLine
 62
253
  6
CONTINUOUS
 10
19.9615837412
 20
25.0572058248
 11
-3.5384161295
 21
25.057205824
  0
LINE
  5
28D
100
AcDbEntity
  8
RACCORDO
100
AcDbLine
 62
253
  6
CONTINUOUS
 10
19.9615837412
 20
26.7456704825
 11
-3.5384162588
 21
26.7456704824
  0
LINE
  5
28E
100
AcDbEntity
  8
0
100
AcDbLine
 62
7
  6
CONTINUOUS
 10
29.4765977412
 20
-26.0149800696
 11
29.1752227412
 21
-27.0910780696
  0
LINE
  5
28F
100
AcDbEntity
  8
0
100
AcDbLine
 62
7
  6
CONTINUOUS
 10
29.0514117412
 20
-27.5390090696
 11
28.8843947412
 21
-28.1178830696
  0
LINE
  5
290
100
AcDbEntity
  8
0
100
AcDbLine
 62
7
  6
CONTINUOUS
 10
28.2856897412
 20
-28.1178830696
 11
29.1952057412
 21
-25.2182290696
  0
LINE
  5
291
100
AcDbEntity
  8
0
100
AcDbLine
 62
7
  6
CONTINUOUS
 10
27.4741747412
 20
-26.2323570696
 11
26.7545067412
 21
-28.1178830696
  0
LINE
  5
292
100
AcDbEntity
  8
RACCORDO
100
AcDbLine
 62
253
  6
CONTINUOUS
 10
52.7115837412
 20
-46.6805840696
 11
52.711584494
 21
-46.4497510865
  0
LINE
  5
293
100
AcDbEntity
  8
RACCORDO
100
AcDbLine
 62
253
  6
CONTINUOUS
 10
52.7115837412
 20
48.3194159304
 11
52.7115851286
 21
48.0885829483
  0
LINE
  5
294
100
AcDbEntity
  8
RACCORDO
100
AcDbLine
 62
7
  6
CONTINUOUS
 10
55.6295517783
 20
4.3766501295
 11
55.6888001455
 21
4.5254867263
  0
LINE
  5
295
100
AcDbEntity
  8
RACCORDO
100
AcDbLine
 62
253
  6
CONTINUOUS
 10
55.7115837412
 20
45.3194159304
 11
55.4807940085
 21
45.3193580095
  0
LINE
  5
296
100
AcDbEntity
  8
RACCORDO
100
AcDbLine
 62
253
  6
CONTINUOUS
 10
-39.2884162588
 20
45.3194159304
 11
-39.0576321772
 21
45.3193865605
  0
LINE
  5
297
100
AcDbEntity
  8
RACCORDO
100
AcDbLine
 62
7
  6
CONTINUOUS
 10
55.6888001455
 20
-2.8866548656
 11
55.6295517783
 21
-2.7378182688
  0
LINE
  5
298
100
AcDbEntity
  8
RACCORDO
100
AcDbLine
 62
253
  6
CONTINUOUS
 10
54.7128579646
 20
-10.9305840696
 11
54.7128579646
 21
12.5694159304
  0
LINE
  5
299
100
AcDbEntity
  8
RACCORDO
100
AcDbLine
 62
253
  6
CONTINUOUS
 10
55.4763524184
 20
-10.9305840708
 11
55.4763524184
 21
12.5694159315
  0
LINE
  5
29A
100
AcDbEntity
  8
RACCORDO
100
AcDbLine
 62
7
  6
CONTINUOUS
 10
55.6067681826
 20
-2.2420958382
 11
55.6067681826
 21
3.8809276989
  0
LINE
  5
29B
100
AcDbEntity
  8
RACCORDO
100
AcDbLine
 62
7
  6
CONTINUOUS
 10
55.7115837412
 20
-43.6805840696
 11
55.7115837412
 21
-3.3823772963
  0
LINE
  5
29C
100
AcDbEntity
  8
RACCORDO
100
AcDbLine
 62
7
  6
CONTINUOUS
 10
55.7115837412
 20
5.021209157
 11
55.7115837412
 21
45.3194159304
  0
LINE
  5
29D
100
AcDbEntity
  8
RACCORDO
100
AcDbLine
 62
253
  6
CONTINUOUS
 10
19.9615837412
 20
47.3206901531
 11
-3.5384162588
 21
47.3206901531
  0
LINE
  5
29E
100
AcDbEntity
  8
RACCORDO
100
AcDbLine
 62
253
  6
CONTINUOUS
 10
19.9615837407
 20
48.0841846078
 11
-3.5384162584
 21
48.0841846078
  0
LINE
  5
29F
100
AcDbEntity
  8
SUPERFICI
100
AcDbLine
 62
7
  6
CONTINUOUS
 10
52.7115837412
 20
48.3194159304
 11
-36.2884162588
 21
48.3194159304
  0
LINE
  5
2A0
100
AcDbEntity
  8
RACCORDO
100
AcDbLine
 62
253
  6
CONTINUOUS
 10
-48.0844877834
 20
-43.6805840696
 11
-52.4882161803
 21
-43.6805906521
  0
LINE
  5
2A1
100
AcDbEntity
  8
RACCORDO
100
AcDbLine
 62
7
  6
CONTINUOUS
 10
-48.0844877834
 20
-46.6805840696
 11
-52.4890434863
 21
-46.4497510865
  0
LINE
  5
2A2
100
AcDbEntity
  8
0
100
AcDbLine
 62
7
  6
CONTINUOUS
 10
-56.1769514163
 20
-28.1178825952
 11
-56.1168311454
 21
-28.1178825952
  0
LINE
  5
2A3
100
AcDbEntity
  8
0
100
AcDbLine
 62
253
  6
CONTINUOUS
 10
-56.3247840923
 20
-25.2828657773
 11
-56.264735073
 21
-25.282789022
  0
LINE
  5
2A4
100
AcDbEntity
  8
0
100
AcDbLine
 62
253
  6
CONTINUOUS
 10
-56.2255475157
 20
-27.3328798366
 11
-56.1654508858
 21
-27.3328798366
  0
LINE
  5
2A5
100
AcDbEntity
  8
0
100
AcDbLine
 62
7
  6
CONTINUOUS
 10
-56.2614241495
 20
-26.7451186196
 11
-56.2013430756
 21
-26.7451185719
  0
LINE
  5
2A6
100
AcDbEntity
  8
SUPERFICI
100
AcDbLine
 62
7
  6
CONTINUOUS
 10
-56.275802288
 20
-25.1787278445
 11
-56.3358495904
 21
-25.1787278445
  0
LWPOLYLINE
  5
2A7
100
AcDbEntity
  8
RACCORDO
100
AcDbPolyline
 62
7
  6
CONTINUOUS
 90
8
 70
0
 10
-56.2968722412
 20
-25.1068404576
 10
-56.2968378355
 20
-25.106847009
 10
-56.2967978617
 20
-25.1068570569
 10
-56.2967536313
 20
-25.1068386891
 10
-56.2967041281
 20
-25.1068412425
 10
-56.2966503581
 20
-25.1068655211
 10
-56.2965966728
 20
-25.1068196368
 10
-56.2965411328
 20
-25.1068121054
  0
LWPOLYLINE
  5
2A8
100
AcDbEntity
  8
RACCORDO
100
AcDbPolyline
 62
253
  6
CONTINUOUS
 90
11
 70
0
 10
-56.2869734702
 20
26.7556847611
 10
-56.289156827
 20
26.7545707822
 10
-56.2910106015
 20
26.7522194492
 10
-56.2925475767
 20
26.7493950427
 10
-56.293745099
 20
26.7474583531
 10
-56.2946457682
 20
26.7469035863
 10
-56.2953549066
 20
26.7464079414
 10
-56.2958866371
 20
26.7459931267
 10
-56.2962325393
 20
26.7459526005
 10
-56.2964599392
 20
26.7449823792
 10
-56.2964961988
 20
26.7447875477
  0
LINE
  5
2A9
100
AcDbEntity
  8
RACCORDO
100
AcDbLine
 62
253
  6
CONTINUOUS
 10
-56.2937349176
 20
-21.4323863274
 11
-56.8862895413
 21
-21.4310022776
  0
LWPOLYLINE
  5
2AA
100
AcDbEntity
  8
RACCORDO
100
AcDbPolyline
 62
7
  6
CONTINUOUS
 90
5
 70
0
 10
-56.2965259929
 20
-25.1068238305
 10
-56.2964856773
 20
-25.1068550528
 10
-56.2964404961
 20
-25.1067359897
 10
-56.2964050592
 20
-25.1065894224
 10
-56.2963799177
 20
-25.1065521731
  0
LINE
  5
2AB
100
AcDbEntity
  8
RACCORDO
100
AcDbLine
 62
7
  6
CONTINUOUS
 10
-56.8850968683
 20
25.0597609436
 11
-56.8870711166
 21
25.0573591769
  0
LINE
  5
2AC
100
AcDbEntity
  8
RACCORDO
100
AcDbLine
 62
7
  6
CONTINUOUS
 10
-56.8870692881
 20
-23.4185303286
 11
-56.8851010113
 21
-23.4209208596
  0
LINE
  5
2AD
100
AcDbEntity
  8
RACCORDO
100
AcDbLine
 62
7
  6
CONTINUOUS
 10
-56.8870270203
 20
25.0574191818
 11
-56.8870634144
 21
25.0573684712
  0
LINE
  5
2AE
100
AcDbEntity
  8
RACCORDO
100
AcDbLine
 62
7
  6
CONTINUOUS
 10
-56.8870693226
 20
25.0573630112
 11
-56.8728617594
 21
25.0766379286
  0
LINE
  5
2AF
100
AcDbEntity
  8
RACCORDO
100
AcDbLine
 62
7
  6
CONTINUOUS
 10
-56.887069684
 20
-23.4185302768
 11
-56.8690783192
 21
-23.4429936514
  0
LINE
  5
2B0
100
AcDbEntity
  8
RACCORDO
100
AcDbLine
 62
7
  6
CONTINUOUS
 10
-56.8670533762
 20
-23.4457797672
 11
-56.8739090727
 21
-23.4363740792
  0
LINE
  5
2B1
100
AcDbEntity
  8
RACCORDO
100
AcDbLine
 62
7
  6
CONTINUOUS
 10
-56.8870822598
 20
-23.4185112135
 11
-56.8870285795
 21
-23.4185853426
  0
LWPOLYLINE
  5
2B2
100
AcDbEntity
  8
RACCORDO
100
AcDbPolyline
 62
7
  6
CONTINUOUS
 90
8
 70
0
 10
-56.8870691296
 20
-23.4185305889
 10
-56.7537338677
 20
-23.6135067432
 10
-56.6162775991
 20
-23.8570687165
 10
-56.4983774787
 20
-24.1219068729
 10
-56.4037766851
 20
-24.4069703974
 10
-56.3364378334
 20
-24.7101537171
 10
-56.300217317
 20
-25.0281912797
 10
-56.2965546482
 20
-25.1059911612
  0
LWPOLYLINE
  5
2B3
100
AcDbEntity
  8
RACCORDO
100
AcDbPolyline
 62
7
  6
CONTINUOUS
 90
3
 70
0
 10
-56.384613894
 20
26.1184977793
 10
-56.4746695074
 20
25.8238771489
 10
-56.4873607618
 20
25.7937779405
  0
LINE
  5
2B4
100
AcDbEntity
  8
RACCORDO
100
AcDbLine
 62
253
  6
CONTINUOUS
 10
-52.572968806
 20
-10.9305840708
 11
-57.0844878297
 21
-10.9305840696
  0
LWPOLYLINE
  5
2B5
100
AcDbEntity
  8
RACCORDO
100
AcDbPolyline
 62
253
  6
CONTINUOUS
 90
13
 70
0
 10
-56.2964744987
 20
-25.1061277678
 10
-56.2962964702
 20
-25.1068969515
 10
-56.2960310821
 20
-25.1070932259
 10
-56.2956526595
 20
-25.1072282083
 10
-56.2951503311
 20
-25.1077598523
 10
-56.2945323711
 20
-25.1085228862
 10
-56.2938012314
 20
-25.1092378347
 10
-56.2929542257
 20
-25.110036588
 10
-56.2919897427
 20
-25.1112033841
 10
-56.2909116108
 20
-25.1123355112
 10
-56.289719279
 20
-25.1133556391
 10
-56.2884076524
 20
-25.1147567056
 10
-56.2869734929
 20
-25.1168522563
  0
LINE
  5
2B6
100
AcDbEntity
  8
RACCORDO
100
AcDbLine
 62
7
  6
CONTINUOUS
 10
-56.3618783984
 20
26.2344910532
 11
-56.384613894
 21
26.1184977793
  0
LWPOLYLINE
  5
2B7
100
AcDbEntity
  8
RACCORDO
100
AcDbPolyline
 62
7
  6
CONTINUOUS
 90
5
 70
0
 10
-56.2963769002
 20
-25.1064514664
 10
-56.2964137423
 20
-25.1059620098
 10
-56.2964726833
 20
-25.1056220383
 10
-56.2965123498
 20
-25.1060365095
 10
-56.2965414817
 20
-25.1062553753
  0
LINE
  5
2B8
100
AcDbEntity
  8
RACCORDO
100
AcDbLine
 62
7
  6
CONTINUOUS
 10
-56.2965414817
 20
-25.1062553753
 11
-56.2965520131
 21
-25.1060771643
  0
LINE
  5
2B9
100
AcDbEntity
  8
RACCORDO
100
AcDbLine
 62
7
  6
CONTINUOUS
 10
-56.2965520131
 20
-25.1060771643
 11
-56.2965531926
 21
-25.1060373056
  0
LINE
  5
2BA
100
AcDbEntity
  8
RACCORDO
100
AcDbLine
 62
253
  6
CONTINUOUS
 10
-56.2965585181
 20
26.7444526907
 11
-56.2965585708
 21
26.7447132702
  0
LINE
  5
2BB
100
AcDbEntity
  8
0
100
AcDbLine
 62
7
  6
CONTINUOUS
 10
-57.0844126217
 20
-22.8219836033
 11
-57.0844178081
 21
24.4608157037
  0
LINE
  5
2BC
100
AcDbEntity
  8
RACCORDO
100
AcDbLine
 62
253
  6
CONTINUOUS
 10
-56.8871853547
 20
-10.9305840696
 11
-56.8871853552
 21
12.5695076452
  0
LINE
  5
2BD
100
AcDbEntity
  8
RACCORDO
100
AcDbLine
 62
253
  6
CONTINUOUS
 10
-56.2969683067
 20
-10.9305840696
 11
-56.2969683067
 21
12.5694159304
  0
LWPOLYLINE
  5
2BE
100
AcDbEntity
  8
RACCORDO
100
AcDbPolyline
 62
253
  6
CONTINUOUS
 90
3
 70
0
 10
-56.2965531926
 20
-25.1060373056
 10
-56.2965513681
 20
-25.1058309462
 10
-56.2965085135
 20
-25.105996424
  0
LINE
  5
2BF
100
AcDbEntity
  8
RACCORDO
100
AcDbLine
 62
7
  6
CONTINUOUS
 10
-56.2963760075
 20
26.7452916113
 11
-56.2963741178
 21
26.7453664112
  0
LINE
  5
2C0
100
AcDbEntity
  8
RACCORDO
100
AcDbLine
 62
7
  6
CONTINUOUS
 10
-56.2965585708
 20
26.7447132702
 11
-56.2965572817
 21
26.7447544105
  0
LINE
  5
2C1
100
AcDbEntity
  8
SUPERFICI
100
AcDbLine
 62
7
  6
CONTINUOUS
 10
-56.2817996622
 20
27.1531120266
 11
-56.2965551282
 21
26.7448176109
  0
LINE
  5
2C2
100
AcDbEntity
  8
SUPERFICI
100
AcDbLine
 62
7
  6
CONTINUOUS
 10
-56.262290754
 20
27.6333048009
 11
-56.2817996622
 21
27.1531120266
  0
LWPOLYLINE
  5
2C3
100
AcDbEntity
  8
RACCORDO
100
AcDbPolyline
 62
7
  6
CONTINUOUS
 90
8
 70
0
 10
-56.2965562929
 20
26.7448204997
 10
-56.3001677807
 20
26.6678744207
 10
-56.3362445274
 20
26.3501427879
 10
-56.4033917201
 20
26.0471963725
 10
-56.4978996421
 20
25.761971617
 10
-56.6159698412
 20
25.4965119465
 10
-56.753920768
 20
25.252041542
 10
-56.8870700744
 20
25.0573617562
  0
LINE
  5
2C4
100
AcDbEntity
  8
SUPERFICI
100
AcDbLine
 62
7
  6
CONTINUOUS
 10
-56.2404556463
 20
28.1136413677
 11
-56.262290754
 21
27.6333048009
  0
LINE
  5
2C5
100
AcDbEntity
  8
RACCORDO
100
AcDbLine
 62
7
  6
CONTINUOUS
 10
-48.5192246873
 20
-2.8866548656
 11
-49.6497508795
 21
-2.7378182688
  0
LWPOLYLINE
  5
2C6
100
AcDbEntity
  8
RACCORDO
100
AcDbPolyline
 62
7
  6
CONTINUOUS
 90
5
 70
0
 10
-56.2963741178
 20
26.7453664112
 10
-56.2963843504
 20
26.7454869172
 10
-56.2964176138
 20
26.7454826085
 10
-56.2964592835
 20
26.7455857485
 10
-56.2965074579
 20
26.7456989432
  0
LINE
  5
2C7
100
AcDbEntity
  8
RACCORDO
100
AcDbLine
 62
253
  6
CONTINUOUS
 10
-53.4925956982
 20
-10.9305840696
 11
-53.4925956982
 21
12.5694159304
  0
LINE
  5
2C8
100
AcDbEntity
  8
RACCORDO
100
AcDbLine
 62
253
  6
CONTINUOUS
 10
-52.572968806
 20
-10.9305840708
 11
-52.572968806
 21
12.5694159315
  0
LINE
  5
2C9
100
AcDbEntity
  8
RACCORDO
100
AcDbLine
 62
7
  6
CONTINUOUS
 10
-56.2963799177
 20
-25.1065521731
 11
-56.2963746991
 21
-25.1065044254
  0
LINE
  5
2CA
100
AcDbEntity
  8
RACCORDO
100
AcDbLine
 62
7
  6
CONTINUOUS
 10
-50.0844877834
 20
-2.2420958382
 11
-50.0844877834
 21
3.8809276989
  0
LINE
  5
2CB
100
AcDbEntity
  8
RACCORDO
100
AcDbLine
 62
7
  6
CONTINUOUS
 10
-49.6497508795
 20
4.3766501295
 11
-48.5192246873
 21
4.5254867263
  0
LWPOLYLINE
  5
2CC
100
AcDbEntity
  8
RACCORDO
100
AcDbPolyline
 62
7
  6
CONTINUOUS
 90
5
 70
0
 10
-56.2965396167
 20
26.7450701388
 10
-56.2965019164
 20
26.7448759949
 10
-56.2964641952
 20
26.7442924728
 10
-56.2964076504
 20
26.7446945636
 10
-56.2963760075
 20
26.7452916113
  0
LINE
  5
2CD
100
AcDbEntity
  8
SUPERFICI
100
AcDbLine
 62
7
  6
CONTINUOUS
 10
-48.0844877834
 20
-46.6805840696
 11
-48.0844877834
 21
-43.6805840696
  0
LINE
  5
2CE
100
AcDbEntity
  8
RACCORDO
100
AcDbLine
 62
7
  6
CONTINUOUS
 10
-48.0844877834
 20
-43.6805840696
 11
-48.0844877834
 21
-3.3823772963
  0
LINE
  5
2CF
100
AcDbEntity
  8
RACCORDO
100
AcDbLine
 62
7
  6
CONTINUOUS
 10
-48.0844877834
 20
5.021209157
 11
-48.0844877834
 21
45.3194159304
  0
LINE
  5
2D0
100
AcDbEntity
  8
SUPERFICI
100
AcDbLine
 62
7
  6
CONTINUOUS
 10
-48.0844877834
 20
45.3194159304
 11
-48.0844877834
 21
48.3194159304
  0
LINE
  5
2D1
100
AcDbEntity
  8
RACCORDO
100
AcDbLine
 62
253
  6
CONTINUOUS
 10
-52.572968806
 20
12.5694159315
 11
-57.0844878297
 21
12.5695297852
  0
LINE
  5
2D2
100
AcDbEntity
  8
RACCORDO
100
AcDbLine
 62
253
  6
CONTINUOUS
 10
-56.2937385493
 20
23.0712178452
 11
-56.8862256144
 21
23.0698339468
  0
LINE
  5
2D3
100
AcDbEntity
  8
RACCORDO
100
AcDbLine
 62
7
  6
CONTINUOUS
 10
-56.2965254047
 20
26.7456850536
 11
-56.2969620157
 21
26.7456698454
  0
LINE
  5
2D4
100
AcDbEntity
  8
RACCORDO
100
AcDbLine
 62
7
  6
CONTINUOUS
 10
-48.0844877834
 20
48.3194159304
 11
-52.4890434657
 21
48.0885829483
  0
LINE
  5
2D5
100
AcDbEntity
  8
RACCORDO
100
AcDbLine
 62
253
  6
CONTINUOUS
 10
-48.0844877834
 20
45.3194159304
 11
-52.4882182192
 21
45.3193580095
  0
ARC
  5
2D6
100
AcDbEntity
  8
RACCORDO
100
AcDbCircle
 62
253
  6
CONTINUOUS
 10
27.7864329411
 20
-421.3569852386
 40
396.249082863
100
AcDbArc
 50
89.6515262088
 51
89.8997701801
  0
ARC
  5
2D7
100
AcDbEntity
  8
RACCORDO
100
AcDbCircle
 62
253
  6
CONTINUOUS
 10
-401.8707196684
 20
-28.1455517101
 40
387.8605812388
100
AcDbArc
 50
0.447411897
 51
0.697836648
  0
ARC
  5
2D8
100
AcDbEntity
  8
RACCORDO
100
AcDbCircle
 62
253
  6
CONTINUOUS
 10
418.2938649438
 20
29.7843830091
 40
387.8605590276
100
AcDbArc
 50
180.4474118396
 51
180.697836605
  0
ARC
  5
2D9
100
AcDbEntity
  8
RACCORDO
100
AcDbCircle
 62
253
  6
CONTINUOUS
 10
-396.4741627028
 20
29.7880617419
 40
382.4644853112
100
AcDbArc
 50
359.291771347
 51
359.5457468437
  0
ARC
  5
2DA
100
AcDbEntity
  8
RACCORDO
100
AcDbCircle
 62
253
  6
CONTINUOUS
 10
401.4629805625
 20
-27.9521397275
 40
371.028574223
100
AcDbArc
 50
179.3003784638
 51
179.4998893846
  0
ARC
  5
2DB
100
AcDbEntity
  8
0
100
AcDbCircle
 62
7
  6
CONTINUOUS
 10
53.4206268415
 20
-22.5655847126
 40
21.2005166483
100
AcDbArc
 50
194.8183305868
 51
195.1825025052
  0
ARC
  5
2DC
100
AcDbEntity
  8
0
100
AcDbCircle
 62
7
  6
CONTINUOUS
 10
32.7497103771
 20
-38.095887375
 40
12.98378247
100
AcDbArc
 50
97.6160178556
 51
98.4216102361
  0
ARC
  5
2DD
100
AcDbEntity
  8
0
100
AcDbCircle
 62
7
  6
CONTINUOUS
 10
27.0702855487
 20
-29.0690501325
 40
5.3656184723
100
AcDbArc
 50
16.936168212
 51
18.2892304829
  0
ARC
  5
2DE
100
AcDbEntity
  8
0
100
AcDbCircle
 62
7
  6
CONTINUOUS
 10
28.4300427476
 20
-28.6183011902
 40
3.9330989944
100
AcDbArc
 50
18.2707545671
 51
20.5373673546
  0
ARC
  5
2DF
100
AcDbEntity
  8
RACCORDO
100
AcDbCircle
 62
253
  6
CONTINUOUS
 10
30.4719851844
 20
-21.447508142
 40
3.6694425509
100
AcDbArc
 50
269.5803215857
 51
278.416955896
  0
ARC
  5
2E0
100
AcDbEntity
  8
RACCORDO
100
AcDbCircle
 62
253
  6
CONTINUOUS
 10
30.4717844292
 20
-21.4495447954
 40
3.6674572534
100
AcDbArc
 50
278.4247158669
 51
284.5136463266
  0
ARC
  5
2E1
100
AcDbEntity
  8
RACCORDO
100
AcDbCircle
 62
253
  6
CONTINUOUS
 10
30.4765537966
 20
-21.4639272652
 40
3.6523272527
100
AcDbArc
 50
284.4977586057
 51
296.7357714963
  0
ARC
  5
2E2
100
AcDbEntity
  8
SUPERFICI
100
AcDbCircle
 62
7
  6
CONTINUOUS
 10
-36.2884162588
 20
45.3194159304
 40
3.0
100
AcDbArc
 50
90.0
 51
180.0
  0
ARC
  5
2E3
100
AcDbEntity
  8
SUPERFICI
100
AcDbCircle
 62
7
  6
CONTINUOUS
 10
-36.2884162588
 20
-43.6805840696
 40
3.0
100
AcDbArc
 50
180.0
 51
270.0
  0
ARC
  5
2E4
100
AcDbEntity
  8
SUPERFICI
100
AcDbCircle
 62
7
  6
CONTINUOUS
 10
52.7115837412
 20
-43.6805840696
 40
3.0
100
AcDbArc
 50
270.0
 51
360.0
  0
ARC
  5
2E5
100
AcDbEntity
  8
SUPERFICI
100
AcDbCircle
 62
7
  6
CONTINUOUS
 10
52.7115837412
 20
45.3194159304
 40
3.0
100
AcDbArc
 50
0.0
 51
90.0
  0
ARC
  5
2E6
100
AcDbEntity
  8
RACCORDO
100
AcDbCircle
 62
253
  6
CONTINUOUS
 10
52.7142967448
 20
-43.6832516022
 40
2.7665287658
100
AcDbArc
 50
269.9438277587
 51
0.0551098165
  0
ARC
  5
2E7
100
AcDbEntity
  8
RACCORDO
100
AcDbCircle
 62
253
  6
CONTINUOUS
 10
-36.2911356316
 20
45.3220856147
 40
2.766518967
100
AcDbArc
 50
89.956817146
 51
180.0558989911
  0
ARC
  5
2E8
100
AcDbEntity
  8
RACCORDO
100
AcDbCircle
 62
253
  6
CONTINUOUS
 10
52.7143135378
 20
45.3221069855
 40
2.7665014775
100
AcDbArc
 50
359.9430667703
 51
90.0565073702
  0
ARC
  5
2E9
100
AcDbEntity
  8
RACCORDO
100
AcDbCircle
 62
253
  6
CONTINUOUS
 10
-36.2911460859
 20
-43.683275157
 40
2.7665014743
100
AcDbArc
 50
179.9430659431
 51
270.0565079529
  0
ARC
  5
2EA
100
AcDbEntity
  8
0
100
AcDbCircle
 62
7
  6
CONTINUOUS
 10
31.6593791382
 20
-27.7686306772
 40
2.589746439
100
AcDbArc
 50
85.005770659
 51
88.616241309
  0
ARC
  5
2EB
100
AcDbEntity
  8
0
100
AcDbCircle
 62
253
  6
CONTINUOUS
 10
-14.0384162588
 20
23.0694159304
 40
0.3920102744
100
AcDbArc
 50
90.0
 51
180.0
  0
ARC
  5
2EC
100
AcDbEntity
  8
0
100
AcDbCircle
 62
253
  6
CONTINUOUS
 10
-14.0384162588
 20
-21.4305840696
 40
0.3920100933
100
AcDbArc
 50
180.0
 51
270.0
  0
ARC
  5
2ED
100
AcDbEntity
  8
0
100
AcDbCircle
 62
253
  6
CONTINUOUS
 10
30.4615837412
 20
23.0694159304
 40
0.3920100933
100
AcDbArc
 50
0.0
 51
90.0
  0
ARC
  5
2EE
100
AcDbEntity
  8
0
100
AcDbCircle
 62
253
  6
CONTINUOUS
 10
30.4615837412
 20
-21.4305840696
 40
0.3920100608
100
AcDbArc
 50
270.0
 51
360.0
  0
ARC
  5
2EF
100
AcDbEntity
  8
0
100
AcDbCircle
 62
7
  6
CONTINUOUS
 10
-14.0384162588
 20
-21.4305840696
 40
0.3
100
AcDbArc
 50
180.0
 51
270.0
  0
ARC
  5
2F0
100
AcDbEntity
  8
0
100
AcDbCircle
 62
7
  6
CONTINUOUS
 10
30.4615837412
 20
-21.4305840696
 40
0.3
100
AcDbArc
 50
270.0
 51
360.0
  0
ARC
  5
2F1
100
AcDbEntity
  8
0
100
AcDbCircle
 62
7
  6
CONTINUOUS
 10
30.4615837412
 20
23.0694159304
 40
0.3
100
AcDbArc
 50
0.0
 51
90.0
  0
ARC
  5
2F2
100
AcDbEntity
  8
0
100
AcDbCircle
 62
7
  6
CONTINUOUS
 10
-14.0384162588
 20
23.0694159304
 40
0.3
100
AcDbArc
 50
90.0
 51
180.0
  0
ARC
  5
2F3
100
AcDbEntity
  8
SUPERFICI
100
AcDbCircle
 62
7
  6
CONTINUOUS
 10
-126.3280338628
 20
-28.9870014536
 40
70.1618900816
100
AcDbArc
 50
2.4676155331
 51
2.816901892
  0
ARC
  5
2F4
100
AcDbEntity
  8
0
100
AcDbCircle
 62
7
  6
CONTINUOUS
 10
-113.6199598329
 20
-30.4994008918
 40
57.481550189
100
AcDbArc
 50
3.2408431412
 51
3.4059807765
  0
ARC
  5
2F5
100
AcDbEntity
  8
RACCORDO
100
AcDbCircle
 62
253
  6
CONTINUOUS
 10
-256.4830089295
 20
22.9030131048
 40
200.1893444955
100
AcDbArc
 50
0.0481415379
 51
0.3041997068
  0
ARC
  5
2F6
100
AcDbEntity
  8
RACCORDO
100
AcDbCircle
 62
253
  6
CONTINUOUS
 10
-76.7514618427
 20
-24.9644993715
 40
20.4662873985
100
AcDbArc
 50
0.6683544909
 51
0.8390927511
  0
ARC
  5
2F7
100
AcDbEntity
  8
SUPERFICI
100
AcDbCircle
 62
7
  6
CONTINUOUS
 10
-61.3375620464
 20
-25.6358331434
 40
5.0850972151
100
AcDbArc
 50
3.3877772851
 51
3.9810885229
  0
ARC
  5
2F8
100
AcDbEntity
  8
RACCORDO
100
AcDbCircle
 62
7
  6
CONTINUOUS
 10
-59.2890792419
 20
-25.2215549913
 40
3.0039309704
100
AcDbArc
 50
1.997462699
 51
9.7346375352
  0
ARC
  5
2F9
100
AcDbEntity
  8
RACCORDO
100
AcDbCircle
 62
7
  6
CONTINUOUS
 10
-59.2952779291
 20
-25.207533032
 40
3.0
100
AcDbArc
 50
1.9234828544
 51
36.6115254969
  0
ARC
  5
2FA
100
AcDbEntity
  8
RACCORDO
100
AcDbCircle
 62
7
  6
CONTINUOUS
 10
-59.2844700146
 20
-25.2206464666
 40
2.999243454
100
AcDbArc
 50
9.7324197973
 51
36.8547652901
  0
ARC
  5
2FB
100
AcDbEntity
  8
RACCORDO
100
AcDbCircle
 62
7
  6
CONTINUOUS
 10
-52.5206329982
 20
-45.4467232044
 40
1.0
100
AcDbArc
 50
193.5995858807
 51
267.000008735
  0
ARC
  5
2FC
100
AcDbEntity
  8
RACCORDO
100
AcDbCircle
 62
253
  6
CONTINUOUS
 10
-52.4364531249
 20
-45.4516461211
 40
0.9995154725
100
AcDbArc
 50
187.0477204163
 51
266.9838612491
  0
ARC
  5
2FD
100
AcDbEntity
  8
RACCORDO
100
AcDbCircle
 62
7
  6
CONTINUOUS
 10
-56.0837697704
 20
-22.8217358119
 40
1.0006630643
100
AcDbArc
 50
180.0139954873
 51
216.8412975914
  0
ARC
  5
2FE
100
AcDbEntity
  8
0
100
AcDbCircle
 62
7
  6
CONTINUOUS
 10
-56.084411691
 20
-22.8219849574
 40
1.0
100
AcDbArc
 50
180.0
 51
216.8519289217
  0
ARC
  5
2FF
100
AcDbEntity
  8
RACCORDO
100
AcDbCircle
 62
7
  6
CONTINUOUS
 10
-56.0846614414
 20
-22.8217665024
 40
0.9996804423
100
AcDbArc
 50
123.2044831261
 51
175.2425117845
  0
ARC
  5
300
100
AcDbEntity
  8
RACCORDO
100
AcDbCircle
 62
7
  6
CONTINUOUS
 10
-56.088062735
 20
-22.8227156061
 40
0.9963703412
100
AcDbArc
 50
175.171900164
 51
179.9577132011
  0
ARC
  5
301
100
AcDbEntity
  8
RACCORDO
100
AcDbCircle
 62
7
  6
CONTINUOUS
 10
-48.5844877834
 20
-3.3823772963
 40
0.5
100
AcDbArc
 50
0.0
 51
82.5
  0
ARC
  5
302
100
AcDbEntity
  8
RACCORDO
100
AcDbCircle
 62
7
  6
CONTINUOUS
 10
-49.5844877834
 20
-2.2420958382
 40
0.5
100
AcDbArc
 50
180.0
 51
262.5
  0
ARC
  5
303
100
AcDbEntity
  8
0
100
AcDbCircle
 62
7
  6
CONTINUOUS
 10
56.3619740378
 20
-20.7660685067
 40
112.7788620986
100
AcDbArc
 50
183.4048405765
 51
183.5383127885
  0
ARC
  5
304
100
AcDbEntity
  8
SUPERFICI
100
AcDbCircle
 62
7
  6
CONTINUOUS
 10
52.3228218948
 20
-21.0075835202
 40
108.672511264
100
AcDbArc
 50
183.3367934434
 51
183.7514671522
  0
ARC
  5
305
100
AcDbEntity
  8
0
100
AcDbCircle
 62
7
  6
CONTINUOUS
 10
48.5034526686
 20
-21.2520147014
 40
104.9053303744
100
AcDbArc
 50
183.5382998727
 51
183.6813513598
  0
ARC
  5
306
100
AcDbEntity
  8
RACCORDO
100
AcDbCircle
 62
7
  6
CONTINUOUS
 10
45.7198695386
 20
-21.6805840696
 40
102.074357322
100
AcDbArc
 50
183.6135524587
 51
193.5995923662
  0
ARC
  5
307
100
AcDbEntity
  8
RACCORDO
100
AcDbCircle
 62
7
  6
CONTINUOUS
 10
45.7198695386
 20
-21.6805840696
 40
102.074357322
100
AcDbArc
 50
181.9235664349
 51
181.984530991
  0
ARC
  5
308
100
AcDbEntity
  8
RACCORDO
100
AcDbCircle
 62
7
  6
CONTINUOUS
 10
45.7198695386
 20
23.3194159304
 40
102.074357322
100
AcDbArc
 50
166.4004076338
 51
178.0764335651
  0
ARC
  5
309
100
AcDbEntity
  8
RACCORDO
100
AcDbCircle
 62
7
  6
CONTINUOUS
 10
-59.2952714034
 20
26.8463736027
 40
2.9999999993
100
AcDbArc
 50
323.3882666265
 51
358.0763467044
  0
ARC
  5
30A
100
AcDbEntity
  8
RACCORDO
100
AcDbCircle
 62
7
  6
CONTINUOUS
 10
-59.2849072648
 20
26.8594931532
 40
2.9997437109
100
AcDbArc
 50
323.1512796023
 51
358.0168316729
  0
ARC
  5
30B
100
AcDbEntity
  8
RACCORDO
100
AcDbCircle
 62
7
  6
CONTINUOUS
 10
-56.0837741083
 20
24.4605690277
 40
1.0006595443
100
AcDbArc
 50
143.1586292745
 51
179.9858428226
  0
ARC
  5
30C
100
AcDbEntity
  8
0
100
AcDbCircle
 62
7
  6
CONTINUOUS
 10
-56.0844126217
 20
24.4608168506
 40
1.0
100
AcDbArc
 50
143.1480542983
 51
180.0
  0
ARC
  5
30D
100
AcDbEntity
  8
RACCORDO
100
AcDbCircle
 62
7
  6
CONTINUOUS
 10
-52.5206329982
 20
47.0855550651
 40
1.0
100
AcDbArc
 50
92.999991265
 51
166.4004141193
  0
ARC
  5
30E
100
AcDbEntity
  8
RACCORDO
100
AcDbCircle
 62
7
  6
CONTINUOUS
 10
-56.0846633204
 20
24.4605975297
 40
0.9996792067
100
AcDbArc
 50
184.7583993649
 51
236.8008160629
  0
ARC
  5
30F
100
AcDbEntity
  8
RACCORDO
100
AcDbCircle
 62
7
  6
CONTINUOUS
 10
-52.4364621045
 20
47.0904656786
 40
0.9995114657
100
AcDbArc
 50
93.0155878541
 51
172.9515163974
  0
ARC
  5
310
100
AcDbEntity
  8
RACCORDO
100
AcDbCircle
 62
7
  6
CONTINUOUS
 10
-56.088058078
 20
24.4615487156
 40
0.9963758132
100
AcDbArc
 50
180.0421181106
 51
184.8291017675
  0
ARC
  5
311
100
AcDbEntity
  8
RACCORDO
100
AcDbCircle
 62
7
  6
CONTINUOUS
 10
-48.5844877834
 20
5.021209157
 40
0.5
100
AcDbArc
 50
277.5
 51
360.0
  0
ARC
  5
312
100
AcDbEntity
  8
RACCORDO
100
AcDbCircle
 62
7
  6
CONTINUOUS
 10
-49.5844877834
 20
3.8809276989
 40
0.5
100
AcDbArc
 50
97.5
 51
180.0
  0
SPLINE
  5
313
100
AcDbEntity
  8
RACCORDO
100
AcDbSpline
 62
7
  6
CONTINUOUS
 70
0
 71
3
 72
35
 73
31
 74
29
 42
0.0000001
 43
0.0000001
 44
0.0000000001
 12
-32.7506355766
 22
-0.0000000784
 32
0.0
 13
-32.7505748845
 23
0.063050842
 33
0.0
 40
0.0
 40
0.0
 40
0.0
 40
0.0
 40
0.0862552684
 40
0.1652834493
 40
0.2378511926
 40
0.3045818076
 40
0.3660304269
 40
0.4226823069
 40
0.4749534092
 40
0.5232309066
 40
0.5678680273
 40
0.6091637689
 40
0.6473358036
 40
0.6825903013
 40
0.7151718913
 40
0.7453420297
 40
0.7733269732
 40
0.7992183558
 40
0.823093596
 40
0.845103789
 40
0.8654266572
 40
0.8842088867
 40
0.9014400484
 40
0.9169329423
 40
0.9308064528
 40
0.9436952985
 40
0.9563655779
 40
0.9696127444
 40
0.9841731237
 40
1.0
 40
1.0
 40
1.0
 40
1.0
 10
-3.5384162584
 20
48.0841846078
 30
0.0
 10
-4.4800545458
 20
48.0841846056
 30
0.0
 10
-6.2844338846
 20
48.0842102849
 30
0.0
 10
-8.8810264602
 20
48.0842922073
 30
0.0
 10
-11.264470766
 20
48.0843884956
 30
0.0
 10
-13.4560011326
 20
48.0844820506
 30
0.0
 10
-15.4737799528
 20
48.0845737575
 30
0.0
 10
-17.3337060288
 20
48.084669559
 30
0.0
 10
-19.0498445667
 20
48.084762707
 30
0.0
 10
-20.634819438
 20
48.0848454143
 30
0.0
 10
-22.0999776298
 20
48.0849144418
 30
0.0
 10
-23.4548157142
 20
48.0849702928
 30
0.0
 10
-24.7072248433
 20
48.0850128774
 30
0.0
 10
-25.8645026381
 20
48.0850445895
 30
0.0
 10
-26.934424702
 20
48.0850865871
 30
0.0
 10
-27.9249859247
 20
48.0851507782
 30
0.0
 10
-28.8425109641
 20
48.0852359616
 30
0.0
 10
-29.6913153627
 20
48.085338478
 30
0.0
 10
-30.4748941303
 20
48.0854758677
 30
0.0
 10
-31.1976820903
 20
48.0856650776
 30
0.0
 10
-31.8648702537
 20
48.0859010856
 30
0.0
 10
-32.4798863028
 20
48.0861522447
 30
0.0
 10
-33.0421741074
 20
48.0863977635
 30
0.0
 10
-33.5508740209
 20
48.0866351019
 30
0.0
 10
-34.012169403
 20
48.0868507924
 30
0.0
 10
-34.4426506709
 20
48.0870025291
 30
0.0
 10
-34.8662942293
 20
48.0871020627
 30
0.0
 10
-35.3081857017
 20
48.0872847215
 30
0.0
 10
-35.7845372086
 20
48.0877282653
 30
0.0
 10
-36.1162707994
 20
48.0882553287
 30
0.0
 10
-36.2890505651
 20
48.0885879613
 30
0.0
 11
-3.5384162584
 21
48.0841846078
 31
0.0
 11
-6.3633311205
 21
48.084219918
 31
0.0
 11
-8.9515542732
 21
48.0842984123
 31
0.0
 11
-11.3281939856
 21
48.0843920153
 31
0.0
 11
-13.5136640387
 21
48.084485559
 31
0.0
 11
-15.5261453731
 21
48.0845782523
 31
0.0
 11
-17.3815304458
 21
48.0846729132
 31
0.0
 11
-19.0934422671
 21
48.0847644517
 31
0.0
 11
-20.6745609873
 21
48.0848460999
 31
0.0
 11
-22.1364550601
 21
48.0849146696
 31
0.0
 11
-23.4889168424
 21
48.0849700068
 31
0.0
 11
-24.7390752404
 21
48.0850125306
 31
0.0
 11
-25.8936824472
 21
48.0850477594
 31
0.0
 11
-26.960750226
 21
48.085092339
 31
0.0
 11
-27.9488414308
 21
48.0851571149
 31
0.0
 11
-28.8653661142
 21
48.0852425168
 31
0.0
 11
-29.713325343
 21
48.0853491593
 31
0.0
 11
-30.4952546211
 21
48.0854911607
 31
0.0
 11
-31.2161024064
 21
48.0856813879
 31
0.0
 11
-31.8816892154
 21
48.0859133354
 31
0.0
 11
-32.496819119
 21
48.0861621822
 31
0.0
 11
-33.0611505623
 21
48.0864090126
 31
0.0
 11
-33.5685526312
 21
48.0866434407
 31
0.0
 11
-34.0229188723
 21
48.0868467821
 31
0.0
 11
-34.4450367334
 21
48.0869950305
 31
0.0
 11
-34.8599964221
 21
48.0871126473
 31
0.0
 11
-35.2938494956
 21
48.0873144668
 31
0.0
 11
-35.7707109601
 21
48.0877654837
 31
0.0
 11
-36.2890505651
 21
48.0885879613
 31
0.0
  0
SPLINE
  5
314
100
AcDbEntity
  8
0
100
AcDbSpline
 62
7
  6
CONTINUOUS
 70
0
 71
3
 72
8
 73
4
 74
2
 42
0.0000001
 43
0.0000001
 44
0.0000000001
 12
0.1779866083
 22
-0.6532646917
 32
0.0
 13
0.1733064377
 23
-0.654520039
 33
0.0
 40
0.0
 40
0.0
 40
0.0
 40
0.0
 40
1.0
 40
1.0
 40
1.0
 40
1.0
 10
32.7531126224
 20
-27.3328798369
 30
0.0
 10
32.8124414919
 20
-27.5506347341
 30
0.0
 10
32.867436334
 20
-27.7695507692
 30
0.0
 10
32.9252051466
 20
-27.9877241155
 30
0.0
 11
32.7531126224
 21
-27.3328798369
 31
0.0
 11
32.9252051466
 21
-27.9877241155
 31
0.0
  0
SPLINE
  5
315
100
AcDbEntity
  8
0
100
AcDbSpline
 62
7
  6
CONTINUOUS
 70
0
 71
3
 72
9
 73
5
 74
3
 42
0.0000001
 43
0.0000001
 44
0.0000000001
 12
-0.1757311479
 22
0.6112302385
 32
0.0
 13
-0.1856723172
 23
0.6083272217
 33
0.0
 40
0.0
 40
0.0
 40
0.0
 40
0.0
 40
0.1938638544
 40
1.0
 40
1.0
 40
1.0
 40
1.0
 10
32.3778812968
 20
-28.1178825952
 30
0.0
 10
32.3665253242
 20
-28.0783841119
 30
0.0
 10
32.3069529743
 20
-27.8749694853
 30
0.0
 10
32.253088927
 20
-27.6694774428
 30
0.0
 10
32.2031965383
 20
-27.5060125888
 30
0.0
 11
32.3778812968
 21
-28.1178825952
 31
0.0
 11
32.3436420097
 21
-27.9994365488
 31
0.0
 11
32.2031965383
 21
-27.5060125888
 31
0.0
  0
SPLINE
  5
316
100
AcDbEntity
  8
0
100
AcDbSpline
 62
7
  6
CONTINUOUS
 70
0
 71
3
 72
8
 73
4
 74
2
 42
0.0000001
 43
0.0000001
 44
0.0000000001
 12
-0.1489086531
 22
0.3963217239
 32
0.0
 13
-0.4233281438
 23
0.0
 33
0.0
 40
0.0
 40
0.0
 40
0.0
 40
0.0
 40
1.0
 40
1.0
 40
1.0
 40
1.0
 10
32.1131681121
 20
-27.2384985172
 30
0.0
 10
32.0635318944
 20
-27.106391276
 30
0.0
 10
31.9166330892
 20
-26.983118481
 30
0.0
 10
31.7755237079
 20
-26.983118481
 30
0.0
 11
32.1131681121
 21
-27.2384985172
 31
0.0
 11
31.7755237079
 21
-26.983118481
 31
0.0
  0
SPLINE
  5
317
100
AcDbEntity
  8
0
100
AcDbSpline
 62
7
  6
CONTINUOUS
 70
0
 71
3
 72
8
 73
4
 74
2
 42
0.0000001
 43
0.0000001
 44
0.0000000001
 12
0.6881977261
 22
0.0913809778
 32
0.0
 13
0.6909056144
 23
-0.0173046142
 33
0.0
 40
0.0
 40
0.0
 40
0.0
 40
0.0
 40
1.0
 40
1.0
 40
1.0
 40
1.0
 10
31.0289243264
 20
-25.2266409869
 30
0.0
 10
31.2583235684
 20
-25.196180661
 30
0.0
 10
31.491616529
 20
-25.1738712676
 30
0.0
 10
31.7219184004
 20
-25.1796394723
 30
0.0
 11
31.0289243264
 21
-25.2266409869
 31
0.0
 11
31.7219184004
 21
-25.1796394723
 31
0.0
  0
SPLINE
  5
318
100
AcDbEntity
  8
0
100
AcDbSpline
 62
7
  6
CONTINUOUS
 70
0
 71
3
 72
9
 73
5
 74
3
 42
0.0000001
 43
0.0000001
 44
0.0000000001
 12
0.3147406331
 22
-0.0277874501
 32
0.0
 13
0.3068792866
 23
-0.0750731894
 33
0.0
 40
0.0
 40
0.0
 40
0.0
 40
0.0
 40
0.9679080932
 40
1.0
 40
1.0
 40
1.0
 40
1.0
 10
31.8848305725
 20
-25.1887162854
 30
0.0
 10
31.9863772412
 20
-25.197681518
 30
0.0
 10
32.0903480211
 20
-25.2136352663
 30
0.0
 10
32.1926997799
 20
-25.2383689509
 30
0.0
 10
32.1959825604
 20
-25.2391720315
 30
0.0
 11
31.8848305725
 21
-25.1887162854
 31
0.0
 11
32.1861287863
 21
-25.236790491
 31
0.0
 11
32.1959825604
 21
-25.2391720315
 31
0.0
  0
SPLINE
  5
319
100
AcDbEntity
  8
0
100
AcDbSpline
 62
7
  6
CONTINUOUS
 70
0
 71
3
 72
8
 73
4
 74
2
 42
0.0000001
 43
0.0000001
 44
0.0000000001
 12
0.1485500515
 22
-0.036340433
 32
0.0
 13
0.1437644403
 23
-0.0520324317
 33
0.0
 40
0.0
 40
0.0
 40
0.0
 40
0.0
 40
1.0
 40
1.0
 40
1.0
 40
1.0
 10
32.1959825604
 20
-25.2391720315
 30
0.0
 10
32.2454992443
 20
-25.2512855091
 30
0.0
 10
32.2945875956
 20
-25.2655216334
 30
0.0
 10
32.3425090757
 20
-25.2828657773
 30
0.0
 11
32.1959825604
 21
-25.2391720315
 31
0.0
 11
32.3425090757
 21
-25.2828657773
 31
0.0
  0
SPLINE
  5
31A
100
AcDbEntity
  8
0
100
AcDbSpline
 62
7
  6
CONTINUOUS
 70
0
 71
3
 72
13
 73
9
 74
7
 42
0.0000001
 43
0.0000001
 44
0.0000000001
 12
1.4660482726
 22
-0.5309882392
 32
0.0
 13
-1.0372403612
 23
-1.3156885242
 33
0.0
 40
0.0
 40
0.0
 40
0.0
 40
0.0
 40
0.2177548919
 40
0.3715474047
 40
0.5573849955
 40
0.7829349184
 40
0.9593342193
 40
1.0
 40
1.0
 40
1.0
 40
1.0
 10
32.342509103
 20
-25.2828657039
 30
0.0
 10
32.4489221641
 20
-25.3214074661
 30
0.0
 10
32.6101219806
 20
-25.44525303
 30
0.0
 10
32.7672311111
 20
-25.6927571733
 30
0.0
 10
32.8310197039
 20
-25.9841594998
 30
0.0
 10
32.7983407666
 20
-26.3010820761
 30
0.0
 10
32.6844168666
 20
-26.4949955911
 30
0.0
 10
32.6129678559
 20
-26.5934891416
 30
0.0
 10
32.5989077929
 20
-26.6113236419
 30
0.0
 11
32.342509103
 21
-25.2828657039
 31
0.0
 11
32.6184753381
 21
-25.4807035793
 31
0.0
 11
32.7464290321
 21
-25.683510293
 31
0.0
 11
32.8123954726
 21
-25.9656642791
 31
0.0
 11
32.7700683656
 21
-26.314791054
 31
0.0
 11
32.6391921164
 21
-26.5567040164
 31
0.0
 11
32.5989077929
 21
-26.6113236419
 31
0.0
  0
SPLINE
  5
31B
100
AcDbEntity
  8
0
100
AcDbSpline
 62
7
  6
CONTINUOUS
 70
0
 71
3
 72
9
 73
5
 74
3
 42
0.0000001
 43
0.0000001
 44
0.0000000001
 12
-0.1990308079
 22
-0.2524608179
 32
0.0
 13
-0.329407477
 23
0.0622808101
 33
0.0
 40
0.0
 40
0.0
 40
0.0
 40
0.0
 40
0.7989782788
 40
1.0
 40
1.0
 40
1.0
 40
1.0
 10
32.5989077929
 20
-26.6113236419
 30
0.0
 10
32.5459006954
 20
-26.6785605451
 30
0.0
 10
32.4675575199
 20
-26.7517266304
 30
0.0
 10
32.3634721341
 20
-26.7492918848
 30
0.0
 10
32.3413994481
 20
-26.7451186196
 30
0.0
 11
32.5989077929
 21
-26.6113236419
 31
0.0
 11
32.4042787451
 21
-26.7472157489
 31
0.0
 11
32.3413994481
 21
-26.7451186196
 31
0.0
  0
SPLINE
  5
31C
100
AcDbEntity
  8
0
100
AcDbSpline
 62
7
  6
CONTINUOUS
 70
0
 71
3
 72
9
 73
5
 74
3
 42
0.0000001
 43
0.0000001
 44
0.0000000001
 12
0.5038889497
 22
-0.0952698834
 32
0.0
 13
0.1972995122
 23
-0.4866893591
 33
0.0
 40
0.0
 40
0.0
 40
0.0
 40
0.0
 40
0.132237554
 40
1.0
 40
1.0
 40
1.0
 40
1.0
 10
32.3412205482
 20
-26.7460648336
 30
0.0
 10
32.3634315622
 20
-26.7502642524
 30
0.0
 10
32.5221654488
 20
-26.7969083346
 30
0.0
 10
32.6160515183
 20
-26.9436120982
 30
0.0
 10
32.6731212208
 20
-27.0843890144
 30
0.0
 11
32.3412205482
 21
-26.7460648336
 31
0.0
 11
32.4042787451
 21
-26.7643501717
 31
0.0
 11
32.6731212208
 21
-27.0843890144
 31
0.0
  0
SPLINE
  5
31D
100
AcDbEntity
  8
0
100
AcDbSpline
 62
7
  6
CONTINUOUS
 70
0
 71
3
 72
8
 73
4
 74
2
 42
0.0000001
 43
0.0000001
 44
0.0000000001
 12
0.0660563128
 22
-0.1629446733
 32
0.0
 13
0.048471662
 23
-0.164317329
 33
0.0
 40
0.0
 40
0.0
 40
0.0
 40
0.0
 40
1.0
 40
1.0
 40
1.0
 40
1.0
 10
32.6731212208
 20
-27.0843890144
 30
0.0
 10
32.6951399917
 20
-27.1387039055
 30
0.0
 10
32.7135264403
 20
-27.1950243582
 30
0.0
 10
32.7296836609
 20
-27.2497968012
 30
0.0
 11
32.6731212208
 21
-27.0843890144
 31
0.0
 11
32.7296836609
 21
-27.2497968012
 31
0.0
  0
SPLINE
  5
31E
100
AcDbEntity
  8
0
100
AcDbSpline
 62
7
  6
CONTINUOUS
 70
0
 71
3
 72
8
 73
4
 74
2
 42
0.0000001
 43
0.0000001
 44
0.0000000001
 12
0.0250175686
 22
-0.0848087292
 32
0.0
 13
0.0220332686
 23
-0.0808687605
 33
0.0
 40
0.0
 40
0.0
 40
0.0
 40
0.0
 40
1.0
 40
1.0
 40
1.0
 40
1.0
 10
32.7296836609
 20
-27.2497968012
 30
0.0
 10
32.7380228505
 20
-27.2780663776
 30
0.0
 10
32.7457682009
 20
-27.3059235831
 30
0.0
 10
32.7531126237
 20
-27.3328798366
 30
0.0
 11
32.7296836609
 21
-27.2497968012
 31
0.0
 11
32.7531126237
 21
-27.3328798366
 31
0.0
  0
SPLINE
  5
31F
100
AcDbEntity
  8
0
100
AcDbSpline
 62
7
  6
CONTINUOUS
 70
0
 71
3
 72
8
 73
4
 74
2
 42
0.0000001
 43
0.0000001
 44
0.0000000001
 12
-0.0009438995
 22
0.0699228512
 32
0.0
 13
-0.0194345535
 23
0.0669293959
 33
0.0
 40
0.0
 40
0.0
 40
0.0
 40
0.0
 40
1.0
 40
1.0
 40
1.0
 40
1.0
 10
32.2470106603
 20
-26.0581456076
 30
0.0
 10
32.2466960271
 20
-26.0348379905
 30
0.0
 10
32.2430635144
 20
-26.0119252347
 30
0.0
 10
32.2365853299
 20
-25.9896154361
 30
0.0
 11
32.2470106603
 21
-26.0581456076
 31
0.0
 11
32.2365853299
 21
-25.9896154361
 31
0.0
  0
SPLINE
  5
320
100
AcDbEntity
  8
0
100
AcDbSpline
 62
7
  6
CONTINUOUS
 70
0
 71
3
 72
9
 73
5
 74
3
 42
0.0000001
 43
0.0000001
 44
0.0000000001
 12
-0.1473850719
 22
0.5075698704
 32
0.0
 13
-0.5340869397
 23
0.0522130847
 33
0.0
 40
0.0
 40
0.0
 40
0.0
 40
0.0
 40
0.8089325656
 40
1.0
 40
1.0
 40
1.0
 40
1.0
 10
32.2365853299
 20
-25.9896154361
 30
0.0
 10
32.1968438017
 20
-25.8527521703
 30
0.0
 10
32.015325506
 20
-25.7116137465
 30
0.0
 10
31.8367499769
 20
-25.6785722002
 30
0.0
 10
31.8027344364
 20
-25.6752467935
 30
0.0
 11
32.2365853299
 21
-25.9896154361
 31
0.0
 11
31.9050973442
 21
-25.6951447944
 31
0.0
 11
31.8027344364
 21
-25.6752467935
 31
0.0
  0
SPLINE
  5
321
100
AcDbEntity
  8
0
100
AcDbSpline
 62
7
  6
CONTINUOUS
 70
0
 71
3
 72
8
 73
4
 74
2
 42
0.0000001
 43
0.0000001
 44
0.0000000001
 12
-0.2771216081
 22
0.0270917952
 32
0.0
 13
-0.2726813063
 23
-0.0475226229
 33
0.0
 40
0.0
 40
0.0
 40
0.0
 40
0.0
 40
1.0
 40
1.0
 40
1.0
 40
1.0
 10
31.8027344364
 20
-25.6752467935
 30
0.0
 10
31.710360567
 20
-25.6662161951
 30
0.0
 10
31.6187568197
 20
-25.6792193641
 30
0.0
 10
31.5278630509
 20
-25.6950602384
 30
0.0
 11
31.8027344364
 21
-25.6752467935
 31
0.0
 11
31.5278630509
 21
-25.6950602384
 31
0.0
  0
LINE
  5
322
100
AcDbEntity
  8
0
100
AcDbLine
 62
7
  6
CONTINUOUS
 10
31.5278630509
 20
-25.6950602384
 11
31.4309217633
 21
-25.7122139846
  0
SPLINE
  5
323
100
AcDbEntity
  8
0
100
AcDbSpline
 62
7
  6
CONTINUOUS
 70
0
 71
3
 72
8
 73
4
 74
2
 42
0.0000001
 43
0.0000001
 44
0.0000000001
 12
0.2465259641
 22
0.005506337
 32
0.0
 13
0.2317350478
 23
0.1597201857
 33
0.0
 40
0.0
 40
0.0
 40
0.0
 40
0.0
 40
1.0
 40
1.0
 40
1.0
 40
1.0
 10
31.7768283594
 20
-26.5082253418
 30
0.0
 10
31.8590036807
 20
-26.5063898961
 30
0.0
 10
31.9468385342
 20
-26.4724596021
 30
0.0
 10
32.0240835502
 20
-26.4192195402
 30
0.0
 11
31.7768283594
 21
-26.5082253418
 31
0.0
 11
32.0240835502
 21
-26.4192195402
 31
0.0
  0
SPLINE
  5
324
100
AcDbEntity
  8
0
100
AcDbSpline
 62
7
  6
CONTINUOUS
 70
0
 71
3
 72
8
 73
4
 74
2
 42
0.0000001
 43
0.0000001
 44
0.0000000001
 12
0.2561944177
 22
0.176578469
 32
0.0
 13
0.1126639922
 23
0.2663579995
 33
0.0
 40
0.0
 40
0.0
 40
0.0
 40
0.0
 40
1.0
 40
1.0
 40
1.0
 40
1.0
 10
32.0240835502
 20
-26.4192195402
 30
0.0
 10
32.1094816894
 20
-26.3603600505
 30
0.0
 10
32.1819365238
 20
-26.2778994233
 30
0.0
 10
32.2194911879
 20
-26.1891134235
 30
0.0
 11
32.0240835502
 21
-26.4192195402
 31
0.0
 11
32.2194911879
 21
-26.1891134235
 31
0.0
  0
SPLINE
  5
325
100
AcDbEntity
  8
0
100
AcDbSpline
 62
7
  6
CONTINUOUS
 70
0
 71
3
 72
8
 73
4
 74
2
 42
0.0000001
 43
0.0000001
 44
0.0000000001
 12
0.0543491725
 22
0.1284912472
 32
0.0
 13
-0.0017752067
 23
0.1315050131
 33
0.0
 40
0.0
 40
0.0
 40
0.0
 40
0.0
 40
1.0
 40
1.0
 40
1.0
 40
1.0
 10
32.2194911879
 20
-26.1891134235
 30
0.0
 10
32.2376075787
 20
-26.1462830077
 30
0.0
 10
32.2476023406
 20
-26.1019806127
 30
0.0
 10
32.247010605
 20
-26.0581456083
 30
0.0
 11
32.2194911879
 21
-26.1891134235
 31
0.0
 11
32.247010605
 21
-26.0581456083
 31
0.0
  0
SPLINE
  5
326
100
AcDbEntity
  8
RACCORDO
100
AcDbSpline
 62
253
  6
CONTINUOUS
 70
0
 71
3
 72
36
 73
32
 74
30
 42
0.0000001
 43
0.0000001
 44
0.0000000001
 12
0.0614847051
 22
-32.7499142864
 32
0.0
 13
-0.0000002111
 23
-32.749972002
 33
0.0
 40
0.0
 40
0.0
 40
0.0
 40
0.0
 40
0.0096282282
 40
0.0195457471
 40
0.0299887229
 40
0.0412045318
 40
0.0534756237
 40
0.0670415485
 40
0.0819598006
 40
0.0982124141
 40
0.1158146432
 40
0.1348375678
 40
0.155347155
 40
0.1774445286
 40
0.2013196744
 40
0.2271488939
 40
0.2550554385
 40
0.2852027645
 40
0.3178661269
 40
0.3533240201
 40
0.3918227215
 40
0.4335473707
 40
0.4786825349
 40
0.5274361932
 40
0.5800466215
 40
0.6368968221
 40
0.6984467755
 40
0.7651978144
 40
0.8372976161
 40
0.9150837751
 40
1.0
 40
1.0
 40
1.0
 40
1.0
 10
-39.0576321772
 20
45.3193865605
 30
0.0
 10
-39.0574348476
 20
45.2142786778
 30
0.0
 10
-39.0570775817
 20
45.0009047472
 30
0.0
 10
-39.056652788
 20
44.6735284044
 30
0.0
 10
-39.0563220945
 20
44.3288208707
 30
0.0
 10
-39.0560791658
 20
43.9584201088
 30
0.0
 10
-39.0559080405
 20
43.5539271428
 30
0.0
 10
-39.0557616442
 20
43.1090158625
 30
0.0
 10
-39.0556061924
 20
42.6206396767
 30
0.0
 10
-39.0554076776
 20
42.0882005508
 30
0.0
 10
-39.0551480107
 20
41.5109521442
 30
0.0
 10
-39.0548561003
 20
40.8872318242
 30
0.0
 10
-39.054563642
 20
40.2144395476
 30
0.0
 10
-39.0543211147
 20
39.4886772107
 30
0.0
 10
-39.0541342743
 20
38.7048422522
 30
0.0
 10
-39.0540078783
 20
37.8575905517
 30
0.0
 10
-39.0539391721
 20
36.9418676026
 30
0.0
 10
-39.0539164763
 20
35.9515386557
 30
0.0
 10
-39.0539151722
 20
34.878774223
 30
0.0
 10
-39.0539264894
 20
33.7148406879
 30
0.0
 10
-39.0539353516
 20
32.4519881899
 30
0.0
 10
-39.0539354171
 20
31.0834922406
 30
0.0
 10
-39.0539156338
 20
29.6030464401
 30
0.0
 10
-39.0538596281
 20
28.0037643204
 30
0.0
 10
-39.0537693446
 20
26.2765931643
 30
0.0
 10
-39.05365269
 20
24.4097292397
 30
0.0
 10
-39.0535201208
 20
22.3884971156
 30
0.0
 10
-39.0533899783
 20
20.200790321
 30
0.0
 10
-39.0532819562
 20
17.8358384336
 30
0.0
 10
-39.0532048681
 20
15.2725834333
 30
0.0
 10
-39.0531849301
 20
13.4964172612
 30
0.0
 10
-39.0531849361
 20
12.5694159316
 30
0.0
 11
-39.0576321772
 21
45.3193865605
 31
0.0
 11
-39.0571023785
 21
45.0040628018
 31
0.0
 11
-39.0566780678
 21
44.679264613
 31
0.0
 11
-39.0563468703
 21
44.3372576075
 31
0.0
 11
-39.0561003324
 21
43.9699402632
 31
0.0
 11
-39.0559200021
 21
43.5680623858
 31
0.0
 11
-39.0557672595
 21
43.1237787558
 31
0.0
 11
-39.0556065783
 21
42.6352064428
 31
0.0
 11
-39.0554066126
 21
42.1029338446
 31
0.0
 11
-39.0551533084
 21
41.5264613884
 31
0.0
 11
-39.0548670257
 21
40.9034612074
 31
0.0
 11
-39.0545820108
 21
40.2317728613
 31
0.0
 11
-39.0543387083
 21
39.5080845367
 31
0.0
 11
-39.0541505244
 21
38.7261742032
 31
0.0
 11
-39.0540213118
 21
37.8802679957
 31
0.0
 11
-39.0539486389
 21
36.9663294455
 31
0.0
 11
-39.0539205338
 21
35.9790053631
 31
0.0
 11
-39.0539170795
 21
34.9092811582
 31
0.0
 11
-39.0539256645
 21
33.7480361478
 31
0.0
 11
-39.0539336987
 21
32.4872047577
 31
0.0
 11
-39.0539324809
 21
31.1207236642
 31
0.0
 11
-39.053911032
 21
29.6425482999
 31
0.0
 11
-39.0538566859
 21
28.0458673572
 31
0.0
 11
-39.0537689444
 21
26.3228773058
 31
0.0
 11
-39.0536549717
 21
24.4610348316
 31
0.0
 11
-39.0535258111
 21
22.4452755822
 31
0.0
 11
-39.0533982903
 21
20.2591809317
 31
0.0
 11
-39.0532906987
 21
17.8979144466
 31
0.0
 11
-39.0532148612
 21
15.3504199202
 31
0.0
 11
-39.0531849361
 21
12.5694159316
 31
0.0
  0
SPLINE
  5
327
100
AcDbEntity
  8
RACCORDO
100
AcDbSpline
 62
253
  6
CONTINUOUS
 70
0
 71
3
 72
41
 73
37
 74
35
 42
0.0000001
 43
0.0000001
 44
0.0000000001
 12
32.7870431088
 22
0.000001189
 32
0.0
 13
32.7753338715
 23
0.8761766006
 33
0.0
 40
0.0
 40
0.0
 40
0.0
 40
0.0
 40
0.083246028
 40
0.1597027367
 40
0.2299229769
 40
0.294403161
 40
0.3536069641
 40
0.4080117715
 40
0.4580805316
 40
0.5042371167
 40
0.5467618931
 40
0.5859180181
 40
0.6219415174
 40
0.6550365774
 40
0.685398326
 40
0.7132228087
 40
0.7387489905
 40
0.7622255421
 40
0.783901618
 40
0.8040368095
 40
0.8228280264
 40
0.8402788733
 40
0.8563437015
 40
0.8709768003
 40
0.8842761509
 40
0.8964413415
 40
0.9076834806
 40
0.9182022589
 40
0.9281926222
 40
0.9378930152
 40
0.9475919322
 40
0.9576665535
 40
0.9682331644
 40
0.9789701042
 40
0.9895958913
 40
1.0
 40
1.0
 40
1.0
 40
1.0
 10
19.9615837412
 20
-45.6818579219
 30
0.0
 10
20.8713807774
 20
-45.681857889
 30
0.0
 10
22.6167742866
 20
-45.6813013111
 30
0.0
 10
25.1296052327
 20
-45.679581537
 30
0.0
 10
27.4373437057
 20
-45.6775725321
 30
0.0
 10
29.5565248957
 20
-45.6756229892
 30
0.0
 10
31.5028589657
 20
-45.6737223119
 30
0.0
 10
33.2916902605
 20
-45.6717916177
 30
0.0
 10
34.9379283271
 20
-45.6699446654
 30
0.0
 10
36.4543294831
 20
-45.6682765588
 30
0.0
 10
37.8514664425
 20
-45.6668101566
 30
0.0
 10
39.1378589425
 20
-45.6655809491
 30
0.0
 10
40.3211941357
 20
-45.664611463
 30
0.0
 10
41.4084156673
 20
-45.6639799127
 30
0.0
 10
42.4060300367
 20
-45.6633752519
 30
0.0
 10
43.3209237472
 20
-45.662420041
 30
0.0
 10
44.1605683804
 20
-45.6609989093
 30
0.0
 10
44.9330157108
 20
-45.6590465755
 30
0.0
 10
45.6465433347
 20
-45.6566479383
 30
0.0
 10
46.3088617178
 20
-45.6535532907
 30
0.0
 10
46.9249990616
 20
-45.6499356335
 30
0.0
 10
47.4966481387
 20
-45.6459654796
 30
0.0
 10
48.0228511677
 20
-45.6419099146
 30
0.0
 10
48.5036830913
 20
-45.638116804
 30
0.0
 10
48.9418957888
 20
-45.6344916683
 30
0.0
 10
49.3430488153
 20
-45.6310431006
 30
0.0
 10
49.7138125391
 20
-45.6276857457
 30
0.0
 10
50.0608085886
 20
-45.6245508224
 30
0.0
 10
50.390959981
 20
-45.622068333
 30
0.0
 10
50.7121515874
 20
-45.6198272043
 30
0.0
 10
51.0342704938
 20
-45.6180113367
 30
0.0
 10
51.3658145541
 20
-45.6121985881
 30
0.0
 10
51.7086397991
 20
-45.6035732947
 30
0.0
 10
52.057446641
 20
-45.5933551405
 30
0.0
 10
52.4044893254
 20
-45.5835842931
 30
0.0
 10
52.634240102
 20
-45.5773228075
 30
0.0
 10
52.7479061469
 20
-45.5742841953
 30
0.0
 11
19.9615837412
 21
-45.6818579219
 31
0.0
 11
22.6909747459
 21
-45.6811043099
 31
0.0
 11
25.1977636059
 21
-45.6794538079
 31
0.0
 11
27.5000768185
 21
-45.6774981564
 31
0.0
 11
29.6141904974
 21
-45.675549149
 31
0.0
 11
31.5553071969
 21
-45.673636444
 31
0.0
 11
33.3390789415
 21
-45.6717272748
 31
0.0
 11
34.9806845239
 21
-45.669902926
 31
0.0
 11
36.4940215628
 21
-45.6682461459
 31
0.0
 11
37.8882824851
 21
-45.6667942669
 31
0.0
 11
39.1720954675
 21
-45.6655786056
 31
0.0
 11
40.3531991124
 21
-45.664634159
 31
0.0
 11
41.4382880607
 21
-45.6639578025
 31
0.0
 11
42.4337597912
 21
-45.6632826133
 31
0.0
 11
43.3460417661
 21
-45.6622909705
 31
0.0
 11
44.1829685319
 21
-45.6608396632
 31
0.0
 11
44.952692761
 21
-45.6588855587
 31
0.0
 11
45.6633829551
 21
-45.6564303475
 31
0.0
 11
46.323549151
 21
-45.65334818
 31
0.0
 11
46.9396469964
 21
-45.6497353135
 31
0.0
 11
47.5117950263
 21
-45.6457846024
 31
0.0
 11
48.0384979637
 21
-45.6417726531
 31
0.0
 11
48.5182589322
 21
-45.6379696575
 31
0.0
 11
48.9542904102
 21
-45.634364532
 31
0.0
 11
49.353136203
 21
-45.6309246956
 31
0.0
 11
49.7217178494
 21
-45.62761548
 31
0.0
 11
50.0665841971
 21
-45.6245879791
 31
0.0
 11
50.3941290269
 21
-45.6220745117
 31
0.0
 11
50.7121687818
 21
-45.6198981349
 31
0.0
 11
51.0301579058
 21
-45.6174161429
 31
0.0
 11
51.3604286068
 21
-45.6118832599
 31
0.0
 11
51.7067722516
 21
-45.6033835228
 31
0.0
 11
52.0586627919
 21
-45.5933867211
 31
0.0
 11
52.406912569
 21
-45.5835689285
 31
0.0
 11
52.7479061469
 21
-45.5742841953
 31
0.0
  0
LINE
  5
328
100
AcDbEntity
  8
RACCORDO
100
AcDbLine
 62
253
  6
CONTINUOUS
 10
19.9615837412
 20
-25.1068379718
 11
22.8247152796
 21
-25.1068196368
  0
LINE
  5
329
100
AcDbEntity
  8
RACCORDO
100
AcDbLine
 62
253
  6
CONTINUOUS
 10
22.8247152796
 20
-25.1068196368
 11
23.4017537046
 21
-25.1067792693
  0
LINE
  5
32A
100
AcDbEntity
  8
RACCORDO
100
AcDbLine
 62
253
  6
CONTINUOUS
 10
23.4017537046
 20
-25.1067792693
 11
24.0108812375
 21
-25.1066679152
  0
LINE
  5
32B
100
AcDbEntity
  8
RACCORDO
100
AcDbLine
 62
253
  6
CONTINUOUS
 10
24.0108812375
 20
-25.1066679152
 11
24.6547244067
 21
-25.1064514664
  0
LINE
  5
32C
100
AcDbEntity
  8
RACCORDO
100
AcDbLine
 62
253
  6
CONTINUOUS
 10
24.6547244067
 20
-25.1064514664
 11
24.9918351446
 21
-25.1063055114
  0
LINE
  5
32D
100
AcDbEntity
  8
RACCORDO
100
AcDbLine
 62
253
  6
CONTINUOUS
 10
24.9918351446
 20
-25.1063055114
 11
25.3394821932
 21
-25.1061566277
  0
LINE
  5
32E
100
AcDbEntity
  8
RACCORDO
100
AcDbLine
 62
253
  6
CONTINUOUS
 10
25.3394821932
 20
-25.1061566277
 11
26.0491131307
 21
-25.1059739889
  0
LINE
  5
32F
100
AcDbEntity
  8
RACCORDO
100
AcDbLine
 62
253
  6
CONTINUOUS
 10
26.0491131307
 20
-25.1059739889
 11
26.4157135251
 21
-25.1059966668
  0
LINE
  5
330
100
AcDbEntity
  8
RACCORDO
100
AcDbLine
 62
253
  6
CONTINUOUS
 10
26.4157135251
 20
-25.1059966668
 11
26.778513448
 21
-25.1061277678
  0
LINE
  5
331
100
AcDbEntity
  8
RACCORDO
100
AcDbLine
 62
253
  6
CONTINUOUS
 10
26.778513448
 20
-25.1061277678
 11
27.1343584683
 21
-25.1063792336
  0
LINE
  5
332
100
AcDbEntity
  8
RACCORDO
100
AcDbLine
 62
253
  6
CONTINUOUS
 10
27.1343584683
 20
-25.1063792336
 11
27.829952585
 21
-25.1072282083
  0
LINE
  5
333
100
AcDbEntity
  8
RACCORDO
100
AcDbLine
 62
253
  6
CONTINUOUS
 10
27.829952585
 20
-25.1072282083
 11
28.1603478125
 21
-25.1077977745
  0
LINE
  5
334
100
AcDbEntity
  8
RACCORDO
100
AcDbLine
 62
253
  6
CONTINUOUS
 10
28.1603478125
 20
-25.1077977745
 11
28.4796071825
 21
-25.1084634502
  0
LINE
  5
335
100
AcDbEntity
  8
RACCORDO
100
AcDbLine
 62
253
  6
CONTINUOUS
 10
30.1964109598
 20
-25.1152302294
 11
30.4451076015
 21
-25.1168522563
  0
SPLINE
  5
336
100
AcDbEntity
  8
RACCORDO
100
AcDbSpline
 62
253
  6
CONTINUOUS
 70
0
 71
3
 72
18
 73
14
 74
12
 42
0.0000001
 43
0.0000001
 44
0.0000000001
 12
3.6276639357
 22
1.8275751361
 32
0.0
 13
0.0060040348
 23
4.060087109
 33
0.0
 40
0.0
 40
0.0
 40
0.0
 40
0.0
 40
0.0637945603
 40
0.1548598448
 40
0.2452472036
 40
0.3396925078
 40
0.4303014229
 40
0.5178249061
 40
0.607445338
 40
0.7016442799
 40
0.8037721258
 40
0.9023837951
 40
1.0
 40
1.0
 40
1.0
 40
1.0
 10
32.1196517693
 20
-24.7257890186
 30
0.0
 10
32.1967935112
 20
-24.6869259012
 30
0.0
 10
32.3807018856
 20
-24.5859325009
 30
0.0
 10
32.6572735114
 20
-24.401361314
 30
0.0
 10
32.9453686912
 20
-24.1629241082
 30
0.0
 10
33.207651531
 20
-23.8967990653
 30
0.0
 10
33.4336197547
 20
-23.6044410317
 30
0.0
 10
33.6327563016
 20
-23.3012574738
 30
0.0
 10
33.8039571266
 20
-22.9756084861
 30
0.0
 10
33.9468558782
 20
-22.615189831
 30
0.0
 10
34.0532318912
 20
-22.2295828423
 30
0.0
 10
34.1176987841
 20
-21.8302494022
 30
0.0
 10
34.1322234516
 20
-21.5644964257
 30
0.0
 10
34.1324188153
 20
-21.4323863273
 30
0.0
 11
32.1196517693
 21
-24.7257890186
 31
0.0
 11
32.3467427699
 21
-24.6010779947
 31
0.0
 11
32.6542210828
 21
-24.3957493112
 31
0.0
 11
32.9370655875
 21
-24.1619245802
 31
0.0
 11
33.205365144
 21
-23.8879641857
 31
0.0
 11
33.4322474737
 21
-23.5983774739
 31
0.0
 11
33.6263191177
 21
-23.300699454
 31
0.0
 11
33.7953356598
 21
-22.9784686092
 31
0.0
 11
33.9366080802
 21
-22.6230604693
 31
0.0
 11
34.0469870034
 21
-22.2233733514
 31
0.0
 11
34.1108742284
 21
-21.8281310394
 31
0.0
 11
34.1324188153
 21
-21.4323863273
 31
0.0
  0
SPLINE
  5
337
100
AcDbEntity
  8
RACCORDO
100
AcDbSpline
 62
253
  6
CONTINUOUS
 70
0
 71
3
 72
17
 73
13
 74
11
 42
0.0000001
 43
0.0000001
 44
0.0000000001
 12
0.0155880126
 22
10.5018056047
 32
0.0
 13
0.000000438
 23
10.5018171735
 33
0.0
 40
0.0
 40
0.0
 40
0.0
 40
0.0
 40
0.0671414842
 40
0.1406004468
 40
0.2203850094
 40
0.3065683069
 40
0.3998482133
 40
0.5013341352
 40
0.6116837248
 40
0.7313879252
 40
0.8603570904
 40
1.0
 40
1.0
 40
1.0
 40
1.0
 10
34.1324188153
 20
-21.4323863273
 30
0.0
 10
34.1327676827
 20
-21.1973507223
 30
0.0
 10
34.134551653
 20
-20.7051665638
 30
0.0
 10
34.1379000605
 20
-19.9336930893
 30
0.0
 10
34.1403842845
 20
-19.0955570895
 30
0.0
 10
34.1407994222
 20
-18.1880323891
 30
0.0
 10
34.1402205406
 20
-17.2045403815
 30
0.0
 10
34.1386249935
 20
-16.1364527407
 30
0.0
 10
34.1371318187
 20
-14.9758638007
 30
0.0
 10
34.1368627943
 20
-13.7190658011
 30
0.0
 10
34.1373935311
 20
-12.3597237493
 30
0.0
 10
34.137837386
 20
-11.4194188383
 30
0.0
 10
34.1378374064
 20
-10.9305840696
 30
0.0
 11
34.1324188153
 21
-21.4323863273
 31
0.0
 11
34.1345518186
 21
-20.7272819619
 31
0.0
 11
34.1376343043
 21
-19.955835525
 31
0.0
 11
34.1399813575
 21
-19.1179559224
 31
0.0
 11
34.1406365064
 21
-18.2128749258
 31
0.0
 11
34.1400958796
 21
-17.2332665518
 31
0.0
 11
34.1387066213
 21
-16.1674808605
 31
0.0
 11
34.1373726765
 21
-15.0086104132
 31
0.0
 11
34.1369916703
 21
-13.7514988435
 31
0.0
 11
34.1373966299
 21
-12.3970883093
 31
0.0
 11
34.1378374064
 21
-10.9305840696
 31
0.0
  0
SPLINE
  5
338
100
AcDbEntity
  8
RACCORDO
100
AcDbSpline
 62
253
  6
CONTINUOUS
 70
0
 71
3
 72
16
 73
12
 74
10
 42
0.0000001
 43
0.0000001
 44
0.0000000001
 12
-0.0769688902
 22
2.8885633292
 32
0.0
 13
-2.8885578585
 23
0.0771739277
 33
0.0
 40
0.0
 40
0.0
 40
0.0
 40
0.0
 40
0.1123186649
 40
0.2159174954
 40
0.315630664
 40
0.4145399157
 40
0.5153576303
 40
0.6211405473
 40
0.7358861133
 40
0.8621012955
 40
1.0
 40
1.0
 40
1.0
 40
1.0
 10
54.6060605161
 20
45.3547767281
 30
0.0
 10
54.6031788351
 20
45.4629232537
 30
0.0
 10
54.5787355647
 20
45.6707671224
 30
0.0
 10
54.4935793669
 20
45.9637987734
 30
0.0
 10
54.3706532606
 20
46.2288758269
 30
0.0
 10
54.2112109586
 20
46.4704812795
 30
0.0
 10
54.0136600671
 20
46.6900731497
 30
0.0
 10
53.772802344
 20
46.8865034439
 30
0.0
 10
53.4812558548
 20
47.0528738819
 30
0.0
 10
53.1350094981
 20
47.1743916098
 30
0.0
 10
52.8806822758
 20
47.2095686612
 30
0.0
 10
52.7479061469
 20
47.213116056
 30
0.0
 11
54.6060605161
 21
45.3547767281
 31
0.0
 11
54.5685992612
 21
45.6771622583
 31
0.0
 11
54.4853017766
 21
45.9646978931
 31
0.0
 11
54.3640326372
 21
46.2260649023
 31
0.0
 11
54.2066354198
 21
46.4646268103
 31
0.0
 11
54.0118082702
 21
46.6812156514
 31
0.0
 11
53.7748880967
 21
46.8743540403
 31
0.0
 11
53.4869050629
 21
47.0386792243
 31
0.0
 11
53.1427301314
 21
47.1593314766
 31
0.0
 11
52.7479061469
 21
47.213116056
 31
0.0
  0
SPLINE
  5
339
100
AcDbEntity
  8
RACCORDO
100
AcDbSpline
 62
253
  6
CONTINUOUS
 70
0
 71
3
 72
34
 73
30
 74
28
 42
0.0000001
 43
0.0000001
 44
0.0000000001
 12
-0.0000006833
 22
32.7860637693
 32
0.0
 13
-0.8717149212
 23
32.7744731549
 33
0.0
 40
0.0
 40
0.0
 40
0.0
 40
0.0
 40
0.0965417886
 40
0.1843269448
 40
0.2638092202
 40
0.3355379109
 40
0.4002905577
 40
0.4589591063
 40
0.512352145
 40
0.561014962
 40
0.6054408211
 40
0.6461010075
 40
0.6834577443
 40
0.7179157201
 40
0.7496193417
 40
0.7786903929
 40
0.8054247628
 40
0.8301009515
 40
0.8528217412
 40
0.8736853508
 40
0.8928549655
 40
0.9104302095
 40
0.9264493017
 40
0.9410180003
 40
0.9543432116
 40
0.9667035947
 40
0.97832265
 40
0.9893742235
 40
1.0
 40
1.0
 40
1.0
 40
1.0
 10
54.7128575992
 20
12.5694159304
 30
0.0
 10
54.7128575772
 20
13.6244910093
 30
0.0
 10
54.7122801717
 20
15.6389426914
 30
0.0
 10
54.7101789433
 20
18.5220306309
 30
0.0
 10
54.7073091241
 20
21.1339431431
 30
0.0
 10
54.7040547964
 20
23.4941398334
 30
0.0
 10
54.701157051
 20
25.6268700695
 30
0.0
 10
54.6989227633
 20
27.5592163866
 30
0.0
 10
54.6975267156
 20
29.3157227469
 30
0.0
 10
54.6969995788
 20
30.9165756508
 30
0.0
 10
54.6969722065
 20
32.3782752471
 30
0.0
 10
54.6972688884
 20
33.7164141699
 30
0.0
 10
54.6976291042
 20
34.9456172081
 30
0.0
 10
54.6971094957
 20
36.0769368422
 30
0.0
 10
54.6954343091
 20
37.1177036642
 30
0.0
 10
54.6925511834
 20
38.074058744
 30
0.0
 10
54.6884149755
 20
38.9536078038
 30
0.0
 10
54.6832905655
 20
39.763750404
 30
0.0
 10
54.6773175325
 20
40.50972527
 30
0.0
 10
54.6719795971
 20
41.1955235079
 30
0.0
 10
54.6669052966
 20
41.825088049
 30
0.0
 10
54.662174375
 20
42.4017093722
 30
0.0
 10
54.6568040307
 20
42.9280417135
 30
0.0
 10
54.650168853
 20
43.4079078941
 30
0.0
 10
54.6428124165
 20
43.8477747774
 30
0.0
 10
54.6336534043
 20
44.2553638896
 30
0.0
 10
54.6246648146
 20
44.638101242
 30
0.0
 10
54.6154388862
 20
45.0018705363
 30
0.0
 10
54.6091480654
 20
45.2386919862
 30
0.0
 10
54.6060605161
 20
45.3547767281
 30
0.0
 11
54.7128575992
 21
12.5694159304
 31
0.0
 11
54.7120083934
 21
15.7346410534
 31
0.0
 11
54.7099265516
 21
18.6127700317
 31
0.0
 11
54.7070881326
 21
21.2186794339
 31
0.0
 11
54.7039579707
 21
23.5703787786
 31
0.0
 11
54.7011418719
 21
25.6933613182
 31
0.0
 11
54.6989774371
 21
27.6168708741
 31
0.0
 11
54.6976277376
 21
29.367417928
 31
0.0
 11
54.6970706709
 21
30.9628800513
 31
0.0
 11
54.6970323875
 21
32.4194290993
 31
0.0
 11
54.6972934134
 21
33.7525165387
 31
0.0
 11
54.6974786132
 21
34.9772968798
 31
0.0
 11
54.6968700684
 21
36.1070381065
 31
0.0
 11
54.6951340341
 21
37.1464736185
 31
0.0
 11
54.6921948394
 21
38.0995944225
 31
0.0
 11
54.6880626706
 21
38.9760994415
 31
0.0
 11
54.6829193011
 21
39.7851181873
 31
0.0
 11
54.6771839487
 21
40.5300213684
 31
0.0
 11
54.6718026527
 21
41.2140358352
 31
0.0
 11
54.6667490647
 21
41.8425117281
 31
0.0
 11
54.6618340222
 21
42.4187138343
 31
0.0
 11
54.6563101326
 21
42.9438877654
 31
0.0
 11
54.6497401303
 21
43.4214928577
 31
0.0
 11
54.6422021725
 21
43.8583090506
 31
0.0
 11
54.6334008631
 21
44.2634617741
 31
0.0
 11
54.6243971561
 21
44.6442984436
 31
0.0
 11
54.6152469951
 21
45.0065204849
 31
0.0
 11
54.6060605161
 21
45.3547767281
 31
0.0
  0
SPLINE
  5
33A
100
AcDbEntity
  8
RACCORDO
100
AcDbSpline
 62
253
  6
CONTINUOUS
 70
0
 71
3
 72
11
 73
7
 74
5
 42
0.0000001
 43
0.0000001
 44
0.0000000001
 12
0.0001306673
 22
10.5018157873
 32
0.0
 13
-0.0121720438
 23
10.5018087342
 33
0.0
 40
0.0
 40
0.0
 40
0.0
 40
0.0
 40
0.284493719
 40
0.5449342606
 40
0.7825155838
 40
1.0
 40
1.0
 40
1.0
 40
1.0
 10
34.1378373968
 20
12.5694159304
 30
0.0
 10
34.1378497881
 20
13.5653161402
 30
0.0
 10
34.1360005565
 20
15.4729167837
 30
0.0
 10
34.1390086766
 20
18.2121906566
 30
0.0
 10
34.1434012097
 20
20.7169040461
 30
0.0
 10
34.1333018843
 20
22.3098912656
 30
0.0
 10
34.1324194743
 20
23.0712178463
 30
0.0
 11
34.1378373968
 21
12.5694159304
 31
0.0
 11
34.13699391
 21
15.5571164411
 31
0.0
 11
34.1394091092
 21
18.2922139663
 31
0.0
 11
34.140010355
 21
20.7872491845
 31
0.0
 11
34.1324194743
 21
23.0712178463
 31
0.0
  0
SPLINE
  5
33B
100
AcDbEntity
  8
RACCORDO
100
AcDbSpline
 62
253
  6
CONTINUOUS
 70
0
 71
3
 72
21
 73
17
 74
15
 42
0.0000001
 43
0.0000001
 44
0.0000000001
 12
-0.0083618151
 22
5.7944889889
 32
0.0
 13
-5.7943592651
 23
-0.0396644586
 33
0.0
 40
0.0
 40
0.0
 40
0.0
 40
0.0
 40
0.0817982149
 40
0.1558284706
 40
0.2228739742
 40
0.2860912276
 40
0.3506047748
 40
0.4142860411
 40
0.4794932971
 40
0.5454335621
 40
0.6091820575
 40
0.6741556859
 40
0.7444409389
 40
0.8218554964
 40
0.9068906886
 40
1.0
 40
1.0
 40
1.0
 40
1.0
 10
34.1324194743
 20
23.0712178463
 30
0.0
 10
34.1321914805
 20
23.2292107981
 30
0.0
 10
34.1125689907
 20
23.5305065259
 30
0.0
 10
34.0335023137
 20
23.9545781871
 30
0.0
 10
33.9185781121
 20
24.3327896592
 30
0.0
 10
33.7732273413
 20
24.6805808418
 30
0.0
 10
33.5929579834
 20
25.0040619384
 30
0.0
 10
33.3846479601
 20
25.3146886229
 30
0.0
 10
33.1438724949
 20
25.6048684413
 30
0.0
 10
32.8727940583
 20
25.8671483102
 30
0.0
 10
32.5759567331
 20
26.0989814217
 30
0.0
 10
32.2498721634
 20
26.3037811517
 30
0.0
 10
31.8797167807
 20
26.4838576958
 30
0.0
 10
31.4541900637
 20
26.6322816344
 30
0.0
 10
30.9697664467
 20
26.734161121
 30
0.0
 10
30.6249439164
 20
26.7569158046
 30
0.0
 10
30.4451076494
 20
26.7556847611
 30
0.0
 11
34.1324194743
 21
23.0712178463
 31
0.0
 11
34.1017650857
 21
23.5442048775
 31
0.0
 11
34.0229523696
 21
23.9658706888
 31
0.0
 11
33.9100854815
 21
24.3376089081
 31
0.0
 11
33.7680766011
 21
24.6752744279
 31
0.0
 11
33.5877816091
 21
25.0027460627
 31
0.0
 11
33.3812967743
 21
25.3085655993
 31
0.0
 11
33.1397512224
 21
25.5991188131
 31
0.0
 11
32.8652530493
 21
25.8649080745
 31
0.0
 11
32.5742361795
 21
26.0924128094
 31
0.0
 11
32.25539415
 21
26.2926227074
 31
0.0
 11
31.8891857371
 21
26.4708311651
 31
0.0
 11
31.465645425
 21
26.6186014811
 31
0.0
 11
30.9834440586
 21
26.7199454809
 31
0.0
 11
30.4451076494
 21
26.7556847611
 31
0.0
  0
SPLINE
  5
33C
100
AcDbEntity
  8
RACCORDO
100
AcDbSpline
 62
253
  6
CONTINUOUS
 70
0
 71
3
 72
18
 73
14
 74
12
 42
0.0000001
 43
0.0000001
 44
0.0000000001
 12
-10.4833004117
 22
-0.0715833282
 32
0.0
 13
-10.4835448058
 23
0.0000003082
 33
0.0
 40
0.0
 40
0.0
 40
0.0
 40
0.0
 40
0.1167716541
 40
0.2298737105
 40
0.3454892725
 40
0.4602779641
 40
0.5632289196
 40
0.6550695611
 40
0.7379002283
 40
0.8128613879
 40
0.8809640184
 40
0.9430591325
 40
1.0
 40
1.0
 40
1.0
 40
1.0
 10
30.4451076494
 20
26.7556847611
 30
0.0
 10
30.0370568731
 20
26.7528984599
 30
0.0
 10
29.2337679522
 20
26.7488878604
 30
0.0
 10
28.0264530641
 20
26.7461870334
 30
0.0
 10
26.8260657988
 20
26.7447377936
 30
0.0
 10
25.6611508303
 20
26.7447568134
 30
0.0
 10
24.5793180814
 20
26.7453807291
 30
0.0
 10
23.6091629394
 20
26.7456070796
 30
0.0
 10
22.7368185537
 20
26.7456623618
 30
0.0
 10
21.9474269985
 20
26.7456729425
 30
0.0
 10
21.2304961436
 20
26.7456713902
 30
0.0
 10
20.5765374685
 20
26.7456754454
 30
0.0
 10
20.1605644529
 20
26.7456698396
 30
0.0
 10
19.9615837412
 20
26.7456698454
 30
0.0
 11
30.4451076494
 21
26.7556847611
 31
0.0
 11
29.2209429402
 21
26.7493950427
 31
0.0
 11
28.0352362265
 21
26.7464079414
 31
0.0
 11
26.8231761401
 21
26.7449823792
 31
0.0
 11
25.6197837533
 21
26.7448759949
 31
0.0
 11
24.5404928977
 21
26.7453378244
 31
0.0
 11
23.577677449
 21
26.7455857485
 31
0.0
 11
22.7093184415
 21
26.7456565121
 31
0.0
 11
21.9234597663
 21
26.7456711268
 31
0.0
 11
21.2095027879
 21
26.7456723862
 31
0.0
 11
20.5585258765
 21
26.7456733297
 31
0.0
 11
19.9615837412
 21
26.7456698454
 31
0.0
  0
SPLINE
  5
33D
100
AcDbEntity
  8
RACCORDO
100
AcDbSpline
 62
253
  6
CONTINUOUS
 70
0
 71
3
 72
41
 73
37
 74
35
 42
0.0000001
 43
0.0000001
 44
0.0000000001
 12
-32.7753338528
 22
0.8761773322
 32
0.0
 13
-32.7870431097
 23
0.0000010885
 33
0.0
 40
0.0
 40
0.0
 40
0.0
 40
0.0
 40
0.0104627258
 40
0.0211505764
 40
0.0319486494
 40
0.0425684111
 40
0.0526851448
 40
0.0624298456
 40
0.0721863786
 40
0.0822457715
 40
0.0928490379
 40
0.1041931827
 40
0.1164821178
 40
0.1299302268
 40
0.1447379675
 40
0.1609918727
 40
0.1786413015
 40
0.1976407891
 40
0.2180046566
 40
0.2399501275
 40
0.2637416154
 40
0.2896343242
 40
0.3178830135
 40
0.3487258575
 40
0.3823473159
 40
0.4189338054
 40
0.4586767719
 40
0.5017304156
 40
0.548216018
 40
0.5983093251
 40
0.6524575846
 40
0.7111611417
 40
0.7748743902
 40
0.8439937671
 40
0.9189005929
 40
1.0
 40
1.0
 40
1.0
 40
1.0
 10
52.7479061469
 20
47.213116056
 30
0.0
 10
52.6335997032
 20
47.2161717904
 30
0.0
 10
52.4025304971
 20
47.222469282
 30
0.0
 10
52.0535017036
 20
47.2323014072
 30
0.0
 10
51.7027682577
 20
47.2425712065
 30
0.0
 10
51.3582332484
 20
47.2512042534
 30
0.0
 10
51.0251461882
 20
47.2569469453
 30
0.0
 10
50.7014529269
 20
47.2587154517
 30
0.0
 10
50.3783931295
 20
47.2609935725
 30
0.0
 10
50.0459505276
 20
47.2635019658
 30
0.0
 10
49.696162178
 20
47.2666854175
 30
0.0
 10
49.3220078591
 20
47.2700584088
 30
0.0
 10
48.9167619228
 20
47.2735362514
 30
0.0
 10
48.4736624505
 20
47.277191169
 30
0.0
 10
47.9872297489
 20
47.2810179647
 30
0.0
 10
47.454881423
 20
47.2851102904
 30
0.0
 10
46.8767192264
 20
47.2890753285
 30
0.0
 10
46.2536359727
 20
47.2926786549
 30
0.0
 10
45.5835976662
 20
47.2957257863
 30
0.0
 10
44.8611845126
 20
47.2980882612
 30
0.0
 10
44.0783451055
 20
47.3000006975
 30
0.0
 10
43.2266164997
 20
47.3013758438
 30
0.0
 10
42.2978229072
 20
47.302291
 30
0.0
 10
41.284561449
 20
47.3028714977
 30
0.0
 10
40.1801760966
 20
47.3035476589
 30
0.0
 10
38.9785213854
 20
47.3045551806
 30
0.0
 10
37.6737823894
 20
47.3058237126
 30
0.0
 10
36.2608560182
 20
47.3073171065
 30
0.0
 10
34.7348107699
 20
47.3090040037
 30
0.0
 10
33.0875124089
 20
47.3108510795
 30
0.0
 10
31.3066838234
 20
47.3127527403
 30
0.0
 10
29.3770025939
 20
47.3146224212
 30
0.0
 10
27.2837017855
 20
47.3165437148
 30
0.0
 10
25.013315177
 20
47.3185029711
 30
0.0
 10
22.552914693
 20
47.3201597471
 30
0.0
 10
20.8479203263
 20
47.3206897532
 30
0.0
 10
19.9615837412
 20
47.3206897827
 30
0.0
 11
52.7479061469
 21
47.213116056
 31
0.0
 11
52.4049914233
 21
47.2224540199
 31
0.0
 11
52.0547076554
 21
47.23233196
 31
0.0
 11
51.7008133096
 21
47.2423772203
 31
0.0
 11
51.3527265003
 21
47.2508776997
 31
0.0
 11
51.0210739255
 21
47.2563538793
 31
0.0
 11
50.7015833586
 21
47.2587992558
 31
0.0
 11
50.3817030354
 21
47.2609961474
 31
0.0
 11
50.0518950992
 21
47.2635403758
 31
0.0
 11
49.7042588729
 21
47.2666069083
 31
0.0
 11
49.3323328378
 21
47.2699395665
 31
0.0
 11
48.9294299054
 21
47.2734061461
 31
0.0
 11
48.4885211658
 21
47.2770419234
 31
0.0
 11
48.0030343018
 21
47.2808797619
 31
0.0
 11
47.4701321464
 21
47.2849224284
 31
0.0
 11
46.8914730575
 21
47.2888742938
 31
0.0
 11
46.2685464083
 21
47.2924686152
 31
0.0
 11
45.6008823337
 21
47.2955103436
 31
0.0
 11
44.8813592937
 21
47.2979270776
 31
0.0
 11
44.1013091041
 21
47.2998414517
 31
0.0
 11
43.2523649098
 21
47.3012491175
 31
0.0
 11
42.3261744061
 21
47.3022021968
 31
0.0
 11
41.3149289662
 21
47.3028604465
 31
0.0
 11
40.2125809859
 21
47.3035676214
 31
0.0
 11
39.0130185803
 21
47.3045519014
 31
0.0
 11
37.7099648281
 21
47.3058061938
 31
0.0
 11
36.2983639368
 21
47.307288425
 31
0.0
 11
34.7742394064
 21
47.3089643001
 31
0.0
 11
33.1318289977
 21
47.3107873332
 31
0.0
 11
31.3564686801
 21
47.312671482
 31
0.0
 11
29.4317535422
 21
47.3145536584
 31
0.0
 11
27.3427853994
 21
47.3164711606
 31
0.0
 11
25.0765662116
 21
47.3183796584
 31
0.0
 11
22.6205933995
 21
47.3199716736
 31
0.0
 11
19.9615837412
 21
47.3206897827
 31
0.0
  0
LINE
  5
33E
100
AcDbEntity
  8
0
100
AcDbLine
 62
253
  6
CONTINUOUS
 10
30.4615837412
 20
-21.8225880923
 11
19.9615420897
 21
-21.8225967885
  0
LINE
  5
33F
100
AcDbEntity
  8
0
100
AcDbLine
 62
253
  6
CONTINUOUS
 10
-3.5384162588
 20
-21.8225967884
 11
-14.0384162588
 21
-21.8225880925
  0
SPLINE
  5
340
100
AcDbEntity
  8
RACCORDO
100
AcDbSpline
 62
253
  6
CONTINUOUS
 70
0
 71
3
 72
30
 73
26
 74
24
 42
0.0000001
 43
0.0000001
 44
0.0000000001
 12
0.8718395147
 22
32.7744689563
 32
0.0
 13
0.0000006505
 23
32.7860628852
 33
0.0
 40
0.0
 40
0.0
 40
0.0
 40
0.0
 40
0.0133983179
 40
0.0280809995
 40
0.0439610309
 40
0.0610724403
 40
0.0797839531
 40
0.1005025386
 40
0.1237540491
 40
0.150016954
 40
0.1793981834
 40
0.2116417921
 40
0.2467129472
 40
0.2847770236
 40
0.3259956636
 40
0.3705718292
 40
0.4187978928
 40
0.4709790143
 40
0.5274893325
 40
0.5887763956
 40
0.6559037088
 40
0.730214206
 40
0.8122296515
 40
0.9020865701
 40
1.0
 40
1.0
 40
1.0
 40
1.0
 10
54.6060605161
 20
-43.7159448674
 30
0.0
 10
54.6099542438
 20
-43.5695706161
 30
0.0
 10
54.6181391533
 20
-43.2627910612
 30
0.0
 10
54.6297969875
 20
-42.7824962598
 30
0.0
 10
54.6419389705
 20
-42.2616203535
 30
0.0
 10
54.6513815665
 20
-41.6966506866
 30
0.0
 10
54.659423966
 20
-41.0787770754
 30
0.0
 10
54.6651979638
 20
-40.3937724363
 30
0.0
 10
54.6714399151
 20
-39.6262436569
 30
0.0
 10
54.678208839
 20
-38.764044307
 30
0.0
 10
54.6856357342
 20
-37.8035750628
 30
0.0
 10
54.6913990376
 20
-36.7468294269
 30
0.0
 10
54.6952730574
 20
-35.5951828553
 30
0.0
 10
54.6972837584
 20
-34.3454462013
 30
0.0
 10
54.6976354716
 20
-32.9918309949
 30
0.0
 10
54.6970725949
 20
-31.5271588893
 30
0.0
 10
54.6969327007
 20
-29.9426811211
 30
0.0
 10
54.6972447123
 20
-28.2277787348
 30
0.0
 10
54.6984733147
 20
-26.3701371019
 30
0.0
 10
54.7006914936
 20
-24.3491540592
 30
0.0
 10
54.7036629159
 20
-22.133639231
 30
0.0
 10
54.7070612638
 20
-19.6915907586
 30
0.0
 10
54.7100826253
 20
-17.0011368083
 30
0.0
 10
54.7122601733
 20
-14.0527328698
 30
0.0
 10
54.712857578
 20
-12.0006493594
 30
0.0
 10
54.7128575992
 20
-10.9305840696
 30
0.0
 11
54.6060605161
 21
-43.7159448674
 31
0.0
 11
54.6175967319
 21
-43.276818281
 31
0.0
 11
54.6294054135
 21
-42.7955758183
 31
0.0
 11
54.6410745872
 21
-42.2750628952
 31
0.0
 11
54.6507591846
 21
-41.714130747
 31
0.0
 11
54.6586934175
 21
-41.1007052241
 31
0.0
 11
54.6649329959
 21
-40.4214530323
 31
0.0
 11
54.6711386592
 21
-39.6591528075
 31
0.0
 11
54.6779252896
 21
-38.798122302
 31
0.0
 11
54.6850450166
 21
-37.834853776
 31
0.0
 11
54.690877762
 21
-36.7777288844
 31
0.0
 11
54.6948404667
 21
-35.6278906159
 31
0.0
 11
54.6969588567
 21
-34.3799212119
 31
0.0
 11
54.6974865349
 21
-33.0285243929
 31
0.0
 11
54.6971571908
 21
-31.5670474605
 31
0.0
 11
54.6970049243
 21
-29.985904716
 31
0.0
 11
54.6973673636
 21
-28.275091223
 31
0.0
 11
54.6985680204
 21
-26.4223407669
 31
0.0
 11
54.7006993137
 21
-24.4129803906
 31
0.0
 11
54.7035751803
 21
-22.2121419591
 31
0.0
 11
54.7068403917
 21
-19.7757955131
 31
0.0
 11
54.7098219574
 21
-17.0868336112
 31
0.0
 11
54.7119848799
 21
-14.1407798203
 31
0.0
 11
54.7128575992
 21
-10.9305840696
 31
0.0
  0
LINE
  5
341
100
AcDbEntity
  8
0
100
AcDbLine
 62
253
  6
CONTINUOUS
 10
30.8535963468
 20
23.0694159304
 11
30.8535964607
 21
12.569380068
  0
LINE
  5
342
100
AcDbEntity
  8
0
100
AcDbLine
 62
253
  6
CONTINUOUS
 10
30.8535964607
 20
-10.9305840696
 11
30.8535963469
 21
-21.4305840696
  0
SPLINE
  5
343
100
AcDbEntity
  8
RACCORDO
100
AcDbSpline
 62
253
  6
CONTINUOUS
 70
0
 71
3
 72
17
 73
13
 74
11
 42
0.0000001
 43
0.0000001
 44
0.0000000001
 12
2.8889355607
 22
0.0771843904
 32
0.0
 13
0.0768226747
 23
2.8889452021
 33
0.0
 40
0.0
 40
0.0
 40
0.0
 40
0.0
 40
0.140397264
 40
0.2682214268
 40
0.3839832665
 40
0.4907870886
 40
0.5925748001
 40
0.6892691652
 40
0.7785773164
 40
0.8589800328
 40
0.9318394696
 40
1.0
 40
1.0
 40
1.0
 40
1.0
 10
52.7479061469
 20
-45.5742841953
 30
0.0
 10
52.8831056964
 20
-45.5706720363
 30
0.0
 10
53.1414369797
 20
-45.5344122397
 30
0.0
 10
53.4918357474
 20
-45.4094558131
 30
0.0
 10
53.7853221917
 20
-45.2392281276
 30
0.0
 10
54.0267806436
 20
-45.0388480321
 30
0.0
 10
54.2220191145
 20
-44.817400985
 30
0.0
 10
54.3731124768
 20
-44.5837952365
 30
0.0
 10
54.4814973925
 20
-44.3503262852
 30
0.0
 10
54.5524444365
 20
-44.1270876765
 30
0.0
 10
54.5932632764
 20
-43.9172945024
 30
0.0
 10
54.6043150914
 20
-43.7815822132
 30
0.0
 10
54.6060605161
 20
-43.7159448674
 30
0.0
 11
52.7479061469
 21
-45.5742841953
 31
0.0
 11
53.1498286225
 21
-45.5187322684
 31
0.0
 11
53.4978165254
 21
-45.394771178
 31
0.0
 11
53.7872156328
 21
-45.2269307497
 31
0.0
 11
54.024778022
 21
-45.0298653408
 31
0.0
 11
54.2192988023
 21
-44.8091991252
 31
0.0
 11
54.3710502778
 21
-44.574550146
 31
0.0
 11
54.4797458013
 21
-44.3404569293
 31
0.0
 11
54.5500896782
 21
-44.1189993835
 31
0.0
 11
54.590140138
 21
-43.9122821042
 31
0.0
 11
54.6060605161
 21
-43.7159448674
 31
0.0
  0
LINE
  5
344
100
AcDbEntity
  8
0
100
AcDbLine
 62
253
  6
CONTINUOUS
 10
-14.0384162588
 20
23.4614196877
 11
-3.5384162588
 21
23.4614286492
  0
LINE
  5
345
100
AcDbEntity
  8
0
100
AcDbLine
 62
253
  6
CONTINUOUS
 10
19.9615837412
 20
23.4614286491
 11
30.4615837412
 21
23.4614199532
  0
LINE
  5
346
100
AcDbEntity
  8
0
100
AcDbLine
 62
253
  6
CONTINUOUS
 10
-14.4304288645
 20
-21.4305840696
 11
-14.4304289784
 21
-10.9305482073
  0
LINE
  5
347
100
AcDbEntity
  8
0
100
AcDbLine
 62
253
  6
CONTINUOUS
 10
-14.4304289784
 20
12.5694159304
 11
-14.4304290819
 21
23.0694159304
  0
SPLINE
  5
348
100
AcDbEntity
  8
RACCORDO
100
AcDbSpline
 62
253
  6
CONTINUOUS
 70
0
 71
3
 72
35
 73
31
 74
29
 42
0.0000001
 43
0.0000001
 44
0.0000000001
 12
-32.7869522002
 22
-0.0000012569
 32
0.0
 13
-32.775710757
 23
-0.8584980771
 33
0.0
 40
0.0
 40
0.0
 40
0.0
 40
0.0
 40
0.0861726189
 40
0.1651203378
 40
0.2376107879
 40
0.3042687224
 40
0.3656517043
 40
0.4222434097
 40
0.4744566753
 40
0.5226786688
 40
0.5672632328
 40
0.6085096813
 40
0.6466352122
 40
0.6818525911
 40
0.7144088372
 40
0.7445607693
 40
0.7725300189
 40
0.798417304
 40
0.8223061053
 40
0.8443436249
 40
0.8646859195
 40
0.8834710026
 40
0.9007015433
 40
0.9161839218
 40
0.9300128314
 40
0.9428233783
 40
0.9554913784
 40
0.9689259109
 40
0.9838111574
 40
1.0
 40
1.0
 40
1.0
 40
1.0
 10
-3.5384162588
 20
47.3206897827
 30
0.0
 10
-4.4801954381
 20
47.3206897466
 30
0.0
 10
-6.2847929839
 20
47.3200937661
 30
0.0
 10
-8.8816368767
 20
47.3182742186
 30
0.0
 10
-11.2652047975
 20
47.3161747294
 30
0.0
 10
-13.4568079742
 20
47.3141539391
 30
0.0
 10
-15.4746539691
 20
47.3121538487
 30
0.0
 10
-17.3346342612
 20
47.3100981108
 30
0.0
 10
-19.0507783625
 20
47.3081626367
 30
0.0
 10
-20.6356967757
 20
47.3064506822
 30
0.0
 10
-22.100759226
 20
47.3050009115
 30
0.0
 10
-23.4554778127
 20
47.303826221
 30
0.0
 10
-24.7078228037
 20
47.3029885074
 30
0.0
 10
-25.865192787
 20
47.3022799724
 30
0.0
 10
-26.9354190375
 20
47.301086737
 30
0.0
 10
-27.9264297442
 20
47.2993356959
 30
0.0
 10
-28.8445538653
 20
47.2968957522
 30
0.0
 10
-29.6942250315
 20
47.2935100376
 30
0.0
 10
-30.4790621273
 20
47.2889801383
 30
0.0
 10
-31.2032917538
 20
47.2837158006
 30
0.0
 10
-31.8717417965
 20
47.2785277933
 30
0.0
 10
-32.4876582505
 20
47.2737733517
 30
0.0
 10
-33.0504582376
 20
47.2689084039
 30
0.0
 10
-33.5590894937
 20
47.2640180534
 30
0.0
 10
-34.0194240814
 20
47.260286677
 30
0.0
 10
-34.4490096267
 20
47.258253906
 30
0.0
 10
-34.8742682399
 20
47.2530113288
 30
0.0
 10
-35.3220799148
 20
47.2413805486
 30
0.0
 10
-35.8082977358
 20
47.22693448
 30
0.0
 10
-36.1477854588
 20
47.2178536936
 30
0.0
 10
-36.3246523992
 20
47.2132209969
 30
0.0
 11
-3.5384162588
 21
47.3206897827
 31
0.0
 11
-6.3637536823
 21
47.3198856299
 31
0.0
 11
-8.9522081825
 21
47.3181437426
 31
0.0
 11
-11.3289482265
 21
47.3161015612
 31
0.0
 11
-13.5144577975
 21
47.3140745605
 31
0.0
 11
-15.5270176862
 21
47.3120621379
 31
0.0
 11
-17.3824861225
 21
47.3100379664
 31
0.0
 11
-19.0943988999
 21
47.3081275773
 31
0.0
 11
-20.6754501872
 21
47.3064325495
 31
0.0
 11
-22.1372414501
 21
47.3049958035
 31
0.0
 11
-23.4895862925
 21
47.3038430728
 31
0.0
 11
-24.7396059535
 21
47.302979533
 31
0.0
 11
-25.8942761828
 21
47.3021616183
 31
0.0
 11
-26.9616955646
 21
47.3009370026
 31
0.0
 11
-27.9502838893
 21
47.2991412964
 31
0.0
 11
-28.8673068878
 21
47.2966245985
 31
0.0
 11
-29.7160649957
 21
47.2931600703
 31
0.0
 11
-30.499293054
 21
47.2886600647
 31
0.0
 11
-31.2218178679
 21
47.2835194736
 31
0.0
 11
-31.8887600647
 21
47.2784005593
 31
0.0
 11
-32.5046465338
 21
47.2735431791
 31
0.0
 11
-33.0695622304
 21
47.2686470041
 31
0.0
 11
-33.5771607735
 21
47.2639791612
 31
0.0
 11
-34.030554922
 21
47.2604611515
 31
0.0
 11
-34.4505647111
 21
47.2577118533
 31
0.0
 11
-34.865873231
 21
47.2521983225
 31
0.0
 11
-35.3062214437
 21
47.2415321446
 31
0.0
 11
-35.7940640722
 21
47.227588166
 31
0.0
 11
-36.3246523992
 21
47.2132209969
 31
0.0
  0
SPLINE
  5
349
100
AcDbEntity
  8
RACCORDO
100
AcDbSpline
 62
253
  6
CONTINUOUS
 70
0
 71
3
 72
18
 73
14
 74
12
 42
0.0000001
 43
0.0000001
 44
0.0000000001
 12
-10.4832800245
 22
0.0000013855
 32
0.0
 13
-10.4830609807
 23
0.0677683379
 33
0.0
 40
0.0
 40
0.0
 40
0.0
 40
0.0
 40
0.1190258812
 40
0.2469229251
 40
0.3701126665
 40
0.4794615606
 40
0.5777748193
 40
0.6665376368
 40
0.7471596664
 40
0.8204032278
 40
0.8865208535
 40
0.9460625625
 40
1.0
 40
1.0
 40
1.0
 40
1.0
 10
-3.5384162588
 20
26.745669833
 30
0.0
 10
-3.9543434732
 20
26.745669888
 30
0.0
 10
-4.8171975309
 20
26.7456749993
 30
0.0
 10
-6.1105290975
 20
26.7456606679
 30
0.0
 10
-7.3700451768
 20
26.7456491596
 30
0.0
 10
-8.5261827502
 20
26.7451184385
 30
0.0
 10
-9.5620180094
 20
26.7447000008
 30
0.0
 10
-10.497469498
 20
26.7450124432
 30
0.0
 10
-11.3453161269
 20
26.7459488464
 30
0.0
 10
-12.1140309827
 20
26.7468916259
 30
0.0
 10
-12.80907946
 20
26.7491093586
 30
0.0
 10
-13.4366602867
 20
26.7521112739
 30
0.0
 10
-13.8331970229
 20
26.7546149076
 30
0.0
 10
-14.0216735052
 20
26.7558333245
 30
0.0
 11
-3.5384162588
 21
26.745669833
 31
0.0
 11
-4.7861979019
 21
26.7456714064
 31
0.0
 11
-6.1269784269
 21
26.7456609281
 31
0.0
 11
-7.4184109771
 21
26.7455461158
 31
0.0
 11
-8.564745972
 21
26.7451118198
 31
0.0
 11
-9.5953913521
 21
26.7448197538
 31
0.0
 11
-10.5259167657
 21
26.745147174
 31
0.0
 11
-11.3710996526
 21
26.7459953306
 31
0.0
 11
-12.1389314928
 21
26.747186396
 31
0.0
 11
-12.8320576183
 21
26.7493762761
 31
0.0
 11
-13.4562428379
 21
26.7523720175
 31
0.0
 11
-14.0216735052
 21
26.7558333245
 31
0.0
  0
SPLINE
  5
34A
100
AcDbEntity
  8
RACCORDO
100
AcDbSpline
 62
253
  6
CONTINUOUS
 70
0
 71
3
 72
22
 73
18
 74
16
 42
0.0000001
 43
0.0000001
 44
0.0000000001
 12
-5.7956510236
 22
0.0373926577
 32
0.0
 13
-0.0088952481
 23
-5.7957648221
 33
0.0
 40
0.0
 40
0.0
 40
0.0
 40
0.0
 40
0.067869364
 40
0.1351553036
 40
0.2017385448
 40
0.2682135528
 40
0.3356082674
 40
0.4012065293
 40
0.462938584
 40
0.5260228836
 40
0.5875730053
 40
0.648959484
 40
0.7099757364
 40
0.7732155131
 40
0.8421618475
 40
0.9182649431
 40
1.0
 40
1.0
 40
1.0
 40
1.0
 10
-14.0216735052
 20
26.7558333245
 30
0.0
 10
-14.1527892215
 20
26.7566792631
 30
0.0
 10
-14.4142082543
 20
26.744626553
 30
0.0
 10
-14.8000700929
 20
26.6849628209
 30
0.0
 10
-15.1749267333
 20
26.5857252898
 30
0.0
 10
-15.5374507091
 20
26.4475201675
 30
0.0
 10
-15.8815963452
 20
26.2724838918
 30
0.0
 10
-16.1975175902
 20
26.0669585717
 30
0.0
 10
-16.4843843197
 20
25.8357515261
 30
0.0
 10
-16.7410978243
 20
25.582312057
 30
0.0
 10
-16.9685516329
 20
25.3032619206
 30
0.0
 10
-17.167035278
 20
25.0080128782
 30
0.0
 10
-17.3426302144
 20
24.6946795489
 30
0.0
 10
-17.489271594
 20
24.3506608688
 30
0.0
 10
-17.6081016332
 20
23.9654029451
 30
0.0
 10
-17.6891878878
 20
23.5338620178
 30
0.0
 10
-17.7090826454
 20
23.2286210101
 30
0.0
 10
-17.7093249966
 20
23.0707152877
 30
0.0
 11
-14.0216735052
 21
26.7558333245
 31
0.0
 11
-14.414602974
 21
26.7375343421
 31
0.0
 11
-14.8000065763
 21
26.6780050399
 31
0.0
 11
-15.1730455161
 21
26.5792035557
 31
0.0
 11
-15.5330408298
 21
26.4419468495
 31
0.0
 11
-15.8811807845
 21
26.2648300779
 31
0.0
 11
-16.199874642
 21
26.0575124531
 31
0.0
 11
-16.4784063572
 21
25.832945954
 31
0.0
 11
-16.7382703954
 21
25.5757490034
 31
0.0
 11
-16.9643222103
 21
25.2997830792
 31
0.0
 11
-17.1633366556
 21
25.0048693782
 31
0.0
 11
-17.3349279185
 21
24.6956525496
 31
0.0
 11
-17.4792372855
 21
24.3587339552
 31
0.0
 11
-17.5970395706
 21
23.9768955702
 31
0.0
 11
-17.6786794941
 21
23.5434407222
 31
0.0
 11
-17.7093249966
 21
23.0707152877
 31
0.0
  0
SPLINE
  5
34B
100
AcDbEntity
  8
RACCORDO
100
AcDbSpline
 62
253
  6
CONTINUOUS
 70
0
 71
3
 72
22
 73
18
 74
16
 42
0.0000001
 43
0.0000001
 44
0.0000000001
 12
-0.0162202104
 22
-10.5013018168
 32
0.0
 13
-0.0000009157
 23
-10.5013143436
 33
0.0
 40
0.0
 40
0.0
 40
0.0
 40
0.0
 40
0.0358558489
 40
0.0753178176
 40
0.118616206
 40
0.1658198708
 40
0.2169168545
 40
0.2720046448
 40
0.3313471228
 40
0.3952448753
 40
0.4639926988
 40
0.5379761561
 40
0.6176125694
 40
0.7032809715
 40
0.7952215829
 40
0.8939097982
 40
1.0
 40
1.0
 40
1.0
 40
1.0
 10
-17.7093249966
 20
23.0707152877
 30
0.0
 10
-17.7095188597
 20
22.9452042573
 30
0.0
 10
-17.7102817096
 20
22.681559852
 30
0.0
 10
-17.7117518542
 20
22.2663537976
 30
0.0
 10
-17.7135625684
 20
21.8114263789
 30
0.0
 10
-17.7155782284
 20
21.3157717508
 30
0.0
 10
-17.7169169573
 20
20.7788464163
 30
0.0
 10
-17.7175046126
 20
20.1994286748
 30
0.0
 10
-17.7175198664
 20
19.575202401
 30
0.0
 10
-17.7170204057
 20
18.9031602363
 30
0.0
 10
-17.7161024761
 20
18.179868658
 30
0.0
 10
-17.7148923014
 20
17.4014852407
 30
0.0
 10
-17.7140485329
 20
16.5638718116
 30
0.0
 10
-17.7137494375
 20
15.6634001086
 30
0.0
 10
-17.7139152897
 20
14.6962387444
 30
0.0
 10
-17.7144147889
 20
13.6575922746
 30
0.0
 10
-17.7146698917
 20
12.9407781164
 30
0.0
 10
-17.714669924
 20
12.5694159304
 30
0.0
 11
-17.7093249966
 21
23.0707152877
 31
0.0
 11
-17.7102838601
 21
22.6941829684
 31
0.0
 11
-17.7117332502
 21
22.2797829651
 31
0.0
 11
-17.7135144259
 21
21.8250964668
 31
0.0
 11
-17.7153979733
 21
21.3293995224
 31
0.0
 11
-17.7167548208
 21
20.79281575
 31
0.0
 11
-17.7173976255
 21
20.2143219052
 31
0.0
 11
-17.7174426954
 21
19.5911478918
 31
0.0
 11
-17.7169763595
 21
18.9201376683
 31
0.0
 11
-17.7160926278
 21
18.198195704
 31
0.0
 11
-17.7149913364
 21
17.421272944
 31
0.0
 11
-17.7141604779
 21
16.5849863471
 31
0.0
 11
-17.713829578
 21
15.6853555882
 31
0.0
 11
-17.7139592692
 21
14.7198583356
 31
0.0
 11
-17.7143815131
 21
13.6835024513
 31
0.0
 11
-17.714669924
 21
12.5694159304
 31
0.0
  0
SPLINE
  5
34C
100
AcDbEntity
  8
RACCORDO
100
AcDbSpline
 62
253
  6
CONTINUOUS
 70
0
 71
3
 72
36
 73
32
 74
30
 42
0.0000001
 43
0.0000001
 44
0.0000000001
 12
-0.8494344106
 22
-32.7749874925
 32
0.0
 13
-0.0000003612
 23
-32.785993106
 33
0.0
 40
0.0
 40
0.0
 40
0.0
 40
0.0
 40
0.0098456889
 40
0.0199605293
 40
0.0305778509
 40
0.0419388361
 40
0.0542949244
 40
0.0678757309
 40
0.0827705493
 40
0.098965827
 40
0.1165245052
 40
0.1355301684
 40
0.1560550115
 40
0.1781847406
 40
0.2020863209
 40
0.2279335986
 40
0.2558453563
 40
0.2859807331
 40
0.3186174192
 40
0.3540387556
 40
0.3924925793
 40
0.4341656964
 40
0.4792415529
 40
0.5279307122
 40
0.5804755507
 40
0.6372596905
 40
0.6987426663
 40
0.7654262099
 40
0.8374549287
 40
0.9151652559
 40
1.0
 40
1.0
 40
1.0
 40
1.0
 10
-38.1829884841
 20
45.3547073188
 30
0.0
 10
-38.1857762397
 20
45.2471432091
 30
0.0
 10
-38.1914252976
 20
45.0290744481
 30
0.0
 10
-38.1998958553
 20
44.6950066721
 30
0.0
 10
-38.2083335147
 20
44.3443729374
 30
0.0
 10
-38.2170565991
 20
43.9692449458
 30
0.0
 10
-38.2248286742
 20
43.5617011426
 30
0.0
 10
-38.2310727314
 20
43.1155078608
 30
0.0
 10
-38.2370206406
 20
42.6273501652
 30
0.0
 10
-38.2414616856
 20
42.0957018831
 30
0.0
 10
-38.2462822458
 20
41.5191300616
 30
0.0
 10
-38.2511166089
 20
40.8952401682
 30
0.0
 10
-38.2565325442
 20
40.2213979441
 30
0.0
 10
-38.261875104
 20
39.4940475495
 30
0.0
 10
-38.2665060071
 20
38.7085239468
 30
0.0
 10
-38.2702894615
 20
37.8598052842
 30
0.0
 10
-38.272992293
 20
36.9429550114
 30
0.0
 10
-38.2743434666
 20
35.9519025223
 30
0.0
 10
-38.2744455036
 20
34.8787796819
 30
0.0
 10
-38.2739551069
 20
33.7147475771
 30
0.0
 10
-38.2737022678
 20
32.4519592439
 30
0.0
 10
-38.2737818784
 20
31.083659883
 30
0.0
 10
-38.2742704336
 20
29.6035020413
 30
0.0
 10
-38.2753798942
 20
28.0045310971
 30
0.0
 10
-38.2771923081
 20
26.2776048308
 30
0.0
 10
-38.2796081416
 20
24.4108598684
 30
0.0
 10
-38.2824266024
 20
22.3895981566
 30
0.0
 10
-38.2852547028
 20
20.2017334004
 30
0.0
 10
-38.2875714849
 20
17.8365246462
 30
0.0
 10
-38.2892455414
 20
15.2729469258
 30
0.0
 10
-38.2896901067
 20
13.4965463756
 30
0.0
 10
-38.2896901169
 20
12.5694159304
 30
0.0
 11
-38.1829884841
 21
45.3547073188
 31
0.0
 11
-38.1913200086
 21
45.0320141686
 31
0.0
 11
-38.1996870561
 21
44.7004946478
 31
0.0
 11
-38.2080926101
 21
44.3524967156
 31
0.0
 11
-38.2165551608
 21
43.9801116772
 31
0.0
 11
-38.2242470332
 21
43.5750780805
 31
0.0
 11
-38.2307437244
 21
43.1298652502
 31
0.0
 11
-38.2365487651
 21
42.6415583409
 31
0.0
 11
-38.2413378488
 21
42.1106016772
 31
0.0
 11
-38.246093649
 21
41.5349426179
 31
0.0
 11
-38.2510167857
 21
40.9118425241
 31
0.0
 11
-38.2563168777
 21
40.2389360351
 31
0.0
 11
-38.2615643037
 21
39.5134098651
 31
0.0
 11
-38.2662002603
 21
38.7297865294
 31
0.0
 11
-38.2699838243
 21
37.8823663075
 31
0.0
 11
-38.2726882353
 21
36.9672556074
 31
0.0
 11
-38.2741056711
 21
35.97923837
 31
0.0
 11
-38.2743542886
 21
34.9092122328
 31
0.0
 11
-38.2740101012
 21
33.747888592
 31
0.0
 11
-38.2737614279
 21
32.4871418192
 31
0.0
 11
-38.2738391993
 21
31.1208472892
 31
0.0
 11
-38.2743435514
 21
29.6429906551
 31
0.0
 11
-38.2754416732
 21
28.0466685942
 31
0.0
 11
-38.2772112025
 21
26.32393479
 31
0.0
 11
-38.2795715595
 21
24.462211868
 31
0.0
 11
-38.2823145455
 21
22.4464333151
 31
0.0
 11
-38.2850695001
 21
20.2601488488
 31
0.0
 11
-38.2873870295
 21
17.8986169082
 31
0.0
 11
-38.28903117
 21
15.3508071879
 31
0.0
 11
-38.2896901169
 21
12.5694159304
 31
0.0
  0
SPLINE
  5
34D
100
AcDbEntity
  8
RACCORDO
100
AcDbSpline
 62
253
  6
CONTINUOUS
 70
0
 71
3
 72
15
 73
11
 74
9
 42
0.0000001
 43
0.0000001
 44
0.0000000001
 12
-2.8874691721
 22
-0.0742649218
 32
0.0
 13
-0.0748967568
 23
-2.8874528523
 33
0.0
 40
0.0
 40
0.0
 40
0.0
 40
0.0
 40
0.1725042217
 40
0.3283142271
 40
0.4690084793
 40
0.5964763255
 40
0.7126975548
 40
0.8177836068
 40
0.9125234247
 40
1.0
 40
1.0
 40
1.0
 40
1.0
 10
-36.3246523992
 20
47.2132209969
 30
0.0
 10
-36.4906859399
 20
47.2089506594
 30
0.0
 10
-36.8070766073
 20
47.1564609254
 30
0.0
 10
-37.2240859348
 20
46.9735621206
 30
0.0
 10
-37.5554295312
 20
46.7298949142
 30
0.0
 10
-37.8051295315
 20
46.453708466
 30
0.0
 10
-37.9825762945
 20
46.1666485063
 30
0.0
 10
-38.0983889892
 20
45.883889041
 30
0.0
 10
-38.1638931176
 20
45.6141870646
 30
0.0
 10
-38.1808045801
 20
45.4389021478
 30
0.0
 10
-38.1829884841
 20
45.3547073188
 30
0.0
 11
-36.3246523992
 21
47.2132209969
 31
0.0
 11
-36.8164072173
 21
47.1329368092
 31
0.0
 11
-37.2287152675
 21
46.9525402904
 31
0.0
 11
-37.5560290679
 21
46.7116789825
 31
0.0
 11
-37.8030448682
 21
46.4386577654
 31
0.0
 11
-37.9795545148
 21
46.1531121836
 31
0.0
 11
-38.0945293676
 21
45.8721974031
 31
0.0
 11
-38.1588900447
 21
45.6062249389
 31
0.0
 11
-38.1829884841
 21
45.3547073188
 31
0.0
  0
SPLINE
  5
34E
100
AcDbEntity
  8
RACCORDO
100
AcDbSpline
 62
253
  6
CONTINUOUS
 70
0
 71
3
 72
10
 73
6
 74
4
 42
0.0000001
 43
0.0000001
 44
0.0000000001
 12
0.8760198852
 22
0.0055771737
 32
0.0
 13
0.7221756698
 23
0.4958873319
 33
0.0
 40
0.0
 40
0.0
 40
0.0
 40
0.0
 40
0.4927362819
 40
0.8511921608
 40
1.0
 40
1.0
 40
1.0
 40
1.0
 10
54.6060605035
 20
-43.7159448638
 30
0.0
 10
54.7499427639
 20
-43.7150288385
 30
0.0
 10
55.0026477551
 20
-43.7203567539
 30
0.0
 10
55.2825364206
 20
-43.6851311363
 30
0.0
 10
55.4449723044
 20
-43.7051813771
 30
0.0
 10
55.4807941047
 20
-43.6805840696
 30
0.0
 11
54.6060605035
 21
-43.7159448638
 31
0.0
 11
55.0376658698
 21
-43.7093643328
 31
0.0
 11
55.3514304628
 21
-43.6966809125
 31
0.0
 11
55.4807941047
 21
-43.6805840696
 31
0.0
  0
SPLINE
  5
34F
100
AcDbEntity
  8
RACCORDO
100
AcDbSpline
 62
253
  6
CONTINUOUS
 70
0
 71
3
 72
10
 73
6
 74
4
 42
0.0000001
 43
0.0000001
 44
0.0000000001
 12
-0.0057019048
 22
-0.8768395862
 32
0.0
 13
-0.5053588321
 23
-0.7165839954
 33
0.0
 40
0.0
 40
0.0
 40
0.0
 40
0.0
 40
0.492654534
 40
0.8511260744
 40
1.0
 40
1.0
 40
1.0
 40
1.0
 10
52.7479060598
 20
-45.5742839002
 30
0.0
 10
52.7469697034
 20
-45.7182768994
 30
0.0
 10
52.7523239148
 20
-45.9713605731
 30
0.0
 10
52.7164893497
 20
-46.2510351024
 30
0.0
 10
52.7366619922
 20
-46.4142065599
 30
0.0
 10
52.7115837411
 20
-46.449766784
 30
0.0
 11
52.7479060598
 21
-45.5742839002
 31
0.0
 11
52.7411555052
 21
-46.0062192835
 31
0.0
 11
52.7281256012
 21
-46.3202777851
 31
0.0
 11
52.7115837411
 21
-46.449766784
 31
0.0
  0
SPLINE
  5
350
100
AcDbEntity
  8
RACCORDO
100
AcDbSpline
 62
253
  6
CONTINUOUS
 70
0
 71
3
 72
10
 73
6
 74
4
 42
0.0000001
 43
0.0000001
 44
0.0000000001
 12
0.0057024082
 22
-0.8768236672
 32
0.0
 13
0.5054046528
 23
-0.7165322029
 33
0.0
 40
0.0
 40
0.0
 40
0.0
 40
0.0
 40
0.4926567197
 40
0.851127992
 40
1.0
 40
1.0
 40
1.0
 40
1.0
 10
-36.3247386658
 20
-45.5742842005
 30
0.0
 10
-36.3238022225
 20
-45.7182752244
 30
0.0
 10
-36.329157718
 20
-45.9713560024
 30
0.0
 10
-36.2933204803
 20
-46.251022246
 30
0.0
 10
-36.3134964607
 20
-46.4141938893
 30
0.0
 10
-36.2884162588
 20
-46.4497510853
 30
0.0
 11
-36.3247386658
 21
-45.5742842005
 31
0.0
 11
-36.3179882565
 21
-46.0062136611
 31
0.0
 11
-36.304958553
 21
-46.3202662257
 31
0.0
 11
-36.2884162588
 21
-46.4497510853
 31
0.0
  0
SPLINE
  5
351
100
AcDbEntity
  8
RACCORDO
100
AcDbSpline
 62
253
  6
CONTINUOUS
 70
0
 71
3
 72
10
 73
6
 74
4
 42
0.0000001
 43
0.0000001
 44
0.0000000001
 12
-0.8760197281
 22
0.0055691832
 32
0.0
 13
-0.7221400893
 23
0.4959387777
 33
0.0
 40
0.0
 40
0.0
 40
0.0
 40
0.0
 40
0.4927362053
 40
0.8511920007
 40
1.0
 40
1.0
 40
1.0
 40
1.0
 10
-38.182892934
 20
-43.7159449666
 30
0.0
 10
-38.3267751462
 20
-43.7150302538
 30
0.0
 10
-38.5794809912
 20
-43.7203602738
 30
0.0
 10
-38.8593669212
 20
-43.6851326603
 30
0.0
 10
-39.0218060083
 20
-43.7051839554
 30
0.0
 10
-39.0576260823
 20
-43.6805840696
 30
0.0
 11
-38.182892934
 21
-43.7159449666
 31
0.0
 11
-38.6144981684
 21
-43.7093669115
 31
0.0
 11
-38.9282625956
 21
-43.6966830455
 31
0.0
 11
-39.0576260823
 21
-43.6805840696
 31
0.0
  0
SPLINE
  5
352
100
AcDbEntity
  8
RACCORDO
100
AcDbSpline
 62
253
  6
CONTINUOUS
 70
0
 71
3
 72
10
 73
6
 74
4
 42
0.0000001
 43
0.0000001
 44
0.0000000001
 12
-0.8759252105
 22
-0.0055631211
 32
0.0
 13
-0.7225236975
 23
-0.4952125092
 33
0.0
 40
0.0
 40
0.0
 40
0.0
 40
0.0
 40
0.4927441211
 40
0.851197389
 40
1.0
 40
1.0
 40
1.0
 40
1.0
 10
-38.1829885203
 20
45.3547073291
 30
0.0
 10
-38.3268575197
 20
45.3537935974
 30
0.0
 10
-38.5795257309
 20
45.3591202929
 30
0.0
 10
-38.8594166569
 20
45.3239393545
 30
0.0
 10
-39.0217944223
 20
45.3439789018
 30
0.0
 10
-39.0576322266
 20
45.3194159304
 30
0.0
 11
-38.1829885203
 21
45.3547073291
 31
0.0
 11
-38.6145542662
 21
45.3481405999
 31
0.0
 11
-38.9282835737
 21
45.3354819199
 31
0.0
 11
-39.0576322266
 21
45.3194159304
 31
0.0
  0
SPLINE
  5
353
100
AcDbEntity
  8
RACCORDO
100
AcDbSpline
 62
253
  6
CONTINUOUS
 70
0
 71
3
 72
10
 73
6
 74
4
 42
0.0000001
 43
0.0000001
 44
0.0000000001
 12
0.0056899989
 22
0.8767149555
 32
0.0
 13
0.5045578795
 23
0.7169957011
 33
0.0
 40
0.0
 40
0.0
 40
0.0
 40
0.0
 40
0.4926661059
 40
0.8511345945
 40
1.0
 40
1.0
 40
1.0
 40
1.0
 10
-36.3246524057
 20
47.2132210191
 30
0.0
 10
-36.3237179825
 20
47.3571969334
 30
0.0
 10
-36.3290713314
 20
47.6102340589
 30
0.0
 10
-36.2932888019
 20
47.8899075812
 30
0.0
 10
-36.3134533306
 20
48.0530068674
 30
0.0
 10
-36.2884162595
 20
48.088585486
 30
0.0
 11
-36.3246524057
 21
47.2132210191
 31
0.0
 11
-36.3179175713
 21
47.6451053503
 31
0.0
 11
-36.3049188741
 21
47.9591177256
 31
0.0
 11
-36.2884162595
 21
48.088585486
 31
0.0
  0
SPLINE
  5
354
100
AcDbEntity
  8
RACCORDO
100
AcDbSpline
 62
253
  6
CONTINUOUS
 70
0
 71
3
 72
10
 73
6
 74
4
 42
0.0000001
 43
0.0000001
 44
0.0000000001
 12
-0.0057062174
 22
0.8768234244
 32
0.0
 13
-0.5053868023
 23
0.7165445265
 33
0.0
 40
0.0
 40
0.0
 40
0.0
 40
0.0
 40
0.4926570433
 40
0.851128379
 40
1.0
 40
1.0
 40
1.0
 40
1.0
 10
52.7479061796
 20
47.213116167
 30
0.0
 10
52.7469691102
 20
47.3571072456
 30
0.0
 10
52.752323775
 20
47.6101877504
 30
0.0
 10
52.7164869478
 20
47.8898548151
 30
0.0
 10
52.736662992
 20
48.0530252309
 30
0.0
 10
52.7115837412
 20
48.088582946
 30
0.0
 11
52.7479061796
 21
47.213116167
 31
0.0
 11
52.7411545696
 21
47.6450457851
 31
0.0
 11
52.7281250437
 21
47.9590983345
 31
0.0
 11
52.7115837412
 21
48.088582946
 31
0.0
  0
SPLINE
  5
355
100
AcDbEntity
  8
RACCORDO
100
AcDbSpline
 62
253
  6
CONTINUOUS
 70
0
 71
3
 72
10
 73
6
 74
4
 42
0.0000001
 43
0.0000001
 44
0.0000000001
 12
0.8760196228
 22
-0.0055691702
 32
0.0
 13
0.7221406473
 23
-0.4959377792
 33
0.0
 40
0.0
 40
0.0
 40
0.0
 40
0.0
 40
0.4927362148
 40
0.8511920076
 40
1.0
 40
1.0
 40
1.0
 40
1.0
 10
54.6060605168
 20
45.3547767283
 30
0.0
 10
54.7499427145
 20
45.3538620177
 30
0.0
 10
55.0026485145
 20
45.3591920342
 30
0.0
 10
55.2825344599
 20
45.3239644854
 30
0.0
 10
55.4449734669
 20
45.3440157654
 30
0.0
 10
55.4807935669
 20
45.3194159303
 30
0.0
 11
54.6060605168
 21
45.3547767283
 31
0.0
 11
55.0376657078
 21
45.3481986908
 31
0.0
 11
55.3514300964
 21
45.3355148604
 31
0.0
 11
55.4807935669
 21
45.3194159303
 31
0.0
  0
SPLINE
  5
356
100
AcDbEntity
  8
RACCORDO
100
AcDbSpline
 62
253
  6
CONTINUOUS
 70
0
 71
3
 72
39
 73
35
 74
33
 42
0.0000001
 43
0.0000001
 44
0.0000000001
 12
32.7499415417
 22
0.0632731488
 32
0.0
 13
32.7500026637
 23
-0.0000004332
 33
0.0
 40
0.0
 40
0.0
 40
0.0
 40
0.0
 40
0.0108751855
 40
0.0217788523
 40
0.0326613868
 40
0.0436649519
 40
0.0548328929
 40
0.0660412351
 40
0.0771576617
 40
0.0882361557
 40
0.0996550332
 40
0.1118578955
 40
0.1252844098
 40
0.1403752933
 40
0.1573546014
 40
0.1761141838
 40
0.1965140847
 40
0.2185062609
 40
0.2423326807
 40
0.2682895201
 40
0.2966754929
 40
0.32778839
 40
0.3618726044
 40
0.399117762
 40
0.4397257665
 40
0.4838825575
 40
0.5317200767
 40
0.5833729302
 40
0.639252356
 40
0.6999238426
 40
0.7659043624
 40
0.8376316865
 40
0.9155175593
 40
1.0
 40
1.0
 40
1.0
 40
1.0
 10
-36.2884176486
 20
-46.4497510876
 30
0.0
 10
-36.1696970858
 20
-46.4495217185
 30
0.0
 10
-35.9319449234
 20
-46.4491203357
 30
0.0
 10
-35.575391673
 20
-46.4486867708
 30
0.0
 10
-35.2174367864
 20
-46.448414453
 30
0.0
 10
-34.8565968389
 20
-46.4482699931
 30
0.0
 10
-34.4922001424
 20
-46.448184874
 30
0.0
 10
-34.1265713835
 20
-46.4480615608
 30
0.0
 10
-33.7619191019
 20
-46.4479037749
 30
0.0
 10
-33.3949684838
 20
-46.4477302667
 30
0.0
 10
-33.0161576095
 20
-46.4475536667
 30
0.0
 10
-32.611714177
 20
-46.4473724082
 30
0.0
 10
-32.1671846739
 20
-46.4471847411
 30
0.0
 10
-31.6705122965
 20
-46.4469941305
 30
0.0
 10
-31.1156205812
 20
-46.4468119064
 30
0.0
 10
-30.5027720781
 20
-46.4466561195
 30
0.0
 10
-29.8351997519
 20
-46.446531003
 30
0.0
 10
-29.1123144417
 20
-46.4464345692
 30
0.0
 10
-28.3287658788
 20
-46.4463546985
 30
0.0
 10
-27.4754183626
 20
-46.4462907127
 30
0.0
 10
-26.5425267944
 20
-46.4462421324
 30
0.0
 10
-25.5209113747
 20
-46.4462054246
 30
0.0
 10
-24.4025831797
 20
-46.4461705304
 30
0.0
 10
-23.1806000543
 20
-46.4461256566
 30
0.0
 10
-21.8486579586
 20
-46.4460700792
 30
0.0
 10
-20.401082574
 20
-46.4460019283
 30
0.0
 10
-18.8329342451
 20
-46.4459197702
 30
0.0
 10
-17.1368138098
 20
-46.4458272209
 30
0.0
 10
-15.3005892188
 20
-46.4457335928
 30
0.0
 10
-13.3079542573
 20
-46.4456437373
 30
0.0
 10
-11.1423130583
 20
-46.4455514448
 30
0.0
 10
-8.7887481278
 20
-46.4454571824
 30
0.0
 10
-6.2332038773
 20
-46.4453774733
 30
0.0
 10
-4.4606829776
 20
-46.4453527349
 30
0.0
 10
-3.5384162584
 20
-46.4453527471
 30
0.0
 11
-36.2884176486
 21
-46.4497510876
 31
0.0
 11
-35.9322558047
 21
-46.4491488569
 31
0.0
 11
-35.5751609515
 21
-46.4487136099
 31
0.0
 11
-35.2187580259
 21
-46.4484367487
 31
0.0
 11
-34.8583912732
 21
-46.4482806527
 31
0.0
 11
-34.4926411902
 21
-46.4481786686
 31
0.0
 11
-34.1255679753
 21
-46.4480553595
 31
0.0
 11
-33.7615050041
 21
-46.4479011562
 31
0.0
 11
-33.3986843363
 21
-46.4477324193
 31
0.0
 11
-33.0247161102
 21
-46.447558743
 31
0.0
 11
-32.6250723773
 21
-46.4473800439
 31
0.0
 11
-32.1853540362
 21
-46.4471950612
 31
0.0
 11
-31.6911275972
 21
-46.4470063352
 31
0.0
 11
-31.1350552404
 21
-46.4468248224
 31
0.0
 11
-30.5206788877
 21
-46.4466672231
 31
0.0
 11
-29.8525820922
 21
-46.4465400499
 31
0.0
 11
-29.1323382671
 21
-46.4464408665
 31
0.0
 11
-28.3520229613
 21
-46.4463604244
 31
0.0
 11
-27.501936405
 21
-46.4462958015
 31
0.0
 11
-26.5722957195
 21
-46.4462460693
 31
0.0
 11
-25.5533482576
 21
-46.4462073566
 31
0.0
 11
-24.4370901468
 21
-46.4461706256
 31
0.0
 11
-23.2173111351
 21
-46.4461260312
 31
0.0
 11
-21.8873988814
 21
-46.4460705589
 31
0.0
 11
-20.4412638598
 21
-46.4460025908
 31
0.0
 11
-18.8745849814
 21
-46.4459214066
 31
0.0
 11
-17.1829538945
 21
-46.4458307071
 31
0.0
 11
-15.3529025532
 21
-46.4457379845
 31
0.0
 11
-13.3659112079
 21
-46.4456471367
 31
0.0
 11
-11.2050490103
 21
-46.4455550039
 31
0.0
 11
-8.8559789562
 21
-46.4454632011
 31
0.0
 11
-6.3052164158
 21
-46.4453867484
 31
0.0
 11
-3.5384162584
 21
-46.4453527471
 31
0.0
  0
SPLINE
  5
357
100
AcDbEntity
  8
RACCORDO
100
AcDbSpline
 62
253
  6
CONTINUOUS
 70
0
 71
3
 72
41
 73
37
 74
35
 42
0.0000001
 43
0.0000001
 44
0.0000000001
 12
32.7500020279
 22
0.0000004374
 32
0.0
 13
32.7499409117
 23
-0.0632701082
 33
0.0
 40
0.0
 40
0.0
 40
0.0
 40
0.0
 40
0.0833274184
 40
0.1598633746
 40
0.2301596948
 40
0.2947115378
 40
0.3539800177
 40
0.4084434985
 40
0.4585681645
 40
0.5047784661
 40
0.547354113
 40
0.5865572722
 40
0.6226241513
 40
0.655758861
 40
0.6861522673
 40
0.7140004575
 40
0.7395441518
 40
0.7630334505
 40
0.7847183562
 40
0.8048522048
 40
0.8236324907
 40
0.8410654754
 40
0.8571127883
 40
0.8717352173
 40
0.8850299412
 40
0.8971952837
 40
0.9084401037
 40
0.9189733431
 40
0.928997593
 40
0.9387547591
 40
0.9485044315
 40
0.9585412144
 40
0.9689556819
 40
0.9794685168
 40
0.9898464105
 40
1.0
 40
1.0
 40
1.0
 40
1.0
 10
19.9615837407
 20
-46.4453527471
 30
0.0
 10
20.8712414477
 20
-46.4453527349
 30
0.0
 10
22.616416729
 20
-46.4453767686
 30
0.0
 10
25.1289935515
 20
-46.4454542833
 30
0.0
 10
27.436603663
 20
-46.4455460788
 30
0.0
 10
29.5557104789
 20
-46.445636228
 30
0.0
 10
31.5019754544
 20
-46.445723186
 30
0.0
 10
33.2907437378
 20
-46.4458128985
 30
0.0
 10
34.9369602323
 20
-46.4459023965
 30
0.0
 10
36.4534011991
 20
-46.4459829952
 30
0.0
 10
37.8506157098
 20
-46.4460509677
 30
0.0
 10
39.1370978519
 20
-46.4461067935
 30
0.0
 10
40.3205164238
 20
-46.4461526494
 30
0.0
 10
41.4077618529
 20
-46.4461891112
 30
0.0
 10
42.4052865903
 20
-46.4462207044
 30
0.0
 10
43.3199427372
 20
-46.4462589046
 30
0.0
 10
44.1592290384
 20
-46.4463084012
 30
0.0
 10
44.931232811
 20
-46.4463717616
 30
0.0
 10
45.6441790967
 20
-46.4464477692
 30
0.0
 10
46.3057186536
 20
-46.4465395554
 30
0.0
 10
46.9208413987
 20
-46.4466560716
 30
0.0
 10
47.4913527856
 20
-46.4467991636
 30
0.0
 10
48.0164742232
 20
-46.4469672343
 30
0.0
 10
48.4964196381
 20
-46.4471472816
 30
0.0
 10
48.9339868698
 20
-46.4473287123
 30
0.0
 10
49.3346818657
 20
-46.4475061114
 30
0.0
 10
49.7052306533
 20
-46.4476769066
 30
0.0
 10
50.0524058457
 20
-46.4478419018
 30
0.0
 10
50.3833408208
 20
-46.4479909837
 30
0.0
 10
50.7057218642
 20
-46.4481194908
 30
0.0
 10
51.0282397379
 20
-46.4482100525
 30
0.0
 10
51.3579331547
 20
-46.4482957587
 30
0.0
 10
51.6959577435
 20
-46.448448658
 30
0.0
 10
52.0377060517
 20
-46.4487286086
 30
0.0
 10
52.3766062874
 20
-46.4491548922
 30
0.0
 10
52.6007413423
 20
-46.449536947
 30
0.0
 10
52.711584494
 20
-46.4497510865
 30
0.0
 11
19.9615837407
 21
-46.4453527471
 31
0.0
 11
22.6905568615
 21
-46.4453858877
 31
0.0
 11
25.1971095833
 21
-46.4454602733
 31
0.0
 11
27.4993142085
 21
-46.4455496782
 31
0.0
 11
29.6133871969
 21
-46.4456394672
 31
0.0
 11
31.554430031
 21
-46.4457273753
 31
0.0
 11
33.3381091346
 21
-46.4458165783
 31
0.0
 11
34.9796920472
 21
-46.4459043735
 31
0.0
 11
36.4930795153
 21
-46.4459839223
 31
0.0
 11
37.8874320353
 21
-46.4460514873
 31
0.0
 11
39.1713355793
 21
-46.4461072438
 31
0.0
 11
40.3525259415
 21
-46.4461528201
 31
0.0
 11
41.437687751
 21
-46.4461897631
 31
0.0
 11
42.4330718663
 21
-46.446223332
 31
0.0
 11
43.3451001531
 21
-46.4462626842
 31
0.0
 11
44.1816561911
 21
-46.4463130793
 31
0.0
 11
44.9509307692
 21
-46.44637665
 31
0.0
 11
45.6611114701
 21
-46.4464535191
 31
0.0
 11
46.3204950466
 21
-46.4465473681
 31
0.0
 11
46.9355494363
 21
-46.4466653852
 31
0.0
 11
47.5064797012
 21
-46.4468098196
 31
0.0
 11
48.0320292037
 21
-46.4469772616
 31
0.0
 11
48.5109137502
 21
-46.447156021
 31
0.0
 11
48.9463159495
 21
-46.4473359534
 31
0.0
 11
49.3447309023
 21
-46.4475118162
 31
0.0
 11
49.7129987404
 21
-46.4476813951
 31
0.0
 11
50.0579623148
 21
-46.4478430835
 31
0.0
 11
50.3862564872
 21
-46.4479894208
 31
0.0
 11
50.7058036722
 21
-46.448113246
 31
0.0
 11
51.0251054495
 21
-46.4482080796
 31
0.0
 11
51.353810093
 21
-46.4483050313
 31
0.0
 11
51.6948838881
 21
-46.4484689275
 31
0.0
 11
52.0391791332
 21
-46.44875515
 31
0.0
 11
52.3790549027
 21
-46.4491835541
 31
0.0
 11
52.711584494
 21
-46.4497510865
 31
0.0
  0
SPLINE
  5
358
100
AcDbEntity
  8
RACCORDO
100
AcDbSpline
 62
253
  6
CONTINUOUS
 70
0
 71
3
 72
35
 73
31
 74
29
 42
0.0000001
 43
0.0000001
 44
0.0000000001
 12
0.0000003483
 22
-32.7499434347
 32
0.0
 13
-0.0616027393
 23
-32.7498854972
 33
0.0
 40
0.0
 40
0.0
 40
0.0
 40
0.0
 40
0.0931265363
 40
0.1781545233
 40
0.2554672376
 40
0.3255248915
 40
0.3889927985
 40
0.4466593015
 40
0.4992872698
 40
0.5473980803
 40
0.5914263249
 40
0.6318057661
 40
0.6689622476
 40
0.7033032787
 40
0.7350691233
 40
0.7643381485
 40
0.7913081659
 40
0.816253567
 40
0.8393437219
 40
0.8606476152
 40
0.880301415
 40
0.8984383069
 40
0.9151055948
 40
0.9303024751
 40
0.9441329812
 40
0.9567824972
 40
0.9684986615
 40
0.9795064958
 40
0.9899622797
 40
1.0
 40
1.0
 40
1.0
 40
1.0
 10
-39.0531849361
 20
-10.9305840708
 30
0.0
 10
-39.0531849253
 20
-11.9472136696
 30
0.0
 10
-39.0532089017
 20
-13.8920638563
 30
0.0
 10
-39.053299911
 20
-16.6809097153
 30
0.0
 10
-39.0534253384
 20
-19.2179207081
 30
0.0
 10
-39.0535703541
 20
-21.5195678989
 30
0.0
 10
-39.0537065666
 20
-23.6067443208
 30
0.0
 10
-39.0538180766
 20
-25.5036470044
 30
0.0
 10
-39.0538945407
 20
-27.2329016757
 30
0.0
 10
-39.0539305785
 20
-28.8132722841
 30
0.0
 10
-39.0539369768
 20
-30.259930037
 30
0.0
 10
-39.0539306927
 20
-31.5870032383
 30
0.0
 10
-39.0539188431
 20
-32.8083245413
 30
0.0
 10
-39.0539138874
 20
-33.9356142433
 30
0.0
 10
-39.0539273543
 20
-34.976799363
 30
0.0
 10
-39.0539797826
 20
-35.9375177212
 30
0.0
 10
-39.0540903009
 20
-36.8237796948
 30
0.0
 10
-39.0542639209
 20
-37.6425891065
 30
0.0
 10
-39.054496945
 20
-38.3995434197
 30
0.0
 10
-39.0547869656
 20
-39.0987311599
 30
0.0
 10
-39.0550890347
 20
-39.7438458614
 30
0.0
 10
-39.0553598444
 20
-40.338344383
 30
0.0
 10
-39.0555747037
 20
-40.8841883049
 30
0.0
 10
-39.0557321857
 20
-41.3830209458
 30
0.0
 10
-39.0558820607
 20
-41.8379929864
 30
0.0
 10
-39.0560473519
 20
-42.2549672698
 30
0.0
 10
-39.0562847737
 20
-42.6411274025
 30
0.0
 10
-39.0566157346
 20
-43.003339258
 30
0.0
 10
-39.0570486325
 20
-43.3472280109
 30
0.0
 10
-39.0574204067
 20
-43.5709480776
 30
0.0
 10
-39.0576265237
 20
-43.6805261411
 30
0.0
 11
-39.0531849361
 21
-10.9305840708
 31
0.0
 11
-39.0532207822
 21
-13.9804728669
 31
0.0
 11
-39.0533108299
 21
-16.7651346292
 31
0.0
 11
-39.0534352607
 21
-19.2971216471
 31
0.0
 11
-39.053575792
 21
-21.5915058455
 31
0.0
 11
-39.0537083487
 21
-23.6700762037
 31
0.0
 11
-39.0538165153
 21
-25.5586509145
 31
0.0
 11
-39.0538902938
 21
-27.2822138972
 31
0.0
 11
-39.0539265541
 21
-28.8578402171
 31
0.0
 11
-39.0539348569
 21
-30.2997627385
 31
0.0
 11
-39.0539293858
 21
-31.6221871553
 31
0.0
 11
-39.0539196635
 21
-32.839059821
 31
0.0
 11
-39.0539171389
 21
-33.9637266475
 31
0.0
 11
-39.0539352217
 21
-35.0040562613
 31
0.0
 11
-39.0539928141
 21
-35.9626151781
 31
0.0
 11
-39.0541064156
 21
-36.8458817157
 31
0.0
 11
-39.0542817639
 21
-37.6628421721
 31
0.0
 11
-39.0545169699
 21
-38.4190434023
 31
0.0
 11
-39.0548009026
 21
-39.1167446452
 31
0.0
 11
-39.0550953698
 21
-39.760405409
 31
0.0
 11
-39.055360766
 21
-40.3543875346
 31
0.0
 11
-39.0555736056
 21
-40.9002402268
 31
0.0
 11
-39.0557380859
 21
-41.3979371716
 31
0.0
 11
-39.0558915904
 21
-41.8508854366
 31
0.0
 11
-39.0560670495
 21
-42.2651563329
 31
0.0
 11
-39.0563092382
 21
-42.6488599764
 31
0.0
 11
-39.0566425101
 21
-43.0093657724
 31
0.0
 11
-39.0570778435
 21
-43.3517918269
 31
0.0
 11
-39.0576265237
 21
-43.6805261411
 31
0.0
  0
SPLINE
  5
359
100
AcDbEntity
  8
RACCORDO
100
AcDbSpline
 62
253
  6
CONTINUOUS
 70
0
 71
3
 72
35
 73
31
 74
29
 42
0.0000001
 43
0.0000001
 44
0.0000000001
 12
0.0000007041
 22
-32.7860650383
 32
0.0
 13
0.8717032177
 23
-32.7744747357
 33
0.0
 40
0.0
 40
0.0
 40
0.0
 40
0.0
 40
0.0930368027
 40
0.1779814994
 40
0.2552174238
 40
0.3252024701
 40
0.3885991319
 40
0.4461962165
 40
0.4987562275
 40
0.5468025906
 40
0.5907749131
 40
0.631106056
 40
0.6682214579
 40
0.7025317856
 40
0.7342787129
 40
0.7635478014
 40
0.7905324914
 40
0.8155030703
 40
0.8386243925
 40
0.8599524207
 40
0.8795950201
 40
0.8976923288
 40
0.914299866
 40
0.9294663192
 40
0.9433056865
 40
0.9560272552
 40
0.9678825318
 40
0.979064508
 40
0.9897281743
 40
1.0
 40
1.0
 40
1.0
 40
1.0
 10
-38.2896901169
 20
-10.9305840696
 30
0.0
 10
-38.2896900951
 20
-11.9473542914
 30
0.0
 10
-38.2891560028
 20
-13.8924586548
 30
0.0
 10
-38.2871851276
 20
-16.6816497033
 30
0.0
 10
-38.2844887867
 20
-19.2189145471
 30
0.0
 10
-38.2813490809
 20
-21.5206868819
 30
0.0
 10
-38.2784778401
 20
-23.6078326132
 30
0.0
 10
-38.2762124976
 20
-25.5045462044
 30
0.0
 10
-38.2746852471
 20
-27.2335018674
 30
0.0
 10
-38.2739348271
 20
-28.8135572429
 30
0.0
 10
-38.2736928462
 20
-30.2599672633
 30
0.0
 10
-38.2738022374
 20
-31.5869162435
 30
0.0
 10
-38.2742904637
 20
-32.8082721749
 30
0.0
 10
-38.2744907453
 20
-33.935814012
 30
0.0
 10
-38.2736338223
 20
-34.977605902
 30
0.0
 10
-38.2712752037
 20
-35.9393357272
 30
0.0
 10
-38.2677336485
 20
-36.8270046906
 30
0.0
 10
-38.2632060049
 20
-37.6474811648
 30
0.0
 10
-38.257944941
 20
-38.406131939
 30
0.0
 10
-38.2522691923
 20
-39.1065499147
 30
0.0
 10
-38.2473061287
 20
-39.7520659537
 30
0.0
 10
-38.2423970487
 20
-40.3459918544
 30
0.0
 10
-38.2379515929
 20
-40.891002001
 30
0.0
 10
-38.2322791827
 20
-41.3894647208
 30
0.0
 10
-38.2259005469
 20
-41.8454462686
 30
0.0
 10
-38.2184428548
 20
-42.2652205692
 30
0.0
 10
-38.2095608193
 20
-42.6559173207
 30
0.0
 10
-38.2008916098
 20
-43.0241221014
 30
0.0
 10
-38.1919501867
 20
-43.375010211
 30
0.0
 10
-38.1858775945
 20
-43.6037270687
 30
0.0
 10
-38.1828929333
 20
-43.7159449664
 30
0.0
 11
-38.2896901169
 21
-10.9305840696
 31
0.0
 11
-38.2889020968
 21
-13.9808946332
 31
0.0
 11
-38.2869524593
 21
-16.7658962995
 31
0.0
 11
-38.2842711327
 21
-19.2981569221
 31
0.0
 11
-38.2812461958
 21
-21.5926892086
 31
0.0
 11
-38.2784564734
 21
-23.6712144123
 31
0.0
 11
-38.2762491117
 21
-25.5595948851
 31
0.0
 11
-38.2747642322
 21
-27.2828301835
 31
0.0
 11
-38.2739980242
 21
-28.8580811822
 31
0.0
 11
-38.2737487871
 21
-30.2997605847
 31
0.0
 11
-38.2738779664
 21
-31.6220600529
 31
0.0
 11
-38.2742559016
 21
-32.8389279756
 31
0.0
 11
-38.2743009287
 21
-33.963828611
 31
0.0
 11
-38.2733173131
 21
-35.0046849703
 31
0.0
 11
-38.2709581343
 21
-35.9643003069
 31
0.0
 11
-38.2674117038
 21
-36.849015001
 31
0.0
 11
-38.2628937897
 21
-37.667689558
 31
0.0
 11
-38.2576554454
 21
-38.4257286333
 31
0.0
 11
-38.2521702695
 21
-39.1249692403
 31
0.0
 11
-38.2471118327
 21
-39.768952913
 31
0.0
 11
-38.2422737031
 21
-40.362272728
 31
0.0
 11
-38.237517414
 21
-40.9067477491
 31
0.0
 11
-38.231888091
 21
-41.4039642034
 31
0.0
 11
-38.2254321228
 21
-41.8576566687
 31
0.0
 11
-38.2179173909
 21
-42.2746791456
 31
0.0
 11
-38.2093395732
 21
-42.6632723539
 31
0.0
 11
-38.2006371795
 21
-43.0297820514
 31
0.0
 11
-38.1917777417
 21
-43.3792894406
 31
0.0
 11
-38.1828929333
 21
-43.7159449664
 31
0.0
  0
SPLINE
  5
35A
100
AcDbEntity
  8
RACCORDO
100
AcDbSpline
 62
253
  6
CONTINUOUS
 70
0
 71
3
 72
26
 73
22
 74
20
 42
0.0000001
 43
0.0000001
 44
0.0000000001
 12
0.0000018942
 22
-10.5017183169
 32
0.0
 13
0.0173717453
 23
-10.5017039489
 33
0.0
 40
0.0
 40
0.0
 40
0.0
 40
0.0
 40
0.0934321597
 40
0.1794570652
 40
0.2587619462
 40
0.3319634097
 40
0.3995909791
 40
0.4620353079
 40
0.5193991154
 40
0.5715970352
 40
0.6189931233
 40
0.6629121402
 40
0.7047358694
 40
0.7457718106
 40
0.7861690892
 40
0.8248150776
 40
0.8614109653
 40
0.8965428762
 40
0.9308799517
 40
0.9653191647
 40
1.0
 40
1.0
 40
1.0
 40
1.0
 10
-17.7146699144
 20
-10.9305840696
 30
0.0
 10
-17.7146698554
 20
-11.257650144
 30
0.0
 10
-17.7144739761
 20
-11.8858526517
 30
0.0
 10
-17.7140361707
 20
-12.7916675627
 30
0.0
 10
-17.7137869839
 20
-13.6266635371
 30
0.0
 10
-17.7138406287
 20
-14.3972583423
 30
0.0
 10
-17.7142168511
 20
-15.1088314696
 30
0.0
 10
-17.7149219635
 20
-15.7649634511
 30
0.0
 10
-17.7158383767
 20
-16.3670824746
 30
0.0
 10
-17.7165856641
 20
-16.9165242239
 30
0.0
 10
-17.7171417418
 20
-17.4189017131
 30
0.0
 10
-17.7174561112
 20
-17.8849638032
 30
0.0
 10
-17.7175280912
 20
-18.3287618391
 30
0.0
 10
-17.7173264222
 20
-18.7602317545
 30
0.0
 10
-17.7167750494
 20
-19.1805774446
 30
0.0
 10
-17.7158372723
 20
-19.5853797701
 30
0.0
 10
-17.7143640557
 20
-19.9717485019
 30
0.0
 10
-17.7128877941
 20
-20.343033357
 30
0.0
 10
-17.7114543266
 20
-20.7067687678
 30
0.0
 10
-17.7102185498
 20
-21.0689258262
 30
0.0
 10
-17.7095160289
 20
-21.3108846807
 30
0.0
 10
-17.7093152067
 20
-21.4322873023
 30
0.0
 11
-17.7146699144
 21
-10.9305840696
 31
0.0
 11
-17.7144366844
 21
-11.9117822651
 31
0.0
 11
-17.7140537724
 21
-12.8151915095
 31
0.0
 11
-17.7138337391
 21
-13.6480290013
 31
0.0
 11
-17.7139031372
 21
-14.4167701485
 31
0.0
 11
-17.7142936399
 21
-15.1269757259
 31
0.0
 11
-17.7149920401
 21
-15.782748105
 31
0.0
 11
-17.7158488783
 21
-16.3851660436
 31
0.0
 11
-17.7165842787
 21
-16.9333334014
 31
0.0
 11
-17.7171179809
 21
-17.4310734816
 31
0.0
 11
-17.7174207129
 21
-17.892298526
 31
0.0
 11
-17.717482012
 21
-18.3315195456
 31
0.0
 11
-17.7172642592
 21
-18.7624673856
 31
0.0
 11
-17.7166943795
 21
-19.1867078433
 31
0.0
 11
-17.7157166752
 21
-19.5925559503
 31
0.0
 11
-17.7143338547
 21
-19.9768731666
 31
0.0
 11
-17.7128789158
 21
-20.3458157294
 31
0.0
 11
-17.7114874623
 21
-20.70641134
 31
0.0
 11
-17.7102519976
 21
-21.068080144
 31
0.0
 11
-17.7093152067
 21
-21.4322873023
 31
0.0
  0
SPLINE
  5
35B
100
AcDbEntity
  8
RACCORDO
100
AcDbSpline
 62
253
  6
CONTINUOUS
 70
0
 71
3
 72
22
 73
18
 74
16
 42
0.0000001
 43
0.0000001
 44
0.0000000001
 12
0.0095672429
 22
-5.7949824094
 32
0.0
 13
5.7948547378
 23
0.0396386811
 33
0.0
 40
0.0
 40
0.0
 40
0.0
 40
0.0
 40
0.0654929756
 40
0.1298847479
 40
0.1939208246
 40
0.2564636057
 40
0.3165177278
 40
0.3781562877
 40
0.4384612949
 40
0.5017337736
 40
0.5638915807
 40
0.6242820863
 40
0.6869809123
 40
0.7550267177
 40
0.8296169029
 40
0.9111330206
 40
1.0
 40
1.0
 40
1.0
 40
1.0
 10
-17.7093152067
 20
-21.4322873023
 30
0.0
 10
-17.7091063443
 20
-21.558797516
 30
0.0
 10
-17.6958677732
 20
-21.809846131
 30
0.0
 10
-17.6391286456
 20
-22.1806983126
 30
0.0
 10
-17.5471650002
 20
-22.5385867338
 30
0.0
 10
-17.4231856169
 20
-22.8777274641
 30
0.0
 10
-17.2679448215
 20
-23.1986849349
 30
0.0
 10
-17.0830853427
 20
-23.4982020139
 30
0.0
 10
-16.8739053764
 20
-23.788997677
 30
0.0
 10
-16.6332504769
 20
-24.0561354818
 30
0.0
 10
-16.3666216701
 20
-24.2973039125
 30
0.0
 10
-16.0784277953
 20
-24.5103606708
 30
0.0
 10
-15.7609202774
 20
-24.6999806329
 30
0.0
 10
-15.4003937205
 20
-24.8671775692
 30
0.0
 10
-14.9885649706
 20
-25.004143919
 30
0.0
 10
-14.5233683476
 20
-25.0973783477
 30
0.0
 10
-14.1935972463
 20
-25.1180270903
 30
0.0
 10
-14.0219401673
 20
-25.1168529004
 30
0.0
 11
-17.7093152067
 21
-21.4322873023
 31
0.0
 11
-17.6894590338
 21
-21.8112986909
 31
0.0
 11
-17.6329236671
 21
-22.180140728
 31
0.0
 11
-17.5405260159
 21
-22.5395420454
 31
0.0
 11
-17.4158426935
 21
-22.8798552263
 31
0.0
 11
-17.2641498145
 21
-23.1930681843
 31
0.0
 11
-17.0781896163
 21
-23.4980386265
 31
0.0
 11
-16.872362724
 21
-23.7804610535
 31
0.0
 11
-16.6273638479
 21
-24.0532569484
 31
0.0
 11
-16.360275589
 21
-24.2949400137
 31
0.0
 11
-16.0788947921
 21
-24.5030229893
 31
0.0
 11
-15.766957212
 21
-24.6893298321
 31
0.0
 11
-15.4092394973
 21
-24.8552517133
 31
0.0
 11
-14.9990909595
 21
-24.9916984824
 31
0.0
 11
-14.5359039342
 21
-25.0844641742
 31
0.0
 11
-14.0219401673
 21
-25.1168529004
 31
0.0
  0
SPLINE
  5
35C
100
AcDbEntity
  8
RACCORDO
100
AcDbSpline
 62
253
  6
CONTINUOUS
 70
0
 71
3
 72
18
 73
14
 74
12
 42
0.0000001
 43
0.0000001
 44
0.0000000001
 12
10.4833004119
 22
0.0715833266
 32
0.0
 13
10.483544806
 23
-0.0000003082
 33
0.0
 40
0.0
 40
0.0
 40
0.0
 40
0.0
 40
0.1167717396
 40
0.229873931
 40
0.345489615
 40
0.4602783123
 40
0.5632291866
 40
0.6550697603
 40
0.737900377
 40
0.812861492
 40
0.8809640823
 40
0.9430591613
 40
1.0
 40
1.0
 40
1.0
 40
1.0
 10
-14.0219401673
 20
-25.1168529004
 30
0.0
 10
-13.6138890919
 20
-25.1140665972
 30
0.0
 10
-12.8105994005
 20
-25.1100559953
 30
0.0
 10
-11.6032833156
 20
-25.1073551685
 30
0.0
 10
-10.4028951325
 20
-25.1059059311
 30
0.0
 10
-9.2379800013
 20
-25.1059249538
 30
0.0
 10
-8.1561477531
 20
-25.1065488698
 30
0.0
 10
-7.1859933082
 20
-25.106775219
 30
0.0
 10
-6.3136494919
 20
-25.1068305011
 30
0.0
 10
-5.5242584095
 20
-25.1068410817
 30
0.0
 10
-4.8073279739
 20
-25.1068395295
 30
0.0
 10
-4.1533696625
 20
-25.1068435847
 30
0.0
 10
-3.7373968702
 20
-25.1068379789
 30
0.0
 10
-3.5384162588
 20
-25.1068379847
 30
0.0
 11
-14.0219401673
 21
-25.1168529004
 31
0.0
 11
-12.7977745608
 21
-25.1105631789
 31
0.0
 11
-11.612066433
 21
-25.1075760767
 31
0.0
 11
-10.4000050676
 21
-25.1061505165
 31
0.0
 11
-9.1966126204
 21
-25.1060441351
 31
0.0
 11
-8.1173226161
 21
-25.1065059648
 31
0.0
 11
-7.1545078786
 21
-25.1067538881
 31
0.0
 11
-6.2861493999
 21
-25.1068246514
 31
0.0
 11
-5.5002911929
 21
-25.1068392661
 31
0.0
 11
-4.7863346358
 21
-25.1068405255
 31
0.0
 11
-4.135358093
 21
-25.106841469
 31
0.0
 11
-3.5384162588
 21
-25.1068379847
 31
0.0
  0
SPLINE
  5
35D
100
AcDbEntity
  8
RACCORDO
100
AcDbSpline
 62
253
  6
CONTINUOUS
 70
0
 71
3
 72
39
 73
35
 74
33
 42
0.0000001
 43
0.0000001
 44
0.0000000001
 12
32.7753333693
 22
-0.8761736997
 32
0.0
 13
32.7870425294
 23
-0.0000011785
 33
0.0
 40
0.0
 40
0.0
 40
0.0
 40
0.0
 40
0.0111435033
 40
0.0223048141
 40
0.0334141994
 40
0.0445579129
 40
0.0557368006
 40
0.0668715323
 40
0.077939269
 40
0.0889954456
 40
0.1004095296
 40
0.1126113974
 40
0.1260414434
 40
0.1411420959
 40
0.1581397173
 40
0.1769184877
 40
0.1973300697
 40
0.2193220642
 40
0.2431380994
 40
0.2690798065
 40
0.2974447433
 40
0.3285286909
 40
0.3625739741
 40
0.3997743354
 40
0.4403335723
 40
0.4844374607
 40
0.5322189264
 40
0.5838136976
 40
0.639632785
 40
0.7002382026
 40
0.7661454796
 40
0.8377950257
 40
0.9156001392
 40
1.0
 40
1.0
 40
1.0
 40
1.0
 10
-36.3247386643
 20
-45.5742841955
 30
0.0
 10
-36.2029946527
 20
-45.5775387436
 30
0.0
 10
-35.9593154885
 20
-45.584181061
 30
0.0
 10
-35.5942776612
 20
-45.59452517
 30
0.0
 10
-35.2292453951
 20
-45.6051339435
 30
0.0
 10
-34.8639705713
 20
-45.6140058047
 30
0.0
 10
-34.4983424247
 20
-45.6190746165
 30
0.0
 10
-34.1335196619
 20
-45.6207466501
 30
0.0
 10
-33.7700461177
 20
-45.6235407079
 30
0.0
 10
-33.4035214959
 20
-45.6265873425
 30
0.0
 10
-33.0246058836
 20
-45.6301352736
 30
0.0
 10
-32.6197447188
 20
-45.6336304858
 30
0.0
 10
-32.1745935125
 20
-45.6373566474
 30
0.0
 10
-31.6770295628
 20
-45.6413109687
 30
0.0
 10
-31.1210102652
 20
-45.645614318
 30
0.0
 10
-30.5069461196
 20
-45.6499228817
 30
0.0
 10
-29.8382945995
 20
-45.6538274211
 30
0.0
 10
-29.1145866465
 20
-45.6570903233
 30
0.0
 10
-28.3304365256
 20
-45.6595744288
 30
0.0
 10
-27.4766348018
 20
-45.6615287437
 30
0.0
 10
-26.5434006756
 20
-45.6628637171
 30
0.0
 10
-25.5216019063
 20
-45.6637025257
 30
0.0
 10
-24.4032404845
 20
-45.6642713921
 30
0.0
 10
-23.1813236731
 20
-45.6651736746
 30
0.0
 10
-21.8494764486
 20
-45.6663860754
 30
0.0
 10
-20.4019884047
 20
-45.6678790357
 30
0.0
 10
-18.8338930108
 20
-45.6695876675
 30
0.0
 10
-17.1377621796
 20
-45.6714906785
 30
0.0
 10
-15.3014782208
 20
-45.6734962848
 30
0.0
 10
-13.3087725536
 20
-45.6754589873
 30
0.0
 10
-11.1430555358
 20
-45.6774555168
 30
0.0
 10
-8.7893627758
 20
-45.6795178894
 30
0.0
 10
-6.2335640024
 20
-45.6812849395
 30
0.0
 10
-4.4608235343
 20
-45.6818578888
 30
0.0
 10
-3.5384162588
 20
-45.6818579219
 30
0.0
 11
-36.3247386643
 21
-45.5742841955
 31
0.0
 11
-35.959511853
 21
-45.5842413117
 31
0.0
 11
-35.5937117094
 21
-45.5945855394
 31
0.0
 11
-35.2296120248
 21
-45.6048339777
 31
0.0
 11
-34.8643421805
 21
-45.6133630047
 31
0.0
 11
-34.4978557011
 21
-45.6185133482
 31
0.0
 11
-34.1327888395
 21
-45.620939427
 31
0.0
 11
-33.7699200911
 21
-45.6235795024
 31
0.0
 11
-33.4074334887
 21
-45.6266173182
 31
0.0
 11
-33.0332148155
 21
-45.6300106374
 31
0.0
 11
-32.6331668549
 21
-45.6334979436
 31
0.0
 11
-32.1928507176
 21
-45.6371745867
 31
0.0
 11
-31.6977607815
 21
-45.6411300773
 31
0.0
 11
-31.1404754023
 21
-45.6453998478
 31
0.0
 11
-30.5247899481
 21
-45.6496819304
 31
0.0
 11
-29.8555659171
 21
-45.6535836602
 31
0.0
 11
-29.1345208351
 21
-45.6568457461
 31
0.0
 11
-28.3536676277
 21
-45.6593913344
 31
0.0
 11
-27.5031180303
 21
-45.6613518587
 31
0.0
 11
-26.5731166652
 21
-45.6627310472
 31
0.0
 11
-25.5539663466
 21
-45.6636253301
 31
0.0
 11
-24.437722398
 21
-45.6642947034
 31
0.0
 11
-23.2180328897
 21
-45.6651800025
 31
0.0
 11
-21.8882160058
 21
-45.6663765265
 31
0.0
 11
-20.4421806917
 21
-45.6678510477
 31
0.0
 11
-18.8755686662
 21
-45.6695503791
 31
0.0
 11
-17.1839297511
 21
-45.6714308185
 31
0.0
 11
-15.3537880293
 21
-45.673407778
 31
0.0
 11
-13.3667166028
 21
-45.6753819054
 31
0.0
 11
-11.2058128341
 21
-45.6773819074
 31
0.0
 11
-8.8566369774
 21
-45.6793895523
 31
0.0
 11
-6.3056379772
 21
-45.6810849313
 31
0.0
 11
-3.5384162588
 21
-45.6818579219
 31
0.0
  0
SPLINE
  5
35E
100
AcDbEntity
  8
RACCORDO
100
AcDbSpline
 62
253
  6
CONTINUOUS
 70
0
 71
3
 72
16
 73
12
 74
10
 42
0.0000001
 43
0.0000001
 44
0.0000000001
 12
0.076969018
 22
-2.8885632068
 32
0.0
 13
2.8885577401
 23
-0.0771739059
 33
0.0
 40
0.0
 40
0.0
 40
0.0
 40
0.0
 40
0.1123183676
 40
0.2159170792
 40
0.315630186
 40
0.4145394187
 40
0.5153571661
 40
0.6211401717
 40
0.7358858512
 40
0.8621011589
 40
1.0
 40
1.0
 40
1.0
 40
1.0
 10
-38.1828929333
 20
-43.7159449664
 30
0.0
 10
-38.1800112552
 20
-43.8240912011
 30
0.0
 10
-38.1555681123
 20
-44.03193466
 30
0.0
 10
-38.0704122441
 20
-44.324965913
 30
0.0
 10
-37.9474863967
 20
-44.5900428605
 30
0.0
 10
-37.788044291
 20
-44.8316483724
 30
0.0
 10
-37.5904934874
 20
-45.0512404392
 30
0.0
 10
-37.3496357162
 20
-45.2476710164
 30
0.0
 10
-37.0580890388
 20
-45.4140417432
 30
0.0
 10
-36.7118423844
 20
-45.5355596877
 30
0.0
 10
-36.4575149192
 20
-45.5707367981
 30
0.0
 10
-36.3247386643
 20
-45.5742841955
 30
0.0
 11
-38.1828929333
 21
-43.7159449664
 31
0.0
 11
-38.1454318784
 21
-44.0383296413
 31
0.0
 11
-38.0621346792
 21
-44.3258649886
 31
0.0
 11
-37.9408657956
 21
-44.5872319064
 31
0.0
 11
-37.783468778
 21
-44.8257938663
 31
0.0
 11
-37.5886417186
 21
-45.0423829
 31
0.0
 11
-37.3517214731
 21
-45.2355215859
 31
0.0
 11
-37.063738243
 21
-45.39984706
 31
0.0
 11
-36.7195630184
 21
-45.5204995269
 31
0.0
 11
-36.3247386643
 21
-45.5742841955
 31
0.0
  0
SPLINE
  5
35F
100
AcDbEntity
  8
RACCORDO
100
AcDbSpline
 62
253
  6
CONTINUOUS
 70
0
 71
3
 72
30
 73
26
 74
24
 42
0.0000001
 43
0.0000001
 44
0.0000000001
 12
-0.0615934594
 22
32.7499500205
 32
0.0
 13
0.000000328
 23
32.7500079405
 33
0.0
 40
0.0
 40
0.0
 40
0.0
 40
0.0
 40
0.0131018452
 40
0.0275254194
 40
0.0432087276
 40
0.0602403761
 40
0.0789631981
 40
0.0997532881
 40
0.1230539815
 40
0.1493155858
 40
0.1786547209
 40
0.2108686771
 40
0.2459289352
 40
0.283998123
 40
0.3252440419
 40
0.3698728699
 40
0.4181608994
 40
0.4704102093
 40
0.5269939442
 40
0.5883565978
 40
0.6555613815
 40
0.7299505245
 40
0.8120474899
 40
0.9019922808
 40
1.0
 40
1.0
 40
1.0
 40
1.0
 10
55.4807941153
 20
-43.6805906521
 30
0.0
 10
55.4805251193
 20
-43.5375623935
 30
0.0
 10
55.4800462984
 20
-43.2370768561
 30
0.0
 10
55.4795371694
 20
-42.7653817234
 30
0.0
 10
55.4792010547
 20
-42.2507860676
 30
0.0
 10
55.4789973579
 20
-41.6892568825
 30
0.0
 10
55.4788052723
 20
-41.0719786443
 30
0.0
 10
55.4785536478
 20
-40.3862633311
 30
0.0
 10
55.4781964044
 20
-39.6182496621
 30
0.0
 10
55.4777963221
 20
-38.7569089048
 30
0.0
 10
55.4774658276
 20
-37.7982649651
 30
0.0
 10
55.4772403672
 20
-36.7435689999
 30
0.0
 10
55.4771063836
 20
-35.5935699213
 30
0.0
 10
55.4770578113
 20
-34.3449718862
 30
0.0
 10
55.4770758018
 20
-32.9919169379
 30
0.0
 10
55.4771068894
 20
-31.5273062741
 30
0.0
 10
55.4771126807
 20
-29.9425752291
 30
0.0
 10
55.4770907023
 20
-28.2273364181
 30
0.0
 10
55.4770264642
 20
-26.3693662607
 30
0.0
 10
55.4769201507
 20
-24.3481321443
 30
0.0
 10
55.4767793837
 20
-22.1325222768
 30
0.0
 10
55.4766197229
 20
-19.6905627849
 30
0.0
 10
55.4764795218
 20
-17.0003581521
 30
0.0
 10
55.476378811
 20
-14.0523173315
 30
0.0
 10
55.4763524077
 20
-12.0005019318
 30
0.0
 10
55.4763524184
 20
-10.9305840708
 30
0.0
 11
55.4807941153
 21
-43.6805906521
 31
0.0
 11
55.4801042927
 21
-43.2515056721
 31
0.0
 11
55.4795841629
 21
-42.7791337876
 31
0.0
 11
55.4792345046
 21
-42.2655054398
 31
0.0
 11
55.4790086226
 21
-41.707718862
 31
0.0
 11
55.4788068937
 21
-41.0945463265
 31
0.0
 11
55.4785531958
 21
-40.4136707598
 31
0.0
 11
55.4782115191
 21
-39.6505729443
 31
0.0
 11
55.4778281407
 21
-38.7905052806
 31
0.0
 11
55.4774966436
 21
-37.8296484294
 31
0.0
 11
55.4772633877
 21
-36.7746411324
 31
0.0
 11
55.477124451
 21
-35.6264174109
 31
0.0
 11
55.4770695723
 21
-34.3796512098
 31
0.0
 11
55.4770770257
 21
-33.0288470366
 31
0.0
 11
55.4771019297
 21
-31.5672525678
 31
0.0
 11
55.4771083531
 21
-29.9858192176
 31
0.0
 11
55.4770853498
 21
-28.2746539022
 31
0.0
 11
55.4770229268
 21
-26.4215361358
 31
0.0
 11
55.4769200089
 21
-24.4119087465
 31
0.0
 11
55.4767837231
 21
-22.2109515524
 31
0.0
 11
55.476630346
 21
-19.7747065318
 31
0.0
 11
55.4764916648
 21
-17.0860302678
 31
0.0
 11
55.4763918236
 21
-14.1403376534
 31
0.0
 11
55.4763524184
 21
-10.9305840708
 31
0.0
  0
SPLINE
  5
360
100
AcDbEntity
  8
RACCORDO
100
AcDbSpline
 62
253
  6
CONTINUOUS
 70
0
 71
3
 72
34
 73
30
 74
28
 42
0.0000001
 43
0.0000001
 44
0.0000000001
 12
-0.0000003406
 22
32.7499434431
 32
0.0
 13
0.0615968088
 23
32.7498855167
 33
0.0
 40
0.0
 40
0.0
 40
0.0
 40
0.0
 40
0.0966350017
 40
0.1845062268
 40
0.2640675977
 40
0.3358716454
 40
0.4006983983
 40
0.4594385529
 40
0.51290026
 40
0.5616271641
 40
0.6061106224
 40
0.6468225548
 40
0.6842194156
 40
0.7186973528
 40
0.7504055096
 40
0.7794698344
 40
0.8061867976
 40
0.8308338211
 40
0.8535222889
 40
0.8743846945
 40
0.8935875461
 40
0.9112199475
 40
0.9272834242
 40
0.9418482899
 40
0.9551135703
 40
0.9673361956
 40
0.978777507
 40
0.9896159702
 40
1.0
 40
1.0
 40
1.0
 40
1.0
 10
55.4763524184
 20
12.5694159315
 30
0.0
 10
55.4763524074
 20
13.6243462119
 30
0.0
 10
55.4763779803
 20
15.6385357096
 30
0.0
 10
55.476474919
 20
18.5212686714
 30
0.0
 10
55.476608417
 20
21.132930851
 30
0.0
 10
55.4767608
 20
23.4930246428
 30
0.0
 10
55.4768980747
 20
25.6258205497
 30
0.0
 10
55.4770048034
 20
27.5583795859
 30
0.0
 10
55.4770748533
 20
29.3151822434
 30
0.0
 10
55.4771070556
 20
30.9163495703
 30
0.0
 10
55.4771117032
 20
32.3783320966
 30
0.0
 10
55.4770974248
 20
33.716628531
 30
0.0
 10
55.4770689555
 20
34.9456982147
 30
0.0
 10
55.4770623469
 20
36.0764768521
 30
0.0
 10
55.4771029267
 20
37.1162921277
 30
0.0
 10
55.4772001613
 20
38.0713835794
 30
0.0
 10
55.4773538703
 20
38.9493911179
 30
0.0
 10
55.4775695672
 20
39.7577956566
 30
0.0
 10
55.4778479122
 20
40.5022880288
 30
0.0
 10
55.4781641045
 20
41.187348271
 30
0.0
 10
55.4784564373
 20
41.8172132212
 30
0.0
 10
55.4786974579
 20
42.3946899728
 30
0.0
 10
55.4788686224
 20
42.9215354887
 30
0.0
 10
55.4790231484
 20
43.4007066853
 30
0.0
 10
55.4791877959
 20
43.8379486554
 30
0.0
 10
55.4794218608
 20
44.2410918494
 30
0.0
 10
55.4797559695
 20
44.6177422571
 30
0.0
 10
55.4801974596
 20
44.9743212406
 30
0.0
 10
55.4805808008
 20
45.2059994141
 30
0.0
 10
55.4807940085
 20
45.3193580095
 30
0.0
 11
55.4763524184
 21
12.5694159315
 31
0.0
 11
55.4763907597
 21
15.7342067723
 31
0.0
 11
55.4764867739
 21
18.6119844228
 31
0.0
 11
55.4766188862
 21
21.2176148161
 31
0.0
 11
55.4767656344
 21
23.5691933114
 31
0.0
 11
55.476898959
 21
25.6922658009
 31
0.0
 11
55.4770028316
 21
27.6160025383
 31
0.0
 11
55.4770708804
 21
29.3668704205
 31
0.0
 11
55.4771032786
 21
30.9626737729
 31
0.0
 11
55.4771083228
 21
32.4195045179
 31
0.0
 11
55.4770941444
 21
33.7528179989
 31
0.0
 11
55.4770718962
 21
34.9775630759
 31
0.0
 11
55.4770709678
 21
36.1067135697
 31
0.0
 11
55.4771153914
 21
37.1451539093
 31
0.0
 11
55.4772148812
 21
38.0970088976
 31
0.0
 11
55.4773717457
 21
38.9719879172
 31
0.0
 11
55.4775902701
 21
39.7791765134
 31
0.0
 11
55.477866679
 21
40.5222225008
 31
0.0
 11
55.4781727706
 21
41.2054650362
 31
0.0
 11
55.478459285
 21
41.834357273
 31
0.0
 11
55.478695291
 21
42.411817373
 31
0.0
 11
55.4788737168
 21
42.9378952962
 31
0.0
 11
55.4790322231
 21
43.4148937983
 31
0.0
 11
55.4792074602
 21
43.849330946
 31
0.0
 11
55.479447933
 21
44.2496211627
 31
0.0
 11
55.4797843252
 21
44.6243233116
 31
0.0
 11
55.4802287695
 21
44.9792820915
 31
0.0
 11
55.4807940085
 21
45.3193580095
 31
0.0
  0
SPLINE
  5
361
100
AcDbEntity
  8
RACCORDO
100
AcDbSpline
 62
253
  6
CONTINUOUS
 70
0
 71
3
 72
41
 73
37
 74
35
 42
0.0000001
 43
0.0000001
 44
0.0000000001
 12
-32.7499415457
 22
-0.0632703506
 32
0.0
 13
-32.7500026623
 23
0.0000003982
 33
0.0
 40
0.0
 40
0.0
 40
0.0
 40
0.0
 40
0.0102108401
 40
0.0206494842
 40
0.0312228143
 40
0.0416915763
 40
0.0517730663
 40
0.061570594
 40
0.0713830743
 40
0.0814757335
 40
0.0920926259
 40
0.1034393774
 40
0.1157282098
 40
0.1291713482
 40
0.143967887
 40
0.1602037382
 40
0.1778356965
 40
0.1968248827
 40
0.2171883779
 40
0.2391433074
 40
0.2629480114
 40
0.2888589029
 40
0.3171322199
 40
0.348007953
 40
0.3816698678
 40
0.4183004067
 40
0.4580910939
 40
0.5011961371
 40
0.5477355724
 40
0.597884475
 40
0.6520911114
 40
0.7108589314
 40
0.774642956
 40
0.8438370546
 40
0.9188213677
 40
1.0
 40
1.0
 40
1.0
 40
1.0
 10
52.7115851286
 20
48.0885829483
 30
0.0
 10
52.6001169898
 20
48.0883676005
 30
0.0
 10
52.3746937531
 20
48.0879836255
 30
0.0
 10
52.0338449258
 20
48.0875562216
 30
0.0
 10
51.6901802983
 20
48.0872767192
 30
0.0
 10
51.3504145295
 20
48.0871251538
 30
0.0
 10
51.0191179187
 20
48.0870397029
 30
0.0
 10
50.6949857181
 20
48.0869477055
 30
0.0
 10
50.3707316
 20
48.0868174185
 30
0.0
 10
50.0375327588
 20
48.086666798
 30
0.0
 10
49.6875847945
 20
48.0865004244
 30
0.0
 10
49.3136619371
 20
48.0863284717
 30
0.0
 10
48.9088858923
 20
48.0861497527
 30
0.0
 10
48.4664496642
 20
48.0859672412
 30
0.0
 10
47.9809251406
 20
48.0857866345
 30
0.0
 10
47.449672654
 20
48.0856191335
 30
0.0
 10
46.8726504205
 20
48.0854774511
 30
0.0
 10
46.250568063
 20
48.0853625351
 30
0.0
 10
45.5812932624
 20
48.0852721898
 30
0.0
 10
44.8594490533
 20
48.085196843
 30
0.0
 10
44.077045761
 20
48.0851346024
 30
0.0
 10
43.225666732
 20
48.0850861548
 30
0.0
 10
42.2970956273
 20
48.0850487903
 30
0.0
 10
41.2839091785
 20
48.0850171895
 30
0.0
 10
40.1794897164
 20
48.084979315
 30
0.0
 10
38.9777486652
 20
48.0849320979
 30
0.0
 10
37.672920121
 20
48.0848746256
 30
0.0
 10
36.2599194495
 20
48.0848048538
 30
0.0
 10
34.7338415843
 20
48.0847231961
 30
0.0
 10
33.0865713161
 20
48.0846339641
 30
0.0
 10
31.3058078377
 20
48.0845459202
 30
0.0
 10
29.3761942652
 20
48.0844604242
 30
0.0
 10
27.2829675503
 20
48.0843715241
 30
0.0
 10
25.0127107707
 20
48.0842820776
 30
0.0
 10
22.5525628409
 20
48.0842074766
 30
0.0
 10
20.8477838819
 20
48.084184597
 30
0.0
 10
19.9615837407
 20
48.0841846078
 30
0.0
 11
52.7115851286
 21
48.0885829483
 31
0.0
 11
52.3771805746
 21
48.0880126327
 31
0.0
 11
52.0353152207
 21
48.0875830109
 31
0.0
 11
51.68903875
 21
48.0872970889
 31
0.0
 11
51.3461868084
 21
48.0871342223
 31
0.0
 11
51.0160179974
 21
48.0870374579
 31
0.0
 11
50.6951489519
 21
48.0869414474
 31
0.0
 11
50.3737902214
 21
48.0868159946
 31
0.0
 11
50.0432556382
 21
48.0866681296
 31
0.0
 11
49.6955524219
 21
48.0865050843
 31
0.0
 11
49.3239463206
 21
48.0863342915
 31
0.0
 11
48.9214870637
 21
48.0861571751
 31
0.0
 11
48.4812242847
 21
48.0859761676
 31
0.0
 11
47.9966376329
 21
48.0857968453
 31
0.0
 11
47.4649134894
 21
48.0856298657
 31
0.0
 11
46.887466824
 21
48.0854867249
 31
0.0
 11
46.2655709363
 21
48.0853702819
 31
0.0
 11
45.5986664211
 21
48.0852778093
 31
0.0
 11
44.8796424257
 21
48.0852018061
 31
0.0
 11
44.1000383105
 21
48.0851392492
 31
0.0
 11
43.2514565449
 21
48.0850898767
 31
0.0
 11
42.3255053395
 21
48.0850512685
 31
0.0
 11
41.314324997
 21
48.0850176376
 31
0.0
 11
40.2118971992
 21
48.084979547
 31
0.0
 11
39.0122469533
 21
48.0849325419
 31
0.0
 11
37.7091018435
 21
48.0848751074
 31
0.0
 11
36.2974115668
 21
48.0848057707
 31
0.0
 11
34.7732449387
 21
48.0847251428
 31
0.0
 11
33.1308682475
 21
48.0846376075
 31
0.0
 11
31.3556007614
 21
48.0845498398
 31
0.0
 11
29.4309545037
 21
48.0844634156
 31
0.0
 11
27.3420275303
 21
48.0843750581
 31
0.0
 11
25.0759206163
 21
48.0842878581
 31
0.0
 11
22.6201841643
 21
48.0842161709
 31
0.0
 11
19.9615837407
 21
48.0841846078
 31
0.0
  0
LINE
  5
362
100
AcDbEntity
  8
RACCORDO
100
AcDbLine
 62
253
  6
CONTINUOUS
 10
30.4451076018
 20
-25.1168522582
 11
30.4485298976
 21
-24.713629332
  0
SPLINE
  5
363
100
AcDbEntity
  8
RACCORDO
100
AcDbSpline
 62
253
  6
CONTINUOUS
 70
0
 71
3
 72
18
 73
14
 74
12
 42
0.0000001
 43
0.0000001
 44
0.0000000001
 12
-10.5004640687
 22
-0.020534239
 32
0.0
 13
-10.5004841466
 23
0.0000000803
 33
0.0
 40
0.0
 40
0.0
 40
0.0
 40
0.0
 40
0.11731707
 40
0.2306966516
 40
0.3464537743
 40
0.4611889559
 40
0.5639307971
 40
0.6555799246
 40
0.7382660483
 40
0.8131127921
 40
0.8811201334
 40
0.9431328262
 40
1.0
 40
1.0
 40
1.0
 40
1.0
 10
30.4620660773
 20
25.0605335455
 30
0.0
 10
30.0514381844
 20
25.0597305399
 30
0.0
 10
29.2439634088
 20
25.0585511058
 30
0.0
 10
28.0313195583
 20
25.0576642193
 30
0.0
 10
26.8277124789
 20
25.0573271543
 30
0.0
 10
25.6613391872
 20
25.0573742666
 30
0.0
 10
24.5793477758
 20
25.0574368349
 30
0.0
 10
23.6095332365
 20
25.0573913857
 30
0.0
 10
22.7373560431
 20
25.0573303841
 30
0.0
 10
21.947928916
 20
25.0572750388
 30
0.0
 10
21.2308621327
 20
25.0572352452
 30
0.0
 10
20.576726745
 20
25.0572128606
 30
0.0
 10
20.1606280268
 20
25.0572080387
 30
0.0
 10
19.9615837412
 20
25.0572080402
 30
0.0
 11
30.4620660773
 21
25.0605335455
 31
0.0
 11
29.2301814328
 21
25.0586832622
 31
0.0
 11
28.0396412928
 21
25.0577589288
 31
0.0
 11
26.8241355165
 21
25.0573913561
 31
0.0
 11
25.6193605617
 21
25.0573796561
 31
0.0
 11
24.5405214871
 21
25.0574191818
 31
0.0
 11
23.5781612773
 21
25.0573860236
 31
0.0
 11
22.709916948
 21
25.0573284397
 31
0.0
 11
21.9239899039
 21
25.0572753662
 31
0.0
 11
21.2098798952
 21
25.0572367296
 31
0.0
 11
20.558716598
 21
25.0572148067
 31
0.0
 11
19.9615837412
 21
25.0572080402
 31
0.0
  0
SPLINE
  5
364
100
AcDbEntity
  8
RACCORDO
100
AcDbSpline
 62
253
  6
CONTINUOUS
 70
0
 71
3
 72
11
 73
7
 74
5
 42
0.0000001
 43
0.0000001
 44
0.0000000001
 12
0.0015715306
 22
-1.599152956
 32
0.0
 13
0.0031838445
 23
-1.5991505587
 33
0.0
 40
0.0
 40
0.0
 40
0.0
 40
0.0
 40
0.3136313791
 40
0.6450642844
 40
0.8982788001
 40
1.0
 40
1.0
 40
1.0
 40
1.0
 10
30.4620664183
 20
25.0605661062
 30
0.0
 10
30.462230712
 20
24.8933845906
 30
0.0
 10
30.4665169147
 20
24.5495360632
 30
0.0
 10
30.4599439827
 20
24.0707190265
 30
0.0
 10
30.4617257049
 20
23.7048474841
 30
0.0
 10
30.4614757788
 20
23.5156485282
 30
0.0
 10
30.4615837336
 20
23.4614260236
 30
0.0
 11
30.4620664183
 21
25.0605661062
 31
0.0
 11
30.4642696119
 21
24.5590261562
 31
0.0
 11
30.4612341874
 21
24.0290226822
 31
0.0
 11
30.4615228286
 21
23.6240938483
 31
0.0
 11
30.4615837336
 21
23.4614260236
 31
0.0
  0
SPLINE
  5
365
100
AcDbEntity
  8
RACCORDO
100
AcDbSpline
 62
253
  6
CONTINUOUS
 70
0
 71
3
 72
21
 73
17
 74
15
 42
0.0000001
 43
0.0000001
 44
0.0000000001
 12
-0.001554681
 22
3.12178178
 32
0.0
 13
-3.1217618217
 23
-0.0112706345
 33
0.0
 40
0.0
 40
0.0
 40
0.0
 40
0.0
 40
0.0806229173
 40
0.1543361876
 40
0.2217302482
 40
0.2857013619
 40
0.3508784215
 40
0.4185269494
 40
0.4865746098
 40
0.5522628758
 40
0.6153498936
 40
0.6795274976
 40
0.7487994619
 40
0.8249489418
 40
0.9085075914
 40
1.0
 40
1.0
 40
1.0
 40
1.0
 10
32.4505591265
 20
23.0700262812
 30
0.0
 10
32.4505173455
 20
23.1539219993
 30
0.0
 10
32.4400238444
 20
23.314715113
 30
0.0
 10
32.3968486987
 20
23.5418707047
 30
0.0
 10
32.3338608406
 20
23.7461893306
 30
0.0
 10
32.2537701536
 20
23.9347402916
 30
0.0
 10
32.154938089
 20
24.1145071991
 30
0.0
 10
32.0357614284
 20
24.2866667811
 30
0.0
 10
31.8997021471
 20
24.4465326802
 30
0.0
 10
31.7511265895
 20
24.5880500585
 30
0.0
 10
31.5920894728
 20
24.7111591109
 30
0.0
 10
31.4182913637
 20
24.8196236142
 30
0.0
 10
31.2216860606
 20
24.9150636134
 30
0.0
 10
30.9961898263
 20
24.9938686563
 30
0.0
 10
30.739769604
 20
25.048263838
 30
0.0
 10
30.5572722543
 20
25.0609098321
 30
0.0
 10
30.4620664183
 20
25.0605661062
 30
0.0
 11
32.4505591265
 21
23.0700262812
 31
0.0
 11
32.4342167445
 21
23.3211823401
 31
0.0
 11
32.3912892078
 21
23.5472596623
 31
0.0
 11
32.3293396211
 21
23.7483218982
 31
0.0
 11
32.2512606603
 21
23.9321297224
 31
0.0
 11
32.1532660478
 21
24.1104455097
 31
0.0
 11
32.0332217801
 21
24.2841925734
 31
0.0
 11
31.8953641522
 21
24.4458148732
 31
0.0
 11
31.7468389483
 21
24.5872068652
 31
0.0
 11
31.5911095831
 21
24.7077691948
 31
0.0
 11
31.4211388608
 21
24.8138327363
 31
0.0
 11
31.2265936177
 21
24.908262967
 31
0.0
 11
31.0021793973
 21
24.9866852149
 31
0.0
 11
30.7470003485
 21
25.0407903721
 31
0.0
 11
30.4620664183
 21
25.0605661062
 31
0.0
  0
SPLINE
  5
366
100
AcDbEntity
  8
RACCORDO
100
AcDbSpline
 62
253
  6
CONTINUOUS
 70
0
 71
3
 72
10
 73
6
 74
4
 42
0.0000001
 43
0.0000001
 44
0.0000000001
 12
-1.5969743435
 22
0.0017982142
 32
0.0
 13
-1.5969730088
 23
0.0027380103
 33
0.0
 40
0.0
 40
0.0
 40
0.0
 40
0.0
 40
0.4273538857
 40
0.8279207554
 40
1.0
 40
1.0
 40
1.0
 40
1.0
 10
32.4505591265
 20
23.0700262812
 30
0.0
 10
32.2230680628
 20
23.0702824391
 30
0.0
 10
31.7823520078
 20
23.0646132621
 30
0.0
 10
31.2500302922
 20
23.0699216897
 30
0.0
 10
30.9451958041
 20
23.0692588829
 30
0.0
 10
30.8535938344
 20
23.0694159345
 30
0.0
 11
32.4505591265
 21
23.0700262812
 31
0.0
 11
31.7680917279
 21
23.0671113161
 31
0.0
 11
31.1284001316
 21
23.0693228803
 31
0.0
 11
30.8535938344
 21
23.0694159345
 31
0.0
  0
SPLINE
  5
367
100
AcDbEntity
  8
RACCORDO
100
AcDbSpline
 62
253
  6
CONTINUOUS
 70
0
 71
3
 72
11
 73
7
 74
5
 42
0.0000001
 43
0.0000001
 44
0.0000000001
 12
0.0000321749
 22
10.5005188639
 32
0.0
 13
-0.0014120941
 23
10.500518769
 33
0.0
 40
0.0
 40
0.0
 40
0.0
 40
0.0
 40
0.2845344477
 40
0.5454220615
 40
0.7827501732
 40
1.0
 40
1.0
 40
1.0
 40
1.0
 10
32.4493757778
 20
12.569507645
 30
0.0
 10
32.4493788294
 20
13.5654274235
 30
0.0
 10
32.4489133191
 20
15.4744989737
 30
0.0
 10
32.4496638813
 20
18.2142599135
 30
0.0
 10
32.4514977081
 20
20.7185127225
 30
0.0
 10
32.4506751338
 20
22.3096141543
 30
0.0
 10
32.4505728747
 20
23.0700261155
 30
0.0
 11
32.4493757778
 21
12.569507645
 31
0.0
 11
32.4491621557
 21
15.5572669728
 31
0.0
 11
32.4499056315
 21
18.2967221823
 31
0.0
 11
32.4510073756
 21
20.7887902527
 31
0.0
 11
32.4505728747
 21
23.0700261155
 31
0.0
  0
SPLINE
  5
368
100
AcDbEntity
  8
RACCORDO
100
AcDbSpline
 62
253
  6
CONTINUOUS
 70
0
 71
3
 72
17
 73
13
 74
11
 42
0.0000001
 43
0.0000001
 44
0.0000000001
 12
0.0018575564
 22
10.5004210398
 32
0.0
 13
0.0000004138
 23
10.5004212041
 33
0.0
 40
0.0
 40
0.0
 40
0.0
 40
0.0
 40
0.0673010624
 40
0.1406162336
 40
0.2201303788
 40
0.3061353362
 40
0.3993334724
 40
0.5008925878
 40
0.6114645475
 40
0.7313638972
 40
0.860428638
 40
1.0
 40
1.0
 40
1.0
 40
1.0
 10
32.4505728239
 20
-21.4310048258
 30
0.0
 10
32.4506144957
 20
-21.1954416618
 30
0.0
 10
32.4507929256
 20
-20.7032651317
 30
0.0
 10
32.4510579047
 20
-19.9327779382
 30
0.0
 10
32.4510168264
 20
-19.096824427
 30
0.0
 10
32.4507110184
 20
-18.1912778121
 30
0.0
 10
32.4502062821
 20
-17.2085707891
 30
0.0
 10
32.4496008625
 20
-16.1398758505
 30
0.0
 10
32.4492104601
 20
-14.9777227966
 30
0.0
 10
32.4491236598
 20
-13.719296133
 30
0.0
 10
32.44926523
 20
-12.3593675054
 30
0.0
 10
32.4493757573
 20
-11.4191034327
 30
0.0
 10
32.4493757765
 20
-10.9305840696
 30
0.0
 11
32.4505728239
 21
-21.4310048258
 31
0.0
 11
32.4507831948
 21
-20.7243153539
 31
0.0
 11
32.4510020573
 21
-19.9544752077
 31
0.0
 11
32.450979362
 21
-19.1195431911
 31
0.0
 11
32.4506941062
 21
-18.2164549584
 31
0.0
 11
32.4502130574
 21
-17.2378353908
 31
0.0
 11
32.4496579735
 21
-16.1714220462
 31
0.0
 11
32.4492709948
 21
-15.0103699606
 31
0.0
 11
32.4491608526
 21
-13.7513762911
 31
0.0
 11
32.4492643205
 21
-12.3961421545
 31
0.0
 11
32.4493757765
 21
-10.9305840696
 31
0.0
  0
SPLINE
  5
369
100
AcDbEntity
  8
RACCORDO
100
AcDbSpline
 62
253
  6
CONTINUOUS
 70
0
 71
3
 72
10
 73
6
 74
4
 42
0.0000001
 43
0.0000001
 44
0.0000000001
 12
-1.5969740724
 22
-0.001367319
 32
0.0
 13
-1.5969723114
 23
-0.0027375558
 33
0.0
 40
0.0
 40
0.0
 40
0.0
 40
0.0
 40
0.4273348535
 40
0.8278977286
 40
1.0
 40
1.0
 40
1.0
 40
1.0
 10
32.4505591643
 20
-21.431004978
 30
0.0
 10
32.2230782706
 20
-21.4311997457
 30
0.0
 10
31.7823736278
 20
-21.4258906253
 30
0.0
 10
31.2500525126
 20
-21.4310775028
 30
0.0
 10
30.9452079893
 20
-21.4304270266
 30
0.0
 10
30.8535938019
 20
-21.4305840732
 30
0.0
 11
32.4505591643
 21
-21.431004978
 31
0.0
 11
31.7681216831
 21
-21.4282775571
 31
0.0
 11
31.1284367522
 21
-21.4304909768
 31
0.0
 11
30.8535938019
 21
-21.4305840732
 31
0.0
  0
SPLINE
  5
36A
100
AcDbEntity
  8
RACCORDO
100
AcDbSpline
 62
253
  6
CONTINUOUS
 70
0
 71
3
 72
22
 73
18
 74
16
 42
0.0000001
 43
0.0000001
 44
0.0000000001
 12
3.1222304257
 22
-0.0112743561
 32
0.0
 13
0.001368559
 23
3.1222504815
 33
0.0
 40
0.0
 40
0.0
 40
0.0
 40
0.0
 40
0.0730862402
 40
0.1400604989
 40
0.2055548105
 40
0.2720868621
 40
0.3384456187
 40
0.4015091692
 40
0.4641907735
 40
0.5304743805
 40
0.5980380484
 40
0.6618855399
 40
0.7254583249
 40
0.7921787121
 40
0.8639544884
 40
0.9325944328
 40
1.0
 40
1.0
 40
1.0
 40
1.0
 10
30.4620660926
 20
-23.4217339788
 30
0.0
 10
30.5381301202
 20
-23.4220086455
 30
0.0
 10
30.6840787426
 20
-23.4140500091
 30
0.0
 10
30.8954297075
 20
-23.3785515366
 30
0.0
 10
31.0952974242
 20
-23.3228256895
 30
0.0
 10
31.2876184773
 20
-23.2466583864
 30
0.0
 10
31.4685895613
 20
-23.1518075123
 30
0.0
 10
31.6354883844
 20
-23.0411273323
 30
0.0
 10
31.7904996578
 20
-22.9144611801
 30
0.0
 10
31.9350702056
 20
-22.7692391532
 30
0.0
 10
32.064623514
 20
-22.6089500129
 30
0.0
 10
32.1766441064
 20
-22.4393669472
 30
0.0
 10
32.2707416629
 20
-22.2601797088
 30
0.0
 10
32.3493115845
 20
-22.0647030888
 30
0.0
 10
32.4076975516
 20
-21.8566911085
 30
0.0
 10
32.442802531
 20
-21.6428600728
 30
0.0
 10
32.4505284148
 20
-21.5011573329
 30
0.0
 10
32.4505591643
 20
-21.431004978
 30
0.0
 11
30.4620660926
 21
-23.4217339788
 31
0.0
 11
30.6899197582
 21
-23.4092835664
 31
0.0
 11
30.8961441211
 21
-23.3746615395
 31
0.0
 11
31.0931204774
 21
-23.3197403382
 31
0.0
 11
31.2862577087
 21
-23.243257275
 31
0.0
 11
31.4697702416
 21
-23.147078799
 31
0.0
 11
31.6338730654
 21
-23.0382672196
 31
0.0
 11
31.7854103964
 21
-22.914420797
 31
0.0
 11
31.9314927321
 21
-22.7678263651
 31
0.0
 11
32.0642517589
 21
-22.6038896551
 31
0.0
 11
32.1739282164
 21
-22.4374244874
 31
0.0
 11
32.2662426188
 21
-22.2617076649
 31
0.0
 11
32.3439081183
 21
-22.0684090149
 31
0.0
 11
32.4044372691
 21
-21.8526361794
 31
0.0
 11
32.439127822
 21
-21.641151377
 31
0.0
 11
32.4505591643
 21
-21.431004978
 31
0.0
  0
SPLINE
  5
36B
100
AcDbEntity
  8
RACCORDO
100
AcDbSpline
 62
253
  6
CONTINUOUS
 70
0
 71
3
 72
11
 73
7
 74
5
 42
0.0000001
 43
0.0000001
 44
0.0000000001
 12
0.0015707212
 22
1.5991527252
 32
0.0
 13
0.0031839227
 23
1.599150327
 33
0.0
 40
0.0
 40
0.0
 40
0.0
 40
0.0
 40
0.313634243
 40
0.6450239969
 40
0.8982472302
 40
1.0
 40
1.0
 40
1.0
 40
1.0
 10
30.4620660926
 20
-23.4217339788
 30
0.0
 10
30.4622303032
 20
-23.2545509606
 30
0.0
 10
30.4665170994
 20
-22.9107239591
 30
0.0
 10
30.4599437527
 20
-22.4319238228
 30
0.0
 10
30.4617257761
 20
-22.0660538592
 30
0.0
 10
30.4614757404
 20
-21.8768334554
 30
0.0
 10
30.4615837314
 20
-21.8225941304
 30
0.0
 11
30.4620660926
 21
-23.4217339788
 31
0.0
 11
30.4642695935
 21
-22.9201895229
 31
0.0
 11
30.4612341249
 21
-22.3902551328
 31
0.0
 11
30.4615228127
 21
-21.9853124165
 31
0.0
 11
30.4615837314
 21
-21.8225941304
 31
0.0
  0
SPLINE
  5
36C
100
AcDbEntity
  8
RACCORDO
100
AcDbSpline
 62
253
  6
CONTINUOUS
 70
0
 71
3
 72
19
 73
15
 74
13
 42
0.0000001
 43
0.0000001
 44
0.0000000001
 12
10.5003774244
 22
0.0000000172
 32
0.0
 13
10.5003572521
 23
-0.0205823534
 33
0.0
 40
0.0
 40
0.0
 40
0.0
 40
0.0
 40
0.0595363067
 40
0.1247206991
 40
0.1957049782
 40
0.272725789
 40
0.3562506804
 40
0.446938939
 40
0.5455708866
 40
0.6492916633
 40
0.749691598
 40
0.8416035381
 40
0.9250958486
 40
1.0
 40
1.0
 40
1.0
 40
1.0
 10
19.9616902608
 20
-23.4183761812
 30
0.0
 10
20.1700748246
 20
-23.4183761809
 30
0.0
 10
20.6066129622
 20
-23.4183814815
 30
0.0
 10
21.2916050067
 20
-23.41840597
 30
0.0
 10
22.0377950145
 20
-23.4184490711
 30
0.0
 10
22.8481790754
 20
-23.418506239
 30
0.0
 10
23.7275295432
 20
-23.4185684706
 30
0.0
 10
24.6825217114
 20
-23.4185999278
 30
0.0
 10
25.7082020171
 20
-23.4185415048
 30
0.0
 10
26.7678744145
 20
-23.4185060378
 30
0.0
 10
27.8040259316
 20
-23.4187484501
 30
0.0
 10
28.7693751141
 20
-23.4193510452
 30
0.0
 10
29.6454855723
 20
-23.4202667176
 30
0.0
 10
30.1998923929
 20
-23.4211876895
 30
0.0
 10
30.4620658427
 20
-23.4217015907
 30
0.0
 11
19.9616902608
 21
-23.4183761812
 31
0.0
 11
20.5868439521
 21
-23.4183835898
 31
0.0
 11
21.2713046732
 21
-23.4184076483
 31
0.0
 11
22.0166663937
 21
-23.4184493739
 31
0.0
 11
22.8254139757
 21
-23.4185046622
 31
0.0
 11
23.702456857
 21
-23.4185613938
 31
0.0
 11
24.6547178
 21
-23.4185853426
 31
0.0
 11
25.6903904758
 21
-23.4185464721
 31
0.0
 11
26.779497778
 21
-23.4185549808
 31
0.0
 11
27.8337349503
 21
-23.4188270002
 31
0.0
 11
28.7988448158
 21
-23.4194403985
 31
0.0
 11
29.6755450708
 21
-23.4203930268
 31
0.0
 11
30.4620658427
 21
-23.4217015907
 31
0.0
  0
SPLINE
  5
36D
100
AcDbEntity
  8
RACCORDO
100
AcDbSpline
 62
253
  6
CONTINUOUS
 70
0
 71
3
 72
18
 73
14
 74
12
 42
0.0000001
 43
0.0000001
 44
0.0000000001
 12
10.5004640687
 22
0.0205342387
 32
0.0
 13
10.5004841466
 23
-0.0000000803
 33
0.0
 40
0.0
 40
0.0
 40
0.0
 40
0.0
 40
0.1173171559
 40
0.2306968725
 40
0.346454117
 40
0.4611893036
 40
0.5639310635
 40
0.6555801234
 40
0.7382661968
 40
0.813112896
 40
0.8811201972
 40
0.9431328549
 40
1.0
 40
1.0
 40
1.0
 40
1.0
 10
-14.0388985949
 20
-23.4217016848
 30
0.0
 10
-13.6282704016
 20
-23.4208986786
 30
0.0
 10
-12.820794853
 20
-23.4197192437
 30
0.0
 10
-11.6081498031
 20
-23.4188323573
 30
0.0
 10
-10.404541807
 20
-23.4184952933
 30
0.0
 10
-9.2381683559
 20
-23.4185424062
 30
0.0
 10
-8.156177448
 20
-23.4186049741
 30
0.0
 10
-7.1863636062
 20
-23.4185595249
 30
0.0
 10
-6.3141869815
 20
-23.4184985232
 30
0.0
 10
-5.5247603269
 20
-23.418443178
 30
0.0
 10
-4.8076939629
 20
-23.4184033845
 30
0.0
 10
-4.1535589389
 20
-23.4183809999
 30
0.0
 10
-3.7374604441
 20
-23.418376178
 30
0.0
 10
-3.5384162588
 20
-23.4183761795
 30
0.0
 11
-14.0388985949
 21
-23.4217016848
 31
0.0
 11
-12.807013049
 21
-23.4198514006
 31
0.0
 11
-11.6164714914
 21
-23.4189270669
 31
0.0
 11
-10.4009644362
 21
-23.4185594949
 31
0.0
 11
-9.1961894278
 21
-23.4185477956
 31
0.0
 11
-8.1173512074
 21
-23.4185873211
 31
0.0
 11
-7.1549917076
 21
-23.4185541628
 31
0.0
 11
-6.2867479064
 21
-23.4184965788
 31
0.0
 11
-5.5008213304
 21
-23.4184435055
 31
0.0
 11
-4.7867117429
 21
-23.4184048689
 31
0.0
 11
-4.1355488144
 21
-23.418382946
 31
0.0
 11
-3.5384162588
 21
-23.4183761795
 31
0.0
  0
SPLINE
  5
36E
100
AcDbEntity
  8
RACCORDO
100
AcDbSpline
 62
253
  6
CONTINUOUS
 70
0
 71
3
 72
11
 73
7
 74
5
 42
0.0000001
 43
0.0000001
 44
0.0000000001
 12
-0.0015715305
 22
1.599152956
 32
0.0
 13
-0.0031838447
 23
1.5991505587
 33
0.0
 40
0.0
 40
0.0
 40
0.0
 40
0.0
 40
0.3136313836
 40
0.6450642871
 40
0.8982788009
 40
1.0
 40
1.0
 40
1.0
 40
1.0
 10
-14.0388989359
 20
-23.4217342455
 30
0.0
 10
-14.0390632297
 20
-23.2545527275
 30
0.0
 10
-14.0433494331
 20
-22.9107041987
 30
0.0
 10
-14.0367765003
 20
-22.4318871615
 30
0.0
 10
-14.0385582226
 20
-22.0660156215
 30
0.0
 10
-14.0383082964
 20
-21.876816667
 30
0.0
 10
-14.0384162513
 20
-21.8225941629
 30
0.0
 11
-14.0388989359
 21
-23.4217342455
 31
0.0
 11
-14.0411021299
 21
-22.9201942883
 31
0.0
 11
-14.0380667051
 21
-22.3901908172
 31
0.0
 11
-14.0383553463
 21
-21.9852619863
 31
0.0
 11
-14.0384162513
 21
-21.8225941629
 31
0.0
  0
SPLINE
  5
36F
100
AcDbEntity
  8
RACCORDO
100
AcDbSpline
 62
253
  6
CONTINUOUS
 70
0
 71
3
 72
22
 73
18
 74
16
 42
0.0000001
 43
0.0000001
 44
0.0000000001
 12
0.0013089999
 22
-3.1222000596
 32
0.0
 13
3.1221800074
 23
0.0112661992
 33
0.0
 40
0.0
 40
0.0
 40
0.0
 40
0.0
 40
0.0645229368
 40
0.1284520362
 40
0.1925893119
 40
0.2557355748
 40
0.3164407186
 40
0.3795603308
 40
0.4444851754
 40
0.5088677486
 40
0.5705517881
 40
0.630295171
 40
0.6921950999
 40
0.7592327273
 40
0.8325854584
 40
0.9126797301
 40
1.0
 40
1.0
 40
1.0
 40
1.0
 10
-16.0273916147
 20
-21.4310020579
 30
0.0
 10
-16.0273634612
 20
-21.4981532302
 30
0.0
 10
-16.0203811147
 20
-21.6319366863
 30
0.0
 10
-15.989504564
 20
-21.8303077011
 30
0.0
 10
-15.9391020968
 20
-22.0231766949
 30
0.0
 10
-15.870884661
 20
-22.2068825828
 30
0.0
 10
-15.7857732266
 20
-22.3821924905
 30
0.0
 10
-15.6830642524
 20
-22.5500085679
 30
0.0
 10
-15.5623618573
 20
-22.7101954199
 30
0.0
 10
-15.4278503985
 20
-22.8569841393
 30
0.0
 10
-15.2833341421
 20
-22.9859499916
 30
0.0
 10
-15.1292281526
 20
-23.0989158629
 30
0.0
 10
-14.9601317295
 20
-23.199367742
 30
0.0
 10
-14.7687238855
 20
-23.2879858885
 30
0.0
 10
-14.5505352498
 20
-23.3607350535
 30
0.0
 10
-14.3043074767
 20
-23.4105514941
 30
0.0
 10
-14.1297754695
 20
-23.422062168
 30
0.0
 10
-14.0388989359
 20
-23.4217342455
 30
0.0
 11
-16.0273916147
 21
-21.4310020579
 31
0.0
 11
-16.0169144228
 21
-21.6321829594
 31
0.0
 11
-15.9862423096
 21
-21.8294116697
 31
0.0
 11
-15.9356320914
 21
-22.0231600566
 31
0.0
 11
-15.8670261776
 21
-22.2079935876
 31
0.0
 11
-15.7842253207
 21
-22.3784840899
 31
0.0
 11
-15.6814606672
 21
-22.5466412439
 31
0.0
 11
-15.5595110745
 21
-22.7085640057
 31
0.0
 11
-15.4235337062
 21
-22.8566089403
 31
0.0
 11
-15.2798556223
 21
-22.9848567037
 31
0.0
 11
-15.1294096105
 21
-23.0951279181
 31
0.0
 11
-14.9632502897
 21
-23.1938297189
 31
0.0
 11
-14.7733105324
 21
-23.2817582745
 31
0.0
 11
-14.556046182
 21
-23.3541961276
 31
0.0
 11
-14.3109373291
 21
-23.4037626108
 31
0.0
 11
-14.0388989359
 21
-23.4217342455
 31
0.0
  0
SPLINE
  5
370
100
AcDbEntity
  8
RACCORDO
100
AcDbSpline
 62
253
  6
CONTINUOUS
 70
0
 71
3
 72
10
 73
6
 74
4
 42
0.0000001
 43
0.0000001
 44
0.0000000001
 12
1.5969739535
 22
-0.0013601361
 32
0.0
 13
1.5969721856
 23
-0.0027380057
 33
0.0
 40
0.0
 40
0.0
 40
0.0
 40
0.0
 40
0.427350902
 40
0.827919737
 40
1.0
 40
1.0
 40
1.0
 40
1.0
 10
-16.0273916147
 20
-21.4310020579
 30
0.0
 10
-15.7999021949
 20
-21.4311958097
 30
0.0
 10
-15.3591858474
 20
-21.4258957854
 30
0.0
 10
-14.8268647731
 20
-21.4310769456
 30
0.0
 10
-14.5220288167
 20
-21.4304270215
 30
0.0
 10
-14.4304263521
 20
-21.4305840738
 30
0.0
 11
-16.0273916147
 21
-21.4310020579
 31
0.0
 11
-15.3449285388
 21
-21.4282793532
 31
0.0
 11
-14.705234134
 21
-21.4304910192
 31
0.0
 11
-14.4304263521
 21
-21.4305840738
 31
0.0
  0
SPLINE
  5
371
100
AcDbEntity
  8
RACCORDO
100
AcDbSpline
 62
253
  6
CONTINUOUS
 70
0
 71
3
 72
26
 73
22
 74
20
 42
0.0000001
 43
0.0000001
 44
0.0000000001
 12
0.0000006819
 22
-10.5003265837
 32
0.0
 13
0.0017420988
 23
-10.5003264392
 33
0.0
 40
0.0
 40
0.0
 40
0.0
 40
0.0
 40
0.0933608976
 40
0.1793983043
 40
0.2587722463
 40
0.3320763256
 40
0.3998256584
 40
0.4623989806
 40
0.5198663644
 40
0.5721036837
 40
0.6194967943
 40
0.6633815344
 40
0.7051476053
 40
0.7461042368
 40
0.7863985304
 40
0.8249171693
 40
0.8613679731
 40
0.8964028291
 40
0.9307147598
 40
0.9652011899
 40
1.0
 40
1.0
 40
1.0
 40
1.0
 10
-16.0262082955
 20
-10.930675784
 30
0.0
 10
-16.0262082743
 20
-11.2574490889
 30
0.0
 10
-16.0261586235
 20
-11.8853626829
 30
0.0
 10
-16.0260477916
 20
-12.7910937081
 30
0.0
 10
-16.0259827482
 20
-13.6266236913
 30
0.0
 10
-16.0259996769
 20
-14.3981434281
 30
0.0
 10
-16.0261078047
 20
-15.1108591592
 30
0.0
 10
-16.0263049029
 20
-15.7681447112
 30
0.0
 10
-16.0265790427
 20
-16.3711364933
 30
0.0
 10
-16.0268723672
 20
-16.9209958651
 30
0.0
 10
-16.0271454823
 20
-17.4233145091
 30
0.0
 10
-16.0273844036
 20
-17.8889826571
 30
0.0
 10
-16.0275828094
 20
-18.3321224444
 30
0.0
 10
-16.027736896
 20
-18.7626952957
 30
0.0
 10
-16.0278372309
 20
-19.1819017972
 30
0.0
 10
-16.0278759792
 20
-19.5853374221
 30
0.0
 10
-16.0278405682
 20
-19.9703644434
 30
0.0
 10
-16.0277422649
 20
-20.3406675154
 30
0.0
 10
-16.0276130221
 20
-20.7040950548
 30
0.0
 10
-16.0274965403
 20
-21.0666964116
 30
0.0
 10
-16.0274253031
 20
-21.3092022853
 30
0.0
 10
-16.0274050955
 20
-21.431001907
 30
0.0
 11
-16.0262082955
 21
-10.930675784
 31
0.0
 11
-16.0261492341
 21
-11.910995697
 31
0.0
 11
-16.0260519111
 21
-12.8144165606
 31
0.0
 11
-16.0259955069
 21
-13.6478688722
 31
0.0
 11
-16.0260174068
 21
-14.4175856443
 31
0.0
 11
-16.0261288168
 21
-15.1289757555
 31
0.0
 11
-16.0263279307
 21
-15.7860160438
 31
0.0
 11
-16.0265956701
 21
-16.3894422823
 31
0.0
 11
-16.0268823951
 21
-16.9379511197
 31
0.0
 11
-16.0271495202
 21
-17.4355941878
 31
0.0
 11
-16.0273830657
 21
-17.8963982311
 31
0.0
 11
-16.0275774452
 21
-18.334955573
 31
0.0
 11
-16.0277291613
 21
-18.7650135527
 31
0.0
 11
-16.0278283857
 21
-19.1881167838
 31
0.0
 11
-16.0278636506
 21
-19.5925750702
 31
0.0
 11
-16.0278288256
 21
-19.9753204127
 31
0.0
 11
-16.0277360079
 21
-20.3431978303
 31
0.0
 11
-16.0276152987
 21
-20.7034842887
 31
0.0
 11
-16.0274985429
 21
-21.0656030487
 31
0.0
 11
-16.0274050955
 21
-21.431001907
 31
0.0
  0
SPLINE
  5
372
100
AcDbEntity
  8
RACCORDO
100
AcDbSpline
 62
253
  6
CONTINUOUS
 70
0
 71
3
 72
22
 73
18
 74
16
 42
0.0000001
 43
0.0000001
 44
0.0000000001
 12
-0.0014380047
 22
-10.5002056224
 32
0.0
 13
-0.0000003668
 23
-10.5002057208
 33
0.0
 40
0.0
 40
0.0
 40
0.0
 40
0.0
 40
0.0359959902
 40
0.0755026278
 40
0.1187362578
 40
0.1657730006
 40
0.2166905389
 40
0.2716478771
 40
0.3308955773
 40
0.3947458884
 40
0.4635182365
 40
0.5376167603
 40
0.6174178
 40
0.7032262463
 40
0.7952669688
 40
0.8939854093
 40
1.0
 40
1.0
 40
1.0
 40
1.0
 10
-16.027407467
 20
23.0696211939
 30
0.0
 10
-16.0274247211
 20
22.9436327612
 30
0.0
 10
-16.0275006752
 20
22.6793683955
 30
0.0
 10
-16.0276427608
 20
22.2637833761
 30
0.0
 10
-16.0278001989
 20
21.8095549668
 30
0.0
 10
-16.0278821588
 20
21.3153875985
 30
0.0
 10
-16.0278390599
 20
20.7801864421
 30
0.0
 10
-16.0276779565
 20
20.2022461205
 30
0.0
 10
-16.027414518
 20
19.5790402417
 30
0.0
 10
-16.0270641427
 20
18.9074809175
 30
0.0
 10
-16.0266651052
 20
18.1839427119
 30
0.0
 10
-16.0262932038
 20
17.4045758376
 30
0.0
 10
-16.0260609154
 20
16.5655813918
 30
0.0
 10
-16.0259729377
 20
15.6637879944
 30
0.0
 10
-16.0260165731
 20
14.6957823956
 30
0.0
 10
-16.0261439808
 20
13.6570539151
 30
0.0
 10
-16.0262082813
 20
12.9404742678
 30
0.0
 10
-16.0262082942
 20
12.5694159304
 30
0.0
 11
-16.027407467
 21
23.0696211939
 31
0.0
 11
-16.0275004157
 21
22.6916559036
 31
0.0
 11
-16.027638612
 21
22.2768281041
 31
0.0
 11
-16.0277824857
 21
21.8228661178
 31
0.0
 11
-16.0278604283
 21
21.3289706477
 31
0.0
 11
-16.0278232091
 21
20.7943260223
 31
0.0
 11
-16.0276688169
 21
20.2172626861
 31
0.0
 11
-16.0274114448
 21
19.5951496986
 31
0.0
 11
-16.0270699273
 21
18.9247083843
 31
0.0
 11
-16.0266839982
 21
18.2025846843
 31
0.0
 11
-16.0263277418
 21
17.4245350224
 31
0.0
 11
-16.0260908695
 21
16.5866077218
 31
0.0
 11
-16.0259957346
 21
15.6856013886
 31
0.0
 11
-16.0260275782
 21
14.7191548676
 31
0.0
 11
-16.0261353631
 21
13.6825909402
 31
0.0
 11
-16.0262082942
 21
12.5694159304
 31
0.0
  0
SPLINE
  5
373
100
AcDbEntity
  8
RACCORDO
100
AcDbSpline
 62
253
  6
CONTINUOUS
 70
0
 71
3
 72
22
 73
18
 74
16
 42
0.0000001
 43
0.0000001
 44
0.0000000001
 12
-3.1224401663
 22
0.011461136
 32
0.0
 13
-0.0009642709
 23
-3.1224610518
 33
0.0
 40
0.0
 40
0.0
 40
0.0
 40
0.0
 40
0.0666481282
 40
0.1327397347
 40
0.1981937752
 40
0.2636248168
 40
0.3300682583
 40
0.3948770981
 40
0.4560192378
 40
0.5187184005
 40
0.583868549
 40
0.6482405503
 40
0.7103374843
 40
0.7742691409
 40
0.8436144522
 40
0.9193964971
 40
1.0
 40
1.0
 40
1.0
 40
1.0
 10
-14.0388884159
 20
25.0605684708
 30
0.0
 10
-14.1082566801
 20
25.0608230919
 30
0.0
 10
-14.2465553878
 20
25.0540011579
 30
0.0
 10
-14.4507122816
 20
25.0220054124
 30
0.0
 10
-14.6491901582
 20
24.9691561001
 30
0.0
 10
-14.841426223
 20
24.8958101319
 30
0.0
 10
-15.0243398103
 20
24.8030382786
 30
0.0
 10
-15.192831243
 20
24.6941699404
 30
0.0
 10
-15.3465469552
 20
24.5715141345
 30
0.0
 10
-15.4877617275
 20
24.434107806
 30
0.0
 10
-15.6167135541
 20
24.2807234681
 30
0.0
 10
-15.7302311991
 20
24.1163668314
 30
0.0
 10
-15.8265046595
 20
23.942790891
 30
0.0
 10
-15.9072623151
 20
23.7558017345
 30
0.0
 10
-15.972466244
 20
23.5477516035
 30
0.0
 10
-16.0167700924
 20
23.316477762
 30
0.0
 10
-16.0273678958
 20
23.1535150206
 30
0.0
 10
-16.0273938037
 20
23.0696212545
 30
0.0
 11
-14.0388884159
 21
25.0605684708
 31
0.0
 11
-14.2467406303
 21
25.0502900894
 31
0.0
 11
-14.4506230193
 21
25.0183539074
 31
0.0
 11
-14.6481191363
 21
24.9657656117
 31
0.0
 11
-14.8390049387
 21
24.8929404332
 31
0.0
 11
-15.0240359285
 21
24.7990995195
 31
0.0
 11
-15.1940101292
 21
24.6892833527
 31
0.0
 11
-15.3432371272
 21
24.5702058872
 31
0.0
 11
-15.4835826588
 21
24.4337095228
 31
0.0
 11
-15.6146651076
 21
24.2781438684
 31
0.0
 11
-15.7287357403
 21
24.1126490967
 31
0.0
 11
-15.8227532981
 21
23.9430729385
 31
0.0
 11
-15.90191317
 21
23.7598149159
 31
0.0
 11
-15.9666274924
 21
23.5531837219
 31
0.0
 11
-16.0111048618
 21
23.3207748974
 31
0.0
 11
-16.0273938037
 21
23.0696212545
 31
0.0
  0
SPLINE
  5
374
100
AcDbEntity
  8
RACCORDO
100
AcDbSpline
 62
253
  6
CONTINUOUS
 70
0
 71
3
 72
11
 73
7
 74
5
 42
0.0000001
 43
0.0000001
 44
0.0000000001
 12
-0.0015374824
 22
-1.5991546008
 32
0.0
 13
-0.0031170034
 23
-1.5991523022
 33
0.0
 40
0.0
 40
0.0
 40
0.0
 40
0.0
 40
0.3136359146
 40
0.6450267159
 40
0.8982487854
 40
1.0
 40
1.0
 40
1.0
 40
1.0
 10
-14.0388884159
 20
25.0605684708
 30
0.0
 10
-14.0390491525
 20
24.8933843655
 30
0.0
 10
-14.0432446098
 20
24.5495553577
 30
0.0
 10
-14.0368109138
 20
24.0707533534
 30
0.0
 10
-14.0385552761
 20
23.704883939
 30
0.0
 10
-14.0383105289
 20
23.5156647677
 30
0.0
 10
-14.0384162486
 20
23.4614262047
 30
0.0
 11
-14.0388884159
 21
25.0605684708
 31
0.0
 11
-14.0410449195
 21
24.5590205594
 31
0.0
 11
-14.0380739221
 21
24.029083518
 31
0.0
 11
-14.038356605
 21
23.624142192
 31
0.0
 11
-14.0384162486
 21
23.4614262047
 31
0.0
  0
SPLINE
  5
375
100
AcDbEntity
  8
RACCORDO
100
AcDbSpline
 62
253
  6
CONTINUOUS
 70
0
 71
3
 72
18
 73
14
 74
12
 42
0.0000001
 43
0.0000001
 44
0.0000000001
 12
-10.5004739136
 22
0.000000372
 32
0.0
 13
-10.5004530978
 23
0.0209081698
 33
0.0
 40
0.0
 40
0.0
 40
0.0
 40
0.0
 40
0.118866601
 40
0.2465758873
 40
0.3695473058
 40
0.4786396348
 40
0.576813216
 40
0.6655793226
 40
0.7462716118
 40
0.8196214037
 40
0.8859595091
 40
0.9457886686
 40
1.0
 40
1.0
 40
1.0
 40
1.0
 10
-3.5384161294
 20
25.0572080418
 30
0.0
 10
-3.9544680104
 20
25.0572080566
 30
0.0
 10
-4.8175225679
 20
25.0572290624
 30
0.0
 10
-6.1109965134
 20
25.0573126405
 30
0.0
 10
-7.3702589614
 20
25.0574111692
 30
0.0
 10
-8.5261417819
 20
25.0574300774
 30
0.0
 10
-9.5623006013
 20
25.0573428047
 30
0.0
 10
-10.499054805
 20
25.0573739369
 30
0.0
 10
-11.3489217919
 20
25.0576171473
 30
0.0
 10
-12.1202871658
 20
25.0580142287
 30
0.0
 10
-12.8186281463
 20
25.0586075929
 30
0.0
 10
-13.4499812346
 20
25.0594202432
 30
0.0
 10
-13.849140306
 20
25.0601556911
 30
0.0
 10
-14.0388881537
 20
25.060533511
 30
0.0
 11
-3.5384161294
 21
25.0572080418
 31
0.0
 11
-4.7865717722
 21
25.0572363871
 31
0.0
 11
-6.1275797987
 21
25.0573168155
 31
0.0
 11
-7.4188379681
 21
25.0574008554
 31
0.0
 11
-8.5643591231
 21
25.0574104872
 31
0.0
 11
-9.5952282502
 21
25.0573612281
 31
0.0
 11
-10.5273144355
 21
25.057416042
 31
0.0
 11
-11.3746216785
 21
25.0576583235
 31
0.0
 11
-12.1448291434
 21
25.0580720106
 31
0.0
 11
-12.8414104238
 21
25.0586803607
 31
0.0
 11
-13.4696444084
 21
25.059506564
 31
0.0
 11
-14.0388881537
 21
25.060533511
 31
0.0
  0
LINE
  5
376
100
AcDbEntity
  8
0
100
AcDbLine
 62
7
  6
CONTINUOUS
 10
-56.3396623377
 20
-25.2521068956
 11
-56.3394283219
 21
-25.2182254602
  0
SPLINE
  5
377
100
AcDbEntity
  8
0
100
AcDbSpline
 62
7
  6
CONTINUOUS
 70
0
 71
3
 72
9
 73
5
 74
3
 42
0.0000001
 43
0.0000001
 44
0.0000000001
 12
0.0005611399
 22
0.0483946129
 32
0.0
 13
0.0041468498
 23
-0.0003693718
 33
0.0
 40
0.0
 40
0.0
 40
0.0
 40
0.0
 40
0.8874419394
 40
1.0
 40
1.0
 40
1.0
 40
1.0
 10
-56.3394283219
 20
-25.2182254602
 30
0.0
 10
-56.3392623289
 20
-25.2039096572
 30
0.0
 10
-56.338834853
 20
-25.189759864
 30
0.0
 10
-56.3375404345
 20
-25.1885301126
 30
0.0
 10
-56.3373848473
 20
-25.1885439712
 30
0.0
 11
-56.3394283219
 21
-25.2182254602
 31
0.0
 11
-56.3378208454
 21
-25.1889706375
 31
0.0
 11
-56.3373848473
 21
-25.1885439712
 31
0.0
  0
SPLINE
  5
378
100
AcDbEntity
  8
RACCORDO
100
AcDbSpline
 62
253
  6
CONTINUOUS
 70
0
 71
3
 72
8
 73
4
 74
2
 42
0.0000001
 43
0.0000001
 44
0.0000000001
 12
0.0147206072
 22
-0.0166853749
 32
0.0
 13
-0.0033473489
 23
0.0372602496
 33
0.0
 40
0.0
 40
0.0
 40
0.0
 40
0.0
 40
1.0
 40
1.0
 40
1.0
 40
1.0
 10
-56.2869734929
 20
-25.1168522563
 30
0.0
 10
-56.2820666238
 20
-25.122414048
 30
0.0
 10
-56.2838821414
 20
-25.1071094169
 30
0.0
 10
-56.2849979244
 20
-25.0946893337
 30
0.0
 11
-56.2869734929
 21
-25.1168522563
 31
0.0
 11
-56.2849979244
 21
-25.0946893337
 31
0.0
  0
SPLINE
  5
379
100
AcDbEntity
  8
RACCORDO
100
AcDbSpline
 62
253
  6
CONTINUOUS
 70
0
 71
3
 72
11
 73
7
 74
5
 42
0.0000001
 43
0.0000001
 44
0.0000000001
 12
-0.0555952606
 22
0.6188459494
 32
0.0
 13
-0.0042159284
 23
0.3685593879
 33
0.0
 40
0.0
 40
0.0
 40
0.0
 40
0.0
 40
0.1747077443
 40
0.454178214
 40
0.8444638718
 40
1.0
 40
1.0
 40
1.0
 40
1.0
 10
-56.2849979244
 20
-25.0946893337
 30
0.0
 10
-56.2882355652
 20
-25.0586502737
 30
0.0
 10
-56.2813362813
 20
-25.028099341
 30
0.0
 10
-56.2859719204
 20
-24.9082405858
 30
0.0
 10
-56.2857236497
 20
-24.8114804062
 30
0.0
 10
-56.2863482954
 20
-24.7448739209
 30
0.0
 10
-56.2865668718
 20
-24.7257658209
 30
0.0
 11
-56.2849979244
 21
-25.0946893337
 31
0.0
 11
-56.2843174979
 21
-25.030128308
 31
0.0
 11
-56.2846883724
 21
-24.9268484794
 31
0.0
 11
-56.286056355
 21
-24.7826218543
 31
0.0
 11
-56.2865668718
 21
-24.7257658209
 31
0.0
  0
LINE
  5
37A
100
AcDbEntity
  8
RACCORDO
100
AcDbLine
 62
253
  6
CONTINUOUS
 10
-56.2873691484
 20
-24.6647827138
 11
-56.2883134829
 21
-24.6010779947
  0
SPLINE
  5
37B
100
AcDbEntity
  8
RACCORDO
100
AcDbSpline
 62
253
  6
CONTINUOUS
 70
0
 71
3
 72
13
 73
9
 74
7
 42
0.0000001
 43
0.0000001
 44
0.0000000001
 12
-0.0224388071
 22
1.5204631506
 32
0.0
 13
0.005649411
 23
1.5118188874
 33
0.0
 40
0.0
 40
0.0
 40
0.0
 40
0.0
 40
0.1358279499
 40
0.2905080294
 40
0.4717384053
 40
0.6632939002
 40
0.8601934906
 40
1.0
 40
1.0
 40
1.0
 40
1.0
 10
-56.2883134829
 20
-24.6010779947
 30
0.0
 10
-56.289329422
 20
-24.5322375305
 30
0.0
 10
-56.2912266587
 20
-24.3864594117
 30
0.0
 10
-56.2947652549
 20
-24.1484750515
 30
0.0
 10
-56.2988226928
 20
-23.8827868336
 30
0.0
 10
-56.3019453394
 20
-23.5956805306
 30
0.0
 10
-56.3008927473
 20
-23.3294712295
 30
0.0
 10
-56.3002973298
 20
-23.1597916296
 30
0.0
 10
-56.300034055
 20
-23.0893375891
 30
0.0
 11
-56.2883134829
 21
-24.6010779947
 31
0.0
 11
-56.2911651688
 21
-24.3957493112
 31
0.0
 11
-56.2945797105
 21
-24.1619245802
 31
0.0
 11
-56.2985484703
 21
-23.8879641857
 31
0.0
 11
-56.3012100602
 21
-23.5983774739
 31
0.0
 11
-56.300804801
 21
-23.300699454
 31
0.0
 11
-56.300034055
 21
-23.0893375891
 31
0.0
  0
SPLINE
  5
37C
100
AcDbEntity
  8
RACCORDO
100
AcDbSpline
 62
253
  6
CONTINUOUS
 70
0
 71
3
 72
12
 73
8
 74
6
 42
0.0000001
 43
0.0000001
 44
0.0000000001
 12
0.0056998505
 22
1.5253168224
 32
0.0
 13
0.0020853505
 23
1.5253248788
 33
0.0
 40
0.0
 40
0.0
 40
0.0
 40
0.0
 40
0.0726859121
 40
0.305693133
 40
0.5677302014
 40
0.8268521075
 40
1.0
 40
1.0
 40
1.0
 40
1.0
 10
-56.300034055
 20
-23.0893375891
 30
0.0
 10
-56.2998959554
 20
-23.052381241
 30
0.0
 10
-56.2992965848
 20
-22.8969549736
 30
0.0
 10
-56.2979006218
 20
-22.6083006052
 30
0.0
 10
-56.295934323
 20
-22.2248558432
 30
0.0
 10
-56.2944775676
 20
-21.8718439928
 30
0.0
 10
-56.2939720445
 20
-21.6520602556
 30
0.0
 10
-56.2938516865
 20
-21.5640246596
 30
0.0
 11
-56.300034055
 21
-23.0893375891
 31
0.0
 11
-56.2996023162
 21
-22.9784686092
 31
0.0
 11
-56.2979557266
 21
-22.6230604693
 31
0.0
 11
-56.2959937977
 21
-22.2233733514
 31
0.0
 11
-56.2944414332
 21
-21.8281310394
 31
0.0
 11
-56.2938516865
 21
-21.5640246596
 31
0.0
  0
LINE
  5
37D
100
AcDbEntity
  8
RACCORDO
100
AcDbLine
 62
253
  6
CONTINUOUS
 10
-56.2938516865
 20
-21.5640246596
 11
-56.2937351237
 21
-21.4323863273
  0
SPLINE
  5
37E
100
AcDbEntity
  8
RACCORDO
100
AcDbSpline
 62
253
  6
CONTINUOUS
 70
0
 71
3
 72
17
 73
13
 74
11
 42
0.0000001
 43
0.0000001
 44
0.0000000001
 12
0.0040712716
 22
10.5018053425
 32
0.0
 13
0.0000005146
 23
10.5018061317
 33
0.0
 40
0.0
 40
0.0
 40
0.0
 40
0.0
 40
0.0671412749
 40
0.1405997614
 40
0.2203840949
 40
0.3065674921
 40
0.3998475749
 40
0.5013336356
 40
0.611683323
 40
0.7313876478
 40
0.8603569463
 40
1.0
 40
1.0
 40
1.0
 40
1.0
 10
-56.2937351237
 20
-21.4323863273
 30
0.0
 10
-56.2936440069
 20
-21.1973514606
 30
0.0
 10
-56.2930663109
 20
-20.70516793
 30
0.0
 10
-56.2922024037
 20
-19.9336913655
 30
0.0
 10
-56.2922151489
 20
-19.0955552622
 30
0.0
 10
-56.2930575927
 20
-18.1880321601
 30
0.0
 10
-56.2945048785
 20
-17.204540671
 30
0.0
 10
-56.2962821747
 20
-16.136453038
 30
0.0
 10
-56.2974614568
 20
-14.9758636512
 30
0.0
 10
-56.2977130672
 20
-13.719065833
 30
0.0
 10
-56.2972952409
 20
-12.3597237439
 30
0.0
 10
-56.2969622944
 20
-11.4194188289
 30
0.0
 10
-56.2969622704
 20
-10.9305840696
 30
0.0
 11
-56.2937351237
 21
-21.4323863273
 31
0.0
 11
-56.2930983201
 21
-20.7272819619
 31
0.0
 11
-56.292367111
 21
-19.955835525
 31
0.0
 11
-56.2923374009
 21
-19.1179559224
 31
0.0
 11
-56.2931132442
 21
-18.2128749258
 31
0.0
 11
-56.2944926983
 21
-17.2332665518
 31
0.0
 11
-56.296120274
 21
-16.1674808605
 31
0.0
 11
-56.2972770022
 21
-15.0086104132
 31
0.0
 11
-56.2976041902
 21
-13.7514988435
 31
0.0
 11
-56.2972966008
 21
-12.3970883093
 31
0.0
 11
-56.2969622704
 21
-10.9305840696
 31
0.0
  0
SPLINE
  5
37F
100
AcDbEntity
  8
RACCORDO
100
AcDbSpline
 62
253
  6
CONTINUOUS
 70
0
 71
3
 72
30
 73
26
 74
24
 42
0.0000001
 43
0.0000001
 44
0.0000000001
 12
-1.0594469039
 22
32.7685750788
 32
0.0
 13
0.0000032874
 23
32.785697193
 33
0.0
 40
0.0
 40
0.0
 40
0.0
 40
0.0
 40
0.0133987347
 40
0.0280793675
 40
0.0439562836
 40
0.0610655297
 40
0.0797758291
 40
0.1004940689
 40
0.1237456202
 40
0.1500086187
 40
0.179389738
 40
0.2116333598
 40
0.2467047387
 40
0.2847691887
 40
0.325988286
 40
0.3705649494
 40
0.4187915507
 40
0.4709732541
 40
0.5274841975
 40
0.5887719259
 40
0.6558999557
 40
0.7302112434
 40
0.812227574
 40
0.9020854803
 40
1.0
 40
1.0
 40
1.0
 40
1.0
 10
-53.4275453939
 20
-43.7159448674
 30
0.0
 10
-53.4322771432
 20
-43.5695923863
 30
0.0
 10
-53.4404618001
 20
-43.2628279114
 30
0.0
 10
-53.4486165458
 20
-42.7825116491
 30
0.0
 10
-53.4531301563
 20
-42.2615975399
 30
0.0
 10
-53.4554345489
 20
-41.6966338287
 30
0.0
 10
-53.4576033291
 20
-41.078760703
 30
0.0
 10
-53.4613071312
 20
-40.393766664
 30
0.0
 10
-53.4668373364
 20
-39.6262428741
 30
0.0
 10
-53.4730614897
 20
-38.7640485985
 30
0.0
 10
-53.477765276
 20
-37.8035721922
 30
0.0
 10
-53.4807879895
 20
-36.7468261478
 30
0.0
 10
-53.4824638127
 20
-35.5951808291
 30
0.0
 10
-53.4829295902
 20
-34.3454454194
 30
0.0
 10
-53.4825159345
 20
-32.9918310088
 30
0.0
 10
-53.4820469639
 20
-31.5271588909
 30
0.0
 10
-53.481977465
 20
-29.942681116
 30
0.0
 10
-53.4823179654
 20
-28.2277788117
 30
0.0
 10
-53.4832544767
 20
-26.3701373174
 30
0.0
 10
-53.4847558937
 20
-24.3491542496
 30
0.0
 10
-53.4867274414
 20
-22.1336392788
 30
0.0
 10
-53.4889439075
 20
-19.6915905438
 30
0.0
 10
-53.4908687317
 20
-17.0011365201
 30
0.0
 10
-53.4922433218
 20
-14.0527326485
 30
0.0
 10
-53.4925956006
 20
-12.0006493346
 30
0.0
 10
-53.4925954933
 20
-10.9305840696
 30
0.0
 11
-53.4275453939
 21
-43.7159448674
 31
0.0
 11
-53.4394106685
 21
-43.276818281
 31
0.0
 11
-53.4477540022
 21
-42.7955758183
 31
0.0
 11
-53.4526304895
 21
-42.2750628952
 31
0.0
 11
-53.4553123857
 21
-41.714130747
 31
0.0
 11
-53.4577103674
 21
-41.1007052241
 31
0.0
 11
-53.4613492702
 21
-40.4214530323
 31
0.0
 11
-53.4666018482
 21
-39.6591528075
 31
0.0
 11
-53.4725010138
 21
-38.798122302
 31
0.0
 11
-53.4773002452
 21
-37.834853776
 31
0.0
 11
-53.4804624091
 21
-36.7777288844
 31
0.0
 11
-53.4822172628
 21
-35.6278906159
 31
0.0
 11
-53.4827812728
 21
-34.3799212119
 31
0.0
 11
-53.4825239892
 21
-33.0285243929
 31
0.0
 11
-53.4821243958
 21
-31.5670474605
 31
0.0
 11
-53.482040727
 21
-29.985904716
 31
0.0
 11
-53.4823922343
 21
-28.275091223
 31
0.0
 11
-53.4832989005
 21
-26.4223407669
 31
0.0
 11
-53.4847554566
 21
-24.4129803906
 31
0.0
 11
-53.4866637611
 21
-22.2121419591
 31
0.0
 11
-53.4887932839
 21
-19.7757955131
 31
0.0
 11
-53.4907008302
 21
-17.0868336112
 31
0.0
 11
-53.4920638534
 21
-14.1407798203
 31
0.0
 11
-53.4925954933
 21
-10.9305840696
 31
0.0
  0
SPLINE
  5
380
100
AcDbEntity
  8
RACCORDO
100
AcDbSpline
 62
253
  6
CONTINUOUS
 70
0
 71
3
 72
17
 73
13
 74
11
 42
0.0000001
 43
0.0000001
 44
0.0000000001
 12
1.4507711929
 22
1.1634295847
 32
0.0
 13
-0.0600991702
 23
1.8586805919
 33
0.0
 40
0.0
 40
0.0
 40
0.0
 40
0.0
 40
0.0303997925
 40
0.0971263887
 40
0.187391472
 40
0.293361342
 40
0.4120215792
 40
0.5382038204
 40
0.6640928925
 40
0.783194784
 40
0.8943800929
 40
1.0
 40
1.0
 40
1.0
 40
1.0
 10
-53.4284291111
 20
-45.5742841953
 30
0.0
 10
-53.4137280634
 20
-45.562494856
 30
0.0
 10
-53.4231964065
 20
-45.4898629418
 30
0.0
 10
-53.4077369789
 20
-45.3832864637
 30
0.0
 10
-53.4105915257
 20
-45.2160906378
 30
0.0
 10
-53.4082225216
 20
-45.0223566858
 30
0.0
 10
-53.4092953851
 20
-44.8044279448
 30
0.0
 10
-53.4107994461
 20
-44.5747596655
 30
0.0
 10
-53.4135839023
 20
-44.3446538253
 30
0.0
 10
-53.4172193953
 20
-44.1239044685
 30
0.0
 10
-53.4216649318
 20
-43.9157251867
 30
0.0
 10
-53.4254295043
 20
-43.7813827579
 30
0.0
 10
-53.4275453939
 20
-43.7159448674
 30
0.0
 11
-53.4284291111
 21
-45.5742841953
 31
0.0
 11
-53.4179425792
 21
-45.5187322684
 31
0.0
 11
-53.4123264524
 21
-45.394771178
 31
0.0
 11
-53.4096579575
 21
-45.2269307497
 31
0.0
 11
-53.4088469729
 21
-45.0298653408
 31
0.0
 11
-53.4093298185
 21
-44.8091991252
 31
0.0
 11
-53.4110182222
 21
-44.574550146
 31
0.0
 11
-53.4138098153
 21
-44.3404569293
 31
0.0
 11
-53.4174866831
 21
-44.1189993835
 31
0.0
 11
-53.4219740453
 21
-43.9122821042
 31
0.0
 11
-53.4275453939
 21
-43.7159448674
 31
0.0
  0
SPLINE
  5
381
100
AcDbEntity
  8
0
100
AcDbSpline
 62
7
  6
CONTINUOUS
 70
0
 71
3
 72
8
 73
4
 74
2
 42
0.0000001
 43
0.0000001
 44
0.0000000001
 12
0.0095720578
 22
-0.0014838697
 32
0.0
 13
0.0062864875
 23
-0.0900072757
 33
0.0
 40
0.0
 40
0.0
 40
0.0
 40
0.0
 40
1.0
 40
1.0
 40
1.0
 40
1.0
 10
-56.3373689072
 20
-25.188545918
 30
0.0
 10
-56.3341782213
 20
-25.1890405412
 30
0.0
 10
-56.3268795881
 20
-25.252863352
 30
0.0
 10
-56.3247840923
 20
-25.2828657773
 30
0.0
 11
-56.3373689072
 21
-25.188545918
 31
0.0
 11
-56.3247840923
 21
-25.2828657773
 31
0.0
  0
SPLINE
  5
382
100
AcDbEntity
  8
RACCORDO
100
AcDbSpline
 62
253
  6
CONTINUOUS
 70
0
 71
3
 72
11
 73
7
 74
5
 42
0.0000001
 43
0.0000001
 44
0.0000000001
 12
0.5821500503
 22
-0.0305125657
 32
0.0
 13
0.000761676
 23
0.5856814811
 33
0.0
 40
0.0
 40
0.0
 40
0.0
 40
0.0
 40
0.1176267156
 40
0.4195711693
 40
0.8426219352
 40
1.0
 40
1.0
 40
1.0
 40
1.0
 10
-52.4890434968
 20
-46.449751086
 30
0.0
 10
-52.4662180306
 20
-46.4509474503
 30
0.0
 10
-52.4922643913
 20
-46.3180381225
 30
0.0
 10
-52.4611732231
 20
-46.1973815568
 30
0.0
 10
-52.4683812354
 20
-46.0115249995
 30
0.0
 10
-52.4688969171
 20
-45.8969435197
 30
0.0
 10
-52.4688569601
 20
-45.866219047
 30
0.0
 11
-52.4890434968
 21
-46.449751086
 31
0.0
 11
-52.4775583007
 21
-46.3821493922
 31
0.0
 11
-52.4713091392
 21
-46.2062420999
 31
0.0
 11
-52.4683066037
 21
-45.959643299
 31
0.0
 11
-52.4688569601
 21
-45.866219047
 31
0.0
  0
SPLINE
  5
383
100
AcDbEntity
  8
RACCORDO
100
AcDbSpline
 62
253
  6
CONTINUOUS
 70
0
 71
3
 72
14
 73
10
 74
8
 42
0.0000001
 43
0.0000001
 44
0.0000000001
 12
0.0028581122
 22
2.1977105706
 32
0.0
 13
-0.0501832299
 23
2.1868820185
 33
0.0
 40
0.0
 40
0.0
 40
0.0
 40
0.0
 40
0.0921605077
 40
0.2434169222
 40
0.4051367111
 40
0.5668943623
 40
0.7200873884
 40
0.8633365934
 40
1.0
 40
1.0
 40
1.0
 40
1.0
 10
-52.4688569601
 20
-45.866219047
 30
0.0
 10
-52.4687691584
 20
-45.7987050063
 30
0.0
 10
-52.4662444584
 20
-45.6247628331
 30
0.0
 10
-52.4680881262
 20
-45.3272726367
 30
0.0
 10
-52.4695562747
 20
-44.9818061961
 30
0.0
 10
-52.4727611287
 20
-44.6340687365
 30
0.0
 10
-52.4768298551
 20
-44.3000420761
 30
0.0
 10
-52.4818174842
 20
-43.9842690276
 30
0.0
 10
-52.485930178
 20
-43.7802129009
 30
0.0
 10
-52.4882162484
 20
-43.6805906521
 30
0.0
 11
-52.4688569601
 21
-45.866219047
 31
0.0
 11
-52.4673780929
 21
-45.6663041462
 31
0.0
 11
-52.4679339191
 21
-45.3354376
 31
0.0
 11
-52.4698497129
 21
-44.9816875855
 31
0.0
 11
-52.4729978613
 21
-44.627863566
 31
0.0
 11
-52.477126848
 21
-44.2927857355
 31
0.0
 11
-52.4821262175
 21
-43.9794740386
 31
0.0
 11
-52.4882162484
 21
-43.6805906521
 31
0.0
  0
SPLINE
  5
384
100
AcDbEntity
  8
RACCORDO
100
AcDbSpline
 62
253
  6
CONTINUOUS
 70
0
 71
3
 72
30
 73
26
 74
24
 42
0.0000001
 43
0.0000001
 44
0.0000000001
 12
-1.1745369507
 22
32.7294333108
 32
0.0
 13
0.0000062591
 23
32.7505013991
 33
0.0
 40
0.0
 40
0.0
 40
0.0
 40
0.0
 40
0.0131077938
 40
0.0275343251
 40
0.0432187164
 40
0.0602506153
 40
0.0789735231
 40
0.0997638239
 40
0.1230650142
 40
0.1493271701
 40
0.1786664971
 40
0.2108802539
 40
0.2459400768
 40
0.2840087044
 40
0.3252540021
 40
0.36988216
 40
0.4181694621
 40
0.4704179865
 40
0.5270008805
 40
0.5883626387
 40
0.6555664566
 40
0.7299545323
 40
0.8120503004
 40
0.9019937548
 40
1.0
 40
1.0
 40
1.0
 40
1.0
 10
-52.4882161803
 20
-43.6805906521
 30
0.0
 10
-52.4933480431
 20
-43.5375870974
 30
0.0
 10
-52.5024840411
 20
-43.2371320869
 30
0.0
 10
-52.5121996503
 20
-42.7654144617
 30
0.0
 10
-52.5186134822
 20
-42.2507997937
 30
0.0
 10
-52.5225003434
 20
-41.6892592039
 30
0.0
 10
-52.5261655748
 20
-41.0719767754
 30
0.0
 10
-52.5309668843
 20
-40.3862588131
 30
0.0
 10
-52.5377834551
 20
-39.6182498581
 30
0.0
 10
-52.5454174234
 20
-38.7569161516
 30
0.0
 10
-52.5517236611
 20
-37.7982713724
 30
0.0
 10
-52.5560257249
 20
-36.7435722566
 30
0.0
 10
-52.5585822919
 20
-35.5935712321
 30
0.0
 10
-52.5595091085
 20
-34.3449720328
 30
0.0
 10
-52.5591658285
 20
-32.9919168926
 30
0.0
 10
-52.5585726419
 20
-31.5273063269
 30
0.0
 10
-52.5584621381
 20
-29.9425752036
 30
0.0
 10
-52.5588815095
 20
-28.2273362607
 30
0.0
 10
-52.5601072459
 20
-26.3693659898
 30
0.0
 10
-52.5621358284
 20
-24.3481319066
 30
0.0
 10
-52.5648218236
 20
-22.1325222456
 30
0.0
 10
-52.5678683313
 20
-19.6905631166
 30
0.0
 10
-52.5705435294
 20
-17.0003585428
 30
0.0
 10
-52.5724652048
 20
-14.0523176194
 30
0.0
 10
-52.5729690105
 20
-12.0005019611
 30
0.0
 10
-52.572968806
 20
-10.9305840708
 30
0.0
 11
-52.4882161803
 21
-43.6805906521
 31
0.0
 11
-52.5013787799
 21
-43.2515056721
 31
0.0
 11
-52.5113034486
 21
-42.7791337876
 31
0.0
 11
-52.517975325
 21
-42.2655054398
 31
0.0
 11
-52.5222854099
 21
-41.707718862
 31
0.0
 11
-52.5261346278
 21
-41.0945463265
 31
0.0
 11
-52.5309754714
 21
-40.4136707598
 31
0.0
 11
-52.537495051
 21
-39.6505729443
 31
0.0
 11
-52.5448103477
 21
-38.7905052806
 31
0.0
 11
-52.551135689
 21
-37.8296484294
 31
0.0
 11
-52.5555864774
 21
-36.7746411324
 31
0.0
 11
-52.5582375461
 21
-35.6264174109
 31
0.0
 11
-52.5592846942
 21
-34.3796512098
 31
0.0
 11
-52.5591424757
 21
-33.0288470366
 31
0.0
 11
-52.5586672788
 21
-31.5672525678
 31
0.0
 11
-52.5585447119
 21
-29.9858192176
 31
0.0
 11
-52.5589836427
 21
-28.2746539022
 31
0.0
 11
-52.5601747444
 21
-26.4215361358
 31
0.0
 11
-52.5621385351
 21
-24.4119087465
 31
0.0
 11
-52.564739022
 21
-22.2109515524
 31
0.0
 11
-52.5676656322
 21
-19.7747065318
 31
0.0
 11
-52.5703118265
 21
-17.0860302678
 31
0.0
 11
-52.5722169104
 21
-14.1403376534
 31
0.0
 11
-52.572968806
 21
-10.9305840708
 31
0.0
  0
SPLINE
  5
385
100
AcDbEntity
  8
SUPERFICI
100
AcDbSpline
 62
7
  6
CONTINUOUS
 70
0
 71
3
 72
14
 73
10
 74
8
 42
0.0000001
 43
0.0000001
 44
0.0000000001
 12
-0.034330457
 22
0.5875161033
 32
0.0
 13
-0.0662635374
 23
0.5847759362
 33
0.0
 40
0.0
 40
0.0
 40
0.0
 40
0.0
 40
0.1342006254
 40
0.2771814734
 40
0.428664039
 40
0.5915399226
 40
0.7594176349
 40
0.9080771613
 40
1.0
 40
1.0
 40
1.0
 40
1.0
 10
-56.165450891
 20
-27.3328797472
 30
0.0
 10
-56.166986614
 20
-27.3065980711
 30
0.0
 10
-56.1701429805
 20
-27.2523142827
 30
0.0
 10
-56.1749989284
 20
-27.1683624941
 30
0.0
 10
-56.1801670004
 20
-27.078793571
 30
0.0
 10
-56.1856810366
 20
-26.984354372
 30
0.0
 10
-56.1911651172
 20
-26.890460737
 30
0.0
 10
-56.1964366465
 20
-26.8105209686
 30
0.0
 10
-56.1993593205
 20
-26.76338913
 30
0.0
 10
-56.201389698
 20
-26.745471042
 30
0.0
 11
-56.165450891
 21
-27.3328797472
 31
0.0
 11
-56.170039146
 21
-27.2540336158
 31
0.0
 11
-56.1749006903
 21
-27.1700273289
 31
0.0
 11
-56.1800480344
 21
-27.081025794
 31
0.0
 11
-56.185624233
 21
-26.9853326907
 31
0.0
 11
-56.1915155455
 21
-26.8867093937
 31
0.0
 11
-56.1970992963
 21
-26.7993989129
 31
0.0
 11
-56.201389698
 21
-26.745471042
 31
0.0
  0
SPLINE
  5
386
100
AcDbEntity
  8
SUPERFICI
100
AcDbSpline
 62
7
  6
CONTINUOUS
 70
0
 71
3
 72
9
 73
5
 74
3
 42
0.0000001
 43
0.0000001
 44
0.0000000001
 12
0.0065379642
 22
-0.0576976316
 32
0.0
 13
-0.002367018
 23
0.0809315309
 33
0.0
 40
0.0
 40
0.0
 40
0.0
 40
0.0
 40
0.618713937
 40
1.0
 40
1.0
 40
1.0
 40
1.0
 10
-56.201389698
 20
-26.745471042
 30
0.0
 10
-56.2000413215
 20
-26.757370485
 30
0.0
 10
-56.2010212151
 20
-26.7150837233
 30
0.0
 10
-56.2018538599
 20
-26.6845551224
 30
0.0
 10
-56.2021546969
 20
-26.6742691008
 30
0.0
 11
-56.201389698
 21
-26.745471042
 31
0.0
 11
-56.2011975013
 21
-26.7095447729
 31
0.0
 11
-56.2021546969
 21
-26.6742691008
 31
0.0
  0
SPLINE
  5
387
100
AcDbEntity
  8
SUPERFICI
100
AcDbSpline
 62
7
  6
CONTINUOUS
 70
0
 71
3
 72
9
 73
5
 74
3
 42
0.0000001
 43
0.0000001
 44
0.0000000001
 12
-0.0113907453
 22
0.3894649128
 32
0.0
 13
-0.0114215207
 23
0.299109047
 33
0.0
 40
0.0
 40
0.0
 40
0.0
 40
0.0
 40
0.3911741205
 40
1.0
 40
1.0
 40
1.0
 40
1.0
 10
-56.2021546969
 20
-26.6742691008
 30
0.0
 10
-56.2036399518
 20
-26.6234862359
 30
0.0
 10
-56.2064000702
 20
-26.5780413628
 30
0.0
 10
-56.210259486
 20
-26.4688876391
 30
0.0
 10
-56.2125773918
 20
-26.4081858628
 30
0.0
 11
-56.2021546969
 21
-26.6742691008
 31
0.0
 11
-56.205967537
 21
-26.5781839699
 31
0.0
 11
-56.2125773918
 21
-26.4081858628
 31
0.0
  0
SPLINE
  5
388
100
AcDbEntity
  8
SUPERFICI
100
AcDbSpline
 62
7
  6
CONTINUOUS
 70
0
 71
3
 72
9
 73
5
 74
3
 42
0.0000001
 43
0.0000001
 44
0.0000000001
 12
-0.0180815961
 22
0.4735244199
 32
0.0
 13
-0.0194093334
 23
0.4444600292
 33
0.0
 40
0.0
 40
0.0
 40
0.0
 40
0.0
 40
0.4624286058
 40
1.0
 40
1.0
 40
1.0
 40
1.0
 10
-56.2125773918
 20
-26.4081858628
 30
0.0
 10
-56.2153645409
 20
-26.3351954504
 30
0.0
 10
-56.2212922909
 20
-26.1953444094
 30
0.0
 10
-56.2277257869
 20
-26.0458451265
 30
0.0
 10
-56.2312037544
 20
-25.9662021273
 30
0.0
 11
-56.2125773918
 21
-26.4081858628
 31
0.0
 11
-56.2209550121
 21
-26.2037900244
 31
0.0
 11
-56.2312037544
 21
-25.9662021273
 31
0.0
  0
SPLINE
  5
389
100
AcDbEntity
  8
SUPERFICI
100
AcDbSpline
 62
7
  6
CONTINUOUS
 70
0
 71
3
 72
9
 73
5
 74
3
 42
0.0000001
 43
0.0000001
 44
0.0000000001
 12
-0.0099504939
 22
0.2036831936
 32
0.0
 13
-0.0121033885
 23
0.2034404157
 33
0.0
 40
0.0
 40
0.0
 40
0.0
 40
0.0
 40
0.3772344984
 40
1.0
 40
1.0
 40
1.0
 40
1.0
 10
-56.2509215499
 20
-25.5389368208
 30
0.0
 10
-56.2521727731
 20
-25.5133247117
 30
0.0
 10
-56.2555055151
 20
-25.4454252376
 30
0.0
 10
-56.2588387339
 20
-25.3775692431
 30
0.0
 10
-56.2613512582
 20
-25.3353373523
 30
0.0
 11
-56.2509215499
 21
-25.5389368208
 31
0.0
 11
-56.2546872915
 21
-25.462102851
 31
0.0
 11
-56.2613512582
 21
-25.3353373523
 31
0.0
  0
SPLINE
  5
38A
100
AcDbEntity
  8
SUPERFICI
100
AcDbSpline
 62
7
  6
CONTINUOUS
 70
0
 71
3
 72
8
 73
4
 74
2
 42
0.0000001
 43
0.0000001
 44
0.0000000001
 12
-0.0050185568
 22
0.0718044912
 32
0.0
 13
-0.0086853744
 23
0.0676452382
 33
0.0
 40
0.0
 40
0.0
 40
0.0
 40
0.0
 40
1.0
 40
1.0
 40
1.0
 40
1.0
 10
-56.2647350678
 20
-25.2827890493
 30
0.0
 10
-56.2664079201
 20
-25.2588542189
 30
0.0
 10
-56.2696361826
 20
-25.2156740271
 30
0.0
 10
-56.2725313074
 20
-25.1931256144
 30
0.0
 11
-56.2647350678
 21
-25.2827890493
 31
0.0
 11
-56.2725313074
 21
-25.1931256144
 31
0.0
  0
SPLINE
  5
38B
100
AcDbEntity
  8
SUPERFICI
100
AcDbSpline
 62
7
  6
CONTINUOUS
 70
0
 71
3
 72
8
 73
4
 74
2
 42
0.0000001
 43
0.0000001
 44
0.0000000001
 12
-0.003407147
 22
0.0265362508
 32
0.0
 13
-0.0027575279
 23
0.0002644423
 33
0.0
 40
0.0
 40
0.0
 40
0.0
 40
0.0
 40
1.0
 40
1.0
 40
1.0
 40
1.0
 10
-56.2725313074
 20
-25.1931256144
 30
0.0
 10
-56.273667023
 20
-25.1842801974
 30
0.0
 10
-56.2747514728
 20
-25.1786097631
 30
0.0
 10
-56.2756706488
 20
-25.1785216156
 30
0.0
 11
-56.2725313074
 21
-25.1931256144
 31
0.0
 11
-56.2756706488
 21
-25.1785216156
 31
0.0
  0
SPLINE
  5
38C
100
AcDbEntity
  8
RACCORDO
100
AcDbSpline
 62
253
  6
CONTINUOUS
 70
0
 71
3
 72
14
 73
10
 74
8
 42
0.0000001
 43
0.0000001
 44
0.0000000001
 12
0.408720013
 22
-0.5104554369
 32
0.0
 13
-0.004121331
 23
0.6541190967
 33
0.0
 40
0.0
 40
0.0
 40
0.0
 40
0.0
 40
0.0719920329
 40
0.1559792838
 40
0.2729406802
 40
0.4200222922
 40
0.5864238962
 40
0.7758181044
 40
1.0
 40
1.0
 40
1.0
 40
1.0
 10
-56.8845998197
 20
-23.4217339788
 30
0.0
 10
-56.8747916249
 20
-23.4339835536
 30
0.0
 10
-56.8888180399
 20
-23.3570078428
 30
0.0
 10
-56.8819996336
 20
-23.318697893
 30
0.0
 10
-56.8851813501
 20
-23.2342965317
 30
0.0
 10
-56.8847065504
 20
-23.1436691307
 30
0.0
 10
-56.8858014821
 20
-23.0329962416
 30
0.0
 10
-56.8865640533
 20
-22.9069260211
 30
0.0
 10
-56.887258575
 20
-22.8167069182
 30
0.0
 10
-56.8875665509
 20
-22.7678263651
 30
0.0
 11
-56.8845998197
 21
-23.4217339788
 31
0.0
 11
-56.8839212904
 21
-23.3746615395
 31
0.0
 11
-56.8840211944
 21
-23.3197403382
 31
0.0
 11
-56.8843751936
 21
-23.243257275
 31
0.0
 11
-56.8849542351
 21
-23.147078799
 31
0.0
 11
-56.8856842959
 21
-23.0382672196
 31
0.0
 11
-56.8865499254
 21
-22.914420797
 31
0.0
 11
-56.8875665509
 21
-22.7678263651
 31
0.0
  0
SPLINE
  5
38D
100
AcDbEntity
  8
RACCORDO
100
AcDbSpline
 62
253
  6
CONTINUOUS
 70
0
 71
3
 72
10
 73
6
 74
4
 42
0.0000001
 43
0.0000001
 44
0.0000000001
 12
-0.0031898041
 22
0.5062713329
 32
0.0
 13
0.0010241115
 23
0.5061158762
 33
0.0
 40
0.0
 40
0.0
 40
0.0
 40
0.0
 40
0.3239112906
 40
0.6528156292
 40
1.0
 40
1.0
 40
1.0
 40
1.0
 10
-56.8875665509
 20
-22.7678263651
 30
0.0
 10
-56.8879109554
 20
-22.7131640315
 30
0.0
 10
-56.8884324401
 20
-22.6030556266
 30
0.0
 10
-56.8881131561
 20
-22.4343380934
 30
0.0
 10
-56.8879256284
 20
-22.3202795055
 30
0.0
 10
-56.8878071099
 20
-22.2617076649
 30
0.0
 11
-56.8875665509
 21
-22.7678263651
 31
0.0
 11
-56.8882487527
 21
-22.6038896551
 31
0.0
 11
-56.8881256989
 21
-22.4374244874
 31
0.0
 11
-56.8878071099
 21
-22.2617076649
 31
0.0
  0
SPLINE
  5
38E
100
AcDbEntity
  8
RACCORDO
100
AcDbSpline
 62
253
  6
CONTINUOUS
 70
0
 71
3
 72
11
 73
7
 74
5
 42
0.0000001
 43
0.0000001
 44
0.0000000001
 12
0.0015397772
 22
0.7609579068
 32
0.0
 13
0.0005212756
 23
0.7609646217
 33
0.0
 40
0.0
 40
0.0
 40
0.0
 40
0.0
 40
0.2540185485
 40
0.5375710758
 40
0.8154882806
 40
1.0
 40
1.0
 40
1.0
 40
1.0
 10
-56.8878071099
 20
-22.2617076649
 30
0.0
 10
-56.8876767326
 20
-22.1972751905
 30
0.0
 10
-56.8873439162
 20
-22.060917351
 30
0.0
 10
-56.8868114096
 20
-21.8540657139
 30
0.0
 10
-56.8864244848
 20
-21.664844149
 30
0.0
 10
-56.886287297
 20
-21.5475468288
 30
0.0
 10
-56.8862552366
 20
-21.5007445319
 30
0.0
 11
-56.8878071099
 21
-22.2617076649
 31
0.0
 11
-56.8873581344
 21
-22.0684090149
 31
0.0
 11
-56.8868269632
 21
-21.8526361794
 31
0.0
 11
-56.8864131192
 21
-21.641151377
 31
0.0
 11
-56.8862552366
 21
-21.5007445319
 31
0.0
  0
LINE
  5
38F
100
AcDbEntity
  8
RACCORDO
100
AcDbLine
 62
253
  6
CONTINUOUS
 10
-56.8862552366
 20
-21.5007445319
 11
-56.8862250243
 21
-21.431004978
  0
SPLINE
  5
390
100
AcDbEntity
  8
RACCORDO
100
AcDbSpline
 62
253
  6
CONTINUOUS
 70
0
 71
3
 72
9
 73
5
 74
3
 42
0.0000001
 43
0.0000001
 44
0.0000000001
 12
-0.2169652378
 22
-0.0002492511
 32
0.0
 13
-0.00167221
 23
0.001444735
 33
0.0
 40
0.0
 40
0.0
 40
0.0
 40
0.0
 40
0.8969107748
 40
1.0
 40
1.0
 40
1.0
 40
1.0
 10
-56.8862250243
 20
-21.431004978
 30
0.0
 10
-56.9510911775
 20
-21.4310794967
 30
0.0
 10
-57.0732385227
 20
-21.4287660249
 30
0.0
 10
-57.0842573484
 20
-21.4281282543
 30
0.0
 10
-57.0843148107
 20
-21.4280786087
 30
0.0
 11
-56.8862250243
 21
-21.431004978
 31
0.0
 11
-57.0808044981
 21
-21.4282775571
 31
0.0
 11
-57.0843148107
 21
-21.4280786087
 31
0.0
  0
LINE
  5
391
100
AcDbEntity
  8
RACCORDO
100
AcDbLine
 62
253
  6
CONTINUOUS
 10
-56.8862895879
 20
-21.4310048258
 11
-56.8862177558
 21
-20.9668055007
  0
LINE
  5
392
100
AcDbEntity
  8
RACCORDO
100
AcDbLine
 62
253
  6
CONTINUOUS
 10
-56.8862177558
 20
-20.9668055007
 11
-56.8860261689
 21
-20.2181736965
  0
SPLINE
  5
393
100
AcDbEntity
  8
RACCORDO
100
AcDbSpline
 62
253
  6
CONTINUOUS
 70
0
 71
3
 72
16
 73
12
 74
10
 42
0.0000001
 43
0.0000001
 44
0.0000000001
 12
0.0015320112
 22
8.2981701617
 32
0.0
 13
0.000646593
 23
8.2981703051
 33
0.0
 40
0.0
 40
0.0
 40
0.0
 40
0.0
 40
0.0317779079
 40
0.132394307
 40
0.2412241115
 40
0.3591560884
 40
0.4876679633
 40
0.627584605
 40
0.7793040351
 40
0.9426212588
 40
1.0
 40
1.0
 40
1.0
 40
1.0
 10
-56.8860261689
 20
-20.2181736965
 30
0.0
 10
-56.8860099408
 20
-20.1302742007
 30
0.0
 10
-56.8859544741
 20
-19.7640640365
 30
0.0
 10
-56.8859643197
 20
-19.09682444
 30
0.0
 10
-56.8861787714
 20
-18.1912778272
 30
0.0
 10
-56.8865451302
 20
-17.2085707902
 30
0.0
 10
-56.8870051004
 20
-16.1398758279
 30
0.0
 10
-56.887308256
 20
-14.9777227844
 30
0.0
 10
-56.8873762732
 20
-13.719296134
 30
0.0
 10
-56.8872944792
 20
-12.6891740109
 30
0.0
 10
-56.8872418506
 20
-12.0787164438
 30
0.0
 10
-56.8872294837
 20
-11.9200035884
 30
0.0
 11
-56.8860261689
 21
-20.2181736965
 31
0.0
 11
-56.8859868209
 21
-19.9544752077
 31
0.0
 11
-56.8859936741
 21
-19.1195431911
 31
0.0
 11
-56.8861924552
 21
-18.2164549584
 31
0.0
 11
-56.8865432113
 21
-17.2378353908
 31
0.0
 11
-56.8869626686
 21
-16.1714220462
 31
0.0
 11
-56.8872613403
 21
-15.0103699606
 31
0.0
 11
-56.8873475677
 21
-13.7513762911
 31
0.0
 11
-56.8872689354
 21
-12.3961421545
 31
0.0
 11
-56.8872294837
 21
-11.9200035884
 31
0.0
  0
LINE
  5
394
100
AcDbEntity
  8
RACCORDO
100
AcDbLine
 62
253
  6
CONTINUOUS
 10
-56.8872294837
 20
-11.9200035884
 11
-56.8871837661
 21
-10.9305840696
  0
SPLINE
  5
395
100
AcDbEntity
  8
RACCORDO
100
AcDbSpline
 62
253
  6
CONTINUOUS
 70
0
 71
3
 72
10
 73
6
 74
4
 42
0.0000001
 43
0.0000001
 44
0.0000000001
 12
0.9387729657
 22
0.0479246056
 32
0.0
 13
0.9393873889
 23
0.0338050665
 33
0.0
 40
0.0
 40
0.0
 40
0.0
 40
0.0
 40
0.171045768
 40
0.5297426213
 40
1.0
 40
1.0
 40
1.0
 40
1.0
 10
-53.4275452928
 20
-43.7159448638
 30
0.0
 10
-53.3740209119
 20
-43.7132124301
 30
0.0
 10
-53.2081310634
 20
-43.7073480926
 30
0.0
 10
-52.8950414546
 20
-43.6951718249
 30
0.0
 10
-52.635467666
 20
-43.685883097
 30
0.0
 10
-52.4882163823
 20
-43.6805840696
 30
0.0
 11
-53.4275452928
 21
-43.7159448638
 31
0.0
 11
-53.26689777
 21
-43.7093643328
 31
0.0
 11
-52.9299629995
 21
-43.6966809125
 31
0.0
 11
-52.4882163823
 21
-43.6805840696
 31
0.0
  0
LINE
  5
396
100
AcDbEntity
  8
RACCORDO
100
AcDbLine
 62
253
  6
CONTINUOUS
 10
-56.8871837581
 20
12.569507645
 11
-56.8872315625
 21
13.5888189437
  0
SPLINE
  5
397
100
AcDbEntity
  8
RACCORDO
100
AcDbSpline
 62
253
  6
CONTINUOUS
 70
0
 71
3
 72
11
 73
7
 74
5
 42
0.0000001
 43
0.0000001
 44
0.0000000001
 12
-0.0007012667
 22
8.749949922
 32
0.0
 13
-0.0015358847
 23
8.7499499014
 33
0.0
 40
0.0
 40
0.0
 40
0.0
 40
0.0
 40
0.2249667771
 40
0.5380491711
 40
0.8228585953
 40
1.0
 40
1.0
 40
1.0
 40
1.0
 10
-56.8872315625
 20
13.5888189437
 30
0.0
 10
-56.8872841498
 20
14.2449682883
 30
0.0
 10
-56.8874646543
 20
15.8142693877
 30
0.0
 10
-56.8869656428
 20
18.2142598574
 30
0.0
 10
-56.8856716895
 20
20.4747603125
 30
0.0
 10
-56.8861666052
 20
21.8221091817
 30
0.0
 10
-56.8862572948
 20
22.3387686538
 30
0.0
 11
-56.8872315625
 21
13.5888189437
 31
0.0
 11
-56.8873464947
 21
15.5572669728
 31
0.0
 11
-56.886774207
 21
18.2967221823
 31
0.0
 11
-56.8859732231
 21
20.7887902527
 31
0.0
 11
-56.8862572948
 21
22.3387686538
 31
0.0
  0
LINE
  5
398
100
AcDbEntity
  8
RACCORDO
100
AcDbLine
 62
253
  6
CONTINUOUS
 10
-56.8862572948
 20
22.3387686538
 11
-56.8862895274
 21
23.0700261155
  0
SPLINE
  5
399
100
AcDbEntity
  8
RACCORDO
100
AcDbSpline
 62
253
  6
CONTINUOUS
 70
0
 71
3
 72
9
 73
5
 74
3
 42
0.0000001
 43
0.0000001
 44
0.0000000001
 12
-0.2167515132
 22
0.0003274769
 32
0.0
 13
-0.0022823621
 23
-0.0016314962
 33
0.0
 40
0.0
 40
0.0
 40
0.0
 40
0.0
 40
0.8977954141
 40
1.0
 40
1.0
 40
1.0
 40
1.0
 10
-56.8862259708
 20
23.0700262812
 30
0.0
 10
-56.9510921423
 20
23.0701242836
 30
0.0
 10
-57.0731137927
 20
23.0676553237
 30
0.0
 10
-57.084234494
 20
23.0669484106
 30
0.0
 10
-57.08431225
 20
23.0668928285
 30
0.0
 11
-56.8862259708
 21
23.0700262812
 31
0.0
 11
-57.080802874
 21
23.0671113161
 31
0.0
 11
-57.08431225
 21
23.0668928285
 31
0.0
  0
SPLINE
  5
39A
100
AcDbEntity
  8
RACCORDO
100
AcDbSpline
 62
253
  6
CONTINUOUS
 70
0
 71
3
 72
10
 73
6
 74
4
 42
0.0000001
 43
0.0000001
 44
0.0000000001
 12
0.9387766026
 22
-0.0478557395
 32
0.0
 13
0.9393873364
 23
-0.0338099638
 33
0.0
 40
0.0
 40
0.0
 40
0.0
 40
0.0
 40
0.1710458794
 40
0.5297427307
 40
1.0
 40
1.0
 40
1.0
 40
1.0
 10
-53.4275453991
 20
45.3547767283
 30
0.0
 10
-53.3740207759
 20
45.3520482193
 30
0.0
 10
-53.2081310664
 20
45.3461810445
 30
0.0
 10
-52.8950412782
 20
45.3340067151
 30
0.0
 10
-52.6354675953
 20
45.3247157241
 30
0.0
 10
-52.4882163541
 20
45.3194159303
 30
0.0
 11
-53.4275453991
 21
45.3547767283
 31
0.0
 11
-53.2668976482
 21
45.3481986908
 31
0.0
 11
-52.9299628505
 21
45.3355148604
 31
0.0
 11
-52.4882163541
 21
45.3194159303
 31
0.0
  0
LINE
  5
39B
100
AcDbEntity
  8
RACCORDO
100
AcDbLine
 62
253
  6
CONTINUOUS
 10
-56.8862259708
 20
23.0700262812
 11
-56.8862686243
 21
23.1563490818
  0
SPLINE
  5
39C
100
AcDbEntity
  8
RACCORDO
100
AcDbSpline
 62
253
  6
CONTINUOUS
 70
0
 71
3
 72
10
 73
6
 74
4
 42
0.0000001
 43
0.0000001
 44
0.0000000001
 12
-0.0003655217
 22
0.460434778
 32
0.0
 13
-0.0011546695
 23
0.4604330925
 33
0.0
 40
0.0
 40
0.0
 40
0.0
 40
0.0
 40
0.3579949491
 40
0.8490042663
 40
1.0
 40
1.0
 40
1.0
 40
1.0
 10
-56.8862686243
 20
23.1563490818
 30
0.0
 10
-56.8863122426
 20
23.2112935234
 30
0.0
 10
-56.8864865003
 20
23.3415971775
 30
0.0
 10
-56.8868292856
 20
23.4950751844
 30
0.0
 10
-56.8870747421
 20
23.5936086192
 30
0.0
 10
-56.8871328588
 20
23.6167830967
 30
0.0
 11
-56.8862686243
 21
23.1563490818
 31
0.0
 11
-56.8864799607
 21
23.3211823401
 31
0.0
 11
-56.8869606866
 21
23.5472596623
 31
0.0
 11
-56.8871328588
 21
23.6167830967
 31
0.0
  0
SPLINE
  5
39D
100
AcDbEntity
  8
RACCORDO
100
AcDbSpline
 62
253
  6
CONTINUOUS
 70
0
 71
3
 72
12
 73
8
 74
6
 42
0.0000001
 43
0.0000001
 44
0.0000000001
 12
-0.0019489354
 22
0.7771525472
 32
0.0
 13
0.0046824611
 23
0.7771809276
 33
0.0
 40
0.0
 40
0.0
 40
0.0
 40
0.0
 40
0.1692571526
 40
0.4057712815
 40
0.6352183305
 40
0.8587862521
 40
1.0
 40
1.0
 40
1.0
 40
1.0
 10
-56.8871328588
 20
23.6167830967
 30
0.0
 10
-56.8872428159
 20
23.6606293058
 30
0.0
 10
-56.887509743
 20
23.7657447457
 30
0.0
 10
-56.8878780646
 20
23.9302998949
 30
0.0
 10
-56.8882181342
 20
24.108919122
 30
0.0
 10
-56.8883331323
 20
24.2628687667
 30
0.0
 10
-56.8878725263
 20
24.3573423231
 30
0.0
 10
-56.887652117
 20
24.3939252003
 30
0.0
 11
-56.8871328588
 21
23.6167830967
 31
0.0
 11
-56.8874599932
 21
23.7483218982
 31
0.0
 11
-56.8878717607
 21
23.9321297224
 31
0.0
 11
-56.8881862088
 21
24.1104455097
 31
0.0
 11
-56.8881495384
 21
24.2841925734
 31
0.0
 11
-56.887652117
 21
24.3939252003
 31
0.0
  0
SPLINE
  5
39E
100
AcDbEntity
  8
RACCORDO
100
AcDbSpline
 62
253
  6
CONTINUOUS
 70
0
 71
3
 72
15
 73
11
 74
9
 42
0.0000001
 43
0.0000001
 44
0.0000000001
 12
0.0039658043
 22
0.6582323626
 32
0.0
 13
-0.0038996713
 23
0.7082205345
 33
0.0
 40
0.0
 40
0.0
 40
0.0
 40
0.0
 40
0.0788187981
 40
0.2936368035
 40
0.4768079188
 40
0.6379505298
 40
0.7814178651
 40
0.9005632638
 40
0.98276367
 40
1.0
 40
1.0
 40
1.0
 40
1.0
 10
-56.887652117
 20
24.3939252003
 30
0.0
 10
-56.8875479237
 20
24.4112188949
 30
0.0
 10
-56.8871247053
 20
24.4756546453
 30
0.0
 10
-56.8863147467
 20
24.5803742207
 30
0.0
 10
-56.8856054672
 20
24.7026059981
 30
0.0
 10
-56.8844711535
 20
24.8109795189
 30
0.0
 10
-56.8852156503
 20
24.8997901581
 30
0.0
 10
-56.8813375036
 20
24.9869059066
 30
0.0
 10
-56.8882478796
 20
25.0125074801
 30
0.0
 10
-56.8821941999
 20
25.054407103
 30
0.0
 10
-56.8822166052
 20
25.058476144
 30
0.0
 11
-56.887652117
 21
24.3939252003
 31
0.0
 11
-56.8873152748
 21
24.4458148732
 31
0.0
 11
-56.8863108663
 21
24.5872068652
 31
0.0
 11
-56.8854745317
 21
24.7077691948
 31
0.0
 11
-56.8847780574
 21
24.8138327363
 31
0.0
 11
-56.8842391633
 21
24.908262967
 31
0.0
 11
-56.8839438848
 21
24.9866852149
 31
0.0
 11
-56.8840165367
 21
25.0407903721
 31
0.0
 11
-56.8822166052
 21
25.058476144
 31
0.0
  0
SPLINE
  5
39F
100
AcDbEntity
  8
RACCORDO
100
AcDbSpline
 62
253
  6
CONTINUOUS
 70
0
 71
3
 72
8
 73
4
 74
2
 42
0.0000001
 43
0.0000001
 44
0.0000000001
 12
-0.0000499994
 22
0.009080411
 32
0.0
 13
-0.0052728178
 23
-0.0065892149
 33
0.0
 40
0.0
 40
0.0
 40
0.0
 40
0.0
 40
1.0
 40
1.0
 40
1.0
 40
1.0
 10
-56.8822166052
 20
25.058476144
 30
0.0
 10
-56.8822332717
 20
25.0615029476
 30
0.0
 10
-56.8828429688
 20
25.0627625112
 30
0.0
 10
-56.8846005747
 20
25.0605661062
 30
0.0
 11
-56.8822166052
 21
25.058476144
 31
0.0
 11
-56.8846005747
 21
25.0605661062
 31
0.0
  0
SPLINE
  5
3A0
100
AcDbEntity
  8
RACCORDO
100
AcDbSpline
 62
253
  6
CONTINUOUS
 70
0
 71
3
 72
34
 73
30
 74
28
 42
0.0000001
 43
0.0000001
 44
0.0000000001
 12
-0.0000064984
 22
32.7504390335
 32
0.0
 13
1.1746008125
 23
32.7293686132
 33
0.0
 40
0.0
 40
0.0
 40
0.0
 40
0.0
 40
0.096633542
 40
0.1845034551
 40
0.2640636592
 40
0.3358666711
 40
0.4006924895
 40
0.4594317863
 40
0.512892699
 40
0.5616188694
 40
0.6061016547
 40
0.6468129718
 40
0.684209269
 40
0.7186866844
 40
0.7503943719
 40
0.7794583146
 40
0.8061750294
 40
0.8308220078
 40
0.8535107023
 40
0.8743735524
 40
0.8935768369
 40
0.9112095061
 40
0.9272730752
 40
0.9418380125
 40
0.955103484
 40
0.9673267251
 40
0.9787695373
 40
0.9896109209
 40
1.0
 40
1.0
 40
1.0
 40
1.0
 10
-52.572968806
 20
12.5694159315
 30
0.0
 10
-52.5729690153
 20
13.62434624
 30
0.0
 10
-52.5724810559
 20
15.6385359835
 30
0.0
 10
-52.5706313558
 20
18.5212690367
 30
0.0
 10
-52.5680840624
 20
21.132931174
 30
0.0
 10
-52.5651764202
 20
23.4930246517
 30
0.0
 10
-52.562557064
 20
25.6258203555
 30
0.0
 10
-52.5605205595
 20
27.558379345
 30
0.0
 10
-52.5591839272
 20
29.3151820708
 30
0.0
 10
-52.5585694714
 20
30.9163495167
 30
0.0
 10
-52.5584807896
 20
32.3783321088
 30
0.0
 10
-52.5587532373
 20
33.7166285682
 30
0.0
 10
-52.5592964629
 20
34.945698162
 30
0.0
 10
-52.5594225642
 20
36.0764769927
 30
0.0
 10
-52.558648253
 20
37.1162929183
 30
0.0
 10
-52.5567929046
 20
38.0713852821
 30
0.0
 10
-52.5538599533
 20
38.9493941931
 30
0.0
 10
-52.5497441956
 20
39.7578003005
 30
0.0
 10
-52.5444330492
 20
40.5022923818
 30
0.0
 10
-52.5383997721
 20
41.1873486448
 30
0.0
 10
-52.532821755
 20
41.8172109595
 30
0.0
 10
-52.5282228075
 20
42.3946870943
 30
0.0
 10
-52.5249567734
 20
42.9215353369
 30
0.0
 10
-52.5220082306
 20
43.4007085313
 30
0.0
 10
-52.5188665253
 20
43.8379558255
 30
0.0
 10
-52.5144001546
 20
44.2411073202
 30
0.0
 10
-52.5080247
 20
44.6177671275
 30
0.0
 10
-52.4996000499
 20
44.9743586254
 30
0.0
 10
-52.4922858928
 20
45.2060153426
 30
0.0
 10
-52.4882182192
 20
45.3193580095
 30
0.0
 11
-52.572968806
 21
12.5694159315
 31
0.0
 11
-52.5722372097
 21
15.7342067723
 31
0.0
 11
-52.5704051499
 21
18.6119844228
 31
0.0
 11
-52.5678842983
 21
21.2176148161
 31
0.0
 11
-52.5650841745
 21
23.5691933114
 31
0.0
 11
-52.5625401906
 21
25.6922658009
 31
0.0
 11
-52.5605581835
 21
27.6160025383
 31
0.0
 11
-52.5592597349
 21
29.3668704205
 31
0.0
 11
-52.5586415394
 21
30.9626737729
 31
0.0
 11
-52.5585452903
 21
32.4195045179
 31
0.0
 11
-52.5588158308
 21
33.7528179989
 31
0.0
 11
-52.5592403514
 21
34.9775630759
 31
0.0
 11
-52.5592580674
 21
36.1067135697
 31
0.0
 11
-52.5584104135
 21
37.1451539093
 31
0.0
 11
-52.5565120358
 21
38.0970088976
 31
0.0
 11
-52.5535188831
 21
38.9719879172
 31
0.0
 11
-52.5493491895
 21
39.7791765134
 31
0.0
 11
-52.5440749923
 21
40.5222225008
 31
0.0
 11
-52.5382344164
 21
41.2054650362
 31
0.0
 11
-52.532767397
 21
41.834357273
 31
0.0
 11
-52.5282641337
 21
42.411817373
 31
0.0
 11
-52.5248595667
 21
42.9378952962
 31
0.0
 11
-52.521835086
 21
43.4148937983
 31
0.0
 11
-52.5184913638
 21
43.849330946
 31
0.0
 11
-52.5139028699
 21
44.2496211627
 31
0.0
 11
-52.5074841227
 21
44.6243233116
 31
0.0
 11
-52.4990036211
 21
44.9792820915
 31
0.0
 11
-52.4882182192
 21
45.3193580095
 31
0.0
  0
SPLINE
  5
3A1
100
AcDbEntity
  8
RACCORDO
100
AcDbSpline
 62
253
  6
CONTINUOUS
 70
0
 71
3
 72
16
 73
12
 74
10
 42
0.0000001
 43
0.0000001
 44
0.0000000001
 12
0.063510918
 22
2.7697551052
 32
0.0
 13
-2.7666847718
 23
-0.145025353
 33
0.0
 40
0.0
 40
0.0
 40
0.0
 40
0.0
 40
0.1769516528
 40
0.3340173119
 40
0.476613711
 40
0.6063977534
 40
0.723565763
 40
0.8272874197
 40
0.9143698032
 40
0.9761139996
 40
1.0
 40
1.0
 40
1.0
 40
1.0
 10
-52.488217474
 20
45.3193580095
 30
0.0
 10
-52.4844713534
 20
45.4827289241
 30
0.0
 10
-52.4787856995
 20
45.791160967
 30
0.0
 10
-52.4731326109
 20
46.2312052077
 30
0.0
 10
-52.4694641815
 20
46.6280025175
 30
0.0
 10
-52.4680131816
 20
46.9870301973
 30
0.0
 10
-52.4660938091
 20
47.3131554578
 30
0.0
 10
-52.4711945459
 20
47.5905405617
 30
0.0
 10
-52.4615974534
 20
47.843397435
 30
0.0
 10
-52.4917297249
 20
47.9609702325
 30
0.0
 10
-52.4670151403
 20
48.0897376392
 30
0.0
 10
-52.4890434848
 20
48.0885829473
 30
0.0
 11
-52.488217474
 21
45.3193580095
 31
0.0
 11
-52.4789310171
 21
45.8095116222
 31
0.0
 11
-52.4732342039
 21
46.2446220949
 31
0.0
 11
-52.4697143644
 21
46.6396673378
 31
0.0
 11
-52.4678469247
 21
46.9992269931
 31
0.0
 11
-52.4673897371
 21
47.3238386695
 31
0.0
 11
-52.4683936627
 21
47.6111960198
 31
0.0
 11
-52.4714606074
 21
47.852436803
 31
0.0
 11
-52.4777176298
 21
48.0233835877
 31
0.0
 11
-52.4890434848
 21
48.0885829473
 31
0.0
  0
SPLINE
  5
3A2
100
AcDbEntity
  8
RACCORDO
100
AcDbSpline
 62
253
  6
CONTINUOUS
 70
0
 71
3
 72
16
 73
12
 74
10
 42
0.0000001
 43
0.0000001
 44
0.0000000001
 12
0.060088876
 22
1.8586895643
 32
0.0
 13
-1.4507786711
 23
1.1634340621
 33
0.0
 40
0.0
 40
0.0
 40
0.0
 40
0.0
 40
0.1734166969
 40
0.3280580629
 40
0.4686136315
 40
0.5968991765
 40
0.713366238
 40
0.8172241068
 40
0.9055992695
 40
0.9705483622
 40
1.0
 40
1.0
 40
1.0
 40
1.0
 10
-53.4275453939
 20
45.3547767281
 30
0.0
 10
-53.4240719224
 20
45.4622193297
 30
0.0
 10
-53.418940938
 20
45.6655223452
 30
0.0
 10
-53.4139125237
 20
45.9559531292
 30
0.0
 10
-53.4107215468
 20
46.2184908733
 30
0.0
 10
-53.4092296798
 20
46.4571906752
 30
0.0
 10
-53.408243321
 20
46.6737499704
 30
0.0
 10
-53.4106226363
 20
46.8636752768
 30
0.0
 10
-53.4079893025
 20
47.0271899335
 30
0.0
 10
-53.4230267184
 20
47.1311805477
 30
0.0
 10
-53.4141865085
 20
47.2016943765
 30
0.0
 10
-53.4284291111
 20
47.213116056
 30
0.0
 11
-53.4275453939
 21
45.3547767281
 31
0.0
 11
-53.4190973931
 21
45.6771622583
 31
0.0
 11
-53.4140202308
 21
45.9646978931
 31
0.0
 11
-53.4108982829
 21
46.2260649023
 31
0.0
 11
-53.4092540164
 21
46.4646268103
 31
0.0
 11
-53.4088563637
 21
46.6812156514
 31
0.0
 11
-53.4097349554
 21
46.8743540403
 31
0.0
 11
-53.4124618783
 21
47.0386792243
 31
0.0
 11
-53.4180861206
 21
47.1593314766
 31
0.0
 11
-53.4284291111
 21
47.213116056
 31
0.0
  0
LINE
  5
3A3
100
AcDbEntity
  8
0
100
AcDbLine
 62
7
  6
CONTINUOUS
 10
-56.2255475157
 20
-27.3328798369
 11
-56.2178123836
 21
-27.4640850481
  0
LINE
  5
3A4
100
AcDbEntity
  8
0
100
AcDbLine
 62
7
  6
CONTINUOUS
 10
-56.185412837
 20
-27.9877240258
 11
-56.1769514163
 21
-28.1178825952
  0
SPLINE
  5
3A5
100
AcDbEntity
  8
0
100
AcDbSpline
 62
7
  6
CONTINUOUS
 70
0
 71
3
 72
10
 73
6
 74
4
 42
0.0000001
 43
0.0000001
 44
0.0000000001
 12
0.0316734445
 22
-0.4536398763
 32
0.0
 13
0.0208594788
 23
-0.4545141175
 33
0.0
 40
0.0
 40
0.0
 40
0.0
 40
0.0
 40
0.3507190387
 40
0.8296097285
 40
1.0
 40
1.0
 40
1.0
 40
1.0
 10
-56.3247844927
 20
-25.2828657039
 30
0.0
 10
-56.3210816661
 20
-25.3358990844
 30
0.0
 10
-56.3147802731
 20
-25.4615168939
 30
0.0
 10
-56.307276154
 20
-25.6128583739
 30
0.0
 10
-56.302702672
 20
-25.7112378977
 30
0.0
 10
-56.3015179212
 20
-25.7370528257
 30
0.0
 11
-56.3247844927
 21
-25.2828657039
 31
0.0
 11
-56.3157673804
 21
-25.4420980655
 31
0.0
 11
-56.3051236803
 21
-25.659610597
 31
0.0
 11
-56.3015179212
 21
-25.7370528257
 31
0.0
  0
SPLINE
  5
3A6
100
AcDbEntity
  8
0
100
AcDbSpline
 62
7
  6
CONTINUOUS
 70
0
 71
3
 72
12
 73
8
 74
6
 42
0.0000001
 43
0.0000001
 44
0.0000000001
 12
0.0401409183
 22
-0.8746438119
 32
0.0
 13
0.033482554
 23
-0.6551342674
 33
0.0
 40
0.0
 40
0.0
 40
0.0
 40
0.0
 40
0.1781468822
 40
0.4292485792
 40
0.6523925125
 40
0.8409377622
 40
1.0
 40
1.0
 40
1.0
 40
1.0
 10
-56.3015179212
 20
-25.7370528257
 30
0.0
 10
-56.2991342614
 20
-25.7889911817
 30
0.0
 10
-56.2935416176
 20
-25.9141110922
 30
0.0
 10
-56.2852265286
 20
-26.103404609
 30
0.0
 10
-56.2770485585
 20
-26.2994891846
 30
0.0
 10
-56.2704389409
 20
-26.4572364518
 30
0.0
 10
-56.2665538381
 20
-26.5765879344
 30
0.0
 10
-56.2647785681
 20
-26.6113236419
 30
0.0
 11
-56.3015179212
 21
-25.7370528257
 31
0.0
 11
-56.2945130917
 21
-25.8927472298
 31
0.0
 11
-56.2849242827
 21
-26.1122736655
 31
0.0
 11
-56.2767133514
 21
-26.3073712446
 31
0.0
 11
-56.2701388134
 21
-26.4722336426
 31
0.0
 11
-56.2647785681
 21
-26.6113236419
 31
0.0
  0
SPLINE
  5
3A7
100
AcDbEntity
  8
0
100
AcDbSpline
 62
7
  6
CONTINUOUS
 70
0
 71
3
 72
9
 73
5
 74
3
 42
0.0000001
 43
0.0000001
 44
0.0000000001
 12
0.0051219943
 22
-0.1002191753
 32
0.0
 13
-0.0150683124
 23
0.1330156355
 33
0.0
 40
0.0
 40
0.0
 40
0.0
 40
0.0
 40
0.8180873246
 40
1.0
 40
1.0
 40
1.0
 40
1.0
 10
-56.2647785681
 20
-26.6113236419
 30
0.0
 10
-56.2633818219
 20
-26.6386529876
 30
0.0
 10
-56.2616763974
 20
-26.6570179011
 30
0.0
 10
-56.2605104438
 20
-26.7531843629
 30
0.0
 10
-56.2614241495
 20
-26.7451186196
 30
0.0
 11
-56.2647785681
 21
-26.6113236419
 31
0.0
 11
-56.2609524996
 21
-26.7207711923
 31
0.0
 11
-56.2614241495
 21
-26.7451186196
 31
0.0
  0
SPLINE
  5
3A8
100
AcDbEntity
  8
0
100
AcDbSpline
 62
7
  6
CONTINUOUS
 70
0
 71
3
 72
9
 73
5
 74
3
 42
0.0000001
 43
0.0000001
 44
0.0000000001
 12
0.0267397764
 22
-0.2360455669
 32
0.0
 13
0.0143368876
 23
-0.2371031461
 33
0.0
 40
0.0
 40
0.0
 40
0.0
 40
0.0
 40
0.5457782161
 40
1.0
 40
1.0
 40
1.0
 40
1.0
 10
-56.2614465467
 20
-26.7460648336
 30
0.0
 10
-56.2565818842
 20
-26.7890076764
 30
0.0
 10
-56.2529240227
 20
-26.8681812446
 30
0.0
 10
-56.2482781119
 20
-26.9472334667
 30
0.0
 10
-56.246107403
 20
-26.9831326047
 30
0.0
 11
-56.2614465467
 21
-26.7460648336
 31
0.0
 11
-56.2522948079
 21
-26.8753939482
 31
0.0
 11
-56.246107403
 21
-26.9831326047
 31
0.0
  0
LINE
  5
3A9
100
AcDbEntity
  8
0
100
AcDbLine
 62
7
  6
CONTINUOUS
 10
-56.246107403
 20
-26.9831326047
 11
-56.2399432242
 21
-27.0843890144
  0
LINE
  5
3AA
100
AcDbEntity
  8
0
100
AcDbLine
 62
7
  6
CONTINUOUS
 10
-56.2303388353
 20
-27.2497833929
 11
-56.2255475157
 21
-27.3328798366
  0
SPLINE
  5
3AB
100
AcDbEntity
  8
RACCORDO
100
AcDbSpline
 62
253
  6
CONTINUOUS
 70
0
 71
3
 72
34
 73
30
 74
28
 42
0.0000001
 43
0.0000001
 44
0.0000000001
 12
-0.0000034152
 22
32.7856992282
 32
0.0
 13
1.0595027286
 23
32.76857531
 33
0.0
 40
0.0
 40
0.0
 40
0.0
 40
0.0
 40
0.0965428598
 40
0.1843289783
 40
0.2638121096
 40
0.3355415612
 40
0.400294896
 40
0.4589640767
 40
0.5123577017
 40
0.561021059
 40
0.6054474121
 40
0.6461080503
 40
0.6834652039
 40
0.7179235581
 40
0.749627491
 40
0.7786987514
 40
0.8054331962
 40
0.8301093354
 40
0.8528300411
 40
0.8736937325
 40
0.8928634174
 40
0.9104385468
 40
0.926457093
 40
0.9410246845
 40
0.9543482096
 40
0.9667062016
 40
0.9783231927
 40
0.9893736153
 40
1.0
 40
1.0
 40
1.0
 40
1.0
 10
-53.4925954933
 20
12.5694159304
 30
0.0
 10
-53.4925956033
 20
13.6244909854
 30
0.0
 10
-53.4922549531
 20
15.6389424796
 30
0.0
 10
-53.4909306307
 20
18.5220303639
 30
0.0
 10
-53.4891010061
 20
21.133942926
 30
0.0
 10
-53.486985777
 20
23.4941398553
 30
0.0
 10
-53.4850657268
 20
25.6268702241
 30
0.0
 10
-53.4835619597
 20
27.5592165811
 30
0.0
 10
-53.4825532633
 20
29.3157228554
 30
0.0
 10
-53.4820651029
 20
30.9165756598
 30
0.0
 10
-53.4819866397
 20
32.3782752356
 30
0.0
 10
-53.4821819633
 20
33.7164142035
 30
0.0
 10
-53.4826452711
 20
34.9456171466
 30
0.0
 10
-53.4828831949
 20
36.0769362248
 30
0.0
 10
-53.482493334
 20
37.1177024024
 30
0.0
 10
-53.4812935424
 20
38.0740566784
 30
0.0
 10
-53.4792862986
 20
38.9536057786
 30
0.0
 10
-53.4762974391
 20
39.7637493178
 30
0.0
 10
-53.4722550251
 20
40.509728622
 30
0.0
 10
-53.4673436947
 20
41.1955233201
 30
0.0
 10
-53.4628044255
 20
41.8250852698
 30
0.0
 10
-53.4591442504
 20
42.4017018476
 30
0.0
 10
-53.456895967
 20
42.9280308748
 30
0.0
 10
-53.4551377734
 20
43.4078972718
 30
0.0
 10
-53.4532463608
 20
43.8477583682
 30
0.0
 10
-53.4502301774
 20
44.2553678996
 30
0.0
 10
-53.4451467581
 20
44.6381142212
 30
0.0
 10
-53.4379069241
 20
45.0018986382
 30
0.0
 10
-53.4312982884
 20
45.2387062322
 30
0.0
 10
-53.4275453939
 20
45.3547767281
 30
0.0
 11
-53.4925954933
 21
12.5694159304
 31
0.0
 11
-53.4920783848
 21
15.7346410534
 31
0.0
 11
-53.4907675311
 21
18.6127700317
 31
0.0
 11
-53.4889522869
 21
21.2186794339
 31
0.0
 11
-53.4869157745
 21
23.5703787786
 31
0.0
 11
-53.4850511876
 21
25.6933613182
 31
0.0
 11
-53.4835855523
 21
27.6168708741
 31
0.0
 11
-53.4826057965
 21
29.367417928
 31
0.0
 11
-53.4821208361
 21
30.9628800513
 31
0.0
 11
-53.4820350412
 21
32.4194290993
 31
0.0
 11
-53.4822407187
 21
33.7525165387
 31
0.0
 11
-53.4826218287
 21
34.9772968798
 31
0.0
 11
-53.4827748103
 21
36.1070381065
 31
0.0
 11
-53.48232351
 21
37.1464736185
 31
0.0
 11
-53.4810914342
 21
38.0995944225
 31
0.0
 11
-53.4790211709
 21
38.9760994415
 31
0.0
 11
-53.4759757644
 21
39.7851181873
 31
0.0
 11
-53.4719195023
 21
40.5300213684
 31
0.0
 11
-53.4672053319
 21
41.2140358352
 31
0.0
 11
-53.4627730445
 21
41.8425117281
 31
0.0
 11
-53.4592448741
 21
42.4187138343
 31
0.0
 11
-53.4568839478
 21
42.9438877654
 31
0.0
 11
-53.4550350677
 21
43.4214928577
 31
0.0
 11
-53.4529668474
 21
43.8583090506
 31
0.0
 11
-53.449760863
 21
44.2634617741
 31
0.0
 11
-53.4446339726
 21
44.6442984436
 31
0.0
 11
-53.4373222626
 21
45.0065204849
 31
0.0
 11
-53.4275453939
 21
45.3547767281
 31
0.0
  0
SPLINE
  5
3AC
100
AcDbEntity
  8
RACCORDO
100
AcDbSpline
 62
253
  6
CONTINUOUS
 70
0
 71
3
 72
11
 73
7
 74
5
 42
0.0000001
 43
0.0000001
 44
0.0000000001
 12
0.0000400723
 22
10.5018052127
 32
0.0
 13
-0.0023412361
 23
10.5018049518
 33
0.0
 40
0.0
 40
0.0
 40
0.0
 40
0.0
 40
0.2844940007
 40
0.5449347875
 40
0.7825165242
 40
1.0
 40
1.0
 40
1.0
 40
1.0
 10
-56.2969622707
 20
12.5694159304
 30
0.0
 10
-56.2969584706
 20
13.5653161236
 30
0.0
 10
-56.2983573185
 20
15.4729158382
 30
0.0
 10
-56.2960762539
 20
18.2121939728
 30
0.0
 10
-56.2908009651
 20
20.7168927896
 30
0.0
 10
-56.2935653725
 20
22.309894832
 30
0.0
 10
-56.2937350992
 20
23.0712178463
 30
0.0
 11
-56.2969622707
 21
12.5694159304
 31
0.0
 11
-56.2976048395
 21
15.5571164411
 31
0.0
 11
-56.2954024817
 21
18.2922139663
 31
0.0
 11
-56.292320784
 21
20.7872491845
 31
0.0
 11
-56.2937350992
 21
23.0712178463
 31
0.0
  0
SPLINE
  5
3AD
100
AcDbEntity
  8
RACCORDO
100
AcDbSpline
 62
253
  6
CONTINUOUS
 70
0
 71
3
 72
10
 73
6
 74
4
 42
0.0000001
 43
0.0000001
 44
0.0000000001
 12
-0.0039812979
 22
0.8198385459
 32
0.0
 13
-0.0030958555
 23
0.819832359
 33
0.0
 40
0.0
 40
0.0
 40
0.0
 40
0.0
 40
0.453428411
 40
0.8652956405
 40
1.0
 40
1.0
 40
1.0
 40
1.0
 10
-56.2964859484
 20
23.9658706888
 30
0.0
 10
-56.2970876929
 20
24.0897833852
 30
0.0
 10
-56.2983143289
 20
24.3262502569
 30
0.0
 10
-56.2995433735
 20
24.5995326036
 30
0.0
 10
-56.300134985
 20
24.7488976324
 30
0.0
 10
-56.3002739934
 20
24.7857092967
 30
0.0
 11
-56.2964859484
 21
23.9658706888
 31
0.0
 11
-56.2983284462
 21
24.3376089081
 31
0.0
 11
-56.2998385076
 21
24.6752744279
 31
0.0
 11
-56.3002739934
 21
24.7857092967
 31
0.0
  0
SPLINE
  5
3AE
100
AcDbEntity
  8
RACCORDO
100
AcDbSpline
 62
253
  6
CONTINUOUS
 70
0
 71
3
 72
17
 73
13
 74
11
 42
0.0000001
 43
0.0000001
 44
0.0000000001
 12
-0.0074395586
 22
1.9701148326
 32
0.0
 13
-1.3031564731
 23
-1.4775968029
 33
0.0
 40
0.0
 40
0.0
 40
0.0
 40
0.0
 40
0.1101621543
 40
0.265388329
 40
0.4128754353
 40
0.5477978598
 40
0.6632854769
 40
0.7649162848
 40
0.8553765891
 40
0.9303832288
 40
0.9818230916
 40
1.0
 40
1.0
 40
1.0
 40
1.0
 10
-56.3002739934
 20
24.7857092967
 30
0.0
 10
-56.3005471793
 20
24.8580533281
 30
0.0
 10
-56.3011420697
 20
25.032336676
 30
0.0
 10
-56.3016984472
 20
25.3035071678
 30
0.0
 10
-56.2977278962
 20
25.5908052767
 30
0.0
 10
-56.2937381742
 20
25.8523522142
 30
0.0
 10
-56.2906254318
 20
26.082695817
 30
0.0
 10
-56.2871093714
 20
26.2872037938
 30
0.0
 10
-56.2872353953
 20
26.454820074
 30
0.0
 10
-56.2798070317
 20
26.6186288611
 30
0.0
 10
-56.292376298
 20
26.6699090625
 30
0.0
 10
-56.2790776849
 20
26.7646374751
 30
0.0
 10
-56.2869734702
 20
26.7556847611
 30
0.0
 11
-56.3002739934
 21
24.7857092967
 31
0.0
 11
-56.3010001732
 21
25.0027460627
 31
0.0
 11
-56.3008794483
 21
25.3085655993
 31
0.0
 11
-56.2975403967
 21
25.5991188131
 31
0.0
 11
-56.2936294489
 21
25.8649080745
 31
0.0
 11
-56.290343844
 21
26.0924128094
 31
0.0
 11
-56.2876217192
 21
26.2926227074
 31
0.0
 11
-56.2855256983
 21
26.4708311651
 31
0.0
 11
-56.2843905998
 21
26.6186014811
 31
0.0
 11
-56.2847031281
 21
26.7199454809
 31
0.0
 11
-56.2869734702
 21
26.7556847611
 31
0.0
  0
SPLINE
  5
3AF
100
AcDbEntity
  8
RACCORDO
100
AcDbSpline
 62
253
  6
CONTINUOUS
 70
0
 71
3
 72
13
 73
9
 74
7
 42
0.0000001
 43
0.0000001
 44
0.0000000001
 12
-0.0985975714
 22
0.0791424584
 32
0.0
 13
-0.1010426215
 23
0.0875742193
 33
0.0
 40
0.0
 40
0.0
 40
0.0
 40
0.0
 40
0.2020802259
 40
0.3557579271
 40
0.4997002697
 40
0.6407536574
 40
0.7887840818
 40
1.0
 40
1.0
 40
1.0
 40
1.0
 10
-53.4284291111
 20
47.213116056
 30
0.0
 10
-53.435070651
 20
47.218447098
 30
0.0
 10
-53.4468167106
 20
47.2294095396
 30
0.0
 10
-53.4496126444
 20
47.251036702
 30
0.0
 10
-53.4597738059
 20
47.2668143229
 30
0.0
 10
-53.4720333022
 20
47.2805345161
 30
0.0
 10
-53.4794476239
 20
47.3005028547
 30
0.0
 10
-53.4854815506
 20
47.3145240929
 30
0.0
 10
-53.4925954873
 20
47.3206897827
 30
0.0
 11
-53.4284291111
 21
47.213116056
 31
0.0
 11
-53.4452671506
 21
47.23233196
 31
0.0
 11
-53.4510611901
 21
47.2508776997
 31
0.0
 11
-53.4602149749
 21
47.2666069083
 31
0.0
 11
-53.4709072308
 21
47.2808797619
 31
0.0
 11
-53.4786317794
 21
47.2979270776
 31
0.0
 11
-53.4925954873
 21
47.3206897827
 31
0.0
  0
SPLINE
  5
3B0
100
AcDbEntity
  8
RACCORDO
100
AcDbSpline
 62
253
  6
CONTINUOUS
 70
0
 71
3
 72
13
 73
9
 74
7
 42
0.0000001
 43
0.0000001
 44
0.0000000001
 12
0.0857205885
 22
0.0976158791
 32
0.0
 13
0.0989067142
 23
0.0793907184
 33
0.0
 40
0.0
 40
0.0
 40
0.0
 40
0.0
 40
0.1410725556
 40
0.2893524642
 40
0.432459091
 40
0.5809481493
 40
0.7995427777
 40
1.0
 40
1.0
 40
1.0
 40
1.0
 10
-53.4925954873
 20
-45.6818579219
 30
0.0
 10
-53.4885645465
 20
-45.6772676148
 30
0.0
 10
-53.4824314633
 20
-45.6667272474
 30
0.0
 10
-53.4755081225
 20
-45.6497444785
 30
0.0
 10
-53.4661329332
 20
-45.6336013409
 30
0.0
 10
-53.4489061404
 20
-45.6189868208
 30
0.0
 10
-53.4490372325
 20
-45.5923653947
 30
0.0
 10
-53.4350379662
 20
-45.5795890096
 30
0.0
 10
-53.4284291111
 20
-45.5742841953
 30
0.0
 11
-53.4925954873
 21
-45.6818579219
 31
0.0
 11
-53.482940964
 21
-45.6667942669
 31
0.0
 11
-53.4750250796
 21
-45.6497353135
 31
0.0
 11
-53.4653731042
 21
-45.634364532
 31
0.0
 11
-53.45331529
 21
-45.6198981349
 31
0.0
 11
-53.4452057523
 21
-45.5933867211
 31
0.0
 11
-53.4284291111
 21
-45.5742841953
 31
0.0
  0
ELLIPSE
  5
3B1
100
AcDbEntity
  8
RACCORDO
100
AcDbEllipse
 62
7
  6
CONTINUOUS
 10
-39.2622123692
 20
-3.3823772963
 30
0.0
 11
-0.0
 21
0.5
 31
0.0
 40
0.0524077793
 41
0.1308996939
 42
1.5707963268
  0
ELLIPSE
  5
3B2
100
AcDbEntity
  8
RACCORDO
100
AcDbEllipse
 62
7
  6
CONTINUOUS
 10
-39.2622123692
 20
5.021209157
 30
0.0
 11
0.0
 21
0.5
 31
0.0
 40
0.0524077793
 41
1.5707963268
 42
3.0106929597
  0
ELLIPSE
  5
3B3
100
AcDbEntity
  8
RACCORDO
100
AcDbEllipse
 62
7
  6
CONTINUOUS
 10
55.6853798515
 20
5.021209157
 30
0.0
 11
-0.0
 21
0.5
 31
0.0
 40
0.0524077793
 41
-3.0106929597
 42
-1.5707963268
  0
ELLIPSE
  5
3B4
100
AcDbEntity
  8
RACCORDO
100
AcDbEllipse
 62
7
  6
CONTINUOUS
 10
55.6853798515
 20
-3.3823772963
 30
0.0
 11
-0.0
 21
0.5
 31
0.0
 40
0.0524077793
 41
-1.5707963268
 42
-0.1308996939
  0
ELLIPSE
  5
3B5
100
AcDbEntity
  8
RACCORDO
100
AcDbEllipse
 62
7
  6
CONTINUOUS
 10
55.6329720722
 20
3.8809276989
 30
0.0
 11
-0.0
 21
0.5
 31
0.0
 40
0.0524077793
 41
0.1308996939
 42
1.5707963268
  0
ELLIPSE
  5
3B6
100
AcDbEntity
  8
RACCORDO
100
AcDbEllipse
 62
7
  6
CONTINUOUS
 10
55.6329720722
 20
-2.2420958382
 30
0.0
 11
-0.0
 21
0.5
 31
0.0
 40
0.0524077793
 41
-4.7123889804
 42
-3.2724923475
  0
ELLIPSE
  5
3B7
100
AcDbEntity
  8
RACCORDO
100
AcDbEllipse
 62
7
  6
CONTINUOUS
 10
-39.2098045899
 20
-2.2420958382
 30
0.0
 11
0.0
 21
0.5
 31
0.0
 40
0.0524077793
 41
-3.0106929597
 42
-1.5707963268
  0
ELLIPSE
  5
3B8
100
AcDbEntity
  8
RACCORDO
100
AcDbEllipse
 62
7
  6
CONTINUOUS
 10
-39.2098045899
 20
3.8809276989
 30
0.0
 11
0.0
 21
0.5
 31
0.0
 40
0.0524077793
 41
-1.5707963268
 42
-0.1308996939
  0
ENDSEC
  0
SECTION
  2
OBJECTS
  0
DICTIONARY
  5
C
100
AcDbDictionary
280
0
281
1
  3
ACAD_GROUP
350
D
  3
ACAD_MLINESTYLE
350
17
  3
ACAD_LAYOUT
350
1A
  3
ACAD_PLOTSETTINGS
350
19
  3
ACAD_PLOTSTYLENAME
350
E
  0
DICTIONARY
  5
D
102
{ACAD_REACTORS
330
C
102
}
100
AcDbDictionary
280
0
281
1
  0
ACDBDICTIONARYWDFLT
  5
E
102
{ACAD_REACTORS
330
C
102
}
100
AcDbDictionary
281
1
  3
Normal
350
F
100
AcDbDictionaryWithDefault
340
F
  0
DICTIONARY
  5
17
102
{ACAD_REACTORS
330
C
102
}
100
AcDbDictionary
280
0
281
1
  3
Standard
350
18
  0
DICTIONARY
  5
19
102
{ACAD_REACTORS
330
C
102
}
100
AcDbDictionary
281
1
  0
DICTIONARY
  5
1A
102
{ACAD_REACTORS
330
C
102
}
100
AcDbDictionary
281
1
  3
Model
350
3B9
  3
Layout1
350
3BA
  0
ACDBPLACEHOLDER
  5
F
102
{ACAD_REACTORS
330
E
102
}
  0
MLINESTYLE
  5
18
102
{ACAD_REACTORS
330
17
102
}
100
AcDbMlineStyle
  2
STANDARD
 70
0
  3

 62
256
 51
90.0
 52
90.0
 71
2
 49
0.5
 62
256
  6
BYLAYER
 49
-0.5
 62
256
  6
BYLAYER
  0
LAYOUT
  5
3B9
102
{ACAD_REACTORS
330
1A
102
}
100
AcDbPlotSettings
  1

  2
none_device
  4
ISO_A4_(297.00_x_210.00_MM)
  6

 40
0.0
 41
0.0
 42
0.0
 43
0.0
 44
297.0
 45
210.0
 46
0.0
 47
0.0
 48
0.0
 49
0.0
140
0.0
141
0.0
142
1.0
143
1.0
 70
1024
 72
1
 73
0
 74
0
  7

 75
0
147
1.0
148
0.0
149
0.0
100
AcDbLayout
  1
Model
 70
0
 71
0
 10
0.0
 20
0.0
 11
297.0
 21
210.0
 12
0.0
 22
0.0
 32
0.0
 14
0.0
 24
0.0
 34
0.0
 15
0.0
 25
0.0
 35
0.0
146
0.0
 13
0.0
 23
0.0
 33
0.0
 16
1.0
 26
0.0
 36
0.0
 17
0.0
 27
1.0
 37
0.0
 76
0
330
20D
345
0
346
0
  0
LAYOUT
  5
3BA
102
{ACAD_REACTORS
330
1A
102
}
100
AcDbPlotSettings
  1

  2
none_device
  4
ISO_A4_(297.00_x_210.00_MM)
  6

 40
0.0
 41
0.0
 42
0.0
 43
0.0
 44
297.0
 45
210.0
 46
0.0
 47
0.0
 48
0.0
 49
0.0
140
0.0
141
0.0
142
1.0
143
1.0
 70
0
 72
1
 73
0
 74
0
  7

 75
0
147
1.0
148
0.0
149
0.0
100
AcDbLayout
  1
Layout1
 70
0
 71
1
 10
0.0
 20
0.0
 11
297.0
 21
210.0
 12
0.0
 22
0.0
 32
0.0
 14
0.0
 24
0.0
 34
0.0
 15
0.0
 25
0.0
 35
0.0
146
0.0
 13
0.0
 23
0.0
 33
0.0
 16
1.0
 26
0.0
 36
0.0
 17
0.0
 27
1.0
 37
0.0
 76
0
330
20E
345
0
346
0
  0
ENDSEC
  0
EOF
