  0
SECTION
  2
HEADER
  9
$ACADVER
  1
AC1015
  9
$DWGCODEPAGE
  3
ANSI_1252
  9
$EXTMAX
 10
297.0
 20
210.0
 30
0.0
  9
$EXTMIN
 10
0.0
 20
0.0
 30
0.0
  9
$LIMMIN
 10
0.0
 20
0.0
  9
$LIMMAX
 10
297.0
 20
210.0
  9
$VIEWCTR
 10
148.5
 20
105.0
  9
$VIEWSIZE
 40
210.0
  9
$CLAYER
  8
0
  9
$LTSCALE
 40
16.335
  9
$CELTYPE
  6
BYLAYER
  9
$DIMSCALE
 40
1.0
  9
$DIMASZ
 40
3.0
  9
$DIMEXO
 40
1.85625
  9
$DIMDLI
 40
11.286
  9
$DIMEXE
 40
5.346
  9
$DIMCEN
 40
2.673
  9
$DIMLFAC
 40
1.0
  9
$DIMBLK
  1
_FILLED
  9
$DIMTXT
 40
3.0
  9
$DIMTOL
 70
1
  9
$DIMLIM
 70
0
  9
$DIMTFAC
 40
1.0
  9
$DIMTP
 40
0.01
  9
$DIMTM
 40
0.01
  9
$PDMODE
 70
3
  9
$PDSIZE
 40
3.0
  9
$HANDSEED
  5
3BD
  9
$TILEMODE
 70
1
  9
$MEASUREMENT
 70
1
  9
$INSUNITS
 70
4
  0
ENDSEC
  0
SECTION
  2
CLASSES
  0
CLASS
  1
ACDBDICTIONARYWDFLT
  2
AcDbDictionaryWithDefault
  3
AutoCAD 2000
 90
0
280
0
281
0
  0
CLASS
  1
ACDBPLACEHOLDER
  2
AcDbPlaceHolder
  3
AutoCAD 2000
 90
0
280
0
281
0
  0
CLASS
  1
LAYOUT
  2
AcDbLayout
  3
AutoCAD 2000
 90
0
280
0
281
0
  0
ENDSEC
  0
SECTION
  2
TABLES
  0
TABLE
  2
VPORT
  5
8
100
AcDbSymbolTable
 70
2
  0
VPORT
  5
1F4
100
AcDbSymbolTableRecord
100
AcDbViewportTableRecord
  2
*ACTIVE
 70
0
 10
0.0
 20
0.0
 11
1.0
 21
1.0
 12
148.5
 22
105.0
 13
0.0
 23
0.0
 14
1.0
 24
1.0
 15
0.0
 25
0.0
 16
0.0
 26
0.0
 36
1.0
 17
0.0
 27
0.0
 37
0.0
 40
210.0
 41
1.4142857143
 42
50.0
 43
0.0
 44
0.0
 50
0.0
 51
0.0
 71
0
 72
100
 73
1
 74
1
 75
0
 76
0
 77
0
 78
0
  0
ENDTAB
  0
TABLE
  2
LTYPE
  5
5
100
AcDbSymbolTable
 70
6
  0
LTYPE
  5
14
100
AcDbSymbolTableRecord
100
AcDbLinetypeTableRecord
  2
BYBLOCK
 70
0
  3

 72
65
 73
0
 40
0.0
  0
LTYPE
  5
15
100
AcDbSymbolTableRecord
100
AcDbLinetypeTableRecord
  2
BYLAYER
 70
0
  3

 72
65
 73
0
 40
0.0
  0
LTYPE
  5
16
100
AcDbSymbolTableRecord
100
AcDbLinetypeTableRecord
  2
CONTINUOUS
 70
64
  3
Solid line
 72
65
 73
0
 40
0.0
  0
LTYPE
  5
1F5
100
AcDbSymbolTableRecord
100
AcDbLinetypeTableRecord
  2
CENTER
 70
64
  3
____ _ ____ _ ____ _ ____ _ ____ _ ____ _ ____
 72
65
 73
4
 40
0.6
 49
0.375
 74
0
 49
-0.075
 74
0
 49
0.075
 74
0
 49
-0.075
 74
0
  0
LTYPE
  5
1F6
100
AcDbSymbolTableRecord
100
AcDbLinetypeTableRecord
  2
HIDDEN
 70
64
  3
- - - - - - - - - - - - - - - - - - - -
 72
65
 73
2
 40
0.2
 49
0.1
 74
0
 49
-0.1
 74
0
  0
LTYPE
  5
1F7
100
AcDbSymbolTableRecord
100
AcDbLinetypeTableRecord
  2
PHANTOM
 70
64
  3
_____ _ _ _____ _ _ _____ _ _ _____
 72
65
 73
6
 40
0.8
 49
0.45
 74
0
 49
-0.05
 74
0
 49
0.1
 74
0
 49
-0.05
 74
0
 49
0.1
 74
0
 49
-0.05
 74
0
  0
LTYPE
  5
1F8
100
AcDbSymbolTableRecord
100
AcDbLinetypeTableRecord
  2
DOT
 70
64
  3
. . . . . . . . . . . . . . . . . . . .
 72
65
 73
2
 40
0.2
 49
0.1
 74
0
 49
-0.1
 74
0
  0
LTYPE
  5
1F9
100
AcDbSymbolTableRecord
100
AcDbLinetypeTableRecord
  2
DASHED
 70
64
  3
- - - - - - - - - - - - - - - - - - - -
 72
65
 73
2
 40
0.2
 49
0.1
 74
0
 49
-0.1
 74
0
  0
ENDTAB
  0
TABLE
  2
LAYER
  5
2
100
AcDbSymbolTable
 70
36
  0
LAYER
  5
10
100
AcDbSymbolTableRecord
100
AcDbLayerTableRecord
  2
0
 70
0
 62
7
  6
CONTINUOUS
370
-3
390
F
  0
LAYER
  5
1FA
100
AcDbSymbolTableRecord
100
AcDbLayerTableRecord
  2
DEFAULT_1
 70
0
 62
7
  6
CENTER
370
-3
390
F
  0
LAYER
  5
1FB
100
AcDbSymbolTableRecord
100
AcDbLayerTableRecord
  2
DEFAULT_2
 70
0
 62
7
  6
HIDDEN
370
-3
390
F
  0
LAYER
  5
1FC
100
AcDbSymbolTableRecord
100
AcDbLayerTableRecord
  2
DEFAULT_3
 70
0
 62
7
  6
PHANTOM
370
-3
390
F
  0
LAYER
  5
1FD
100
AcDbSymbolTableRecord
100
AcDbLayerTableRecord
  2
ASSI
 70
0
 62
7
  6
CONTINUOUS
370
-3
390
F
  0
LAYER
  5
1FE
100
AcDbSymbolTableRecord
100
AcDbLayerTableRecord
  2
COORDINATE
 70
0
 62
7
  6
CONTINUOUS
370
-3
390
F
  0
LAYER
  5
1FF
100
AcDbSymbolTableRecord
100
AcDbLayerTableRecord
  2
COPY_PUBLISH
 70
0
 62
7
  6
CONTINUOUS
370
-3
390
F
  0
LAYER
  5
200
100
AcDbSymbolTableRecord
100
AcDbLayerTableRecord
  2
COSMETIC
 70
0
 62
7
  6
CONTINUOUS
370
-3
390
F
  0
LAYER
  5
201
100
AcDbSymbolTableRecord
100
AcDbLayerTableRecord
  2
CURVE
 70
0
 62
7
  6
CONTINUOUS
370
-3
390
F
  0
LAYER
  5
202
100
AcDbSymbolTableRecord
100
AcDbLayerTableRecord
  2
DRAFT
 70
0
 62
7
  6
CONTINUOUS
370
-3
390
F
  0
LAYER
  5
203
100
AcDbSymbolTableRecord
100
AcDbLayerTableRecord
  2
IMPORT_IGES
 70
0
 62
7
  6
CONTINUOUS
370
-3
390
F
  0
LAYER
  5
204
100
AcDbSymbolTableRecord
100
AcDbLayerTableRecord
  2
INTF_1
 70
0
 62
7
  6
CONTINUOUS
370
-3
390
F
  0
LAYER
  5
205
100
AcDbSymbolTableRecord
100
AcDbLayerTableRecord
  2
PIANI
 70
0
 62
7
  6
CONTINUOUS
370
-3
390
F
  0
LAYER
  5
206
100
AcDbSymbolTableRecord
100
AcDbLayerTableRecord
  2
PUNTI
 70
0
 62
7
  6
CONTINUOUS
370
-3
390
F
  0
LAYER
  5
207
100
AcDbSymbolTableRecord
100
AcDbLayerTableRecord
  2
RACCORDO
 70
0
 62
7
  6
CONTINUOUS
370
-3
390
F
  0
LAYER
  5
208
100
AcDbSymbolTableRecord
100
AcDbLayerTableRecord
  2
SNAPLINE
 70
0
 62
7
  6
CONTINUOUS
370
-3
390
F
  0
LAYER
  5
209
100
AcDbSymbolTableRecord
100
AcDbLayerTableRecord
  2
SUPERFICI
 70
0
 62
7
  6
CONTINUOUS
370
-3
390
F
  0
LAYER
  5
20A
100
AcDbSymbolTableRecord
100
AcDbLayerTableRecord
  2
TRASH
 70
0
 62
7
  6
CONTINUOUS
370
-3
390
F
  0
ENDTAB
  0
TABLE
  2
STYLE
  5
3
100
AcDbSymbolTable
 70
1
  0
STYLE
  5
11
100
AcDbSymbolTableRecord
100
AcDbTextStyleTableRecord
  2
STANDARD
 70
0
 40
0.0
 41
0.8
 50
0.0
 71
0
 42
0.2
  3
txt
  4

  0
STYLE
  5
20B
100
AcDbSymbolTableRecord
100
AcDbTextStyleTableRecord
  2
TEXTSTYLE_1
 70
0
 40
0.0
 41
0.8
 50
0.0
 71
0
 42
0.2
  3
gdt
  4

  0
ENDTAB
  0
TABLE
  2
VIEW
  5
6
100
AcDbSymbolTable
 70
0
  0
ENDTAB
  0
TABLE
  2
UCS
  5
7
100
AcDbSymbolTable
 70
0
  0
ENDTAB
  0
TABLE
  2
APPID
  5
9
100
AcDbSymbolTable
 70
1
  0
APPID
  5
20C
100
AcDbSymbolTableRecord
100
AcDbRegAppTableRecord
  2
ACAD
 70
0
  0
ENDTAB
  0
TABLE
  2
BLOCK_RECORD
  5
1
100
AcDbSymbolTable
 70
0
  0
BLOCK_RECORD
  5
20D
100
AcDbSymbolTableRecord
100
AcDbBlockTableRecord
  2
*Model_Space
  0
BLOCK_RECORD
  5
20E
100
AcDbSymbolTableRecord
100
AcDbBlockTableRecord
  2
*Paper_Space
  0
BLOCK_RECORD
  5
20F
100
AcDbSymbolTableRecord
100
AcDbBlockTableRecord
  2
_FILLED
  0
BLOCK_RECORD
  5
210
100
AcDbSymbolTableRecord
100
AcDbBlockTableRecord
  2
*D0
  0
BLOCK_RECORD
  5
211
100
AcDbSymbolTableRecord
100
AcDbBlockTableRecord
  2
*D1
  0
BLOCK_RECORD
  5
212
100
AcDbSymbolTableRecord
100
AcDbBlockTableRecord
  2
*D2
  0
ENDTAB
  0
TABLE
  2
DIMSTYLE
  5
A
100
AcDbSymbolTable
 70
1
100
AcDbDimStyleTable
 71
0
  0
DIMSTYLE
105
213
100
AcDbSymbolTableRecord
100
AcDbDimStyleTableRecord
  2
STANDARD
 70
0
  3

  4

 40
1.0
 41
3.0
 42
0.0625
 43
0.38
 44
0.18
 45
0.0
 46
0.0
 47
0.01
 48
0.01
140
3.0
141
0.09
142
0.0
143
25.4
144
1.0
145
0.0
146
1.0
147
0.09
 71
1.0
 72
0.0
 73
0
 74
0
 75
0
 76
0
 77
1
 78
8
170
0
171
2
172
0
173
0
174
0
175
0
176
0
177
0
178
0
270
2
271
2
272
2
273
2
274
2
275
0
280
0
281
0
282
0
283
1
284
8
285
0
286
0
287
3
288
0
340
11
341
20F
342
20F
343
20F
344
20F
  0
DIMSTYLE
105
214
100
AcDbSymbolTableRecord
100
AcDbDimStyleTableRecord
  2
DIMSTYLE_1
 70
0
  3

  4

 40
1.0
 41
3.0
 42
0.0625
 43
0.38
 44
0.18
 45
0.0
 46
0.0
 47
0.0
 48
0.0
140
3.0
141
0.09
142
0.0
143
25.4
144
1.0
145
0.0
146
1.0
147
0.09
 71
0.0
 72
0.0
 73
0
 74
0
 75
0
 76
0
 77
1
 78
8
170
0
171
2
172
0
173
0
174
0
175
0
176
0
177
0
178
0
270
2
271
2
272
2
273
2
274
2
275
0
280
0
281
0
282
0
283
1
284
8
285
0
286
0
287
3
288
0
340
11
341
20F
342
20F
343
20F
344
20F
  0
ENDTAB
  0
ENDSEC
  0
SECTION
  2
BLOCKS
  0
BLOCK
  5
20
100
AcDbEntity
  8
0
100
AcDbBlockBegin
  2
*Model_Space
 70
0
 10
0.0
 20
0.0
 30
0.0
  3
*Model_Space
  1

  0
ENDBLK
  5
21
100
AcDbEntity
  8
0
100
AcDbBlockEnd
  0
BLOCK
  5
1C
100
AcDbEntity
  8
0
100
AcDbBlockBegin
  2
*Paper_Space
 70
0
 10
0.0
 20
0.0
 30
0.0
  3
*Paper_Space
  1

  0
ENDBLK
  5
1D
100
AcDbEntity
  8
0
100
AcDbBlockEnd
  0
BLOCK
  5
215
100
AcDbEntity
  8
0
100
AcDbBlockBegin
  2
_FILLED
 70
64
 10
0.0
 20
0.0
  3
_FILLED
  1

  0
SOLID
  5
216
100
AcDbEntity
  8
0
  6
BYBLOCK
 62
0
100
AcDbTrace
 10
0.0
 20
0.0
 11
-1.0
 21
0.3166666667
 12
-1.0
 22
-0.3166666667
 13
-1.0
 23
-0.3166666667
  0
ENDBLK
  5
217
100
AcDbEntity
  8
0
  6
BYBLOCK
 62
0
100
AcDbBlockEnd
  0
BLOCK
  5
218
100
AcDbEntity
  8
0
100
AcDbBlockBegin
 62
7
  6
CONTINUOUS
  2
*D0
 70
65
 10
0.0
 20
0.0
  3
*D0
  1

  0
MTEXT
  5
219
100
AcDbEntity
  8
0
100
AcDbMText
 62
7
  6
CONTINUOUS
  7
STANDARD
 71
2
 72
1
 10
11.9293970894
 20
59.3684017672
 30
0.0
 11
1.0
 21
0.0
 31
0.0
 44
0.9
  1
95
 40
3.0
 41
4.5
  0
LINE
  5
21A
100
AcDbEntity
  8
0
100
AcDbLine
 62
7
  6
CONTINUOUS
 10
59.4293970894
 20
45.1184017672
 11
59.4293970894
 21
57.1184017672
  0
LINE
  5
21B
100
AcDbEntity
  8
0
100
AcDbLine
 62
7
  6
CONTINUOUS
 10
-35.5706029106
 20
45.1184017672
 11
-35.5706029106
 21
57.1184017672
  0
LINE
  5
21C
100
AcDbEntity
  8
0
100
AcDbLine
 62
7
  6
CONTINUOUS
 10
59.4293970894
 20
55.6184017672
 11
11.9293970894
 21
55.6184017672
  0
LINE
  5
21D
100
AcDbEntity
  8
0
100
AcDbLine
 62
7
  6
CONTINUOUS
 10
-35.5706029106
 20
55.6184017672
 11
11.9293970894
 21
55.6184017672
  0
INSERT
  5
21E
100
AcDbEntity
  8
0
100
AcDbBlockReference
 62
7
  6
CONTINUOUS
  2
_FILLED
 10
59.4293970894
 20
55.6184017672
 41
3.0
 42
3.0
 43
3.0
 50
0.0
  0
INSERT
  5
21F
100
AcDbEntity
  8
0
100
AcDbBlockReference
 62
7
  6
CONTINUOUS
  2
_FILLED
 10
-35.5706029106
 20
55.6184017672
 41
3.0
 42
3.0
 43
3.0
 50
180.0
  0
ENDBLK
  5
220
100
AcDbEntity
  8
0
  6
BYBLOCK
 62
0
100
AcDbBlockEnd
  0
BLOCK
  5
221
100
AcDbEntity
  8
0
100
AcDbBlockBegin
 62
7
  6
CONTINUOUS
  2
*D1
 70
65
 10
0.0
 20
0.0
  3
*D1
  1

  0
MTEXT
  5
222
100
AcDbEntity
  8
0
100
AcDbMText
 62
7
  6
CONTINUOUS
  7
STANDARD
 71
2
 72
1
 10
63.6793970894
 20
0.1184017672
 30
0.0
 11
0.0
 21
1.0
 31
0.0
 44
0.9
  1
95
 40
3.0
 41
4.5
  0
LINE
  5
223
100
AcDbEntity
  8
0
100
AcDbLine
 62
7
  6
CONTINUOUS
 10
56.9293970894
 20
47.6184017672
 11
68.9293970894
 21
47.6184017672
  0
LINE
  5
224
100
AcDbEntity
  8
0
100
AcDbLine
 62
7
  6
CONTINUOUS
 10
56.9293970894
 20
-47.3815982328
 11
68.9293970894
 21
-47.3815982328
  0
LINE
  5
225
100
AcDbEntity
  8
0
100
AcDbLine
 62
7
  6
CONTINUOUS
 10
67.4293970894
 20
47.6184017672
 11
67.4293970894
 21
0.1184017672
  0
LINE
  5
226
100
AcDbEntity
  8
0
100
AcDbLine
 62
7
  6
CONTINUOUS
 10
67.4293970894
 20
-47.3815982328
 11
67.4293970894
 21
0.1184017672
  0
INSERT
  5
227
100
AcDbEntity
  8
0
100
AcDbBlockReference
 62
7
  6
CONTINUOUS
  2
_FILLED
 10
67.4293970894
 20
47.6184017672
 41
3.0
 42
3.0
 43
3.0
 50
90.0
  0
INSERT
  5
228
100
AcDbEntity
  8
0
100
AcDbBlockReference
 62
7
  6
CONTINUOUS
  2
_FILLED
 10
67.4293970894
 20
-47.3815982328
 41
3.0
 42
3.0
 43
3.0
 50
270.0
  0
ENDBLK
  5
229
100
AcDbEntity
  8
0
  6
BYBLOCK
 62
0
100
AcDbBlockEnd
  0
BLOCK
  5
22A
100
AcDbEntity
  8
0
100
AcDbBlockBegin
 62
7
  6
CONTINUOUS
  2
*D2
 70
65
 10
0.0
 20
0.0
  3
*D2
  1

  0
MTEXT
  5
22B
100
AcDbEntity
  8
0
100
AcDbMText
 62
7
  6
CONTINUOUS
  7
STANDARD
 71
2
 72
1
 10
-53.9037466218
 20
59.3684017672
 30
0.0
 11
1.0
 21
0.0
 31
0.0
 44
0.9
  1
9
 40
3.0
 41
2.3571428571
  0
LINE
  5
22C
100
AcDbEntity
  8
0
100
AcDbLine
 62
7
  6
CONTINUOUS
 10
-49.4037905275
 20
48.1184017672
 11
-49.4037905275
 21
57.1184017672
  0
LINE
  5
22D
100
AcDbEntity
  8
0
100
AcDbLine
 62
7
  6
CONTINUOUS
 10
-58.4037027162
 20
24.2684514521
 11
-58.4037027162
 21
57.1184017672
  0
LINE
  5
22E
100
AcDbEntity
  8
0
100
AcDbLine
 62
7
  6
CONTINUOUS
 10
-49.4037905275
 20
55.6184017672
 11
-53.9037466218
 21
55.6184017672
  0
LINE
  5
22F
100
AcDbEntity
  8
0
100
AcDbLine
 62
7
  6
CONTINUOUS
 10
-58.4037027162
 20
55.6184017672
 11
-53.9037466218
 21
55.6184017672
  0
INSERT
  5
230
100
AcDbEntity
  8
0
100
AcDbBlockReference
 62
7
  6
CONTINUOUS
  2
_FILLED
 10
-49.4037905275
 20
55.6184017672
 41
3.0
 42
3.0
 43
3.0
  0
INSERT
  5
231
100
AcDbEntity
  8
0
100
AcDbBlockReference
 62
7
  6
CONTINUOUS
  2
_FILLED
 10
-58.4037027162
 20
55.6184017672
 41
3.0
 42
3.0
 43
3.0
 50
180.0
  0
ENDBLK
  5
232
100
AcDbEntity
  8
0
  6
BYBLOCK
 62
0
100
AcDbBlockEnd
  0
ENDSEC
  0
SECTION
  2
ENTITIES
  0
DIMENSION
  5
233
100
AcDbEntity
  8
0
100
AcDbDimension
 62
7
  6
CONTINUOUS
  2
*D0
 10
-35.5706029106
 20
55.6184017672
 11
9.6793970894
 21
57.8684017672
 70
160
 71
2
 42
95.0
  3
DIMSTYLE_1
100
AcDbAlignedDimension
 13
59.4293970894
 23
45.1184017672
 14
-35.5706029106
 24
45.1184017672
 50
180.0
100
AcDbRotatedDimension
  0
DIMENSION
  5
234
100
AcDbEntity
  8
0
100
AcDbDimension
 62
7
  6
CONTINUOUS
  2
*D1
 10
67.4293970894
 20
-47.3815982328
 11
66.1875627257
 21
-1.8930907259
 70
160
 71
2
 42
95.0
  3
DIMSTYLE_1
100
AcDbAlignedDimension
 13
56.9293970894
 23
47.6184017672
 14
56.9293970894
 24
-47.3815982328
 50
270.0
100
AcDbRotatedDimension
  0
DIMENSION
  5
235
100
AcDbEntity
  8
0
100
AcDbDimension
 62
7
  6
CONTINUOUS
  2
*D2
 10
-58.4037027162
 20
55.6184017672
 11
-55.0823180504
 21
57.8684017672
 70
160
 71
2
 42
8.9999121886
  3
DIMSTYLE_1
100
AcDbAlignedDimension
 13
-49.4037905275
 23
48.1184017672
 14
-58.4037027162
 24
24.2684514521
 50
180.0
100
AcDbRotatedDimension
  0
LINE
  5
236
100
AcDbEntity
  8
0
100
AcDbLine
 62
253
  6
CONTINUOUS
 10
29.2654323485
 20
-27.3925265871
 11
29.8541662658
 21
-28.9629321993
  0
LINE
  5
237
100
AcDbEntity
  8
0
100
AcDbLine
 62
253
  6
CONTINUOUS
 10
29.9615940181
 20
-27.3325503559
 11
29.4235832579
 21
-25.8862135354
  0
LINE
  5
238
100
AcDbEntity
  8
0
100
AcDbLine
 62
253
  6
CONTINUOUS
 10
24.7547112549
 20
-25.8862147014
 11
25.7298000974
 21
-28.9629229218
  0
LINE
  5
239
100
AcDbEntity
  8
0
100
AcDbLine
 62
253
  6
CONTINUOUS
 10
34.2357719447
 20
-28.9629334168
 11
33.2916960948
 21
-25.8862494902
  0
LINE
  5
23A
100
AcDbEntity
  8
0
100
AcDbLine
 62
253
  6
CONTINUOUS
 10
26.0867421648
 20
-27.6444452197
 11
25.5998387016
 21
-25.8862155412
  0
LINE
  5
23B
100
AcDbEntity
  8
0
100
AcDbLine
 62
253
  6
CONTINUOUS
 10
33.2539035144
 20
-28.3839248046
 11
33.4106881474
 21
-28.9629153481
  0
LINE
  5
23C
100
AcDbEntity
  8
0
100
AcDbLine
 62
253
  6
CONTINUOUS
 10
32.9189527896
 20
-27.110895473
 11
33.0864947116
 21
-27.7592820432
  0
LINE
  5
23D
100
AcDbEntity
  8
0
100
AcDbLine
 62
253
  6
CONTINUOUS
 10
33.4106881474
 20
-28.9629153481
 11
34.2357719447
 21
-28.9629334168
  0
LINE
  5
23E
100
AcDbEntity
  8
0
100
AcDbLine
 62
253
  6
CONTINUOUS
 10
25.7298000974
 20
-28.9629229218
 11
26.3922802986
 21
-28.9629281248
  0
LINE
  5
23F
100
AcDbEntity
  8
0
100
AcDbLine
 62
253
  6
CONTINUOUS
 10
27.4762021923
 20
-28.9629354739
 11
28.2581909224
 21
-28.9629382783
  0
LINE
  5
240
100
AcDbEntity
  8
0
100
AcDbLine
 62
253
  6
CONTINUOUS
 10
28.3989735067
 20
-28.9629384494
 11
29.1571921875
 21
-28.9629371726
  0
LINE
  5
241
100
AcDbEntity
  8
0
100
AcDbLine
 62
253
  6
CONTINUOUS
 10
34.3292185819
 20
-28.9592494971
 11
35.1015971374
 21
-28.9592715688
  0
LINE
  5
242
100
AcDbEntity
  8
0
100
AcDbLine
 62
253
  6
CONTINUOUS
 10
31.6111639857
 20
-28.9629124518
 11
32.3966464818
 21
-28.9629088218
  0
LINE
  5
243
100
AcDbEntity
  8
0
100
AcDbLine
 62
253
  6
CONTINUOUS
 10
29.8541662658
 20
-28.9629321993
 11
30.0611334595
 21
-28.9629300096
  0
LINE
  5
244
100
AcDbEntity
  8
0
100
AcDbLine
 62
253
  6
CONTINUOUS
 10
30.7615919513
 20
-28.9629215372
 11
31.5334290744
 21
-28.9629131021
  0
LINE
  5
245
100
AcDbEntity
  8
0
100
AcDbLine
 62
253
  6
CONTINUOUS
 10
35.8798064123
 20
-28.959293242
 11
36.6374494691
 21
-28.9593064359
  0
LINE
  5
246
100
AcDbEntity
  8
0
100
AcDbLine
 62
253
  6
CONTINUOUS
 10
32.5636415121
 20
-28.3839165975
 11
33.2539035144
 21
-28.3839248046
  0
LINE
  5
247
100
AcDbEntity
  8
0
100
AcDbLine
 62
253
  6
CONTINUOUS
 10
36.6374494691
 20
-28.9593064359
 11
36.4008354867
 21
-28.0673127226
  0
LINE
  5
248
100
AcDbEntity
  8
0
100
AcDbLine
 62
253
  6
CONTINUOUS
 10
31.5334290744
 20
-28.9629131021
 11
31.2456337094
 21
-25.886220149
  0
LINE
  5
249
100
AcDbEntity
  8
0
100
AcDbLine
 62
253
  6
CONTINUOUS
 10
30.6584513922
 20
-27.397507062
 11
30.7615919513
 21
-28.9629215372
  0
LINE
  5
24A
100
AcDbEntity
  8
0
100
AcDbLine
 62
253
  6
CONTINUOUS
 10
35.1015195484
 20
-27.8243094932
 11
35.3413568981
 21
-27.8243150959
  0
LINE
  5
24B
100
AcDbEntity
  8
0
100
AcDbLine
 62
253
  6
CONTINUOUS
 10
33.0864947116
 20
-27.7592820432
 11
32.7374268657
 21
-27.75927854
  0
LINE
  5
24C
100
AcDbEntity
  8
0
100
AcDbLine
 62
253
  6
CONTINUOUS
 10
35.3416412872
 20
-27.1764107823
 11
35.0850111773
 21
-27.176408489
  0
LINE
  5
24D
100
AcDbEntity
  8
0
100
AcDbLine
 62
253
  6
CONTINUOUS
 10
33.2916960948
 20
-25.8862494902
 11
32.576172618
 21
-25.8862363527
  0
LINE
  5
24E
100
AcDbEntity
  8
0
100
AcDbLine
 62
253
  6
CONTINUOUS
 10
31.2456337094
 20
-25.886220149
 11
30.5053388875
 21
-25.886215664
  0
LINE
  5
24F
100
AcDbEntity
  8
0
100
AcDbLine
 62
253
  6
CONTINUOUS
 10
25.5998387016
 20
-25.8862155412
 11
24.7547112549
 21
-25.8862147014
  0
LINE
  5
250
100
AcDbEntity
  8
0
100
AcDbLine
 62
253
  6
CONTINUOUS
 10
27.3809530591
 20
-25.886216
 11
26.5885117432
 21
-25.8862161443
  0
LINE
  5
251
100
AcDbEntity
  8
0
100
AcDbLine
 62
253
  6
CONTINUOUS
 10
29.4235832579
 20
-25.8862135354
 11
28.6768872754
 21
-25.886214326
  0
LINE
  5
252
100
AcDbEntity
  8
0
100
AcDbLine
 62
253
  6
CONTINUOUS
 10
28.2580506845
 20
-25.8860410346
 11
27.4763405372
 21
-25.8860419132
  0
LINE
  5
253
100
AcDbEntity
  8
0
100
AcDbLine
 62
253
  6
CONTINUOUS
 10
27.4763405372
 20
-25.8860419132
 11
27.4762021923
 21
-28.9629354739
  0
LINE
  5
254
100
AcDbEntity
  8
0
100
AcDbLine
 62
253
  6
CONTINUOUS
 10
28.2581909224
 20
-28.9629382783
 11
28.2580506845
 21
-25.8860410346
  0
LINE
  5
255
100
AcDbEntity
  8
0
100
AcDbLine
 62
253
  6
CONTINUOUS
 10
34.3292929915
 20
-25.9354611918
 11
34.3292185819
 21
-28.9592494971
  0
LINE
  5
256
100
AcDbEntity
  8
0
100
AcDbLine
 62
253
  6
CONTINUOUS
 10
35.0850111773
 20
-27.176408489
 11
35.0849760666
 21
-26.5440903324
  0
LINE
  5
257
100
AcDbEntity
  8
0
100
AcDbLine
 62
253
  6
CONTINUOUS
 10
35.1015971374
 20
-28.9592715688
 11
35.1015195484
 21
-27.8243094932
  0
LINE
  5
258
100
AcDbEntity
  8
0
100
AcDbLine
 62
253
  6
CONTINUOUS
 10
29.1571921875
 20
-28.9629371726
 11
29.2654323485
 21
-27.3925265871
  0
LINE
  5
259
100
AcDbEntity
  8
0
100
AcDbLine
 62
253
  6
CONTINUOUS
 10
28.6768872754
 20
-25.886214326
 11
28.3989735067
 21
-28.9629384494
  0
LINE
  5
25A
100
AcDbEntity
  8
0
100
AcDbLine
 62
253
  6
CONTINUOUS
 10
32.7374268657
 20
-27.75927854
 11
32.9189527896
 21
-27.110895473
  0
LINE
  5
25B
100
AcDbEntity
  8
0
100
AcDbLine
 62
253
  6
CONTINUOUS
 10
26.5885117432
 20
-25.8862161443
 11
26.0867421648
 21
-27.6444452197
  0
LINE
  5
25C
100
AcDbEntity
  8
0
100
AcDbLine
 62
253
  6
CONTINUOUS
 10
32.3966464818
 20
-28.9629088218
 11
32.5636415121
 21
-28.3839165975
  0
LINE
  5
25D
100
AcDbEntity
  8
0
100
AcDbLine
 62
253
  6
CONTINUOUS
 10
32.576172618
 20
-25.8862363527
 11
31.6111639857
 21
-28.9629124518
  0
LINE
  5
25E
100
AcDbEntity
  8
0
100
AcDbLine
 62
253
  6
CONTINUOUS
 10
26.3922802986
 20
-28.9629281248
 11
27.3809530591
 21
-25.886216
  0
LINE
  5
25F
100
AcDbEntity
  8
0
100
AcDbLine
 62
253
  6
CONTINUOUS
 10
30.5053388875
 20
-25.886215664
 11
29.9615940181
 21
-27.3325503559
  0
LINE
  5
260
100
AcDbEntity
  8
0
100
AcDbLine
 62
253
  6
CONTINUOUS
 10
30.0611334595
 20
-28.9629300096
 11
30.6584513922
 21
-27.397507062
  0
LINE
  5
261
100
AcDbEntity
  8
RACCORDO
100
AcDbLine
 62
253
  6
CONTINUOUS
 10
-32.5706029106
 20
47.6184017672
 11
-32.5705667377
 21
47.3876120684
  0
LINE
  5
262
100
AcDbEntity
  8
RACCORDO
100
AcDbLine
 62
7
  6
CONTINUOUS
 10
-35.5706029106
 20
44.6184017672
 11
-35.5706029106
 21
4.3201949938
  0
LINE
  5
263
100
AcDbEntity
  8
RACCORDO
100
AcDbLine
 62
7
  6
CONTINUOUS
 10
-35.5706029106
 20
-4.0833914595
 11
-35.5706029106
 21
-44.3815982328
  0
LINE
  5
264
100
AcDbEntity
  8
RACCORDO
100
AcDbLine
 62
7
  6
CONTINUOUS
 10
-35.465787352
 20
3.1799135357
 11
-35.465787352
 21
-2.9431100014
  0
LINE
  5
265
100
AcDbEntity
  8
RACCORDO
100
AcDbLine
 62
253
  6
CONTINUOUS
 10
-35.3353715881
 20
11.8684017667
 11
-35.3353715881
 21
-11.6315982324
  0
LINE
  5
266
100
AcDbEntity
  8
RACCORDO
100
AcDbLine
 62
253
  6
CONTINUOUS
 10
-34.5718771333
 20
11.8684017672
 11
-34.5718771333
 21
-11.6315982328
  0
LINE
  5
267
100
AcDbEntity
  8
RACCORDO
100
AcDbLine
 62
253
  6
CONTINUOUS
 10
-32.5706029106
 20
-47.3815982328
 11
-32.570607001
 21
-47.150808603
  0
LINE
  5
268
100
AcDbEntity
  8
SUPERFICI
100
AcDbLine
 62
7
  6
CONTINUOUS
 10
-32.5706029106
 20
-47.3815982328
 11
56.4293970894
 21
-47.3815982328
  0
LINE
  5
269
100
AcDbEntity
  8
RACCORDO
100
AcDbLine
 62
253
  6
CONTINUOUS
 10
0.1793970882
 20
-47.1463669101
 11
23.6793970906
 21
-47.1463669101
  0
LINE
  5
26A
100
AcDbEntity
  8
RACCORDO
100
AcDbLine
 62
253
  6
CONTINUOUS
 10
0.1793970894
 20
-46.3828724563
 11
23.6793970894
 21
-46.3828724563
  0
LINE
  5
26B
100
AcDbEntity
  8
RACCORDO
100
AcDbLine
 62
253
  6
CONTINUOUS
 10
59.4293970894
 20
-44.3815982328
 11
59.1985641434
 21
-44.3816206879
  0
LINE
  5
26C
100
AcDbEntity
  8
RACCORDO
100
AcDbLine
 62
253
  6
CONTINUOUS
 10
-35.5706029106
 20
-44.3815982328
 11
-35.3397700462
 21
-44.3816684464
  0
LINE
  5
26D
100
AcDbEntity
  8
RACCORDO
100
AcDbLine
 62
7
  6
CONTINUOUS
 10
-35.4885709477
 20
-3.438832432
 11
-35.5478193149
 21
-3.5876690288
  0
LINE
  5
26E
100
AcDbEntity
  8
RACCORDO
100
AcDbLine
 62
7
  6
CONTINUOUS
 10
-35.5478193149
 20
3.8244725631
 11
-35.4885709477
 21
3.6756359663
  0
LINE
  5
26F
100
AcDbEntity
  8
RACCORDO
100
AcDbLine
 62
253
  6
CONTINUOUS
 10
-10.3223765931
 20
26.0481199405
 11
-10.3210641159
 21
24.3661345233
  0
LINE
  5
270
100
AcDbEntity
  8
RACCORDO
100
AcDbLine
 62
253
  6
CONTINUOUS
 10
-14.0056626527
 20
11.8684017672
 11
-14.005662652
 21
-11.6315982328
  0
LINE
  5
271
100
AcDbEntity
  8
RACCORDO
100
AcDbLine
 62
253
  6
CONTINUOUS
 10
-12.3171491583
 20
11.8684017671
 11
-12.3171491569
 21
-11.6317249204
  0
LINE
  5
272
100
AcDbEntity
  8
0
100
AcDbLine
 62
253
  6
CONTINUOUS
 10
-10.7244655783
 20
-11.6315640366
 11
-10.7244655782
 21
11.8684017672
  0
LINE
  5
273
100
AcDbEntity
  8
0
100
AcDbLine
 62
7
  6
CONTINUOUS
 10
-10.6206029106
 20
22.3684017672
 11
-10.6206029106
 21
-22.1315982328
  0
LINE
  5
274
100
AcDbEntity
  8
0
100
AcDbLine
 62
253
  6
CONTINUOUS
 10
-10.3206029106
 20
-22.4315982328
 11
-10.3206029106
 21
-22.5354607142
  0
LINE
  5
275
100
AcDbEntity
  8
0
100
AcDbLine
 62
253
  6
CONTINUOUS
 10
-10.3206029106
 20
22.6684017672
 11
-10.3206029106
 21
22.7722642483
  0
LINE
  5
276
100
AcDbEntity
  8
RACCORDO
100
AcDbLine
 62
253
  6
CONTINUOUS
 10
-10.3224775267
 20
-25.8112513067
 11
-10.3210643422
 21
-24.1293519081
  0
LINE
  5
277
100
AcDbEntity
  8
RACCORDO
100
AcDbLine
 62
253
  6
CONTINUOUS
 10
0.1793970894
 20
-25.816657759
 11
23.6793970894
 21
-25.8166577589
  0
LINE
  5
278
100
AcDbEntity
  8
RACCORDO
100
AcDbLine
 62
253
  6
CONTINUOUS
 10
0.1793970894
 20
-24.1281444899
 11
23.6793970183
 21
-24.1281444889
  0
LINE
  5
279
100
AcDbEntity
  8
0
100
AcDbLine
 62
253
  6
CONTINUOUS
 10
23.6793970894
 20
-22.5354609027
 11
0.1793970894
 21
-22.5354609026
  0
LINE
  5
27A
100
AcDbEntity
  8
0
100
AcDbLine
 62
7
  6
CONTINUOUS
 10
-10.3206029106
 20
-22.4315982328
 11
34.1793970894
 21
-22.4315982328
  0
LINE
  5
27B
100
AcDbEntity
  8
0
100
AcDbLine
 62
253
  6
CONTINUOUS
 10
-10.6206029106
 20
-22.1315982328
 11
-10.7244382942
 21
-22.1315982328
  0
LINE
  5
27C
100
AcDbEntity
  8
0
100
AcDbLine
 62
253
  6
CONTINUOUS
 10
34.4793970894
 20
-22.1315982328
 11
34.5832324733
 21
-22.1315982328
  0
LINE
  5
27D
100
AcDbEntity
  8
RACCORDO
100
AcDbLine
 62
253
  6
CONTINUOUS
 10
0.1793970894
 20
-22.5354609022
 11
0.1793970882
 21
-47.1463669101
  0
LINE
  5
27E
100
AcDbEntity
  8
RACCORDO
100
AcDbLine
 62
253
  6
CONTINUOUS
 10
0.1793970882
 20
47.3831704444
 11
0.1794267913
 21
22.7722644365
  0
LINE
  5
27F
100
AcDbEntity
  8
RACCORDO
100
AcDbLine
 62
253
  6
CONTINUOUS
 10
34.5832597546
 20
-11.6315982329
 11
59.1941657668
 21
-11.6315982324
  0
LINE
  5
280
100
AcDbEntity
  8
RACCORDO
100
AcDbLine
 62
253
  6
CONTINUOUS
 10
-35.3353715881
 20
-11.6315982324
 11
-10.7244655757
 21
-11.6315640366
  0
LINE
  5
281
100
AcDbEntity
  8
RACCORDO
100
AcDbLine
 62
253
  6
CONTINUOUS
 10
23.6793970894
 20
22.7722644365
 11
23.6793970906
 21
47.3831704444
  0
LINE
  5
282
100
AcDbEntity
  8
RACCORDO
100
AcDbLine
 62
253
  6
CONTINUOUS
 10
23.6793970906
 20
-47.1463669101
 11
23.6793970894
 21
-22.5354609022
  0
LINE
  5
283
100
AcDbEntity
  8
RACCORDO
100
AcDbLine
 62
253
  6
CONTINUOUS
 10
-10.7244655758
 20
11.8684017672
 11
-35.3353715881
 21
11.8684017667
  0
LINE
  5
284
100
AcDbEntity
  8
RACCORDO
100
AcDbLine
 62
253
  6
CONTINUOUS
 10
59.1941657668
 20
11.8684017667
 11
34.5832597545
 21
11.8683639664
  0
LINE
  5
285
100
AcDbEntity
  8
RACCORDO
100
AcDbLine
 62
253
  6
CONTINUOUS
 10
34.1812713047
 20
-25.8112519677
 11
34.1798582945
 21
-24.1293314553
  0
LINE
  5
286
100
AcDbEntity
  8
0
100
AcDbLine
 62
253
  6
CONTINUOUS
 10
34.1793970894
 20
-22.4315982328
 11
34.1793970894
 21
-22.535460714
  0
LINE
  5
287
100
AcDbEntity
  8
0
100
AcDbLine
 62
253
  6
CONTINUOUS
 10
34.1793970894
 20
22.6684017672
 11
34.1793970894
 21
22.7722647813
  0
LINE
  5
288
100
AcDbEntity
  8
0
100
AcDbLine
 62
7
  6
CONTINUOUS
 10
34.4793970894
 20
-22.1315982328
 11
34.4793970894
 21
22.3684017672
  0
LINE
  5
289
100
AcDbEntity
  8
0
100
AcDbLine
 62
253
  6
CONTINUOUS
 10
34.5832597571
 20
11.8683639664
 11
34.583259757
 21
-11.6315982329
  0
LINE
  5
28A
100
AcDbEntity
  8
RACCORDO
100
AcDbLine
 62
253
  6
CONTINUOUS
 10
34.1806768149
 20
26.0481298437
 11
34.1793970917
 21
22.772256754
  0
LINE
  5
28B
100
AcDbEntity
  8
0
100
AcDbLine
 62
253
  6
CONTINUOUS
 10
-10.6206029106
 20
22.3684017672
 11
-10.7244382945
 21
22.3684017672
  0
LINE
  5
28C
100
AcDbEntity
  8
0
100
AcDbLine
 62
253
  6
CONTINUOUS
 10
34.4793970894
 20
22.3684017672
 11
34.583231775
 21
22.3684017672
  0
LINE
  5
28D
100
AcDbEntity
  8
0
100
AcDbLine
 62
7
  6
CONTINUOUS
 10
34.1793970894
 20
22.6684017672
 11
-10.3206029106
 21
22.6684017672
  0
LINE
  5
28E
100
AcDbEntity
  8
0
100
AcDbLine
 62
253
  6
CONTINUOUS
 10
0.1794267913
 20
22.772264437
 11
23.6793970894
 21
22.7722644369
  0
LINE
  5
28F
100
AcDbEntity
  8
RACCORDO
100
AcDbLine
 62
253
  6
CONTINUOUS
 10
36.1759433371
 20
-11.6315982328
 11
36.1759433355
 21
11.8685418083
  0
LINE
  5
290
100
AcDbEntity
  8
RACCORDO
100
AcDbLine
 62
253
  6
CONTINUOUS
 10
37.8644568314
 20
-11.6315982328
 11
37.8644568308
 21
11.8684017672
  0
LINE
  5
291
100
AcDbEntity
  8
RACCORDO
100
AcDbLine
 62
253
  6
CONTINUOUS
 10
23.6793970894
 20
24.3649480242
 11
0.1792870536
 21
24.3649480232
  0
LINE
  5
292
100
AcDbEntity
  8
RACCORDO
100
AcDbLine
 62
253
  6
CONTINUOUS
 10
23.6793970894
 20
26.0534612933
 11
0.1793970894
 21
26.0534612932
  0
LINE
  5
293
100
AcDbEntity
  8
RACCORDO
100
AcDbLine
 62
253
  6
CONTINUOUS
 10
56.4293970894
 20
-47.3815982328
 11
56.4293609252
 21
-47.1508085361
  0
LINE
  5
294
100
AcDbEntity
  8
RACCORDO
100
AcDbLine
 62
253
  6
CONTINUOUS
 10
56.4293970894
 20
47.6184017672
 11
56.4293970894
 21
47.3876177349
  0
LINE
  5
295
100
AcDbEntity
  8
RACCORDO
100
AcDbLine
 62
7
  6
CONTINUOUS
 10
59.4066134937
 20
3.8244725631
 11
59.3473651265
 21
3.6756359663
  0
LINE
  5
296
100
AcDbEntity
  8
RACCORDO
100
AcDbLine
 62
253
  6
CONTINUOUS
 10
-35.5706029106
 20
44.6184017672
 11
-35.3397699644
 21
44.6184242248
  0
LINE
  5
297
100
AcDbEntity
  8
RACCORDO
100
AcDbLine
 62
253
  6
CONTINUOUS
 10
59.4293970894
 20
44.6184017672
 11
59.1985686421
 21
44.6187375338
  0
LINE
  5
298
100
AcDbEntity
  8
RACCORDO
100
AcDbLine
 62
7
  6
CONTINUOUS
 10
59.3473651265
 20
-3.438832432
 11
59.4066134937
 21
-3.5876690288
  0
LINE
  5
299
100
AcDbEntity
  8
RACCORDO
100
AcDbLine
 62
253
  6
CONTINUOUS
 10
58.4306713121
 20
-11.6315982328
 11
58.4306713121
 21
11.8684017672
  0
LINE
  5
29A
100
AcDbEntity
  8
RACCORDO
100
AcDbLine
 62
253
  6
CONTINUOUS
 10
59.1941657668
 20
-11.6315982324
 11
59.1941657668
 21
11.8684017667
  0
LINE
  5
29B
100
AcDbEntity
  8
RACCORDO
100
AcDbLine
 62
7
  6
CONTINUOUS
 10
59.3245815308
 20
3.1799135357
 11
59.3245815308
 21
-2.9431100014
  0
LINE
  5
29C
100
AcDbEntity
  8
RACCORDO
100
AcDbLine
 62
7
  6
CONTINUOUS
 10
59.4293970894
 20
-44.3815982328
 11
59.4293970894
 21
-4.0833914595
  0
LINE
  5
29D
100
AcDbEntity
  8
RACCORDO
100
AcDbLine
 62
7
  6
CONTINUOUS
 10
59.4293970894
 20
4.3201949938
 11
59.4293970894
 21
44.6184017672
  0
LINE
  5
29E
100
AcDbEntity
  8
RACCORDO
100
AcDbLine
 62
253
  6
CONTINUOUS
 10
23.6793970894
 20
46.6196759906
 11
0.1793970894
 21
46.6196759906
  0
LINE
  5
29F
100
AcDbEntity
  8
RACCORDO
100
AcDbLine
 62
253
  6
CONTINUOUS
 10
23.6793970906
 20
47.3831704444
 11
0.1793970882
 21
47.3831704444
  0
LINE
  5
2A0
100
AcDbEntity
  8
SUPERFICI
100
AcDbLine
 62
7
  6
CONTINUOUS
 10
56.4293970894
 20
47.6184017672
 11
-32.5706029106
 21
47.6184017672
  0
LINE
  5
2A1
100
AcDbEntity
  8
RACCORDO
100
AcDbLine
 62
253
  6
CONTINUOUS
 10
-49.4037905275
 20
-44.3815982328
 11
-53.808345523
 21
-44.3816206879
  0
LINE
  5
2A2
100
AcDbEntity
  8
RACCORDO
100
AcDbLine
 62
7
  6
CONTINUOUS
 10
-53.8922715501
 20
-47.1463669101
 11
-53.8786386421
 21
-47.1470813805
  0
LINE
  5
2A3
100
AcDbEntity
  8
RACCORDO
100
AcDbLine
 62
7
  6
CONTINUOUS
 10
-49.4037905275
 20
-47.3815982328
 11
-53.8075202772
 21
-47.1508085361
  0
LINE
  5
2A4
100
AcDbEntity
  8
RACCORDO
100
AcDbLine
 62
7
  6
CONTINUOUS
 10
-53.8720044654
 20
-47.1474261166
 11
-53.8703305862
 21
-47.1475167873
  0
LINE
  5
2A5
100
AcDbEntity
  8
RACCORDO
100
AcDbLine
 62
7
  6
CONTINUOUS
 10
-54.0013291934
 20
-47.1346275104
 11
-53.8922715501
 21
-47.1463669101
  0
LWPOLYLINE
  5
2A6
100
AcDbEntity
  8
RACCORDO
100
AcDbPolyline
 62
7
  6
CONTINUOUS
 90
4
 70
0
 10
-54.0013012394
 20
-47.1346320527
 10
-53.9525736334
 20
-47.1413470344
 10
-53.9149735649
 20
-47.1448795381
 10
-53.888815128
 20
-47.1465480535
  0
LWPOLYLINE
  5
2A7
100
AcDbEntity
  8
RACCORDO
100
AcDbPolyline
 62
253
  6
CONTINUOUS
 90
12
 70
0
 10
-57.6124241322
 20
26.0562490526
 10
-57.6127110387
 20
26.0561418086
 10
-57.6130416789
 20
26.0558974757
 10
-57.6133892174
 20
26.0557941811
 10
-57.6137574258
 20
26.0555438307
 10
-57.6141421928
 20
26.0550702723
 10
-57.6145197536
 20
26.054913254
 10
-57.6148929739
 20
26.0546850132
 10
-57.6152590835
 20
26.054118218
 10
-57.6155863826
 20
26.0538076968
 10
-57.6158677851
 20
26.0536269753
 10
-57.6161110053
 20
26.0532568342
  0
LWPOLYLINE
  5
2A8
100
AcDbEntity
  8
RACCORDO
100
AcDbPolyline
 62
253
  6
CONTINUOUS
 90
3
 70
0
 10
-57.6163068427
 20
26.0529603812
 10
-57.6164510595
 20
26.0528360296
 10
-57.6165326717
 20
26.0527611219
  0
LINE
  5
2A9
100
AcDbEntity
  8
RACCORDO
100
AcDbLine
 62
7
  6
CONTINUOUS
 10
-58.2053712942
 20
24.366369152
 11
-58.2054354744
 21
24.3662906644
  0
LINE
  5
2AA
100
AcDbEntity
  8
RACCORDO
100
AcDbLine
 62
7
  6
CONTINUOUS
 10
-58.2052191881
 20
24.3665735397
 11
-58.2051872126
 21
24.3666110756
  0
LINE
  5
2AB
100
AcDbEntity
  8
RACCORDO
100
AcDbLine
 62
7
  6
CONTINUOUS
 10
-58.2053587401
 20
-24.1295798074
 11
-58.205452416
 21
-24.1294660404
  0
LINE
  5
2AC
100
AcDbEntity
  8
RACCORDO
100
AcDbLine
 62
7
  6
CONTINUOUS
 10
-57.9983953579
 20
24.6859695303
 11
-58.102851326
 21
24.5135806146
  0
LINE
  5
2AD
100
AcDbEntity
  8
RACCORDO
100
AcDbLine
 62
7
  6
CONTINUOUS
 10
-58.2054636484
 20
24.3662544832
 11
-58.2054960537
 21
24.3662020841
  0
LWPOLYLINE
  5
2AE
100
AcDbEntity
  8
RACCORDO
100
AcDbPolyline
 62
7
  6
CONTINUOUS
 90
3
 70
0
 10
-58.0415054069
 20
24.610260581
 10
-58.0884470823
 20
24.5349481729
 10
-58.1377438831
 20
24.4608437561
  0
LINE
  5
2AF
100
AcDbEntity
  8
RACCORDO
100
AcDbLine
 62
7
  6
CONTINUOUS
 10
-58.2055154242
 20
24.3661579702
 11
-58.205390798
 21
24.3663423287
  0
LINE
  5
2B0
100
AcDbEntity
  8
RACCORDO
100
AcDbLine
 62
7
  6
CONTINUOUS
 10
-58.102851326
 20
24.5135806146
 11
-58.2065738148
 21
24.3647371123
  0
LINE
  5
2B1
100
AcDbEntity
  8
RACCORDO
100
AcDbLine
 62
7
  6
CONTINUOUS
 10
-58.1753953854
 20
24.4072908056
 11
-58.2054635291
 21
24.3662546453
  0
LINE
  5
2B2
100
AcDbEntity
  8
RACCORDO
100
AcDbLine
 62
7
  6
CONTINUOUS
 10
-58.1933105709
 20
24.3827337711
 11
-58.2065408618
 21
24.3647844004
  0
LINE
  5
2B3
100
AcDbEntity
  8
RACCORDO
100
AcDbLine
 62
7
  6
CONTINUOUS
 10
-58.2031849731
 20
24.3693038145
 11
-58.2199878919
 21
24.3469409692
  0
LINE
  5
2B4
100
AcDbEntity
  8
RACCORDO
100
AcDbLine
 62
7
  6
CONTINUOUS
 10
-58.2052191881
 20
24.3665735397
 11
-58.2065738317
 21
24.3647370442
  0
LINE
  5
2B5
100
AcDbEntity
  8
RACCORDO
100
AcDbLine
 62
7
  6
CONTINUOUS
 10
-58.2054354744
 20
24.3662906644
 11
-58.2054622257
 21
24.3662563978
  0
LINE
  5
2B6
100
AcDbEntity
  8
RACCORDO
100
AcDbLine
 62
7
  6
CONTINUOUS
 10
-58.2339472848
 20
-24.0918873153
 11
-58.2251465499
 21
-24.1033635679
  0
LINE
  5
2B7
100
AcDbEntity
  8
RACCORDO
100
AcDbLine
 62
7
  6
CONTINUOUS
 10
-58.2199508862
 20
-24.1100756028
 11
-58.2327829621
 21
-24.093186937
  0
LINE
  5
2B8
100
AcDbEntity
  8
RACCORDO
100
AcDbLine
 62
7
  6
CONTINUOUS
 10
-58.2251465499
 20
-24.1033635679
 11
-58.2054316544
 21
-24.1294992709
  0
LWPOLYLINE
  5
2B9
100
AcDbEntity
  8
RACCORDO
100
AcDbPolyline
 62
7
  6
CONTINUOUS
 90
9
 70
0
 10
-58.2056533015
 20
-24.1291322405
 10
-58.1426844817
 20
-24.2171286667
 10
-58.0305758864
 20
-24.39198732
 10
-57.9176828688
 20
-24.6006643985
 10
-57.8134749436
 20
-24.8384459711
 10
-57.7237839406
 20
-25.1067884595
 10
-57.6558290598
 20
-25.4044083724
 10
-57.6176205886
 20
-25.7196311652
 10
-57.612789901
 20
-25.8119871819
  0
LINE
  5
2BA
100
AcDbEntity
  8
RACCORDO
100
AcDbLine
 62
7
  6
CONTINUOUS
 10
-58.205625299
 20
-24.1291711695
 11
-58.2053460944
 21
-24.1295657534
  0
LWPOLYLINE
  5
2BB
100
AcDbEntity
  8
RACCORDO
100
AcDbPolyline
 62
7
  6
CONTINUOUS
 90
3
 70
0
 10
-58.2066108626
 20
-24.1278983001
 10
-58.059190113
 20
-24.3457335255
 10
-57.9120302447
 20
-24.6151642985
  0
LWPOLYLINE
  5
2BC
100
AcDbEntity
  8
RACCORDO
100
AcDbPolyline
 62
7
  6
CONTINUOUS
 90
7
 70
0
 10
-54.8020656716
 20
-46.3672822627
 10
-54.7285611142
 20
-46.5796477061
 10
-54.6146603448
 20
-46.7636691424
 10
-54.4646257392
 20
-46.9182204959
 10
-54.286173771
 20
-47.0364375704
 10
-54.0876415108
 20
-47.1136989859
 10
-53.8786386421
 20
-47.1470813805
  0
LINE
  5
2BD
100
AcDbEntity
  8
RACCORDO
100
AcDbLine
 62
7
  6
CONTINUOUS
 10
-57.8180704049
 20
25.068359517
 11
-57.9043077392
 21
24.8680227454
  0
LINE
  5
2BE
100
AcDbEntity
  8
RACCORDO
100
AcDbLine
 62
253
  6
CONTINUOUS
 10
-57.6165326717
 20
26.0527611219
 11
-57.6166132339
 21
26.0526002318
  0
LINE
  5
2BF
100
AcDbEntity
  8
RACCORDO
100
AcDbLine
 62
7
  6
CONTINUOUS
 10
-57.9029489466
 20
24.8708916302
 11
-57.9996317427
 21
24.6837674122
  0
LINE
  5
2C0
100
AcDbEntity
  8
RACCORDO
100
AcDbLine
 62
7
  6
CONTINUOUS
 10
-58.2053460944
 20
-24.1295657534
 11
-58.2053044598
 21
-24.1296446853
  0
LINE
  5
2C1
100
AcDbEntity
  8
RACCORDO
100
AcDbLine
 62
7
  6
CONTINUOUS
 10
-58.205452416
 20
-24.1294660404
 11
-58.2055105171
 21
-24.1293521861
  0
LINE
  5
2C2
100
AcDbEntity
  8
RACCORDO
100
AcDbLine
 62
7
  6
CONTINUOUS
 10
-57.9120302447
 20
-24.6151642985
 11
-57.7929911182
 21
-24.8987378477
  0
LINE
  5
2C3
100
AcDbEntity
  8
SUPERFICI
100
AcDbLine
 62
7
  6
CONTINUOUS
 10
-55.5405545277
 20
43.1138130332
 11
-55.6663403834
 21
42.4724828909
  0
LINE
  5
2C4
100
AcDbEntity
  8
SUPERFICI
100
AcDbLine
 62
7
  6
CONTINUOUS
 10
-55.4158497776
 20
43.7344995283
 11
-55.5405545277
 21
43.1138130332
  0
LINE
  5
2C5
100
AcDbEntity
  8
SUPERFICI
100
AcDbLine
 62
7
  6
CONTINUOUS
 10
-55.2824068432
 20
44.3831339924
 11
-55.4158497776
 21
43.7344995283
  0
LINE
  5
2C6
100
AcDbEntity
  8
SUPERFICI
100
AcDbLine
 62
7
  6
CONTINUOUS
 10
-55.1522001288
 20
45.0017022634
 11
-55.2824068432
 21
44.3831339924
  0
LINE
  5
2C7
100
AcDbEntity
  8
SUPERFICI
100
AcDbLine
 62
7
  6
CONTINUOUS
 10
-55.0108294129
 20
45.6585010813
 11
-55.1522001288
 21
45.0017022634
  0
LINE
  5
2C8
100
AcDbEntity
  8
SUPERFICI
100
AcDbLine
 62
7
  6
CONTINUOUS
 10
-54.8614553537
 20
46.3370241793
 11
-55.0108294129
 21
45.6585010813
  0
LINE
  5
2C9
100
AcDbEntity
  8
SUPERFICI
100
AcDbLine
 62
7
  6
CONTINUOUS
 10
-54.801686238
 20
46.6043552227
 11
-54.8614553537
 21
46.3370241793
  0
LINE
  5
2CA
100
AcDbEntity
  8
RACCORDO
100
AcDbLine
 62
7
  6
CONTINUOUS
 10
-57.6875956388
 20
25.4972029987
 11
-57.7464109344
 21
25.2751039293
  0
LINE
  5
2CB
100
AcDbEntity
  8
RACCORDO
100
AcDbLine
 62
7
  6
CONTINUOUS
 10
-57.7456329132
 20
25.2776480523
 11
-57.8192167632
 21
25.065409911
  0
LINE
  5
2CC
100
AcDbEntity
  8
RACCORDO
100
AcDbLine
 62
253
  6
CONTINUOUS
 10
-53.8922715463
 20
-11.6315982324
 11
-58.4037905371
 21
-11.6315982328
  0
LWPOLYLINE
  5
2CD
100
AcDbEntity
  8
RACCORDO
100
AcDbPolyline
 62
7
  6
CONTINUOUS
 90
3
 70
0
 10
-57.7929911182
 20
-24.8987378477
 10
-57.7034776529
 20
-25.1935407616
 10
-57.6447811463
 20
-25.4955544986
  0
LINE
  5
2CE
100
AcDbEntity
  8
SUPERFICI
100
AcDbLine
 62
7
  6
CONTINUOUS
 10
-54.9473007217
 20
-45.7128955088
 11
-54.802065496
 21
-46.3672873506
  0
LINE
  5
2CF
100
AcDbEntity
  8
SUPERFICI
100
AcDbLine
 62
7
  6
CONTINUOUS
 10
-55.0909835984
 20
-45.0513453474
 11
-54.9473007217
 21
-45.7128955088
  0
LINE
  5
2D0
100
AcDbEntity
  8
SUPERFICI
100
AcDbLine
 62
7
  6
CONTINUOUS
 10
-55.2322447031
 20
-44.3860521823
 11
-55.0909835984
 21
-45.0513453474
  0
LINE
  5
2D1
100
AcDbEntity
  8
SUPERFICI
100
AcDbLine
 62
7
  6
CONTINUOUS
 10
-55.3675652315
 20
-43.7337153158
 11
-55.2322447031
 21
-44.3860521823
  0
LINE
  5
2D2
100
AcDbEntity
  8
SUPERFICI
100
AcDbLine
 62
7
  6
CONTINUOUS
 10
-55.4935808549
 20
-43.11193811
 11
-55.3675652315
 21
-43.7337153158
  0
LINE
  5
2D3
100
AcDbEntity
  8
SUPERFICI
100
AcDbLine
 62
7
  6
CONTINUOUS
 10
-55.5957578366
 20
-42.5969939741
 11
-55.4935808549
 21
-43.11193811
  0
LINE
  5
2D4
100
AcDbEntity
  8
SUPERFICI
100
AcDbLine
 62
7
  6
CONTINUOUS
 10
-57.1588578805
 20
-32.52557292
 11
-57.1175019827
 21
-32.920230986
  0
LINE
  5
2D5
100
AcDbEntity
  8
SUPERFICI
100
AcDbLine
 62
7
  6
CONTINUOUS
 10
-57.2001629663
 20
-32.1140275104
 11
-57.1588578805
 21
-32.52557292
  0
LINE
  5
2D6
100
AcDbEntity
  8
SUPERFICI
100
AcDbLine
 62
7
  6
CONTINUOUS
 10
-57.247310964
 20
-31.6198889143
 11
-57.2001629663
 21
-32.1140275104
  0
LINE
  5
2D7
100
AcDbEntity
  8
SUPERFICI
100
AcDbLine
 62
7
  6
CONTINUOUS
 10
-57.247310964
 20
-31.6198889143
 11
-57.2828365161
 21
-31.2283343931
  0
LINE
  5
2D8
100
AcDbEntity
  8
RACCORDO
100
AcDbLine
 62
7
  6
CONTINUOUS
 10
-57.64459531
 20
-25.4965106903
 11
-57.6167347057
 21
-25.8156597363
  0
LINE
  5
2D9
100
AcDbEntity
  8
SUPERFICI
100
AcDbLine
 62
7
  6
CONTINUOUS
 10
-57.2332661689
 20
32.0067994507
 11
-57.2771531562
 21
31.5289428633
  0
LINE
  5
2DA
100
AcDbEntity
  8
SUPERFICI
100
AcDbLine
 62
7
  6
CONTINUOUS
 10
-57.188945512
 20
32.4644470852
 11
-57.2332661689
 21
32.0067994507
  0
LINE
  5
2DB
100
AcDbEntity
  8
SUPERFICI
100
AcDbLine
 62
7
  6
CONTINUOUS
 10
-57.1416743731
 20
32.9283061335
 11
-57.188945512
 21
32.4644470852
  0
LINE
  5
2DC
100
AcDbEntity
  8
RACCORDO
100
AcDbLine
 62
7
  6
CONTINUOUS
 10
-57.6209844707
 20
25.962807032
 11
-57.6458108081
 21
25.7241139512
  0
LINE
  5
2DD
100
AcDbEntity
  8
SUPERFICI
100
AcDbLine
 62
7
  6
CONTINUOUS
 10
-57.1182895164
 20
33.1496543355
 11
-57.1416743731
 21
32.9283061335
  0
LWPOLYLINE
  5
2DE
100
AcDbEntity
  8
RACCORDO
100
AcDbPolyline
 62
7
  6
CONTINUOUS
 90
14
 70
0
 10
-57.6127095522
 20
26.0481298379
 10
-57.6126415127
 20
26.0486090528
 10
-57.612554083
 20
26.0488950811
 10
-57.6124472217
 20
26.0491054212
 10
-57.6123153934
 20
26.0495126617
 10
-57.6121640097
 20
26.0500976382
 10
-57.6120094951
 20
26.0505448377
 10
-57.6118501145
 20
26.0510650425
 10
-57.6116875762
 20
26.0517942377
 10
-57.6115436125
 20
26.0523124593
 10
-57.6114189697
 20
26.0528143165
 10
-57.6113130244
 20
26.0535471668
 10
-57.6112455739
 20
26.0541884415
 10
-57.61122672
 20
26.0544937617
  0
LINE
  5
2DF
100
AcDbEntity
  8
RACCORDO
100
AcDbLine
 62
7
  6
CONTINUOUS
 10
-57.6455512225
 20
25.7259109808
 11
-57.6880680979
 21
25.4951001951
  0
LINE
  5
2E0
100
AcDbEntity
  8
RACCORDO
100
AcDbLine
 62
7
  6
CONTINUOUS
 10
-57.6124543744
 20
-25.814735084
 11
-57.6127113079
 21
-25.8112519172
  0
LWPOLYLINE
  5
2E1
100
AcDbEntity
  8
RACCORDO
100
AcDbPolyline
 62
253
  6
CONTINUOUS
 90
5
 70
0
 10
-57.6167508704
 20
-25.8117003024
 10
-57.6164418677
 20
-25.8160009994
 10
-57.6151840352
 20
-25.8261907347
 10
-57.6133734839
 20
-25.8310031441
 10
-57.6123411792
 20
-25.8217939818
  0
LWPOLYLINE
  5
2E2
100
AcDbEntity
  8
RACCORDO
100
AcDbPolyline
 62
7
  6
CONTINUOUS
 90
4
 70
0
 10
-57.616039176
 20
-25.8146364592
 10
-57.6166533919
 20
-25.804167099
 10
-57.6168103663
 20
-25.8091769631
 10
-57.6167621824
 20
-25.8113581646
  0
LINE
  5
2E3
100
AcDbEntity
  8
SUPERFICI
100
AcDbLine
 62
7
  6
CONTINUOUS
 10
-57.5199131698
 20
-27.985423163
 11
-57.4967023759
 21
-28.3916434186
  0
LINE
  5
2E4
100
AcDbEntity
  8
SUPERFICI
100
AcDbLine
 62
7
  6
CONTINUOUS
 10
-57.5436503674
 20
-27.5387155215
 11
-57.5199131698
 21
-27.985423163
  0
LINE
  5
2E5
100
AcDbEntity
  8
RACCORDO
100
AcDbLine
 62
7
  6
CONTINUOUS
 10
-57.6127113079
 20
-25.8112519172
 11
-57.6128771363
 21
-25.8074067334
  0
LWPOLYLINE
  5
2E6
100
AcDbEntity
  8
SUPERFICI
100
AcDbPolyline
 62
7
  6
CONTINUOUS
 90
3
 70
0
 10
-57.5934980432
 20
-26.4433325008
 10
-57.5763839167
 20
-26.8503012572
 10
-57.5436503674
 20
-27.5387155215
  0
LINE
  5
2E7
100
AcDbEntity
  8
SUPERFICI
100
AcDbLine
 62
7
  6
CONTINUOUS
 10
-57.5959327256
 20
-26.2389049299
 11
-57.5764864657
 21
-26.6878283142
  0
LINE
  5
2E8
100
AcDbEntity
  8
SUPERFICI
100
AcDbLine
 62
7
  6
CONTINUOUS
 10
-57.6128315369
 20
-25.8086367814
 11
-57.5959327256
 21
-26.2389049299
  0
LINE
  5
2E9
100
AcDbEntity
  8
SUPERFICI
100
AcDbLine
 62
7
  6
CONTINUOUS
 10
-57.616617818
 20
-25.8156543502
 11
-57.5934980432
 21
-26.4433325008
  0
LINE
  5
2EA
100
AcDbEntity
  8
RACCORDO
100
AcDbLine
 62
7
  6
CONTINUOUS
 10
-57.6167621824
 20
-25.8113581646
 11
-57.6167508704
 21
-25.8117003024
  0
LINE
  5
2EB
100
AcDbEntity
  8
RACCORDO
100
AcDbLine
 62
253
  6
CONTINUOUS
 10
-58.2064118742
 20
-11.6315982328
 11
-58.206411875
 21
11.8685418083
  0
LINE
  5
2EC
100
AcDbEntity
  8
RACCORDO
100
AcDbLine
 62
253
  6
CONTINUOUS
 10
-57.6159749391
 20
-11.6315982328
 11
-57.6159749391
 21
11.8684017672
  0
LINE
  5
2ED
100
AcDbEntity
  8
0
100
AcDbLine
 62
7
  6
CONTINUOUS
 10
-58.4037027162
 20
23.7684508604
 11
-58.4036977916
 21
-23.5316444409
  0
LINE
  5
2EE
100
AcDbEntity
  8
RACCORDO
100
AcDbLine
 62
7
  6
CONTINUOUS
 10
-57.6118366484
 20
-25.8091038529
 11
-57.6117373584
 21
-25.803445849
  0
LWPOLYLINE
  5
2EF
100
AcDbEntity
  8
RACCORDO
100
AcDbPolyline
 62
253
  6
CONTINUOUS
 90
10
 70
0
 10
-57.6112258654
 20
26.054519439
 10
-57.6112230914
 20
26.0546655031
 10
-57.6112391914
 20
26.0551334105
 10
-57.6112943777
 20
26.0555521754
 10
-57.6113899783
 20
26.0558527942
 10
-57.6115245221
 20
26.056040835
 10
-57.6116942701
 20
26.0562028897
 10
-57.6118995811
 20
26.0562854859
 10
-57.6121397746
 20
26.0562586318
 10
-57.6124095493
 20
26.0562545036
  0
LWPOLYLINE
  5
2F0
100
AcDbEntity
  8
RACCORDO
100
AcDbPolyline
 62
7
  6
CONTINUOUS
 90
3
 70
0
 10
-57.6117373584
 20
-25.803445849
 10
-57.6119473119
 20
-25.8106621651
 10
-57.6124543744
 20
-25.814735084
  0
LINE
  5
2F1
100
AcDbEntity
  8
SUPERFICI
100
AcDbLine
 62
7
  6
CONTINUOUS
 10
-57.5924416831
 20
26.7064656344
 11
-57.6166129692
 21
26.0526080908
  0
LINE
  5
2F2
100
AcDbEntity
  8
SUPERFICI
100
AcDbLine
 62
7
  6
CONTINUOUS
 10
-57.5943301925
 20
26.5146353381
 11
-57.6128169576
 21
26.0457641914
  0
LINE
  5
2F3
100
AcDbEntity
  8
RACCORDO
100
AcDbLine
 62
7
  6
CONTINUOUS
 10
-57.6128669569
 20
26.044415045
 11
-57.6127095522
 21
26.0481298379
  0
LINE
  5
2F4
100
AcDbEntity
  8
SUPERFICI
100
AcDbLine
 62
7
  6
CONTINUOUS
 10
-57.5943301925
 20
26.5146353381
 11
-57.575260171
 21
26.9525387517
  0
LINE
  5
2F5
100
AcDbEntity
  8
SUPERFICI
100
AcDbLine
 62
7
  6
CONTINUOUS
 10
-57.5583939961
 20
27.477662891
 11
-57.5924416831
 21
26.7064656344
  0
LINE
  5
2F6
100
AcDbEntity
  8
RACCORDO
100
AcDbLine
 62
7
  6
CONTINUOUS
 10
-57.6166127964
 20
26.0526081982
 11
-57.6209844707
 21
25.962807032
  0
LINE
  5
2F7
100
AcDbEntity
  8
SUPERFICI
100
AcDbLine
 62
7
  6
CONTINUOUS
 10
-57.5300998975
 20
28.0349339171
 11
-57.5583939961
 21
27.477662891
  0
LWPOLYLINE
  5
2F8
100
AcDbEntity
  8
SUPERFICI
100
AcDbPolyline
 62
7
  6
CONTINUOUS
 90
3
 70
0
 10
-57.4962876584
 20
28.6354744666
 10
-57.4990605718
 20
28.5883484791
 10
-57.5300998975
 20
28.0349339171
  0
LWPOLYLINE
  5
2F9
100
AcDbEntity
  8
RACCORDO
100
AcDbPolyline
 62
7
  6
CONTINUOUS
 90
10
 70
0
 10
-57.6166131463
 20
26.0526043993
 10
-57.6166100736
 20
26.0526439604
 10
-57.616574639
 20
26.052802517
 10
-57.6165132851
 20
26.0527419996
 10
-57.6164191764
 20
26.0528719011
 10
-57.6162990379
 20
26.0532674208
 10
-57.616190163
 20
26.0531674966
 10
-57.6161050527
 20
26.0526263781
 10
-57.6160312919
 20
26.0525233447
 10
-57.6159689069
 20
26.053460641
  0
LINE
  5
2FA
100
AcDbEntity
  8
RACCORDO
100
AcDbLine
 62
7
  6
CONTINUOUS
 10
-50.9690536236
 20
-3.438832432
 11
-49.8385274314
 21
-3.5876690288
  0
LINE
  5
2FB
100
AcDbEntity
  8
RACCORDO
100
AcDbLine
 62
253
  6
CONTINUOUS
 10
-54.8118984424
 20
-11.6315982328
 11
-54.8118984424
 21
11.8684017672
  0
LINE
  5
2FC
100
AcDbEntity
  8
RACCORDO
100
AcDbLine
 62
253
  6
CONTINUOUS
 10
-53.8922715463
 20
-11.6315982324
 11
-53.8922715463
 21
11.8684017667
  0
LINE
  5
2FD
100
AcDbEntity
  8
RACCORDO
100
AcDbLine
 62
7
  6
CONTINUOUS
 10
-51.4037905275
 20
3.1799135357
 11
-51.4037905275
 21
-2.9431100014
  0
LINE
  5
2FE
100
AcDbEntity
  8
RACCORDO
100
AcDbLine
 62
7
  6
CONTINUOUS
 10
-49.8385274314
 20
3.8244725631
 11
-50.9690536236
 21
3.6756359663
  0
LINE
  5
2FF
100
AcDbEntity
  8
SUPERFICI
100
AcDbLine
 62
7
  6
CONTINUOUS
 10
-49.4037905275
 20
-47.3815982328
 11
-49.4037905275
 21
-44.3815982328
  0
LINE
  5
300
100
AcDbEntity
  8
RACCORDO
100
AcDbLine
 62
7
  6
CONTINUOUS
 10
-49.4037905275
 20
-44.3815982328
 11
-49.4037905275
 21
-4.0833914595
  0
LINE
  5
301
100
AcDbEntity
  8
RACCORDO
100
AcDbLine
 62
7
  6
CONTINUOUS
 10
-49.4037905275
 20
4.3201949938
 11
-49.4037905275
 21
44.6184017672
  0
LINE
  5
302
100
AcDbEntity
  8
SUPERFICI
100
AcDbLine
 62
7
  6
CONTINUOUS
 10
-49.4037905275
 20
44.6184017672
 11
-49.4037905275
 21
47.6184017672
  0
LINE
  5
303
100
AcDbEntity
  8
RACCORDO
100
AcDbLine
 62
253
  6
CONTINUOUS
 10
-53.8922715463
 20
11.8684017667
 11
-58.4037905367
 21
11.8685658129
  0
LINE
  5
304
100
AcDbEntity
  8
RACCORDO
100
AcDbLine
 62
7
  6
CONTINUOUS
 10
-53.9527340332
 20
47.3781429352
 11
-54.0012786787
 21
47.3714392696
  0
LINE
  5
305
100
AcDbEntity
  8
RACCORDO
100
AcDbLine
 62
7
  6
CONTINUOUS
 10
-54.0013302728
 20
47.3714308682
 11
-53.8922715501
 21
47.3831704444
  0
LWPOLYLINE
  5
306
100
AcDbEntity
  8
RACCORDO
100
AcDbPolyline
 62
7
  6
CONTINUOUS
 90
3
 70
0
 10
-53.8899050177
 20
47.3832944691
 10
-53.9155512883
 20
47.3816529189
 10
-53.9527340332
 20
47.3781429352
  0
LINE
  5
307
100
AcDbEntity
  8
RACCORDO
100
AcDbLine
 62
7
  6
CONTINUOUS
 10
-53.8922715501
 20
47.3831704444
 11
-53.8779723503
 21
47.3839198337
  0
LINE
  5
308
100
AcDbEntity
  8
RACCORDO
100
AcDbLine
 62
7
  6
CONTINUOUS
 10
-49.4037905275
 20
47.6184017672
 11
-53.807412193
 21
47.3876177349
  0
LINE
  5
309
100
AcDbEntity
  8
RACCORDO
100
AcDbLine
 62
253
  6
CONTINUOUS
 10
-49.4037905275
 20
44.6184017672
 11
-53.8082596814
 21
44.6187375338
  0
ARC
  5
30A
100
AcDbEntity
  8
RACCORDO
100
AcDbCircle
 62
253
  6
CONTINUOUS
 10
-17.0371829907
 20
-409.9523424644
 40
387.8488903799
100
AcDbArc
 50
89.3032002713
 51
89.5536310026
  0
ARC
  5
30B
100
AcDbEntity
  8
RACCORDO
100
AcDbCircle
 62
253
  6
CONTINUOUS
 10
-17.0344329473
 20
409.9242903016
 40
387.5840213712
100
AcDbArc
 50
270.4462674772
 51
270.6968766751
  0
ARC
  5
30C
100
AcDbEntity
  8
RACCORDO
100
AcDbCircle
 62
253
  6
CONTINUOUS
 10
40.8932267077
 20
-409.6874478125
 40
387.5839824138
100
AcDbArc
 50
90.4462674602
 51
90.6968766833
  0
ARC
  5
30D
100
AcDbEntity
  8
RACCORDO
100
AcDbCircle
 62
253
  6
CONTINUOUS
 10
40.8849038928
 20
404.5368486552
 40
382.1968247879
100
AcDbArc
 50
269.2945557871
 51
269.5487125688
  0
ARC
  5
30E
100
AcDbEntity
  8
SUPERFICI
100
AcDbCircle
 62
7
  6
CONTINUOUS
 10
56.4293970894
 20
44.6184017672
 40
3.0
100
AcDbArc
 50
0.0
 51
90.0
  0
ARC
  5
30F
100
AcDbEntity
  8
SUPERFICI
100
AcDbCircle
 62
7
  6
CONTINUOUS
 10
-32.5706029106
 20
44.6184017672
 40
3.0
100
AcDbArc
 50
90.0
 51
180.0
  0
ARC
  5
310
100
AcDbEntity
  8
SUPERFICI
100
AcDbCircle
 62
7
  6
CONTINUOUS
 10
-32.5706029106
 20
-44.3815982328
 40
3.0
100
AcDbArc
 50
180.0
 51
270.0
  0
ARC
  5
311
100
AcDbEntity
  8
SUPERFICI
100
AcDbCircle
 62
7
  6
CONTINUOUS
 10
56.4293970894
 20
-44.3815982328
 40
3.0
100
AcDbArc
 50
270.0
 51
360.0
  0
ARC
  5
312
100
AcDbEntity
  8
RACCORDO
100
AcDbCircle
 62
253
  6
CONTINUOUS
 10
56.4320434066
 20
44.6210953038
 40
2.7665506644
100
AcDbArc
 50
359.9511697075
 51
90.054806265
  0
ARC
  5
313
100
AcDbEntity
  8
RACCORDO
100
AcDbCircle
 62
253
  6
CONTINUOUS
 10
-32.5732698505
 20
-44.3843119865
 40
2.7665283581
100
AcDbArc
 50
179.9452508096
 51
270.0551491681
  0
ARC
  5
314
100
AcDbEntity
  8
RACCORDO
100
AcDbCircle
 62
253
  6
CONTINUOUS
 10
56.4320881885
 20
-44.3843280717
 40
2.7665014523
100
AcDbArc
 50
269.943516453
 51
0.0560719188
  0
ARC
  5
315
100
AcDbEntity
  8
RACCORDO
100
AcDbCircle
 62
253
  6
CONTINUOUS
 10
-32.5732939843
 20
44.6211315782
 40
2.7665014491
100
AcDbArc
 50
89.9435168022
 51
180.0560712902
  0
ARC
  5
316
100
AcDbEntity
  8
0
100
AcDbCircle
 62
253
  6
CONTINUOUS
 10
34.1793970894
 20
22.3684017672
 40
0.4038549868
100
AcDbArc
 50
0.0
 51
90.0
  0
ARC
  5
317
100
AcDbEntity
  8
0
100
AcDbCircle
 62
253
  6
CONTINUOUS
 10
-10.3206029106
 20
22.3684017672
 40
0.403854556
100
AcDbArc
 50
90.0
 51
180.0
  0
ARC
  5
318
100
AcDbEntity
  8
0
100
AcDbCircle
 62
253
  6
CONTINUOUS
 10
34.1793970894
 20
-22.1315982328
 40
0.403854556
100
AcDbArc
 50
270.0
 51
360.0
  0
ARC
  5
319
100
AcDbEntity
  8
0
100
AcDbCircle
 62
253
  6
CONTINUOUS
 10
-10.3206029106
 20
-22.1315982328
 40
0.4038544828
100
AcDbArc
 50
180.0
 51
270.0
  0
ARC
  5
31A
100
AcDbEntity
  8
0
100
AcDbCircle
 62
7
  6
CONTINUOUS
 10
-10.3206029106
 20
22.3684017672
 40
0.3
100
AcDbArc
 50
90.0
 51
180.0
  0
ARC
  5
31B
100
AcDbEntity
  8
0
100
AcDbCircle
 62
7
  6
CONTINUOUS
 10
-10.3206029106
 20
-22.1315982328
 40
0.3
100
AcDbArc
 50
180.0
 51
270.0
  0
ARC
  5
31C
100
AcDbEntity
  8
0
100
AcDbCircle
 62
7
  6
CONTINUOUS
 10
34.1793970894
 20
-22.1315982328
 40
0.3
100
AcDbArc
 50
270.0
 51
360.0
  0
ARC
  5
31D
100
AcDbEntity
  8
0
100
AcDbCircle
 62
7
  6
CONTINUOUS
 10
34.1793970894
 20
22.3684017672
 40
0.3
100
AcDbArc
 50
0.0
 51
90.0
  0
ARC
  5
31E
100
AcDbEntity
  8
RACCORDO
100
AcDbCircle
 62
253
  6
CONTINUOUS
 10
-209.0205472857
 20
-22.5876003928
 40
150.8174182995
100
AcDbArc
 50
359.8478951566
 51
0.1730356553
  0
ARC
  5
31F
100
AcDbEntity
  8
RACCORDO
100
AcDbCircle
 62
253
  6
CONTINUOUS
 10
-194.4081461974
 20
-22.9785971228
 40
136.804853067
100
AcDbArc
 50
359.6388850758
 51
0.288445253
  0
ARC
  5
320
100
AcDbEntity
  8
RACCORDO
100
AcDbCircle
 62
253
  6
CONTINUOUS
 10
-189.9002817596
 20
-22.6398340605
 40
131.6970793861
100
AcDbArc
 50
359.6444945209
 51
359.8485366027
  0
ARC
  5
321
100
AcDbEntity
  8
RACCORDO
100
AcDbCircle
 62
253
  6
CONTINUOUS
 10
-208.925025262
 20
22.8236868461
 40
150.7218935732
100
AcDbArc
 50
359.8271482962
 51
0.0380210028
  0
ARC
  5
322
100
AcDbEntity
  8
RACCORDO
100
AcDbCircle
 62
253
  6
CONTINUOUS
 10
-198.353736102
 20
23.2181814312
 40
140.750438925
100
AcDbArc
 50
359.6473392939
 51
0.0237227953
  0
ARC
  5
323
100
AcDbEntity
  8
RACCORDO
100
AcDbCircle
 62
253
  6
CONTINUOUS
 10
-194.7291407297
 20
22.852718374
 40
136.5259886965
100
AcDbArc
 50
0.029790761
 51
0.3483090216
  0
ARC
  5
324
100
AcDbEntity
  8
RACCORDO
100
AcDbCircle
 62
253
  6
CONTINUOUS
 10
-188.953619232
 20
23.2327441505
 40
131.3503136894
100
AcDbArc
 50
0.0190681796
 51
0.3846943577
  0
ARC
  5
325
100
AcDbEntity
  8
RACCORDO
100
AcDbCircle
 62
253
  6
CONTINUOUS
 10
-160.5770354591
 20
23.4559594858
 40
102.9728564552
100
AcDbArc
 50
0.3665072505
 51
0.9466791859
  0
ARC
  5
326
100
AcDbEntity
  8
RACCORDO
100
AcDbCircle
 62
7
  6
CONTINUOUS
 10
-60.6142460015
 20
-25.9176481736
 40
2.9999999257
100
AcDbArc
 50
1.9291577202
 51
14.1487008884
  0
ARC
  5
327
100
AcDbEntity
  8
RACCORDO
100
AcDbCircle
 62
7
  6
CONTINUOUS
 10
-60.6142460015
 20
-25.9176481736
 40
2.9999999257
100
AcDbArc
 50
32.0406130308
 51
36.6197522815
  0
ARC
  5
328
100
AcDbEntity
  8
RACCORDO
100
AcDbCircle
 62
7
  6
CONTINUOUS
 10
-60.6106540762
 20
-25.9223438793
 40
2.9999998506
100
AcDbArc
 50
2.1221851242
 51
36.7032655917
  0
ARC
  5
329
100
AcDbEntity
  8
RACCORDO
100
AcDbCircle
 62
7
  6
CONTINUOUS
 10
-53.8399354832
 20
-46.1477373811
 40
1.0
100
AcDbArc
 50
193.5995816732
 51
260.7121988676
  0
ARC
  5
32A
100
AcDbEntity
  8
RACCORDO
100
AcDbCircle
 62
253
  6
CONTINUOUS
 10
-53.7549498976
 20
-46.1526652954
 40
0.9995363253
100
AcDbArc
 50
187.0921647872
 51
266.9851877402
  0
ARC
  5
32B
100
AcDbEntity
  8
RACCORDO
100
AcDbCircle
 62
253
  6
CONTINUOUS
 10
-48.003247215
 20
-23.9726754688
 40
10.2033852095
100
AcDbArc
 50
180.5830252678
 51
180.8797138124
  0
ARC
  5
32C
100
AcDbEntity
  8
RACCORDO
100
AcDbCircle
 62
7
  6
CONTINUOUS
 10
-57.3584459768
 20
-23.5194483634
 40
1.0452548387
100
AcDbArc
 50
192.0013724584
 51
198.6203466065
  0
ARC
  5
32D
100
AcDbEntity
  8
RACCORDO
100
AcDbCircle
 62
7
  6
CONTINUOUS
 10
-57.3725713363
 20
-23.5243969364
 40
1.0302888266
100
AcDbArc
 50
198.6103715044
 51
204.9696487755
  0
ARC
  5
32E
100
AcDbEntity
  8
RACCORDO
100
AcDbCircle
 62
7
  6
CONTINUOUS
 10
-57.3824933532
 20
-23.5237261198
 40
1.0208439053
100
AcDbArc
 50
180.4441687958
 51
192.0471733435
  0
ARC
  5
32F
100
AcDbEntity
  8
RACCORDO
100
AcDbCircle
 62
7
  6
CONTINUOUS
 10
-57.3991758952
 20
-23.5336786184
 40
1.0052109244
100
AcDbArc
 50
151.4204066837
 51
158.2970897087
  0
ARC
  5
330
100
AcDbEntity
  8
RACCORDO
100
AcDbCircle
 62
7
  6
CONTINUOUS
 10
-57.4034025678
 20
-23.5320929781
 40
1.0006975085
100
AcDbArc
 50
158.2919505617
 51
164.8620151328
  0
ARC
  5
331
100
AcDbEntity
  8
0
100
AcDbCircle
 62
7
  6
CONTINUOUS
 10
-57.4036977916
 20
-23.5316474869
 40
1.0
100
AcDbArc
 50
180.0
 51
216.7041867982
  0
ARC
  5
332
100
AcDbEntity
  8
RACCORDO
100
AcDbCircle
 62
7
  6
CONTINUOUS
 10
-57.4063943776
 20
-23.529649988
 40
0.9969447804
100
AcDbArc
 50
144.8142962076
 51
151.4252678607
  0
ARC
  5
333
100
AcDbEntity
  8
RACCORDO
100
AcDbCircle
 62
7
  6
CONTINUOUS
 10
-57.4193205339
 20
-23.5278889815
 40
0.9842340546
100
AcDbArc
 50
164.8562652076
 51
171.893517214
  0
ARC
  5
334
100
AcDbEntity
  8
RACCORDO
100
AcDbCircle
 62
7
  6
CONTINUOUS
 10
-57.4402310187
 20
-23.5248197363
 40
0.9630997134
100
AcDbArc
 50
171.8988667063
 51
180.4057379725
  0
ARC
  5
335
100
AcDbEntity
  8
RACCORDO
100
AcDbCircle
 62
7
  6
CONTINUOUS
 10
-49.9037905275
 20
-4.0833914595
 40
0.5
100
AcDbArc
 50
0.0
 51
82.5
  0
ARC
  5
336
100
AcDbEntity
  8
RACCORDO
100
AcDbCircle
 62
7
  6
CONTINUOUS
 10
-50.9037905275
 20
-2.9431100014
 40
0.5
100
AcDbArc
 50
180.0
 51
262.5
  0
ARC
  5
337
100
AcDbEntity
  8
RACCORDO
100
AcDbCircle
 62
7
  6
CONTINUOUS
 10
44.4005667945
 20
-22.3815982328
 40
102.074357322
100
AcDbArc
 50
182.4180207998
 51
193.5995923666
  0
ARC
  5
338
100
AcDbEntity
  8
RACCORDO
100
AcDbCircle
 62
7
  6
CONTINUOUS
 10
-57.4037027162
 20
23.7684512434
 40
1.0
100
AcDbArc
 50
143.2956734521
 51
212.4559335298
  0
ARC
  5
339
100
AcDbEntity
  8
0
100
AcDbCircle
 62
7
  6
CONTINUOUS
 10
-57.40381342
 20
23.7684611374
 40
1.0
100
AcDbArc
 50
143.2878416809
 51
180.0
  0
ARC
  5
33A
100
AcDbEntity
  8
RACCORDO
100
AcDbCircle
 62
7
  6
CONTINUOUS
 10
-49.9037905275
 20
4.3201949938
 40
0.5
100
AcDbArc
 50
277.5
 51
360.0
  0
ARC
  5
33B
100
AcDbEntity
  8
RACCORDO
100
AcDbCircle
 62
7
  6
CONTINUOUS
 10
-50.9037905275
 20
3.1799135357
 40
0.5
100
AcDbArc
 50
97.5
 51
180.0
  0
ARC
  5
33C
100
AcDbEntity
  8
RACCORDO
100
AcDbCircle
 62
7
  6
CONTINUOUS
 10
-60.6106493606
 20
26.1592923627
 40
3.0000000121
100
AcDbArc
 50
323.2938319076
 51
357.8764660578
  0
ARC
  5
33D
100
AcDbEntity
  8
RACCORDO
100
AcDbCircle
 62
7
  6
CONTINUOUS
 10
-60.6142758669
 20
26.1544146968
 40
3.0
100
AcDbArc
 50
323.3811553107
 51
327.235645603
  0
ARC
  5
33E
100
AcDbEntity
  8
RACCORDO
100
AcDbCircle
 62
7
  6
CONTINUOUS
 10
-53.8259806401
 20
46.3852722578
 40
1.0
100
AcDbArc
 50
93.0
 51
167.3449157249
  0
ARC
  5
33F
100
AcDbEntity
  8
RACCORDO
100
AcDbCircle
 62
7
  6
CONTINUOUS
 10
-53.8399354887
 20
46.3845409152
 40
1.0
100
AcDbArc
 50
99.2878634816
 51
166.4004182361
  0
ARC
  5
340
100
AcDbEntity
  8
RACCORDO
100
AcDbCircle
 62
7
  6
CONTINUOUS
 10
-53.7562059153
 20
46.4137909081
 40
0.9751721753
100
AcDbArc
 50
93.0099849244
 51
97.1725261288
  0
ARC
  5
341
100
AcDbEntity
  8
RACCORDO
100
AcDbCircle
 62
7
  6
CONTINUOUS
 10
44.4005667945
 20
22.6184017672
 40
102.074357322
100
AcDbArc
 50
166.4004076334
 51
177.6446317415
  0
SPLINE
  5
342
100
AcDbEntity
  8
0
100
AcDbSpline
 62
253
  6
CONTINUOUS
 70
0
 71
3
 72
10
 73
6
 74
4
 42
0.0000001
 43
0.0000001
 44
0.0000000001
 12
-1.5240323647
 22
0.5505475811
 32
0.0
 13
-1.6017516149
 23
-0.2452938074
 33
0.0
 40
0.0
 40
0.0
 40
0.0
 40
0.0
 40
0.3032182338
 40
0.6366097856
 40
1.0
 40
1.0
 40
1.0
 40
1.0
 10
35.9365494927
 20
-25.9592445164
 30
0.0
 10
35.7825113587
 20
-25.9035991614
 30
0.0
 10
35.437864249
 20
-25.8491709819
 30
0.0
 10
34.8971976226
 20
-25.8564058329
 30
0.0
 10
34.5233132791
 20
-25.9057487353
 30
0.0
 10
34.3292929915
 20
-25.9354611918
 30
0.0
 11
35.9365494927
 21
-25.9592445164
 31
0.0
 11
35.4543023168
 21
-25.8651433387
 31
0.0
 11
34.9140676062
 21
-25.8663311075
 31
0.0
 11
34.3292929915
 21
-25.9354611918
 31
0.0
  0
SPLINE
  5
343
100
AcDbEntity
  8
0
100
AcDbSpline
 62
253
  6
CONTINUOUS
 70
0
 71
3
 72
15
 73
11
 74
9
 42
0.0000001
 43
0.0000001
 44
0.0000000001
 12
1.4813544236
 22
1.1252001678
 32
0.0
 13
-1.7495800428
 23
0.6320253315
 33
0.0
 40
0.0
 40
0.0
 40
0.0
 40
0.0
 40
0.1408013167
 40
0.2737502471
 40
0.3995427647
 40
0.5219053743
 40
0.6414310934
 40
0.7613125105
 40
0.8801033211
 40
1.0
 40
1.0
 40
1.0
 40
1.0
 10
36.1286675126
 20
-27.5044252108
 30
0.0
 10
36.1981930637
 20
-27.4516153224
 30
0.0
 10
36.3169749064
 20
-27.3255348931
 30
0.0
 10
36.4271178703
 20
-27.1000017202
 30
0.0
 10
36.4709570101
 20
-26.8654914657
 30
0.0
 10
36.4637634824
 20
-26.6357930372
 30
0.0
 10
36.404409678
 20
-26.4172645719
 30
0.0
 10
36.2938677587
 20
-26.2214425449
 30
0.0
 10
36.1355714575
 20
-26.0625901659
 30
0.0
 10
36.0064724382
 20
-25.9845037625
 30
0.0
 10
35.9365494927
 20
-25.9592445164
 30
0.0
 11
36.1286675126
 21
-27.5044252108
 31
0.0
 11
36.3089228331
 21
-27.314393112
 31
0.0
 11
36.4181168479
 21
-27.0924872534
 31
0.0
 11
36.4627689317
 21
-26.8627829041
 31
0.0
 11
36.454763563
 21
-26.6353001125
 31
0.0
 11
36.3958427141
 21
-26.4209027778
 31
0.0
 11
36.2855310054
 21
-26.2270887073
 31
0.0
 11
36.1301828993
 21
-26.0699302618
 31
0.0
 11
35.9365494927
 21
-25.9592445164
 31
0.0
  0
SPLINE
  5
344
100
AcDbEntity
  8
0
100
AcDbSpline
 62
253
  6
CONTINUOUS
 70
0
 71
3
 72
10
 73
6
 74
4
 42
0.0000001
 43
0.0000001
 44
0.0000000001
 12
-0.1668413157
 22
0.6122846937
 32
0.0
 13
-0.4900393726
 23
0.4032244834
 33
0.0
 40
0.0
 40
0.0
 40
0.0
 40
0.0
 40
0.3525504467
 40
0.6889642437
 40
1.0
 40
1.0
 40
1.0
 40
1.0
 10
36.4008354867
 20
-28.0673127226
 30
0.0
 10
36.3812288266
 20
-27.9953589752
 30
0.0
 10
36.3452609763
 20
-27.8541035574
 30
0.0
 10
36.2667444225
 20
-27.6563317929
 30
0.0
 10
36.1794741016
 20
-27.5462309548
 30
0.0
 10
36.1286675126
 20
-27.5044252108
 30
0.0
 11
36.4008354867
 21
-28.0673127226
 31
0.0
 11
36.3396719688
 21
-27.8521037774
 31
0.0
 11
36.2549150617
 21
-27.6561579489
 31
0.0
 11
36.1286675126
 21
-27.5044252108
 31
0.0
  0
SPLINE
  5
345
100
AcDbEntity
  8
0
100
AcDbSpline
 62
253
  6
CONTINUOUS
 70
0
 71
3
 72
10
 73
6
 74
4
 42
0.0000001
 43
0.0000001
 44
0.0000000001
 12
0.3431885896
 22
-0.9134143463
 32
0.0
 13
0.2654472564
 23
-0.9389578959
 33
0.0
 40
0.0
 40
0.0
 40
0.0
 40
0.0
 40
0.3264120278
 40
0.6597241158
 40
1.0
 40
1.0
 40
1.0
 40
1.0
 10
35.5996876793
 20
-28.0247173464
 30
0.0
 10
35.6370279738
 20
-28.1241004894
 30
0.0
 10
35.6992894244
 20
-28.3297297126
 30
0.0
 10
35.7866924404
 20
-28.6429205948
 30
0.0
 10
35.849697979
 20
-28.8527916659
 30
0.0
 10
35.8798064123
 20
-28.959293242
 30
0.0
 11
35.5996876793
 21
-28.0247173464
 31
0.0
 11
35.6975122658
 21
-28.3278214715
 31
0.0
 11
35.7870955149
 21
-28.6404725703
 31
0.0
 11
35.8798064123
 21
-28.959293242
 31
0.0
  0
SPLINE
  5
346
100
AcDbEntity
  8
0
100
AcDbSpline
 62
253
  6
CONTINUOUS
 70
0
 71
3
 72
10
 73
6
 74
4
 42
0.0000001
 43
0.0000001
 44
0.0000000001
 12
0.347230729
 22
-0.0000074191
 32
0.0
 13
0.1221261755
 23
-0.3250451914
 33
0.0
 40
0.0
 40
0.0
 40
0.0
 40
0.0
 40
0.3291049111
 40
0.6516682821
 40
1.0
 40
1.0
 40
1.0
 40
1.0
 10
35.3413568981
 20
-27.8243150959
 30
0.0
 10
35.3794486775
 20
-27.8243159098
 30
0.0
 10
35.4570698038
 20
-27.8393343477
 30
0.0
 10
35.5469612528
 20
-27.9180360962
 30
0.0
 10
35.5855075391
 20
-27.9869761631
 30
0.0
 10
35.5996876793
 20
-28.0247173464
 30
0.0
 11
35.3413568981
 21
-27.8243150959
 31
0.0
 11
35.4529924944
 21
-27.8487353041
 31
0.0
 11
35.5396144283
 21
-27.9197389479
 31
0.0
 11
35.5996876793
 21
-28.0247173464
 31
0.0
  0
SPLINE
  5
347
100
AcDbEntity
  8
0
100
AcDbSpline
 62
253
  6
CONTINUOUS
 70
0
 71
3
 72
10
 73
6
 74
4
 42
0.0000001
 43
0.0000001
 44
0.0000000001
 12
0.3731273544
 22
0.0519002546
 32
0.0
 13
0.3742081723
 23
-0.0434269823
 33
0.0
 40
0.0
 40
0.0
 40
0.0
 40
0.0
 40
0.3418957841
 40
0.6752897501
 40
1.0
 40
1.0
 40
1.0
 40
1.0
 10
35.0849760666
 20
-26.5440903324
 30
0.0
 10
35.127499623
 20
-26.5381755063
 30
0.0
 10
35.2120023799
 20
-26.5297614519
 30
0.0
 10
35.3377133464
 20
-26.5284170196
 30
0.0
 10
35.4202461225
 20
-26.5344563939
 30
0.0
 10
35.4607491989
 20
-26.5391567894
 30
0.0
 11
35.0849760666
 21
-26.5440903324
 31
0.0
 11
35.2131658636
 21
-26.5315796116
 31
0.0
 11
35.3387541336
 21
-26.5301823663
 31
0.0
 11
35.4607491989
 21
-26.5391567894
 31
0.0
  0
SPLINE
  5
348
100
AcDbEntity
  8
0
100
AcDbSpline
 62
253
  6
CONTINUOUS
 70
0
 71
3
 72
10
 73
6
 74
4
 42
0.0000001
 43
0.0000001
 44
0.0000000001
 12
0.4119514521
 22
-0.0478071024
 32
0.0
 13
0.0063268035
 23
-0.4146679268
 33
0.0
 40
0.0
 40
0.0
 40
0.0
 40
0.0
 40
0.3197299567
 40
0.6488775117
 40
1.0
 40
1.0
 40
1.0
 40
1.0
 10
35.4607491989
 20
-26.5391567894
 30
0.0
 10
35.5046536056
 20
-26.5442519103
 30
0.0
 10
35.5933657157
 20
-26.5713353601
 30
0.0
 10
35.6970346989
 20
-26.6711066631
 30
0.0
 10
35.7238971895
 20
-26.7669040983
 30
0.0
 10
35.7246376838
 20
-26.8154371763
 30
0.0
 11
35.4607491989
 21
-26.5391567894
 31
0.0
 11
35.586871751
 21
-26.5800849762
 31
0.0
 11
35.6845352733
 21
-26.6754519319
 31
0.0
 11
35.7246376838
 21
-26.8154371763
 31
0.0
  0
SPLINE
  5
349
100
AcDbEntity
  8
0
100
AcDbSpline
 62
253
  6
CONTINUOUS
 70
0
 71
3
 72
10
 73
6
 74
4
 42
0.0000001
 43
0.0000001
 44
0.0000000001
 12
0.0090935898
 22
-0.5960071401
 32
0.0
 13
-0.595909466
 23
-0.0141107315
 33
0.0
 40
0.0
 40
0.0
 40
0.0
 40
0.0
 40
0.344014897
 40
0.6678918305
 40
1.0
 40
1.0
 40
1.0
 40
1.0
 10
35.7246376838
 20
-26.8154371763
 30
0.0
 10
35.7256804606
 20
-26.883782288
 30
0.0
 10
35.7095172425
 20
-27.0256970702
 30
0.0
 10
35.5404985341
 20
-27.1610017531
 30
0.0
 10
35.4076100878
 20
-27.1748486859
 30
0.0
 10
35.3416412872
 20
-27.1764107823
 30
0.0
 11
35.7246376838
 21
-26.8154371763
 31
0.0
 11
35.6833689911
 21
-27.016300737
 31
0.0
 11
35.5365233467
 21
-27.1416273362
 31
0.0
 11
35.3416412872
 21
-27.1764107823
 31
0.0
  0
SPLINE
  5
34A
100
AcDbEntity
  8
RACCORDO
100
AcDbSpline
 62
7
  6
CONTINUOUS
 70
0
 71
3
 72
34
 73
30
 74
28
 42
0.0000001
 43
0.0000001
 44
0.0000000001
 12
-0.0000000952
 22
32.7503370349
 32
0.0
 13
0.0631254182
 23
32.7502761986
 33
0.0
 40
0.0
 40
0.0
 40
0.0
 40
0.0
 40
0.0890678687
 40
0.1704460026
 40
0.2449731978
 40
0.3133285957
 40
0.3761158299
 40
0.4338564787
 40
0.4870029972
 40
0.53597294
 40
0.5811488532
 40
0.6228289677
 40
0.6612419148
 40
0.6966264341
 40
0.7292650713
 40
0.759443483
 40
0.7873432237
 40
0.8130321082
 40
0.8366440465
 40
0.8583743551
 40
0.8784027351
 40
0.8968005519
 40
0.913377166
 40
0.9281312896
 40
0.9416650238
 40
0.9548087066
 40
0.9684730863
 40
0.983567743
 40
1.0
 40
1.0
 40
1.0
 40
1.0
 10
59.1941657668
 20
11.8684017667
 30
0.0
 10
59.194165764
 20
12.8407360069
 30
0.0
 10
59.1941930951
 20
14.701457351
 30
0.0
 10
59.1942793202
 20
17.3757756142
 30
0.0
 10
59.1943793544
 20
19.8239804088
 30
0.0
 10
59.1944754843
 20
22.0692324609
 30
0.0
 10
59.1945707567
 20
24.1312294953
 30
0.0
 10
59.1946703867
 20
26.027194554
 30
0.0
 10
59.1947649299
 20
27.7723192957
 30
0.0
 10
59.1948471395
 20
29.3802775952
 30
0.0
 10
59.1949143178
 20
30.8630596979
 30
0.0
 10
59.1949682367
 20
32.2305934114
 30
0.0
 10
59.1950063566
 20
33.491236643
 30
0.0
 10
59.1950408168
 20
34.6531760649
 30
0.0
 10
59.1950935546
 20
35.7252208826
 30
0.0
 10
59.1951718733
 20
36.7155560245
 30
0.0
 10
59.1952675307
 20
37.630022249
 30
0.0
 10
59.1953915505
 20
38.4728037314
 30
0.0
 10
59.1955631871
 20
39.2482348779
 30
0.0
 10
59.1957935829
 20
39.9618715303
 30
0.0
 10
59.1960530785
 20
40.6185867544
 30
0.0
 10
59.1963097705
 20
41.2190402312
 30
0.0
 10
59.1965601232
 20
41.7619158128
 30
0.0
 10
59.1967920456
 20
42.2516912833
 30
0.0
 10
59.196965265
 20
42.7039902249
 30
0.0
 10
59.1970701679
 20
43.1443926913
 30
0.0
 10
59.1972400824
 20
43.6018353935
 30
0.0
 10
59.1976815539
 20
44.0951785894
 30
0.0
 10
59.1982228778
 20
44.4393505487
 30
0.0
 10
59.1985686421
 20
44.6187375338
 30
0.0
 11
59.1941657668
 21
11.8684017667
 31
0.0
 11
59.1942032471
 21
14.785404487
 31
0.0
 11
59.194285728
 21
17.4505657974
 31
0.0
 11
59.1943829368
 21
19.8913565571
 31
0.0
 11
59.1944794051
 21
22.1300188716
 31
0.0
 11
59.1945755676
 21
24.1863219534
 31
0.0
 11
59.1946735563
 21
26.0773476601
 31
0.0
 11
59.1947664794
 21
27.8179140482
 31
0.0
 11
59.1948476384
 21
29.4216961791
 31
0.0
 11
59.194914539
 21
30.9012225589
 31
0.0
 11
59.194967467
 21
32.2662603563
 31
0.0
 11
59.1950072295
 21
33.5242973196
 31
0.0
 11
59.1950456314
 21
34.6831522531
 31
0.0
 11
59.1951004093
 21
35.7520786209
 31
0.0
 11
59.1951782096
 21
36.7404317711
 31
0.0
 11
59.1952768027
 21
37.6541576779
 31
0.0
 11
59.1954057279
 21
38.4954772906
 31
0.0
 11
59.1955813588
 21
39.2687762094
 31
0.0
 11
59.1958085057
 21
39.9804511049
 31
0.0
 11
59.1960637994
 21
40.6363872505
 31
0.0
 11
59.1963218264
 21
41.2389218936
 31
0.0
 11
59.1965704825
 21
41.7818115378
 31
0.0
 11
59.1967907471
 21
42.2650140055
 31
0.0
 11
59.1969560443
 21
42.7082483324
 31
0.0
 11
59.1970781878
 21
43.1387083582
 31
0.0
 11
59.1972713801
 21
43.5862213552
 31
0.0
 11
59.1977219767
 21
44.0805762447
 31
0.0
 11
59.1985686421
 21
44.6187375338
 31
0.0
  0
SPLINE
  5
34B
100
AcDbEntity
  8
RACCORDO
100
AcDbSpline
 62
253
  6
CONTINUOUS
 70
0
 71
3
 72
40
 73
36
 74
34
 42
0.0000001
 43
0.0000001
 44
0.0000000001
 12
0.0632725014
 22
-32.7499626117
 32
0.0
 13
-0.0000004163
 23
-32.7500237324
 33
0.0
 40
0.0
 40
0.0
 40
0.0
 40
0.0
 40
0.0104310551
 40
0.0209000954
 40
0.0313421148
 40
0.0418775856
 40
0.0525822905
 40
0.0633604531
 40
0.0740698173
 40
0.0846907311
 40
0.0954944614
 40
0.106884834
 40
0.1192621421
 40
0.1330261678
 40
0.148527131
 40
0.1657737476
 40
0.1846458724
 40
0.2050273871
 40
0.2269957042
 40
0.2508208756
 40
0.27678174
 40
0.3051578515
 40
0.3362228023
 40
0.3701869671
 40
0.4072324106
 40
0.4475552863
 40
0.4913239377
 40
0.5386593935
 40
0.5897083756
 40
0.6449007925
 40
0.7047729216
 40
0.7698105565
 40
0.8404286934
 40
0.9170199492
 40
1.0
 40
1.0
 40
1.0
 40
1.0
 10
-35.3397699644
 20
44.6184242248
 30
0.0
 10
-35.3395499648
 20
44.504552003
 30
0.0
 10
-35.3391624563
 20
44.276392782
 30
0.0
 10
-35.3387368096
 20
43.9342413677
 30
0.0
 10
-35.3384601541
 20
43.5909499298
 30
0.0
 10
-35.338307076
 20
43.2450857457
 30
0.0
 10
-35.3382204566
 20
42.8955519766
 30
0.0
 10
-35.3381143963
 20
42.5441198748
 30
0.0
 10
-35.337968188
 20
42.1936025079
 30
0.0
 10
-35.3378054709
 20
41.8428060347
 30
0.0
 10
-35.3376362385
 20
41.4845752152
 30
0.0
 10
-35.3374645696
 20
41.1071704109
 30
0.0
 10
-35.3372865238
 20
40.6974490241
 30
0.0
 10
-35.3371034697
 20
40.2428536566
 30
0.0
 10
-35.3369215098
 20
39.7351016271
 30
0.0
 10
-35.336756016
 20
39.1715861345
 30
0.0
 10
-35.3366182621
 20
38.5547912395
 30
0.0
 10
-35.3365091806
 20
37.8864510707
 30
0.0
 10
-35.3364229368
 20
37.1640401007
 30
0.0
 10
-35.3363503941
 20
36.3807211837
 30
0.0
 10
-35.3362932923
 20
35.5274504588
 30
0.0
 10
-35.3362497975
 20
34.5951454167
 30
0.0
 10
-35.3362159125
 20
33.5754709493
 30
0.0
 10
-35.3361799404
 20
32.4611562064
 30
0.0
 10
-35.3361339217
 20
31.2457757105
 30
0.0
 10
-35.3360774579
 20
29.9233628247
 30
0.0
 10
-35.3360084632
 20
28.4886172229
 30
0.0
 10
-35.3359263248
 20
26.9367782088
 30
0.0
 10
-35.3358350182
 20
25.2602296648
 30
0.0
 10
-35.3357437797
 20
23.446822338
 30
0.0
 10
-35.3356558473
 20
21.4807054401
 30
0.0
 10
-35.3355650104
 20
19.3461909767
 30
0.0
 10
-35.3354728669
 20
17.029159248
 30
0.0
 10
-35.3353954651
 20
14.5162560034
 30
0.0
 10
-35.3353715765
 20
12.7742679775
 30
0.0
 10
-35.3353715881
 20
11.8684017667
 30
0.0
 11
-35.3397699644
 21
44.6184242248
 31
0.0
 11
-35.3391889843
 21
44.276807416
 31
0.0
 11
-35.3387615118
 21
43.9339463635
 31
0.0
 11
-35.3384815904
 21
43.5919700959
 31
0.0
 11
-35.3383190056
 21
43.246933217
 31
0.0
 11
-35.3382175121
 21
42.8963538909
 31
0.0
 11
-35.3381073632
 21
42.5433688267
 31
0.0
 11
-35.3379650424
 21
42.192636926
 31
0.0
 11
-35.3378059045
 21
41.8448017828
 31
0.0
 11
-35.3376402712
 21
41.4909793977
 31
0.0
 11
-35.3374706809
 21
41.1179444615
 31
0.0
 11
-35.3372951417
 21
40.7125873681
 31
0.0
 11
-35.3371142365
 21
40.2618152342
 31
0.0
 11
-35.3369335201
 21
39.7541583551
 31
0.0
 11
-35.3367675513
 21
39.1893312755
 31
0.0
 11
-35.3366278976
 21
38.5712687572
 31
0.0
 11
-35.3365167011
 21
37.9037736745
 31
0.0
 11
-35.3364284371
 21
37.184310774
 31
0.0
 11
-35.3363557507
 21
36.4040358501
 31
0.0
 11
-35.3362978012
 21
35.5538169246
 31
0.0
 11
-35.3362531518
 21
34.6244986001
 31
0.0
 11
-35.3362171181
 21
33.6071207248
 31
0.0
 11
-35.3361800364
 21
32.494793523
 31
0.0
 11
-35.3361343404
 21
31.2815543717
 31
0.0
 11
-35.3360779261
 21
29.960979237
 31
0.0
 11
-35.3360092243
 21
28.5275548659
 31
0.0
 11
-35.3359280898
 21
26.9773175663
 31
0.0
 11
-35.3358385923
 21
25.3054621942
 31
0.0
 11
-35.3357479654
 21
23.4979092334
 31
0.0
 11
-35.3356590484
 21
21.5370955857
 31
0.0
 11
-35.3355685521
 21
19.4071115009
 31
0.0
 11
-35.3354787759
 21
17.094365843
 31
0.0
 11
-35.3354044713
 21
14.586000399
 31
0.0
 11
-35.3353715881
 21
11.8684017667
 31
0.0
  0
SPLINE
  5
34C
100
AcDbEntity
  8
RACCORDO
100
AcDbSpline
 62
253
  6
CONTINUOUS
 70
0
 71
3
 72
41
 73
37
 74
35
 42
0.0000001
 43
0.0000001
 44
0.0000000001
 12
0.0000004558
 22
-32.7500714889
 32
0.0
 13
-0.0632718427
 23
-32.7500103695
 33
0.0
 40
0.0
 40
0.0
 40
0.0
 40
0.0
 40
0.0842954844
 40
0.1616225595
 40
0.2325529148
 40
0.2975990333
 40
0.3572417887
 40
0.4119778328
 40
0.4622933609
 40
0.5086198668
 40
0.5512429095
 40
0.5904344878
 40
0.6264364184
 40
0.6594608296
 40
0.6897060532
 40
0.7173812877
 40
0.742737412
 40
0.7660316435
 40
0.7875207766
 40
0.8074659624
 40
0.8260475959
 40
0.8432612163
 40
0.8590708663
 40
0.8734469953
 40
0.8865095129
 40
0.8984621937
 40
0.909514471
 40
0.9198764579
 40
0.9297522711
 40
0.9393866074
 40
0.9490357473
 40
0.9589911851
 40
0.9693140841
 40
0.9797111504
 40
0.9899677981
 40
1.0
 40
1.0
 40
1.0
 40
1.0
 10
-35.3353715881
 20
-11.6315982324
 30
0.0
 10
-35.3353715752
 20
-12.5518259455
 30
0.0
 10
-35.335396153
 20
-14.3162094054
 30
0.0
 10
-35.3354750909
 20
-16.8549175993
 30
0.0
 10
-35.3355681417
 20
-19.1834864226
 30
0.0
 10
-35.3356590597
 20
-21.3190010004
 30
0.0
 10
-35.3357469825
 20
-23.2777272956
 30
0.0
 10
-35.335837859
 20
-25.0756442945
 30
0.0
 10
-35.3359278284
 20
-26.7281919182
 30
0.0
 10
-35.3360082546
 20
-28.248505655
 30
0.0
 10
-35.3360756112
 20
-29.6473826752
 30
0.0
 10
-35.3361307883
 20
-30.9335495039
 30
0.0
 10
-35.3361760207
 20
-32.1149310433
 30
0.0
 10
-35.3362116212
 20
-33.1986479978
 30
0.0
 10
-35.3362437026
 20
-34.1914649875
 30
0.0
 10
-35.3362833261
 20
-35.1005696624
 30
0.0
 10
-35.3363346685
 20
-35.933792507
 30
0.0
 10
-35.3364000887
 20
-36.699483596
 30
0.0
 10
-35.3364777788
 20
-37.4061051424
 30
0.0
 10
-35.3365725711
 20
-38.0612807128
 30
0.0
 10
-35.3366925153
 20
-38.6697818295
 30
0.0
 10
-35.3368389334
 20
-39.2331365751
 30
0.0
 10
-35.3370088379
 20
-39.7505811209
 30
0.0
 10
-35.3371886433
 20
-40.2227093559
 30
0.0
 10
-35.3373686585
 20
-40.6527322471
 30
0.0
 10
-35.3375439072
 20
-41.0464696767
 30
0.0
 10
-35.337712521
 20
-41.4107262491
 30
0.0
 10
-35.337874727
 20
-41.7523103014
 30
0.0
 10
-35.3380204619
 20
-42.0784151369
 30
0.0
 10
-35.3381454162
 20
-42.3967380495
 30
0.0
 10
-35.3382330523
 20
-42.715930213
 30
0.0
 10
-35.3383195781
 20
-43.0426392025
 30
0.0
 10
-35.3384750809
 20
-43.3775130534
 30
0.0
 10
-35.3387562896
 20
-43.7156750428
 30
0.0
 10
-35.3391803077
 20
-44.0506634309
 30
0.0
 10
-35.3395584609
 20
-44.2721502077
 30
0.0
 10
-35.3397700462
 20
-44.3816684464
 30
0.0
 11
-35.3353715881
 21
-11.6315982324
 31
0.0
 11
-35.3354054505
 21
-14.3922813717
 31
0.0
 11
-35.3354811662
 21
-16.9247486105
 31
0.0
 11
-35.3355717644
 21
-19.2477228146
 31
0.0
 11
-35.335662428
 21
-21.3779878423
 31
0.0
 11
-35.3357513078
 21
-23.3312923438
 31
0.0
 11
-35.3358415116
 21
-25.1239017001
 31
0.0
 11
-35.3359297583
 21
-26.7717388391
 31
0.0
 11
-35.3360091421
 21
-28.2889352157
 31
0.0
 11
-35.3360761423
 21
-29.6848429107
 31
0.0
 11
-35.3361312535
 21
-30.9683698997
 31
0.0
 11
-35.3361761506
 21
-32.1474357015
 31
0.0
 11
-35.3362125169
 21
-33.2289875288
 31
0.0
 11
-35.3362465526
 21
-34.2195207629
 31
0.0
 11
-35.3362872729
 21
-35.1258866702
 31
0.0
 11
-35.336339492
 21
-35.9563015529
 31
0.0
 11
-35.3364050139
 21
-36.7191892958
 31
0.0
 11
-35.3364838582
 21
-37.4229599365
 31
0.0
 11
-35.3365806349
 21
-38.0761661905
 31
0.0
 11
-35.3367020709
 21
-38.6847160031
 31
0.0
 11
-35.3368496217
 21
-39.2484632825
 31
0.0
 11
-35.3370187209
 21
-39.766230424
 31
0.0
 11
-35.337197211
 21
-40.2370496424
 31
0.0
 11
-35.3373757016
 21
-40.6648479911
 31
0.0
 11
-35.3375494895
 21
-41.0562991007
 31
0.0
 11
-35.3377167544
 21
-41.4182619337
 31
0.0
 11
-35.3378756274
 21
-41.757617711
 31
0.0
 11
-35.3380186736
 21
-42.0810512655
 31
0.0
 11
-35.338139153
 21
-42.396576446
 31
0.0
 11
-35.3382316305
 21
-42.7125864527
 31
0.0
 11
-35.3383291613
 21
-43.03862774
 31
0.0
 11
-35.3384953221
 21
-43.3767033795
 31
0.0
 11
-35.3387823724
 21
-43.7172079233
 31
0.0
 11
-35.3392084035
 21
-44.0531135973
 31
0.0
 11
-35.3397700462
 21
-44.3816684464
 31
0.0
  0
SPLINE
  5
34D
100
AcDbEntity
  8
RACCORDO
100
AcDbSpline
 62
253
  6
CONTINUOUS
 70
0
 71
3
 72
34
 73
30
 74
28
 42
0.0000001
 43
0.0000001
 44
0.0000000001
 12
-32.7499651899
 22
-0.0000003444
 32
0.0
 13
-32.7499072636
 23
0.0615968168
 33
0.0
 40
0.0
 40
0.0
 40
0.0
 40
0.0
 40
0.0961398165
 40
0.1836777981
 40
0.2630214734
 40
0.3346831093
 40
0.3994114771
 40
0.458084082
 40
0.5115052008
 40
0.560208365
 40
0.6046739894
 40
0.6453787054
 40
0.6827898881
 40
0.7173173854
 40
0.7491235554
 40
0.7783314793
 40
0.8052216966
 40
0.8300611099
 40
0.8529508701
 40
0.8740053591
 40
0.8933773144
 40
0.9111642626
 40
0.9273957705
 40
0.942143212
 40
0.9555503057
 40
0.9678185083
 40
0.9791885889
 40
0.9898579511
 40
1.0
 40
1.0
 40
1.0
 40
1.0
 10
0.1793970882
 20
47.3831704444
 30
0.0
 10
-0.8701281265
 20
47.3831704334
 30
0.0
 10
-2.8752752911
 20
47.383195944
 30
0.0
 10
-5.7465899892
 20
47.3832923066
 30
0.0
 10
-8.3506848313
 20
47.3834245663
 30
0.0
 10
-10.7057749857
 20
47.3835754837
 30
0.0
 10
-12.8352061944
 20
47.3837134328
 30
0.0
 10
-14.765511971
 20
47.3838229547
 30
0.0
 10
-16.5208761299
 20
47.3838930597
 30
0.0
 10
-18.1211475854
 20
47.3839201673
 30
0.0
 10
-19.5825984573
 20
47.3839215551
 30
0.0
 10
-20.9207786622
 20
47.3839123764
 30
0.0
 10
-22.1504677609
 20
47.3839004395
 30
0.0
 10
-23.2830145041
 20
47.383902156
 30
0.0
 10
-24.3260090992
 20
47.3839300177
 30
0.0
 10
-25.2856301409
 20
47.3840127298
 30
0.0
 10
-26.1691974929
 20
47.3841617678
 30
0.0
 10
-26.9837916163
 20
47.3843781427
 30
0.0
 10
-27.734679083
 20
47.3846581986
 30
0.0
 10
-28.4258801751
 20
47.384976803
 30
0.0
 10
-29.0613756323
 20
47.3852717192
 30
0.0
 10
-29.6442202868
 20
47.3855150231
 30
0.0
 10
-30.1765807416
 20
47.3856877717
 30
0.0
 10
-30.6611278389
 20
47.385844212
 30
0.0
 10
-31.1024088933
 20
47.3860115357
 30
0.0
 10
-31.5068204292
 20
47.3862505133
 30
0.0
 10
-31.8813450152
 20
47.3865874849
 30
0.0
 10
-32.2326589932
 20
47.3870266965
 30
0.0
 10
-32.4598496843
 20
47.3874038291
 30
0.0
 10
-32.5705667377
 20
47.3876120684
 30
0.0
 11
0.1793970882
 21
47.3831704444
 31
0.0
 11
-2.9691785557
 21
47.3832085857
 31
0.0
 11
-5.8360444036
 21
47.383303945
 31
0.0
 11
-8.4345470052
 21
47.3834348751
 31
0.0
 11
-10.7814630824
 21
47.3835806219
 31
0.0
 11
-12.9013148694
 21
47.3837147339
 31
0.0
 11
-14.822840633
 21
47.3838205749
 31
0.0
 11
-16.5723804127
 21
47.3838881008
 31
0.0
 11
-18.1674073454
 21
47.3839165069
 31
0.0
 11
-19.6236549984
 21
47.3839196152
 31
0.0
 11
-20.956733028
 21
47.3839114703
 31
0.0
 11
-22.1819479601
 21
47.3839025175
 31
0.0
 11
-23.3127222948
 21
47.3839071446
 31
0.0
 11
-24.3543732566
 21
47.3839415412
 31
0.0
 11
-25.3109317412
 21
47.3840286042
 31
0.0
 11
-26.1915854104
 21
47.3841803375
 31
0.0
 11
-27.0050753003
 21
47.3843989444
 31
0.0
 11
-27.7547140992
 21
47.3846771218
 31
0.0
 11
-28.4442478132
 21
47.3849856441
 31
0.0
 11
-29.0786786096
 21
47.3852746081
 31
0.0
 11
-29.661200493
 21
47.3855126749
 31
0.0
 11
-30.1927817817
 21
47.3856928769
 31
0.0
 11
-30.675759951
 21
47.3858536853
 31
0.0
 11
-31.1148417677
 21
47.3860324332
 31
0.0
 11
-31.5166248985
 21
47.3862777714
 31
0.0
 11
-31.8889944904
 21
47.3866168093
 31
0.0
 11
-32.2384154515
 21
47.3870583625
 31
0.0
 11
-32.5705667377
 21
47.3876120684
 31
0.0
  0
SPLINE
  5
34E
100
AcDbEntity
  8
RACCORDO
100
AcDbSpline
 62
253
  6
CONTINUOUS
 70
0
 71
3
 72
34
 73
30
 74
28
 42
0.0000001
 43
0.0000001
 44
0.0000000001
 12
-32.7860647914
 22
-0.0000006933
 32
0.0
 13
-32.7744744909
 23
-0.8717031336
 33
0.0
 40
0.0
 40
0.0
 40
0.0
 40
0.0
 40
0.0960471911
 40
0.1834994267
 40
0.2627641835
 40
0.3343508873
 40
0.3990058504
 40
0.4576068208
 40
0.5109581313
 40
0.5595965099
 40
0.6040067203
 40
0.644663838
 40
0.6820360781
 40
0.7165362307
 40
0.7483313677
 40
0.7775475248
 40
0.8044591982
 40
0.8293290795
 40
0.8522509891
 40
0.8733068382
 40
0.892645531
 40
0.9103750734
 40
0.9265621823
 40
0.9413140216
 40
0.9547843093
 40
0.9671932695
 40
0.978741566
 40
0.9896221224
 40
1.0
 40
1.0
 40
1.0
 40
1.0
 10
0.1793970894
 20
46.6196756252
 30
0.0
 10
-0.8702727203
 20
46.619675603
 30
0.0
 10
-2.8756807769
 20
46.6191064592
 30
0.0
 10
-5.747347937
 20
46.6170249355
 30
0.0
 10
-8.3516932382
 20
46.614172496
 30
0.0
 10
-10.706893519
 20
46.6109171079
 30
0.0
 10
-12.8362659933
 20
46.6080197304
 30
0.0
 10
-14.7663502695
 20
46.6058104718
 30
0.0
 10
-16.5213950184
 20
46.6044143229
 30
0.0
 10
-18.1213538022
 20
46.6038047522
 30
0.0
 10
-19.582581798
 20
46.6036743756
 30
0.0
 10
-20.9206856723
 20
46.6039185785
 30
0.0
 10
-22.1504854788
 20
46.6044458051
 30
0.0
 10
-23.2834357785
 20
46.6043102489
 30
0.0
 10
-24.3272498207
 20
46.6027019065
 30
0.0
 10
-25.2881280461
 20
46.5996223622
 30
0.0
 10
-26.1733168134
 20
46.5953552087
 30
0.0
 10
-26.9897119956
 20
46.5902312744
 30
0.0
 10
-27.7421029671
 20
46.5842793949
 30
0.0
 10
-28.4340478534
 20
46.5789077247
 30
0.0
 10
-29.0692472979
 20
46.5737956882
 30
0.0
 10
-29.6512387185
 20
46.5690163866
 30
0.0
 10
-30.1830945967
 20
46.5635749112
 30
0.0
 10
-30.6683834766
 20
46.5568622266
 30
0.0
 10
-31.1123664705
 20
46.5493625448
 30
0.0
 10
-31.5212972073
 20
46.5401256915
 30
0.0
 10
-31.9019235542
 20
46.5311779968
 30
0.0
 10
-32.260342399
 20
46.52206131
 30
0.0
 10
-32.4925873128
 20
46.5158939178
 30
0.0
 10
-32.6059638073
 20
46.5128784416
 30
0.0
 11
0.1793970894
 21
46.6196756252
 31
0.0
 11
-2.9696122283
 21
46.6188374837
 31
0.0
 11
-5.8368261483
 21
46.6167743755
 31
0.0
 11
-8.4356040675
 21
46.6139499787
 31
0.0
 11
-10.7826482923
 21
46.6108212536
 31
0.0
 11
-12.902428236
 21
46.6080097762
 31
0.0
 11
-14.8237222464
 21
46.6058618431
 31
0.0
 11
-16.5729012409
 21
46.604499777
 31
0.0
 11
-18.1675621467
 21
46.603868216
 31
0.0
 11
-19.623598178
 21
46.6037395649
 31
0.0
 11
-20.9565850508
 21
46.603982132
 31
0.0
 11
-22.1818736809
 21
46.6043428037
 31
0.0
 11
-23.3129978766
 21
46.6040278576
 31
0.0
 11
-24.355433959
 21
46.6023571406
 31
0.0
 11
-25.3133118135
 21
46.5992731228
 31
0.0
 11
-26.1956294576
 21
46.5950251474
 31
0.0
 11
-27.0109986758
 21
46.5898665261
 31
0.0
 11
-27.7624960519
 21
46.5841373276
 31
0.0
 11
-28.4528132909
 21
46.5787278888
 31
0.0
 11
-29.0868324793
 21
46.5736360757
 31
0.0
 11
-29.6680932228
 21
46.5686734782
 31
0.0
 11
-30.1987753583
 21
46.5630811975
 31
0.0
 11
-30.6823841183
 21
46.55641078
 31
0.0
 11
-31.1239550554
 21
46.5487304473
 31
0.0
 11
-31.5306990669
 21
46.5398487186
 31
0.0
 11
-31.9092160564
 21
46.5308813182
 31
0.0
 11
-32.2658324341
 21
46.5218535439
 31
0.0
 11
-32.6059638073
 21
46.5128784416
 31
0.0
  0
SPLINE
  5
34F
100
AcDbEntity
  8
RACCORDO
100
AcDbSpline
 62
253
  6
CONTINUOUS
 70
0
 71
3
 72
26
 73
22
 74
20
 42
0.0000001
 43
0.0000001
 44
0.0000000001
 12
-10.5017888356
 22
-0.0000018489
 32
0.0
 13
-10.5017735371
 23
-0.0179254735
 33
0.0
 40
0.0
 40
0.0
 40
0.0
 40
0.0
 40
0.0934196259
 40
0.1794351919
 40
0.2587307886
 40
0.3319246334
 40
0.3995483706
 40
0.4619951876
 40
0.5193701556
 40
0.5715884756
 40
0.6190048229
 40
0.6629356659
 40
0.7047523112
 40
0.7457551628
 40
0.7861442441
 40
0.8248189595
 40
0.861432816
 40
0.8965602217
 40
0.930872636
 40
0.9652910141
 40
1.0
 40
1.0
 40
1.0
 40
1.0
 10
0.1793970894
 20
26.0534606282
 30
0.0
 10
-0.1476273055
 20
26.0534605706
 30
0.0
 10
-0.7757574617
 20
26.0532640268
 30
0.0
 10
-1.6814693845
 20
26.0528244365
 30
0.0
 10
-2.5163791011
 20
26.0525733798
 30
0.0
 10
-3.2869064955
 20
26.052625601
 30
0.0
 10
-3.998453026
 20
26.0530014495
 30
0.0
 10
-4.6546237784
 20
26.0537056014
 30
0.0
 10
-5.2568660333
 20
26.0546242775
 30
0.0
 10
-5.8064928669
 20
26.0553758828
 30
0.0
 10
-6.3090574527
 20
26.0559382493
 30
0.0
 10
-6.775210187
 20
26.0562602767
 30
0.0
 10
-7.2189119688
 20
26.0563386718
 30
0.0
 10
-7.650215458
 20
26.056145194
 30
0.0
 10
-8.0705200157
 20
26.0556037599
 30
0.0
 10
-8.4754598494
 20
26.0546745777
 30
0.0
 10
-8.8619788808
 20
26.0532038526
 30
0.0
 10
-9.2332270218
 20
26.0517256061
 30
0.0
 10
-9.5967898483
 20
26.0502936617
 30
0.0
 10
-9.9588886328
 20
26.0490646221
 30
0.0
 10
-10.2008746233
 20
26.0483273049
 30
0.0
 10
-10.3223765932
 20
26.0481199132
 30
0.0
 11
0.1793970894
 21
26.0534606282
 31
0.0
 11
-0.8016760673
 21
26.0532265555
 31
0.0
 11
-1.7049932956
 21
26.0528419494
 31
0.0
 11
-2.5377388786
 21
26.052620144
 31
0.0
 11
-3.3064051778
 21
26.0526882432
 31
0.0
 11
-4.016575279
 21
26.0530780853
 31
0.0
 11
-4.6723781927
 21
26.0537761836
 31
0.0
 11
-5.2749173794
 21
26.054635206
 31
0.0
 11
-5.8233026496
 21
26.055375064
 31
0.0
 11
-6.3212588243
 21
26.0559150113
 31
0.0
 11
-6.782611156
 21
26.0562248818
 31
0.0
 11
-7.2217607298
 21
26.0562929607
 31
0.0
 11
-7.6523639678
 21
26.0560835196
 31
0.0
 11
-8.076521201
 21
26.0555233396
 31
0.0
 11
-8.4826737361
 21
26.0545529819
 31
0.0
 11
-8.867182248
 21
26.0531724902
 31
0.0
 11
-9.2360799733
 21
26.0517169324
 31
0.0
 11
-9.5964190251
 21
26.0503277686
 31
0.0
 11
-9.9578714403
 21
26.049088907
 31
0.0
 11
-10.3223765932
 21
26.0481199132
 31
0.0
  0
SPLINE
  5
350
100
AcDbEntity
  8
RACCORDO
100
AcDbSpline
 62
253
  6
CONTINUOUS
 70
0
 71
3
 72
22
 73
18
 74
16
 42
0.0000001
 43
0.0000001
 44
0.0000000001
 12
-5.8086581924
 22
-0.0097535653
 32
0.0
 13
0.0398775519
 23
-5.8085294963
 33
0.0
 40
0.0
 40
0.0
 40
0.0
 40
0.0
 40
0.0654661928
 40
0.1297436605
 40
0.1942209171
 40
0.2561285428
 40
0.3163744041
 40
0.3776146556
 40
0.4384664568
 40
0.5011365073
 40
0.5632958429
 40
0.6236629084
 40
0.6862176611
 40
0.7541578923
 40
0.8288304617
 40
0.9106251761
 40
1.0
 40
1.0
 40
1.0
 40
1.0
 10
-10.3223765932
 20
26.0481199132
 30
0.0
 10
-10.4491335056
 20
26.0479070703
 30
0.0
 10
-10.700503375
 20
26.0346309596
 30
0.0
 10
-11.0727910199
 20
25.9776500775
 30
0.0
 10
-11.4309823965
 20
25.885663619
 30
0.0
 10
-11.7707934017
 20
25.7611572874
 30
0.0
 10
-12.0913776941
 20
25.6068944742
 30
0.0
 10
-12.3918063048
 20
25.4207127616
 30
0.0
 10
-12.6833158422
 20
25.2125383516
 30
0.0
 10
-12.950418306
 20
24.9707299681
 30
0.0
 10
-13.1920469745
 20
24.7050466905
 30
0.0
 10
-13.4055182266
 20
24.4164794962
 30
0.0
 10
-13.5957507045
 20
24.0989570622
 30
0.0
 10
-13.7636503119
 20
23.7380753487
 30
0.0
 10
-13.9016550831
 20
23.3249924491
 30
0.0
 10
-13.995940144
 20
22.8571323167
 30
0.0
 10
-14.0168230512
 20
22.525047276
 30
0.0
 10
-14.0156350348
 20
22.3520018424
 30
0.0
 11
-10.3223765932
 21
26.0481199132
 31
0.0
 11
-10.7021256752
 21
26.0281981662
 31
0.0
 11
-11.0711836427
 21
25.9716414711
 31
0.0
 11
-11.4339052429
 21
25.8783493547
 31
0.0
 11
-11.771538104
 21
25.754588512
 31
0.0
 11
-12.0866393059
 21
25.6023554287
 31
0.0
 11
-12.3902994417
 21
25.4170712643
 31
0.0
 11
-12.6762724766
 21
25.209324021
 31
0.0
 11
-12.9469436627
 21
24.9659014984
 31
0.0
 11
-13.189613522
 21
24.6985483316
 31
0.0
 11
-13.3983496408
 21
24.4167928366
 31
0.0
 11
-13.5850349508
 21
24.1050575986
 31
0.0
 11
-13.7515581933
 21
23.7472693573
 31
0.0
 11
-13.8890268292
 21
23.3358817788
 31
0.0
 11
-13.9828112932
 21
22.8701116793
 31
0.0
 11
-14.0156350348
 21
22.3520018424
 31
0.0
  0
SPLINE
  5
351
100
AcDbEntity
  8
RACCORDO
100
AcDbSpline
 62
253
  6
CONTINUOUS
 70
0
 71
3
 72
18
 73
14
 74
12
 42
0.0000001
 43
0.0000001
 44
0.0000000001
 12
0.0715643997
 22
-10.4833765882
 32
0.0
 13
-0.0000002698
 23
-10.4836208513
 33
0.0
 40
0.0
 40
0.0
 40
0.0
 40
0.0
 40
0.1169870109
 40
0.2305852526
 40
0.3465940236
 40
0.4613224318
 40
0.5639200615
 40
0.6555044405
 40
0.7381762447
 40
0.8130212141
 40
0.8810365945
 40
0.9430760052
 40
1.0
 40
1.0
 40
1.0
 40
1.0
 10
-14.0156350348
 20
22.3520018424
 30
0.0
 10
-14.0128443331
 20
21.9431955455
 30
0.0
 10
-14.0088272355
 20
21.1374142499
 30
0.0
 10
-14.00616929
 20
19.9262299005
 30
0.0
 10
-14.0047154498
 20
18.7229365777
 30
0.0
 10
-14.0047551173
 20
17.5580844435
 30
0.0
 10
-14.0053787374
 20
16.478584744
 30
0.0
 10
-14.0056007127
 20
15.5111079465
 30
0.0
 10
-14.0056553592
 20
14.6406139375
 30
0.0
 10
-14.0056652974
 20
13.8524827395
 30
0.0
 10
-14.0056636022
 20
13.1364522726
 30
0.0
 10
-14.0056676288
 20
12.4830473729
 30
0.0
 10
-14.0056620192
 20
12.0673249602
 30
0.0
 10
-14.0056620243
 20
11.8684017672
 30
0.0
 11
-14.0156350348
 21
22.3520018424
 31
0.0
 11
-14.0093470435
 21
21.1255704953
 31
0.0
 11
-14.0063814841
 21
19.9346532922
 31
0.0
 11
-14.0049632478
 21
18.7184621478
 31
0.0
 11
-14.0048716228
 21
17.5156930198
 31
0.0
 11
-14.0053349994
 21
16.440098469
 31
0.0
 11
-14.005579825
 21
15.479962595
 31
0.0
 11
-14.0056494696
 21
14.6132627469
 31
0.0
 11
-14.0056635461
 21
13.8286164662
 31
0.0
 11
-14.0056646131
 21
13.1155690054
 31
0.0
 11
-14.0056655166
 21
12.4651713462
 31
0.0
 11
-14.0056620243
 21
11.8684017672
 31
0.0
  0
SPLINE
  5
352
100
AcDbEntity
  8
RACCORDO
100
AcDbSpline
 62
253
  6
CONTINUOUS
 70
0
 71
3
 72
40
 73
36
 74
34
 42
0.0000001
 43
0.0000001
 44
0.0000000001
 12
-0.876161278
 22
-32.7753341053
 32
0.0
 13
-0.0000011351
 23
-32.7870429332
 33
0.0
 40
0.0
 40
0.0
 40
0.0
 40
0.0
 40
0.0106878593
 40
0.0214053014
 40
0.0320702728
 40
0.042755125
 40
0.0534948474
 40
0.0642057381
 40
0.0748617731
 40
0.0854536164
 40
0.0962496407
 40
0.1076376569
 40
0.1200163946
 40
0.1337868722
 40
0.149301195
 40
0.1665677804
 40
0.185455773
 40
0.2058444282
 40
0.2278076904
 40
0.2516212152
 40
0.2775657526
 40
0.3059193398
 40
0.3369536531
 40
0.3708779277
 40
0.4078787921
 40
0.4481533083
 40
0.4918696261
 40
0.5391499454
 40
0.5901419146
 40
0.6452748594
 40
0.7050817151
 40
0.7700471994
 40
0.8405889433
 40
0.917100952
 40
1.0
 40
1.0
 40
1.0
 40
1.0
 10
-34.4643030364
 20
44.6547241726
 30
0.0
 10
-34.4674244659
 20
44.5379581194
 30
0.0
 10
-34.4737986025
 20
44.3041060762
 30
0.0
 10
-34.483683234
 20
43.9537489928
 30
0.0
 10
-34.4939209937
 20
43.6034347812
 30
0.0
 10
-34.5027010604
 20
43.2528358493
 30
0.0
 10
-34.5085196664
 20
42.9016671395
 30
0.0
 10
-34.5102176677
 20
42.5507742554
 30
0.0
 10
-34.5127974264
 20
42.201506476
 30
0.0
 10
-34.5155411854
 20
41.8513087242
 30
0.0
 10
-34.5188999886
 20
41.493116342
 30
0.0
 10
-34.5222258378
 20
41.1153938753
 30
0.0
 10
-34.5257170508
 20
40.7051637857
 30
0.0
 10
-34.5294234387
 20
40.2498374533
 30
0.0
 10
-34.5333892043
 20
39.7410921515
 30
0.0
 10
-34.5376490218
 20
39.1764180142
 30
0.0
 10
-34.5416493285
 20
38.5584690272
 30
0.0
 10
-34.5452301485
 20
37.8891865619
 30
0.0
 10
-34.5480622945
 20
37.166068837
 30
0.0
 10
-34.5503135837
 20
36.382228586
 30
0.0
 10
-34.5520118655
 20
35.5285468399
 30
0.0
 10
-34.5531581002
 20
34.5959480419
 30
0.0
 10
-34.5538703738
 20
33.5761381756
 30
0.0
 10
-34.5544621639
 20
32.4618220185
 30
0.0
 10
-34.5554206841
 20
31.2465197608
 30
0.0
 10
-34.5566595024
 20
29.9242003361
 30
0.0
 10
-34.5581568982
 20
28.4895368017
 30
0.0
 10
-34.559859192
 20
26.9377422245
 30
0.0
 10
-34.5617407957
 20
25.2611752911
 30
0.0
 10
-34.5637031552
 20
23.4477056657
 30
0.0
 10
-34.5656250925
 20
21.4815191698
 30
0.0
 10
-34.5675890026
 20
19.346929656
 30
0.0
 10
-34.5696061509
 20
17.0297692535
 30
0.0
 10
-34.5713234116
 20
14.5166123752
 30
0.0
 10
-34.5718767315
 20
12.7744066494
 30
0.0
 10
-34.5718767629
 20
11.8684017672
 30
0.0
 11
-34.4643030364
 21
44.6547241726
 31
0.0
 11
-34.473845479
 21
44.304430821
 31
0.0
 11
-34.4837587173
 21
43.9531774462
 31
0.0
 11
-34.4936714589
 21
43.6036451052
 31
0.0
 11
-34.5021928907
 21
43.2534240537
 31
0.0
 11
-34.5078356601
 21
42.9013455276
 31
0.0
 11
-34.5103700213
 21
42.5501762394
 31
0.0
 11
-34.512828813
 21
42.2008050163
 31
0.0
 11
-34.5156121019
 21
41.8535409482
 31
0.0
 11
-34.5188064771
 21
41.4995856503
 31
0.0
 11
-34.5221129358
 21
41.1262209142
 31
0.0
 11
-34.5255638963
 21
40.720373381
 31
0.0
 11
-34.529243902
 21
40.2688951408
 31
0.0
 11
-34.5332197599
 21
39.7602419103
 31
0.0
 11
-34.5374188928
 21
39.1941372073
 31
0.0
 11
-34.5414316573
 21
38.5748687821
 31
0.0
 11
-34.5449842919
 21
37.9063945108
 31
0.0
 11
-34.5478628115
 21
37.186289844
 31
0.0
 11
-34.5501367396
 21
36.4055180951
 31
0.0
 11
-34.5518564824
 21
35.5548751699
 31
0.0
 11
-34.5530435862
 21
34.6252456489
 31
0.0
 11
-34.5538211949
 21
33.6077225831
 31
0.0
 11
-34.5544899944
 21
32.4954461356
 31
0.0
 11
-34.5554211502
 21
31.2822975643
 31
0.0
 11
-34.5566468191
 21
29.9618158416
 31
0.0
 11
-34.5581284684
 21
28.5284878166
 31
0.0
 11
-34.5598209858
 21
26.9783068816
 31
0.0
 11
-34.5616792415
 21
25.3064320318
 31
0.0
 11
-34.5636176462
 21
23.4987868443
 31
0.0
 11
-34.5655519822
 21
21.5378978525
 31
0.0
 11
-34.5675160778
 21
19.407872634
 31
0.0
 11
-34.569480112
 21
17.0950182841
 31
0.0
 11
-34.5711289365
 21
14.586416311
 31
0.0
 11
-34.5718767629
 21
11.8684017672
 31
0.0
  0
SPLINE
  5
353
100
AcDbEntity
  8
RACCORDO
100
AcDbSpline
 62
253
  6
CONTINUOUS
 70
0
 71
3
 72
16
 73
12
 74
10
 42
0.0000001
 43
0.0000001
 44
0.0000000001
 12
-2.8885649636
 22
-0.0769259975
 32
0.0
 13
-0.0771284027
 23
-2.8885595662
 33
0.0
 40
0.0
 40
0.0
 40
0.0
 40
0.0
 40
0.1123704475
 40
0.2160744868
 40
0.3158165984
 40
0.4147159901
 40
0.5155043567
 40
0.6212500946
 40
0.7359622545
 40
0.8621444893
 40
1.0
 40
1.0
 40
1.0
 40
1.0
 10
-32.6059638073
 20
46.5128784416
 30
0.0
 10
-32.7141602532
 20
46.5099970387
 30
0.0
 10
-32.922155103
 20
46.4855244395
 30
0.0
 10
-33.2153487242
 20
46.4002726314
 30
0.0
 10
-33.4805034905
 20
46.2772268232
 30
0.0
 10
-33.7220571618
 20
46.1177245059
 30
0.0
 10
-33.9415460215
 20
45.9201704363
 30
0.0
 10
-34.1378683406
 20
45.6793505131
 30
0.0
 10
-34.3041480622
 20
45.3878686648
 30
0.0
 10
-34.4255991139
 20
45.0417126143
 30
0.0
 10
-34.4607588446
 20
44.7874587907
 30
0.0
 10
-34.4643030364
 20
44.6547241726
 30
0.0
 11
-32.6059638073
 21
46.5128784416
 31
0.0
 11
-32.9284964819
 21
46.4753866524
 31
0.0
 11
-33.2163111112
 21
46.3919594978
 31
0.0
 11
-33.4777227188
 21
46.2705876768
 31
0.0
 11
-33.7162181054
 21
46.1131413012
 31
0.0
 11
-33.9326968764
 21
45.9183185314
 31
0.0
 11
-34.1257218914
 21
45.6814444818
 31
0.0
 11
-34.2899591285
 21
45.3935223425
 31
0.0
 11
-34.4105492658
 21
45.0494264571
 31
0.0
 11
-34.4643030364
 21
44.6547241726
 31
0.0
  0
SPLINE
  5
354
100
AcDbEntity
  8
RACCORDO
100
AcDbSpline
 62
253
  6
CONTINUOUS
 70
0
 71
3
 72
30
 73
26
 74
24
 42
0.0000001
 43
0.0000001
 44
0.0000000001
 12
32.7499475251
 22
0.0615954426
 32
0.0
 13
32.7500054488
 23
-0.0000003239
 33
0.0
 40
0.0
 40
0.0
 40
0.0
 40
0.0
 40
0.0127334115
 40
0.026886842
 40
0.0424595337
 40
0.0595606945
 40
0.0784329217
 40
0.0993443792
 40
0.1227476491
 40
0.1491223045
 40
0.1785973491
 40
0.2109538144
 40
0.2461525789
 40
0.2843527516
 40
0.3257180199
 40
0.3704518227
 40
0.4188284765
 40
0.4711476827
 40
0.5277754913
 40
0.5891496146
 40
0.6563307733
 40
0.7306410905
 40
0.8125896844
 40
0.9023107679
 40
1.0
 40
1.0
 40
1.0
 40
1.0
 10
-32.570607001
 20
-47.150808603
 30
0.0
 10
-32.4316008151
 20
-47.150547163
 30
0.0
 10
-32.1380864354
 20
-47.1500770402
 30
0.0
 10
-31.6745700444
 20
-47.1495689156
 30
0.0
 10
-31.1633722223
 20
-47.1492260173
 30
0.0
 10
-30.600660794
 20
-47.1490186218
 30
0.0
 10
-29.979667825
 20
-47.1488252389
 30
0.0
 10
-29.2898768343
 20
-47.1485743612
 30
0.0
 10
-28.5181843597
 20
-47.1482155188
 30
0.0
 10
-27.653006054
 20
-47.1478133399
 30
0.0
 10
-26.6900886436
 20
-47.1474805159
 30
0.0
 10
-25.6308413266
 20
-47.1472542998
 30
0.0
 10
-24.4763446638
 20
-47.1471202286
 30
0.0
 10
-23.2235018781
 20
-47.147072171
 30
0.0
 10
-21.8665682408
 20
-47.1470906663
 30
0.0
 10
-20.3985413326
 20
-47.1471216502
 30
0.0
 10
-18.8109339161
 20
-47.1471270754
 30
0.0
 10
-17.093483582
 20
-47.1471046467
 30
0.0
 10
-15.2341441829
 20
-47.1470398154
 30
0.0
 10
-13.2125617773
 20
-47.1469331164
 30
0.0
 10
-10.9979452888
 20
-47.146792237
 30
0.0
 10
-8.5587241265
 20
-47.1466329036
 30
0.0
 10
-5.8734420751
 20
-47.1464933291
 30
0.0
 10
-2.9329401586
 20
-47.1463931388
 30
0.0
 10
-0.8870438728
 20
-47.1463668996
 30
0.0
 10
0.1793970882
 20
-47.1463669101
 30
0.0
 11
-32.570607001
 21
-47.150808603
 31
0.0
 11
-32.1535882495
 21
-47.1501351454
 31
0.0
 11
-31.6900636133
 21
-47.1496171998
 31
0.0
 11
-31.180057998
 21
-47.1492616961
 31
0.0
 11
-30.6199949355
 21
-47.1490308201
 31
0.0
 11
-30.0019294273
 21
-47.1488270608
 31
0.0
 11
-29.3170791266
 21
-47.1485733417
 31
0.0
 11
-28.5506219873
 21
-47.1482306213
 31
0.0
 11
-27.686851964
 21
-47.1478452821
 31
0.0
 11
-26.7215441507
 21
-47.1475116473
 31
0.0
 11
-25.6618697626
 21
-47.1472774103
 31
0.0
 11
-24.5091100394
 21
-47.1471383645
 31
0.0
 11
-23.2580541788
 21
-47.1470839054
 31
0.0
 11
-21.9033414149
 21
-47.1470917869
 31
0.0
 11
-20.4383091289
 21
-47.1471166608
 31
0.0
 11
-18.8539734534
 21
-47.147122748
 31
0.0
 11
-17.1405191661
 21
-47.1470992793
 31
0.0
 11
-15.2859581278
 21
-47.1470363082
 31
0.0
 11
-13.275955257
 21
-47.146932997
 31
0.0
 11
-11.0757719492
 21
-47.1467965931
 31
0.0
 11
-8.6421086604
 21
-47.1466434982
 31
0.0
 11
-5.958291767
 21
-47.1465053858
 31
0.0
 11
-3.0199257945
 21
-47.1464060656
 31
0.0
 11
0.1793970882
 21
-47.1463669101
 31
0.0
  0
SPLINE
  5
355
100
AcDbEntity
  8
RACCORDO
100
AcDbSpline
 62
253
  6
CONTINUOUS
 70
0
 71
3
 72
34
 73
30
 74
28
 42
0.0000001
 43
0.0000001
 44
0.0000000001
 12
32.7499651999
 22
0.0000003317
 32
0.0
 13
32.7499072727
 23
-0.061597286
 33
0.0
 40
0.0
 40
0.0
 40
0.0
 40
0.0
 40
0.0963576989
 40
0.1840456527
 40
0.2634940663
 40
0.335234776
 40
0.4000310018
 40
0.4587638057
 40
0.5122388275
 40
0.5609973283
 40
0.6055263362
 40
0.6462937928
 40
0.6837522418
 40
0.7182977851
 40
0.750081547
 40
0.7792262493
 40
0.806025086
 40
0.8307555649
 40
0.8535300593
 40
0.8744781174
 40
0.893758972
 40
0.9114699322
 40
0.927637011
 40
0.9423308243
 40
0.9556923214
 40
0.9679211361
 40
0.9792553119
 40
0.989890691
 40
1.0
 40
1.0
 40
1.0
 40
1.0
 10
23.6793970906
 20
-47.1463669101
 30
0.0
 10
24.7313008524
 20
-47.1463668994
 30
0.0
 10
26.74046376
 20
-47.1463923316
 30
0.0
 10
29.6169375929
 20
-47.1464888431
 30
0.0
 10
32.2246762436
 20
-47.1466218342
 30
0.0
 10
34.5825137933
 20
-47.1467739306
 30
0.0
 10
36.7142061787
 20
-47.1469112425
 30
0.0
 10
38.6464983517
 20
-47.1470182232
 30
0.0
 10
40.4037122143
 20
-47.1470886891
 30
0.0
 10
42.0058681356
 20
-47.1471213294
 30
0.0
 10
43.4692999518
 20
-47.1471262512
 30
0.0
 10
44.8093730008
 20
-47.147112264
 30
0.0
 10
46.0404600101
 20
-47.1470837477
 30
0.0
 10
47.1734751225
 20
-47.1470766538
 30
0.0
 10
48.2157319301
 20
-47.1471166594
 30
0.0
 10
49.1734206094
 20
-47.1472135246
 30
0.0
 10
50.054111024
 20
-47.1473671528
 30
0.0
 10
50.8652600601
 20
-47.1475831355
 30
0.0
 10
51.6125381412
 20
-47.1478624683
 30
0.0
 10
52.3003245311
 20
-47.1481800016
 30
0.0
 10
52.9328340706
 20
-47.1484735012
 30
0.0
 10
53.5131513263
 20
-47.148715231
 30
0.0
 10
54.0433934564
 20
-47.1488867353
 30
0.0
 10
54.5261539999
 20
-47.1490428529
 30
0.0
 10
54.9659218671
 20
-47.1492101951
 30
0.0
 10
55.3690136961
 20
-47.1494496178
 30
0.0
 10
55.7423453558
 20
-47.1497864063
 30
0.0
 10
56.0925389817
 20
-47.1502248926
 30
0.0
 10
56.3190012814
 20
-47.1506009674
 30
0.0
 10
56.4293609252
 20
-47.1508085361
 30
0.0
 11
23.6793970906
 21
-47.1463669101
 31
0.0
 11
26.8351083758
 21
-47.1464050365
 31
0.0
 11
29.7068858114
 21
-47.1465006232
 31
0.0
 11
32.3088185884
 21
-47.1466322818
 31
0.0
 11
34.6583243283
 21
-47.1467787829
 31
0.0
 11
36.7803984629
 21
-47.1469121484
 31
0.0
 11
38.7038957465
 21
-47.1470162784
 31
0.0
 11
40.4552008475
 21
-47.1470847298
 31
0.0
 11
42.0520400503
 21
-47.1471175379
 31
0.0
 11
43.5103635095
 21
-47.147122887
 31
0.0
 11
44.8454962955
 21
-47.1471089353
 31
0.0
 11
46.0722591969
 21
-47.1470866068
 31
0.0
 11
47.2036245384
 21
-47.1470852338
 31
0.0
 11
48.2445416311
 21
-47.147129125
 31
0.0
 11
49.1990296143
 21
-47.1472282638
 31
0.0
 11
50.0766905687
 21
-47.1473850629
 31
0.0
 11
50.8866128634
 21
-47.1476039343
 31
0.0
 11
51.6324767095
 21
-47.1478813013
 31
0.0
 11
52.3185248145
 21
-47.148188684
 31
0.0
 11
52.9499720663
 21
-47.1484762451
 31
0.0
 11
53.5300053499
 21
-47.1487128409
 31
0.0
 11
54.0594765865
 21
-47.1488919318
 31
0.0
 11
54.5406984334
 21
-47.1490523567
 31
0.0
 11
54.9782869635
 21
-47.1492311559
 31
0.0
 11
55.3787801415
 21
-47.1494767683
 31
0.0
 11
55.7499738526
 21
-47.1498156303
 31
0.0
 11
56.0982818688
 21
-47.1502564003
 31
0.0
 11
56.4293609252
 21
-47.1508085361
 31
0.0
  0
SPLINE
  5
356
100
AcDbEntity
  8
RACCORDO
100
AcDbSpline
 62
253
  6
CONTINUOUS
 70
0
 71
3
 72
41
 73
37
 74
35
 42
0.0000001
 43
0.0000001
 44
0.0000000001
 12
0.0000012363
 22
-32.7870430905
 32
0.0
 13
0.876170709
 23
-32.7753340106
 33
0.0
 40
0.0
 40
0.0
 40
0.0
 40
0.0
 40
0.0842133015
 40
0.1614604057
 40
0.2323140694
 40
0.2972881176
 40
0.3568659849
 40
0.4115431454
 40
0.4618024732
 40
0.5080750663
 40
0.5506472214
 40
0.5897918506
 40
0.6257505463
 40
0.6587357837
 40
0.6889502929
 40
0.7166026383
 40
0.7419419353
 40
0.765223944
 40
0.786705258
 40
0.8066532835
 40
0.825246937
 40
0.8424791014
 40
0.8583054125
 40
0.8726913026
 40
0.8857578391
 40
0.8977099459
 40
0.9087591949
 40
0.9191051737
 40
0.9289458287
 40
0.9385224999
 40
0.9481241826
 40
0.9581230927
 40
0.9686004172
 40
0.9792206212
 40
0.989722396
 40
1.0
 40
1.0
 40
1.0
 40
1.0
 10
-34.5718767629
 20
-11.6315982328
 30
0.0
 10
-34.5718767282
 20
-12.5519666148
 30
0.0
 10
-34.5713076661
 20
-14.316569713
 30
0.0
 10
-34.5695570007
 20
-16.8555329266
 30
0.0
 10
-34.5675215513
 20
-19.1842297685
 30
0.0
 10
-34.5655545031
 20
-21.3198192439
 30
0.0
 10
-34.563633299
 20
-23.2786154508
 30
0.0
 10
-34.5616820922
 20
-25.076594149
 30
0.0
 10
-34.5598278731
 20
-26.7291593301
 30
0.0
 10
-34.558161078
 20
-28.2494288607
 30
0.0
 10
-34.5567002869
 20
-29.6482258437
 30
0.0
 10
-34.5554881826
 20
-30.9343022853
 30
0.0
 10
-34.5545409061
 20
-32.1156033673
 30
0.0
 10
-34.5539395164
 20
-33.199307242
 30
0.0
 10
-34.5532996787
 20
-34.1922308662
 30
0.0
 10
-34.5522870225
 20
-35.1015915765
 30
0.0
 10
-34.550793309
 20
-35.9351861572
 30
0.0
 10
-34.5487715504
 20
-36.701336103
 30
0.0
 10
-34.5462939381
 20
-37.4085631746
 30
0.0
 10
-34.5431077977
 20
-38.0645477765
 30
0.0
 10
-34.5394433811
 20
-38.674090025
 30
0.0
 10
-34.5354384238
 20
-39.2385827552
 30
0.0
 10
-34.5314305163
 20
-39.7570874259
 30
0.0
 10
-34.5276784093
 20
-40.2300664974
 30
0.0
 10
-34.524096024
 20
-40.6607043161
 30
0.0
 10
-34.5206968008
 20
-41.0548761858
 30
0.0
 10
-34.5173647302
 20
-41.4193144606
 30
0.0
 10
-34.5143341523
 20
-41.7606784151
 30
0.0
 10
-34.5119014535
 20
-42.0859532102
 30
0.0
 10
-34.5097399625
 20
-42.4030941944
 30
0.0
 10
-34.5078162114
 20
-42.7219702968
 30
0.0
 10
-34.5018770289
 20
-43.0506455882
 30
0.0
 10
-34.4932587918
 20
-43.3903906927
 30
0.0
 10
-34.4831392637
 20
-43.7355919353
 30
0.0
 10
-34.4734910211
 20
-44.0786227686
 30
0.0
 10
-34.4673046815
 20
-44.3056366702
 30
0.0
 10
-34.4643030363
 20
-44.4179206386
 30
0.0
 11
-34.5718767629
 21
-11.6315982328
 31
0.0
 11
-34.5711069242
 21
-14.3927032713
 31
0.0
 11
-34.5694275554
 21
-16.9254068488
 31
0.0
 11
-34.5674463967
 21
-19.2484881278
 31
0.0
 11
-34.565478057
 21
-21.3787941367
 31
0.0
 11
-34.5635453157
 21
-23.3321752844
 31
0.0
 11
-34.5616182361
 21
-25.1248766642
 31
0.0
 11
-34.5597863189
 21
-26.7727303918
 31
0.0
 11
-34.5581304504
 21
-28.2898709912
 31
0.0
 11
-34.5566858519
 21
-29.6856853273
 31
0.0
 11
-34.5554867149
 21
-30.9691214122
 31
0.0
 11
-34.5545654653
 21
-32.1481003581
 31
0.0
 11
-34.5539058805
 21
-33.2295885575
 31
0.0
 11
-34.5532007371
 21
-34.2202327228
 31
0.0
 11
-34.5521519021
 21
-35.1268707543
 31
0.0
 11
-34.5506307826
 21
-35.9576699835
 31
0.0
 11
-34.5486052201
 21
-36.7210155212
 31
0.0
 11
-34.5460704453
 21
-37.4253197257
 31
0.0
 11
-34.5429056164
 21
-38.0793488399
 31
0.0
 11
-34.5392397126
 21
-38.6889687379
 31
0.0
 11
-34.5352670901
 21
-39.2539464875
 31
0.0
 11
-34.5312904276
 21
-39.7728291926
 31
0.0
 11
-34.527532238
 21
-40.2444850211
 31
0.0
 11
-34.5239719686
 21
-40.6728833223
 31
0.0
 11
-34.5205764655
 21
-41.0647428502
 31
0.0
 11
-34.517310995
 21
-41.4270003374
 31
0.0
 11
-34.5143661863
 21
-41.7662016054
 31
0.0
 11
-34.5119160316
 21
-42.088838283
 31
0.0
 11
-34.5097827225
 21
-42.402821766
 31
0.0
 11
-34.50722376
 21
-42.7176221511
 31
0.0
 11
-34.5015824201
 21
-43.0454083063
 31
0.0
 11
-34.4930741339
 21
-43.3888234132
 31
0.0
 11
-34.4831706079
 21
-43.7368876351
 31
0.0
 11
-34.4734728669
 21
-44.0810731817
 31
0.0
 11
-34.4643030363
 21
-44.4179206386
 31
0.0
  0
SPLINE
  5
357
100
AcDbEntity
  8
RACCORDO
100
AcDbSpline
 62
253
  6
CONTINUOUS
 70
0
 71
3
 72
19
 73
15
 74
13
 42
0.0000001
 43
0.0000001
 44
0.0000000001
 12
0.0000001994
 22
-10.4836213322
 32
0.0
 13
-0.0717690179
 23
-10.4833756703
 33
0.0
 40
0.0
 40
0.0
 40
0.0
 40
0.0
 40
0.0596032178
 40
0.1248351873
 40
0.1958681517
 40
0.2729487641
 40
0.3565370705
 40
0.4472944655
 40
0.5459860105
 40
0.649824882
 40
0.7504499965
 40
0.8425593288
 40
0.9259124828
 40
1.0
 40
1.0
 40
1.0
 40
1.0
 10
-14.0056620075
 20
-11.6315982328
 30
0.0
 10
-14.0056620035
 20
-11.8398840881
 30
0.0
 10
-14.0056675593
 20
-12.2761256991
 30
0.0
 10
-14.0056634162
 20
-12.9605948769
 30
0.0
 10
-14.0056658309
 20
-13.7061395171
 30
0.0
 10
-14.0056497352
 20
-14.5158311183
 30
0.0
 10
-14.0055935587
 20
-15.3944505417
 30
0.0
 10
-14.0053049609
 20
-16.3485902111
 30
0.0
 10
-14.0047669677
 20
-17.373496184
 30
0.0
 10
-14.0047500961
 20
-18.4328855706
 30
0.0
 10
-14.0058328647
 20
-19.4692726896
 30
0.0
 10
-14.0077859547
 20
-20.4340700575
 30
0.0
 10
-14.0106141588
 20
-21.3061286978
 30
0.0
 10
-14.0138620406
 20
-21.8563025318
 30
0.0
 10
-14.0156344367
 20
-22.1151982902
 30
0.0
 11
-14.0056620075
 21
-11.6315982328
 31
0.0
 11
-14.0056654403
 21
-12.2564557987
 31
0.0
 11
-14.0056645529
 21
-12.9403230658
 31
0.0
 11
-14.0056630104
 21
-13.6850057661
 31
0.0
 11
-14.0056444938
 21
-14.4930897189
 31
0.0
 11
-14.0055617551
 21
-15.369397867
 31
0.0
 11
-14.0052795489
 21
-16.3208639873
 31
0.0
 11
-14.0048619502
 21
-17.3555086889
 31
0.0
 11
-14.0049453858
 21
-18.4441160949
 31
0.0
 11
-14.0060437969
 21
-19.4990311197
 31
0.0
 11
-14.0080538349
 21
-20.4646683884
 31
0.0
 11
-14.0111293955
 21
-21.3385058796
 31
0.0
 11
-14.0156344367
 21
-22.1151982902
 31
0.0
  0
SPLINE
  5
358
100
AcDbEntity
  8
RACCORDO
100
AcDbSpline
 62
253
  6
CONTINUOUS
 70
0
 71
3
 72
23
 73
19
 74
17
 42
0.0000001
 43
0.0000001
 44
0.0000000001
 12
-0.0397752718
 22
-5.808871875
 32
0.0
 13
5.8090011899
 23
-0.0089279658
 33
0.0
 40
0.0
 40
0.0
 40
0.0
 40
0.0
 40
0.0700746181
 40
0.1342767716
 40
0.1967742839
 40
0.2600586576
 40
0.3235531609
 40
0.3842615389
 40
0.4432616253
 40
0.5044212067
 40
0.565468583
 40
0.6237568915
 40
0.6814394728
 40
0.7409038324
 40
0.8039932822
 40
0.8712186251
 40
0.9358563434
 40
1.0
 40
1.0
 40
1.0
 40
1.0
 10
-14.0156344367
 20
-22.1151982902
 30
0.0
 10
-14.0165635157
 20
-22.2508831162
 30
0.0
 10
-14.0042123011
 20
-22.5112310334
 30
0.0
 10
-13.9455108706
 20
-22.8883290554
 30
0.0
 10
-13.8528051316
 20
-23.2449538446
 30
0.0
 10
-13.725560545
 20
-23.5893100138
 30
0.0
 10
-13.5659273986
 20
-23.9160686325
 30
0.0
 10
-13.3790657682
 20
-24.2182416171
 30
0.0
 10
-13.1672290066
 20
-24.497816095
 30
0.0
 10
-12.9283006566
 20
-24.755497231
 30
0.0
 10
-12.6667007122
 20
-24.9883349749
 30
0.0
 10
-12.3867658556
 20
-25.1868370756
 30
0.0
 10
-12.0977925708
 20
-25.3660457454
 30
0.0
 10
-11.7834150201
 20
-25.5190787689
 30
0.0
 10
-11.4382882073
 20
-25.6469544476
 30
0.0
 10
-11.0720389447
 20
-25.7413399891
 30
0.0
 10
-10.6961964045
 20
-25.7982009409
 30
0.0
 10
-10.4466810525
 20
-25.8110604098
 30
0.0
 10
-10.3224775266
 20
-25.8112513006
 30
0.0
 11
-14.0156344367
 21
-22.1151982902
 31
0.0
 11
-13.9961265248
 21
-22.5217945987
 31
0.0
 11
-13.9388325536
 21
-22.8903183022
 31
0.0
 11
-13.8474658902
 21
-23.2416819091
 31
0.0
 11
-13.7200420014
 21
-23.5865111456
 31
0.0
 11
-13.5580846199
 21
-23.9178913075
 31
0.0
 11
-13.3726667069
 21
-24.2178680875
 31
0.0
 11
-13.1654905547
 21
-24.4908941849
 31
0.0
 11
-12.9241489771
 21
-24.7516155589
 31
0.0
 11
-12.6585782002
 21
-24.9866279857
 31
0.0
 11
-12.3838805714
 21
-25.184590893
 31
0.0
 11
-12.0979703765
 21
-25.3593278806
 31
0.0
 11
-11.7875937695
 21
-25.5109442283
 31
0.0
 11
-11.4439743156
 21
-25.6383745287
 31
0.0
 11
-11.0658465663
 21
-25.7359422652
 31
0.0
 11
-10.6945997666
 21
-25.792172277
 31
0.0
 11
-10.3224775266
 21
-25.8112513006
 31
0.0
  0
SPLINE
  5
359
100
AcDbEntity
  8
RACCORDO
100
AcDbSpline
 62
253
  6
CONTINUOUS
 70
0
 71
3
 72
17
 73
13
 74
11
 42
0.0000001
 43
0.0000001
 44
0.0000000001
 12
10.5018768743
 22
-0.0163443526
 32
0.0
 13
10.5018895928
 23
0.0000026265
 33
0.0
 40
0.0
 40
0.0
 40
0.0
 40
0.0
 40
0.0687853253
 40
0.1436776331
 40
0.2245790357
 40
0.3116194447
 40
0.4054391615
 40
0.506936248
 40
0.6168581533
 40
0.7355426293
 40
0.8628035212
 40
1.0
 40
1.0
 40
1.0
 40
1.0
 10
-10.3224775266
 20
-25.8112513006
 30
0.0
 10
-10.0816858542
 20
-25.8116260511
 30
0.0
 10
-9.57872652
 20
-25.8135162366
 30
0.0
 10
-8.7925658945
 20
-25.8168672823
 30
0.0
 10
-7.9424962793
 20
-25.8193344997
 30
0.0
 10
-7.0261654914
 20
-25.8196152223
 30
0.0
 10
-6.0377375936
 20
-25.8189677637
 30
0.0
 10
-4.9692109968
 20
-25.8173716711
 30
0.0
 10
-3.8136417805
 20
-25.8158960943
 30
0.0
 10
-2.567881976
 20
-25.8156955448
 30
0.0
 10
-1.2266443193
 20
-25.8162228665
 30
0.0
 10
-0.3008770014
 20
-25.8166572268
 30
0.0
 10
0.1793970894
 20
-25.8166571067
 30
0.0
 11
-10.3224775266
 21
-25.8112513006
 31
0.0
 11
-9.600105116
 21
-25.8134940411
 31
0.0
 11
-8.8136005254
 21
-25.8166062002
 31
0.0
 11
-7.9639860722
 21
-25.8189179622
 31
0.0
 11
-7.0498974726
 21
-25.8194669755
 31
0.0
 11
-6.0646133559
 21
-25.8188530568
 31
0.0
 11
-4.9987030792
 21
-25.8174527055
 31
0.0
 11
-3.8443161108
 21
-25.8161417382
 31
0.0
 11
-2.5979048904
 21
-25.8158114795
 31
0.0
 11
-1.2614251184
 21
-25.816225491
 31
0.0
 11
0.1793970894
 21
-25.8166571067
 31
0.0
  0
SPLINE
  5
35A
100
AcDbEntity
  8
RACCORDO
100
AcDbSpline
 62
253
  6
CONTINUOUS
 70
0
 71
3
 72
30
 73
26
 74
24
 42
0.0000001
 43
0.0000001
 44
0.0000000001
 12
32.7744698502
 22
-0.8718038795
 32
0.0
 13
32.7860628311
 23
-0.0000006402
 33
0.0
 40
0.0
 40
0.0
 40
0.0
 40
0.0
 40
0.0130222385
 40
0.027432789
 40
0.0432045854
 40
0.060392367
 40
0.0792547656
 40
0.1000950151
 40
0.1234481276
 40
0.1498233682
 40
0.179340802
 40
0.2117270058
 40
0.2469366317
 40
0.2851315385
 40
0.3264692141
 40
0.3711500596
 40
0.419464624
 40
0.4717155336
 40
0.5282698987
 40
0.5895684759
 40
0.6566722553
 40
0.7309040756
 40
0.8127713191
 40
0.902404749
 40
1.0
 40
1.0
 40
1.0
 40
1.0
 10
-32.6059637083
 20
-46.2760750078
 30
0.0
 10
-32.4636980535
 20
-46.2798592872
 30
0.0
 10
-32.1640001413
 20
-46.2878570365
 30
0.0
 10
-31.6919706841
 20
-46.2993491748
 30
0.0
 10
-31.1744175126
 20
-46.311465296
 30
0.0
 10
-30.6081503102
 20
-46.3211090002
 30
0.0
 10
-29.9864642063
 20
-46.3292487588
 30
0.0
 10
-29.2973711951
 20
-46.3351091125
 30
0.0
 10
-28.5261747842
 20
-46.3413746319
 30
0.0
 10
-27.6601489707
 20
-46.3481741321
 30
0.0
 10
-26.695405316
 20
-46.3556416293
 30
0.0
 10
-25.6340995157
 20
-46.3614287341
 30
0.0
 10
-24.4779514436
 20
-46.3653074343
 30
0.0
 10
-23.2239707585
 20
-46.3673096224
 30
0.0
 10
-21.8664808314
 20
-46.3676464297
 30
0.0
 10
-20.3983966153
 20
-46.3670821677
 30
0.0
 10
-18.8110449444
 20
-46.3669476922
 30
0.0
 10
-17.0939312973
 20
-46.3672684353
 30
0.0
 10
-15.2349197756
 20
-46.3685111083
 30
0.0
 10
-13.2135867307
 20
-46.370738173
 30
0.0
 10
-10.9990631047
 20
-46.3737120084
 30
0.0
 10
-8.5597513113
 20
-46.3771040766
 30
0.0
 10
-5.8742192808
 20
-46.3801117693
 30
0.0
 10
-2.9333547118
 20
-46.3822783716
 30
0.0
 10
-0.8871909213
 20
-46.3828720701
 30
0.0
 10
0.1793970894
 20
-46.3828720909
 30
0.0
 11
-32.6059637083
 21
-46.2760750078
 31
0.0
 11
-32.1791632143
 21
-46.2872943712
 31
0.0
 11
-31.7068409756
 21
-46.2989167897
 31
0.0
 11
-31.1898773551
 21
-46.3105772192
 31
0.0
 11
-30.6264440697
 21
-46.3204448704
 31
0.0
 11
-30.0080729615
 21
-46.3285164617
 31
0.0
 11
-29.3248324452
 21
-46.3348347547
 31
0.0
 11
-28.5592012493
 21
-46.3410735882
 31
0.0
 11
-27.6944878148
 21
-46.3478894285
 31
0.0
 11
-26.7267538464
 21
-46.3550471117
 31
0.0
 11
-25.6649538901
 21
-46.3609047245
 31
0.0
 11
-24.5105757058
 21
-46.3648734725
 31
0.0
 11
-23.2583168711
 21
-46.3669844479
 31
0.0
 11
-21.9030173413
 21
-46.3675000543
 31
0.0
 11
-20.4381083694
 21
-46.367167729
 31
0.0
 11
-18.8540640343
 21
-46.3670202113
 31
0.0
 11
-17.1409624695
 21
-46.367391735
 31
0.0
 11
-15.286767899
 21
-46.3686049696
 31
0.0
 11
-13.2770300347
 21
-46.3707453786
 31
0.0
 11
-11.0769631895
 21
-46.3736240086
 31
0.0
 11
-8.6431962472
 21
-46.3768836367
 31
0.0
 11
-5.9590933002
 21
-46.3798530351
 31
0.0
 11
-3.0203668252
 21
-46.3820048439
 31
0.0
 11
0.1793970894
 21
-46.3828720909
 31
0.0
  0
SPLINE
  5
35B
100
AcDbEntity
  8
RACCORDO
100
AcDbSpline
 62
253
  6
CONTINUOUS
 70
0
 71
3
 72
17
 73
13
 74
11
 42
0.0000001
 43
0.0000001
 44
0.0000000001
 12
0.0770238546
 22
-2.8888400807
 32
0.0
 13
2.8888453371
 23
-0.0768264544
 33
0.0
 40
0.0
 40
0.0
 40
0.0
 40
0.0
 40
0.1440755179
 40
0.274924206
 40
0.3933631633
 40
0.5023224796
 40
0.6049130804
 40
0.7005998577
 40
0.7875893378
 40
0.8649833804
 40
0.934802489
 40
1.0
 40
1.0
 40
1.0
 40
1.0
 10
-34.4643030363
 20
-44.4179206386
 30
0.0
 10
-34.4606039524
 20
-44.5566576822
 30
0.0
 10
-34.4226378663
 20
-44.8214568416
 30
0.0
 10
-34.2917968545
 20
-45.1794848942
 30
0.0
 10
-34.1140856543
 20
-45.4774799929
 30
0.0
 10
-33.9063697234
 20
-45.7199400799
 30
0.0
 10
-33.6800294425
 20
-45.9124232416
 30
0.0
 10
-33.4458710011
 20
-46.0580367974
 30
0.0
 10
-33.2164073597
 20
-46.1603274247
 30
0.0
 10
-33.000161663
 20
-46.226396984
 30
0.0
 10
-32.7986750934
 20
-46.2641353148
 30
0.0
 10
-32.6687455502
 20
-46.2744053766
 30
0.0
 10
-32.6059637083
 20
-46.2760750078
 30
0.0
 11
-34.4643030363
 21
-44.4179206386
 31
0.0
 11
-34.4061239684
 21
-44.8301948803
 31
0.0
 11
-34.2764441021
 21
-45.1853982228
 31
0.0
 11
-34.101153653
 21
-45.4793776935
 31
0.0
 11
-33.8963429399
 21
-45.7185442991
 31
0.0
 11
-33.6704769828
 21
-45.9105883207
 31
0.0
 11
-33.4356507629
 21
-46.0566057221
 31
0.0
 11
-33.2060531738
 21
-46.1589818694
 31
0.0
 11
-32.9921404056
 21
-46.2242845348
 31
0.0
 11
-32.7937946819
 21
-46.2612881416
 31
0.0
 11
-32.6059637083
 21
-46.2760750078
 31
0.0
  0
SPLINE
  5
35C
100
AcDbEntity
  8
RACCORDO
100
AcDbSpline
 62
253
  6
CONTINUOUS
 70
0
 71
3
 72
34
 73
30
 74
28
 42
0.0000001
 43
0.0000001
 44
0.0000000001
 12
32.7860637475
 22
0.0000006613
 32
0.0
 13
32.7744735504
 23
0.8716992315
 33
0.0
 40
0.0
 40
0.0
 40
0.0
 40
0.0
 40
0.0962648195
 40
0.1838669442
 40
0.2632364442
 40
0.3349019634
 40
0.3996242153
 40
0.4582855094
 40
0.5116919187
 40
0.560386319
 40
0.6048576918
 40
0.6455733238
 40
0.6829914117
 40
0.7175167688
 40
0.7492958645
 40
0.7784472171
 40
0.80526345
 40
0.8300231045
 40
0.852830142
 40
0.8737792514
 40
0.8930265651
 40
0.9106796466
 40
0.9268031851
 40
0.9415018059
 40
0.9549276076
 40
0.9672973787
 40
0.9788094677
 40
0.9896555919
 40
1.0
 40
1.0
 40
1.0
 40
1.0
 10
23.6793970894
 20
-46.3828720909
 30
0.0
 10
24.7314452585
 20
-46.3828720697
 30
0.0
 10
26.7408697359
 20
-46.3822977836
 30
0.0
 10
29.6176979878
 20
-46.3802056928
 30
0.0
 10
32.2256873448
 20
-46.3773467353
 30
0.0
 10
34.5836289946
 20
-46.3740981084
 30
0.0
 10
36.7152573873
 20
-46.3711995165
 30
0.0
 10
38.6473383605
 20
-46.3689593711
 30
0.0
 10
40.4042567158
 20
-46.3675533547
 30
0.0
 10
42.0060983085
 20
-46.3670170173
 30
0.0
 10
43.4692464209
 20
-46.3669851597
 30
0.0
 10
44.8091591852
 20
-46.3672765045
 30
0.0
 10
46.0403750431
 20
-46.3676438336
 30
0.0
 10
47.1739263891
 20
-46.3671370509
 30
0.0
 10
48.2171320446
 20
-46.3654738579
 30
0.0
 10
49.1760842315
 20
-46.3625967537
 30
0.0
 10
50.0583177377
 20
-46.3584603378
 30
0.0
 10
50.8712097272
 20
-46.3533244349
 30
0.0
 10
51.6199736569
 20
-46.3473297941
 30
0.0
 10
52.3084979485
 20
-46.3419717821
 30
0.0
 10
52.9406965582
 20
-46.3368707616
 30
0.0
 10
53.5201591734
 20
-46.3321262754
 30
0.0
 10
54.0499027771
 20
-46.3266680714
 30
0.0
 10
54.5334291739
 20
-46.3199712511
 30
0.0
 10
54.9759156369
 20
-46.3124581741
 30
0.0
 10
55.3835362643
 20
-46.303240585
 30
0.0
 10
55.7629626165
 20
-46.2943195351
 30
0.0
 10
56.1202439461
 20
-46.2852281646
 30
0.0
 10
56.3517470442
 20
-46.2790807454
 30
0.0
 10
56.4647578871
 20
-46.2760750078
 30
0.0
 11
23.6793970894
 21
-46.3828720909
 31
0.0
 11
26.8355414837
 21
-46.3820275868
 31
0.0
 11
29.707669583
 21
-46.379954914
 31
0.0
 11
32.309881531
 21
-46.377126121
 31
0.0
 11
34.6595097327
 21
-46.3740009463
 31
0.0
 11
36.7814957408
 21
-46.3711837845
 31
0.0
 11
38.7047674435
 21
-46.3690133148
 31
0.0
 11
40.4557528563
 21
-46.3676542448
 31
0.0
 11
42.0522504669
 21
-46.3670886379
 31
0.0
 11
43.5102917323
 21
-46.3670449582
 31
0.0
 11
44.8451970134
 21
-46.3673031015
 31
0.0
 11
46.0719888138
 21
-46.3674947242
 31
0.0
 11
47.2039392142
 21
-46.3668982331
 31
0.0
 11
48.2458492443
 21
-46.3651733999
 31
0.0
 11
49.2016028475
 21
-46.3622400367
 31
0.0
 11
50.0807918541
 21
-46.3581066757
 31
0.0
 11
50.8925470958
 21
-46.3529518802
 31
0.0
 11
51.6402779328
 21
-46.3471963599
 31
0.0
 11
52.3270955128
 21
-46.3417928358
 31
0.0
 11
52.958118752
 21
-46.3367171273
 31
0.0
 11
53.5368727175
 21
-46.3317761079
 31
0.0
 11
54.0654704639
 21
-46.3261807951
 31
0.0
 11
54.547334294
 21
-46.3195159904
 31
0.0
 11
54.9874464173
 21
-46.3118322551
 31
0.0
 11
55.3929055866
 21
-46.3029657994
 31
0.0
 11
55.7702357194
 21
-46.2940232848
 31
0.0
 11
56.1257234851
 21
-46.2850215093
 31
0.0
 11
56.4647578871
 21
-46.2760750078
 31
0.0
  0
SPLINE
  5
35D
100
AcDbEntity
  8
RACCORDO
100
AcDbSpline
 62
253
  6
CONTINUOUS
 70
0
 71
3
 72
10
 73
6
 74
4
 42
0.0000001
 43
0.0000001
 44
0.0000000001
 12
10.5018869776
 22
-0.000868231
 32
0.0
 13
10.5018830787
 23
0.009090967
 33
0.0
 40
0.0
 40
0.0
 40
0.0
 40
0.0
 40
0.3591105456
 40
0.6942689527
 40
1.0
 40
1.0
 40
1.0
 40
1.0
 10
23.6793970894
 20
-25.8166570938
 30
0.0
 10
24.9365098768
 20
-25.8167610242
 30
0.0
 10
27.3668869235
 20
-25.8128823459
 30
0.0
 10
30.8675197154
 20
-25.8248055649
 30
0.0
 10
33.1110207343
 20
-25.8121783808
 30
0.0
 10
34.1812713051
 20
-25.8112519172
 30
0.0
 11
23.6793970894
 21
-25.8166570938
 31
0.0
 11
27.4507354074
 21
-25.8160009994
 31
0.0
 11
30.9705292771
 21
-25.8196132561
 31
0.0
 11
34.1812713051
 21
-25.8112519172
 31
0.0
  0
SPLINE
  5
35E
100
AcDbEntity
  8
RACCORDO
100
AcDbSpline
 62
253
  6
CONTINUOUS
 70
0
 71
3
 72
22
 73
18
 74
16
 42
0.0000001
 43
0.0000001
 44
0.0000000001
 12
5.8085548833
 22
0.0086797604
 32
0.0
 13
-0.0399221423
 23
5.8084241747
 33
0.0
 40
0.0
 40
0.0
 40
0.0
 40
0.0
 40
0.0768514318
 40
0.1467958999
 40
0.2102946228
 40
0.269495248
 40
0.3289277164
 40
0.3887760119
 40
0.4485898085
 40
0.5102123518
 40
0.5707519548
 40
0.6298944637
 40
0.6915402927
 40
0.7585320745
 40
0.8320282601
 40
0.9123707942
 40
1.0
 40
1.0
 40
1.0
 40
1.0
 10
34.1812713051
 20
-25.8112519172
 30
0.0
 10
34.3300698915
 20
-25.8110295665
 30
0.0
 10
34.6145588779
 20
-25.793570649
 30
0.0
 10
35.0163205053
 20
-25.7230297105
 30
0.0
 10
35.3756427249
 20
-25.6206542463
 30
0.0
 10
35.7043542664
 20
-25.4915695567
 30
0.0
 10
36.0128050384
 20
-25.3343869364
 30
0.0
 10
36.3050561394
 20
-25.147125594
 30
0.0
 10
36.5875770733
 20
-24.938027656
 30
0.0
 10
36.8455396654
 20
-24.6969476968
 30
0.0
 10
37.0784597919
 20
-24.4336453745
 30
0.0
 10
37.2845201648
 20
-24.1487154166
 30
0.0
 10
37.4687528921
 20
-23.8346092001
 30
0.0
 10
37.631415517
 20
-23.4778283653
 30
0.0
 10
37.7647609123
 20
-23.0705574687
 30
0.0
 10
37.8555569758
 20
-22.6107136081
 30
0.0
 10
37.8755953289
 20
-22.2848608407
 30
0.0
 10
37.8744292137
 20
-22.1151983082
 30
0.0
 11
34.1812713051
 21
-25.8112519172
 31
0.0
 11
34.6268372842
 21
-25.7840383696
 31
0.0
 11
35.0269757988
 21
-25.713682455
 31
0.0
 11
35.3816742669
 21
-25.6125431416
 31
0.0
 11
35.7016727499
 21
-25.4866548298
 31
0.0
 11
36.0092326363
 21
-25.3298690202
 31
0.0
 11
36.3029157504
 21
-25.1438620805
 31
0.0
 11
36.5806078976
 21
-24.9350651902
 31
0.0
 11
36.8429444595
 21
-24.691550566
 31
0.0
 11
37.0757134238
 21
-24.4279696018
 31
0.0
 11
37.2771785291
 21
-24.1497131385
 31
0.0
 11
37.4582972801
 21
-23.8408236966
 31
0.0
 11
37.6197637485
 21
-23.4867791698
 31
0.0
 11
37.7526275105
 21
-23.0810737392
 31
0.0
 11
37.8429516243
 21
-22.6232236759
 31
0.0
 11
37.8744292137
 21
-22.1151983082
 31
0.0
  0
SPLINE
  5
35F
100
AcDbEntity
  8
RACCORDO
100
AcDbSpline
 62
253
  6
CONTINUOUS
 70
0
 71
3
 72
18
 73
14
 74
12
 42
0.0000001
 43
0.0000001
 44
0.0000000001
 12
-0.0715643995
 22
10.4833765884
 32
0.0
 13
0.0000002698
 23
10.4836208514
 33
0.0
 40
0.0
 40
0.0
 40
0.0
 40
0.0
 40
0.1169869259
 40
0.230585036
 40
0.3465936909
 40
0.4613220972
 40
0.563919806
 40
0.6555042499
 40
0.7381761024
 40
0.8130211146
 40
0.8810365336
 40
0.9430759778
 40
1.0
 40
1.0
 40
1.0
 40
1.0
 10
37.8744292137
 20
-22.1151983082
 30
0.0
 10
37.871638514
 20
-21.7063923083
 30
0.0
 10
37.8676214186
 20
-20.9006117696
 30
0.0
 10
37.8649634729
 20
-19.689428583
 30
0.0
 10
37.8635096303
 20
-18.4861361325
 30
0.0
 10
37.8635492949
 20
-17.3212841342
 30
0.0
 10
37.8641729149
 20
-16.2417839379
 30
0.0
 10
37.8643948914
 20
-15.2743064685
 30
0.0
 10
37.864449538
 20
-14.4038119142
 30
0.0
 10
37.8644594762
 20
-13.6156802628
 30
0.0
 10
37.864457781
 20
-12.8996493942
 30
0.0
 10
37.8644618076
 20
-12.246244147
 30
0.0
 10
37.864456198
 20
-11.8305215214
 30
0.0
 10
37.8644562031
 20
-11.6315982328
 30
0.0
 11
37.8744292137
 21
-22.1151983082
 31
0.0
 11
37.8681412254
 21
-20.8887678522
 31
0.0
 11
37.8651756668
 21
-19.6978520285
 31
0.0
 11
37.8637574284
 21
-18.4816621023
 31
0.0
 11
37.8636658007
 21
-17.2788929933
 31
0.0
 11
37.8641291772
 21
-16.2032976132
 31
0.0
 11
37.8643740036
 21
-15.2431610592
 31
0.0
 11
37.8644436483
 21
-14.3764607045
 31
0.0
 11
37.8644577249
 21
-13.5918139742
 31
0.0
 11
37.8644587919
 21
-12.8787661098
 31
0.0
 11
37.8644596954
 21
-12.2283680985
 31
0.0
 11
37.8644562031
 21
-11.6315982328
 31
0.0
  0
SPLINE
  5
360
100
AcDbEntity
  8
RACCORDO
100
AcDbSpline
 62
253
  6
CONTINUOUS
 70
0
 71
3
 72
41
 73
37
 74
35
 42
0.0000001
 43
0.0000001
 44
0.0000000001
 12
0.8761711798
 22
32.7753340062
 32
0.0
 13
0.0000011291
 23
32.7870430987
 33
0.0
 40
0.0
 40
0.0
 40
0.0
 40
0.0
 40
0.0103348192
 40
0.0208972124
 40
0.0315774994
 40
0.0421075505
 40
0.0521475754
 40
0.0617933507
 40
0.0714240741
 40
0.0813311936
 40
0.0917588558
 40
0.1029069614
 40
0.1149792079
 40
0.128190557
 40
0.1427476294
 40
0.1587612207
 40
0.1761905262
 40
0.1949912021
 40
0.2151640839
 40
0.2369103986
 40
0.2605030312
 40
0.286204589
 40
0.3142770702
 40
0.344970702
 40
0.3784825786
 40
0.4150065855
 40
0.4547439741
 40
0.4978613358
 40
0.5444872585
 40
0.5947918526
 40
0.6492235851
 40
0.7083035028
 40
0.7725087714
 40
0.8422577746
 40
0.9179479255
 40
1.0
 40
1.0
 40
1.0
 40
1.0
 10
58.3230972151
 20
-44.4179206386
 30
0.0
 10
58.326115572
 20
-44.3050115877
 30
0.0
 10
58.3323371253
 20
-44.0767103615
 30
0.0
 10
58.3420449296
 20
-43.7317359808
 30
0.0
 10
58.3522164453
 20
-43.3846400574
 30
0.0
 10
58.360843177
 20
-43.0432122545
 30
0.0
 10
58.3667200166
 20
-42.7130280436
 30
0.0
 10
58.3685868135
 20
-42.3926296903
 30
0.0
 10
58.3707868147
 20
-42.0736898726
 30
0.0
 10
58.3732419974
 20
-41.7462053427
 30
0.0
 10
58.3763235938
 20
-41.4021422149
 30
0.0
 10
58.3796699233
 20
-41.0344178027
 30
0.0
 10
58.3830980517
 20
-40.6362699621
 30
0.0
 10
58.3867099706
 20
-40.2008657019
 30
0.0
 10
58.3904941067
 20
-39.7223864133
 30
0.0
 10
58.394543653
 20
-39.1978096788
 30
0.0
 10
58.3985451611
 20
-38.6268528599
 30
0.0
 10
58.4021980096
 20
-38.0104358484
 30
0.0
 10
58.4053420773
 20
-37.3468347459
 30
0.0
 10
58.4077787965
 20
-36.6308590197
 30
0.0
 10
58.4097635002
 20
-35.8544587798
 30
0.0
 10
58.4112107703
 20
-35.0089184632
 30
0.0
 10
58.4121821971
 20
-34.085770542
 30
0.0
 10
58.4127935966
 20
-33.0772632444
 30
0.0
 10
58.4134339612
 20
-31.9763891102
 30
0.0
 10
58.4144210901
 20
-30.776675837
 30
0.0
 10
58.4156731019
 20
-29.4719842836
 30
0.0
 10
58.4171620066
 20
-28.0568889293
 30
0.0
 10
58.4188489866
 20
-26.5263045827
 30
0.0
 10
58.4207048011
 20
-24.8720654268
 30
0.0
 10
58.4226280375
 20
-23.0817163708
 30
0.0
 10
58.4245174437
 20
-21.1394465289
 30
0.0
 10
58.4264560289
 20
-19.0297739897
 30
0.0
 10
58.4284419104
 20
-16.7385679367
 30
0.0
 10
58.4301288575
 20
-14.2523135867
 30
0.0
 10
58.4306709108
 20
-12.5283465342
 30
0.0
 10
58.4306709417
 20
-11.6315982328
 30
0.0
 11
58.3230972151
 21
-44.4179206386
 31
0.0
 11
58.3323189814
 21
-44.0791979831
 31
0.0
 11
58.3420754141
 21
-43.7330258038
 31
0.0
 11
58.352027473
 21
-43.3829922215
 31
0.0
 11
58.3605388211
 21
-43.0378479106
 31
0.0
 11
58.3661268365
 21
-42.7087126151
 31
0.0
 11
58.36864428
 21
-42.3924661865
 31
0.0
 11
58.3707970675
 21
-42.0767105794
 31
0.0
 11
58.3732763245
 21
-41.7518948884
 31
0.0
 11
58.3762609849
 21
-41.4100157056
 31
0.0
 11
58.3795493628
 21
-41.0445170796
 31
0.0
 11
58.3829710461
 21
-40.6487186021
 31
0.0
 11
58.3865613945
 21
-40.2155724119
 31
0.0
 11
58.390353899
 21
-39.7383041177
 31
0.0
 11
58.3943646186
 21
-39.2132811309
 31
0.0
 11
58.3983409331
 21
-38.6418395726
 31
0.0
 11
58.4019913872
 21
-38.0254318109
 31
0.0
 11
58.4051190184
 21
-37.3640300608
 31
0.0
 11
58.4076135637
 21
-36.6510370671
 31
0.0
 11
58.4096003487
 21
-35.8775069565
 31
0.0
 11
58.4110778977
 21
-35.0348301703
 31
0.0
 11
58.4120866784
 21
-34.1144170706
 31
0.0
 11
58.4127709863
 21
-33.1080638767
 31
0.0
 11
58.4134570679
 21
-32.0093087479
 31
0.0
 11
58.4144183504
 21
-30.811794946
 31
0.0
 11
58.4156569277
 21
-29.5089240598
 31
0.0
 11
58.4171329866
 21
-28.0952340339
 31
0.0
 11
58.4188094966
 21
-26.5665088166
 31
0.0
 11
58.4206416224
 21
-24.9171709387
 31
0.0
 11
58.4225445294
 21
-23.1325163946
 31
0.0
 11
58.424446282
 21
-21.1954615212
 31
0.0
 11
58.4263828109
 21
-19.090361503
 31
0.0
 11
58.4283168198
 21
-16.8034987451
 31
0.0
 11
58.4299371646
 21
-14.3218430368
 31
0.0
 11
58.4306709417
 21
-11.6315982328
 31
0.0
  0
SPLINE
  5
361
100
AcDbEntity
  8
RACCORDO
100
AcDbSpline
 62
253
  6
CONTINUOUS
 70
0
 71
3
 72
16
 73
12
 74
10
 42
0.0000001
 43
0.0000001
 44
0.0000000001
 12
2.8885650859
 22
0.0769258669
 32
0.0
 13
0.0771284247
 23
2.8885596844
 33
0.0
 40
0.0
 40
0.0
 40
0.0
 40
0.0
 40
0.1123707429
 40
0.2160748891
 40
0.3158170433
 40
0.4147164371
 40
0.5155047645
 40
0.6212504233
 40
0.7359624855
 40
0.8621446103
 40
1.0
 40
1.0
 40
1.0
 40
1.0
 10
56.4647578871
 20
-46.2760750078
 30
0.0
 10
56.572954622
 20
-46.2731936022
 30
0.0
 10
56.7809498684
 20
-46.2487208771
 30
0.0
 10
57.0741438574
 20
-46.1634687518
 30
0.0
 10
57.3392986914
 20
-46.0404227138
 30
0.0
 10
57.5808522787
 20
-45.8809202382
 30
0.0
 10
57.8003409475
 20
-45.6833661072
 30
0.0
 10
57.9966630141
 20
-45.442546233
 30
0.0
 10
58.1629424838
 20
-45.1510645481
 30
0.0
 10
58.2843933462
 20
-44.8049087564
 30
0.0
 10
58.3195530254
 20
-44.5506551456
 30
0.0
 10
58.3230972151
 20
-44.4179206386
 30
0.0
 11
56.4647578871
 21
-46.2760750078
 31
0.0
 11
56.7872914114
 21
-46.2385830195
 31
0.0
 11
57.0751062963
 21
-46.1551555922
 31
0.0
 11
57.3365179488
 21
-46.0337835483
 31
0.0
 11
57.5750132523
 21
-45.8763370148
 31
0.0
 11
57.7914918328
 21
-45.6815141843
 31
0.0
 11
57.9845165866
 21
-45.4446402005
 31
0.0
 11
58.148753573
 21
-45.1567182276
 31
0.0
 11
58.2693435227
 21
-44.8126225974
 31
0.0
 11
58.3230972151
 21
-44.4179206386
 31
0.0
  0
SPLINE
  5
362
100
AcDbEntity
  8
RACCORDO
100
AcDbSpline
 62
253
  6
CONTINUOUS
 70
0
 71
3
 72
34
 73
30
 74
28
 42
0.0000001
 43
0.0000001
 44
0.0000000001
 12
-0.0000013416
 22
32.7869516041
 32
0.0
 13
-0.8586067866
 23
32.7757073131
 33
0.0
 40
0.0
 40
0.0
 40
0.0
 40
0.0
 40
0.0889815412
 40
0.1702757962
 40
0.2447226284
 40
0.3130029887
 40
0.3757227474
 40
0.4334011658
 40
0.4864878263
 40
0.5354005681
 40
0.5805226155
 40
0.6221523031
 40
0.6605191506
 40
0.6958700212
 40
0.7284860308
 40
0.758647083
 40
0.786534272
 40
0.8122288217
 40
0.8358647322
 40
0.8576203921
 40
0.8776565606
 40
0.8960531817
 40
0.9126245253
 40
0.9273431256
 40
0.9407899634
 40
0.953917798
 40
0.9677558358
 40
0.9831804549
 40
1.0
 40
1.0
 40
1.0
 40
1.0
 10
58.4306709417
 20
11.8684017672
 30
0.0
 10
58.4306709019
 20
12.840879595
 30
0.0
 10
58.430036998
 20
14.7018210283
 30
0.0
 10
58.4281239763
 20
17.3763900158
 30
0.0
 10
58.4259465595
 20
19.8247158392
 30
0.0
 10
58.4238680639
 20
22.0700412925
 30
0.0
 10
58.4217898257
 20
24.1321049413
 30
0.0
 10
58.4196665677
 20
26.0281167451
 30
0.0
 10
58.4177090354
 20
27.7732319725
 30
0.0
 10
58.4160018872
 20
29.3811190192
 30
0.0
 10
58.4145879024
 20
30.8637932253
 30
0.0
 10
58.4134609831
 20
32.2312117437
 30
0.0
 10
58.4127374603
 20
33.4918414731
 30
0.0
 10
58.4118346776
 20
34.6539607422
 30
0.0
 10
58.4103605409
 20
35.7263984238
 30
0.0
 10
58.4082047421
 20
36.7172642977
 30
0.0
 10
58.4052866427
 20
37.6324836073
 30
0.0
 10
58.40103195
 20
38.4763838013
 30
0.0
 10
58.3958765816
 20
39.2532660113
 30
0.0
 10
58.3902863762
 20
39.9683029192
 30
0.0
 10
58.3852751119
 20
40.626082367
 30
0.0
 10
58.3803055002
 20
41.2272013677
 30
0.0
 10
58.3750736752
 20
41.7701995727
 30
0.0
 10
58.3709468611
 20
42.2591109162
 30
0.0
 10
58.3684219011
 20
42.7103953165
 30
0.0
 10
58.3641746103
 20
43.152055302
 30
0.0
 10
58.352450383
 20
43.6152039407
 30
0.0
 10
58.3374541533
 20
44.1186096719
 30
0.0
 10
58.3280159478
 20
44.4708804121
 30
0.0
 10
58.3232021559
 20
44.6546379075
 30
0.0
 11
58.4306709417
 21
11.8684017672
 31
0.0
 11
58.4298179976
 21
14.7858351261
 31
0.0
 11
58.4279897148
 21
17.4512253048
 31
0.0
 11
58.4258711969
 21
19.8921090695
 31
0.0
 11
58.423779857
 21
22.1308129612
 31
0.0
 11
58.4216942997
 21
24.1872015979
 31
0.0
 11
58.4196097572
 21
26.0782999607
 31
0.0
 11
58.41767598
 21
27.8188486539
 31
0.0
 11
58.4159879487
 21
29.4225474638
 31
0.0
 11
58.4145847317
 21
30.9019611828
 31
0.0
 11
58.4134908298
 21
32.2668712998
 31
0.0
 11
58.4126742621
 21
33.5248030045
 31
0.0
 11
58.4116913473
 21
34.6838498714
 31
0.0
 11
58.4101752972
 21
35.7532283255
 31
0.0
 11
58.4079772227
 21
36.7421148414
 31
0.0
 11
58.4049162673
 21
37.6564456329
 31
0.0
 11
58.4006853418
 21
38.4988809662
 31
0.0
 11
58.3955812317
 21
39.2738136122
 31
0.0
 11
58.3901641658
 21
39.9870948098
 31
0.0
 11
58.3850645433
 21
40.6439999032
 31
0.0
 11
58.379995925
 21
41.2471477326
 31
0.0
 11
58.3749931183
 21
41.7904485403
 31
0.0
 11
58.3710687506
 21
42.2730106179
 31
0.0
 11
58.3681033476
 21
42.7138814672
 31
0.0
 11
58.363153322
 21
43.1442746786
 31
0.0
 11
58.3525695481
 21
43.5978582917
 31
0.0
 11
58.3381494729
 21
44.1033789076
 31
0.0
 11
58.3232021559
 21
44.6546379075
 31
0.0
  0
SPLINE
  5
363
100
AcDbEntity
  8
RACCORDO
100
AcDbSpline
 62
253
  6
CONTINUOUS
 70
0
 71
3
 72
10
 73
6
 74
4
 42
0.0000001
 43
0.0000001
 44
0.0000000001
 12
0.8768234364
 22
0.0057064011
 32
0.0
 13
0.7165460614
 23
0.5053846492
 33
0.0
 40
0.0
 40
0.0
 40
0.0
 40
0.0
 40
0.4926569997
 40
0.8511283325
 40
1.0
 40
1.0
 40
1.0
 40
1.0
 10
58.3230973063
 20
-44.4179206655
 30
0.0
 10
58.4670883741
 20
-44.416983566
 30
0.0
 10
58.7201688255
 20
-44.4223381553
 30
0.0
 10
58.9998360169
 20
-44.3865014493
 30
0.0
 10
59.1630063027
 20
-44.4066773847
 30
0.0
 10
59.198564105
 20
-44.3815982328
 30
0.0
 11
58.3230973063
 21
-44.4179206655
 31
0.0
 11
58.7550268919
 21
-44.4111689991
 31
0.0
 11
59.0690794439
 21
-44.3981394846
 31
0.0
 11
59.198564105
 21
-44.3815982328
 31
0.0
  0
SPLINE
  5
364
100
AcDbEntity
  8
RACCORDO
100
AcDbSpline
 62
253
  6
CONTINUOUS
 70
0
 71
3
 72
10
 73
6
 74
4
 42
0.0000001
 43
0.0000001
 44
0.0000000001
 12
-0.0055691331
 22
-0.8760202041
 32
0.0
 13
-0.4959382084
 23
-0.7221410573
 33
0.0
 40
0.0
 40
0.0
 40
0.0
 40
0.0
 40
0.4927361451
 40
0.8511919488
 40
1.0
 40
1.0
 40
1.0
 40
1.0
 10
56.4647578872
 20
-46.2760750079
 30
0.0
 10
56.4638431828
 20
-46.4199572807
 30
0.0
 10
56.4691732164
 20
-46.6726632309
 30
0.0
 10
56.4339456908
 20
-46.9525493621
 30
0.0
 10
56.4539969555
 20
-47.1149885021
 30
0.0
 10
56.4293970894
 20
-47.1508086365
 30
0.0
 11
56.4647578872
 21
-46.2760750079
 31
0.0
 11
56.4581798785
 21
-46.7076804246
 31
0.0
 11
56.4454960559
 21
-47.0214450316
 31
0.0
 11
56.4293970894
 21
-47.1508086365
 31
0.0
  0
SPLINE
  5
365
100
AcDbEntity
  8
RACCORDO
100
AcDbSpline
 62
253
  6
CONTINUOUS
 70
0
 71
3
 72
10
 73
6
 74
4
 42
0.0000001
 43
0.0000001
 44
0.0000000001
 12
0.0055770965
 22
-0.8760198886
 32
0.0
 13
0.4958878526
 23
-0.7221753159
 33
0.0
 40
0.0
 40
0.0
 40
0.0
 40
0.0
 40
0.4927362821
 40
0.8511921605
 40
1.0
 40
1.0
 40
1.0
 40
1.0
 10
-32.6059637046
 20
-46.2760749946
 30
0.0
 10
-32.605047692
 20
-46.4199572556
 30
0.0
 10
-32.6103756286
 20
-46.6726622573
 30
0.0
 10
-32.5751499902
 20
-46.9525508967
 30
0.0
 10
-32.5952002439
 20
-47.1149868136
 30
0.0
 10
-32.5706029106
 20
-47.1508085964
 30
0.0
 11
-32.6059637046
 21
-46.2760749946
 31
0.0
 11
-32.5993831979
 21
-46.7076803628
 31
0.0
 11
-32.5866997738
 21
-47.0214449563
 31
0.0
 11
-32.5706029106
 21
-47.1508085964
 31
0.0
  0
SPLINE
  5
366
100
AcDbEntity
  8
RACCORDO
100
AcDbSpline
 62
253
  6
CONTINUOUS
 70
0
 71
3
 72
10
 73
6
 74
4
 42
0.0000001
 43
0.0000001
 44
0.0000000001
 12
-0.8768409727
 22
0.0057016921
 32
0.0
 13
-0.7165872312
 23
0.5053566471
 33
0.0
 40
0.0
 40
0.0
 40
0.0
 40
0.0
 40
0.4926542339
 40
0.8511257757
 40
1.0
 40
1.0
 40
1.0
 40
1.0
 10
-34.4643026711
 20
-44.4179205308
 30
0.0
 10
-34.6082958103
 20
-44.4169842099
 30
0.0
 10
-34.8613797265
 20
-44.4223383789
 30
0.0
 10
-35.1410548951
 20
-44.386504113
 30
0.0
 10
-35.304226479
 20
-44.4066764249
 30
0.0
 10
-35.339786935
 20
-44.381598232
 30
0.0
 11
-34.4643026711
 21
-44.4179205308
 31
0.0
 11
-34.8962384751
 21
-44.4111700703
 31
0.0
 11
-35.2102974755
 21
-44.3981401799
 31
0.0
 11
-35.339786935
 21
-44.381598232
 31
0.0
  0
SPLINE
  5
367
100
AcDbEntity
  8
RACCORDO
100
AcDbSpline
 62
253
  6
CONTINUOUS
 70
0
 71
3
 72
10
 73
6
 74
4
 42
0.0000001
 43
0.0000001
 44
0.0000000001
 12
-0.8768236221
 22
-0.0057035651
 32
0.0
 13
-0.7165370752
 23
-0.5053976799
 33
0.0
 40
0.0
 40
0.0
 40
0.0
 40
0.0
 40
0.492656747
 40
0.8511280313
 40
1.0
 40
1.0
 40
1.0
 40
1.0
 10
-34.4643030437
 20
44.6547241747
 30
0.0
 10
-34.6082940681
 20
44.6537875414
 30
0.0
 10
-34.8613747148
 20
44.6591427421
 30
0.0
 10
-35.1410413125
 20
44.6233057508
 30
0.0
 10
-35.3042124979
 20
44.6434816163
 30
0.0
 10
-35.3397699262
 20
44.6184017672
 30
0.0
 11
-34.4643030437
 21
44.6547241747
 31
0.0
 11
-34.896232504
 21
44.6479734025
 31
0.0
 11
-35.2102850681
 21
44.6349437565
 31
0.0
 11
-35.3397699262
 21
44.6184017672
 31
0.0
  0
SPLINE
  5
368
100
AcDbEntity
  8
RACCORDO
100
AcDbSpline
 62
253
  6
CONTINUOUS
 70
0
 71
3
 72
10
 73
6
 74
4
 42
0.0000001
 43
0.0000001
 44
0.0000000001
 12
0.0055691461
 22
0.8760203095
 32
0.0
 13
0.4959392066
 23
0.7221404997
 33
0.0
 40
0.0
 40
0.0
 40
0.0
 40
0.0
 40
0.4927361356
 40
0.8511919419
 40
1.0
 40
1.0
 40
1.0
 40
1.0
 10
-32.6059638074
 20
46.5128784417
 30
0.0
 10
-32.6050491008
 20
46.6567607291
 30
0.0
 10
-32.6103791379
 20
46.9094667244
 30
0.0
 10
-32.5751515476
 20
47.1893528401
 30
0.0
 10
-32.5952028274
 20
47.3517920601
 30
0.0
 10
-32.5706029106
 20
47.3876121686
 30
0.0
 11
-32.6059638074
 21
46.5128784417
 31
0.0
 11
-32.5993857812
 21
46.9444839019
 31
0.0
 11
-32.586701923
 21
47.2582485474
 31
0.0
 11
-32.5706029106
 21
47.3876121686
 31
0.0
  0
SPLINE
  5
369
100
AcDbEntity
  8
RACCORDO
100
AcDbSpline
 62
253
  6
CONTINUOUS
 70
0
 71
3
 72
18
 73
14
 74
12
 42
0.0000001
 43
0.0000001
 44
0.0000000001
 12
0.0000015465
 22
10.4834761651
 32
0.0
 13
0.06741024
 23
10.4832594341
 33
0.0
 40
0.0
 40
0.0
 40
0.0
 40
0.0
 40
0.1177950229
 40
0.2443755661
 40
0.3672801048
 40
0.4768775397
 40
0.5754747586
 40
0.6645548325
 40
0.7455287113
 40
0.8191586168
 40
0.8856800132
 40
0.9456357498
 40
1.0
 40
1.0
 40
1.0
 40
1.0
 10
37.8644561825
 20
11.8684017672
 30
0.0
 10
37.8644562432
 20
12.2800355387
 30
0.0
 10
37.8644612944
 20
13.1340040144
 30
0.0
 10
37.8644487065
 20
14.4174614157
 30
0.0
 10
37.8644357588
 20
15.6722724418
 30
0.0
 10
37.8639302106
 20
16.8292958384
 30
0.0
 10
37.8634853979
 20
17.868119938
 30
0.0
 10
37.8637874631
 20
18.8069194147
 30
0.0
 10
37.8647126197
 20
19.658470181
 30
0.0
 10
37.8656319268
 20
20.4311900311
 30
0.0
 10
37.8678167499
 20
21.1304594834
 30
0.0
 10
37.8707948814
 20
21.7624015448
 30
0.0
 10
37.8733584885
 20
22.1618836986
 30
0.0
 10
37.8745800575
 20
22.3518552117
 30
0.0
 11
37.8644561825
 21
11.8684017672
 31
0.0
 11
37.8644579932
 21
13.1033030819
 31
0.0
 11
37.8644484659
 21
14.4303071898
 31
0.0
 11
37.8643384212
 21
15.718773987
 31
0.0
 11
37.8639151787
 21
16.8677360054
 31
0.0
 11
37.8636069047
 21
17.9013775541
 31
0.0
 11
37.8639212694
 21
18.8352463326
 31
0.0
 11
37.8647558056
 21
19.6841336503
 31
0.0
 11
37.865923005
 21
20.4560301271
 31
0.0
 11
37.8680826125
 21
21.1534022568
 31
0.0
 11
37.8710742644
 21
21.7819396728
 31
0.0
 11
37.8745800575
 21
22.3518552117
 31
0.0
  0
LINE
  5
36A
100
AcDbEntity
  8
0
100
AcDbLine
 62
253
  6
CONTINUOUS
 10
-10.7244382942
 20
-22.1315982328
 11
-10.7244655783
 21
-11.6315640366
  0
LINE
  5
36B
100
AcDbEntity
  8
0
100
AcDbLine
 62
253
  6
CONTINUOUS
 10
-10.7244655782
 20
11.8684017672
 11
-10.7244382945
 21
22.3684017672
  0
SPLINE
  5
36C
100
AcDbEntity
  8
RACCORDO
100
AcDbSpline
 62
253
  6
CONTINUOUS
 70
0
 71
3
 72
22
 73
18
 74
16
 42
0.0000001
 43
0.0000001
 44
0.0000000001
 12
0.0373930232
 22
5.8092762036
 32
0.0
 13
-5.8093895442
 23
0.0090206216
 33
0.0
 40
0.0
 40
0.0
 40
0.0
 40
0.0
 40
0.0723592857
 40
0.1388348716
 40
0.2041825377
 40
0.2706809307
 40
0.3380118072
 40
0.4030470797
 40
0.464499573
 40
0.5272510097
 40
0.5884959634
 40
0.649512647
 40
0.7103402311
 40
0.7732459097
 40
0.842033804
 40
0.9181202435
 40
1.0
 40
1.0
 40
1.0
 40
1.0
 10
37.8745800575
 20
22.3518552117
 30
0.0
 10
37.8754819683
 20
22.4919735706
 30
0.0
 10
37.862147709
 20
22.7611908959
 30
0.0
 10
37.7990711536
 20
23.1522131315
 30
0.0
 10
37.6987984929
 20
23.5236483462
 30
0.0
 10
37.5597202114
 20
23.884164837
 30
0.0
 10
37.3834615262
 20
24.2273913165
 30
0.0
 10
37.1773077791
 20
24.5418413233
 30
0.0
 10
36.9462409188
 20
24.8270032607
 30
0.0
 10
36.6927699438
 20
25.0823616819
 30
0.0
 10
36.4142431038
 20
25.30868768
 30
0.0
 10
36.1194400289
 20
25.5063216125
 30
0.0
 10
35.8068032522
 20
25.6813435432
 30
0.0
 10
35.4631094026
 20
25.8276038513
 30
0.0
 10
35.0779217418
 20
25.9465026271
 30
0.0
 10
34.6454382925
 20
26.0278450814
 30
0.0
 10
34.3392339486
 20
26.0478836358
 30
0.0
 10
34.1806768149
 20
26.0481298379
 30
0.0
 11
37.8745800575
 21
22.3518552117
 31
0.0
 11
37.8535543536
 21
22.7716928365
 31
0.0
 11
37.7921294412
 21
23.1529595671
 31
0.0
 11
37.6931403482
 21
23.5194571532
 31
0.0
 11
37.5540875456
 21
23.8798791421
 31
0.0
 11
37.3753538869
 21
24.227807267
 31
0.0
 11
37.1682341289
 21
24.5437916011
 31
0.0
 11
36.9433949558
 21
24.8210959545
 31
0.0
 11
36.6863078827
 21
25.0795557515
 31
0.0
 11
36.410686786
 21
25.3045534471
 31
0.0
 11
36.1166282993
 21
25.5024894619
 31
0.0
 11
35.8075385413
 21
25.673764033
 31
0.0
 11
35.4715492579
 21
25.8175017872
 31
0.0
 11
35.089706051
 21
25.9353526999
 31
0.0
 11
34.6553466475
 21
26.0172692255
 31
0.0
 11
34.1806768149
 21
26.0481298379
 31
0.0
  0
LINE
  5
36D
100
AcDbEntity
  8
0
100
AcDbLine
 62
253
  6
CONTINUOUS
 10
34.1793970894
 20
-22.535460714
 11
23.6793970894
 21
-22.5354609027
  0
LINE
  5
36E
100
AcDbEntity
  8
0
100
AcDbLine
 62
253
  6
CONTINUOUS
 10
0.1793970894
 20
-22.5354609026
 11
-10.3206029106
 21
-22.5354607142
  0
SPLINE
  5
36F
100
AcDbEntity
  8
RACCORDO
100
AcDbSpline
 62
253
  6
CONTINUOUS
 70
0
 71
3
 72
22
 73
18
 74
16
 42
0.0000001
 43
0.0000001
 44
0.0000000001
 12
-10.5012817936
 22
0.0165169587
 32
0.0
 13
-10.5012947829
 23
0.0000008397
 33
0.0
 40
0.0
 40
0.0
 40
0.0
 40
0.0
 40
0.0355176333
 40
0.0746344423
 40
0.1175895571
 40
0.1644719355
 40
0.2152867594
 40
0.2701432511
 40
0.3293030951
 40
0.3930633333
 40
0.4617432213
 40
0.5357289352
 40
0.6154859118
 40
0.7014284497
 40
0.7938021624
 40
0.8930992943
 40
1.0
 40
1.0
 40
1.0
 40
1.0
 10
34.1806768149
 20
26.0481298379
 30
0.0
 10
34.056349923
 20
26.0483253857
 30
0.0
 10
33.7950981974
 20
26.0491140102
 30
0.0
 10
33.3834865839
 20
26.0505613444
 30
0.0
 10
32.9320944462
 20
26.0523611577
 30
0.0
 10
32.4397546596
 20
26.0543661118
 30
0.0
 10
31.9057523335
 20
26.0557160635
 30
0.0
 10
31.328772298
 20
26.0563104002
 30
0.0
 10
30.7064774899
 20
26.0563317681
 30
0.0
 10
30.0357950333
 20
26.0558385891
 30
0.0
 10
29.3132160621
 20
26.0549234521
 30
0.0
 10
28.5346419809
 20
26.0537105531
 30
0.0
 10
27.6956406171
 20
26.0528456204
 30
0.0
 10
26.7922729337
 20
26.0525357513
 30
0.0
 10
25.8205062633
 20
26.0526966275
 30
0.0
 10
24.7753771036
 20
26.0532008535
 30
0.0
 10
24.0535956969
 20
26.0534606111
 30
0.0
 10
23.6793970894
 20
26.053460641
 30
0.0
 11
34.1806768149
 21
26.0481298379
 31
0.0
 11
33.8076969535
 21
26.0491054212
 31
0.0
 11
33.3969223332
 21
26.0505448377
 31
0.0
 11
32.9458414731
 21
26.0523124593
 31
0.0
 11
32.4535193723
 21
26.0541884415
 31
0.0
 11
31.91989967
 21
26.0555521754
 31
0.0
 11
31.343835847
 21
26.0562028897
 31
0.0
 11
30.7225808883
 21
26.0562545036
 31
0.0
 11
30.0530159898
 21
26.0557941811
 31
0.0
 11
29.3317887782
 21
26.054913254
 31
0.0
 11
28.5548437729
 21
26.0538076968
 31
0.0
 11
27.7172926796
 21
26.0529603812
 31
0.0
 11
26.8147848197
 21
26.0526172117
 31
0.0
 11
25.844741241
 21
26.0527419996
 31
0.0
 11
24.8019928738
 21
26.0531674966
 31
0.0
 11
23.6793970894
 21
26.053460641
 31
0.0
  0
LINE
  5
370
100
AcDbEntity
  8
0
100
AcDbLine
 62
253
  6
CONTINUOUS
 10
34.583231775
 20
22.3684017672
 11
34.5832597571
 21
11.8683639664
  0
LINE
  5
371
100
AcDbEntity
  8
0
100
AcDbLine
 62
253
  6
CONTINUOUS
 10
34.583259757
 20
-11.6315982329
 11
34.5832324733
 21
-22.1315982328
  0
LINE
  5
372
100
AcDbEntity
  8
0
100
AcDbLine
 62
253
  6
CONTINUOUS
 10
-10.3206029106
 20
22.7722642483
 11
0.1794267913
 21
22.772264437
  0
LINE
  5
373
100
AcDbEntity
  8
0
100
AcDbLine
 62
253
  6
CONTINUOUS
 10
23.6793970894
 20
22.7722644369
 11
34.1793970894
 21
22.7722647813
  0
SPLINE
  5
374
100
AcDbEntity
  8
RACCORDO
100
AcDbSpline
 62
253
  6
CONTINUOUS
 70
0
 71
3
 72
36
 73
32
 74
30
 42
0.0000001
 43
0.0000001
 44
0.0000000001
 12
-32.7749877238
 22
0.8494265281
 32
0.0
 13
-32.7859931331
 23
0.0000003703
 33
0.0
 40
0.0
 40
0.0
 40
0.0
 40
0.0
 40
0.0097107962
 40
0.0196742798
 40
0.0301224358
 40
0.0412944048
 40
0.0534383564
 40
0.0667882662
 40
0.0814500656
 40
0.0974155525
 40
0.1147460912
 40
0.1335290787
 40
0.1538408382
 40
0.1757654098
 40
0.1994673499
 40
0.2251294729
 40
0.2528762607
 40
0.2828586256
 40
0.315356107
 40
0.350663326
 40
0.3890428395
 40
0.4306925365
 40
0.4758027711
 40
0.5245908318
 40
0.5773046497
 40
0.6343324706
 40
0.6961472832
 40
0.7632714245
 40
0.8358763575
 40
0.9142925068
 40
1.0
 40
1.0
 40
1.0
 40
1.0
 10
56.4646884778
 20
46.5129739924
 30
0.0
 10
56.3585980686
 20
46.5157235283
 30
0.0
 10
56.1436565659
 20
46.5212909694
 30
0.0
 10
55.8145644801
 20
46.5296433122
 30
0.0
 10
55.4694979243
 20
46.5379570095
 30
0.0
 10
55.1006017372
 20
46.5465584284
 30
0.0
 10
54.6999674381
 20
46.5543683586
 30
0.0
 10
54.2611624205
 20
46.5605618323
 30
0.0
 10
53.7805873712
 20
46.5665693966
 30
0.0
 10
53.2564905408
 20
46.5710251997
 30
0.0
 10
52.6873567046
 20
46.5757959403
 30
0.0
 10
52.0707223246
 20
46.5806014627
 30
0.0
 10
51.4038839048
 20
46.5859175702
 30
0.0
 10
50.6832869131
 20
46.5913378374
 30
0.0
 10
49.9042112055
 20
46.5960356316
 30
0.0
 10
49.0615013128
 20
46.5999294992
 30
0.0
 10
48.1501500538
 20
46.6027565379
 30
0.0
 10
47.1640942244
 20
46.6042667608
 30
0.0
 10
46.0954120477
 20
46.604456626
 30
0.0
 10
44.9349605198
 20
46.6039860898
 30
0.0
 10
43.6744874083
 20
46.603694222
 30
0.0
 10
42.3068803977
 20
46.6037468051
 30
0.0
 10
40.8255219295
 20
46.6042025673
 30
0.0
 10
39.2232476657
 20
46.6052677936
 30
0.0
 10
37.4907306786
 20
46.6070549669
 30
0.0
 10
35.6158493358
 20
46.6094629612
 30
0.0
 10
33.5834828463
 20
46.6122959245
 30
0.0
 10
31.3808791972
 20
46.6151630196
 30
0.0
 10
28.9968443795
 20
46.617517957
 30
0.0
 10
26.4097177437
 20
46.6192221541
 30
0.0
 10
24.6160655168
 20
46.6196756146
 30
0.0
 10
23.6793970894
 20
46.6196756252
 30
0.0
 11
56.4646884778
 21
46.5129739924
 31
0.0
 11
56.146416462
 21
46.5211921392
 31
0.0
 11
55.819857913
 21
46.5294405833
 31
0.0
 11
55.4774049023
 21
46.5377236764
 31
0.0
 11
55.1112163024
 21
46.5460873352
 31
0.0
 11
54.7131389479
 21
46.5537715375
 31
0.0
 11
54.2754968045
 21
46.560247321
 31
0.0
 11
53.7948305947
 21
46.5660846125
 31
0.0
 11
53.2714082921
 21
46.5708883808
 31
0.0
 11
52.7032289842
 21
46.5756093301
 31
0.0
 11
52.0874294167
 21
46.580488911
 31
0.0
 11
51.4215088257
 21
46.5857290046
 31
0.0
 11
50.7027094431
 21
46.591019968
 31
0.0
 11
49.9256320816
 21
46.5957311874
 31
0.0
 11
49.0842828765
 21
46.5996195958
 31
0.0
 11
48.1745812928
 21
46.6024518645
 31
0.0
 11
47.1915809188
 21
46.6040117749
 31
0.0
 11
46.1261187738
 21
46.6043519094
 31
0.0
 11
44.9685365779
 21
46.60403186
 31
0.0
 11
43.7102261404
 21
46.6037568082
 31
0.0
 11
42.3446994611
 21
46.6038041774
 31
0.0
 11
40.8657156942
 21
46.6042747909
 31
0.0
 11
39.266151022
 21
46.6053332562
 31
0.0
 11
37.537877029
 21
46.6070762879
 31
0.0
 11
35.6681647658
 21
46.6094285414
 31
0.0
 11
33.6415066168
 21
46.6121851706
 31
0.0
 11
31.4407767502
 21
46.6149744367
 31
0.0
 11
29.0603530792
 21
46.6173296916
 31
0.0
 11
26.4894022913
 21
46.6190034628
 31
0.0
 11
23.6793970894
 21
46.6196756252
 31
0.0
  0
SPLINE
  5
375
100
AcDbEntity
  8
RACCORDO
100
AcDbSpline
 62
253
  6
CONTINUOUS
 70
0
 71
3
 72
16
 73
12
 74
10
 42
0.0000001
 43
0.0000001
 44
0.0000000001
 12
-0.0749026171
 22
2.8884706176
 32
0.0
 13
-2.8884707131
 23
0.0748989342
 33
0.0
 40
0.0
 40
0.0
 40
0.0
 40
0.0
 40
0.1555514637
 40
0.2972823684
 40
0.426380072
 40
0.5441433576
 40
0.6521195188
 40
0.751219746
 40
0.8411441775
 40
0.9232393225
 40
1.0
 40
1.0
 40
1.0
 40
1.0
 10
58.3232021559
 20
44.6546379075
 30
0.0
 10
58.3193184187
 20
44.8044065183
 30
0.0
 10
58.2757719658
 20
45.0908423848
 30
0.0
 10
58.1235134792
 20
45.4753406922
 30
0.0
 10
57.917366709
 20
45.7905591796
 30
0.0
 10
57.6796844184
 20
46.038600401
 30
0.0
 10
57.4271577303
 20
46.2255905385
 30
0.0
 10
57.1730361871
 20
46.3591714912
 30
0.0
 10
56.9262910191
 20
46.4470682832
 30
0.0
 10
56.6914560491
 20
46.497641862
 30
0.0
 10
56.5385954675
 20
46.5110575614
 30
0.0
 10
56.4646884778
 20
46.5129739924
 30
0.0
 11
58.3232021559
 21
44.6546379075
 31
0.0
 11
58.2566053241
 21
45.0991335136
 31
0.0
 11
58.106140868
 21
45.4800136507
 31
0.0
 11
57.90194677
 21
45.7921817123
 31
0.0
 11
57.6665211447
 21
46.0378614687
 31
0.0
 11
57.4158527639
 21
46.2236130001
 31
0.0
 11
57.1623550919
 21
46.3567745587
 31
0.0
 11
56.9175744216
 21
46.44392258
 31
0.0
 11
56.6856435932
 21
46.4936846331
 31
0.0
 11
56.4646884778
 21
46.5129739924
 31
0.0
  0
SPLINE
  5
376
100
AcDbEntity
  8
RACCORDO
100
AcDbSpline
 62
253
  6
CONTINUOUS
 70
0
 71
3
 72
10
 73
6
 74
4
 42
0.0000001
 43
0.0000001
 44
0.0000000001
 12
10.500708203
 22
-0.0001961513
 32
0.0
 13
10.5007081688
 23
0.0008696625
 33
0.0
 40
0.0
 40
0.0
 40
0.0
 40
0.0
 40
0.3592656065
 40
0.6947035201
 40
1.0
 40
1.0
 40
1.0
 40
1.0
 10
23.679397051
 20
-24.1281466249
 30
0.0
 10
24.9369114847
 20
-24.128170115
 30
0.0
 10
27.3685379406
 20
-24.1272394228
 30
0.0
 10
30.8687734227
 20
-24.1301100122
 30
0.0
 10
33.1114951743
 20
-24.1294406877
 30
0.0
 10
34.1801049211
 20
-24.1293521861
 30
0.0
 11
23.679397051
 21
-24.1281466249
 31
0.0
 11
27.4519403495
 21
-24.1279897471
 31
0.0
 11
30.9742756735
 21
-24.1295089905
 31
0.0
 11
34.1801049211
 21
-24.1293521861
 31
0.0
  0
SPLINE
  5
377
100
AcDbEntity
  8
RACCORDO
100
AcDbSpline
 62
253
  6
CONTINUOUS
 70
0
 71
3
 72
10
 73
6
 74
4
 42
0.0000001
 43
0.0000001
 44
0.0000000001
 12
0.0019921211
 22
1.5938953044
 32
0.0
 13
0.001200807
 23
1.5938960969
 33
0.0
 40
0.0
 40
0.0
 40
0.0
 40
0.0
 40
0.4172778921
 40
0.8142057212
 40
1.0
 40
1.0
 40
1.0
 40
1.0
 10
34.1801051894
 20
-24.1293310953
 30
0.0
 10
34.1803822788
 20
-23.9076320044
 30
0.0
 10
34.1730268701
 20
-23.4750579242
 30
0.0
 10
34.1800402334
 20
-22.9437653433
 30
0.0
 10
34.1793227276
 20
-22.6341650474
 30
0.0
 10
34.1793970953
 20
-22.5354527888
 30
0.0
 11
34.1801051894
 21
-24.1293310953
 31
0.0
 11
34.1762747844
 21
-23.464244333
 31
0.0
 11
34.1792918641
 21
-22.83158963
 31
0.0
 11
34.1793970953
 21
-22.5354527888
 31
0.0
  0
SPLINE
  5
378
100
AcDbEntity
  8
RACCORDO
100
AcDbSpline
 62
253
  6
CONTINUOUS
 70
0
 71
3
 72
22
 73
18
 74
16
 42
0.0000001
 43
0.0000001
 44
0.0000000001
 12
3.1355862483
 22
0.0016706654
 32
0.0
 13
-0.0112633921
 23
3.1355664636
 33
0.0
 40
0.0
 40
0.0
 40
0.0
 40
0.0
 40
0.0757037458
 40
0.1452803696
 40
0.2090213642
 40
0.2688847153
 40
0.328936615
 40
0.3911084938
 40
0.4546650472
 40
0.5174030685
 40
0.5772994744
 40
0.6358130838
 40
0.69666533
 40
0.7626639188
 40
0.834944599
 40
0.9138902766
 40
1.0
 40
1.0
 40
1.0
 40
1.0
 10
34.1801051894
 20
-24.1293310953
 30
0.0
 10
34.2592303975
 20
-24.1292889368
 30
0.0
 10
34.4112358681
 20
-24.1199588894
 30
0.0
 10
34.626706706
 20
-24.0814644704
 30
0.0
 10
34.8209788017
 20
-24.025195149
 30
0.0
 10
34.999578228
 20
-23.9541003183
 30
0.0
 10
35.1693444301
 20
-23.8674497505
 30
0.0
 10
35.3332383294
 20
-23.7627717699
 30
0.0
 10
35.4889292223
 20
-23.6416258875
 30
0.0
 10
35.630653928
 20
-23.5078060964
 30
0.0
 10
35.7551653844
 20
-23.364790073
 30
0.0
 10
35.8646181326
 20
-23.2123929522
 30
0.0
 10
35.9623812775
 20
-23.0447760857
 30
0.0
 10
36.0487905931
 20
-22.8550122465
 30
0.0
 10
36.1197644155
 20
-22.6388105636
 30
0.0
 10
36.1683864592
 20
-22.394930143
 30
0.0
 10
36.1796122501
 20
-22.2221270788
 30
0.0
 10
36.1792889542
 20
-22.1321261585
 30
0.0
 11
34.1801051894
 21
-24.1293310953
 31
0.0
 11
34.4170377365
 21
-24.1148338173
 31
0.0
 11
34.6318070903
 21
-24.0765003715
 31
0.0
 11
34.8237876321
 21
-24.0209157021
 31
0.0
 11
34.9981955759
 21
-23.9515205681
 31
0.0
 11
35.1658884194
 21
-23.8658746487
 31
0.0
 11
35.3302921124
 21
-23.7611125284
 31
0.0
 11
35.487529176
 21
-23.6386713286
 31
0.0
 11
35.6304471784
 21
-23.5034921826
 31
0.0
 11
35.7537897767
 21
-23.3618611837
 31
0.0
 11
35.8608048138
 21
-23.2128287307
 31
0.0
 11
35.9569382122
 21
-23.048008012
 31
0.0
 11
36.0426877463
 21
-22.8596653472
 31
0.0
 11
36.1133766698
 21
-22.6443288059
 31
0.0
 11
36.1617512616
 21
-22.4015604936
 31
0.0
 11
36.1792889542
 21
-22.1321261585
 31
0.0
  0
SPLINE
  5
379
100
AcDbEntity
  8
RACCORDO
100
AcDbSpline
 62
253
  6
CONTINUOUS
 70
0
 71
3
 72
11
 73
7
 74
5
 42
0.0000001
 43
0.0000001
 44
0.0000000001
 12
-1.5960489931
 22
-0.0016379912
 32
0.0
 13
-1.5960492333
 23
-0.0013842693
 33
0.0
 40
0.0
 40
0.0
 40
0.0
 40
0.0
 40
0.3061039458
 40
0.6314778549
 40
0.8862129229
 40
1.0
 40
1.0
 40
1.0
 40
1.0
 10
36.1792889542
 20
-22.1321261585
 30
0.0
 10
36.016436656
 20
-22.1322932903
 30
0.0
 10
35.6804828382
 20
-22.1362239609
 30
0.0
 10
35.2090142101
 20
-22.1299545126
 30
0.0
 10
34.839847964
 20
-22.1316836023
 30
0.0
 10
34.6437882378
 20
-22.1315457181
 30
0.0
 10
34.5832516454
 20
-22.131598222
 30
0.0
 11
36.1792889542
 21
-22.1321261585
 31
0.0
 11
35.6907359147
 21
-22.1341306907
 31
0.0
 11
35.1714312074
 21
-22.1312006019
 31
0.0
 11
34.7648614781
 21
-22.1315301728
 31
0.0
 11
34.5832516454
 21
-22.131598222
 31
0.0
  0
SPLINE
  5
37A
100
AcDbEntity
  8
RACCORDO
100
AcDbSpline
 62
253
  6
CONTINUOUS
 70
0
 71
3
 72
18
 73
14
 74
12
 42
0.0000001
 43
0.0000001
 44
0.0000000001
 12
-0.0203934048
 22
10.5005095187
 32
0.0
 13
0.0000000706
 23
10.500529322
 33
0.0
 40
0.0
 40
0.0
 40
0.0
 40
0.0
 40
0.1175390408
 40
0.2314081766
 40
0.3475582028
 40
0.4622303602
 40
0.564618485
 40
0.65601257
 40
0.738540573
 40
0.81327162
 40
0.8811921302
 40
0.9431494473
 40
1.0
 40
1.0
 40
1.0
 40
1.0
 10
36.1792388391
 20
-22.1321257823
 30
0.0
 10
36.178439832
 20
-21.7207191768
 30
0.0
 10
36.1772715539
 20
-20.9107504445
 30
0.0
 10
36.1763982479
 20
-19.6942356737
 30
0.0
 10
36.1760641263
 20
-18.4877552535
 30
0.0
 10
36.1761151241
 20
-17.3214603779
 30
0.0
 10
36.1761753767
 20
-16.241815671
 30
0.0
 10
36.1761291627
 20
-15.2746811736
 30
0.0
 10
36.1760680081
 20
-14.404351331
 30
0.0
 10
36.1760125782
 20
-13.6161831412
 30
0.0
 10
36.1759727706
 20
-12.9000159808
 30
0.0
 10
36.1759503715
 20
-12.2464337047
 30
0.0
 10
36.1759455497
 20
-11.8305851979
 30
0.0
 10
36.175945551
 20
-11.6315982328
 30
0.0
 11
36.1792388391
 21
-22.1321257823
 31
0.0
 11
36.1774044215
 21
-20.8979050015
 31
0.0
 11
36.1764909779
 21
-19.702219151
 31
0.0
 11
36.1761282937
 21
-18.4825824483
 31
0.0
 11
36.176119566
 21
-17.2784640975
 31
0.0
 11
36.1761579086
 21
-16.2033345915
 31
0.0
 11
36.1761239006
 21
-15.2436483229
 31
0.0
 11
36.1760660811
 21
-14.3770606093
 31
0.0
 11
36.176012922
 21
-13.5923450608
 31
0.0
 11
36.1759742601
 21
-12.8791437527
 31
0.0
 11
36.1759523234
 21
-12.2285591279
 31
0.0
 11
36.175945551
 21
-11.6315982328
 31
0.0
  0
SPLINE
  5
37B
100
AcDbEntity
  8
RACCORDO
100
AcDbSpline
 62
253
  6
CONTINUOUS
 70
0
 71
3
 72
18
 73
14
 74
12
 42
0.0000001
 43
0.0000001
 44
0.0000000001
 12
0.0000004653
 22
10.5004447284
 32
0.0
 13
0.0206779274
 23
10.5004243685
 33
0.0
 40
0.0
 40
0.0
 40
0.0
 40
0.0
 40
0.1176399765
 40
0.2440366607
 40
0.3667251059
 40
0.4760668855
 40
0.5745206227
 40
0.6635997236
 40
0.7446423969
 40
0.8183753349
 40
0.8851163631
 40
0.9453600676
 40
1.0
 40
1.0
 40
1.0
 40
1.0
 10
36.1759455519
 20
11.8685418081
 30
0.0
 10
36.1759455701
 20
12.2802991653
 30
0.0
 10
36.1759661832
 20
13.1344636545
 30
0.0
 10
36.1760488655
 20
14.4180558871
 30
0.0
 10
36.176146653
 20
15.6726031985
 30
0.0
 10
36.1761706912
 20
16.8293460592
 30
0.0
 10
36.1760839481
 20
17.8684512268
 30
0.0
 10
36.1761117524
 20
18.8085053371
 30
0.0
 10
36.1763478602
 20
19.6620329547
 30
0.0
 10
36.17673577
 20
20.4373739439
 30
0.0
 10
36.1773203264
 20
21.1399153177
 30
0.0
 10
36.1781207765
 20
21.7756280978
 30
0.0
 10
36.1788618041
 20
22.177737191
 30
0.0
 10
36.1792384177
 20
22.3689846834
 30
0.0
 11
36.1759455519
 21
11.8685418081
 31
0.0
 11
36.1759734392
 21
13.1038138792
 31
0.0
 11
36.1760527394
 21
14.4310352729
 31
0.0
 11
36.176137314
 21
15.7193185078
 31
0.0
 11
36.1761504871
 21
16.8674558204
 31
0.0
 11
36.1761016624
 21
17.9012638454
 31
0.0
 11
36.1761529173
 21
18.8366340194
 31
0.0
 11
36.1763881611
 21
19.6876180984
 31
0.0
 11
36.1767929532
 21
20.4618466334
 31
0.0
 11
36.1773916845
 21
21.162656855
 31
0.0
 11
36.1782100164
 21
21.7952420154
 31
0.0
 11
36.1792384177
 21
22.3689846834
 31
0.0
  0
SPLINE
  5
37C
100
AcDbEntity
  8
RACCORDO
100
AcDbSpline
 62
253
  6
CONTINUOUS
 70
0
 71
3
 72
11
 73
7
 74
5
 42
0.0000001
 43
0.0000001
 44
0.0000000001
 12
-1.5960537137
 22
0.0018102414
 32
0.0
 13
-1.5960540067
 23
0.001530224
 33
0.0
 40
0.0
 40
0.0
 40
0.0
 40
0.0
 40
0.3061098326
 40
0.6314269927
 40
0.8861724234
 40
1.0
 40
1.0
 40
1.0
 40
1.0
 10
36.1792914809
 20
22.3689850068
 30
0.0
 10
36.0164355692
 20
22.3691697177
 30
0.0
 10
35.6805084307
 20
22.3735200548
 30
0.0
 10
35.2090624473
 20
22.3665833357
 30
0.0
 10
34.8398977449
 20
22.3684963373
 30
0.0
 10
34.6438103961
 20
22.3683436906
 30
0.0
 10
34.5832520762
 20
22.3684017512
 30
0.0
 11
36.1792914809
 21
22.3689850068
 31
0.0
 11
35.6907284692
 21
22.3712036693
 31
0.0
 11
35.1715145928
 21
22.367962068
 31
0.0
 11
34.7649271038
 21
22.3683265001
 31
0.0
 11
34.5832520762
 21
22.3684017512
 31
0.0
  0
SPLINE
  5
37D
100
AcDbEntity
  8
RACCORDO
100
AcDbSpline
 62
253
  6
CONTINUOUS
 70
0
 71
3
 72
22
 73
18
 74
16
 42
0.0000001
 43
0.0000001
 44
0.0000000001
 12
0.0113368253
 22
3.1360609809
 32
0.0
 13
-3.1360813288
 23
0.0009478496
 33
0.0
 40
0.0
 40
0.0
 40
0.0
 40
0.0
 40
0.0710579745
 40
0.1363566004
 40
0.2006002408
 40
0.266059284
 40
0.3324470921
 40
0.3967050815
 40
0.4575765588
 40
0.5200122506
 40
0.5848549125
 40
0.6488643924
 40
0.7106894685
 40
0.7743124501
 40
0.8434913262
 40
0.919257943
 40
1.0
 40
1.0
 40
1.0
 40
1.0
 10
36.1792914809
 20
22.3689850068
 30
0.0
 10
36.1795600049
 20
22.4432657205
 30
0.0
 10
36.172013914
 20
22.5859758579
 30
0.0
 10
36.1381471771
 20
22.7932820147
 30
0.0
 10
36.0846467707
 20
22.9903563978
 30
0.0
 10
36.0106946841
 20
23.1819335858
 30
0.0
 10
35.9170840844
 20
23.3647434338
 30
0.0
 10
35.8076748865
 20
23.5328237984
 30
0.0
 10
35.6847813157
 20
23.6859907449
 30
0.0
 10
35.5470617961
 20
23.8268642259
 30
0.0
 10
35.3935528708
 20
23.9555014859
 30
0.0
 10
35.2291457164
 20
24.068739029
 30
0.0
 10
35.0556049818
 20
24.1648188383
 30
0.0
 10
34.8684959427
 20
24.2455589388
 30
0.0
 10
34.6600335352
 20
24.3109026706
 30
0.0
 10
34.4278052134
 20
24.3554388145
 30
0.0
 10
34.2640019503
 20
24.3661114933
 30
0.0
 10
34.1795973979
 20
24.3661370037
 30
0.0
 11
36.1792914809
 21
22.3689850068
 31
0.0
 11
36.1674928357
 21
22.5915160401
 31
0.0
 11
36.1344954523
 21
22.7936218609
 31
0.0
 11
36.0817098996
 21
22.9880573828
 31
0.0
 11
36.0077879922
 21
23.1795709299
 31
0.0
 11
35.9128988151
 21
23.3648876163
 31
0.0
 11
35.8029707258
 21
23.5337823658
 31
0.0
 11
35.6834995077
 21
23.6826737384
 31
0.0
 11
35.5466633094
 21
23.8227267022
 31
0.0
 11
35.3909353464
 21
23.9534966713
 31
0.0
 11
35.225511823
 21
24.0672120242
 31
0.0
 11
35.055868973
 21
24.161095167
 31
0.0
 11
34.872675348
 21
24.2401588192
 31
0.0
 11
34.6656442412
 21
24.3050100336
 31
0.0
 11
34.4322783208
 21
24.3497201435
 31
0.0
 11
34.1795973979
 21
24.3661370037
 31
0.0
  0
SPLINE
  5
37E
100
AcDbEntity
  8
RACCORDO
100
AcDbSpline
 62
253
  6
CONTINUOUS
 70
0
 71
3
 72
22
 73
18
 74
16
 42
0.0000001
 43
0.0000001
 44
0.0000000001
 12
-10.5002005837
 22
0.0014462207
 32
0.0
 13
-10.5002006833
 23
0.0000003428
 33
0.0
 40
0.0
 40
0.0
 40
0.0
 40
0.0
 40
0.0356581711
 40
0.0748183333
 40
0.1177106632
 40
0.1644280448
 40
0.2150627856
 40
0.2697883699
 40
0.3288526542
 40
0.3925649351
 40
0.4612672401
 40
0.5353658998
 40
0.6152881405
 40
0.7013715793
 40
0.7938466278
 40
0.8931749897
 40
1.0
 40
1.0
 40
1.0
 40
1.0
 10
34.1795973137
 20
24.3661579702
 30
0.0
 10
34.0547913308
 20
24.3661751601
 30
0.0
 10
33.7929221694
 20
24.3662550148
 30
0.0
 10
33.3809269981
 20
24.3663928109
 30
0.0
 10
32.9302238523
 20
24.3665486776
 30
0.0
 10
32.4393588904
 20
24.3666310471
 30
0.0
 10
31.9070767405
 20
24.3665887025
 30
0.0
 10
31.3315796282
 20
24.3664285979
 30
0.0
 10
30.7103102853
 20
24.3661657358
 30
0.0
 10
30.0401215214
 20
24.3658161639
 30
0.0
 10
29.3173114577
 20
24.365417258
 30
0.0
 10
28.5377654268
 20
24.365042887
 30
0.0
 10
27.697384205
 20
24.3648068277
 30
0.0
 10
26.7926843668
 20
24.3647157856
 30
0.0
 10
25.820061804
 20
24.3647575716
 30
0.0
 10
24.7748423635
 20
24.3648851739
 30
0.0
 10
24.0532917713
 20
24.3649501464
 30
0.0
 10
23.6793970894
 20
24.3649501586
 30
0.0
 11
34.1795973137
 21
24.3661579702
 31
0.0
 11
33.8051793735
 21
24.3662530329
 31
0.0
 11
33.3939898334
 21
24.3663891856
 31
0.0
 11
32.9436117851
 21
24.366531255
 31
0.0
 11
32.4530699084
 21
24.3666093369
 31
0.0
 11
31.9213949699
 21
24.3665729222
 31
0.0
 11
31.3467653729
 21
24.3664194742
 31
0.0
 11
30.7265785874
 21
24.3661628233
 31
0.0
 11
30.0575869393
 21
24.365822025
 31
0.0
 11
29.3361990524
 21
24.3654359696
 31
0.0
 11
28.5581483377
 21
24.3650775487
 31
0.0
 11
27.7189488057
 21
24.3648371621
 31
0.0
 11
26.8150554276
 21
24.3647388949
 31
0.0
 11
25.8440488613
 21
24.3647688878
 31
0.0
 11
24.8010811328
 21
24.3648766044
 31
0.0
 11
23.6793970894
 21
24.3649501586
 31
0.0
  0
SPLINE
  5
37F
100
AcDbEntity
  8
RACCORDO
100
AcDbSpline
 62
253
  6
CONTINUOUS
 70
0
 71
3
 72
26
 73
22
 74
20
 42
0.0000001
 43
0.0000001
 44
0.0000000001
 12
-10.5003519431
 22
-0.0000007004
 32
0.0
 13
-10.5003517786
 23
-0.0018590807
 33
0.0
 40
0.0
 40
0.0
 40
0.0
 40
0.0
 40
0.0933487131
 40
0.1793769128
 40
0.2587415549
 40
0.3320379715
 40
0.3997833189
 40
0.4623590889
 40
0.5198382175
 40
0.5720967697
 40
0.6195112635
 40
0.6634082763
 40
0.7051678447
 40
0.7460925214
 40
0.7863792485
 40
0.8249259744
 40
0.8613938824
 40
0.896425838
 40
0.9307141759
 40
0.9651749184
 40
1.0
 40
1.0
 40
1.0
 40
1.0
 10
0.1792870526
 20
24.3649501592
 30
0.0
 10
-0.1474443942
 20
24.3649501374
 30
0.0
 10
-0.775284632
 20
24.3649006842
 30
0.0
 10
-1.6809104212
 20
24.3647903037
 30
0.0
 10
-2.5163508257
 20
24.3647254289
 30
0.0
 10
-3.2877991055
 20
24.364742126
 30
0.0
 10
-4.0004843558
 20
24.3648496848
 30
0.0
 10
-4.6578072222
 20
24.3650456128
 30
0.0
 10
-5.2609244545
 20
24.3653187217
 30
0.0
 10
-5.8109754238
 20
24.3656117584
 30
0.0
 10
-6.3134873978
 20
24.3658855032
 30
0.0
 10
-6.7792517098
 20
24.3661257436
 30
0.0
 10
-7.2223009178
 20
24.3663254134
 30
0.0
 10
-7.6527137194
 20
24.3664813352
 30
0.0
 10
-8.0718812112
 20
24.366584232
 30
0.0
 10
-8.4754495009
 20
24.3666251615
 30
0.0
 10
-8.8606254751
 20
24.3665910934
 30
0.0
 10
-9.230896579
 20
24.3664936309
 30
0.0
 10
-9.5941423581
 20
24.3663667439
 30
0.0
 10
-9.9566640576
 20
24.3662534178
 30
0.0
 10
-10.1991725591
 20
24.3661769105
 30
0.0
 10
-10.3210644282
 20
24.3661553296
 30
0.0
 11
0.1792870526
 21
24.3649501592
 31
0.0
 11
-0.8009072861
 21
24.3648913348
 31
0.0
 11
-1.7042336554
 21
24.3647943883
 31
0.0
 11
-2.5375903276
 21
24.3647381195
 31
0.0
 11
-3.3072284973
 21
24.3647597819
 31
0.0
 11
-4.0185784794
 21
24.3648705534
 31
0.0
 11
-4.6756460572
 21
24.3650685974
 31
0.0
 11
-5.2791970782
 21
24.3653354174
 31
0.0
 11
-5.8279301934
 21
24.3656219425
 31
0.0
 11
-6.3257989934
 21
24.3658897148
 31
0.0
 11
-6.7867330174
 21
24.3661244745
 31
0.0
 11
-7.2252231393
 21
24.3663202039
 31
0.0
 11
-7.6549466204
 21
24.3664737144
 31
0.0
 11
-8.0779714212
 21
24.366575346
 31
0.0
 11
-8.4827256078
 21
24.3666127363
 31
0.0
 11
-8.8656514744
 21
24.3665792708
 31
0.0
 11
-9.2334993265
 21
24.3664876109
 31
0.0
 11
-9.5935389224
 21
24.366369152
 31
0.0
 11
-9.9553888284
 21
24.3662536438
 31
0.0
 11
-10.3210644282
 21
24.3661553296
 31
0.0
  0
SPLINE
  5
380
100
AcDbEntity
  8
RACCORDO
100
AcDbSpline
 62
253
  6
CONTINUOUS
 70
0
 71
3
 72
10
 73
6
 74
4
 42
0.0000001
 43
0.0000001
 44
0.0000000001
 12
-0.0014319856
 22
-1.5938945215
 32
0.0
 13
-0.0012008042
 23
-1.5938947125
 33
0.0
 40
0.0
 40
0.0
 40
0.0
 40
0.0
 40
0.4172732727
 40
0.8142040882
 40
1.0
 40
1.0
 40
1.0
 40
1.0
 10
-10.3210646688
 20
24.3661346153
 30
0.0
 10
-10.3212638452
 20
24.1444380875
 30
0.0
 10
-10.3143797983
 20
23.711863376
 30
0.0
 10
-10.3212277833
 20
23.1805719179
 30
0.0
 10
-10.3205285484
 20
22.8709693636
 30
0.0
 10
-10.3206029165
 20
22.7722563231
 30
0.0
 11
-10.3210646688
 21
24.3661346153
 31
0.0
 11
-10.3174803241
 21
23.7010544221
 31
0.0
 11
-10.3204976844
 21
23.0683955099
 31
0.0
 11
-10.3206029165
 21
22.7722563231
 31
0.0
  0
SPLINE
  5
381
100
AcDbEntity
  8
RACCORDO
100
AcDbSpline
 62
253
  6
CONTINUOUS
 70
0
 71
3
 72
22
 73
18
 74
16
 42
0.0000001
 43
0.0000001
 44
0.0000000001
 12
-3.135837203
 22
-0.0013549804
 32
0.0
 13
0.0112551502
 23
-3.1358172972
 33
0.0
 40
0.0
 40
0.0
 40
0.0
 40
0.0
 40
0.0644923268
 40
0.128304107
 40
0.1928899882
 40
0.2553959426
 40
0.3163096775
 40
0.3792186271
 40
0.4440671578
 40
0.5084132988
 40
0.5699426904
 40
0.6296781915
 40
0.6914348659
 40
0.7583735409
 40
0.8318115645
 40
0.9121804256
 40
1.0
 40
1.0
 40
1.0
 40
1.0
 10
-10.3210646688
 20
24.3661346153
 30
0.0
 10
-10.388477148
 20
24.3661054867
 30
0.0
 10
-10.5226901208
 20
24.3590974742
 30
0.0
 10
-10.7222401347
 20
24.328064019
 30
0.0
 10
-10.9156386834
 20
24.2774949045
 30
0.0
 10
-11.1001523552
 20
24.2089715482
 30
0.0
 10
-11.2756709559
 20
24.1238686734
 30
0.0
 10
-11.4441496734
 20
24.0207606771
 30
0.0
 10
-11.6048740222
 20
23.8998813155
 30
0.0
 10
-11.7521652336
 20
23.7650424321
 30
0.0
 10
-11.8816717731
 20
23.6201590044
 30
0.0
 10
-11.995100742
 20
23.4657539166
 30
0.0
 10
-12.0960374331
 20
23.2962528031
 30
0.0
 10
-12.1852259788
 20
23.104276748
 30
0.0
 10
-12.2586669962
 20
22.8849704762
 30
0.0
 10
-12.3091412572
 20
22.6368334225
 30
0.0
 10
-12.3208242496
 20
22.4607250724
 30
0.0
 10
-12.3204947754
 20
22.3689296923
 30
0.0
 11
-10.3210646688
 21
24.3661346153
 31
0.0
 11
-10.523028368
 21
24.3556154404
 31
0.0
 11
-10.7207587805
 21
24.3248901443
 31
0.0
 11
-10.9167072423
 21
24.2736755315
 31
0.0
 11
-11.1004664003
 21
24.2054706193
 31
0.0
 11
-11.2723228924
 21
24.1220901924
 31
0.0
 11
-11.4406730307
 21
24.0192574698
 31
0.0
 11
-11.6031987386
 21
23.8970346067
 31
0.0
 11
-11.7518885898
 21
23.7606303922
 31
0.0
 11
-11.8804891106
 21
23.6167897447
 31
0.0
 11
-11.9913783759
 21
23.4658173565
 31
0.0
 11
-12.0904630543
 21
23.2994262683
 31
0.0
 11
-12.1788936388
 21
23.1090536365
 31
0.0
 11
-12.2520201136
 21
22.8906826943
 31
0.0
 11
-12.3022301403
 21
22.6437112535
 31
0.0
 11
-12.3204947754
 21
22.3689296923
 31
0.0
  0
SPLINE
  5
382
100
AcDbEntity
  8
RACCORDO
100
AcDbSpline
 62
253
  6
CONTINUOUS
 70
0
 71
3
 72
11
 73
7
 74
5
 42
0.0000001
 43
0.0000001
 44
0.0000000001
 12
1.5960489931
 22
0.0016379897
 32
0.0
 13
1.5960492333
 23
0.0013842684
 33
0.0
 40
0.0
 40
0.0
 40
0.0
 40
0.0
 40
0.3061039674
 40
0.6314778681
 40
0.8862129271
 40
1.0
 40
1.0
 40
1.0
 40
1.0
 10
-12.3204947754
 20
22.3689296923
 30
0.0
 10
-12.1576424658
 20
22.369096824
 30
0.0
 10
-11.8216886408
 20
22.3730274939
 30
0.0
 10
-11.3502200106
 20
22.3667580477
 30
0.0
 10
-10.981053776
 20
22.3684871366
 30
0.0
 10
-10.7849940568
 20
22.3683492524
 30
0.0
 10
-10.7244574666
 20
22.3684017563
 30
0.0
 11
-12.3204947754
 21
22.3689296923
 31
0.0
 11
-11.8319417014
 21
22.3709342242
 31
0.0
 11
-11.3126370075
 21
22.3680041365
 31
0.0
 11
-10.9060672927
 21
22.3683337071
 31
0.0
 11
-10.7244574666
 21
22.3684017563
 31
0.0
  0
SPLINE
  5
383
100
AcDbEntity
  8
RACCORDO
100
AcDbSpline
 62
253
  6
CONTINUOUS
 70
0
 71
3
 72
18
 73
14
 74
12
 42
0.0000001
 43
0.0000001
 44
0.0000000001
 12
0.020393405
 22
-10.5005095182
 32
0.0
 13
-0.0000000706
 23
-10.5005293216
 33
0.0
 40
0.0
 40
0.0
 40
0.0
 40
0.0
 40
0.117539126
 40
0.2314083935
 40
0.3475585358
 40
0.4622306943
 40
0.5646187399
 40
0.6560127602
 40
0.7385407151
 40
0.8132717193
 40
0.8811921911
 40
0.9431494746
 40
1.0
 40
1.0
 40
1.0
 40
1.0
 10
-12.3204446603
 20
22.3689293161
 30
0.0
 10
-12.3196456526
 20
21.9575224123
 30
0.0
 10
-12.3184773738
 20
21.1475529207
 30
0.0
 10
-12.3176040678
 20
19.9310369846
 30
0.0
 10
-12.3172699473
 20
18.7245556934
 30
0.0
 10
-12.3173209456
 20
17.5582606849
 30
0.0
 10
-12.3173811979
 20
16.4786164775
 30
0.0
 10
-12.3173349837
 20
15.5114826524
 30
0.0
 10
-12.3172738292
 20
14.6411533545
 30
0.0
 10
-12.3172183993
 20
13.8529856178
 30
0.0
 10
-12.3171785918
 20
13.1368188591
 30
0.0
 10
-12.3171561927
 20
12.4832369305
 30
0.0
 10
-12.3171513709
 20
12.0673886366
 30
0.0
 10
-12.3171513722
 20
11.8684017671
 30
0.0
 11
-12.3204446603
 21
22.3689293161
 31
0.0
 11
-12.3186102418
 21
21.1347076403
 31
0.0
 11
-12.317696798
 21
19.939020407
 31
0.0
 11
-12.3173341145
 21
18.7193824863
 31
0.0
 11
-12.3173253874
 21
17.5152641232
 31
0.0
 11
-12.3173637298
 21
16.4401354491
 31
0.0
 11
-12.3173297217
 21
15.4804498593
 31
0.0
 11
-12.3172719022
 21
14.6138626516
 31
0.0
 11
-12.3172187431
 21
13.8291475526
 31
0.0
 11
-12.3171800813
 21
13.1159466482
 31
0.0
 11
-12.3171581446
 21
12.4653623756
 31
0.0
 11
-12.3171513722
 21
11.8684017671
 31
0.0
  0
SPLINE
  5
384
100
AcDbEntity
  8
RACCORDO
100
AcDbSpline
 62
253
  6
CONTINUOUS
 70
0
 71
3
 72
19
 73
15
 74
13
 42
0.0000001
 43
0.0000001
 44
0.0000000001
 12
0.0000000017
 22
-10.5004024252
 32
0.0
 13
-0.0204471214
 23
-10.5003825171
 33
0.0
 40
0.0
 40
0.0
 40
0.0
 40
0.0
 40
0.0595271797
 40
0.1246733691
 40
0.1956073549
 40
0.2725689771
 40
0.3560110864
 40
0.4465690885
 40
0.5450724352
 40
0.6488672869
 40
0.7495980852
 40
0.84189717
 40
0.9255223804
 40
1.0
 40
1.0
 40
1.0
 40
1.0
 10
-12.3171513729
 20
-11.6317249202
 30
0.0
 10
-12.3171513729
 20
-11.8400780343
 30
0.0
 10
-12.3171566755
 20
-12.2764515499
 30
0.0
 10
-12.317181195
 20
-12.9611035307
 30
0.0
 10
-12.3172243492
 20
-13.7067783983
 30
0.0
 10
-12.3172816853
 20
-14.5164914392
 30
0.0
 10
-12.3173440723
 20
-15.3948911688
 30
0.0
 10
-12.3173765518
 20
-16.3486898264
 30
0.0
 10
-12.3173191462
 20
-17.3737258109
 30
0.0
 10
-12.3172820253
 20
-18.4343679498
 30
0.0
 10
-12.3175216358
 20
-19.4732943334
 30
0.0
 10
-12.3181239718
 20
-20.4416241059
 30
0.0
 10
-12.319021208
 20
-21.3180639773
 30
0.0
 10
-12.3199369539
 20
-21.8714443747
 30
0.0
 10
-12.3204445716
 20
-22.1321255396
 30
0.0
 11
-12.3171513729
 21
-11.6317249202
 31
0.0
 11
-12.3171587904
 21
-12.2567842623
 31
0.0
 11
-12.3171828776
 21
-12.9408454665
 31
0.0
 11
-12.3172246689
 21
-13.6856808624
 31
0.0
 11
-12.3172801067
 21
-14.4938088652
 31
0.0
 11
-12.3173371254
 21
-15.36998459
 31
0.0
 11
-12.3173619323
 21
-16.3208800541
 31
0.0
 11
-12.3173237097
 21
-17.3552048338
 31
0.0
 11
-12.3173306242
 21
-18.4450925471
 31
0.0
 11
-12.3176004549
 21
-19.5028064308
 31
0.0
 11
-12.3182109408
 21
-20.4719837722
 31
0.0
 11
-12.3191516895
 21
-21.350081631
 31
0.0
 11
-12.3204445716
 21
-22.1321255396
 31
0.0
  0
SPLINE
  5
385
100
AcDbEntity
  8
RACCORDO
100
AcDbSpline
 62
253
  6
CONTINUOUS
 70
0
 71
3
 72
11
 73
7
 74
5
 42
0.0000001
 43
0.0000001
 44
0.0000000001
 12
1.5960487907
 22
-0.0016371889
 32
0.0
 13
1.5960490301
 23
-0.0013842831
 33
0.0
 40
0.0
 40
0.0
 40
0.0
 40
0.0
 40
0.306104221
 40
0.6314242984
 40
0.8861704769
 40
1.0
 40
1.0
 40
1.0
 40
1.0
 10
-12.3204944964
 20
-22.132125816
 30
0.0
 10
-12.1576420725
 20
-22.1322928661
 30
0.0
 10
-11.8217167905
 20
-22.1362240401
 30
0.0
 10
-11.3502708077
 20
-22.1299541649
 30
0.0
 10
-10.9811047542
 20
-22.131683692
 30
0.0
 10
-10.7850165601
 20
-22.1315456951
 30
0.0
 10
-10.7244573934
 20
-22.1315982192
 30
0.0
 11
-12.3204944964
 21
-22.132125816
 31
0.0
 11
-11.8319410809
 21
-22.1341305919
 31
0.0
 11
-11.3127223593
 21
-22.1312004715
 31
0.0
 11
-10.906134949
 21
-22.1315301473
 31
0.0
 11
-10.7244573934
 21
-22.1315982192
 31
0.0
  0
SPLINE
  5
386
100
AcDbEntity
  8
RACCORDO
100
AcDbSpline
 62
253
  6
CONTINUOUS
 70
0
 71
3
 72
23
 73
19
 74
17
 42
0.0000001
 43
0.0000001
 44
0.0000000001
 12
-0.0112390499
 22
-3.1360503394
 32
0.0
 13
3.1360701523
 23
-0.0014309038
 33
0.0
 40
0.0
 40
0.0
 40
0.0
 40
0.0
 40
0.0688571849
 40
0.1319341337
 40
0.1933533205
 40
0.2556178569
 40
0.3181981205
 40
0.3781496866
 40
0.4365418
 40
0.4970710612
 40
0.5602138486
 40
0.6221523216
 40
0.6814803453
 40
0.7415851573
 40
0.8053016315
 40
0.8726367746
 40
0.9367976592
 40
1.0
 40
1.0
 40
1.0
 40
1.0
 10
-12.3204944964
 20
-22.132125816
 30
0.0
 10
-12.3207524595
 20
-22.204105682
 30
0.0
 10
-12.3136955266
 20
-22.342177423
 30
0.0
 10
-12.2821245331
 20
-22.5421428621
 30
0.0
 10
-12.2326614337
 20
-22.7313307086
 30
0.0
 10
-12.1650042114
 20
-22.9142500897
 30
0.0
 10
-12.080210713
 20
-23.0881808869
 30
0.0
 10
-11.9810617347
 20
-23.2495744959
 30
0.0
 10
-11.8685068977
 20
-23.3992199644
 30
0.0
 10
-11.7401392032
 20
-23.5401353679
 30
0.0
 10
-11.5958069103
 20
-23.6702705614
 30
0.0
 10
-11.4410654766
 20
-23.785680431
 30
0.0
 10
-11.2791833068
 20
-23.8848882653
 30
0.0
 10
-11.1069995801
 20
-23.9692523234
 30
0.0
 10
-10.9196356317
 20
-24.039648128
 30
0.0
 10
-10.7218610768
 20
-24.0915123848
 30
0.0
 10
-10.5203661573
 20
-24.1224802312
 30
0.0
 10
-10.3871326298
 20
-24.1293010649
 30
0.0
 10
-10.3210636383
 20
-24.1293312104
 30
0.0
 11
-12.3204944964
 21
-22.132125816
 31
0.0
 11
-12.3094407226
 21
-22.3477837002
 31
0.0
 11
-12.2786079564
 21
-22.543179767
 31
0.0
 11
-12.2298845952
 21
-22.7295303325
 31
0.0
 11
-12.1621497001
 21
-22.9126717662
 31
0.0
 11
-12.0761546566
 21
-23.0890841129
 31
0.0
 11
-11.9777401147
 21
-23.2492815434
 31
0.0
 11
-11.8676777138
 21
-23.39563678
 31
0.0
 11
-11.7398329189
 21
-23.5359538154
 31
0.0
 11
-11.5929097336
 21
-23.6687152169
 31
0.0
 11
-11.4371848151
 21
-23.784819716
 31
0.0
 11
-11.2784743331
 21
-23.8819183226
 31
0.0
 11
-11.1092270165
 21
-23.9648937959
 31
0.0
 11
-10.9221613272
 21
-24.0351376716
 31
0.0
 11
-10.7178940505
 21
-24.0886792459
 31
0.0
 11
-10.5190126994
 21
-24.1192226918
 31
0.0
 11
-10.3210636383
 21
-24.1293312104
 31
0.0
  0
SPLINE
  5
387
100
AcDbEntity
  8
RACCORDO
100
AcDbSpline
 62
253
  6
CONTINUOUS
 70
0
 71
3
 72
10
 73
6
 74
4
 42
0.0000001
 43
0.0000001
 44
0.0000000001
 12
-0.0014301601
 22
1.5938947512
 32
0.0
 13
-0.0012006626
 23
1.5938949406
 33
0.0
 40
0.0
 40
0.0
 40
0.0
 40
0.0
 40
0.4172520355
 40
0.8141754126
 40
1.0
 40
1.0
 40
1.0
 40
1.0
 10
-10.3210636383
 20
-24.1293312104
 30
0.0
 10
-10.3212625507
 20
-23.9076459339
 30
0.0
 10
-10.3143746546
 20
-23.4750864062
 30
0.0
 10
-10.3212284702
 20
-22.9437948895
 30
0.0
 10
-10.3205285448
 20
-22.6341810056
 30
0.0
 10
-10.3206029157
 20
-22.5354527157
 30
0.0
 11
-10.3210636383
 21
-24.1293312104
 31
0.0
 11
-10.3174772985
 21
-23.464284783
 31
0.0
 11
-10.3204976309
 21
-22.8316376507
 31
0.0
 11
-10.3206029157
 21
-22.5354527157
 31
0.0
  0
SPLINE
  5
388
100
AcDbEntity
  8
RACCORDO
100
AcDbSpline
 62
253
  6
CONTINUOUS
 70
0
 71
3
 72
17
 73
13
 74
11
 42
0.0000001
 43
0.0000001
 44
0.0000000001
 12
10.5004607427
 22
-0.0020029723
 32
0.0
 13
10.5004609337
 23
0.0000002553
 33
0.0
 40
0.0
 40
0.0
 40
0.0
 40
0.0
 40
0.0689460712
 40
0.1436706086
 40
0.2243097265
 40
0.3111755417
 40
0.4049221582
 40
0.5065035373
 40
0.6166531598
 40
0.7355227261
 40
0.862875581
 40
1.0
 40
1.0
 40
1.0
 40
1.0
 10
-10.3210633956
 20
-24.1293521155
 30
0.0
 10
-10.0797415575
 20
-24.1293981478
 30
0.0
 10
-9.5768723866
 20
-24.1295880472
 30
0.0
 10
-8.7917539123
 20
-24.1298337135
 30
0.0
 10
-7.9439135284
 20
-24.1297909573
 30
0.0
 10
-7.0294930186
 20
-24.1294554694
 30
0.0
 10
-6.0417714578
 20
-24.1289393518
 30
0.0
 10
-4.9725530198
 20
-24.128350237
 30
0.0
 10
-3.8154002853
 20
-24.1279683358
 30
0.0
 10
-2.5680433682
 20
-24.1279000482
 30
0.0
 10
-1.2262705362
 20
-24.1280392916
 30
0.0
 10
-0.3005594456
 20
-24.128146636
 30
0.0
 10
0.1793970894
 20
-24.1281466243
 30
0.0
 11
-10.3210633956
 21
-24.1293521155
 31
0.0
 11
-9.5970979017
 21
-24.1295729133
 31
0.0
 11
-8.8124558437
 21
-24.1297815302
 31
0.0
 11
-7.9657079372
 21
-24.1297490567
 31
0.0
 11
-7.0535768906
 21
-24.129441545
 31
0.0
 11
-6.069194329
 21
-24.1289492018
 31
0.0
 11
-5.002543165
 21
-24.1284044494
 31
0.0
 11
-3.8459214179
 21
-24.1280294559
 31
0.0
 11
-2.5977361846
 21
-24.127933515
 31
0.0
 11
-1.2604725115
 21
-24.1280383573
 31
0.0
 11
0.1793970894
 21
-24.1281466243
 31
0.0
  0
SPLINE
  5
389
100
AcDbEntity
  8
RACCORDO
100
AcDbSpline
 62
253
  6
CONTINUOUS
 70
0
 71
3
 72
10
 73
6
 74
4
 42
0.0000001
 43
0.0000001
 44
0.0000000001
 12
-0.005562845
 22
0.8759252347
 32
0.0
 13
-0.495213563
 23
0.7225230025
 33
0.0
 40
0.0
 40
0.0
 40
0.0
 40
0.0
 40
0.4927440849
 40
0.8511973471
 40
1.0
 40
1.0
 40
1.0
 40
1.0
 10
56.464688484
 20
46.5129740139
 30
0.0
 10
56.4637747976
 20
46.6568430066
 30
0.0
 10
56.4691015469
 20
46.9095112297
 30
0.0
 10
56.4339205973
 20
47.1894021146
 30
0.0
 10
56.45396012
 20
47.351779955
 30
0.0
 10
56.4293970894
 20
47.3876177349
 30
0.0
 11
56.464688484
 21
46.5129740139
 31
0.0
 11
56.4581218421
 21
46.9445397403
 31
0.0
 11
56.4454631499
 21
47.2582690504
 31
0.0
 11
56.4293970894
 21
47.3876177349
 31
0.0
  0
SPLINE
  5
38A
100
AcDbEntity
  8
RACCORDO
100
AcDbSpline
 62
253
  6
CONTINUOUS
 70
0
 71
3
 72
10
 73
6
 74
4
 42
0.0000001
 43
0.0000001
 44
0.0000000001
 12
0.8767278512
 22
-0.0056899876
 32
0.0
 13
0.7170309479
 23
-0.5045301981
 33
0.0
 40
0.0
 40
0.0
 40
0.0
 40
0.0
 40
0.4926642807
 40
0.8511329645
 40
1.0
 40
1.0
 40
1.0
 40
1.0
 10
58.3232019478
 20
44.6546378462
 30
0.0
 10
58.4671794465
 20
44.6537034283
 30
0.0
 10
58.7202190775
 20
44.6590559881
 30
0.0
 10
58.9998987951
 20
44.6232754568
 30
0.0
 10
59.162998596
 20
44.643437736
 30
0.0
 10
59.1985793532
 20
44.6184017644
 30
0.0
 11
58.3232019478
 21
44.6546378462
 31
0.0
 11
58.7550910322
 21
44.6479029892
 31
0.0
 11
59.069108205
 21
44.6349042858
 31
0.0
 11
59.1985793532
 21
44.6184017644
 31
0.0
  0
SPLINE
  5
38B
100
AcDbEntity
  8
RACCORDO
100
AcDbSpline
 62
253
  6
CONTINUOUS
 70
0
 71
3
 72
41
 73
37
 74
35
 42
0.0000001
 43
0.0000001
 44
0.0000000001
 12
-0.063271914
 22
32.7499626106
 32
0.0
 13
0.000000414
 23
32.7500237303
 33
0.0
 40
0.0
 40
0.0
 40
0.0
 40
0.0
 40
0.0100866182
 40
0.0204026167
 40
0.030859108
 40
0.0412357876
 40
0.051234899
 40
0.0609303497
 40
0.07061794
 40
0.0805596624
 40
0.0910025322
 40
0.1021535306
 40
0.1142261402
 40
0.1274331653
 40
0.1419799857
 40
0.1579763441
 40
0.175387446
 40
0.1941767092
 40
0.2143477067
 40
0.2361026049
 40
0.2597079364
 40
0.2854270059
 40
0.3135233073
 40
0.344248898
 40
0.3778008956
 40
0.4143688643
 40
0.4541539528
 40
0.4973228334
 40
0.5440028845
 40
0.5943634675
 40
0.6488538514
 40
0.707998331
 40
0.7722748953
 40
0.8420993317
 40
0.9178677976
 40
1.0
 40
1.0
 40
1.0
 40
1.0
 10
59.1985641434
 20
-44.3816206879
 30
0.0
 10
59.1983514101
 20
-44.2715085645
 30
0.0
 10
59.197971406
 20
-44.0487801527
 30
0.0
 10
59.1975462763
 20
-43.7119015712
 30
0.0
 10
59.1972654683
 20
-43.371856332
 30
0.0
 10
59.1971112561
 20
-43.0352703711
 30
0.0
 10
59.1970250807
 20
-42.7069924226
 30
0.0
 10
59.1969361138
 20
-42.3862370388
 30
0.0
 10
59.1968094006
 20
-42.0661081642
 30
0.0
 10
59.1966621556
 20
-41.7378199664
 30
0.0
 10
59.1964985524
 20
-41.3935562248
 30
0.0
 10
59.1963288121
 20
-41.0260302815
 30
0.0
 10
59.1961522385
 20
-40.6283289546
 30
0.0
 10
59.1959711087
 20
-40.1935565423
 30
0.0
 10
59.1957906396
 20
-39.7159498377
 30
0.0
 10
59.1956211053
 20
-39.1924485879
 30
0.0
 10
59.1954760528
 20
-38.6226339617
 30
0.0
 10
59.1953576639
 20
-38.0072461515
 30
0.0
 10
59.1952643923
 20
-37.3444385262
 30
0.0
 10
59.1951873839
 20
-36.6290554475
 30
0.0
 10
59.1951230424
 20
-35.8531058712
 30
0.0
 10
59.1950727672
 20
-35.0079292592
 30
0.0
 10
59.1950340264
 20
-34.0850230947
 30
0.0
 10
59.1950021134
 20
-33.0766074021
 30
0.0
 10
59.1949651479
 20
-31.975709274
 30
0.0
 10
59.1949185588
 20
-30.775911557
 30
0.0
 10
59.194861742
 20
-29.4711294589
 30
0.0
 10
59.1947925575
 20
-28.0559570482
 30
0.0
 10
59.1947109774
 20
-26.5253354063
 30
0.0
 10
59.1946211514
 20
-24.8711205972
 30
0.0
 10
59.1945319447
 20
-23.0808356775
 30
0.0
 10
59.1944455243
 20
-21.1386345179
 30
0.0
 10
59.1943558523
 20
-19.029036497
 30
0.0
 10
59.194265152
 20
-16.737959829
 30
0.0
 10
59.1941891584
 20
-14.2519589695
 30
0.0
 10
59.1941657555
 20
-12.5282087586
 30
0.0
 10
59.1941657668
 20
-11.6315982324
 30
0.0
 11
59.1985641434
 21
-44.3816206879
 31
0.0
 11
59.1979998573
 21
-44.0512841831
 31
0.0
 11
59.1975726056
 21
-43.7134352584
 31
0.0
 11
59.1972858117
 21
-43.3709850424
 31
0.0
 11
59.1971206549
 21
-43.0311485782
 31
0.0
 11
59.197023387
 21
-42.7036774582
 31
0.0
 11
59.1969298188
 21
-42.3861512315
 31
0.0
 11
59.1968077479
 21
-42.0688824427
 31
0.0
 11
59.196663196
 21
-41.7432908301
 31
0.0
 11
59.1965029638
 21
-41.4012866322
 31
0.0
 11
59.1963345027
 21
-41.0360912098
 31
0.0
 11
59.1961594599
 21
-40.6407129976
 31
0.0
 11
59.1959798604
 21
-40.2081826489
 31
0.0
 11
59.1958007042
 21
-39.7317739697
 31
0.0
 11
59.1956319003
 21
-39.2078928802
 31
0.0
 11
59.195485567
 21
-38.6376788979
 31
0.0
 11
59.1953656759
 21
-38.0223300946
 31
0.0
 11
59.1952703296
 21
-37.3617294538
 31
0.0
 11
59.1951923749
 21
-36.6492560258
 31
0.0
 11
59.1951278459
 21
-35.8761808602
 31
0.0
 11
59.1950766601
 21
-35.0338807257
 31
0.0
 11
59.1950367447
 21
-34.1137261906
 31
0.0
 11
59.1950027803
 21
-33.1074623671
 31
0.0
 11
59.1949653327
 21
-32.0086336486
 31
0.0
 11
59.1949190212
 21
-30.8110318067
 31
0.0
 11
59.1948622377
 21
-29.508069216
 31
0.0
 11
59.1947934326
 21
-28.0942873545
 31
0.0
 11
59.1947128731
 21
-26.5655145746
 31
0.0
 11
59.1946247807
 21
-24.91620429
 31
0.0
 11
59.1945359973
 21
-23.1316429265
 31
0.0
 11
59.1944486328
 21
-21.1946598156
 31
0.0
 11
59.1943594081
 21
-19.0896008113
 31
0.0
 11
59.1942710182
 21
-16.8028488636
 31
0.0
 11
59.1941980261
 21
-14.3214298109
 31
0.0
 11
59.1941657668
 21
-11.6315982324
 31
0.0
  0
SPLINE
  5
38C
100
AcDbEntity
  8
RACCORDO
100
AcDbSpline
 62
253
  6
CONTINUOUS
 70
0
 71
3
 72
36
 73
32
 74
30
 42
0.0000001
 43
0.0000001
 44
0.0000000001
 12
-32.7499436564
 22
-0.0614847981
 32
0.0
 13
-32.7500013722
 23
0.0000002148
 33
0.0
 40
0.0
 40
0.0
 40
0.0
 40
0.0
 40
0.0094970508
 40
0.0192654947
 40
0.0295410357
 40
0.0405676335
 40
0.0526230884
 40
0.0659547242
 40
0.0806364293
 40
0.0966577453
 40
0.1140337837
 40
0.1328369827
 40
0.1531368697
 40
0.1750290663
 40
0.1987038873
 40
0.2243468004
 40
0.2520867976
 40
0.2820791995
 40
0.3146024397
 40
0.3499453461
 40
0.3883693801
 40
0.430070288
 40
0.4752395533
 40
0.5240924058
 40
0.5768722522
 40
0.6339666111
 40
0.6958489244
 40
0.7630410883
 40
0.8357176367
 40
0.9142102531
 40
1.0
 40
1.0
 40
1.0
 40
1.0
 10
56.4293970894
 20
47.3876177349
 30
0.0
 10
56.3257211299
 20
47.3874230934
 30
0.0
 10
56.1154064271
 20
47.3870703516
 30
0.0
 10
55.7929170424
 20
47.3866494307
 30
0.0
 10
55.4537299879
 20
47.3863202221
 30
0.0
 10
55.0895763189
 20
47.3860761601
 30
0.0
 10
54.6920602384
 20
47.3859038268
 30
0.0
 10
54.2546425565
 20
47.3857584553
 30
0.0
 10
53.773930889
 20
47.3856058491
 30
0.0
 10
53.2490678349
 20
47.3854143429
 30
0.0
 10
52.6792118255
 20
47.3851605385
 30
0.0
 10
52.062648093
 20
47.3848720972
 30
0.0
 10
51.3967829612
 20
47.3845778856
 30
0.0
 10
50.6777359313
 20
47.3843295057
 30
0.0
 10
49.9003608445
 20
47.3841367008
 30
0.0
 10
49.0591472524
 20
47.384003738
 30
0.0
 10
48.1489667251
 20
47.3839292293
 30
0.0
 10
47.163675955
 20
47.3839029202
 30
0.0
 10
46.095386755
 20
47.3839001015
 30
0.0
 10
44.9350522344
 20
47.3839108804
 30
0.0
 10
43.6745281714
 20
47.3839203738
 30
0.0
 10
42.3067330189
 20
47.3839214811
 30
0.0
 10
40.8250899262
 20
47.3839037613
 30
0.0
 10
39.2225017504
 20
47.3838500186
 30
0.0
 10
37.4897312995
 20
47.3837609242
 30
0.0
 10
35.6147225639
 20
47.3836443905
 30
0.0
 10
33.5823793561
 20
47.3835110259
 30
0.0
 10
31.3799305716
 20
47.3833790634
 30
0.0
 10
28.9961526356
 20
47.3832692742
 30
0.0
 10
26.4093510751
 20
47.3831907776
 30
0.0
 10
24.6159352004
 20
47.3831704383
 30
0.0
 10
23.6793970906
 20
47.3831704444
 30
0.0
 11
56.4293970894
 21
47.3876177349
 31
0.0
 11
56.1183691031
 21
47.387094332
 31
0.0
 11
55.7984528286
 21
47.3866740477
 31
0.0
 11
55.4619290079
 21
47.3863444325
 31
0.0
 11
55.1008079999
 21
47.3860972985
 31
0.0
 11
54.7059918774
 21
47.3859161901
 31
0.0
 11
54.2693808127
 21
47.3857643842
 31
0.0
 11
53.7885549755
 21
47.3856068581
 31
0.0
 11
53.2638568901
 21
47.3854129836
 31
0.0
 11
52.6947916626
 21
47.3851654334
 31
0.0
 11
52.0789869335
 21
47.3848823045
 31
0.0
 11
51.4141656703
 21
47.3845958465
 31
0.0
 11
50.6971962435
 21
47.3843474124
 31
0.0
 11
49.9218458482
 21
47.3841531907
 31
0.0
 11
49.0820404197
 21
47.384017603
 31
0.0
 11
48.1735554774
 21
47.3839392683
 31
0.0
 11
47.191304274
 21
47.3839074378
 31
0.0
 11
46.1261681129
 21
47.3839022122
 31
0.0
 11
44.9686878781
 21
47.383910243
 31
0.0
 11
43.7103007122
 21
47.3839187523
 31
0.0
 11
42.3445959237
 21
47.38391866
 31
0.0
 11
40.8653024209
 21
47.3838991312
 31
0.0
 11
39.2653714351
 21
47.3838468721
 31
0.0
 11
37.5368313969
 21
47.3837603751
 31
0.0
 11
35.666991068
 21
47.3836466011
 31
0.0
 11
33.6403452276
 21
47.3835166774
 31
0.0
 11
31.4398017717
 21
47.3833875344
 31
0.0
 11
29.0596447131
 21
47.3832781914
 31
0.0
 11
26.4890114199
 21
47.3832009752
 31
0.0
 11
23.6793970906
 21
47.3831704444
 31
0.0
  0
SPLINE
  5
38D
100
AcDbEntity
  8
RACCORDO
100
AcDbSpline
 62
7
  6
CONTINUOUS
 70
0
 71
3
 72
8
 73
4
 74
2
 42
0.0000001
 43
0.0000001
 44
0.0000000001
 12
0.0133602553
 22
0.0131473176
 32
0.0
 13
0.0077743892
 23
0.0165237167
 33
0.0
 40
0.0
 40
0.0
 40
0.0
 40
0.0
 40
1.0
 40
1.0
 40
1.0
 40
1.0
 10
-54.8118982374
 20
-46.3828720909
 30
0.0
 10
-54.807444819
 20
-46.3784896517
 30
0.0
 10
-54.804518322
 20
-46.3731809915
 30
0.0
 10
-54.801926859
 20
-46.3676730859
 30
0.0
 11
-54.8118982374
 21
-46.3828720909
 31
0.0
 11
-54.801926859
 21
-46.3676730859
 31
0.0
  0
SPLINE
  5
38E
100
AcDbEntity
  8
RACCORDO
100
AcDbSpline
 62
7
  6
CONTINUOUS
 70
0
 71
3
 72
10
 73
6
 74
4
 42
0.0000001
 43
0.0000001
 44
0.0000000001
 12
0.1622908739
 22
1.3003759858
 32
0.0
 13
1.3059224634
 23
0.1641262233
 33
0.0
 40
0.0
 40
0.0
 40
0.0
 40
0.0
 40
0.3514053174
 40
0.7027135939
 40
1.0
 40
1.0
 40
1.0
 40
1.0
 10
-54.7467326201
 20
46.5129740139
 30
0.0
 10
-54.7277226614
 20
46.6652936925
 30
0.0
 10
-54.6162945367
 20
46.9654729253
 30
0.0
 10
-54.2857720632
 20
47.2732851682
 30
0.0
 10
-54.0073744648
 20
47.3650678896
 30
0.0
 10
-53.8779634662
 20
47.3813320546
 30
0.0
 11
-54.7467326201
 21
46.5129740139
 31
0.0
 11
-54.5860621776
 21
46.9445397403
 31
0.0
 11
-54.2491337279
 21
47.2582690504
 31
0.0
 11
-53.8779634662
 21
47.3813320546
 31
0.0
  0
LINE
  5
38F
100
AcDbEntity
  8
RACCORDO
100
AcDbLine
 62
7
  6
CONTINUOUS
 10
-54.8032241545
 20
46.603387295
 11
-54.8118796821
 21
46.619640923
  0
SPLINE
  5
390
100
AcDbEntity
  8
RACCORDO
100
AcDbSpline
 62
7
  6
CONTINUOUS
 70
0
 71
3
 72
8
 73
4
 74
2
 42
0.0000001
 43
0.0000001
 44
0.0000000001
 12
-0.1173808828
 22
0.1574519094
 32
0.0
 13
-0.0843776773
 23
0.1810673936
 33
0.0
 40
0.0
 40
0.0
 40
0.0
 40
0.0
 40
1.0
 40
1.0
 40
1.0
 40
1.0
 10
-58.2054297632
 20
-24.1293310953
 30
0.0
 10
-58.2445567242
 20
-24.0768471255
 30
0.0
 10
-58.2784347533
 20
-24.0196769073
 30
0.0
 10
-58.3065606457
 20
-23.9593211095
 30
0.0
 11
-58.2054297632
 21
-24.1293310953
 31
0.0
 11
-58.3065606457
 21
-23.9593211095
 31
0.0
  0
SPLINE
  5
391
100
AcDbEntity
  8
RACCORDO
100
AcDbSpline
 62
253
  6
CONTINUOUS
 70
0
 71
3
 72
10
 73
6
 74
4
 42
0.0000001
 43
0.0000001
 44
0.0000000001
 12
0.9387964663
 22
0.0492908333
 32
0.0
 13
0.939448015
 23
0.0347248962
 33
0.0
 40
0.0
 40
0.0
 40
0.0
 40
0.0
 40
0.1708354458
 40
0.529560788
 40
1.0
 40
1.0
 40
1.0
 40
1.0
 10
-54.7477325897
 20
-44.4179206655
 30
0.0
 10
-54.6942726854
 20
-44.4151137917
 30
0.0
 10
-54.5284280817
 20
-44.4090981491
 30
0.0
 10
-54.2153206958
 20
-44.3965858944
 30
0.0
 10
-53.9556639829
 20
-44.3870435504
 30
0.0
 10
-53.8083462549
 20
-44.3815982328
 30
0.0
 11
-54.7477325897
 21
-44.4179206655
 31
0.0
 11
-54.5872739527
 21
-44.4111689991
 31
0.0
 11
-54.2502918026
 21
-44.3981394846
 31
0.0
 11
-53.8083462549
 21
-44.3815982328
 31
0.0
  0
SPLINE
  5
392
100
AcDbEntity
  8
RACCORDO
100
AcDbSpline
 62
253
  6
CONTINUOUS
 70
0
 71
3
 72
41
 73
37
 74
35
 42
0.0000001
 43
0.0000001
 44
0.0000000001
 12
-1.0913510798
 22
32.7684702381
 32
0.0
 13
0.0000041695
 23
32.7866388781
 33
0.0
 40
0.0
 40
0.0
 40
0.0
 40
0.0
 40
0.0103354194
 40
0.020895868
 40
0.0315726896
 40
0.0420998162
 40
0.0521385564
 40
0.0617842313
 40
0.0714150273
 40
0.0813222264
 40
0.0917498968
 40
0.1028979671
 40
0.1149701864
 40
0.1281815036
 40
0.1427385205
 40
0.1587520086
 40
0.1761812095
 40
0.1949818439
 40
0.2151547787
 40
0.2369012473
 40
0.2604941051
 40
0.2861959477
 40
0.3142687628
 40
0.3449627695
 40
0.378475057
 40
0.414999508
 40
0.454737376
 40
0.4978552558
 40
0.5444817382
 40
0.5947869357
 40
0.6492193213
 40
0.7082999502
 40
0.7725059941
 40
0.842255842
 40
0.9179469159
 40
1.0
 40
1.0
 40
1.0
 40
1.0
 10
-54.7477318552
 20
-44.4179206386
 30
0.0
 10
-54.7514917123
 20
-44.3050286781
 30
0.0
 10
-54.7580692962
 20
-44.0767515193
 30
0.0
 10
-54.7649694543
 20
-43.7317619747
 30
0.0
 10
-54.7688658027
 20
-43.3846307508
 30
0.0
 10
-54.7704512479
 20
-43.0431857184
 30
0.0
 10
-54.7710823719
 20
-42.7130080166
 30
0.0
 10
-54.7724592952
 20
-42.3926282114
 30
0.0
 10
-54.7744509504
 20
-42.0736895259
 30
0.0
 10
-54.7767995964
 20
-41.7462067865
 30
0.0
 10
-54.7793368573
 20
-41.4021428827
 30
0.0
 10
-54.7819321549
 20
-41.0344175298
 30
0.0
 10
-54.7846320561
 20
-40.6362700305
 30
0.0
 10
-54.7873691788
 20
-40.2008659975
 30
0.0
 10
-54.790046362
 20
-39.7223871668
 30
0.0
 10
-54.7924474213
 20
-39.1978095339
 30
0.0
 10
-54.7943751606
 20
-38.6268516747
 30
0.0
 10
-54.7958541913
 20
-38.0104342879
 30
0.0
 10
-54.7969478607
 20
-37.3468331734
 30
0.0
 10
-54.7978807034
 20
-36.630858157
 30
0.0
 10
-54.798662167
 20
-35.8544581548
 30
0.0
 10
-54.7992941181
 20
-35.0089181193
 30
0.0
 10
-54.7998105487
 20
-34.0857703951
 30
0.0
 10
-54.8002771422
 20
-33.077263225
 30
0.0
 10
-54.8008319879
 20
-31.9763891763
 30
0.0
 10
-54.8014907356
 20
-30.776675897
 30
0.0
 10
-54.8022815213
 20
-29.4719843139
 30
0.0
 10
-54.8032494072
 20
-28.0568889357
 30
0.0
 10
-54.8044046229
 20
-26.5263045917
 30
0.0
 10
-54.8056706134
 20
-24.8720654242
 30
0.0
 10
-54.8069079529
 20
-23.0817163292
 30
0.0
 10
-54.8080957292
 20
-21.1394464945
 30
0.0
 10
-54.8093246253
 20
-19.029773954
 30
0.0
 10
-54.8105641969
 20
-16.7385678352
 30
0.0
 10
-54.8115883756
 20
-14.2523134309
 30
0.0
 10
-54.8118983455
 20
-12.5283465123
 30
0.0
 10
-54.8118982314
 20
-11.6315982328
 30
0.0
 11
-54.7477318552
 21
-44.4179206386
 31
0.0
 11
-54.7575065239
 21
-44.0791979831
 31
0.0
 11
-54.7644405049
 21
-43.7330258038
 31
0.0
 11
-54.7684975272
 21
-43.3829922215
 31
0.0
 11
-54.770315151
 21
-43.0378479106
 31
0.0
 11
-54.7712240993
 21
-42.7087126151
 31
0.0
 11
-54.7725626837
 21
-42.3924661865
 31
0.0
 11
-54.7744801883
 21
-42.0767105794
 31
0.0
 11
-54.7767694881
 21
-41.7518948884
 31
0.0
 11
-54.779261358
 21
-41.4100157056
 31
0.0
 11
-54.7818446994
 21
-41.0445170796
 31
0.0
 11
-54.7845164731
 21
-40.6487186021
 31
0.0
 11
-54.7872292479
 21
-40.2155724119
 31
0.0
 11
-54.7898801794
 21
-39.7383041177
 31
0.0
 11
-54.7922759785
 21
-39.2132811309
 31
0.0
 11
-54.7942350356
 21
-38.6418395726
 31
0.0
 11
-54.7957437379
 21
-38.0254318109
 31
0.0
 11
-54.7968828962
 21
-37.3640300608
 31
0.0
 11
-54.7978206275
 21
-36.6510370671
 31
0.0
 11
-54.7986069899
 21
-35.8775069565
 31
0.0
 11
-54.7992495159
 21
-35.0348301703
 31
0.0
 11
-54.799780341
 21
-34.1144170706
 31
0.0
 11
-54.8002695226
 21
-33.1080638767
 31
0.0
 11
-54.800823297
 21
-32.0093087479
 31
0.0
 11
-54.8014823533
 21
-30.811794946
 31
0.0
 11
-54.8022753496
 21
-29.5089240598
 31
0.0
 11
-54.8032392056
 21
-28.0952340339
 31
0.0
 11
-54.8043768636
 21
-26.5665088166
 31
0.0
 11
-54.8056165051
 21
-24.9171709387
 31
0.0
 11
-54.8068501441
 21
-23.1325163946
 31
0.0
 11
-54.8080524898
 21
-21.1954615212
 31
0.0
 11
-54.8092753774
 21
-19.090361503
 31
0.0
 11
-54.8104818815
 21
-16.8034987451
 31
0.0
 11
-54.8114675926
 21
-14.3218430368
 31
0.0
 11
-54.8118982314
 21
-11.6315982328
 31
0.0
  0
SPLINE
  5
393
100
AcDbEntity
  8
RACCORDO
100
AcDbSpline
 62
253
  6
CONTINUOUS
 70
0
 71
3
 72
18
 73
14
 74
12
 42
0.0000001
 43
0.0000001
 44
0.0000000001
 12
-0.2723251679
 22
1.7258270688
 32
0.0
 13
0.0144237157
 23
1.7568783542
 33
0.0
 40
0.0
 40
0.0
 40
0.0
 40
0.0
 40
0.0133099738
 40
0.0533657194
 40
0.1109401452
 40
0.1825973589
 40
0.2718380688
 40
0.3777086842
 40
0.4965551477
 40
0.6351727743
 40
0.7852084821
 40
0.9435927368
 40
1.0
 40
1.0
 40
1.0
 40
1.0
 10
-57.6134726261
 20
-25.8075006982
 30
0.0
 10
-57.6146808397
 20
-25.7998437938
 30
0.0
 10
-57.6118156458
 20
-25.7680616133
 30
0.0
 10
-57.6167414594
 20
-25.7036014946
 30
0.0
 10
-57.6167472551
 20
-25.6042300044
 30
0.0
 10
-57.6188772874
 20
-25.4763835489
 30
0.0
 10
-57.6197083054
 20
-25.3201220258
 30
0.0
 10
-57.6208978796
 20
-25.1362645447
 30
0.0
 10
-57.6184183048
 20
-24.9234820352
 30
0.0
 10
-57.6144479386
 20
-24.684867584
 30
0.0
 10
-57.6111087961
 20
-24.4230816293
 30
0.0
 10
-57.6089156919
 20
-24.2094334491
 30
0.0
 10
-57.6078302463
 20
-24.0836463833
 30
0.0
 10
-57.6075590455
 20
-24.0506128167
 30
0.0
 11
-57.6134726261
 21
-25.8075006982
 31
0.0
 11
-57.6135772462
 21
-25.7840383696
 31
0.0
 11
-57.6152344974
 21
-25.713682455
 31
0.0
 11
-57.6169959755
 21
-25.6125431416
 31
0.0
 11
-57.6184941253
 21
-25.4866548298
 31
0.0
 11
-57.6196840052
 21
-25.3298690202
 31
0.0
 11
-57.6203193297
 21
-25.1438620805
 31
0.0
 11
-57.6183931107
 21
-24.9350651902
 31
0.0
 11
-57.6147105445
 21
-24.691550566
 31
0.0
 11
-57.611277581
 21
-24.4279696018
 31
0.0
 11
-57.6084145419
 21
-24.1497131385
 31
0.0
 11
-57.6075590455
 21
-24.0506128167
 31
0.0
  0
LINE
  5
394
100
AcDbEntity
  8
RACCORDO
100
AcDbLine
 62
253
  6
CONTINUOUS
 10
-57.6075590455
 20
-24.0506128167
 11
-57.6060197567
 21
-23.8408236966
  0
LINE
  5
395
100
AcDbEntity
  8
RACCORDO
100
AcDbLine
 62
253
  6
CONTINUOUS
 10
-57.6050171261
 20
-22.2898806608
 11
-57.6059712206
 21
-22.1151983082
  0
SPLINE
  5
396
100
AcDbEntity
  8
RACCORDO
100
AcDbSpline
 62
253
  6
CONTINUOUS
 70
0
 71
3
 72
16
 73
12
 74
10
 42
0.0000001
 43
0.0000001
 44
0.0000000001
 12
1.4352783794
 22
1.1822419865
 32
0.0
 13
-0.0619237934
 23
1.858463232
 33
0.0
 40
0.0
 40
0.0
 40
0.0
 40
0.0
 40
0.0206683415
 40
0.0656170964
 40
0.1309101831
 40
0.2155864668
 40
0.3203586091
 40
0.4477457063
 40
0.602591488
 40
0.7876641368
 40
1.0
 40
1.0
 40
1.0
 40
1.0
 10
-54.746848138
 20
-46.2760750078
 30
0.0
 10
-54.7369598634
 20
-46.2679300141
 30
0.0
 10
-54.7406475968
 20
-46.2196697395
 30
0.0
 10
-54.73018939
 20
-46.144610844
 30
0.0
 10
-54.7305932131
 20
-46.0209412464
 30
0.0
 10
-54.7279269911
 20
-45.8641927368
 30
0.0
 10
-54.7281073791
 20
-45.6673846927
 30
0.0
 10
-54.7288587466
 20
-45.4276592024
 30
0.0
 10
-54.7316673069
 20
-45.1379654249
 30
0.0
 10
-54.7371901261
 20
-44.7957230327
 30
0.0
 10
-54.7433489745
 20
-44.5494601035
 30
0.0
 10
-54.7477318552
 20
-44.4179206386
 30
0.0
 11
-54.746848138
 21
-46.2760750078
 31
0.0
 11
-54.7383970503
 21
-46.2385830195
 31
0.0
 11
-54.7333167418
 21
-46.1551555922
 31
0.0
 11
-54.7301966335
 21
-46.0337835483
 31
0.0
 11
-54.7285549922
 21
-45.8763370148
 31
0.0
 11
-54.7281593829
 21
-45.6815141843
 31
0.0
 11
-54.7290393683
 21
-45.4446402005
 31
0.0
 11
-54.7317671142
 21
-45.1567182276
 31
0.0
 11
-54.7373912585
 21
-44.8126225974
 31
0.0
 11
-54.7477318552
 21
-44.4179206386
 31
0.0
  0
SPLINE
  5
397
100
AcDbEntity
  8
RACCORDO
100
AcDbSpline
 62
253
  6
CONTINUOUS
 70
0
 71
3
 72
13
 73
9
 74
7
 42
0.0000001
 43
0.0000001
 44
0.0000000001
 12
-0.0125933083
 22
0.8100065967
 32
0.0
 13
0.034234307
 23
0.8077168377
 33
0.0
 40
0.0
 40
0.0
 40
0.0
 40
0.0
 40
0.1818282752
 40
0.4261672615
 40
0.637598628
 40
0.815043094
 40
0.9605411075
 40
1.0
 40
1.0
 40
1.0
 40
1.0
 10
-57.6182285583
 20
25.1572685687
 30
0.0
 10
-57.6189918315
 20
25.2063626028
 30
0.0
 10
-57.62057032
 20
25.3214302252
 30
0.0
 10
-57.6201166101
 20
25.493597661
 30
0.0
 10
-57.6192815312
 20
25.6646100146
 30
0.0
 10
-57.6171826649
 20
25.808812981
 30
0.0
 10
-57.6171686624
 20
25.9068609496
 30
0.0
 10
-57.6145376419
 20
25.9565824931
 30
0.0
 10
-57.6140873593
 20
25.9672063637
 30
0.0
 11
-57.6182285583
 21
25.1572685687
 31
0.0
 11
-57.6199962358
 21
25.3045534471
 31
0.0
 11
-57.6200136559
 21
25.5024894619
 31
0.0
 11
-57.6189368013
 21
25.673764033
 31
0.0
 11
-57.6174363688
 21
25.8175017872
 31
0.0
 11
-57.615540827
 21
25.9353526999
 31
0.0
 11
-57.6140873593
 21
25.9672063637
 31
0.0
  0
SPLINE
  5
398
100
AcDbEntity
  8
RACCORDO
100
AcDbSpline
 62
253
  6
CONTINUOUS
 70
0
 71
3
 72
9
 73
5
 74
3
 42
0.0000001
 43
0.0000001
 44
0.0000000001
 12
0.0032599839
 22
0.0769153555
 32
0.0
 13
0.0118359933
 23
0.0758947864
 33
0.0
 40
0.0
 40
0.0
 40
0.0
 40
0.0
 40
0.6478090578
 40
1.0
 40
1.0
 40
1.0
 40
1.0
 10
-57.6140873593
 20
25.9672063637
 30
0.0
 10
-57.6133834102
 20
25.983815185
 30
0.0
 10
-57.6127156138
 20
26.0095148563
 30
0.0
 10
-57.6147925863
 20
26.0355888355
 30
0.0
 10
-57.6134030764
 20
26.0444986543
 30
0.0
 11
-57.6140873593
 21
25.9672063637
 31
0.0
 11
-57.6136700614
 21
26.0172692255
 31
0.0
 11
-57.6134030764
 21
26.0444986543
 31
0.0
  0
SPLINE
  5
399
100
AcDbEntity
  8
RACCORDO
100
AcDbSpline
 62
253
  6
CONTINUOUS
 70
0
 71
3
 72
16
 73
12
 74
10
 42
0.0000001
 43
0.0000001
 44
0.0000000001
 12
0.065306435
 22
2.7696559852
 32
0.0
 13
-2.7666730571
 23
-0.1441506228
 33
0.0
 40
0.0
 40
0.0
 40
0.0
 40
0.0
 40
0.2437923132
 40
0.451733653
 40
0.621571255
 40
0.7546322737
 40
0.8540696365
 40
0.9239634563
 40
0.9683956341
 40
0.992324689
 40
1.0
 40
1.0
 40
1.0
 40
1.0
 10
-53.80826371
 20
44.618737534
 30
0.0
 10
-53.8029566411
 20
44.8438111471
 30
0.0
 10
-53.795699508
 20
45.2609599248
 30
0.0
 10
-53.7897264299
 20
45.8347926632
 30
0.0
 10
-53.7867532635
 20
46.3069217222
 30
0.0
 10
-53.7866941763
 20
46.6774609217
 30
0.0
 10
-53.7872418372
 20
46.9591717408
 30
0.0
 10
-53.7918260938
 20
47.1510736557
 30
0.0
 10
-53.7915217949
 20
47.2894220823
 30
0.0
 10
-53.8017634187
 20
47.3429193701
 30
0.0
 10
-53.8003338343
 20
47.3879865351
 30
0.0
 10
-53.807412193
 20
47.3876177349
 30
0.0
 11
-53.80826371
 21
44.618737534
 31
0.0
 11
-53.7959729015
 21
45.2940342116
 31
0.0
 11
-53.7897940019
 21
45.8700871304
 31
0.0
 11
-53.7870794816
 21
46.3406017774
 31
0.0
 11
-53.7868383407
 21
46.70923738
 31
0.0
 11
-53.7884418576
 21
46.9847165501
 31
0.0
 11
-53.7913617179
 21
47.1783301773
 31
0.0
 11
-53.7954300709
 21
47.3013589814
 31
0.0
 11
-53.8006928172
 21
47.3674434301
 31
0.0
 11
-53.807412193
 21
47.3876177349
 31
0.0
  0
SPLINE
  5
39A
100
AcDbEntity
  8
RACCORDO
100
AcDbSpline
 62
253
  6
CONTINUOUS
 70
0
 71
3
 72
13
 73
9
 74
7
 42
0.0000001
 43
0.0000001
 44
0.0000000001
 12
-0.0844543752
 22
0.0676639485
 32
0.0
 13
-0.0520268153
 23
0.0946211931
 33
0.0
 40
0.0
 40
0.0
 40
0.0
 40
0.0
 40
0.2126219503
 40
0.3856466997
 40
0.5782384106
 40
0.7453874007
 40
0.9171800522
 40
1.0
 40
1.0
 40
1.0
 40
1.0
 10
-54.746732448
 20
46.5129739924
 30
0.0
 10
-54.752718066
 20
46.5177696059
 30
0.0
 10
-54.7627998575
 20
46.5276527706
 30
0.0
 10
-54.7728286912
 20
46.546284693
 30
0.0
 10
-54.7748237259
 20
46.5662695136
 30
0.0
 10
-54.7888222128
 20
46.5803348295
 30
0.0
 10
-54.7973172891
 20
46.5929124978
 30
0.0
 10
-54.8018393636
 20
46.6008687377
 30
0.0
 10
-54.8032756497
 20
46.6034809118
 30
0.0
 11
-54.746732448
 21
46.5129739924
 31
0.0
 11
-54.7628035765
 21
46.5294405833
 31
0.0
 11
-54.7713757996
 21
46.5460873352
 31
0.0
 11
-54.7772483153
 21
46.5660846125
 31
0.0
 11
-54.7881893362
 21
46.580488911
 31
0.0
 11
-54.7988333477
 21
46.5957311874
 31
0.0
 11
-54.8032756497
 21
46.6034809118
 31
0.0
  0
SPLINE
  5
39B
100
AcDbEntity
  8
RACCORDO
100
AcDbSpline
 62
253
  6
CONTINUOUS
 70
0
 71
3
 72
12
 73
8
 74
6
 42
0.0000001
 43
0.0000001
 44
0.0000000001
 12
0.0460381814
 22
0.0983409827
 32
0.0
 13
0.0834589168
 23
0.0686526362
 33
0.0
 40
0.0
 40
0.0
 40
0.0
 40
0.0
 40
0.2112026444
 40
0.3961559807
 40
0.5898270438
 40
0.7723827291
 40
1.0
 40
1.0
 40
1.0
 40
1.0
 10
-54.8018062489
 20
-46.3674160924
 30
0.0
 10
-54.7985651203
 20
-46.3604928006
 30
0.0
 10
-54.7934216385
 20
-46.3469509
 30
0.0
 10
-54.7760184808
 20
-46.3327747672
 30
0.0
 10
-54.773300161
 20
-46.3117826806
 30
0.0
 10
-54.7637743541
 20
-46.2920133141
 30
0.0
 10
-54.7531803683
 20
-46.2812838497
 30
0.0
 10
-54.746848138
 20
-46.2760750078
 30
0.0
 11
-54.8018062489
 21
-46.3674160924
 31
0.0
 11
-54.7912204736
 21
-46.3471963599
 31
0.0
 11
-54.7785038131
 21
-46.3317761079
 31
0.0
 11
-54.7721565025
 21
-46.3118322551
 31
0.0
 11
-54.7636684211
 21
-46.2940232848
 31
0.0
 11
-54.746848138
 21
-46.2760750078
 31
0.0
  0
SPLINE
  5
39C
100
AcDbEntity
  8
RACCORDO
100
AcDbSpline
 62
253
  6
CONTINUOUS
 70
0
 71
3
 72
16
 73
12
 74
10
 42
0.0000001
 43
0.0000001
 44
0.0000000001
 12
0.0619935706
 22
1.858775322
 32
0.0
 13
-1.451091508
 23
1.1632808501
 33
0.0
 40
0.0
 40
0.0
 40
0.0
 40
0.0
 40
0.2390768136
 40
0.4438935268
 40
0.6117480983
 40
0.7438476152
 40
0.8437272697
 40
0.9153401676
 40
0.962238429
 40
0.9891143725
 40
1.0
 40
1.0
 40
1.0
 40
1.0
 10
-54.747645977
 20
44.6546379075
 30
0.0
 10
-54.7427055686
 20
44.8027679346
 30
0.0
 10
-54.7361487052
 20
45.0778944157
 30
0.0
 10
-54.7308380568
 20
45.4570794454
 30
0.0
 10
-54.7282660923
 20
45.7700618636
 30
0.0
 10
-54.7280181357
 20
46.0177652815
 30
0.0
 10
-54.729013248
 20
46.2063921598
 30
0.0
 10
-54.7320534052
 20
46.3407989519
 30
0.0
 10
-54.7337232875
 20
46.4328470494
 30
0.0
 10
-54.7401637348
 20
46.4819006843
 30
0.0
 10
-54.7414671008
 20
46.5087529784
 30
0.0
 10
-54.746732448
 20
46.5129739924
 30
0.0
 11
-54.747645977
 21
44.6546379075
 31
0.0
 11
-54.7364268355
 21
45.0991335136
 31
0.0
 11
-54.7309208207
 21
45.4800136507
 31
0.0
 11
-54.7285042682
 21
45.7921817123
 31
0.0
 11
-54.7282913715
 21
46.0378614687
 31
0.0
 11
-54.7297250135
 21
46.2236130001
 31
0.0
 11
-54.7322920815
 21
46.3567745587
 31
0.0
 11
-54.735878855
 21
46.44392258
 31
0.0
 11
-54.7405852388
 21
46.4936846331
 31
0.0
 11
-54.746732448
 21
46.5129739924
 31
0.0
  0
SPLINE
  5
39D
100
AcDbEntity
  8
RACCORDO
100
AcDbSpline
 62
253
  6
CONTINUOUS
 70
0
 71
3
 72
34
 73
30
 74
28
 42
0.0000001
 43
0.0000001
 44
0.0000000001
 12
-0.0000105923
 22
32.7507973013
 32
0.0
 13
1.2036606817
 23
32.7286712965
 33
0.0
 40
0.0
 40
0.0
 40
0.0
 40
0.0
 40
0.0890666197
 40
0.1704436241
 40
0.2449697934
 40
0.3133242536
 40
0.3761106304
 40
0.4338504959
 40
0.4869962949
 40
0.5359655723
 40
0.5811408674
 40
0.6228204075
 40
0.6612328217
 40
0.6966168508
 40
0.7292550449
 40
0.7594330664
 40
0.787332474
 40
0.813021107
 40
0.8366329346
 40
0.8583633397
 40
0.878391989
 40
0.8967901597
 40
0.9133671722
 40
0.9281216449
 40
0.9416555307
 40
0.9547992209
 40
0.9684638708
 40
0.9835605919
 40
1.0
 40
1.0
 40
1.0
 40
1.0
 10
-53.8922715463
 20
11.8684017667
 30
0.0
 10
-53.8922718608
 20
12.840736036
 30
0.0
 10
-53.891749982
 20
14.701457571
 30
0.0
 10
-53.8901048455
 20
17.3757757626
 30
0.0
 10
-53.8881960472
 20
19.8239804599
 30
0.0
 10
-53.8863617871
 20
22.0692325221
 30
0.0
 10
-53.8845438783
 20
24.1312295925
 30
0.0
 10
-53.8826428251
 20
26.0271945829
 30
0.0
 10
-53.8808388344
 20
27.7723192501
 30
0.0
 10
-53.879270182
 20
29.380277521
 30
0.0
 10
-53.877988344
 20
30.8630596292
 30
0.0
 10
-53.8769595098
 20
32.2305933464
 30
0.0
 10
-53.8762321389
 20
33.4912366478
 30
0.0
 10
-53.8755745977
 20
34.6531762101
 30
0.0
 10
-53.8745683001
 20
35.7252212229
 30
0.0
 10
-53.8730738907
 20
36.7155564688
 30
0.0
 10
-53.8712486375
 20
37.6300231365
 30
0.0
 10
-53.8688821942
 20
38.4728057073
 30
0.0
 10
-53.8656071624
 20
39.24823837
 30
0.0
 10
-53.861210943
 20
39.9618747105
 30
0.0
 10
-53.8562594816
 20
40.6185884898
 30
0.0
 10
-53.8513615083
 20
41.2190416672
 30
0.0
 10
-53.8465845039
 20
41.7619159804
 30
0.0
 10
-53.8421591907
 20
42.2516881639
 30
0.0
 10
-53.8388539502
 20
42.7039876469
 30
0.0
 10
-53.8368522713
 20
43.1443961055
 30
0.0
 10
-53.8336098541
 20
43.6018623017
 30
0.0
 10
-53.8251848308
 20
44.0952553388
 30
0.0
 10
-53.8148555044
 20
44.4393908726
 30
0.0
 10
-53.8082596814
 20
44.6187375338
 30
0.0
 11
-53.8922715463
 21
11.8684017667
 31
0.0
 11
-53.8915563812
 21
14.785404487
 31
0.0
 11
-53.8899825515
 21
17.4505657974
 31
0.0
 11
-53.8881276963
 21
19.8913565571
 31
0.0
 11
-53.8862869723
 21
22.1300188716
 31
0.0
 11
-53.8844520816
 21
24.1863219534
 31
0.0
 11
-53.8825823466
 21
26.0773476601
 31
0.0
 11
-53.8808092685
 21
27.8179140482
 31
0.0
 11
-53.879260662
 21
29.4216961791
 31
0.0
 11
-53.8779841216
 21
30.9012225589
 31
0.0
 11
-53.8769741957
 21
32.2662603563
 31
0.0
 11
-53.8762154828
 21
33.5242973196
 31
0.0
 11
-53.87548273
 21
34.6831522531
 31
0.0
 11
-53.8744375051
 21
35.7520786209
 31
0.0
 11
-53.8729529884
 21
36.7404317711
 31
0.0
 11
-53.8710717198
 21
37.6541576779
 31
0.0
 11
-53.8686116791
 21
38.4954772906
 31
0.0
 11
-53.8652604424
 21
39.2687762094
 31
0.0
 11
-53.8609262208
 21
39.9804511049
 31
0.0
 11
-53.8560549271
 21
40.6363872505
 31
0.0
 11
-53.8511314791
 21
41.2389218936
 31
0.0
 11
-53.8463868392
 21
41.7818115378
 31
0.0
 11
-53.8421839389
 21
42.2650140055
 31
0.0
 11
-53.8390298813
 21
42.7082483324
 31
0.0
 11
-53.8366992446
 21
43.1387083582
 31
0.0
 11
-53.833012916
 21
43.5862213552
 31
0.0
 11
-53.8244150194
 21
44.0805762447
 31
0.0
 11
-53.8082596814
 21
44.6187375338
 31
0.0
  0
SPLINE
  5
39E
100
AcDbEntity
  8
RACCORDO
100
AcDbSpline
 62
253
  6
CONTINUOUS
 70
0
 71
3
 72
41
 73
37
 74
35
 42
0.0000001
 43
0.0000001
 44
0.0000000001
 12
-1.2064998345
 22
32.7282557428
 32
0.0
 13
0.0000079003
 23
32.7504864974
 33
0.0
 40
0.0
 40
0.0
 40
0.0
 40
0.0
 40
0.0100918176
 40
0.020410665
 40
0.0308683398
 40
0.0412453177
 40
0.0512444479
 40
0.0609399145
 40
0.0706276282
 40
0.0805695659
 40
0.0910127043
 40
0.1021639759
 40
0.1142368445
 40
0.1274440963
 40
0.1419910846
 40
0.1579875185
 40
0.1753985826
 40
0.1941877097
 40
0.2143584985
 40
0.2361131366
 40
0.2597181645
 40
0.2854368878
 40
0.3135328017
 40
0.3442579646
 40
0.3778094952
 40
0.4143769572
 40
0.4541614972
 40
0.4973297864
 40
0.5440092014
 40
0.5943690989
 40
0.6488587373
 40
0.7080024031
 40
0.7722780801
 40
0.8421015488
 40
0.917868956
 40
1.0
 40
1.0
 40
1.0
 40
1.0
 10
-53.808345523
 20
-44.3816206879
 30
0.0
 10
-53.8124041151
 20
-44.2715248257
 30
0.0
 10
-53.8196545237
 20
-44.0488199233
 30
0.0
 10
-53.8277670578
 20
-43.711929357
 30
0.0
 10
-53.8331255702
 20
-43.3718704916
 30
0.0
 10
-53.8360682437
 20
-43.0352745352
 30
0.0
 10
-53.8377125878
 20
-42.7069923984
 30
0.0
 10
-53.8394101894
 20
-42.3862351104
 30
0.0
 10
-53.8418280207
 20
-42.0661067447
 30
0.0
 10
-53.8446376183
 20
-41.7378192724
 30
0.0
 10
-53.8477593441
 20
-41.393556506
 30
0.0
 10
-53.8509981784
 20
-41.0260308569
 30
0.0
 10
-53.8543674022
 20
-40.6283298453
 30
0.0
 10
-53.8578235619
 20
-40.1935578254
 30
0.0
 10
-53.8612671164
 20
-39.7159515614
 30
0.0
 10
-53.8645020231
 20
-39.1924505084
 30
0.0
 10
-53.867269795
 20
-38.6226354468
 30
0.0
 10
-53.8695287927
 20
-38.0072471308
 30
0.0
 10
-53.8713085224
 20
-37.3444390539
 30
0.0
 10
-53.8727779304
 20
-36.6290557763
 30
0.0
 10
-53.8740056402
 20
-35.8531061105
 30
0.0
 10
-53.8749649492
 20
-35.0079293999
 30
0.0
 10
-53.8757041678
 20
-34.0850231576
 30
0.0
 10
-53.8763131029
 20
-33.0766073961
 30
0.0
 10
-53.8770184479
 20
-31.9757092377
 30
0.0
 10
-53.87790742
 20
-30.7759115116
 30
0.0
 10
-53.8789915486
 20
-29.4711294001
 30
0.0
 10
-53.8803116683
 20
-28.0559569917
 30
0.0
 10
-53.8818683098
 20
-26.5253353943
 30
0.0
 10
-53.8835822909
 20
-24.8711206615
 30
0.0
 10
-53.8852844572
 20
-23.080835755
 30
0.0
 10
-53.8869334552
 20
-21.1386345569
 30
0.0
 10
-53.8886445007
 20
-19.0290365544
 30
0.0
 10
-53.8903751643
 20
-16.7379599677
 30
0.0
 10
-53.891825209
 20
-14.2519591539
 30
0.0
 10
-53.8922717626
 20
-12.528208782
 30
0.0
 10
-53.8922715463
 20
-11.6315982324
 30
0.0
 11
-53.808345523
 21
-44.3816206879
 31
0.0
 11
-53.8191127427
 21
-44.0512841831
 31
0.0
 11
-53.8272651898
 21
-43.7134352584
 31
0.0
 11
-53.832737544
 21
-43.3709850424
 31
0.0
 11
-53.8358889227
 21
-43.0311485782
 31
0.0
 11
-53.8377449062
 21
-42.7036774582
 31
0.0
 11
-53.8395302925
 21
-42.3861512315
 31
0.0
 11
-53.8418595445
 21
-42.0688824427
 31
0.0
 11
-53.8446177597
 21
-41.7432908301
 31
0.0
 11
-53.8476751723
 21
-41.4012866322
 31
0.0
 11
-53.8508896018
 21
-41.0360912098
 31
0.0
 11
-53.8542296162
 21
-40.6407129976
 31
0.0
 11
-53.857656579
 21
-40.2081826489
 31
0.0
 11
-53.8610750837
 21
-39.7317739697
 31
0.0
 11
-53.864296053
 21
-39.2078928802
 31
0.0
 11
-53.8670882593
 21
-38.6376788979
 31
0.0
 11
-53.8693759173
 21
-38.0223300946
 31
0.0
 11
-53.8711952338
 21
-37.3617294538
 31
0.0
 11
-53.8726826986
 21
-36.6492560258
 31
0.0
 11
-53.8739139851
 21
-35.8761808602
 31
0.0
 11
-53.874890667
 21
-35.0338807257
 31
0.0
 11
-53.8756522995
 21
-34.1137261906
 31
0.0
 11
-53.8763003789
 21
-33.1074623671
 31
0.0
 11
-53.8770149206
 21
-32.0086336486
 31
0.0
 11
-53.8778985964
 21
-30.8110318067
 31
0.0
 11
-53.878982091
 21
-29.508069216
 31
0.0
 11
-53.8802949696
 21
-28.0942873545
 31
0.0
 11
-53.881832137
 21
-26.5655145746
 31
0.0
 11
-53.883513041
 21
-24.91620429
 31
0.0
 11
-53.8852071288
 21
-23.1316429265
 31
0.0
 11
-53.886874143
 21
-21.1946598156
 31
0.0
 11
-53.8885766505
 21
-19.0896008113
 31
0.0
 11
-53.8902632305
 21
-16.8028488636
 31
0.0
 11
-53.8916560023
 21
-14.3214298109
 31
0.0
 11
-53.8922715463
 21
-11.6315982324
 31
0.0
  0
SPLINE
  5
39F
100
AcDbEntity
  8
RACCORDO
100
AcDbSpline
 62
253
  6
CONTINUOUS
 70
0
 71
3
 72
11
 73
7
 74
5
 42
0.0000001
 43
0.0000001
 44
0.0000000001
 12
0.567198673
 22
-0.0295633682
 32
0.0
 13
0.0058558564
 23
0.5617795118
 33
0.0
 40
0.0
 40
0.0
 40
0.0
 40
0.0
 40
0.0778992892
 40
0.2810978914
 40
0.5905779598
 40
1.0
 40
1.0
 40
1.0
 40
1.0
 10
-53.807519808
 20
-47.1508085605
 30
0.0
 10
-53.7927916835
 20
-47.1515762156
 30
0.0
 10
-53.8057084525
 20
-47.0657422628
 30
0.0
 10
-53.7857901879
 20
-46.9824591291
 30
0.0
 10
-53.7908136928
 20
-46.7932758069
 30
0.0
 10
-53.7879468318
 20
-46.6606779446
 30
0.0
 10
-53.7871476596
 20
-46.5840096399
 30
0.0
 11
-53.807519808
 21
-47.1508085605
 31
0.0
 11
-53.798230732
 21
-47.1075503176
 31
0.0
 11
-53.7925297264
 21
-46.9922807868
 31
0.0
 11
-53.7890121168
 21
-46.8165410272
 31
0.0
 11
-53.7871476596
 21
-46.5840096399
 31
0.0
  0
SPLINE
  5
3A0
100
AcDbEntity
  8
RACCORDO
100
AcDbSpline
 62
253
  6
CONTINUOUS
 70
0
 71
3
 72
12
 73
8
 74
6
 42
0.0000001
 43
0.0000001
 44
0.0000000001
 12
0.0227086373
 22
2.1785450807
 32
0.0
 13
-0.0519057273
 23
2.2019342622
 33
0.0
 40
0.0
 40
0.0
 40
0.0
 40
0.0
 40
0.1319312745
 40
0.2935362808
 40
0.491015925
 40
0.7275915118
 40
1.0
 40
1.0
 40
1.0
 40
1.0
 10
-53.7871476596
 20
-46.5840096399
 30
0.0
 10
-53.7861489997
 20
-46.4882035636
 30
0.0
 10
-53.7868230187
 20
-46.2710388271
 30
0.0
 10
-53.7874364845
 20
-45.9113612013
 30
0.0
 10
-53.7906921883
 20
-45.4737544244
 30
0.0
 10
-53.7968142008
 20
-44.9552207141
 30
0.0
 10
-53.8036326475
 20
-44.5815625491
 30
0.0
 10
-53.8083458344
 20
-44.3816206879
 30
0.0
 11
-53.7871476596
 21
-46.5840096399
 31
0.0
 11
-53.7866928082
 21
-46.2934253005
 31
0.0
 11
-53.7876983162
 21
-45.9374842672
 31
0.0
 11
-53.7907660099
 21
-45.5025370932
 31
0.0
 11
-53.7970238473
 21
-44.9815060689
 31
0.0
 11
-53.8083458344
 21
-44.3816206879
 31
0.0
  0
SPLINE
  5
3A1
100
AcDbEntity
  8
RACCORDO
100
AcDbSpline
 62
253
  6
CONTINUOUS
 70
0
 71
3
 72
34
 73
30
 74
28
 42
0.0000001
 43
0.0000001
 44
0.0000000001
 12
-0.0000059994
 22
32.7865499641
 32
0.0
 13
1.0906004723
 23
32.7684062652
 33
0.0
 40
0.0
 40
0.0
 40
0.0
 40
0.0
 40
0.0889826287
 40
0.1702778676
 40
0.2447255948
 40
0.3130067737
 40
0.3757272815
 40
0.4334063865
 40
0.4864936796
 40
0.535407006
 40
0.5805295951
 40
0.6221597857
 40
0.660527099
 40
0.6958783933
 40
0.7284947767
 40
0.7586561389
 40
0.7865435377
 40
0.812238121
 40
0.8358739104
 40
0.8576294302
 40
0.8776655835
 40
0.8960621702
 40
0.9126334154
 40
0.9273520872
 40
0.9407990257
 40
0.9539262246
 40
0.967760802
 40
0.9831806516
 40
1.0
 40
1.0
 40
1.0
 40
1.0
 10
-54.8118982314
 20
11.8684017672
 30
0.0
 10
-54.8118984094
 20
12.8408795678
 30
0.0
 10
-54.8115366553
 20
14.7018208436
 30
0.0
 10
-54.810372944
 20
17.3763899129
 30
0.0
 10
-54.8090036826
 20
19.8247158067
 30
0.0
 10
-54.8076826176
 20
22.0700412428
 30
0.0
 10
-54.8063709212
 20
24.1321048966
 30
0.0
 10
-54.8049824045
 20
26.0281167592
 30
0.0
 10
-54.803646629
 20
27.7732320024
 30
0.0
 10
-54.8024832925
 20
29.3811190593
 30
0.0
 10
-54.8015319849
 20
30.8637932782
 30
0.0
 10
-54.8007712767
 20
32.231211796
 30
0.0
 10
-54.8002054677
 20
33.4918413825
 30
0.0
 10
-54.7997615068
 20
34.6539604642
 30
0.0
 10
-54.799085423
 20
35.7263978281
 30
0.0
 10
-54.7980883443
 20
36.7172631113
 30
0.0
 10
-54.7968922024
 20
37.6324807818
 30
0.0
 10
-54.7954651861
 20
38.4763810776
 30
0.0
 10
-54.7932710908
 20
39.2532653242
 30
0.0
 10
-54.7900385476
 20
39.9683052936
 30
0.0
 10
-54.7860942232
 20
40.6260820424
 30
0.0
 10
-54.7821754408
 20
41.2271995539
 30
0.0
 10
-54.7784044824
 20
41.7702028982
 30
0.0
 10
-54.7747882334
 20
42.2591116964
 30
0.0
 10
-54.7718618206
 20
42.7103859628
 30
0.0
 10
-54.7707118086
 20
43.1520053206
 30
0.0
 10
-54.769326999
 20
43.6151873627
 30
0.0
 10
-54.7630115206
 20
44.118692971
 30
0.0
 10
-54.7537603734
 20
44.4709234939
 30
0.0
 10
-54.747645977
 20
44.6546379075
 30
0.0
 11
-54.8118982314
 21
11.8684017672
 31
0.0
 11
-54.8113979973
 21
14.7858351261
 31
0.0
 11
-54.8102828012
 21
17.4512253048
 31
0.0
 11
-54.808953643
 21
19.8921090695
 31
0.0
 11
-54.8076282907
 21
22.1308129612
 31
0.0
 11
-54.8063015128
 21
24.1872015979
 31
0.0
 11
-54.8049347881
 21
26.0782999607
 31
0.0
 11
-54.80362437
 21
27.8188486539
 31
0.0
 11
-54.8024760919
 21
29.4225474638
 31
0.0
 11
-54.8015293764
 21
30.9019611828
 31
0.0
 11
-54.8007768861
 21
32.2668712998
 31
0.0
 11
-54.8002052522
 21
33.5248030045
 31
0.0
 11
-54.7997001747
 21
34.6838498714
 31
0.0
 11
-54.7989989008
 21
35.7532283255
 31
0.0
 11
-54.7980118395
 21
36.7421148414
 31
0.0
 11
-54.796799965
 21
37.6564456329
 31
0.0
 11
-54.7952613845
 21
38.4988809662
 31
0.0
 11
-54.792984862
 21
39.2738136122
 31
0.0
 11
-54.7897709613
 21
39.9870948098
 31
0.0
 11
-54.7859271096
 21
40.6439999032
 31
0.0
 11
-54.7820003927
 21
41.2471477326
 31
0.0
 11
-54.7782205379
 21
41.7904485403
 31
0.0
 11
-54.7747620736
 21
42.2730106179
 31
0.0
 11
-54.7721277358
 21
42.7138814672
 31
0.0
 11
-54.7707049989
 21
43.1442746786
 31
0.0
 11
-54.7686957764
 21
43.5978582917
 31
0.0
 11
-54.762097952
 21
44.1033789076
 31
0.0
 11
-54.747645977
 21
44.6546379075
 31
0.0
  0
SPLINE
  5
3A2
100
AcDbEntity
  8
RACCORDO
100
AcDbSpline
 62
253
  6
CONTINUOUS
 70
0
 71
3
 72
10
 73
6
 74
4
 42
0.0000001
 43
0.0000001
 44
0.0000000001
 12
-0.5824820745
 22
-0.1351931084
 32
0.0
 13
-0.5978835411
 23
-0.0098901428
 33
0.0
 40
0.0
 40
0.0
 40
0.0
 40
0.0
 40
0.138119134
 40
0.476035601
 40
1.0
 40
1.0
 40
1.0
 40
1.0
 10
-57.6059583822
 20
-22.1151982339
 30
0.0
 10
-57.6327756888
 20
-22.1214224856
 30
0.0
 10
-57.7288575079
 20
-22.1185127507
 30
0.0
 10
-57.9270197021
 20
-22.1295038529
 30
0.0
 10
-58.0991970901
 20
-22.1303992475
 30
0.0
 10
-58.2036203202
 20
-22.1321266084
 30
0.0
 11
-57.6059583822
 21
-22.1151982339
 31
0.0
 11
-57.6883836359
 21
-22.1204194139
 31
0.0
 11
-57.8903649632
 21
-22.126140447
 31
0.0
 11
-58.2036203202
 21
-22.1321266084
 31
0.0
  0
SPLINE
  5
3A3
100
AcDbEntity
  8
RACCORDO
100
AcDbSpline
 62
253
  6
CONTINUOUS
 70
0
 71
3
 72
10
 73
6
 74
4
 42
0.0000001
 43
0.0000001
 44
0.0000000001
 12
-0.5823865767
 22
0.1364907833
 32
0.0
 13
-0.5980832653
 23
0.0100133106
 33
0.0
 40
0.0
 40
0.0
 40
0.0
 40
0.0
 40
0.1381568747
 40
0.4760734159
 40
1.0
 40
1.0
 40
1.0
 40
1.0
 10
-57.6059624942
 20
22.3518552117
 30
0.0
 10
-57.6327827306
 20
22.3581409251
 30
0.0
 10
-57.7289260921
 20
22.3552211311
 30
0.0
 10
-57.9271337761
 20
22.3663211074
 30
0.0
 10
-58.0993685233
 20
22.3672371248
 30
0.0
 10
-58.2038190974
 20
22.3689858714
 30
0.0
 11
-57.6059624942
 21
22.3518552117
 31
0.0
 11
-57.6884344171
 21
22.3571372008
 31
0.0
 11
-57.8904820432
 21
22.3629265594
 31
0.0
 11
-58.2038190974
 21
22.3689858714
 31
0.0
  0
SPLINE
  5
3A4
100
AcDbEntity
  8
RACCORDO
100
AcDbSpline
 62
253
  6
CONTINUOUS
 70
0
 71
3
 72
18
 73
14
 74
12
 42
0.0000001
 43
0.0000001
 44
0.0000000001
 12
0.0000006182
 22
10.4834707834
 32
0.0
 13
0.0640693577
 23
10.4832750028
 33
0.0
 40
0.0
 40
0.0
 40
0.0
 40
0.0
 40
0.1177950836
 40
0.2443756936
 40
0.367280297
 40
0.4768777808
 40
0.5754750471
 40
0.664555163
 40
0.7455290728
 40
0.8191590282
 40
0.8856803714
 40
0.9456359475
 40
1.0
 40
1.0
 40
1.0
 40
1.0
 10
-57.6159686539
 20
11.8684017672
 30
0.0
 10
-57.6159686296
 20
12.2800355396
 30
0.0
 10
-57.6159096408
 20
13.1340040218
 30
0.0
 10
-57.6156732889
 20
14.4174614227
 30
0.0
 10
-57.6154004898
 20
15.6722723791
 30
0.0
 10
-57.6153387882
 20
16.829295862
 30
0.0
 10
-57.6156197895
 20
17.8681199508
 30
0.0
 10
-57.6155174572
 20
18.8069193205
 30
0.0
 10
-57.6148155088
 20
19.6584704121
 30
0.0
 10
-57.6136048482
 20
20.4311894202
 30
0.0
 10
-57.6118364143
 20
21.1304589029
 30
0.0
 10
-57.6092929887
 20
21.7624010316
 30
0.0
 10
-57.6071235123
 20
22.1618841076
 30
0.0
 10
-57.605962489
 20
22.3518552117
 30
0.0
 11
-57.6159686539
 21
11.8684017672
 31
0.0
 11
-57.6158889283
 21
13.1033030819
 31
0.0
 11
-57.6156634612
 21
14.4303071898
 31
0.0
 11
-57.615427631
 21
15.718773987
 31
0.0
 11
-57.6154020256
 21
16.8677360054
 31
0.0
 11
-57.615560092
 21
17.9013775541
 31
0.0
 11
-57.6153977274
 21
18.8352463326
 31
0.0
 11
-57.6146843237
 21
19.6841336503
 31
0.0
 11
-57.6134358614
 21
20.4560301271
 31
0.0
 11
-57.6115955115
 21
21.1534022568
 31
0.0
 11
-57.6090598671
 21
21.7819396728
 31
0.0
 11
-57.605962489
 21
22.3518552117
 31
0.0
  0
SPLINE
  5
3A5
100
AcDbEntity
  8
RACCORDO
100
AcDbSpline
 62
253
  6
CONTINUOUS
 70
0
 71
3
 72
18
 73
14
 74
12
 42
0.0000001
 43
0.0000001
 44
0.0000000001
 12
-0.0632592874
 22
10.4834258031
 32
0.0
 13
0.0000001037
 23
10.4836166615
 33
0.0
 40
0.0
 40
0.0
 40
0.0
 40
0.0
 40
0.116986648
 40
0.2305847682
 40
0.3465934378
 40
0.4613218896
 40
0.5639196307
 40
0.6555041085
 40
0.7381759953
 40
0.8130210388
 40
0.8810364857
 40
0.9430759551
 40
1.0
 40
1.0
 40
1.0
 40
1.0
 10
-57.6059712206
 20
-22.1151983082
 30
0.0
 10
-57.6084380513
 20
-21.7063913602
 30
0.0
 10
-57.6119370444
 20
-20.9006102782
 30
0.0
 10
-57.6146714702
 20
-19.6894287122
 30
0.0
 10
-57.6156514618
 20
-18.4861358877
 30
0.0
 10
-57.6155219587
 20
-17.3212842279
 30
0.0
 10
-57.6153264652
 20
-16.2417838925
 30
0.0
 10
-57.61544859
 20
-15.2743064513
 30
0.0
 10
-57.6156191247
 20
-14.4038119125
 30
0.0
 10
-57.6157774757
 20
-13.6156802654
 30
0.0
 10
-57.615890714
 20
-12.8996493967
 30
0.0
 10
-57.6159546965
 20
-12.2462441484
 30
0.0
 10
-57.6159686551
 20
-11.8305215215
 30
0.0
 10
-57.6159686532
 20
-11.6315982328
 30
0.0
 11
-57.6059712206
 21
-22.1151983082
 31
0.0
 11
-57.6115560775
 21
-20.8887678522
 31
0.0
 11
-57.6143689997
 21
-19.6978520285
 31
0.0
 11
-57.6154664466
 21
-18.4816621023
 31
0.0
 11
-57.615502447
 21
-17.2788929933
 31
0.0
 11
-57.6153777133
 21
-16.2032976132
 31
0.0
 11
-57.6154642414
 21
-15.2431610592
 31
0.0
 11
-57.6156252432
 21
-14.3764607045
 31
0.0
 11
-57.61577641
 21
-13.5918139742
 31
0.0
 11
-57.6158865305
 21
-12.8787661098
 31
0.0
 11
-57.6159491721
 21
-12.2283680985
 31
0.0
 11
-57.6159686532
 21
-11.6315982328
 31
0.0
  0
SPLINE
  5
3A6
100
AcDbEntity
  8
RACCORDO
100
AcDbSpline
 62
253
  6
CONTINUOUS
 70
0
 71
3
 72
14
 73
10
 74
8
 42
0.0000001
 43
0.0000001
 44
0.0000000001
 12
-0.0064127609
 22
0.6195009657
 32
0.0
 13
0.0039073844
 23
0.6195223009
 33
0.0
 40
0.0
 40
0.0
 40
0.0
 40
0.0
 40
0.0897233281
 40
0.2017370011
 40
0.3399802458
 40
0.5090785947
 40
0.7067142776
 40
0.9249144296
 40
1.0
 40
1.0
 40
1.0
 40
1.0
 10
-58.2061041738
 20
-24.0765003715
 30
0.0
 10
-58.2062959652
 20
-24.0579724754
 30
0.0
 10
-58.2066367849
 20
-24.0163127523
 30
0.0
 10
-58.2070524632
 20
-23.9461040647
 30
0.0
 10
-58.2073238105
 20
-23.8595028136
 30
0.0
 10
-58.2076301449
 20
-23.7552191785
 30
0.0
 10
-58.2070451523
 20
-23.6344239777
 30
0.0
 10
-58.2062338401
 20
-23.5330463895
 30
0.0
 10
-58.2058344343
 20
-23.4724808345
 30
0.0
 10
-58.2057366382
 20
-23.4569751061
 30
0.0
 11
-58.2061041738
 21
-24.0765003715
 31
0.0
 11
-58.2065805006
 21
-24.0209157021
 31
0.0
 11
-58.206991535
 21
-23.9515205681
 31
0.0
 11
-58.2073013315
 21
-23.8658746487
 31
0.0
 11
-58.2074875566
 21
-23.7611125284
 31
0.0
 11
-58.2070044259
 21
-23.6386713286
 31
0.0
 11
-58.2060445322
 21
-23.5034921826
 31
0.0
 11
-58.2057366382
 21
-23.4569751061
 31
0.0
  0
SPLINE
  5
3A7
100
AcDbEntity
  8
RACCORDO
100
AcDbSpline
 62
253
  6
CONTINUOUS
 70
0
 71
3
 72
8
 73
4
 74
2
 42
0.0000001
 43
0.0000001
 44
0.0000000001
 12
-0.1817613729
 22
-0.0002488291
 32
0.0
 13
0.0003917712
 23
0.0023332844
 33
0.0
 40
0.0
 40
0.0
 40
0.0
 40
0.0
 40
1.0
 40
1.0
 40
1.0
 40
1.0
 10
-58.2038157572
 20
-22.1321261585
 30
0.0
 10
-58.2644028815
 20
-22.1322091015
 30
0.0
 10
-58.399444609
 20
-22.1351107471
 30
0.0
 10
-58.3993140185
 20
-22.1343329857
 30
0.0
 11
-58.2038157572
 21
-22.1321261585
 31
0.0
 11
-58.3993140185
 21
-22.1343329857
 31
0.0
  0
LINE
  5
3A8
100
AcDbEntity
  8
RACCORDO
100
AcDbLine
 62
253
  6
CONTINUOUS
 10
-58.2036197634
 20
-22.1321257823
 11
-58.2042514048
 21
-21.7179855818
  0
LINE
  5
3A9
100
AcDbEntity
  8
RACCORDO
100
AcDbLine
 62
253
  6
CONTINUOUS
 10
-58.2042514048
 20
-21.7179855818
 11
-58.2052007188
 21
-20.8979050015
  0
SPLINE
  5
3AA
100
AcDbEntity
  8
RACCORDO
100
AcDbSpline
 62
253
  6
CONTINUOUS
 70
0
 71
3
 72
15
 73
11
 74
9
 42
0.0000001
 43
0.0000001
 44
0.0000000001
 12
-0.0074246128
 22
8.0187582632
 32
0.0
 13
-0.0002700258
 23
8.0187615337
 33
0.0
 40
0.0
 40
0.0
 40
0.0
 40
0.0
 40
0.1491110684
 40
0.301208962
 40
0.4513715956
 40
0.5854483481
 40
0.7051284588
 40
0.8131984782
 40
0.9110584215
 40
1.0
 40
1.0
 40
1.0
 40
1.0
 10
-58.2052007188
 20
-20.8979050015
 30
0.0
 10
-58.2055697495
 20
-20.4993431309
 30
0.0
 10
-58.2060530495
 20
-19.6942356321
 30
0.0
 10
-58.2063205506
 20
-18.4877552467
 30
0.0
 10
-58.2062872335
 20
-17.3214603783
 30
0.0
 10
-58.2062395745
 20
-16.2418156709
 30
0.0
 10
-58.206272232
 20
-15.274681174
 30
0.0
 10
-58.206317705
 20
-14.404351331
 30
0.0
 10
-58.2063593601
 20
-13.6161831411
 30
0.0
 10
-58.2063803512
 20
-13.1168775221
 30
0.0
 10
-58.2063883567
 20
-12.8791437527
 30
0.0
 11
-58.2052007188
 21
-20.8979050015
 31
0.0
 11
-58.2059735629
 21
-19.702219151
 31
0.0
 11
-58.2062704952
 21
-18.4825824483
 31
0.0
 11
-58.2062827023
 21
-17.2784640975
 31
0.0
 11
-58.2062526285
 21
-16.2033345915
 31
0.0
 11
-58.2062763865
 21
-15.2436483229
 31
0.0
 11
-58.2063192222
 21
-14.3770606093
 31
0.0
 11
-58.2063591387
 21
-13.5923450608
 31
0.0
 11
-58.2063883567
 21
-12.8791437527
 31
0.0
  0
LINE
  5
3AB
100
AcDbEntity
  8
RACCORDO
100
AcDbLine
 62
253
  6
CONTINUOUS
 10
-58.2063883567
 20
-12.8791437527
 11
-58.20641017
 21
-11.6315982328
  0
SPLINE
  5
3AC
100
AcDbEntity
  8
RACCORDO
100
AcDbSpline
 62
253
  6
CONTINUOUS
 70
0
 71
3
 72
10
 73
6
 74
4
 42
0.0000001
 43
0.0000001
 44
0.0000000001
 12
0.9387898922
 22
-0.0491159271
 32
0.0
 13
0.9394352138
 23
-0.0346455628
 33
0.0
 40
0.0
 40
0.0
 40
0.0
 40
0.0
 40
0.1708622908
 40
0.5295838566
 40
1.0
 40
1.0
 40
1.0
 40
1.0
 10
-54.7476443023
 20
44.6546378462
 30
0.0
 10
-54.6941763717
 20
44.6518404929
 30
0.0
 10
-54.5283270343
 20
44.6458359784
 30
0.0
 10
-54.2152235406
 20
44.633355504
 30
0.0
 10
-53.9555788468
 20
44.6238343751
 30
0.0
 10
-53.8082703501
 20
44.6184017644
 30
0.0
 11
-54.7476443023
 21
44.6546378462
 31
0.0
 11
-54.5871623883
 21
44.6479029892
 31
0.0
 11
-54.2501882441
 21
44.6349042858
 31
0.0
 11
-53.8082703501
 21
44.6184017644
 31
0.0
  0
LINE
  5
3AD
100
AcDbEntity
  8
RACCORDO
100
AcDbLine
 62
253
  6
CONTINUOUS
 10
-58.2064101543
 20
11.8685418081
 11
-58.2064078096
 21
12.2692035776
  0
LINE
  5
3AE
100
AcDbEntity
  8
RACCORDO
100
AcDbLine
 62
253
  6
CONTINUOUS
 10
-58.2064078096
 20
12.2692035776
 11
-58.2063889942
 21
13.1038138792
  0
SPLINE
  5
3AF
100
AcDbEntity
  8
RACCORDO
100
AcDbSpline
 62
253
  6
CONTINUOUS
 70
0
 71
3
 72
15
 73
11
 74
9
 42
0.0000001
 43
0.0000001
 44
0.0000000001
 12
0.0002657518
 22
8.0588432673
 32
0.0
 13
0.0073524051
 23
8.0588399911
 33
0.0
 40
0.0
 40
0.0
 40
0.0
 40
0.0
 40
0.1646913025
 40
0.3245508745
 40
0.4670201191
 40
0.5953025525
 40
0.7113701001
 40
0.8169664088
 40
0.913038337
 40
1.0
 40
1.0
 40
1.0
 40
1.0
 10
-58.2063889942
 20
13.1038138792
 30
0.0
 10
-58.2063744052
 20
13.5462210107
 30
0.0
 10
-58.2063319832
 20
14.4180558869
 30
0.0
 10
-58.20625917
 20
15.6726031993
 30
0.0
 10
-58.2062422426
 20
16.8293460587
 30
0.0
 10
-58.2063105593
 20
17.8684512274
 30
0.0
 10
-58.206290309
 20
18.8085053319
 30
0.0
 10
-58.2060969475
 20
19.6620329454
 30
0.0
 10
-58.2057642363
 20
20.4373739239
 30
0.0
 10
-58.2054100468
 20
20.9290534792
 30
0.0
 10
-58.205196921
 20
21.162656855
 30
0.0
 11
-58.2063889942
 21
13.1038138792
 31
0.0
 11
-58.2063292456
 21
14.4310352729
 31
0.0
 11
-58.2062663146
 21
15.7193185078
 31
0.0
 11
-58.206257872
 21
16.8674558204
 31
0.0
 11
-58.2062969251
 21
17.9012638454
 31
0.0
 11
-58.2062562345
 21
18.8366340194
 31
0.0
 11
-58.2060610635
 21
19.6876180984
 31
0.0
 11
-58.2057142816
 21
20.4618466334
 31
0.0
 11
-58.205196921
 21
21.162656855
 31
0.0
  0
SPLINE
  5
3B0
100
AcDbEntity
  8
RACCORDO
100
AcDbSpline
 62
253
  6
CONTINUOUS
 70
0
 71
3
 72
9
 73
5
 74
3
 42
0.0000001
 43
0.0000001
 44
0.0000000001
 12
0.0011005821
 22
1.206328406
 32
0.0
 13
0.0020448284
 23
1.206327164
 33
0.0
 40
0.0
 40
0.0
 40
0.0
 40
0.0
 40
0.524388957
 40
1.0
 40
1.0
 40
1.0
 40
1.0
 10
-58.205196921
 20
21.162656855
 30
0.0
 10
-58.2050045433
 20
21.3735186199
 30
0.0
 10
-58.2045680031
 20
21.7756280292
 30
0.0
 10
-58.2039357519
 20
22.1777371765
 30
0.0
 10
-58.2036115709
 20
22.3689846834
 30
0.0
 11
-58.205196921
 21
21.162656855
 31
0.0
 11
-58.2044928922
 21
21.7952420154
 31
0.0
 11
-58.2036115709
 21
22.3689846834
 31
0.0
  0
SPLINE
  5
3B1
100
AcDbEntity
  8
RACCORDO
100
AcDbSpline
 62
253
  6
CONTINUOUS
 70
0
 71
3
 72
8
 73
4
 74
2
 42
0.0000001
 43
0.0000001
 44
0.0000000001
 12
-0.1817841021
 22
0.0002750286
 32
0.0
 13
0.0004802616
 23
-0.0025851629
 33
0.0
 40
0.0
 40
0.0
 40
0.0
 40
0.0
 40
1.0
 40
1.0
 40
1.0
 40
1.0
 10
-58.2038190989
 20
22.3689850068
 30
0.0
 10
-58.2644137996
 20
22.369076683
 30
0.0
 10
-58.3994803343
 20
22.3722890296
 30
0.0
 10
-58.3993202471
 20
22.3714273086
 30
0.0
 11
-58.2038190989
 21
22.3689850068
 31
0.0
 11
-58.3993202471
 21
22.3714273086
 31
0.0
  0
SPLINE
  5
3B2
100
AcDbEntity
  8
RACCORDO
100
AcDbSpline
 62
253
  6
CONTINUOUS
 70
0
 71
3
 72
14
 73
10
 74
8
 42
0.0000001
 43
0.0000001
 44
0.0000000001
 12
-0.0043156222
 22
0.6834630166
 32
0.0
 13
0.0103225552
 23
0.6834031045
 33
0.0
 40
0.0
 40
0.0
 40
0.0
 40
0.0
 40
0.2049172754
 40
0.3962510083
 40
0.5626287272
 40
0.6999905245
 40
0.815670586
 40
0.9105578607
 40
1.0
 40
1.0
 40
1.0
 40
1.0
 10
-58.2056778938
 20
23.6826737384
 30
0.0
 10
-58.2059726757
 20
23.7293581981
 30
0.0
 10
-58.2066094592
 20
23.8196319887
 30
0.0
 10
-58.207549984
 20
23.9478105128
 30
0.0
 10
-58.2074731944
 20
24.0606016846
 30
0.0
 10
-58.2071467101
 20
24.1561556113
 30
0.0
 10
-58.2067712786
 20
24.235421967
 30
0.0
 10
-58.2062485978
 20
24.3037700296
 30
0.0
 10
-58.2057410823
 20
24.3457619918
 30
0.0
 10
-58.2054333251
 20
24.3661370037
 30
0.0
 11
-58.2056778938
 21
23.6826737384
 31
0.0
 11
-58.2066381383
 21
23.8227267022
 31
0.0
 11
-58.2074047484
 21
23.9534966713
 31
0.0
 11
-58.2074118878
 21
24.0672120242
 31
0.0
 11
-58.2071074161
 21
24.161095167
 31
0.0
 11
-58.2067066968
 21
24.2401588192
 31
0.0
 11
-58.2061897242
 21
24.3050100336
 31
0.0
 11
-58.2054333251
 21
24.3661370037
 31
0.0
  0
ELLIPSE
  5
3B3
100
AcDbEntity
  8
RACCORDO
100
AcDbEllipse
 62
7
  6
CONTINUOUS
 10
59.4031931998
 20
-4.0833914595
 30
0.0
 11
-0.0
 21
0.5
 31
0.0
 40
0.0524077793
 41
-1.5707963268
 42
-0.1308996939
  0
ELLIPSE
  5
3B4
100
AcDbEntity
  8
RACCORDO
100
AcDbEllipse
 62
7
  6
CONTINUOUS
 10
59.4031931998
 20
4.3201949938
 30
0.0
 11
0.0
 21
0.5
 31
0.0
 40
0.0524077793
 41
-3.0106929597
 42
-1.5707963268
  0
ELLIPSE
  5
3B5
100
AcDbEntity
  8
RACCORDO
100
AcDbEllipse
 62
7
  6
CONTINUOUS
 10
-35.544399021
 20
-4.0833914595
 30
0.0
 11
-0.0
 21
0.5
 31
0.0
 40
0.0524077793
 41
0.1308996939
 42
1.5707963268
  0
ELLIPSE
  5
3B6
100
AcDbEntity
  8
RACCORDO
100
AcDbEllipse
 62
7
  6
CONTINUOUS
 10
-35.544399021
 20
4.3201949938
 30
0.0
 11
0.0
 21
0.5
 31
0.0
 40
0.0524077793
 41
-4.7123889804
 42
-3.2724923475
  0
ELLIPSE
  5
3B7
100
AcDbEntity
  8
RACCORDO
100
AcDbEllipse
 62
7
  6
CONTINUOUS
 10
-35.4919912417
 20
3.1799135357
 30
0.0
 11
0.0
 21
0.5
 31
0.0
 40
0.0524077793
 41
-1.5707963268
 42
-0.1308996939
  0
ELLIPSE
  5
3B8
100
AcDbEntity
  8
RACCORDO
100
AcDbEllipse
 62
7
  6
CONTINUOUS
 10
-35.4919912417
 20
-2.9431100014
 30
0.0
 11
0.0
 21
0.5
 31
0.0
 40
0.0524077793
 41
-3.0106929597
 42
-1.5707963268
  0
ELLIPSE
  5
3B9
100
AcDbEntity
  8
RACCORDO
100
AcDbEllipse
 62
7
  6
CONTINUOUS
 10
59.3507854205
 20
3.1799135357
 30
0.0
 11
0.0
 21
0.5
 31
0.0
 40
0.0524077793
 41
0.1308996939
 42
1.5707963268
  0
ELLIPSE
  5
3BA
100
AcDbEntity
  8
RACCORDO
100
AcDbEllipse
 62
7
  6
CONTINUOUS
 10
59.3507854205
 20
-2.9431100014
 30
0.0
 11
-0.0
 21
0.5
 31
0.0
 40
0.0524077793
 41
-4.7123889804
 42
-3.2724923475
  0
ENDSEC
  0
SECTION
  2
OBJECTS
  0
DICTIONARY
  5
C
100
AcDbDictionary
280
0
281
1
  3
ACAD_GROUP
350
D
  3
ACAD_MLINESTYLE
350
17
  3
ACAD_LAYOUT
350
1A
  3
ACAD_PLOTSETTINGS
350
19
  3
ACAD_PLOTSTYLENAME
350
E
  0
DICTIONARY
  5
D
102
{ACAD_REACTORS
330
C
102
}
100
AcDbDictionary
280
0
281
1
  0
ACDBDICTIONARYWDFLT
  5
E
102
{ACAD_REACTORS
330
C
102
}
100
AcDbDictionary
281
1
  3
Normal
350
F
100
AcDbDictionaryWithDefault
340
F
  0
DICTIONARY
  5
17
102
{ACAD_REACTORS
330
C
102
}
100
AcDbDictionary
280
0
281
1
  3
Standard
350
18
  0
DICTIONARY
  5
19
102
{ACAD_REACTORS
330
C
102
}
100
AcDbDictionary
281
1
  0
DICTIONARY
  5
1A
102
{ACAD_REACTORS
330
C
102
}
100
AcDbDictionary
281
1
  3
Model
350
3BB
  3
Layout1
350
3BC
  0
ACDBPLACEHOLDER
  5
F
102
{ACAD_REACTORS
330
E
102
}
  0
MLINESTYLE
  5
18
102
{ACAD_REACTORS
330
17
102
}
100
AcDbMlineStyle
  2
STANDARD
 70
0
  3

 62
256
 51
90.0
 52
90.0
 71
2
 49
0.5
 62
256
  6
BYLAYER
 49
-0.5
 62
256
  6
BYLAYER
  0
LAYOUT
  5
3BB
102
{ACAD_REACTORS
330
1A
102
}
100
AcDbPlotSettings
  1

  2
none_device
  4
ISO_A4_(297.00_x_210.00_MM)
  6

 40
0.0
 41
0.0
 42
0.0
 43
0.0
 44
297.0
 45
210.0
 46
0.0
 47
0.0
 48
0.0
 49
0.0
140
0.0
141
0.0
142
1.0
143
1.0
 70
1024
 72
1
 73
0
 74
0
  7

 75
0
147
1.0
148
0.0
149
0.0
100
AcDbLayout
  1
Model
 70
0
 71
0
 10
0.0
 20
0.0
 11
297.0
 21
210.0
 12
0.0
 22
0.0
 32
0.0
 14
0.0
 24
0.0
 34
0.0
 15
0.0
 25
0.0
 35
0.0
146
0.0
 13
0.0
 23
0.0
 33
0.0
 16
1.0
 26
0.0
 36
0.0
 17
0.0
 27
1.0
 37
0.0
 76
0
330
20D
345
0
346
0
  0
LAYOUT
  5
3BC
102
{ACAD_REACTORS
330
1A
102
}
100
AcDbPlotSettings
  1

  2
none_device
  4
ISO_A4_(297.00_x_210.00_MM)
  6

 40
0.0
 41
0.0
 42
0.0
 43
0.0
 44
297.0
 45
210.0
 46
0.0
 47
0.0
 48
0.0
 49
0.0
140
0.0
141
0.0
142
1.0
143
1.0
 70
0
 72
1
 73
0
 74
0
  7

 75
0
147
1.0
148
0.0
149
0.0
100
AcDbLayout
  1
Layout1
 70
0
 71
1
 10
0.0
 20
0.0
 11
297.0
 21
210.0
 12
0.0
 22
0.0
 32
0.0
 14
0.0
 24
0.0
 34
0.0
 15
0.0
 25
0.0
 35
0.0
146
0.0
 13
0.0
 23
0.0
 33
0.0
 16
1.0
 26
0.0
 36
0.0
 17
0.0
 27
1.0
 37
0.0
 76
0
330
20E
345
0
346
0
  0
ENDSEC
  0
EOF
