  0
SECTION
  2
HEADER
  9
$ACADVER
  1
AC1015
  9
$DWGCODEPAGE
  3
ANSI_1252
  9
$EXTMAX
 10
297.0
 20
210.0
 30
0.0
  9
$EXTMIN
 10
0.0
 20
0.0
 30
0.0
  9
$LIMMIN
 10
0.0
 20
0.0
  9
$LIMMAX
 10
297.0
 20
210.0
  9
$VIEWCTR
 10
148.5
 20
105.0
  9
$VIEWSIZE
 40
210.0
  9
$CLAYER
  8
0
  9
$LTSCALE
 40
16.335
  9
$CELTYPE
  6
BYLAYER
  9
$DIMSCALE
 40
1.0
  9
$DIMASZ
 40
3.0
  9
$DIMEXO
 40
1.85625
  9
$DIMDLI
 40
11.286
  9
$DIMEXE
 40
5.346
  9
$DIMCEN
 40
2.673
  9
$DIMLFAC
 40
1.0
  9
$DIMBLK
  1
_FILLED
  9
$DIMTXT
 40
3.0
  9
$DIMTOL
 70
1
  9
$DIMLIM
 70
0
  9
$DIMTFAC
 40
1.0
  9
$DIMTP
 40
0.01
  9
$DIMTM
 40
0.01
  9
$PDMODE
 70
3
  9
$PDSIZE
 40
3.0
  9
$HANDSEED
  5
3EB
  9
$TILEMODE
 70
1
  9
$MEASUREMENT
 70
1
  9
$INSUNITS
 70
4
  0
ENDSEC
  0
SECTION
  2
CLASSES
  0
CLASS
  1
ACDBDICTIONARYWDFLT
  2
AcDbDictionaryWithDefault
  3
AutoCAD 2000
 90
0
280
0
281
0
  0
CLASS
  1
ACDBPLACEHOLDER
  2
AcDbPlaceHolder
  3
AutoCAD 2000
 90
0
280
0
281
0
  0
CLASS
  1
LAYOUT
  2
AcDbLayout
  3
AutoCAD 2000
 90
0
280
0
281
0
  0
ENDSEC
  0
SECTION
  2
TABLES
  0
TABLE
  2
VPORT
  5
8
100
AcDbSymbolTable
 70
2
  0
VPORT
  5
1F4
100
AcDbSymbolTableRecord
100
AcDbViewportTableRecord
  2
*ACTIVE
 70
0
 10
0.0
 20
0.0
 11
1.0
 21
1.0
 12
148.5
 22
105.0
 13
0.0
 23
0.0
 14
1.0
 24
1.0
 15
0.0
 25
0.0
 16
0.0
 26
0.0
 36
1.0
 17
0.0
 27
0.0
 37
0.0
 40
210.0
 41
1.4142857143
 42
50.0
 43
0.0
 44
0.0
 50
0.0
 51
0.0
 71
0
 72
100
 73
1
 74
1
 75
0
 76
0
 77
0
 78
0
  0
ENDTAB
  0
TABLE
  2
LTYPE
  5
5
100
AcDbSymbolTable
 70
6
  0
LTYPE
  5
14
100
AcDbSymbolTableRecord
100
AcDbLinetypeTableRecord
  2
BYBLOCK
 70
0
  3

 72
65
 73
0
 40
0.0
  0
LTYPE
  5
15
100
AcDbSymbolTableRecord
100
AcDbLinetypeTableRecord
  2
BYLAYER
 70
0
  3

 72
65
 73
0
 40
0.0
  0
LTYPE
  5
16
100
AcDbSymbolTableRecord
100
AcDbLinetypeTableRecord
  2
CONTINUOUS
 70
64
  3
Solid line
 72
65
 73
0
 40
0.0
  0
LTYPE
  5
1F5
100
AcDbSymbolTableRecord
100
AcDbLinetypeTableRecord
  2
CENTER
 70
64
  3
____ _ ____ _ ____ _ ____ _ ____ _ ____ _ ____
 72
65
 73
4
 40
0.6
 49
0.375
 74
0
 49
-0.075
 74
0
 49
0.075
 74
0
 49
-0.075
 74
0
  0
LTYPE
  5
1F6
100
AcDbSymbolTableRecord
100
AcDbLinetypeTableRecord
  2
HIDDEN
 70
64
  3
- - - - - - - - - - - - - - - - - - - -
 72
65
 73
2
 40
0.2
 49
0.1
 74
0
 49
-0.1
 74
0
  0
LTYPE
  5
1F7
100
AcDbSymbolTableRecord
100
AcDbLinetypeTableRecord
  2
PHANTOM
 70
64
  3
_____ _ _ _____ _ _ _____ _ _ _____
 72
65
 73
6
 40
0.8
 49
0.45
 74
0
 49
-0.05
 74
0
 49
0.1
 74
0
 49
-0.05
 74
0
 49
0.1
 74
0
 49
-0.05
 74
0
  0
LTYPE
  5
1F8
100
AcDbSymbolTableRecord
100
AcDbLinetypeTableRecord
  2
DOT
 70
64
  3
. . . . . . . . . . . . . . . . . . . .
 72
65
 73
2
 40
0.2
 49
0.1
 74
0
 49
-0.1
 74
0
  0
LTYPE
  5
1F9
100
AcDbSymbolTableRecord
100
AcDbLinetypeTableRecord
  2
DASHED
 70
64
  3
- - - - - - - - - - - - - - - - - - - -
 72
65
 73
2
 40
0.2
 49
0.1
 74
0
 49
-0.1
 74
0
  0
ENDTAB
  0
TABLE
  2
LAYER
  5
2
100
AcDbSymbolTable
 70
36
  0
LAYER
  5
10
100
AcDbSymbolTableRecord
100
AcDbLayerTableRecord
  2
0
 70
0
 62
7
  6
CONTINUOUS
370
-3
390
F
  0
LAYER
  5
1FA
100
AcDbSymbolTableRecord
100
AcDbLayerTableRecord
  2
DEFAULT_1
 70
0
 62
7
  6
CENTER
370
-3
390
F
  0
LAYER
  5
1FB
100
AcDbSymbolTableRecord
100
AcDbLayerTableRecord
  2
DEFAULT_2
 70
0
 62
7
  6
HIDDEN
370
-3
390
F
  0
LAYER
  5
1FC
100
AcDbSymbolTableRecord
100
AcDbLayerTableRecord
  2
DEFAULT_3
 70
0
 62
7
  6
PHANTOM
370
-3
390
F
  0
LAYER
  5
1FD
100
AcDbSymbolTableRecord
100
AcDbLayerTableRecord
  2
ASSI
 70
0
 62
7
  6
CONTINUOUS
370
-3
390
F
  0
LAYER
  5
1FE
100
AcDbSymbolTableRecord
100
AcDbLayerTableRecord
  2
COORDINATE
 70
0
 62
7
  6
CONTINUOUS
370
-3
390
F
  0
LAYER
  5
1FF
100
AcDbSymbolTableRecord
100
AcDbLayerTableRecord
  2
COPY_PUBLISH
 70
0
 62
7
  6
CONTINUOUS
370
-3
390
F
  0
LAYER
  5
200
100
AcDbSymbolTableRecord
100
AcDbLayerTableRecord
  2
COSMETIC
 70
0
 62
7
  6
CONTINUOUS
370
-3
390
F
  0
LAYER
  5
201
100
AcDbSymbolTableRecord
100
AcDbLayerTableRecord
  2
CURVE
 70
0
 62
7
  6
CONTINUOUS
370
-3
390
F
  0
LAYER
  5
202
100
AcDbSymbolTableRecord
100
AcDbLayerTableRecord
  2
DRAFT
 70
0
 62
7
  6
CONTINUOUS
370
-3
390
F
  0
LAYER
  5
203
100
AcDbSymbolTableRecord
100
AcDbLayerTableRecord
  2
IMPORT_IGES
 70
0
 62
7
  6
CONTINUOUS
370
-3
390
F
  0
LAYER
  5
204
100
AcDbSymbolTableRecord
100
AcDbLayerTableRecord
  2
INTFCLR_1
 70
0
 62
7
  6
CONTINUOUS
370
-3
390
F
  0
LAYER
  5
205
100
AcDbSymbolTableRecord
100
AcDbLayerTableRecord
  2
PIANI
 70
0
 62
7
  6
CONTINUOUS
370
-3
390
F
  0
LAYER
  5
206
100
AcDbSymbolTableRecord
100
AcDbLayerTableRecord
  2
PUNTI
 70
0
 62
7
  6
CONTINUOUS
370
-3
390
F
  0
LAYER
  5
207
100
AcDbSymbolTableRecord
100
AcDbLayerTableRecord
  2
RACCORDO
 70
0
 62
7
  6
CONTINUOUS
370
-3
390
F
  0
LAYER
  5
208
100
AcDbSymbolTableRecord
100
AcDbLayerTableRecord
  2
SNAPLINE
 70
0
 62
7
  6
CONTINUOUS
370
-3
390
F
  0
LAYER
  5
209
100
AcDbSymbolTableRecord
100
AcDbLayerTableRecord
  2
SUPERFICI
 70
0
 62
7
  6
CONTINUOUS
370
-3
390
F
  0
LAYER
  5
20A
100
AcDbSymbolTableRecord
100
AcDbLayerTableRecord
  2
TRASH
 70
0
 62
7
  6
CONTINUOUS
370
-3
390
F
  0
ENDTAB
  0
TABLE
  2
STYLE
  5
3
100
AcDbSymbolTable
 70
1
  0
STYLE
  5
11
100
AcDbSymbolTableRecord
100
AcDbTextStyleTableRecord
  2
STANDARD
 70
0
 40
0.0
 41
0.8
 50
0.0
 71
0
 42
0.2
  3
txt
  4

  0
STYLE
  5
20B
100
AcDbSymbolTableRecord
100
AcDbTextStyleTableRecord
  2
TEXTSTYLE_1
 70
0
 40
0.0
 41
0.8
 50
0.0
 71
0
 42
0.2
  3
gdt
  4

  0
ENDTAB
  0
TABLE
  2
VIEW
  5
6
100
AcDbSymbolTable
 70
0
  0
ENDTAB
  0
TABLE
  2
UCS
  5
7
100
AcDbSymbolTable
 70
0
  0
ENDTAB
  0
TABLE
  2
APPID
  5
9
100
AcDbSymbolTable
 70
1
  0
APPID
  5
20C
100
AcDbSymbolTableRecord
100
AcDbRegAppTableRecord
  2
ACAD
 70
0
  0
ENDTAB
  0
TABLE
  2
BLOCK_RECORD
  5
1
100
AcDbSymbolTable
 70
0
  0
BLOCK_RECORD
  5
20D
100
AcDbSymbolTableRecord
100
AcDbBlockTableRecord
  2
*Model_Space
  0
BLOCK_RECORD
  5
20E
100
AcDbSymbolTableRecord
100
AcDbBlockTableRecord
  2
*Paper_Space
  0
BLOCK_RECORD
  5
20F
100
AcDbSymbolTableRecord
100
AcDbBlockTableRecord
  2
_FILLED
  0
BLOCK_RECORD
  5
210
100
AcDbSymbolTableRecord
100
AcDbBlockTableRecord
  2
*D0
  0
BLOCK_RECORD
  5
211
100
AcDbSymbolTableRecord
100
AcDbBlockTableRecord
  2
*D1
  0
BLOCK_RECORD
  5
212
100
AcDbSymbolTableRecord
100
AcDbBlockTableRecord
  2
*D2
  0
ENDTAB
  0
TABLE
  2
DIMSTYLE
  5
A
100
AcDbSymbolTable
 70
1
100
AcDbDimStyleTable
 71
0
  0
DIMSTYLE
105
213
100
AcDbSymbolTableRecord
100
AcDbDimStyleTableRecord
  2
STANDARD
 70
0
  3

  4

 40
1.0
 41
3.0
 42
0.0625
 43
0.38
 44
0.18
 45
0.0
 46
0.0
 47
0.01
 48
0.01
140
3.0
141
0.09
142
0.0
143
25.4
144
1.0
145
0.0
146
1.0
147
0.09
 71
1.0
 72
0.0
 73
0
 74
0
 75
0
 76
0
 77
1
 78
8
170
0
171
2
172
0
173
0
174
0
175
0
176
0
177
0
178
0
270
2
271
2
272
2
273
2
274
2
275
0
280
0
281
0
282
0
283
1
284
8
285
0
286
0
287
3
288
0
340
11
341
20F
342
20F
343
20F
344
20F
  0
DIMSTYLE
105
214
100
AcDbSymbolTableRecord
100
AcDbDimStyleTableRecord
  2
DIMSTYLE_1
 70
0
  3

  4

 40
1.0
 41
3.0
 42
0.0625
 43
0.38
 44
0.18
 45
0.0
 46
0.0
 47
0.0
 48
0.0
140
3.0
141
0.09
142
0.0
143
25.4
144
1.0
145
0.0
146
1.0
147
0.09
 71
0.0
 72
0.0
 73
0
 74
0
 75
0
 76
0
 77
1
 78
8
170
0
171
2
172
0
173
0
174
0
175
0
176
0
177
0
178
0
270
2
271
2
272
2
273
2
274
2
275
0
280
0
281
0
282
0
283
1
284
8
285
0
286
0
287
3
288
0
340
11
341
20F
342
20F
343
20F
344
20F
  0
ENDTAB
  0
ENDSEC
  0
SECTION
  2
BLOCKS
  0
BLOCK
  5
20
100
AcDbEntity
  8
0
100
AcDbBlockBegin
  2
*Model_Space
 70
0
 10
0.0
 20
0.0
 30
0.0
  3
*Model_Space
  1

  0
ENDBLK
  5
21
100
AcDbEntity
  8
0
100
AcDbBlockEnd
  0
BLOCK
  5
1C
100
AcDbEntity
  8
0
100
AcDbBlockBegin
  2
*Paper_Space
 70
0
 10
0.0
 20
0.0
 30
0.0
  3
*Paper_Space
  1

  0
ENDBLK
  5
1D
100
AcDbEntity
  8
0
100
AcDbBlockEnd
  0
BLOCK
  5
215
100
AcDbEntity
  8
0
100
AcDbBlockBegin
  2
_FILLED
 70
64
 10
0.0
 20
0.0
  3
_FILLED
  1

  0
SOLID
  5
216
100
AcDbEntity
  8
0
  6
BYBLOCK
 62
0
100
AcDbTrace
 10
0.0
 20
0.0
 11
-1.0
 21
0.3166666667
 12
-1.0
 22
-0.3166666667
 13
-1.0
 23
-0.3166666667
  0
ENDBLK
  5
217
100
AcDbEntity
  8
0
  6
BYBLOCK
 62
0
100
AcDbBlockEnd
  0
BLOCK
  5
218
100
AcDbEntity
  8
0
100
AcDbBlockBegin
 62
7
  6
CONTINUOUS
  2
*D0
 70
65
 10
0.0
 20
0.0
  3
*D0
  1

  0
MTEXT
  5
219
100
AcDbEntity
  8
0
100
AcDbMText
 62
7
  6
CONTINUOUS
  7
STANDARD
 71
2
 72
1
 10
9.569335369
 20
59.1947401247
 30
0.0
 11
1.0
 21
0.0
 31
0.0
 44
0.9
  1
95
 40
3.0
 41
4.5
  0
LINE
  5
21A
100
AcDbEntity
  8
0
100
AcDbLine
 62
7
  6
CONTINUOUS
 10
57.069335369
 20
45.8053377011
 11
57.069335369
 21
56.9447401247
  0
LINE
  5
21B
100
AcDbEntity
  8
0
100
AcDbLine
 62
7
  6
CONTINUOUS
 10
-37.930664631
 20
46.4095470916
 11
-37.930664631
 21
56.9447401247
  0
LINE
  5
21C
100
AcDbEntity
  8
0
100
AcDbLine
 62
7
  6
CONTINUOUS
 10
57.069335369
 20
55.4447401247
 11
9.569335369
 21
55.4447401247
  0
LINE
  5
21D
100
AcDbEntity
  8
0
100
AcDbLine
 62
7
  6
CONTINUOUS
 10
-37.930664631
 20
55.4447401247
 11
9.569335369
 21
55.4447401247
  0
INSERT
  5
21E
100
AcDbEntity
  8
0
100
AcDbBlockReference
 62
7
  6
CONTINUOUS
  2
_FILLED
 10
57.069335369
 20
55.4447401247
 41
3.0
 42
3.0
 43
3.0
 50
0.0
  0
INSERT
  5
21F
100
AcDbEntity
  8
0
100
AcDbBlockReference
 62
7
  6
CONTINUOUS
  2
_FILLED
 10
-37.930664631
 20
55.4447401247
 41
3.0
 42
3.0
 43
3.0
 50
180.0
  0
ENDBLK
  5
220
100
AcDbEntity
  8
0
  6
BYBLOCK
 62
0
100
AcDbBlockEnd
  0
BLOCK
  5
221
100
AcDbEntity
  8
0
100
AcDbBlockBegin
 62
7
  6
CONTINUOUS
  2
*D1
 70
65
 10
0.0
 20
0.0
  3
*D1
  1

  0
MTEXT
  5
222
100
AcDbEntity
  8
0
100
AcDbMText
 62
7
  6
CONTINUOUS
  7
STANDARD
 71
2
 72
1
 10
61.319335369
 20
-0.0552598753
 30
0.0
 11
0.0
 21
1.0
 31
0.0
 44
0.9
  1
95
 40
3.0
 41
4.5
  0
LINE
  5
223
100
AcDbEntity
  8
0
100
AcDbLine
 62
7
  6
CONTINUOUS
 10
55.6869971949
 20
47.4447401247
 11
66.569335369
 21
47.4447401247
  0
LINE
  5
224
100
AcDbEntity
  8
0
100
AcDbLine
 62
7
  6
CONTINUOUS
 10
56.1479945437
 20
-47.5552598753
 11
66.569335369
 21
-47.5552598753
  0
LINE
  5
225
100
AcDbEntity
  8
0
100
AcDbLine
 62
7
  6
CONTINUOUS
 10
65.069335369
 20
47.4447401247
 11
65.069335369
 21
-0.0552598753
  0
LINE
  5
226
100
AcDbEntity
  8
0
100
AcDbLine
 62
7
  6
CONTINUOUS
 10
65.069335369
 20
-47.5552598753
 11
65.069335369
 21
-0.0552598753
  0
INSERT
  5
227
100
AcDbEntity
  8
0
100
AcDbBlockReference
 62
7
  6
CONTINUOUS
  2
_FILLED
 10
65.069335369
 20
47.4447401247
 41
3.0
 42
3.0
 43
3.0
 50
90.0
  0
INSERT
  5
228
100
AcDbEntity
  8
0
100
AcDbBlockReference
 62
7
  6
CONTINUOUS
  2
_FILLED
 10
65.069335369
 20
-47.5552598753
 41
3.0
 42
3.0
 43
3.0
 50
270.0
  0
ENDBLK
  5
229
100
AcDbEntity
  8
0
  6
BYBLOCK
 62
0
100
AcDbBlockEnd
  0
BLOCK
  5
22A
100
AcDbEntity
  8
0
100
AcDbBlockBegin
 62
7
  6
CONTINUOUS
  2
*D2
 70
65
 10
0.0
 20
0.0
  3
*D2
  1

  0
MTEXT
  5
22B
100
AcDbEntity
  8
0
100
AcDbMText
 62
7
  6
CONTINUOUS
  7
STANDARD
 71
2
 72
1
 10
-54.969149535
 20
59.1947401247
 30
0.0
 11
1.0
 21
0.0
 31
0.0
 44
0.9
  1
9
 40
3.0
 41
2.3571428571
  0
LINE
  5
22C
100
AcDbEntity
  8
0
100
AcDbLine
 62
7
  6
CONTINUOUS
 10
-50.4697085073
 20
47.8208021768
 11
-50.4697085073
 21
56.9447401247
  0
LINE
  5
22D
100
AcDbEntity
  8
0
100
AcDbLine
 62
7
  6
CONTINUOUS
 10
-59.4685905628
 20
24.9008056096
 11
-59.4685905628
 21
56.9447401247
  0
LINE
  5
22E
100
AcDbEntity
  8
0
100
AcDbLine
 62
7
  6
CONTINUOUS
 10
-50.4697085073
 20
55.4447401247
 11
-54.969149535
 21
55.4447401247
  0
LINE
  5
22F
100
AcDbEntity
  8
0
100
AcDbLine
 62
7
  6
CONTINUOUS
 10
-59.4685905628
 20
55.4447401247
 11
-54.969149535
 21
55.4447401247
  0
INSERT
  5
230
100
AcDbEntity
  8
0
100
AcDbBlockReference
 62
7
  6
CONTINUOUS
  2
_FILLED
 10
-50.4697085073
 20
55.4447401247
 41
3.0
 42
3.0
 43
3.0
  0
INSERT
  5
231
100
AcDbEntity
  8
0
100
AcDbBlockReference
 62
7
  6
CONTINUOUS
  2
_FILLED
 10
-59.4685905628
 20
55.4447401247
 41
3.0
 42
3.0
 43
3.0
 50
180.0
  0
ENDBLK
  5
232
100
AcDbEntity
  8
0
  6
BYBLOCK
 62
0
100
AcDbBlockEnd
  0
ENDSEC
  0
SECTION
  2
ENTITIES
  0
DIMENSION
  5
233
100
AcDbEntity
  8
0
100
AcDbDimension
 62
7
  6
CONTINUOUS
  2
*D0
 10
-37.930664631
 20
55.4447401247
 11
7.319335369
 21
57.6947401247
 70
160
 71
2
 42
95.0
  3
DIMSTYLE_1
100
AcDbAlignedDimension
 13
57.069335369
 23
45.8053377011
 14
-37.930664631
 24
46.4095470916
 50
180.0
100
AcDbRotatedDimension
  0
DIMENSION
  5
234
100
AcDbEntity
  8
0
100
AcDbDimension
 62
7
  6
CONTINUOUS
  2
*D1
 10
65.069335369
 20
-47.5552598753
 11
63.8275010053
 21
-2.0667523684
 70
160
 71
2
 42
95.0
  3
DIMSTYLE_1
100
AcDbAlignedDimension
 13
55.6869971949
 23
47.4447401247
 14
56.1479945437
 24
-47.5552598753
 50
270.0
100
AcDbRotatedDimension
  0
DIMENSION
  5
235
100
AcDbEntity
  8
0
100
AcDbDimension
 62
7
  6
CONTINUOUS
  2
*D2
 10
-59.4685905628
 20
55.4447401247
 11
-56.1477209636
 21
57.6947401247
 70
160
 71
2
 42
8.9988820555
  3
DIMSTYLE_1
100
AcDbAlignedDimension
 13
-50.4697085073
 23
47.8208021768
 14
-59.4685905628
 24
24.9008056096
 50
180.0
100
AcDbRotatedDimension
  0
LINE
  5
236
100
AcDbEntity
  8
RACCORDO
100
AcDbLine
 62
7
  6
CONTINUOUS
 10
-37.930664631
 20
44.4447401247
 11
-37.930664631
 21
4.1465333514
  0
LINE
  5
237
100
AcDbEntity
  8
RACCORDO
100
AcDbLine
 62
7
  6
CONTINUOUS
 10
-37.930664631
 20
-4.2570531019
 11
-37.930664631
 21
-44.5552598753
  0
LINE
  5
238
100
AcDbEntity
  8
RACCORDO
100
AcDbLine
 62
7
  6
CONTINUOUS
 10
-37.8258490724
 20
3.0062518932
 11
-37.8258490724
 21
-3.1167716438
  0
LINE
  5
239
100
AcDbEntity
  8
RACCORDO
100
AcDbLine
 62
253
  6
CONTINUOUS
 10
-37.6866749535
 20
11.6947404533
 11
-37.6866749535
 21
-11.8052602039
  0
LINE
  5
23A
100
AcDbEntity
  8
RACCORDO
100
AcDbLine
 62
253
  6
CONTINUOUS
 10
-37.095928903
 20
11.6947401247
 11
-37.095928903
 21
-11.8052598753
  0
LINE
  5
23B
100
AcDbEntity
  8
RACCORDO
100
AcDbLine
 62
253
  6
CONTINUOUS
 10
-34.930664631
 20
-47.5552598753
 11
-34.930664631
 21
-47.3219863628
  0
LINE
  5
23C
100
AcDbEntity
  8
RACCORDO
100
AcDbLine
 62
253
  6
CONTINUOUS
 10
-34.930664631
 20
47.4447401247
 11
-34.9309339939
 21
47.2114670326
  0
LINE
  5
23D
100
AcDbEntity
  8
RACCORDO
100
AcDbLine
 62
253
  6
CONTINUOUS
 10
-37.930664631
 20
-44.5552598753
 11
-37.6955006415
 21
-44.5551439835
  0
LINE
  5
23E
100
AcDbEntity
  8
SUPERFICI
100
AcDbLine
 62
7
  6
CONTINUOUS
 10
-34.930664631
 20
-47.5552598753
 11
54.069335369
 21
-47.5552598753
  0
LINE
  5
23F
100
AcDbEntity
  8
RACCORDO
100
AcDbLine
 62
253
  6
CONTINUOUS
 10
-10.9306649314
 20
-47.3185518014
 11
30.0693754483
 21
-47.318551792
  0
LINE
  5
240
100
AcDbEntity
  8
RACCORDO
100
AcDbLine
 62
253
  6
CONTINUOUS
 10
-10.930664631
 20
-46.5527979276
 11
30.0693353689
 21
-46.5527981273
  0
LINE
  5
241
100
AcDbEntity
  8
RACCORDO
100
AcDbLine
 62
253
  6
CONTINUOUS
 10
57.069335369
 20
-44.5552598753
 11
56.8344777443
 21
-44.5552598753
  0
LINE
  5
242
100
AcDbEntity
  8
RACCORDO
100
AcDbLine
 62
7
  6
CONTINUOUS
 10
-37.8486326681
 20
-3.6124940745
 11
-37.9078810353
 21
-3.7613306712
  0
LINE
  5
243
100
AcDbEntity
  8
RACCORDO
100
AcDbLine
 62
7
  6
CONTINUOUS
 10
-37.9078810353
 20
3.6508109207
 11
-37.8486326681
 21
3.5019743239
  0
LINE
  5
244
100
AcDbEntity
  8
RACCORDO
100
AcDbLine
 62
253
  6
CONTINUOUS
 10
-27.6156402467
 20
11.6947401247
 11
-27.6156402467
 21
-11.8052598753
  0
LINE
  5
245
100
AcDbEntity
  8
RACCORDO
100
AcDbLine
 62
253
  6
CONTINUOUS
 10
-26.0143087429
 20
11.6947401247
 11
-26.0143087355
 21
-11.8055693375
  0
LINE
  5
246
100
AcDbEntity
  8
RACCORDO
100
AcDbLine
 62
253
  6
CONTINUOUS
 10
-23.9808300314
 20
24.1905075266
 11
-23.9804588982
 21
22.5867420019
  0
LINE
  5
247
100
AcDbEntity
  8
0
100
AcDbLine
 62
253
  6
CONTINUOUS
 10
-24.3726590714
 20
-11.8051303642
 11
-24.3726590708
 21
11.6947401247
  0
LINE
  5
248
100
AcDbEntity
  8
0
100
AcDbLine
 62
7
  6
CONTINUOUS
 10
-24.280664631
 20
22.1947401247
 11
-24.280664631
 21
-22.3052598753
  0
LINE
  5
249
100
AcDbEntity
  8
RACCORDO
100
AcDbLine
 62
253
  6
CONTINUOUS
 10
-23.9804725958
 20
-24.3010183988
 11
-23.9806646307
 21
-22.6972617969
  0
LINE
  5
24A
100
AcDbEntity
  8
0
100
AcDbLine
 62
253
  6
CONTINUOUS
 10
-23.980664631
 20
-22.6052598753
 11
-23.980664631
 21
-22.6972617492
  0
LINE
  5
24B
100
AcDbEntity
  8
0
100
AcDbLine
 62
253
  6
CONTINUOUS
 10
-23.980664631
 20
22.4947401247
 11
-23.980664631
 21
22.5867420005
  0
LINE
  5
24C
100
AcDbEntity
  8
0
100
AcDbLine
 62
7
  6
CONTINUOUS
 10
45.6178336482
 20
-28.9925584008
 11
45.0356329247
 21
-28.9925584008
  0
LINE
  5
24D
100
AcDbEntity
  8
0
100
AcDbLine
 62
7
  6
CONTINUOUS
 10
44.1087432798
 20
-28.9925584008
 11
43.5059073186
 21
-28.9925584008
  0
LINE
  5
24E
100
AcDbEntity
  8
0
100
AcDbLine
 62
7
  6
CONTINUOUS
 10
43.328170369
 20
-28.9925588753
 11
42.690239369
 21
-28.9925588753
  0
LINE
  5
24F
100
AcDbEntity
  8
0
100
AcDbLine
 62
7
  6
CONTINUOUS
 10
41.542146369
 20
-28.9925588753
 11
40.943441369
 21
-28.9925588753
  0
LINE
  5
250
100
AcDbEntity
  8
0
100
AcDbLine
 62
7
  6
CONTINUOUS
 10
40.848397369
 20
-28.9925588753
 11
40.256281369
 21
-28.9925588753
  0
LINE
  5
251
100
AcDbEntity
  8
0
100
AcDbLine
 62
7
  6
CONTINUOUS
 10
39.412258369
 20
-28.9925588753
 11
39.327369369
 21
-28.9925588753
  0
LINE
  5
252
100
AcDbEntity
  8
0
100
AcDbLine
 62
7
  6
CONTINUOUS
 10
38.486695369
 20
-28.9925588753
 11
37.907647369
 21
-28.9925588753
  0
LINE
  5
253
100
AcDbEntity
  8
0
100
AcDbLine
 62
7
  6
CONTINUOUS
 10
37.581811369
 20
-28.9925588753
 11
36.976539369
 21
-28.9925588753
  0
LINE
  5
254
100
AcDbEntity
  8
0
100
AcDbLine
 62
7
  6
CONTINUOUS
 10
35.819857369
 20
-28.9925588753
 11
35.286461369
 21
-28.9925588753
  0
LINE
  5
255
100
AcDbEntity
  8
0
100
AcDbLine
 62
7
  6
CONTINUOUS
 10
42.533442369
 20
-28.4136848753
 11
41.709163369
 21
-28.4136848753
  0
LINE
  5
256
100
AcDbEntity
  8
0
100
AcDbLine
 62
7
  6
CONTINUOUS
 10
41.832974369
 20
-27.9657538753
 11
42.412479369
 21
-27.9657538753
  0
LINE
  5
257
100
AcDbEntity
  8
0
100
AcDbLine
 62
7
  6
CONTINUOUS
 10
44.4332753357
 20
-27.8577942866
 11
44.1087432798
 21
-27.8577942866
  0
LINE
  5
258
100
AcDbEntity
  8
0
100
AcDbLine
 62
7
  6
CONTINUOUS
 10
44.0886733911
 20
-27.3829011474
 11
44.4345799872
 21
-27.3829011474
  0
LINE
  5
259
100
AcDbEntity
  8
RACCORDO
100
AcDbLine
 62
253
  6
CONTINUOUS
 10
-26.019107908
 20
-22.3054408889
 11
-24.3726403031
 21
-22.3051303642
  0
LINE
  5
25A
100
AcDbEntity
  8
0
100
AcDbLine
 62
7
  6
CONTINUOUS
 10
34.367215369
 20
-26.0929048753
 11
35.024726369
 21
-26.0929048753
  0
LINE
  5
25B
100
AcDbEntity
  8
0
100
AcDbLine
 62
7
  6
CONTINUOUS
 10
36.147064369
 20
-26.0929048753
 11
36.751922369
 21
-26.0929048753
  0
LINE
  5
25C
100
AcDbEntity
  8
0
100
AcDbLine
 62
7
  6
CONTINUOUS
 10
38.169469369
 20
-26.0929048753
 11
38.774240369
 21
-26.0929048753
  0
LINE
  5
25D
100
AcDbEntity
  8
0
100
AcDbLine
 62
7
  6
CONTINUOUS
 10
39.978390369
 20
-26.0929048753
 11
40.577247369
 21
-26.0929048753
  0
LINE
  5
25E
100
AcDbEntity
  8
0
100
AcDbLine
 62
7
  6
CONTINUOUS
 10
41.852957369
 20
-26.0929048753
 11
42.438485369
 21
-26.0929048753
  0
LINE
  5
25F
100
AcDbEntity
  8
0
100
AcDbLine
 62
7
  6
CONTINUOUS
 10
36.976539369
 20
-26.0927308753
 11
37.581811369
 21
-26.0927308753
  0
LINE
  5
260
100
AcDbEntity
  8
RACCORDO
100
AcDbLine
 62
253
  6
CONTINUOUS
 10
-10.930664631
 20
-25.9816902077
 11
30.0693353692
 21
-25.9816903213
  0
LINE
  5
261
100
AcDbEntity
  8
RACCORDO
100
AcDbLine
 62
253
  6
CONTINUOUS
 10
-10.930664631
 20
-24.2928579824
 11
30.0693227764
 21
-24.2928579592
  0
LINE
  5
262
100
AcDbEntity
  8
0
100
AcDbLine
 62
253
  6
CONTINUOUS
 10
30.069335369
 20
-22.6972725949
 11
-10.930664631
 21
-22.6972725932
  0
LINE
  5
263
100
AcDbEntity
  8
0
100
AcDbLine
 62
7
  6
CONTINUOUS
 10
-23.980664631
 20
-22.6052598753
 11
43.119335369
 21
-22.6052598753
  0
LINE
  5
264
100
AcDbEntity
  8
0
100
AcDbLine
 62
253
  6
CONTINUOUS
 10
-24.280664631
 20
-22.3052598753
 11
-24.3726403027
 21
-22.3052598753
  0
LINE
  5
265
100
AcDbEntity
  8
0
100
AcDbLine
 62
253
  6
CONTINUOUS
 10
43.419335369
 20
-22.3052598753
 11
43.511304369
 21
-22.3052598753
  0
LINE
  5
266
100
AcDbEntity
  8
RACCORDO
100
AcDbLine
 62
253
  6
CONTINUOUS
 10
45.1573264226
 20
-22.3059421673
 11
43.5113043941
 21
-22.3052535768
  0
LINE
  5
267
100
AcDbEntity
  8
RACCORDO
100
AcDbLine
 62
253
  6
CONTINUOUS
 10
-10.930664631
 20
-22.6972725932
 11
-10.9306649314
 21
-47.3185518014
  0
LINE
  5
268
100
AcDbEntity
  8
RACCORDO
100
AcDbLine
 62
253
  6
CONTINUOUS
 10
-10.9306649314
 20
47.2080320509
 11
-10.9304588981
 21
22.5867528427
  0
LINE
  5
269
100
AcDbEntity
  8
RACCORDO
100
AcDbLine
 62
253
  6
CONTINUOUS
 10
43.5113298088
 20
-11.8052598754
 11
56.8253457182
 21
-11.8052598784
  0
LINE
  5
26A
100
AcDbEntity
  8
RACCORDO
100
AcDbLine
 62
253
  6
CONTINUOUS
 10
-37.6866749535
 20
-11.8052602038
 11
-24.3726590707
 21
-11.8051303642
  0
LINE
  5
26B
100
AcDbEntity
  8
RACCORDO
100
AcDbLine
 62
253
  6
CONTINUOUS
 10
-24.3726590707
 20
11.6947401247
 11
-37.6866749535
 21
11.6947404533
  0
LINE
  5
26C
100
AcDbEntity
  8
RACCORDO
100
AcDbLine
 62
253
  6
CONTINUOUS
 10
56.8253456915
 20
11.6947404533
 11
43.5113298088
 21
11.6945856051
  0
LINE
  5
26D
100
AcDbEntity
  8
0
100
AcDbLine
 62
7
  6
CONTINUOUS
 10
39.327369369
 20
-28.9925588753
 11
38.617313369
 21
-27.0991398753
  0
LINE
  5
26E
100
AcDbEntity
  8
0
100
AcDbLine
 62
7
  6
CONTINUOUS
 10
38.774240369
 20
-26.0929048753
 11
39.373119369
 21
-27.7028018753
  0
LINE
  5
26F
100
AcDbEntity
  8
0
100
AcDbLine
 62
7
  6
CONTINUOUS
 10
35.286461369
 20
-28.9925588753
 11
34.367215369
 21
-26.0929048753
  0
LINE
  5
270
100
AcDbEntity
  8
0
100
AcDbLine
 62
7
  6
CONTINUOUS
 10
35.024726369
 20
-26.0929048753
 11
35.577453369
 21
-28.0888258753
  0
LINE
  5
271
100
AcDbEntity
  8
RACCORDO
100
AcDbLine
 62
253
  6
CONTINUOUS
 10
30.069335369
 20
22.5867528427
 11
30.0693356694
 21
47.2080320509
  0
LINE
  5
272
100
AcDbEntity
  8
RACCORDO
100
AcDbLine
 62
253
  6
CONTINUOUS
 10
30.0693754483
 20
-47.318551792
 11
30.069335369
 21
-22.6972725932
  0
LINE
  5
273
100
AcDbEntity
  8
RACCORDO
100
AcDbLine
 62
253
  6
CONTINUOUS
 10
45.1577574051
 20
22.19560921
 11
43.511309055
 21
22.1945856052
  0
LINE
  5
274
100
AcDbEntity
  8
0
100
AcDbLine
 62
253
  6
CONTINUOUS
 10
-24.280664631
 20
22.1947401247
 11
-24.3726403019
 21
22.1947401247
  0
LINE
  5
275
100
AcDbEntity
  8
0
100
AcDbLine
 62
253
  6
CONTINUOUS
 10
43.419335369
 20
22.1947401247
 11
43.5113090544
 21
22.1947401247
  0
LINE
  5
276
100
AcDbEntity
  8
0
100
AcDbLine
 62
7
  6
CONTINUOUS
 10
43.119335369
 20
22.4947401247
 11
-23.980664631
 21
22.4947401247
  0
LINE
  5
277
100
AcDbEntity
  8
0
100
AcDbLine
 62
253
  6
CONTINUOUS
 10
-10.9304588982
 20
22.5867528442
 11
30.069335369
 21
22.5867528427
  0
LINE
  5
278
100
AcDbEntity
  8
RACCORDO
100
AcDbLine
 62
253
  6
CONTINUOUS
 10
-26.0191100148
 20
22.19507023
 11
-24.3726403209
 21
22.194740126
  0
LINE
  5
279
100
AcDbEntity
  8
0
100
AcDbLine
 62
7
  6
CONTINUOUS
 10
36.976539369
 20
-28.9925588753
 11
36.976539369
 21
-26.0927308753
  0
LINE
  5
27A
100
AcDbEntity
  8
RACCORDO
100
AcDbLine
 62
253
  6
CONTINUOUS
 10
30.069335369
 20
24.1823382319
 11
-10.9311911832
 21
24.1823382105
  0
LINE
  5
27B
100
AcDbEntity
  8
RACCORDO
100
AcDbLine
 62
253
  6
CONTINUOUS
 10
30.069335369
 20
25.8711704572
 11
-10.930664631
 21
25.8711704572
  0
LINE
  5
27C
100
AcDbEntity
  8
0
100
AcDbLine
 62
7
  6
CONTINUOUS
 10
42.438485369
 20
-26.0929048753
 11
43.328170369
 21
-28.9925588753
  0
LINE
  5
27D
100
AcDbEntity
  8
0
100
AcDbLine
 62
7
  6
CONTINUOUS
 10
42.690239369
 20
-28.9925588753
 11
42.533442369
 21
-28.4136848753
  0
LINE
  5
27E
100
AcDbEntity
  8
0
100
AcDbLine
 62
7
  6
CONTINUOUS
 10
42.412479369
 20
-27.9657538753
 11
42.134349369
 21
-26.8896558753
  0
LINE
  5
27F
100
AcDbEntity
  8
0
100
AcDbLine
 62
7
  6
CONTINUOUS
 10
40.577247369
 20
-26.0929048753
 11
40.848397369
 21
-28.9925588753
  0
LINE
  5
280
100
AcDbEntity
  8
0
100
AcDbLine
 62
7
  6
CONTINUOUS
 10
40.256281369
 20
-28.9925588753
 11
40.131926369
 21
-27.1070328753
  0
LINE
  5
281
100
AcDbEntity
  8
0
100
AcDbLine
 62
7
  6
CONTINUOUS
 10
37.581811369
 20
-26.0927308753
 11
37.581811369
 21
-28.9925588753
  0
LINE
  5
282
100
AcDbEntity
  8
0
100
AcDbLine
 62
7
  6
CONTINUOUS
 10
38.617313369
 20
-27.0991398753
 11
38.486695369
 21
-28.9925588753
  0
LINE
  5
283
100
AcDbEntity
  8
0
100
AcDbLine
 62
7
  6
CONTINUOUS
 10
37.907647369
 20
-28.9925588753
 11
38.169469369
 21
-26.0929048753
  0
LINE
  5
284
100
AcDbEntity
  8
RACCORDO
100
AcDbLine
 62
253
  6
CONTINUOUS
 10
43.1205795706
 20
-24.3010333594
 11
43.1191204501
 21
-22.697260858
  0
LINE
  5
285
100
AcDbEntity
  8
0
100
AcDbLine
 62
253
  6
CONTINUOUS
 10
43.119335369
 20
-22.6052598753
 11
43.119335369
 21
-22.6972608563
  0
LINE
  5
286
100
AcDbEntity
  8
0
100
AcDbLine
 62
253
  6
CONTINUOUS
 10
43.119335369
 20
22.4947401247
 11
43.119335369
 21
22.5867414408
  0
LINE
  5
287
100
AcDbEntity
  8
0
100
AcDbLine
 62
7
  6
CONTINUOUS
 10
43.419335369
 20
-22.3052598753
 11
43.419335369
 21
22.1947401247
  0
LINE
  5
288
100
AcDbEntity
  8
0
100
AcDbLine
 62
7
  6
CONTINUOUS
 10
43.5059073186
 20
-28.9925584008
 11
43.5059073186
 21
-26.1267827012
  0
LINE
  5
289
100
AcDbEntity
  8
0
100
AcDbLine
 62
253
  6
CONTINUOUS
 10
43.5113298097
 20
11.6945856051
 11
43.5113298089
 21
-11.8052598754
  0
LINE
  5
28A
100
AcDbEntity
  8
0
100
AcDbLine
 62
7
  6
CONTINUOUS
 10
44.0886733911
 20
-26.5868897903
 11
44.0886733911
 21
-27.3829011474
  0
LINE
  5
28B
100
AcDbEntity
  8
0
100
AcDbLine
 62
7
  6
CONTINUOUS
 10
44.1087432798
 20
-27.8577942866
 11
44.1087432798
 21
-28.9925584008
  0
LINE
  5
28C
100
AcDbEntity
  8
RACCORDO
100
AcDbLine
 62
253
  6
CONTINUOUS
 10
45.1529794812
 20
-11.8052598386
 11
45.1529794704
 21
11.6951093624
  0
LINE
  5
28D
100
AcDbEntity
  8
RACCORDO
100
AcDbLine
 62
253
  6
CONTINUOUS
 10
43.1196274358
 20
24.1904956779
 11
43.1193353688
 21
22.5867414958
  0
LINE
  5
28E
100
AcDbEntity
  8
0
100
AcDbLine
 62
7
  6
CONTINUOUS
 10
35.577453369
 20
-28.0888258753
 11
36.147064369
 21
-26.0929048753
  0
LINE
  5
28F
100
AcDbEntity
  8
0
100
AcDbLine
 62
7
  6
CONTINUOUS
 10
36.751922369
 20
-26.0929048753
 11
35.819857369
 21
-28.9925588753
  0
LINE
  5
290
100
AcDbEntity
  8
RACCORDO
100
AcDbLine
 62
253
  6
CONTINUOUS
 10
46.7543107863
 20
-11.805259877
 11
46.7543109847
 21
11.6947401247
  0
LINE
  5
291
100
AcDbEntity
  8
0
100
AcDbLine
 62
7
  6
CONTINUOUS
 10
42.134349369
 20
-26.8896558753
 11
41.832974369
 21
-27.9657538753
  0
LINE
  5
292
100
AcDbEntity
  8
0
100
AcDbLine
 62
7
  6
CONTINUOUS
 10
41.709163369
 20
-28.4136848753
 11
41.542146369
 21
-28.9925588753
  0
LINE
  5
293
100
AcDbEntity
  8
0
100
AcDbLine
 62
7
  6
CONTINUOUS
 10
40.943441369
 20
-28.9925588753
 11
41.852957369
 21
-26.0929048753
  0
LINE
  5
294
100
AcDbEntity
  8
0
100
AcDbLine
 62
7
  6
CONTINUOUS
 10
39.373119369
 20
-27.7028018753
 11
39.978390369
 21
-26.0929048753
  0
LINE
  5
295
100
AcDbEntity
  8
0
100
AcDbLine
 62
7
  6
CONTINUOUS
 10
40.131926369
 20
-27.1070328753
 11
39.412258369
 21
-28.9925588753
  0
LINE
  5
296
100
AcDbEntity
  8
RACCORDO
100
AcDbLine
 62
253
  6
CONTINUOUS
 10
54.069335369
 20
47.4447401247
 11
54.069335369
 21
47.2115139149
  0
LINE
  5
297
100
AcDbEntity
  8
RACCORDO
100
AcDbLine
 62
253
  6
CONTINUOUS
 10
54.069335369
 20
-47.5552598753
 11
54.0697458899
 21
-47.3220097288
  0
LINE
  5
298
100
AcDbEntity
  8
RACCORDO
100
AcDbLine
 62
7
  6
CONTINUOUS
 10
57.0465517733
 20
3.6508109207
 11
56.9873034062
 21
3.5019743239
  0
LINE
  5
299
100
AcDbEntity
  8
RACCORDO
100
AcDbLine
 62
253
  6
CONTINUOUS
 10
-37.930664631
 20
44.4447401247
 11
-37.6955011469
 21
44.4447714731
  0
LINE
  5
29A
100
AcDbEntity
  8
RACCORDO
100
AcDbLine
 62
253
  6
CONTINUOUS
 10
57.069335369
 20
44.4447401247
 11
56.8341753093
 21
44.4450311253
  0
LINE
  5
29B
100
AcDbEntity
  8
RACCORDO
100
AcDbLine
 62
7
  6
CONTINUOUS
 10
56.9873034062
 20
-3.6124940745
 11
57.0465517733
 21
-3.7613306712
  0
LINE
  5
29C
100
AcDbEntity
  8
RACCORDO
100
AcDbLine
 62
253
  6
CONTINUOUS
 10
56.2345998641
 20
-11.8052598785
 11
56.2345996411
 21
11.6947401247
  0
LINE
  5
29D
100
AcDbEntity
  8
RACCORDO
100
AcDbLine
 62
253
  6
CONTINUOUS
 10
56.8253457182
 20
-11.8065022395
 11
56.8253456915
 21
11.6947404533
  0
LINE
  5
29E
100
AcDbEntity
  8
RACCORDO
100
AcDbLine
 62
7
  6
CONTINUOUS
 10
56.9645198105
 20
3.0062518932
 11
56.9645198105
 21
-3.1167716438
  0
LINE
  5
29F
100
AcDbEntity
  8
RACCORDO
100
AcDbLine
 62
7
  6
CONTINUOUS
 10
57.069335369
 20
-44.5552598753
 11
57.069335369
 21
-4.2570531019
  0
LINE
  5
2A0
100
AcDbEntity
  8
RACCORDO
100
AcDbLine
 62
7
  6
CONTINUOUS
 10
57.069335369
 20
4.1465333514
 11
57.069335369
 21
44.4447401247
  0
LINE
  5
2A1
100
AcDbEntity
  8
RACCORDO
100
AcDbLine
 62
253
  6
CONTINUOUS
 10
30.069335369
 20
46.442278177
 11
-10.930664631
 21
46.442278177
  0
LINE
  5
2A2
100
AcDbEntity
  8
RACCORDO
100
AcDbLine
 62
253
  6
CONTINUOUS
 10
30.0693356694
 20
47.2080320509
 11
-10.9306649314
 21
47.2080320509
  0
LINE
  5
2A3
100
AcDbEntity
  8
SUPERFICI
100
AcDbLine
 62
7
  6
CONTINUOUS
 10
54.069335369
 20
47.4447401247
 11
-34.930664631
 21
47.4447401247
  0
LINE
  5
2A4
100
AcDbEntity
  8
RACCORDO
100
AcDbLine
 62
253
  6
CONTINUOUS
 10
-50.4697085073
 20
-44.5552598753
 11
-54.9510589461
 21
-44.5552598753
  0
LINE
  5
2A5
100
AcDbEntity
  8
RACCORDO
100
AcDbLine
 62
7
  6
CONTINUOUS
 10
-50.4697085073
 20
-47.5552598753
 11
-54.920386435
 21
-47.3220097288
  0
LINE
  5
2A6
100
AcDbEntity
  8
0
100
AcDbLine
 62
7
  6
CONTINUOUS
 10
-58.4992653522
 20
-28.9925584008
 11
-58.4390961954
 21
-28.9925584008
  0
LINE
  5
2A7
100
AcDbEntity
  8
0
100
AcDbLine
 62
253
  6
CONTINUOUS
 10
-58.5540108015
 20
-28.2075556422
 11
-58.4938672724
 21
-28.2075556422
  0
LINE
  5
2A8
100
AcDbEntity
  8
0
100
AcDbLine
 62
7
  6
CONTINUOUS
 10
-58.6010799465
 20
-27.6197944252
 11
-58.5409626929
 21
-27.6197942877
  0
LINE
  5
2A9
100
AcDbEntity
  8
0
100
AcDbLine
 62
253
  6
CONTINUOUS
 10
-58.6670476262
 20
-26.1575415812
 11
-58.6069549105
 21
-26.157541581
  0
LINE
  5
2AA
100
AcDbEntity
  8
0
100
AcDbLine
 62
7
  6
CONTINUOUS
 10
-58.6336663589
 20
-26.0534036501
 11
-58.6937337124
 21
-26.0534036501
  0
LINE
  5
2AB
100
AcDbEntity
  8
RACCORDO
100
AcDbLine
 62
253
  6
CONTINUOUS
 10
-58.5374193584
 20
-22.3034794925
 11
-59.2312598058
 21
-22.3064791006
  0
LINE
  5
2AC
100
AcDbEntity
  8
RACCORDO
100
AcDbLine
 62
253
  6
CONTINUOUS
 10
-59.2312591254
 20
-22.3059421673
 11
-59.468456489
 21
-22.3054464299
  0
LINE
  5
2AD
100
AcDbEntity
  8
RACCORDO
100
AcDbLine
 62
7
  6
CONTINUOUS
 10
-59.2688480301
 20
24.187137222
 11
-59.2674401613
 21
24.1888055658
  0
LWPOLYLINE
  5
2AE
100
AcDbEntity
  8
RACCORDO
100
AcDbPolyline
 62
7
  6
CONTINUOUS
 90
5
 70
0
 10
-59.2676644557
 20
24.1885713292
 10
-59.2680297762
 20
24.188148225
 10
-59.2683659328
 20
24.1877448846
 10
-59.268673634
 20
24.1873594647
 10
-59.2701248383
 20
24.1855118376
  0
LWPOLYLINE
  5
2AF
100
AcDbEntity
  8
RACCORDO
100
AcDbPolyline
 62
7
  6
CONTINUOUS
 90
3
 70
0
 10
-59.2660856674
 20
24.19050206
 10
-59.266539875
 20
24.1899853669
 10
-59.2669221275
 20
24.1894900216
  0
LINE
  5
2B0
100
AcDbEntity
  8
RACCORDO
100
AcDbLine
 62
7
  6
CONTINUOUS
 10
-59.2664865505
 20
-24.3005621026
 11
-59.2660663512
 21
-24.3010333594
  0
LINE
  5
2B1
100
AcDbEntity
  8
RACCORDO
100
AcDbLine
 62
7
  6
CONTINUOUS
 10
-59.2714381842
 20
24.1838119326
 11
-59.2714753864
 21
24.1837610758
  0
LINE
  5
2B2
100
AcDbEntity
  8
RACCORDO
100
AcDbLine
 62
7
  6
CONTINUOUS
 10
-59.2668336999
 20
24.1896046114
 11
-59.2666470199
 21
24.1898593191
  0
LINE
  5
2B3
100
AcDbEntity
  8
RACCORDO
100
AcDbLine
 62
7
  6
CONTINUOUS
 10
-59.2671356168
 20
24.1895986751
 11
-59.2765990704
 21
24.1768965671
  0
LINE
  5
2B4
100
AcDbEntity
  8
RACCORDO
100
AcDbLine
 62
7
  6
CONTINUOUS
 10
-59.2725135249
 20
24.182384891
 11
-59.2725483606
 21
24.1823384114
  0
LINE
  5
2B5
100
AcDbEntity
  8
RACCORDO
100
AcDbLine
 62
7
  6
CONTINUOUS
 10
-59.2713872842
 20
24.1838798308
 11
-59.2714381842
 21
24.1838119326
  0
LINE
  5
2B6
100
AcDbEntity
  8
RACCORDO
100
AcDbLine
 62
7
  6
CONTINUOUS
 10
-59.2747287122
 20
24.1794069408
 11
-59.27962843
 21
24.1728873296
  0
LINE
  5
2B7
100
AcDbEntity
  8
RACCORDO
100
AcDbLine
 62
7
  6
CONTINUOUS
 10
-59.2713143848
 20
24.1839762825
 11
-59.2713548634
 21
24.1839227975
  0
LINE
  5
2B8
100
AcDbEntity
  8
RACCORDO
100
AcDbLine
 62
7
  6
CONTINUOUS
 10
-59.2711413197
 20
24.1842031141
 11
-59.2712094393
 21
24.1841141931
  0
LWPOLYLINE
  5
2B9
100
AcDbEntity
  8
RACCORDO
100
AcDbPolyline
 62
7
  6
CONTINUOUS
 90
4
 70
0
 10
-59.2849772912
 20
24.1658934489
 10
-59.2909388532
 20
24.158133001
 10
-59.30176211
 20
24.144187383
 10
-59.305775353
 20
24.1390631878
  0
LINE
  5
2BA
100
AcDbEntity
  8
RACCORDO
100
AcDbLine
 62
7
  6
CONTINUOUS
 10
-59.2689603116
 20
24.1869941354
 11
-59.2692301297
 21
24.1866515371
  0
LWPOLYLINE
  5
2BB
100
AcDbEntity
  8
RACCORDO
100
AcDbPolyline
 62
7
  6
CONTINUOUS
 90
8
 70
0
 10
-59.2687304262
 20
-24.2978058957
 10
-59.2684587569
 20
-24.2981486434
 10
-59.2681658955
 20
-24.2985073055
 10
-59.2678473465
 20
-24.2988796416
 10
-59.2675106102
 20
-24.2992679659
 10
-59.2671712875
 20
-24.299677322
 10
-59.2668397643
 20
-24.3001095543
 10
-59.2664865505
 20
-24.3005621026
  0
LINE
  5
2BC
100
AcDbEntity
  8
RACCORDO
100
AcDbLine
 62
7
  6
CONTINUOUS
 10
-59.2698685591
 20
-24.2963622025
 11
-59.2696710403
 21
-24.2966151914
  0
LINE
  5
2BD
100
AcDbEntity
  8
RACCORDO
100
AcDbLine
 62
7
  6
CONTINUOUS
 10
-59.2709517232
 20
-24.2949675926
 11
-59.2708618382
 21
-24.2950837702
  0
LINE
  5
2BE
100
AcDbEntity
  8
RACCORDO
100
AcDbLine
 62
7
  6
CONTINUOUS
 10
-59.2949366187
 20
-24.2634731432
 11
-59.2791690819
 21
-24.2840281774
  0
LINE
  5
2BF
100
AcDbEntity
  8
RACCORDO
100
AcDbLine
 62
7
  6
CONTINUOUS
 10
-59.2711973538
 20
-24.2946482117
 11
-59.271151271
 21
-24.2947085409
  0
LINE
  5
2C0
100
AcDbEntity
  8
RACCORDO
100
AcDbLine
 62
7
  6
CONTINUOUS
 10
-59.2791690819
 20
-24.2840281774
 11
-59.2768006778
 21
-24.2871520525
  0
LINE
  5
2C1
100
AcDbEntity
  8
RACCORDO
100
AcDbLine
 62
7
  6
CONTINUOUS
 10
-59.2725481415
 20
-24.29285812
 11
-59.27129044
 21
-24.294524807
  0
LINE
  5
2C2
100
AcDbEntity
  8
RACCORDO
100
AcDbLine
 62
7
  6
CONTINUOUS
 10
-59.2787882263
 20
-24.2845208793
 11
-59.2725482572
 21
-24.292858301
  0
LINE
  5
2C3
100
AcDbEntity
  8
RACCORDO
100
AcDbLine
 62
7
  6
CONTINUOUS
 10
-59.2712790201
 20
-24.294540129
 11
-59.2587275753
 21
-24.3114960226
  0
LINE
  5
2C4
100
AcDbEntity
  8
SUPERFICI
100
AcDbLine
 62
7
  6
CONTINUOUS
 10
-55.895158257
 20
46.4263190252
 11
-56.1074317853
 21
45.4585268416
  0
LWPOLYLINE
  5
2C5
100
AcDbEntity
  8
RACCORDO
100
AcDbPolyline
 62
7
  6
CONTINUOUS
 90
5
 70
0
 10
-58.7586977906
 20
25.2805032906
 10
-58.836074704
 20
25.0121593518
 10
-58.9344055704
 20
24.7604031091
 10
-59.0506610062
 20
24.5263402403
 10
-59.1818693784
 20
24.3107131768
  0
LINE
  5
2C6
100
AcDbEntity
  8
RACCORDO
100
AcDbLine
 62
253
  6
CONTINUOUS
 10
-55.1253083846
 20
-11.8052598784
 11
-59.4691850927
 21
-11.805259878
  0
LWPOLYLINE
  5
2C7
100
AcDbEntity
  8
RACCORDO
100
AcDbPolyline
 62
7
  6
CONTINUOUS
 90
8
 70
0
 10
-55.8934873023
 20
-46.533306184
 10
-55.8873377497
 20
-46.5598440894
 10
-55.8148051262
 20
-46.7598475997
 10
-55.7016088504
 20
-46.9399758822
 10
-55.5529692056
 20
-47.092001382
 10
-55.3756988964
 20
-47.209089309
 10
-55.1778181157
 20
-47.2860537278
 10
-54.9686524712
 20
-47.319480213
  0
LINE
  5
2C8
100
AcDbEntity
  8
SUPERFICI
100
AcDbLine
 62
7
  6
CONTINUOUS
 10
-56.1698907467
 20
-45.2957375619
 11
-55.9694374645
 21
-46.1968227663
  0
LINE
  5
2C9
100
AcDbEntity
  8
SUPERFICI
100
AcDbLine
 62
7
  6
CONTINUOUS
 10
-55.9694374645
 20
-46.1968227663
 11
-55.8937820062
 21
-46.5374059308
  0
LINE
  5
2CA
100
AcDbEntity
  8
SUPERFICI
100
AcDbLine
 62
7
  6
CONTINUOUS
 10
-56.3171091152
 20
-44.56734193
 11
-55.8934847369
 21
-46.5333191349
  0
LINE
  5
2CB
100
AcDbEntity
  8
SUPERFICI
100
AcDbLine
 62
7
  6
CONTINUOUS
 10
-58.3252445866
 20
-31.7298673905
 11
-58.2825799617
 21
-32.1952237953
  0
LINE
  5
2CC
100
AcDbEntity
  8
SUPERFICI
100
AcDbLine
 62
7
  6
CONTINUOUS
 10
-58.3805272638
 20
-31.1519579015
 11
-58.325336643
 21
-31.7872269181
  0
LINE
  5
2CD
100
AcDbEntity
  8
SUPERFICI
100
AcDbLine
 62
7
  6
CONTINUOUS
 10
-58.3700793234
 20
-31.2129030306
 11
-58.3252445866
 21
-31.7298673905
  0
LINE
  5
2CE
100
AcDbEntity
  8
SUPERFICI
100
AcDbLine
 62
7
  6
CONTINUOUS
 10
-58.3913638455
 20
-30.9558212957
 11
-58.3700793234
 21
-31.2129030306
  0
LINE
  5
2CF
100
AcDbEntity
  8
SUPERFICI
100
AcDbLine
 62
7
  6
CONTINUOUS
 10
-58.3465284751
 20
31.3763125325
 11
-58.3829654307
 21
30.9438198509
  0
LINE
  5
2D0
100
AcDbEntity
  8
SUPERFICI
100
AcDbLine
 62
7
  6
CONTINUOUS
 10
-58.2976932737
 20
31.9247546904
 11
-58.3465284751
 21
31.3763125325
  0
LINE
  5
2D1
100
AcDbEntity
  8
SUPERFICI
100
AcDbLine
 62
7
  6
CONTINUOUS
 10
-58.2524405775
 20
32.4054297164
 11
-58.2976932737
 21
31.9247546904
  0
LINE
  5
2D2
100
AcDbEntity
  8
SUPERFICI
100
AcDbLine
 62
7
  6
CONTINUOUS
 10
-58.201825682
 20
32.9161571856
 11
-58.2524405775
 21
32.4054297164
  0
LINE
  5
2D3
100
AcDbEntity
  8
SUPERFICI
100
AcDbLine
 62
7
  6
CONTINUOUS
 10
-58.145871822
 20
33.4521810563
 11
-58.201825682
 21
32.9161571856
  0
LINE
  5
2D4
100
AcDbEntity
  8
SUPERFICI
100
AcDbLine
 62
7
  6
CONTINUOUS
 10
-58.0844736442
 20
34.0105316573
 11
-58.145871822
 21
33.4521810563
  0
LINE
  5
2D5
100
AcDbEntity
  8
SUPERFICI
100
AcDbLine
 62
7
  6
CONTINUOUS
 10
-58.0348324577
 20
34.4419913553
 11
-58.0844736442
 21
34.0105316573
  0
LINE
  5
2D6
100
AcDbEntity
  8
SUPERFICI
100
AcDbLine
 62
7
  6
CONTINUOUS
 10
-57.9821731532
 20
34.8823690285
 11
-58.0348324577
 21
34.4419913553
  0
LINE
  5
2D7
100
AcDbEntity
  8
SUPERFICI
100
AcDbLine
 62
7
  6
CONTINUOUS
 10
-57.9157886911
 20
35.4148508761
 11
-57.9821731532
 21
34.8823690285
  0
LINE
  5
2D8
100
AcDbEntity
  8
SUPERFICI
100
AcDbLine
 62
7
  6
CONTINUOUS
 10
-57.8556131008
 20
35.8779938834
 11
-57.9157886911
 21
35.4148508761
  0
LINE
  5
2D9
100
AcDbEntity
  8
SUPERFICI
100
AcDbLine
 62
7
  6
CONTINUOUS
 10
-57.7983090726
 20
36.3035290438
 11
-57.8556131008
 21
35.8779938834
  0
LINE
  5
2DA
100
AcDbEntity
  8
SUPERFICI
100
AcDbLine
 62
7
  6
CONTINUOUS
 10
-57.752059639
 20
36.6369134556
 11
-57.7983090726
 21
36.3035290438
  0
LINE
  5
2DB
100
AcDbEntity
  8
RACCORDO
100
AcDbLine
 62
7
  6
CONTINUOUS
 10
-58.7053659134
 20
25.5637355
 11
-58.7586977906
 21
25.2805032906
  0
LWPOLYLINE
  5
2DC
100
AcDbEntity
  8
SUPERFICI
100
AcDbPolyline
 62
7
  6
CONTINUOUS
 90
9
 70
0
 10
-57.434668497
 20
-38.9037875083
 10
-57.361115915
 20
-39.3554583176
 10
-57.2835143305
 20
-39.8187277228
 10
-57.2005868186
 20
-40.2998693092
 10
-57.1143407238
 20
-40.7861993114
 10
-57.0257740077
 20
-41.2719246545
 10
-56.9337832065
 20
-41.7630453256
 10
-56.8373286171
 20
-42.2645605636
 10
-56.7175950541
 20
-42.8693600554
  0
LINE
  5
2DD
100
AcDbEntity
  8
SUPERFICI
100
AcDbLine
 62
7
  6
CONTINUOUS
 10
-57.5422874732
 20
-38.2189571669
 11
-57.434668497
 21
-38.9037875083
  0
LINE
  5
2DE
100
AcDbEntity
  8
SUPERFICI
100
AcDbLine
 62
7
  6
CONTINUOUS
 10
-58.4453693896
 20
-30.3391050038
 11
-58.3805272638
 21
-31.1519579015
  0
LINE
  5
2DF
100
AcDbEntity
  8
SUPERFICI
100
AcDbLine
 62
7
  6
CONTINUOUS
 10
-58.4312033898
 20
-30.4513233794
 11
-58.3913638455
 21
-30.9558212957
  0
LINE
  5
2E0
100
AcDbEntity
  8
SUPERFICI
100
AcDbLine
 62
7
  6
CONTINUOUS
 10
-58.4672547112
 20
-29.9645865901
 11
-58.4312033898
 21
-30.4513233794
  0
LWPOLYLINE
  5
2E1
100
AcDbEntity
  8
SUPERFICI
100
AcDbPolyline
 62
7
  6
CONTINUOUS
 90
3
 70
0
 10
-58.5064535046
 20
-29.4855823888
 10
-58.476702659
 20
-29.9137928716
 10
-58.4453693896
 20
-30.3391050038
  0
LINE
  5
2E2
100
AcDbEntity
  8
SUPERFICI
100
AcDbLine
 62
7
  6
CONTINUOUS
 10
-58.5031492782
 20
-29.4458160411
 11
-58.4672547112
 21
-29.9645865901
  0
LINE
  5
2E3
100
AcDbEntity
  8
SUPERFICI
100
AcDbLine
 62
7
  6
CONTINUOUS
 10
-58.5345691676
 20
-29.0548151082
 11
-58.5064535046
 21
-29.4855823888
  0
LINE
  5
2E4
100
AcDbEntity
  8
SUPERFICI
100
AcDbLine
 62
7
  6
CONTINUOUS
 10
-58.5238745388
 20
-29.1279825469
 11
-58.5031492782
 21
-29.4458160411
  0
LWPOLYLINE
  5
2E5
100
AcDbEntity
  8
0
100
AcDbPolyline
 62
7
  6
CONTINUOUS
 90
3
 70
0
 10
-59.4692440707
 20
-23.7022108092
 10
-59.4684031942
 20
-23.7396451365
 10
-59.4658500609
 20
-23.780505992
  0
LINE
  5
2E6
100
AcDbEntity
  8
0
100
AcDbLine
 62
7
  6
CONTINUOUS
 10
-59.4695234678
 20
-23.6223971728
 11
-59.4692351788
 21
-23.6561301473
  0
LINE
  5
2E7
100
AcDbEntity
  8
0
100
AcDbLine
 62
7
  6
CONTINUOUS
 10
-59.4694874948
 20
23.4436150623
 11
-59.4692173165
 21
23.3993843136
  0
LINE
  5
2E8
100
AcDbEntity
  8
RACCORDO
100
AcDbLine
 62
253
  6
CONTINUOUS
 10
-59.235672911
 20
-11.8052598386
 11
-59.2356729201
 21
11.6951093624
  0
LINE
  5
2E9
100
AcDbEntity
  8
RACCORDO
100
AcDbLine
 62
253
  6
CONTINUOUS
 10
-58.5528410408
 20
-11.805259877
 11
-58.5528410191
 21
11.6947401247
  0
LINE
  5
2EA
100
AcDbEntity
  8
0
100
AcDbLine
 62
7
  6
CONTINUOUS
 10
-59.4683877284
 20
-22.4354525926
 11
-59.4692440707
 21
-23.7022108092
  0
LINE
  5
2EB
100
AcDbEntity
  8
0
100
AcDbLine
 62
7
  6
CONTINUOUS
 10
-59.4691799021
 20
-23.4998891026
 11
-59.4695161594
 21
-23.55095401
  0
LINE
  5
2EC
100
AcDbEntity
  8
0
100
AcDbLine
 62
7
  6
CONTINUOUS
 10
-59.4692829926
 20
23.5424970488
 11
-59.4695332665
 21
23.5068160507
  0
LWPOLYLINE
  5
2ED
100
AcDbEntity
  8
0
100
AcDbPolyline
 62
7
  6
CONTINUOUS
 90
3
 70
0
 10
-59.4683884039
 20
23.6306747072
 10
-59.469087346
 20
23.6060608483
 10
-59.4685743372
 20
-22.4945780403
  0
LINE
  5
2EE
100
AcDbEntity
  8
SUPERFICI
100
AcDbLine
 62
7
  6
CONTINUOUS
 10
-58.6686991428
 20
26.1476015196
 11
-58.6786325801
 21
25.8723073364
  0
LINE
  5
2EF
100
AcDbEntity
  8
RACCORDO
100
AcDbLine
 62
7
  6
CONTINUOUS
 10
-58.6786323229
 20
25.8723098206
 11
-58.7053659134
 21
25.5637355
  0
LINE
  5
2F0
100
AcDbEntity
  8
RACCORDO
100
AcDbLine
 62
7
  6
CONTINUOUS
 10
-52.0349716034
 20
-3.6124940745
 11
-50.9044454112
 21
-3.7613306712
  0
LINE
  5
2F1
100
AcDbEntity
  8
RACCORDO
100
AcDbLine
 62
253
  6
CONTINUOUS
 10
-55.9860063286
 20
-11.8052598785
 11
-55.9860064283
 21
11.6947401247
  0
LINE
  5
2F2
100
AcDbEntity
  8
RACCORDO
100
AcDbLine
 62
253
  6
CONTINUOUS
 10
-55.1253083846
 20
-11.8065022395
 11
-55.1253088938
 21
11.6947404533
  0
LINE
  5
2F3
100
AcDbEntity
  8
RACCORDO
100
AcDbLine
 62
7
  6
CONTINUOUS
 10
-52.4697085073
 20
3.0062518932
 11
-52.4697085073
 21
-3.1167716438
  0
LINE
  5
2F4
100
AcDbEntity
  8
RACCORDO
100
AcDbLine
 62
7
  6
CONTINUOUS
 10
-50.9044454112
 20
3.6508109207
 11
-52.0349716034
 21
3.5019743239
  0
LINE
  5
2F5
100
AcDbEntity
  8
SUPERFICI
100
AcDbLine
 62
7
  6
CONTINUOUS
 10
-50.4697085073
 20
-47.5552598753
 11
-50.4697085073
 21
-44.5552598753
  0
LINE
  5
2F6
100
AcDbEntity
  8
RACCORDO
100
AcDbLine
 62
7
  6
CONTINUOUS
 10
-50.4697085073
 20
-44.5552598753
 11
-50.4697085073
 21
-4.2570531019
  0
LINE
  5
2F7
100
AcDbEntity
  8
RACCORDO
100
AcDbLine
 62
7
  6
CONTINUOUS
 10
-50.4697085073
 20
4.1465333514
 11
-50.4697085073
 21
44.4447401247
  0
LINE
  5
2F8
100
AcDbEntity
  8
SUPERFICI
100
AcDbLine
 62
7
  6
CONTINUOUS
 10
-50.4697085073
 20
44.4447401247
 11
-50.4697085073
 21
47.4447401247
  0
LINE
  5
2F9
100
AcDbEntity
  8
RACCORDO
100
AcDbLine
 62
253
  6
CONTINUOUS
 10
-55.1253088938
 20
11.6947404533
 11
-59.4691850928
 21
11.6952298704
  0
LINE
  5
2FA
100
AcDbEntity
  8
RACCORDO
100
AcDbLine
 62
253
  6
CONTINUOUS
 10
-59.2310314464
 20
22.19560921
 11
-59.4685876395
 21
22.1952587304
  0
LINE
  5
2FB
100
AcDbEntity
  8
RACCORDO
100
AcDbLine
 62
253
  6
CONTINUOUS
 10
-58.5361507755
 20
22.1930955506
 11
-59.2309904979
 21
22.1960179972
  0
LWPOLYLINE
  5
2FC
100
AcDbEntity
  8
RACCORDO
100
AcDbPolyline
 62
7
  6
CONTINUOUS
 90
8
 70
0
 10
-54.9711269985
 20
47.208830778
 10
-55.177644443
 20
47.1761178714
 10
-55.3740678284
 20
47.1005512252
 10
-55.5510827052
 20
46.984931724
 10
-55.7006340161
 20
46.8336767011
 10
-55.8152450315
 20
46.6533381765
 10
-55.888939111
 20
46.4527148118
 10
-55.8951549759
 20
46.4263344801
  0
LINE
  5
2FD
100
AcDbEntity
  8
SUPERFICI
100
AcDbLine
 62
7
  6
CONTINUOUS
 10
-54.9199296968
 20
47.2115139149
 11
-50.4697085073
 21
47.4447401247
  0
LINE
  5
2FE
100
AcDbEntity
  8
RACCORDO
100
AcDbLine
 62
7
  6
CONTINUOUS
 10
-50.4697085073
 20
47.4447401247
 11
-54.9199296968
 21
47.2115139149
  0
LINE
  5
2FF
100
AcDbEntity
  8
RACCORDO
100
AcDbLine
 62
7
  6
CONTINUOUS
 10
-54.9711269985
 20
47.208830778
 11
-54.9863676202
 21
47.2080320509
  0
LINE
  5
300
100
AcDbEntity
  8
RACCORDO
100
AcDbLine
 62
253
  6
CONTINUOUS
 10
-50.4697085073
 20
44.4447401247
 11
-54.9568297496
 21
44.4450311253
  0
ARC
  5
301
100
AcDbEntity
  8
RACCORDO
100
AcDbCircle
 62
253
  6
CONTINUOUS
 10
217.8778530825
 20
28.753405872
 40
174.8159191987
100
AcDbArc
 50
180.9390395136
 51
181.4956559049
  0
ARC
  5
302
100
AcDbEntity
  8
RACCORDO
100
AcDbCircle
 62
253
  6
CONTINUOUS
 10
-198.5868559117
 20
28.7540373242
 40
174.6640083667
100
AcDbArc
 50
358.5028377238
 51
359.0599464367
  0
ARC
  5
303
100
AcDbEntity
  8
RACCORDO
100
AcDbCircle
 62
253
  6
CONTINUOUS
 10
-198.1329492022
 20
-28.8537746688
 40
174.2099663602
100
AcDbArc
 50
0.9389570843
 51
1.4975185264
  0
ARC
  5
304
100
AcDbEntity
  8
RACCORDO
100
AcDbCircle
 62
253
  6
CONTINUOUS
 10
40.9770382637
 20
-197.6894199297
 40
171.7036106158
100
AcDbArc
 50
89.3333473701
 51
89.8617372672
  0
ARC
  5
305
100
AcDbEntity
  8
RACCORDO
100
AcDbCircle
 62
253
  6
CONTINUOUS
 10
209.7809100476
 20
-28.632903163
 40
166.715668544
100
AcDbArc
 50
178.5110836065
 51
178.9557102099
  0
ARC
  5
306
100
AcDbEntity
  8
0
100
AcDbCircle
 62
7
  6
CONTINUOUS
 10
66.0773283342
 20
-23.4405431022
 40
21.1994291593
100
AcDbArc
 50
194.8184100802
 51
195.1825087315
  0
ARC
  5
307
100
AcDbEntity
  8
0
100
AcDbCircle
 62
7
  6
CONTINUOUS
 10
45.4086570706
 20
-38.9789041352
 40
12.9922085103
100
AcDbArc
 50
97.6177091333
 51
98.4214364613
  0
ARC
  5
308
100
AcDbEntity
  8
0
100
AcDbCircle
 62
7
  6
CONTINUOUS
 10
39.7267573075
 20
-29.9441250184
 40
5.3669590688
100
AcDbArc
 50
16.9365783807
 51
18.2866114175
  0
ARC
  5
309
100
AcDbEntity
  8
0
100
AcDbCircle
 62
7
  6
CONTINUOUS
 10
41.0870177198
 20
-29.4932563259
 40
3.9339242827
100
AcDbArc
 50
18.2678292781
 51
20.5372087761
  0
ARC
  5
30A
100
AcDbEntity
  8
RACCORDO
100
AcDbCircle
 62
253
  6
CONTINUOUS
 10
43.1317452946
 20
-22.2834252905
 40
3.7157596335
100
AcDbArc
 50
269.2907945863
 51
278.6211700897
  0
ARC
  5
30B
100
AcDbEntity
  8
RACCORDO
100
AcDbCircle
 62
253
  6
CONTINUOUS
 10
43.1513032391
 20
-22.3905541315
 40
3.6064033129
100
AcDbArc
 50
284.1959474322
 51
297.1379637909
  0
ARC
  5
30C
100
AcDbEntity
  8
RACCORDO
100
AcDbCircle
 62
253
  6
CONTINUOUS
 10
43.1495264988
 20
-22.4055940139
 40
3.5923059472
100
AcDbArc
 50
278.6328591815
 51
284.2822482041
  0
ARC
  5
30D
100
AcDbEntity
  8
SUPERFICI
100
AcDbCircle
 62
7
  6
CONTINUOUS
 10
54.069335369
 20
-44.5552598753
 40
3.0
100
AcDbArc
 50
270.0
 51
360.0
  0
ARC
  5
30E
100
AcDbEntity
  8
SUPERFICI
100
AcDbCircle
 62
7
  6
CONTINUOUS
 10
54.069335369
 20
44.4447401247
 40
3.0
100
AcDbArc
 50
0.0
 51
90.0
  0
ARC
  5
30F
100
AcDbEntity
  8
SUPERFICI
100
AcDbCircle
 62
7
  6
CONTINUOUS
 10
-34.930664631
 20
44.4447401247
 40
3.0
100
AcDbArc
 50
90.0
 51
180.0
  0
ARC
  5
310
100
AcDbEntity
  8
SUPERFICI
100
AcDbCircle
 62
7
  6
CONTINUOUS
 10
-34.930664631
 20
-44.5552598753
 40
3.0
100
AcDbArc
 50
180.0
 51
270.0
  0
ARC
  5
311
100
AcDbEntity
  8
RACCORDO
100
AcDbCircle
 62
253
  6
CONTINUOUS
 10
54.0725724581
 20
-44.5599449917
 40
2.7620123292
100
AcDbArc
 50
269.9413661906
 51
0.0971927395
  0
ARC
  5
312
100
AcDbEntity
  8
RACCORDO
100
AcDbCircle
 62
253
  6
CONTINUOUS
 10
54.0724608197
 20
44.4496846425
 40
2.7617888989
100
AcDbArc
 50
359.9034561003
 51
90.0648392936
  0
ARC
  5
313
100
AcDbEntity
  8
RACCORDO
100
AcDbCircle
 62
253
  6
CONTINUOUS
 10
-34.9339433198
 20
44.4497399678
 40
2.7616733477
100
AcDbArc
 50
89.9375674692
 51
180.1030843775
  0
ARC
  5
314
100
AcDbEntity
  8
RACCORDO
100
AcDbCircle
 62
253
  6
CONTINUOUS
 10
-34.9339442336
 20
-44.5602917953
 40
2.7616508711
100
AcDbArc
 50
179.8931951826
 51
270.0680405805
  0
ARC
  5
315
100
AcDbEntity
  8
0
100
AcDbCircle
 62
7
  6
CONTINUOUS
 10
44.3172070292
 20
-28.6418675064
 40
2.588305688
100
AcDbArc
 50
84.989690441
 51
88.6084734609
  0
ARC
  5
316
100
AcDbEntity
  8
0
100
AcDbCircle
 62
253
  6
CONTINUOUS
 10
-23.9806465141
 20
-22.3052691215
 40
0.391994054
100
AcDbArc
 50
179.9986485254
 51
269.9973519375
  0
ARC
  5
317
100
AcDbEntity
  8
0
100
AcDbCircle
 62
253
  6
CONTINUOUS
 10
-23.9806545618
 20
22.1947562565
 40
0.3919848488
100
AcDbArc
 50
90.001471789
 51
180.0023579449
  0
ARC
  5
318
100
AcDbEntity
  8
0
100
AcDbCircle
 62
253
  6
CONTINUOUS
 10
43.1193254568
 20
22.1947578315
 40
0.3919836063
100
AcDbArc
 50
359.9974118218
 51
89.9985511439
  0
ARC
  5
319
100
AcDbEntity
  8
0
100
AcDbCircle
 62
253
  6
CONTINUOUS
 10
43.119330407
 20
-22.3052868898
 40
0.3919739619
100
AcDbArc
 50
270.0007253158
 51
0.0039487823
  0
ARC
  5
31A
100
AcDbEntity
  8
0
100
AcDbCircle
 62
7
  6
CONTINUOUS
 10
-23.980664631
 20
-22.3052598753
 40
0.3
100
AcDbArc
 50
180.0
 51
270.0
  0
ARC
  5
31B
100
AcDbEntity
  8
0
100
AcDbCircle
 62
7
  6
CONTINUOUS
 10
43.119335369
 20
-22.3052598753
 40
0.3
100
AcDbArc
 50
270.0
 51
360.0
  0
ARC
  5
31C
100
AcDbEntity
  8
0
100
AcDbCircle
 62
7
  6
CONTINUOUS
 10
43.119335369
 20
22.1947401247
 40
0.3
100
AcDbArc
 50
0.0
 51
90.0
  0
ARC
  5
31D
100
AcDbEntity
  8
0
100
AcDbCircle
 62
7
  6
CONTINUOUS
 10
-23.980664631
 20
22.1947401247
 40
0.3
100
AcDbArc
 50
90.0
 51
180.0
  0
ARC
  5
31E
100
AcDbEntity
  8
RACCORDO
100
AcDbCircle
 62
253
  6
CONTINUOUS
 10
-97.5990897667
 20
-22.3564414545
 40
39.0617061441
100
AcDbArc
 50
359.8842271978
 51
0.0776847227
  0
ARC
  5
31F
100
AcDbEntity
  8
RACCORDO
100
AcDbCircle
 62
253
  6
CONTINUOUS
 10
-96.9188844836
 20
-22.3401366167
 40
37.6876408706
100
AcDbArc
 50
359.8459940101
 51
0.0519851564
  0
ARC
  5
320
100
AcDbEntity
  8
0
100
AcDbCircle
 62
7
  6
CONTINUOUS
 10
-79.9809175252
 20
-27.8325373783
 40
21.4454289828
100
AcDbArc
 50
1.3484756253
 51
2.6900680656
  0
ARC
  5
321
100
AcDbEntity
  8
RACCORDO
100
AcDbCircle
 62
253
  6
CONTINUOUS
 10
-78.76561628
 20
-24.7773484019
 40
20.1470654355
100
AcDbArc
 50
357.6600289635
 51
357.8189348965
  0
ARC
  5
322
100
AcDbEntity
  8
0
100
AcDbCircle
 62
7
  6
CONTINUOUS
 10
-71.5486969677
 20
-27.3678804759
 40
12.9405122279
100
AcDbArc
 50
3.1186960097
 51
3.4987920089
  0
ARC
  5
323
100
AcDbEntity
  8
RACCORDO
100
AcDbCircle
 62
7
  6
CONTINUOUS
 10
-61.6597822958
 20
-26.1141914218
 40
3.0033968278
100
AcDbArc
 50
2.1999460158
 51
9.9649318766
  0
ARC
  5
324
100
AcDbEntity
  8
RACCORDO
100
AcDbCircle
 62
7
  6
CONTINUOUS
 10
-61.6810679321
 20
-26.0814420413
 40
3.0000000009
100
AcDbArc
 50
1.9054690669
 51
36.5978488425
  0
ARC
  5
325
100
AcDbEntity
  8
RACCORDO
100
AcDbCircle
 62
7
  6
CONTINUOUS
 10
-61.6547858522
 20
-26.1131745637
 40
2.9983084918
100
AcDbArc
 50
9.9623156814
 51
37.1847565722
  0
ARC
  5
326
100
AcDbEntity
  8
0
100
AcDbCircle
 62
7
  6
CONTINUOUS
 10
-60.1695332519
 20
-26.3878051456
 40
1.5794610168
100
AcDbArc
 50
6.3232026245
 51
8.3840074599
  0
ARC
  5
327
100
AcDbEntity
  8
RACCORDO
100
AcDbCircle
 62
7
  6
CONTINUOUS
 10
-54.917526285
 20
-46.3207872769
 40
1.0
100
AcDbArc
 50
192.5103795733
 51
226.4264844247
  0
ARC
  5
328
100
AcDbEntity
  8
RACCORDO
100
AcDbCircle
 62
7
  6
CONTINUOUS
 10
-58.4693724537
 20
-23.696651685
 40
1.0
100
AcDbArc
 50
133.7281013668
 51
217.1843960753
  0
ARC
  5
329
100
AcDbEntity
  8
RACCORDO
100
AcDbCircle
 62
7
  6
CONTINUOUS
 10
-54.9340312529
 20
-46.3199222882
 40
1.0
100
AcDbArc
 50
193.4664355717
 51
266.9999661507
  0
ARC
  5
32A
100
AcDbEntity
  8
RACCORDO
100
AcDbCircle
 62
253
  6
CONTINUOUS
 10
-54.8678394191
 20
-46.3238548792
 40
0.9995594578
100
AcDbArc
 50
188.414513006
 51
266.9858003994
  0
ARC
  5
32B
100
AcDbEntity
  8
RACCORDO
100
AcDbCircle
 62
7
  6
CONTINUOUS
 10
-54.8683707209
 20
-46.3338513853
 40
0.9895266289
100
AcDbArc
 50
258.1412400541
 51
266.9609346829
  0
ARC
  5
32C
100
AcDbEntity
  8
RACCORDO
100
AcDbCircle
 62
7
  6
CONTINUOUS
 10
-50.9697085073
 20
-4.2570531019
 40
0.5
100
AcDbArc
 50
0.0
 51
82.5
  0
ARC
  5
32D
100
AcDbEntity
  8
RACCORDO
100
AcDbCircle
 62
7
  6
CONTINUOUS
 10
-51.9697085073
 20
-3.1167716438
 40
0.5
100
AcDbArc
 50
180.0
 51
262.5
  0
ARC
  5
32E
100
AcDbEntity
  8
RACCORDO
100
AcDbCircle
 62
253
  6
CONTINUOUS
 10
-55.9491865643
 20
-46.5208962733
 40
0.0577674206
100
AcDbArc
 50
343.3662749872
 51
345.2664817626
  0
ARC
  5
32F
100
AcDbEntity
  8
RACCORDO
100
AcDbCircle
 62
253
  6
CONTINUOUS
 10
-107.913438665
 20
22.0489868623
 40
49.3788902212
100
AcDbArc
 50
1.1455559688
 51
2.1343970497
  0
ARC
  5
330
100
AcDbEntity
  8
RACCORDO
100
AcDbCircle
 62
253
  6
CONTINUOUS
 10
-99.1706192464
 20
22.232458555
 40
40.6341510928
100
AcDbArc
 50
359.944497357
 51
1.1333659539
  0
ARC
  5
331
100
AcDbEntity
  8
RACCORDO
100
AcDbCircle
 62
253
  6
CONTINUOUS
 10
-96.7293301742
 20
22.2239883372
 40
37.4983110557
100
AcDbArc
 50
359.9566378913
 51
0.7764429422
  0
ARC
  5
332
100
AcDbEntity
  8
0
100
AcDbCircle
 62
7
  6
CONTINUOUS
 10
-58.4694543297
 20
23.5861347936
 40
1.0
100
AcDbArc
 50
142.8623078293
 51
180.1233081975
  0
ARC
  5
333
100
AcDbEntity
  8
RACCORDO
100
AcDbCircle
 62
7
  6
CONTINUOUS
 10
-58.4693980663
 20
23.5861328289
 40
1.0
100
AcDbArc
 50
142.8161405458
 51
226.2722512752
  0
ARC
  5
334
100
AcDbEntity
  8
RACCORDO
100
AcDbCircle
 62
7
  6
CONTINUOUS
 10
-50.9697085073
 20
4.1465333514
 40
0.5
100
AcDbArc
 50
277.5
 51
360.0
  0
ARC
  5
335
100
AcDbEntity
  8
RACCORDO
100
AcDbCircle
 62
7
  6
CONTINUOUS
 10
-51.9697085073
 20
3.0062518932
 40
0.5
100
AcDbArc
 50
97.5
 51
180.0
  0
ARC
  5
336
100
AcDbEntity
  8
RACCORDO
100
AcDbCircle
 62
7
  6
CONTINUOUS
 10
-61.6810684528
 20
25.9709219179
 40
3.0
100
AcDbArc
 50
323.4021633569
 51
358.0945362117
  0
ARC
  5
337
100
AcDbEntity
  8
RACCORDO
100
AcDbCircle
 62
7
  6
CONTINUOUS
 10
-61.6553053374
 20
26.0028941761
 40
2.9988593296
100
AcDbArc
 50
322.8173094418
 51
357.8122894381
  0
ARC
  5
338
100
AcDbEntity
  8
RACCORDO
100
AcDbCircle
 62
7
  6
CONTINUOUS
 10
-54.934030669
 20
46.2094025682
 40
1.0
100
AcDbArc
 50
93.0000570867
 51
166.5335856917
  0
ARC
  5
339
100
AcDbEntity
  8
RACCORDO
100
AcDbCircle
 62
7
  6
CONTINUOUS
 10
-54.8674093835
 20
46.2132890332
 40
0.9996128807
100
AcDbArc
 50
93.011766451
 51
171.5138629937
  0
ARC
  5
33A
100
AcDbEntity
  8
RACCORDO
100
AcDbCircle
 62
7
  6
CONTINUOUS
 10
-58.9308675867
 20
26.1646253079
 40
0.387821808
100
AcDbArc
 50
310.3883573526
 51
310.8119759823
  0
ARC
  5
33B
100
AcDbEntity
  8
RACCORDO
100
AcDbCircle
 62
253
  6
CONTINUOUS
 10
-58.9299581481
 20
26.1635816757
 40
0.3864375382
100
AcDbArc
 50
310.8119759823
 51
314.5977139027
  0
ARC
  5
33C
100
AcDbEntity
  8
0
100
AcDbCircle
 62
7
  6
CONTINUOUS
 10
70.8058042328
 20
-19.6081760661
 40
129.6453130498
100
AcDbArc
 50
183.8613532448
 51
183.9775318923
  0
ARC
  5
33D
100
AcDbEntity
  8
0
100
AcDbCircle
 62
7
  6
CONTINUOUS
 10
62.1842407266
 20
-21.3000731928
 40
120.9881090658
100
AcDbArc
 50
182.2863692568
 51
182.5075302866
  0
ARC
  5
33E
100
AcDbEntity
  8
0
100
AcDbCircle
 62
7
  6
CONTINUOUS
 10
58.090764088
 20
-21.4952320454
 40
116.8899615753
100
AcDbArc
 50
182.9641960111
 51
183.1997388309
  0
ARC
  5
33F
100
AcDbEntity
  8
0
100
AcDbCircle
 62
7
  6
CONTINUOUS
 10
50.1992166741
 20
-21.0306418083
 40
108.9296797891
100
AcDbArc
 50
183.9137491747
 51
184.1916160088
  0
ARC
  5
340
100
AcDbEntity
  8
0
100
AcDbCircle
 62
7
  6
CONTINUOUS
 10
46.4661462853
 20
-21.3008362525
 40
105.2468695046
100
AcDbArc
 50
183.9773925786
 51
184.1200391585
  0
ARC
  5
341
100
AcDbEntity
  8
0
100
AcDbCircle
 62
7
  6
CONTINUOUS
 10
45.6893875858
 20
-21.7634891764
 40
104.5011379705
100
AcDbArc
 50
183.1631867305
 51
183.4293826364
  0
ARC
  5
342
100
AcDbEntity
  8
RACCORDO
100
AcDbCircle
 62
7
  6
CONTINUOUS
 10
44.3089368741
 20
-22.5552598753
 40
103.0486453814
100
AcDbArc
 50
181.9054709159
 51
181.9674502857
  0
ARC
  5
343
100
AcDbEntity
  8
RACCORDO
100
AcDbCircle
 62
7
  6
CONTINUOUS
 10
44.3089368741
 20
-22.5552598753
 40
103.0486453814
100
AcDbArc
 50
183.5817748641
 51
193.4664429029
  0
ARC
  5
344
100
AcDbEntity
  8
0
100
AcDbCircle
 62
7
  6
CONTINUOUS
 10
42.1535895041
 20
-21.939384813
 40
100.9609474501
100
AcDbArc
 50
182.357806225
 51
182.6282644772
  0
ARC
  5
345
100
AcDbEntity
  8
RACCORDO
100
AcDbCircle
 62
7
  6
CONTINUOUS
 10
44.3089368741
 20
22.4447401247
 40
103.0486453814
100
AcDbArc
 50
166.5335572113
 51
178.0945291473
  0
SPLINE
  5
346
100
AcDbEntity
  8
0
100
AcDbSpline
 62
7
  6
CONTINUOUS
 70
0
 71
3
 72
8
 73
4
 74
2
 42
0.0000001
 43
0.0000001
 44
0.0000000001
 12
-0.0009481389
 22
0.0702369054
 32
0.0
 13
-0.0195988453
 23
0.0672136706
 33
0.0
 40
0.0
 40
0.0
 40
0.0
 40
0.0
 40
1.0
 40
1.0
 40
1.0
 40
1.0
 10
44.9047622882
 20
-26.9328214132
 30
0.0
 10
44.9044462418
 20
-26.9094091114
 30
0.0
 10
44.9007824449
 20
-26.8863952259
 30
0.0
 10
44.8942494964
 20
-26.863990669
 30
0.0
 11
44.9047622882
 21
-26.9328214132
 31
0.0
 11
44.8942494964
 21
-26.863990669
 31
0.0
  0
SPLINE
  5
347
100
AcDbEntity
  8
0
100
AcDbSpline
 62
7
  6
CONTINUOUS
 70
0
 71
3
 72
9
 73
5
 74
3
 42
0.0000001
 43
0.0000001
 44
0.0000000001
 12
-0.1479960861
 22
0.5075482775
 32
0.0
 13
-0.5341804014
 23
0.0518344685
 33
0.0
 40
0.0
 40
0.0
 40
0.0
 40
0.0
 40
0.808178297
 40
1.0
 40
1.0
 40
1.0
 40
1.0
 10
44.8942494964
 20
-26.863990669
 30
0.0
 10
44.8543804215
 20
-26.7272608348
 30
0.0
 10
44.6728274798
 20
-26.5861581502
 30
0.0
 10
44.4942184846
 20
-26.5531956881
 30
0.0
 10
44.4600626865
 20
-26.5498813628
 30
0.0
 11
44.8942494964
 21
-26.863990669
 31
0.0
 11
44.562848972
 21
-26.5698206
 31
0.0
 11
44.4600626865
 21
-26.5498813628
 31
0.0
  0
SPLINE
  5
348
100
AcDbEntity
  8
0
100
AcDbSpline
 62
7
  6
CONTINUOUS
 70
0
 71
3
 72
8
 73
4
 74
2
 42
0.0000001
 43
0.0000001
 44
0.0000000001
 12
-0.2767682836
 22
0.026856352
 32
0.0
 13
-0.2723393966
 23
-0.0474679687
 33
0.0
 40
0.0
 40
0.0
 40
0.0
 40
0.0
 40
1.0
 40
1.0
 40
1.0
 40
1.0
 10
44.4600626865
 20
-26.5498813628
 30
0.0
 10
44.367806592
 20
-26.5409292455
 30
0.0
 10
44.2763186044
 20
-26.5539266116
 30
0.0
 10
44.1855388055
 20
-26.5697492678
 30
0.0
 11
44.4600626865
 21
-26.5498813628
 31
0.0
 11
44.1855388055
 21
-26.5697492678
 31
0.0
  0
LINE
  5
349
100
AcDbEntity
  8
0
100
AcDbLine
 62
7
  6
CONTINUOUS
 10
44.1855388055
 20
-26.5697492678
 11
44.0886733911
 21
-26.5868897903
  0
SPLINE
  5
34A
100
AcDbEntity
  8
0
100
AcDbSpline
 62
7
  6
CONTINUOUS
 70
0
 71
3
 72
8
 73
4
 74
2
 42
0.0000001
 43
0.0000001
 44
0.0000000001
 12
0.2054019232
 22
0.0045878016
 32
0.0
 13
0.2007792292
 23
0.1160844473
 33
0.0
 40
0.0
 40
0.0
 40
0.0
 40
0.0
 40
1.0
 40
1.0
 40
1.0
 40
1.0
 10
44.4345799872
 20
-27.3829011474
 30
0.0
 10
44.503047295
 20
-27.3813718802
 30
0.0
 10
44.5754434415
 20
-27.357562417
 30
0.0
 10
44.6423698512
 20
-27.3188676012
 30
0.0
 11
44.4345799872
 21
-27.3829011474
 31
0.0
 11
44.6423698512
 21
-27.3188676012
 31
0.0
  0
SPLINE
  5
34B
100
AcDbEntity
  8
0
100
AcDbSpline
 62
7
  6
CONTINUOUS
 70
0
 71
3
 72
8
 73
4
 74
2
 42
0.0000001
 43
0.0000001
 44
0.0000000001
 12
0.2798895027
 22
0.1618236028
 32
0.0
 13
0.1397328289
 23
0.275285032
 33
0.0
 40
0.0
 40
0.0
 40
0.0
 40
0.0
 40
1.0
 40
1.0
 40
1.0
 40
1.0
 10
44.6423698512
 20
-27.3188676012
 30
0.0
 10
44.7356663521
 20
-27.2649264003
 30
0.0
 10
44.8183336162
 20
-27.1820587731
 30
0.0
 10
44.8649112258
 20
-27.0902970958
 30
0.0
 11
44.6423698512
 21
-27.3188676012
 31
0.0
 11
44.8649112258
 21
-27.0902970958
 31
0.0
  0
SPLINE
  5
34C
100
AcDbEntity
  8
0
100
AcDbSpline
 62
7
  6
CONTINUOUS
 70
0
 71
3
 72
8
 73
4
 74
2
 42
0.0000001
 43
0.0000001
 44
0.0000000001
 12
0.0381147494
 22
0.0750891547
 32
0.0
 13
0.0204535841
 23
0.0778399511
 33
0.0
 40
0.0
 40
0.0
 40
0.0
 40
0.0
 40
1.0
 40
1.0
 40
1.0
 40
1.0
 10
44.8649112258
 20
-27.0902970958
 30
0.0
 10
44.8776161423
 20
-27.0652673775
 30
0.0
 10
44.8876358877
 20
-27.0395759171
 30
0.0
 10
44.8944537491
 20
-27.0136292668
 30
0.0
 11
44.8649112258
 21
-27.0902970958
 31
0.0
 11
44.8944537491
 21
-27.0136292668
 31
0.0
  0
SPLINE
  5
34D
100
AcDbEntity
  8
0
100
AcDbSpline
 62
7
  6
CONTINUOUS
 70
0
 71
3
 72
8
 73
4
 74
2
 42
0.0000001
 43
0.0000001
 44
0.0000000001
 12
0.0211365107
 22
0.0804389564
 32
0.0
 13
-0.0010897612
 23
0.0807280991
 33
0.0
 40
0.0
 40
0.0
 40
0.0
 40
0.0
 40
1.0
 40
1.0
 40
1.0
 40
1.0
 10
44.8944537491
 20
-27.0136292668
 30
0.0
 10
44.9014992526
 20
-26.9868162813
 30
0.0
 10
44.9051254866
 20
-26.9597307803
 30
0.0
 10
44.9047622329
 20
-26.9328214139
 30
0.0
 11
44.8944537491
 21
-27.0136292668
 31
0.0
 11
44.9047622329
 21
-26.9328214139
 31
0.0
  0
SPLINE
  5
34E
100
AcDbEntity
  8
0
100
AcDbSpline
 62
7
  6
CONTINUOUS
 70
0
 71
3
 72
8
 73
4
 74
2
 42
0.0000001
 43
0.0000001
 44
0.0000000001
 12
0.1779955516
 22
-0.6532975161
 32
0.0
 13
0.1733159822
 23
-0.6545527026
 33
0.0
 40
0.0
 40
0.0
 40
0.0
 40
0.0
 40
1.0
 40
1.0
 40
1.0
 40
1.0
 10
45.4108642503
 20
-28.2075556425
 30
0.0
 10
45.4701961008
 20
-28.4253214812
 30
0.0
 10
45.5251934885
 20
-28.6442485745
 30
0.0
 10
45.5829654826
 20
-28.8624328087
 30
0.0
 11
45.4108642503
 21
-28.2075556425
 31
0.0
 11
45.5829654826
 21
-28.8624328087
 31
0.0
  0
SPLINE
  5
34F
100
AcDbEntity
  8
0
100
AcDbSpline
 62
7
  6
CONTINUOUS
 70
0
 71
3
 72
9
 73
5
 74
3
 42
0.0000001
 43
0.0000001
 44
0.0000000001
 12
-0.1757392937
 22
0.6112585714
 32
0.0
 13
-0.1856836934
 23
0.6083544828
 33
0.0
 40
0.0
 40
0.0
 40
0.0
 40
0.0
 40
0.1938548685
 40
1.0
 40
1.0
 40
1.0
 40
1.0
 10
45.0356329247
 20
-28.9925584008
 30
0.0
 10
45.0242769521
 20
-28.9530599175
 30
0.0
 10
44.9647018407
 20
-28.7496358618
 30
0.0
 10
44.9108355613
 20
-28.5441341977
 30
0.0
 10
44.8609395595
 20
-28.3806601962
 30
0.0
 11
45.0356329247
 21
-28.9925584008
 31
0.0
 11
45.0013936376
 21
-28.8741123545
 31
0.0
 11
44.8609395595
 21
-28.3806601962
 31
0.0
  0
SPLINE
  5
350
100
AcDbEntity
  8
0
100
AcDbSpline
 62
7
  6
CONTINUOUS
 70
0
 71
3
 72
8
 73
4
 74
2
 42
0.0000001
 43
0.0000001
 44
0.0000000001
 12
-0.1489086531
 22
0.3963217239
 32
0.0
 13
-0.4233281438
 23
0.0
 33
0.0
 40
0.0
 40
0.0
 40
0.0
 40
0.0
 40
1.0
 40
1.0
 40
1.0
 40
1.0
 10
44.77091974
 20
-28.1131743229
 30
0.0
 10
44.7212835223
 20
-27.9810670816
 30
0.0
 10
44.574384717
 20
-27.8577942866
 30
0.0
 10
44.4332753357
 20
-27.8577942866
 30
0.0
 11
44.77091974
 21
-28.1131743229
 31
0.0
 11
44.4332753357
 21
-27.8577942866
 31
0.0
  0
SPLINE
  5
351
100
AcDbEntity
  8
0
100
AcDbSpline
 62
7
  6
CONTINUOUS
 70
0
 71
3
 72
8
 73
4
 74
2
 42
0.0000001
 43
0.0000001
 44
0.0000000001
 12
0.6888800025
 22
0.0914943913
 32
0.0
 13
0.6915906686
 23
-0.017417794
 33
0.0
 40
0.0
 40
0.0
 40
0.0
 40
0.0
 40
1.0
 40
1.0
 40
1.0
 40
1.0
 10
43.6863741625
 20
-26.1013568704
 30
0.0
 10
43.9160008299
 20
-26.0708587399
 30
0.0
 10
44.1495320817
 20
-26.0485191988
 30
0.0
 10
44.3800623045
 20
-26.0543251302
 30
0.0
 11
43.6863741625
 21
-26.1013568704
 31
0.0
 11
44.3800623045
 21
-26.0543251302
 31
0.0
  0
SPLINE
  5
352
100
AcDbEntity
  8
0
100
AcDbSpline
 62
7
  6
CONTINUOUS
 70
0
 71
3
 72
9
 73
5
 74
3
 42
0.0000001
 43
0.0000001
 44
0.0000000001
 12
0.314473463
 22
-0.027853813
 32
0.0
 13
0.3066163465
 23
-0.0750849418
 33
0.0
 40
0.0
 40
0.0
 40
0.0
 40
0.0
 40
0.9665470627
 40
1.0
 40
1.0
 40
1.0
 40
1.0
 10
44.5432566868
 20
-26.0634517357
 30
0.0
 10
44.6445744874
 20
-26.0724257428
 30
0.0
 10
44.748457681
 20
-26.0883853838
 30
0.0
 10
44.8507244722
 20
-26.1131107598
 30
0.0
 10
44.8541435447
 20
-26.1139480304
 30
0.0
 11
44.5432566868
 21
-26.0634517357
 31
0.0
 11
44.8438804142
 21
-26.1114662966
 31
0.0
 11
44.8541435447
 21
-26.1139480304
 31
0.0
  0
SPLINE
  5
353
100
AcDbEntity
  8
0
100
AcDbSpline
 62
7
  6
CONTINUOUS
 70
0
 71
3
 72
8
 73
4
 74
2
 42
0.0000001
 43
0.0000001
 44
0.0000000001
 12
0.1481336011
 22
-0.0362753093
 32
0.0
 13
0.1433682577
 23
-0.0518890413
 33
0.0
 40
0.0
 40
0.0
 40
0.0
 40
0.0
 40
1.0
 40
1.0
 40
1.0
 40
1.0
 10
44.8541435447
 20
-26.1139480304
 30
0.0
 10
44.9035214117
 20
-26.1260398002
 30
0.0
 10
44.9524712797
 20
-26.1402452341
 30
0.0
 10
45.0002606989
 20
-26.1575415812
 30
0.0
 11
44.8541435447
 21
-26.1139480304
 31
0.0
 11
45.0002606989
 21
-26.1575415812
 31
0.0
  0
SPLINE
  5
354
100
AcDbEntity
  8
0
100
AcDbSpline
 62
7
  6
CONTINUOUS
 70
0
 71
3
 72
13
 73
9
 74
7
 42
0.0000001
 43
0.0000001
 44
0.0000000001
 12
1.4789978615
 22
-0.5356784326
 32
0.0
 13
-1.0686594189
 23
-1.3047535819
 33
0.0
 40
0.0
 40
0.0
 40
0.0
 40
0.0
 40
0.2158483111
 40
0.368294271
 40
0.5525047334
 40
0.776079821
 40
0.9509346319
 40
1.0
 40
1.0
 40
1.0
 40
1.0
 10
45.0002607249
 20
-26.1575415074
 30
0.0
 10
45.1066737884
 20
-26.196083269
 30
0.0
 10
45.2678736073
 20
-26.3199288338
 30
0.0
 10
45.424982739
 20
-26.5674329789
 30
0.0
 10
45.4887713318
 20
-26.8588353054
 30
0.0
 10
45.4560923944
 20
-27.1757578817
 30
0.0
 10
45.339894989
 20
-27.3735412032
 30
0.0
 10
45.2648787691
 20
-27.4761865219
 30
0.0
 10
45.2474007131
 20
-27.4975259268
 30
0.0
 11
45.0002607249
 21
-26.1575415074
 31
0.0
 11
45.276226966
 21
-26.3553793849
 31
0.0
 11
45.40418066
 21
-26.5581860987
 31
0.0
 11
45.4701471005
 21
-26.8403400847
 31
0.0
 11
45.4278199935
 21
-27.1894668596
 31
0.0
 11
45.2969437443
 21
-27.431379822
 31
0.0
 11
45.2474007131
 21
-27.4975259268
 31
0.0
  0
SPLINE
  5
355
100
AcDbEntity
  8
0
100
AcDbSpline
 62
7
  6
CONTINUOUS
 70
0
 71
3
 72
9
 73
5
 74
3
 42
0.0000001
 43
0.0000001
 44
0.0000000001
 12
-0.1939074223
 22
-0.236746525
 32
0.0
 13
-0.3142439633
 23
0.0594138567
 33
0.0
 40
0.0
 40
0.0
 40
0.0
 40
0.0
 40
0.7892781856
 40
1.0
 40
1.0
 40
1.0
 40
1.0
 10
45.2474007131
 20
-27.4975259268
 30
0.0
 10
45.1963850803
 20
-27.5598122161
 30
0.0
 10
45.120517817
 20
-27.6262903581
 30
0.0
 10
45.0212237619
 20
-27.6239676904
 30
0.0
 10
44.9991510759
 20
-27.6197944252
 30
0.0
 11
45.2474007131
 21
-27.4975259268
 31
0.0
 11
45.062030373
 21
-27.6218915546
 31
0.0
 11
44.9991510759
 21
-27.6197944252
 31
0.0
  0
SPLINE
  5
356
100
AcDbEntity
  8
0
100
AcDbSpline
 62
7
  6
CONTINUOUS
 70
0
 71
3
 72
9
 73
5
 74
3
 42
0.0000001
 43
0.0000001
 44
0.0000000001
 12
0.4259775218
 22
-0.0805392315
 32
0.0
 13
0.1944741343
 23
-0.3916637962
 33
0.0
 40
0.0
 40
0.0
 40
0.0
 40
0.0
 40
0.156423846
 40
1.0
 40
1.0
 40
1.0
 40
1.0
 10
44.9989721759
 20
-27.6207406392
 30
0.0
 10
45.02118319
 20
-27.6249400579
 30
0.0
 10
45.1553736058
 20
-27.6643720212
 30
0.0
 10
45.2432194301
 20
-27.7753133314
 30
0.0
 10
45.2979040108
 20
-27.8854460777
 30
0.0
 11
44.9989721759
 21
-27.6207406392
 31
0.0
 11
45.062030373
 21
-27.6390259773
 31
0.0
 11
45.2979040108
 21
-27.8854460777
 31
0.0
  0
SPLINE
  5
357
100
AcDbEntity
  8
0
100
AcDbSpline
 62
7
  6
CONTINUOUS
 70
0
 71
3
 72
8
 73
4
 74
2
 42
0.0000001
 43
0.0000001
 44
0.0000000001
 12
0.0367583307
 22
-0.0740299342
 32
0.0
 13
0.0313661234
 23
-0.0778548534
 33
0.0
 40
0.0
 40
0.0
 40
0.0
 40
0.0
 40
1.0
 40
1.0
 40
1.0
 40
1.0
 10
45.2979040108
 20
-27.8854460777
 30
0.0
 10
45.3101567877
 20
-27.9101227225
 30
0.0
 10
45.3214345977
 20
-27.9356300094
 30
0.0
 10
45.3318899722
 20
-27.9615816272
 30
0.0
 11
45.2979040108
 21
-27.8854460777
 31
0.0
 11
45.3318899722
 21
-27.9615816272
 31
0.0
  0
SPLINE
  5
358
100
AcDbEntity
  8
0
100
AcDbSpline
 62
7
  6
CONTINUOUS
 70
0
 71
3
 72
8
 73
4
 74
2
 42
0.0000001
 43
0.0000001
 44
0.0000000001
 12
0.0652487184
 22
-0.1619559212
 32
0.0
 13
0.0480141185
 23
-0.1630599906
 33
0.0
 40
0.0
 40
0.0
 40
0.0
 40
0.0
 40
1.0
 40
1.0
 40
1.0
 40
1.0
 10
45.3318899722
 20
-27.9615816272
 30
0.0
 10
45.353639545
 20
-28.0155669343
 30
0.0
 10
45.3718301494
 20
-28.0714750177
 30
0.0
 10
45.3878348556
 20
-28.125828348
 30
0.0
 11
45.3318899722
 21
-27.9615816272
 31
0.0
 11
45.3878348556
 21
-28.125828348
 31
0.0
  0
SPLINE
  5
359
100
AcDbEntity
  8
0
100
AcDbSpline
 62
7
  6
CONTINUOUS
 70
0
 71
3
 72
8
 73
4
 74
2
 42
0.0000001
 43
0.0000001
 44
0.0000000001
 12
0.0245616322
 22
-0.0834133717
 32
0.0
 13
0.021680965
 23
-0.0795756997
 33
0.0
 40
0.0
 40
0.0
 40
0.0
 40
0.0
 40
1.0
 40
1.0
 40
1.0
 40
1.0
 10
45.3878348556
 20
-28.125828348
 30
0.0
 10
45.3960220663
 20
-28.1536328052
 30
0.0
 10
45.4036372633
 20
-28.181030409
 30
0.0
 10
45.4108642516
 20
-28.2075556422
 30
0.0
 11
45.3878348556
 21
-28.125828348
 31
0.0
 11
45.4108642516
 21
-28.2075556422
 31
0.0
  0
SPLINE
  5
35A
100
AcDbEntity
  8
RACCORDO
100
AcDbSpline
 62
253
  6
CONTINUOUS
 70
0
 71
3
 72
16
 73
12
 74
10
 42
0.0000001
 43
0.0000001
 44
0.0000000001
 12
-0.0000968458
 22
10.4984010375
 32
0.0
 13
-0.0051260187
 23
10.4983997865
 33
0.0
 40
0.0
 40
0.0
 40
0.0
 40
0.0
 40
0.1261502353
 40
0.2638637852
 40
0.4021301856
 40
0.5287269086
 40
0.6417086159
 40
0.7441886613
 40
0.837332943
 40
0.9222567694
 40
1.0
 40
1.0
 40
1.0
 40
1.0
 10
46.7543118135
 20
11.6947401247
 30
0.0
 10
46.7543077411
 20
12.1361987119
 30
0.0
 10
46.7542350639
 20
13.059581298
 30
0.0
 10
46.7552103007
 20
14.466822724
 30
0.0
 10
46.7591831585
 20
15.8756226043
 30
0.0
 10
46.7660990356
 20
17.1978603135
 30
0.0
 10
46.7722014339
 20
18.3948674625
 30
0.0
 10
46.7750340858
 20
19.4748217621
 30
0.0
 10
46.7748030042
 20
20.456592409
 30
0.0
 10
46.7721009423
 20
21.3517916171
 30
0.0
 10
46.7697445993
 20
21.9210362635
 30
0.0
 10
46.7696117615
 20
22.193096102
 30
0.0
 11
46.7543118135
 21
11.6947401247
 31
0.0
 11
46.7544011254
 21
13.0191158832
 31
0.0
 11
46.7557204616
 21
14.4648873563
 31
0.0
 11
46.7599071463
 21
15.9164574404
 31
0.0
 11
46.7663172474
 21
17.2455051505
 31
0.0
 11
46.7718756503
 21
18.4316193992
 31
0.0
 11
46.7745827877
 21
19.5074926088
 31
0.0
 11
46.7743217267
 21
20.4853585975
 31
0.0
 11
46.7718511658
 21
21.3769195613
 31
0.0
 11
46.7696117615
 21
22.193096102
 31
0.0
  0
SPLINE
  5
35B
100
AcDbEntity
  8
RACCORDO
100
AcDbSpline
 62
253
  6
CONTINUOUS
 70
0
 71
3
 72
21
 73
17
 74
15
 42
0.0000001
 43
0.0000001
 44
0.0000000001
 12
-0.0021339847
 22
5.8118872065
 32
0.0
 13
-5.8113700694
 23
-0.0775588249
 33
0.0
 40
0.0
 40
0.0
 40
0.0
 40
0.0
 40
0.1115327609
 40
0.2115804607
 40
0.3018487012
 40
0.3830016977
 40
0.4556709411
 40
0.521327347
 40
0.5823432623
 40
0.6413682159
 40
0.7006521032
 40
0.7608671832
 40
0.8220201858
 40
0.8829132828
 40
0.942470053
 40
1.0
 40
1.0
 40
1.0
 40
1.0
 10
46.7696117615
 20
22.193096102
 30
0.0
 10
46.7695324251
 20
22.4091680441
 30
0.0
 10
46.7336926285
 20
22.8198421566
 30
0.0
 10
46.5918273099
 20
23.3892653545
 30
0.0
 10
46.3908292496
 20
23.8771688287
 30
0.0
 10
46.1532767169
 20
24.2875464573
 30
0.0
 10
45.8951687213
 20
24.6267997805
 30
0.0
 10
45.6265068376
 20
24.9051872084
 30
0.0
 10
45.3531614326
 20
25.1398164958
 30
0.0
 10
45.0687458802
 20
25.3403275495
 30
0.0
 10
44.7667456177
 20
25.5100067184
 30
0.0
 10
44.4463523904
 20
25.6522114412
 30
0.0
 10
44.1102275018
 20
25.7622087881
 30
0.0
 10
43.7665324386
 20
25.8398817072
 30
0.0
 10
43.423873247
 20
25.8826040115
 30
0.0
 10
43.1968010995
 20
25.8899045756
 30
0.0
 10
43.0853584954
 20
25.8884172572
 30
0.0
 11
46.7696117615
 21
22.193096102
 31
0.0
 11
46.714073995
 21
22.8389284105
 31
0.0
 11
46.5730084702
 21
23.4030234465
 31
0.0
 11
46.3730140149
 21
23.8880365051
 31
0.0
 11
46.1363378666
 21
24.2960072125
 31
0.0
 11
45.880365067
 21
24.6319441496
 31
0.0
 11
45.6160243619
 21
24.9071406747
 31
0.0
 11
45.3466938702
 21
25.1378239163
 31
0.0
 11
45.0660464101
 21
25.3350999481
 31
0.0
 11
44.7659124961
 21
25.5043194049
 31
0.0
 11
44.4459050229
 21
25.6459863102
 31
0.0
 11
44.1082660346
 21
25.7569786222
 31
0.0
 11
43.7629965245
 21
25.8346760483
 31
0.0
 11
43.419544521
 21
25.8777076626
 31
0.0
 11
43.0853584954
 21
25.8884172572
 31
0.0
  0
SPLINE
  5
35C
100
AcDbEntity
  8
RACCORDO
100
AcDbSpline
 62
253
  6
CONTINUOUS
 70
0
 71
3
 72
24
 73
20
 74
18
 42
0.0000001
 43
0.0000001
 44
0.0000000001
 12
-13.0149672118
 22
-0.1705629347
 32
0.0
 13
-13.0160847892
 23
-0.0000048045
 33
0.0
 40
0.0
 40
0.0
 40
0.0
 40
0.0
 40
0.0287264352
 40
0.0598411888
 40
0.0937047883
 40
0.1304636369
 40
0.1703077931
 40
0.213489692
 40
0.260312307
 40
0.3110154446
 40
0.3658027109
 40
0.4249040167
 40
0.4886836711
 40
0.5575624298
 40
0.6320038122
 40
0.7125874677
 40
0.7998716212
 40
0.894810146
 40
1.0
 40
1.0
 40
1.0
 40
1.0
 10
43.0853584954
 20
25.8884172572
 30
0.0
 10
42.960733958
 20
25.8867840355
 30
0.0
 10
42.7011214258
 20
25.8835119965
 30
0.0
 10
42.2945788231
 20
25.8800562303
 30
0.0
 10
41.8531816383
 20
25.8771485194
 30
0.0
 10
41.3739056356
 20
25.8748936466
 30
0.0
 10
40.8541969166
 20
25.8735702567
 30
0.0
 10
40.2908237244
 20
25.8727455408
 30
0.0
 10
39.6803363474
 20
25.8722184492
 30
0.0
 10
39.0194966436
 20
25.8719655442
 30
0.0
 10
38.3053834198
 20
25.8720584368
 30
0.0
 10
37.5345351988
 20
25.8721715245
 30
0.0
 10
36.7025482894
 20
25.8723222383
 30
0.0
 10
35.8040054961
 20
25.8725775353
 30
0.0
 10
34.8325552247
 20
25.8727425585
 30
0.0
 10
33.7812495798
 20
25.8724472856
 30
0.0
 10
32.6410132018
 20
25.871913134
 30
0.0
 10
31.3940180538
 20
25.8712833781
 30
0.0
 10
30.5257220552
 20
25.8711706163
 30
0.0
 10
30.069335369
 20
25.8711704478
 30
0.0
 11
43.0853584954
 21
25.8884172572
 31
0.0
 11
42.7114802122
 21
25.8838880401
 31
0.0
 11
42.3065040025
 21
25.8802812499
 31
0.0
 11
41.865742174
 21
25.8773639023
 31
0.0
 11
41.387291137
 21
25.8751218014
 31
0.0
 11
40.8686781797
 21
25.8736969385
 31
0.0
 11
40.3066196019
 21
25.872822641
 31
0.0
 11
39.6971727172
 21
25.8722798689
 31
0.0
 11
39.0372164277
 21
25.8720265444
 31
0.0
 11
38.324100724
 21
25.872057903
 31
0.0
 11
37.5548331253
 21
25.8721727946
 31
0.0
 11
36.7246717517
 21
25.8723319305
 31
0.0
 11
35.8281400151
 21
25.8725542692
 31
0.0
 11
34.8592046767
 21
25.8726681265
 31
0.0
 11
33.8103210134
 21
25.8724239657
 31
0.0
 11
32.6742231805
 21
25.8719220593
 31
0.0
 11
31.4384954115
 21
25.8713791468
 31
0.0
 11
30.069335369
 21
25.8711704478
 31
0.0
  0
SPLINE
  5
35D
100
AcDbEntity
  8
RACCORDO
100
AcDbSpline
 62
253
  6
CONTINUOUS
 70
0
 71
3
 72
28
 73
24
 74
22
 42
0.0000001
 43
0.0000001
 44
0.0000000001
 12
-24.0229900883
 22
0.6570091343
 32
0.0
 13
-24.0319727401
 23
0.0000199939
 33
0.0
 40
0.0
 40
0.0
 40
0.0
 40
0.0
 40
0.0225938699
 40
0.0479923372
 40
0.0760798063
 40
0.1065644911
 40
0.1395087751
 40
0.1750755884
 40
0.2134294371
 40
0.2547062664
 40
0.3000426347
 40
0.3499436508
 40
0.399946134
 40
0.447861854
 40
0.4943070468
 40
0.5401532526
 40
0.5878237578
 40
0.6400888649
 40
0.6986899293
 40
0.7636383431
 40
0.8350417756
 40
0.9135454775
 40
1.0
 40
1.0
 40
1.0
 40
1.0
 10
54.1007951968
 20
46.3608041834
 30
0.0
 10
53.9198710927
 20
46.3657523097
 30
0.0
 10
53.5355427916
 20
46.3754855864
 30
0.0
 10
52.9262182229
 20
46.3879550775
 30
0.0
 10
52.253633408
 20
46.3981589794
 30
0.0
 10
51.5205767857
 20
46.4068060269
 30
0.0
 10
50.7275897853
 20
46.4142519095
 30
0.0
 10
49.8715516879
 20
46.4203149175
 30
0.0
 10
48.9487502713
 20
46.4240380275
 30
0.0
 10
47.9476832832
 20
46.4258278822
 30
0.0
 10
46.8541147871
 20
46.4265948221
 30
0.0
 10
45.6906479136
 20
46.426426227
 30
0.0
 10
44.5065187334
 20
46.4261630345
 30
0.0
 10
43.3500731532
 20
46.4269639377
 30
0.0
 10
42.2269226052
 20
46.428170702
 30
0.0
 10
41.1057363339
 20
46.4293750326
 30
0.0
 10
39.9379281858
 20
46.4299361861
 30
0.0
 10
38.6679452107
 20
46.4302065554
 30
0.0
 10
37.2595547933
 20
46.430824305
 30
0.0
 10
35.6978550938
 20
46.4330006938
 30
0.0
 10
33.9767242625
 20
46.4364516678
 30
0.0
 10
32.0833164385
 20
46.4404671077
 30
0.0
 10
30.7618929447
 20
46.4422770935
 30
0.0
 10
30.069335369
 20
46.4422776697
 30
0.0
 11
54.1007951968
 21
46.3608041834
 31
0.0
 11
53.5579927621
 21
46.374502925
 31
0.0
 11
52.9477455005
 21
46.3870031823
 31
0.0
 11
52.2728298892
 21
46.3975035929
 31
0.0
 11
51.5402754792
 21
46.4062912669
 31
0.0
 11
50.7485945928
 21
46.4137619227
 31
0.0
 11
49.8938748046
 21
46.4197389676
 31
0.0
 11
48.9721642906
 21
46.4236111045
 31
0.0
 11
47.9802026439
 21
46.4255985101
 31
0.0
 11
46.8906805898
 21
46.4264228791
 31
0.0
 11
45.6914607322
 21
46.4264108987
 31
0.0
 11
44.4898024192
 21
46.426346441
 31
0.0
 11
43.3382933555
 21
46.4270465296
 31
0.0
 11
42.2221243193
 21
46.4281758035
 31
0.0
 11
41.1203500772
 21
46.4292524523
 31
0.0
 11
39.9747339616
 21
46.42986975
 31
0.0
 11
38.7187003869
 21
46.4302403033
 31
0.0
 11
37.3104014186
 21
46.4310146367
 31
0.0
 11
35.7495642765
 21
46.4330801661
 31
0.0
 11
34.0336020829
 21
46.4363691425
 31
0.0
 11
32.1470069626
 21
46.4401072717
 31
0.0
 11
30.069335369
 21
46.4422776697
 31
0.0
  0
SPLINE
  5
35E
100
AcDbEntity
  8
RACCORDO
100
AcDbSpline
 62
253
  6
CONTINUOUS
 70
0
 71
3
 72
37
 73
33
 74
31
 42
0.0000001
 43
0.0000001
 44
0.0000000001
 12
0.1203543675
 22
-32.7498167083
 32
0.0
 13
-0.0000013619
 23
-32.7500378565
 33
0.0
 40
0.0
 40
0.0
 40
0.0
 40
0.0
 40
0.0101553392
 40
0.0204217363
 40
0.0306853461
 40
0.0409749989
 40
0.0515448302
 40
0.0629044736
 40
0.0755806857
 40
0.0898301823
 40
0.1054720985
 40
0.1223890368
 40
0.1407285312
 40
0.1606869022
 40
0.1823749206
 40
0.2058128307
 40
0.2311106614
 40
0.2585585982
 40
0.288390875
 40
0.3208188487
 40
0.3561889322
 40
0.3948427363
 40
0.4369644268
 40
0.482577232
 40
0.5317730713
 40
0.5847456332
 40
0.6417852906
 40
0.7032535282
 40
0.7694567056
 40
0.8407079231
 40
0.9173851353
 40
1.0
 40
1.0
 40
1.0
 40
1.0
 10
-37.6955011469
 20
44.4447714731
 30
0.0
 10
-37.6950937338
 20
44.3339096406
 30
0.0
 10
-37.694322683
 20
44.1109734178
 30
0.0
 10
-37.6933592602
 20
43.7759926986
 30
0.0
 10
-37.6926098221
 20
43.4395451726
 30
0.0
 10
-37.692014153
 20
43.0997848545
 30
0.0
 10
-37.691470788
 20
42.7480593922
 30
0.0
 10
-37.690917535
 20
42.3702806128
 30
0.0
 10
-37.6903730393
 20
41.9523320547
 30
0.0
 10
-37.6898478766
 20
41.4876352393
 30
0.0
 10
-37.6893736616
 20
40.9766436986
 30
0.0
 10
-37.6889700167
 20
40.4210028907
 30
0.0
 10
-37.6886476297
 20
39.8182406703
 30
0.0
 10
-37.6883956315
 20
39.1633940629
 30
0.0
 10
-37.6881744732
 20
38.4528896724
 30
0.0
 10
-37.6879864626
 20
37.6840961013
 30
0.0
 10
-37.6878489316
 20
36.8524233361
 30
0.0
 10
-37.6877647929
 20
35.9509453135
 30
0.0
 10
-37.6877350718
 20
34.9716298033
 30
0.0
 10
-37.6877596277
 20
33.9058307583
 30
0.0
 10
-37.6877884804
 20
32.7437299298
 30
0.0
 10
-37.6877787563
 20
31.4758059026
 30
0.0
 10
-37.6876944325
 20
30.0960653709
 30
0.0
 10
-37.6875625223
 20
28.6012408257
 30
0.0
 10
-37.687393877
 20
26.9879607996
 30
0.0
 10
-37.6872145632
 20
25.2499374933
 30
0.0
 10
-37.6870446937
 20
23.3779403483
 30
0.0
 10
-37.6869070364
 20
21.361508815
 30
0.0
 10
-37.6868081427
 20
19.1899342359
 30
0.0
 10
-37.6867323529
 20
16.852328158
 30
0.0
 10
-37.6866838181
 20
14.3355609521
 30
0.0
 10
-37.686674916
 20
12.5966204354
 30
0.0
 10
-37.6866749535
 20
11.6947404533
 30
0.0
 11
-37.6955011469
 21
44.4447714731
 31
0.0
 11
-37.6943589922
 21
44.1121856907
 31
0.0
 11
-37.6933955204
 21
43.7759621789
 31
0.0
 11
-37.6926369929
 21
43.4398294253
 31
0.0
 11
-37.6920310599
 21
43.102843449
 31
0.0
 11
-37.6914885775
 21
42.7566815012
 31
0.0
 11
-37.6909480608
 21
42.3846531426
 31
0.0
 11
-37.6904066633
 21
41.9695070689
 31
0.0
 11
-37.6898800411
 21
41.5028358121
 31
0.0
 11
-37.6894031155
 21
40.9905626863
 31
0.0
 11
-37.6889982763
 21
40.4365324648
 31
0.0
 11
-37.6886714656
 21
39.8359134182
 31
0.0
 11
-37.6884105775
 21
39.1822760649
 31
0.0
 11
-37.6881880111
 21
38.4719926767
 31
0.0
 11
-37.6880011718
 21
37.7044002543
 31
0.0
 11
-37.6878623542
 21
36.8758953539
 31
0.0
 11
-37.6877762659
 21
35.9769743881
 31
0.0
 11
-37.6877442629
 21
34.9999661929
 31
0.0
 11
-37.6877591905
 21
33.9379488287
 31
0.0
 11
-37.6877815947
 21
32.7795772535
 31
0.0
 11
-37.6877682544
 21
31.5136637066
 31
0.0
 11
-37.6876907726
 21
30.1341767509
 31
0.0
 11
-37.6875620713
 21
28.64035566
 31
0.0
 11
-37.6873985398
 21
27.0291900697
 31
0.0
 11
-37.6872226048
 21
25.2943366689
 31
0.0
 11
-37.6870558165
 21
23.4262857379
 31
0.0
 11
-37.6869179078
 21
21.413198633
 31
0.0
 11
-37.6868152186
 21
19.2450420703
 31
0.0
 11
-37.6867391953
 21
16.9115620026
 31
0.0
 11
-37.6866907758
 21
14.4003803997
 31
0.0
 11
-37.6866749535
 21
11.6947404533
 31
0.0
  0
SPLINE
  5
35F
100
AcDbEntity
  8
RACCORDO
100
AcDbSpline
 62
253
  6
CONTINUOUS
 70
0
 71
3
 72
36
 73
32
 74
30
 42
0.0000001
 43
0.0000001
 44
0.0000000001
 12
0.0000012991
 22
-32.7498906144
 32
0.0
 13
-0.1204157436
 23
-32.7496692397
 33
0.0
 40
0.0
 40
0.0
 40
0.0
 40
0.0
 40
0.0857671158
 40
0.1651400637
 40
0.2386381935
 40
0.3067112748
 40
0.3697569261
 40
0.4281384998
 40
0.4822134322
 40
0.5322660895
 40
0.57850049
 40
0.6209957851
 40
0.6598223858
 40
0.6952757339
 40
0.7277458245
 40
0.7575266785
 40
0.784784337
 40
0.8097991983
 40
0.8328069623
 40
0.8539111304
 40
0.8732279529
 40
0.8909575436
 40
0.9073016282
 40
0.9222108428
 40
0.9354899942
 40
0.9473000395
 40
0.9582064804
 40
0.9687219922
 40
0.979215186
 40
0.9897459597
 40
1.0
 40
1.0
 40
1.0
 40
1.0
 10
-37.6866749535
 20
-11.8052602039
 30
0.0
 10
-37.6866749164
 20
-12.7415480903
 30
0.0
 10
-37.6866845232
 20
-14.5443210972
 30
0.0
 10
-37.6867369731
 20
-17.1494460084
 30
0.0
 10
-37.6868178312
 20
-19.5614116878
 30
0.0
 10
-37.6869249262
 20
-21.7951383066
 30
0.0
 10
-37.6870755626
 20
-23.8638430684
 30
0.0
 10
-37.6872560003
 20
-25.7797352123
 30
0.0
 10
-37.6874427245
 20
-27.5537876442
 30
0.0
 10
-37.6876089734
 20
-29.1952338794
 30
0.0
 10
-37.6877319706
 20
-30.7102694994
 30
0.0
 10
-37.6877922331
 20
-32.1027544152
 30
0.0
 10
-37.6877781092
 20
-33.3775465702
 30
0.0
 10
-37.6877436263
 20
-34.5428972747
 30
0.0
 10
-37.687741278
 20
-35.6094989082
 30
0.0
 10
-37.6878064225
 20
-36.5866312276
 30
0.0
 10
-37.687926025
 20
-37.4823775596
 30
0.0
 10
-37.6881035254
 20
-38.3041845617
 30
0.0
 10
-37.68832471
 20
-39.0588161702
 30
0.0
 10
-37.6885704965
 20
-39.7512443848
 30
0.0
 10
-37.6888809539
 20
-40.3860527035
 30
0.0
 10
-37.6892772838
 20
-40.9688968935
 30
0.0
 10
-37.6897513108
 20
-41.5036247833
 30
0.0
 10
-37.6902835242
 20
-41.9897687914
 30
0.0
 10
-37.6908428617
 20
-42.4264163008
 30
0.0
 10
-37.6914094836
 20
-42.8193669579
 30
0.0
 10
-37.6919708886
 20
-43.1821479562
 30
0.0
 10
-37.6925695249
 20
-43.5305533
 30
0.0
 10
-37.6933286838
 20
-43.874857316
 30
0.0
 10
-37.6943045492
 20
-44.2163063904
 30
0.0
 10
-37.6950890589
 20
-44.4432051736
 30
0.0
 10
-37.6955006415
 20
-44.5551439835
 30
0.0
 11
-37.6866749535
 21
-11.8052602039
 31
0.0
 11
-37.6866920941
 21
-14.6141238631
 31
0.0
 11
-37.6867442885
 21
-17.2135792239
 31
0.0
 11
-37.6868258235
 21
-19.6206349368
 31
0.0
 11
-37.6869371535
 21
-21.8500209005
 31
0.0
 11
-37.6870869039
 21
-23.9147590781
 31
0.0
 11
-37.6872640919
 21
-25.8267492216
 31
0.0
 11
-37.6874461288
 21
-27.5976973344
 31
0.0
 11
-37.6876074866
 21
-29.2369163775
 31
0.0
 11
-37.6877253149
 21
-30.7510879305
 31
0.0
 11
-37.6877807894
 21
-32.1428041953
 31
0.0
 11
-37.6877736001
 21
-33.4143711214
 31
0.0
 11
-37.6877481955
 21
-34.5754643933
 31
0.0
 11
-37.6877539468
 21
-35.6388563103
 31
0.0
 11
-37.6878196069
 21
-36.6141760178
 31
0.0
 11
-37.6879420898
 21
-37.5068613452
 31
0.0
 11
-37.6881192271
 21
-38.326095298
 31
0.0
 11
-37.6883389048
 21
-39.0795970191
 31
0.0
 11
-37.6885935522
 21
-39.7707561683
 31
0.0
 11
-37.6889104222
 21
-40.4033799117
 31
0.0
 11
-37.6893083641
 21
-40.9840219316
 31
0.0
 11
-37.6897846308
 21
-41.5192887029
 31
0.0
 11
-37.6903190358
 21
-42.0075635589
 31
0.0
 11
-37.6908757574
 21
-42.4424539594
 31
0.0
 11
-37.6914307814
 21
-42.829231252
 31
0.0
 11
-37.6919878409
 21
-43.186415563
 31
0.0
 11
-37.6925979076
 21
-43.5307968844
 31
0.0
 11
-37.6933651186
 21
-43.8744469785
 31
0.0
 11
-37.6943481021
 21
-44.2193272617
 31
0.0
 11
-37.6955006415
 21
-44.5551439835
 31
0.0
  0
SPLINE
  5
360
100
AcDbEntity
  8
RACCORDO
100
AcDbSpline
 62
253
  6
CONTINUOUS
 70
0
 71
3
 72
37
 73
33
 74
31
 42
0.0000001
 43
0.0000001
 44
0.0000000001
 12
-0.1147654611
 22
32.7485633831
 32
0.0
 13
0.0006184071
 23
32.7487644711
 33
0.0
 40
0.0
 40
0.0
 40
0.0
 40
0.0
 40
0.0095190215
 40
0.0191683051
 40
0.0290734382
 40
0.0393893902
 40
0.0502717891
 40
0.0618033525
 40
0.0741409716
 40
0.0875191153
 40
0.1021348547
 40
0.1180693313
 40
0.135388612
 40
0.1543201915
 40
0.1751834506
 40
0.1981694211
 40
0.2234765045
 40
0.2511795359
 40
0.2813001321
 40
0.3140455803
 40
0.3497048045
 40
0.3885143788
 40
0.4307105345
 40
0.4764930434
 40
0.5260398796
 40
0.5795115861
 40
0.6371528953
 40
0.6992714037
 40
0.7662422786
 40
0.8384049394
 40
0.9161422174
 40
1.0
 40
1.0
 40
1.0
 40
1.0
 10
56.8344777443
 20
-44.5552598753
 30
0.0
 10
56.8341135927
 20
-44.4513484487
 30
0.0
 10
56.8334225276
 20
-44.2421034788
 30
0.0
 10
56.8325358068
 20
-43.9247316424
 30
0.0
 10
56.831798629
 20
-43.598659906
 30
0.0
 10
56.831169276
 20
-43.259126926
 30
0.0
 10
56.8305828516
 20
-42.9018393212
 30
0.0
 10
56.8299971792
 20
-42.5224826549
 30
0.0
 10
56.829436568
 20
-42.1158817354
 30
0.0
 10
56.8289037271
 20
-41.6756131008
 30
0.0
 10
56.8284160698
 20
-41.1960801762
 30
0.0
 10
56.827989225
 20
-40.6735247232
 30
0.0
 10
56.8276329715
 20
-40.103856396
 30
0.0
 10
56.8273403969
 20
-39.480384183
 30
0.0
 10
56.8270655018
 20
-38.7950529273
 30
0.0
 10
56.8267661714
 20
-38.0401250511
 30
0.0
 10
56.8265060506
 20
-37.2105324568
 30
0.0
 10
56.8263663812
 20
-36.3030564389
 30
0.0
 10
56.8263599431
 20
-35.3143813267
 30
0.0
 10
56.8264380708
 20
-34.2388543913
 30
0.0
 10
56.8265118122
 20
-33.0684763551
 30
0.0
 10
56.8264934703
 20
-31.7949319836
 30
0.0
 10
56.8263432472
 20
-30.4108792659
 30
0.0
 10
56.8261393831
 20
-28.909615868
 30
0.0
 10
56.8259149874
 20
-27.2852656863
 30
0.0
 10
56.8257066479
 20
-25.5314618147
 30
0.0
 10
56.8255417714
 20
-23.6404223604
 30
0.0
 10
56.825419652
 20
-21.6020225397
 30
0.0
 10
56.8253419289
 20
-19.4051039433
 30
0.0
 10
56.8253023697
 20
-17.0376868768
 30
0.0
 10
56.8253028692
 20
-14.485928023
 30
0.0
 10
56.8253284321
 20
-12.7219151631
 30
0.0
 10
56.8253457182
 20
-11.8065022395
 30
0.0
 11
56.8344777443
 21
-44.5552598753
 31
0.0
 11
56.8334534745
 21
-44.2435253641
 31
0.0
 11
56.8325713226
 21
-43.9275244813
 31
0.0
 11
56.831830335
 21
-43.6031444556
 31
0.0
 11
56.8311923697
 21
-43.2653103741
 31
0.0
 11
56.8306001043
 21
-42.9089257476
 31
0.0
 11
56.8300208032
 21
-42.5312817385
 31
0.0
 11
56.8294631175
 21
-42.1272403433
 31
0.0
 11
56.8289335698
 21
-41.6891229849
 31
0.0
 11
56.8284459833
 21
-41.2104758277
 31
0.0
 11
56.8280175323
 21
-40.6886415796
 31
0.0
 11
56.8276580785
 21
-40.1214566512
 31
0.0
 11
56.8273569928
 21
-39.5014708842
 31
0.0
 11
56.8270752961
 21
-38.8182249837
 31
0.0
 11
56.8267861246
 21
-38.0654629053
 31
0.0
 11
56.8265353062
 21
-37.2366872291
 31
0.0
 11
56.8263917987
 21
-36.3294471901
 31
0.0
 11
56.8263725993
 21
-35.3430348816
 31
0.0
 11
56.8264341116
 21
-34.2706619125
 31
0.0
 11
56.8264952165
 21
-33.1028663789
 31
0.0
 11
56.8264748957
 21
-31.8319007707
 31
0.0
 11
56.8263414748
 21
-30.4500288118
 31
0.0
 11
56.8261443992
 21
-28.9507082238
 31
0.0
 11
56.8259259402
 21
-27.3281105692
 31
0.0
 11
56.8257209328
 21
-25.57697826
 31
0.0
 11
56.8255542941
 21
-23.6892966065
 31
0.0
 11
56.8254308301
 21
-21.6549922087
 31
0.0
 11
56.8253505033
 21
-19.4617788002
 31
0.0
 11
56.8253097976
 21
-17.0985408192
 31
0.0
 11
56.825308692
 21
-14.5527410106
 31
0.0
 11
56.8253457182
 21
-11.8065022395
 31
0.0
  0
SPLINE
  5
361
100
AcDbEntity
  8
RACCORDO
100
AcDbSpline
 62
253
  6
CONTINUOUS
 70
0
 71
3
 72
31
 73
27
 74
25
 42
0.0000001
 43
0.0000001
 44
0.0000000001
 12
-24.0347072039
 22
-0.0000256507
 32
0.0
 13
-24.0262875683
 23
-0.6361258226
 33
0.0
 40
0.0
 40
0.0
 40
0.0
 40
0.0
 40
0.112356484
 40
0.2112270156
 40
0.29913165
 40
0.377556861
 40
0.4473546703
 40
0.5092606996
 40
0.5641767579
 40
0.6131119221
 40
0.6570090227
 40
0.6966082121
 40
0.7326096126
 40
0.765599266
 40
0.7957471742
 40
0.8231697173
 40
0.848192476
 40
0.8711958522
 40
0.892287158
 40
0.9112998879
 40
0.9283222836
 40
0.9438627458
 40
0.9585379713
 40
0.9726748264
 40
0.9864414296
 40
1.0
 40
1.0
 40
1.0
 40
1.0
 10
-10.930664631
 20
46.4422776698
 30
0.0
 10
-11.8308163625
 20
46.4422767091
 30
0.0
 10
-13.5230751499
 20
46.4393402656
 30
0.0
 10
-15.9195827399
 20
46.4341043392
 30
0.0
 10
-18.0442517341
 20
46.4306985593
 30
0.0
 10
-19.9360048403
 20
46.4301105044
 30
0.0
 10
-21.6194682552
 20
46.4297433119
 30
0.0
 10
-23.1145856916
 20
46.4281423699
 30
0.0
 10
-24.442560555
 20
46.4266865612
 30
0.0
 10
-25.6262564579
 20
46.4261143965
 30
0.0
 10
-26.6872401759
 20
46.4264645103
 30
0.0
 10
-27.6446041748
 20
46.42661304
 30
0.0
 10
-28.5145824198
 20
46.4262175827
 30
0.0
 10
-29.3088404229
 20
46.4251403276
 30
0.0
 10
-30.0343669695
 20
46.4232830322
 30
0.0
 10
-30.6960612118
 20
46.4201305527
 30
0.0
 10
-31.3005100066
 20
46.4160391319
 30
0.0
 10
-31.8542298444
 20
46.4114043828
 30
0.0
 10
-32.3597999408
 20
46.406986041
 30
0.0
 10
-32.8174486307
 20
46.4022943742
 30
0.0
 10
-33.2306202362
 20
46.3973606533
 30
0.0
 10
-33.6090373634
 20
46.3921393226
 30
0.0
 10
-33.9642934393
 20
46.3846164061
 30
0.0
 10
-34.3053138555
 20
46.3762902991
 30
0.0
 10
-34.637377006
 20
46.3676311614
 30
0.0
 10
-34.8562174784
 20
46.3618245368
 30
0.0
 10
-34.9648048489
 20
46.3589495512
 30
0.0
 11
-10.930664631
 21
46.4422776698
 31
0.0
 11
-13.6311177598
 21
46.4389375176
 31
0.0
 11
-16.0074372299
 21
46.4341563651
 31
0.0
 11
-18.1201971063
 21
46.4310577414
 31
0.0
 11
-20.005123856
 21
46.4301198473
 31
0.0
 11
-21.6826936427
 21
46.4294768362
 31
0.0
 11
-23.1705862713
 21
46.4280757084
 31
0.0
 11
-24.4904770156
 21
46.4267766218
 31
0.0
 11
-25.666619247
 21
46.4262629772
 31
0.0
 11
-26.7216731904
 21
46.4264435451
 31
0.0
 11
-27.6734281121
 21
46.4265161944
 31
0.0
 11
-28.5387111166
 21
46.426070894
 31
0.0
 11
-29.3316069755
 21
46.4249432325
 31
0.0
 11
-30.056200376
 21
46.4229483333
 31
0.0
 11
-30.7152856916
 21
46.4198086896
 31
0.0
 11
-31.3166867572
 21
46.415762377
 31
0.0
 11
-31.8695476783
 21
46.4112406827
 31
0.0
 11
-32.3764507565
 21
46.4067061342
 31
0.0
 11
-32.8333918693
 21
46.4019951648
 31
0.0
 11
-33.2424907189
 21
46.3970865504
 31
0.0
 11
-33.6159604576
 21
46.3915714424
 31
0.0
 11
-33.9686008884
 21
46.38433127
 31
0.0
 11
-34.3082768912
 21
46.3761226499
 31
0.0
 11
-34.6390424159
 21
46.3675623584
 31
0.0
 11
-34.9648048489
 21
46.3589495512
 31
0.0
  0
SPLINE
  5
362
100
AcDbEntity
  8
RACCORDO
100
AcDbSpline
 62
253
  6
CONTINUOUS
 70
0
 71
3
 72
25
 73
21
 74
19
 42
0.0000001
 43
0.0000001
 44
0.0000000001
 12
-13.0156997657
 22
0.0000132104
 32
0.0
 13
-13.0145502253
 23
0.1729821474
 33
0.0
 40
0.0
 40
0.0
 40
0.0
 40
0.0
 40
0.1098094302
 40
0.2077127514
 40
0.29568688
 40
0.3750496303
 40
0.4469066216
 40
0.5121128724
 40
0.5714240809
 40
0.6256473714
 40
0.6754142088
 40
0.7207326179
 40
0.7614351142
 40
0.7981626146
 40
0.8324346128
 40
0.8657463814
 40
0.8992826447
 40
0.9331340661
 40
0.9668056444
 40
1.0
 40
1.0
 40
1.0
 40
1.0
 10
-10.930664631
 20
25.8711701317
 30
0.0
 10
-11.4070801558
 20
25.8711706153
 30
0.0
 10
-12.3082557764
 20
25.8712972126
 30
0.0
 10
-13.5911128331
 20
25.871959883
 30
0.0
 10
-14.7418749785
 20
25.8724887474
 30
0.0
 10
-15.7796335078
 20
25.8727430131
 30
0.0
 10
-16.7186120846
 20
25.8725586159
 30
0.0
 10
-17.5705956797
 20
25.8723230974
 30
0.0
 10
-18.3460743132
 20
25.8721789279
 30
0.0
 10
-19.0545680263
 20
25.8720806167
 30
0.0
 10
-19.7023530514
 20
25.8719667342
 30
0.0
 10
-20.2914772213
 20
25.8720984276
 30
0.0
 10
-20.8240292525
 20
25.872450402
 30
0.0
 10
-21.3086555411
 20
25.872955522
 30
0.0
 10
-21.7612164248
 20
25.8736524774
 30
0.0
 10
-22.1999309765
 20
25.8748339145
 30
0.0
 10
-22.6368182198
 20
25.8767734425
 30
0.0
 10
-23.0752625158
 20
25.879434191
 30
0.0
 10
-23.5122186563
 20
25.8829048498
 30
0.0
 10
-23.8022990422
 20
25.8865334719
 30
0.0
 10
-23.946302245
 20
25.8884474822
 30
0.0
 11
-10.930664631
 21
25.8711701317
 31
0.0
 11
-12.359911187
 21
25.8713991888
 31
0.0
 11
-13.6341912953
 21
25.8719693875
 31
0.0
 11
-14.779236034
 21
25.8724628631
 31
0.0
 11
-15.8121977423
 21
25.8726712294
 31
0.0
 11
-16.7474667591
 21
25.8725398651
 31
0.0
 11
-17.5961717162
 21
25.8723294383
 31
0.0
 11
-18.3681485846
 21
25.8721811623
 31
0.0
 11
-19.0739026448
 21
25.87207339
 31
0.0
 11
-19.7216528556
 21
25.8720084707
 31
0.0
 11
-20.3115036458
 21
25.8721482097
 31
0.0
 11
-20.8412750028
 21
25.8724972016
 31
0.0
 11
-21.319308848
 21
25.8730076532
 31
0.0
 11
-21.7653822769
 21
25.8737458255
 31
0.0
 11
-22.1989565637
 21
25.8749570703
 31
0.0
 11
-22.6354502386
 21
25.8768853358
 31
0.0
 11
-23.0760419555
 21
25.8795769121
 31
0.0
 11
-23.514285656
 21
25.8832571535
 31
0.0
 11
-23.946302245
 21
25.8884474822
 31
0.0
  0
SPLINE
  5
363
100
AcDbEntity
  8
RACCORDO
100
AcDbSpline
 62
253
  6
CONTINUOUS
 70
0
 71
3
 72
22
 73
18
 74
16
 42
0.0000001
 43
0.0000001
 44
0.0000000001
 12
-5.8130676505
 22
0.0776998962
 32
0.0
 13
-0.0016983018
 23
-5.8135866639
 33
0.0
 40
0.0
 40
0.0
 40
0.0
 40
0.0
 40
0.0677619654
 40
0.1365404603
 40
0.2047714469
 40
0.2681398869
 40
0.3337833777
 40
0.3986964611
 40
0.4629448425
 40
0.5291877084
 40
0.5958871848
 40
0.6623958465
 40
0.729435466
 40
0.7972709009
 40
0.8656695126
 40
0.9335813815
 40
1.0
 40
1.0
 40
1.0
 40
1.0
 10
-23.946302245
 20
25.8884474822
 30
0.0
 10
-24.0776038748
 20
25.8902025148
 30
0.0
 10
-24.3425737327
 20
25.8788894091
 30
0.0
 10
-24.735701836
 20
25.8200723842
 30
0.0
 10
-25.1123091128
 20
25.7223379984
 30
0.0
 10
-25.4704590821
 20
25.5868204848
 30
0.0
 10
-25.8061547157
 20
25.4161848761
 30
0.0
 10
-26.1227177639
 20
25.2092192536
 30
0.0
 10
-26.417334062
 20
24.9704006623
 30
0.0
 10
-26.6897040475
 20
24.7013640779
 30
0.0
 10
-26.9332377303
 20
24.4001864253
 30
0.0
 10
-27.1435400933
 20
24.0731890648
 30
0.0
 10
-27.318859374
 20
23.7237114356
 30
0.0
 10
-27.4576477481
 20
23.3542795091
 30
0.0
 10
-27.5575393064
 20
22.97074893
 30
0.0
 10
-27.6173903598
 20
22.5818300959
 30
0.0
 10
-27.6309759814
 20
22.3213438231
 30
0.0
 10
-27.631013581
 20
22.1926336916
 30
0.0
 11
-23.946302245
 21
25.8884474822
 31
0.0
 11
-24.3399030139
 21
25.8721006853
 31
0.0
 11
-24.7353596885
 21
25.8129919125
 31
0.0
 11
-25.1191946085
 21
25.7129155364
 31
0.0
 11
-25.4636910687
 21
25.5823811488
 31
0.0
 11
-25.8039194252
 21
25.4095180557
 31
0.0
 11
-26.1199712063
 21
25.2033013859
 31
0.0
 11
-26.4103261156
 21
24.9683409677
 31
0.0
 11
-26.6837844874
 21
24.6971782902
 31
0.0
 11
-26.9277661146
 21
24.3957927119
 31
0.0
 11
-27.1370324993
 21
24.070663803
 31
0.0
 11
-27.3119084431
 21
23.7223590775
 31
0.0
 11
-27.4507289169
 21
23.3532325926
 31
0.0
 11
-27.5511161081
 21
22.9684716351
 31
0.0
 11
-27.6111674057
 21
22.5782537424
 31
0.0
 11
-27.631013581
 21
22.1926336916
 31
0.0
  0
SPLINE
  5
364
100
AcDbEntity
  8
RACCORDO
100
AcDbSpline
 62
253
  6
CONTINUOUS
 70
0
 71
3
 72
13
 73
9
 74
7
 42
0.0000001
 43
0.0000001
 44
0.0000000001
 12
-0.0010789626
 22
-10.4979363889
 32
0.0
 13
0.0001231652
 23
-10.4979364436
 33
0.0
 40
0.0
 40
0.0
 40
0.0
 40
0.0
 40
0.2086102141
 40
0.3979698751
 40
0.5695560357
 40
0.72585965
 40
0.8688036278
 40
1.0
 40
1.0
 40
1.0
 40
1.0
 10
-27.631013581
 20
22.1926336916
 30
0.0
 10
-27.6310886086
 20
21.4626414391
 30
0.0
 10
-27.6393109133
 20
20.0700292811
 30
0.0
 10
-27.6324153576
 20
18.0769710852
 30
0.0
 10
-27.6221400669
 20
16.2669858186
 30
0.0
 10
-27.6164999818
 20
14.6193980449
 30
0.0
 10
-27.6156910103
 20
13.1131397231
 30
0.0
 10
-27.6156466158
 20
12.1538371839
 30
0.0
 10
-27.6156412295
 20
11.6947401247
 30
0.0
 11
-27.631013581
 21
22.1926336916
 31
0.0
 11
-27.636125496
 21
20.0026628887
 31
0.0
 11
-27.631429445
 21
18.0147827488
 31
0.0
 11
-27.6225446022
 21
16.2135040529
 31
0.0
 11
-27.6171644826
 21
14.5726474642
 31
0.0
 11
-27.6157969415
 21
13.0720312934
 31
0.0
 11
-27.6156412295
 21
11.6947401247
 31
0.0
  0
SPLINE
  5
365
100
AcDbEntity
  8
RACCORDO
100
AcDbSpline
 62
253
  6
CONTINUOUS
 70
0
 71
3
 72
37
 73
33
 74
31
 42
0.0000001
 43
0.0000001
 44
0.0000000001
 12
-1.3951131707
 22
-32.7931249463
 32
0.0
 13
0.0000275614
 23
-32.8227875797
 33
0.0
 40
0.0
 40
0.0
 40
0.0
 40
0.0
 40
0.010439854
 40
0.0210596831
 40
0.0316453957
 40
0.0421265699
 40
0.0527613159
 40
0.0641784964
 40
0.07692826
 40
0.0912623779
 40
0.1069904673
 40
0.123984214
 40
0.1423805263
 40
0.1623599513
 40
0.1840369328
 40
0.2074637095
 40
0.2327463318
 40
0.2601686556
 40
0.289966662
 40
0.32233748
 40
0.357621486
 40
0.3961666894
 40
0.4381741394
 40
0.4836743486
 40
0.5327569687
 40
0.5856161298
 40
0.6425380672
 40
0.7038821943
 40
0.7699478341
 40
0.8410478598
 40
0.9175620352
 40
1.0
 40
1.0
 40
1.0
 40
1.0
 10
-36.8531282259
 20
44.5132456704
 30
0.0
 10
-36.8579831518
 20
44.3991271912
 30
0.0
 10
-36.8688001323
 20
44.1689558258
 30
0.0
 10
-36.891792216
 20
43.8234793345
 30
0.0
 10
-36.9150800677
 20
43.4775863398
 30
0.0
 10
-36.9355249145
 20
43.1313210582
 30
0.0
 10
-36.948133921
 20
42.7755873638
 30
0.0
 10
-36.9629677864
 20
42.3951174205
 30
0.0
 10
-36.9785088724
 20
41.9741653232
 30
0.0
 10
-36.9949375718
 20
41.5060506464
 30
0.0
 10
-37.0110243534
 20
40.9914642067
 30
0.0
 10
-37.0256979961
 20
40.4323742809
 30
0.0
 10
-37.0382336701
 20
39.8267062258
 30
0.0
 10
-37.0474282445
 20
39.1697342646
 30
0.0
 10
-37.0545105148
 20
38.4576986738
 30
0.0
 10
-37.0615195721
 20
37.6876380048
 30
0.0
 10
-37.0673567217
 20
36.8547057368
 30
0.0
 10
-37.0713985354
 20
35.9520552184
 30
0.0
 10
-37.0742037235
 20
34.9718481749
 30
0.0
 10
-37.07474541
 20
33.9056230837
 30
0.0
 10
-37.0740701588
 20
32.7436963883
 30
0.0
 10
-37.0733927791
 20
31.4763357317
 30
0.0
 10
-37.0743415672
 20
30.0972002966
 30
0.0
 10
-37.0765982973
 20
28.6027773632
 30
0.0
 10
-37.0797234722
 20
26.9896279898
 30
0.0
 10
-37.0833825546
 20
25.251515146
 30
0.0
 10
-37.0869700861
 20
23.37924959
 30
0.0
 10
-37.0902088971
 20
21.362492005
 30
0.0
 10
-37.0926498952
 20
19.1906117223
 30
0.0
 10
-37.094498166
 20
16.8527564112
 30
0.0
 10
-37.0956880743
 20
14.3357721888
 30
0.0
 10
-37.0959300228
 20
12.5966880608
 30
0.0
 10
-37.0959292654
 20
11.6947401247
 30
0.0
 11
-36.8531282259
 21
44.5132456704
 31
0.0
 11
-36.869809616
 21
44.1709868361
 31
0.0
 11
-36.8918616077
 21
43.8231126878
 31
0.0
 11
-36.9146780386
 21
43.4764100521
 31
0.0
 11
-36.9340870696
 21
43.1329366444
 31
0.0
 11
-36.9480289711
 21
42.7841531753
 31
0.0
 11
-36.9622779598
 21
42.4096804782
 31
0.0
 11
-36.9777498273
 21
41.991483801
 31
0.0
 11
-36.9941164383
 21
41.5212828494
 31
0.0
 11
-37.0101773021
 21
41.0052930093
 31
0.0
 11
-37.0248004479
 21
40.4477025914
 31
0.0
 11
-37.0372289119
 21
39.8440122595
 31
0.0
 11
-37.0467439237
 21
39.1883008693
 31
0.0
 11
-37.0542238522
 21
38.4768412312
 31
0.0
 11
-37.0610766604
 21
37.7079396519
 31
0.0
 11
-37.0668569396
 21
36.8781136418
 31
0.0
 11
-37.0710498161
 21
35.9780462996
 31
0.0
 11
-37.0737553575
 21
34.9999964065
 31
0.0
 11
-37.074544645
 21
33.9374962183
 31
0.0
 11
-37.0740995042
 21
32.7793768683
 31
0.0
 11
-37.0736597101
 21
31.5142159212
 31
0.0
 11
-37.074496665
 21
30.135414569
 31
0.0
 11
-37.0766414171
 21
28.6419724074
 31
0.0
 11
-37.0796868341
 21
27.0309468716
 31
0.0
 11
-37.0832363316
 21
25.2959654872
 31
0.0
 11
-37.0867843984
 21
23.4276321961
 31
0.0
 11
-37.0899701693
 21
21.4141494625
 31
0.0
 11
-37.0924719437
 21
19.2456924447
 31
0.0
 11
-37.0943322484
 21
16.911992144
 31
0.0
 11
-37.0955229929
 21
14.4005839024
 31
0.0
 11
-37.0959292654
 21
11.6947401247
 31
0.0
  0
SPLINE
  5
366
100
AcDbEntity
  8
RACCORDO
100
AcDbSpline
 62
253
  6
CONTINUOUS
 70
0
 71
3
 72
16
 73
12
 74
10
 42
0.0000001
 43
0.0000001
 44
0.0000000001
 12
-2.8971320321
 22
-0.076048198
 32
0.0
 13
-0.123121161
 23
-2.8955135157
 33
0.0
 40
0.0
 40
0.0
 40
0.0
 40
0.0
 40
0.1536247571
 40
0.292865995
 40
0.4193535461
 40
0.5336739728
 40
0.6365041467
 40
0.7311796738
 40
0.8218469495
 40
0.9112092198
 40
1.0
 40
1.0
 40
1.0
 40
1.0
 10
-34.9648048489
 20
46.3589495512
 30
0.0
 10
-35.1131619171
 20
46.3550552559
 30
0.0
 10
-35.3960643364
 20
46.3130267654
 30
0.0
 10
-35.777310388
 20
46.1685060324
 30
0.0
 10
-36.0904299367
 20
45.9725754091
 30
0.0
 10
-36.3371571428
 20
45.7481015323
 30
0.0
 10
-36.5252125872
 20
45.5112694447
 30
0.0
 10
-36.6650345246
 20
45.2694895081
 30
0.0
 10
-36.7653620163
 20
45.0229168162
 30
0.0
 10
-36.8299296434
 20
44.770595921
 30
0.0
 10
-36.8494842179
 20
44.5989439718
 30
0.0
 10
-36.8531282259
 20
44.5132456704
 30
0.0
 11
-34.9648048489
 21
46.3589495512
 31
0.0
 11
-35.4053771798
 21
46.2947554063
 31
0.0
 11
-35.7826861344
 21
46.1516406173
 31
0.0
 11
-36.0934179785
 21
45.957154926
 31
0.0
 11
-36.3384912899
 21
45.734199767
 31
0.0
 11
-36.5238196131
 21
45.5008192247
 31
0.0
 11
-36.6611768008
 21
45.2632934883
 31
0.0
 11
-36.7601294708
 21
45.0198718316
 31
0.0
 11
-36.824220633
 21
44.7689440279
 31
0.0
 11
-36.8531282259
 21
44.5132456704
 31
0.0
  0
SPLINE
  5
367
100
AcDbEntity
  8
RACCORDO
100
AcDbSpline
 62
253
  6
CONTINUOUS
 70
0
 71
3
 72
36
 73
32
 74
30
 42
0.0000001
 43
0.0000001
 44
0.0000000001
 12
-0.0000278244
 22
-32.8227867506
 32
0.0
 13
1.3938959245
 23
-32.793175879
 33
0.0
 40
0.0
 40
0.0
 40
0.0
 40
0.0
 40
0.0855833816
 40
0.1647874243
 40
0.2381295845
 40
0.3060617772
 40
0.3689799507
 40
0.4272399986
 40
0.4811972051
 40
0.5311320309
 40
0.5772488348
 40
0.6196247933
 40
0.6583472619
 40
0.6937238601
 40
0.7261481683
 40
0.7558983527
 40
0.7831362207
 40
0.808138246
 40
0.8311350498
 40
0.8522460357
 40
0.8716133445
 40
0.8894185859
 40
0.9058496399
 40
0.9208469614
 40
0.9342035397
 40
0.9460763386
 40
0.9570383371
 40
0.9677435547
 40
0.978559152
 40
0.9894596232
 40
1.0
 40
1.0
 40
1.0
 40
1.0
 10
-37.0959292654
 20
-11.8052598753
 30
0.0
 10
-37.0959300592
 20
-12.7416215701
 30
0.0
 10
-37.0956695365
 20
-14.5445490857
 30
0.0
 10
-37.094385568
 20
-17.1499076762
 30
0.0
 10
-37.0924105521
 20
-19.5621453586
 30
0.0
 10
-37.0897735433
 20
-21.7961998004
 30
0.0
 10
-37.0862859596
 20
-23.8652405219
 30
0.0
 10
-37.082530024
 20
-25.7813811118
 30
0.0
 10
-37.0787700937
 20
-27.5554715316
 30
0.0
 10
-37.0757970106
 20
-29.1967048458
 30
0.0
 10
-37.0737472016
 20
-30.7112300898
 30
0.0
 10
-37.0735967352
 20
-32.1030832123
 30
0.0
 10
-37.0743808991
 20
-33.3774278239
 30
0.0
 10
-37.074805324
 20
-34.542892815
 30
0.0
 10
-37.0729332404
 20
-35.6101915231
 30
0.0
 10
-37.0693365963
 20
-36.5884398991
 30
0.0
 10
-37.0639398834
 20
-37.4854721325
 30
0.0
 10
-37.0570748927
 20
-38.308603594
 30
0.0
 10
-37.049565947
 20
-39.0646914475
 30
0.0
 10
-37.0412763058
 20
-39.759121659
 30
0.0
 10
-37.0290769422
 20
-40.3966863304
 30
0.0
 10
-37.0144176226
 20
-40.9829789899
 30
0.0
 10
-36.9981145165
 20
-41.5213961327
 30
0.0
 10
-36.9811709499
 20
-42.0110924716
 30
0.0
 10
-36.9650580933
 20
-42.4509162878
 30
0.0
 10
-36.9495924839
 20
-42.8465782454
 30
0.0
 10
-36.9368167843
 20
-43.213327968
 30
0.0
 10
-36.9164545892
 20
-43.5681598664
 30
0.0
 10
-36.892579535
 20
-43.922069564
 30
0.0
 10
-36.8690864843
 20
-44.274212776
 30
0.0
 10
-36.8580256219
 20
-44.5085479445
 30
0.0
 10
-36.8531282259
 20
-44.6237654209
 30
0.0
 11
-37.0959292654
 21
-11.8052598753
 31
0.0
 11
-37.0954900619
 21
-14.6143449254
 31
0.0
 11
-37.0942073149
 21
-17.2140420113
 31
0.0
 11
-37.0922114467
 21
-19.621335268
 31
0.0
 11
-37.0895138409
 21
-21.8510575097
 31
0.0
 11
-37.0861019235
 21
-23.9162044828
 31
0.0
 11
-37.0823850619
 21
-25.8284579997
 31
0.0
 11
-37.0787712141
 21
-27.5994801939
 31
0.0
 11
-37.0758514397
 21
-29.238477735
 31
0.0
 11
-37.0740192604
 21
-30.7521586437
 31
0.0
 11
-37.0737676771
 21
-32.1430556699
 31
0.0
 11
-37.0743478154
 21
-33.4140348667
 31
0.0
 11
-37.0743893084
 21
-34.5751934044
 31
0.0
 11
-37.0725262393
 21
-35.6394479271
 31
0.0
 11
-37.0688380068
 21
-36.6159249209
 31
0.0
 11
-37.063431654
 21
-37.509931308
 31
0.0
 11
-37.0566652281
 21
-38.3305395569
 31
0.0
 11
-37.0490979351
 21
-39.0853208107
 31
0.0
 11
-37.0401819324
 21
-39.7781848343
 31
0.0
 11
-37.0281025151
 21
-40.4137591028
 31
0.0
 11
-37.0135078735
 21
-40.9979944797
 31
0.0
 11
-36.9972343426
 21
-41.5370618821
 31
0.0
 11
-36.9803739457
 21
-42.0290269388
 31
0.0
 11
-36.96427442
 21
-42.4671313454
 31
0.0
 11
-36.9494898283
 21
-42.856549138
 31
0.0
 11
-36.9353549387
 21
-43.2160747243
 31
0.0
 11
-36.9159404643
 21
-43.5669130362
 31
0.0
 11
-36.8926855576
 21
-43.9211485779
 31
0.0
 11
-36.8700015309
 21
-44.2782125974
 31
0.0
 11
-36.8531282259
 21
-44.6237654209
 31
0.0
  0
SPLINE
  5
368
100
AcDbEntity
  8
RACCORDO
100
AcDbSpline
 62
253
  6
CONTINUOUS
 70
0
 71
3
 72
18
 73
14
 74
12
 42
0.0000001
 43
0.0000001
 44
0.0000000001
 12
-0.0001307796
 22
-10.4979412982
 32
0.0
 13
0.0035605678
 23
-10.4979406952
 33
0.0
 40
0.0
 40
0.0
 40
0.0
 40
0.0
 40
0.1314661978
 40
0.2619637849
 40
0.3792769219
 40
0.4842279766
 40
0.579412891
 40
0.6658765583
 40
0.7447459825
 40
0.8169284461
 40
0.883116972
 40
0.9439505204
 40
1.0
 40
1.0
 40
1.0
 40
1.0
 10
-27.6156411213
 20
-11.8052598753
 30
0.0
 10
-27.6156468523
 20
-12.265301351
 30
0.0
 10
-27.6156746032
 20
-13.1819947769
 30
0.0
 10
-27.6164229738
 20
-14.5092039085
 30
0.0
 10
-27.6196591313
 20
-15.7436250452
 30
0.0
 10
-27.6250506263
 20
-16.8544663665
 30
0.0
 10
-27.6303019234
 20
-17.8573545583
 30
0.0
 10
-27.6343339378
 20
-18.7689802521
 30
0.0
 10
-27.636202304
 20
-19.6001204805
 30
0.0
 10
-27.6361330379
 20
-20.3603132112
 30
0.0
 10
-27.6349287074
 20
-21.057392065
 30
0.0
 10
-27.6321994699
 20
-21.6980110475
 30
0.0
 10
-27.6310801572
 20
-22.1070207056
 30
0.0
 10
-27.6310136345
 20
-22.3031554099
 30
0.0
 11
-27.6156411213
 21
-11.8052598753
 31
0.0
 11
-27.6157978976
 21
-13.1853842938
 31
0.0
 11
-27.6169438176
 21
-14.5553398232
 31
0.0
 11
-27.6202561276
 21
-15.7868817952
 31
0.0
 11
-27.6252901835
 21
-16.8886403056
 31
0.0
 11
-27.630319777
 21
-17.8878732915
 31
0.0
 11
-27.6341073391
 21
-18.7955558938
 31
0.0
 11
-27.6359178379
 21
-19.6235204998
 31
0.0
 11
-27.6359154843
 21
-20.3812877655
 31
0.0
 11
-27.6345906756
 21
-21.0761297618
 31
0.0
 11
-27.6322969593
 21
-21.7147526626
 31
0.0
 11
-27.6310136345
 21
-22.3031554099
 31
0.0
  0
SPLINE
  5
369
100
AcDbEntity
  8
RACCORDO
100
AcDbSpline
 62
253
  6
CONTINUOUS
 70
0
 71
3
 72
21
 73
17
 74
15
 42
0.0000001
 43
0.0000001
 44
0.0000000001
 12
0.0040867438
 22
-5.8130353554
 32
0.0
 13
5.8125333864
 23
0.0765008262
 33
0.0
 40
0.0
 40
0.0
 40
0.0
 40
0.0
 40
0.0885347816
 40
0.1681982364
 40
0.2390545024
 40
0.3030607771
 40
0.3662809174
 40
0.4306839838
 40
0.495218405
 40
0.5577762255
 40
0.6193016873
 40
0.6852887807
 40
0.7599871261
 40
0.8413237905
 40
0.9231553586
 40
1.0
 40
1.0
 40
1.0
 40
1.0
 10
-27.6310136345
 20
-22.3031554099
 30
0.0
 10
-27.6308930282
 20
-22.4747073484
 30
0.0
 10
-27.6085654932
 20
-22.8010294102
 30
0.0
 10
-27.5187496591
 20
-23.2565235197
 30
0.0
 10
-27.3919061446
 20
-23.6532333071
 30
0.0
 10
-27.2379576997
 20
-24.005529147
 30
0.0
 10
-27.0549953011
 20
-24.3293311394
 30
0.0
 10
-26.8401802729
 20
-24.6343404287
 30
0.0
 10
-26.5932076572
 20
-24.9122360505
 30
0.0
 10
-26.3245862676
 20
-25.1608475411
 30
0.0
 10
-26.031143835
 20
-25.384350521
 30
0.0
 10
-25.6961728173
 20
-25.5890994664
 30
0.0
 10
-25.3041069267
 20
-25.7689489222
 30
0.0
 10
-24.8625711754
 20
-25.9058758085
 30
0.0
 10
-24.4031636927
 20
-25.9854317887
 30
0.0
 10
-24.0952086932
 20
-26.000926885
 30
0.0
 10
-23.9463213453
 20
-25.9989673255
 30
0.0
 11
-27.6310136345
 21
-22.3031554099
 31
0.0
 11
-27.5960650493
 21
-22.81662336
 31
0.0
 11
-27.5063521425
 21
-23.2709368948
 31
0.0
 11
-27.3809345894
 21
-23.6632682297
 31
0.0
 11
-27.2316285269
 21
-24.0040678805
 31
0.0
 11
-27.0510156937
 21
-24.3241241111
 31
0.0
 11
-26.8348006782
 21
-24.6297537899
 31
0.0
 11
-26.5862525582
 21
-24.9107423581
 31
0.0
 11
-26.3193406598
 21
-25.157724188
 31
0.0
 11
-26.0346868963
 21
-25.3742550059
 31
0.0
 11
-25.707219121
 21
-25.5740113994
 31
0.0
 11
-25.3125986526
 21
-25.7551891237
 31
0.0
 11
-24.8611438045
 21
-25.895690634
 31
0.0
 11
-24.3924922587
 21
-25.9772174696
 31
0.0
 11
-23.9463213453
 21
-25.9989673255
 31
0.0
  0
SPLINE
  5
36A
100
AcDbEntity
  8
RACCORDO
100
AcDbSpline
 62
253
  6
CONTINUOUS
 70
0
 71
3
 72
26
 73
22
 74
20
 42
0.0000001
 43
0.0000001
 44
0.0000000001
 12
13.0145798421
 22
0.1721912595
 32
0.0
 13
13.0157188928
 23
-0.0000019469
 33
0.0
 40
0.0
 40
0.0
 40
0.0
 40
0.0
 40
0.0322000392
 40
0.0649954827
 40
0.0979866779
 40
0.1306854017
 40
0.1632025316
 40
0.1964794516
 40
0.2319242208
 40
0.2708792566
 40
0.3141961063
 40
0.3616183148
 40
0.4128357668
 40
0.4679770735
 40
0.5274078948
 40
0.5915000958
 40
0.6606548685
 40
0.7353832664
 40
0.8161143447
 40
0.90363419
 40
1.0
 40
1.0
 40
1.0
 40
1.0
 10
-23.9463213453
 20
-25.9989673255
 30
0.0
 10
-23.8066313515
 20
-25.9971191371
 30
0.0
 10
-23.5246654449
 20
-25.9935619947
 30
0.0
 10
-23.0995559826
 20
-25.9901301635
 30
0.0
 10
-22.6722781893
 20
-25.9874900288
 30
0.0
 10
-22.2462040222
 20
-25.985526076
 30
0.0
 10
-21.8188875418
 20
-25.9842975273
 30
0.0
 10
-21.3796560979
 20
-25.9835661152
 30
0.0
 10
-20.9124930447
 20
-25.9830499451
 30
0.0
 10
-20.4017708734
 20
-25.9826781289
 30
0.0
 10
-19.8390835941
 20
-25.9824886987
 30
0.0
 10
-19.2231949133
 20
-25.982575069
 30
0.0
 10
-18.5560049758
 20
-25.9826655776
 30
0.0
 10
-17.8367147957
 20
-25.9827911661
 30
0.0
 10
-17.0615665909
 20
-25.9829764595
 30
0.0
 10
-16.225619947
 20
-25.9832039084
 30
0.0
 10
-15.3233036036
 20
-25.983189569
 30
0.0
 10
-14.3487983472
 20
-25.9828407623
 30
0.0
 10
-13.2946149642
 20
-25.982319937
 30
0.0
 10
-12.1465560756
 20
-25.9817792142
 30
0.0
 10
-11.3487547291
 20
-25.9816901358
 30
0.0
 10
-10.930664631
 20
-25.9816901983
 30
0.0
 11
-23.9463213453
 21
-25.9989673255
 31
0.0
 11
-23.5272452137
 21
-25.9939089352
 31
0.0
 11
-23.1004044406
 21
-25.9902713433
 31
0.0
 11
-22.671008658
 21
-25.987595012
 31
0.0
 11
-22.2454157243
 21
-25.9856458093
 31
0.0
 11
-21.8221837613
 21
-25.9843913581
 31
0.0
 11
-21.3890614097
 21
-25.983620948
 31
0.0
 11
-20.9277225582
 21
-25.9830943835
 31
0.0
 11
-20.4206948988
 21
-25.982723225
 31
0.0
 11
-19.8568949902
 21
-25.9825374793
 31
0.0
 11
-19.2396608562
 21
-25.9825723068
 31
0.0
 11
-18.5730289054
 21
-25.9826674355
 31
0.0
 11
-17.8553251697
 21
-25.9827953365
 31
0.0
 11
-17.0817903265
 21
-25.9829757244
 31
0.0
 11
-16.2475842757
 21
-25.9831594147
 31
0.0
 11
-15.3474851946
 21
-25.9831406292
 31
0.0
 11
-14.3748414236
 21
-25.9828288694
 31
0.0
 11
-13.3240685178
 21
-25.9823383654
 31
0.0
 11
-12.1849349135
 21
-25.9818622299
 31
0.0
 11
-10.930664631
 21
-25.9816901983
 31
0.0
  0
SPLINE
  5
36B
100
AcDbEntity
  8
RACCORDO
100
AcDbSpline
 62
253
  6
CONTINUOUS
 70
0
 71
3
 72
32
 73
28
 74
26
 42
0.0000001
 43
0.0000001
 44
0.0000000001
 12
24.0262876215
 22
-0.6361268076
 32
0.0
 13
24.0347072831
 23
-0.0000188849
 33
0.0
 40
0.0
 40
0.0
 40
0.0
 40
0.0
 40
0.0133679929
 40
0.0269390674
 40
0.0408762273
 40
0.0553430277
 40
0.0706320367
 40
0.0872903586
 40
0.1057857947
 40
0.1261962125
 40
0.1483095451
 40
0.1721898458
 40
0.1982756065
 40
0.2269688128
 40
0.2583244159
 40
0.2922839235
 40
0.3291035972
 40
0.3692409294
 40
0.413158559
 40
0.4616301663
 40
0.5157915726
 40
0.5767463369
 40
0.6452692275
 40
0.7217243167
 40
0.8056521513
 40
0.8977043298
 40
1.0
 40
1.0
 40
1.0
 40
1.0
 10
-34.9648048489
 20
-46.4694693017
 30
0.0
 10
-34.8577437683
 20
-46.4723038813
 30
0.0
 10
-34.6419955065
 20
-46.4780278293
 30
0.0
 10
-34.3146241164
 20
-46.4865709253
 30
0.0
 10
-33.9784389843
 20
-46.494800667
 30
0.0
 10
-33.6284679335
 20
-46.5022978094
 30
0.0
 10
-33.2566531834
 20
-46.507560957
 30
0.0
 10
-32.8525568687
 20
-46.5124125788
 30
0.0
 10
-32.4074244346
 20
-46.517048782
 30
0.0
 10
-31.9185841915
 20
-46.5213848487
 30
0.0
 10
-31.3866022644
 20
-46.5258520065
 30
0.0
 10
-30.8091476504
 20
-46.5299727416
 30
0.0
 10
-30.178971325
 20
-46.5332116673
 30
0.0
 10
-29.4889010854
 20
-46.5353185564
 30
0.0
 10
-28.7357477305
 20
-46.5364948486
 30
0.0
 10
-27.917487982
 20
-46.5370783268
 30
0.0
 10
-27.0288726219
 20
-46.5370725455
 30
0.0
 10
-26.060477193
 20
-46.5367555019
 30
0.0
 10
-24.998731342
 20
-46.5368127713
 30
0.0
 10
-23.824631099
 20
-46.5378391327
 30
0.0
 10
-22.5140372464
 20
-46.5393879536
 30
0.0
 10
-21.0428005195
 20
-46.540485988
 30
0.0
 10
-19.3929561265
 20
-46.5406875859
 30
0.0
 10
-17.5590614426
 20
-46.5417999654
 30
0.0
 10
-15.5366630917
 20
-46.5454607037
 30
0.0
 10
-13.3072439369
 20
-46.5502991437
 30
0.0
 10
-11.7502134605
 20
-46.5527967763
 30
0.0
 10
-10.930664631
 20
-46.5527974202
 30
0.0
 11
-34.9648048489
 21
-46.4694693017
 31
0.0
 11
-34.6436213045
 21
-46.4779616043
 31
0.0
 11
-34.3175538736
 21
-46.4864078018
 31
0.0
 11
-33.982676788
 21
-46.4945294427
 31
0.0
 11
-33.6350463998
 21
-46.5017474372
 31
0.0
 11
-33.2676211921
 21
-46.5072797263
 31
0.0
 11
-32.867272746
 21
-46.5121352999
 31
0.0
 11
-32.4227646214
 21
-46.5167801644
 31
0.0
 11
-31.9322263567
 21
-46.5212267258
 31
0.0
 11
-31.4007570854
 21
-46.5256257246
 31
0.0
 11
-30.8268152552
 21
-46.5296641298
 31
0.0
 11
-30.1998599659
 21
-46.5328966517
 31
0.0
 11
-29.5102306375
 21
-46.5350896226
 31
0.0
 11
-28.7566089664
 21
-46.5363599108
 31
0.0
 11
-27.9404023671
 21
-46.5369680554
 31
0.0
 11
-27.0554522917
 21
-46.537027431
 31
0.0
 11
-26.0907632824
 21
-46.5368239706
 31
0.0
 11
-25.0352159169
 21
-46.5369479892
 31
0.0
 11
-23.8702153764
 21
-46.5378556993
 31
0.0
 11
-22.5684625608
 21
-46.5392347387
 31
0.0
 11
-21.1034330294
 21
-46.5402972459
 31
0.0
 11
-19.4565054902
 21
-46.5408055013
 31
0.0
 11
-17.6189302665
 21
-46.5421150729
 31
0.0
 11
-15.6017521
 21
-46.5454583843
 31
0.0
 11
-13.3893094396
 21
-46.5499232732
 31
0.0
 11
-10.930664631
 21
-46.5527974202
 31
0.0
  0
SPLINE
  5
36C
100
AcDbEntity
  8
RACCORDO
100
AcDbSpline
 62
253
  6
CONTINUOUS
 70
0
 71
3
 72
13
 73
9
 74
7
 42
0.0000001
 43
0.0000001
 44
0.0000000001
 12
0.1232802837
 22
-2.8911775751
 32
0.0
 13
2.8928792738
 23
-0.0731799561
 33
0.0
 40
0.0
 40
0.0
 40
0.0
 40
0.0
 40
0.1302897672
 40
0.2734777406
 40
0.4305937168
 40
0.602506106
 40
0.7916656045
 40
1.0
 40
1.0
 40
1.0
 40
1.0
 10
-36.8531282259
 20
-44.6237654209
 30
0.0
 10
-36.8477741727
 20
-44.7493290386
 30
0.0
 10
-36.8090823443
 20
-45.0124077608
 30
0.0
 10
-36.663917864
 20
-45.4048352875
 30
0.0
 10
-36.413087466
 20
-45.7900345687
 30
0.0
 10
-36.0426514246
 20
-46.1339118006
 30
0.0
 10
-35.5498367178
 20
-46.3909984649
 30
0.0
 10
-35.1657002672
 20
-46.4643873344
 30
0.0
 10
-34.9648048489
 20
-46.4694693017
 30
0.0
 11
-36.8531282259
 21
-44.6237654209
 31
0.0
 11
-36.7987629967
 21
-44.9968584571
 31
0.0
 11
-36.6553648548
 21
-45.385612304
 31
0.0
 11
-36.4071654914
 21
-45.7665525596
 31
0.0
 11
-36.0426524927
 21
-46.1051046301
 31
0.0
 11
-35.5573489884
 21
-46.3583180449
 31
0.0
 11
-34.9648048489
 21
-46.4694693017
 31
0.0
  0
SPLINE
  5
36D
100
AcDbEntity
  8
RACCORDO
100
AcDbSpline
 62
253
  6
CONTINUOUS
 70
0
 71
3
 72
34
 73
30
 74
28
 42
0.0000001
 43
0.0000001
 44
0.0000000001
 12
24.034373862
 22
-0.0010566761
 32
0.0
 13
24.0245654765
 23
0.6865724417
 33
0.0
 40
0.0
 40
0.0
 40
0.0
 40
0.0
 40
0.0546015019
 40
0.1143541861
 40
0.1754024969
 40
0.2341124227
 40
0.2876963818
 40
0.3362509519
 40
0.3817176381
 40
0.4260150375
 40
0.4714478316
 40
0.5202813816
 40
0.572839729
 40
0.624621857
 40
0.670894817
 40
0.7116120474
 40
0.7481620674
 40
0.7810284392
 40
0.8107648886
 40
0.8377697178
 40
0.8623387365
 40
0.8847203125
 40
0.9052191727
 40
0.9241196842
 40
0.9413608426
 40
0.9568703617
 40
0.9712216929
 40
0.9853474644
 40
1.0
 40
1.0
 40
1.0
 40
1.0
 10
30.0693353689
 20
-46.5527982684
 30
0.0
 10
30.5067730054
 20
-46.5528175005
 30
0.0
 10
31.4229167305
 20
-46.5515807609
 30
0.0
 10
32.8281412299
 20
-46.5477543534
 30
0.0
 10
34.2662794144
 20
-46.5435915563
 30
0.0
 10
35.654998708
 20
-46.5400689899
 30
0.0
 10
36.9436276765
 20
-46.5378270949
 30
0.0
 10
38.1261607322
 20
-46.5372542678
 30
0.0
 10
39.2342948058
 20
-46.5374255683
 30
0.0
 10
40.3174189323
 20
-46.5375850451
 30
0.0
 10
41.4275165227
 20
-46.5368867729
 30
0.0
 10
42.6037947917
 20
-46.5349007406
 30
0.0
 10
43.8309398493
 20
-46.5325739629
 30
0.0
 10
45.0375718003
 20
-46.5308290629
 30
0.0
 10
46.1493413108
 20
-46.5306487036
 30
0.0
 10
47.139076358
 20
-46.5328786352
 30
0.0
 10
48.0214054518
 20
-46.5346572902
 30
0.0
 10
48.8157647865
 20
-46.5350168386
 30
0.0
 10
49.5336520869
 20
-46.5336181843
 30
0.0
 10
50.1850604062
 20
-46.5307240168
 30
0.0
 10
50.7775373748
 20
-46.5266125444
 30
0.0
 10
51.3178851845
 20
-46.5218516622
 30
0.0
 10
51.8128110733
 20
-46.5163897923
 30
0.0
 10
52.2665434246
 20
-46.5102901533
 30
0.0
 10
52.6802961821
 20
-46.5038780283
 30
0.0
 10
53.0575747352
 20
-46.4961986942
 30
0.0
 10
53.4098845927
 20
-46.4883648859
 30
0.0
 10
53.7553142787
 20
-46.4799600001
 30
0.0
 10
53.985779785
 20
-46.4734804029
 30
0.0
 10
54.1031200518
 20
-46.4701270605
 30
0.0
 11
30.0693353689
 21
-46.5527982684
 31
0.0
 11
31.3816474801
 21
-46.5513496898
 31
0.0
 11
32.8177613021
 21
-46.5477419885
 31
0.0
 11
34.2850134585
 21
-46.5436265888
 31
0.0
 11
35.6960655086
 21
-46.5401607648
 31
0.0
 11
36.9839206683
 21
-46.5380397139
 31
0.0
 11
38.1508991692
 21
-46.5373706476
 31
0.0
 11
39.2436625028
 21
-46.5374256609
 31
0.0
 11
40.3083227612
 21
-46.5374477071
 31
0.0
 11
41.4002712775
 21
-46.5367180674
 31
0.0
 11
42.5739536877
 21
-46.5349119906
 31
0.0
 11
43.8371586473
 21
-46.5326576165
 31
0.0
 11
45.0817086313
 21
-46.5310465052
 31
0.0
 11
46.1938502497
 21
-46.5311177643
 31
0.0
 11
47.1724617422
 21
-46.5329130809
 31
0.0
 11
48.0509171972
 21
-46.5344757637
 31
0.0
 11
48.8408398347
 21
-46.534696295
 31
0.0
 11
49.5555353427
 21
-46.5332640939
 31
0.0
 11
50.2045729823
 21
-46.5303545163
 31
0.0
 11
50.7950600324
 21
-46.526298205
 31
0.0
 11
51.3329658934
 21
-46.5215105659
 31
0.0
 11
51.8256128203
 21
-46.5160428259
 31
0.0
 11
52.2798339023
 21
-46.5099488384
 31
0.0
 11
52.6941611668
 21
-46.5033100465
 31
0.0
 11
53.0668488609
 21
-46.4958885592
 31
0.0
 11
53.4116884947
 21
-46.4882033556
 31
0.0
 11
53.7510898542
 21
-46.4798526991
 31
0.0
 11
54.1031200518
 21
-46.4701270605
 31
0.0
  0
LINE
  5
36E
100
AcDbEntity
  8
0
100
AcDbLine
 62
253
  6
CONTINUOUS
 10
43.119335369
 20
-22.6972608563
 11
30.069335369
 21
-22.6972725949
  0
LINE
  5
36F
100
AcDbEntity
  8
0
100
AcDbLine
 62
253
  6
CONTINUOUS
 10
-10.930664631
 20
-22.6972725932
 11
-23.980664631
 21
-22.6972617492
  0
SPLINE
  5
370
100
AcDbEntity
  8
RACCORDO
100
AcDbSpline
 62
253
  6
CONTINUOUS
 70
0
 71
3
 72
11
 73
7
 74
5
 42
0.0000001
 43
0.0000001
 44
0.0000000001
 12
5.2129902375
 22
-0.0028191252
 32
0.0
 13
5.2129907531
 23
-0.0014714589
 33
0.0
 40
0.0
 40
0.0
 40
0.0
 40
0.0
 40
0.2828147747
 40
0.5515586309
 40
0.788695434
 40
1.0
 40
1.0
 40
1.0
 40
1.0
 10
30.0693353691
 20
-25.9816917183
 30
0.0
 10
30.5607722555
 20
-25.9819574817
 30
0.0
 10
31.5191956692
 20
-25.9820866374
 30
0.0
 10
32.889683017
 20
-25.9824971023
 30
0.0
 10
34.1359095023
 20
-25.9832449951
 30
0.0
 10
34.9151496759
 20
-25.9836720993
 30
0.0
 10
35.2823259255
 20
-25.9837757413
 30
0.0
 11
30.0693353691
 21
-25.9816917183
 31
0.0
 11
31.5436461784
 21
-25.9821314458
 31
0.0
 11
32.9446054078
 21
-25.9825881308
 31
0.0
 11
34.180797245
 21
-25.9832605977
 31
0.0
 11
35.2823259255
 21
-25.9837757413
 31
0.0
  0
LINE
  5
371
100
AcDbEntity
  8
RACCORDO
100
AcDbLine
 62
253
  6
CONTINUOUS
 10
35.2823259255
 20
-25.9837757413
 11
35.6242094951
 21
-25.983846199
  0
LINE
  5
372
100
AcDbEntity
  8
RACCORDO
100
AcDbLine
 62
253
  6
CONTINUOUS
 10
35.6242094951
 20
-25.983846199
 11
35.9541868016
 21
-25.9838728654
  0
LINE
  5
373
100
AcDbEntity
  8
RACCORDO
100
AcDbLine
 62
253
  6
CONTINUOUS
 10
35.9541868016
 20
-25.9838728654
 11
36.5811634512
 21
-25.9838522399
  0
LINE
  5
374
100
AcDbEntity
  8
RACCORDO
100
AcDbLine
 62
253
  6
CONTINUOUS
 10
36.5811634512
 20
-25.9838522399
 11
37.1663016457
 21
-25.983773781
  0
LINE
  5
375
100
AcDbEntity
  8
RACCORDO
100
AcDbLine
 62
253
  6
CONTINUOUS
 10
37.1663016457
 20
-25.983773781
 11
37.4450286897
 21
-25.9837164662
  0
LINE
  5
376
100
AcDbEntity
  8
RACCORDO
100
AcDbLine
 62
253
  6
CONTINUOUS
 10
37.4450286897
 20
-25.9837164662
 11
37.9757207651
 21
-25.9835690086
  0
LINE
  5
377
100
AcDbEntity
  8
RACCORDO
100
AcDbLine
 62
253
  6
CONTINUOUS
 10
37.9757207651
 20
-25.9835690086
 11
38.7120549564
 21
-25.9833237244
  0
LINE
  5
378
100
AcDbEntity
  8
RACCORDO
100
AcDbLine
 62
253
  6
CONTINUOUS
 10
38.7120549564
 20
-25.9833237244
 11
39.1662646057
 21
-25.9832492351
  0
LINE
  5
379
100
AcDbEntity
  8
RACCORDO
100
AcDbLine
 62
253
  6
CONTINUOUS
 10
39.1662646057
 20
-25.9832492351
 11
39.7979230591
 21
-25.9834082752
  0
LINE
  5
37A
100
AcDbEntity
  8
RACCORDO
100
AcDbLine
 62
253
  6
CONTINUOUS
 10
39.7979230591
 20
-25.9834082752
 11
40.3754200505
 21
-25.9839276923
  0
LINE
  5
37B
100
AcDbEntity
  8
RACCORDO
100
AcDbLine
 62
253
  6
CONTINUOUS
 10
40.3754200505
 20
-25.9839276923
 11
40.5570377799
 21
-25.9841851698
  0
LINE
  5
37C
100
AcDbEntity
  8
RACCORDO
100
AcDbLine
 62
253
  6
CONTINUOUS
 10
40.5570377799
 20
-25.9841851698
 11
41.0717880393
 21
-25.9852438065
  0
LINE
  5
37D
100
AcDbEntity
  8
RACCORDO
100
AcDbLine
 62
253
  6
CONTINUOUS
 10
41.0717880393
 20
-25.9852438065
 11
41.3913829252
 21
-25.986215373
  0
LINE
  5
37E
100
AcDbEntity
  8
RACCORDO
100
AcDbLine
 62
253
  6
CONTINUOUS
 10
42.9748127096
 20
-25.9974867941
 11
43.0857529095
 21
-25.9989002741
  0
SPLINE
  5
37F
100
AcDbEntity
  8
RACCORDO
100
AcDbSpline
 62
253
  6
CONTINUOUS
 70
0
 71
3
 72
17
 73
13
 74
11
 42
0.0000001
 43
0.0000001
 44
0.0000000001
 12
3.5970322936
 22
1.8455718036
 32
0.0
 13
0.0021849755
 23
4.0410372567
 33
0.0
 40
0.0
 40
0.0
 40
0.0
 40
0.0
 40
0.0899592461
 40
0.1891694704
 40
0.2969890858
 40
0.4102080386
 40
0.5225491299
 40
0.6250758167
 40
0.7165523722
 40
0.8074117336
 40
0.9027493365
 40
1.0
 40
1.0
 40
1.0
 40
1.0
 10
44.7963080448
 20
-25.5999298519
 30
0.0
 10
44.9041701493
 20
-25.5445877692
 30
0.0
 10
45.1250955755
 20
-25.4166851472
 30
0.0
 10
45.4476372831
 20
-25.1786304491
 30
0.0
 10
45.7650730546
 20
-24.885126817
 30
0.0
 10
46.0557949724
 20
-24.5411918055
 30
0.0
 10
46.2952574327
 20
-24.1683015137
 30
0.0
 10
46.4758333509
 20
-23.7963081809
 30
0.0
 10
46.6066095761
 20
-23.4349315721
 30
0.0
 10
46.6996010373
 20
-23.0720447706
 30
0.0
 10
46.7576718634
 20
-22.694071232
 30
0.0
 10
46.7713311512
 20
-22.4344773442
 30
0.0
 10
46.7714019813
 20
-22.3034794928
 30
0.0
 11
44.7963080448
 21
-25.5999298519
 31
0.0
 11
45.1107908829
 21
-25.4175739537
 31
0.0
 11
45.4337790586
 21
-25.1800675592
 31
0.0
 11
45.7534535597
 21
-24.8840178248
 31
0.0
 11
46.0484810671
 21
-24.5343247915
 31
0.0
 11
46.294172904
 21
-24.1525808195
 31
0.0
 11
46.4752830931
 21
-23.7799477912
 31
0.0
 11
46.6011934425
 21
-23.4323916601
 31
0.0
 11
46.6923365167
 21
-23.0767177946
 31
0.0
 11
46.7509581956
 21
-22.6959409948
 31
0.0
 11
46.7714019813
 21
-22.3034794928
 31
0.0
  0
LINE
  5
380
100
AcDbEntity
  8
0
100
AcDbLine
 62
253
  6
CONTINUOUS
 10
43.5113090544
 20
22.1947401247
 11
43.5113298097
 21
11.6945856051
  0
LINE
  5
381
100
AcDbEntity
  8
0
100
AcDbLine
 62
253
  6
CONTINUOUS
 10
43.5113298089
 20
-11.8052598754
 11
43.511304369
 21
-22.3052598753
  0
SPLINE
  5
382
100
AcDbEntity
  8
RACCORDO
100
AcDbSpline
 62
253
  6
CONTINUOUS
 70
0
 71
3
 72
17
 73
13
 74
11
 42
0.0000001
 43
0.0000001
 44
0.0000000001
 12
0.0030189349
 22
10.4982628689
 32
0.0
 13
-0.013839353
 23
10.4982541811
 33
0.0
 40
0.0
 40
0.0
 40
0.0
 40
0.0
 40
0.0691152057
 40
0.1443358271
 40
0.2255283351
 40
0.3127239025
 40
0.406295072
 40
0.5069316752
 40
0.6155736026
 40
0.7327632555
 40
0.8599667234
 40
1.0
 40
1.0
 40
1.0
 40
1.0
 10
46.7714019813
 20
-22.3034794928
 30
0.0
 10
46.7714715327
 20
-22.0616162937
 30
0.0
 10
46.7732397143
 20
-21.5565264475
 30
0.0
 10
46.775728351
 20
-20.7673118081
 30
0.0
 10
46.77604797
 20
-19.9148212862
 30
0.0
 10
46.7743679945
 20
-18.9981162598
 30
0.0
 10
46.7699864955
 20
-18.0133765419
 30
0.0
 10
46.7644566871
 20
-16.9535925802
 30
0.0
 10
46.7591608233
 20
-15.8111545911
 30
0.0
 10
46.7564291272
 20
-14.5757382308
 30
0.0
 10
46.7555032674
 20
-13.2304687003
 30
0.0
 10
46.7549524299
 20
-12.2952948546
 30
0.0
 10
46.7543064399
 20
-11.8052598775
 30
0.0
 11
46.7714019813
 21
-22.3034794928
 31
0.0
 11
46.7731246831
 21
-21.5778919105
 31
0.0
 11
46.7753107416
 21
-20.7882090462
 31
0.0
 11
46.7757376626
 21
-19.9358288265
 31
0.0
 11
46.7740237353
 21
-19.0204284055
 31
0.0
 11
46.7699752726
 21
-18.038101973
 31
0.0
 11
46.7647014633
 21
-16.9816055773
 31
0.0
 11
46.759742894
 21
-15.8410647966
 31
0.0
 11
46.7568060876
 21
-14.6107804697
 31
0.0
 11
46.7555551884
 21
-13.2753655559
 31
0.0
 11
46.7543064399
 21
-11.8052598775
 31
0.0
  0
LINE
  5
383
100
AcDbEntity
  8
0
100
AcDbLine
 62
253
  6
CONTINUOUS
 10
-23.980664631
 20
22.5867420005
 11
-10.9304588982
 21
22.5867528442
  0
LINE
  5
384
100
AcDbEntity
  8
0
100
AcDbLine
 62
253
  6
CONTINUOUS
 10
30.069335369
 20
22.5867528427
 11
43.119335369
 21
22.5867414408
  0
SPLINE
  5
385
100
AcDbEntity
  8
RACCORDO
100
AcDbSpline
 62
253
  6
CONTINUOUS
 70
0
 71
3
 72
37
 73
33
 74
31
 42
0.0000001
 43
0.0000001
 44
0.0000000001
 12
1.4030993477
 22
32.7894279683
 32
0.0
 13
-0.0023551456
 23
32.8194343145
 33
0.0
 40
0.0
 40
0.0
 40
0.0
 40
0.0
 40
0.0097734205
 40
0.0197206197
 40
0.0298922622
 40
0.0403831322
 40
0.0513395346
 40
0.062935568
 40
0.0753491739
 40
0.0888101133
 40
0.1035124108
 40
0.1195275655
 40
0.1369095438
 40
0.1558662338
 40
0.1767040094
 40
0.1996673938
 40
0.2249823519
 40
0.2527107519
 40
0.2828258179
 40
0.3155215432
 40
0.3510797938
 40
0.3897622101
 40
0.4318341233
 40
0.4775111553
 40
0.5269549691
 40
0.58032571
 40
0.6378580493
 40
0.6998564466
 40
0.7666943989
 40
0.8387108182
 40
0.9162887656
 40
1.0
 40
1.0
 40
1.0
 40
1.0
 10
55.9912533108
 20
-44.6206045103
 30
0.0
 10
55.9958243374
 20
-44.5137828882
 30
0.0
 10
56.0060308808
 20
-44.2982767884
 30
0.0
 10
56.0262730737
 20
-43.971883056
 30
0.0
 10
56.0468295805
 20
-43.6376536838
 30
0.0
 10
56.0664030405
 20
-43.2922900595
 30
0.0
 10
56.080160758
 20
-42.9310544265
 30
0.0
 10
56.0953815516
 20
-42.5488382151
 30
0.0
 10
56.1108422172
 20
-42.1392076173
 30
0.0
 10
56.1265698279
 20
-41.695583073
 30
0.0
 10
56.1421483358
 20
-41.2125297235
 30
0.0
 10
56.1567853523
 20
-40.6865324266
 30
0.0
 10
56.1696485891
 20
-40.11393324
 30
0.0
 10
56.1798889553
 20
-39.488511383
 30
0.0
 10
56.185775879
 20
-38.8019748427
 30
0.0
 10
56.1929438173
 20
-38.0458921678
 30
0.0
 10
56.2014351592
 20
-37.2144361394
 30
0.0
 10
56.2097132009
 20
-36.3047346857
 30
0.0
 10
56.2139750201
 20
-35.3142584886
 30
0.0
 10
56.2147013528
 20
-34.2381184448
 30
0.0
 10
56.2125443403
 20
-33.0682561852
 30
0.0
 10
56.210947748
 20
-31.795819219
 30
0.0
 10
56.2117501743
 20
-30.4126833473
 30
0.0
 10
56.2148149316
 20
-28.9118234221
 30
0.0
 10
56.218445616
 20
-27.287357548
 30
0.0
 10
56.2226198547
 20
-25.5331976985
 30
0.0
 10
56.2263375747
 20
-23.6416917271
 30
0.0
 10
56.229506529
 20
-21.6028558046
 30
0.0
 10
56.231902791
 20
-19.4055656192
 30
0.0
 10
56.2336082663
 20
-17.0378374227
 30
0.0
 10
56.2345719127
 20
-14.4855182662
 30
0.0
 10
56.2346621479
 20
-12.721044998
 30
0.0
 10
56.2345964305
 20
-11.8052598786
 30
0.0
 11
55.9912533108
 21
-44.6206045103
 31
0.0
 11
56.006714058
 21
-44.3002192043
 31
0.0
 11
56.0260935282
 21
-43.9743334636
 31
0.0
 11
56.04635219
 21
-43.6411211833
 31
0.0
 11
56.0650747436
 21
-43.29732619
 31
0.0
 11
56.079995302
 21
-42.9380529504
 31
0.0
 11
56.0948985607
 21
-42.557769608
 31
0.0
 11
56.1102611451
 21
-42.1506518332
 31
0.0
 11
56.125863665
 21
-41.7091470218
 31
0.0
 11
56.1413453616
 21
-41.2268743621
 31
0.0
 11
56.1559193063
 21
-40.7014681351
 31
0.0
 11
56.1687079732
 21
-40.1311448032
 31
0.0
 11
56.1787817897
 21
-39.509078524
 31
0.0
 11
56.1856746784
 21
-38.8252292512
 31
0.0
 11
56.1927874235
 21
-38.0716175273
 31
0.0
 11
56.2010184667
 21
-37.2408356952
 31
0.0
 11
56.2087781281
 21
-36.3308383751
 31
0.0
 11
56.2132804975
 21
-35.3424891967
 31
0.0
 11
56.2142486475
 21
-34.2694344227
 31
0.0
 11
56.2127171095
 21
-33.1024337524
 31
0.0
 11
56.2113662242
 21
-31.8328994486
 31
0.0
 11
56.212049886
 21
-30.4521232231
 31
0.0
 11
56.2147770964
 21
-28.9530313482
 31
0.0
 11
56.2183872199
 21
-27.3303173604
 31
0.0
 11
56.2223951538
 21
-25.5787244138
 31
0.0
 11
56.2261169824
 21
-23.6905492473
 31
0.0
 11
56.2292728798
 21
-21.655799362
 31
0.0
 11
56.2317106945
 21
-19.4622169256
 31
0.0
 11
56.2334344469
 21
-17.0986794066
 31
0.0
 11
56.2344133337
 21
-14.5526152377
 31
0.0
 11
56.2345964305
 21
-11.8052598786
 31
0.0
  0
SPLINE
  5
386
100
AcDbEntity
  8
RACCORDO
100
AcDbSpline
 62
253
  6
CONTINUOUS
 70
0
 71
3
 72
14
 73
10
 74
8
 42
0.0000001
 43
0.0000001
 44
0.0000000001
 12
2.8965289787
 22
0.0816637199
 32
0.0
 13
0.1237216712
 23
2.8950374844
 33
0.0
 40
0.0
 40
0.0
 40
0.0
 40
0.0
 40
0.1803368751
 40
0.354314945
 40
0.5107612016
 40
0.6515443549
 40
0.7790622391
 40
0.894852125
 40
1.0
 40
1.0
 40
1.0
 40
1.0
 10
54.1031200518
 20
-46.4701270605
 30
0.0
 10
54.2772370468
 20
-46.4652180671
 30
0.0
 10
54.6194168719
 20
-46.4059455982
 30
0.0
 10
55.0726666258
 20
-46.1988164682
 30
0.0
 10
55.4318196628
 20
-45.9124376844
 30
0.0
 10
55.6905139803
 20
-45.5901841472
 30
0.0
 10
55.8617765881
 20
-45.2585343423
 30
0.0
 10
55.9599259102
 20
-44.9348794
 30
0.0
 10
55.9869169539
 20
-44.7220735234
 30
0.0
 10
55.9912533108
 20
-44.6206045103
 30
0.0
 11
54.1031200518
 21
-46.4701270605
 31
0.0
 11
54.6183664097
 21
-46.3830143408
 31
0.0
 11
55.0767551766
 21
-46.173182068
 31
0.0
 11
55.4311474725
 21
-45.8904891956
 31
0.0
 11
55.6865400366
 21
-45.572380142
 31
0.0
 11
55.8560307114
 21
-45.2440394541
 31
0.0
 11
55.9532441844
 21
-44.9229093033
 31
0.0
 11
55.9912533108
 21
-44.6206045103
 31
0.0
  0
LINE
  5
387
100
AcDbEntity
  8
0
100
AcDbLine
 62
253
  6
CONTINUOUS
 10
-24.3726403027
 20
-22.3052598753
 11
-24.3726590714
 21
-11.8051303642
  0
LINE
  5
388
100
AcDbEntity
  8
0
100
AcDbLine
 62
253
  6
CONTINUOUS
 10
-24.3726590708
 20
11.6947401247
 11
-24.3726403019
 21
22.1947401247
  0
SPLINE
  5
389
100
AcDbEntity
  8
RACCORDO
100
AcDbSpline
 62
253
  6
CONTINUOUS
 70
0
 71
3
 72
39
 73
35
 74
33
 42
0.0000001
 43
0.0000001
 44
0.0000000001
 12
-0.0000005229
 22
32.7502975224
 32
0.0
 13
0.1205558738
 23
32.7500756349
 33
0.0
 40
0.0
 40
0.0
 40
0.0
 40
0.0
 40
0.08157042
 40
0.1570176029
 40
0.2268587359
 40
0.2915087572
 40
0.3513385937
 40
0.4067054309
 40
0.4579413934
 40
0.5053713715
 40
0.5493082327
 40
0.5900486202
 40
0.6277848937
 40
0.6626476913
 40
0.6948145328
 40
0.7245178726
 40
0.7520253461
 40
0.7775360987
 40
0.801052816
 40
0.8226139825
 40
0.8423934381
 40
0.8605391077
 40
0.8772348766
 40
0.8926496171
 40
0.9067702013
 40
0.9195316399
 40
0.9310757667
 40
0.9417472711
 40
0.9518901756
 40
0.9617009428
 40
0.9712511301
 40
0.9807453261
 40
0.9903228637
 40
1.0
 40
1.0
 40
1.0
 40
1.0
 10
56.8253456915
 20
11.6947404533
 30
0.0
 10
56.8253456773
 20
12.5852256279
 30
0.0
 10
56.8253544056
 20
14.2993500313
 30
0.0
 10
56.8254010387
 20
16.7759137302
 30
0.0
 10
56.8254745156
 20
19.0677613978
 30
0.0
 10
56.8255689452
 20
21.1891181507
 30
0.0
 10
56.8256977904
 20
23.1524624028
 30
0.0
 10
56.825858527
 20
24.9693685129
 30
0.0
 10
56.8260286678
 20
26.6509082709
 30
0.0
 10
56.8261933897
 20
28.2076696581
 30
0.0
 10
56.8263286025
 20
29.6498533134
 30
0.0
 10
56.8264248095
 20
30.9862130686
 30
0.0
 10
56.8264623722
 20
32.2235133976
 30
0.0
 10
56.8264456507
 20
33.3672183333
 30
0.0
 10
56.8264155455
 20
34.4232296118
 30
0.0
 10
56.8264112152
 20
35.398944541
 30
0.0
 10
56.8264626924
 20
36.3019965054
 30
0.0
 10
56.826560698
 20
37.1375105562
 30
0.0
 10
56.8267061079
 20
37.9081101581
 30
0.0
 10
56.8268940503
 20
38.6161425206
 30
0.0
 10
56.8271032253
 20
39.2655404047
 30
0.0
 10
56.8273378329
 20
39.8618238712
 30
0.0
 10
56.8276353387
 20
40.4104587314
 30
0.0
 10
56.8279974269
 20
40.9151526275
 30
0.0
 10
56.8284116284
 20
41.3768963051
 30
0.0
 10
56.8288619825
 20
41.7963853425
 30
0.0
 10
56.8293339749
 20
42.1782215332
 30
0.0
 10
56.8298194602
 20
42.5314717573
 30
0.0
 10
56.8303225005
 20
42.8657992558
 30
0.0
 10
56.8308301726
 20
43.1878855761
 30
0.0
 10
56.8314098774
 20
43.5028899707
 30
0.0
 10
56.8321358592
 20
43.8153479529
 30
0.0
 10
56.8330560058
 20
44.1291913034
 30
0.0
 10
56.8337864308
 20
44.3393888101
 30
0.0
 10
56.8341753093
 20
44.4450311253
 30
0.0
 11
56.8253456915
 21
11.6947404533
 31
0.0
 11
56.8253611011
 21
14.3661959771
 31
0.0
 11
56.8254078498
 21
16.8371136628
 31
0.0
 11
56.8254812633
 21
19.1244315496
 31
0.0
 11
56.825579026
 21
21.2417389794
 31
0.0
 11
56.8257087363
 21
23.2011839197
 31
0.0
 11
56.8258665078
 21
25.0144643047
 31
0.0
 11
56.8260342163
 21
26.692457311
 31
0.0
 11
56.8261941843
 21
28.2458031962
 31
0.0
 11
56.8263264576
 21
29.6847484696
 31
0.0
 11
56.8264175578
 21
31.0190082783
 31
0.0
 11
56.8264536931
 21
32.254882462
 31
0.0
 11
56.8264424713
 21
33.3966494532
 31
0.0
 11
56.8264191733
 21
34.4501230843
 31
0.0
 11
56.8264214528
 21
35.4229162988
 31
0.0
 11
56.8264733292
 21
36.323794238
 31
0.0
 11
56.8265735977
 21
37.1592789725
 31
0.0
 11
56.826720415
 21
37.9294584451
 31
0.0
 11
56.8269061693
 21
38.6355930383
 31
0.0
 11
56.8271170046
 21
39.2833760602
 31
0.0
 11
56.8273594135
 21
39.8776520897
 31
0.0
 11
56.8276595231
 21
40.4244434065
 31
0.0
 11
56.8280233362
 21
40.929280612
 31
0.0
 11
56.828439233
 21
41.3917337593
 31
0.0
 11
56.828888138
 21
41.8096744298
 31
0.0
 11
56.8293548024
 21
42.1877477271
 31
0.0
 11
56.8298351733
 21
42.5372423432
 31
0.0
 11
56.8303319842
 21
42.86942511
 31
0.0
 11
56.8308489899
 21
43.1907302392
 31
0.0
 11
56.8314362619
 21
43.5035011627
 31
0.0
 11
56.8321651369
 21
43.8144380516
 31
0.0
 11
56.8330810618
 21
44.1281039217
 31
0.0
 11
56.8341753093
 21
44.4450311253
 31
0.0
  0
SPLINE
  5
38A
100
AcDbEntity
  8
RACCORDO
100
AcDbSpline
 62
253
  6
CONTINUOUS
 70
0
 71
3
 72
34
 73
30
 74
28
 42
0.0000001
 43
0.0000001
 44
0.0000000001
 12
24.0003716177
 22
0.0001045087
 32
0.0
 13
24.0003324789
 23
-0.0433439356
 33
0.0
 40
0.0
 40
0.0
 40
0.0
 40
0.0
 40
0.0545899179
 40
0.1143900099
 40
0.1755291844
 40
0.2343478254
 40
0.2880501668
 40
0.336717562
 40
0.3822676249
 40
0.4266186058
 40
0.4720805395
 40
0.5209472669
 40
0.5735744434
 40
0.6254552914
 40
0.671852185
 40
0.7126972184
 40
0.7493158791
 40
0.7821983757
 40
0.8119079997
 40
0.838854996
 40
0.8633491764
 40
0.8856646839
 40
0.9061117635
 40
0.9249751487
 40
0.9421804155
 40
0.9575940942
 40
0.9718035029
 40
0.9857004584
 40
1.0
 40
1.0
 40
1.0
 40
1.0
 10
30.0693754483
 20
-47.318551792
 30
0.0
 10
30.5061015535
 20
-47.3185498903
 30
0.0
 10
31.4212358025
 20
-47.3186184445
 30
0.0
 10
32.8254910041
 20
-47.3188374869
 30
0.0
 10
34.2635765112
 20
-47.3190765375
 30
0.0
 10
35.6528792636
 20
-47.3192784807
 30
0.0
 10
36.9424062452
 20
-47.3194066321
 30
0.0
 10
38.1257829646
 20
-47.3194481994
 30
0.0
 10
39.2343476418
 20
-47.3194323666
 30
0.0
 10
40.3172682291
 20
-47.319411813
 30
0.0
 10
41.426722544
 20
-47.3194240726
 30
0.0
 10
42.6023874459
 20
-47.3195127906
 30
0.0
 10
43.8294044536
 20
-47.3196377311
 30
0.0
 10
45.0366624871
 20
-47.3197447025
 30
0.0
 10
46.1496619212
 20
-47.3197876938
 30
0.0
 10
47.1405619659
 20
-47.3197236029
 30
0.0
 10
48.0233451526
 20
-47.3196038117
 30
0.0
 10
48.8170436866
 20
-47.3195076296
 30
0.0
 10
49.5333677129
 20
-47.3194677177
 30
0.0
 10
50.1825841711
 20
-47.3195031039
 30
0.0
 10
50.7726467718
 20
-47.319617907
 30
0.0
 10
51.3107092141
 20
-47.319798258
 30
0.0
 10
51.8037245781
 20
-47.3200189833
 30
0.0
 10
52.2558573654
 20
-47.3202653282
 30
0.0
 10
52.6677223141
 20
-47.3205122222
 30
0.0
 10
53.0423548575
 20
-47.320774629
 30
0.0
 10
53.3905204579
 20
-47.321082825
 30
0.0
 10
53.7297727491
 20
-47.3214621671
 30
0.0
 10
53.9553479727
 20
-47.3218031293
 30
0.0
 10
54.0697458899
 20
-47.3220097288
 30
0.0
 11
30.0693754483
 21
-47.318551792
 31
0.0
 11
31.3795537615
 21
-47.3186322191
 31
0.0
 11
32.8147781778
 21
-47.3188382391
 31
0.0
 11
34.2821410681
 21
-47.3190744201
 31
0.0
 11
35.6938102946
 21
-47.319273121
 31
0.0
 11
36.9826864393
 21
-47.3193961539
 31
0.0
 11
38.1507220094
 21
-47.3194391387
 31
0.0
 11
39.2439404461
 21
-47.3194313623
 31
0.0
 11
40.3083804696
 21
-47.3194172433
 31
0.0
 11
41.399483772
 21
-47.3194350622
 31
0.0
 11
42.5723033863
 21
-47.3195154825
 31
0.0
 11
43.8353751752
 21
-47.3196355367
 31
0.0
 11
45.0805348016
 21
-47.3197376389
 31
0.0
 11
46.1940774905
 21
-47.3197690167
 31
0.0
 11
47.1743734695
 21
-47.3197091799
 31
0.0
 11
48.0532349284
 21
-47.3196019961
 31
0.0
 11
48.8424270615
 21
-47.3195136007
 31
0.0
 11
49.5554690765
 21
-47.319480224
 31
0.0
 11
50.202207001
 21
-47.3195199897
 31
0.0
 11
50.7900764201
 21
-47.3196357176
 31
0.0
 11
51.3256568634
 21
-47.3198137509
 31
0.0
 11
51.8163943245
 21
-47.3200329213
 31
0.0
 11
52.2691225134
 21
-47.3202768652
 31
0.0
 11
52.6820552341
 21
-47.3205281458
 31
0.0
 11
53.0519891548
 21
-47.320793232
 31
0.0
 11
53.3930201074
 21
-47.3210984267
 31
0.0
 11
53.7265519872
 21
-47.3214801195
 31
0.0
 11
54.0697458899
 21
-47.3220097288
 31
0.0
  0
SPLINE
  5
38B
100
AcDbEntity
  8
RACCORDO
100
AcDbSpline
 62
253
  6
CONTINUOUS
 70
0
 71
3
 72
32
 73
28
 74
26
 42
0.0000001
 43
0.0000001
 44
0.0000000001
 12
23.9999608009
 22
0.0437706591
 32
0.0
 13
24.0000007149
 23
0.0000086478
 33
0.0
 40
0.0
 40
0.0
 40
0.0
 40
0.0
 40
0.0129882518
 40
0.0262525328
 40
0.039971122
 40
0.0543383453
 40
0.0696527953
 40
0.0863682837
 40
0.1048888986
 40
0.1252868466
 40
0.1473425095
 40
0.1711523533
 40
0.1971964965
 40
0.2258855452
 40
0.2572666078
 40
0.2912612538
 40
0.3281301243
 40
0.3683346673
 40
0.412336385
 40
0.4608893234
 40
0.5151236699
 40
0.5761484381
 40
0.6447739076
 40
0.7213741544
 40
0.8054487412
 40
0.8976307354
 40
1.0
 40
1.0
 40
1.0
 40
1.0
 10
-34.930664631
 20
-47.3219863628
 30
0.0
 10
-34.8267587866
 20
-47.3217968614
 30
0.0
 10
-34.6167387586
 20
-47.3214717621
 30
0.0
 10
-34.2969699533
 20
-47.3211244731
 30
0.0
 10
-33.9661692765
 20
-47.3208851215
 30
0.0
 10
-33.6189672063
 20
-47.3207167875
 30
0.0
 10
-33.2477899352
 20
-47.320558749
 30
0.0
 10
-32.8433855476
 20
-47.3203552675
 30
0.0
 10
-32.3983131834
 20
-47.3201247961
 30
0.0
 10
-31.9105194233
 20
-47.3198819388
 30
0.0
 10
-31.3804118129
 20
-47.319664008
 30
0.0
 10
-30.8051346148
 20
-47.3195127146
 30
0.0
 10
-30.1767903153
 20
-47.3194231806
 30
0.0
 10
-29.4878762597
 20
-47.3193829114
 30
0.0
 10
-28.735358179
 20
-47.3193613862
 30
0.0
 10
-27.9174015222
 20
-47.3193569731
 30
0.0
 10
-27.02885702
 20
-47.3193631125
 30
0.0
 10
-26.0602559414
 20
-47.3193682963
 30
0.0
 10
-24.9981823168
 20
-47.3193465568
 30
0.0
 10
-23.8238702626
 20
-47.3192938376
 30
0.0
 10
-22.5133738002
 20
-47.3192264809
 30
0.0
 10
-21.0422970827
 20
-47.3191887044
 30
0.0
 10
-19.3922931571
 20
-47.3191765989
 30
0.0
 10
-17.5578906786
 20
-47.3191031577
 30
0.0
 10
-15.5350360037
 20
-47.3189177242
 30
0.0
 10
-13.3060291872
 20
-47.3186726345
 30
0.0
 10
-11.7496190722
 20
-47.3185520965
 30
0.0
 10
-10.9306649314
 20
-47.3185518014
 30
0.0
 11
-34.930664631
 21
-47.3219863628
 31
0.0
 11
-34.6189469606
 21
-47.3214989241
 31
0.0
 11
-34.3006043998
 21
-47.3211473303
 31
0.0
 11
-33.971358341
 21
-47.3209016733
 31
0.0
 11
-33.6265450179
 21
-47.3207237469
 31
0.0
 11
-33.2589982444
 21
-47.3205589881
 31
0.0
 11
-32.857826558
 21
-47.3203616034
 31
0.0
 11
-32.4133318464
 21
-47.3201339806
 31
0.0
 11
-31.9237811373
 21
-47.3198953441
 31
0.0
 11
-31.3944452562
 21
-47.3196823446
 31
0.0
 11
-30.8230090067
 21
-47.3195283775
 31
0.0
 11
-30.1979495599
 21
-47.3194345275
 31
0.0
 11
-29.5094123712
 21
-47.3193874421
 31
0.0
 11
-28.7562668463
 21
-47.3193647811
 31
0.0
 11
-27.9403953189
 21
-47.3193587025
 31
0.0
 11
-27.0555424016
 21
-47.3193627083
 31
0.0
 11
-26.0906333393
 21
-47.3193641685
 31
0.0
 11
-25.0345920836
 21
-47.3193432146
 31
0.0
 11
-23.8693215288
 21
-47.3192946847
 31
0.0
 11
-22.5676971757
 21
-47.3192345236
 31
0.0
 11
-21.1031026943
 21
-47.3191944809
 31
0.0
 11
-19.4560913774
 21
-47.3191685839
 31
0.0
 11
-17.6176854014
 21
-47.3190904669
 31
0.0
 11
-15.5998952657
 21
-47.3189178033
 31
0.0
 11
-13.3875273499
 21
-47.3186929547
 31
0.0
 11
-10.9306649314
 21
-47.3185518014
 31
0.0
  0
SPLINE
  5
38C
100
AcDbEntity
  8
RACCORDO
100
AcDbSpline
 62
253
  6
CONTINUOUS
 70
0
 71
3
 72
10
 73
6
 74
4
 42
0.0000001
 43
0.0000001
 44
0.0000000001
 12
0.8476492941
 22
0.0118379035
 32
0.0
 13
0.5220951608
 23
0.6678818045
 33
0.0
 40
0.0
 40
0.0
 40
0.0
 40
0.0
 40
0.4928727107
 40
0.8495319183
 40
1.0
 40
1.0
 40
1.0
 40
1.0
 10
55.9912538627
 20
-44.6206047424
 30
0.0
 10
56.1305149312
 20
-44.6186598826
 30
0.0
 10
56.3786646177
 20
-44.6211051624
 30
0.0
 10
56.6373078649
 20
-44.576521386
 30
0.0
 10
56.8082915252
 20
-44.5887581732
 30
0.0
 10
56.8344777443
 20
-44.5552598753
 30
0.0
 11
55.9912538627
 21
-44.6206047424
 31
0.0
 11
56.4088853801
 21
-44.6079254402
 31
0.0
 11
56.7103329453
 21
-44.584564401
 31
0.0
 11
56.8344777443
 21
-44.5552598753
 31
0.0
  0
SPLINE
  5
38D
100
AcDbEntity
  8
RACCORDO
100
AcDbSpline
 62
253
  6
CONTINUOUS
 70
0
 71
3
 72
10
 73
6
 74
4
 42
0.0000001
 43
0.0000001
 44
0.0000000001
 12
-0.0058956735
 22
-0.8530845711
 32
0.0
 13
-0.4693054147
 23
-0.7124187478
 33
0.0
 40
0.0
 40
0.0
 40
0.0
 40
0.0
 40
0.4941078924
 40
0.8517017673
 40
1.0
 40
1.0
 40
1.0
 40
1.0
 10
54.1031196318
 20
-46.4701252625
 30
0.0
 10
54.1021485989
 20
-46.6106305356
 30
0.0
 10
54.1070847557
 20
-46.8566246807
 30
0.0
 10
54.0736652177
 20
-47.1299192672
 30
0.0
 10
54.0925344194
 20
-47.2868061836
 30
0.0
 10
54.0693353649
 20
-47.3220229974
 30
0.0
 11
54.1031196318
 21
-46.4701252625
 31
0.0
 11
54.0966348052
 21
-46.8916012632
 31
0.0
 11
54.0845460095
 21
-47.1964267506
 31
0.0
 11
54.0693353649
 21
-47.3220229974
 31
0.0
  0
SPLINE
  5
38E
100
AcDbEntity
  8
RACCORDO
100
AcDbSpline
 62
253
  6
CONTINUOUS
 70
0
 71
3
 72
10
 73
6
 74
4
 42
0.0000001
 43
0.0000001
 44
0.0000000001
 12
0.0059507505
 22
-0.8537280892
 32
0.0
 13
0.4731291523
 23
-0.7106587557
 33
0.0
 40
0.0
 40
0.0
 40
0.0
 40
0.0
 40
0.4940640612
 40
0.8516777551
 40
1.0
 40
1.0
 40
1.0
 40
1.0
 10
-34.9648049241
 20
-46.4694696233
 30
0.0
 10
-34.9638249068
 20
-46.6100684123
 30
0.0
 10
-34.9687791931
 20
-46.8563012936
 30
0.0
 10
-34.9351068704
 20
-47.1296256595
 30
0.0
 10
-34.9540564903
 20
-47.2868508622
 30
0.0
 10
-34.930664631
 20
-47.3219863628
 30
0.0
 11
-34.9648049241
 21
-46.4694696233
 31
0.0
 11
-34.9582548796
 21
-46.8912253772
 31
0.0
 11
-34.9460385883
 21
-47.1962931496
 31
0.0
 11
-34.930664631
 21
-47.3219863628
 31
0.0
  0
SPLINE
  5
38F
100
AcDbEntity
  8
RACCORDO
100
AcDbSpline
 62
253
  6
CONTINUOUS
 70
0
 71
3
 72
10
 73
6
 74
4
 42
0.0000001
 43
0.0000001
 44
0.0000000001
 12
-0.8472299364
 22
0.0124713961
 32
0.0
 13
-0.5064275554
 23
0.6793270435
 33
0.0
 40
0.0
 40
0.0
 40
0.0
 40
0.0
 40
0.4926867755
 40
0.8492331921
 40
1.0
 40
1.0
 40
1.0
 40
1.0
 10
-36.853128117
 20
-44.6237653731
 30
0.0
 10
-36.9922677788
 20
-44.6217172092
 30
0.0
 10
-37.2405039551
 20
-44.6236768163
 30
0.0
 10
-37.4981097935
 20
-44.578625688
 30
0.0
 10
-37.6700473785
 20
-44.589399865
 30
0.0
 10
-37.6954982005
 20
-44.555259875
 30
0.0
 11
-36.853128117
 21
-44.6237653731
 31
0.0
 11
-37.2703800523
 21
-44.6104542237
 31
0.0
 11
-37.5714954731
 21
-44.5859661102
 31
0.0
 11
-37.6954982005
 21
-44.555259875
 31
0.0
  0
SPLINE
  5
390
100
AcDbEntity
  8
RACCORDO
100
AcDbSpline
 62
253
  6
CONTINUOUS
 70
0
 71
3
 72
10
 73
6
 74
4
 42
0.0000001
 43
0.0000001
 44
0.0000000001
 12
-0.8472335305
 22
-0.0124526484
 32
0.0
 13
-0.5063542747
 23
-0.6793858051
 33
0.0
 40
0.0
 40
0.0
 40
0.0
 40
0.0
 40
0.4926866429
 40
0.8492328447
 40
1.0
 40
1.0
 40
1.0
 40
1.0
 10
-36.8531287573
 20
44.5132459034
 30
0.0
 10
-36.9922689719
 20
44.5112008189
 30
0.0
 10
-37.2405078044
 20
44.5131635751
 30
0.0
 10
-37.4981100067
 20
44.4681129682
 30
0.0
 10
-37.6700538414
 20
44.4788831465
 30
0.0
 10
-37.6955010393
 20
44.4447401247
 30
0.0
 11
-36.8531287573
 21
44.5132459034
 31
0.0
 11
-37.2703824015
 21
44.4999405783
 31
0.0
 11
-37.5714987393
 21
44.4754513915
 31
0.0
 11
-37.6955010393
 21
44.4447401247
 31
0.0
  0
SPLINE
  5
391
100
AcDbEntity
  8
RACCORDO
100
AcDbSpline
 62
253
  6
CONTINUOUS
 70
0
 71
3
 72
10
 73
6
 74
4
 42
0.0000001
 43
0.0000001
 44
0.0000000001
 12
0.0059420371
 22
0.853751815
 32
0.0
 13
0.4730775346
 23
0.7107215458
 33
0.0
 40
0.0
 40
0.0
 40
0.0
 40
0.0
 40
0.4940592496
 40
0.8516730854
 40
1.0
 40
1.0
 40
1.0
 40
1.0
 10
-34.964804634
 20
46.3589486349
 30
0.0
 10
-34.9638260612
 20
46.4995499619
 30
0.0
 10
-34.968779677
 20
46.7457869773
 30
0.0
 10
-34.93511185
 20
47.0191228017
 30
0.0
 10
-34.9540546703
 20
47.1763492394
 30
0.0
 10
-34.9306646266
 20
47.2114889508
 30
0.0
 11
-34.964804634
 21
46.3589486349
 31
0.0
 11
-34.958256895
 21
46.7807120093
 31
0.0
 11
-34.946039881
 21
47.0857883435
 31
0.0
 11
-34.9306646266
 21
47.2114889508
 31
0.0
  0
SPLINE
  5
392
100
AcDbEntity
  8
RACCORDO
100
AcDbSpline
 62
253
  6
CONTINUOUS
 70
0
 71
3
 72
10
 73
6
 74
4
 42
0.0000001
 43
0.0000001
 44
0.0000000001
 12
-0.0054734175
 22
0.8517424277
 32
0.0
 13
-0.4458032584
 23
0.7257786
 33
0.0
 40
0.0
 40
0.0
 40
0.0
 40
0.0
 40
0.4942607784
 40
0.8518389344
 40
1.0
 40
1.0
 40
1.0
 40
1.0
 10
54.1007949654
 20
46.3608030943
 30
0.0
 10
54.0998932002
 20
46.5011307194
 30
0.0
 10
54.1047554829
 20
46.7463990572
 30
0.0
 10
54.0728918369
 20
47.0203709501
 30
0.0
 10
54.0913522643
 20
47.1756698713
 30
0.0
 10
54.069335369
 20
47.2115139149
 30
0.0
 11
54.1007949654
 21
46.3608030943
 31
0.0
 11
54.0947607255
 21
46.781751414
 31
0.0
 11
54.0835033698
 21
47.0861140744
 31
0.0
 11
54.069335369
 21
47.2115139149
 31
0.0
  0
SPLINE
  5
393
100
AcDbEntity
  8
RACCORDO
100
AcDbSpline
 62
253
  6
CONTINUOUS
 70
0
 71
3
 72
10
 73
6
 74
4
 42
0.0000001
 43
0.0000001
 44
0.0000000001
 12
0.8474045767
 22
-0.0124852513
 32
0.0
 13
0.5064574634
 23
-0.6795228002
 33
0.0
 40
0.0
 40
0.0
 40
0.0
 40
0.0
 40
0.4926576731
 40
0.8492056559
 40
1.0
 40
1.0
 40
1.0
 40
1.0
 10
55.9916980702
 20
44.5133341796
 30
0.0
 10
56.1308581925
 20
44.5112838613
 30
0.0
 10
56.3791356331
 20
44.5132275327
 30
0.0
 10
56.6367977128
 20
44.4681702219
 30
0.0
 10
56.8087745417
 20
44.4788961778
 30
0.0
 10
56.8342315154
 20
44.4447401128
 30
0.0
 11
55.9916980702
 21
44.5133341796
 31
0.0
 11
56.409010997
 21
44.5000070606
 31
0.0
 11
56.7101877027
 21
44.4754871629
 31
0.0
 11
56.8342315154
 21
44.4447401128
 31
0.0
  0
SPLINE
  5
394
100
AcDbEntity
  8
RACCORDO
100
AcDbSpline
 62
253
  6
CONTINUOUS
 70
0
 71
3
 72
28
 73
24
 74
22
 42
0.0000001
 43
0.0000001
 44
0.0000000001
 12
-23.9999668657
 22
-0.0402951156
 32
0.0
 13
-24.0000006928
 23
-0.0000081022
 33
0.0
 40
0.0
 40
0.0
 40
0.0
 40
0.0
 40
0.0220794565
 40
0.0472392957
 40
0.0752677854
 40
0.10574765
 40
0.1386281838
 40
0.1741188439
 40
0.2124378579
 40
0.253728458
 40
0.299101801
 40
0.3490685651
 40
0.3991603918
 40
0.4471579951
 40
0.4936670319
 40
0.5395617656
 40
0.5872839429
 40
0.6396223426
 40
0.6983266336
 40
0.7633891519
 40
0.8349004123
 40
0.9134977055
 40
1.0
 40
1.0
 40
1.0
 40
1.0
 10
54.069335369
 20
47.2115139149
 30
0.0
 10
53.8926999607
 20
47.2112173501
 30
0.0
 10
53.5147858336
 20
47.2107529008
 30
0.0
 10
52.9126436899
 20
47.2103118553
 30
0.0
 10
52.2432982286
 20
47.2099335035
 30
0.0
 10
51.5121872059
 20
47.2095443424
 30
0.0
 10
50.7213787856
 20
47.2092044253
 30
0.0
 10
49.8678571228
 20
47.2089800763
 30
0.0
 10
48.9470549064
 20
47.2088749616
 30
0.0
 10
47.9471912215
 20
47.2088338405
 30
0.0
 10
46.8541455327
 20
47.2088275289
 30
0.0
 10
45.6906900293
 20
47.2088452173
 30
0.0
 10
44.506240442
 20
47.2088417907
 30
0.0
 10
43.3494526747
 20
47.2087949069
 30
0.0
 10
42.2262416537
 20
47.2087375508
 30
0.0
 10
41.1052340399
 20
47.2086886788
 30
0.0
 10
39.9375915212
 20
47.2086680719
 30
0.0
 10
38.6674725405
 20
47.2086537019
 30
0.0
 10
37.258630828
 20
47.2086125778
 30
0.0
 10
35.6964062289
 20
47.2084960791
 30
0.0
 10
33.9750376122
 20
47.2083217534
 30
0.0
 10
32.0821507841
 20
47.2081194068
 30
0.0
 10
30.7613540451
 20
47.2080322845
 30
0.0
 10
30.0693356694
 20
47.2080320509
 30
0.0
 11
54.069335369
 21
47.2115139149
 31
0.0
 11
53.5394288461
 21
47.2108241787
 31
0.0
 11
52.93559288
 21
47.2103445845
 31
0.0
 11
52.2629092228
 21
47.2099481302
 31
0.0
 11
51.5313925511
 21
47.2095665828
 31
0.0
 11
50.7422597874
 21
47.2092345243
 31
0.0
 11
49.8904839511
 21
47.2090063241
 31
0.0
 11
48.9708275948
 21
47.2088884511
 31
0.0
 11
47.9798531649
 21
47.2088407476
 31
0.0
 11
46.8908929033
 21
47.208831365
 31
0.0
 11
45.69169053
 21
47.2088415897
 31
0.0
 11
44.4894866544
 21
47.2088340401
 31
0.0
 11
43.3375441427
 21
47.2087923697
 31
0.0
 11
42.2213272279
 21
47.2087386984
 31
0.0
 11
41.1198535898
 21
47.2086939867
 31
0.0
 11
39.9745213007
 21
47.208669877
 31
0.0
 11
38.7183996729
 21
47.2086507502
 31
0.0
 11
37.3094966485
 21
47.2086039535
 31
0.0
 11
35.7479961672
 21
47.2084933059
 31
0.0
 11
34.0317258766
 21
47.2083259608
 31
0.0
 11
32.1453907938
 21
47.2081384208
 31
0.0
 11
30.0693356694
 21
47.2080320509
 31
0.0
  0
SPLINE
  5
395
100
AcDbEntity
  8
RACCORDO
100
AcDbSpline
 62
253
  6
CONTINUOUS
 70
0
 71
3
 72
31
 73
27
 74
25
 42
0.0000001
 43
0.0000001
 44
0.0000000001
 12
-24.0002700777
 22
0.0000064029
 32
0.0
 13
-24.0002301594
 23
0.043773235
 33
0.0
 40
0.0
 40
0.0
 40
0.0
 40
0.0
 40
0.1124404376
 40
0.2114554133
 40
0.2995179691
 40
0.3780853405
 40
0.4479769874
 40
0.5099539533
 40
0.5649526774
 40
0.6139769696
 40
0.6579533992
 40
0.6976093627
 40
0.7336506903
 40
0.7666683136
 40
0.7968217671
 40
0.8242078955
 40
0.8491622356
 40
0.8721001776
 40
0.8931732114
 40
0.9122087482
 40
0.9292859032
 40
0.9448586074
 40
0.9594390043
 40
0.9733578304
 40
0.9868149475
 40
1.0
 40
1.0
 40
1.0
 40
1.0
 10
-10.9306649314
 20
47.2080320509
 30
0.0
 10
-11.8301985544
 20
47.2080322908
 30
0.0
 10
-13.5218608953
 20
47.208175373
 30
0.0
 10
-15.9180315965
 20
47.2084392873
 30
0.0
 10
-18.043214729
 20
47.2086166851
 30
0.0
 10
-19.9354086144
 20
47.2086620554
 30
0.0
 10
-21.6189154324
 20
47.2086764719
 30
0.0
 10
-23.1138709494
 20
47.2087362014
 30
0.0
 10
-24.4418857494
 20
47.2088044586
 30
0.0
 10
-25.6258946402
 20
47.208845017
 30
0.0
 10
-26.6871600651
 20
47.2088463789
 30
0.0
 10
-27.6445606041
 20
47.2088384457
 30
0.0
 10
-28.5142897063
 20
47.2088383939
 30
0.0
 10
-29.3079978734
 20
47.2088566795
 30
0.0
 10
-30.0324636674
 20
47.2088907839
 30
0.0
 10
-30.6924224664
 20
47.2089712593
 30
0.0
 10
-31.2946565123
 20
47.2091151067
 30
0.0
 10
-31.8463852071
 20
47.2093321408
 30
0.0
 10
-32.3507629227
 20
47.2095804612
 30
0.0
 10
-32.808253814
 20
47.2098172958
 30
0.0
 10
-33.2217415823
 20
47.2100270414
 30
0.0
 10
-33.5995878483
 20
47.2101887244
 30
0.0
 10
-33.9521671942
 20
47.2103570399
 30
0.0
 10
-34.2878216123
 20
47.2105960747
 30
0.0
 10
-34.6123130498
 20
47.2109455779
 30
0.0
 10
-34.8254525622
 20
47.2112746484
 30
0.0
 10
-34.9309339939
 20
47.2114670326
 30
0.0
 11
-10.9306649314
 21
47.2080320509
 31
0.0
 11
-13.6292657954
 21
47.208196683
 31
0.0
 11
-16.0056519438
 21
47.2084377581
 31
0.0
 11
-18.1191770592
 21
47.2086008738
 31
0.0
 11
-20.0048151918
 21
47.2086585922
 31
0.0
 11
-21.6822335928
 21
47.2086863167
 31
0.0
 11
-23.1696975111
 21
47.2087414382
 31
0.0
 11
-24.4896817433
 21
47.2088029272
 31
0.0
 11
-25.6662779952
 21
47.2088395836
 31
0.0
 11
-26.721724183
 21
47.208844653
 31
0.0
 11
-27.6734780169
 21
47.2088395734
 31
0.0
 11
-28.5384796124
 21
47.2088418682
 31
0.0
 11
-29.3309114893
 21
47.208860526
 31
0.0
 11
-30.0546025174
 21
47.2089012902
 31
0.0
 11
-30.7118769889
 21
47.2089870343
 31
0.0
 11
-31.3107878734
 21
47.2091350326
 31
0.0
 11
-31.8613046355
 21
47.2093474742
 31
0.0
 11
-32.3670630784
 21
47.2095907318
 31
0.0
 11
-32.8239210434
 21
47.2098245698
 31
0.0
 11
-33.2337773252
 21
47.2100274764
 31
0.0
 11
-33.6075263939
 21
47.2101953048
 31
0.0
 11
-33.957459812
 21
47.2103735762
 31
0.0
 11
-34.2915153074
 21
47.2106193659
 31
0.0
 11
-34.6144895577
 21
47.2109733084
 31
0.0
 11
-34.9309339939
 21
47.2114670326
 31
0.0
  0
SPLINE
  5
396
100
AcDbEntity
  8
RACCORDO
100
AcDbSpline
 62
253
  6
CONTINUOUS
 70
0
 71
3
 72
11
 73
7
 74
5
 42
0.0000001
 43
0.0000001
 44
0.0000000001
 12
-0.1208838809
 22
2.8850606502
 32
0.0
 13
-2.8865934897
 23
0.0759334794
 33
0.0
 40
0.0
 40
0.0
 40
0.0
 40
0.0
 40
0.223168595
 40
0.4739737255
 40
0.7416541067
 40
1.0
 40
1.0
 40
1.0
 40
1.0
 10
55.9917039586
 20
44.5133367852
 30
0.0
 10
55.9827114633
 20
44.7279550959
 30
0.0
 10
55.8820211977
 20
45.1835733246
 30
0.0
 10
55.4848878357
 20
45.7966592808
 30
0.0
 10
54.8571134964
 20
46.2364985379
 30
0.0
 10
54.3493750546
 20
46.3542651492
 30
0.0
 10
54.1007951968
 20
46.3608041834
 30
0.0
 11
55.9917039586
 21
44.5133367852
 31
0.0
 11
55.8539487732
 21
45.1428607856
 31
0.0
 11
55.4608455981
 21
45.751111314
 31
0.0
 11
54.8281690118
 21
46.195154929
 31
0.0
 11
54.1007951968
 21
46.3608041834
 31
0.0
  0
SPLINE
  5
397
100
AcDbEntity
  8
RACCORDO
100
AcDbSpline
 62
253
  6
CONTINUOUS
 70
0
 71
3
 72
39
 73
35
 74
33
 42
0.0000001
 43
0.0000001
 44
0.0000000001
 12
0.0000310729
 22
32.8228857075
 32
0.0
 13
-1.3844519436
 23
32.7936749844
 33
0.0
 40
0.0
 40
0.0
 40
0.0
 40
0.0
 40
0.081396348
 40
0.156683701
 40
0.2263771366
 40
0.2908929438
 40
0.3506022286
 40
0.405855785
 40
0.4569832588
 40
0.5043063234
 40
0.5481369915
 40
0.5887710818
 40
0.6264001402
 40
0.6611717918
 40
0.6932698492
 40
0.7229304543
 40
0.7504095133
 40
0.7758990071
 40
0.7994042632
 40
0.8209545803
 40
0.8407244642
 40
0.8588941064
 40
0.8756450078
 40
0.8911290605
 40
0.9053245092
 40
0.9181605257
 40
0.9297725138
 40
0.9405031548
 40
0.950695335
 40
0.9605848288
 40
0.9703503458
 40
0.9801540353
 40
0.9900675396
 40
1.0
 40
1.0
 40
1.0
 40
1.0
 10
56.2346000035
 20
11.6947401247
 30
0.0
 10
56.2346008465
 20
12.5852944675
 30
0.0
 10
56.2343671321
 20
14.2995648876
 30
0.0
 10
56.2332171461
 20
16.7763482922
 30
0.0
 10
56.2314260746
 20
19.0684418964
 30
0.0
 10
56.2290980136
 20
21.1900959008
 30
0.0
 10
56.2260387431
 20
23.1537626305
 30
0.0
 10
56.2226090406
 20
24.9709472234
 30
0.0
 10
56.2191131681
 20
26.6526142289
 30
0.0
 10
56.2159761439
 20
28.2093043564
 30
0.0
 10
56.2136419739
 20
29.6511880216
 30
0.0
 10
56.2121946853
 20
30.987011285
 30
0.0
 10
56.2124396435
 20
32.2237209254
 30
0.0
 10
56.2130991049
 20
33.3670376718
 30
0.0
 10
56.2134008719
 20
34.4231723626
 30
0.0
 10
56.21186482
 20
35.3995183821
 30
0.0
 10
56.2086691551
 20
36.3035556303
 30
0.0
 10
56.2042569647
 20
37.1402416864
 30
0.0
 10
56.1982441203
 20
37.9120499468
 30
0.0
 10
56.1914993382
 20
38.6212705263
 30
0.0
 10
56.1850395568
 20
39.2721155527
 30
0.0
 10
56.1759730759
 20
39.870416467
 30
0.0
 10
56.1643537708
 20
40.4217713988
 30
0.0
 10
56.151267449
 20
40.9295977834
 30
0.0
 10
56.1372024689
 20
41.3945471636
 30
0.0
 10
56.122818752
 20
41.8170997085
 30
0.0
 10
56.1088608623
 20
42.2017345716
 30
0.0
 10
56.0954164821
 20
42.5574440069
 30
0.0
 10
56.0826228423
 20
42.89431315
 30
0.0
 10
56.0696838016
 20
43.2206296776
 30
0.0
 10
56.0493366738
 20
43.5423113686
 30
0.0
 10
56.0276501155
 20
43.8641442287
 30
0.0
 10
56.0063545173
 20
44.1878506158
 30
0.0
 10
55.99628763
 20
44.4047628257
 30
0.0
 10
55.9917039586
 20
44.5133367852
 30
0.0
 11
56.2346000035
 21
11.6947401247
 31
0.0
 11
56.2342062876
 21
14.366403124
 31
0.0
 11
56.2330530873
 21
16.8375510379
 31
0.0
 11
56.2312567344
 21
19.1250900028
 31
0.0
 11
56.2288714405
 21
21.2426836255
 31
0.0
 11
56.2258510179
 21
23.2025123288
 31
0.0
 11
56.2224637285
 21
25.0160903321
 31
0.0
 11
56.219045123
 21
26.6942380787
 31
0.0
 11
56.2160056824
 21
28.2475146472
 31
0.0
 11
56.2137185886
 21
29.6861618362
 31
0.0
 11
56.2124548672
 21
31.0198893411
 31
0.0
 11
56.2125268726
 21
32.2549836217
 31
0.0
 11
56.2130583971
 21
33.396289444
 31
0.0
 11
56.2130691847
 21
34.4498403134
 31
0.0
 11
56.2114968329
 21
35.423385696
 31
0.0
 11
56.2083210581
 21
36.3253221157
 31
0.0
 11
56.2037772961
 21
37.1619485199
 31
0.0
 11
56.1978468194
 21
37.9334360605
 31
0.0
 11
56.191263054
 21
38.6407490162
 31
0.0
 11
56.1842766085
 21
39.289616044
 31
0.0
 11
56.175125809
 21
39.8859259253
 31
0.0
 11
56.1636149511
 21
40.4356183382
 31
0.0
 11
56.1505086562
 21
40.9436806097
 31
0.0
 11
56.1364441463
 21
41.40940388
 31
0.0
 11
56.122197661
 21
41.8304780437
 31
0.0
 11
56.1084118384
 21
42.2113676045
 31
0.0
 11
56.09518307
 21
42.5633296879
 31
0.0
 11
56.0824025116
 21
42.897622234
 31
0.0
 11
56.0683502922
 21
43.2219196502
 31
0.0
 11
56.0491443847
 21
43.5418761825
 31
0.0
 11
56.027815356
 21
43.8629539066
 31
0.0
 11
56.0074129582
 21
44.187703464
 31
0.0
 11
55.9917039586
 21
44.5133367852
 31
0.0
  0
SPLINE
  5
398
100
AcDbEntity
  8
RACCORDO
100
AcDbSpline
 62
253
  6
CONTINUOUS
 70
0
 71
3
 72
10
 73
6
 74
4
 42
0.0000001
 43
0.0000001
 44
0.0000000001
 12
1.6119061418
 22
-0.0023208883
 32
0.0
 13
1.6119021519
 23
-0.0042719024
 33
0.0
 40
0.0
 40
0.0
 40
0.0
 40
0.0
 40
0.3597510321
 40
0.6974796468
 40
1.0
 40
1.0
 40
1.0
 40
1.0
 10
-27.6310131316
 20
-22.3031554041
 30
0.0
 10
-27.4377181655
 20
-22.303433718
 30
0.0
 10
-27.0629610056
 20
-22.3040331254
 30
0.0
 10
-26.5256594126
 20
-22.3050808075
 30
0.0
 10
-26.1816529166
 20
-22.3058926086
 30
0.0
 10
-26.0191085138
 20
-22.3063233877
 30
0.0
 11
-27.6310131316
 21
-22.3031554041
 31
0.0
 11
-27.0511283806
 21
-22.3040869897
 31
0.0
 11
-26.5067420396
 21
-22.3051569347
 31
0.0
 11
-26.0191085138
 21
-22.3063233877
 31
0.0
  0
SPLINE
  5
399
100
AcDbEntity
  8
RACCORDO
100
AcDbSpline
 62
253
  6
CONTINUOUS
 70
0
 71
3
 72
10
 73
6
 74
4
 42
0.0000001
 43
0.0000001
 44
0.0000000001
 12
1.6119009423
 22
0.002285126
 32
0.0
 13
1.6118968547
 23
0.0042894589
 33
0.0
 40
0.0
 40
0.0
 40
0.0
 40
0.0
 40
0.3597480486
 40
0.6974765016
 40
1.0
 40
1.0
 40
1.0
 40
1.0
 10
-27.6310224419
 20
22.1926338319
 30
0.0
 10
-27.4377297024
 20
22.1929078551
 30
0.0
 10
-27.0629754454
 20
22.1935030697
 30
0.0
 10
-26.5256756059
 20
22.194552805
 30
0.0
 10
-26.1816686368
 20
22.1953686359
 30
0.0
 10
-26.0191230782
 20
22.19580119
 30
0.0
 11
-27.6310224419
 21
22.1926338319
 31
0.0
 11
-27.0511443775
 21
22.1935582945
 31
0.0
 11
-26.5067600734
 21
22.1946297552
 31
0.0
 11
-26.0191230782
 21
22.19580119
 31
0.0
  0
SPLINE
  5
39A
100
AcDbEntity
  8
RACCORDO
100
AcDbSpline
 62
253
  6
CONTINUOUS
 70
0
 71
3
 72
10
 73
6
 74
4
 42
0.0000001
 43
0.0000001
 44
0.0000000001
 12
-1.6118533056
 22
0.0020219609
 32
0.0
 13
-1.6118494109
 23
0.0040796839
 33
0.0
 40
0.0
 40
0.0
 40
0.0
 40
0.0
 40
0.3597461914
 40
0.6974730288
 40
1.0
 40
1.0
 40
1.0
 40
1.0
 10
46.7695745239
 20
22.1930955506
 30
0.0
 10
46.5762884946
 20
22.1933380148
 30
0.0
 10
46.2015471686
 20
22.193872507
 30
0.0
 10
45.664263169
 20
22.194839346
 30
0.0
 10
45.3202653306
 20
22.1956065924
 30
0.0
 10
45.1577226905
 20
22.1960179972
 30
0.0
 11
46.7695745239
 21
22.1930955506
 31
0.0
 11
46.1897165754
 21
22.1939265864
 31
0.0
 11
45.6453509245
 21
22.1949146212
 31
0.0
 11
45.1577226905
 21
22.1960179972
 31
0.0
  0
SPLINE
  5
39B
100
AcDbEntity
  8
RACCORDO
100
AcDbSpline
 62
253
  6
CONTINUOUS
 70
0
 71
3
 72
10
 73
6
 74
4
 42
0.0000001
 43
0.0000001
 44
0.0000000001
 12
-1.614078384
 22
-0.0021556414
 32
0.0
 13
-1.6140746165
 23
-0.0040998468
 33
0.0
 40
0.0
 40
0.0
 40
0.0
 40
0.0
 40
0.359705977
 40
0.697443463
 40
1.0
 40
1.0
 40
1.0
 40
1.0
 10
46.7714019629
 20
-22.3034794925
 30
0.0
 10
46.5778707489
 20
-22.3037379582
 30
0.0
 10
46.2026280186
 20
-22.3042986752
 30
0.0
 10
45.6646023144
 20
-22.3052902013
 30
0.0
 10
45.3201079499
 20
-22.3060656221
 30
0.0
 10
45.1573250077
 20
-22.3064791006
 30
0.0
 11
46.7714019629
 21
-22.3034794925
 31
0.0
 11
46.1908084573
 21
-22.3043511338
 31
0.0
 11
45.645674137
 21
-22.3053641897
 31
0.0
 11
45.1573250077
 21
-22.3064791006
 31
0.0
  0
LINE
  5
39C
100
AcDbEntity
  8
RACCORDO
100
AcDbLine
 62
253
  6
CONTINUOUS
 10
43.085752961
 20
-25.9989004255
 11
43.0929087915
 21
-25.5944619868
  0
SPLINE
  5
39D
100
AcDbEntity
  8
RACCORDO
100
AcDbSpline
 62
253
  6
CONTINUOUS
 70
0
 71
3
 72
26
 73
22
 74
20
 42
0.0000001
 43
0.0000001
 44
0.0000000001
 12
13.0497018549
 22
0.0547412751
 32
0.0
 13
13.0498166695
 23
-0.0000006133
 33
0.0
 40
0.0
 40
0.0
 40
0.0
 40
0.0
 40
0.0324050684
 40
0.0657021642
 40
0.0989708492
 40
0.1319202026
 40
0.1646158082
 40
0.1980065346
 40
0.233520599
 40
0.2725122061
 40
0.3158227157
 40
0.3631874801
 40
0.4143210808
 40
0.4693545969
 40
0.528639118
 40
0.592521935
 40
0.6614061371
 40
0.7358387499
 40
0.8163213484
 40
0.9036987379
 40
1.0
 40
1.0
 40
1.0
 40
1.0
 10
-23.9804731665
 20
-24.3010259113
 30
0.0
 10
-23.8395143397
 20
-24.300434613
 30
0.0
 10
-23.5537162326
 20
-24.2992791041
 30
0.0
 10
-23.123200828
 20
-24.2980315324
 30
0.0
 10
-22.6903172436
 20
-24.297021379
 30
0.0
 10
-22.2600496147
 20
-24.2962455857
 30
0.0
 10
-21.8292508091
 20
-24.2956697368
 30
0.0
 10
-21.3872955038
 20
-24.2952321208
 30
0.0
 10
-20.9179528853
 20
-24.2948921903
 30
0.0
 10
-20.4054597559
 20
-24.294639314
 30
0.0
 10
-19.8414167704
 20
-24.2944684118
 30
0.0
 10
-19.2245568397
 20
-24.2943613738
 30
0.0
 10
-18.5567025414
 20
-24.2942960324
 30
0.0
 10
-17.8369980271
 20
-24.2942762648
 30
0.0
 10
-17.0618352016
 20
-24.2942868065
 30
0.0
 10
-16.2264227373
 20
-24.2942829496
 30
0.0
 10
-15.3251170045
 20
-24.2941704485
 30
0.0
 10
-14.351603266
 20
-24.2938982288
 30
0.0
 10
-13.2976453561
 20
-24.2934438898
 30
0.0
 10
-12.1485601498
 20
-24.2929886948
 30
0.0
 10
-11.3495692362
 20
-24.2928581422
 30
0.0
 10
-10.930664631
 20
-24.2928581619
 30
0.0
 11
-23.9804731665
 21
-24.3010259113
 31
0.0
 11
-23.5575961902
 21
-24.2993744114
 31
0.0
 11
-23.1230771452
 21
-24.2980720588
 31
0.0
 11
-22.6889280931
 21
-24.2970567083
 31
0.0
 11
-22.2589457781
 21
-24.2962771449
 31
0.0
 11
-21.8322745117
 21
-24.295698161
 31
0.0
 11
-21.3965318744
 21
-24.2952599829
 31
0.0
 11
-20.9330799694
 21
-24.2949201451
 31
0.0
 11
-20.42424671
 21
-24.2946638859
 31
0.0
 11
-19.8590525282
 21
-24.2944854064
 31
0.0
 11
-19.2409510455
 21
-24.2943717169
 31
0.0
 11
-18.5736669349
 21
-24.294305231
 31
0.0
 11
-17.8554896393
 21
-24.2942815053
 31
0.0
 11
-17.081837507
 21
-24.2942842733
 31
0.0
 11
-16.2481784581
 21
-24.2942669777
 31
0.0
 11
-15.3492522563
 21
-24.2941511658
 31
0.0
 11
-14.3779203417
 21
-24.2938820268
 31
0.0
 11
-13.3276372707
 21
-24.293462684
 31
0.0
 11
-12.1873784325
 21
-24.2930461539
 31
0.0
 11
-10.930664631
 21
-24.2928581619
 31
0.0
  0
SPLINE
  5
39E
100
AcDbEntity
  8
RACCORDO
100
AcDbSpline
 62
253
  6
CONTINUOUS
 70
0
 71
3
 72
21
 73
17
 74
15
 42
0.0000001
 43
0.0000001
 44
0.0000000001
 12
-0.0019737234
 22
-3.1647836558
 32
0.0
 13
3.1646698329
 23
0.0269134203
 33
0.0
 40
0.0
 40
0.0
 40
0.0
 40
0.0
 40
0.0844434073
 40
0.1610661319
 40
0.2296673287
 40
0.2925844818
 40
0.3557423024
 40
0.4215294951
 40
0.4869252248
 40
0.5512398372
 40
0.6167256338
 40
0.6856866175
 40
0.7602672717
 40
0.8411486267
 40
0.9241031221
 40
1.0
 40
1.0
 40
1.0
 40
1.0
 10
-26.0191113027
 20
-22.3054407962
 30
0.0
 10
-26.0191668586
 20
-22.3945225013
 30
0.0
 10
-26.0070998689
 20
-22.5646618774
 30
0.0
 10
-25.9587615105
 20
-22.8026752937
 30
0.0
 10
-25.8894010512
 20
-23.0115033491
 30
0.0
 10
-25.804349409
 20
-23.1988103221
 30
0.0
 10
-25.7022546851
 20
-23.3739663052
 30
0.0
 10
-25.5816702573
 20
-23.5402008005
 30
0.0
 10
-25.4440414004
 20
-23.6942893264
 30
0.0
 10
-25.291566239
 20
-23.8331907294
 30
0.0
 10
-25.123367288
 20
-23.958923715
 30
0.0
 10
-24.9341762797
 20
-24.0729725173
 30
0.0
 10
-24.7184999241
 20
-24.1719766804
 30
0.0
 10
-24.4779063881
 20
-24.2476664312
 30
0.0
 10
-24.2283401024
 20
-24.2924767634
 30
0.0
 10
-24.0605354492
 20
-24.3016992803
 30
0.0
 10
-23.9804725958
 20
-24.3010183988
 30
0.0
 11
-26.0191113027
 21
-22.3054407962
 31
0.0
 11
-26.0005128273
 21
-22.5720380132
 31
0.0
 11
-25.9521100645
 21
-22.8096526244
 31
0.0
 11
-25.8837980008
 21
-23.0157335325
 31
0.0
 11
-25.8014642346
 21
-23.1970333213
 31
0.0
 11
-25.7009206109
 21
-23.3697855853
 31
0.0
 11
-25.5786721091
 21
-23.5383189356
 31
0.0
 11
-25.4407367869
 21
-23.6926163313
 31
0.0
 11
-25.2904066295
 21
-23.8298392818
 31
0.0
 11
-25.1244304983
 21
-23.9539514527
 31
0.0
 11
-24.9374098305
 21
-24.0664452938
 31
0.0
 11
-24.7228339101
 21
-24.1647719374
 31
0.0
 11
-24.4787252194
 21
-24.2417955213
 31
0.0
 11
-24.2203282962
 21
-24.2882137222
 31
0.0
 11
-23.9804725958
 21
-24.3010183988
 31
0.0
  0
SPLINE
  5
39F
100
AcDbEntity
  8
RACCORDO
100
AcDbSpline
 62
253
  6
CONTINUOUS
 70
0
 71
3
 72
18
 73
14
 74
12
 42
0.0000001
 43
0.0000001
 44
0.0000000001
 12
-0.0000441795
 22
-10.4998728858
 32
0.0
 13
-0.0031625953
 23
-10.4998724096
 33
0.0
 40
0.0
 40
0.0
 40
0.0
 40
0.0
 40
0.1317802167
 40
0.2624361697
 40
0.3798221712
 40
0.4847254212
 40
0.5798098146
 40
0.6661524154
 40
0.7448771069
 40
0.8169424314
 40
0.8830574664
 40
0.9438795096
 40
1.0
 40
1.0
 40
1.0
 40
1.0
 10
-26.014308657
 20
-11.8055693375
 30
0.0
 10
-26.0143105976
 20
-12.2667945121
 30
0.0
 10
-26.0145782331
 20
-13.1853099761
 30
0.0
 10
-26.015262609
 20
-14.5146713101
 30
0.0
 10
-26.0161679889
 20
-15.7499642449
 30
0.0
 10
-26.0170090446
 20
-16.8607582352
 30
0.0
 10
-26.0176871275
 20
-17.8629017305
 30
0.0
 10
-26.0182089559
 20
-18.7734214597
 30
0.0
 10
-26.0185753041
 20
-19.6033754932
 30
0.0
 10
-26.018790195
 20
-20.3625339526
 30
0.0
 10
-26.0189185043
 20
-21.0590339192
 30
0.0
 10
-26.0189872334
 20
-21.6997276484
 30
0.0
 10
-26.0190487458
 20
-22.1090215591
 30
0.0
 10
-26.019107908
 20
-22.3054408889
 30
0.0
 11
-26.014308657
 21
-11.8055693375
 31
0.0
 11
-26.0146311278
 21
-13.1892448237
 31
0.0
 11
-26.0153390574
 21
-14.5611155399
 31
0.0
 11
-26.0162052687
 21
-15.7936533292
 31
0.0
 11
-26.0170195549
 21
-16.8951238191
 31
0.0
 11
-26.0176897741
 21
-17.8934976386
 31
0.0
 11
-26.018203418
 21
-18.8000838263
 31
0.0
 11
-26.0185628145
 21
-19.6266830014
 31
0.0
 11
-26.0187830877
 21
-20.3833597158
 31
0.0
 11
-26.018912643
 21
-21.0775591669
 31
0.0
 11
-26.0189937612
 21
-21.7161828839
 31
0.0
 11
-26.019107908
 21
-22.3054408889
 31
0.0
  0
SPLINE
  5
3A0
100
AcDbEntity
  8
RACCORDO
100
AcDbSpline
 62
253
  6
CONTINUOUS
 70
0
 71
3
 72
13
 73
9
 74
7
 42
0.0000001
 43
0.0000001
 44
0.0000000001
 12
0.0036886819
 22
-10.5003308374
 32
0.0
 13
0.0000401815
 23
-10.5003314853
 33
0.0
 40
0.0
 40
0.0
 40
0.0
 40
0.0
 40
0.2085980321
 40
0.3976276165
 40
0.5690449813
 40
0.7253888047
 40
0.8684971134
 40
1.0
 40
1.0
 40
1.0
 40
1.0
 10
-26.019107964
 20
22.1950702838
 30
0.0
 10
-26.0188514801
 20
21.4649541675
 30
0.0
 10
-26.0189439142
 20
20.0732135093
 30
0.0
 10
-26.0179290113
 20
18.0814933951
 30
0.0
 10
-26.016669751
 20
16.272669034
 30
0.0
 10
-26.015384047
 20
14.624574257
 30
0.0
 10
-26.0145896473
 20
13.1161842741
 30
0.0
 10
-26.0143104015
 20
12.1550147582
 30
0.0
 10
-26.0143086401
 20
11.6947401247
 30
0.0
 11
-26.019107964
 21
22.1950702838
 31
0.0
 11
-26.0187278502
 21
20.0047218327
 31
0.0
 11
-26.0178328486
 21
18.0198487377
 31
0.0
 11
-26.0166066825
 21
16.2199100027
 31
0.0
 11
-26.0154203224
 21
14.5782484602
 31
0.0
 11
-26.0146298911
 21
13.0755639876
 31
0.0
 11
-26.0143086401
 21
11.6947401247
 31
0.0
  0
SPLINE
  5
3A1
100
AcDbEntity
  8
RACCORDO
100
AcDbSpline
 62
253
  6
CONTINUOUS
 70
0
 71
3
 72
22
 73
18
 74
16
 42
0.0000001
 43
0.0000001
 44
0.0000000001
 12
-3.1644604223
 22
0.0265378
 32
0.0
 13
0.0020232774
 23
-3.1645710493
 33
0.0
 40
0.0
 40
0.0
 40
0.0
 40
0.0
 40
0.0666749156
 40
0.1364271803
 40
0.2047279358
 40
0.2674184454
 40
0.3338959852
 40
0.4025464784
 40
0.4703189193
 40
0.5374274217
 40
0.6057560409
 40
0.6733431407
 40
0.7396060553
 40
0.8053345471
 40
0.8713384036
 40
0.9369762572
 40
1.0
 40
1.0
 40
1.0
 40
1.0
 10
-23.980829642
 20
24.1905014364
 30
0.0
 10
-24.0511596859
 20
24.1910912382
 30
0.0
 10
-24.1952366367
 20
24.1842700709
 30
0.0
 10
-24.4090337722
 20
24.1511357196
 30
0.0
 10
-24.6140889257
 20
24.0966529649
 30
0.0
 10
-24.8090296866
 20
24.0222712918
 30
0.0
 10
-24.9956108664
 20
23.9279777816
 30
0.0
 10
-25.1759568793
 20
23.8120264234
 30
0.0
 10
-25.3442871581
 20
23.6781778194
 30
0.0
 10
-25.4977044945
 20
23.5278978535
 30
0.0
 10
-25.6339587715
 20
23.3621455847
 30
0.0
 10
-25.7518893829
 20
23.1839929632
 30
0.0
 10
-25.8492136175
 20
22.996865501
 30
0.0
 10
-25.9253322383
 20
22.8019371023
 30
0.0
 10
-25.979684221
 20
22.6005345995
 30
0.0
 10
-26.0119197228
 20
22.3973699559
 30
0.0
 10
-26.0191525197
 20
22.2615512673
 30
0.0
 10
-26.0191100148
 20
22.19507023
 30
0.0
 11
-23.980829642
 21
24.1905014364
 31
0.0
 11
-24.1916030922
 21
24.1807793407
 31
0.0
 11
-24.4097453219
 21
24.1470396299
 31
0.0
 11
-24.6185988376
 21
24.0913813082
 31
0.0
 11
-24.8039522567
 21
24.0206554179
 31
0.0
 11
-24.9917837495
 21
23.9259131116
 31
0.0
 11
-25.1746026595
 21
23.8085480772
 31
0.0
 11
-25.3423818272
 21
23.6749522213
 31
0.0
 11
-25.4939952375
 21
23.5262436155
 31
0.0
 11
-25.6314396004
 21
23.3593160499
 31
0.0
 11
-25.749397441
 21
23.1808996586
 31
0.0
 11
-25.8460411447
 21
22.9948043582
 31
0.0
 11
-25.9216495031
 21
22.8010301948
 31
0.0
 11
-25.9761517706
 21
22.5993923409
 31
0.0
 11
-26.0086899789
 21
22.3942409959
 31
0.0
 11
-26.0191100148
 21
22.19507023
 31
0.0
  0
SPLINE
  5
3A2
100
AcDbEntity
  8
RACCORDO
100
AcDbSpline
 62
253
  6
CONTINUOUS
 70
0
 71
3
 72
25
 73
21
 74
19
 42
0.0000001
 43
0.0000001
 44
0.0000000001
 12
-13.0496469815
 22
0.000004892
 32
0.0
 13
-13.0495331077
 23
0.0545161761
 33
0.0
 40
0.0
 40
0.0
 40
0.0
 40
0.0
 40
0.1097228713
 40
0.2074292267
 40
0.2950900687
 40
0.374133542
 40
0.4457249959
 40
0.5107493524
 40
0.5699351478
 40
0.6240626801
 40
0.6737601516
 40
0.7190597316
 40
0.759791578
 40
0.7965843923
 40
0.8309629462
 40
0.8644489373
 40
0.8982307581
 40
0.9323784917
 40
0.9664954262
 40
1.0
 40
1.0
 40
1.0
 40
1.0
 10
-10.931191183
 20
24.1823384533
 30
0.0
 10
-11.4084727617
 20
24.1823386323
 30
0.0
 10
-12.3107654932
 20
24.1825087552
 30
0.0
 10
-13.594372449
 20
24.1830601378
 30
0.0
 10
-14.7445276651
 20
24.1835170954
 30
0.0
 10
-15.7810862054
 20
24.1837276668
 30
0.0
 10
-16.7191787126
 20
24.1837738646
 30
0.0
 10
-17.5708926573
 20
24.1837572726
 30
0.0
 10
-18.3466405983
 20
24.1837656305
 30
0.0
 10
-19.0557183915
 20
24.1838191568
 30
0.0
 10
-19.704392776
 20
24.183919883
 30
0.0
 10
-20.2947974915
 20
24.1840771289
 30
0.0
 10
-20.8290684346
 20
24.1843198941
 30
0.0
 10
-21.3158341413
 20
24.1846519546
 30
0.0
 10
-21.7710811409
 20
24.18508366
 30
0.0
 10
-22.2132305149
 20
24.1856530551
 30
0.0
 10
-22.654375552
 20
24.1864251679
 30
0.0
 10
-23.0982646031
 20
24.1874474742
 30
0.0
 10
-23.5409471067
 20
24.1887081666
 30
0.0
 10
-23.8350903498
 20
24.1898986796
 30
0.0
 10
-23.9808300314
 20
24.1905075266
 30
0.0
 11
-10.931191183
 21
24.1823384533
 31
0.0
 11
-12.3630358988
 21
24.1825794577
 31
0.0
 11
-13.6380692501
 21
24.183071682
 31
0.0
 11
-14.7820122145
 21
24.1834930573
 31
0.0
 11
-15.813501615
 21
24.1837064856
 31
0.0
 11
-16.7477448135
 21
24.1837640556
 31
0.0
 11
-17.5962897108
 21
24.1837612577
 31
0.0
 11
-18.3686434479
 21
24.1837745697
 31
0.0
 11
-19.0749886333
 21
24.1838304058
 31
0.0
 11
-19.7235230837
 21
24.1839354132
 31
0.0
 11
-20.3146665885
 21
24.1841019319
 31
0.0
 11
-20.8462027465
 21
24.1843488849
 31
0.0
 11
-21.3263358706
 21
24.1846811358
 31
0.0
 11
-21.7749636541
 21
24.1851130605
 31
0.0
 11
-22.2119436425
 21
24.1856849305
 31
0.0
 11
-22.6527837928
 21
24.1864627806
 31
0.0
 11
-23.0983984813
 21
24.1874882611
 31
0.0
 11
-23.543610484
 21
24.1888055658
 31
0.0
 11
-23.9808300314
 21
24.1905075266
 31
0.0
  0
SPLINE
  5
3A3
100
AcDbEntity
  8
RACCORDO
100
AcDbSpline
 62
253
  6
CONTINUOUS
 70
0
 71
3
 72
24
 73
20
 74
18
 42
0.0000001
 43
0.0000001
 44
0.0000000001
 12
-13.0501871366
 22
-0.0542415764
 32
0.0
 13
-13.0502998605
 23
-0.0000010575
 33
0.0
 40
0.0
 40
0.0
 40
0.0
 40
0.0
 40
0.0289621368
 40
0.0604820781
 40
0.0946784419
 40
0.1317246011
 40
0.1717693811
 40
0.2150752101
 40
0.2619603327
 40
0.3126644088
 40
0.3673849874
 40
0.4263850094
 40
0.4900314831
 40
0.5587168026
 40
0.6328812661
 40
0.7131415039
 40
0.8001273959
 40
0.8948877706
 40
1.0
 40
1.0
 40
1.0
 40
1.0
 10
43.1196271273
 20
24.19050206
 30
0.0
 10
42.9936400254
 20
24.1899784093
 30
0.0
 10
42.7305390863
 20
24.1889078272
 30
0.0
 10
42.3186801891
 20
24.1876751681
 30
0.0
 10
41.871654538
 20
24.1865742889
 30
0.0
 10
41.3875444039
 20
24.1856988341
 30
0.0
 10
40.8638068487
 20
24.1850227024
 30
0.0
 10
40.2972686094
 20
24.184519943
 30
0.0
 10
39.6843612483
 20
24.1841692889
 30
0.0
 10
39.0217985236
 20
24.1839546773
 30
0.0
 10
38.3065347543
 20
24.1838305105
 30
0.0
 10
37.5349702543
 20
24.1837661496
 30
0.0
 10
36.7026577332
 20
24.1837567732
 30
0.0
 10
35.8043783769
 20
24.183775377
 30
0.0
 10
34.8338274855
 20
24.1837176103
 30
0.0
 10
33.7836672938
 20
24.1834858857
 30
0.0
 10
32.6439129042
 20
24.1830186245
 30
0.0
 10
31.3960498834
 20
24.1824947058
 30
0.0
 10
30.5265840734
 20
24.1823384484
 30
0.0
 10
30.069335369
 20
24.1823384114
 30
0.0
 11
43.1196271273
 21
24.19050206
 31
0.0
 11
42.7416654703
 21
24.189018027
 31
0.0
 11
42.3303227553
 21
24.1877448846
 31
0.0
 11
41.8840512936
 21
24.1866515371
 31
0.0
 11
41.400588625
 21
24.1857624924
 31
0.0
 11
40.87799269
 21
24.1850747897
 31
0.0
 11
40.3128388685
 21
24.1845622813
 31
0.0
 11
39.7009740653
 21
24.1842031141
 31
0.0
 11
39.0392707062
 21
24.1839762825
 31
0.0
 11
38.3251507599
 21
24.1838440715
 31
0.0
 11
37.555182783
 21
24.1837767438
 31
0.0
 11
36.7245772161
 21
24.1837612781
 31
0.0
 11
35.8282132007
 21
24.1837633572
 31
0.0
 11
34.860344716
 21
24.1836942214
 31
0.0
 11
33.812924572
 21
24.1834606226
 31
0.0
 11
32.6777326793
 21
24.1830306991
 31
0.0
 11
31.4410814642
 21
24.1825605432
 31
0.0
 11
30.069335369
 21
24.1823384114
 31
0.0
  0
SPLINE
  5
3A4
100
AcDbEntity
  8
RACCORDO
100
AcDbSpline
 62
253
  6
CONTINUOUS
 70
0
 71
3
 72
21
 73
17
 74
15
 42
0.0000001
 43
0.0000001
 44
0.0000000001
 12
0.001079213
 22
3.1634523452
 32
0.0
 13
-3.1633627381
 23
-0.0238346852
 33
0.0
 40
0.0
 40
0.0
 40
0.0
 40
0.0
 40
0.1063125017
 40
0.2028602997
 40
0.2914212263
 40
0.3728218707
 40
0.4467330024
 40
0.5140643032
 40
0.5773551316
 40
0.6389767841
 40
0.7001513839
 40
0.761765103
 40
0.8227614314
 40
0.8840635231
 40
0.9427205775
 40
1.0
 40
1.0
 40
1.0
 40
1.0
 10
45.157759448
 20
22.1956091844
 30
0.0
 10
45.1577976926
 20
22.3077140287
 30
0.0
 10
45.1387848308
 20
22.5220994471
 30
0.0
 10
45.0613893594
 20
22.8207229838
 30
0.0
 10
44.9502895027
 20
23.0799232829
 30
0.0
 10
44.8178130578
 20
23.3011444941
 30
0.0
 10
44.6733594769
 20
23.4868763481
 30
0.0
 10
44.5228510748
 20
23.6418976575
 30
0.0
 10
44.3675303323
 20
23.7726523362
 30
0.0
 10
44.2059162791
 20
23.8844504359
 30
0.0
 10
44.0360338971
 20
23.9796579351
 30
0.0
 10
43.8585769513
 20
24.0582675227
 30
0.0
 10
43.6742789331
 20
24.119600674
 30
0.0
 10
43.4879457657
 20
24.1620475605
 30
0.0
 10
43.3024065867
 20
24.1866265277
 30
0.0
 10
43.1800259661
 20
24.1909507569
 30
0.0
 10
43.1196274358
 20
24.1904956779
 30
0.0
 11
45.157759448
 21
22.1956091844
 31
0.0
 11
45.1282947284
 21
22.5306305397
 31
0.0
 11
45.0516496865
 21
22.8262816633
 31
0.0
 11
44.9414740855
 21
23.0838666062
 31
0.0
 11
44.8092397065
 21
23.3048280561
 31
0.0
 11
44.6657235411
 21
23.4894147934
 31
0.0
 11
44.5173763808
 21
23.6422606417
 31
0.0
 11
44.3642400165
 21
23.7712424766
 31
0.0
 11
44.2038972933
 21
23.8821059613
 31
0.0
 11
44.0350867648
 21
23.9767322511
 31
0.0
 11
43.8568498334
 21
24.0556138933
 31
0.0
 11
43.6737450801
 21
24.1164893475
 31
0.0
 11
43.4846859733
 21
24.159663962
 31
0.0
 11
43.3007047497
 21
24.1838089453
 31
0.0
 11
43.1196274358
 21
24.1904956779
 31
0.0
  0
SPLINE
  5
3A5
100
AcDbEntity
  8
RACCORDO
100
AcDbSpline
 62
253
  6
CONTINUOUS
 70
0
 71
3
 72
16
 73
12
 74
10
 42
0.0000001
 43
0.0000001
 44
0.0000000001
 12
-0.0000228017
 22
10.500501211
 32
0.0
 13
0.0026888792
 23
10.5005008667
 33
0.0
 40
0.0
 40
0.0
 40
0.0
 40
0.0
 40
0.1264303987
 40
0.2643638398
 40
0.4026701841
 40
0.529171634
 40
0.6420119316
 40
0.7443011145
 40
0.8373105457
 40
0.9221356587
 40
1.0
 40
1.0
 40
1.0
 40
1.0
 10
45.1529794026
 20
11.6951093457
 30
0.0
 10
45.1529784416
 20
12.137636864
 30
0.0
 10
45.1531764866
 20
13.0629544754
 30
0.0
 10
45.1539464973
 20
14.472367202
 30
0.0
 10
45.1550395989
 20
15.8820283905
 30
0.0
 10
45.1560041436
 20
17.2038594541
 30
0.0
 10
45.1567532497
 20
18.3996245558
 30
0.0
 10
45.1572514438
 20
19.4781621187
 30
0.0
 10
45.1575183254
 20
20.458641933
 30
0.0
 10
45.1576389503
 20
21.3536307436
 30
0.0
 10
45.1576876158
 20
21.9230710156
 30
0.0
 10
45.1577574051
 20
22.19560921
 30
0.0
 11
45.1529794026
 21
11.6951093457
 31
0.0
 11
45.153238197
 21
13.0226918753
 31
0.0
 11
45.1540010134
 21
14.471061939
 31
0.0
 11
45.1550600763
 21
15.9233474895
 31
0.0
 11
45.1560148752
 21
17.2516757737
 31
0.0
 11
45.1567422965
 21
18.4365552321
 31
0.0
 11
45.1572308705
 21
19.5106428097
 31
0.0
 11
45.1575027255
 21
20.4872884169
 31
0.0
 11
45.1576345997
 21
21.3779946091
 31
0.0
 11
45.1577574051
 21
22.19560921
 31
0.0
  0
SPLINE
  5
3A6
100
AcDbEntity
  8
RACCORDO
100
AcDbSpline
 62
253
  6
CONTINUOUS
 70
0
 71
3
 72
17
 73
13
 74
11
 42
0.0000001
 43
0.0000001
 44
0.0000000001
 12
-0.0028895705
 22
10.5006832156
 32
0.0
 13
0.0020334819
 23
10.5006834163
 33
0.0
 40
0.0
 40
0.0
 40
0.0
 40
0.0
 40
0.069249587
 40
0.1444239981
 40
0.2255051807
 40
0.3125309113
 40
0.4059354018
 40
0.5064079872
 40
0.6149194258
 40
0.7321244469
 40
0.8595634587
 40
1.0
 40
1.0
 40
1.0
 40
1.0
 10
45.1573249252
 20
-22.3059422014
 30
0.0
 10
45.1572582247
 20
-22.063552876
 30
0.0
 10
45.1572375796
 20
-21.5580359666
 30
0.0
 10
45.1571844717
 20
-20.7687164524
 30
0.0
 10
45.1570612946
 20
-19.9171763868
 30
0.0
 10
45.1567842337
 20
-19.0018269209
 30
0.0
 10
45.1563309521
 20
-18.0186031892
 30
0.0
 10
45.155688552
 20
-16.9601746736
 30
0.0
 10
45.1548320645
 20
-15.8184390059
 30
0.0
 10
45.1538160861
 20
-14.5823147976
 30
0.0
 10
45.1530164043
 20
-13.2344452578
 30
0.0
 10
45.1528847797
 20
-12.2968197261
 30
0.0
 10
45.1529799714
 20
-11.8052598395
 30
0.0
 11
45.1573249252
 21
-22.3059422014
 31
0.0
 11
45.1572353532
 21
-21.5787742033
 31
0.0
 11
45.1571760686
 21
-20.7893914985
 31
0.0
 11
45.1570426726
 21
-19.937983664
 31
0.0
 11
45.1567677295
 21
-19.0241540426
 31
0.0
 11
45.1563193736
 21
-18.0433431415
 31
0.0
 11
45.1556814142
 21
-16.9883125031
 31
0.0
 11
45.1548417917
 21
-15.8488685278
 31
0.0
 11
45.1538904597
 21
-14.6181360509
 31
0.0
 11
45.1531395087
 21
-13.2799395184
 31
0.0
 11
45.1529799714
 21
-11.8052598395
 31
0.0
  0
SPLINE
  5
3A7
100
AcDbEntity
  8
RACCORDO
100
AcDbSpline
 62
253
  6
CONTINUOUS
 70
0
 71
3
 72
22
 73
18
 74
16
 42
0.0000001
 43
0.0000001
 44
0.0000000001
 12
3.1628532321
 22
-0.0226932192
 32
0.0
 13
-0.001506843
 23
3.1629342831
 33
0.0
 40
0.0
 40
0.0
 40
0.0
 40
0.0
 40
0.0618572026
 40
0.1232814865
 40
0.1839744615
 40
0.2444406807
 40
0.3056035996
 40
0.3703022839
 40
0.4419340351
 40
0.5194709126
 40
0.5996501569
 40
0.6783897417
 40
0.7491738494
 40
0.8109554922
 40
0.8716781388
 40
0.9356937493
 40
1.0
 40
1.0
 40
1.0
 40
1.0
 10
43.1205796429
 20
-24.3010302464
 30
0.0
 10
43.1857947273
 20
-24.3014981594
 30
0.0
 10
43.3159251893
 20
-24.2963441816
 30
0.0
 10
43.5082384077
 20
-24.2688772257
 30
0.0
 10
43.6957141847
 20
-24.2239411879
 30
0.0
 10
43.8777226251
 20
-24.1611915521
 30
0.0
 10
44.0568209719
 20
-24.0797795866
 30
0.0
 10
44.2375343646
 20
-23.975668902
 30
0.0
 10
44.4204728031
 20
-23.8430814828
 30
0.0
 10
44.5993379467
 20
-23.6795192279
 30
0.0
 10
44.7619190813
 20
-23.4896727642
 30
0.0
 10
44.8957878748
 20
-23.2871142159
 30
0.0
 10
44.9962094601
 20
-23.0877242509
 30
0.0
 10
45.068154922
 20
-22.8966994527
 30
0.0
 10
45.1186984631
 20
-22.7063118157
 30
0.0
 10
45.1499944501
 20
-22.509131532
 30
0.0
 10
45.1573587224
 20
-22.3737409823
 30
0.0
 10
45.1573264226
 20
-22.3059421673
 30
0.0
 11
43.1205796429
 21
-24.3010302464
 31
0.0
 11
43.3160646495
 21
-24.2929898596
 31
0.0
 11
43.508430336
 21
-24.2657768519
 31
0.0
 11
43.695080058
 21
-24.2209041318
 31
0.0
 11
43.8759125217
 21
-24.1586429883
 31
0.0
 11
44.0520502632
 21
-24.0786425631
 31
0.0
 11
44.2293587824
 21
-23.9764746553
 31
0.0
 11
44.4128247069
 21
-23.8435361175
 31
0.0
 11
44.5937584324
 21
-23.6779835765
 31
0.0
 11
44.7586701305
 21
-23.4853233606
 31
0.0
 11
44.8959648749
 21
-23.2775370777
 31
0.0
 11
44.9965939166
 21
-23.077540788
 31
0.0
 11
45.0653947969
 21
-22.8946418694
 31
0.0
 11
45.114689526
 21
-22.7090138804
 31
0.0
 11
45.1464922383
 21
-22.5090498816
 31
0.0
 11
45.1573264226
 21
-22.3059421673
 31
0.0
  0
SPLINE
  5
3A8
100
AcDbEntity
  8
RACCORDO
100
AcDbSpline
 62
253
  6
CONTINUOUS
 70
0
 71
3
 72
24
 73
20
 74
18
 42
0.0000001
 43
0.0000001
 44
0.0000000001
 12
13.0512646541
 22
-0.001161446
 32
0.0
 13
13.0511532386
 23
-0.0539403559
 33
0.0
 40
0.0
 40
0.0
 40
0.0
 40
0.0
 40
0.1131242777
 40
0.2205348269
 40
0.3151878699
 40
0.3994899103
 40
0.4753540749
 40
0.5437864785
 40
0.6058373345
 40
0.6623093166
 40
0.7138485033
 40
0.760961667
 40
0.8041470116
 40
0.8438451417
 40
0.8803737114
 40
0.9140108345
 40
0.9449516555
 40
0.9735640887
 40
1.0
 40
1.0
 40
1.0
 40
1.0
 10
30.0693227764
 20
-24.29285812
 30
0.0
 10
30.5614610719
 20
-24.2929019159
 30
0.0
 10
31.5208805322
 20
-24.2930874807
 30
0.0
 10
32.892080526
 20
-24.2936505197
 30
0.0
 10
34.1378916627
 20
-24.2941242061
 30
0.0
 10
35.246462797
 20
-24.2943594651
 30
0.0
 10
36.2409631144
 20
-24.2944128242
 30
0.0
 10
37.1386613989
 20
-24.294427148
 30
0.0
 10
37.9519955142
 20
-24.2944655453
 30
0.0
 10
38.6918370112
 20
-24.2945447266
 30
0.0
 10
39.3666932415
 20
-24.2946808952
 30
0.0
 10
39.9837469649
 20
-24.2949305649
 30
0.0
 10
40.54928702
 20
-24.2953186465
 30
0.0
 10
41.0687794894
 20
-24.2958564434
 30
0.0
 10
41.5467329335
 20
-24.2965576123
 30
0.0
 10
41.9865880916
 20
-24.2974109074
 30
0.0
 10
42.3920042003
 20
-24.2984489669
 30
0.0
 10
42.7660916577
 20
-24.2995801366
 30
0.0
 10
43.0055731941
 20
-24.3005580386
 30
0.0
 10
43.1205795706
 20
-24.3010333594
 30
0.0
 11
30.0693227764
 21
-24.29285812
 31
0.0
 11
31.5457376405
 21
-24.2931471204
 31
0.0
 11
32.9475810544
 21
-24.2936657595
 31
0.0
 11
34.1829228962
 21
-24.2941047367
 31
0.0
 11
35.2831711168
 21
-24.2943366468
 31
0.0
 11
36.2732944078
 21
-24.2944080176
 31
0.0
 11
37.1664238206
 21
-24.2944324707
 31
0.0
 11
37.9762659675
 21
-24.2944751445
 31
0.0
 11
38.7132967488
 21
-24.2945591937
 31
0.0
 11
39.3859483006
 21
-24.2947085409
 31
0.0
 11
40.000834617
 21
-24.2949675926
 31
0.0
 11
40.5644578416
 21
-24.2953632224
 31
0.0
 11
41.0825683576
 21
-24.2959095541
 31
0.0
 11
41.5593118682
 21
-24.2966151914
 31
0.0
 11
41.9983180121
 21
-24.2974809614
 31
0.0
 11
42.4021335521
 21
-24.2985073055
 31
0.0
 11
42.7755601591
 21
-24.299677322
 31
0.0
 11
43.1205795706
 21
-24.3010333594
 31
0.0
  0
SPLINE
  5
3A9
100
AcDbEntity
  8
RACCORDO
100
AcDbSpline
 62
7
  6
CONTINUOUS
 70
0
 71
3
 72
9
 73
5
 74
3
 42
0.0000001
 43
0.0000001
 44
0.0000000001
 12
0.0294491423
 22
-0.0095315541
 32
0.0
 13
0.0165709874
 23
-0.026299051
 33
0.0
 40
0.0
 40
0.0
 40
0.0
 40
0.0
 40
0.6545335207
 40
1.0
 40
1.0
 40
1.0
 40
1.0
 10
-58.6827268896
 20
-25.9816917183
 30
0.0
 10
-58.6763017393
 20
-25.9837712922
 30
0.0
 10
-58.6678902226
 20
-25.988777625
 30
0.0
 10
-58.661625065
 20
-25.9965785406
 30
0.0
 10
-58.6597168247
 20
-25.9996070208
 30
0.0
 11
-58.6827268896
 21
-25.9816917183
 31
0.0
 11
-58.6662100306
 21
-25.9915221562
 31
0.0
 11
-58.6597168247
 21
-25.9996070208
 31
0.0
  0
SPLINE
  5
3AA
100
AcDbEntity
  8
RACCORDO
100
AcDbSpline
 62
7
  6
CONTINUOUS
 70
0
 71
3
 72
8
 73
4
 74
2
 42
0.0000001
 43
0.0000001
 44
0.0000000001
 12
-0.0103067296
 22
0.0165974968
 32
0.0
 13
-0.0073152333
 23
0.0183781906
 33
0.0
 40
0.0
 40
0.0
 40
0.0
 40
0.0
 40
1.0
 40
1.0
 40
1.0
 40
1.0
 10
-55.8975148517
 20
46.4249157975
 30
0.0
 10
-55.9009504282
 20
46.4304482965
 30
0.0
 10
-55.9040996835
 20
46.4361516061
 30
0.0
 10
-55.9065380946
 20
46.4422776697
 30
0.0
 11
-55.8975148517
 21
46.4249157975
 31
0.0
 11
-55.9065380946
 21
46.4422776697
 31
0.0
  0
LINE
  5
3AB
100
AcDbEntity
  8
0
100
AcDbLine
 62
7
  6
CONTINUOUS
 10
-58.7075514292
 20
-26.1267827012
 11
-58.7054138686
 21
-26.0928377032
  0
SPLINE
  5
3AC
100
AcDbEntity
  8
0
100
AcDbSpline
 62
7
  6
CONTINUOUS
 70
0
 71
3
 72
9
 73
5
 74
3
 42
0.0000001
 43
0.0000001
 44
0.0000000001
 12
0.0039179377
 22
0.0504839863
 32
0.0
 13
0.0123985826
 23
-0.0027286032
 33
0.0
 40
0.0
 40
0.0
 40
0.0
 40
0.0
 40
0.8333984058
 40
1.0
 40
1.0
 40
1.0
 40
1.0
 10
-58.7054138686
 20
-26.0928377032
 30
0.0
 10
-58.7043254676
 20
-26.0788132786
 30
0.0
 10
-58.7024108489
 20
-26.0640503485
 30
0.0
 10
-58.6985495888
 20
-26.0629221684
 30
0.0
 10
-58.6978610476
 20
-26.0630736982
 30
0.0
 11
-58.7054138686
 21
-26.0928377032
 31
0.0
 11
-58.6997821418
 21
-26.0636765289
 31
0.0
 11
-58.6978610476
 21
-26.0630736982
 31
0.0
  0
SPLINE
  5
3AD
100
AcDbEntity
  8
RACCORDO
100
AcDbSpline
 62
253
  6
CONTINUOUS
 70
0
 71
3
 72
14
 73
10
 74
8
 42
0.0000001
 43
0.0000001
 44
0.0000000001
 12
1.3538718707
 22
1.2622316565
 32
0.0
 13
-0.1100283774
 23
1.8477260493
 33
0.0
 40
0.0
 40
0.0
 40
0.0
 40
0.0
 40
0.0474127161
 40
0.1607962892
 40
0.313521674
 40
0.4854020651
 40
0.6628506295
 40
0.8364646295
 40
1.0
 40
1.0
 40
1.0
 40
1.0
 10
-55.8566594343
 20
-46.4701270605
 30
0.0
 10
-55.8352625201
 20
-46.4501784501
 30
0.0
 10
-55.858893904
 20
-46.332440977
 30
0.0
 10
-55.8335292459
 20
-46.1537494148
 30
0.0
 10
-55.8449819645
 20
-45.8770079738
 30
0.0
 10
-55.8467774072
 20
-45.5694168937
 30
0.0
 10
-55.8562786328
 20
-45.2462567827
 30
0.0
 10
-55.867859252
 20
-44.9291273627
 30
0.0
 10
-55.8784123851
 20
-44.721327365
 30
0.0
 10
-55.8844102289
 20
-44.6206045103
 30
0.0
 11
-55.8566594343
 21
-46.4701270605
 31
0.0
 11
-55.8460128844
 21
-46.3830143408
 31
0.0
 11
-55.841883762
 21
-46.173182068
 31
0.0
 11
-55.8428591317
 21
-45.8904891956
 31
0.0
 11
-55.8479915929
 21
-45.572380142
 31
0.0
 11
-55.8567371631
 21
-45.2440394541
 31
0.0
 11
-55.8688725196
 21
-44.9229093033
 31
0.0
 11
-55.8844102289
 21
-44.6206045103
 31
0.0
  0
SPLINE
  5
3AE
100
AcDbEntity
  8
RACCORDO
100
AcDbSpline
 62
253
  6
CONTINUOUS
 70
0
 71
3
 72
11
 73
7
 74
5
 42
0.0000001
 43
0.0000001
 44
0.0000000001
 12
0.0170845694
 22
0.0717156933
 32
0.0
 13
0.0532708275
 23
0.0508434761
 33
0.0
 40
0.0
 40
0.0
 40
0.0
 40
0.0
 40
0.1674272858
 40
0.4494668637
 40
0.6830060478
 40
1.0
 40
1.0
 40
1.0
 40
1.0
 10
-55.8927892998
 20
-46.5334692448
 30
0.0
 10
-55.8918358255
 20
-46.5294668569
 30
0.0
 10
-55.8897585356
 20
-46.5184219642
 30
0.0
 10
-55.8796583273
 20
-46.5046191809
 30
0.0
 10
-55.8711652551
 20
-46.4860184578
 30
0.0
 10
-55.8622882777
 20
-46.4754994186
 30
0.0
 10
-55.8566594343
 20
-46.4701270605
 30
0.0
 11
-55.8927892998
 21
-46.5334692448
 31
0.0
 11
-55.8896542011
 21
-46.5215105659
 31
0.0
 11
-55.8796487983
 21
-46.5033100465
 31
0.0
 11
-55.8714297608
 21
-46.4882033556
 31
0.0
 11
-55.8566594343
 21
-46.4701270605
 31
0.0
  0
SPLINE
  5
3AF
100
AcDbEntity
  8
RACCORDO
100
AcDbSpline
 62
253
  6
CONTINUOUS
 70
0
 71
3
 72
37
 73
33
 74
31
 42
0.0000001
 43
0.0000001
 44
0.0000000001
 12
-2.1851549784
 22
32.6782693903
 32
0.0
 13
0.0118008036
 23
32.7512450659
 33
0.0
 40
0.0
 40
0.0
 40
0.0
 40
0.0
 40
0.0095369368
 40
0.0191991299
 40
0.0291128903
 40
0.0394347362
 40
0.0503217647
 40
0.0618573787
 40
0.0741983286
 40
0.0875790057
 40
0.1021963901
 40
0.1181316087
 40
0.1354508391
 40
0.1543817941
 40
0.1752441154
 40
0.1982289592
 40
0.223534545
 40
0.2512356021
 40
0.281353917
 40
0.3140969025
 40
0.3497534413
 40
0.3885600755
 40
0.4307531039
 40
0.4765322858
 40
0.5260755292
 40
0.5795433152
 40
0.6371803365
 40
0.6992941775
 40
0.766259992
 40
0.8384171864
 40
0.9161485715
 40
1.0
 40
1.0
 40
1.0
 40
1.0
 10
-54.9510589461
 20
-44.5552598753
 30
0.0
 10
-54.9580055077
 20
-44.4513763454
 30
0.0
 10
-54.9711886424
 20
-44.2421898073
 30
0.0
 10
-54.9881097361
 20
-43.9248072671
 30
0.0
 10
-55.0021776632
 20
-43.598709082
 30
0.0
 10
-55.0141875071
 20
-43.2591511902
 30
0.0
 10
-55.0253775462
 20
-42.9018518193
 30
0.0
 10
-55.0365527616
 20
-42.5224990122
 30
0.0
 10
-55.0472499049
 20
-42.1158985982
 30
0.0
 10
-55.0574171526
 20
-41.6756308281
 30
0.0
 10
-55.0667223
 20
-41.1960966883
 30
0.0
 10
-55.0748670898
 20
-40.6735381624
 30
0.0
 10
-55.0816649048
 20
-40.1038652419
 30
0.0
 10
-55.08724762
 20
-39.4803878101
 30
0.0
 10
-55.0924929502
 20
-38.7950539882
 30
0.0
 10
-55.0982044919
 20
-38.0401292938
 30
0.0
 10
-55.1031678989
 20
-37.210537998
 30
0.0
 10
-55.1058329756
 20
-36.3030583521
 30
0.0
 10
-55.1059558212
 20
-35.3143808357
 30
0.0
 10
-55.1044650552
 20
-34.238854498
 30
0.0
 10
-55.1030579861
 20
-33.068476768
 30
0.0
 10
-55.1034079714
 20
-31.7949307152
 30
0.0
 10
-55.1062744006
 20
-30.4108782139
 30
0.0
 10
-55.110164357
 20
-28.9096157812
 30
0.0
 10
-55.1144460799
 20
-27.2852664037
 30
0.0
 10
-55.1184214333
 20
-25.5314628281
 30
0.0
 10
-55.1215674666
 20
-23.6404230763
 30
0.0
 10
-55.123897643
 20
-21.6020229827
 30
0.0
 10
-55.1253806883
 20
-19.4051041483
 30
0.0
 10
-55.1261355235
 20
-17.0376869396
 30
0.0
 10
-55.1261259934
 20
-14.4859279738
 30
0.0
 10
-55.1256382226
 20
-12.7219151341
 30
0.0
 10
-55.1253083846
 20
-11.8065022395
 30
0.0
 11
-54.9510589461
 21
-44.5552598753
 31
0.0
 11
-54.9706031784
 21
-44.2435253641
 31
0.0
 11
-54.9874356394
 21
-43.9275244813
 31
0.0
 11
-55.0015745261
 21
-43.6031444556
 31
0.0
 11
-55.0137476289
 21
-43.2653103741
 31
0.0
 11
-55.0250487255
 21
-42.9089257476
 31
0.0
 11
-55.0361024488
 21
-42.5312817385
 31
0.0
 11
-55.0467437269
 21
-42.1272403433
 31
0.0
 11
-55.0568480984
 21
-41.6891229849
 31
0.0
 11
-55.0661518028
 21
-41.2104758277
 31
0.0
 11
-55.0743271345
 21
-40.6886415796
 31
0.0
 11
-55.0811859224
 21
-40.1214566512
 31
0.0
 11
-55.0869309803
 21
-39.5014708842
 31
0.0
 11
-55.0923060734
 21
-38.8182249837
 31
0.0
 11
-55.0978237932
 21
-38.0654629053
 31
0.0
 11
-55.1026096942
 21
-37.2366872291
 31
0.0
 11
-55.10534798
 21
-36.3294471901
 31
0.0
 11
-55.1057143267
 21
-35.3430348816
 31
0.0
 11
-55.1045406017
 21
-34.2706619125
 31
0.0
 11
-55.1033746506
 21
-33.1028663789
 31
0.0
 11
-55.1037623945
 21
-31.8319007707
 31
0.0
 11
-55.1063082163
 21
-30.4500288118
 31
0.0
 11
-55.1100686434
 21
-28.9507082238
 31
0.0
 11
-55.1142370892
 21
-27.3281105692
 31
0.0
 11
-55.1181488639
 21
-25.57697826
 31
0.0
 11
-55.1213285196
 21
-23.6892966065
 31
0.0
 11
-55.1236843534
 21
-21.6549922087
 31
0.0
 11
-55.1252170796
 21
-19.4617788002
 31
0.0
 11
-55.1259937909
 21
-17.0985408192
 31
0.0
 11
-55.1260148872
 21
-14.5527410106
 31
0.0
 11
-55.1253083846
 21
-11.8065022395
 31
0.0
  0
LINE
  5
3B0
100
AcDbEntity
  8
0
100
AcDbLine
 62
7
  6
CONTINUOUS
 10
-58.4764313232
 20
-28.465604573
 11
-58.4852376667
 21
-28.3361200599
  0
LINE
  5
3B1
100
AcDbEntity
  8
0
100
AcDbLine
 62
7
  6
CONTINUOUS
 10
-58.4852376667
 20
-28.3361200599
 11
-58.4938672813
 21
-28.2075555091
  0
SPLINE
  5
3B2
100
AcDbEntity
  8
RACCORDO
100
AcDbSpline
 62
253
  6
CONTINUOUS
 70
0
 71
3
 72
39
 73
35
 74
33
 42
0.0000001
 43
0.0000001
 44
0.0000000001
 12
-0.0000099786
 22
32.7527834171
 32
0.0
 13
2.2948792999
 23
32.6722871952
 33
0.0
 40
0.0
 40
0.0
 40
0.0
 40
0.0
 40
0.0815642294
 40
0.1570056908
 40
0.2268415361
 40
0.2914866756
 40
0.3513120186
 40
0.4066747296
 40
0.4579068963
 40
0.5053333658
 40
0.5492669597
 40
0.5900042896
 40
0.6277377048
 40
0.6625978569
 40
0.6947622599
 40
0.7244633452
 40
0.7519687475
 40
0.7774776306
 40
0.8009927181
 40
0.822552519
 40
0.8423308537
 40
0.8604756942
 40
0.8771711089
 40
0.8925861326
 40
0.9067077181
 40
0.9194708604
 40
0.9310173033
 40
0.9416916569
 40
0.9518379092
 40
0.9616525419
 40
0.9712081144
 40
0.9807110555
 40
0.9903026794
 40
1.0
 40
1.0
 40
1.0
 40
1.0
 10
-55.1253088938
 20
11.6947404533
 30
0.0
 10
-55.125309165
 20
12.5852256333
 30
0.0
 10
-55.1251426203
 20
14.2993501062
 30
0.0
 10
-55.1242528068
 20
16.7759138765
 30
0.0
 10
-55.1228507839
 20
19.0677616038
 30
0.0
 10
-55.1210489599
 20
21.1891185632
 30
0.0
 10
-55.1185904459
 20
23.1524629717
 30
0.0
 10
-55.1155234097
 20
24.969368903
 30
0.0
 10
-55.1122769309
 20
26.6509083812
 30
0.0
 10
-55.1091338505
 20
28.2076693544
 30
0.0
 10
-55.1065538371
 20
29.6498528344
 30
0.0
 10
-55.1047180978
 20
30.9862125879
 30
0.0
 10
-55.1040013575
 20
32.2235133299
 30
0.0
 10
-55.1043204228
 20
33.3672183964
 30
0.0
 10
-55.1048948641
 20
34.4232295301
 30
0.0
 10
-55.1049774911
 20
35.3989447993
 30
0.0
 10
-55.1039952455
 20
36.301997357
 30
0.0
 10
-55.1021251858
 20
37.1375121278
 30
0.0
 10
-55.099350594
 20
37.9081124095
 30
0.0
 10
-55.0957644357
 20
38.6161447223
 30
0.0
 10
-55.0917731326
 20
39.2655435436
 30
0.0
 10
-55.0872965141
 20
39.8618307948
 30
0.0
 10
-55.0816197021
 20
40.4104691258
 30
0.0
 10
-55.0747105749
 20
40.915165308
 30
0.0
 10
-55.0668070748
 20
41.3769101091
 30
0.0
 10
-55.0582137675
 20
41.7963987937
 30
0.0
 10
-55.0492076156
 20
42.1782335502
 30
0.0
 10
-55.0399439934
 20
42.5314828433
 30
0.0
 10
-55.0303454588
 20
42.865808337
 30
0.0
 10
-55.0206579547
 20
43.1879117181
 30
0.0
 10
-55.0095952392
 20
43.502945408
 30
0.0
 10
-54.9957404685
 20
43.8154351993
 30
0.0
 10
-54.9781813106
 20
44.1292891774
 30
0.0
 10
-54.9642478096
 20
44.3394199112
 30
0.0
 10
-54.9568297496
 20
44.4450311253
 30
0.0
 11
-55.1253088938
 21
11.6947404533
 31
0.0
 11
-55.1250148612
 21
14.3661959771
 31
0.0
 11
-55.1241228428
 21
16.8371136628
 31
0.0
 11
-55.1227220307
 21
19.1244315496
 31
0.0
 11
-55.1208566072
 21
21.2417389794
 31
0.0
 11
-55.1183815864
 21
23.2011839197
 31
0.0
 11
-55.115371127
 21
25.0144643047
 31
0.0
 11
-55.1121710588
 21
26.692457311
 31
0.0
 11
-55.1091186866
 21
28.2458031962
 31
0.0
 11
-55.1065947632
 21
29.6847484696
 31
0.0
 11
-55.1048564675
 21
31.0190082783
 31
0.0
 11
-55.1041669652
 21
32.254882462
 31
0.0
 11
-55.1043810891
 21
33.3966494532
 31
0.0
 11
-55.104825641
 21
34.4501230843
 31
0.0
 11
-55.1047821452
 21
35.4229162988
 31
0.0
 11
-55.1037922858
 21
36.323794238
 31
0.0
 11
-55.1018790492
 21
37.1592789725
 31
0.0
 11
-55.0990776076
 21
37.9294584451
 31
0.0
 11
-55.095533204
 21
38.6355930383
 31
0.0
 11
-55.0915102267
 21
39.2833760602
 31
0.0
 11
-55.0868847899
 21
39.8776520897
 31
0.0
 11
-55.0811583583
 21
40.4244434065
 31
0.0
 11
-55.0742163897
 21
40.929280612
 31
0.0
 11
-55.0662806056
 21
41.3917337593
 31
0.0
 11
-55.0577149883
 21
41.8096744298
 31
0.0
 11
-55.048810502
 21
42.1877477271
 31
0.0
 11
-55.0396444792
 21
42.5372423432
 31
0.0
 11
-55.0301647626
 21
42.86942511
 31
0.0
 11
-55.0202997053
 21
43.1907302392
 31
0.0
 11
-55.0090938873
 21
43.5035011627
 31
0.0
 11
-54.9951861251
 21
43.8144380516
 31
0.0
 11
-54.9777092368
 21
44.1281039217
 31
0.0
 11
-54.9568297496
 21
44.4450311253
 31
0.0
  0
SPLINE
  5
3B3
100
AcDbEntity
  8
RACCORDO
100
AcDbSpline
 62
253
  6
CONTINUOUS
 70
0
 71
3
 72
11
 73
7
 74
5
 42
0.0000001
 43
0.0000001
 44
0.0000000001
 12
0.1247807781
 22
2.7647922433
 32
0.0
 13
-2.7596930347
 23
-0.2091428831
 33
0.0
 40
0.0
 40
0.0
 40
0.0
 40
0.0
 40
0.3465158416
 40
0.6800766148
 40
0.9190585201
 40
1.0
 40
1.0
 40
1.0
 40
1.0
 10
-54.9568391555
 20
44.4450311254
 30
0.0
 10
-54.9424263167
 20
44.7643792291
 30
0.0
 10
-54.9380290736
 20
45.3710439528
 30
0.0
 10
-54.8595677104
 20
46.2996247192
 30
0.0
 10
-54.9925203177
 20
46.7289423902
 30
0.0
 10
-54.8454718173
 20
47.217156693
 30
0.0
 10
-54.9199296968
 20
47.2115139149
 30
0.0
 11
-54.9568391555
 21
44.4450311254
 31
0.0
 11
-54.9240138546
 21
45.4034887252
 31
0.0
 11
-54.9076207094
 21
46.3265081663
 31
0.0
 11
-54.9063001516
 21
46.9879147505
 31
0.0
 11
-54.9199296968
 21
47.2115139149
 31
0.0
  0
SPLINE
  5
3B4
100
AcDbEntity
  8
RACCORDO
100
AcDbSpline
 62
253
  6
CONTINUOUS
 70
0
 71
3
 72
9
 73
5
 74
3
 42
0.0000001
 43
0.0000001
 44
0.0000000001
 12
0.0229928415
 22
0.0100991134
 32
0.0
 13
0.0056800869
 23
0.0186893183
 33
0.0
 40
0.0
 40
0.0
 40
0.0
 40
0.0
 40
0.9768210291
 40
1.0
 40
1.0
 40
1.0
 40
1.0
 10
-55.9065382441
 20
-46.5527982684
 30
0.0
 10
-55.8990516137
 20
-46.5495099263
 30
0.0
 10
-55.8958543699
 20
-46.5439670075
 30
0.0
 10
-55.8939332419
 20
-46.5377519582
 30
0.0
 10
-55.8938893557
 20
-46.5376075584
 30
0.0
 11
-55.9065382441
 21
-46.5527982684
 31
0.0
 11
-55.8940229871
 21
-46.5380397139
 31
0.0
 11
-55.8938893557
 21
-46.5376075584
 31
0.0
  0
LINE
  5
3B5
100
AcDbEntity
  8
0
100
AcDbLine
 62
7
  6
CONTINUOUS
 10
-58.5540108015
 20
-28.2075556425
 11
-58.545204762
 21
-28.3387927561
  0
LINE
  5
3B6
100
AcDbEntity
  8
0
100
AcDbLine
 62
7
  6
CONTINUOUS
 10
-58.5087353915
 20
-28.8624337988
 11
-58.4992653522
 21
-28.9925584008
  0
LINE
  5
3B7
100
AcDbEntity
  8
0
100
AcDbLine
 62
7
  6
CONTINUOUS
 10
-58.5817901579
 20
-28.4221438226
 11
-58.5703932478
 21
-28.6116085327
  0
SPLINE
  5
3B8
100
AcDbEntity
  8
RACCORDO
100
AcDbSpline
 62
253
  6
CONTINUOUS
 70
0
 71
3
 72
14
 73
10
 74
8
 42
0.0000001
 43
0.0000001
 44
0.0000000001
 12
2.7637958969
 22
-0.1541351634
 32
0.0
 13
-0.1181245531
 23
2.7655690189
 33
0.0
 40
0.0
 40
0.0
 40
0.0
 40
0.0
 40
0.039922776
 40
0.1501581847
 40
0.3030827283
 40
0.4768122162
 40
0.6568472662
 40
0.8333545969
 40
1.0
 40
1.0
 40
1.0
 40
1.0
 10
-54.9203921651
 20
-47.322009398
 30
0.0
 10
-54.8836126969
 20
-47.3240605659
 30
0.0
 10
-54.941412822
 20
-47.096781492
 30
0.0
 10
-54.8839713298
 20
-46.8939405384
 30
0.0
 10
-54.9109060162
 20
-46.4553801116
 30
0.0
 10
-54.9082302174
 20
-45.9997597014
 30
0.0
 10
-54.9202338316
 20
-45.5071502482
 30
0.0
 10
-54.9327668912
 20
-45.0254960822
 30
0.0
 10
-54.9444973082
 20
-44.7088829966
 30
0.0
 10
-54.9510589461
 20
-44.5552598753
 30
0.0
 11
-54.9203921651
 21
-47.322009398
 31
0.0
 11
-54.9082500792
 21
-47.2121686093
 31
0.0
 11
-54.9036603795
 21
-46.907061533
 31
0.0
 11
-54.9048315547
 21
-46.4837541661
 31
0.0
 11
-54.9106453529
 21
-46.0028903527
 31
0.0
 11
-54.920433547
 21
-45.5046331631
 31
0.0
 11
-54.9339318319
 21
-45.0162313802
 31
0.0
 11
-54.9510589461
 21
-44.5552598753
 31
0.0
  0
SPLINE
  5
3B9
100
AcDbEntity
  8
0
100
AcDbSpline
 62
7
  6
CONTINUOUS
 70
0
 71
3
 72
9
 73
5
 74
3
 42
0.0000001
 43
0.0000001
 44
0.0000000001
 12
0.0618948906
 22
-0.4175307337
 32
0.0
 13
0.0257660719
 23
-0.4206538569
 33
0.0
 40
0.0
 40
0.0
 40
0.0
 40
0.0
 40
0.4232950175
 40
1.0
 40
1.0
 40
1.0
 40
1.0
 10
-58.6670471725
 20
-26.1575415074
 30
0.0
 10
-58.6583139062
 20
-26.2164544004
 30
0.0
 10
-58.6473139315
 20
-26.3568403916
 30
0.0
 10
-58.6372578913
 20
-26.4972890334
 30
0.0
 10
-58.6323047506
 20
-26.5781534251
 30
0.0
 11
-58.6670471725
 21
-26.1575415074
 31
0.0
 11
-58.6491705702
 21
-26.3353150073
 31
0.0
 11
-58.6323047506
 21
-26.5781534251
 31
0.0
  0
SPLINE
  5
3BA
100
AcDbEntity
  8
0
100
AcDbSpline
 62
7
  6
CONTINUOUS
 70
0
 71
3
 72
12
 73
8
 74
6
 42
0.0000001
 43
0.0000001
 44
0.0000000001
 12
0.0463631973
 22
-0.8491781442
 32
0.0
 13
0.0166199132
 23
-0.7428735693
 33
0.0
 40
0.0
 40
0.0
 40
0.0
 40
0.0
 40
0.2004966503
 40
0.4791713906
 40
0.7187992184
 40
0.9172493153
 40
1.0
 40
1.0
 40
1.0
 40
1.0
 10
-58.6273500153
 20
-26.6638565728
 30
0.0
 10
-58.62425146
 20
-26.7206090306
 30
0.0
 10
-58.6176410087
 20
-26.8564296401
 30
0.0
 10
-58.6091426787
 20
-27.0632855139
 30
0.0
 10
-58.6023385777
 20
-27.2568006759
 30
0.0
 10
-58.6002815411
 20
-27.4292059146
 30
0.0
 10
-58.5974259583
 20
-27.4770116462
 30
0.0
 10
-58.5969675219
 20
-27.4975027451
 30
0.0
 11
-58.6273500153
 21
-26.6638565728
 31
0.0
 11
-58.6188850108
 21
-26.8346334722
 31
0.0
 11
-58.6090301431
 21
-27.0718567179
 31
0.0
 11
-58.6026742871
 21
-27.2759180695
 31
0.0
 11
-58.5989555067
 21
-27.444954498
 31
0.0
 11
-58.5969675219
 21
-27.4975027451
 31
0.0
  0
SPLINE
  5
3BB
100
AcDbEntity
  8
0
100
AcDbSpline
 62
7
  6
CONTINUOUS
 70
0
 71
3
 72
9
 73
5
 74
3
 42
0.0000001
 43
0.0000001
 44
0.0000000001
 12
0.0018685896
 22
-0.0835218472
 32
0.0
 13
-0.0149153182
 23
-0.0295428236
 33
0.0
 40
0.0
 40
0.0
 40
0.0
 40
0.0
 40
0.7026648599
 40
1.0
 40
1.0
 40
1.0
 40
1.0
 10
-58.5969675219
 20
-27.4975027451
 30
0.0
 10
-58.5965298578
 20
-27.5170653674
 30
0.0
 10
-58.5964023509
 20
-27.5532373094
 30
0.0
 10
-58.5979191466
 20
-27.6194955999
 30
0.0
 10
-58.5993974294
 20
-27.6224236397
 30
0.0
 11
-58.5969675219
 21
-27.4975027451
 31
0.0
 11
-58.5971625231
 21
-27.5827536432
 31
0.0
 11
-58.5993974294
 21
-27.6224236397
 31
0.0
  0
SPLINE
  5
3BC
100
AcDbEntity
  8
0
100
AcDbSpline
 62
7
  6
CONTINUOUS
 70
0
 71
3
 72
8
 73
4
 74
2
 42
0.0000001
 43
0.0000001
 44
0.0000000001
 12
-0.0013648949
 22
-0.0027034521
 32
0.0
 13
-0.0020258486
 23
0.0085283758
 33
0.0
 40
0.0
 40
0.0
 40
0.0
 40
0.0
 40
1.0
 40
1.0
 40
1.0
 40
1.0
 10
-58.5993974294
 20
-27.6224236397
 30
0.0
 10
-58.5998523943
 20
-27.6233247904
 30
0.0
 10
-58.6004046636
 20
-27.6226372171
 30
0.0
 10
-58.6010799465
 20
-27.6197944252
 30
0.0
 11
-58.5993974294
 21
-27.6224236397
 31
0.0
 11
-58.6010799465
 21
-27.6197944252
 31
0.0
  0
SPLINE
  5
3BD
100
AcDbEntity
  8
RACCORDO
100
AcDbSpline
 62
253
  6
CONTINUOUS
 70
0
 71
3
 72
11
 73
7
 74
5
 42
0.0000001
 43
0.0000001
 44
0.0000000001
 12
0.1166564585
 22
1.8450822562
 32
0.0
 13
-1.3446274354
 23
1.2688239915
 33
0.0
 40
0.0
 40
0.0
 40
0.0
 40
0.0
 40
0.3408925291
 40
0.669992886
 40
0.9101770696
 40
1.0
 40
1.0
 40
1.0
 40
1.0
 10
-55.8898600132
 20
44.5133367852
 30
0.0
 10
-55.8766042415
 20
44.7229950375
 30
0.0
 10
-55.8649315361
 20
45.1318090213
 30
0.0
 10
-55.824397013
 20
45.7074149346
 30
0.0
 10
-55.8810381583
 20
46.0808147299
 30
0.0
 10
-55.8158331492
 20
46.3228143537
 30
0.0
 10
-55.8560926081
 20
46.3608041834
 30
0.0
 11
-55.8898600132
 21
44.5133367852
 31
0.0
 11
-55.8600235083
 21
45.1428607856
 31
0.0
 11
-55.8452593916
 21
45.751111314
 31
0.0
 11
-55.8443970878
 21
46.195154929
 31
0.0
 11
-55.8560926081
 21
46.3608041834
 31
0.0
  0
SPLINE
  5
3BE
100
AcDbEntity
  8
0
100
AcDbSpline
 62
7
  6
CONTINUOUS
 70
0
 71
3
 72
9
 73
5
 74
3
 42
0.0000001
 43
0.0000001
 44
0.0000000001
 12
0.0614391394
 22
-0.2586452261
 32
0.0
 13
0.0212194215
 23
-0.2647094189
 33
0.0
 40
0.0
 40
0.0
 40
0.0
 40
0.0
 40
0.4909206132
 40
1.0
 40
1.0
 40
1.0
 40
1.0
 10
-58.6011011389
 20
-27.6207406392
 30
0.0
 10
-58.5910472256
 20
-27.6630653968
 30
0.0
 10
-58.5872186276
 20
-27.7522672392
 30
0.0
 10
-58.5802415208
 20
-27.8405753052
 30
0.0
 10
-58.5766407308
 20
-27.8854946748
 30
0.0
 11
-58.6011011389
 21
-27.6207406392
 31
0.0
 11
-58.58652935
 21
-27.7504320403
 31
0.0
 11
-58.5766407308
 21
-27.8854946748
 31
0.0
  0
SPLINE
  5
3BF
100
AcDbEntity
  8
0
100
AcDbSpline
 62
7
  6
CONTINUOUS
 70
0
 71
3
 72
9
 73
5
 74
3
 42
0.0000001
 43
0.0000001
 44
0.0000000001
 12
0.019240131
 22
-0.240018036
 32
0.0
 13
0.0155925895
 23
-0.2406188086
 33
0.0
 40
0.0
 40
0.0
 40
0.0
 40
0.0
 40
0.3170039959
 40
1.0
 40
1.0
 40
1.0
 40
1.0
 10
-58.5766407308
 20
-27.8854946748
 30
0.0
 10
-58.5746076646
 20
-27.9108569003
 30
0.0
 10
-58.5681451231
 20
-27.9908262601
 30
0.0
 10
-58.5629014529
 20
-28.0710296069
 30
0.0
 10
-58.5593515608
 20
-28.1258101685
 30
0.0
 11
-58.5766407308
 21
-27.8854946748
 31
0.0
 11
-58.5706328479
 21
-27.9615816272
 31
0.0
 11
-58.5593515608
 21
-28.1258101685
 31
0.0
  0
LINE
  5
3C0
100
AcDbEntity
  8
0
100
AcDbLine
 62
7
  6
CONTINUOUS
 10
-58.5593515608
 20
-28.1258101685
 11
-58.5540108015
 21
-28.2075556422
  0
SPLINE
  5
3C1
100
AcDbEntity
  8
RACCORDO
100
AcDbSpline
 62
253
  6
CONTINUOUS
 70
0
 71
3
 72
39
 73
35
 74
33
 42
0.0000001
 43
0.0000001
 44
0.0000000001
 12
-0.0000028143
 22
32.8198868647
 32
0.0
 13
2.0619005476
 23
32.7550536551
 33
0.0
 40
0.0
 40
0.0
 40
0.0
 40
0.0
 40
0.0814037846
 40
0.1566980094
 40
0.2263977938
 40
0.2909194593
 40
0.3506341384
 40
0.4058926654
 40
0.4570247299
 40
0.5043520563
 40
0.5481866978
 40
0.5888244986
 40
0.6264570012
 40
0.6612318262
 40
0.6933328192
 40
0.7229961017
 40
0.7504775031
 40
0.77596895
 40
0.799475662
 40
0.8210270315
 40
0.8407976129
 40
0.8589668081
 40
0.8757156289
 40
0.8911961065
 40
0.9053867187
 40
0.918217151
 40
0.9298234974
 40
0.9405487958
 40
0.9507361057
 40
0.9606190975
 40
0.9703701985
 40
0.9801577126
 40
0.9900619286
 40
1.0
 40
1.0
 40
1.0
 40
1.0
 10
-55.9860072609
 20
11.6947401247
 30
0.0
 10
-55.9860073372
 20
12.5852944586
 30
0.0
 10
-55.9859481467
 20
14.2995647742
 30
0.0
 10
-55.9855931398
 20
16.7763480802
 30
0.0
 10
-55.985015421
 20
19.0684415902
 30
0.0
 10
-55.9842869413
 20
21.1900954077
 30
0.0
 10
-55.9832172285
 20
23.1537622667
 30
0.0
 10
-55.981708135
 20
24.9709470543
 30
0.0
 10
-55.9800286169
 20
26.6526144453
 30
0.0
 10
-55.9782824863
 20
28.2093048144
 30
0.0
 10
-55.9767443364
 20
29.6511884982
 30
0.0
 10
-55.9755435477
 20
30.9870114494
 30
0.0
 10
-55.9747511955
 20
32.2237206953
 30
0.0
 10
-55.9747795427
 20
33.3670378459
 30
0.0
 10
-55.9752201027
 20
34.4231718901
 30
0.0
 10
-55.9759413941
 20
35.399515969
 30
0.0
 10
-55.9763034745
 20
36.3035520794
 30
0.0
 10
-55.9762790726
 20
37.1402356
 30
0.0
 10
-55.9759812484
 20
37.9120447605
 30
0.0
 10
-55.9751204068
 20
38.6212674891
 30
0.0
 10
-55.9736972998
 20
39.2720968734
 30
0.0
 10
-55.9727127565
 20
39.8703872433
 30
0.0
 10
-55.9713446526
 20
40.4217433597
 30
0.0
 10
-55.9690792669
 20
40.9295707955
 30
0.0
 10
-55.9659259187
 20
41.3945256195
 30
0.0
 10
-55.961935088
 20
41.8170895646
 30
0.0
 10
-55.9571593517
 20
42.2017322353
 30
0.0
 10
-55.9517524772
 20
42.5574477832
 30
0.0
 10
-55.9456293065
 20
42.8942952692
 30
0.0
 10
-55.9392188967
 20
43.2204769058
 30
0.0
 10
-55.9328435876
 20
43.5422865001
 30
0.0
 10
-55.9232688139
 20
43.8642554203
 30
0.0
 10
-55.9092913453
 20
44.188114641
 30
0.0
 10
-55.8966904515
 20
44.4048294313
 30
0.0
 10
-55.8898600132
 20
44.5133367852
 30
0.0
 11
-55.9860072609
 21
11.6947401247
 31
0.0
 11
-55.9858955012
 21
14.366403124
 31
0.0
 11
-55.9855378647
 21
16.8375510379
 31
0.0
 11
-55.9849649888
 21
19.1250900028
 31
0.0
 11
-55.9841950548
 21
21.2426836255
 31
0.0
 11
-55.983093733
 21
23.2025123288
 31
0.0
 11
-55.9816178125
 21
25.0160903321
 31
0.0
 11
-55.9799513231
 21
26.6942380787
 31
0.0
 11
-55.9782543916
 21
28.2475146472
 31
0.0
 11
-55.9767487976
 21
29.6861618362
 31
0.0
 11
-55.9755735962
 21
31.0198893411
 31
0.0
 11
-55.9748735621
 21
32.2549836217
 31
0.0
 11
-55.9748578838
 21
33.396289444
 31
0.0
 11
-55.9752899307
 21
34.4498403134
 31
0.0
 11
-55.9759020487
 21
35.423385696
 31
0.0
 11
-55.9762451766
 21
36.3253221157
 31
0.0
 11
-55.9762266853
 21
37.1619485199
 31
0.0
 11
-55.9758619215
 21
37.9334360605
 31
0.0
 11
-55.9749771366
 21
38.6407490162
 31
0.0
 11
-55.9737199692
 21
39.289616044
 31
0.0
 11
-55.9726007466
 21
39.8859259253
 31
0.0
 11
-55.9711217266
 21
40.4356183382
 31
0.0
 11
-55.9688112367
 21
40.9436806097
 31
0.0
 11
-55.9656079687
 21
41.40940388
 31
0.0
 11
-55.961589651
 21
41.8304780437
 31
0.0
 11
-55.9568560226
 21
42.2113676045
 31
0.0
 11
-55.9514839036
 21
42.5633296879
 31
0.0
 11
-55.9454854052
 21
42.897622234
 31
0.0
 11
-55.9391819494
 21
43.2219196502
 31
0.0
 11
-55.9323234139
 21
43.5418761825
 31
0.0
 11
-55.9225938937
 21
43.8629539066
 31
0.0
 11
-55.9084999393
 21
44.187703464
 31
0.0
 11
-55.8898600132
 21
44.5133367852
 31
0.0
  0
SPLINE
  5
3C2
100
AcDbEntity
  8
RACCORDO
100
AcDbSpline
 62
253
  6
CONTINUOUS
 70
0
 71
3
 72
16
 73
12
 74
10
 42
0.0000001
 43
0.0000001
 44
0.0000000001
 12
-0.0000455983
 22
10.4983727586
 32
0.0
 13
0.015078619
 23
10.4983619301
 33
0.0
 40
0.0
 40
0.0
 40
0.0
 40
0.0
 40
0.1261505954
 40
0.2638646501
 40
0.4021312862
 40
0.5287273459
 40
0.6417084288
 40
0.7441885524
 40
0.8373331075
 40
0.9222568397
 40
1.0
 40
1.0
 40
1.0
 40
1.0
 10
-58.5528412259
 20
11.6947401247
 30
0.0
 10
-58.5528431433
 20
12.1361987829
 30
0.0
 10
-58.5522945275
 20
13.0595820014
 30
0.0
 10
-58.5499002452
 20
14.4668216159
 30
0.0
 10
-58.546170522
 20
15.8756170266
 30
0.0
 10
-58.5424529129
 20
17.1978600558
 30
0.0
 10
-58.5395355625
 20
18.3948714776
 30
0.0
 10
-58.53780786
 20
19.4748230275
 30
0.0
 10
-58.5371417255
 20
20.4565901836
 30
0.0
 10
-58.5369477333
 20
21.3517913761
 30
0.0
 10
-58.5368779721
 20
21.9210374907
 30
0.0
 10
-58.5364872189
 20
22.193096102
 30
0.0
 11
-58.5528412259
 21
11.6947401247
 31
0.0
 11
-58.5520848747
 21
13.0191158832
 31
0.0
 11
-58.5496760306
 21
14.4648873563
 31
0.0
 11
-58.5460209397
 21
15.9164574404
 31
0.0
 11
-58.5424065994
 21
17.2455051505
 31
0.0
 11
-58.5396196108
 21
18.4316193992
 31
0.0
 11
-58.5379286778
 21
19.5074926088
 31
0.0
 11
-58.5372009442
 21
20.4853585975
 31
0.0
 11
-58.5369568959
 21
21.3769195613
 31
0.0
 11
-58.5364872189
 21
22.193096102
 31
0.0
  0
SPLINE
  5
3C3
100
AcDbEntity
  8
RACCORDO
100
AcDbSpline
 62
253
  6
CONTINUOUS
 70
0
 71
3
 72
17
 73
13
 74
11
 42
0.0000001
 43
0.0000001
 44
0.0000000001
 12
-0.0730788323
 22
2.0014189262
 32
0.0
 13
-1.4159041466
 23
-1.4164333754
 33
0.0
 40
0.0
 40
0.0
 40
0.0
 40
0.0
 40
0.2038603333
 40
0.371752006
 40
0.5092979815
 40
0.6245897609
 40
0.7231715174
 40
0.8077246847
 40
0.8785082309
 40
0.9339754364
 40
0.9728296908
 40
1.0
 40
1.0
 40
1.0
 40
1.0
 10
-58.5688067797
 20
23.8880365051
 30
0.0
 10
-58.5737727381
 20
24.0240398149
 30
0.0
 10
-58.5835941951
 20
24.2720182539
 30
0.0
 10
-58.5982476684
 20
24.6117287129
 30
0.0
 10
-58.6109774396
 20
24.8922454397
 30
0.0
 10
-58.6212800815
 20
25.1268205606
 30
0.0
 10
-58.6293918613
 20
25.3252989299
 30
0.0
 10
-58.6353978761
 20
25.4964286183
 30
0.0
 10
-58.6415485786
 20
25.6321375297
 30
0.0
 10
-58.6430216971
 20
25.755020899
 30
0.0
 10
-58.6538877759
 20
25.8066821986
 30
0.0
 10
-58.6458073118
 20
25.9012455682
 30
0.0
 10
-58.6586308297
 20
25.8884172572
 30
0.0
 11
-58.5688067797
 21
23.8880365051
 31
0.0
 11
-58.5848074593
 21
24.2960072125
 31
0.0
 11
-58.5992577729
 21
24.6319441496
 31
0.0
 11
-58.6115804942
 21
24.9071406747
 31
0.0
 11
-58.6216372582
 21
25.1378239163
 31
0.0
 11
-58.6295859382
 21
25.3350999481
 31
0.0
 11
-58.6359778126
 21
25.5043194049
 31
0.0
 11
-58.6411916394
 21
25.6459863102
 31
0.0
 11
-58.6457962386
 21
25.7569786222
 31
0.0
 11
-58.6500894015
 21
25.8346760483
 31
0.0
 11
-58.6586308297
 21
25.8884172572
 31
0.0
  0
SPLINE
  5
3C4
100
AcDbEntity
  8
RACCORDO
100
AcDbSpline
 62
253
  6
CONTINUOUS
 70
0
 71
3
 72
11
 73
7
 74
5
 42
0.0000001
 43
0.0000001
 44
0.0000000001
 12
-0.0544347579
 22
0.0537213673
 32
0.0
 13
-0.0403532148
 23
0.0649707206
 33
0.0
 40
0.0
 40
0.0
 40
0.0
 40
0.0
 40
0.2312123557
 40
0.5743636692
 40
0.8261091782
 40
1.0
 40
1.0
 40
1.0
 40
1.0
 10
-55.8560926081
 20
46.3608041834
 30
0.0
 10
-55.8602879376
 20
46.3649445314
 30
0.0
 10
-55.8696541592
 20
46.3764100303
 30
0.0
 10
-55.8782059044
 20
46.3958070658
 30
0.0
 10
-55.8891176647
 20
46.4121116442
 30
0.0
 10
-55.8951672911
 20
46.4211361048
 30
0.0
 10
-55.897506309
 20
46.4249020421
 30
0.0
 11
-55.8560926081
 21
46.3608041834
 31
0.0
 11
-55.8672744648
 21
46.374502925
 31
0.0
 11
-55.8799125277
 21
46.3975035929
 31
0.0
 11
-55.8902256212
 21
46.4137619227
 31
0.0
 11
-55.897506309
 21
46.4249020421
 31
0.0
  0
SPLINE
  5
3C5
100
AcDbEntity
  8
RACCORDO
100
AcDbSpline
 62
253
  6
CONTINUOUS
 70
0
 71
3
 72
15
 73
11
 74
9
 42
0.0000001
 43
0.0000001
 44
0.0000000001
 12
0.4505538924
 22
-0.5158364757
 32
0.0
 13
0.015738571
 23
0.6847485094
 33
0.0
 40
0.0
 40
0.0
 40
0.0
 40
0.0
 40
0.0515964351
 40
0.1171332003
 40
0.2080584839
 40
0.3248849486
 40
0.474084148
 40
0.6682282477
 40
0.9100099763
 40
1.0
 40
1.0
 40
1.0
 40
1.0
 10
-59.2660690195
 20
-24.3010302464
 30
0.0
 10
-59.2583200279
 20
-24.3099020208
 30
0.0
 10
-59.2670075144
 20
-24.2504870117
 30
0.0
 10
-59.2608973794
 20
-24.2201874153
 30
0.0
 10
-59.2616735795
 20
-24.1507149962
 30
0.0
 10
-59.2593921728
 20
-24.0720273724
 30
0.0
 10
-59.2577476717
 20
-23.9659111921
 30
0.0
 10
-59.2547138022
 20
-23.8327766266
 30
0.0
 10
-59.2519625949
 20
-23.7126299542
 30
0.0
 10
-59.250219838
 20
-23.6368939038
 30
0.0
 10
-59.2497477332
 20
-23.6163537256
 30
0.0
 11
-59.2660690195
 21
-24.3010302464
 31
0.0
 11
-59.2636204608
 21
-24.2657768519
 31
0.0
 11
-59.2625271109
 21
-24.2209041318
 31
0.0
 11
-59.2612326463
 21
-24.1586429883
 31
0.0
 11
-59.2597436403
 21
-24.0786425631
 31
0.0
 11
-59.2578038225
 21
-23.9764746553
 31
0.0
 11
-59.2549568018
 21
-23.8435361175
 31
0.0
 11
-59.251164724
 21
-23.6779835765
 31
0.0
 11
-59.2497477332
 21
-23.6163537256
 31
0.0
  0
SPLINE
  5
3C6
100
AcDbEntity
  8
RACCORDO
100
AcDbSpline
 62
253
  6
CONTINUOUS
 70
0
 71
3
 72
14
 73
10
 74
8
 42
0.0000001
 43
0.0000001
 44
0.0000000001
 12
0.0270029608
 22
1.1748358292
 32
0.0
 13
0.0031760519
 23
1.1750909307
 33
0.0
 40
0.0
 40
0.0
 40
0.0
 40
0.0
 40
0.1115457292
 40
0.2884132221
 40
0.4586412039
 40
0.6143079011
 40
0.7722886889
 40
0.9424618625
 40
1.0
 40
1.0
 40
1.0
 40
1.0
 10
-59.2497477332
 20
-23.6163537256
 30
0.0
 10
-59.2487437116
 20
-23.5726710859
 30
0.0
 10
-59.2461547469
 20
-23.4597545633
 30
0.0
 10
-59.242182148
 20
-23.2801358717
 30
0.0
 10
-59.2383462799
 20
-23.0832460895
 30
0.0
 10
-59.2352563602
 20
-22.8937370421
 30
0.0
 10
-59.232873907
 20
-22.7042401761
 30
0.0
 10
-59.2317637432
 20
-22.5531686778
 30
0.0
 10
-59.2314406717
 20
-22.463975056
 30
0.0
 10
-59.231379757
 20
-22.4414375415
 30
0.0
 11
-59.2497477332
 21
-23.6163537256
 31
0.0
 11
-59.2467546986
 21
-23.4853233606
 31
0.0
 11
-59.2422176556
 21
-23.2775370777
 31
0.0
 11
-59.2383457794
 21
-23.077540788
 31
0.0
 11
-59.2353840537
 21
-22.8946418694
 31
0.0
 11
-59.2330895459
 21
-22.7090138804
 31
0.0
 11
-59.2316251599
 21
-22.5090498816
 31
0.0
 11
-59.231379757
 21
-22.4414375415
 31
0.0
  0
LINE
  5
3C7
100
AcDbEntity
  8
RACCORDO
100
AcDbLine
 62
253
  6
CONTINUOUS
 10
-59.2312601884
 20
-22.3059422014
 11
-59.2315797301
 21
-21.8278945464
  0
LINE
  5
3C8
100
AcDbEntity
  8
RACCORDO
100
AcDbLine
 62
253
  6
CONTINUOUS
 10
-59.2315797301
 20
-21.8278945464
 11
-59.2318410405
 21
-21.0593803697
  0
SPLINE
  5
3C9
100
AcDbEntity
  8
RACCORDO
100
AcDbSpline
 62
253
  6
CONTINUOUS
 70
0
 71
3
 72
16
 73
12
 74
10
 42
0.0000001
 43
0.0000001
 44
0.0000000001
 12
-0.0018985025
 22
8.2554649798
 32
0.0
 13
-0.0015614833
 23
8.2554651808
 33
0.0
 40
0.0
 40
0.0
 40
0.0
 40
0.0
 40
0.0327042596
 40
0.1358368899
 40
0.2465307894
 40
0.3653382636
 40
0.4931361275
 40
0.63115915
 40
0.7802401227
 40
0.9423384004
 40
1.0
 40
1.0
 40
1.0
 40
1.0
 10
-59.2318410405
 20
-21.0593803697
 30
0.0
 10
-59.2318617369
 20
-20.9693840798
 30
0.0
 10
-59.2319364657
 20
-20.5955851818
 30
0.0
 10
-59.2320102913
 20
-19.9171763982
 30
0.0
 10
-59.2321584278
 20
-19.0018269238
 30
0.0
 10
-59.2325330075
 20
-18.0186031747
 30
0.0
 10
-59.2331777628
 20
-16.9601746802
 30
0.0
 10
-59.2340068554
 20
-15.8184390254
 30
0.0
 10
-59.2349341756
 20
-14.5823147898
 30
0.0
 10
-59.2354536299
 20
-13.5673306386
 30
0.0
 10
-59.2356111889
 20
-12.9625906414
 30
0.0
 10
-59.2356412015
 20
-12.8039161988
 30
0.0
 11
-59.2318410405
 21
-21.0593803697
 31
0.0
 11
-59.2318957467
 21
-20.7893914985
 31
0.0
 11
-59.2320152838
 21
-19.937983664
 31
0.0
 11
-59.2321870099
 21
-19.0241540426
 31
0.0
 11
-59.2325595245
 21
-18.0433431415
 31
0.0
 11
-59.233180405
 21
-16.9883125031
 31
0.0
 11
-59.2339891434
 21
-15.8488685278
 31
0.0
 11
-59.234860448
 21
-14.6181360509
 31
0.0
 11
-59.2355180465
 21
-13.2799395184
 31
0.0
 11
-59.2356412015
 21
-12.8039161988
 31
0.0
  0
LINE
  5
3CA
100
AcDbEntity
  8
RACCORDO
100
AcDbLine
 62
253
  6
CONTINUOUS
 10
-59.2356412015
 20
-12.8039161988
 11
-59.2356724972
 21
-11.8052598395
  0
LINE
  5
3CB
100
AcDbEntity
  8
RACCORDO
100
AcDbLine
 62
253
  6
CONTINUOUS
 10
-59.2356728488
 20
11.6951093457
 11
-59.2356504042
 21
12.1218159883
  0
LINE
  5
3CC
100
AcDbEntity
  8
RACCORDO
100
AcDbLine
 62
253
  6
CONTINUOUS
 10
-59.2356504042
 20
12.1218159883
 11
-59.235457639
 21
13.0226918753
  0
SPLINE
  5
3CD
100
AcDbEntity
  8
RACCORDO
100
AcDbSpline
 62
253
  6
CONTINUOUS
 70
0
 71
3
 72
14
 73
10
 74
8
 42
0.0000001
 43
0.0000001
 44
0.0000000001
 12
0.0025651334
 22
8.0668960927
 32
0.0
 13
0.0019887598
 23
8.0668962322
 33
0.0
 40
0.0
 40
0.0
 40
0.0
 40
0.0
 40
0.1795449128
 40
0.3595752244
 40
0.5242393674
 40
0.6711210887
 40
0.804268656
 40
0.9253369791
 40
1.0
 40
1.0
 40
1.0
 40
1.0
 10
-59.235457639
 20
13.0226918753
 30
0.0
 10
-59.2353041201
 20
13.5054819271
 30
0.0
 10
-59.2348407895
 20
14.4723671975
 30
0.0
 10
-59.2338239051
 20
15.8820284
 30
0.0
 10
-59.2328992617
 20
17.2038594463
 30
0.0
 10
-59.2322129914
 20
18.3996245483
 30
0.0
 10
-59.2318664438
 20
19.4781621347
 30
0.0
 10
-59.2317092457
 20
20.3625061652
 30
0.0
 10
-59.2316115715
 20
20.8888209797
 30
0.0
 10
-59.2315620759
 20
21.0895872603
 30
0.0
 11
-59.235457639
 21
13.0226918753
 31
0.0
 11
-59.2347830355
 21
14.471061939
 31
0.0
 11
-59.2337996235
 21
15.9233474895
 31
0.0
 11
-59.2328952068
 21
17.2516757737
 31
0.0
 11
-59.2322441272
 21
18.4365552321
 31
0.0
 11
-59.231882927
 21
19.5106428097
 31
0.0
 11
-59.2316854892
 21
20.4872884169
 31
0.0
 11
-59.2315620759
 21
21.0895872603
 31
0.0
  0
LINE
  5
3CE
100
AcDbEntity
  8
RACCORDO
100
AcDbLine
 62
253
  6
CONTINUOUS
 10
-59.2315620759
 20
21.0895872603
 11
-59.2310314464
 21
22.19560921
  0
SPLINE
  5
3CF
100
AcDbEntity
  8
RACCORDO
100
AcDbSpline
 62
253
  6
CONTINUOUS
 70
0
 71
3
 72
12
 73
8
 74
6
 42
0.0000001
 43
0.0000001
 44
0.0000000001
 12
-0.0107954429
 22
0.8114891348
 32
0.0
 13
-0.018859535
 23
0.8112461324
 33
0.0
 40
0.0
 40
0.0
 40
0.0
 40
0.0
 40
0.1160241743
 40
0.4334696235
 40
0.7057992897
 40
0.9333061527
 40
1.0
 40
1.0
 40
1.0
 40
1.0
 10
-59.2344622126
 20
22.7321306138
 30
0.0
 10
-59.2348797234
 20
22.7635147327
 30
0.0
 10
-59.236565975
 20
22.8807650973
 30
0.0
 10
-59.2400196559
 20
23.0716683848
 30
0.0
 10
-59.2447863739
 20
23.2927032427
 30
0.0
 10
-59.2483338732
 20
23.445931334
 30
0.0
 10
-59.2501843577
 20
23.5254842788
 30
0.0
 10
-59.2506036293
 20
23.5435193206
 30
0.0
 11
-59.2344622126
 21
22.7321306138
 31
0.0
 11
-59.2358135745
 21
22.8262816633
 31
0.0
 11
-59.2404008816
 21
23.0838666062
 31
0.0
 11
-59.2451115103
 21
23.3048280561
 31
0.0
 11
-59.2493457907
 21
23.4894147934
 31
0.0
 11
-59.2506036293
 21
23.5435193206
 31
0.0
  0
SPLINE
  5
3D0
100
AcDbEntity
  8
RACCORDO
100
AcDbSpline
 62
253
  6
CONTINUOUS
 70
0
 71
3
 72
15
 73
11
 74
9
 42
0.0000001
 43
0.0000001
 44
0.0000000001
 12
-0.0150400126
 22
0.6469487224
 32
0.0
 13
-0.4180624027
 23
-0.4940542666
 33
0.0
 40
0.0
 40
0.0
 40
0.0
 40
0.0
 40
0.1525976927
 40
0.3519418227
 40
0.5232767838
 40
0.6695125055
 40
0.791414879
 40
0.8854954083
 40
0.9522269192
 40
1.0
 40
1.0
 40
1.0
 40
1.0
 10
-59.2506036293
 20
23.5435193206
 30
0.0
 10
-59.2513686531
 20
23.5764269481
 30
0.0
 10
-59.253131336
 20
23.6523290602
 30
0.0
 10
-59.255715088
 20
23.7652870317
 30
0.0
 10
-59.2581388311
 20
23.876433852
 30
0.0
 10
-59.2596680307
 20
23.9722379254
 30
0.0
 10
-59.261829039
 20
24.0475206093
 30
0.0
 10
-59.261087171
 20
24.1157747788
 30
0.0
 10
-59.2668379613
 20
24.1438181182
 30
0.0
 10
-59.2594332394
 20
24.1983631761
 30
0.0
 10
-59.2660906157
 20
24.1904956779
 30
0.0
 11
-59.2506036293
 21
23.5435193206
 31
0.0
 11
-59.2528925237
 21
23.6422606417
 31
0.0
 11
-59.2558267176
 21
23.7712424766
 31
0.0
 11
-59.2581447377
 21
23.8821059613
 31
0.0
 11
-59.259951001
 21
23.9767322511
 31
0.0
 11
-59.2614040021
 21
24.0556138933
 31
0.0
 11
-59.2626773231
 21
24.1164893475
 31
0.0
 11
-59.2637735119
 21
24.159663962
 31
0.0
 11
-59.2660906157
 21
24.1904956779
 31
0.0
  0
SPLINE
  5
3D1
100
AcDbEntity
  8
RACCORDO
100
AcDbSpline
 62
253
  6
CONTINUOUS
 70
0
 71
3
 72
8
 73
4
 74
2
 42
0.0000001
 43
0.0000001
 44
0.0000000001
 12
0.0216568277
 22
-0.0219077712
 32
0.0
 13
0.001855152
 23
0.0392722496
 33
0.0
 40
0.0
 40
0.0
 40
0.0
 40
0.0
 40
1.0
 40
1.0
 40
1.0
 40
1.0
 10
-58.6585951796
 20
-25.9989002741
 30
0.0
 10
-58.651376237
 20
-26.0062028645
 30
0.0
 10
-58.6487940369
 20
-25.9988418171
 30
0.0
 10
-58.6481756529
 20
-25.9857510673
 30
0.0
 11
-58.6585951796
 21
-25.9989002741
 31
0.0
 11
-58.6481756529
 21
-25.9857510673
 31
0.0
  0
SPLINE
  5
3D2
100
AcDbEntity
  8
RACCORDO
100
AcDbSpline
 62
253
  6
CONTINUOUS
 70
0
 71
3
 72
11
 73
7
 74
5
 42
0.0000001
 43
0.0000001
 44
0.0000000001
 12
0.0222296629
 22
0.4705861712
 32
0.0
 13
0.0149134092
 23
0.3636166719
 33
0.0
 40
0.0
 40
0.0
 40
0.0
 40
0.0
 40
0.0849018398
 40
0.3052413055
 40
0.6122463117
 40
1.0
 40
1.0
 40
1.0
 40
1.0
 10
-58.6481756529
 20
-25.9857510673
 30
0.0
 10
-58.6475465399
 20
-25.97243319
 30
0.0
 10
-58.6525922219
 20
-25.9032318201
 30
0.0
 10
-58.6424404531
 20
-25.8545691391
 30
0.0
 10
-58.6410582466
 20
-25.7295163938
 30
0.0
 10
-58.6372779512
 20
-25.6469277538
 30
0.0
 10
-58.6353503747
 20
-25.5999298519
 30
0.0
 11
-58.6481756529
 21
-25.9857510673
 31
0.0
 11
-58.6495714895
 21
-25.9374137517
 31
0.0
 11
-58.6452649439
 21
-25.8561939446
 31
0.0
 11
-58.6406469658
 21
-25.7429633258
 31
0.0
 11
-58.6353503747
 21
-25.5999298519
 31
0.0
  0
SPLINE
  5
3D3
100
AcDbEntity
  8
RACCORDO
100
AcDbSpline
 62
253
  6
CONTINUOUS
 70
0
 71
3
 72
13
 73
9
 74
7
 42
0.0000001
 43
0.0000001
 44
0.0000000001
 12
0.0578926133
 22
1.5141967405
 32
0.0
 13
0.0551998366
 23
1.5175535946
 33
0.0
 40
0.0
 40
0.0
 40
0.0
 40
0.0
 40
0.08309276
 40
0.2396284933
 40
0.4347738419
 40
0.6652728296
 40
0.9168646636
 40
1.0
 40
1.0
 40
1.0
 40
1.0
 10
-58.6331464243
 20
-25.5440968416
 30
0.0
 10
-58.6315429386
 20
-25.5021572462
 30
0.0
 10
-58.6271293991
 20
-25.3799551381
 30
0.0
 10
-58.6179050706
 20
-25.1607327891
 30
0.0
 10
-58.6047034856
 20
-24.866073485
 30
0.0
 10
-58.5896659397
 20
-24.5236876735
 30
0.0
 10
-58.5780388422
 20
-24.2377933271
 30
0.0
 10
-58.5717226666
 20
-24.0684753691
 30
0.0
 10
-58.570192981
 20
-24.0264212596
 30
0.0
 11
-58.6331464243
 21
-25.5440968416
 31
0.0
 11
-58.6284014685
 21
-25.4175739537
 31
0.0
 11
-58.6186225196
 21
-25.1800675592
 31
0.0
 11
-58.6055473831
 21
-24.8840178248
 31
0.0
 11
-58.590314324
 21
-24.5343247915
 31
0.0
 11
-58.5748952556
 21
-24.1525808195
 31
0.0
 11
-58.570192981
 21
-24.0264212596
 31
0.0
  0
SPLINE
  5
3D4
100
AcDbEntity
  8
RACCORDO
100
AcDbSpline
 62
253
  6
CONTINUOUS
 70
0
 71
3
 72
12
 73
8
 74
6
 42
0.0000001
 43
0.0000001
 44
0.0000000001
 12
0.0578502808
 22
1.5904195921
 32
0.0
 13
0.0032094519
 23
1.5914684234
 33
0.0
 40
0.0
 40
0.0
 40
0.0
 40
0.0
 40
0.154964757
 40
0.3734447305
 40
0.59698571
 40
0.8362681467
 40
1.0
 40
1.0
 40
1.0
 40
1.0
 10
-58.570192981
 20
-24.0264212596
 30
0.0
 10
-58.5672047294
 20
-23.9442682644
 30
0.0
 10
-58.5603625297
 20
-23.7462807731
 30
0.0
 10
-58.5510795151
 20
-23.4297187253
 30
0.0
 10
-58.5431827158
 20
-23.068377931
 30
0.0
 10
-58.5387777614
 20
-22.7360221699
 30
0.0
 10
-58.5376385281
 20
-22.5222281568
 30
0.0
 10
-58.5374633649
 20
-22.435370132
 30
0.0
 11
-58.570192981
 21
-24.0264212596
 31
0.0
 11
-58.5617045003
 21
-23.7799477912
 31
0.0
 11
-58.5515857515
 21
-23.4323916601
 31
0.0
 11
-58.5438575407
 21
-23.0767177946
 31
0.0
 11
-58.5388438192
 21
-22.6959409948
 31
0.0
 11
-58.5374633649
 21
-22.435370132
 31
0.0
  0
SPLINE
  5
3D5
100
AcDbEntity
  8
RACCORDO
100
AcDbSpline
 62
253
  6
CONTINUOUS
 70
0
 71
3
 72
17
 73
13
 74
11
 42
0.0000001
 43
0.0000001
 44
0.0000000001
 12
-0.0155004877
 22
10.4982240793
 32
0.0
 13
0.0040770312
 23
10.4982347308
 33
0.0
 40
0.0
 40
0.0
 40
0.0
 40
0.0
 40
0.0691152071
 40
0.1443357402
 40
0.2255284599
 40
0.3127241503
 40
0.4062949226
 40
0.5069308296
 40
0.6155724236
 40
0.732762444
 40
0.8599663911
 40
1.0
 40
1.0
 40
1.0
 40
1.0
 10
-58.5374195269
 20
-22.3034794928
 30
0.0
 10
-58.5377766334
 20
-22.0616171822
 30
0.0
 10
-58.5378964872
 20
-21.5565267973
 30
0.0
 10
-58.5379420709
 20
-20.7673099204
 30
0.0
 10
-58.538262136
 20
-19.9148219073
 30
0.0
 10
-58.539165916
 20
-18.9981192026
 30
0.0
 10
-58.5409743463
 20
-18.013377975
 30
0.0
 10
-58.5435774708
 20
-16.953590299
 30
0.0
 10
-58.5467899689
 20
-15.8111505123
 30
0.0
 10
-58.550132569
 20
-14.5757381622
 30
0.0
 10
-58.5525958324
 20
-13.230469753
 30
0.0
 10
-58.5530299662
 20
-12.2952951096
 30
0.0
 10
-58.552839659
 20
-11.8052598775
 30
0.0
 11
-58.5374195269
 21
-22.3034794928
 31
0.0
 11
-58.5378706246
 21
-21.5778919105
 31
0.0
 11
-58.5379810797
 21
-20.7882090462
 31
0.0
 11
-58.5383378806
 21
-19.9358288265
 31
0.0
 11
-58.5392691102
 21
-19.0204284055
 31
0.0
 11
-58.5410267273
 21
-18.038101973
 31
0.0
 11
-58.5435688932
 21
-16.9816055773
 31
0.0
 11
-58.546686408
 21
-15.8410647966
 31
0.0
 11
-58.5498657703
 21
-14.6107804697
 31
0.0
 11
-58.5522240158
 21
-13.2753655559
 31
0.0
 11
-58.552839659
 21
-11.8052598775
 31
0.0
  0
SPLINE
  5
3D6
100
AcDbEntity
  8
RACCORDO
100
AcDbSpline
 62
253
  6
CONTINUOUS
 70
0
 71
3
 72
37
 73
33
 74
31
 42
0.0000001
 43
0.0000001
 44
0.0000000001
 12
-1.9510980163
 22
32.7585748776
 32
0.0
 13
0.0104915948
 23
32.8166253811
 33
0.0
 40
0.0
 40
0.0
 40
0.0
 40
0.0
 40
0.0097771979
 40
0.0197163296
 40
0.0298748319
 40
0.0403538712
 40
0.0513042035
 40
0.0628943086
 40
0.0753016002
 40
0.0887562758
 40
0.1034528407
 40
0.1194635003
 40
0.1368427325
 40
0.1557986514
 40
0.1766373109
 40
0.1996017789
 40
0.2249176981
 40
0.2526474658
 40
0.2827648305
 40
0.3154633739
 40
0.351024639
 40
0.3897103531
 40
0.4317859138
 40
0.4774668432
 40
0.5269148254
 40
0.5802900312
 40
0.6378271984
 40
0.6998308312
 40
0.7666744612
 40
0.8386970221
 40
0.9162816013
 40
1.0
 40
1.0
 40
1.0
 40
1.0
 10
-55.8844102289
 20
-44.6206045103
 30
0.0
 10
-55.890768986
 20
-44.5138421543
 30
0.0
 10
-55.9025706389
 20
-44.2984847375
 30
0.0
 10
-55.916046543
 20
-43.9719567141
 30
0.0
 10
-55.9260830365
 20
-43.637627384
 30
0.0
 10
-55.9335900382
 20
-43.2921720109
 30
0.0
 10
-55.9413672336
 20
-42.9310599206
 30
0.0
 10
-55.9484168298
 20
-42.5488352393
 30
0.0
 10
-55.9546742829
 20
-42.1391988352
 30
0.0
 10
-55.960021173
 20
-41.6955654987
 30
0.0
 10
-55.9642585794
 20
-41.2125017539
 30
0.0
 10
-55.9673592412
 20
-40.686498544
 30
0.0
 10
-55.9695036365
 20
-40.1138980261
 30
0.0
 10
-55.971186024
 20
-39.4884829837
 30
0.0
 10
-55.974128536
 20
-38.801975744
 30
0.0
 10
-55.9769365064
 20
-38.0458962154
 30
0.0
 10
-55.9784609596
 20
-37.214431032
 30
0.0
 10
-55.977670216
 20
-36.3047204754
 30
0.0
 10
-55.9760221368
 20
-35.314254093
 30
0.0
 10
-55.9742482146
 20
-34.2381197509
 30
0.0
 10
-55.9737848793
 20
-33.0682557301
 30
0.0
 10
-55.9747841365
 20
-31.7958180475
 30
0.0
 10
-55.9772555615
 20
-30.4126846291
 30
0.0
 10
-55.9797817786
 20
-28.9118241128
 30
0.0
 10
-55.9824313375
 20
-27.2873581703
 30
0.0
 10
-55.9845388621
 20
-25.533197382
 30
0.0
 10
-55.985997036
 20
-23.6416912067
 30
0.0
 10
-55.9868888987
 20
-21.6028552629
 30
0.0
 10
-55.9872779076
 20
-19.4055652497
 30
0.0
 10
-55.9872563045
 20
-17.0378371724
 30
0.0
 10
-55.9868182671
 20
-14.4855181377
 30
0.0
 10
-55.9863003544
 20
-12.7210449877
 30
0.0
 10
-55.9860075746
 20
-11.8052598786
 30
0.0
 11
-55.8844102289
 21
-44.6206045103
 31
0.0
 11
-55.9017585943
 21
-44.3002192043
 31
0.0
 11
-55.9153437983
 21
-43.9743334636
 31
0.0
 11
-55.9255248623
 21
-43.6411211833
 31
0.0
 11
-55.9334671648
 21
-43.29732619
 31
0.0
 11
-55.9410366564
 21
-42.9380529504
 31
0.0
 11
-55.9480580873
 21
-42.557769608
 31
0.0
 11
-55.9542894797
 21
-42.1506518332
 31
0.0
 11
-55.9596267256
 21
-41.7091470218
 31
0.0
 11
-55.963911131
 21
-41.2268743621
 31
0.0
 11
-55.9670904644
 21
-40.7014681351
 31
0.0
 11
-55.9693431184
 21
-40.1311448032
 31
0.0
 11
-55.9712882788
 21
-39.509078524
 31
0.0
 11
-55.9739667989
 21
-38.8252292512
 31
0.0
 11
-55.9766163008
 21
-38.0716175273
 31
0.0
 11
-55.9780553534
 21
-37.2408356952
 31
0.0
 11
-55.9775773617
 21
-36.3308383751
 31
0.0
 11
-55.9760715702
 21
-35.3424891967
 31
0.0
 11
-55.9745144169
 21
-34.2694344227
 31
0.0
 11
-55.9740185227
 21
-33.1024337524
 31
0.0
 11
-55.9749580321
 21
-31.8328994486
 31
0.0
 11
-55.9771622182
 21
-30.4521232231
 31
0.0
 11
-55.9796999069
 21
-28.9530313482
 31
0.0
 11
-55.9822495233
 21
-27.3303173604
 31
0.0
 11
-55.9843631927
 21
-25.5787244138
 31
0.0
 11
-55.9858583507
 21
-23.6905492473
 31
0.0
 11
-55.986780749
 21
-21.655799362
 31
0.0
 11
-55.9872023551
 21
-19.4622169256
 31
0.0
 11
-55.9871952272
 21
-17.0986794066
 31
0.0
 11
-55.9867800223
 21
-14.5526152377
 31
0.0
 11
-55.9860075746
 21
-11.8052598786
 31
0.0
  0
SPLINE
  5
3D7
100
AcDbEntity
  8
0
100
AcDbSpline
 62
7
  6
CONTINUOUS
 70
0
 71
3
 72
8
 73
4
 74
2
 42
0.0000001
 43
0.0000001
 44
0.0000000001
 12
0.0186856134
 22
-0.0072183724
 32
0.0
 13
0.0209608888
 23
-0.0823802444
 33
0.0
 40
0.0
 40
0.0
 40
0.0
 40
0.0
 40
1.0
 40
1.0
 40
1.0
 40
1.0
 10
-58.6974859327
 20
-26.0631878916
 30
0.0
 10
-58.6912573949
 20
-26.0655940157
 30
0.0
 10
-58.6816152292
 20
-26.0939890754
 30
0.0
 10
-58.6746282662
 20
-26.1214491568
 30
0.0
 11
-58.6974859327
 21
-26.0631878916
 31
0.0
 11
-58.6746282662
 21
-26.1214491568
 31
0.0
  0
SPLINE
  5
3D8
100
AcDbEntity
  8
0
100
AcDbSpline
 62
7
  6
CONTINUOUS
 70
0
 71
3
 72
8
 73
4
 74
2
 42
0.0000001
 43
0.0000001
 44
0.0000000001
 12
0.0101209653
 22
-0.0397773015
 32
0.0
 13
0.0043571244
 23
-0.0293766242
 33
0.0
 40
0.0
 40
0.0
 40
0.0
 40
0.0
 40
1.0
 40
1.0
 40
1.0
 40
1.0
 10
-58.6746282662
 20
-26.1214491568
 30
0.0
 10
-58.6712546112
 20
-26.1347082573
 30
0.0
 10
-58.668500001
 20
-26.1477493732
 30
0.0
 10
-58.6670476262
 20
-26.1575415812
 30
0.0
 11
-58.6746282662
 21
-26.1214491568
 31
0.0
 11
-58.6670476262
 21
-26.1575415812
 31
0.0
  0
SPLINE
  5
3D9
100
AcDbEntity
  8
0
100
AcDbSpline
 62
7
  6
CONTINUOUS
 70
0
 71
3
 72
14
 73
10
 74
8
 42
0.0000001
 43
0.0000001
 44
0.0000000001
 12
-0.0392342059
 22
0.5880673726
 32
0.0
 13
-0.1362979676
 23
0.5733981354
 33
0.0
 40
0.0
 40
0.0
 40
0.0
 40
0.0
 40
0.1341612559
 40
0.2772531549
 40
0.4289480563
 40
0.592162919
 40
0.7601065219
 40
0.9083302376
 40
1.0
 40
1.0
 40
1.0
 40
1.0
 10
-58.4938672813
 20
-28.2075555091
 30
0.0
 10
-58.4956218514
 20
-28.1812568901
 30
0.0
 10
-58.4992412959
 20
-28.1269084464
 30
0.0
 10
-58.5048925781
 20
-28.0428285648
 30
0.0
 10
-58.5110366156
 20
-27.9530570983
 30
0.0
 10
-58.5178633463
 20
-27.8584552894
 30
0.0
 10
-58.5248547671
 20
-27.764488211
 30
0.0
 10
-58.5326230538
 20
-27.68486634
 30
0.0
 10
-58.5368717928
 20
-27.6377148078
 30
0.0
 10
-58.5410365935
 20
-27.6201937175
 30
0.0
 11
-58.4938672813
 21
-28.2075555091
 31
0.0
 11
-58.4991325058
 21
-28.1286597529
 31
0.0
 11
-58.5047959149
 21
-28.0445153803
 31
0.0
 11
-58.5109349397
 21
-27.9553212584
 31
0.0
 11
-58.5178323608
 21
-27.8593741454
 31
0.0
 11
-58.5255405336
 21
-27.7606930242
 31
0.0
 11
-58.5335778576
 21
-27.6737042285
 31
0.0
 11
-58.5410365935
 21
-27.6201937175
 31
0.0
  0
SPLINE
  5
3DA
100
AcDbEntity
  8
0
100
AcDbSpline
 62
7
  6
CONTINUOUS
 70
0
 71
3
 72
8
 73
4
 74
2
 42
0.0000001
 43
0.0000001
 44
0.0000000001
 12
0.0124365104
 22
-0.0523199995
 32
0.0
 13
-0.0003450531
 23
0.095493484
 33
0.0
 40
0.0
 40
0.0
 40
0.0
 40
0.0
 40
1.0
 40
1.0
 40
1.0
 40
1.0
 10
-58.5410365935
 20
-27.6201937175
 30
0.0
 10
-58.5368910901
 20
-27.6376337173
 30
0.0
 10
-58.5369259593
 20
-27.5983957432
 30
0.0
 10
-58.537040977
 20
-27.5665645819
 30
0.0
 11
-58.5410365935
 21
-27.6201937175
 31
0.0
 11
-58.537040977
 21
-27.5665645819
 31
0.0
  0
SPLINE
  5
3DB
100
AcDbEntity
  8
0
100
AcDbSpline
 62
7
  6
CONTINUOUS
 70
0
 71
3
 72
9
 73
5
 74
3
 42
0.0000001
 43
0.0000001
 44
0.0000000001
 12
-0.0015862992
 22
0.4390085365
 32
0.0
 13
-0.0058115745
 23
0.2434785538
 33
0.0
 40
0.0
 40
0.0
 40
0.0
 40
0.0
 40
0.6954716839
 40
1.0
 40
1.0
 40
1.0
 40
1.0
 10
-58.537040977
 20
-27.5665645819
 30
0.0
 10
-58.5374087191
 20
-27.4647919132
 30
0.0
 10
-58.53911556
 20
-27.4273259984
 30
0.0
 10
-58.5409543374
 20
-27.3525766348
 30
0.0
 10
-58.5415442671
 20
-27.3278612635
 30
0.0
 11
-58.537040977
 21
-27.5665645819
 31
0.0
 11
-58.5398466533
 21
-27.3946456568
 31
0.0
 11
-58.5415442671
 21
-27.3278612635
 31
0.0
  0
SPLINE
  5
3DC
100
AcDbEntity
  8
0
100
AcDbSpline
 62
7
  6
CONTINUOUS
 70
0
 71
3
 72
9
 73
5
 74
3
 42
0.0000001
 43
0.0000001
 44
0.0000000001
 12
-0.0178174915
 22
0.3866318286
 32
0.0
 13
-0.0270224853
 23
0.3861359996
 33
0.0
 40
0.0
 40
0.0
 40
0.0
 40
0.0
 40
0.4986967227
 40
1.0
 40
1.0
 40
1.0
 40
1.0
 10
-58.5591414002
 20
-26.8260336455
 30
0.0
 10
-58.5621032417
 20
-26.7617629702
 30
0.0
 10
-58.5685943237
 20
-26.6312718143
 30
0.0
 10
-58.5770514603
 20
-26.5025110341
 30
0.0
 10
-58.5815669471
 20
-26.4379872868
 30
0.0
 11
-58.5591414002
 21
-26.8260336455
 31
0.0
 11
-58.569066359
 21
-26.6320422884
 31
0.0
 11
-58.5815669471
 21
-26.4379872868
 31
0.0
  0
SPLINE
  5
3DD
100
AcDbEntity
  8
0
100
AcDbSpline
 62
7
  6
CONTINUOUS
 70
0
 71
3
 72
9
 73
5
 74
3
 42
0.0000001
 43
0.0000001
 44
0.0000000001
 12
-0.0156788753
 22
0.2240422422
 32
0.0
 13
-0.0250001552
 23
0.2236022803
 33
0.0
 40
0.0
 40
0.0
 40
0.0
 40
0.0
 40
0.3848656253
 40
1.0
 40
1.0
 40
1.0
 40
1.0
 10
-58.5815669471
 20
-26.4379872868
 30
0.0
 10
-58.5835783672
 20
-26.4092452342
 30
0.0
 10
-58.5889469028
 20
-26.3345770944
 30
0.0
 10
-58.5945548362
 20
-26.259696817
 30
0.0
 10
-58.5996809878
 20
-26.213848334
 30
0.0
 11
-58.5815669471
 21
-26.4379872868
 31
0.0
 11
-58.5877461568
 21
-26.3517394114
 31
0.0
 11
-58.5996809878
 21
-26.213848334
 31
0.0
  0
SPLINE
  5
3DE
100
AcDbEntity
  8
RACCORDO
100
AcDbSpline
 62
253
  6
CONTINUOUS
 70
0
 71
3
 72
10
 73
6
 74
4
 42
0.0000001
 43
0.0000001
 44
0.0000000001
 12
0.9314221987
 22
-0.0871775619
 32
0.0
 13
0.933184046
 23
-0.0656869531
 33
0.0
 40
0.0
 40
0.0
 40
0.0
 40
0.0
 40
0.1801068335
 40
0.5375709117
 40
1.0
 40
1.0
 40
1.0
 40
1.0
 10
-55.8898228501
 20
44.5133341796
 30
0.0
 10
-55.8339043492
 20
44.5081004214
 30
0.0
 10
-55.666685959
 20
44.496109915
 30
0.0
 10
-55.3557362932
 20
44.4728304458
 30
0.0
 10
-55.1006957391
 20
44.4548652987
 30
0.0
 10
-54.9568519232
 20
44.4447401128
 30
0.0
 11
-55.8898228501
 21
44.5133341796
 31
0.0
 11
-55.721862061
 21
44.5000070606
 31
0.0
 11
-55.3883570607
 21
44.4754871629
 31
0.0
 11
-54.9568519232
 21
44.4447401128
 31
0.0
  0
SPLINE
  5
3DF
100
AcDbEntity
  8
0
100
AcDbSpline
 62
7
  6
CONTINUOUS
 70
0
 71
3
 72
9
 73
5
 74
3
 42
0.0000001
 43
0.0000001
 44
0.0000000001
 12
-0.0142523987
 22
0.0959982983
 32
0.0
 13
-0.0347497834
 23
-0.0190309611
 33
0.0
 40
0.0
 40
0.0
 40
0.0
 40
0.0
 40
0.989028348
 40
1.0
 40
1.0
 40
1.0
 40
1.0
 10
-58.6069518253
 20
-26.1575088394
 30
0.0
 10
-58.6116505007
 20
-26.1258604933
 30
0.0
 10
-58.6152694385
 20
-26.058094175
 30
0.0
 10
-58.6267713008
 20
-26.0636520271
 30
0.0
 10
-58.6268983883
 20
-26.0637216275
 30
0.0
 11
-58.6069518253
 21
-26.1575088394
 31
0.0
 11
-58.6265198608
 21
-26.0635388961
 31
0.0
 11
-58.6268983883
 21
-26.0637216275
 31
0.0
  0
SPLINE
  5
3E0
100
AcDbEntity
  8
RACCORDO
100
AcDbSpline
 62
253
  6
CONTINUOUS
 70
0
 71
3
 72
10
 73
6
 74
4
 42
0.0000001
 43
0.0000001
 44
0.0000000001
 12
0.931950797
 22
0.0830387379
 32
0.0
 13
0.9335475763
 23
0.0625830879
 33
0.0
 40
0.0
 40
0.0
 40
0.0
 40
0.0
 40
0.1799085465
 40
0.5374013034
 40
1.0
 40
1.0
 40
1.0
 40
1.0
 10
-55.8844137296
 20
-44.6206047424
 30
0.0
 10
-55.8285250918
 20
-44.6156249495
 30
0.0
 10
-55.6612940646
 20
-44.604209872
 30
0.0
 10
-55.3502129143
 20
-44.582029815
 30
0.0
 10
-55.0950115768
 20
-44.5649101602
 30
0.0
 10
-54.9510589461
 20
-44.5552598753
 30
0.0
 11
-55.8844137296
 21
-44.6206047424
 31
0.0
 11
-55.7165617745
 21
-44.6079254402
 31
0.0
 11
-55.3828929833
 21
-44.584564401
 31
0.0
 11
-54.9510589461
 21
-44.5552598753
 31
0.0
  0
ELLIPSE
  5
3E1
100
AcDbEntity
  8
RACCORDO
100
AcDbEllipse
 62
7
  6
CONTINUOUS
 10
57.0431314794
 20
4.1465333514
 30
0.0
 11
0.0
 21
0.5
 31
0.0
 40
0.0524077793
 41
-3.0106929597
 42
-1.5707963268
  0
ELLIPSE
  5
3E2
100
AcDbEntity
  8
RACCORDO
100
AcDbEllipse
 62
7
  6
CONTINUOUS
 10
57.0431314794
 20
-4.2570531019
 30
0.0
 11
-0.0
 21
0.5
 31
0.0
 40
0.0524077793
 41
-1.5707963268
 42
-0.1308996939
  0
ELLIPSE
  5
3E3
100
AcDbEntity
  8
RACCORDO
100
AcDbEllipse
 62
7
  6
CONTINUOUS
 10
-37.9044607413
 20
-4.2570531019
 30
0.0
 11
-0.0
 21
0.5
 31
0.0
 40
0.0524077793
 41
0.1308996939
 42
1.5707963268
  0
ELLIPSE
  5
3E4
100
AcDbEntity
  8
RACCORDO
100
AcDbEllipse
 62
7
  6
CONTINUOUS
 10
-37.9044607413
 20
4.1465333514
 30
0.0
 11
-0.0
 21
0.5
 31
0.0
 40
0.0524077793
 41
-4.7123889804
 42
-3.2724923475
  0
ELLIPSE
  5
3E5
100
AcDbEntity
  8
RACCORDO
100
AcDbEllipse
 62
7
  6
CONTINUOUS
 10
-37.8520529621
 20
-3.1167716438
 30
0.0
 11
0.0
 21
0.5
 31
0.0
 40
0.0524077793
 41
-3.0106929597
 42
-1.5707963268
  0
ELLIPSE
  5
3E6
100
AcDbEntity
  8
RACCORDO
100
AcDbEllipse
 62
7
  6
CONTINUOUS
 10
-37.8520529621
 20
3.0062518932
 30
0.0
 11
-0.0
 21
0.5
 31
0.0
 40
0.0524077793
 41
-1.5707963268
 42
-0.1308996939
  0
ELLIPSE
  5
3E7
100
AcDbEntity
  8
RACCORDO
100
AcDbEllipse
 62
7
  6
CONTINUOUS
 10
56.9907237001
 20
3.0062518932
 30
0.0
 11
-0.0
 21
0.5
 31
0.0
 40
0.0524077793
 41
0.1308996939
 42
1.5707963268
  0
ELLIPSE
  5
3E8
100
AcDbEntity
  8
RACCORDO
100
AcDbEllipse
 62
7
  6
CONTINUOUS
 10
56.9907237001
 20
-3.1167716438
 30
0.0
 11
0.0
 21
0.5
 31
0.0
 40
0.0524077793
 41
-4.7123889804
 42
-3.2724923475
  0
ENDSEC
  0
SECTION
  2
OBJECTS
  0
DICTIONARY
  5
C
100
AcDbDictionary
280
0
281
1
  3
ACAD_GROUP
350
D
  3
ACAD_MLINESTYLE
350
17
  3
ACAD_LAYOUT
350
1A
  3
ACAD_PLOTSETTINGS
350
19
  3
ACAD_PLOTSTYLENAME
350
E
  0
DICTIONARY
  5
D
102
{ACAD_REACTORS
330
C
102
}
100
AcDbDictionary
280
0
281
1
  0
ACDBDICTIONARYWDFLT
  5
E
102
{ACAD_REACTORS
330
C
102
}
100
AcDbDictionary
281
1
  3
Normal
350
F
100
AcDbDictionaryWithDefault
340
F
  0
DICTIONARY
  5
17
102
{ACAD_REACTORS
330
C
102
}
100
AcDbDictionary
280
0
281
1
  3
Standard
350
18
  0
DICTIONARY
  5
19
102
{ACAD_REACTORS
330
C
102
}
100
AcDbDictionary
281
1
  0
DICTIONARY
  5
1A
102
{ACAD_REACTORS
330
C
102
}
100
AcDbDictionary
281
1
  3
Model
350
3E9
  3
Layout1
350
3EA
  0
ACDBPLACEHOLDER
  5
F
102
{ACAD_REACTORS
330
E
102
}
  0
MLINESTYLE
  5
18
102
{ACAD_REACTORS
330
17
102
}
100
AcDbMlineStyle
  2
STANDARD
 70
0
  3

 62
256
 51
90.0
 52
90.0
 71
2
 49
0.5
 62
256
  6
BYLAYER
 49
-0.5
 62
256
  6
BYLAYER
  0
LAYOUT
  5
3E9
102
{ACAD_REACTORS
330
1A
102
}
100
AcDbPlotSettings
  1

  2
none_device
  4
ISO_A4_(297.00_x_210.00_MM)
  6

 40
0.0
 41
0.0
 42
0.0
 43
0.0
 44
297.0
 45
210.0
 46
0.0
 47
0.0
 48
0.0
 49
0.0
140
0.0
141
0.0
142
1.0
143
1.0
 70
1024
 72
1
 73
0
 74
0
  7

 75
0
147
1.0
148
0.0
149
0.0
100
AcDbLayout
  1
Model
 70
0
 71
0
 10
0.0
 20
0.0
 11
297.0
 21
210.0
 12
0.0
 22
0.0
 32
0.0
 14
0.0
 24
0.0
 34
0.0
 15
0.0
 25
0.0
 35
0.0
146
0.0
 13
0.0
 23
0.0
 33
0.0
 16
1.0
 26
0.0
 36
0.0
 17
0.0
 27
1.0
 37
0.0
 76
0
330
20D
345
0
346
0
  0
LAYOUT
  5
3EA
102
{ACAD_REACTORS
330
1A
102
}
100
AcDbPlotSettings
  1

  2
none_device
  4
ISO_A4_(297.00_x_210.00_MM)
  6

 40
0.0
 41
0.0
 42
0.0
 43
0.0
 44
297.0
 45
210.0
 46
0.0
 47
0.0
 48
0.0
 49
0.0
140
0.0
141
0.0
142
1.0
143
1.0
 70
0
 72
1
 73
0
 74
0
  7

 75
0
147
1.0
148
0.0
149
0.0
100
AcDbLayout
  1
Layout1
 70
0
 71
1
 10
0.0
 20
0.0
 11
297.0
 21
210.0
 12
0.0
 22
0.0
 32
0.0
 14
0.0
 24
0.0
 34
0.0
 15
0.0
 25
0.0
 35
0.0
146
0.0
 13
0.0
 23
0.0
 33
0.0
 16
1.0
 26
0.0
 36
0.0
 17
0.0
 27
1.0
 37
0.0
 76
0
330
20E
345
0
346
0
  0
ENDSEC
  0
EOF
