  0
SECTION
  2
HEADER
  9
$ACADVER
  1
AC1015
  9
$DWGCODEPAGE
  3
ANSI_1252
  9
$EXTMAX
 10
297.0
 20
210.0
 30
0.0
  9
$EXTMIN
 10
0.0
 20
0.0
 30
0.0
  9
$LIMMIN
 10
0.0
 20
0.0
  9
$LIMMAX
 10
297.0
 20
210.0
  9
$VIEWCTR
 10
148.5
 20
105.0
  9
$VIEWSIZE
 40
210.0
  9
$CLAYER
  8
0
  9
$LTSCALE
 40
16.335
  9
$CELTYPE
  6
BYLAYER
  9
$DIMSCALE
 40
1.0
  9
$DIMASZ
 40
3.0
  9
$DIMEXO
 40
1.85625
  9
$DIMDLI
 40
11.286
  9
$DIMEXE
 40
5.346
  9
$DIMCEN
 40
2.673
  9
$DIMLFAC
 40
1.0
  9
$DIMBLK
  1
_FILLED
  9
$DIMTXT
 40
3.0
  9
$DIMTOL
 70
1
  9
$DIMLIM
 70
0
  9
$DIMTFAC
 40
1.0
  9
$DIMTP
 40
0.01
  9
$DIMTM
 40
0.01
  9
$PDMODE
 70
3
  9
$PDSIZE
 40
3.0
  9
$HANDSEED
  5
3B2
  9
$TILEMODE
 70
1
  9
$MEASUREMENT
 70
1
  9
$INSUNITS
 70
4
  0
ENDSEC
  0
SECTION
  2
CLASSES
  0
CLASS
  1
ACDBDICTIONARYWDFLT
  2
AcDbDictionaryWithDefault
  3
AutoCAD 2000
 90
0
280
0
281
0
  0
CLASS
  1
ACDBPLACEHOLDER
  2
AcDbPlaceHolder
  3
AutoCAD 2000
 90
0
280
0
281
0
  0
CLASS
  1
LAYOUT
  2
AcDbLayout
  3
AutoCAD 2000
 90
0
280
0
281
0
  0
ENDSEC
  0
SECTION
  2
TABLES
  0
TABLE
  2
VPORT
  5
8
100
AcDbSymbolTable
 70
2
  0
VPORT
  5
1F4
100
AcDbSymbolTableRecord
100
AcDbViewportTableRecord
  2
*ACTIVE
 70
0
 10
0.0
 20
0.0
 11
1.0
 21
1.0
 12
148.5
 22
105.0
 13
0.0
 23
0.0
 14
1.0
 24
1.0
 15
0.0
 25
0.0
 16
0.0
 26
0.0
 36
1.0
 17
0.0
 27
0.0
 37
0.0
 40
210.0
 41
1.4142857143
 42
50.0
 43
0.0
 44
0.0
 50
0.0
 51
0.0
 71
0
 72
100
 73
1
 74
1
 75
0
 76
0
 77
0
 78
0
  0
ENDTAB
  0
TABLE
  2
LTYPE
  5
5
100
AcDbSymbolTable
 70
6
  0
LTYPE
  5
14
100
AcDbSymbolTableRecord
100
AcDbLinetypeTableRecord
  2
BYBLOCK
 70
0
  3

 72
65
 73
0
 40
0.0
  0
LTYPE
  5
15
100
AcDbSymbolTableRecord
100
AcDbLinetypeTableRecord
  2
BYLAYER
 70
0
  3

 72
65
 73
0
 40
0.0
  0
LTYPE
  5
16
100
AcDbSymbolTableRecord
100
AcDbLinetypeTableRecord
  2
CONTINUOUS
 70
64
  3
Solid line
 72
65
 73
0
 40
0.0
  0
LTYPE
  5
1F5
100
AcDbSymbolTableRecord
100
AcDbLinetypeTableRecord
  2
CENTER
 70
64
  3
____ _ ____ _ ____ _ ____ _ ____ _ ____ _ ____
 72
65
 73
4
 40
0.6
 49
0.375
 74
0
 49
-0.075
 74
0
 49
0.075
 74
0
 49
-0.075
 74
0
  0
LTYPE
  5
1F6
100
AcDbSymbolTableRecord
100
AcDbLinetypeTableRecord
  2
HIDDEN
 70
64
  3
- - - - - - - - - - - - - - - - - - - -
 72
65
 73
2
 40
0.2
 49
0.1
 74
0
 49
-0.1
 74
0
  0
LTYPE
  5
1F7
100
AcDbSymbolTableRecord
100
AcDbLinetypeTableRecord
  2
PHANTOM
 70
64
  3
_____ _ _ _____ _ _ _____ _ _ _____
 72
65
 73
6
 40
0.8
 49
0.45
 74
0
 49
-0.05
 74
0
 49
0.1
 74
0
 49
-0.05
 74
0
 49
0.1
 74
0
 49
-0.05
 74
0
  0
LTYPE
  5
1F8
100
AcDbSymbolTableRecord
100
AcDbLinetypeTableRecord
  2
DOT
 70
64
  3
. . . . . . . . . . . . . . . . . . . .
 72
65
 73
2
 40
0.2
 49
0.1
 74
0
 49
-0.1
 74
0
  0
LTYPE
  5
1F9
100
AcDbSymbolTableRecord
100
AcDbLinetypeTableRecord
  2
DASHED
 70
64
  3
- - - - - - - - - - - - - - - - - - - -
 72
65
 73
2
 40
0.2
 49
0.1
 74
0
 49
-0.1
 74
0
  0
ENDTAB
  0
TABLE
  2
LAYER
  5
2
100
AcDbSymbolTable
 70
36
  0
LAYER
  5
10
100
AcDbSymbolTableRecord
100
AcDbLayerTableRecord
  2
0
 70
0
 62
7
  6
CONTINUOUS
370
-3
390
F
  0
LAYER
  5
1FA
100
AcDbSymbolTableRecord
100
AcDbLayerTableRecord
  2
DEFAULT_1
 70
0
 62
7
  6
CENTER
370
-3
390
F
  0
LAYER
  5
1FB
100
AcDbSymbolTableRecord
100
AcDbLayerTableRecord
  2
DEFAULT_2
 70
0
 62
7
  6
HIDDEN
370
-3
390
F
  0
LAYER
  5
1FC
100
AcDbSymbolTableRecord
100
AcDbLayerTableRecord
  2
DEFAULT_3
 70
0
 62
7
  6
PHANTOM
370
-3
390
F
  0
LAYER
  5
1FD
100
AcDbSymbolTableRecord
100
AcDbLayerTableRecord
  2
ASSI
 70
0
 62
7
  6
CONTINUOUS
370
-3
390
F
  0
LAYER
  5
1FE
100
AcDbSymbolTableRecord
100
AcDbLayerTableRecord
  2
COORDINATE
 70
0
 62
7
  6
CONTINUOUS
370
-3
390
F
  0
LAYER
  5
1FF
100
AcDbSymbolTableRecord
100
AcDbLayerTableRecord
  2
COPY_PUBLISH
 70
0
 62
7
  6
CONTINUOUS
370
-3
390
F
  0
LAYER
  5
200
100
AcDbSymbolTableRecord
100
AcDbLayerTableRecord
  2
COSMETIC
 70
0
 62
7
  6
CONTINUOUS
370
-3
390
F
  0
LAYER
  5
201
100
AcDbSymbolTableRecord
100
AcDbLayerTableRecord
  2
CURVE
 70
0
 62
7
  6
CONTINUOUS
370
-3
390
F
  0
LAYER
  5
202
100
AcDbSymbolTableRecord
100
AcDbLayerTableRecord
  2
DRAFT
 70
0
 62
7
  6
CONTINUOUS
370
-3
390
F
  0
LAYER
  5
203
100
AcDbSymbolTableRecord
100
AcDbLayerTableRecord
  2
IMPORT_IGES
 70
0
 62
7
  6
CONTINUOUS
370
-3
390
F
  0
LAYER
  5
204
100
AcDbSymbolTableRecord
100
AcDbLayerTableRecord
  2
INTF_1
 70
0
 62
7
  6
CONTINUOUS
370
-3
390
F
  0
LAYER
  5
205
100
AcDbSymbolTableRecord
100
AcDbLayerTableRecord
  2
PIANI
 70
0
 62
7
  6
CONTINUOUS
370
-3
390
F
  0
LAYER
  5
206
100
AcDbSymbolTableRecord
100
AcDbLayerTableRecord
  2
PUNTI
 70
0
 62
7
  6
CONTINUOUS
370
-3
390
F
  0
LAYER
  5
207
100
AcDbSymbolTableRecord
100
AcDbLayerTableRecord
  2
RACCORDO
 70
0
 62
7
  6
CONTINUOUS
370
-3
390
F
  0
LAYER
  5
208
100
AcDbSymbolTableRecord
100
AcDbLayerTableRecord
  2
SNAPLINE
 70
0
 62
7
  6
CONTINUOUS
370
-3
390
F
  0
LAYER
  5
209
100
AcDbSymbolTableRecord
100
AcDbLayerTableRecord
  2
SUPERFICI
 70
0
 62
7
  6
CONTINUOUS
370
-3
390
F
  0
LAYER
  5
20A
100
AcDbSymbolTableRecord
100
AcDbLayerTableRecord
  2
TRASH
 70
0
 62
7
  6
CONTINUOUS
370
-3
390
F
  0
ENDTAB
  0
TABLE
  2
STYLE
  5
3
100
AcDbSymbolTable
 70
1
  0
STYLE
  5
11
100
AcDbSymbolTableRecord
100
AcDbTextStyleTableRecord
  2
STANDARD
 70
0
 40
0.0
 41
0.8
 50
0.0
 71
0
 42
0.2
  3
txt
  4

  0
STYLE
  5
20B
100
AcDbSymbolTableRecord
100
AcDbTextStyleTableRecord
  2
TEXTSTYLE_1
 70
0
 40
0.0
 41
0.8
 50
0.0
 71
0
 42
0.2
  3
gdt
  4

  0
ENDTAB
  0
TABLE
  2
VIEW
  5
6
100
AcDbSymbolTable
 70
0
  0
ENDTAB
  0
TABLE
  2
UCS
  5
7
100
AcDbSymbolTable
 70
0
  0
ENDTAB
  0
TABLE
  2
APPID
  5
9
100
AcDbSymbolTable
 70
1
  0
APPID
  5
20C
100
AcDbSymbolTableRecord
100
AcDbRegAppTableRecord
  2
ACAD
 70
0
  0
ENDTAB
  0
TABLE
  2
BLOCK_RECORD
  5
1
100
AcDbSymbolTable
 70
0
  0
BLOCK_RECORD
  5
20D
100
AcDbSymbolTableRecord
100
AcDbBlockTableRecord
  2
*Model_Space
  0
BLOCK_RECORD
  5
20E
100
AcDbSymbolTableRecord
100
AcDbBlockTableRecord
  2
*Paper_Space
  0
BLOCK_RECORD
  5
20F
100
AcDbSymbolTableRecord
100
AcDbBlockTableRecord
  2
_FILLED
  0
BLOCK_RECORD
  5
210
100
AcDbSymbolTableRecord
100
AcDbBlockTableRecord
  2
*D0
  0
BLOCK_RECORD
  5
211
100
AcDbSymbolTableRecord
100
AcDbBlockTableRecord
  2
*D1
  0
BLOCK_RECORD
  5
212
100
AcDbSymbolTableRecord
100
AcDbBlockTableRecord
  2
*D2
  0
ENDTAB
  0
TABLE
  2
DIMSTYLE
  5
A
100
AcDbSymbolTable
 70
1
100
AcDbDimStyleTable
 71
0
  0
DIMSTYLE
105
213
100
AcDbSymbolTableRecord
100
AcDbDimStyleTableRecord
  2
STANDARD
 70
0
  3

  4

 40
1.0
 41
3.0
 42
0.0625
 43
0.38
 44
0.18
 45
0.0
 46
0.0
 47
0.01
 48
0.01
140
3.0
141
0.09
142
0.0
143
25.4
144
1.0
145
0.0
146
1.0
147
0.09
 71
1.0
 72
0.0
 73
0
 74
0
 75
0
 76
0
 77
1
 78
8
170
0
171
2
172
0
173
0
174
0
175
0
176
0
177
0
178
0
270
2
271
2
272
2
273
2
274
2
275
0
280
0
281
0
282
0
283
1
284
8
285
0
286
0
287
3
288
0
340
11
341
20F
342
20F
343
20F
344
20F
  0
DIMSTYLE
105
214
100
AcDbSymbolTableRecord
100
AcDbDimStyleTableRecord
  2
DIMSTYLE_1
 70
0
  3

  4

 40
1.0
 41
3.0
 42
0.0625
 43
0.38
 44
0.18
 45
0.0
 46
0.0
 47
0.0
 48
0.0
140
3.0
141
0.09
142
0.0
143
25.4
144
1.0
145
0.0
146
1.0
147
0.09
 71
0.0
 72
0.0
 73
0
 74
0
 75
0
 76
0
 77
1
 78
8
170
0
171
2
172
0
173
0
174
0
175
0
176
0
177
0
178
0
270
2
271
2
272
2
273
2
274
2
275
0
280
0
281
0
282
0
283
1
284
8
285
0
286
0
287
3
288
0
340
11
341
20F
342
20F
343
20F
344
20F
  0
ENDTAB
  0
ENDSEC
  0
SECTION
  2
BLOCKS
  0
BLOCK
  5
20
100
AcDbEntity
  8
0
100
AcDbBlockBegin
  2
*Model_Space
 70
0
 10
0.0
 20
0.0
 30
0.0
  3
*Model_Space
  1

  0
ENDBLK
  5
21
100
AcDbEntity
  8
0
100
AcDbBlockEnd
  0
BLOCK
  5
1C
100
AcDbEntity
  8
0
100
AcDbBlockBegin
  2
*Paper_Space
 70
0
 10
0.0
 20
0.0
 30
0.0
  3
*Paper_Space
  1

  0
ENDBLK
  5
1D
100
AcDbEntity
  8
0
100
AcDbBlockEnd
  0
BLOCK
  5
215
100
AcDbEntity
  8
0
100
AcDbBlockBegin
  2
_FILLED
 70
64
 10
0.0
 20
0.0
  3
_FILLED
  1

  0
SOLID
  5
216
100
AcDbEntity
  8
0
  6
BYBLOCK
 62
0
100
AcDbTrace
 10
0.0
 20
0.0
 11
-1.0
 21
0.3166666667
 12
-1.0
 22
-0.3166666667
 13
-1.0
 23
-0.3166666667
  0
ENDBLK
  5
217
100
AcDbEntity
  8
0
  6
BYBLOCK
 62
0
100
AcDbBlockEnd
  0
BLOCK
  5
218
100
AcDbEntity
  8
0
100
AcDbBlockBegin
 62
7
  6
CONTINUOUS
  2
*D0
 70
65
 10
0.0
 20
0.0
  3
*D0
  1

  0
MTEXT
  5
219
100
AcDbEntity
  8
0
100
AcDbMText
 62
7
  6
CONTINUOUS
  7
STANDARD
 71
2
 72
1
 10
10.7494241164
 20
59.283037422
 30
0.0
 11
1.0
 21
0.0
 31
0.0
 44
0.9
  1
95
 40
3.0
 41
4.5
  0
LINE
  5
21A
100
AcDbEntity
  8
0
100
AcDbLine
 62
7
  6
CONTINUOUS
 10
58.2494241164
 20
45.033037422
 11
58.2494241164
 21
57.033037422
  0
LINE
  5
21B
100
AcDbEntity
  8
0
100
AcDbLine
 62
7
  6
CONTINUOUS
 10
-36.7505758836
 20
45.033037422
 11
-36.7505758836
 21
57.033037422
  0
LINE
  5
21C
100
AcDbEntity
  8
0
100
AcDbLine
 62
7
  6
CONTINUOUS
 10
58.2494241164
 20
55.533037422
 11
10.7494241164
 21
55.533037422
  0
LINE
  5
21D
100
AcDbEntity
  8
0
100
AcDbLine
 62
7
  6
CONTINUOUS
 10
-36.7505758836
 20
55.533037422
 11
10.7494241164
 21
55.533037422
  0
INSERT
  5
21E
100
AcDbEntity
  8
0
100
AcDbBlockReference
 62
7
  6
CONTINUOUS
  2
_FILLED
 10
58.2494241164
 20
55.533037422
 41
3.0
 42
3.0
 43
3.0
 50
0.0
  0
INSERT
  5
21F
100
AcDbEntity
  8
0
100
AcDbBlockReference
 62
7
  6
CONTINUOUS
  2
_FILLED
 10
-36.7505758836
 20
55.533037422
 41
3.0
 42
3.0
 43
3.0
 50
180.0
  0
ENDBLK
  5
220
100
AcDbEntity
  8
0
  6
BYBLOCK
 62
0
100
AcDbBlockEnd
  0
BLOCK
  5
221
100
AcDbEntity
  8
0
100
AcDbBlockBegin
 62
7
  6
CONTINUOUS
  2
*D1
 70
65
 10
0.0
 20
0.0
  3
*D1
  1

  0
MTEXT
  5
222
100
AcDbEntity
  8
0
100
AcDbMText
 62
7
  6
CONTINUOUS
  7
STANDARD
 71
2
 72
1
 10
62.4994241164
 20
0.033037422
 30
0.0
 11
0.0
 21
1.0
 31
0.0
 44
0.9
  1
95
 40
3.0
 41
4.5
  0
LINE
  5
223
100
AcDbEntity
  8
0
100
AcDbLine
 62
7
  6
CONTINUOUS
 10
55.7494241164
 20
47.533037422
 11
67.7494241164
 21
47.533037422
  0
LINE
  5
224
100
AcDbEntity
  8
0
100
AcDbLine
 62
7
  6
CONTINUOUS
 10
55.7494241164
 20
-47.466962578
 11
67.7494241164
 21
-47.466962578
  0
LINE
  5
225
100
AcDbEntity
  8
0
100
AcDbLine
 62
7
  6
CONTINUOUS
 10
66.2494241164
 20
47.533037422
 11
66.2494241164
 21
0.033037422
  0
LINE
  5
226
100
AcDbEntity
  8
0
100
AcDbLine
 62
7
  6
CONTINUOUS
 10
66.2494241164
 20
-47.466962578
 11
66.2494241164
 21
0.033037422
  0
INSERT
  5
227
100
AcDbEntity
  8
0
100
AcDbBlockReference
 62
7
  6
CONTINUOUS
  2
_FILLED
 10
66.2494241164
 20
47.533037422
 41
3.0
 42
3.0
 43
3.0
 50
90.0
  0
INSERT
  5
228
100
AcDbEntity
  8
0
100
AcDbBlockReference
 62
7
  6
CONTINUOUS
  2
_FILLED
 10
66.2494241164
 20
-47.466962578
 41
3.0
 42
3.0
 43
3.0
 50
270.0
  0
ENDBLK
  5
229
100
AcDbEntity
  8
0
  6
BYBLOCK
 62
0
100
AcDbBlockEnd
  0
BLOCK
  5
22A
100
AcDbEntity
  8
0
100
AcDbBlockBegin
 62
7
  6
CONTINUOUS
  2
*D2
 70
65
 10
0.0
 20
0.0
  3
*D2
  1

  0
MTEXT
  5
22B
100
AcDbEntity
  8
0
100
AcDbMText
 62
7
  6
CONTINUOUS
  7
STANDARD
 71
2
 72
1
 10
-52.3088858412
 20
59.283037422
 30
0.0
 11
1.0
 21
0.0
 31
0.0
 44
0.9
  1
9
 40
3.0
 41
2.3571428571
  0
LINE
  5
22C
100
AcDbEntity
  8
0
100
AcDbLine
 62
7
  6
CONTINUOUS
 10
-47.8090895357
 20
48.033037422
 11
-47.8090895357
 21
57.033037422
  0
LINE
  5
22D
100
AcDbEntity
  8
0
100
AcDbLine
 62
7
  6
CONTINUOUS
 10
-56.8086821467
 20
24.1826149568
 11
-56.8086821467
 21
57.033037422
  0
LINE
  5
22E
100
AcDbEntity
  8
0
100
AcDbLine
 62
7
  6
CONTINUOUS
 10
-47.8090895357
 20
55.533037422
 11
-52.3088858412
 21
55.533037422
  0
LINE
  5
22F
100
AcDbEntity
  8
0
100
AcDbLine
 62
7
  6
CONTINUOUS
 10
-56.8086821467
 20
55.533037422
 11
-52.3088858412
 21
55.533037422
  0
INSERT
  5
230
100
AcDbEntity
  8
0
100
AcDbBlockReference
 62
7
  6
CONTINUOUS
  2
_FILLED
 10
-47.8090895357
 20
55.533037422
 41
3.0
 42
3.0
 43
3.0
  0
INSERT
  5
231
100
AcDbEntity
  8
0
100
AcDbBlockReference
 62
7
  6
CONTINUOUS
  2
_FILLED
 10
-56.8086821467
 20
55.533037422
 41
3.0
 42
3.0
 43
3.0
 50
180.0
  0
ENDBLK
  5
232
100
AcDbEntity
  8
0
  6
BYBLOCK
 62
0
100
AcDbBlockEnd
  0
ENDSEC
  0
SECTION
  2
ENTITIES
  0
DIMENSION
  5
233
100
AcDbEntity
  8
0
100
AcDbDimension
 62
7
  6
CONTINUOUS
  2
*D0
 10
-36.7505758836
 20
55.533037422
 11
8.4994241164
 21
57.783037422
 70
160
 71
2
 42
95.0
  3
DIMSTYLE_1
100
AcDbAlignedDimension
 13
58.2494241164
 23
45.033037422
 14
-36.7505758836
 24
45.033037422
 50
180.0
100
AcDbRotatedDimension
  0
DIMENSION
  5
234
100
AcDbEntity
  8
0
100
AcDbDimension
 62
7
  6
CONTINUOUS
  2
*D1
 10
66.2494241164
 20
-47.466962578
 11
65.0075897527
 21
-1.9784550711
 70
160
 71
2
 42
95.0
  3
DIMSTYLE_1
100
AcDbAlignedDimension
 13
55.7494241164
 23
47.533037422
 14
55.7494241164
 24
-47.466962578
 50
270.0
100
AcDbRotatedDimension
  0
DIMENSION
  5
235
100
AcDbEntity
  8
0
100
AcDbDimension
 62
7
  6
CONTINUOUS
  2
*D2
 10
-56.8086821467
 20
55.533037422
 11
-53.4874572698
 21
57.783037422
 70
160
 71
2
 42
8.999592611
  3
DIMSTYLE_1
100
AcDbAlignedDimension
 13
-47.8090895357
 23
48.033037422
 14
-56.8086821467
 24
24.1826149568
 50
180.0
100
AcDbRotatedDimension
  0
LINE
  5
236
100
AcDbEntity
  8
0
100
AcDbLine
 62
253
  6
CONTINUOUS
 10
39.4854481235
 20
-27.477882143
 11
40.07421031
 21
-29.0482643486
  0
LINE
  5
237
100
AcDbEntity
  8
0
100
AcDbLine
 62
253
  6
CONTINUOUS
 10
40.181613964
 20
-27.4179219235
 11
39.6435929004
 21
-25.9715935156
  0
LINE
  5
238
100
AcDbEntity
  8
0
100
AcDbLine
 62
253
  6
CONTINUOUS
 10
34.9747542969
 20
-25.9715866313
 11
35.9498315923
 21
-29.048264207
  0
LINE
  5
239
100
AcDbEntity
  8
0
100
AcDbLine
 62
253
  6
CONTINUOUS
 10
43.6308395159
 20
-29.0483021892
 11
44.4559984724
 21
-29.0483122075
  0
LINE
  5
23A
100
AcDbEntity
  8
0
100
AcDbLine
 62
253
  6
CONTINUOUS
 10
40.9816482693
 20
-29.0482724029
 11
41.7534992616
 21
-29.0482810207
  0
LINE
  5
23B
100
AcDbEntity
  8
0
100
AcDbLine
 62
253
  6
CONTINUOUS
 10
41.8312349093
 20
-29.048281857
 11
42.6167508835
 21
-29.0482903236
  0
LINE
  5
23C
100
AcDbEntity
  8
0
100
AcDbLine
 62
253
  6
CONTINUOUS
 10
44.545834663
 20
-29.048313279
 11
45.3255118589
 21
-29.0483216298
  0
LINE
  5
23D
100
AcDbEntity
  8
0
100
AcDbLine
 62
253
  6
CONTINUOUS
 10
40.07421031
 20
-29.0482643486
 11
40.2811677933
 21
-29.048265941
  0
LINE
  5
23E
100
AcDbEntity
  8
0
100
AcDbLine
 62
253
  6
CONTINUOUS
 10
38.6190086321
 20
-29.0482582152
 11
39.3772101539
 21
-29.0482602953
  0
LINE
  5
23F
100
AcDbEntity
  8
0
100
AcDbLine
 62
253
  6
CONTINUOUS
 10
46.0974566624
 20
-29.0483267948
 11
46.8629289273
 21
-29.0483273871
  0
LINE
  5
240
100
AcDbEntity
  8
0
100
AcDbLine
 62
253
  6
CONTINUOUS
 10
37.696230915
 20
-29.0482583274
 11
38.4781993415
 21
-29.0482580534
  0
LINE
  5
241
100
AcDbEntity
  8
0
100
AcDbLine
 62
253
  6
CONTINUOUS
 10
35.9498315923
 20
-29.048264207
 11
36.6122952393
 21
-29.0482616524
  0
LINE
  5
242
100
AcDbEntity
  8
0
100
AcDbLine
 62
253
  6
CONTINUOUS
 10
42.7837512098
 20
-28.4693028372
 11
43.47404881
 21
-28.4693120394
  0
LINE
  5
243
100
AcDbEntity
  8
0
100
AcDbLine
 62
253
  6
CONTINUOUS
 10
44.4559984724
 20
-29.0483122075
 11
43.5118667641
 21
-25.971620168
  0
LINE
  5
244
100
AcDbEntity
  8
0
100
AcDbLine
 62
253
  6
CONTINUOUS
 10
36.3067747841
 20
-27.7298059603
 11
35.8198834865
 21
-25.9715882157
  0
LINE
  5
245
100
AcDbEntity
  8
0
100
AcDbLine
 62
253
  6
CONTINUOUS
 10
43.47404881
 20
-28.4693120394
 11
43.6308395159
 21
-29.0483021892
  0
LINE
  5
246
100
AcDbEntity
  8
0
100
AcDbLine
 62
253
  6
CONTINUOUS
 10
43.1390855099
 20
-27.1962832026
 11
43.3066298928
 21
-27.8446549383
  0
LINE
  5
247
100
AcDbEntity
  8
0
100
AcDbLine
 62
253
  6
CONTINUOUS
 10
45.3254663003
 20
-27.913346069
 11
45.561729812
 21
-27.9133490212
  0
LINE
  5
248
100
AcDbEntity
  8
0
100
AcDbLine
 62
253
  6
CONTINUOUS
 10
43.3066298928
 20
-27.8446549383
 11
42.9575491598
 21
-27.8446539076
  0
LINE
  5
249
100
AcDbEntity
  8
0
100
AcDbLine
 62
253
  6
CONTINUOUS
 10
45.5620086659
 20
-27.2617251643
 11
45.3053702084
 21
-27.2617339136
  0
LINE
  5
24A
100
AcDbEntity
  8
0
100
AcDbLine
 62
253
  6
CONTINUOUS
 10
43.5118667641
 20
-25.971620168
 11
42.7962864303
 21
-25.9716129764
  0
LINE
  5
24B
100
AcDbEntity
  8
0
100
AcDbLine
 62
253
  6
CONTINUOUS
 10
41.4656739328
 20
-25.9716021108
 11
40.7253616406
 21
-25.9715980903
  0
LINE
  5
24C
100
AcDbEntity
  8
0
100
AcDbLine
 62
253
  6
CONTINUOUS
 10
39.6435929004
 20
-25.9715935156
 11
38.8968955785
 21
-25.9715913349
  0
LINE
  5
24D
100
AcDbEntity
  8
0
100
AcDbLine
 62
253
  6
CONTINUOUS
 10
35.8198834865
 20
-25.9715882157
 11
34.9747542969
 21
-25.9715866313
  0
LINE
  5
24E
100
AcDbEntity
  8
0
100
AcDbLine
 62
253
  6
CONTINUOUS
 10
37.6009821567
 20
-25.9715896304
 11
36.8085389537
 21
-25.971589132
  0
LINE
  5
24F
100
AcDbEntity
  8
0
100
AcDbLine
 62
253
  6
CONTINUOUS
 10
38.4780689517
 20
-25.9714165194
 11
37.6963574725
 21
-25.9714156773
  0
LINE
  5
250
100
AcDbEntity
  8
0
100
AcDbLine
 62
253
  6
CONTINUOUS
 10
46.8629289273
 20
-29.0483273871
 11
46.6248574529
 21
-28.151698533
  0
LINE
  5
251
100
AcDbEntity
  8
0
100
AcDbLine
 62
253
  6
CONTINUOUS
 10
41.7534992616
 20
-29.0482810207
 11
41.4656739328
 21
-25.9716021108
  0
LINE
  5
252
100
AcDbEntity
  8
0
100
AcDbLine
 62
253
  6
CONTINUOUS
 10
40.8784816725
 20
-27.4828780607
 11
40.9816482693
 21
-29.0482724029
  0
LINE
  5
253
100
AcDbEntity
  8
0
100
AcDbLine
 62
253
  6
CONTINUOUS
 10
37.6963574725
 20
-25.9714156773
 11
37.696230915
 21
-29.0482583274
  0
LINE
  5
254
100
AcDbEntity
  8
0
100
AcDbLine
 62
253
  6
CONTINUOUS
 10
38.4781993415
 20
-29.0482580534
 11
38.4780689517
 21
-25.9714165194
  0
LINE
  5
255
100
AcDbEntity
  8
0
100
AcDbLine
 62
253
  6
CONTINUOUS
 10
44.5459424118
 20
-26.0177950814
 11
44.545834663
 21
-29.048313279
  0
LINE
  5
256
100
AcDbEntity
  8
0
100
AcDbLine
 62
253
  6
CONTINUOUS
 10
45.3053702084
 20
-27.2617339136
 11
45.3053510056
 21
-26.6294898296
  0
LINE
  5
257
100
AcDbEntity
  8
0
100
AcDbLine
 62
253
  6
CONTINUOUS
 10
45.3255118589
 20
-29.0483216298
 11
45.3254663003
 21
-27.913346069
  0
LINE
  5
258
100
AcDbEntity
  8
0
100
AcDbLine
 62
253
  6
CONTINUOUS
 10
39.3772101539
 20
-29.0482602953
 11
39.4854481235
 21
-27.477882143
  0
LINE
  5
259
100
AcDbEntity
  8
0
100
AcDbLine
 62
253
  6
CONTINUOUS
 10
38.8968955785
 20
-25.9715913349
 11
38.6190086321
 21
-29.0482582152
  0
LINE
  5
25A
100
AcDbEntity
  8
0
100
AcDbLine
 62
253
  6
CONTINUOUS
 10
36.8085389537
 20
-25.971589132
 11
36.3067747841
 21
-27.7298059603
  0
LINE
  5
25B
100
AcDbEntity
  8
0
100
AcDbLine
 62
253
  6
CONTINUOUS
 10
42.9575491598
 20
-27.8446539076
 11
43.1390855099
 21
-27.1962832026
  0
LINE
  5
25C
100
AcDbEntity
  8
0
100
AcDbLine
 62
253
  6
CONTINUOUS
 10
42.6167508835
 20
-29.0482903236
 11
42.7837512098
 21
-28.4693028372
  0
LINE
  5
25D
100
AcDbEntity
  8
0
100
AcDbLine
 62
253
  6
CONTINUOUS
 10
42.7962864303
 20
-25.9716129764
 11
41.8312349093
 21
-29.048281857
  0
LINE
  5
25E
100
AcDbEntity
  8
0
100
AcDbLine
 62
253
  6
CONTINUOUS
 10
36.6122952393
 20
-29.0482616524
 11
37.6009821567
 21
-25.9715896304
  0
LINE
  5
25F
100
AcDbEntity
  8
0
100
AcDbLine
 62
253
  6
CONTINUOUS
 10
40.7253616406
 20
-25.9715980903
 11
40.181613964
 21
-27.4179219235
  0
LINE
  5
260
100
AcDbEntity
  8
0
100
AcDbLine
 62
253
  6
CONTINUOUS
 10
40.2811677933
 20
-29.048265941
 11
40.8784816725
 21
-27.4828780607
  0
LINE
  5
261
100
AcDbEntity
  8
RACCORDO
100
AcDbLine
 62
7
  6
CONTINUOUS
 10
-36.7505758836
 20
44.533037422
 11
-36.7505758836
 21
4.2348306487
  0
LINE
  5
262
100
AcDbEntity
  8
RACCORDO
100
AcDbLine
 62
7
  6
CONTINUOUS
 10
-36.7505758836
 20
-4.1687558046
 11
-36.7505758836
 21
-44.466962578
  0
LINE
  5
263
100
AcDbEntity
  8
RACCORDO
100
AcDbLine
 62
7
  6
CONTINUOUS
 10
-36.645760325
 20
3.0945491905
 11
-36.645760325
 21
-3.0284743465
  0
LINE
  5
264
100
AcDbEntity
  8
RACCORDO
100
AcDbLine
 62
253
  6
CONTINUOUS
 10
-36.5065862061
 20
-11.7169629066
 11
-36.5065862061
 21
11.7830377507
  0
LINE
  5
265
100
AcDbEntity
  8
RACCORDO
100
AcDbLine
 62
253
  6
CONTINUOUS
 10
-35.9158401556
 20
-11.716962578
 11
-35.9158401556
 21
11.783037422
  0
LINE
  5
266
100
AcDbEntity
  8
RACCORDO
100
AcDbLine
 62
253
  6
CONTINUOUS
 10
-33.7505758836
 20
47.533037422
 11
-33.7505758836
 21
47.2997639096
  0
LINE
  5
267
100
AcDbEntity
  8
RACCORDO
100
AcDbLine
 62
253
  6
CONTINUOUS
 10
-33.7505758836
 20
-47.466962578
 11
-33.7505758836
 21
-47.2336890655
  0
LINE
  5
268
100
AcDbEntity
  8
RACCORDO
100
AcDbLine
 62
253
  6
CONTINUOUS
 10
-36.7505758836
 20
-44.466962578
 11
-36.5154119701
 21
-44.4668703032
  0
LINE
  5
269
100
AcDbEntity
  8
SUPERFICI
100
AcDbLine
 62
7
  6
CONTINUOUS
 10
-33.7505758836
 20
-47.466962578
 11
55.2494241164
 21
-47.466962578
  0
LINE
  5
26A
100
AcDbEntity
  8
RACCORDO
100
AcDbLine
 62
253
  6
CONTINUOUS
 10
31.2494641957
 20
-47.2302544947
 11
-9.750576184
 21
-47.2302545041
  0
LINE
  5
26B
100
AcDbEntity
  8
RACCORDO
100
AcDbLine
 62
253
  6
CONTINUOUS
 10
31.2494241164
 20
-46.46450083
 11
-9.7505758836
 21
-46.4645006303
  0
LINE
  5
26C
100
AcDbEntity
  8
RACCORDO
100
AcDbLine
 62
253
  6
CONTINUOUS
 10
58.2494241164
 20
-44.466962578
 11
58.0145661913
 21
-44.4668741982
  0
LINE
  5
26D
100
AcDbEntity
  8
RACCORDO
100
AcDbLine
 62
7
  6
CONTINUOUS
 10
-36.6685439207
 20
-3.5241967772
 11
-36.7277922879
 21
-3.6730333739
  0
LINE
  5
26E
100
AcDbEntity
  8
RACCORDO
100
AcDbLine
 62
7
  6
CONTINUOUS
 10
-36.7277922879
 20
3.739108218
 11
-36.6685439207
 21
3.5902716212
  0
LINE
  5
26F
100
AcDbEntity
  8
RACCORDO
100
AcDbLine
 62
253
  6
CONTINUOUS
 10
-26.4444786158
 20
11.783037422
 11
-26.4444786158
 21
-11.716962578
  0
LINE
  5
270
100
AcDbEntity
  8
RACCORDO
100
AcDbLine
 62
253
  6
CONTINUOUS
 10
-24.843126426
 20
11.783037422
 11
-24.8431264185
 21
-11.7172794628
  0
LINE
  5
271
100
AcDbEntity
  8
0
100
AcDbLine
 62
253
  6
CONTINUOUS
 10
-23.2043840595
 20
-11.7168711679
 11
-23.2043840585
 21
11.783037422
  0
LINE
  5
272
100
AcDbEntity
  8
0
100
AcDbLine
 62
7
  6
CONTINUOUS
 10
-23.1005758836
 20
-22.216962578
 11
-23.1005758836
 21
22.283037422
  0
LINE
  5
273
100
AcDbEntity
  8
0
100
AcDbLine
 62
253
  6
CONTINUOUS
 10
-22.8005758836
 20
22.686866041
 11
-22.8005758836
 21
22.583037422
  0
LINE
  5
274
100
AcDbEntity
  8
0
100
AcDbLine
 62
253
  6
CONTINUOUS
 10
-22.8005758836
 20
-22.6207911948
 11
-22.8005758836
 21
-22.516962578
  0
LINE
  5
275
100
AcDbEntity
  8
RACCORDO
100
AcDbLine
 62
253
  6
CONTINUOUS
 10
-24.847851036
 20
-22.2172777435
 11
-23.204327821
 21
-22.216871169
  0
LINE
  5
276
100
AcDbEntity
  8
RACCORDO
100
AcDbLine
 62
253
  6
CONTINUOUS
 10
-9.7505758836
 20
-25.902196804
 11
31.2494241165
 21
-25.9021969189
  0
LINE
  5
277
100
AcDbEntity
  8
RACCORDO
100
AcDbLine
 62
253
  6
CONTINUOUS
 10
-9.7505758836
 20
-24.2133160995
 11
31.2494241596
 21
-24.2133160697
  0
LINE
  5
278
100
AcDbEntity
  8
0
100
AcDbLine
 62
253
  6
CONTINUOUS
 10
31.2494241164
 20
-22.6208252508
 11
-9.7505758836
 21
-22.6208252473
  0
LINE
  5
279
100
AcDbEntity
  8
0
100
AcDbLine
 62
7
  6
CONTINUOUS
 10
44.2994241164
 20
-22.516962578
 11
-22.8005758836
 21
-22.516962578
  0
LINE
  5
27A
100
AcDbEntity
  8
0
100
AcDbLine
 62
253
  6
CONTINUOUS
 10
44.7031580799
 20
-22.216962578
 11
44.5994241164
 21
-22.216962578
  0
LINE
  5
27B
100
AcDbEntity
  8
0
100
AcDbLine
 62
253
  6
CONTINUOUS
 10
-23.1005758836
 20
-22.216962578
 11
-23.204327818
 21
-22.216962578
  0
LINE
  5
27C
100
AcDbEntity
  8
RACCORDO
100
AcDbLine
 62
253
  6
CONTINUOUS
 10
-9.7511660925
 20
24.2793909169
 11
-9.7504138843
 21
22.6869000913
  0
LINE
  5
27D
100
AcDbEntity
  8
RACCORDO
100
AcDbLine
 62
253
  6
CONTINUOUS
 10
-9.750576184
 20
47.2963293482
 11
-9.7505758836
 21
25.9682716481
  0
LINE
  5
27E
100
AcDbEntity
  8
RACCORDO
100
AcDbLine
 62
253
  6
CONTINUOUS
 10
-9.750576184
 20
-47.2302545041
 11
-9.7505758836
 21
-22.6208252472
  0
LINE
  5
27F
100
AcDbEntity
  8
RACCORDO
100
AcDbLine
 62
253
  6
CONTINUOUS
 10
44.7032322917
 20
-11.7169625781
 11
58.0054344656
 21
-11.7169625834
  0
LINE
  5
280
100
AcDbEntity
  8
RACCORDO
100
AcDbLine
 62
253
  6
CONTINUOUS
 10
-36.5065862061
 20
-11.7169629065
 11
-23.2043840588
 21
-11.7168711679
  0
LINE
  5
281
100
AcDbEntity
  8
RACCORDO
100
AcDbLine
 62
253
  6
CONTINUOUS
 10
-23.2043840588
 20
11.783037422
 11
-36.5065862061
 21
11.7830377506
  0
LINE
  5
282
100
AcDbEntity
  8
RACCORDO
100
AcDbLine
 62
253
  6
CONTINUOUS
 10
58.0054344389
 20
11.7830377506
 11
44.7032322917
 21
11.7829109901
  0
LINE
  5
283
100
AcDbEntity
  8
RACCORDO
100
AcDbLine
 62
253
  6
CONTINUOUS
 10
31.2494241596
 20
-24.2133160697
 11
31.2494241164
 21
-22.6208252472
  0
LINE
  5
284
100
AcDbEntity
  8
RACCORDO
100
AcDbLine
 62
253
  6
CONTINUOUS
 10
31.2494241165
 20
-25.9021969189
 11
31.2494641957
 21
-47.2302544947
  0
LINE
  5
285
100
AcDbEntity
  8
RACCORDO
100
AcDbLine
 62
253
  6
CONTINUOUS
 10
31.2494241164
 20
22.6869000913
 11
31.2494244168
 21
47.2963293482
  0
LINE
  5
286
100
AcDbEntity
  8
0
100
AcDbLine
 62
253
  6
CONTINUOUS
 10
44.7031710591
 20
22.283037422
 11
44.5994241164
 21
22.283037422
  0
LINE
  5
287
100
AcDbEntity
  8
0
100
AcDbLine
 62
253
  6
CONTINUOUS
 10
-23.204327819
 20
22.283037422
 11
-23.1005758836
 21
22.283037422
  0
LINE
  5
288
100
AcDbEntity
  8
0
100
AcDbLine
 62
7
  6
CONTINUOUS
 10
-22.8005758836
 20
22.583037422
 11
44.2994241164
 21
22.583037422
  0
LINE
  5
289
100
AcDbEntity
  8
0
100
AcDbLine
 62
253
  6
CONTINUOUS
 10
-9.7504138843
 20
22.6869000945
 11
31.2494241164
 21
22.6869000914
  0
LINE
  5
28A
100
AcDbEntity
  8
RACCORDO
100
AcDbLine
 62
253
  6
CONTINUOUS
 10
31.2494241164
 20
24.2793909436
 11
-9.7511660925
 21
24.2793909169
  0
LINE
  5
28B
100
AcDbEntity
  8
RACCORDO
100
AcDbLine
 62
253
  6
CONTINUOUS
 10
31.2494241164
 20
25.9682716481
 11
-9.7505758836
 21
25.9682716481
  0
LINE
  5
28C
100
AcDbEntity
  8
0
100
AcDbLine
 62
253
  6
CONTINUOUS
 10
44.2994241164
 20
22.6868644746
 11
44.2994241164
 21
22.583037422
  0
LINE
  5
28D
100
AcDbEntity
  8
0
100
AcDbLine
 62
253
  6
CONTINUOUS
 10
44.2994241164
 20
-22.6207886067
 11
44.2994241164
 21
-22.516962578
  0
LINE
  5
28E
100
AcDbEntity
  8
0
100
AcDbLine
 62
7
  6
CONTINUOUS
 10
44.5994241164
 20
22.283037422
 11
44.5994241164
 21
-22.216962578
  0
LINE
  5
28F
100
AcDbEntity
  8
0
100
AcDbLine
 62
253
  6
CONTINUOUS
 10
44.7032322933
 20
11.7829109901
 11
44.7032322915
 21
-11.7169625781
  0
LINE
  5
290
100
AcDbEntity
  8
RACCORDO
100
AcDbLine
 62
253
  6
CONTINUOUS
 10
46.3419746593
 20
-11.7169625795
 11
46.3419746445
 21
11.7834757208
  0
LINE
  5
291
100
AcDbEntity
  8
RACCORDO
100
AcDbLine
 62
253
  6
CONTINUOUS
 10
47.9433266424
 20
-11.7169625791
 11
47.9433268486
 21
11.783037422
  0
LINE
  5
292
100
AcDbEntity
  8
RACCORDO
100
AcDbLine
 62
253
  6
CONTINUOUS
 10
55.2494241164
 20
-47.466962578
 11
55.2493333417
 21
-47.2337116555
  0
LINE
  5
293
100
AcDbEntity
  8
RACCORDO
100
AcDbLine
 62
253
  6
CONTINUOUS
 10
55.2494241164
 20
47.533037422
 11
55.249328652
 21
47.2998110743
  0
LINE
  5
294
100
AcDbEntity
  8
RACCORDO
100
AcDbLine
 62
7
  6
CONTINUOUS
 10
58.2266405207
 20
3.739108218
 11
58.1673921536
 21
3.5902716212
  0
LINE
  5
295
100
AcDbEntity
  8
RACCORDO
100
AcDbLine
 62
253
  6
CONTINUOUS
 10
58.2494241164
 20
44.533037422
 11
58.014262731
 21
44.5329479449
  0
LINE
  5
296
100
AcDbEntity
  8
RACCORDO
100
AcDbLine
 62
253
  6
CONTINUOUS
 10
-36.7505758836
 20
44.533037422
 11
-36.5154119699
 21
44.532945128
  0
LINE
  5
297
100
AcDbEntity
  8
RACCORDO
100
AcDbLine
 62
7
  6
CONTINUOUS
 10
58.1673921536
 20
-3.5241967772
 11
58.2266405207
 21
-3.6730333739
  0
LINE
  5
298
100
AcDbEntity
  8
RACCORDO
100
AcDbLine
 62
253
  6
CONTINUOUS
 10
57.4146883885
 20
11.783037422
 11
57.4146886115
 21
-11.7169625837
  0
LINE
  5
299
100
AcDbEntity
  8
RACCORDO
100
AcDbLine
 62
253
  6
CONTINUOUS
 10
58.0054344389
 20
11.7830377506
 11
58.0054344656
 21
-11.718162148
  0
LINE
  5
29A
100
AcDbEntity
  8
RACCORDO
100
AcDbLine
 62
7
  6
CONTINUOUS
 10
58.1446085579
 20
3.0945491905
 11
58.1446085579
 21
-3.0284743465
  0
LINE
  5
29B
100
AcDbEntity
  8
RACCORDO
100
AcDbLine
 62
7
  6
CONTINUOUS
 10
58.2494241164
 20
-44.466962578
 11
58.2494241164
 21
-4.1687558046
  0
LINE
  5
29C
100
AcDbEntity
  8
RACCORDO
100
AcDbLine
 62
7
  6
CONTINUOUS
 10
58.2494241164
 20
4.2348306487
 11
58.2494241164
 21
44.533037422
  0
LINE
  5
29D
100
AcDbEntity
  8
RACCORDO
100
AcDbLine
 62
253
  6
CONTINUOUS
 10
-9.7505758836
 20
46.5305754743
 11
31.2494241164
 21
46.5305754743
  0
LINE
  5
29E
100
AcDbEntity
  8
RACCORDO
100
AcDbLine
 62
253
  6
CONTINUOUS
 10
-9.750576184
 20
47.2963293482
 11
31.2494244168
 21
47.2963293482
  0
LINE
  5
29F
100
AcDbEntity
  8
SUPERFICI
100
AcDbLine
 62
7
  6
CONTINUOUS
 10
55.2494241164
 20
47.533037422
 11
-33.7505758836
 21
47.533037422
  0
LINE
  5
2A0
100
AcDbEntity
  8
RACCORDO
100
AcDbLine
 62
253
  6
CONTINUOUS
 10
-47.8090895357
 20
-44.466962578
 11
-52.2904457064
 21
-44.4668741982
  0
LINE
  5
2A1
100
AcDbEntity
  8
SUPERFICI
100
AcDbLine
 62
7
  6
CONTINUOUS
 10
-47.8090895357
 20
-47.466962578
 11
-52.2597795515
 21
-47.233711798
  0
LINE
  5
2A2
100
AcDbEntity
  8
RACCORDO
100
AcDbLine
 62
7
  6
CONTINUOUS
 10
-47.8090895357
 20
-47.466962578
 11
-52.3257486487
 21
-47.2302545041
  0
LINE
  5
2A3
100
AcDbEntity
  8
RACCORDO
100
AcDbLine
 62
253
  6
CONTINUOUS
 10
-56.807823741
 20
-22.2173676882
 11
-56.8076182557
 21
-22.2173668757
  0
LINE
  5
2A4
100
AcDbEntity
  8
RACCORDO
100
AcDbLine
 62
253
  6
CONTINUOUS
 10
-55.8758355841
 20
-22.2161917698
 11
-56.5702149026
 21
-22.2186836068
  0
LWPOLYLINE
  5
2A5
100
AcDbEntity
  8
0
100
AcDbPolyline
 62
7
  6
CONTINUOUS
 90
9
 70
0
 10
-56.6404690422
 20
24.2382619943
 10
-56.6773704229
 20
24.1785433572
 10
-56.7099110737
 20
24.1165496427
 10
-56.7379527196
 20
24.0526356942
 10
-56.7613686204
 20
23.9872326089
 10
-56.7801097533
 20
23.9206789312
 10
-56.7941516308
 20
23.8533111745
 10
-56.8034827735
 20
23.7855678273
 10
-56.8081473843
 20
23.7177777917
  0
LINE
  5
2A6
100
AcDbEntity
  8
RACCORDO
100
AcDbLine
 62
7
  6
CONTINUOUS
 10
-56.5576213806
 20
24.3544062149
 11
-56.5711783063
 21
24.3351864675
  0
LINE
  5
2A7
100
AcDbEntity
  8
0
100
AcDbLine
 62
7
  6
CONTINUOUS
 10
-56.6058503976
 20
24.2869120386
 11
-56.6404690422
 21
24.2382619943
  0
LINE
  5
2A8
100
AcDbEntity
  8
RACCORDO
100
AcDbLine
 62
7
  6
CONTINUOUS
 10
-56.5711783063
 20
24.3351864675
 11
-56.5810718413
 21
24.3213595561
  0
LINE
  5
2A9
100
AcDbEntity
  8
RACCORDO
100
AcDbLine
 62
7
  6
CONTINUOUS
 10
-56.5810718413
 20
24.3213595561
 11
-56.5904526659
 21
24.3084004239
  0
LINE
  5
2AA
100
AcDbEntity
  8
RACCORDO
100
AcDbLine
 62
7
  6
CONTINUOUS
 10
-56.5904526659
 20
24.3084004239
 11
-56.5988528379
 21
24.2969182831
  0
LINE
  5
2AB
100
AcDbEntity
  8
RACCORDO
100
AcDbLine
 62
7
  6
CONTINUOUS
 10
-56.5988528379
 20
24.2969182831
 11
-56.6068436774
 21
24.2861008997
  0
LINE
  5
2AC
100
AcDbEntity
  8
RACCORDO
100
AcDbLine
 62
7
  6
CONTINUOUS
 10
-56.607174189
 20
24.2856556689
 11
-56.6107399927
 21
24.2808633067
  0
LINE
  5
2AD
100
AcDbEntity
  8
RACCORDO
100
AcDbLine
 62
7
  6
CONTINUOUS
 10
-56.6058654152
 20
24.286892682
 11
-56.6032206937
 21
24.2903896189
  0
LINE
  5
2AE
100
AcDbEntity
  8
RACCORDO
100
AcDbLine
 62
7
  6
CONTINUOUS
 10
-56.6105801188
 20
-24.214996209
 11
-56.6031928049
 21
-24.2249419116
  0
LINE
  5
2AF
100
AcDbEntity
  8
RACCORDO
100
AcDbLine
 62
7
  6
CONTINUOUS
 10
-56.6026515169
 20
-24.2256741173
 11
-56.595643032
 21
-24.2351974546
  0
LINE
  5
2B0
100
AcDbEntity
  8
RACCORDO
100
AcDbLine
 62
7
  6
CONTINUOUS
 10
-56.5948964784
 20
-24.2362166079
 11
-56.5945770626
 21
-24.2366529355
  0
LINE
  5
2B1
100
AcDbEntity
  8
0
100
AcDbLine
 62
7
  6
CONTINUOUS
 10
-53.2345375211
 20
46.5146242931
 11
-53.4582269678
 21
45.494286516
  0
LINE
  5
2B2
100
AcDbEntity
  8
RACCORDO
100
AcDbLine
 62
253
  6
CONTINUOUS
 10
-52.464689413
 20
-11.7169625834
 11
-56.8084666655
 21
-11.7169625781
  0
LWPOLYLINE
  5
2B3
100
AcDbEntity
  8
RACCORDO
100
AcDbPolyline
 62
7
  6
CONTINUOUS
 90
20
 70
0
 10
-53.2328672
 20
-46.4450153486
 10
-53.2166285494
 20
-46.5093424965
 10
-53.1952581468
 20
-46.5749368931
 10
-53.1694244782
 20
-46.6388828857
 10
-53.1392543808
 20
-46.7008779172
 10
-53.1048950863
 20
-46.7606291947
 10
-53.0665135471
 20
-46.8178549384
 10
-53.0242956297
 20
-46.8722857137
 10
-52.9784449676
 20
-46.923665966
 10
-52.9291822712
 20
-46.9717547962
 10
-52.8767444164
 20
-47.0163270452
 10
-52.8213852537
 20
-47.0571731433
 10
-52.7633670478
 20
-47.0941054534
 10
-52.7029584779
 20
-47.1269570457
 10
-52.6404348496
 20
-47.1555796117
 10
-52.5761036237
 20
-47.1798337611
 10
-52.5102972639
 20
-47.1995999746
 10
-52.4433381665
 20
-47.2147911748
 10
-52.3755348587
 20
-47.2253469438
 10
-52.3080337458
 20
-47.2311829028
  0
LINE
  5
2B4
100
AcDbEntity
  8
0
100
AcDbLine
 62
7
  6
CONTINUOUS
 10
-53.3831651756
 20
-45.8839459367
 11
-53.2459207636
 21
-46.4645010475
  0
LINE
  5
2B5
100
AcDbEntity
  8
0
100
AcDbLine
 62
7
  6
CONTINUOUS
 10
-53.4876632744
 20
-45.4315211499
 11
-53.3831651756
 21
-45.8839459367
  0
LINE
  5
2B6
100
AcDbEntity
  8
RACCORDO
100
AcDbLine
 62
7
  6
CONTINUOUS
 10
-53.2458921505
 20
-46.4646205374
 11
-53.2459192659
 21
-46.4645009986
  0
LINE
  5
2B7
100
AcDbEntity
  8
0
100
AcDbLine
 62
7
  6
CONTINUOUS
 10
-53.588077715
 20
-44.9877550135
 11
-53.4876632744
 21
-45.4315211499
  0
LINE
  5
2B8
100
AcDbEntity
  8
0
100
AcDbLine
 62
7
  6
CONTINUOUS
 10
-53.5098283678
 20
-45.2049373398
 11
-53.2331651876
 21
-46.4490989305
  0
LINE
  5
2B9
100
AcDbEntity
  8
0
100
AcDbLine
 62
7
  6
CONTINUOUS
 10
-53.7444005069
 20
-44.2780220387
 11
-53.588077715
 21
-44.9877550135
  0
LINE
  5
2BA
100
AcDbEntity
  8
0
100
AcDbLine
 62
7
  6
CONTINUOUS
 10
-53.3016790258
 20
-46.1276300917
 11
-53.2328672051
 21
-46.4450152155
  0
LINE
  5
2BB
100
AcDbEntity
  8
0
100
AcDbLine
 62
7
  6
CONTINUOUS
 10
-53.3397587547
 20
-45.9513052961
 11
-53.3016790258
 21
-46.1276300917
  0
LINE
  5
2BC
100
AcDbEntity
  8
0
100
AcDbLine
 62
7
  6
CONTINUOUS
 10
-53.6570279351
 20
-44.4765731919
 11
-53.3397587547
 21
-45.9513052961
  0
LINE
  5
2BD
100
AcDbEntity
  8
RACCORDO
100
AcDbLine
 62
7
  6
CONTINUOUS
 10
-54.0743165818
 20
-42.6946455844
 11
-53.7445842768
 21
-44.2771733597
  0
LINE
  5
2BE
100
AcDbEntity
  8
0
100
AcDbLine
 62
7
  6
CONTINUOUS
 10
-54.1588469834
 20
-42.2677063156
 11
-54.0741525801
 21
-42.6954532832
  0
LINE
  5
2BF
100
AcDbEntity
  8
0
100
AcDbLine
 62
7
  6
CONTINUOUS
 10
-54.2519906469
 20
-41.7859833539
 11
-54.1588469834
 21
-42.2677063156
  0
LINE
  5
2C0
100
AcDbEntity
  8
0
100
AcDbLine
 62
7
  6
CONTINUOUS
 10
-54.3108870062
 20
-41.4749241382
 11
-54.2519906469
 21
-41.7859833539
  0
LINE
  5
2C1
100
AcDbEntity
  8
0
100
AcDbLine
 62
7
  6
CONTINUOUS
 10
-55.5295032914
 20
33.1189119532
 11
-55.5766704368
 21
32.649409706
  0
LINE
  5
2C2
100
AcDbEntity
  8
0
100
AcDbLine
 62
7
  6
CONTINUOUS
 10
-55.4811922272
 20
33.5783212929
 11
-55.5295032914
 21
33.1189119532
  0
LINE
  5
2C3
100
AcDbEntity
  8
0
100
AcDbLine
 62
7
  6
CONTINUOUS
 10
-55.4310919575
 20
34.0344955326
 11
-55.4811922272
 21
33.5783212929
  0
LINE
  5
2C4
100
AcDbEntity
  8
0
100
AcDbLine
 62
7
  6
CONTINUOUS
 10
-55.3767621975
 20
34.5085370921
 11
-55.4310919575
 21
34.0344955326
  0
LINE
  5
2C5
100
AcDbEntity
  8
0
100
AcDbLine
 62
7
  6
CONTINUOUS
 10
-55.3236292172
 20
34.9536279296
 11
-55.3767621975
 21
34.5085370921
  0
LINE
  5
2C6
100
AcDbEntity
  8
0
100
AcDbLine
 62
7
  6
CONTINUOUS
 10
-55.2711725776
 20
35.3769505599
 11
-55.3236292172
 21
34.9536279296
  0
LINE
  5
2C7
100
AcDbEntity
  8
0
100
AcDbLine
 62
7
  6
CONTINUOUS
 10
-55.215158156
 20
35.813039054
 11
-55.2711725776
 21
35.3769505599
  0
LINE
  5
2C8
100
AcDbEntity
  8
0
100
AcDbLine
 62
7
  6
CONTINUOUS
 10
-55.1580895366
 20
36.24198282
 11
-55.215158156
 21
35.813039054
  0
LINE
  5
2C9
100
AcDbEntity
  8
0
100
AcDbLine
 62
7
  6
CONTINUOUS
 10
-55.0988785943
 20
36.672167206
 11
-55.1580895366
 21
36.24198282
  0
LINE
  5
2CA
100
AcDbEntity
  8
0
100
AcDbLine
 62
7
  6
CONTINUOUS
 10
-55.0907618232
 20
36.7300416274
 11
-55.0988785943
 21
36.672167206
  0
LINE
  5
2CB
100
AcDbEntity
  8
0
100
AcDbLine
 62
7
  6
CONTINUOUS
 10
-54.4016045432
 20
-40.985328055
 11
-54.3108870062
 21
-41.4749241382
  0
LINE
  5
2CC
100
AcDbEntity
  8
0
100
AcDbLine
 62
7
  6
CONTINUOUS
 10
-54.4959866379
 20
-40.4612938165
 11
-54.4016045432
 21
-40.985328055
  0
LINE
  5
2CD
100
AcDbEntity
  8
0
100
AcDbLine
 62
7
  6
CONTINUOUS
 10
-54.5879849135
 20
-39.9346675257
 11
-54.4959866379
 21
-40.4612938165
  0
LINE
  5
2CE
100
AcDbEntity
  8
0
100
AcDbLine
 62
7
  6
CONTINUOUS
 10
-54.6759934037
 20
-39.414866671
 11
-54.5879849135
 21
-39.9346675257
  0
LINE
  5
2CF
100
AcDbEntity
  8
0
100
AcDbLine
 62
7
  6
CONTINUOUS
 10
-54.7593451779
 20
-38.9068103646
 11
-54.6759934037
 21
-39.414866671
  0
LINE
  5
2D0
100
AcDbEntity
  8
0
100
AcDbLine
 62
7
  6
CONTINUOUS
 10
-54.8360682698
 20
-38.4244492524
 11
-54.7593451779
 21
-38.9068103646
  0
LINE
  5
2D1
100
AcDbEntity
  8
0
100
AcDbLine
 62
7
  6
CONTINUOUS
 10
-54.8800475231
 20
-38.1411965212
 11
-54.8360682698
 21
-38.4244492524
  0
LINE
  5
2D2
100
AcDbEntity
  8
0
100
AcDbLine
 62
7
  6
CONTINUOUS
 10
-55.6636559524
 20
-31.6524143627
 11
-55.6211834011
 21
-32.1152031035
  0
LINE
  5
2D3
100
AcDbEntity
  8
0
100
AcDbLine
 62
7
  6
CONTINUOUS
 10
-55.711600835
 20
-31.1622546943
 11
-55.6654404427
 21
-31.6908907837
  0
LINE
  5
2D4
100
AcDbEntity
  8
0
100
AcDbLine
 62
7
  6
CONTINUOUS
 10
-55.7033330211
 20
-31.1971502703
 11
-55.6636559524
 21
-31.6524143627
  0
LINE
  5
2D5
100
AcDbEntity
  8
0
100
AcDbLine
 62
7
  6
CONTINUOUS
 10
-55.7394388875
 20
-30.7601298428
 11
-55.7033330211
 21
-31.1971502703
  0
LINE
  5
2D6
100
AcDbEntity
  8
0
100
AcDbLine
 62
7
  6
CONTINUOUS
 10
-55.7536994234
 20
-30.6502624969
 11
-55.711600835
 21
-31.1622546943
  0
LINE
  5
2D7
100
AcDbEntity
  8
0
100
AcDbLine
 62
7
  6
CONTINUOUS
 10
-56.808642224
 20
-23.6122868282
 11
-56.808658357
 21
-23.6120840523
  0
LINE
  5
2D8
100
AcDbEntity
  8
0
100
AcDbLine
 62
7
  6
CONTINUOUS
 10
-55.77437685
 20
-30.3132649416
 11
-55.7394388875
 21
-30.7601298428
  0
LINE
  5
2D9
100
AcDbEntity
  8
0
100
AcDbLine
 62
7
  6
CONTINUOUS
 10
-55.7956024881
 20
-30.106215325
 11
-55.7536994234
 21
-30.6502624969
  0
LINE
  5
2DA
100
AcDbEntity
  8
0
100
AcDbLine
 62
7
  6
CONTINUOUS
 10
-55.8096545198
 20
-29.8340606457
 11
-55.77437685
 21
-30.3132649416
  0
LINE
  5
2DB
100
AcDbEntity
  8
0
100
AcDbLine
 62
7
  6
CONTINUOUS
 10
-55.8365749785
 20
-29.5333669395
 11
-55.7956024881
 21
-30.106215325
  0
LINE
  5
2DC
100
AcDbEntity
  8
0
100
AcDbLine
 62
7
  6
CONTINUOUS
 10
-55.8429384948
 20
-29.3513971299
 11
-55.8096545198
 21
-29.8340606457
  0
LINE
  5
2DD
100
AcDbEntity
  8
0
100
AcDbLine
 62
7
  6
CONTINUOUS
 10
-55.8662476509
 20
-29.0873365126
 11
-55.8365749785
 21
-29.5333669395
  0
LINE
  5
2DE
100
AcDbEntity
  8
0
100
AcDbLine
 62
7
  6
CONTINUOUS
 10
-55.8429384948
 20
-29.3513971299
 11
-55.8635236861
 21
-29.035476847
  0
LINE
  5
2DF
100
AcDbEntity
  8
0
100
AcDbLine
 62
7
  6
CONTINUOUS
 10
-55.8947330051
 20
-28.6286608922
 11
-55.8662476509
 21
-29.0873365126
  0
LINE
  5
2E0
100
AcDbEntity
  8
0
100
AcDbLine
 62
7
  6
CONTINUOUS
 10
-55.9218108947
 20
-28.1583617464
 11
-55.8947330051
 21
-28.6286608922
  0
LINE
  5
2E1
100
AcDbEntity
  8
0
100
AcDbLine
 62
7
  6
CONTINUOUS
 10
-55.9472425841
 20
-27.6781165515
 11
-55.9218108947
 21
-28.1583617464
  0
LINE
  5
2E2
100
AcDbEntity
  8
0
100
AcDbLine
 62
7
  6
CONTINUOUS
 10
-55.9579392409
 20
-27.4623674416
 11
-55.9472425841
 21
-27.6781165515
  0
LINE
  5
2E3
100
AcDbEntity
  8
RACCORDO
100
AcDbLine
 62
7
  6
CONTINUOUS
 10
-56.0218150548
 20
-25.9021969189
 11
-55.9579176913
 21
-27.4628114784
  0
LINE
  5
2E4
100
AcDbEntity
  8
0
100
AcDbLine
 62
7
  6
CONTINUOUS
 10
-56.8086821467
 20
23.6826149568
 11
-56.8086607932
 21
23.6795271129
  0
LINE
  5
2E5
100
AcDbEntity
  8
0
100
AcDbLine
 62
7
  6
CONTINUOUS
 10
-56.8086607932
 20
23.6795271129
 11
-56.8085309379
 21
23.5223355748
  0
LINE
  5
2E6
100
AcDbEntity
  8
RACCORDO
100
AcDbLine
 62
253
  6
CONTINUOUS
 10
-56.5747123783
 20
-11.7169625795
 11
-56.5747123908
 21
11.7834757208
  0
LINE
  5
2E7
100
AcDbEntity
  8
RACCORDO
100
AcDbLine
 62
253
  6
CONTINUOUS
 10
-55.8912466107
 20
-11.7169625791
 11
-55.8912465882
 21
11.783037422
  0
LINE
  5
2E8
100
AcDbEntity
  8
0
100
AcDbLine
 62
7
  6
CONTINUOUS
 10
-56.8084665581
 20
-11.7173676796
 11
-56.8085481239
 21
-12.7498968503
  0
LINE
  5
2E9
100
AcDbEntity
  8
0
100
AcDbLine
 62
7
  6
CONTINUOUS
 10
-56.8085281612
 20
23.530039253
 11
-56.8078557067
 21
-22.618747581
  0
LINE
  5
2EA
100
AcDbEntity
  8
0
100
AcDbLine
 62
7
  6
CONTINUOUS
 10
-56.8081473843
 20
23.7177777917
 11
-56.8081958582
 21
23.6669908084
  0
LINE
  5
2EB
100
AcDbEntity
  8
0
100
AcDbLine
 62
7
  6
CONTINUOUS
 10
-56.8077767483
 20
-22.3061040675
 11
-56.8079126314
 21
-22.4570180169
  0
LINE
  5
2EC
100
AcDbEntity
  8
0
100
AcDbLine
 62
7
  6
CONTINUOUS
 10
-56.8085666326
 20
23.5865736195
 11
-56.8085889442
 21
23.5708935479
  0
LINE
  5
2ED
100
AcDbEntity
  8
0
100
AcDbLine
 62
7
  6
CONTINUOUS
 10
-56.8076083246
 20
-22.5287598875
 11
-56.8086814643
 21
-23.6136934396
  0
LINE
  5
2EE
100
AcDbEntity
  8
0
100
AcDbLine
 62
7
  6
CONTINUOUS
 10
-56.8086247029
 20
-23.6080812317
 11
-56.8087000625
 21
-23.6173622272
  0
LWPOLYLINE
  5
2EF
100
AcDbEntity
  8
RACCORDO
100
AcDbPolyline
 62
7
  6
CONTINUOUS
 90
65
 70
0
 10
-56.0177062731
 20
25.9694267389
 10
-56.0178251005
 20
25.9660731985
 10
-56.0191775776
 20
25.9334402179
 10
-56.0208787825
 20
25.9009357003
 10
-56.022924468
 20
25.8685692091
 10
-56.0253105779
 20
25.8363442866
 10
-56.0280330353
 20
25.8042643892
 10
-56.0310871464
 20
25.7723387991
 10
-56.0344686075
 20
25.7405707877
 10
-56.0381731001
 20
25.7089635381
 10
-56.0421955079
 20
25.6775260318
 10
-56.046531301
 20
25.6462612566
 10
-56.0511759414
 20
25.6151721098
 10
-56.0561239152
 20
25.5842672553
 10
-56.0613704886
 20
25.5535493862
 10
-56.0669109263
 20
25.5230211043
 10
-56.0727393426
 20
25.4926907412
 10
-56.0788508228
 20
25.4625606864
 10
-56.0852404568
 20
25.4326332381
 10
-56.0919020135
 20
25.4029163849
 10
-56.0988304205
 20
25.3734122052
 10
-56.1060206158
 20
25.3441226885
 10
-56.1134660487
 20
25.3150554737
 10
-56.1211615128
 20
25.2862123219
 10
-56.1291018168
 20
25.2575949115
 10
-56.1372801151
 20
25.2292105317
 10
-56.1456910838
 20
25.2010606449
 10
-56.154329431
 20
25.173146595
 10
-56.1631880603
 20
25.1454752615
 10
-56.1722615124
 20
25.1180479298
 10
-56.1815444593
 20
25.0908654872
 10
-56.1910297339
 20
25.0639339829
 10
-56.2007120531
 20
25.0372537605
 10
-56.2105858272
 20
25.0108260341
 10
-56.2206431532
 20
24.9846579123
 10
-56.2308785255
 20
24.9587498354
 10
-56.2412864355
 20
24.9331022765
 10
-56.2518586724
 20
24.9077221266
 10
-56.2625896234
 20
24.8826096421
 10
-56.2734737901
 20
24.8577648416
 10
-56.2845028532
 20
24.8331939908
 10
-56.295671204
 20
24.8088969772
 10
-56.306973307
 20
24.7848735693
 10
-56.3184007002
 20
24.7611295883
 10
-56.3299477933
 20
24.7376645899
 10
-56.3416090474
 20
24.7144780739
 10
-56.3533758452
 20
24.6915755138
 10
-56.3652446872
 20
24.6689522773
 10
-56.3772080657
 20
24.6466115072
 10
-56.3892508416
 20
24.6245699183
 10
-56.4013889287
 20
24.6027877314
 10
-56.4135955006
 20
24.5813026834
 10
-56.4257876907
 20
24.5602455607
 10
-56.4379581131
 20
24.5396108115
 10
-56.4500968381
 20
24.519397494
 10
-56.4621109273
 20
24.4997393997
 10
-56.4739961644
 20
24.4806198857
 10
-56.4857346404
 20
24.4620450473
 10
-56.4972063991
 20
24.4441784567
 10
-56.5084263801
 20
24.4269687466
 10
-56.5193531735
 20
24.4104525806
 10
-56.5297735225
 20
24.394919489
 10
-56.5397368192
 20
24.3802608648
 10
-56.549160925
 20
24.3665648462
 10
-56.5576213806
 20
24.3544062149
  0
LINE
  5
2F0
100
AcDbEntity
  8
0
100
AcDbLine
 62
7
  6
CONTINUOUS
 10
-56.0080825573
 20
26.2358349568
 11
-56.0177062777
 21
25.9694279792
  0
LINE
  5
2F1
100
AcDbEntity
  8
0
100
AcDbLine
 62
7
  6
CONTINUOUS
 10
-55.6894028557
 20
31.4240597833
 11
-55.7288088986
 21
30.9531089814
  0
LINE
  5
2F2
100
AcDbEntity
  8
0
100
AcDbLine
 62
7
  6
CONTINUOUS
 10
-55.6480126275
 20
31.8930599302
 11
-55.6894028557
 21
31.4240597833
  0
LINE
  5
2F3
100
AcDbEntity
  8
0
100
AcDbLine
 62
7
  6
CONTINUOUS
 10
-55.6052366354
 20
32.3537566974
 11
-55.6480126275
 21
31.8930599302
  0
LINE
  5
2F4
100
AcDbEntity
  8
0
100
AcDbLine
 62
7
  6
CONTINUOUS
 10
-55.5766704368
 20
32.649409706
 11
-55.6052366354
 21
32.3537566974
  0
LINE
  5
2F5
100
AcDbEntity
  8
RACCORDO
100
AcDbLine
 62
7
  6
CONTINUOUS
 10
-49.3743526318
 20
-3.5241967772
 11
-48.2438264396
 21
-3.6730333739
  0
LINE
  5
2F6
100
AcDbEntity
  8
RACCORDO
100
AcDbLine
 62
253
  6
CONTINUOUS
 10
-53.3253874567
 20
11.783037422
 11
-53.3253873571
 21
-11.7169625837
  0
LINE
  5
2F7
100
AcDbEntity
  8
RACCORDO
100
AcDbLine
 62
253
  6
CONTINUOUS
 10
-52.4646899222
 20
11.7830377506
 11
-52.464689413
 21
-11.718162148
  0
LINE
  5
2F8
100
AcDbEntity
  8
RACCORDO
100
AcDbLine
 62
7
  6
CONTINUOUS
 10
-49.8090895357
 20
3.0945491905
 11
-49.8090895357
 21
-3.0284743465
  0
LINE
  5
2F9
100
AcDbEntity
  8
RACCORDO
100
AcDbLine
 62
7
  6
CONTINUOUS
 10
-48.2438264396
 20
3.739108218
 11
-49.3743526318
 21
3.5902716212
  0
LINE
  5
2FA
100
AcDbEntity
  8
SUPERFICI
100
AcDbLine
 62
7
  6
CONTINUOUS
 10
-47.8090895357
 20
-47.466962578
 11
-47.8090895357
 21
-44.466962578
  0
LINE
  5
2FB
100
AcDbEntity
  8
RACCORDO
100
AcDbLine
 62
7
  6
CONTINUOUS
 10
-47.8090895357
 20
-44.466962578
 11
-47.8090895357
 21
-4.1687558046
  0
LINE
  5
2FC
100
AcDbEntity
  8
RACCORDO
100
AcDbLine
 62
7
  6
CONTINUOUS
 10
-47.8090895357
 20
4.2348306487
 11
-47.8090895357
 21
44.533037422
  0
LINE
  5
2FD
100
AcDbEntity
  8
SUPERFICI
100
AcDbLine
 62
7
  6
CONTINUOUS
 10
-47.8090895357
 20
44.533037422
 11
-47.8090895357
 21
47.533037422
  0
LINE
  5
2FE
100
AcDbEntity
  8
RACCORDO
100
AcDbLine
 62
253
  6
CONTINUOUS
 10
-52.4646899222
 20
11.7830377506
 11
-56.8084666655
 21
11.7835977254
  0
LINE
  5
2FF
100
AcDbEntity
  8
RACCORDO
100
AcDbLine
 62
253
  6
CONTINUOUS
 10
-55.8748872101
 20
22.2816846986
 11
-56.5699936223
 21
22.2844764222
  0
LWPOLYLINE
  5
300
100
AcDbEntity
  8
RACCORDO
100
AcDbPolyline
 62
7
  6
CONTINUOUS
 90
20
 70
0
 10
-52.310507552
 20
47.2971281002
 10
-52.3705825507
 20
47.2921603826
 10
-52.4318491234
 20
47.2833011848
 10
-52.4938010556
 20
47.2703416028
 10
-52.5564852951
 20
47.2529665391
 10
-52.6192038024
 20
47.231052032
 10
-52.6805937465
 20
47.2048979222
 10
-52.7399424158
 20
47.1747959965
 10
-52.7974038235
 20
47.140655889
 10
-52.8529553379
 20
47.1023845612
 10
-52.906355491
 20
47.05998269
 10
-52.9571858873
 20
47.0136065938
 10
-53.0051218057
 20
46.9633789247
 10
-53.0498409726
 20
46.9094487598
 10
-53.0910199249
 20
46.8520003581
 10
-53.1283406305
 20
46.791252514
 10
-53.1615002371
 20
46.7274484397
 10
-53.1902118056
 20
46.6608543286
 10
-53.2142018838
 20
46.5917676571
 10
-53.2345374771
 20
46.5146243505
  0
LINE
  5
301
100
AcDbEntity
  8
SUPERFICI
100
AcDbLine
 62
7
  6
CONTINUOUS
 10
-52.2593107252
 20
47.2998112122
 11
-47.8090895357
 21
47.533037422
  0
LINE
  5
302
100
AcDbEntity
  8
RACCORDO
100
AcDbLine
 62
7
  6
CONTINUOUS
 10
-47.8090895357
 20
47.533037422
 11
-52.3257486487
 21
47.2963293482
  0
LINE
  5
303
100
AcDbEntity
  8
RACCORDO
100
AcDbLine
 62
253
  6
CONTINUOUS
 10
-47.8090895357
 20
44.533037422
 11
-52.2962360748
 21
44.5329479449
  0
ARC
  5
304
100
AcDbEntity
  8
RACCORDO
100
AcDbCircle
 62
253
  6
CONTINUOUS
 10
227.2241253231
 20
-28.9061378763
 40
182.9826045394
100
AcDbArc
 50
178.5329647225
 51
179.064733818
  0
ARC
  5
305
100
AcDbEntity
  8
RACCORDO
100
AcDbCircle
 62
253
  6
CONTINUOUS
 10
225.9391931088
 20
28.9819622027
 40
181.6984042826
100
AcDbArc
 50
180.9449399395
 51
181.480483505
  0
ARC
  5
306
100
AcDbEntity
  8
RACCORDO
100
AcDbCircle
 62
253
  6
CONTINUOUS
 10
-204.349304986
 20
-28.9202762645
 40
181.607543136
100
AcDbArc
 50
0.9467859416
 51
1.4826071541
  0
ARC
  5
307
100
AcDbEntity
  8
RACCORDO
100
AcDbCircle
 62
253
  6
CONTINUOUS
 10
-204.3491158584
 20
28.9879763259
 40
181.6073924647
100
AcDbArc
 50
358.5168786084
 51
359.0527004729
  0
ARC
  5
308
100
AcDbEntity
  8
SUPERFICI
100
AcDbCircle
 62
7
  6
CONTINUOUS
 10
55.2494241164
 20
-44.466962578
 40
3.0
100
AcDbArc
 50
270.0
 51
360.0
  0
ARC
  5
309
100
AcDbEntity
  8
SUPERFICI
100
AcDbCircle
 62
7
  6
CONTINUOUS
 10
55.2494241164
 20
44.533037422
 40
3.0
100
AcDbArc
 50
0.0
 51
90.0
  0
ARC
  5
30A
100
AcDbEntity
  8
SUPERFICI
100
AcDbCircle
 62
7
  6
CONTINUOUS
 10
-33.7505758836
 20
44.533037422
 40
3.0
100
AcDbArc
 50
90.0
 51
180.0
  0
ARC
  5
30B
100
AcDbEntity
  8
SUPERFICI
100
AcDbCircle
 62
7
  6
CONTINUOUS
 10
-33.7505758836
 20
-44.466962578
 40
3.0
100
AcDbArc
 50
180.0
 51
270.0
  0
ARC
  5
30C
100
AcDbEntity
  8
RACCORDO
100
AcDbCircle
 62
253
  6
CONTINUOUS
 10
55.2526305199
 20
-44.4716018214
 40
2.7620572809
100
AcDbArc
 50
269.9316050718
 51
0.0980734557
  0
ARC
  5
30D
100
AcDbEntity
  8
RACCORDO
100
AcDbCircle
 62
253
  6
CONTINUOUS
 10
55.2525459588
 20
44.5378919427
 40
2.7618513719
100
AcDbArc
 50
359.8974297813
 51
90.0667427266
  0
ARC
  5
30E
100
AcDbEntity
  8
RACCORDO
100
AcDbCircle
 62
253
  6
CONTINUOUS
 10
-33.753808606
 20
44.5380000693
 40
2.7617224149
100
AcDbArc
 50
89.9329337047
 51
180.1048761986
  0
ARC
  5
30F
100
AcDbEntity
  8
RACCORDO
100
AcDbCircle
 62
253
  6
CONTINUOUS
 10
-33.7538085403
 20
-44.4719252883
 40
2.7617224122
100
AcDbArc
 50
179.8951228944
 51
270.0670649328
  0
ARC
  5
310
100
AcDbEntity
  8
0
100
AcDbCircle
 62
253
  6
CONTINUOUS
 10
-22.8005380578
 20
22.2830808689
 40
0.4037868697
100
AcDbArc
 50
90.0053673548
 51
180.0061648937
  0
ARC
  5
311
100
AcDbEntity
  8
0
100
AcDbCircle
 62
253
  6
CONTINUOUS
 10
-22.8005375045
 20
-22.2170066844
 40
0.4037868185
100
AcDbArc
 50
179.9937415265
 51
269.9945541288
  0
ARC
  5
312
100
AcDbEntity
  8
0
100
AcDbCircle
 62
253
  6
CONTINUOUS
 10
44.2994096573
 20
22.2831089605
 40
0.4037562449
100
AcDbArc
 50
359.9898483253
 51
89.9979481539
  0
ARC
  5
313
100
AcDbEntity
  8
0
100
AcDbCircle
 62
253
  6
CONTINUOUS
 10
44.2994125438
 20
-22.2170491967
 40
0.4037399543
100
AcDbArc
 50
270.0016423073
 51
0.012292114
  0
ARC
  5
314
100
AcDbEntity
  8
0
100
AcDbCircle
 62
7
  6
CONTINUOUS
 10
-22.8005758836
 20
-22.216962578
 40
0.3
100
AcDbArc
 50
180.0
 51
270.0
  0
ARC
  5
315
100
AcDbEntity
  8
0
100
AcDbCircle
 62
7
  6
CONTINUOUS
 10
44.2994241164
 20
-22.216962578
 40
0.3
100
AcDbArc
 50
270.0
 51
360.0
  0
ARC
  5
316
100
AcDbEntity
  8
0
100
AcDbCircle
 62
7
  6
CONTINUOUS
 10
-22.8005758836
 20
22.283037422
 40
0.3
100
AcDbArc
 50
90.0
 51
180.0
  0
ARC
  5
317
100
AcDbEntity
  8
0
100
AcDbCircle
 62
7
  6
CONTINUOUS
 10
44.2994241164
 20
22.283037422
 40
0.3
100
AcDbArc
 50
0.0
 51
90.0
  0
ARC
  5
318
100
AcDbEntity
  8
RACCORDO
100
AcDbCircle
 62
253
  6
CONTINUOUS
 10
-95.8797843599
 20
-22.2654899039
 40
40.0040087779
100
AcDbArc
 50
359.3638873799
 51
359.5529187022
  0
ARC
  5
319
100
AcDbEntity
  8
RACCORDO
100
AcDbCircle
 62
253
  6
CONTINUOUS
 10
-94.85601483
 20
-22.2718848973
 40
38.9802188351
100
AcDbArc
 50
359.6160703147
 51
0.0818615779
  0
ARC
  5
31A
100
AcDbEntity
  8
RACCORDO
100
AcDbCircle
 62
7
  6
CONTINUOUS
 10
-59.02014767
 20
-26.0022045613
 40
3.0
100
AcDbArc
 50
1.9103592129
 51
36.6050872327
  0
ARC
  5
31B
100
AcDbEntity
  8
RACCORDO
100
AcDbCircle
 62
253
  6
CONTINUOUS
 10
-58.9943668432
 20
-26.034159285
 40
2.9989263898
100
AcDbArc
 50
2.1938605584
 51
37.1893506445
  0
ARC
  5
31C
100
AcDbEntity
  8
RACCORDO
100
AcDbCircle
 62
7
  6
CONTINUOUS
 10
-52.2569140801
 20
-46.232489625
 40
1.0
100
AcDbArc
 50
192.5108039693
 51
266.988238213
  0
ARC
  5
31D
100
AcDbEntity
  8
RACCORDO
100
AcDbCircle
 62
7
  6
CONTINUOUS
 10
-52.2734126502
 20
-46.2316249715
 40
1.0
100
AcDbArc
 50
193.4664456881
 51
266.9999975769
  0
ARC
  5
31E
100
AcDbEntity
  8
RACCORDO
100
AcDbCircle
 62
253
  6
CONTINUOUS
 10
-52.2072271105
 20
-46.2355603613
 40
0.9995529303
100
AcDbArc
 50
188.4144116379
 51
266.9861732569
  0
ARC
  5
31F
100
AcDbEntity
  8
RACCORDO
100
AcDbCircle
 62
7
  6
CONTINUOUS
 10
-55.8086750818
 20
-23.6169840596
 40
0.9999952212
100
AcDbArc
 50
179.320491066
 51
217.1908135871
  0
ARC
  5
320
100
AcDbEntity
  8
RACCORDO
100
AcDbCircle
 62
7
  6
CONTINUOUS
 10
-55.8116298494
 20
-23.6169983731
 40
0.9970703197
100
AcDbArc
 50
179.7177714943
 51
184.6153555029
  0
ARC
  5
321
100
AcDbEntity
  8
RACCORDO
100
AcDbCircle
 62
7
  6
CONTINUOUS
 10
-48.3090895357
 20
-4.1687558046
 40
0.5
100
AcDbArc
 50
0.0
 51
82.5
  0
ARC
  5
322
100
AcDbEntity
  8
RACCORDO
100
AcDbCircle
 62
7
  6
CONTINUOUS
 10
-49.3090895357
 20
-3.0284743465
 40
0.5
100
AcDbArc
 50
180.0
 51
262.5
  0
ARC
  5
323
100
AcDbEntity
  8
RACCORDO
100
AcDbCircle
 62
253
  6
CONTINUOUS
 10
-95.1614367165
 20
22.3296768914
 40
39.2866069127
100
AcDbArc
 50
0.412373967
 51
0.5626938378
  0
ARC
  5
324
100
AcDbEntity
  8
RACCORDO
100
AcDbCircle
 62
253
  6
CONTINUOUS
 10
-94.2898529683
 20
22.3354983632
 40
38.4150040642
100
AcDbArc
 50
359.9197371706
 51
0.4130476157
  0
ARC
  5
325
100
AcDbEntity
  8
RACCORDO
100
AcDbCircle
 62
7
  6
CONTINUOUS
 10
-59.02014767
 20
26.0682794054
 40
3.0
100
AcDbArc
 50
323.3949121326
 51
358.0896385919
  0
ARC
  5
326
100
AcDbEntity
  8
RACCORDO
100
AcDbCircle
 62
253
  6
CONTINUOUS
 10
-58.9943838768
 20
26.1001915721
 40
2.9989042757
100
AcDbArc
 50
322.8112042042
 51
357.8076542863
  0
ARC
  5
327
100
AcDbEntity
  8
RACCORDO
100
AcDbCircle
 62
7
  6
CONTINUOUS
 10
-52.2734126499
 20
46.2976998156
 40
1.0
100
AcDbArc
 50
93.0000024381
 51
166.5335945606
  0
ARC
  5
328
100
AcDbEntity
  8
RACCORDO
100
AcDbCircle
 62
253
  6
CONTINUOUS
 10
-52.2067878381
 20
46.3015942661
 40
0.9996109312
100
AcDbArc
 50
93.0119377145
 51
171.5143344646
  0
ARC
  5
329
100
AcDbEntity
  8
RACCORDO
100
AcDbCircle
 62
7
  6
CONTINUOUS
 10
-55.8086843018
 20
23.6830593458
 40
0.9999979737
100
AcDbArc
 50
142.8101200376
 51
180.6427484359
  0
ARC
  5
32A
100
AcDbEntity
  8
RACCORDO
100
AcDbCircle
 62
7
  6
CONTINUOUS
 10
-55.8123403526
 20
23.6830735657
 40
0.9963596828
100
AcDbArc
 50
178.7850612548
 51
180.4241880049
  0
ARC
  5
32B
100
AcDbEntity
  8
RACCORDO
100
AcDbCircle
 62
7
  6
CONTINUOUS
 10
-55.8139951491
 20
23.687082386
 40
0.993350265
100
AcDbArc
 50
142.8096155301
 51
143.3034518387
  0
ARC
  5
32C
100
AcDbEntity
  8
RACCORDO
100
AcDbCircle
 62
7
  6
CONTINUOUS
 10
-48.3090895357
 20
4.2348306487
 40
0.5
100
AcDbArc
 50
277.5
 51
360.0
  0
ARC
  5
32D
100
AcDbEntity
  8
RACCORDO
100
AcDbCircle
 62
7
  6
CONTINUOUS
 10
-49.3090895357
 20
3.0945491905
 40
0.5
100
AcDbArc
 50
97.5
 51
180.0
  0
ARC
  5
32E
100
AcDbEntity
  8
RACCORDO
100
AcDbCircle
 62
7
  6
CONTINUOUS
 10
-56.5429096143
 20
24.2285541681
 40
0.0856604818
100
AcDbArc
 50
142.4334933536
 51
143.5795698084
  0
ARC
  5
32F
100
AcDbEntity
  8
RACCORDO
100
AcDbCircle
 62
7
  6
CONTINUOUS
 10
46.9695558457
 20
-22.466962578
 40
103.0486453814
100
AcDbArc
 50
191.3202584479
 51
193.4664429029
  0
ARC
  5
330
100
AcDbEntity
  8
RACCORDO
100
AcDbCircle
 62
7
  6
CONTINUOUS
 10
46.9695558457
 20
-22.466962578
 40
103.0486453814
100
AcDbArc
 50
185.135574084
 51
188.7490314482
  0
ARC
  5
331
100
AcDbEntity
  8
RACCORDO
100
AcDbCircle
 62
7
  6
CONTINUOUS
 10
46.9695558457
 20
-22.466962578
 40
103.0486453814
100
AcDbArc
 50
182.7788167708
 51
183.6554592493
  0
ARC
  5
332
100
AcDbEntity
  8
RACCORDO
100
AcDbCircle
 62
7
  6
CONTINUOUS
 10
46.9695558457
 20
22.533037422
 40
103.0486453814
100
AcDbArc
 50
166.5335572113
 51
178.0896314046
  0
SPLINE
  5
333
100
AcDbEntity
  8
0
100
AcDbSpline
 62
253
  6
CONTINUOUS
 70
0
 71
3
 72
15
 73
11
 74
9
 42
0.0000001
 43
0.0000001
 44
0.0000000001
 12
-1.5306710175
 22
0.5526759481
 32
0.0
 13
-1.6084970685
 23
-0.2472683727
 33
0.0
 40
0.0
 40
0.0
 40
0.0
 40
0.0
 40
0.1175685618
 40
0.2370048253
 40
0.3554059228
 40
0.4711310615
 40
0.5859932143
 40
0.7073022651
 40
0.842690605
 40
1.0
 40
1.0
 40
1.0
 40
1.0
 10
46.15828154
 20
-26.0412216285
 30
0.0
 10
46.0982952766
 20
-26.0195625231
 30
0.0
 10
45.9740164685
 20
-25.9848678109
 30
0.0
 10
45.783294389
 20
-25.9549659382
 30
0.0
 10
45.5919625042
 20
-25.93979687
 30
0.0
 10
45.4025930584
 20
-25.9360848478
 30
0.0
 10
45.2117240547
 20
-25.9419546958
 30
0.0
 10
45.0106715145
 20
-25.9569875223
 30
0.0
 10
44.7874694469
 20
-25.9822414279
 30
0.0
 10
44.6302863121
 20
-26.004829202
 30
0.0
 10
44.5459424118
 20
-26.0177950814
 30
0.0
 11
46.15828154
 21
-26.0412216285
 31
0.0
 11
45.9742808703
 21
-25.9887719257
 31
0.0
 11
45.7824676255
 21
-25.9573517956
 31
0.0
 11
45.590426404
 21
-25.9416141178
 31
0.0
 11
45.4021377158
 21
-25.937662224
 31
0.0
 11
45.2152932989
 21
-25.9431754825
 31
0.0
 11
45.01840327
 21
-25.9575954068
 31
0.0
 11
44.7994198948
 21
-25.9819170449
 31
0.0
 11
44.5459424118
 21
-26.0177950814
 31
0.0
  0
SPLINE
  5
334
100
AcDbEntity
  8
0
100
AcDbSpline
 62
253
  6
CONTINUOUS
 70
0
 71
3
 72
20
 73
16
 74
14
 42
0.0000001
 43
0.0000001
 44
0.0000000001
 12
1.480166156
 22
1.1381554566
 32
0.0
 13
-1.7561897545
 23
0.6341034922
 33
0.0
 40
0.0
 40
0.0
 40
0.0
 40
0.0
 40
0.0876288489
 40
0.1750699533
 40
0.2638448266
 40
0.3550852249
 40
0.4471691259
 40
0.5338929657
 40
0.610639438
 40
0.6788886504
 40
0.7422793525
 40
0.8050335491
 40
0.8694992236
 40
0.935138631
 40
1.0
 40
1.0
 40
1.0
 40
1.0
 10
46.3550087781
 20
-27.5899475639
 30
0.0
 10
46.3982438636
 20
-27.5567024797
 30
0.0
 10
46.4779201207
 20
-27.4811110847
 30
0.0
 10
46.5735665608
 20
-27.3464747576
 30
0.0
 10
46.6428170493
 20
-27.1939431901
 30
0.0
 10
46.6826386915
 20
-27.0284133677
 30
0.0
 10
46.6945236722
 20
-26.8600271351
 30
0.0
 10
46.680069991
 20
-26.7009149284
 30
0.0
 10
46.6441451141
 20
-26.5606529777
 30
0.0
 10
46.5937300014
 20
-26.4406907397
 30
0.0
 10
46.5315388469
 20
-26.3364497067
 30
0.0
 10
46.4566846174
 20
-26.2439123665
 30
0.0
 10
46.3688330916
 20
-26.1615810877
 30
0.0
 10
46.2696999457
 20
-26.0909713595
 30
0.0
 10
46.1962511639
 20
-26.0549312354
 30
0.0
 10
46.15828154
 20
-26.0412216285
 30
0.0
 11
46.3550087781
 21
-27.5899475639
 31
0.0
 11
46.4739439645
 21
-27.4775865582
 31
0.0
 11
46.5685884262
 21
-27.3445511827
 31
0.0
 11
46.6372502878
 21
-27.193683951
 31
0.0
 11
46.6778679949
 21
-27.0282363696
 31
0.0
 11
46.6899903854
 21
-26.8567287934
 31
0.0
 11
46.6749748704
 21
-26.6954991306
 31
0.0
 11
46.6392978844
 21
-26.5567134246
 31
0.0
 11
46.5897948999
 21
-26.4392892577
 31
0.0
 11
46.52901664
 21
-26.337725269
 31
0.0
 11
46.4554123295
 21
-26.2465566054
 31
0.0
 11
46.3676767015
 21
-26.1641499119
 31
0.0
 11
46.2675096273
 21
-26.0935287588
 31
0.0
 11
46.15828154
 21
-26.0412216285
 31
0.0
  0
SPLINE
  5
335
100
AcDbEntity
  8
0
100
AcDbSpline
 62
253
  6
CONTINUOUS
 70
0
 71
3
 72
15
 73
11
 74
9
 42
0.0000001
 43
0.0000001
 44
0.0000000001
 12
-0.1665523399
 22
0.6112262331
 32
0.0
 13
-0.485646352
 23
0.4067982434
 33
0.0
 40
0.0
 40
0.0
 40
0.0
 40
0.0
 40
0.146880052
 40
0.2898083659
 40
0.4233547496
 40
0.5466931689
 40
0.6622456259
 40
0.7736910564
 40
0.8853132526
 40
1.0
 40
1.0
 40
1.0
 40
1.0
 10
46.6248574529
 20
-28.151698533
 30
0.0
 10
46.6167030474
 20
-28.121772886
 30
0.0
 10
46.6011067875
 20
-28.062594914
 30
0.0
 10
46.5769274682
 20
-27.9765150215
 30
0.0
 10
46.5507527131
 20
-27.8962072176
 30
0.0
 10
46.5218503051
 20
-27.8229947395
 30
0.0
 10
46.4893589869
 20
-27.7564307379
 30
0.0
 10
46.4519626158
 20
-27.695328228
 30
0.0
 10
46.4079309152
 20
-27.6390041719
 30
0.0
 10
46.3735745116
 20
-27.6054990197
 30
0.0
 10
46.3550087781
 20
-27.5899475639
 30
0.0
 11
46.6248574529
 21
-28.151698533
 31
0.0
 11
46.6006486254
 21
-28.0618526608
 31
0.0
 11
46.5757743718
 21
-27.9747895259
 31
0.0
 11
46.5492418656
 21
-27.8944544212
 31
0.0
 11
46.5202819986
 21
-27.8218829792
 31
0.0
 11
46.4879372803
 21
-27.7562124227
 31
0.0
 11
46.4508725475
 21
-27.6961220975
 31
0.0
 11
46.4071497165
 21
-27.6405452978
 31
0.0
 11
46.3550087781
 21
-27.5899475639
 31
0.0
  0
SPLINE
  5
336
100
AcDbEntity
  8
0
100
AcDbSpline
 62
253
  6
CONTINUOUS
 70
0
 71
3
 72
14
 73
10
 74
8
 42
0.0000001
 43
0.0000001
 44
0.0000000001
 12
0.3440795974
 22
-0.9157603411
 32
0.0
 13
0.2658810296
 23
-0.9414430677
 33
0.0
 40
0.0
 40
0.0
 40
0.0
 40
0.0
 40
0.1418371136
 40
0.2837037902
 40
0.4253050221
 40
0.5665437906
 40
0.7082703855
 40
0.8521526442
 40
1.0
 40
1.0
 40
1.0
 40
1.0
 10
45.8166845861
 20
-28.1113984612
 30
0.0
 10
45.8329523384
 20
-28.154694729
 30
0.0
 10
45.8630967993
 20
-28.2422013626
 30
0.0
 10
45.9034397587
 20
-28.3749049994
 30
0.0
 10
45.9411893419
 20
-28.5081551562
 30
0.0
 10
45.9789178215
 20
-28.6413622863
 30
0.0
 10
46.0180802756
 20
-28.7749311422
 30
0.0
 10
46.0579647472
 20
-28.9105320392
 30
0.0
 10
46.0843533933
 20
-29.001930172
 30
0.0
 10
46.0974566624
 20
-29.0483267948
 30
0.0
 11
45.8166845861
 21
-28.1113984612
 31
0.0
 11
45.8622855008
 21
-28.242445841
 31
0.0
 11
45.903040882
 21
-28.3751103978
 31
0.0
 11
45.9412201143
 21
-28.5082690319
 31
0.0
 11
45.9790778273
 21
-28.6411507747
 31
0.0
 11
46.0179012687
 21
-28.7742507665
 31
0.0
 11
46.0574892556
 21
-28.9093243244
 31
0.0
 11
46.0974566624
 21
-29.0483267948
 31
0.0
  0
SPLINE
  5
337
100
AcDbEntity
  8
0
100
AcDbSpline
 62
253
  6
CONTINUOUS
 70
0
 71
3
 72
15
 73
11
 74
9
 42
0.0000001
 43
0.0000001
 44
0.0000000001
 12
0.3448859567
 22
-0.0000040415
 32
0.0
 13
0.1213044407
 23
-0.3228491223
 33
0.0
 40
0.0
 40
0.0
 40
0.0
 40
0.0
 40
0.1095521475
 40
0.2181424563
 40
0.3268281044
 40
0.4404309383
 40
0.5624831493
 40
0.6939266697
 40
0.8374137352
 40
1.0
 40
1.0
 40
1.0
 40
1.0
 10
45.561729812
 20
-27.9133490212
 30
0.0
 10
45.5743241444
 20
-27.9133491688
 30
0.0
 10
45.5994381071
 20
-27.9150448911
 30
0.0
 10
45.6363276192
 20
-27.9227802362
 30
0.0
 10
45.6721125749
 20
-27.9362267831
 30
0.0
 10
45.7061317083
 20
-27.9569006695
 30
0.0
 10
45.7381323564
 20
-27.9846745605
 30
0.0
 10
45.7679382862
 20
-28.0194349131
 30
0.0
 10
45.7952506186
 20
-28.0618378299
 30
0.0
 10
45.8101104408
 20
-28.0939015169
 30
0.0
 10
45.8166845861
 20
-28.1113984612
 30
0.0
 11
45.561729812
 21
-27.9133490212
 31
0.0
 11
45.5994247681
 21
-27.9159268433
 31
0.0
 11
45.636060695
 21
-27.9236990163
 31
0.0
 11
45.6710835762
 21
-27.9370578923
 31
0.0
 11
45.7046604115
 21
-27.9572487383
 31
0.0
 11
45.7366031886
 21
-27.9846635464
 31
0.0
 11
45.7662387438
 21
-28.0189683122
 31
0.0
 11
45.7931249498
 21
-28.0605142244
 31
0.0
 11
45.8166845861
 21
-28.1113984612
 31
0.0
  0
SPLINE
  5
338
100
AcDbEntity
  8
0
100
AcDbSpline
 62
253
  6
CONTINUOUS
 70
0
 71
3
 72
15
 73
11
 74
9
 42
0.0000001
 43
0.0000001
 44
0.0000000001
 12
0.0091717842
 22
-0.6023910811
 32
0.0
 13
-0.6022934249
 23
-0.0142044577
 33
0.0
 40
0.0
 40
0.0
 40
0.0
 40
0.0
 40
0.1575408098
 40
0.298292518
 40
0.4275204639
 40
0.5465103331
 40
0.6594557961
 40
0.7717936613
 40
0.885962384
 40
1.0
 40
1.0
 40
1.0
 40
1.0
 10
45.9450181201
 20
-26.900819309
 30
0.0
 10
45.9454997636
 20
-26.9324530353
 30
0.0
 10
45.9425012088
 20
-26.9925872282
 30
0.0
 10
45.9203691524
 20
-27.0765111177
 30
0.0
 10
45.8792547045
 20
-27.1441943528
 30
0.0
 10
45.8255258076
 20
-27.1943082243
 30
0.0
 10
45.763597739
 20
-27.2263950618
 30
0.0
 10
45.6982811839
 20
-27.246678825
 30
0.0
 10
45.6307037332
 20
-27.2581565746
 30
0.0
 10
45.584903368
 20
-27.2611852168
 30
0.0
 10
45.5620086659
 20
-27.2617251643
 30
0.0
 11
45.9450181201
 21
-26.900819309
 31
0.0
 11
45.9388615019
 21
-26.9955315976
 31
0.0
 11
45.9158150288
 21
-27.0771371076
 31
0.0
 11
45.8752751388
 21
-27.1436042785
 31
0.0
 11
45.8227272141
 21
-27.1923659934
 31
0.0
 11
45.7627785346
 21
-27.2245577394
 31
0.0
 11
45.6982979597
 21
-27.2451180335
 31
0.0
 11
45.6305487699
 21
-27.2569939396
 31
0.0
 11
45.5620086659
 21
-27.2617251643
 31
0.0
  0
SPLINE
  5
339
100
AcDbEntity
  8
0
100
AcDbSpline
 62
253
  6
CONTINUOUS
 70
0
 71
3
 72
16
 73
12
 74
10
 42
0.0000001
 43
0.0000001
 44
0.0000000001
 12
0.4155358603
 22
-0.048228694
 32
0.0
 13
0.0063685285
 23
-0.4182768222
 33
0.0
 40
0.0
 40
0.0
 40
0.0
 40
0.0
 40
0.1353617336
 40
0.2651823477
 40
0.3847251009
 40
0.4954559436
 40
0.5992774817
 40
0.6993781434
 40
0.7991539588
 40
0.899352895
 40
1.0
 40
1.0
 40
1.0
 40
1.0
 10
45.6811534361
 20
-26.6245669299
 30
0.0
 10
45.6999026542
 20
-26.6267430365
 30
0.0
 10
45.7363410207
 20
-26.6341350514
 30
0.0
 10
45.7867164992
 20
-26.6532126285
 30
0.0
 10
45.8303993464
 20
-26.6784383916
 30
0.0
 10
45.8663324054
 20
-26.708487946
 30
0.0
 10
45.8944584772
 20
-26.7424531824
 30
0.0
 10
45.9159607065
 20
-26.7791159026
 30
0.0
 10
45.931820697
 20
-26.8179886972
 30
0.0
 10
45.9420431431
 20
-26.8587799822
 30
0.0
 10
45.9448044622
 20
-26.8867865253
 30
0.0
 10
45.9450181201
 20
-26.900819309
 30
0.0
 11
45.6811534361
 21
-26.6245669299
 31
0.0
 11
45.7366553856
 21
-26.6357897274
 31
0.0
 11
45.7874114617
 21
-26.6551054691
 31
0.0
 11
45.8306146284
 21
-26.6802900333
 31
0.0
 11
45.8660373785
 21
-26.7101381717
 31
0.0
 11
45.8938086474
 21
-26.7435301422
 31
0.0
 11
45.9150839427
 21
-26.7795974022
 31
0.0
 11
45.9308599854
 21
-26.8182398603
 31
0.0
 11
45.9410153581
 21
-26.858906782
 31
0.0
 11
45.9450181201
 21
-26.900819309
 31
0.0
  0
SPLINE
  5
33A
100
AcDbEntity
  8
0
100
AcDbSpline
 62
253
  6
CONTINUOUS
 70
0
 71
3
 72
9
 73
5
 74
3
 42
0.0000001
 43
0.0000001
 44
0.0000000001
 12
0.3730291578
 22
0.0517793626
 32
0.0
 13
0.3740944519
 23
-0.0434188444
 33
0.0
 40
0.0
 40
0.0
 40
0.0
 40
0.0
 40
0.5020686038
 40
1.0
 40
1.0
 40
1.0
 40
1.0
 10
45.3053510056
 20
-26.6294898296
 30
0.0
 10
45.3677797484
 20
-26.6208242322
 30
0.0
 10
45.4932894651
 20
-26.610874087
 30
0.0
 10
45.6190623118
 20
-26.6173603947
 30
0.0
 10
45.6811534361
 20
-26.6245669299
 30
0.0
 11
45.3053510056
 21
-26.6294898296
 31
0.0
 11
45.4938750528
 21
-26.6149761052
 31
0.0
 11
45.6811534361
 21
-26.6245669299
 31
0.0
  0
SPLINE
  5
33B
100
AcDbEntity
  8
RACCORDO
100
AcDbSpline
 62
253
  6
CONTINUOUS
 70
0
 71
3
 72
55
 73
51
 74
49
 42
0.0000001
 43
0.0000001
 44
0.0000000001
 12
0.0000014054
 22
32.7499142263
 32
0.0
 13
-0.1203305335
 23
32.7496931649
 33
0.0
 40
0.0
 40
0.0
 40
0.0
 40
0.0
 40
0.0744672113
 40
0.1434545594
 40
0.2073762701
 40
0.2666123111
 40
0.3214926253
 40
0.3723052284
 40
0.4193391771
 40
0.4628884971
 40
0.5032242622
 40
0.5405938704
 40
0.5752231299
 40
0.6073094229
 40
0.6370141843
 40
0.6644818934
 40
0.6898784279
 40
0.7133713429
 40
0.7351095647
 40
0.7552296605
 40
0.7738523674
 40
0.7910934209
 40
0.8070575252
 40
0.8218217883
 40
0.8354640301
 40
0.8480592351
 40
0.8596787629
 40
0.8704092901
 40
0.880340408
 40
0.8895458605
 40
0.8980485017
 40
0.9058576883
 40
0.9129840613
 40
0.9194182768
 40
0.9251259253
 40
0.9301123682
 40
0.9345517187
 40
0.9386731516
 40
0.9427063434
 40
0.9467516763
 40
0.9508017115
 40
0.9548451773
 40
0.9588808675
 40
0.9630418202
 40
0.9675455364
 40
0.9726237594
 40
0.9783967385
 40
0.9848211427
 40
0.9919633637
 40
1.0
 40
1.0
 40
1.0
 40
1.0
 10
-36.5065862061
 20
11.7830377507
 30
0.0
 10
-36.5065861712
 20
12.595969345
 30
0.0
 10
-36.5065933303
 20
14.1620108502
 30
0.0
 10
-36.5066319683
 20
16.4258625365
 30
0.0
 10
-36.5066930685
 20
18.5234410475
 30
0.0
 10
-36.5067705166
 20
20.4670181749
 30
0.0
 10
-36.5068697435
 20
22.2674879182
 30
0.0
 10
-36.5069975801
 20
23.9347518343
 30
0.0
 10
-36.5071406118
 20
25.4783193858
 30
0.0
 10
-36.5072874151
 20
26.9075150866
 30
0.0
 10
-36.5074264683
 20
28.2312086806
 30
0.0
 10
-36.5075435385
 20
29.4575252041
 30
0.0
 10
-36.5076327339
 20
30.59378523
 30
0.0
 10
-36.5076880236
 20
31.6463708994
 30
0.0
 10
-36.5076986922
 20
32.6207765161
 30
0.0
 10
-36.5076838459
 20
33.5221524591
 30
0.0
 10
-36.507661167
 20
34.3557159232
 30
0.0
 10
-36.5076509039
 20
35.1267326491
 30
0.0
 10
-36.5076692832
 20
35.8401484035
 30
0.0
 10
-36.5077171974
 20
36.5003978572
 30
0.0
 10
-36.5077886222
 20
37.1115533494
 30
0.0
 10
-36.5078845128
 20
37.6773393829
 30
0.0
 10
-36.5080006283
 20
38.2010041767
 30
0.0
 10
-36.5081314266
 20
38.685382041
 30
0.0
 10
-36.5082725187
 20
39.1329828455
 30
0.0
 10
-36.5084186033
 20
39.54625371
 30
0.0
 10
-36.5085788275
 20
39.9277384323
 30
0.0
 10
-36.5087580759
 20
40.2801402694
 30
0.0
 10
-36.5089567101
 20
40.6061885045
 30
0.0
 10
-36.5091725825
 20
40.907915698
 30
0.0
 10
-36.5094014385
 20
41.1864785174
 30
0.0
 10
-36.5096380155
 20
41.4423447637
 30
0.0
 10
-36.5098766862
 20
41.6756307428
 30
0.0
 10
-36.5101109756
 20
41.8859749827
 30
0.0
 10
-36.5103343831
 20
42.0729583767
 30
0.0
 10
-36.5105433617
 20
42.238164552
 30
0.0
 10
-36.5107393616
 20
42.3860545885
 30
0.0
 10
-36.5109288863
 20
42.5235383271
 30
0.0
 10
-36.5111190054
 20
42.6567207136
 30
0.0
 10
-36.5113141856
 20
42.7891236685
 30
0.0
 10
-36.5115154243
 20
42.921638772
 30
0.0
 10
-36.5117221566
 20
43.0540486004
 30
0.0
 10
-36.5119357103
 20
43.1876692666
 30
0.0
 10
-36.5121684447
 20
43.3263142958
 30
0.0
 10
-36.5124410933
 20
43.4763402264
 30
0.0
 10
-36.5127801136
 20
43.6439639712
 30
0.0
 10
-36.5132150489
 20
43.8325550147
 30
0.0
 10
-36.5137783129
 20
44.0436777293
 30
0.0
 10
-36.5145093061
 20
44.2795115904
 30
0.0
 10
-36.515089619
 20
44.44521267
 30
0.0
 10
-36.5154119699
 20
44.532945128
 30
0.0
 11
-36.5065862061
 21
11.7830377507
 31
0.0
 11
-36.5065988769
 21
14.2218325337
 31
0.0
 11
-36.5066376271
 21
16.4811622658
 31
0.0
 11
-36.5066984408
 21
18.5745928092
 31
0.0
 11
-36.5067775349
 21
20.5145680665
 31
0.0
 11
-36.5068788986
 21
22.3118936471
 31
0.0
 11
-36.5070053487
 21
23.9760020375
 31
0.0
 11
-36.5071468173
 21
25.516359815
 31
0.0
 11
-36.5072915941
 21
26.9425963029
 31
0.0
 11
-36.5074276791
 21
28.2635891414
 31
0.0
 11
-36.5075428021
 21
29.4874405993
 31
0.0
 11
-36.5076298168
 21
30.6215458741
 31
0.0
 11
-36.5076818266
 21
31.6723692196
 31
0.0
 11
-36.5076943399
 21
32.6451976064
 31
0.0
 11
-36.5076818007
 21
33.5447627223
 31
0.0
 11
-36.5076626029
 21
34.3764970485
 31
0.0
 11
-36.5076558538
 21
35.1458879991
 31
0.0
 11
-36.5076755069
 21
35.8578128994
 31
0.0
 11
-36.5077234367
 21
36.5167443097
 31
0.0
 11
-36.5077959391
 21
37.1266363584
 31
0.0
 11
-36.507891982
 21
37.6912793735
 31
0.0
 11
-36.5080079055
 21
38.2141024085
 31
0.0
 11
-36.5081385194
 21
38.6976307393
 31
0.0
 11
-36.5082790848
 21
39.1444129662
 31
0.0
 11
-36.5084271255
 21
39.5569048219
 31
0.0
 11
-36.5085887494
 21
39.9374433269
 31
0.0
 11
-36.5087686331
 21
40.2888671259
 31
0.0
 11
-36.5089675135
 21
40.614110327
 31
0.0
 11
-36.5091836147
 21
40.9155880278
 31
0.0
 11
-36.5094126439
 21
41.1940487039
 31
0.0
 11
-36.5096492968
 21
41.4497987845
 31
0.0
 11
-36.509888127
 21
41.6831867675
 31
0.0
 11
-36.5101228237
 21
41.8939066442
 31
0.0
 11
-36.510346123
 21
42.0808315085
 31
0.0
 11
-36.5105526545
 21
42.2441369547
 31
0.0
 11
-36.5107452986
 21
42.3895251747
 31
0.0
 11
-36.5109313281
 21
42.5245016209
 31
0.0
 11
-36.5111198412
 21
42.6565881718
 31
0.0
 11
-36.5113150913
 21
42.7890723347
 31
0.0
 11
-36.5115164778
 21
42.9217104856
 31
0.0
 11
-36.5117231044
 21
43.0541334827
 31
0.0
 11
-36.5119352694
 21
43.1863018196
 31
0.0
 11
-36.5121651892
 21
43.3225724707
 31
0.0
 11
-36.5124344366
 21
43.4700685453
 31
0.0
 11
-36.5127721351
 21
43.6363795703
 31
0.0
 11
-36.5132094374
 21
43.8254436342
 31
0.0
 11
-36.5137717425
 21
44.0358415708
 31
0.0
 11
-36.5144938101
 21
44.269747579
 31
0.0
 11
-36.5154119699
 21
44.532945128
 31
0.0
  0
SPLINE
  5
33C
100
AcDbEntity
  8
RACCORDO
100
AcDbSpline
 62
253
  6
CONTINUOUS
 70
0
 71
3
 72
56
 73
52
 74
50
 42
0.0000001
 43
0.0000001
 44
0.0000000001
 12
0.1203304606
 22
32.7496931844
 32
0.0
 13
-0.0000013871
 23
32.7499142456
 33
0.0
 40
0.0
 40
0.0
 40
0.0
 40
0.0
 40
0.0080818246
 40
0.0152555244
 40
0.0217011568
 40
0.0274856059
 40
0.0325703449
 40
0.0370818392
 40
0.041254076
 40
0.0453052496
 40
0.0493662025
 40
0.0534382237
 40
0.0575025175
 40
0.0615301704
 40
0.0655960003
 40
0.0698861036
 40
0.0745855308
 40
0.0798480568
 40
0.0857234465
 40
0.0922290934
 40
0.0993808067
 40
0.1071879382
 40
0.1156582682
 40
0.1248031763
 40
0.1346690715
 40
0.145339332
 40
0.1568977206
 40
0.1694250383
 40
0.1829883397
 40
0.1976680366
 40
0.2135371526
 40
0.2306780015
 40
0.2491985718
 40
0.2692127929
 40
0.2908405198
 40
0.3142129883
 40
0.3394705547
 40
0.3667799918
 40
0.3963145355
 40
0.4282209415
 40
0.4626637812
 40
0.4998285787
 40
0.5399155947
 40
0.5831762871
 40
0.6298897132
 40
0.6803643967
 40
0.7348938843
 40
0.793767451
 40
0.8573167211
 40
0.9259225226
 40
1.0
 40
1.0
 40
1.0
 40
1.0
 10
-36.5154119701
 20
-44.4668703032
 30
0.0
 10
-36.5150878068
 20
-44.3786445446
 30
0.0
 10
-36.5145047056
 20
-44.2121065216
 30
0.0
 10
-36.5137712665
 20
-43.9752039756
 30
0.0
 10
-36.5132072939
 20
-43.7633806628
 30
0.0
 10
-36.5127724769
 20
-43.5743615317
 30
0.0
 10
-36.5124337981
 20
-43.4064565277
 30
0.0
 10
-36.5121613225
 20
-43.2561513684
 30
0.0
 10
-36.5119284296
 20
-43.1171292169
 30
0.0
 10
-36.5117143494
 20
-42.98302544
 30
0.0
 10
-36.5115068673
 20
-42.8500156709
 30
0.0
 10
-36.5113049252
 20
-42.7168626648
 30
0.0
 10
-36.5111094706
 20
-42.5840731734
 30
0.0
 10
-36.5109203327
 20
-42.4513512617
 30
0.0
 10
-36.5107342651
 20
-42.3161642622
 30
0.0
 10
-36.5105455152
 20
-42.1736437422
 30
0.0
 10
-36.5103484184
 20
-42.0180593244
 30
0.0
 10
-36.510140683
 20
-41.8451689081
 30
0.0
 10
-36.5099235383
 20
-41.6525606434
 30
0.0
 10
-36.5097008163
 20
-41.4393287981
 30
0.0
 10
-36.5094772923
 20
-41.2050088173
 30
0.0
 10
-36.5092578844
 20
-40.9492410888
 30
0.0
 10
-36.509047405
 20
-40.6717143599
 30
0.0
 10
-36.5088503786
 20
-40.3717128382
 30
0.0
 10
-36.5086697021
 20
-40.0476954562
 30
0.0
 10
-36.508506423
 20
-39.6973309691
 30
0.0
 10
-36.5083589915
 20
-39.3179126866
 30
0.0
 10
-36.5082203382
 20
-38.9069121195
 30
0.0
 10
-36.508086571
 20
-38.4618373545
 30
0.0
 10
-36.5079638743
 20
-37.9802813834
 30
0.0
 10
-36.5078560596
 20
-37.4596706155
 30
0.0
 10
-36.5077687111
 20
-36.8971304194
 30
0.0
 10
-36.5077045067
 20
-36.2893396072
 30
0.0
 10
-36.5076630118
 20
-35.6325671704
 30
0.0
 10
-36.507651233
 20
-34.9228283153
 30
0.0
 10
-36.5076646518
 20
-34.1558497574
 30
0.0
 10
-36.5076868312
 20
-33.3268460253
 30
0.0
 10
-36.5076991767
 20
-32.4305731484
 30
0.0
 10
-36.5076836059
 20
-31.4617172963
 30
0.0
 10
-36.5076248288
 20
-30.4149886711
 30
0.0
 10
-36.5075340383
 20
-29.2849633285
 30
0.0
 10
-36.5074162563
 20
-28.065633229
 30
0.0
 10
-36.5072777346
 20
-26.7500418252
 30
0.0
 10
-36.5071326409
 20
-25.3302114993
 30
0.0
 10
-36.5069914933
 20
-23.7969827655
 30
0.0
 10
-36.5068659112
 20
-22.140736671
 30
0.0
 10
-36.5067683239
 20
-20.3517427206
 30
0.0
 10
-36.506691829
 20
-18.4200182381
 30
0.0
 10
-36.5066314407
 20
-16.3346277311
 30
0.0
 10
-36.506593251
 20
-14.0832616329
 30
0.0
 10
-36.5065861718
 20
-12.5256399174
 30
0.0
 10
-36.5065862061
 20
-11.7169629066
 30
0.0
 11
-36.5154119701
 21
-44.4668703032
 31
0.0
 11
-36.5144889407
 21
-44.2021928505
 31
0.0
 11
-36.5137645407
 21
-43.9672559122
 31
0.0
 11
-36.513201504
 21
-43.7561627575
 31
0.0
 11
-36.512764426
 21
-43.5667230495
 31
0.0
 11
-36.5124271834
 21
-43.4001986247
 31
0.0
 11
-36.5121581293
 21
-43.2524478163
 31
0.0
 11
-36.5119280376
 21
-43.115807613
 31
0.0
 11
-36.5117153254
 21
-42.9831321949
 31
0.0
 11
-36.5115080139
 21
-42.850136499
 31
0.0
 11
-36.5113057918
 21
-42.7167783056
 31
0.0
 11
-36.5111099257
 21
-42.5836731763
 31
0.0
 11
-36.5109219922
 21
-42.4517680249
 31
0.0
 11
-36.510738758
 21
-42.3186125702
 31
0.0
 11
-36.5105527194
 21
-42.1781121772
 31
0.0
 11
-36.5103577853
 21
-42.0242064629
 31
0.0
 11
-36.5101507346
 21
-41.8518593135
 31
0.0
 11
-36.5099338178
 21
-41.6594409242
 31
0.0
 11
-36.5097112474
 21
-41.4463816653
 31
0.0
 11
-36.5094877041
 21
-41.2121637746
 31
0.0
 11
-36.5092681595
 21
-40.9564809801
 31
0.0
 11
-36.5090575102
 21
-40.6790784796
 31
0.0
 11
-36.5088603086
 21
-40.3795835892
 31
0.0
 11
-36.5086793374
 21
-40.0564764178
 31
0.0
 11
-36.5085152721
 21
-39.7070263382
 31
0.0
 11
-36.5083662029
 21
-39.3284901337
 31
0.0
 11
-36.5082265703
 21
-38.9182215768
 31
0.0
 11
-36.5080934875
 21
-38.4740246399
 31
0.0
 11
-36.5079708558
 21
-37.9932658381
 31
0.0
 11
-36.5078632501
 21
-37.4735536638
 31
0.0
 11
-36.5077755144
 21
-36.9121923371
 31
0.0
 11
-36.5077103547
 21
-36.3056452518
 31
0.0
 11
-36.5076690165
 21
-35.6501812292
 31
0.0
 11
-36.5076554176
 21
-34.9418750284
 31
0.0
 11
-36.5076654272
 21
-34.1764286883
 31
0.0
 11
-36.5076845123
 21
-33.3492455558
 31
0.0
 11
-36.5076945674
 21
-32.4548638314
 31
0.0
 11
-36.5076778099
 21
-31.487610058
 31
0.0
 11
-36.5076223318
 21
-30.4426780015
 31
0.0
 11
-36.5075334865
 21
-29.3146779566
 31
0.0
 11
-36.5074176403
 21
-28.09753403
 31
0.0
 11
-36.5072820353
 21
-26.784687702
 31
0.0
 11
-36.5071387933
 21
-25.3679037432
 31
0.0
 11
-36.5069992528
 21
-23.8380430506
 31
0.0
 11
-36.5068749025
 21
-22.1850014996
 31
0.0
 11
-36.5067751899
 21
-20.3991654595
 31
0.0
 11
-36.5066971393
 21
-18.4710612006
 31
0.0
 11
-36.5066370407
 21
-16.3898280529
 31
0.0
 11
-36.5065987361
 21
-14.1429939389
 31
0.0
 11
-36.5065862061
 21
-11.7169629066
 31
0.0
  0
SPLINE
  5
33D
100
AcDbEntity
  8
RACCORDO
100
AcDbSpline
 62
253
  6
CONTINUOUS
 70
0
 71
3
 72
56
 73
52
 74
50
 42
0.0000001
 43
0.0000001
 44
0.0000000001
 12
-0.0006178903
 22
-32.7487188977
 32
0.0
 13
0.1147251972
 23
-32.7485179505
 33
0.0
 40
0.0
 40
0.0
 40
0.0
 40
0.0
 40
0.0751588052
 40
0.1447861331
 40
0.2092617888
 40
0.2689576819
 40
0.3242116769
 40
0.3753345473
 40
0.4226184582
 40
0.4663398625
 40
0.5067621152
 40
0.5441426578
 40
0.5787245538
 40
0.6107189836
 40
0.6402827379
 40
0.6675678603
 40
0.6927381155
 40
0.715965325
 40
0.7374044529
 40
0.7572106079
 40
0.7754974163
 40
0.792377287
 40
0.807950851
 40
0.8223122335
 40
0.8355520386
 40
0.8477090364
 40
0.8588121894
 40
0.8689087241
 40
0.8781517528
 40
0.8867548912
 40
0.8949457203
 40
0.9028367637
 40
0.9103572008
 40
0.9173698314
 40
0.9237144279
 40
0.9292608212
 40
0.9341156499
 40
0.9385363964
 40
0.9427973749
 40
0.9470573758
 40
0.9513260432
 40
0.9555902118
 40
0.9598612591
 40
0.9642052137
 40
0.9687424305
 40
0.9736103994
 40
0.9788779667
 40
0.9844115225
 40
0.9899519609
 40
0.9952416547
 40
1.0
 40
1.0
 40
1.0
 40
1.0
 10
58.0054344656
 20
-11.718162148
 30
0.0
 10
58.0054189857
 20
-12.5386136757
 30
0.0
 10
58.0053953472
 20
-14.1191338
 30
0.0
 10
58.0053891777
 20
-16.4034856326
 30
0.0
 10
58.0054145514
 20
-18.5190406118
 30
0.0
 10
58.0054678214
 20
-20.4776928443
 30
0.0
 10
58.0055510737
 20
-22.2905828716
 30
0.0
 10
58.0056650851
 20
-23.9679807245
 30
0.0
 10
58.0058063216
 20
-25.5194860506
 30
0.0
 10
58.005973939
 20
-26.954180867
 30
0.0
 10
58.0061535912
 20
-28.2807681394
 30
0.0
 10
58.0063211185
 20
-29.50758635
 30
0.0
 10
58.0064697707
 20
-30.6424044266
 30
0.0
 10
58.0065725843
 20
-31.6918925745
 30
0.0
 10
58.0065977606
 20
-32.6617273982
 30
0.0
 10
58.0065688454
 20
-33.5570678969
 30
0.0
 10
58.0065076033
 20
-34.3832371511
 30
0.0
 10
58.0064587412
 20
-35.1455901297
 30
0.0
 10
58.0064500586
 20
-35.8493873076
 30
0.0
 10
58.0064958398
 20
-36.4992538822
 30
0.0
 10
58.0066020431
 20
-37.0993505043
 30
0.0
 10
58.0067597268
 20
-37.6532431348
 30
0.0
 10
58.0069397957
 20
-38.1642848659
 30
0.0
 10
58.0071248724
 20
-38.6355907648
 30
0.0
 10
58.0073011866
 20
-39.0696006083
 30
0.0
 10
58.0074668912
 20
-39.4680428391
 30
0.0
 10
58.0076364015
 20
-39.8321723716
 30
0.0
 10
58.0078166846
 20
-40.164492311
 30
0.0
 10
58.0080096102
 20
-40.4695214793
 30
0.0
 10
58.008217065
 20
-40.7537474945
 30
0.0
 10
58.0084409672
 20
-41.0232148963
 30
0.0
 10
58.0086816285
 20
-41.2808632519
 30
0.0
 10
58.0089355322
 20
-41.5256500914
 30
0.0
 10
58.0091945409
 20
-41.7535555299
 30
0.0
 10
58.0094478636
 20
-41.9599118248
 30
0.0
 10
58.0096868691
 20
-42.142713036
 30
0.0
 10
58.0099095883
 20
-42.3045130428
 30
0.0
 10
58.0101219472
 20
-42.4522811543
 30
0.0
 10
58.0103328057
 20
-42.5935559783
 30
0.0
 10
58.0105485017
 20
-42.7331706608
 30
0.0
 10
58.010771407
 20
-42.8728201565
 30
0.0
 10
58.0110010902
 20
-43.0125902258
 30
0.0
 10
58.0112385249
 20
-43.1531821363
 30
0.0
 10
58.0114923237
 20
-43.2967546838
 30
0.0
 10
58.0117768022
 20
-43.4468433252
 30
0.0
 10
58.0121081484
 20
-43.6070142722
 30
0.0
 10
58.0125006407
 20
-43.7780613866
 30
0.0
 10
58.0129583753
 20
-43.956449203
 30
0.0
 10
58.0134719245
 20
-44.1350784073
 30
0.0
 10
58.0140110575
 20
-44.3052451108
 30
0.0
 10
58.014384224
 20
-44.4149312799
 30
0.0
 10
58.0145661913
 20
-44.4668741982
 30
0.0
 11
58.0054344656
 21
-11.718162148
 31
0.0
 11
58.0053996637
 21
-14.1795167314
 31
0.0
 11
58.0053948248
 21
-16.4597225211
 31
0.0
 11
58.0054207335
 21
-18.571217645
 31
0.0
 11
58.0054754771
 21
-20.5261816684
 31
0.0
 11
58.0055600518
 21
-22.3356792175
 31
0.0
 11
58.0056746198
 21
-24.0098877256
 31
0.0
 11
58.0058167808
 21
-25.5583752259
 31
0.0
 11
58.0059827575
 21
-26.9901951945
 31
0.0
 11
58.0061583469
 21
-28.313972176
 31
0.0
 11
58.0063241114
 21
-29.538137047
 31
0.0
 11
58.0064669945
 21
-30.6706498289
 31
0.0
 11
58.0065621128
 21
-31.7184264103
 31
0.0
 11
58.0065886294
 21
-32.6866014907
 31
0.0
 11
58.0065616187
 21
-33.5801542935
 31
0.0
 11
58.0065074648
 21
-34.4044479039
 31
0.0
 11
58.0064643144
 21
-35.1651092564
 31
0.0
 11
58.0064599094
 21
-35.8672132309
 31
0.0
 11
58.0065089839
 21
-36.5158394332
 31
0.0
 11
58.0066159416
 21
-37.1147089707
 31
0.0
 11
58.0067702723
 21
-37.6675030883
 31
0.0
 11
58.0069480255
 21
-38.1775173278
 31
0.0
 11
58.007130786
 21
-38.6478341706
 31
0.0
 11
58.0073067145
 21
-39.0814207916
 31
0.0
 11
58.0074751186
 21
-39.4795468589
 31
0.0
 11
58.0076464034
 21
-39.8431608546
 31
0.0
 11
58.0078269168
 21
-40.1738093815
 31
0.0
 11
58.0080191188
 21
-40.476506672
 31
0.0
 11
58.0082252099
 21
-40.7582483556
 31
0.0
 11
58.0084483844
 21
-41.0264874234
 31
0.0
 11
58.008689958
 21
-41.284908874
 31
0.0
 11
58.0089454975
 21
-41.5311934198
 31
0.0
 11
58.0092064908
 21
-41.7608479419
 31
0.0
 11
58.0094615114
 21
-41.9686251928
 31
0.0
 11
58.0096989688
 21
-42.1502623102
 31
0.0
 11
58.0099177919
 21
-42.3092515815
 31
0.0
 11
58.0101258157
 21
-42.4540252173
 31
0.0
 11
58.0103340404
 21
-42.5935666468
 31
0.0
 11
58.0105495457
 21
-42.7330760541
 31
0.0
 11
58.0107725837
 21
-42.8728692647
 31
0.0
 11
58.0110020256
 21
-43.0125151345
 31
0.0
 11
58.0112390049
 21
-43.1523862608
 31
0.0
 11
58.0114915553
 21
-43.2946449842
 31
0.0
 11
58.0117740995
 21
-43.4432327557
 31
0.0
 11
58.0121048911
 21
-43.6026521563
 31
0.0
 11
58.0125015862
 21
-43.775157782
 31
0.0
 11
58.0129675091
 21
-43.9563740464
 31
0.0
 11
58.013488869
 21
-44.1378155553
 31
0.0
 11
58.0140365434
 21
-44.3110453871
 31
0.0
 11
58.0145661913
 21
-44.4668741982
 31
0.0
  0
SPLINE
  5
33E
100
AcDbEntity
  8
RACCORDO
100
AcDbSpline
 62
253
  6
CONTINUOUS
 70
0
 71
3
 72
59
 73
55
 74
53
 42
0.0000001
 43
0.0000001
 44
0.0000000001
 12
-0.120486376
 22
-32.749695422
 32
0.0
 13
0.0000011652
 23
-32.7499170564
 33
0.0
 40
0.0
 40
0.0
 40
0.0
 40
0.0
 40
0.0040934519
 40
0.0082700822
 40
0.0124977884
 40
0.0167507468
 40
0.0210096868
 40
0.025260894
 40
0.0294950755
 40
0.0337071577
 40
0.0378946865
 40
0.0420549689
 40
0.0461867277
 40
0.0503004943
 40
0.0544152077
 40
0.0585349102
 40
0.0627061149
 40
0.0670907441
 40
0.071905944
 40
0.0773314096
 40
0.0833889154
 40
0.0899395486
 40
0.0968826083
 40
0.1042123979
 40
0.1119748759
 40
0.12026459
 40
0.1292047149
 40
0.1389138093
 40
0.1494901126
 40
0.1609971686
 40
0.173488332
 40
0.1870104944
 40
0.2016321643
 40
0.2174313604
 40
0.2345018242
 40
0.2529438775
 40
0.2728688866
 40
0.2943941935
 40
0.3176507489
 40
0.3427830601
 40
0.369957611
 40
0.3993438131
 40
0.4310890569
 40
0.4653582538
 40
0.502332987
 40
0.5422178644
 40
0.5852617925
 40
0.6317425863
 40
0.681965882
 40
0.7362222399
 40
0.7947998084
 40
0.8580300597
 40
0.9262929325
 40
1.0
 40
1.0
 40
1.0
 40
1.0
 10
58.014262731
 20
44.5329479449
 30
0.0
 10
58.0140983293
 20
44.4882615108
 30
0.0
 10
58.013774157
 20
44.3979805904
 30
0.0
 10
58.0133110716
 20
44.2615475307
 30
0.0
 10
58.0128727791
 20
44.123373105
 30
0.0
 10
58.0124677966
 20
43.9843000283
 30
0.0
 10
58.0120997488
 20
43.8449702968
 30
0.0
 10
58.0117676296
 20
43.7058454558
 30
0.0
 10
58.0114694068
 20
43.5672320694
 30
0.0
 10
58.0112011614
 20
43.4293137771
 30
0.0
 10
58.0109575541
 20
43.2922021704
 30
0.0
 10
58.0107324198
 20
43.1559673947
 30
0.0
 10
58.0105176867
 20
43.0205378386
 30
0.0
 10
58.0103086969
 20
42.8856057353
 30
0.0
 10
58.0101058665
 20
42.7508052376
 30
0.0
 10
58.0099082624
 20
42.6153777004
 30
0.0
 10
58.0097130349
 20
42.4770035825
 30
0.0
 10
58.0095146485
 20
42.3310369671
 30
0.0
 10
58.0093068425
 20
42.1713780398
 30
0.0
 10
58.0090869961
 20
41.9934569237
 30
0.0
 10
58.0088586113
 20
41.7965907046
 30
0.0
 10
58.0086288929
 20
41.5831574485
 30
0.0
 10
58.0084045417
 20
41.3558351168
 30
0.0
 10
58.0081892911
 20
41.115283499
 30
0.0
 10
58.0079846557
 20
40.8600309268
 30
0.0
 10
58.007791834
 20
40.5871988912
 30
0.0
 10
58.0076122007
 20
40.2931163347
 30
0.0
 10
58.0074472092
 20
39.974071897
 30
0.0
 10
58.0072976707
 20
39.6270051887
 30
0.0
 10
58.0071603042
 20
39.2495676293
 30
0.0
 10
58.0070274335
 20
38.8399711867
 30
0.0
 10
58.0068994575
 20
38.3963736259
 30
0.0
 10
58.0067823956
 20
37.9166634618
 30
0.0
 10
58.0066819759
 20
37.398217768
 30
0.0
 10
58.0066019352
 20
36.8380663229
 30
0.0
 10
58.0065428476
 20
36.232874864
 30
0.0
 10
58.0065071489
 20
35.5790514887
 30
0.0
 10
58.0065004241
 20
34.8726699313
 30
0.0
 10
58.0065159394
 20
34.1094421371
 30
0.0
 10
58.0065373942
 20
33.2845435853
 30
0.0
 10
58.0065473292
 20
32.3927298928
 30
0.0
 10
58.0065277773
 20
31.4287252019
 30
0.0
 10
58.0064662698
 20
30.3872708245
 30
0.0
 10
58.0063742917
 20
29.2629751945
 30
0.0
 10
58.0062560266
 20
28.0498221242
 30
0.0
 10
58.0061180551
 20
26.7408784816
 30
0.0
 10
58.0059742502
 20
25.3281606071
 30
0.0
 10
58.0058346459
 20
23.8025819522
 30
0.0
 10
58.0057108553
 20
22.1546012462
 30
0.0
 10
58.0056146934
 20
20.3745644163
 30
0.0
 10
58.005538949
 20
18.4525353462
 30
0.0
 10
58.0054789058
 20
16.3776022085
 30
0.0
 10
58.0054415543
 20
14.1375057901
 30
0.0
 10
58.0054344103
 20
12.5876711998
 30
0.0
 10
58.0054344389
 20
11.7830377506
 30
0.0
 11
58.014262731
 21
44.5329479449
 31
0.0
 11
58.0137817631
 21
44.3988885982
 31
0.0
 11
58.013317999
 21
44.2621050885
 31
0.0
 11
58.0128796356
 21
44.1236487539
 31
0.0
 11
58.0124742606
 21
43.9843653097
 31
0.0
 11
58.0121054441
 21
43.8448858661
 31
0.0
 11
58.0117726669
 21
43.705659581
 31
0.0
 11
58.011473673
 21
43.5669908094
 31
0.0
 11
58.0112045196
 21
43.4290457304
 31
0.0
 11
58.0109598729
 21
43.2919047274
 31
0.0
 11
58.0107334314
 21
43.1556560104
 31
0.0
 11
58.0105182052
 21
43.0203414232
 31
0.0
 11
58.0103097049
 21
42.8856160692
 31
0.0
 11
58.010106971
 21
42.7508597
 31
0.0
 11
58.0099101609
 21
42.6159399299
 31
0.0
 11
58.0097174708
 21
42.4793334572
 31
0.0
 11
58.0095223499
 21
42.3357373452
 31
0.0
 11
58.0093171429
 21
42.1780400817
 31
0.0
 11
58.0090976355
 21
42.0003566715
 31
0.0
 11
58.0088675189
 21
41.8019739923
 31
0.0
 11
58.0086366063
 21
41.587441421
 31
0.0
 11
58.0084121044
 21
41.3600569019
 31
0.0
 11
58.0081971367
 21
41.1200069973
 31
0.0
 11
58.0079931612
 21
40.8657865687
 31
0.0
 11
58.0078010282
 21
40.5942991862
 31
0.0
 11
58.0076217114
 21
40.3015108921
 31
0.0
 11
58.0074564819
 21
39.9835389019
 31
0.0
 11
58.0073057489
 21
39.6371658771
 31
0.0
 11
58.0071665964
 21
39.2603107728
 31
0.0
 11
58.0070334351
 21
38.8512262294
 31
0.0
 11
58.0069060743
 21
38.4083765505
 31
0.0
 11
58.006789394
 21
37.9295180897
 31
0.0
 11
58.0066888756
 21
37.4120957372
 31
0.0
 11
58.0066081287
 21
36.8530394705
 31
0.0
 11
58.0065485927
 21
36.2490637562
 31
0.0
 11
58.0065128162
 21
35.5965213622
 31
0.0
 11
58.0065039754
 21
34.8915693462
 31
0.0
 11
58.0065162163
 21
34.1299190857
 31
0.0
 11
58.0065348543
 21
33.3068379794
 31
0.0
 11
58.0065425817
 21
32.4168736904
 31
0.0
 11
58.0065223198
 21
31.4544780089
 31
0.0
 11
58.0064641057
 21
30.4148239086
 31
0.0
 11
58.0063738871
 21
29.2925105588
 31
0.0
 11
58.0062575856
 21
28.0815911184
 31
0.0
 11
58.006122447
 21
26.7753646967
 31
0.0
 11
58.0059803928
 21
25.3656796289
 31
0.0
 11
58.0058423825
 21
23.8434374935
 31
0.0
 11
58.0057197219
 21
22.1986287309
 31
0.0
 11
58.0056214039
 21
20.4217375109
 31
0.0
 11
58.0055441707
 21
18.5033270053
 31
0.0
 11
58.0054845661
 21
16.4325415212
 31
0.0
 11
58.0054468682
 21
14.1969380981
 31
0.0
 11
58.0054344389
 21
11.7830377506
 31
0.0
  0
SPLINE
  5
33F
100
AcDbEntity
  8
RACCORDO
100
AcDbSpline
 62
253
  6
CONTINUOUS
 70
0
 71
3
 72
43
 73
39
 74
37
 42
0.0000001
 43
0.0000001
 44
0.0000000001
 12
23.9999608045
 22
-0.0437708998
 32
0.0
 13
24.0000007189
 23
0.0000033426
 33
0.0
 40
0.0
 40
0.0
 40
0.0
 40
0.0
 40
0.0102229035
 40
0.020608697
 40
0.0310672763
 40
0.041529382
 40
0.0519654317
 40
0.0623891827
 40
0.0728657292
 40
0.0833970872
 40
0.0939240445
 40
0.1045373086
 40
0.1155863472
 40
0.1274400873
 40
0.1404240448
 40
0.1546543087
 40
0.1701002917
 40
0.1867535966
 40
0.2047037823
 40
0.2240835477
 40
0.2450072594
 40
0.26757765
 40
0.2919103788
 40
0.3181324299
 40
0.346407721
 40
0.3769231143
 40
0.4098642589
 40
0.4453856288
 40
0.4836670596
 40
0.5249678078
 40
0.5695564411
 40
0.617649136
 40
0.6695848373
 40
0.7257948699
 40
0.786591025
 40
0.8522111532
 40
0.9230694656
 40
1.0
 40
1.0
 40
1.0
 40
1.0
 10
-33.7505758836
 20
47.2997639096
 30
0.0
 10
-33.6687927895
 20
47.2996147544
 30
0.0
 10
-33.5039234156
 20
47.2993498056
 30
0.0
 10
-33.2553853803
 20
47.2990446424
 30
0.0
 10
-33.0049336447
 20
47.2988168611
 30
0.0
 10
-32.7540798132
 20
47.2986501641
 30
0.0
 10
-32.5035045852
 20
47.2985247464
 30
0.0
 10
-32.2528138232
 20
47.2984166125
 30
0.0
 10
-32.0013605985
 20
47.2983012918
 30
0.0
 10
-31.7490817276
 20
47.2981758874
 30
0.0
 10
-31.4957091184
 20
47.2980462528
 30
0.0
 10
-31.2381950647
 20
47.2979134687
 30
0.0
 10
-30.9700667482
 20
47.2977786506
 30
0.0
 10
-30.6829728818
 20
47.2976428714
 30
0.0
 10
-30.370429208
 20
47.2975114823
 30
0.0
 10
-30.0291475822
 20
47.2973961345
 30
0.0
 10
-29.6585111674
 20
47.2973041885
 30
0.0
 10
-29.2581153718
 20
47.2972360119
 30
0.0
 10
-28.8262493126
 20
47.2971911561
 30
0.0
 10
-28.3602199969
 20
47.2971646264
 30
0.0
 10
-27.857229041
 20
47.2971469446
 30
0.0
 10
-27.3146143758
 20
47.2971373519
 30
0.0
 10
-26.7296129943
 20
47.2971354125
 30
0.0
 10
-26.0989724073
 20
47.297138737
 30
0.0
 10
-25.4188705032
 20
47.2971432982
 30
0.0
 10
-24.6850158496
 20
47.2971424254
 30
0.0
 10
-23.8931925638
 20
47.29712456
 30
0.0
 10
-23.0392409768
 20
47.2970896414
 30
0.0
 10
-22.1184125593
 20
47.2970444203
 30
0.0
 10
-21.1250460322
 20
47.2969984692
 30
0.0
 10
-20.0531893887
 20
47.2969716435
 30
0.0
 10
-18.8962531181
 20
47.2969582055
 30
0.0
 10
-17.6463456503
 20
47.2969360241
 30
0.0
 10
-16.2948104995
 20
47.296867425
 30
0.0
 10
-14.8337999336
 20
47.2967399182
 30
0.0
 10
-13.2556031288
 20
47.2965752298
 30
0.0
 10
-11.5483312869
 20
47.2963997796
 30
0.0
 10
-10.3660204775
 20
47.2963292624
 30
0.0
 10
-9.750576184
 20
47.2963293482
 30
0.0
 11
-33.7505758836
 21
47.2997639096
 31
0.0
 11
-33.5052265137
 21
47.2993672828
 31
0.0
 11
-33.2559676516
 21
47.2990585365
 31
0.0
 11
-33.0049618482
 21
47.2988271329
 31
0.0
 11
-32.753871362
 21
47.2986568972
 31
0.0
 11
-32.5034061939
 21
47.2985275865
 31
0.0
 11
-32.2532361877
 21
47.2984156604
 31
0.0
 11
-32.001799091
 21
47.298299885
 31
0.0
 11
-31.749046523
 21
47.2981752568
 31
0.0
 11
-31.4963995719
 21
47.2980464383
 31
0.0
 11
-31.2416812609
 21
47.2979157999
 31
0.0
 11
-30.9765043589
 21
47.2977831612
 31
0.0
 11
-30.6920146188
 21
47.2976495262
 31
0.0
 11
-30.380399657
 21
47.2975197574
 31
0.0
 11
-30.0388733334
 21
47.2974043297
 31
0.0
 11
-29.6681697423
 21
47.2973112108
 31
0.0
 11
-29.268490417
 21
47.2972420364
 31
0.0
 11
-28.8376859504
 21
47.2971955851
 31
0.0
 11
-28.3725715679
 21
47.2971669528
 31
0.0
 11
-27.8704024715
 21
47.2971488148
 31
0.0
 11
-27.3287130831
 21
47.2971388492
 31
0.0
 11
-26.7447275725
 21
47.2971362671
 31
0.0
 11
-26.1153983274
 21
47.2971387952
 31
0.0
 11
-25.4367913221
 21
47.297142319
 31
0.0
 11
-24.70442186
 21
47.2971399394
 31
0.0
 11
-23.9138343671
 21
47.2971227017
 31
0.0
 11
-23.0613214649
 21
47.2970894202
 31
0.0
 11
-22.1425670989
 21
47.2970460265
 31
0.0
 11
-21.1513491138
 21
47.297003059
 31
0.0
 11
-20.0812218829
 21
47.2969746467
 31
0.0
 11
-18.9269971692
 21
47.2969574284
 31
0.0
 11
-17.6805403023
 21
47.2969300444
 31
0.0
 11
-16.3314994815
 21
47.2968613986
 31
0.0
 11
-14.8723917195
 21
47.2967392913
 31
0.0
 11
-13.2975086035
 21
47.296580003
 31
0.0
 11
-11.5969090626
 21
47.296416492
 31
0.0
 11
-9.750576184
 21
47.2963293482
 31
0.0
  0
SPLINE
  5
340
100
AcDbEntity
  8
RACCORDO
100
AcDbSpline
 62
253
  6
CONTINUOUS
 70
0
 71
3
 72
41
 73
37
 74
35
 42
0.0000001
 43
0.0000001
 44
0.0000000001
 12
23.9999052393
 22
-0.000003703
 32
0.0
 13
23.9998713267
 23
0.0403459726
 33
0.0
 40
0.0
 40
0.0
 40
0.0
 40
0.0
 40
0.081132092
 40
0.155548304
 40
0.2238971267
 40
0.2867445224
 40
0.3445913828
 40
0.3978774601
 40
0.4470026438
 40
0.492324839
 40
0.5341737205
 40
0.572836361
 40
0.6085725135
 40
0.6416186015
 40
0.6721845385
 40
0.7004680681
 40
0.7266477219
 40
0.7508879041
 40
0.7733419357
 40
0.7941338219
 40
0.8133694541
 40
0.8311740351
 40
0.8476836411
 40
0.8629716519
 40
0.8770332246
 40
0.889851569
 40
0.9016050958
 40
0.9126377286
 40
0.9233166617
 40
0.9339661988
 40
0.9446679982
 40
0.9553889001
 40
0.9659763278
 40
0.976469563
 40
0.9875144519
 40
1.0
 40
1.0
 40
1.0
 40
1.0
 10
31.2494244168
 20
47.2963293482
 30
0.0
 10
31.8984785904
 20
47.296329248
 30
0.0
 10
33.1428601082
 20
47.2964075252
 30
0.0
 10
34.9340300394
 20
47.2965947157
 30
0.0
 10
36.578922979
 20
47.2967646092
 30
0.0
 10
38.0912616338
 20
47.2968889789
 30
0.0
 10
39.4830988051
 20
47.2969445531
 30
0.0
 10
40.7651587137
 20
47.2969616868
 30
0.0
 10
41.9470216967
 20
47.2969774861
 30
0.0
 10
43.0373874736
 20
47.29701667
 30
0.0
 10
44.0440532356
 20
47.297067958
 30
0.0
 10
44.9740309585
 20
47.2971113358
 30
0.0
 10
45.8335866127
 20
47.297138394
 30
0.0
 10
46.6283688943
 20
47.2971420681
 30
0.0
 10
47.3635304283
 20
47.2971346282
 30
0.0
 10
48.0437607054
 20
47.2971277336
 30
0.0
 10
48.6733851442
 20
47.2971277444
 30
0.0
 10
49.256373783
 20
47.2971382002
 30
0.0
 10
49.7962604508
 20
47.2971606533
 30
0.0
 10
50.2961108767
 20
47.2971947514
 30
0.0
 10
50.7587658428
 20
47.2972474412
 30
0.0
 10
51.1871626986
 20
47.2973222701
 30
0.0
 10
51.5839787025
 20
47.2974191385
 30
0.0
 10
51.9508507509
 20
47.2975371209
 30
0.0
 10
52.288192817
 20
47.2976693435
 30
0.0
 10
52.5972591168
 20
47.2978073407
 30
0.0
 10
52.8820939908
 20
47.2979465069
 30
0.0
 10
53.1498136392
 20
47.2980859047
 30
0.0
 10
53.4087014027
 20
47.2982268578
 30
0.0
 10
53.6649425074
 20
47.2983709917
 30
0.0
 10
53.9215193593
 20
47.2985171832
 30
0.0
 10
54.1775993309
 20
47.2986763521
 30
0.0
 10
54.4320107778
 20
47.2988616946
 30
0.0
 10
54.6890140814
 20
47.2990853156
 30
0.0
 10
54.9612022316
 20
47.2993759596
 30
0.0
 10
55.1494448024
 20
47.2996431604
 30
0.0
 10
55.249328652
 20
47.2998110743
 30
0.0
 11
31.2494244168
 21
47.2963293482
 31
0.0
 11
33.1965869352
 21
47.296424989
 31
0.0
 11
34.9825689611
 21
47.2965994092
 31
0.0
 11
36.6229342219
 21
47.296763159
 31
0.0
 11
38.1312657587
 21
47.2968811923
 31
0.0
 11
39.5195849258
 21
47.296939611
 31
0.0
 11
40.7984457321
 21
47.2969621325
 31
0.0
 11
41.9774454833
 21
47.2969825061
 31
0.0
 11
43.0651738739
 21
47.2970204984
 31
0.0
 11
44.0695430626
 21
47.2970685076
 31
0.0
 11
44.9974427706
 21
47.2971099903
 31
0.0
 11
45.8551070431
 21
47.2971350823
 31
0.0
 11
46.6482100249
 21
47.2971401351
 31
0.0
 11
47.3817896149
 21
47.2971344414
 31
0.0
 11
48.0605916451
 21
47.297128756
 31
0.0
 11
48.6889008561
 21
47.2971296931
 31
0.0
 11
49.2706629312
 21
47.2971408377
 31
0.0
 11
49.8095575612
 21
47.2971636899
 31
0.0
 11
50.3085608588
 21
47.2971995465
 31
0.0
 11
50.7702142072
 21
47.2972536027
 31
0.0
 11
51.1975224565
 21
47.2973292118
 31
0.0
 11
51.5937514231
 21
47.2974268371
 31
0.0
 11
51.9606622157
 21
47.2975447589
 31
0.0
 11
52.298138601
 21
47.2976764515
 31
0.0
 11
52.6057776231
 21
47.2978133957
 31
0.0
 11
52.8878611177
 21
47.2979508816
 31
0.0
 11
53.1526432249
 21
47.2980884441
 31
0.0
 11
53.40893657
 21
47.2982277573
 31
0.0
 11
53.6645244096
 21
47.298371066
 31
0.0
 11
53.9213665397
 21
47.2985193108
 31
0.0
 11
54.1786671166
 21
47.2986816311
 31
0.0
 11
54.4327643092
 21
47.2988682668
 31
0.0
 11
54.6846008643
 21
47.2990895609
 31
0.0
 11
54.9496769925
 21
47.2993782371
 31
0.0
 11
55.249328652
 21
47.2998110743
 31
0.0
  0
SPLINE
  5
341
100
AcDbEntity
  8
RACCORDO
100
AcDbSpline
 62
253
  6
CONTINUOUS
 70
0
 71
3
 72
13
 73
9
 74
7
 42
0.0000001
 43
0.0000001
 44
0.0000000001
 12
0.4695356988
 22
0.712497287
 32
0.0
 13
0.0058958127
 23
0.8532768576
 33
0.0
 40
0.0
 40
0.0
 40
0.0
 40
0.0
 40
0.0452499327
 40
0.1484817837
 40
0.3047434337
 40
0.5060024333
 40
0.7418341246
 40
1.0
 40
1.0
 40
1.0
 40
1.0
 10
55.2494241164
 20
-47.233711798
 30
0.0
 10
55.2565062693
 20
-47.2229649799
 30
0.0
 10
55.2569892761
 20
-47.1779258636
 30
0.0
 10
55.2675344424
 20
-47.0939840313
 30
0.0
 10
55.2715447837
 20
-46.9618082535
 30
0.0
 10
55.2775300267
 20
-46.7936090666
 30
0.0
 10
55.2811169496
 20
-46.5957180287
 30
0.0
 10
55.2827014265
 20
-46.4552587224
 30
0.0
 10
55.2832087924
 20
-46.3818297335
 30
0.0
 11
55.2494241164
 21
-47.233711798
 31
0.0
 11
55.2572329839
 21
-47.1958980373
 31
0.0
 11
55.2646357943
 21
-47.1081222
 31
0.0
 11
55.2712476051
 21
-46.9749485982
 31
0.0
 11
55.2767246059
 21
-46.8033022117
 31
0.0
 11
55.2807819955
 21
-46.6021085913
 31
0.0
 11
55.2832087924
 21
-46.3818297335
 31
0.0
  0
SPLINE
  5
342
100
AcDbEntity
  8
RACCORDO
100
AcDbSpline
 62
253
  6
CONTINUOUS
 70
0
 71
3
 72
13
 73
9
 74
7
 42
0.0000001
 43
0.0000001
 44
0.0000000001
 12
-0.5225968752
 22
-0.6684042302
 32
0.0
 13
-0.8483696319
 23
-0.0118607171
 33
0.0
 40
0.0
 40
0.0
 40
0.0
 40
0.0
 40
0.047503481
 40
0.1511221737
 40
0.307016869
 40
0.507528663
 40
0.7425142216
 40
1.0
 40
1.0
 40
1.0
 40
1.0
 10
58.0145632976
 20
-44.4669625778
 30
0.0
 10
58.0062882407
 20
-44.4775464203
 30
0.0
 10
57.9587964431
 20
-44.4845200017
 30
0.0
 10
57.8774768236
 20
-44.5000976888
 30
0.0
 10
57.7455670985
 20
-44.5103002874
 30
0.0
 10
57.5795013562
 20
-44.5209261579
 30
0.0
 10
57.3833313389
 20
-44.5282519107
 30
0.0
 10
57.2441563636
 20
-44.5312891964
 30
0.0
 10
57.1713419919
 20
-44.5323071851
 30
0.0
 11
58.0145632976
 21
-44.4669625778
 31
0.0
 11
57.9771687734
 21
-44.4819991387
 31
0.0
 11
57.8904181716
 21
-44.4962636311
 31
0.0
 11
57.7587658374
 21
-44.5090236224
 31
0.0
 11
57.5889716656
 21
-44.5196239311
 31
0.0
 11
57.3897540031
 21
-44.5275202682
 31
0.0
 11
57.1713419919
 21
-44.5323071851
 31
0.0
  0
SPLINE
  5
343
100
AcDbEntity
  8
RACCORDO
100
AcDbSpline
 62
253
  6
CONTINUOUS
 70
0
 71
3
 72
41
 73
37
 74
35
 42
0.0000001
 43
0.0000001
 44
0.0000000001
 12
-23.9998312264
 22
0.043320503
 32
0.0
 13
-23.9998703236
 23
-0.0001111673
 33
0.0
 40
0.0
 40
0.0
 40
0.0
 40
0.0
 40
0.0127386963
 40
0.0239537485
 40
0.0345253002
 40
0.0451204363
 40
0.0558380361
 40
0.0665471452
 40
0.0772113194
 40
0.08789475
 40
0.0989106798
 40
0.110629963
 40
0.1234036632
 40
0.1374333542
 40
0.1527074384
 40
0.1692177465
 40
0.1870271639
 40
0.2062646025
 40
0.2270546
 40
0.2495126125
 40
0.2737859204
 40
0.3001016598
 40
0.3286511026
 40
0.3595861912
 40
0.3930194132
 40
0.4290902154
 40
0.4679893076
 40
0.5100404305
 40
0.5555965712
 40
0.6048602516
 40
0.6581124686
 40
0.7159102531
 40
0.7786456401
 40
0.8465768766
 40
0.9200158666
 40
1.0
 40
1.0
 40
1.0
 40
1.0
 10
55.2493333417
 20
-47.2337116555
 30
0.0
 10
55.1474244881
 20
-47.2335277066
 30
0.0
 10
54.9557957567
 20
-47.2332314916
 30
0.0
 10
54.6795950405
 20
-47.2329031125
 30
0.0
 10
54.4205426425
 20
-47.232649406
 30
0.0
 10
54.1654698061
 20
-47.2324385111
 30
0.0
 10
53.9092964927
 20
-47.2322587521
 30
0.0
 10
53.6525708654
 20
-47.2320983736
 30
0.0
 10
53.3961185842
 20
-47.2319471637
 30
0.0
 10
53.1372117446
 20
-47.2318053945
 30
0.0
 10
52.8698640734
 20
-47.2316718358
 30
0.0
 10
52.5857943303
 20
-47.2315455756
 30
0.0
 10
52.2776146227
 20
-47.2314283837
 30
0.0
 10
51.9409966542
 20
-47.231325553
 30
0.0
 10
51.5744859767
 20
-47.2312454557
 30
0.0
 10
51.1777376457
 20
-47.2311954661
 30
0.0
 10
50.7492826479
 20
-47.2311775186
 30
0.0
 10
50.2865903198
 20
-47.2311921316
 30
0.0
 10
49.7867094333
 20
-47.2312362067
 30
0.0
 10
49.2465418124
 20
-47.2313021524
 30
0.0
 10
48.6621684968
 20
-47.2313789544
 30
0.0
 10
48.0290640006
 20
-47.2314490406
 30
0.0
 10
47.3426655428
 20
-47.2314803823
 30
0.0
 10
46.5993275319
 20
-47.231464307
 30
0.0
 10
45.7958189724
 20
-47.2314105774
 30
0.0
 10
44.928598731
 20
-47.2313312428
 30
0.0
 10
43.992435655
 20
-47.2312376364
 30
0.0
 10
42.9803902808
 20
-47.2311504579
 30
0.0
 10
41.8854286449
 20
-47.2311104961
 30
0.0
 10
40.7008587405
 20
-47.2311289222
 30
0.0
 10
39.4183562154
 20
-47.2311534483
 30
0.0
 10
38.0280806185
 20
-47.2311087386
 30
0.0
 10
36.5203735096
 20
-47.2309423418
 30
0.0
 10
34.8875374425
 20
-47.2306901637
 30
0.0
 10
33.1167121589
 20
-47.2303889454
 30
0.0
 10
31.8893338053
 20
-47.2302515308
 30
0.0
 10
31.2494641957
 20
-47.2302544947
 30
0.0
 11
55.2493333417
 21
-47.2337116555
 31
0.0
 11
54.9436066593
 21
-47.2332319903
 31
0.0
 11
54.6744470577
 21
-47.2329066701
 31
0.0
 11
54.4207313114
 21
-47.2326560348
 31
0.0
 11
54.1664495049
 21
-47.2324445922
 31
0.0
 11
53.9092285659
 21
-47.2322620068
 31
0.0
 11
53.6522113876
 21
-47.2320996551
 31
0.0
 11
53.3962726334
 21
-47.2319490468
 31
0.0
 11
53.1398717226
 21
-47.2318088708
 31
0.0
 11
52.8754908681
 21
-47.2316769995
 31
0.0
 11
52.5942296189
 21
-47.2315522046
 31
0.0
 11
52.2876624923
 21
-47.2314358469
 31
0.0
 11
51.9509517445
 21
-47.231333266
 31
0.0
 11
51.5843757139
 21
-47.231253051
 31
0.0
 11
51.1881304628
 21
-47.23120212
 31
0.0
 11
50.760706756
 21
-47.2311830293
 31
0.0
 11
50.2990107246
 21
-47.2311959249
 31
0.0
 11
49.8000534812
 21
-47.2312377415
 31
0.0
 11
49.2610640969
 21
-47.2313011861
 31
0.0
 11
48.6785078601
 21
-47.2313748761
 31
0.0
 11
48.0469335308
 21
-47.2314404947
 31
0.0
 11
47.3617506062
 21
-47.2314721351
 31
0.0
 11
46.6193124906
 21
-47.2314593581
 31
0.0
 11
45.8169195012
 21
-47.2314088218
 31
0.0
 11
44.9512249277
 21
-47.2313321315
 31
0.0
 11
44.017651765
 21
-47.2312422286
 31
0.0
 11
43.0084302701
 21
-47.2311608897
 31
0.0
 11
41.9150888027
 21
-47.2311206926
 31
0.0
 11
40.7327668612
 21
-47.2311291017
 31
0.0
 11
39.4547205577
 21
-47.2311422764
 31
0.0
 11
38.0675812278
 21
-47.2310926693
 31
0.0
 11
36.5619400811
 21
-47.2309363082
 31
0.0
 11
34.9315992339
 21
-47.2306928796
 31
0.0
 11
33.1690730177
 21
-47.2304142031
 31
0.0
 11
31.2494641957
 21
-47.2302544947
 31
0.0
  0
LINE
  5
344
100
AcDbEntity
  8
0
100
AcDbLine
 62
253
  6
CONTINUOUS
 10
44.2994241164
 20
-22.6207886067
 11
31.2494241164
 21
-22.6208252508
  0
LINE
  5
345
100
AcDbEntity
  8
0
100
AcDbLine
 62
253
  6
CONTINUOUS
 10
-9.7505758836
 20
-22.6208252473
 11
-22.8005758836
 21
-22.6207911948
  0
LINE
  5
346
100
AcDbEntity
  8
0
100
AcDbLine
 62
253
  6
CONTINUOUS
 10
-23.204327818
 20
-22.216962578
 11
-23.2043840595
 21
-11.7168711679
  0
LINE
  5
347
100
AcDbEntity
  8
0
100
AcDbLine
 62
253
  6
CONTINUOUS
 10
-23.2043840585
 20
11.783037422
 11
-23.204327819
 21
22.283037422
  0
SPLINE
  5
348
100
AcDbEntity
  8
RACCORDO
100
AcDbSpline
 62
253
  6
CONTINUOUS
 70
0
 71
3
 72
43
 73
39
 74
37
 42
0.0000001
 43
0.0000001
 44
0.0000000001
 12
-24.000000719
 22
0.0000037021
 32
0.0
 13
-23.9999608045
 23
-0.0437709267
 33
0.0
 40
0.0
 40
0.0
 40
0.0
 40
0.0
 40
0.0789299812
 40
0.1514176603
 40
0.2180756739
 40
0.2794396378
 40
0.3359851423
 40
0.3881300643
 40
0.4362543434
 40
0.4806990917
 40
0.5217780611
 40
0.5597674392
 40
0.5949163546
 40
0.6274519351
 40
0.6575765035
 40
0.6854785192
 40
0.7113304999
 40
0.7352902352
 40
0.7575025669
 40
0.7780955836
 40
0.7971767159
 40
0.8148637047
 40
0.831287277
 40
0.8465242924
 40
0.8605582814
 40
0.8733557005
 40
0.8850508045
 40
0.895979406
 40
0.9065162931
 40
0.917009538
 40
0.9275302407
 40
0.938002341
 40
0.9484059918
 40
0.9587835832
 40
0.9691627991
 40
0.979540442
 40
0.9898516052
 40
1.0
 40
1.0
 40
1.0
 40
1.0
 10
-9.750576184
 20
-47.2302545041
 30
0.0
 10
-10.3820160522
 20
-47.2302544067
 30
0.0
 10
-11.5933573707
 20
-47.2303285527
 30
0.0
 10
-13.3379628042
 20
-47.2305092312
 30
0.0
 10
-14.9420400964
 20
-47.2306758294
 30
0.0
 10
-16.4185799913
 20
-47.2308016567
 30
0.0
 10
-17.7790151547
 20
-47.2308648874
 30
0.0
 10
-19.0335328371
 20
-47.2308849849
 30
0.0
 10
-20.1912444668
 20
-47.2308988018
 30
0.0
 10
-21.2604284726
 20
-47.2309290454
 30
0.0
 10
-22.2485332676
 20
-47.2309761002
 30
0.0
 10
-23.1622713973
 20
-47.2310204297
 30
0.0
 10
-24.0076624142
 20
-47.2310534364
 30
0.0
 10
-24.7901349519
 20
-47.2310684154
 30
0.0
 10
-25.5146322899
 20
-47.2310679638
 30
0.0
 10
-26.1856608281
 20
-47.2310632658
 30
0.0
 10
-26.807370701
 20
-47.2310604798
 30
0.0
 10
-27.3835631004
 20
-47.2310632361
 30
0.0
 10
-27.9176837856
 20
-47.2310738315
 30
0.0
 10
-28.4127756457
 20
-47.2310920962
 30
0.0
 10
-28.8716647608
 20
-47.231119972
 30
0.0
 10
-29.2971983185
 20
-47.2311666259
 30
0.0
 10
-29.6919789358
 20
-47.2312365088
 30
0.0
 10
-30.057535549
 20
-47.2313297305
 30
0.0
 10
-30.394082928
 20
-47.2314458839
 30
0.0
 10
-30.7022950067
 20
-47.2315768231
 30
0.0
 10
-30.9856639801
 20
-47.2317115023
 30
0.0
 10
-31.2509486951
 20
-47.2318451628
 30
0.0
 10
-31.5066185369
 20
-47.231977043
 30
0.0
 10
-31.7590251893
 20
-47.2321060538
 30
0.0
 10
-32.0109135488
 20
-47.2322310845
 30
0.0
 10
-32.2620851601
 20
-47.2323457513
 30
0.0
 10
-32.5121118838
 20
-47.2324537926
 30
0.0
 10
-32.7613955246
 20
-47.2325795898
 30
0.0
 10
-33.0104710802
 20
-47.2327464779
 30
0.0
 10
-33.2590151634
 20
-47.2329738425
 30
0.0
 10
-33.5057125959
 20
-47.2332777068
 30
0.0
 10
-33.669388858
 20
-47.2335409973
 30
0.0
 10
-33.7505758836
 20
-47.2336890655
 30
0.0
 11
-9.750576184
 21
-47.2302545041
 31
0.0
 11
-11.6448957866
 21
-47.2303456484
 31
0.0
 11
-13.3846001305
 21
-47.2305141503
 31
0.0
 11
-14.9843924951
 21
-47.2306750521
 31
0.0
 11
-16.4571276677
 21
-47.2307950443
 31
0.0
 11
-17.8142198163
 21
-47.2308593556
 31
0.0
 11
-19.0656979819
 21
-47.2308846139
 31
0.0
 11
-20.2206807132
 21
-47.2309024259
 31
0.0
 11
-21.2873547046
 21
-47.2309333796
 31
0.0
 11
-22.2732499989
 21
-47.2309774298
 31
0.0
 11
-23.184995099
 21
-47.231020037
 31
0.0
 11
-24.0285690946
 21
-47.2310513468
 31
0.0
 11
-24.8094230498
 21
-47.2310661132
 31
0.0
 11
-25.5324127114
 21
-47.2310671548
 31
0.0
 11
-26.2020611084
 21
-47.2310634429
 31
0.0
 11
-26.8225086645
 21
-47.2310614064
 31
0.0
 11
-27.3975423301
 21
-47.2310648002
 31
0.0
 11
-27.9306383063
 21
-47.231075661
 31
0.0
 11
-28.4248707199
 21
-47.2310945822
 31
0.0
 11
-28.88281791
 21
-47.2311245225
 31
0.0
 11
-29.3073056498
 21
-47.2311726777
 31
0.0
 11
-29.7014713899
 21
-47.2312435051
 31
0.0
 11
-30.0671597581
 21
-47.2313379031
 31
0.0
 11
-30.4039754852
 21
-47.2314539785
 31
0.0
 11
-30.7111135264
 21
-47.231583268
 31
0.0
 11
-30.9917959984
 21
-47.231715798
 31
0.0
 11
-31.2540824098
 21
-47.2318472751
 31
0.0
 11
-31.5069676746
 21
-47.2319770246
 31
0.0
 11
-31.7588055272
 21
-47.2321053233
 31
0.0
 11
-32.0113023693
 21
-47.2322295968
 31
0.0
 11
-32.2626327563
 21
-47.2323449755
 31
0.0
 11
-32.5123203572
 21
-47.2324569042
 31
0.0
 11
-32.7613825251
 21
-47.2325864483
 31
0.0
 11
-33.0104836555
 21
-47.2327566486
 31
0.0
 11
-33.2595469877
 21
-47.2329875278
 31
0.0
 11
-33.5070147206
 21
-47.2332949785
 31
0.0
 11
-33.7505758836
 21
-47.2336890655
 31
0.0
  0
LINE
  5
349
100
AcDbEntity
  8
0
100
AcDbLine
 62
253
  6
CONTINUOUS
 10
44.7031710591
 20
22.283037422
 11
44.7032322933
 21
11.7829109901
  0
LINE
  5
34A
100
AcDbEntity
  8
0
100
AcDbLine
 62
253
  6
CONTINUOUS
 10
44.7032322915
 20
-11.7169625781
 11
44.7031580799
 21
-22.216962578
  0
LINE
  5
34B
100
AcDbEntity
  8
0
100
AcDbLine
 62
253
  6
CONTINUOUS
 10
-22.8005758836
 20
22.686866041
 11
-9.7504138843
 21
22.6869000945
  0
LINE
  5
34C
100
AcDbEntity
  8
0
100
AcDbLine
 62
253
  6
CONTINUOUS
 10
31.2494241164
 20
22.6869000914
 11
44.2994241164
 21
22.6868644746
  0
SPLINE
  5
34D
100
AcDbEntity
  8
RACCORDO
100
AcDbSpline
 62
253
  6
CONTINUOUS
 70
0
 71
3
 72
56
 73
52
 74
50
 42
0.0000001
 43
0.0000001
 44
0.0000000001
 12
0.0023571414
 22
-32.819441719
 32
0.0
 13
-1.4028089826
 23
-32.7894478035
 33
0.0
 40
0.0
 40
0.0
 40
0.0
 40
0.0
 40
0.0750288472
 40
0.1445131079
 40
0.2088575799
 40
0.26843363
 40
0.323579227
 40
0.3746038753
 40
0.4217985454
 40
0.4654378455
 40
0.5057781075
 40
0.5430765389
 40
0.5775742276
 40
0.6094713574
 40
0.6389375807
 40
0.6661374424
 40
0.6912460718
 40
0.7144398342
 40
0.7358686593
 40
0.7556823621
 40
0.7739879616
 40
0.7908780852
 40
0.8064474443
 40
0.8207938171
 40
0.834010888
 40
0.8461601565
 40
0.8572756575
 40
0.8673979465
 40
0.8766747744
 40
0.8853166744
 40
0.893549642
 40
0.9014852031
 40
0.9090506721
 40
0.9161065772
 40
0.9224905439
 40
0.9280712878
 40
0.9329560334
 40
0.937403609
 40
0.9416898065
 40
0.9459740776
 40
0.9502661528
 40
0.9545513793
 40
0.9588536791
 40
0.9632532872
 40
0.9678735278
 40
0.9728540656
 40
0.978264598
 40
0.9839662024
 40
0.9896804434
 40
0.9951208565
 40
1.0
 40
1.0
 40
1.0
 40
1.0
 10
57.4146851779
 20
-11.7169625838
 30
0.0
 10
57.4147441291
 20
-12.53776421
 30
0.0
 10
57.4146825561
 20
-14.1187107412
 30
0.0
 10
57.4139466806
 20
-16.4035737184
 30
0.0
 10
57.4126226652
 20
-18.5193856744
 30
0.0
 10
57.4107983896
 20
-20.4783348833
 30
0.0
 10
57.4084606982
 20
-22.2915670566
 30
0.0
 10
57.4056275334
 20
-23.9693483384
 30
0.0
 10
57.4024974325
 20
-25.5212521061
 30
0.0
 10
57.399137769
 20
-26.9562698698
 30
0.0
 10
57.396056737
 20
-28.28302499
 30
0.0
 10
57.3935221901
 20
-29.5097735057
 30
0.0
 10
57.3915409686
 20
-30.6441567903
 30
0.0
 10
57.3911890005
 20
-31.692859142
 30
0.0
 10
57.3922610598
 20
-32.6617238204
 30
0.0
 10
57.3936674013
 20
-33.5563227805
 30
0.0
 10
57.3947004852
 20
-34.3823030163
 30
0.0
 10
57.3939380246
 20
-35.1451499762
 30
0.0
 10
57.3914620432
 20
-35.8500674453
 30
0.0
 10
57.3873134724
 20
-36.5015007639
 30
0.0
 10
57.3816858839
 20
-37.1032677626
 30
0.0
 10
57.3759944591
 20
-37.6585991086
 30
0.0
 10
57.3710674684
 20
-38.1706227677
 30
0.0
 10
57.3665345804
 20
-38.6424658885
 30
0.0
 10
57.3628861859
 20
-39.076900307
 30
0.0
 10
57.3584277094
 20
-39.4759809913
 30
0.0
 10
57.3527256611
 20
-39.8411857718
 30
0.0
 10
57.3463034818
 20
-40.1749488484
 30
0.0
 10
57.3393917009
 20
-40.4816349846
 30
0.0
 10
57.3321082289
 20
-40.767637292
 30
0.0
 10
57.3244961482
 20
-41.0389522808
 30
0.0
 10
57.3165962183
 20
-41.2984778107
 30
0.0
 10
57.3085713665
 20
-41.545116119
 30
0.0
 10
57.3006997959
 20
-41.7747758721
 30
0.0
 10
57.2932851797
 20
-41.9827257749
 30
0.0
 10
57.286512972
 20
-42.1669312781
 30
0.0
 10
57.2803586849
 20
-42.3299613356
 30
0.0
 10
57.2746389594
 20
-42.4788355685
 30
0.0
 10
57.2690962879
 20
-42.6211426585
 30
0.0
 10
57.2635714349
 20
-42.761747981
 30
0.0
 10
57.257983352
 20
-42.9023402399
 30
0.0
 10
57.2524522852
 20
-43.0431318895
 30
0.0
 10
57.2465201985
 20
-43.1850859035
 30
0.0
 10
57.2391327541
 20
-43.3306419151
 30
0.0
 10
57.2305900149
 20
-43.4835654041
 30
0.0
 10
57.2208140571
 20
-43.6474953667
 30
0.0
 10
57.2100223606
 20
-43.8232152243
 30
0.0
 10
57.1988055219
 20
-44.0069502786
 30
0.0
 10
57.1876651329
 20
-44.1910190354
 30
0.0
 10
57.1787089361
 20
-44.3661992629
 30
0.0
 10
57.1736235603
 20
-44.4789790726
 30
0.0
 10
57.1713420582
 20
-44.532307213
 30
0.0
 11
57.4146851779
 21
-11.7169625838
 31
0.0
 11
57.4145595436
 21
-14.1793674655
 31
0.0
 11
57.4138087078
 21
-16.4598019927
 31
0.0
 11
57.412478368
 21
-18.5715512258
 31
0.0
 11
57.4106320888
 21
-20.5268030653
 31
0.0
 11
57.4082774256
 21
-22.3366492438
 31
0.0
 11
57.4054615784
 21
-24.0112473524
 31
0.0
 11
57.4023320005
 21
-25.5601469186
 31
0.0
 11
57.399057979
 21
-26.9923606484
 31
0.0
 11
57.3960381984
 21
-28.3163020835
 31
0.0
 11
57.3935266238
 21
-29.5404132049
 31
0.0
 11
57.3917679432
 21
-30.6726067262
 31
0.0
 11
57.391441658
 21
-31.7194526723
 31
0.0
 11
57.3923665269
 21
-32.6865172312
 31
0.0
 11
57.3936536518
 21
-33.5792005805
 31
0.0
 11
57.3944053833
 21
-34.4032514382
 31
0.0
 11
57.3935873069
 21
-35.1644573331
 31
0.0
 11
57.3910521302
 21
-35.8677348444
 31
0.0
 11
57.3868723083
 21
-36.5179960744
 31
0.0
 11
57.3814476706
 21
-37.1187511432
 31
0.0
 11
57.3759065743
 21
-37.673047874
 31
0.0
 11
57.3709401331
 21
-38.1840014131
 31
0.0
 11
57.3665146283
 21
-38.6548205611
 31
0.0
 11
57.3625791361
 21
-39.0885795999
 31
0.0
 11
57.3579931826
 21
-39.4872854358
 31
0.0
 11
57.3523252113
 21
-39.852045941
 31
0.0
 11
57.3459352655
 21
-40.1841923546
 31
0.0
 11
57.3390814122
 21
-40.4885755115
 31
0.0
 11
57.3318690865
 21
-40.7721061312
 31
0.0
 11
57.3242957227
 21
-41.0422013749
 31
0.0
 11
57.3163799723
 21
-41.3025217378
 31
0.0
 11
57.3083157797
 21
-41.5506852158
 31
0.0
 11
57.3003921365
 21
-41.7821204837
 31
0.0
 11
57.2929308364
 21
-41.9915058097
 31
0.0
 11
57.2862012326
 21
-42.1745390355
 31
0.0
 11
57.2801595625
 21
-42.3347397759
 31
0.0
 11
57.2745581078
 21
-42.4805992091
 31
0.0
 11
57.2690874036
 21
-42.6211633979
 31
0.0
 11
57.2635641961
 21
-42.7616622634
 31
0.0
 11
57.2579911904
 21
-42.9024154908
 31
0.0
 11
57.2524011921
 21
-43.0429430955
 31
0.0
 11
57.246356707
 21
-43.1840127372
 31
0.0
 11
57.239135664
 21
-43.3282247439
 31
0.0
 11
57.2307185653
 21
-43.4796246675
 31
0.0
 11
57.2210478763
 21
-43.6427968124
 31
0.0
 11
57.2102280231
 21
-43.8200375185
 31
0.0
 11
57.1988302259
 21
-44.0068135483
 31
0.0
 11
57.187783684
 21
-44.1940261281
 31
0.0
 11
57.1785841232
 21
-44.3723402954
 31
0.0
 11
57.1713420582
 21
-44.532307213
 31
0.0
  0
SPLINE
  5
34E
100
AcDbEntity
  8
RACCORDO
100
AcDbSpline
 62
253
  6
CONTINUOUS
 70
0
 71
3
 72
17
 73
13
 74
11
 42
0.0000001
 43
0.0000001
 44
0.0000000001
 12
-0.124214782
 22
-2.8984022454
 32
0.0
 13
-2.899875327
 23
-0.0829938312
 33
0.0
 40
0.0
 40
0.0
 40
0.0
 40
0.0
 40
0.0982544648
 40
0.1974369961
 40
0.2971776934
 40
0.3972211337
 40
0.4978206846
 40
0.598531988
 40
0.6992167862
 40
0.8000515171
 40
0.9005990323
 40
1.0
 40
1.0
 40
1.0
 40
1.0
 10
57.1713420582
 20
-44.532307213
 30
0.0
 10
57.1672738392
 20
-44.6272342001
 30
0.0
 10
57.1441773163
 20
-44.8176459622
 30
0.0
 10
57.0667858819
 20
-45.0954685128
 30
0.0
 10
56.9481586848
 20
-45.3603113247
 30
0.0
 10
56.7907775253
 20
-45.6057359055
 30
0.0
 10
56.5979751929
 20
-45.8257116748
 30
0.0
 10
56.374042753
 20
-46.0148601987
 30
0.0
 10
56.1242994156
 20
-46.1687433043
 30
0.0
 10
55.8546549313
 20
-46.2838383101
 30
0.0
 10
55.5724111482
 20
-46.3580898363
 30
0.0
 10
55.3792922704
 20
-46.3790798742
 30
0.0
 10
55.2832087993
 20
-46.3818297632
 30
0.0
 11
57.1713420582
 21
-44.532307213
 31
0.0
 11
57.1372722129
 21
-44.8153061444
 31
0.0
 11
57.0601874899
 21
-45.092523078
 31
0.0
 11
56.9419477499
 21
-45.3566160763
 31
0.0
 11
56.7852898126
 21
-45.6009377407
 31
0.0
 11
56.5929329083
 21
-45.8204204948
 31
0.0
 11
56.3697511557
 21
-46.0089757962
 31
0.0
 11
56.1210865192
 21
-46.16222125
 31
0.0
 11
55.8520912622
 21
-46.2771738988
 31
0.0
 11
55.5699458075
 21
-46.3511989611
 31
0.0
 11
55.2832087993
 21
-46.3818297632
 31
0.0
  0
SPLINE
  5
34F
100
AcDbEntity
  8
RACCORDO
100
AcDbSpline
 62
253
  6
CONTINUOUS
 70
0
 71
3
 72
41
 73
37
 74
35
 42
0.0000001
 43
0.0000001
 44
0.0000000001
 12
-24.0245809204
 22
-0.6860568265
 32
0.0
 13
-24.0343745767
 23
0.0010389206
 33
0.0
 40
0.0
 40
0.0
 40
0.0
 40
0.0
 40
0.0130814874
 40
0.0245002946
 40
0.0351958541
 40
0.0458879463
 40
0.0566708176
 40
0.0674108731
 40
0.0780902982
 40
0.0887944066
 40
0.0998349667
 40
0.1115839809
 40
0.124393384
 40
0.1384655719
 40
0.1537875521
 40
0.1703421484
 40
0.1881868723
 40
0.2074468057
 40
0.228242056
 40
0.2506847296
 40
0.2749190996
 40
0.3011663099
 40
0.3296222119
 40
0.360470172
 40
0.3938282355
 40
0.4298340943
 40
0.4686794549
 40
0.5106926542
 40
0.5562248176
 40
0.6054375502
 40
0.6585979236
 40
0.7162605038
 40
0.7788603783
 40
0.8466712886
 40
0.9200185037
 40
1.0
 40
1.0
 40
1.0
 40
1.0
 10
55.2832087993
 20
-46.3818297632
 30
0.0
 10
55.1784497153
 20
-46.3848213111
 30
0.0
 10
54.982243489
 20
-46.3903179218
 30
0.0
 10
54.700364703
 20
-46.3975110284
 30
0.0
 10
54.4376036599
 20
-46.4034318416
 30
0.0
 10
54.1799329795
 20
-46.4090897754
 30
0.0
 10
53.9218954082
 20
-46.4142722174
 30
0.0
 10
53.6639444679
 20
-46.4186536193
 30
0.0
 10
53.4066158899
 20
-46.4224698029
 30
0.0
 10
53.1468758799
 20
-46.4260244888
 30
0.0
 10
52.8785628617
 20
-46.4293255993
 30
0.0
 10
52.593380314
 20
-46.4324621856
 30
0.0
 10
52.2839072612
 20
-46.4354599394
 30
0.0
 10
51.9458069436
 20
-46.4382971621
 30
0.0
 10
51.5776999688
 20
-46.4409741593
 30
0.0
 10
51.1793662509
 20
-46.4432629179
 30
0.0
 10
50.749480883
 20
-46.445043091
 30
0.0
 10
50.2856194339
 20
-46.4462036149
 30
0.0
 10
49.78492043
 20
-46.4466333576
 30
0.0
 10
49.2443689293
 20
-46.4462914706
 30
0.0
 10
48.6601400644
 20
-46.4453145195
 30
0.0
 10
48.0277374079
 20
-46.4438652699
 30
0.0
 10
47.3423495859
 20
-46.4425971946
 30
0.0
 10
46.5999921656
 20
-46.4424210501
 30
0.0
 10
45.7971490971
 20
-46.4431310977
 30
0.0
 10
44.9302359307
 20
-46.4444578143
 30
0.0
 10
43.9939831355
 20
-46.4461941888
 30
0.0
 10
42.9814107494
 20
-46.4480023223
 30
0.0
 10
41.8857794751
 20
-46.449229459
 30
0.0
 10
40.7008424527
 20
-46.4492085136
 30
0.0
 10
39.4187233354
 20
-46.4489075609
 30
0.0
 10
38.0293533875
 20
-46.4495511456
 30
0.0
 10
36.5226138708
 20
-46.4524378215
 30
0.0
 10
34.8902210278
 20
-46.4568583197
 30
0.0
 10
33.1185783664
 20
-46.4620844856
 30
0.0
 10
31.8901925299
 20
-46.4645286967
 30
0.0
 10
31.2494241164
 20
-46.4645009986
 30
0.0
 11
55.2832087993
 21
-46.3818297632
 31
0.0
 11
54.9689244249
 21
-46.3905514237
 31
0.0
 11
54.6945689691
 21
-46.3975179436
 31
0.0
 11
54.4375753694
 21
-46.4034078431
 31
0.0
 11
54.1806583419
 21
-46.4089939428
 31
0.0
 11
53.9215499723
 21
-46.4141450672
 31
0.0
 11
53.6634573663
 21
-46.4185689113
 31
0.0
 11
53.4068129226
 21
-46.4224179837
 31
0.0
 11
53.1495703363
 21
-46.4259292632
 31
0.0
 11
52.8842375346
 21
-46.4291998793
 31
0.0
 11
52.6018744518
 21
-46.4323096897
 31
0.0
 11
52.2940229692
 21
-46.4352986291
 31
0.0
 11
51.9558187755
 21
-46.4381527349
 31
0.0
 11
51.5875741679
 21
-46.4408122849
 31
0.0
 11
51.1897013809
 21
-46.4431011072
 31
0.0
 11
50.7608183069
 21
-46.4448834422
 31
0.0
 11
50.2979193255
 21
-46.4460508993
 31
0.0
 11
49.7981186932
 21
-46.4465025804
 31
0.0
 11
49.2587231473
 21
-46.4462106665
 31
0.0
 11
48.676265959
 21
-46.4452837493
 31
0.0
 11
48.0454320835
 21
-46.4439503646
 31
0.0
 11
47.3615132272
 21
-46.4428090817
 31
0.0
 11
46.6201018418
 21
-46.442559009
 31
0.0
 11
45.8183618994
 21
-46.4431953591
 31
0.0
 11
44.9529845359
 21
-46.4444679866
 31
0.0
 11
44.0193620806
 21
-46.4461368174
 31
0.0
 11
43.0096025533
 21
-46.4478444581
 31
0.0
 11
41.9152660886
 21
-46.4489969889
 31
0.0
 11
40.7324688523
 21
-46.4491679341
 31
0.0
 11
39.4547925288
 21
-46.4490586155
 31
0.0
 11
38.0689087043
 21
-46.4498545751
 31
0.0
 11
36.5643622829
 21
-46.4525485368
 31
0.0
 11
34.9345750113
 21
-46.4568013432
 31
0.0
 11
33.1717272563
 21
-46.4616578146
 31
0.0
 11
31.2494241164
 21
-46.4645009986
 31
0.0
  0
SPLINE
  5
350
100
AcDbEntity
  8
RACCORDO
100
AcDbSpline
 62
253
  6
CONTINUOUS
 70
0
 71
3
 72
55
 73
51
 74
49
 42
0.0000001
 43
0.0000001
 44
0.0000000001
 12
13.0164991379
 22
-0.007077846
 32
0.0
 13
13.0154337754
 23
-0.1666839617
 33
0.0
 40
0.0
 40
0.0
 40
0.0
 40
0.0
 40
0.0741758245
 40
0.1423136339
 40
0.2049768121
 40
0.2626706782
 40
0.3158296752
 40
0.3648349305
 40
0.4100172061
 40
0.4516751635
 40
0.490107396
 40
0.5255861044
 40
0.5583580859
 40
0.5886460638
 40
0.616649826
 40
0.6425515203
 40
0.6665171566
 40
0.6886931263
 40
0.7092017785
 40
0.7281454404
 40
0.7456467087
 40
0.7618528477
 40
0.7768564047
 40
0.7906470084
 40
0.8031968695
 40
0.8146751764
 40
0.8254355609
 40
0.8358542532
 40
0.84625101
 40
0.8566815208
 40
0.8671082957
 40
0.8774940303
 40
0.8878597593
 40
0.8983777074
 40
0.9089268005
 40
0.9187662909
 40
0.927404149
 40
0.934915384
 40
0.9414951924
 40
0.9473811192
 40
0.9528282492
 40
0.9580971471
 40
0.9633419373
 40
0.9685902701
 40
0.9738303554
 40
0.9790502486
 40
0.984278657
 40
0.9895536444
 40
0.9948288299
 40
1.0
 40
1.0
 40
1.0
 40
1.0
 10
31.2494241165
 20
-25.9021976831
 30
0.0
 10
31.5712606351
 20
-25.9023726848
 30
0.0
 10
32.188735821
 20
-25.9025205008
 30
0.0
 10
33.0780960925
 20
-25.9027161652
 30
0.0
 10
33.8959438689
 20
-25.902995283
 30
0.0
 10
34.6488010385
 20
-25.9033388728
 30
0.0
 10
35.342398695
 20
-25.9037682546
 30
0.0
 10
35.9817106602
 20
-25.9041554064
 30
0.0
 10
36.5711216195
 20
-25.9043425677
 30
0.0
 10
37.1146580114
 20
-25.9044034972
 30
0.0
 10
37.6160922415
 20
-25.9043945895
 30
0.0
 10
38.078971697
 20
-25.9043478847
 30
0.0
 10
38.5065145821
 20
-25.9042727548
 30
0.0
 10
38.901624913
 20
-25.9041730554
 30
0.0
 10
39.2669262057
 20
-25.9040627163
 30
0.0
 10
39.6047959098
 20
-25.9039557593
 30
0.0
 10
39.9173797852
 20
-25.9038353656
 30
0.0
 10
40.2065641658
 20
-25.9037727879
 30
0.0
 10
40.4739590414
 20
-25.9037696664
 30
0.0
 10
40.7210711601
 20
-25.9038185869
 30
0.0
 10
40.9495153748
 20
-25.9039140303
 30
0.0
 10
41.160864106
 20
-25.9040495792
 30
0.0
 10
41.3561128492
 20
-25.9042210674
 30
0.0
 10
41.5354975724
 20
-25.9044227873
 30
0.0
 10
41.6995867792
 20
-25.9046487297
 30
0.0
 10
41.8505283233
 20
-25.9048950732
 30
0.0
 10
41.9922230262
 20
-25.9051640792
 30
0.0
 10
42.1292249944
 20
-25.9054622226
 30
0.0
 10
42.2647956048
 20
-25.9057977477
 30
0.0
 10
42.4004011666
 20
-25.9061780487
 30
0.0
 10
42.5359587572
 20
-25.9066079893
 30
0.0
 10
42.6712350892
 20
-25.9070913687
 30
0.0
 10
42.8069067771
 20
-25.9076360985
 30
0.0
 10
42.943286972
 20
-25.9082480601
 30
0.0
 10
43.0773835966
 20
-25.9089197925
 30
0.0
 10
43.203322549
 20
-25.9096219784
 30
0.0
 10
43.3160805663
 20
-25.910315081
 30
0.0
 10
43.4146952896
 20
-25.9109745089
 30
0.0
 10
43.5013698143
 20
-25.9115961845
 30
0.0
 10
43.57908851
 20
-25.9121875057
 30
0.0
 10
43.6511193217
 20
-25.9127644394
 30
0.0
 10
43.7203682137
 20
-25.9133463829
 30
0.0
 10
43.7887543382
 20
-25.9139501385
 30
0.0
 10
43.8570151346
 20
-25.914588069
 30
0.0
 10
43.9251675345
 20
-25.9152643204
 30
0.0
 10
43.9932329922
 20
-25.9159883838
 30
0.0
 10
44.061449243
 20
-25.9167714145
 30
0.0
 10
44.12990471
 20
-25.9176134529
 30
0.0
 10
44.1981114256
 20
-25.9184857322
 30
0.0
 10
44.243432648
 20
-25.9190708715
 30
0.0
 10
44.2658676551
 20
-25.9193581885
 30
0.0
 11
31.2494241165
 21
-25.9021976831
 31
0.0
 11
32.2149337603
 21
-25.902523521
 31
0.0
 11
33.1018496023
 21
-25.9027400686
 31
0.0
 11
33.91750488
 21
-25.9030189341
 31
0.0
 11
34.6684770678
 21
-25.9033690474
 31
0.0
 11
35.3604210871
 21
-25.9037777928
 31
0.0
 11
35.9982979462
 21
-25.9041335864
 31
0.0
 11
36.5864130528
 21
-25.9043264689
 31
0.0
 11
37.1286538961
 21
-25.9043928573
 31
0.0
 11
37.6289070907
 21
-25.9043871533
 31
0.0
 11
38.0907157339
 21
-25.9043407122
 31
0.0
 11
38.5172922596
 21
-25.9042651998
 31
0.0
 11
38.9115357432
 21
-25.9041671598
 31
0.0
 11
39.2760467285
 21
-25.9040590453
 31
0.0
 11
39.6131961413
 21
-25.9039490961
 31
0.0
 11
39.9251448536
 21
-25.9038414894
 31
0.0
 11
40.2137983804
 21
-25.903781456
 31
0.0
 11
40.4807492729
 21
-25.9037792845
 31
0.0
 11
40.7273294633
 21
-25.9038292176
 31
0.0
 11
40.9551347201
 21
-25.903925192
 31
0.0
 11
41.1660819017
 21
-25.9040615775
 31
0.0
 11
41.3613756415
 21
-25.904234041
 31
0.0
 11
41.5408809351
 21
-25.904436749
 31
0.0
 11
41.7042360595
 21
-25.9046623865
 31
0.0
 11
41.8536432527
 21
-25.9049070059
 31
0.0
 11
41.9937055559
 21
-25.9051734811
 31
0.0
 11
42.1293201528
 21
-25.9054691884
 31
0.0
 11
42.2646491329
 21
-25.9058048062
 31
0.0
 11
42.4004173514
 21
-25.9061864042
 31
0.0
 11
42.5361367924
 21
-25.9066176566
 31
0.0
 11
42.6713218521
 21
-25.9071016421
 31
0.0
 11
42.8062462847
 21
-25.9076439858
 31
0.0
 11
42.9431517835
 21
-25.9082593499
 31
0.0
 11
43.080462336
 21
-25.9089486255
 31
0.0
 11
43.2085360743
 21
-25.9096640326
 31
0.0
 11
43.3209686349
 21
-25.9103559538
 31
0.0
 11
43.4187364461
 21
-25.9110099678
 31
0.0
 11
43.5043803254
 21
-25.9116243466
 31
0.0
 11
43.5809922793
 21
-25.9122073098
 31
0.0
 11
43.6518925778
 21
-25.9127753674
 31
0.0
 11
43.7204727675
 21
-25.9133521302
 31
0.0
 11
43.7887389147
 21
-25.913955881
 31
0.0
 11
43.8570508545
 21
-25.914594979
 31
0.0
 11
43.9252550567
 21
-25.9152733335
 31
0.0
 11
43.9931959435
 21
-25.9159975038
 31
0.0
 11
44.0612470471
 21
-25.9167783737
 31
0.0
 11
44.1299037793
 21
-25.9176190281
 31
0.0
 11
44.1985626764
 21
-25.9184929151
 31
0.0
 11
44.2658676551
 21
-25.9193581885
 31
0.0
  0
SPLINE
  5
351
100
AcDbEntity
  8
RACCORDO
100
AcDbSpline
 62
253
  6
CONTINUOUS
 70
0
 71
3
 72
61
 73
57
 74
55
 42
0.0000001
 43
0.0000001
 44
0.0000000001
 12
5.8290137905
 22
-0.0746058814
 32
0.0
 13
0.0035873448
 23
5.8294901096
 33
0.0
 40
0.0
 40
0.0
 40
0.0
 40
0.0
 40
0.0498556464
 40
0.0944093656
 40
0.1345573593
 40
0.1709031199
 40
0.2037896765
 40
0.2334691582
 40
0.2603140647
 40
0.2846604042
 40
0.3068078347
 40
0.3270329374
 40
0.3455314625
 40
0.3624420086
 40
0.3779360463
 40
0.3930028775
 40
0.4086162144
 40
0.4243913247
 40
0.439996993
 40
0.4555659491
 40
0.4714761638
 40
0.4881593956
 40
0.5054581336
 40
0.5227380162
 40
0.5397135135
 40
0.5564630625
 40
0.5731209243
 40
0.5895362759
 40
0.6047717649
 40
0.6181148123
 40
0.6299043888
 40
0.6405532014
 40
0.650584187
 40
0.6604563241
 40
0.670359743
 40
0.6802537838
 40
0.6901310608
 40
0.7000265187
 40
0.7099821305
 40
0.7199913211
 40
0.7299784533
 40
0.7399896777
 40
0.7503974823
 40
0.7616703857
 40
0.7742551372
 40
0.788578952
 40
0.8050302848
 40
0.8236373677
 40
0.8436940062
 40
0.8644063756
 40
0.8856449399
 40
0.907640542
 40
0.9302746617
 40
0.9532807962
 40
0.976536095
 40
1.0
 40
1.0
 40
1.0
 40
1.0
 10
44.2658676551
 20
-25.9193581885
 30
0.0
 10
44.3627374054
 20
-25.92059803
 30
0.0
 10
44.5463533138
 20
-25.9157368998
 30
0.0
 10
44.8066931034
 20
-25.8894113839
 30
0.0
 10
45.0387685727
 20
-25.8501268595
 30
0.0
 10
45.2459009623
 20
-25.8019439819
 30
0.0
 10
45.4304841582
 20
-25.7480442577
 30
0.0
 10
45.5946535998
 20
-25.6909732715
 30
0.0
 10
45.7406262552
 20
-25.6326480112
 30
0.0
 10
45.8707212397
 20
-25.5743870867
 30
0.0
 10
45.987011384
 20
-25.5170127376
 30
0.0
 10
46.0912217316
 20
-25.4610108403
 30
0.0
 10
46.1847567725
 20
-25.4067716181
 30
0.0
 10
46.2688322329
 20
-25.3546397313
 30
0.0
 10
46.3458863986
 20
-25.3039088168
 30
0.0
 10
46.419569143
 20
-25.2526948295
 30
0.0
 10
46.492393441
 20
-25.1993370127
 30
0.0
 10
46.5646843494
 20
-25.1435280278
 30
0.0
 10
46.6354777138
 20
-25.0859681019
 30
0.0
 10
46.7050188121
 20
-25.0264973791
 30
0.0
 10
46.7746597067
 20
-24.9639639882
 30
0.0
 10
46.8451998671
 20
-24.8974424131
 30
0.0
 10
46.9158580774
 20
-24.8272134563
 30
0.0
 10
46.9849275477
 20
-24.7546349751
 30
0.0
 10
47.0512630373
 20
-24.6809797871
 30
0.0
 10
47.1147432735
 20
-24.6064313157
 30
0.0
 10
47.1755180061
 20
-24.5310546703
 30
0.0
 10
47.2324156451
 20
-24.4563769158
 30
0.0
 10
47.2835622823
 20
-24.3854558986
 30
0.0
 10
47.3278948832
 20
-24.3207352022
 30
0.0
 10
47.3659936595
 20
-24.2625682813
 30
0.0
 10
47.3995871428
 20
-24.2091581342
 30
0.0
 10
47.4303505204
 20
-24.1583800835
 30
0.0
 10
47.4595676885
 20
-24.1083676629
 30
0.0
 10
47.4878681183
 20
-24.0581360519
 30
0.0
 10
47.5153842255
 20
-24.0074593277
 30
0.0
 10
47.5421255908
 20
-23.9563870312
 30
0.0
 10
47.5681285536
 20
-23.9048008028
 30
0.0
 10
47.5934519188
 20
-23.8525924494
 30
0.0
 10
47.6180140998
 20
-23.7998249808
 30
0.0
 10
47.641778857
 20
-23.7465752902
 30
0.0
 10
47.6649919453
 20
-23.6922394009
 30
0.0
 10
47.6882593653
 20
-23.635218447
 30
0.0
 10
47.7123545037
 20
-23.573143923
 30
0.0
 10
47.7378962286
 20
-23.5034812322
 30
0.0
 10
47.7652818941
 20
-23.4237936307
 30
0.0
 10
47.7943394575
 20
-23.3323309873
 30
0.0
 10
47.8241120868
 20
-23.2294406829
 30
0.0
 10
47.8529695573
 20
-23.1177125407
 30
0.0
 10
47.879562457
 20
-23.0001730682
 30
0.0
 10
47.9031226051
 20
-22.8781466313
 30
0.0
 10
47.9232538118
 20
-22.751722312
 30
0.0
 10
47.9394546054
 20
-22.6212705679
 30
0.0
 10
47.951333007
 20
-22.4878955308
 30
0.0
 10
47.9586048874
 20
-22.3525763122
 30
0.0
 10
47.960269428
 20
-22.2617859708
 30
0.0
 10
47.9602974857
 20
-22.2161917701
 30
0.0
 11
44.2658676551
 21
-25.9193581885
 31
0.0
 11
44.5563989649
 21
-25.911668618
 31
0.0
 11
44.8148057178
 21
-25.8855287454
 31
0.0
 11
45.0455623495
 21
-25.8464492008
 31
0.0
 11
45.2519259321
 21
-25.7984277611
 31
0.0
 11
45.4359501307
 21
-25.7446825827
 31
0.0
 11
45.5993734087
 21
-25.6878718033
 31
0.0
 11
45.7446981188
 21
-25.6298156201
 31
0.0
 11
45.8742278518
 21
-25.5718047853
 31
0.0
 11
45.9900030934
 21
-25.5146643085
 31
0.0
 11
46.0938529544
 21
-25.4588422535
 31
0.0
 11
46.1871407481
 21
-25.4047478562
 31
0.0
 11
46.2709202792
 21
-25.3527961206
 31
0.0
 11
46.3463644799
 21
-25.3031342569
 31
0.0
 11
46.4184888843
 21
-25.2530091781
 31
0.0
 11
46.4919120943
 21
-25.1992200152
 31
0.0
 11
46.5647035871
 21
-25.1430221542
 31
0.0
 11
46.6352915027
 21
-25.085633547
 31
0.0
 11
46.7042763084
 21
-25.0266563522
 31
0.0
 11
46.7732925918
 21
-24.964696455
 31
0.0
 11
46.8440390824
 21
-24.8979624978
 31
0.0
 11
46.9155497506
 21
-24.826860437
 31
0.0
 11
46.9849938546
 21
-24.7538903178
 31
0.0
 11
47.0512098645
 21
-24.6803496676
 31
0.0
 11
47.114521733
 21
-24.6060163623
 31
0.0
 11
47.1754612274
 21
-24.5304113354
 31
0.0
 11
47.2334558245
 21
-24.4542942854
 31
0.0
 11
47.2854004963
 21
-24.3822534511
 31
0.0
 11
47.3293639995
 21
-24.3180862237
 31
0.0
 11
47.3670215822
 21
-24.2605941467
 31
0.0
 11
47.4000744679
 21
-24.2080481621
 31
0.0
 11
47.4303755161
 21
-24.1580358078
 31
0.0
 11
47.459407048
 21
-24.1083455747
 31
0.0
 11
47.4877453063
 21
-24.0580473177
 31
0.0
 11
47.5152717019
 21
-24.0073624117
 31
0.0
 11
47.5419774365
 21
-23.9563506241
 31
0.0
 11
47.5679446118
 21
-23.9048402272
 31
0.0
 11
47.5932674304
 21
-23.8526200229
 31
0.0
 11
47.6178914352
 21
-23.799721965
 31
0.0
 11
47.6416175039
 21
-23.7465559013
 31
0.0
 11
47.6645455687
 21
-23.6928880927
 31
0.0
 11
47.6874694246
 21
-23.6367132466
 31
0.0
 11
47.7112496754
 21
-23.5754515197
 31
0.0
 11
47.7365129443
 21
-23.5065758872
 31
0.0
 11
47.7636503817
 21
-23.4276081611
 31
0.0
 11
47.7926986315
 21
-23.3362103197
 31
0.0
 11
47.8228438929
 21
-23.2320135519
 31
0.0
 11
47.8520870009
 21
-23.1188096361
 31
0.0
 11
47.8787188131
 21
-23.0010407262
 31
0.0
 11
47.9021884005
 21
-22.8794755153
 31
0.0
 11
47.9223421244
 21
-22.752846101
 31
0.0
 11
47.9386121105
 21
-22.6219076553
 31
0.0
 11
47.9505106967
 21
-22.4883224596
 31
0.0
 11
47.9577882882
 21
-22.3529513812
 31
0.0
 11
47.9602974857
 21
-22.2161917701
 31
0.0
  0
SPLINE
  5
352
100
AcDbEntity
  8
RACCORDO
100
AcDbSpline
 62
253
  6
CONTINUOUS
 70
0
 71
3
 72
11
 73
7
 74
5
 42
0.0000001
 43
0.0000001
 44
0.0000000001
 12
0.0061848819
 22
10.4992664099
 32
0.0
 13
-0.0132685217
 23
10.4992598475
 33
0.0
 40
0.0
 40
0.0
 40
0.0
 40
0.0
 40
0.2182269297
 40
0.4569284034
 40
0.7165512932
 40
1.0
 40
1.0
 40
1.0
 40
1.0
 10
47.9602974857
 20
-22.2161917701
 30
0.0
 10
47.9607473883
 20
-21.4524508791
 30
0.0
 10
47.9689650837
 20
-19.8533158055
 30
0.0
 10
47.9554586496
 20
-17.3455755895
 30
0.0
 10
47.9436222901
 20
-14.6095871387
 30
0.0
 10
47.9445760877
 20
-12.7089631217
 30
0.0
 10
47.9433224393
 20
-11.7169625796
 30
0.0
 11
47.9602974857
 21
-22.2161917701
 31
0.0
 11
47.9647578763
 21
-19.9249730412
 31
0.0
 11
47.9562770682
 21
-17.4187965915
 31
0.0
 11
47.9460801793
 21
-14.6929653047
 31
0.0
 11
47.9433224393
 21
-11.7169625796
 31
0.0
  0
SPLINE
  5
353
100
AcDbEntity
  8
RACCORDO
100
AcDbSpline
 62
253
  6
CONTINUOUS
 70
0
 71
3
 72
41
 73
37
 74
35
 42
0.0000001
 43
0.0000001
 44
0.0000000001
 12
24.0319751052
 22
-0.0000532645
 32
0.0
 13
24.0229893473
 23
-0.6571227269
 33
0.0
 40
0.0
 40
0.0
 40
0.0
 40
0.0
 40
0.0810889459
 40
0.1554198461
 40
0.2236688516
 40
0.2864088712
 40
0.3441509114
 40
0.3973571111
 40
0.4464246129
 40
0.4917017535
 40
0.5334980898
 40
0.5721014746
 40
0.6077741168
 40
0.6407598407
 40
0.671279757
 40
0.6995295357
 40
0.7256851303
 40
0.7499090071
 40
0.772352333
 40
0.7931447253
 40
0.8123958904
 40
0.8302273131
 40
0.846771533
 40
0.8620971666
 40
0.8761884205
 40
0.8890275439
 40
0.900794674
 40
0.9118349849
 40
0.9225168487
 40
0.9331629649
 40
0.9438755623
 40
0.9546456318
 40
0.9653193962
 40
0.9759284891
 40
0.9871712967
 40
1.0
 40
1.0
 40
1.0
 40
1.0
 10
31.2494241164
 20
46.5305749669
 30
0.0
 10
31.8989999591
 20
46.5305735272
 30
0.0
 10
33.1440149973
 20
46.5289772871
 30
0.0
 10
34.9357456662
 20
46.5252244463
 30
0.0
 10
36.5804900415
 20
46.5218623068
 30
0.0
 10
38.0923484254
 20
46.5194921946
 30
0.0
 10
39.4837055888
 20
46.5185977328
 30
0.0
 10
40.7655369753
 20
46.5183123563
 30
0.0
 10
41.9475163405
 20
46.5179132238
 30
0.0
 10
43.0380947683
 20
46.5168872758
 30
0.0
 10
44.0448485386
 20
46.5157636163
 30
0.0
 10
44.9746642136
 20
46.5149150854
 30
0.0
 10
45.8339014222
 20
46.5145221
 30
0.0
 10
46.6283847691
 20
46.5146624159
 30
0.0
 10
47.3634060649
 20
46.5148058412
 30
0.0
 10
48.0437135606
 20
46.5147773026
 30
0.0
 10
48.6735855748
 20
46.5144652103
 30
0.0
 10
49.2569438097
 20
46.5138215873
 30
0.0
 10
49.7973387933
 20
46.5128766582
 30
0.0
 10
50.2978982569
 20
46.5115642825
 30
0.0
 10
50.7615114523
 20
46.5097256546
 30
0.0
 10
51.1910916034
 20
46.5074543218
 30
0.0
 10
51.5892229217
 20
46.5048127685
 30
0.0
 10
51.9573899215
 20
46.5018646382
 30
0.0
 10
52.2958752119
 20
46.4988736903
 30
0.0
 10
52.6058528871
 20
46.4958354641
 30
0.0
 10
52.8913887849
 20
46.4927569588
 30
0.0
 10
53.1596416935
 20
46.4896050104
 30
0.0
 10
53.4189119119
 20
46.4862939637
 30
0.0
 10
53.6755543099
 20
46.4828031168
 30
0.0
 10
53.9328976191
 20
46.4788945802
 30
0.0
 10
54.1904491615
 20
46.4741888316
 30
0.0
 10
54.4471621154
 20
46.4690171204
 30
0.0
 10
54.7076581373
 20
46.463610205
 30
0.0
 10
54.9853955359
 20
46.4570466747
 30
0.0
 10
55.1781560101
 20
46.4519114915
 30
0.0
 10
55.2808839442
 20
46.4491014807
 30
0.0
 11
31.2494241164
 21
46.5305749669
 31
0.0
 11
33.1981506764
 21
46.5286325394
 31
0.0
 11
34.9844656022
 21
46.5251380342
 31
0.0
 11
36.6246208221
 21
46.521907827
 31
0.0
 11
38.1323857537
 21
46.5196714694
 31
0.0
 11
39.5200406681
 21
46.5186755384
 31
0.0
 11
40.7986906751
 21
46.518279465
 31
0.0
 11
41.977879549
 21
46.5177796897
 31
0.0
 11
43.0659782485
 21
46.5168279675
 31
0.0
 11
44.0704262064
 21
46.5157704963
 31
0.0
 11
44.9981414401
 21
46.5149668227
 31
0.0
 11
45.8554254133
 21
46.5146063839
 31
0.0
 11
46.6481375064
 21
46.5146684461
 31
0.0
 11
47.3815913675
 21
46.514779289
 31
0.0
 11
48.0604893427
 21
46.5147233061
 31
0.0
 11
48.6890598544
 21
46.5143914251
 31
0.0
 11
49.2712070951
 21
46.5137408535
 31
0.0
 11
49.8105636741
 21
46.5127720392
 31
0.0
 11
50.3102440885
 21
46.5114156738
 31
0.0
 11
50.7728839442
 21
46.5095747586
 31
0.0
 11
51.2014022138
 21
46.5072999617
 31
0.0
 11
51.5989836878
 21
46.5046535692
 31
0.0
 11
51.9672773486
 21
46.5017324633
 31
0.0
 11
52.3059046832
 21
46.4987280632
 31
0.0
 11
52.6144393057
 21
46.4956987125
 31
0.0
 11
52.8972102184
 21
46.4926471013
 31
0.0
 11
53.16251233
 21
46.4895254029
 31
0.0
 11
53.4191977777
 21
46.486254688
 31
0.0
 11
53.6750208743
 21
46.4827429603
 31
0.0
 11
53.9324350856
 21
46.4787696942
 31
0.0
 11
54.1912188831
 21
46.4740935469
 31
0.0
 11
54.4476795602
 21
46.4689805291
 31
0.0
 11
54.7025801725
 21
46.4635969753
 31
0.0
 11
54.9726917889
 21
46.457220403
 31
0.0
 11
55.2808839442
 21
46.4491014807
 31
0.0
  0
SPLINE
  5
354
100
AcDbEntity
  8
RACCORDO
100
AcDbSpline
 62
253
  6
CONTINUOUS
 70
0
 71
3
 72
17
 73
13
 74
11
 42
0.0000001
 43
0.0000001
 44
0.0000000001
 12
2.9010452119
 22
-0.0795374566
 32
0.0
 13
0.1226740534
 23
-2.8995414474
 33
0.0
 40
0.0
 40
0.0
 40
0.0
 40
0.0
 40
0.0994689172
 40
0.2001652614
 40
0.3011450622
 40
0.4019178928
 40
0.5026042041
 40
0.6031440596
 40
0.7031085961
 40
0.8027344477
 40
0.9018219851
 40
1.0
 40
1.0
 40
1.0
 40
1.0
 10
55.2808839442
 20
46.4491014807
 30
0.0
 10
55.3770718861
 20
46.4464643125
 30
0.0
 10
55.5705020893
 20
46.4257025668
 30
0.0
 10
55.8532560255
 20
46.3515802288
 30
0.0
 10
56.1234810933
 20
46.2366359825
 30
0.0
 10
56.3736761196
 20
46.0828908442
 30
0.0
 10
56.5979223008
 20
45.8939423243
 30
0.0
 10
56.7909524425
 20
45.6742325868
 30
0.0
 10
56.948519113
 20
45.4290873096
 30
0.0
 10
57.0672747438
 20
45.1644868648
 30
0.0
 10
57.1447312219
 20
44.8868537385
 30
0.0
 10
57.1677780743
 20
44.6965244903
 30
0.0
 10
57.171792706
 20
44.6016340825
 30
0.0
 11
55.2808839442
 21
46.4491014807
 31
0.0
 11
55.5679604492
 21
46.418790529
 31
0.0
 11
55.8507036336
 21
46.3449173452
 31
0.0
 11
56.1203202156
 21
46.2300725259
 31
0.0
 11
56.3694771995
 21
46.0769335723
 31
0.0
 11
56.5929099747
 21
45.8886207115
 31
0.0
 11
56.7854783685
 21
45.6694104507
 31
0.0
 11
56.9423188749
 21
45.4253505732
 31
0.0
 11
57.0606602721
 21
45.1615511354
 31
0.0
 11
57.1377983257
 21
44.8845247733
 31
0.0
 11
57.171792706
 21
44.6016340825
 31
0.0
  0
SPLINE
  5
355
100
AcDbEntity
  8
RACCORDO
100
AcDbSpline
 62
253
  6
CONTINUOUS
 70
0
 71
3
 72
59
 73
55
 74
53
 42
0.0000001
 43
0.0000001
 44
0.0000000001
 12
1.3849992907
 22
-32.7936623969
 32
0.0
 13
-0.0000283861
 23
-32.8228962225
 33
0.0
 40
0.0
 40
0.0
 40
0.0
 40
0.0
 40
0.0041990945
 40
0.0084933246
 40
0.0128588143
 40
0.0172644283
 40
0.0216749239
 40
0.0260677349
 40
0.0304289469
 40
0.0347477641
 40
0.0390167824
 40
0.0432281197
 40
0.047384822
 40
0.0515160932
 40
0.0556510052
 40
0.0597918443
 40
0.0639855353
 40
0.0683946916
 40
0.0732376442
 40
0.078695014
 40
0.0847883845
 40
0.0913773504
 40
0.0983595958
 40
0.1057281115
 40
0.1135283442
 40
0.1218548154
 40
0.1308292889
 40
0.1405677793
 40
0.1511638415
 40
0.162675947
 40
0.1751597517
 40
0.1886746079
 40
0.2032892335
 40
0.2190811328
 40
0.2361391891
 40
0.2545638991
 40
0.2744676763
 40
0.2959652671
 40
0.3191796816
 40
0.3442536446
 40
0.3713563106
 40
0.4006581605
 40
0.4323169348
 40
0.4664998167
 40
0.503386177
 40
0.5431811504
 40
0.5861333112
 40
0.6325176159
 40
0.6826393071
 40
0.7367843389
 40
0.7952381664
 40
0.8583338079
 40
0.9264511875
 40
1.0
 40
1.0
 40
1.0
 40
1.0
 10
57.171792706
 20
44.6016340825
 30
0.0
 10
57.173731287
 20
44.5557328537
 30
0.0
 10
57.1778469858
 20
44.4628984643
 30
0.0
 10
57.1848159258
 20
44.3223826481
 30
0.0
 10
57.1928774603
 20
44.1796608497
 30
0.0
 10
57.2023202002
 20
44.0357500419
 30
0.0
 10
57.2118609888
 20
43.8915471841
 30
0.0
 10
57.2215001283
 20
43.7478374735
 30
0.0
 10
57.2309211796
 20
43.6051185723
 30
0.0
 10
57.2398394079
 20
43.463723965
 30
0.0
 10
57.2478872535
 20
43.323919461
 30
0.0
 10
57.2548126129
 20
43.1858286072
 30
0.0
 10
57.2600532548
 20
43.049173164
 30
0.0
 10
57.2652733521
 20
42.9133554445
 30
0.0
 10
57.2704698386
 20
42.7777100458
 30
0.0
 10
57.2756690601
 20
42.6413814431
 30
0.0
 10
57.2809448938
 20
42.5020530538
 30
0.0
 10
57.2864566298
 20
42.3550463089
 30
0.0
 10
57.2924036406
 20
42.1942203175
 30
0.0
 10
57.2989032261
 20
42.0149752721
 30
0.0
 10
57.3058989638
 20
41.8166326648
 30
0.0
 10
57.3131980855
 20
41.6016069281
 30
0.0
 10
57.3205879316
 20
41.3726251746
 30
0.0
 10
57.3278898863
 20
41.1303817342
 30
0.0
 10
57.3350391295
 20
40.8734205588
 30
0.0
 10
57.3420416752
 20
40.5988784614
 30
0.0
 10
57.3488087153
 20
40.3031179806
 30
0.0
 10
57.3552462058
 20
39.982513096
 30
0.0
 10
57.361091452
 20
39.6341281502
 30
0.0
 10
57.3659992229
 20
39.2556896091
 30
0.0
 10
57.3701958981
 20
38.8453069435
 30
0.0
 10
57.3746067663
 20
38.4009802701
 30
0.0
 10
57.3788820386
 20
37.9204568947
 30
0.0
 10
57.3830048835
 20
37.4011647608
 30
0.0
 10
57.3864729088
 20
36.8401808358
 30
0.0
 10
57.3892847048
 20
36.2342049376
 30
0.0
 10
57.3915516812
 20
35.5796536572
 30
0.0
 10
57.3930290196
 20
34.8726958752
 30
0.0
 10
57.3934302606
 20
34.109169881
 30
0.0
 10
57.3930707848
 20
33.2843191356
 30
0.0
 10
57.3926111792
 20
32.3928660566
 30
0.0
 10
57.3922662392
 20
31.4293686245
 30
0.0
 10
57.3929631745
 20
30.388406886
 30
0.0
 10
57.3944584987
 20
29.264464175
 30
0.0
 10
57.3965583537
 20
28.0515044186
 30
0.0
 10
57.399202436
 20
26.7426011589
 30
0.0
 10
57.4021417638
 20
25.32978161
 30
0.0
 10
57.4050842669
 20
23.8039775722
 30
0.0
 10
57.407904967
 20
22.1557122747
 30
0.0
 10
57.4102438262
 20
20.3753938488
 30
0.0
 10
57.4121101532
 20
18.4531272725
 30
0.0
 10
57.4135715401
 20
16.3779893321
 30
0.0
 10
57.4144981081
 20
14.1376973538
 30
0.0
 10
57.4146894468
 20
12.5877324355
 30
0.0
 10
57.4146887509
 20
11.783037422
 30
0.0
 11
57.171792706
 21
44.6016340825
 31
0.0
 11
57.1779200029
 21
44.4639439072
 31
0.0
 11
57.1849371401
 21
44.3231696182
 31
0.0
 11
57.1930685461
 21
44.1801125142
 31
0.0
 11
57.2023297833
 21
44.0358043763
 31
0.0
 11
57.2118956539
 21
43.8913555307
 31
0.0
 11
57.2214978104
 21
43.7474908397
 31
0.0
 11
57.23088174
 21
43.6046511401
 31
0.0
 11
57.2397435232
 21
43.4631723183
 31
0.0
 11
57.2477499694
 21
43.3232797023
 31
0.0
 11
57.2545696887
 21
43.1852197469
 31
0.0
 11
57.2600658469
 21
43.0488954892
 31
0.0
 11
57.2652690023
 21
42.913395063
 31
0.0
 11
57.2704634778
 21
42.7777747182
 31
0.0
 11
57.2756409312
 21
42.6419590378
 31
0.0
 11
57.2808473648
 21
42.5044084511
 31
0.0
 11
57.2862669884
 21
42.3597886858
 31
0.0
 11
57.2921374057
 21
42.2009373896
 31
0.0
 11
57.2986231993
 21
42.0219281644
 31
0.0
 11
57.3056654478
 21
41.8220501178
 31
0.0
 11
57.3129936591
 21
41.6059053654
 31
0.0
 11
57.3203725754
 21
41.3768466729
 31
0.0
 11
57.3276568012
 21
41.1351003629
 31
0.0
 11
57.3347835038
 21
40.8791733427
 31
0.0
 11
57.3417458617
 21
40.60596314
 31
0.0
 11
57.3484857029
 21
40.3114720455
 31
0.0
 11
57.3548894878
 21
39.9918907369
 31
0.0
 11
57.3607117096
 21
39.6441460245
 31
0.0
 11
57.3656956909
 21
39.2663182499
 31
0.0
 11
57.3700609272
 21
38.8565868786
 31
0.0
 11
57.3744141628
 21
38.4130115164
 31
0.0
 11
57.3786938442
 21
37.933336267
 31
0.0
 11
57.3827489524
 21
37.4150162593
 31
0.0
 11
57.3862421351
 21
36.8551323441
 31
0.0
 11
57.3890955942
 21
36.2503867317
 31
0.0
 11
57.3913474747
 21
35.5970910009
 31
0.0
 11
57.3928128773
 21
34.8914793288
 31
0.0
 11
57.3933021886
 21
34.1295151698
 31
0.0
 11
57.3930699427
 21
33.306515116
 31
0.0
 11
57.3926460343
 21
32.4169272215
 31
0.0
 11
57.3924338096
 21
31.4551556669
 31
0.0
 11
57.3930547603
 21
30.4160231895
 31
0.0
 11
57.3944912355
 21
29.2940429247
 31
0.0
 11
57.3965593452
 21
28.0833275157
 31
0.0
 11
57.3991453034
 21
26.7771437938
 31
0.0
 11
57.4020293028
 21
25.3673324266
 31
0.0
 11
57.4049524362
 21
23.8448680127
 31
0.0
 11
57.4077248299
 21
22.1997312811
 31
0.0
 11
57.4100842333
 21
20.4225360861
 31
0.0
 11
57.4119788307
 21
18.5039131069
 31
0.0
 11
57.4134363674
 21
16.4329319274
 31
0.0
 11
57.4143695572
 21
14.1971224413
 31
0.0
 11
57.4146887509
 21
11.783037422
 31
0.0
  0
SPLINE
  5
356
100
AcDbEntity
  8
RACCORDO
100
AcDbSpline
 62
253
  6
CONTINUOUS
 70
0
 71
3
 72
11
 73
7
 74
5
 42
0.0000001
 43
0.0000001
 44
0.0000000001
 12
-0.0003775487
 22
10.4986878113
 32
0.0
 13
-0.0075251047
 23
10.4986851212
 33
0.0
 40
0.0
 40
0.0
 40
0.0
 40
0.0
 40
0.2884911713
 40
0.5493407542
 40
0.7859216724
 40
1.0
 40
1.0
 40
1.0
 40
1.0
 10
47.9433276556
 20
11.783037422
 30
0.0
 10
47.9432913491
 20
12.7926303366
 30
0.0
 10
47.9423833395
 20
14.7150906772
 30
0.0
 10
47.9560531658
 20
17.4654376411
 30
0.0
 10
47.9679450085
 20
19.9554010663
 30
0.0
 10
47.9591067948
 20
21.5325043811
 30
0.0
 10
47.9585698075
 20
22.2816846986
 30
0.0
 11
47.9433276556
 21
11.783037422
 31
0.0
 11
47.945223232
 21
14.8118155745
 31
0.0
 11
47.9563822893
 21
17.5503711781
 31
0.0
 11
47.9638096132
 21
20.0341492768
 31
0.0
 11
47.9585698075
 21
22.2816846986
 31
0.0
  0
SPLINE
  5
357
100
AcDbEntity
  8
RACCORDO
100
AcDbSpline
 62
253
  6
CONTINUOUS
 70
0
 71
3
 72
68
 73
64
 74
62
 42
0.0000001
 43
0.0000001
 44
0.0000000001
 12
-0.0034442855
 22
5.8288087864
 32
0.0
 13
-5.8283123755
 23
-0.0761484431
 33
0.0
 40
0.0
 40
0.0
 40
0.0
 40
0.0
 40
0.0229759666
 40
0.0439285307
 40
0.0629419437
 40
0.0801053171
 40
0.0954822417
 40
0.1091211165
 40
0.1211099739
 40
0.1318022881
 40
0.1416853363
 40
0.1512381234
 40
0.1607598576
 40
0.1702958648
 40
0.1797728795
 40
0.18904735
 40
0.198718329
 40
0.2093997754
 40
0.2210527357
 40
0.2335745943
 40
0.2467406448
 40
0.2599544105
 40
0.2725394671
 40
0.2839523439
 40
0.2943183668
 40
0.3039273521
 40
0.3130787956
 40
0.3220395979
 40
0.330943992
 40
0.3398529795
 40
0.348749333
 40
0.3577047039
 40
0.3670127087
 40
0.3769996349
 40
0.3879852048
 40
0.4003092858
 40
0.4143489231
 40
0.4303986394
 40
0.4477754978
 40
0.4653848459
 40
0.4830957267
 40
0.5012001787
 40
0.5195591919
 40
0.5378414407
 40
0.555929787
 40
0.5738871886
 40
0.5918928392
 40
0.610067758
 40
0.6284508734
 40
0.647024967
 40
0.6657033353
 40
0.6843500754
 40
0.7028427441
 40
0.7216280886
 40
0.7415486601
 40
0.7635348507
 40
0.7882389083
 40
0.8155296589
 40
0.8454676511
 40
0.8784294326
 40
0.9148226396
 40
0.9550890814
 40
1.0
 40
1.0
 40
1.0
 40
1.0
 10
47.9585698075
 20
22.2816846986
 30
0.0
 10
47.958543429
 20
22.3263255372
 30
0.0
 10
47.9570060839
 20
22.4116828874
 30
0.0
 10
47.9507191118
 20
22.5338328186
 30
0.0
 10
47.9416488315
 20
22.6444761169
 30
0.0
 10
47.9307201378
 20
22.7440550988
 30
0.0
 10
47.9187316934
 20
22.8329819575
 30
0.0
 10
47.9063600857
 20
22.9116906491
 30
0.0
 10
47.8940566473
 20
22.981181277
 30
0.0
 10
47.8819574069
 20
23.0432866594
 30
0.0
 10
47.8698664693
 20
23.1005636713
 30
0.0
 10
47.8574283477
 20
23.1554364157
 30
0.0
 10
47.8443363296
 20
23.2094631945
 30
0.0
 10
47.8305097633
 20
23.263154571
 30
0.0
 10
47.8160437175
 20
23.3161793422
 30
0.0
 10
47.8007708516
 20
23.3692501712
 30
0.0
 10
47.7840749783
 20
23.4243409882
 30
0.0
 10
47.7651213885
 20
23.4835694527
 30
0.0
 10
47.7433697158
 20
23.5477087018
 30
0.0
 10
47.718768466
 20
23.6159663069
 30
0.0
 10
47.6917286105
 20
23.6865528239
 30
0.0
 10
47.6632678244
 20
23.7567112064
 30
0.0
 10
47.634746028
 20
23.8231525463
 30
0.0
 10
47.6072944795
 20
23.8840188659
 30
0.0
 10
47.5812577761
 20
23.9391691599
 30
0.0
 10
47.5563033704
 20
23.9899633058
 30
0.0
 10
47.5318337312
 20
24.0379466209
 30
0.0
 10
47.5073317517
 20
24.0843708591
 30
0.0
 10
47.4823906936
 20
24.1300244529
 30
0.0
 10
47.456904715
 20
24.1752324414
 30
0.0
 10
47.4307140331
 20
24.2201507023
 30
0.0
 10
47.4034890061
 20
24.2653571848
 30
0.0
 10
47.3744567357
 20
24.3119417985
 30
0.0
 10
47.3425365708
 20
24.361366019
 30
0.0
 10
47.3065009304
 20
24.4150976049
 30
0.0
 10
47.2649468631
 20
24.4745952552
 30
0.0
 10
47.2163378778
 20
24.5411469132
 30
0.0
 10
47.1601496482
 20
24.6142921264
 30
0.0
 10
47.09747175
 20
24.6911489946
 30
0.0
 10
47.0305084269
 20
24.7686212407
 30
0.0
 10
46.9603436017
 20
24.8451360128
 30
0.0
 10
46.8869894647
 20
24.9206440615
 30
0.0
 10
46.8106339983
 20
24.9947185356
 30
0.0
 10
46.7323044626
 20
25.0666524746
 30
0.0
 10
46.6526879906
 20
25.1359775188
 30
0.0
 10
46.5715976963
 20
25.2027316168
 30
0.0
 10
46.4885253679
 20
25.2672779217
 30
0.0
 10
46.4029354252
 20
25.3298607763
 30
0.0
 10
46.3145677572
 20
25.3904343546
 30
0.0
 10
46.2235153371
 20
25.448728348
 30
0.0
 10
46.1302292763
 20
25.5043829094
 30
0.0
 10
46.0353891623
 20
25.5570197332
 30
0.0
 10
45.9387957786
 20
25.6068181179
 30
0.0
 10
45.8385244244
 20
25.6547758952
 30
0.0
 10
45.7305973762
 20
25.7023345108
 30
0.0
 10
45.6104502013
 20
25.7505148347
 30
0.0
 10
45.475073956
 20
25.7989469279
 30
0.0
 10
45.3230119268
 20
25.8462235847
 30
0.0
 10
45.1534017649
 20
25.8905277758
 30
0.0
 10
44.9644549376
 20
25.9299124896
 30
0.0
 10
44.7537462944
 20
25.9618052406
 30
0.0
 10
44.5183394648
 20
25.982934541
 30
0.0
 10
44.3527193418
 20
25.9866105097
 30
0.0
 10
44.2654677208
 20
25.9854705442
 30
0.0
 11
47.9585698075
 21
22.2816846986
 31
0.0
 11
47.9561554951
 21
22.4155854739
 31
0.0
 11
47.9498786225
 21
22.5375525765
 31
0.0
 11
47.9408232938
 21
22.6480075787
 31
0.0
 11
47.9299103339
 21
22.7474526237
 31
0.0
 11
47.9179373687
 21
22.8362784984
 31
0.0
 11
47.9055934122
 21
22.914812717
 31
0.0
 11
47.8934095889
 21
22.983623155
 31
0.0
 11
47.8814913267
 21
23.0447964285
 31
0.0
 11
47.8695921495
 21
23.1011604941
 31
0.0
 11
47.8572807408
 21
23.1554637642
 31
0.0
 11
47.8442146166
 21
23.2094041789
 31
0.0
 11
47.8303527987
 21
23.2632315284
 31
0.0
 11
47.8158158059
 21
23.3165241361
 31
0.0
 11
47.800865028
 21
23.3684747202
 31
0.0
 11
47.7845126997
 21
23.4224210989
 31
0.0
 11
47.7655340718
 21
23.4817180988
 31
0.0
 11
47.7437165251
 21
23.5460416053
 31
0.0
 11
47.718971593
 21
23.6147065034
 31
0.0
 11
47.6915295559
 21
23.6863747053
 31
0.0
 11
47.6625646039
 21
23.7577413162
 31
0.0
 11
47.633633923
 21
23.8251512858
 31
0.0
 11
47.6062747904
 21
23.8857883401
 31
0.0
 11
47.5804832316
 21
23.9404286392
 31
0.0
 11
47.5557836837
 21
23.9906972636
 31
0.0
 11
47.5315534708
 21
24.0382185036
 31
0.0
 11
47.5071699738
 21
24.08440836
 31
0.0
 11
47.4822941594
 21
24.1299606757
 31
0.0
 11
47.4567833765
 21
24.1751911917
 31
0.0
 11
47.4306666971
 21
24.2199893599
 31
0.0
 11
47.403731496
 21
24.2647022958
 31
0.0
 11
47.3750355965
 21
24.3107469031
 31
0.0
 11
47.3434555916
 21
24.3596481072
 31
0.0
 11
47.307792587
 21
24.4128303345
 31
0.0
 11
47.2666625882
 21
24.471724738
 31
0.0
 11
47.2183947629
 21
24.5378086395
 31
0.0
 11
47.161378797
 21
24.6119768358
 31
0.0
 11
47.0973895356
 21
24.6904899543
 31
0.0
 11
47.0302632746
 21
24.7681388498
 31
0.0
 11
46.9605040633
 21
24.8442360125
 31
0.0
 11
46.8869683748
 21
24.9199231066
 31
0.0
 11
46.8101913635
 21
24.9944662926
 31
0.0
 11
46.7317120268
 21
25.0665553128
 31
0.0
 11
46.6521805188
 21
25.1357721353
 31
0.0
 11
46.5713633166
 21
25.2022886525
 31
0.0
 11
46.4884789262
 21
25.2666703097
 31
0.0
 11
46.402952899
 21
25.3291858221
 31
0.0
 11
46.3145652343
 21
25.389758951
 31
0.0
 11
46.2233874143
 21
25.4481360425
 31
0.0
 11
46.1298935021
 21
25.5039226322
 31
0.0
 11
46.034864302
 21
25.5566729696
 31
0.0
 11
45.9390642728
 21
25.606080378
 31
0.0
 11
45.840284472
 21
25.6533240959
 31
0.0
 11
45.7340296418
 21
25.7001449393
 31
0.0
 11
45.6150816294
 21
25.7478381753
 31
0.0
 11
45.479501441
 21
25.7963422517
 31
0.0
 11
45.327604364
 21
25.8435796122
 31
0.0
 11
45.1587698141
 21
25.8876947337
 31
0.0
 11
44.9706834897
 21
25.926895315
 31
0.0
 11
44.7609453394
 21
25.958654654
 31
0.0
 11
44.5271799933
 21
25.9796404151
 31
0.0
 11
44.2654677208
 21
25.9854705442
 31
0.0
  0
SPLINE
  5
358
100
AcDbEntity
  8
RACCORDO
100
AcDbSpline
 62
253
  6
CONTINUOUS
 70
0
 71
3
 72
57
 73
53
 74
51
 42
0.0000001
 43
0.0000001
 44
0.0000000001
 12
-13.0149922299
 22
-0.1702097255
 32
0.0
 13
-13.0161051814
 23
-0.0000148769
 33
0.0
 40
0.0
 40
0.0
 40
0.0
 40
0.0
 40
0.0052606265
 40
0.010590706
 40
0.0159199765
 40
0.0212145563
 40
0.0264967744
 40
0.0317883602
 40
0.0370855354
 40
0.0423863346
 40
0.0476911733
 40
0.0529978334
 40
0.0583060767
 40
0.0636143903
 40
0.068981995
 40
0.0746112123
 40
0.0807867908
 40
0.0877532949
 40
0.0955422813
 40
0.1039411884
 40
0.1128253182
 40
0.1223251437
 40
0.1325444453
 40
0.1431571132
 40
0.1537066036
 40
0.1641249956
 40
0.1745758395
 40
0.1853739345
 40
0.1968900962
 40
0.2094677803
 40
0.2232872535
 40
0.2383265423
 40
0.2545807218
 40
0.2721403352
 40
0.291154503
 40
0.3117493322
 40
0.3340301568
 40
0.3581200289
 40
0.3841629117
 40
0.4123178498
 40
0.4427521501
 40
0.4756360945
 40
0.5111439681
 40
0.5495022551
 40
0.5910291838
 40
0.6360812089
 40
0.6849934389
 40
0.7381284734
 40
0.7957593183
 40
0.8581101216
 40
0.9258921511
 40
1.0
 40
1.0
 40
1.0
 40
1.0
 10
44.2654677208
 20
25.9854705442
 30
0.0
 10
44.2426453831
 20
25.9851720743
 30
0.0
 10
44.1966994586
 20
25.9845665476
 30
0.0
 10
44.1276332746
 20
25.9836678716
 30
0.0
 10
44.0584193549
 20
25.9828009973
 30
0.0
 10
43.9894123712
 20
25.9819945657
 30
0.0
 10
43.9205682143
 20
25.9812493038
 30
0.0
 10
43.8517123149
 20
25.9805501516
 30
0.0
 10
43.7827753999
 20
25.9798910236
 30
0.0
 10
43.7137806712
 20
25.9792654773
 30
0.0
 10
43.6447445514
 20
25.9786667145
 30
0.0
 10
43.5756759247
 20
25.978092485
 30
0.0
 10
43.5065920244
 20
25.9775423467
 30
0.0
 10
43.4372435244
 20
25.9770142351
 30
0.0
 10
43.3665022712
 20
25.9765001135
 30
0.0
 10
43.2919981271
 20
25.975984905
 30
0.0
 10
43.2105567987
 20
25.9754517788
 30
0.0
 10
43.1197448487
 20
25.974893209
 30
0.0
 10
43.0192864719
 20
25.9743172456
 30
0.0
 10
42.9105079665
 20
25.9737405244
 30
0.0
 10
42.7943064913
 20
25.9731743417
 30
0.0
 10
42.6702066987
 20
25.9726254853
 30
0.0
 10
42.5386070306
 20
25.9721250854
 30
0.0
 10
42.4024529537
 20
25.971681115
 30
0.0
 10
42.2654348794
 20
25.9713041576
 30
0.0
 10
42.1291187746
 20
25.9709824516
 30
0.0
 10
41.9917239632
 20
25.9706984321
 30
0.0
 10
41.8495661896
 20
25.9704444691
 30
0.0
 10
41.6981806394
 20
25.9702142404
 30
0.0
 10
41.5336862019
 20
25.969995244
 30
0.0
 10
41.3539059374
 20
25.9697901744
 30
0.0
 10
41.1581744284
 20
25.9696032323
 30
0.0
 10
40.9462155409
 20
25.9694390844
 30
0.0
 10
40.7170108169
 20
25.9693011571
 30
0.0
 10
40.4689732892
 20
25.9691965616
 30
0.0
 10
40.2004518192
 20
25.9691330956
 30
0.0
 10
39.9099083746
 20
25.9691218997
 30
0.0
 10
39.5957274546
 20
25.9691675574
 30
0.0
 10
39.2560605081
 20
25.9692092189
 30
0.0
 10
38.8888669819
 20
25.9692644338
 30
0.0
 10
38.4919921315
 20
25.9693313322
 30
0.0
 10
38.0632150892
 20
25.9694122681
 30
0.0
 10
37.6000582367
 20
25.9695211097
 30
0.0
 10
37.0994020582
 20
25.9696536358
 30
0.0
 10
36.5573366487
 20
25.9697727915
 30
0.0
 10
35.9694808103
 20
25.9698124654
 30
0.0
 10
35.3312608794
 20
25.9696649404
 30
0.0
 10
34.6384652351
 20
25.9694139583
 30
0.0
 10
33.8873636712
 20
25.9690515912
 30
0.0
 10
33.0727131847
 20
25.9686355919
 30
0.0
 10
32.1865738341
 20
25.9683198096
 30
0.0
 10
31.5709559683
 20
25.9682720203
 30
0.0
 10
31.2494241164
 20
25.9682716528
 30
0.0
 11
44.2654677208
 21
25.9854705442
 31
0.0
 11
44.1970007433
 21
25.9845724149
 31
0.0
 11
44.1276296922
 21
25.9836734589
 31
0.0
 11
44.0582687355
 21
25.9828088338
 31
0.0
 11
43.9893586304
 21
25.9820038366
 31
0.0
 11
43.9206087756
 21
25.9812574304
 31
0.0
 11
43.8517364971
 21
25.980557195
 31
0.0
 11
43.7827910701
 21
25.9798968565
 31
0.0
 11
43.7137981563
 21
25.9792701577
 31
0.0
 11
43.6447524191
 21
25.9786709165
 31
0.0
 11
43.5756827603
 21
25.9780965768
 31
0.0
 11
43.5065922984
 21
25.9775463562
 31
0.0
 11
43.4375007334
 21
25.9770201754
 31
0.0
 11
43.3676372719
 21
25.9765123688
 31
0.0
 11
43.2943685403
 21
25.9760055946
 31
0.0
 11
43.2139882833
 21
25.9754792188
 31
0.0
 11
43.1233132514
 21
25.9749211153
 31
0.0
 11
43.0219326542
 21
25.9743394344
 31
0.0
 11
42.9126131344
 21
25.9737592891
 31
0.0
 11
42.7969777404
 21
25.9731957342
 31
0.0
 11
42.6733282102
 21
25.972651607
 31
0.0
 11
42.5403136756
 21
25.9721433559
 31
0.0
 11
42.402178812
 21
25.9716919893
 31
0.0
 11
42.264866062
 21
25.9713116003
 31
0.0
 11
42.1292595588
 21
25.9709893917
 31
0.0
 11
41.993230567
 21
25.9707078062
 31
0.0
 11
41.8526816518
 21
25.970456058
 31
0.0
 11
41.702786257
 21
25.9702257698
 31
0.0
 11
41.539073943
 21
25.9700073744
 31
0.0
 11
41.3591983449
 21
25.9698015395
 31
0.0
 11
41.1634454695
 21
25.969613932
 31
0.0
 11
40.951879423
 21
25.9694493241
 31
0.0
 11
40.7233216907
 21
25.9693115414
 31
0.0
 11
40.4758313042
 21
25.9692067934
 31
0.0
 11
40.2077668491
 21
25.969143315
 31
0.0
 11
39.9177572931
 21
25.9691307422
 31
0.0
 11
39.6042009854
 21
25.9691651875
 31
0.0
 11
39.2652240861
 21
25.9692095998
 31
0.0
 11
38.8987564543
 21
25.9692640147
 31
0.0
 11
38.5026204072
 21
25.9693308225
 31
0.0
 11
38.0745995357
 21
25.9694132912
 31
0.0
 11
37.6124253305
 21
25.9695204033
 31
0.0
 11
37.1131498482
 21
25.9696464097
 31
0.0
 11
36.5726309872
 21
25.9697562655
 31
0.0
 11
35.9862290908
 21
25.969783347
 31
0.0
 11
35.3495823726
 21
25.9696558379
 31
0.0
 11
34.6579712203
 21
25.9694077349
 31
0.0
 11
33.9078421624
 21
25.9690580841
 31
0.0
 11
33.0962776422
 21
25.9686676234
 31
0.0
 11
32.2140196671
 21
25.968368748
 31
0.0
 11
31.2494241164
 21
25.9682716528
 31
0.0
  0
SPLINE
  5
359
100
AcDbEntity
  8
RACCORDO
100
AcDbSpline
 62
253
  6
CONTINUOUS
 70
0
 71
3
 72
55
 73
51
 74
49
 42
0.0000001
 43
0.0000001
 44
0.0000000001
 12
-0.0000273802
 22
32.8227954744
 32
0.0
 13
1.3948813185
 23
32.793142711
 33
0.0
 40
0.0
 40
0.0
 40
0.0
 40
0.0
 40
0.0743075776
 40
0.1431480641
 40
0.2069338508
 40
0.2660450927
 40
0.3208131521
 40
0.3715229964
 40
0.4184591976
 40
0.4619153727
 40
0.5021595761
 40
0.53943923
 40
0.5739803299
 40
0.6059778244
 40
0.6355981704
 40
0.6629953814
 40
0.6883364846
 40
0.7117911726
 40
0.7335043153
 40
0.753603461
 40
0.7722109337
 40
0.7894420421
 40
0.8053980452
 40
0.8201552353
 40
0.8337904449
 40
0.8463873419
 40
0.8580248716
 40
0.8687852395
 40
0.878753591
 40
0.8880003664
 40
0.8965456865
 40
0.9043977546
 40
0.91156552
 40
0.9180380325
 40
0.92377972
 40
0.9287955032
 40
0.9332603621
 40
0.9374047381
 40
0.9414595323
 40
0.9455254668
 40
0.949595157
 40
0.9536557803
 40
0.9577203856
 40
0.9619395635
 40
0.9665379159
 40
0.9717543603
 40
0.9777128211
 40
0.9843665274
 40
0.9917452865
 40
1.0
 40
1.0
 40
1.0
 40
1.0
 10
-35.915840518
 20
11.783037422
 30
0.0
 10
-35.9158411962
 20
12.596031563
 30
0.0
 10
-35.915645279
 20
14.1622047847
 30
0.0
 10
-35.9146930731
 20
16.4262537703
 30
0.0
 10
-35.9132054645
 20
18.5240403492
 30
0.0
 10
-35.911294683
 20
20.4678610549
 30
0.0
 10
-35.9088867192
 20
22.2686181167
 30
0.0
 10
-35.9059921497
 20
23.9361679626
 30
0.0
 10
-35.9029922031
 20
25.4799548303
 30
0.0
 10
-35.9000031469
 20
26.9092376162
 30
0.0
 10
-35.8973666012
 20
28.2328692882
 30
0.0
 10
-35.8953139376
 20
29.4589626517
 30
0.0
 10
-35.8938987818
 20
30.5948302046
 30
0.0
 10
-35.893410335
 20
31.6468986721
 30
0.0
 10
-35.8938859684
 20
32.6208062242
 30
0.0
 10
-35.8943532227
 20
33.5218865665
 30
0.0
 10
-35.8945700179
 20
34.3555090401
 30
0.0
 10
-35.8938150485
 20
35.1269424685
 30
0.0
 10
-35.8918715067
 20
35.8410216089
 30
0.0
 10
-35.889343357
 20
36.5020654176
 30
0.0
 10
-35.8860463452
 20
37.1140677165
 30
0.0
 10
-35.8820094142
 20
37.6807345616
 30
0.0
 10
-35.8776205012
 20
38.2052716621
 30
0.0
 10
-35.8729471979
 20
38.690462125
 30
0.0
 10
-35.8682946412
 20
39.1388990204
 30
0.0
 10
-35.8633987629
 20
39.5531998756
 30
0.0
 10
-35.8572869282
 20
39.9360278145
 30
0.0
 10
-35.8504029177
 20
40.2900784646
 30
0.0
 10
-35.8429090044
 20
40.6179532849
 30
0.0
 10
-35.8350373157
 20
40.9215768139
 30
0.0
 10
-35.8270259465
 20
41.2020337745
 30
0.0
 10
-35.8190101992
 20
41.4597341113
 30
0.0
 10
-35.8112248333
 20
41.6947516064
 30
0.0
 10
-35.8038780516
 20
41.9066811271
 30
0.0
 10
-35.7971315354
 20
42.0950724669
 30
0.0
 10
-35.7910339412
 20
42.2615072903
 30
0.0
 10
-35.7854880692
 20
42.4104744935
 30
0.0
 10
-35.7802744302
 20
42.548932649
 30
0.0
 10
-35.7751805083
 20
42.6830276128
 30
0.0
 10
-35.7700940233
 20
42.8163051063
 30
0.0
 10
-35.76495851
 20
42.949644653
 30
0.0
 10
-35.7599142582
 20
43.0829727356
 30
0.0
 10
-35.7544272461
 20
43.2179221233
 30
0.0
 10
-35.7470916269
 20
43.358676174
 30
0.0
 10
-35.7380345971
 20
43.5119542377
 30
0.0
 10
-35.7269225862
 20
43.6841707725
 30
0.0
 10
-35.7139449147
 20
43.8788002035
 30
0.0
 10
-35.6993570992
 20
44.0970323051
 30
0.0
 10
-35.6846881457
 20
44.3404386893
 30
0.0
 10
-35.6768775937
 20
44.5113103018
 30
0.0
 10
-35.6730394785
 20
44.6015429677
 30
0.0
 11
-35.915840518
 21
11.783037422
 31
0.0
 11
-35.915513096
 21
14.222019823
 31
0.0
 11
-35.9145570053
 21
16.4815568267
 31
0.0
 11
-35.9130699982
 21
18.5751841297
 31
0.0
 11
-35.9111290706
 21
20.5153793627
 31
0.0
 11
-35.908703321
 21
22.3130185388
 31
0.0
 11
-35.9058607205
 21
23.9774549601
 31
0.0
 11
-35.9028787355
 21
25.5180294052
 31
0.0
 11
-35.8999541901
 21
26.9443795557
 31
0.0
 11
-35.8973746237
 21
28.2653042932
 31
0.0
 11
-35.8953544461
 21
29.4889250825
 31
0.0
 11
-35.8940174447
 21
30.6226597511
 31
0.0
 11
-35.893571446
 21
31.6729068721
 31
0.0
 11
-35.893902927
 21
32.6451293741
 31
0.0
 11
-35.8943246369
 21
33.5443823285
 31
0.0
 11
-35.8943970257
 21
34.3761481739
 31
0.0
 11
-35.8935641266
 21
35.1459961507
 31
0.0
 11
-35.8916874066
 21
35.8586797223
 31
0.0
 11
-35.8891024948
 21
36.5183848067
 31
0.0
 11
-35.8857816573
 21
37.1291250483
 31
0.0
 11
-35.881788351
 21
37.6946840977
 31
0.0
 11
-35.8773960746
 21
38.2183863062
 31
0.0
 11
-35.8727666115
 21
38.7027364133
 31
0.0
 11
-35.8680649755
 21
39.1502574115
 31
0.0
 11
-35.8629776776
 21
39.5636914877
 31
0.0
 11
-35.8569037105
 21
39.9456194506
 31
0.0
 11
-35.8500260568
 21
40.2987378341
 31
0.0
 11
-35.8425550778
 21
40.6258416906
 31
0.0
 11
-35.8346997815
 21
40.9292450338
 31
0.0
 11
-35.8266858036
 21
41.2096118154
 31
0.0
 11
-35.8186867692
 21
41.4672144784
 31
0.0
 11
-35.8109096568
 21
41.7023519986
 31
0.0
 11
-35.8035581422
 21
41.9146707201
 31
0.0
 11
-35.7968196838
 21
42.1030084464
 31
0.0
 11
-35.7907960973
 21
42.2675302404
 31
0.0
 11
-35.7853468473
 21
42.4139780436
 31
0.0
 11
-35.7802299473
 21
42.5499117766
 31
0.0
 11
-35.7751812186
 21
42.6829056617
 31
0.0
 11
-35.7700878269
 21
42.816263766
 31
0.0
 11
-35.7649698436
 21
42.9497442922
 31
0.0
 11
-35.7598532841
 21
43.0829270531
 31
0.0
 11
-35.7542467599
 21
43.216220906
 31
0.0
 11
-35.7471542651
 21
43.3545243778
 31
0.0
 11
-35.7383061252
 21
43.5051955802
 31
0.0
 11
-35.727388276
 21
43.67606542
 31
0.0
 11
-35.7144458998
 21
43.8712100505
 31
0.0
 11
-35.7001119005
 21
44.0891323873
 31
0.0
 11
-35.6858169421
 21
44.3309016506
 31
0.0
 11
-35.6730394785
 21
44.6015429677
 31
0.0
  0
SPLINE
  5
35A
100
AcDbEntity
  8
RACCORDO
100
AcDbSpline
 62
253
  6
CONTINUOUS
 70
0
 71
3
 72
18
 73
14
 74
12
 42
0.0000001
 43
0.0000001
 44
0.0000000001
 12
0.1234403743
 22
2.8969074739
 32
0.0
 13
2.8985199519
 23
0.0767627987
 33
0.0
 40
0.0
 40
0.0
 40
0.0
 40
0.0
 40
0.0984938088
 40
0.1981950894
 40
0.2987457231
 40
0.3994650648
 40
0.5006431942
 40
0.6013272622
 40
0.6980938104
 40
0.7871727595
 40
0.8670081594
 40
0.9377907579
 40
1.0
 40
1.0
 40
1.0
 40
1.0
 10
-35.6730394785
 20
44.6015429677
 30
0.0
 10
-35.6689867743
 20
44.696652118
 30
0.0
 10
-35.645737059
 20
44.8876990564
 30
0.0
 10
-35.5674953683
 20
45.166724989
 30
0.0
 10
-35.4473584719
 20
45.432868903
 30
0.0
 10
-35.2881372173
 20
45.6793167552
 30
0.0
 10
-35.0937319205
 20
45.8992783371
 30
0.0
 10
-34.8715511808
 20
46.0852057378
 30
0.0
 10
-34.6346499074
 20
46.230470398
 30
0.0
 10
-34.3987114883
 20
46.3336847877
 30
0.0
 10
-34.1760690208
 20
46.399625659
 30
0.0
 10
-33.9732278133
 20
46.4359686218
 30
0.0
 10
-33.8448210114
 20
46.4456550633
 30
0.0
 10
-33.7847161016
 20
46.4472468485
 30
0.0
 11
-35.6730394785
 21
44.6015429677
 31
0.0
 11
-35.638801309
 21
44.8850695479
 31
0.0
 11
-35.5609041688
 21
45.1634642402
 31
0.0
 11
-35.4410322587
 21
45.4292315225
 31
0.0
 11
-35.282547914
 21
45.6745266777
 31
0.0
 11
-35.088266412
 21
45.8943458112
 31
0.0
 11
-34.8643859211
 21
46.0817085577
 31
0.0
 11
-34.6252074403
 21
46.2283977951
 31
0.0
 11
-34.3885861791
 21
46.3319491571
 31
0.0
 11
-34.1666350167
 21
46.3977008189
 31
0.0
 11
-33.9645878973
 21
46.4337434131
 31
0.0
 11
-33.7847161016
 21
46.4472468485
 31
0.0
  0
SPLINE
  5
35B
100
AcDbEntity
  8
RACCORDO
100
AcDbSpline
 62
253
  6
CONTINUOUS
 70
0
 71
3
 72
43
 73
39
 74
37
 42
0.0000001
 43
0.0000001
 44
0.0000000001
 12
24.0262925379
 22
0.6359794384
 32
0.0
 13
24.0347082978
 23
0.0000522472
 33
0.0
 40
0.0
 40
0.0
 40
0.0
 40
0.0
 40
0.010528402
 40
0.0211759367
 40
0.0318430443
 40
0.0424520506
 40
0.0529663175
 40
0.0633948266
 40
0.0738290018
 40
0.084327675
 40
0.0948323842
 40
0.1054347179
 40
0.1164846212
 40
0.1283532135
 40
0.1413698026
 40
0.1556475178
 40
0.1711355986
 40
0.1878210115
 40
0.2057890599
 40
0.2251681951
 40
0.2460762217
 40
0.2686265258
 40
0.2929329034
 40
0.3191210655
 40
0.3473530986
 40
0.3778138657
 40
0.4106916169
 40
0.4461516304
 40
0.4843756555
 40
0.5256250326
 40
0.5701636825
 40
0.6181892923
 40
0.670036535
 40
0.7261375054
 40
0.7868258923
 40
0.8523455288
 40
0.9231172754
 40
1.0
 40
1.0
 40
1.0
 40
1.0
 10
-33.7847161016
 20
46.4472468485
 30
0.0
 10
-33.7003966129
 20
46.4494787976
 30
0.0
 10
-33.530803753
 20
46.4539763844
 30
0.0
 10
-33.2757789868
 20
46.4606764937
 30
0.0
 10
-33.0201033635
 20
46.4671905065
 30
0.0
 10
-32.7654846629
 20
46.4732585785
 30
0.0
 10
-32.5127618378
 20
46.4786249869
 30
0.0
 10
-32.2614183447
 20
46.4828841715
 30
0.0
 10
-32.0101845585
 20
46.4860684329
 30
0.0
 10
-31.7583393018
 20
46.4891524916
 30
0.0
 10
-31.5051431635
 20
46.4919385726
 30
0.0
 10
-31.2475287262
 20
46.4945454108
 30
0.0
 10
-30.9789858965
 20
46.497046681
 30
0.0
 10
-30.6911002832
 20
46.4995433938
 30
0.0
 10
-30.3773547682
 20
46.5021400113
 30
0.0
 10
-30.0346118363
 20
46.5049056135
 30
0.0
 10
-29.6624731355
 20
46.5074206364
 30
0.0
 10
-29.2607668614
 20
46.5096631263
 30
0.0
 10
-28.8278848442
 20
46.5115289986
 30
0.0
 10
-28.3611710218
 20
46.5128854737
 30
0.0
 10
-27.8577450918
 20
46.5138064894
 30
0.0
 10
-27.3148437996
 20
46.5144687637
 30
0.0
 10
-26.7296400228
 20
46.5148053044
 30
0.0
 10
-26.0989166058
 20
46.5148616472
 30
0.0
 10
-25.4188868944
 20
46.514720735
 30
0.0
 10
-24.6852630905
 20
46.5145181208
 30
0.0
 10
-23.8937317577
 20
46.5146244574
 30
0.0
 10
-23.0400047757
 20
46.5152547668
 30
0.0
 10
-22.1192082429
 20
46.516221172
 30
0.0
 10
-21.125677703
 20
46.5173423103
 30
0.0
 10
-20.0536206834
 20
46.5181031455
 30
0.0
 10
-18.8966579313
 20
46.5183943458
 30
0.0
 10
-17.647062855
 20
46.5187268142
 30
0.0
 10
-16.2960193714
 20
46.5198799568
 30
0.0
 10
-14.8354401755
 20
46.5223391145
 30
0.0
 10
-13.2573264372
 20
46.5256095223
 30
0.0
 10
-11.5494710318
 20
46.5291349658
 30
0.0
 10
-10.3665271699
 20
46.530573628
 30
0.0
 10
-9.7505758836
 20
46.5305749669
 30
0.0
 11
-33.7847161016
 21
46.4472468485
 31
0.0
 11
-33.5317575831
 21
46.4539407122
 31
0.0
 11
-33.2759348574
 21
46.4606385436
 31
0.0
 11
-33.0196362799
 21
46.4671319158
 31
0.0
 11
-32.7647233105
 21
46.4731658601
 31
0.0
 11
-32.5120713994
 21
46.478458303
 31
0.0
 11
-32.2614612056
 21
46.4827050821
 31
0.0
 11
-32.0107010766
 21
46.4860440267
 31
0.0
 11
-31.7583870299
 21
46.489099684
 31
0.0
 11
-31.5059248599
 21
46.4918929257
 31
0.0
 11
-31.2511139516
 21
46.4944756542
 31
0.0
 11
-30.9855443528
 21
46.4969582081
 31
0.0
 11
-30.7002970437
 21
46.4994456582
 31
0.0
 11
-30.3874579309
 21
46.5020460933
 31
0.0
 11
-30.0443079066
 21
46.5047554602
 31
0.0
 11
-29.6720650007
 21
46.5072855738
 31
0.0
 11
-29.2710422146
 21
46.5095238903
 31
0.0
 11
-28.8391894155
 21
46.5113830422
 31
0.0
 11
-28.3734196156
 21
46.5127694451
 31
0.0
 11
-27.8709022199
 21
46.5137332907
 31
0.0
 11
-27.3289126444
 21
46.5143955388
 31
0.0
 11
-26.7447160572
 21
46.5147511012
 31
0.0
 11
-26.1152912242
 21
46.514830244
 31
0.0
 11
-25.4367425526
 21
46.5147169315
 31
0.0
 11
-24.7046269166
 21
46.5145716493
 31
0.0
 11
-23.9144197673
 21
46.5146982147
 31
0.0
 11
-23.0621488858
 21
46.5152809679
 31
0.0
 11
-22.1434460583
 21
46.5162073557
 31
0.0
 11
-21.1520298563
 21
46.5172460352
 31
0.0
 11
-20.0815566678
 21
46.5180046844
 31
0.0
 11
-18.9272752085
 21
46.5183892979
 31
0.0
 11
-17.6811419346
 21
46.518834948
 31
0.0
 11
-16.3327720032
 21
46.5200278214
 31
0.0
 11
-14.8741461985
 21
46.522364815
 31
0.0
 11
-13.2994040095
 21
46.5255202786
 31
0.0
 11
-11.5984288933
 21
46.5288034273
 31
0.0
 11
-9.7505758836
 21
46.5305749669
 31
0.0
  0
SPLINE
  5
35C
100
AcDbEntity
  8
RACCORDO
100
AcDbSpline
 62
253
  6
CONTINUOUS
 70
0
 71
3
 72
50
 73
46
 74
44
 42
0.0000001
 43
0.0000001
 44
0.0000000001
 12
-13.0159997015
 22
0.0000161483
 32
0.0
 13
-13.0148648681
 23
0.171874071
 33
0.0
 40
0.0
 40
0.0
 40
0.0
 40
0.0
 40
0.0752760467
 40
0.1439564198
 40
0.2067728788
 40
0.2643233253
 40
0.3171080468
 40
0.3655641606
 40
0.4100937819
 40
0.4510430881
 40
0.4887309373
 40
0.5234439885
 40
0.5554410515
 40
0.5849539096
 40
0.612191109
 40
0.6373386285
 40
0.6605674849
 40
0.6820357443
 40
0.7018690223
 40
0.7201765143
 40
0.7370916354
 40
0.7527579223
 40
0.7672305304
 40
0.7804847875
 40
0.7925247239
 40
0.8036169948
 40
0.8141365297
 40
0.824464588
 40
0.8348236364
 40
0.8451883656
 40
0.8555361692
 40
0.8658829387
 40
0.8762430332
 40
0.8866243316
 40
0.897027988
 40
0.9074492715
 40
0.9178878019
 40
0.928341232
 40
0.9388090997
 40
0.9492881214
 40
0.9598302399
 40
0.9704129704
 40
0.9808253471
 40
0.9908410241
 40
1.0
 40
1.0
 40
1.0
 40
1.0
 10
-9.7505758836
 20
25.968271274
 30
0.0
 10
-10.0771735508
 20
25.9682716792
 30
0.0
 10
-10.7017524623
 20
25.9683211144
 30
0.0
 10
-11.5988709882
 20
25.9686461895
 30
0.0
 10
-12.4190839864
 20
25.9690678626
 30
0.0
 10
-13.1703310776
 20
25.9694253031
 30
0.0
 10
-13.8592734592
 20
25.9696734402
 30
0.0
 10
-14.4917228569
 20
25.9698133033
 30
0.0
 10
-15.072822347
 20
25.9697695429
 30
0.0
 10
-15.6072019102
 20
25.9696511445
 30
0.0
 10
-16.0989906449
 20
25.9695213122
 30
0.0
 10
-16.5519385863
 20
25.9694146881
 30
0.0
 10
-16.9694179718
 20
25.9693361057
 30
0.0
 10
-17.354462131
 20
25.9692706426
 30
0.0
 10
-17.7097884062
 20
25.9692165145
 30
0.0
 10
-18.0378504946
 20
25.9691741146
 30
0.0
 10
-18.3408830754
 20
25.9691299599
 30
0.0
 10
-18.6208589386
 20
25.9691216697
 30
0.0
 10
-18.8794826391
 20
25.9691689237
 30
0.0
 10
-19.1183517787
 20
25.9692546343
 30
0.0
 10
-19.3391417165
 20
25.9693744064
 30
0.0
 10
-19.5432933542
 20
25.9695165962
 30
0.0
 10
-19.731561706
 20
25.9696757754
 30
0.0
 10
-19.9040965139
 20
25.9698475883
 30
0.0
 10
-20.0619651479
 20
25.9700283189
 30
0.0
 10
-20.2079687146
 20
25.9702174675
 30
0.0
 10
-20.3465449917
 20
25.9704173866
 30
0.0
 10
-20.4819400027
 20
25.9706521286
 30
0.0
 10
-20.6166632858
 20
25.9709276742
 30
0.0
 10
-20.7514721312
 20
25.9712513453
 30
0.0
 10
-20.8862275615
 20
25.9716295849
 30
0.0
 10
-21.0209626927
 20
25.9720706542
 30
0.0
 10
-21.1558429024
 20
25.9725817833
 30
0.0
 10
-21.2909695912
 20
25.9731750198
 30
0.0
 10
-21.4263614384
 20
25.9738374857
 30
0.0
 10
-21.5620012504
 20
25.9745680637
 30
0.0
 10
-21.6978566108
 20
25.9753706822
 30
0.0
 10
-21.833913628
 20
25.9762478513
 30
0.0
 10
-21.9701457869
 20
25.977205604
 30
0.0
 10
-22.106762015
 20
25.9782628874
 30
0.0
 10
-22.243875633
 20
25.9794408469
 30
0.0
 10
-22.3806988014
 20
25.9807609864
 30
0.0
 10
-22.5152361669
 20
25.9822416586
 30
0.0
 10
-22.6435941611
 20
25.9838677489
 30
0.0
 10
-22.7267791109
 20
25.9849828232
 30
0.0
 10
-22.766513389
 20
25.9855075534
 30
0.0
 11
-9.7505758836
 21
25.968271274
 31
0.0
 11
-10.7303688802
 21
25.9683717453
 31
0.0
 11
-11.6243125428
 21
25.9686790255
 31
0.0
 11
-12.4419314588
 21
25.9690741603
 31
0.0
 11
-13.191007973
 21
25.9694200823
 31
0.0
 11
-13.8780538495
 21
25.9696636042
 31
0.0
 11
-14.5087586007
 21
25.9697845926
 31
0.0
 11
-15.0883561377
 21
25.969753653
 31
0.0
 11
-15.6213522829
 21
25.9696440831
 31
0.0
 11
-16.1118973016
 21
25.9695203392
 31
0.0
 11
-16.5637223541
 21
25.9694156109
 31
0.0
 11
-16.9801961089
 21
25.9693353924
 31
0.0
 11
-17.3643354548
 21
25.9692701413
 31
0.0
 11
-17.7188548308
 21
25.9692165521
 31
0.0
 11
-18.0461749343
 21
25.9691721048
 31
0.0
 11
-18.3485217189
 21
25.9691349277
 31
0.0
 11
-18.6279525776
 21
25.9691317394
 31
0.0
 11
-18.8861025131
 21
25.9691780133
 31
0.0
 11
-19.1243928083
 21
25.969264384
 31
0.0
 11
-19.344559987
 21
25.969383214
 31
0.0
 11
-19.5484723233
 21
25.9695254677
 31
0.0
 11
-19.7368477182
 21
25.9696851717
 31
0.0
 11
-19.9093650391
 21
25.9698573247
 31
0.0
 11
-20.0660767451
 21
25.970037123
 31
0.0
 11
-20.2104536182
 21
25.9702243216
 31
0.0
 11
-20.3473757336
 21
25.9704252889
 31
0.0
 11
-20.4818055338
 21
25.9706588645
 31
0.0
 11
-20.6166386209
 21
25.9709356147
 31
0.0
 11
-20.7515455425
 21
25.9712606554
 31
0.0
 11
-20.886232016
 21
25.9716400752
 31
0.0
 11
-21.02090484
 21
25.972082037
 31
0.0
 11
-21.1557508512
 21
25.9725949215
 31
0.0
 11
-21.2908725352
 21
25.9731859031
 31
0.0
 11
-21.426284904
 21
25.9738482329
 31
0.0
 11
-21.5619263566
 21
25.9745794451
 31
0.0
 11
-21.6977918923
 21
25.9753825004
 31
0.0
 11
-21.8338509005
 21
25.9762606633
 31
0.0
 11
-21.9700972763
 21
25.977221349
 31
0.0
 11
-22.1064881111
 21
25.9782800778
 31
0.0
 11
-22.2436992186
 21
25.9794634655
 31
0.0
 11
-22.3814375566
 21
25.9807995219
 31
0.0
 11
-22.5169567549
 21
25.982298879
 31
0.0
 11
-22.6473105788
 21
25.9839315425
 31
0.0
 11
-22.766513389
 21
25.9855075534
 31
0.0
  0
SPLINE
  5
35D
100
AcDbEntity
  8
RACCORDO
100
AcDbSpline
 62
253
  6
CONTINUOUS
 70
0
 71
3
 72
65
 73
61
 74
59
 42
0.0000001
 43
0.0000001
 44
0.0000000001
 12
-5.8292838738
 22
0.0769678754
 32
0.0
 13
-0.0020563483
 23
-5.8297916178
 33
0.0
 40
0.0
 40
0.0
 40
0.0
 40
0.0
 40
0.0225312546
 40
0.0444620309
 40
0.0662448308
 40
0.0882668766
 40
0.1102335427
 40
0.1312674226
 40
0.1527220115
 40
0.1762517856
 40
0.2018802954
 40
0.2298810026
 40
0.2608360644
 40
0.2945670495
 40
0.3279965968
 40
0.3584962697
 40
0.3855417843
 40
0.4097646764
 40
0.431589597
 40
0.4510008659
 40
0.4688146528
 40
0.4864188058
 40
0.504479172
 40
0.5228766085
 40
0.5405951427
 40
0.5563469241
 40
0.5700136595
 40
0.5819829647
 40
0.5926244331
 40
0.60231851
 40
0.6115651463
 40
0.6208887752
 40
0.6303444834
 40
0.6398405168
 40
0.6492966587
 40
0.6588748713
 40
0.6691942168
 40
0.680891324
 40
0.6941568495
 40
0.7078425243
 40
0.7210652042
 40
0.7331924221
 40
0.7443602807
 40
0.7549754075
 40
0.7653885117
 40
0.7757337322
 40
0.7860707224
 40
0.7964355899
 40
0.8068977553
 40
0.8176724461
 40
0.8290096008
 40
0.8411690511
 40
0.8544890745
 40
0.8693806369
 40
0.8862474664
 40
0.9054787782
 40
0.9273818489
 40
0.9514296901
 40
0.9759804736
 40
1.0
 40
1.0
 40
1.0
 40
1.0
 10
-22.766513389
 20
25.9855075534
 30
0.0
 10
-22.8102937486
 20
25.9860856143
 30
0.0
 10
-22.896715789
 20
25.9857046687
 30
0.0
 10
-23.0253712116
 20
25.9806256928
 30
0.0
 10
-23.1527878365
 20
25.9711622083
 30
0.0
 10
-23.2798653917
 20
25.9572409401
 30
0.0
 10
-23.4049335349
 20
25.9390634145
 30
0.0
 10
-23.5282169906
 20
25.9168050844
 30
0.0
 10
-23.6536479081
 20
25.8897518168
 30
0.0
 10
-23.7867107327
 20
25.8561071759
 30
0.0
 10
-23.9305910852
 20
25.8137663062
 30
0.0
 10
-24.0862103017
 20
25.7606818174
 30
0.0
 10
-24.2537863894
 20
25.6944417392
 30
0.0
 10
-24.4271610148
 20
25.6148651249
 30
0.0
 10
-24.5950912668
 20
25.5262494224
 30
0.0
 10
-24.7469007325
 20
25.4355063817
 30
0.0
 10
-24.8793282801
 20
25.3475954278
 30
0.0
 10
-24.9941960044
 20
25.2639816561
 30
0.0
 10
-25.0942743032
 20
25.1854231298
 30
0.0
 10
-25.182235622
 20
25.1117063684
 30
0.0
 10
-25.2619460485
 20
25.0409855538
 30
0.0
 10
-25.3377603787
 20
24.9698884937
 30
0.0
 10
-25.4123768223
 20
24.8959142082
 30
0.0
 10
-25.4850081058
 20
24.8196812657
 30
0.0
 10
-25.5524161417
 20
24.744726967
 30
0.0
 10
-25.6117766509
 20
24.6749504973
 30
0.0
 10
-25.6623696423
 20
24.6124197429
 30
0.0
 10
-25.7054991325
 20
24.5566495363
 30
0.0
 10
-25.74296884
 20
24.5062772663
 30
0.0
 10
-25.7764911137
 20
24.4595742953
 30
0.0
 10
-25.8078494837
 20
24.414478452
 30
0.0
 10
-25.838264869
 20
24.3692986141
 30
0.0
 10
-25.8682815677
 20
24.3232731989
 30
0.0
 10
-25.8977245933
 20
24.276573689
 30
0.0
 10
-25.9265489453
 20
24.22921089
 30
0.0
 10
-25.9554304671
 20
24.1800181872
 30
0.0
 10
-25.9856314151
 20
24.1265594767
 30
0.0
 10
-26.0182765556
 20
24.0662632863
 30
0.0
 10
-26.0527103428
 20
23.9995119825
 30
0.0
 10
-26.0870511479
 20
23.9293958916
 30
0.0
 10
-26.1190385887
 20
23.8606080623
 30
0.0
 10
-26.1477231516
 20
23.7956959378
 30
0.0
 10
-26.1733054692
 20
23.7349643725
 30
0.0
 10
-26.1965945769
 20
23.676891897
 30
0.0
 10
-26.2183785217
 20
23.619946671
 30
0.0
 10
-26.239011396
 20
23.5631491199
 30
0.0
 10
-26.258723687
 20
23.5061249961
 30
0.0
 10
-26.2775978492
 20
23.4485786905
 30
0.0
 10
-26.2958204879
 20
23.3899315023
 30
0.0
 10
-26.3136371317
 20
23.3291878564
 30
0.0
 10
-26.3313282364
 20
23.264979096
 30
0.0
 10
-26.3491135766
 20
23.195676467
 30
0.0
 10
-26.3671561297
 20
23.1193223473
 30
0.0
 10
-26.3854544413
 20
23.0336476641
 30
0.0
 10
-26.4037660404
 20
22.9362565258
 30
0.0
 10
-26.4215014393
 20
22.8249322385
 30
0.0
 10
-26.4374838428
 20
22.6992549568
 30
0.0
 10
-26.450086131
 20
22.5628024471
 30
0.0
 10
-26.4579757426
 20
22.4218766042
 30
0.0
 10
-26.459781398
 20
22.3274835512
 30
0.0
 10
-26.4597978621
 20
22.2808072733
 30
0.0
 11
-22.766513389
 21
25.9855075534
 31
0.0
 11
-22.8978646108
 21
25.9849219519
 31
0.0
 11
-23.0256167803
 21
25.9798739554
 31
0.0
 11
-23.1522568035
 21
25.970463349
 31
0.0
 11
-23.2798770302
 21
25.9564806727
 31
0.0
 11
-23.406607022
 21
25.9380645641
 31
0.0
 11
-23.5272794472
 21
25.9162792198
 31
0.0
 11
-23.6495461176
 21
25.8899198833
 31
0.0
 11
-23.7825343049
 21
25.856293066
 31
0.0
 11
-23.9258624656
 21
25.8141024026
 31
0.0
 11
-24.080351551
 21
25.761377982
 31
0.0
 11
-24.2481611299
 21
25.6949978361
 31
0.0
 11
-24.4268888201
 21
25.612988556
 31
0.0
 11
-24.5992406204
 21
25.5220164774
 31
0.0
 11
-24.7518701873
 21
25.4308054303
 31
0.0
 11
-24.8832144136
 21
25.3435790794
 31
0.0
 11
-24.9974209726
 21
25.2605226242
 31
0.0
 11
-25.0975109581
 21
25.1819689753
 31
0.0
 11
-25.1842527388
 21
25.1092924497
 31
0.0
 11
-25.2619271041
 21
25.0403602
 31
0.0
 11
-25.3367880898
 21
24.9701572648
 31
0.0
 11
-25.4115576966
 21
24.8960282806
 31
0.0
 11
-25.4855337336
 21
24.81837005
 31
0.0
 11
-25.5545941884
 21
24.7415547727
 31
0.0
 11
-25.6140911262
 21
24.6716062812
 31
0.0
 11
-25.6642002674
 21
24.6096623063
 31
0.0
 11
-25.7068940314
 21
24.554469102
 31
0.0
 11
-25.7439190879
 21
24.5046915724
 31
0.0
 11
-25.7768804428
 21
24.4587847931
 31
0.0
 11
-25.8076525942
 21
24.414525016
 31
0.0
 11
-25.8380119488
 21
24.3694389235
 31
0.0
 11
-25.868120125
 21
24.3232627113
 31
0.0
 11
-25.8976415878
 21
24.2764310797
 31
0.0
 11
-25.9263016462
 21
24.2293394172
 31
0.0
 11
-25.9545720329
 21
24.1811857288
 31
0.0
 11
-25.9841663097
 21
24.1288086269
 31
0.0
 11
-26.0166372883
 21
24.0688441068
 31
0.0
 11
-26.0520999883
 21
24.0001190134
 31
0.0
 11
-26.0872007854
 21
23.9284704099
 31
0.0
 11
-26.1197021237
 21
23.8585716744
 31
0.0
 11
-26.1482804893
 21
23.7939060121
 31
0.0
 11
-26.1735446112
 21
23.7339014
 31
0.0
 11
-26.1965852652
 21
23.6764666074
 31
0.0
 11
-26.2182647343
 21
23.6197634584
 31
0.0
 11
-26.2388687566
 21
23.5630816384
 31
0.0
 11
-26.2585548747
 21
23.5061252868
 31
0.0
 11
-26.2773893068
 21
23.4487105905
 31
0.0
 11
-26.2954873246
 21
23.3904652814
 31
0.0
 11
-26.3131680338
 21
23.3301907675
 31
0.0
 11
-26.3307225409
 21
23.2664714027
 31
0.0
 11
-26.3483430946
 21
23.1978092426
 31
0.0
 11
-26.366195953
 21
23.1222363737
 31
0.0
 11
-26.3843258596
 21
23.0373358406
 31
0.0
 11
-26.40249647
 21
22.9406992072
 31
0.0
 11
-26.4201397923
 21
22.8299816165
 31
0.0
 11
-26.4362642525
 21
22.7033134427
 31
0.0
 11
-26.4491619993
 21
22.5637140836
 31
0.0
 11
-26.4571465545
 21
22.4208110136
 31
0.0
 11
-26.4597978621
 21
22.2808072733
 31
0.0
  0
SPLINE
  5
35E
100
AcDbEntity
  8
RACCORDO
100
AcDbSpline
 62
253
  6
CONTINUOUS
 70
0
 71
3
 72
44
 73
40
 74
38
 42
0.0000001
 43
0.0000001
 44
0.0000000001
 12
-0.0036263561
 22
-10.4978165259
 32
0.0
 13
-0.0000193074
 23
-10.4978171522
 33
0.0
 40
0.0
 40
0.0
 40
0.0
 40
0.0
 40
0.012923374
 40
0.0261232024
 40
0.0394547326
 40
0.0525713725
 40
0.0651359122
 40
0.0771966988
 40
0.0890911182
 40
0.1011605519
 40
0.1136549741
 40
0.1265017113
 40
0.1393726225
 40
0.1521308549
 40
0.1648723749
 40
0.177862406
 40
0.1915086611
 40
0.206216819
 40
0.2222926958
 40
0.2397736625
 40
0.2586218871
 40
0.2788657795
 40
0.3006543469
 40
0.324149026
 40
0.3494795105
 40
0.376773564
 40
0.4061829642
 40
0.437872131
 40
0.4720093862
 40
0.5087699041
 40
0.5483404243
 40
0.5909380711
 40
0.6368288645
 40
0.6863082338
 40
0.7396984869
 40
0.7973541046
 40
0.8596618146
 40
0.9270467296
 40
1.0
 40
1.0
 40
1.0
 40
1.0
 10
-26.4597978621
 20
22.2808072733
 30
0.0
 10
-26.4598134837
 20
22.2355848702
 30
0.0
 10
-26.459833251
 20
22.1441726634
 30
0.0
 10
-26.4600471956
 20
22.0061099142
 30
0.0
 10
-26.4604694051
 20
21.8673713801
 30
0.0
 10
-26.4609815025
 20
21.7308562396
 30
0.0
 10
-26.4615291195
 20
21.5987879528
 30
0.0
 10
-26.4620874053
 20
21.4709966325
 30
0.0
 10
-26.4625690778
 20
21.34493752
 30
0.0
 10
-26.4630080999
 20
21.217360837
 30
0.0
 10
-26.463406216
 20
21.0864515837
 30
0.0
 10
-26.4637638288
 20
20.9527376159
 30
0.0
 10
-26.4640766284
 20
20.8181003894
 30
0.0
 10
-26.464342963
 20
20.6838312474
 30
0.0
 10
-26.4645637328
 20
20.5491451891
 30
0.0
 10
-26.4647411826
 20
20.4113516307
 30
0.0
 10
-26.4648743746
 20
20.2666762171
 30
0.0
 10
-26.4649559163
 20
20.1112025482
 30
0.0
 10
-26.4649712039
 20
19.9423101567
 30
0.0
 10
-26.4649020157
 20
19.758930555
 30
0.0
 10
-26.4647306043
 20
19.5609659917
 30
0.0
 10
-26.4644299217
 20
19.3479280912
 30
0.0
 10
-26.4639398109
 20
19.1186312879
 30
0.0
 10
-26.4632503509
 20
18.8715355548
 30
0.0
 10
-26.4623385452
 20
18.6051752243
 30
0.0
 10
-26.4611913407
 20
18.3181184086
 30
0.0
 10
-26.4598037665
 20
18.0088116551
 30
0.0
 10
-26.458184899
 20
17.6755595
 30
0.0
 10
-26.4563682224
 20
17.3165844506
 30
0.0
 10
-26.4543994541
 20
16.9300308162
 30
0.0
 10
-26.452329821
 20
16.5138720971
 30
0.0
 10
-26.4502508187
 20
16.0657637211
 30
0.0
 10
-26.4483295408
 20
15.5829805384
 30
0.0
 10
-26.4467796423
 20
15.0624295391
 30
0.0
 10
-26.4456517787
 20
14.500709052
 30
0.0
 10
-26.4449633984
 20
13.8940979812
 30
0.0
 10
-26.4446549569
 20
13.2385154973
 30
0.0
 10
-26.4445336899
 20
12.5294023223
 30
0.0
 10
-26.4444791553
 20
12.0383207866
 30
0.0
 10
-26.4444796248
 20
11.783037422
 30
0.0
 11
-26.4597978621
 21
22.2808072733
 31
0.0
 11
-26.4598628719
 21
22.1451400715
 31
0.0
 11
-26.4600808041
 21
22.0065708579
 31
0.0
 11
-26.4604883419
 21
21.8666194847
 31
0.0
 11
-26.4609980153
 21
21.7289243412
 31
0.0
 11
-26.4615414146
 21
21.5970252197
 31
0.0
 11
-26.4620783105
 21
21.4704144256
 31
0.0
 11
-26.4625588924
 21
21.3455499103
 31
0.0
 11
-26.4629946801
 21
21.2188479516
 31
0.0
 11
-26.463394562
 21
21.0876844017
 31
0.0
 11
-26.4637557164
 21
20.9528221874
 31
0.0
 11
-26.4640698613
 21
20.8177060802
 31
0.0
 11
-26.4643353853
 21
20.6837727522
 31
0.0
 11
-26.4645545505
 21
20.5500147847
 31
0.0
 11
-26.4647300861
 21
20.4136479262
 31
0.0
 11
-26.4648618493
 21
20.270392096
 31
0.0
 11
-26.464942735
 21
20.1159885653
 31
0.0
 11
-26.4649581517
 21
19.9472269509
 31
0.0
 11
-26.46488944
 21
19.7637149714
 31
0.0
 11
-26.464717485
 21
19.5658498307
 31
0.0
 11
-26.4644127797
 21
19.353333368
 31
0.0
 11
-26.4639286234
 21
19.1246014843
 31
0.0
 11
-26.4632432353
 21
18.8779595909
 31
0.0
 11
-26.4623376094
 21
18.6120463389
 31
0.0
 11
-26.4611984131
 21
18.3255206202
 31
0.0
 11
-26.4598211417
 21
18.0167891862
 31
0.0
 11
-26.4582156795
 21
17.6841259816
 31
0.0
 11
-26.4564128134
 21
17.3257638534
 31
0.0
 11
-26.4544569646
 21
16.9398636143
 31
0.0
 11
-26.4524047497
 21
16.5244645979
 31
0.0
 11
-26.4503516344
 21
16.077287004
 31
0.0
 11
-26.4484569508
 21
15.5955375713
 31
0.0
 11
-26.4469011315
 21
15.0761145305
 31
0.0
 11
-26.4457601717
 21
14.5156345769
 31
0.0
 11
-26.4450462863
 21
13.9103768649
 31
0.0
 11
-26.4446946849
 21
13.2562820134
 31
0.0
 11
-26.4445438111
 21
12.548887513
 31
0.0
 11
-26.4444796248
 21
11.783037422
 31
0.0
  0
SPLINE
  5
35F
100
AcDbEntity
  8
RACCORDO
100
AcDbSpline
 62
253
  6
CONTINUOUS
 70
0
 71
3
 72
18
 73
14
 74
12
 42
0.0000001
 43
0.0000001
 44
0.0000000001
 12
-2.8985199316
 22
0.0767636426
 32
0.0
 13
-0.1234404364
 23
2.8969074734
 33
0.0
 40
0.0
 40
0.0
 40
0.0
 40
0.0
 40
0.062209612
 40
0.132992107
 40
0.2128275417
 40
0.301906474
 40
0.3986730012
 40
0.4993570328
 40
0.6005351212
 40
0.7012544215
 40
0.8018050128
 40
0.9015062572
 40
1.0
 40
1.0
 40
1.0
 40
1.0
 10
-33.7847161015
 20
-46.3811720044
 30
0.0
 10
-33.8448213683
 20
-46.3795801923
 30
0.0
 10
-33.9732284314
 20
-46.3698937462
 30
0.0
 10
-34.1760698986
 20
-46.333550578
 30
0.0
 10
-34.3987122679
 20
-46.2676096722
 30
0.0
 10
-34.6346506344
 20
-46.1643951647
 30
0.0
 10
-34.8715517898
 20
-46.0191304527
 30
0.0
 10
-35.093732387
 20
-45.8332030302
 30
0.0
 10
-35.2881375398
 20
-45.6132414762
 30
0.0
 10
-35.447358667
 20
-45.3667936867
 30
0.0
 10
-35.5674954684
 20
-45.1006498582
 30
0.0
 10
-35.6457370819
 20
-44.8216240498
 30
0.0
 10
-35.6689867749
 20
-44.6305772101
 30
0.0
 10
-35.6730394785
 20
-44.5354681236
 30
0.0
 11
-33.7847161015
 21
-46.3811720044
 31
0.0
 11
-33.964588964
 21
-46.3676684496
 31
0.0
 11
-34.1666357677
 21
-46.3316257926
 31
0.0
 11
-34.388587002
 21
-46.2658740186
 31
0.0
 11
-34.6252081726
 21
-46.1623225702
 31
0.0
 11
-34.8643865425
 21
-46.0156332685
 31
0.0
 11
-35.0882668842
 21
-45.8282705076
 31
0.0
 11
-35.2825482401
 21
-45.6084514033
 31
0.0
 11
-35.4410324593
 21
-45.3631563099
 31
0.0
 11
-35.5609042707
 21
-45.0973891176
 31
0.0
 11
-35.6388013451
 21
-44.8189945155
 31
0.0
 11
-35.6730394785
 21
-44.5354681236
 31
0.0
  0
SPLINE
  5
360
100
AcDbEntity
  8
RACCORDO
100
AcDbSpline
 62
253
  6
CONTINUOUS
 70
0
 71
3
 72
56
 73
52
 74
50
 42
0.0000001
 43
0.0000001
 44
0.0000000001
 12
-1.3948905911
 22
32.7931424197
 32
0.0
 13
0.0000274569
 23
32.8227955774
 33
0.0
 40
0.0
 40
0.0
 40
0.0
 40
0.0
 40
0.0083012873
 40
0.0157128733
 40
0.0223884044
 40
0.0283582645
 40
0.0335807548
 40
0.0381862637
 40
0.0424159054
 40
0.0464952872
 40
0.0505735418
 40
0.0546653739
 40
0.058750421
 40
0.062799693
 40
0.0668881892
 40
0.0712029536
 40
0.0759300167
 40
0.081223908
 40
0.0871343285
 40
0.093678073
 40
0.1008698523
 40
0.1087175057
 40
0.117227826
 40
0.1264103307
 40
0.1363086848
 40
0.1470029534
 40
0.1585724613
 40
0.1710959179
 40
0.1846526297
 40
0.1993251584
 40
0.2151860361
 40
0.2323162389
 40
0.2508203047
 40
0.2708133897
 40
0.2924147932
 40
0.3157469625
 40
0.3409473987
 40
0.3681856598
 40
0.3976357034
 40
0.4294546499
 40
0.4638103815
 40
0.500886127
 40
0.5408825648
 40
0.5840509678
 40
0.6306674437
 40
0.6810401196
 40
0.7354579718
 40
0.7942074366
 40
0.8576215734
 40
0.9260813247
 40
1.0
 40
1.0
 40
1.0
 40
1.0
 10
-35.6730394785
 20
-44.5354681236
 30
0.0
 10
-35.6768992743
 20
-44.4447263583
 30
0.0
 10
-35.684750977
 20
-44.2729868613
 30
0.0
 10
-35.6995212167
 20
-44.0284770371
 30
0.0
 10
-35.7141583331
 20
-43.8095240032
 30
0.0
 10
-35.7271634352
 20
-43.6144657869
 30
0.0
 10
-35.7382781934
 20
-43.4419796826
 30
0.0
 10
-35.7473244894
 20
-43.28844159
 30
0.0
 10
-35.7546426328
 20
-43.1473316124
 30
0.0
 10
-35.7600951233
 20
-43.0119114147
 30
0.0
 10
-35.7651757336
 20
-42.8779874861
 30
0.0
 10
-35.7703317255
 20
-42.7440039779
 30
0.0
 10
-35.7754328345
 20
-42.6103358141
 30
0.0
 10
-35.7805070666
 20
-42.4767031205
 30
0.0
 10
-35.7856315254
 20
-42.3405572155
 30
0.0
 10
-35.7909746997
 20
-42.1969986334
 30
0.0
 10
-35.7967200123
 20
-42.040257761
 30
0.0
 10
-35.8029724618
 20
-41.8660658289
 30
0.0
 10
-35.8097393452
 20
-41.6720034518
 30
0.0
 10
-35.8169374869
 20
-41.4571789936
 30
0.0
 10
-35.8244325208
 20
-41.2211577308
 30
0.0
 10
-35.8320187259
 20
-40.9636129497
 30
0.0
 10
-35.8395706323
 20
-40.6842780772
 30
0.0
 10
-35.8468962443
 20
-40.3824933347
 30
0.0
 10
-35.8537946416
 20
-40.0567981639
 30
0.0
 10
-35.8600645451
 20
-39.7049696903
 30
0.0
 10
-35.8655229158
 20
-39.3244031565
 30
0.0
 10
-35.8699416257
 20
-38.9125039491
 30
0.0
 10
-35.8745352968
 20
-38.466655196
 30
0.0
 10
-35.8789750248
 20
-37.9842884969
 30
0.0
 10
-35.8831590294
 20
-37.4628208798
 30
0.0
 10
-35.886949016
 20
-36.8994284921
 30
0.0
 10
-35.8899501778
 20
-36.2908205293
 30
0.0
 10
-35.8923331517
 20
-35.6332905335
 30
0.0
 10
-35.8940334435
 20
-34.9229341532
 30
0.0
 10
-35.8945876951
 20
-34.1556026442
 30
0.0
 10
-35.8942811938
 20
-33.3265987765
 30
0.0
 10
-35.8938196495
 20
-32.4306597855
 30
0.0
 10
-35.8934062565
 20
-31.4623079966
 30
0.0
 10
-35.8940139354
 20
-30.4160844395
 30
0.0
 10
-35.8954744282
 20
-29.2864294933
 30
0.0
 10
-35.8975541899
 20
-28.0673060168
 30
0.0
 10
-35.9001953755
 20
-26.7517645999
 30
0.0
 10
-35.9031572955
 20
-25.3318391472
 30
0.0
 10
-35.9061243968
 20
-23.7983877547
 30
0.0
 10
-35.9089784661
 20
-22.1418564722
 30
0.0
 10
-35.9113489522
 20
-20.3525780748
 30
0.0
 10
-35.9132355781
 20
-18.4206133146
 30
0.0
 10
-35.9147060209
 20
-16.3350166919
 30
0.0
 10
-35.9156473853
 20
-14.0834544434
 30
0.0
 10
-35.9158411945
 20
-12.5257017675
 30
0.0
 10
-35.915840518
 20
-11.716962578
 30
0.0
 11
-35.6730394785
 21
-44.5354681236
 31
0.0
 11
-35.6858973906
 21
-44.2633002194
 31
0.0
 11
-35.700279965
 21
-44.0204567821
 31
0.0
 11
-35.7146665184
 21
-43.8018200043
 31
0.0
 11
-35.7276300711
 21
-43.6063017998
 31
0.0
 11
-35.7385456379
 21
-43.435232967
 31
0.0
 11
-35.7473818582
 21
-43.284325766
 31
0.0
 11
-35.7544554357
 21
-43.1456774227
 31
0.0
 11
-35.7600437902
 21
-43.0118973775
 31
0.0
 11
-35.7651822337
 21
-42.8781363218
 31
0.0
 11
-35.7703274306
 21
-42.7439295446
 31
0.0
 11
-35.7754434835
 21
-42.6099445169
 31
0.0
 11
-35.7804834791
 21
-42.4771316861
 31
0.0
 11
-35.7855292902
 21
-42.3430307071
 31
0.0
 11
-35.7907942279
 21
-42.2015059743
 31
0.0
 11
-35.7964743203
 21
-42.0464545553
 31
0.0
 11
-35.8027025165
 21
-41.8728058986
 31
0.0
 11
-35.8094561336
 21
-41.6789269693
 31
0.0
 11
-35.8166404119
 21
-41.4642631655
 31
0.0
 11
-35.8241183447
 21
-41.2283273413
 31
0.0
 11
-35.8317056715
 21
-40.9708571869
 31
0.0
 11
-35.8392483436
 21
-40.6916265395
 31
0.0
 11
-35.8465567212
 21
-40.3903196843
 31
0.0
 11
-35.8534354537
 21
-40.0655008598
 31
0.0
 11
-35.8596985141
 21
-39.7145409477
 31
0.0
 11
-35.8651535422
 21
-39.3348365361
 31
0.0
 11
-35.8697924366
 21
-38.9238078575
 31
0.0
 11
-35.8743312398
 21
-38.4788618278
 31
0.0
 11
-35.8787643037
 21
-37.9972888191
 31
0.0
 11
-35.8829394554
 21
-37.4767072179
 31
0.0
 11
-35.8866861046
 21
-36.9144585552
 31
0.0
 11
-35.889742656
 21
-36.3071110783
 31
0.0
 11
-35.8921399984
 21
-35.6508865151
 31
0.0
 11
-35.8937982332
 21
-34.9418700011
 31
0.0
 11
-35.8944389116
 21
-34.1760432451
 31
0.0
 11
-35.8942701676
 21
-33.3488944981
 31
0.0
 11
-35.893844752
 21
-32.4548587221
 31
0.0
 11
-35.8935733954
 21
-31.4882260001
 31
0.0
 11
-35.8941170033
 21
-30.4438393654
 31
0.0
 11
-35.8955106321
 21
-29.31618907
 31
0.0
 11
-35.8975585544
 21
-28.0992611792
 31
0.0
 11
-35.9001421768
 21
-26.7864688203
 31
0.0
 11
-35.9030443013
 21
-25.3695641256
 31
0.0
 11
-35.9059929105
 21
-23.8394839085
 31
0.0
 11
-35.9087967495
 21
-22.1861142419
 31
0.0
 11
-35.9111864505
 21
-20.399969802
 31
0.0
 11
-35.9131018197
 21
-18.4716490792
 31
0.0
 11
-35.9145713632
 21
-16.3902203495
 31
0.0
 11
-35.9155166469
 21
-14.1431801249
 31
0.0
 11
-35.915840518
 21
-11.716962578
 31
0.0
  0
SPLINE
  5
361
100
AcDbEntity
  8
RACCORDO
100
AcDbSpline
 62
253
  6
CONTINUOUS
 70
0
 71
3
 72
40
 73
36
 74
34
 42
0.0000001
 43
0.0000001
 44
0.0000000001
 12
0.0000266897
 22
-10.4969148436
 32
0.0
 13
0.0036763542
 23
-10.4969141998
 33
0.0
 40
0.0
 40
0.0
 40
0.0
 40
0.0
 40
0.0784801275
 40
0.1508406332
 40
0.2175947395
 40
0.2792205335
 40
0.3361556807
 40
0.3887909453
 40
0.4374732738
 40
0.482516239
 40
0.5242057035
 40
0.5628043885
 40
0.5985532674
 40
0.6316726192
 40
0.6623636938
 40
0.690810678
 40
0.717183963
 40
0.7416281896
 40
0.7642717755
 40
0.7852767375
 40
0.8048136678
 40
0.8229487386
 40
0.8396534832
 40
0.854916491
 40
0.8690121795
 40
0.8823636373
 40
0.8954086802
 40
0.9084607659
 40
0.9215407506
 40
0.9346131947
 40
0.9476514165
 40
0.9606866203
 40
0.9738578032
 40
0.9870854447
 40
1.0
 40
1.0
 40
1.0
 40
1.0
 10
-26.4444795191
 20
-11.716962578
 30
0.0
 10
-26.4444788208
 20
-11.9915623165
 30
0.0
 10
-26.4445422829
 20
-12.5193494087
 30
0.0
 10
-26.4446767475
 20
-13.2807072149
 30
0.0
 10
-26.4450804539
 20
-13.9830921241
 30
0.0
 10
-26.4459703847
 20
-14.6315036949
 30
0.0
 10
-26.4473924547
 20
-15.2305127893
 30
0.0
 10
-26.4493247439
 20
-15.7842313734
 30
0.0
 10
-26.4515972724
 20
-16.2963378128
 30
0.0
 10
-26.4539231468
 20
-16.7701445036
 30
0.0
 10
-26.4561551356
 20
-17.2086688365
 30
0.0
 10
-26.4582137035
 20
-17.6146738863
 30
0.0
 10
-26.4600338357
 20
-17.9906931758
 30
0.0
 10
-26.4615630435
 20
-18.3390450185
 30
0.0
 10
-26.4627882859
 20
-18.6618487778
 30
0.0
 10
-26.4637128959
 20
-18.9610491396
 30
0.0
 10
-26.4643608094
 20
-19.238392636
 30
0.0
 10
-26.4647400041
 20
-19.495430678
 30
0.0
 10
-26.464932166
 20
-19.7336852997
 30
0.0
 10
-26.4649807248
 20
-19.9547695014
 30
0.0
 10
-26.4649087332
 20
-20.1600785273
 30
0.0
 10
-26.4647417178
 20
-20.3503411517
 30
0.0
 10
-26.4645032118
 20
-20.5256493518
 30
0.0
 10
-26.4642141065
 20
-20.6868237693
 30
0.0
 10
-26.4638871572
 20
-20.8362650321
 30
0.0
 10
-26.4635254386
 20
-20.9779455939
 30
0.0
 10
-26.4631213684
 20
-21.1159744903
 30
0.0
 10
-26.4626632465
 20
-21.2530533351
 30
0.0
 10
-26.4621487679
 20
-21.3902278612
 30
0.0
 10
-26.4615531155
 20
-21.5273535443
 30
0.0
 10
-26.4609829884
 20
-21.6643226462
 30
0.0
 10
-26.4604681749
 20
-21.8016374565
 30
0.0
 10
-26.4600494285
 20
-21.9396153939
 30
0.0
 10
-26.4598319307
 20
-22.077171681
 30
0.0
 10
-26.459814053
 20
-22.1686424932
 30
0.0
 10
-26.4597982269
 20
-22.213830153
 30
0.0
 11
-26.4444795191
 21
-11.716962578
 31
0.0
 11
-26.4445529111
 21
-12.5407617904
 31
0.0
 11
-26.4447326471
 21
-13.3003238347
 31
0.0
 11
-26.4451876499
 21
-14.0010358568
 31
0.0
 11
-26.4461051634
 21
-14.6479159177
 31
0.0
 11
-26.4475436557
 21
-15.2455575786
 31
0.0
 11
-26.4494637051
 21
-15.7980621327
 31
0.0
 11
-26.451695478
 21
-16.3090715161
 31
0.0
 11
-26.4539955491
 21
-16.7818780914
 31
0.0
 11
-26.4562087038
 21
-17.2194832537
 31
0.0
 11
-26.4582481506
 21
-17.62464523
 31
0.0
 11
-26.4600491086
 21
-17.9998938453
 31
0.0
 11
-26.4615646023
 21
-18.3475415581
 31
0.0
 11
-26.4627787794
 21
-18.6697008665
 31
0.0
 11
-26.4636963677
 21
-18.9683050272
 31
0.0
 11
-26.4643353487
 21
-19.2451424173
 31
0.0
 11
-26.4647196081
 21
-19.5017310942
 31
0.0
 11
-26.4649126676
 21
-19.7394188091
 31
0.0
 11
-26.4649601372
 21
-19.9599061014
 31
0.0
 11
-26.4648883245
 21
-20.1649835818
 31
0.0
 11
-26.4647213819
 21
-20.3553458026
 31
0.0
 11
-26.4644831161
 21
-20.5306939227
 31
0.0
 11
-26.4641958392
 21
-20.6909081577
 31
0.0
 11
-26.4638722088
 21
-20.8388690461
 31
0.0
 11
-26.4635138553
 21
-20.9790177037
 31
0.0
 11
-26.4631119812
 21
-21.1159498177
 31
0.0
 11
-26.4626542548
 21
-21.2529556857
 31
0.0
 11
-26.4621350887
 21
-21.3902541897
 31
0.0
 11
-26.4615567491
 21
-21.5274733033
 31
0.0
 11
-26.4609923728
 21
-21.664333244
 31
0.0
 11
-26.4604861627
 21
-21.8011617315
 31
0.0
 11
-26.460083454
 21
-21.9394179303
 31
0.0
 11
-26.45986265
 21
-22.0782671807
 31
0.0
 11
-26.4597982269
 21
-22.213830153
 31
0.0
  0
SPLINE
  5
362
100
AcDbEntity
  8
RACCORDO
100
AcDbSpline
 62
253
  6
CONTINUOUS
 70
0
 71
3
 72
69
 73
65
 74
63
 42
0.0000001
 43
0.0000001
 44
0.0000000001
 12
0.0005830242
 22
-5.8307493248
 32
0.0
 13
5.8302417883
 23
0.0769332109
 33
0.0
 40
0.0
 40
0.0
 40
0.0
 40
0.0
 40
0.0238092165
 40
0.0474585724
 40
0.0702997212
 40
0.091466136
 40
0.1105404795
 40
0.1277967454
 40
0.1434989463
 40
0.1577154594
 40
0.1704890154
 40
0.1818270833
 40
0.191730083
 40
0.2004857508
 40
0.2085594627
 40
0.2163882677
 40
0.2242478388
 40
0.2321341053
 40
0.2400084074
 40
0.2478349455
 40
0.2557264021
 40
0.2639307172
 40
0.2726950291
 40
0.2822669389
 40
0.2929187166
 40
0.3049649798
 40
0.3187195045
 40
0.334073706
 40
0.3505822232
 40
0.367785283
 40
0.384804346
 40
0.4013404081
 40
0.4187572577
 40
0.4362191219
 40
0.4534582932
 40
0.470687627
 40
0.4880516814
 40
0.5056044466
 40
0.5230644767
 40
0.5402543794
 40
0.5582265329
 40
0.5780243485
 40
0.5976577085
 40
0.6153414935
 40
0.6312450734
 40
0.6459331708
 40
0.659955068
 40
0.6737705903
 40
0.6876540383
 40
0.7016435039
 40
0.7154021724
 40
0.7295183405
 40
0.7452341133
 40
0.7623495026
 40
0.7800727315
 40
0.7981256615
 40
0.8166122702
 40
0.83607507
 40
0.8573330865
 40
0.8809003945
 40
0.9066805484
 40
0.9347997138
 40
0.9657358367
 40
1.0
 40
1.0
 40
1.0
 40
1.0
 10
-26.4597982269
 20
-22.213830153
 30
0.0
 10
-26.4597935998
 20
-22.2601053441
 30
0.0
 10
-26.458056211
 20
-22.3523533548
 30
0.0
 10
-26.4505777201
 20
-22.4888086051
 30
0.0
 10
-26.4388755173
 20
-22.6198094017
 30
0.0
 10
-26.4239460081
 20
-22.7415230448
 30
0.0
 10
-26.4069294781
 20
-22.8519866333
 30
0.0
 10
-26.3886958101
 20
-22.9514718381
 30
0.0
 10
-26.3698647379
 20
-23.0412148886
 30
0.0
 10
-26.350965441
 20
-23.1220164548
 30
0.0
 10
-26.332536243
 20
-23.1941993825
 30
0.0
 10
-26.3150379191
 20
-23.2579550507
 30
0.0
 10
-26.2987235051
 20
-23.313929225
 30
0.0
 10
-26.2834923324
 20
-23.36360471
 30
0.0
 10
-26.2688643359
 20
-23.4092441955
 30
0.0
 10
-26.2542373601
 20
-23.4530514884
 30
0.0
 10
-26.2392003594
 20
-23.4963342241
 30
0.0
 10
-26.2236118657
 20
-23.539515559
 30
0.0
 10
-26.2074911104
 20
-23.5824324357
 30
0.0
 10
-26.1908500952
 20
-23.6251610077
 30
0.0
 10
-26.1734415236
 20
-23.6682752108
 30
0.0
 10
-26.1548045622
 20
-23.7128552245
 30
0.0
 10
-26.134294859
 20
-23.7601879809
 30
0.0
 10
-26.1111838339
 20
-23.8115724286
 30
0.0
 10
-26.084584318
 20
-23.8683748805
 30
0.0
 10
-26.0534401511
 20
-23.9320154882
 30
0.0
 10
-26.0168411473
 20
-24.0031466046
 30
0.0
 10
-25.9744352418
 20
-24.0810190275
 30
0.0
 10
-25.9266603585
 20
-24.1635662301
 30
0.0
 10
-25.8748652981
 20
-24.2474812134
 30
0.0
 10
-25.8207384374
 20
-24.3299740607
 30
0.0
 10
-25.7641661478
 20
-24.4113153813
 30
0.0
 10
-25.7048665275
 20
-24.4917641014
 30
0.0
 10
-25.6424601189
 20
-24.5715709382
 30
0.0
 10
-25.5779568021
 20
-24.6492192602
 30
0.0
 10
-25.5113870271
 20
-24.7248495001
 30
0.0
 10
-25.4422703754
 20
-24.798994733
 30
0.0
 10
-25.3708124865
 20
-24.8715160252
 30
0.0
 10
-25.2976647773
 20
-24.9418445515
 30
0.0
 10
-25.2220536621
 20
-25.0107333873
 30
0.0
 10
-25.1411728603
 20
-25.0805287486
 30
0.0
 10
-25.0546485945
 20
-25.1509905884
 30
0.0
 10
-24.966431379
 20
-25.2184034014
 30
0.0
 10
-24.8823736203
 20
-25.2787103996
 30
0.0
 10
-24.8046175823
 20
-25.3312430558
 30
0.0
 10
-24.7315373665
 20
-25.3779277154
 30
0.0
 10
-24.6608308091
 20
-25.4207428312
 30
0.0
 10
-24.5905241552
 20
-25.4611575525
 30
0.0
 10
-24.5193732621
 20
-25.4999353765
 30
0.0
 10
-24.4474551001
 20
-25.5370310085
 30
0.0
 10
-24.3742960171
 20
-25.5726603283
 30
0.0
 10
-24.2972817202
 20
-25.6079860737
 30
0.0
 10
-24.2134191
 20
-25.6439693337
 30
0.0
 10
-24.1220914987
 20
-25.6802489042
 30
0.0
 10
-24.0255032111
 20
-25.7154801412
 30
0.0
 10
-23.9254177239
 20
-25.7487764358
 30
0.0
 10
-23.8211710431
 20
-25.7801339069
 30
0.0
 10
-23.7100094394
 20
-25.8099570616
 30
0.0
 10
-23.5883258608
 20
-25.8384405268
 30
0.0
 10
-23.453651017
 20
-25.8649535295
 30
0.0
 10
-23.304855388
 20
-25.8882265677
 30
0.0
 10
-23.1409538957
 20
-25.9067131302
 30
0.0
 10
-22.9598988425
 20
-25.918560281
 30
0.0
 10
-22.8331144132
 20
-25.9203113488
 30
0.0
 10
-22.766524961
 20
-25.9194326647
 30
0.0
 11
-26.4597982269
 21
-22.213830153
 31
0.0
 11
-26.4572169578
 21
-22.3526317273
 31
0.0
 11
-26.449690724
 21
-22.4903196495
 31
0.0
 11
-26.4378306167
 21
-22.6229715253
 31
0.0
 11
-26.422790821
 21
-22.7454677633
 31
0.0
 11
-26.4058459087
 21
-22.8553870535
 31
0.0
 11
-26.3877107823
 21
-22.9543561906
 31
0.0
 11
-26.3689131106
 21
-23.0439612963
 31
0.0
 11
-26.3500410583
 21
-23.1246773579
 31
0.0
 11
-26.3316185928
 21
-23.1968424066
 31
0.0
 11
-26.3141215114
 21
-23.2605943414
 31
0.0
 11
-26.2979634149
 21
-23.3160293843
 31
0.0
 11
-26.2829968852
 21
-23.3648384031
 31
0.0
 11
-26.2686275245
 21
-23.4096675404
 31
0.0
 11
-26.2541692292
 21
-23.4529651074
 31
0.0
 11
-26.2391306082
 21
-23.496254496
 31
0.0
 11
-26.2235112749
 21
-23.5395032912
 31
0.0
 11
-26.2073719731
 21
-23.5824862412
 31
0.0
 11
-26.1908087668
 21
-23.6250088858
 31
0.0
 11
-26.1735842257
 21
-23.6676764503
 31
0.0
 11
-26.1551327653
 21
-23.7118120518
 31
0.0
 11
-26.1348163414
 21
-23.758702446
 31
0.0
 11
-26.1119223623
 21
-23.8096021401
 31
0.0
 11
-26.0855833364
 21
-23.8658483864
 31
0.0
 11
-26.0547032356
 21
-23.9289348364
 31
0.0
 11
-26.0180017754
 21
-24.0002434073
 31
0.0
 11
-25.9751820908
 21
-24.0788657251
 31
0.0
 11
-25.9269543159
 21
-24.162169367
 31
0.0
 11
-25.8742849584
 21
-24.2475355129
 31
0.0
 11
-25.8198478596
 21
-24.3305051899
 31
0.0
 11
-25.7647934825
 21
-24.4096593159
 31
0.0
 11
-25.7045353245
 21
-24.4914029639
 31
0.0
 11
-25.6418006613
 21
-24.571595293
 31
0.0
 11
-25.5775806301
 21
-24.6489226012
 31
0.0
 11
-25.5112072178
 21
-24.7243332566
 31
0.0
 11
-25.4421849241
 21
-24.7984046001
 31
0.0
 11
-25.3703610699
 21
-24.8713154465
 31
0.0
 11
-25.296972655
 21
-24.9418732999
 31
0.0
 11
-25.2228855125
 21
-25.0093799741
 31
0.0
 11
-25.1435545244
 21
-25.0778472923
 31
0.0
 11
-25.0540304244
 21
-25.1507234121
 31
0.0
 11
-24.9630600394
 21
-25.2202174307
 31
0.0
 11
-24.8792709196
 21
-25.2803090045
 31
0.0
 11
-24.8024333236
 21
-25.3322204432
 31
0.0
 11
-24.7302611212
 21
-25.3783271738
 31
0.0
 11
-24.6603288825
 21
-25.4206813957
 31
0.0
 11
-24.5904900408
 21
-25.4608263779
 31
0.0
 11
-24.5194106381
 21
-25.4995661206
 31
0.0
 11
-24.4469150703
 21
-25.5369546936
 31
0.0
 11
-24.3747901348
 21
-25.5720798862
 31
0.0
 11
-24.2999772608
 21
-25.6063962687
 31
0.0
 11
-24.2157672244
 21
-25.6425292719
 31
0.0
 11
-24.1230244698
 21
-25.6793794045
 31
0.0
 11
-24.0259446033
 21
-25.7147996564
 31
0.0
 11
-23.9260659048
 21
-25.7480315292
 31
0.0
 11
-23.8228438875
 21
-25.7790809694
 31
0.0
 11
-23.7132377114
 21
-25.8084886398
 31
0.0
 11
-23.5925492305
 21
-25.836736369
 31
0.0
 11
-23.4577216811
 21
-25.8632775133
 31
0.0
 11
-23.3092097126
 21
-25.8865063888
 31
0.0
 11
-23.1462868373
 21
-25.9048814511
 31
0.0
 11
-22.9662915863
 21
-25.9166685179
 31
0.0
 11
-22.766524961
 21
-25.9194326647
 31
0.0
  0
SPLINE
  5
363
100
AcDbEntity
  8
RACCORDO
100
AcDbSpline
 62
253
  6
CONTINUOUS
 70
0
 71
3
 72
50
 73
46
 74
44
 42
0.0000001
 43
0.0000001
 44
0.0000000001
 12
13.0148782196
 22
0.1717408201
 32
0.0
 13
13.016011293
 23
0.0000117368
 33
0.0
 40
0.0
 40
0.0
 40
0.0
 40
0.0
 40
0.0060695414
 40
0.011806301
 40
0.0172425579
 40
0.022432661
 40
0.0274776767
 40
0.0324913444
 40
0.0375313827
 40
0.0425991606
 40
0.04777298
 40
0.0532796533
 40
0.0593633813
 40
0.0662209491
 40
0.0738455539
 40
0.0820811487
 40
0.0908352248
 40
0.1001225951
 40
0.1100019455
 40
0.1205851837
 40
0.1320087207
 40
0.144413097
 40
0.1579176618
 40
0.1725906015
 40
0.1884975197
 40
0.205730617
 40
0.2244107104
 40
0.2446663089
 40
0.2666225118
 40
0.2904101857
 40
0.3161645841
 40
0.3440257813
 40
0.3741415681
 40
0.4066904141
 40
0.4418635837
 40
0.4798516487
 40
0.5208336478
 40
0.5650971627
 40
0.6130513777
 40
0.6650948485
 40
0.7216110706
 40
0.7829518269
 40
0.8492742764
 40
0.9212886962
 40
1.0
 40
1.0
 40
1.0
 40
1.0
 10
-22.766524961
 20
-25.9194326647
 30
0.0
 10
-22.7401935136
 20
-25.919085202
 30
0.0
 10
-22.6889744179
 20
-25.9184022208
 30
0.0
 10
-22.6141710813
 20
-25.9174205555
 30
0.0
 10
-22.5431824896
 20
-25.916529058
 30
0.0
 10
-22.475194231
 20
-25.9157309906
 30
0.0
 10
-22.409038727
 20
-25.9150070595
 30
0.0
 10
-22.3435338099
 20
-25.914333347
 30
0.0
 10
-22.2779297346
 20
-25.9136993489
 30
0.0
 10
-22.2116305067
 20
-25.9130949018
 30
0.0
 10
-22.1433064951
 20
-25.9125049178
 30
0.0
 10
-22.0705744935
 20
-25.9119104233
 30
0.0
 10
-21.9905372197
 20
-25.9112922665
 30
0.0
 10
-21.90131091
 20
-25.9106436004
 30
0.0
 10
-21.8027482951
 20
-25.909971112
 30
0.0
 10
-21.6959572438
 20
-25.9092884427
 30
0.0
 10
-21.5819518375
 20
-25.9086099137
 30
0.0
 10
-21.4608145302
 20
-25.9079435531
 30
0.0
 10
-21.3317408933
 20
-25.9072940082
 30
0.0
 10
-21.1933989393
 20
-25.9066619919
 30
0.0
 10
-21.0441014387
 20
-25.9060747439
 30
0.0
 10
-20.8821290042
 20
-25.9055366366
 30
0.0
 10
-20.7060582484
 20
-25.9050547141
 30
0.0
 10
-20.5147909269
 20
-25.9046316673
 30
0.0
 10
-20.3073465722
 20
-25.9042745317
 30
0.0
 10
-20.0825163945
 20
-25.9039751172
 30
0.0
 10
-19.838818684
 20
-25.9036994627
 30
0.0
 10
-19.5746289249
 20
-25.9034620838
 30
0.0
 10
-19.2882790197
 20
-25.9032635211
 30
0.0
 10
-18.9780715983
 20
-25.9031190847
 30
0.0
 10
-18.6422443259
 20
-25.9030419155
 30
0.0
 10
-18.2789614509
 20
-25.9030632341
 30
0.0
 10
-17.8861997134
 20
-25.9031190241
 30
0.0
 10
-17.461713737
 20
-25.9031782356
 30
0.0
 10
-17.0030725424
 20
-25.9032553703
 30
0.0
 10
-16.5078426777
 20
-25.9033475339
 30
0.0
 10
-15.9731728088
 20
-25.9034802654
 30
0.0
 10
-15.3952631031
 20
-25.9036285565
 30
0.0
 10
-14.769361304
 20
-25.9037462889
 30
0.0
 10
-14.0902990336
 20
-25.9036717433
 30
0.0
 10
-13.353157018
 20
-25.9034220472
 30
0.0
 10
-12.5540632582
 20
-25.9030668679
 30
0.0
 10
-11.6877279682
 20
-25.9026111628
 30
0.0
 10
-10.7460275371
 20
-25.9022520056
 30
0.0
 10
-10.09207829
 20
-25.9021971167
 30
0.0
 10
-9.7505758836
 20
-25.9021968088
 30
0.0
 11
-22.766524961
 21
-25.9194326647
 31
0.0
 11
-22.6875306777
 21
-25.9183858285
 31
0.0
 11
-22.6128673176
 21
-25.9174106653
 31
0.0
 11
-22.5421144729
 21
-25.9165255393
 31
0.0
 11
-22.4745646854
 21
-25.9157326831
 31
0.0
 11
-22.4089026499
 21
-25.9150127934
 31
0.0
 11
-22.3436481498
 21
-25.9143412582
 31
0.0
 11
-22.2780500264
 21
-25.9137064759
 31
0.0
 11
-22.2120905204
 21
-25.9131043382
 31
0.0
 11
-22.1447505425
 21
-25.9125224035
 31
0.0
 11
-22.073078019
 21
-25.911935999
 31
0.0
 11
-21.9938945141
 21
-25.9113238228
 31
0.0
 11
-21.9046386978
 21
-25.9106740896
 31
0.0
 11
-21.805399073
 21
-25.9099960425
 31
0.0
 11
-21.69820667
 21
-25.9093104578
 31
0.0
 11
-21.5842655368
 21
-25.908631993
 31
0.0
 11
-21.4633828502
 21
-25.9079668287
 31
0.0
 11
-21.334794745
 21
-25.9073189753
 31
0.0
 11
-21.1970446214
 21
-25.9066926713
 31
0.0
 11
-21.0483568916
 21
-25.906106005
 31
0.0
 11
-20.8869022884
 21
-25.905567571
 31
0.0
 11
-20.7111273871
 21
-25.9050833394
 31
0.0
 11
-20.5201447105
 21
-25.9046584829
 31
0.0
 11
-20.3131003992
 21
-25.9042973522
 31
0.0
 11
-20.0887944198
 21
-25.9039906751
 31
0.0
 11
-19.8456542675
 21
-25.9037162396
 31
0.0
 11
-19.5820072773
 21
-25.9034773622
 31
0.0
 11
-19.2962251611
 21
-25.9032794476
 31
0.0
 11
-18.9866045621
 21
-25.903134744
 31
0.0
 11
-18.6513850309
 21
-25.9030594995
 31
0.0
 11
-18.2887433729
 21
-25.9030675026
 31
0.0
 11
-17.8967559551
 21
-25.9031173642
 31
0.0
 11
-17.4730998127
 21
-25.9031785947
 31
0.0
 11
-17.0152854456
 21
-25.9032546312
 31
0.0
 11
-16.520832372
 21
-25.9033500438
 31
0.0
 11
-15.987410224
 21
-25.9034774447
 31
0.0
 11
-15.4112758323
 21
-25.9036181335
 31
0.0
 11
-14.7871032348
 21
-25.903713231
 31
0.0
 11
-14.1097048342
 21
-25.9036490893
 31
0.0
 11
-13.3740890864
 21
-25.903416704
 31
0.0
 11
-12.5756771856
 21
-25.9030660482
 31
0.0
 11
-11.7124235381
 21
-25.9026441046
 31
0.0
 11
-10.7750830967
 21
-25.9023074923
 31
0.0
 11
-9.7505758836
 21
-25.9021968088
 31
0.0
  0
SPLINE
  5
364
100
AcDbEntity
  8
RACCORDO
100
AcDbSpline
 62
253
  6
CONTINUOUS
 70
0
 71
3
 72
43
 73
39
 74
37
 42
0.0000001
 43
0.0000001
 44
0.0000000001
 12
-24.0347082982
 22
0.0000532691
 32
0.0
 13
-24.0262925398
 23
0.6359793828
 33
0.0
 40
0.0
 40
0.0
 40
0.0
 40
0.0
 40
0.0788802228
 40
0.1512781889
 40
0.2178330171
 40
0.2790870985
 40
0.3355231639
 40
0.3875810905
 40
0.4356399895
 40
0.4800354408
 40
0.5210618802
 40
0.5589930038
 40
0.5940801447
 40
0.6265528709
 40
0.6566245908
 40
0.6844848674
 40
0.7103041864
 40
0.7342385726
 40
0.7564315851
 40
0.7770098834
 40
0.7960924491
 40
0.813798775
 40
0.8302552679
 40
0.8455348202
 40
0.8596154821
 40
0.8724440386
 40
0.8841529172
 40
0.8950817316
 40
0.9056072467
 40
0.9160778873
 40
0.9265654417
 40
0.9369957825
 40
0.9474065932
 40
0.9578643587
 40
0.9683909712
 40
0.978976589
 40
0.989548167
 40
1.0
 40
1.0
 40
1.0
 40
1.0
 10
-9.7505758836
 20
-46.4645001229
 30
0.0
 10
-10.3825302653
 20
-46.4644987222
 30
0.0
 10
-11.5945057631
 20
-46.4629866866
 30
0.0
 10
-13.3396861928
 20
-46.4593573662
 30
0.0
 10
-14.9436541005
 20
-46.4560524003
 30
0.0
 10
-16.4197436588
 20
-46.4536376578
 30
0.0
 10
-17.7796918801
 20
-46.4525977235
 30
0.0
 10
-19.0339261942
 20
-46.4522914223
 30
0.0
 10
-20.1916963134
 20
-46.4519732121
 30
0.0
 10
-21.2610866362
 20
-46.4511238292
 30
0.0
 10
-22.2493372368
 20
-46.4499995333
 30
0.0
 10
-23.1630138291
 20
-46.4490686765
 30
0.0
 10
-24.0081620762
 20
-46.448498153
 30
0.0
 10
-24.7903443518
 20
-46.4484675854
 30
0.0
 10
-25.5146280325
 20
-46.4486714999
 30
0.0
 10
-26.1856075062
 20
-46.4487933566
 30
0.0
 10
-26.8074173197
 20
-46.4487030215
 30
0.0
 10
-27.3838233625
 20
-46.4483303924
 30
0.0
 10
-27.9182402584
 20
-46.4476334968
 30
0.0
 10
-28.4137860521
 20
-46.4466926705
 30
0.0
 10
-28.8733852478
 20
-46.4452817836
 30
0.0
 10
-29.2999602798
 20
-46.443390755
 30
0.0
 10
-29.6960649321
 20
-46.4411349035
 30
0.0
 10
-30.0631201291
 20
-46.4386163605
 30
0.0
 10
-30.4011072493
 20
-46.4358670548
 30
0.0
 10
-30.7104882072
 20
-46.4333056144
 30
0.0
 10
-30.994617762
 20
-46.4308305614
 30
0.0
 10
-31.2602955168
 20
-46.4283461444
 30
0.0
 10
-31.5160514542
 20
-46.425747995
 30
0.0
 10
-31.7682700826
 20
-46.4229625081
 30
0.0
 10
-32.0197224846
 20
-46.4198725628
 30
0.0
 10
-32.2706946053
 20
-46.4166809979
 30
0.0
 10
-32.5214120929
 20
-46.4123776879
 30
0.0
 10
-32.7728801024
 20
-46.407014736
 30
0.0
 10
-33.0257333378
 20
-46.4009745799
 30
0.0
 10
-33.2794879616
 20
-46.394504822
 30
0.0
 10
-33.532638514
 20
-46.3878528209
 30
0.0
 10
-33.7010098356
 20
-46.3833877212
 30
0.0
 10
-33.7847161015
 20
-46.3811720044
 30
0.0
 11
-9.7505758836
 21
-46.4645001229
 31
0.0
 11
-11.6464381237
 21
-46.4626477246
 31
0.0
 11
-13.3864988331
 21
-46.459265795
 31
0.0
 11
-14.9861215493
 21
-46.4560827882
 31
0.0
 11
-16.4583437524
 21
-46.4537970345
 31
0.0
 11
-17.8147676727
 21
-46.4526933134
 31
0.0
 11
-19.0659646836
 21
-46.4522769548
 31
0.0
 11
-20.2210462275
 21
-46.4518611875
 31
0.0
 11
-21.2880776326
 21
-46.4510389138
 31
0.0
 11
-22.2741355802
 21
-46.4499916206
 31
0.0
 11
-23.1857986357
 21
-46.4490997277
 31
0.0
 11
-24.0291076712
 21
-46.4485768602
 31
0.0
 11
-24.8095801682
 21
-46.4485101405
 31
0.0
 11
-25.532345168
 21
-46.4486639909
 31
0.0
 11
-26.2019587818
 21
-46.4487584577
 31
0.0
 11
-26.822518573
 21
-46.4486470272
 31
0.0
 11
-27.3977744315
 21
-46.4482559492
 31
0.0
 11
-27.9311765621
 21
-46.4475617777
 31
0.0
 11
-28.425768964
 21
-46.4465697303
 31
0.0
 11
-28.8844106335
 21
-46.4451398342
 31
0.0
 11
-29.3099728332
 21
-46.4432535819
 31
0.0
 11
-29.7054934273
 21
-46.4410014677
 31
0.0
 11
-30.0727242789
 21
-46.4384693753
 31
0.0
 11
-30.4111381705
 21
-46.4357769072
 31
0.0
 11
-30.7194580843
 21
-46.4332081516
 31
0.0
 11
-31.000866785
 21
-46.4307450633
 31
0.0
 11
-31.2635260833
 21
-46.4282799224
 31
0.0
 11
-31.5164906763
 21
-46.4257061138
 31
0.0
 11
-31.768133956
 21
-46.4229118613
 31
0.0
 11
-32.0201806544
 21
-46.4198488866
 31
0.0
 11
-32.2708483914
 21
-46.4164930845
 31
0.0
 11
-32.5210325484
 21
-46.4122110373
 31
0.0
 11
-32.7723261887
 21
-46.4069196299
 31
0.0
 11
-33.0252590628
 21
-46.4009183105
 31
0.0
 11
-33.2795995406
 21
-46.3944688604
 31
0.0
 11
-33.5335972547
 21
-46.387817304
 31
0.0
 11
-33.7847161015
 21
-46.3811720044
 31
0.0
  0
SPLINE
  5
365
100
AcDbEntity
  8
RACCORDO
100
AcDbSpline
 62
253
  6
CONTINUOUS
 70
0
 71
3
 72
55
 73
51
 74
49
 42
0.0000001
 43
0.0000001
 44
0.0000000001
 12
13.0513767261
 22
-0.0011570568
 32
0.0
 13
13.0512672072
 23
-0.0534796387
 33
0.0
 40
0.0
 40
0.0
 40
0.0
 40
0.0
 40
0.0740880259
 40
0.1421288421
 40
0.2046584697
 40
0.2621805761
 40
0.3151488838
 40
0.3639676525
 40
0.4089729694
 40
0.4504840914
 40
0.4887989693
 40
0.5241838894
 40
0.5568784815
 40
0.5871007984
 40
0.6150492745
 40
0.6409049718
 40
0.6648324691
 40
0.6869851993
 40
0.7074850604
 40
0.7264314544
 40
0.7439446214
 40
0.7601700047
 40
0.775198837
 40
0.7890194326
 40
0.8016025449
 40
0.8131165026
 40
0.8239151632
 40
0.8343756997
 40
0.8448192454
 40
0.8553022564
 40
0.865787471
 40
0.8762374712
 40
0.8866734254
 40
0.8972692424
 40
0.9079044648
 40
0.9178329224
 40
0.9265556525
 40
0.9341439916
 40
0.9407926227
 40
0.946740331
 40
0.9522460137
 40
0.957574351
 40
0.9628866467
 40
0.9682129625
 40
0.9735421765
 40
0.9788694615
 40
0.9842109705
 40
0.9895746722
 40
0.9948908601
 40
1.0
 40
1.0
 40
1.0
 40
1.0
 10
31.2494241584
 20
-24.2133162133
 30
0.0
 10
31.5717410706
 20
-24.213344788
 30
0.0
 10
32.1900667559
 20
-24.2134382883
 30
0.0
 10
33.0804249837
 20
-24.2137087078
 30
0.0
 10
33.8987138336
 20
-24.2140328546
 30
0.0
 10
34.6514303574
 20
-24.2143360954
 30
0.0
 10
35.3444983757
 20
-24.2145670381
 30
0.0
 10
35.9831126347
 20
-24.2147254261
 30
0.0
 10
36.5718828905
 20
-24.214815719
 30
0.0
 10
37.1149564059
 20
-24.214855369
 30
0.0
 10
37.6161767807
 20
-24.2148724574
 30
0.0
 10
38.0790412048
 20
-24.2148827895
 30
0.0
 10
38.5066992745
 20
-24.214896023
 30
0.0
 10
38.9020053999
 20
-24.2149153544
 30
0.0
 10
39.2675591936
 20
-24.2149421045
 30
0.0
 10
39.6057276321
 20
-24.2149775723
 30
0.0
 10
39.9186819154
 20
-24.2150211737
 30
0.0
 10
40.2083358513
 20
-24.215073913
 30
0.0
 10
40.4763196991
 20
-24.2151393578
 30
0.0
 10
40.7241193128
 20
-24.2152184544
 30
0.0
 10
40.9533229809
 20
-24.2153110136
 30
0.0
 10
41.1654834499
 20
-24.2154161051
 30
0.0
 10
41.361579531
 20
-24.2155321779
 30
0.0
 10
41.5418300525
 20
-24.2156568771
 30
0.0
 10
41.7067892476
 20
-24.2157876615
 30
0.0
 10
41.8586016297
 20
-24.215923293
 30
0.0
 10
42.0011798229
 20
-24.2160650448
 30
0.0
 10
42.1391012208
 20
-24.2162164176
 30
0.0
 10
42.2756493818
 20
-24.2163811633
 30
0.0
 10
42.4123048837
 20
-24.2165620122
 30
0.0
 10
42.548988441
 20
-24.2167601057
 30
0.0
 10
42.6854672524
 20
-24.2169762601
 30
0.0
 10
42.822427202
 20
-24.2172127647
 30
0.0
 10
42.9601929145
 20
-24.2174716437
 30
0.0
 10
43.0957507441
 20
-24.2177485695
 30
0.0
 10
43.2231597565
 20
-24.2180306897
 30
0.0
 10
43.3373134168
 20
-24.218302605
 30
0.0
 10
43.4371983287
 20
-24.218555987
 30
0.0
 10
43.5250106301
 20
-24.2187906872
 30
0.0
 10
43.6037624272
 20
-24.2190105494
 30
0.0
 10
43.6767703406
 20
-24.219222119
 30
0.0
 10
43.7470139081
 20
-24.2194327833
 30
0.0
 10
43.8164771286
 20
-24.2196483134
 30
0.0
 10
43.8859441359
 20
-24.2198725489
 30
0.0
 10
43.9554763204
 20
-24.2201069178
 30
0.0
 10
44.0250745622
 20
-24.2203530999
 30
0.0
 10
44.0948227866
 20
-24.220614625
 30
0.0
 10
44.1645226749
 20
-24.2208911777
 30
0.0
 10
44.2332116175
 20
-24.2211738352
 30
0.0
 10
44.2785661896
 20
-24.2213614896
 30
0.0
 10
44.3007931062
 20
-24.2214525679
 30
0.0
 11
31.2494241584
 21
-24.2133162133
 31
0.0
 11
32.2163748869
 21
-24.2134678896
 31
0.0
 11
33.1044011767
 21
-24.2137302439
 31
0.0
 11
33.9204988473
 21
-24.2140424384
 31
0.0
 11
34.6712414731
 21
-24.2143350033
 31
0.0
 11
35.3625507769
 21
-24.2145628367
 31
0.0
 11
35.9997029014
 21
-24.2147190801
 31
0.0
 11
36.5870842428
 21
-24.2148098667
 31
0.0
 11
37.1288615345
 21
-24.2148527294
 31
0.0
 11
37.6289234421
 21
-24.2148718719
 31
0.0
 11
38.0907453658
 21
-24.2148837406
 31
0.0
 11
38.5174548064
 21
-24.2148976832
 31
0.0
 11
38.911897651
 21
-24.2149174964
 31
0.0
 11
39.2766637414
 21
-24.2149447732
 31
0.0
 11
39.614116187
 21
-24.2149804641
 31
0.0
 11
39.9264029659
 21
-24.2150245604
 31
0.0
 11
40.2155265901
 21
-24.2150783324
 31
0.0
 11
40.4830779924
 21
-24.2151444836
 31
0.0
 11
40.7303545068
 21
-24.2152240697
 31
0.0
 11
40.9589254283
 21
-24.2153168952
 31
0.0
 11
41.1706889942
 21
-24.2154222227
 31
0.0
 11
41.3668359114
 21
-24.2155386916
 31
0.0
 11
41.5472136694
 21
-24.2156637808
 31
0.0
 11
41.7114405574
 21
-24.2157942245
 31
0.0
 11
41.8617134962
 21
-24.2159286784
 31
0.0
 11
42.0026508146
 21
-24.2160689729
 31
0.0
 11
42.1391751354
 21
-24.2162189803
 31
0.0
 11
42.2754776868
 21
-24.2163836066
 31
0.0
 11
42.412295293
 21
-24.2165648699
 31
0.0
 11
42.5491416354
 21
-24.2167634007
 31
0.0
 11
42.6855283529
 21
-24.2169796101
 31
0.0
 11
42.8217317207
 21
-24.217214995
 31
0.0
 11
42.9600214759
 21
-24.2174750884
 31
0.0
 11
43.0988254802
 21
-24.2177589528
 31
0.0
 11
43.2284052028
 21
-24.218046161
 31
0.0
 11
43.3422485165
 21
-24.2183175004
 31
0.0
 11
43.4412864705
 21
-24.2185687507
 31
0.0
 11
43.5280599497
 21
-24.2188006554
 31
0.0
 11
43.6056854301
 21
-24.2190173433
 31
0.0
 11
43.6775418678
 21
-24.2192255861
 31
0.0
 11
43.7470836922
 21
-24.2194341968
 31
0.0
 11
43.8164161307
 21
-24.2196495683
 31
0.0
 11
43.8859315218
 21
-24.2198741612
 31
0.0
 11
43.9554847057
 21
-24.2201088769
 31
0.0
 11
44.0250126728
 21
-24.2203553386
 31
0.0
 11
44.0947262292
 21
-24.220616793
 31
0.0
 11
44.1647293731
 21
-24.2208937237
 31
0.0
 11
44.2341123626
 21
-24.2211778067
 31
0.0
 11
44.3007931062
 21
-24.2214525679
 31
0.0
  0
SPLINE
  5
366
100
AcDbEntity
  8
RACCORDO
100
AcDbSpline
 62
253
  6
CONTINUOUS
 70
0
 71
3
 72
17
 73
13
 74
11
 42
0.0000001
 43
0.0000001
 44
0.0000000001
 12
0.0004750278
 22
1.6006660192
 32
0.0
 13
-0.0172077792
 23
1.6005735918
 33
0.0
 40
0.0
 40
0.0
 40
0.0
 40
0.0
 40
0.1138911237
 40
0.2397314973
 40
0.3718202143
 40
0.5041724777
 40
0.6307915497
 40
0.7459404579
 40
0.8444019334
 40
0.9217148028
 40
0.9743761302
 40
1.0
 40
1.0
 40
1.0
 40
1.0
 10
44.3007931062
 20
-24.2214525679
 30
0.0
 10
44.3008111401
 20
-24.1606853507
 30
0.0
 10
44.2997685388
 20
-24.0327771284
 30
0.0
 10
44.3002984166
 20
-23.834389675
 30
0.0
 10
44.3001629945
 20
-23.6261531934
 30
0.0
 10
44.3001656785
 20
-23.4175009414
 30
0.0
 10
44.3000803431
 20
-23.2178871197
 30
0.0
 10
44.2999761778
 20
-23.0363558556
 30
0.0
 10
44.2998263673
 20
-22.8811323739
 30
0.0
 10
44.2996930369
 20
-22.7592490847
 30
0.0
 10
44.2994711766
 20
-22.6762297088
 30
0.0
 10
44.2993992431
 20
-22.6344595752
 30
0.0
 10
44.2992522664
 20
-22.6207886121
 30
0.0
 11
44.3007931062
 21
-24.2214525679
 31
0.0
 11
44.3001329282
 21
-24.0391521036
 31
0.0
 11
44.3001807138
 21
-23.8377236906
 31
0.0
 11
44.3001864324
 21
-23.6262937606
 31
0.0
 11
44.3001498249
 21
-23.4144419837
 31
0.0
 11
44.30007255
 21
-23.2117671437
 31
0.0
 11
44.2999581089
 21
-23.0274522266
 31
0.0
 11
44.2998116868
 21
-22.8698483496
 31
0.0
 11
44.2996399179
 21
-22.7460963805
 31
0.0
 11
44.299450585
 21
-22.6618033921
 31
0.0
 11
44.2992522664
 21
-22.6207886121
 31
0.0
  0
SPLINE
  5
367
100
AcDbEntity
  8
RACCORDO
100
AcDbSpline
 62
253
  6
CONTINUOUS
 70
0
 71
3
 72
61
 73
57
 74
55
 42
0.0000001
 43
0.0000001
 44
0.0000000001
 12
3.1773953707
 22
-0.0238243905
 32
0.0
 13
-0.0007096242
 23
3.1774846089
 33
0.0
 40
0.0
 40
0.0
 40
0.0
 40
0.0
 40
0.0494070594
 40
0.093574168
 40
0.133448097
 40
0.1696625588
 40
0.2025771519
 40
0.2325017596
 40
0.2597993913
 40
0.2846957102
 40
0.3074131094
 40
0.3282026125
 40
0.3472843219
 40
0.3648274572
 40
0.3810115706
 40
0.3968785104
 40
0.4133184421
 40
0.4297557885
 40
0.445870227
 40
0.4618223183
 40
0.4780102539
 40
0.4948823757
 40
0.512508523
 40
0.5304593009
 40
0.548280328
 40
0.5658343538
 40
0.5830502011
 40
0.5995954198
 40
0.6146921772
 40
0.6279495277
 40
0.6397053507
 40
0.6503643486
 40
0.6604441551
 40
0.6704052611
 40
0.6804420691
 40
0.6905174808
 40
0.7006221462
 40
0.7106643386
 40
0.7205507259
 40
0.7303326547
 40
0.7399737664
 40
0.7495620945
 40
0.759492289
 40
0.7702547456
 40
0.7823441593
 40
0.7962955689
 40
0.8125205633
 40
0.8308695856
 40
0.8505660692
 40
0.8707204125
 40
0.8910954044
 40
0.9119496348
 40
0.9334085165
 40
0.9552532811
 40
0.9773885494
 40
1.0
 40
1.0
 40
1.0
 40
1.0
 10
44.3007931214
 20
-24.2214500486
 30
0.0
 10
44.3531217086
 20
-24.2218424129
 30
0.0
 10
44.4523049619
 20
-24.2186785644
 30
0.0
 10
44.592957518
 20
-24.2036713375
 30
0.0
 10
44.7185145901
 20
-24.1817502166
 30
0.0
 10
44.8309047822
 20
-24.1550662632
 30
0.0
 10
44.9315534726
 20
-24.1252898876
 30
0.0
 10
45.0216849856
 20
-24.0937085299
 30
0.0
 10
45.1024306058
 20
-24.0613105762
 30
0.0
 10
45.1748333518
 20
-24.0288100586
 30
0.0
 10
45.239809997
 20
-23.9967290761
 30
0.0
 10
45.2982438864
 20
-23.9653995272
 30
0.0
 10
45.3509378424
 20
-23.9350285814
 30
0.0
 10
45.3985998425
 20
-23.9057435924
 30
0.0
 10
45.4426369122
 20
-23.8770990531
 30
0.0
 10
45.4850004724
 20
-23.8480532904
 30
0.0
 10
45.526866303
 20
-23.8178333934
 30
0.0
 10
45.5681829197
 20
-23.7864314889
 30
0.0
 10
45.6083034172
 20
-23.7543360995
 30
0.0
 10
45.6474165311
 20
-23.7214293756
 30
0.0
 10
45.686296121
 20
-23.6870232288
 30
0.0
 10
45.725568607
 20
-23.650411515
 30
0.0
 10
45.7651585611
 20
-23.6114312128
 30
0.0
 10
45.8043435543
 20
-23.5706383941
 30
0.0
 10
45.8423576778
 20
-23.5288561928
 30
0.0
 10
45.878743432
 20
-23.486671696
 30
0.0
 10
45.913163285
 20
-23.4446008043
 30
0.0
 10
45.9448998314
 20
-23.403719722
 30
0.0
 10
45.9731215556
 20
-23.365437624
 30
0.0
 10
45.9975383063
 20
-23.3306684614
 30
0.0
 10
46.0186302251
 20
-23.2993184707
 30
0.0
 10
46.0373288651
 20
-23.270421957
 30
0.0
 10
46.054542769
 20
-23.2428344261
 30
0.0
 10
46.0709777386
 20
-23.2155424105
 30
0.0
 10
46.0869794771
 20
-23.1879995307
 30
0.0
 10
46.1026213287
 20
-23.1600762567
 30
0.0
 10
46.1178250479
 20
-23.1319055875
 30
0.0
 10
46.1325045336
 20
-23.1036837915
 30
0.0
 10
46.1466013225
 20
-23.0755482731
 30
0.0
 10
46.1600747684
 20
-23.0475797383
 30
0.0
 10
46.1729759894
 20
-23.0196901489
 30
0.0
 10
46.1854987231
 20
-22.9914566672
 30
0.0
 10
46.1980257842
 20
-22.9619302633
 30
0.0
 10
46.2110324722
 20
-22.9297349425
 30
0.0
 10
46.2249416916
 20
-22.893317524
 30
0.0
 10
46.240008229
 20
-22.8511586281
 30
0.0
 10
46.2561229489
 20
-22.8023479546
 30
0.0
 10
46.2726430857
 20
-22.747283339
 30
0.0
 10
46.2885664912
 20
-22.6877219323
 30
0.0
 10
46.303076195
 20
-22.625593793
 30
0.0
 10
46.3157831067
 20
-22.5618203053
 30
0.0
 10
46.3265361859
 20
-22.4962864765
 30
0.0
 10
46.3351670741
 20
-22.4288686921
 30
0.0
 10
46.3414942388
 20
-22.3598323337
 30
0.0
 10
46.345373965
 20
-22.2893929808
 30
0.0
 10
46.3462315127
 20
-22.2419938899
 30
0.0
 10
46.3462261641
 20
-22.2180447111
 30
0.0
 11
44.3007931214
 21
-24.2214500486
 31
0.0
 11
44.4577036438
 21
-24.2164497603
 31
0.0
 11
44.597252653
 21
-24.201567655
 31
0.0
 11
44.7220635031
 21
-24.1797768931
 31
0.0
 11
44.834023154
 21
-24.1531996828
 31
0.0
 11
44.9343129717
 21
-24.1235331446
 31
0.0
 11
45.0240510914
 21
-24.0920971181
 31
0.0
 11
45.104552369
 21
-24.0598017397
 31
0.0
 11
45.1767231288
 21
-24.0274072155
 31
0.0
 11
45.2414481126
 21
-23.9954504719
 31
0.0
 11
45.2996666654
 21
-23.9642366478
 31
0.0
 11
45.3521983353
 21
-23.9339605255
 31
0.0
 11
45.3996932926
 21
-23.9047797788
 31
0.0
 11
45.4428016
 21
-23.8767408582
 31
0.0
 11
45.484384944
 21
-23.848233049
 31
0.0
 11
45.5267406986
 21
-23.8176592014
 31
0.0
 11
45.5683209583
 21
-23.786052336
 31
0.0
 11
45.6083032679
 21
-23.7540648195
 31
0.0
 11
45.6470884308
 21
-23.721431456
 31
0.0
 11
45.685607151
 21
-23.6873423862
 31
0.0
 11
45.7248194322
 21
-23.6507838506
 31
0.0
 11
45.7647301578
 21
-23.6114913945
 31
0.0
 11
45.804249923
 21
-23.5703628361
 31
0.0
 11
45.8423594713
 21
-23.5284800136
 31
0.0
 11
45.8787903288
 21
-23.4862433153
 31
0.0
 11
45.913427126
 21
-23.4439027858
 31
0.0
 11
45.9456589112
 21
-23.4023703158
 31
0.0
 11
45.9741184923
 21
-23.3637549583
 31
0.0
 11
45.9983295665
 21
-23.329282623
 31
0.0
 11
46.0191811266
 21
-23.2982902073
 31
0.0
 11
46.0375814973
 21
-23.2698556835
 31
0.0
 11
46.0545368368
 21
-23.242683329
 31
0.0
 11
46.0708652926
 21
-23.2155690539
 31
0.0
 11
46.0868866193
 21
-23.1879936261
 31
0.0
 11
46.1025327958
 21
-23.1600629399
 31
0.0
 11
46.1177840597
 21
-23.131808996
 31
0.0
 11
46.1325083086
 21
-23.1035004251
 31
0.0
 11
46.1465774624
 21
-23.0754132655
 31
0.0
 11
46.1600655987
 21
-23.0474104714
 31
0.0
 11
46.1729257905
 21
-23.0196060268
 31
0.0
 11
46.1852776727
 21
-22.9917554466
 31
0.0
 11
46.1976007958
 21
-22.9627083294
 31
0.0
 11
46.2104105508
 21
-22.93100057
 31
0.0
 11
46.2241175173
 21
-22.8951153524
 31
0.0
 11
46.2390404896
 21
-22.8533722283
 31
0.0
 11
46.2552067911
 21
-22.8044178125
 31
0.0
 11
46.2719603035
 21
-22.7485729772
 31
0.0
 11
46.2881231069
 21
-22.6881107542
 31
0.0
 11
46.3026831465
 21
-22.6257477694
 31
0.0
 11
46.3153266961
 21
-22.562253149
 31
0.0
 11
46.3260521037
 21
-22.4968629122
 31
0.0
 11
46.3347128035
 21
-22.4292299095
 31
0.0
 11
46.3410492138
 21
-22.3601083278
 31
0.0
 11
46.3449181141
 21
-22.289880341
 31
0.0
 11
46.3462261641
 21
-22.2180447111
 31
0.0
  0
SPLINE
  5
368
100
AcDbEntity
  8
RACCORDO
100
AcDbSpline
 62
253
  6
CONTINUOUS
 70
0
 71
3
 72
17
 73
13
 74
11
 42
0.0000001
 43
0.0000001
 44
0.0000000001
 12
-1.6430705021
 22
-0.0004543097
 32
0.0
 13
-1.643026838
 23
-0.0119871091
 33
0.0
 40
0.0
 40
0.0
 40
0.0
 40
0.0
 40
0.1100775487
 40
0.2336652096
 40
0.36487683
 40
0.4974615363
 40
0.6251030449
 40
0.7417205666
 40
0.8417584927
 40
0.9204511794
 40
0.9740494374
 40
1.0
 40
1.0
 40
1.0
 40
1.0
 10
46.3462261641
 20
-22.2180447111
 30
0.0
 10
46.285937773
 20
-22.2180613809
 30
0.0
 10
46.1579650935
 20
-22.2166465029
 30
0.0
 10
45.9581240913
 20
-22.2173132926
 30
0.0
 10
45.745958139
 20
-22.2171489501
 30
0.0
 10
45.5315713537
 20
-22.2172135423
 30
0.0
 10
45.325177766
 20
-22.2172241145
 30
0.0
 10
45.1366097014
 20
-22.2171599609
 30
0.0
 10
44.974850408
 20
-22.217279388
 30
0.0
 10
44.8476062438
 20
-22.2167843441
 30
0.0
 10
44.7609394457
 20
-22.2170724424
 30
0.0
 10
44.7173705932
 20
-22.2168530373
 30
0.0
 10
44.703158103
 20
-22.216956728
 30
0.0
 11
46.3462261641
 21
-22.2180447111
 31
0.0
 11
46.1653632614
 21
-22.2171370723
 31
0.0
 11
45.9623000154
 21
-22.2171643839
 31
0.0
 11
45.7467100656
 21
-22.2171879896
 31
0.0
 11
45.5288640378
 21
-22.2172051062
 31
0.0
 11
45.3191400323
 21
-22.2172101239
 31
0.0
 11
45.1275292157
 21
-22.2171939499
 31
0.0
 11
44.963159851
 21
-22.2171460696
 31
0.0
 11
44.8338624188
 21
-22.2169158388
 31
0.0
 11
44.7457967085
 21
-22.2169574248
 31
0.0
 11
44.703158103
 21
-22.216956728
 31
0.0
  0
SPLINE
  5
369
100
AcDbEntity
  8
RACCORDO
100
AcDbSpline
 62
253
  6
CONTINUOUS
 70
0
 71
3
 72
11
 73
7
 74
5
 42
0.0000001
 43
0.0000001
 44
0.0000000001
 12
-0.0017701847
 22
10.5010831054
 32
0.0
 13
0.0021746896
 23
10.5010830294
 33
0.0
 40
0.0
 40
0.0
 40
0.0
 40
0.0
 40
0.218157489
 40
0.4564509849
 40
0.7158750068
 40
1.0
 40
1.0
 40
1.0
 40
1.0
 10
46.3462257036
 20
-22.2180447191
 30
0.0
 10
46.3460969773
 20
-21.4544147452
 30
0.0
 10
46.3461959183
 20
-19.8566714603
 30
0.0
 10
46.3451045049
 20
-17.350850541
 30
0.0
 10
46.3428028167
 20
-14.6141205068
 30
0.0
 10
46.3417691951
 20
-12.7115026268
 30
0.0
 10
46.3419751563
 20
-11.7169625789
 30
0.0
 11
46.3462257036
 21
-22.2180447191
 31
0.0
 11
46.3460099887
 21
-19.927154775
 31
0.0
 11
46.3449747898
 21
-17.4248151492
 31
0.0
 11
46.3430045909
 21
-14.7005826091
 31
0.0
 11
46.3419751563
 21
-11.7169625789
 31
0.0
  0
SPLINE
  5
36A
100
AcDbEntity
  8
RACCORDO
100
AcDbSpline
 62
253
  6
CONTINUOUS
 70
0
 71
3
 72
11
 73
7
 74
5
 42
0.0000001
 43
0.0000001
 44
0.0000000001
 12
-0.000105172
 22
10.5011272341
 32
0.0
 13
0.0017633557
 23
10.5011270865
 33
0.0
 40
0.0
 40
0.0
 40
0.0
 40
0.0
 40
0.2889949678
 40
0.5497327191
 40
0.7859338672
 40
1.0
 40
1.0
 40
1.0
 40
1.0
 10
46.3419745668
 20
11.7834757051
 30
0.0
 10
46.3419644354
 20
12.7950666808
 30
0.0
 10
46.3429676286
 20
14.7193376906
 30
0.0
 10
46.3451753333
 20
17.4704005877
 30
0.0
 10
46.3465200463
 20
19.9591850991
 30
0.0
 10
46.3465492569
 20
21.5352897979
 30
0.0
 10
46.3466750818
 20
22.2846016863
 30
0.0
 11
46.3419745668
 21
11.7834757051
 31
0.0
 11
46.3431687108
 21
14.8182483973
 31
0.0
 11
46.3451187054
 21
17.5562880044
 31
0.0
 11
46.346335606
 21
20.036666015
 31
0.0
 11
46.3466750818
 21
22.2846016863
 31
0.0
  0
SPLINE
  5
36B
100
AcDbEntity
  8
RACCORDO
100
AcDbSpline
 62
253
  6
CONTINUOUS
 70
0
 71
3
 72
17
 73
13
 74
11
 42
0.0000001
 43
0.0000001
 44
0.0000000001
 12
-1.6435075975
 22
0.000143657
 32
0.0
 13
-1.6434561953
 23
-0.0129991387
 33
0.0
 40
0.0
 40
0.0
 40
0.0
 40
0.0
 40
0.1100366728
 40
0.2335999792
 40
0.364802011
 40
0.4973890923
 40
0.6250415292
 40
0.741674836
 40
0.841729749
 40
0.9204372083
 40
0.9740456784
 40
1.0
 40
1.0
 40
1.0
 40
1.0
 10
46.3466750818
 20
22.2846016863
 30
0.0
 10
46.2863930459
 20
22.2846069555
 30
0.0
 10
46.1584232838
 20
22.2829787363
 30
0.0
 10
45.9585695738
 20
22.2837682257
 30
0.0
 10
45.7463646408
 20
22.2835569643
 30
0.0
 10
45.5319187489
 20
22.2835960267
 30
0.0
 10
45.3254543538
 20
22.2835275233
 30
0.0
 10
45.1368121735
 20
22.2834540283
 30
0.0
 10
44.9749839277
 20
22.2833422121
 30
0.0
 10
44.8476827192
 20
22.2832438411
 30
0.0
 10
44.7609770585
 20
22.2830749309
 30
0.0
 10
44.7173893284
 20
22.283023451
 30
0.0
 10
44.7031710648
 20
22.2829109897
 30
0.0
 11
46.3466750818
 21
22.2846016863
 31
0.0
 11
46.1658320519
 21
22.2835464708
 31
0.0
 11
45.9627548228
 21
22.2835893126
 31
0.0
 11
45.7471232861
 21
22.2835998226
 31
0.0
 11
45.5292154111
 21
22.2835774997
 31
0.0
 11
45.3194176673
 21
22.2835234079
 31
0.0
 11
45.1277299589
 21
22.2834401256
 31
0.0
 11
44.9632889844
 21
22.2833316222
 31
0.0
 11
44.8339327404
 21
22.2832030697
 31
0.0
 11
44.7458269274
 21
22.2830605953
 31
0.0
 11
44.7031710648
 21
22.2829109897
 31
0.0
  0
SPLINE
  5
36C
100
AcDbEntity
  8
RACCORDO
100
AcDbSpline
 62
253
  6
CONTINUOUS
 70
0
 71
3
 72
68
 73
64
 74
62
 42
0.0000001
 43
0.0000001
 44
0.0000000001
 12
0.0004151168
 22
3.177546295
 32
0.0
 13
-3.1774536306
 23
-0.0242704561
 33
0.0
 40
0.0
 40
0.0
 40
0.0
 40
0.0
 40
0.0218264033
 40
0.0417202321
 40
0.0597818225
 40
0.0761271259
 40
0.0908304523
 40
0.1039277572
 40
0.1154432048
 40
0.1256904841
 40
0.1351264334
 40
0.1442023562
 40
0.1532964139
 40
0.1625743738
 40
0.1718999441
 40
0.1810572224
 40
0.1905567914
 40
0.2008864046
 40
0.2120027454
 40
0.2239774951
 40
0.2368846666
 40
0.2500657243
 40
0.2625148532
 40
0.2737539363
 40
0.2839585457
 40
0.2934657737
 40
0.3025863448
 40
0.3115861967
 40
0.3206000081
 40
0.3296949081
 40
0.3386315329
 40
0.3474694626
 40
0.3566025958
 40
0.3664627363
 40
0.3775304629
 40
0.3902264047
 40
0.4047946449
 40
0.4211938426
 40
0.4386595589
 40
0.4566871682
 40
0.4749985813
 40
0.4935610413
 40
0.5122412718
 40
0.5309529649
 40
0.5498362442
 40
0.5688101779
 40
0.5877426301
 40
0.6066765561
 40
0.625703852
 40
0.6448519169
 40
0.6640910744
 40
0.6833682463
 40
0.7025262112
 40
0.7218698567
 40
0.7422167078
 40
0.7645006445
 40
0.7893421921
 40
0.8167016522
 40
0.8466888277
 40
0.8795567309
 40
0.9156075637
 40
0.9554040191
 40
1.0
 40
1.0
 40
1.0
 40
1.0
 10
46.3466748417
 20
22.2846016817
 30
0.0
 10
46.3466778618
 20
22.3077198174
 30
0.0
 10
46.3458888207
 20
22.3519135902
 30
0.0
 10
46.3425755576
 20
22.4151574395
 30
0.0
 10
46.3377617753
 20
22.4724787536
 30
0.0
 10
46.3319356798
 20
22.5241744283
 30
0.0
 10
46.3255123347
 20
22.570494303
 30
0.0
 10
46.3188554285
 20
22.6116048856
 30
0.0
 10
46.3122211777
 20
22.6479293262
 30
0.0
 10
46.3057038165
 20
22.6803269242
 30
0.0
 10
46.29921219
 20
22.7100896105
 30
0.0
 10
46.2925405627
 20
22.7385591707
 30
0.0
 10
46.2854788879
 20
22.7667619589
 30
0.0
 10
46.2779366874
 20
22.7951137564
 30
0.0
 10
46.2699582907
 20
22.8234155069
 30
0.0
 10
46.2615002735
 20
22.8518225875
 30
0.0
 10
46.2523018991
 20
22.8811154634
 30
0.0
 10
46.2419743593
 20
22.9122245586
 30
0.0
 10
46.2302179998
 20
22.9456161214
 30
0.0
 10
46.2168612602
 20
22.9813314675
 30
0.0
 10
46.2019874411
 20
23.01880595
 30
0.0
 10
46.1861709538
 20
23.0564383287
 30
0.0
 10
46.1702941462
 20
23.0921193735
 30
0.0
 10
46.1550798634
 20
23.1246367489
 30
0.0
 10
46.1406726725
 20
23.1540855608
 30
0.0
 10
46.1268223409
 20
23.1813042183
 30
0.0
 10
46.113168091
 20
23.2071871491
 30
0.0
 10
46.0993997095
 20
23.2324156935
 30
0.0
 10
46.0852917989
 20
23.257424682
 30
0.0
 10
46.0708774419
 20
23.2821808922
 30
0.0
 10
46.0562031123
 20
23.3065668204
 30
0.0
 10
46.0411515975
 20
23.3307694454
 30
0.0
 10
46.0252169157
 20
23.3555710763
 30
0.0
 10
46.0075962691
 20
23.3820925025
 30
0.0
 10
45.9874072665
 20
23.4114329452
 30
0.0
 10
45.9637979011
 20
23.4444662019
 30
0.0
 10
45.9361354829
 20
23.4815331976
 30
0.0
 10
45.9044775841
 20
23.5219068583
 30
0.0
 10
45.8693753016
 20
23.5642105666
 30
0.0
 10
45.8318118014
 20
23.6070769759
 30
0.0
 10
45.7922821671
 20
23.6497361117
 30
0.0
 10
45.7510710065
 20
23.6917477285
 30
0.0
 10
45.7083427479
 20
23.7328300181
 30
0.0
 10
45.6641816479
 20
23.7728752614
 30
0.0
 10
45.6186581075
 20
23.8118443268
 30
0.0
 10
45.5718704739
 20
23.8496594147
 30
0.0
 10
45.5239801722
 20
23.8861569249
 30
0.0
 10
45.4750080594
 20
23.9212868343
 30
0.0
 10
45.4248444044
 20
23.955103795
 30
0.0
 10
45.373434786
 20
23.9876042141
 30
0.0
 10
45.320858941
 20
24.0187053856
 30
0.0
 10
45.2673781091
 20
24.0482446837
 30
0.0
 10
45.212959033
 20
24.0762598856
 30
0.0
 10
45.1567153705
 20
24.1031480585
 30
0.0
 10
45.0966447936
 20
24.1296403567
 30
0.0
 10
45.030324418
 20
24.1563043827
 30
0.0
 10
44.9560721622
 20
24.1830230774
 30
0.0
 10
44.8729949883
 20
24.2091181105
 30
0.0
 10
44.7806026297
 20
24.2336310821
 30
0.0
 10
44.678097737
 20
24.2554729664
 30
0.0
 10
44.5642704713
 20
24.2732905272
 30
0.0
 10
44.4371950476
 20
24.2853995563
 30
0.0
 10
44.3477518157
 20
24.2878773253
 30
0.0
 10
44.3005179286
 20
24.287516537
 30
0.0
 11
46.3466748417
 21
22.2846016817
 31
0.0
 11
46.3454353739
 21
22.3539450128
 31
0.0
 11
46.3421275406
 21
22.4170719699
 31
0.0
 11
46.3373253523
 21
22.4742622478
 31
0.0
 11
46.3315096792
 21
22.5258735788
 31
0.0
 11
46.3250934594
 21
22.5721514064
 31
0.0
 11
46.3184412776
 21
22.6132336111
 31
0.0
 11
46.3118665728
 21
22.6492289564
 31
0.0
 11
46.3054445711
 21
22.6811505783
 31
0.0
 11
46.299054209
 21
22.7104448357
 31
0.0
 11
46.2924742171
 21
22.7385233177
 31
0.0
 11
46.2854585432
 21
22.7665555274
 31
0.0
 11
46.2778798172
 21
22.7950458933
 31
0.0
 11
46.2698399853
 21
22.8235667997
 31
0.0
 11
46.2615359934
 21
22.8514544041
 31
0.0
 11
46.2524906667
 21
22.8802525923
 31
0.0
 11
46.2421471818
 21
22.9114030355
 31
0.0
 11
46.2304168385
 21
22.9447210686
 31
0.0
 11
46.2170935193
 21
22.9803625635
 31
0.0
 11
46.2019689795
 21
23.018485071
 31
0.0
 11
46.1857335928
 21
23.0570937901
 31
0.0
 11
46.1696535419
 21
23.0932357645
 31
0.0
 11
46.1545177623
 21
23.1255824124
 31
0.0
 11
46.1402693978
 21
23.1547098028
 31
0.0
 11
46.1265693953
 21
23.1816343889
 31
0.0
 11
46.1130478627
 21
23.2072677394
 31
0.0
 11
46.0993483153
 21
23.2323702562
 31
0.0
 11
46.0852777021
 21
23.2573176156
 31
0.0
 11
46.0707326974
 21
23.2822900397
 31
0.0
 11
46.0560897147
 21
23.3066199905
 31
0.0
 11
46.0412594797
 21
23.3304677397
 31
0.0
 11
46.0255733649
 21
23.3548841598
 31
0.0
 11
46.008237797
 21
23.3809823009
 31
0.0
 11
45.9883051049
 21
23.4099562729
 31
0.0
 11
45.9648469228
 21
23.442776786
 31
0.0
 11
45.9371576904
 21
23.4798737801
 31
0.0
 11
45.9049936339
 21
23.5208718689
 31
0.0
 11
45.8695688624
 21
23.563593376
 31
0.0
 11
45.8318143855
 21
23.6066747659
 31
0.0
 11
45.7922645974
 21
23.6493520522
 31
0.0
 11
45.7509566212
 21
23.6914549546
 31
0.0
 11
45.7081697885
 21
23.7325958804
 31
0.0
 11
45.6641299386
 21
23.772541578
 31
0.0
 11
45.6185508664
 21
23.8115652574
 31
0.0
 11
45.5716590275
 21
23.8494612495
 31
0.0
 11
45.5238089046
 21
23.8859227391
 31
0.0
 11
45.4749220836
 21
23.9209900552
 31
0.0
 11
45.4247889666
 21
23.9547849658
 31
0.0
 11
45.3733602417
 21
23.9872974549
 31
0.0
 11
45.3207443098
 21
24.0184237429
 31
0.0
 11
45.2671267806
 21
24.0480417469
 31
0.0
 11
45.2130015546
 21
24.0759032723
 31
0.0
 11
45.1575464986
 21
24.1024122048
 31
0.0
 11
45.0983898441
 21
24.1284987654
 31
0.0
 11
45.0326913772
 21
24.1549093403
 31
0.0
 11
44.958417409
 21
24.1816327089
 31
0.0
 11
44.8754772106
 21
24.2076861768
 31
0.0
 11
44.783377682
 21
24.232120372
 31
0.0
 11
44.6812297882
 21
24.2538774864
 31
0.0
 11
44.5680544226
 21
24.271591047
 31
0.0
 11
44.4421690706
 21
24.283581274
 31
0.0
 11
44.3005179286
 21
24.287516537
 31
0.0
  0
SPLINE
  5
36D
100
AcDbEntity
  8
RACCORDO
100
AcDbSpline
 62
253
  6
CONTINUOUS
 70
0
 71
3
 72
17
 73
13
 74
11
 42
0.0000001
 43
0.0000001
 44
0.0000000001
 12
0.0004938714
 22
-1.6006545647
 32
0.0
 13
0.012453691
 23
-1.6006061929
 33
0.0
 40
0.0
 40
0.0
 40
0.0
 40
0.0
 40
0.1138905283
 40
0.239731553
 40
0.3718206729
 40
0.5041731292
 40
0.6307922342
 40
0.7459410729
 40
0.8444024328
 40
0.9217153022
 40
0.9743764444
 40
1.0
 40
1.0
 40
1.0
 40
1.0
 10
44.3005179286
 20
24.287516537
 30
0.0
 10
44.3005366777
 20
24.2267500723
 30
0.0
 10
44.2990890494
 20
24.0988445393
 30
0.0
 10
44.2997573306
 20
23.9004574604
 30
0.0
 10
44.2995944692
 20
23.6922220359
 30
0.0
 10
44.2996587228
 20
23.4835708811
 30
0.0
 10
44.2996713957
 20
23.2839583935
 30
0.0
 10
44.2996120142
 20
23.1024285177
 30
0.0
 10
44.2997271762
 20
22.9472060605
 30
0.0
 10
44.2992498734
 20
22.8253240569
 30
0.0
 10
44.2995306029
 20
22.7423053087
 30
0.0
 10
44.2993177469
 20
22.7005355752
 30
0.0
 10
44.2994241162
 20
22.6868645013
 30
0.0
 11
44.3005179286
 21
24.287516537
 31
0.0
 11
44.2995851845
 21
24.1052195205
 31
0.0
 11
44.2996101317
 21
23.903791502
 31
0.0
 11
44.2996329521
 21
23.6923624403
 31
0.0
 11
44.2996508422
 21
23.4805118678
 31
0.0
 11
44.2996579641
 21
23.2778384098
 31
0.0
 11
44.2996445067
 21
23.0935248873
 31
0.0
 11
44.2995984741
 21
22.9359222614
 31
0.0
 11
44.299377427
 21
22.8121712555
 31
0.0
 11
44.2994191521
 21
22.7278789642
 31
0.0
 11
44.2994241162
 21
22.6868645013
 31
0.0
  0
SPLINE
  5
36E
100
AcDbEntity
  8
RACCORDO
100
AcDbSpline
 62
253
  6
CONTINUOUS
 70
0
 71
3
 72
57
 73
53
 74
51
 42
0.0000001
 43
0.0000001
 44
0.0000000001
 12
-13.0509898773
 22
-0.0540631841
 32
0.0
 13
-13.051101854
 23
-0.0000033717
 33
0.0
 40
0.0
 40
0.0
 40
0.0
 40
0.0
 40
0.0051839157
 40
0.0105567041
 40
0.0159755085
 40
0.0213846038
 40
0.0267719086
 40
0.0321512273
 40
0.0375257649
 40
0.0428929922
 40
0.0482568229
 40
0.0536197947
 40
0.0589835746
 40
0.0643473388
 40
0.069770456
 40
0.075456894
 40
0.0816934721
 40
0.0887258815
 40
0.0965844686
 40
0.1050542132
 40
0.1140089244
 40
0.1235787557
 40
0.1338654033
 40
0.1445395767
 40
0.155142185
 40
0.1656062127
 40
0.1760971851
 40
0.1869309228
 40
0.1984790935
 40
0.2110860433
 40
0.2249316467
 40
0.2399926174
 40
0.2562628995
 40
0.2738319442
 40
0.2928473322
 40
0.3134329252
 40
0.3356913788
 40
0.3597456945
 40
0.3857465742
 40
0.4138518169
 40
0.4442270154
 40
0.4770399615
 40
0.5124597413
 40
0.5507047257
 40
0.592086536
 40
0.6369593425
 40
0.6856741317
 40
0.7385964279
 40
0.7960342795
 40
0.8582448016
 40
0.9259424612
 40
1.0
 40
1.0
 40
1.0
 40
1.0
 10
44.300517935
 20
24.2875198791
 30
0.0
 10
44.277966191
 20
24.2874264595
 30
0.0
 10
44.2320410523
 20
24.2872344045
 30
0.0
 10
44.1625423204
 20
24.2869462178
 30
0.0
 10
44.0920639429
 20
24.2866637238
 30
0.0
 10
44.0215223493
 20
24.2863976303
 30
0.0
 10
43.9511524792
 20
24.2861464102
 30
0.0
 10
43.8809329069
 20
24.2859071823
 30
0.0
 10
43.810800645
 20
24.2856783634
 30
0.0
 10
43.7407357345
 20
24.2854583266
 30
0.0
 10
43.6707211167
 20
24.2852456882
 30
0.0
 10
43.6007214753
 20
24.2850400363
 30
0.0
 10
43.5307221032
 20
24.2848413494
 30
0.0
 10
43.4604610576
 20
24.2846490437
 30
0.0
 10
43.3887963165
 20
24.2844602682
 30
0.0
 10
43.3133345066
 20
24.2842694835
 30
0.0
 10
43.2308716843
 20
24.2840702744
 30
0.0
 10
43.1389592164
 20
24.2838594695
 30
0.0
 10
43.0373316495
 20
24.2836397321
 30
0.0
 10
42.9273413517
 20
24.2834171019
 30
0.0
 10
42.809906496
 20
24.2831959991
 30
0.0
 10
42.6845674267
 20
24.2829780277
 30
0.0
 10
42.5517480442
 20
24.2827661919
 30
0.0
 10
42.4144356791
 20
24.2825663159
 30
0.0
 10
42.2763516214
 20
24.2823831709
 30
0.0
 10
42.1390645345
 20
24.2822171169
 30
0.0
 10
42.0007719333
 20
24.2820646955
 30
0.0
 10
41.8577628994
 20
24.2819214986
 30
0.0
 10
41.7055485771
 20
24.2817838051
 30
0.0
 10
41.5402315249
 20
24.2816500192
 30
0.0
 10
41.3596324944
 20
24.2815212275
 30
0.0
 10
41.1630966146
 20
24.2813997853
 30
0.0
 10
40.9503623892
 20
24.2812880219
 30
0.0
 10
40.7204249885
 20
24.2811875492
 30
0.0
 10
40.4717143945
 20
24.2810995711
 30
0.0
 10
40.2026031442
 20
24.2810246777
 30
0.0
 10
39.9115707044
 20
24.2809624175
 30
0.0
 10
39.5969797758
 20
24.2809102213
 30
0.0
 10
39.2569531651
 20
24.2808680966
 30
0.0
 10
38.8894283913
 20
24.280837934
 30
0.0
 10
38.4922686259
 20
24.2808201498
 30
0.0
 10
38.0632879377
 20
24.2808142869
 30
0.0
 10
37.6000707903
 20
24.2808178863
 30
0.0
 10
37.0995759364
 20
24.2808212494
 30
0.0
 10
36.5579569443
 20
24.2808078276
 30
0.0
 10
35.9707904584
 20
24.2807486753
 30
0.0
 10
35.3334186295
 20
24.2806208929
 30
0.0
 10
34.6413842586
 20
24.2804090692
 30
0.0
 10
33.8906385252
 20
24.2800990727
 30
0.0
 10
33.0756145437
 20
24.2797549799
 30
0.0
 10
32.18828879
 20
24.2794672413
 30
0.0
 10
31.5716016104
 20
24.2793912064
 30
0.0
 10
31.2494241164
 20
24.2793911232
 30
0.0
 11
44.300517935
 21
24.2875198791
 31
0.0
 11
44.2328627089
 21
24.2872382311
 31
0.0
 11
44.1627424984
 21
24.2869486586
 31
0.0
 11
44.0920216944
 21
24.2866663396
 31
0.0
 11
44.0214275446
 21
24.286399656
 31
0.0
 11
43.9511177306
 21
24.2861481993
 31
0.0
 11
43.8809121017
 21
24.2859087992
 31
0.0
 11
43.8107688379
 21
24.2856796893
 31
0.0
 11
43.7407209543
 21
24.2854594879
 31
0.0
 11
43.6707173772
 21
24.2852468338
 31
0.0
 11
43.6007249873
 21
24.2850412071
 31
0.0
 11
43.5307220312
 21
24.2848425322
 31
0.0
 11
43.4607192615
 21
24.284650944
 31
0.0
 11
43.3899418509
 21
24.2844645055
 31
0.0
 11
43.3157278075
 21
24.2842768614
 31
0.0
 11
43.2343338288
 21
24.2840801964
 31
0.0
 11
43.1425533792
 21
24.2838696107
 31
0.0
 11
43.0399903984
 21
24.283647753
 31
0.0
 11
42.9294511249
 21
24.2834239034
 31
0.0
 11
42.8125824847
 21
24.2832037437
 31
0.0
 11
42.6876858314
 21
24.2829863429
 31
0.0
 11
42.5534339173
 21
24.2827719397
 31
0.0
 11
42.4141243403
 21
24.2825688749
 31
0.0
 11
42.2757487422
 21
24.2823850825
 31
0.0
 11
42.139181751
 21
24.2822196995
 31
0.0
 11
42.0022630848
 21
24.2820686034
 31
0.0
 11
41.860870942
 21
24.281926817
 31
0.0
 11
41.7101546511
 21
24.2817902615
 31
0.0
 11
41.5456201189
 21
24.2816568928
 31
0.0
 11
41.3649197858
 21
24.2815277453
 31
0.0
 11
41.1683575606
 21
24.281405951
 31
0.0
 11
40.9560124813
 21
24.2812939991
 31
0.0
 11
40.7267171116
 21
24.2811933532
 31
0.0
 11
40.4785453609
 21
24.281104984
 31
0.0
 11
40.2098807017
 21
24.2810294729
 31
0.0
 11
39.9193833634
 21
24.2809663233
 31
0.0
 11
39.6054480438
 21
24.28091374
 31
0.0
 11
39.266107917
 21
24.2808715038
 31
0.0
 11
38.8993035321
 21
24.2808409357
 31
0.0
 11
38.5028737233
 21
24.280822601
 31
0.0
 11
38.0746286217
 21
24.2808159135
 31
0.0
 11
37.612361468
 21
24.280817713
 31
0.0
 11
37.1132222811
 21
24.2808186405
 31
0.0
 11
36.5731440603
 21
24.2808016432
 31
0.0
 11
35.9875044953
 21
24.2807410234
 31
0.0
 11
35.3517228331
 21
24.2806138355
 31
0.0
 11
34.6610285866
 21
24.2804032875
 31
0.0
 11
33.9114013933
 21
24.2801065342
 31
0.0
 11
33.0994856
 21
24.2797777476
 31
0.0
 11
32.2159565916
 21
24.2795044809
 31
0.0
 11
31.2494241164
 21
24.2793911232
 31
0.0
  0
SPLINE
  5
36F
100
AcDbEntity
  8
RACCORDO
100
AcDbSpline
 62
253
  6
CONTINUOUS
 70
0
 71
3
 72
50
 73
46
 74
44
 42
0.0000001
 43
0.0000001
 44
0.0000000001
 12
-13.0507184494
 22
0.0000056257
 32
0.0
 13
-13.0506055192
 23
0.0542920581
 33
0.0
 40
0.0
 40
0.0
 40
0.0
 40
0.0
 40
0.0752215117
 40
0.1438120382
 40
0.2064820661
 40
0.2638350272
 40
0.3164060281
 40
0.3646648876
 40
0.409016204
 40
0.44982162
 40
0.4873971576
 40
0.5220228915
 40
0.5539497399
 40
0.5834040416
 40
0.6105919321
 40
0.6356976085
 40
0.6588905511
 40
0.6803336557
 40
0.7001544791
 40
0.7184595881
 40
0.7353803532
 40
0.7510582513
 40
0.7655472817
 40
0.7788217375
 40
0.7908846386
 40
0.8020022622
 40
0.812550161
 40
0.822911845
 40
0.8333105418
 40
0.8437214612
 40
0.8541233025
 40
0.864532022
 40
0.874961836
 40
0.8854188995
 40
0.8959025442
 40
0.9064077175
 40
0.9169336696
 40
0.9274789763
 40
0.9380505845
 40
0.9486505305
 40
0.9593359878
 40
0.970087519
 40
0.9807055901
 40
0.9908816818
 40
1.0
 40
1.0
 40
1.0
 40
1.0
 10
-9.7511660916
 20
24.2793911403
 30
0.0
 10
-10.0783976817
 20
24.2793912813
 30
0.0
 10
-10.7040144904
 20
24.2794697189
 30
0.0
 10
-11.6022608814
 20
24.2797646896
 30
0.0
 10
-12.4227747697
 20
24.2801126378
 30
0.0
 10
-13.1735998968
 20
24.2804203722
 30
0.0
 10
-13.8617330228
 20
24.2806275214
 30
0.0
 10
-14.4933058993
 20
24.2807516361
 30
0.0
 10
-15.0736956728
 20
24.2808084881
 30
0.0
 10
-15.6076104397
 20
24.2808211263
 30
0.0
 10
-16.0992165937
 20
24.28081788
 30
0.0
 10
-16.5521988524
 20
24.2808143311
 30
0.0
 10
-16.9698517897
 20
24.2808196959
 30
0.0
 10
-17.3551483268
 20
24.2808360243
 30
0.0
 10
-17.7107711313
 20
24.2808637145
 30
0.0
 10
-18.0391555233
 20
24.2809021054
 30
0.0
 10
-18.342548719
 20
24.280949908
 30
0.0
 10
-18.622951537
 20
24.2810058427
 30
0.0
 10
-18.8820911054
 20
24.28107238
 30
0.0
 10
-19.1215574101
 20
24.2811501009
 30
0.0
 10
-19.3430009925
 20
24.281238651
 30
0.0
 10
-19.5478437129
 20
24.2813370281
 30
0.0
 10
-19.7368241085
 20
24.2814434821
 30
0.0
 10
-19.9100783947
 20
24.2815557752
 30
0.0
 10
-20.0686662475
 20
24.2816720089
 30
0.0
 10
-20.2153929183
 20
24.2817919312
 30
0.0
 10
-20.3547188796
 20
24.2819175541
 30
0.0
 10
-20.4909173273
 20
24.2820525027
 30
0.0
 10
-20.6265198682
 20
24.2822000836
 30
0.0
 10
-20.7622970867
 20
24.2823622403
 30
0.0
 10
-20.8981178858
 20
24.2825404085
 30
0.0
 10
-21.0340208567
 20
24.2827364576
 30
0.0
 10
-21.1701640277
 20
24.2829523392
 30
0.0
 10
-21.3066331062
 20
24.2831897841
 30
0.0
 10
-21.4434299751
 20
24.2834495865
 30
0.0
 10
-21.5805264811
 20
24.2837323555
 30
0.0
 10
-21.7178911818
 20
24.2840385785
 30
0.0
 10
-21.8555448363
 20
24.2843686406
 30
0.0
 10
-21.9935203212
 20
24.284723506
 30
0.0
 10
-22.1321054182
 20
24.2851079603
 30
0.0
 10
-22.2714731257
 20
24.2855274373
 30
0.0
 10
-22.4109195593
 20
24.2859861284
 30
0.0
 10
-22.5481499898
 20
24.2864822916
 30
0.0
 10
-22.6782753887
 20
24.2870074502
 30
0.0
 10
-22.7622099382
 20
24.2873632643
 30
0.0
 10
-22.8018764627
 20
24.2875282817
 30
0.0
 11
-9.7511660916
 21
24.2793911403
 31
0.0
 11
-10.732860855
 21
24.2795080825
 31
0.0
 11
-11.6280164604
 21
24.2797880654
 31
0.0
 11
-12.4459052829
 21
24.2801204252
 31
0.0
 11
-13.1944025722
 21
24.2804147312
 31
0.0
 11
-13.8804918727
 21
24.2806207063
 31
0.0
 11
-14.5103046492
 21
24.2807441942
 31
0.0
 11
-15.0891211889
 21
24.2808025346
 31
0.0
 11
-15.621661184
 21
24.2808186611
 31
0.0
 11
-16.1120489464
 21
24.2808176905
 31
0.0
 11
-16.5639396507
 21
24.2808158597
 31
0.0
 11
-16.9806079602
 21
24.2808219676
 31
0.0
 11
-17.3650077579
 21
24.2808388065
 31
0.0
 11
-17.7198292612
 21
24.2808668207
 31
0.0
 11
-18.0474763729
 21
24.280905386
 31
0.0
 11
-18.3501609331
 21
24.280953305
 31
0.0
 11
-18.6300088475
 21
24.2810100272
 31
0.0
 11
-18.888684825
 21
24.2810771121
 31
0.0
 11
-19.1275796365
 21
24.2811551722
 31
0.0
 11
-19.3484077594
 21
24.2812438842
 31
0.0
 11
-19.5530155703
 21
24.2813424556
 31
0.0
 11
-19.7421077963
 21
24.2814492489
 31
0.0
 11
-19.9153489451
 21
24.2815617565
 31
0.0
 11
-20.0727784282
 21
24.2816773273
 31
0.0
 11
-20.2178713545
 21
24.2817960498
 31
0.0
 11
-20.3555289567
 21
24.2819203487
 31
0.0
 11
-20.4907563102
 21
24.2820545369
 31
0.0
 11
-20.6264666945
 21
24.2822024208
 31
0.0
 11
-20.7623365752
 21
24.2823649495
 31
0.0
 11
-20.8980879602
 21
24.2825433272
 31
0.0
 11
-21.0339290853
 21
24.2827395624
 31
0.0
 11
-21.1700454805
 21
24.2829556453
 31
0.0
 11
-21.3065174651
 21
24.2831932009
 31
0.0
 11
-21.4433363136
 21
24.2834531302
 31
0.0
 11
-21.58043608
 21
24.2837359747
 31
0.0
 11
-21.7178069761
 21
24.2840422451
 31
0.0
 11
-21.8554304087
 21
24.2843723563
 31
0.0
 11
-21.9933970334
 21
24.284727832
 31
0.0
 11
-22.1317334091
 21
24.2851123412
 31
0.0
 11
-22.2711856694
 21
24.2855330485
 31
0.0
 11
-22.4115001133
 21
24.2859957136
 31
0.0
 11
-22.5500726556
 21
24.286499155
 31
0.0
 11
-22.6828768993
 21
24.2870307697
 31
0.0
 11
-22.8018764627
 21
24.2875282817
 31
0.0
  0
SPLINE
  5
370
100
AcDbEntity
  8
RACCORDO
100
AcDbSpline
 62
253
  6
CONTINUOUS
 70
0
 71
3
 72
17
 73
13
 74
11
 42
0.0000001
 43
0.0000001
 44
0.0000000001
 12
-0.0004395811
 22
-1.6006641071
 32
0.0
 13
0.0162214819
 23
-1.6005819693
 33
0.0
 40
0.0
 40
0.0
 40
0.0
 40
0.0
 40
0.1138911906
 40
0.2397316682
 40
0.3718204386
 40
0.5041727137
 40
0.6307917661
 40
0.745940635
 40
0.8444020625
 40
0.9217148846
 40
0.974376171
 40
1.0
 40
1.0
 40
1.0
 40
1.0
 10
-22.8018764627
 20
24.2875282817
 30
0.0
 10
-22.8018931509
 20
24.2267611014
 30
0.0
 10
-22.8008955521
 20
24.0988527932
 30
0.0
 10
-22.8014015437
 20
23.9004655225
 30
0.0
 10
-22.8012720024
 20
23.6922291821
 30
0.0
 10
-22.8012750414
 20
23.4835771616
 30
0.0
 10
-22.8011944689
 20
23.2839636007
 30
0.0
 10
-22.8010963047
 20
23.1024326131
 30
0.0
 10
-22.8009550751
 20
22.9472093696
 30
0.0
 10
-22.8008293892
 20
22.825326323
 30
0.0
 10
-22.8006202453
 20
22.7423070258
 30
0.0
 10
-22.8005524365
 20
22.700537058
 30
0.0
 10
-22.8004138843
 20
22.6868660451
 30
0.0
 11
-22.8018764627
 21
24.2875282817
 31
0.0
 11
-22.8012440655
 21
24.1052278307
 31
0.0
 11
-22.8012891116
 21
23.9037994926
 31
0.0
 11
-22.8012945021
 21
23.6923697309
 31
0.0
 11
-22.8012599928
 21
23.4805181894
 31
0.0
 11
-22.8011871473
 21
23.2778436225
 31
0.0
 11
-22.8010792661
 21
23.0935289857
 31
0.0
 11
-22.8009412372
 21
22.9359253673
 31
0.0
 11
-22.8007793146
 21
22.8121736092
 31
0.0
 11
-22.8006008347
 21
22.727880764
 31
0.0
 11
-22.8004138843
 21
22.6868660451
 31
0.0
  0
SPLINE
  5
371
100
AcDbEntity
  8
RACCORDO
100
AcDbSpline
 62
253
  6
CONTINUOUS
 70
0
 71
3
 72
65
 73
61
 74
59
 42
0.0000001
 43
0.0000001
 44
0.0000000001
 12
-3.1778068993
 22
0.0239279765
 32
0.0
 13
0.001341373
 23
-3.1778967004
 33
0.0
 40
0.0
 40
0.0
 40
0.0
 40
0.0
 40
0.0225309707
 40
0.0441740778
 40
0.0656215086
 40
0.0872720105
 40
0.1088570119
 40
0.1296422186
 40
0.151150973
 40
0.1749619257
 40
0.2009723189
 40
0.2292412571
 40
0.2603416284
 40
0.2944746392
 40
0.3288268365
 40
0.3606096443
 40
0.3888227065
 40
0.4141661074
 40
0.4369264108
 40
0.4571641879
 40
0.4756300091
 40
0.493770077
 40
0.5123331476
 40
0.5312349143
 40
0.5493900333
 40
0.5654415143
 40
0.5793143907
 40
0.5914930981
 40
0.6023651877
 40
0.6123271481
 40
0.6219090907
 40
0.6316270143
 40
0.6412737172
 40
0.6506879788
 40
0.6599115284
 40
0.6691868738
 40
0.6791922451
 40
0.6906574193
 40
0.7039378879
 40
0.717880573
 40
0.7313766489
 40
0.7436263783
 40
0.7547009646
 40
0.7649749913
 40
0.7748524005
 40
0.7847626511
 40
0.7947733111
 40
0.8048922375
 40
0.8151569626
 40
0.8257452986
 40
0.8368643706
 40
0.8487105105
 40
0.8615043153
 40
0.875622672
 40
0.8915047348
 40
0.9096521287
 40
0.9306027044
 40
0.9538392442
 40
0.9774149924
 40
1.0
 40
1.0
 40
1.0
 40
1.0
 10
-22.8018764789
 20
24.2875256921
 30
0.0
 10
-22.825742837
 20
24.287705399
 30
0.0
 10
-22.8725458046
 20
24.2872337343
 30
0.0
 10
-22.9420003803
 20
24.2840864005
 30
0.0
 10
-23.0103767894
 20
24.2786312654
 30
0.0
 10
-23.078463566
 20
24.2708300677
 30
0.0
 10
-23.1455456932
 20
24.2607802965
 30
0.0
 10
-23.2120983579
 20
24.2484828697
 30
0.0
 10
-23.2805051789
 20
24.2334548222
 30
0.0
 10
-23.3537032096
 20
24.2146412063
 30
0.0
 10
-23.4329882483
 20
24.1909701834
 30
0.0
 10
-23.5185157775
 20
24.1614711755
 30
0.0
 10
-23.6105809927
 20
24.1248363307
 30
0.0
 10
-23.706513379
 20
24.0808356464
 30
0.0
 10
-23.8006017401
 20
24.0314455363
 30
0.0
 10
-23.88667066
 20
23.9805686567
 30
0.0
 10
-23.9623433061
 20
23.9310634995
 30
0.0
 10
-24.0281524053
 20
23.8840756217
 30
0.0
 10
-24.0855071602
 20
23.8398778817
 30
0.0
 10
-24.1357510369
 20
23.7984528677
 30
0.0
 10
-24.1810719393
 20
23.758795052
 30
0.0
 10
-24.2239585397
 20
23.7190847138
 30
0.0
 10
-24.2660332544
 20
23.6778519189
 30
0.0
 10
-24.3069065364
 20
23.6354052901
 30
0.0
 10
-24.3447607171
 20
23.5937781895
 30
0.0
 10
-24.3780224623
 20
23.555202169
 30
0.0
 10
-24.4063558886
 20
23.5207541726
 30
0.0
 10
-24.4305804413
 20
23.4900426194
 30
0.0
 10
-24.4517411073
 20
23.4621989201
 30
0.0
 10
-24.4708163158
 20
23.4362311951
 30
0.0
 10
-24.4887898972
 20
23.4109757561
 30
0.0
 10
-24.5061916812
 20
23.3857276141
 30
0.0
 10
-24.5231401748
 20
23.3603865016
 30
0.0
 10
-24.5394361794
 20
23.3352426756
 30
0.0
 10
-24.5551482467
 20
23.3101930352
 30
0.0
 10
-24.5708054282
 20
23.2843737881
 30
0.0
 10
-24.5872461835
 20
23.2562571637
 30
0.0
 10
-24.6052592664
 20
23.2241511786
 30
0.0
 10
-24.6245808964
 20
23.1880056067
 30
0.0
 10
-24.6440928966
 20
23.1495335143
 30
0.0
 10
-24.6623167932
 20
23.1116432844
 30
0.0
 10
-24.6785285711
 20
23.07616579
 30
0.0
 10
-24.6927388073
 20
23.043533116
 30
0.0
 10
-24.7054346039
 20
23.0129873077
 30
0.0
 10
-24.7171781105
 20
22.9833859055
 30
0.0
 10
-24.7283170474
 20
22.9538496746
 30
0.0
 10
-24.7390537598
 20
22.9238930319
 30
0.0
 10
-24.7494159578
 20
22.8934078909
 30
0.0
 10
-24.7594627467
 20
22.8621738826
 30
0.0
 10
-24.7692939432
 20
22.8297624429
 30
0.0
 10
-24.7790214122
 20
22.7955742787
 30
0.0
 10
-24.7887180988
 20
22.7589545964
 30
0.0
 10
-24.79844124
 20
22.719062884
 30
0.0
 10
-24.808199449
 20
22.6747894968
 30
0.0
 10
-24.8179249639
 20
22.6247162539
 30
0.0
 10
-24.8273880268
 20
22.5672407179
 30
0.0
 10
-24.8359831749
 20
22.5017584242
 30
0.0
 10
-24.8427655351
 20
22.4302811606
 30
0.0
 10
-24.8469391579
 20
22.3568700474
 30
0.0
 10
-24.847861314
 20
22.3079669904
 30
0.0
 10
-24.8478512157
 20
22.2840427167
 30
0.0
 11
-22.8018764789
 21
24.2875256921
 31
0.0
 11
-22.8734738623
 21
24.2867957838
 31
0.0
 11
-22.9421829264
 21
24.2836824209
 31
0.0
 11
-23.0101246501
 21
24.2782604499
 31
0.0
 11
-23.0784804265
 21
24.2704278556
 31
0.0
 11
-23.1463181583
 21
24.260264002
 31
0.0
 11
-23.2112726774
 21
24.2482664306
 31
0.0
 11
-23.2780346676
 21
24.233606439
 31
0.0
 11
-23.3513222739
 21
24.2147732968
 31
0.0
 11
-23.4305260329
 21
24.1911265759
 31
0.0
 11
-23.5154492546
 21
24.1618261902
 31
0.0
 11
-23.6072789322
 21
24.1252827146
 31
0.0
 11
-23.7058778306
 21
24.0800692574
 31
0.0
 11
-23.8025467096
 21
24.0293472284
 31
0.0
 11
-23.8894974478
 21
23.9779558684
 31
0.0
 11
-23.9645250915
 21
23.9288697555
 31
0.0
 11
-24.0300717179
 21
23.882070987
 31
0.0
 11
-24.087361706
 21
23.8379181659
 31
0.0
 11
-24.1369861588
 21
23.7970079091
 31
0.0
 11
-24.1811460845
 21
23.75836164
 31
0.0
 11
-24.2234441645
 21
23.7191943089
 31
0.0
 11
-24.2655764134
 21
23.677904192
 31
0.0
 11
-24.3072422009
 21
23.634636296
 31
0.0
 11
-24.3460581186
 21
23.5919508315
 31
0.0
 11
-24.3793673075
 21
23.5533177728
 31
0.0
 11
-24.407371263
 21
23.5192677461
 31
0.0
 11
-24.4313406007
 21
23.4888807736
 31
0.0
 11
-24.4522459619
 21
23.4613726897
 31
0.0
 11
-24.4709890819
 21
23.4358593653
 31
0.0
 11
-24.4886442254
 21
23.4110496012
 31
0.0
 11
-24.5061747651
 21
23.385624954
 31
0.0
 11
-24.5232146934
 21
23.3601407399
 31
0.0
 11
-24.5394830272
 21
23.3350329457
 31
0.0
 11
-24.5550565535
 21
23.3102009353
 31
0.0
 11
-24.5703394519
 21
23.2849963121
 31
0.0
 11
-24.5863891954
 21
23.2575482913
 31
0.0
 11
-24.6042177599
 21
23.225773114
 31
0.0
 11
-24.6241190861
 21
23.1885560272
 31
0.0
 11
-24.6441651333
 21
23.1490415767
 31
0.0
 11
-24.6627555127
 21
23.1103908842
 31
0.0
 11
-24.6789343656
 21
23.0749837754
 31
0.0
 11
-24.6929833715
 21
23.0427155926
 31
0.0
 11
-24.7055124138
 21
23.0125654276
 31
0.0
 11
-24.7170822708
 21
22.9833861173
 31
0.0
 11
-24.728198683
 21
22.953919492
 31
0.0
 11
-24.7389329686
 21
22.9239723337
 31
0.0
 11
-24.7492831538
 21
22.8935266402
 31
0.0
 11
-24.7592724304
 21
22.8624735509
 31
0.0
 11
-24.7690399299
 21
22.8302737529
 31
0.0
 11
-24.7787097351
 21
22.7962873463
 31
0.0
 11
-24.7883455
 21
22.7598955996
 31
0.0
 11
-24.7979700423
 21
22.7203938041
 31
0.0
 11
-24.8076243069
 21
22.6765781171
 31
0.0
 11
-24.81724594
 21
22.6270321538
 31
0.0
 11
-24.8266172181
 21
22.5701281002
 31
0.0
 11
-24.8352925094
 21
22.5041169489
 31
0.0
 11
-24.842270813
 21
22.4306040887
 31
0.0
 11
-24.846515133
 21
22.3558031073
 31
0.0
 11
-24.8478512157
 21
22.2840427167
 31
0.0
  0
SPLINE
  5
372
100
AcDbEntity
  8
RACCORDO
100
AcDbSpline
 62
253
  6
CONTINUOUS
 70
0
 71
3
 72
17
 73
13
 74
11
 42
0.0000001
 43
0.0000001
 44
0.0000000001
 12
1.6438581654
 22
0.0030315193
 32
0.0
 13
1.6438608624
 23
-0.0005684376
 33
0.0
 40
0.0
 40
0.0
 40
0.0
 40
0.0
 40
0.1100110688
 40
0.2335507334
 40
0.3647877839
 40
0.4974841178
 40
0.6251149654
 40
0.7417255351
 40
0.8417608973
 40
0.9204529946
 40
0.9740509543
 40
1.0
 40
1.0
 40
1.0
 40
1.0
 10
-24.8478512157
 20
22.2840427167
 30
0.0
 10
-24.7875703511
 20
22.2841538836
 30
0.0
 10
-24.6595955107
 20
22.2850177125
 30
0.0
 10
-24.4597102489
 20
22.2825982643
 30
0.0
 10
-24.2473961707
 20
22.2967203526
 30
0.0
 10
-24.0332378907
 20
22.2751541169
 30
0.0
 10
-23.8266077757
 20
22.2837786478
 30
0.0
 10
-23.6379812083
 20
22.2824388468
 30
0.0
 10
-23.4761452797
 20
22.2829917734
 30
0.0
 10
-23.3488425824
 20
22.2830014119
 30
0.0
 10
-23.2621347616
 20
22.2830315099
 30
0.0
 10
-23.2185467003
 20
22.2830423393
 30
0.0
 10
-23.2043278268
 20
22.2830374225
 30
0.0
 11
-24.8478512157
 21
22.2840427167
 31
0.0
 11
-24.6670087342
 21
22.2844323212
 31
0.0
 11
-24.4639282686
 21
22.2852299122
 31
0.0
 11
-24.2482620304
 21
22.2906947171
 31
0.0
 11
-24.0303828161
 21
22.280148116
 31
0.0
 11
-23.8205859294
 21
22.2822452337
 31
0.0
 11
-23.6288949948
 21
22.2827361148
 31
0.0
 11
-23.4644508816
 21
22.28292923
 31
0.0
 11
-23.3350920398
 21
22.2830094145
 31
0.0
 11
-23.2469844499
 21
22.2830348163
 31
0.0
 11
-23.2043278268
 21
22.2830374225
 31
0.0
  0
SPLINE
  5
373
100
AcDbEntity
  8
RACCORDO
100
AcDbSpline
 62
253
  6
CONTINUOUS
 70
0
 71
3
 72
44
 73
40
 74
38
 42
0.0000001
 43
0.0000001
 44
0.0000000001
 12
0.0031767595
 22
-10.5010061345
 32
0.0
 13
-0.0000064006
 23
-10.501006615
 33
0.0
 40
0.0
 40
0.0
 40
0.0
 40
0.0
 40
0.0129072162
 40
0.0262515665
 40
0.0396744415
 40
0.0528076589
 40
0.0653510313
 40
0.0773846763
 40
0.0892571897
 40
0.1013085218
 40
0.1137880558
 40
0.1266230096
 40
0.1394832464
 40
0.1522296455
 40
0.1649568168
 40
0.1779299901
 40
0.1915560572
 40
0.2062396499
 40
0.2222863648
 40
0.2397344457
 40
0.2585458595
 40
0.2787498946
 40
0.3004985587
 40
0.3239524892
 40
0.3492411353
 40
0.3764931037
 40
0.4058610098
 40
0.4375098752
 40
0.4716081361
 40
0.5083311152
 40
0.5478675124
 40
0.5904392876
 40
0.6363210674
 40
0.6858186974
 40
0.7392536084
 40
0.7969745307
 40
0.8593608608
 40
0.926845639
 40
1.0
 40
1.0
 40
1.0
 40
1.0
 10
-24.8478512688
 20
22.2840427163
 30
0.0
 10
-24.8478376011
 20
22.2388631307
 30
0.0
 10
-24.8477941428
 20
22.1469738494
 30
0.0
 10
-24.8477573079
 20
22.0080999953
 30
0.0
 10
-24.8477545991
 20
21.8684350571
 30
0.0
 10
-24.8477588129
 20
21.7315738112
 30
0.0
 10
-24.8477593229
 20
21.5995753361
 30
0.0
 10
-24.8477530346
 20
21.4719897484
 30
0.0
 10
-24.847741541
 20
21.3461264668
 30
0.0
 10
-24.8477261375
 20
21.2187024249
 30
0.0
 10
-24.8477070843
 20
21.0879095187
 30
0.0
 10
-24.8476855067
 20
20.9542851754
 30
0.0
 10
-24.8476623351
 20
20.8197267145
 30
0.0
 10
-24.8476379565
 20
20.6855455291
 30
0.0
 10
-24.8476117037
 20
20.5509690282
 30
0.0
 10
-24.8475825796
 20
20.4133133948
 30
0.0
 10
-24.8475491021
 20
20.2688096309
 30
0.0
 10
-24.8475092495
 20
20.1135474416
 30
0.0
 10
-24.8474607385
 20
19.9449069232
 30
0.0
 10
-24.8474018619
 20
19.7618176485
 30
0.0
 10
-24.8473310519
 20
19.5641763608
 30
0.0
 10
-24.8472466003
 20
19.3514815935
 30
0.0
 10
-24.8471468878
 20
19.1225364648
 30
0.0
 10
-24.8470304766
 20
18.8757934973
 30
0.0
 10
-24.8468949564
 20
18.6097871252
 30
0.0
 10
-24.8467381916
 20
18.3230798621
 30
0.0
 10
-24.8465580836
 20
18.0141097075
 30
0.0
 10
-24.8463528365
 20
17.6811752424
 30
0.0
 10
-24.8461201803
 20
17.3224955663
 30
0.0
 10
-24.8458575766
 20
16.9362068962
 30
0.0
 10
-24.8455624823
 20
16.520258098
 30
0.0
 10
-24.8452331177
 20
16.0722504409
 30
0.0
 10
-24.8448736396
 20
15.5893751393
 30
0.0
 10
-24.8444972581
 20
15.0684752196
 30
0.0
 10
-24.8441267069
 20
14.506134314
 30
0.0
 10
-24.8437814261
 20
13.8986786092
 30
0.0
 10
-24.8434786439
 20
13.2420436263
 30
0.0
 10
-24.8432194307
 20
12.5313864081
 30
0.0
 10
-24.8431261645
 20
12.0391022317
 30
0.0
 10
-24.8431263206
 20
11.783037422
 30
0.0
 11
-24.8478512688
 21
22.2840427163
 31
0.0
 11
-24.8477994803
 21
22.1485039631
 31
0.0
 11
-24.8477631056
 21
22.0083748576
 31
0.0
 11
-24.8477557712
 21
21.8674211586
 31
0.0
 11
-24.8477582434
 21
21.7295091553
 31
0.0
 11
-24.8477581388
 21
21.5977911194
 31
0.0
 11
-24.8477521156
 21
21.4714257337
 31
0.0
 11
-24.8477409884
 21
21.3467523927
 31
0.0
 11
-24.8477258049
 21
21.2202012748
 31
0.0
 11
-24.8477069252
 21
21.0891536078
 31
0.0
 11
-24.8476852803
 21
20.954373674
 31
0.0
 11
-24.8476620522
 21
20.8193282447
 31
0.0
 11
-24.8476376453
 21
20.6854782253
 31
0.0
 11
-24.8476115078
 21
20.5518301179
 31
0.0
 11
-24.8475826179
 21
20.4155987421
 31
0.0
 11
-24.8475493856
 21
20.2725113252
 31
0.0
 11
-24.8475097134
 21
20.1183188266
 31
0.0
 11
-24.847461237
 21
19.9498121748
 31
0.0
 11
-24.8474023179
 21
19.7665897709
 31
0.0
 11
-24.8473315672
 21
19.5690510032
 31
0.0
 11
-24.8472474367
 21
19.3568883129
 31
0.0
 11
-24.8471481593
 21
19.1285054696
 31
0.0
 11
-24.8470320184
 21
18.8822156178
 31
0.0
 11
-24.8468968678
 21
18.6166594116
 31
0.0
 11
-24.8467405814
 21
18.3304863543
 31
0.0
 11
-24.8465610779
 21
18.0220938297
 31
0.0
 11
-24.8463564067
 21
17.6897489481
 31
0.0
 11
-24.8461243487
 21
17.33168296
 31
0.0
 11
-24.8458624369
 21
16.9460548023
 31
0.0
 11
-24.8455683057
 21
16.5308829385
 31
0.0
 11
-24.8452409702
 21
16.0838365646
 31
0.0
 11
-24.8448847533
 21
15.6020318234
 31
0.0
 11
-24.8445125165
 21
15.0822570171
 31
0.0
 11
-24.8441447334
 21
14.5211367835
 31
0.0
 11
-24.8438011263
 21
13.9150090934
 31
0.0
 11
-24.8434969813
 21
13.2598899
 31
0.0
 11
-24.8432465388
 21
12.5512318415
 31
0.0
 11
-24.8431263206
 21
11.783037422
 31
0.0
  0
SPLINE
  5
374
100
AcDbEntity
  8
RACCORDO
100
AcDbSpline
 62
253
  6
CONTINUOUS
 70
0
 71
3
 72
40
 73
36
 74
34
 42
0.0000001
 43
0.0000001
 44
0.0000000001
 12
0.0000067027
 22
-10.4999996077
 32
0.0
 13
-0.0031642585
 23
-10.4999991309
 33
0.0
 40
0.0
 40
0.0
 40
0.0
 40
0.0
 40
0.0786914278
 40
0.1511537695
 40
0.2179902495
 40
0.2796812991
 40
0.3366538802
 40
0.3892927093
 40
0.4379521539
 40
0.4829582786
 40
0.5246054899
 40
0.5631597435
 40
0.5988621363
 40
0.6319331631
 40
0.6625750317
 40
0.6909731945
 40
0.7172986137
 40
0.7416942644
 40
0.7642935311
 40
0.7852587238
 40
0.8047617552
 40
0.8228688388
 40
0.8395519861
 40
0.8547986921
 40
0.8688822664
 40
0.8822222737
 40
0.8952529387
 40
0.9082868035
 40
0.9213440763
 40
0.9343883281
 40
0.9474032545
 40
0.9604576627
 40
0.9737138572
 40
0.9870976301
 40
1.0
 40
1.0
 40
1.0
 40
1.0
 10
-24.8431263276
 20
-11.7172794558
 30
0.0
 10
-24.8431261518
 20
-11.9926994429
 30
0.0
 10
-24.8432344192
 20
-12.5217376149
 30
0.0
 10
-24.8435220809
 20
-13.2847034055
 30
0.0
 10
-24.8438618423
 20
-13.9881678485
 30
0.0
 10
-24.8442500702
 20
-14.6374180966
 30
0.0
 10
-24.8446629617
 20
-15.2369765418
 30
0.0
 10
-24.8450728508
 20
-15.7909243614
 30
0.0
 10
-24.8454525871
 20
-16.302989596
 30
0.0
 10
-24.8457928677
 20
-16.776584188
 30
0.0
 10
-24.8460929878
 20
-17.2148106326
 30
0.0
 10
-24.8463566643
 20
-17.6204740336
 30
0.0
 10
-24.8465874147
 20
-17.9961208049
 30
0.0
 10
-24.8467874697
 20
-18.3440742431
 30
0.0
 10
-24.8469593363
 20
-18.6664628893
 30
0.0
 10
-24.8471054547
 20
-18.9652419197
 30
0.0
 10
-24.8472290465
 20
-19.2421591963
 30
0.0
 10
-24.8473319464
 20
-19.4987803443
 30
0.0
 10
-24.8474161202
 20
-19.736640706
 30
0.0
 10
-24.847484506
 20
-19.957376905
 30
0.0
 10
-24.847539597
 20
-20.1623904667
 30
0.0
 10
-24.847584108
 20
-20.3524168726
 30
0.0
 10
-24.8476204194
 20
-20.5275461414
 30
0.0
 10
-24.8476508042
 20
-20.6885931291
 30
0.0
 10
-24.8476769632
 20
-20.8379391277
 30
0.0
 10
-24.8477004788
 20
-20.9795289837
 30
0.0
 10
-24.8477213347
 20
-21.117444857
 30
0.0
 10
-24.8477388326
 20
-21.2543711601
 30
0.0
 10
-24.8477519974
 20
-21.3913450169
 30
0.0
 10
-24.8477595429
 20
-21.5282525902
 30
0.0
 10
-24.8477588441
 20
-21.6651501374
 30
0.0
 10
-24.8477545117
 20
-21.8027894841
 30
0.0
 10
-24.847757385
 20
-21.941719794
 30
0.0
 10
-24.8477935287
 20
-22.0801179663
 30
0.0
 10
-24.8478374272
 20
-22.1721194526
 30
0.0
 10
-24.847851036
 20
-22.2172777435
 30
0.0
 11
-24.8431263276
 21
-11.7172794558
 31
0.0
 11
-24.8432635978
 21
-12.5435394057
 31
0.0
 11
-24.8435434831
 21
-13.3043939136
 31
0.0
 11
-24.8438845273
 21
-14.0061768447
 31
0.0
 11
-24.8442701262
 21
-14.6539327262
 31
0.0
 11
-24.8446787225
 21
-15.2521446655
 31
0.0
 11
-24.8450833132
 21
-15.8048522029
 31
0.0
 11
-24.8454600281
 21
-16.3157762131
 31
0.0
 11
-24.8457985612
 21
-16.7883403836
 31
0.0
 11
-24.8460977626
 21
-17.2256359829
 31
0.0
 11
-24.84636065
 21
-17.630455546
 31
0.0
 11
-24.8465905209
 21
-18.0053305851
 31
0.0
 11
-24.8467898439
 21
-18.3525762963
 31
0.0
 11
-24.8469610708
 21
-18.6743158596
 31
0.0
 11
-24.8471067982
 21
-18.9724965225
 31
0.0
 11
-24.847229893
 21
-19.2489133857
 31
0.0
 11
-24.8473323798
 21
-19.5050676885
 31
0.0
 11
-24.8474163358
 21
-19.7423599652
 31
0.0
 11
-24.8474845295
 21
-19.9624944693
 31
0.0
 11
-24.8475396893
 21
-20.1672762842
 31
0.0
 11
-24.8475843882
 21
-20.3574006493
 31
0.0
 11
-24.8476208922
 21
-20.5325736859
 31
0.0
 11
-24.8476511974
 21
-20.6926640901
 31
0.0
 11
-24.8476771893
 21
-20.8405416121
 31
0.0
 11
-24.8477003076
 21
-20.9806116814
 31
0.0
 11
-24.8477207988
 21
-21.1174336582
 31
0.0
 11
-24.8477381002
 21
-21.254289232
 31
0.0
 11
-24.8477510645
 21
-21.3913905907
 31
0.0
 11
-24.8477581724
 21
-21.5283552286
 31
0.0
 11
-24.8477582451
 21
-21.6650119514
 31
0.0
 11
-24.8477557163
 21
-21.8020832319
 31
0.0
 11
-24.8477629277
 21
-21.9412732692
 31
0.0
 11
-24.8477991203
 21
-22.0818028747
 31
0.0
 11
-24.847851036
 21
-22.2172777435
 31
0.0
  0
SPLINE
  5
375
100
AcDbEntity
  8
RACCORDO
100
AcDbSpline
 62
253
  6
CONTINUOUS
 70
0
 71
3
 72
69
 73
65
 74
63
 42
0.0000001
 43
0.0000001
 44
0.0000000001
 12
-0.0024109397
 22
-3.1788506773
 32
0.0
 13
3.1787584692
 23
0.0243317803
 33
0.0
 40
0.0
 40
0.0
 40
0.0
 40
0.0
 40
0.0223968515
 40
0.0451842451
 40
0.0673374738
 40
0.0875707036
 40
0.1054442305
 40
0.1215857646
 40
0.1364321004
 40
0.1501332505
 40
0.1626544233
 40
0.1738456077
 40
0.1836276195
 40
0.1922458793
 40
0.2001427709
 40
0.2077350827
 40
0.2152762291
 40
0.2227494343
 40
0.230193344
 40
0.2377403227
 40
0.2454785508
 40
0.2536411064
 40
0.2624618032
 40
0.2721706267
 40
0.2830011223
 40
0.2951795624
 40
0.3088589714
 40
0.323894375
 40
0.3399819382
 40
0.3569178948
 40
0.3741687963
 40
0.3912433431
 40
0.4092743649
 40
0.4272653508
 40
0.4447925959
 40
0.4622107252
 40
0.479818285
 40
0.4978274343
 40
0.5159289746
 40
0.5337826109
 40
0.5525070338
 40
0.5732073153
 40
0.5936770316
 40
0.6120638413
 40
0.6285866243
 40
0.6438471523
 40
0.6584388861
 40
0.6728912046
 40
0.6873335946
 40
0.7017029588
 40
0.7156915584
 40
0.7299441696
 40
0.7457492387
 40
0.7629558431
 40
0.7808569496
 40
0.7991386262
 40
0.8178215289
 40
0.8374163664
 40
0.8587095675
 40
0.8821323783
 40
0.907601829
 40
0.9353639022
 40
0.965914312
 40
1.0
 40
1.0
 40
1.0
 40
1.0
 10
-24.8478510842
 20
-22.2172777435
 30
0.0
 10
-24.8478690833
 20
-22.2410098257
 30
0.0
 10
-24.8469846339
 20
-22.2888929802
 30
0.0
 10
-24.8430246536
 20
-22.3601502953
 30
0.0
 10
-24.836707079
 20
-22.4289349378
 30
0.0
 10
-24.8286858888
 20
-22.492293618
 30
0.0
 10
-24.8196384551
 20
-22.5490685336
 30
0.0
 10
-24.8100128559
 20
-22.5999468475
 30
0.0
 10
-24.7999988158
 20
-22.6462340479
 30
0.0
 10
-24.7898044386
 20
-22.6885438138
 30
0.0
 10
-24.7797145961
 20
-22.7268850144
 30
0.0
 10
-24.7700389414
 20
-22.7610338008
 30
0.0
 10
-24.7609906867
 20
-22.791056838
 30
0.0
 10
-24.7525587055
 20
-22.8176163018
 30
0.0
 10
-24.7445050903
 20
-22.841858945
 30
0.0
 10
-24.7365183538
 20
-22.8649190138
 30
0.0
 10
-24.7283945092
 20
-22.8874544855
 30
0.0
 10
-24.7200389785
 20
-22.9097372472
 30
0.0
 10
-24.7113960972
 20
-22.9319167055
 30
0.0
 10
-24.7023831779
 20
-22.9542514719
 30
0.0
 10
-24.6928052355
 20
-22.9771774441
 30
0.0
 10
-24.6824080869
 20
-23.001221776
 30
0.0
 10
-24.6708417927
 20
-23.0270330102
 30
0.0
 10
-24.6577162483
 20
-23.0552402338
 30
0.0
 10
-24.642593681
 20
-23.086438163
 30
0.0
 10
-24.6250125716
 20
-23.1211138251
 30
0.0
 10
-24.6046201923
 20
-23.1593506264
 30
0.0
 10
-24.5812978023
 20
-23.200705755
 30
0.0
 10
-24.5551535462
 20
-23.2444132596
 30
0.0
 10
-24.5265810106
 20
-23.2893818169
 30
0.0
 10
-24.4962439026
 20
-23.3344453629
 30
0.0
 10
-24.464076889
 20
-23.379653249
 30
0.0
 10
-24.4302354398
 20
-23.4246085532
 30
0.0
 10
-24.3948700078
 20
-23.4689903068
 30
0.0
 10
-24.3587009627
 20
-23.5118732238
 30
0.0
 10
-24.321634971
 20
-23.5534402763
 30
0.0
 10
-24.2830886449
 20
-23.5943430782
 30
0.0
 10
-24.2429179738
 20
-23.634680558
 30
0.0
 10
-24.2014673472
 20
-23.6740811371
 30
0.0
 10
-24.1583819855
 20
-23.7128298883
 30
0.0
 10
-24.1121343395
 20
-23.7521464245
 30
0.0
 10
-24.062565679
 20
-23.7917964519
 30
0.0
 10
-24.0120605056
 20
-23.8296526146
 30
0.0
 10
-23.9640740101
 20
-23.8634408774
 30
0.0
 10
-23.9198001472
 20
-23.8928777473
 30
0.0
 10
-23.8782282757
 20
-23.9190871664
 30
0.0
 10
-23.8379539003
 20
-23.9432170266
 30
0.0
 10
-23.7979140717
 20
-23.9660297129
 30
0.0
 10
-23.7575936753
 20
-23.9878521266
 30
0.0
 10
-23.7172364365
 20
-24.0085508583
 30
0.0
 10
-23.6766139336
 20
-24.0282673126
 30
0.0
 10
-23.6341819861
 20
-24.0477142564
 30
0.0
 10
-23.5881685226
 20
-24.0675004083
 30
0.0
 10
-23.5380652261
 20
-24.0875195281
 30
0.0
 10
-23.4849674593
 20
-24.1070613687
 30
0.0
 10
-23.4298589381
 20
-24.125603893
 30
0.0
 10
-23.3725228112
 20
-24.143078007
 30
0.0
 10
-23.3116104364
 20
-24.1596719966
 30
0.0
 10
-23.2453093746
 20
-24.1754713885
 30
0.0
 10
-23.1723857385
 20
-24.1901530424
 30
0.0
 10
-23.0921733454
 20
-24.2030744937
 30
0.0
 10
-23.003977206
 20
-24.2134656491
 30
0.0
 10
-22.9062804431
 20
-24.2204048366
 30
0.0
 10
-22.83776316
 20
-24.2217256469
 30
0.0
 10
-22.8016464369
 20
-24.2214491917
 30
0.0
 11
-24.8478510842
 21
-22.2172777435
 31
0.0
 11
-24.8465567205
 21
-22.2884622436
 31
0.0
 11
-24.8425468312
 21
-22.3607889145
 31
0.0
 11
-24.8361021122
 21
-22.4309152237
 31
0.0
 11
-24.8280100864
 21
-22.494722591
 31
0.0
 11
-24.8190657777
 21
-22.5508314473
 31
0.0
 11
-24.809529973
 21
-22.6012491298
 31
0.0
 11
-24.799555778
 21
-22.6473773987
 31
0.0
 11
-24.7893579295
 21
-22.6897206164
 31
0.0
 11
-24.7792290425
 21
-22.7282132192
 31
0.0
 11
-24.7695309578
 21
-22.7624409261
 31
0.0
 11
-24.7605575158
 21
-22.7922135884
 31
0.0
 11
-24.7522670085
 21
-22.8183252249
 31
0.0
 11
-24.7443521257
 21
-22.8421478522
 31
0.0
 11
-24.7364527524
 21
-22.864953335
 31
0.0
 11
-24.7283220256
 21
-22.8875045422
 31
0.0
 11
-24.71998055
 21
-22.9097481324
 31
0.0
 11
-24.7113921564
 21
-22.931797646
 31
0.0
 11
-24.7024145095
 21
-22.9540452696
 31
0.0
 11
-24.6929330301
 21
-22.976743211
 31
0.0
 11
-24.6826348558
 21
-23.0005596572
 31
0.0
 11
-24.6711689788
 21
-23.0261478898
 31
0.0
 11
-24.658148134
 21
-23.0541296118
 31
0.0
 11
-24.6431301098
 21
-23.0851099796
 31
0.0
 11
-24.6256201517
 21
-23.1196372566
 31
0.0
 11
-24.6051537529
 21
-23.1580046298
 31
0.0
 11
-24.5816752384
 21
-23.1996357678
 31
0.0
 11
-24.5554244198
 21
-23.2435241676
 31
0.0
 11
-24.5265630039
 21
-23.2889711662
 31
0.0
 11
-24.4959438328
 21
-23.3344648878
 31
0.0
 11
-24.4644737569
 21
-23.3786879128
 31
0.0
 11
-24.4300016917
 21
-23.424481179
 31
0.0
 11
-24.3943557181
 21
-23.4692040791
 31
0.0
 11
-24.3584325455
 21
-23.5117934586
 31
0.0
 11
-24.3215823138
 21
-23.5531197017
 31
0.0
 11
-24.2831978028
 21
-23.5938563422
 31
0.0
 11
-24.2428046619
 21
-23.6344244941
 31
0.0
 11
-24.2010960436
 21
-23.6740664619
 31
0.0
 11
-24.1588985592
 21
-23.7120190068
 31
0.0
 11
-24.1135502149
 21
-23.7505730644
 31
0.0
 11
-24.0621623694
 21
-23.79167465
 31
0.0
 11
-24.0100947892
 21
-23.8307015218
 31
0.0
 11
-23.9623041729
 21
-23.8643517152
 31
0.0
 11
-23.9185663907
 21
-23.8934330121
 31
0.0
 11
-23.8775304041
 21
-23.9193050133
 31
0.0
 11
-23.8377413321
 21
-23.9431460262
 31
0.0
 11
-23.7978238432
 21
-23.9658889554
 31
0.0
 11
-23.7574462871
 21
-23.9877384581
 31
0.0
 11
-23.7168015015
 21
-24.008582835
 31
0.0
 11
-23.6767962968
 21
-24.0279982505
 31
0.0
 11
-23.635608703
 21
-24.0468741752
 31
0.0
 11
-23.5894530215
 21
-24.0667213042
 31
0.0
 11
-23.5386606674
 21
-24.08701724
 31
0.0
 11
-23.4852583771
 21
-24.106673536
 31
0.0
 11
-23.4301777928
 21
-24.1252059902
 31
0.0
 11
-23.3733671542
 21
-24.1425191127
 31
0.0
 11
-23.3132678967
 21
-24.1588900864
 31
0.0
 11
-23.2474230966
 21
-24.1745782246
 31
0.0
 11
-23.1744291487
 21
-24.189269161
 31
0.0
 11
-23.0944959775
 21
-24.2021452364
 31
0.0
 11
-23.0068508804
 21
-24.2124731628
 31
0.0
 11
-22.9099794436
 21
-24.2193499667
 31
0.0
 11
-22.8016464369
 21
-24.2214491917
 31
0.0
  0
SPLINE
  5
376
100
AcDbEntity
  8
RACCORDO
100
AcDbSpline
 62
253
  6
CONTINUOUS
 70
0
 71
3
 72
17
 73
13
 74
11
 42
0.0000001
 43
0.0000001
 44
0.0000000001
 12
-0.0004843719
 22
1.600660394
 32
0.0
 13
-0.012281877
 23
1.6006133471
 33
0.0
 40
0.0
 40
0.0
 40
0.0
 40
0.0
 40
0.1138899535
 40
0.2397306866
 40
0.371819701
 40
0.5041722007
 40
0.6307914539
 40
0.7459404986
 40
0.844402076
 40
0.9217151288
 40
0.9743763992
 40
1.0
 40
1.0
 40
1.0
 40
1.0
 10
-22.8016464369
 20
-24.2214491917
 30
0.0
 10
-22.8016648252
 20
-24.1606828125
 30
0.0
 10
-22.8002479978
 20
-24.0327771239
 30
0.0
 10
-22.8009020489
 20
-23.8343899082
 30
0.0
 10
-22.8007426576
 20
-23.626153895
 30
0.0
 10
-22.8008055468
 20
-23.41750194
 30
0.0
 10
-22.8008180498
 20
-23.2178885125
 30
0.0
 10
-22.8007598029
 20
-23.0363576706
 30
0.0
 10
-22.8008730807
 20
-22.8811343259
 30
0.0
 10
-22.8004045075
 20
-22.7592515915
 30
0.0
 10
-22.8006808264
 20
-22.6762323355
 30
0.0
 10
-22.8004709814
 20
-22.6344623797
 30
0.0
 10
-22.8005758833
 20
-22.6207912206
 30
0.0
 11
-22.8016464369
 21
-24.2214491917
 31
0.0
 11
-22.8007335757
 21
-24.0391523311
 31
0.0
 11
-22.8007579845
 21
-23.8377240459
 31
0.0
 11
-22.8007803214
 21
-23.6262943836
 31
0.0
 11
-22.8007978515
 21
-23.4144429704
 31
0.0
 11
-22.8008048643
 21
-23.2117685374
 31
0.0
 11
-22.800791742
 21
-23.0274540143
 31
0.0
 11
-22.8007467066
 21
-22.8698504662
 31
0.0
 11
-22.8005299422
 21
-22.7460987088
 31
0.0
 11
-22.8005709757
 21
-22.661805905
 31
0.0
 11
-22.8005758833
 21
-22.6207912206
 31
0.0
  0
SPLINE
  5
377
100
AcDbEntity
  8
RACCORDO
100
AcDbSpline
 62
253
  6
CONTINUOUS
 70
0
 71
3
 72
50
 73
46
 74
44
 42
0.0000001
 43
0.0000001
 44
0.0000000001
 12
13.0509657176
 22
0.0542870503
 32
0.0
 13
13.0510786239
 23
0.0000026144
 33
0.0
 40
0.0
 40
0.0
 40
0.0
 40
0.0
 40
0.0059900187
 40
0.0117761442
 40
0.017304934
 40
0.0226032168
 40
0.0277447352
 40
0.0328462204
 40
0.0379672773
 40
0.0431098181
 40
0.0483539913
 40
0.0539294594
 40
0.060083009
 40
0.067012109
 40
0.0747082734
 40
0.0830155304
 40
0.0918430489
 40
0.1012057221
 40
0.1111620021
 40
0.1218237648
 40
0.1333257706
 40
0.1458053485
 40
0.1593786323
 40
0.1741119398
 40
0.1900705628
 40
0.2073460305
 40
0.226061124
 40
0.2463429987
 40
0.2683154462
 40
0.2921069318
 40
0.3178486128
 40
0.3456769201
 40
0.3757452836
 40
0.4082379246
 40
0.4433432555
 40
0.481248625
 40
0.5221252783
 40
0.5662502774
 40
0.6140245211
 40
0.6658577012
 40
0.7221462491
 40
0.7832653143
 40
0.8494256956
 40
0.9213435766
 40
1.0
 40
1.0
 40
1.0
 40
1.0
 10
-22.8016464301
 20
-24.2214525372
 30
0.0
 10
-22.7755879206
 20
-24.2213441438
 30
0.0
 10
-22.724357914
 20
-24.2211283586
 30
0.0
 10
-22.6490758826
 20
-24.2208147041
 30
0.0
 10
-22.5768030789
 20
-24.2205247313
 30
0.0
 10
-22.5073344653
 20
-24.2202613675
 30
0.0
 10
-22.4397247207
 20
-24.220017593
 30
0.0
 10
-22.3728859293
 20
-24.2197875236
 30
0.0
 10
-22.3060426555
 20
-24.2195676359
 30
0.0
 10
-22.2385786111
 20
-24.2193550966
 30
0.0
 10
-22.1691376963
 20
-24.2191453961
 30
0.0
 10
-22.0952985228
 20
-24.2189316642
 30
0.0
 10
-22.0141293137
 20
-24.2187068831
 30
0.0
 10
-21.9237343165
 20
-24.2184682024
 30
0.0
 10
-21.8239699174
 20
-24.218217713
 30
0.0
 10
-21.7159467068
 20
-24.2179605458
 30
0.0
 10
-21.6006735679
 20
-24.2177019561
 30
0.0
 10
-21.4782265653
 20
-24.2174449498
 30
0.0
 10
-21.3477999185
 20
-24.2171909282
 30
0.0
 10
-21.2080663823
 20
-24.2169408539
 30
0.0
 10
-21.057355568
 20
-24.2166961142
 30
0.0
 10
-20.8939785644
 20
-24.2164581805
 30
0.0
 10
-20.7165442114
 20
-24.2162288894
 30
0.0
 10
-20.5239747378
 20
-24.2160097025
 30
0.0
 10
-20.315299411
 20
-24.2158029594
 30
0.0
 10
-20.089301863
 20
-24.2156102427
 30
0.0
 10
-19.8444965978
 20
-24.2154337646
 30
0.0
 10
-19.5792577649
 20
-24.2152760537
 30
0.0
 10
-19.2919347866
 20
-24.2151392477
 30
0.0
 10
-18.9808596761
 20
-24.2150252218
 30
0.0
 10
-18.6443094616
 20
-24.2149340809
 30
0.0
 10
-18.2804525666
 20
-24.2148630823
 30
0.0
 10
-17.8872265656
 20
-24.2148066138
 30
0.0
 10
-17.4623428936
 20
-24.2147670594
 30
0.0
 10
-17.0033654264
 20
-24.2147449047
 30
0.0
 10
-16.5079144906
 20
-24.2147390037
 30
0.0
 10
-15.9732247551
 20
-24.2147446436
 30
0.0
 10
-15.3956018685
 20
-24.2147454476
 30
0.0
 10
-14.7703141514
 20
-24.214713355
 30
0.0
 10
-14.0921106303
 20
-24.2146074119
 30
0.0
 10
-13.3558523551
 20
-24.2144110856
 30
0.0
 10
-12.5572656397
 20
-24.2140970356
 30
0.0
 10
-11.6906857262
 20
-24.2137236656
 30
0.0
 10
-10.74781197
 20
-24.213402354
 30
0.0
 10
-10.0927596056
 20
-24.2133163477
 30
0.0
 10
-9.7505758836
 20
-24.2133162791
 30
0.0
 11
-22.8016464301
 21
-24.2214525372
 31
0.0
 11
-22.7234709105
 21
-24.2211252281
 31
0.0
 11
-22.6479563816
 21
-24.2208120246
 31
0.0
 11
-22.575800288
 21
-24.2205234232
 31
0.0
 11
-22.5066524804
 21
-24.220260952
 31
0.0
 11
-22.4395505571
 21
-24.2200188002
 31
0.0
 11
-22.3729710665
 21
-24.2197895062
 31
0.0
 11
-22.3061361133
 21
-24.2195694906
 31
0.0
 11
-22.2390207415
 21
-24.2193579357
 31
0.0
 11
-22.1705789376
 21
-24.2191511337
 31
0.0
 11
-22.0978133707
 21
-24.2189403879
 31
0.0
 11
-22.0175032194
 21
-24.2187178491
 31
0.0
 11
-21.9270713064
 21
-24.2184788645
 31
0.0
 11
-21.826628376
 21
-24.2182264834
 31
0.0
 11
-21.7182100195
 21
-24.2179683412
 31
0.0
 11
-21.6030016717
 21
-24.217709869
 31
0.0
 11
-21.4808089567
 21
-24.2174533566
 31
0.0
 11
-21.3508690098
 21
-24.2172002096
 31
0.0
 11
-21.2117217293
 21
-24.2169510939
 31
0.0
 11
-21.0616083466
 21
-24.2167070415
 31
0.0
 11
-20.8987365676
 21
-24.2164693771
 31
0.0
 11
-20.7215907218
 21
-24.2162397722
 31
0.0
 11
-20.5293052929
 21
-24.2160203076
 31
0.0
 11
-20.3210281517
 21
-24.2158132358
 31
0.0
 11
-20.0955647468
 21
-24.2156203395
 31
0.0
 11
-19.851312654
 21
-24.2154436129
 31
0.0
 11
-19.5866123609
 21
-24.2152854437
 31
0.0
 11
-19.2998482535
 21
-24.2151480449
 31
0.0
 11
-18.989343725
 21
-24.2150330914
 31
0.0
 11
-18.6533870351
 21
-24.2149406117
 31
0.0
 11
-18.2901976157
 21
-24.214867982
 31
0.0
 11
-17.8977730437
 21
-24.2148113037
 31
0.0
 11
-17.4737090338
 21
-24.2147711632
 31
0.0
 11
-17.0155466011
 21
-24.2147481626
 31
0.0
 11
-16.5208406437
 21
-24.2147409395
 31
0.0
 11
-15.9873562271
 21
-24.2147437116
 31
0.0
 11
-15.4114773945
 21
-24.2147405667
 31
0.0
 11
-14.7879719851
 21
-24.2147038059
 31
0.0
 11
-14.1114930848
 21
-24.2145985007
 31
0.0
 11
-13.3768668459
 21
-24.214401826
 31
0.0
 11
-12.5791971779
 21
-24.2141008599
 31
0.0
 11
-11.7157329126
 21
-24.2137468796
 31
0.0
 11
-10.7771270416
 21
-24.2134436476
 31
0.0
 11
-9.7505758836
 21
-24.2133162791
 31
0.0
  0
SPLINE
  5
378
100
AcDbEntity
  8
RACCORDO
100
AcDbSpline
 62
253
  6
CONTINUOUS
 70
0
 71
3
 72
11
 73
7
 74
5
 42
0.0000001
 43
0.0000001
 44
0.0000000001
 12
-0.0020327145
 22
1.6888797725
 32
0.0
 13
0.0003313104
 23
1.6888809633
 33
0.0
 40
0.0
 40
0.0
 40
0.0
 40
0.0
 40
0.2670557309
 40
0.526648238
 40
0.772840023
 40
1.0
 40
1.0
 40
1.0
 40
1.0
 10
31.2496154307
 20
-25.9021969189
 30
0.0
 10
31.2494344814
 20
-25.7518552449
 30
0.0
 10
31.2491762529
 20
-25.4553732162
 30
0.0
 10
31.2493283148
 20
-25.0202949278
 30
0.0
 10
31.2493511053
 20
-24.6076763855
 30
0.0
 10
31.2494013909
 20
-24.3411981233
 30
0.0
 10
31.2494264777
 20
-24.2133160697
 30
0.0
 11
31.2496154307
 21
-25.9021969189
 31
0.0
 11
31.2492656382
 21
-25.4511717057
 31
0.0
 11
31.2493088794
 21
-25.012750856
 31
0.0
 11
31.2493613182
 21
-24.5969622324
 31
0.0
 11
31.2494264777
 21
-24.2133160697
 31
0.0
  0
SPLINE
  5
379
100
AcDbEntity
  8
RACCORDO
100
AcDbSpline
 62
253
  6
CONTINUOUS
 70
0
 71
3
 72
11
 73
7
 74
5
 42
0.0000001
 43
0.0000001
 44
0.0000000001
 12
-1.6140727008
 22
-0.0016595517
 32
0.0
 13
-1.6140695926
 23
-0.0035759788
 33
0.0
 40
0.0
 40
0.0
 40
0.0
 40
0.0
 40
0.2713209614
 40
0.5322020585
 40
0.7768929081
 40
1.0
 40
1.0
 40
1.0
 40
1.0
 10
47.960297463
 20
-22.2161917698
 30
0.0
 10
47.8143202107
 20
-22.2163418602
 30
0.0
 10
47.5279826397
 20
-22.2166702967
 30
0.0
 10
47.1099956119
 20
-22.2172553857
 30
0.0
 10
46.7179489708
 20
-22.2179136272
 30
0.0
 10
46.4662627068
 20
-22.2184176647
 30
0.0
 10
46.3462259158
 20
-22.2186836068
 30
0.0
 11
47.960297463
 21
-22.2161917698
 31
0.0
 11
47.5223657644
 21
-22.2166955493
 31
0.0
 11
47.1012849012
 21
-22.2172878013
 31
0.0
 11
46.7063364363
 21
-22.2179554119
 31
0.0
 11
46.3462259158
 21
-22.2186836068
 31
0.0
  0
SPLINE
  5
37A
100
AcDbEntity
  8
RACCORDO
100
AcDbSpline
 62
253
  6
CONTINUOUS
 70
0
 71
3
 72
11
 73
7
 74
5
 42
0.0000001
 43
0.0000001
 44
0.0000000001
 12
-1.6118961598
 22
0.0019550799
 32
0.0
 13
-1.6118926692
 23
0.0038826884
 33
0.0
 40
0.0
 40
0.0
 40
0.0
 40
0.0
 40
0.2713599057
 40
0.5322464258
 40
0.7769205716
 40
1.0
 40
1.0
 40
1.0
 40
1.0
 10
47.9585698082
 20
22.2816846986
 30
0.0
 10
47.8127684782
 20
22.2818615421
 30
0.0
 10
47.526793195
 20
22.2822425779
 30
0.0
 10
47.10935498
 20
22.2829049594
 30
0.0
 10
46.7178579799
 20
22.2836362672
 30
0.0
 10
46.4665349965
 20
22.2841877062
 30
0.0
 10
46.3466749647
 20
22.2844764222
 30
0.0
 11
47.9585698082
 21
22.2816846986
 31
0.0
 11
47.5211658867
 21
22.2822689844
 31
0.0
 11
47.1006441315
 21
22.2829391221
 31
0.0
 11
46.706255222
 21
22.2836803701
 31
0.0
 11
46.3466749647
 21
22.2844764222
 31
0.0
  0
LINE
  5
37B
100
AcDbEntity
  8
RACCORDO
100
AcDbLine
 62
253
  6
CONTINUOUS
 10
-9.7505759281
 20
25.9682716481
 11
-9.7511660518
 21
24.2793909169
  0
SPLINE
  5
37C
100
AcDbEntity
  8
RACCORDO
100
AcDbSpline
 62
253
  6
CONTINUOUS
 70
0
 71
3
 72
11
 73
7
 74
5
 42
0.0000001
 43
0.0000001
 44
0.0000000001
 12
1.6119482584
 22
0.0023904946
 32
0.0
 13
1.6119441666
 23
0.004348089
 33
0.0
 40
0.0
 40
0.0
 40
0.0
 40
0.0
 40
0.2713615261
 40
0.532248891
 40
0.7769226351
 40
1.0
 40
1.0
 40
1.0
 40
1.0
 10
-26.4597978576
 20
22.2808072732
 30
0.0
 10
-26.3139909445
 20
22.2810235026
 30
0.0
 10
-26.0280051037
 20
22.2814823728
 30
0.0
 10
-25.6105523346
 20
22.2822601034
 30
0.0
 10
-25.2190436294
 20
22.2831013126
 30
0.0
 10
-24.9677139235
 20
22.2837245333
 30
0.0
 10
-24.8478511711
 20
22.2840478534
 30
0.0
 11
-26.4597978576
 21
22.2808072732
 31
0.0
 11
-26.0223772027
 21
22.2815106206
 31
0.0
 11
-25.6018405421
 21
22.2822969931
 31
0.0
 11
-25.207439613
 21
22.2831490118
 31
0.0
 11
-24.8478511711
 21
22.2840478534
 31
0.0
  0
SPLINE
  5
37D
100
AcDbEntity
  8
RACCORDO
100
AcDbSpline
 62
253
  6
CONTINUOUS
 70
0
 71
3
 72
11
 73
7
 74
5
 42
0.0000001
 43
0.0000001
 44
0.0000000001
 12
1.6119491295
 22
-0.0027345525
 32
0.0
 13
1.6119442824
 23
-0.0048066893
 33
0.0
 40
0.0
 40
0.0
 40
0.0
 40
0.0
 40
0.2713614891
 40
0.5322488424
 40
0.7769225993
 40
1.0
 40
1.0
 40
1.0
 40
1.0
 10
-26.4597981513
 20
-22.213830152
 30
0.0
 10
-26.3139911792
 20
-22.2140775027
 30
0.0
 10
-26.0280052214
 20
-22.2145998709
 30
0.0
 10
-25.6105523014
 20
-22.2154774135
 30
0.0
 10
-25.2190434598
 20
-22.2164189794
 30
0.0
 10
-24.9677136863
 20
-22.2171111211
 30
0.0
 10
-24.8478509061
 20
-22.2174685423
 30
0.0
 11
-26.4597981513
 21
-22.213830152
 31
0.0
 11
-26.0223773381
 21
-22.2146306369
 31
0.0
 11
-25.6018405264
 21
-22.2155176328
 31
0.0
 11
-25.2074394614
 21
-22.2164708835
 31
0.0
 11
-24.8478509061
 21
-22.2174685423
 31
0.0
  0
SPLINE
  5
37E
100
AcDbEntity
  8
RACCORDO
100
AcDbSpline
 62
253
  6
CONTINUOUS
 70
0
 71
3
 72
13
 73
9
 74
7
 42
0.0000001
 43
0.0000001
 44
0.0000000001
 12
-0.506539618
 22
0.6803697729
 32
0.0
 13
-0.8481328243
 23
0.0124949905
 33
0.0
 40
0.0
 40
0.0
 40
0.0
 40
0.0
 40
0.0478094246
 40
0.1514905131
 40
0.3073461948
 40
0.5077630204
 40
0.7426292392
 40
1.0
 40
1.0
 40
1.0
 40
1.0
 10
58.014263052
 20
44.533037422
 30
0.0
 10
58.0061905961
 20
44.5438801178
 30
0.0
 10
57.958601245
 20
44.5516900772
 30
0.0
 10
57.8773840935
 20
44.5676706035
 30
0.0
 10
57.7455420869
 20
44.5785725496
 30
0.0
 10
57.579637092
 20
44.5896537985
 30
0.0
 10
57.383621564
 20
44.5973750911
 30
0.0
 10
57.2445542395
 20
44.6005621356
 30
0.0
 10
57.1717927094
 20
44.601634084
 30
0.0
 11
58.014263052
 21
44.533037422
 31
0.0
 11
57.9769055387
 21
44.5488163182
 31
0.0
 11
57.8902440554
 21
44.563785909
 31
0.0
 11
57.7587234991
 21
44.5771783984
 31
0.0
 11
57.589089604
 21
44.5883068805
 31
0.0
 11
57.3900429505
 21
44.5966005713
 31
0.0
 11
57.1717927094
 21
44.601634084
 31
0.0
  0
SPLINE
  5
37F
100
AcDbEntity
  8
RACCORDO
100
AcDbSpline
 62
253
  6
CONTINUOUS
 70
0
 71
3
 72
13
 73
9
 74
7
 42
0.0000001
 43
0.0000001
 44
0.0000000001
 12
0.4456386742
 22
-0.7260854162
 32
0.0
 13
0.0055160036
 23
-0.8519175038
 33
0.0
 40
0.0
 40
0.0
 40
0.0
 40
0.0
 40
0.0451354707
 40
0.1483221713
 40
0.3045658638
 40
0.5058368924
 40
0.741722723
 40
1.0
 40
1.0
 40
1.0
 40
1.0
 10
55.2494241162
 20
47.2998078883
 30
0.0
 10
55.25612882
 20
47.2888838193
 30
0.0
 10
55.2563443906
 20
47.2442217084
 30
0.0
 10
55.2663475493
 20
47.1601952746
 30
0.0
 10
55.2699847858
 20
47.0283467988
 30
0.0
 10
55.275596445
 20
46.8603458476
 30
0.0
 10
55.2789265247
 20
46.6627320244
 30
0.0
 10
55.2804090362
 20
46.5224450223
 30
0.0
 10
55.2808839223
 20
46.449101378
 30
0.0
 11
55.2494241162
 21
47.2998078883
 31
0.0
 11
55.2566911703
 21
47.2620483207
 31
0.0
 11
55.2635809938
 21
47.1744103326
 31
0.0
 11
55.269735938
 21
47.0414431835
 31
0.0
 11
55.2748365038
 21
46.8700491549
 31
0.0
 11
55.2786179268
 21
46.6691252549
 31
0.0
 11
55.2808839223
 21
46.449101378
 31
0.0
  0
SPLINE
  5
380
100
AcDbEntity
  8
RACCORDO
100
AcDbSpline
 62
253
  6
CONTINUOUS
 70
0
 71
3
 72
13
 73
9
 74
7
 42
0.0000001
 43
0.0000001
 44
0.0000000001
 12
-0.4732954763
 22
-0.7108035366
 32
0.0
 13
-0.0059421613
 23
-0.8539408447
 33
0.0
 40
0.0
 40
0.0
 40
0.0
 40
0.0
 40
0.0452687498
 40
0.1485152799
 40
0.3047900055
 40
0.5060540997
 40
0.7418737035
 40
1.0
 40
1.0
 40
1.0
 40
1.0
 10
-33.7505758836
 20
47.2997639096
 30
0.0
 10
-33.7577177151
 20
47.2890381804
 30
0.0
 10
-33.7582413505
 20
47.243914774
 30
0.0
 10
-33.7688719657
 20
47.1599354839
 30
0.0
 10
-33.7729393428
 20
47.0276318843
 30
0.0
 10
-33.7789816479
 20
46.8593085985
 30
0.0
 10
-33.7826063735
 20
46.6612749384
 30
0.0
 10
-33.7842048237
 20
46.5207217035
 30
0.0
 10
-33.7847160998
 20
46.4472468409
 30
0.0
 11
-33.7505758836
 21
47.2997639096
 31
0.0
 11
-33.7584695464
 21
47.2619206368
 31
0.0
 11
-33.7659523585
 21
47.1740701779
 31
0.0
 11
-33.7726348532
 21
47.0407849901
 31
0.0
 11
-33.7781692189
 21
46.8690023265
 31
0.0
 11
-33.782267402
 21
46.6676631637
 31
0.0
 11
-33.7847160998
 21
46.4472468409
 31
0.0
  0
SPLINE
  5
381
100
AcDbEntity
  8
RACCORDO
100
AcDbSpline
 62
253
  6
CONTINUOUS
 70
0
 71
3
 72
13
 73
9
 74
7
 42
0.0000001
 43
0.0000001
 44
0.0000000001
 12
0.5068964105
 22
0.6799600093
 32
0.0
 13
0.8480175431
 23
0.0124832673
 33
0.0
 40
0.0
 40
0.0
 40
0.0
 40
0.0
 40
0.047800816
 40
0.1514781703
 40
0.3073322009
 40
0.5077497854
 40
0.7426202333
 40
1.0
 40
1.0
 40
1.0
 40
1.0
 10
-36.5154089523
 20
44.5330374218
 30
0.0
 10
-36.5073322649
 20
44.5438716363
 30
0.0
 10
-36.4597532314
 20
44.5516586904
 30
0.0
 10
-36.3785463137
 20
44.5676263217
 30
0.0
 10
-36.2467233445
 20
44.5785088397
 30
0.0
 10
-36.0808388242
 20
44.5895772895
 30
0.0
 10
-35.8848458292
 20
44.5972882903
 30
0.0
 10
-35.7457936065
 20
44.6004719622
 30
0.0
 10
-35.6730394208
 20
44.6015429424
 30
0.0
 11
-36.5154089523
 21
44.5330374218
 31
0.0
 11
-36.4780561504
 21
44.548794513
 31
0.0
 11
-36.391406478
 21
44.5637435448
 31
0.0
 11
-36.2599035679
 21
44.5771178896
 31
0.0
 11
-36.0902912503
 21
44.5882316746
 31
0.0
 11
-35.8912677101
 21
44.596514955
 31
0.0
 11
-35.6730394208
 21
44.6015429424
 31
0.0
  0
SPLINE
  5
382
100
AcDbEntity
  8
RACCORDO
100
AcDbSpline
 62
253
  6
CONTINUOUS
 70
0
 71
3
 72
13
 73
9
 74
7
 42
0.0000001
 43
0.0000001
 44
0.0000000001
 12
0.5068999029
 22
-0.679961411
 32
0.0
 13
0.8480207546
 23
-0.0124832614
 33
0.0
 40
0.0
 40
0.0
 40
0.0
 40
0.0
 40
0.0478008454
 40
0.1514782615
 40
0.3073323559
 40
0.5077499729
 40
0.7426203829
 40
1.0
 40
1.0
 40
1.0
 40
1.0
 10
-36.5154122919
 20
-44.466962578
 30
0.0
 10
-36.5073355439
 20
-44.4777968214
 30
0.0
 10
-36.4597563129
 20
-44.4855838581
 30
0.0
 10
-36.3785490249
 20
-44.5015515255
 30
0.0
 10
-36.2467255153
 20
-44.5124340408
 30
0.0
 10
-36.0808403452
 20
-44.523502499
 30
0.0
 10
-35.8848466522
 20
-44.5312134987
 30
0.0
 10
-35.7457939555
 20
-44.53439717
 30
0.0
 10
-35.6730395364
 20
-44.535468149
 30
0.0
 11
-36.5154122919
 21
-44.466962578
 31
0.0
 11
-36.4780593055
 21
-44.4827196909
 31
0.0
 11
-36.3914092448
 21
-44.4976687386
 31
0.0
 11
-36.2599057783
 21
-44.5110430937
 31
0.0
 11
-36.0902927885
 21
-44.5221568838
 31
0.0
 11
-35.8912685257
 21
-44.5304401647
 31
0.0
 11
-35.6730395364
 21
-44.535468149
 31
0.0
  0
SPLINE
  5
383
100
AcDbEntity
  8
RACCORDO
100
AcDbSpline
 62
253
  6
CONTINUOUS
 70
0
 71
3
 72
13
 73
9
 74
7
 42
0.0000001
 43
0.0000001
 44
0.0000000001
 12
-0.4732948534
 22
0.7108028667
 32
0.0
 13
-0.0059422202
 23
0.8539399414
 33
0.0
 40
0.0
 40
0.0
 40
0.0
 40
0.0
 40
0.045268694
 40
0.1485151863
 40
0.3047898938
 40
0.5060539942
 40
0.7418736336
 40
1.0
 40
1.0
 40
1.0
 40
1.0
 10
-33.7505758836
 20
-47.2336881644
 30
0.0
 10
-33.7577176969
 20
-47.2229624586
 30
0.0
 10
-33.7582413001
 20
-47.1778391237
 30
0.0
 10
-33.7688719106
 20
-47.0938599564
 30
0.0
 10
-33.7729392824
 20
-46.9615565095
 30
0.0
 10
-33.7789816045
 20
-46.7932333963
 30
0.0
 10
-33.7826063527
 20
-46.595199914
 30
0.0
 10
-33.7842048177
 20
-46.4546467979
 30
0.0
 10
-33.7847160989
 20
-46.3811719931
 30
0.0
 11
-33.7505758836
 21
-47.2336881644
 31
0.0
 11
-33.7584695105
 21
-47.1958449746
 31
0.0
 11
-33.7659523031
 21
-47.10799464
 31
0.0
 11
-33.7726347957
 21
-46.9747096089
 31
0.0
 11
-33.7781691746
 21
-46.8029271222
 31
0.0
 11
-33.78226738
 21
-46.6015881424
 31
0.0
 11
-33.7847160989
 21
-46.3811719931
 31
0.0
  0
SPLINE
  5
384
100
AcDbEntity
  8
RACCORDO
100
AcDbSpline
 62
7
  6
CONTINUOUS
 70
0
 71
3
 72
15
 73
11
 74
9
 42
0.0000001
 43
0.0000001
 44
0.0000000001
 12
0.011089572
 22
-0.0161133897
 32
0.0
 13
0.0063237861
 23
-0.0181761109
 33
0.0
 40
0.0
 40
0.0
 40
0.0
 40
0.0
 40
0.1206565547
 40
0.3392715532
 40
0.5431434145
 40
0.6871761803
 40
0.7814793555
 40
0.8655855651
 40
0.9808703221
 40
1.0
 40
1.0
 40
1.0
 40
1.0
 10
-53.2459191231
 20
46.5305749669
 30
0.0
 10
-53.2454731132
 20
46.5299269049
 30
0.0
 10
-53.2442179114
 20
46.5281052362
 30
0.0
 10
-53.2421841205
 20
46.525205739
 30
0.0
 10
-53.2399853591
 20
46.5222365368
 30
0.0
 10
-53.2383488557
 20
46.519863031
 30
0.0
 10
-53.2367707893
 20
46.5184115081
 30
0.0
 10
-53.2360970142
 20
46.5165818652
 30
0.0
 10
-53.2350252738
 20
46.5155400099
 30
0.0
 10
-53.2347042398
 20
46.5147431724
 30
0.0
 10
-53.2346639158
 20
46.5146272713
 30
0.0
 11
-53.2459191231
 21
46.5305749669
 31
0.0
 11
-53.2445784062
 21
46.5286325394
 31
0.0
 11
-53.2421134522
 21
46.5251380342
 31
0.0
 11
-53.2397746675
 21
46.521907827
 31
0.0
 11
-53.238060946
 21
46.5196714694
 31
0.0
 11
-53.2368504836
 21
46.518279465
 31
0.0
 11
-53.2360759325
 21
46.5168279675
 31
0.0
 11
-53.2348024682
 21
46.5149668227
 31
0.0
 11
-53.2346639158
 21
46.5146272713
 31
0.0
  0
LINE
  5
385
100
AcDbEntity
  8
RACCORDO
100
AcDbLine
 62
7
  6
CONTINUOUS
 10
-56.611853677
 20
-24.2133162133
 11
-56.6106831632
 21
-24.2148538695
  0
LINE
  5
386
100
AcDbEntity
  8
RACCORDO
100
AcDbLine
 62
7
  6
CONTINUOUS
 10
-56.6053163374
 20
24.2875198791
 11
-56.6107424017
 21
24.2808651945
  0
LINE
  5
387
100
AcDbEntity
  8
RACCORDO
100
AcDbLine
 62
7
  6
CONTINUOUS
 10
-56.6080586716
 20
24.2842596377
 11
-56.6061476572
 21
24.2865683893
  0
SPLINE
  5
388
100
AcDbEntity
  8
RACCORDO
100
AcDbSpline
 62
7
  6
CONTINUOUS
 70
0
 71
3
 72
9
 73
5
 74
3
 42
0.0000001
 43
0.0000001
 44
0.0000000001
 12
-0.00419996
 22
0.0005669948
 32
0.0
 13
-0.0033739021
 23
-0.0065114892
 33
0.0
 40
0.0
 40
0.0
 40
0.0
 40
0.0
 40
0.2615329642
 40
1.0
 40
1.0
 40
1.0
 40
1.0
 10
-56.0177706145
 20
25.9691461216
 30
0.0
 10
-56.0181367572
 20
25.9691955509
 30
0.0
 10
-56.019567952
 20
25.9696246445
 30
0.0
 10
-56.0209840446
 20
25.9698744929
 30
0.0
 10
-56.0218145498
 20
25.9682716528
 30
0.0
 11
-56.0177706145
 21
25.9691461216
 31
0.0
 11
-56.0188843334
 21
25.9694077349
 31
0.0
 11
-56.0218145498
 21
25.9682716528
 31
0.0
  0
LINE
  5
389
100
AcDbEntity
  8
RACCORDO
100
AcDbLine
 62
7
  6
CONTINUOUS
 10
-56.6105766897
 20
-24.2149935087
 11
-56.60529812
 21
-24.2214525679
  0
SPLINE
  5
38A
100
AcDbEntity
  8
RACCORDO
100
AcDbSpline
 62
253
  6
CONTINUOUS
 70
0
 71
3
 72
59
 73
55
 74
53
 42
0.0000001
 43
0.0000001
 44
0.0000000001
 12
-2.0610640829
 22
-32.7551126632
 32
0.0
 13
0.0000100096
 23
-32.8198932163
 33
0.0
 40
0.0
 40
0.0
 40
0.0
 40
0.0
 40
0.0042030412
 40
0.0084989836
 40
0.0128632295
 40
0.01726426
 40
0.021668508
 40
0.0260541055
 40
0.0304078425
 40
0.0347196953
 40
0.0389829814
 40
0.0431903459
 40
0.047344863
 40
0.0514742284
 40
0.0556071692
 40
0.0597459863
 40
0.0639375983
 40
0.0683445556
 40
0.073185104
 40
0.0786398162
 40
0.0847303357
 40
0.0913164219
 40
0.0982959166
 40
0.1056619344
 40
0.1134599792
 40
0.1217845895
 40
0.1307575833
 40
0.1404950385
 40
0.1510906045
 40
0.1626027825
 40
0.1750870457
 40
0.1886025036
 40
0.2032178924
 40
0.2190107551
 40
0.2360700404
 40
0.2544962313
 40
0.274401713
 40
0.2959012288
 40
0.3191177663
 40
0.3441940237
 40
0.3712991666
 40
0.4006037004
 40
0.4322653758
 40
0.4664513732
 40
0.503341076
 40
0.5431396363
 40
0.5860956591
 40
0.6324841397
 40
0.6826103566
 40
0.7367603004
 40
0.7952194508
 40
0.8583208515
 40
0.9264444584
 40
1.0
 40
1.0
 40
1.0
 40
1.0
 10
-53.2292410416
 20
44.6016340825
 30
0.0
 10
-53.2321286207
 20
44.5557437202
 30
0.0
 10
-53.2377686481
 20
44.462935978
 30
0.0
 10
-53.2456110736
 20
44.3224307915
 30
0.0
 10
-53.2527430125
 20
44.1797185144
 30
0.0
 10
-53.2588978811
 20
44.0357748202
 30
0.0
 10
-53.2642089635
 20
43.8915641044
 30
0.0
 10
-53.2686799486
 20
43.7478425906
 30
0.0
 10
-53.2724137981
 20
43.6051114288
 30
0.0
 10
-53.2755586374
 20
43.463704708
 30
0.0
 10
-53.2783213656
 20
43.3238918146
 30
0.0
 10
-53.2809101474
 20
43.1857971775
 30
0.0
 10
-53.283658963
 20
43.0491710059
 30
0.0
 10
-53.2862659734
 20
42.9133563986
 30
0.0
 10
-53.2887274578
 20
42.7777108577
 30
0.0
 10
-53.2910590169
 20
42.6413819463
 30
0.0
 10
-53.2932926075
 20
42.502053268
 30
0.0
 10
-53.2954862639
 20
42.3550461329
 30
0.0
 10
-53.2976949942
 20
42.1942195179
 30
0.0
 10
-53.2999231371
 20
42.0149734585
 30
0.0
 10
-53.3021078422
 20
41.8166294477
 30
0.0
 10
-53.3041605158
 20
41.6016021276
 30
0.0
 10
-53.3060156913
 20
41.3726186243
 30
0.0
 10
-53.3076589786
 20
41.130374406
 30
0.0
 10
-53.3090879787
 20
40.8734130703
 30
0.0
 10
-53.3102795549
 20
40.598870089
 30
0.0
 10
-53.3112451458
 20
40.303109028
 30
0.0
 10
-53.3119940439
 20
39.9825031106
 30
0.0
 10
-53.3126238635
 20
39.6341183329
 30
0.0
 10
-53.3133271573
 20
39.2556836589
 30
0.0
 10
-53.3142066811
 20
38.8453057488
 30
0.0
 10
-53.3148723881
 20
38.4009783651
 30
0.0
 10
-53.3153734086
 20
37.9204547851
 30
0.0
 10
-53.3155902558
 20
37.4011616446
 30
0.0
 10
-53.3156787972
 20
36.8401784488
 30
0.0
 10
-53.31562587
 20
36.2342033346
 30
0.0
 10
-53.315356254
 20
35.5796523073
 30
0.0
 10
-53.3148642467
 20
34.8726951846
 30
0.0
 10
-53.31440563
 20
34.1091699207
 30
0.0
 10
-53.3141596216
 20
33.2843191908
 30
0.0
 10
-53.3141596416
 20
32.3928659428
 30
0.0
 10
-53.3146746863
 20
31.4293685892
 30
0.0
 10
-53.3155280986
 20
30.3884071827
 30
0.0
 10
-53.3166200098
 20
29.2644644758
 30
0.0
 10
-53.3179431178
 20
28.0515047324
 30
0.0
 10
-53.3193980448
 20
26.7426013123
 30
0.0
 10
-53.3208219618
 20
25.3297815072
 30
0.0
 10
-53.3221570859
 20
23.8039773686
 30
0.0
 10
-53.3232352444
 20
22.1557118916
 30
0.0
 10
-53.3240013048
 20
20.3753935355
 30
0.0
 10
-53.324588015
 20
18.4531270632
 30
0.0
 10
-53.3250577066
 20
16.377989177
 30
0.0
 10
-53.3253401811
 20
14.137697272
 30
0.0
 10
-53.3253885347
 20
12.587732429
 30
0.0
 10
-53.3253882893
 20
11.783037422
 30
0.0
 11
-53.2292410416
 21
44.6016340825
 31
0.0
 11
-53.2375948928
 21
44.4639439072
 31
0.0
 11
-53.2454338149
 21
44.3231696182
 31
0.0
 11
-53.2525519525
 21
44.1801125142
 31
0.0
 11
-53.2587540035
 21
44.0358043763
 31
0.0
 11
-53.2640786183
 21
43.8913555307
 31
0.0
 11
-53.2685717848
 21
43.7474908397
 31
0.0
 11
-53.2723320486
 21
43.6046511401
 31
0.0
 11
-53.2755116771
 21
43.4631723183
 31
0.0
 11
-53.2783096684
 21
43.3232797023
 31
0.0
 11
-53.2809527596
 21
43.1852197469
 31
0.0
 11
-53.2836434509
 21
43.0488954892
 31
0.0
 11
-53.2862415529
 21
42.913395063
 31
0.0
 11
-53.2887027176
 21
42.7777747182
 31
0.0
 11
-53.2910250491
 21
42.6419590378
 31
0.0
 11
-53.2932300641
 21
42.5044084511
 31
0.0
 11
-53.295388191
 21
42.3597886858
 31
0.0
 11
-53.2975702944
 21
42.2009373896
 31
0.0
 11
-53.2997967678
 21
42.0219281644
 31
0.0
 11
-53.3020011227
 21
41.8220501178
 31
0.0
 11
-53.3040689145
 21
41.6059053654
 31
0.0
 11
-53.3059324682
 21
41.3768466729
 31
0.0
 11
-53.3075790687
 21
41.1351003629
 31
0.0
 11
-53.3090055673
 21
40.8791733427
 31
0.0
 11
-53.3102016342
 21
40.60596314
 31
0.0
 11
-53.3111741138
 21
40.3114720455
 31
0.0
 11
-53.3119451763
 21
39.9918907369
 31
0.0
 11
-53.3126085463
 21
39.6441460245
 31
0.0
 11
-53.3133245999
 21
39.2663182499
 31
0.0
 11
-53.3141402061
 21
38.8565868786
 31
0.0
 11
-53.3148219958
 21
38.4130115164
 31
0.0
 11
-53.3153119406
 21
37.933336267
 31
0.0
 11
-53.3155628965
 21
37.4150162593
 31
0.0
 11
-53.31565444
 21
36.8551323441
 31
0.0
 11
-53.3155958325
 21
36.2503867317
 31
0.0
 11
-53.3153337007
 21
35.5970910009
 31
0.0
 11
-53.314888096
 21
34.8914793288
 31
0.0
 11
-53.314454776
 21
34.1295151698
 31
0.0
 11
-53.3142055632
 21
33.306515116
 31
0.0
 11
-53.3142358036
 21
32.4169272215
 31
0.0
 11
-53.3147048616
 21
31.4551556669
 31
0.0
 11
-53.3155307186
 21
30.4160231895
 31
0.0
 11
-53.316612736
 21
29.2940429247
 31
0.0
 11
-53.3179124339
 21
28.0833275157
 31
0.0
 11
-53.3193379333
 21
26.7771437938
 31
0.0
 11
-53.3207541053
 21
25.3673324266
 31
0.0
 11
-53.3220674209
 21
23.8448680127
 31
0.0
 11
-53.3231474488
 21
22.1997312811
 31
0.0
 11
-53.3239453899
 21
20.4225360861
 31
0.0
 11
-53.3245482553
 21
18.5039131069
 31
0.0
 11
-53.325011991
 21
16.4329319274
 31
0.0
 11
-53.325298684
 21
14.1971224413
 31
0.0
 11
-53.3253882893
 21
11.783037422
 31
0.0
  0
SPLINE
  5
38B
100
AcDbEntity
  8
RACCORDO
100
AcDbSpline
 62
253
  6
CONTINUOUS
 70
0
 71
3
 72
11
 73
7
 74
5
 42
0.0000001
 43
0.0000001
 44
0.0000000001
 12
-0.0001386912
 22
10.4986631549
 32
0.0
 13
0.0149753943
 23
10.4986524753
 33
0.0
 40
0.0
 40
0.0
 40
0.0
 40
0.0
 40
0.2884920145
 40
0.549340953
 40
0.785921728
 40
1.0
 40
1.0
 40
1.0
 40
1.0
 10
-55.891246803
 20
11.783037422
 30
0.0
 10
-55.8912601401
 20
12.7926309165
 30
0.0
 10
-55.8884980453
 20
14.7150798126
 30
0.0
 10
-55.8800332803
 20
17.4654421238
 30
0.0
 10
-55.8749193689
 20
19.9553996909
 30
0.0
 10
-55.8759558401
 20
21.5325069053
 30
0.0
 10
-55.8748872046
 20
22.2816846986
 30
0.0
 11
-55.891246803
 21
11.783037422
 31
0.0
 11
-55.887489044
 21
14.8118155745
 31
0.0
 11
-55.880262019
 21
17.5503711781
 31
0.0
 11
-55.8759359307
 21
20.0341492768
 31
0.0
 11
-55.8748872046
 21
22.2816846986
 31
0.0
  0
LINE
  5
38C
100
AcDbEntity
  8
RACCORDO
100
AcDbLine
 62
253
  6
CONTINUOUS
 10
-55.8767243713
 20
22.7154989615
 11
-55.8773896049
 21
22.7782296312
  0
SPLINE
  5
38D
100
AcDbEntity
  8
RACCORDO
100
AcDbSpline
 62
253
  6
CONTINUOUS
 70
0
 71
3
 72
64
 73
60
 74
58
 42
0.0000001
 43
0.0000001
 44
0.0000000001
 12
-0.0365646019
 22
3.2103761501
 32
0.0
 13
-2.2897838766
 23
-2.2504971651
 33
0.0
 40
0.0
 40
0.0
 40
0.0
 40
0.0
 40
0.0180817951
 40
0.04254516
 40
0.0639801342
 40
0.083036559
 40
0.100595278
 40
0.1175124363
 40
0.1343169924
 40
0.151086767
 40
0.167690392
 40
0.1838763379
 40
0.2006845717
 40
0.2191604956
 40
0.2392033151
 40
0.260599744
 40
0.2829329524
 40
0.3051730813
 40
0.3261810421
 40
0.3450789485
 40
0.3621085051
 40
0.3777760226
 40
0.3925876509
 40
0.4069846654
 40
0.4211833045
 40
0.4352819358
 40
0.4492461169
 40
0.4631840329
 40
0.4775373888
 40
0.4927815809
 40
0.5093606915
 40
0.5277209174
 40
0.5483228745
 40
0.5714456411
 40
0.5959236376
 40
0.6201327125
 40
0.6438584117
 40
0.6674565032
 40
0.6906980346
 40
0.7131741003
 40
0.7347539645
 40
0.7554910957
 40
0.77556176
 40
0.7950497819
 40
0.8139315262
 40
0.8321280972
 40
0.8495166886
 40
0.8659584854
 40
0.8813580069
 40
0.8960829312
 40
0.9106760883
 40
0.9255415632
 40
0.9406608265
 40
0.9553873004
 40
0.9691441226
 40
0.9813754328
 40
0.9913000245
 40
0.9978992514
 40
1.0
 40
1.0
 40
1.0
 40
1.0
 10
-55.8773896049
 20
22.7782296312
 30
0.0
 10
-55.8776099894
 20
22.7975794191
 30
0.0
 10
-55.8781614486
 20
22.8431076993
 30
0.0
 10
-55.8791056099
 20
22.911572423
 30
0.0
 10
-55.880188026
 20
22.9810782623
 30
0.0
 10
-55.8812521291
 20
23.0431940912
 30
0.0
 10
-55.8823133598
 20
23.100474257
 30
0.0
 10
-55.8834016748
 20
23.1553435214
 30
0.0
 10
-55.884542891
 20
23.2093672003
 30
0.0
 10
-55.8857417582
 20
23.2630540044
 30
0.0
 10
-55.8869884931
 20
23.3160775034
 30
0.0
 10
-55.8882953749
 20
23.3691407238
 30
0.0
 10
-55.8897124093
 20
23.4242055308
 30
0.0
 10
-55.8913064235
 20
23.4833947166
 30
0.0
 10
-55.8931165514
 20
23.5474900734
 30
0.0
 10
-55.8951386151
 20
23.615709072
 30
0.0
 10
-55.8973283128
 20
23.6862756124
 30
0.0
 10
-55.8995925003
 20
23.7564238488
 30
0.0
 10
-55.9018216045
 20
23.8228948053
 30
0.0
 10
-55.9039272026
 20
23.8837904047
 30
0.0
 10
-55.9058897885
 20
23.9389721904
 30
0.0
 10
-55.9077381857
 20
23.9897821406
 30
0.0
 10
-55.909520445
 20
24.037775286
 30
0.0
 10
-55.9112743142
 20
24.0841964064
 30
0.0
 10
-55.9130295534
 20
24.1298538742
 30
0.0
 10
-55.9147895884
 20
24.1750475936
 30
0.0
 10
-55.9165660621
 20
24.2199614288
 30
0.0
 10
-55.9183769481
 20
24.2651467145
 30
0.0
 10
-55.9202699991
 20
24.3116996602
 30
0.0
 10
-55.9223064384
 20
24.3610756948
 30
0.0
 10
-55.9245491118
 20
24.4147349915
 30
0.0
 10
-55.927061367
 20
24.4741218701
 30
0.0
 10
-55.9299011704
 20
24.5405041326
 30
0.0
 10
-55.933053793
 20
24.6134262012
 30
0.0
 10
-55.9364258497
 20
24.6902026889
 30
0.0
 10
-55.9398602767
 20
24.7676223045
 30
0.0
 10
-55.9432860883
 20
24.8440996987
 30
0.0
 10
-55.9466806768
 20
24.9195419908
 30
0.0
 10
-55.9500264031
 20
24.9936477758
 30
0.0
 10
-55.9532554173
 20
25.0655967355
 30
0.0
 10
-55.9563095611
 20
25.134870634
 30
0.0
 10
-55.9591869263
 20
25.2015755499
 30
0.0
 10
-55.9618985704
 20
25.2660468191
 30
0.0
 10
-55.9644575424
 20
25.3285370894
 30
0.0
 10
-55.9668721017
 20
25.3890259143
 30
0.0
 10
-55.9691464314
 20
25.4472717172
 30
0.0
 10
-55.9712777018
 20
25.5029099025
 30
0.0
 10
-55.9732608605
 20
25.5555580913
 30
0.0
 10
-55.9751093961
 20
25.605358937
 30
0.0
 10
-55.9768626739
 20
25.6531826447
 30
0.0
 10
-55.978597828
 20
25.7004383858
 30
0.0
 10
-55.9803770086
 20
25.7481023577
 30
0.0
 10
-55.9822577232
 20
25.7959524075
 30
0.0
 10
-55.9841959629
 20
25.8424422278
 30
0.0
 10
-55.9864044841
 20
25.8864064491
 30
0.0
 10
-55.9882307229
 20
25.9234151595
 30
0.0
 10
-55.9915773116
 20
25.9577451594
 30
0.0
 10
-55.9918807049
 20
25.9704179918
 30
0.0
 10
-55.996071273
 20
25.9870464538
 30
0.0
 10
-55.997674693
 20
25.9854705442
 30
0.0
 11
-55.8773896049
 21
22.7782296312
 31
0.0
 11
-55.8780925294
 21
22.8362784984
 31
0.0
 11
-55.8791751657
 21
22.914812717
 31
0.0
 11
-55.8802465737
 21
22.983623155
 31
0.0
 11
-55.8812943942
 21
23.0447964285
 31
0.0
 11
-55.8823385863
 21
23.1011604941
 31
0.0
 11
-55.8834157708
 21
23.1554637642
 31
0.0
 11
-55.8845545287
 21
23.2094041789
 31
0.0
 11
-55.88575638
 21
23.2632315284
 31
0.0
 11
-55.8870090322
 21
23.3165241361
 31
0.0
 11
-55.8882883603
 21
23.3684747202
 31
0.0
 11
-55.8896767412
 21
23.4224210989
 31
0.0
 11
-55.8912736934
 21
23.4817180988
 31
0.0
 11
-55.8930901588
 21
23.5460416053
 31
0.0
 11
-55.8951244583
 21
23.6147065034
 31
0.0
 11
-55.8973463124
 21
23.6863747053
 31
0.0
 11
-55.8996504112
 21
23.7577413162
 31
0.0
 11
-55.901909603
 21
23.8251512858
 31
0.0
 11
-55.9040067962
 21
23.8857883401
 31
0.0
 11
-55.9059492986
 21
23.9404286392
 31
0.0
 11
-55.9077779973
 21
23.9906972636
 31
0.0
 11
-55.9095420931
 21
24.0382185036
 31
0.0
 11
-55.9112874531
 21
24.08440836
 31
0.0
 11
-55.9130374731
 21
24.1299606757
 31
0.0
 11
-55.9147997911
 21
24.1751911917
 31
0.0
 11
-55.9165710826
 21
24.2199893599
 31
0.0
 11
-55.9183634515
 21
24.2647022958
 31
0.0
 11
-55.9202355652
 21
24.3107469031
 31
0.0
 11
-55.9222518637
 21
24.3596481072
 31
0.0
 11
-55.9244737848
 21
24.4128303345
 31
0.0
 11
-55.9269643672
 21
24.471724738
 31
0.0
 11
-55.9297905622
 21
24.5378086395
 31
0.0
 11
-55.9329993912
 21
24.6119768358
 31
0.0
 11
-55.9364442659
 21
24.6904899543
 31
0.0
 11
-55.939888863
 21
24.7681388498
 31
0.0
 11
-55.9432947473
 21
24.8442360125
 31
0.0
 11
-55.9466997593
 21
24.9199231066
 31
0.0
 11
-55.9500599627
 21
24.9944662926
 31
0.0
 11
-55.9532887366
 21
25.0665553128
 31
0.0
 11
-55.9563381023
 21
25.1357721353
 31
0.0
 11
-55.9592055625
 21
25.2022886525
 31
0.0
 11
-55.9619127098
 21
25.2666703097
 31
0.0
 11
-55.9644731798
 21
25.3291858221
 31
0.0
 11
-55.9668924134
 21
25.389758951
 31
0.0
 11
-55.9691728053
 21
25.4481360425
 31
0.0
 11
-55.9713103994
 21
25.5039226322
 31
0.0
 11
-55.973297866
 21
25.5566729696
 31
0.0
 11
-55.975132325
 21
25.606080378
 31
0.0
 11
-55.9768683114
 21
25.6533240959
 31
0.0
 11
-55.978591762
 21
25.7001449393
 31
0.0
 11
-55.9803827385
 21
25.7478381753
 31
0.0
 11
-55.9822925417
 21
25.7963422517
 31
0.0
 11
-55.984313618
 21
25.8435796122
 31
0.0
 11
-55.9864625341
 21
25.8876947337
 31
0.0
 11
-55.9887905088
 21
25.926895315
 31
0.0
 11
-55.9913676805
 21
25.958654654
 31
0.0
 11
-55.9942835847
 21
25.9796404151
 31
0.0
 11
-55.997674693
 21
25.9854705442
 31
0.0
  0
SPLINE
  5
38E
100
AcDbEntity
  8
RACCORDO
100
AcDbSpline
 62
253
  6
CONTINUOUS
 70
0
 71
3
 72
22
 73
18
 74
16
 42
0.0000001
 43
0.0000001
 44
0.0000000001
 12
-0.0186592794
 22
-0.0183519042
 32
0.0
 13
-0.0257978763
 23
0.00325068
 33
0.0
 40
0.0
 40
0.0
 40
0.0
 40
0.0
 40
0.0962016122
 40
0.1854148845
 40
0.2649190567
 40
0.3370578165
 40
0.4032743961
 40
0.4641765362
 40
0.5218901764
 40
0.5841082574
 40
0.6514973428
 40
0.7167508952
 40
0.7765220313
 40
0.844241984
 40
0.9141254884
 40
0.9750419974
 40
1.0
 40
1.0
 40
1.0
 40
1.0
 10
-55.997674693
 20
25.9854705442
 30
0.0
 10
-55.998273044
 20
25.9848820499
 30
0.0
 10
-55.9993955659
 20
25.9837171019
 30
0.0
 10
-56.0010006501
 20
25.9820540372
 30
0.0
 10
-56.0025150821
 20
25.9805969147
 30
0.0
 10
-56.003908319
 20
25.9793042099
 30
0.0
 10
-56.0051879392
 20
25.9781276474
 30
0.0
 10
-56.0063764482
 20
25.9770379215
 30
0.0
 10
-56.0075447801
 20
25.9759778566
 30
0.0
 10
-56.0087632508
 20
25.9748887526
 30
0.0
 10
-56.0100435803
 20
25.9737708027
 30
0.0
 10
-56.0113129224
 20
25.9726710408
 30
0.0
 10
-56.012636982
 20
25.9716367434
 30
0.0
 10
-56.0140731204
 20
25.970666288
 30
0.0
 10
-56.0155793864
 20
25.9698741442
 30
0.0
 10
-56.0167986778
 20
25.9690990131
 30
0.0
 10
-56.0175271796
 20
25.9691153171
 30
0.0
 10
-56.0177418008
 20
25.9691423606
 30
0.0
 11
-55.997674693
 21
25.9854705442
 31
0.0
 11
-55.9994381068
 21
25.9836734589
 31
0.0
 11
-56.0010702748
 21
25.9820038366
 31
0.0
 11
-56.002565871
 21
25.980557195
 31
0.0
 11
-56.0039472011
 21
25.9792701577
 31
0.0
 11
-56.005222353
 21
25.9780965768
 31
0.0
 11
-56.0063979079
 21
25.9770201754
 31
0.0
 11
-56.0075168977
 21
25.9760055946
 31
0.0
 11
-56.0087315789
 21
25.9749211153
 31
0.0
 11
-56.0100585175
 21
25.9737592891
 31
0.0
 11
-56.0113583723
 21
25.972651607
 31
0.0
 11
-56.0125937744
 21
25.9716919893
 31
0.0
 11
-56.0140677519
 21
25.9707078062
 31
0.0
 11
-56.0156564079
 21
25.9698015395
 31
0.0
 11
-56.0171084784
 21
25.969143315
 31
0.0
 11
-56.0177418008
 21
25.9691423606
 31
0.0
  0
SPLINE
  5
38F
100
AcDbEntity
  8
RACCORDO
100
AcDbSpline
 62
253
  6
CONTINUOUS
 70
0
 71
3
 72
24
 73
20
 74
18
 42
0.0000001
 43
0.0000001
 44
0.0000000001
 12
0.0241473685
 22
-0.071668354
 32
0.0
 13
0.0546712418
 23
-0.0539246802
 33
0.0
 40
0.0
 40
0.0
 40
0.0
 40
0.0
 40
0.0240198452
 40
0.0676588609
 40
0.099723358
 40
0.1380523678
 40
0.1815715557
 40
0.2277068334
 40
0.2748388439
 40
0.3223233835
 40
0.3705561083
 40
0.4205362463
 40
0.4734872222
 40
0.5318679051
 40
0.5994337522
 40
0.6745535141
 40
0.7570182094
 40
0.8588750938
 40
1.0
 40
1.0
 40
1.0
 40
1.0
 10
-53.2346514992
 20
46.5145910066
 30
0.0
 10
-53.2344581605
 20
46.5140171856
 30
0.0
 10
-53.2342701707
 20
46.5122347373
 30
0.0
 10
-53.2333936635
 20
46.5098466191
 30
0.0
 10
-53.2322914863
 20
46.5071399466
 30
0.0
 10
-53.2309995171
 20
46.5045244126
 30
0.0
 10
-53.2294116164
 20
46.5016570019
 30
0.0
 10
-53.2275321903
 20
46.4987014655
 30
0.0
 10
-53.2255526768
 20
46.4956914663
 30
0.0
 10
-53.2235458391
 20
46.4926348318
 30
0.0
 10
-53.2215343733
 20
46.4894941229
 30
0.0
 10
-53.2195128691
 20
46.4861948122
 30
0.0
 10
-53.2174087057
 20
46.4826410038
 30
0.0
 10
-53.2152977887
 20
46.4785742959
 30
0.0
 10
-53.2131358271
 20
46.4739040892
 30
0.0
 10
-53.21050003
 20
46.4687730087
 30
0.0
 10
-53.206954169
 20
46.4631512138
 30
0.0
 10
-53.2021728308
 20
46.4563245864
 30
0.0
 10
-53.1980454611
 20
46.4516381858
 30
0.0
 10
-53.1954736365
 20
46.4491014807
 30
0.0
 11
-53.2346514992
 21
46.5145910066
 31
0.0
 11
-53.2342734253
 21
46.5127720392
 31
0.0
 11
-53.2332698924
 21
46.5095747586
 31
0.0
 11
-53.2323275527
 21
46.5072999617
 31
0.0
 11
-53.231039261
 21
46.5046535692
 31
0.0
 11
-53.22941592
 21
46.5017324633
 31
0.0
 11
-53.2275384911
 21
46.4987280632
 31
0.0
 11
-53.225557992
 21
46.4956987125
 31
0.0
 11
-53.2235620711
 21
46.4926471013
 31
0.0
 11
-53.2215687506
 21
46.4895254029
 31
0.0
 11
-53.2195605789
 21
46.486254688
 31
0.0
 11
-53.2175108727
 21
46.4827429603
 31
0.0
 11
-53.2154345062
 21
46.4787696942
 31
0.0
 11
-53.2131865165
 21
46.4740935469
 31
0.0
 11
-53.2105158133
 21
46.4689805291
 31
0.0
 11
-53.2071814156
 21
46.4635969753
 31
0.0
 11
-53.2026517626
 21
46.457220403
 31
0.0
 11
-53.1954736365
 21
46.4491014807
 31
0.0
  0
LINE
  5
390
100
AcDbEntity
  8
RACCORDO
100
AcDbLine
 62
253
  6
CONTINUOUS
 10
-53.2322895966
 20
-46.4472449773
 11
-53.2331747925
 21
-46.4490818923
  0
SPLINE
  5
391
100
AcDbEntity
  8
RACCORDO
100
AcDbSpline
 62
253
  6
CONTINUOUS
 70
0
 71
3
 72
56
 73
52
 74
50
 42
0.0000001
 43
0.0000001
 44
0.0000000001
 12
-0.0117909431
 22
-32.7512038709
 32
0.0
 13
2.1843920268
 23
-32.6782791085
 33
0.0
 40
0.0
 40
0.0
 40
0.0
 40
0.0
 40
0.0751531004
 40
0.144775141
 40
0.2092459022
 40
0.2689372706
 40
0.3241870916
 40
0.3753061232
 40
0.4225865158
 40
0.4663047066
 40
0.5067240188
 40
0.5441018472
 40
0.578681217
 40
0.610673265
 40
0.6402347783
 40
0.6675178332
 40
0.6926861967
 40
0.7159116559
 40
0.7373491559
 40
0.7571538275
 40
0.7754393531
 40
0.7923181807
 40
0.8078909055
 40
0.8222515911
 40
0.8354907865
 40
0.8476472559
 40
0.858750013
 40
0.8688463272
 40
0.8780893306
 40
0.8866926512
 40
0.8948838875
 40
0.9027755834
 40
0.9102969189
 40
0.917310661
 40
0.9236565105
 40
0.9292042031
 40
0.9340603323
 40
0.9384823997
 40
0.9427447765
 40
0.9470062989
 40
0.9512766142
 40
0.9555425481
 40
0.9598154961
 40
0.9641616054
 40
0.9687014549
 40
0.9735728573
 40
0.9788450789
 40
0.9843848508
 40
0.9899331663
 40
0.9952320477
 40
1.0
 40
1.0
 40
1.0
 40
1.0
 10
-52.464689413
 20
-11.718162148
 30
0.0
 10
-52.4649847883
 20
-12.5386136525
 30
0.0
 10
-52.4654358363
 20
-14.1191337543
 30
0.0
 10
-52.4655535577
 20
-16.4034856597
 30
0.0
 10
-52.465069399
 20
-18.5190407244
 30
0.0
 10
-52.4640529477
 20
-20.4776930772
 30
0.0
 10
-52.462464398
 20
-22.2905832645
 30
0.0
 10
-52.4602889303
 20
-23.9679812644
 30
0.0
 10
-52.457593977
 20
-25.5194867441
 30
0.0
 10
-52.4543956472
 20
-26.9541814189
 30
0.0
 10
-52.4509676786
 20
-28.280768212
 30
0.0
 10
-52.4477710693
 20
-29.5075861305
 30
0.0
 10
-52.4449346168
 20
-30.6424036362
 30
0.0
 10
-52.4429728153
 20
-31.6918918256
 30
0.0
 10
-52.4424924225
 20
-32.6617274345
 30
0.0
 10
-52.4430441579
 20
-33.5570682106
 30
0.0
 10
-52.4442127258
 20
-34.3832370649
 30
0.0
 10
-52.4451450708
 20
-35.1455898715
 30
0.0
 10
-52.4453107451
 20
-35.849387598
 30
0.0
 10
-52.4444371846
 20
-36.4992553321
 30
0.0
 10
-52.4424106963
 20
-37.0993529983
 30
0.0
 10
-52.4394019109
 20
-37.6532452623
 30
0.0
 10
-52.4359659934
 20
-38.1642862023
 30
0.0
 10
-52.4324345255
 20
-38.6355912936
 30
0.0
 10
-52.4290702522
 20
-39.0696010579
 30
0.0
 10
-52.4259084106
 20
-39.4680443078
 30
0.0
 10
-52.4226739511
 20
-39.8321747647
 30
0.0
 10
-52.4192339335
 20
-40.1644953247
 30
0.0
 10
-52.4155526822
 20
-40.4695249757
 30
0.0
 10
-52.411594195
 20
-40.7537514152
 30
0.0
 10
-52.4073218721
 20
-41.0232192368
 30
0.0
 10
-52.4027297676
 20
-41.2808678973
 30
0.0
 10
-52.3978849858
 20
-41.5256547394
 30
0.0
 10
-52.3929428064
 20
-41.7535598021
 30
0.0
 10
-52.3881091314
 20
-41.9599154095
 30
0.0
 10
-52.3835486467
 20
-42.1427159032
 30
0.0
 10
-52.3792989221
 20
-42.3045153927
 30
0.0
 10
-52.375246878
 20
-42.4522832458
 30
0.0
 10
-52.3712234577
 20
-42.5935579957
 30
0.0
 10
-52.3671077309
 20
-42.733172686
 30
0.0
 10
-52.3628544453
 20
-42.8728221026
 30
0.0
 10
-52.358471822
 20
-43.0125923099
 30
0.0
 10
-52.3539412492
 20
-43.1531856899
 30
0.0
 10
-52.3490983829
 20
-43.2967608145
 30
0.0
 10
-52.3436700628
 20
-43.4468529403
 30
0.0
 10
-52.3373473501
 20
-43.6070290687
 30
0.0
 10
-52.3298577893
 20
-43.7780825348
 30
0.0
 10
-52.3211232594
 20
-43.9564763988
 30
0.0
 10
-52.3113239338
 20
-44.1351065399
 30
0.0
 10
-52.3010368323
 20
-44.305268241
 30
0.0
 10
-52.2939173988
 20
-44.4149380392
 30
0.0
 10
-52.2904457064
 20
-44.4668741982
 30
0.0
 11
-52.464689413
 21
-11.718162148
 31
0.0
 11
-52.4653534739
 21
-14.1795167314
 31
0.0
 11
-52.4654458043
 21
-16.4597225211
 31
0.0
 11
-52.4649514382
 21
-18.571217645
 31
0.0
 11
-52.4639068682
 21
-20.5261816684
 31
0.0
 11
-52.4622930866
 21
-22.3356792175
 31
0.0
 11
-52.4601069976
 21
-24.0098877256
 31
0.0
 11
-52.4573944057
 21
-25.5583752259
 31
0.0
 11
-52.4542273807
 21
-26.9901951945
 31
0.0
 11
-52.4508769354
 21
-28.313972176
 31
0.0
 11
-52.4477139613
 21
-29.538137047
 31
0.0
 11
-52.444987588
 21
-30.6706498289
 31
0.0
 11
-52.4431726227
 21
-31.7184264103
 31
0.0
 11
-52.4426666556
 21
-32.6866014907
 31
0.0
 11
-52.443182051
 21
-33.5801542935
 31
0.0
 11
-52.4442153683
 21
-34.4044479039
 31
0.0
 11
-52.4450387277
 21
-35.1651092564
 31
0.0
 11
-52.4451227811
 21
-35.8672132309
 31
0.0
 11
-52.4441863832
 21
-36.5158394332
 31
0.0
 11
-52.4421455088
 21
-37.1147089707
 31
0.0
 11
-52.4392007042
 21
-37.6675030883
 31
0.0
 11
-52.4358089707
 21
-38.1775173278
 31
0.0
 11
-52.4323216916
 21
-38.6478341706
 31
0.0
 11
-52.4289647757
 21
-39.0814207916
 31
0.0
 11
-52.4257514341
 21
-39.4795468589
 31
0.0
 11
-52.4224831269
 21
-39.8431608546
 31
0.0
 11
-52.4190387253
 21
-40.1738093815
 31
0.0
 11
-52.4153712927
 21
-40.476506672
 31
0.0
 11
-52.4114388403
 21
-40.7582483556
 31
0.0
 11
-52.4071804171
 21
-41.0264874234
 31
0.0
 11
-52.4025709174
 21
-41.284908874
 31
0.0
 11
-52.3976949343
 21
-41.5311934198
 31
0.0
 11
-52.3927148848
 21
-41.7608479419
 31
0.0
 11
-52.387848803
 21
-41.9686251928
 31
0.0
 11
-52.3833178457
 21
-42.1502623102
 31
0.0
 11
-52.3791424517
 21
-42.3092515815
 31
0.0
 11
-52.3751731202
 21
-42.4540252173
 31
0.0
 11
-52.3711999578
 21
-42.5935666468
 31
0.0
 11
-52.3670878706
 21
-42.7330760541
 31
0.0
 11
-52.3628320522
 21
-42.8728692647
 31
0.0
 11
-52.3584540399
 21
-43.0125151345
 31
0.0
 11
-52.3539322051
 21
-43.1523862608
 31
0.0
 11
-52.3491132565
 21
-43.2946449842
 31
0.0
 11
-52.3437219924
 21
-43.4432327557
 31
0.0
 11
-52.3374101137
 21
-43.6026521563
 31
0.0
 11
-52.3298407184
 21
-43.775157782
 31
0.0
 11
-52.3209503812
 21
-43.9563740464
 31
0.0
 11
-52.3110022408
 21
-44.1378155553
 31
0.0
 11
-52.3005519905
 21
-44.3110453871
 31
0.0
 11
-52.2904457064
 21
-44.4668741982
 31
0.0
  0
SPLINE
  5
392
100
AcDbEntity
  8
RACCORDO
100
AcDbSpline
 62
253
  6
CONTINUOUS
 70
0
 71
3
 72
13
 73
9
 74
7
 42
0.0000001
 43
0.0000001
 44
0.0000000001
 12
-0.0072097932
 22
-0.0185545768
 32
0.0
 13
-0.0122447672
 23
-0.0156828632
 33
0.0
 40
0.0
 40
0.0
 40
0.0
 40
0.0
 40
0.0325674827
 40
0.2116659461
 40
0.4917924834
 40
0.8112813504
 40
0.9959589467
 40
1.0
 40
1.0
 40
1.0
 40
1.0
 10
-53.233244637
 20
-46.4492654659
 30
0.0
 10
-53.2333229053
 20
-46.4494668912
 30
0.0
 10
-53.2338648499
 20
-46.4507532823
 30
0.0
 10
-53.2364761018
 20
-46.452940173
 30
0.0
 10
-53.2395601084
 20
-46.4570452415
 30
0.0
 10
-53.2430179947
 20
-46.4609616015
 30
0.0
 10
-53.2451813237
 20
-46.463557151
 30
0.0
 10
-53.2459522987
 20
-46.4645432179
 30
0.0
 10
-53.2459687926
 20
-46.464564343
 30
0.0
 11
-53.233244637
 21
-46.4492654659
 31
0.0
 11
-53.2335034518
 21
-46.4498545751
 31
0.0
 11
-53.2358454317
 21
-46.4525485368
 31
0.0
 11
-53.2394629179
 21
-46.4568013432
 31
0.0
 11
-53.2435815651
 21
-46.4616578146
 31
0.0
 11
-53.2459192659
 21
-46.4645009986
 31
0.0
 11
-53.2459687926
 21
-46.464564343
 31
0.0
  0
SPLINE
  5
393
100
AcDbEntity
  8
RACCORDO
100
AcDbSpline
 62
253
  6
CONTINUOUS
 70
0
 71
3
 72
59
 73
55
 74
53
 42
0.0000001
 43
0.0000001
 44
0.0000000001
 12
-2.2935629893
 22
-32.6720024485
 32
0.0
 13
0.0000222346
 23
-32.7524071662
 33
0.0
 40
0.0
 40
0.0
 40
0.0
 40
0.0
 40
0.0041026942
 40
0.0082877136
 40
0.0125227844
 40
0.016781954
 40
0.0210459724
 40
0.025301263
 40
0.0295386945
 40
0.0337533664
 40
0.0379429952
 40
0.0421050469
 40
0.0462383886
 40
0.0503536307
 40
0.0544697215
 40
0.0585907017
 40
0.0627630956
 40
0.0671488609
 40
0.0719651746
 40
0.0773917305
 40
0.0834502552
 40
0.0900017679
 40
0.0969455283
 40
0.1042758275
 40
0.1120386225
 40
0.12032846
 40
0.1292685139
 40
0.138977346
 40
0.1495532088
 40
0.1610596748
 40
0.1735501287
 40
0.1870714661
 40
0.2016921819
 40
0.2174902851
 40
0.2345595156
 40
0.2530001994
 40
0.2729237045
 40
0.2944473755
 40
0.3177021638
 40
0.3428325666
 40
0.3700050518
 40
0.3993890221
 40
0.4311318705
 40
0.4653985021
 40
0.5023704861
 40
0.5422524087
 40
0.5852931435
 40
0.6317704728
 40
0.6819900008
 40
0.7362422639
 40
0.794815396
 40
0.8580408495
 40
0.926298536
 40
1.0
 40
1.0
 40
1.0
 40
1.0
 10
-52.2962360748
 20
44.5329479449
 30
0.0
 10
-52.2993726707
 20
44.488266866
 30
0.0
 10
-52.3055574979
 20
44.3979974213
 30
0.0
 10
-52.3143936693
 20
44.2615658148
 30
0.0
 10
-52.3227567941
 20
44.1233927604
 30
0.0
 10
-52.3304844721
 20
43.9843187768
 30
0.0
 10
-52.337507464
 20
43.8449864255
 30
0.0
 10
-52.343844868
 20
43.7058588612
 30
0.0
 10
-52.3495354671
 20
43.5672426226
 30
0.0
 10
-52.354654029
 20
43.4293215559
 30
0.0
 10
-52.3593024378
 20
43.2922073857
 30
0.0
 10
-52.3635983395
 20
43.1559701834
 30
0.0
 10
-52.3676957292
 20
43.0205394091
 30
0.0
 10
-52.3716834918
 20
42.8856073585
 30
0.0
 10
-52.3755537282
 20
42.7508068929
 30
0.0
 10
-52.3793242378
 20
42.6153794039
 30
0.0
 10
-52.3830494
 20
42.4770054044
 30
0.0
 10
-52.3868348333
 20
42.3310390619
 30
0.0
 10
-52.3907999997
 20
42.1713805873
 30
0.0
 10
-52.3949949092
 20
41.9934600115
 30
0.0
 10
-52.3993527458
 20
41.7965942118
 30
0.0
 10
-52.4037360366
 20
41.5831611368
 30
0.0
 10
-52.4080169197
 20
41.3558387848
 30
0.0
 10
-52.4121241547
 20
41.115287043
 30
0.0
 10
-52.416028838
 20
40.8600343366
 30
0.0
 10
-52.4197081053
 20
40.5872021119
 30
0.0
 10
-52.4231357218
 20
40.2931192439
 30
0.0
 10
-52.4262839557
 20
39.9740743246
 30
0.0
 10
-52.429137329
 20
39.6270069096
 30
0.0
 10
-52.4317584444
 20
39.2495686642
 30
0.0
 10
-52.4342937704
 20
38.839972071
 30
0.0
 10
-52.4367356969
 20
38.3963746102
 30
0.0
 10
-52.438969372
 20
37.9166644463
 30
0.0
 10
-52.4408854969
 20
37.398218592
 30
0.0
 10
-52.4424127658
 20
36.8380669011
 30
0.0
 10
-52.4435402254
 20
36.2328752431
 30
0.0
 10
-52.444221397
 20
35.57905166
 30
0.0
 10
-52.4443497132
 20
34.8726699087
 30
0.0
 10
-52.4440536638
 20
34.1094421167
 30
0.0
 10
-52.4436442817
 20
33.2845436274
 30
0.0
 10
-52.4434547105
 20
32.3927298716
 30
0.0
 10
-52.4438277834
 20
31.4287249403
 30
0.0
 10
-52.4450014162
 20
30.3872704935
 30
0.0
 10
-52.446756463
 20
29.2629749
 30
0.0
 10
-52.4490130956
 20
28.0498219498
 30
0.0
 10
-52.4516457478
 20
26.7408785601
 30
0.0
 10
-52.4543897088
 20
25.3281608698
 30
0.0
 10
-52.4570535185
 20
23.8025823419
 30
0.0
 10
-52.4594155828
 20
22.1546016443
 30
0.0
 10
-52.4612504624
 20
20.3745646477
 30
0.0
 10
-52.4626957511
 20
18.4525354846
 30
0.0
 10
-52.4638414433
 20
16.3776023161
 30
0.0
 10
-52.4645541525
 20
14.1375058435
 30
0.0
 10
-52.4646904684
 20
12.5876712037
 30
0.0
 10
-52.4646899222
 20
11.7830377506
 30
0.0
 11
-52.2962360748
 21
44.5329479449
 31
0.0
 11
-52.3054134884
 21
44.3988885982
 31
0.0
 11
-52.3142626347
 21
44.2621050885
 31
0.0
 11
-52.3226271066
 21
44.1236487539
 31
0.0
 11
-52.3303621234
 21
43.9843653097
 31
0.0
 11
-52.3373995612
 21
43.8448858661
 31
0.0
 11
-52.3437493288
 21
43.705659581
 31
0.0
 11
-52.3494544708
 21
43.5669908094
 31
0.0
 11
-52.3545902242
 21
43.4290457304
 31
0.0
 11
-52.3592583622
 21
43.2919047274
 31
0.0
 11
-52.363579123
 21
43.1556560104
 31
0.0
 11
-52.3676858831
 21
43.0203414232
 31
0.0
 11
-52.3716643069
 21
42.8856160692
 31
0.0
 11
-52.3755326989
 21
42.7508597
 31
0.0
 11
-52.3792880592
 21
42.6159399299
 31
0.0
 11
-52.3829648064
 21
42.4793334572
 31
0.0
 11
-52.3866879337
 21
42.3357373452
 31
0.0
 11
-52.3906035173
 21
42.1780400817
 31
0.0
 11
-52.3947919671
 21
42.0003566715
 31
0.0
 11
-52.3991828546
 21
41.8019739923
 31
0.0
 11
-52.4035889286
 21
41.587441421
 31
0.0
 11
-52.4078726802
 21
41.3600569019
 31
0.0
 11
-52.4119745093
 21
41.1200069973
 31
0.0
 11
-52.4158665938
 21
40.8657865687
 31
0.0
 11
-52.4195327093
 21
40.5942991862
 31
0.0
 11
-52.4229542781
 21
40.3015108921
 31
0.0
 11
-52.4261070438
 21
39.9835389019
 31
0.0
 11
-52.4289832005
 21
39.6371658771
 31
0.0
 11
-52.4316383888
 21
39.2603107728
 31
0.0
 11
-52.434179257
 21
38.8512262294
 31
0.0
 11
-52.4366094465
 21
38.4083765505
 31
0.0
 11
-52.4388358388
 21
37.9295180897
 31
0.0
 11
-52.4407538451
 21
37.4120957372
 31
0.0
 11
-52.4422945881
 21
36.8530394705
 31
0.0
 11
-52.4434306021
 21
36.2490637562
 31
0.0
 11
-52.4441132581
 21
35.5965213622
 31
0.0
 11
-52.4442819501
 21
34.8915693462
 31
0.0
 11
-52.4440483807
 21
34.1299190857
 31
0.0
 11
-52.4436927463
 21
33.3068379794
 31
0.0
 11
-52.443545298
 21
32.4168736904
 31
0.0
 11
-52.4439319186
 21
31.4544780089
 31
0.0
 11
-52.4450427091
 21
30.4148239086
 31
0.0
 11
-52.4467641834
 21
29.2925105588
 31
0.0
 11
-52.448983349
 21
28.0815911184
 31
0.0
 11
-52.4515619471
 21
26.7753646967
 31
0.0
 11
-52.4542725012
 21
25.3656796289
 31
0.0
 11
-52.4569058955
 21
23.8434374935
 31
0.0
 11
-52.4592463987
 21
22.1986287309
 31
0.0
 11
-52.4611224177
 21
20.4217375109
 31
0.0
 11
-52.4625961146
 21
18.5033270053
 31
0.0
 11
-52.4637334389
 21
16.4325415212
 31
0.0
 11
-52.4644527583
 21
14.1969380981
 31
0.0
 11
-52.4646899222
 21
11.7830377506
 31
0.0
  0
SPLINE
  5
394
100
AcDbEntity
  8
RACCORDO
100
AcDbSpline
 62
253
  6
CONTINUOUS
 70
0
 71
3
 72
8
 73
4
 74
2
 42
0.0000001
 43
0.0000001
 44
0.0000000001
 12
0.0342957515
 22
0.001762497
 32
0.0
 13
-0.0046061464
 23
-0.0475207579
 33
0.0
 40
0.0
 40
0.0
 40
0.0
 40
0.0
 40
1.0
 40
1.0
 40
1.0
 40
1.0
 10
-52.2593104411
 20
47.2998112237
 30
0.0
 10
-52.2478785239
 20
47.3003987227
 30
0.0
 10
-52.250615678
 20
47.2820584147
 30
0.0
 10
-52.2521510601
 20
47.2662181621
 30
0.0
 11
-52.2593104411
 21
47.2998112237
 31
0.0
 11
-52.2521510601
 21
47.2662181621
 31
0.0
  0
SPLINE
  5
395
100
AcDbEntity
  8
RACCORDO
100
AcDbSpline
 62
253
  6
CONTINUOUS
 70
0
 71
3
 72
16
 73
12
 74
10
 42
0.0000001
 43
0.0000001
 44
0.0000000001
 12
-0.3666753817
 22
-3.7829218804
 32
0.0
 13
-0.122448506
 23
-2.7313874394
 33
0.0
 40
0.0
 40
0.0
 40
0.0
 40
0.0
 40
0.036959381
 40
0.0978359607
 40
0.1809716411
 40
0.2844301832
 40
0.4056425214
 40
0.5410797475
 40
0.687772748
 40
0.8420776453
 40
1.0
 40
1.0
 40
1.0
 40
1.0
 10
-52.2521510601
 20
47.2662181621
 30
0.0
 10
-52.2566684252
 20
47.219613345
 30
0.0
 10
-52.241088381
 20
47.1535323757
 30
0.0
 10
-52.246952044
 20
46.9740538731
 30
0.0
 10
-52.2433031009
 20
46.7547427558
 30
0.0
 10
-52.2463190195
 20
46.4718971598
 30
0.0
 10
-52.2498891885
 20
46.1445158494
 30
0.0
 10
-52.2565434691
 20
45.7767231859
 30
0.0
 10
-52.2658924653
 20
45.3791506576
 30
0.0
 10
-52.2786508222
 20
44.9610695116
 30
0.0
 10
-52.2897876935
 20
44.6767303236
 30
0.0
 10
-52.296233479
 20
44.5329479449
 30
0.0
 11
-52.2521510601
 21
47.2662181621
 31
0.0
 11
-52.2475729173
 21
47.1652701412
 31
0.0
 11
-52.2450175904
 21
46.998845229
 31
0.0
 11
-52.2445118466
 21
46.7715419712
 31
0.0
 11
-52.2461505954
 21
46.4886775363
 31
0.0
 11
-52.2501250569
 21
46.1572909875
 31
0.0
 11
-52.2566778798
 21
45.7870458856
 31
0.0
 11
-52.2661854927
 21
45.3860807471
 31
0.0
 11
-52.2791502796
 21
44.9643902348
 31
0.0
 11
-52.296233479
 21
44.5329479449
 31
0.0
  0
SPLINE
  5
396
100
AcDbEntity
  8
RACCORDO
100
AcDbSpline
 62
253
  6
CONTINUOUS
 70
0
 71
3
 72
56
 73
52
 74
50
 42
0.0000001
 43
0.0000001
 44
0.0000000001
 12
-0.0104861964
 22
-32.8166302621
 32
0.0
 13
1.950709135
 23
-32.7586029249
 33
0.0
 40
0.0
 40
0.0
 40
0.0
 40
0.0
 40
0.0750352744
 40
0.144525482
 40
0.2088754507
 40
0.2684565757
 40
0.3236068502
 40
0.3746358028
 40
0.4218344341
 40
0.4654773873
 40
0.5058210443
 40
0.5431226425
 40
0.5776232936
 40
0.6095231921
 40
0.6389919371
 40
0.6661940995
 40
0.6913048773
 40
0.7145006386
 40
0.7359311874
 40
0.7557461924
 40
0.7740526141
 40
0.7909433527
 40
0.8065133661
 40
0.820860428
 40
0.8340782001
 40
0.8462277831
 40
0.8573429469
 40
0.8674642836
 40
0.8767396264
 40
0.8853795767
 40
0.8936101715
 40
0.9015429747
 40
0.9091054176
 40
0.9161582065
 40
0.9225391619
 40
0.9281171535
 40
0.9329994116
 40
0.9374446911
 40
0.9417286743
 40
0.9460107554
 40
0.950300683
 40
0.9545838323
 40
0.9588835452
 40
0.9632790512
 40
0.9678938033
 40
0.972867754
 40
0.9782712572
 40
0.9839665966
 40
0.9896768164
 40
0.9951175237
 40
1.0
 40
1.0
 40
1.0
 40
1.0
 10
-53.325388603
 20
-11.7169625838
 30
0.0
 10
-53.3256508813
 20
-12.5377642027
 30
0.0
 10
-53.3261190291
 20
-14.1187106515
 30
0.0
 10
-53.3265626207
 20
-16.4035735428
 30
0.0
 10
-53.3266791624
 20
-18.519385431
 30
0.0
 10
-53.3264944024
 20
-20.4783345467
 30
0.0
 10
-53.3259711646
 20
-22.2915666399
 30
0.0
 10
-53.3250830675
 20
-23.9693480004
 30
0.0
 10
-53.3238007896
 20
-25.5212518963
 30
0.0
 10
-53.3221142678
 20
-26.9562702032
 30
0.0
 10
-53.3200666152
 20
-28.2830254702
 30
0.0
 10
-53.3180004309
 20
-29.5097740422
 30
0.0
 10
-53.3160579989
 20
-30.6441574424
 30
0.0
 10
-53.3142811753
 20
-31.6928584214
 30
0.0
 10
-53.3133700316
 20
-32.6617232937
 30
0.0
 10
-53.3133183231
 20
-33.5563232364
 30
0.0
 10
-53.3140318298
 20
-34.3823034602
 30
0.0
 10
-53.315262119
 20
-35.1451479371
 30
0.0
 10
-53.3164604783
 20
-35.8500625617
 30
0.0
 10
-53.3173154775
 20
-36.5014937659
 30
0.0
 10
-53.3176227468
 20
-37.1032651963
 30
0.0
 10
-53.3169346287
 20
-37.6586009654
 30
0.0
 10
-53.3154963975
 20
-38.1706239886
 30
0.0
 10
-53.3137877317
 20
-38.6424677439
 30
0.0
 10
-53.31186602
 20
-39.0768946564
 30
0.0
 10
-53.310450847
 20
-39.4759699943
 30
0.0
 10
-53.309374519
 20
-39.8411746789
 30
0.0
 10
-53.3083132918
 20
-40.1749383129
 30
0.0
 10
-53.3071268521
 20
-40.4816253095
 30
0.0
 10
-53.3057309966
 20
-40.7676286252
 30
0.0
 10
-53.3040648129
 20
-41.0389443744
 30
0.0
 10
-53.3021013088
 20
-41.2984711068
 30
0.0
 10
-53.2998473617
 20
-41.5451111059
 30
0.0
 10
-53.2973701298
 20
-41.7747725677
 30
0.0
 10
-53.2947896043
 20
-41.9827236904
 30
0.0
 10
-53.2922300328
 20
-42.1669298442
 30
0.0
 10
-53.2897520401
 20
-42.3299608097
 30
0.0
 10
-53.2873076165
 20
-42.4788355328
 30
0.0
 10
-53.2848068215
 20
-42.6211430859
 30
0.0
 10
-53.282173383
 20
-42.7617485726
 30
0.0
 10
-53.2793862922
 20
-42.9023419841
 30
0.0
 10
-53.2764125635
 20
-43.0431244727
 30
0.0
 10
-53.273350569
 20
-43.1850602205
 30
0.0
 10
-53.2702506395
 20
-43.3306233676
 30
0.0
 10
-53.2667347814
 20
-43.4835546358
 30
0.0
 10
-53.2624673566
 20
-43.6474973833
 30
0.0
 10
-53.2570841784
 20
-43.8232341298
 30
0.0
 10
-53.2503559765
 20
-44.0069844678
 30
0.0
 10
-53.2423753121
 20
-44.1910926241
 30
0.0
 10
-53.2334022119
 20
-44.3662518506
 30
0.0
 10
-53.226966021
 20
-44.4789928458
 30
0.0
 10
-53.2237912573
 20
-44.532307213
 30
0.0
 11
-53.325388603
 21
-11.7169625838
 31
0.0
 11
-53.3260935344
 21
-14.1793674655
 31
0.0
 11
-53.3265186534
 21
-16.4598019927
 31
0.0
 11
-53.3266274308
 21
-18.5715512258
 31
0.0
 11
-53.326424085
 21
-20.5268030653
 31
0.0
 11
-53.3258827128
 21
-22.3366492438
 31
0.0
 11
-53.3249747835
 21
-24.0112473524
 31
0.0
 11
-53.3236750313
 21
-25.5601469186
 31
0.0
 11
-53.321980536
 21
-26.9923606484
 31
0.0
 11
-53.3199829436
 21
-28.3163020835
 31
0.0
 11
-53.3179428807
 21
-29.5404132049
 31
0.0
 11
-53.316012817
 21
-30.6726067262
 31
0.0
 11
-53.3143728609
 21
-31.7194526723
 31
0.0
 11
-53.3134946635
 21
-32.6865172312
 31
0.0
 11
-53.3134596033
 21
-33.5792005805
 31
0.0
 11
-53.314156863
 21
-34.4032514382
 31
0.0
 11
-53.3153047663
 21
-35.1644573331
 31
0.0
 11
-53.3164433206
 21
-35.8677348444
 31
0.0
 11
-53.3172467916
 21
-36.5179960744
 31
0.0
 11
-53.3174484163
 21
-37.1187511432
 31
0.0
 11
-53.3167658033
 21
-37.673047874
 31
0.0
 11
-53.3153868163
 21
-38.1840014131
 31
0.0
 11
-53.3136774635
 21
-38.6548205611
 31
0.0
 11
-53.3118804341
 21
-39.0885795999
 31
0.0
 11
-53.3104522908
 21
-39.4872854358
 31
0.0
 11
-53.3093276907
 21
-39.852045941
 31
0.0
 11
-53.3082440634
 21
-40.1841923546
 31
0.0
 11
-53.3070468055
 21
-40.4885755115
 31
0.0
 11
-53.3056481306
 21
-40.7721061312
 31
0.0
 11
-53.3039795013
 21
-41.0422013749
 31
0.0
 11
-53.3020007896
 21
-41.3025217378
 31
0.0
 11
-53.2997258909
 21
-41.5506852158
 31
0.0
 11
-53.2972251455
 21
-41.7821204837
 31
0.0
 11
-53.2946252911
 21
-41.9915058097
 31
0.0
 11
-53.2920818655
 21
-42.1745390355
 31
0.0
 11
-53.2896453078
 21
-42.3347397759
 31
0.0
 11
-53.2872500907
 21
-42.4805992091
 31
0.0
 11
-53.2847793747
 21
-42.6211633979
 31
0.0
 11
-53.2821493944
 21
-42.7616622634
 31
0.0
 11
-53.2793543364
 21
-42.9024154908
 31
0.0
 11
-53.2764058699
 21
-43.0429430955
 31
0.0
 11
-53.2733796072
 21
-43.1840127372
 31
0.0
 11
-53.2702620045
 21
-43.3282247439
 31
0.0
 11
-53.2667512955
 21
-43.4796246675
 31
0.0
 11
-53.2624697518
 21
-43.6427968124
 31
0.0
 11
-53.2570100114
 21
-43.8200375185
 31
0.0
 11
-53.2501530084
 21
-44.0068135483
 31
0.0
 11
-53.2419964078
 21
-44.1940261281
 31
0.0
 11
-53.2329067988
 21
-44.3723402954
 31
0.0
 11
-53.2237912573
 21
-44.532307213
 31
0.0
  0
SPLINE
  5
397
100
AcDbEntity
  8
RACCORDO
100
AcDbSpline
 62
253
  6
CONTINUOUS
 70
0
 71
3
 72
17
 73
13
 74
11
 42
0.0000001
 43
0.0000001
 44
0.0000000001
 12
0.1100356792
 22
-1.8479730435
 32
0.0
 13
-1.337849471
 23
-1.2795589135
 33
0.0
 40
0.0
 40
0.0
 40
0.0
 40
0.0
 40
0.1530749154
 40
0.3029368968
 40
0.4456567324
 40
0.5776643461
 40
0.6962351032
 40
0.7980896733
 40
0.8808707193
 40
0.9429826006
 40
0.9830430834
 40
1.0
 40
1.0
 40
1.0
 40
1.0
 10
-53.2237912573
 20
-44.532307213
 30
0.0
 10
-53.2181766899
 20
-44.6265999854
 30
0.0
 10
-53.2086360048
 20
-44.8133004682
 30
0.0
 10
-53.1979305596
 20
-45.088106561
 30
0.0
 10
-53.1902031303
 20
-45.3499907138
 30
0.0
 10
-53.1849072194
 20
-45.5926708041
 30
0.0
 10
-53.1819797823
 20
-45.8100132224
 30
0.0
 10
-53.180483706
 20
-45.9974664804
 30
0.0
 10
-53.1822551799
 20
-46.1487736292
 30
0.0
 10
-53.1818845367
 20
-46.2652117823
 30
0.0
 10
-53.1905746046
 20
-46.3341510955
 30
0.0
 10
-53.1884785288
 20
-46.3745973053
 30
0.0
 10
-53.1960404627
 20
-46.3818297632
 30
0.0
 11
-53.2237912573
 21
-44.532307213
 31
0.0
 11
-53.2091127886
 21
-44.8153061444
 31
0.0
 11
-53.1982058872
 21
-45.092523078
 31
0.0
 11
-53.190359189
 21
-45.3566160763
 31
0.0
 11
-53.1850850613
 21
-45.6009377407
 31
0.0
 11
-53.1820560138
 21
-45.8204204948
 31
0.0
 11
-53.1810702292
 21
-46.0089757962
 31
0.0
 11
-53.1819692474
 21
-46.16222125
 31
0.0
 11
-53.1846703729
 21
-46.2771738988
 31
0.0
 11
-53.1891720134
 21
-46.3511989611
 31
0.0
 11
-53.1960404627
 21
-46.3818297632
 31
0.0
  0
SPLINE
  5
398
100
AcDbEntity
  8
RACCORDO
100
AcDbSpline
 62
253
  6
CONTINUOUS
 70
0
 71
3
 72
23
 73
19
 74
17
 42
0.0000001
 43
0.0000001
 44
0.0000000001
 12
-0.053507909
 22
-0.051042849
 32
0.0
 13
0.0267783673
 23
-0.0744796347
 33
0.0
 40
0.0
 40
0.0
 40
0.0
 40
0.0
 40
0.1600423963
 40
0.2771501104
 40
0.3720237113
 40
0.4581576409
 40
0.5358592504
 40
0.6030185555
 40
0.6624447036
 40
0.7169093317
 40
0.7677272705
 40
0.8159014441
 40
0.8616985018
 40
0.9043947066
 40
0.942620719
 40
0.9742319622
 40
0.9983363814
 40
1.0
 40
1.0
 40
1.0
 40
1.0
 10
-53.1960404627
 20
-46.3818297632
 30
0.0
 10
-53.198894974
 20
-46.3845527698
 30
0.0
 10
-53.2035273581
 20
-46.389610815
 30
0.0
 10
-53.2089221116
 20
-46.3970324894
 30
0.0
 10
-53.2129693927
 20
-46.4031727828
 30
0.0
 10
-53.2160060491
 20
-46.4087878225
 30
0.0
 10
-53.2184727822
 20
-46.4139192083
 30
0.0
 10
-53.2207410213
 20
-46.4184164656
 30
0.0
 10
-53.2229202185
 20
-46.4223117536
 30
0.0
 10
-53.2249062341
 20
-46.4258527121
 30
0.0
 10
-53.2267748233
 20
-46.429141715
 30
0.0
 10
-53.2285226964
 20
-46.4322532794
 30
0.0
 10
-53.2301211339
 20
-46.4352197751
 30
0.0
 10
-53.2314806559
 20
-46.438032074
 30
0.0
 10
-53.2324682605
 20
-46.4406367131
 30
0.0
 10
-53.2329163027
 20
-46.4429119224
 30
0.0
 10
-53.2330796834
 20
-46.4443252049
 30
0.0
 10
-53.2328671281
 20
-46.4449661804
 30
0.0
 10
-53.2328522784
 20
-46.4450074823
 30
0.0
 11
-53.1960404627
 21
-46.3818297632
 31
0.0
 11
-53.2040404401
 21
-46.3905514237
 31
0.0
 11
-53.2091846958
 21
-46.3975179436
 31
0.0
 11
-53.2129966207
 21
-46.4034078431
 31
0.0
 11
-53.2160570707
 21
-46.4089939428
 31
0.0
 11
-53.2186030514
 21
-46.4141450672
 31
0.0
 11
-53.2208601363
 21
-46.4185689113
 31
0.0
 11
-53.2229805983
 21
-46.4224179837
 31
0.0
 11
-53.2249535552
 21
-46.4259292632
 31
0.0
 11
-53.2268042815
 21
-46.4291998793
 31
0.0
 11
-53.228542106
 21
-46.4323096897
 31
0.0
 11
-53.2301344773
 21
-46.4352986291
 31
0.0
 11
-53.2314846298
 21
-46.4381527349
 31
0.0
 11
-53.2324424782
 21
-46.4408122849
 31
0.0
 11
-53.2329176344
 21
-46.4431011072
 31
0.0
 11
-53.232893382
 21
-46.4448834422
 31
0.0
 11
-53.2328522784
 21
-46.4450074823
 31
0.0
  0
SPLINE
  5
399
100
AcDbEntity
  8
RACCORDO
100
AcDbSpline
 62
253
  6
CONTINUOUS
 70
0
 71
3
 72
22
 73
18
 74
16
 42
0.0000001
 43
0.0000001
 44
0.0000000001
 12
0.032092524
 22
0.0038005862
 32
0.0
 13
0.0216907274
 23
-0.0210474935
 33
0.0
 40
0.0
 40
0.0
 40
0.0
 40
0.0
 40
0.0746701183
 40
0.1307931658
 40
0.1856484838
 40
0.2402916351
 40
0.3042159136
 40
0.3695581705
 40
0.4253092324
 40
0.4940556932
 40
0.56623252
 40
0.6299283886
 40
0.6870802219
 40
0.7452289397
 40
0.8090984826
 40
0.8800493493
 40
1.0
 40
1.0
 40
1.0
 40
1.0
 10
-56.0218146659
 20
-25.9021976831
 30
0.0
 10
-56.0210158817
 20
-25.9021030863
 30
0.0
 10
-56.019870687
 20
-25.9029150876
 30
0.0
 10
-56.0182638292
 20
-25.9040184398
 30
0.0
 10
-56.016495777
 20
-25.9035545226
 30
0.0
 10
-56.0149225861
 20
-25.9044909062
 30
0.0
 10
-56.0133695484
 20
-25.9054543774
 30
0.0
 10
-56.011853932
 20
-25.9065538177
 30
0.0
 10
-56.0103393361
 20
-25.907718766
 30
0.0
 10
-56.0087976888
 20
-25.9089647741
 30
0.0
 10
-56.0072230268
 20
-25.9102951862
 30
0.0
 10
-56.0057618259
 20
-25.9115785316
 30
0.0
 10
-56.0044178484
 20
-25.9127809057
 30
0.0
 10
-56.0030791552
 20
-25.9139917708
 30
0.0
 10
-56.0016548035
 20
-25.9153151997
 30
0.0
 10
-55.9998282067
 20
-25.9171188889
 30
0.0
 10
-55.998506077
 20
-25.918516635
 30
0.0
 10
-55.9976388048
 20
-25.9193581885
 30
0.0
 11
-56.0218146659
 21
-25.9021976831
 31
0.0
 11
-56.0197125727
 21
-25.9030189341
 31
0.0
 11
-56.0181955281
 21
-25.9037777928
 31
0.0
 11
-56.0165375867
 21
-25.9037792845
 31
0.0
 11
-56.0150225651
 21
-25.904436749
 31
0.0
 11
-56.0133895148
 21
-25.9054691884
 31
0.0
 11
-56.0117828896
 21
-25.9066176566
 31
0.0
 11
-56.010446505
 21
-25.9076439858
 31
0.0
 11
-56.0088293738
 21
-25.9089486255
 31
0.0
 11
-56.0071625745
 21
-25.9103559538
 31
0.0
 11
-56.0057143562
 21
-25.9116243466
 31
0.0
 11
-56.0044263751
 21
-25.9127753674
 31
0.0
 11
-56.003124404
 21
-25.913955881
 31
0.0
 11
-56.0017134774
 21
-25.9152733335
 31
0.0
 11
-56.0001859438
 21
-25.9167783737
 31
0.0
 11
-55.9976388048
 21
-25.9193581885
 31
0.0
  0
SPLINE
  5
39A
100
AcDbEntity
  8
RACCORDO
100
AcDbSpline
 62
253
  6
CONTINUOUS
 70
0
 71
3
 72
58
 73
54
 74
52
 42
0.0000001
 43
0.0000001
 44
0.0000000001
 12
2.3062698966
 22
-2.2370145356
 32
0.0
 13
0.0356621575
 23
3.2127639247
 33
0.0
 40
0.0
 40
0.0
 40
0.0
 40
0.0
 40
0.0026599082
 40
0.0108563042
 40
0.0230513935
 40
0.0380192882
 40
0.0547637937
 40
0.0724598506
 40
0.0905421701
 40
0.1086097956
 40
0.1264063851
 40
0.1437926546
 40
0.1606411951
 40
0.1768227815
 40
0.1922915682
 40
0.2079051444
 40
0.2246606621
 40
0.242167159
 40
0.2600452013
 40
0.2784186723
 40
0.2977218454
 40
0.3185126686
 40
0.3406644209
 40
0.3633979925
 40
0.3863090666
 40
0.4094667814
 40
0.4330202987
 40
0.4567327503
 40
0.4791747119
 40
0.4991633063
 40
0.5170720502
 40
0.5334396737
 40
0.549017718
 40
0.5644950591
 40
0.5801614086
 40
0.5959477979
 40
0.6118356091
 40
0.6278782951
 40
0.6441416039
 40
0.6606155315
 40
0.6771724123
 40
0.6938850126
 40
0.7113777465
 40
0.7304538534
 40
0.7519000071
 40
0.7764875595
 40
0.8049440436
 40
0.8373837912
 40
0.8726258554
 40
0.9092871321
 40
0.9471282972
 40
0.9865440794
 40
1.0
 40
1.0
 40
1.0
 40
1.0
 10
-55.9976388048
 20
-25.9193581885
 30
0.0
 10
-55.9955939827
 20
-25.9213416063
 30
0.0
 10
-55.9917463324
 20
-25.8998411463
 30
0.0
 10
-55.9906842904
 20
-25.8847028318
 30
0.0
 10
-55.9873765402
 20
-25.8421616462
 30
0.0
 10
-55.9851924636
 20
-25.796967229
 30
0.0
 10
-55.9827665616
 20
-25.7435358607
 30
0.0
 10
-55.9805525944
 20
-25.6874958118
 30
0.0
 10
-55.9783783581
 20
-25.629821724
 30
0.0
 10
-55.9762514054
 20
-25.5720974209
 30
0.0
 10
-55.9741417049
 20
-25.5151025867
 30
0.0
 10
-55.9720511522
 20
-25.4594177239
 30
0.0
 10
-55.9699953667
 20
-25.4054613553
 30
0.0
 10
-55.9679828206
 20
-25.3535587132
 30
0.0
 10
-55.9659858391
 20
-25.3029790348
 30
0.0
 10
-55.963922158
 20
-25.2517868719
 30
0.0
 10
-55.9617226003
 20
-25.1984160684
 30
0.0
 10
-55.9593713354
 20
-25.1426242712
 30
0.0
 10
-55.9569011228
 20
-25.0851031624
 30
0.0
 10
-55.9543082374
 20
-25.0256613461
 30
0.0
 10
-55.9515418315
 20
-24.9631045954
 30
0.0
 10
-55.9485723497
 20
-24.8965063877
 30
0.0
 10
-55.9454363321
 20
-24.826238044
 30
0.0
 10
-55.9422141291
 20
-24.7537005267
 30
0.0
 10
-55.9389612
 20
-24.6800859409
 30
0.0
 10
-55.9356923403
 20
-24.6055930544
 30
0.0
 10
-55.9324116132
 20
-24.5302416007
 30
0.0
 10
-55.9292082308
 20
-24.4556540786
 30
0.0
 10
-55.9262155428
 20
-24.3848790271
 30
0.0
 10
-55.9235336765
 20
-24.3203121002
 30
0.0
 10
-55.9211596682
 20
-24.2622435456
 30
0.0
 10
-55.9190123204
 20
-24.2088933224
 30
0.0
 10
-55.9170002086
 20
-24.1581437743
 30
0.0
 10
-55.9150481426
 20
-24.1081435
 30
0.0
 10
-55.9131183526
 20
-24.0579190605
 30
0.0
 10
-55.9112049897
 20
-24.0072540682
 30
0.0
 10
-55.9093089116
 20
-23.9561850943
 30
0.0
 10
-55.9074311336
 20
-23.9046043273
 30
0.0
 10
-55.9055692194
 20
-23.8523948576
 30
0.0
 10
-55.9037328929
 20
-23.7996334474
 30
0.0
 10
-55.9019274604
 20
-23.746389506
 30
0.0
 10
-55.9001370793
 20
-23.6920533228
 30
0.0
 10
-55.8983161142
 20
-23.6350186532
 30
0.0
 10
-55.8964028763
 20
-23.5729148076
 30
0.0
 10
-55.894345341
 20
-23.5032133972
 30
0.0
 10
-55.89210567
 20
-23.4234667969
 30
0.0
 10
-55.8896945354
 20
-23.3319464941
 30
0.0
 10
-55.8871872848
 20
-23.2290140973
 30
0.0
 10
-55.8847259748
 20
-23.1172910215
 30
0.0
 10
-55.8824349199
 20
-22.9997782953
 30
0.0
 10
-55.8803956919
 20
-22.8777902559
 30
0.0
 10
-55.879059953
 20
-22.7806469979
 30
0.0
 10
-55.8784009629
 20
-22.7240259039
 30
0.0
 10
-55.8782410072
 20
-22.7096156718
 30
0.0
 11
-55.9976388048
 21
-25.9193581885
 31
0.0
 11
-55.9939095025
 21
-25.911668618
 31
0.0
 11
-55.9907121161
 21
-25.8855287454
 31
0.0
 11
-55.9878757578
 21
-25.8464492008
 31
0.0
 11
-55.985285385
 21
-25.7984277611
 31
0.0
 11
-55.9828698327
 21
-25.7446825827
 31
0.0
 11
-55.9805844001
 21
-25.6878718033
 31
0.0
 11
-55.9783863731
 21
-25.6298156201
 31
0.0
 11
-55.9762389773
 21
-25.5718047853
 31
0.0
 11
-55.9741204053
 21
-25.5146643085
 31
0.0
 11
-55.9720242716
 21
-25.4588422535
 31
0.0
 11
-55.9699619778
 21
-25.4047478562
 31
0.0
 11
-55.967946996
 21
-25.3527961206
 31
0.0
 11
-55.9659851254
 21
-25.3031342569
 31
0.0
 11
-55.9639641764
 21
-25.2530091781
 31
0.0
 11
-55.9617475718
 21
-25.1992200152
 31
0.0
 11
-55.9593806812
 21
-25.1430221542
 31
0.0
 11
-55.9569175216
 21
-25.085633547
 31
0.0
 11
-55.9543458711
 21
-25.0266563522
 31
0.0
 11
-55.9516085912
 21
-24.964696455
 31
0.0
 11
-55.9486368315
 21
-24.8979624978
 31
0.0
 11
-55.9454665416
 21
-24.826860437
 31
0.0
 11
-55.942225377
 21
-24.7538903178
 31
0.0
 11
-55.9389765982
 21
-24.6803496676
 31
0.0
 11
-55.935715123
 21
-24.6060163623
 31
0.0
 11
-55.932426426
 21
-24.5304113354
 31
0.0
 11
-55.9291584792
 21
-24.4542942854
 31
0.0
 11
-55.9261140259
 21
-24.3822534511
 31
0.0
 11
-55.9234485932
 21
-24.3180862237
 31
0.0
 11
-55.9210985726
 21
-24.2605941467
 31
0.0
 11
-55.9189837065
 21
-24.2080481621
 31
0.0
 11
-55.9170010022
 21
-24.1580358078
 31
0.0
 11
-55.9150611172
 21
-24.1083455747
 31
0.0
 11
-55.9131287786
 21
-24.0580473177
 31
0.0
 11
-55.9112144469
 21
-24.0073624117
 31
0.0
 11
-55.9093211761
 21
-23.9563506241
 31
0.0
 11
-55.9074460502
 21
-23.9048402272
 31
0.0
 11
-55.9055846693
 21
-23.8526200229
 31
0.0
 11
-55.9037438505
 21
-23.799721965
 31
0.0
 11
-55.9019415575
 21
-23.7465559013
 31
0.0
 11
-55.9001735247
 21
-23.6928880927
 31
0.0
 11
-55.8983802527
 21
-23.6367132466
 31
0.0
 11
-55.8964934052
 21
-23.5754515197
 31
0.0
 11
-55.8944599425
 21
-23.5065758872
 31
0.0
 11
-55.8922432047
 21
-23.4276081611
 31
0.0
 11
-55.8898351587
 21
-23.3362103197
 31
0.0
 11
-55.8872990989
 21
-23.2320135519
 31
0.0
 11
-55.8848063034
 21
-23.1188096361
 31
0.0
 11
-55.8825132297
 21
-23.0010407262
 31
0.0
 11
-55.8804827439
 21
-22.8794755153
 31
0.0
 11
-55.8787441335
 21
-22.752846101
 31
0.0
 11
-55.8782410072
 21
-22.7096156718
 31
0.0
  0
LINE
  5
39B
100
AcDbEntity
  8
RACCORDO
100
AcDbLine
 62
253
  6
CONTINUOUS
 10
-55.8769934468
 20
-22.5776396437
 11
-55.8766708451
 21
-22.5330830411
  0
SPLINE
  5
39C
100
AcDbEntity
  8
RACCORDO
100
AcDbSpline
 62
253
  6
CONTINUOUS
 70
0
 71
3
 72
11
 73
7
 74
5
 42
0.0000001
 43
0.0000001
 44
0.0000000001
 12
-0.0153190984
 22
10.4992327405
 32
0.0
 13
0.0042887169
 23
10.4992430403
 33
0.0
 40
0.0
 40
0.0
 40
0.0
 40
0.0
 40
0.2182270376
 40
0.4569279924
 40
0.7165505759
 40
1.0
 40
1.0
 40
1.0
 40
1.0
 10
-55.8758357916
 20
-22.2161917701
 30
0.0
 10
-55.8769501387
 20
-21.4524529506
 30
0.0
 10
-55.8757193599
 20
-19.8533188335
 30
0.0
 10
-55.8802514932
 20
-17.3455744873
 30
0.0
 10
-55.8888582785
 20
-14.6095802943
 30
0.0
 10
-55.891650402
 20
-12.7089640441
 30
0.0
 10
-55.8912451905
 20
-11.7169625796
 30
0.0
 11
-55.8758357916
 21
-22.2161917701
 31
0.0
 11
-55.8767144587
 21
-19.9249730412
 31
0.0
 11
-55.8806547762
 21
-17.4187965915
 31
0.0
 11
-55.8878676533
 21
-14.6929653047
 31
0.0
 11
-55.8912451905
 21
-11.7169625796
 31
0.0
  0
SPLINE
  5
39D
100
AcDbEntity
  8
RACCORDO
100
AcDbSpline
 62
253
  6
CONTINUOUS
 70
0
 71
3
 72
13
 73
9
 74
7
 42
0.0000001
 43
0.0000001
 44
0.0000000001
 12
-0.9332249973
 22
0.0656921651
 32
0.0
 13
-0.9314659303
 23
0.0871526067
 33
0.0
 40
0.0
 40
0.0
 40
0.0
 40
0.0
 40
0.2387634045
 40
0.4624185124
 40
0.6594941938
 40
0.8198826925
 40
0.9353582529
 40
1.0
 40
1.0
 40
1.0
 40
1.0
 10
-52.2962299494
 20
44.533037422
 30
0.0
 10
-52.3705032752
 20
44.538265717
 30
0.0
 10
-52.5143459131
 20
44.5484508352
 30
0.0
 10
-52.7194797748
 20
44.5631516827
 30
0.0
 10
-52.900220166
 20
44.5763094924
 30
0.0
 10
-53.0473034375
 20
44.5871842813
 30
0.0
 10
-53.1531728432
 20
44.5953420421
 30
0.0
 10
-53.2091705345
 20
44.5997561851
 30
0.0
 10
-53.2292410628
 20
44.601634084
 30
0.0
 11
-52.2962299494
 21
44.533037422
 31
0.0
 11
-52.5190432893
 21
44.5488163182
 31
0.0
 11
-52.7277441288
 21
44.563785909
 31
0.0
 11
-52.9116281306
 21
44.5771783984
 31
0.0
 11
-53.0612638216
 21
44.5883068805
 31
0.0
 11
-53.1689763362
 21
44.5966005713
 31
0.0
 11
-53.2292410628
 21
44.601634084
 31
0.0
  0
SPLINE
  5
39E
100
AcDbEntity
  8
RACCORDO
100
AcDbSpline
 62
253
  6
CONTINUOUS
 70
0
 71
3
 72
13
 73
9
 74
7
 42
0.0000001
 43
0.0000001
 44
0.0000000001
 12
-0.9335452594
 22
-0.0625748757
 32
0.0
 13
-0.9319400719
 23
-0.0831268239
 33
0.0
 40
0.0
 40
0.0
 40
0.0
 40
0.0
 40
0.238864217
 40
0.4625980585
 40
0.6597137582
 40
0.8200903961
 40
0.9354937522
 40
1.0
 40
1.0
 40
1.0
 40
1.0
 10
-52.2904398072
 20
-44.4669625778
 30
0.0
 10
-52.364769993
 20
-44.4719448773
 30
0.0
 10
-52.508718252
 20
-44.4816505059
 30
0.0
 10
-52.7139925284
 20
-44.495658572
 30
0.0
 10
-52.8948310796
 20
-44.5081948559
 30
0.0
 10
-53.0419545311
 20
-44.5185527671
 30
0.0
 10
-53.1477967972
 20
-44.5263202806
 30
0.0
 10
-53.2037521844
 20
-44.5305197852
 30
0.0
 10
-53.2237908368
 20
-44.5323071851
 30
0.0
 11
-52.2904398072
 21
-44.4669625778
 31
0.0
 11
-52.5134243364
 21
-44.4819991387
 31
0.0
 11
-52.7222721146
 21
-44.4962636311
 31
0.0
 11
-52.9062595264
 21
-44.5090236224
 31
0.0
 11
-53.0559394507
 21
-44.5196239311
 31
0.0
 11
-53.163626338
 21
-44.5275202682
 31
0.0
 11
-53.2237908368
 21
-44.5323071851
 31
0.0
  0
SPLINE
  5
39F
100
AcDbEntity
  8
RACCORDO
100
AcDbSpline
 62
253
  6
CONTINUOUS
 70
0
 71
3
 72
11
 73
7
 74
5
 42
0.0000001
 43
0.0000001
 44
0.0000000001
 12
0.0328924526
 22
-0.0376113803
 32
0.0
 13
0.0012862253
 23
0.050401202
 33
0.0
 40
0.0
 40
0.0
 40
0.0
 40
0.0
 40
0.1020409498
 40
0.4003670612
 40
0.8367422268
 40
1.0
 40
1.0
 40
1.0
 40
1.0
 10
-56.6053003408
 20
-24.2214500486
 30
0.0
 10
-56.6041815484
 20
-24.2227293489
 30
0.0
 10
-56.6045674642
 20
-24.2091436418
 30
0.0
 10
-56.6029980132
 20
-24.2015200548
 30
0.0
 10
-56.6028312473
 20
-24.1843679236
 30
0.0
 10
-56.6025929864
 20
-24.1740959294
 30
0.0
 10
-56.602522991
 20
-24.1713531334
 30
0.0
 11
-56.6053003408
 21
-24.2214500486
 31
0.0
 11
-56.6043044151
 21
-24.2164497603
 31
0.0
 11
-56.6034616608
 21
-24.201567655
 31
0.0
 11
-56.6027133189
 21
-24.1797768931
 31
0.0
 11
-56.602522991
 21
-24.1713531334
 31
0.0
  0
SPLINE
  5
3A0
100
AcDbEntity
  8
RACCORDO
100
AcDbSpline
 62
253
  6
CONTINUOUS
 70
0
 71
3
 72
58
 73
54
 74
52
 42
0.0000001
 43
0.0000001
 44
0.0000000001
 12
0.0502978517
 22
1.9709394399
 32
0.0
 13
-0.0018401758
 23
1.9538919022
 33
0.0
 40
0.0
 40
0.0
 40
0.0
 40
0.0
 40
0.0094319636
 40
0.0246190174
 40
0.0407112047
 40
0.0572428719
 40
0.0738251221
 40
0.0901833174
 40
0.1061613839
 40
0.1216596223
 40
0.1365972847
 40
0.1509505405
 40
0.1655438736
 40
0.1811948831
 40
0.1973749139
 40
0.213750084
 40
0.2304561849
 40
0.2479078123
 40
0.2666239139
 40
0.2867397313
 40
0.3077952252
 40
0.3292364426
 40
0.3508584734
 40
0.3725334994
 40
0.3937949643
 40
0.4135633207
 40
0.4312107433
 40
0.447076638
 40
0.4616329895
 40
0.4755430961
 40
0.489423337
 40
0.5035394867
 40
0.5178373051
 40
0.5323003845
 40
0.5467912738
 40
0.561168784
 40
0.5755030845
 40
0.5897358341
 40
0.6039921725
 40
0.6188609525
 40
0.6350915819
 40
0.6534603991
 40
0.6748274107
 40
0.6998851303
 40
0.728469148
 40
0.7594158958
 40
0.7913349222
 40
0.8238326598
 40
0.8573002186
 40
0.8919152899
 40
0.9272919241
 40
0.9632346094
 40
1.0
 40
1.0
 40
1.0
 40
1.0
 10
-56.602522991
 20
-24.1713531334
 30
0.0
 10
-56.6023648551
 20
-24.1651565237
 30
0.0
 10
-56.6018838045
 20
-24.1497002351
 30
0.0
 10
-56.6013497067
 20
-24.1228599031
 30
0.0
 10
-56.6007099989
 20
-24.09183485
 30
0.0
 10
-56.6001155015
 20
-24.059762384
 30
0.0
 10
-56.5995289582
 20
-24.0275548124
 30
0.0
 10
-56.5989452289
 20
-23.9956975009
 30
0.0
 10
-56.5983547801
 20
-23.9645491567
 30
0.0
 10
-56.5977641439
 20
-23.9343254781
 30
0.0
 10
-56.5971797105
 20
-23.9051602988
 30
0.0
 10
-56.5965975502
 20
-23.8765845116
 30
0.0
 10
-56.5960012286
 20
-23.8475443279
 30
0.0
 10
-56.5953789207
 20
-23.8173146485
 30
0.0
 10
-56.5947100592
 20
-23.785925182
 30
0.0
 10
-56.5940014154
 20
-23.7538492383
 30
0.0
 10
-56.5932469477
 20
-23.7209459285
 30
0.0
 10
-56.5924310965
 20
-23.6865189935
 30
0.0
 10
-56.5915418848
 20
-23.649872441
 30
0.0
 10
-56.5905831421
 20
-23.6108796971
 30
0.0
 10
-56.5896139662
 20
-23.5701118209
 30
0.0
 10
-56.588657001
 20
-23.5283624002
 30
0.0
 10
-56.5877229234
 20
-23.4862088635
 30
0.0
 10
-56.586806639
 20
-23.4441720397
 30
0.0
 10
-56.5859077513
 20
-23.4033424146
 30
0.0
 10
-56.5850372598
 20
-23.3651359807
 30
0.0
 10
-56.5842517639
 20
-23.3304426464
 30
0.0
 10
-56.583546701
 20
-23.2991429269
 30
0.0
 10
-56.5829044874
 20
-23.2702765149
 30
0.0
 10
-56.5823007654
 20
-23.2427028197
 30
0.0
 10
-56.5817154666
 20
-23.2154154944
 30
0.0
 10
-56.581139832
 20
-23.1878753917
 30
0.0
 10
-56.5805740858
 20
-23.1599554027
 30
0.0
 10
-56.5800263104
 20
-23.1317909415
 30
0.0
 10
-56.5794947587
 20
-23.1035742596
 30
0.0
 10
-56.5789660809
 20
-23.0754414124
 30
0.0
 10
-56.5784436066
 20
-23.0474766042
 30
0.0
 10
-56.5779240111
 20
-23.0195906748
 30
0.0
 10
-56.5774007647
 20
-22.9913566479
 30
0.0
 10
-56.5768585311
 20
-22.9618215355
 30
0.0
 10
-56.5762769761
 20
-22.9296082469
 30
0.0
 10
-56.5756382156
 20
-22.8931630223
 30
0.0
 10
-56.5749371537
 20
-22.8509689541
 30
0.0
 10
-56.5741942045
 20
-22.8021215691
 30
0.0
 10
-56.5734366006
 20
-22.7470344789
 30
0.0
 10
-56.5727190325
 20
-22.6874777426
 30
0.0
 10
-56.5720745744
 20
-22.6253710324
 30
0.0
 10
-56.5715146477
 20
-22.5616216459
 30
0.0
 10
-56.5710283981
 20
-22.4961156765
 30
0.0
 10
-56.5706373819
 20
-22.4287340096
 30
0.0
 10
-56.570356137
 20
-22.3597397308
 30
0.0
 10
-56.5702024818
 20
-22.2893445473
 30
0.0
 10
-56.5701927766
 20
-22.2419899108
 30
0.0
 10
-56.5702153282
 20
-22.2180447111
 30
0.0
 11
-56.602522991
 21
-24.1713531334
 31
0.0
 11
-56.602019459
 21
-24.1531996828
 31
0.0
 11
-56.6013596584
 21
-24.1235331446
 31
0.0
 11
-56.6007261836
 21
-24.0920971181
 31
0.0
 11
-56.6001179758
 21
-24.0598017397
 31
0.0
 11
-56.599525662
 21
-24.0274072155
 31
0.0
 11
-56.5989372928
 21
-23.9954504719
 31
0.0
 11
-56.5983457604
 21
-23.9642366478
 31
0.0
 11
-56.5977544601
 21
-23.9339605255
 31
0.0
 11
-56.5971704297
 21
-23.9047797788
 31
0.0
 11
-56.5965999852
 21
-23.8767408582
 31
0.0
 11
-56.5960151343
 21
-23.848233049
 31
0.0
 11
-56.5953823934
 21
-23.8176592014
 31
0.0
 11
-56.5947086624
 21
-23.786052336
 31
0.0
 11
-56.5940017598
 21
-23.7540648195
 31
0.0
 11
-56.5932539939
 21
-23.721431456
 31
0.0
 11
-56.5924475034
 21
-23.6873423862
 31
0.0
 11
-56.5915621016
 21
-23.6507838506
 31
0.0
 11
-56.5906033958
 21
-23.6114913945
 31
0.0
 11
-56.5896257168
 21
-23.5703628361
 31
0.0
 11
-56.5886649987
 21
-23.5284800136
 31
0.0
 11
-56.5877262303
 21
-23.4862433153
 31
0.0
 11
-56.586799214
 21
-23.4439027858
 31
0.0
 11
-56.5858808381
 21
-23.4023703158
 31
0.0
 11
-56.5850067657
 21
-23.3637549583
 31
0.0
 11
-56.5842261952
 21
-23.329282623
 31
0.0
 11
-56.5835289924
 21
-23.2982902073
 31
0.0
 11
-56.5828968354
 21
-23.2698556835
 31
0.0
 11
-56.5823023578
 21
-23.242683329
 31
0.0
 11
-56.581721215
 21
-23.2155690539
 31
0.0
 11
-56.5811452193
 21
-23.1879936261
 31
0.0
 11
-56.5805800321
 21
-23.1600629399
 31
0.0
 11
-56.5800295358
 21
-23.131808996
 31
0.0
 11
-56.5794935858
 21
-23.1035004251
 31
0.0
 11
-56.5789660626
 21
-23.0754132655
 31
0.0
 11
-56.578442607
 21
-23.0474104714
 31
0.0
 11
-56.5779247621
 21
-23.0196060268
 31
0.0
 11
-56.577408944
 21
-22.9917554466
 31
0.0
 11
-56.5768762268
 21
-22.9627083294
 31
0.0
 11
-56.5763047234
 21
-22.93100057
 31
0.0
 11
-56.5756774731
 21
-22.8951153524
 31
0.0
 11
-56.5749860862
 21
-22.8533722283
 31
0.0
 11
-56.5742402341
 21
-22.8044178125
 31
0.0
 11
-56.5734729933
 21
-22.7485729772
 31
0.0
 11
-56.5727432464
 21
-22.6881107542
 31
0.0
 11
-56.5720948964
 21
-22.6257477694
 31
0.0
 11
-56.5715343778
 21
-22.562253149
 31
0.0
 11
-56.5710513025
 21
-22.4968629122
 31
0.0
 11
-56.5706595111
 21
-22.4292299095
 31
0.0
 11
-56.5703792813
 21
-22.3601083278
 31
0.0
 11
-56.570226539
 21
-22.289880341
 31
0.0
 11
-56.5702153282
 21
-22.2180447111
 31
0.0
  0
SPLINE
  5
3A1
100
AcDbEntity
  8
RACCORDO
100
AcDbSpline
 62
253
  6
CONTINUOUS
 70
0
 71
3
 72
10
 73
6
 74
4
 42
0.0000001
 43
0.0000001
 44
0.0000000001
 12
-0.2330282302
 22
-0.0000759592
 32
0.0
 13
0.0000033435
 23
-0.0001990247
 33
0.0
 40
0.0
 40
0.0
 40
0.0
 40
0.0
 40
0.5243378851
 40
0.8677769538
 40
1.0
 40
1.0
 40
1.0
 40
1.0
 10
-56.5702153282
 20
-22.2180447111
 30
0.0
 10
-56.610943838
 20
-22.2180579872
 30
0.0
 10
-56.6889503807
 20
-22.2168387123
 30
0.0
 10
-56.7383962627
 20
-22.2171776459
 30
0.0
 10
-56.8071635907
 20
-22.2171761028
 30
0.0
 10
-56.8071634433
 20
-22.2171848746
 30
0.0
 11
-56.5702153282
 21
-22.2180447111
 31
0.0
 11
-56.6923974929
 21
-22.2171370723
 31
0.0
 11
-56.7724284909
 21
-22.2171643839
 31
0.0
 11
-56.8071634433
 21
-22.2171848746
 31
0.0
  0
SPLINE
  5
3A2
100
AcDbEntity
  8
RACCORDO
100
AcDbSpline
 62
253
  6
CONTINUOUS
 70
0
 71
3
 72
11
 73
7
 74
5
 42
0.0000001
 43
0.0000001
 44
0.0000000001
 12
-0.0107524115
 22
10.5010777412
 32
0.0
 13
0.0014364222
 23
10.5010831478
 33
0.0
 40
0.0
 40
0.0
 40
0.0
 40
0.0
 40
0.2181575013
 40
0.4564509907
 40
0.7158750097
 40
1.0
 40
1.0
 40
1.0
 40
1.0
 10
-56.5702152971
 20
-22.2180447191
 30
0.0
 10
-56.5709972035
 20
-21.4544150922
 30
0.0
 10
-56.5708527827
 20
-19.8566714163
 30
0.0
 10
-56.5716595184
 20
-17.350850549
 30
0.0
 10
-56.5740548596
 20
-14.6141204969
 30
0.0
 10
-56.5748479983
 20
-12.7115026281
 30
0.0
 10
-56.5747119572
 20
-11.7169625789
 30
0.0
 11
-56.5702152971
 21
-22.2180447191
 31
0.0
 11
-56.5710096443
 21
-19.927154775
 31
0.0
 11
-56.5718566712
 21
-17.4248151492
 31
0.0
 11
-56.5737805145
 21
-14.7005826091
 31
0.0
 11
-56.5747119572
 21
-11.7169625789
 31
0.0
  0
SPLINE
  5
3A3
100
AcDbEntity
  8
RACCORDO
100
AcDbSpline
 62
253
  6
CONTINUOUS
 70
0
 71
3
 72
11
 73
7
 74
5
 42
0.0000001
 43
0.0000001
 44
0.0000000001
 12
-0.0000455813
 22
10.5011271469
 32
0.0
 13
0.0098171558
 23
10.5011225582
 33
0.0
 40
0.0
 40
0.0
 40
0.0
 40
0.0
 40
0.2889949655
 40
0.5497327144
 40
0.7859338539
 40
1.0
 40
1.0
 40
1.0
 40
1.0
 10
-56.574712287
 20
11.7834757051
 30
0.0
 10
-56.5747166779
 20
12.7950666644
 30
0.0
 10
-56.5739092262
 20
14.7193376953
 30
0.0
 10
-56.5716327528
 20
17.4704005626
 30
0.0
 10
-56.5706554509
 20
19.9591851124
 30
0.0
 10
-56.5706937278
 20
21.5352900743
 30
0.0
 10
-56.5699932209
 20
22.2846016863
 30
0.0
 11
-56.574712287
 21
11.7834757051
 31
0.0
 11
-56.5736508167
 21
14.8182483973
 31
0.0
 11
-56.5717698984
 21
17.5562880044
 31
0.0
 11
-56.5708058725
 21
20.036666015
 31
0.0
 11
-56.5699932209
 21
22.2846016863
 31
0.0
  0
SPLINE
  5
3A4
100
AcDbEntity
  8
RACCORDO
100
AcDbSpline
 62
253
  6
CONTINUOUS
 70
0
 71
3
 72
10
 73
6
 74
4
 42
0.0000001
 43
0.0000001
 44
0.0000000001
 12
-0.2333510963
 22
0.000024018
 32
0.0
 13
0.0000028619
 23
-0.0002271575
 33
0.0
 40
0.0
 40
0.0
 40
0.0
 40
0.0
 40
0.5241754579
 40
0.8676523823
 40
1.0
 40
1.0
 40
1.0
 40
1.0
 10
-56.5699932209
 20
22.2846016863
 30
0.0
 10
-56.6107655268
 20
22.2846058828
 30
0.0
 10
-56.6888873624
 20
22.2832033198
 30
0.0
 10
-56.7383422137
 20
22.2835928473
 30
0.0
 10
-56.8073044441
 20
22.2836135823
 30
0.0
 10
-56.8073043179
 20
22.283603561
 30
0.0
 11
-56.5699932209
 21
22.2846016863
 31
0.0
 11
-56.6923055876
 21
22.2835464708
 31
0.0
 11
-56.7724562934
 21
22.2835893126
 31
0.0
 11
-56.8073043179
 21
22.283603561
 31
0.0
  0
SPLINE
  5
3A5
100
AcDbEntity
  8
RACCORDO
100
AcDbSpline
 62
253
  6
CONTINUOUS
 70
0
 71
3
 72
68
 73
64
 74
62
 42
0.0000001
 43
0.0000001
 44
0.0000000001
 12
0.0017578459
 22
2.0033796173
 32
0.0
 13
-1.3089059916
 23
-1.5166733618
 33
0.0
 40
0.0
 40
0.0
 40
0.0
 40
0.0
 40
0.0346131628
 40
0.0661234458
 40
0.0946705227
 40
0.1204329765
 40
0.143533315
 40
0.1640403391
 40
0.1820083054
 40
0.1979429033
 40
0.2125660899
 40
0.226582487
 40
0.2405758692
 40
0.2547980379
 40
0.2690355728
 40
0.2829571121
 40
0.2973333932
 40
0.3128841581
 40
0.3295172184
 40
0.34731034
 40
0.3663421173
 40
0.3856168386
 40
0.4036604157
 40
0.4198094134
 40
0.434351346
 40
0.4477936046
 40
0.4605912761
 40
0.4731239933
 40
0.4855793287
 40
0.498047266
 40
0.5101946402
 40
0.5221014087
 40
0.5342921434
 40
0.5473224896
 40
0.5617885698
 40
0.5781750998
 40
0.596696964
 40
0.6171669625
 40
0.638497636
 40
0.6600077183
 40
0.6813161215
 40
0.7023379217
 40
0.7228794168
 40
0.7428239292
 40
0.7623077891
 40
0.781228488
 40
0.7994329599
 40
0.8169412192
 40
0.8338139344
 40
0.8500460756
 40
0.8655858644
 40
0.8803724333
 40
0.8942820068
 40
0.9075163239
 40
0.9205398208
 40
0.9337251781
 40
0.9470668834
 40
0.9600744621
 40
0.9722743181
 40
0.9831390243
 40
0.9919875504
 40
0.9979848488
 40
1.0
 40
1.0
 40
1.0
 40
1.0
 10
-56.5699936258
 20
22.2846016817
 30
0.0
 10
-56.5699733443
 20
22.3077161167
 30
0.0
 10
-56.5699795722
 20
22.3518729566
 30
0.0
 10
-56.5701066113
 20
22.4150932147
 30
0.0
 10
-56.5703147427
 20
22.4724027698
 30
0.0
 10
-56.5705769364
 20
22.5240959254
 30
0.0
 10
-56.5708717339
 20
22.5704197088
 30
0.0
 10
-56.5711811503
 20
22.6115381552
 30
0.0
 10
-56.5714931072
 20
22.6478711894
 30
0.0
 10
-56.57180112
 20
22.6802749083
 30
0.0
 10
-56.5721070176
 20
22.7100396864
 30
0.0
 10
-56.572420651
 20
22.7385079767
 30
0.0
 10
-56.5727458312
 20
22.7667083215
 30
0.0
 10
-56.5730842693
 20
22.7950561959
 30
0.0
 10
-56.5734425909
 20
22.8233558475
 30
0.0
 10
-56.5738251838
 20
22.8517581061
 30
0.0
 10
-56.574245402
 20
22.8810368939
 30
0.0
 10
-56.5747232037
 20
22.9121257617
 30
0.0
 10
-56.5752619036
 20
22.9454956944
 30
0.0
 10
-56.5758564086
 20
22.98118962
 30
0.0
 10
-56.5764822013
 20
23.0186473522
 30
0.0
 10
-56.5771348602
 20
23.0562719117
 30
0.0
 10
-56.5777983125
 20
23.0919708639
 30
0.0
 10
-56.5784215203
 20
23.1245094829
 30
0.0
 10
-56.5790022776
 20
23.1539756163
 30
0.0
 10
-56.5795459855
 20
23.1812040499
 30
0.0
 10
-56.5800702578
 20
23.2070908621
 30
0.0
 10
-56.5805872707
 20
23.2323186251
 30
0.0
 10
-56.5811092685
 20
23.2573260427
 30
0.0
 10
-56.5816298524
 20
23.2820761061
 30
0.0
 10
-56.5821667136
 20
23.3064594062
 30
0.0
 10
-56.5827130515
 20
23.3306573316
 30
0.0
 10
-56.5832753528
 20
23.3554446895
 30
0.0
 10
-56.5838725162
 20
23.3819407883
 30
0.0
 10
-56.584519098
 20
23.4112384065
 30
0.0
 10
-56.5852406065
 20
23.4442024623
 30
0.0
 10
-56.5860680896
 20
23.4811745363
 30
0.0
 10
-56.5870085485
 20
23.5214465565
 30
0.0
 10
-56.5880198939
 20
23.5637129697
 30
0.0
 10
-56.5889981606
 20
23.6065401916
 30
0.0
 10
-56.589989653
 20
23.6491607867
 30
0.0
 10
-56.5909846477
 20
23.6911343051
 30
0.0
 10
-56.5919592368
 20
23.7321972529
 30
0.0
 10
-56.592890392
 20
23.7722339153
 30
0.0
 10
-56.5937646643
 20
23.8111892368
 30
0.0
 10
-56.5946024494
 20
23.8489830926
 30
0.0
 10
-56.5954154263
 20
23.8854578812
 30
0.0
 10
-56.5961859326
 20
23.920565646
 30
0.0
 10
-56.5969016053
 20
23.9543571813
 30
0.0
 10
-56.5975594662
 20
23.9868350968
 30
0.0
 10
-56.5981602052
 20
24.0179207698
 30
0.0
 10
-56.5987071601
 20
24.0474561327
 30
0.0
 10
-56.5992161177
 20
24.0754525322
 30
0.0
 10
-56.5997067484
 20
24.1022710791
 30
0.0
 10
-56.6001924879
 20
24.1286082619
 30
0.0
 10
-56.6006904243
 20
24.1550084822
 30
0.0
 10
-56.6012043742
 20
24.1814295742
 30
0.0
 10
-56.6017437742
 20
24.2070769961
 30
0.0
 10
-56.6022670588
 20
24.2314622277
 30
0.0
 10
-56.6029613513
 20
24.2518270523
 30
0.0
 10
-56.6033262712
 20
24.2715135289
 30
0.0
 10
-56.6044684498
 20
24.2776920984
 30
0.0
 10
-56.6044401678
 20
24.2885353124
 30
0.0
 10
-56.6053193823
 20
24.287516537
 30
0.0
 11
-56.5699936258
 21
22.2846016817
 31
0.0
 11
-56.5700024716
 21
22.3539450128
 31
0.0
 11
-56.5701284974
 21
22.4170719699
 31
0.0
 11
-56.5703359292
 21
22.4742622478
 31
0.0
 11
-56.5705976695
 21
22.5258735788
 31
0.0
 11
-56.5708922427
 21
22.5721514064
 31
0.0
 11
-56.5712016529
 21
22.6132336111
 31
0.0
 11
-56.5715106118
 21
22.6492289564
 31
0.0
 11
-56.5718137254
 21
22.6811505783
 31
0.0
 11
-56.5721148697
 21
22.7104448357
 31
0.0
 11
-56.572423228
 21
22.7385233177
 31
0.0
 11
-56.5727459585
 21
22.7665555274
 31
0.0
 11
-56.5730875773
 21
22.7950458933
 31
0.0
 11
-56.5734491497
 21
22.8235667997
 31
0.0
 11
-56.5738251254
 21
22.8514544041
 31
0.0
 11
-56.5742388332
 21
22.8802525923
 31
0.0
 11
-56.5747159813
 21
22.9114030355
 31
0.0
 11
-56.5752521478
 21
22.9447210686
 31
0.0
 11
-56.5758429262
 21
22.9803625635
 31
0.0
 11
-56.5764835306
 21
23.018485071
 31
0.0
 11
-56.5771573461
 21
23.0570937901
 31
0.0
 11
-56.5778254326
 21
23.0932357645
 31
0.0
 11
-56.5784452269
 21
23.1255824124
 31
0.0
 11
-56.579018055
 21
23.1547098028
 31
0.0
 11
-56.5795558848
 21
23.1816343889
 31
0.0
 11
-56.5800748818
 21
23.2072677394
 31
0.0
 11
-56.5805899232
 21
23.2323702562
 31
0.0
 11
-56.5811097572
 21
23.2573176156
 31
0.0
 11
-56.5816385007
 21
23.2822900397
 31
0.0
 11
-56.582172544
 21
23.3066199905
 31
0.0
 11
-56.5827091917
 21
23.3304677397
 31
0.0
 11
-56.583262058
 21
23.3548841598
 31
0.0
 11
-56.5838489832
 21
23.3809823009
 31
0.0
 11
-56.5844899793
 21
23.4099562729
 31
0.0
 11
-56.5852119363
 21
23.442776786
 31
0.0
 11
-56.5860446825
 21
23.4798737801
 31
0.0
 11
-56.5869989774
 21
23.5208718689
 31
0.0
 11
-56.588009334
 21
23.563593376
 31
0.0
 11
-56.589004272
 21
23.6066747659
 31
0.0
 11
-56.5899972681
 21
23.6493520522
 31
0.0
 11
-56.5909924527
 21
23.6914549546
 31
0.0
 11
-56.5919653826
 21
23.7325958804
 31
0.0
 11
-56.5928920606
 21
23.772541578
 31
0.0
 11
-56.5937712838
 21
23.8115652574
 31
0.0
 11
-56.5946138311
 21
23.8494612495
 31
0.0
 11
-56.5954236695
 21
23.8859227391
 31
0.0
 11
-56.5961906764
 21
23.9209900552
 31
0.0
 11
-56.5969053635
 21
23.9547849658
 31
0.0
 11
-56.5975636802
 21
23.9872974549
 31
0.0
 11
-56.5981656368
 21
24.0184237429
 31
0.0
 11
-56.598716279
 21
24.0480417469
 31
0.0
 11
-56.5992248594
 21
24.0759032723
 31
0.0
 11
-56.5997099923
 21
24.1024122048
 31
0.0
 11
-56.600192274
 21
24.1284987654
 31
0.0
 11
-56.6006911438
 21
24.1549093403
 31
0.0
 11
-56.6012154229
 21
24.1816327089
 31
0.0
 11
-56.6017585269
 21
24.2076861768
 31
0.0
 11
-56.6023332061
 21
24.232120372
 31
0.0
 11
-56.6029599319
 21
24.2538774864
 31
0.0
 11
-56.6036491479
 21
24.271591047
 31
0.0
 11
-56.6044182727
 21
24.283581274
 31
0.0
 11
-56.6053193823
 21
24.287516537
 31
0.0
  0
SPLINE
  5
3A6
100
AcDbEntity
  8
RACCORDO
100
AcDbSpline
 62
253
  6
CONTINUOUS
 70
0
 71
3
 72
17
 73
13
 74
11
 42
0.0000001
 43
0.0000001
 44
0.0000000001
 12
0.118085523
 22
-2.7660130464
 32
0.0
 13
-2.7644749256
 23
0.1423277722
 33
0.0
 40
0.0
 40
0.0
 40
0.0
 40
0.0
 40
0.1560141718
 40
0.3084189429
 40
0.4533073288
 40
0.5870509086
 40
0.7067570437
 40
0.8089259602
 40
0.8909688331
 40
0.9510531966
 40
0.9875553533
 40
1.0
 40
1.0
 40
1.0
 40
1.0
 10
-52.2904432743
 20
-44.4668741982
 30
0.0
 10
-52.2843022693
 20
-44.6107199431
 30
0.0
 10
-52.2737696062
 20
-44.8951481192
 30
0.0
 10
-52.2618521739
 20
-45.3133363531
 30
0.0
 10
-52.2532330464
 20
-45.7109490591
 30
0.0
 10
-52.2472021576
 20
-46.0787560472
 30
0.0
 10
-52.2441246227
 20
-46.4061386034
 30
0.0
 10
-52.2416469533
 20
-46.6889010361
 30
0.0
 10
-52.2454971962
 20
-46.9081952215
 30
0.0
 10
-52.2405833342
 20
-47.0874065522
 30
0.0
 10
-52.2576916069
 20
-47.1622546167
 30
0.0
 10
-52.2483116361
 20
-47.2343022157
 30
0.0
 10
-52.2597792741
 20
-47.2337118094
 30
0.0
 11
-52.2904432743
 21
-44.4668741982
 31
0.0
 11
-52.2742666975
 21
-44.8985014804
 31
0.0
 11
-52.2621462881
 21
-45.3202649279
 31
0.0
 11
-52.2533760628
 21
-45.7212972503
 31
0.0
 11
-52.2474473883
 21
-46.0915232345
 31
0.0
 11
-52.2440052505
 21
-46.4229156874
 31
0.0
 11
-52.2428379228
 21
-46.7057712475
 31
0.0
 11
-52.2437940771
 21
-46.9329075972
 31
0.0
 11
-52.2468277333
 21
-47.0992254474
 31
0.0
 11
-52.2519785051
 21
-47.2001515059
 31
0.0
 11
-52.2597792741
 21
-47.2337118094
 31
0.0
  0
SPLINE
  5
3A7
100
AcDbEntity
  8
RACCORDO
100
AcDbSpline
 62
253
  6
CONTINUOUS
 70
0
 71
3
 72
17
 73
13
 74
11
 42
0.0000001
 43
0.0000001
 44
0.0000000001
 12
1.3147072979
 22
-1.300353869
 32
0.0
 13
-0.1161166109
 23
-1.8455060001
 33
0.0
 40
0.0
 40
0.0
 40
0.0
 40
0.0
 40
0.0167370957
 40
0.0567438122
 40
0.1188623527
 40
0.2016783861
 40
0.3035185168
 40
0.4220799854
 40
0.5541025679
 40
0.6968369921
 40
0.8467837868
 40
1.0
 40
1.0
 40
1.0
 40
1.0
 10
-53.1954736365
 20
46.4491014807
 30
0.0
 10
-53.1881388425
 20
46.441846765
 30
0.0
 10
-53.1909889202
 20
46.4016811912
 30
0.0
 10
-53.182491474
 20
46.3329104729
 30
0.0
 10
-53.1834128488
 20
46.2166274887
 30
0.0
 10
-53.1819763402
 20
46.0654646137
 30
0.0
 10
-53.1839149618
 20
45.8782225516
 30
0.0
 10
-53.187318458
 20
45.6611371954
 30
0.0
 10
-53.1931952836
 20
45.4187322499
 30
0.0
 10
-53.2016266763
 20
45.1570950375
 30
0.0
 10
-53.213158546
 20
44.8824844812
 30
0.0
 10
-53.2233107258
 20
44.6958878961
 30
0.0
 10
-53.2292410416
 20
44.6016340825
 30
0.0
 11
-53.1954736365
 21
46.4491014807
 31
0.0
 11
-53.1892192677
 21
46.418790529
 31
0.0
 11
-53.1852707325
 21
46.3449173452
 31
0.0
 11
-53.1830221138
 21
46.2300725259
 31
0.0
 11
-53.1825407577
 21
46.0769335723
 31
0.0
 11
-53.1839616423
 21
45.8886207115
 31
0.0
 11
-53.187484886
 21
45.6694104507
 31
0.0
 11
-53.1933467586
 21
45.4253505732
 31
0.0
 11
-53.2019018235
 21
45.1615511354
 31
0.0
 11
-53.2136395263
 21
44.8845247733
 31
0.0
 11
-53.2292410416
 21
44.6016340825
 31
0.0
  0
ELLIPSE
  5
3A8
100
AcDbEntity
  8
RACCORDO
100
AcDbEllipse
 62
7
  6
CONTINUOUS
 10
58.2232202268
 20
4.2348306487
 30
0.0
 11
0.0
 21
0.5
 31
0.0
 40
0.0524077793
 41
-3.0106929597
 42
-1.5707963268
  0
ELLIPSE
  5
3A9
100
AcDbEntity
  8
RACCORDO
100
AcDbEllipse
 62
7
  6
CONTINUOUS
 10
58.2232202268
 20
-4.1687558046
 30
0.0
 11
-0.0
 21
0.5
 31
0.0
 40
0.0524077793
 41
-1.5707963268
 42
-0.1308996939
  0
ELLIPSE
  5
3AA
100
AcDbEntity
  8
RACCORDO
100
AcDbEllipse
 62
7
  6
CONTINUOUS
 10
-36.7243719939
 20
4.2348306487
 30
0.0
 11
-0.0
 21
0.5
 31
0.0
 40
0.0524077793
 41
1.5707963268
 42
3.0106929597
  0
ELLIPSE
  5
3AB
100
AcDbEntity
  8
RACCORDO
100
AcDbEllipse
 62
7
  6
CONTINUOUS
 10
-36.7243719939
 20
-4.1687558046
 30
0.0
 11
-0.0
 21
0.5
 31
0.0
 40
0.0524077793
 41
0.1308996939
 42
1.5707963268
  0
ELLIPSE
  5
3AC
100
AcDbEntity
  8
RACCORDO
100
AcDbEllipse
 62
7
  6
CONTINUOUS
 10
58.1708124475
 20
-3.0284743465
 30
0.0
 11
0.0
 21
0.5
 31
0.0
 40
0.0524077793
 41
1.5707963268
 42
3.0106929597
  0
ELLIPSE
  5
3AD
100
AcDbEntity
  8
RACCORDO
100
AcDbEllipse
 62
7
  6
CONTINUOUS
 10
58.1708124475
 20
3.0945491905
 30
0.0
 11
0.0
 21
0.5
 31
0.0
 40
0.0524077793
 41
0.1308996939
 42
1.5707963268
  0
ELLIPSE
  5
3AE
100
AcDbEntity
  8
RACCORDO
100
AcDbEllipse
 62
7
  6
CONTINUOUS
 10
-36.6719642147
 20
-3.0284743465
 30
0.0
 11
0.0
 21
0.5
 31
0.0
 40
0.0524077793
 41
-3.0106929597
 42
-1.5707963268
  0
ELLIPSE
  5
3AF
100
AcDbEntity
  8
RACCORDO
100
AcDbEllipse
 62
7
  6
CONTINUOUS
 10
-36.6719642147
 20
3.0945491905
 30
0.0
 11
0.0
 21
0.5
 31
0.0
 40
0.0524077793
 41
-1.5707963268
 42
-0.1308996939
  0
ENDSEC
  0
SECTION
  2
OBJECTS
  0
DICTIONARY
  5
C
100
AcDbDictionary
280
0
281
1
  3
ACAD_GROUP
350
D
  3
ACAD_MLINESTYLE
350
17
  3
ACAD_LAYOUT
350
1A
  3
ACAD_PLOTSETTINGS
350
19
  3
ACAD_PLOTSTYLENAME
350
E
  0
DICTIONARY
  5
D
102
{ACAD_REACTORS
330
C
102
}
100
AcDbDictionary
280
0
281
1
  0
ACDBDICTIONARYWDFLT
  5
E
102
{ACAD_REACTORS
330
C
102
}
100
AcDbDictionary
281
1
  3
Normal
350
F
100
AcDbDictionaryWithDefault
340
F
  0
DICTIONARY
  5
17
102
{ACAD_REACTORS
330
C
102
}
100
AcDbDictionary
280
0
281
1
  3
Standard
350
18
  0
DICTIONARY
  5
19
102
{ACAD_REACTORS
330
C
102
}
100
AcDbDictionary
281
1
  0
DICTIONARY
  5
1A
102
{ACAD_REACTORS
330
C
102
}
100
AcDbDictionary
281
1
  3
Model
350
3B0
  3
Layout1
350
3B1
  0
ACDBPLACEHOLDER
  5
F
102
{ACAD_REACTORS
330
E
102
}
  0
MLINESTYLE
  5
18
102
{ACAD_REACTORS
330
17
102
}
100
AcDbMlineStyle
  2
STANDARD
 70
0
  3

 62
256
 51
90.0
 52
90.0
 71
2
 49
0.5
 62
256
  6
BYLAYER
 49
-0.5
 62
256
  6
BYLAYER
  0
LAYOUT
  5
3B0
102
{ACAD_REACTORS
330
1A
102
}
100
AcDbPlotSettings
  1

  2
none_device
  4
ISO_A4_(297.00_x_210.00_MM)
  6

 40
0.0
 41
0.0
 42
0.0
 43
0.0
 44
297.0
 45
210.0
 46
0.0
 47
0.0
 48
0.0
 49
0.0
140
0.0
141
0.0
142
1.0
143
1.0
 70
1024
 72
1
 73
0
 74
0
  7

 75
0
147
1.0
148
0.0
149
0.0
100
AcDbLayout
  1
Model
 70
0
 71
0
 10
0.0
 20
0.0
 11
297.0
 21
210.0
 12
0.0
 22
0.0
 32
0.0
 14
0.0
 24
0.0
 34
0.0
 15
0.0
 25
0.0
 35
0.0
146
0.0
 13
0.0
 23
0.0
 33
0.0
 16
1.0
 26
0.0
 36
0.0
 17
0.0
 27
1.0
 37
0.0
 76
0
330
20D
345
0
346
0
  0
LAYOUT
  5
3B1
102
{ACAD_REACTORS
330
1A
102
}
100
AcDbPlotSettings
  1

  2
none_device
  4
ISO_A4_(297.00_x_210.00_MM)
  6

 40
0.0
 41
0.0
 42
0.0
 43
0.0
 44
297.0
 45
210.0
 46
0.0
 47
0.0
 48
0.0
 49
0.0
140
0.0
141
0.0
142
1.0
143
1.0
 70
0
 72
1
 73
0
 74
0
  7

 75
0
147
1.0
148
0.0
149
0.0
100
AcDbLayout
  1
Layout1
 70
0
 71
1
 10
0.0
 20
0.0
 11
297.0
 21
210.0
 12
0.0
 22
0.0
 32
0.0
 14
0.0
 24
0.0
 34
0.0
 15
0.0
 25
0.0
 35
0.0
146
0.0
 13
0.0
 23
0.0
 33
0.0
 16
1.0
 26
0.0
 36
0.0
 17
0.0
 27
1.0
 37
0.0
 76
0
330
20E
345
0
346
0
  0
ENDSEC
  0
EOF
