  0
SECTION
  2
HEADER
  9
$ACADVER
  1
AC1015
  9
$DWGCODEPAGE
  3
ANSI_1252
  9
$EXTMAX
 10
297.0
 20
210.0
 30
0.0
  9
$EXTMIN
 10
0.0
 20
0.0
 30
0.0
  9
$LIMMIN
 10
0.0
 20
0.0
  9
$LIMMAX
 10
297.0
 20
210.0
  9
$VIEWCTR
 10
148.5
 20
105.0
  9
$VIEWSIZE
 40
210.0
  9
$CLAYER
  8
0
  9
$LTSCALE
 40
16.335
  9
$CELTYPE
  6
BYLAYER
  9
$DIMSCALE
 40
1.0
  9
$DIMASZ
 40
3.0
  9
$DIMEXO
 40
1.85625
  9
$DIMDLI
 40
11.286
  9
$DIMEXE
 40
5.346
  9
$DIMCEN
 40
2.673
  9
$DIMLFAC
 40
1.0
  9
$DIMBLK
  1
_FILLED
  9
$DIMTXT
 40
3.0
  9
$DIMTOL
 70
1
  9
$DIMLIM
 70
0
  9
$DIMTFAC
 40
1.0
  9
$DIMTP
 40
0.01
  9
$DIMTM
 40
0.01
  9
$PDMODE
 70
3
  9
$PDSIZE
 40
3.0
  9
$HANDSEED
  5
3C1
  9
$TILEMODE
 70
1
  9
$MEASUREMENT
 70
1
  9
$INSUNITS
 70
4
  0
ENDSEC
  0
SECTION
  2
CLASSES
  0
CLASS
  1
ACDBDICTIONARYWDFLT
  2
AcDbDictionaryWithDefault
  3
AutoCAD 2000
 90
0
280
0
281
0
  0
CLASS
  1
ACDBPLACEHOLDER
  2
AcDbPlaceHolder
  3
AutoCAD 2000
 90
0
280
0
281
0
  0
CLASS
  1
LAYOUT
  2
AcDbLayout
  3
AutoCAD 2000
 90
0
280
0
281
0
  0
ENDSEC
  0
SECTION
  2
TABLES
  0
TABLE
  2
VPORT
  5
8
100
AcDbSymbolTable
 70
2
  0
VPORT
  5
1F4
100
AcDbSymbolTableRecord
100
AcDbViewportTableRecord
  2
*ACTIVE
 70
0
 10
0.0
 20
0.0
 11
1.0
 21
1.0
 12
148.5
 22
105.0
 13
0.0
 23
0.0
 14
1.0
 24
1.0
 15
0.0
 25
0.0
 16
0.0
 26
0.0
 36
1.0
 17
0.0
 27
0.0
 37
0.0
 40
210.0
 41
1.4142857143
 42
50.0
 43
0.0
 44
0.0
 50
0.0
 51
0.0
 71
0
 72
100
 73
1
 74
1
 75
0
 76
0
 77
0
 78
0
  0
ENDTAB
  0
TABLE
  2
LTYPE
  5
5
100
AcDbSymbolTable
 70
6
  0
LTYPE
  5
14
100
AcDbSymbolTableRecord
100
AcDbLinetypeTableRecord
  2
BYBLOCK
 70
0
  3

 72
65
 73
0
 40
0.0
  0
LTYPE
  5
15
100
AcDbSymbolTableRecord
100
AcDbLinetypeTableRecord
  2
BYLAYER
 70
0
  3

 72
65
 73
0
 40
0.0
  0
LTYPE
  5
16
100
AcDbSymbolTableRecord
100
AcDbLinetypeTableRecord
  2
CONTINUOUS
 70
64
  3
Solid line
 72
65
 73
0
 40
0.0
  0
LTYPE
  5
1F5
100
AcDbSymbolTableRecord
100
AcDbLinetypeTableRecord
  2
CENTER
 70
64
  3
____ _ ____ _ ____ _ ____ _ ____ _ ____ _ ____
 72
65
 73
4
 40
0.6
 49
0.375
 74
0
 49
-0.075
 74
0
 49
0.075
 74
0
 49
-0.075
 74
0
  0
LTYPE
  5
1F6
100
AcDbSymbolTableRecord
100
AcDbLinetypeTableRecord
  2
HIDDEN
 70
64
  3
- - - - - - - - - - - - - - - - - - - -
 72
65
 73
2
 40
0.2
 49
0.1
 74
0
 49
-0.1
 74
0
  0
LTYPE
  5
1F7
100
AcDbSymbolTableRecord
100
AcDbLinetypeTableRecord
  2
PHANTOM
 70
64
  3
_____ _ _ _____ _ _ _____ _ _ _____
 72
65
 73
6
 40
0.8
 49
0.45
 74
0
 49
-0.05
 74
0
 49
0.1
 74
0
 49
-0.05
 74
0
 49
0.1
 74
0
 49
-0.05
 74
0
  0
LTYPE
  5
1F8
100
AcDbSymbolTableRecord
100
AcDbLinetypeTableRecord
  2
DOT
 70
64
  3
. . . . . . . . . . . . . . . . . . . .
 72
65
 73
2
 40
0.2
 49
0.1
 74
0
 49
-0.1
 74
0
  0
LTYPE
  5
1F9
100
AcDbSymbolTableRecord
100
AcDbLinetypeTableRecord
  2
DASHED
 70
64
  3
- - - - - - - - - - - - - - - - - - - -
 72
65
 73
2
 40
0.2
 49
0.1
 74
0
 49
-0.1
 74
0
  0
ENDTAB
  0
TABLE
  2
LAYER
  5
2
100
AcDbSymbolTable
 70
36
  0
LAYER
  5
10
100
AcDbSymbolTableRecord
100
AcDbLayerTableRecord
  2
0
 70
0
 62
7
  6
CONTINUOUS
370
-3
390
F
  0
LAYER
  5
1FA
100
AcDbSymbolTableRecord
100
AcDbLayerTableRecord
  2
DEFAULT_1
 70
0
 62
7
  6
CENTER
370
-3
390
F
  0
LAYER
  5
1FB
100
AcDbSymbolTableRecord
100
AcDbLayerTableRecord
  2
DEFAULT_2
 70
0
 62
7
  6
HIDDEN
370
-3
390
F
  0
LAYER
  5
1FC
100
AcDbSymbolTableRecord
100
AcDbLayerTableRecord
  2
DEFAULT_3
 70
0
 62
7
  6
PHANTOM
370
-3
390
F
  0
LAYER
  5
1FD
100
AcDbSymbolTableRecord
100
AcDbLayerTableRecord
  2
ASSI
 70
0
 62
7
  6
CONTINUOUS
370
-3
390
F
  0
LAYER
  5
1FE
100
AcDbSymbolTableRecord
100
AcDbLayerTableRecord
  2
COORDINATE
 70
0
 62
7
  6
CONTINUOUS
370
-3
390
F
  0
LAYER
  5
1FF
100
AcDbSymbolTableRecord
100
AcDbLayerTableRecord
  2
COPY_PUBLISH
 70
0
 62
7
  6
CONTINUOUS
370
-3
390
F
  0
LAYER
  5
200
100
AcDbSymbolTableRecord
100
AcDbLayerTableRecord
  2
COSMETIC
 70
0
 62
7
  6
CONTINUOUS
370
-3
390
F
  0
LAYER
  5
201
100
AcDbSymbolTableRecord
100
AcDbLayerTableRecord
  2
CURVE
 70
0
 62
7
  6
CONTINUOUS
370
-3
390
F
  0
LAYER
  5
202
100
AcDbSymbolTableRecord
100
AcDbLayerTableRecord
  2
DRAFT
 70
0
 62
7
  6
CONTINUOUS
370
-3
390
F
  0
LAYER
  5
203
100
AcDbSymbolTableRecord
100
AcDbLayerTableRecord
  2
IMPORT_IGES
 70
0
 62
7
  6
CONTINUOUS
370
-3
390
F
  0
LAYER
  5
204
100
AcDbSymbolTableRecord
100
AcDbLayerTableRecord
  2
INTF_1
 70
0
 62
7
  6
CONTINUOUS
370
-3
390
F
  0
LAYER
  5
205
100
AcDbSymbolTableRecord
100
AcDbLayerTableRecord
  2
PIANI
 70
0
 62
7
  6
CONTINUOUS
370
-3
390
F
  0
LAYER
  5
206
100
AcDbSymbolTableRecord
100
AcDbLayerTableRecord
  2
PUNTI
 70
0
 62
7
  6
CONTINUOUS
370
-3
390
F
  0
LAYER
  5
207
100
AcDbSymbolTableRecord
100
AcDbLayerTableRecord
  2
RACCORDO
 70
0
 62
7
  6
CONTINUOUS
370
-3
390
F
  0
LAYER
  5
208
100
AcDbSymbolTableRecord
100
AcDbLayerTableRecord
  2
SNAPLINE
 70
0
 62
7
  6
CONTINUOUS
370
-3
390
F
  0
LAYER
  5
209
100
AcDbSymbolTableRecord
100
AcDbLayerTableRecord
  2
SUPERFICI
 70
0
 62
7
  6
CONTINUOUS
370
-3
390
F
  0
LAYER
  5
20A
100
AcDbSymbolTableRecord
100
AcDbLayerTableRecord
  2
TRASH
 70
0
 62
7
  6
CONTINUOUS
370
-3
390
F
  0
ENDTAB
  0
TABLE
  2
STYLE
  5
3
100
AcDbSymbolTable
 70
1
  0
STYLE
  5
11
100
AcDbSymbolTableRecord
100
AcDbTextStyleTableRecord
  2
STANDARD
 70
0
 40
0.0
 41
0.8
 50
0.0
 71
0
 42
0.2
  3
txt
  4

  0
STYLE
  5
20B
100
AcDbSymbolTableRecord
100
AcDbTextStyleTableRecord
  2
TEXTSTYLE_1
 70
0
 40
0.0
 41
0.8
 50
0.0
 71
0
 42
0.2
  3
gdt
  4

  0
ENDTAB
  0
TABLE
  2
VIEW
  5
6
100
AcDbSymbolTable
 70
0
  0
ENDTAB
  0
TABLE
  2
UCS
  5
7
100
AcDbSymbolTable
 70
0
  0
ENDTAB
  0
TABLE
  2
APPID
  5
9
100
AcDbSymbolTable
 70
1
  0
APPID
  5
20C
100
AcDbSymbolTableRecord
100
AcDbRegAppTableRecord
  2
ACAD
 70
0
  0
ENDTAB
  0
TABLE
  2
BLOCK_RECORD
  5
1
100
AcDbSymbolTable
 70
0
  0
BLOCK_RECORD
  5
20D
100
AcDbSymbolTableRecord
100
AcDbBlockTableRecord
  2
*Model_Space
  0
BLOCK_RECORD
  5
20E
100
AcDbSymbolTableRecord
100
AcDbBlockTableRecord
  2
*Paper_Space
  0
BLOCK_RECORD
  5
20F
100
AcDbSymbolTableRecord
100
AcDbBlockTableRecord
  2
_FILLED
  0
BLOCK_RECORD
  5
210
100
AcDbSymbolTableRecord
100
AcDbBlockTableRecord
  2
*D0
  0
BLOCK_RECORD
  5
211
100
AcDbSymbolTableRecord
100
AcDbBlockTableRecord
  2
*D1
  0
BLOCK_RECORD
  5
212
100
AcDbSymbolTableRecord
100
AcDbBlockTableRecord
  2
*D2
  0
ENDTAB
  0
TABLE
  2
DIMSTYLE
  5
A
100
AcDbSymbolTable
 70
1
100
AcDbDimStyleTable
 71
0
  0
DIMSTYLE
105
213
100
AcDbSymbolTableRecord
100
AcDbDimStyleTableRecord
  2
STANDARD
 70
0
  3

  4

 40
1.0
 41
3.0
 42
0.0625
 43
0.38
 44
0.18
 45
0.0
 46
0.0
 47
0.01
 48
0.01
140
3.0
141
0.09
142
0.0
143
25.4
144
1.0
145
0.0
146
1.0
147
0.09
 71
1.0
 72
0.0
 73
0
 74
0
 75
0
 76
0
 77
1
 78
8
170
0
171
2
172
0
173
0
174
0
175
0
176
0
177
0
178
0
270
2
271
2
272
2
273
2
274
2
275
0
280
0
281
0
282
0
283
1
284
8
285
0
286
0
287
3
288
0
340
11
341
20F
342
20F
343
20F
344
20F
  0
DIMSTYLE
105
214
100
AcDbSymbolTableRecord
100
AcDbDimStyleTableRecord
  2
DIMSTYLE_1
 70
0
  3

  4

 40
1.0
 41
3.0
 42
0.0625
 43
0.38
 44
0.18
 45
0.0
 46
0.0
 47
0.0
 48
0.0
140
3.0
141
0.09
142
0.0
143
25.4
144
1.0
145
0.0
146
1.0
147
0.09
 71
0.0
 72
0.0
 73
0
 74
0
 75
0
 76
0
 77
1
 78
8
170
0
171
2
172
0
173
0
174
0
175
0
176
0
177
0
178
0
270
2
271
2
272
2
273
2
274
2
275
0
280
0
281
0
282
0
283
1
284
8
285
0
286
0
287
3
288
0
340
11
341
20F
342
20F
343
20F
344
20F
  0
ENDTAB
  0
ENDSEC
  0
SECTION
  2
BLOCKS
  0
BLOCK
  5
20
100
AcDbEntity
  8
0
100
AcDbBlockBegin
  2
*Model_Space
 70
0
 10
0.0
 20
0.0
 30
0.0
  3
*Model_Space
  1

  0
ENDBLK
  5
21
100
AcDbEntity
  8
0
100
AcDbBlockEnd
  0
BLOCK
  5
1C
100
AcDbEntity
  8
0
100
AcDbBlockBegin
  2
*Paper_Space
 70
0
 10
0.0
 20
0.0
 30
0.0
  3
*Paper_Space
  1

  0
ENDBLK
  5
1D
100
AcDbEntity
  8
0
100
AcDbBlockEnd
  0
BLOCK
  5
215
100
AcDbEntity
  8
0
100
AcDbBlockBegin
  2
_FILLED
 70
64
 10
0.0
 20
0.0
  3
_FILLED
  1

  0
SOLID
  5
216
100
AcDbEntity
  8
0
  6
BYBLOCK
 62
0
100
AcDbTrace
 10
0.0
 20
0.0
 11
-1.0
 21
0.3166666667
 12
-1.0
 22
-0.3166666667
 13
-1.0
 23
-0.3166666667
  0
ENDBLK
  5
217
100
AcDbEntity
  8
0
  6
BYBLOCK
 62
0
100
AcDbBlockEnd
  0
BLOCK
  5
218
100
AcDbEntity
  8
0
100
AcDbBlockBegin
 62
7
  6
CONTINUOUS
  2
*D0
 70
65
 10
0.0
 20
0.0
  3
*D0
  1

  0
MTEXT
  5
219
100
AcDbEntity
  8
0
100
AcDbMText
 62
7
  6
CONTINUOUS
  7
STANDARD
 71
2
 72
1
 10
11.7209066398
 20
59.1968626559
 30
0.0
 11
1.0
 21
0.0
 31
0.0
 44
0.9
  1
155
 40
3.0
 41
6.0
  0
LINE
  5
21A
100
AcDbEntity
  8
0
100
AcDbLine
 62
7
  6
CONTINUOUS
 10
89.2209066398
 20
44.9468626559
 11
89.2209066398
 21
56.9468626559
  0
LINE
  5
21B
100
AcDbEntity
  8
0
100
AcDbLine
 62
7
  6
CONTINUOUS
 10
-65.7790933602
 20
44.9468626559
 11
-65.7790933602
 21
56.9468626559
  0
LINE
  5
21C
100
AcDbEntity
  8
0
100
AcDbLine
 62
7
  6
CONTINUOUS
 10
89.2209066398
 20
55.4468626559
 11
11.7209066398
 21
55.4468626559
  0
LINE
  5
21D
100
AcDbEntity
  8
0
100
AcDbLine
 62
7
  6
CONTINUOUS
 10
-65.7790933602
 20
55.4468626559
 11
11.7209066398
 21
55.4468626559
  0
INSERT
  5
21E
100
AcDbEntity
  8
0
100
AcDbBlockReference
 62
7
  6
CONTINUOUS
  2
_FILLED
 10
89.2209066398
 20
55.4468626559
 41
3.0
 42
3.0
 43
3.0
  0
INSERT
  5
21F
100
AcDbEntity
  8
0
100
AcDbBlockReference
 62
7
  6
CONTINUOUS
  2
_FILLED
 10
-65.7790933602
 20
55.4468626559
 41
3.0
 42
3.0
 43
3.0
 50
180.0
  0
ENDBLK
  5
220
100
AcDbEntity
  8
0
  6
BYBLOCK
 62
0
100
AcDbBlockEnd
  0
BLOCK
  5
221
100
AcDbEntity
  8
0
100
AcDbBlockBegin
 62
7
  6
CONTINUOUS
  2
*D1
 70
65
 10
0.0
 20
0.0
  3
*D1
  1

  0
MTEXT
  5
222
100
AcDbEntity
  8
0
100
AcDbMText
 62
7
  6
CONTINUOUS
  7
STANDARD
 71
2
 72
1
 10
93.4709066398
 20
-0.0531373441
 30
0.0
 11
0.0
 21
1.0
 31
0.0
 44
0.9
  1
95
 40
3.0
 41
4.5
  0
LINE
  5
223
100
AcDbEntity
  8
0
100
AcDbLine
 62
7
  6
CONTINUOUS
 10
86.7209066398
 20
47.4468626559
 11
98.7209066398
 21
47.4468626559
  0
LINE
  5
224
100
AcDbEntity
  8
0
100
AcDbLine
 62
7
  6
CONTINUOUS
 10
86.7209066398
 20
-47.5531373441
 11
98.7209066398
 21
-47.5531373441
  0
LINE
  5
225
100
AcDbEntity
  8
0
100
AcDbLine
 62
7
  6
CONTINUOUS
 10
97.2209066398
 20
47.4468626559
 11
97.2209066398
 21
-0.0531373441
  0
LINE
  5
226
100
AcDbEntity
  8
0
100
AcDbLine
 62
7
  6
CONTINUOUS
 10
97.2209066398
 20
-47.5531373441
 11
97.2209066398
 21
-0.0531373441
  0
INSERT
  5
227
100
AcDbEntity
  8
0
100
AcDbBlockReference
 62
7
  6
CONTINUOUS
  2
_FILLED
 10
97.2209066398
 20
47.4468626559
 41
3.0
 42
3.0
 43
3.0
 50
90.0
  0
INSERT
  5
228
100
AcDbEntity
  8
0
100
AcDbBlockReference
 62
7
  6
CONTINUOUS
  2
_FILLED
 10
97.2209066398
 20
-47.5531373441
 41
3.0
 42
3.0
 43
3.0
 50
270.0
  0
ENDBLK
  5
229
100
AcDbEntity
  8
0
  6
BYBLOCK
 62
0
100
AcDbBlockEnd
  0
BLOCK
  5
22A
100
AcDbEntity
  8
0
100
AcDbBlockBegin
 62
7
  6
CONTINUOUS
  2
*D2
 70
65
 10
0.0
 20
0.0
  3
*D2
  1

  0
MTEXT
  5
22B
100
AcDbEntity
  8
0
100
AcDbMText
 62
7
  6
CONTINUOUS
  7
STANDARD
 71
2
 72
1
 10
-84.4861214475
 20
59.1968626559
 30
0.0
 11
1.0
 21
0.0
 31
0.0
 44
0.9
  1
9
 40
3.0
 41
2.3571428571
  0
LINE
  5
22C
100
AcDbEntity
  8
0
100
AcDbLine
 62
7
  6
CONTINUOUS
 10
-79.9864883075
 20
47.9468626559
 11
-79.9864883075
 21
56.9468626559
  0
LINE
  5
22D
100
AcDbEntity
  8
0
100
AcDbLine
 62
7
  6
CONTINUOUS
 10
-88.9857545874
 20
24.1039546578
 11
-88.9857545874
 21
56.9468626559
  0
LINE
  5
22E
100
AcDbEntity
  8
0
100
AcDbLine
 62
7
  6
CONTINUOUS
 10
-79.9864883075
 20
55.4468626559
 11
-84.4861214475
 21
55.4468626559
  0
LINE
  5
22F
100
AcDbEntity
  8
0
100
AcDbLine
 62
7
  6
CONTINUOUS
 10
-88.9857545874
 20
55.4468626559
 11
-84.4861214475
 21
55.4468626559
  0
INSERT
  5
230
100
AcDbEntity
  8
0
100
AcDbBlockReference
 62
7
  6
CONTINUOUS
  2
_FILLED
 10
-79.9864883075
 20
55.4468626559
 41
3.0
 42
3.0
 43
3.0
  0
INSERT
  5
231
100
AcDbEntity
  8
0
100
AcDbBlockReference
 62
7
  6
CONTINUOUS
  2
_FILLED
 10
-88.9857545874
 20
55.4468626559
 41
3.0
 42
3.0
 43
3.0
 50
180.0
  0
ENDBLK
  5
232
100
AcDbEntity
  8
0
  6
BYBLOCK
 62
0
100
AcDbBlockEnd
  0
ENDSEC
  0
SECTION
  2
ENTITIES
  0
DIMENSION
  5
233
100
AcDbEntity
  8
0
100
AcDbDimension
 62
7
  6
CONTINUOUS
  2
*D0
 10
-65.7790933602
 20
55.4468626559
 11
8.7209066398
 21
57.6968626559
 70
160
 71
2
 42
155.0
  3
DIMSTYLE_1
100
AcDbAlignedDimension
 13
89.2209066398
 23
44.9468626559
 14
-65.7790933602
 24
44.9468626559
 50
180.0
100
AcDbRotatedDimension
  0
DIMENSION
  5
234
100
AcDbEntity
  8
0
100
AcDbDimension
 62
7
  6
CONTINUOUS
  2
*D1
 10
97.2209066398
 20
-47.5531373441
 11
95.9790722761
 21
-2.0646298372
 70
160
 71
2
 42
95.0
  3
DIMSTYLE_1
100
AcDbAlignedDimension
 13
86.7209066398
 23
47.4468626559
 14
86.7209066398
 24
-47.5531373441
 50
270.0
100
AcDbRotatedDimension
  0
DIMENSION
  5
235
100
AcDbEntity
  8
0
100
AcDbDimension
 62
7
  6
CONTINUOUS
  2
*D2
 10
-88.9857545874
 20
55.4468626559
 11
-85.664692876
 21
57.6968626559
 70
160
 71
2
 42
8.9992662799
  3
DIMSTYLE_1
100
AcDbAlignedDimension
 13
-79.9864883075
 23
47.9468626559
 14
-88.9857545874
 24
24.1039546578
 50
180.0
100
AcDbRotatedDimension
  0
LINE
  5
236
100
AcDbEntity
  8
0
100
AcDbLine
 62
253
  6
CONTINUOUS
 10
67.1022180048
 20
-29.134547992
 11
67.9273745977
 21
-29.1345703829
  0
LINE
  5
237
100
AcDbEntity
  8
0
100
AcDbLine
 62
253
  6
CONTINUOUS
 10
65.3026802731
 20
-29.1344974309
 11
66.0881989701
 21
-29.134516571
  0
LINE
  5
238
100
AcDbEntity
  8
0
100
AcDbLine
 62
253
  6
CONTINUOUS
 10
68.0171615704
 20
-29.1345725324
 11
68.7968192055
 21
-29.1345889999
  0
LINE
  5
239
100
AcDbEntity
  8
0
100
AcDbLine
 62
253
  6
CONTINUOUS
 10
64.4531123741
 20
-29.1344823438
 11
65.2249737987
 21
-29.1344958214
  0
LINE
  5
23A
100
AcDbEntity
  8
0
100
AcDbLine
 62
253
  6
CONTINUOUS
 10
63.5456842822
 20
-29.1344717094
 11
63.7526525273
 21
-29.134473678
  0
LINE
  5
23B
100
AcDbEntity
  8
0
100
AcDbLine
 62
253
  6
CONTINUOUS
 10
69.5686790034
 20
-29.1346000149
 11
70.3340271747
 21
-29.1346033108
  0
LINE
  5
23C
100
AcDbEntity
  8
0
100
AcDbLine
 62
253
  6
CONTINUOUS
 10
62.0904860836
 20
-29.1344644071
 11
62.8487016882
 21
-29.1344668805
  0
LINE
  5
23D
100
AcDbEntity
  8
0
100
AcDbLine
 62
253
  6
CONTINUOUS
 10
61.1677107339
 20
-29.1344644528
 11
61.949694805
 21
-29.1344642231
  0
LINE
  5
23E
100
AcDbEntity
  8
0
100
AcDbLine
 62
253
  6
CONTINUOUS
 10
59.4213070176
 20
-29.1344690993
 11
60.0837863196
 21
-29.1344670755
  0
LINE
  5
23F
100
AcDbEntity
  8
0
100
AcDbLine
 62
253
  6
CONTINUOUS
 10
66.2551860457
 20
-28.5555410925
 11
66.945425897
 21
-28.5555627671
  0
LINE
  5
240
100
AcDbEntity
  8
0
100
AcDbLine
 62
253
  6
CONTINUOUS
 10
68.796750471
 20
-27.9996100315
 11
69.032975996
 21
-27.9996135729
  0
LINE
  5
241
100
AcDbEntity
  8
0
100
AcDbLine
 62
253
  6
CONTINUOUS
 10
66.7779979386
 20
-27.9308714458
 11
66.4289783427
 21
-27.9308669414
  0
LINE
  5
242
100
AcDbEntity
  8
0
100
AcDbLine
 62
253
  6
CONTINUOUS
 10
69.0332529113
 20
-27.3479768144
 11
68.7766413143
 21
-27.3479773297
  0
LINE
  5
243
100
AcDbEntity
  8
0
100
AcDbLine
 62
253
  6
CONTINUOUS
 10
64.9371236707
 20
-26.0578062794
 11
64.1968158085
 21
-26.0577986074
  0
LINE
  5
244
100
AcDbEntity
  8
0
100
AcDbLine
 62
253
  6
CONTINUOUS
 10
63.1150705094
 20
-26.0577897196
 11
62.3683700622
 21
-26.0577850833
  0
LINE
  5
245
100
AcDbEntity
  8
0
100
AcDbLine
 62
253
  6
CONTINUOUS
 10
66.9832531213
 20
-26.0578212413
 11
66.2676869321
 21
-26.0578170906
  0
LINE
  5
246
100
AcDbEntity
  8
0
100
AcDbLine
 62
253
  6
CONTINUOUS
 10
61.0724713165
 20
-26.0577796242
 11
60.2800207238
 21
-26.0577774785
  0
LINE
  5
247
100
AcDbEntity
  8
0
100
AcDbLine
 62
253
  6
CONTINUOUS
 10
61.9495547837
 20
-26.0576089763
 11
61.1678379139
 21
-26.0576059139
  0
LINE
  5
248
100
AcDbEntity
  8
0
100
AcDbLine
 62
253
  6
CONTINUOUS
 10
59.2913647909
 20
-26.0577755499
 11
58.446226136
 21
-26.0577741084
  0
LINE
  5
249
100
AcDbEntity
  8
0
100
AcDbLine
 62
253
  6
CONTINUOUS
 10
62.9569345862
 20
-27.5641270581
 11
63.5456842822
 21
-29.1344717094
  0
LINE
  5
24A
100
AcDbEntity
  8
0
100
AcDbLine
 62
253
  6
CONTINUOUS
 10
63.6530890738
 20
-27.5041007396
 11
63.1150705094
 21
-26.0577897196
  0
LINE
  5
24B
100
AcDbEntity
  8
0
100
AcDbLine
 62
253
  6
CONTINUOUS
 10
58.446226136
 20
-26.0577741084
 11
59.4213070176
 21
-29.1344690993
  0
LINE
  5
24C
100
AcDbEntity
  8
0
100
AcDbLine
 62
253
  6
CONTINUOUS
 10
67.9273745977
 20
-29.1345703829
 11
66.9832531213
 21
-26.0578212413
  0
LINE
  5
24D
100
AcDbEntity
  8
0
100
AcDbLine
 62
253
  6
CONTINUOUS
 10
59.7782580423
 20
-27.815978257
 11
59.2913647909
 21
-26.0577755499
  0
LINE
  5
24E
100
AcDbEntity
  8
0
100
AcDbLine
 62
253
  6
CONTINUOUS
 10
66.945425897
 20
-28.5555627671
 11
67.1022180048
 21
-29.134547992
  0
LINE
  5
24F
100
AcDbEntity
  8
0
100
AcDbLine
 62
253
  6
CONTINUOUS
 10
70.3340271747
 20
-29.1346033108
 11
70.0959637074
 21
-28.2380021605
  0
LINE
  5
250
100
AcDbEntity
  8
0
100
AcDbLine
 62
253
  6
CONTINUOUS
 10
66.6104780476
 20
-27.2825766503
 11
66.7779979386
 21
-27.9308714458
  0
LINE
  5
251
100
AcDbEntity
  8
0
100
AcDbLine
 62
253
  6
CONTINUOUS
 10
65.2249737987
 20
-29.1344958214
 11
64.9371236707
 21
-26.0578062794
  0
LINE
  5
252
100
AcDbEntity
  8
0
100
AcDbLine
 62
253
  6
CONTINUOUS
 10
64.3499410614
 20
-27.5691380943
 11
64.4531123741
 21
-29.1344823438
  0
LINE
  5
253
100
AcDbEntity
  8
0
100
AcDbLine
 62
253
  6
CONTINUOUS
 10
61.1678379139
 20
-26.0576059139
 11
61.1677107339
 21
-29.1344644528
  0
LINE
  5
254
100
AcDbEntity
  8
0
100
AcDbLine
 62
253
  6
CONTINUOUS
 10
61.949694805
 20
-29.1344642231
 11
61.9495547837
 21
-26.0576089763
  0
LINE
  5
255
100
AcDbEntity
  8
0
100
AcDbLine
 62
253
  6
CONTINUOUS
 10
68.0172725443
 20
-26.1039991373
 11
68.0171615704
 21
-29.1345725324
  0
LINE
  5
256
100
AcDbEntity
  8
0
100
AcDbLine
 62
253
  6
CONTINUOUS
 10
68.7766413143
 20
-27.3479773297
 11
68.7766075302
 21
-26.7157034754
  0
LINE
  5
257
100
AcDbEntity
  8
0
100
AcDbLine
 62
253
  6
CONTINUOUS
 10
68.7968192055
 20
-29.1345889999
 11
68.796750471
 21
-27.9996100315
  0
LINE
  5
258
100
AcDbEntity
  8
0
100
AcDbLine
 62
253
  6
CONTINUOUS
 10
62.8487016882
 20
-29.1344668805
 11
62.9569345862
 21
-27.5641270581
  0
LINE
  5
259
100
AcDbEntity
  8
0
100
AcDbLine
 62
253
  6
CONTINUOUS
 10
62.3683700622
 20
-26.0577850833
 11
62.0904860836
 21
-29.1344644071
  0
LINE
  5
25A
100
AcDbEntity
  8
0
100
AcDbLine
 62
253
  6
CONTINUOUS
 10
66.4289783427
 20
-27.9308669414
 11
66.6104780476
 21
-27.2825766503
  0
LINE
  5
25B
100
AcDbEntity
  8
0
100
AcDbLine
 62
253
  6
CONTINUOUS
 10
60.2800207238
 20
-26.0577774785
 11
59.7782580423
 21
-27.815978257
  0
LINE
  5
25C
100
AcDbEntity
  8
0
100
AcDbLine
 62
253
  6
CONTINUOUS
 10
66.0881989701
 20
-29.134516571
 11
66.2551860457
 21
-28.5555410925
  0
LINE
  5
25D
100
AcDbEntity
  8
0
100
AcDbLine
 62
253
  6
CONTINUOUS
 10
60.0837863196
 20
-29.1344670755
 11
61.0724713165
 21
-26.0577796242
  0
LINE
  5
25E
100
AcDbEntity
  8
0
100
AcDbLine
 62
253
  6
CONTINUOUS
 10
66.2676869321
 20
-26.0578170906
 11
65.3026802731
 21
-29.1344974309
  0
LINE
  5
25F
100
AcDbEntity
  8
0
100
AcDbLine
 62
253
  6
CONTINUOUS
 10
64.1968158085
 20
-26.0577986074
 11
63.6530890738
 21
-27.5041007396
  0
LINE
  5
260
100
AcDbEntity
  8
0
100
AcDbLine
 62
253
  6
CONTINUOUS
 10
63.7526525273
 20
-29.134473678
 11
64.3499410614
 21
-27.5691380943
  0
LINE
  5
261
100
AcDbEntity
  8
RACCORDO
100
AcDbLine
 62
253
  6
CONTINUOUS
 10
-62.7790933602
 20
47.4468626559
 11
-62.7790166013
 21
47.2156055193
  0
LINE
  5
262
100
AcDbEntity
  8
RACCORDO
100
AcDbLine
 62
7
  6
CONTINUOUS
 10
-65.7790933602
 20
44.4468626559
 11
-65.7790933602
 21
4.1486558826
  0
LINE
  5
263
100
AcDbEntity
  8
RACCORDO
100
AcDbLine
 62
7
  6
CONTINUOUS
 10
-65.7790933602
 20
-4.2549305707
 11
-65.7790933602
 21
-44.5531373441
  0
LINE
  5
264
100
AcDbEntity
  8
RACCORDO
100
AcDbLine
 62
7
  6
CONTINUOUS
 10
-65.6742778016
 20
3.0083744244
 11
-65.6742778016
 21
-3.1146491126
  0
LINE
  5
265
100
AcDbEntity
  8
RACCORDO
100
AcDbLine
 62
253
  6
CONTINUOUS
 10
-65.541879881
 20
-11.8031345536
 11
-65.541879881
 21
11.6968598655
  0
LINE
  5
266
100
AcDbEntity
  8
RACCORDO
100
AcDbLine
 62
253
  6
CONTINUOUS
 10
-64.8250323135
 20
-11.8031373516
 11
-64.8250323135
 21
11.6968626635
  0
LINE
  5
267
100
AcDbEntity
  8
RACCORDO
100
AcDbLine
 62
253
  6
CONTINUOUS
 10
-62.7790933602
 20
-47.5531373441
 11
-62.7790159674
 21
-47.3218853196
  0
LINE
  5
268
100
AcDbEntity
  8
RACCORDO
100
AcDbLine
 62
7
  6
CONTINUOUS
 10
-65.6970613973
 20
-3.6103715433
 11
-65.7563097645
 21
-3.7592081401
  0
LINE
  5
269
100
AcDbEntity
  8
RACCORDO
100
AcDbLine
 62
7
  6
CONTINUOUS
 10
-65.7563097645
 20
3.6529334519
 11
-65.6970613973
 21
3.5040968551
  0
LINE
  5
26A
100
AcDbEntity
  8
RACCORDO
100
AcDbLine
 62
253
  6
CONTINUOUS
 10
-47.9955824945
 20
-11.803137196
 11
-47.9955824945
 21
11.6968625079
  0
LINE
  5
26B
100
AcDbEntity
  8
RACCORDO
100
AcDbLine
 62
253
  6
CONTINUOUS
 10
-46.3266257526
 20
-11.8031803272
 11
-46.3266257529
 21
11.6968626467
  0
LINE
  5
26C
100
AcDbEntity
  8
0
100
AcDbLine
 62
253
  6
CONTINUOUS
 10
-44.7329560295
 20
-11.8031282081
 11
-44.7329560295
 21
11.6968626447
  0
LINE
  5
26D
100
AcDbEntity
  8
0
100
AcDbLine
 62
7
  6
CONTINUOUS
 10
-44.6290933602
 20
22.1968626559
 11
-44.6290933602
 21
-22.3031373441
  0
LINE
  5
26E
100
AcDbEntity
  8
0
100
AcDbLine
 62
253
  6
CONTINUOUS
 10
-44.3290933602
 20
22.6006643399
 11
-44.3290933602
 21
22.4968626559
  0
LINE
  5
26F
100
AcDbEntity
  8
0
100
AcDbLine
 62
253
  6
CONTINUOUS
 10
-44.3290933602
 20
-22.7069390301
 11
-44.3290933602
 21
-22.6031373441
  0
LINE
  5
270
100
AcDbEntity
  8
RACCORDO
100
AcDbLine
 62
253
  6
CONTINUOUS
 10
-30.0290977024
 20
47.211650761
 11
-30.028559406
 21
24.194207461
  0
LINE
  5
271
100
AcDbEntity
  8
RACCORDO
100
AcDbLine
 62
253
  6
CONTINUOUS
 10
-30.0290977024
 20
-47.3179254491
 11
-30.0290933602
 21
-22.7070564469
  0
LINE
  5
272
100
AcDbEntity
  8
RACCORDO
100
AcDbLine
 62
253
  6
CONTINUOUS
 10
-30.0285594077
 20
24.194207461
 11
-30.029214479
 21
22.6007817588
  0
LINE
  5
273
100
AcDbEntity
  8
RACCORDO
100
AcDbLine
 62
253
  6
CONTINUOUS
 10
-65.7790933602
 20
-44.5531373441
 11
-65.5475539612
 21
-44.5530649213
  0
LINE
  5
274
100
AcDbEntity
  8
SUPERFICI
100
AcDbLine
 62
7
  6
CONTINUOUS
 10
-62.7790933602
 20
-47.5531373441
 11
86.2209066398
 21
-47.5531373441
  0
LINE
  5
275
100
AcDbEntity
  8
RACCORDO
100
AcDbLine
 62
253
  6
CONTINUOUS
 10
53.470910982
 20
-47.3179254491
 11
-30.0290977024
 21
-47.3179254491
  0
LINE
  5
276
100
AcDbEntity
  8
RACCORDO
100
AcDbLine
 62
253
  6
CONTINUOUS
 10
53.4709066398
 20
-46.5539815264
 11
-30.0290933602
 21
-46.5539815264
  0
LINE
  5
277
100
AcDbEntity
  8
RACCORDO
100
AcDbLine
 62
253
  6
CONTINUOUS
 10
89.2209066398
 20
-44.5531373441
 11
88.9893672409
 21
-44.5530648987
  0
LINE
  5
278
100
AcDbEntity
  8
RACCORDO
100
AcDbLine
 62
253
  6
CONTINUOUS
 10
53.4709066398
 20
-25.9898045537
 11
-30.0290933602
 21
-25.9898045537
  0
LINE
  5
279
100
AcDbEntity
  8
RACCORDO
100
AcDbLine
 62
253
  6
CONTINUOUS
 10
53.4703726849
 20
-24.3004821491
 11
-30.0290933602
 21
-24.300482149
  0
LINE
  5
27A
100
AcDbEntity
  8
0
100
AcDbLine
 62
253
  6
CONTINUOUS
 10
53.4710284052
 20
-22.7069828003
 11
-30.0290933602
 21
-22.7069827979
  0
LINE
  5
27B
100
AcDbEntity
  8
0
100
AcDbLine
 62
7
  6
CONTINUOUS
 10
-44.3290933602
 20
-22.6031373441
 11
67.7709066398
 21
-22.6031373441
  0
LINE
  5
27C
100
AcDbEntity
  8
0
100
AcDbLine
 62
253
  6
CONTINUOUS
 10
68.1747294905
 20
-22.3031373441
 11
68.0709066398
 21
-22.3031373441
  0
LINE
  5
27D
100
AcDbEntity
  8
0
100
AcDbLine
 62
253
  6
CONTINUOUS
 10
-44.6290933602
 20
-22.3031373441
 11
-44.7329162109
 21
-22.3031373441
  0
LINE
  5
27E
100
AcDbEntity
  8
RACCORDO
100
AcDbLine
 62
253
  6
CONTINUOUS
 10
69.7710460379
 20
-22.3031760419
 11
68.1747294905
 21
-22.3031267388
  0
LINE
  5
27F
100
AcDbEntity
  8
RACCORDO
100
AcDbLine
 62
253
  6
CONTINUOUS
 10
-46.3292328428
 20
-22.3031781725
 11
-44.7329162109
 21
-22.303126155
  0
LINE
  5
280
100
AcDbEntity
  8
RACCORDO
100
AcDbLine
 62
253
  6
CONTINUOUS
 10
68.1747692656
 20
-11.8031373441
 11
88.9836931606
 21
-11.8031345461
  0
LINE
  5
281
100
AcDbEntity
  8
RACCORDO
100
AcDbLine
 62
253
  6
CONTINUOUS
 10
-65.541879881
 20
-11.8031345536
 11
-44.7329559859
 21
-11.8031282081
  0
LINE
  5
282
100
AcDbEntity
  8
RACCORDO
100
AcDbLine
 62
253
  6
CONTINUOUS
 10
88.9836931606
 20
11.6968598655
 11
68.1747692656
 21
11.6968626447
  0
LINE
  5
283
100
AcDbEntity
  8
RACCORDO
100
AcDbLine
 62
253
  6
CONTINUOUS
 10
-65.541879881
 20
11.6968598655
 11
-44.7329559859
 21
11.6968626447
  0
LINE
  5
284
100
AcDbEntity
  8
RACCORDO
100
AcDbLine
 62
253
  6
CONTINUOUS
 10
-46.3292322632
 20
22.1969013538
 11
-44.7329162109
 21
22.1968520507
  0
LINE
  5
285
100
AcDbEntity
  8
0
100
AcDbLine
 62
253
  6
CONTINUOUS
 10
68.1747296109
 20
22.1968626559
 11
68.0709066398
 21
22.1968626559
  0
LINE
  5
286
100
AcDbEntity
  8
0
100
AcDbLine
 62
253
  6
CONTINUOUS
 10
-44.7329162109
 20
22.1968626559
 11
-44.6290933602
 21
22.1968626559
  0
LINE
  5
287
100
AcDbEntity
  8
0
100
AcDbLine
 62
7
  6
CONTINUOUS
 10
67.7709066398
 20
22.4968626559
 11
-44.3290933602
 21
22.4968626559
  0
LINE
  5
288
100
AcDbEntity
  8
0
100
AcDbLine
 62
253
  6
CONTINUOUS
 10
-30.029215127
 20
22.6007081122
 11
53.4709066398
 21
22.6007081098
  0
LINE
  5
289
100
AcDbEntity
  8
RACCORDO
100
AcDbLine
 62
253
  6
CONTINUOUS
 10
-30.0285594077
 20
24.194207461
 11
53.4709066398
 21
24.1942074608
  0
LINE
  5
28A
100
AcDbEntity
  8
RACCORDO
100
AcDbLine
 62
253
  6
CONTINUOUS
 10
-30.0290933602
 20
25.8835298656
 11
53.4709066398
 21
25.8835298656
  0
LINE
  5
28B
100
AcDbEntity
  8
RACCORDO
100
AcDbLine
 62
253
  6
CONTINUOUS
 10
53.4709066398
 20
22.6007817588
 11
53.470910982
 21
47.211650761
  0
LINE
  5
28C
100
AcDbEntity
  8
RACCORDO
100
AcDbLine
 62
253
  6
CONTINUOUS
 10
53.470910982
 20
-47.3179254491
 11
53.4710277572
 21
-22.7070564469
  0
LINE
  5
28D
100
AcDbEntity
  8
RACCORDO
100
AcDbLine
 62
253
  6
CONTINUOUS
 10
89.2209066398
 20
44.4468626559
 11
88.9893672395
 21
44.4467895048
  0
LINE
  5
28E
100
AcDbEntity
  8
RACCORDO
100
AcDbLine
 62
253
  6
CONTINUOUS
 10
-30.0290933602
 20
46.4477068382
 11
53.4709066398
 21
46.4477068382
  0
LINE
  5
28F
100
AcDbEntity
  8
RACCORDO
100
AcDbLine
 62
253
  6
CONTINUOUS
 10
-30.0290977024
 20
47.211650761
 11
53.470910982
 21
47.211650761
  0
LINE
  5
290
100
AcDbEntity
  8
SUPERFICI
100
AcDbLine
 62
7
  6
CONTINUOUS
 10
86.2209066398
 20
47.4468626559
 11
-62.7790933602
 21
47.4468626559
  0
LINE
  5
291
100
AcDbEntity
  8
RACCORDO
100
AcDbLine
 62
253
  6
CONTINUOUS
 10
-65.7790933602
 20
44.4468626559
 11
-65.5475539954
 21
44.4467894843
  0
LINE
  5
292
100
AcDbEntity
  8
0
100
AcDbLine
 62
253
  6
CONTINUOUS
 10
67.7709066398
 20
22.6006633396
 11
67.7709066398
 21
22.4968626559
  0
LINE
  5
293
100
AcDbEntity
  8
0
100
AcDbLine
 62
253
  6
CONTINUOUS
 10
67.7709066398
 20
-22.7069390281
 11
67.7709066398
 21
-22.6031373441
  0
LINE
  5
294
100
AcDbEntity
  8
RACCORDO
100
AcDbLine
 62
253
  6
CONTINUOUS
 10
67.7709040821
 20
24.1949588326
 11
67.7709073449
 21
22.6006633486
  0
LINE
  5
295
100
AcDbEntity
  8
0
100
AcDbLine
 62
7
  6
CONTINUOUS
 10
68.0709066398
 20
-22.3031373441
 11
68.0709066398
 21
22.1968626559
  0
LINE
  5
296
100
AcDbEntity
  8
0
100
AcDbLine
 62
253
  6
CONTINUOUS
 10
68.1747693092
 20
11.6968626447
 11
68.1747693091
 21
-11.8031373441
  0
LINE
  5
297
100
AcDbEntity
  8
RACCORDO
100
AcDbLine
 62
253
  6
CONTINUOUS
 10
69.7684390325
 20
11.6968626463
 11
69.7684390325
 21
-11.8031373461
  0
LINE
  5
298
100
AcDbEntity
  8
RACCORDO
100
AcDbLine
 62
253
  6
CONTINUOUS
 10
71.4373957741
 20
11.6968625079
 11
71.4373957741
 21
-11.8031373441
  0
LINE
  5
299
100
AcDbEntity
  8
RACCORDO
100
AcDbLine
 62
253
  6
CONTINUOUS
 10
67.7703563155
 20
-24.3012351286
 11
67.7710474332
 21
-22.7069390349
  0
LINE
  5
29A
100
AcDbEntity
  8
RACCORDO
100
AcDbLine
 62
7
  6
CONTINUOUS
 10
89.1981230441
 20
3.6529334519
 11
89.138874677
 21
3.5040968551
  0
LINE
  5
29B
100
AcDbEntity
  8
RACCORDO
100
AcDbLine
 62
7
  6
CONTINUOUS
 10
89.138874677
 20
-3.6103715433
 11
89.1981230441
 21
-3.7592081401
  0
LINE
  5
29C
100
AcDbEntity
  8
RACCORDO
100
AcDbLine
 62
253
  6
CONTINUOUS
 10
86.2209066398
 20
-47.5531373441
 11
86.2208292702
 21
-47.3218853196
  0
LINE
  5
29D
100
AcDbEntity
  8
RACCORDO
100
AcDbLine
 62
253
  6
CONTINUOUS
 10
88.2668455931
 20
11.6968626635
 11
88.2668455931
 21
-11.8031373441
  0
LINE
  5
29E
100
AcDbEntity
  8
RACCORDO
100
AcDbLine
 62
253
  6
CONTINUOUS
 10
88.9836931606
 20
11.6968598655
 11
88.9836931606
 21
-11.8031345461
  0
LINE
  5
29F
100
AcDbEntity
  8
RACCORDO
100
AcDbLine
 62
7
  6
CONTINUOUS
 10
89.1160910812
 20
3.0083744244
 11
89.1160910812
 21
-3.1146491126
  0
LINE
  5
2A0
100
AcDbEntity
  8
RACCORDO
100
AcDbLine
 62
7
  6
CONTINUOUS
 10
89.2209066398
 20
-44.5531373441
 11
89.2209066398
 21
-4.2549305707
  0
LINE
  5
2A1
100
AcDbEntity
  8
RACCORDO
100
AcDbLine
 62
7
  6
CONTINUOUS
 10
89.2209066398
 20
4.1486558826
 11
89.2209066398
 21
44.4468626559
  0
LINE
  5
2A2
100
AcDbEntity
  8
RACCORDO
100
AcDbLine
 62
253
  6
CONTINUOUS
 10
86.2209066398
 20
47.4468626559
 11
86.2208298565
 21
47.2156055192
  0
LINE
  5
2A3
100
AcDbEntity
  8
RACCORDO
100
AcDbLine
 62
253
  6
CONTINUOUS
 10
-79.9864883075
 20
-44.5531373441
 11
-84.4045232276
 21
-44.5530648987
  0
LINE
  5
2A4
100
AcDbEntity
  8
RACCORDO
100
AcDbLine
 62
7
  6
CONTINUOUS
 10
-79.9864883075
 20
-47.5531373441
 11
-84.4788556678
 21
-47.317702347
  0
LINE
  5
2A5
100
AcDbEntity
  8
RACCORDO
100
AcDbLine
 62
253
  6
CONTINUOUS
 10
-88.7859417752
 20
-22.3031760419
 11
-88.9860331724
 21
-22.3031845791
  0
LWPOLYLINE
  5
2A6
100
AcDbEntity
  8
RACCORDO
100
AcDbPolyline
 62
7
  6
CONTINUOUS
 90
3
 70
0
 10
-88.7138663535
 20
24.2977015335
 10
-88.7251917064
 20
24.2811892234
 10
-88.7307573434
 20
24.2731624401
  0
LINE
  5
2A7
100
AcDbEntity
  8
RACCORDO
100
AcDbLine
 62
7
  6
CONTINUOUS
 10
-88.7256734618
 20
-24.3867747635
 11
-88.7149604322
 21
-24.4023778034
  0
LINE
  5
2A8
100
AcDbEntity
  8
RACCORDO
100
AcDbLine
 62
7
  6
CONTINUOUS
 10
-88.4908524561
 20
24.6847862439
 11
-88.5163579998
 21
24.6330135295
  0
LINE
  5
2A9
100
AcDbEntity
  8
RACCORDO
100
AcDbLine
 62
7
  6
CONTINUOUS
 10
-88.5163579998
 20
24.6330135295
 11
-88.5408126407
 21
24.5856081838
  0
LINE
  5
2AA
100
AcDbEntity
  8
RACCORDO
100
AcDbLine
 62
7
  6
CONTINUOUS
 10
-88.5315532476
 20
24.6039464367
 11
-88.5522015844
 21
24.5642142977
  0
LWPOLYLINE
  5
2AB
100
AcDbEntity
  8
RACCORDO
100
AcDbPolyline
 62
7
  6
CONTINUOUS
 90
3
 70
0
 10
-88.5408126407
 20
24.5856081838
 10
-88.5609182718
 20
24.5481163879
 10
-88.5794067469
 20
24.5147265396
  0
LINE
  5
2AC
100
AcDbEntity
  8
RACCORDO
100
AcDbLine
 62
7
  6
CONTINUOUS
 10
-88.5522015844
 20
24.5642142977
 11
-88.5734427324
 21
24.525858097
  0
LINE
  5
2AD
100
AcDbEntity
  8
RACCORDO
100
AcDbLine
 62
7
  6
CONTINUOUS
 10
-88.56996545
 20
24.5316522002
 11
-88.5875204184
 21
24.5008041704
  0
LINE
  5
2AE
100
AcDbEntity
  8
RACCORDO
100
AcDbLine
 62
7
  6
CONTINUOUS
 10
-88.5794067469
 20
24.5147265396
 11
-88.6045357548
 21
24.4708868759
  0
LINE
  5
2AF
100
AcDbEntity
  8
RACCORDO
100
AcDbLine
 62
7
  6
CONTINUOUS
 10
-88.5995919322
 20
24.4793777506
 11
-88.6162593226
 21
24.4513427175
  0
LINE
  5
2B0
100
AcDbEntity
  8
RACCORDO
100
AcDbLine
 62
7
  6
CONTINUOUS
 10
-88.6045357548
 20
24.4708868759
 11
-88.6397590739
 21
24.412166686
  0
LINE
  5
2B1
100
AcDbEntity
  8
RACCORDO
100
AcDbLine
 62
7
  6
CONTINUOUS
 10
-88.63014423
 20
24.428195427
 11
-88.6428605446
 21
24.407388336
  0
LINE
  5
2B2
100
AcDbEntity
  8
RACCORDO
100
AcDbLine
 62
7
  6
CONTINUOUS
 10
-88.6425308028
 20
24.4076742413
 11
-88.6559226871
 21
24.3864158715
  0
LINE
  5
2B3
100
AcDbEntity
  8
RACCORDO
100
AcDbLine
 62
7
  6
CONTINUOUS
 10
-88.6397590739
 20
24.412166686
 11
-88.6830472925
 21
24.3439075162
  0
LINE
  5
2B4
100
AcDbEntity
  8
RACCORDO
100
AcDbLine
 62
7
  6
CONTINUOUS
 10
-88.6684916744
 20
24.366591752
 11
-88.6788539064
 21
24.3505198709
  0
LINE
  5
2B5
100
AcDbEntity
  8
RACCORDO
100
AcDbLine
 62
7
  6
CONTINUOUS
 10
-88.6783042371
 20
24.3512017141
 11
-88.6915467561
 21
24.3310955748
  0
LINE
  5
2B6
100
AcDbEntity
  8
RACCORDO
100
AcDbLine
 62
7
  6
CONTINUOUS
 10
-88.6893749678
 20
24.3342857965
 11
-88.701592866
 21
24.3158821776
  0
LINE
  5
2B7
100
AcDbEntity
  8
RACCORDO
100
AcDbLine
 62
7
  6
CONTINUOUS
 10
-88.6830472925
 20
24.3439075162
 11
-88.7180896904
 21
24.2915406924
  0
LINE
  5
2B8
100
AcDbEntity
  8
RACCORDO
100
AcDbLine
 62
7
  6
CONTINUOUS
 10
-88.7197969674
 20
-24.395317007
 11
-88.706892259
 21
-24.4142714194
  0
LINE
  5
2B9
100
AcDbEntity
  8
RACCORDO
100
AcDbLine
 62
7
  6
CONTINUOUS
 10
-88.7122193461
 20
-24.4064473372
 11
-88.6975403646
 21
-24.4282316532
  0
LINE
  5
2BA
100
AcDbEntity
  8
RACCORDO
100
AcDbLine
 62
7
  6
CONTINUOUS
 10
-88.7036566303
 20
-24.4191552795
 11
-88.6932026864
 21
-24.4347551523
  0
LINE
  5
2BB
100
AcDbEntity
  8
RACCORDO
100
AcDbLine
 62
7
  6
CONTINUOUS
 10
-88.6932026864
 20
-24.4347551523
 11
-88.6831250199
 21
-24.4502098424
  0
LINE
  5
2BC
100
AcDbEntity
  8
RACCORDO
100
AcDbLine
 62
7
  6
CONTINUOUS
 10
-88.6863115613
 20
-24.4452088228
 11
-88.6712250716
 21
-24.4686002594
  0
LINE
  5
2BD
100
AcDbEntity
  8
RACCORDO
100
AcDbLine
 62
7
  6
CONTINUOUS
 10
-88.6785352256
 20
-24.4571209416
 11
-88.6699076145
 21
-24.4704835859
  0
LINE
  5
2BE
100
AcDbEntity
  8
RACCORDO
100
AcDbLine
 62
7
  6
CONTINUOUS
 10
-88.6712250716
 20
-24.4686002594
 11
-88.6587300676
 21
-24.48823283
  0
LINE
  5
2BF
100
AcDbEntity
  8
RACCORDO
100
AcDbLine
 62
7
  6
CONTINUOUS
 10
-88.6605231826
 20
-24.4851976486
 11
-88.6456996786
 21
-24.5090716649
  0
LINE
  5
2C0
100
AcDbEntity
  8
RACCORDO
100
AcDbLine
 62
7
  6
CONTINUOUS
 10
-88.6503345404
 20
-24.5013899116
 11
-88.6391722991
 21
-24.519397101
  0
LINE
  5
2C1
100
AcDbEntity
  8
RACCORDO
100
AcDbLine
 62
7
  6
CONTINUOUS
 10
-88.6456996786
 20
-24.5090716649
 11
-88.6271170442
 21
-24.5391700842
  0
LINE
  5
2C2
100
AcDbEntity
  8
RACCORDO
100
AcDbLine
 62
7
  6
CONTINUOUS
 10
-88.6321303644
 20
-24.5311844233
 11
-88.6141665665
 21
-24.5608021401
  0
LINE
  5
2C3
100
AcDbEntity
  8
RACCORDO
100
AcDbLine
 62
7
  6
CONTINUOUS
 10
-88.6183288878
 20
-24.5541252633
 11
-88.6000529405
 21
-24.5848578909
  0
LWPOLYLINE
  5
2C4
100
AcDbEntity
  8
RACCORDO
100
AcDbPolyline
 62
7
  6
CONTINUOUS
 90
3
 70
0
 10
-88.6000529405
 20
-24.5848578909
 10
-88.5846087354
 20
-24.6117842407
 10
-88.5681493215
 20
-24.6412122137
  0
LWPOLYLINE
  5
2C5
100
AcDbEntity
  8
RACCORDO
100
AcDbPolyline
 62
7
  6
CONTINUOUS
 90
3
 70
0
 10
-88.5681493215
 20
-24.6412122137
 10
-88.5511316436
 20
-24.6724810103
 10
-88.5336500871
 20
-24.7055545289
  0
LINE
  5
2C6
100
AcDbEntity
  8
RACCORDO
100
AcDbLine
 62
7
  6
CONTINUOUS
 10
-88.5336500871
 20
-24.7055545289
 11
-88.5157351521
 21
-24.7405228602
  0
LWPOLYLINE
  5
2C7
100
AcDbEntity
  8
RACCORDO
100
AcDbPolyline
 62
7
  6
CONTINUOUS
 90
15
 70
0
 10
-88.5157351521
 20
-24.7405228602
 10
-88.4977100435
 20
-24.7768914952
 10
-88.4796614475
 20
-24.8146003866
 10
-88.46160378
 20
-24.8537412542
 10
-88.4437218534
 20
-24.8940301592
 10
-88.4260492848
 20
-24.9354984746
 10
-88.4086405938
 20
-24.9781315725
 10
-88.3916839974
 20
-25.0215624345
 10
-88.375241361
 20
-25.0656998667
 10
-88.3593063634
 20
-25.1106317234
 10
-88.3439435432
 20
-25.1562497541
 10
-88.3291790869
 20
-25.20254551
 10
-88.3150369438
 20
-25.2495173942
 10
-88.3015689514
 20
-25.2970632372
 10
-88.2887943696
 20
-25.345181244
  0
LWPOLYLINE
  5
2C8
100
AcDbEntity
  8
0
100
AcDbPolyline
 62
7
  6
CONTINUOUS
 90
3
 70
0
 10
-85.6964223611
 20
45.1599071631
 10
-85.7645522981
 20
44.8591135605
 10
-85.9206145346
 20
44.1529104676
  0
LINE
  5
2C9
100
AcDbEntity
  8
0
100
AcDbLine
 62
7
  6
CONTINUOUS
 10
-85.5551146539
 20
45.7865545641
 11
-85.6368193691
 21
45.4276762951
  0
LINE
  5
2CA
100
AcDbEntity
  8
0
100
AcDbLine
 62
7
  6
CONTINUOUS
 10
-85.4904128823
 20
46.0641024876
 11
-85.5551146539
 21
45.7865545641
  0
LWPOLYLINE
  5
2CB
100
AcDbEntity
  8
0
100
AcDbPolyline
 62
7
  6
CONTINUOUS
 90
3
 70
0
 10
-85.3983856615
 20
46.4488299503
 10
-85.4223983785
 20
46.3495739882
 10
-85.4904128823
 20
46.0641024876
  0
LWPOLYLINE
  5
2CC
100
AcDbEntity
  8
RACCORDO
100
AcDbPolyline
 62
7
  6
CONTINUOUS
 90
5
 70
0
 10
-88.328702944
 20
25.100034039
 10
-88.3394889395
 20
25.0657378504
 10
-88.3506035339
 20
25.0318175465
 10
-88.3620370116
 20
24.9982733697
 10
-88.373767967
 20
24.9651382306
  0
LINE
  5
2CD
100
AcDbEntity
  8
RACCORDO
100
AcDbLine
 62
7
  6
CONTINUOUS
 10
-88.3857874353
 20
24.9324073696
 11
-88.3980822667
 21
24.9000877098
  0
LINE
  5
2CE
100
AcDbEntity
  8
RACCORDO
100
AcDbLine
 62
7
  6
CONTINUOUS
 10
-88.4106221432
 20
24.8682283492
 11
-88.4233948201
 21
24.8368285651
  0
LINE
  5
2CF
100
AcDbEntity
  8
RACCORDO
100
AcDbLine
 62
7
  6
CONTINUOUS
 10
-88.4363877305
 20
24.8058886183
 11
-88.4495669578
 21
24.7754574101
  0
LWPOLYLINE
  5
2D0
100
AcDbEntity
  8
RACCORDO
100
AcDbPolyline
 62
7
  6
CONTINUOUS
 90
5
 70
0
 10
-88.4629182348
 20
24.7455348701
 10
-88.4764287626
 20
24.7161178689
 10
-88.4900640297
 20
24.6872490255
 10
-88.5038097701
 20
24.6589253441
 10
-88.5176517889
 20
24.6311440503
  0
LINE
  5
2D1
100
AcDbEntity
  8
RACCORDO
100
AcDbLine
 62
253
  6
CONTINUOUS
 10
-84.5127911277
 20
-11.8031345461
 11
-88.9864878095
 21
-11.8031373441
  0
LWPOLYLINE
  5
2D2
100
AcDbEntity
  8
RACCORDO
100
AcDbPolyline
 62
7
  6
CONTINUOUS
 90
9
 70
0
 10
-88.3653238658
 20
-25.0951384198
 10
-88.3311745752
 20
-25.1983212642
 10
-88.30073545
 20
-25.3028568911
 10
-88.2740664518
 20
-25.4086133974
 10
-88.2512224705
 20
-25.5154584348
 10
-88.2322547467
 20
-25.6232522975
 10
-88.2172098768
 20
-25.7318479322
 10
-88.2061280082
 20
-25.8411006587
 10
-88.1990435909
 20
-25.950868498
  0
LINE
  5
2D3
100
AcDbEntity
  8
0
100
AcDbLine
 62
7
  6
CONTINUOUS
 10
-85.4650617325
 20
-46.2770820814
 11
-85.3982539594
 21
-46.5551544814
  0
LINE
  5
2D4
100
AcDbEntity
  8
0
100
AcDbLine
 62
7
  6
CONTINUOUS
 10
-85.5441410428
 20
-45.9399133931
 11
-85.4650617325
 21
-46.2770820814
  0
LINE
  5
2D5
100
AcDbEntity
  8
0
100
AcDbLine
 62
7
  6
CONTINUOUS
 10
-85.764546657
 20
-44.9654133541
 11
-85.6934341794
 21
-45.2793745378
  0
LINE
  5
2D6
100
AcDbEntity
  8
0
100
AcDbLine
 62
7
  6
CONTINUOUS
 10
-85.6229690327
 20
-45.5950948903
 11
-85.5441410428
 21
-45.9399133931
  0
LINE
  5
2D7
100
AcDbEntity
  8
0
100
AcDbLine
 62
7
  6
CONTINUOUS
 10
-86.4302680577
 20
41.4400900416
 11
-86.5509781488
 21
40.7535168004
  0
LINE
  5
2D8
100
AcDbEntity
  8
0
100
AcDbLine
 62
7
  6
CONTINUOUS
 10
-86.3271190894
 20
42.0108072999
 11
-86.4302680577
 21
41.4400900416
  0
LINE
  5
2D9
100
AcDbEntity
  8
RACCORDO
100
AcDbLine
 62
7
  6
CONTINUOUS
 10
-88.2417302004
 20
25.4602557273
 11
-88.2485524563
 21
25.4230621802
  0
LINE
  5
2DA
100
AcDbEntity
  8
0
100
AcDbLine
 62
7
  6
CONTINUOUS
 10
-86.2373016402
 20
42.4950506157
 11
-86.3271190894
 21
42.0108072999
  0
LINE
  5
2DB
100
AcDbEntity
  8
0
100
AcDbLine
 62
7
  6
CONTINUOUS
 10
-86.148197007
 20
42.9636396972
 11
-86.2373016402
 21
42.4950506157
  0
LINE
  5
2DC
100
AcDbEntity
  8
0
100
AcDbLine
 62
7
  6
CONTINUOUS
 10
-86.0639652859
 20
43.3957872995
 11
-86.148197007
 21
42.9636396972
  0
LINE
  5
2DD
100
AcDbEntity
  8
0
100
AcDbLine
 62
7
  6
CONTINUOUS
 10
-86.2307673083
 20
42.6725972631
 11
-86.3451418006
 21
42.0971433218
  0
LINE
  5
2DE
100
AcDbEntity
  8
0
100
AcDbLine
 62
7
  6
CONTINUOUS
 10
-85.972581868
 20
43.8527896183
 11
-86.0639652859
 21
43.3957872995
  0
LINE
  5
2DF
100
AcDbEntity
  8
0
100
AcDbLine
 62
7
  6
CONTINUOUS
 10
-85.8911028753
 20
44.2499394871
 11
-85.972581868
 21
43.8527896183
  0
LINE
  5
2E0
100
AcDbEntity
  8
0
100
AcDbLine
 62
7
  6
CONTINUOUS
 10
-86.0762491586
 20
43.4237905834
 11
-86.2307673083
 21
42.6725972631
  0
LINE
  5
2E1
100
AcDbEntity
  8
RACCORDO
100
AcDbLine
 62
7
  6
CONTINUOUS
 10
-88.2558151591
 20
25.386094588
 11
-88.2635119944
 21
25.3493577697
  0
LINE
  5
2E2
100
AcDbEntity
  8
0
100
AcDbLine
 62
7
  6
CONTINUOUS
 10
-85.8049485226
 20
44.6593791206
 11
-85.8911028753
 21
44.2499394871
  0
LINE
  5
2E3
100
AcDbEntity
  8
0
100
AcDbLine
 62
7
  6
CONTINUOUS
 10
-85.9206145346
 20
44.1529104676
 11
-86.0762491586
 21
43.4237905834
  0
LINE
  5
2E4
100
AcDbEntity
  8
0
100
AcDbLine
 62
7
  6
CONTINUOUS
 10
-85.7325790792
 20
44.9950354982
 11
-85.8049485226
 21
44.6593791206
  0
LWPOLYLINE
  5
2E5
100
AcDbEntity
  8
0
100
AcDbPolyline
 62
7
  6
CONTINUOUS
 90
3
 70
0
 10
-85.6368193691
 20
45.4276762951
 10
-85.6565039062
 20
45.3398057696
 10
-85.7325790792
 20
44.9950354982
  0
LINE
  5
2E6
100
AcDbEntity
  8
RACCORDO
100
AcDbLine
 62
7
  6
CONTINUOUS
 10
-88.2716366224
 20
25.3128563959
 11
-88.2801735836
 21
25.2766325458
  0
LINE
  5
2E7
100
AcDbEntity
  8
RACCORDO
100
AcDbLine
 62
7
  6
CONTINUOUS
 10
-88.289115107
 20
25.2406902473
 11
-88.2984534112
 21
25.2050334076
  0
LINE
  5
2E8
100
AcDbEntity
  8
RACCORDO
100
AcDbLine
 62
7
  6
CONTINUOUS
 10
-88.3081702332
 20
25.169702997
 11
-88.3182564341
 21
25.1347022379
  0
LINE
  5
2E9
100
AcDbEntity
  8
RACCORDO
100
AcDbLine
 62
7
  6
CONTINUOUS
 10
-88.2767359355
 20
-25.3938565988
 11
-88.2654403311
 21
-25.4429638682
  0
LINE
  5
2EA
100
AcDbEntity
  8
0
100
AcDbLine
 62
7
  6
CONTINUOUS
 10
-85.6992243128
 20
-45.2531757026
 11
-85.6229690327
 21
-45.5950948903
  0
LINE
  5
2EB
100
AcDbEntity
  8
0
100
AcDbLine
 62
7
  6
CONTINUOUS
 10
-85.920607366
 20
-44.2592181483
 11
-85.764546657
 21
-44.9654133541
  0
LINE
  5
2EC
100
AcDbEntity
  8
0
100
AcDbLine
 62
7
  6
CONTINUOUS
 10
-85.7711142251
 20
-44.9232421945
 11
-85.6992243128
 21
-45.2531757026
  0
LINE
  5
2ED
100
AcDbEntity
  8
0
100
AcDbLine
 62
7
  6
CONTINUOUS
 10
-86.0762403515
 20
-43.5301072834
 11
-85.920607366
 21
-44.2592181483
  0
LINE
  5
2EE
100
AcDbEntity
  8
0
100
AcDbLine
 62
7
  6
CONTINUOUS
 10
-85.8547182644
 20
-44.530205534
 11
-85.7711142251
 21
-44.9232421945
  0
LINE
  5
2EF
100
AcDbEntity
  8
0
100
AcDbLine
 62
7
  6
CONTINUOUS
 10
-85.9323701926
 20
-44.1560779647
 11
-85.8547182644
 21
-44.530205534
  0
LINE
  5
2F0
100
AcDbEntity
  8
0
100
AcDbLine
 62
7
  6
CONTINUOUS
 10
-86.2307566687
 20
-42.7789246842
 11
-86.0762403515
 21
-43.5301072834
  0
LINE
  5
2F1
100
AcDbEntity
  8
0
100
AcDbLine
 62
7
  6
CONTINUOUS
 10
-86.019108332
 20
-43.727757723
 11
-85.9323701926
 21
-44.1560779647
  0
LINE
  5
2F2
100
AcDbEntity
  8
0
100
AcDbLine
 62
7
  6
CONTINUOUS
 10
-86.3451410055
 20
-42.2034220721
 11
-86.2307566687
 21
-42.7789246842
  0
LINE
  5
2F3
100
AcDbEntity
  8
0
100
AcDbLine
 62
7
  6
CONTINUOUS
 10
-86.1003209867
 20
-43.3166901168
 11
-86.019108332
 21
-43.727757723
  0
LINE
  5
2F4
100
AcDbEntity
  8
RACCORDO
100
AcDbLine
 62
7
  6
CONTINUOUS
 10
-88.2549226861
 20
-25.4924918589
 11
-88.2451980065
 21
-25.5424290927
  0
LINE
  5
2F5
100
AcDbEntity
  8
0
100
AcDbLine
 62
7
  6
CONTINUOUS
 10
-86.1891564522
 20
-42.8558654472
 11
-86.1003209867
 21
-43.3166901168
  0
LINE
  5
2F6
100
AcDbEntity
  8
0
100
AcDbLine
 62
7
  6
CONTINUOUS
 10
-86.2822393592
 20
-42.3604501838
 11
-86.1891564522
 21
-42.8558654472
  0
LINE
  5
2F7
100
AcDbEntity
  8
0
100
AcDbLine
 62
7
  6
CONTINUOUS
 10
-86.3753068948
 20
-41.8523124097
 11
-86.2822393592
 21
-42.3604501838
  0
LINE
  5
2F8
100
AcDbEntity
  8
0
100
AcDbLine
 62
7
  6
CONTINUOUS
 10
-86.477756744
 20
-41.2784600416
 11
-86.3753068948
 21
-41.8523124097
  0
LINE
  5
2F9
100
AcDbEntity
  8
0
100
AcDbLine
 62
7
  6
CONTINUOUS
 10
-86.5319166497
 20
-40.9693353914
 11
-86.477756744
 21
-41.2784600416
  0
LINE
  5
2FA
100
AcDbEntity
  8
0
100
AcDbLine
 62
7
  6
CONTINUOUS
 10
-86.5504630051
 20
-40.8627269426
 11
-86.5319166497
 21
-40.9693353914
  0
LINE
  5
2FB
100
AcDbEntity
  8
RACCORDO
100
AcDbLine
 62
7
  6
CONTINUOUS
 10
-88.1975918591
 20
-25.9870715001
 11
-88.1975747079
 21
-25.9872319088
  0
LWPOLYLINE
  5
2FC
100
AcDbEntity
  8
0
100
AcDbPolyline
 62
7
  6
CONTINUOUS
 90
16
 70
0
 10
-88.0541387046
 20
-28.9164819077
 10
-88.0180139169
 20
-29.467399543
 10
-87.979434024
 20
-30.0137298953
 10
-87.9385634148
 20
-30.55405383
 10
-87.8956409993
 20
-31.08610667
 10
-87.8507504611
 20
-31.6096542515
 10
-87.803773423
 20
-32.1264696782
 10
-87.7547053007
 20
-32.6369302777
 10
-87.7036982351
 20
-33.1403145833
 10
-87.6508217141
 20
-33.6368919741
 10
-87.5961289306
 20
-34.1270664101
 10
-87.5396928458
 20
-34.6110420193
 10
-87.4816176981
 20
-35.088767657
 10
-87.4219835438
 20
-35.5604120324
 10
-87.3608454771
 20
-36.0263259093
 10
-87.2869520156
 20
-36.5683848808
  0
LWPOLYLINE
  5
2FD
100
AcDbEntity
  8
RACCORDO
100
AcDbPolyline
 62
7
  6
CONTINUOUS
 90
3
 70
0
 10
-88.2008613648
 20
-25.8977556947
 10
-88.1980113289
 20
-25.9486681328
 10
-88.196836637
 20
-25.9760642778
  0
LINE
  5
2FE
100
AcDbEntity
  8
0
100
AcDbLine
 62
7
  6
CONTINUOUS
 10
-88.1724587324
 20
-26.6548157875
 11
-88.1657245571
 21
-26.8153094853
  0
LINE
  5
2FF
100
AcDbEntity
  8
0
100
AcDbLine
 62
7
  6
CONTINUOUS
 10
-88.1883942014
 20
-26.1899089095
 11
-88.1686451249
 21
-26.6503064374
  0
LINE
  5
300
100
AcDbEntity
  8
RACCORDO
100
AcDbLine
 62
7
  6
CONTINUOUS
 10
-88.197600865
 20
25.880532885
 11
-88.1992673368
 21
25.839827974
  0
LINE
  5
301
100
AcDbEntity
  8
0
100
AcDbLine
 62
7
  6
CONTINUOUS
 10
-88.1657246772
 20
26.7090319912
 11
-88.1724636981
 21
26.5484203554
  0
LINE
  5
302
100
AcDbEntity
  8
0
100
AcDbLine
 62
7
  6
CONTINUOUS
 10
-88.1685671196
 20
26.5457754413
 11
-88.1883529952
 21
26.0846481487
  0
LINE
  5
303
100
AcDbEntity
  8
RACCORDO
100
AcDbLine
 62
7
  6
CONTINUOUS
 10
-88.1968366993
 20
25.8697889111
 11
-88.2006967584
 21
25.79405056
  0
LINE
  5
304
100
AcDbEntity
  8
RACCORDO
100
AcDbLine
 62
7
  6
CONTINUOUS
 10
-88.2013417129
 20
25.8015227028
 11
-88.203906819
 21
25.7632321746
  0
LWPOLYLINE
  5
305
100
AcDbEntity
  8
RACCORDO
100
AcDbPolyline
 62
7
  6
CONTINUOUS
 90
18
 70
0
 10
-88.2006967584
 20
25.79405056
 10
-88.2063070071
 20
25.720270368
 10
-88.2136579547
 20
25.6473326435
 10
-88.2226947629
 20
25.5752789669
 10
-88.2333610066
 20
25.5041544966
 10
-88.2456007547
 20
25.4339934029
 10
-88.2593582183
 20
25.3648259531
 10
-88.2745758811
 20
25.2966876281
 10
-88.2912010856
 20
25.2295905898
 10
-88.3091746844
 20
25.1635729244
 10
-88.3284258443
 20
25.0987045665
 10
-88.3489432997
 20
25.034861462
 10
-88.3706274184
 20
24.972204544
 10
-88.3932408411
 20
24.9112161409
 10
-88.4167054681
 20
24.8518739422
 10
-88.4409278173
 20
24.7941983491
 10
-88.4655861353
 20
24.7387067445
 10
-88.4908524561
 20
24.6847862439
  0
LWPOLYLINE
  5
306
100
AcDbEntity
  8
RACCORDO
100
AcDbPolyline
 62
7
  6
CONTINUOUS
 90
7
 70
0
 10
-88.2069594781
 20
25.7250012803
 10
-88.2104982816
 20
25.6868362029
 10
-88.214521745
 20
25.6487430808
 10
-88.2190235049
 20
25.6107664386
 10
-88.2240004555
 20
25.5729121767
 10
-88.2294494266
 20
25.5351861047
 10
-88.235360925
 20
25.4976321403
  0
LINE
  5
307
100
AcDbEntity
  8
RACCORDO
100
AcDbLine
 62
7
  6
CONTINUOUS
 10
-88.1975746981
 20
25.880957508
 11
-88.1975918717
 21
25.8807969329
  0
LWPOLYLINE
  5
308
100
AcDbEntity
  8
0
100
AcDbPolyline
 62
7
  6
CONTINUOUS
 90
15
 70
0
 10
-87.3608672358
 20
35.9198883394
 10
-87.4220055772
 20
35.4539663434
 10
-87.4816399249
 20
34.9823137506
 10
-87.5397151882
 20
34.5045797457
 10
-87.5961513054
 20
34.0205956406
 10
-87.6508440186
 20
33.5304127413
 10
-87.7037203518
 20
33.0338270683
 10
-87.7547271323
 20
32.5304344857
 10
-87.8037949035
 20
32.0199652872
 10
-87.8507715164
 20
31.503141127
 10
-87.8956615398
 20
30.9795851133
 10
-87.938583371
 20
30.4475238149
 10
-87.9794533213
 20
29.9071913401
 10
-88.018032458
 20
29.3608526007
 10
-88.0541563785
 20
28.8099268381
  0
LINE
  5
309
100
AcDbEntity
  8
0
100
AcDbLine
 62
7
  6
CONTINUOUS
 10
-87.2869640518
 20
36.4620236274
 11
-87.3608672358
 21
35.9198883394
  0
LINE
  5
30A
100
AcDbEntity
  8
RACCORDO
100
AcDbLine
 62
7
  6
CONTINUOUS
 10
-81.5517514036
 20
-3.6103715433
 11
-80.4212252114
 21
-3.7592081401
  0
LINE
  5
30B
100
AcDbEntity
  8
RACCORDO
100
AcDbLine
 62
7
  6
CONTINUOUS
 10
-88.2363009379
 20
-25.5926464586
 11
-88.2282402529
 21
-25.6431307531
  0
LWPOLYLINE
  5
30C
100
AcDbEntity
  8
RACCORDO
100
AcDbPolyline
 62
7
  6
CONTINUOUS
 90
5
 70
0
 10
-88.2210245964
 20
-25.6938681088
 10
-88.2146761438
 20
-25.7447260275
 10
-88.2091969746
 20
-25.7956898387
 10
-88.2045889489
 20
-25.8467445462
 10
-88.2008613648
 20
-25.8977556947
  0
LINE
  5
30D
100
AcDbEntity
  8
RACCORDO
100
AcDbLine
 62
7
  6
CONTINUOUS
 10
-88.1990435909
 20
-25.950868498
 11
-88.1976008675
 21
-25.9868074266
  0
LINE
  5
30E
100
AcDbEntity
  8
0
100
AcDbLine
 62
7
  6
CONTINUOUS
 10
-88.1968366449
 20
-25.9760640684
 11
-88.1883942014
 21
-26.1899089095
  0
LINE
  5
30F
100
AcDbEntity
  8
0
100
AcDbLine
 62
7
  6
CONTINUOUS
 10
-88.189462929
 20
-26.2170416506
 11
-88.1724587324
 21
-26.6548157875
  0
LINE
  5
310
100
AcDbEntity
  8
0
100
AcDbLine
 62
7
  6
CONTINUOUS
 10
-88.1976008577
 20
-25.9868079374
 11
-88.189462929
 21
-26.2170416506
  0
LINE
  5
311
100
AcDbEntity
  8
0
100
AcDbLine
 62
7
  6
CONTINUOUS
 10
-88.9858171535
 20
-23.7027755304
 11
-88.9857783613
 21
-23.7081963759
  0
LINE
  5
312
100
AcDbEntity
  8
RACCORDO
100
AcDbLine
 62
253
  6
CONTINUOUS
 10
-88.7883752967
 20
11.6968626463
 11
-88.7883752967
 21
-11.8031373461
  0
LINE
  5
313
100
AcDbEntity
  8
RACCORDO
100
AcDbLine
 62
253
  6
CONTINUOUS
 10
-88.1965798439
 20
11.6968625079
 11
-88.1965798439
 21
-11.8031373441
  0
LINE
  5
314
100
AcDbEntity
  8
0
100
AcDbLine
 62
7
  6
CONTINUOUS
 10
-88.9860192307
 20
-21.4263987371
 11
-88.9858171535
 21
-23.7027755304
  0
LWPOLYLINE
  5
315
100
AcDbEntity
  8
0
100
AcDbPolyline
 62
7
  6
CONTINUOUS
 90
3
 70
0
 10
-88.9857545874
 20
23.6039546578
 10
-88.9857981781
 20
23.5971196137
 10
-88.9860331766
 20
-22.3031845786
  0
LINE
  5
316
100
AcDbEntity
  8
0
100
AcDbLine
 62
7
  6
CONTINUOUS
 10
-88.1798842038
 20
26.363660337
 11
-88.1968367081
 21
25.8697886809
  0
LINE
  5
317
100
AcDbEntity
  8
0
100
AcDbLine
 62
7
  6
CONTINUOUS
 10
-88.1883529952
 20
26.0846481487
 11
-88.1957157057
 21
25.898932979
  0
LINE
  5
318
100
AcDbEntity
  8
0
100
AcDbLine
 62
7
  6
CONTINUOUS
 10
-88.1724636981
 20
26.5484203554
 11
-88.1798842038
 21
26.363660337
  0
LINE
  5
319
100
AcDbEntity
  8
RACCORDO
100
AcDbLine
 62
253
  6
CONTINUOUS
 10
-85.4199349462
 20
11.6968626635
 11
-85.4199349462
 21
-11.8031373441
  0
LINE
  5
31A
100
AcDbEntity
  8
RACCORDO
100
AcDbLine
 62
253
  6
CONTINUOUS
 10
-84.5127911277
 20
11.6968598655
 11
-84.5127911277
 21
-11.8031345461
  0
LINE
  5
31B
100
AcDbEntity
  8
RACCORDO
100
AcDbLine
 62
7
  6
CONTINUOUS
 10
-80.4212252114
 20
3.6529334519
 11
-81.5517514036
 21
3.5040968551
  0
LINE
  5
31C
100
AcDbEntity
  8
RACCORDO
100
AcDbLine
 62
7
  6
CONTINUOUS
 10
-81.9864883075
 20
3.0083744244
 11
-81.9864883075
 21
-3.1146491126
  0
LINE
  5
31D
100
AcDbEntity
  8
SUPERFICI
100
AcDbLine
 62
7
  6
CONTINUOUS
 10
-79.9864883075
 20
-47.5531373441
 11
-79.9864883075
 21
-44.5531373441
  0
LINE
  5
31E
100
AcDbEntity
  8
RACCORDO
100
AcDbLine
 62
7
  6
CONTINUOUS
 10
-79.9864883075
 20
-44.5531373441
 11
-79.9864883075
 21
-4.2549305707
  0
LINE
  5
31F
100
AcDbEntity
  8
RACCORDO
100
AcDbLine
 62
7
  6
CONTINUOUS
 10
-79.9864883075
 20
4.1486558826
 11
-79.9864883075
 21
44.4468626559
  0
LINE
  5
320
100
AcDbEntity
  8
SUPERFICI
100
AcDbLine
 62
7
  6
CONTINUOUS
 10
-79.9864883075
 20
44.4468626559
 11
-79.9864883075
 21
47.4468626559
  0
LINE
  5
321
100
AcDbEntity
  8
RACCORDO
100
AcDbLine
 62
253
  6
CONTINUOUS
 10
-88.9864878095
 20
11.6968626447
 11
-84.5127911277
 21
11.6968598655
  0
LWPOLYLINE
  5
322
100
AcDbEntity
  8
RACCORDO
100
AcDbPolyline
 62
7
  6
CONTINUOUS
 90
22
 70
0
 10
-84.4789779433
 20
47.2114212507
 10
-84.5394371574
 20
47.2064099781
 10
-84.5994996312
 20
47.1977385363
 10
-84.6589436916
 20
47.1854354969
 10
-84.7175547378
 20
47.1695413072
 10
-84.775110445
 20
47.1501122295
 10
-84.8313826146
 20
47.1272232543
 10
-84.8861573615
 20
47.1009615404
 10
-84.9392387381
 20
47.0714211994
 10
-84.9904341781
 20
47.0387084109
 10
-85.0395550325
 20
47.002942096
 10
-85.0864181271
 20
46.9642539386
 10
-85.1308499758
 20
46.9227854751
 10
-85.1726857086
 20
46.8786887031
 10
-85.211769579
 20
46.8321257927
 10
-85.2479559682
 20
46.7832681667
 10
-85.2811100218
 20
46.7322957258
 10
-85.3111081173
 20
46.6793961578
 10
-85.3378381812
 20
46.6247644557
 10
-85.3612001655
 20
46.5686021364
 10
-85.3811064282
 20
46.5111164993
 10
-85.3983857274
 20
46.4488301667
  0
LINE
  5
323
100
AcDbEntity
  8
RACCORDO
100
AcDbLine
 62
7
  6
CONTINUOUS
 10
-79.9864883075
 20
47.4468626559
 11
-84.4789829917
 21
47.2114209861
  0
LINE
  5
324
100
AcDbEntity
  8
RACCORDO
100
AcDbLine
 62
253
  6
CONTINUOUS
 10
-79.9864883075
 20
44.4468626559
 11
-84.4045232536
 21
44.4467895048
  0
ARC
  5
325
100
AcDbEntity
  8
RACCORDO
100
AcDbCircle
 62
253
  6
CONTINUOUS
 10
638.7571470196
 20
29.5045071199
 40
571.011238783
100
AcDbArc
 50
180.3644719469
 51
180.5327726028
  0
ARC
  5
326
100
AcDbEntity
  8
RACCORDO
100
AcDbCircle
 62
253
  6
CONTINUOUS
 10
-599.2355440624
 20
-29.8902421275
 40
554.9363252805
100
AcDbArc
 50
0.4038837795
 51
0.5770609253
  0
ARC
  5
327
100
AcDbEntity
  8
RACCORDO
100
AcDbCircle
 62
253
  6
CONTINUOUS
 10
-599.1793305459
 20
29.783161449
 40
554.880122512
100
AcDbArc
 50
359.4229638994
 51
359.5961584855
  0
ARC
  5
328
100
AcDbEntity
  8
RACCORDO
100
AcDbCircle
 62
253
  6
CONTINUOUS
 10
622.4958762201
 20
-29.8892149333
 40
554.7548590389
100
AcDbArc
 50
179.422856442
 51
179.596090203
  0
ARC
  5
329
100
AcDbEntity
  8
RACCORDO
100
AcDbCircle
 62
253
  6
CONTINUOUS
 10
-51.2405584826
 20
-556.5932404281
 40
534.3126591893
100
AcDbArc
 50
89.4733379473
 51
89.652491321
  0
ARC
  5
32A
100
AcDbEntity
  8
RACCORDO
100
AcDbCircle
 62
253
  6
CONTINUOUS
 10
-51.2459256071
 20
555.5948503291
 40
533.4205948288
100
AcDbArc
 50
270.3486659232
 51
270.5281194102
  0
ARC
  5
32B
100
AcDbEntity
  8
RACCORDO
100
AcDbCircle
 62
253
  6
CONTINUOUS
 10
74.6875298088
 20
-555.6390264063
 40
533.3584969237
100
AcDbArc
 50
90.3486844803
 51
90.5281583846
  0
ARC
  5
32C
100
AcDbEntity
  8
RACCORDO
100
AcDbCircle
 62
253
  6
CONTINUOUS
 10
74.6919711286
 20
554.9773081525
 40
532.8030855616
100
AcDbArc
 50
269.4708139796
 51
269.6504902056
  0
ARC
  5
32D
100
AcDbEntity
  8
SUPERFICI
100
AcDbCircle
 62
7
  6
CONTINUOUS
 10
86.2209066398
 20
44.4468626559
 40
3.0
100
AcDbArc
 50
0.0
 51
90.0
  0
ARC
  5
32E
100
AcDbEntity
  8
SUPERFICI
100
AcDbCircle
 62
7
  6
CONTINUOUS
 10
-62.7790933602
 20
44.4468626559
 40
3.0
100
AcDbArc
 50
90.0
 51
180.0
  0
ARC
  5
32F
100
AcDbEntity
  8
SUPERFICI
100
AcDbCircle
 62
7
  6
CONTINUOUS
 10
86.2209066398
 20
-44.5531373441
 40
3.0
100
AcDbArc
 50
270.0
 51
360.0
  0
ARC
  5
330
100
AcDbEntity
  8
SUPERFICI
100
AcDbCircle
 62
7
  6
CONTINUOUS
 10
-62.7790933602
 20
-44.5531373441
 40
3.0
100
AcDbArc
 50
180.0
 51
270.0
  0
ARC
  5
331
100
AcDbEntity
  8
RACCORDO
100
AcDbCircle
 62
253
  6
CONTINUOUS
 10
86.2238308375
 20
-44.5563137317
 40
2.7655922521
100
AcDbArc
 50
269.9378149998
 51
0.0673085798
  0
ARC
  5
332
100
AcDbEntity
  8
RACCORDO
100
AcDbCircle
 62
253
  6
CONTINUOUS
 10
-62.7820175583
 20
-44.556313732
 40
2.7655922516
100
AcDbArc
 50
179.9326918829
 51
270.0621854885
  0
ARC
  5
333
100
AcDbEntity
  8
RACCORDO
100
AcDbCircle
 62
253
  6
CONTINUOUS
 10
86.2238385923
 20
44.4500449869
 40
2.7655834063
100
AcDbArc
 50
359.9325534762
 51
90.0623337608
  0
ARC
  5
334
100
AcDbEntity
  8
RACCORDO
100
AcDbCircle
 62
253
  6
CONTINUOUS
 10
-62.7820266313
 20
44.4500462977
 40
2.7655821599
100
AcDbArc
 50
89.9376393965
 51
180.0674741381
  0
ARC
  5
335
100
AcDbEntity
  8
0
100
AcDbCircle
 62
253
  6
CONTINUOUS
 10
-44.329106755
 20
-22.3031302517
 40
0.4038096248
100
AcDbArc
 50
180.00100633
 51
270.0019005679
  0
ARC
  5
336
100
AcDbEntity
  8
0
100
AcDbCircle
 62
253
  6
CONTINUOUS
 10
67.770921219
 20
-22.3031307562
 40
0.4038082714
100
AcDbArc
 50
269.997931383
 51
359.9990652561
  0
ARC
  5
337
100
AcDbEntity
  8
0
100
AcDbCircle
 62
253
  6
CONTINUOUS
 10
-44.3291079393
 20
22.196856068
 40
0.4038082715
100
AcDbArc
 50
89.9979313901
 51
179.9990652449
  0
ARC
  5
338
100
AcDbEntity
  8
0
100
AcDbCircle
 62
253
  6
CONTINUOUS
 10
67.7709214335
 20
22.1968551604
 40
0.4038081773
100
AcDbArc
 50
0.0010635278
 51
90.0020990608
  0
ARC
  5
339
100
AcDbEntity
  8
0
100
AcDbCircle
 62
7
  6
CONTINUOUS
 10
-44.3290933602
 20
-22.3031373441
 40
0.3
100
AcDbArc
 50
180.0
 51
270.0
  0
ARC
  5
33A
100
AcDbEntity
  8
0
100
AcDbCircle
 62
7
  6
CONTINUOUS
 10
67.7709066398
 20
-22.3031373441
 40
0.3
100
AcDbArc
 50
270.0
 51
360.0
  0
ARC
  5
33B
100
AcDbEntity
  8
0
100
AcDbCircle
 62
7
  6
CONTINUOUS
 10
-44.3290933602
 20
22.1968626559
 40
0.3
100
AcDbArc
 50
90.0
 51
180.0
  0
ARC
  5
33C
100
AcDbEntity
  8
0
100
AcDbCircle
 62
7
  6
CONTINUOUS
 10
67.7709066398
 20
22.1968626559
 40
0.3
100
AcDbArc
 50
0.0
 51
90.0
  0
ARC
  5
33D
100
AcDbEntity
  8
RACCORDO
100
AcDbCircle
 62
7
  6
CONTINUOUS
 10
-91.1958418061
 20
-26.089184591
 40
3.0
100
AcDbArc
 50
8.1190753454
 51
36.6210841301
  0
ARC
  5
33E
100
AcDbEntity
  8
RACCORDO
100
AcDbCircle
 62
7
  6
CONTINUOUS
 10
-91.1911756341
 20
-26.0953975133
 40
2.9996671158
100
AcDbArc
 50
2.2339276979
 51
36.7316802677
  0
ARC
  5
33F
100
AcDbEntity
  8
RACCORDO
100
AcDbCircle
 62
7
  6
CONTINUOUS
 10
-87.9857913195
 20
-23.703133733
 40
1.0
100
AcDbArc
 50
177.6475441653
 51
216.7340509825
  0
ARC
  5
340
100
AcDbEntity
  8
RACCORDO
100
AcDbCircle
 62
7
  6
CONTINUOUS
 10
-84.4265209045
 20
-46.3190727497
 40
1.0
100
AcDbArc
 50
193.6553620673
 51
266.9469711012
  0
ARC
  5
341
100
AcDbEntity
  8
RACCORDO
100
AcDbCircle
 62
253
  6
CONTINUOUS
 10
-84.3463798647
 20
-46.323796851
 40
0.9995116119
100
AcDbArc
 50
187.6320794824
 51
266.9799867948
  0
ARC
  5
342
100
AcDbEntity
  8
RACCORDO
100
AcDbCircle
 62
7
  6
CONTINUOUS
 10
-80.4864883075
 20
-4.2549305707
 40
0.5
100
AcDbArc
 50
0.0
 51
82.5
  0
ARC
  5
343
100
AcDbEntity
  8
RACCORDO
100
AcDbCircle
 62
7
  6
CONTINUOUS
 10
-81.4864883075
 20
-3.1146491126
 40
0.5
100
AcDbArc
 50
180.0
 51
262.5
  0
ARC
  5
344
100
AcDbEntity
  8
RACCORDO
100
AcDbCircle
 62
7
  6
CONTINUOUS
 10
-91.1948237472
 20
25.9913892465
 40
3.0039596194
100
AcDbArc
 50
327.8003507767
 51
329.3184840014
  0
ARC
  5
345
100
AcDbEntity
  8
RACCORDO
100
AcDbCircle
 62
7
  6
CONTINUOUS
 10
-91.1941599608
 20
25.9909957453
 40
3.0031879613
100
AcDbArc
 50
329.4148790918
 51
329.5658185122
  0
ARC
  5
346
100
AcDbEntity
  8
RACCORDO
100
AcDbCircle
 62
7
  6
CONTINUOUS
 10
-91.19584182
 20
25.9829101668
 40
3.0
100
AcDbArc
 50
323.3789119755
 51
352.2394881721
  0
ARC
  5
347
100
AcDbEntity
  8
RACCORDO
100
AcDbCircle
 62
7
  6
CONTINUOUS
 10
-91.1912359685
 20
25.9891421792
 40
2.999739112
100
AcDbArc
 50
326.4282783765
 51
357.7657057142
  0
ARC
  5
348
100
AcDbEntity
  8
RACCORDO
100
AcDbCircle
 62
7
  6
CONTINUOUS
 10
-91.1898733628
 20
25.9879792044
 40
2.9979591783
100
AcDbArc
 50
323.2674470914
 51
326.4323967287
  0
ARC
  5
349
100
AcDbEntity
  8
RACCORDO
100
AcDbCircle
 62
7
  6
CONTINUOUS
 10
-91.1883815207
 20
25.9877172876
 40
2.9965440405
100
AcDbArc
 50
331.0264765475
 51
331.3490314142
  0
ARC
  5
34A
100
AcDbEntity
  8
RACCORDO
100
AcDbCircle
 62
7
  6
CONTINUOUS
 10
-91.1864111243
 20
25.9854638245
 40
2.9936710804
100
AcDbArc
 50
323.5693805479
 51
324.4308640045
  0
ARC
  5
34B
100
AcDbEntity
  8
RACCORDO
100
AcDbCircle
 62
7
  6
CONTINUOUS
 10
-91.1857068123
 20
25.9862601593
 40
2.993498188
100
AcDbArc
 50
331.3489999389
 51
333.6098856346
  0
ARC
  5
34C
100
AcDbEntity
  8
RACCORDO
100
AcDbCircle
 62
7
  6
CONTINUOUS
 10
-91.1833946547
 20
25.9832445549
 40
2.9899261887
100
AcDbArc
 50
323.2657915065
 51
323.5692702654
  0
ARC
  5
34D
100
AcDbEntity
  8
RACCORDO
100
AcDbCircle
 62
253
  6
CONTINUOUS
 10
-84.3464739728
 20
46.2175215725
 40
0.9995051379
100
AcDbArc
 50
93.0202420605
 51
172.381524266
  0
ARC
  5
34E
100
AcDbEntity
  8
RACCORDO
100
AcDbCircle
 62
7
  6
CONTINUOUS
 10
-87.9854497222
 20
23.5968291589
 40
1.0
100
AcDbArc
 50
143.2660010297
 51
182.4878513294
  0
ARC
  5
34F
100
AcDbEntity
  8
RACCORDO
100
AcDbCircle
 62
7
  6
CONTINUOUS
 10
-87.9880591818
 20
23.5985796122
 40
0.9971529866
100
AcDbArc
 50
143.2672613024
 51
145.6944511583
  0
ARC
  5
350
100
AcDbEntity
  8
RACCORDO
100
AcDbCircle
 62
7
  6
CONTINUOUS
 10
-80.4864883075
 20
4.1486558826
 40
0.5
100
AcDbArc
 50
277.5
 51
360.0
  0
ARC
  5
351
100
AcDbEntity
  8
RACCORDO
100
AcDbCircle
 62
7
  6
CONTINUOUS
 10
-81.4864883075
 20
3.0083744244
 40
0.5
100
AcDbArc
 50
97.5
 51
180.0
  0
ARC
  5
352
100
AcDbEntity
  8
RACCORDO
100
AcDbCircle
 62
7
  6
CONTINUOUS
 10
14.2249563059
 20
-22.5031373441
 40
102.4814446134
100
AcDbArc
 50
182.4133567109
 51
191.0830579438
  0
ARC
  5
353
100
AcDbEntity
  8
RACCORDO
100
AcDbCircle
 62
7
  6
CONTINUOUS
 10
14.2249563059
 20
22.3968626559
 40
102.4814446134
100
AcDbArc
 50
168.9169443458
 51
177.5866446696
  0
SPLINE
  5
354
100
AcDbEntity
  8
0
100
AcDbSpline
 62
253
  6
CONTINUOUS
 70
0
 71
3
 72
15
 73
11
 74
9
 42
0.0000001
 43
0.0000001
 44
0.0000000001
 12
0.3448790631
 22
-0.0000047976
 32
0.0
 13
0.1212914779
 23
-0.3228466286
 33
0.0
 40
0.0
 40
0.0
 40
0.0
 40
0.0
 40
0.1315947225
 40
0.2577315031
 40
0.3814482363
 40
0.5055059177
 40
0.629275308
 40
0.7527113847
 40
0.8752728816
 40
1.0
 40
1.0
 40
1.0
 40
1.0
 10
69.032975996
 20
-27.9996135729
 30
0.0
 10
69.0481040842
 20
-27.9996137833
 30
0.0
 10
69.0777904284
 20
-28.0020236421
 30
0.0
 10
69.1205223189
 20
-28.0127806195
 30
0.0
 10
69.1597410253
 20
-28.0310963976
 30
0.0
 10
69.1942206585
 20
-28.0567031969
 30
0.0
 10
69.2242465642
 20
-28.0872312669
 30
0.0
 10
69.2497749226
 20
-28.1213547595
 30
0.0
 10
69.2713854847
 20
-28.1581829769
 30
0.0
 10
69.2828749121
 20
-28.184268042
 30
0.0
 10
69.287917691
 20
-28.1976906186
 30
0.0
 11
69.032975996
 21
-27.9996135729
 31
0.0
 11
69.0782069154
 21
-28.0033412269
 31
0.0
 11
69.1203389059
 21
-28.0141723717
 31
0.0
 11
69.1589586253
 21
-28.0323111895
 31
0.0
 11
69.1935067961
 21
-28.0575494798
 31
0.0
 11
69.2235400691
 21
-28.0878818384
 31
0.0
 11
69.2491697045
 21
-28.1218725847
 31
0.0
 11
69.2705405729
 21
-28.1583410013
 31
0.0
 11
69.287917691
 21
-28.1976906186
 31
0.0
  0
SPLINE
  5
355
100
AcDbEntity
  8
0
100
AcDbSpline
 62
253
  6
CONTINUOUS
 70
0
 71
3
 72
14
 73
10
 74
8
 42
0.0000001
 43
0.0000001
 44
0.0000000001
 12
0.3440419161
 22
-0.9157508394
 32
0.0
 13
0.266074968
 23
-0.9413652593
 33
0.0
 40
0.0
 40
0.0
 40
0.0
 40
0.0
 40
0.1409839589
 40
0.282205808
 40
0.4231283009
 40
0.5636079515
 40
0.7047580267
 40
0.8492645394
 40
1.0
 40
1.0
 40
1.0
 40
1.0
 10
69.287917691
 20
-28.1976906186
 30
0.0
 10
69.3040858214
 20
-28.2407260115
 30
0.0
 10
69.3340428198
 20
-28.3277773957
 30
0.0
 10
69.3742661203
 20
-28.4597717894
 30
0.0
 10
69.4118061336
 20
-28.5923728066
 30
0.0
 10
69.4494079952
 20
-28.7249294602
 30
0.0
 10
69.4884073051
 20
-28.858300955
 30
0.0
 10
69.5286149068
 20
-28.9948014659
 30
0.0
 10
69.5553100257
 20
-29.0873009729
 30
0.0
 10
69.5686790034
 20
-29.1346000149
 30
0.0
 11
69.287917691
 21
-28.1976906186
 31
0.0
 11
69.3332363779
 21
-28.3279491998
 31
0.0
 11
69.3738538035
 21
-28.4599929461
 31
0.0
 11
69.4118568639
 21
-28.592508103
 31
0.0
 11
69.4495256837
 21
-28.7246682543
 31
0.0
 11
69.4881432331
 21
-28.8572375432
 31
0.0
 11
69.5279194351
 21
-28.9928889778
 31
0.0
 11
69.5686790034
 21
-29.1346000149
 31
0.0
  0
SPLINE
  5
356
100
AcDbEntity
  8
0
100
AcDbSpline
 62
253
  6
CONTINUOUS
 70
0
 71
3
 72
15
 73
11
 74
9
 42
0.0000001
 43
0.0000001
 44
0.0000000001
 12
-0.1665598086
 22
0.6112556723
 32
0.0
 13
-0.4856829781
 23
0.4068018087
 33
0.0
 40
0.0
 40
0.0
 40
0.0
 40
0.0
 40
0.1433860925
 40
0.2863880853
 40
0.4226359347
 40
0.5486226142
 40
0.6659330262
 40
0.7775069244
 40
0.8874623887
 40
1.0
 40
1.0
 40
1.0
 40
1.0
 10
70.0959637074
 20
-28.2380021605
 30
0.0
 10
70.0880029207
 20
-28.2087869731
 30
0.0
 10
70.0725791811
 20
-28.1503074369
 30
0.0
 10
70.0484991045
 20
-28.0643538569
 30
0.0
 10
70.0220493225
 20
-27.9829254014
 30
0.0
 10
69.9925743002
 20
-27.9083164477
 30
0.0
 10
69.9595244806
 20
-27.8409500278
 30
0.0
 10
69.9218943443
 20
-27.779929514
 30
0.0
 10
69.8781540189
 20
-27.7243692263
 30
0.0
 10
69.8443379155
 20
-27.6914757821
 30
0.0
 10
69.8261187148
 20
-27.6762156141
 30
0.0
 11
70.0959637074
 21
-28.2380021605
 31
0.0
 11
70.0723345232
 21
-28.1502880033
 31
0.0
 11
70.0475069043
 21
-28.0631585071
 31
0.0
 11
70.0205025736
 21
-27.98117257
 31
0.0
 11
69.9908910511
 21
-27.9070507071
 31
0.0
 11
69.9579125477
 21
-27.8404470812
 31
0.0
 11
69.9205976315
 21
-27.7804119561
 31
0.0
 11
69.8773480164
 21
-27.7258025748
 31
0.0
 11
69.8261187148
 21
-27.6762156141
 31
0.0
  0
SPLINE
  5
357
100
AcDbEntity
  8
0
100
AcDbSpline
 62
253
  6
CONTINUOUS
 70
0
 71
3
 72
19
 73
15
 74
13
 42
0.0000001
 43
0.0000001
 44
0.0000000001
 12
1.4792339769
 22
1.1383488012
 32
0.0
 13
-1.7555032608
 23
0.6341762003
 33
0.0
 40
0.0
 40
0.0
 40
0.0
 40
0.0
 40
0.0917858048
 40
0.1872657593
 40
0.2859436061
 40
0.3896617626
 40
0.4947994219
 40
0.5935937565
 40
0.682504178
 40
0.761547505
 40
0.8310572228
 40
0.8929747948
 40
0.9491412342
 40
1.0
 40
1.0
 40
1.0
 40
1.0
 10
69.8261187148
 20
-27.6762156141
 30
0.0
 10
69.8713762752
 20
-27.6413875271
 30
0.0
 10
69.956237854
 20
-27.560100985
 30
0.0
 10
70.0573723798
 20
-27.4122284803
 30
0.0
 10
70.1280281862
 20
-27.2393644959
 30
0.0
 10
70.162735148
 20
-27.0499812379
 30
0.0
 10
70.1624848044
 20
-26.8574477903
 30
0.0
 10
70.1270906691
 20
-26.6775296732
 30
0.0
 10
70.0645813275
 20
-26.5227780945
 30
0.0
 10
69.9853913883
 20
-26.3971469166
 30
0.0
 10
69.8976384476
 20
-26.2992453236
 30
0.0
 10
69.8081801559
 20
-26.2238053855
 30
0.0
 10
69.7199155894
 20
-26.1662045663
 30
0.0
 10
69.6591318214
 20
-26.1382311805
 30
0.0
 10
69.6293709117
 20
-26.1274800409
 30
0.0
 11
69.8261187148
 21
-27.6762156141
 31
0.0
 11
69.9500887025
 21
-27.5579674689
 31
0.0
 11
70.0507717779
 21
-27.4109155442
 31
0.0
 11
70.120850464
 21
-27.240582016
 31
0.0
 11
70.1567202156
 21
-27.050339993
 31
0.0
 11
70.1559724337
 21
-26.8540977831
 31
0.0
 11
70.1199955884
 21
-26.6732377769
 31
0.0
 11
70.0576026799
 21
-26.5194582705
 31
0.0
 11
69.9787021785
 21
-26.3947905865
 31
0.0
 11
69.8922696132
 21
-26.2980302138
 31
0.0
 11
69.8039577736
 21
-26.2234794402
 31
0.0
 11
69.7158018286
 21
-26.1667405217
 31
0.0
 11
69.6293709117
 21
-26.1274800409
 31
0.0
  0
SPLINE
  5
358
100
AcDbEntity
  8
0
100
AcDbSpline
 62
253
  6
CONTINUOUS
 70
0
 71
3
 72
14
 73
10
 74
8
 42
0.0000001
 43
0.0000001
 44
0.0000000001
 12
-1.5303513335
 22
0.5528399836
 32
0.0
 13
-1.6082256617
 23
-0.2474216494
 33
0.0
 40
0.0
 40
0.0
 40
0.0
 40
0.0
 40
0.0997461998
 40
0.2150539535
 40
0.3437084262
 40
0.4850678808
 40
0.6404948947
 40
0.8108976973
 40
1.0
 40
1.0
 40
1.0
 40
1.0
 10
69.6293709117
 20
-26.1274800409
 30
0.0
 10
69.5784886684
 20
-26.1090988118
 30
0.0
 10
69.4662074723
 20
-26.0763836522
 30
0.0
 10
69.2822897768
 20
-26.0441985092
 30
0.0
 10
69.0738938579
 20
-26.0260337592
 30
0.0
 10
68.843023919
 20
-26.0215100698
 30
0.0
 10
68.5897320168
 20
-26.0330730314
 30
0.0
 10
68.3117373179
 20
-26.0609825931
 30
0.0
 10
68.1186456029
 20
-26.0884031361
 30
0.0
 10
68.0172725443
 20
-26.1039991373
 30
0.0
 11
69.6293709117
 21
-26.1274800409
 31
0.0
 11
69.4737312557
 21
-26.0814567004
 31
0.0
 11
69.2891188491
 21
-26.0479824934
 31
0.0
 11
69.0806533505
 21
-26.0288707026
 31
0.0
 11
68.850691434
 21
-26.0240419704
 31
0.0
 11
68.5980214283
 21
-26.0348858814
 31
0.0
 11
68.3220556777
 21
-26.0617518653
 31
0.0
 11
68.0172725443
 21
-26.1039991373
 31
0.0
  0
SPLINE
  5
359
100
AcDbEntity
  8
0
100
AcDbSpline
 62
253
  6
CONTINUOUS
 70
0
 71
3
 72
10
 73
6
 74
4
 42
0.0000001
 43
0.0000001
 44
0.0000000001
 12
0.3731319732
 22
0.0518029022
 32
0.0
 13
0.3741979826
 23
-0.0434382314
 33
0.0
 40
0.0
 40
0.0
 40
0.0
 40
0.0
 40
0.3444249359
 40
0.6749325694
 40
1.0
 40
1.0
 40
1.0
 40
1.0
 10
68.7766075302
 20
-26.7157034754
 30
0.0
 10
68.8194461822
 20
-26.7097560717
 30
0.0
 10
68.9039040151
 20
-26.7013446722
 30
0.0
 10
69.0296105571
 20
-26.700057135
 30
0.0
 10
69.1118243294
 20
-26.7060717092
 30
0.0
 10
69.152370855
 20
-26.710778494
 30
0.0
 11
68.7766075302
 21
-26.7157034754
 31
0.0
 11
68.905745978
 21
-26.7031353913
 31
0.0
 11
69.0302445328
 21
-26.7017933693
 31
0.0
 11
69.152370855
 21
-26.710778494
 31
0.0
  0
SPLINE
  5
35A
100
AcDbEntity
  8
0
100
AcDbSpline
 62
253
  6
CONTINUOUS
 70
0
 71
3
 72
13
 73
9
 74
7
 42
0.0000001
 43
0.0000001
 44
0.0000000001
 12
0.4149935945
 22
-0.048173931
 32
0.0
 13
0.0063499777
 23
-0.4177320778
 33
0.0
 40
0.0
 40
0.0
 40
0.0
 40
0.0
 40
0.1637471269
 40
0.3204948101
 40
0.4777352741
 40
0.6410677541
 40
0.8118295452
 40
1.0
 40
1.0
 40
1.0
 40
1.0
 10
69.152370855
 20
-26.710778494
 30
0.0
 10
69.1750221912
 20
-26.7134079416
 30
0.0
 10
69.2189545948
 20
-26.7231225892
 30
0.0
 10
69.2802294746
 20
-26.7500167365
 30
0.0
 10
69.3346168004
 20
-26.789418698
 30
0.0
 10
69.3775915096
 20
-26.8437702895
 30
0.0
 10
69.407337981
 20
-26.9108213213
 30
0.0
 10
69.4158194136
 20
-26.9608876447
 30
0.0
 10
69.4162177063
 20
-26.9870892564
 30
0.0
 11
69.152370855
 21
-26.710778494
 31
0.0
 11
69.219176525
 21
-26.7255085895
 31
0.0
 11
69.279045859
 21
-26.7520433242
 31
0.0
 11
69.3318805326
 21
-26.7910809054
 31
0.0
 11
69.3745055893
 21
-26.8443669842
 31
0.0
 11
69.4036389559
 21
-26.9094882069
 31
0.0
 11
69.4162177063
 21
-26.9870892564
 31
0.0
  0
SPLINE
  5
35B
100
AcDbEntity
  8
0
100
AcDbSpline
 62
253
  6
CONTINUOUS
 70
0
 71
3
 72
14
 73
10
 74
8
 42
0.0000001
 43
0.0000001
 44
0.0000000001
 12
0.0091532462
 22
-0.6021445618
 32
0.0
 13
-0.6020480483
 23
-0.0141422337
 33
0.0
 40
0.0
 40
0.0
 40
0.0
 40
0.0
 40
0.1352467321
 40
0.2681134543
 40
0.396414017
 40
0.5255105105
 40
0.6651901914
 40
0.8223291736
 40
1.0
 40
1.0
 40
1.0
 40
1.0
 10
69.4162177063
 20
-26.9870892564
 30
0.0
 10
69.4166303552
 20
-27.0142352844
 30
0.0
 10
69.4143678293
 20
-27.0681735631
 30
0.0
 10
69.397407073
 20
-27.146617561
 30
0.0
 10
69.3608781757
 20
-27.2170141751
 30
0.0
 10
69.3052610661
 20
-27.2758477166
 30
0.0
 10
69.2287606817
 20
-27.3166838064
 30
0.0
 10
69.1361564445
 20
-27.3411298051
 30
0.0
 10
69.0689083694
 20
-27.3471392603
 30
0.0
 10
69.0332529113
 20
-27.3479768144
 30
0.0
 11
69.4162177063
 21
-26.9870892564
 31
0.0
 11
69.4120044829
 21
-27.0684277025
 31
0.0
 11
69.3937768702
 21
-27.1463380939
 31
0.0
 11
69.357981094
 21
-27.2148103633
 31
0.0
 11
69.3042911931
 21
-27.2710374248
 31
0.0
 11
69.2308743649
 21
-27.3120941173
 31
0.0
 11
69.1397440283
 21
-27.3375960297
 31
0.0
 11
69.0332529113
 21
-27.3479768144
 31
0.0
  0
SPLINE
  5
35C
100
AcDbEntity
  8
RACCORDO
100
AcDbSpline
 62
253
  6
CONTINUOUS
 70
0
 71
3
 72
27
 73
23
 74
21
 42
0.0000001
 43
0.0000001
 44
0.0000000001
 12
32.749920598
 22
-0.0000153493
 32
0.0
 13
32.7498532673
 23
0.0664089186
 33
0.0
 40
0.0
 40
0.0
 40
0.0
 40
0.0
 40
0.0985897033
 40
0.1892820399
 40
0.2727912574
 40
0.3497455115
 40
0.420709915
 40
0.486173198
 40
0.546498058
 40
0.6020547613
 40
0.6532530026
 40
0.7004615719
 40
0.7439602214
 40
0.7839163291
 40
0.8205446902
 40
0.8540334126
 40
0.8846274054
 40
0.9126275978
 40
0.9382367726
 40
0.9613525272
 40
0.9818491096
 40
1.0
 40
1.0
 40
1.0
 40
1.0
 10
53.470910982
 20
47.211650761
 30
0.0
 10
54.5471793
 20
47.2116502566
 30
0.0
 10
56.6135032254
 20
47.2116886032
 30
0.0
 10
59.5914672299
 20
47.2118014887
 30
0.0
 10
62.33324482
 20
47.2119123354
 30
0.0
 10
64.859659664
 20
47.211989885
 30
0.0
 10
67.1890735345
 20
47.2120303516
 30
0.0
 10
69.3369502937
 20
47.2120216193
 30
0.0
 10
71.3166267312
 20
47.2119413425
 30
0.0
 10
73.140576837
 20
47.2118051094
 30
0.0
 10
74.8213411133
 20
47.2116376631
 30
0.0
 10
76.370471954
 20
47.2114671547
 30
0.0
 10
77.7968764774
 20
47.2113959755
 30
0.0
 10
79.1077806742
 20
47.2114768309
 30
0.0
 10
80.3094100798
 20
47.211721819
 30
0.0
 10
81.4088365836
 20
47.2121602816
 30
0.0
 10
82.4140724026
 20
47.2127142931
 30
0.0
 10
83.3332900659
 20
47.2131907539
 30
0.0
 10
84.170870544
 20
47.2135284756
 30
0.0
 10
84.9265368069
 20
47.2138860095
 30
0.0
 10
85.6007834731
 20
47.2145224918
 30
0.0
 10
86.022683524
 20
47.2152037255
 30
0.0
 10
86.2208298565
 20
47.2156055192
 30
0.0
 11
53.470910982
 21
47.211650761
 31
0.0
 11
56.6997159358
 21
47.21170105
 31
0.0
 11
59.6698827557
 21
47.211805761
 31
0.0
 11
62.4048029979
 21
47.2119106106
 31
0.0
 11
64.9250487076
 21
47.2119860691
 31
0.0
 11
67.2491272877
 21
47.2120227563
 31
0.0
 11
69.3930446088
 21
47.2120078219
 31
0.0
 11
71.3686789822
 21
47.2119275276
 31
0.0
 11
73.1881565971
 21
47.2117936858
 31
0.0
 11
74.864894926
 21
47.2116302876
 31
0.0
 11
76.4109718156
 21
47.2114788346
 31
0.0
 11
77.8355491308
 21
47.2114216627
 31
0.0
 11
79.1441084841
 21
47.2115114322
 31
0.0
 11
80.3436843721
 21
47.2117695242
 31
0.0
 11
81.4404372881
 21
47.2122019841
 31
0.0
 11
82.4423879878
 21
47.21272418
 31
0.0
 11
83.3593919492
 21
47.2131859041
 31
0.0
 11
84.1980903107
 21
47.2135497256
 31
0.0
 11
84.9551293247
 21
47.2139625146
 31
0.0
 11
85.6263904434
 21
47.2146262534
 31
0.0
 11
86.2208298565
 21
47.2156055192
 31
0.0
  0
SPLINE
  5
35D
100
AcDbEntity
  8
RACCORDO
100
AcDbSpline
 62
253
  6
CONTINUOUS
 70
0
 71
3
 72
51
 73
47
 74
45
 42
0.0000001
 43
0.0000001
 44
0.0000000001
 12
-32.7498535381
 22
0.0660159898
 32
0.0
 13
-32.7499200744
 23
-0.0000157141
 33
0.0
 40
0.0
 40
0.0
 40
0.0
 40
0.0
 40
0.0077013353
 40
0.0153807972
 40
0.0230064056
 40
0.0305465934
 40
0.0379699774
 40
0.0452680202
 40
0.0524881015
 40
0.0597171954
 40
0.0669692125
 40
0.0742137449
 40
0.0814665486
 40
0.0887516826
 40
0.0960377261
 40
0.1033326406
 40
0.1108451539
 40
0.1188350723
 40
0.1275462907
 40
0.1371212631
 40
0.1475589716
 40
0.1588599606
 40
0.1710829534
 40
0.184332467
 40
0.1987017277
 40
0.2142698023
 40
0.2311274311
 40
0.249381977
 40
0.2691467418
 40
0.2905370756
 40
0.3136651945
 40
0.3386542537
 40
0.3656544607
 40
0.3948347965
 40
0.426386651
 40
0.4605227799
 40
0.4974757291
 40
0.5374821173
 40
0.5807884057
 40
0.6276556456
 40
0.6783539876
 40
0.7331510092
 40
0.7922917528
 40
0.8561310937
 40
0.9251744532
 40
1.0
 40
1.0
 40
1.0
 40
1.0
 10
86.2208292702
 20
-47.3218853196
 30
0.0
 10
86.1367567363
 20
-47.3217158492
 30
0.0
 10
85.9688503919
 20
-47.3214062929
 30
0.0
 10
85.7176980371
 20
-47.3210203088
 30
0.0
 10
85.4683047811
 20
-47.3207002143
 30
0.0
 10
85.2217069767
 20
-47.3204320477
 30
0.0
 10
84.9786850424
 20
-47.3202116697
 30
0.0
 10
84.7391575614
 20
-47.3200341614
 30
0.0
 10
84.5017510522
 20
-47.3198922391
 30
0.0
 10
84.2648469744
 20
-47.3197786813
 30
0.0
 10
84.0276759646
 20
-47.3196860127
 30
0.0
 10
83.7902461187
 20
-47.3196058932
 30
0.0
 10
83.5524547461
 20
-47.3195291575
 30
0.0
 10
83.3142102142
 20
-47.3194453498
 30
0.0
 10
83.07550598
 20
-47.3193458104
 30
0.0
 10
82.8343195342
 20
-47.3192327835
 30
0.0
 10
82.5854491441
 20
-47.3191060041
 30
0.0
 10
82.3211174807
 20
-47.3189635405
 30
0.0
 10
82.0342706988
 20
-47.3188042678
 30
0.0
 10
81.720702278
 20
-47.3186304658
 30
0.0
 10
81.3788622633
 20
-47.3184491848
 30
0.0
 10
81.0081147576
 20
-47.3182734034
 30
0.0
 10
80.6066717767
 20
-47.3181161344
 30
0.0
 10
80.1717335687
 20
-47.3179796985
 30
0.0
 10
79.7002782973
 20
-47.3178685735
 30
0.0
 10
79.1894345247
 20
-47.3177850436
 30
0.0
 10
78.6361764888
 20
-47.3177285848
 30
0.0
 10
78.0371046958
 20
-47.3176999029
 30
0.0
 10
77.3885509931
 20
-47.3177022652
 30
0.0
 10
76.6867942494
 20
-47.3177356006
 30
0.0
 10
75.9280057651
 20
-47.3177972194
 30
0.0
 10
75.1079763162
 20
-47.317880432
 30
0.0
 10
74.2218769942
 20
-47.3179720055
 30
0.0
 10
73.2641339988
 20
-47.3180607146
 30
0.0
 10
72.2284907115
 20
-47.3181449557
 30
0.0
 10
71.1079966009
 20
-47.3182189673
 30
0.0
 10
69.8952073874
 20
-47.3182752983
 30
0.0
 10
68.582310844
 20
-47.3183067714
 30
0.0
 10
67.1611835579
 20
-47.3183126624
 30
0.0
 10
65.62333606
 20
-47.3182919369
 30
0.0
 10
63.9600483651
 20
-47.3182458338
 30
0.0
 10
62.1627752481
 20
-47.3181783858
 30
0.0
 10
60.2220465779
 20
-47.3180988159
 30
0.0
 10
58.1257957649
 20
-47.3180168836
 30
0.0
 10
55.8583196016
 20
-47.317947091
 30
0.0
 10
54.2877545412
 20
-47.3179250572
 30
0.0
 10
53.470910982
 20
-47.3179254491
 30
0.0
 11
86.2208292702
 21
-47.3218853196
 31
0.0
 11
85.9686115876
 21
-47.3214187665
 31
0.0
 11
85.7171101235
 21
-47.3210300626
 31
0.0
 11
85.467372266
 21
-47.3207072226
 31
0.0
 11
85.2204318653
 21
-47.3204381537
 31
0.0
 11
84.9773167326
 21
-47.320217202
 31
0.0
 11
84.7383064801
 21
-47.3200392687
 31
0.0
 11
84.5018494374
 21
-47.3198969636
 31
0.0
 11
84.2650972167
 21
-47.3197822924
 31
0.0
 11
84.0275942556
 21
-47.3196880909
 31
0.0
 11
83.7903364147
 21
-47.3196065064
 31
0.0
 11
83.5528076842
 21
-47.3195281231
 31
0.0
 11
83.3142201429
 21
-47.3194427597
 31
0.0
 11
83.0756028237
 21
-47.3193437987
 31
0.0
 11
82.8366949817
 21
-47.3192322964
 31
0.0
 11
82.5906608044
 21
-47.3191074851
 31
0.0
 11
82.328991652
 21
-47.3189671043
 31
0.0
 11
82.0436999892
 21
-47.318809548
 31
0.0
 11
81.7301204547
 21
-47.3186368844
 31
0.0
 11
81.3882863836
 21
-47.3184572562
 31
0.0
 11
81.0181799369
 21
-47.3182830573
 31
0.0
 11
80.6178779327
 21
-47.3181255231
 31
0.0
 11
80.1839574433
 21
-47.3179889442
 31
0.0
 11
79.7133653157
 21
-47.3178770937
 31
0.0
 11
79.2035121223
 21
-47.3177923608
 31
0.0
 11
78.6514261296
 21
-47.3177349272
 31
0.0
 11
78.0535912109
 21
-47.3177056217
 31
0.0
 11
77.4062967459
 21
-47.3177067454
 31
0.0
 11
76.7057650235
 21
-47.317738481
 31
0.0
 11
75.9483209812
 21
-47.3177980294
 31
0.0
 11
75.1299312927
 21
-47.3178784492
 31
0.0
 11
74.2456766751
 21
-47.3179680271
 31
0.0
 11
73.2900230134
 21
-47.31805659
 31
0.0
 11
72.2567023064
 21
-47.3181401314
 31
0.0
 11
71.1387468129
 21
-47.318213428
 31
0.0
 11
69.9285406814
 21
-47.3182693967
 31
0.0
 11
68.6183346664
 21
-47.3183017498
 31
0.0
 11
67.2000571835
 21
-47.3183085002
 31
0.0
 11
65.6651588238
 21
-47.3182890005
 31
0.0
 11
64.0047921733
 21
-47.3182444648
 31
0.0
 11
62.2101940992
 21
-47.3181791664
 31
0.0
 11
60.2733394723
 21
-47.3181015135
 31
0.0
 11
58.182606162
 21
-47.3180218847
 31
0.0
 11
55.9214416595
 21
-47.3179550928
 31
0.0
 11
53.470910982
 21
-47.3179254491
 31
0.0
  0
SPLINE
  5
35E
100
AcDbEntity
  8
RACCORDO
100
AcDbSpline
 62
253
  6
CONTINUOUS
 70
0
 71
3
 72
51
 73
47
 74
45
 42
0.0000001
 43
0.0000001
 44
0.0000000001
 12
-32.7499200513
 22
0.000015733
 32
0.0
 13
-32.7498535152
 23
-0.0660159107
 33
0.0
 40
0.0
 40
0.0
 40
0.0
 40
0.0
 40
0.0756481655
 40
0.1453650767
 40
0.2096646282
 40
0.269001917
 40
0.3237883791
 40
0.3743970265
 40
0.4211652821
 40
0.4643822278
 40
0.5043084338
 40
0.5411895815
 40
0.5752608502
 40
0.6067489994
 40
0.6358607985
 40
0.662784178
 40
0.6876901822
 40
0.7107333701
 40
0.7320423068
 40
0.7517322734
 40
0.7699190102
 40
0.7867149707
 40
0.802227353
 40
0.8165450087
 40
0.8297467382
 40
0.8419280666
 40
0.8531953038
 40
0.8635996132
 40
0.8731344422
 40
0.8817979588
 40
0.889747592
 40
0.8972354425
 40
0.9045286638
 40
0.9118270335
 40
0.9191275443
 40
0.9263966297
 40
0.933645298
 40
0.9408862714
 40
0.9481176907
 40
0.9553440977
 40
0.9625809777
 40
0.9698605417
 40
0.9772258851
 40
0.984697398
 40
0.992285154
 40
1.0
 40
1.0
 40
1.0
 40
1.0
 10
-30.0290977024
 20
-47.3179254491
 30
0.0
 10
-30.8549214934
 20
-47.3179250524
 30
0.0
 10
-32.441819707
 20
-47.3179475645
 30
0.0
 10
-34.7306529762
 20
-47.3180185184
 30
0.0
 10
-36.8414262757
 20
-47.3181013146
 30
0.0
 10
-38.7892092372
 20
-47.3181811478
 30
0.0
 10
-40.5875335276
 20
-47.3182481512
 30
0.0
 10
-42.2486462067
 20
-47.3182933458
 30
0.0
 10
-43.7834586407
 20
-47.3183129718
 30
0.0
 10
-45.2016547079
 20
-47.3183059092
 30
0.0
 10
-46.5119167777
 20
-47.3182732371
 30
0.0
 10
-47.7223387827
 20
-47.3182157311
 30
0.0
 10
-48.8406455579
 20
-47.3181409363
 30
0.0
 10
-49.8741371508
 20
-47.3180561586
 30
0.0
 10
-50.8295978099
 20
-47.3179671469
 30
0.0
 10
-51.7132035611
 20
-47.3178754384
 30
0.0
 10
-52.5305604687
 20
-47.3177930863
 30
0.0
 10
-53.2866265263
 20
-47.3177328799
 30
0.0
 10
-53.9857509813
 20
-47.3177012676
 30
0.0
 10
-54.6318593078
 20
-47.3177007283
 30
0.0
 10
-55.2287010981
 20
-47.3177312205
 30
0.0
 10
-55.7799377017
 20
-47.3177893173
 30
0.0
 10
-56.2889369366
 20
-47.317874686
 30
0.0
 10
-56.7586992391
 20
-47.317987658
 30
0.0
 10
-57.1920976168
 20
-47.3181258036
 30
0.0
 10
-57.5921956636
 20
-47.3182846861
 30
0.0
 10
-57.9617552707
 20
-47.3184617934
 30
0.0
 10
-58.3024239909
 20
-47.3186433498
 30
0.0
 10
-58.6146688313
 20
-47.3188166638
 30
0.0
 10
-58.90011686
 20
-47.3189749633
 30
0.0
 10
-59.1632187658
 20
-47.3191162889
 30
0.0
 10
-59.411361658
 20
-47.3192419928
 30
0.0
 10
-59.6523949461
 20
-47.3193541337
 30
0.0
 10
-59.8913831205
 20
-47.3194525472
 30
0.0
 10
-60.1301078172
 20
-47.3195355599
 30
0.0
 10
-60.3682899445
 20
-47.3196123217
 30
0.0
 10
-60.6058221219
 20
-47.3196932031
 30
0.0
 10
-60.842943107
 20
-47.3197873136
 30
0.0
 10
-61.0798210646
 20
-47.3199029506
 30
0.0
 10
-61.316654321
 20
-47.3200471782
 30
0.0
 10
-61.5540131323
 20
-47.3202260246
 30
0.0
 10
-61.7928886285
 20
-47.3204453801
 30
0.0
 10
-62.0343254833
 20
-47.3207098215
 30
0.0
 10
-62.2791267021
 20
-47.3210251969
 30
0.0
 10
-62.5277432248
 20
-47.321407621
 30
0.0
 10
-62.6947959421
 20
-47.321715552
 30
0.0
 10
-62.7790159674
 20
-47.3218853196
 30
0.0
 11
-30.0290977024
 21
-47.3179254491
 31
0.0
 11
-32.5065690754
 21
-47.3179557089
 31
0.0
 11
-34.7897923418
 21
-47.3180236084
 31
0.0
 11
-36.8955975105
 21
-47.3181040824
 31
0.0
 11
-38.8388889746
 21
-47.3181819284
 31
0.0
 11
-40.6331412269
 21
-47.3182467255
 31
0.0
 11
-42.290570382
 21
-47.318290346
 31
0.0
 11
-43.8222270118
 21
-47.318308753
 31
0.0
 11
-45.2375785286
 21
-47.3183008367
 31
0.0
 11
-46.5451585828
 21
-47.3182672937
 31
0.0
 11
-47.7530132203
 21
-47.3182102193
 31
0.0
 11
-48.8688445432
 21
-47.3181361222
 31
0.0
 11
-49.9000789085
 21
-47.3180520425
 31
0.0
 11
-50.8534879991
 21
-47.3179631665
 31
0.0
 11
-51.7352265209
 21
-47.317873616
 31
0.0
 11
-52.5508961637
 21
-47.3177940205
 31
0.0
 11
-53.3055587237
 21
-47.3177358701
 31
0.0
 11
-54.0034246938
 21
-47.3177058345
 31
0.0
 11
-54.6482695274
 21
-47.3177065165
 31
0.0
 11
-55.2438837012
 21
-47.3177376012
 31
0.0
 11
-55.7939500622
 21
-47.3177967349
 31
0.0
 11
-56.301979335
 21
-47.3178832817
 31
0.0
 11
-56.7708814017
 21
-47.3179969518
 31
0.0
 11
-57.2032369659
 21
-47.3181352277
 31
0.0
 11
-57.6021744651
 21
-47.3182943224
 31
0.0
 11
-57.97117554
 21
-47.3184697422
 31
0.0
 11
-58.3119157926
 21
-47.3186497191
 31
0.0
 11
-58.624180634
 21
-47.3188219165
 31
0.0
 11
-58.9079100673
 21
-47.3189784263
 31
0.0
 11
-59.1682598823
 21
-47.3191176304
 31
0.0
 11
-59.4134863537
 21
-47.3192413577
 31
0.0
 11
-59.6523387452
 21
-47.3193519802
 31
0.0
 11
-59.8913597477
 21
-47.319449986
 31
0.0
 11
-60.1304508765
 21
-47.3195346628
 31
0.0
 11
-60.3685128304
 21
-47.3196131177
 31
0.0
 11
-60.6059061244
 21
-47.3196954636
 31
0.0
 11
-60.8430474035
 21
-47.3197909652
 31
0.0
 11
-61.0798757788
 21
-47.3199077476
 31
0.0
 11
-61.3165399881
 21
-47.3200528042
 31
0.0
 11
-61.5535471614
 21
-47.3202321641
 31
0.0
 11
-61.7919521987
 21
-47.3204515119
 31
0.0
 11
-62.033166461
 21
-47.320716256
 31
0.0
 11
-62.2778577043
 21
-47.3210336755
 31
0.0
 11
-62.5263558103
 21
-47.3214180184
 31
0.0
 11
-62.7790159674
 21
-47.3218853196
 31
0.0
  0
SPLINE
  5
35F
100
AcDbEntity
  8
RACCORDO
100
AcDbSpline
 62
253
  6
CONTINUOUS
 70
0
 71
3
 72
53
 73
49
 74
47
 42
0.0000001
 43
0.0000001
 44
0.0000000001
 12
0.0000118287
 22
-32.7499331746
 32
0.0
 13
0.0758278865
 23
-32.74984539
 33
0.0
 40
0.0
 40
0.0
 40
0.0
 40
0.0
 40
0.0763353766
 40
0.1465357681
 40
0.2111666265
 40
0.2707144686
 40
0.3255493816
 40
0.3760611629
 40
0.4226281202
 40
0.4655893193
 40
0.5052490787
 40
0.5418809575
 40
0.5757317631
 40
0.607008934
 40
0.6358870538
 40
0.6625330639
 40
0.6871178104
 40
0.7098116128
 40
0.7307730735
 40
0.7501441781
 40
0.7680534261
 40
0.7846180128
 40
0.7999442238
 40
0.8141162256
 40
0.8272150762
 40
0.8393364284
 40
0.8505661276
 40
0.8609258977
 40
0.8703930722
 40
0.8790164934
 40
0.8869968499
 40
0.8946100449
 40
0.9021184698
 40
0.9096383734
 40
0.9171213458
 40
0.9245376504
 40
0.9319219732
 40
0.9393177277
 40
0.9467341617
 40
0.9540993891
 40
0.9613003494
 40
0.9682459318
 40
0.9748601159
 40
0.9810644945
 40
0.9867712769
 40
0.9918895469
 40
0.9963300832
 40
1.0
 40
1.0
 40
1.0
 40
1.0
 10
88.9836931606
 20
-11.8031345461
 30
0.0
 10
88.9836934616
 20
-12.6364607064
 30
0.0
 10
88.9837557022
 20
-14.2361395771
 30
0.0
 10
88.9839484431
 20
-16.5413705376
 30
0.0
 10
88.9841105862
 20
-18.6633379572
 30
0.0
 10
88.9841583515
 20
-20.6175659184
 30
0.0
 10
88.9840705367
 20
-22.4176609336
 30
0.0
 10
88.9839114128
 20
-24.076048239
 30
0.0
 10
88.9837178669
 20
-25.6048144276
 30
0.0
 10
88.9835171233
 20
-27.01511295
 30
0.0
 10
88.9833291173
 20
-28.3169537538
 30
0.0
 10
88.9831649747
 20
-29.519339634
 30
0.0
 10
88.9830466259
 20
-30.6302157818
 30
0.0
 10
88.9829886559
 20
-31.6564469044
 30
0.0
 10
88.9829954356
 20
-32.6040258388
 30
0.0
 10
88.9830654146
 20
-33.4785459522
 30
0.0
 10
88.9831813192
 20
-34.2855540661
 30
0.0
 10
88.9833271017
 20
-35.0305059703
 30
0.0
 10
88.983490951
 20
-35.7185423953
 30
0.0
 10
88.9836639811
 20
-36.3543475372
 30
0.0
 10
88.983839585
 20
-36.9421535647
 30
0.0
 10
88.9840126434
 20
-37.4858029262
 30
0.0
 10
88.98419027
 20
-37.9886540961
 30
0.0
 10
88.9843783891
 20
-38.4536710517
 30
0.0
 10
88.9845774694
 20
-38.8837016955
 30
0.0
 10
88.9847874377
 20
-39.2816122592
 30
0.0
 10
88.9850046973
 20
-39.6496212464
 30
0.0
 10
88.9852212924
 20
-39.9886555138
 30
0.0
 10
88.9854304491
 20
-40.2992379691
 30
0.0
 10
88.9856291277
 20
-40.583845214
 30
0.0
 10
88.9858186772
 20
-40.8482132249
 30
0.0
 10
88.9860035861
 20
-41.1004092187
 30
0.0
 10
88.9861879929
 20
-41.3475786098
 30
0.0
 10
88.9863745221
 20
-41.5933264064
 30
0.0
 10
88.9865606665
 20
-41.8380685579
 30
0.0
 10
88.9867395513
 20
-42.0813306276
 30
0.0
 10
88.986907306
 20
-42.3236405768
 30
0.0
 10
88.9870576646
 20
-42.5659519505
 30
0.0
 10
88.9871870656
 20
-42.8080548783
 30
0.0
 10
88.9873147818
 20
-43.0480313093
 30
0.0
 10
88.9874678981
 20
-43.2828676055
 30
0.0
 10
88.9876601698
 20
-43.5095049974
 30
0.0
 10
88.9878970096
 20
-43.7252630135
 30
0.0
 10
88.9881724423
 20
-43.927497432
 30
0.0
 10
88.9884722742
 20
-44.1134014348
 30
0.0
 10
88.9887799374
 20
-44.2800501554
 30
0.0
 10
88.9890766974
 20
-44.4244631177
 30
0.0
 10
88.9892744802
 20
-44.5130018296
 30
0.0
 10
88.9893672409
 20
-44.5530648987
 30
0.0
 11
88.9836931606
 21
-11.8031345461
 31
0.0
 11
88.9837777135
 21
-14.3031130255
 31
0.0
 11
88.9839506544
 21
-16.6021711498
 31
0.0
 11
88.9840957421
 21
-18.7188274391
 31
0.0
 11
88.9841348278
 21
-20.6690152904
 31
0.0
 11
88.9840535375
 21
-22.4648550232
 31
0.0
 11
88.9838984864
 21
-24.1191124781
 31
0.0
 11
88.983708722
 21
-25.6441772075
 31
0.0
 11
88.9835114874
 21
-27.0511535925
 31
0.0
 11
88.9833261221
 21
-28.3500080492
 31
0.0
 11
88.9831670606
 21
-29.5496996222
 31
0.0
 11
88.9830532455
 21
-30.6583112367
 31
0.0
 11
88.982998475
 21
-31.6826364929
 31
0.0
 11
88.9830075571
 21
-32.6283929858
 31
0.0
 11
88.9830768379
 21
-33.5010480335
 31
0.0
 11
88.983191551
 21
-34.3061968283
 31
0.0
 11
88.9833362691
 21
-35.0494173261
 31
0.0
 11
88.9834991293
 21
-35.7359037466
 31
0.0
 11
88.9836712471
 21
-36.3703061047
 31
0.0
 11
88.9838459593
 21
-36.9568327533
 31
0.0
 11
88.9840202259
 21
-37.4993218304
 31
0.0
 11
88.9841991806
 21
-38.0012541855
 31
0.0
 11
88.9843878239
 21
-38.4653862585
 31
0.0
 11
88.9845872171
 21
-38.8943726942
 31
0.0
 11
88.98479688
 21
-39.2913461143
 31
0.0
 11
88.9850133961
 21
-39.6591179495
 31
0.0
 11
88.9852295607
 21
-39.9983996596
 31
0.0
 11
88.9854379851
 21
-40.3084489212
 31
0.0
 11
88.9856349529
 21
-40.5908653189
 31
0.0
 11
88.9858222735
 21
-40.8522213964
 31
0.0
 11
88.9860049636
 21
-41.1015529547
 31
0.0
 11
88.9861884298
 21
-41.3474533013
 31
0.0
 11
88.9863748917
 21
-41.5937295701
 31
0.0
 11
88.9865601856
 21
-41.8387963478
 31
0.0
 11
88.9867380619
 21
-42.0816797623
 31
0.0
 11
88.986904328
 21
-42.3235157842
 31
0.0
 11
88.9870540565
 21
-42.5657262007
 31
0.0
 11
88.9871872716
 21
-42.8086138823
 31
0.0
 11
88.987320607
 21
-43.0498245515
 31
0.0
 11
88.9874775729
 21
-43.2856554697
 31
0.0
 11
88.9876729229
 21
-43.5131227449
 31
0.0
 11
88.987911765
 21
-43.7297366981
 31
0.0
 11
88.9881886917
 21
-43.932929496
 31
0.0
 11
88.9884902997
 21
-44.1198259926
 31
0.0
 11
88.9887998422
 21
-44.2874487086
 31
0.0
 11
88.9890987333
 21
-44.4328756693
 31
0.0
 11
88.9893672409
 21
-44.5530648987
 31
0.0
  0
SPLINE
  5
360
100
AcDbEntity
  8
RACCORDO
100
AcDbSpline
 62
253
  6
CONTINUOUS
 70
0
 71
3
 72
53
 73
49
 74
47
 42
0.0000001
 43
0.0000001
 44
0.0000000001
 12
-0.0000109253
 22
32.7499324472
 32
0.0
 13
-0.075827191
 23
32.7498446643
 33
0.0
 40
0.0
 40
0.0
 40
0.0
 40
0.0
 40
0.0747525149
 40
0.1435215412
 40
0.2068531127
 40
0.2652266182
 40
0.3190548063
 40
0.3686948231
 40
0.4144798563
 40
0.4567162604
 40
0.4957034514
 40
0.5317123164
 40
0.5649894547
 40
0.5957438098
 40
0.6241497422
 40
0.6503751982
 40
0.6745856423
 40
0.6969424606
 40
0.7175986071
 40
0.736692895
 40
0.7543509164
 40
0.7706902489
 40
0.7858107224
 40
0.7997978511
 40
0.8127419627
 40
0.8247403679
 40
0.8358676551
 40
0.8461276103
 40
0.8554983526
 40
0.8640528209
 40
0.8720247008
 40
0.8796797321
 40
0.8872726451
 40
0.8948771009
 40
0.9024585081
 40
0.9100308634
 40
0.9176306606
 40
0.9252184039
 40
0.9327337514
 40
0.9401747532
 40
0.94754046
 40
0.9548522149
 40
0.9621483196
 40
0.96945003
 40
0.9768208998
 40
0.9844184264
 40
0.992258497
 40
1.0
 40
1.0
 40
1.0
 40
1.0
 10
-65.541879881
 20
11.6968598655
 30
0.0
 10
-65.5418801532
 20
12.5129064701
 30
0.0
 10
-65.5419402266
 20
14.0796800636
 30
0.0
 10
-65.5421126777
 20
16.3378218799
 30
0.0
 10
-65.5422668207
 20
18.4171598795
 30
0.0
 10
-65.5423441285
 20
20.3333940694
 30
0.0
 10
-65.5423176217
 20
22.1001624306
 30
0.0
 10
-65.5422073806
 20
23.7295069159
 30
0.0
 10
-65.5420184293
 20
25.2323080122
 30
0.0
 10
-65.5417907962
 20
26.6188159921
 30
0.0
 10
-65.5415699133
 20
27.8986010229
 30
0.0
 10
-65.5413849899
 20
29.0805809421
 30
0.0
 10
-65.541253152
 20
30.1726859284
 30
0.0
 10
-65.541181308
 20
31.1817924104
 30
0.0
 10
-65.5411697437
 20
32.1139181877
 30
0.0
 10
-65.5412152723
 20
32.9746064167
 30
0.0
 10
-65.5413072241
 20
33.7692586142
 30
0.0
 10
-65.541430709
 20
34.5031126376
 30
0.0
 10
-65.5415747048
 20
35.1811153991
 30
0.0
 10
-65.5417305789
 20
35.8078230638
 30
0.0
 10
-65.5418919017
 20
36.3874056016
 30
0.0
 10
-65.5420538322
 20
36.9236074204
 30
0.0
 10
-65.5422129606
 20
37.419735408
 30
0.0
 10
-65.5423761503
 20
37.8787989755
 30
0.0
 10
-65.5425468871
 20
38.3037800281
 30
0.0
 10
-65.5427260074
 20
38.6975412028
 30
0.0
 10
-65.5429123624
 20
39.0620003898
 30
0.0
 10
-65.5431038099
 20
39.3977743083
 30
0.0
 10
-65.5432938929
 20
39.705461675
 30
0.0
 10
-65.5434786433
 20
39.988170936
 30
0.0
 10
-65.5436582579
 20
40.2521503907
 30
0.0
 10
-65.5438358526
 20
40.5056328865
 30
0.0
 10
-65.5440149796
 20
40.7551043421
 30
0.0
 10
-65.5441974515
 20
41.0037720663
 30
0.0
 10
-65.5443828716
 20
41.2522153676
 30
0.0
 10
-65.5445716526
 20
41.5006078097
 30
0.0
 10
-65.5447603589
 20
41.749069422
 30
0.0
 10
-65.5449420339
 20
41.996908705
 30
0.0
 10
-65.545110841
 20
42.2430144847
 30
0.0
 10
-65.5452600944
 20
42.4866963827
 30
0.0
 10
-65.5453870032
 20
42.7281557446
 30
0.0
 10
-65.5455169132
 20
42.9680333144
 30
0.0
 10
-65.5456770937
 20
43.2072122401
 30
0.0
 10
-65.5458885713
 20
43.4470364641
 30
0.0
 10
-65.5461709039
 20
43.6901511351
 30
0.0
 10
-65.546537594
 20
43.9391427879
 30
0.0
 10
-65.5469937248
 20
44.1921803705
 30
0.0
 10
-65.5473583232
 20
44.3622784776
 30
0.0
 10
-65.5475539954
 20
44.4467894843
 30
0.0
 11
-65.541879881
 21
11.6968598655
 31
0.0
 11
-65.5419588936
 21
14.144999678
 31
0.0
 11
-65.5421163363
 21
16.3971806393
 31
0.0
 11
-65.5422586775
 21
18.4712853229
 31
0.0
 11
-65.5423277813
 21
20.383013682
 31
0.0
 11
-65.5423008383
 21
22.1458832052
 31
0.0
 11
-65.5421881626
 21
23.7715903989
 31
0.0
 11
-65.5420035635
 21
25.271047131
 31
0.0
 11
-65.5417829548
 21
26.654286495
 31
0.0
 11
-65.5415678731
 21
27.9311143472
 31
0.0
 11
-65.5413876245
 21
29.1104022313
 31
0.0
 11
-65.5412591771
 21
30.2002262563
 31
0.0
 11
-65.5411897433
 21
31.2074293052
 31
0.0
 11
-65.5411799778
 21
32.1377216732
 31
0.0
 11
-65.5412257869
 21
32.996603583
 31
0.0
 11
-65.5413167872
 21
33.7894939875
 31
0.0
 11
-65.541439429
 21
34.5216782636
 31
0.0
 11
-65.5415825838
 21
35.1981656529
 31
0.0
 11
-65.5417376868
 21
35.8235022728
 31
0.0
 11
-65.5418982767
 21
36.4018012586
 31
0.0
 11
-65.5420595871
 21
36.9369132677
 31
0.0
 11
-65.542219908
 21
37.4321077299
 31
0.0
 11
-65.5423838671
 21
37.8901852183
 31
0.0
 11
-65.542554932
 21
38.3141039668
 31
0.0
 11
-65.5427341677
 21
38.7070508855
 31
0.0
 11
-65.542920923
 21
39.0714687406
 31
0.0
 11
-65.5431121318
 21
39.407481527
 31
0.0
 11
-65.5433013081
 21
39.7143726436
 31
0.0
 11
-65.5434841004
 21
39.9945308445
 31
0.0
 11
-65.5436615085
 21
40.2556093126
 31
0.0
 11
-65.543837058
 21
40.5063110095
 31
0.0
 11
-65.5440155423
 21
40.7549783327
 31
0.0
 11
-65.544198157
 21
41.0040236799
 31
0.0
 11
-65.5443835119
 21
41.2523141827
 31
0.0
 11
-65.5445714038
 21
41.500308237
 31
0.0
 11
-65.5447593602
 21
41.7492010098
 31
0.0
 11
-65.5449406522
 21
41.9976990265
 31
0.0
 11
-65.5451083709
 21
42.2438260913
 31
0.0
 11
-65.5452570503
 21
42.4875183537
 31
0.0
 11
-65.5453879575
 21
42.7287447183
 31
0.0
 11
-65.5455221253
 21
42.9682041587
 31
0.0
 11
-65.5456854959
 21
43.2071510391
 31
0.0
 11
-65.545898993
 21
43.446281464
 31
0.0
 11
-65.5461803685
 21
43.687676788
 31
0.0
 11
-65.5465471614
 21
43.9364950033
 31
0.0
 11
-65.5470103424
 21
44.1932563675
 31
0.0
 11
-65.5475539954
 21
44.4467894843
 31
0.0
  0
SPLINE
  5
361
100
AcDbEntity
  8
RACCORDO
100
AcDbSpline
 62
253
  6
CONTINUOUS
 70
0
 71
3
 72
54
 73
50
 74
48
 42
0.0000001
 43
0.0000001
 44
0.0000000001
 12
0.075827878
 22
32.7498454054
 32
0.0
 13
0.0000124564
 23
32.74993319
 33
0.0
 40
0.0
 40
0.0
 40
0.0
 40
0.0
 40
0.0036385536
 40
0.0079839252
 40
0.0129437539
 40
0.0184294652
 40
0.0243510281
 40
0.0306170599
 40
0.0371817856
 40
0.0440698735
 40
0.0512631005
 40
0.0586000454
 40
0.0659132927
 40
0.0731643199
 40
0.0803927678
 40
0.0876575812
 40
0.0949810903
 40
0.1023269043
 40
0.1097425401
 40
0.1174273385
 40
0.1256316841
 40
0.1345798158
 40
0.1443829417
 40
0.1550355968
 40
0.1665386863
 40
0.1789454419
 40
0.1923475496
 40
0.2068240424
 40
0.222443307
 40
0.2392883972
 40
0.2574642105
 40
0.2770893793
 40
0.2982941369
 40
0.3212214718
 40
0.3460316516
 40
0.3728914589
 40
0.4019635769
 40
0.4334068646
 40
0.467371558
 40
0.504005332
 40
0.5434891183
 40
0.5860845146
 40
0.6321071754
 40
0.6819046228
 40
0.7358672546
 40
0.7943808136
 40
0.8576791223
 40
0.9259776834
 40
1.0
 40
1.0
 40
1.0
 40
1.0
 10
-65.5475539612
 20
-44.5530649213
 30
0.0
 10
-65.5474619933
 20
-44.5133442316
 30
0.0
 10
-65.5472672352
 20
-44.4261867768
 30
0.0
 10
-65.5469763776
 20
-44.2848847172
 30
0.0
 10
-65.5466768313
 20
-44.1234178722
 30
0.0
 10
-65.546385644
 20
-43.9447442653
 30
0.0
 10
-65.5461176304
 20
-43.7518112522
 30
0.0
 10
-65.5458849659
 20
-43.5470989682
 30
0.0
 10
-65.5456925013
 20
-43.3318354288
 30
0.0
 10
-65.5455365213
 20
-43.1064499981
 30
0.0
 10
-65.5454066989
 20
-42.8726345084
 30
0.0
 10
-65.5452826567
 20
-42.6341777011
 30
0.0
 10
-65.5451405477
 20
-42.395089919
 30
0.0
 10
-65.5449799552
 20
-42.1571865726
 30
0.0
 10
-65.5448084431
 20
-41.9198119696
 30
0.0
 10
-65.5446286402
 20
-41.6816461132
 30
0.0
 10
-65.5444462572
 20
-41.4421990135
 30
0.0
 10
-65.5442650606
 20
-41.2011054386
 30
0.0
 10
-65.5440840587
 20
-40.9560677961
 30
0.0
 10
-65.5438997609
 20
-40.7016578698
 30
0.0
 10
-65.5437081026
 20
-40.4305182305
 30
0.0
 10
-65.5435063238
 20
-40.1362535652
 30
0.0
 10
-65.5432955933
 20
-39.8152615754
 30
0.0
 10
-65.5430807269
 20
-39.4663780168
 30
0.0
 10
-65.5428693123
 20
-39.0890715513
 30
0.0
 10
-65.542667572
 20
-38.68175028
 30
0.0
 10
-65.5424763325
 20
-38.2419694144
 30
0.0
 10
-65.5422960652
 20
-37.7671187233
 30
0.0
 10
-65.5421241284
 20
-37.254682211
 30
0.0
 10
-65.5419532648
 20
-36.7018615307
 30
0.0
 10
-65.5417806276
 20
-36.1053098169
 30
0.0
 10
-65.541613549
 20
-35.4611651613
 30
0.0
 10
-65.5414580795
 20
-34.7651498286
 30
0.0
 10
-65.5413239474
 20
-34.0125315688
 30
0.0
 10
-65.5412234278
 20
-33.1981791375
 30
0.0
 10
-65.5411732434
 20
-32.316746289
 30
0.0
 10
-65.5411861983
 20
-31.3629021589
 30
0.0
 10
-65.541260717
 20
-30.3314965159
 30
0.0
 10
-65.5413908299
 20
-29.2175429692
 30
0.0
 10
-65.5415590395
 20
-28.0158141638
 30
0.0
 10
-65.541746619
 20
-26.7198670458
 30
0.0
 10
-65.5419427265
 20
-25.3214247887
 30
0.0
 10
-65.542127307
 20
-23.8103919584
 30
0.0
 10
-65.542274079
 20
-22.1752670551
 30
0.0
 10
-65.5423464733
 20
-20.4037834522
 30
0.0
 10
-65.5422855248
 20
-18.4849157459
 30
0.0
 10
-65.5421234815
 20
-16.4095478042
 30
0.0
 10
-65.5419386562
 20
-14.164876273
 30
0.0
 10
-65.5418801884
 20
-12.611209861
 30
0.0
 10
-65.541879881
 20
-11.8031345536
 30
0.0
 11
-65.5475539612
 21
-44.5530649213
 31
0.0
 11
-65.5472876657
 21
-44.4339028303
 31
0.0
 11
-65.5469946875
 21
-44.2915925046
 31
0.0
 11
-65.5466932774
 21
-44.1291587255
 31
0.0
 11
-65.5464003261
 21
-43.9495022856
 31
0.0
 11
-65.5461307883
 21
-43.7555716831
 31
0.0
 11
-65.5458967713
 21
-43.5503596933
 31
0.0
 11
-65.5457027226
 21
-43.3353654518
 31
0.0
 11
-65.5455438594
 21
-43.1097810892
 31
0.0
 11
-65.5454089325
 21
-42.8742034247
 31
0.0
 11
-65.5452795461
 21
-42.6339190049
 31
0.0
 11
-65.5451369107
 21
-42.3944106863
 31
0.0
 11
-65.5449779057
 21
-42.1569400832
 31
0.0
 11
-65.5448074544
 21
-41.9202089605
 31
0.0
 11
-65.5446288579
 21
-41.6822868733
 31
0.0
 11
-65.5444468467
 21
-41.4424425079
 31
0.0
 11
-65.5442661479
 21
-41.2018676568
 31
0.0
 11
-65.5440867959
 21
-40.9590061476
 31
0.0
 11
-65.5439045816
 21
-40.70732958
 31
0.0
 11
-65.5437147484
 21
-40.4386378767
 31
0.0
 11
-65.5435140854
 21
-40.1455872285
 31
0.0
 11
-65.5433037654
 21
-39.8245355812
 31
0.0
 11
-65.5430895502
 21
-39.4756619035
 31
0.0
 11
-65.5428787693
 21
-39.0989365483
 31
0.0
 11
-65.5426768884
 21
-38.6926161825
 31
0.0
 11
-65.5424853168
 21
-38.2536980915
 31
0.0
 11
-65.5423041536
 21
-37.7795939539
 31
0.0
 11
-65.5421307884
 21
-37.2680641129
 31
0.0
 11
-65.5419594959
 21
-36.7163885591
 31
0.0
 11
-65.5417880696
 21
-36.1211319144
 31
0.0
 11
-65.5416217299
 21
-35.4784089697
 31
0.0
 11
-65.5414673017
 21
-34.783954591
 31
0.0
 11
-65.5413341963
 21
-34.0330859154
 31
0.0
 11
-65.541234838
 21
-33.2205541902
 31
0.0
 11
-65.5411845479
 21
-32.3408972995
 31
0.0
 11
-65.5411947917
 21
-31.3887873753
 31
0.0
 11
-65.5412660801
 21
-30.3590218057
 31
0.0
 11
-65.5413915597
 21
-29.2466803734
 31
0.0
 11
-65.5415556027
 21
-28.0469267339
 31
0.0
 11
-65.5417407671
 21
-26.7538353855
 31
0.0
 11
-65.5419334393
 21
-25.3588390167
 31
0.0
 11
-65.5421144564
 21
-23.8515999587
 31
0.0
 11
-65.5422572407
 21
-22.2207368919
 31
0.0
 11
-65.542323916
 21
-20.4534643064
 31
0.0
 11
-65.5422729721
 21
-18.5371491574
 31
0.0
 11
-65.5421263276
 21
-16.4641337815
 31
0.0
 11
-65.5419597976
 21
-14.2273604745
 31
0.0
 11
-65.541879881
 21
-11.8031345536
 31
0.0
  0
SPLINE
  5
362
100
AcDbEntity
  8
RACCORDO
100
AcDbSpline
 62
253
  6
CONTINUOUS
 70
0
 71
3
 72
14
 73
10
 74
8
 42
0.0000001
 43
0.0000001
 44
0.0000000001
 12
-0.6616466924
 22
-0.5593038517
 32
0.0
 13
-0.8663402017
 23
-0.0071971601
 33
0.0
 40
0.0
 40
0.0
 40
0.0
 40
0.0
 40
0.0357209825
 40
0.114143388
 40
0.2328153988
 40
0.387254753
 40
0.5715073591
 40
0.7784333703
 40
1.0
 40
1.0
 40
1.0
 40
1.0
 10
88.9893646029
 20
-44.5531373439
 30
0.0
 10
88.9814863796
 20
-44.5597969716
 30
0.0
 10
88.9460056894
 20
-44.5627105985
 30
0.0
 10
88.8815410053
 20
-44.5727131555
 30
0.0
 10
88.7790658717
 20
-44.5784877659
 30
0.0
 10
88.6476075898
 20
-44.5854099422
 30
0.0
 10
88.4899555416
 20
-44.5904999902
 30
0.0
 10
88.3130958931
 20
-44.5944840044
 30
0.0
 10
88.1893460131
 20
-44.5960296485
 30
0.0
 10
88.1253619869
 20
-44.5965611987
 30
0.0
 11
88.9893646029
 21
-44.5531373439
 31
0.0
 11
88.9596586699
 21
-44.561815531
 31
0.0
 11
88.8922296942
 21
-44.570155854
 31
0.0
 11
88.7897028857
 21
-44.5778335991
 31
0.0
 11
88.6560699169
 21
-44.5845498491
 31
0.0
 11
88.4965335149
 21
-44.5900431211
 31
0.0
 11
88.3173049047
 21
-44.5940995468
 31
0.0
 11
88.1253619869
 21
-44.5965611987
 31
0.0
  0
SPLINE
  5
363
100
AcDbEntity
  8
RACCORDO
100
AcDbSpline
 62
253
  6
CONTINUOUS
 70
0
 71
3
 72
14
 73
10
 74
8
 42
0.0000001
 43
0.0000001
 44
0.0000000001
 12
-0.6616388146
 22
0.5593218017
 32
0.0
 13
-0.8663457719
 23
0.0071973791
 33
0.0
 40
0.0
 40
0.0
 40
0.0
 40
0.0
 40
0.0357211819
 40
0.1141437278
 40
0.2328158492
 40
0.3872552632
 40
0.5715078424
 40
0.7784336982
 40
1.0
 40
1.0
 40
1.0
 40
1.0
 10
88.9893673962
 20
44.4468626559
 30
0.0
 10
88.9814892227
 20
44.4535225345
 30
0.0
 10
88.9460081156
 20
44.4564365389
 30
0.0
 10
88.8815430272
 20
44.4664394672
 30
0.0
 10
88.7790671161
 20
44.472214473
 30
0.0
 10
88.6476079806
 20
44.4791369761
 30
0.0
 10
88.4899549544
 20
44.4842272925
 30
0.0
 10
88.3130943213
 20
44.4882114905
 30
0.0
 10
88.189343785
 20
44.4897571964
 30
0.0
 10
88.125359442
 20
44.4902887619
 30
0.0
 11
88.9893673962
 21
44.4468626559
 31
0.0
 11
88.9596612143
 21
44.4555413173
 31
0.0
 11
88.8922317317
 21
44.4638820916
 31
0.0
 11
88.7897041947
 21
44.4715602466
 31
0.0
 11
88.65607033
 21
44.4782768477
 31
0.0
 11
88.4965329336
 21
44.4837703971
 31
0.0
 11
88.3173033091
 21
44.4878270139
 31
0.0
 11
88.125359442
 21
44.4902887619
 31
0.0
  0
SPLINE
  5
364
100
AcDbEntity
  8
RACCORDO
100
AcDbSpline
 62
253
  6
CONTINUOUS
 70
0
 71
3
 72
14
 73
10
 74
8
 42
0.0000001
 43
0.0000001
 44
0.0000000001
 12
0.5162405683
 22
-0.6970390249
 32
0.0
 13
0.0062610576
 23
-0.8673687369
 33
0.0
 40
0.0
 40
0.0
 40
0.0
 40
0.0
 40
0.0354189291
 40
0.1137743038
 40
0.2324747071
 40
0.386994501
 40
0.5713492691
 40
0.7783711602
 40
1.0
 40
1.0
 40
1.0
 40
1.0
 10
86.2209066397
 20
47.2156031412
 30
0.0
 10
86.2270015357
 20
47.2073736826
 30
0.0
 10
86.2290640699
 20
47.1722624654
 30
0.0
 10
86.2382223739
 20
47.1074054634
 30
0.0
 10
86.2430868182
 20
47.0049030024
 30
0.0
 10
86.2492346317
 20
46.8731300897
 30
0.0
 10
86.2536662776
 20
46.7152143969
 30
0.0
 10
86.257162342
 20
46.538054094
 30
0.0
 10
86.2585094911
 20
46.4141125292
 30
0.0
 10
86.2589720347
 20
46.3500345536
 30
0.0
 11
86.2209066397
 21
47.2156031412
 31
0.0
 11
86.2285201949
 21
47.1858394133
 31
0.0
 11
86.2358366683
 21
47.1182696007
 31
0.0
 11
86.2425705638
 21
47.0155303447
 31
0.0
 11
86.2484591177
 21
46.8816306335
 31
0.0
 11
86.2532725518
 21
46.721795367
 31
0.0
 11
86.2568230395
 21
46.5422614767
 31
0.0
 11
86.2589720347
 21
46.3500345536
 31
0.0
  0
SPLINE
  5
365
100
AcDbEntity
  8
RACCORDO
100
AcDbSpline
 62
253
  6
CONTINUOUS
 70
0
 71
3
 72
14
 73
10
 74
8
 42
0.0000001
 43
0.0000001
 44
0.0000000001
 12
-0.516218489
 22
-0.697058294
 32
0.0
 13
-0.0062645503
 23
-0.8673710562
 33
0.0
 40
0.0
 40
0.0
 40
0.0
 40
0.0
 40
0.0354189109
 40
0.1137743429
 40
0.2324748129
 40
0.3869946569
 40
0.5713494373
 40
0.7783712829
 40
1.0
 40
1.0
 40
1.0
 40
1.0
 10
-62.7790933602
 20
47.2156056455
 30
0.0
 10
-62.7851879924
 20
47.2073759637
 30
0.0
 10
-62.7872502392
 20
47.1722648316
 30
0.0
 10
-62.7964082068
 20
47.107407407
 30
0.0
 10
-62.8012724355
 20
47.0049046988
 30
0.0
 10
-62.8074201725
 20
46.8731313524
 30
0.0
 10
-62.8118519493
 20
46.7152152454
 30
0.0
 10
-62.8153483818
 20
46.538054512
 30
0.0
 10
-62.8166959462
 20
46.414112667
 30
0.0
 10
-62.8171587476
 20
46.3500345555
 30
0.0
 11
-62.7790933602
 21
47.2156056455
 31
0.0
 11
-62.7867064831
 21
47.1858417377
 31
0.0
 11
-62.7940225857
 21
47.1182716501
 31
0.0
 11
-62.8007562267
 21
47.0155320406
 31
0.0
 11
-62.8066446928
 21
46.8816319194
 31
0.0
 11
-62.8114582499
 21
46.7217962135
 31
0.0
 11
-62.8150091077
 21
46.5422618846
 31
0.0
 11
-62.8171587476
 21
46.3500345555
 31
0.0
  0
SPLINE
  5
366
100
AcDbEntity
  8
RACCORDO
100
AcDbSpline
 62
253
  6
CONTINUOUS
 70
0
 71
3
 72
14
 73
10
 74
8
 42
0.0000001
 43
0.0000001
 44
0.0000000001
 12
0.6616477769
 22
0.5593021713
 32
0.0
 13
0.8663399453
 23
0.0071971339
 33
0.0
 40
0.0
 40
0.0
 40
0.0
 40
0.0
 40
0.0357209696
 40
0.1141433684
 40
0.2328153746
 40
0.3872547267
 40
0.5715073347
 40
0.778433354
 40
1.0
 40
1.0
 40
1.0
 40
1.0
 10
-65.5475513272
 20
44.4468626558
 30
0.0
 10
-65.5396730939
 20
44.4535222611
 30
0.0
 10
-65.5041924303
 20
44.4564358543
 30
0.0
 10
-65.4397277572
 20
44.4664383778
 30
0.0
 10
-65.3372526614
 20
44.4722129525
 30
0.0
 10
-65.2057944162
 20
44.4791350989
 30
0.0
 10
-65.0481424125
 20
44.484225122
 30
0.0
 10
-64.8712828082
 20
44.4882091187
 30
0.0
 10
-64.7475329578
 20
44.4897547564
 30
0.0
 10
-64.6835489458
 20
44.4902863047
 30
0.0
 11
-65.5475513272
 21
44.4468626558
 31
0.0
 11
-65.517845403
 21
44.4555408007
 31
0.0
 11
-65.4504164485
 21
44.4638810831
 31
0.0
 11
-65.3478896718
 21
44.4715587911
 31
0.0
 11
-65.2142567428
 21
44.4782750091
 31
0.0
 11
-65.0547203855
 21
44.4837682554
 31
0.0
 11
-64.875491821
 21
44.4878246628
 31
0.0
 11
-64.6835489458
 21
44.4902863047
 31
0.0
  0
LINE
  5
367
100
AcDbEntity
  8
0
100
AcDbLine
 62
253
  6
CONTINUOUS
 10
67.7709066398
 20
-22.7069390281
 11
53.4710284052
 21
-22.7069828003
  0
LINE
  5
368
100
AcDbEntity
  8
0
100
AcDbLine
 62
253
  6
CONTINUOUS
 10
-30.0290933602
 20
-22.7069827979
 11
-44.3290933602
 21
-22.7069390301
  0
SPLINE
  5
369
100
AcDbEntity
  8
RACCORDO
100
AcDbSpline
 62
253
  6
CONTINUOUS
 70
0
 71
3
 72
27
 73
23
 74
21
 42
0.0000001
 43
0.0000001
 44
0.0000000001
 12
32.7498532991
 22
-0.0664051259
 32
0.0
 13
32.7499206221
 23
0.0000153643
 33
0.0
 40
0.0
 40
0.0
 40
0.0
 40
0.0
 40
0.0182625597
 40
0.038898816
 40
0.0621873892
 40
0.0879849796
 40
0.1161175571
 40
0.1467570714
 40
0.1802846999
 40
0.21697088
 40
0.2570055782
 40
0.3006060648
 40
0.3479169841
 40
0.3991929101
 40
0.4548275798
 40
0.5152551773
 40
0.5808569159
 40
0.651970777
 40
0.7289818804
 40
0.8122633175
 40
0.9022980377
 40
1.0
 40
1.0
 40
1.0
 40
1.0
 10
-62.7790166013
 20
47.2156055193
 30
0.0
 10
-62.5796512171
 20
47.2152012767
 30
0.0
 10
-62.1550073436
 20
47.2145166302
 30
0.0
 10
-61.4761302528
 20
47.2138797482
 30
0.0
 10
-60.7149957547
 20
47.213522892
 30
0.0
 10
-59.8720266125
 20
47.213182319
 30
0.0
 10
-58.948809943
 20
47.2127009393
 30
0.0
 10
-57.9412072577
 20
47.2121473631
 30
0.0
 10
-56.8402278956
 20
47.2117139612
 30
0.0
 10
-55.6366846324
 20
47.2114731338
 30
0.0
 10
-54.3231795814
 20
47.2113959932
 30
0.0
 10
-52.8936880761
 20
47.2114703321
 30
0.0
 10
-51.3414801407
 20
47.2116420355
 30
0.0
 10
-49.6578993569
 20
47.2118086019
 30
0.0
 10
-47.8311285135
 20
47.2119439899
 30
0.0
 10
-45.8479679245
 20
47.2120225461
 30
0.0
 10
-43.6958265716
 20
47.2120298892
 30
0.0
 10
-41.3626490523
 20
47.2119885311
 30
0.0
 10
-38.8364686261
 20
47.2119102866
 30
0.0
 10
-36.1037359888
 20
47.2117995725
 30
0.0
 10
-33.1451286891
 20
47.211687945
 30
0.0
 10
-31.095674872
 20
47.2116502606
 30
0.0
 10
-30.0290977024
 20
47.211650761
 30
0.0
 11
-62.7790166013
 21
47.2156055193
 31
0.0
 11
-62.1809200287
 21
47.2146215087
 31
0.0
 11
-61.5050846002
 21
47.2139565803
 31
0.0
 11
-60.7423857886
 21
47.2135435537
 31
0.0
 11
-59.89751683
 21
47.213176802
 31
0.0
 11
-58.9761772707
 21
47.2127110953
 31
0.0
 11
-57.9727357425
 21
47.2121895598
 31
0.0
 11
-56.8747086554
 21
47.2117613622
 31
0.0
 11
-55.6732391956
 21
47.2115075214
 31
0.0
 11
-54.3621060114
 21
47.2114214452
 31
0.0
 11
-52.9341935362
 21
47.2114816059
 31
0.0
 11
-51.3847646909
 21
47.2116343517
 31
0.0
 11
-49.7054821936
 21
47.2117972301
 31
0.0
 11
-47.8834511805
 21
47.2119300675
 31
0.0
 11
-45.904452161
 21
47.212008859
 31
0.0
 11
-43.7560004297
 21
47.21202242
 31
0.0
 11
-41.4270271246
 21
47.2119847348
 31
0.0
 11
-38.9049196037
 21
47.2119085532
 31
0.0
 11
-36.1774591512
 21
47.2118037757
 31
0.0
 11
-33.228829211
 21
47.2117002203
 31
0.0
 11
-30.0290977024
 21
47.211650761
 31
0.0
  0
LINE
  5
36A
100
AcDbEntity
  8
0
100
AcDbLine
 62
253
  6
CONTINUOUS
 10
-44.7329162109
 20
-22.3031373441
 11
-44.7329560295
 21
-11.8031282081
  0
LINE
  5
36B
100
AcDbEntity
  8
0
100
AcDbLine
 62
253
  6
CONTINUOUS
 10
-44.7329560295
 20
11.6968626447
 11
-44.7329162109
 21
22.1968626559
  0
SPLINE
  5
36C
100
AcDbEntity
  8
RACCORDO
100
AcDbSpline
 62
253
  6
CONTINUOUS
 70
0
 71
3
 72
53
 73
49
 74
47
 42
0.0000001
 43
0.0000001
 44
0.0000000001
 12
-0.0758314839
 22
-32.7498446743
 32
0.0
 13
-0.0000109796
 23
-32.7499324672
 33
0.0
 40
0.0
 40
0.0
 40
0.0
 40
0.0
 40
0.0078613518
 40
0.0159219257
 40
0.0237147251
 40
0.0312060239
 40
0.0385385281
 40
0.0458313396
 40
0.0531648239
 40
0.0605340449
 40
0.0679134625
 40
0.0753337519
 40
0.0828322427
 40
0.0903774144
 40
0.0979403037
 40
0.1055240604
 40
0.11312034
 40
0.120710662
 40
0.1283871392
 40
0.1364046134
 40
0.1450260783
 40
0.1544774073
 40
0.1648196679
 40
0.1760311574
 40
0.1881183505
 40
0.2011580115
 40
0.2152430033
 40
0.2304570244
 40
0.246881651
 40
0.2646229299
 40
0.2838032842
 40
0.3045474121
 40
0.3269972778
 40
0.3513102778
 40
0.3776494593
 40
0.4061802761
 40
0.4370720398
 40
0.4704941251
 40
0.5066112989
 40
0.5456132379
 40
0.5877888157
 40
0.6334962671
 40
0.6830572734
 40
0.736805625
 40
0.7950771184
 40
0.8581125203
 40
0.9261785927
 40
1.0
 40
1.0
 40
1.0
 40
1.0
 10
88.9893672395
 20
44.4467895048
 30
0.0
 10
88.9891685268
 20
44.3609701549
 30
0.0
 10
88.988796408
 20
44.1871565519
 30
0.0
 10
88.9883323008
 20
43.9282717471
 30
0.0
 10
88.9879617594
 20
43.6734265336
 30
0.0
 10
88.9876811555
 20
43.4265292885
 30
0.0
 10
88.9874739435
 20
43.1850901649
 30
0.0
 10
88.9873173569
 20
42.9453738092
 30
0.0
 10
88.9871889022
 20
42.7052566146
 30
0.0
 10
88.9870607081
 20
42.4641939707
 30
0.0
 10
88.9869095252
 20
42.2221837196
 30
0.0
 10
88.9867409595
 20
41.9787622865
 30
0.0
 10
88.9865603126
 20
41.733531384
 30
0.0
 10
88.9863733907
 20
41.4867437728
 30
0.0
 10
88.9861874306
 20
41.2390253431
 30
0.0
 10
88.9860051607
 20
40.9907489843
 30
0.0
 10
88.9858236929
 20
40.7421731517
 30
0.0
 10
88.9856422741
 20
40.4925851228
 30
0.0
 10
88.9854615652
 20
40.23839906
 30
0.0
 10
88.9852799599
 20
39.9729563748
 30
0.0
 10
88.9850943341
 20
39.6881382623
 30
0.0
 10
88.9849044482
 20
39.3779412813
 30
0.0
 10
88.9847139077
 20
39.0394699198
 30
0.0
 10
88.984528171
 20
38.6722237608
 30
0.0
 10
88.9843493552
 20
38.275531035
 30
0.0
 10
88.9841786145
 20
37.8474692998
 30
0.0
 10
88.9840151733
 20
37.3852730916
 30
0.0
 10
88.9838554166
 20
36.8861244145
 30
0.0
 10
88.9836929724
 20
36.3470613525
 30
0.0
 10
88.9835318591
 20
35.7646992392
 30
0.0
 10
88.9833767296
 20
35.1351826651
 30
0.0
 10
88.9832341591
 20
34.4542641187
 30
0.0
 10
88.9831128227
 20
33.7173143012
 30
0.0
 10
88.9830238413
 20
32.919285269
 30
0.0
 10
88.9829821551
 20
32.0548726543
 30
0.0
 10
88.9829976231
 20
31.1186420157
 30
0.0
 10
88.9830733353
 20
30.1050898401
 30
0.0
 10
88.9832085455
 20
29.0087201102
 30
0.0
 10
88.9833957869
 20
27.8238144892
 30
0.0
 10
88.9836169743
 20
26.5433501092
 30
0.0
 10
88.9838427224
 20
25.1581920803
 30
0.0
 10
88.9840273074
 20
23.6577644636
 30
0.0
 10
88.9841336127
 20
22.0310009861
 30
0.0
 10
88.9841563205
 20
20.267080329
 30
0.0
 10
88.9840761206
 20
18.3560644928
 30
0.0
 10
88.9839219334
 20
16.2887471972
 30
0.0
 10
88.9837520642
 20
14.0516770265
 30
0.0
 10
88.9836934308
 20
12.5027419
 30
0.0
 10
88.9836931606
 20
11.6968598655
 30
0.0
 11
88.9893672395
 21
44.4467895048
 31
0.0
 11
88.9888158179
 21
44.1893313554
 31
0.0
 11
88.9883422152
 21
43.9253485283
 31
0.0
 11
88.9879707437
 21
43.6701351434
 31
0.0
 11
88.9876906862
 21
43.4247957756
 31
0.0
 11
88.9874817994
 21
43.184656847
 31
0.0
 11
88.9873223409
 21
42.9458178169
 31
0.0
 11
88.9871892378
 21
42.7056467391
 31
0.0
 11
88.9870570328
 21
42.4643052867
 31
0.0
 11
88.986907081
 21
42.2226299031
 31
0.0
 11
88.9867397717
 21
41.9796159853
 31
0.0
 11
88.9865598401
 21
41.7340409827
 31
0.0
 11
88.986373814
 21
41.4869371898
 31
0.0
 11
88.9861882839
 21
41.2392531446
 31
0.0
 11
88.9860054311
 21
40.9908856911
 31
0.0
 11
88.9858237763
 21
40.7421081157
 31
0.0
 11
88.9856436145
 21
40.4935256469
 31
0.0
 11
88.9854653091
 21
40.2421216017
 31
0.0
 11
88.9852858385
 21
39.9795499243
 31
0.0
 11
88.9851020158
 21
39.6971975896
 31
0.0
 11
88.9849128259
 21
39.3876672618
 31
0.0
 11
88.9847223477
 21
39.0489589786
 31
0.0
 11
88.9845362445
 21
38.6817835031
 31
0.0
 11
88.9843573364
 21
38.2859287856
 31
0.0
 11
88.9841862628
 21
37.8588808027
 31
0.0
 11
88.9840220125
 21
37.3975983
 31
0.0
 11
88.9838611409
 21
36.899340164
 31
0.0
 11
88.983699432
 21
36.3614347743
 31
0.0
 11
88.9835390185
 21
35.7804091131
 31
0.0
 11
88.983384663
 21
35.1522538229
 31
0.0
 11
88.9832429229
 21
34.472885051
 31
0.0
 11
88.9831224243
 21
33.7376534732
 31
0.0
 11
88.983034369
 21
32.9414043709
 31
0.0
 11
88.9829922455
 21
32.0787979567
 31
0.0
 11
88.9830058974
 21
31.1444156338
 31
0.0
 11
88.9830791484
 21
30.1327124605
 31
0.0
 11
88.9832110015
 21
29.0381414334
 31
0.0
 11
88.9833936005
 21
27.855306445
 31
0.0
 11
88.9836089924
 21
26.5779955936
 31
0.0
 11
88.9838276103
 21
25.1967482854
 31
0.0
 11
88.9840083253
 21
23.6998323498
 31
0.0
 11
88.9841170055
 21
22.0767127436
 31
0.0
 11
88.9841402456
 21
20.3164578597
 31
0.0
 11
88.9840683365
 21
18.4080703857
 31
0.0
 11
88.9839255825
 21
16.3436652385
 31
0.0
 11
88.9837704089
 21
14.1145059677
 31
0.0
 11
88.9836931606
 21
11.6968598655
 31
0.0
  0
LINE
  5
36D
100
AcDbEntity
  8
0
100
AcDbLine
 62
253
  6
CONTINUOUS
 10
68.1747296109
 20
22.1968626559
 11
68.1747693092
 21
11.6968626447
  0
LINE
  5
36E
100
AcDbEntity
  8
0
100
AcDbLine
 62
253
  6
CONTINUOUS
 10
68.1747693091
 20
-11.8031373441
 11
68.1747294905
 21
-22.3031373441
  0
LINE
  5
36F
100
AcDbEntity
  8
0
100
AcDbLine
 62
253
  6
CONTINUOUS
 10
-44.3290933602
 20
22.6006643399
 11
-30.029215127
 21
22.6007081122
  0
LINE
  5
370
100
AcDbEntity
  8
0
100
AcDbLine
 62
253
  6
CONTINUOUS
 10
53.4709066398
 20
22.6007081098
 11
67.7709066398
 21
22.6006633396
  0
SPLINE
  5
371
100
AcDbEntity
  8
RACCORDO
100
AcDbSpline
 62
253
  6
CONTINUOUS
 70
0
 71
3
 72
27
 73
23
 74
21
 42
0.0000001
 43
0.0000001
 44
0.0000000001
 12
32.7888969324
 22
0.0000379319
 32
0.0
 13
32.7765918564
 23
-0.8982139617
 33
0.0
 40
0.0
 40
0.0
 40
0.0
 40
0.0
 40
0.0984889968
 40
0.1890797434
 40
0.2724877401
 40
0.3493441293
 40
0.4202146494
 40
0.4855840687
 40
0.5458169786
 40
0.6012920984
 40
0.6524188534
 40
0.6995869487
 40
0.7430823138
 40
0.783062687
 40
0.8197415354
 40
0.8532930403
 40
0.8838824556
 40
0.9118030829
 40
0.9373821752
 40
0.9606356393
 40
0.9814418517
 40
1.0
 40
1.0
 40
1.0
 40
1.0
 10
53.4709066398
 20
46.4477065658
 30
0.0
 10
54.5473551621
 20
46.4477078111
 30
0.0
 10
56.613927246
 20
46.4469316082
 30
0.0
 10
59.5921171136
 20
46.4445588467
 30
0.0
 10
62.3338704273
 20
46.442160816
 30
0.0
 10
64.8600893727
 20
46.4403975116
 30
0.0
 10
67.1891537134
 20
46.4394079467
 30
0.0
 10
69.3365299133
 20
46.4395889588
 30
0.0
 10
71.3156391575
 20
46.4414520037
 30
0.0
 10
73.1390800246
 20
46.4442026446
 30
0.0
 10
74.8197260854
 20
46.4474349866
 30
0.0
 10
76.36943957
 20
46.4497747958
 30
0.0
 10
77.7973297136
 20
46.4492932931
 30
0.0
 10
79.1105716575
 20
46.445635513
 30
0.0
 10
80.3151165365
 20
46.43870663
 30
0.0
 10
81.4169986837
 20
46.4291473504
 30
0.0
 10
82.4231575348
 20
46.4202090047
 30
0.0
 10
83.3421819496
 20
46.4116748336
 30
0.0
 10
84.1809919122
 20
46.4001651992
 30
0.0
 10
84.9419673328
 20
46.3847533885
 30
0.0
 10
85.6261341238
 20
46.3672349315
 30
0.0
 10
86.0562144305
 20
46.3555909945
 30
0.0
 10
86.2589720475
 20
46.3500345985
 30
0.0
 11
53.4709066398
 21
46.4477065658
 31
0.0
 11
56.7002520379
 21
46.4466630635
 31
0.0
 11
59.6706218701
 21
46.4444561327
 31
0.0
 11
62.4054771307
 21
46.4421819884
 31
0.0
 11
64.9255127741
 21
46.4404712083
 31
0.0
 11
67.2492787872
 21
46.4395875626
 31
0.0
 11
69.3926699118
 21
46.4399123812
 31
0.0
 11
71.3676397832
 21
46.4416953094
 31
0.0
 11
73.1866057487
 21
46.4444052122
 31
0.0
 11
74.8629929776
 21
46.4473980342
 31
0.0
 11
76.4095815762
 21
46.4493400126
 31
0.0
 11
77.8357464609
 21
46.4486739402
 31
0.0
 11
79.1466532485
 21
46.4448588654
 31
0.0
 11
80.3492920827
 21
46.4378980535
 31
0.0
 11
81.4493715171
 21
46.4288265631
 31
0.0
 11
82.4523247973
 21
46.4198795455
 31
0.0
 11
83.3677656554
 21
46.4107309661
 31
0.0
 11
84.2063918675
 21
46.3988604049
 31
0.0
 11
84.9686924493
 21
46.3834943689
 31
0.0
 11
85.650691747
 21
46.3664296982
 31
0.0
 11
86.2589720475
 21
46.3500345985
 31
0.0
  0
SPLINE
  5
372
100
AcDbEntity
  8
RACCORDO
100
AcDbSpline
 62
253
  6
CONTINUOUS
 70
0
 71
3
 72
18
 73
14
 74
12
 42
0.0000001
 43
0.0000001
 44
0.0000000001
 12
2.8948170494
 22
-0.0794527504
 32
0.0
 13
0.0889872507
 23
-2.8945396453
 33
0.0
 40
0.0
 40
0.0
 40
0.0
 40
0.0
 40
0.0898486873
 40
0.180590737
 40
0.2717856504
 40
0.3630749696
 40
0.4544897521
 40
0.5460722842
 40
0.6375190482
 40
0.7286800667
 40
0.8196262821
 40
0.910200032
 40
1.0
 40
1.0
 40
1.0
 40
1.0
 10
86.2589720475
 20
46.3500345985
 30
0.0
 10
86.3456705515
 20
46.3476550234
 30
0.0
 10
86.5198275313
 20
46.3302377544
 30
0.0
 10
86.7754094148
 20
46.2676269251
 30
0.0
 10
87.0215490521
 20
46.170629896
 30
0.0
 10
87.2527947604
 20
46.0407659162
 30
0.0
 10
87.4645699442
 20
45.880493684
 30
0.0
 10
87.6528010987
 20
45.6929150499
 30
0.0
 10
87.813726461
 20
45.481748779
 30
0.0
 10
87.9441467565
 20
45.2511977532
 30
0.0
 10
88.0416351083
 20
45.0058112902
 30
0.0
 10
88.1046995249
 20
44.750811437
 30
0.0
 10
88.1226957615
 20
44.5769319522
 30
0.0
 10
88.1253594456
 20
44.4902887631
 30
0.0
 11
86.2589720475
 21
46.3500345985
 31
0.0
 11
86.5178934369
 21
46.3243373051
 31
0.0
 11
86.7731951024
 21
46.2620903816
 31
0.0
 11
87.0188849761
 21
46.1652344393
 31
0.0
 11
87.249396504
 21
46.0357991336
 31
0.0
 11
87.4605026438
 21
45.8760634261
 31
0.0
 11
87.6483597078
 21
45.6888510817
 31
0.0
 11
87.8088499182
 21
45.4782015255
 31
0.0
 11
87.9388075277
 21
45.2484108116
 31
0.0
 11
88.0360687171
 21
45.0036559015
 31
0.0
 11
88.0988456828
 21
44.7489859942
 31
0.0
 11
88.1253594456
 21
44.4902887631
 31
0.0
  0
SPLINE
  5
373
100
AcDbEntity
  8
RACCORDO
100
AcDbSpline
 62
253
  6
CONTINUOUS
 70
0
 71
3
 72
53
 73
49
 74
47
 42
0.0000001
 43
0.0000001
 44
0.0000000001
 12
1.0060316407
 22
-32.779438398
 32
0.0
 13
0.0000979775
 23
-32.7948727904
 33
0.0
 40
0.0
 40
0.0
 40
0.0
 40
0.0
 40
0.0080565672
 40
0.0163110924
 40
0.0242864242
 40
0.0319420735
 40
0.0394060586
 40
0.0467840986
 40
0.0541445635
 40
0.0614807747
 40
0.068803858
 40
0.0761837936
 40
0.0836544216
 40
0.0911862892
 40
0.0987472113
 40
0.1063271424
 40
0.1139162774
 40
0.1215026523
 40
0.1291814111
 40
0.1372055596
 40
0.1458363223
 40
0.1553006182
 40
0.165659731
 40
0.1768883652
 40
0.1889899907
 40
0.202039866
 40
0.2161284333
 40
0.2313370724
 40
0.2477516833
 40
0.2654843354
 40
0.2846573799
 40
0.3053959106
 40
0.3278421474
 40
0.352153674
 40
0.3784921819
 40
0.407017487
 40
0.4378963262
 40
0.4712955774
 40
0.5073773159
 40
0.5463275906
 40
0.588432845
 40
0.6340504429
 40
0.6835137925
 40
0.7371589252
 40
0.7953261066
 40
0.8582655315
 40
0.9262481845
 40
1.0
 40
1.0
 40
1.0
 40
1.0
 10
88.1253594456
 20
44.4902887631
 30
0.0
 10
88.1280611661
 20
44.4022588474
 30
0.0
 10
88.1336519358
 20
44.2240397097
 30
0.0
 10
88.142372493
 20
43.9586928237
 30
0.0
 10
88.1513386621
 20
43.6977392781
 30
0.0
 10
88.1604346751
 20
43.4454377306
 30
0.0
 10
88.1689037989
 20
43.1996470518
 30
0.0
 10
88.1762686814
 20
42.9570489594
 30
0.0
 10
88.1821052347
 20
42.7158032704
 30
0.0
 10
88.1853126569
 20
42.4751102195
 30
0.0
 10
88.1878025254
 20
42.2341989871
 30
0.0
 10
88.1907023356
 20
41.9918221375
 30
0.0
 10
88.1938045592
 20
41.7471655017
 30
0.0
 10
88.1972482927
 20
41.5005345994
 30
0.0
 10
88.2011350678
 20
41.2527153759
 30
0.0
 10
88.204734102
 20
41.0042656682
 30
0.0
 10
88.2080047189
 20
40.7555332139
 30
0.0
 10
88.2112928849
 20
40.5057205776
 30
0.0
 10
88.2147534258
 20
40.251154409
 30
0.0
 10
88.2183683117
 20
39.9851724348
 30
0.0
 10
88.2221786912
 20
39.6996725005
 30
0.0
 10
88.2262821836
 20
39.3886492601
 30
0.0
 10
88.230778596
 20
39.0492297728
 30
0.0
 10
88.2354518407
 20
38.6809798319
 30
0.0
 10
88.2401662426
 20
38.2833137461
 30
0.0
 10
88.2447856578
 20
37.854380847
 30
0.0
 10
88.249183369
 20
37.3914791751
 30
0.0
 10
88.2531534741
 20
36.8917903998
 30
0.0
 10
88.2570112971
 20
36.3522640026
 30
0.0
 10
88.2608976089
 20
35.7693993578
 30
0.0
 10
88.2646756523
 20
35.139265597
 30
0.0
 10
88.2682664964
 20
34.4576028173
 30
0.0
 10
88.2715440567
 20
33.7197658768
 30
0.0
 10
88.2743730557
 20
32.9207098025
 30
0.0
 10
88.2765713616
 20
32.0551973284
 30
0.0
 10
88.277698555
 20
31.1178912589
 30
0.0
 10
88.2776026406
 20
30.1033991451
 30
0.0
 10
88.2761430439
 20
29.0063039208
 30
0.0
 10
88.2732913166
 20
27.8209773376
 30
0.0
 10
88.269258923
 20
26.5404830476
 30
0.0
 10
88.2646919467
 20
25.155747576
 30
0.0
 10
88.2605674584
 20
23.6560849908
 30
0.0
 10
88.2581398613
 20
22.0302687558
 30
0.0
 10
88.2574729402
 20
20.2672635355
 30
0.0
 10
88.2590146317
 20
18.3569434624
 30
0.0
 10
88.262192957
 20
16.2898931437
 30
0.0
 10
88.2656729176
 20
14.0524777721
 30
0.0
 10
88.2668373787
 20
12.503089799
 30
0.0
 10
88.2668397874
 20
11.6968626635
 30
0.0
 11
88.1253594456
 21
44.4902887631
 31
0.0
 11
88.1336489979
 21
44.2262047396
 31
0.0
 11
88.1425412166
 21
43.95564472
 31
0.0
 11
88.1515338294
 21
43.6942493664
 31
0.0
 11
88.1604426823
 21
43.4433414333
 31
0.0
 11
88.1687682532
 21
43.1987026186
 31
0.0
 11
88.1760258913
 21
42.9568496066
 31
0.0
 11
88.1816739397
 21
42.7155301817
 31
0.0
 11
88.1851945635
 21
42.474965829
 31
0.0
 11
88.1878610367
 21
42.2348210491
 31
0.0
 11
88.1907191673
 21
41.992813877
 31
0.0
 11
88.1938482408
 21
41.7478355647
 31
0.0
 11
88.1973145401
 21
41.5008532453
 31
0.0
 11
88.2010823812
 21
41.2529223961
 31
0.0
 11
88.2046773085
 21
41.0043655162
 31
0.0
 11
88.2080056711
 21
40.7555030569
 31
0.0
 11
88.2112973663
 21
40.506730633
 31
0.0
 11
88.2147019749
 21
40.2549297288
 31
0.0
 11
88.2182678714
 21
39.9918029623
 31
0.0
 11
88.2220502168
 21
39.7087834689
 31
0.0
 11
88.226155797
 21
39.3984302464
 31
0.0
 11
88.2306224302
 21
39.0587338241
 31
0.0
 11
88.2352814108
 21
38.6905216672
 31
0.0
 11
88.2399742732
 21
38.2936781446
 31
0.0
 11
88.2445763271
 21
37.8657338886
 31
0.0
 11
88.2489518862
 21
37.4037218342
 31
0.0
 11
88.2529851922
 21
36.9049727579
 31
0.0
 11
88.2568666346
 21
36.3666716759
 31
0.0
 11
88.260730039
 21
35.7851444377
 31
0.0
 11
88.2644997687
 21
35.156378184
 31
0.0
 11
88.2680782731
 21
34.4762701221
 31
0.0
 11
88.2713472695
 21
33.7401558997
 31
0.0
 11
88.2741669756
 21
32.9428674657
 31
0.0
 11
88.2763258
 21
32.0791021449
 31
0.0
 11
88.2774733864
 21
31.143619097
 31
0.0
 11
88.2774048362
 21
30.1309514983
 31
0.0
 11
88.275993312
 21
29.0356282132
 31
0.0
 11
88.2732257866
 21
27.8523354243
 31
0.0
 11
88.2693370467
 21
26.5749720379
 31
0.0
 11
88.2649396007
 21
25.1941425802
 31
0.0
 11
88.2609838476
 21
23.6981244908
 31
0.0
 11
88.2584973073
 21
22.0759821381
 31
0.0
 11
88.2578251365
 21
20.316696962
 31
0.0
 11
88.259195651
 21
18.4091121397
 31
0.0
 11
88.2621140534
 21
16.3450237717
 31
0.0
 11
88.2652883141
 21
14.1155435725
 31
0.0
 11
88.2668397874
 21
11.6968626635
 31
0.0
  0
SPLINE
  5
374
100
AcDbEntity
  8
RACCORDO
100
AcDbSpline
 62
253
  6
CONTINUOUS
 70
0
 71
3
 72
14
 73
10
 74
8
 42
0.0000001
 43
0.0000001
 44
0.0000000001
 12
-0.0534257503
 22
-10.4871353398
 32
0.0
 13
-0.0032610827
 23
-10.4872709182
 33
0.0
 40
0.0
 40
0.0
 40
0.0
 40
0.0
 40
0.1086924525
 40
0.2296643085
 40
0.3611827655
 40
0.5031546869
 40
0.6563876616
 40
0.8214131174
 40
1.0
 40
1.0
 40
1.0
 40
1.0
 10
71.4418409039
 20
22.1841255506
 30
0.0
 10
71.4399052453
 20
21.8041680639
 30
0.0
 10
71.437499195
 20
21.0013193651
 30
0.0
 10
71.4367850601
 20
19.738711543
 30
0.0
 10
71.4386964954
 20
18.3597683762
 30
0.0
 10
71.4398553567
 20
16.8680475955
 30
0.0
 10
71.4402099242
 20
15.2591940227
 30
0.0
 10
71.4397338744
 20
13.5223433861
 30
0.0
 10
71.4381890451
 20
12.321158833
 30
0.0
 10
71.4379949162
 20
11.696862493
 30
0.0
 11
71.4418409039
 21
22.1841255506
 31
0.0
 11
71.4380650402
 21
21.0442445528
 31
0.0
 11
71.4372013634
 21
19.7755801588
 31
0.0
 11
71.4385111308
 21
18.3963110247
 31
0.0
 11
71.439691953
 21
16.907413418
 31
0.0
 11
71.4400733102
 21
15.3004176663
 31
0.0
 11
71.4394664833
 21
13.5697510254
 31
0.0
 11
71.4379949162
 21
11.696862493
 31
0.0
  0
SPLINE
  5
375
100
AcDbEntity
  8
RACCORDO
100
AcDbSpline
 62
253
  6
CONTINUOUS
 70
0
 71
3
 72
71
 73
67
 74
65
 42
0.0000001
 43
0.0000001
 44
0.0000000001
 12
5.8011604953
 22
0.028679299
 32
0.0
 13
-0.02957969
 23
-5.8011559742
 33
0.0
 40
0.0
 40
0.0
 40
0.0
 40
0.0
 40
0.0410904733
 40
0.0780894141
 40
0.1116532902
 40
0.1421463577
 40
0.1697421668
 40
0.1947641272
 40
0.2175688897
 40
0.2385043088
 40
0.2577958382
 40
0.2754385113
 40
0.291598927
 40
0.3072986363
 40
0.3235526639
 40
0.339860577
 40
0.3560012118
 40
0.3720493556
 40
0.3884861837
 40
0.4060809176
 40
0.4255270253
 40
0.4469204287
 40
0.4689161656
 40
0.4896159043
 40
0.5082358585
 40
0.5253871554
 40
0.5417587164
 40
0.5579357202
 40
0.5742380548
 40
0.5904549317
 40
0.605280395
 40
0.619672475
 40
0.6347507282
 40
0.6497792645
 40
0.6647107967
 40
0.6796330924
 40
0.6943932701
 40
0.7087373607
 40
0.7221016035
 40
0.7338384922
 40
0.7439586053
 40
0.7530566182
 40
0.761763407
 40
0.7705567336
 40
0.7794258858
 40
0.7882526752
 40
0.796992599
 40
0.8058847697
 40
0.8156006839
 40
0.8266795507
 40
0.83878853
 40
0.8512998873
 40
0.8634792185
 40
0.8747107
 40
0.8850722032
 40
0.894907795
 40
0.9045872117
 40
0.9143003096
 40
0.924016777
 40
0.9336757703
 40
0.9432599491
 40
0.9529512998
 40
0.9630930662
 40
0.9740636067
 40
0.9862423842
 40
1.0
 40
1.0
 40
1.0
 40
1.0
 10
67.7574515719
 20
25.8721945731
 30
0.0
 10
67.8369090488
 20
25.8725873885
 30
0.0
 10
67.9879828966
 20
25.8685082766
 30
0.0
 10
68.2031705283
 20
25.8495263402
 30
0.0
 10
68.3966609488
 20
25.8215007259
 30
0.0
 10
68.5706284621
 20
25.7872849296
 30
0.0
 10
68.7267936497
 20
25.7491059422
 30
0.0
 10
68.8669813501
 20
25.7087376458
 30
0.0
 10
68.993323103
 20
25.6671936231
 30
0.0
 10
69.1077483663
 20
25.6251360218
 30
0.0
 10
69.2114982267
 20
25.5831506115
 30
0.0
 10
69.3054879344
 20
25.5417958355
 30
0.0
 10
69.3920321459
 20
25.5008618419
 30
0.0
 10
69.4750969314
 20
25.4589266638
 30
0.0
 10
69.5573338726
 20
25.4147830794
 30
0.0
 10
69.6391606012
 20
25.3681371502
 30
0.0
 10
69.7194354529
 20
25.3196331938
 30
0.0
 10
69.7986120431
 20
25.2688919756
 30
0.0
 10
69.8787289078
 20
25.2144691589
 30
0.0
 10
69.9625979461
 20
25.1539455064
 30
0.0
 10
70.0521679254
 20
25.0850260083
 30
0.0
 10
70.1459585497
 20
25.0077394774
 30
0.0
 10
70.2388447033
 20
24.925657333
 30
0.0
 10
70.3249739201
 20
24.844137731
 30
0.0
 10
70.4019082184
 20
24.7666196877
 30
0.0
 10
70.4710389191
 20
24.693203757
 30
0.0
 10
70.5351718028
 20
24.6216120338
 30
0.0
 10
70.5964366456
 20
24.5496946462
 30
0.0
 10
70.6557177505
 20
24.4765184264
 30
0.0
 10
70.711614418
 20
24.40399907
 30
0.0
 10
70.7636266278
 20
24.3331814868
 30
0.0
 10
70.8127818039
 20
24.2630242777
 30
0.0
 10
70.8605171902
 20
24.1914189609
 30
0.0
 10
70.9069939373
 20
24.1177529555
 30
0.0
 10
70.9514165225
 20
24.0431812448
 30
0.0
 10
70.9936824925
 20
23.9679614007
 30
0.0
 10
71.0335425745
 20
23.8927234127
 30
0.0
 10
71.0702755997
 20
23.819265507
 30
0.0
 10
71.1029210948
 20
23.7503216033
 30
0.0
 10
71.1308823374
 20
23.6882129384
 30
0.0
 10
71.1545352788
 20
23.6332225985
 30
0.0
 10
71.1751276053
 20
23.583301523
 30
0.0
 10
71.1940686189
 20
23.5354803889
 30
0.0
 10
71.2121735707
 20
23.4878094863
 30
0.0
 10
71.2296567363
 20
23.4396599845
 30
0.0
 10
71.2463953201
 20
23.3913559907
 30
0.0
 10
71.2624641201
 20
23.3427783333
 30
0.0
 10
71.2783711759
 20
23.2923415683
 30
0.0
 10
71.294847093
 20
23.2373475041
 30
0.0
 10
71.3121359421
 20
23.1761108004
 30
0.0
 10
71.3297187117
 20
23.1093503488
 30
0.0
 10
71.3465457107
 20
23.0402027538
 30
0.0
 10
71.3616669646
 20
22.972399853
 30
0.0
 10
71.3746881772
 20
22.9084004875
 30
0.0
 10
71.3857617394
 20
22.8486401078
 30
0.0
 10
71.3953529583
 20
22.7916657909
 30
0.0
 10
71.4038501291
 20
22.7357861634
 30
0.0
 10
71.4114409917
 20
22.6800087179
 30
0.0
 10
71.4181620449
 20
22.6241596727
 30
0.0
 10
71.4240181517
 20
22.5684641184
 30
0.0
 10
71.4290497606
 20
22.512736881
 30
0.0
 10
71.4333381287
 20
22.4560111925
 30
0.0
 10
71.4369333299
 20
22.3965510657
 30
0.0
 10
71.4397849584
 20
22.332234737
 30
0.0
 10
71.4416728662
 20
22.26088722
 30
0.0
 10
71.4419765526
 20
22.2107289091
 30
0.0
 10
71.4418409039
 20
22.1841255506
 30
0.0
 11
67.7574515719
 21
25.8721945731
 31
0.0
 11
67.9957397332
 21
25.8657481294
 31
0.0
 11
68.2095464927
 21
25.8468603392
 31
0.0
 11
68.4022491484
 21
25.8189609469
 31
0.0
 11
68.5758217969
 21
25.7848258539
 31
0.0
 11
68.7313360928
 21
25.7468257556
 31
0.0
 11
68.8708232972
 21
25.706648428
 31
0.0
 11
68.9964960521
 21
25.6653142783
 31
0.0
 11
69.1104870403
 21
25.6234042414
 31
0.0
 11
69.2142267012
 21
25.5814165512
 31
0.0
 11
69.3079096483
 21
25.5401991994
 31
0.0
 11
69.39265841
 21
25.5001146863
 31
0.0
 11
69.4739669364
 21
25.4590773713
 31
0.0
 11
69.5570485466
 21
25.4144826788
 31
0.0
 11
69.6392378414
 21
25.367629602
 31
0.0
 11
69.7193702321
 21
25.3191897675
 31
0.0
 11
69.7977531789
 21
25.2689549534
 31
0.0
 11
69.8766265375
 21
25.2153699863
 31
0.0
 11
69.9593980196
 21
25.1556423061
 31
0.0
 11
70.0488109061
 21
25.0868546548
 31
0.0
 11
70.1446026367
 21
25.0079448283
 31
0.0
 11
70.2402171594
 21
24.9234449753
 31
0.0
 11
70.3274341752
 21
24.8409019387
 31
0.0
 11
70.4035545966
 21
24.764261786
 31
0.0
 11
70.4717621226
 21
24.6918206853
 31
0.0
 11
70.5351240668
 21
24.6210707364
 31
0.0
 11
70.5959833339
 21
24.5496331901
 31
0.0
 11
70.655521579
 21
24.4761528114
 31
0.0
 11
70.7129533888
 21
24.4016395231
 31
0.0
 11
70.7638589147
 21
24.3323167303
 31
0.0
 11
70.8117605095
 21
24.2639331385
 31
0.0
 11
70.8602624584
 21
24.1911389909
 31
0.0
 11
70.9067760473
 21
24.1173993215
 31
0.0
 11
70.951109123
 21
24.042982769
 31
0.0
 11
70.9935209563
 21
23.9675162108
 31
0.0
 11
71.0336167393
 21
23.891856799
 31
0.0
 11
71.070845906
 21
23.8174359874
 31
0.0
 11
71.1040278362
 21
23.7473666261
 31
0.0
 11
71.1319782439
 21
23.6852795427
 31
0.0
 11
71.1551740412
 21
23.631347034
 31
0.0
 11
71.1752984849
 21
23.5825546044
 31
0.0
 11
71.193896421
 21
23.5355930608
 31
0.0
 11
71.2120051325
 21
23.4879033215
 31
0.0
 11
71.2295654213
 21
23.4395406816
 31
0.0
 11
71.2463356046
 21
23.3911584455
 31
0.0
 11
71.2622604984
 21
23.3430219415
 31
0.0
 11
71.2777787377
 21
23.293825883
 31
0.0
 11
71.2939565188
 21
23.2398331989
 31
0.0
 11
71.311420472
 21
23.1779803026
 31
0.0
 11
71.3293105022
 21
23.1100495546
 31
0.0
 11
71.3464673051
 21
23.0395251895
 31
0.0
 11
71.3618417428
 21
22.9705630806
 31
0.0
 11
71.3748295442
 21
22.9067142241
 31
0.0
 11
71.3857805965
 21
22.8476107239
 31
0.0
 11
71.3952528459
 21
22.7913439136
 31
0.0
 11
71.4036956626
 21
22.7358297163
 31
0.0
 11
71.4112958061
 21
22.6799966897
 31
0.0
 11
71.4180348037
 21
22.6240335035
 31
0.0
 11
71.4238959785
 21
22.5683068312
 31
0.0
 11
71.4288971229
 21
22.5129321721
 31
0.0
 11
71.4331348338
 21
22.4568703404
 31
0.0
 11
71.4366853014
 21
22.3981428337
 31
0.0
 11
71.4395020773
 21
22.3345625543
 31
0.0
 11
71.4413665331
 21
22.2639352537
 31
0.0
 11
71.4418409039
 21
22.1841255506
 31
0.0
  0
SPLINE
  5
376
100
AcDbEntity
  8
RACCORDO
100
AcDbSpline
 62
253
  6
CONTINUOUS
 70
0
 71
3
 72
51
 73
47
 74
45
 42
0.0000001
 43
0.0000001
 44
0.0000000001
 12
14.2865599193
 22
-0.0052414833
 32
0.0
 13
14.2863566834
 23
0.0763839987
 33
0.0
 40
0.0
 40
0.0
 40
0.0
 40
0.0
 40
0.0743052656
 40
0.1427126343
 40
0.205755888
 40
0.2638992624
 40
0.3175594877
 40
0.3671103351
 40
0.4128886444
 40
0.4551985183
 40
0.4943180231
 40
0.5304964374
 40
0.5639590876
 40
0.5949115198
 40
0.6235443984
 40
0.6500344373
 40
0.6745450122
 40
0.6972283222
 40
0.7182263515
 40
0.7376679074
 40
0.7556744121
 40
0.7723565504
 40
0.7878055998
 40
0.8021095814
 40
0.8153748916
 40
0.8277067058
 40
0.8391231568
 40
0.8495908641
 40
0.8591348743
 40
0.8679908512
 40
0.8764493286
 40
0.8847989849
 40
0.8931704687
 40
0.9015461991
 40
0.9099098852
 40
0.9182685935
 40
0.9266423238
 40
0.9350527647
 40
0.9435003217
 40
0.9519737421
 40
0.9604901996
 40
0.9690309653
 40
0.9774726107
 40
0.9856262243
 40
0.9932267331
 40
1.0
 40
1.0
 40
1.0
 40
1.0
 10
53.4709066183
 20
25.880957508
 30
0.0
 10
53.8247621612
 20
25.8808276847
 30
0.0
 10
54.5043861353
 20
25.8801403576
 30
0.0
 10
55.4842341494
 20
25.8799136018
 30
0.0
 10
56.3871161538
 20
25.8796138998
 30
0.0
 10
57.2197695651
 20
25.8795251174
 30
0.0
 10
57.9881696062
 20
25.8796134611
 30
0.0
 10
58.6976848843
 20
25.8797525605
 30
0.0
 10
59.3531476762
 20
25.8798407919
 30
0.0
 10
59.9589344719
 20
25.8798492773
 30
0.0
 10
60.5190047663
 20
25.8797548134
 30
0.0
 10
61.036942897
 20
25.8795526053
 30
0.0
 10
61.5159878382
 20
25.8792378171
 30
0.0
 10
61.9590994318
 20
25.8788177473
 30
0.0
 10
62.3690060262
 20
25.8783056102
 30
0.0
 10
62.7482351503
 20
25.877714336
 30
0.0
 10
63.0991311713
 20
25.8770630312
 30
0.0
 10
63.4238730986
 20
25.8763791522
 30
0.0
 10
63.7244753042
 20
25.8756748128
 30
0.0
 10
64.0028056015
 20
25.8749622156
 30
0.0
 10
64.2605827475
 20
25.8742502993
 30
0.0
 10
64.4993467775
 20
25.8735467789
 30
0.0
 10
64.7204786578
 20
25.8728562324
 30
0.0
 10
64.925338951
 20
25.8721874458
 30
0.0
 10
65.1153546616
 20
25.8716294459
 30
0.0
 10
65.2916195925
 20
25.8711557267
 30
0.0
 10
65.4545619784
 20
25.8707626715
 30
0.0
 10
65.604228451
 20
25.8704419954
 30
0.0
 10
65.7417015683
 20
25.8701839185
 30
0.0
 10
65.869606433
 20
25.8699777592
 30
0.0
 10
65.9918236125
 20
25.8698103094
 30
0.0
 10
66.1117335844
 20
25.8696757193
 30
0.0
 10
66.2312495313
 20
25.8695729483
 30
0.0
 10
66.3508323144
 20
25.8695034446
 30
0.0
 10
66.4703542742
 20
25.8694691296
 30
0.0
 10
66.589866714
 20
25.869472116
 30
0.0
 10
66.7096018017
 20
25.8695151711
 30
0.0
 10
66.8297599798
 20
25.8696026479
 30
0.0
 10
66.9503928569
 20
25.8697384702
 30
0.0
 10
67.071530533
 20
25.8699283779
 30
0.0
 10
67.193111988
 20
25.8701734171
 30
0.0
 10
67.3145420025
 20
25.8704727295
 30
0.0
 10
67.4342439462
 20
25.8708223485
 30
0.0
 10
67.5494680069
 20
25.8712292054
 30
0.0
 10
67.6567466958
 20
25.8716828972
 30
0.0
 10
67.7251964699
 20
25.8720221167
 30
0.0
 10
67.7574515719
 20
25.8721945731
 30
0.0
 11
53.4709066183
 21
25.880957508
 31
0.0
 11
54.5324730864
 21
25.8802556436
 31
0.0
 11
55.5097790567
 21
25.879890649
 31
0.0
 11
56.4104503044
 21
25.879641344
 31
0.0
 11
57.2411191582
 21
25.8795547501
 31
0.0
 11
58.0077392297
 21
25.8796264828
 31
0.0
 11
58.715650417
 21
25.8797485469
 31
0.0
 11
59.3696650151
 21
25.8798293518
 31
0.0
 11
59.9741276051
 21
25.8798303661
 31
0.0
 11
60.5330107832
 21
25.8797309894
 31
0.0
 11
61.0498758604
 21
25.879523685
 31
0.0
 11
61.5279419441
 21
25.8792058817
 31
0.0
 11
61.9701455498
 21
25.8787841975
 31
0.0
 11
62.3792105902
 21
25.8782709218
 31
0.0
 11
62.7576616837
 21
25.8776801801
 31
0.0
 11
63.1078329033
 21
25.8770317367
 31
0.0
 11
63.4318986728
 21
25.8763489465
 31
0.0
 11
63.7318874738
 21
25.8756461697
 31
0.0
 11
64.009639535
 21
25.874935034
 31
0.0
 11
64.2668895806
 21
25.8742246574
 31
0.0
 11
64.50521893
 21
25.8735222061
 31
0.0
 11
64.7259316405
 21
25.8728337864
 31
0.0
 11
64.9302853087
 21
25.8721828901
 31
0.0
 11
65.119800148
 21
25.8716245449
 31
0.0
 11
65.2959787287
 21
25.8711524068
 31
0.0
 11
65.4590800775
 21
25.87075942
 31
0.0
 11
65.6086272732
 21
25.8704394886
 31
0.0
 11
65.7449781168
 21
25.870184026
 31
0.0
 11
65.871499405
 21
25.8699799222
 31
0.0
 11
65.9923418447
 21
25.86981462
 31
0.0
 11
66.1116296436
 21
25.8696810486
 31
0.0
 11
66.2312293116
 21
25.8695785192
 31
0.0
 11
66.3508896748
 21
25.8695092812
 31
0.0
 11
66.4703779796
 21
25.8694753399
 31
0.0
 11
66.5897951755
 21
25.8694787677
 31
0.0
 11
66.7094269754
 21
25.8695224381
 31
0.0
 11
66.8295832184
 21
25.86961047
 31
0.0
 11
66.9502696789
 21
25.8697472042
 31
0.0
 11
67.0713255666
 21
25.8699370671
 31
0.0
 11
67.1929962077
 21
25.8701822852
 31
0.0
 11
67.3150140052
 21
25.8704832173
 31
0.0
 11
67.4356155628
 21
25.8708388339
 31
0.0
 11
67.552101924
 21
25.8712525346
 31
0.0
 11
67.6606860787
 21
25.8717134645
 31
0.0
 11
67.7574515719
 21
25.8721945731
 31
0.0
  0
SPLINE
  5
377
100
AcDbEntity
  8
RACCORDO
100
AcDbSpline
 62
253
  6
CONTINUOUS
 70
0
 71
3
 72
53
 73
49
 74
47
 42
0.0000001
 43
0.0000001
 44
0.0000000001
 12
0.0000981579
 22
32.7948700927
 32
0.0
 13
1.0060905482
 23
32.779433891
 33
0.0
 40
0.0
 40
0.0
 40
0.0
 40
0.0
 40
0.0746819237
 40
0.1433662807
 40
0.2066009229
 40
0.2648694692
 40
0.3185942031
 40
0.3681362936
 40
0.4138317466
 40
0.4559984875
 40
0.4949348115
 40
0.5309090457
 40
0.5641640704
 40
0.594906105
 40
0.6233070025
 40
0.6495319732
 40
0.6737408076
 40
0.6960937945
 40
0.7167441129
 40
0.7358308349
 40
0.7534799713
 40
0.7698090023
 40
0.7849247401
 40
0.7989162033
 40
0.8118713002
 40
0.8238850032
 40
0.835030441
 40
0.8453072979
 40
0.8546895152
 40
0.863250752
 40
0.871225792
 40
0.878881929
 40
0.8864748145
 40
0.8940781511
 40
0.901657471
 40
0.9092246933
 40
0.9168076167
 40
0.9243647066
 40
0.9318375581
 40
0.9392216072
 40
0.9465600951
 40
0.9539054261
 40
0.96129185
 40
0.9687279642
 40
0.9762617452
 40
0.9840374362
 40
0.9920662127
 40
1.0
 40
1.0
 40
1.0
 40
1.0
 10
-64.8250265078
 20
11.6968626635
 30
0.0
 10
-64.8250240642
 20
12.5132573256
 30
0.0
 10
-64.8238307424
 20
14.0804835246
 30
0.0
 10
-64.8202977539
 20
16.3389642085
 30
0.0
 10
-64.8171212088
 20
18.418020434
 30
0.0
 10
-64.8156445315
 20
20.3335458707
 30
0.0
 10
-64.8163872799
 20
22.0993899391
 30
0.0
 10
-64.8189031565
 20
23.7277879366
 30
0.0
 10
-64.8231173385
 20
25.2298341464
 30
0.0
 10
-64.8277056934
 20
26.6159401612
 30
0.0
 10
-64.8317009938
 20
27.8957789163
 30
0.0
 10
-64.834457645
 20
29.0782013014
 30
0.0
 10
-64.8358073962
 20
30.1710492525
 30
0.0
 10
-64.8358080479
 20
31.1811091804
 30
0.0
 10
-64.8346144521
 20
32.1143184553
 30
0.0
 10
-64.8323941667
 20
32.9761070566
 30
0.0
 10
-64.8295856735
 20
33.7717799995
 30
0.0
 10
-64.8263243756
 20
34.5065106563
 30
0.0
 10
-64.8227354122
 20
35.185246032
 30
0.0
 10
-64.8189391062
 20
35.8125586787
 30
0.0
 10
-64.8150063828
 20
36.392630766
 30
0.0
 10
-64.8110992432
 20
36.9292926531
 30
0.0
 10
-64.8070018287
 20
37.4259676764
 30
0.0
 10
-64.8025221844
 20
37.8857551971
 30
0.0
 10
-64.7979003557
 20
38.3116291072
 30
0.0
 10
-64.7932337471
 20
38.7063888269
 30
0.0
 10
-64.7886017732
 20
39.0718692419
 30
0.0
 10
-64.784150779
 20
39.4085831503
 30
0.0
 10
-64.7801390539
 20
39.7170508773
 30
0.0
 10
-64.7764254255
 20
40.0003577543
 30
0.0
 10
-64.7729363778
 20
40.2647970949
 30
0.0
 10
-64.769514773
 20
40.5186507462
 30
0.0
 10
-64.7660430705
 20
40.768440011
 30
0.0
 10
-64.7624935715
 20
41.0173883611
 30
0.0
 10
-64.7588734378
 20
41.2660551183
 30
0.0
 10
-64.7551465479
 20
41.5144971538
 30
0.0
 10
-64.7517965919
 20
41.7627016015
 30
0.0
 10
-64.748732832
 20
42.0098779077
 30
0.0
 10
-64.7458061167
 20
42.2548819002
 30
0.0
 10
-64.7433641875
 20
42.497501009
 30
0.0
 10
-64.7398250046
 20
42.7387155552
 30
0.0
 10
-64.7338096329
 20
42.9799074125
 30
0.0
 10
-64.7263290802
 20
43.2221233009
 30
0.0
 10
-64.717857142
 20
43.4663675917
 30
0.0
 10
-64.7089202493
 20
43.7148530956
 30
0.0
 10
-64.7001907471
 20
43.9698287948
 30
0.0
 10
-64.6916787958
 20
44.2291868866
 30
0.0
 10
-64.6862096869
 20
44.4035979648
 30
0.0
 10
-64.6835489841
 20
44.490286317
 30
0.0
 11
-64.8250265078
 21
11.6968626635
 31
0.0
 11
-64.8234393704
 21
14.1460461356
 31
0.0
 11
-64.820218807
 21
16.3985383996
 31
0.0
 11
-64.8173105908
 21
18.4723082337
 31
0.0
 11
-64.8160011171
 21
20.3832171928
 31
0.0
 11
-64.8167500584
 21
22.1451127014
 31
0.0
 11
-64.8193232709
 21
23.769837088
 31
0.0
 11
-64.8233566592
 21
25.268408105
 31
0.0
 11
-64.8277774092
 21
26.6512538278
 31
0.0
 11
-64.8316272231
 21
27.928159713
 31
0.0
 11
-64.8343029193
 21
29.1079270147
 31
0.0
 11
-64.8356081371
 21
30.1985204479
 31
0.0
 11
-64.8355845301
 21
31.2067014793
 31
0.0
 11
-64.8343746156
 21
32.1381044382
 31
0.0
 11
-64.8321952715
 21
32.9981461847
 31
0.0
 11
-64.8293889864
 21
33.7920668042
 31
0.0
 11
-64.8261339321
 21
34.525122878
 31
0.0
 11
-64.8225554131
 21
35.2023379317
 31
0.0
 11
-64.8187650873
 21
35.8282730272
 31
0.0
 11
-64.8148583705
 21
36.4070609776
 31
0.0
 11
-64.8109128474
 21
36.9425548911
 31
0.0
 11
-64.8067723275
 21
37.4382562565
 31
0.0
 11
-64.802323696
 21
37.8970829105
 31
0.0
 11
-64.7977175042
 21
38.3219186582
 31
0.0
 11
-64.7930635027
 21
38.7158789984
 31
0.0
 11
-64.7884468917
 21
39.0813630265
 31
0.0
 11
-64.7840340513
 21
39.4183623242
 31
0.0
 11
-64.7800168331
 21
39.7260246946
 31
0.0
 11
-64.7763372694
 21
40.0067652338
 31
0.0
 11
-64.7728777335
 21
40.2682827502
 31
0.0
 11
-64.7694878158
 21
40.5193418835
 31
0.0
 11
-64.7660297553
 21
40.7683255649
 31
0.0
 11
-64.7624773369
 21
41.0176506939
 31
0.0
 11
-64.7588531571
 21
41.2661870856
 31
0.0
 11
-64.7552112574
 21
41.5143264329
 31
0.0
 11
-64.7518385103
 21
41.762984547
 31
0.0
 11
-64.7487400833
 21
42.0107989597
 31
0.0
 11
-64.7458717853
 21
42.2558533694
 31
0.0
 11
-64.7431726782
 21
42.4979972571
 31
0.0
 11
-64.7394146834
 21
42.7386326729
 31
0.0
 11
-64.7335831621
 21
42.9794512515
 31
0.0
 11
-64.7261930928
 21
43.2215753114
 31
0.0
 11
-64.7178426016
 21
43.4652986977
 31
0.0
 11
-64.709085233
 21
43.7122128166
 31
0.0
 11
-64.700344584
 21
43.9670657503
 31
0.0
 11
-64.691709163
 21
44.2302267869
 31
0.0
 11
-64.6835489841
 21
44.490286317
 31
0.0
  0
SPLINE
  5
378
100
AcDbEntity
  8
RACCORDO
100
AcDbSpline
 62
253
  6
CONTINUOUS
 70
0
 71
3
 72
18
 73
14
 74
12
 42
0.0000001
 43
0.0000001
 44
0.0000000001
 12
0.0889924243
 22
2.8945423884
 32
0.0
 13
2.8948199499
 23
0.0794527993
 33
0.0
 40
0.0
 40
0.0
 40
0.0
 40
0.0
 40
0.0898001344
 40
0.1803742969
 40
0.2713207519
 40
0.3624817993
 40
0.4539284376
 40
0.5455107701
 40
0.6369253948
 40
0.7282146058
 40
0.819409435
 40
0.91015141
 40
1.0
 40
1.0
 40
1.0
 40
1.0
 10
-64.6835489841
 20
44.490286317
 30
0.0
 10
-64.6808851402
 20
44.5769297488
 30
0.0
 10
-64.6628880295
 20
44.7508099134
 30
0.0
 10
-64.5998221998
 20
45.0058104696
 30
0.0
 10
-64.5023332621
 20
45.2511976614
 30
0.0
 10
-64.3719127521
 20
45.4817490236
 30
0.0
 10
-64.2109874901
 20
45.692915342
 30
0.0
 10
-64.0227564988
 20
45.8804938607
 30
0.0
 10
-63.8109814421
 20
46.0407659565
 30
0.0
 10
-63.5797357843
 20
46.1706298748
 30
0.0
 10
-63.33359614
 20
46.2676269006
 30
0.0
 10
-63.0780142453
 20
46.3302377475
 30
0.0
 10
-62.9038572574
 20
46.3476550262
 30
0.0
 10
-62.8171587604
 20
46.3500346002
 30
0.0
 11
-64.6835489841
 21
44.490286317
 31
0.0
 11
-64.6570342135
 21
44.748984191
 31
0.0
 11
-64.5942558858
 21
45.003655264
 31
0.0
 11
-64.4969939705
 21
45.2484109159
 31
0.0
 11
-64.367036142
 21
45.4782019063
 31
0.0
 11
-64.2065460446
 21
45.6888514241
 31
0.0
 11
-64.0186892258
 21
45.876063572
 31
0.0
 11
-63.8075832282
 21
46.0357991499
 31
0.0
 11
-63.5770717315
 21
46.1652344118
 31
0.0
 11
-63.3313818365
 21
46.262090357
 31
0.0
 11
-63.0760801279
 21
46.3243373017
 31
0.0
 11
-62.8171587604
 21
46.3500346002
 31
0.0
  0
SPLINE
  5
379
100
AcDbEntity
  8
RACCORDO
100
AcDbSpline
 62
253
  6
CONTINUOUS
 70
0
 71
3
 72
27
 73
23
 74
21
 42
0.0000001
 43
0.0000001
 44
0.0000000001
 12
32.7765921548
 22
0.8981998462
 32
0.0
 13
32.788896844
 23
-0.0000378918
 33
0.0
 40
0.0
 40
0.0
 40
0.0
 40
0.0
 40
0.0186719511
 40
0.0396184376
 40
0.06304238
 40
0.0888074938
 40
0.1168613579
 40
0.1474983698
 40
0.1810893013
 40
0.217825347
 40
0.2578837396
 40
0.3014801644
 40
0.3487496461
 40
0.3999537602
 40
0.4555066415
 40
0.5158421538
 40
0.5813500094
 40
0.6523699228
 40
0.7292831692
 40
0.8124638006
 40
0.9023977893
 40
1.0
 40
1.0
 40
1.0
 40
1.0
 10
-62.8171587604
 20
46.3500346002
 30
0.0
 10
-62.6131577853
 20
46.3556249814
 30
0.0
 10
-62.1803014261
 20
46.3673398283
 30
0.0
 10
-61.4914958267
 20
46.3849755766
 30
0.0
 10
-60.7250899831
 20
46.4004097003
 30
0.0
 10
-59.8809262547
 20
46.4118675286
 30
0.0
 10
-58.9578923901
 20
46.4204252213
 30
0.0
 10
-57.9493262037
 20
46.4293795598
 30
0.0
 10
-56.8458674426
 20
46.438908633
 30
0.0
 10
-55.6394132671
 20
46.4457574706
 30
0.0
 10
-54.3235887198
 20
46.4493404606
 30
0.0
 10
-52.8926331808
 20
46.4497500807
 30
0.0
 10
-51.3398616307
 20
46.447355312
 30
0.0
 10
-49.6564120195
 20
46.444135053
 30
0.0
 10
-47.8301543212
 20
46.4413940183
 30
0.0
 10
-45.8475606739
 20
46.4395670373
 30
0.0
 10
-43.6959172027
 20
46.439419738
 30
0.0
 10
-41.3630855772
 20
46.4404294046
 30
0.0
 10
-38.8370974265
 20
46.4422060168
 30
0.0
 10
-36.1043858331
 20
46.4445994872
 30
0.0
 10
-33.145551344
 20
46.4469450011
 30
0.0
 10
-31.0958496334
 20
46.4477077986
 30
0.0
 10
-30.0290933602
 20
46.4477065658
 30
0.0
 11
-62.8171587604
 21
46.3500346002
 31
0.0
 11
-62.205148258
 21
46.3665269293
 31
0.0
 11
-61.5185506128
 21
46.3836923497
 31
0.0
 11
-60.7506598309
 21
46.3990944245
 31
0.0
 11
-59.9059333396
 21
46.4109482002
 31
0.0
 11
-58.9861236696
 21
46.420105888
 31
0.0
 11
-57.9816097012
 21
46.4290541825
 31
0.0
 11
-56.8802372012
 21
46.4380929823
 31
0.0
 11
-55.675722502
 21
46.4449840067
 31
0.0
 11
-54.362257325
 21
46.4487242944
 31
0.0
 11
-52.9327787741
 21
46.4493205627
 31
0.0
 11
-51.3828658905
 21
46.4473297182
 31
0.0
 11
-49.7039421446
 21
46.4443365605
 31
0.0
 11
-47.8824264461
 21
46.44164111
 31
0.0
 11
-45.9040923333
 21
46.4398888415
 31
0.0
 11
-43.7561620309
 21
46.439596065
 31
0.0
 11
-41.4274975935
 21
46.440502338
 31
0.0
 11
-38.9055976821
 21
46.4422275148
 31
0.0
 11
-36.178197486
 21
46.4444985186
 31
0.0
 11
-33.2293620152
 21
46.4466803185
 31
0.0
 11
-30.0290933602
 21
46.4477065658
 31
0.0
  0
SPLINE
  5
37A
100
AcDbEntity
  8
RACCORDO
100
AcDbSpline
 62
253
  6
CONTINUOUS
 70
0
 71
3
 72
57
 73
53
 74
51
 42
0.0000001
 43
0.0000001
 44
0.0000000001
 12
14.2836720206
 22
-0.0814130058
 32
0.0
 13
14.2839030731
 23
0.0052410116
 33
0.0
 40
0.0
 40
0.0
 40
0.0
 40
0.0
 40
0.0057048043
 40
0.0108406652
 40
0.0155561092
 40
0.0199732054
 40
0.0242266719
 40
0.028421998
 40
0.0326104269
 40
0.0368126356
 40
0.0410345811
 40
0.0453813037
 40
0.0500699523
 40
0.0553101492
 40
0.0612221521
 40
0.0676970626
 40
0.0745898273
 40
0.0819097679
 40
0.0898059246
 40
0.0982077837
 40
0.1067040631
 40
0.1150750464
 40
0.123401396
 40
0.131867298
 40
0.1407512641
 40
0.1503305226
 40
0.1608278276
 40
0.1722696191
 40
0.1846305471
 40
0.1979304559
 40
0.2122733983
 40
0.2277661945
 40
0.2444972308
 40
0.2625578094
 40
0.2820599221
 40
0.3031251674
 40
0.3258833642
 40
0.3504778482
 40
0.377061597
 40
0.4057991968
 40
0.436868238
 40
0.4704608611
 40
0.5067839865
 40
0.5460640648
 40
0.5885443798
 40
0.6344801048
 40
0.6840994671
 40
0.737633884
 40
0.7955099242
 40
0.8581883004
 40
0.9261670852
 40
1.0
 40
1.0
 40
1.0
 40
1.0
 10
-44.3129813401
 20
25.8721966364
 30
0.0
 10
-44.2858194887
 20
25.8720418213
 30
0.0
 10
-44.2342045592
 20
25.8717637047
 30
0.0
 10
-44.1601380405
 20
25.8714172047
 30
0.0
 10
-44.0922024299
 20
25.8711436169
 30
0.0
 10
-44.0284680017
 20
25.8709218078
 30
0.0
 10
-43.967209912
 20
25.8707348148
 30
0.0
 10
-43.9070405204
 20
25.8705689427
 30
0.0
 10
-43.8471151507
 20
25.87041549
 30
0.0
 10
-43.7870630177
 20
25.8702701741
 30
0.0
 10
-43.7262571775
 20
25.870133852
 30
0.0
 10
-43.6631352298
 20
25.8700045459
 30
0.0
 10
-43.5951650619
 20
25.8698798359
 30
0.0
 10
-43.5197421032
 20
25.8697601981
 30
0.0
 10
-43.4358141863
 20
25.8696528635
 30
0.0
 10
-43.3440178687
 20
25.8695655126
 30
0.0
 10
-43.2455179133
 20
25.8695038049
 30
0.0
 10
-43.1402509623
 20
25.8694709632
 30
0.0
 10
-43.0277987534
 20
25.8694696786
 30
0.0
 10
-42.9097456453
 20
25.8695035065
 30
0.0
 10
-42.7894317601
 20
25.8695729392
 30
0.0
 10
-42.6694774227
 20
25.869675911
 30
0.0
 10
-42.5496677529
 20
25.8698103083
 30
0.0
 10
-42.4274156567
 20
25.869977907
 30
0.0
 10
-42.2991981353
 20
25.8701848263
 30
0.0
 10
-42.1613085684
 20
25.8704439588
 30
0.0
 10
-42.0112405256
 20
25.8707658384
 30
0.0
 10
-41.847928247
 20
25.8711602154
 30
0.0
 10
-41.6712720908
 20
25.8716355047
 30
0.0
 10
-41.4808028636
 20
25.8721955751
 30
0.0
 10
-41.2754221424
 20
25.8728665589
 30
0.0
 10
-41.0537047719
 20
25.8735580535
 30
0.0
 10
-40.8142865736
 20
25.8742628417
 30
0.0
 10
-40.5557787567
 20
25.8749758171
 30
0.0
 10
-40.276634393
 20
25.8756893324
 30
0.0
 10
-39.9751231654
 20
25.8763943213
 30
0.0
 10
-39.6493655175
 20
25.8770785515
 30
0.0
 10
-39.2973324939
 20
25.8777296842
 30
0.0
 10
-38.9168295843
 20
25.8783198795
 30
0.0
 10
-38.5054992156
 20
25.8788304336
 30
0.0
 10
-38.0607973635
 20
25.8792482763
 30
0.0
 10
-37.5799784431
 20
25.8795601654
 30
0.0
 10
-37.060064239
 20
25.8797592562
 30
0.0
 10
-36.497833026
 20
25.8798503141
 30
0.0
 10
-35.8898333241
 20
25.8798387282
 30
0.0
 10
-35.232605183
 20
25.8797479989
 30
0.0
 10
-34.5227451399
 20
25.8796088537
 30
0.0
 10
-33.7560336463
 20
25.8795250463
 30
0.0
 10
-32.9271442447
 20
25.8796180118
 30
0.0
 10
-32.0294809163
 20
25.8799180988
 30
0.0
 10
-31.0558420356
 20
25.8801428569
 30
0.0
 10
-30.3806340716
 20
25.8808282372
 30
0.0
 10
-30.0290933386
 20
25.8809572236
 30
0.0
 11
-44.3129813401
 21
25.8721966364
 31
0.0
 11
-44.2314956361
 21
25.8717592578
 31
0.0
 11
-44.1581362949
 21
25.8714161401
 31
0.0
 11
-44.0907818943
 21
25.8711442367
 31
0.0
 11
-44.0276889008
 21
25.8709236783
 31
0.0
 11
-43.966933081
 21
25.8707369855
 31
0.0
 11
-43.9070076755
 21
25.8705708115
 31
0.0
 11
-43.8471807566
 21
25.8704170607
 31
0.0
 11
-43.7871569861
 21
25.8702721771
 31
0.0
 11
-43.7268512736
 21
25.8701370996
 31
0.0
 11
-43.6647632347
 21
25.870010009
 31
0.0
 11
-43.5977911408
 21
25.8698872744
 31
0.0
 11
-43.5229407648
 21
25.869768875
 31
0.0
 11
-43.4384943522
 21
25.8696606886
 31
0.0
 11
-43.3460073939
 21
25.8695722604
 31
0.0
 11
-43.2475518234
 21
25.8695100845
 31
0.0
 11
-43.1429945001
 21
25.8694768584
 31
0.0
 11
-43.0302065555
 21
25.8694751336
 31
0.0
 11
-42.9101952117
 21
25.8695091567
 31
0.0
 11
-42.7888351917
 21
25.8695790161
 31
0.0
 11
-42.6692649134
 21
25.8696813552
 31
0.0
 11
-42.5503322098
 21
25.869814461
 31
0.0
 11
-42.4294061914
 21
25.8699799554
 31
0.0
 11
-42.302508637
 21
25.8701848867
 31
0.0
 11
-42.1656796683
 21
25.8704415246
 31
0.0
 11
-42.015737515
 21
25.8707626491
 31
0.0
 11
-41.8523045383
 21
25.8711568647
 31
0.0
 11
-41.675742865
 21
25.8716305637
 31
0.0
 11
-41.4857690709
 21
25.8721909212
 31
0.0
 11
-41.280896898
 21
25.872843807
 31
0.0
 11
-41.0596003587
 21
25.8735334578
 31
0.0
 11
-40.8206168776
 21
25.8742370925
 31
0.0
 11
-40.5626422865
 21
25.8749485369
 31
0.0
 11
-40.2840768902
 21
25.8756605822
 31
0.0
 11
-39.9831837701
 21
25.8763640114
 31
0.0
 11
-39.6581085889
 21
25.8770471265
 31
0.0
 11
-39.3068039384
 21
25.877695365
 31
0.0
 11
-38.9270846797
 21
25.878285126
 31
0.0
 11
-38.5165998805
 21
25.8787968242
 31
0.0
 11
-38.0728128763
 21
25.8792163071
 31
0.0
 11
-37.5929791746
 21
25.879531311
 31
0.0
 11
-37.0741431768
 21
25.8797355043
 31
0.0
 11
-36.5130703166
 21
25.8798315818
 31
0.0
 11
-35.9062855733
 21
25.8798274782
 31
0.0
 11
-35.2501440913
 21
25.8797443252
 31
0.0
 11
-34.5413858926
 21
25.8796223616
 31
0.0
 11
-33.7767054214
 21
25.8795544309
 31
0.0
 11
-32.9500096235
 21
25.8796448353
 31
0.0
 11
-32.0547177469
 21
25.8798948514
 31
0.0
 11
-31.0837153768
 21
25.8802580969
 31
0.0
 11
-30.0290933386
 21
25.8809572236
 31
0.0
  0
SPLINE
  5
37B
100
AcDbEntity
  8
RACCORDO
100
AcDbSpline
 62
253
  6
CONTINUOUS
 70
0
 71
3
 72
61
 73
57
 74
55
 42
0.0000001
 43
0.0000001
 44
0.0000000001
 12
-0.0290703046
 22
5.8036491447
 32
0.0
 13
5.8036287613
 23
-0.0328888773
 33
0.0
 40
0.0
 40
0.0
 40
0.0
 40
0.0
 40
0.0220892254
 40
0.0430341174
 40
0.0630885155
 40
0.0825109565
 40
0.1015694889
 40
0.1200017979
 40
0.1366772661
 40
0.1512038853
 40
0.164299185
 40
0.1760846446
 40
0.1865334472
 40
0.1960049001
 40
0.2050058001
 40
0.2139315041
 40
0.2228532487
 40
0.2317518799
 40
0.2405948633
 40
0.249570572
 40
0.2591836988
 40
0.2700333367
 40
0.282527364
 40
0.2961993011
 40
0.3102759368
 40
0.3243177719
 40
0.3387021045
 40
0.3545410923
 40
0.3710576435
 40
0.3873930534
 40
0.4036825667
 40
0.4200861468
 40
0.4364656196
 40
0.4527566254
 40
0.4689803602
 40
0.4851138565
 40
0.50110611
 40
0.5169299488
 40
0.5326933959
 40
0.5484959414
 40
0.5643676217
 40
0.5802077182
 40
0.5960406605
 40
0.6123895338
 40
0.629967188
 40
0.6494703263
 40
0.671175854
 40
0.6950315322
 40
0.7211246869
 40
0.7497300968
 40
0.7812437823
 40
0.816149996
 40
0.8549308983
 40
0.8980495407
 40
0.9460898535
 40
1.0
 40
1.0
 40
1.0
 40
1.0
 10
-47.9998847788
 20
22.1841221198
 30
0.0
 10
-48.0000988256
 20
22.2268548245
 30
0.0
 10
-47.9990697738
 20
22.3101209816
 30
0.0
 10
-47.9934743793
 20
22.4320621946
 30
0.0
 10
-47.984423916
 20
22.5486205875
 30
0.0
 10
-47.972208491
 20
22.6612181526
 30
0.0
 10
-47.9570241037
 20
22.7702859185
 30
0.0
 10
-47.9394906883
 20
22.873612725
 30
0.0
 10
-47.9207908254
 20
22.9678070154
 30
0.0
 10
-47.9020503415
 20
23.0514368251
 30
0.0
 10
-47.8837839437
 20
23.125458047
 30
0.0
 10
-47.866131886
 20
23.1914908184
 30
0.0
 10
-47.849267083
 20
23.2504666391
 30
0.0
 10
-47.8330425576
 20
23.3040148492
 30
0.0
 10
-47.8169332496
 20
23.3545129996
 30
0.0
 10
-47.8004288821
 20
23.4037630685
 30
0.0
 10
-47.7832855844
 20
23.4525847246
 30
0.0
 10
-47.7654977645
 20
23.5010047672
 30
0.0
 10
-47.7469957221
 20
23.5492681662
 30
0.0
 10
-47.7273035719
 20
23.5985501355
 30
0.0
 10
-47.7054006291
 20
23.6511230573
 30
0.0
 10
-47.6799347229
 20
23.7095771603
 30
0.0
 10
-47.6501231025
 20
23.7746913535
 30
0.0
 10
-47.6162277004
 20
23.844784729
 30
0.0
 10
-47.5793875378
 20
23.9167579714
 30
0.0
 10
-47.5402334155
 20
23.989070437
 30
0.0
 10
-47.4976931629
 20
24.0634001696
 30
0.0
 10
-47.4508400544
 20
24.1407482659
 30
0.0
 10
-47.399917653
 20
24.2200072033
 30
0.0
 10
-47.346431164
 20
24.2986145562
 30
0.0
 10
-47.2910695351
 20
24.3756431962
 30
0.0
 10
-47.2337259126
 20
24.4513146967
 30
0.0
 10
-47.1745212685
 20
24.5255420148
 30
0.0
 10
-47.1137809967
 20
24.5980643486
 30
0.0
 10
-47.0516252512
 20
24.6687450924
 30
0.0
 10
-46.9881565202
 20
24.7374649467
 30
0.0
 10
-46.9235306385
 20
24.8040239167
 30
0.0
 10
-46.8577697647
 20
24.8684425432
 30
0.0
 10
-46.7906937946
 20
24.9309533083
 30
0.0
 10
-46.7220218125
 20
24.9918461314
 30
0.0
 10
-46.651730388
 20
25.0510930802
 30
0.0
 10
-46.5799034938
 20
25.1085637589
 30
0.0
 10
-46.5058615409
 20
25.1646935051
 30
0.0
 10
-46.4276136059
 20
25.2207840449
 30
0.0
 10
-46.3419473698
 20
25.2786481988
 30
0.0
 10
-46.2458159038
 20
25.33944906
 30
0.0
 10
-46.137240835
 20
25.4031792274
 30
0.0
 10
-46.0151867183
 20
25.4689661809
 30
0.0
 10
-45.8785741154
 20
25.5356375003
 30
0.0
 10
-45.725600037
 20
25.602231554
 30
0.0
 10
-45.5536721318
 20
25.6675295303
 30
0.0
 10
-45.3597637601
 20
25.7296710614
 30
0.0
 10
-45.1408077571
 20
25.7860917078
 30
0.0
 10
-44.8936544052
 20
25.8330461858
 30
0.0
 10
-44.614656394
 20
25.8656420879
 30
0.0
 10
-44.4172728322
 20
25.8727876512
 30
0.0
 10
-44.3129813401
 20
25.8721966364
 30
0.0
 11
-47.9998847788
 21
22.1841221198
 31
0.0
 11
-47.9983079293
 21
22.312312144
 31
0.0
 11
-47.9927416678
 21
22.4337429647
 31
0.0
 11
-47.9837292375
 21
22.5497836609
 31
0.0
 11
-47.9715628525
 21
22.6618476126
 31
0.0
 11
-47.9563057823
 21
22.7714007386
 31
0.0
 11
-47.9384085636
 21
22.8768689962
 31
0.0
 11
-47.9195685423
 21
22.9717972826
 31
0.0
 11
-47.9011356542
 21
23.0540660181
 31
0.0
 11
-47.8829278969
 21
23.1278542442
 31
0.0
 11
-47.8652624054
 21
23.193933183
 31
0.0
 11
-47.8485878633
 21
23.252237601
 31
0.0
 11
-47.8326475516
 21
23.3048453202
 31
0.0
 11
-47.816768131
 21
23.3546120555
 31
0.0
 11
-47.8003093202
 21
23.4037301406
 31
0.0
 11
-47.7831539167
 21
23.4525849318
 31
0.0
 11
-47.7653473399
 21
23.5010632831
 31
0.0
 11
-47.7469763995
 21
23.5489848699
 31
0.0
 11
-47.7276477432
 21
23.5973587622
 31
0.0
 11
-47.7061910949
 21
23.648859733
 31
0.0
 11
-47.6810405877
 21
23.7065871659
 31
0.0
 11
-47.6508516487
 21
23.7725158993
 31
0.0
 11
-47.6163040403
 21
23.8439482949
 31
0.0
 11
-47.5790773264
 21
23.9166707254
 31
0.0
 11
-47.5402727256
 21
23.9883339846
 31
0.0
 11
-47.4988077761
 21
24.0607909626
 31
0.0
 11
-47.451182703
 21
24.1394171217
 31
0.0
 11
-47.3993745542
 21
24.2200680393
 31
0.0
 11
-47.3460478758
 21
24.2984547507
 31
0.0
 11
-47.2908787542
 21
24.3752280726
 31
0.0
 11
-47.2333867708
 21
24.4511099412
 31
0.0
 11
-47.1741201853
 21
24.5254351569
 31
0.0
 11
-47.1134086649
 21
24.5979163553
 31
0.0
 11
-47.051224837
 21
24.6686193194
 31
0.0
 11
-46.9876868797
 21
24.7373966057
 31
0.0
 11
-46.9230276345
 21
24.8039828704
 31
0.0
 11
-46.8574224565
 21
24.8682481382
 31
0.0
 11
-46.7904955244
 21
24.9306227758
 31
0.0
 11
-46.7218715919
 21
24.9914679625
 31
0.0
 11
-46.6514346316
 21
25.0508293521
 31
0.0
 11
-46.5796462061
 21
25.1082560489
 31
0.0
 11
-46.5064179868
 21
25.1637664
 31
0.0
 11
-46.4293030625
 21
25.2190504086
 31
0.0
 11
-46.3447685865
 21
25.2761568832
 31
0.0
 11
-46.2491085134
 21
25.3366656079
 31
0.0
 11
-46.1404706716
 21
25.4004384678
 31
0.0
 11
-46.0185910782
 21
25.466121375
 31
0.0
 11
-45.8825037165
 21
25.5325557072
 31
0.0
 11
-45.7302854827
 21
25.5988243607
 31
0.0
 11
-45.5593027712
 21
25.6637558907
 31
0.0
 11
-45.3663879555
 21
25.725602027
 31
0.0
 11
-45.1484334631
 21
25.7817620923
 31
0.0
 11
-44.9025843931
 21
25.8284804212
 31
0.0
 11
-44.625654062
 21
25.8608233898
 31
0.0
 11
-44.3129813401
 21
25.8721966364
 31
0.0
  0
SPLINE
  5
37C
100
AcDbEntity
  8
RACCORDO
100
AcDbSpline
 62
253
  6
CONTINUOUS
 70
0
 71
3
 72
14
 73
10
 74
8
 42
0.0000001
 43
0.0000001
 44
0.0000000001
 12
-0.0032639829
 22
10.4872670016
 32
0.0
 13
-0.0522086787
 23
10.4871375537
 33
0.0
 40
0.0
 40
0.0
 40
0.0
 40
0.0
 40
0.1818411272
 40
0.3486130203
 40
0.5019032983
 40
0.6430494401
 40
0.7732289383
 40
0.8926488228
 40
1.0
 40
1.0
 40
1.0
 40
1.0
 10
-47.9961816411
 20
11.696862493
 30
0.0
 10
-47.9963794833
 20
12.332534644
 30
0.0
 10
-47.9979377793
 20
13.5511999099
 30
0.0
 10
-47.99840505
 20
15.3057313833
 30
0.0
 10
-47.9980204107
 20
16.9180030765
 30
0.0
 10
-47.9968113799
 20
18.4023561495
 30
0.0
 10
-47.9949886412
 20
19.7683062353
 30
0.0
 10
-47.9957586017
 20
21.0161186585
 30
0.0
 10
-47.9980165578
 20
21.8088532659
 30
0.0
 10
-47.9998847788
 20
22.1841221198
 30
0.0
 11
-47.9961816411
 21
11.696862493
 31
0.0
 11
-47.9976694628
 21
13.6038784579
 31
0.0
 11
-47.9982642276
 21
15.3528598128
 31
0.0
 11
-47.9978496029
 21
16.9604559114
 31
0.0
 11
-47.9966467089
 21
18.4406927695
 31
0.0
 11
-47.9954016218
 21
19.8059194236
 31
0.0
 11
-47.9962751544
 21
21.0583073937
 31
0.0
 11
-47.9998847788
 21
22.1841221198
 31
0.0
  0
SPLINE
  5
37D
100
AcDbEntity
  8
RACCORDO
100
AcDbSpline
 62
253
  6
CONTINUOUS
 70
0
 71
3
 72
51
 73
47
 74
45
 42
0.0000001
 43
0.0000001
 44
0.0000000001
 12
-32.7764520338
 22
-0.8945467615
 32
0.0
 13
-32.788656908
 23
0.0000368298
 33
0.0
 40
0.0
 40
0.0
 40
0.0
 40
0.0
 40
0.0078848653
 40
0.0157191436
 40
0.0234678026
 40
0.0311082374
 40
0.0386245169
 40
0.0460039035
 40
0.0532918541
 40
0.0605730835
 40
0.0678584845
 40
0.0751149666
 40
0.0823561372
 40
0.0896070419
 40
0.0968515217
 40
0.1041124583
 40
0.1115967811
 40
0.1195647791
 40
0.1282616912
 40
0.1378326761
 40
0.1482806582
 40
0.1596081173
 40
0.1718618238
 40
0.1851401786
 40
0.1995348925
 40
0.2151225746
 40
0.2319925075
 40
0.2502553346
 40
0.2700233909
 40
0.2914102504
 40
0.3145262174
 40
0.3394924022
 40
0.366458011
 40
0.3955981405
 40
0.4271052647
 40
0.4611915043
 40
0.4980889237
 40
0.538036307
 40
0.5812808869
 40
0.6280838136
 40
0.6787155012
 40
0.7334440016
 40
0.7925144567
 40
0.8562812056
 40
0.9252499073
 40
1.0
 40
1.0
 40
1.0
 40
1.0
 10
86.25873161
 20
-46.4565458756
 30
0.0
 10
86.1725856404
 20
-46.4588970025
 30
0.0
 10
86.0008449159
 20
-46.4635297124
 30
0.0
 10
85.7444387777
 20
-46.470194731
 30
0.0
 10
85.4906878425
 20
-46.4761679165
 30
0.0
 10
85.240406289
 20
-46.4818241423
 30
0.0
 10
84.9941637057
 20
-46.4875656697
 30
0.0
 10
84.7517715954
 20
-46.4931745906
 30
0.0
 10
84.5119450316
 20
-46.498604761
 30
0.0
 10
84.273139758
 20
-46.5037570991
 30
0.0
 10
84.0346700761
 20
-46.5085091579
 30
0.0
 10
83.7966276044
 20
-46.5126926531
 30
0.0
 10
83.558951059
 20
-46.5162097111
 30
0.0
 10
83.3213933452
 20
-46.5187438313
 30
0.0
 10
83.0836164355
 20
-46.5209129958
 30
0.0
 10
82.8432881079
 20
-46.5230715041
 30
0.0
 10
82.5950514893
 20
-46.5251992315
 30
0.0
 10
82.3311203724
 20
-46.5274016404
 30
0.0
 10
82.0443834174
 20
-46.529752028
 30
0.0
 10
81.7305423489
 20
-46.5323349979
 30
0.0
 10
81.3879520235
 20
-46.5352145014
 30
0.0
 10
81.0160444616
 20
-46.5386435835
 30
0.0
 10
80.6132009872
 20
-46.5420763952
 30
0.0
 10
80.1768317873
 20
-46.5453990364
 30
0.0
 10
79.704021178
 20
-46.5484941815
 30
0.0
 10
79.1919531383
 20
-46.5511946348
 30
0.0
 10
78.6376051415
 20
-46.5532756969
 30
0.0
 10
78.0375656331
 20
-46.5548119845
 30
0.0
 10
77.3881567418
 20
-46.5556884335
 30
0.0
 10
76.6857046609
 20
-46.5558558953
 30
0.0
 10
75.9264395743
 20
-46.5553062424
 30
0.0
 10
75.1062019737
 20
-46.5541110214
 30
0.0
 10
74.2201237287
 20
-46.5524364682
 30
0.0
 10
73.2625558093
 20
-46.5507720085
 30
0.0
 10
72.2271624334
 20
-46.5491305867
 30
0.0
 10
71.106985048
 20
-46.5476308543
 30
0.0
 10
69.8945589932
 20
-46.5464144735
 30
0.0
 10
68.5820359331
 20
-46.545730936
 30
0.0
 10
67.1612499501
 20
-46.5456082471
 30
0.0
 10
65.6236893767
 20
-46.5460737252
 30
0.0
 10
63.9606149538
 20
-46.547101554
 30
0.0
 10
62.1634622582
 20
-46.5485977225
 30
0.0
 10
60.2227493827
 20
-46.5503338157
 30
0.0
 10
58.1263974251
 20
-46.5520794286
 30
0.0
 10
55.8586737769
 20
-46.5535357134
 30
0.0
 10
54.2878916876
 20
-46.5539821712
 30
0.0
 10
53.4709066398
 20
-46.5539812536
 30
0.0
 11
86.25873161
 21
-46.4565458756
 31
0.0
 11
86.0002910721
 21
-46.4635022589
 31
0.0
 11
85.7435006976
 21
-46.4701134868
 31
0.0
 11
85.4895044342
 21
-46.4761556951
 31
0.0
 11
85.2390503604
 21
-46.4818849638
 31
0.0
 11
84.9926677672
 21
-46.4875932278
 31
0.0
 11
84.750772042
 21
-46.4931775258
 31
0.0
 11
84.5118706453
 21
-46.4985639563
 31
0.0
 11
84.2731839627
 21
-46.5036905959
 31
0.0
 11
84.0343523031
 21
-46.5084216488
 31
0.0
 11
83.7964584391
 21
-46.5125854031
 31
0.0
 11
83.559055383
 21
-46.5160448453
 31
0.0
 11
83.3213225994
 21
-46.5186833534
 31
0.0
 11
83.0837962324
 21
-46.5209057725
 31
0.0
 11
82.8457293816
 21
-46.5230335512
 31
0.0
 11
82.6003375744
 21
-46.5251449397
 31
0.0
 11
82.3390867481
 21
-46.5273290175
 31
0.0
 11
82.0539363333
 21
-46.5296752235
 31
0.0
 11
81.7401272805
 21
-46.5322648594
 31
0.0
 11
81.3975643693
 21
-46.5351783694
 31
0.0
 11
81.0261671288
 21
-46.5385086934
 31
0.0
 11
80.6243990552
 21
-46.5419226639
 31
0.0
 11
80.1890322106
 21
-46.5452317678
 31
0.0
 11
79.717058931
 21
-46.5483127062
 31
0.0
 11
79.205966817
 21
-46.5509964062
 31
0.0
 11
78.6528284246
 21
-46.5531128578
 31
0.0
 11
78.0540168356
 21
-46.5546538161
 31
0.0
 11
77.4058494384
 21
-46.5555492347
 31
0.0
 11
76.7046030674
 21
-46.5557432889
 31
0.0
 11
75.946661729
 21
-46.555231821
 31
0.0
 11
75.1280548626
 21
-46.5540861046
 31
0.0
 11
74.2438901851
 21
-46.5525028618
 31
0.0
 11
73.2884259236
 21
-46.550840375
 31
0.0
 11
72.2553509146
 21
-46.5492160439
 31
0.0
 11
71.1377098826
 21
-46.5477320226
 31
0.0
 11
69.9278936457
 21
-46.5465413411
 31
0.0
 11
68.6180727868
 21
-46.5458407819
 31
0.0
 11
67.2001411
 21
-46.5456999226
 31
0.0
 11
65.6655360549
 21
-46.546138529
 31
0.0
 11
64.0053913201
 21
-46.5471309212
 31
0.0
 11
62.2109178787
 21
-46.5485760625
 31
0.0
 11
60.2740777342
 21
-46.5502686895
 31
0.0
 11
58.1832523715
 21
-46.5519683
 31
0.0
 11
55.9218617058
 21
-46.5533656507
 31
0.0
 11
53.4709066398
 21
-46.5539812536
 31
0.0
  0
SPLINE
  5
37E
100
AcDbEntity
  8
RACCORDO
100
AcDbSpline
 62
253
  6
CONTINUOUS
 70
0
 71
3
 72
49
 73
45
 74
43
 42
0.0000001
 43
0.0000001
 44
0.0000000001
 12
-14.2836688787
 22
0.0815106379
 32
0.0
 13
-14.2839004883
 23
-0.0052402455
 33
0.0
 40
0.0
 40
0.0
 40
0.0
 40
0.0
 40
0.0082074108
 40
0.0166329208
 40
0.0250855685
 40
0.0334765019
 40
0.0418279542
 40
0.0501674267
 40
0.0585010234
 40
0.0668025321
 40
0.0750825547
 40
0.0833631054
 40
0.0916559105
 40
0.0999350928
 40
0.1082101326
 40
0.1167013407
 40
0.1257053246
 40
0.1355057208
 40
0.1462649206
 40
0.1579581968
 40
0.1705605195
 40
0.1841195403
 40
0.1987423247
 40
0.2145307762
 40
0.2315748152
 40
0.2499749646
 40
0.2698403423
 40
0.2912934379
 40
0.3144668157
 40
0.3395055645
 40
0.3665671377
 40
0.395819588
 40
0.4274456084
 40
0.4616430417
 40
0.4986252755
 40
0.5386188528
 40
0.5818620673
 40
0.628600129
 40
0.679069712
 40
0.7335044746
 40
0.7923128431
 40
0.855977148
 40
0.9250166494
 40
1.0
 40
1.0
 40
1.0
 40
1.0
 10
67.7547920333
 20
-25.9784719007
 30
0.0
 10
67.7157147204
 20
-25.9782489037
 30
0.0
 10
67.6365214624
 20
-25.9778329989
 30
0.0
 10
67.5170825248
 20
-25.9773402763
 30
0.0
 10
67.3967693685
 20
-25.9769630846
 30
0.0
 10
67.2768086446
 20
-25.9766522398
 30
0.0
 10
67.1573866982
 20
-25.9763759728
 30
0.0
 10
67.0382376461
 20
-25.9761482004
 30
0.0
 10
66.9193263044
 20
-25.9759708569
 30
0.0
 10
66.8006979526
 20
-25.9758488585
 30
0.0
 10
66.68232213
 20
-25.9757745998
 30
0.0
 10
66.5639877294
 20
-25.9757432123
 30
0.0
 10
66.445657326
 20
-25.9757495832
 30
0.0
 10
66.3273531689
 20
-25.9757909822
 30
0.0
 10
66.2081043721
 20
-25.975866262
 30
0.0
 10
66.0854046037
 20
-25.9759775498
 30
0.0
 10
65.9554421955
 20
-25.9761308726
 30
0.0
 10
65.8146812543
 20
-25.9763348648
 30
0.0
 10
65.6611158697
 20
-25.9766028272
 30
0.0
 10
65.4942097893
 20
-25.9769458363
 30
0.0
 10
65.3139730697
 20
-25.9773713119
 30
0.0
 10
65.1197882704
 20
-25.9778892239
 30
0.0
 10
64.9104335725
 20
-25.9785066018
 30
0.0
 10
64.6844859679
 20
-25.9792491961
 30
0.0
 10
64.4405531293
 20
-25.9800002658
 30
0.0
 10
64.1772087687
 20
-25.9807631151
 30
0.0
 10
63.8928714858
 20
-25.9815272867
 30
0.0
 10
63.5858073344
 20
-25.9822842268
 30
0.0
 10
63.2541110948
 20
-25.9830216502
 30
0.0
 10
62.895711078
 20
-25.9837251721
 30
0.0
 10
62.5083666219
 20
-25.9843745756
 30
0.0
 10
62.0896580248
 20
-25.984941455
 30
0.0
 10
61.6369733157
 20
-25.9854133268
 30
0.0
 10
61.1474846726
 20
-25.9857748115
 30
0.0
 10
60.6181554984
 20
-25.986015686
 30
0.0
 10
60.0457565993
 20
-25.9861275638
 30
0.0
 10
59.4269072634
 20
-25.9861190464
 30
0.0
 10
58.7581785267
 20
-25.9860176025
 30
0.0
 10
58.0361634737
 20
-25.9858774748
 30
0.0
 10
57.2566780507
 20
-25.9857940133
 30
0.0
 10
56.4143685845
 20
-25.9858850509
 30
0.0
 10
55.5025216283
 20
-25.9861839617
 30
0.0
 10
54.5136606604
 20
-25.986410808
 30
0.0
 10
53.8279248576
 20
-25.9871009317
 30
0.0
 10
53.4709066183
 20
-25.9872319088
 30
0.0
 11
67.7547920333
 21
-25.9784719007
 31
0.0
 11
67.6375597818
 21
-25.977860173
 31
0.0
 11
67.517211665
 21
-25.9773606392
 31
0.0
 11
67.3964754999
 21
-25.9769731474
 31
0.0
 11
67.2766206502
 21
-25.9766573161
 31
0.0
 11
67.1573296419
 21
-25.9763838333
 31
0.0
 11
67.0382096552
 21
-25.9761564935
 31
0.0
 11
66.9191735127
 21
-25.975979832
 31
0.0
 11
66.800595644
 21
-25.9758566904
 31
0.0
 11
66.6823246418
 21
-25.9757817382
 31
0.0
 11
66.5640460754
 21
-25.9757495132
 31
0.0
 11
66.4455924649
 21
-25.9757554371
 31
0.0
 11
66.3273334482
 21
-25.9757965358
 31
0.0
 11
66.2091336181
 21
-25.9758709737
 31
0.0
 11
66.0878460882
 21
-25.9759806874
 31
0.0
 11
65.9592341581
 21
-25.9761319304
 31
0.0
 11
65.8192464125
 21
-25.9763348269
 31
0.0
 11
65.6655632959
 21
-25.9766026806
 31
0.0
 11
65.4985380417
 21
-25.9769451287
 31
0.0
 11
65.3185282064
 21
-25.9773694169
 31
0.0
 11
65.1248531752
 21
-25.9778844696
 31
0.0
 11
64.9159836756
 21
-25.9785015374
 31
0.0
 11
64.6904641409
 21
-25.9792220447
 31
0.0
 11
64.447009927
 21
-25.9799732742
 31
0.0
 11
64.1841851068
 21
-25.9807340924
 31
0.0
 11
63.9004310346
 21
-25.9814968534
 31
0.0
 11
63.5939980616
 21
-25.9822521578
 31
0.0
 11
63.2629926362
 21
-25.9829881036
 31
0.0
 11
62.9053423044
 21
-25.9836898575
 31
0.0
 11
62.5187980013
 21
-25.9843371074
 31
0.0
 11
62.1009592698
 21
-25.9849053081
 31
0.0
 11
61.6492165598
 21
-25.9853785784
 31
0.0
 11
61.1607439276
 21
-25.9857428471
 31
0.0
 11
60.6324934017
 21
-25.9859871998
 31
0.0
 11
60.0612290969
 21
-25.9861053976
 31
0.0
 11
59.4435472824
 21
-25.9861056271
 31
0.0
 11
58.7759454216
 21
-25.986015763
 31
0.0
 11
58.0550428832
 21
-25.9858911975
 31
0.0
 11
57.2775021018
 21
-25.9858230479
 31
0.0
 11
56.4374891654
 21
-25.9859120945
 31
0.0
 11
55.5281145429
 21
-25.9861612615
 31
0.0
 11
54.5419611761
 21
-25.9865267517
 31
0.0
 11
53.4709066183
 21
-25.9872319088
 31
0.0
  0
SPLINE
  5
37F
100
AcDbEntity
  8
RACCORDO
100
AcDbSpline
 62
253
  6
CONTINUOUS
 70
0
 71
3
 72
61
 73
57
 74
55
 42
0.0000001
 43
0.0000001
 44
0.0000000001
 12
0.0290597174
 22
-5.8037781181
 32
0.0
 13
-5.8037563811
 23
0.033117688
 33
0.0
 40
0.0
 40
0.0
 40
0.0
 40
0.0
 40
0.0201687054
 40
0.0398962804
 40
0.0592943201
 40
0.078467066
 40
0.0970073614
 40
0.1138368998
 40
0.1284094975
 40
0.141016806
 40
0.1520921365
 40
0.162049202
 40
0.1712698997
 40
0.180133166
 40
0.1889260956
 40
0.1977272416
 40
0.2065468876
 40
0.2153614493
 40
0.2243112407
 40
0.2337985386
 40
0.2442947813
 40
0.2561758828
 40
0.2693459412
 40
0.2834967586
 40
0.2984405007
 40
0.3141220784
 40
0.330778064
 40
0.3488042047
 40
0.3684169234
 40
0.3897523008
 40
0.4129516367
 40
0.4381403447
 40
0.465671671
 40
0.4961865463
 40
0.5294904721
 40
0.5631712564
 40
0.5948293844
 40
0.6231656117
 40
0.6481218838
 40
0.6705958038
 40
0.6907962019
 40
0.7088745061
 40
0.7257073413
 40
0.742321646
 40
0.759137264
 40
0.7760626918
 40
0.7928937105
 40
0.8095398135
 40
0.8265242931
 40
0.8448518852
 40
0.8652357822
 40
0.887606704
 40
0.9119128335
 40
0.9384939092
 40
0.9677070997
 40
1.0
 40
1.0
 40
1.0
 40
1.0
 10
71.4416941226
 20
-22.2903960023
 30
0.0
 10
71.4418894883
 20
-22.3294142327
 30
0.0
 10
71.4410503013
 20
-22.4066089229
 30
0.0
 10
71.4362435348
 20
-22.5212369235
 30
0.0
 10
71.4281080683
 20
-22.6337452015
 30
0.0
 10
71.4168636395
 20
-22.7436760043
 30
0.0
 10
71.4030208396
 20
-22.848298402
 30
0.0
 10
71.387668243
 20
-22.9437020217
 30
0.0
 10
71.3720451419
 20
-23.027405483
 30
0.0
 10
71.3569061071
 20
-23.099854708
 30
0.0
 10
71.342415846
 20
-23.1633042983
 30
0.0
 10
71.3284534689
 20
-23.2201450193
 30
0.0
 10
71.3147305529
 20
-23.2726311867
 30
0.0
 10
71.3008716117
 20
-23.3227484116
 30
0.0
 10
71.2865501654
 20
-23.3718905377
 30
0.0
 10
71.2715733922
 20
-23.4207486827
 30
0.0
 10
71.2559020765
 20
-23.4694325497
 30
0.0
 10
71.2394428603
 20
-23.5181593766
 30
0.0
 10
71.2218590914
 20
-23.5678640994
 30
0.0
 10
71.2024098204
 20
-23.6203536682
 30
0.0
 10
71.1800812688
 20
-23.677816653
 30
0.0
 10
71.1540448112
 20
-23.7414723773
 30
0.0
 10
71.1239551487
 20
-23.8110946871
 30
0.0
 10
71.08989783
 20
-23.8854377583
 30
0.0
 10
71.0519786866
 20
-23.9633315922
 30
0.0
 10
71.0098896735
 20
-24.044555682
 30
0.0
 10
70.9627598623
 20
-24.1298473463
 30
0.0
 10
70.9093342076
 20
-24.2203032005
 30
0.0
 10
70.8483139575
 20
-24.3167297817
 30
0.0
 10
70.7784952911
 20
-24.4193565933
 30
0.0
 10
70.6987654508
 20
-24.5281954204
 30
0.0
 10
70.6076040835
 20
-24.6433990721
 30
0.0
 10
70.5028936882
 20
-24.7657911042
 30
0.0
 10
70.3821493043
 20
-24.8949287675
 30
0.0
 10
70.2465775515
 20
-25.0261999937
 30
0.0
 10
70.1025775925
 20
-25.1515688246
 30
0.0
 10
69.9597812009
 20
-25.2632898259
 30
0.0
 10
69.8253958747
 20
-25.3580019984
 30
0.0
 10
69.7019958599
 20
-25.4371815759
 30
0.0
 10
69.5892327844
 20
-25.5035956289
 30
0.0
 10
69.4859648906
 20
-25.5597613874
 30
0.0
 10
69.3907641598
 20
-25.6078007213
 30
0.0
 10
69.3005381753
 20
-25.6502053552
 30
0.0
 10
69.2114527599
 20
-25.6892110423
 30
0.0
 10
69.1211999
 20
-25.7259121111
 30
0.0
 10
69.0296121128
 20
-25.7603528651
 30
0.0
 10
68.9374402875
 20
-25.7922082231
 30
0.0
 10
68.8443464422
 20
-25.8216390106
 30
0.0
 10
68.7477166635
 20
-25.8493732419
 30
0.0
 10
68.6433520853
 20
-25.8762311485
 30
0.0
 10
68.5280481504
 20
-25.9021960296
 30
0.0
 10
68.4005694928
 20
-25.9264424504
 30
0.0
 10
68.2604271653
 20
-25.9478016975
 30
0.0
 10
68.1063765113
 20
-25.9650152244
 30
0.0
 10
67.9362943069
 20
-25.9765164871
 30
0.0
 10
67.8172654087
 20
-25.9788283895
 30
0.0
 10
67.7547920333
 20
-25.9784719007
 30
0.0
 11
71.4416941226
 21
-22.2903960023
 31
0.0
 11
71.4404289449
 21
-22.4074453235
 31
0.0
 11
71.4356351022
 21
-22.5218408258
 31
0.0
 11
71.4275172562
 21
-22.6341311044
 31
0.0
 11
71.4161843984
 21
-22.7448282616
 31
0.0
 11
71.4020656639
 21
-22.8515030989
 31
0.0
 11
71.3865452198
 21
-22.9479382707
 31
0.0
 11
71.3710291421
 21
-23.0310800255
 31
0.0
 11
71.356064871
 21
-23.1027044405
 31
0.0
 11
71.3417546999
 21
-23.1653708724
 31
0.0
 11
71.327969552
 21
-23.2214919518
 31
0.0
 11
71.3144321785
 21
-23.2732669856
 31
0.0
 11
71.3007211827
 21
-23.3228471516
 31
0.0
 11
71.2864416589
 21
-23.3718415103
 31
0.0
 11
71.2714704256
 21
-23.420678828
 31
0.0
 11
71.2557829475
 21
-23.4694036182
 31
0.0
 11
71.2394124457
 21
-23.5178720486
 31
0.0
 11
71.2220887278
 21
-23.5668413294
 31
0.0
 11
71.2029595784
 21
-23.6184745981
 31
0.0
 11
71.1808955537
 21
-23.6752571484
 31
0.0
 11
71.1547910502
 21
-23.7390811585
 31
0.0
 11
71.1244650558
 21
-23.8092449485
 31
0.0
 11
71.0902542552
 21
-23.8839097474
 31
0.0
 11
71.0522876294
 21
-23.9618895215
 31
0.0
 11
71.0104102608
 21
-24.0426963911
 31
0.0
 11
70.963656471
 21
-24.1273069749
 31
0.0
 11
70.9104576683
 21
-24.2173927554
 31
0.0
 11
70.8495917827
 21
-24.3135824233
 31
0.0
 11
70.7799607861
 21
-24.4159774266
 31
0.0
 11
70.700403554
 21
-24.5246054785
 31
0.0
 11
70.6097280914
 21
-24.6392785642
 31
0.0
 11
70.5058143712
 21
-24.7606624658
 31
0.0
 11
70.3848332851
 21
-24.8900043679
 31
0.0
 11
70.2459536459
 21
-25.0244434385
 31
0.0
 11
70.0985038992
 21
-25.1527801763
 31
0.0
 11
69.9537560641
 21
-25.265953071
 31
0.0
 11
69.8193444173
 21
-25.3607177794
 31
0.0
 11
69.6974453795
 21
-25.4389480103
 31
0.0
 11
69.5850577361
 21
-25.5051475561
 31
0.0
 11
69.4820634128
 21
-25.5611601444
 31
0.0
 11
69.3883910623
 21
-25.608430544
 31
0.0
 11
69.2999750804
 21
-25.6499874799
 31
0.0
 11
69.2116450424
 21
-25.6886651287
 31
0.0
 11
69.1212398661
 21
-25.7254313393
 31
0.0
 11
69.029291109
 21
-25.7600012889
 31
0.0
 11
68.9369656233
 21
-25.7919122543
 31
0.0
 11
68.8448478004
 21
-25.8210342135
 31
0.0
 11
68.7500996267
 21
-25.848235139
 31
0.0
 11
68.6470850517
 21
-25.8747437097
 31
0.0
 11
68.5316701579
 21
-25.9007340662
 31
0.0
 11
68.4041189371
 21
-25.9249922778
 31
0.0
 11
68.264660401
 21
-25.946248383
 31
0.0
 11
68.1113421482
 21
-25.9633816348
 31
0.0
 11
67.9421797124
 21
-25.9748242799
 31
0.0
 11
67.7547920333
 21
-25.9784719007
 31
0.0
  0
SPLINE
  5
380
100
AcDbEntity
  8
RACCORDO
100
AcDbSpline
 62
253
  6
CONTINUOUS
 70
0
 71
3
 72
14
 73
10
 74
8
 42
0.0000001
 43
0.0000001
 44
0.0000000001
 12
0.0032567992
 22
-10.4872659765
 32
0.0
 13
0.0521555302
 23
-10.4871367909
 33
0.0
 40
0.0
 40
0.0
 40
0.0
 40
0.0
 40
0.1817308163
 40
0.348435714
 40
0.501699966
 40
0.6428596964
 40
0.7730725661
 40
0.8925671135
 40
1.0
 40
1.0
 40
1.0
 40
1.0
 10
71.4379949188
 20
-11.8031373146
 30
0.0
 10
71.4381922057
 20
-12.4384237834
 30
0.0
 10
71.4397572465
 20
-13.6564690933
 30
0.0
 10
71.4402618456
 20
-15.4102896132
 30
0.0
 10
71.4397266134
 20
-17.0222834293
 30
0.0
 10
71.4385412699
 20
-18.5067095322
 30
0.0
 10
71.4368308022
 20
-19.8730847636
 30
0.0
 10
71.4375814522
 20
-21.1215603113
 30
0.0
 10
71.4398263829
 20
-21.9148415436
 30
0.0
 10
71.4416941226
 20
-22.2903960023
 30
0.0
 11
71.4379949188
 21
-11.8031373146
 31
0.0
 11
71.4394943356
 21
-13.7089962231
 31
0.0
 11
71.4400871971
 21
-15.4572748084
 31
0.0
 11
71.4395824598
 21
-17.0645977823
 31
0.0
 11
71.438394356
 21
-18.5449770146
 31
0.0
 11
71.4372237553
 21
-19.9105535769
 31
0.0
 11
71.4380970297
 21
-21.1637244351
 31
0.0
 11
71.4416941226
 21
-22.2903960023
 31
0.0
  0
SPLINE
  5
381
100
AcDbEntity
  8
RACCORDO
100
AcDbSpline
 62
253
  6
CONTINUOUS
 70
0
 71
3
 72
53
 73
49
 74
47
 42
0.0000001
 43
0.0000001
 44
0.0000000001
 12
-0.0000949536
 22
-32.7948668203
 32
0.0
 13
-1.0063141272
 23
-32.7794237541
 33
0.0
 40
0.0
 40
0.0
 40
0.0
 40
0.0
 40
0.0762647213
 40
0.1463789233
 40
0.2109049062
 40
0.270335325
 40
0.3250631774
 40
0.3754844811
 40
0.4219753413
 40
0.4648731434
 40
0.5044805704
 40
0.5410729538
 40
0.5748995714
 40
0.6061651404
 40
0.6350413293
 40
0.6616881761
 40
0.6862711334
 40
0.7089601622
 40
0.7299143335
 40
0.7492762832
 40
0.7671740461
 40
0.7837322942
 40
0.7990625897
 40
0.8132469633
 40
0.8263633112
 40
0.8385051951
 40
0.8497517894
 40
0.8601217784
 40
0.8695937409
 40
0.8782186588
 40
0.8861990497
 40
0.8938111133
 40
0.9013177432
 40
0.9088324806
 40
0.9162999052
 40
0.9236872796
 40
0.9310307543
 40
0.9383726687
 40
0.9457536113
 40
0.9531463425
 40
0.9604306729
 40
0.9674991364
 40
0.9742560566
 40
0.9806042417
 40
0.9864463758
 40
0.9916882822
 40
0.9962373723
 40
1.0
 40
1.0
 40
1.0
 40
1.0
 10
88.2668397873
 20
-11.8031373441
 30
0.0
 10
88.2668373734
 20
-12.6368344704
 30
0.0
 10
88.2656011328
 20
-14.2369936621
 30
0.0
 10
88.2616276811
 20
-16.5425229727
 30
0.0
 10
88.2582995342
 20
-18.6640270393
 30
0.0
 10
88.2575905987
 20
-20.6173364524
 30
0.0
 10
88.2597179908
 20
-22.4164574287
 30
0.0
 10
88.2631297991
 20
-24.0741253858
 30
0.0
 10
88.2670427586
 20
-25.6024701414
 30
0.0
 10
88.270824649
 20
-27.0126015905
 30
0.0
 10
88.27407754
 20
-28.3145276483
 30
0.0
 10
88.2765131778
 20
-29.5172926495
 30
0.0
 10
88.2776090976
 20
-30.6288696775
 30
0.0
 10
88.2773188211
 20
-31.6560967449
 30
0.0
 10
88.2756828001
 20
-32.6048359179
 30
0.0
 10
88.2729859982
 20
-33.4805204098
 30
0.0
 10
88.2697284833
 20
-34.288566716
 30
0.0
 10
88.2660092773
 20
-35.0343801296
 30
0.0
 10
88.2619960231
 20
-35.7231170093
 30
0.0
 10
88.2577952438
 20
-36.3594753903
 30
0.0
 10
88.2535557008
 20
-36.9477777465
 30
0.0
 10
88.2491955539
 20
-37.4920055489
 30
0.0
 10
88.244311981
 20
-37.995633807
 30
0.0
 10
88.2392275976
 20
-38.4616323209
 30
0.0
 10
88.234079883
 20
-38.8927733429
 30
0.0
 10
88.2289088261
 20
-39.2917968357
 30
0.0
 10
88.2240648597
 20
-39.6607998502
 30
0.0
 10
88.2196336169
 20
-40.0006192014
 30
0.0
 10
88.2155363215
 20
-40.3117812911
 30
0.0
 10
88.2117161709
 20
-40.5968225798
 30
0.0
 10
88.2080425775
 20
-40.861532266
 30
0.0
 10
88.2044452068
 20
-41.1140171086
 30
0.0
 10
88.2008499779
 20
-41.361411106
 30
0.0
 10
88.1971550259
 20
-41.6072223436
 30
0.0
 10
88.1938363352
 20
-41.8517352466
 30
0.0
 10
88.1908044404
 20
-42.0943794163
 30
0.0
 10
88.1879308733
 20
-42.3356536206
 30
0.0
 10
88.1853972611
 20
-42.5768606061
 30
0.0
 10
88.1821888669
 20
-42.818601244
 30
0.0
 10
88.176356555
 20
-43.0596642927
 30
0.0
 10
88.1691568696
 20
-43.2972696159
 30
0.0
 10
88.1612569396
 20
-43.527898169
 30
0.0
 10
88.1533302874
 20
-43.748285468
 30
0.0
 10
88.1461219451
 20
-43.9552841287
 30
0.0
 10
88.1397129372
 20
-44.1457388649
 30
0.0
 10
88.1341409381
 20
-44.3165435106
 30
0.0
 10
88.1294409136
 20
-44.4646320604
 30
0.0
 10
88.1266241533
 20
-44.5554489553
 30
0.0
 10
88.1253620249
 20
-44.596561211
 30
0.0
 11
88.2668397873
 21
-11.8031373441
 31
0.0
 11
88.2651361661
 21
-14.3042281429
 31
0.0
 11
88.2615841359
 21
-16.6036113166
 31
0.0
 11
88.2586549104
 21
-18.7197303043
 31
0.0
 11
88.2580946217
 21
-20.668742892
 31
0.0
 11
88.2600463468
 21
-22.4635344633
 31
0.0
 11
88.2633622071
 21
-24.117091078
 31
0.0
 11
88.2671754832
 21
-25.6417478775
 31
0.0
 11
88.2708763945
 21
-27.0485707174
 31
0.0
 11
88.2740533301
 21
-28.3474871243
 31
0.0
 11
88.2763584103
 21
-29.5475272512
 31
0.0
 11
88.2773929397
 21
-30.6568661865
 31
0.0
 11
88.277055254
 21
-31.6822163041
 31
0.0
 11
88.2754182901
 21
-32.6292056587
 31
0.0
 11
88.2727723236
 21
-33.5030814437
 31
0.0
 11
88.2695115035
 21
-34.3092696598
 31
0.0
 11
88.2658063716
 21
-35.0533441124
 31
0.0
 11
88.261802424
 21
-35.740521707
 31
0.0
 11
88.2576230354
 21
-36.3754805127
 31
0.0
 11
88.253368353
 21
-36.9624198439
 31
0.0
 11
88.2489296447
 21
-37.5054272432
 31
0.0
 11
88.2440848652
 21
-38.0081588986
 31
0.0
 11
88.2390173359
 21
-38.4733059374
 31
0.0
 11
88.2338768103
 21
-38.9034241032
 31
0.0
 11
88.2287704389
 21
-39.3015828264
 31
0.0
 11
88.2239446513
 21
-39.6703818159
 31
0.0
 11
88.2194980504
 21
-40.0104351545
 31
0.0
 11
88.2154017059
 21
-40.3210398926
 31
0.0
 11
88.2115984612
 21
-40.6038673563
 31
0.0
 11
88.2079701874
 21
-40.8655580603
 31
0.0
 11
88.2044168697
 21
-41.1151693807
 31
0.0
 11
88.2008307988
 21
-41.3613221883
 31
0.0
 11
88.1972073502
 21
-41.6077403636
 31
0.0
 11
88.193868661
 21
-41.8526107989
 31
0.0
 11
88.190822141
 21
-42.094859602
 31
0.0
 11
88.1879871038
 21
-42.3356711888
 31
0.0
 11
88.1852909686
 21
-42.5764332002
 31
0.0
 11
88.1817505295
 21
-42.8184643356
 31
0.0
 11
88.1760795982
 21
-43.0608416385
 31
0.0
 11
88.1689258983
 21
-43.2996231471
 31
0.0
 11
88.1610728044
 21
-43.531299408
 31
0.0
 11
88.1532131635
 21
-43.752752275
 31
0.0
 11
88.1459717035
 21
-43.960814179
 31
0.0
 11
88.1395268429
 21
-44.1522977625
 31
0.0
 11
88.1339210846
 21
-44.3241139607
 31
0.0
 11
88.129187815
 21
-44.47322566
 31
0.0
 11
88.1253620249
 21
-44.596561211
 31
0.0
  0
SPLINE
  5
382
100
AcDbEntity
  8
RACCORDO
100
AcDbSpline
 62
253
  6
CONTINUOUS
 70
0
 71
3
 72
18
 73
14
 74
12
 42
0.0000001
 43
0.0000001
 44
0.0000000001
 12
-0.0890185473
 22
-2.894828559
 32
0.0
 13
-2.8951148309
 23
-0.0791631462
 33
0.0
 40
0.0
 40
0.0
 40
0.0
 40
0.0
 40
0.0895442596
 40
0.1800712668
 40
0.2709983844
 40
0.362240584
 40
0.4537380864
 40
0.5453422242
 40
0.6369431036
 40
0.7283078953
 40
0.819457636
 40
0.9102689815
 40
1.0
 40
1.0
 40
1.0
 40
1.0
 10
88.1253620249
 20
-44.596561211
 30
0.0
 10
88.1227049916
 20
-44.6829663043
 30
0.0
 10
88.1047699849
 20
-44.8565710412
 30
0.0
 10
88.0418726765
 20
-45.1113184393
 30
0.0
 10
87.9444778729
 20
-45.3567857163
 30
0.0
 10
87.8140797892
 20
-45.58750733
 30
0.0
 10
87.6531053135
 20
-45.7988581421
 30
0.0
 10
87.4647094236
 20
-45.9866648658
 30
0.0
 10
87.2526867825
 20
-46.1471146877
 30
0.0
 10
87.0212108837
 20
-46.2770525277
 30
0.0
 10
86.7749549579
 20
-46.3740754952
 30
0.0
 10
86.5194541798
 20
-46.4367466304
 30
0.0
 10
86.3453254775
 20
-46.4541780791
 30
0.0
 10
86.25873161
 20
-46.4565458756
 30
0.0
 11
88.1253620249
 21
-44.596561211
 31
0.0
 11
88.0989681449
 21
-44.8545524179
 31
0.0
 11
88.0363173665
 21
-45.1091410102
 31
0.0
 11
87.9391746227
 21
-45.3539117975
 31
0.0
 11
87.80917751
 21
-45.5839806045
 31
0.0
 11
87.6486388303
 21
-45.7948112687
 31
0.0
 11
87.4607506647
 21
-45.9821186355
 31
0.0
 11
87.2491912406
 21
-46.142192416
 31
0.0
 11
87.0184445463
 21
-46.271709375
 31
0.0
 11
86.772849046
 21
-46.3685200302
 31
0.0
 11
86.5173387808
 21
-46.4308696151
 31
0.0
 11
86.25873161
 21
-46.4565458756
 31
0.0
  0
SPLINE
  5
383
100
AcDbEntity
  8
RACCORDO
100
AcDbSpline
 62
253
  6
CONTINUOUS
 70
0
 71
3
 72
51
 73
47
 74
45
 42
0.0000001
 43
0.0000001
 44
0.0000000001
 12
-32.7886569116
 22
-0.0000367672
 32
0.0
 13
-32.7764520896
 23
0.894544848
 33
0.0
 40
0.0
 40
0.0
 40
0.0
 40
0.0
 40
0.0755718435
 40
0.1452132938
 40
0.2094396332
 40
0.2687062879
 40
0.3234240931
 40
0.3739660752
 40
0.4206700425
 40
0.4638253094
 40
0.503692536
 40
0.5405182946
 40
0.574539843
 40
0.6059834221
 40
0.6350551567
 40
0.6619444272
 40
0.6868281809
 40
0.7098597571
 40
0.7311656575
 40
0.7508592602
 40
0.7690545181
 40
0.7858631675
 40
0.8013956054
 40
0.8157390419
 40
0.8289697951
 40
0.8411820384
 40
0.8524748298
 40
0.8628883211
 40
0.872418271
 40
0.881066803
 40
0.8889939926
 40
0.8964531854
 40
0.9037119349
 40
0.9109682312
 40
0.9182360517
 40
0.9254955303
 40
0.9327580327
 40
0.9400340361
 40
0.9473190511
 40
0.9546145757
 40
0.9619329955
 40
0.9693041651
 40
0.9767678229
 40
0.9843604088
 40
0.992101303
 40
1.0
 40
1.0
 40
1.0
 40
1.0
 10
-30.0290933602
 20
-46.5539812536
 30
0.0
 10
-30.8550597765
 20
-46.5539821798
 30
0.0
 10
-32.4421760758
 20
-46.5535261001
 30
0.0
 10
-34.7312570402
 20
-46.5520450574
 30
0.0
 10
-36.8421293205
 20
-46.550280124
 30
0.0
 10
-38.7898927897
 20
-46.5485367169
 30
0.0
 10
-40.5880925342
 20
-46.547050014
 30
0.0
 10
-42.2489880529
 20
-46.5460422029
 30
0.0
 10
-43.7835104601
 20
-46.5456011884
 30
0.0
 10
-45.2013626308
 20
-46.5457493829
 30
0.0
 10
-46.5112502285
 20
-46.546459862
 30
0.0
 10
-47.7213099166
 20
-46.5476982535
 30
0.0
 10
-48.8393024969
 20
-46.5492105057
 30
0.0
 10
-49.8725467687
 20
-46.5508584909
 30
0.0
 10
-50.8278382856
 20
-46.5525281654
 30
0.0
 10
-51.7114337414
 20
-46.554193319
 30
0.0
 10
-52.5290137585
 20
-46.5553553173
 30
0.0
 10
-53.2855707388
 20
-46.5558661323
 30
0.0
 10
-53.985401866
 20
-46.5556568867
 30
0.0
 10
-54.6323736052
 20
-46.554739117
 30
0.0
 10
-55.2301909671
 20
-46.5531666809
 30
0.0
 10
-55.7825267088
 20
-46.5510469099
 30
0.0
 10
-56.2927605
 20
-46.5483112182
 30
0.0
 10
-56.7638864135
 20
-46.5451922565
 30
0.0
 10
-57.1987215922
 20
-46.541856383
 30
0.0
 10
-57.6002125119
 20
-46.5384051805
 30
0.0
 10
-57.9709111797
 20
-46.5349985106
 30
0.0
 10
-58.3122972744
 20
-46.5321401285
 30
0.0
 10
-58.624784169
 20
-46.5295702322
 30
0.0
 10
-58.9100978769
 20
-46.5272301269
 30
0.0
 10
-59.1727795487
 20
-46.5250336353
 30
0.0
 10
-59.4202715801
 20
-46.5229080453
 30
0.0
 10
-59.6604303812
 20
-46.5207387359
 30
0.0
 10
-59.8984975357
 20
-46.518578155
 30
0.0
 10
-60.1365684429
 20
-46.5159522116
 30
0.0
 10
-60.3746947862
 20
-46.5123684066
 30
0.0
 10
-60.6128994747
 20
-46.508128698
 30
0.0
 10
-60.8513728297
 20
-46.5033376731
 30
0.0
 10
-61.090198965
 20
-46.49815841
 30
0.0
 10
-61.3294831331
 20
-46.492725167
 30
0.0
 10
-61.5697061758
 20
-46.4871620376
 30
0.0
 10
-61.8117655006
 20
-46.4815190716
 30
0.0
 10
-62.0568247774
 20
-46.4759928477
 30
0.0
 10
-62.3059179216
 20
-46.4701069392
 30
0.0
 10
-62.5597496875
 20
-46.4635109682
 30
0.0
 10
-62.7306212429
 20
-46.4589011219
 30
0.0
 10
-62.8169183303
 20
-46.4565458756
 30
0.0
 11
-30.0290933602
 21
-46.5539812536
 31
0.0
 11
-32.5069925295
 21
-46.5533528836
 31
0.0
 11
-34.7904417091
 21
-46.551931882
 31
0.0
 11
-36.8963364148
 21
-46.5502132734
 31
0.0
 11
-38.8396096807
 21
-46.5485152228
 31
0.0
 11
-40.6337324457
 21
-46.5470806698
 31
0.0
 11
-42.2909358736
 21
-46.5461084475
 31
0.0
 11
-43.8222961778
 21
-46.5456940192
 31
0.0
 11
-45.2372994064
 21
-46.5458604949
 31
0.0
 11
-46.5444920222
 21
-46.5465868451
 31
0.0
 11
-47.7519585777
 21
-46.5477984992
 31
0.0
 11
-48.8674784515
 21
-46.5492954427
 31
0.0
 11
-49.8984698883
 21
-46.5509271321
 31
0.0
 11
-50.8516915652
 21
-46.5525924217
 31
0.0
 11
-51.7333532271
 21
-46.5541639174
 31
0.0
 11
-52.5492573308
 21
-46.5552787118
 31
0.0
 11
-53.3044316322
 21
-46.5557514822
 31
0.0
 11
-54.0030234505
 21
-46.5555161384
 31
0.0
 11
-54.6487495552
 21
-46.554580322
 31
0.0
 11
-55.245345534
 21
-46.5530019956
 31
0.0
 11
-55.7964743645
 21
-46.5508478892
 31
0.0
 11
-56.3057548928
 21
-46.5481304673
 31
0.0
 11
-56.7760466641
 21
-46.5450260211
 31
0.0
 11
-57.2098525528
 21
-46.5417014821
 31
0.0
 11
-57.6102609699
 21
-46.5382776207
 31
0.0
 11
-57.9805215926
 21
-46.5349626514
 31
0.0
 11
-58.3219537164
 21
-46.5320681225
 31
0.0
 11
-58.6344173579
 21
-46.5294922179
 31
0.0
 11
-58.917981495
 21
-46.5271575791
 31
0.0
 11
-59.1778942812
 21
-46.524980747
 31
0.0
 11
-59.4224620935
 21
-46.5228708755
 31
0.0
 11
-59.6604571726
 21
-46.5207368
 31
0.0
 11
-59.898370886
 21
-46.5185018635
 31
0.0
 11
-60.1366575426
 21
-46.5157914954
 31
0.0
 11
-60.3746598956
 21
-46.5122599315
 31
0.0
 11
-60.6127502117
 21
-46.5080405004
 31
0.0
 11
-60.8512730142
 21
-46.5032762755
 31
0.0
 11
-61.0900832221
 21
-46.4981203564
 31
0.0
 11
-61.3292325456
 21
-46.4927128715
 31
0.0
 11
-61.5691296598
 21
-46.4871692478
 31
0.0
 11
-61.8107556152
 21
-46.4815731007
 31
0.0
 11
-62.0554150306
 21
-46.4759810265
 31
0.0
 11
-62.3042950281
 21
-46.4700485002
 31
0.0
 11
-62.5580244289
 21
-46.4635142401
 31
0.0
 11
-62.8169183303
 21
-46.4565458756
 31
0.0
  0
SPLINE
  5
384
100
AcDbEntity
  8
RACCORDO
100
AcDbSpline
 62
253
  6
CONTINUOUS
 70
0
 71
3
 72
18
 73
14
 74
12
 42
0.0000001
 43
0.0000001
 44
0.0000000001
 12
-2.8951148291
 22
0.0791632124
 32
0.0
 13
-0.0890185033
 23
2.8948285603
 33
0.0
 40
0.0
 40
0.0
 40
0.0
 40
0.0
 40
0.0897310416
 40
0.1805423817
 40
0.2716921234
 40
0.3630569148
 40
0.4546577941
 40
0.5462619316
 40
0.6377594336
 40
0.7290016333
 40
0.8199287498
 40
0.9104557614
 40
1.0
 40
1.0
 40
1.0
 40
1.0
 10
-62.8169183303
 20
-46.4565458756
 30
0.0
 10
-62.90351222
 20
-46.4541780765
 30
0.0
 10
-63.0776409398
 20
-46.4367466273
 30
0.0
 10
-63.3331417327
 20
-46.374075476
 30
0.0
 10
-63.5793976522
 20
-46.2770525056
 30
0.0
 10
-63.8108735477
 20
-46.1471146581
 30
0.0
 10
-64.022896184
 20
-45.9866648311
 30
0.0
 10
-64.2112920683
 20
-45.7988581026
 30
0.0
 10
-64.3722665383
 20
-45.5875072869
 30
0.0
 10
-64.5026646142
 20
-45.3567856705
 30
0.0
 10
-64.6000594151
 20
-45.1113183888
 30
0.0
 10
-64.6629567081
 20
-44.8565710045
 30
0.0
 10
-64.6808917139
 20
-44.682966284
 30
0.0
 10
-64.6835487452
 20
-44.596561211
 30
0.0
 11
-62.8169183303
 21
-46.4565458756
 31
0.0
 11
-63.0755255672
 21
-46.4308696046
 31
0.0
 11
-63.3310358152
 21
-46.3685200142
 31
0.0
 11
-63.5766313158
 21
-46.2717093518
 31
0.0
 11
-63.8073780054
 21
-46.1421923869
 31
0.0
 11
-64.0189374251
 21
-45.9821186007
 31
0.0
 11
-64.2068255852
 21
-45.7948112293
 31
0.0
 11
-64.3673642585
 21
-45.5839805619
 31
0.0
 11
-64.497361365
 21
-45.3539117511
 31
0.0
 11
-64.5945041021
 21
-45.1091409645
 31
0.0
 11
-64.6571548748
 21
-44.8545523577
 31
0.0
 11
-64.6835487452
 21
-44.596561211
 31
0.0
  0
SPLINE
  5
385
100
AcDbEntity
  8
RACCORDO
100
AcDbSpline
 62
253
  6
CONTINUOUS
 70
0
 71
3
 72
54
 73
50
 74
48
 42
0.0000001
 43
0.0000001
 44
0.0000000001
 12
-1.0063139692
 22
32.7794240565
 32
0.0
 13
-0.0000927688
 23
32.7948671177
 33
0.0
 40
0.0
 40
0.0
 40
0.0
 40
0.0
 40
0.0037304934
 40
0.0081821121
 40
0.0132618151
 40
0.018877852
 40
0.024936961
 40
0.0313406612
 40
0.0380277857
 40
0.0450065706
 40
0.0522428777
 40
0.0595585331
 40
0.0668195611
 40
0.074026
 40
0.0812225467
 40
0.0884674055
 40
0.0957829728
 40
0.1031265854
 40
0.1105406632
 40
0.1182250466
 40
0.1264300511
 40
0.1353811389
 40
0.1451916305
 40
0.1558578061
 40
0.167380038
 40
0.1798061641
 40
0.1932233528
 40
0.2077088299
 40
0.2233273973
 40
0.2401626695
 40
0.2583282513
 40
0.2779450427
 40
0.2991435436
 40
0.3220671471
 40
0.3468766333
 40
0.3737374815
 40
0.4028050457
 40
0.4342337641
 40
0.4681708423
 40
0.5047621519
 40
0.5441924901
 40
0.5867236135
 40
0.6326697809
 40
0.6823767974
 40
0.7362329395
 40
0.7946325867
 40
0.8578299689
 40
0.9260459318
 40
1.0
 40
1.0
 40
1.0
 40
1.0
 10
-64.6835487452
 20
-44.596561211
 30
0.0
 10
-64.6848000944
 20
-44.5558000697
 30
0.0
 10
-64.6875726725
 20
-44.4663992853
 30
0.0
 10
-64.6921695614
 20
-44.3214990157
 30
0.0
 10
-64.6975615887
 20
-44.1560015996
 30
0.0
 10
-64.7037096847
 20
-43.972947107
 30
0.0
 10
-64.710554321
 20
-43.775434488
 30
0.0
 10
-64.7180763934
 20
-43.5662298319
 30
0.0
 10
-64.7256820935
 20
-43.3469681333
 30
0.0
 10
-64.7328721192
 20
-43.1185856059
 30
0.0
 10
-64.7389714931
 20
-42.8832963284
 30
0.0
 10
-64.7429898181
 20
-42.6448754834
 30
0.0
 10
-64.7452741662
 20
-42.4067611394
 30
0.0
 10
-64.7480966147
 20
-42.1699551097
 30
0.0
 10
-64.7509767509
 20
-41.9333265789
 30
0.0
 10
-64.7541029826
 20
-41.6955080309
 30
0.0
 10
-64.7576117335
 20
-41.4560870204
 30
0.0
 10
-64.7611783559
 20
-41.2148168721
 30
0.0
 10
-64.7647007169
 20
-40.9695138739
 30
0.0
 10
-64.7682776131
 20
-40.7147942967
 30
0.0
 10
-64.7719790337
 20
-40.4432728147
 30
0.0
 10
-64.7758746222
 20
-40.1485100403
 30
0.0
 10
-64.7800942329
 20
-39.82684461
 30
0.0
 10
-64.7846434728
 20
-39.4770743126
 30
0.0
 10
-64.7896499764
 20
-39.0987144135
 30
0.0
 10
-64.794729344
 20
-38.6902798939
 30
0.0
 10
-64.7997956838
 20
-38.2494498049
 30
0.0
 10
-64.8047267514
 20
-37.7737175615
 30
0.0
 10
-64.8093568213
 20
-37.2606153536
 30
0.0
 10
-64.8134922917
 20
-36.7072782987
 30
0.0
 10
-64.8176859078
 20
-36.1102335445
 30
0.0
 10
-64.8217432977
 20
-35.4654895961
 30
0.0
 10
-64.8255933394
 20
-34.7687306222
 30
0.0
 10
-64.8291031699
 20
-34.0152045674
 30
0.0
 10
-64.8321233425
 20
-33.199777288
 30
0.0
 10
-64.8345159222
 20
-32.3171840884
 30
0.0
 10
-64.8357227466
 20
-31.3622293405
 30
0.0
 10
-64.8356251318
 20
-30.3299192265
 30
0.0
 10
-64.834181623
 20
-29.2153633577
 30
0.0
 10
-64.8315404515
 20
-28.0133389149
 30
0.0
 10
-64.8282292343
 20
-26.7173690176
 30
0.0
 10
-64.8244756726
 20
-25.3191361605
 30
0.0
 10
-64.8207038978
 20
-23.8085621674
 30
0.0
 10
-64.8175236958
 20
-22.1741856651
 30
0.0
 10
-64.8157056766
 20
-20.4036698515
 30
0.0
 10
-64.8167232983
 20
-18.4856816105
 30
0.0
 10
-64.8200564432
 20
-16.4107202611
 30
0.0
 10
-64.8238632437
 20
-14.1657244839
 30
0.0
 10
-64.8250242208
 20
-12.6115752979
 30
0.0
 10
-64.8250265077
 20
-11.8031373516
 30
0.0
 11
-64.6835487452
 21
-44.596561211
 31
0.0
 11
-64.6873415243
 21
-44.4742789823
 31
0.0
 11
-64.6919712817
 21
-44.3283621663
 31
0.0
 11
-64.6973971409
 21
-44.1618623682
 31
0.0
 11
-64.7035785871
 21
-43.9777889433
 31
0.0
 11
-64.7104656884
 21
-43.7792006576
 31
0.0
 11
-64.7179217328
 21
-43.5693245605
 31
0.0
 11
-64.7254570955
 21
-43.3501506976
 31
0.0
 11
-64.7325755763
 21
-43.1213931032
 31
0.0
 11
-64.7385925202
 21
-42.8841556664
 31
0.0
 11
-64.7427085477
 21
-42.6442750291
 31
0.0
 11
-64.7453725085
 21
-42.4061654806
 31
0.0
 11
-64.7481078629
 21
-42.1698471055
 31
0.0
 11
-64.7510084944
 21
-41.933855139
 31
0.0
 11
-64.7541522976
 21
-41.6962817559
 31
0.0
 11
-64.7576123292
 21
-41.4563936525
 31
0.0
 11
-64.7611500592
 21
-41.2155868364
 31
0.0
 11
-64.7646456896
 21
-40.9724682709
 31
0.0
 11
-64.7681810365
 21
-40.7204847371
 31
0.0
 11
-64.7718500156
 21
-40.4514277201
 31
0.0
 11
-64.775745899
 21
-40.1579038376
 31
0.0
 11
-64.7799658023
 21
-39.8361977456
 31
0.0
 11
-64.7845344188
 21
-39.4864317685
 31
0.0
 11
-64.7894710182
 21
-39.1085939539
 31
0.0
 11
-64.7945330137
 21
-38.70111224
 31
0.0
 11
-64.7995819723
 21
-38.2611262888
 31
0.0
 11
-64.8044961657
 21
-37.7861024091
 31
0.0
 11
-64.8091094601
 21
-37.2739143438
 31
0.0
 11
-64.813343801
 21
-36.7218200639
 31
0.0
 11
-64.8175047003
 21
-36.1260967557
 31
0.0
 11
-64.8215554021
 21
-35.4827794393
 31
0.0
 11
-64.8253925267
 21
-34.78758801
 31
0.0
 11
-64.8288923283
 21
-34.0358196256
 31
0.0
 11
-64.8319109877
 21
-33.222201422
 31
0.0
 11
-64.8342464544
 21
-32.3413065705
 31
0.0
 11
-64.8354827453
 21
-31.3880404687
 31
0.0
 11
-64.8354293988
 21
-30.3573398266
 31
0.0
 11
-64.8340581611
 21
-29.2443786991
 31
0.0
 11
-64.8315397679
 21
-28.0443742053
 31
0.0
 11
-64.8282889881
 21
-26.7512655906
 31
0.0
 11
-64.8246178147
 21
-25.3564678835
 31
0.0
 11
-64.8209395069
 21
-23.8496739184
 31
0.0
 11
-64.8178516271
 21
-22.2195418397
 31
0.0
 11
-64.8161965688
 21
-20.4533375914
 31
0.0
 11
-64.8170253181
 21
-18.5381291038
 31
0.0
 11
-64.8199979904
 21
-16.4655814826
 31
0.0
 11
-64.8234174413
 21
-14.2284506566
 31
0.0
 11
-64.8250265077
 21
-11.8031373516
 31
0.0
  0
SPLINE
  5
386
100
AcDbEntity
  8
RACCORDO
100
AcDbSpline
 62
253
  6
CONTINUOUS
 70
0
 71
3
 72
14
 73
10
 74
8
 42
0.0000001
 43
0.0000001
 44
0.0000000001
 12
0.0521783973
 22
10.4871395925
 32
0.0
 13
0.0032575893
 23
10.4872688917
 33
0.0
 40
0.0
 40
0.0
 40
0.0
 40
0.0
 40
0.1084769324
 40
0.2292179091
 40
0.3606319821
 40
0.5025964105
 40
0.6559526616
 40
0.8211461241
 40
1.0
 40
1.0
 40
1.0
 40
1.0
 10
-47.9998808569
 20
-22.290398795
 30
0.0
 10
-47.9979941394
 20
-21.9111945508
 30
0.0
 10
-47.9957399237
 20
-21.1099061005
 30
0.0
 10
-47.9950278614
 20
-19.8492241297
 30
0.0
 10
-47.9967664682
 20
-18.4714791988
 30
0.0
 10
-47.9979421206
 20
-16.9797189151
 30
0.0
 10
-47.9984410213
 20
-15.3698736159
 30
0.0
 10
-47.997926609
 20
-13.631071705
 30
0.0
 10
-47.9963758459
 20
-12.428366744
 30
0.0
 10
-47.9961816351
 20
-11.8031371812
 30
0.0
 11
-47.9998808569
 21
-22.290398795
 31
0.0
 11
-47.9962640324
 21
-21.1527777309
 31
0.0
 11
-47.9954181345
 21
-19.8865348631
 31
0.0
 11
-47.9966152915
 21
-18.5083605978
 31
0.0
 11
-47.9977966566
 21
-17.0195418609
 31
0.0
 11
-47.9982718612
 21
-15.4112536118
 31
0.0
 11
-47.9976652506
 21
-13.6788253733
 31
0.0
 11
-47.9961816351
 21
-11.8031371812
 31
0.0
  0
SPLINE
  5
387
100
AcDbEntity
  8
RACCORDO
100
AcDbSpline
 62
253
  6
CONTINUOUS
 70
0
 71
3
 72
61
 73
57
 74
55
 42
0.0000001
 43
0.0000001
 44
0.0000000001
 12
-5.8036310676
 22
-0.0331519257
 32
0.0
 13
0.0290336654
 23
5.803653131
 33
0.0
 40
0.0
 40
0.0
 40
0.0
 40
0.0
 40
0.0495544759
 40
0.093859381
 40
0.1338345112
 40
0.1699621578
 40
0.2025310949
 40
0.232060217
 40
0.2589111784
 40
0.2833563443
 40
0.3056757151
 40
0.3261100941
 40
0.3446266454
 40
0.3612754903
 40
0.376882945
 40
0.3922119727
 40
0.4077285143
 40
0.4233562578
 40
0.4389019031
 40
0.454222608
 40
0.4696203142
 40
0.4859088801
 40
0.5038800923
 40
0.5238842525
 40
0.5455055023
 40
0.5684695739
 40
0.5923526846
 40
0.6159986906
 40
0.6380925064
 40
0.6579981618
 40
0.6759101255
 40
0.6923126806
 40
0.7082984075
 40
0.7237049469
 40
0.7380110817
 40
0.7508839579
 40
0.7621161969
 40
0.7719754315
 40
0.781032483
 40
0.7898256807
 40
0.7986854972
 40
0.8075610227
 40
0.8163930296
 40
0.8251654443
 40
0.8340265756
 40
0.8433114486
 40
0.8533599136
 40
0.8645115296
 40
0.8770715797
 40
0.8912915304
 40
0.9072498358
 40
0.9244370643
 40
0.9422532403
 40
0.9606363271
 40
0.9798090101
 40
1.0
 40
1.0
 40
1.0
 40
1.0
 10
-44.3129963689
 20
-25.9784718576
 30
0.0
 10
-44.4088616675
 20
-25.9790194664
 30
0.0
 10
-44.5905594051
 20
-25.9730061047
 30
0.0
 10
-44.848200762
 20
-25.9454894379
 30
0.0
 10
-45.0778329262
 20
-25.9054649035
 30
0.0
 10
-45.2825231235
 20
-25.8570138993
 30
0.0
 10
-45.4648805815
 20
-25.8032845282
 30
0.0
 10
-45.6274337675
 20
-25.7466375514
 30
0.0
 10
-45.7726821258
 20
-25.688610353
 30
0.0
 10
-45.9026806385
 20
-25.6303624867
 30
0.0
 10
-46.0192556147
 20
-25.5727613685
 30
0.0
 10
-46.1236807191
 20
-25.5166347064
 30
0.0
 10
-46.2168185133
 20
-25.462799275
 30
0.0
 10
-46.3004596558
 20
-25.4112787895
 30
0.0
 10
-46.3775707192
 20
-25.3609772894
 30
0.0
 10
-46.4515908557
 20
-25.309999489
 30
0.0
 10
-46.5243363825
 20
-25.2571508972
 30
0.0
 10
-46.5960184371
 20
-25.2021767171
 30
0.0
 10
-46.665971249
 20
-25.1456197465
 30
0.0
 10
-46.7341445205
 20
-25.0876153881
 30
0.0
 10
-46.8019509898
 20
-25.0270041071
 30
0.0
 10
-46.8719573825
 20
-24.9612026718
 30
0.0
 10
-46.9464912671
 20
-24.8872570755
 30
0.0
 10
-47.0259006558
 20
-24.8036439279
 30
0.0
 10
-47.1090474765
 20
-24.7103411761
 30
0.0
 10
-47.1938778801
 20
-24.6085800739
 30
0.0
 10
-47.277558757
 20
-24.5008600219
 30
0.0
 10
-47.3562239886
 20
-24.391490421
 30
0.0
 10
-47.4266435026
 20
-24.2857743218
 30
0.0
 10
-47.4875562233
 20
-24.1871441239
 30
0.0
 10
-47.5399204687
 20
-24.0962393191
 30
0.0
 10
-47.5860695528
 20
-24.0105552079
 30
0.0
 10
-47.6277252905
 20
-23.927995427
 30
0.0
 10
-47.6655141336
 20
-23.8480614848
 30
0.0
 10
-47.6989411595
 20
-23.7727549083
 30
0.0
 10
-47.7276339638
 20
-23.7042030046
 30
0.0
 10
-47.7518583525
 20
-23.643121256
 30
0.0
 10
-47.7724600144
 20
-23.5885538742
 30
0.0
 10
-47.7906461739
 20
-23.5381249686
 30
0.0
 10
-47.807475286
 20
-23.4892678352
 30
0.0
 10
-47.8234995763
 20
-23.4405103037
 30
0.0
 10
-47.8388364364
 20
-23.391453537
 30
0.0
 10
-47.8534339362
 20
-23.3423482
 30
0.0
 10
-47.8673418505
 20
-23.2930720992
 30
0.0
 10
-47.8807991329
 20
-23.2427635458
 30
0.0
 10
-47.8941538297
 20
-23.1898774612
 30
0.0
 10
-47.9077404915
 20
-23.1324859786
 30
0.0
 10
-47.9217427677
 20
-23.0686897758
 30
0.0
 10
-47.9361453606
 20
-22.9967306337
 30
0.0
 10
-47.9506500674
 20
-22.9153252034
 30
0.0
 10
-47.9645439811
 20
-22.8247425136
 30
0.0
 10
-47.9769182408
 20
-22.726920518
 30
0.0
 10
-47.9870540078
 20
-22.6241257385
 30
0.0
 10
-47.9946020563
 20
-22.5172563657
 30
0.0
 10
-47.9992429762
 20
-22.4056219092
 30
0.0
 10
-48.0000762631
 20
-22.3294592956
 30
0.0
 10
-47.9998808569
 20
-22.290398795
 30
0.0
 11
-44.3129963689
 21
-25.9784718576
 31
0.0
 11
-44.6004398455
 21
-25.9689668072
 31
0.0
 11
-44.8561177899
 21
-25.9416458439
 31
0.0
 11
-45.0846758843
 21
-25.9018039689
 31
0.0
 11
-45.2887122434
 21
-25.853505418
 31
0.0
 11
-45.4700282052
 21
-25.8000869924
 31
0.0
 11
-45.6318575916
 21
-25.7436778969
 31
0.0
 11
-45.7765676221
 21
-25.6858527604
 31
0.0
 11
-45.9060367238
 21
-25.6278380131
 31
0.0
 11
-46.0221709739
 21
-25.5704595894
 31
0.0
 11
-46.1266364387
 21
-25.5143181005
 31
0.0
 11
-46.219676269
 21
-25.4605378706
 31
0.0
 11
-46.3019442175
 21
-25.4098581011
 31
0.0
 11
-46.377808999
 21
-25.3603654494
 31
0.0
 11
-46.4510778296
 21
-25.3099022567
 31
0.0
 11
-46.5239300928
 21
-25.2569662009
 31
0.0
 11
-46.5959037589
 21
-25.2017744911
 31
0.0
 11
-46.6660670971
 21
-25.1450538175
 31
0.0
 11
-46.733793474
 21
-25.0874395759
 31
0.0
 11
-46.8004213356
 21
-25.0278857005
 31
0.0
 11
-46.8693045462
 21
-24.9631412008
 31
0.0
 11
-46.9433494221
 21
-24.8896847945
 31
0.0
 11
-47.0233120556
 21
-24.8055130884
 31
0.0
 11
-47.1068119882
 21
-24.7118437427
 31
0.0
 11
-47.1921550631
 21
-24.6094749747
 31
0.0
 11
-47.2771537278
 21
-24.4999841391
 31
0.0
 11
-47.3572791466
 21
-24.3885689497
 31
0.0
 11
-47.4283398021
 21
-24.2818337393
 31
0.0
 11
-47.4890494863
 21
-24.1835443001
 31
0.0
 11
-47.5409266262
 21
-24.0934574629
 31
0.0
 11
-47.5860705403
 21
-24.0096464107
 31
0.0
 11
-47.6278667389
 21
-23.926817625
 31
0.0
 11
-47.666088718
 21
-23.8459833413
 31
0.0
 11
-47.6997804154
 21
-23.7700974735
 31
0.0
 11
-47.7286274209
 21
-23.7011806365
 31
0.0
 11
-47.7526588214
 21
-23.6405829799
 31
0.0
 11
-47.772869312
 21
-23.5870507645
 31
0.0
 11
-47.7906987185
 21
-23.5376022665
 31
0.0
 11
-47.807319315
 21
-23.4893513148
 31
0.0
 11
-47.8233716596
 21
-23.4405012078
 31
0.0
 11
-47.838745822
 21
-23.3913379061
 31
0.0
 11
-47.8533526631
 21
-23.3422046314
 31
0.0
 11
-47.8671835872
 21
-23.2932065959
 31
0.0
 11
-47.8804736423
 21
-23.2435259157
 31
0.0
 11
-47.893667381
 21
-23.1912792071
 31
0.0
 11
-47.9071015383
 21
-23.1345290974
 31
0.0
 11
-47.9209747386
 21
-23.0713125493
 31
0.0
 11
-47.9352776136
 21
-22.9998344316
 31
0.0
 11
-47.9497515423
 21
-22.9185848728
 31
0.0
 11
-47.9637953404
 21
-22.8270381812
 31
0.0
 11
-47.9763185959
 21
-22.728077468
 31
0.0
 11
-47.9864768975
 21
-22.6251774673
 31
0.0
 11
-47.9939909799
 21
-22.5187520061
 31
0.0
 11
-47.9986083281
 21
-22.4075748535
 31
0.0
 11
-47.9998808569
 21
-22.290398795
 31
0.0
  0
SPLINE
  5
388
100
AcDbEntity
  8
RACCORDO
100
AcDbSpline
 62
253
  6
CONTINUOUS
 70
0
 71
3
 72
45
 73
41
 74
39
 42
0.0000001
 43
0.0000001
 44
0.0000000001
 12
-14.2839180941
 22
0.0052395981
 32
0.0
 13
-14.2836866169
 23
-0.0814874398
 33
0.0
 40
0.0
 40
0.0
 40
0.0
 40
0.0
 40
0.07904634
 40
0.1517451799
 40
0.2186813964
 40
0.2803616362
 40
0.3372367877
 40
0.3897118004
 40
0.4381528103
 40
0.4828916535
 40
0.524223485
 40
0.5624064148
 40
0.5976828519
 40
0.6302789092
 40
0.660403295
 40
0.6882484188
 40
0.7139941111
 40
0.7378061129
 40
0.7598370714
 40
0.7802224958
 40
0.7990877188
 40
0.8165459352
 40
0.832695009
 40
0.8476212247
 40
0.8614277172
 40
0.874224182
 40
0.8860572571
 40
0.8969077677
 40
0.9067665571
 40
0.915832008
 40
0.9244030036
 40
0.9327883433
 40
0.941192387
 40
0.9496202452
 40
0.958030916
 40
0.9664324063
 40
0.974840665
 40
0.9832923128
 40
0.9917391912
 40
1.0
 40
1.0
 40
1.0
 40
1.0
 10
-30.0290933386
 20
-25.987232186
 30
0.0
 10
-30.4054571538
 20
-25.987094129
 30
0.0
 10
-31.1279621701
 20
-25.9863878343
 30
0.0
 10
-32.1691712962
 20
-25.9861452371
 30
0.0
 10
-33.1276950451
 20
-25.9858498728
 30
0.0
 10
-34.010877426
 20
-25.9857977874
 30
0.0
 10
-34.825205567
 20
-25.9859205392
 30
0.0
 10
-35.5764976719
 20
-25.9860658529
 30
0.0
 10
-36.2700051078
 20
-25.9861395758
 30
0.0
 10
-36.9104564492
 20
-25.9860886931
 30
0.0
 10
-37.5020658996
 20
-25.9858891818
 30
0.0
 10
-38.0486218602
 20
-25.985541626
 30
0.0
 10
-38.5535840012
 20
-25.9850562687
 30
0.0
 10
-39.0201767842
 20
-25.9844491035
 30
0.0
 10
-39.451386609
 20
-25.9837343373
 30
0.0
 10
-39.8499795585
 20
-25.9829461506
 30
0.0
 10
-40.2185171448
 20
-25.9821107001
 30
0.0
 10
-40.5593715616
 20
-25.9812472278
 30
0.0
 10
-40.8747039668
 20
-25.9803680323
 30
0.0
 10
-41.1664831647
 20
-25.9794952704
 30
0.0
 10
-41.4364899751
 20
-25.9786058021
 30
0.0
 10
-41.6863265809
 20
-25.9778611953
 30
0.0
 10
-41.9174086818
 20
-25.9772554278
 30
0.0
 10
-42.1311040575
 20
-25.976773645
 30
0.0
 10
-42.3288368297
 20
-25.9764025157
 30
0.0
 10
-42.5118423546
 20
-25.976129218
 30
0.0
 10
-42.6807736379
 20
-25.9759363406
 30
0.0
 10
-42.835717811
 20
-25.9758155609
 30
0.0
 10
-42.9774845113
 20
-25.9757542911
 30
0.0
 10
-43.1083977542
 20
-25.975741549
 30
0.0
 10
-43.2322954491
 20
-25.975771052
 30
0.0
 10
-43.3530439636
 20
-25.9758437983
 30
0.0
 10
-43.4731109181
 20
-25.9759656783
 30
0.0
 10
-43.5932984137
 20
-25.9761425718
 30
0.0
 10
-43.7134736631
 20
-25.9763718939
 30
0.0
 10
-43.8335554922
 20
-25.9766483396
 30
0.0
 10
-43.9538323384
 20
-25.976960363
 30
0.0
 10
-44.0743251172
 20
-25.9773370053
 30
0.0
 10
-44.1941154301
 20
-25.9778297954
 30
0.0
 10
-44.2736647677
 20
-25.9782474736
 30
0.0
 10
-44.3129963689
 20
-25.9784718576
 30
0.0
 11
-30.0290933386
 21
-25.987232186
 31
0.0
 11
-31.1581846255
 21
-25.9865042651
 31
0.0
 11
-32.1966089019
 21
-25.9861253014
 31
0.0
 11
-33.1527203698
 21
-25.9858834897
 31
0.0
 11
-34.0337559204
 21
-25.9858284806
 31
0.0
 11
-34.846155974
 21
-25.9859297084
 31
0.0
 11
-35.5957047973
 21
-25.9860582502
 31
0.0
 11
-36.287632258
 21
-25.9861191773
 31
0.0
 11
-36.9266782705
 21
-25.9860588612
 31
0.0
 11
-37.5170587701
 21
-25.985853574
 31
0.0
 11
-38.0624605352
 21
-25.9855020886
 31
0.0
 11
-38.5663460716
 21
-25.9850143123
 31
0.0
 11
-39.0319451172
 21
-25.9844050505
 31
0.0
 11
-39.4622388154
 21
-25.9836925096
 31
0.0
 11
-39.8599755326
 21
-25.982906441
 31
0.0
 11
-40.2277239737
 21
-25.9820728686
 31
0.0
 11
-40.5678515873
 21
-25.9812107348
 31
0.0
 11
-40.8825387962
 21
-25.9803351267
 31
0.0
 11
-41.1737212288
 21
-25.9794583423
 31
0.0
 11
-41.4431891753
 21
-25.9785983756
 31
0.0
 11
-41.6925598255
 21
-25.977858117
 31
0.0
 11
-41.9232310993
 21
-25.9772548256
 31
0.0
 11
-42.1364354187
 21
-25.9767755661
 31
0.0
 11
-42.3336458943
 21
-25.9764065744
 31
0.0
 11
-42.5164293583
 21
-25.976133499
 31
0.0
 11
-42.6854519351
 21
-25.9759416458
 31
0.0
 11
-42.8404397045
 21
-25.9758212814
 31
0.0
 11
-42.9812618403
 21
-25.9757608472
 31
0.0
 11
-43.1107520071
 21
-25.9757487626
 31
0.0
 11
-43.2331794108
 21
-25.9757787781
 31
0.0
 11
-43.3529549016
 21
-25.9758519728
 31
0.0
 11
-43.4729975187
 21
-25.9759746878
 31
0.0
 11
-43.5933802332
 21
-25.9761514574
 31
0.0
 11
-43.713517357
 21
-25.9763798689
 31
0.0
 11
-43.8335232521
 21
-25.9766541046
 31
0.0
 11
-43.9536257215
 21
-25.9769704415
 31
0.0
 11
-44.0743477555
 21
-25.977356959
 31
0.0
 11
-44.1950012495
 21
-25.9778565534
 31
0.0
 11
-44.3129963689
 21
-25.9784718576
 31
0.0
  0
SPLINE
  5
389
100
AcDbEntity
  8
RACCORDO
100
AcDbSpline
 62
253
  6
CONTINUOUS
 70
0
 71
3
 72
14
 73
10
 74
8
 42
0.0000001
 43
0.0000001
 44
0.0000000001
 12
-0.0158502058
 22
-10.5000791645
 32
0.0
 13
0.0000392333
 23
-10.5000911277
 33
0.0
 40
0.0
 40
0.0
 40
0.0
 40
0.0
 40
0.1093673262
 40
0.2305846325
 40
0.3619114659
 40
0.5036440753
 40
0.6566261931
 40
0.8214652774
 40
1.0
 40
1.0
 40
1.0
 40
1.0
 10
69.7710515475
 20
22.1969531121
 30
0.0
 10
69.770473716
 20
21.8141645845
 30
0.0
 10
69.7697547167
 20
21.0071115169
 30
0.0
 10
69.7696294624
 20
19.7404103747
 30
0.0
 10
69.7696676607
 20
18.3604297806
 30
0.0
 10
69.7694997607
 20
16.8692713815
 30
0.0
 10
69.7692157731
 20
15.2608191059
 30
0.0
 10
69.768770788
 20
13.5235583505
 30
0.0
 10
69.7685965904
 20
12.3217395979
 30
0.0
 10
69.7685989253
 20
11.6968626457
 30
0.0
 11
69.7710515475
 21
22.1969531121
 31
0.0
 11
69.7699354634
 21
21.0485867634
 31
0.0
 11
69.7696587345
 21
19.7757940303
 31
0.0
 11
69.769635642
 21
18.3968503128
 31
0.0
 11
69.7694889348
 21
16.9086450051
 31
0.0
 11
69.7692025893
 21
15.3023188534
 31
0.0
 11
69.7688138638
 21
13.5714934898
 31
0.0
 11
69.7685989253
 21
11.6968626457
 31
0.0
  0
SPLINE
  5
38A
100
AcDbEntity
  8
RACCORDO
100
AcDbSpline
 62
253
  6
CONTINUOUS
 70
0
 71
3
 72
18
 73
14
 74
12
 42
0.0000001
 43
0.0000001
 44
0.0000000001
 12
-1.5963248145
 22
0.0002474764
 32
0.0
 13
-1.5963248336
 23
-0.0000174396
 33
0.0
 40
0.0
 40
0.0
 40
0.0
 40
0.0
 40
0.1033061992
 40
0.2167763826
 40
0.3361845835
 40
0.4570636591
 40
0.5749298525
 40
0.6853735455
 40
0.7842818618
 40
0.8679674626
 40
0.9333105674
 40
0.9778751996
 40
1.0
 40
1.0
 40
1.0
 40
1.0
 10
69.7710515475
 20
22.1969531121
 30
0.0
 10
69.7160814644
 20
22.196961634
 30
0.0
 10
69.6007329213
 20
22.1970291428
 30
0.0
 10
69.4218465213
 20
22.1968892086
 30
0.0
 10
69.2336085143
 20
22.1977508421
 30
0.0
 10
69.0430357372
 20
22.1958427359
 30
0.0
 10
68.8572291482
 20
22.1969585426
 30
0.0
 10
68.683113714
 20
22.1967798603
 30
0.0
 10
68.5271859606
 20
22.1968544524
 30
0.0
 10
68.3952566225
 20
22.1968561585
 30
0.0
 10
68.292244005
 20
22.1968573936
 30
0.0
 10
68.2219883976
 20
22.1968702864
 30
0.0
 10
68.1865024003
 20
22.1968544528
 30
0.0
 10
68.1747296109
 20
22.1968543242
 30
0.0
 11
69.7710515475
 21
22.1969531121
 31
0.0
 11
69.6061413004
 21
22.1969901537
 31
0.0
 11
69.4250060384
 21
22.1970493576
 31
0.0
 11
69.2343919096
 21
22.1972865969
 31
0.0
 11
69.0414319207
 21
22.1963483141
 31
0.0
 11
68.8532796278
 21
22.1967545946
 31
0.0
 11
68.67697563
 21
22.1968202086
 31
0.0
 11
68.5190858305
 21
22.196845058
 31
0.0
 11
68.3854964282
 21
22.1968562612
 31
0.0
 11
68.2811876073
 21
22.1968610718
 31
0.0
 11
68.2100479782
 21
22.1968624992
 31
0.0
 11
68.1747296109
 21
22.1968543242
 31
0.0
  0
SPLINE
  5
38B
100
AcDbEntity
  8
RACCORDO
100
AcDbSpline
 62
253
  6
CONTINUOUS
 70
0
 71
3
 72
71
 73
67
 74
65
 42
0.0000001
 43
0.0000001
 44
0.0000000001
 12
3.1393434976
 22
0.009025066
 32
0.0
 13
-0.0092955301
 23
-3.1393427084
 33
0.0
 40
0.0
 40
0.0
 40
0.0
 40
0.0
 40
0.0404801548
 40
0.0768603431
 40
0.1097829521
 40
0.1399473347
 40
0.1676298573
 40
0.1928135134
 40
0.2156669705
 40
0.236433015
 40
0.2554177932
 40
0.2727956026
 40
0.2888292998
 40
0.3046015466
 40
0.3212431957
 40
0.3380543869
 40
0.3543337643
 40
0.3703122826
 40
0.3865900015
 40
0.4040574428
 40
0.4236047204
 40
0.4455433796
 40
0.4682717452
 40
0.4896436926
 40
0.5087896173
 40
0.5262642362
 40
0.5428840442
 40
0.5593165007
 40
0.5761288178
 40
0.59307235
 40
0.6085441718
 40
0.6233905978
 40
0.6385666866
 40
0.6532521849
 40
0.6676852441
 40
0.682163552
 40
0.6967309696
 40
0.7112610479
 40
0.7250072639
 40
0.7370865045
 40
0.7474109547
 40
0.7565626103
 40
0.7651659122
 40
0.7736696562
 40
0.7821005527
 40
0.7906367142
 40
0.799260679
 40
0.8081722517
 40
0.8180242397
 40
0.8293318659
 40
0.8416732536
 40
0.8542695599
 40
0.8662645801
 40
0.8771241483
 40
0.8870418812
 40
0.8964250986
 40
0.9056844498
 40
0.9150573075
 40
0.9245803645
 40
0.9342308433
 40
0.9438877605
 40
0.95366217
 40
0.9638637723
 40
0.974810907
 40
0.9867866829
 40
1.0
 40
1.0
 40
1.0
 40
1.0
 10
67.7709040821
 20
24.1949588326
 30
0.0
 10
67.8132644524
 20
24.1950806113
 30
0.0
 10
67.8937277072
 20
24.1927209732
 30
0.0
 10
68.0081991103
 20
24.182315983
 30
0.0
 10
68.1112239583
 20
24.1671347793
 30
0.0
 10
68.2044081677
 20
24.1485357186
 30
0.0
 10
68.2887794686
 20
24.1276638797
 30
0.0
 10
68.3648682078
 20
24.1054778127
 30
0.0
 10
68.4331992553
 20
24.0827407965
 30
0.0
 10
68.4946233289
 20
24.0599259637
 30
0.0
 10
68.5499820271
 20
24.0373326206
 30
0.0
 10
68.6001259814
 20
24.0151354222
 30
0.0
 10
68.6466208806
 20
23.9930493121
 30
0.0
 10
68.6918581675
 20
23.9701494086
 30
0.0
 10
68.737221943
 20
23.9457330954
 30
0.0
 10
68.7824153814
 20
23.9199154034
 30
0.0
 10
68.8263412846
 20
23.8933118493
 30
0.0
 10
68.869104039
 20
23.8658974958
 30
0.0
 10
68.9121754233
 20
23.836692252
 30
0.0
 10
68.9574762014
 20
23.8041543636
 30
0.0
 10
69.0065097069
 20
23.7667003303
 30
0.0
 10
69.0585780735
 20
23.7242025063
 30
0.0
 10
69.1106099804
 20
23.678701634
 30
0.0
 10
69.158945137
 20
23.633473142
 30
0.0
 10
69.2019586728
 20
23.5906510532
 30
0.0
 10
69.2403141781
 20
23.5502330414
 30
0.0
 10
69.2756760133
 20
23.5109159714
 30
0.0
 10
69.3095532181
 20
23.4712198091
 30
0.0
 10
69.3426031331
 20
23.430395395
 30
0.0
 10
69.3739845825
 20
23.389535626
 30
0.0
 10
69.4031480854
 20
23.3495863777
 30
0.0
 10
69.4303327637
 20
23.310498528
 30
0.0
 10
69.456159293
 20
23.2714829125
 30
0.0
 10
69.4808219792
 20
23.2322313453
 30
0.0
 10
69.5041670474
 20
23.1930296813
 30
0.0
 10
69.5265109931
 20
23.1533906934
 30
0.0
 10
69.5479583732
 20
23.1131445698
 30
0.0
 10
69.5681286926
 20
23.0730998507
 30
0.0
 10
69.5863057554
 20
23.0349784677
 30
0.0
 10
69.6019156906
 20
23.0005178371
 30
0.0
 10
69.6150258147
 20
22.9702092225
 30
0.0
 10
69.6262851117
 20
22.9430671601
 30
0.0
 10
69.6364591575
 20
22.9175406657
 30
0.0
 10
69.6460122924
 20
22.8925813326
 30
0.0
 10
69.6551891656
 20
22.867556006
 30
0.0
 10
69.6640505357
 20
22.8422838796
 30
0.0
 10
69.6727201388
 20
22.8164142961
 30
0.0
 10
69.6814486304
 20
22.7891150799
 30
0.0
 10
69.6905935443
 20
22.7590038629
 30
0.0
 10
69.7002342634
 20
22.725296488
 30
0.0
 10
69.7100031386
 20
22.6886447518
 30
0.0
 10
69.7192388668
 20
22.6511136295
 30
0.0
 10
69.7274062713
 20
22.6149238617
 30
0.0
 10
69.7343362758
 20
22.5813348318
 30
0.0
 10
69.7401835707
 20
22.5503182328
 30
0.0
 10
69.7452486095
 20
22.5208623346
 30
0.0
 10
69.7497684199
 20
22.4918948754
 30
0.0
 10
69.753862637
 20
22.4627164165
 30
0.0
 10
69.7575586816
 20
22.4330723428
 30
0.0
 10
69.7608369264
 20
22.4030801337
 30
0.0
 10
69.7636890002
 20
22.3727802132
 30
0.0
 10
69.7661294851
 20
22.3418657642
 30
0.0
 10
69.7681756981
 20
22.3095695822
 30
0.0
 10
69.7697957563
 20
22.274942499
 30
0.0
 10
69.7708770953
 20
22.2371409874
 30
0.0
 10
69.7710924797
 20
22.2107801557
 30
0.0
 10
69.7710515381
 20
22.1969531121
 30
0.0
 11
67.7709040821
 21
24.1949588326
 31
0.0
 11
67.8979309707
 21
24.1912289869
 31
0.0
 11
68.0116718269
 21
24.1808835334
 31
0.0
 11
68.113923379
 21
24.1658155981
 31
0.0
 11
68.2067916027
 21
24.1472962179
 31
0.0
 11
68.2911552786
 21
24.1264323154
 31
0.0
 11
68.3670548148
 21
24.104300462
 31
0.0
 11
68.4351287805
 21
24.0816443037
 31
0.0
 11
68.4962394284
 21
24.0589399496
 31
0.0
 11
68.5514202184
 21
24.0364179872
 31
0.0
 11
68.6013067179
 21
24.014336314
 31
0.0
 11
68.6467743268
 21
23.9927409865
 31
0.0
 11
68.69095291
 21
23.9703812278
 31
0.0
 11
68.7369595477
 21
23.9456257838
 31
0.0
 11
68.7827829266
 21
23.9194426192
 31
0.0
 11
68.8264945592
 21
23.8929625323
 31
0.0
 11
68.8687229287
 21
23.8658882345
 31
0.0
 11
68.9110178762
 21
23.8372088505
 31
0.0
 11
68.9555573438
 21
23.8052200976
 31
0.0
 11
69.0043283998
 21
23.7679755761
 31
0.0
 11
69.0576903764
 21
23.7244321838
 31
0.0
 11
69.1114015596
 21
23.677461132
 31
0.0
 11
69.1603923774
 21
23.6316187252
 31
0.0
 11
69.202985215
 21
23.5892092062
 31
0.0
 11
69.2407458602
 21
23.549414107
 31
0.0
 11
69.2756360014
 21
23.5106202797
 31
0.0
 11
69.3091256669
 21
23.4713813221
 31
0.0
 11
69.3423405271
 21
23.4303632003
 31
0.0
 11
69.3747419797
 21
23.3881789363
 31
0.0
 11
69.403379848
 21
23.3489479623
 31
0.0
 11
69.4299899071
 21
23.3106826875
 31
0.0
 11
69.4562816202
 21
23.2709508891
 31
0.0
 11
69.4808046944
 21
23.2319110796
 31
0.0
 11
69.5039873916
 21
23.1929803003
 31
0.0
 11
69.5263084542
 21
23.1533860298
 31
0.0
 11
69.5478207
 21
23.1130292699
 31
0.0
 11
69.5683456697
 21
23.0722927686
 31
0.0
 11
69.5869204214
 21
23.033340621
 31
0.0
 11
69.6025669674
 21
22.9987980236
 31
0.0
 11
69.6154337978
 21
22.9690492283
 31
0.0
 11
69.6264411852
 21
22.9425111786
 31
0.0
 11
69.6364398487
 21
22.9174212662
 31
0.0
 11
69.6459806735
 21
22.8924880708
 31
0.0
 11
69.6550925006
 21
22.8676383646
 31
0.0
 11
69.6639617913
 21
22.8423505932
 31
0.0
 11
69.6725658607
 21
22.8166804707
 31
0.0
 11
69.681087147
 21
22.7900331813
 31
0.0
 11
69.6900759422
 21
22.7604392874
 31
0.0
 11
69.6998380855
 21
22.7263092993
 31
0.0
 11
69.7098156275
 21
22.6888720534
 31
0.0
 11
69.7192622346
 21
22.6504726661
 31
0.0
 11
69.7275487074
 21
22.6137390682
 31
0.0
 11
69.7344356155
 21
22.580349867
 31
0.0
 11
69.7402029734
 21
22.5497533897
 31
0.0
 11
69.745194953
 21
22.5207221901
 31
0.0
 11
69.7496768649
 21
22.4920013858
 31
0.0
 11
69.7537666847
 21
22.462862258
 31
0.0
 11
69.7574676062
 21
22.4331959441
 31
0.0
 11
69.7607607673
 21
22.4030791635
 31
0.0
 11
69.7636020643
 21
22.3728960966
 31
0.0
 11
69.7660168888
 21
22.3423059073
 31
0.0
 11
69.7680414156
 21
22.3103434945
 31
0.0
 11
69.7696461991
 21
22.2760140249
 31
0.0
 11
69.7707183702
 21
22.2384330866
 31
0.0
 11
69.7710515381
 21
22.1969531121
 31
0.0
  0
SPLINE
  5
38C
100
AcDbEntity
  8
RACCORDO
100
AcDbSpline
 62
253
  6
CONTINUOUS
 70
0
 71
3
 72
51
 73
47
 74
45
 42
0.0000001
 43
0.0000001
 44
0.0000000001
 12
14.2999981274
 22
-0.0003068275
 32
0.0
 13
14.2999777645
 23
0.024134478
 33
0.0
 40
0.0
 40
0.0
 40
0.0
 40
0.0
 40
0.0742693066
 40
0.1426447793
 40
0.2056527102
 40
0.2637552407
 40
0.3173675308
 40
0.3668636147
 40
0.4125832193
 40
0.45483555
 40
0.4938998614
 40
0.5300256346
 40
0.5634374766
 40
0.594340992
 40
0.6229270983
 40
0.6493725776
 40
0.6738416897
 40
0.6964874975
 40
0.7174516423
 40
0.7368625112
 40
0.7548411612
 40
0.7714980129
 40
0.7869239669
 40
0.8012094761
 40
0.8144663616
 40
0.8267985518
 40
0.8382223314
 40
0.8487027387
 40
0.8582632696
 40
0.8671386425
 40
0.8756190902
 40
0.883993747
 40
0.8923937586
 40
0.9008016328
 40
0.9092009683
 40
0.9175993453
 40
0.9260174924
 40
0.9344777853
 40
0.9429801441
 40
0.9515113858
 40
0.9600877721
 40
0.9686896797
 40
0.9772038129
 40
0.9854453271
 40
0.9931410346
 40
1.0
 40
1.0
 40
1.0
 40
1.0
 10
53.4709066445
 20
24.1933498043
 30
0.0
 10
53.8249236264
 20
24.1933422084
 30
0.0
 10
54.5048636526
 20
24.193350555
 30
0.0
 10
55.4851414404
 20
24.1934286425
 30
0.0
 10
56.3883576003
 20
24.1935490576
 30
0.0
 10
57.2212025951
 20
24.193690881
 30
0.0
 10
57.9896411258
 20
24.1938360013
 30
0.0
 10
58.6990543853
 20
24.1939685229
 30
0.0
 10
59.3543185156
 20
24.194078331
 30
0.0
 10
59.9598578731
 20
24.1941631556
 30
0.0
 10
60.519666643
 20
24.1942254167
 30
0.0
 10
61.0373357567
 20
24.1942674714
 30
0.0
 10
61.5161050828
 20
24.1942915374
 30
0.0
 10
61.9589353351
 20
24.1942992618
 30
0.0
 10
62.3685592632
 20
24.1942926985
 30
0.0
 10
62.7475125394
 20
24.1942739565
 30
0.0
 10
63.0981503954
 20
24.1942449249
 30
0.0
 10
63.4226605595
 20
24.1942084702
 30
0.0
 10
63.7230597661
 20
24.1941669946
 30
0.0
 10
64.0012121898
 20
24.1941223467
 30
0.0
 10
64.2588331851
 20
24.1940759508
 30
0.0
 10
64.4974594217
 20
24.1940288249
 30
0.0
 10
64.7184816891
 20
24.1939819631
 30
0.0
 10
64.9232974523
 20
24.1939354786
 30
0.0
 10
65.1133662769
 20
24.1938921329
 30
0.0
 10
65.2897941932
 20
24.193854479
 30
0.0
 10
65.4529875668
 20
24.1938239278
 30
0.0
 10
65.602969367
 20
24.1938011055
 30
0.0
 10
65.7408037644
 20
24.1937858143
 30
0.0
 10
65.8691050231
 20
24.1937774593
 30
0.0
 10
65.9917536161
 20
24.1937755992
 30
0.0
 10
66.1121363202
 20
24.1937803597
 30
0.0
 10
66.2321730903
 20
24.1937923719
 30
0.0
 10
66.3523274945
 20
24.1938124037
 30
0.0
 10
66.4724741054
 20
24.1938411385
 30
0.0
 10
66.5926696813
 20
24.1938793412
 30
0.0
 10
66.7131558172
 20
24.1939280283
 30
0.0
 10
66.8341375941
 20
24.1939885865
 30
0.0
 10
66.9556584478
 20
24.1940623264
 30
0.0
 10
67.0777326708
 20
24.1941503045
 30
0.0
 10
67.2002813985
 20
24.1942527295
 30
0.0
 10
67.3227485632
 20
24.1943691692
 30
0.0
 10
67.4436194913
 20
24.1944978513
 30
0.0
 10
67.5601708482
 20
24.1946401398
 30
0.0
 10
67.6688325536
 20
24.1947921263
 30
0.0
 10
67.7382097311
 20
24.1949026955
 30
0.0
 10
67.7709040821
 20
24.1949578747
 30
0.0
 11
53.4709066445
 21
24.1933498043
 31
0.0
 11
54.5329575903
 21
24.1933633201
 31
0.0
 11
55.5107267182
 21
24.1934397822
 31
0.0
 11
56.4117400047
 21
24.1935579514
 31
0.0
 11
57.2426060706
 21
24.1936971996
 31
0.0
 11
58.009261706
 21
24.1938394347
 31
0.0
 11
58.7170556012
 21
24.1939695276
 31
0.0
 11
59.370845852
 21
24.1940779863
 31
0.0
 11
59.9750540974
 21
24.1941622639
 31
0.0
 11
60.5336736729
 21
24.1942240742
 31
0.0
 11
61.0502721609
 21
24.1942657516
 31
0.0
 11
61.5280614379
 21
24.1942894227
 31
0.0
 11
61.9699816504
 21
24.1942968936
 31
0.0
 11
62.378762917
 21
24.1942901685
 31
0.0
 11
62.7569332217
 21
24.1942713077
 31
0.0
 11
63.1068414782
 21
24.1942424159
 31
0.0
 11
63.4306764848
 21
24.1942061274
 31
0.0
 11
63.7304637139
 21
24.1941648076
 31
0.0
 11
64.0080390983
 21
24.1941203105
 31
0.0
 11
64.265133756
 21
24.1940740423
 31
0.0
 11
64.5033266998
 21
24.194027067
 31
0.0
 11
64.7239178083
 21
24.1939802404
 31
0.0
 11
64.9282005581
 21
24.1939343271
 31
0.0
 11
65.1177739904
 21
24.1938916066
 31
0.0
 11
65.294124283
 21
24.1938543548
 31
0.0
 11
65.4574843077
 21
24.1938240811
 31
0.0
 11
65.607354111
 21
24.1938015154
 31
0.0
 11
65.7440696834
 21
24.1937865348
 31
0.0
 11
65.8709874996
 21
24.1937784174
 31
0.0
 11
65.9922578865
 21
24.1937767043
 31
0.0
 11
66.1120154621
 21
24.1937815612
 31
0.0
 11
66.2321356114
 21
24.1937937018
 31
0.0
 11
66.3523681958
 21
24.193813863
 31
0.0
 11
66.4724786738
 21
24.1938427146
 31
0.0
 11
66.5925754428
 21
24.1938810356
 31
0.0
 11
66.7129549218
 21
24.1939298777
 31
0.0
 11
66.8339370791
 21
24.1939906232
 31
0.0
 11
66.9555207707
 21
24.1940645467
 31
0.0
 11
67.0775174798
 21
24.1941524835
 31
0.0
 11
67.2001597453
 21
24.1942549749
 31
0.0
 11
67.3231669515
 21
24.1943719129
 31
0.0
 11
67.4449189707
 21
24.1945024559
 31
0.0
 11
67.56277252
 21
24.1946469298
 31
0.0
 11
67.672821014
 21
24.1948014877
 31
0.0
 11
67.7709040821
 21
24.1949578747
 31
0.0
  0
SPLINE
  5
38D
100
AcDbEntity
  8
RACCORDO
100
AcDbSpline
 62
253
  6
CONTINUOUS
 70
0
 71
3
 72
57
 73
53
 74
51
 42
0.0000001
 43
0.0000001
 44
0.0000000001
 12
14.2996705086
 22
-0.0256881123
 32
0.0
 13
14.2996935785
 23
0.0003073465
 33
0.0
 40
0.0
 40
0.0
 40
0.0
 40
0.0
 40
0.0058550527
 40
0.011076945
 40
0.0158675263
 40
0.0203468254
 40
0.0246467075
 40
0.0288749404
 40
0.0330864621
 40
0.037310822
 40
0.0415574894
 40
0.0459308364
 40
0.0506492228
 40
0.0559247668
 40
0.0618776338
 40
0.0683945732
 40
0.0753280404
 40
0.0826858444
 40
0.0906180237
 40
0.0990539674
 40
0.107581534
 40
0.1159802296
 40
0.1243306917
 40
0.1328175402
 40
0.1417194362
 40
0.1513133781
 40
0.1618214003
 40
0.1732684781
 40
0.1856276801
 40
0.1989168915
 40
0.2132389021
 40
0.228706144
 40
0.2454092707
 40
0.2634392372
 40
0.2829077473
 40
0.3039360269
 40
0.3266534724
 40
0.3512030576
 40
0.3777387023
 40
0.4064257945
 40
0.4374420189
 40
0.4709797561
 40
0.5072459583
 40
0.5464663629
 40
0.5888844826
 40
0.634756805
 40
0.6843167622
 40
0.737798636
 40
0.7956290226
 40
0.8582670339
 40
0.9262086368
 40
1.0
 40
1.0
 40
1.0
 40
1.0
 10
-44.3282522898
 20
24.1949600437
 30
0.0
 10
-44.3003438485
 20
24.1949099087
 30
0.0
 10
-44.2475449527
 20
24.1948194889
 30
0.0
 10
-44.1719114514
 20
24.1947045604
 30
0.0
 10
-44.1028355435
 20
24.1946116612
 30
0.0
 10
-44.0381544411
 20
24.1945341459
 30
0.0
 10
-43.9761537992
 20
24.1944666287
 30
0.0
 10
-43.9154295303
 20
24.1944050149
 30
0.0
 10
-43.8550652397
 20
24.194346448
 30
0.0
 10
-43.7946130783
 20
24.1942897606
 30
0.0
 10
-43.7333895635
 20
24.1942350239
 30
0.0
 10
-43.6698112381
 20
24.1941812556
 30
0.0
 10
-43.6013287047
 20
24.1941270335
 30
0.0
 10
-43.5253172861
 20
24.1940717292
 30
0.0
 10
-43.4407329458
 20
24.1940169422
 30
0.0
 10
-43.3482460047
 20
24.1939651003
 30
0.0
 10
-43.2490623373
 20
24.1939181253
 30
0.0
 10
-43.1431328345
 20
24.1938766725
 30
0.0
 10
-43.030041678
 20
24.193841155
 30
0.0
 10
-42.9113747704
 20
24.1938127637
 30
0.0
 10
-42.7904841809
 20
24.1937924565
 30
0.0
 10
-42.6700010437
 20
24.1937803317
 30
0.0
 10
-42.5497119916
 20
24.1937755367
 30
0.0
 10
-42.4270244026
 20
24.1937774199
 30
0.0
 10
-42.2984096873
 20
24.1937858542
 30
0.0
 10
-42.1601609172
 20
24.1938012379
 30
0.0
 10
-42.009780375
 20
24.1938241648
 30
0.0
 10
-41.8462190431
 20
24.1938548249
 30
0.0
 10
-41.6694009949
 20
24.1938925978
 30
0.0
 10
-41.4788793948
 20
24.1939360745
 30
0.0
 10
-41.273543122
 20
24.1939826445
 30
0.0
 10
-41.0519342014
 20
24.1940295797
 30
0.0
 10
-40.8126510696
 20
24.19407677
 30
0.0
 10
-40.5542956341
 20
24.1941232126
 30
0.0
 10
-40.2753240775
 20
24.1941678775
 30
0.0
 10
-39.9740093492
 20
24.1942093215
 30
0.0
 10
-39.6484753478
 20
24.1942457028
 30
0.0
 10
-39.2966901345
 20
24.194274543
 30
0.0
 10
-38.9164502139
 20
24.1942930345
 30
0.0
 10
-38.50538664
 20
24.1942992488
 30
0.0
 10
-38.0609471404
 20
24.1942910814
 30
0.0
 10
-37.5803813249
 20
24.194266464
 30
0.0
 10
-37.0607097561
 20
24.1942237636
 30
0.0
 10
-36.4987092726
 20
24.1941607133
 30
0.0
 10
-35.8909205995
 20
24.1940749998
 30
0.0
 10
-35.2338477851
 20
24.1939643005
 30
0.0
 10
-34.5240388762
 20
24.1938314464
 30
0.0
 10
-33.7572310844
 20
24.193686851
 30
0.0
 10
-32.9280859017
 20
24.1935462722
 30
0.0
 10
-32.030017483
 20
24.1934273074
 30
0.0
 10
-31.055870034
 20
24.1933503629
 30
0.0
 10
-30.3802907049
 20
24.1933422487
 30
0.0
 10
-30.0285594106
 20
24.1933498085
 30
0.0
 11
-44.3282522898
 21
24.1949600437
 31
0.0
 11
-44.2445269527
 21
24.1948171674
 31
0.0
 11
-44.1698555793
 21
24.1947037037
 31
0.0
 11
-44.1013517955
 21
24.1946113941
 31
0.0
 11
-44.0372992372
 21
24.1945343133
 31
0.0
 11
-43.9758122789
 21
24.1944670249
 31
0.0
 11
-43.9153498744
 21
24.1944053826
 31
0.0
 11
-43.8551264336
 21
24.1943468331
 31
0.0
 11
-43.794719408
 21
24.1942902989
 31
0.0
 11
-43.7339933896
 21
24.1942360459
 31
0.0
 11
-43.6714558891
 21
24.1941831873
 31
0.0
 11
-43.6039844311
 21
24.1941298177
 31
0.0
 11
-43.5285457885
 21
24.1940750217
 31
0.0
 11
-43.4434216322
 21
24.1940198647
 31
0.0
 11
-43.3502314098
 21
24.1939675213
 31
0.0
 11
-43.2510849656
 21
24.1939204027
 31
0.0
 11
-43.145870631
 21
24.1938790478
 31
0.0
 11
-43.0324429024
 21
24.1938432799
 31
0.0
 11
-42.9118114968
 21
24.1938142934
 31
0.0
 11
-42.7898699092
 21
24.1937937325
 31
0.0
 11
-42.6697711351
 21
24.1937815286
 31
0.0
 11
-42.5503620862
 21
24.1937766525
 31
0.0
 11
-42.4290027535
 21
24.1937783812
 31
0.0
 11
-42.3017083685
 21
24.1937865711
 31
0.0
 11
-42.1645179406
 21
24.1938016519
 31
0.0
 11
-42.0142564438
 21
24.1938243213
 31
0.0
 11
-41.8505667419
 21
24.1938546966
 31
0.0
 11
-41.6738339449
 21
24.1938920645
 31
0.0
 11
-41.4838022987
 21
24.1939349084
 31
0.0
 11
-41.2790019406
 21
24.1939809139
 31
0.0
 11
-41.0578251257
 21
24.1940278153
 31
0.0
 11
-40.818975537
 21
24.1940748545
 31
0.0
 11
-40.561152545
 21
24.1941211677
 31
0.0
 11
-40.282758819
 21
24.1941656806
 31
0.0
 11
-39.982060867
 21
24.1942069717
 31
0.0
 11
-39.6572083601
 21
24.1942431771
 31
0.0
 11
-39.3061568147
 21
24.1942718914
 31
0.0
 11
-38.9267052276
 21
24.1942904989
 31
0.0
 11
-38.5164885987
 21
24.1942968803
 31
0.0
 11
-38.0729660938
 21
24.1942889689
 31
0.0
 11
-37.5933867295
 21
24.1942647537
 31
0.0
 11
-37.0747911528
 21
24.1942224274
 31
0.0
 11
-36.5139513883
 21
24.1941598335
 31
0.0
 11
-35.9073852801
 21
24.1940746554
 31
0.0
 11
-35.2514251341
 21
24.1939652969
 31
0.0
 11
-34.5427329442
 21
24.1938347864
 31
0.0
 11
-33.7779585506
 21
24.1936930893
 31
0.0
 11
-32.9510017543
 21
24.193555064
 31
0.0
 11
-32.0552973931
 21
24.1934383158
 31
0.0
 11
-31.0837532938
 21
24.1933629627
 31
0.0
 11
-30.0285594106
 21
24.1933498085
 31
0.0
  0
SPLINE
  5
38E
100
AcDbEntity
  8
RACCORDO
100
AcDbSpline
 62
253
  6
CONTINUOUS
 70
0
 71
3
 72
18
 73
14
 74
12
 42
0.0000001
 43
0.0000001
 44
0.0000000001
 12
0.0005441974
 22
-1.5942964522
 32
0.0
 13
-0.0140993241
 23
-1.5942341995
 33
0.0
 40
0.0
 40
0.0
 40
0.0
 40
0.0
 40
0.103466539
 40
0.2170374892
 40
0.3364888866
 40
0.4573781663
 40
0.5752092864
 40
0.6855999427
 40
0.7844445529
 40
0.86806695
 40
0.9333571065
 40
0.9778868071
 40
1.0
 40
1.0
 40
1.0
 40
1.0
 10
-44.3282522898
 20
24.1949600437
 30
0.0
 10
-44.328233521
 20
24.1399745984
 30
0.0
 10
-44.3286681654
 20
24.0246341968
 30
0.0
 10
-44.3284212548
 20
23.845813047
 30
0.0
 10
-44.3284721611
 20
23.6577330559
 30
0.0
 10
-44.3284733101
 20
23.4673890266
 30
0.0
 10
-44.3285223315
 20
23.2818601817
 30
0.0
 10
-44.3285921391
 20
23.1080465979
 30
0.0
 10
-44.32868272
 20
22.9524126154
 30
0.0
 10
-44.3287996293
 20
22.8207465934
 30
0.0
 10
-44.3289066019
 20
22.7179450618
 30
0.0
 10
-44.3290667768
 20
22.6478320422
 30
0.0
 10
-44.3291302263
 20
22.6124155495
 30
0.0
 10
-44.3292341534
 20
22.6006643467
 30
0.0
 11
-44.3282522898
 21
24.1949600437
 31
0.0
 11
-44.3285129573
 21
24.0300039041
 31
0.0
 11
-44.3284741484
 21
23.8489381347
 31
0.0
 11
-44.3284636052
 21
23.6584971848
 31
0.0
 11
-44.3284817198
 21
23.4657638247
 31
0.0
 11
-44.3285278184
 21
23.2779060826
 31
0.0
 11
-44.3286001867
 21
23.1019106555
 31
0.0
 11
-44.3286961331
 21
22.9443230643
 31
0.0
 11
-44.3288120892
 21
22.8110042159
 31
0.0
 11
-44.3289437426
 21
22.7069124282
 31
0.0
 11
-44.3290861969
 21
22.6359190232
 31
0.0
 11
-44.3292341534
 21
22.6006643467
 31
0.0
  0
SPLINE
  5
38F
100
AcDbEntity
  8
RACCORDO
100
AcDbSpline
 62
253
  6
CONTINUOUS
 70
0
 71
3
 72
61
 73
57
 74
55
 42
0.0000001
 43
0.0000001
 44
0.0000000001
 12
-0.0090961578
 22
3.1401390416
 32
0.0
 13
3.1401337752
 23
-0.0107617032
 33
0.0
 40
0.0
 40
0.0
 40
0.0
 40
0.0
 40
0.0216276463
 40
0.0423287588
 40
0.0622359498
 40
0.0813955152
 40
0.1000139536
 40
0.1179958312
 40
0.1343774075
 40
0.1488185082
 40
0.1619338975
 40
0.1737454926
 40
0.1841764579
 40
0.1935663412
 40
0.2024098757
 40
0.2110973994
 40
0.2198479334
 40
0.2286845424
 40
0.2375441993
 40
0.2465919872
 40
0.2563114669
 40
0.267274333
 40
0.2798212342
 40
0.2934104642
 40
0.3073060048
 40
0.321154299
 40
0.3354024911
 40
0.3512969986
 40
0.3680077933
 40
0.3845352964
 40
0.4010431618
 40
0.4177403633
 40
0.4345470978
 40
0.451386055
 40
0.4681656242
 40
0.4847879485
 40
0.5011313823
 40
0.5173139696
 40
0.5335058257
 40
0.5497283218
 40
0.5659259681
 40
0.5819350613
 40
0.597880965
 40
0.6143556005
 40
0.6320895132
 40
0.6518140174
 40
0.6736839424
 40
0.6975799143
 40
0.7236433258
 40
0.7523533693
 40
0.7838366982
 40
0.8184936368
 40
0.8570751928
 40
0.899763997
 40
0.9470952755
 40
1.0
 40
1.0
 40
1.0
 40
1.0
 10
-46.3292322632
 20
22.1969013538
 30
0.0
 10
-46.3292978394
 20
22.2195392926
 30
0.0
 10
-46.3286474518
 20
22.2638514724
 30
0.0
 10
-46.3254889839
 20
22.3289293981
 30
0.0
 10
-46.3204461557
 20
22.391296408
 30
0.0
 10
-46.3137219711
 20
22.4513102978
 30
0.0
 10
-46.3054632847
 20
22.5090968119
 30
0.0
 10
-46.2959900819
 20
22.5637468059
 30
0.0
 10
-46.2858706701
 20
22.6138250854
 30
0.0
 10
-46.2756566628
 20
22.6586713411
 30
0.0
 10
-46.2656376232
 20
22.6986450344
 30
0.0
 10
-46.2559403443
 20
22.7343639835
 30
0.0
 10
-46.2467080287
 20
22.7661625715
 30
0.0
 10
-46.237890925
 20
22.7948424546
 30
0.0
 10
-46.229218653
 20
22.82165439
 30
0.0
 10
-46.2203801202
 20
22.8477062227
 30
0.0
 10
-46.2111762877
 20
22.8736235479
 30
0.0
 10
-46.2015475934
 20
22.8995783041
 30
0.0
 10
-46.1914459803
 20
22.9256865769
 30
0.0
 10
-46.1806347252
 20
22.9525081804
 30
0.0
 10
-46.1685805725
 20
22.9811990464
 30
0.0
 10
-46.1545941289
 20
23.0130464608
 30
0.0
 10
-46.1383293454
 20
23.048311026
 30
0.0
 10
-46.1199963469
 20
23.0859931314
 30
0.0
 10
-46.1002169436
 20
23.1244751153
 30
0.0
 10
-46.0792565016
 20
23.1631133443
 30
0.0
 10
-46.0563932113
 20
23.2030868184
 30
0.0
 10
-46.0310318121
 20
23.2450684051
 30
0.0
 10
-46.0033312005
 20
23.2884057891
 30
0.0
 10
-45.974156686
 20
23.3315422351
 30
0.0
 10
-45.9438871341
 20
23.3738999363
 30
0.0
 10
-45.9123550052
 20
23.4156932421
 30
0.0
 10
-45.8795299228
 20
23.456922828
 30
0.0
 10
-45.8455946533
 20
23.4973560974
 30
0.0
 10
-45.8107581189
 20
23.5367581247
 30
0.0
 10
-45.7752770683
 20
23.5748750279
 30
0.0
 10
-45.7392742976
 20
23.6116296028
 30
0.0
 10
-45.7026753995
 20
23.6471463607
 30
0.0
 10
-45.6652938982
 20
23.6816519666
 30
0.0
 10
-45.6270521676
 20
23.7152256114
 30
0.0
 10
-45.5881304775
 20
23.747710866
 30
0.0
 10
-45.5486338283
 20
23.7790306544
 30
0.0
 10
-45.5081322556
 20
23.8095241157
 30
0.0
 10
-45.4653985642
 20
23.8400271321
 30
0.0
 10
-45.4185818387
 20
23.8715852212
 30
0.0
 10
-45.3660868001
 20
23.9047800433
 30
0.0
 10
-45.3069798042
 20
23.9395261448
 30
0.0
 10
-45.2408210094
 20
23.9752818492
 30
0.0
 10
-45.1668694258
 20
24.0115537352
 30
0.0
 10
-45.0841387083
 20
24.0477858197
 30
0.0
 10
-44.9913870239
 20
24.0833106992
 30
0.0
 10
-44.8870505979
 20
24.1170947632
 30
0.0
 10
-44.7695645924
 20
24.1477425839
 30
0.0
 10
-44.6372959592
 20
24.1733000162
 30
0.0
 10
-44.4886183409
 20
24.1910647654
 30
0.0
 10
-44.3836282562
 20
24.1951507001
 30
0.0
 10
-44.3282522855
 20
24.1949609184
 30
0.0
 11
-46.3292322632
 21
22.1969013538
 31
0.0
 11
-46.3282421954
 21
22.2648082381
 31
0.0
 11
-46.3250938646
 21
22.3297365972
 31
0.0
 11
-46.3200565041
 21
22.3920449141
 31
0.0
 11
-46.3133523735
 21
22.451834175
 31
0.0
 11
-46.3050783419
 21
22.5097104665
 31
0.0
 11
-46.2954353496
 21
22.5653468124
 31
0.0
 11
-46.2852496315
 21
22.6157689396
 31
0.0
 11
-46.2751817408
 21
22.6599844465
 31
0.0
 11
-46.2651694288
 21
22.6999331853
 31
0.0
 11
-46.2554512859
 21
22.735727614
 31
0.0
 11
-46.2463177965
 21
22.7671832577
 31
0.0
 11
-46.2376525563
 21
22.7953669039
 31
0.0
 11
-46.2291052142
 21
22.8217888326
 31
0.0
 11
-46.2203407533
 21
22.8476227376
 31
0.0
 11
-46.2111464221
 21
22.8735168532
 31
0.0
 11
-46.2014958129
 21
22.899532882
 31
0.0
 11
-46.1914573571
 21
22.9254793491
 31
0.0
 11
-46.1808359789
 21
22.951830739
 31
0.0
 11
-46.1690141132
 21
22.9799688503
 31
0.0
 11
-46.1551713582
 21
23.0114881055
 31
0.0
 11
-46.1386685843
 21
23.0472645476
 31
0.0
 11
-46.1199983863
 21
23.0856356918
 31
0.0
 11
-46.1000508564
 21
23.1244433176
 31
0.0
 11
-46.0793156839
 21
23.1626671744
 31
0.0
 11
-46.0571036057
 21
23.2015056178
 31
0.0
 11
-46.0312993324
 21
23.2442287339
 31
0.0
 11
-46.0030373416
 21
23.2884421555
 31
0.0
 11
-45.97396178
 21
23.3314317473
 31
0.0
 11
-45.9438230748
 21
23.3736070337
 31
0.0
 11
-45.9122448544
 21
23.4154627964
 31
0.0
 11
-45.8793750391
 21
23.4567526285
 31
0.0
 11
-45.8453825489
 21
23.4972554181
 31
0.0
 11
-45.8104816533
 21
23.5367295346
 31
0.0
 11
-45.7749165639
 21
23.5749344095
 31
0.0
 11
-45.7390028322
 21
23.6115954998
 31
0.0
 11
-45.7025369754
 21
23.6469859724
 31
0.0
 11
-45.6651762656
 21
23.6814733684
 31
0.0
 11
-45.6268945488
 21
23.7150815004
 31
0.0
 11
-45.5878440657
 21
23.7476715625
 31
0.0
 11
-45.5484531994
 21
23.7789050713
 31
0.0
 11
-45.5084509497
 21
23.8090228693
 31
0.0
 11
-45.4663444904
 21
23.8390784049
 31
0.0
 11
-45.4201689826
 21
23.8702053235
 31
0.0
 11
-45.367819494
 21
23.9033087997
 31
0.0
 11
-45.3086147518
 21
23.9381087927
 31
0.0
 11
-45.2426004783
 21
23.9737832296
 31
0.0
 11
-45.1691205616
 21
24.009824754
 31
0.0
 11
-45.0865418278
 21
24.0459976669
 31
0.0
 11
-44.9942139856
 21
24.0813438485
 31
0.0
 11
-44.8906799113
 21
24.114873577
 31
0.0
 11
-44.7734510666
 21
24.1454545354
 31
0.0
 11
-44.6418332264
 21
24.1708704864
 31
0.0
 11
-44.4942556889
 21
24.1885051151
 31
0.0
 11
-44.3282522855
 21
24.1949609184
 31
0.0
  0
SPLINE
  5
390
100
AcDbEntity
  8
RACCORDO
100
AcDbSpline
 62
253
  6
CONTINUOUS
 70
0
 71
3
 72
14
 73
10
 74
8
 42
0.0000001
 43
0.0000001
 44
0.0000000001
 12
0.0000380285
 22
10.5000393674
 32
0.0
 13
-0.0157137322
 23
10.5000276093
 33
0.0
 40
0.0
 40
0.0
 40
0.0
 40
0.0
 40
0.1817875463
 40
0.3483689312
 40
0.501407635
 40
0.6423189162
 40
0.7723082628
 40
0.8919918608
 40
1.0
 40
1.0
 40
1.0
 40
1.0
 10
-46.3267856457
 20
11.6968626462
 30
0.0
 10
-46.3267833413
 20
12.3331214437
 30
0.0
 10
-46.3269629863
 20
13.552417272
 30
0.0
 10
-46.3274146093
 20
15.3073505148
 30
0.0
 10
-46.327691796
 20
16.9192163299
 30
0.0
 10
-46.3278582473
 20
18.4030095502
 30
0.0
 10
-46.3278147947
 20
19.7700594602
 30
0.0
 10
-46.3279451164
 20
21.0219479701
 30
0.0
 10
-46.3286666057
 20
21.8188718727
 30
0.0
 10
-46.3292323427
 20
22.1969013538
 30
0.0
 11
-46.3267856457
 21
11.6968626462
 31
0.0
 11
-46.3270073527
 21
13.6056390257
 31
0.0
 11
-46.3274008634
 21
15.3547500806
 31
0.0
 11
-46.3276824227
 21
16.9616624706
 31
0.0
 11
-46.3278256031
 21
18.4412364644
 31
0.0
 11
-46.3278458357
 21
19.8061297205
 31
0.0
 11
-46.3281257936
 21
21.0628121803
 31
0.0
 11
-46.3292323427
 21
22.1969013538
 31
0.0
  0
SPLINE
  5
391
100
AcDbEntity
  8
RACCORDO
100
AcDbSpline
 62
253
  6
CONTINUOUS
 70
0
 71
3
 72
14
 73
10
 74
8
 42
0.0000001
 43
0.0000001
 44
0.0000000001
 12
0.015722886
 22
10.4999867407
 32
0.0
 13
-0.0000399301
 23
10.4999985125
 33
0.0
 40
0.0
 40
0.0
 40
0.0
 40
0.0
 40
0.1091377713
 40
0.2301398569
 40
0.3613620538
 40
0.5030805843
 40
0.6561875474
 40
0.8211987558
 40
1.0
 40
1.0
 40
1.0
 40
1.0
 10
-46.3292328428
 20
-22.3031781725
 30
0.0
 10
-46.3286608559
 20
-21.9211964555
 30
0.0
 10
-46.3279361647
 20
-21.1157072313
 30
0.0
 10
-46.3278139912
 20
-19.8509401985
 30
0.0
 10
-46.3278626592
 20
-18.4721405542
 30
0.0
 10
-46.327697782
 20
-16.9809738516
 30
0.0
 10
-46.3273986096
 20
-15.37154565
 30
0.0
 10
-46.3269578906
 20
-13.632327999
 30
0.0
 10
-46.3267832659
 20
-12.4289845872
 30
0.0
 10
-46.3267856457
 20
-11.8031803211
 30
0.0
 11
-46.3292328428
 21
-22.3031781725
 31
0.0
 11
-46.3281190007
 21
-21.1572322779
 31
0.0
 11
-46.3278442441
 21
-19.8867105882
 31
0.0
 11
-46.327829154
 21
-18.5088777158
 31
0.0
 11
-46.3276842313
 21
-17.0208333633
 31
0.0
 11
-46.3273889421
 21
-15.4132105063
 31
0.0
 11
-46.327000136
 21
-13.6805931073
 31
0.0
 11
-46.3267856457
 21
-11.8031803211
 31
0.0
  0
SPLINE
  5
392
100
AcDbEntity
  8
RACCORDO
100
AcDbSpline
 62
253
  6
CONTINUOUS
 70
0
 71
3
 72
61
 73
57
 74
55
 42
0.0000001
 43
0.0000001
 44
0.0000000001
 12
-3.1396929354
 22
-0.0103517901
 32
0.0
 13
0.0091464309
 23
3.1396966782
 33
0.0
 40
0.0
 40
0.0
 40
0.0
 40
0.0
 40
0.0484282714
 40
0.0921865339
 40
0.1316744313
 40
0.1674951583
 40
0.1999866085
 40
0.2294632291
 40
0.2561971468
 40
0.2804581222
 40
0.3027157333
 40
0.3233190894
 40
0.3420951775
 40
0.3590224235
 40
0.3748882695
 40
0.390440052
 40
0.40612634
 40
0.4218420318
 40
0.4374647167
 40
0.4530045215
 40
0.4687271304
 40
0.4854126213
 40
0.5038221498
 40
0.5243842403
 40
0.5467761219
 40
0.5704999322
 40
0.5948683878
 40
0.6188207359
 40
0.6411960057
 40
0.6613220695
 40
0.6791094737
 40
0.6952448556
 40
0.7109770604
 40
0.7262809339
 40
0.7406957209
 40
0.7537553331
 40
0.765129823
 40
0.7750397838
 40
0.7840444767
 40
0.7926574074
 40
0.8012296997
 40
0.8098981995
 40
0.8186318001
 40
0.8273868295
 40
0.8362851406
 40
0.8456345249
 40
0.8557388696
 40
0.8668724835
 40
0.8792503567
 40
0.8931088796
 40
0.9085856786
 40
0.9253449039
 40
0.9429908419
 40
0.9612927209
 40
0.9802634508
 40
1.0
 40
1.0
 40
1.0
 40
1.0
 10
-44.3287032992
 20
-24.3012367218
 30
0.0
 10
-44.3793865998
 20
-24.3014038282
 30
0.0
 10
-44.475920713
 20
-24.297943326
 30
0.0
 10
-44.6130111679
 20
-24.2829288264
 30
0.0
 10
-44.735792353
 20
-24.26115949
 30
0.0
 10
-44.8455564692
 20
-24.2348174571
 30
0.0
 10
-44.943682754
 20
-24.2055864013
 30
0.0
 10
-45.0312837473
 20
-24.1747610473
 30
0.0
 10
-45.1094322178
 20
-24.1432982724
 30
0.0
 10
-45.1793482152
 20
-24.1118017242
 30
0.0
 10
-45.2422964432
 20
-24.0805876968
 30
0.0
 10
-45.2991024183
 20
-24.0499979487
 30
0.0
 10
-45.3501134819
 20
-24.0204772617
 30
0.0
 10
-45.3960652217
 20
-23.992158642
 30
0.0
 10
-45.4384550669
 20
-23.9645253193
 30
0.0
 10
-45.4790879512
 20
-23.9366024077
 30
0.0
 10
-45.5189022589
 20
-23.907791248
 30
0.0
 10
-45.5580550558
 20
-23.8779645689
 30
0.0
 10
-45.5963379566
 20
-23.8472738885
 30
0.0
 10
-45.6338648072
 20
-23.8156522505
 30
0.0
 10
-45.6714460457
 20
-23.7823917292
 30
0.0
 10
-45.7103813819
 20
-23.7461533116
 30
0.0
 10
-45.7519336421
 20
-23.7053209558
 30
0.0
 10
-45.7963672753
 20
-23.658937736
 30
0.0
 10
-45.8429641077
 20
-23.6069733358
 30
0.0
 10
-45.8902578475
 20
-23.5503410681
 30
0.0
 10
-45.9364193161
 20
-23.4907007282
 30
0.0
 10
-45.9794743262
 20
-23.4305082984
 30
0.0
 10
-46.0178707206
 20
-23.3725025981
 30
0.0
 10
-46.0509491584
 20
-23.3187600102
 30
0.0
 10
-46.0791626526
 20
-23.2697238305
 30
0.0
 10
-46.103845376
 20
-23.2239856406
 30
0.0
 10
-46.1261700754
 20
-23.1799475595
 30
0.0
 10
-46.1466172811
 20
-23.1369937493
 30
0.0
 10
-46.1649087791
 20
-23.0961262285
 30
0.0
 10
-46.1807255096
 20
-23.0586677768
 30
0.0
 10
-46.1940799204
 20
-23.0252952451
 30
0.0
 10
-46.205369158
 20
-22.9956725445
 30
0.0
 10
-46.2152283302
 20
-22.9686014847
 30
0.0
 10
-46.2242461506
 20
-22.9427168969
 30
0.0
 10
-46.2327904104
 20
-22.9170426924
 30
0.0
 10
-46.2410081316
 20
-22.8911295853
 30
0.0
 10
-46.2489182972
 20
-22.8649211344
 30
0.0
 10
-46.2565304395
 20
-22.8383742865
 30
0.0
 10
-46.2639430479
 20
-22.8111025819
 30
0.0
 10
-46.2713175796
 20
-22.7823601148
 30
0.0
 10
-46.2788028117
 20
-22.751234388
 30
0.0
 10
-46.2864602139
 20
-22.7168946812
 30
0.0
 10
-46.2942610058
 20
-22.6785676071
 30
0.0
 10
-46.3020622515
 20
-22.635610792
 30
0.0
 10
-46.3095466584
 20
-22.5879485281
 30
0.0
 10
-46.3162871991
 20
-22.5361740371
 30
0.0
 10
-46.3218971374
 20
-22.4812912441
 30
0.0
 10
-46.3261250247
 20
-22.4239627658
 30
0.0
 10
-46.328757694
 20
-22.3643482924
 30
0.0
 10
-46.3292929368
 20
-22.3238337651
 30
0.0
 10
-46.3292327638
 20
-22.3031781725
 30
0.0
 11
-44.3287032992
 21
-24.3012367218
 31
0.0
 11
-44.4806575868
 21
-24.2958220727
 31
0.0
 11
-44.6172286184
 21
-24.2808592614
 31
0.0
 11
-44.7393052528
 21
-24.2592150659
 31
0.0
 11
-44.8486690099
 21
-24.2329790965
 31
0.0
 11
-44.9464377366
 21
-24.2038573273
 31
0.0
 11
-45.0337380453
 21
-24.1731360667
 31
0.0
 11
-45.1115999966
 21
-24.1417849206
 31
0.0
 11
-45.1810498738
 21
-24.1104966931
 31
0.0
 11
-45.2436606083
 21
-24.0794571709
 31
0.0
 11
-45.3006175461
 21
-24.0487893136
 31
0.0
 11
-45.3516415081
 21
-24.0192625244
 31
0.0
 11
-45.3968865112
 21
-23.9913796371
 31
0.0
 11
-45.4386166734
 21
-23.9641758941
 31
0.0
 11
-45.4788583034
 21
-23.9365209973
 31
0.0
 11
-45.5187570793
 21
-23.9076473222
 31
0.0
 11
-45.5580067507
 21
-23.8777447005
 31
0.0
 11
-45.5962783992
 21
-23.8470648685
 31
0.0
 11
-45.6335902086
 21
-23.8156269954
 31
0.0
 11
-45.6705569798
 21
-23.7829114789
 31
0.0
 11
-45.7089049634
 21
-23.74721984
 31
0.0
 11
-45.750131178
 21
-23.7067068006
 31
0.0
 11
-45.7947935863
 21
-23.660089916
 31
0.0
 11
-45.8417304861
 21
-23.6077489007
 31
0.0
 11
-45.8894712928
 21
-23.5505740607
 31
0.0
 11
-45.9362961321
 21
-23.4900662369
 31
0.0
 11
-45.9800481208
 21
-23.428899915
 31
0.0
 11
-46.0188272113
 21
-23.3703208595
 31
0.0
 11
-46.0519473992
 21
-23.3165060871
 31
0.0
 11
-46.079792626
 21
-23.2680957245
 31
0.0
 11
-46.103851207
 21
-23.2235125118
 31
0.0
 11
-46.1261862461
 21
-23.1794560861
 31
0.0
 11
-46.1468416226
 21
-23.1360725468
 31
0.0
 11
-46.1653335461
 21
-23.0947644601
 31
0.0
 11
-46.1812838951
 21
-23.0569905964
 31
0.0
 11
-46.1945513661
 21
-23.0238339381
 31
0.0
 11
-46.2056309705
 21
-22.9947590618
 31
0.0
 11
-46.2153049811
 21
-22.9681935477
 31
0.0
 11
-46.2242004034
 21
-22.9426563809
 31
0.0
 11
-46.2326984884
 21
-22.9171186932
 31
0.0
 11
-46.2409272197
 21
-22.8911758722
 31
0.0
 11
-46.2488510702
 21
-22.8649247318
 31
0.0
 11
-46.2564284562
 21
-22.8385014978
 31
0.0
 11
-46.2637567057
 21
-22.8115416183
 31
0.0
 11
-46.271052062
 21
-22.7831082586
 31
0.0
 11
-46.2784695679
 21
-22.7522628704
 31
0.0
 11
-46.2860763633
 21
-22.7181442407
 31
0.0
 11
-46.2938250691
 21
-22.6800616323
 31
0.0
 11
-46.3015982141
 21
-22.6372498348
 31
0.0
 11
-46.3091360147
 21
-22.5892453745
 31
0.0
 11
-46.3159331333
 21
-22.5370671257
 31
0.0
 11
-46.3215722131
 21
-22.4819517252
 31
0.0
 11
-46.3257966979
 21
-22.4246446293
 31
0.0
 11
-46.3284215314
 21
-22.365139903
 31
0.0
 11
-46.3292327638
 21
-22.3031781725
 31
0.0
  0
SPLINE
  5
393
100
AcDbEntity
  8
RACCORDO
100
AcDbSpline
 62
253
  6
CONTINUOUS
 70
0
 71
3
 72
18
 73
14
 74
12
 42
0.0000001
 43
0.0000001
 44
0.0000000001
 12
0.0005251586
 22
1.5942979199
 32
0.0
 13
0.0107664718
 23
1.5942616524
 33
0.0
 40
0.0
 40
0.0
 40
0.0
 40
0.0
 40
0.103466846
 40
0.2170377083
 40
0.3364890495
 40
0.4573782987
 40
0.5752094088
 40
0.685600071
 40
0.7844446982
 40
0.8680671197
 40
0.933357364
 40
0.9778870017
 40
1.0
 40
1.0
 40
1.0
 40
1.0
 10
-44.3287032992
 20
-24.3012367218
 30
0.0
 10
-44.3286851871
 20
-24.2462510627
 30
0.0
 10
-44.3290953594
 20
-24.1309104147
 30
0.0
 10
-44.3288903042
 20
-23.9520890198
 30
0.0
 10
-44.3289264113
 20
-23.7640089484
 30
0.0
 10
-44.3288951756
 20
-23.5736647966
 30
0.0
 10
-44.3288924963
 20
-23.3881357976
 30
0.0
 10
-44.3288798165
 20
-23.2143220267
 30
0.0
 10
-44.3289348806
 20
-23.0586878743
 30
0.0
 10
-44.3288675823
 20
-22.9270215542
 30
0.0
 10
-44.3292138288
 20
-22.8242200282
 30
0.0
 10
-44.3290140724
 20
-22.7541069454
 30
0.0
 10
-44.3291734263
 20
-22.7186903514
 30
0.0
 10
-44.3290940666
 20
-22.7069390496
 30
0.0
 11
-44.3287032992
 21
-24.3012367218
 31
0.0
 11
-44.328952988
 21
-24.1362799245
 31
0.0
 11
-44.3289332665
 21
-23.9552141261
 31
0.0
 11
-44.3289150302
 21
-23.764773092
 31
0.0
 11
-44.3288997779
 21
-23.5720396036
 31
0.0
 11
-44.3288905476
 21
-23.3841816998
 31
0.0
 11
-44.3288925775
 21
-23.2081860872
 31
0.0
 11
-44.3289131304
 21
-23.0505982965
 31
0.0
 11
-44.32895941
 21
-22.9172792446
 31
0.0
 11
-44.3291227393
 21
-22.8131872663
 31
0.0
 11
-44.3290963288
 21
-22.7421937587
 31
0.0
 11
-44.3290940666
 21
-22.7069390496
 31
0.0
  0
SPLINE
  5
394
100
AcDbEntity
  8
RACCORDO
100
AcDbSpline
 62
253
  6
CONTINUOUS
 70
0
 71
3
 72
45
 73
41
 74
39
 42
0.0000001
 43
0.0000001
 44
0.0000000001
 12
-14.2996106392
 22
0.0003065968
 32
0.0
 13
-14.2995875654
 23
-0.0256901849
 33
0.0
 40
0.0
 40
0.0
 40
0.0
 40
0.0
 40
0.0789991535
 40
0.1516549763
 40
0.2185425082
 40
0.2801661788
 40
0.336978589
 40
0.3893871533
 40
0.4377599439
 40
0.4824304095
 40
0.5236949157
 40
0.5618128724
 40
0.5970273713
 40
0.6295646739
 40
0.6596335409
 40
0.687427797
 40
0.7131274976
 40
0.7368978469
 40
0.758890951
 40
0.7792420305
 40
0.7980769846
 40
0.8155200213
 40
0.83166895
 40
0.846606812
 40
0.8604342608
 40
0.8732591734
 40
0.8851261138
 40
0.8960136044
 40
0.9059105099
 40
0.9150152538
 40
0.9236292123
 40
0.9320634802
 40
0.9405235539
 40
0.9490080417
 40
0.9574723198
 40
0.9659203939
 40
0.9743819972
 40
0.9829326635
 40
0.9915161063
 40
1.0
 40
1.0
 40
1.0
 40
1.0
 10
-30.0290933649
 20
-24.2996244925
 30
0.0
 10
-30.4056457434
 20
-24.2996164188
 30
0.0
 10
-31.1285147817
 20
-24.2996268606
 30
0.0
 10
-32.1702057039
 20
-24.2997177543
 30
0.0
 10
-33.1290757398
 20
-24.2998541704
 30
0.0
 10
-34.0124275617
 20
-24.3000083022
 30
0.0
 10
-34.8267648497
 20
-24.3001579561
 30
0.0
 10
-35.5779413315
 20
-24.3002906613
 30
0.0
 10
-36.2712427896
 20
-24.3003994446
 30
0.0
 10
-36.911425687
 20
-24.3004815727
 30
0.0
 10
-37.5027285437
 20
-24.3005369683
 30
0.0
 10
-38.0489591877
 20
-24.3005672794
 30
0.0
 10
-38.553591295
 20
-24.3005755657
 30
0.0
 10
-39.0198571189
 20
-24.3005650255
 30
0.0
 10
-39.4507540813
 20
-24.3005385891
 30
0.0
 10
-39.8490593603
 20
-24.3004993744
 30
0.0
 10
-40.2173425214
 20
-24.3004513522
 30
0.0
 10
-40.5579742765
 20
-24.3003975509
 30
0.0
 10
-40.8731116306
 20
-24.3003401465
 30
0.0
 10
-41.1647242411
 20
-24.3002811673
 30
0.0
 10
-41.4346487867
 20
-24.3002210819
 30
0.0
 10
-41.6845436253
 20
-24.3001635738
 30
0.0
 10
-41.9158628321
 20
-24.3001151683
 30
0.0
 10
-42.129948208
 20
-24.3000791182
 30
0.0
 10
-42.3281895409
 20
-24.3000568774
 30
0.0
 10
-42.5117932137
 20
-24.3000489156
 30
0.0
 10
-42.6813834672
 20
-24.3000548027
 30
0.0
 10
-42.8370172661
 20
-24.3000733109
 30
0.0
 10
-42.9794849517
 20
-24.3001022957
 30
0.0
 10
-43.1111157599
 20
-24.300140111
 30
0.0
 10
-43.2357748489
 20
-24.30018665
 30
0.0
 10
-43.3573610885
 20
-24.3002436814
 30
0.0
 10
-43.4783301946
 20
-24.3003139111
 30
0.0
 10
-43.599442336
 20
-24.3003987762
 30
0.0
 10
-43.7204972708
 20
-24.3004970175
 30
0.0
 10
-43.8414431159
 20
-24.3006070244
 30
0.0
 10
-43.9628007257
 20
-24.3007254193
 30
0.0
 10
-44.0848035595
 20
-24.3008599084
 30
0.0
 10
-44.2069126027
 20
-24.3010266403
 30
0.0
 10
-44.2882645787
 20
-24.3011627658
 30
0.0
 10
-44.3287033058
 20
-24.3012354168
 30
0.0
 11
-30.0290933649
 21
-24.2996244925
 31
0.0
 11
-31.1587505005
 21
-24.2996415794
 31
0.0
 11
-32.1977004736
 21
-24.2997300729
 31
0.0
 11
-33.1541661283
 21
-24.2998630861
 31
0.0
 11
-34.0353606106
 21
-24.3000137233
 31
0.0
 11
-34.8477559438
 21
-24.3001608121
 31
0.0
 11
-35.5971779961
 21
-24.3002914932
 31
0.0
 11
-36.2888900581
 21
-24.3003987831
 31
0.0
 11
-36.9276603186
 21
-24.3004798254
 31
0.0
 11
-37.5177266879
 21
-24.3005344685
 31
0.0
 11
-38.0627986271
 21
-24.3005643574
 31
0.0
 11
-38.5663522494
 21
-24.3005723705
 31
0.0
 11
-39.0316230084
 21
-24.3005616364
 31
0.0
 11
-39.4615960978
 21
-24.3005351606
 31
0.0
 11
-39.8590431358
 21
-24.3004961928
 31
0.0
 11
-40.2265388453
 21
-24.3004483998
 31
0.0
 11
-40.5664455811
 21
-24.3003947881
 31
0.0
 11
-40.880938401
 21
-24.3003376267
 31
0.0
 11
-41.171950908
 21
-24.3002786805
 31
0.0
 11
-41.4412834124
 21
-24.3002192541
 31
0.0
 11
-41.6907120392
 21
-24.3001630553
 31
0.0
 11
-41.921635426
 21
-24.3001155945
 31
0.0
 11
-42.1352410336
 21
-24.3000803049
 31
0.0
 11
-42.332968167
 21
-24.3000586947
 31
0.0
 11
-42.5163594236
 21
-24.3000511966
 31
0.0
 11
-42.6860520506
 21
-24.3000574489
 31
0.0
 11
-42.8417389258
 21
-24.3000761702
 31
0.0
 11
-42.9832608188
 21
-24.3001051237
 31
0.0
 11
-43.1134551062
 21
-24.3001427019
 31
0.0
 11
-43.2366313494
 21
-24.3001889557
 31
0.0
 11
-43.3572380837
 21
-24.3002458615
 31
0.0
 11
-43.478213822
 21
-24.3003162627
 31
0.0
 11
-43.5995386644
 21
-24.3004010874
 31
0.0
 11
-43.7205745063
 21
-24.3004990592
 31
0.0
 11
-43.8413786268
 21
-24.3006082941
 31
0.0
 11
-43.9623762014
 21
-24.300727548
 31
0.0
 11
-44.0846473233
 21
-24.3008650873
 31
0.0
 11
-44.2073870966
 21
-24.3010336226
 31
0.0
 11
-44.3287033058
 21
-24.3012354168
 31
0.0
  0
SPLINE
  5
395
100
AcDbEntity
  8
RACCORDO
100
AcDbSpline
 62
253
  6
CONTINUOUS
 70
0
 71
3
 72
49
 73
45
 74
43
 42
0.0000001
 43
0.0000001
 44
0.0000000001
 12
-14.2999612459
 22
0.025693957
 32
0.0
 13
-14.2999843259
 23
-0.0003071652
 33
0.0
 40
0.0
 40
0.0
 40
0.0
 40
0.0
 40
0.0084189476
 40
0.0169805217
 40
0.025532882
 40
0.0339775625
 40
0.0423751806
 40
0.0507672252
 40
0.059157026
 40
0.0675136168
 40
0.0758423099
 40
0.0841647071
 40
0.0924941776
 40
0.1008059665
 40
0.1091107801
 40
0.1176293364
 40
0.1266584311
 40
0.1364814377
 40
0.1472595638
 40
0.1589665747
 40
0.1715758854
 40
0.1851334585
 40
0.1997440674
 40
0.215508415
 40
0.2325239016
 40
0.2508927995
 40
0.2707239247
 40
0.2921394248
 40
0.3152714397
 40
0.3402645951
 40
0.3672765012
 40
0.3964763231
 40
0.4280467947
 40
0.4621858114
 40
0.4991070512
 40
0.5390380538
 40
0.5822180577
 40
0.6288934718
 40
0.6793025204
 40
0.7336806381
 40
0.792438543
 40
0.8560592981
 40
0.9250599728
 40
1.0
 40
1.0
 40
1.0
 40
1.0
 10
67.7703563155
 20
-24.3012351286
 30
0.0
 10
67.7302261072
 20
-24.3011630232
 30
0.0
 10
67.6492858213
 20
-24.3010275707
 30
0.0
 10
67.5275793292
 20
-24.300861088
 30
0.0
 10
67.4057501388
 20
-24.3007265206
 30
0.0
 10
67.2847024546
 20
-24.3006085298
 30
0.0
 10
67.1644189336
 20
-24.3004987868
 30
0.0
 10
67.0443969951
 20
-24.300401256
 30
0.0
 10
66.9245706104
 20
-24.3003167186
 30
0.0
 10
66.8050461912
 20
-24.3002468901
 30
0.0
 10
66.6858430551
 20
-24.3001902057
 30
0.0
 10
66.5667691875
 20
-24.300144898
 30
0.0
 10
66.4477758936
 20
-24.3001094115
 30
0.0
 10
66.3288664121
 20
-24.300082788
 30
0.0
 10
66.2090556211
 20
-24.3000642383
 30
0.0
 10
66.0858256753
 20
-24.3000532905
 30
0.0
 10
65.9553590171
 20
-24.3000498481
 30
0.0
 10
65.8141217544
 20
-24.3000545863
 30
0.0
 10
65.6601197723
 20
-24.3000683801
 30
0.0
 10
65.4928364232
 20
-24.3000917357
 30
0.0
 10
65.3123043928
 20
-24.3001244816
 30
0.0
 10
65.1179318948
 20
-24.3001656925
 30
0.0
 10
64.9085204051
 20
-24.3002135807
 30
0.0
 10
64.6826262126
 20
-24.3002645673
 30
0.0
 10
64.4388175289
 20
-24.3003154682
 30
0.0
 10
64.1756238928
 20
-24.3003661284
 30
0.0
 10
63.8914568814
 20
-24.3004152653
 30
0.0
 10
63.5845857031
 20
-24.3004615817
 30
0.0
 10
63.2531088731
 20
-24.3005032423
 30
0.0
 10
62.8949558695
 20
-24.300537897
 30
0.0
 10
62.5078796833
 20
-24.3005624532
 30
0.0
 10
62.0894516575
 20
-24.3005743514
 30
0.0
 10
61.6370511079
 20
-24.3005711609
 30
0.0
 10
61.147845174
 20
-24.3005501732
 30
0.0
 10
60.6187874201
 20
-24.3005086226
 30
0.0
 10
60.0466343437
 20
-24.3004443351
 30
0.0
 10
59.4279864227
 20
-24.3003564441
 30
0.0
 10
58.7593932069
 20
-24.3002456821
 30
0.0
 10
58.0374223762
 20
-24.3001154856
 30
0.0
 10
57.257858404
 20
-24.2999729385
 30
0.0
 10
56.4153186993
 20
-24.2998299492
 30
0.0
 10
55.5030782118
 20
-24.2997062501
 30
0.0
 10
54.5137030205
 20
-24.2996253718
 30
0.0
 10
53.827586426
 20
-24.2996168237
 30
0.0
 10
53.4703726878
 20
-24.2996244967
 30
0.0
 11
67.7703563155
 21
-24.3012351286
 31
0.0
 11
67.649965663
 21
-24.3010347885
 31
0.0
 11
67.5275354039
 21
-24.3008664044
 31
0.0
 11
67.4052368632
 21
-24.3007286164
 31
0.0
 11
67.2844781232
 21
-24.3006095701
 31
0.0
 11
67.1643923646
 21
-24.3005007598
 31
0.0
 11
67.044386298
 21
-24.3004033899
 31
0.0
 11
66.924412308
 21
-24.3003190368
 31
0.0
 11
66.8049132115
 21
-24.3002489808
 31
0.0
 11
66.6858130437
 21
-24.3001920785
 31
0.0
 11
66.5668029028
 21
-24.3001465422
 31
0.0
 11
66.4476916111
 21
-24.3001108634
 31
0.0
 11
66.3288331633
 21
-24.3000841494
 31
0.0
 11
66.2100744594
 21
-24.3000656855
 31
0.0
 11
66.0882592392
 21
-24.3000547378
 31
0.0
 11
65.9591433266
 21
-24.3000511833
 31
0.0
 11
65.8186744855
 21
-24.3000556843
 31
0.0
 11
65.664547452
 21
-24.300069216
 31
0.0
 11
65.4971373807
 21
-24.3000922574
 31
0.0
 11
65.3168244387
 21
-24.300124549
 31
0.0
 11
65.1229513605
 21
-24.3001651465
 31
0.0
 11
64.9140198862
 21
-24.3002122236
 31
0.0
 11
64.6885899683
 21
-24.3002626092
 31
0.0
 11
64.4452687821
 21
-24.3003134859
 31
0.0
 11
64.1825938349
 21
-24.3003639629
 31
0.0
 11
63.89900906
 21
-24.3004129603
 31
0.0
 11
63.5927677476
 21
-24.3004591077
 31
0.0
 11
63.2619802999
 21
-24.3005005945
 31
0.0
 11
62.9045785702
 21
-24.3005350583
 31
0.0
 11
62.5183087369
 21
-24.3005596258
 31
0.0
 11
62.1007517417
 21
-24.3005716567
 31
0.0
 11
61.6492944935
 21
-24.3005686553
 31
0.0
 11
61.1611070889
 21
-24.3005479562
 31
0.0
 11
60.6331339411
 21
-24.3005068895
 31
0.0
 11
60.062121233
 21
-24.3004433584
 31
0.0
 11
59.4446478603
 21
-24.3003564775
 31
0.0
 11
58.7771901783
 21
-24.3002470612
 31
0.0
 11
58.0563415846
 21
-24.3001186061
 31
0.0
 11
57.2787353663
 21
-24.2999783933
 31
0.0
 11
56.4384982583
 21
-24.2998384704
 31
0.0
 11
55.5287224663
 21
-24.2997175618
 31
0.0
 11
54.5420139024
 21
-24.2996386105
 31
0.0
 11
53.4703726878
 21
-24.2996244967
 31
0.0
  0
SPLINE
  5
396
100
AcDbEntity
  8
RACCORDO
100
AcDbSpline
 62
253
  6
CONTINUOUS
 70
0
 71
3
 72
61
 73
57
 74
55
 42
0.0000001
 43
0.0000001
 44
0.0000000001
 12
0.0090965975
 22
-3.1399145315
 32
0.0
 13
-3.1399102318
 23
0.0104761394
 33
0.0
 40
0.0
 40
0.0
 40
0.0
 40
0.0
 40
0.0197383546
 40
0.0392240539
 40
0.0584698746
 40
0.0774327233
 40
0.0955746983
 40
0.1119832473
 40
0.126245725
 40
0.1386862623
 40
0.1497195507
 40
0.1596922026
 40
0.1689384343
 40
0.1778100723
 40
0.1865722671
 40
0.1952833188
 40
0.2039315828
 40
0.2125130946
 40
0.2213091206
 40
0.2307505012
 40
0.2412910617
 40
0.2532926934
 40
0.2666062829
 40
0.2808148268
 40
0.2956550334
 40
0.3111268301
 40
0.3275695901
 40
0.3455443899
 40
0.3653598062
 40
0.3869641508
 40
0.4104998135
 40
0.436322359
 40
0.4647971018
 40
0.4961318453
 40
0.5302768224
 40
0.5647360082
 40
0.5967306555
 40
0.6252766312
 40
0.6505118735
 40
0.6731639557
 40
0.693409052
 40
0.7114724377
 40
0.7282991416
 40
0.7449703109
 40
0.761863081
 40
0.7787925503
 40
0.7954792896
 40
0.811968901
 40
0.8288784102
 40
0.847144584
 40
0.8674003019
 40
0.889531697
 40
0.9135123545
 40
0.9397019602
 40
0.9684916527
 40
1.0
 40
1.0
 40
1.0
 40
1.0
 10
69.7710460379
 20
-22.3031760419
 30
0.0
 10
69.7711058885
 20
-22.3238349574
 30
0.0
 10
69.7705662241
 20
-22.3648931993
 30
0.0
 10
69.767842522
 20
-22.4260389229
 30
0.0
 10
69.7633024442
 20
-22.486262861
 30
0.0
 10
69.757094649
 20
-22.5449231848
 30
0.0
 10
69.7495468942
 20
-22.6004298008
 30
0.0
 10
69.7412474639
 20
-22.6508470753
 30
0.0
 10
69.7328149146
 20
-22.6951785659
 30
0.0
 10
69.7246037872
 20
-22.7338146751
 30
0.0
 10
69.7166904122
 20
-22.7679168334
 30
0.0
 10
69.7090250451
 20
-22.7986395036
 30
0.0
 10
69.7014789165
 20
-22.8270563903
 30
0.0
 10
69.6938724613
 20
-22.8541433744
 30
0.0
 10
69.6860495887
 20
-22.8805849891
 30
0.0
 10
69.6779302841
 20
-22.9066923459
 30
0.0
 10
69.6695075715
 20
-22.9325045649
 30
0.0
 10
69.6606943532
 20
-22.9582800833
 30
0.0
 10
69.6512403152
 20
-22.9847108997
 30
0.0
 10
69.6406855378
 20
-23.0129224726
 30
0.0
 10
69.6284643914
 20
-23.0440888804
 30
0.0
 10
69.6141520825
 20
-23.0787830618
 30
0.0
 10
69.59762697
 20
-23.1167095033
 30
0.0
 10
69.5790469981
 20
-23.1569710142
 30
0.0
 10
69.558553092
 20
-23.1988242646
 30
0.0
 10
69.5359704049
 20
-23.2422431414
 30
0.0
 10
69.5106946037
 20
-23.2879411825
 30
0.0
 10
69.4818623961
 20
-23.336844692
 30
0.0
 10
69.4487206838
 20
-23.3894500228
 30
0.0
 10
69.410638677
 20
-23.4457837228
 30
0.0
 10
69.3668894467
 20
-23.5058244257
 30
0.0
 10
69.3164062363
 20
-23.5697872412
 30
0.0
 10
69.2579780242
 20
-23.6377875699
 30
0.0
 10
69.190517222
 20
-23.7093886697
 30
0.0
 10
69.1149702885
 20
-23.7818051307
 30
0.0
 10
69.035189209
 20
-23.8505922515
 30
0.0
 10
68.9565990213
 20
-23.9115708514
 30
0.0
 10
68.8831061425
 20
-23.9631852542
 30
0.0
 10
68.8157482398
 20
-24.0063817118
 30
0.0
 10
68.754313584
 20
-24.0426180084
 30
0.0
 10
68.6982869592
 20
-24.0731686018
 30
0.0
 10
68.6468040866
 20
-24.0992548611
 30
0.0
 10
68.5980047005
 20
-24.1223124673
 30
0.0
 10
68.5497356475
 20
-24.1435808652
 30
0.0
 10
68.5008246839
 20
-24.1636142973
 30
0.0
 10
68.4513845544
 20
-24.1823500149
 30
0.0
 10
68.4018623779
 20
-24.1996259525
 30
0.0
 10
68.351919753
 20
-24.2155768369
 30
0.0
 10
68.2999844838
 20
-24.2306611387
 30
0.0
 10
68.2438346058
 20
-24.2452924756
 30
0.0
 10
68.1819345848
 20
-24.2594266152
 30
0.0
 10
68.1137180188
 20
-24.272604531
 30
0.0
 10
68.0389221105
 20
-24.2842191957
 30
0.0
 10
67.9567909938
 20
-24.2936211628
 30
0.0
 10
67.8664613335
 20
-24.2999539062
 30
0.0
 10
67.8033341099
 20
-24.3013466321
 30
0.0
 10
67.7703563158
 20
-24.3012366035
 30
0.0
 11
69.7710460379
 21
-22.3031760419
 31
0.0
 11
69.7702367105
 21
-22.3651477638
 31
0.0
 11
69.7675165783
 21
-22.4262709546
 31
0.0
 11
69.7629750831
 21
-22.4865305466
 31
0.0
 11
69.7567049492
 21
-22.5457414586
 31
0.0
 11
69.7490263316
 21
-22.6021860504
 31
0.0
 11
69.740658087
 21
-22.653023573
 31
0.0
 11
69.7322910007
 21
-22.6970181441
 31
0.0
 11
69.7241722716
 21
-22.7352275197
 31
0.0
 11
69.7163421998
 21
-22.768974784
 31
0.0
 11
69.708762048
 21
-22.7993568628
 31
0.0
 11
69.7013106141
 21
-22.8274168366
 31
0.0
 11
69.6937791682
 21
-22.8542356898
 31
0.0
 11
69.6859733819
 21
-22.880617806
 31
0.0
 11
69.677850177
 21
-22.9067357964
 31
0.0
 11
69.6694253665
 21
-22.9325507622
 31
0.0
 11
69.6607081749
 21
-22.9580470599
 31
0.0
 11
69.6514073485
 21
-22.9840527798
 31
0.0
 11
69.6410202428
 21
-23.011818749
 31
0.0
 11
69.628938612
 21
-23.0426313925
 31
0.0
 11
69.6145679883
 21
-23.0774679868
 31
0.0
 11
69.5978691886
 21
-23.1157916107
 31
0.0
 11
69.5791730365
 21
-23.1562989572
 31
0.0
 11
69.5586790598
 21
-23.1981474186
 31
0.0
 11
69.5362621134
 21
-23.2412464709
 31
0.0
 11
69.5112744148
 21
-23.2864258529
 31
0.0
 11
69.4826155969
 21
-23.3350478383
 31
0.0
 11
69.44945074
 21
-23.3876909105
 31
0.0
 11
69.4114583653
 21
-23.4438897827
 31
0.0
 11
69.3679391106
 21
-23.503616877
 31
0.0
 11
69.3177125286
 21
-23.567267541
 31
0.0
 11
69.2594455006
 21
-23.6350824159
 31
0.0
 11
69.191966477
 21
-23.7066850917
 31
0.0
 11
69.1145767986
 21
-23.7808835651
 31
0.0
 11
69.0326234839
 21
-23.8515288344
 31
0.0
 11
68.9532466614
 21
-23.9131056837
 31
0.0
 11
68.8798988557
 21
-23.9646231429
 31
0.0
 11
68.813200097
 21
-24.0073987415
 31
0.0
 11
68.7519354625
 21
-24.0435309751
 31
0.0
 11
68.6961246203
 21
-24.073962179
 31
0.0
 11
68.6455307638
 21
-24.0995973509
 31
0.0
 11
68.5977606153
 21
-24.1221697111
 31
0.0
 11
68.5498587929
 21
-24.1432776956
 31
0.0
 11
68.5007743583
 21
-24.1633819295
 31
0.0
 11
68.4510658516
 21
-24.1822171074
 31
0.0
 11
68.4015937853
 21
-24.1994730326
 31
0.0
 11
68.3522726267
 21
-24.2152272994
 31
0.0
 11
68.3012853535
 21
-24.2300373761
 31
0.0
 11
68.2457841668
 21
-24.2444994981
 31
0.0
 11
68.1837781383
 21
-24.2586558374
 31
0.0
 11
68.1155482555
 21
-24.2718345897
 31
0.0
 11
68.0411423418
 21
-24.2833878639
 31
0.0
 11
67.9594423452
 21
-24.2927395456
 31
0.0
 11
67.869266431
 21
-24.2990658468
 31
0.0
 11
67.7703563158
 21
-24.3012366035
 31
0.0
  0
SPLINE
  5
397
100
AcDbEntity
  8
RACCORDO
100
AcDbSpline
 62
253
  6
CONTINUOUS
 70
0
 71
3
 72
14
 73
10
 74
8
 42
0.0000001
 43
0.0000001
 44
0.0000000001
 12
-0.0000402201
 22
-10.5000393586
 32
0.0
 13
0.015716424
 23
-10.5000275965
 33
0.0
 40
0.0
 40
0.0
 40
0.0
 40
0.0
 40
0.1816762113
 40
0.3481943977
 40
0.5012086499
 40
0.6421236163
 40
0.7721508492
 40
0.8919109664
 40
1.0
 40
1.0
 40
1.0
 40
1.0
 10
69.7685989253
 20
-11.8031373454
 30
0.0
 10
69.7685964896
 20
-12.4390064684
 30
0.0
 10
69.7687763735
 20
-13.657691426
 30
0.0
 10
69.7692218979
 20
-15.411928218
 30
0.0
 10
69.769516792
 20
-17.0235001501
 30
0.0
 10
69.7696780247
 20
-18.5073532903
 30
0.0
 10
69.7696247957
 20
-19.8748165178
 30
0.0
 10
69.7697577015
 20
-21.1273885794
 30
0.0
 10
69.7704798605
 20
-21.92486343
 30
0.0
 10
69.7710461182
 20
-22.3031760419
 30
0.0
 11
69.7685989253
 21
-11.8031373454
 31
0.0
 11
69.7688194939
 21
-13.7107447016
 31
0.0
 11
69.7692123417
 21
-15.4591921683
 31
0.0
 11
69.7695038187
 21
-17.0658478126
 31
0.0
 11
69.7696443085
 21
-18.5454604993
 31
0.0
 11
69.7696577551
 21
-19.9107515633
 31
0.0
 11
69.7699381678
 21
-21.1682374757
 31
0.0
 11
69.7710461182
 21
-22.3031760419
 31
0.0
  0
SPLINE
  5
398
100
AcDbEntity
  8
RACCORDO
100
AcDbSpline
 62
253
  6
CONTINUOUS
 70
0
 71
3
 72
14
 73
10
 74
8
 42
0.0000001
 43
0.0000001
 44
0.0000000001
 12
0.6616503384
 22
-0.5593038152
 32
0.0
 13
0.8663429639
 23
-0.0071970143
 33
0.0
 40
0.0
 40
0.0
 40
0.0
 40
0.0
 40
0.0357210469
 40
0.1141435207
 40
0.2328155908
 40
0.3872549799
 40
0.5715075786
 40
0.7784335206
 40
1.0
 40
1.0
 40
1.0
 40
1.0
 10
-65.5475541231
 20
-44.5531373441
 30
0.0
 10
-65.5396758421
 20
-44.5597969833
 30
0.0
 10
-65.5041950236
 20
-44.5627106306
 30
0.0
 10
-65.439730057
 20
-44.5727132004
 30
0.0
 10
-65.3372545599
 20
-44.5784878249
 30
0.0
 10
-65.2057958286
 20
-44.5854100037
 30
0.0
 10
-65.0481432909
 20
-44.5905000469
 30
0.0
 10
-64.8712831432
 20
-44.5944840453
 30
0.0
 10
-64.7475329321
 20
-44.5960296719
 30
0.0
 10
-64.6835487452
 20
-44.596561211
 30
0.0
 11
-65.5475541231
 21
-44.5531373441
 31
0.0
 11
-65.5178480363
 21
-44.5618155557
 31
0.0
 11
-65.4504187852
 21
-44.570155898
 31
0.0
 11
-65.3478915977
 21
-44.5778336557
 31
0.0
 11
-65.2142581718
 21
-44.5845499103
 31
0.0
 11
-65.054721267
 21
-44.5900431773
 31
0.0
 11
-64.8754921449
 21
-44.594099587
 31
0.0
 11
-64.6835487452
 21
-44.596561211
 31
0.0
  0
SPLINE
  5
399
100
AcDbEntity
  8
RACCORDO
100
AcDbSpline
 62
253
  6
CONTINUOUS
 70
0
 71
3
 72
14
 73
10
 74
8
 42
0.0000001
 43
0.0000001
 44
0.0000000001
 12
-0.5139885232
 22
0.6983859553
 32
0.0
 13
-0.0062279086
 23
0.8671149622
 33
0.0
 40
0.0
 40
0.0
 40
0.0
 40
0.0
 40
0.0354061965
 40
0.1137550952
 40
0.2324509943
 40
0.3869686945
 40
0.571325337
 40
0.7783551007
 40
1.0
 40
1.0
 40
1.0
 40
1.0
 10
-62.77909336
 20
-47.3218829709
 30
0.0
 10
-62.7851594863
 20
-47.3136405741
 30
0.0
 10
-62.7871880268
 20
-47.2785608714
 30
0.0
 10
-62.7963037082
 20
-47.2137102317
 30
0.0
 10
-62.8011287359
 20
-47.1112472467
 30
0.0
 10
-62.807240869
 20
-46.9795097867
 30
0.0
 10
-62.81164367
 20
-46.8216384568
 30
0.0
 10
-62.815118827
 20
-46.6445218614
 30
0.0
 10
-62.8164581891
 20
-46.5206096985
 30
0.0
 10
-62.8169183171
 20
-46.456545829
 30
0.0
 11
-62.77909336
 21
-47.3218829709
 31
0.0
 11
-62.7866578937
 21
-47.2921274207
 31
0.0
 11
-62.7939273584
 21
-47.2245782002
 31
0.0
 11
-62.8006181882
 21
-47.1218702593
 31
0.0
 11
-62.8064693876
 21
-46.9880100143
 31
0.0
 11
-62.8112527129
 21
-46.8282190661
 31
0.0
 11
-62.8147815748
 21
-46.6487305167
 31
0.0
 11
-62.8169183171
 21
-46.456545829
 31
0.0
  0
SPLINE
  5
39A
100
AcDbEntity
  8
RACCORDO
100
AcDbSpline
 62
253
  6
CONTINUOUS
 70
0
 71
3
 72
14
 73
10
 74
8
 42
0.0000001
 43
0.0000001
 44
0.0000000001
 12
0.5139883494
 22
0.6983891246
 32
0.0
 13
0.0062279289
 23
0.8671174117
 33
0.0
 40
0.0
 40
0.0
 40
0.0
 40
0.0
 40
0.0354062495
 40
0.1137552051
 40
0.2324511542
 40
0.3869688846
 40
0.5713255219
 40
0.7783552278
 40
1.0
 40
1.0
 40
1.0
 40
1.0
 10
86.2209066398
 20
-47.3218854627
 30
0.0
 10
86.2269727731
 20
-47.3136430162
 30
0.0
 10
86.2290013265
 20
-47.2785632003
 30
0.0
 10
86.2381170103
 20
-47.2137123138
 30
0.0
 10
86.2429420419
 20
-47.1112490071
 30
0.0
 10
86.2490541703
 20
-46.979511149
 30
0.0
 10
86.2534569658
 20
-46.8216393833
 30
0.0
 10
86.2569321171
 20
-46.6445223419
 30
0.0
 10
86.2582714787
 20
-46.5206098825
 30
0.0
 10
86.258731608
 20
-46.4565458688
 30
0.0
 11
86.2209066398
 21
-47.3218854627
 31
0.0
 11
86.2284711884
 21
-47.2921297796
 31
0.0
 11
86.2357406615
 21
-47.2245803173
 31
0.0
 11
86.2424314934
 21
-47.1218720416
 31
0.0
 11
86.2482826899
 21
-46.9880113914
 31
0.0
 11
86.2530660095
 21
-46.8282199959
 31
0.0
 11
86.2565948662
 21
-46.6487309891
 31
0.0
 11
86.258731608
 21
-46.4565458688
 31
0.0
  0
SPLINE
  5
39B
100
AcDbEntity
  8
RACCORDO
100
AcDbSpline
 62
7
  6
CONTINUOUS
 70
0
 71
3
 72
10
 73
6
 74
4
 42
0.0000001
 43
0.0000001
 44
0.0000000001
 12
-0.0025312384
 22
0.0033088179
 32
0.0
 13
-0.0009146299
 23
-0.0037127608
 33
0.0
 40
0.0
 40
0.0
 40
0.0
 40
0.0
 40
0.4782033944
 40
0.88468708
 40
1.0
 40
1.0
 40
1.0
 40
1.0
 10
-88.1937871973
 20
-25.9784719007
 30
0.0
 10
-88.1941906796
 20
-25.9779444714
 30
0.0
 10
-88.1948954551
 20
-25.9772889691
 30
0.0
 10
-88.1962610581
 20
-25.975531792
 30
0.0
 10
-88.1965027029
 20
-25.9759933859
 30
0.0
 10
-88.1965378592
 20
-25.9761360957
 30
0.0
 11
-88.1937871973
 21
-25.9784719007
 31
0.0
 11
-88.1950996587
 21
-25.9769731474
 31
0.0
 11
-88.1963729011
 21
-25.9758566904
 31
0.0
 11
-88.1965378592
 21
-25.9761360957
 31
0.0
  0
SPLINE
  5
39C
100
AcDbEntity
  8
RACCORDO
100
AcDbSpline
 62
7
  6
CONTINUOUS
 70
0
 71
3
 72
9
 73
5
 74
3
 42
0.0000001
 43
0.0000001
 44
0.0000000001
 12
-0.0005157937
 22
-0.0035010933
 32
0.0
 13
0.0020580128
 23
0.0001329017
 33
0.0
 40
0.0
 40
0.0
 40
0.0
 40
0.0
 40
0.9025541166
 40
1.0
 40
1.0
 40
1.0
 40
1.0
 10
-88.1976019318
 20
25.8807981413
 30
0.0
 10
-88.197757109
 20
25.8797448326
 30
0.0
 10
-88.1972071438
 20
25.8795291024
 30
0.0
 10
-88.196526801
 20
25.8795580726
 30
0.0
 10
-88.1964599527
 20
25.8795623895
 30
0.0
 11
-88.1976019318
 21
25.8807981413
 31
0.0
 11
-88.1966581562
 21
25.8795547501
 31
0.0
 11
-88.1964599527
 21
25.8795623895
 31
0.0
  0
LINE
  5
39D
100
AcDbEntity
  8
RACCORDO
100
AcDbLine
 62
7
  6
CONTINUOUS
 10
-88.6113676132
 20
24.4585722975
 11
-88.6087929557
 21
24.4629200339
  0
SPLINE
  5
39E
100
AcDbEntity
  8
RACCORDO
100
AcDbSpline
 62
7
  6
CONTINUOUS
 70
0
 71
3
 72
9
 73
5
 74
3
 42
0.0000001
 43
0.0000001
 44
0.0000000001
 12
-0.0010602181
 22
-0.0015458341
 32
0.0
 13
-0.0035655268
 23
0.0003893039
 33
0.0
 40
0.0
 40
0.0
 40
0.0
 40
0.0
 40
0.9832878874
 40
1.0
 40
1.0
 40
1.0
 40
1.0
 10
-88.195429419
 20
-25.9865357323
 30
0.0
 10
-88.1957769189
 20
-25.9870423989
 30
0.0
 10
-88.1964342746
 20
-25.9873504443
 30
0.0
 10
-88.1976139932
 20
-25.9872279342
 30
0.0
 10
-88.1976338557
 20
-25.9872257655
 30
0.0
 11
-88.195429419
 21
-25.9865357323
 31
0.0
 11
-88.1975747079
 21
-25.9872319088
 31
0.0
 11
-88.1976338557
 21
-25.9872257655
 31
0.0
  0
SPLINE
  5
39F
100
AcDbEntity
  8
RACCORDO
100
AcDbSpline
 62
253
  6
CONTINUOUS
 70
0
 71
3
 72
10
 73
6
 74
4
 42
0.0000001
 43
0.0000001
 44
0.0000000001
 12
-0.1945677051
 22
0.0000402048
 32
0.0
 13
0.0115580698
 23
-0.0153752645
 33
0.0
 40
0.0
 40
0.0
 40
0.0
 40
0.0
 40
0.5161238814
 40
0.8597429949
 40
1.0
 40
1.0
 40
1.0
 40
1.0
 10
-88.7859391057
 20
22.1969531121
 30
0.0
 10
-88.8194127854
 20
22.196960029
 30
0.0
 10
-88.8849609273
 20
22.1978576833
 30
0.0
 10
-88.9232707404
 20
22.1955205607
 30
0.0
 10
-88.9857419747
 20
22.1983636896
 30
0.0
 10
-88.9852016079
 20
22.1976448601
 30
0.0
 11
-88.7859391057
 21
22.1969531121
 31
0.0
 11
-88.8863601402
 21
22.1969901537
 31
0.0
 11
-88.9532172977
 21
22.1970493576
 31
0.0
 11
-88.9852016079
 21
22.1976448601
 31
0.0
  0
SPLINE
  5
3A0
100
AcDbEntity
  8
RACCORDO
100
AcDbSpline
 62
253
  6
CONTINUOUS
 70
0
 71
3
 72
71
 73
67
 74
65
 42
0.0000001
 43
0.0000001
 44
0.0000000001
 12
1.1304898811
 22
1.6474414249
 32
0.0
 13
-0.0045343419
 23
-1.9980115263
 33
0.0
 40
0.0
 40
0.0
 40
0.0
 40
0.0
 40
0.001869376
 40
0.0070474883
 40
0.0145889828
 40
0.0238578734
 40
0.0343001875
 40
0.04537716
 40
0.0567166
 40
0.0680801714
 40
0.0793524241
 40
0.0904042789
 40
0.1012126979
 40
0.1124037055
 40
0.124793754
 40
0.1378984033
 40
0.1511516734
 40
0.1647023263
 40
0.1790562921
 40
0.1950665622
 40
0.2137073125
 40
0.2355006216
 40
0.2590094628
 40
0.2819534213
 40
0.3031792303
 40
0.3230965356
 40
0.3425127383
 40
0.3621517758
 40
0.3826813171
 40
0.4037945047
 40
0.4234295477
 40
0.4425812382
 40
0.4624669115
 40
0.4820062592
 40
0.501491066
 40
0.5213079819
 40
0.5415065421
 40
0.5618951493
 40
0.5813906524
 40
0.5986791517
 40
0.6135683472
 40
0.6268505661
 40
0.6394079948
 40
0.6518869899
 40
0.6643242064
 40
0.676980679
 40
0.6898285172
 40
0.7031654195
 40
0.7179770801
 40
0.7350590295
 40
0.7537962392
 40
0.773014992
 40
0.7914000228
 40
0.8081111953
 40
0.8234246197
 40
0.8379546287
 40
0.8523292864
 40
0.8669133138
 40
0.8817611956
 40
0.8968345337
 40
0.9119410485
 40
0.9272513303
 40
0.9432484126
 40
0.9604302105
 40
0.9792393721
 40
1.0
 40
1.0
 40
1.0
 40
1.0
 10
-88.7872006637
 20
24.1949588326
 30
0.0
 10
-88.7864962269
 20
24.1959853951
 30
0.0
 10
-88.7876879702
 20
24.1860233995
 30
0.0
 10
-88.786483531
 20
24.1809508375
 30
0.0
 10
-88.7869962917
 20
24.1640318137
 30
0.0
 10
-88.7867609679
 20
24.1467244508
 30
0.0
 10
-88.7868563298
 20
24.1259466687
 30
0.0
 10
-88.7869127739
 20
24.1041433768
 30
0.0
 10
-88.7870241318
 20
24.0816234165
 30
0.0
 10
-88.7871325206
 20
24.0590020613
 30
0.0
 10
-88.7872246262
 20
24.0365644495
 30
0.0
 10
-88.7872956571
 20
24.0144985363
 30
0.0
 10
-88.7873518383
 20
23.9924861595
 30
0.0
 10
-88.7874039432
 20
23.9695826689
 30
0.0
 10
-88.787461905
 20
23.9451498421
 30
0.0
 10
-88.7875511546
 20
23.9193436341
 30
0.0
 10
-88.7876489231
 20
23.8927644828
 30
0.0
 10
-88.7877360958
 20
23.8653532366
 30
0.0
 10
-88.7878048149
 20
23.8361057535
 30
0.0
 10
-88.7878511803
 20
23.8034681885
 30
0.0
 10
-88.7878723549
 20
23.7658759549
 30
0.0
 10
-88.7878833717
 20
23.7232896295
 30
0.0
 10
-88.7879057699
 20
23.6778373468
 30
0.0
 10
-88.7879271862
 20
23.632763023
 30
0.0
 10
-88.7879435988
 20
23.5900806777
 30
0.0
 10
-88.7879193929
 20
23.5497478329
 30
0.0
 10
-88.7878434639
 20
23.5104718528
 30
0.0
 10
-88.7877244053
 20
23.4707882313
 30
0.0
 10
-88.7875783746
 20
23.4299744955
 30
0.0
 10
-88.7874396372
 20
23.3891633939
 30
0.0
 10
-88.7873223791
 20
23.3492698843
 30
0.0
 10
-88.7872249046
 20
23.3101938561
 30
0.0
 10
-88.7871377806
 20
23.271181538
 30
0.0
 10
-88.787036741
 20
23.2319473939
 30
0.0
 10
-88.7869142688
 20
23.1927591032
 30
0.0
 10
-88.7867696188
 20
23.153131847
 30
0.0
 10
-88.7866113104
 20
23.1129027035
 30
0.0
 10
-88.786461315
 20
23.0728875911
 30
0.0
 10
-88.7863409989
 20
23.0348105027
 30
0.0
 10
-88.7862537058
 20
23.0003959746
 30
0.0
 10
-88.7861909265
 20
22.9701194839
 30
0.0
 10
-88.7861417292
 20
22.9429938926
 30
0.0
 10
-88.7860971796
 20
22.9174735026
 30
0.0
 10
-88.7860509592
 20
22.8925158924
 30
0.0
 10
-88.78599537
 20
22.8674923372
 30
0.0
 10
-88.7859341892
 20
22.8422231433
 30
0.0
 10
-88.7858720748
 20
22.816354754
 30
0.0
 10
-88.7858116389
 20
22.7890509896
 30
0.0
 10
-88.7857553189
 20
22.7589272688
 30
0.0
 10
-88.7857091973
 20
22.7252068913
 30
0.0
 10
-88.7856811669
 20
22.6885513445
 30
0.0
 10
-88.7856730157
 20
22.6510279296
 30
0.0
 10
-88.7856753297
 20
22.6148538671
 30
0.0
 10
-88.7856774886
 20
22.581280775
 30
0.0
 10
-88.7856760001
 20
22.5502751486
 30
0.0
 10
-88.7856702226
 20
22.5208256547
 30
0.0
 10
-88.7856607436
 20
22.4918619443
 30
0.0
 10
-88.7856491233
 20
22.4626865296
 30
0.0
 10
-88.7856385684
 20
22.4330457894
 30
0.0
 10
-88.7856349608
 20
22.4030570675
 30
0.0
 10
-88.785644425
 20
22.3727603854
 30
0.0
 10
-88.785668066
 20
22.341848492
 30
0.0
 10
-88.785708288
 20
22.3095544645
 30
0.0
 10
-88.7857673768
 20
22.274930189
 30
0.0
 10
-88.7858466635
 20
22.237133399
 30
0.0
 10
-88.785907735
 20
22.2107797701
 30
0.0
 10
-88.7859391136
 20
22.1969531121
 30
0.0
 11
-88.7872006637
 21
24.1949588326
 31
0.0
 11
-88.7870036687
 21
24.1912289869
 31
0.0
 11
-88.7869018367
 21
24.1808835334
 31
0.0
 11
-88.7868478992
 21
24.1658155981
 31
0.0
 11
-88.7868222358
 21
24.1472962179
 31
0.0
 11
-88.7868473735
 21
24.1264323154
 31
0.0
 11
-88.7869209647
 21
24.104300462
 31
0.0
 11
-88.78702345
 21
24.0816443037
 31
0.0
 11
-88.7871302099
 21
24.0589399496
 31
0.0
 11
-88.7872218692
 21
24.0364179872
 31
0.0
 11
-88.787293698
 21
24.014336314
 31
0.0
 11
-88.7873502073
 21
23.9927409865
 31
0.0
 11
-88.7874024707
 21
23.9703812278
 31
0.0
 11
-88.7874651317
 21
23.9456257838
 31
0.0
 11
-88.7875517667
 21
23.9194426192
 31
0.0
 11
-88.7876460202
 21
23.8929625323
 31
0.0
 11
-88.7877307543
 21
23.8658882345
 31
0.0
 11
-88.787798025
 21
23.8372088505
 31
0.0
 11
-88.7878444676
 21
23.8052200976
 31
0.0
 11
-88.787869429
 21
23.7679755761
 31
0.0
 11
-88.7878847106
 21
23.7244321838
 31
0.0
 11
-88.7879058154
 21
23.677461132
 31
0.0
 11
-88.7879270107
 21
23.6316187252
 31
0.0
 11
-88.7879367526
 21
23.5892092062
 31
0.0
 11
-88.7879102384
 21
23.549414107
 31
0.0
 11
-88.7878368915
 21
23.5106202797
 31
0.0
 11
-88.7877224898
 21
23.4713813221
 31
0.0
 11
-88.7875809684
 21
23.4303632003
 31
0.0
 11
-88.7874396436
 21
23.3881789363
 31
0.0
 11
-88.7873243774
 21
23.3489479623
 31
0.0
 11
-88.7872277587
 21
23.3106826875
 31
0.0
 11
-88.7871349805
 21
23.2709508891
 31
0.0
 11
-88.7870330643
 21
23.2319110796
 31
0.0
 11
-88.7869115822
 21
23.1929803003
 31
0.0
 11
-88.7867686845
 21
23.1533860298
 31
0.0
 11
-88.7866130583
 21
23.1130292699
 31
0.0
 11
-88.7864631715
 21
23.0722927686
 31
0.0
 11
-88.7863406436
 21
23.033340621
 31
0.0
 11
-88.7862525168
 21
22.9987980236
 31
0.0
 11
-88.7861900692
 21
22.9690492283
 31
0.0
 11
-88.7861411631
 21
22.9425111786
 31
0.0
 11
-88.7860966425
 21
22.9174212662
 31
0.0
 11
-88.7860493696
 21
22.8924880708
 31
0.0
 11
-88.7859948746
 21
22.8676383646
 31
0.0
 11
-88.7859345814
 21
22.8423505932
 31
0.0
 11
-88.785873645
 21
22.8166804707
 31
0.0
 11
-88.78581526
 21
22.7900331813
 31
0.0
 11
-88.7857604449
 21
22.7604392874
 31
0.0
 11
-88.7857139771
 21
22.7263092993
 31
0.0
 11
-88.7856847847
 21
22.6888720534
 31
0.0
 11
-88.7856747346
 21
22.6504726661
 31
0.0
 11
-88.7856754032
 21
22.6137390682
 31
0.0
 11
-88.7856768962
 21
22.580349867
 31
0.0
 11
-88.7856751996
 21
22.5497533897
 31
0.0
 11
-88.7856695646
 21
22.5207221901
 31
0.0
 11
-88.7856604517
 21
22.4920013858
 31
0.0
 11
-88.7856493964
 21
22.462862258
 31
0.0
 11
-88.785639779
 21
22.4331959441
 31
0.0
 11
-88.7856371329
 21
22.4030791635
 31
0.0
 11
-88.7856466432
 21
22.3728960966
 31
0.0
 11
-88.7856701132
 21
22.3423059073
 31
0.0
 11
-88.7857096738
 21
22.3103434945
 31
0.0
 11
-88.7857676639
 21
22.2760140249
 31
0.0
 11
-88.7858452452
 21
22.2384330866
 31
0.0
 11
-88.7859391136
 21
22.1969531121
 31
0.0
  0
SPLINE
  5
3A1
100
AcDbEntity
  8
RACCORDO
100
AcDbSpline
 62
253
  6
CONTINUOUS
 70
0
 71
3
 72
11
 73
7
 74
5
 42
0.0000001
 43
0.0000001
 44
0.0000000001
 12
0.5975881194
 22
-0.0075514187
 32
0.0
 13
0.5914990906
 23
-0.0854248804
 33
0.0
 40
0.0
 40
0.0
 40
0.0
 40
0.0
 40
0.4053970474
 40
0.7113724858
 40
0.9110546666
 40
1.0
 40
1.0
 40
1.0
 40
1.0
 10
-88.7859389399
 20
22.1969591639
 30
0.0
 10
-88.7051854536
 20
22.1959387229
 30
0.0
 10
-88.5635171792
 20
22.1937620724
 30
0.0
 10
-88.3819462993
 20
22.1913701132
 30
0.0
 10
-88.2637291925
 20
22.1870642455
 30
0.0
 10
-88.2060177645
 20
22.186658264
 30
0.0
 10
-88.1884807366
 20
22.1841255492
 30
0.0
 11
-88.7859389399
 21
22.1969591639
 31
0.0
 11
-88.5436830108
 21
22.1935582
 31
0.0
 11
-88.3608513
 21
22.1902363849
 31
0.0
 11
-88.2415561306
 21
22.1870684208
 31
0.0
 11
-88.1884807366
 21
22.1841255492
 31
0.0
  0
SPLINE
  5
3A2
100
AcDbEntity
  8
RACCORDO
100
AcDbSpline
 62
253
  6
CONTINUOUS
 70
0
 71
3
 72
16
 73
12
 74
10
 42
0.0000001
 43
0.0000001
 44
0.0000000001
 12
-0.0261718213
 22
-0.1019234432
 32
0.0
 13
0.0919573686
 23
-0.0725273619
 33
0.0
 40
0.0
 40
0.0
 40
0.0
 40
0.0
 40
0.0261275738
 40
0.0917176649
 40
0.1851516374
 40
0.2873003135
 40
0.3848187408
 40
0.4933710965
 40
0.6316680656
 40
0.8006159908
 40
1.0
 40
1.0
 40
1.0
 40
1.0
 10
-85.3977460893
 20
46.4486435782
 30
0.0
 10
-85.3979740247
 20
46.4477559075
 30
0.0
 10
-85.3975978699
 20
46.4422189555
 30
0.0
 10
-85.3938426727
 20
46.437448937
 30
0.0
 10
-85.3883807839
 20
46.4281309776
 30
0.0
 10
-85.3803310084
 20
46.4201998437
 30
0.0
 10
-85.3726030471
 20
46.4107094772
 30
0.0
 10
-85.3685366501
 20
46.3977311879
 30
0.0
 10
-85.364081708
 20
46.3821325388
 30
0.0
 10
-85.3538433538
 20
46.3648513794
 30
0.0
 10
-85.3432875139
 20
46.3548548639
 30
0.0
 10
-85.3371759043
 20
46.3500345985
 30
0.0
 11
-85.3977460893
 21
46.4486435782
 31
0.0
 11
-85.3976392838
 21
46.4448588654
 31
0.0
 11
-85.3943903193
 21
46.4378980535
 31
0.0
 11
-85.3882706174
 21
46.4288265631
 31
0.0
 11
-85.3803288059
 21
46.4198795455
 31
0.0
 11
-85.3734918413
 21
46.4107309661
 31
0.0
 11
-85.3689401104
 21
46.3988604049
 31
0.0
 11
-85.3638190704
 21
46.3834943689
 31
0.0
 11
-85.3538036306
 21
46.3664296982
 31
0.0
 11
-85.3371759043
 21
46.3500345985
 31
0.0
  0
SPLINE
  5
3A3
100
AcDbEntity
  8
RACCORDO
100
AcDbSpline
 62
253
  6
CONTINUOUS
 70
0
 71
3
 72
18
 73
14
 74
12
 42
0.0000001
 43
0.0000001
 44
0.0000000001
 12
2.7668409157
 22
0.1434505558
 32
0.0
 13
-0.0781849318
 23
-2.7694537062
 33
0.0
 40
0.0
 40
0.0
 40
0.0
 40
0.0
 40
0.0104232996
 40
0.0406429986
 40
0.0904525589
 40
0.1587844458
 40
0.2442588708
 40
0.3452039685
 40
0.4595251207
 40
0.5847800209
 40
0.7185328278
 40
0.8578944267
 40
1.0
 40
1.0
 40
1.0
 40
1.0
 10
-84.3991365464
 20
47.2156055599
 30
0.0
 10
-84.3895233424
 20
47.2161039693
 30
0.0
 10
-84.3932910947
 20
47.157306028
 30
0.0
 10
-84.3804326858
 20
47.0942211557
 30
0.0
 10
-84.3816467723
 20
46.945852186
 30
0.0
 10
-84.377551677
 20
46.7627208397
 30
0.0
 10
-84.37752208
 20
46.5256121766
 30
0.0
 10
-84.3776998484
 20
46.2485061998
 30
0.0
 10
-84.3794740036
 20
45.9338269455
 30
0.0
 10
-84.3826352983
 20
45.5891277495
 30
0.0
 10
-84.3875825217
 20
45.2212392489
 30
0.0
 10
-84.3945448807
 20
44.8378429222
 30
0.0
 10
-84.4008185456
 20
44.5779744403
 30
0.0
 10
-84.4045220504
 20
44.4467895048
 30
0.0
 11
-84.3991365464
 21
47.2156055599
 31
0.0
 11
-84.3908280793
 21
47.1879482229
 31
0.0
 11
-84.3849330667
 21
47.1044306094
 31
0.0
 11
-84.3809009941
 21
46.9664892947
 31
0.0
 11
-84.3785034738
 21
46.7771870812
 31
0.0
 11
-84.3775515961
 21
46.540377218
 31
0.0
 11
-84.377910589
 21
46.26070329
 31
0.0
 11
-84.3795947532
 21
45.9439744864
 31
0.0
 11
-84.3828026516
 21
45.5969634588
 31
0.0
 11
-84.3877977531
 21
45.2264273355
 31
0.0
 11
-84.3948798461
 21
44.8403830225
 31
0.0
 11
-84.4045220504
 21
44.4467895048
 31
0.0
  0
SPLINE
  5
3A4
100
AcDbEntity
  8
RACCORDO
100
AcDbSpline
 62
253
  6
CONTINUOUS
 70
0
 71
3
 72
14
 73
10
 74
8
 42
0.0000001
 43
0.0000001
 44
0.0000000001
 12
-0.9376966173
 22
0.0415431177
 32
0.0
 13
-0.9368604021
 23
0.0573878349
 33
0.0
 40
0.0
 40
0.0
 40
0.0
 40
0.0
 40
0.2078229506
 40
0.4053859955
 40
0.5849974239
 40
0.7396644574
 40
0.8633655263
 40
0.951284785
 40
1.0
 40
1.0
 40
1.0
 40
1.0
 10
-84.4045202641
 20
44.4468626559
 30
0.0
 10
-84.4694785567
 20
44.449740527
 30
0.0
 10
-84.5961870039
 20
44.4553824367
 30
0.0
 10
-84.7790312645
 20
44.4636124114
 30
0.0
 10
-84.9452574262
 20
44.4711826049
 30
0.0
 10
-85.0883930444
 20
44.4778086305
 30
0.0
 10
-85.2028679453
 20
44.4831941704
 30
0.0
 10
-85.2842202886
 20
44.4872023632
 30
0.0
 10
-85.3269162134
 20
44.489356875
 30
0.0
 10
-85.3421293321
 20
44.4902887619
 30
0.0
 11
-84.4045202641
 21
44.4468626559
 31
0.0
 11
-84.5993931409
 21
44.4555413173
 31
0.0
 11
-84.7846413821
 21
44.4638820916
 31
0.0
 11
-84.9530526781
 21
44.4715602466
 31
0.0
 11
-85.0980702359
 21
44.4782768477
 31
0.0
 11
-85.2140480555
 21
44.4837703971
 31
0.0
 11
-85.2964707477
 21
44.4878270139
 31
0.0
 11
-85.3421293321
 21
44.4902887619
 31
0.0
  0
SPLINE
  5
3A5
100
AcDbEntity
  8
RACCORDO
100
AcDbSpline
 62
253
  6
CONTINUOUS
 70
0
 71
3
 72
14
 73
10
 74
8
 42
0.0000001
 43
0.0000001
 44
0.0000000001
 12
-0.9376962503
 22
-0.0415409542
 32
0.0
 13
-0.9368601508
 23
-0.0573843747
 33
0.0
 40
0.0
 40
0.0
 40
0.0
 40
0.0
 40
0.2078223894
 40
0.4053849689
 40
0.5849960954
 40
0.7396630478
 40
0.8633642983
 40
0.9512840256
 40
1.0
 40
1.0
 40
1.0
 40
1.0
 10
-84.4045199927
 20
-44.5531373439
 30
0.0
 10
-84.4694780845
 20
-44.5560150574
 30
0.0
 10
-84.5961861613
 20
-44.5616566598
 30
0.0
 10
-84.7790299356
 20
-44.5698861899
 30
0.0
 10
-84.9452557678
 20
-44.5774559803
 30
0.0
 10
-85.0883912684
 20
-44.5840816597
 30
0.0
 10
-85.2028663036
 20
-44.5894669303
 30
0.0
 10
-85.2842190579
 20
-44.5934749315
 30
0.0
 10
-85.3269153506
 20
-44.5956293535
 30
0.0
 10
-85.3421287023
 20
-44.5965611987
 30
0.0
 11
-84.4045199927
 21
-44.5531373439
 31
0.0
 11
-84.5993922672
 21
-44.561815531
 31
0.0
 11
-84.7846399999
 21
-44.570155854
 31
0.0
 11
-84.9530509479
 21
-44.5778335991
 31
0.0
 11
-85.098068374
 21
-44.5845498491
 31
0.0
 11
-85.2140463203
 21
-44.5900431211
 31
0.0
 11
-85.2964694216
 21
-44.5940995468
 31
0.0
 11
-85.3421287023
 21
-44.5965611987
 31
0.0
  0
SPLINE
  5
3A6
100
AcDbEntity
  8
RACCORDO
100
AcDbSpline
 62
253
  6
CONTINUOUS
 70
0
 71
3
 72
18
 73
14
 74
12
 42
0.0000001
 43
0.0000001
 44
0.0000000001
 12
0.0781806285
 22
-2.7694364473
 32
0.0
 13
-2.7668246984
 23
0.1434278021
 33
0.0
 40
0.0
 40
0.0
 40
0.0
 40
0.0
 40
0.141717372
 40
0.2810335258
 40
0.4147961529
 40
0.5402076935
 40
0.6546374938
 40
0.7556475285
 40
0.8413044527
 40
0.9096609107
 40
0.9594023537
 40
0.9896078715
 40
1.0
 40
1.0
 40
1.0
 40
1.0
 10
-84.4045219092
 20
-44.5530648987
 30
0.0
 10
-84.4008287248
 20
-44.6838906504
 30
0.0
 10
-84.3945621872
 20
-44.9433570591
 30
0.0
 10
-84.3876000075
 20
-45.326359502
 30
0.0
 10
-84.382643407
 20
-45.6943573877
 30
0.0
 10
-84.3794742295
 20
-46.0393081956
 30
0.0
 10
-84.3776962796
 20
-46.3542911771
 30
0.0
 10
-84.3775286673
 20
-46.631721987
 30
0.0
 10
-84.3775663426
 20
-46.8690885139
 30
0.0
 10
-84.3816946838
 20
-47.0523329475
 30
0.0
 10
-84.3804439814
 20
-47.2006593221
 30
0.0
 10
-84.39333055
 20
-47.2636223626
 30
0.0
 10
-84.3894542813
 20
-47.322382217
 30
0.0
 10
-84.3990386805
 20
-47.321885377
 30
0.0
 11
-84.4045219092
 21
-44.5530648987
 31
0.0
 11
-84.3949026692
 21
-44.9455806596
 31
0.0
 11
-84.3878156941
 21
-45.3314965329
 31
0.0
 11
-84.3828126215
 21
-45.7020574342
 31
0.0
 11
-84.3795952825
 21
-46.0495001952
 31
0.0
 11
-84.3779094801
 21
-46.3665280222
 31
0.0
 11
-84.3775586227
 21
-46.6463801173
 31
0.0
 11
-84.378527098
 21
-46.8836940536
 31
0.0
 11
-84.3809365269
 21
-47.0730630094
 31
0.0
 11
-84.3849548764
 21
-47.2108150569
 31
0.0
 11
-84.390805309
 21
-47.2942958929
 31
0.0
 11
-84.3990386805
 21
-47.321885377
 31
0.0
  0
SPLINE
  5
3A7
100
AcDbEntity
  8
RACCORDO
100
AcDbSpline
 62
253
  6
CONTINUOUS
 70
0
 71
3
 72
53
 73
49
 74
47
 42
0.0000001
 43
0.0000001
 44
0.0000000001
 12
-1.4455899078
 22
-32.7190401634
 32
0.0
 13
-0.0002095103
 23
-32.75095906
 33
0.0
 40
0.0
 40
0.0
 40
0.0
 40
0.0
 40
0.0078676493
 40
0.0159326791
 40
0.0237282308
 40
0.0312210666
 40
0.0385543482
 40
0.0458475212
 40
0.0531811845
 40
0.0605505759
 40
0.0679302779
 40
0.0753509732
 40
0.0828499597
 40
0.0903956712
 40
0.0979590937
 40
0.1055433589
 40
0.1131401356
 40
0.1207309435
 40
0.128407881
 40
0.1364257838
 40
0.1450476419
 40
0.1544993156
 40
0.1648418458
 40
0.1760535066
 40
0.1881407691
 40
0.2011804012
 40
0.2152652758
 40
0.2304791078
 40
0.2469034891
 40
0.2646444573
 40
0.2838244207
 40
0.3045680623
 40
0.3270173338
 40
0.3513296257
 40
0.3776679929
 40
0.4061979165
 40
0.4370887413
 40
0.470509867
 40
0.5066260649
 40
0.5456269828
 40
0.5878014304
 40
0.63350757
 40
0.6830670631
 40
0.7368137316
 40
0.7950834136
 40
0.8581168942
 40
0.926180893
 40
1.0
 40
1.0
 40
1.0
 40
1.0
 10
-84.4045232536
 20
44.4467895048
 30
0.0
 10
-84.4083143851
 20
44.3609821936
 30
0.0
 10
-84.4154141645
 20
44.1871888219
 30
0.0
 10
-84.4242702693
 20
43.928297651
 30
0.0
 10
-84.4313409628
 20
43.6734450797
 30
0.0
 10
-84.4366954335
 20
43.4265413252
 30
0.0
 10
-84.4406494033
 20
43.1850968358
 30
0.0
 10
-84.4436373121
 20
42.9453767762
 30
0.0
 10
-84.446088404
 20
42.7052567432
 30
0.0
 10
-84.448534516
 20
42.4641919589
 30
0.0
 10
-84.4514192609
 20
42.2221817449
 30
0.0
 10
-84.4546356803
 20
41.9787608889
 30
0.0
 10
-84.4580826192
 20
41.7335307045
 30
0.0
 10
-84.4616492888
 20
41.4867439343
 30
0.0
 10
-84.4651976141
 20
41.2390258136
 30
0.0
 10
-84.4686755364
 20
40.990749162
 30
0.0
 10
-84.4721381492
 20
40.7421733054
 30
0.0
 10
-84.4755998204
 20
40.4925856342
 30
0.0
 10
-84.479047947
 20
40.2383999097
 30
0.0
 10
-84.4825131796
 20
39.9729574484
 30
0.0
 10
-84.4860551285
 20
39.6881396142
 30
0.0
 10
-84.4896783654
 20
39.3779429773
 30
0.0
 10
-84.4933140947
 20
39.03947184
 30
0.0
 10
-84.4968581645
 20
38.6722255786
 30
0.0
 10
-84.5002701759
 20
38.2755326691
 30
0.0
 10
-84.5035281059
 20
37.8474706553
 30
0.0
 10
-84.5066467532
 20
37.3852740651
 30
0.0
 10
-84.5096950963
 20
36.8861250286
 30
0.0
 10
-84.512794716
 20
36.3470620763
 30
0.0
 10
-84.5158689396
 20
35.7647001105
 30
0.0
 10
-84.5188289871
 20
35.1351836697
 30
0.0
 10
-84.521549396
 20
34.4542651942
 30
0.0
 10
-84.523864633
 20
33.7173153256
 30
0.0
 10
-84.5255625
 20
32.9192860197
 30
0.0
 10
-84.5263579223
 20
32.0548728183
 30
0.0
 10
-84.526062774
 20
31.118641549
 30
0.0
 10
-84.5246180979
 20
30.105088929
 30
0.0
 10
-84.5220381325
 20
29.0087191203
 30
0.0
 10
-84.5184653542
 20
27.823813963
 30
0.0
 10
-84.5142448516
 20
26.5433505304
 30
0.0
 10
-84.5099373243
 20
25.1581935269
 30
0.0
 10
-84.5064152312
 20
23.6577659303
 30
0.0
 10
-84.5043868028
 20
22.0310016252
 30
0.0
 10
-84.5039535105
 20
20.267080082
 30
0.0
 10
-84.5054838178
 20
18.3560638202
 30
0.0
 10
-84.5084258828
 20
16.2887471763
 30
0.0
 10
-84.5116671788
 20
14.0516779734
 30
0.0
 10
-84.5127859725
 20
12.5027420493
 30
0.0
 10
-84.5127911277
 20
11.6968598655
 30
0.0
 11
-84.4045232536
 21
44.4467895048
 31
0.0
 11
-84.4150450051
 21
44.1893313554
 31
0.0
 11
-84.4240818817
 21
43.9253485283
 31
0.0
 11
-84.4311699804
 21
43.6701351434
 31
0.0
 11
-84.4365137963
 21
43.4247957756
 31
0.0
 11
-84.440499593
 21
43.184656847
 31
0.0
 11
-84.4435422423
 21
42.9458178169
 31
0.0
 11
-84.4460820007
 21
42.7056467391
 31
0.0
 11
-84.4486046241
 21
42.4643052867
 31
0.0
 11
-84.4514658741
 21
42.2226299031
 31
0.0
 11
-84.4546583262
 21
41.9796159853
 31
0.0
 11
-84.4580916247
 21
41.7340409827
 31
0.0
 11
-84.4616412144
 21
41.4869371898
 31
0.0
 11
-84.4651813397
 21
41.2392531446
 31
0.0
 11
-84.4686703791
 21
40.9908856911
 31
0.0
 11
-84.4721365585
 21
40.7421081157
 31
0.0
 11
-84.4755742517
 21
40.4935256469
 31
0.0
 11
-84.4789765216
 21
40.2421216017
 31
0.0
 11
-84.4824010242
 21
39.9795499243
 31
0.0
 11
-84.4859085692
 21
39.6971975896
 31
0.0
 11
-84.489518528
 21
39.3876672618
 31
0.0
 11
-84.4931530692
 21
39.0489589786
 31
0.0
 11
-84.4967041295
 21
38.6817835031
 31
0.0
 11
-84.5001179002
 21
38.2859287856
 31
0.0
 11
-84.5033821776
 21
37.8588808027
 31
0.0
 11
-84.5065162612
 21
37.3975983
 31
0.0
 11
-84.5095858731
 21
36.899340164
 31
0.0
 11
-84.5126714634
 21
36.3614347743
 31
0.0
 11
-84.5157323353
 21
35.7804091131
 31
0.0
 11
-84.5186776136
 21
35.1522538229
 31
0.0
 11
-84.5213821753
 21
34.472885051
 31
0.0
 11
-84.523681425
 21
33.7376534732
 31
0.0
 11
-84.5253616204
 21
32.9414043709
 31
0.0
 11
-84.5261653846
 21
32.0787979567
 31
0.0
 11
-84.5259048907
 21
31.1444156338
 31
0.0
 11
-84.5245071788
 21
30.1327124605
 31
0.0
 11
-84.5219912723
 21
29.0381414334
 31
0.0
 11
-84.5185070752
 21
27.855306445
 31
0.0
 11
-84.514397154
 21
26.5779955936
 31
0.0
 11
-84.5102256746
 21
25.1967482854
 31
0.0
 11
-84.5067774279
 21
23.6998323498
 31
0.0
 11
-84.5047036852
 21
22.0767127436
 31
0.0
 11
-84.5042602391
 21
20.3164578597
 31
0.0
 11
-84.5056323456
 21
18.4080703857
 31
0.0
 11
-84.5083562538
 21
16.3436652385
 31
0.0
 11
-84.5113171439
 21
14.1145059677
 31
0.0
 11
-84.5127911277
 21
11.6968598655
 31
0.0
  0
SPLINE
  5
3A8
100
AcDbEntity
  8
RACCORDO
100
AcDbSpline
 62
253
  6
CONTINUOUS
 70
0
 71
3
 72
34
 73
30
 74
28
 42
0.0000001
 43
0.0000001
 44
0.0000000001
 12
-0.0934020068
 22
-0.073847351
 32
0.0
 13
0.0918674488
 23
-0.0743549746
 33
0.0
 40
0.0
 40
0.0
 40
0.0
 40
0.0
 40
0.0896304863
 40
0.1678051764
 40
0.2352532551
 40
0.2951874054
 40
0.3505280063
 40
0.4017382709
 40
0.4493381725
 40
0.4936500593
 40
0.5340954458
 40
0.5696150061
 40
0.5994316459
 40
0.6233645037
 40
0.6454639892
 40
0.6681281545
 40
0.6920425912
 40
0.7179916022
 40
0.7466138523
 40
0.778039441
 40
0.8117348307
 40
0.8469864336
 40
0.8811406127
 40
0.9128659049
 40
0.9412694359
 40
0.9652200618
 40
0.9836461433
 40
0.9966762785
 40
1.0
 40
1.0
 40
1.0
 40
1.0
 10
-85.3370561266
 20
-46.4565458756
 30
0.0
 10
-85.3398466824
 20
-46.4587522003
 30
0.0
 10
-85.3449168519
 20
-46.4630870315
 30
0.0
 10
-85.351467791
 20
-46.4697504261
 30
0.0
 10
-85.3568757953
 20
-46.4758628383
 30
0.0
 10
-85.361267928
 20
-46.4816514565
 30
0.0
 10
-85.3645679687
 20
-46.48739574
 30
0.0
 10
-85.3670272396
 20
-46.4930093008
 30
0.0
 10
-85.3687843422
 20
-46.4984194149
 30
0.0
 10
-85.3700104049
 20
-46.5035313462
 30
0.0
 10
-85.3708720815
 20
-46.5082281938
 30
0.0
 10
-85.3715788367
 20
-46.512364401
 30
0.0
 10
-85.3722749664
 20
-46.5158457457
 30
0.0
 10
-85.3733956292
 20
-46.5186645164
 30
0.0
 10
-85.3749075548
 20
-46.5209453196
 30
0.0
 10
-85.3765856682
 20
-46.5230945858
 30
0.0
 10
-85.3785306972
 20
-46.5252202418
 30
0.0
 10
-85.3807435242
 20
-46.5274132717
 30
0.0
 10
-85.383232274
 20
-46.5297495534
 30
0.0
 10
-85.3859316863
 20
-46.5323088456
 30
0.0
 10
-85.3887145002
 20
-46.5351681415
 30
0.0
 10
-85.3911786307
 20
-46.5384467586
 30
0.0
 10
-85.3933599903
 20
-46.5418154396
 30
0.0
 10
-85.3951831103
 20
-46.5450961462
 30
0.0
 10
-85.396544648
 20
-46.5481224483
 30
0.0
 10
-85.3975659117
 20
-46.5508077854
 30
0.0
 10
-85.3979907738
 20
-46.552824015
 30
0.0
 10
-85.3985797182
 20
-46.5543876636
 30
0.0
 10
-85.3981768933
 20
-46.5548547526
 30
0.0
 10
-85.3980751127
 20
-46.554937131
 30
0.0
 11
-85.3370561266
 21
-46.4565458756
 31
0.0
 11
-85.3451496031
 21
-46.4635022589
 31
0.0
 11
-85.3517019729
 21
-46.4701134868
 31
0.0
 11
-85.3569923422
 21
-46.4761556951
 31
0.0
 11
-85.3612469904
 21
-46.4818849638
 31
0.0
 11
-85.364538657
 21
-46.4875932278
 31
0.0
 11
-85.3669872554
 21
-46.4931775258
 31
0.0
 11
-85.3687504181
 21
-46.4985639563
 31
0.0
 11
-85.3699975904
 21
-46.5036905959
 31
0.0
 11
-85.3708969732
 21
-46.5084216488
 31
0.0
 11
-85.3716385056
 21
-46.5125854031
 31
0.0
 11
-85.3724362473
 21
-46.5160448453
 31
0.0
 11
-85.3735127281
 21
-46.5186833534
 31
0.0
 11
-85.3749215922
 21
-46.5209057725
 31
0.0
 11
-85.3765814012
 21
-46.5230335512
 31
0.0
 11
-85.378491919
 21
-46.5251449397
 31
0.0
 11
-85.3806773596
 21
-46.5273290175
 31
0.0
 11
-85.383149178
 21
-46.5296752235
 31
0.0
 11
-85.3858500841
 21
-46.5322648594
 31
0.0
 11
-85.3886083711
 21
-46.5351783694
 31
0.0
 11
-85.391163133
 21
-46.5385086934
 31
0.0
 11
-85.3933728423
 21
-46.5419226639
 31
0.0
 11
-85.3951947281
 21
-46.5452317678
 31
0.0
 11
-85.3965895608
 21
-46.5483127062
 31
0.0
 11
-85.3975541084
 21
-46.5509964062
 31
0.0
 11
-85.3981321557
 21
-46.5531128578
 31
0.0
 11
-85.3983125542
 21
-46.5546538161
 31
0.0
 11
-85.3980751127
 21
-46.554937131
 31
0.0
  0
SPLINE
  5
3A9
100
AcDbEntity
  8
RACCORDO
100
AcDbSpline
 62
253
  6
CONTINUOUS
 70
0
 71
3
 72
61
 73
57
 74
55
 42
0.0000001
 43
0.0000001
 44
0.0000000001
 12
0.016678704
 22
-3.6881510135
 32
0.0
 13
-2.2410508947
 23
2.929236584
 33
0.0
 40
0.0
 40
0.0
 40
0.0
 40
0.0
 40
0.031736521
 40
0.0627533883
 40
0.0931993802
 40
0.1232133728
 40
0.1521367458
 40
0.1782837734
 40
0.2008264857
 40
0.220246444
 40
0.2372375813
 40
0.252454047
 40
0.2664921515
 40
0.279935157
 40
0.293219339
 40
0.3064609524
 40
0.3196720673
 40
0.3328136862
 40
0.3460911179
 40
0.3600908727
 40
0.3754868121
 40
0.3927919849
 40
0.4118161458
 40
0.4320607392
 40
0.4532041915
 40
0.4751142254
 40
0.4980556489
 40
0.5224816775
 40
0.5485627822
 40
0.5763264589
 40
0.6057801352
 40
0.6368726887
 40
0.6697845182
 40
0.7048538348
 40
0.7413050813
 40
0.7761018101
 40
0.806787166
 40
0.8324814563
 40
0.8536926903
 40
0.8716419971
 40
0.8868292588
 40
0.8996461872
 40
0.9109139774
 40
0.921401082
 40
0.9313699177
 40
0.94074325
 40
0.9493956076
 40
0.9572917313
 40
0.9646669598
 40
0.9718544325
 40
0.978901364
 40
0.9854786349
 40
0.9912420103
 40
0.9958879553
 40
0.9989927936
 40
1.0
 40
1.0
 40
1.0
 40
1.0
 10
-88.188500936
 20
-22.2903960023
 30
0.0
 10
-88.1883244946
 20
-22.329412363
 30
0.0
 10
-88.1880128152
 20
-22.406560527
 30
0.0
 10
-88.1876555349
 20
-22.5211389521
 30
0.0
 10
-88.1874026246
 20
-22.6335999792
 30
0.0
 10
-88.1872462278
 20
-22.7434874438
 30
0.0
 10
-88.1871811347
 20
-22.8480898676
 30
0.0
 10
-88.1871916578
 20
-22.9435071438
 30
0.0
 10
-88.1872536505
 20
-23.0272409324
 30
0.0
 10
-88.1873449378
 20
-23.0997184674
 30
0.0
 10
-88.1874520745
 20
-23.1631891084
 30
0.0
 10
-88.1875686686
 20
-23.2200432889
 30
0.0
 10
-88.1876929976
 20
-23.2725353816
 30
0.0
 10
-88.1878263096
 20
-23.3226519017
 30
0.0
 10
-88.1879706682
 20
-23.3717891838
 30
0.0
 10
-88.1881275184
 20
-23.4206413408
 30
0.0
 10
-88.1882968258
 20
-23.4693181886
 30
0.0
 10
-88.1884795571
 20
-23.5180390231
 30
0.0
 10
-88.1886786817
 20
-23.5677293521
 30
0.0
 10
-88.1889024746
 20
-23.6201910559
 30
0.0
 10
-88.1891620909
 20
-23.67760434
 30
0.0
 10
-88.1894670289
 20
-23.7411944661
 30
0.0
 10
-88.1898205155
 20
-23.8107453422
 30
0.0
 10
-88.1902204015
 20
-23.8850148066
 30
0.0
 10
-88.1906642494
 20
-23.9628319635
 30
0.0
 10
-88.1911537944
 20
-24.0439643821
 30
0.0
 10
-88.1916964519
 20
-24.1291321358
 30
0.0
 10
-88.1923020896
 20
-24.2194274859
 30
0.0
 10
-88.1929781921
 20
-24.3156509519
 30
0.0
 10
-88.1937268869
 20
-24.4180550265
 30
0.0
 10
-88.1944988979
 20
-24.5266201487
 30
0.0
 10
-88.1952162856
 20
-24.6415149372
 30
0.0
 10
-88.1957419452
 20
-24.7633147217
 30
0.0
 10
-88.1960428988
 20
-24.8917032445
 30
0.0
 10
-88.1960801505
 20
-25.0224094173
 30
0.0
 10
-88.195868076
 20
-25.1477257526
 30
0.0
 10
-88.1955312547
 20
-25.2598171554
 30
0.0
 10
-88.1951708558
 20
-25.3552064197
 30
0.0
 10
-88.1948098983
 20
-25.434937895
 30
0.0
 10
-88.1944637904
 20
-25.5017519867
 30
0.0
 10
-88.194142768
 20
-25.5582461319
 30
0.0
 10
-88.1938524103
 20
-25.606526086
 30
0.0
 10
-88.1935879206
 20
-25.6490277275
 30
0.0
 10
-88.1933408985
 20
-25.6880279976
 30
0.0
 10
-88.193108073
 20
-25.7246991946
 30
0.0
 10
-88.1928927984
 20
-25.7591150877
 30
0.0
 10
-88.1927025904
 20
-25.7909820325
 30
0.0
 10
-88.1925401395
 20
-25.8203955029
 30
0.0
 10
-88.1924077552
 20
-25.8479985123
 30
0.0
 10
-88.1923030995
 20
-25.8745917566
 30
0.0
 10
-88.1922547357
 20
-25.9000825961
 30
0.0
 10
-88.1922287841
 20
-25.92423454
 30
0.0
 10
-88.1924239165
 20
-25.9441541734
 30
0.0
 10
-88.1923710246
 20
-25.9633213678
 30
0.0
 10
-88.1932040499
 20
-25.969058482
 30
0.0
 10
-88.193034797
 20
-25.9794553494
 30
0.0
 10
-88.1937871973
 20
-25.9784719007
 30
0.0
 11
-88.188500936
 21
-22.2903960023
 31
0.0
 11
-88.1880274295
 21
-22.4074453235
 31
0.0
 11
-88.1876700752
 21
-22.5218408258
 31
0.0
 11
-88.1874169922
 21
-22.6341311044
 31
0.0
 11
-88.1872593702
 21
-22.7448282616
 31
0.0
 11
-88.1871926919
 21
-22.8515030989
 31
0.0
 11
-88.187203023
 21
-22.9479382707
 31
0.0
 11
-88.1872642223
 21
-23.0310800255
 31
0.0
 11
-88.1873541544
 21
-23.1027044405
 31
0.0
 11
-88.1874597551
 21
-23.1653708724
 31
0.0
 11
-88.1875747315
 21
-23.2214919518
 31
0.0
 11
-88.1876973004
 21
-23.2732669856
 31
0.0
 11
-88.1878291384
 21
-23.3228471516
 31
0.0
 11
-88.1879730535
 21
-23.3718415103
 31
0.0
 11
-88.1881298185
 21
-23.420678828
 31
0.0
 11
-88.1882993408
 21
-23.4694036182
 31
0.0
 11
-88.1884809941
 21
-23.5178720486
 31
0.0
 11
-88.1886771772
 21
-23.5668413294
 31
0.0
 11
-88.1888972513
 21
-23.6184745981
 31
0.0
 11
-88.1891539143
 21
-23.6752571484
 31
0.0
 11
-88.1894598038
 21
-23.7390811585
 31
0.0
 11
-88.1898163099
 21
-23.8092449485
 31
0.0
 11
-88.1902183408
 21
-23.8839097474
 31
0.0
 11
-88.1906630887
 21
-23.9618895215
 31
0.0
 11
-88.1911505873
 21
-24.0426963911
 31
0.0
 11
-88.1916894078
 21
-24.1273069749
 31
0.0
 11
-88.1922930758
 21
-24.2173927554
 31
0.0
 11
-88.192968081
 21
-24.3135824233
 31
0.0
 11
-88.1937083825
 21
-24.4159774266
 31
0.0
 11
-88.1944692964
 21
-24.5246054785
 31
0.0
 11
-88.1951665189
 21
-24.6392785642
 31
0.0
 11
-88.1956918759
 21
-24.7606624658
 31
0.0
 11
-88.1959953864
 21
-24.8900043679
 31
0.0
 11
-88.1960353966
 21
-25.0244434385
 31
0.0
 11
-88.1958296846
 21
-25.1527801763
 31
0.0
 11
-88.1954969395
 21
-25.265953071
 31
0.0
 11
-88.1951370729
 21
-25.3607177794
 31
0.0
 11
-88.1947825207
 21
-25.4389480103
 31
0.0
 11
-88.1944401976
 21
-25.5051475561
 31
0.0
 11
-88.1941228513
 21
-25.5611601444
 31
0.0
 11
-88.1938392043
 21
-25.608430544
 31
0.0
 11
-88.193581153
 21
-25.6499874799
 31
0.0
 11
-88.1933367629
 21
-25.6886651287
 31
0.0
 11
-88.1931040178
 21
-25.7254313393
 31
0.0
 11
-88.1928889705
 21
-25.7600012889
 31
0.0
 11
-88.1926995177
 21
-25.7919122543
 31
0.0
 11
-88.1925402599
 21
-25.8210342135
 31
0.0
 11
-88.192410576
 21
-25.848235139
 31
0.0
 11
-88.1923115613
 21
-25.8747437097
 31
0.0
 11
-88.1922572356
 21
-25.9007340662
 31
0.0
 11
-88.1922726566
 21
-25.9249922778
 31
0.0
 11
-88.192387607
 21
-25.946248383
 31
0.0
 11
-88.1926407767
 21
-25.9633816348
 31
0.0
 11
-88.1930840906
 21
-25.9748242799
 31
0.0
 11
-88.1937871973
 21
-25.9784719007
 31
0.0
  0
SPLINE
  5
3AA
100
AcDbEntity
  8
RACCORDO
100
AcDbSpline
 62
253
  6
CONTINUOUS
 70
0
 71
3
 72
14
 73
10
 74
8
 42
0.0000001
 43
0.0000001
 44
0.0000000001
 12
0.0007758878
 22
-10.4872645235
 32
0.0
 13
0.047387626
 23
-10.4871574891
 33
0.0
 40
0.0
 40
0.0
 40
0.0
 40
0.0
 40
0.1817308094
 40
0.3484357704
 40
0.5017000688
 40
0.6428597866
 40
0.7730726327
 40
0.8925672009
 40
1.0
 40
1.0
 40
1.0
 40
1.0
 10
-88.1961054798
 20
-11.8031373146
 30
0.0
 10
-88.1960584789
 20
-12.4384236714
 30
0.0
 10
-88.1954241315
 20
-13.6564696301
 30
0.0
 10
-88.1940393924
 20
-15.4102895148
 30
0.0
 10
-88.1930882958
 20
-17.0222831056
 30
0.0
 10
-88.1925731028
 20
-18.5067094273
 30
0.0
 10
-88.1926860643
 20
-19.8730851025
 30
0.0
 10
-88.1922220483
 20
-21.121559751
 30
0.0
 10
-88.1901979311
 20
-21.9148411079
 30
0.0
 10
-88.188500936
 20
-22.2903960023
 30
0.0
 11
-88.1961054798
 21
-11.8031373146
 31
0.0
 11
-88.1953077232
 21
-13.7089962231
 31
0.0
 11
-88.1940628801
 21
-15.4572748084
 31
0.0
 11
-88.1931310878
 21
-17.0645977823
 31
0.0
 11
-88.1926701277
 21
-18.5449770146
 31
0.0
 11
-88.1925813177
 21
-19.9105535769
 31
0.0
 11
-88.1917268775
 21
-21.1637244351
 31
0.0
 11
-88.188500936
 21
-22.2903960023
 31
0.0
  0
SPLINE
  5
3AB
100
AcDbEntity
  8
RACCORDO
100
AcDbSpline
 62
253
  6
CONTINUOUS
 70
0
 71
3
 72
53
 73
49
 74
47
 42
0.0000001
 43
0.0000001
 44
0.0000000001
 12
0.0001789907
 22
-32.794058083
 32
0.0
 13
1.3005742184
 23
-32.7682583042
 33
0.0
 40
0.0
 40
0.0
 40
0.0
 40
0.0
 40
0.0762665916
 40
0.1463824718
 40
0.2109100099
 40
0.2703418944
 40
0.3250710722
 40
0.3754935533
 40
0.4219854747
 40
0.4648842601
 40
0.5044926203
 40
0.5410859051
 40
0.5749133878
 40
0.6061797452
 40
0.6350566049
 40
0.661703991
 40
0.6862873799
 40
0.7089767412
 40
0.7299311538
 40
0.7492932617
 40
0.7671911097
 40
0.7837493314
 40
0.7990794221
 40
0.8132634647
 40
0.8263794092
 40
0.8385208662
 40
0.8497671222
 40
0.8601368853
 40
0.8696086888
 40
0.8782334722
 40
0.88621372
 40
0.8938256295
 40
0.9013320908
 40
0.9088466644
 40
0.9163140618
 40
0.9237014975
 40
0.9310450529
 40
0.9383870152
 40
0.9457675528
 40
0.9531585731
 40
0.9604399932
 40
0.9675049392
 40
0.9742585142
 40
0.9806043002
 40
0.9864451447
 40
0.9916867686
 40
0.9962363689
 40
1.0
 40
1.0
 40
1.0
 40
1.0
 10
-85.41993403
 20
-11.8031373441
 30
0.0
 10
-85.4199294796
 20
-12.6368343561
 30
0.0
 10
-85.4191259093
 20
-14.2369928026
 30
0.0
 10
-85.4166548446
 20
-16.5425231713
 30
0.0
 10
-85.4145590819
 20
-18.664027748
 30
0.0
 10
-85.4138539627
 20
-20.6173359826
 30
0.0
 10
-85.4149088144
 20
-22.416456645
 30
0.0
 10
-85.4169157304
 20
-24.0741249512
 30
0.0
 10
-85.4194124409
 20
-25.602470209
 30
0.0
 10
-85.422061406
 20
-27.0126020236
 30
0.0
 10
-85.4246159791
 20
-28.3145283273
 30
0.0
 10
-85.4269566297
 20
-29.5172932511
 30
0.0
 10
-85.4288449004
 20
-30.6288695041
 30
0.0
 10
-85.4300225658
 20
-31.6560957622
 30
0.0
 10
-85.4303968409
 20
-32.6048345051
 30
0.0
 10
-85.4298977256
 20
-33.4805193122
 30
0.0
 10
-85.4286946708
 20
-34.2885655882
 30
0.0
 10
-85.4270519945
 20
-35.0343790084
 30
0.0
 10
-85.425136736
 20
-35.7231158906
 30
0.0
 10
-85.4230852436
 20
-36.3594743949
 30
0.0
 10
-85.4209686066
 20
-36.9477760762
 30
0.0
 10
-85.4189191687
 20
-37.4920022958
 30
0.0
 10
-85.4168928664
 20
-37.9956313995
 30
0.0
 10
-85.4146948884
 20
-38.4616306866
 30
0.0
 10
-85.4122690653
 20
-38.892772261
 30
0.0
 10
-85.4096184222
 20
-39.2917979026
 30
0.0
 10
-85.4067093485
 20
-39.6608013968
 30
0.0
 10
-85.4036941561
 20
-40.000620011
 30
0.0
 10
-85.4007161803
 20
-40.3117814904
 30
0.0
 10
-85.3978554971
 20
-40.5968222192
 30
0.0
 10
-85.3951164475
 20
-40.8615319721
 30
0.0
 10
-85.3924331477
 20
-41.1140168637
 30
0.0
 10
-85.3897442206
 20
-41.3614109499
 30
0.0
 10
-85.3870232417
 20
-41.6072248822
 30
0.0
 10
-85.3842193319
 20
-41.8517366791
 30
0.0
 10
-85.3814807127
 20
-42.0943796517
 30
0.0
 10
-85.3789274215
 20
-42.3356533887
 30
0.0
 10
-85.3765935409
 20
-42.5768540444
 30
0.0
 10
-85.3748175883
 20
-42.8185784603
 30
0.0
 10
-85.3735199785
 20
-43.0596438501
 30
0.0
 10
-85.3719462182
 20
-43.2972578581
 30
0.0
 10
-85.3696611967
 20
-43.5278980729
 30
0.0
 10
-85.366436727
 20
-43.7482986614
 30
0.0
 10
-85.3622720291
 20
-43.9552998641
 30
0.0
 10
-85.3574506443
 20
-44.1457540357
 30
0.0
 10
-85.3523069342
 20
-44.3165568568
 30
0.0
 10
-85.3472145213
 20
-44.4646426074
 30
0.0
 10
-85.3437606089
 20
-44.5554519991
 30
0.0
 10
-85.3421289817
 20
-44.596561211
 30
0.0
 11
-85.41993403
 21
-11.8031373441
 31
0.0
 11
-85.4188447241
 21
-14.3042281429
 31
0.0
 11
-85.416622871
 21
-16.6036113166
 31
0.0
 11
-85.4147342356
 21
-18.7197303043
 31
0.0
 11
-85.4141557988
 21
-20.668742892
 31
0.0
 11
-85.4151308355
 21
-22.4635344633
 31
0.0
 11
-85.4170890289
 21
-24.117091078
 31
0.0
 11
-85.419541343
 21
-25.6417478775
 31
0.0
 11
-85.4221493638
 21
-27.0485707174
 31
0.0
 11
-85.424677028
 21
-28.3474871243
 31
0.0
 11
-85.4269640571
 21
-29.5475272512
 31
0.0
 11
-85.4287863305
 21
-30.6568661865
 31
0.0
 11
-85.4299189035
 21
-31.6822163041
 31
0.0
 11
-85.4302481193
 21
-32.6292056587
 31
0.0
 11
-85.4297456441
 21
-33.5030814437
 31
0.0
 11
-85.4285641095
 21
-34.3092696598
 31
0.0
 11
-85.4269356564
 21
-35.0533441124
 31
0.0
 11
-85.4250355963
 21
-35.740521707
 31
0.0
 11
-85.4229925002
 21
-36.3754805127
 31
0.0
 11
-85.4208988564
 21
-36.9624198439
 31
0.0
 11
-85.4188444005
 21
-37.5054272432
 31
0.0
 11
-85.4167821174
 21
-38.0081588986
 31
0.0
 11
-85.4145665277
 21
-38.4733059374
 31
0.0
 11
-85.412133469
 21
-38.9034241032
 31
0.0
 11
-85.4094679325
 21
-39.3015828264
 31
0.0
 11
-85.4065705431
 21
-39.6703818159
 31
0.0
 11
-85.4035657428
 21
-40.0104351545
 31
0.0
 11
-85.4006023452
 21
-40.3210398926
 31
0.0
 11
-85.3977695473
 21
-40.6038673563
 31
0.0
 11
-85.3950622786
 21
-40.8655580603
 31
0.0
 11
-85.392410785
 21
-41.1151693807
 31
0.0
 11
-85.3897369741
 21
-41.3613221883
 31
0.0
 11
-85.3870011337
 21
-41.6077403636
 31
0.0
 11
-85.3842167248
 21
-41.8526107989
 31
0.0
 11
-85.3815038073
 21
-42.094859602
 31
0.0
 11
-85.3789636182
 21
-42.3356711888
 31
0.0
 11
-85.3766908289
 21
-42.5764332002
 31
0.0
 11
-85.3748976045
 21
-42.8184643356
 31
0.0
 11
-85.3734630508
 21
-43.0608416385
 31
0.0
 11
-85.3717978854
 21
-43.2996231471
 31
0.0
 11
-85.3694410412
 21
-43.531299408
 31
0.0
 11
-85.3661626836
 21
-43.752752275
 31
0.0
 11
-85.3619734596
 21
-43.960814179
 31
0.0
 11
-85.3571235498
 21
-44.1522977625
 31
0.0
 11
-85.3519483491
 21
-44.3241139607
 31
0.0
 11
-85.346820188
 21
-44.47322566
 31
0.0
 11
-85.3421289817
 21
-44.596561211
 31
0.0
  0
SPLINE
  5
3AC
100
AcDbEntity
  8
RACCORDO
100
AcDbSpline
 62
253
  6
CONTINUOUS
 70
0
 71
3
 72
18
 73
14
 74
12
 42
0.0000001
 43
0.0000001
 44
0.0000000001
 12
0.0738175583
 22
-1.8601758981
 32
0.0
 13
-1.4591799077
 23
-1.1560698078
 33
0.0
 40
0.0
 40
0.0
 40
0.0
 40
0.0
 40
0.1386627199
 40
0.2754603901
 40
0.4069634342
 40
0.5305568121
 40
0.6438095528
 40
0.7444238646
 40
0.8304104
 40
0.8999910679
 40
0.9520286285
 40
0.9856359075
 40
1.0
 40
1.0
 40
1.0
 40
1.0
 10
-85.3421289817
 20
-44.596561211
 30
0.0
 10
-85.3387170673
 20
-44.6825402275
 30
0.0
 10
-85.3330286489
 20
-44.8533857721
 30
0.0
 10
-85.3268029933
 20
-45.1058496645
 30
0.0
 10
-85.3223930998
 20
-45.3490031798
 30
0.0
 10
-85.3195802355
 20
-45.5775535525
 30
0.0
 10
-85.3180752949
 20
-45.7869957557
 30
0.0
 10
-85.3177950524
 20
-45.9729554178
 30
0.0
 10
-85.3182066836
 20
-46.1322632968
 30
0.0
 10
-85.3208282202
 20
-46.2601711376
 30
0.0
 10
-85.3220769738
 20
-46.3586528357
 30
0.0
 10
-85.3297703002
 20
-46.4163277937
 30
0.0
 10
-85.3300695282
 20
-46.4510105778
 30
0.0
 10
-85.3370561266
 20
-46.4565458756
 30
0.0
 11
-85.3421289817
 21
-44.596561211
 31
0.0
 11
-85.3333637614
 21
-44.8545524179
 31
0.0
 11
-85.3270041342
 21
-45.1091410102
 31
0.0
 11
-85.3225492482
 21
-45.3539117975
 31
0.0
 11
-85.3197061571
 21
-45.5839806045
 31
0.0
 11
-85.3182303367
 21
-45.7948112687
 31
0.0
 11
-85.3179192539
 21
-45.9821186355
 31
0.0
 11
-85.3187568302
 21
-46.142192416
 31
0.0
 11
-85.3208673123
 21
-46.271709375
 31
0.0
 11
-85.3244031316
 21
-46.3685200302
 31
0.0
 11
-85.3295862965
 21
-46.4308696151
 31
0.0
 11
-85.3370561266
 21
-46.4565458756
 31
0.0
  0
SPLINE
  5
3AD
100
AcDbEntity
  8
RACCORDO
100
AcDbSpline
 62
253
  6
CONTINUOUS
 70
0
 71
3
 72
53
 73
49
 74
47
 42
0.0000001
 43
0.0000001
 44
0.0000000001
 12
0.0002257117
 22
-32.7509576241
 32
0.0
 13
1.4455213675
 23
-32.7190417543
 33
0.0
 40
0.0
 40
0.0
 40
0.0
 40
0.0
 40
0.0763330046
 40
0.1465312724
 40
0.2111601643
 40
0.2707061481
 40
0.3255393662
 40
0.3760496481
 40
0.4226152797
 40
0.4655752882
 40
0.5052339537
 40
0.5418648036
 40
0.5757146151
 40
0.6069908239
 40
0.6358680408
 40
0.6625132479
 40
0.687097316
 40
0.7097905647
 40
0.730751584
 40
0.7501223415
 40
0.7680313178
 40
0.7845956966
 40
0.7999217818
 40
0.8140937653
 40
0.8271927199
 40
0.8393143068
 40
0.8505443613
 40
0.8609045708
 40
0.8703722258
 40
0.8789961386
 40
0.8869769897
 40
0.8945906885
 40
0.9020996373
 40
0.9096200882
 40
0.9171036031
 40
0.9245203978
 40
0.9319051233
 40
0.9393011594
 40
0.9467177664
 40
0.954083172
 40
0.9612844862
 40
0.9682307812
 40
0.974846218
 40
0.9810524944
 40
0.9867617955
 40
0.9918830731
 40
0.9963268744
 40
1.0
 40
1.0
 40
1.0
 40
1.0
 10
-84.5127911277
 20
-11.8031345461
 30
0.0
 10
-84.5127853847
 20
-12.6364608794
 30
0.0
 10
-84.511597763
 20
-14.2361407592
 30
0.0
 10
-84.5079200491
 20
-16.5413703253
 30
0.0
 10
-84.5048261752
 20
-18.6633370175
 30
0.0
 10
-84.5039147562
 20
-20.6175662091
 30
0.0
 10
-84.5055903649
 20
-22.4176620396
 30
0.0
 10
-84.5086266298
 20
-24.0760492237
 30
0.0
 10
-84.5123197054
 20
-25.6048149965
 30
0.0
 10
-84.5161501199
 20
-27.0151130376
 30
0.0
 10
-84.5197374876
 20
-28.3169534596
 30
0.0
 10
-84.522869515
 20
-29.519338875
 30
0.0
 10
-84.525127744
 20
-30.6302150038
 30
0.0
 10
-84.5262338798
 20
-31.6564466226
 30
0.0
 10
-84.5261045138
 20
-32.6040263487
 30
0.0
 10
-84.5247692342
 20
-33.4785470338
 30
0.0
 10
-84.5225576397
 20
-34.2855553122
 30
0.0
 10
-84.5197759425
 20
-35.0305071686
 30
0.0
 10
-84.5166495122
 20
-35.7185434385
 30
0.0
 10
-84.5133479013
 20
-36.3543483806
 30
0.0
 10
-84.5099971808
 20
-36.9421542624
 30
0.0
 10
-84.5066950273
 20
-37.4858040397
 30
0.0
 10
-84.5033057046
 20
-37.9886557664
 30
0.0
 10
-84.4997161728
 20
-38.4536731018
 30
0.0
 10
-84.4959174884
 20
-38.8837040631
 30
0.0
 10
-84.4919110522
 20
-39.2816146398
 30
0.0
 10
-84.4877654951
 20
-39.6496231619
 30
0.0
 10
-84.4836326189
 20
-39.9886568687
 30
0.0
 10
-84.4796416766
 20
-40.2992388945
 30
0.0
 10
-84.4758506663
 20
-40.5838458842
 30
0.0
 10
-84.4722338484
 20
-40.8482137652
 30
0.0
 10
-84.4687055768
 20
-41.1004096579
 30
0.0
 10
-84.4651868875
 20
-41.3475790021
 30
0.0
 10
-84.4616277036
 20
-41.5933264009
 30
0.0
 10
-84.4580758673
 20
-41.8380677561
 30
0.0
 10
-84.45466255
 20
-42.0813292395
 30
0.0
 10
-84.4514616062
 20
-42.3236385479
 30
0.0
 10
-84.4485925882
 20
-42.5659500427
 30
0.0
 10
-84.4461234488
 20
-42.8080549285
 30
0.0
 10
-84.4436864495
 20
-43.0480342519
 30
0.0
 10
-84.4407647631
 20
-43.2828737226
 30
0.0
 10
-84.4370959108
 20
-43.5095146194
 30
0.0
 10
-84.4325766253
 20
-43.7252752689
 30
0.0
 10
-84.4273209676
 20
-43.9275106421
 30
0.0
 10
-84.4215997813
 20
-44.1134143998
 30
0.0
 10
-84.4157292123
 20
-44.2800617246
 30
0.0
 10
-84.4100667465
 20
-44.4244723669
 30
0.0
 10
-84.4062930881
 20
-44.5130045154
 30
0.0
 10
-84.4045232276
 20
-44.5530648987
 30
0.0
 11
-84.5127911277
 21
-11.8031345461
 31
0.0
 11
-84.5111777634
 21
-14.3031130255
 31
0.0
 11
-84.5078778547
 21
-16.6021711498
 31
0.0
 11
-84.5051094155
 21
-18.7188274391
 31
0.0
 11
-84.5043636157
 21
-20.6690152904
 31
0.0
 11
-84.5059147271
 21
-22.4648550232
 31
0.0
 11
-84.5088732787
 21
-24.1191124781
 31
0.0
 11
-84.5124941994
 21
-25.6441772075
 31
0.0
 11
-84.5162576596
 21
-27.0511535925
 31
0.0
 11
-84.5197946404
 21
-28.3500080492
 31
0.0
 11
-84.5228297146
 21
-29.5496996222
 31
0.0
 11
-84.5250014367
 21
-30.6583112367
 31
0.0
 11
-84.5260465197
 21
-31.6826364929
 31
0.0
 11
-84.5258732223
 21
-32.6283929858
 31
0.0
 11
-84.5245512656
 21
-33.5010480335
 31
0.0
 11
-84.5223624104
 21
-34.3061968283
 31
0.0
 11
-84.5196010244
 21
-35.0494173261
 31
0.0
 11
-84.5164934667
 21
-35.7359037466
 31
0.0
 11
-84.5132092632
 21
-36.3703061047
 31
0.0
 11
-84.5098755562
 21
-36.9568327533
 31
0.0
 11
-84.5065503506
 21
-37.4993218304
 31
0.0
 11
-84.5031356922
 21
-38.0012541855
 31
0.0
 11
-84.4995361632
 21
-38.4653862585
 31
0.0
 11
-84.4957315136
 21
-38.8943726942
 31
0.0
 11
-84.4917309083
 21
-39.2913461143
 31
0.0
 11
-84.4875995354
 21
-39.6591179495
 31
0.0
 11
-84.4834748687
 21
-39.9983996596
 31
0.0
 11
-84.4794978941
 21
-40.3084489212
 31
0.0
 11
-84.4757395239
 21
-40.5908653189
 31
0.0
 11
-84.4721652345
 21
-40.8522213964
 31
0.0
 11
-84.4686792992
 21
-41.1015529547
 31
0.0
 11
-84.4651785555
 21
-41.3474533013
 31
0.0
 11
-84.4616206501
 21
-41.5937295701
 31
0.0
 11
-84.4580850334
 21
-41.8387963478
 31
0.0
 11
-84.4546909515
 21
-42.0816797623
 31
0.0
 11
-84.4515184038
 21
-42.3235157842
 31
0.0
 11
-84.4486614153
 21
-42.5657262007
 31
0.0
 11
-84.4461195192
 21
-42.8086138823
 31
0.0
 11
-84.4435753274
 21
-43.0498245515
 31
0.0
 11
-84.4405802408
 21
-43.2856554697
 31
0.0
 11
-84.4368527402
 21
-43.5131227449
 31
0.0
 11
-84.4322953614
 21
-43.7297366981
 31
0.0
 11
-84.4270112844
 21
-43.932929496
 31
0.0
 11
-84.4212562623
 21
-44.1198259926
 31
0.0
 11
-84.415349839
 21
-44.2874487086
 31
0.0
 11
-84.4096466573
 21
-44.4328756693
 31
0.0
 11
-84.4045232276
 21
-44.5530648987
 31
0.0
  0
SPLINE
  5
3AE
100
AcDbEntity
  8
RACCORDO
100
AcDbSpline
 62
253
  6
CONTINUOUS
 70
0
 71
3
 72
18
 73
14
 74
12
 42
0.0000001
 43
0.0000001
 44
0.0000000001
 12
1.4607185038
 22
-1.1537839961
 32
0.0
 13
-0.0738156092
 23
-1.8599643311
 33
0.0
 40
0.0
 40
0.0
 40
0.0
 40
0.0
 40
0.0143888473
 40
0.0479474773
 40
0.1000156233
 40
0.1695602394
 40
0.255374878
 40
0.3559495806
 40
0.46911789
 40
0.5925758641
 40
0.7240852463
 40
0.8609420698
 40
1.0
 40
1.0
 40
1.0
 40
1.0
 10
-85.3371759043
 20
46.3500345985
 30
0.0
 10
-85.3301698858
 20
46.3445007246
 30
0.0
 10
-85.3297522303
 20
46.3098569955
 30
0.0
 10
-85.3220580212
 20
46.2521722089
 30
0.0
 10
-85.3207843405
 20
46.1537407849
 30
0.0
 10
-85.3181871204
 20
46.0259541472
 30
0.0
 10
-85.3177893753
 20
45.8668194711
 30
0.0
 10
-85.3180791026
 20
45.681064178
 30
0.0
 10
-85.3195807978
 20
45.4718068763
 30
0.0
 10
-85.3223859493
 20
45.243414817
 30
0.0
 10
-85.3267869844
 20
45.0003321652
 30
0.0
 10
-85.3330129833
 20
44.7476110341
 30
0.0
 10
-85.3387078094
 20
44.5765030264
 30
0.0
 10
-85.342129358
 20
44.4902887631
 30
0.0
 11
-85.3371759043
 21
46.3500345985
 31
0.0
 11
-85.3296246386
 21
46.3243373051
 31
0.0
 11
-85.3243858041
 21
46.2620903816
 31
0.0
 11
-85.3208316448
 21
46.1652344393
 31
0.0
 11
-85.3187322506
 21
46.0357991336
 31
0.0
 11
-85.3179119282
 21
45.8760634261
 31
0.0
 11
-85.3182319062
 21
45.6888510817
 31
0.0
 11
-85.3197063545
 21
45.4782015255
 31
0.0
 11
-85.3225405397
 21
45.2484108116
 31
0.0
 11
-85.3269878697
 21
45.0036559015
 31
0.0
 11
-85.3333430913
 21
44.7489859942
 31
0.0
 11
-85.342129358
 21
44.4902887631
 31
0.0
  0
SPLINE
  5
3AF
100
AcDbEntity
  8
RACCORDO
100
AcDbSpline
 62
253
  6
CONTINUOUS
 70
0
 71
3
 72
53
 73
49
 74
47
 42
0.0000001
 43
0.0000001
 44
0.0000000001
 12
-1.3006869741
 22
-32.7682563838
 32
0.0
 13
-0.0001700583
 23
-32.7940606362
 33
0.0
 40
0.0
 40
0.0
 40
0.0
 40
0.0
 40
0.0080580623
 40
0.0163118148
 40
0.024284567
 40
0.0319365129
 40
0.0393967655
 40
0.0467718495
 40
0.0541306112
 40
0.0614664206
 40
0.0687895629
 40
0.0761695787
 40
0.0836402478
 40
0.0911720349
 40
0.0987327151
 40
0.1063124749
 40
0.1139015589
 40
0.1214878872
 40
0.1291665363
 40
0.1371905227
 40
0.1458210823
 40
0.1552851085
 40
0.165643859
 40
0.1768720966
 40
0.1889733541
 40
0.2020229411
 40
0.2161113459
 40
0.2313199767
 40
0.2477346756
 40
0.265467472
 40
0.2846407265
 40
0.3053795422
 40
0.3278261482
 40
0.3521381373
 40
0.3784772156
 40
0.4070032116
 40
0.4378828431
 40
0.471282952
 40
0.507365572
 40
0.54631673
 40
0.588422901
 40
0.6340415207
 40
0.6835060539
 40
0.7371525118
 40
0.7953211261
 40
0.858262072
 40
0.926246367
 40
1.0
 40
1.0
 40
1.0
 40
1.0
 10
-85.342129358
 20
44.4902887631
 30
0.0
 10
-85.3456230302
 20
44.4022725461
 30
0.0
 10
-85.3520648825
 20
44.2240769809
 30
0.0
 10
-85.3597645649
 20
43.9587233225
 30
0.0
 10
-85.3655175764
 20
43.697760844
 30
0.0
 10
-85.3694008117
 20
43.4454394041
 30
0.0
 10
-85.3718767278
 20
43.1996346583
 30
0.0
 10
-85.373489577
 20
42.9570282983
 30
0.0
 10
-85.3747938302
 20
42.7157806221
 30
0.0
 10
-85.376561982
 20
42.4751034535
 30
0.0
 10
-85.3789067843
 20
42.2341990011
 30
0.0
 10
-85.3814773895
 20
41.9918226852
 30
0.0
 10
-85.3842318435
 20
41.7471674655
 30
0.0
 10
-85.3870279909
 20
41.5005376906
 30
0.0
 10
-85.3896936261
 20
41.2527138869
 30
0.0
 10
-85.3923404461
 20
41.0042635245
 30
0.0
 10
-85.395029659
 20
40.7555332301
 30
0.0
 10
-85.3977021149
 20
40.5057216964
 30
0.0
 10
-85.4003107137
 20
40.251155153
 30
0.0
 10
-85.4028862258
 20
39.9851728487
 30
0.0
 10
-85.4054763729
 20
39.6996732297
 30
0.0
 10
-85.4080584397
 20
39.388650426
 30
0.0
 10
-85.4105335125
 20
39.0492297729
 30
0.0
 10
-85.4128484333
 20
38.6809788706
 30
0.0
 10
-85.414994279
 20
38.2833120077
 30
0.0
 10
-85.4169854862
 20
37.8543784904
 30
0.0
 10
-85.418872552
 20
37.3914764216
 30
0.0
 10
-85.4207843894
 20
36.8917889467
 30
0.0
 10
-85.4227598727
 20
36.3522632925
 30
0.0
 10
-85.424683536
 20
35.7693984846
 30
0.0
 10
-85.4265080596
 20
35.1392646885
 30
0.0
 10
-85.4281346754
 20
34.4576018568
 30
0.0
 10
-85.4294396388
 20
33.719764896
 30
0.0
 10
-85.430260885
 20
32.920708713
 30
0.0
 10
-85.4303735371
 20
32.0551961352
 30
0.0
 10
-85.4297381489
 20
31.117890569
 30
0.0
 10
-85.4283443822
 20
30.1033991452
 30
0.0
 10
-85.4262517784
 20
29.0063046639
 30
0.0
 10
-85.4235997307
 20
27.8209784695
 30
0.0
 10
-85.4206531885
 20
26.5404836665
 30
0.0
 10
-85.417753286
 20
25.1557470864
 30
0.0
 10
-85.4154771416
 20
23.6560836945
 30
0.0
 10
-85.4141679051
 20
22.0302681339
 30
0.0
 10
-85.4139301523
 20
20.2672636194
 30
0.0
 10
-85.4150013962
 20
18.356943992
 30
0.0
 10
-85.4169904147
 20
16.289893157
 30
0.0
 10
-85.4191726117
 20
14.0524770994
 30
0.0
 10
-85.4199298491
 20
12.5030897016
 30
0.0
 10
-85.41993403
 20
11.6968626635
 30
0.0
 11
-85.342129358
 21
44.4902887631
 31
0.0
 11
-85.3516776689
 21
44.2262047396
 31
0.0
 11
-85.359534032
 21
43.95564472
 31
0.0
 11
-85.365299051
 21
43.6942493664
 31
0.0
 11
-85.3692079019
 21
43.4433414333
 31
0.0
 11
-85.3717456746
 21
43.1987026186
 31
0.0
 11
-85.3734406565
 21
42.9568496066
 31
0.0
 11
-85.3748733436
 21
42.7155301817
 31
0.0
 11
-85.3766587687
 21
42.474965829
 31
0.0
 11
-85.3789355159
 21
42.2348210491
 31
0.0
 11
-85.3814930413
 21
41.992813877
 31
0.0
 11
-85.3842275306
 21
41.7478355647
 31
0.0
 11
-85.3870005323
 21
41.5008532453
 31
0.0
 11
-85.3896871385
 21
41.2529223961
 31
0.0
 11
-85.3923459194
 21
41.0043655162
 31
0.0
 11
-85.3950252612
 21
40.7555030569
 31
0.0
 11
-85.3976727486
 21
40.506730633
 31
0.0
 11
-85.4002488779
 21
40.2549297288
 31
0.0
 11
-85.4027962201
 21
39.9918029623
 31
0.0
 11
-85.4053590524
 21
39.7087834689
 31
0.0
 11
-85.4079273735
 21
39.3984302464
 31
0.0
 11
-85.4104095577
 21
39.0587338241
 31
0.0
 11
-85.4127358602
 21
38.6905216672
 31
0.0
 11
-85.4148903615
 21
38.2936781446
 31
0.0
 11
-85.4168939731
 21
37.8657338886
 31
0.0
 11
-85.4188040785
 21
37.4037218342
 31
0.0
 11
-85.4207207909
 21
36.9049727579
 31
0.0
 11
-85.4226759648
 21
36.3666716759
 31
0.0
 11
-85.4245938565
 21
35.7851444377
 31
0.0
 11
-85.4264072393
 21
35.156378184
 31
0.0
 11
-85.4280228894
 21
34.4762701221
 31
0.0
 11
-85.4293163072
 21
33.7401558997
 31
0.0
 11
-85.4301236081
 21
32.9428674657
 31
0.0
 11
-85.4302587355
 21
32.0791021449
 31
0.0
 11
-85.4296513779
 21
31.143619097
 31
0.0
 11
-85.4282957152
 21
30.1309514983
 31
0.0
 11
-85.4262497944
 21
29.0356282132
 31
0.0
 11
-85.4236578068
 21
27.8523354243
 31
0.0
 11
-85.4207748841
 21
26.5749720379
 31
0.0
 11
-85.4179610386
 21
25.1941425802
 31
0.0
 11
-85.4157114142
 21
23.6981244908
 31
0.0
 11
-85.4143786202
 21
22.0759821381
 31
0.0
 11
-85.4141325363
 21
20.316696962
 31
0.0
 11
-85.4150947558
 21
18.4091121397
 31
0.0
 11
-85.4169416886
 21
16.3450237717
 31
0.0
 11
-85.4189376553
 21
14.1155435725
 31
0.0
 11
-85.41993403
 21
11.6968626635
 31
0.0
  0
SPLINE
  5
3B0
100
AcDbEntity
  8
RACCORDO
100
AcDbSpline
 62
253
  6
CONTINUOUS
 70
0
 71
3
 72
61
 73
57
 74
55
 42
0.0000001
 43
0.0000001
 44
0.0000000001
 12
0.004406724
 22
-1.9980671539
 32
0.0
 13
-0.9861221194
 23
1.7377729818
 33
0.0
 40
0.0
 40
0.0
 40
0.0
 40
0.0
 40
0.0310158236
 40
0.0616069456
 40
0.0917658292
 40
0.1213998549
 40
0.1496493833
 40
0.1750926719
 40
0.1971111835
 40
0.2162343071
 40
0.233124224
 40
0.2483299275
 40
0.2623734618
 40
0.2757958412
 40
0.2889996456
 40
0.3020712632
 40
0.3149912238
 40
0.3277516957
 40
0.3407671232
 40
0.3546635271
 40
0.3700847452
 40
0.3875198943
 40
0.4067002617
 40
0.4269735672
 40
0.4479180921
 40
0.4694885182
 40
0.4921001094
 40
0.5164346642
 40
0.5427817229
 40
0.5709084341
 40
0.6008009629
 40
0.6326571315
 40
0.6665973576
 40
0.7024332684
 40
0.7395683032
 40
0.7749250291
 40
0.8057431873
 40
0.8315268197
 40
0.8529353142
 40
0.8710189209
 40
0.8862492665
 40
0.8990792857
 40
0.9103764243
 40
0.9209406659
 40
0.9310025377
 40
0.9404292581
 40
0.9490655849
 40
0.9569503587
 40
0.9643625741
 40
0.971600631
 40
0.9786856357
 40
0.9852813702
 40
0.9910635934
 40
0.9957440219
 40
0.9989105916
 40
1.0
 40
1.0
 40
1.0
 40
1.0
 10
-88.7859417752
 20
-22.3031760419
 30
0.0
 10
-88.7858962158
 20
-22.3238332747
 30
0.0
 10
-88.7858116823
 20
-22.3648648935
 30
0.0
 10
-88.7857157059
 20
-22.4259830661
 30
0.0
 10
-88.7856560107
 20
-22.4861809748
 30
0.0
 10
-88.7856330575
 20
-22.5448193497
 30
0.0
 10
-88.785630421
 20
-22.6003170274
 30
0.0
 10
-88.7856344902
 20
-22.6507425896
 30
0.0
 10
-88.7856428951
 20
-22.6950897465
 30
0.0
 10
-88.7856560552
 20
-22.7337401512
 30
0.0
 10
-88.785675742
 20
-22.7678530589
 30
0.0
 10
-88.7857026384
 20
-22.7985828322
 30
0.0
 10
-88.785735859
 20
-22.8270031345
 30
0.0
 10
-88.785774774
 20
-22.8540901154
 30
0.0
 10
-88.785818685
 20
-22.8805297677
 30
0.0
 10
-88.7858662735
 20
-22.90663479
 30
0.0
 10
-88.7859154099
 20
-22.9324445388
 30
0.0
 10
-88.7859636507
 20
-22.9582168653
 30
0.0
 10
-88.7860101537
 20
-22.9846395307
 30
0.0
 10
-88.7860613382
 20
-23.0128343115
 30
0.0
 10
-88.7861226945
 20
-23.0439727192
 30
0.0
 10
-88.7862008445
 20
-23.0786303461
 30
0.0
 10
-88.7863002539
 20
-23.1165195377
 30
0.0
 10
-88.7864207037
 20
-23.1567460075
 30
0.0
 10
-88.7865540536
 20
-23.1985642809
 30
0.0
 10
-88.7866908773
 20
-23.2419399055
 30
0.0
 10
-88.786828607
 20
-23.2875733796
 30
0.0
 10
-88.7869687011
 20
-23.3363882122
 30
0.0
 10
-88.7871276484
 20
-23.3888762087
 30
0.0
 10
-88.7873229475
 20
-23.4450658503
 30
0.0
 10
-88.7875263301
 20
-23.5049246842
 30
0.0
 10
-88.7877104834
 20
-23.5686555454
 30
0.0
 10
-88.787844599
 20
-23.6363449722
 30
0.0
 10
-88.7879419308
 20
-23.7075503276
 30
0.0
 10
-88.7879370868
 20
-23.779699174
 30
0.0
 10
-88.7878927048
 20
-23.848506046
 30
0.0
 10
-88.7878168117
 20
-23.909752584
 30
0.0
 10
-88.78771521
 20
-23.9617092102
 30
0.0
 10
-88.7876125897
 20
-24.0051842947
 30
0.0
 10
-88.7875224428
 20
-24.0416306468
 30
0.0
 10
-88.7874351537
 20
-24.072363516
 30
0.0
 10
-88.7873516515
 20
-24.0985764265
 30
0.0
 10
-88.7872704621
 20
-24.1216815858
 30
0.0
 10
-88.7871944411
 20
-24.1429431119
 30
0.0
 10
-88.7871278483
 20
-24.1629588761
 30
0.0
 10
-88.7870710379
 20
-24.1816907763
 30
0.0
 10
-88.7870205513
 20
-24.198972196
 30
0.0
 10
-88.7869681945
 20
-24.2149135182
 30
0.0
 10
-88.7869240984
 20
-24.2299180744
 30
0.0
 10
-88.7868874737
 20
-24.2444094853
 30
0.0
 10
-88.7868797593
 20
-24.2582877246
 30
0.0
 10
-88.7868478378
 20
-24.2714309324
 30
0.0
 10
-88.7869642723
 20
-24.2822431752
 30
0.0
 10
-88.7867505939
 20
-24.2927855006
 30
0.0
 10
-88.787334688
 20
-24.2958023862
 30
0.0
 10
-88.7868522802
 20
-24.3018676517
 30
0.0
 10
-88.7872103768
 20
-24.3012366035
 30
0.0
 11
-88.7859417752
 21
-22.3031760419
 31
0.0
 11
-88.785816194
 21
-22.3651477638
 31
0.0
 11
-88.785721191
 21
-22.4262709546
 31
0.0
 11
-88.785661745
 21
-22.4865305466
 31
0.0
 11
-88.7856361718
 21
-22.5457414586
 31
0.0
 11
-88.7856316013
 21
-22.6021860504
 31
0.0
 11
-88.7856356629
 21
-22.653023573
 31
0.0
 11
-88.7856444455
 21
-22.6970181441
 31
0.0
 11
-88.7856581619
 21
-22.7352275197
 31
0.0
 11
-88.7856781543
 21
-22.768974784
 31
0.0
 11
-88.7857048619
 21
-22.7993568628
 31
0.0
 11
-88.7857376231
 21
-22.8274168366
 31
0.0
 11
-88.7857759932
 21
-22.8542356898
 31
0.0
 11
-88.7858195478
 21
-22.880617806
 31
0.0
 11
-88.7858668115
 21
-22.9067357964
 31
0.0
 11
-88.7859154736
 21
-22.9325507622
 31
0.0
 11
-88.7859628623
 21
-22.9580470599
 31
0.0
 11
-88.7860093534
 21
-22.9840527798
 31
0.0
 11
-88.7860601747
 21
-23.011818749
 31
0.0
 11
-88.7861214229
 21
-23.0426313925
 31
0.0
 11
-88.7862002625
 21
-23.0774679868
 31
0.0
 11
-88.7863006456
 21
-23.1157916107
 31
0.0
 11
-88.7864206569
 21
-23.1562989572
 31
0.0
 11
-88.7865524879
 21
-23.1981474186
 31
0.0
 11
-88.7866877345
 21
-23.2412464709
 31
0.0
 11
-88.7868240681
 21
-23.2864258529
 31
0.0
 11
-88.7869660866
 21
-23.3350478383
 31
0.0
 11
-88.7871278566
 21
-23.3876909105
 31
0.0
 11
-88.7873181514
 21
-23.4438897827
 31
0.0
 11
-88.7875169889
 21
-23.503616877
 31
0.0
 11
-88.7876971431
 21
-23.567267541
 31
0.0
 11
-88.7878353416
 21
-23.6350824159
 31
0.0
 11
-88.787923939
 21
-23.7066850917
 31
0.0
 11
-88.7879296856
 21
-23.7808835651
 31
0.0
 11
-88.78788328
 21
-23.8515288344
 31
0.0
 11
-88.7878046508
 21
-23.9131056837
 31
0.0
 11
-88.7877057126
 21
-23.9646231429
 31
0.0
 11
-88.7876064894
 21
-24.0073987415
 31
0.0
 11
-88.7875153442
 21
-24.0435309751
 31
0.0
 11
-88.7874287121
 21
-24.073962179
 31
0.0
 11
-88.7873469072
 21
-24.0995973509
 31
0.0
 11
-88.7872685073
 21
-24.1221697111
 31
0.0
 11
-88.7871941403
 21
-24.1432776956
 31
0.0
 11
-88.7871274587
 21
-24.1633819295
 31
0.0
 11
-88.7870698066
 21
-24.1822171074
 31
0.0
 11
-88.7870179969
 21
-24.1994730326
 31
0.0
 11
-88.7869680989
 21
-24.2152272994
 31
0.0
 11
-88.7869247767
 21
-24.2300373761
 31
0.0
 11
-88.7868920303
 21
-24.2444994981
 31
0.0
 11
-88.7868749141
 21
-24.2586558374
 31
0.0
 11
-88.7868762574
 21
-24.2718345897
 31
0.0
 11
-88.786899881
 21
-24.2833878639
 31
0.0
 11
-88.7869530961
 21
-24.2927395456
 31
0.0
 11
-88.7870494109
 21
-24.2990658468
 31
0.0
 11
-88.7872103768
 21
-24.3012366035
 31
0.0
  0
SPLINE
  5
3B1
100
AcDbEntity
  8
RACCORDO
100
AcDbSpline
 62
253
  6
CONTINUOUS
 70
0
 71
3
 72
14
 73
10
 74
8
 42
0.0000001
 43
0.0000001
 44
0.0000000001
 12
0.0006181135
 22
-10.5000390953
 32
0.0
 13
0.0124470431
 23
-10.5000317359
 33
0.0
 40
0.0
 40
0.0
 40
0.0
 40
0.0
 40
0.181676216
 40
0.3481944062
 40
0.5012086627
 40
0.6421236331
 40
0.7721508694
 40
0.8919109885
 40
1.0
 40
1.0
 40
1.0
 40
1.0
 10
-88.7882572006
 20
-11.8031373454
 30
0.0
 10
-88.7882197685
 20
-12.4390064691
 30
0.0
 10
-88.7880315252
 20
-13.6576914212
 30
0.0
 10
-88.7876070844
 20
-15.4119282232
 30
0.0
 10
-88.7872677952
 20
-17.0235001513
 30
0.0
 10
-88.7870504672
 20
-18.5073532847
 30
0.0
 10
-88.7870015845
 20
-19.8748165253
 30
0.0
 10
-88.786845977
 20
-21.1273884478
 30
0.0
 10
-88.7863901779
 20
-21.9248633582
 30
0.0
 10
-88.7859417151
 20
-22.3031760419
 30
0.0
 11
-88.7882572006
 21
-11.8031373454
 31
0.0
 11
-88.7879943041
 21
-13.7107447016
 31
0.0
 11
-88.7876051914
 21
-15.4591921683
 31
0.0
 11
-88.7872767426
 21
-17.0658478126
 31
0.0
 11
-88.7870732856
 21
-18.5454604993
 31
0.0
 11
-88.7869793381
 21
-19.9107515633
 31
0.0
 11
-88.7867423498
 21
-21.1682374757
 31
0.0
 11
-88.7859417151
 21
-22.3031760419
 31
0.0
  0
SPLINE
  5
3B2
100
AcDbEntity
  8
RACCORDO
100
AcDbSpline
 62
253
  6
CONTINUOUS
 70
0
 71
3
 72
9
 73
5
 74
3
 42
0.0000001
 43
0.0000001
 44
0.0000000001
 12
0.0019095139
 22
-0.000780092
 32
0.0
 13
0.0022387593
 23
0.0027448959
 33
0.0
 40
0.0
 40
0.0
 40
0.0
 40
0.0
 40
0.4885042915
 40
1.0
 40
1.0
 40
1.0
 40
1.0
 10
-88.1967005168
 20
25.8701223751
 30
0.0
 10
-88.1963895816
 20
25.8699953491
 30
0.0
 10
-88.1946306038
 20
25.870856508
 30
0.0
 10
-88.1941578151
 20
25.8717265723
 30
0.0
 10
-88.1937761098
 20
25.8721945731
 30
0.0
 11
-88.1967005168
 21
25.8701223751
 31
0.0
 11
-88.1949779768
 21
25.8708388339
 31
0.0
 11
-88.1937761098
 21
25.8721945731
 31
0.0
  0
SPLINE
  5
3B3
100
AcDbEntity
  8
RACCORDO
100
AcDbSpline
 62
253
  6
CONTINUOUS
 70
0
 71
3
 72
11
 73
7
 74
5
 42
0.0000001
 43
0.0000001
 44
0.0000000001
 12
0.597570099
 22
0.0075363587
 32
0.0
 13
0.5915216459
 23
0.0851408383
 33
0.0
 40
0.0
 40
0.0
 40
0.0
 40
0.0
 40
0.4053761404
 40
0.7113439452
 40
0.9110329938
 40
1.0
 40
1.0
 40
1.0
 40
1.0
 10
-88.78594172
 20
-22.3032014391
 30
0.0
 10
-88.7051948332
 20
-22.3021830858
 30
0.0
 10
-88.5635362698
 20
-22.3000114388
 30
0.0
 10
-88.3819758947
 20
-22.2976227791
 30
0.0
 10
-88.2637566247
 20
-22.2933293461
 30
0.0
 10
-88.2060428795
 20
-22.2929209107
 30
0.0
 10
-88.1885009095
 20
-22.2903960022
 30
0.0
 11
-88.78594172
 21
-22.3032014391
 31
0.0
 11
-88.5437055704
 21
-22.2998075134
 31
0.0
 11
-88.3608838664
 21
-22.2964927683
 31
0.0
 11
-88.2415880411
 21
-22.2933318688
 31
0.0
 11
-88.1885009095
 21
-22.2903960022
 31
0.0
  0
SPLINE
  5
3B4
100
AcDbEntity
  8
RACCORDO
100
AcDbSpline
 62
253
  6
CONTINUOUS
 70
0
 71
3
 72
14
 73
10
 74
8
 42
0.0000001
 43
0.0000001
 44
0.0000000001
 12
-0.0475824178
 22
-10.4871610206
 32
0.0
 13
-0.0007775643
 23
-10.4872689368
 33
0.0
 40
0.0
 40
0.0
 40
0.0
 40
0.0
 40
0.1086923287
 40
0.2296642112
 40
0.3611826401
 40
0.5031545579
 40
0.6563875892
 40
0.8214131152
 40
1.0
 40
1.0
 40
1.0
 40
1.0
 10
-88.1884810608
 20
22.1841255506
 30
0.0
 10
-88.1902050088
 20
21.8041675662
 30
0.0
 10
-88.1922621058
 20
21.0013185316
 30
0.0
 10
-88.1926757103
 20
19.7387119943
 30
0.0
 10
-88.1925902291
 20
18.3597681659
 30
0.0
 10
-88.1931465883
 20
16.8680472842
 30
0.0
 10
-88.1940615342
 20
15.2591939414
 30
0.0
 10
-88.1954406002
 20
13.522343908
 30
0.0
 10
-88.1960591924
 20
12.3211587229
 30
0.0
 10
-88.19610548
 20
11.696862493
 30
0.0
 11
-88.1884810608
 21
22.1841255506
 31
0.0
 11
-88.191750274
 21
21.0442445528
 31
0.0
 11
-88.1925847014
 21
19.7755801588
 31
0.0
 11
-88.1926886593
 21
18.3963110247
 31
0.0
 11
-88.1931786235
 21
16.907413418
 31
0.0
 11
-88.1940961998
 21
15.3004176663
 31
0.0
 11
-88.1953256536
 21
13.5697510254
 31
0.0
 11
-88.19610548
 21
11.696862493
 31
0.0
  0
SPLINE
  5
3B5
100
AcDbEntity
  8
RACCORDO
100
AcDbSpline
 62
253
  6
CONTINUOUS
 70
0
 71
3
 72
71
 73
67
 74
65
 42
0.0000001
 43
0.0000001
 44
0.0000000001
 12
2.4347241872
 22
2.7703227951
 32
0.0
 13
-0.0167536226
 23
-3.6881281937
 33
0.0
 40
0.0
 40
0.0
 40
0.0
 40
0.0
 40
0.0017630301
 40
0.0068857467
 40
0.014450487
 40
0.0237057892
 40
0.0340090907
 40
0.0449027929
 40
0.0561102065
 40
0.0674737972
 40
0.0788584576
 40
0.0900342488
 40
0.1009028724
 40
0.1120298286
 40
0.1241213195
 40
0.1368251266
 40
0.1499591411
 40
0.1635798212
 40
0.1781088352
 40
0.1943033522
 40
0.2129543463
 40
0.2343498115
 40
0.2572609079
 40
0.2796414184
 40
0.3004214382
 40
0.3200629737
 40
0.3392460571
 40
0.3586156766
 40
0.3785392944
 40
0.3987430693
 40
0.4175395339
 40
0.4360813649
 40
0.4558190883
 40
0.4758131511
 40
0.4959907069
 40
0.5164529261
 40
0.5369674008
 40
0.5571460087
 40
0.5761447322
 40
0.5929791081
 40
0.6076024257
 40
0.6208320429
 40
0.6335652189
 40
0.6464958241
 40
0.6596088644
 40
0.6727272032
 40
0.6857789009
 40
0.6991178727
 40
0.7137573836
 40
0.730528087
 40
0.7489467126
 40
0.7680685494
 40
0.7867667841
 40
0.804078612
 40
0.8201037887
 40
0.835359829
 40
0.8504118071
 40
0.8655502339
 40
0.8807239565
 40
0.8958335585
 40
0.9108477259
 40
0.926048224
 40
0.9419715042
 40
0.9592105799
 40
0.9783604094
 40
1.0
 40
1.0
 40
1.0
 40
1.0
 10
-88.1937761098
 20
25.8721945731
 30
0.0
 10
-88.1923452791
 20
25.8738226273
 30
0.0
 10
-88.1937854898
 20
25.8564138816
 30
0.0
 10
-88.1917662321
 20
25.8467759922
 30
0.0
 10
-88.1924788457
 20
25.8157570429
 30
0.0
 10
-88.1921845094
 20
25.7839046879
 30
0.0
 10
-88.1924130909
 20
25.7459906065
 30
0.0
 10
-88.192578316
 20
25.7062936445
 30
0.0
 10
-88.1928209507
 20
25.6651137491
 30
0.0
 10
-88.1930741093
 20
25.6233806311
 30
0.0
 10
-88.1933380668
 20
25.5816727212
 30
0.0
 10
-88.1935987082
 20
25.5405769803
 30
0.0
 10
-88.1938533608
 20
25.4997970668
 30
0.0
 10
-88.1941072543
 20
25.4578916291
 30
0.0
 10
-88.1943614348
 20
25.4137299284
 30
0.0
 10
-88.1946121237
 20
25.3671007356
 30
0.0
 10
-88.194852071
 20
25.3185914883
 30
0.0
 10
-88.1950828615
 20
25.2678382851
 30
0.0
 10
-88.1953067645
 20
25.2133224687
 30
0.0
 10
-88.1955266665
 20
25.1526223787
 30
0.0
 10
-88.1957367867
 20
25.0834806697
 30
0.0
 10
-88.1959151531
 20
25.0060815555
 30
0.0
 10
-88.1960277781
 20
24.9240972829
 30
0.0
 10
-88.1960607885
 20
24.8428695646
 30
0.0
 10
-88.1960206183
 20
24.7656614052
 30
0.0
 10
-88.1958760549
 20
24.6923842418
 30
0.0
 10
-88.1956151881
 20
24.6208413492
 30
0.0
 10
-88.1952653687
 20
24.5489520568
 30
0.0
 10
-88.1948380434
 20
24.4758083382
 30
0.0
 10
-88.1943609935
 20
24.4033695776
 30
0.0
 10
-88.1938636859
 20
24.3326297507
 30
0.0
 10
-88.193357275
 20
24.2624629627
 30
0.0
 10
-88.1928426345
 20
24.1908238816
 30
0.0
 10
-88.192333766
 20
24.1171737673
 30
0.0
 10
-88.1918408091
 20
24.0426328382
 30
0.0
 10
-88.1913657682
 20
23.9674519914
 30
0.0
 10
-88.1909118014
 20
23.8922697212
 30
0.0
 10
-88.190487059
 20
23.8188865149
 30
0.0
 10
-88.1901028885
 20
23.7500274233
 30
0.0
 10
-88.1897697796
 20
23.6879977659
 30
0.0
 10
-88.1894861642
 20
23.6330604206
 30
0.0
 10
-88.1892389323
 20
23.5831649248
 30
0.0
 10
-88.1890123487
 20
23.5353503549
 30
0.0
 10
-88.1887977691
 20
23.4876790493
 30
0.0
 10
-88.1885939791
 20
23.4395341771
 30
0.0
 10
-88.1884031444
 20
23.3912403809
 30
0.0
 10
-88.188224193
 20
23.3426687798
 30
0.0
 10
-88.1880518432
 20
23.2922270315
 30
0.0
 10
-88.1878792474
 20
23.2372131555
 30
0.0
 10
-88.1877063775
 20
23.1759543832
 30
0.0
 10
-88.1875421203
 20
23.1091850473
 30
0.0
 10
-88.1874000142
 20
23.0400459697
 30
0.0
 10
-88.1872905969
 20
22.9722675188
 30
0.0
 10
-88.1872162236
 20
22.9082960222
 30
0.0
 10
-88.1871730176
 20
22.8485562934
 30
0.0
 10
-88.1871559888
 20
22.7915947856
 30
0.0
 10
-88.1871626507
 20
22.735723436
 30
0.0
 10
-88.1871926273
 20
22.6799532945
 30
0.0
 10
-88.1872460516
 20
22.6241123283
 30
0.0
 10
-88.1873219663
 20
22.5684241515
 30
0.0
 10
-88.1874203713
 20
22.5127030924
 30
0.0
 10
-88.187543464
 20
22.455981753
 30
0.0
 10
-88.187697765
 20
22.3965252028
 30
0.0
 10
-88.1878943648
 20
22.3322134886
 30
0.0
 10
-88.1881498755
 20
22.260874363
 30
0.0
 10
-88.1883602137
 20
22.2107287454
 30
0.0
 10
-88.1884810608
 20
22.1841255506
 30
0.0
 11
-88.1937761098
 21
25.8721945731
 31
0.0
 11
-88.1929252902
 21
25.8657481294
 31
0.0
 11
-88.1924636685
 21
25.8468603392
 31
0.0
 11
-88.1922765327
 21
25.8189609469
 31
0.0
 11
-88.1922762843
 21
25.7848258539
 31
0.0
 11
-88.1923966028
 21
25.7468257556
 31
0.0
 11
-88.1925882696
 21
25.706648428
 31
0.0
 11
-88.1928209597
 21
25.6653142783
 31
0.0
 11
-88.1930757987
 21
25.6234042414
 31
0.0
 11
-88.193339784
 21
25.5814165512
 31
0.0
 11
-88.1936004234
 21
25.5401991994
 31
0.0
 11
-88.1938501505
 21
25.5001146863
 31
0.0
 11
-88.1940980836
 21
25.4590773713
 31
0.0
 11
-88.1943543516
 21
25.4144826788
 31
0.0
 11
-88.19460598
 21
25.367629602
 31
0.0
 11
-88.1948459481
 21
25.3191897675
 31
0.0
 11
-88.1950742171
 21
25.2689549534
 31
0.0
 11
-88.1952942638
 21
25.2153699863
 31
0.0
 11
-88.1955103243
 21
25.1556423061
 31
0.0
 11
-88.1957186898
 21
25.0868546548
 31
0.0
 11
-88.1958990369
 21
25.0079448283
 31
0.0
 11
-88.1960148912
 21
24.9234449753
 31
0.0
 11
-88.1960483669
 21
24.8409019387
 31
0.0
 11
-88.1960008136
 21
24.764261786
 31
0.0
 11
-88.1958545
 21
24.6918206853
 31
0.0
 11
-88.1956017109
 21
24.6210707364
 31
0.0
 11
-88.1952572244
 21
24.5496331901
 31
0.0
 11
-88.1948310166
 21
24.4761528114
 31
0.0
 11
-88.1943438803
 21
24.4016395231
 31
0.0
 11
-88.1938593083
 21
24.3323167303
 31
0.0
 11
-88.193368255
 21
24.2639331385
 31
0.0
 11
-88.1928482073
 21
24.1911389909
 31
0.0
 11
-88.192338946
 21
24.1173993215
 31
0.0
 11
-88.1918467515
 21
24.042982769
 31
0.0
 11
-88.1913696967
 21
23.9675162108
 31
0.0
 11
-88.1909124893
 21
23.891856799
 31
0.0
 11
-88.1904813328
 21
23.8174359874
 31
0.0
 11
-88.1900906309
 21
23.7473666261
 31
0.0
 11
-88.1897574819
 21
23.6852795427
 31
0.0
 11
-88.1894792776
 21
23.631347034
 31
0.0
 11
-88.1892376999
 21
23.5825546044
 31
0.0
 11
-88.189015344
 21
23.5355930608
 31
0.0
 11
-88.1888008968
 21
23.4879033215
 31
0.0
 11
-88.1885962737
 21
23.4395406816
 31
0.0
 11
-88.1884049812
 21
23.3911584455
 31
0.0
 11
-88.1882276167
 21
23.3430219415
 31
0.0
 11
-88.1880594914
 21
23.293825883
 31
0.0
 11
-88.1878901125
 21
23.2398331989
 31
0.0
 11
-88.1877156505
 21
23.1779803026
 31
0.0
 11
-88.1875487432
 21
23.1100495546
 31
0.0
 11
-88.1874041858
 21
23.0395251895
 31
0.0
 11
-88.1872932374
 21
22.9705630806
 31
0.0
 11
-88.1872192405
 21
22.9067142241
 31
0.0
 11
-88.187176616
 21
22.8476107239
 31
0.0
 11
-88.1871598619
 21
22.7913439136
 31
0.0
 11
-88.1871664969
 21
22.7358297163
 31
0.0
 11
-88.1871965005
 21
22.6799966897
 31
0.0
 11
-88.1872499265
 21
22.6240335035
 31
0.0
 11
-88.1873258794
 21
22.5683068312
 31
0.0
 11
-88.1874236732
 21
22.5129321721
 31
0.0
 11
-88.187545415
 21
22.4568703404
 31
0.0
 11
-88.1876979076
 21
22.3981428337
 31
0.0
 11
-88.1878924514
 21
22.3345625543
 31
0.0
 11
-88.1881456869
 21
22.2639352537
 31
0.0
 11
-88.1884810608
 21
22.1841255506
 31
0.0
  0
SPLINE
  5
3B6
100
AcDbEntity
  8
RACCORDO
100
AcDbSpline
 62
253
  6
CONTINUOUS
 70
0
 71
3
 72
14
 73
10
 74
8
 42
0.0000001
 43
0.0000001
 44
0.0000000001
 12
-0.012358483
 22
-10.5000836162
 32
0.0
 13
-0.0006188999
 23
-10.5000908708
 33
0.0
 40
0.0
 40
0.0
 40
0.0
 40
0.0
 40
0.1093673048
 40
0.2305846129
 40
0.3619114496
 40
0.503644063
 40
0.6566261849
 40
0.8214652729
 40
1.0
 40
1.0
 40
1.0
 40
1.0
 10
-88.7859391057
 20
22.1969531121
 30
0.0
 10
-88.7863896437
 20
21.8141644972
 30
0.0
 10
-88.7868730166
 20
21.0071113992
 30
0.0
 10
-88.7869982572
 20
19.7404103782
 30
0.0
 10
-88.7870538396
 20
18.3604297752
 30
0.0
 10
-88.787293707
 20
16.8692713837
 30
0.0
 10
-88.7876140172
 20
15.2608191109
 30
0.0
 10
-88.7880355032
 20
13.5235583453
 30
0.0
 10
-88.7882203689
 20
12.3217395986
 30
0.0
 10
-88.7882572006
 20
11.6968626457
 30
0.0
 11
-88.7859391057
 21
22.1969531121
 31
0.0
 11
-88.7867573846
 21
21.0485867634
 31
0.0
 11
-88.7869828267
 21
19.7757940303
 31
0.0
 11
-88.7870790292
 21
18.3968503128
 31
0.0
 11
-88.7872965062
 21
16.9086450051
 31
0.0
 11
-88.7876169574
 21
15.3023188534
 31
0.0
 11
-88.7879992807
 21
13.5714934898
 31
0.0
 11
-88.7882572006
 21
11.6968626457
 31
0.0
  0
ELLIPSE
  5
3B7
100
AcDbEntity
  8
RACCORDO
100
AcDbEllipse
 62
7
  6
CONTINUOUS
 10
89.1947027502
 20
4.1486558826
 30
0.0
 11
0.0
 21
0.5
 31
0.0
 40
0.0524077793
 41
-3.0106929597
 42
-1.5707963268
  0
ELLIPSE
  5
3B8
100
AcDbEntity
  8
RACCORDO
100
AcDbEllipse
 62
7
  6
CONTINUOUS
 10
89.1947027502
 20
-4.2549305707
 30
0.0
 11
-0.0
 21
0.5
 31
0.0
 40
0.0524077793
 41
-1.5707963268
 42
-0.1308996939
  0
ELLIPSE
  5
3B9
100
AcDbEntity
  8
RACCORDO
100
AcDbEllipse
 62
7
  6
CONTINUOUS
 10
-65.7528894705
 20
4.1486558826
 30
0.0
 11
0.0
 21
0.5
 31
0.0
 40
0.0524077793
 41
-4.7123889804
 42
-3.2724923475
  0
ELLIPSE
  5
3BA
100
AcDbEntity
  8
RACCORDO
100
AcDbEllipse
 62
7
  6
CONTINUOUS
 10
-65.7528894705
 20
-4.2549305707
 30
0.0
 11
-0.0
 21
0.5
 31
0.0
 40
0.0524077793
 41
0.1308996939
 42
1.5707963268
  0
ELLIPSE
  5
3BB
100
AcDbEntity
  8
RACCORDO
100
AcDbEllipse
 62
7
  6
CONTINUOUS
 10
-65.7004816913
 20
-3.1146491126
 30
0.0
 11
-0.0
 21
0.5
 31
0.0
 40
0.0524077793
 41
-3.0106929597
 42
-1.5707963268
  0
ELLIPSE
  5
3BC
100
AcDbEntity
  8
RACCORDO
100
AcDbEllipse
 62
7
  6
CONTINUOUS
 10
-65.7004816913
 20
3.0083744244
 30
0.0
 11
-0.0
 21
0.5
 31
0.0
 40
0.0524077793
 41
-1.5707963268
 42
-0.1308996939
  0
ELLIPSE
  5
3BD
100
AcDbEntity
  8
RACCORDO
100
AcDbEllipse
 62
7
  6
CONTINUOUS
 10
89.1422949709
 20
-3.1146491126
 30
0.0
 11
-0.0
 21
0.5
 31
0.0
 40
0.0524077793
 41
-4.7123889804
 42
-3.2724923475
  0
ELLIPSE
  5
3BE
100
AcDbEntity
  8
RACCORDO
100
AcDbEllipse
 62
7
  6
CONTINUOUS
 10
89.1422949709
 20
3.0083744244
 30
0.0
 11
-0.0
 21
0.5
 31
0.0
 40
0.0524077793
 41
0.1308996939
 42
1.5707963268
  0
ENDSEC
  0
SECTION
  2
OBJECTS
  0
DICTIONARY
  5
C
100
AcDbDictionary
280
0
281
1
  3
ACAD_GROUP
350
D
  3
ACAD_MLINESTYLE
350
17
  3
ACAD_LAYOUT
350
1A
  3
ACAD_PLOTSETTINGS
350
19
  3
ACAD_PLOTSTYLENAME
350
E
  0
DICTIONARY
  5
D
102
{ACAD_REACTORS
330
C
102
}
100
AcDbDictionary
280
0
281
1
  0
ACDBDICTIONARYWDFLT
  5
E
102
{ACAD_REACTORS
330
C
102
}
100
AcDbDictionary
281
1
  3
Normal
350
F
100
AcDbDictionaryWithDefault
340
F
  0
DICTIONARY
  5
17
102
{ACAD_REACTORS
330
C
102
}
100
AcDbDictionary
280
0
281
1
  3
Standard
350
18
  0
DICTIONARY
  5
19
102
{ACAD_REACTORS
330
C
102
}
100
AcDbDictionary
281
1
  0
DICTIONARY
  5
1A
102
{ACAD_REACTORS
330
C
102
}
100
AcDbDictionary
281
1
  3
Model
350
3BF
  3
Layout1
350
3C0
  0
ACDBPLACEHOLDER
  5
F
102
{ACAD_REACTORS
330
E
102
}
  0
MLINESTYLE
  5
18
102
{ACAD_REACTORS
330
17
102
}
100
AcDbMlineStyle
  2
STANDARD
 70
0
  3

 62
256
 51
90.0
 52
90.0
 71
2
 49
0.5
 62
256
  6
BYLAYER
 49
-0.5
 62
256
  6
BYLAYER
  0
LAYOUT
  5
3BF
102
{ACAD_REACTORS
330
1A
102
}
100
AcDbPlotSettings
  1

  2
none_device
  4
ISO_A4_(297.00_x_210.00_MM)
  6

 40
0.0
 41
0.0
 42
0.0
 43
0.0
 44
297.0
 45
210.0
 46
0.0
 47
0.0
 48
0.0
 49
0.0
140
0.0
141
0.0
142
1.0
143
1.0
 70
1024
 72
1
 73
0
 74
0
  7

 75
0
147
1.0
148
0.0
149
0.0
100
AcDbLayout
  1
Model
 70
0
 71
0
 10
0.0
 20
0.0
 11
297.0
 21
210.0
 12
0.0
 22
0.0
 32
0.0
 14
0.0
 24
0.0
 34
0.0
 15
0.0
 25
0.0
 35
0.0
146
0.0
 13
0.0
 23
0.0
 33
0.0
 16
1.0
 26
0.0
 36
0.0
 17
0.0
 27
1.0
 37
0.0
 76
0
330
20D
345
0
346
0
  0
LAYOUT
  5
3C0
102
{ACAD_REACTORS
330
1A
102
}
100
AcDbPlotSettings
  1

  2
none_device
  4
ISO_A4_(297.00_x_210.00_MM)
  6

 40
0.0
 41
0.0
 42
0.0
 43
0.0
 44
297.0
 45
210.0
 46
0.0
 47
0.0
 48
0.0
 49
0.0
140
0.0
141
0.0
142
1.0
143
1.0
 70
0
 72
1
 73
0
 74
0
  7

 75
0
147
1.0
148
0.0
149
0.0
100
AcDbLayout
  1
Layout1
 70
0
 71
1
 10
0.0
 20
0.0
 11
297.0
 21
210.0
 12
0.0
 22
0.0
 32
0.0
 14
0.0
 24
0.0
 34
0.0
 15
0.0
 25
0.0
 35
0.0
146
0.0
 13
0.0
 23
0.0
 33
0.0
 16
1.0
 26
0.0
 36
0.0
 17
0.0
 27
1.0
 37
0.0
 76
0
330
20E
345
0
346
0
  0
ENDSEC
  0
EOF
