  0
SECTION
  2
HEADER
  9
$ACADVER
  1
AC1024
  9
$DWGCODEPAGE
  3
ANSI_1252
  9
$EXTMAX
 10
297.0
 20
210.0
 30
0.0
  9
$EXTMIN
 10
0.0
 20
0.0
 30
0.0
  9
$LIMMIN
 10
0.0
 20
0.0
  9
$LIMMAX
 10
297.0
 20
210.0
  9
$VIEWCTR
 10
148.5
 20
105.0
  9
$VIEWSIZE
 40
210.0
  9
$CLAYER
  8
0
  9
$LTSCALE
 40
16.335
  9
$CELTYPE
  6
BYLAYER
  9
$DIMSCALE
 40
1.0
  9
$DIMASZ
 40
3.0
  9
$DIMEXO
 40
0.5
  9
$DIMDLI
 40
11.286
  9
$DIMEXE
 40
1.5
  9
$DIMCEN
 40
2.673
  9
$DIMLFAC
 40
1.0
  9
$DIMBLK
  1
_FILLED
  9
$DIMALT
 70
0
  9
$DIMALTF
 40
0.0393700787
  9
$DIMTXT
 40
3.0
  9
$DIMTOL
 70
1
  9
$DIMLIM
 70
0
  9
$DIMTFAC
 40
1.0
  9
$DIMTP
 40
0.01
  9
$DIMTM
 40
0.01
  9
$DIMGAP
 40
0.625
  9
$DIMDSEP
 70
44
  9
$AUNITS
 70
0
  9
$PDMODE
 70
3
  9
$PDSIZE
 40
3.0
  9
$HANDSEED
  5
3D7
  9
$TILEMODE
 70
1
  9
$MEASUREMENT
 70
1
  9
$INSUNITS
 70
4
  0
ENDSEC
  0
SECTION
  2
CLASSES
  0
CLASS
  1
ACDBDICTIONARYWDFLT
  2
AcDbDictionaryWithDefault
  3
AutoCAD 2000
 90
0
 91
1
280
0
281
0
  0
CLASS
  1
ACDBPLACEHOLDER
  2
AcDbPlaceHolder
  3
AutoCAD 2000
 90
0
 91
1
280
0
281
0
  0
CLASS
  1
LAYOUT
  2
AcDbLayout
  3
AutoCAD 2000
 90
0
 91
0
280
0
281
0
  0
ENDSEC
  0
SECTION
  2
TABLES
  0
TABLE
  2
VPORT
  5
8
100
AcDbSymbolTable
 70
2
  0
VPORT
  5
1F4
100
AcDbSymbolTableRecord
100
AcDbViewportTableRecord
  2
*ACTIVE
 70
0
 10
0.0
 20
0.0
 11
1.0
 21
1.0
 12
148.5
 22
105.0
 13
0.0
 23
0.0
 14
1.0
 24
1.0
 15
0.0
 25
0.0
 16
0.0
 26
0.0
 36
1.0
 17
0.0
 27
0.0
 37
0.0
 40
210.0
 41
1.4142857143
 42
50.0
 43
0.0
 44
0.0
 50
0.0
 51
0.0
 71
0
 72
100
 73
1
 74
1
 75
0
 76
0
 77
0
 78
0
  0
ENDTAB
  0
TABLE
  2
LTYPE
  5
5
100
AcDbSymbolTable
 70
6
  0
LTYPE
  5
14
100
AcDbSymbolTableRecord
100
AcDbLinetypeTableRecord
  2
BYBLOCK
 70
0
  3

 72
65
 73
0
 40
0.0
  0
LTYPE
  5
15
100
AcDbSymbolTableRecord
100
AcDbLinetypeTableRecord
  2
BYLAYER
 70
0
  3

 72
65
 73
0
 40
0.0
  0
LTYPE
  5
16
100
AcDbSymbolTableRecord
100
AcDbLinetypeTableRecord
  2
CONTINUOUS
 70
64
  3
Solid line
 72
65
 73
0
 40
0.0
  0
LTYPE
  5
1F5
100
AcDbSymbolTableRecord
100
AcDbLinetypeTableRecord
  2
CENTER
 70
64
  3
____ _ ____ _ ____ _ ____ _ ____ _ ____ _ ____
 72
65
 73
4
 40
0.6
 49
0.375
 74
0
 49
-0.075
 74
0
 49
0.075
 74
0
 49
-0.075
 74
0
  0
LTYPE
  5
1F6
100
AcDbSymbolTableRecord
100
AcDbLinetypeTableRecord
  2
HIDDEN
 70
64
  3
- - - - - - - - - - - - - - - - - - - -
 72
65
 73
2
 40
0.2
 49
0.1
 74
0
 49
-0.1
 74
0
  0
LTYPE
  5
1F7
100
AcDbSymbolTableRecord
100
AcDbLinetypeTableRecord
  2
PHANTOM
 70
64
  3
_____ _ _ _____ _ _ _____ _ _ _____
 72
65
 73
6
 40
0.8
 49
0.45
 74
0
 49
-0.05
 74
0
 49
0.1
 74
0
 49
-0.05
 74
0
 49
0.1
 74
0
 49
-0.05
 74
0
  0
LTYPE
  5
1F8
100
AcDbSymbolTableRecord
100
AcDbLinetypeTableRecord
  2
DOT
 70
64
  3
. . . . . . . . . . . . . . . . . . . .
 72
65
 73
2
 40
0.2
 49
0.1
 74
0
 49
-0.1
 74
0
  0
LTYPE
  5
1F9
100
AcDbSymbolTableRecord
100
AcDbLinetypeTableRecord
  2
DASHED
 70
64
  3
- - - - - - - - - - - - - - - - - - - -
 72
65
 73
2
 40
0.2
 49
0.1
 74
0
 49
-0.1
 74
0
  0
ENDTAB
  0
TABLE
  2
LAYER
  5
2
100
AcDbSymbolTable
 70
36
  0
LAYER
  5
10
100
AcDbSymbolTableRecord
100
AcDbLayerTableRecord
  2
0
 70
0
 62
7
  6
CONTINUOUS
370
-3
390
F
  0
LAYER
  5
1FA
100
AcDbSymbolTableRecord
100
AcDbLayerTableRecord
  2
DEFAULT_1
 70
0
 62
7
  6
CENTER
370
-3
390
F
  0
LAYER
  5
1FB
100
AcDbSymbolTableRecord
100
AcDbLayerTableRecord
  2
DEFAULT_2
 70
0
 62
7
  6
HIDDEN
370
-3
390
F
  0
LAYER
  5
1FC
100
AcDbSymbolTableRecord
100
AcDbLayerTableRecord
  2
DEFAULT_3
 70
0
 62
7
  6
PHANTOM
370
-3
390
F
  0
LAYER
  5
1FD
100
AcDbSymbolTableRecord
100
AcDbLayerTableRecord
  2
ASSI
 70
0
 62
7
  6
CONTINUOUS
370
-3
390
F
  0
LAYER
  5
1FE
100
AcDbSymbolTableRecord
100
AcDbLayerTableRecord
  2
COLOR5
 70
0
 62
7
  6
CONTINUOUS
370
-3
390
F
  0
LAYER
  5
1FF
100
AcDbSymbolTableRecord
100
AcDbLayerTableRecord
  2
COORDINATE
 70
0
 62
7
  6
CONTINUOUS
370
-3
390
F
  0
LAYER
  5
200
100
AcDbSymbolTableRecord
100
AcDbLayerTableRecord
  2
COORD_ORIGINE
 70
0
 62
7
  6
CONTINUOUS
370
-3
390
F
  0
LAYER
  5
201
100
AcDbSymbolTableRecord
100
AcDbLayerTableRecord
  2
CURVE
 70
0
 62
7
  6
CONTINUOUS
370
-3
390
F
  0
LAYER
  5
202
100
AcDbSymbolTableRecord
100
AcDbLayerTableRecord
  2
DRAFT
 70
0
 62
7
  6
CONTINUOUS
370
-3
390
F
  0
LAYER
  5
203
100
AcDbSymbolTableRecord
100
AcDbLayerTableRecord
  2
ESTRATTORI
 70
0
 62
7
  6
CONTINUOUS
370
-3
390
F
  0
LAYER
  5
204
100
AcDbSymbolTableRecord
100
AcDbLayerTableRecord
  2
IGES
 70
0
 62
7
  6
CONTINUOUS
370
-3
390
F
  0
LAYER
  5
205
100
AcDbSymbolTableRecord
100
AcDbLayerTableRecord
  2
INTF_1
 70
0
 62
7
  6
CONTINUOUS
370
-3
390
F
  0
LAYER
  5
206
100
AcDbSymbolTableRecord
100
AcDbLayerTableRecord
  2
INTF_7
 70
0
 62
7
  6
CONTINUOUS
370
-3
390
F
  0
LAYER
  5
207
100
AcDbSymbolTableRecord
100
AcDbLayerTableRecord
  2
INTF_RED
 70
0
 62
7
  6
CONTINUOUS
370
-3
390
F
  0
LAYER
  5
208
100
AcDbSymbolTableRecord
100
AcDbLayerTableRecord
  2
NOTE
 70
0
 62
7
  6
CONTINUOUS
370
-3
390
F
  0
LAYER
  5
209
100
AcDbSymbolTableRecord
100
AcDbLayerTableRecord
  2
PIANI
 70
0
 62
7
  6
CONTINUOUS
370
-3
390
F
  0
LAYER
  5
20A
100
AcDbSymbolTableRecord
100
AcDbLayerTableRecord
  2
PIANI_ORIGINE
 70
0
 62
7
  6
CONTINUOUS
370
-3
390
F
  0
LAYER
  5
20B
100
AcDbSymbolTableRecord
100
AcDbLayerTableRecord
  2
PLACCA
 70
0
 62
7
  6
CONTINUOUS
370
-3
390
F
  0
LAYER
  5
20C
100
AcDbSymbolTableRecord
100
AcDbLayerTableRecord
  2
PUNTI
 70
0
 62
7
  6
CONTINUOUS
370
-3
390
F
  0
LAYER
  5
20D
100
AcDbSymbolTableRecord
100
AcDbLayerTableRecord
  2
RACCORDO
 70
0
 62
7
  6
CONTINUOUS
370
-3
390
F
  0
LAYER
  5
20E
100
AcDbSymbolTableRecord
100
AcDbLayerTableRecord
  2
RGB__255__255__255__
 70
0
 62
7
  6
CONTINUOUS
370
-3
390
F
  0
LAYER
  5
20F
100
AcDbSymbolTableRecord
100
AcDbLayerTableRecord
  2
RGB____0____0____0__
 70
0
 62
7
  6
CONTINUOUS
370
-3
390
F
  0
LAYER
  5
210
100
AcDbSymbolTableRecord
100
AcDbLayerTableRecord
  2
SMUSSO
 70
0
 62
7
  6
CONTINUOUS
370
-3
390
F
  0
LAYER
  5
211
100
AcDbSymbolTableRecord
100
AcDbLayerTableRecord
  2
SNAPLINE
 70
0
 62
7
  6
CONTINUOUS
370
-3
390
F
  0
LAYER
  5
212
100
AcDbSymbolTableRecord
100
AcDbLayerTableRecord
  2
SUPERFICI
 70
0
 62
7
  6
CONTINUOUS
370
-3
390
F
  0
LAYER
  5
213
100
AcDbSymbolTableRecord
100
AcDbLayerTableRecord
  2
SUPPORTO
 70
0
 62
7
  6
CONTINUOUS
370
-3
390
F
  0
LAYER
  5
214
100
AcDbSymbolTableRecord
100
AcDbLayerTableRecord
  2
TRASH
 70
0
 62
7
  6
CONTINUOUS
370
-3
390
F
  0
LAYER
  5
215
100
AcDbSymbolTableRecord
100
AcDbLayerTableRecord
  2
XSEC_DATUMS
 70
0
 62
7
  6
CONTINUOUS
370
-3
390
F
  0
ENDTAB
  0
TABLE
  2
STYLE
  5
3
100
AcDbSymbolTable
 70
1
  0
STYLE
  5
11
100
AcDbSymbolTableRecord
100
AcDbTextStyleTableRecord
  2
STANDARD
 70
0
 40
0.0
 41
0.8
 50
0.0
 71
0
 42
0.2
  3
txt
  4

  0
STYLE
  5
216
100
AcDbSymbolTableRecord
100
AcDbTextStyleTableRecord
  2
TEXTSTYLE_1
 70
0
 40
0.0
 41
0.8
 50
0.0
 71
0
 42
0.2
  3
gdt
  4

  0
ENDTAB
  0
TABLE
  2
VIEW
  5
6
100
AcDbSymbolTable
 70
0
  0
ENDTAB
  0
TABLE
  2
UCS
  5
7
100
AcDbSymbolTable
 70
0
  0
ENDTAB
  0
TABLE
  2
APPID
  5
9
100
AcDbSymbolTable
 70
1
  0
APPID
  5
217
100
AcDbSymbolTableRecord
100
AcDbRegAppTableRecord
  2
ACAD
 70
0
  0
ENDTAB
  0
TABLE
  2
BLOCK_RECORD
  5
1
100
AcDbSymbolTable
 70
0
  0
BLOCK_RECORD
  5
218
100
AcDbSymbolTableRecord
100
AcDbBlockTableRecord
  2
*Model_Space
  0
BLOCK_RECORD
  5
219
100
AcDbSymbolTableRecord
100
AcDbBlockTableRecord
  2
*Paper_Space
  0
BLOCK_RECORD
  5
21A
100
AcDbSymbolTableRecord
100
AcDbBlockTableRecord
  2
_FILLED
  0
BLOCK_RECORD
  5
21B
100
AcDbSymbolTableRecord
100
AcDbBlockTableRecord
  2
*D0
  0
BLOCK_RECORD
  5
21C
100
AcDbSymbolTableRecord
100
AcDbBlockTableRecord
  2
*D1
  0
BLOCK_RECORD
  5
21D
100
AcDbSymbolTableRecord
100
AcDbBlockTableRecord
  2
*D2
  0
ENDTAB
  0
TABLE
  2
DIMSTYLE
  5
A
100
AcDbSymbolTable
 70
1
100
AcDbDimStyleTable
 71
0
  0
DIMSTYLE
105
21E
100
AcDbSymbolTableRecord
100
AcDbDimStyleTableRecord
  2
STANDARD
 70
0
  3

  4

 40
1.0
 41
3.0
 42
0.5
 43
0.38
 44
1.5
 45
0.0
 46
0.0
 47
0.01
 48
0.01
140
3.0
141
0.09
142
0.0
143
25.4
144
1.0
145
0.0
146
1.0
147
0.625
 71
1
 72
0
 73
0
 74
0
 75
0
 76
0
 77
1
 78
8
 79
2
170
0
171
1
172
0
173
0
174
0
175
0
176
0
177
0
178
0
270
2
179
2
271
2
272
2
273
2
274
2
275
0
280
0
281
0
282
0
283
1
284
8
285
0
286
0
287
3
288
0
340
11
278
44
341
21A
342
21A
343
21A
344
21A
  0
DIMSTYLE
105
21F
100
AcDbSymbolTableRecord
100
AcDbDimStyleTableRecord
  2
DIMSTYLE_1
 70
0
  3

  4

 40
1.0
 41
3.0
 42
0.5
 43
0.38
 44
1.5
 45
0.0
 46
0.0
 47
0.0
 48
0.0
140
3.0
141
0.09
142
0.0
143
25.4
144
1.0
145
0.0
146
1.0
147
0.75
 71
0
 72
0
 73
0
 74
0
 75
0
 76
0
 77
1
 78
8
 79
2
170
0
171
1
172
0
173
0
174
0
175
0
176
0
177
0
178
0
270
2
179
2
271
2
272
2
273
2
274
2
275
0
280
0
281
0
282
0
283
1
284
8
285
0
286
0
287
3
288
0
340
11
278
44
341
21A
342
21A
343
21A
344
21A
  0
ENDTAB
  0
ENDSEC
  0
SECTION
  2
BLOCKS
  0
BLOCK
  5
20
100
AcDbEntity
  8
0
100
AcDbBlockBegin
  2
*Model_Space
 70
0
 10
0.0
 20
0.0
 30
0.0
  3
*Model_Space
  1

  0
ENDBLK
  5
21
100
AcDbEntity
  8
0
100
AcDbBlockEnd
  0
BLOCK
  5
1C
100
AcDbEntity
  8
0
100
AcDbBlockBegin
  2
*Paper_Space
 70
0
 10
0.0
 20
0.0
 30
0.0
  3
*Paper_Space
  1

  0
ENDBLK
  5
1D
100
AcDbEntity
  8
0
100
AcDbBlockEnd
  0
BLOCK
  5
220
100
AcDbEntity
  8
0
100
AcDbBlockBegin
  2
_FILLED
 70
64
 10
0.0
 20
0.0
  3
_FILLED
  1

  0
SOLID
  5
221
100
AcDbEntity
  8
0
  6
BYBLOCK
 62
0
100
AcDbTrace
 10
0.0
 20
0.0
 11
-1.0
 21
0.3166666667
 12
-1.0
 22
-0.3166666667
 13
-1.0
 23
-0.3166666667
  0
ENDBLK
  5
222
100
AcDbEntity
  8
0
  6
BYBLOCK
 62
0
100
AcDbBlockEnd
  0
BLOCK
  5
223
100
AcDbEntity
  8
0
100
AcDbBlockBegin
 62
7
  6
CONTINUOUS
  2
*D0
 70
65
 10
0.0
 20
0.0
  3
*D0
  1

  0
LINE
  5
224
100
AcDbEntity
  8
0
100
AcDbLine
 62
7
  6
CONTINUOUS
 10
-60.0003826685
 20
37.508430405
 11
-60.0003826685
 21
49.5004332731
  0
LINE
  5
225
100
AcDbEntity
  8
0
100
AcDbLine
 62
7
  6
CONTINUOUS
 10
60.0003826685
 20
37.508430405
 11
60.0003826685
 21
49.5004332731
  0
LINE
  5
226
100
AcDbEntity
  8
0
100
AcDbLine
 62
7
  6
CONTINUOUS
 10
-60.0003826685
 20
48.0004332731
 11
0.0
 21
48.0004332731
  0
LINE
  5
227
100
AcDbEntity
  8
0
100
AcDbLine
 62
7
  6
CONTINUOUS
 10
60.0003826685
 20
48.0004332731
 11
0.0
 21
48.0004332731
  0
INSERT
  5
228
100
AcDbEntity
  8
0
100
AcDbBlockReference
 62
7
  6
CONTINUOUS
  2
_FILLED
 10
-60.0003826685
 20
48.0004332731
 41
3.0
 42
3.0
 43
3.0
 50
180.0
  0
INSERT
  5
229
100
AcDbEntity
  8
0
100
AcDbBlockReference
 62
7
  6
CONTINUOUS
  2
_FILLED
 10
60.0003826685
 20
48.0004332731
 41
3.0
 42
3.0
 43
3.0
  0
ENDBLK
  5
22A
100
AcDbEntity
  8
0
  6
BYBLOCK
 62
0
100
AcDbBlockEnd
  0
BLOCK
  5
22B
100
AcDbEntity
  8
0
100
AcDbBlockBegin
 62
7
  6
CONTINUOUS
  2
*D1
 70
65
 10
0.0
 20
0.0
  3
*D1
  1

  0
LINE
  5
22C
100
AcDbEntity
  8
0
100
AcDbLine
 62
7
  6
CONTINUOUS
 10
-97.3800094129
 20
22.7
 11
-97.3800094129
 21
49.5004332731
  0
LINE
  5
22D
100
AcDbEntity
  8
0
100
AcDbLine
 62
7
  6
CONTINUOUS
 10
-88.1797123557
 20
39.0088314234
 11
-88.1797123557
 21
49.5004332731
  0
LINE
  5
22E
100
AcDbEntity
  8
0
100
AcDbLine
 62
7
  6
CONTINUOUS
 10
-97.3800094129
 20
48.0004332731
 11
-101.3800094129
 21
48.0004332731
  0
LINE
  5
22F
100
AcDbEntity
  8
0
100
AcDbLine
 62
7
  6
CONTINUOUS
 10
-101.3800094129
 20
48.0004332731
 11
-92.7798608843
 21
48.0004332731
  0
LINE
  5
230
100
AcDbEntity
  8
0
100
AcDbLine
 62
7
  6
CONTINUOUS
 10
-88.1797123557
 20
48.0004332731
 11
-84.1797123557
 21
48.0004332731
  0
LINE
  5
231
100
AcDbEntity
  8
0
100
AcDbLine
 62
7
  6
CONTINUOUS
 10
-84.1797123557
 20
48.0004332731
 11
-92.7798608843
 21
48.0004332731
  0
INSERT
  5
232
100
AcDbEntity
  8
0
100
AcDbBlockReference
 62
7
  6
CONTINUOUS
  2
_FILLED
 10
-97.3800094129
 20
48.0004332731
 41
3.0
 42
3.0
 43
3.0
  0
INSERT
  5
233
100
AcDbEntity
  8
0
100
AcDbBlockReference
 62
7
  6
CONTINUOUS
  2
_FILLED
 10
-88.1797123557
 20
48.0004332731
 41
3.0
 42
3.0
 43
3.0
 50
180.0
  0
ENDBLK
  5
234
100
AcDbEntity
  8
0
  6
BYBLOCK
 62
0
100
AcDbBlockEnd
  0
BLOCK
  5
235
100
AcDbEntity
  8
0
100
AcDbBlockBegin
 62
7
  6
CONTINUOUS
  2
*D2
 70
65
 10
0.0
 20
0.0
  3
*D2
  1

  0
LINE
  5
236
100
AcDbEntity
  8
0
100
AcDbLine
 62
7
  6
CONTINUOUS
 10
-88.8796586644
 20
40.0004151672
 11
-108.20536236
 21
40.0004151672
  0
LINE
  5
237
100
AcDbEntity
  8
0
100
AcDbLine
 62
7
  6
CONTINUOUS
 10
-88.8796586644
 20
-40.0004151672
 11
-108.20536236
 21
-40.0004151672
  0
LINE
  5
238
100
AcDbEntity
  8
0
100
AcDbLine
 62
7
  6
CONTINUOUS
 10
-106.70536236
 20
40.0004151672
 11
-106.70536236
 21
0.0
  0
LINE
  5
239
100
AcDbEntity
  8
0
100
AcDbLine
 62
7
  6
CONTINUOUS
 10
-106.70536236
 20
-40.0004151672
 11
-106.70536236
 21
0.0
  0
INSERT
  5
23A
100
AcDbEntity
  8
0
100
AcDbBlockReference
 62
7
  6
CONTINUOUS
  2
_FILLED
 10
-106.70536236
 20
40.0004151672
 41
3.0
 42
3.0
 43
3.0
 50
90.0
  0
INSERT
  5
23B
100
AcDbEntity
  8
0
100
AcDbBlockReference
 62
7
  6
CONTINUOUS
  2
_FILLED
 10
-106.70536236
 20
-40.0004151672
 41
3.0
 42
3.0
 43
3.0
 50
270.0
  0
ENDBLK
  5
23C
100
AcDbEntity
  8
0
  6
BYBLOCK
 62
0
100
AcDbBlockEnd
  0
ENDSEC
  0
SECTION
  2
ENTITIES
  0
DIMENSION
  5
23D
100
AcDbEntity
  8
0
100
AcDbDimension
 62
7
  6
CONTINUOUS
  2
*D0
 10
60.0003826685
 20
48.0004332731
 11
-3.2142857143
 21
48.0004332731
 70
160
 71
2
 72
2
 41
0.9
 42
120.0007653371
  3
DIMSTYLE_1
100
AcDbAlignedDimension
 13
-60.0003826685
 23
37.008430405
 14
60.0003826685
 24
37.008430405
100
AcDbRotatedDimension
  0
DIMENSION
  5
23E
100
AcDbEntity
  8
0
100
AcDbDimension
 62
7
  6
CONTINUOUS
  2
*D1
 10
-88.1797123557
 20
48.0004332731
 11
-95.9941465986
 21
48.0004332731
 70
160
 71
2
 72
2
 41
0.9
 42
9.2002970571
  3
DIMSTYLE_1
100
AcDbAlignedDimension
 13
-97.3800094129
 23
22.2
 14
-88.1797123557
 24
38.5088314234
100
AcDbRotatedDimension
  0
DIMENSION
  5
23F
100
AcDbEntity
  8
0
100
AcDbDimension
 62
7
  6
CONTINUOUS
  2
*D2
 10
-106.70536236
 20
-40.0004151672
 11
-106.70536236
 21
-2.3571428571
 70
160
 71
2
 72
2
 41
0.9
 42
80.0008303343
  3
DIMSTYLE_1
100
AcDbAlignedDimension
 13
-88.3796586644
 23
40.0004151672
 14
-88.3796586644
 24
-40.0004151672
 50
270.0
100
AcDbRotatedDimension
  0
LWPOLYLINE
  5
240
100
AcDbEntity
  8
SUPERFICI
100
AcDbPolyline
 62
250
  6
CONTINUOUS
 90
13
 70
0
 10
-59.7693744068
 20
-37.0080377198
 10
-59.7451087631
 20
-37.3702639951
 10
-59.6736347659
 20
-37.7260040599
 10
-59.5562688236
 20
-38.0691341115
 10
-59.395098247
 20
-38.3937899208
 10
-59.1929917009
 20
-38.6943970539
 10
-58.953573134
 20
-38.9657915943
 10
-58.6811554114
 20
-39.2033581147
 10
-58.3803890417
 20
-39.4032100992
 10
-58.056206648
 20
-39.562087753
 10
-57.7140859076
 20
-39.677301281
 10
-57.3599920207
 20
-39.7468904902
 10
-56.9999995183
 20
-39.769708699
  0
LWPOLYLINE
  5
241
100
AcDbEntity
  8
SUPERFICI
100
AcDbPolyline
 62
250
  6
CONTINUOUS
 90
13
 70
0
 10
-59.7693744068
 20
37.0080377198
 10
-59.7451087631
 20
37.3702639951
 10
-59.6736347659
 20
37.7260040599
 10
-59.5562688236
 20
38.0691341115
 10
-59.395098247
 20
38.3937899208
 10
-59.1929917009
 20
38.6943970539
 10
-58.953573134
 20
38.9657915943
 10
-58.6811554114
 20
39.2033581147
 10
-58.3803890417
 20
39.4032100992
 10
-58.056206648
 20
39.562087753
 10
-57.7140859076
 20
39.677301281
 10
-57.3599920207
 20
39.7468904902
 10
-56.9999995183
 20
39.769708699
  0
LWPOLYLINE
  5
242
100
AcDbEntity
  8
SUPERFICI
100
AcDbPolyline
 62
250
  6
CONTINUOUS
 90
16
 70
0
 10
-58.9101429391
 20
37.0530891289
 10
-58.8825412065
 20
37.3034946423
 10
-58.8349953224
 20
37.5357755766
 10
-58.7667681708
 20
37.7502610608
 10
-58.6736633699
 20
37.9487576692
 10
-58.5580638571
 20
38.1298680469
 10
-58.4305092586
 20
38.2905509852
 10
-58.2946782546
 20
38.4327730844
 10
-58.1485856109
 20
38.5578900283
 10
-57.9966767443
 20
38.6638361294
 10
-57.8422806598
 20
38.7524724472
 10
-57.6856973338
 20
38.8254746033
 10
-57.5280971236
 20
38.8811445999
 10
-57.3713485355
 20
38.9199283183
 10
-57.2175133979
 20
38.9441146596
 10
-57.0682215025
 20
38.9547078945
  0
LWPOLYLINE
  5
243
100
AcDbEntity
  8
SUPERFICI
100
AcDbPolyline
 62
250
  6
CONTINUOUS
 90
16
 70
0
 10
-58.9101429391
 20
-37.0530891289
 10
-58.8825412065
 20
-37.3034946423
 10
-58.8349953224
 20
-37.5357755766
 10
-58.7667681708
 20
-37.7502610608
 10
-58.6736633699
 20
-37.9487576692
 10
-58.5580638571
 20
-38.1298680469
 10
-58.4305092586
 20
-38.2905509852
 10
-58.2946782546
 20
-38.4327730844
 10
-58.1485856109
 20
-38.5578900283
 10
-57.9966767443
 20
-38.6638361294
 10
-57.8422806598
 20
-38.7524724472
 10
-57.6856973338
 20
-38.8254746033
 10
-57.5280971236
 20
-38.8811445999
 10
-57.3713485355
 20
-38.9199283183
 10
-57.2175133979
 20
-38.9441146596
 10
-57.0682215025
 20
-38.9547078945
  0
LWPOLYLINE
  5
244
100
AcDbEntity
  8
SUPERFICI
100
AcDbPolyline
 62
250
  6
CONTINUOUS
 90
10
 70
0
 10
-57.07037
 20
-38.953
 10
-57.0669585391
 20
-39.0988949158
 10
-57.0619397412
 20
-39.2355145684
 10
-57.0554148009
 20
-39.3610327407
 10
-57.0474382419
 20
-39.4741913281
 10
-57.0381706475
 20
-39.5722027754
 10
-57.0281743455
 20
-39.6517448405
 10
-57.0181317227
 20
-39.7114673888
 10
-57.0085615047
 20
-39.75099231
 10
-57.0
 20
-39.7695130549
  0
LINE
  5
245
100
AcDbEntity
  8
SUPERFICI
100
AcDbLine
 62
250
  6
CONTINUOUS
 10
-58.9298497053
 20
-34.4596242509
 11
-58.9231984991
 21
-35.3259251092
  0
LINE
  5
246
100
AcDbEntity
  8
SUPERFICI
100
AcDbLine
 62
250
  6
CONTINUOUS
 10
-59.7695813662
 20
37.0
 11
-59.7633187685
 21
28.3168458803
  0
LINE
  5
247
100
AcDbEntity
  8
RACCORDO
100
AcDbLine
 62
7
  6
CONTINUOUS
 10
-60.0003739116
 20
-37.0084847778
 11
-60.0003778186
 21
-3.9848721447
  0
LINE
  5
248
100
AcDbEntity
  8
RACCORDO
100
AcDbLine
 62
7
  6
CONTINUOUS
 10
-60.0003787615
 20
3.9848721447
 11
-60.0003826685
 21
37.008430405
  0
LINE
  5
249
100
AcDbEntity
  8
RACCORDO
100
AcDbLine
 62
7
  6
CONTINUOUS
 10
-59.8745997747
 20
3.2251006478
 11
-59.8745990116
 21
-3.2251006478
  0
LINE
  5
24A
100
AcDbEntity
  8
0
100
AcDbLine
 62
250
  6
CONTINUOUS
 10
-57.0
 20
-40.0003994891
 11
-57.0
 21
-39.7695277556
  0
LINE
  5
24B
100
AcDbEntity
  8
0
100
AcDbLine
 62
250
  6
CONTINUOUS
 10
-57.0
 20
39.7695277556
 11
-57.0
 21
40.0003994891
  0
LINE
  5
24C
100
AcDbEntity
  8
SUPERFICI
100
AcDbLine
 62
7
  6
CONTINUOUS
 10
-59.7633187685
 20
28.3168458803
 11
-59.7633120865
 21
-28.3168458803
  0
LWPOLYLINE
  5
24D
100
AcDbEntity
  8
SUPERFICI
100
AcDbPolyline
 62
250
  6
CONTINUOUS
 90
3
 70
0
 10
-58.9623284779
 20
-10.8440493
 10
-58.9637363955
 20
-21.3385196016
 10
-58.9298497053
 20
-34.4596242509
  0
LINE
  5
24E
100
AcDbEntity
  8
SUPERFICI
100
AcDbLine
 62
250
  6
CONTINUOUS
 10
-58.9623284779
 20
-10.8440493
 11
-58.9686195729
 21
1.392155771
  0
LWPOLYLINE
  5
24F
100
AcDbEntity
  8
SUPERFICI
100
AcDbPolyline
 62
250
  6
CONTINUOUS
 90
3
 70
0
 10
-58.9686195729
 20
1.392155771
 10
-58.9646966981
 20
5.5858742032
 10
-58.9632057545
 20
22.4182425197
  0
LINE
  5
250
100
AcDbEntity
  8
SUPERFICI
100
AcDbLine
 62
250
  6
CONTINUOUS
 10
-59.7633120865
 20
-28.3168458803
 11
-59.7695726352
 21
-37.0
  0
LWPOLYLINE
  5
251
100
AcDbEntity
  8
SUPERFICI
100
AcDbPolyline
 62
250
  6
CONTINUOUS
 90
4
 70
0
 10
-58.9231984991
 20
-35.3259251092
 10
-58.9228766734
 20
-36.1926134744
 10
-58.9201076014
 20
-36.6264475155
 10
-58.9101429391
 20
-37.0530891289
  0
LINE
  5
252
100
AcDbEntity
  8
SUPERFICI
100
AcDbLine
 62
250
  6
CONTINUOUS
 10
-58.9632057545
 20
22.4182425197
 11
-58.9298497053
 21
34.4596242509
  0
LWPOLYLINE
  5
253
100
AcDbEntity
  8
SUPERFICI
100
AcDbPolyline
 62
250
  6
CONTINUOUS
 90
3
 70
0
 10
-58.9228766734
 20
36.1926134744
 10
-58.9201076014
 20
36.6264475155
 10
-58.9101429391
 20
37.0530891289
  0
LWPOLYLINE
  5
254
100
AcDbEntity
  8
SUPERFICI
100
AcDbPolyline
 62
250
  6
CONTINUOUS
 90
3
 70
0
 10
-58.9298497053
 20
34.4596242509
 10
-58.9231984991
 20
35.3259251092
 10
-58.9228766734
 20
36.1926134744
  0
LWPOLYLINE
  5
255
100
AcDbEntity
  8
SUPERFICI
100
AcDbPolyline
 62
250
  6
CONTINUOUS
 90
10
 70
0
 10
-57.07037
 20
38.953
 10
-57.0669585391
 20
39.0988949158
 10
-57.0619397412
 20
39.2355145684
 10
-57.0554148009
 20
39.3610327407
 10
-57.0474382419
 20
39.4741913281
 10
-57.0381706475
 20
39.5722027754
 10
-57.0281743455
 20
39.6517448405
 10
-57.0181317227
 20
39.7114673888
 10
-57.0085615047
 20
39.75099231
 10
-57.0
 20
39.7695130549
  0
LINE
  5
256
100
AcDbEntity
  8
RACCORDO
100
AcDbLine
 62
7
  6
CONTINUOUS
 10
-59.8889510442
 20
-3.5239590572
 11
-59.986025786
 21
-3.6860137352
  0
LINE
  5
257
100
AcDbEntity
  8
RACCORDO
100
AcDbLine
 62
7
  6
CONTINUOUS
 10
-59.9860266582
 20
3.6860137352
 11
-59.888951878
 21
3.5239590572
  0
LINE
  5
258
100
AcDbEntity
  8
SUPERFICI
100
AcDbLine
 62
250
  6
CONTINUOUS
 10
-46.2961541686
 20
39.7597603321
 11
-46.2957238086
 21
39.0964805087
  0
LINE
  5
259
100
AcDbEntity
  8
SUPERFICI
100
AcDbLine
 62
250
  6
CONTINUOUS
 10
-46.2957238086
 20
-39.0964805087
 11
-46.2961541686
 21
-39.7597603321
  0
LWPOLYLINE
  5
25A
100
AcDbEntity
  8
SUPERFICI
100
AcDbPolyline
 62
250
  6
CONTINUOUS
 90
4
 70
0
 10
57.0682215025
 20
-38.9547078945
 10
56.0569574146
 20
-38.9940384555
 10
55.0049705437
 20
-39.0169809737
 10
51.5835643183
 20
-39.0638639199
  0
LWPOLYLINE
  5
25B
100
AcDbEntity
  8
SUPERFICI
100
AcDbPolyline
 62
250
  6
CONTINUOUS
 90
3
 70
0
 10
-57.0682215025
 20
-38.9547078945
 10
-56.0569574146
 20
-38.9940384555
 10
-55.0049705437
 20
-39.0169809737
  0
LWPOLYLINE
  5
25C
100
AcDbEntity
  8
0
100
AcDbPolyline
 62
7
  6
CONTINUOUS
 90
3
 70
0
 43
0.3500000006
 10
-3.2142856836
 20
50.8932899323
 10
-2.3571427875
 20
51.7504324036
 10
-2.3571427875
 20
48.750431488
  0
LWPOLYLINE
  5
25D
100
AcDbEntity
  8
SUPERFICI
100
AcDbPolyline
 62
250
  6
CONTINUOUS
 90
3
 70
0
 10
51.5835643183
 20
-39.0638639199
 10
50.3342058894
 20
-39.0749875997
 10
47.6813730087
 20
-39.0860779416
  0
LINE
  5
25E
100
AcDbEntity
  8
SUPERFICI
100
AcDbLine
 62
250
  6
CONTINUOUS
 10
47.6813730087
 20
-39.0860779416
 11
46.2950957702
 21
-39.0973109842
  0
LINE
  5
25F
100
AcDbEntity
  8
SUPERFICI
100
AcDbLine
 62
250
  6
CONTINUOUS
 10
-57.0
 20
-39.7695277556
 11
-52.2441423293
 21
-39.7605670493
  0
LINE
  5
260
100
AcDbEntity
  8
SUPERFICI
100
AcDbLine
 62
250
  6
CONTINUOUS
 10
46.2957238086
 20
-39.0964805087
 11
39.6609851409
 21
-39.1081366013
  0
LWPOLYLINE
  5
261
100
AcDbEntity
  8
SUPERFICI
100
AcDbPolyline
 62
250
  6
CONTINUOUS
 90
3
 70
0
 10
-52.2441423293
 20
-39.7605670493
 10
-47.4860666988
 20
-39.7572549791
 10
-46.2962593494
 20
-39.7573095497
  0
LINE
  5
262
100
AcDbEntity
  8
0
100
AcDbLine
 62
7
  6
CONTINUOUS
 10
57.000180524
 20
-40.0003858982
 11
-57.000094562
 21
-40.0003994891
  0
LINE
  5
263
100
AcDbEntity
  8
SUPERFICI
100
AcDbLine
 62
7
  6
CONTINUOUS
 10
0.0000007641
 20
-39.7621688436
 11
46.2962593494
 21
-39.7572985412
  0
LINE
  5
264
100
AcDbEntity
  8
0
100
AcDbLine
 62
7
  6
CONTINUOUS
 10
-60.0003739126
 20
-37.0
 11
-59.7695726352
 21
-37.0
  0
LINE
  5
265
100
AcDbEntity
  8
0
100
AcDbLine
 62
7
  6
CONTINUOUS
 10
59.7695726352
 20
-37.0
 11
60.0003739126
 21
-37.0
  0
LINE
  5
266
100
AcDbEntity
  8
SUPERFICI
100
AcDbLine
 62
7
  6
CONTINUOUS
 10
-46.2962593494
 20
-39.7573095497
 11
0.0000007641
 21
-39.7621688436
  0
LINE
  5
267
100
AcDbEntity
  8
SUPERFICI
100
AcDbLine
 62
250
  6
CONTINUOUS
 10
39.6609851409
 20
-39.1081366013
 11
11.3606767901
 21
-39.1109256201
  0
LINE
  5
268
100
AcDbEntity
  8
SUPERFICI
100
AcDbLine
 62
250
  6
CONTINUOUS
 10
46.2962593494
 20
-39.7572985412
 11
51.0551153665
 21
-39.7591976499
  0
LINE
  5
269
100
AcDbEntity
  8
SUPERFICI
100
AcDbLine
 62
250
  6
CONTINUOUS
 10
11.3606767901
 20
-39.1109256201
 11
-0.0000027146
 21
-39.0970495127
  0
LWPOLYLINE
  5
26A
100
AcDbEntity
  8
SUPERFICI
100
AcDbPolyline
 62
250
  6
CONTINUOUS
 90
3
 70
0
 10
51.0551153665
 20
-39.7591976499
 10
55.8113948508
 20
-39.7667449812
 10
57.0
 20
-39.7695142019
  0
LWPOLYLINE
  5
26B
100
AcDbEntity
  8
SUPERFICI
100
AcDbPolyline
 62
250
  6
CONTINUOUS
 90
3
 70
0
 10
-46.2957238086
 20
-39.0964805087
 10
-42.5797604336
 20
-39.1041792012
 10
0.0000001396
 20
-39.1014452844
  0
LWPOLYLINE
  5
26C
100
AcDbEntity
  8
SUPERFICI
100
AcDbPolyline
 62
250
  6
CONTINUOUS
 90
3
 70
0
 10
-50.3342058894
 20
-39.0749875997
 10
-47.6813730087
 20
-39.0860779416
 10
-46.2950957702
 20
-39.0973109842
  0
LWPOLYLINE
  5
26D
100
AcDbEntity
  8
SUPERFICI
100
AcDbPolyline
 62
250
  6
CONTINUOUS
 90
4
 70
0
 10
-55.0049705437
 20
-39.0169809737
 10
-52.7723355221
 20
-39.0461370202
 10
-51.5835643183
 20
-39.0638639199
 10
-50.3342058894
 20
-39.0749875997
  0
LWPOLYLINE
  5
26E
100
AcDbEntity
  8
SUPERFICI
100
AcDbPolyline
 62
250
  6
CONTINUOUS
 90
10
 70
0
 10
-58.91008
 20
-37.05298
 10
-59.0623649281
 20
-37.0507417784
 10
-59.2055272815
 20
-37.0473259638
 10
-59.3375225476
 20
-37.0428218402
 10
-59.456925551
 20
-37.0372858588
 10
-59.5606239847
 20
-37.0308436577
 10
-59.6449000663
 20
-37.0237403057
 10
-59.7082062796
 20
-37.0161673879
 10
-59.7500771808
 20
-37.008213166
 10
-59.7695816451
 20
-37.0
  0
LWPOLYLINE
  5
26F
100
AcDbEntity
  8
SUPERFICI
100
AcDbPolyline
 62
250
  6
CONTINUOUS
 90
5
 70
0
 10
-25.9381269297
 20
22.1470295245
 10
-25.9204155563
 20
20.6676732741
 10
-25.8979444923
 20
19.1072134111
 10
-25.8803107821
 20
17.4762000939
 10
-25.8744817736
 20
15.7907846623
  0
LINE
  5
270
100
AcDbEntity
  8
SUPERFICI
100
AcDbLine
 62
250
  6
CONTINUOUS
 10
-25.8838323343
 20
-12.2553356297
 11
-25.9078154229
 21
-8.4549715725
  0
LWPOLYLINE
  5
271
100
AcDbEntity
  8
SUPERFICI
100
AcDbPolyline
 62
250
  6
CONTINUOUS
 90
5
 70
0
 10
-25.9078154229
 20
-8.4549715725
 10
-25.9059235212
 20
-6.4528659279
 10
-25.8927879384
 20
-4.3802002963
 10
-25.892416788
 20
-2.2308218541
 10
-25.9235995064
 20
0.0000016839
  0
LINE
  5
272
100
AcDbEntity
  8
SUPERFICI
100
AcDbLine
 62
250
  6
CONTINUOUS
 10
-25.8744817736
 20
15.7907846623
 11
-25.8838323295
 21
12.2553369966
  0
LWPOLYLINE
  5
273
100
AcDbEntity
  8
SUPERFICI
100
AcDbPolyline
 62
250
  6
CONTINUOUS
 90
6
 70
0
 10
-25.8838323295
 20
12.2553369966
 10
-25.907815407
 20
8.4549735208
 10
-25.9059235124
 20
6.4528682011
 10
-25.8927879489
 20
4.3802029158
 10
-25.8924168125
 20
2.2308248395
 10
-25.9235995285
 20
0.0000016839
  0
LWPOLYLINE
  5
274
100
AcDbEntity
  8
SUPERFICI
100
AcDbPolyline
 62
250
  6
CONTINUOUS
 90
6
 70
0
 10
-25.9381269297
 20
-22.1470295245
 10
-25.9204155554
 20
-20.6676730898
 10
-25.8979444902
 20
-19.1072130212
 10
-25.8803107802
 20
-17.4761994804
 10
-25.8744817747
 20
-15.7907838109
 10
-25.8838323343
 20
-12.2553356297
  0
LINE
  5
275
100
AcDbEntity
  8
SUPERFICI
100
AcDbLine
 62
250
  6
CONTINUOUS
 10
-18.9378656707
 20
-25.8732575946
 11
-22.1644173734
 21
-25.9196625408
  0
LINE
  5
276
100
AcDbEntity
  8
SUPERFICI
100
AcDbLine
 62
250
  6
CONTINUOUS
 10
-12.8070781622
 20
-25.8045515922
 11
-18.9378656707
 21
-25.8732575946
  0
LWPOLYLINE
  5
277
100
AcDbEntity
  8
SUPERFICI
100
AcDbPolyline
 62
250
  6
CONTINUOUS
 90
16
 70
0
 10
22.1644173734
 20
-25.9196625408
 10
22.4593638226
 20
-25.9173700448
 10
22.7651418933
 20
-25.8864369512
 10
23.0796868897
 20
-25.8257172009
 10
23.4009166453
 20
-25.7339596865
 10
23.7253321454
 20
-25.6091573881
 10
24.0480647365
 20
-25.4485166297
 10
24.3671529499
 20
-25.2480418995
 10
24.6766912919
 20
-25.0061551505
 10
24.9663691665
 20
-24.7236572342
 10
25.2386411612
 20
-24.3950116918
 10
25.484137583
 20
-24.0190948309
 10
25.6786581773
 20
-23.6057963338
 10
25.8154209732
 20
-23.1587172468
 10
25.9018153932
 20
-22.672696378
 10
25.9381269297
 20
-22.1470295245
  0
LINE
  5
278
100
AcDbEntity
  8
SUPERFICI
100
AcDbLine
 62
250
  6
CONTINUOUS
 10
0.0000206157
 20
-25.7030011834
 11
-12.8070781622
 21
-25.8045515922
  0
LINE
  5
279
100
AcDbEntity
  8
SUPERFICI
100
AcDbLine
 62
250
  6
CONTINUOUS
 10
59.6439776613
 20
-28.3172096979
 11
59.7636331457
 21
-28.31682
  0
LINE
  5
27A
100
AcDbEntity
  8
SUPERFICI
100
AcDbLine
 62
250
  6
CONTINUOUS
 10
58.947459716
 20
-28.3177900615
 11
59.6439776613
 21
-28.3172096979
  0
LWPOLYLINE
  5
27B
100
AcDbEntity
  8
SUPERFICI
100
AcDbPolyline
 62
250
  6
CONTINUOUS
 90
3
 70
0
 10
-58.947459716
 20
-28.3177900615
 10
-59.7453426697
 20
-28.3169416932
 10
-59.7636331457
 20
-28.31682
  0
LINE
  5
27C
100
AcDbEntity
  8
SUPERFICI
100
AcDbLine
 62
250
  6
CONTINUOUS
 10
0.0000213532
 20
-25.7029808617
 11
1.5553855895
 21
-25.7112493156
  0
LWPOLYLINE
  5
27D
100
AcDbEntity
  8
SUPERFICI
100
AcDbPolyline
 62
250
  6
CONTINUOUS
 90
16
 70
0
 10
-22.1644173734
 20
-25.9196625408
 10
-22.4593638226
 20
-25.9173700448
 10
-22.7651418933
 20
-25.8864369512
 10
-23.0796868897
 20
-25.8257172009
 10
-23.4009166453
 20
-25.7339596865
 10
-23.7253321454
 20
-25.6091573881
 10
-24.0480647365
 20
-25.4485166297
 10
-24.3671529499
 20
-25.2480418995
 10
-24.6766912919
 20
-25.0061551505
 10
-24.9663691665
 20
-24.7236572342
 10
-25.2386411612
 20
-24.3950116918
 10
-25.484137583
 20
-24.0190948309
 10
-25.6786581773
 20
-23.6057963338
 10
-25.8154209732
 20
-23.1587172468
 10
-25.9018153932
 20
-22.672696378
 10
-25.9381269297
 20
-22.1470295245
  0
LINE
  5
27E
100
AcDbEntity
  8
SUPERFICI
100
AcDbLine
 62
250
  6
CONTINUOUS
 10
1.5553855895
 20
-25.7112493156
 11
8.1540700446
 21
-25.7615590354
  0
LINE
  5
27F
100
AcDbEntity
  8
SUPERFICI
100
AcDbLine
 62
250
  6
CONTINUOUS
 10
8.1540700446
 20
-25.7615590354
 11
14.7172040149
 21
-25.8228595887
  0
LINE
  5
280
100
AcDbEntity
  8
SUPERFICI
100
AcDbLine
 62
250
  6
CONTINUOUS
 10
14.7172040149
 20
-25.8228595887
 11
18.9378734131
 21
-25.8732576598
  0
LWPOLYLINE
  5
281
100
AcDbEntity
  8
SUPERFICI
100
AcDbPolyline
 62
250
  6
CONTINUOUS
 90
3
 70
0
 10
18.9378734131
 20
-25.8732576598
 10
21.0926463714
 20
-25.9027685173
 10
22.1644173734
 20
-25.9196625408
  0
LWPOLYLINE
  5
282
100
AcDbEntity
  8
SUPERFICI
100
AcDbPolyline
 62
250
  6
CONTINUOUS
 90
13
 70
0
 10
-24.1205429037
 20
-22.2000014303
 10
-24.1066536504
 20
-22.4538258999
 10
-24.0593065064
 20
-22.7035325614
 10
-23.9794069581
 20
-22.9447331902
 10
-23.8684645031
 20
-23.1733041067
 10
-23.7284372733
 20
-23.3851985379
 10
-23.5618132895
 20
-23.5764793748
 10
-23.371728499
 20
-23.7438682296
 10
-23.1615922178
 20
-23.8845666075
 10
-22.9351068196
 20
-23.9959527707
 10
-22.6964183592
 20
-24.0761251948
 10
-22.449906344
 20
-24.1239889552
 10
-22.1999985696
 20
-24.1389572708
  0
LINE
  5
283
100
AcDbEntity
  8
SUPERFICI
100
AcDbLine
 62
250
  6
CONTINUOUS
 10
-22.1837430903
 20
-24.8717588248
 11
-22.1999992848
 21
-24.1389556972
  0
LINE
  5
284
100
AcDbEntity
  8
SUPERFICI
100
AcDbLine
 62
250
  6
CONTINUOUS
 10
-22.16539
 20
-25.91973
 11
-22.1837430903
 21
-24.8717588248
  0
LINE
  5
285
100
AcDbEntity
  8
SUPERFICI
100
AcDbLine
 62
250
  6
CONTINUOUS
 10
-24.120537984
 20
22.2
 11
-24.1049672978
 21
17.3454804679
  0
LINE
  5
286
100
AcDbEntity
  8
SUPERFICI
100
AcDbLine
 62
250
  6
CONTINUOUS
 10
-24.1049672978
 20
17.3454804679
 11
-24.098273886
 21
12.4429608837
  0
LINE
  5
287
100
AcDbEntity
  8
SUPERFICI
100
AcDbLine
 62
7
  6
CONTINUOUS
 10
-22.5
 20
-22.2
 11
-22.5
 21
22.2
  0
LINE
  5
288
100
AcDbEntity
  8
SUPERFICI
100
AcDbLine
 62
250
  6
CONTINUOUS
 10
-22.2
 20
24.1389563567
 11
-22.2
 21
22.5000173892
  0
LINE
  5
289
100
AcDbEntity
  8
SUPERFICI
100
AcDbLine
 62
250
  6
CONTINUOUS
 10
-22.2
 20
-24.1389563567
 11
-22.2
 21
-22.5000173892
  0
LINE
  5
28A
100
AcDbEntity
  8
SUPERFICI
100
AcDbLine
 62
250
  6
CONTINUOUS
 10
-24.098273886
 20
12.4429608837
 11
-24.1002563408
 21
-14.9031020238
  0
LWPOLYLINE
  5
28B
100
AcDbEntity
  8
SUPERFICI
100
AcDbPolyline
 62
250
  6
CONTINUOUS
 90
3
 70
0
 10
-24.1002563408
 20
-14.9031020238
 10
-24.1117437134
 20
-19.7797273096
 10
-24.120537984
 20
-22.2
  0
LINE
  5
28C
100
AcDbEntity
  8
SUPERFICI
100
AcDbLine
 62
250
  6
CONTINUOUS
 10
-22.16539
 20
25.91973
 11
-22.1837430903
 21
24.8717588248
  0
LINE
  5
28D
100
AcDbEntity
  8
SUPERFICI
100
AcDbLine
 62
250
  6
CONTINUOUS
 10
-22.1837430903
 20
24.8717588248
 11
-22.1999992848
 21
24.1389556972
  0
LWPOLYLINE
  5
28E
100
AcDbEntity
  8
SUPERFICI
100
AcDbPolyline
 62
250
  6
CONTINUOUS
 90
13
 70
0
 10
22.1999985696
 20
-24.1389550376
 10
22.4500978968
 20
-24.1239616601
 10
22.6967449435
 20
-24.0760359458
 10
22.9355082022
 20
-23.9957849534
 10
23.1619954055
 20
-23.8843317744
 10
23.3720834806
 20
-23.7435924868
 10
23.5621167149
 20
-23.5761709635
 10
23.7287069089
 20
-23.3848401854
 10
23.8686924493
 20
-23.1728994357
 10
23.9795674581
 20
-22.9443318775
 10
24.059388526
 20
-22.7032068866
 10
24.1066745674
 20
-22.4536353359
 10
24.1205406688
 20
-22.2000014303
  0
LINE
  5
28F
100
AcDbEntity
  8
SUPERFICI
100
AcDbLine
 62
250
  6
CONTINUOUS
 10
24.1205393264
 20
-22.2000007152
 11
24.6749921165
 21
-22.1811380671
  0
LINE
  5
290
100
AcDbEntity
  8
SUPERFICI
100
AcDbLine
 62
250
  6
CONTINUOUS
 10
24.6749921165
 20
-22.1811380671
 11
25.5045352427
 21
-22.1575709568
  0
LINE
  5
291
100
AcDbEntity
  8
SUPERFICI
100
AcDbLine
 62
250
  6
CONTINUOUS
 10
25.5045352427
 20
-22.1575709568
 11
25.9382
 21
-22.14703
  0
LINE
  5
292
100
AcDbEntity
  8
SUPERFICI
100
AcDbLine
 62
250
  6
CONTINUOUS
 10
-22.2
 20
-24.1389563567
 11
-7.3983074214
 21
-24.1003608931
  0
LINE
  5
293
100
AcDbEntity
  8
SUPERFICI
100
AcDbLine
 62
250
  6
CONTINUOUS
 10
0.0
 20
-24.1010195863
 11
4.9383979301
 21
-24.0986601921
  0
LINE
  5
294
100
AcDbEntity
  8
SUPERFICI
100
AcDbLine
 62
7
  6
CONTINUOUS
 10
22.2
 20
-22.5
 11
-22.2
 21
-22.5
  0
LINE
  5
295
100
AcDbEntity
  8
SUPERFICI
100
AcDbLine
 62
250
  6
CONTINUOUS
 10
24.120537984
 20
-22.2
 11
22.5000051
 21
-22.2
  0
LINE
  5
296
100
AcDbEntity
  8
SUPERFICI
100
AcDbLine
 62
250
  6
CONTINUOUS
 10
-22.5000051
 20
-22.2
 11
-24.120537984
 21
-22.2
  0
LWPOLYLINE
  5
297
100
AcDbEntity
  8
SUPERFICI
100
AcDbPolyline
 62
250
  6
CONTINUOUS
 90
3
 70
0
 10
-7.3983074214
 20
-24.1003608931
 10
-2.4713460298
 20
-24.0988797018
 10
0.0
 20
-24.1010195863
  0
LINE
  5
298
100
AcDbEntity
  8
SUPERFICI
100
AcDbLine
 62
250
  6
CONTINUOUS
 10
4.9383979301
 20
-24.0986601921
 11
9.8497953482
 21
-24.1043876086
  0
LWPOLYLINE
  5
299
100
AcDbEntity
  8
SUPERFICI
100
AcDbPolyline
 62
250
  6
CONTINUOUS
 90
3
 70
0
 10
9.8497953482
 20
-24.1043876086
 10
19.7058999109
 20
-24.13098609
 10
22.2
 20
-24.1389563567
  0
LINE
  5
29A
100
AcDbEntity
  8
SUPERFICI
100
AcDbLine
 62
250
  6
CONTINUOUS
 10
-25.9381269297
 20
-22.1470295245
 11
-25.0782577306
 21
-22.1690832054
  0
LINE
  5
29B
100
AcDbEntity
  8
SUPERFICI
100
AcDbLine
 62
250
  6
CONTINUOUS
 10
-25.0782577306
 20
-22.1690832054
 11
-24.4806497689
 21
-22.1874112383
  0
LINE
  5
29C
100
AcDbEntity
  8
SUPERFICI
100
AcDbLine
 62
250
  6
CONTINUOUS
 10
-24.4806497689
 20
-22.1874112383
 11
-24.1205393264
 21
-22.2000007152
  0
LINE
  5
29D
100
AcDbEntity
  8
SUPERFICI
100
AcDbLine
 62
250
  6
CONTINUOUS
 10
0.0000001396
 20
-39.1014452844
 11
-0.0032973728
 21
-37.7188656447
  0
LINE
  5
29E
100
AcDbEntity
  8
SUPERFICI
100
AcDbLine
 62
250
  6
CONTINUOUS
 10
-0.0000396923
 20
25.7030207644
 11
-0.0000003347
 21
24.1010195866
  0
LINE
  5
29F
100
AcDbEntity
  8
SUPERFICI
100
AcDbLine
 62
250
  6
CONTINUOUS
 10
-0.0000396925
 20
-25.7030004505
 11
-0.0000003347
 21
-24.1010195861
  0
LINE
  5
2A0
100
AcDbEntity
  8
SUPERFICI
100
AcDbLine
 62
7
  6
CONTINUOUS
 10
0.0000001396
 20
39.1014452844
 11
0.0000162959
 21
39.7640959792
  0
LWPOLYLINE
  5
2A1
100
AcDbEntity
  8
SUPERFICI
100
AcDbPolyline
 62
250
  6
CONTINUOUS
 90
3
 70
0
 10
-0.0032973728
 20
-37.7188656447
 10
0.0007561264
 20
-34.8392082564
 10
-0.0097015738
 20
-31.804375686
  0
LWPOLYLINE
  5
2A2
100
AcDbEntity
  8
SUPERFICI
100
AcDbPolyline
 62
250
  6
CONTINUOUS
 90
3
 70
0
 10
0.0000001396
 20
39.1014452844
 10
-0.0032973728
 20
37.7188656447
 10
0.0007561264
 20
34.8392082564
  0
LINE
  5
2A3
100
AcDbEntity
  8
SUPERFICI
100
AcDbLine
 62
7
  6
CONTINUOUS
 10
0.0000162959
 20
-39.7640959792
 11
0.0000001396
 21
-39.1014452844
  0
LWPOLYLINE
  5
2A4
100
AcDbEntity
  8
SUPERFICI
100
AcDbPolyline
 62
250
  6
CONTINUOUS
 90
6
 70
0
 10
0.0007561264
 20
34.8392082564
 10
-0.0097015738
 20
31.804375686
 10
-0.0004111223
 20
30.2696419497
 10
0.0164546758
 20
28.7455353113
 10
0.0205023437
 20
27.2229384656
 10
0.0000213532
 20
25.7029808617
  0
LWPOLYLINE
  5
2A5
100
AcDbEntity
  8
SUPERFICI
100
AcDbPolyline
 62
250
  6
CONTINUOUS
 90
5
 70
0
 10
-0.0097015738
 20
-31.804375686
 10
-0.0004111223
 20
-30.2696419497
 10
0.0164546758
 20
-28.7455353114
 10
0.0205023437
 20
-27.2229384656
 10
0.0000213532
 20
-25.7029808617
  0
LINE
  5
2A6
100
AcDbEntity
  8
SUPERFICI
100
AcDbLine
 62
7
  6
CONTINUOUS
 10
-59.7618736712
 20
0.0000005677
 11
-58.9698769438
 21
-0.0000023498
  0
LINE
  5
2A7
100
AcDbEntity
  8
SUPERFICI
100
AcDbLine
 62
7
  6
CONTINUOUS
 10
59.7618737749
 20
0.0000005677
 11
58.970240163
 21
-0.0000022816
  0
LINE
  5
2A8
100
AcDbEntity
  8
SUPERFICI
100
AcDbLine
 62
250
  6
CONTINUOUS
 10
-24.0987739229
 20
0.0000007417
 11
-48.5539082997
 21
-0.0015555781
  0
LINE
  5
2A9
100
AcDbEntity
  8
SUPERFICI
100
AcDbLine
 62
250
  6
CONTINUOUS
 10
-48.5539082997
 20
-0.0015555781
 11
-58.9694017992
 21
0.0000532982
  0
LINE
  5
2AA
100
AcDbEntity
  8
SUPERFICI
100
AcDbLine
 62
250
  6
CONTINUOUS
 10
24.0987739229
 20
0.0000007417
 11
58.9694017992
 21
0.0000532982
  0
LWPOLYLINE
  5
2AB
100
AcDbEntity
  8
0
100
AcDbPolyline
 62
7
  6
CONTINUOUS
 90
13
 70
0
 43
0.3500000006
 10
0.8571428254
 20
49.6075739594
 10
0.8571428254
 20
50.8932899323
 10
1.0714285848
 20
51.3218634338
 10
1.5000000329
 20
51.7504324036
 10
1.7142856507
 20
51.7504324036
 10
2.1428571696
 20
51.3218634338
 10
2.3571427875
 20
50.8932899323
 10
2.3571427875
 20
49.6075739594
 10
2.1428571696
 20
49.1790049896
 10
1.7142856507
 20
48.750431488
 10
1.5000000329
 20
48.750431488
 10
1.0714285848
 20
49.1790049896
 10
0.8571428254
 20
49.6075739594
  0
LWPOLYLINE
  5
2AC
100
AcDbEntity
  8
SUPERFICI
100
AcDbPolyline
 62
250
  6
CONTINUOUS
 90
13
 70
0
 10
24.1205406688
 20
22.2000014304
 10
24.1066514349
 20
22.4538256083
 10
24.0593043482
 20
22.7035319833
 10
23.9794048941
 20
22.9447323356
 10
23.8684625684
 20
23.1733029901
 10
23.728435501
 20
23.3851971787
 10
23.5618117099
 20
23.5764777961
 10
23.3717271391
 20
23.7438664582
 10
23.1615911009
 20
23.8845646739
 10
22.9351059647
 20
23.9959507079
 10
22.696417781
 20
24.076123038
 10
22.4499060524
 20
24.1239867413
 10
22.1999985696
 20
24.1389550376
  0
LINE
  5
2AD
100
AcDbEntity
  8
SUPERFICI
100
AcDbLine
 62
250
  6
CONTINUOUS
 10
22.1837430903
 20
24.8717588248
 11
22.1999992848
 21
24.1389556972
  0
LINE
  5
2AE
100
AcDbEntity
  8
SUPERFICI
100
AcDbLine
 62
250
  6
CONTINUOUS
 10
22.16539
 20
25.91973
 11
22.1837430903
 21
24.8717588248
  0
LWPOLYLINE
  5
2AF
100
AcDbEntity
  8
SUPERFICI
100
AcDbPolyline
 62
250
  6
CONTINUOUS
 90
5
 70
0
 10
25.9381269297
 20
-22.1470295245
 10
25.9204155554
 20
-20.6676730898
 10
25.8979444902
 20
-19.1072130212
 10
25.8803107802
 20
-17.4761994804
 10
25.8744817747
 20
-15.7907838109
  0
LINE
  5
2B0
100
AcDbEntity
  8
SUPERFICI
100
AcDbLine
 62
250
  6
CONTINUOUS
 10
25.8838323295
 20
12.2553369966
 11
25.907815407
 21
8.4549735208
  0
LINE
  5
2B1
100
AcDbEntity
  8
SUPERFICI
100
AcDbLine
 62
250
  6
CONTINUOUS
 10
24.120537984
 20
-22.2
 11
24.1049672978
 21
-17.3454804679
  0
LINE
  5
2B2
100
AcDbEntity
  8
SUPERFICI
100
AcDbLine
 62
250
  6
CONTINUOUS
 10
24.1049672978
 20
-17.3454804679
 11
24.098273886
 21
-12.4429608837
  0
LINE
  5
2B3
100
AcDbEntity
  8
SUPERFICI
100
AcDbLine
 62
250
  6
CONTINUOUS
 10
22.2
 20
24.1389563567
 11
22.2
 21
22.5000173892
  0
LINE
  5
2B4
100
AcDbEntity
  8
SUPERFICI
100
AcDbLine
 62
250
  6
CONTINUOUS
 10
22.2
 20
-22.5000173892
 11
22.2
 21
-24.1389563567
  0
LINE
  5
2B5
100
AcDbEntity
  8
SUPERFICI
100
AcDbLine
 62
7
  6
CONTINUOUS
 10
22.5
 20
22.2
 11
22.5
 21
-22.2
  0
LINE
  5
2B6
100
AcDbEntity
  8
SUPERFICI
100
AcDbLine
 62
250
  6
CONTINUOUS
 10
24.098273886
 20
-12.4429608837
 11
24.1002563408
 21
14.9031020238
  0
LWPOLYLINE
  5
2B7
100
AcDbEntity
  8
SUPERFICI
100
AcDbPolyline
 62
250
  6
CONTINUOUS
 90
5
 70
0
 10
25.907815407
 20
8.4549735208
 10
25.9059235124
 20
6.4528682011
 10
25.8927879489
 20
4.3802029158
 10
25.8924168125
 20
2.2308248395
 10
25.9235995284
 20
0.0000016839
  0
LWPOLYLINE
  5
2B8
100
AcDbEntity
  8
SUPERFICI
100
AcDbPolyline
 62
250
  6
CONTINUOUS
 90
3
 70
0
 10
24.1002563408
 20
14.9031020238
 10
24.1117437134
 20
19.7797273096
 10
24.120537984
 20
22.2
  0
LINE
  5
2B9
100
AcDbEntity
  8
SUPERFICI
100
AcDbLine
 62
250
  6
CONTINUOUS
 10
25.8744817747
 20
-15.7907838109
 11
25.8838323343
 21
-12.2553356297
  0
LWPOLYLINE
  5
2BA
100
AcDbEntity
  8
SUPERFICI
100
AcDbPolyline
 62
250
  6
CONTINUOUS
 90
6
 70
0
 10
25.8838323343
 20
-12.2553356297
 10
25.9078154229
 20
-8.4549715725
 10
25.9059235212
 20
-6.4528659279
 10
25.8927879384
 20
-4.3802002963
 10
25.892416788
 20
-2.2308218541
 10
25.9235995064
 20
0.0000016839
  0
LWPOLYLINE
  5
2BB
100
AcDbEntity
  8
SUPERFICI
100
AcDbPolyline
 62
250
  6
CONTINUOUS
 90
6
 70
0
 10
25.9381269297
 20
22.1470295245
 10
25.9204155563
 20
20.6676732741
 10
25.8979444923
 20
19.1072134111
 10
25.8803107821
 20
17.4762000939
 10
25.8744817736
 20
15.7907846623
 10
25.8838323295
 20
12.2553369966
  0
LINE
  5
2BC
100
AcDbEntity
  8
SUPERFICI
100
AcDbLine
 62
250
  6
CONTINUOUS
 10
22.1836951689
 20
-24.8741614732
 11
22.16539
 21
-25.91973
  0
LINE
  5
2BD
100
AcDbEntity
  8
SUPERFICI
100
AcDbLine
 62
250
  6
CONTINUOUS
 10
22.1999992848
 20
-24.1389556972
 11
22.1836951689
 21
-24.8741614732
  0
LWPOLYLINE
  5
2BE
100
AcDbEntity
  8
SUPERFICI
100
AcDbPolyline
 62
250
  6
CONTINUOUS
 90
13
 70
0
 10
-22.1999985696
 20
24.1389550376
 10
-22.4500948017
 20
24.123962038
 10
-22.6967398127
 20
24.0760372674
 10
-22.9355021392
 20
23.9957873993
 10
-23.1619897637
 20
23.884334981
 10
-23.3720791119
 20
23.7435958293
 10
-23.5621134704
 20
23.5761742389
 10
-23.7287043249
 20
23.3848436084
 10
-23.86869045
 20
23.1729029742
 10
-23.9795661306
 20
22.9443351801
 10
-24.0593878716
 20
22.7032094544
 10
-24.1066743969
 20
22.4536367889
 10
-24.1205406688
 20
22.2000014303
  0
LINE
  5
2BF
100
AcDbEntity
  8
SUPERFICI
100
AcDbLine
 62
250
  6
CONTINUOUS
 10
-24.1205393264
 20
22.2000007152
 11
-24.6749921165
 21
22.1811380671
  0
LINE
  5
2C0
100
AcDbEntity
  8
SUPERFICI
100
AcDbLine
 62
250
  6
CONTINUOUS
 10
-24.6749921165
 20
22.1811380671
 11
-25.5045352427
 21
22.1575709568
  0
LINE
  5
2C1
100
AcDbEntity
  8
SUPERFICI
100
AcDbLine
 62
250
  6
CONTINUOUS
 10
-25.5045352427
 20
22.1575709568
 11
-25.9382
 21
22.14703
  0
LINE
  5
2C2
100
AcDbEntity
  8
SUPERFICI
100
AcDbLine
 62
250
  6
CONTINUOUS
 10
18.9378734131
 20
25.8732576598
 11
22.1644173734
 21
25.9196625408
  0
LINE
  5
2C3
100
AcDbEntity
  8
SUPERFICI
100
AcDbLine
 62
250
  6
CONTINUOUS
 10
12.807099505
 20
25.8045517306
 11
18.9378734131
 21
25.8732576598
  0
LWPOLYLINE
  5
2C4
100
AcDbEntity
  8
SUPERFICI
100
AcDbPolyline
 62
250
  6
CONTINUOUS
 90
16
 70
0
 10
-22.1644173734
 20
25.9196625408
 10
-22.4593638226
 20
25.9173700448
 10
-22.7651418933
 20
25.8864369512
 10
-23.0796868897
 20
25.8257172009
 10
-23.4009166453
 20
25.7339596865
 10
-23.7253321454
 20
25.6091573881
 10
-24.0480647365
 20
25.4485166297
 10
-24.3671529499
 20
25.2480418995
 10
-24.6766912919
 20
25.0061551505
 10
-24.9663691665
 20
24.7236572342
 10
-25.2386411612
 20
24.3950116918
 10
-25.484137583
 20
24.0190948309
 10
-25.6786581773
 20
23.6057963338
 10
-25.8154209732
 20
23.1587172468
 10
-25.9018153933
 20
22.672696378
 10
-25.9381269297
 20
22.1470295245
  0
LINE
  5
2C5
100
AcDbEntity
  8
SUPERFICI
100
AcDbLine
 62
250
  6
CONTINUOUS
 10
0.0000213532
 20
25.7029808617
 11
12.807099505
 21
25.8045517306
  0
LINE
  5
2C6
100
AcDbEntity
  8
SUPERFICI
100
AcDbLine
 62
250
  6
CONTINUOUS
 10
22.2
 20
24.1389563567
 11
12.2934313473
 21
24.1102990719
  0
LINE
  5
2C7
100
AcDbEntity
  8
SUPERFICI
100
AcDbLine
 62
250
  6
CONTINUOUS
 10
12.2934313473
 20
24.1102990719
 11
7.3983074209
 21
24.1003608931
  0
LINE
  5
2C8
100
AcDbEntity
  8
SUPERFICI
100
AcDbLine
 62
250
  6
CONTINUOUS
 10
24.120537984
 20
22.2
 11
22.5000051
 21
22.2
  0
LINE
  5
2C9
100
AcDbEntity
  8
SUPERFICI
100
AcDbLine
 62
250
  6
CONTINUOUS
 10
-22.5000051
 20
22.2
 11
-24.120537984
 21
22.2
  0
LINE
  5
2CA
100
AcDbEntity
  8
SUPERFICI
100
AcDbLine
 62
7
  6
CONTINUOUS
 10
-22.2
 20
22.5
 11
22.2
 21
22.5
  0
LINE
  5
2CB
100
AcDbEntity
  8
SUPERFICI
100
AcDbLine
 62
250
  6
CONTINUOUS
 10
0.0
 20
24.1010195863
 11
-4.9383979299
 21
24.0986601921
  0
LWPOLYLINE
  5
2CC
100
AcDbEntity
  8
SUPERFICI
100
AcDbPolyline
 62
250
  6
CONTINUOUS
 90
3
 70
0
 10
7.3983074209
 20
24.1003608931
 10
2.4713460297
 20
24.0988797018
 10
0.0
 20
24.1010195863
  0
LINE
  5
2CD
100
AcDbEntity
  8
SUPERFICI
100
AcDbLine
 62
250
  6
CONTINUOUS
 10
-4.9383979299
 20
24.0986601921
 11
-9.8497953478
 21
24.1043876086
  0
LINE
  5
2CE
100
AcDbEntity
  8
SUPERFICI
100
AcDbLine
 62
250
  6
CONTINUOUS
 10
-9.8497953478
 20
24.1043876086
 11
-22.2
 21
24.1389563567
  0
LINE
  5
2CF
100
AcDbEntity
  8
SUPERFICI
100
AcDbLine
 62
250
  6
CONTINUOUS
 10
0.0000206157
 20
25.7030011834
 11
-1.5554005487
 21
25.7112450539
  0
LWPOLYLINE
  5
2D0
100
AcDbEntity
  8
SUPERFICI
100
AcDbPolyline
 62
250
  6
CONTINUOUS
 90
16
 70
0
 10
22.1644173734
 20
25.9196625408
 10
22.4593638226
 20
25.9173700448
 10
22.7651418933
 20
25.8864369512
 10
23.0796868897
 20
25.8257172009
 10
23.4009166453
 20
25.7339596865
 10
23.7253321454
 20
25.6091573881
 10
24.0480647365
 20
25.4485166297
 10
24.3671529499
 20
25.2480418995
 10
24.6766912919
 20
25.0061551505
 10
24.9663691665
 20
24.7236572342
 10
25.2386411612
 20
24.3950116918
 10
25.484137583
 20
24.0190948309
 10
25.6786581773
 20
23.6057963338
 10
25.8154209732
 20
23.1587172468
 10
25.9018153933
 20
22.672696378
 10
25.9381269297
 20
22.1470295245
  0
LINE
  5
2D1
100
AcDbEntity
  8
SUPERFICI
100
AcDbLine
 62
250
  6
CONTINUOUS
 10
-1.5554005487
 20
25.7112450539
 11
-8.1540398986
 21
25.7615588441
  0
LINE
  5
2D2
100
AcDbEntity
  8
SUPERFICI
100
AcDbLine
 62
250
  6
CONTINUOUS
 10
-8.1540398986
 20
25.7615588441
 11
-14.7171864401
 21
25.8228594207
  0
LINE
  5
2D3
100
AcDbEntity
  8
SUPERFICI
100
AcDbLine
 62
250
  6
CONTINUOUS
 10
-14.7171864401
 20
25.8228594207
 11
-18.9378656707
 21
25.8732575946
  0
LWPOLYLINE
  5
2D4
100
AcDbEntity
  8
SUPERFICI
100
AcDbPolyline
 62
250
  6
CONTINUOUS
 90
3
 70
0
 10
-18.9378656707
 20
25.8732575946
 10
-21.092643818
 20
25.9027684951
 10
-22.1644173734
 20
25.9196625408
  0
LINE
  5
2D5
100
AcDbEntity
  8
SUPERFICI
100
AcDbLine
 62
250
  6
CONTINUOUS
 10
25.9381269297
 20
22.1470295245
 11
25.0782577306
 21
22.1690832054
  0
LINE
  5
2D6
100
AcDbEntity
  8
SUPERFICI
100
AcDbLine
 62
250
  6
CONTINUOUS
 10
25.0782577306
 20
22.1690832054
 11
24.4806497689
 21
22.1874112383
  0
LINE
  5
2D7
100
AcDbEntity
  8
SUPERFICI
100
AcDbLine
 62
250
  6
CONTINUOUS
 10
24.4806497689
 20
22.1874112383
 11
24.1205393264
 21
22.2000007152
  0
LINE
  5
2D8
100
AcDbEntity
  8
SUPERFICI
100
AcDbLine
 62
250
  6
CONTINUOUS
 10
-59.6458955741
 20
28.3172110352
 11
-59.7636331457
 21
28.31682
  0
LINE
  5
2D9
100
AcDbEntity
  8
SUPERFICI
100
AcDbLine
 62
250
  6
CONTINUOUS
 10
-58.947459716
 20
28.3177900615
 11
-59.6458955741
 21
28.3172110352
  0
LWPOLYLINE
  5
2DA
100
AcDbEntity
  8
SUPERFICI
100
AcDbPolyline
 62
250
  6
CONTINUOUS
 90
3
 70
0
 10
58.947459716
 20
28.3177900615
 10
59.7453426697
 20
28.3169416932
 10
59.7636331457
 20
28.31682
  0
LINE
  5
2DB
100
AcDbEntity
  8
0
100
AcDbLine
 62
7
  6
CONTINUOUS
 10
59.7695813662
 20
37.0
 11
60.0003826676
 21
37.0
  0
LINE
  5
2DC
100
AcDbEntity
  8
0
100
AcDbLine
 62
7
  6
CONTINUOUS
 10
-59.7695813662
 20
37.0
 11
-60.0003826676
 21
37.0
  0
LWPOLYLINE
  5
2DD
100
AcDbEntity
  8
SUPERFICI
100
AcDbPolyline
 62
250
  6
CONTINUOUS
 90
4
 70
0
 10
-57.0682215025
 20
38.9547078945
 10
-56.0569574146
 20
38.9940384555
 10
-55.0049705437
 20
39.0169809737
 10
-51.5835643183
 20
39.0638639199
  0
LWPOLYLINE
  5
2DE
100
AcDbEntity
  8
SUPERFICI
100
AcDbPolyline
 62
250
  6
CONTINUOUS
 90
10
 70
0
 10
-58.91008
 20
37.05298
 10
-59.0623649281
 20
37.0507417784
 10
-59.2055272815
 20
37.0473259638
 10
-59.3375225476
 20
37.0428218402
 10
-59.456925551
 20
37.0372858588
 10
-59.5606239847
 20
37.0308436577
 10
-59.6449000663
 20
37.0237403057
 10
-59.7082062796
 20
37.0161673879
 10
-59.7500771808
 20
37.008213166
 10
-59.7695816451
 20
37.0
  0
LWPOLYLINE
  5
2DF
100
AcDbEntity
  8
SUPERFICI
100
AcDbPolyline
 62
250
  6
CONTINUOUS
 90
3
 70
0
 10
-51.5835643183
 20
39.0638639199
 10
-50.3342058894
 20
39.0749875997
 10
-47.6813730087
 20
39.0860779416
  0
LINE
  5
2E0
100
AcDbEntity
  8
SUPERFICI
100
AcDbLine
 62
250
  6
CONTINUOUS
 10
-47.6813730087
 20
39.0860779416
 11
-46.2950957702
 21
39.0973109842
  0
LINE
  5
2E1
100
AcDbEntity
  8
SUPERFICI
100
AcDbLine
 62
250
  6
CONTINUOUS
 10
-46.2957238086
 20
39.0964805087
 11
-39.6632426831
 21
39.1081395437
  0
LINE
  5
2E2
100
AcDbEntity
  8
SUPERFICI
100
AcDbLine
 62
250
  6
CONTINUOUS
 10
46.2962593494
 20
39.7572985412
 11
57.0
 21
39.7695142019
  0
LINE
  5
2E3
100
AcDbEntity
  8
SUPERFICI
100
AcDbLine
 62
7
  6
CONTINUOUS
 10
-46.2962593494
 20
39.7573095497
 11
0.0000007641
 21
39.7621688436
  0
LINE
  5
2E4
100
AcDbEntity
  8
0
100
AcDbLine
 62
7
  6
CONTINUOUS
 10
57.000180524
 20
40.0003858982
 11
-57.000094562
 21
40.0003994891
  0
LINE
  5
2E5
100
AcDbEntity
  8
SUPERFICI
100
AcDbLine
 62
250
  6
CONTINUOUS
 10
-39.6632426831
 20
39.1081395437
 11
-11.3504735156
 21
39.1107677165
  0
LINE
  5
2E6
100
AcDbEntity
  8
SUPERFICI
100
AcDbLine
 62
7
  6
CONTINUOUS
 10
0.0000007641
 20
39.7621688436
 11
46.2962593494
 21
39.7572985412
  0
LINE
  5
2E7
100
AcDbEntity
  8
SUPERFICI
100
AcDbLine
 62
250
  6
CONTINUOUS
 10
14.3453792911
 20
39.110157999
 11
-0.0000027146
 21
39.0970495127
  0
LINE
  5
2E8
100
AcDbEntity
  8
SUPERFICI
100
AcDbLine
 62
250
  6
CONTINUOUS
 10
-11.3504735156
 20
39.1107677165
 11
0.0000001396
 21
39.1014452844
  0
LWPOLYLINE
  5
2E9
100
AcDbEntity
  8
SUPERFICI
100
AcDbPolyline
 62
250
  6
CONTINUOUS
 90
3
 70
0
 10
46.2957238086
 20
39.0964805087
 10
42.5783487029
 20
39.1041549178
 10
14.3453792911
 20
39.110157999
  0
LINE
  5
2EA
100
AcDbEntity
  8
SUPERFICI
100
AcDbLine
 62
250
  6
CONTINUOUS
 10
-57.0
 20
39.7695277556
 11
-46.2962593494
 21
39.7573095497
  0
LWPOLYLINE
  5
2EB
100
AcDbEntity
  8
SUPERFICI
100
AcDbPolyline
 62
250
  6
CONTINUOUS
 90
3
 70
0
 10
50.3342058894
 20
39.0749875997
 10
47.6813730087
 20
39.0860779416
 10
46.2950957702
 20
39.0973109842
  0
LWPOLYLINE
  5
2EC
100
AcDbEntity
  8
SUPERFICI
100
AcDbPolyline
 62
250
  6
CONTINUOUS
 90
4
 70
0
 10
55.0049705437
 20
39.0169809737
 10
52.7723355221
 20
39.0461370202
 10
51.5835643183
 20
39.0638639199
 10
50.3342058894
 20
39.0749875997
  0
LWPOLYLINE
  5
2ED
100
AcDbEntity
  8
SUPERFICI
100
AcDbPolyline
 62
250
  6
CONTINUOUS
 90
3
 70
0
 10
57.0682215025
 20
38.9547078945
 10
56.0569574146
 20
38.9940384555
 10
55.0049705437
 20
39.0169809737
  0
LINE
  5
2EE
100
AcDbEntity
  8
SUPERFICI
100
AcDbLine
 62
250
  6
CONTINUOUS
 10
46.2961541686
 20
-39.7597603321
 11
46.2957238086
 21
-39.0964805087
  0
LINE
  5
2EF
100
AcDbEntity
  8
SUPERFICI
100
AcDbLine
 62
250
  6
CONTINUOUS
 10
46.2957238086
 20
39.0964805087
 11
46.2961541686
 21
39.7597603321
  0
LINE
  5
2F0
100
AcDbEntity
  8
RACCORDO
100
AcDbLine
 62
7
  6
CONTINUOUS
 10
59.9860266582
 20
3.6860137352
 11
59.888951878
 21
3.5239590572
  0
LWPOLYLINE
  5
2F1
100
AcDbEntity
  8
SUPERFICI
100
AcDbPolyline
 62
250
  6
CONTINUOUS
 90
10
 70
0
 10
59.7695816451
 20
-37.0
 10
59.7494274036
 20
-37.0058192561
 10
59.7062886921
 20
-37.0129599963
 10
59.6414946056
 20
-37.0208000806
 10
59.5558444688
 20
-37.0287383354
 10
59.4512070121
 20
-37.0360472365
 10
59.3316256424
 20
-37.0422041232
 10
59.20044667
 20
-37.0470979687
 10
59.0592208285
 20
-37.0507085784
 10
58.91008
 20
-37.05298
  0
LWPOLYLINE
  5
2F2
100
AcDbEntity
  8
0
100
AcDbPolyline
 62
7
  6
CONTINUOUS
 90
7
 70
0
 43
0.3500000006
 10
0.0
 20
48.750431488
 10
-1.5000000329
 20
48.750431488
 10
0.0
 20
50.8932899323
 10
0.0
 20
51.3218634338
 10
-0.4285714127
 20
51.7504324036
 10
-1.0714285848
 20
51.7504324036
 10
-1.5000000329
 20
51.1075744171
  0
LWPOLYLINE
  5
2F3
100
AcDbEntity
  8
SUPERFICI
100
AcDbPolyline
 62
250
  6
CONTINUOUS
 90
10
 70
0
 10
59.7695816451
 20
37.0
 10
59.7494274036
 20
37.0058192561
 10
59.7062886921
 20
37.0129599963
 10
59.6414946056
 20
37.0208000806
 10
59.5558444688
 20
37.0287383354
 10
59.4512070121
 20
37.0360472365
 10
59.3316256424
 20
37.0422041232
 10
59.20044667
 20
37.0470979687
 10
59.0592208285
 20
37.0507085784
 10
58.91008
 20
37.05298
  0
LINE
  5
2F4
100
AcDbEntity
  8
RACCORDO
100
AcDbLine
 62
7
  6
CONTINUOUS
 10
59.8889510442
 20
-3.5239590572
 11
59.986025786
 21
-3.6860137352
  0
LINE
  5
2F5
100
AcDbEntity
  8
0
100
AcDbLine
 62
250
  6
CONTINUOUS
 10
57.0
 20
40.0003858983
 11
57.0
 21
39.7695142019
  0
LINE
  5
2F6
100
AcDbEntity
  8
0
100
AcDbLine
 62
250
  6
CONTINUOUS
 10
57.0
 20
-40.0003858983
 11
57.0
 21
-39.7695142019
  0
LWPOLYLINE
  5
2F7
100
AcDbEntity
  8
SUPERFICI
100
AcDbPolyline
 62
250
  6
CONTINUOUS
 90
13
 70
0
 10
59.7693744068
 20
37.0080377198
 10
59.7451087631
 20
37.3702639951
 10
59.6736347659
 20
37.7260040599
 10
59.5562688236
 20
38.0691341115
 10
59.395098247
 20
38.3937899208
 10
59.1929917009
 20
38.6943970539
 10
58.953573134
 20
38.9657915943
 10
58.6811554114
 20
39.2033581147
 10
58.3803890417
 20
39.4032100992
 10
58.056206648
 20
39.562087753
 10
57.7140859076
 20
39.677301281
 10
57.3599920207
 20
39.7468904902
 10
56.9999995183
 20
39.769708699
  0
LINE
  5
2F8
100
AcDbEntity
  8
SUPERFICI
100
AcDbLine
 62
250
  6
CONTINUOUS
 10
58.9298497053
 20
34.4596242509
 11
58.9231984991
 21
35.3259251092
  0
LINE
  5
2F9
100
AcDbEntity
  8
SUPERFICI
100
AcDbLine
 62
250
  6
CONTINUOUS
 10
59.7633120865
 20
-28.3168458803
 11
59.7695726352
 21
-37.0
  0
LINE
  5
2FA
100
AcDbEntity
  8
RACCORDO
100
AcDbLine
 62
7
  6
CONTINUOUS
 10
59.8745997747
 20
3.2251006478
 11
59.8745990116
 21
-3.2251006478
  0
LINE
  5
2FB
100
AcDbEntity
  8
RACCORDO
100
AcDbLine
 62
7
  6
CONTINUOUS
 10
60.0003739116
 20
-37.0084847778
 11
60.0003778186
 21
-3.9848721447
  0
LINE
  5
2FC
100
AcDbEntity
  8
RACCORDO
100
AcDbLine
 62
7
  6
CONTINUOUS
 10
60.0003787615
 20
3.9848721447
 11
60.0003826685
 21
37.008430405
  0
LINE
  5
2FD
100
AcDbEntity
  8
SUPERFICI
100
AcDbLine
 62
7
  6
CONTINUOUS
 10
59.7633187685
 20
28.3168458803
 11
59.7633120865
 21
-28.3168458803
  0
LWPOLYLINE
  5
2FE
100
AcDbEntity
  8
SUPERFICI
100
AcDbPolyline
 62
250
  6
CONTINUOUS
 90
3
 70
0
 10
58.9623374706
 20
10.8441131572
 10
58.963738688
 20
21.3385426806
 10
58.9298497053
 20
34.4596242509
  0
LINE
  5
2FF
100
AcDbEntity
  8
SUPERFICI
100
AcDbLine
 62
250
  6
CONTINUOUS
 10
58.9623374706
 20
10.8441131572
 11
58.9689217173
 21
-1.392147732
  0
LWPOLYLINE
  5
300
100
AcDbEntity
  8
SUPERFICI
100
AcDbPolyline
 62
250
  6
CONTINUOUS
 90
3
 70
0
 10
58.9689217173
 20
-1.392147732
 10
58.964808599
 20
-5.5858262176
 10
58.963201985
 20
-22.4182232262
  0
LINE
  5
301
100
AcDbEntity
  8
SUPERFICI
100
AcDbLine
 62
250
  6
CONTINUOUS
 10
59.7695813662
 20
37.0
 11
59.7633187685
 21
28.3168458803
  0
LWPOLYLINE
  5
302
100
AcDbEntity
  8
SUPERFICI
100
AcDbPolyline
 62
250
  6
CONTINUOUS
 90
4
 70
0
 10
58.9231984991
 20
35.3259251092
 10
58.9228766734
 20
36.1926134744
 10
58.9201076014
 20
36.6264475155
 10
58.9101429391
 20
37.0530891289
  0
LINE
  5
303
100
AcDbEntity
  8
SUPERFICI
100
AcDbLine
 62
250
  6
CONTINUOUS
 10
58.963201985
 20
-22.4182232262
 11
58.9386218933
 21
-32.0490158663
  0
LWPOLYLINE
  5
304
100
AcDbEntity
  8
SUPERFICI
100
AcDbPolyline
 62
250
  6
CONTINUOUS
 90
3
 70
0
 10
58.9228766734
 20
-36.1926134744
 10
58.9201076014
 20
-36.6264475155
 10
58.9101429391
 20
-37.0530891289
  0
LWPOLYLINE
  5
305
100
AcDbEntity
  8
SUPERFICI
100
AcDbPolyline
 62
250
  6
CONTINUOUS
 90
4
 70
0
 10
58.9386218933
 20
-32.0490158663
 10
58.9269625602
 20
-34.9012113966
 10
58.9231984991
 20
-35.3259251092
 10
58.9228766734
 20
-36.1926134744
  0
LWPOLYLINE
  5
306
100
AcDbEntity
  8
SUPERFICI
100
AcDbPolyline
 62
250
  6
CONTINUOUS
 90
13
 70
0
 10
59.7693744068
 20
-37.0080377198
 10
59.7451087631
 20
-37.3702639951
 10
59.6736347659
 20
-37.7260040599
 10
59.5562688236
 20
-38.0691341115
 10
59.395098247
 20
-38.3937899208
 10
59.1929917009
 20
-38.6943970539
 10
58.953573134
 20
-38.9657915943
 10
58.6811554114
 20
-39.2033581147
 10
58.3803890417
 20
-39.4032100992
 10
58.056206648
 20
-39.562087753
 10
57.7140859076
 20
-39.677301281
 10
57.3599920207
 20
-39.7468904902
 10
56.9999995183
 20
-39.769708699
  0
LWPOLYLINE
  5
307
100
AcDbEntity
  8
SUPERFICI
100
AcDbPolyline
 62
250
  6
CONTINUOUS
 90
16
 70
0
 10
58.9101429391
 20
-37.0530891289
 10
58.8825412065
 20
-37.3034946423
 10
58.8349953224
 20
-37.5357755766
 10
58.7667681708
 20
-37.7502610608
 10
58.6736633699
 20
-37.9487576692
 10
58.5580638571
 20
-38.1298680469
 10
58.4305092586
 20
-38.2905509852
 10
58.2946782546
 20
-38.4327730844
 10
58.1485856109
 20
-38.5578900283
 10
57.9966767443
 20
-38.6638361294
 10
57.8422806598
 20
-38.7524724472
 10
57.6856973338
 20
-38.8254746033
 10
57.5280971236
 20
-38.8811445999
 10
57.3713485355
 20
-38.9199283183
 10
57.2175133979
 20
-38.9441146596
 10
57.0682215025
 20
-38.9547078945
  0
LWPOLYLINE
  5
308
100
AcDbEntity
  8
SUPERFICI
100
AcDbPolyline
 62
250
  6
CONTINUOUS
 90
16
 70
0
 10
58.9101429391
 20
37.0530891289
 10
58.8825412065
 20
37.3034946423
 10
58.8349953224
 20
37.5357755766
 10
58.7667681708
 20
37.7502610608
 10
58.6736633699
 20
37.9487576692
 10
58.5580638571
 20
38.1298680469
 10
58.4305092586
 20
38.2905509852
 10
58.2946782546
 20
38.4327730844
 10
58.1485856109
 20
38.5578900283
 10
57.9966767443
 20
38.6638361294
 10
57.8422806598
 20
38.7524724472
 10
57.6856973338
 20
38.8254746033
 10
57.5280971236
 20
38.8811445999
 10
57.3713485355
 20
38.9199283183
 10
57.2175133979
 20
38.9441146596
 10
57.0682215025
 20
38.9547078945
  0
LWPOLYLINE
  5
309
100
AcDbEntity
  8
SUPERFICI
100
AcDbPolyline
 62
250
  6
CONTINUOUS
 90
10
 70
0
 10
57.0
 20
-39.7695130549
 10
57.0108874029
 20
-39.7503618567
 10
57.0213860294
 20
-39.7095997187
 10
57.0313468408
 20
-39.6484350932
 10
57.040667623
 20
-39.5676088379
 10
57.0491243197
 20
-39.4687842774
 10
57.0564292291
 20
-39.3555208089
 10
57.0624436395
 20
-39.2307829016
 10
57.067119191
 20
-39.0959716325
 10
57.07037
 20
-38.953
  0
LWPOLYLINE
  5
30A
100
AcDbEntity
  8
SUPERFICI
100
AcDbPolyline
 62
250
  6
CONTINUOUS
 90
10
 70
0
 10
57.0
 20
39.7695130549
 10
57.0108874029
 20
39.7503618567
 10
57.0213860294
 20
39.7095997187
 10
57.0313468408
 20
39.6484350932
 10
57.040667623
 20
39.5676088379
 10
57.0491243197
 20
39.4687842774
 10
57.0564292291
 20
39.3555208089
 10
57.0624436395
 20
39.2307829016
 10
57.067119191
 20
39.0959716325
 10
57.07037
 20
38.953
  0
LWPOLYLINE
  5
30B
100
AcDbEntity
  8
0
100
AcDbPolyline
 62
7
  6
CONTINUOUS
 90
10
 70
0
 43
0.3500000006
 10
-95.5655779724
 20
48.750431488
 10
-94.7084309692
 20
49.6075739594
 10
-94.4941464844
 20
50.4647209625
 10
-94.4941464844
 20
51.3218634338
 10
-94.9227154541
 20
51.7504324036
 10
-95.5655779724
 20
51.7504324036
 10
-95.9941469421
 20
51.3218634338
 10
-95.9941469421
 20
50.4647209625
 10
-95.5655779724
 20
50.0361474609
 10
-94.6369997864
 20
50.0361474609
  0
LINE
  5
30C
100
AcDbEntity
  8
0
100
AcDbLine
 62
7
  6
CONTINUOUS
 10
-88.3797667581
 20
-40.0003858983
 11
-92.7849563404
 21
-39.7695142019
  0
LINE
  5
30D
100
AcDbEntity
  8
RACCORDO
100
AcDbLine
 62
7
  6
CONTINUOUS
 10
-88.1797667581
 20
-38.5088090866
 11
-88.3797667581
 21
-38.4983272814
  0
LINE
  5
30E
100
AcDbEntity
  8
SUPERFICI
100
AcDbLine
 62
7
  6
CONTINUOUS
 10
-92.7849570508
 20
-39.7695277556
 11
-93.018063834
 21
-39.7572985412
  0
LWPOLYLINE
  5
30F
100
AcDbEntity
  8
SUPERFICI
100
AcDbPolyline
 62
250
  6
CONTINUOUS
 90
4
 70
0
 10
-92.7849563909
 20
-39.7695130549
 10
-92.9341976341
 20
-39.7503618567
 10
-93.0769455954
 20
-39.7095997187
 10
-93.2112064469
 20
-39.6484350932
  0
LWPOLYLINE
  5
310
100
AcDbEntity
  8
SUPERFICI
100
AcDbPolyline
 62
250
  6
CONTINUOUS
 90
7
 70
0
 10
-93.2112064469
 20
39.6484350932
 10
-93.335608083
 20
39.5676088379
 10
-93.4471451948
 20
39.4687842774
 10
-93.5420332322
 20
39.3555208089
 10
-93.6185126198
 20
39.2307829016
 10
-93.6759889486
 20
39.0959716325
 10
-93.7133767581
 20
38.953
  0
LINE
  5
311
100
AcDbEntity
  8
SUPERFICI
100
AcDbLine
 62
250
  6
CONTINUOUS
 10
-93.6333470127
 20
-37.0470979687
 11
-93.7202267581
 21
-37.05298
  0
LWPOLYLINE
  5
312
100
AcDbEntity
  8
SUPERFICI
100
AcDbPolyline
 62
250
  6
CONTINUOUS
 90
5
 70
0
 10
-92.7837100932
 20
-37.0
 10
-92.9380316939
 20
-37.0058192561
 10
-93.0852324172
 20
-37.0129599963
 10
-93.2231587642
 20
-37.0208000806
 10
-93.6333470127
 20
-37.0470979687
  0
LINE
  5
313
100
AcDbEntity
  8
RACCORDO
100
AcDbLine
 62
7
  6
CONTINUOUS
 10
-88.3797667581
 20
-37.0015380822
 11
-88.1797667581
 21
-37.0010276448
  0
LINE
  5
314
100
AcDbEntity
  8
0
100
AcDbLine
 62
7
  6
CONTINUOUS
 10
-92.7837095426
 20
-37.0
 11
-88.3797667581
 21
-37.0
  0
LWPOLYLINE
  5
315
100
AcDbEntity
  8
SUPERFICI
100
AcDbPolyline
 62
250
  6
CONTINUOUS
 90
7
 70
0
 10
-93.2112064469
 20
-39.6484350932
 10
-93.335608083
 20
-39.5676088379
 10
-93.4471451948
 20
-39.4687842774
 10
-93.5420332322
 20
-39.3555208089
 10
-93.6185126198
 20
-39.2307829016
 10
-93.6759889486
 20
-39.0959716325
 10
-93.7133767581
 20
-38.953
  0
LWPOLYLINE
  5
316
100
AcDbEntity
  8
SUPERFICI
100
AcDbPolyline
 62
7
  6
CONTINUOUS
 90
31
 70
0
 10
-93.5521421364
 20
39.567970458
 10
-93.5763594174
 20
39.5496473025
 10
-93.5995690149
 20
39.5309792355
 10
-93.6217823292
 20
39.5120244894
 10
-93.6432694487
 20
39.4926002409
 10
-93.663776354
 20
39.4729838967
 10
-93.6825888779
 20
39.4539862726
 10
-93.699420785
 20
39.43610907
 10
-93.7147251227
 20
39.4190748673
 10
-93.7289272047
 20
39.4025507095
 10
-93.7421399218
 20
39.3865093428
 10
-93.7543374448
 20
39.3710838847
 10
-93.7657004096
 20
39.3561398025
 10
-93.7762158177
 20
39.3417791227
 10
-93.7859657645
 20
39.3279727904
 10
-93.7952445491
 20
39.3143616221
 10
-93.804086656
 20
39.3009301102
 10
-93.8124849404
 20
39.2877242433
 10
-93.8206395719
 20
39.2744505891
 10
-93.8285426183
 20
39.2611284733
 10
-93.8362041577
 20
39.2477474045
 10
-93.8438223333
 20
39.2339477321
 10
-93.8514274914
 20
39.2196349532
 10
-93.8589553075
 20
39.2048880177
 10
-93.8664403631
 20
39.189593037
 10
-93.8738348977
 20
39.1737947609
 10
-93.8811422232
 20
39.157429227
 10
-93.8884530017
 20
39.1402074139
 10
-93.8959013084
 20
39.121661138
 10
-93.9032504088
 20
39.1022103487
 10
-93.9059207648
 20
39.0948201062
  0
LINE
  5
317
100
AcDbEntity
  8
RACCORDO
100
AcDbLine
 62
250
  6
CONTINUOUS
 10
-88.3797667581
 20
-33.6847795849
 11
-88.1797667581
 21
-33.6824436645
  0
LINE
  5
318
100
AcDbEntity
  8
RACCORDO
100
AcDbLine
 62
250
  6
CONTINUOUS
 10
-88.3797667581
 20
-34.1501171787
 11
-88.1797667581
 21
-34.1481740386
  0
LINE
  5
319
100
AcDbEntity
  8
RACCORDO
100
AcDbLine
 62
250
  6
CONTINUOUS
 10
-88.1797667581
 20
-30.3175552951
 11
-88.3797667581
 21
-30.3152194095
  0
LINE
  5
31A
100
AcDbEntity
  8
SUPERFICI
100
AcDbLine
 62
250
  6
CONTINUOUS
 10
-93.8291991006
 20
-28.3177900615
 11
-92.8982795436
 21
-28.31682
  0
LINE
  5
31B
100
AcDbEntity
  8
RACCORDO
100
AcDbLine
 62
250
  6
CONTINUOUS
 10
-88.1797667581
 20
-29.8518249475
 11
-88.3797667581
 21
-29.8498818315
  0
LINE
  5
31C
100
AcDbEntity
  8
SUPERFICI
100
AcDbLine
 62
7
  6
CONTINUOUS
 10
-93.9054448247
 20
39.0960034451
 11
-93.9047237673
 21
39.0973109842
  0
LWPOLYLINE
  5
31D
100
AcDbEntity
  8
SUPERFICI
100
AcDbPolyline
 62
250
  6
CONTINUOUS
 90
4
 70
0
 10
-96.5059661252
 20
25.8598531197
 10
-96.4844535279
 20
25.8874066897
 10
-96.4725658058
 20
25.9027685173
 10
-96.4598413444
 20
25.9196625408
  0
LWPOLYLINE
  5
31E
100
AcDbEntity
  8
SUPERFICI
100
AcDbPolyline
 62
250
  6
CONTINUOUS
 90
10
 70
0
 10
-97.1641869946
 20
-22.2000007152
 10
-97.034560256
 20
-22.1936530783
 10
-96.9185105203
 20
-22.1873573998
 10
-96.8163982947
 20
-22.1811380671
 10
-96.7284643353
 20
-22.1750104687
 10
-96.6552435199
 20
-22.1690091556
 10
-96.5973366753
 20
-22.1631855832
 10
-96.5549575185
 20
-22.1575709568
 10
-96.5281608887
 20
-22.152178493
 10
-96.5170967581
 20
-22.14703
  0
LINE
  5
31F
100
AcDbEntity
  8
SUPERFICI
100
AcDbLine
 62
250
  6
CONTINUOUS
 10
-97.1641884083
 20
-22.2
 11
-97.3800094129
 21
-22.2
  0
LWPOLYLINE
  5
320
100
AcDbEntity
  8
SUPERFICI
100
AcDbPolyline
 62
250
  6
CONTINUOUS
 90
3
 70
0
 10
-96.4844535279
 20
-25.8874066897
 10
-96.4725658058
 20
-25.9027685173
 10
-96.4598413444
 20
-25.9196625408
  0
LINE
  5
321
100
AcDbEntity
  8
SUPERFICI
100
AcDbLine
 62
7
  6
CONTINUOUS
 10
-93.9054448247
 20
-39.0960034451
 11
-93.9047237673
 21
-39.0973109842
  0
LWPOLYLINE
  5
322
100
AcDbEntity
  8
0
100
AcDbPolyline
 62
7
  6
CONTINUOUS
 90
3
 70
0
 43
0.3500000006
 10
-92.9227148438
 20
49.0361471558
 10
-92.9941460266
 20
48.8218626709
 10
-93.1369993286
 20
48.5361470032
  0
LINE
  5
323
100
AcDbEntity
  8
SUPERFICI
100
AcDbLine
 62
7
  6
CONTINUOUS
 10
-93.9059207648
 20
39.0948201062
 11
-93.9054448247
 21
39.0960034451
  0
LINE
  5
324
100
AcDbEntity
  8
SUPERFICI
100
AcDbLine
 62
7
  6
CONTINUOUS
 10
-96.9237480067
 20
24.5053968632
 11
-96.9719495961
 21
24.4172464147
  0
LWPOLYLINE
  5
325
100
AcDbEntity
  8
SUPERFICI
100
AcDbPolyline
 62
7
  6
CONTINUOUS
 90
4
 70
0
 10
-96.8472298033
 20
24.5760380372
 10
-96.8984430318
 20
24.4891867529
 10
-97.0174483987
 20
24.3097094913
 10
-97.1492566446
 20
24.1389556972
  0
LWPOLYLINE
  5
326
100
AcDbEntity
  8
SUPERFICI
100
AcDbPolyline
 62
7
  6
CONTINUOUS
 90
3
 70
0
 10
-96.9719351516
 20
24.41727181
 10
-97.028829894
 20
24.3214341276
 10
-97.0944490135
 20
24.2200613191
  0
LINE
  5
327
100
AcDbEntity
  8
SUPERFICI
100
AcDbLine
 62
7
  6
CONTINUOUS
 10
-97.0944490135
 20
24.2200613191
 11
-97.1510176484
 21
24.1402029009
  0
LWPOLYLINE
  5
328
100
AcDbEntity
  8
SUPERFICI
100
AcDbPolyline
 62
7
  6
CONTINUOUS
 90
4
 70
0
 10
-97.1492566446
 20
-24.1389556972
 10
-97.0168351291
 20
-24.3105662704
 10
-96.8974840213
 20
-24.4907534366
 10
-96.8472298033
 20
-24.5760380372
  0
LINE
  5
329
100
AcDbEntity
  8
SUPERFICI
100
AcDbLine
 62
7
  6
CONTINUOUS
 10
-97.1696820783
 20
-24.1138541681
 11
-97.0955251858
 21
-24.2184710738
  0
LINE
  5
32A
100
AcDbEntity
  8
SUPERFICI
100
AcDbLine
 62
7
  6
CONTINUOUS
 10
-97.0955251858
 20
-24.2184710738
 11
-97.0306541177
 21
-24.3184913028
  0
LWPOLYLINE
  5
32B
100
AcDbEntity
  8
SUPERFICI
100
AcDbPolyline
 62
7
  6
CONTINUOUS
 90
3
 70
0
 10
-97.0306541177
 20
-24.3184913028
 10
-96.9742281991
 20
-24.4132475294
 10
-96.9262363939
 20
-24.5006693616
  0
LWPOLYLINE
  5
32C
100
AcDbEntity
  8
SUPERFICI
100
AcDbPolyline
 62
250
  6
CONTINUOUS
 90
7
 70
0
 10
-96.8472298033
 20
-24.5760380372
 10
-96.7915725768
 20
-24.6787707688
 10
-96.6993456961
 20
-24.8741614732
 10
-96.621349519
 20
-25.0758838564
 10
-96.5582142903
 20
-25.2822272713
 10
-96.5101802928
 20
-25.4920388535
 10
-96.4773150425
 20
-25.7048074195
  0
LINE
  5
32D
100
AcDbEntity
  8
SUPERFICI
100
AcDbLine
 62
7
  6
CONTINUOUS
 10
-93.9059205536
 20
-39.0948206981
 11
-93.9054448247
 21
-39.0960034451
  0
LWPOLYLINE
  5
32E
100
AcDbEntity
  8
SUPERFICI
100
AcDbPolyline
 62
7
  6
CONTINUOUS
 90
11
 70
0
 10
-94.8121378594
 20
36.3569731206
 10
-94.9043635185
 20
36.0401016734
 10
-94.9918582376
 20
35.7293013147
 10
-95.075124254
 20
35.4233718438
 10
-95.1539136551
 20
35.1239406336
 10
-95.2283668323
 20
34.8312866717
 10
-95.2987633867
 20
34.5451200408
 10
-95.3651101133
 20
34.2662439872
 10
-95.4275742342
 20
33.9948373685
 10
-95.4864348063
 20
33.7306529153
 10
-95.541885411
 20
33.4738202205
  0
LWPOLYLINE
  5
32F
100
AcDbEntity
  8
SUPERFICI
100
AcDbPolyline
 62
7
  6
CONTINUOUS
 90
8
 70
0
 10
-94.0825404959
 20
38.5964954682
 10
-94.1932779392
 20
38.2787793869
 10
-94.3021953381
 20
37.9605175122
 10
-94.409176351
 20
37.6410080714
 10
-94.5138434987
 20
37.3207526016
 10
-94.6158204057
 20
37.0005022212
 10
-94.7154370166
 20
36.6787904188
 10
-94.8121380273
 20
36.3569725529
  0
LINE
  5
330
100
AcDbEntity
  8
SUPERFICI
100
AcDbLine
 62
7
  6
CONTINUOUS
 10
-93.9061288649
 20
39.0936230838
 11
-94.0825404959
 21
38.5964954682
  0
LWPOLYLINE
  5
331
100
AcDbEntity
  8
SUPERFICI
100
AcDbPolyline
 62
7
  6
CONTINUOUS
 90
5
 70
0
 10
-96.7816263267
 20
24.8184108156
 10
-96.8117363729
 20
24.7435181812
 10
-96.8454430115
 20
24.6659372763
 10
-96.8825391206
 20
24.5868469365
 10
-96.9237480067
 20
24.5053968632
  0
LWPOLYLINE
  5
332
100
AcDbEntity
  8
SUPERFICI
100
AcDbPolyline
 62
7
  6
CONTINUOUS
 90
5
 70
0
 10
-96.9262363939
 20
-24.5006693616
 10
-96.8850470538
 20
-24.5817091012
 10
-96.8478721478
 20
-24.6605695805
 10
-96.8140280401
 20
-24.7380481262
 10
-96.7837117059
 20
-24.8130302823
  0
LWPOLYLINE
  5
333
100
AcDbEntity
  8
SUPERFICI
100
AcDbPolyline
 62
7
  6
CONTINUOUS
 90
34
 70
0
 10
-93.9059205536
 20
-39.0948206981
 10
-93.9017934831
 20
-39.1061665224
 10
-93.894580495
 20
-39.1250303722
 10
-93.8874429854
 20
-39.1426414569
 10
-93.8807058301
 20
-39.1584293026
 10
-93.8741820449
 20
-39.1730349434
 10
-93.8677081288
 20
-39.1869351893
 10
-93.8613172822
 20
-39.200132709
 10
-93.8550302145
 20
-39.2126527006
 10
-93.8486221549
 20
-39.2249801119
 10
-93.8420464953
 20
-39.2372108369
 10
-93.8353577315
 20
-39.2492494427
 10
-93.8284562955
 20
-39.2612765535
 10
-93.8213212917
 20
-39.2733196972
 10
-93.8139688818
 20
-39.2853428416
 10
-93.8063447446
 20
-39.297423722
 10
-93.7984416877
 20
-39.3095587361
 10
-93.7902566734
 20
-39.3217376999
 10
-93.7817354916
 20
-39.3340233357
 10
-93.7728962425
 20
-39.3463701206
 10
-93.763706264
 20
-39.3588043522
 10
-93.7540247994
 20
-39.3714870394
 10
-93.7439001138
 20
-39.3843209715
 10
-93.7332557847
 20
-39.3973688464
 10
-93.7217373062
 20
-39.4110057707
 10
-93.7094108671
 20
-39.4250776134
 10
-93.6961431426
 20
-39.4396586004
 10
-93.681220192
 20
-39.4554024965
 10
-93.6642825047
 20
-39.4724856765
 10
-93.645511984
 20
-39.4905078939
 10
-93.6249725855
 20
-39.5092101923
 10
-93.6026392286
 20
-39.5284245273
 10
-93.5783869694
 20
-39.5480607766
 10
-93.5521421364
 20
-39.567970458
  0
LWPOLYLINE
  5
334
100
AcDbEntity
  8
SUPERFICI
100
AcDbPolyline
 62
7
  6
CONTINUOUS
 90
9
 70
0
 10
-94.8121379655
 20
-36.3569727621
 10
-94.7154369997
 20
-36.6787904743
 10
-94.61582042
 20
-37.0005021756
 10
-94.5138435145
 20
-37.3207525524
 10
-94.4091763505
 20
-37.6410080727
 10
-94.3021953264
 20
-37.9605175467
 10
-94.193277934
 20
-38.2787794019
 10
-94.0825405039
 20
-38.5964954456
 10
-93.9061288649
 20
-39.0936230838
  0
LWPOLYLINE
  5
335
100
AcDbEntity
  8
SUPERFICI
100
AcDbPolyline
 62
7
  6
CONTINUOUS
 90
3
 70
0
 10
-95.5418856065
 20
33.473819301
 10
-95.5941226361
 20
33.2243962712
 10
-95.6433851438
 20
32.9821594023
  0
LWPOLYLINE
  5
336
100
AcDbEntity
  8
SUPERFICI
100
AcDbPolyline
 62
7
  6
CONTINUOUS
 90
5
 70
0
 10
-96.6676683396
 20
25.1797656445
 10
-96.6863272439
 20
25.1080604438
 10
-96.706875298
 20
25.0364334359
 10
-96.7293254857
 20
24.9649530951
 10
-96.7542119479
 20
24.8922170617
  0
LWPOLYLINE
  5
337
100
AcDbEntity
  8
0
100
AcDbPolyline
 62
7
  6
CONTINUOUS
 90
13
 70
0
 43
0.3500000006
 10
-109.1696517334
 20
-1.9285708809
 10
-109.3839362183
 20
-2.2142854156
 10
-110.0267896729
 20
-2.2142854156
 10
-110.4553586426
 20
-1.9285708809
 10
-110.4553586426
 20
-1.2857140274
 10
-110.0267896729
 20
-1.0000006256
 10
-109.3839362183
 20
-1.0000006256
 10
-109.1696517334
 20
-1.2857140274
 10
-108.7410737
 20
-0.8571427917
 10
-107.8839357605
 20
-0.8571427917
 10
-107.4553667908
 20
-1.2857140274
 10
-107.4553667908
 20
-1.9285708809
 10
-107.8839357605
 20
-2.3571432495
  0
LWPOLYLINE
  5
338
100
AcDbEntity
  8
SUPERFICI
100
AcDbPolyline
 62
7
  6
CONTINUOUS
 90
5
 70
0
 10
-96.7560242748
 20
-24.887148507
 10
-96.7307981599
 20
-24.9604733971
 10
-96.7079768559
 20
-25.0327747732
 10
-96.6870740721
 20
-25.1053344853
 10
-96.6680803493
 20
-25.1781000292
  0
LWPOLYLINE
  5
339
100
AcDbEntity
  8
SUPERFICI
100
AcDbPolyline
 62
7
  6
CONTINUOUS
 90
5
 70
0
 10
-95.1539134787
 20
-35.1239413157
 10
-95.0751240927
 20
-35.4233724463
 10
-94.9918581041
 20
-35.7293017972
 10
-94.904363417
 20
-36.040102028
 10
-94.8121377976
 20
-36.3569733297
  0
LWPOLYLINE
  5
33A
100
AcDbEntity
  8
SUPERFICI
100
AcDbPolyline
 62
7
  6
CONTINUOUS
 90
3
 70
0
 10
-95.2987634528
 20
-34.5451197676
 10
-95.2283668945
 20
-34.831286423
 10
-95.1539137172
 20
-35.1239403935
  0
LINE
  5
33B
100
AcDbEntity
  8
SUPERFICI
100
AcDbLine
 62
7
  6
CONTINUOUS
 10
-95.3651099608
 20
-34.2662446391
 11
-95.2987632212
 21
-34.5451207252
  0
LWPOLYLINE
  5
33C
100
AcDbEntity
  8
SUPERFICI
100
AcDbPolyline
 62
7
  6
CONTINUOUS
 90
4
 70
0
 10
-95.541885501
 20
-33.473819797
 10
-95.48643489
 20
-33.7306525336
 10
-95.4275743111
 20
-33.9948370288
 10
-95.3651101844
 20
-34.2662436833
  0
LWPOLYLINE
  5
33D
100
AcDbEntity
  8
SUPERFICI
100
AcDbPolyline
 62
7
  6
CONTINUOUS
 90
7
 70
0
 10
-96.3818880683
 20
28.1054706027
 10
-96.4083317481
 20
27.8540059763
 10
-96.4333477986
 20
27.6052078104
 10
-96.4569495227
 20
27.3591851741
 10
-96.4791917933
 20
27.1156529923
 10
-96.499468314
 20
26.8821190542
 10
-96.5348931338
 20
26.4417771545
  0
LINE
  5
33E
100
AcDbEntity
  8
SUPERFICI
100
AcDbLine
 62
7
  6
CONTINUOUS
 10
-96.3277869519
 20
28.5893980938
 11
-96.3818880683
 21
28.1054706027
  0
LINE
  5
33F
100
AcDbEntity
  8
SUPERFICI
100
AcDbLine
 62
7
  6
CONTINUOUS
 10
-96.2728932824
 20
29.0468196204
 11
-96.3277869519
 21
28.5893980938
  0
LWPOLYLINE
  5
340
100
AcDbEntity
  8
SUPERFICI
100
AcDbPolyline
 62
7
  6
CONTINUOUS
 90
5
 70
0
 10
-96.5997448958
 20
25.5565849752
 10
-96.6098289153
 20
25.478056169
 10
-96.6218319224
 20
25.4006908537
 10
-96.6355962525
 20
25.324956396
 10
-96.6508690823
 20
25.2515423372
  0
LINE
  5
341
100
AcDbEntity
  8
SUPERFICI
100
AcDbLine
 62
7
  6
CONTINUOUS
 10
-96.219016937
 20
29.4694836549
 11
-96.2728932824
 21
29.0468196204
  0
LINE
  5
342
100
AcDbEntity
  8
SUPERFICI
100
AcDbLine
 62
7
  6
CONTINUOUS
 10
-96.1642466917
 20
29.8764323346
 11
-96.219016937
 21
29.4694836549
  0
LINE
  5
343
100
AcDbEntity
  8
SUPERFICI
100
AcDbLine
 62
7
  6
CONTINUOUS
 10
-96.1079159446
 20
30.2741344806
 11
-96.164246418
 21
29.8764343163
  0
LINE
  5
344
100
AcDbEntity
  8
SUPERFICI
100
AcDbLine
 62
7
  6
CONTINUOUS
 10
-96.0494680776
 20
30.6670576726
 11
-96.1079159446
 21
30.2741344806
  0
LWPOLYLINE
  5
345
100
AcDbEntity
  8
SUPERFICI
100
AcDbPolyline
 62
250
  6
CONTINUOUS
 90
7
 70
0
 10
-96.4774386194
 20
25.703760701
 10
-96.5105263451
 20
25.4902343472
 10
-96.558823132
 20
25.2799509021
 10
-96.6222050706
 20
25.0734129734
 10
-96.7003769324
 20
24.8717588248
 10
-96.7926550886
 20
24.6766782806
 10
-96.8472298033
 20
24.5760380372
  0
LINE
  5
346
100
AcDbEntity
  8
SUPERFICI
100
AcDbLine
 62
7
  6
CONTINUOUS
 10
-95.988060338
 20
31.0606025034
 11
-96.0494680776
 21
30.6670576726
  0
LINE
  5
347
100
AcDbEntity
  8
SUPERFICI
100
AcDbLine
 62
7
  6
CONTINUOUS
 10
-95.9228793595
 20
31.4589687667
 11
-95.988060338
 21
31.0606025034
  0
LWPOLYLINE
  5
348
100
AcDbEntity
  8
SUPERFICI
100
AcDbPolyline
 62
7
  6
CONTINUOUS
 90
4
 70
0
 10
-95.7752664816
 20
32.2972351818
 10
-95.8147871442
 20
32.0807806919
 10
-95.8524438857
 20
31.8692893568
 10
-95.9228795693
 20
31.4589675145
  0
LWPOLYLINE
  5
349
100
AcDbEntity
  8
SUPERFICI
100
AcDbPolyline
 62
7
  6
CONTINUOUS
 90
4
 70
0
 10
-95.6433849618
 20
32.9821603101
 10
-95.6899110637
 20
32.7467912599
 10
-95.7337867716
 20
32.5186685888
 10
-95.7752663034
 20
32.2972361457
  0
LWPOLYLINE
  5
34A
100
AcDbEntity
  8
SUPERFICI
100
AcDbPolyline
 62
7
  6
CONTINUOUS
 90
5
 70
0
 10
-96.6509779569
 20
-25.251050147
 10
-96.635474842
 20
-25.325579276
 10
-96.6215529051
 20
-25.4023493191
 10
-96.6094569242
 20
-25.4806874157
 10
-96.5993531654
 20
-25.5600071852
  0
LWPOLYLINE
  5
34B
100
AcDbEntity
  8
SUPERFICI
100
AcDbPolyline
 62
7
  6
CONTINUOUS
 90
6
 70
0
 10
-95.7752662381
 20
-32.2972364986
 10
-95.7337867039
 20
-32.5186689455
 10
-95.689910991
 20
-32.7467916333
 10
-95.6433848808
 20
-32.9821607146
 10
-95.5941223554
 20
-33.2243976315
 10
-95.5418853056
 20
-33.4738207165
  0
LINE
  5
34C
100
AcDbEntity
  8
SUPERFICI
100
AcDbLine
 62
7
  6
CONTINUOUS
 10
-95.8147870782
 20
-32.0807810581
 11
-95.7752664164
 21
-32.2972355346
  0
LINE
  5
34D
100
AcDbEntity
  8
SUPERFICI
100
AcDbLine
 62
7
  6
CONTINUOUS
 10
-95.8883444907
 20
-31.6626366052
 11
-95.8147870782
 21
-32.0807810581
  0
LINE
  5
34E
100
AcDbEntity
  8
SUPERFICI
100
AcDbLine
 62
7
  6
CONTINUOUS
 10
-95.9560921413
 20
-31.2583454044
 11
-95.8883444907
 21
-31.6626366052
  0
LINE
  5
34F
100
AcDbEntity
  8
SUPERFICI
100
AcDbLine
 62
7
  6
CONTINUOUS
 10
-96.0191702714
 20
-30.8635631326
 11
-95.9560919241
 21
-31.2583467325
  0
LINE
  5
350
100
AcDbEntity
  8
SUPERFICI
100
AcDbLine
 62
7
  6
CONTINUOUS
 10
-96.0789581801
 20
-30.471173607
 11
-96.0191705026
 21
-30.8635616502
  0
LINE
  5
351
100
AcDbEntity
  8
SUPERFICI
100
AcDbLine
 62
7
  6
CONTINUOUS
 10
-96.136345111
 20
-30.0758978309
 11
-96.0789579334
 21
-30.4711752658
  0
LINE
  5
352
100
AcDbEntity
  8
SUPERFICI
100
AcDbLine
 62
7
  6
CONTINUOUS
 10
-96.1918509024
 20
-29.6739957481
 11
-96.136345111
 21
-30.0758978309
  0
LINE
  5
353
100
AcDbEntity
  8
SUPERFICI
100
AcDbLine
 62
7
  6
CONTINUOUS
 10
-96.2458520721
 20
-29.2619390547
 11
-96.1918509024
 21
-29.6739957481
  0
LINE
  5
354
100
AcDbEntity
  8
SUPERFICI
100
AcDbLine
 62
7
  6
CONTINUOUS
 10
-96.3003284154
 20
-28.8219166925
 11
-96.2458520721
 21
-29.2619390547
  0
LWPOLYLINE
  5
355
100
AcDbEntity
  8
SUPERFICI
100
AcDbPolyline
 62
7
  6
CONTINUOUS
 90
8
 70
0
 10
-96.5865137318
 20
-25.7030004505
 10
-96.6053920328
 20
-25.5106013868
 10
-96.6364780961
 20
-25.3204152306
 10
-96.6796071045
 20
-25.1329900205
 10
-96.7346652693
 20
-24.9487209391
 10
-96.8014537423
 20
-24.768324074
 10
-96.8795898893
 20
-24.5927998506
 10
-96.9687379155
 20
-24.422810102
  0
LWPOLYLINE
  5
356
100
AcDbEntity
  8
SUPERFICI
100
AcDbPolyline
 62
7
  6
CONTINUOUS
 90
7
 70
0
 10
-96.4791917454
 20
-27.1156535302
 10
-96.4569494718
 20
-27.3591857177
 10
-96.4333477444
 20
-27.6052083615
 10
-96.4083316907
 20
-27.8540065344
 10
-96.3818880074
 20
-28.1054711695
 10
-96.354927305
 20
-28.3512979977
 10
-96.3003284154
 20
-28.8219166925
  0
LINE
  5
357
100
AcDbEntity
  8
SUPERFICI
100
AcDbLine
 62
7
  6
CONTINUOUS
 10
-96.5180201202
 20
-26.6571918072
 11
-96.4791917454
 21
-27.1156535302
  0
LINE
  5
358
100
AcDbEntity
  8
SUPERFICI
100
AcDbLine
 62
250
  6
CONTINUOUS
 10
-96.4773150425
 20
-25.7048074195
 11
-96.4597867581
 21
-25.91973
  0
LINE
  5
359
100
AcDbEntity
  8
SUPERFICI
100
AcDbLine
 62
7
  6
CONTINUOUS
 10
-96.5911948374
 20
-25.6414945014
 11
-96.586480488
 21
-25.7035275737
  0
LINE
  5
35A
100
AcDbEntity
  8
SUPERFICI
100
AcDbLine
 62
7
  6
CONTINUOUS
 10
-96.5494480476
 20
-26.2464733704
 11
-96.5180201202
 21
-26.6571918072
  0
LWPOLYLINE
  5
35B
100
AcDbEntity
  8
SUPERFICI
100
AcDbPolyline
 62
250
  6
CONTINUOUS
 90
22
 70
0
 10
-96.5864475056
 20
-25.7048473326
 10
-96.5863707049
 20
-25.7059628034
 10
-96.5858941679
 20
-25.7112493156
 10
-96.5851227878
 20
-25.7174877913
 10
-96.5841383576
 20
-25.7228069367
 10
-96.5828860411
 20
-25.7277467514
 10
-96.5811857391
 20
-25.7342300869
 10
-96.5789768393
 20
-25.7417287459
 10
-96.5763474035
 20
-25.74845287
 10
-96.5733368494
 20
-25.7547748319
 10
-96.5699886196
 20
-25.7615590354
 10
-96.5662327476
 20
-25.7692669866
 10
-96.56192781
 20
-25.7778437998
 10
-96.5569448982
 20
-25.7869868561
 10
-96.5513580989
 20
-25.7960837807
 10
-96.5453291412
 20
-25.8045517306
 10
-96.5389781485
 20
-25.8130422425
 10
-96.5321139819
 20
-25.8228595887
 10
-96.5244219232
 20
-25.8342165596
 10
-96.5156662614
 20
-25.8467230586
 10
-96.5059661252
 20
-25.8598531197
 10
-96.4844535279
 20
-25.8874066897
  0
LINE
  5
35C
100
AcDbEntity
  8
SUPERFICI
100
AcDbLine
 62
7
  6
CONTINUOUS
 10
-96.5728210476
 20
-25.9119685187
 11
-96.5494480476
 21
-26.2464733704
  0
LINE
  5
35D
100
AcDbEntity
  8
SUPERFICI
100
AcDbLine
 62
7
  6
CONTINUOUS
 10
-96.5864475056
 20
-25.7048473326
 11
-96.5728210476
 21
-25.9119685187
  0
LINE
  5
35E
100
AcDbEntity
  8
SUPERFICI
100
AcDbLine
 62
7
  6
CONTINUOUS
 10
-96.5865307975
 20
-25.7031535871
 11
-96.5864475056
 21
-25.7048473326
  0
LWPOLYLINE
  5
35F
100
AcDbEntity
  8
SUPERFICI
100
AcDbPolyline
 62
250
  6
CONTINUOUS
 90
4
 70
0
 10
-96.5171014941
 20
-22.1470295245
 10
-96.5395027279
 20
-20.6676730898
 10
-96.5563078657
 20
-19.1072130212
 10
-96.5683014711
 20
-17.4761994804
  0
LWPOLYLINE
  5
360
100
AcDbEntity
  8
SUPERFICI
100
AcDbPolyline
 62
250
  6
CONTINUOUS
 90
3
 70
0
 10
-96.4541494072
 20
-25.6091573881
 10
-96.4563520911
 20
-25.4485166297
 10
-96.5171014941
 20
-22.1470295245
  0
LINE
  5
361
100
AcDbEntity
  8
SUPERFICI
100
AcDbLine
 62
7
  6
CONTINUOUS
 10
-96.5865326859
 20
-25.7029808617
 11
-96.5865307975
 21
-25.7031535871
  0
LINE
  5
362
100
AcDbEntity
  8
SUPERFICI
100
AcDbLine
 62
250
  6
CONTINUOUS
 10
-96.5683014711
 20
-17.4761994804
 11
-96.581024353
 21
-14.0544175188
  0
LINE
  5
363
100
AcDbEntity
  8
SUPERFICI
100
AcDbLine
 62
250
  6
CONTINUOUS
 10
-97.1641884083
 20
-22.2
 11
-97.1762622436
 21
-17.3454804679
  0
LINE
  5
364
100
AcDbEntity
  8
SUPERFICI
100
AcDbLine
 62
250
  6
CONTINUOUS
 10
-97.1762622436
 20
-17.3454804679
 11
-97.1813035676
 21
-12.4429608837
  0
LINE
  5
365
100
AcDbEntity
  8
SUPERFICI
100
AcDbLine
 62
7
  6
CONTINUOUS
 10
-97.3800116638
 20
23.4999990575
 11
-97.3800116638
 21
-23.4999990575
  0
LINE
  5
366
100
AcDbEntity
  8
SUPERFICI
100
AcDbLine
 62
250
  6
CONTINUOUS
 10
-96.581024353
 20
-14.0544175188
 11
-96.5843196361
 21
-9.8972935981
  0
LINE
  5
367
100
AcDbEntity
  8
SUPERFICI
100
AcDbLine
 62
7
  6
CONTINUOUS
 10
-96.5843196361
 20
9.8972935339
 11
-96.5843196361
 21
-9.8972935981
  0
LINE
  5
368
100
AcDbEntity
  8
SUPERFICI
100
AcDbLine
 62
250
  6
CONTINUOUS
 10
-97.1813035676
 20
-12.4429608837
 11
-97.1798195786
 21
14.9031020238
  0
LWPOLYLINE
  5
369
100
AcDbEntity
  8
SUPERFICI
100
AcDbPolyline
 62
250
  6
CONTINUOUS
 90
4
 70
0
 10
-97.1479094197
 20
23.9959507079
 10
-97.1478130009
 20
24.076123038
 10
-97.1482621192
 20
24.1239867413
 10
-97.1492553976
 20
24.1389550376
  0
LINE
  5
36A
100
AcDbEntity
  8
SUPERFICI
100
AcDbLine
 62
250
  6
CONTINUOUS
 10
-96.5810243509
 20
14.054418621
 11
-96.5843196361
 21
9.8972935339
  0
LWPOLYLINE
  5
36B
100
AcDbEntity
  8
SUPERFICI
100
AcDbPolyline
 62
250
  6
CONTINUOUS
 90
3
 70
0
 10
-97.1798195786
 20
14.9031020238
 10
-97.1710679872
 20
19.7797273096
 10
-97.1641884083
 20
22.2
  0
LINE
  5
36C
100
AcDbEntity
  8
SUPERFICI
100
AcDbLine
 62
250
  6
CONTINUOUS
 10
-97.1641855808
 20
22.2000014304
 11
-97.1479094197
 21
23.9959507079
  0
LWPOLYLINE
  5
36D
100
AcDbEntity
  8
SUPERFICI
100
AcDbPolyline
 62
250
  6
CONTINUOUS
 90
4
 70
0
 10
-96.5395027256
 20
20.6676732741
 10
-96.5563078622
 20
19.1072134111
 10
-96.5683014675
 20
17.4762000939
 10
-96.5810243509
 20
14.054418621
  0
LINE
  5
36E
100
AcDbEntity
  8
SUPERFICI
100
AcDbLine
 62
7
  6
CONTINUOUS
 10
-96.5865326859
 20
25.7029808617
 11
-96.5865308131
 21
25.7031528289
  0
LINE
  5
36F
100
AcDbEntity
  8
SUPERFICI
100
AcDbLine
 62
250
  6
CONTINUOUS
 10
-96.4541494072
 20
25.6091573881
 11
-96.4596885744
 21
25.2480418995
  0
LINE
  5
370
100
AcDbEntity
  8
SUPERFICI
100
AcDbLine
 62
250
  6
CONTINUOUS
 10
-96.4596885744
 20
25.2480418995
 11
-96.5395027256
 21
20.6676732741
  0
LINE
  5
371
100
AcDbEntity
  8
SUPERFICI
100
AcDbLine
 62
7
  6
CONTINUOUS
 10
-96.5865308131
 20
25.7031528289
 11
-96.5864475056
 21
25.7048473327
  0
LINE
  5
372
100
AcDbEntity
  8
SUPERFICI
100
AcDbLine
 62
7
  6
CONTINUOUS
 10
-96.5620406788
 20
26.0695985342
 11
-96.5864475056
 21
25.7048473327
  0
LWPOLYLINE
  5
373
100
AcDbEntity
  8
SUPERFICI
100
AcDbPolyline
 62
250
  6
CONTINUOUS
 90
21
 70
0
 10
-96.5864475056
 20
25.7048473327
 10
-96.5863707049
 20
25.7059628034
 10
-96.5858941679
 20
25.7112493156
 10
-96.5851227878
 20
25.7174877913
 10
-96.5841383576
 20
25.7228069367
 10
-96.5828860411
 20
25.7277467514
 10
-96.5811857391
 20
25.7342300869
 10
-96.5789768393
 20
25.7417287459
 10
-96.5763474035
 20
25.74845287
 10
-96.5733368494
 20
25.7547748319
 10
-96.5699886196
 20
25.7615590354
 10
-96.5662327476
 20
25.7692669866
 10
-96.56192781
 20
25.7778437998
 10
-96.5569448982
 20
25.7869868561
 10
-96.5513580989
 20
25.7960837807
 10
-96.5453291412
 20
25.8045517306
 10
-96.5389781485
 20
25.8130422425
 10
-96.5321139819
 20
25.8228595887
 10
-96.5244219232
 20
25.8342165596
 10
-96.5156662614
 20
25.8467230586
 10
-96.5059661252
 20
25.8598531197
  0
LINE
  5
374
100
AcDbEntity
  8
SUPERFICI
100
AcDbLine
 62
7
  6
CONTINUOUS
 10
-96.5348931338
 20
26.4417771545
 11
-96.5620406788
 21
26.0695985342
  0
LINE
  5
375
100
AcDbEntity
  8
SUPERFICI
100
AcDbLine
 62
7
  6
CONTINUOUS
 10
-96.5864819547
 20
25.7035052271
 11
-96.5915554755
 21
25.6373523291
  0
LINE
  5
376
100
AcDbEntity
  8
SUPERFICI
100
AcDbLine
 62
250
  6
CONTINUOUS
 10
-96.4597867581
 20
25.91973
 11
-96.4774386194
 21
25.703760701
  0
LWPOLYLINE
  5
377
100
AcDbEntity
  8
SUPERFICI
100
AcDbPolyline
 62
7
  6
CONTINUOUS
 90
8
 70
0
 10
-96.5865123928
 20
25.7030207644
 10
-96.6053896938
 20
25.5106192614
 10
-96.6364750547
 20
25.3204306754
 10
-96.6796036536
 20
25.1330030575
 10
-96.7346617005
 20
24.948731596
 10
-96.8014503449
 20
24.7683323983
 10
-96.8795869425
 20
24.5928059246
 10
-96.9687356882
 20
24.4228140311
  0
LWPOLYLINE
  5
378
100
AcDbEntity
  8
SUPERFICI
100
AcDbPolyline
 62
250
  6
CONTINUOUS
 90
5
 70
0
 10
-93.7394000103
 20
-36.6264475155
 10
-93.7097325221
 20
-37.3034946423
 10
-93.701122358
 20
-37.5357755766
 10
-93.6943353811
 20
-37.7502610608
 10
-93.6896527759
 20
-37.9487576692
  0
LWPOLYLINE
  5
379
100
AcDbEntity
  8
SUPERFICI
100
AcDbPolyline
 62
250
  6
CONTINUOUS
 90
6
 70
0
 10
-92.7836990458
 20
-37.0080377198
 10
-92.7730608047
 20
-37.3702639951
 10
-92.7643098361
 20
-37.7260040599
 10
-92.7574463828
 20
-38.0691341115
 10
-92.7525689461
 20
-38.3937899208
 10
-92.7495795741
 20
-38.6943970539
  0
LWPOLYLINE
  5
37A
100
AcDbEntity
  8
SUPERFICI
100
AcDbPolyline
 62
250
  6
CONTINUOUS
 90
4
 70
0
 10
-93.7816459539
 20
-35.3259251092
 10
-93.7703964931
 20
-35.7553307921
 10
-93.7561506591
 20
-36.1926134744
 10
-93.7394000103
 20
-36.6264475155
  0
LINE
  5
37B
100
AcDbEntity
  8
SUPERFICI
100
AcDbLine
 62
250
  6
CONTINUOUS
 10
-93.7977932252
 20
-34.4596242509
 11
-93.7816459539
 21
-35.3259251092
  0
LWPOLYLINE
  5
37C
100
AcDbEntity
  8
SUPERFICI
100
AcDbPolyline
 62
250
  6
CONTINUOUS
 90
11
 70
0
 10
-93.6896527759
 20
-37.9487576692
 10
-93.684787285
 20
-38.2905509852
 10
-93.6833644285
 20
-38.4327730844
 10
-93.682836002
 20
-38.5578900283
 10
-93.6833460177
 20
-38.6638361294
 10
-93.6847496676
 20
-38.7524724472
 10
-93.6871822581
 20
-38.8254746033
 10
-93.6912063485
 20
-38.8811445999
 10
-93.6970063475
 20
-38.9199283183
 10
-93.7043908496
 20
-38.9441146596
 10
-93.7133587977
 20
-38.9547078945
  0
LINE
  5
37D
100
AcDbEntity
  8
SUPERFICI
100
AcDbLine
 62
250
  6
CONTINUOUS
 10
-93.8097515208
 20
-33.4987986889
 11
-93.7977932252
 21
-34.4596242509
  0
LINE
  5
37E
100
AcDbEntity
  8
SUPERFICI
100
AcDbLine
 62
250
  6
CONTINUOUS
 10
-93.8204958444
 20
-32.0490158663
 11
-93.8097515208
 21
-33.4987986889
  0
LINE
  5
37F
100
AcDbEntity
  8
SUPERFICI
100
AcDbLine
 62
250
  6
CONTINUOUS
 10
-93.8290211302
 20
-28.3170775448
 11
-93.8204958444
 21
-32.0490158663
  0
LINE
  5
380
100
AcDbEntity
  8
SUPERFICI
100
AcDbLine
 62
250
  6
CONTINUOUS
 10
-93.8291991006
 20
-28.3177900615
 11
-93.8566246555
 21
1.3921557708
  0
LINE
  5
381
100
AcDbEntity
  8
SUPERFICI
100
AcDbLine
 62
250
  6
CONTINUOUS
 10
-93.8566246555
 20
1.3921557708
 11
-93.8383054448
 21
18.0036357238
  0
LINE
  5
382
100
AcDbEntity
  8
SUPERFICI
100
AcDbLine
 62
250
  6
CONTINUOUS
 10
-93.8383054448
 20
18.0036357238
 11
-93.8270734272
 21
29.9343031993
  0
LWPOLYLINE
  5
383
100
AcDbEntity
  8
SUPERFICI
100
AcDbPolyline
 62
250
  6
CONTINUOUS
 90
9
 70
0
 10
-93.6833644285
 20
38.4327730844
 10
-93.682836002
 20
38.5578900283
 10
-93.6833460177
 20
38.6638361294
 10
-93.6847496676
 20
38.7524724472
 10
-93.6871822581
 20
38.8254746033
 10
-93.6912063485
 20
38.8811445999
 10
-93.6970063475
 20
38.9199283183
 10
-93.7043908496
 20
38.9441146596
 10
-93.7133587977
 20
38.9547078945
  0
LINE
  5
384
100
AcDbEntity
  8
SUPERFICI
100
AcDbLine
 62
250
  6
CONTINUOUS
 10
-93.8270734272
 20
29.9343031993
 11
-93.8204958444
 21
32.0490158663
  0
LINE
  5
385
100
AcDbEntity
  8
SUPERFICI
100
AcDbLine
 62
250
  6
CONTINUOUS
 10
-93.8204958444
 20
32.0490158663
 11
-93.8097515208
 21
33.498798689
  0
LINE
  5
386
100
AcDbEntity
  8
SUPERFICI
100
AcDbLine
 62
250
  6
CONTINUOUS
 10
-93.8097515208
 20
33.498798689
 11
-93.7977932252
 21
34.4596242509
  0
LWPOLYLINE
  5
387
100
AcDbEntity
  8
SUPERFICI
100
AcDbPolyline
 62
250
  6
CONTINUOUS
 90
6
 70
0
 10
-93.7977932252
 20
34.4596242509
 10
-93.7816459539
 20
35.3259251092
 10
-93.7703964931
 20
35.7553307921
 10
-93.7561506591
 20
36.1926134744
 10
-93.7394000103
 20
36.6264475155
 10
-93.7097325221
 20
37.3034946423
  0
LWPOLYLINE
  5
388
100
AcDbEntity
  8
SUPERFICI
100
AcDbPolyline
 62
250
  6
CONTINUOUS
 90
7
 70
0
 10
-92.7836990458
 20
37.0080377198
 10
-92.7730608047
 20
37.3702639951
 10
-92.7643098361
 20
37.7260040599
 10
-92.7574463828
 20
38.0691341115
 10
-92.7525689461
 20
38.3937899208
 10
-92.7495795741
 20
38.6943970539
 10
-92.7478452869
 20
39.2033581147
  0
LWPOLYLINE
  5
389
100
AcDbEntity
  8
SUPERFICI
100
AcDbPolyline
 62
250
  6
CONTINUOUS
 90
6
 70
0
 10
-93.7097325221
 20
37.3034946423
 10
-93.701122358
 20
37.5357755766
 10
-93.6943353811
 20
37.7502610608
 10
-93.6896527759
 20
37.9487576692
 10
-93.6867670295
 20
38.1298680469
 10
-93.6833644285
 20
38.4327730844
  0
LWPOLYLINE
  5
38A
100
AcDbEntity
  8
SUPERFICI
100
AcDbPolyline
 62
250
  6
CONTINUOUS
 90
5
 70
0
 10
-97.1492553976
 20
-24.1389550376
 10
-97.1482622455
 20
-24.1239616601
 10
-97.1478134003
 20
-24.0760359458
 10
-97.1479102386
 20
-23.9957849534
 10
-97.1641855808
 20
-22.2000014303
  0
LINE
  5
38B
100
AcDbEntity
  8
SUPERFICI
100
AcDbLine
 62
250
  6
CONTINUOUS
 10
-92.8224517735
 20
-35.0705931947
 11
-92.7837095426
 21
-37.0
  0
LINE
  5
38C
100
AcDbEntity
  8
SUPERFICI
100
AcDbLine
 62
250
  6
CONTINUOUS
 10
-92.8542274568
 20
-33.1410776193
 11
-92.8224517735
 21
-35.0705931947
  0
LINE
  5
38D
100
AcDbEntity
  8
SUPERFICI
100
AcDbLine
 62
250
  6
CONTINUOUS
 10
-92.879036532
 20
-31.2114561183
 11
-92.8542274568
 21
-33.1410776193
  0
LWPOLYLINE
  5
38E
100
AcDbEntity
  8
SUPERFICI
100
AcDbPolyline
 62
250
  6
CONTINUOUS
 90
3
 70
0
 10
-92.9031873152
 20
-28.3168458803
 10
-92.8968787566
 20
-29.2817400705
 10
-92.879036532
 20
-31.2114561183
  0
LWPOLYLINE
  5
38F
100
AcDbEntity
  8
SUPERFICI
100
AcDbPolyline
 62
250
  6
CONTINUOUS
 90
6
 70
0
 10
-92.7478452869
 20
39.2033581147
 10
-92.7491009832
 20
39.4032100992
 10
-92.7532669867
 20
39.562087753
 10
-92.7607821752
 20
39.677301281
 10
-92.7712082571
 20
39.7468904902
 10
-92.784545502
 20
39.769708699
  0
LWPOLYLINE
  5
390
100
AcDbEntity
  8
SUPERFICI
100
AcDbPolyline
 62
250
  6
CONTINUOUS
 90
7
 70
0
 10
-92.7495795741
 20
-38.6943970539
 10
-92.7478452869
 20
-39.2033581147
 10
-92.7491009832
 20
-39.4032100992
 10
-92.7532669867
 20
-39.562087753
 10
-92.7607821752
 20
-39.677301281
 10
-92.7712082571
 20
-39.7468904902
 10
-92.784545502
 20
-39.769708699
  0
LINE
  5
391
100
AcDbEntity
  8
SUPERFICI
100
AcDbLine
 62
7
  6
CONTINUOUS
 10
-92.9316831087
 20
0.000000161
 11
-92.9031873152
 21
-28.3168458803
  0
LINE
  5
392
100
AcDbEntity
  8
SUPERFICI
100
AcDbLine
 62
7
  6
CONTINUOUS
 10
-92.9031876654
 20
28.3168458803
 11
-92.9316831087
 21
0.000000161
  0
LINE
  5
393
100
AcDbEntity
  8
SUPERFICI
100
AcDbLine
 62
250
  6
CONTINUOUS
 10
-92.8888290585
 20
30.2465917397
 11
-92.9031876654
 21
28.3168458803
  0
LINE
  5
394
100
AcDbEntity
  8
SUPERFICI
100
AcDbLine
 62
250
  6
CONTINUOUS
 10
-92.86750358
 20
32.1762524229
 11
-92.8888290585
 21
30.2465917397
  0
LINE
  5
395
100
AcDbEntity
  8
SUPERFICI
100
AcDbLine
 62
250
  6
CONTINUOUS
 10
-92.8392112453
 20
34.1058252215
 11
-92.86750358
 21
32.1762524229
  0
LWPOLYLINE
  5
396
100
AcDbEntity
  8
SUPERFICI
100
AcDbPolyline
 62
250
  6
CONTINUOUS
 90
3
 70
0
 10
-92.7837100002
 20
37.0
 10
-92.8039521164
 20
36.0352993019
 10
-92.8392112453
 20
34.1058252215
  0
LINE
  5
397
100
AcDbEntity
  8
RACCORDO
100
AcDbLine
 62
7
  6
CONTINUOUS
 10
-90.5059134809
 20
-3.5239590572
 11
-88.6536200352
 21
-3.6860137352
  0
LINE
  5
398
100
AcDbEntity
  8
RACCORDO
100
AcDbLine
 62
7
  6
CONTINUOUS
 10
-90.7797667581
 20
3.2251006478
 11
-90.7797667581
 21
-3.2251006478
  0
LINE
  5
399
100
AcDbEntity
  8
0
100
AcDbLine
 62
7
  6
CONTINUOUS
 10
-88.3797667581
 20
40.0003858982
 11
-88.3797667581
 21
37.008430405
  0
LINE
  5
39A
100
AcDbEntity
  8
RACCORDO
100
AcDbLine
 62
7
  6
CONTINUOUS
 10
-88.3797667581
 20
-37.0084847778
 11
-88.3797667581
 21
-3.9848721447
  0
LINE
  5
39B
100
AcDbEntity
  8
0
100
AcDbLine
 62
7
  6
CONTINUOUS
 10
-88.3797667581
 20
-37.0084847778
 11
-88.3797667581
 21
-40.0003858982
  0
LINE
  5
39C
100
AcDbEntity
  8
RACCORDO
100
AcDbLine
 62
7
  6
CONTINUOUS
 10
-88.3797667581
 20
3.9848721447
 11
-88.3797667581
 21
37.008430405
  0
LINE
  5
39D
100
AcDbEntity
  8
RACCORDO
100
AcDbLine
 62
7
  6
CONTINUOUS
 10
-88.1797667581
 20
36.9999299935
 11
-88.1797667581
 21
4.2031338449
  0
LINE
  5
39E
100
AcDbEntity
  8
0
100
AcDbLine
 62
7
  6
CONTINUOUS
 10
-88.1797667581
 20
-38.5088090866
 11
-88.1797667581
 21
-37.0008994049
  0
LINE
  5
39F
100
AcDbEntity
  8
RACCORDO
100
AcDbLine
 62
7
  6
CONTINUOUS
 10
-88.1797667581
 20
-4.2031338449
 11
-88.1797667581
 21
-37.0008994049
  0
LINE
  5
3A0
100
AcDbEntity
  8
0
100
AcDbLine
 62
7
  6
CONTINUOUS
 10
-88.1797667581
 20
36.9999299935
 11
-88.1797667581
 21
38.5088090866
  0
LWPOLYLINE
  5
3A1
100
AcDbEntity
  8
0
100
AcDbPolyline
 62
7
  6
CONTINUOUS
 90
4
 70
0
 43
0.3500000006
 10
-107.8839357605
 20
-2.3571432495
 10
-108.7410737
 20
-2.3571432495
 10
-109.1696517334
 20
-1.9285708809
 10
-109.1696517334
 20
-1.2857140274
  0
LWPOLYLINE
  5
3A2
100
AcDbEntity
  8
0
100
AcDbPolyline
 62
7
  6
CONTINUOUS
 90
13
 70
0
 43
0.3500000006
 10
-108.3125047302
 20
-0.0000003204
 10
-109.5982207031
 20
-0.0000003204
 10
-110.0267896729
 20
0.2142864304
 10
-110.4553586426
 20
0.642857666
 10
-110.4553586426
 20
0.8571421509
 10
-110.0267896729
 20
1.2857133865
 10
-109.5982207031
 20
1.5000001373
 10
-108.3125047302
 20
1.5000001373
 10
-107.8839357605
 20
1.2857133865
 10
-107.4553667908
 20
0.8571421509
 10
-107.4553667908
 20
0.642857666
 10
-107.8839357605
 20
0.2142864304
 10
-108.3125047302
 20
-0.0000003204
  0
LINE
  5
3A3
100
AcDbEntity
  8
SUPERFICI
100
AcDbLine
 62
7
  6
CONTINUOUS
 10
-92.9316828239
 20
0.0000005677
 11
-93.8579164633
 21
-0.0000022816
  0
LINE
  5
3A4
100
AcDbEntity
  8
SUPERFICI
100
AcDbLine
 62
250
  6
CONTINUOUS
 10
-97.1809299814
 20
0.0000007417
 11
-96.5859151774
 21
0.0000147219
  0
LINE
  5
3A5
100
AcDbEntity
  8
SUPERFICI
100
AcDbLine
 62
250
  6
CONTINUOUS
 10
-96.3916491939
 20
-0.0023285109
 11
-93.8575392979
 21
0.0000532982
  0
LWPOLYLINE
  5
3A6
100
AcDbEntity
  8
SUPERFICI
100
AcDbPolyline
 62
250
  6
CONTINUOUS
 90
5
 70
0
 10
-96.5859150347
 20
-0.0003408527
 10
-96.583869494
 20
-0.0005601282
 10
-96.562021892
 20
-0.0010856163
 10
-96.5208399817
 20
-0.0015386054
 10
-96.3916491939
 20
-0.0023285109
  0
LINE
  5
3A7
100
AcDbEntity
  8
RACCORDO
100
AcDbLine
 62
7
  6
CONTINUOUS
 10
-88.6536200352
 20
3.6860137352
 11
-90.5059134809
 21
3.5239590572
  0
LWPOLYLINE
  5
3A8
100
AcDbEntity
  8
SUPERFICI
100
AcDbPolyline
 62
250
  6
CONTINUOUS
 90
10
 70
0
 10
-96.5171014941
 20
22.1470295245
 10
-96.5282602477
 20
22.1522052711
 10
-96.5552622115
 20
22.1576199997
 10
-96.5978963091
 20
22.1632507727
 10
-96.6560464075
 20
22.1690832054
 10
-96.7294426889
 20
22.1750855405
 10
-96.8174358455
 20
22.1812064414
 10
-96.9194405166
 20
22.1874112383
 10
-97.0351610033
 20
22.1936841297
 10
-97.1641869946
 20
22.2000007152
  0
LWPOLYLINE
  5
3A9
100
AcDbEntity
  8
SUPERFICI
100
AcDbPolyline
 62
250
  6
CONTINUOUS
 90
6
 70
0
 10
-96.4598413444
 20
-25.9196625408
 10
-96.4565051214
 20
-25.9173700448
 10
-96.4542591055
 20
-25.8864369512
 10
-96.4531210507
 20
-25.8257172009
 10
-96.4530814303
 20
-25.7339596865
 10
-96.4541494072
 20
-25.6091573881
  0
LWPOLYLINE
  5
3AA
100
AcDbEntity
  8
SUPERFICI
100
AcDbPolyline
 62
250
  6
CONTINUOUS
 90
6
 70
0
 10
-96.4598413444
 20
25.9196625408
 10
-96.4565051214
 20
25.9173700448
 10
-96.4542591055
 20
25.8864369512
 10
-96.4531210507
 20
25.8257172009
 10
-96.4530814303
 20
25.7339596865
 10
-96.4541494072
 20
25.6091573881
  0
LWPOLYLINE
  5
3AB
100
AcDbEntity
  8
0
100
AcDbPolyline
 62
7
  6
CONTINUOUS
 90
10
 70
0
 43
0.3500000006
 10
-92.9941460266
 20
49.2504316406
 10
-92.9227148438
 20
49.1075783386
 10
-92.9227148438
 20
49.0361471558
 10
-93.0655772095
 20
48.8932893219
 10
-93.1369993286
 20
48.8932893219
 10
-93.2084305115
 20
48.9647205048
 10
-93.2084305115
 20
49.0361471558
 10
-93.1369993286
 20
49.1790049896
 10
-93.0655772095
 20
49.2504316406
 10
-92.9941460266
 20
49.2504316406
  0
LINE
  5
3AC
100
AcDbEntity
  8
SUPERFICI
100
AcDbLine
 62
250
  6
CONTINUOUS
 10
-97.1641884083
 20
22.2
 11
-97.3800094129
 21
22.2
  0
LWPOLYLINE
  5
3AD
100
AcDbEntity
  8
SUPERFICI
100
AcDbPolyline
 62
250
  6
CONTINUOUS
 90
10
 70
0
 10
-93.7133587977
 20
-38.9547078945
 10
-93.770001443
 20
-38.9940384555
 10
-93.8162457461
 20
-39.0169809737
 10
-93.8522436477
 20
-39.0306059936
 10
-93.8766315491
 20
-39.0461370202
 10
-93.8911905805
 20
-39.0638639199
 10
-93.9007259506
 20
-39.0749875997
 10
-93.9068679048
 20
-39.079638322
 10
-93.9081706884
 20
-39.0860779416
 10
-93.9064870847
 20
-39.0926194775
  0
LINE
  5
3AE
100
AcDbEntity
  8
RACCORDO
100
AcDbLine
 62
250
  6
CONTINUOUS
 10
-88.3797667581
 20
30.3152049953
 11
-88.1797667581
 21
30.3175409009
  0
LINE
  5
3AF
100
AcDbEntity
  8
RACCORDO
100
AcDbLine
 62
250
  6
CONTINUOUS
 10
-88.3797667581
 20
29.8498631289
 11
-88.1797667581
 21
29.8518062615
  0
LINE
  5
3B0
100
AcDbEntity
  8
SUPERFICI
100
AcDbLine
 62
250
  6
CONTINUOUS
 10
-93.8291991006
 20
28.3177900615
 11
-92.8982795436
 21
28.31682
  0
LWPOLYLINE
  5
3B1
100
AcDbEntity
  8
SUPERFICI
100
AcDbPolyline
 62
250
  6
CONTINUOUS
 90
10
 70
0
 10
-93.7133587977
 20
38.9547078945
 10
-93.770001443
 20
38.9940384555
 10
-93.8162457461
 20
39.0169809737
 10
-93.8522436477
 20
39.0306059936
 10
-93.8766315491
 20
39.0461370202
 10
-93.8911905805
 20
39.0638639199
 10
-93.9007259506
 20
39.0749875997
 10
-93.9068679048
 20
39.079638322
 10
-93.9081706884
 20
39.0860779416
 10
-93.9064872425
 20
39.0926190353
  0
LINE
  5
3B2
100
AcDbEntity
  8
RACCORDO
100
AcDbLine
 62
250
  6
CONTINUOUS
 10
-88.1797667581
 20
34.1481947554
 11
-88.3797667581
 21
34.1501379171
  0
LINE
  5
3B3
100
AcDbEntity
  8
RACCORDO
100
AcDbLine
 62
250
  6
CONTINUOUS
 10
-88.1797667581
 20
33.6824601304
 11
-88.3797667581
 21
33.6847960757
  0
LWPOLYLINE
  5
3B4
100
AcDbEntity
  8
SUPERFICI
100
AcDbPolyline
 62
250
  6
CONTINUOUS
 90
4
 70
0
 10
-92.7849563909
 20
39.7695130549
 10
-92.9341976341
 20
39.7503618567
 10
-93.0769455954
 20
39.7095997187
 10
-93.2112064469
 20
39.6484350932
  0
LINE
  5
3B5
100
AcDbEntity
  8
RACCORDO
100
AcDbLine
 62
7
  6
CONTINUOUS
 10
-88.1797667581
 20
38.5088090866
 11
-88.3797667581
 21
38.4983272814
  0
LINE
  5
3B6
100
AcDbEntity
  8
0
100
AcDbLine
 62
7
  6
CONTINUOUS
 10
-88.3797667581
 20
40.0003858983
 11
-92.7849563404
 21
39.7695142019
  0
LINE
  5
3B7
100
AcDbEntity
  8
SUPERFICI
100
AcDbLine
 62
7
  6
CONTINUOUS
 10
-93.0216431194
 20
39.7573514042
 11
-92.7849570508
 21
39.7695277556
  0
LINE
  5
3B8
100
AcDbEntity
  8
0
100
AcDbLine
 62
7
  6
CONTINUOUS
 10
-92.7837100002
 20
37.0
 11
-88.3797667581
 21
37.0
  0
LWPOLYLINE
  5
3B9
100
AcDbEntity
  8
0
100
AcDbPolyline
 62
7
  6
CONTINUOUS
 90
7
 70
0
 43
0.3500000006
 10
-90.4227140808
 20
48.750431488
 10
-91.9227145386
 20
48.750431488
 10
-90.4227140808
 20
50.8932899323
 10
-90.4227140808
 20
51.3218634338
 10
-90.8512921143
 20
51.7504324036
 10
-91.4941455688
 20
51.7504324036
 10
-91.9227145386
 20
51.1075744171
  0
LINE
  5
3BA
100
AcDbEntity
  8
RACCORDO
100
AcDbLine
 62
250
  6
CONTINUOUS
 10
-88.3797667581
 20
37.0002498996
 11
-88.1797667581
 21
37.0001426372
  0
LWPOLYLINE
  5
3BB
100
AcDbEntity
  8
SUPERFICI
100
AcDbPolyline
 62
250
  6
CONTINUOUS
 90
4
 70
0
 10
-92.7837100932
 20
37.0
 10
-92.9380316939
 20
37.0058192561
 10
-93.0852324172
 20
37.0129599963
 10
-93.2231587642
 20
37.0208000806
  0
LWPOLYLINE
  5
3BC
100
AcDbEntity
  8
SUPERFICI
100
AcDbPolyline
 62
250
  6
CONTINUOUS
 90
3
 70
0
 10
-93.2231587642
 20
37.0208000806
 10
-93.6876563732
 20
37.0507085784
 10
-93.7202267581
 20
37.05298
  0
ARC
  5
3BD
100
AcDbEntity
  8
0
100
AcDbCircle
 62
7
  6
CONTINUOUS
 10
56.9999592504
 20
-37.0000292159
 40
3.0003859609
100
AcDbArc
 50
270.0042255236
 51
359.8385333479
  0
ARC
  5
3BE
100
AcDbEntity
  8
0
100
AcDbCircle
 62
7
  6
CONTINUOUS
 10
-56.9999592504
 20
-37.0000292159
 40
3.0003859609
100
AcDbArc
 50
180.1614665829
 51
269.9974159777
  0
ARC
  5
3BF
100
AcDbEntity
  8
0
100
AcDbCircle
 62
7
  6
CONTINUOUS
 10
-56.9999592504
 20
37.0000292159
 40
3.0003859609
100
AcDbArc
 50
90.0025839531
 51
179.8395721084
  0
ARC
  5
3C0
100
AcDbEntity
  8
0
100
AcDbCircle
 62
7
  6
CONTINUOUS
 10
56.9999592504
 20
37.0000292159
 40
3.0003859609
100
AcDbArc
 50
0.1604278224
 51
89.9957744072
  0
ARC
  5
3C1
100
AcDbEntity
  8
SUPERFICI
100
AcDbCircle
 62
7
  6
CONTINUOUS
 10
-22.2
 20
-22.2
 40
0.3
100
AcDbArc
 50
180.0000635085
 51
270.000273967
  0
ARC
  5
3C2
100
AcDbEntity
  8
SUPERFICI
100
AcDbCircle
 62
7
  6
CONTINUOUS
 10
-22.2
 20
22.2
 40
0.2999976131
100
AcDbArc
 50
89.9997260322
 51
179.9999364909
  0
ARC
  5
3C3
100
AcDbEntity
  8
SUPERFICI
100
AcDbCircle
 62
7
  6
CONTINUOUS
 10
22.2
 20
22.2
 40
0.2999976131
100
AcDbArc
 50
0.0000635094
 51
90.0002739672
  0
ARC
  5
3C4
100
AcDbEntity
  8
SUPERFICI
100
AcDbCircle
 62
7
  6
CONTINUOUS
 10
22.2
 20
-22.2
 40
0.2999976131
100
AcDbArc
 50
269.9997260341
 51
359.9999364897
  0
ARC
  5
3C5
100
AcDbEntity
  8
SUPERFICI
100
AcDbCircle
 62
7
  6
CONTINUOUS
 10
-96.3800102193
 20
23.4999990575
 40
1.0000014444
100
AcDbArc
 50
140.2860551952
 51
198.6566410644
  0
ARC
  5
3C6
100
AcDbEntity
  8
SUPERFICI
100
AcDbCircle
 62
7
  6
CONTINUOUS
 10
-96.3800191617
 20
-23.5000086115
 40
0.9999912223
100
AcDbArc
 50
160.8284429172
 51
219.7138179298
  0
ARC
  5
3C7
100
AcDbEntity
  8
RACCORDO
100
AcDbCircle
 62
7
  6
CONTINUOUS
 10
-88.4797667581
 20
-4.2031338449
 40
0.3
100
AcDbArc
 50
0.0
 51
72.293411665
  0
ARC
  5
3C8
100
AcDbEntity
  8
RACCORDO
100
AcDbCircle
 62
7
  6
CONTINUOUS
 10
-88.4797667581
 20
4.2031338449
 40
0.3
100
AcDbArc
 50
287.7065883372
 51
360.0
  0
ARC
  5
3C9
100
AcDbEntity
  8
RACCORDO
100
AcDbCircle
 62
7
  6
CONTINUOUS
 10
-88.6797667581
 20
-3.9848721447
 40
0.3
100
AcDbArc
 50
0.0
 51
85.0
  0
ARC
  5
3CA
100
AcDbEntity
  8
RACCORDO
100
AcDbCircle
 62
7
  6
CONTINUOUS
 10
-88.6797667581
 20
3.9848721447
 40
0.3
100
AcDbArc
 50
275.0
 51
360.0
  0
ARC
  5
3CB
100
AcDbEntity
  8
RACCORDO
100
AcDbCircle
 62
7
  6
CONTINUOUS
 10
-90.4797667581
 20
-3.2251006478
 40
0.3
100
AcDbArc
 50
180.0
 51
265.0
  0
ARC
  5
3CC
100
AcDbEntity
  8
RACCORDO
100
AcDbCircle
 62
7
  6
CONTINUOUS
 10
-90.4797667581
 20
3.2251006478
 40
0.3
100
AcDbArc
 50
95.0
 51
180.0
  0
ELLIPSE
  5
3CD
100
AcDbEntity
  8
RACCORDO
100
AcDbEllipse
 62
7
  6
CONTINUOUS
 10
-59.9846563994
 20
3.9848721447
 30
0.0
 11
-0.0000000356
 21
0.3
 31
0.0
 40
0.0524078737
 41
1.5707963206
 42
3.0543261848
  0
ELLIPSE
  5
3CE
100
AcDbEntity
  8
RACCORDO
100
AcDbEllipse
 62
7
  6
CONTINUOUS
 10
-59.9846554565
 20
-3.9848721447
 30
0.0
 11
-0.0000000356
 21
0.3
 31
0.0
 40
0.0524078737
 41
0.0872664564
 42
1.5707963206
  0
ELLIPSE
  5
3CF
100
AcDbEntity
  8
RACCORDO
100
AcDbEllipse
 62
7
  6
CONTINUOUS
 10
59.9846554565
 20
-3.9848721447
 30
0.0
 11
0.0000000356
 21
0.3
 31
0.0
 40
0.0524078737
 41
-1.5707963206
 42
-0.0872664564
  0
ELLIPSE
  5
3D0
100
AcDbEntity
  8
RACCORDO
100
AcDbEllipse
 62
7
  6
CONTINUOUS
 10
59.9846563994
 20
3.9848721447
 30
0.0
 11
0.0000000356
 21
0.3
 31
0.0
 40
0.0524078737
 41
-3.0543261848
 42
-1.5707963206
  0
ELLIPSE
  5
3D1
100
AcDbEntity
  8
RACCORDO
100
AcDbEllipse
 62
7
  6
CONTINUOUS
 10
-59.8903213737
 20
-3.2251006478
 30
0.0
 11
-0.0000000356
 21
0.3
 31
0.0
 40
0.0524078737
 41
-3.0543261972
 42
-1.570796333
  0
ELLIPSE
  5
3D2
100
AcDbEntity
  8
RACCORDO
100
AcDbEllipse
 62
7
  6
CONTINUOUS
 10
-59.8903221368
 20
3.2251006478
 30
0.0
 11
-0.0000000356
 21
0.3
 31
0.0
 40
0.0524078737
 41
-1.570796333
 42
-0.0872664688
  0
ELLIPSE
  5
3D3
100
AcDbEntity
  8
RACCORDO
100
AcDbEllipse
 62
7
  6
CONTINUOUS
 10
59.8903221368
 20
3.2251006478
 30
0.0
 11
0.0000000356
 21
0.3
 31
0.0
 40
0.0524078737
 41
0.0872664688
 42
1.570796333
  0
ELLIPSE
  5
3D4
100
AcDbEntity
  8
RACCORDO
100
AcDbEllipse
 62
7
  6
CONTINUOUS
 10
59.8903213737
 20
-3.2251006478
 30
0.0
 11
0.0000000356
 21
0.3
 31
0.0
 40
0.0524078737
 41
-4.7123889742
 42
-3.22885911
  0
ENDSEC
  0
SECTION
  2
OBJECTS
  0
DICTIONARY
  5
C
100
AcDbDictionary
280
0
281
1
  3
ACAD_GROUP
350
D
  3
ACAD_MLINESTYLE
350
17
  3
ACAD_LAYOUT
350
1A
  3
ACAD_PLOTSETTINGS
350
19
  3
ACAD_PLOTSTYLENAME
350
E
  0
DICTIONARY
  5
D
102
{ACAD_REACTORS
330
C
102
}
100
AcDbDictionary
280
0
281
1
  0
ACDBDICTIONARYWDFLT
  5
E
102
{ACAD_REACTORS
330
C
102
}
100
AcDbDictionary
281
1
  3
Normal
350
F
100
AcDbDictionaryWithDefault
340
F
  0
DICTIONARY
  5
17
102
{ACAD_REACTORS
330
C
102
}
100
AcDbDictionary
280
0
281
1
  3
Standard
350
18
  0
DICTIONARY
  5
19
102
{ACAD_REACTORS
330
C
102
}
100
AcDbDictionary
281
1
  0
DICTIONARY
  5
1A
102
{ACAD_REACTORS
330
C
102
}
100
AcDbDictionary
281
1
  3
Model
350
3D5
  3
Layout1
350
3D6
  0
ACDBPLACEHOLDER
  5
F
102
{ACAD_REACTORS
330
E
102
}
  0
MLINESTYLE
  5
18
102
{ACAD_REACTORS
330
17
102
}
100
AcDbMlineStyle
  2
STANDARD
 70
0
  3

 62
256
 51
90.0
 52
90.0
 71
2
 49
0.5
 62
256
  6
BYLAYER
 49
-0.5
 62
256
  6
BYLAYER
  0
LAYOUT
  5
3D5
102
{ACAD_REACTORS
330
1A
102
}
100
AcDbPlotSettings
  1

  2
none_device
  4
ISO_A4_(297.00_x_210.00_MM)
  6

 40
0.0
 41
0.0
 42
0.0
 43
0.0
 44
297.0
 45
210.0
 46
0.0
 47
0.0
 48
0.0
 49
0.0
140
0.0
141
0.0
142
1.0
143
1.0
 70
1024
 72
1
 73
0
 74
0
  7

 75
0
147
1.0
148
0.0
149
0.0
100
AcDbLayout
  1
Model
 70
0
 71
0
 10
0.0
 20
0.0
 11
297.0
 21
210.0
 12
0.0
 22
0.0
 32
0.0
 14
0.0
 24
0.0
 34
0.0
 15
0.0
 25
0.0
 35
0.0
146
0.0
 13
0.0
 23
0.0
 33
0.0
 16
1.0
 26
0.0
 36
0.0
 17
0.0
 27
1.0
 37
0.0
 76
0
330
218
345
0
346
0
  0
LAYOUT
  5
3D6
102
{ACAD_REACTORS
330
1A
102
}
100
AcDbPlotSettings
  1

  2
none_device
  4
ISO_A4_(297.00_x_210.00_MM)
  6

 40
0.0
 41
0.0
 42
0.0
 43
0.0
 44
297.0
 45
210.0
 46
0.0
 47
0.0
 48
0.0
 49
0.0
140
0.0
141
0.0
142
1.0
143
1.0
 70
0
 72
1
 73
0
 74
0
  7

 75
0
147
1.0
148
0.0
149
0.0
100
AcDbLayout
  1
Layout1
 70
0
 71
1
 10
0.0
 20
0.0
 11
297.0
 21
210.0
 12
0.0
 22
0.0
 32
0.0
 14
0.0
 24
0.0
 34
0.0
 15
0.0
 25
0.0
 35
0.0
146
0.0
 13
0.0
 23
0.0
 33
0.0
 16
1.0
 26
0.0
 36
0.0
 17
0.0
 27
1.0
 37
0.0
 76
0
330
219
345
0
346
0
  0
ENDSEC
  0
EOF
