  0
SECTION
  2
HEADER
  9
$ACADVER
  1
AC1024
  9
$DWGCODEPAGE
  3
ANSI_1252
  9
$EXTMAX
 10
297.0
 20
210.0
 30
0.0
  9
$EXTMIN
 10
0.0
 20
0.0
 30
0.0
  9
$LIMMIN
 10
0.0
 20
0.0
  9
$LIMMAX
 10
297.0
 20
210.0
  9
$VIEWCTR
 10
148.5
 20
105.0
  9
$VIEWSIZE
 40
210.0
  9
$CLAYER
  8
0
  9
$LTSCALE
 40
16.335
  9
$CELTYPE
  6
BYLAYER
  9
$DIMSCALE
 40
1.0
  9
$DIMASZ
 40
3.0
  9
$DIMEXO
 40
0.5
  9
$DIMDLI
 40
11.286
  9
$DIMEXE
 40
1.5
  9
$DIMCEN
 40
2.673
  9
$DIMLFAC
 40
1.0
  9
$DIMBLK
  1
_FILLED
  9
$DIMALT
 70
0
  9
$DIMALTF
 40
0.0393700787
  9
$DIMTXT
 40
3.0
  9
$DIMTOL
 70
1
  9
$DIMLIM
 70
0
  9
$DIMTFAC
 40
1.0
  9
$DIMTP
 40
0.01
  9
$DIMTM
 40
0.01
  9
$DIMGAP
 40
0.625
  9
$DIMDSEP
 70
44
  9
$AUNITS
 70
0
  9
$PDMODE
 70
3
  9
$PDSIZE
 40
3.0
  9
$HANDSEED
  5
437
  9
$TILEMODE
 70
1
  9
$MEASUREMENT
 70
1
  9
$INSUNITS
 70
4
  0
ENDSEC
  0
SECTION
  2
CLASSES
  0
CLASS
  1
ACDBDICTIONARYWDFLT
  2
AcDbDictionaryWithDefault
  3
AutoCAD 2000
 90
0
 91
1
280
0
281
0
  0
CLASS
  1
ACDBPLACEHOLDER
  2
AcDbPlaceHolder
  3
AutoCAD 2000
 90
0
 91
1
280
0
281
0
  0
CLASS
  1
LAYOUT
  2
AcDbLayout
  3
AutoCAD 2000
 90
0
 91
0
280
0
281
0
  0
ENDSEC
  0
SECTION
  2
TABLES
  0
TABLE
  2
VPORT
  5
8
100
AcDbSymbolTable
 70
2
  0
VPORT
  5
1F4
100
AcDbSymbolTableRecord
100
AcDbViewportTableRecord
  2
*ACTIVE
 70
0
 10
0.0
 20
0.0
 11
1.0
 21
1.0
 12
148.5
 22
105.0
 13
0.0
 23
0.0
 14
1.0
 24
1.0
 15
0.0
 25
0.0
 16
0.0
 26
0.0
 36
1.0
 17
0.0
 27
0.0
 37
0.0
 40
210.0
 41
1.4142857143
 42
50.0
 43
0.0
 44
0.0
 50
0.0
 51
0.0
 71
0
 72
100
 73
1
 74
1
 75
0
 76
0
 77
0
 78
0
  0
ENDTAB
  0
TABLE
  2
LTYPE
  5
5
100
AcDbSymbolTable
 70
6
  0
LTYPE
  5
14
100
AcDbSymbolTableRecord
100
AcDbLinetypeTableRecord
  2
BYBLOCK
 70
0
  3

 72
65
 73
0
 40
0.0
  0
LTYPE
  5
15
100
AcDbSymbolTableRecord
100
AcDbLinetypeTableRecord
  2
BYLAYER
 70
0
  3

 72
65
 73
0
 40
0.0
  0
LTYPE
  5
16
100
AcDbSymbolTableRecord
100
AcDbLinetypeTableRecord
  2
CONTINUOUS
 70
64
  3
Solid line
 72
65
 73
0
 40
0.0
  0
LTYPE
  5
1F5
100
AcDbSymbolTableRecord
100
AcDbLinetypeTableRecord
  2
CENTER
 70
64
  3
____ _ ____ _ ____ _ ____ _ ____ _ ____ _ ____
 72
65
 73
4
 40
0.6
 49
0.375
 74
0
 49
-0.075
 74
0
 49
0.075
 74
0
 49
-0.075
 74
0
  0
LTYPE
  5
1F6
100
AcDbSymbolTableRecord
100
AcDbLinetypeTableRecord
  2
HIDDEN
 70
64
  3
- - - - - - - - - - - - - - - - - - - -
 72
65
 73
2
 40
0.2
 49
0.1
 74
0
 49
-0.1
 74
0
  0
LTYPE
  5
1F7
100
AcDbSymbolTableRecord
100
AcDbLinetypeTableRecord
  2
PHANTOM
 70
64
  3
_____ _ _ _____ _ _ _____ _ _ _____
 72
65
 73
6
 40
0.8
 49
0.45
 74
0
 49
-0.05
 74
0
 49
0.1
 74
0
 49
-0.05
 74
0
 49
0.1
 74
0
 49
-0.05
 74
0
  0
LTYPE
  5
1F8
100
AcDbSymbolTableRecord
100
AcDbLinetypeTableRecord
  2
DOT
 70
64
  3
. . . . . . . . . . . . . . . . . . . .
 72
65
 73
2
 40
0.2
 49
0.1
 74
0
 49
-0.1
 74
0
  0
LTYPE
  5
1F9
100
AcDbSymbolTableRecord
100
AcDbLinetypeTableRecord
  2
DASHED
 70
64
  3
- - - - - - - - - - - - - - - - - - - -
 72
65
 73
2
 40
0.2
 49
0.1
 74
0
 49
-0.1
 74
0
  0
ENDTAB
  0
TABLE
  2
LAYER
  5
2
100
AcDbSymbolTable
 70
36
  0
LAYER
  5
10
100
AcDbSymbolTableRecord
100
AcDbLayerTableRecord
  2
0
 70
0
 62
7
  6
CONTINUOUS
370
-3
390
F
  0
LAYER
  5
1FA
100
AcDbSymbolTableRecord
100
AcDbLayerTableRecord
  2
DEFAULT_1
 70
0
 62
7
  6
CENTER
370
-3
390
F
  0
LAYER
  5
1FB
100
AcDbSymbolTableRecord
100
AcDbLayerTableRecord
  2
DEFAULT_2
 70
0
 62
7
  6
HIDDEN
370
-3
390
F
  0
LAYER
  5
1FC
100
AcDbSymbolTableRecord
100
AcDbLayerTableRecord
  2
DEFAULT_3
 70
0
 62
7
  6
PHANTOM
370
-3
390
F
  0
LAYER
  5
1FD
100
AcDbSymbolTableRecord
100
AcDbLayerTableRecord
  2
ASSI
 70
0
 62
7
  6
CONTINUOUS
370
-3
390
F
  0
LAYER
  5
1FE
100
AcDbSymbolTableRecord
100
AcDbLayerTableRecord
  2
COLOR5
 70
0
 62
7
  6
CONTINUOUS
370
-3
390
F
  0
LAYER
  5
1FF
100
AcDbSymbolTableRecord
100
AcDbLayerTableRecord
  2
COORDINATE
 70
0
 62
7
  6
CONTINUOUS
370
-3
390
F
  0
LAYER
  5
200
100
AcDbSymbolTableRecord
100
AcDbLayerTableRecord
  2
COORD_ORIGINE
 70
0
 62
7
  6
CONTINUOUS
370
-3
390
F
  0
LAYER
  5
201
100
AcDbSymbolTableRecord
100
AcDbLayerTableRecord
  2
COSMETICI
 70
0
 62
7
  6
CONTINUOUS
370
-3
390
F
  0
LAYER
  5
202
100
AcDbSymbolTableRecord
100
AcDbLayerTableRecord
  2
CURVE
 70
0
 62
7
  6
CONTINUOUS
370
-3
390
F
  0
LAYER
  5
203
100
AcDbSymbolTableRecord
100
AcDbLayerTableRecord
  2
DRAFT
 70
0
 62
7
  6
CONTINUOUS
370
-3
390
F
  0
LAYER
  5
204
100
AcDbSymbolTableRecord
100
AcDbLayerTableRecord
  2
ESTRATTORI
 70
0
 62
7
  6
CONTINUOUS
370
-3
390
F
  0
LAYER
  5
205
100
AcDbSymbolTableRecord
100
AcDbLayerTableRecord
  2
IGES
 70
0
 62
7
  6
CONTINUOUS
370
-3
390
F
  0
LAYER
  5
206
100
AcDbSymbolTableRecord
100
AcDbLayerTableRecord
  2
INTF_1
 70
0
 62
7
  6
CONTINUOUS
370
-3
390
F
  0
LAYER
  5
207
100
AcDbSymbolTableRecord
100
AcDbLayerTableRecord
  2
INTF_7
 70
0
 62
7
  6
CONTINUOUS
370
-3
390
F
  0
LAYER
  5
208
100
AcDbSymbolTableRecord
100
AcDbLayerTableRecord
  2
INTF_RED
 70
0
 62
7
  6
CONTINUOUS
370
-3
390
F
  0
LAYER
  5
209
100
AcDbSymbolTableRecord
100
AcDbLayerTableRecord
  2
NOTE
 70
0
 62
7
  6
CONTINUOUS
370
-3
390
F
  0
LAYER
  5
20A
100
AcDbSymbolTableRecord
100
AcDbLayerTableRecord
  2
PIANI
 70
0
 62
7
  6
CONTINUOUS
370
-3
390
F
  0
LAYER
  5
20B
100
AcDbSymbolTableRecord
100
AcDbLayerTableRecord
  2
PIANI_ORIGINE
 70
0
 62
7
  6
CONTINUOUS
370
-3
390
F
  0
LAYER
  5
20C
100
AcDbSymbolTableRecord
100
AcDbLayerTableRecord
  2
PLACCA
 70
0
 62
7
  6
CONTINUOUS
370
-3
390
F
  0
LAYER
  5
20D
100
AcDbSymbolTableRecord
100
AcDbLayerTableRecord
  2
PUNTI
 70
0
 62
7
  6
CONTINUOUS
370
-3
390
F
  0
LAYER
  5
20E
100
AcDbSymbolTableRecord
100
AcDbLayerTableRecord
  2
RACCORDO
 70
0
 62
7
  6
CONTINUOUS
370
-3
390
F
  0
LAYER
  5
20F
100
AcDbSymbolTableRecord
100
AcDbLayerTableRecord
  2
RGB__255__255__255__
 70
0
 62
7
  6
CONTINUOUS
370
-3
390
F
  0
LAYER
  5
210
100
AcDbSymbolTableRecord
100
AcDbLayerTableRecord
  2
RGB____0____0____0__
 70
0
 62
7
  6
CONTINUOUS
370
-3
390
F
  0
LAYER
  5
211
100
AcDbSymbolTableRecord
100
AcDbLayerTableRecord
  2
SIMBOLI
 70
0
 62
7
  6
CONTINUOUS
370
-3
390
F
  0
LAYER
  5
212
100
AcDbSymbolTableRecord
100
AcDbLayerTableRecord
  2
SMUSSO
 70
0
 62
7
  6
CONTINUOUS
370
-3
390
F
  0
LAYER
  5
213
100
AcDbSymbolTableRecord
100
AcDbLayerTableRecord
  2
SNAPLINE
 70
0
 62
7
  6
CONTINUOUS
370
-3
390
F
  0
LAYER
  5
214
100
AcDbSymbolTableRecord
100
AcDbLayerTableRecord
  2
SUPERFICI
 70
0
 62
7
  6
CONTINUOUS
370
-3
390
F
  0
LAYER
  5
215
100
AcDbSymbolTableRecord
100
AcDbLayerTableRecord
  2
SUPPORTO
 70
0
 62
7
  6
CONTINUOUS
370
-3
390
F
  0
LAYER
  5
216
100
AcDbSymbolTableRecord
100
AcDbLayerTableRecord
  2
TRASH
 70
0
 62
7
  6
CONTINUOUS
370
-3
390
F
  0
LAYER
  5
217
100
AcDbSymbolTableRecord
100
AcDbLayerTableRecord
  2
XSEC_DATUMS
 70
0
 62
7
  6
CONTINUOUS
370
-3
390
F
  0
ENDTAB
  0
TABLE
  2
STYLE
  5
3
100
AcDbSymbolTable
 70
1
  0
STYLE
  5
11
100
AcDbSymbolTableRecord
100
AcDbTextStyleTableRecord
  2
STANDARD
 70
0
 40
0.0
 41
0.8
 50
0.0
 71
0
 42
0.2
  3
txt
  4

  0
STYLE
  5
218
100
AcDbSymbolTableRecord
100
AcDbTextStyleTableRecord
  2
TEXTSTYLE_1
 70
0
 40
0.0
 41
0.8
 50
0.0
 71
0
 42
0.2
  3
gdt
  4

  0
ENDTAB
  0
TABLE
  2
VIEW
  5
6
100
AcDbSymbolTable
 70
0
  0
ENDTAB
  0
TABLE
  2
UCS
  5
7
100
AcDbSymbolTable
 70
0
  0
ENDTAB
  0
TABLE
  2
APPID
  5
9
100
AcDbSymbolTable
 70
1
  0
APPID
  5
219
100
AcDbSymbolTableRecord
100
AcDbRegAppTableRecord
  2
ACAD
 70
0
  0
ENDTAB
  0
TABLE
  2
BLOCK_RECORD
  5
1
100
AcDbSymbolTable
 70
0
  0
BLOCK_RECORD
  5
21A
100
AcDbSymbolTableRecord
100
AcDbBlockTableRecord
  2
*Model_Space
  0
BLOCK_RECORD
  5
21B
100
AcDbSymbolTableRecord
100
AcDbBlockTableRecord
  2
*Paper_Space
  0
BLOCK_RECORD
  5
21C
100
AcDbSymbolTableRecord
100
AcDbBlockTableRecord
  2
_FILLED
  0
BLOCK_RECORD
  5
21D
100
AcDbSymbolTableRecord
100
AcDbBlockTableRecord
  2
*D0
  0
BLOCK_RECORD
  5
21E
100
AcDbSymbolTableRecord
100
AcDbBlockTableRecord
  2
*D1
  0
BLOCK_RECORD
  5
21F
100
AcDbSymbolTableRecord
100
AcDbBlockTableRecord
  2
*D2
  0
ENDTAB
  0
TABLE
  2
DIMSTYLE
  5
A
100
AcDbSymbolTable
 70
1
100
AcDbDimStyleTable
 71
0
  0
DIMSTYLE
105
220
100
AcDbSymbolTableRecord
100
AcDbDimStyleTableRecord
  2
STANDARD
 70
0
  3

  4

 40
1.0
 41
3.0
 42
0.5
 43
0.38
 44
1.5
 45
0.0
 46
0.0
 47
0.01
 48
0.01
140
3.0
141
0.09
142
0.0
143
25.4
144
1.0
145
0.0
146
1.0
147
0.625
 71
1
 72
0
 73
0
 74
0
 75
0
 76
0
 77
1
 78
8
 79
2
170
0
171
1
172
0
173
0
174
0
175
0
176
0
177
0
178
0
270
2
179
2
271
2
272
2
273
2
274
2
275
0
280
0
281
0
282
0
283
1
284
8
285
0
286
0
287
3
288
0
340
11
278
44
341
21C
342
21C
343
21C
344
21C
  0
DIMSTYLE
105
221
100
AcDbSymbolTableRecord
100
AcDbDimStyleTableRecord
  2
DIMSTYLE_1
 70
0
  3

  4

 40
1.0
 41
3.0
 42
0.5
 43
0.38
 44
1.5
 45
0.0
 46
0.0
 47
0.0
 48
0.0
140
3.0
141
0.09
142
0.0
143
25.4
144
1.0
145
0.0
146
1.0
147
0.75
 71
0
 72
0
 73
0
 74
0
 75
0
 76
0
 77
1
 78
8
 79
2
170
0
171
1
172
0
173
0
174
0
175
0
176
0
177
0
178
0
270
2
179
2
271
2
272
2
273
2
274
2
275
0
280
0
281
0
282
0
283
1
284
8
285
0
286
0
287
3
288
0
340
11
278
44
341
21C
342
21C
343
21C
344
21C
  0
ENDTAB
  0
ENDSEC
  0
SECTION
  2
BLOCKS
  0
BLOCK
  5
20
100
AcDbEntity
  8
0
100
AcDbBlockBegin
  2
*Model_Space
 70
0
 10
0.0
 20
0.0
 30
0.0
  3
*Model_Space
  1

  0
ENDBLK
  5
21
100
AcDbEntity
  8
0
100
AcDbBlockEnd
  0
BLOCK
  5
1C
100
AcDbEntity
  8
0
100
AcDbBlockBegin
  2
*Paper_Space
 70
0
 10
0.0
 20
0.0
 30
0.0
  3
*Paper_Space
  1

  0
ENDBLK
  5
1D
100
AcDbEntity
  8
0
100
AcDbBlockEnd
  0
BLOCK
  5
222
100
AcDbEntity
  8
0
100
AcDbBlockBegin
  2
_FILLED
 70
64
 10
0.0
 20
0.0
  3
_FILLED
  1

  0
SOLID
  5
223
100
AcDbEntity
  8
0
  6
BYBLOCK
 62
0
100
AcDbTrace
 10
0.0
 20
0.0
 11
-1.0
 21
0.1333333333
 12
-1.0
 22
-0.1333333333
 13
-1.0
 23
-0.1333333333
  0
ENDBLK
  5
224
100
AcDbEntity
  8
0
  6
BYBLOCK
 62
0
100
AcDbBlockEnd
  0
BLOCK
  5
225
100
AcDbEntity
  8
0
100
AcDbBlockBegin
 62
7
  6
CONTINUOUS
  2
*D0
 70
65
 10
0.0
 20
0.0
  3
*D0
  1

  0
LINE
  5
226
100
AcDbEntity
  8
0
100
AcDbLine
 62
7
  6
CONTINUOUS
 10
-60.0003826681
 20
37.5043603071
 11
-60.0003826681
 21
49.5004332731
  0
LINE
  5
227
100
AcDbEntity
  8
0
100
AcDbLine
 62
7
  6
CONTINUOUS
 10
60.0003826681
 20
37.5043603071
 11
60.0003826681
 21
49.5004332731
  0
LINE
  5
228
100
AcDbEntity
  8
0
100
AcDbLine
 62
7
  6
CONTINUOUS
 10
-60.0003826681
 20
48.0004332731
 11
0.0
 21
48.0004332731
  0
LINE
  5
229
100
AcDbEntity
  8
0
100
AcDbLine
 62
7
  6
CONTINUOUS
 10
60.0003826681
 20
48.0004332731
 11
0.0
 21
48.0004332731
  0
INSERT
  5
22A
100
AcDbEntity
  8
0
100
AcDbBlockReference
 62
7
  6
CONTINUOUS
  2
_FILLED
 10
-60.0003826681
 20
48.0004332731
 41
3.0
 42
3.0
 43
3.0
 50
180.0
  0
INSERT
  5
22B
100
AcDbEntity
  8
0
100
AcDbBlockReference
 62
7
  6
CONTINUOUS
  2
_FILLED
 10
60.0003826681
 20
48.0004332731
 41
3.0
 42
3.0
 43
3.0
  0
ENDBLK
  5
22C
100
AcDbEntity
  8
0
  6
BYBLOCK
 62
0
100
AcDbBlockEnd
  0
BLOCK
  5
22D
100
AcDbEntity
  8
0
100
AcDbBlockBegin
 62
7
  6
CONTINUOUS
  2
*D1
 70
65
 10
0.0
 20
0.0
  3
*D1
  1

  0
LINE
  5
22E
100
AcDbEntity
  8
0
100
AcDbLine
 62
7
  6
CONTINUOUS
 10
-90.5030159511
 20
22.7
 11
-90.5030159511
 21
49.5004332731
  0
LINE
  5
22F
100
AcDbEntity
  8
0
100
AcDbLine
 62
7
  6
CONTINUOUS
 10
-81.3027732962
 20
39.5082350668
 11
-81.3027732962
 21
49.5004332731
  0
LINE
  5
230
100
AcDbEntity
  8
0
100
AcDbLine
 62
7
  6
CONTINUOUS
 10
-90.5030159511
 20
48.0004332731
 11
-94.5030159511
 21
48.0004332731
  0
LINE
  5
231
100
AcDbEntity
  8
0
100
AcDbLine
 62
7
  6
CONTINUOUS
 10
-94.5030159511
 20
48.0004332731
 11
-85.9028946236
 21
48.0004332731
  0
LINE
  5
232
100
AcDbEntity
  8
0
100
AcDbLine
 62
7
  6
CONTINUOUS
 10
-81.3027732962
 20
48.0004332731
 11
-77.3027732962
 21
48.0004332731
  0
LINE
  5
233
100
AcDbEntity
  8
0
100
AcDbLine
 62
7
  6
CONTINUOUS
 10
-77.3027732962
 20
48.0004332731
 11
-85.9028946236
 21
48.0004332731
  0
INSERT
  5
234
100
AcDbEntity
  8
0
100
AcDbBlockReference
 62
7
  6
CONTINUOUS
  2
_FILLED
 10
-90.5030159511
 20
48.0004332731
 41
3.0
 42
3.0
 43
3.0
  0
INSERT
  5
235
100
AcDbEntity
  8
0
100
AcDbBlockReference
 62
7
  6
CONTINUOUS
  2
_FILLED
 10
-81.3027732962
 20
48.0004332731
 41
3.0
 42
3.0
 43
3.0
 50
180.0
  0
ENDBLK
  5
236
100
AcDbEntity
  8
0
  6
BYBLOCK
 62
0
100
AcDbBlockEnd
  0
BLOCK
  5
237
100
AcDbEntity
  8
0
100
AcDbBlockBegin
 62
7
  6
CONTINUOUS
  2
*D2
 70
65
 10
0.0
 20
0.0
  3
*D2
  1

  0
LINE
  5
238
100
AcDbEntity
  8
0
100
AcDbLine
 62
7
  6
CONTINUOUS
 10
-82.002665098
 20
40.0004151754
 11
-101.3283688982
 21
40.0004151754
  0
LINE
  5
239
100
AcDbEntity
  8
0
100
AcDbLine
 62
7
  6
CONTINUOUS
 10
-82.002665098
 20
-40.0004151754
 11
-101.3283688982
 21
-40.0004151754
  0
LINE
  5
23A
100
AcDbEntity
  8
0
100
AcDbLine
 62
7
  6
CONTINUOUS
 10
-99.8283688982
 20
40.0004151754
 11
-99.8283688982
 21
0.0
  0
LINE
  5
23B
100
AcDbEntity
  8
0
100
AcDbLine
 62
7
  6
CONTINUOUS
 10
-99.8283688982
 20
-40.0004151754
 11
-99.8283688982
 21
0.0
  0
INSERT
  5
23C
100
AcDbEntity
  8
0
100
AcDbBlockReference
 62
7
  6
CONTINUOUS
  2
_FILLED
 10
-99.8283688982
 20
40.0004151754
 41
3.0
 42
3.0
 43
3.0
 50
90.0
  0
INSERT
  5
23D
100
AcDbEntity
  8
0
100
AcDbBlockReference
 62
7
  6
CONTINUOUS
  2
_FILLED
 10
-99.8283688982
 20
-40.0004151754
 41
3.0
 42
3.0
 43
3.0
 50
270.0
  0
ENDBLK
  5
23E
100
AcDbEntity
  8
0
  6
BYBLOCK
 62
0
100
AcDbBlockEnd
  0
ENDSEC
  0
SECTION
  2
ENTITIES
  0
DIMENSION
  5
23F
100
AcDbEntity
  8
0
100
AcDbDimension
 62
7
  6
CONTINUOUS
  2
*D0
 10
60.0003826681
 20
48.0004332731
 11
-3.2142857143
 21
48.0004332731
 70
160
 71
2
 72
2
 41
0.9
 42
120.0007653361
  3
DIMSTYLE_1
100
AcDbAlignedDimension
 13
-60.0003826681
 23
37.0043603071
 14
60.0003826681
 24
37.0043603071
100
AcDbRotatedDimension
  0
DIMENSION
  5
240
100
AcDbEntity
  8
0
100
AcDbDimension
 62
7
  6
CONTINUOUS
  2
*D1
 10
-81.3027732962
 20
48.0004332731
 11
-89.1171803379
 21
48.0004332731
 70
160
 71
2
 72
2
 41
0.9
 42
9.2002426548
  3
DIMSTYLE_1
100
AcDbAlignedDimension
 13
-90.5030159511
 23
22.2
 14
-81.3027732962
 24
39.0082350668
100
AcDbRotatedDimension
  0
DIMENSION
  5
241
100
AcDbEntity
  8
0
100
AcDbDimension
 62
7
  6
CONTINUOUS
  2
*D2
 10
-99.8283688982
 20
-40.0004151754
 11
-99.8283688982
 21
-2.3571428571
 70
160
 71
2
 72
2
 41
0.9
 42
80.0008303508
  3
DIMSTYLE_1
100
AcDbAlignedDimension
 13
-81.502665098
 23
40.0004151754
 14
-81.502665098
 24
-40.0004151754
 50
270.0
100
AcDbRotatedDimension
  0
LWPOLYLINE
  5
242
100
AcDbEntity
  8
SUPERFICI
100
AcDbPolyline
 62
250
  6
CONTINUOUS
 90
13
 70
0
 10
-59.7693744068
 20
-37.0080377198
 10
-59.7451087631
 20
-37.3702639951
 10
-59.6736347659
 20
-37.7260040599
 10
-59.5562688236
 20
-38.0691341115
 10
-59.395098247
 20
-38.3937899208
 10
-59.1929917009
 20
-38.6943970539
 10
-58.953573134
 20
-38.9657915943
 10
-58.6811554114
 20
-39.2033581147
 10
-58.3803890417
 20
-39.4032100992
 10
-58.056206648
 20
-39.562087753
 10
-57.7140859076
 20
-39.677301281
 10
-57.3599920207
 20
-39.7468904902
 10
-56.9999995183
 20
-39.769708699
  0
LWPOLYLINE
  5
243
100
AcDbEntity
  8
SUPERFICI
100
AcDbPolyline
 62
250
  6
CONTINUOUS
 90
13
 70
0
 10
-59.7693744068
 20
37.0080377198
 10
-59.7451087631
 20
37.3702639951
 10
-59.6736347659
 20
37.7260040599
 10
-59.5562688236
 20
38.0691341115
 10
-59.395098247
 20
38.3937899208
 10
-59.1929917009
 20
38.6943970539
 10
-58.953573134
 20
38.9657915943
 10
-58.6811554114
 20
39.2033581147
 10
-58.3803890417
 20
39.4032100992
 10
-58.056206648
 20
39.562087753
 10
-57.7140859076
 20
39.677301281
 10
-57.3599920207
 20
39.7468904902
 10
-56.9999995183
 20
39.769708699
  0
LWPOLYLINE
  5
244
100
AcDbEntity
  8
SUPERFICI
100
AcDbPolyline
 62
250
  6
CONTINUOUS
 90
16
 70
0
 10
-58.9101429391
 20
37.0530891289
 10
-58.8825412065
 20
37.3034946423
 10
-58.8349953224
 20
37.5357755766
 10
-58.7667681708
 20
37.7502610608
 10
-58.6736633699
 20
37.9487576692
 10
-58.5580638571
 20
38.1298680469
 10
-58.4305092586
 20
38.2905509852
 10
-58.2946782546
 20
38.4327730844
 10
-58.1485856109
 20
38.5578900283
 10
-57.9966767443
 20
38.6638361294
 10
-57.8422806598
 20
38.7524724472
 10
-57.6856973338
 20
38.8254746033
 10
-57.5280971236
 20
38.8811445999
 10
-57.3713485355
 20
38.9199283183
 10
-57.2175133979
 20
38.9441146596
 10
-57.0682215025
 20
38.9547078945
  0
LWPOLYLINE
  5
245
100
AcDbEntity
  8
SUPERFICI
100
AcDbPolyline
 62
250
  6
CONTINUOUS
 90
16
 70
0
 10
-58.9101429391
 20
-37.0530891289
 10
-58.8825412065
 20
-37.3034946423
 10
-58.8349953224
 20
-37.5357755766
 10
-58.7667681708
 20
-37.7502610608
 10
-58.6736633699
 20
-37.9487576692
 10
-58.5580638571
 20
-38.1298680469
 10
-58.4305092586
 20
-38.2905509852
 10
-58.2946782546
 20
-38.4327730844
 10
-58.1485856109
 20
-38.5578900283
 10
-57.9966767443
 20
-38.6638361294
 10
-57.8422806598
 20
-38.7524724472
 10
-57.6856973338
 20
-38.8254746033
 10
-57.5280971236
 20
-38.8811445999
 10
-57.3713485355
 20
-38.9199283183
 10
-57.2175133979
 20
-38.9441146596
 10
-57.0682215025
 20
-38.9547078945
  0
LWPOLYLINE
  5
246
100
AcDbEntity
  8
SUPERFICI
100
AcDbPolyline
 62
250
  6
CONTINUOUS
 90
10
 70
0
 10
-57.07037
 20
-38.953
 10
-57.0669585391
 20
-39.0988949158
 10
-57.0619397412
 20
-39.2355145684
 10
-57.0554148009
 20
-39.3610327407
 10
-57.0474382419
 20
-39.4741913281
 10
-57.0381706475
 20
-39.5722027754
 10
-57.0281743455
 20
-39.6517448405
 10
-57.0181317227
 20
-39.7114673888
 10
-57.0085615047
 20
-39.75099231
 10
-57.0
 20
-39.7695130549
  0
LINE
  5
247
100
AcDbEntity
  8
SUPERFICI
100
AcDbLine
 62
250
  6
CONTINUOUS
 10
-58.9298497053
 20
-34.4596242509
 11
-58.9231984991
 21
-35.3259251092
  0
LWPOLYLINE
  5
248
100
AcDbEntity
  8
SUPERFICI
100
AcDbPolyline
 62
250
  6
CONTINUOUS
 90
3
 70
0
 10
-58.9368895337
 20
-32.5260359506
 10
-58.9360367054
 20
-33.0063802566
 10
-58.9298497053
 20
-34.4596242509
  0
LINE
  5
249
100
AcDbEntity
  8
SUPERFICI
100
AcDbLine
 62
250
  6
CONTINUOUS
 10
-58.9632079372
 20
-22.4182232244
 11
-58.9368895337
 21
-32.5260359506
  0
LINE
  5
24A
100
AcDbEntity
  8
SUPERFICI
100
AcDbLine
 62
250
  6
CONTINUOUS
 10
-59.7695813662
 20
37.0
 11
-59.7640715009
 21
30.2465917397
  0
LINE
  5
24B
100
AcDbEntity
  8
SUPERFICI
100
AcDbLine
 62
250
  6
CONTINUOUS
 10
-59.7640715009
 20
30.2465917397
 11
-59.7633187685
 21
28.3168458803
  0
LINE
  5
24C
100
AcDbEntity
  8
SUPERFICI
100
AcDbLine
 62
250
  6
CONTINUOUS
 10
-58.970240163
 20
-0.0000022816
 11
-58.9620959586
 21
-9.6243253455
  0
LINE
  5
24D
100
AcDbEntity
  8
0
100
AcDbLine
 62
7
  6
CONTINUOUS
 10
-60.0003826681
 20
37.0043603071
 11
-60.000378729
 21
3.7099727925
  0
LINE
  5
24E
100
AcDbEntity
  8
0
100
AcDbLine
 62
7
  6
CONTINUOUS
 10
-60.0003778512
 20
-3.7099727925
 11
-60.0003739121
 21
-37.0043605181
  0
LINE
  5
24F
100
AcDbEntity
  8
RACCORDO
100
AcDbLine
 62
7
  6
CONTINUOUS
 10
-59.8745996175
 20
1.8964204455
 11
-59.8745991688
 21
-1.8964204455
  0
LINE
  5
250
100
AcDbEntity
  8
SUPERFICI
100
AcDbLine
 62
7
  6
CONTINUOUS
 10
-59.7633187685
 20
28.3168458803
 11
-59.7618220327
 21
0.000000161
  0
LINE
  5
251
100
AcDbEntity
  8
0
100
AcDbLine
 62
250
  6
CONTINUOUS
 10
-57.0
 20
-39.7695277556
 11
-56.9999866495
 21
-40.0003994891
  0
LINE
  5
252
100
AcDbEntity
  8
SUPERFICI
100
AcDbLine
 62
7
  6
CONTINUOUS
 10
-59.7618220327
 20
0.000000161
 11
-59.7633120865
 21
-28.3168458803
  0
LINE
  5
253
100
AcDbEntity
  8
0
100
AcDbLine
 62
250
  6
CONTINUOUS
 10
-56.9999866495
 20
40.0003994891
 11
-57.0
 21
39.7695277556
  0
LINE
  5
254
100
AcDbEntity
  8
SUPERFICI
100
AcDbLine
 62
250
  6
CONTINUOUS
 10
-58.9620959586
 20
-9.6243253455
 11
-58.9632079372
 21
-22.4182232244
  0
LINE
  5
255
100
AcDbEntity
  8
SUPERFICI
100
AcDbLine
 62
250
  6
CONTINUOUS
 10
-59.7633120865
 20
-28.3168458803
 11
-59.7666642944
 21
-34.1058493589
  0
LWPOLYLINE
  5
256
100
AcDbEntity
  8
SUPERFICI
100
AcDbPolyline
 62
250
  6
CONTINUOUS
 90
3
 70
0
 10
-58.9698769438
 20
-0.0000023498
 10
-58.9632892566
 20
6.9952763977
 10
-58.9637341325
 20
21.338542682
  0
LINE
  5
257
100
AcDbEntity
  8
SUPERFICI
100
AcDbLine
 62
250
  6
CONTINUOUS
 10
-59.7666642944
 20
-34.1058493589
 11
-59.7695726352
 21
-37.0
  0
LWPOLYLINE
  5
258
100
AcDbEntity
  8
SUPERFICI
100
AcDbPolyline
 62
250
  6
CONTINUOUS
 90
4
 70
0
 10
-58.9231984991
 20
-35.3259251092
 10
-58.9228766734
 20
-36.1926134744
 10
-58.9201076014
 20
-36.6264475155
 10
-58.9101429391
 20
-37.0530891289
  0
LINE
  5
259
100
AcDbEntity
  8
SUPERFICI
100
AcDbLine
 62
250
  6
CONTINUOUS
 10
-58.9637341325
 20
21.338542682
 11
-58.961182902
 21
23.4290552917
  0
LWPOLYLINE
  5
25A
100
AcDbEntity
  8
SUPERFICI
100
AcDbPolyline
 62
250
  6
CONTINUOUS
 90
3
 70
0
 10
-58.961182902
 20
23.4290552917
 10
-58.955339154
 20
25.3680163294
 10
-58.9431351368
 20
30.4819848957
  0
LINE
  5
25B
100
AcDbEntity
  8
SUPERFICI
100
AcDbLine
 62
250
  6
CONTINUOUS
 10
-58.9431351368
 20
30.4819848957
 11
-58.9346109941
 21
33.498798689
  0
LWPOLYLINE
  5
25C
100
AcDbEntity
  8
SUPERFICI
100
AcDbPolyline
 62
250
  6
CONTINUOUS
 90
3
 70
0
 10
-58.9228766734
 20
36.1926134744
 10
-58.9201076014
 20
36.6264475155
 10
-58.9101429391
 20
37.0530891289
  0
LWPOLYLINE
  5
25D
100
AcDbEntity
  8
SUPERFICI
100
AcDbPolyline
 62
250
  6
CONTINUOUS
 90
4
 70
0
 10
-58.9346109941
 20
33.498798689
 10
-58.9269625602
 20
34.9012113966
 10
-58.9231984991
 20
35.3259251092
 10
-58.9228766734
 20
36.1926134744
  0
LWPOLYLINE
  5
25E
100
AcDbEntity
  8
SUPERFICI
100
AcDbPolyline
 62
250
  6
CONTINUOUS
 90
10
 70
0
 10
-57.07037
 20
38.953
 10
-57.0669585391
 20
39.0988949158
 10
-57.0619397412
 20
39.2355145684
 10
-57.0554148009
 20
39.3610327407
 10
-57.0474382419
 20
39.4741913281
 10
-57.0381706475
 20
39.5722027754
 10
-57.0281743455
 20
39.6517448405
 10
-57.0181317227
 20
39.7114673888
 10
-57.0085615047
 20
39.75099231
 10
-57.0
 20
39.7695130549
  0
LINE
  5
25F
100
AcDbEntity
  8
RACCORDO
100
AcDbLine
 62
7
  6
CONTINUOUS
 10
-59.958319359
 20
-3.6397611671
 11
-60.0003778512
 21
-3.7099727925
  0
LINE
  5
260
100
AcDbEntity
  8
RACCORDO
100
AcDbLine
 62
7
  6
CONTINUOUS
 10
-60.000378729
 20
3.7099727925
 11
-59.9583202202
 21
3.6397611671
  0
LINE
  5
261
100
AcDbEntity
  8
SUPERFICI
100
AcDbLine
 62
250
  6
CONTINUOUS
 10
-46.2961541686
 20
39.7597603321
 11
-46.2957238086
 21
39.0964805087
  0
LINE
  5
262
100
AcDbEntity
  8
SUPERFICI
100
AcDbLine
 62
250
  6
CONTINUOUS
 10
-46.2957238086
 20
-39.0964805087
 11
-46.2961541686
 21
-39.7597603321
  0
LWPOLYLINE
  5
263
100
AcDbEntity
  8
0
100
AcDbPolyline
 62
7
  6
CONTINUOUS
 90
10
 70
0
 10
60.0003739121
 20
-37.0043605181
 10
59.9752188372
 20
-37.0076891091
 10
59.94994138
 20
-37.01014387
 10
59.9245415407
 20
-37.0117248008
 10
59.8990193134
 20
-37.012537826
 10
59.8733747038
 20
-37.0124770211
 10
59.8476077295
 20
-37.0112246134
 10
59.8217183962
 20
-37.0086746785
 10
59.7957066981
 20
-37.0049331407
 10
59.7695726352
 20
-37.0
  0
LWPOLYLINE
  5
264
100
AcDbEntity
  8
SUPERFICI
100
AcDbPolyline
 62
250
  6
CONTINUOUS
 90
5
 70
0
 10
57.0682215025
 20
-38.9547078945
 10
56.0569574146
 20
-38.9940384555
 10
55.0049705437
 20
-39.0169809737
 10
53.9098272721
 20
-39.0306059936
 10
51.5835643183
 20
-39.0638639199
  0
LWPOLYLINE
  5
265
100
AcDbEntity
  8
SUPERFICI
100
AcDbPolyline
 62
250
  6
CONTINUOUS
 90
3
 70
0
 10
-57.0682215025
 20
-38.9547078945
 10
-56.0569574146
 20
-38.9940384555
 10
-55.0049705437
 20
-39.0169809737
  0
LWPOLYLINE
  5
266
100
AcDbEntity
  8
0
100
AcDbPolyline
 62
7
  6
CONTINUOUS
 90
3
 70
0
 43
0.3500000006
 10
-3.2142856836
 20
50.8932899323
 10
-2.3571427875
 20
51.7504324036
 10
-2.3571427875
 20
48.750431488
  0
LWPOLYLINE
  5
267
100
AcDbEntity
  8
SUPERFICI
100
AcDbPolyline
 62
250
  6
CONTINUOUS
 90
3
 70
0
 10
51.5835643183
 20
-39.0638639199
 10
50.3342058894
 20
-39.0749875997
 10
47.6813730087
 20
-39.0860779416
  0
LINE
  5
268
100
AcDbEntity
  8
SUPERFICI
100
AcDbLine
 62
250
  6
CONTINUOUS
 10
47.6813730087
 20
-39.0860779416
 11
46.2950957702
 21
-39.0973109842
  0
LINE
  5
269
100
AcDbEntity
  8
SUPERFICI
100
AcDbLine
 62
250
  6
CONTINUOUS
 10
-57.0
 20
-39.7695277556
 11
-53.4333401695
 21
-39.7622776613
  0
LINE
  5
26A
100
AcDbEntity
  8
SUPERFICI
100
AcDbLine
 62
250
  6
CONTINUOUS
 10
-53.4333401695
 20
-39.7622776613
 11
-49.8653287424
 21
-39.758204945
  0
LINE
  5
26B
100
AcDbEntity
  8
SUPERFICI
100
AcDbLine
 62
250
  6
CONTINUOUS
 10
46.2957238086
 20
-39.0964805087
 11
39.6609851409
 21
-39.1081366013
  0
LINE
  5
26C
100
AcDbEntity
  8
SUPERFICI
100
AcDbLine
 62
250
  6
CONTINUOUS
 10
-11.3504735755
 20
-39.1108470524
 11
0.0000001396
 21
-39.1014452844
  0
LINE
  5
26D
100
AcDbEntity
  8
0
100
AcDbLine
 62
7
  6
CONTINUOUS
 10
-56.9999866495
 20
-40.0003994891
 11
56.9999872951
 21
-40.0003858983
  0
LINE
  5
26E
100
AcDbEntity
  8
SUPERFICI
100
AcDbLine
 62
7
  6
CONTINUOUS
 10
0.0000007641
 20
-39.7621688436
 11
46.2962593494
 21
-39.7572985412
  0
LINE
  5
26F
100
AcDbEntity
  8
SUPERFICI
100
AcDbLine
 62
250
  6
CONTINUOUS
 10
-49.8653287424
 20
-39.758204945
 11
-46.2962593494
 21
-39.7573095497
  0
LINE
  5
270
100
AcDbEntity
  8
SUPERFICI
100
AcDbLine
 62
7
  6
CONTINUOUS
 10
-46.2962593494
 20
-39.7573095497
 11
0.0000007641
 21
-39.7621688436
  0
LINE
  5
271
100
AcDbEntity
  8
SUPERFICI
100
AcDbLine
 62
250
  6
CONTINUOUS
 10
-15.8631068639
 20
-39.1100514561
 11
-11.3504735755
 21
-39.1108470524
  0
LINE
  5
272
100
AcDbEntity
  8
SUPERFICI
100
AcDbLine
 62
250
  6
CONTINUOUS
 10
39.6609851409
 20
-39.1081366013
 11
11.3606767901
 21
-39.1109256201
  0
LINE
  5
273
100
AcDbEntity
  8
SUPERFICI
100
AcDbLine
 62
250
  6
CONTINUOUS
 10
46.2962593494
 20
-39.7572985412
 11
49.8656156584
 21
-39.7581932875
  0
LINE
  5
274
100
AcDbEntity
  8
SUPERFICI
100
AcDbLine
 62
250
  6
CONTINUOUS
 10
11.3606767901
 20
-39.1109256201
 11
8.2163484259
 21
-39.1088248207
  0
LINE
  5
275
100
AcDbEntity
  8
SUPERFICI
100
AcDbLine
 62
250
  6
CONTINUOUS
 10
49.8656156584
 20
-39.7581932875
 11
53.4336338631
 21
-39.7622654218
  0
LINE
  5
276
100
AcDbEntity
  8
SUPERFICI
100
AcDbLine
 62
250
  6
CONTINUOUS
 10
8.2163484259
 20
-39.1088248207
 11
-0.0000027146
 21
-39.0970495127
  0
LWPOLYLINE
  5
277
100
AcDbEntity
  8
SUPERFICI
100
AcDbPolyline
 62
250
  6
CONTINUOUS
 90
3
 70
0
 10
-46.2957238086
 20
-39.0964805087
 10
-41.6618734812
 20
-39.10624825
 10
-15.8631068639
 20
-39.1100514561
  0
LINE
  5
278
100
AcDbEntity
  8
SUPERFICI
100
AcDbLine
 62
250
  6
CONTINUOUS
 10
53.4336338631
 20
-39.7622654218
 11
57.0
 21
-39.7695142019
  0
LWPOLYLINE
  5
279
100
AcDbEntity
  8
SUPERFICI
100
AcDbPolyline
 62
250
  6
CONTINUOUS
 90
3
 70
0
 10
-50.3342058894
 20
-39.0749875997
 10
-47.6813730087
 20
-39.0860779416
 10
-46.2950957702
 20
-39.0973109842
  0
LWPOLYLINE
  5
27A
100
AcDbEntity
  8
SUPERFICI
100
AcDbPolyline
 62
250
  6
CONTINUOUS
 90
4
 70
0
 10
-55.0049705437
 20
-39.0169809737
 10
-52.7723355221
 20
-39.0461370202
 10
-51.5835643183
 20
-39.0638639199
 10
-50.3342058894
 20
-39.0749875997
  0
LWPOLYLINE
  5
27B
100
AcDbEntity
  8
SUPERFICI
100
AcDbPolyline
 62
250
  6
CONTINUOUS
 90
10
 70
0
 10
-58.91008
 20
-37.05298
 10
-59.0623649281
 20
-37.0507417784
 10
-59.2055272815
 20
-37.0473259638
 10
-59.3375225476
 20
-37.0428218402
 10
-59.456925551
 20
-37.0372858588
 10
-59.5606239847
 20
-37.0308436577
 10
-59.6449000663
 20
-37.0237403057
 10
-59.7082062796
 20
-37.0161673879
 10
-59.7500771808
 20
-37.008213166
 10
-59.7695816451
 20
-37.0
  0
LWPOLYLINE
  5
27C
100
AcDbEntity
  8
SUPERFICI
100
AcDbPolyline
 62
250
  6
CONTINUOUS
 90
5
 70
0
 10
-25.9381269297
 20
22.1470295245
 10
-25.9204155563
 20
20.6676732741
 10
-25.8979444923
 20
19.1072134111
 10
-25.8803107821
 20
17.4762000939
 10
-25.8744817736
 20
15.7907846623
  0
LWPOLYLINE
  5
27D
100
AcDbEntity
  8
SUPERFICI
100
AcDbPolyline
 62
250
  6
CONTINUOUS
 90
7
 70
0
 10
-25.8838323343
 20
-12.2553356297
 10
-25.8944635486
 20
-10.3883104277
 10
-25.9078154229
 20
-8.4549715725
 10
-25.9059235212
 20
-6.4528659279
 10
-25.8927879384
 20
-4.3802002963
 10
-25.892416788
 20
-2.2308218541
 10
-25.9235995064
 20
0.0000016839
  0
LWPOLYLINE
  5
27E
100
AcDbEntity
  8
SUPERFICI
100
AcDbPolyline
 62
250
  6
CONTINUOUS
 90
8
 70
0
 10
-25.8744817736
 20
15.7907846623
 10
-25.8838323295
 20
12.2553369966
 10
-25.8944635392
 20
10.3883120748
 10
-25.907815407
 20
8.4549735208
 10
-25.9059235124
 20
6.4528682011
 10
-25.8927879489
 20
4.3802029158
 10
-25.8924168125
 20
2.2308248395
 10
-25.9235995285
 20
0.0000016839
  0
LWPOLYLINE
  5
27F
100
AcDbEntity
  8
SUPERFICI
100
AcDbPolyline
 62
250
  6
CONTINUOUS
 90
6
 70
0
 10
-25.9381269297
 20
-22.1470295245
 10
-25.9204155554
 20
-20.6676730898
 10
-25.8979444902
 20
-19.1072130212
 10
-25.8803107802
 20
-17.4761994804
 10
-25.8744817747
 20
-15.7907838109
 10
-25.8838323343
 20
-12.2553356297
  0
LWPOLYLINE
  5
280
100
AcDbEntity
  8
0
100
AcDbPolyline
 62
250
  6
CONTINUOUS
 90
16
 70
0
 10
22.6645113084
 20
-25.9002234928
 10
22.9435894401
 20
-25.8561663459
 10
23.2277102995
 20
-25.7877968205
 10
23.5149002221
 20
-25.693966643
 10
23.8034430898
 20
-25.5732396115
 10
24.0903542797
 20
-25.4240977606
 10
24.3715121229
 20
-25.2449858933
 10
24.6461482978
 20
-25.0327236733
 10
24.9094605971
 20
-24.7861749997
 10
25.1520366764
 20
-24.5071126184
 10
25.3753307826
 20
-24.1920250925
 10
25.573842034
 20
-23.8400876138
 10
25.730515199
 20
-23.4590157042
 10
25.8406223017
 20
-23.0516771329
 10
25.9096975508
 20
-22.6144524578
 10
25.9381269297
 20
-22.1470295245
  0
LINE
  5
281
100
AcDbEntity
  8
SUPERFICI
100
AcDbLine
 62
250
  6
CONTINUOUS
 10
-20.0164344969
 20
-25.8874066465
 11
-22.1644173734
 21
-25.9196625408
  0
LINE
  5
282
100
AcDbEntity
  8
SUPERFICI
100
AcDbLine
 62
250
  6
CONTINUOUS
 10
-14.7171864401
 20
-25.8228594207
 11
-20.0164344969
 21
-25.8874066465
  0
LINE
  5
283
100
AcDbEntity
  8
SUPERFICI
100
AcDbLine
 62
250
  6
CONTINUOUS
 10
-11.827593949
 20
-25.7960836277
 11
-14.7171864401
 21
-25.8228594207
  0
LWPOLYLINE
  5
284
100
AcDbEntity
  8
SUPERFICI
100
AcDbPolyline
 62
250
  6
CONTINUOUS
 90
4
 70
0
 10
-3.8840823259
 20
-25.7277419453
 10
-6.4117441275
 20
-25.7484531257
 10
-7.2934045512
 20
-25.7547746373
 10
-11.827593949
 20
-25.7960836277
  0
LINE
  5
285
100
AcDbEntity
  8
SUPERFICI
100
AcDbLine
 62
250
  6
CONTINUOUS
 10
-3.1151412258
 20
-25.7227969339
 11
-3.8840823259
 21
-25.7277419453
  0
LWPOLYLINE
  5
286
100
AcDbEntity
  8
SUPERFICI
100
AcDbPolyline
 62
250
  6
CONTINUOUS
 90
3
 70
0
 10
0.0000206157
 20
-25.7030011834
 10
-0.7731553644
 20
-25.7059687583
 10
-3.1151412258
 20
-25.7227969339
  0
LINE
  5
287
100
AcDbEntity
  8
SUPERFICI
100
AcDbLine
 62
250
  6
CONTINUOUS
 10
59.6439776613
 20
-28.3172096979
 11
59.7636331457
 21
-28.31682
  0
LINE
  5
288
100
AcDbEntity
  8
SUPERFICI
100
AcDbLine
 62
250
  6
CONTINUOUS
 10
58.947459716
 20
-28.3177900615
 11
59.6439776613
 21
-28.3172096979
  0
LINE
  5
289
100
AcDbEntity
  8
0
100
AcDbLine
 62
7
  6
CONTINUOUS
 10
20.4305188827
 20
-28.8003967132
 11
19.8504968827
 21
-28.8004047132
  0
LINE
  5
28A
100
AcDbEntity
  8
0
100
AcDbLine
 62
7
  6
CONTINUOUS
 10
25.0003748827
 20
-28.8003897132
 11
24.3470698827
 21
-28.8003967132
  0
LINE
  5
28B
100
AcDbEntity
  8
0
100
AcDbLine
 62
7
  6
CONTINUOUS
 10
18.3354138827
 20
-28.8003967132
 11
17.7554058827
 21
-28.8004047132
  0
LINE
  5
28C
100
AcDbEntity
  8
0
100
AcDbLine
 62
7
  6
CONTINUOUS
 10
16.0470018827
 20
-28.8004047132
 11
15.4669798827
 21
-28.8004117132
  0
LINE
  5
28D
100
AcDbEntity
  8
0
100
AcDbLine
 62
7
  6
CONTINUOUS
 10
14.1491688827
 20
-28.8004047132
 11
13.5691258827
 21
-28.8004117132
  0
LINE
  5
28E
100
AcDbEntity
  8
0
100
AcDbLine
 62
7
  6
CONTINUOUS
 10
19.4638178827
 20
-28.8004047132
 11
18.8837958827
 21
-28.8004047132
  0
LINE
  5
28F
100
AcDbEntity
  8
0
100
AcDbLine
 62
7
  6
CONTINUOUS
 10
17.2070308827
 20
-28.8004047132
 11
16.6270088827
 21
-28.8004047132
  0
LINE
  5
290
100
AcDbEntity
  8
0
100
AcDbLine
 62
7
  6
CONTINUOUS
 10
23.2595188827
 20
-28.8003967132
 11
22.6794898827
 21
-28.8003967132
  0
LINE
  5
291
100
AcDbEntity
  8
0
100
AcDbLine
 62
7
  6
CONTINUOUS
 10
22.2928118827
 20
-28.8004047132
 11
21.7127828827
 21
-28.8003967132
  0
LINE
  5
292
100
AcDbEntity
  8
0
100
AcDbLine
 62
7
  6
CONTINUOUS
 10
21.5296768827
 20
-28.2300687132
 11
20.6136318827
 21
-28.2300687132
  0
LINE
  5
293
100
AcDbEntity
  8
0
100
AcDbLine
 62
7
  6
CONTINUOUS
 10
20.7905538827
 20
-27.6790467132
 11
21.3527478827
 21
-27.6790467132
  0
LINE
  5
294
100
AcDbEntity
  8
0
100
AcDbLine
 62
7
  6
CONTINUOUS
 10
23.7658158827
 20
-27.6790467132
 11
23.2595848827
 21
-27.6790397132
  0
LINE
  5
295
100
AcDbEntity
  8
0
100
AcDbLine
 62
7
  6
CONTINUOUS
 10
23.2515228827
 20
-27.1425177132
 11
23.9571988827
 21
-27.1425177132
  0
LINE
  5
296
100
AcDbEntity
  8
0
100
AcDbLine
 62
7
  6
CONTINUOUS
 10
23.9571988827
 20
-26.4367877132
 11
23.2515148827
 21
-26.4367877132
  0
LINE
  5
297
100
AcDbEntity
  8
0
100
AcDbLine
 62
7
  6
CONTINUOUS
 10
12.6379938827
 20
-25.9002737132
 11
13.2180228827
 21
-25.9002737132
  0
LINE
  5
298
100
AcDbEntity
  8
0
100
AcDbLine
 62
7
  6
CONTINUOUS
 10
14.5002798827
 20
-25.9002737132
 11
15.0803088827
 21
-25.9002737132
  0
LINE
  5
299
100
AcDbEntity
  8
0
100
AcDbLine
 62
7
  6
CONTINUOUS
 10
15.4669868827
 20
-25.9002737132
 11
16.0470088827
 21
-25.9002737132
  0
LINE
  5
29A
100
AcDbEntity
  8
0
100
AcDbLine
 62
7
  6
CONTINUOUS
 10
16.6270088827
 20
-25.9002737132
 11
17.5038458827
 21
-25.9002737132
  0
LINE
  5
29B
100
AcDbEntity
  8
0
100
AcDbLine
 62
7
  6
CONTINUOUS
 10
18.5869808827
 20
-25.9002737132
 11
19.4638178827
 21
-25.9002737132
  0
LINE
  5
29C
100
AcDbEntity
  8
0
100
AcDbLine
 62
7
  6
CONTINUOUS
 10
20.7816218827
 20
-25.9002667132
 11
21.3616718827
 21
-25.9002667132
  0
LINE
  5
29D
100
AcDbEntity
  8
0
100
AcDbLine
 62
7
  6
CONTINUOUS
 10
22.6794898827
 20
-25.9002667132
 11
24.0377048827
 21
-25.9002667132
  0
LWPOLYLINE
  5
29E
100
AcDbEntity
  8
SUPERFICI
100
AcDbPolyline
 62
250
  6
CONTINUOUS
 90
3
 70
0
 10
-58.947459716
 20
-28.3177900615
 10
-59.7453426697
 20
-28.3169416932
 10
-59.7636331457
 20
-28.31682
  0
LINE
  5
29F
100
AcDbEntity
  8
0
100
AcDbLine
 62
250
  6
CONTINUOUS
 10
0.0000213532
 20
-25.7029808617
 11
3.3359735101
 21
-25.7231444647
  0
LWPOLYLINE
  5
2A0
100
AcDbEntity
  8
SUPERFICI
100
AcDbPolyline
 62
250
  6
CONTINUOUS
 90
16
 70
0
 10
-22.1644173734
 20
-25.9196625408
 10
-22.4593638226
 20
-25.9173700448
 10
-22.7651418933
 20
-25.8864369512
 10
-23.0796868897
 20
-25.8257172009
 10
-23.4009166453
 20
-25.7339596865
 10
-23.7253321454
 20
-25.6091573881
 10
-24.0480647365
 20
-25.4485166297
 10
-24.3671529499
 20
-25.2480418995
 10
-24.6766912919
 20
-25.0061551505
 10
-24.9663691665
 20
-24.7236572342
 10
-25.2386411612
 20
-24.3950116918
 10
-25.484137583
 20
-24.0190948309
 10
-25.6786581773
 20
-23.6057963338
 10
-25.8154209732
 20
-23.1587172468
 10
-25.9018153932
 20
-22.672696378
 10
-25.9381269297
 20
-22.1470295245
  0
LINE
  5
2A1
100
AcDbEntity
  8
0
100
AcDbLine
 62
250
  6
CONTINUOUS
 10
19.4626027856
 20
-25.8831021152
 11
19.9013109062
 21
-25.8861060814
  0
LINE
  5
2A2
100
AcDbEntity
  8
0
100
AcDbLine
 62
250
  6
CONTINUOUS
 10
3.3359735101
 20
-25.7231444647
 11
8.4342176031
 21
-25.7641535625
  0
LINE
  5
2A3
100
AcDbEntity
  8
0
100
AcDbLine
 62
250
  6
CONTINUOUS
 10
8.4342176031
 20
-25.7641535625
 11
15.4678493845
 21
-25.8308079552
  0
LINE
  5
2A4
100
AcDbEntity
  8
0
100
AcDbLine
 62
250
  6
CONTINUOUS
 10
19.9013109062
 20
-25.8861060814
 11
20.34098211
 21
-25.8917934551
  0
LINE
  5
2A5
100
AcDbEntity
  8
0
100
AcDbLine
 62
250
  6
CONTINUOUS
 10
15.4678493845
 20
-25.8308079552
 11
16.7419222676
 21
-25.8492798325
  0
LINE
  5
2A6
100
AcDbEntity
  8
0
100
AcDbLine
 62
250
  6
CONTINUOUS
 10
16.7419222676
 20
-25.8492798325
 11
17.657213964
 21
-25.8656970933
  0
LINE
  5
2A7
100
AcDbEntity
  8
0
100
AcDbLine
 62
250
  6
CONTINUOUS
 10
17.657213964
 20
-25.8656970933
 11
18.5897736312
 21
-25.8848803407
  0
LINE
  5
2A8
100
AcDbEntity
  8
0
100
AcDbLine
 62
250
  6
CONTINUOUS
 10
20.34098211
 20
-25.8917934551
 11
20.781621887
 21
-25.9002666952
  0
LWPOLYLINE
  5
2A9
100
AcDbEntity
  8
SUPERFICI
100
AcDbPolyline
 62
250
  6
CONTINUOUS
 90
13
 70
0
 10
-24.1205429037
 20
-22.2000014303
 10
-24.1066536504
 20
-22.4538258999
 10
-24.0593065064
 20
-22.7035325614
 10
-23.9794069581
 20
-22.9447331902
 10
-23.8684645031
 20
-23.1733041067
 10
-23.7284372733
 20
-23.3851985379
 10
-23.5618132895
 20
-23.5764793748
 10
-23.371728499
 20
-23.7438682296
 10
-23.1615922178
 20
-23.8845666075
 10
-22.9351068196
 20
-23.9959527707
 10
-22.6964183592
 20
-24.0761251948
 10
-22.449906344
 20
-24.1239889552
 10
-22.1999985696
 20
-24.1389572708
  0
LINE
  5
2AA
100
AcDbEntity
  8
SUPERFICI
100
AcDbLine
 62
250
  6
CONTINUOUS
 10
-22.1837430903
 20
-24.8717588248
 11
-22.1999992848
 21
-24.1389556972
  0
LINE
  5
2AB
100
AcDbEntity
  8
SUPERFICI
100
AcDbLine
 62
250
  6
CONTINUOUS
 10
-22.16539
 20
-25.91973
 11
-22.1837430903
 21
-24.8717588248
  0
LWPOLYLINE
  5
2AC
100
AcDbEntity
  8
SUPERFICI
100
AcDbPolyline
 62
250
  6
CONTINUOUS
 90
5
 70
0
 10
-24.120537984
 20
22.2
 10
-24.1117424535
 20
19.7786565906
 10
-24.1049672978
 20
17.3454804679
 10
-24.1002540631
 20
14.9004716318
 10
-24.098273886
 20
12.4429608837
  0
LINE
  5
2AD
100
AcDbEntity
  8
SUPERFICI
100
AcDbLine
 62
7
  6
CONTINUOUS
 10
-22.5
 20
-22.2
 11
-22.5
 21
22.2
  0
LINE
  5
2AE
100
AcDbEntity
  8
SUPERFICI
100
AcDbLine
 62
250
  6
CONTINUOUS
 10
-22.2
 20
24.1389563567
 11
-22.2
 21
22.5000173892
  0
LINE
  5
2AF
100
AcDbEntity
  8
SUPERFICI
100
AcDbLine
 62
250
  6
CONTINUOUS
 10
-22.2
 20
-24.1389563567
 11
-22.2
 21
-22.5000173892
  0
LINE
  5
2B0
100
AcDbEntity
  8
SUPERFICI
100
AcDbLine
 62
250
  6
CONTINUOUS
 10
-24.098273886
 20
12.4429608837
 11
-24.0982756358
 21
-12.4461785739
  0
LWPOLYLINE
  5
2B1
100
AcDbEntity
  8
SUPERFICI
100
AcDbPolyline
 62
250
  6
CONTINUOUS
 90
5
 70
0
 10
-24.0982756358
 20
-12.4461785739
 10
-24.1002563408
 20
-14.9031020238
 10
-24.1049693217
 20
-17.3474279842
 10
-24.1117437134
 20
-19.7797273096
 10
-24.120537984
 20
-22.2
  0
LINE
  5
2B2
100
AcDbEntity
  8
SUPERFICI
100
AcDbLine
 62
250
  6
CONTINUOUS
 10
-22.16539
 20
25.91973
 11
-22.1798232361
 21
25.0734129734
  0
LWPOLYLINE
  5
2B3
100
AcDbEntity
  8
SUPERFICI
100
AcDbPolyline
 62
250
  6
CONTINUOUS
 90
3
 70
0
 10
-22.1798232361
 20
25.0734129734
 10
-22.1958789284
 20
24.3097094913
 10
-22.1999992848
 20
24.1389556972
  0
LWPOLYLINE
  5
2B4
100
AcDbEntity
  8
0
100
AcDbPolyline
 62
7
  6
CONTINUOUS
 90
10
 70
0
 10
-59.7695726352
 20
-37.0
 10
-59.7957066981
 20
-37.0049331407
 10
-59.8217183962
 20
-37.0086746785
 10
-59.8476077295
 20
-37.0112246134
 10
-59.8733747038
 20
-37.0124770211
 10
-59.8990193134
 20
-37.012537826
 10
-59.9245415407
 20
-37.0117248008
 10
-59.94994138
 20
-37.01014387
 10
-59.9752188372
 20
-37.0076891091
 10
-60.0003739121
 20
-37.0043605181
  0
LWPOLYLINE
  5
2B5
100
AcDbEntity
  8
SUPERFICI
100
AcDbPolyline
 62
250
  6
CONTINUOUS
 90
13
 70
0
 10
22.1999985696
 20
-24.1389550376
 10
22.4500978968
 20
-24.1239616601
 10
22.6967449435
 20
-24.0760359458
 10
22.9355082022
 20
-23.9957849534
 10
23.1619954055
 20
-23.8843317744
 10
23.3720834806
 20
-23.7435924868
 10
23.5621167149
 20
-23.5761709635
 10
23.7287069089
 20
-23.3848401854
 10
23.8686924493
 20
-23.1728994357
 10
23.9795674581
 20
-22.9443318775
 10
24.059388526
 20
-22.7032068866
 10
24.1066745674
 20
-22.4536353359
 10
24.1205406688
 20
-22.2000014303
  0
LINE
  5
2B6
100
AcDbEntity
  8
SUPERFICI
100
AcDbLine
 62
250
  6
CONTINUOUS
 10
24.1205393264
 20
-22.2000007152
 11
24.6749921165
 21
-22.1811380671
  0
LINE
  5
2B7
100
AcDbEntity
  8
SUPERFICI
100
AcDbLine
 62
250
  6
CONTINUOUS
 10
24.6749921165
 20
-22.1811380671
 11
25.2911489452
 21
-22.1631855832
  0
LINE
  5
2B8
100
AcDbEntity
  8
SUPERFICI
100
AcDbLine
 62
250
  6
CONTINUOUS
 10
25.2911489452
 20
-22.1631855832
 11
25.9382
 21
-22.14703
  0
LINE
  5
2B9
100
AcDbEntity
  8
SUPERFICI
100
AcDbLine
 62
250
  6
CONTINUOUS
 10
-22.2
 20
-24.1389563567
 11
-17.221897254
 21
-24.1236094762
  0
LWPOLYLINE
  5
2BA
100
AcDbEntity
  8
SUPERFICI
100
AcDbPolyline
 62
250
  6
CONTINUOUS
 90
6
 70
0
 10
-17.221897254
 20
-24.1236094762
 10
-9.8484911628
 20
-24.1043861451
 10
-7.3983074214
 20
-24.1003608931
 10
-4.9374485036
 20
-24.0986597421
 10
-2.4713460298
 20
-24.0988797018
 10
0.0
 20
-24.1010195863
  0
LWPOLYLINE
  5
2BB
100
AcDbEntity
  8
SUPERFICI
100
AcDbPolyline
 62
250
  6
CONTINUOUS
 90
5
 70
0
 10
0.0
 20
-24.1010195863
 10
2.4718936049
 20
-24.0988798787
 10
4.9383979301
 20
-24.0986601921
 10
7.3995129757
 20
-24.1003617108
 10
9.8497953482
 20
-24.1043876086
  0
LINE
  5
2BC
100
AcDbEntity
  8
SUPERFICI
100
AcDbLine
 62
7
  6
CONTINUOUS
 10
22.2
 20
-22.5
 11
-22.2
 21
-22.5
  0
LINE
  5
2BD
100
AcDbEntity
  8
SUPERFICI
100
AcDbLine
 62
250
  6
CONTINUOUS
 10
24.120537984
 20
-22.2
 11
22.5000051
 21
-22.2
  0
LINE
  5
2BE
100
AcDbEntity
  8
SUPERFICI
100
AcDbLine
 62
250
  6
CONTINUOUS
 10
-22.5000051
 20
-22.2
 11
-24.120537984
 21
-22.2
  0
LINE
  5
2BF
100
AcDbEntity
  8
SUPERFICI
100
AcDbLine
 62
250
  6
CONTINUOUS
 10
9.8497953482
 20
-24.1043876086
 11
17.2227407225
 21
-24.1236115589
  0
LINE
  5
2C0
100
AcDbEntity
  8
SUPERFICI
100
AcDbLine
 62
250
  6
CONTINUOUS
 10
17.2227407225
 20
-24.1236115589
 11
22.2
 21
-24.1389563567
  0
LINE
  5
2C1
100
AcDbEntity
  8
SUPERFICI
100
AcDbLine
 62
250
  6
CONTINUOUS
 10
-25.9381269297
 20
-22.1470295245
 11
-25.2887041507
 21
-22.1632507727
  0
LWPOLYLINE
  5
2C2
100
AcDbEntity
  8
0
100
AcDbPolyline
 62
250
  6
CONTINUOUS
 90
7
 70
0
 10
22.1644173734
 20
-25.9196625408
 10
22.2451399361
 20
-25.9219459606
 10
22.3279608316
 20
-25.9219249944
 10
22.4128413144
 20
-25.9195783472
 10
22.4997378269
 20
-25.9148821678
 10
22.5886020037
 20
-25.9078100158
 10
22.6793807383
 20
-25.8983328216
  0
LINE
  5
2C3
100
AcDbEntity
  8
SUPERFICI
100
AcDbLine
 62
250
  6
CONTINUOUS
 10
-25.2887041507
 20
-22.1632507727
 11
-24.6728323426
 21
-22.1812064414
  0
LINE
  5
2C4
100
AcDbEntity
  8
SUPERFICI
100
AcDbLine
 62
250
  6
CONTINUOUS
 10
-24.6728323426
 20
-22.1812064414
 11
-24.1205393264
 21
-22.2000007152
  0
LWPOLYLINE
  5
2C5
100
AcDbEntity
  8
0
100
AcDbPolyline
 62
250
  6
CONTINUOUS
 90
7
 70
0
 10
21.3616718774
 20
-25.9002666998
 10
21.4956280294
 20
-25.9052473104
 10
21.6295415173
 20
-25.9095385817
 10
21.7633950089
 20
-25.9131332626
 10
21.8971708492
 20
-25.9160239223
 10
22.0308510657
 20
-25.9182029478
 10
22.1644173734
 20
-25.9196625408
  0
LWPOLYLINE
  5
2C6
100
AcDbEntity
  8
SUPERFICI
100
AcDbPolyline
 62
250
  6
CONTINUOUS
 90
5
 70
0
 10
0.0000001396
 20
-39.1014452844
 10
-0.0032973728
 20
-37.7188656447
 10
-0.002354466
 20
-36.2962666033
 10
0.0007561264
 20
-34.8392082564
 10
-0.0097015738
 20
-31.804375686
  0
LINE
  5
2C7
100
AcDbEntity
  8
SUPERFICI
100
AcDbLine
 62
7
  6
CONTINUOUS
 10
0.0001395173
 20
-39.5275823861
 11
0.0000001396
 21
-39.1014452844
  0
LINE
  5
2C8
100
AcDbEntity
  8
SUPERFICI
100
AcDbLine
 62
250
  6
CONTINUOUS
 10
-0.0000396923
 20
25.7030207644
 11
-0.0000003347
 21
24.1010195866
  0
LINE
  5
2C9
100
AcDbEntity
  8
SUPERFICI
100
AcDbLine
 62
250
  6
CONTINUOUS
 10
-0.0000396925
 20
-25.7030004505
 11
-0.0000003347
 21
-24.1010195861
  0
LINE
  5
2CA
100
AcDbEntity
  8
SUPERFICI
100
AcDbLine
 62
7
  6
CONTINUOUS
 10
0.0000001396
 20
39.1014452844
 11
0.0000162959
 21
39.7640959792
  0
LWPOLYLINE
  5
2CB
100
AcDbEntity
  8
SUPERFICI
100
AcDbPolyline
 62
250
  6
CONTINUOUS
 90
4
 70
0
 10
0.0000684462
 20
39.1063290178
 10
-0.0032973728
 20
37.7188656447
 10
-0.002354466
 20
36.2962666033
 10
0.0007561264
 20
34.8392082564
  0
LINE
  5
2CC
100
AcDbEntity
  8
SUPERFICI
100
AcDbLine
 62
7
  6
CONTINUOUS
 10
0.0000162959
 20
-39.7640959792
 11
0.0001395173
 21
-39.5275823861
  0
LWPOLYLINE
  5
2CD
100
AcDbEntity
  8
SUPERFICI
100
AcDbPolyline
 62
250
  6
CONTINUOUS
 90
6
 70
0
 10
0.0007561264
 20
34.8392082564
 10
-0.0097015738
 20
31.804375686
 10
-0.0004111223
 20
30.2696419497
 10
0.0164546758
 20
28.7455353113
 10
0.0205023437
 20
27.2229384656
 10
0.0000213532
 20
25.7029808617
  0
LWPOLYLINE
  5
2CE
100
AcDbEntity
  8
SUPERFICI
100
AcDbPolyline
 62
250
  6
CONTINUOUS
 90
5
 70
0
 10
-0.0097015738
 20
-31.804375686
 10
-0.0004111223
 20
-30.2696419497
 10
0.0164546758
 20
-28.7455353114
 10
0.0205023437
 20
-27.2229384656
 10
0.0000213532
 20
-25.7029808617
  0
LINE
  5
2CF
100
AcDbEntity
  8
SUPERFICI
100
AcDbLine
 62
7
  6
CONTINUOUS
 10
-59.7618736712
 20
0.0000005677
 11
-58.9698769438
 21
-0.0000023498
  0
LINE
  5
2D0
100
AcDbEntity
  8
SUPERFICI
100
AcDbLine
 62
7
  6
CONTINUOUS
 10
59.7618737749
 20
0.0000005677
 11
58.970240163
 21
-0.0000022816
  0
LINE
  5
2D1
100
AcDbEntity
  8
SUPERFICI
100
AcDbLine
 62
250
  6
CONTINUOUS
 10
-24.0987739229
 20
0.0000007417
 11
-39.7619925075
 21
-0.0022363267
  0
LINE
  5
2D2
100
AcDbEntity
  8
SUPERFICI
100
AcDbLine
 62
250
  6
CONTINUOUS
 10
-39.7619925075
 20
-0.0022363267
 11
-58.9694017992
 21
0.0000532982
  0
LINE
  5
2D3
100
AcDbEntity
  8
SUPERFICI
100
AcDbLine
 62
250
  6
CONTINUOUS
 10
24.0987739229
 20
0.0000007417
 11
58.9694017992
 21
0.0000532982
  0
LWPOLYLINE
  5
2D4
100
AcDbEntity
  8
0
100
AcDbPolyline
 62
7
  6
CONTINUOUS
 90
13
 70
0
 43
0.3500000006
 10
0.8571428254
 20
49.6075739594
 10
0.8571428254
 20
50.8932899323
 10
1.0714285848
 20
51.3218634338
 10
1.5000000329
 20
51.7504324036
 10
1.7142856507
 20
51.7504324036
 10
2.1428571696
 20
51.3218634338
 10
2.3571427875
 20
50.8932899323
 10
2.3571427875
 20
49.6075739594
 10
2.1428571696
 20
49.1790049896
 10
1.7142856507
 20
48.750431488
 10
1.5000000329
 20
48.750431488
 10
1.0714285848
 20
49.1790049896
 10
0.8571428254
 20
49.6075739594
  0
LINE
  5
2D5
100
AcDbEntity
  8
0
100
AcDbLine
 62
7
  6
CONTINUOUS
 10
13.5691258827
 20
-28.8004117132
 11
12.6379938827
 21
-25.9002737132
  0
LINE
  5
2D6
100
AcDbEntity
  8
0
100
AcDbLine
 62
7
  6
CONTINUOUS
 10
13.2180228827
 20
-25.9002737132
 11
13.8591548827
 21
-27.8971697132
  0
LINE
  5
2D7
100
AcDbEntity
  8
0
100
AcDbLine
 62
7
  6
CONTINUOUS
 10
24.3470698827
 20
-28.8003967132
 11
23.7658158827
 21
-27.6790467132
  0
LINE
  5
2D8
100
AcDbEntity
  8
0
100
AcDbLine
 62
7
  6
CONTINUOUS
 10
24.3829706734
 20
-27.6092923801
 11
25.0003748827
 21
-28.8003897132
  0
LINE
  5
2D9
100
AcDbEntity
  8
0
100
AcDbLine
 62
7
  6
CONTINUOUS
 10
17.7554058827
 20
-28.8004047132
 11
17.2070308827
 21
-26.8879627132
  0
LINE
  5
2DA
100
AcDbEntity
  8
0
100
AcDbLine
 62
7
  6
CONTINUOUS
 10
17.5038458827
 20
-25.9002737132
 11
18.0454138827
 21
-27.7889417132
  0
LINE
  5
2DB
100
AcDbEntity
  8
0
100
AcDbLine
 62
7
  6
CONTINUOUS
 10
15.4669798827
 20
-28.8004117132
 11
15.4669868827
 21
-25.9002737132
  0
LINE
  5
2DC
100
AcDbEntity
  8
0
100
AcDbLine
 62
7
  6
CONTINUOUS
 10
16.0470088827
 20
-25.9002737132
 11
16.0470018827
 21
-28.8004047132
  0
LINE
  5
2DD
100
AcDbEntity
  8
0
100
AcDbLine
 62
7
  6
CONTINUOUS
 10
21.3527478827
 20
-27.6790467132
 11
21.0716428827
 21
-26.8035077132
  0
LINE
  5
2DE
100
AcDbEntity
  8
0
100
AcDbLine
 62
7
  6
CONTINUOUS
 10
21.7127828827
 20
-28.8003967132
 11
21.5296768827
 21
-28.2300687132
  0
LINE
  5
2DF
100
AcDbEntity
  8
0
100
AcDbLine
 62
7
  6
CONTINUOUS
 10
21.3616718827
 20
-25.9002667132
 11
22.2928118827
 21
-28.8004047132
  0
LINE
  5
2E0
100
AcDbEntity
  8
0
100
AcDbLine
 62
7
  6
CONTINUOUS
 10
16.6270088827
 20
-28.8004047132
 11
16.6270088827
 21
-25.9002737132
  0
LINE
  5
2E1
100
AcDbEntity
  8
0
100
AcDbLine
 62
7
  6
CONTINUOUS
 10
17.2070308827
 20
-26.8879627132
 11
17.2070308827
 21
-28.8004047132
  0
LINE
  5
2E2
100
AcDbEntity
  8
0
100
AcDbLine
 62
7
  6
CONTINUOUS
 10
18.8837958827
 20
-28.8004047132
 11
18.8837888827
 21
-26.8879627132
  0
LINE
  5
2E3
100
AcDbEntity
  8
0
100
AcDbLine
 62
7
  6
CONTINUOUS
 10
19.4638178827
 20
-25.9002737132
 11
19.4638178827
 21
-28.8004047132
  0
LWPOLYLINE
  5
2E4
100
AcDbEntity
  8
SUPERFICI
100
AcDbPolyline
 62
250
  6
CONTINUOUS
 90
13
 70
0
 10
24.1205406688
 20
22.2000014304
 10
24.1066514349
 20
22.4538256083
 10
24.0593043482
 20
22.7035319833
 10
23.9794048941
 20
22.9447323356
 10
23.8684625684
 20
23.1733029901
 10
23.728435501
 20
23.3851971787
 10
23.5618117099
 20
23.5764777961
 10
23.3717271391
 20
23.7438664582
 10
23.1615911009
 20
23.8845646739
 10
22.9351059647
 20
23.9959507079
 10
22.696417781
 20
24.076123038
 10
22.4499060524
 20
24.1239867413
 10
22.1999985696
 20
24.1389550376
  0
LINE
  5
2E5
100
AcDbEntity
  8
SUPERFICI
100
AcDbLine
 62
250
  6
CONTINUOUS
 10
22.1837430903
 20
24.8717588248
 11
22.1999992848
 21
24.1389556972
  0
LINE
  5
2E6
100
AcDbEntity
  8
SUPERFICI
100
AcDbLine
 62
250
  6
CONTINUOUS
 10
22.16539
 20
25.91973
 11
22.1837430903
 21
24.8717588248
  0
LWPOLYLINE
  5
2E7
100
AcDbEntity
  8
SUPERFICI
100
AcDbPolyline
 62
250
  6
CONTINUOUS
 90
5
 70
0
 10
25.9381269297
 20
-22.1470295245
 10
25.9204155554
 20
-20.6676730898
 10
25.8979444902
 20
-19.1072130212
 10
25.8803107802
 20
-17.4761994804
 10
25.8744817747
 20
-15.7907838109
  0
LWPOLYLINE
  5
2E8
100
AcDbEntity
  8
SUPERFICI
100
AcDbPolyline
 62
250
  6
CONTINUOUS
 90
7
 70
0
 10
25.8838323295
 20
12.2553369966
 10
25.8944635392
 20
10.3883120748
 10
25.907815407
 20
8.4549735208
 10
25.9059235124
 20
6.4528682011
 10
25.8927879489
 20
4.3802029158
 10
25.8924168125
 20
2.2308248395
 10
25.9235995284
 20
0.0000016839
  0
LWPOLYLINE
  5
2E9
100
AcDbEntity
  8
SUPERFICI
100
AcDbPolyline
 62
250
  6
CONTINUOUS
 90
5
 70
0
 10
24.120537984
 20
-22.2
 10
24.1117424535
 20
-19.7786565906
 10
24.1049672978
 20
-17.3454804679
 10
24.1002540631
 20
-14.9004716318
 10
24.098273886
 20
-12.4429608837
  0
LINE
  5
2EA
100
AcDbEntity
  8
SUPERFICI
100
AcDbLine
 62
250
  6
CONTINUOUS
 10
22.2
 20
24.1389563567
 11
22.2
 21
22.5000173892
  0
LINE
  5
2EB
100
AcDbEntity
  8
SUPERFICI
100
AcDbLine
 62
250
  6
CONTINUOUS
 10
22.2
 20
-22.5000173892
 11
22.2
 21
-24.1389563567
  0
LINE
  5
2EC
100
AcDbEntity
  8
SUPERFICI
100
AcDbLine
 62
7
  6
CONTINUOUS
 10
22.5
 20
22.2
 11
22.5
 21
-22.2
  0
LINE
  5
2ED
100
AcDbEntity
  8
0
100
AcDbLine
 62
7
  6
CONTINUOUS
 10
22.6794898827
 20
-28.8003967132
 11
22.6794898827
 21
-25.9002667132
  0
LINE
  5
2EE
100
AcDbEntity
  8
0
100
AcDbLine
 62
7
  6
CONTINUOUS
 10
23.2515148827
 20
-26.4367877132
 11
23.2515228827
 21
-27.1425177132
  0
LINE
  5
2EF
100
AcDbEntity
  8
0
100
AcDbLine
 62
7
  6
CONTINUOUS
 10
23.2595848827
 20
-27.6790397132
 11
23.2595188827
 21
-28.8003967132
  0
LWPOLYLINE
  5
2F0
100
AcDbEntity
  8
SUPERFICI
100
AcDbPolyline
 62
250
  6
CONTINUOUS
 90
5
 70
0
 10
24.098273886
 20
-12.4429608837
 10
24.1002563408
 20
14.9031020238
 10
24.1049693217
 20
17.3474279842
 10
24.1117437134
 20
19.7797273096
 10
24.120537984
 20
22.2
  0
LWPOLYLINE
  5
2F1
100
AcDbEntity
  8
SUPERFICI
100
AcDbPolyline
 62
250
  6
CONTINUOUS
 90
8
 70
0
 10
25.8744817747
 20
-15.7907838109
 10
25.8838323343
 20
-12.2553356297
 10
25.8944635486
 20
-10.3883104277
 10
25.9078154229
 20
-8.4549715725
 10
25.9059235212
 20
-6.4528659279
 10
25.8927879384
 20
-4.3802002963
 10
25.892416788
 20
-2.2308218541
 10
25.9235995064
 20
0.0000016839
  0
LWPOLYLINE
  5
2F2
100
AcDbEntity
  8
SUPERFICI
100
AcDbPolyline
 62
250
  6
CONTINUOUS
 90
6
 70
0
 10
25.9381269297
 20
22.1470295245
 10
25.9204155563
 20
20.6676732741
 10
25.8979444923
 20
19.1072134111
 10
25.8803107821
 20
17.4762000939
 10
25.8744817736
 20
15.7907846623
 10
25.8838323295
 20
12.2553369966
  0
LINE
  5
2F3
100
AcDbEntity
  8
SUPERFICI
100
AcDbLine
 62
250
  6
CONTINUOUS
 10
22.1836951689
 20
-24.8741614732
 11
22.16539
 21
-25.91973
  0
LINE
  5
2F4
100
AcDbEntity
  8
SUPERFICI
100
AcDbLine
 62
250
  6
CONTINUOUS
 10
22.1999992848
 20
-24.1389556972
 11
22.1836951689
 21
-24.8741614732
  0
LINE
  5
2F5
100
AcDbEntity
  8
0
100
AcDbLine
 62
7
  6
CONTINUOUS
 10
18.0454138827
 20
-27.7889417132
 11
18.5869808827
 21
-25.9002737132
  0
LINE
  5
2F6
100
AcDbEntity
  8
0
100
AcDbLine
 62
7
  6
CONTINUOUS
 10
18.8837888827
 20
-26.8879627132
 11
18.3354138827
 21
-28.8003967132
  0
LINE
  5
2F7
100
AcDbEntity
  8
0
100
AcDbLine
 62
7
  6
CONTINUOUS
 10
13.8591548827
 20
-27.8971697132
 11
14.5002798827
 21
-25.9002737132
  0
LINE
  5
2F8
100
AcDbEntity
  8
0
100
AcDbLine
 62
7
  6
CONTINUOUS
 10
15.0803088827
 20
-25.9002737132
 11
14.1491688827
 21
-28.8004047132
  0
LWPOLYLINE
  5
2F9
100
AcDbEntity
  8
SUPERFICI
100
AcDbPolyline
 62
250
  6
CONTINUOUS
 90
13
 70
0
 10
-22.1999985696
 20
24.1389550376
 10
-22.4500948017
 20
24.123962038
 10
-22.6967398127
 20
24.0760372674
 10
-22.9355021392
 20
23.9957873993
 10
-23.1619897637
 20
23.884334981
 10
-23.3720791119
 20
23.7435958293
 10
-23.5621134704
 20
23.5761742389
 10
-23.7287043249
 20
23.3848436084
 10
-23.86869045
 20
23.1729029742
 10
-23.9795661306
 20
22.9443351801
 10
-24.0593878716
 20
22.7032094544
 10
-24.1066743969
 20
22.4536367889
 10
-24.1205406688
 20
22.2000014303
  0
LINE
  5
2FA
100
AcDbEntity
  8
SUPERFICI
100
AcDbLine
 62
250
  6
CONTINUOUS
 10
-24.1205393264
 20
22.2000007152
 11
-24.6749921165
 21
22.1811380671
  0
LINE
  5
2FB
100
AcDbEntity
  8
SUPERFICI
100
AcDbLine
 62
250
  6
CONTINUOUS
 10
-24.6749921165
 20
22.1811380671
 11
-25.2911489452
 21
22.1631855832
  0
LINE
  5
2FC
100
AcDbEntity
  8
SUPERFICI
100
AcDbLine
 62
250
  6
CONTINUOUS
 10
-25.2911489452
 20
22.1631855832
 11
-25.9382
 21
22.14703
  0
LINE
  5
2FD
100
AcDbEntity
  8
SUPERFICI
100
AcDbLine
 62
250
  6
CONTINUOUS
 10
20.0164396361
 20
25.8874066897
 11
22.1644173734
 21
25.9196625408
  0
LINE
  5
2FE
100
AcDbEntity
  8
SUPERFICI
100
AcDbLine
 62
250
  6
CONTINUOUS
 10
14.7172040149
 20
25.8228595887
 11
20.0164396361
 21
25.8874066897
  0
LINE
  5
2FF
100
AcDbEntity
  8
SUPERFICI
100
AcDbLine
 62
250
  6
CONTINUOUS
 10
11.8276173146
 20
25.7960837807
 11
14.7172040149
 21
25.8228595887
  0
LWPOLYLINE
  5
300
100
AcDbEntity
  8
SUPERFICI
100
AcDbPolyline
 62
250
  6
CONTINUOUS
 90
4
 70
0
 10
3.884099644
 20
25.7277467514
 10
6.4117794319
 20
25.74845287
 10
7.2934361138
 20
25.7547748319
 10
11.8276173146
 20
25.7960837807
  0
LWPOLYLINE
  5
301
100
AcDbEntity
  8
SUPERFICI
100
AcDbPolyline
 62
250
  6
CONTINUOUS
 90
16
 70
0
 10
-22.1644173734
 20
25.9196625408
 10
-22.4593638226
 20
25.9173700448
 10
-22.7651418933
 20
25.8864369512
 10
-23.0796868897
 20
25.8257172009
 10
-23.4009166453
 20
25.7339596865
 10
-23.7253321454
 20
25.6091573881
 10
-24.0480647365
 20
25.4485166297
 10
-24.3671529499
 20
25.2480418995
 10
-24.6766912919
 20
25.0061551505
 10
-24.9663691665
 20
24.7236572342
 10
-25.2386411612
 20
24.3950116918
 10
-25.484137583
 20
24.0190948309
 10
-25.6786581773
 20
23.6057963338
 10
-25.8154209732
 20
23.1587172468
 10
-25.9018153933
 20
22.672696378
 10
-25.9381269297
 20
22.1470295245
  0
LINE
  5
302
100
AcDbEntity
  8
SUPERFICI
100
AcDbLine
 62
250
  6
CONTINUOUS
 10
3.1151328106
 20
25.7228069367
 11
3.884099644
 21
25.7277467514
  0
LWPOLYLINE
  5
303
100
AcDbEntity
  8
SUPERFICI
100
AcDbPolyline
 62
250
  6
CONTINUOUS
 90
3
 70
0
 10
0.0000213532
 20
25.7029808617
 10
0.7731615782
 20
25.7059628034
 10
3.1151328106
 20
25.7228069367
  0
LINE
  5
304
100
AcDbEntity
  8
SUPERFICI
100
AcDbLine
 62
250
  6
CONTINUOUS
 10
22.2
 20
24.1389563567
 11
17.2218972533
 21
24.1236094762
  0
LWPOLYLINE
  5
305
100
AcDbEntity
  8
SUPERFICI
100
AcDbPolyline
 62
250
  6
CONTINUOUS
 90
6
 70
0
 10
17.2218972533
 20
24.1236094762
 10
9.8484911621
 20
24.1043861451
 10
7.3983074209
 20
24.1003608931
 10
4.9374485033
 20
24.0986597421
 10
2.4713460297
 20
24.0988797018
 10
0.0
 20
24.1010195863
  0
LWPOLYLINE
  5
306
100
AcDbEntity
  8
SUPERFICI
100
AcDbPolyline
 62
250
  6
CONTINUOUS
 90
5
 70
0
 10
0.0
 20
24.1010195863
 10
-2.4718936048
 20
24.0988798787
 10
-4.9383979299
 20
24.0986601921
 10
-7.3995129754
 20
24.1003617108
 10
-9.8497953478
 20
24.1043876086
  0
LINE
  5
307
100
AcDbEntity
  8
SUPERFICI
100
AcDbLine
 62
250
  6
CONTINUOUS
 10
24.120537984
 20
22.2
 11
22.5000051
 21
22.2
  0
LINE
  5
308
100
AcDbEntity
  8
SUPERFICI
100
AcDbLine
 62
250
  6
CONTINUOUS
 10
-22.5000051
 20
22.2
 11
-24.120537984
 21
22.2
  0
LINE
  5
309
100
AcDbEntity
  8
SUPERFICI
100
AcDbLine
 62
7
  6
CONTINUOUS
 10
-22.2
 20
22.5
 11
22.2
 21
22.5
  0
LINE
  5
30A
100
AcDbEntity
  8
SUPERFICI
100
AcDbLine
 62
250
  6
CONTINUOUS
 10
-9.8497953478
 20
24.1043876086
 11
-22.2
 21
24.1389563567
  0
LINE
  5
30B
100
AcDbEntity
  8
SUPERFICI
100
AcDbLine
 62
250
  6
CONTINUOUS
 10
0.0000206157
 20
25.7030011834
 11
-0.7731553644
 21
25.7059687583
  0
LWPOLYLINE
  5
30C
100
AcDbEntity
  8
SUPERFICI
100
AcDbPolyline
 62
250
  6
CONTINUOUS
 90
16
 70
0
 10
22.1644173734
 20
25.9196625408
 10
22.4593638226
 20
25.9173700448
 10
22.7651418933
 20
25.8864369512
 10
23.0796868897
 20
25.8257172009
 10
23.4009166453
 20
25.7339596865
 10
23.7253321454
 20
25.6091573881
 10
24.0480647365
 20
25.4485166297
 10
24.3671529499
 20
25.2480418995
 10
24.6766912919
 20
25.0061551505
 10
24.9663691665
 20
24.7236572342
 10
25.2386411612
 20
24.3950116918
 10
25.484137583
 20
24.0190948309
 10
25.6786581773
 20
23.6057963338
 10
25.8154209732
 20
23.1587172468
 10
25.9018153933
 20
22.672696378
 10
25.9381269297
 20
22.1470295245
  0
LINE
  5
30D
100
AcDbEntity
  8
SUPERFICI
100
AcDbLine
 62
250
  6
CONTINUOUS
 10
-0.7731553644
 20
25.7059687583
 11
-3.8840823259
 21
25.7277419453
  0
LWPOLYLINE
  5
30E
100
AcDbEntity
  8
SUPERFICI
100
AcDbPolyline
 62
250
  6
CONTINUOUS
 90
3
 70
0
 10
-3.8840823259
 20
25.7277419453
 10
-9.9047567016
 20
25.7778435878
 10
-13.7629003032
 20
25.813042092
  0
LINE
  5
30F
100
AcDbEntity
  8
SUPERFICI
100
AcDbLine
 62
250
  6
CONTINUOUS
 10
-13.7629003032
 20
25.813042092
 11
-15.7096189915
 21
25.8342163916
  0
LINE
  5
310
100
AcDbEntity
  8
SUPERFICI
100
AcDbLine
 62
250
  6
CONTINUOUS
 10
-15.7096189915
 20
25.8342163916
 11
-18.9378656707
 21
25.8732575946
  0
LWPOLYLINE
  5
311
100
AcDbEntity
  8
SUPERFICI
100
AcDbPolyline
 62
250
  6
CONTINUOUS
 90
3
 70
0
 10
-18.9378656707
 20
25.8732575946
 10
-21.092643818
 20
25.9027684951
 10
-22.1644173734
 20
25.9196625408
  0
LINE
  5
312
100
AcDbEntity
  8
SUPERFICI
100
AcDbLine
 62
250
  6
CONTINUOUS
 10
25.9381269297
 20
22.1470295245
 11
25.2887041507
 21
22.1632507727
  0
LINE
  5
313
100
AcDbEntity
  8
SUPERFICI
100
AcDbLine
 62
250
  6
CONTINUOUS
 10
25.2887041507
 20
22.1632507727
 11
24.6728323426
 21
22.1812064414
  0
LINE
  5
314
100
AcDbEntity
  8
SUPERFICI
100
AcDbLine
 62
250
  6
CONTINUOUS
 10
24.6728323426
 20
22.1812064414
 11
24.1205393264
 21
22.2000007152
  0
LINE
  5
315
100
AcDbEntity
  8
0
100
AcDbLine
 62
7
  6
CONTINUOUS
 10
19.8504968827
 20
-28.8004047132
 11
20.7816218827
 21
-25.9002667132
  0
LINE
  5
316
100
AcDbEntity
  8
0
100
AcDbLine
 62
7
  6
CONTINUOUS
 10
21.0716428827
 20
-26.8035077132
 11
20.7905538827
 21
-27.6790467132
  0
LINE
  5
317
100
AcDbEntity
  8
0
100
AcDbLine
 62
7
  6
CONTINUOUS
 10
20.6136318827
 20
-28.2300687132
 11
20.4305188827
 21
-28.8003967132
  0
LINE
  5
318
100
AcDbEntity
  8
SUPERFICI
100
AcDbLine
 62
250
  6
CONTINUOUS
 10
-59.6458955741
 20
28.3172110352
 11
-59.7636331457
 21
28.31682
  0
LINE
  5
319
100
AcDbEntity
  8
SUPERFICI
100
AcDbLine
 62
250
  6
CONTINUOUS
 10
-58.947459716
 20
28.3177900615
 11
-59.6458955741
 21
28.3172110352
  0
LWPOLYLINE
  5
31A
100
AcDbEntity
  8
SUPERFICI
100
AcDbPolyline
 62
250
  6
CONTINUOUS
 90
3
 70
0
 10
58.947459716
 20
28.3177900615
 10
59.7453426697
 20
28.3169416932
 10
59.7636331457
 20
28.31682
  0
LWPOLYLINE
  5
31B
100
AcDbEntity
  8
SUPERFICI
100
AcDbPolyline
 62
250
  6
CONTINUOUS
 90
5
 70
0
 10
-57.0682215025
 20
38.9547078945
 10
-56.0569574146
 20
38.9940384555
 10
-55.0049705437
 20
39.0169809737
 10
-53.9098272721
 20
39.0306059936
 10
-51.5835643183
 20
39.0638639199
  0
LWPOLYLINE
  5
31C
100
AcDbEntity
  8
SUPERFICI
100
AcDbPolyline
 62
250
  6
CONTINUOUS
 90
10
 70
0
 10
-58.91008
 20
37.05298
 10
-59.0623649281
 20
37.0507417784
 10
-59.2055272815
 20
37.0473259638
 10
-59.3375225476
 20
37.0428218402
 10
-59.456925551
 20
37.0372858588
 10
-59.5606239847
 20
37.0308436577
 10
-59.6449000663
 20
37.0237403057
 10
-59.7082062796
 20
37.0161673879
 10
-59.7500771808
 20
37.008213166
 10
-59.7695816451
 20
37.0
  0
LWPOLYLINE
  5
31D
100
AcDbEntity
  8
SUPERFICI
100
AcDbPolyline
 62
250
  6
CONTINUOUS
 90
3
 70
0
 10
-51.5835643183
 20
39.0638639199
 10
-50.3342058894
 20
39.0749875997
 10
-47.6813730087
 20
39.0860779416
  0
LINE
  5
31E
100
AcDbEntity
  8
SUPERFICI
100
AcDbLine
 62
250
  6
CONTINUOUS
 10
-47.6813730087
 20
39.0860779416
 11
-46.2950957702
 21
39.0973109842
  0
LINE
  5
31F
100
AcDbEntity
  8
SUPERFICI
100
AcDbLine
 62
250
  6
CONTINUOUS
 10
-46.2957238086
 20
39.0964805087
 11
-40.6995709737
 21
39.1076490997
  0
LINE
  5
320
100
AcDbEntity
  8
SUPERFICI
100
AcDbLine
 62
250
  6
CONTINUOUS
 10
9.8247912528
 20
39.1105813353
 11
-0.0000027146
 21
39.0970495127
  0
LINE
  5
321
100
AcDbEntity
  8
SUPERFICI
100
AcDbLine
 62
250
  6
CONTINUOUS
 10
51.0551153665
 20
39.7591976499
 11
57.0
 21
39.7695142019
  0
LINE
  5
322
100
AcDbEntity
  8
SUPERFICI
100
AcDbLine
 62
250
  6
CONTINUOUS
 10
46.2962593494
 20
39.7572985412
 11
51.0551153665
 21
39.7591976499
  0
LINE
  5
323
100
AcDbEntity
  8
SUPERFICI
100
AcDbLine
 62
7
  6
CONTINUOUS
 10
-46.2962593494
 20
39.7573095497
 11
0.0000007641
 21
39.7621688436
  0
LINE
  5
324
100
AcDbEntity
  8
0
100
AcDbLine
 62
7
  6
CONTINUOUS
 10
-56.9999866495
 20
40.0003994891
 11
56.9999872951
 21
40.0003858983
  0
LINE
  5
325
100
AcDbEntity
  8
SUPERFICI
100
AcDbLine
 62
250
  6
CONTINUOUS
 10
-40.6995709737
 20
39.1076490997
 11
-11.3504735156
 21
39.1107677165
  0
LINE
  5
326
100
AcDbEntity
  8
SUPERFICI
100
AcDbLine
 62
7
  6
CONTINUOUS
 10
0.0000007641
 20
39.7621688436
 11
46.2962593494
 21
39.7572985412
  0
LINE
  5
327
100
AcDbEntity
  8
SUPERFICI
100
AcDbLine
 62
250
  6
CONTINUOUS
 10
14.3453792911
 20
39.110157999
 11
9.8247912528
 21
39.1105813353
  0
LINE
  5
328
100
AcDbEntity
  8
SUPERFICI
100
AcDbLine
 62
250
  6
CONTINUOUS
 10
-11.3504735156
 20
39.1107677165
 11
-8.2065635443
 21
39.1093958842
  0
LINE
  5
329
100
AcDbEntity
  8
SUPERFICI
100
AcDbLine
 62
250
  6
CONTINUOUS
 10
-8.2065635443
 20
39.1093958842
 11
0.0000001396
 21
39.1014452844
  0
LINE
  5
32A
100
AcDbEntity
  8
SUPERFICI
100
AcDbLine
 62
250
  6
CONTINUOUS
 10
-52.2441423293
 20
39.7605670493
 11
-46.2962593494
 21
39.7573095497
  0
LINE
  5
32B
100
AcDbEntity
  8
SUPERFICI
100
AcDbLine
 62
250
  6
CONTINUOUS
 10
41.6600905639
 20
39.1062174266
 11
14.3453792911
 21
39.110157999
  0
LINE
  5
32C
100
AcDbEntity
  8
SUPERFICI
100
AcDbLine
 62
250
  6
CONTINUOUS
 10
46.2957238086
 20
39.0964805087
 11
41.6600905639
 21
39.1062174266
  0
LINE
  5
32D
100
AcDbEntity
  8
SUPERFICI
100
AcDbLine
 62
250
  6
CONTINUOUS
 10
-57.0
 20
39.7695277556
 11
-52.2441423293
 21
39.7605670493
  0
LWPOLYLINE
  5
32E
100
AcDbEntity
  8
SUPERFICI
100
AcDbPolyline
 62
250
  6
CONTINUOUS
 90
3
 70
0
 10
50.3342058894
 20
39.0749875997
 10
47.6813730087
 20
39.0860779416
 10
46.2950957702
 20
39.0973109842
  0
LWPOLYLINE
  5
32F
100
AcDbEntity
  8
SUPERFICI
100
AcDbPolyline
 62
250
  6
CONTINUOUS
 90
4
 70
0
 10
55.0049705437
 20
39.0169809737
 10
52.7723355221
 20
39.0461370202
 10
51.5835643183
 20
39.0638639199
 10
50.3342058894
 20
39.0749875997
  0
LWPOLYLINE
  5
330
100
AcDbEntity
  8
SUPERFICI
100
AcDbPolyline
 62
250
  6
CONTINUOUS
 90
3
 70
0
 10
57.0682215025
 20
38.9547078945
 10
56.0569574146
 20
38.9940384555
 10
55.0049705437
 20
39.0169809737
  0
LINE
  5
331
100
AcDbEntity
  8
SUPERFICI
100
AcDbLine
 62
250
  6
CONTINUOUS
 10
46.2961541686
 20
-39.7597603321
 11
46.2957238086
 21
-39.0964805087
  0
LINE
  5
332
100
AcDbEntity
  8
SUPERFICI
100
AcDbLine
 62
250
  6
CONTINUOUS
 10
46.2957238086
 20
39.0964805087
 11
46.2961541686
 21
39.7597603321
  0
LWPOLYLINE
  5
333
100
AcDbEntity
  8
0
100
AcDbPolyline
 62
7
  6
CONTINUOUS
 90
10
 70
0
 10
-60.0003826681
 20
37.0043603071
 10
-59.9752275831
 20
37.0076892672
 10
-59.9499501184
 20
37.0101443025
 10
-59.9245502739
 20
37.0117254128
 10
-59.8990280446
 20
37.0125385113
 10
-59.8733834355
 20
37.012477685
 10
-59.8476164617
 20
37.0112251946
 10
-59.821727128
 20
37.0086751271
 10
-59.7957154295
 20
37.0049333956
 10
-59.7695813662
 20
37.0
  0
LWPOLYLINE
  5
334
100
AcDbEntity
  8
0
100
AcDbPolyline
 62
7
  6
CONTINUOUS
 90
10
 70
0
 10
60.0003826681
 20
37.0043603071
 10
59.9752275831
 20
37.0076892672
 10
59.9499501184
 20
37.0101443025
 10
59.9245502739
 20
37.0117254128
 10
59.8990280446
 20
37.0125385113
 10
59.8733834355
 20
37.012477685
 10
59.8476164617
 20
37.0112251946
 10
59.821727128
 20
37.0086751271
 10
59.7957154295
 20
37.0049333956
 10
59.7695813662
 20
37.0
  0
LINE
  5
335
100
AcDbEntity
  8
RACCORDO
100
AcDbLine
 62
7
  6
CONTINUOUS
 10
60.000378729
 20
3.7099727925
 11
59.9583202202
 21
3.6397611671
  0
LWPOLYLINE
  5
336
100
AcDbEntity
  8
SUPERFICI
100
AcDbPolyline
 62
250
  6
CONTINUOUS
 90
10
 70
0
 10
59.7695816451
 20
-37.0
 10
59.7494274036
 20
-37.0058192561
 10
59.7062886921
 20
-37.0129599963
 10
59.6414946056
 20
-37.0208000806
 10
59.5558444688
 20
-37.0287383354
 10
59.4512070121
 20
-37.0360472365
 10
59.3316256424
 20
-37.0422041232
 10
59.20044667
 20
-37.0470979687
 10
59.0592208285
 20
-37.0507085784
 10
58.91008
 20
-37.05298
  0
LWPOLYLINE
  5
337
100
AcDbEntity
  8
0
100
AcDbPolyline
 62
7
  6
CONTINUOUS
 90
7
 70
0
 43
0.3500000006
 10
0.0
 20
48.750431488
 10
-1.5000000329
 20
48.750431488
 10
0.0
 20
50.8932899323
 10
0.0
 20
51.3218634338
 10
-0.4285714127
 20
51.7504324036
 10
-1.0714285848
 20
51.7504324036
 10
-1.5000000329
 20
51.1075744171
  0
LWPOLYLINE
  5
338
100
AcDbEntity
  8
SUPERFICI
100
AcDbPolyline
 62
250
  6
CONTINUOUS
 90
10
 70
0
 10
59.7695816451
 20
37.0
 10
59.7494274036
 20
37.0058192561
 10
59.7062886921
 20
37.0129599963
 10
59.6414946056
 20
37.0208000806
 10
59.5558444688
 20
37.0287383354
 10
59.4512070121
 20
37.0360472365
 10
59.3316256424
 20
37.0422041232
 10
59.20044667
 20
37.0470979687
 10
59.0592208285
 20
37.0507085784
 10
58.91008
 20
37.05298
  0
LINE
  5
339
100
AcDbEntity
  8
RACCORDO
100
AcDbLine
 62
7
  6
CONTINUOUS
 10
59.958319359
 20
-3.6397611671
 11
60.0003778512
 21
-3.7099727925
  0
LINE
  5
33A
100
AcDbEntity
  8
0
100
AcDbLine
 62
250
  6
CONTINUOUS
 10
57.0
 20
39.7695142019
 11
56.9999872951
 21
40.0003858983
  0
LINE
  5
33B
100
AcDbEntity
  8
0
100
AcDbLine
 62
250
  6
CONTINUOUS
 10
57.0
 20
-39.7695142019
 11
56.9999872951
 21
-40.0003858983
  0
LWPOLYLINE
  5
33C
100
AcDbEntity
  8
SUPERFICI
100
AcDbPolyline
 62
250
  6
CONTINUOUS
 90
13
 70
0
 10
59.7693744068
 20
37.0080377198
 10
59.7451087631
 20
37.3702639951
 10
59.6736347659
 20
37.7260040599
 10
59.5562688236
 20
38.0691341115
 10
59.395098247
 20
38.3937899208
 10
59.1929917009
 20
38.6943970539
 10
58.953573134
 20
38.9657915943
 10
58.6811554114
 20
39.2033581147
 10
58.3803890417
 20
39.4032100992
 10
58.056206648
 20
39.562087753
 10
57.7140859076
 20
39.677301281
 10
57.3599920207
 20
39.7468904902
 10
56.9999995183
 20
39.769708699
  0
LINE
  5
33D
100
AcDbEntity
  8
SUPERFICI
100
AcDbLine
 62
250
  6
CONTINUOUS
 10
58.9298497053
 20
34.4596242509
 11
58.9231984991
 21
35.3259251092
  0
LINE
  5
33E
100
AcDbEntity
  8
SUPERFICI
100
AcDbLine
 62
250
  6
CONTINUOUS
 10
58.9632101479
 20
22.4182425183
 11
58.9457062465
 21
28.8527101175
  0
LWPOLYLINE
  5
33F
100
AcDbEntity
  8
SUPERFICI
100
AcDbPolyline
 62
250
  6
CONTINUOUS
 90
3
 70
0
 10
58.9368895337
 20
32.5260359506
 10
58.9360367054
 20
33.0063802566
 10
58.9298497053
 20
34.4596242509
  0
LINE
  5
340
100
AcDbEntity
  8
SUPERFICI
100
AcDbLine
 62
250
  6
CONTINUOUS
 10
58.9457062465
 20
28.8527101175
 11
58.9368895337
 21
32.5260359506
  0
LINE
  5
341
100
AcDbEntity
  8
SUPERFICI
100
AcDbLine
 62
250
  6
CONTINUOUS
 10
59.7633120865
 20
-28.3168458803
 11
59.7695726352
 21
-37.0
  0
LINE
  5
342
100
AcDbEntity
  8
SUPERFICI
100
AcDbLine
 62
250
  6
CONTINUOUS
 10
58.9698769438
 20
-0.0000023498
 11
58.9621117314
 21
9.6243958727
  0
LINE
  5
343
100
AcDbEntity
  8
SUPERFICI
100
AcDbLine
 62
7
  6
CONTINUOUS
 10
59.7618220327
 20
0.000000161
 11
59.7633120865
 21
-28.3168458803
  0
LINE
  5
344
100
AcDbEntity
  8
RACCORDO
100
AcDbLine
 62
7
  6
CONTINUOUS
 10
59.8745996175
 20
1.8964204455
 11
59.8745991688
 21
-1.8964204455
  0
LINE
  5
345
100
AcDbEntity
  8
0
100
AcDbLine
 62
7
  6
CONTINUOUS
 10
60.0003826681
 20
37.0043603071
 11
60.000378729
 21
3.7099727925
  0
LINE
  5
346
100
AcDbEntity
  8
0
100
AcDbLine
 62
7
  6
CONTINUOUS
 10
60.0003778512
 20
-3.7099727925
 11
60.0003739121
 21
-37.0043605181
  0
LINE
  5
347
100
AcDbEntity
  8
SUPERFICI
100
AcDbLine
 62
7
  6
CONTINUOUS
 10
59.7633187685
 20
28.3168458803
 11
59.7618220327
 21
0.000000161
  0
LINE
  5
348
100
AcDbEntity
  8
SUPERFICI
100
AcDbLine
 62
250
  6
CONTINUOUS
 10
58.9621117314
 20
9.6243958727
 11
58.9632101479
 21
22.4182425183
  0
LWPOLYLINE
  5
349
100
AcDbEntity
  8
SUPERFICI
100
AcDbPolyline
 62
250
  6
CONTINUOUS
 90
3
 70
0
 10
58.970240163
 20
-0.0000022816
 10
58.9633331293
 20
-6.9952138068
 10
58.9637302237
 20
-21.3385196035
  0
LINE
  5
34A
100
AcDbEntity
  8
SUPERFICI
100
AcDbLine
 62
250
  6
CONTINUOUS
 10
59.7695813662
 20
37.0
 11
59.7633187685
 21
28.3168458803
  0
LWPOLYLINE
  5
34B
100
AcDbEntity
  8
SUPERFICI
100
AcDbPolyline
 62
250
  6
CONTINUOUS
 90
4
 70
0
 10
58.9231984991
 20
35.3259251092
 10
58.9228766734
 20
36.1926134744
 10
58.9201076014
 20
36.6264475155
 10
58.9101429391
 20
37.0530891289
  0
LINE
  5
34C
100
AcDbEntity
  8
SUPERFICI
100
AcDbLine
 62
250
  6
CONTINUOUS
 10
58.9637302237
 20
-21.3385196035
 11
58.9611796198
 21
-23.4290393765
  0
LINE
  5
34D
100
AcDbEntity
  8
SUPERFICI
100
AcDbLine
 62
250
  6
CONTINUOUS
 10
58.9611796198
 20
-23.4290393765
 11
58.9431351368
 21
-30.4819848957
  0
LINE
  5
34E
100
AcDbEntity
  8
SUPERFICI
100
AcDbLine
 62
250
  6
CONTINUOUS
 10
58.9431351368
 20
-30.4819848957
 11
58.9346109941
 21
-33.4987986889
  0
LWPOLYLINE
  5
34F
100
AcDbEntity
  8
SUPERFICI
100
AcDbPolyline
 62
250
  6
CONTINUOUS
 90
3
 70
0
 10
58.9228766734
 20
-36.1926134744
 10
58.9201076014
 20
-36.6264475155
 10
58.9101429391
 20
-37.0530891289
  0
LWPOLYLINE
  5
350
100
AcDbEntity
  8
SUPERFICI
100
AcDbPolyline
 62
250
  6
CONTINUOUS
 90
4
 70
0
 10
58.9346109941
 20
-33.4987986889
 10
58.9269625602
 20
-34.9012113966
 10
58.9231984991
 20
-35.3259251092
 10
58.9228766734
 20
-36.1926134744
  0
LWPOLYLINE
  5
351
100
AcDbEntity
  8
SUPERFICI
100
AcDbPolyline
 62
250
  6
CONTINUOUS
 90
13
 70
0
 10
59.7693744068
 20
-37.0080377198
 10
59.7451087631
 20
-37.3702639951
 10
59.6736347659
 20
-37.7260040599
 10
59.5562688236
 20
-38.0691341115
 10
59.395098247
 20
-38.3937899208
 10
59.1929917009
 20
-38.6943970539
 10
58.953573134
 20
-38.9657915943
 10
58.6811554114
 20
-39.2033581147
 10
58.3803890417
 20
-39.4032100992
 10
58.056206648
 20
-39.562087753
 10
57.7140859076
 20
-39.677301281
 10
57.3599920207
 20
-39.7468904902
 10
56.9999995183
 20
-39.769708699
  0
LWPOLYLINE
  5
352
100
AcDbEntity
  8
SUPERFICI
100
AcDbPolyline
 62
250
  6
CONTINUOUS
 90
16
 70
0
 10
58.9101429391
 20
-37.0530891289
 10
58.8825412065
 20
-37.3034946423
 10
58.8349953224
 20
-37.5357755766
 10
58.7667681708
 20
-37.7502610608
 10
58.6736633699
 20
-37.9487576692
 10
58.5580638571
 20
-38.1298680469
 10
58.4305092586
 20
-38.2905509852
 10
58.2946782546
 20
-38.4327730844
 10
58.1485856109
 20
-38.5578900283
 10
57.9966767443
 20
-38.6638361294
 10
57.8422806598
 20
-38.7524724472
 10
57.6856973338
 20
-38.8254746033
 10
57.5280971236
 20
-38.8811445999
 10
57.3713485355
 20
-38.9199283183
 10
57.2175133979
 20
-38.9441146596
 10
57.0682215025
 20
-38.9547078945
  0
LWPOLYLINE
  5
353
100
AcDbEntity
  8
SUPERFICI
100
AcDbPolyline
 62
250
  6
CONTINUOUS
 90
16
 70
0
 10
58.9101429391
 20
37.0530891289
 10
58.8825412065
 20
37.3034946423
 10
58.8349953224
 20
37.5357755766
 10
58.7667681708
 20
37.7502610608
 10
58.6736633699
 20
37.9487576692
 10
58.5580638571
 20
38.1298680469
 10
58.4305092586
 20
38.2905509852
 10
58.2946782546
 20
38.4327730844
 10
58.1485856109
 20
38.5578900283
 10
57.9966767443
 20
38.6638361294
 10
57.8422806598
 20
38.7524724472
 10
57.6856973338
 20
38.8254746033
 10
57.5280971236
 20
38.8811445999
 10
57.3713485355
 20
38.9199283183
 10
57.2175133979
 20
38.9441146596
 10
57.0682215025
 20
38.9547078945
  0
LWPOLYLINE
  5
354
100
AcDbEntity
  8
SUPERFICI
100
AcDbPolyline
 62
250
  6
CONTINUOUS
 90
10
 70
0
 10
57.0
 20
-39.7695130549
 10
57.0108874029
 20
-39.7503618567
 10
57.0213860294
 20
-39.7095997187
 10
57.0313468408
 20
-39.6484350932
 10
57.040667623
 20
-39.5676088379
 10
57.0491243197
 20
-39.4687842774
 10
57.0564292291
 20
-39.3555208089
 10
57.0624436395
 20
-39.2307829016
 10
57.067119191
 20
-39.0959716325
 10
57.07037
 20
-38.953
  0
LWPOLYLINE
  5
355
100
AcDbEntity
  8
SUPERFICI
100
AcDbPolyline
 62
250
  6
CONTINUOUS
 90
10
 70
0
 10
57.0
 20
39.7695130549
 10
57.0108874029
 20
39.7503618567
 10
57.0213860294
 20
39.7095997187
 10
57.0313468408
 20
39.6484350932
 10
57.040667623
 20
39.5676088379
 10
57.0491243197
 20
39.4687842774
 10
57.0564292291
 20
39.3555208089
 10
57.0624436395
 20
39.2307829016
 10
57.067119191
 20
39.0959716325
 10
57.07037
 20
38.953
  0
LWPOLYLINE
  5
356
100
AcDbEntity
  8
0
100
AcDbPolyline
 62
7
  6
CONTINUOUS
 90
10
 70
0
 43
0.3500000006
 10
-88.688606781
 20
48.750431488
 10
-87.8314688416
 20
49.6075739594
 10
-87.6171843567
 20
50.4647209625
 10
-87.6171843567
 20
51.3218634338
 10
-88.0457533264
 20
51.7504324036
 10
-88.688606781
 20
51.7504324036
 10
-89.1171848145
 20
51.3218634338
 10
-89.1171848145
 20
50.4647209625
 10
-88.688606781
 20
50.0361474609
 10
-87.7600376587
 20
50.0361474609
  0
LINE
  5
357
100
AcDbEntity
  8
0
100
AcDbLine
 62
7
  6
CONTINUOUS
 10
-85.9079628786
 20
-39.7695142019
 11
-81.5027732962
 21
-40.0003858983
  0
LINE
  5
358
100
AcDbEntity
  8
SUPERFICI
100
AcDbLine
 62
7
  6
CONTINUOUS
 10
-85.907963589
 20
-39.7695277556
 11
-86.1410703722
 21
-39.7572985412
  0
LINE
  5
359
100
AcDbEntity
  8
0
100
AcDbLine
 62
7
  6
CONTINUOUS
 10
-81.5027732962
 20
-38.9977404292
 11
-81.3027732962
 21
-39.0082349313
  0
LWPOLYLINE
  5
35A
100
AcDbEntity
  8
SUPERFICI
100
AcDbPolyline
 62
250
  6
CONTINUOUS
 90
4
 70
0
 10
-85.9079629291
 20
-39.7695130549
 10
-86.0572041723
 20
-39.7503618567
 10
-86.1999521336
 20
-39.7095997187
 10
-86.334212985
 20
-39.6484350932
  0
LWPOLYLINE
  5
35B
100
AcDbEntity
  8
SUPERFICI
100
AcDbPolyline
 62
250
  6
CONTINUOUS
 90
7
 70
0
 10
-86.334212985
 20
39.6484350932
 10
-86.4586146211
 20
39.5676088379
 10
-86.570151733
 20
39.4687842774
 10
-86.6650397703
 20
39.3555208089
 10
-86.741519158
 20
39.2307829016
 10
-86.7989954868
 20
39.0959716325
 10
-86.8363832962
 20
38.953
  0
LINE
  5
35C
100
AcDbEntity
  8
SUPERFICI
100
AcDbLine
 62
250
  6
CONTINUOUS
 10
-86.7563535509
 20
-37.0470979687
 11
-86.8432332962
 21
-37.05298
  0
LWPOLYLINE
  5
35D
100
AcDbEntity
  8
SUPERFICI
100
AcDbPolyline
 62
250
  6
CONTINUOUS
 90
5
 70
0
 10
-85.9067166314
 20
-37.0
 10
-86.061038232
 20
-37.0058192561
 10
-86.2082389554
 20
-37.0129599963
 10
-86.3461653024
 20
-37.0208000806
 10
-86.7563535509
 20
-37.0470979687
  0
LINE
  5
35E
100
AcDbEntity
  8
0
100
AcDbLine
 62
7
  6
CONTINUOUS
 10
-81.3027732962
 20
-36.8124639185
 11
-81.5027732962
 21
-36.8138247603
  0
LINE
  5
35F
100
AcDbEntity
  8
0
100
AcDbLine
 62
7
  6
CONTINUOUS
 10
-81.5027732962
 20
-37.0043605181
 11
-82.4650815866
 21
-37.01014387
  0
LINE
  5
360
100
AcDbEntity
  8
0
100
AcDbLine
 62
7
  6
CONTINUOUS
 10
-82.4650815866
 20
-37.01014387
 11
-83.4367307448
 21
-37.012537826
  0
LINE
  5
361
100
AcDbEntity
  8
0
100
AcDbLine
 62
7
  6
CONTINUOUS
 10
-83.4367307448
 20
-37.012537826
 11
-84.4177204391
 21
-37.0112246134
  0
LWPOLYLINE
  5
362
100
AcDbEntity
  8
0
100
AcDbPolyline
 62
7
  6
CONTINUOUS
 90
3
 70
0
 10
-84.4177204391
 20
-37.0112246134
 10
-85.4080493426
 20
-37.0049331407
 10
-85.9067160808
 20
-37.0
  0
LWPOLYLINE
  5
363
100
AcDbEntity
  8
SUPERFICI
100
AcDbPolyline
 62
250
  6
CONTINUOUS
 90
7
 70
0
 10
-86.334212985
 20
-39.6484350932
 10
-86.4586146211
 20
-39.5676088379
 10
-86.570151733
 20
-39.4687842774
 10
-86.6650397703
 20
-39.3555208089
 10
-86.741519158
 20
-39.2307829016
 10
-86.7989954868
 20
-39.0959716325
 10
-86.8363832962
 20
-38.953
  0
LWPOLYLINE
  5
364
100
AcDbEntity
  8
SUPERFICI
100
AcDbPolyline
 62
7
  6
CONTINUOUS
 90
31
 70
0
 10
-86.6751486746
 20
39.567970458
 10
-86.6993659555
 20
39.5496473025
 10
-86.7225755531
 20
39.5309792355
 10
-86.7447888673
 20
39.5120244894
 10
-86.7662759869
 20
39.4926002409
 10
-86.7867828922
 20
39.4729838967
 10
-86.8055954161
 20
39.4539862726
 10
-86.8224273232
 20
39.43610907
 10
-86.8377316608
 20
39.4190748673
 10
-86.8519337429
 20
39.4025507095
 10
-86.86514646
 20
39.3865093428
 10
-86.877343983
 20
39.3710838847
 10
-86.8887069477
 20
39.3561398025
 10
-86.8992223559
 20
39.3417791227
 10
-86.9089723026
 20
39.3279727904
 10
-86.9182510873
 20
39.3143616221
 10
-86.9270931942
 20
39.3009301102
 10
-86.9354914786
 20
39.2877242433
 10
-86.94364611
 20
39.2744505891
 10
-86.9515491565
 20
39.2611284733
 10
-86.9592106959
 20
39.2477474045
 10
-86.9668288715
 20
39.2339477321
 10
-86.9744340296
 20
39.2196349532
 10
-86.9819618457
 20
39.2048880177
 10
-86.9894469013
 20
39.189593037
 10
-86.9968414359
 20
39.1737947609
 10
-87.0041487613
 20
39.157429227
 10
-87.0114595399
 20
39.1402074139
 10
-87.0189078465
 20
39.121661138
 10
-87.026256947
 20
39.1022103487
 10
-87.028927303
 20
39.0948201062
  0
LINE
  5
365
100
AcDbEntity
  8
0
100
AcDbLine
 62
7
  6
CONTINUOUS
 10
-89.3613784379
 20
-28.8003897132
 11
-89.3673082688
 21
-28.8003967132
  0
LINE
  5
366
100
AcDbEntity
  8
SUPERFICI
100
AcDbLine
 62
250
  6
CONTINUOUS
 10
-86.9522056387
 20
-28.3177900615
 11
-86.0212860818
 21
-28.31682
  0
LINE
  5
367
100
AcDbEntity
  8
SUPERFICI
100
AcDbLine
 62
7
  6
CONTINUOUS
 10
-87.0284513629
 20
39.0960034451
 11
-87.0277303055
 21
39.0973109842
  0
LWPOLYLINE
  5
368
100
AcDbEntity
  8
SUPERFICI
100
AcDbPolyline
 62
250
  6
CONTINUOUS
 90
4
 70
0
 10
-89.6289726634
 20
25.8598531197
 10
-89.6074600661
 20
25.8874066897
 10
-89.595572344
 20
25.9027685173
 10
-89.5828478826
 20
25.9196625408
  0
LWPOLYLINE
  5
369
100
AcDbEntity
  8
SUPERFICI
100
AcDbPolyline
 62
250
  6
CONTINUOUS
 90
10
 70
0
 10
-90.2871935328
 20
-22.2000007152
 10
-90.1575667942
 20
-22.1936530783
 10
-90.0415170584
 20
-22.1873573998
 10
-89.9394048329
 20
-22.1811380671
 10
-89.8514708735
 20
-22.1750104687
 10
-89.778250058
 20
-22.1690091556
 10
-89.7203432135
 20
-22.1631855832
 10
-89.6779640567
 20
-22.1575709568
 10
-89.6511674269
 20
-22.152178493
 10
-89.6401032962
 20
-22.14703
  0
LINE
  5
36A
100
AcDbEntity
  8
SUPERFICI
100
AcDbLine
 62
250
  6
CONTINUOUS
 10
-90.2871949465
 20
-22.2
 11
-90.5030159511
 21
-22.2
  0
LINE
  5
36B
100
AcDbEntity
  8
SUPERFICI
100
AcDbLine
 62
7
  6
CONTINUOUS
 10
-87.0284513629
 20
-39.0960034451
 11
-87.0277303055
 21
-39.0973109842
  0
LWPOLYLINE
  5
36C
100
AcDbEntity
  8
0
100
AcDbPolyline
 62
7
  6
CONTINUOUS
 90
3
 70
0
 43
0.3500000006
 10
-86.0457527161
 20
49.0361471558
 10
-86.1171838989
 20
48.8218626709
 10
-86.2600372009
 20
48.5361470032
  0
LINE
  5
36D
100
AcDbEntity
  8
SUPERFICI
100
AcDbLine
 62
7
  6
CONTINUOUS
 10
-87.028927303
 20
39.0948201062
 11
-87.0284513629
 21
39.0960034451
  0
LINE
  5
36E
100
AcDbEntity
  8
SUPERFICI
100
AcDbLine
 62
7
  6
CONTINUOUS
 10
-90.0467545448
 20
24.5053968632
 11
-90.0949561343
 21
24.4172464147
  0
LWPOLYLINE
  5
36F
100
AcDbEntity
  8
SUPERFICI
100
AcDbPolyline
 62
7
  6
CONTINUOUS
 90
4
 70
0
 10
-89.9702363414
 20
24.5760380372
 10
-90.0214495699
 20
24.4891867529
 10
-90.1404549369
 20
24.3097094913
 10
-90.2722631828
 20
24.1389556972
  0
LWPOLYLINE
  5
370
100
AcDbEntity
  8
SUPERFICI
100
AcDbPolyline
 62
7
  6
CONTINUOUS
 90
3
 70
0
 10
-90.0949416898
 20
24.41727181
 10
-90.1518364321
 20
24.3214341276
 10
-90.2174555517
 20
24.2200613191
  0
LINE
  5
371
100
AcDbEntity
  8
SUPERFICI
100
AcDbLine
 62
7
  6
CONTINUOUS
 10
-90.2174555517
 20
24.2200613191
 11
-90.2740241866
 21
24.1402029009
  0
LWPOLYLINE
  5
372
100
AcDbEntity
  8
SUPERFICI
100
AcDbPolyline
 62
7
  6
CONTINUOUS
 90
4
 70
0
 10
-90.2722631828
 20
-24.1389556972
 10
-90.1398416673
 20
-24.3105662704
 10
-90.0204905595
 20
-24.4907534366
 10
-89.97039645
 20
-24.5757558103
  0
LINE
  5
373
100
AcDbEntity
  8
SUPERFICI
100
AcDbLine
 62
7
  6
CONTINUOUS
 10
-90.2920618043
 20
-24.1146998544
 11
-90.2174915033
 21
-24.220008157
  0
LINE
  5
374
100
AcDbEntity
  8
SUPERFICI
100
AcDbLine
 62
7
  6
CONTINUOUS
 10
-90.2174915033
 20
-24.220008157
 11
-90.1522664508
 21
-24.3207397403
  0
LINE
  5
375
100
AcDbEntity
  8
SUPERFICI
100
AcDbLine
 62
7
  6
CONTINUOUS
 10
-90.153658342
 20
-24.3184950307
 11
-90.0955397576
 21
-24.4162208108
  0
LINE
  5
376
100
AcDbEntity
  8
SUPERFICI
100
AcDbLine
 62
7
  6
CONTINUOUS
 10
-90.0972317248
 20
-24.4132528069
 11
-90.0472971451
 21
-24.504364272
  0
LWPOLYLINE
  5
377
100
AcDbEntity
  8
SUPERFICI
100
AcDbPolyline
 62
250
  6
CONTINUOUS
 90
7
 70
0
 10
-89.97039645
 20
-24.5757558103
 10
-89.914579115
 20
-24.6787707688
 10
-89.8223522343
 20
-24.8741614732
 10
-89.7443560572
 20
-25.0758838564
 10
-89.6812208285
 20
-25.2822272713
 10
-89.633186831
 20
-25.4920388535
 10
-89.6003215807
 20
-25.7048074195
  0
LINE
  5
378
100
AcDbEntity
  8
SUPERFICI
100
AcDbLine
 62
7
  6
CONTINUOUS
 10
-87.0289284101
 20
-39.0948170016
 11
-87.0284513629
 21
-39.0960034451
  0
LWPOLYLINE
  5
379
100
AcDbEntity
  8
SUPERFICI
100
AcDbPolyline
 62
7
  6
CONTINUOUS
 90
11
 70
0
 10
-87.9351443976
 20
36.3569731206
 10
-88.0273700566
 20
36.0401016734
 10
-88.1148647758
 20
35.7293013147
 10
-88.1981307921
 20
35.4233718438
 10
-88.2769201933
 20
35.1239406336
 10
-88.3513733705
 20
34.8312866717
 10
-88.4217699249
 20
34.5451200408
 10
-88.4881166514
 20
34.2662439872
 10
-88.5505807724
 20
33.9948373685
 10
-88.6094413445
 20
33.7306529153
 10
-88.6648919492
 20
33.4738202205
  0
LWPOLYLINE
  5
37A
100
AcDbEntity
  8
SUPERFICI
100
AcDbPolyline
 62
7
  6
CONTINUOUS
 90
8
 70
0
 10
-87.2055470341
 20
38.5964954682
 10
-87.3162844774
 20
38.2787793869
 10
-87.4252018763
 20
37.9605175122
 10
-87.5321828891
 20
37.6410080714
 10
-87.6368500368
 20
37.3207526016
 10
-87.7388269439
 20
37.0005022212
 10
-87.8384435548
 20
36.6787904188
 10
-87.9351445655
 20
36.3569725529
  0
LINE
  5
37B
100
AcDbEntity
  8
SUPERFICI
100
AcDbLine
 62
7
  6
CONTINUOUS
 10
-87.0291354031
 20
39.0936230838
 11
-87.2055470341
 21
38.5964954682
  0
LWPOLYLINE
  5
37C
100
AcDbEntity
  8
SUPERFICI
100
AcDbPolyline
 62
7
  6
CONTINUOUS
 90
5
 70
0
 10
-89.9046328649
 20
24.8184108156
 10
-89.9347429111
 20
24.7435181812
 10
-89.9684495497
 20
24.6659372763
 10
-90.0055456587
 20
24.5868469365
 10
-90.0467545448
 20
24.5053968632
  0
LINE
  5
37D
100
AcDbEntity
  8
SUPERFICI
100
AcDbLine
 62
7
  6
CONTINUOUS
 10
-90.0492395032
 20
-24.5006758618
 11
-90.0058958389
 21
-24.5861280494
  0
LINE
  5
37E
100
AcDbEntity
  8
SUPERFICI
100
AcDbLine
 62
7
  6
CONTINUOUS
 10
-90.0080499473
 20
-24.5817165496
 11
-89.968535971
 21
-24.6657458267
  0
LINE
  5
37F
100
AcDbEntity
  8
SUPERFICI
100
AcDbLine
 62
7
  6
CONTINUOUS
 10
-89.9708748999
 20
-24.6605779248
 11
-89.9345311797
 21
-24.7440251078
  0
LINE
  5
380
100
AcDbEntity
  8
SUPERFICI
100
AcDbLine
 62
7
  6
CONTINUOUS
 10
-89.9370306757
 20
-24.7380574158
 11
-89.904081298
 21
-24.8198390903
  0
LWPOLYLINE
  5
381
100
AcDbEntity
  8
SUPERFICI
100
AcDbPolyline
 62
7
  6
CONTINUOUS
 90
32
 70
0
 10
-87.0289284101
 20
-39.0948170016
 10
-87.0222070034
 20
-39.1130820796
 10
-87.0149596522
 20
-39.1316269737
 10
-87.0075930359
 20
-39.1494282379
 10
-87.0003530109
 20
-39.1660293317
 10
-86.9934806049
 20
-39.1810648717
 10
-86.9868553284
 20
-39.1949641385
 10
-86.9801688534
 20
-39.2084558632
 10
-86.9733713556
 20
-39.2216689855
 10
-86.9665376282
 20
-39.2344848777
 10
-86.9595003636
 20
-39.247231977
 10
-86.952222252
 20
-39.2599718282
 10
-86.9447390015
 20
-39.2726359817
 10
-86.9369741454
 20
-39.2853448934
 10
-86.928914057
 20
-39.2981051484
 10
-86.9205621147
 20
-39.3108958747
 10
-86.9118587951
 20
-39.3237894921
 10
-86.9028142097
 20
-39.3367497596
 10
-86.8934026919
 20
-39.3497923436
 10
-86.8835007047
 20
-39.3630582698
 10
-86.8731669547
 20
-39.376435824
 10
-86.8623157726
 20
-39.3900027868
 10
-86.8505792054
 20
-39.4041579687
 10
-86.838032331
 20
-39.4187323777
 10
-86.824530912
 20
-39.4338130508
 10
-86.8093114364
 20
-39.4501133324
 10
-86.7920408304
 20
-39.4677741835
 10
-86.7728627612
 20
-39.4864183696
 10
-86.7516791058
 20
-39.5059163284
 10
-86.728393879
 20
-39.5261204334
 10
-86.7029143738
 20
-39.5468652663
 10
-86.6751486746
 20
-39.567970458
  0
LWPOLYLINE
  5
382
100
AcDbEntity
  8
0
100
AcDbPolyline
 62
7
  6
CONTINUOUS
 90
7
 70
0
 10
-89.5606569617
 20
-25.9002648261
 10
-89.5595915797
 20
-25.9031752609
 10
-89.5582336384
 20
-25.9121073563
 10
-89.5565831378
 20
-25.927332926
 10
-89.554666267
 20
-25.948890175
 10
-89.5524568369
 20
-25.9770483661
 10
-89.5498762797
 20
-26.0127656085
  0
LWPOLYLINE
  5
383
100
AcDbEntity
  8
SUPERFICI
100
AcDbPolyline
 62
7
  6
CONTINUOUS
 90
9
 70
0
 10
-87.9351445036
 20
-36.3569727621
 10
-87.8384435378
 20
-36.6787904743
 10
-87.7388269582
 20
-37.0005021756
 10
-87.6368500527
 20
-37.3207525524
 10
-87.5321828887
 20
-37.6410080727
 10
-87.4252018646
 20
-37.9605175467
 10
-87.3162844722
 20
-38.2787794019
 10
-87.205547042
 20
-38.5964954456
 10
-87.0291354031
 20
-39.0936230838
  0
LWPOLYLINE
  5
384
100
AcDbEntity
  8
SUPERFICI
100
AcDbPolyline
 62
7
  6
CONTINUOUS
 90
3
 70
0
 10
-88.6648921446
 20
33.473819301
 10
-88.7171291742
 20
33.2243962712
 10
-88.766391682
 20
32.9821594023
  0
LINE
  5
385
100
AcDbEntity
  8
SUPERFICI
100
AcDbLine
 62
250
  6
CONTINUOUS
 10
-87.0311772266
 20
39.0860779416
 11
-87.028927303
 21
39.0948201062
  0
LWPOLYLINE
  5
386
100
AcDbEntity
  8
SUPERFICI
100
AcDbPolyline
 62
7
  6
CONTINUOUS
 90
5
 70
0
 10
-89.7906748778
 20
25.1797656445
 10
-89.809333782
 20
25.1080604438
 10
-89.8298818362
 20
25.0364334359
 10
-89.8523320238
 20
24.9649530951
 10
-89.877218486
 20
24.8922170617
  0
LWPOLYLINE
  5
387
100
AcDbEntity
  8
0
100
AcDbPolyline
 62
7
  6
CONTINUOUS
 90
13
 70
0
 43
0.3500000006
 10
-102.2926533508
 20
-1.9285708809
 10
-102.5069378357
 20
-2.2142854156
 10
-103.149800354
 20
-2.2142854156
 10
-103.5783693237
 20
-1.9285708809
 10
-103.5783693237
 20
-1.2857140274
 10
-103.149800354
 20
-1.0000006256
 10
-102.5069378357
 20
-1.0000006256
 10
-102.2926533508
 20
-1.2857140274
 10
-101.8640843811
 20
-0.8571427917
 10
-101.0069373779
 20
-0.8571427917
 10
-100.5783684082
 20
-1.2857140274
 10
-100.5783684082
 20
-1.9285708809
 10
-101.0069373779
 20
-2.3571432495
  0
LINE
  5
388
100
AcDbEntity
  8
SUPERFICI
100
AcDbLine
 62
7
  6
CONTINUOUS
 10
-89.8790268966
 20
-24.8871594289
 11
-89.8509967936
 21
-24.9690353943
  0
LINE
  5
389
100
AcDbEntity
  8
SUPERFICI
100
AcDbLine
 62
7
  6
CONTINUOUS
 10
-89.8538009324
 20
-24.9604848215
 11
-89.8281390928
 21
-25.042256541
  0
LINE
  5
38A
100
AcDbEntity
  8
SUPERFICI
100
AcDbLine
 62
7
  6
CONTINUOUS
 10
-89.8309798407
 20
-25.0327865482
 11
-89.8072342938
 21
-25.1157783596
  0
LWPOLYLINE
  5
38B
100
AcDbEntity
  8
SUPERFICI
100
AcDbPolyline
 62
7
  6
CONTINUOUS
 90
5
 70
0
 10
-88.2769200168
 20
-35.1239413157
 10
-88.1981306309
 20
-35.4233724463
 10
-88.1148646422
 20
-35.7293017972
 10
-88.0273699551
 20
-36.040102028
 10
-87.9351443357
 20
-36.3569733297
  0
LINE
  5
38C
100
AcDbEntity
  8
SUPERFICI
100
AcDbLine
 62
250
  6
CONTINUOUS
 10
-87.0311772266
 20
-39.0860779416
 11
-87.0289284101
 21
-39.0948170016
  0
LINE
  5
38D
100
AcDbEntity
  8
SUPERFICI
100
AcDbLine
 62
7
  6
CONTINUOUS
 10
-89.8100772658
 20
-25.1053466704
 11
-89.7882750295
 21
-25.1895499414
  0
LWPOLYLINE
  5
38E
100
AcDbEntity
  8
SUPERFICI
100
AcDbPolyline
 62
7
  6
CONTINUOUS
 90
3
 70
0
 10
-88.421769991
 20
-34.5451197676
 10
-88.3513734327
 20
-34.831286423
 10
-88.2769202554
 20
-35.1239403935
  0
LINE
  5
38F
100
AcDbEntity
  8
SUPERFICI
100
AcDbLine
 62
7
  6
CONTINUOUS
 10
-88.4881164989
 20
-34.2662446391
 11
-88.4217697594
 21
-34.5451207252
  0
LWPOLYLINE
  5
390
100
AcDbEntity
  8
SUPERFICI
100
AcDbPolyline
 62
7
  6
CONTINUOUS
 90
4
 70
0
 10
-88.6648920392
 20
-33.473819797
 10
-88.6094414282
 20
-33.7306525336
 10
-88.5505808493
 20
-33.9948370288
 10
-88.4881167225
 20
-34.2662436833
  0
LWPOLYLINE
  5
391
100
AcDbEntity
  8
SUPERFICI
100
AcDbPolyline
 62
7
  6
CONTINUOUS
 90
7
 70
0
 10
-89.5048946065
 20
28.1054706027
 10
-89.5313382863
 20
27.8540059763
 10
-89.5563543367
 20
27.6052078104
 10
-89.5799560609
 20
27.3591851741
 10
-89.6021983314
 20
27.1156529923
 10
-89.6224748521
 20
26.8821190542
 10
-89.657899672
 20
26.4417771545
  0
LINE
  5
392
100
AcDbEntity
  8
SUPERFICI
100
AcDbLine
 62
7
  6
CONTINUOUS
 10
-89.45079349
 20
28.5893980938
 11
-89.5048946065
 21
28.1054706027
  0
LINE
  5
393
100
AcDbEntity
  8
SUPERFICI
100
AcDbLine
 62
7
  6
CONTINUOUS
 10
-89.3958998206
 20
29.0468196204
 11
-89.45079349
 21
28.5893980938
  0
LWPOLYLINE
  5
394
100
AcDbEntity
  8
SUPERFICI
100
AcDbPolyline
 62
7
  6
CONTINUOUS
 90
5
 70
0
 10
-89.722751434
 20
25.5565849752
 10
-89.7328354535
 20
25.478056169
 10
-89.7448384605
 20
25.4006908537
 10
-89.7586027907
 20
25.324956396
 10
-89.7738756205
 20
25.2515423372
  0
LINE
  5
395
100
AcDbEntity
  8
SUPERFICI
100
AcDbLine
 62
7
  6
CONTINUOUS
 10
-89.3420234752
 20
29.4694836549
 11
-89.3958998206
 21
29.0468196204
  0
LINE
  5
396
100
AcDbEntity
  8
SUPERFICI
100
AcDbLine
 62
7
  6
CONTINUOUS
 10
-89.2872532299
 20
29.8764323346
 11
-89.3420234752
 21
29.4694836549
  0
LINE
  5
397
100
AcDbEntity
  8
SUPERFICI
100
AcDbLine
 62
7
  6
CONTINUOUS
 10
-89.2309224828
 20
30.2741344806
 11
-89.2872529562
 21
29.8764343163
  0
LINE
  5
398
100
AcDbEntity
  8
SUPERFICI
100
AcDbLine
 62
7
  6
CONTINUOUS
 10
-89.1724746158
 20
30.6670576726
 11
-89.2309224828
 21
30.2741344806
  0
LWPOLYLINE
  5
399
100
AcDbEntity
  8
SUPERFICI
100
AcDbPolyline
 62
250
  6
CONTINUOUS
 90
7
 70
0
 10
-89.6004451575
 20
25.703760701
 10
-89.6335328832
 20
25.4902343472
 10
-89.6818296702
 20
25.2799509021
 10
-89.7452116088
 20
25.0734129734
 10
-89.8233834706
 20
24.8717588248
 10
-89.9156616268
 20
24.6766782806
 10
-89.9702363414
 20
24.5760380372
  0
LINE
  5
39A
100
AcDbEntity
  8
SUPERFICI
100
AcDbLine
 62
7
  6
CONTINUOUS
 10
-89.1110668762
 20
31.0606025034
 11
-89.1724746158
 21
30.6670576726
  0
LINE
  5
39B
100
AcDbEntity
  8
SUPERFICI
100
AcDbLine
 62
7
  6
CONTINUOUS
 10
-89.0458858977
 20
31.4589687667
 11
-89.1110668762
 21
31.0606025034
  0
LWPOLYLINE
  5
39C
100
AcDbEntity
  8
SUPERFICI
100
AcDbPolyline
 62
7
  6
CONTINUOUS
 90
4
 70
0
 10
-88.8982730198
 20
32.2972351818
 10
-88.9377936823
 20
32.0807806919
 10
-88.9754504238
 20
31.8692893568
 10
-89.0458861075
 20
31.4589675145
  0
LWPOLYLINE
  5
39D
100
AcDbEntity
  8
SUPERFICI
100
AcDbPolyline
 62
7
  6
CONTINUOUS
 90
4
 70
0
 10
-88.7663915
 20
32.9821603101
 10
-88.8129176019
 20
32.7467912599
 10
-88.8567933098
 20
32.5186685888
 10
-88.8982728415
 20
32.2972361457
  0
LWPOLYLINE
  5
39E
100
AcDbEntity
  8
SUPERFICI
100
AcDbPolyline
 62
7
  6
CONTINUOUS
 90
5
 70
0
 10
-89.7739815564
 20
-25.2510634267
 10
-89.7584786524
 20
-25.3255932783
 10
-89.7445568974
 20
-25.4023644776
 10
-89.732461142
 20
-25.4807038812
 10
-89.7223577522
 20
-25.5600243199
  0
LWPOLYLINE
  5
39F
100
AcDbEntity
  8
SUPERFICI
100
AcDbPolyline
 62
7
  6
CONTINUOUS
 90
5
 70
0
 10
-89.7712468011
 20
-25.2635478636
 10
-89.7558654992
 20
-25.3391743306
 10
-89.7421170927
 20
-25.4171167225
 10
-89.7302540157
 20
-25.4966764655
 10
-89.720452013
 20
-25.5771974486
  0
LWPOLYLINE
  5
3A0
100
AcDbEntity
  8
SUPERFICI
100
AcDbPolyline
 62
7
  6
CONTINUOUS
 90
6
 70
0
 10
-88.8982727763
 20
-32.2972364986
 10
-88.8567932421
 20
-32.5186689455
 10
-88.8129175291
 20
-32.7467916333
 10
-88.7663914189
 20
-32.9821607146
 10
-88.7171288936
 20
-33.2243976315
 10
-88.6648918437
 20
-33.4738207165
  0
LINE
  5
3A1
100
AcDbEntity
  8
SUPERFICI
100
AcDbLine
 62
7
  6
CONTINUOUS
 10
-88.9377936163
 20
-32.0807810581
 11
-88.8982729545
 21
-32.2972355346
  0
LINE
  5
3A2
100
AcDbEntity
  8
SUPERFICI
100
AcDbLine
 62
7
  6
CONTINUOUS
 10
-89.0113510289
 20
-31.6626366052
 11
-88.9377936163
 21
-32.0807810581
  0
LINE
  5
3A3
100
AcDbEntity
  8
SUPERFICI
100
AcDbLine
 62
7
  6
CONTINUOUS
 10
-89.0790986795
 20
-31.2583454044
 11
-89.0113510289
 21
-31.6626366052
  0
LINE
  5
3A4
100
AcDbEntity
  8
SUPERFICI
100
AcDbLine
 62
7
  6
CONTINUOUS
 10
-89.1421768095
 20
-30.8635631326
 11
-89.0790984622
 21
-31.2583467325
  0
LINE
  5
3A5
100
AcDbEntity
  8
SUPERFICI
100
AcDbLine
 62
7
  6
CONTINUOUS
 10
-89.2019647183
 20
-30.471173607
 11
-89.1421770408
 21
-30.8635616502
  0
LINE
  5
3A6
100
AcDbEntity
  8
SUPERFICI
100
AcDbLine
 62
7
  6
CONTINUOUS
 10
-89.2593516492
 20
-30.0758978309
 11
-89.2019644715
 21
-30.4711752658
  0
LINE
  5
3A7
100
AcDbEntity
  8
SUPERFICI
100
AcDbLine
 62
7
  6
CONTINUOUS
 10
-89.3148574406
 20
-29.6739957481
 11
-89.2593516492
 21
-30.0758978309
  0
LINE
  5
3A8
100
AcDbEntity
  8
SUPERFICI
100
AcDbLine
 62
7
  6
CONTINUOUS
 10
-89.3688586103
 20
-29.2619390547
 11
-89.3148574406
 21
-29.6739957481
  0
LINE
  5
3A9
100
AcDbEntity
  8
SUPERFICI
100
AcDbLine
 62
7
  6
CONTINUOUS
 10
-89.4233349536
 20
-28.8219166925
 11
-89.3688586103
 21
-29.2619390547
  0
LWPOLYLINE
  5
3AA
100
AcDbEntity
  8
SUPERFICI
100
AcDbPolyline
 62
7
  6
CONTINUOUS
 90
8
 70
0
 10
-89.70952027
 20
-25.7030004505
 10
-89.728398571
 20
-25.5106013868
 10
-89.7594846343
 20
-25.3204152306
 10
-89.8026136427
 20
-25.1329900205
 10
-89.8576718075
 20
-24.9487209391
 10
-89.9244602805
 20
-24.768324074
 10
-90.0025964274
 20
-24.5927998506
 10
-90.0917444536
 20
-24.422810102
  0
LINE
  5
3AB
100
AcDbEntity
  8
0
100
AcDbLine
 62
7
  6
CONTINUOUS
 10
-89.3673082688
 20
-28.8003967132
 11
-89.4017427757
 21
-28.4266315879
  0
LINE
  5
3AC
100
AcDbEntity
  8
0
100
AcDbLine
 62
7
  6
CONTINUOUS
 10
-89.3972897283
 20
-28.4047097262
 11
-89.3613784379
 21
-28.8003897132
  0
LINE
  5
3AD
100
AcDbEntity
  8
0
100
AcDbLine
 62
7
  6
CONTINUOUS
 10
-89.4017427757
 20
-28.4266315879
 11
-89.4337404794
 21
-28.0528482545
  0
LINE
  5
3AE
100
AcDbEntity
  8
0
100
AcDbLine
 62
7
  6
CONTINUOUS
 10
-89.430618912
 20
-28.0076772818
 11
-89.3972897283
 21
-28.4047097262
  0
LINE
  5
3AF
100
AcDbEntity
  8
SUPERFICI
100
AcDbLine
 62
250
  6
CONTINUOUS
 10
-89.6003215807
 20
-25.7048074195
 11
-89.5827932962
 21
-25.91973
  0
LINE
  5
3B0
100
AcDbEntity
  8
0
100
AcDbLine
 62
7
  6
CONTINUOUS
 10
-89.4528492844
 20
-28.2223622075
 11
-89.4845211235
 21
-27.8360243021
  0
LINE
  5
3B1
100
AcDbEntity
  8
SUPERFICI
100
AcDbLine
 62
7
  6
CONTINUOUS
 10
-89.6575456862
 20
-26.4462964353
 11
-89.6224748087
 21
-26.882119567
  0
LINE
  5
3B2
100
AcDbEntity
  8
0
100
AcDbLine
 62
7
  6
CONTINUOUS
 10
-89.4337404794
 20
-28.0528482545
 11
-89.4633013797
 21
-27.6790467132
  0
LINE
  5
3B3
100
AcDbEntity
  8
SUPERFICI
100
AcDbLine
 62
7
  6
CONTINUOUS
 10
-89.7142006392
 20
-25.6415018566
 11
-89.7094883631
 21
-25.7035072013
  0
LINE
  5
3B4
100
AcDbEntity
  8
0
100
AcDbLine
 62
7
  6
CONTINUOUS
 10
-89.4845211235
 20
-27.8360243021
 11
-89.4991850526
 21
-27.6426393877
  0
LINE
  5
3B5
100
AcDbEntity
  8
0
100
AcDbLine
 62
7
  6
CONTINUOUS
 10
-89.461365989
 20
-27.6092923801
 11
-89.430618912
 21
-28.0076772818
  0
LINE
  5
3B6
100
AcDbEntity
  8
SUPERFICI
100
AcDbLine
 62
7
  6
CONTINUOUS
 10
-89.6850472021
 20
-26.0695987481
 11
-89.657545681
 21
-26.4462964279
  0
LINE
  5
3B7
100
AcDbEntity
  8
0
100
AcDbLine
 62
7
  6
CONTINUOUS
 10
-89.4772202753
 20
-27.6404709544
 11
-89.5037107563
 21
-27.253727965
  0
LWPOLYLINE
  5
3B8
100
AcDbEntity
  8
0
100
AcDbPolyline
 62
250
  6
CONTINUOUS
 90
25
 70
0
 10
-89.70943606
 20
-25.7051253642
 10
-89.7093987895
 20
-25.7056883221
 10
-89.7090416209
 20
-25.7099606076
 10
-89.7084797982
 20
-25.7149113672
 10
-89.7077738207
 20
-25.7191713923
 10
-89.7068804629
 20
-25.7231444647
 10
-89.7056606942
 20
-25.7284231153
 10
-89.7040711305
 20
-25.7348019502
 10
-89.7021774193
 20
-25.7409503158
 10
-89.7000044448
 20
-25.7467855153
 10
-89.6975837408
 20
-25.7523362911
 10
-89.6948787661
 20
-25.7579023473
 10
-89.6918061585
 20
-25.7641535625
 10
-89.6883107649
 20
-25.7714259885
 10
-89.6844244057
 20
-25.7792093742
 10
-89.6801913835
 20
-25.7867243074
 10
-89.6756160792
 20
-25.7938528377
 10
-89.6706540513
 20
-25.8010864978
 10
-89.6652740144
 20
-25.8086253784
 10
-89.6594951721
 20
-25.8162222776
 10
-89.653246307
 20
-25.8246546407
 10
-89.6463497602
 20
-25.8354941285
 10
-89.6387155569
 20
-25.8492798325
 10
-89.6303512976
 20
-25.8656970933
 10
-89.6232581433
 20
-25.8805912638
  0
LINE
  5
3B9
100
AcDbEntity
  8
SUPERFICI
100
AcDbLine
 62
7
  6
CONTINUOUS
 10
-89.70943606
 20
-25.7051253642
 11
-89.6850472021
 21
-26.0695987481
  0
LINE
  5
3BA
100
AcDbEntity
  8
0
100
AcDbLine
 62
7
  6
CONTINUOUS
 10
-89.5037107563
 20
-27.253727965
 11
-89.5160094177
 21
-27.0603199043
  0
LINE
  5
3BB
100
AcDbEntity
  8
0
100
AcDbLine
 62
7
  6
CONTINUOUS
 10
-89.5498762797
 20
-26.0127656085
 11
-89.5435926151
 21
-26.1089758378
  0
LINE
  5
3BC
100
AcDbEntity
  8
0
100
AcDbLine
 62
7
  6
CONTINUOUS
 10
-89.5435926151
 20
-26.1089758378
 11
-89.5308834368
 21
-26.3232274164
  0
LINE
  5
3BD
100
AcDbEntity
  8
0
100
AcDbLine
 62
7
  6
CONTINUOUS
 10
-89.5503096239
 20
-26.8680366174
 11
-89.5716609585
 21
-26.4804955206
  0
LINE
  5
3BE
100
AcDbEntity
  8
0
100
AcDbLine
 62
7
  6
CONTINUOUS
 10
-89.5308834368
 20
-26.3232274164
 11
-89.467362555
 21
-27.4836841401
  0
LINE
  5
3BF
100
AcDbEntity
  8
0
100
AcDbLine
 62
7
  6
CONTINUOUS
 10
-89.7095335644
 20
-25.7032115618
 11
-89.70943606
 21
-25.7051253642
  0
LWPOLYLINE
  5
3C0
100
AcDbEntity
  8
0
100
AcDbPolyline
 62
7
  6
CONTINUOUS
 90
3
 70
0
 10
-89.467362555
 20
-27.4836841401
 10
-89.4629200175
 20
-27.5746203437
 10
-89.461365989
 20
-27.6092923801
  0
LINE
  5
3C1
100
AcDbEntity
  8
0
100
AcDbLine
 62
7
  6
CONTINUOUS
 10
-89.5716609585
 20
-26.4804955206
 11
-89.5905218643
 21
-26.0935553443
  0
LINE
  5
3C2
100
AcDbEntity
  8
0
100
AcDbLine
 62
7
  6
CONTINUOUS
 10
-89.5994723656
 20
-26.337101413
 11
-89.6205168114
 21
-25.9002737132
  0
LINE
  5
3C3
100
AcDbEntity
  8
0
100
AcDbLine
 62
7
  6
CONTINUOUS
 10
-89.5593090855
 20
-26.2866274783
 11
-89.5776719508
 21
-25.9002667132
  0
LINE
  5
3C4
100
AcDbEntity
  8
0
100
AcDbLine
 62
7
  6
CONTINUOUS
 10
-89.5905218643
 20
-26.0935553443
 11
-89.5990001254
 21
-25.9002667132
  0
LINE
  5
3C5
100
AcDbEntity
  8
0
100
AcDbLine
 62
7
  6
CONTINUOUS
 10
-89.7095392241
 20
-25.7029808617
 11
-89.7095372716
 21
-25.7030604502
  0
LINE
  5
3C6
100
AcDbEntity
  8
0
100
AcDbLine
 62
250
  6
CONTINUOUS
 10
-89.631841437
 20
-22.6144524578
 11
-89.6401080323
 21
-22.1470295245
  0
LINE
  5
3C7
100
AcDbEntity
  8
0
100
AcDbLine
 62
250
  6
CONTINUOUS
 10
-89.5797483747
 20
-25.4240977606
 11
-89.631841437
 21
-22.6144524578
  0
LWPOLYLINE
  5
3C8
100
AcDbEntity
  8
SUPERFICI
100
AcDbPolyline
 62
250
  6
CONTINUOUS
 90
7
 70
0
 10
-89.6401080323
 20
-22.1470295245
 10
-89.6625092661
 20
-20.6676730898
 10
-89.6793144038
 20
-19.1072130212
 10
-89.6913080093
 20
-17.4761994804
 10
-89.6992502563
 20
-15.7907838109
 10
-89.7040308912
 20
-14.0544175188
 10
-89.7065013471
 20
-12.2553356297
  0
LWPOLYLINE
  5
3C9
100
AcDbEntity
  8
0
100
AcDbPolyline
 62
250
  6
CONTINUOUS
 90
3
 70
0
 10
-89.5759471678
 20
-25.7877968205
 10
-89.5763356565
 20
-25.693966643
 10
-89.5797483747
 20
-25.4240977606
  0
LINE
  5
3CA
100
AcDbEntity
  8
SUPERFICI
100
AcDbLine
 62
250
  6
CONTINUOUS
 10
-90.2871949465
 20
-22.2
 11
-90.2940754996
 21
-19.7786565906
  0
LINE
  5
3CB
100
AcDbEntity
  8
SUPERFICI
100
AcDbLine
 62
250
  6
CONTINUOUS
 10
-90.2940754996
 20
-19.7786565906
 11
-90.3028278262
 21
-14.9004716318
  0
LINE
  5
3CC
100
AcDbEntity
  8
SUPERFICI
100
AcDbLine
 62
7
  6
CONTINUOUS
 10
-90.5030182019
 20
23.4999990575
 11
-90.5030182019
 21
-23.4999990575
  0
LWPOLYLINE
  5
3CD
100
AcDbEntity
  8
SUPERFICI
100
AcDbPolyline
 62
250
  6
CONTINUOUS
 90
3
 70
0
 10
-90.3028278262
 20
-14.9004716318
 10
-90.3042161531
 20
-9.9736174222
 10
-90.3043087993
 20
12.4461785739
  0
LINE
  5
3CE
100
AcDbEntity
  8
SUPERFICI
100
AcDbLine
 62
250
  6
CONTINUOUS
 10
-89.7065013471
 20
-12.2553356297
 11
-89.7073261743
 21
-9.8972935981
  0
LINE
  5
3CF
100
AcDbEntity
  8
SUPERFICI
100
AcDbLine
 62
7
  6
CONTINUOUS
 10
-89.7071858134
 20
-8.3151544219
 11
-89.7073261743
 21
-9.8972935981
  0
LINE
  5
3D0
100
AcDbEntity
  8
SUPERFICI
100
AcDbLine
 62
7
  6
CONTINUOUS
 10
-89.7073261743
 20
9.8972935339
 11
-89.7071858134
 21
-8.3151544219
  0
LINE
  5
3D1
100
AcDbEntity
  8
SUPERFICI
100
AcDbLine
 62
250
  6
CONTINUOUS
 10
-90.3043087993
 20
12.4461785739
 11
-90.3028261168
 21
14.9031020238
  0
LWPOLYLINE
  5
3D2
100
AcDbEntity
  8
SUPERFICI
100
AcDbPolyline
 62
250
  6
CONTINUOUS
 90
4
 70
0
 10
-90.2709159579
 20
23.9959507079
 10
-90.2708195391
 20
24.076123038
 10
-90.2712686574
 20
24.1239867413
 10
-90.2722619358
 20
24.1389550376
  0
LWPOLYLINE
  5
3D3
100
AcDbEntity
  8
SUPERFICI
100
AcDbPolyline
 62
250
  6
CONTINUOUS
 90
3
 70
0
 10
-90.3028261168
 20
14.9031020238
 10
-90.2940745254
 20
19.7797273096
 10
-90.2871949465
 20
22.2
  0
LINE
  5
3D4
100
AcDbEntity
  8
SUPERFICI
100
AcDbLine
 62
250
  6
CONTINUOUS
 10
-90.287192119
 20
22.2000014304
 11
-90.2709159579
 21
23.9959507079
  0
LWPOLYLINE
  5
3D5
100
AcDbEntity
  8
SUPERFICI
100
AcDbPolyline
 62
250
  6
CONTINUOUS
 90
7
 70
0
 10
-89.6625092638
 20
20.6676732741
 10
-89.6793144004
 20
19.1072134111
 10
-89.6913080057
 20
17.4762000939
 10
-89.6992502532
 20
15.7907846623
 10
-89.704030889
 20
14.054418621
 10
-89.7065013459
 20
12.2553369966
 10
-89.7073261743
 20
9.8972935339
  0
LINE
  5
3D6
100
AcDbEntity
  8
SUPERFICI
100
AcDbLine
 62
7
  6
CONTINUOUS
 10
-89.7095392241
 20
25.7029808617
 11
-89.7095373512
 21
25.7031528289
  0
LINE
  5
3D7
100
AcDbEntity
  8
SUPERFICI
100
AcDbLine
 62
250
  6
CONTINUOUS
 10
-89.5771559454
 20
25.6091573881
 11
-89.5826951125
 21
25.2480418995
  0
LINE
  5
3D8
100
AcDbEntity
  8
SUPERFICI
100
AcDbLine
 62
250
  6
CONTINUOUS
 10
-89.6135141475
 20
23.6057963338
 11
-89.6625092638
 21
20.6676732741
  0
LINE
  5
3D9
100
AcDbEntity
  8
SUPERFICI
100
AcDbLine
 62
250
  6
CONTINUOUS
 10
-89.5826951125
 20
25.2480418995
 11
-89.6135141475
 21
23.6057963338
  0
LINE
  5
3DA
100
AcDbEntity
  8
SUPERFICI
100
AcDbLine
 62
7
  6
CONTINUOUS
 10
-89.7095373512
 20
25.7031528289
 11
-89.7094540438
 21
25.7048473327
  0
LINE
  5
3DB
100
AcDbEntity
  8
SUPERFICI
100
AcDbLine
 62
7
  6
CONTINUOUS
 10
-89.685047217
 20
26.0695985342
 11
-89.7094540438
 21
25.7048473327
  0
LWPOLYLINE
  5
3DC
100
AcDbEntity
  8
SUPERFICI
100
AcDbPolyline
 62
250
  6
CONTINUOUS
 90
21
 70
0
 10
-89.7094540438
 20
25.7048473327
 10
-89.7093772431
 20
25.7059628034
 10
-89.7089007061
 20
25.7112493156
 10
-89.7081293259
 20
25.7174877913
 10
-89.7071448958
 20
25.7228069367
 10
-89.7058925793
 20
25.7277467514
 10
-89.7041922773
 20
25.7342300869
 10
-89.7019833775
 20
25.7417287459
 10
-89.6993539417
 20
25.74845287
 10
-89.6963433876
 20
25.7547748319
 10
-89.6929951578
 20
25.7615590354
 10
-89.6892392858
 20
25.7692669866
 10
-89.6849343481
 20
25.7778437998
 10
-89.6799514364
 20
25.7869868561
 10
-89.6743646371
 20
25.7960837807
 10
-89.6683356793
 20
25.8045517306
 10
-89.6619846867
 20
25.8130422425
 10
-89.6551205201
 20
25.8228595887
 10
-89.6474284614
 20
25.8342165596
 10
-89.6386727995
 20
25.8467230586
 10
-89.6289726634
 20
25.8598531197
  0
LINE
  5
3DD
100
AcDbEntity
  8
SUPERFICI
100
AcDbLine
 62
7
  6
CONTINUOUS
 10
-89.657899672
 20
26.4417771545
 11
-89.685047217
 21
26.0695985342
  0
LINE
  5
3DE
100
AcDbEntity
  8
SUPERFICI
100
AcDbLine
 62
7
  6
CONTINUOUS
 10
-89.7094884929
 20
25.7035052271
 11
-89.7145620136
 21
25.6373523291
  0
LINE
  5
3DF
100
AcDbEntity
  8
SUPERFICI
100
AcDbLine
 62
250
  6
CONTINUOUS
 10
-89.5827932962
 20
25.91973
 11
-89.6004451575
 21
25.703760701
  0
LWPOLYLINE
  5
3E0
100
AcDbEntity
  8
SUPERFICI
100
AcDbPolyline
 62
7
  6
CONTINUOUS
 90
8
 70
0
 10
-89.709518931
 20
25.7030207644
 10
-89.728396232
 20
25.5106192614
 10
-89.7594815929
 20
25.3204306754
 10
-89.8026101918
 20
25.1330030575
 10
-89.8576682387
 20
24.948731596
 10
-89.924456883
 20
24.7683323983
 10
-90.0025934807
 20
24.5928059246
 10
-90.0917422264
 20
24.4228140311
  0
LWPOLYLINE
  5
3E1
100
AcDbEntity
  8
SUPERFICI
100
AcDbPolyline
 62
250
  6
CONTINUOUS
 90
5
 70
0
 10
-86.8624065485
 20
-36.6264475155
 10
-86.8327390603
 20
-37.3034946423
 10
-86.8241288962
 20
-37.5357755766
 10
-86.8173419193
 20
-37.7502610608
 10
-86.8126593141
 20
-37.9487576692
  0
LWPOLYLINE
  5
3E2
100
AcDbEntity
  8
SUPERFICI
100
AcDbPolyline
 62
250
  6
CONTINUOUS
 90
6
 70
0
 10
-85.906705584
 20
-37.0080377198
 10
-85.8960673428
 20
-37.3702639951
 10
-85.8873163743
 20
-37.7260040599
 10
-85.880452921
 20
-38.0691341115
 10
-85.8755754843
 20
-38.3937899208
 10
-85.8725861123
 20
-38.6943970539
  0
LWPOLYLINE
  5
3E3
100
AcDbEntity
  8
SUPERFICI
100
AcDbPolyline
 62
250
  6
CONTINUOUS
 90
4
 70
0
 10
-86.9046524921
 20
-35.3259251092
 10
-86.8934030313
 20
-35.7553307921
 10
-86.8791571973
 20
-36.1926134744
 10
-86.8624065485
 20
-36.6264475155
  0
LINE
  5
3E4
100
AcDbEntity
  8
SUPERFICI
100
AcDbLine
 62
250
  6
CONTINUOUS
 10
-86.9207997634
 20
-34.4596242509
 11
-86.9046524921
 21
-35.3259251092
  0
LWPOLYLINE
  5
3E5
100
AcDbEntity
  8
SUPERFICI
100
AcDbPolyline
 62
250
  6
CONTINUOUS
 90
11
 70
0
 10
-86.8126593141
 20
-37.9487576692
 10
-86.8077938232
 20
-38.2905509852
 10
-86.8063709666
 20
-38.4327730844
 10
-86.8058425401
 20
-38.5578900283
 10
-86.8063525558
 20
-38.6638361294
 10
-86.8077562057
 20
-38.7524724472
 10
-86.8101887963
 20
-38.8254746033
 10
-86.8142128867
 20
-38.8811445999
 10
-86.8200128857
 20
-38.9199283183
 10
-86.8273973877
 20
-38.9441146596
 10
-86.8363653359
 20
-38.9547078945
  0
LINE
  5
3E6
100
AcDbEntity
  8
SUPERFICI
100
AcDbLine
 62
250
  6
CONTINUOUS
 10
-86.932758059
 20
-33.4987986889
 11
-86.9207997634
 21
-34.4596242509
  0
LINE
  5
3E7
100
AcDbEntity
  8
SUPERFICI
100
AcDbLine
 62
250
  6
CONTINUOUS
 10
-86.9408228168
 20
-32.5260359506
 11
-86.932758059
 21
-33.4987986889
  0
LINE
  5
3E8
100
AcDbEntity
  8
SUPERFICI
100
AcDbLine
 62
250
  6
CONTINUOUS
 10
-86.9475727671
 20
-31.027603477
 11
-86.9408228168
 21
-32.5260359506
  0
LINE
  5
3E9
100
AcDbEntity
  8
SUPERFICI
100
AcDbLine
 62
250
  6
CONTINUOUS
 10
-86.9809230014
 20
-0.0000022816
 11
-86.9560766852
 21
-22.4182232262
  0
LINE
  5
3EA
100
AcDbEntity
  8
SUPERFICI
100
AcDbLine
 62
250
  6
CONTINUOUS
 10
-86.9528691803
 20
-27.3345289438
 11
-86.9475727671
 21
-31.027603477
  0
LINE
  5
3EB
100
AcDbEntity
  8
SUPERFICI
100
AcDbLine
 62
250
  6
CONTINUOUS
 10
-86.9560766852
 20
-22.4182232262
 11
-86.9528691803
 21
-27.3345289438
  0
LINE
  5
3EC
100
AcDbEntity
  8
SUPERFICI
100
AcDbLine
 62
250
  6
CONTINUOUS
 10
-86.9613119829
 20
18.0036357238
 11
-86.9510005381
 21
29.3924018334
  0
LINE
  5
3ED
100
AcDbEntity
  8
SUPERFICI
100
AcDbLine
 62
250
  6
CONTINUOUS
 10
-86.9809998081
 20
-0.0000023498
 11
-86.9613119829
 21
18.0036357238
  0
LINE
  5
3EE
100
AcDbEntity
  8
SUPERFICI
100
AcDbLine
 62
250
  6
CONTINUOUS
 10
-86.9510005381
 20
29.3924018334
 11
-86.9457256033
 21
31.5540755116
  0
LWPOLYLINE
  5
3EF
100
AcDbEntity
  8
SUPERFICI
100
AcDbPolyline
 62
250
  6
CONTINUOUS
 90
9
 70
0
 10
-86.8063709666
 20
38.4327730844
 10
-86.8058425401
 20
38.5578900283
 10
-86.8063525558
 20
38.6638361294
 10
-86.8077562057
 20
38.7524724472
 10
-86.8101887963
 20
38.8254746033
 10
-86.8142128867
 20
38.8811445999
 10
-86.8200128857
 20
38.9199283183
 10
-86.8273973877
 20
38.9441146596
 10
-86.8363653359
 20
38.9547078945
  0
LINE
  5
3F0
100
AcDbEntity
  8
SUPERFICI
100
AcDbLine
 62
250
  6
CONTINUOUS
 10
-86.9457256033
 20
31.5540755116
 11
-86.9408228168
 21
32.5260359506
  0
LINE
  5
3F1
100
AcDbEntity
  8
SUPERFICI
100
AcDbLine
 62
250
  6
CONTINUOUS
 10
-86.9408228168
 20
32.5260359506
 11
-86.932758059
 21
33.498798689
  0
LINE
  5
3F2
100
AcDbEntity
  8
SUPERFICI
100
AcDbLine
 62
250
  6
CONTINUOUS
 10
-86.932758059
 20
33.498798689
 11
-86.9207997634
 21
34.4596242509
  0
LWPOLYLINE
  5
3F3
100
AcDbEntity
  8
SUPERFICI
100
AcDbPolyline
 62
250
  6
CONTINUOUS
 90
6
 70
0
 10
-86.9207997634
 20
34.4596242509
 10
-86.9046524921
 20
35.3259251092
 10
-86.8934030313
 20
35.7553307921
 10
-86.8791571973
 20
36.1926134744
 10
-86.8624065485
 20
36.6264475155
 10
-86.8327390603
 20
37.3034946423
  0
LWPOLYLINE
  5
3F4
100
AcDbEntity
  8
SUPERFICI
100
AcDbPolyline
 62
250
  6
CONTINUOUS
 90
7
 70
0
 10
-85.906705584
 20
37.0080377198
 10
-85.8960673428
 20
37.3702639951
 10
-85.8873163743
 20
37.7260040599
 10
-85.880452921
 20
38.0691341115
 10
-85.8755754843
 20
38.3937899208
 10
-85.8725861123
 20
38.6943970539
 10
-85.870851825
 20
39.2033581147
  0
LWPOLYLINE
  5
3F5
100
AcDbEntity
  8
0
100
AcDbPolyline
 62
250
  6
CONTINUOUS
 90
3
 70
0
 10
-89.5778530415
 20
-25.9002234928
 10
-89.5764528328
 20
-25.8561663459
 10
-89.5759471678
 20
-25.7877968205
  0
LWPOLYLINE
  5
3F6
100
AcDbEntity
  8
SUPERFICI
100
AcDbPolyline
 62
250
  6
CONTINUOUS
 90
6
 70
0
 10
-86.8327390603
 20
37.3034946423
 10
-86.8241288962
 20
37.5357755766
 10
-86.8173419193
 20
37.7502610608
 10
-86.8126593141
 20
37.9487576692
 10
-86.8097735677
 20
38.1298680469
 10
-86.8063709666
 20
38.4327730844
  0
LWPOLYLINE
  5
3F7
100
AcDbEntity
  8
SUPERFICI
100
AcDbPolyline
 62
250
  6
CONTINUOUS
 90
5
 70
0
 10
-90.2722619358
 20
-24.1389550376
 10
-90.2712687837
 20
-24.1239616601
 10
-90.2708199385
 20
-24.0760359458
 10
-90.2709167768
 20
-23.9957849534
 10
-90.287192119
 20
-22.2000014303
  0
LWPOLYLINE
  5
3F8
100
AcDbEntity
  8
SUPERFICI
100
AcDbPolyline
 62
250
  6
CONTINUOUS
 90
10
 70
0
 10
-86.0261938533
 20
-28.3168458803
 10
-86.0198852948
 20
-29.2817400705
 10
-86.0118350337
 20
-30.2466101498
 10
-86.0020430701
 20
-31.2114561183
 10
-85.9905093838
 20
-32.1762789242
 10
-85.977233995
 20
-33.1410776193
 10
-85.9622169642
 20
-34.1058493589
 10
-85.9454583117
 20
-35.0705931947
 10
-85.9269580172
 20
-36.0353100751
 10
-85.9067160808
 20
-37.0
  0
LWPOLYLINE
  5
3F9
100
AcDbEntity
  8
SUPERFICI
100
AcDbPolyline
 62
250
  6
CONTINUOUS
 90
6
 70
0
 10
-85.870851825
 20
39.2033581147
 10
-85.8721075214
 20
39.4032100992
 10
-85.8762735249
 20
39.562087753
 10
-85.8837887134
 20
39.677301281
 10
-85.8942147952
 20
39.7468904902
 10
-85.9075520402
 20
39.769708699
  0
LINE
  5
3FA
100
AcDbEntity
  8
SUPERFICI
100
AcDbLine
 62
250
  6
CONTINUOUS
 10
-85.8725861123
 20
-38.6943970539
 11
-85.870851825
 21
-39.2033581147
  0
LINE
  5
3FB
100
AcDbEntity
  8
SUPERFICI
100
AcDbLine
 62
7
  6
CONTINUOUS
 10
-86.0546896469
 20
0.000000161
 11
-86.0261938533
 21
-28.3168458803
  0
LINE
  5
3FC
100
AcDbEntity
  8
SUPERFICI
100
AcDbLine
 62
7
  6
CONTINUOUS
 10
-86.0261942035
 20
28.3168458803
 11
-86.0546896469
 21
0.000000161
  0
LWPOLYLINE
  5
3FD
100
AcDbEntity
  8
SUPERFICI
100
AcDbPolyline
 62
250
  6
CONTINUOUS
 90
6
 70
0
 10
-85.870851825
 20
-39.2033581147
 10
-85.8721075214
 20
-39.4032100992
 10
-85.8762735249
 20
-39.562087753
 10
-85.8837887134
 20
-39.677301281
 10
-85.8942147952
 20
-39.7468904902
 10
-85.9075520402
 20
-39.769708699
  0
LWPOLYLINE
  5
3FE
100
AcDbEntity
  8
SUPERFICI
100
AcDbPolyline
 62
250
  6
CONTINUOUS
 90
10
 70
0
 10
-85.9067165384
 20
37.0
 10
-85.9269586545
 20
36.0352993019
 10
-85.9454590696
 20
35.0705743758
 10
-85.9622177835
 20
34.1058252215
 10
-85.9772348014
 20
33.1410509362
 10
-85.9905101182
 20
32.1762524229
 10
-86.0020437183
 20
31.2114323898
 10
-86.0118355967
 20
30.2465917397
 10
-86.0198857584
 20
29.2817295699
 10
-86.0261942035
 20
28.3168458803
  0
LINE
  5
3FF
100
AcDbEntity
  8
RACCORDO
100
AcDbLine
 62
7
  6
CONTINUOUS
 10
-82.305295846
 20
-3.6397611671
 11
-81.5027732962
 21
-3.7099727925
  0
LINE
  5
400
100
AcDbEntity
  8
RACCORDO
100
AcDbLine
 62
7
  6
CONTINUOUS
 10
-83.9027732962
 20
1.8964204455
 11
-83.9027732962
 21
-1.8964204455
  0
LINE
  5
401
100
AcDbEntity
  8
0
100
AcDbLine
 62
7
  6
CONTINUOUS
 10
-81.5027732962
 20
-3.7099727925
 11
-81.5027732962
 21
-40.0003858982
  0
LINE
  5
402
100
AcDbEntity
  8
0
100
AcDbLine
 62
7
  6
CONTINUOUS
 10
-81.5027732962
 20
3.7099727925
 11
-81.5027732962
 21
40.0003858982
  0
LINE
  5
403
100
AcDbEntity
  8
0
100
AcDbLine
 62
7
  6
CONTINUOUS
 10
-81.3027732962
 20
39.0082350668
 11
-81.3027732962
 21
36.8121095046
  0
LINE
  5
404
100
AcDbEntity
  8
RACCORDO
100
AcDbLine
 62
7
  6
CONTINUOUS
 10
-81.3027732962
 20
36.8121095046
 11
-81.3027732962
 21
4.2031338449
  0
LINE
  5
405
100
AcDbEntity
  8
RACCORDO
100
AcDbLine
 62
7
  6
CONTINUOUS
 10
-81.3027732962
 20
-4.2031338449
 11
-81.3027732962
 21
-36.8123099375
  0
LINE
  5
406
100
AcDbEntity
  8
0
100
AcDbLine
 62
7
  6
CONTINUOUS
 10
-81.3027732962
 20
-36.8123099375
 11
-81.3027732962
 21
-39.0082440021
  0
LWPOLYLINE
  5
407
100
AcDbEntity
  8
0
100
AcDbPolyline
 62
7
  6
CONTINUOUS
 90
4
 70
0
 43
0.3500000006
 10
-101.0069373779
 20
-2.3571432495
 10
-101.8640843811
 20
-2.3571432495
 10
-102.2926533508
 20
-1.9285708809
 10
-102.2926533508
 20
-1.2857140274
  0
LWPOLYLINE
  5
408
100
AcDbEntity
  8
0
100
AcDbPolyline
 62
7
  6
CONTINUOUS
 90
13
 70
0
 43
0.3500000006
 10
-101.4355154114
 20
-0.0000003204
 10
-102.7212223206
 20
-0.0000003204
 10
-103.149800354
 20
0.2142864304
 10
-103.5783693237
 20
0.642857666
 10
-103.5783693237
 20
0.8571421509
 10
-103.149800354
 20
1.2857133865
 10
-102.7212223206
 20
1.5000001373
 10
-101.4355154114
 20
1.5000001373
 10
-101.0069373779
 20
1.2857133865
 10
-100.5783684082
 20
0.8571421509
 10
-100.5783684082
 20
0.642857666
 10
-101.0069373779
 20
0.2142864304
 10
-101.4355154114
 20
-0.0000003204
  0
LINE
  5
409
100
AcDbEntity
  8
SUPERFICI
100
AcDbLine
 62
7
  6
CONTINUOUS
 10
-86.0546893621
 20
0.0000005677
 11
-86.9809230014
 21
-0.0000022816
  0
LINE
  5
40A
100
AcDbEntity
  8
SUPERFICI
100
AcDbLine
 62
250
  6
CONTINUOUS
 10
-90.3039365196
 20
0.0000007417
 11
-89.7089217156
 21
0.0000147219
  0
LINE
  5
40B
100
AcDbEntity
  8
SUPERFICI
100
AcDbLine
 62
250
  6
CONTINUOUS
 10
-89.5146557321
 20
-0.0023285109
 11
-86.9805458361
 21
0.0000532982
  0
LWPOLYLINE
  5
40C
100
AcDbEntity
  8
SUPERFICI
100
AcDbPolyline
 62
250
  6
CONTINUOUS
 90
5
 70
0
 10
-89.7089215728
 20
-0.0003408527
 10
-89.7068760322
 20
-0.0005601282
 10
-89.6850284302
 20
-0.0010856163
 10
-89.6438465199
 20
-0.0015386054
 10
-89.5146557321
 20
-0.0023285109
  0
LINE
  5
40D
100
AcDbEntity
  8
RACCORDO
100
AcDbLine
 62
7
  6
CONTINUOUS
 10
-81.5027732962
 20
3.7099727925
 11
-82.305295846
 21
3.6397611671
  0
LWPOLYLINE
  5
40E
100
AcDbEntity
  8
SUPERFICI
100
AcDbPolyline
 62
250
  6
CONTINUOUS
 90
10
 70
0
 10
-89.6401080323
 20
22.1470295245
 10
-89.6512667859
 20
22.1522052711
 10
-89.6782687497
 20
22.1576199997
 10
-89.7209028473
 20
22.1632507727
 10
-89.7790529457
 20
22.1690832054
 10
-89.8524492271
 20
22.1750855405
 10
-89.9404423837
 20
22.1812064414
 10
-90.0424470548
 20
22.1874112383
 10
-90.1581675415
 20
22.1936841297
 10
-90.2871935328
 20
22.2000007152
  0
LWPOLYLINE
  5
40F
100
AcDbEntity
  8
SUPERFICI
100
AcDbPolyline
 62
250
  6
CONTINUOUS
 90
6
 70
0
 10
-89.5828478826
 20
25.9196625408
 10
-89.5795116595
 20
25.9173700448
 10
-89.5772656437
 20
25.8864369512
 10
-89.5761275888
 20
25.8257172009
 10
-89.5760879685
 20
25.7339596865
 10
-89.5771559454
 20
25.6091573881
  0
LWPOLYLINE
  5
410
100
AcDbEntity
  8
0
100
AcDbPolyline
 62
7
  6
CONTINUOUS
 90
10
 70
0
 43
0.3500000006
 10
-86.1171838989
 20
49.2504316406
 10
-86.0457527161
 20
49.1075783386
 10
-86.0457527161
 20
49.0361471558
 10
-86.1886060181
 20
48.8932893219
 10
-86.2600372009
 20
48.8932893219
 10
-86.3314683838
 20
48.9647205048
 10
-86.3314683838
 20
49.0361471558
 10
-86.2600372009
 20
49.1790049896
 10
-86.1886060181
 20
49.2504316406
 10
-86.1171838989
 20
49.2504316406
  0
LINE
  5
411
100
AcDbEntity
  8
SUPERFICI
100
AcDbLine
 62
250
  6
CONTINUOUS
 10
-90.2871949465
 20
22.2
 11
-90.5030159511
 21
22.2
  0
LWPOLYLINE
  5
412
100
AcDbEntity
  8
SUPERFICI
100
AcDbPolyline
 62
250
  6
CONTINUOUS
 90
9
 70
0
 10
-86.8363653359
 20
-38.9547078945
 10
-86.8930079812
 20
-38.9940384555
 10
-86.9392522843
 20
-39.0169809737
 10
-86.9752501859
 20
-39.0306059936
 10
-86.9996380873
 20
-39.0461370202
 10
-87.0141971187
 20
-39.0638639199
 10
-87.0237324888
 20
-39.0749875997
 10
-87.029874443
 20
-39.079638322
 10
-87.0311772266
 20
-39.0860779416
  0
LINE
  5
413
100
AcDbEntity
  8
SUPERFICI
100
AcDbLine
 62
250
  6
CONTINUOUS
 10
-86.9522056387
 20
28.3177900615
 11
-86.0212860818
 21
28.31682
  0
LWPOLYLINE
  5
414
100
AcDbEntity
  8
SUPERFICI
100
AcDbPolyline
 62
250
  6
CONTINUOUS
 90
9
 70
0
 10
-86.8363653359
 20
38.9547078945
 10
-86.8930079812
 20
38.9940384555
 10
-86.9392522843
 20
39.0169809737
 10
-86.9752501859
 20
39.0306059936
 10
-86.9996380873
 20
39.0461370202
 10
-87.0141971187
 20
39.0638639199
 10
-87.0237324888
 20
39.0749875997
 10
-87.029874443
 20
39.079638322
 10
-87.0311772266
 20
39.0860779416
  0
LWPOLYLINE
  5
415
100
AcDbEntity
  8
SUPERFICI
100
AcDbPolyline
 62
250
  6
CONTINUOUS
 90
4
 70
0
 10
-85.9079629291
 20
39.7695130549
 10
-86.0572041723
 20
39.7503618567
 10
-86.1999521336
 20
39.7095997187
 10
-86.334212985
 20
39.6484350932
  0
LINE
  5
416
100
AcDbEntity
  8
0
100
AcDbLine
 62
7
  6
CONTINUOUS
 10
-81.5027732962
 20
38.9977405643
 11
-81.3027732962
 21
39.0082350669
  0
LINE
  5
417
100
AcDbEntity
  8
0
100
AcDbLine
 62
7
  6
CONTINUOUS
 10
-85.9079628786
 20
39.7695142019
 11
-81.5027732962
 21
40.0003858983
  0
LINE
  5
418
100
AcDbEntity
  8
SUPERFICI
100
AcDbLine
 62
7
  6
CONTINUOUS
 10
-86.1446496575
 20
39.7573514042
 11
-85.907963589
 21
39.7695277556
  0
LINE
  5
419
100
AcDbEntity
  8
0
100
AcDbLine
 62
7
  6
CONTINUOUS
 10
-84.9117179425
 20
37.0086751271
 11
-85.9067165384
 21
37.0
  0
LINE
  5
41A
100
AcDbEntity
  8
0
100
AcDbLine
 62
7
  6
CONTINUOUS
 10
-83.9260586625
 20
37.012477685
 11
-84.9117179425
 21
37.0086751271
  0
LWPOLYLINE
  5
41B
100
AcDbEntity
  8
0
100
AcDbPolyline
 62
7
  6
CONTINUOUS
 90
7
 70
0
 43
0.3500000006
 10
-83.5457519531
 20
48.750431488
 10
-85.0457524109
 20
48.750431488
 10
-83.5457519531
 20
50.8932899323
 10
-83.5457519531
 20
51.3218634338
 10
-83.9743209229
 20
51.7504324036
 10
-84.6171834412
 20
51.7504324036
 10
-85.0457524109
 20
51.1075744171
  0
LINE
  5
41C
100
AcDbEntity
  8
0
100
AcDbLine
 62
7
  6
CONTINUOUS
 10
-82.4650819493
 20
37.0101443025
 11
-83.9260586625
 21
37.012477685
  0
LINE
  5
41D
100
AcDbEntity
  8
0
100
AcDbLine
 62
7
  6
CONTINUOUS
 10
-81.3027732962
 20
36.8124622999
 11
-81.5027732962
 21
36.8138233733
  0
LINE
  5
41E
100
AcDbEntity
  8
0
100
AcDbLine
 62
7
  6
CONTINUOUS
 10
-81.5027732962
 20
37.0043603071
 11
-82.4650819493
 21
37.0101443025
  0
LWPOLYLINE
  5
41F
100
AcDbEntity
  8
SUPERFICI
100
AcDbPolyline
 62
250
  6
CONTINUOUS
 90
4
 70
0
 10
-85.9067166314
 20
37.0
 10
-86.061038232
 20
37.0058192561
 10
-86.2082389554
 20
37.0129599963
 10
-86.3461653024
 20
37.0208000806
  0
LWPOLYLINE
  5
420
100
AcDbEntity
  8
SUPERFICI
100
AcDbPolyline
 62
250
  6
CONTINUOUS
 90
3
 70
0
 10
-86.3461653024
 20
37.0208000806
 10
-86.8106629113
 20
37.0507085784
 10
-86.8432332962
 20
37.05298
  0
ARC
  5
421
100
AcDbEntity
  8
0
100
AcDbCircle
 62
7
  6
CONTINUOUS
 10
-56.9999592504
 20
-37.0000292159
 40
3.0003859663
100
AcDbArc
 50
180.0799921839
 51
269.9982540289
  0
ARC
  5
422
100
AcDbEntity
  8
0
100
AcDbCircle
 62
7
  6
CONTINUOUS
 10
-56.9999592504
 20
37.0000292159
 40
3.0003859663
100
AcDbArc
 50
90.0017460402
 51
179.9210590784
  0
ARC
  5
423
100
AcDbEntity
  8
0
100
AcDbCircle
 62
7
  6
CONTINUOUS
 10
56.9999592504
 20
37.0000292159
 40
3.0003859663
100
AcDbArc
 50
0.0789409902
 51
89.9966016855
  0
ARC
  5
424
100
AcDbEntity
  8
0
100
AcDbCircle
 62
7
  6
CONTINUOUS
 10
56.9999592504
 20
-37.0000292159
 40
3.0003859663
100
AcDbArc
 50
270.0033983838
 51
359.9200078857
  0
ARC
  5
425
100
AcDbEntity
  8
0
100
AcDbCircle
 62
7
  6
CONTINUOUS
 10
24.0377048827
 20
-26.7896547132
 40
0.8893898871
100
AcDbArc
 50
292.842868527
 51
90.0
  0
ARC
  5
426
100
AcDbEntity
  8
0
100
AcDbCircle
 62
7
  6
CONTINUOUS
 10
23.9571988827
 20
-26.7896547132
 40
0.352865
100
AcDbArc
 50
270.0
 51
90.0
  0
ARC
  5
427
100
AcDbEntity
  8
SUPERFICI
100
AcDbCircle
 62
7
  6
CONTINUOUS
 10
22.2
 20
-22.2
 40
0.3
100
AcDbArc
 50
269.999726033
 51
359.9999364917
  0
ARC
  5
428
100
AcDbEntity
  8
SUPERFICI
100
AcDbCircle
 62
7
  6
CONTINUOUS
 10
-22.2
 20
-22.2
 40
0.3
100
AcDbArc
 50
180.0000635085
 51
270.000273967
  0
ARC
  5
429
100
AcDbEntity
  8
SUPERFICI
100
AcDbCircle
 62
7
  6
CONTINUOUS
 10
-22.2
 20
22.2
 40
0.2999976131
100
AcDbArc
 50
89.9997260322
 51
179.9999364909
  0
ARC
  5
42A
100
AcDbEntity
  8
SUPERFICI
100
AcDbCircle
 62
7
  6
CONTINUOUS
 10
22.2
 20
22.2
 40
0.2999976131
100
AcDbArc
 50
0.0000635094
 51
90.0002739672
  0
ARC
  5
42B
100
AcDbEntity
  8
RACCORDO
100
AcDbCircle
 62
7
  6
CONTINUOUS
 10
-82.1527732962
 20
-1.8964204455
 40
1.75
100
AcDbArc
 50
180.0
 51
265.0
  0
ARC
  5
42C
100
AcDbEntity
  8
RACCORDO
100
AcDbCircle
 62
7
  6
CONTINUOUS
 10
-82.1527732962
 20
1.8964204455
 40
1.75
100
AcDbArc
 50
95.0
 51
180.0
  0
ARC
  5
42D
100
AcDbEntity
  8
SUPERFICI
100
AcDbCircle
 62
7
  6
CONTINUOUS
 10
-89.5030167575
 20
23.4999990575
 40
1.0000014444
100
AcDbArc
 50
140.2860551952
 51
198.6566410644
  0
ARC
  5
42E
100
AcDbEntity
  8
SUPERFICI
100
AcDbCircle
 62
7
  6
CONTINUOUS
 10
-89.5030256998
 20
-23.5000086115
 40
0.9999912223
100
AcDbArc
 50
169.9932537735
 51
219.7138179298
  0
ARC
  5
42F
100
AcDbEntity
  8
RACCORDO
100
AcDbCircle
 62
7
  6
CONTINUOUS
 10
-81.6027732962
 20
4.2031338449
 40
0.3
100
AcDbArc
 50
289.4783520998
 51
360.0
  0
ARC
  5
430
100
AcDbEntity
  8
RACCORDO
100
AcDbCircle
 62
7
  6
CONTINUOUS
 10
-81.6027732962
 20
-4.2031338449
 40
0.3
100
AcDbArc
 50
0.0
 51
70.5216478999
  0
ELLIPSE
  5
431
100
AcDbEntity
  8
RACCORDO
100
AcDbEllipse
 62
7
  6
CONTINUOUS
 10
59.9663133965
 20
1.8964204455
 30
0.0
 11
0.0000002076
 21
1.75
 31
0.0
 40
0.0524078737
 41
0.0872664688
 42
1.570796333
  0
ELLIPSE
  5
432
100
AcDbEntity
  8
RACCORDO
100
AcDbEllipse
 62
7
  6
CONTINUOUS
 10
-59.9663129478
 20
-1.8964204455
 30
0.0
 11
-0.0000002076
 21
1.75
 31
0.0
 40
0.0524078737
 41
-3.0543261972
 42
-1.570796333
  0
ELLIPSE
  5
433
100
AcDbEntity
  8
RACCORDO
100
AcDbEllipse
 62
7
  6
CONTINUOUS
 10
-59.9663133965
 20
1.8964204455
 30
0.0
 11
-0.0000002076
 21
1.75
 31
0.0
 40
0.0524078737
 41
-1.570796333
 42
-0.0872664688
  0
ELLIPSE
  5
434
100
AcDbEntity
  8
RACCORDO
100
AcDbEllipse
 62
7
  6
CONTINUOUS
 10
59.9663129478
 20
-1.8964204455
 30
0.0
 11
0.0000002076
 21
1.75
 31
0.0
 40
0.0524078737
 41
-4.7123889742
 42
-3.22885911
  0
ENDSEC
  0
SECTION
  2
OBJECTS
  0
DICTIONARY
  5
C
100
AcDbDictionary
280
0
281
1
  3
ACAD_GROUP
350
D
  3
ACAD_MLINESTYLE
350
17
  3
ACAD_LAYOUT
350
1A
  3
ACAD_PLOTSETTINGS
350
19
  3
ACAD_PLOTSTYLENAME
350
E
  0
DICTIONARY
  5
D
102
{ACAD_REACTORS
330
C
102
}
100
AcDbDictionary
280
0
281
1
  0
ACDBDICTIONARYWDFLT
  5
E
102
{ACAD_REACTORS
330
C
102
}
100
AcDbDictionary
281
1
  3
Normal
350
F
100
AcDbDictionaryWithDefault
340
F
  0
DICTIONARY
  5
17
102
{ACAD_REACTORS
330
C
102
}
100
AcDbDictionary
280
0
281
1
  3
Standard
350
18
  0
DICTIONARY
  5
19
102
{ACAD_REACTORS
330
C
102
}
100
AcDbDictionary
281
1
  0
DICTIONARY
  5
1A
102
{ACAD_REACTORS
330
C
102
}
100
AcDbDictionary
281
1
  3
Model
350
435
  3
Layout1
350
436
  0
ACDBPLACEHOLDER
  5
F
102
{ACAD_REACTORS
330
E
102
}
  0
MLINESTYLE
  5
18
102
{ACAD_REACTORS
330
17
102
}
100
AcDbMlineStyle
  2
STANDARD
 70
0
  3

 62
256
 51
90.0
 52
90.0
 71
2
 49
0.5
 62
256
  6
BYLAYER
 49
-0.5
 62
256
  6
BYLAYER
  0
LAYOUT
  5
435
102
{ACAD_REACTORS
330
1A
102
}
100
AcDbPlotSettings
  1

  2
none_device
  4
ISO_A4_(297.00_x_210.00_MM)
  6

 40
0.0
 41
0.0
 42
0.0
 43
0.0
 44
297.0
 45
210.0
 46
0.0
 47
0.0
 48
0.0
 49
0.0
140
0.0
141
0.0
142
1.0
143
1.0
 70
1024
 72
1
 73
0
 74
0
  7

 75
0
147
1.0
148
0.0
149
0.0
100
AcDbLayout
  1
Model
 70
0
 71
0
 10
0.0
 20
0.0
 11
297.0
 21
210.0
 12
0.0
 22
0.0
 32
0.0
 14
0.0
 24
0.0
 34
0.0
 15
0.0
 25
0.0
 35
0.0
146
0.0
 13
0.0
 23
0.0
 33
0.0
 16
1.0
 26
0.0
 36
0.0
 17
0.0
 27
1.0
 37
0.0
 76
0
330
21A
345
0
346
0
  0
LAYOUT
  5
436
102
{ACAD_REACTORS
330
1A
102
}
100
AcDbPlotSettings
  1

  2
none_device
  4
ISO_A4_(297.00_x_210.00_MM)
  6

 40
0.0
 41
0.0
 42
0.0
 43
0.0
 44
297.0
 45
210.0
 46
0.0
 47
0.0
 48
0.0
 49
0.0
140
0.0
141
0.0
142
1.0
143
1.0
 70
0
 72
1
 73
0
 74
0
  7

 75
0
147
1.0
148
0.0
149
0.0
100
AcDbLayout
  1
Layout1
 70
0
 71
1
 10
0.0
 20
0.0
 11
297.0
 21
210.0
 12
0.0
 22
0.0
 32
0.0
 14
0.0
 24
0.0
 34
0.0
 15
0.0
 25
0.0
 35
0.0
146
0.0
 13
0.0
 23
0.0
 33
0.0
 16
1.0
 26
0.0
 36
0.0
 17
0.0
 27
1.0
 37
0.0
 76
0
330
21B
345
0
346
0
  0
ENDSEC
  0
EOF
