  0
SECTION
  2
HEADER
  9
$ACADVER
  1
AC1024
  9
$DWGCODEPAGE
  3
ANSI_1252
  9
$EXTMAX
 10
297.0
 20
210.0
 30
0.0
  9
$EXTMIN
 10
0.0
 20
0.0
 30
0.0
  9
$LIMMIN
 10
0.0
 20
0.0
  9
$LIMMAX
 10
297.0
 20
210.0
  9
$VIEWCTR
 10
148.5
 20
105.0
  9
$VIEWSIZE
 40
210.0
  9
$CLAYER
  8
0
  9
$LTSCALE
 40
16.335
  9
$CELTYPE
  6
BYLAYER
  9
$DIMSCALE
 40
1.0
  9
$DIMASZ
 40
3.0
  9
$DIMEXO
 40
0.5
  9
$DIMDLI
 40
11.286
  9
$DIMEXE
 40
1.5
  9
$DIMCEN
 40
2.673
  9
$DIMLFAC
 40
1.0
  9
$DIMBLK
  1
_FILLED
  9
$DIMALT
 70
0
  9
$DIMALTF
 40
0.0393700787
  9
$DIMTXT
 40
3.0
  9
$DIMTOL
 70
1
  9
$DIMLIM
 70
0
  9
$DIMTFAC
 40
1.0
  9
$DIMTP
 40
0.01
  9
$DIMTM
 40
0.01
  9
$DIMGAP
 40
0.625
  9
$DIMDSEP
 70
44
  9
$AUNITS
 70
0
  9
$PDMODE
 70
3
  9
$PDSIZE
 40
3.0
  9
$HANDSEED
  5
3FF
  9
$TILEMODE
 70
1
  9
$MEASUREMENT
 70
1
  9
$INSUNITS
 70
4
  0
ENDSEC
  0
SECTION
  2
CLASSES
  0
CLASS
  1
ACDBDICTIONARYWDFLT
  2
AcDbDictionaryWithDefault
  3
AutoCAD 2000
 90
0
 91
1
280
0
281
0
  0
CLASS
  1
ACDBPLACEHOLDER
  2
AcDbPlaceHolder
  3
AutoCAD 2000
 90
0
 91
1
280
0
281
0
  0
CLASS
  1
LAYOUT
  2
AcDbLayout
  3
AutoCAD 2000
 90
0
 91
0
280
0
281
0
  0
ENDSEC
  0
SECTION
  2
TABLES
  0
TABLE
  2
VPORT
  5
8
100
AcDbSymbolTable
 70
2
  0
VPORT
  5
1F4
100
AcDbSymbolTableRecord
100
AcDbViewportTableRecord
  2
*ACTIVE
 70
0
 10
0.0
 20
0.0
 11
1.0
 21
1.0
 12
148.5
 22
105.0
 13
0.0
 23
0.0
 14
1.0
 24
1.0
 15
0.0
 25
0.0
 16
0.0
 26
0.0
 36
1.0
 17
0.0
 27
0.0
 37
0.0
 40
210.0
 41
1.4142857143
 42
50.0
 43
0.0
 44
0.0
 50
0.0
 51
0.0
 71
0
 72
100
 73
1
 74
1
 75
0
 76
0
 77
0
 78
0
  0
ENDTAB
  0
TABLE
  2
LTYPE
  5
5
100
AcDbSymbolTable
 70
6
  0
LTYPE
  5
14
100
AcDbSymbolTableRecord
100
AcDbLinetypeTableRecord
  2
BYBLOCK
 70
0
  3

 72
65
 73
0
 40
0.0
  0
LTYPE
  5
15
100
AcDbSymbolTableRecord
100
AcDbLinetypeTableRecord
  2
BYLAYER
 70
0
  3

 72
65
 73
0
 40
0.0
  0
LTYPE
  5
16
100
AcDbSymbolTableRecord
100
AcDbLinetypeTableRecord
  2
CONTINUOUS
 70
64
  3
Solid line
 72
65
 73
0
 40
0.0
  0
LTYPE
  5
1F5
100
AcDbSymbolTableRecord
100
AcDbLinetypeTableRecord
  2
CENTER
 70
64
  3
____ _ ____ _ ____ _ ____ _ ____ _ ____ _ ____
 72
65
 73
4
 40
0.6
 49
0.375
 74
0
 49
-0.075
 74
0
 49
0.075
 74
0
 49
-0.075
 74
0
  0
LTYPE
  5
1F6
100
AcDbSymbolTableRecord
100
AcDbLinetypeTableRecord
  2
HIDDEN
 70
64
  3
- - - - - - - - - - - - - - - - - - - -
 72
65
 73
2
 40
0.2
 49
0.1
 74
0
 49
-0.1
 74
0
  0
LTYPE
  5
1F7
100
AcDbSymbolTableRecord
100
AcDbLinetypeTableRecord
  2
PHANTOM
 70
64
  3
_____ _ _ _____ _ _ _____ _ _ _____
 72
65
 73
6
 40
0.8
 49
0.45
 74
0
 49
-0.05
 74
0
 49
0.1
 74
0
 49
-0.05
 74
0
 49
0.1
 74
0
 49
-0.05
 74
0
  0
LTYPE
  5
1F8
100
AcDbSymbolTableRecord
100
AcDbLinetypeTableRecord
  2
DOT
 70
64
  3
. . . . . . . . . . . . . . . . . . . .
 72
65
 73
2
 40
0.2
 49
0.1
 74
0
 49
-0.1
 74
0
  0
LTYPE
  5
1F9
100
AcDbSymbolTableRecord
100
AcDbLinetypeTableRecord
  2
DASHED
 70
64
  3
- - - - - - - - - - - - - - - - - - - -
 72
65
 73
2
 40
0.2
 49
0.1
 74
0
 49
-0.1
 74
0
  0
ENDTAB
  0
TABLE
  2
LAYER
  5
2
100
AcDbSymbolTable
 70
36
  0
LAYER
  5
10
100
AcDbSymbolTableRecord
100
AcDbLayerTableRecord
  2
0
 70
0
 62
7
  6
CONTINUOUS
370
-3
390
F
  0
LAYER
  5
1FA
100
AcDbSymbolTableRecord
100
AcDbLayerTableRecord
  2
DEFAULT_1
 70
0
 62
7
  6
CENTER
370
-3
390
F
  0
LAYER
  5
1FB
100
AcDbSymbolTableRecord
100
AcDbLayerTableRecord
  2
DEFAULT_2
 70
0
 62
7
  6
HIDDEN
370
-3
390
F
  0
LAYER
  5
1FC
100
AcDbSymbolTableRecord
100
AcDbLayerTableRecord
  2
DEFAULT_3
 70
0
 62
7
  6
PHANTOM
370
-3
390
F
  0
LAYER
  5
1FD
100
AcDbSymbolTableRecord
100
AcDbLayerTableRecord
  2
ASSI
 70
0
 62
7
  6
CONTINUOUS
370
-3
390
F
  0
LAYER
  5
1FE
100
AcDbSymbolTableRecord
100
AcDbLayerTableRecord
  2
COORDINATE
 70
0
 62
7
  6
CONTINUOUS
370
-3
390
F
  0
LAYER
  5
1FF
100
AcDbSymbolTableRecord
100
AcDbLayerTableRecord
  2
COPY_PUBLISH
 70
0
 62
7
  6
CONTINUOUS
370
-3
390
F
  0
LAYER
  5
200
100
AcDbSymbolTableRecord
100
AcDbLayerTableRecord
  2
COSMETICI
 70
0
 62
7
  6
CONTINUOUS
370
-3
390
F
  0
LAYER
  5
201
100
AcDbSymbolTableRecord
100
AcDbLayerTableRecord
  2
CURVE
 70
0
 62
7
  6
CONTINUOUS
370
-3
390
F
  0
LAYER
  5
202
100
AcDbSymbolTableRecord
100
AcDbLayerTableRecord
  2
DRAFT
 70
0
 62
7
  6
CONTINUOUS
370
-3
390
F
  0
LAYER
  5
203
100
AcDbSymbolTableRecord
100
AcDbLayerTableRecord
  2
IMPORT_IGES
 70
0
 62
7
  6
CONTINUOUS
370
-3
390
F
  0
LAYER
  5
204
100
AcDbSymbolTableRecord
100
AcDbLayerTableRecord
  2
INTFCLR
 70
0
 62
7
  6
CONTINUOUS
370
-3
390
F
  0
LAYER
  5
205
100
AcDbSymbolTableRecord
100
AcDbLayerTableRecord
  2
INTFCLR_17
 70
0
 62
7
  6
CONTINUOUS
370
-3
390
F
  0
LAYER
  5
206
100
AcDbSymbolTableRecord
100
AcDbLayerTableRecord
  2
INTF_1
 70
0
 62
7
  6
CONTINUOUS
370
-3
390
F
  0
LAYER
  5
207
100
AcDbSymbolTableRecord
100
AcDbLayerTableRecord
  2
INTF_11
 70
0
 62
7
  6
CONTINUOUS
370
-3
390
F
  0
LAYER
  5
208
100
AcDbSymbolTableRecord
100
AcDbLayerTableRecord
  2
INTF_2
 70
0
 62
7
  6
CONTINUOUS
370
-3
390
F
  0
LAYER
  5
209
100
AcDbSymbolTableRecord
100
AcDbLayerTableRecord
  2
INTF_5
 70
0
 62
7
  6
CONTINUOUS
370
-3
390
F
  0
LAYER
  5
20A
100
AcDbSymbolTableRecord
100
AcDbLayerTableRecord
  2
INTF_YELLOW
 70
0
 62
7
  6
CONTINUOUS
370
-3
390
F
  0
LAYER
  5
20B
100
AcDbSymbolTableRecord
100
AcDbLayerTableRecord
  2
NONE
 70
0
 62
7
  6
CONTINUOUS
370
-3
390
F
  0
LAYER
  5
20C
100
AcDbSymbolTableRecord
100
AcDbLayerTableRecord
  2
NOTE
 70
0
 62
7
  6
CONTINUOUS
370
-3
390
F
  0
LAYER
  5
20D
100
AcDbSymbolTableRecord
100
AcDbLayerTableRecord
  2
PIANI
 70
0
 62
7
  6
CONTINUOUS
370
-3
390
F
  0
LAYER
  5
20E
100
AcDbSymbolTableRecord
100
AcDbLayerTableRecord
  2
POSIZIONE_SCRITTE
 70
0
 62
7
  6
CONTINUOUS
370
-3
390
F
  0
LAYER
  5
20F
100
AcDbSymbolTableRecord
100
AcDbLayerTableRecord
  2
PUNTI
 70
0
 62
7
  6
CONTINUOUS
370
-3
390
F
  0
LAYER
  5
210
100
AcDbSymbolTableRecord
100
AcDbLayerTableRecord
  2
RACCORDO
 70
0
 62
7
  6
CONTINUOUS
370
-3
390
F
  0
LAYER
  5
211
100
AcDbSymbolTableRecord
100
AcDbLayerTableRecord
  2
RGB____0____0____0__
 70
0
 62
7
  6
CONTINUOUS
370
-3
390
F
  0
LAYER
  5
212
100
AcDbSymbolTableRecord
100
AcDbLayerTableRecord
  2
SIMBOLI
 70
0
 62
7
  6
CONTINUOUS
370
-3
390
F
  0
LAYER
  5
213
100
AcDbSymbolTableRecord
100
AcDbLayerTableRecord
  2
SMUSSO
 70
0
 62
7
  6
CONTINUOUS
370
-3
390
F
  0
LAYER
  5
214
100
AcDbSymbolTableRecord
100
AcDbLayerTableRecord
  2
SNAPLINE
 70
0
 62
7
  6
CONTINUOUS
370
-3
390
F
  0
LAYER
  5
215
100
AcDbSymbolTableRecord
100
AcDbLayerTableRecord
  2
SUPERFICI
 70
0
 62
7
  6
CONTINUOUS
370
-3
390
F
  0
LAYER
  5
216
100
AcDbSymbolTableRecord
100
AcDbLayerTableRecord
  2
TRASH
 70
0
 62
7
  6
CONTINUOUS
370
-3
390
F
  0
ENDTAB
  0
TABLE
  2
STYLE
  5
3
100
AcDbSymbolTable
 70
1
  0
STYLE
  5
11
100
AcDbSymbolTableRecord
100
AcDbTextStyleTableRecord
  2
STANDARD
 70
0
 40
0.0
 41
0.8
 50
0.0
 71
0
 42
0.2
  3
txt
  4

  0
STYLE
  5
217
100
AcDbSymbolTableRecord
100
AcDbTextStyleTableRecord
  2
TEXTSTYLE_1
 70
0
 40
0.0
 41
0.8
 50
0.0
 71
0
 42
0.2
  3
gdt
  4

  0
ENDTAB
  0
TABLE
  2
VIEW
  5
6
100
AcDbSymbolTable
 70
0
  0
ENDTAB
  0
TABLE
  2
UCS
  5
7
100
AcDbSymbolTable
 70
0
  0
ENDTAB
  0
TABLE
  2
APPID
  5
9
100
AcDbSymbolTable
 70
1
  0
APPID
  5
218
100
AcDbSymbolTableRecord
100
AcDbRegAppTableRecord
  2
ACAD
 70
0
  0
ENDTAB
  0
TABLE
  2
BLOCK_RECORD
  5
1
100
AcDbSymbolTable
 70
0
  0
BLOCK_RECORD
  5
219
100
AcDbSymbolTableRecord
100
AcDbBlockTableRecord
  2
*Model_Space
  0
BLOCK_RECORD
  5
21A
100
AcDbSymbolTableRecord
100
AcDbBlockTableRecord
  2
*Paper_Space
  0
BLOCK_RECORD
  5
21B
100
AcDbSymbolTableRecord
100
AcDbBlockTableRecord
  2
_FILLED
  0
BLOCK_RECORD
  5
21C
100
AcDbSymbolTableRecord
100
AcDbBlockTableRecord
  2
*D0
  0
BLOCK_RECORD
  5
21D
100
AcDbSymbolTableRecord
100
AcDbBlockTableRecord
  2
*D1
  0
BLOCK_RECORD
  5
21E
100
AcDbSymbolTableRecord
100
AcDbBlockTableRecord
  2
*D2
  0
ENDTAB
  0
TABLE
  2
DIMSTYLE
  5
A
100
AcDbSymbolTable
 70
1
100
AcDbDimStyleTable
 71
0
  0
DIMSTYLE
105
21F
100
AcDbSymbolTableRecord
100
AcDbDimStyleTableRecord
  2
STANDARD
 70
0
  3

  4

 40
1.0
 41
3.0
 42
0.5
 43
0.38
 44
1.5
 45
0.0
 46
0.0
 47
0.01
 48
0.01
140
3.0
141
0.0
142
0.0
143
25.4
144
1.0
145
0.0
146
1.0
147
0.625
 71
1
 72
0
 73
0
 74
0
 75
0
 76
0
 77
1
 78
8
 79
2
170
0
171
1
172
0
173
0
174
0
175
0
176
0
177
0
178
0
270
2
179
2
271
2
272
2
273
2
274
2
275
0
280
0
281
0
282
0
283
1
284
8
285
0
286
0
287
3
288
0
340
11
278
44
341
21B
342
21B
343
21B
344
21B
  0
DIMSTYLE
105
220
100
AcDbSymbolTableRecord
100
AcDbDimStyleTableRecord
  2
DIMSTYLE_1
 70
0
  3

  4

 40
1.0
 41
3.0
 42
0.5
 43
0.38
 44
1.5
 45
0.0
 46
0.0
 47
0.0
 48
0.0
140
3.0
141
0.0
142
0.0
143
25.4
144
1.0
145
0.0
146
1.0
147
0.75
 71
0
 72
0
 73
0
 74
0
 75
0
 76
0
 77
1
 78
8
 79
2
170
0
171
1
172
0
173
0
174
0
175
0
176
0
177
0
178
0
270
2
179
2
271
2
272
2
273
2
274
2
275
0
280
0
281
0
282
0
283
1
284
8
285
0
286
0
287
3
288
0
340
11
278
44
341
21B
342
21B
343
21B
344
21B
  0
ENDTAB
  0
ENDSEC
  0
SECTION
  2
BLOCKS
  0
BLOCK
  5
20
100
AcDbEntity
  8
0
100
AcDbBlockBegin
  2
*Model_Space
 70
0
 10
0.0
 20
0.0
 30
0.0
  3
*Model_Space
  1

  0
ENDBLK
  5
21
100
AcDbEntity
  8
0
100
AcDbBlockEnd
  0
BLOCK
  5
1C
100
AcDbEntity
  8
0
100
AcDbBlockBegin
  2
*Paper_Space
 70
0
 10
0.0
 20
0.0
 30
0.0
  3
*Paper_Space
  1

  0
ENDBLK
  5
1D
100
AcDbEntity
  8
0
100
AcDbBlockEnd
  0
BLOCK
  5
221
100
AcDbEntity
  8
0
100
AcDbBlockBegin
  2
_FILLED
 70
64
 10
0.0
 20
0.0
 30
0.0
  3
_FILLED
  1

  0
SOLID
  5
222
100
AcDbEntity
  8
0
  6
BYBLOCK
 62
0
100
AcDbTrace
 10
0.0
 20
0.0
 30
0.0
 11
-1.0
 21
0.3166666667
 31
0.0
 12
-1.0
 22
-0.3166666667
 32
0.0
 13
-1.0
 23
-0.3166666667
 33
0.0
  0
ENDBLK
  5
223
100
AcDbEntity
  8
0
  6
BYBLOCK
 62
0
100
AcDbBlockEnd
  0
BLOCK
  5
224
100
AcDbEntity
  8
0
100
AcDbBlockBegin
 62
7
  6
CONTINUOUS
  2
*D0
 70
65
 10
0.0
 20
0.0
 30
0.0
  3
*D0
  1

  0
MTEXT
  5
225
100
AcDbEntity
  8
0
100
AcDbMText
 62
7
  6
CONTINUOUS
  7
STANDARD
 71
2
 72
1
 10
86.0565043583
 20
121.1031976747
 30
0.0
 11
1.0
 21
0.0
 31
0.0
 73
2
 44
0.9
  1
{\ftxt;\W0.0001;\H0.0001;\~}{\ftxt;\W3.5;\H3.0; }{\ftxt;\W0.0001;\H0.0001;\~}
 40
3.0
 41
15.75
  0
LINE
  5
226
100
AcDbEntity
  8
0
100
AcDbLine
 62
7
  6
CONTINUOUS
 10
24.6565043583
 20
105.4619976741
 30
0.0
 11
24.6565043583
 21
118.8531976747
 31
0.0
  0
LINE
  5
227
100
AcDbEntity
  8
0
100
AcDbLine
 62
7
  6
CONTINUOUS
 10
147.4565043583
 20
105.4619976741
 30
0.0
 11
147.4565043583
 21
118.8531976747
 31
0.0
  0
LINE
  5
228
100
AcDbEntity
  8
0
100
AcDbLine
 62
7
  6
CONTINUOUS
 10
24.6565043583
 20
117.3531976747
 30
0.0
 11
86.0565043583
 21
117.3531976747
 31
0.0
  0
LINE
  5
229
100
AcDbEntity
  8
0
100
AcDbLine
 62
7
  6
CONTINUOUS
 10
147.4565043583
 20
117.3531976747
 30
0.0
 11
86.0565043583
 21
117.3531976747
 31
0.0
  0
INSERT
  5
22A
100
AcDbEntity
  8
0
100
AcDbBlockReference
 62
7
  6
CONTINUOUS
  2
_FILLED
 10
24.6565043583
 20
117.3531976747
 30
0.0
 41
3.0
 42
3.0
 43
3.0
 50
180.0
  0
INSERT
  5
22B
100
AcDbEntity
  8
0
100
AcDbBlockReference
 62
7
  6
CONTINUOUS
  2
_FILLED
 10
147.4565043583
 20
117.3531976747
 30
0.0
 41
3.0
 42
3.0
 43
3.0
 50
0.0
  0
ENDBLK
  5
22C
100
AcDbEntity
  8
0
  6
BYBLOCK
 62
0
100
AcDbBlockEnd
  0
BLOCK
  5
22D
100
AcDbEntity
  8
0
100
AcDbBlockBegin
 62
7
  6
CONTINUOUS
  2
*D1
 70
65
 10
0.0
 20
0.0
 30
0.0
  3
*D1
  1

  0
MTEXT
  5
22E
100
AcDbEntity
  8
0
100
AcDbMText
 62
7
  6
CONTINUOUS
  7
STANDARD
 71
2
 72
1
 10
9.9065043583
 20
66.3531976741
 30
0.0
 11
0.0
 21
1.0
 31
0.0
 73
2
 44
0.9
  1
{\ftxt;\W0.0001;\H0.0001;\~}{\ftxt;\W1.5714285714;\H3.0; }{\ftxt;\W0.0001;\H0.0001;\~}
 40
3.0
 41
7.0714285714
  0
LINE
  5
22F
100
AcDbEntity
  8
0
100
AcDbLine
 62
7
  6
CONTINUOUS
 10
28.420858943
 20
109.3531976741
 30
0.0
 11
12.1565043583
 21
109.3531976741
 31
0.0
  0
LINE
  5
230
100
AcDbEntity
  8
0
100
AcDbLine
 62
7
  6
CONTINUOUS
 10
28.420858943
 20
23.3531976741
 30
0.0
 11
12.1565043583
 21
23.3531976741
 31
0.0
  0
LINE
  5
231
100
AcDbEntity
  8
0
100
AcDbLine
 62
7
  6
CONTINUOUS
 10
13.6565043583
 20
109.3531976741
 30
0.0
 11
13.6565043583
 21
66.3531976741
 31
0.0
  0
LINE
  5
232
100
AcDbEntity
  8
0
100
AcDbLine
 62
7
  6
CONTINUOUS
 10
13.6565043583
 20
23.3531976741
 30
0.0
 11
13.6565043583
 21
66.3531976741
 31
0.0
  0
INSERT
  5
233
100
AcDbEntity
  8
0
100
AcDbBlockReference
 62
7
  6
CONTINUOUS
  2
_FILLED
 10
13.6565043583
 20
109.3531976741
 30
0.0
 41
3.0
 42
3.0
 43
3.0
 50
90.0
  0
INSERT
  5
234
100
AcDbEntity
  8
0
100
AcDbBlockReference
 62
7
  6
CONTINUOUS
  2
_FILLED
 10
13.6565043583
 20
23.3531976741
 30
0.0
 41
3.0
 42
3.0
 43
3.0
 50
270.0
  0
ENDBLK
  5
235
100
AcDbEntity
  8
0
  6
BYBLOCK
 62
0
100
AcDbBlockEnd
  0
BLOCK
  5
236
100
AcDbEntity
  8
0
100
AcDbBlockBegin
 62
7
  6
CONTINUOUS
  2
*D2
 70
65
 10
0.0
 20
0.0
 30
0.0
  3
*D2
  1

  0
MTEXT
  5
237
100
AcDbEntity
  8
0
100
AcDbMText
 62
7
  6
CONTINUOUS
  7
STANDARD
 71
2
 72
1
 10
191.8824340085
 20
121.1031976747
 30
0.0
 11
1.0
 21
0.0
 31
0.0
 73
2
 44
0.9
  1
{\ftxt;\W0.0001;\H0.0001;\~}{\ftxt;\W2.1428571429;\H3.0; }{\ftxt;\W0.0001;\H0.0001;\~}
 40
3.0
 41
9.6428571429
  0
LINE
  5
238
100
AcDbEntity
  8
0
100
AcDbLine
 62
7
  6
CONTINUOUS
 10
187.0331149592
 20
66.8531976743
 30
0.0
 11
187.0331149592
 21
118.8531976747
 31
0.0
  0
LINE
  5
239
100
AcDbEntity
  8
0
100
AcDbLine
 62
7
  6
CONTINUOUS
 10
196.7317530579
 20
66.8532155732
 30
0.0
 11
196.7317530579
 21
118.8531976747
 31
0.0
  0
LINE
  5
23A
100
AcDbEntity
  8
0
100
AcDbLine
 62
7
  6
CONTINUOUS
 10
187.0331149592
 20
117.3531976747
 30
0.0
 11
183.0331149592
 21
117.3531976747
 31
0.0
  0
LINE
  5
23B
100
AcDbEntity
  8
0
100
AcDbLine
 62
7
  6
CONTINUOUS
 10
183.0331149592
 20
117.3531976747
 30
0.0
 11
191.8824340085
 21
117.3531976747
 31
0.0
  0
LINE
  5
23C
100
AcDbEntity
  8
0
100
AcDbLine
 62
7
  6
CONTINUOUS
 10
196.7317530579
 20
117.3531976747
 30
0.0
 11
200.7317530579
 21
117.3531976747
 31
0.0
  0
LINE
  5
23D
100
AcDbEntity
  8
0
100
AcDbLine
 62
7
  6
CONTINUOUS
 10
200.7317530579
 20
117.3531976747
 30
0.0
 11
191.8824340085
 21
117.3531976747
 31
0.0
  0
INSERT
  5
23E
100
AcDbEntity
  8
0
100
AcDbBlockReference
 62
7
  6
CONTINUOUS
  2
_FILLED
 10
187.0331149592
 20
117.3531976747
 30
0.0
 41
3.0
 42
3.0
 43
3.0
  0
INSERT
  5
23F
100
AcDbEntity
  8
0
100
AcDbBlockReference
 62
7
  6
CONTINUOUS
  2
_FILLED
 10
196.7317530579
 20
117.3531976747
 30
0.0
 41
3.0
 42
3.0
 43
3.0
 50
180.0
  0
ENDBLK
  5
240
100
AcDbEntity
  8
0
  6
BYBLOCK
 62
0
100
AcDbBlockEnd
  0
ENDSEC
  0
SECTION
  2
ENTITIES
  0
DIMENSION
  5
241
100
AcDbEntity
  8
0
100
AcDbDimension
 62
7
  6
CONTINUOUS
  2
*D0
 10
147.4565043583
 20
117.3531976747
 30
0.0
 11
85.6279333191
 21
117.3531976747
 31
0.0
 70
160
 71
2
 72
2
 41
0.9
 42
122.8
  1
{\ftxt;\W0.0001;\H0.0001;\~}{\ftxt;\W3.5;\H3.0; }{\ftxt;\W0.0001;\H0.0001;\~}
  3
DIMSTYLE_1
100
AcDbAlignedDimension
 13
24.6565043583
 23
104.9619976741
 33
0.0
 14
147.4565043583
 24
104.9619976741
 34
0.0
100
AcDbRotatedDimension
  0
DIMENSION
  5
242
100
AcDbEntity
  8
0
100
AcDbDimension
 62
7
  6
CONTINUOUS
  2
*D1
 10
13.6565043583
 20
23.3531976741
 30
0.0
 11
13.6565043583
 21
65.9246264761
 31
0.0
 70
160
 71
2
 72
2
 41
0.9
 42
86.0
  1
{\ftxt;\W0.0001;\H0.0001;\~}{\ftxt;\W1.5714285714;\H3.0; }{\ftxt;\W0.0001;\H0.0001;\~}
  3
DIMSTYLE_1
100
AcDbAlignedDimension
 13
28.920858943
 23
109.3531976741
 33
0.0
 14
28.920858943
 24
23.3531976741
 34
0.0
 50
270.0
100
AcDbRotatedDimension
  0
DIMENSION
  5
243
100
AcDbEntity
  8
0
100
AcDbDimension
 62
7
  6
CONTINUOUS
  2
*D2
 10
196.7317530579
 20
117.3531976747
 30
0.0
 11
191.4538606567
 21
117.3531976747
 31
0.0
 70
160
 71
2
 72
2
 41
0.9
 42
9.6986380987
  1
{\ftxt;\W0.0001;\H0.0001;\~}{\ftxt;\W2.1428571429;\H3.0; }{\ftxt;\W0.0001;\H0.0001;\~}
  3
DIMSTYLE_1
100
AcDbAlignedDimension
 13
187.0331149592
 23
66.3531976743
 33
0.0
 14
196.7317530579
 24
66.3532155732
 34
0.0
100
AcDbRotatedDimension
  0
LINE
  5
244
100
AcDbEntity
  8
0
100
AcDbLine
 62
7
  6
CONTINUOUS
 10
24.656504354
 20
27.3526976766
 30
0.0
 11
24.6565043583
 21
88.6731976742
 31
0.0
  0
LINE
  5
245
100
AcDbEntity
  8
SUPERFICI
100
AcDbLine
 62
7
  6
CONTINUOUS
 10
24.6565043583
 20
88.6731976742
 30
0.0
 11
24.656504354
 21
105.3536976716
 31
0.0
  0
LINE
  5
246
100
AcDbEntity
  8
RACCORDO
100
AcDbLine
 62
250
  6
CONTINUOUS
 10
25.3500783731
 20
44.0189313091
 30
0.0
 11
25.3525664175
 21
105.3716582772
 31
0.0
  0
LINE
  5
247
100
AcDbEntity
  8
RACCORDO
100
AcDbLine
 62
250
  6
CONTINUOUS
 10
25.3525664175
 20
27.3347370711
 30
0.0
 11
25.3500783731
 21
44.0189313091
 31
0.0
  0
LWPOLYLINE
  5
248
100
AcDbEntity
  8
0
100
AcDbPolyline
 62
7
  6
CONTINUOUS
 90
13
 70
0
 43
0.3500000006
 10
11.1922188148
 20
64.4246228027
 10
10.977933197
 20
64.1389161987
 10
10.3350763435
 20
64.1389161987
 10
9.9065039749
 20
64.4246228027
 10
9.9065039749
 20
65.067485321
 10
10.3350763435
 20
65.3532009888
 10
10.977933197
 20
65.3532009888
 10
11.1922188148
 20
65.067485321
 10
11.6207900505
 20
65.4960542908
 10
12.4779325218
 20
65.4960542908
 10
12.9065048904
 20
65.067485321
 10
12.9065048904
 20
64.4246228027
 10
12.4779325218
 20
63.996053833
  0
LINE
  5
249
100
AcDbEntity
  8
RACCORDO
100
AcDbLine
 62
250
  6
CONTINUOUS
 10
28.6565043583
 20
109.3531976741
 30
0.0
 11
28.6610077459
 21
108.9247824568
 31
0.0
  0
LINE
  5
24A
100
AcDbEntity
  8
RACCORDO
100
AcDbLine
 62
250
  6
CONTINUOUS
 10
28.920858943
 20
23.7817568244
 30
0.0
 11
28.920858943
 21
23.3531976741
 31
0.0
  0
LINE
  5
24B
100
AcDbEntity
  8
RACCORDO
100
AcDbLine
 62
250
  6
CONTINUOUS
 10
28.920858943
 20
108.9246385239
 30
0.0
 11
28.920858943
 21
109.3531976741
 31
0.0
  0
LINE
  5
24C
100
AcDbEntity
  8
RACCORDO
100
AcDbLine
 62
250
  6
CONTINUOUS
 10
28.6565043583
 20
23.3531976741
 30
0.0
 11
28.6610077459
 21
23.7816128914
 31
0.0
  0
LWPOLYLINE
  5
24D
100
AcDbEntity
  8
0
100
AcDbPolyline
 62
7
  6
CONTINUOUS
 90
10
 70
0
 43
0.3500000006
 10
9.9065039749
 20
67.4246237183
 10
10.5493619614
 20
66.7817702637
 10
11.4065044327
 20
66.3532012939
 10
12.4779325218
 20
66.3532012939
 10
12.9065048904
 20
66.7817702637
 10
12.9065048904
 20
67.4246237183
 10
12.4779325218
 20
67.8532017517
 10
11.6207900505
 20
67.8532017517
 10
11.1922188148
 20
67.4246237183
 10
11.1922188148
 20
66.4960545959
  0
LWPOLYLINE
  5
24E
100
AcDbEntity
  8
0
100
AcDbPolyline
 62
7
  6
CONTINUOUS
 90
3
 70
0
 43
0.3500000006
 10
80.8065052185
 20
120.2460574036
 10
81.663643158
 20
121.103195343
 10
81.663643158
 20
118.1031944275
  0
LINE
  5
24F
100
AcDbEntity
  8
SUPERFICI
100
AcDbLine
 62
7
  6
CONTINUOUS
 10
143.4565043583
 20
23.3531976741
 30
0.0
 11
97.1605803611
 21
23.3531976741
 31
0.0
  0
LINE
  5
250
100
AcDbEntity
  8
0
100
AcDbLine
 62
7
  6
CONTINUOUS
 10
28.6565043583
 20
23.3531976741
 30
0.0
 11
97.1605803611
 21
23.3531976741
 31
0.0
  0
LINE
  5
251
100
AcDbEntity
  8
RACCORDO
100
AcDbLine
 62
250
  6
CONTINUOUS
 10
143.1921497736
 20
23.7817568244
 30
0.0
 11
86.0565043583
 21
23.780297262
 31
0.0
  0
LINE
  5
252
100
AcDbEntity
  8
RACCORDO
100
AcDbLine
 62
250
  6
CONTINUOUS
 10
86.0565043583
 20
23.780297262
 30
0.0
 11
28.920858943
 21
23.7817568244
 31
0.0
  0
LINE
  5
253
100
AcDbEntity
  8
RACCORDO
100
AcDbLine
 62
250
  6
CONTINUOUS
 10
143.2131201427
 20
24.0382996287
 30
0.0
 11
86.0565043583
 21
24.0367229129
 31
0.0
  0
LINE
  5
254
100
AcDbEntity
  8
RACCORDO
100
AcDbLine
 62
250
  6
CONTINUOUS
 10
86.0565043583
 20
24.0367229129
 30
0.0
 11
28.8998885734
 21
24.0382996287
 31
0.0
  0
LINE
  5
255
100
AcDbEntity
  8
RACCORDO
100
AcDbLine
 62
250
  6
CONTINUOUS
 10
25.0819710689
 20
27.7443976741
 30
0.0
 11
24.6565043583
 21
27.7443976741
 31
0.0
  0
LINE
  5
256
100
AcDbEntity
  8
RACCORDO
100
AcDbLine
 62
250
  6
CONTINUOUS
 10
147.0310376477
 20
27.7443976741
 30
0.0
 11
147.4565043583
 21
27.7443976741
 31
0.0
  0
LINE
  5
257
100
AcDbEntity
  8
0
100
AcDbLine
 62
7
  6
CONTINUOUS
 10
90.841458119
 20
38.1230178934
 30
0.0
 11
90.3395540207
 21
38.1230178934
 31
0.0
  0
LINE
  5
258
100
AcDbEntity
  8
0
100
AcDbLine
 62
7
  6
CONTINUOUS
 10
89.5405002019
 20
38.1230178934
 30
0.0
 11
89.0208068604
 21
38.1230178934
 31
0.0
  0
LINE
  5
259
100
AcDbEntity
  8
0
100
AcDbLine
 62
7
  6
CONTINUOUS
 10
88.8675833583
 20
38.1230176741
 30
0.0
 11
88.3176353583
 21
38.1230176741
 31
0.0
  0
LINE
  5
25A
100
AcDbEntity
  8
0
100
AcDbLine
 62
7
  6
CONTINUOUS
 10
87.3278853583
 20
38.1230176741
 30
0.0
 11
86.8117543583
 21
38.1230176741
 31
0.0
  0
LINE
  5
25B
100
AcDbEntity
  8
0
100
AcDbLine
 62
7
  6
CONTINUOUS
 10
86.7298183583
 20
38.1230176741
 30
0.0
 11
86.2193663583
 21
38.1230176741
 31
0.0
  0
LINE
  5
25C
100
AcDbEntity
  8
0
100
AcDbLine
 62
7
  6
CONTINUOUS
 10
85.4917513583
 20
38.1230176741
 30
0.0
 11
85.4185693583
 21
38.1230176741
 31
0.0
  0
LINE
  5
25D
100
AcDbEntity
  8
0
100
AcDbLine
 62
7
  6
CONTINUOUS
 10
84.6938403583
 20
38.1230176741
 30
0.0
 11
84.1946543583
 21
38.1230176741
 31
0.0
  0
LINE
  5
25E
100
AcDbEntity
  8
0
100
AcDbLine
 62
7
  6
CONTINUOUS
 10
83.9137573583
 20
38.1230176741
 30
0.0
 11
83.3919643583
 21
38.1230176741
 31
0.0
  0
LINE
  5
25F
100
AcDbEntity
  8
0
100
AcDbLine
 62
7
  6
CONTINUOUS
 10
82.3948103583
 20
38.1230176741
 30
0.0
 11
81.9349803583
 21
38.1230176741
 31
0.0
  0
LINE
  5
260
100
AcDbEntity
  8
0
100
AcDbLine
 62
7
  6
CONTINUOUS
 10
88.1824633583
 20
38.6220536741
 30
0.0
 11
87.4718683583
 21
38.6220536741
 31
0.0
  0
LINE
  5
261
100
AcDbEntity
  8
0
100
AcDbLine
 62
7
  6
CONTINUOUS
 10
87.5786033583
 20
39.0082056741
 30
0.0
 11
88.0781833583
 21
39.0082056741
 31
0.0
  0
LINE
  5
262
100
AcDbEntity
  8
0
100
AcDbLine
 62
7
  6
CONTINUOUS
 10
89.8202730746
 20
39.1012763127
 30
0.0
 11
89.5405002019
 21
39.1012763127
 31
0.0
  0
LINE
  5
263
100
AcDbEntity
  8
0
100
AcDbLine
 62
7
  6
CONTINUOUS
 10
89.5231983352
 20
39.5106725968
 30
0.0
 11
89.8213977897
 21
39.5106725968
 31
0.0
  0
LINE
  5
264
100
AcDbEntity
  8
RACCORDO
100
AcDbLine
 62
7
  6
CONTINUOUS
 10
63.5617408778
 20
88.3480373071
 30
0.0
 11
63.5617408778
 21
44.3583580412
 31
0.0
  0
LINE
  5
265
100
AcDbEntity
  8
0
100
AcDbLine
 62
7
  6
CONTINUOUS
 10
81.1425153583
 20
40.6227536741
 30
0.0
 11
81.7093433583
 21
40.6227536741
 31
0.0
  0
LINE
  5
266
100
AcDbEntity
  8
0
100
AcDbLine
 62
7
  6
CONTINUOUS
 10
82.6768893583
 20
40.6227536741
 30
0.0
 11
83.1983253583
 21
40.6227536741
 31
0.0
  0
LINE
  5
267
100
AcDbEntity
  8
0
100
AcDbLine
 62
7
  6
CONTINUOUS
 10
84.4203663583
 20
40.6227536741
 30
0.0
 11
84.9417273583
 21
40.6227536741
 31
0.0
  0
LINE
  5
268
100
AcDbEntity
  8
0
100
AcDbLine
 62
7
  6
CONTINUOUS
 10
85.9798023583
 20
40.6227536741
 30
0.0
 11
86.4960653583
 21
40.6227536741
 31
0.0
  0
LINE
  5
269
100
AcDbEntity
  8
0
100
AcDbLine
 62
7
  6
CONTINUOUS
 10
87.5958303583
 20
40.6227536741
 30
0.0
 11
88.1006023583
 21
40.6227536741
 31
0.0
  0
LINE
  5
26A
100
AcDbEntity
  8
0
100
AcDbLine
 62
7
  6
CONTINUOUS
 10
83.3919643583
 20
40.6229036741
 30
0.0
 11
83.9137573583
 21
40.6229036741
 31
0.0
  0
LINE
  5
26B
100
AcDbEntity
  8
RACCORDO
100
AcDbLine
 62
250
  6
CONTINUOUS
 10
25.3500948228
 20
43.8531976741
 30
0.0
 11
63.3398658225
 21
43.8531976741
 31
0.0
  0
LINE
  5
26C
100
AcDbEntity
  8
RACCORDO
100
AcDbLine
 62
250
  6
CONTINUOUS
 10
108.7731428941
 20
43.8531976741
 30
0.0
 11
146.7629138938
 21
43.8531976741
 31
0.0
  0
LINE
  5
26D
100
AcDbEntity
  8
RACCORDO
100
AcDbLine
 62
7
  6
CONTINUOUS
 10
64.0616647254
 20
43.8584341936
 30
0.0
 11
108.0513439912
 21
43.8584341936
 31
0.0
  0
LINE
  5
26E
100
AcDbEntity
  8
RACCORDO
100
AcDbLine
 62
250
  6
CONTINUOUS
 10
25.0794655693
 20
44.0331976741
 30
0.0
 11
24.6565043583
 21
44.0331976741
 31
0.0
  0
LINE
  5
26F
100
AcDbEntity
  8
RACCORDO
100
AcDbLine
 62
250
  6
CONTINUOUS
 10
147.0335431473
 20
44.0331976741
 30
0.0
 11
147.4565043583
 21
44.0331976741
 31
0.0
  0
LINE
  5
270
100
AcDbEntity
  8
RACCORDO
100
AcDbLine
 62
250
  6
CONTINUOUS
 10
74.9065043583
 20
43.4907909255
 30
0.0
 11
74.9065043583
 21
24.0367706879
 31
0.0
  0
LINE
  5
271
100
AcDbEntity
  8
RACCORDO
100
AcDbLine
 62
250
  6
CONTINUOUS
 10
74.9065043583
 20
89.2156044228
 30
0.0
 11
74.9065043583
 21
108.6696246604
 31
0.0
  0
LINE
  5
272
100
AcDbEntity
  8
RACCORDO
100
AcDbLine
 62
250
  6
CONTINUOUS
 10
74.9524283555
 20
23.7803411337
 30
0.0
 11
74.9524283555
 21
23.3531976741
 31
0.0
  0
LINE
  5
273
100
AcDbEntity
  8
RACCORDO
100
AcDbLine
 62
250
  6
CONTINUOUS
 10
74.9524283555
 20
108.9260542145
 30
0.0
 11
74.9524283555
 21
109.3531976741
 31
0.0
  0
LWPOLYLINE
  5
274
100
AcDbEntity
  8
0
100
AcDbPolyline
 62
7
  6
CONTINUOUS
 90
3
 70
0
 43
0.3500000006
 10
87.9493606567
 20
118.3889100952
 10
87.8779294739
 20
118.1746256104
 10
87.7350761719
 20
117.8889099426
  0
LINE
  5
275
100
AcDbEntity
  8
0
100
AcDbLine
 62
7
  6
CONTINUOUS
 10
81.9349803583
 20
38.1230176741
 30
0.0
 11
81.1425153583
 21
40.6227536741
 31
0.0
  0
LINE
  5
276
100
AcDbEntity
  8
0
100
AcDbLine
 62
7
  6
CONTINUOUS
 10
85.4185693583
 20
38.1230176741
 30
0.0
 11
84.8064433583
 21
39.7552976741
 31
0.0
  0
LINE
  5
277
100
AcDbEntity
  8
0
100
AcDbLine
 62
7
  6
CONTINUOUS
 10
84.9417273583
 20
40.6227536741
 30
0.0
 11
85.4580093583
 21
39.2348926741
 31
0.0
  0
LINE
  5
278
100
AcDbEntity
  8
0
100
AcDbLine
 62
7
  6
CONTINUOUS
 10
81.7093433583
 20
40.6227536741
 30
0.0
 11
82.1858383583
 21
38.9021076741
 31
0.0
  0
LINE
  5
279
100
AcDbEntity
  8
0
100
AcDbLine
 62
7
  6
CONTINUOUS
 10
86.4960653583
 20
40.6227536741
 30
0.0
 11
86.7298183583
 21
38.1230176741
 31
0.0
  0
LINE
  5
27A
100
AcDbEntity
  8
0
100
AcDbLine
 62
7
  6
CONTINUOUS
 10
86.2193663583
 20
38.1230176741
 30
0.0
 11
86.1121623583
 21
39.7484936741
 31
0.0
  0
LINE
  5
27B
100
AcDbEntity
  8
0
100
AcDbLine
 62
7
  6
CONTINUOUS
 10
83.3919643583
 20
38.1230176741
 30
0.0
 11
83.3919643583
 21
40.6229036741
 31
0.0
  0
LINE
  5
27C
100
AcDbEntity
  8
0
100
AcDbLine
 62
7
  6
CONTINUOUS
 10
83.9137573583
 20
40.6229036741
 30
0.0
 11
83.9137573583
 21
38.1230176741
 31
0.0
  0
LINE
  5
27D
100
AcDbEntity
  8
RACCORDO
100
AcDbLine
 62
250
  6
CONTINUOUS
 10
108.0976708687
 20
88.8942880321
 30
0.0
 11
108.0513439912
 21
88.8479611546
 31
0.0
  0
LINE
  5
27E
100
AcDbEntity
  8
RACCORDO
100
AcDbLine
 62
250
  6
CONTINUOUS
 10
63.5150322432
 20
44.3116494066
 30
0.0
 11
63.5617408778
 21
44.3583580412
 31
0.0
  0
LINE
  5
27F
100
AcDbEntity
  8
RACCORDO
100
AcDbLine
 62
250
  6
CONTINUOUS
 10
108.5979764734
 20
88.3947459417
 30
0.0
 11
108.5512678388
 21
88.3480373071
 31
0.0
  0
LINE
  5
280
100
AcDbEntity
  8
RACCORDO
100
AcDbLine
 62
250
  6
CONTINUOUS
 10
64.0153378479
 20
43.8121073161
 30
0.0
 11
64.0616647254
 21
43.8584341936
 31
0.0
  0
LWPOLYLINE
  5
281
100
AcDbEntity
  8
0
100
AcDbPolyline
 62
7
  6
CONTINUOUS
 90
4
 70
0
 43
0.3500000006
 10
12.4779325218
 20
63.996053833
 10
11.6207900505
 20
63.996053833
 10
11.1922188148
 20
64.4246228027
 10
11.1922188148
 20
65.067485321
  0
LINE
  5
282
100
AcDbEntity
  8
0
100
AcDbLine
 62
7
  6
CONTINUOUS
 10
88.1006023583
 20
40.6227536741
 30
0.0
 11
88.8675833583
 21
38.1230176741
 31
0.0
  0
LINE
  5
283
100
AcDbEntity
  8
0
100
AcDbLine
 62
7
  6
CONTINUOUS
 10
88.3176353583
 20
38.1230176741
 30
0.0
 11
88.1824633583
 21
38.6220536741
 31
0.0
  0
LINE
  5
284
100
AcDbEntity
  8
0
100
AcDbLine
 62
7
  6
CONTINUOUS
 10
88.0781833583
 20
39.0082056741
 30
0.0
 11
87.8384123583
 21
39.9358896741
 31
0.0
  0
LINE
  5
285
100
AcDbEntity
  8
RACCORDO
100
AcDbLine
 62
250
  6
CONTINUOUS
 10
86.0565043583
 20
43.8066588858
 30
0.0
 11
86.0565043583
 21
43.4893930117
 31
0.0
  0
LINE
  5
286
100
AcDbEntity
  8
0
100
AcDbLine
 62
250
  6
CONTINUOUS
 10
86.0565043583
 20
43.4893930117
 30
0.0
 11
86.0565043583
 21
24.0367229129
 31
0.0
  0
LINE
  5
287
100
AcDbEntity
  8
RACCORDO
100
AcDbLine
 62
250
  6
CONTINUOUS
 10
86.0565043583
 20
23.3531976741
 30
0.0
 11
86.0565043583
 21
24.0367229129
 31
0.0
  0
LINE
  5
288
100
AcDbEntity
  8
RACCORDO
100
AcDbLine
 62
250
  6
CONTINUOUS
 10
86.0565043583
 20
88.8997364624
 30
0.0
 11
86.0565043583
 21
109.3531976741
 31
0.0
  0
LWPOLYLINE
  5
289
100
AcDbEntity
  8
0
100
AcDbPolyline
 62
7
  6
CONTINUOUS
 90
4
 70
0
 43
0.3500000006
 10
88.9493609619
 20
118.5317724609
 10
88.9493609619
 20
119.3889104004
 10
89.3779299316
 20
119.8174793701
 10
90.02079245
 20
119.8174793701
  0
LINE
  5
28A
100
AcDbEntity
  8
0
100
AcDbLine
 62
7
  6
CONTINUOUS
 10
89.0208068604
 20
38.1230178934
 30
0.0
 11
89.0208068604
 21
40.5935482625
 31
0.0
  0
LINE
  5
28B
100
AcDbEntity
  8
0
100
AcDbLine
 62
7
  6
CONTINUOUS
 10
89.5231983352
 20
40.1968987492
 30
0.0
 11
89.5231983352
 21
39.5106725968
 31
0.0
  0
LINE
  5
28C
100
AcDbEntity
  8
0
100
AcDbLine
 62
7
  6
CONTINUOUS
 10
89.5405002019
 20
39.1012763127
 30
0.0
 11
89.5405002019
 21
38.1230178934
 31
0.0
  0
LINE
  5
28D
100
AcDbEntity
  8
0
100
AcDbLine
 62
7
  6
CONTINUOUS
 10
90.3623107555
 20
39.3046435419
 30
0.0
 11
90.3623107555
 21
39.2898722841
 31
0.0
  0
LINE
  5
28E
100
AcDbEntity
  8
0
100
AcDbLine
 62
7
  6
CONTINUOUS
 10
84.8064433583
 20
39.7552976741
 30
0.0
 11
84.6938403583
 21
38.1230176741
 31
0.0
  0
LINE
  5
28F
100
AcDbEntity
  8
0
100
AcDbLine
 62
7
  6
CONTINUOUS
 10
84.1946543583
 20
38.1230176741
 30
0.0
 11
84.4203663583
 21
40.6227536741
 31
0.0
  0
LINE
  5
290
100
AcDbEntity
  8
0
100
AcDbLine
 62
7
  6
CONTINUOUS
 10
82.1858383583
 20
38.9021076741
 30
0.0
 11
82.6768893583
 21
40.6227536741
 31
0.0
  0
LINE
  5
291
100
AcDbEntity
  8
RACCORDO
100
AcDbLine
 62
250
  6
CONTINUOUS
 10
24.6565043583
 20
66.3531976741
 30
0.0
 11
63.5058148016
 21
66.3531976556
 31
0.0
  0
LINE
  5
292
100
AcDbEntity
  8
RACCORDO
100
AcDbLine
 62
250
  6
CONTINUOUS
 10
108.607193915
 20
66.3531976926
 30
0.0
 11
147.4565043583
 21
66.3531976741
 31
0.0
  0
LINE
  5
293
100
AcDbEntity
  8
RACCORDO
100
AcDbLine
 62
250
  6
CONTINUOUS
 10
63.5150322432
 20
88.3947459417
 30
0.0
 11
63.5617408778
 21
88.3480373071
 31
0.0
  0
LINE
  5
294
100
AcDbEntity
  8
RACCORDO
100
AcDbLine
 62
250
  6
CONTINUOUS
 10
108.0513439912
 20
43.8584341936
 30
0.0
 11
108.0976708687
 21
43.8121073161
 31
0.0
  0
LINE
  5
295
100
AcDbEntity
  8
RACCORDO
100
AcDbLine
 62
250
  6
CONTINUOUS
 10
64.0153378479
 20
88.8942880321
 30
0.0
 11
64.0616647254
 21
88.8479611546
 31
0.0
  0
LINE
  5
296
100
AcDbEntity
  8
RACCORDO
100
AcDbLine
 62
250
  6
CONTINUOUS
 10
108.5512678388
 20
44.3583580412
 30
0.0
 11
108.5979764734
 21
44.3116494066
 31
0.0
  0
LINE
  5
297
100
AcDbEntity
  8
0
100
AcDbLine
 62
7
  6
CONTINUOUS
 10
87.8384123583
 20
39.9358896741
 30
0.0
 11
87.5786033583
 21
39.0082056741
 31
0.0
  0
LINE
  5
298
100
AcDbEntity
  8
0
100
AcDbLine
 62
7
  6
CONTINUOUS
 10
87.4718683583
 20
38.6220536741
 30
0.0
 11
87.3278853583
 21
38.1230176741
 31
0.0
  0
LINE
  5
299
100
AcDbEntity
  8
0
100
AcDbLine
 62
7
  6
CONTINUOUS
 10
86.8117543583
 20
38.1230176741
 30
0.0
 11
87.5958303583
 21
40.6227536741
 31
0.0
  0
LINE
  5
29A
100
AcDbEntity
  8
0
100
AcDbLine
 62
7
  6
CONTINUOUS
 10
83.1983253583
 20
40.6227536741
 30
0.0
 11
82.3948103583
 21
38.1230176741
 31
0.0
  0
LINE
  5
29B
100
AcDbEntity
  8
0
100
AcDbLine
 62
7
  6
CONTINUOUS
 10
85.4580093583
 20
39.2348926741
 30
0.0
 11
85.9798023583
 21
40.6227536741
 31
0.0
  0
LINE
  5
29C
100
AcDbEntity
  8
0
100
AcDbLine
 62
7
  6
CONTINUOUS
 10
86.1121623583
 20
39.7484936741
 30
0.0
 11
85.4917513583
 21
38.1230176741
 31
0.0
  0
LINE
  5
29D
100
AcDbEntity
  8
RACCORDO
100
AcDbLine
 62
250
  6
CONTINUOUS
 10
97.1605803611
 20
23.7803411337
 30
0.0
 11
97.1605803611
 21
23.3531976741
 31
0.0
  0
LINE
  5
29E
100
AcDbEntity
  8
RACCORDO
100
AcDbLine
 62
250
  6
CONTINUOUS
 10
97.1605803611
 20
108.9260542145
 30
0.0
 11
97.1605803611
 21
109.3531976741
 31
0.0
  0
LINE
  5
29F
100
AcDbEntity
  8
RACCORDO
100
AcDbLine
 62
250
  6
CONTINUOUS
 10
97.2065043583
 20
43.4907909255
 30
0.0
 11
97.2065043583
 21
24.0367706879
 31
0.0
  0
LINE
  5
2A0
100
AcDbEntity
  8
RACCORDO
100
AcDbLine
 62
250
  6
CONTINUOUS
 10
97.2065043583
 20
89.2156044228
 30
0.0
 11
97.2065043583
 21
108.6696246604
 31
0.0
  0
LINE
  5
2A1
100
AcDbEntity
  8
RACCORDO
100
AcDbLine
 62
7
  6
CONTINUOUS
 10
108.5512678388
 20
44.3583580412
 30
0.0
 11
108.5512678388
 21
88.3480373071
 31
0.0
  0
LINE
  5
2A2
100
AcDbEntity
  8
RACCORDO
100
AcDbLine
 62
250
  6
CONTINUOUS
 10
25.0794655693
 20
88.6731976742
 30
0.0
 11
24.6565043583
 21
88.6731976742
 31
0.0
  0
LINE
  5
2A3
100
AcDbEntity
  8
RACCORDO
100
AcDbLine
 62
250
  6
CONTINUOUS
 10
147.0335431473
 20
88.6731976742
 30
0.0
 11
147.4565043583
 21
88.6731976742
 31
0.0
  0
LINE
  5
2A4
100
AcDbEntity
  8
RACCORDO
100
AcDbLine
 62
7
  6
CONTINUOUS
 10
108.0513439912
 20
88.8479611546
 30
0.0
 11
64.0616647254
 21
88.8479611546
 31
0.0
  0
LINE
  5
2A5
100
AcDbEntity
  8
RACCORDO
100
AcDbLine
 62
250
  6
CONTINUOUS
 10
146.7629138938
 20
88.8531976741
 30
0.0
 11
108.7731428941
 21
88.8531976741
 31
0.0
  0
LINE
  5
2A6
100
AcDbEntity
  8
RACCORDO
100
AcDbLine
 62
250
  6
CONTINUOUS
 10
63.3398658225
 20
88.8531976741
 30
0.0
 11
25.3500948228
 21
88.8531976741
 31
0.0
  0
LWPOLYLINE
  5
2A7
100
AcDbEntity
  8
0
100
AcDbPolyline
 62
7
  6
CONTINUOUS
 90
10
 70
0
 43
0.3500000006
 10
87.8779294739
 20
118.6031945801
 10
87.9493606567
 20
118.4603412781
 10
87.9493606567
 20
118.3889100952
 10
87.8065073547
 20
118.2460567932
 10
87.7350761719
 20
118.2460567932
 10
87.663644989
 20
118.3174789124
 10
87.663644989
 20
118.3889100952
 10
87.7350761719
 20
118.5317724609
 10
87.8065073547
 20
118.6031945801
 10
87.8779294739
 20
118.6031945801
  0
LINE
  5
2A8
100
AcDbEntity
  8
RACCORDO
100
AcDbLine
 62
250
  6
CONTINUOUS
 10
25.0819710689
 20
104.9619976741
 30
0.0
 11
24.6565043583
 21
104.9619976741
 31
0.0
  0
LINE
  5
2A9
100
AcDbEntity
  8
RACCORDO
100
AcDbLine
 62
250
  6
CONTINUOUS
 10
147.0310376477
 20
104.9619976741
 30
0.0
 11
147.4565043583
 21
104.9619976741
 31
0.0
  0
LINE
  5
2AA
100
AcDbEntity
  8
RACCORDO
100
AcDbLine
 62
250
  6
CONTINUOUS
 10
28.8998885739
 20
108.6680957195
 30
0.0
 11
143.2131201432
 21
108.6680957195
 31
0.0
  0
LINE
  5
2AB
100
AcDbEntity
  8
RACCORDO
100
AcDbLine
 62
250
  6
CONTINUOUS
 10
28.920858943
 20
108.9246385239
 30
0.0
 11
143.1921497736
 21
108.9246385239
 31
0.0
  0
LINE
  5
2AC
100
AcDbEntity
  8
RACCORDO
100
AcDbLine
 62
250
  6
CONTINUOUS
 10
99.4004083844
 20
108.9261238195
 30
0.0
 11
103.64920121
 21
108.9259918603
 31
0.0
  0
LINE
  5
2AD
100
AcDbEntity
  8
SUPERFICI
100
AcDbLine
 62
7
  6
CONTINUOUS
 10
143.4565043583
 20
109.3531976741
 30
0.0
 11
97.1605803611
 21
109.3531976741
 31
0.0
  0
LINE
  5
2AE
100
AcDbEntity
  8
SUPERFICI
100
AcDbLine
 62
7
  6
CONTINUOUS
 10
28.6565043583
 20
109.3531976741
 30
0.0
 11
74.9524283555
 21
109.3531976741
 31
0.0
  0
LINE
  5
2AF
100
AcDbEntity
  8
0
100
AcDbLine
 62
7
  6
CONTINUOUS
 10
74.9524283555
 20
109.3531976741
 30
0.0
 11
97.1605803611
 21
109.3531976741
 31
0.0
  0
LWPOLYLINE
  5
2B0
100
AcDbEntity
  8
0
100
AcDbPolyline
 62
7
  6
CONTINUOUS
 90
13
 70
0
 43
0.3500000006
 10
89.3779299316
 20
119.8174793701
 10
89.0922142639
 20
120.0317729187
 10
89.0922142639
 20
120.6746263733
 10
89.3779299316
 20
121.103195343
 10
90.02079245
 20
121.103195343
 10
90.3065081177
 20
120.6746263733
 10
90.3065081177
 20
120.0317729187
 10
90.02079245
 20
119.8174793701
 10
90.4493614197
 20
119.3889104004
 10
90.4493614197
 20
118.5317724609
 10
90.02079245
 20
118.1031944275
 10
89.3779299316
 20
118.1031944275
 10
88.9493609619
 20
118.5317724609
  0
LWPOLYLINE
  5
2B1
100
AcDbEntity
  8
0
100
AcDbPolyline
 62
7
  6
CONTINUOUS
 90
7
 70
0
 43
0.3500000006
 10
86.3779290161
 20
118.1031944275
 10
84.8779285583
 20
118.1031944275
 10
86.3779290161
 20
120.2460574036
 10
86.3779290161
 20
120.6746263733
 10
85.9493600464
 20
121.103195343
 10
85.3065065918
 20
121.103195343
 10
84.8779285583
 20
120.4603418884
  0
LWPOLYLINE
  5
2B2
100
AcDbEntity
  8
0
100
AcDbPolyline
 62
7
  6
CONTINUOUS
 90
7
 70
0
 43
0.3500000006
 10
84.0207906189
 20
118.1031944275
 10
82.5207901611
 20
118.1031944275
 10
84.0207906189
 20
120.2460574036
 10
84.0207906189
 20
120.6746263733
 10
83.5922216492
 20
121.103195343
 10
82.9493591309
 20
121.103195343
 10
82.5207901611
 20
120.4603418884
  0
LINE
  5
2B3
100
AcDbEntity
  8
RACCORDO
100
AcDbLine
 62
250
  6
CONTINUOUS
 10
143.4565043583
 20
23.3531976741
 30
0.0
 11
143.4520009707
 21
23.7816128914
 31
0.0
  0
LINE
  5
2B4
100
AcDbEntity
  8
RACCORDO
100
AcDbLine
 62
250
  6
CONTINUOUS
 10
143.1921497736
 20
23.7817568244
 30
0.0
 11
143.1921497736
 21
23.3531976741
 31
0.0
  0
LINE
  5
2B5
100
AcDbEntity
  8
RACCORDO
100
AcDbLine
 62
250
  6
CONTINUOUS
 10
143.1921497736
 20
108.9246385239
 30
0.0
 11
143.1921497736
 21
109.3531976741
 31
0.0
  0
LINE
  5
2B6
100
AcDbEntity
  8
RACCORDO
100
AcDbLine
 62
250
  6
CONTINUOUS
 10
146.7629303435
 20
88.6874640391
 30
0.0
 11
146.7604422991
 21
27.3347370711
 31
0.0
  0
LINE
  5
2B7
100
AcDbEntity
  8
RACCORDO
100
AcDbLine
 62
250
  6
CONTINUOUS
 10
146.7604422991
 20
105.3716582772
 30
0.0
 11
146.7629303435
 21
88.6874640391
 31
0.0
  0
LINE
  5
2B8
100
AcDbEntity
  8
RACCORDO
100
AcDbLine
 62
250
  6
CONTINUOUS
 10
143.4565043583
 20
109.3531976741
 30
0.0
 11
143.4520009707
 21
108.9247824568
 31
0.0
  0
LINE
  5
2B9
100
AcDbEntity
  8
SUPERFICI
100
AcDbLine
 62
7
  6
CONTINUOUS
 10
147.4565043626
 20
27.3526976766
 30
0.0
 11
147.4565043626
 21
105.3536976716
 31
0.0
  0
LINE
  5
2BA
100
AcDbEntity
  8
0
100
AcDbLine
 62
7
  6
CONTINUOUS
 10
189.0870116435
 20
23.3531976741
 30
0.0
 11
191.3095092079
 21
23.3531976741
 31
0.0
  0
LWPOLYLINE
  5
2BB
100
AcDbEntity
  8
0
100
AcDbPolyline
 62
7
  6
CONTINUOUS
 90
10
 70
0
 43
0.3500000006
 10
189.0967131958
 20
118.1031944275
 10
189.9538692627
 20
118.9603414307
 10
190.1681537476
 20
119.8174793701
 10
190.1681537476
 20
120.6746263733
 10
189.7395847778
 20
121.103195343
 10
189.0967131958
 20
121.103195343
 10
188.6681442261
 20
120.6746263733
 10
188.6681442261
 20
119.8174793701
 10
189.0967131958
 20
119.3889104004
 10
190.0252913818
 20
119.3889104004
  0
LINE
  5
2BC
100
AcDbEntity
  8
SUPERFICI
100
AcDbLine
 62
7
  6
CONTINUOUS
 10
187.102892184
 20
108.0473568289
 30
0.0
 11
189.0384243922
 21
109.2761067916
 31
0.0
  0
LINE
  5
2BD
100
AcDbEntity
  8
RACCORDO
100
AcDbLine
 62
7
  6
CONTINUOUS
 10
191.3095092079
 20
23.3531976741
 30
0.0
 11
194.3484806841
 21
23.780297262
 31
0.0
  0
LINE
  5
2BE
100
AcDbEntity
  8
RACCORDO
100
AcDbLine
 62
250
  6
CONTINUOUS
 10
194.2691223978
 20
23.7803411337
 30
0.0
 11
191.2298387582
 21
23.3531976741
 31
0.0
  0
LINE
  5
2BF
100
AcDbEntity
  8
RACCORDO
100
AcDbLine
 62
250
  6
CONTINUOUS
 10
192.1572166743
 20
23.7817568244
 30
0.0
 11
189.1078598722
 21
23.3531976741
 31
0.0
  0
LINE
  5
2C0
100
AcDbEntity
  8
RACCORDO
100
AcDbLine
 62
250
  6
CONTINUOUS
 10
189.0870116435
 20
23.3531976741
 30
0.0
 11
192.1356811084
 21
23.7816128914
 31
0.0
  0
LINE
  5
2C1
100
AcDbEntity
  8
RACCORDO
100
AcDbLine
 62
7
  6
CONTINUOUS
 10
194.3484806841
 20
23.780297262
 30
0.0
 11
194.2691223978
 21
23.7803411337
 31
0.0
  0
LINE
  5
2C2
100
AcDbEntity
  8
RACCORDO
100
AcDbLine
 62
250
  6
CONTINUOUS
 10
194.268517166
 20
23.780341468
 30
0.0
 11
192.1572166743
 21
23.7817568244
 31
0.0
  0
LINE
  5
2C3
100
AcDbEntity
  8
RACCORDO
100
AcDbLine
 62
250
  6
CONTINUOUS
 10
194.6039613054
 20
24.0367229129
 30
0.0
 11
192.4117130687
 21
24.0382996287
 31
0.0
  0
LINE
  5
2C4
100
AcDbEntity
  8
RACCORDO
100
AcDbLine
 62
250
  6
CONTINUOUS
 10
187.1085377107
 20
27.680613534
 30
0.0
 11
189.3012183943
 21
27.7473616656
 31
0.0
  0
LINE
  5
2C5
100
AcDbEntity
  8
RACCORDO
100
AcDbLine
 62
250
  6
CONTINUOUS
 10
192.3282062751
 20
27.7443976741
 30
0.0
 11
189.3008533247
 21
27.7443976741
 31
0.0
  0
LINE
  5
2C6
100
AcDbEntity
  8
RACCORDO
100
AcDbLine
 62
250
  6
CONTINUOUS
 10
187.107339884
 20
27.3531457803
 30
0.0
 11
189.2532796377
 21
27.3516456574
 31
0.0
  0
LINE
  5
2C7
100
AcDbEntity
  8
RACCORDO
100
AcDbLine
 62
250
  6
CONTINUOUS
 10
192.3282062751
 20
27.7443976741
 30
0.0
 11
192.5831161701
 21
27.7134365477
 31
0.0
  0
LINE
  5
2C8
100
AcDbEntity
  8
RACCORDO
100
AcDbLine
 62
250
  6
CONTINUOUS
 10
192.281886079
 20
27.3665876433
 30
0.0
 11
192.5367225193
 21
27.3347371224
 31
0.0
  0
LINE
  5
2C9
100
AcDbEntity
  8
RACCORDO
100
AcDbLine
 62
250
  6
CONTINUOUS
 10
192.5273444497
 20
27.3359647927
 30
0.0
 11
192.5367225193
 21
27.3347371224
 31
0.0
  0
LINE
  5
2CA
100
AcDbEntity
  8
SUPERFICI
100
AcDbLine
 62
7
  6
CONTINUOUS
 10
187.1028922035
 20
24.659038507
 30
0.0
 11
188.6464871925
 21
23.6795983144
 31
0.0
  0
LINE
  5
2CB
100
AcDbEntity
  8
SUPERFICI
100
AcDbLine
 62
7
  6
CONTINUOUS
 10
188.6464871925
 20
23.6795983144
 30
0.0
 11
189.0384243922
 21
23.4302885566
 31
0.0
  0
LINE
  5
2CC
100
AcDbEntity
  8
0
100
AcDbLine
 62
7
  6
CONTINUOUS
 10
196.1947433055
 20
38.1230176741
 30
0.0
 11
196.114505963
 21
38.1230176741
 31
0.0
  0
LINE
  5
2CD
100
AcDbEntity
  8
0
100
AcDbLine
 62
7
  6
CONTINUOUS
 10
196.3841965283
 20
40.6227536741
 30
0.0
 11
196.2958215411
 21
40.6227536741
 31
0.0
  0
LINE
  5
2CE
100
AcDbEntity
  8
SUPERFICI
100
AcDbLine
 62
7
  6
CONTINUOUS
 10
196.385034117
 20
40.6520829591
 30
0.0
 11
196.3112350557
 21
40.6520829591
 31
0.0
  0
LINE
  5
2CF
100
AcDbEntity
  8
RACCORDO
100
AcDbLine
 62
250
  6
CONTINUOUS
 10
187.1337402803
 20
43.8580674021
 30
0.0
 11
190.7612839338
 21
44.0335896487
 31
0.0
  0
LINE
  5
2D0
100
AcDbEntity
  8
RACCORDO
100
AcDbLine
 62
250
  6
CONTINUOUS
 10
196.2033687631
 20
44.2952904469
 30
0.0
 11
196.2032400503
 21
44.2952891356
 31
0.0
  0
LINE
  5
2D1
100
AcDbEntity
  8
RACCORDO
100
AcDbLine
 62
250
  6
CONTINUOUS
 10
187.0331149592
 20
43.8579924889
 30
0.0
 11
187.1337402803
 21
43.8580674021
 31
0.0
  0
LINE
  5
2D2
100
AcDbEntity
  8
RACCORDO
100
AcDbLine
 62
250
  6
CONTINUOUS
 10
194.0181224693
 20
43.8531976741
 30
0.0
 11
196.1826142873
 21
43.8531976741
 31
0.0
  0
LINE
  5
2D3
100
AcDbEntity
  8
RACCORDO
100
AcDbLine
 62
250
  6
CONTINUOUS
 10
193.7707872549
 20
44.0331976741
 30
0.0
 11
190.7612618607
 21
44.0331976741
 31
0.0
  0
LINE
  5
2D4
100
AcDbEntity
  8
RACCORDO
100
AcDbLine
 62
250
  6
CONTINUOUS
 10
196.1813253031
 20
43.4948548978
 30
0.0
 11
196.4935847328
 21
43.4893930117
 31
0.0
  0
LINE
  5
2D5
100
AcDbEntity
  8
RACCORDO
100
AcDbLine
 62
7
  6
CONTINUOUS
 10
196.199320355
 20
43.8066588858
 30
0.0
 11
196.1811692784
 21
43.8069757141
 31
0.0
  0
LINE
  5
2D6
100
AcDbEntity
  8
RACCORDO
100
AcDbLine
 62
250
  6
CONTINUOUS
 10
193.7707872571
 20
44.033197714
 30
0.0
 11
194.0274051227
 21
44.0189312691
 31
0.0
  0
LINE
  5
2D7
100
AcDbEntity
  8
RACCORDO
100
AcDbLine
 62
250
  6
CONTINUOUS
 10
193.7615151661
 20
43.8676265791
 30
0.0
 11
194.0181224693
 21
43.8531976741
 31
0.0
  0
LWPOLYLINE
  5
2D8
100
AcDbEntity
  8
0
100
AcDbPolyline
 62
7
  6
CONTINUOUS
 90
3
 70
0
 43
0.3500000006
 10
191.7395853882
 20
118.3889100952
 10
191.6681451416
 20
118.1746256104
 10
191.5252827759
 20
117.8889099426
  0
LINE
  5
2D9
100
AcDbEntity
  8
RACCORDO
100
AcDbLine
 62
250
  6
CONTINUOUS
 10
187.1087631601
 20
105.0257828577
 30
0.0
 11
187.1071642894
 21
105.3532486557
 31
0.0
  0
LINE
  5
2DA
100
AcDbEntity
  8
RACCORDO
100
AcDbLine
 62
7
  6
CONTINUOUS
 10
187.0331149592
 20
24.7866767929
 30
0.0
 11
187.0331149592
 21
107.9206117657
 31
0.0
  0
LINE
  5
2DB
100
AcDbEntity
  8
RACCORDO
100
AcDbLine
 62
250
  6
CONTINUOUS
 10
187.107339884
 20
27.3531457803
 30
0.0
 11
187.1085377107
 21
27.680613534
 31
0.0
  0
LWPOLYLINE
  5
2DC
100
AcDbEntity
  8
RACCORDO
100
AcDbPolyline
 62
7
  6
CONTINUOUS
 90
10
 70
0
 10
196.1773077692
 20
43.5532185661
 10
196.1773362521
 20
43.5528854121
 10
196.1773787729
 20
43.5523457805
 10
196.1773622211
 20
43.5526042786
 10
196.1772979063
 20
43.5537687593
 10
196.1772125626
 20
43.555607168
 10
196.1771163103
 20
43.5580863046
 10
196.1770145117
 20
43.5612634936
 10
196.1769164375
 20
43.5650402246
 10
196.1768263643
 20
43.5694197529
  0
LINE
  5
2DD
100
AcDbEntity
  8
RACCORDO
100
AcDbLine
 62
250
  6
CONTINUOUS
 10
194.027405125
 20
88.6874640387
 30
0.0
 11
194.0181224693
 21
88.8531976741
 31
0.0
  0
LWPOLYLINE
  5
2DE
100
AcDbEntity
  8
0
100
AcDbPolyline
 62
7
  6
CONTINUOUS
 90
4
 70
0
 43
0.3500000006
 10
192.7395856934
 20
120.4603418884
 10
192.7395856934
 20
121.103195343
 10
194.2395770874
 20
121.103195343
 10
193.3824391479
 20
118.1031944275
  0
LINE
  5
2DF
100
AcDbEntity
  8
RACCORDO
100
AcDbLine
 62
250
  6
CONTINUOUS
 10
194.0181224693
 20
43.8531976741
 30
0.0
 11
194.027405125
 21
44.0189313091
 31
0.0
  0
LINE
  5
2E0
100
AcDbEntity
  8
RACCORDO
100
AcDbLine
 62
250
  6
CONTINUOUS
 10
187.0331149592
 20
66.3531976741
 30
0.0
 11
196.7317530579
 21
66.3531976741
 31
0.0
  0
LINE
  5
2E1
100
AcDbEntity
  8
RACCORDO
100
AcDbLine
 62
250
  6
CONTINUOUS
 10
196.1830087404
 20
88.8474794358
 30
0.0
 11
196.1826142875
 21
88.8531976692
 31
0.0
  0
LINE
  5
2E2
100
AcDbEntity
  8
RACCORDO
100
AcDbLine
 62
7
  6
CONTINUOUS
 10
196.1969236157
 20
88.5336511374
 30
0.0
 11
196.1892591284
 21
88.6948710512
 31
0.0
  0
LINE
  5
2E3
100
AcDbEntity
  8
RACCORDO
100
AcDbLine
 62
7
  6
CONTINUOUS
 10
196.1892591284
 20
88.6948710512
 30
0.0
 11
196.184985421
 21
88.7959645906
 31
0.0
  0
LINE
  5
2E4
100
AcDbEntity
  8
RACCORDO
100
AcDbLine
 62
7
  6
CONTINUOUS
 10
196.184985421
 20
88.7959645906
 30
0.0
 11
196.1811698869
 21
88.8994196448
 31
0.0
  0
LINE
  5
2E5
100
AcDbEntity
  8
RACCORDO
100
AcDbLine
 62
7
  6
CONTINUOUS
 10
196.1811959603
 20
88.8985900872
 30
0.0
 11
196.1794647536
 21
88.9535890389
 31
0.0
  0
LINE
  5
2E6
100
AcDbEntity
  8
RACCORDO
100
AcDbLine
 62
7
  6
CONTINUOUS
 10
196.1794647536
 20
88.9535890389
 30
0.0
 11
196.1781371131
 21
89.0034637153
 31
0.0
  0
LINE
  5
2E7
100
AcDbEntity
  8
RACCORDO
100
AcDbLine
 62
7
  6
CONTINUOUS
 10
196.1781371131
 20
89.0034637153
 30
0.0
 11
196.1774151013
 21
89.0369468699
 31
0.0
  0
LINE
  5
2E8
100
AcDbEntity
  8
RACCORDO
100
AcDbLine
 62
7
  6
CONTINUOUS
 10
196.1774151013
 20
89.0369468699
 30
0.0
 11
196.176928318
 21
89.0668018186
 31
0.0
  0
LINE
  5
2E9
100
AcDbEntity
  8
RACCORDO
100
AcDbLine
 62
7
  6
CONTINUOUS
 10
196.1768263643
 20
43.5694197529
 30
0.0
 11
196.1766845713
 21
43.5799646955
 31
0.0
  0
LINE
  5
2EA
100
AcDbEntity
  8
RACCORDO
100
AcDbLine
 62
7
  6
CONTINUOUS
 10
196.176928318
 20
89.0668018186
 30
0.0
 11
196.176728644
 21
89.084534724
 31
0.0
  0
LINE
  5
2EB
100
AcDbEntity
  8
RACCORDO
100
AcDbLine
 62
7
  6
CONTINUOUS
 10
196.176728644
 20
89.084534724
 30
0.0
 11
196.176625842
 21
89.1004489267
 31
0.0
  0
LINE
  5
2EC
100
AcDbEntity
  8
RACCORDO
100
AcDbLine
 62
7
  6
CONTINUOUS
 10
196.1766845713
 20
43.5799646955
 30
0.0
 11
196.1766137307
 21
43.5926927727
 31
0.0
  0
LWPOLYLINE
  5
2ED
100
AcDbEntity
  8
RACCORDO
100
AcDbPolyline
 62
7
  6
CONTINUOUS
 90
10
 70
0
 10
196.7318819953
 20
66.3531976621
 10
196.7246578083
 20
69.0560550377
 10
196.7028859284
 20
71.7558082665
 10
196.6676161427
 20
74.3784477016
 10
196.6199005204
 20
76.9239442126
 10
196.5606191087
 20
79.3922586739
 10
196.4894666369
 20
81.783320897
 10
196.405679715
 20
84.0969764463
 10
196.30886812
 20
86.3331222594
 10
196.1969236157
 20
88.5336511374
  0
LINE
  5
2EE
100
AcDbEntity
  8
RACCORDO
100
AcDbLine
 62
7
  6
CONTINUOUS
 10
196.176625842
 20
89.1004489267
 30
0.0
 11
196.1766148408
 21
89.1144882287
 31
0.0
  0
LINE
  5
2EF
100
AcDbEntity
  8
RACCORDO
100
AcDbLine
 62
7
  6
CONTINUOUS
 10
196.1766137307
 20
43.5926927727
 30
0.0
 11
196.1766318869
 21
43.6075133971
 31
0.0
  0
LINE
  5
2F0
100
AcDbEntity
  8
RACCORDO
100
AcDbLine
 62
7
  6
CONTINUOUS
 10
196.1766148408
 20
89.1144882287
 30
0.0
 11
196.176685482
 21
89.1266002387
 31
0.0
  0
LINE
  5
2F1
100
AcDbEntity
  8
RACCORDO
100
AcDbLine
 62
7
  6
CONTINUOUS
 10
196.1766318869
 20
43.6075133971
 30
0.0
 11
196.1767511998
 21
43.6243825761
 31
0.0
  0
LINE
  5
2F2
100
AcDbEntity
  8
RACCORDO
100
AcDbLine
 62
7
  6
CONTINUOUS
 10
196.1767511998
 20
43.6243825761
 30
0.0
 11
196.1771329695
 21
43.6534246938
 31
0.0
  0
LWPOLYLINE
  5
2F3
100
AcDbEntity
  8
RACCORDO
100
AcDbPolyline
 62
7
  6
CONTINUOUS
 90
7
 70
0
 10
196.176685482
 20
89.1266002387
 10
196.1768220158
 20
89.136721975
 10
196.1769080443
 20
89.1409708219
 10
196.1770023185
 20
89.1446874033
 10
196.177098865
 20
89.1477948342
 10
196.1771935125
 20
89.1503240168
 10
196.1772386066
 20
89.1513767074
  0
LINE
  5
2F4
100
AcDbEntity
  8
RACCORDO
100
AcDbLine
 62
7
  6
CONTINUOUS
 10
196.1771329695
 20
43.6534246938
 30
0.0
 11
196.177765609
 21
43.6866319601
 31
0.0
  0
LINE
  5
2F5
100
AcDbEntity
  8
RACCORDO
100
AcDbLine
 62
7
  6
CONTINUOUS
 10
196.177765609
 20
43.6866319601
 30
0.0
 11
196.1786594084
 21
43.7237283059
 31
0.0
  0
LINE
  5
2F6
100
AcDbEntity
  8
RACCORDO
100
AcDbLine
 62
7
  6
CONTINUOUS
 10
196.1786594084
 20
43.7237283059
 30
0.0
 11
196.1802472785
 21
43.7786574725
 31
0.0
  0
LINE
  5
2F7
100
AcDbEntity
  8
RACCORDO
100
AcDbLine
 62
7
  6
CONTINUOUS
 10
196.1802472785
 20
43.7786574725
 30
0.0
 11
196.1828481876
 21
43.854561927
 31
0.0
  0
LINE
  5
2F8
100
AcDbEntity
  8
RACCORDO
100
AcDbLine
 62
7
  6
CONTINUOUS
 10
196.1828481876
 20
43.854561927
 30
0.0
 11
196.1852927622
 21
43.9181416688
 31
0.0
  0
LWPOLYLINE
  5
2F9
100
AcDbEntity
  8
RACCORDO
100
AcDbPolyline
 62
7
  6
CONTINUOUS
 90
9
 70
0
 10
196.3091816427
 20
46.379939033
 10
196.4059443233
 20
48.616088614
 10
196.4896854513
 20
50.929745451
 10
196.5608016395
 20
53.3208060142
 10
196.6200354234
 20
55.789116953
 10
196.6677233502
 20
58.3346101385
 10
196.702958034
 20
60.9572499611
 10
196.7246934272
 20
63.6570045466
 10
196.7318819953
 20
66.3531976928
  0
LINE
  5
2FA
100
AcDbEntity
  8
RACCORDO
100
AcDbLine
 62
7
  6
CONTINUOUS
 10
196.1852927622
 20
43.9181416688
 30
0.0
 11
196.1896260294
 21
44.0197458491
 31
0.0
  0
LINE
  5
2FB
100
AcDbEntity
  8
RACCORDO
100
AcDbLine
 62
7
  6
CONTINUOUS
 10
196.1896260294
 20
44.0197458491
 30
0.0
 11
196.1973670491
 21
44.1814759823
 31
0.0
  0
LINE
  5
2FC
100
AcDbEntity
  8
RACCORDO
100
AcDbLine
 62
7
  6
CONTINUOUS
 10
196.1973670491
 20
44.1814759823
 30
0.0
 11
196.3091816427
 21
46.379939033
 31
0.0
  0
LINE
  5
2FD
100
AcDbEntity
  8
RACCORDO
100
AcDbLine
 62
250
  6
CONTINUOUS
 10
196.1830087053
 20
43.8589149796
 30
0.0
 11
196.1826142875
 21
43.8531976787
 31
0.0
  0
LINE
  5
2FE
100
AcDbEntity
  8
0
100
AcDbLine
 62
7
  6
CONTINUOUS
 10
196.3837561928
 20
40.6165142513
 30
0.0
 11
196.3841965283
 21
40.6227536741
 31
0.0
  0
LINE
  5
2FF
100
AcDbEntity
  8
0
100
AcDbLine
 62
7
  6
CONTINUOUS
 10
196.2540423418
 20
38.9023042313
 30
0.0
 11
196.2580415345
 21
38.9560859463
 31
0.0
  0
LINE
  5
300
100
AcDbEntity
  8
0
100
AcDbLine
 62
7
  6
CONTINUOUS
 10
196.2617088114
 20
38.901721482
 30
0.0
 11
196.2658522724
 21
38.9561359017
 31
0.0
  0
LINE
  5
301
100
AcDbEntity
  8
RACCORDO
100
AcDbLine
 62
250
  6
CONTINUOUS
 10
193.7615151661
 20
88.8387687691
 30
0.0
 11
194.0181224693
 21
88.8531976741
 31
0.0
  0
LINE
  5
302
100
AcDbEntity
  8
RACCORDO
100
AcDbLine
 62
250
  6
CONTINUOUS
 10
193.7707872549
 20
88.6731976742
 30
0.0
 11
194.027405125
 21
88.6874640391
 31
0.0
  0
LINE
  5
303
100
AcDbEntity
  8
RACCORDO
100
AcDbLine
 62
7
  6
CONTINUOUS
 10
196.199320355
 20
88.8997364624
 30
0.0
 11
196.181168431
 21
88.8994196194
 31
0.0
  0
LINE
  5
304
100
AcDbEntity
  8
RACCORDO
100
AcDbLine
 62
250
  6
CONTINUOUS
 10
196.4935847328
 20
89.2170023366
 30
0.0
 11
196.1813253031
 21
89.2115404504
 31
0.0
  0
LINE
  5
305
100
AcDbEntity
  8
RACCORDO
100
AcDbLine
 62
250
  6
CONTINUOUS
 10
193.7707872549
 20
88.6731976742
 30
0.0
 11
190.7612618607
 21
88.6731976742
 31
0.0
  0
LINE
  5
306
100
AcDbEntity
  8
RACCORDO
100
AcDbLine
 62
250
  6
CONTINUOUS
 10
196.1826142873
 20
88.8531976741
 30
0.0
 11
194.0181224693
 21
88.8531976741
 31
0.0
  0
LINE
  5
307
100
AcDbEntity
  8
RACCORDO
100
AcDbLine
 62
250
  6
CONTINUOUS
 10
187.0331149592
 20
88.8484028593
 30
0.0
 11
187.1337402803
 21
88.8483279462
 31
0.0
  0
LINE
  5
308
100
AcDbEntity
  8
RACCORDO
100
AcDbLine
 62
250
  6
CONTINUOUS
 10
196.2033687578
 20
88.4111049934
 30
0.0
 11
196.2032400454
 21
88.4111063022
 31
0.0
  0
LINE
  5
309
100
AcDbEntity
  8
RACCORDO
100
AcDbLine
 62
250
  6
CONTINUOUS
 10
187.1337402803
 20
88.8483279462
 30
0.0
 11
190.7612839338
 21
88.6728056996
 31
0.0
  0
LWPOLYLINE
  5
30A
100
AcDbEntity
  8
0
100
AcDbPolyline
 62
7
  6
CONTINUOUS
 90
10
 70
0
 43
0.3500000006
 10
191.6681451416
 20
118.6031945801
 10
191.7395853882
 20
118.4603412781
 10
191.7395853882
 20
118.3889100952
 10
191.5967230225
 20
118.2460567932
 10
191.5252827759
 20
118.2460567932
 10
191.4538606567
 20
118.3174789124
 10
191.4538606567
 20
118.3889100952
 10
191.5252827759
 20
118.5317724609
 10
191.5967230225
 20
118.6031945801
 10
191.6681451416
 20
118.6031945801
  0
LINE
  5
30B
100
AcDbEntity
  8
RACCORDO
100
AcDbLine
 62
250
  6
CONTINUOUS
 10
192.3282062752
 20
104.9619976727
 30
0.0
 11
192.5831161699
 21
104.992958802
 31
0.0
  0
LINE
  5
30C
100
AcDbEntity
  8
RACCORDO
100
AcDbLine
 62
250
  6
CONTINUOUS
 10
187.107339884
 20
105.353249568
 30
0.0
 11
189.2532796377
 21
105.3547496909
 31
0.0
  0
LINE
  5
30D
100
AcDbEntity
  8
RACCORDO
100
AcDbLine
 62
250
  6
CONTINUOUS
 10
192.1572166743
 20
108.9246385239
 30
0.0
 11
194.268517166
 21
108.9260538803
 31
0.0
  0
LINE
  5
30E
100
AcDbEntity
  8
RACCORDO
100
AcDbLine
 62
250
  6
CONTINUOUS
 10
192.4117130687
 20
108.6680957195
 30
0.0
 11
194.6039613054
 21
108.6696724353
 31
0.0
  0
LINE
  5
30F
100
AcDbEntity
  8
RACCORDO
100
AcDbLine
 62
7
  6
CONTINUOUS
 10
194.2691223978
 20
108.9260542145
 30
0.0
 11
194.3484806841
 21
108.9260980862
 31
0.0
  0
LINE
  5
310
100
AcDbEntity
  8
RACCORDO
100
AcDbLine
 62
250
  6
CONTINUOUS
 10
192.3282062751
 20
104.9619976741
 30
0.0
 11
189.3008533247
 21
104.9619976741
 31
0.0
  0
LINE
  5
311
100
AcDbEntity
  8
SUPERFICI
100
AcDbLine
 62
7
  6
CONTINUOUS
 10
189.0870116435
 20
109.3531976741
 30
0.0
 11
191.2298387582
 21
109.3531976741
 31
0.0
  0
LINE
  5
312
100
AcDbEntity
  8
0
100
AcDbLine
 62
7
  6
CONTINUOUS
 10
191.2298387582
 20
109.3531976741
 30
0.0
 11
191.3095092079
 21
109.3531976741
 31
0.0
  0
LINE
  5
313
100
AcDbEntity
  8
RACCORDO
100
AcDbLine
 62
250
  6
CONTINUOUS
 10
187.1085377107
 20
105.0257818142
 30
0.0
 11
189.3012183943
 21
104.9590336826
 31
0.0
  0
LINE
  5
314
100
AcDbEntity
  8
RACCORDO
100
AcDbLine
 62
250
  6
CONTINUOUS
 10
189.0870116435
 20
109.3531976741
 30
0.0
 11
192.1356811084
 21
108.9247824568
 31
0.0
  0
LINE
  5
315
100
AcDbEntity
  8
RACCORDO
100
AcDbLine
 62
250
  6
CONTINUOUS
 10
192.1572166743
 20
108.9246385239
 30
0.0
 11
189.1078598722
 21
109.3531976741
 31
0.0
  0
LINE
  5
316
100
AcDbEntity
  8
RACCORDO
100
AcDbLine
 62
250
  6
CONTINUOUS
 10
194.2691223978
 20
108.9260542145
 30
0.0
 11
191.2298387582
 21
109.3531976741
 31
0.0
  0
LINE
  5
317
100
AcDbEntity
  8
RACCORDO
100
AcDbLine
 62
7
  6
CONTINUOUS
 10
191.3095092079
 20
109.3531976741
 30
0.0
 11
194.3484806841
 21
108.9260980862
 31
0.0
  0
ARC
  5
318
100
AcDbEntity
  8
RACCORDO
100
AcDbCircle
 62
250
  6
CONTINUOUS
 10
22.2946671901
 20
27.3008748824
 30
0.0
 40
78.0885485856
100
AcDbArc
 50
87.9545558298
 51
88.2667888362
  0
ARC
  5
319
100
AcDbEntity
  8
RACCORDO
100
AcDbCircle
 62
250
  6
CONTINUOUS
 10
149.8183415263
 20
105.4055204613
 30
0.0
 40
78.0885485811
100
AcDbArc
 50
267.9545558298
 51
268.2667888362
  0
ARC
  5
31A
100
AcDbEntity
  8
RACCORDO
100
AcDbCircle
 62
250
  6
CONTINUOUS
 10
149.8183414687
 20
27.3008767209
 30
0.0
 40
78.0885467463
100
AcDbArc
 50
91.7332111622
 51
92.0454441757
  0
ARC
  5
31B
100
AcDbEntity
  8
RACCORDO
100
AcDbCircle
 62
250
  6
CONTINUOUS
 10
22.294667248
 20
105.4055186262
 30
0.0
 40
78.0885467451
100
AcDbArc
 50
271.7332111622
 51
272.0454441757
  0
ARC
  5
31C
100
AcDbEntity
  8
SUPERFICI
100
AcDbCircle
 62
7
  6
CONTINUOUS
 10
143.4565018718
 20
27.3532001614
 30
0.0
 40
4.0000000021
100
AcDbArc
 50
270.0000356162
 51
359.9928024497
  0
ARC
  5
31D
100
AcDbEntity
  8
SUPERFICI
100
AcDbCircle
 62
7
  6
CONTINUOUS
 10
143.4565020444
 20
105.3531953595
 30
0.0
 40
4.0000000021
100
AcDbArc
 50
0.0071950779
 51
89.9999668556
  0
ARC
  5
31E
100
AcDbEntity
  8
0
100
AcDbCircle
 62
7
  6
CONTINUOUS
 10
28.6565068448
 20
27.3532001614
 30
0.0
 40
4.0000000021
100
AcDbArc
 50
180.0071975503
 51
269.9999643838
  0
ARC
  5
31F
100
AcDbEntity
  8
SUPERFICI
100
AcDbCircle
 62
7
  6
CONTINUOUS
 10
28.6565066722
 20
105.3531953595
 30
0.0
 40
4.0000000021
100
AcDbArc
 50
90.0000331444
 51
179.9928049221
  0
ARC
  5
320
100
AcDbEntity
  8
RACCORDO
100
AcDbCircle
 62
250
  6
CONTINUOUS
 10
143.4525411238
 20
27.3601025298
 30
0.0
 40
3.5785532302
100
AcDbArc
 50
269.9913520104
 51
0.1060668628
  0
ARC
  5
321
100
AcDbEntity
  8
RACCORDO
100
AcDbCircle
 62
250
  6
CONTINUOUS
 10
28.6604677283
 20
105.346292683
 30
0.0
 40
3.5785532302
100
AcDbArc
 50
89.9913541783
 51
180.1060646903
  0
ARC
  5
322
100
AcDbEntity
  8
RACCORDO
100
AcDbCircle
 62
250
  6
CONTINUOUS
 10
143.4525422053
 20
105.3462927802
 30
0.0
 40
3.578552562
100
AcDbArc
 50
359.8939337179
 51
90.0086653061
  0
ARC
  5
323
100
AcDbEntity
  8
RACCORDO
100
AcDbCircle
 62
250
  6
CONTINUOUS
 10
28.6604666451
 20
27.3601027019
 30
0.0
 40
3.578552562
100
AcDbArc
 50
179.8939358642
 51
270.0086631634
  0
ARC
  5
324
100
AcDbEntity
  8
RACCORDO
100
AcDbCircle
 62
250
  6
CONTINUOUS
 10
28.6372359785
 20
105.383966302
 30
0.0
 40
3.2844607286
100
AcDbArc
 50
89.9593123748
 51
180.2146927003
  0
ARC
  5
325
100
AcDbEntity
  8
RACCORDO
100
AcDbCircle
 62
250
  6
CONTINUOUS
 10
143.4757728553
 20
27.322428929
 30
0.0
 40
3.2844607286
100
AcDbArc
 50
269.9593103285
 51
0.2146947538
  0
ARC
  5
326
100
AcDbEntity
  8
RACCORDO
100
AcDbCircle
 62
250
  6
CONTINUOUS
 10
28.6372348455
 20
27.3224291244
 30
0.0
 40
3.2844600536
100
AcDbArc
 50
179.7853085881
 51
270.0407073902
  0
ARC
  5
327
100
AcDbEntity
  8
RACCORDO
100
AcDbCircle
 62
250
  6
CONTINUOUS
 10
143.4757739864
 20
105.3839663392
 30
0.0
 40
3.2844600536
100
AcDbArc
 50
359.7853065697
 51
90.0407094041
  0
ARC
  5
328
100
AcDbEntity
  8
RACCORDO
100
AcDbCircle
 62
250
  6
CONTINUOUS
 10
64.0074941914
 20
44.2959266287
 30
0.0
 40
0.8010812221
100
AcDbArc
 50
180.0578604564
 51
269.9550640315
  0
ARC
  5
329
100
AcDbEntity
  8
RACCORDO
100
AcDbCircle
 62
250
  6
CONTINUOUS
 10
108.1055145039
 20
88.4104686718
 30
0.0
 40
0.8010812221
100
AcDbArc
 50
0.0578604564
 51
89.9550625069
  0
ARC
  5
32A
100
AcDbEntity
  8
RACCORDO
100
AcDbCircle
 62
250
  6
CONTINUOUS
 10
108.105515061
 20
44.2959255154
 30
0.0
 40
0.8010801237
100
AcDbArc
 50
270.0448977135
 51
359.9425282805
  0
ARC
  5
32B
100
AcDbEntity
  8
RACCORDO
100
AcDbCircle
 62
250
  6
CONTINUOUS
 10
64.007493252
 20
88.410470559
 30
0.0
 40
0.8010793331
100
AcDbArc
 50
90.0448688809
 51
179.9425085604
  0
ARC
  5
32C
100
AcDbEntity
  8
RACCORDO
100
AcDbCircle
 62
250
  6
CONTINUOUS
 10
64.0147647766
 20
44.312385037
 30
0.0
 40
0.4997330749
100
AcDbArc
 50
180.0843420962
 51
269.9543732614
  0
ARC
  5
32D
100
AcDbEntity
  8
RACCORDO
100
AcDbCircle
 62
250
  6
CONTINUOUS
 10
108.09824394
 20
88.3940103112
 30
0.0
 40
0.4997330749
100
AcDbArc
 50
0.0843420962
 51
89.9543732614
  0
ARC
  5
32E
100
AcDbEntity
  8
RACCORDO
100
AcDbCircle
 62
250
  6
CONTINUOUS
 10
64.014753498
 20
88.394013732
 30
0.0
 40
0.4997217912
100
AcDbArc
 50
90.0455564172
 51
179.9160482032
  0
ARC
  5
32F
100
AcDbEntity
  8
RACCORDO
100
AcDbCircle
 62
250
  6
CONTINUOUS
 10
108.0982558627
 20
44.3123814214
 30
0.0
 40
0.4997211469
100
AcDbArc
 50
270.0455859306
 51
359.9160704434
  0
ARC
  5
330
100
AcDbEntity
  8
0
100
AcDbCircle
 62
7
  6
CONTINUOUS
 10
-53.1121001512
 20
57.9180039507
 30
0.0
 40
250.0978120564
100
AcDbArc
 50
355.4603493361
 51
355.6392848375
  0
ARC
  5
331
100
AcDbEntity
  8
0
100
AcDbCircle
 62
7
  6
CONTINUOUS
 10
-53.089831651
 20
57.9156976741
 30
0.0
 40
250.0
100
AcDbArc
 50
356.0348354653
 51
356.6918968425
  0
ARC
  5
332
100
AcDbEntity
  8
0
100
AcDbCircle
 62
7
  6
CONTINUOUS
 10
-53.089831651
 20
57.9156976741
 30
0.0
 40
250.0
100
AcDbArc
 50
352.2115471205
 51
355.4590992594
  0
ARC
  5
333
100
AcDbEntity
  8
RACCORDO
100
AcDbCircle
 62
250
  6
CONTINUOUS
 10
-53.169831651
 20
57.9156976741
 30
0.0
 40
250.0
100
AcDbArc
 50
352.2115581716
 51
356.6922177555
  0
ARC
  5
334
100
AcDbEntity
  8
RACCORDO
100
AcDbCircle
 62
250
  6
CONTINUOUS
 10
-55.5859614754
 20
57.9156976741
 30
0.0
 40
250.0
100
AcDbArc
 50
352.9737625285
 51
356.775409185
  0
ARC
  5
335
100
AcDbEntity
  8
RACCORDO
100
AcDbCircle
 62
250
  6
CONTINUOUS
 10
-55.6667804518
 20
57.9157649991
 30
0.0
 40
249.823587453
100
AcDbArc
 50
353.06341657
 51
356.7764299407
  0
ARC
  5
336
100
AcDbEntity
  8
0
100
AcDbCircle
 62
7
  6
CONTINUOUS
 10
-55.6479834888
 20
57.9156976741
 30
0.0
 40
246.8
100
AcDbArc
 50
352.9780256763
 51
356.7754104083
  0
ARC
  5
337
100
AcDbEntity
  8
0
100
AcDbCircle
 62
7
  6
CONTINUOUS
 10
-46.8158397362
 20
57.7830451569
 30
0.0
 40
243.8047030789
100
AcDbArc
 50
355.5584027904
 51
355.9624064491
  0
ARC
  5
338
100
AcDbEntity
  8
0
100
AcDbCircle
 62
7
  6
CONTINUOUS
 10
-45.3112216846
 20
56.8920735624
 30
0.0
 40
242.2342019302
100
AcDbArc
 50
355.5560914393
 51
355.740949445
  0
ARC
  5
339
100
AcDbEntity
  8
0
100
AcDbCircle
 62
7
  6
CONTINUOUS
 10
-45.2746261699
 20
56.8893747746
 30
0.0
 40
242.1975070404
100
AcDbArc
 50
355.7537012539
 51
356.1489659387
  0
ARC
  5
33A
100
AcDbEntity
  8
0
100
AcDbCircle
 62
7
  6
CONTINUOUS
 10
-45.2930413255
 20
56.889690117
 30
0.0
 40
242.1358954852
100
AcDbArc
 50
355.5548492852
 51
356.1479097756
  0
ARC
  5
33B
100
AcDbEntity
  8
RACCORDO
100
AcDbCircle
 62
7
  6
CONTINUOUS
 10
-53.089831651
 20
74.7906976741
 30
0.0
 40
250.0
100
AcDbArc
 50
3.3081031575
 51
7.7884528795
  0
ARC
  5
33C
100
AcDbEntity
  8
RACCORDO
100
AcDbCircle
 62
250
  6
CONTINUOUS
 10
-55.5858266265
 20
74.7906976741
 30
0.0
 40
250.0
100
AcDbArc
 50
3.2245907196
 51
7.0262374723
  0
ARC
  5
33D
100
AcDbEntity
  8
RACCORDO
100
AcDbCircle
 62
250
  6
CONTINUOUS
 10
-53.169831651
 20
74.7906976741
 30
0.0
 40
250.0
100
AcDbArc
 50
3.3077822445
 51
7.7884418284
  0
ARC
  5
33E
100
AcDbEntity
  8
RACCORDO
100
AcDbCircle
 62
250
  6
CONTINUOUS
 10
-55.6665493162
 20
74.7906508964
 30
0.0
 40
249.8233555278
100
AcDbArc
 50
3.2235683352
 51
6.9365851541
  0
ARC
  5
33F
100
AcDbEntity
  8
SUPERFICI
100
AcDbCircle
 62
7
  6
CONTINUOUS
 10
-55.6479834888
 20
74.7906976741
 30
0.0
 40
246.8
100
AcDbArc
 50
3.2245895917
 51
7.0219743237
  0
ARC
  5
340
100
AcDbEntity
  8
0
100
AcDbCircle
 62
7
  6
CONTINUOUS
 10
243.0184174369
 20
21.1143593655
 30
0.0
 40
54.1251706891
100
AcDbArc
 50
172.9639080145
 51
173.3815156539
  0
ARC
  5
341
100
AcDbEntity
  8
RACCORDO
100
AcDbCircle
 62
250
  6
CONTINUOUS
 10
224.6477163566
 20
42.7389899628
 30
0.0
 40
28.4870198416
100
AcDbArc
 50
176.8682652292
 51
177.5699382332
  0
ARC
  5
342
100
AcDbEntity
  8
RACCORDO
100
AcDbCircle
 62
250
  6
CONTINUOUS
 10
216.2536893972
 20
43.1068132682
 30
0.0
 40
20.084949135
100
AcDbArc
 50
177.6029919327
 51
177.8541458825
  0
ARC
  5
343
100
AcDbEntity
  8
RACCORDO
100
AcDbCircle
 62
250
  6
CONTINUOUS
 10
212.3235866381
 20
43.2556099958
 30
0.0
 40
16.1520308154
100
AcDbArc
 50
177.8797051379
 51
178.0323249856
  0
ARC
  5
344
100
AcDbEntity
  8
RACCORDO
100
AcDbCircle
 62
250
  6
CONTINUOUS
 10
210.0900790779
 20
43.3327397651
 30
0.0
 40
13.9171919305
100
AcDbArc
 50
178.0339525631
 51
178.2006422599
  0
ARC
  5
345
100
AcDbEntity
  8
RACCORDO
100
AcDbCircle
 62
250
  6
CONTINUOUS
 10
192.1562780321
 20
22.3110271968
 30
0.0
 40
1.4707299271
100
AcDbArc
 50
89.9634329606
 51
90.8024283409
  0
ARC
  5
346
100
AcDbEntity
  8
RACCORDO
100
AcDbCircle
 62
250
  6
CONTINUOUS
 10
192.410480652
 20
22.5735972397
 30
0.0
 40
1.4647029076
100
AcDbArc
 50
89.9517907124
 51
90.7946755904
  0
ARC
  5
347
100
AcDbEntity
  8
RACCORDO
100
AcDbCircle
 62
250
  6
CONTINUOUS
 10
195.8802450963
 20
43.512057434
 30
0.0
 40
0.3015712489
100
AcDbArc
 50
356.7299003766
 51
10.0282218409
  0
ARC
  5
348
100
AcDbEntity
  8
RACCORDO
100
AcDbCircle
 62
7
  6
CONTINUOUS
 10
194.3067287539
 20
24.0773776827
 30
0.0
 40
0.3
100
AcDbArc
 50
278.0
 51
352.2115471205
  0
ARC
  5
349
100
AcDbEntity
  8
RACCORDO
100
AcDbCircle
 62
7
  6
CONTINUOUS
 10
196.1940846331
 20
43.5067045773
 30
0.0
 40
0.3
100
AcDbArc
 50
356.6918968425
 51
89.0
  0
ARC
  5
34A
100
AcDbEntity
  8
RACCORDO
100
AcDbCircle
 62
7
  6
CONTINUOUS
 10
187.3331149592
 20
43.9083884952
 30
0.0
 40
0.3
100
AcDbArc
 50
174.0666128389
 51
180.0
  0
ARC
  5
34B
100
AcDbEntity
  8
RACCORDO
100
AcDbCircle
 62
250
  6
CONTINUOUS
 10
196.1141691015
 20
43.5081041541
 30
0.0
 40
0.2999965709
100
AcDbArc
 50
356.6915392917
 51
77.1270865629
  0
ARC
  5
34C
100
AcDbEntity
  8
RACCORDO
100
AcDbCircle
 62
250
  6
CONTINUOUS
 10
194.2273524033
 20
24.077403124
 30
0.0
 40
0.299984869
100
AcDbArc
 50
278.0039065185
 51
352.2154033195
  0
ARC
  5
34D
100
AcDbEntity
  8
RACCORDO
100
AcDbCircle
 62
250
  6
CONTINUOUS
 10
192.1148643068
 20
24.0782290912
 30
0.0
 40
0.2995021531
100
AcDbArc
 50
278.1299482887
 51
352.3390628406
  0
ARC
  5
34E
100
AcDbEntity
  8
RACCORDO
100
AcDbCircle
 62
250
  6
CONTINUOUS
 10
192.0933578157
 20
24.0780404218
 30
0.0
 40
0.2994553871
100
AcDbArc
 50
278.1255445772
 51
352.347194874
  0
ARC
  5
34F
100
AcDbEntity
  8
RACCORDO
100
AcDbCircle
 62
7
  6
CONTINUOUS
 10
187.1831149592
 20
24.8137770152
 30
0.0
 40
0.15
100
AcDbArc
 50
180.0
 51
204.2649620603
  0
ARC
  5
350
100
AcDbEntity
  8
RACCORDO
100
AcDbCircle
 62
7
  6
CONTINUOUS
 10
187.1826562539
 20
24.7849991459
 30
0.0
 40
0.1490867428
100
AcDbArc
 50
180.015335439
 51
237.6620602788
  0
ARC
  5
351
100
AcDbEntity
  8
SUPERFICI
100
AcDbCircle
 62
7
  6
CONTINUOUS
 10
243.2723842582
 20
111.6980984482
 30
0.0
 40
54.390271811
100
AcDbArc
 50
186.697449726
 51
187.117353399
  0
ARC
  5
352
100
AcDbEntity
  8
SUPERFICI
100
AcDbCircle
 62
7
  6
CONTINUOUS
 10
243.0184174368
 20
111.5920359827
 30
0.0
 40
54.125170689
100
AcDbArc
 50
186.6184843461
 51
187.0360919855
  0
ARC
  5
353
100
AcDbEntity
  8
RACCORDO
100
AcDbCircle
 62
250
  6
CONTINUOUS
 10
222.9413819229
 20
89.8844129381
 30
0.0
 40
26.778701677
100
AcDbArc
 50
182.3952798654
 51
183.1538833771
  0
ARC
  5
354
100
AcDbEntity
  8
RACCORDO
100
AcDbCircle
 62
250
  6
CONTINUOUS
 10
216.7519615843
 20
89.6203126414
 30
0.0
 40
20.5836522009
100
AcDbArc
 50
182.2562432823
 51
182.3808249265
  0
ARC
  5
355
100
AcDbEntity
  8
RACCORDO
100
AcDbCircle
 62
250
  6
CONTINUOUS
 10
214.2649259516
 20
89.5226626748
 30
0.0
 40
18.0947002879
100
AcDbArc
 50
182.1203045503
 51
182.2573106559
  0
ARC
  5
356
100
AcDbEntity
  8
RACCORDO
100
AcDbCircle
 62
250
  6
CONTINUOUS
 10
210.5046014695
 20
89.38650674
 30
0.0
 40
14.3319131802
100
AcDbArc
 50
181.7841086971
 51
182.1325425618
  0
ARC
  5
357
100
AcDbEntity
  8
RACCORDO
100
AcDbCircle
 62
250
  6
CONTINUOUS
 10
192.1562780401
 20
110.3953693502
 30
0.0
 40
1.4707311259
100
AcDbArc
 50
269.197572001
 51
270.0365666974
  0
ARC
  5
358
100
AcDbEntity
  8
RACCORDO
100
AcDbCircle
 62
250
  6
CONTINUOUS
 10
192.4104808575
 20
110.1328296563
 30
0.0
 40
1.4647344551
100
AcDbArc
 50
269.2053334866
 51
270.0482002115
  0
ARC
  5
359
100
AcDbEntity
  8
RACCORDO
100
AcDbCircle
 62
250
  6
CONTINUOUS
 10
195.8802452145
 20
89.194337904
 30
0.0
 40
0.3015711315
100
AcDbArc
 50
349.9732123687
 51
3.2701028648
  0
ARC
  5
35A
100
AcDbEntity
  8
RACCORDO
100
AcDbCircle
 62
7
  6
CONTINUOUS
 10
194.3067287539
 20
108.6290176656
 30
0.0
 40
0.3
100
AcDbArc
 50
7.7884528795
 51
82.0
  0
ARC
  5
35B
100
AcDbEntity
  8
RACCORDO
100
AcDbCircle
 62
7
  6
CONTINUOUS
 10
196.1940846331
 20
89.199690771
 30
0.0
 40
0.3
100
AcDbArc
 50
271.0
 51
3.3081031575
  0
ARC
  5
35C
100
AcDbEntity
  8
RACCORDO
100
AcDbCircle
 62
7
  6
CONTINUOUS
 10
187.3331149592
 20
88.7980068531
 30
0.0
 40
0.3
100
AcDbArc
 50
180.0
 51
185.9333871611
  0
ARC
  5
35D
100
AcDbEntity
  8
RACCORDO
100
AcDbCircle
 62
250
  6
CONTINUOUS
 10
196.1141691025
 20
89.1982911937
 30
0.0
 40
0.2999965699
100
AcDbArc
 50
282.8727275701
 51
3.3084608058
  0
ARC
  5
35E
100
AcDbEntity
  8
RACCORDO
100
AcDbCircle
 62
250
  6
CONTINUOUS
 10
194.2273531114
 20
108.6289915135
 30
0.0
 40
0.299984869
100
AcDbArc
 50
7.7847494966
 51
81.9962462974
  0
ARC
  5
35F
100
AcDbEntity
  8
RACCORDO
100
AcDbCircle
 62
250
  6
CONTINUOUS
 10
192.1148643063
 20
108.6281662566
 30
0.0
 40
0.2995021537
100
AcDbArc
 50
7.6609372411
 51
81.8700516443
  0
ARC
  5
360
100
AcDbEntity
  8
RACCORDO
100
AcDbCircle
 62
250
  6
CONTINUOUS
 10
192.0933577797
 20
108.6283548513
 30
0.0
 40
0.2994540597
100
AcDbArc
 50
7.6528170797
 51
81.8743438298
  0
ARC
  5
361
100
AcDbEntity
  8
RACCORDO
100
AcDbCircle
 62
7
  6
CONTINUOUS
 10
187.1826562533
 20
107.9213962041
 30
0.0
 40
0.1490867412
100
AcDbArc
 50
122.3379400427
 51
179.9846645414
  0
SPLINE
  5
362
100
AcDbEntity
  8
0
100
AcDbSpline
 62
7
  6
CONTINUOUS
 70
0
 71
3
 72
9
 73
5
 74
0
 42
0.0000001
 43
0.0000001
 44
0.0000000001
 40
0.0
 40
0.0
 40
0.0
 40
0.0
 40
0.6439297259
 40
1.0
 40
1.0
 40
1.0
 40
1.0
 10
90.1113277463
 20
38.8811769312
 30
0.0
 10
90.0823993463
 20
38.9581608956
 30
0.0
 10
89.9964925995
 20
39.0737545636
 30
0.0
 10
89.8657435589
 20
39.1012763127
 30
0.0
 10
89.8202730746
 20
39.1012763127
 30
0.0
  0
SPLINE
  5
363
100
AcDbEntity
  8
0
100
AcDbSpline
 62
7
  6
CONTINUOUS
 70
0
 71
3
 72
9
 73
5
 74
0
 42
0.0000001
 43
0.0000001
 44
0.0000000001
 40
0.0
 40
0.0
 40
0.0
 40
0.0
 40
0.4412849067
 40
1.0
 40
1.0
 40
1.0
 40
1.0
 10
90.3395540207
 20
38.1230178934
 30
0.0
 10
90.3073725201
 20
38.2349519842
 30
0.0
 10
90.2313863344
 20
38.487567085
 30
0.0
 10
90.1631984971
 20
38.7431389322
 30
0.0
 10
90.1113277188
 20
38.8811769209
 30
0.0
  0
SPLINE
  5
364
100
AcDbEntity
  8
0
100
AcDbSpline
 62
7
  6
CONTINUOUS
 70
0
 71
3
 72
9
 73
5
 74
0
 42
0.0000001
 43
0.0000001
 44
0.0000000001
 40
0.0
 40
0.0
 40
0.0
 40
0.0
 40
0.8019701384
 40
1.0
 40
1.0
 40
1.0
 40
1.0
 10
90.6630928811
 20
38.7995367563
 30
0.0
 10
90.7122555578
 20
38.6190844997
 30
0.0
 10
90.7701112133
 20
38.3931515496
 30
0.0
 10
90.82935345
 20
38.1675863588
 30
0.0
 10
90.841458119
 20
38.1230178934
 30
0.0
  0
SPLINE
  5
365
100
AcDbEntity
  8
0
100
AcDbSpline
 62
7
  6
CONTINUOUS
 70
0
 71
3
 72
8
 73
4
 74
0
 42
0.0000001
 43
0.0000001
 44
0.0000000001
 40
0.0
 40
0.0
 40
0.0
 40
0.0
 40
1.0
 40
1.0
 40
1.0
 40
1.0
 10
90.3623107555
 20
39.2898722841
 30
0.0
 10
90.3792996438
 20
39.2830979649
 30
0.0
 10
90.3954016582
 20
39.2747379594
 30
0.0
 10
90.4106637365
 20
39.2650157083
 30
0.0
  0
SPLINE
  5
366
100
AcDbEntity
  8
0
100
AcDbSpline
 62
7
  6
CONTINUOUS
 70
0
 71
3
 72
9
 73
5
 74
0
 42
0.0000001
 43
0.0000001
 44
0.0000000001
 40
0.0
 40
0.0
 40
0.0
 40
0.0
 40
0.7320084637
 40
1.0
 40
1.0
 40
1.0
 40
1.0
 10
90.4106637365
 20
39.2650157083
 30
0.0
 10
90.5180151062
 20
39.1966307247
 30
0.0
 10
90.6078984183
 20
39.0111377825
 30
0.0
 10
90.6507123385
 20
38.8449797006
 30
0.0
 10
90.6630928808
 20
38.7995367562
 30
0.0
  0
SPLINE
  5
367
100
AcDbEntity
  8
0
100
AcDbSpline
 62
7
  6
CONTINUOUS
 70
0
 71
3
 72
17
 73
13
 74
0
 42
0.0000001
 43
0.0000001
 44
0.0000000001
 40
0.0
 40
0.0
 40
0.0
 40
0.0
 40
0.0799595168
 40
0.1896577306
 40
0.3223977561
 40
0.3986068941
 40
0.483386777
 40
0.5877249163
 40
0.678993766
 40
0.8312459613
 40
0.9440219048
 40
1.0
 40
1.0
 40
1.0
 40
1.0
 10
90.3085118848
 20
40.56722993
 30
0.0
 10
90.3475575162
 20
40.5531440805
 30
0.0
 10
90.4347492744
 20
40.5050546986
 30
0.0
 10
90.5615621726
 20
40.3935536479
 30
0.0
 10
90.6513779564
 20
40.2509739737
 30
0.0
 10
90.6991979766
 20
40.1054877465
 30
0.0
 10
90.7189285024
 20
39.9685695855
 30
0.0
 10
90.7151846487
 20
39.8219749921
 30
0.0
 10
90.6753343714
 20
39.6453505579
 30
0.0
 10
90.5858790913
 20
39.4760446021
 30
0.0
 10
90.4643892462
 20
39.3660588718
 30
0.0
 10
90.3911312573
 20
39.3083623164
 30
0.0
 10
90.3623107555
 20
39.3046435419
 30
0.0
  0
SPLINE
  5
368
100
AcDbEntity
  8
0
100
AcDbSpline
 62
7
  6
CONTINUOUS
 70
0
 71
3
 72
9
 73
5
 74
0
 42
0.0000001
 43
0.0000001
 44
0.0000000001
 40
0.0
 40
0.0
 40
0.0
 40
0.0
 40
0.7042582166
 40
1.0
 40
1.0
 40
1.0
 40
1.0
 10
89.0208068604
 20
40.5935482625
 30
0.0
 10
89.3219190744
 20
40.6378469965
 30
0.0
 10
89.756246586
 20
40.6814455552
 30
0.0
 10
90.1883077355
 20
40.6106569402
 30
0.0
 10
90.3085118848
 20
40.56722993
 30
0.0
  0
SPLINE
  5
369
100
AcDbEntity
  8
0
100
AcDbSpline
 62
7
  6
CONTINUOUS
 70
0
 71
3
 72
9
 73
5
 74
0
 42
0.0000001
 43
0.0000001
 44
0.0000000001
 40
0.0
 40
0.0
 40
0.0
 40
0.0
 40
0.7295958313
 40
1.0
 40
1.0
 40
1.0
 40
1.0
 10
89.9319627768
 20
40.2116153091
 30
0.0
 10
89.8329428647
 20
40.2231077954
 30
0.0
 10
89.6947217884
 20
40.2235507959
 30
0.0
 10
89.5596172275
 20
40.2031130665
 30
0.0
 10
89.5231983352
 20
40.1968987492
 30
0.0
  0
SPLINE
  5
36A
100
AcDbEntity
  8
0
100
AcDbSpline
 62
7
  6
CONTINUOUS
 70
0
 71
3
 72
9
 73
5
 74
0
 42
0.0000001
 43
0.0000001
 44
0.0000000001
 40
0.0
 40
0.0
 40
0.0
 40
0.0
 40
0.4988584794
 40
1.0
 40
1.0
 40
1.0
 40
1.0
 10
90.2267295019
 20
39.8989245866
 30
0.0
 10
90.2255846083
 20
39.9755517904
 30
0.0
 10
90.16319714
 20
40.135362492
 30
0.0
 10
90.0084417952
 20
40.2027389726
 30
0.0
 10
89.9319627769
 20
40.2116153093
 30
0.0
  0
SPLINE
  5
36B
100
AcDbEntity
  8
0
100
AcDbSpline
 62
7
  6
CONTINUOUS
 70
0
 71
3
 72
9
 73
5
 74
0
 42
0.0000001
 43
0.0000001
 44
0.0000000001
 40
0.0
 40
0.0
 40
0.0
 40
0.0
 40
0.479537635
 40
1.0
 40
1.0
 40
1.0
 40
1.0
 10
89.8213977897
 20
39.5106725968
 30
0.0
 10
89.9208892932
 20
39.512894812
 30
0.0
 10
90.1519747446
 20
39.5549845893
 30
0.0
 10
90.2283433444
 20
39.7909093967
 30
0.0
 10
90.2267294803
 20
39.8989245863
 30
0.0
  0
LINE
  5
36C
100
AcDbEntity
  8
RACCORDO
100
AcDbLine
 62
250
  6
CONTINUOUS
 10
143.1921497736
 20
108.9246385239
 30
0.0
 11
143.4520009707
 21
108.9247824568
 31
0.0
  0
SPLINE
  5
36D
100
AcDbEntity
  8
RACCORDO
100
AcDbSpline
 62
250
  6
CONTINUOUS
 70
0
 71
3
 72
18
 73
14
 74
0
 42
0.0000001
 43
0.0000001
 44
0.0000000001
 40
0.0
 40
0.0
 40
0.0
 40
0.0
 40
0.0076125962
 40
0.0242957279
 40
0.0501248924
 40
0.0849056571
 40
0.128276165
 40
0.1798425188
 40
0.3054030782
 40
0.4566083472
 40
0.627361241
 40
0.8110288168
 40
1.0
 40
1.0
 40
1.0
 40
1.0
 10
108.514430453
 20
88.6706362907
 30
0.0
 10
108.5144946872
 20
88.6714379759
 30
0.0
 10
108.5166018145
 20
88.6733854136
 30
0.0
 10
108.5201888084
 20
88.6769548898
 30
0.0
 10
108.526662524
 20
88.6821465151
 30
0.0
 10
108.5352608482
 20
88.6888953813
 30
0.0
 10
108.5462415955
 20
88.6971305448
 30
0.0
 10
108.5650157606
 20
88.7109061177
 30
0.0
 10
108.5932706047
 20
88.7310405893
 30
0.0
 10
108.6320582276
 20
88.7580716629
 30
0.0
 10
108.6761349154
 20
88.7882527731
 30
0.0
 10
108.7237220998
 20
88.820364607
 30
0.0
 10
108.7564913647
 20
88.8421838744
 30
0.0
 10
108.7731428971
 20
88.8531976695
 30
0.0
  0
SPLINE
  5
36E
100
AcDbEntity
  8
RACCORDO
100
AcDbSpline
 62
250
  6
CONTINUOUS
 70
0
 71
3
 72
17
 73
13
 74
0
 42
0.0000001
 43
0.0000001
 44
0.0000000001
 40
0.0
 40
0.0
 40
0.0
 40
0.0
 40
0.0082515651
 40
0.0248648902
 40
0.0503784181
 40
0.084759544
 40
0.1788051536
 40
0.3036083093
 40
0.4542766571
 40
0.6250627104
 40
0.8095606189
 40
1.0
 40
1.0
 40
1.0
 40
1.0
 10
108.5979764734
 20
88.3947459402
 30
0.0
 10
108.5982360951
 20
88.3955584568
 30
0.0
 10
108.6008905381
 20
88.3968665266
 30
0.0
 10
108.6056407325
 20
88.3982555844
 30
0.0
 10
108.6135473356
 20
88.399765989
 30
0.0
 10
108.6292381755
 20
88.4019387295
 30
0.0
 10
108.6553728358
 20
88.4043027053
 30
0.0
 10
108.6934745186
 20
88.4066622321
 30
0.0
 10
108.7395758498
 20
88.4086108695
 30
0.0
 10
108.7918558664
 20
88.4100590929
 30
0.0
 10
108.8482640829
 20
88.4109357993
 30
0.0
 10
108.8870225938
 20
88.4111189266
 30
0.0
 10
108.9067088288
 20
88.4111062126
 30
0.0
  0
SPLINE
  5
36F
100
AcDbEntity
  8
RACCORDO
100
AcDbSpline
 62
250
  6
CONTINUOUS
 70
0
 71
3
 72
17
 73
13
 74
0
 42
0.0000001
 43
0.0000001
 44
0.0000000001
 40
0.0
 40
0.0
 40
0.0
 40
0.0
 40
0.0082516026
 40
0.0248649482
 40
0.0503784889
 40
0.0847596241
 40
0.1788052498
 40
0.3036084076
 40
0.4542767515
 40
0.6250627835
 40
0.8095606489
 40
1.0
 40
1.0
 40
1.0
 40
1.0
 10
108.5979764735
 20
44.311649499
 30
0.0
 10
108.5982360937
 20
44.3108369778
 30
0.0
 10
108.6008905325
 20
44.3095288879
 30
0.0
 10
108.6056407344
 20
44.3081398173
 30
0.0
 10
108.6135473376
 20
44.3066293941
 30
0.0
 10
108.6292381809
 20
44.3044566303
 30
0.0
 10
108.6553728435
 20
44.3020926278
 30
0.0
 10
108.6934745301
 20
44.2997330752
 30
0.0
 10
108.7395758622
 20
44.2977844164
 30
0.0
 10
108.7918558761
 20
44.2963361773
 30
0.0
 10
108.8482640881
 20
44.2954594612
 30
0.0
 10
108.887022595
 20
44.295276332
 30
0.0
 10
108.9067088287
 20
44.2952890461
 30
0.0
  0
SPLINE
  5
370
100
AcDbEntity
  8
RACCORDO
100
AcDbSpline
 62
250
  6
CONTINUOUS
 70
0
 71
3
 72
18
 73
14
 74
0
 42
0.0000001
 43
0.0000001
 44
0.0000000001
 40
0.0
 40
0.0
 40
0.0
 40
0.0
 40
0.0076125965
 40
0.0242957288
 40
0.0501248938
 40
0.0849056596
 40
0.1282761686
 40
0.1798425231
 40
0.3054030842
 40
0.4566083542
 40
0.6273612475
 40
0.8110288194
 40
1.0
 40
1.0
 40
1.0
 40
1.0
 10
108.5144304533
 20
44.0357590579
 30
0.0
 10
108.5144946874
 20
44.0349573727
 30
0.0
 10
108.5166018148
 20
44.0330099348
 30
0.0
 10
108.5201888088
 20
44.0294404585
 30
0.0
 10
108.5266625245
 20
44.024248833
 30
0.0
 10
108.5352608488
 20
44.0174999666
 30
0.0
 10
108.5462415964
 20
44.0092648029
 30
0.0
 10
108.5650157618
 20
43.9954892298
 30
0.0
 10
108.5932706062
 20
43.9753547579
 30
0.0
 10
108.6320582292
 20
43.9483236842
 30
0.0
 10
108.6761349168
 20
43.9181425741
 30
0.0
 10
108.7237221006
 20
43.8860307407
 30
0.0
 10
108.756491365
 20
43.8642114738
 30
0.0
 10
108.7731428972
 20
43.8531976789
 30
0.0
  0
SPLINE
  5
371
100
AcDbEntity
  8
RACCORDO
100
AcDbSpline
 62
250
  6
CONTINUOUS
 70
0
 71
3
 72
18
 73
14
 74
0
 42
0.0000001
 43
0.0000001
 44
0.0000000001
 40
0.0
 40
0.0
 40
0.0
 40
0.0
 40
0.0069826859
 40
0.0231397924
 40
0.048549087
 40
0.0830140289
 40
0.1261688274
 40
0.1776160447
 40
0.3032038883
 40
0.4547374105
 40
0.6260345192
 40
0.8103640929
 40
1.0
 40
1.0
 40
1.0
 40
1.0
 10
108.0976708701
 20
43.8121073161
 30
0.0
 10
108.0982999986
 20
43.8117189788
 30
0.0
 10
108.0986508347
 20
43.8088789883
 30
0.0
 10
108.0996231898
 20
43.8041680427
 30
0.0
 10
108.1002785854
 20
43.7959557016
 30
0.0
 10
108.1010991375
 20
43.7851570774
 30
0.0
 10
108.1018278452
 20
43.7714802996
 30
0.0
 10
108.1028530117
 20
43.7482025028
 30
0.0
 10
108.1039288097
 20
43.7134203814
 30
0.0
 10
108.1049388061
 20
43.6659554758
 30
0.0
 10
108.1056720825
 20
43.6122605334
 30
0.0
 10
108.1060987064
 20
43.5545295192
 30
0.0
 10
108.1061656605
 20
43.5149336157
 30
0.0
 10
108.1061427896
 20
43.4948548978
 30
0.0
  0
SPLINE
  5
372
100
AcDbEntity
  8
RACCORDO
100
AcDbSpline
 62
250
  6
CONTINUOUS
 70
0
 71
3
 72
18
 73
14
 74
0
 42
0.0000001
 43
0.0000001
 44
0.0000000001
 40
0.0
 40
0.0
 40
0.0
 40
0.0
 40
0.0065962549
 40
0.0226051729
 40
0.0479386025
 40
0.0823666382
 40
0.1255107695
 40
0.176967332
 40
0.3026201737
 40
0.454264338
 40
0.6257036965
 40
0.8101949905
 40
1.0
 40
1.0
 40
1.0
 40
1.0
 10
97.2022068174
 20
43.808053346
 30
0.0
 10
97.2026497844
 20
43.8075141695
 30
0.0
 10
97.2025702358
 20
43.8048757518
 30
0.0
 10
97.2032785455
 20
43.8000417578
 30
0.0
 10
97.2034944199
 20
43.7919166998
 30
0.0
 10
97.2039597059
 20
43.7810876201
 30
0.0
 10
97.2043108927
 20
43.7674243198
 30
0.0
 10
97.2048393128
 20
43.7441382965
 30
0.0
 10
97.2053797929
 20
43.7093588486
 30
0.0
 10
97.2058942029
 20
43.6618927243
 30
0.0
 10
97.2062654663
 20
43.6081978886
 30
0.0
 10
97.2064820677
 20
43.5504661574
 30
0.0
 10
97.2065159682
 20
43.5108700096
 30
0.0
 10
97.2065043583
 20
43.4907909255
 30
0.0
  0
SPLINE
  5
373
100
AcDbEntity
  8
RACCORDO
100
AcDbSpline
 62
250
  6
CONTINUOUS
 70
0
 71
3
 72
18
 73
14
 74
0
 42
0.0000001
 43
0.0000001
 44
0.0000000001
 40
0.0
 40
0.0
 40
0.0
 40
0.0
 40
0.0065962549
 40
0.0226051729
 40
0.0479386025
 40
0.0823666382
 40
0.1255107695
 40
0.176967332
 40
0.3026201737
 40
0.454264338
 40
0.6257036965
 40
0.8101949905
 40
1.0
 40
1.0
 40
1.0
 40
1.0
 10
74.9108018992
 20
43.808053346
 30
0.0
 10
74.9103589322
 20
43.8075141695
 30
0.0
 10
74.9104384808
 20
43.8048757518
 30
0.0
 10
74.9097301711
 20
43.8000417578
 30
0.0
 10
74.9095142967
 20
43.7919166998
 30
0.0
 10
74.9090490108
 20
43.7810876201
 30
0.0
 10
74.9086978239
 20
43.7674243198
 30
0.0
 10
74.9081694038
 20
43.7441382965
 30
0.0
 10
74.9076289237
 20
43.7093588486
 30
0.0
 10
74.9071145137
 20
43.6618927243
 30
0.0
 10
74.9067432503
 20
43.6081978886
 30
0.0
 10
74.9065266489
 20
43.5504661574
 30
0.0
 10
74.9064927484
 20
43.5108700096
 30
0.0
 10
74.9065043583
 20
43.4907909255
 30
0.0
  0
SPLINE
  5
374
100
AcDbEntity
  8
RACCORDO
100
AcDbSpline
 62
250
  6
CONTINUOUS
 70
0
 71
3
 72
18
 73
14
 74
0
 42
0.0000001
 43
0.0000001
 44
0.0000000001
 40
0.0
 40
0.0
 40
0.0
 40
0.0
 40
0.0069826876
 40
0.0231397962
 40
0.0485490926
 40
0.0830140382
 40
0.1261688404
 40
0.1776160602
 40
0.3032039103
 40
0.4547374361
 40
0.6260345435
 40
0.8103641023
 40
1.0
 40
1.0
 40
1.0
 40
1.0
 10
64.0153378479
 20
43.8121073161
 30
0.0
 10
64.014708719
 20
43.811718979
 30
0.0
 10
64.0143578823
 20
43.8088789879
 30
0.0
 10
64.0133855269
 20
43.804168042
 30
0.0
 10
64.0127301309
 20
43.7959556999
 30
0.0
 10
64.0119095789
 20
43.7851570748
 30
0.0
 10
64.0111808712
 20
43.7714802959
 30
0.0
 10
64.0101557048
 20
43.7482024978
 30
0.0
 10
64.0090799067
 20
43.713420375
 30
0.0
 10
64.0080699103
 20
43.6659554684
 30
0.0
 10
64.0073366341
 20
43.6122605273
 30
0.0
 10
64.0069100102
 20
43.5545295157
 30
0.0
 10
64.0068430556
 20
43.5149336147
 30
0.0
 10
64.0068659262
 20
43.4948548978
 30
0.0
  0
SPLINE
  5
375
100
AcDbEntity
  8
RACCORDO
100
AcDbSpline
 62
250
  6
CONTINUOUS
 70
0
 71
3
 72
18
 73
14
 74
0
 42
0.0000001
 43
0.0000001
 44
0.0000000001
 40
0.0
 40
0.0
 40
0.0
 40
0.0
 40
0.0076125962
 40
0.0242957279
 40
0.0501248924
 40
0.0849056571
 40
0.128276165
 40
0.1798425188
 40
0.3054030782
 40
0.4566083472
 40
0.627361241
 40
0.8110288168
 40
1.0
 40
1.0
 40
1.0
 40
1.0
 10
63.5985782636
 20
44.0357590575
 30
0.0
 10
63.5985140294
 20
44.0349573724
 30
0.0
 10
63.5964069021
 20
44.0330099346
 30
0.0
 10
63.5928199082
 20
44.0294404584
 30
0.0
 10
63.5863461926
 20
44.0242488331
 30
0.0
 10
63.5777478684
 20
44.0174999669
 30
0.0
 10
63.5667671211
 20
44.0092648035
 30
0.0
 10
63.547992956
 20
43.9954892306
 30
0.0
 10
63.5197381119
 20
43.975354759
 30
0.0
 10
63.480950489
 20
43.9483236854
 30
0.0
 10
63.4368738012
 20
43.9181425751
 30
0.0
 10
63.3892866168
 20
43.8860307412
 30
0.0
 10
63.3565173519
 20
43.8642114738
 30
0.0
 10
63.3398658195
 20
43.8531976787
 30
0.0
  0
SPLINE
  5
376
100
AcDbEntity
  8
RACCORDO
100
AcDbSpline
 62
250
  6
CONTINUOUS
 70
0
 71
3
 72
17
 73
13
 74
0
 42
0.0000001
 43
0.0000001
 44
0.0000000001
 40
0.0
 40
0.0
 40
0.0
 40
0.0
 40
0.0082515651
 40
0.0248648902
 40
0.0503784181
 40
0.084759544
 40
0.1788051536
 40
0.3036083093
 40
0.4542766571
 40
0.6250627104
 40
0.8095606189
 40
1.0
 40
1.0
 40
1.0
 40
1.0
 10
63.5150322432
 20
44.311649408
 30
0.0
 10
63.5147726215
 20
44.3108368915
 30
0.0
 10
63.5121181785
 20
44.3095288216
 30
0.0
 10
63.5073679841
 20
44.3081397639
 30
0.0
 10
63.499461381
 20
44.3066293593
 30
0.0
 10
63.4837705411
 20
44.3044566187
 30
0.0
 10
63.4576358808
 20
44.302092643
 30
0.0
 10
63.419534198
 20
44.2997331162
 30
0.0
 10
63.3734328668
 20
44.2977844788
 30
0.0
 10
63.3211528503
 20
44.2963362554
 30
0.0
 10
63.2647446337
 20
44.2954595489
 30
0.0
 10
63.2259861228
 20
44.2952764216
 30
0.0
 10
63.2062998878
 20
44.2952891356
 30
0.0
  0
SPLINE
  5
377
100
AcDbEntity
  8
RACCORDO
100
AcDbSpline
 62
250
  6
CONTINUOUS
 70
0
 71
3
 72
17
 73
13
 74
0
 42
0.0000001
 43
0.0000001
 44
0.0000000001
 40
0.0
 40
0.0
 40
0.0
 40
0.0
 40
0.0082516026
 40
0.0248649482
 40
0.0503784889
 40
0.0847596241
 40
0.1788052498
 40
0.3036084076
 40
0.4542767515
 40
0.6250627835
 40
0.8095606489
 40
1.0
 40
1.0
 40
1.0
 40
1.0
 10
63.5150322431
 20
88.3947458493
 30
0.0
 10
63.5147726229
 20
88.3955583705
 30
0.0
 10
63.5121181841
 20
88.3968664603
 30
0.0
 10
63.5073679822
 20
88.398255531
 30
0.0
 10
63.499461379
 20
88.3997659541
 30
0.0
 10
63.4837705357
 20
88.401938718
 30
0.0
 10
63.4576358731
 20
88.4043027205
 30
0.0
 10
63.4195341865
 20
88.4066622731
 30
0.0
 10
63.3734328544
 20
88.4086109319
 30
0.0
 10
63.3211528405
 20
88.410059171
 30
0.0
 10
63.2647446285
 20
88.4109358871
 30
0.0
 10
63.2259861216
 20
88.4111190162
 30
0.0
 10
63.2062998879
 20
88.4111063022
 30
0.0
  0
SPLINE
  5
378
100
AcDbEntity
  8
RACCORDO
100
AcDbSpline
 62
250
  6
CONTINUOUS
 70
0
 71
3
 72
18
 73
14
 74
0
 42
0.0000001
 43
0.0000001
 44
0.0000000001
 40
0.0
 40
0.0
 40
0.0
 40
0.0
 40
0.0076125964
 40
0.0242957285
 40
0.0501248935
 40
0.0849056591
 40
0.1282761679
 40
0.1798425223
 40
0.3054030831
 40
0.4566083529
 40
0.6273612463
 40
0.8110288189
 40
1.0
 40
1.0
 40
1.0
 40
1.0
 10
63.5985782635
 20
88.6706362905
 30
0.0
 10
63.5985140293
 20
88.6714379757
 30
0.0
 10
63.5964069018
 20
88.6733854135
 30
0.0
 10
63.5928199079
 20
88.6769548898
 30
0.0
 10
63.5863461922
 20
88.6821465152
 30
0.0
 10
63.5777478678
 20
88.6888953815
 30
0.0
 10
63.5667671203
 20
88.6971305451
 30
0.0
 10
63.5479929549
 20
88.7109061182
 30
0.0
 10
63.5197381106
 20
88.73104059
 30
0.0
 10
63.4809504876
 20
88.7580716637
 30
0.0
 10
63.4368737999
 20
88.7882527737
 30
0.0
 10
63.389286616
 20
88.8203646073
 30
0.0
 10
63.3565173516
 20
88.8421838743
 30
0.0
 10
63.3398658193
 20
88.8531976692
 30
0.0
  0
SPLINE
  5
379
100
AcDbEntity
  8
RACCORDO
100
AcDbSpline
 62
250
  6
CONTINUOUS
 70
0
 71
3
 72
18
 73
14
 74
0
 42
0.0000001
 43
0.0000001
 44
0.0000000001
 40
0.0
 40
0.0
 40
0.0
 40
0.0
 40
0.0069826858
 40
0.023139792
 40
0.0485490862
 40
0.0830140275
 40
0.1261688252
 40
0.1776160419
 40
0.3032038843
 40
0.4547374058
 40
0.6260345147
 40
0.8103640912
 40
1.0
 40
1.0
 40
1.0
 40
1.0
 10
64.0153378465
 20
88.8942880321
 30
0.0
 10
64.014708718
 20
88.8946763694
 30
0.0
 10
64.0143578819
 20
88.8975163599
 30
0.0
 10
64.0133855268
 20
88.9022273054
 30
0.0
 10
64.0127301312
 20
88.9104396464
 30
0.0
 10
64.0119095791
 20
88.9212382704
 30
0.0
 10
64.0111808714
 20
88.934915048
 30
0.0
 10
64.010155705
 20
88.9581928444
 30
0.0
 10
64.0090799069
 20
88.9929749656
 30
0.0
 10
64.0080699105
 20
89.040439871
 30
0.0
 10
64.0073366341
 20
89.0941348137
 30
0.0
 10
64.0069100103
 20
89.1518658284
 30
0.0
 10
64.006843056
 20
89.1914617324
 30
0.0
 10
64.0068659268
 20
89.2115404504
 30
0.0
  0
SPLINE
  5
37A
100
AcDbEntity
  8
RACCORDO
100
AcDbSpline
 62
250
  6
CONTINUOUS
 70
0
 71
3
 72
18
 73
14
 74
0
 42
0.0000001
 43
0.0000001
 44
0.0000000001
 40
0.0
 40
0.0
 40
0.0
 40
0.0
 40
0.0065962549
 40
0.0226051729
 40
0.0479386025
 40
0.0823666382
 40
0.1255107695
 40
0.176967332
 40
0.3026201737
 40
0.454264338
 40
0.6257036965
 40
0.8101949905
 40
1.0
 40
1.0
 40
1.0
 40
1.0
 10
74.9108018992
 20
88.8983420023
 30
0.0
 10
74.9103589322
 20
88.8988811788
 30
0.0
 10
74.9104384808
 20
88.9015195964
 30
0.0
 10
74.9097301711
 20
88.9063535904
 30
0.0
 10
74.9095142967
 20
88.9144786484
 30
0.0
 10
74.9090490108
 20
88.9253077282
 30
0.0
 10
74.9086978239
 20
88.9389710284
 30
0.0
 10
74.9081694039
 20
88.9622570518
 30
0.0
 10
74.9076289237
 20
88.9970364996
 30
0.0
 10
74.9071145138
 20
89.0445026239
 30
0.0
 10
74.9067432503
 20
89.0981974597
 30
0.0
 10
74.9065266489
 20
89.1559291908
 30
0.0
 10
74.9064927484
 20
89.1955253387
 30
0.0
 10
74.9065043583
 20
89.2156044228
 30
0.0
  0
SPLINE
  5
37B
100
AcDbEntity
  8
RACCORDO
100
AcDbSpline
 62
250
  6
CONTINUOUS
 70
0
 71
3
 72
18
 73
14
 74
0
 42
0.0000001
 43
0.0000001
 44
0.0000000001
 40
0.0
 40
0.0
 40
0.0
 40
0.0
 40
0.0065962549
 40
0.0226051729
 40
0.0479386025
 40
0.0823666382
 40
0.1255107695
 40
0.176967332
 40
0.3026201737
 40
0.454264338
 40
0.6257036965
 40
0.8101949905
 40
1.0
 40
1.0
 40
1.0
 40
1.0
 10
97.2022068174
 20
88.8983420023
 30
0.0
 10
97.2026497844
 20
88.8988811788
 30
0.0
 10
97.2025702358
 20
88.9015195964
 30
0.0
 10
97.2032785455
 20
88.9063535904
 30
0.0
 10
97.2034944199
 20
88.9144786484
 30
0.0
 10
97.2039597059
 20
88.9253077282
 30
0.0
 10
97.2043108927
 20
88.9389710284
 30
0.0
 10
97.2048393128
 20
88.9622570518
 30
0.0
 10
97.2053797929
 20
88.9970364996
 30
0.0
 10
97.2058942029
 20
89.0445026239
 30
0.0
 10
97.2062654663
 20
89.0981974597
 30
0.0
 10
97.2064820677
 20
89.1559291908
 30
0.0
 10
97.2065159682
 20
89.1955253387
 30
0.0
 10
97.2065043583
 20
89.2156044228
 30
0.0
  0
SPLINE
  5
37C
100
AcDbEntity
  8
RACCORDO
100
AcDbSpline
 62
250
  6
CONTINUOUS
 70
0
 71
3
 72
18
 73
14
 74
0
 42
0.0000001
 43
0.0000001
 44
0.0000000001
 40
0.0
 40
0.0
 40
0.0
 40
0.0
 40
0.0069826876
 40
0.0231397962
 40
0.0485490926
 40
0.0830140382
 40
0.1261688404
 40
0.1776160602
 40
0.3032039103
 40
0.4547374361
 40
0.6260345435
 40
0.8103641023
 40
1.0
 40
1.0
 40
1.0
 40
1.0
 10
108.0976708687
 20
88.8942880321
 30
0.0
 10
108.0982999976
 20
88.8946763692
 30
0.0
 10
108.0986508343
 20
88.8975163604
 30
0.0
 10
108.0996231897
 20
88.9022273063
 30
0.0
 10
108.1002785857
 20
88.9104396483
 30
0.0
 10
108.1010991377
 20
88.9212382735
 30
0.0
 10
108.1018278454
 20
88.9349150524
 30
0.0
 10
108.1028530118
 20
88.9581928505
 30
0.0
 10
108.1039288099
 20
88.9929749733
 30
0.0
 10
108.1049388063
 20
89.0404398799
 30
0.0
 10
108.1056720825
 20
89.094134821
 30
0.0
 10
108.1060987064
 20
89.1518658326
 30
0.0
 10
108.106165661
 20
89.1914617335
 30
0.0
 10
108.1061427904
 20
89.2115404504
 30
0.0
  0
LINE
  5
37D
100
AcDbEntity
  8
RACCORDO
100
AcDbLine
 62
250
  6
CONTINUOUS
 10
147.0310376477
 20
27.7443976741
 30
0.0
 11
147.0311828188
 21
27.3667277274
 31
0.0
  0
SPLINE
  5
37E
100
AcDbEntity
  8
RACCORDO
100
AcDbSpline
 62
250
  6
CONTINUOUS
 70
0
 71
3
 72
13
 73
9
 74
0
 42
0.0000001
 43
0.0000001
 44
0.0000000001
 40
0.0
 40
0.0
 40
0.0
 40
0.0
 40
0.0423300735
 40
0.1137147529
 40
0.2124473204
 40
0.3359151501
 40
0.6426227663
 40
1.0
 40
1.0
 40
1.0
 40
1.0
 10
147.0335431474
 20
88.6731976342
 30
0.0
 10
147.0299820268
 20
88.6746040279
 30
0.0
 10
147.0197696762
 20
88.6764754871
 30
0.0
 10
147.0007645508
 20
88.6789499969
 30
0.0
 10
146.9742693801
 20
88.6811461288
 30
0.0
 10
146.9265287211
 20
88.6840514809
 30
0.0
 10
146.8553160656
 20
88.6864749945
 30
0.0
 10
146.7952549094
 20
88.6873078559
 30
0.0
 10
146.7629303435
 20
88.6874640792
 30
0.0
  0
SPLINE
  5
37F
100
AcDbEntity
  8
RACCORDO
100
AcDbSpline
 62
250
  6
CONTINUOUS
 70
0
 71
3
 72
8
 73
4
 74
0
 42
0.0000001
 43
0.0000001
 44
0.0000000001
 40
0.0
 40
0.0
 40
0.0
 40
0.0
 40
1.0
 40
1.0
 40
1.0
 40
1.0
 10
74.9065043583
 20
43.4907909255
 30
0.0
 10
78.6231709373
 20
43.4898589351
 30
0.0
 10
82.3398376624
 20
43.4893930117
 30
0.0
 10
86.0565043583
 20
43.4893930117
 30
0.0
  0
SPLINE
  5
380
100
AcDbEntity
  8
RACCORDO
100
AcDbSpline
 62
250
  6
CONTINUOUS
 70
0
 71
3
 72
13
 73
9
 74
0
 42
0.0000001
 43
0.0000001
 44
0.0000000001
 40
0.0
 40
0.0
 40
0.0
 40
0.0
 40
0.0423555468
 40
0.1137509411
 40
0.2124865438
 40
0.3359522816
 40
0.6426452687
 40
1.0
 40
1.0
 40
1.0
 40
1.0
 10
147.0335274262
 20
88.8387687691
 30
0.0
 10
147.0299694351
 20
88.8401899551
 30
0.0
 10
147.019755441
 20
88.8420844239
 30
0.0
 10
147.0007499582
 20
88.8445864889
 30
0.0
 10
146.9742535753
 20
88.8468082089
 30
0.0
 10
146.9265132421
 20
88.8497464722
 30
0.0
 10
146.8553000843
 20
88.852197689
 30
0.0
 10
146.7952385075
 20
88.8530398069
 30
0.0
 10
146.7629138938
 20
88.8531976741
 30
0.0
  0
SPLINE
  5
381
100
AcDbEntity
  8
RACCORDO
100
AcDbSpline
 62
250
  6
CONTINUOUS
 70
0
 71
3
 72
13
 73
9
 74
0
 42
0.0000001
 43
0.0000001
 44
0.0000000001
 40
0.0
 40
0.0
 40
0.0
 40
0.0
 40
0.0461917004
 40
0.1192654781
 40
0.2184979431
 40
0.3416621713
 40
0.6461177612
 40
1.0
 40
1.0
 40
1.0
 40
1.0
 10
147.0310376477
 20
104.9619976741
 30
0.0
 10
147.0278262785
 20
104.9647363918
 30
0.0
 10
147.0175550822
 20
104.969132056
 30
0.0
 10
146.9983960481
 20
104.9743883778
 30
0.0
 10
146.971765031
 20
104.9792621986
 30
0.0
 10
146.9240503579
 20
104.9855266062
 30
0.0
 10
146.8527745139
 20
104.9908231288
 30
0.0
 10
146.7926390589
 20
104.9926217051
 30
0.0
 10
146.7603061009
 20
104.9929588005
 30
0.0
  0
SPLINE
  5
382
100
AcDbEntity
  8
RACCORDO
100
AcDbSpline
 62
250
  6
CONTINUOUS
 70
0
 71
3
 72
13
 73
9
 74
0
 42
0.0000001
 43
0.0000001
 44
0.0000000001
 40
0.0
 40
0.0
 40
0.0
 40
0.0
 40
0.0463388132
 40
0.1194819245
 40
0.2187385061
 40
0.3418950632
 40
0.6462654872
 40
1.0
 40
1.0
 40
1.0
 40
1.0
 10
147.0311829633
 20
105.3398077049
 30
0.0
 10
147.0279841661
 20
105.3425853994
 30
0.0
 10
147.0177197791
 20
105.3470725005
 30
0.0
 10
146.9985560419
 20
105.3524387812
 30
0.0
 10
146.9719224519
 20
105.3574314279
 30
0.0
 10
146.9242080401
 20
105.3638645297
 30
0.0
 10
146.8529257163
 20
105.369351365
 30
0.0
 10
146.7927798481
 20
105.3712678664
 30
0.0
 10
146.7604422622
 20
105.3716582258
 30
0.0
  0
SPLINE
  5
383
100
AcDbEntity
  8
RACCORDO
100
AcDbSpline
 62
250
  6
CONTINUOUS
 70
0
 71
3
 72
13
 73
9
 74
0
 42
0.0000001
 43
0.0000001
 44
0.0000000001
 40
0.0
 40
0.0
 40
0.0
 40
0.0
 40
0.0438981345
 40
0.1156001599
 40
0.2139649866
 40
0.3365205166
 40
0.6417023014
 40
1.0
 40
1.0
 40
1.0
 40
1.0
 10
143.4520006426
 20
108.9247839282
 30
0.0
 10
143.4539172774
 20
108.9215280232
 30
0.0
 10
143.4567332681
 20
108.9118172937
 30
0.0
 10
143.4602894563
 20
108.8938226025
 30
0.0
 10
143.4635430723
 20
108.8687994626
 30
0.0
 10
143.4678519669
 20
108.823739763
 30
0.0
 10
143.4716038492
 20
108.7561575067
 30
0.0
 10
143.4730573457
 20
108.6990710419
 30
0.0
 10
143.4734407849
 20
108.6682360806
 30
0.0
  0
SPLINE
  5
384
100
AcDbEntity
  8
RACCORDO
100
AcDbSpline
 62
250
  6
CONTINUOUS
 70
0
 71
3
 72
9
 73
5
 74
0
 42
0.0000001
 43
0.0000001
 44
0.0000000001
 40
0.0
 40
0.0
 40
0.0
 40
0.0
 40
0.2499706773
 40
1.0
 40
1.0
 40
1.0
 40
1.0
 10
64.0068659262
 20
43.4948548978
 30
0.0
 10
64.9150625468
 20
43.4944058186
 30
0.0
 10
68.5482752245
 20
43.4927193348
 30
0.0
 10
72.1814881073
 20
43.4914742499
 30
0.0
 10
74.9065043583
 20
43.4907909255
 30
0.0
  0
LINE
  5
385
100
AcDbEntity
  8
RACCORDO
100
AcDbLine
 62
250
  6
CONTINUOUS
 10
28.8998885734
 20
24.0382996287
 30
0.0
 11
28.6395682474
 21
24.038159268
 31
0.0
  0
SPLINE
  5
386
100
AcDbEntity
  8
RACCORDO
100
AcDbSpline
 62
250
  6
CONTINUOUS
 70
0
 71
3
 72
9
 73
5
 74
0
 42
0.0000001
 43
0.0000001
 44
0.0000000001
 40
0.0
 40
0.0
 40
0.0
 40
0.0
 40
0.2500954754
 40
1.0
 40
1.0
 40
1.0
 40
1.0
 10
63.1970658467
 20
66.3531976741
 30
0.0
 10
63.197065847
 20
64.5143364406
 30
0.0
 10
63.1978117355
 20
57.16169959
 30
0.0
 10
63.2010378841
 20
49.8090623449
 30
0.0
 10
63.2062998878
 20
44.2952891387
 30
0.0
  0
LINE
  5
387
100
AcDbEntity
  8
RACCORDO
100
AcDbLine
 62
250
  6
CONTINUOUS
 10
147.0311828188
 20
105.3396676208
 30
0.0
 11
147.0310376477
 21
104.9619976741
 31
0.0
  0
SPLINE
  5
388
100
AcDbEntity
  8
RACCORDO
100
AcDbSpline
 62
250
  6
CONTINUOUS
 70
0
 71
3
 72
9
 73
5
 74
0
 42
0.0000001
 43
0.0000001
 44
0.0000000001
 40
0.0
 40
0.0
 40
0.0
 40
0.0
 40
0.249839252
 40
1.0
 40
1.0
 40
1.0
 40
1.0
 10
147.0335431473
 20
88.6731976742
 30
0.0
 10
147.0337151213
 20
86.8143936459
 30
0.0
 10
147.0341707036
 20
79.3743936518
 30
0.0
 10
147.034208697
 20
71.9343936429
 30
0.0
 10
147.0342088896
 20
66.3531976741
 30
0.0
  0
LINE
  5
389
100
AcDbEntity
  8
RACCORDO
100
AcDbLine
 62
250
  6
CONTINUOUS
 10
28.6610077459
 20
108.9247824568
 30
0.0
 11
28.920858943
 21
108.9246385239
 31
0.0
  0
SPLINE
  5
38A
100
AcDbEntity
  8
RACCORDO
100
AcDbSpline
 62
250
  6
CONTINUOUS
 70
0
 71
3
 72
9
 73
5
 74
0
 42
0.0000001
 43
0.0000001
 44
0.0000000001
 40
0.0
 40
0.0
 40
0.0
 40
0.0
 40
0.2494273223
 40
1.0
 40
1.0
 40
1.0
 40
1.0
 10
147.0310376477
 20
104.9619976741
 30
0.0
 10
147.0313226405
 20
103.6214730836
 30
0.0
 10
147.0323855602
 20
98.2470634876
 30
0.0
 10
147.0331351005
 20
92.87265383
 30
0.0
 10
147.0335274262
 20
88.8387687691
 30
0.0
  0
LINE
  5
38B
100
AcDbEntity
  8
RACCORDO
100
AcDbLine
 62
250
  6
CONTINUOUS
 10
25.0819710689
 20
104.9619976741
 30
0.0
 11
25.0818258978
 21
105.3396676208
 31
0.0
  0
SPLINE
  5
38C
100
AcDbEntity
  8
RACCORDO
100
AcDbSpline
 62
250
  6
CONTINUOUS
 70
0
 71
3
 72
9
 73
5
 74
0
 42
0.0000001
 43
0.0000001
 44
0.0000000001
 40
0.0
 40
0.0
 40
0.0
 40
0.0
 40
0.2500985985
 40
1.0
 40
1.0
 40
1.0
 40
1.0
 10
25.078799827
 20
66.3531976741
 30
0.0
 10
25.0787997701
 20
68.2139312482
 30
0.0
 10
25.0788480426
 20
75.6539312502
 30
0.0
 10
25.0789498496
 20
83.093931268
 30
0.0
 10
25.0794655693
 20
88.6731976742
 30
0.0
  0
LINE
  5
38D
100
AcDbEntity
  8
RACCORDO
100
AcDbLine
 62
250
  6
CONTINUOUS
 10
25.0794655693
 20
88.6731976742
 30
0.0
 11
25.0794812904
 21
88.8387687691
 31
0.0
  0
LINE
  5
38E
100
AcDbEntity
  8
RACCORDO
100
AcDbLine
 62
250
  6
CONTINUOUS
 10
147.0335274262
 20
88.8387687691
 30
0.0
 11
147.0335431473
 21
88.6731976742
 31
0.0
  0
SPLINE
  5
38F
100
AcDbEntity
  8
RACCORDO
100
AcDbSpline
 62
250
  6
CONTINUOUS
 70
0
 71
3
 72
9
 73
5
 74
0
 42
0.0000001
 43
0.0000001
 44
0.0000000001
 40
0.0
 40
0.0
 40
0.0
 40
0.0
 40
0.2505069498
 40
1.0
 40
1.0
 40
1.0
 40
1.0
 10
25.0794812904
 20
88.8387687691
 30
0.0
 10
25.0796122312
 20
90.1850957438
 30
0.0
 10
25.0802108412
 20
95.5595054115
 30
0.0
 10
25.081114708
 20
100.9339150455
 30
0.0
 10
25.0819710689
 20
104.9619976741
 30
0.0
  0
SPLINE
  5
390
100
AcDbEntity
  8
RACCORDO
100
AcDbSpline
 62
250
  6
CONTINUOUS
 70
0
 71
3
 72
13
 73
9
 74
0
 42
0.0000001
 43
0.0000001
 44
0.0000000001
 40
0.0
 40
0.0
 40
0.0
 40
0.0
 40
0.043863082
 40
0.1155489588
 40
0.2139078408
 40
0.3364645231
 40
0.6416652519
 40
1.0
 40
1.0
 40
1.0
 40
1.0
 10
143.1921497729
 20
108.9246385239
 30
0.0
 10
143.1940499984
 20
108.9213774294
 30
0.0
 10
143.1968310941
 20
108.9116651488
 30
0.0
 10
143.2003396099
 20
108.8936695616
 30
0.0
 10
143.20353798
 20
108.8686469253
 30
0.0
 10
143.2077605016
 20
108.8235873777
 30
0.0
 10
143.2114026431
 20
108.7560089347
 30
0.0
 10
143.2127766239
 20
108.6989278196
 30
0.0
 10
143.2131201437
 20
108.6680957195
 30
0.0
  0
SPLINE
  5
391
100
AcDbEntity
  8
RACCORDO
100
AcDbSpline
 62
250
  6
CONTINUOUS
 70
0
 71
3
 72
11
 73
7
 74
0
 42
0.0000001
 43
0.0000001
 44
0.0000000001
 40
0.0
 40
0.0
 40
0.0
 40
0.0
 40
0.1121182379
 40
0.3329141631
 40
0.6394910816
 40
1.0
 40
1.0
 40
1.0
 40
1.0
 10
97.2028407853
 20
108.9260538803
 30
0.0
 10
97.2038141173
 20
108.9165182157
 30
0.0
 10
97.2043068197
 20
108.8880180721
 30
0.0
 10
97.2055866335
 20
108.8333914158
 30
0.0
 10
97.2061664493
 20
108.7574708183
 30
0.0
 10
97.2064441211
 20
108.700445226
 30
0.0
 10
97.2065043583
 20
108.6696246604
 30
0.0
  0
SPLINE
  5
392
100
AcDbEntity
  8
RACCORDO
100
AcDbSpline
 62
250
  6
CONTINUOUS
 70
0
 71
3
 72
11
 73
7
 74
0
 42
0.0000001
 43
0.0000001
 44
0.0000000001
 40
0.0
 40
0.0
 40
0.0
 40
0.0
 40
0.112117465
 40
0.332913356
 40
0.6394905841
 40
1.0
 40
1.0
 40
1.0
 40
1.0
 10
97.1605803611
 20
108.9260542145
 30
0.0
 10
97.1615500321
 20
108.9165182578
 30
0.0
 10
97.1620408105
 20
108.8880185132
 30
0.0
 10
97.1633158084
 20
108.8333916457
 30
0.0
 10
97.1638934066
 20
108.7574711978
 30
0.0
 10
97.1641700306
 20
108.7004455845
 30
0.0
 10
97.1642300396
 20
108.6696250217
 30
0.0
  0
SPLINE
  5
393
100
AcDbEntity
  8
RACCORDO
100
AcDbSpline
 62
250
  6
CONTINUOUS
 70
0
 71
3
 72
11
 73
7
 74
0
 42
0.0000001
 43
0.0000001
 44
0.0000000001
 40
0.0
 40
0.0
 40
0.0
 40
0.0
 40
0.112117465
 40
0.332913356
 40
0.6394905841
 40
1.0
 40
1.0
 40
1.0
 40
1.0
 10
74.9524283555
 20
108.9260542145
 30
0.0
 10
74.9514586845
 20
108.9165182578
 30
0.0
 10
74.9509679061
 20
108.8880185132
 30
0.0
 10
74.9496929082
 20
108.8333916457
 30
0.0
 10
74.94911531
 20
108.7574711978
 30
0.0
 10
74.948838686
 20
108.7004455845
 30
0.0
 10
74.948778677
 20
108.6696250217
 30
0.0
  0
SPLINE
  5
394
100
AcDbEntity
  8
RACCORDO
100
AcDbSpline
 62
250
  6
CONTINUOUS
 70
0
 71
3
 72
11
 73
7
 74
0
 42
0.0000001
 43
0.0000001
 44
0.0000000001
 40
0.0
 40
0.0
 40
0.0
 40
0.0
 40
0.1121182379
 40
0.3329141632
 40
0.6394910817
 40
1.0
 40
1.0
 40
1.0
 40
1.0
 10
74.9101679313
 20
108.9260538803
 30
0.0
 10
74.9091946002
 20
108.9165182157
 30
0.0
 10
74.908701898
 20
108.888018072
 30
0.0
 10
74.907422085
 20
108.8333914157
 30
0.0
 10
74.9068422688
 20
108.7574708183
 30
0.0
 10
74.9065645961
 20
108.7004452259
 30
0.0
 10
74.9065043583
 20
108.6696246604
 30
0.0
  0
SPLINE
  5
395
100
AcDbEntity
  8
RACCORDO
100
AcDbSpline
 62
250
  6
CONTINUOUS
 70
0
 71
3
 72
13
 73
9
 74
0
 42
0.0000001
 43
0.0000001
 44
0.0000000001
 40
0.0
 40
0.0
 40
0.0
 40
0.0
 40
0.0438630824
 40
0.1155489595
 40
0.2139078417
 40
0.3364645242
 40
0.6416652527
 40
1.0
 40
1.0
 40
1.0
 40
1.0
 10
28.920858943
 20
108.9246385239
 30
0.0
 10
28.9189587174
 20
108.9213774294
 30
0.0
 10
28.9161776215
 20
108.9116651488
 30
0.0
 10
28.9126691053
 20
108.8936695616
 30
0.0
 10
28.9094707348
 20
108.8686469252
 30
0.0
 10
28.9052482128
 20
108.8235873777
 30
0.0
 10
28.9016060716
 20
108.7560089346
 30
0.0
 10
28.9002320923
 20
108.6989278196
 30
0.0
 10
28.8998885736
 20
108.6680957195
 30
0.0
  0
SPLINE
  5
396
100
AcDbEntity
  8
RACCORDO
100
AcDbSpline
 62
250
  6
CONTINUOUS
 70
0
 71
3
 72
13
 73
9
 74
0
 42
0.0000001
 43
0.0000001
 44
0.0000000001
 40
0.0
 40
0.0
 40
0.0
 40
0.0
 40
0.0438983568
 40
0.115600546
 40
0.2139654613
 40
0.3365210063
 40
0.6417026274
 40
1.0
 40
1.0
 40
1.0
 40
1.0
 10
28.661007745
 20
108.9247824568
 30
0.0
 10
28.6590911408
 20
108.9215265346
 30
0.0
 10
28.6562751975
 20
108.9118158179
 30
0.0
 10
28.6527190825
 20
108.8938211654
 30
0.0
 10
28.6494655513
 20
108.8687981268
 30
0.0
 10
28.6451567978
 20
108.8237386571
 30
0.0
 10
28.6414050967
 20
108.7561567887
 30
0.0
 10
28.6399517322
 20
108.6990706626
 30
0.0
 10
28.6395683633
 20
108.6682358906
 30
0.0
  0
SPLINE
  5
397
100
AcDbEntity
  8
RACCORDO
100
AcDbSpline
 62
250
  6
CONTINUOUS
 70
0
 71
3
 72
13
 73
9
 74
0
 42
0.0000001
 43
0.0000001
 44
0.0000000001
 40
0.0
 40
0.0
 40
0.0
 40
0.0
 40
0.0463000806
 40
0.1194250598
 40
0.2186767304
 40
0.3418378648
 40
0.6462346927
 40
1.0
 40
1.0
 40
1.0
 40
1.0
 10
25.0818159782
 20
105.3395283106
 30
0.0
 10
25.0850125233
 20
105.3423039781
 30
0.0
 10
25.0952724166
 20
105.3467902524
 30
0.0
 10
25.1144295714
 20
105.3521672178
 30
0.0
 10
25.1410607069
 20
105.3571811551
 30
0.0
 10
25.1887769033
 20
105.3636613372
 30
0.0
 10
25.2600669107
 20
105.3692304265
 30
0.0
 10
25.3202226642
 20
105.3712242368
 30
0.0
 10
25.3525664175
 20
105.3716582772
 30
0.0
  0
SPLINE
  5
398
100
AcDbEntity
  8
RACCORDO
100
AcDbSpline
 62
250
  6
CONTINUOUS
 70
0
 71
3
 72
13
 73
9
 74
0
 42
0.0000001
 43
0.0000001
 44
0.0000000001
 40
0.0
 40
0.0
 40
0.0
 40
0.0
 40
0.0461917021
 40
0.1192654801
 40
0.2184979448
 40
0.3416621727
 40
0.6461177619
 40
1.0
 40
1.0
 40
1.0
 40
1.0
 10
25.0819710689
 20
104.9619976727
 30
0.0
 10
25.0851824379
 20
104.9647363908
 30
0.0
 10
25.0954536342
 20
104.9691320559
 30
0.0
 10
25.1146126685
 20
104.974388378
 30
0.0
 10
25.1412436856
 20
104.9792621986
 30
0.0
 10
25.1889583587
 20
104.9855266063
 30
0.0
 10
25.2602342027
 20
104.9908231284
 30
0.0
 10
25.3203696577
 20
104.9926217056
 30
0.0
 10
25.3527026157
 20
104.992958802
 30
0.0
  0
SPLINE
  5
399
100
AcDbEntity
  8
RACCORDO
100
AcDbSpline
 62
250
  6
CONTINUOUS
 70
0
 71
3
 72
13
 73
9
 74
0
 42
0.0000001
 43
0.0000001
 44
0.0000000001
 40
0.0
 40
0.0
 40
0.0
 40
0.0
 40
0.0423555468
 40
0.1137509411
 40
0.2124865438
 40
0.3359522816
 40
0.6426452687
 40
1.0
 40
1.0
 40
1.0
 40
1.0
 10
25.0794812904
 20
88.8387687691
 30
0.0
 10
25.0830392816
 20
88.8401899551
 30
0.0
 10
25.0932532756
 20
88.8420844239
 30
0.0
 10
25.1122587584
 20
88.8445864889
 30
0.0
 10
25.1387551413
 20
88.8468082088
 30
0.0
 10
25.1864954746
 20
88.8497464722
 30
0.0
 10
25.2577086323
 20
88.852197689
 30
0.0
 10
25.3177702091
 20
88.8530398069
 30
0.0
 10
25.3500948228
 20
88.8531976741
 30
0.0
  0
SPLINE
  5
39A
100
AcDbEntity
  8
RACCORDO
100
AcDbSpline
 62
250
  6
CONTINUOUS
 70
0
 71
3
 72
13
 73
9
 74
0
 42
0.0000001
 43
0.0000001
 44
0.0000000001
 40
0.0
 40
0.0
 40
0.0
 40
0.0
 40
0.0423300476
 40
0.1137147221
 40
0.212447292
 40
0.3359151255
 40
0.642622753
 40
1.0
 40
1.0
 40
1.0
 40
1.0
 10
25.0794655693
 20
88.6731976742
 30
0.0
 10
25.083026694
 20
88.6746040505
 30
0.0
 10
25.093239042
 20
88.6764754902
 30
0.0
 10
25.1122441665
 20
88.6789499918
 30
0.0
 10
25.1387393352
 20
88.6811461299
 30
0.0
 10
25.1864799948
 20
88.684051479
 30
0.0
 10
25.2576926497
 20
88.6864750059
 30
0.0
 10
25.317753807
 20
88.68730784
 30
0.0
 10
25.3500783731
 20
88.6874640391
 30
0.0
  0
SPLINE
  5
39B
100
AcDbEntity
  8
RACCORDO
100
AcDbSpline
 62
250
  6
CONTINUOUS
 70
0
 71
3
 72
13
 73
9
 74
0
 42
0.0000001
 43
0.0000001
 44
0.0000000001
 40
0.0
 40
0.0
 40
0.0
 40
0.0
 40
0.0423300735
 40
0.1137147529
 40
0.2124473204
 40
0.3359151501
 40
0.6426227663
 40
1.0
 40
1.0
 40
1.0
 40
1.0
 10
25.0794655693
 20
44.033197714
 30
0.0
 10
25.0830266898
 20
44.0317913203
 30
0.0
 10
25.0932390404
 20
44.0299198611
 30
0.0
 10
25.1122441658
 20
44.0274453513
 30
0.0
 10
25.1387393366
 20
44.0252492195
 30
0.0
 10
25.1864799956
 20
44.0223438674
 30
0.0
 10
25.2576926511
 20
44.0199203538
 30
0.0
 10
25.3177538072
 20
44.0190874924
 30
0.0
 10
25.3500783731
 20
44.0189312691
 30
0.0
  0
SPLINE
  5
39C
100
AcDbEntity
  8
RACCORDO
100
AcDbSpline
 62
250
  6
CONTINUOUS
 70
0
 71
3
 72
13
 73
9
 74
0
 42
0.0000001
 43
0.0000001
 44
0.0000000001
 40
0.0
 40
0.0
 40
0.0
 40
0.0
 40
0.0423555468
 40
0.1137509411
 40
0.2124865438
 40
0.3359522816
 40
0.6426452687
 40
1.0
 40
1.0
 40
1.0
 40
1.0
 10
25.0794812904
 20
43.8676265791
 30
0.0
 10
25.0830392816
 20
43.8662053931
 30
0.0
 10
25.0932532756
 20
43.8643109244
 30
0.0
 10
25.1122587584
 20
43.8618088594
 30
0.0
 10
25.1387551413
 20
43.8595871394
 30
0.0
 10
25.1864954746
 20
43.856648876
 30
0.0
 10
25.2577086323
 20
43.8541976592
 30
0.0
 10
25.3177702091
 20
43.8533555413
 30
0.0
 10
25.3500948228
 20
43.8531976741
 30
0.0
  0
SPLINE
  5
39D
100
AcDbEntity
  8
RACCORDO
100
AcDbSpline
 62
250
  6
CONTINUOUS
 70
0
 71
3
 72
13
 73
9
 74
0
 42
0.0000001
 43
0.0000001
 44
0.0000000001
 40
0.0
 40
0.0
 40
0.0
 40
0.0
 40
0.0461917004
 40
0.1192654781
 40
0.2184979431
 40
0.3416621713
 40
0.6461177612
 40
1.0
 40
1.0
 40
1.0
 40
1.0
 10
25.0819710689
 20
27.7443976741
 30
0.0
 10
25.0851824381
 20
27.7416589564
 30
0.0
 10
25.0954536344
 20
27.7372632923
 30
0.0
 10
25.1146126686
 20
27.7320069704
 30
0.0
 10
25.1412436856
 20
27.7271331496
 30
0.0
 10
25.1889583587
 20
27.720868742
 30
0.0
 10
25.2602342027
 20
27.7155722194
 30
0.0
 10
25.3203696577
 20
27.7137736432
 30
0.0
 10
25.3527026157
 20
27.7134365477
 30
0.0
  0
SPLINE
  5
39E
100
AcDbEntity
  8
RACCORDO
100
AcDbSpline
 62
250
  6
CONTINUOUS
 70
0
 71
3
 72
13
 73
9
 74
0
 42
0.0000001
 43
0.0000001
 44
0.0000000001
 40
0.0
 40
0.0
 40
0.0
 40
0.0
 40
0.0463388132
 40
0.1194819245
 40
0.2187385061
 40
0.3418950632
 40
0.6462654872
 40
1.0
 40
1.0
 40
1.0
 40
1.0
 10
25.0818257533
 20
27.3665876433
 30
0.0
 10
25.0850245505
 20
27.3638099488
 30
0.0
 10
25.0952889375
 20
27.3593228477
 30
0.0
 10
25.1144526747
 20
27.3539565671
 30
0.0
 10
25.1410862648
 20
27.3489639204
 30
0.0
 10
25.1888006765
 20
27.3425308186
 30
0.0
 10
25.2600830004
 20
27.3370439832
 30
0.0
 10
25.3202288685
 20
27.3351274818
 30
0.0
 10
25.3525664544
 20
27.3347371224
 30
0.0
  0
SPLINE
  5
39F
100
AcDbEntity
  8
RACCORDO
100
AcDbSpline
 62
250
  6
CONTINUOUS
 70
0
 71
3
 72
13
 73
9
 74
0
 42
0.0000001
 43
0.0000001
 44
0.0000000001
 40
0.0
 40
0.0
 40
0.0
 40
0.0
 40
0.0438981345
 40
0.1156001599
 40
0.2139649866
 40
0.3365205166
 40
0.6417023014
 40
1.0
 40
1.0
 40
1.0
 40
1.0
 10
28.661008074
 20
23.78161142
 30
0.0
 10
28.6590914392
 20
23.784867325
 30
0.0
 10
28.6562754485
 20
23.7945780546
 30
0.0
 10
28.6527192603
 20
23.8125727458
 30
0.0
 10
28.6494656443
 20
23.8375958857
 30
0.0
 10
28.6451567497
 20
23.8826555852
 30
0.0
 10
28.6414048674
 20
23.9502378415
 30
0.0
 10
28.6399513709
 20
24.0073243064
 30
0.0
 10
28.6395679317
 20
24.0381592676
 30
0.0
  0
SPLINE
  5
3A0
100
AcDbEntity
  8
RACCORDO
100
AcDbSpline
 62
250
  6
CONTINUOUS
 70
0
 71
3
 72
13
 73
9
 74
0
 42
0.0000001
 43
0.0000001
 44
0.0000000001
 40
0.0
 40
0.0
 40
0.0
 40
0.0
 40
0.043863082
 40
0.1155489588
 40
0.2139078408
 40
0.3364645231
 40
0.6416652519
 40
1.0
 40
1.0
 40
1.0
 40
1.0
 10
28.9208589437
 20
23.7817568244
 30
0.0
 10
28.9189587182
 20
23.7850179189
 30
0.0
 10
28.9161776225
 20
23.7947301995
 30
0.0
 10
28.9126691067
 20
23.8127257866
 30
0.0
 10
28.9094707366
 20
23.837748423
 30
0.0
 10
28.905248215
 20
23.8828079705
 30
0.0
 10
28.9016060735
 20
23.9503864136
 30
0.0
 10
28.9002320927
 20
24.0074675286
 30
0.0
 10
28.8998885729
 20
24.0382996287
 30
0.0
  0
SPLINE
  5
3A1
100
AcDbEntity
  8
RACCORDO
100
AcDbSpline
 62
250
  6
CONTINUOUS
 70
0
 71
3
 72
11
 73
7
 74
0
 42
0.0000001
 43
0.0000001
 44
0.0000000001
 40
0.0
 40
0.0
 40
0.0
 40
0.0
 40
0.1121182379
 40
0.3329141631
 40
0.6394910816
 40
1.0
 40
1.0
 40
1.0
 40
1.0
 10
74.9101679313
 20
23.780341468
 30
0.0
 10
74.9091945993
 20
23.7898771325
 30
0.0
 10
74.9087018969
 20
23.8183772762
 30
0.0
 10
74.9074220831
 20
23.8730039325
 30
0.0
 10
74.9068422673
 20
23.9489245299
 30
0.0
 10
74.9065645955
 20
24.0059501223
 30
0.0
 10
74.9065043583
 20
24.0367706879
 30
0.0
  0
SPLINE
  5
3A2
100
AcDbEntity
  8
RACCORDO
100
AcDbSpline
 62
250
  6
CONTINUOUS
 70
0
 71
3
 72
11
 73
7
 74
0
 42
0.0000001
 43
0.0000001
 44
0.0000000001
 40
0.0
 40
0.0
 40
0.0
 40
0.0
 40
0.112117465
 40
0.332913356
 40
0.6394905841
 40
1.0
 40
1.0
 40
1.0
 40
1.0
 10
74.9524283555
 20
23.7803411337
 30
0.0
 10
74.9514586845
 20
23.7898770905
 30
0.0
 10
74.9509679061
 20
23.8183768351
 30
0.0
 10
74.9496929082
 20
23.8730037026
 30
0.0
 10
74.94911531
 20
23.9489241504
 30
0.0
 10
74.948838686
 20
24.0059497638
 30
0.0
 10
74.948778677
 20
24.0367703266
 30
0.0
  0
SPLINE
  5
3A3
100
AcDbEntity
  8
RACCORDO
100
AcDbSpline
 62
250
  6
CONTINUOUS
 70
0
 71
3
 72
11
 73
7
 74
0
 42
0.0000001
 43
0.0000001
 44
0.0000000001
 40
0.0
 40
0.0
 40
0.0
 40
0.0
 40
0.112117465
 40
0.332913356
 40
0.6394905841
 40
1.0
 40
1.0
 40
1.0
 40
1.0
 10
97.1605803611
 20
23.7803411337
 30
0.0
 10
97.1615500321
 20
23.7898770905
 30
0.0
 10
97.1620408105
 20
23.8183768351
 30
0.0
 10
97.1633158084
 20
23.8730037026
 30
0.0
 10
97.1638934066
 20
23.9489241504
 30
0.0
 10
97.1641700306
 20
24.0059497638
 30
0.0
 10
97.1642300396
 20
24.0367703266
 30
0.0
  0
SPLINE
  5
3A4
100
AcDbEntity
  8
RACCORDO
100
AcDbSpline
 62
250
  6
CONTINUOUS
 70
0
 71
3
 72
11
 73
7
 74
0
 42
0.0000001
 43
0.0000001
 44
0.0000000001
 40
0.0
 40
0.0
 40
0.0
 40
0.0
 40
0.1121182379
 40
0.3329141632
 40
0.6394910817
 40
1.0
 40
1.0
 40
1.0
 40
1.0
 10
97.2028407853
 20
23.780341468
 30
0.0
 10
97.2038141164
 20
23.7898771326
 30
0.0
 10
97.2043068186
 20
23.8183772762
 30
0.0
 10
97.2055866316
 20
23.8730039326
 30
0.0
 10
97.2061664479
 20
23.94892453
 30
0.0
 10
97.2064441205
 20
24.0059501223
 30
0.0
 10
97.2065043583
 20
24.0367706879
 30
0.0
  0
SPLINE
  5
3A5
100
AcDbEntity
  8
RACCORDO
100
AcDbSpline
 62
250
  6
CONTINUOUS
 70
0
 71
3
 72
8
 73
4
 74
0
 42
0.0000001
 43
0.0000001
 44
0.0000000001
 40
0.0
 40
0.0
 40
0.0
 40
0.0
 40
1.0
 40
1.0
 40
1.0
 40
1.0
 10
86.0565043583
 20
89.2170023366
 30
0.0
 10
82.3398376624
 20
89.2170023366
 30
0.0
 10
78.6231709373
 20
89.2165364132
 30
0.0
 10
74.9065043583
 20
89.2156044228
 30
0.0
  0
SPLINE
  5
3A6
100
AcDbEntity
  8
RACCORDO
100
AcDbSpline
 62
250
  6
CONTINUOUS
 70
0
 71
3
 72
9
 73
5
 74
0
 42
0.0000001
 43
0.0000001
 44
0.0000000001
 40
0.0
 40
0.0
 40
0.0
 40
0.0
 40
0.2500263264
 40
1.0
 40
1.0
 40
1.0
 40
1.0
 10
74.9065043583
 20
89.2156044228
 30
0.0
 10
73.9981054705
 20
89.2153766329
 30
0.0
 10
70.3648925452
 20
89.2143542081
 30
0.0
 10
66.7316797451
 20
89.2128877987
 30
0.0
 10
64.0068659262
 20
89.2115404504
 30
0.0
  0
LINE
  5
3A7
100
AcDbEntity
  8
RACCORDO
100
AcDbLine
 62
250
  6
CONTINUOUS
 10
28.6395682474
 20
108.6682360803
 30
0.0
 11
28.8998885739
 21
108.6680957195
 31
0.0
  0
SPLINE
  5
3A8
100
AcDbEntity
  8
RACCORDO
100
AcDbSpline
 62
250
  6
CONTINUOUS
 70
0
 71
3
 72
9
 73
5
 74
0
 42
0.0000001
 43
0.0000001
 44
0.0000000001
 40
0.0
 40
0.0
 40
0.0
 40
0.0
 40
0.2498451511
 40
1.0
 40
1.0
 40
1.0
 40
1.0
 10
63.2062998878
 20
88.4111062095
 30
0.0
 10
63.2045467494
 20
86.5740863474
 30
0.0
 10
63.1989267441
 20
79.2214513949
 30
0.0
 10
63.197065841
 20
71.8688139626
 30
0.0
 10
63.1970658467
 20
66.3531976741
 30
0.0
  0
SPLINE
  5
3A9
100
AcDbEntity
  8
RACCORDO
100
AcDbSpline
 62
250
  6
CONTINUOUS
 70
0
 71
3
 72
13
 73
9
 74
0
 42
0.0000001
 43
0.0000001
 44
0.0000000001
 40
0.0
 40
0.0
 40
0.0
 40
0.0
 40
0.0438630824
 40
0.1155489595
 40
0.2139078417
 40
0.3364645242
 40
0.6416652527
 40
1.0
 40
1.0
 40
1.0
 40
1.0
 10
143.1921497736
 20
23.7817568244
 30
0.0
 10
143.1940499992
 20
23.7850179189
 30
0.0
 10
143.1968310952
 20
23.7947301995
 30
0.0
 10
143.2003396113
 20
23.8127257867
 30
0.0
 10
143.2035379818
 20
23.837748423
 30
0.0
 10
143.2077605038
 20
23.8828079706
 30
0.0
 10
143.211402645
 20
23.9503864136
 30
0.0
 10
143.2127766243
 20
24.0074675287
 30
0.0
 10
143.213120143
 20
24.0382996287
 30
0.0
  0
SPLINE
  5
3AA
100
AcDbEntity
  8
RACCORDO
100
AcDbSpline
 62
250
  6
CONTINUOUS
 70
0
 71
3
 72
13
 73
9
 74
0
 42
0.0000001
 43
0.0000001
 44
0.0000000001
 40
0.0
 40
0.0
 40
0.0
 40
0.0
 40
0.0438983568
 40
0.115600546
 40
0.2139654613
 40
0.3365210063
 40
0.6417026274
 40
1.0
 40
1.0
 40
1.0
 40
1.0
 10
143.4520009717
 20
23.7816128914
 30
0.0
 10
143.4539175758
 20
23.7848688137
 30
0.0
 10
143.4567335191
 20
23.7945795303
 30
0.0
 10
143.4602896341
 20
23.8125741828
 30
0.0
 10
143.4635431653
 20
23.8375972214
 30
0.0
 10
143.4678519188
 20
23.8826566912
 30
0.0
 10
143.4716036199
 20
23.9502385595
 30
0.0
 10
143.4730569844
 20
24.0073246856
 30
0.0
 10
143.4734403533
 20
24.0381594576
 30
0.0
  0
SPLINE
  5
3AB
100
AcDbEntity
  8
RACCORDO
100
AcDbSpline
 62
250
  6
CONTINUOUS
 70
0
 71
3
 72
13
 73
9
 74
0
 42
0.0000001
 43
0.0000001
 44
0.0000000001
 40
0.0
 40
0.0
 40
0.0
 40
0.0
 40
0.0463000806
 40
0.1194250598
 40
0.2186767304
 40
0.3418378648
 40
0.6462346927
 40
1.0
 40
1.0
 40
1.0
 40
1.0
 10
147.0311927384
 20
27.3668670376
 30
0.0
 10
147.0279961933
 20
27.3640913702
 30
0.0
 10
147.0177363
 20
27.3596050958
 30
0.0
 10
146.9985791452
 20
27.3542281305
 30
0.0
 10
146.9719480097
 20
27.3492141932
 30
0.0
 10
146.9242318133
 20
27.3427340111
 30
0.0
 10
146.8529418059
 20
27.3371649218
 30
0.0
 10
146.7927860525
 20
27.3351711115
 30
0.0
 10
146.7604422991
 20
27.3347370711
 30
0.0
  0
SPLINE
  5
3AC
100
AcDbEntity
  8
RACCORDO
100
AcDbSpline
 62
250
  6
CONTINUOUS
 70
0
 71
3
 72
13
 73
9
 74
0
 42
0.0000001
 43
0.0000001
 44
0.0000000001
 40
0.0
 40
0.0
 40
0.0
 40
0.0
 40
0.0461917021
 40
0.1192654801
 40
0.2184979448
 40
0.3416621727
 40
0.6461177619
 40
1.0
 40
1.0
 40
1.0
 40
1.0
 10
147.0310376477
 20
27.7443976756
 30
0.0
 10
147.0278262787
 20
27.7416589574
 30
0.0
 10
147.0175550824
 20
27.7372632924
 30
0.0
 10
146.9983960481
 20
27.7320069703
 30
0.0
 10
146.971765031
 20
27.7271331497
 30
0.0
 10
146.9240503579
 20
27.720868742
 30
0.0
 10
146.8527745139
 20
27.7155722198
 30
0.0
 10
146.7926390589
 20
27.7137736426
 30
0.0
 10
146.7603061009
 20
27.7134365463
 30
0.0
  0
SPLINE
  5
3AD
100
AcDbEntity
  8
RACCORDO
100
AcDbSpline
 62
250
  6
CONTINUOUS
 70
0
 71
3
 72
13
 73
9
 74
0
 42
0.0000001
 43
0.0000001
 44
0.0000000001
 40
0.0
 40
0.0
 40
0.0
 40
0.0
 40
0.0423555468
 40
0.1137509411
 40
0.2124865438
 40
0.3359522816
 40
0.6426452687
 40
1.0
 40
1.0
 40
1.0
 40
1.0
 10
147.0335274262
 20
43.8676265791
 30
0.0
 10
147.0299694351
 20
43.8662053931
 30
0.0
 10
147.019755441
 20
43.8643109244
 30
0.0
 10
147.0007499582
 20
43.8618088594
 30
0.0
 10
146.9742535753
 20
43.8595871394
 30
0.0
 10
146.9265132421
 20
43.856648876
 30
0.0
 10
146.8553000843
 20
43.8541976593
 30
0.0
 10
146.7952385075
 20
43.8533555413
 30
0.0
 10
146.7629138938
 20
43.8531976741
 30
0.0
  0
SPLINE
  5
3AE
100
AcDbEntity
  8
RACCORDO
100
AcDbSpline
 62
250
  6
CONTINUOUS
 70
0
 71
3
 72
13
 73
9
 74
0
 42
0.0000001
 43
0.0000001
 44
0.0000000001
 40
0.0
 40
0.0
 40
0.0
 40
0.0
 40
0.0423300476
 40
0.1137147221
 40
0.212447292
 40
0.3359151255
 40
0.642622753
 40
1.0
 40
1.0
 40
1.0
 40
1.0
 10
147.0335431473
 20
44.0331976741
 30
0.0
 10
147.0299820226
 20
44.0317912978
 30
0.0
 10
147.0197696747
 20
44.0299198581
 30
0.0
 10
147.0007645501
 20
44.0274453565
 30
0.0
 10
146.9742693814
 20
44.0252492183
 30
0.0
 10
146.9265287218
 20
44.0223438693
 30
0.0
 10
146.8553160669
 20
44.0199203423
 30
0.0
 10
146.7952549096
 20
44.0190875082
 30
0.0
 10
146.7629303435
 20
44.0189313091
 30
0.0
  0
SPLINE
  5
3AF
100
AcDbEntity
  8
RACCORDO
100
AcDbSpline
 62
250
  6
CONTINUOUS
 70
0
 71
3
 72
9
 73
5
 74
0
 42
0.0000001
 43
0.0000001
 44
0.0000000001
 40
0.0
 40
0.0
 40
0.0
 40
0.0
 40
0.2500985985
 40
1.0
 40
1.0
 40
1.0
 40
1.0
 10
147.0342088896
 20
66.3531976741
 30
0.0
 10
147.0342089465
 20
64.4924641001
 30
0.0
 10
147.034160674
 20
57.0524640981
 30
0.0
 10
147.034058867
 20
49.6124640803
 30
0.0
 10
147.0335431473
 20
44.0331976741
 30
0.0
  0
LINE
  5
3B0
100
AcDbEntity
  8
RACCORDO
100
AcDbLine
 62
250
  6
CONTINUOUS
 10
147.0335431473
 20
44.0331976741
 30
0.0
 11
147.0335274262
 21
43.8676265791
 31
0.0
  0
LINE
  5
3B1
100
AcDbEntity
  8
RACCORDO
100
AcDbLine
 62
250
  6
CONTINUOUS
 10
143.4520009707
 20
23.7816128914
 30
0.0
 11
143.1921497736
 21
23.7817568244
 31
0.0
  0
SPLINE
  5
3B2
100
AcDbEntity
  8
RACCORDO
100
AcDbSpline
 62
250
  6
CONTINUOUS
 70
0
 71
3
 72
8
 73
4
 74
0
 42
0.0000001
 43
0.0000001
 44
0.0000000001
 40
0.0
 40
0.0
 40
0.0
 40
0.0
 40
1.0
 40
1.0
 40
1.0
 40
1.0
 10
86.0565043583
 20
43.4893930117
 30
0.0
 10
89.7731710542
 20
43.4893930117
 30
0.0
 10
93.4898377793
 20
43.4898589351
 30
0.0
 10
97.2065043583
 20
43.4907909255
 30
0.0
  0
SPLINE
  5
3B3
100
AcDbEntity
  8
RACCORDO
100
AcDbSpline
 62
250
  6
CONTINUOUS
 70
0
 71
3
 72
9
 73
5
 74
0
 42
0.0000001
 43
0.0000001
 44
0.0000000001
 40
0.0
 40
0.0
 40
0.0
 40
0.0
 40
0.2505069498
 40
1.0
 40
1.0
 40
1.0
 40
1.0
 10
147.0335274262
 20
43.8676265791
 30
0.0
 10
147.0333964855
 20
42.5212996044
 30
0.0
 10
147.0327978754
 20
37.1468899368
 30
0.0
 10
147.0318940086
 20
31.7724803028
 30
0.0
 10
147.0310376477
 20
27.7443976741
 30
0.0
  0
SPLINE
  5
3B4
100
AcDbEntity
  8
RACCORDO
100
AcDbSpline
 62
250
  6
CONTINUOUS
 70
0
 71
3
 72
9
 73
5
 74
0
 42
0.0000001
 43
0.0000001
 44
0.0000000001
 40
0.0
 40
0.0
 40
0.0
 40
0.0
 40
0.2500263264
 40
1.0
 40
1.0
 40
1.0
 40
1.0
 10
97.2065043583
 20
43.4907909255
 30
0.0
 10
98.1149032461
 20
43.4910187154
 30
0.0
 10
101.7481161714
 20
43.4920411402
 30
0.0
 10
105.3813289715
 20
43.4935075496
 30
0.0
 10
108.1061427904
 20
43.4948548978
 30
0.0
  0
LINE
  5
3B5
100
AcDbEntity
  8
RACCORDO
100
AcDbLine
 62
250
  6
CONTINUOUS
 10
143.4734404692
 20
24.038159268
 30
0.0
 11
143.2131201427
 21
24.0382996287
 31
0.0
  0
SPLINE
  5
3B6
100
AcDbEntity
  8
RACCORDO
100
AcDbSpline
 62
250
  6
CONTINUOUS
 70
0
 71
3
 72
8
 73
4
 74
0
 42
0.0000001
 43
0.0000001
 44
0.0000000001
 40
0.0
 40
0.0
 40
0.0
 40
0.0
 40
1.0
 40
1.0
 40
1.0
 40
1.0
 10
97.2065043583
 20
89.2156044228
 30
0.0
 10
93.4898377793
 20
89.2165364132
 30
0.0
 10
89.7731710542
 20
89.2170023366
 30
0.0
 10
86.0565043583
 20
89.2170023366
 30
0.0
  0
SPLINE
  5
3B7
100
AcDbEntity
  8
RACCORDO
100
AcDbSpline
 62
250
  6
CONTINUOUS
 70
0
 71
3
 72
9
 73
5
 74
0
 42
0.0000001
 43
0.0000001
 44
0.0000000001
 40
0.0
 40
0.0
 40
0.0
 40
0.0
 40
0.2499706773
 40
1.0
 40
1.0
 40
1.0
 40
1.0
 10
108.1061427904
 20
89.2115404504
 30
0.0
 10
107.1979461698
 20
89.2119895296
 30
0.0
 10
103.5647334921
 20
89.2136760134
 30
0.0
 10
99.9315206093
 20
89.2149210983
 30
0.0
 10
97.2065043583
 20
89.2156044228
 30
0.0
  0
LINE
  5
3B8
100
AcDbEntity
  8
RACCORDO
100
AcDbLine
 62
250
  6
CONTINUOUS
 10
143.2131201432
 20
108.6680957195
 30
0.0
 11
143.4734404692
 21
108.6682360803
 31
0.0
  0
SPLINE
  5
3B9
100
AcDbEntity
  8
RACCORDO
100
AcDbSpline
 62
250
  6
CONTINUOUS
 70
0
 71
3
 72
9
 73
5
 74
0
 42
0.0000001
 43
0.0000001
 44
0.0000000001
 40
0.0
 40
0.0
 40
0.0
 40
0.0
 40
0.2500954754
 40
1.0
 40
1.0
 40
1.0
 40
1.0
 10
108.9159428699
 20
66.3531976741
 30
0.0
 10
108.9159428696
 20
68.1920589076
 30
0.0
 10
108.9151969811
 20
75.5446957583
 30
0.0
 10
108.9119708325
 20
82.8973330033
 30
0.0
 10
108.9067088288
 20
88.4111062095
 30
0.0
  0
LINE
  5
3BA
100
AcDbEntity
  8
RACCORDO
100
AcDbLine
 62
250
  6
CONTINUOUS
 10
28.920858943
 20
23.7817568244
 30
0.0
 11
28.6610077459
 21
23.7816128914
 31
0.0
  0
SPLINE
  5
3BB
100
AcDbEntity
  8
RACCORDO
100
AcDbSpline
 62
250
  6
CONTINUOUS
 70
0
 71
3
 72
9
 73
5
 74
0
 42
0.0000001
 43
0.0000001
 44
0.0000000001
 40
0.0
 40
0.0
 40
0.0
 40
0.0
 40
0.2498451511
 40
1.0
 40
1.0
 40
1.0
 40
1.0
 10
108.9067088288
 20
44.2952891387
 30
0.0
 10
108.9084619672
 20
46.1323090009
 30
0.0
 10
108.9140819725
 20
53.4849439534
 30
0.0
 10
108.9159428756
 20
60.8375813857
 30
0.0
 10
108.9159428699
 20
66.3531976741
 30
0.0
  0
LINE
  5
3BC
100
AcDbEntity
  8
RACCORDO
100
AcDbLine
 62
250
  6
CONTINUOUS
 10
25.0818258978
 20
27.3667277274
 30
0.0
 11
25.0819710689
 21
27.7443976741
 31
0.0
  0
SPLINE
  5
3BD
100
AcDbEntity
  8
RACCORDO
100
AcDbSpline
 62
250
  6
CONTINUOUS
 70
0
 71
3
 72
9
 73
5
 74
0
 42
0.0000001
 43
0.0000001
 44
0.0000000001
 40
0.0
 40
0.0
 40
0.0
 40
0.0
 40
0.249839252
 40
1.0
 40
1.0
 40
1.0
 40
1.0
 10
25.0794655693
 20
44.0331976741
 30
0.0
 10
25.0792935953
 20
45.8920017024
 30
0.0
 10
25.078838013
 20
53.3320016964
 30
0.0
 10
25.0788000196
 20
60.7720017053
 30
0.0
 10
25.078799827
 20
66.3531976741
 30
0.0
  0
SPLINE
  5
3BE
100
AcDbEntity
  8
RACCORDO
100
AcDbSpline
 62
250
  6
CONTINUOUS
 70
0
 71
3
 72
9
 73
5
 74
0
 42
0.0000001
 43
0.0000001
 44
0.0000000001
 40
0.0
 40
0.0
 40
0.0
 40
0.0
 40
0.2494273223
 40
1.0
 40
1.0
 40
1.0
 40
1.0
 10
25.0819710689
 20
27.7443976741
 30
0.0
 10
25.0816860761
 20
29.0849222647
 30
0.0
 10
25.0806231564
 20
34.4593318607
 30
0.0
 10
25.0798736161
 20
39.8337415183
 30
0.0
 10
25.0794812904
 20
43.8676265791
 30
0.0
  0
LINE
  5
3BF
100
AcDbEntity
  8
RACCORDO
100
AcDbLine
 62
250
  6
CONTINUOUS
 10
25.0794812904
 20
43.8676265791
 30
0.0
 11
25.0794655693
 21
44.0331976741
 31
0.0
  0
SPLINE
  5
3C0
100
AcDbEntity
  8
RACCORDO
100
AcDbSpline
 62
250
  6
CONTINUOUS
 70
0
 71
3
 72
9
 73
5
 74
0
 42
0.0000001
 43
0.0000001
 44
0.0000000001
 40
0.0
 40
0.0
 40
0.0
 40
0.0
 40
0.2499706772
 40
1.0
 40
1.0
 40
1.0
 40
1.0
 10
64.0153378479
 20
43.8121073161
 30
0.0
 10
64.923186644
 20
43.81165934
 30
0.0
 10
68.555007862
 20
43.809977001
 30
0.0
 10
72.1868292843
 20
43.8087349839
 30
0.0
 10
74.9108018992
 20
43.808053346
 30
0.0
  0
SPLINE
  5
3C1
100
AcDbEntity
  8
RACCORDO
100
AcDbSpline
 62
250
  6
CONTINUOUS
 70
0
 71
3
 72
8
 73
4
 74
0
 42
0.0000001
 43
0.0000001
 44
0.0000000001
 40
0.0
 40
0.0
 40
0.0
 40
0.0
 40
1.0
 40
1.0
 40
1.0
 40
1.0
 10
74.9108018992
 20
43.808053346
 30
0.0
 10
78.626035965
 20
43.807123658
 30
0.0
 10
82.3412701762
 20
43.8066588858
 30
0.0
 10
86.0565043583
 20
43.8066588858
 30
0.0
  0
SPLINE
  5
3C2
100
AcDbEntity
  8
RACCORDO
100
AcDbSpline
 62
250
  6
CONTINUOUS
 70
0
 71
3
 72
8
 73
4
 74
0
 42
0.0000001
 43
0.0000001
 44
0.0000000001
 40
0.0
 40
0.0
 40
0.0
 40
0.0
 40
1.0
 40
1.0
 40
1.0
 40
1.0
 10
86.0565043583
 20
43.8066588858
 30
0.0
 10
89.7717385404
 20
43.8066588858
 30
0.0
 10
93.4869727516
 20
43.807123658
 30
0.0
 10
97.2022068174
 20
43.808053346
 30
0.0
  0
SPLINE
  5
3C3
100
AcDbEntity
  8
RACCORDO
100
AcDbSpline
 62
250
  6
CONTINUOUS
 70
0
 71
3
 72
9
 73
5
 74
0
 42
0.0000001
 43
0.0000001
 44
0.0000000001
 40
0.0
 40
0.0
 40
0.0
 40
0.0
 40
0.2500263265
 40
1.0
 40
1.0
 40
1.0
 40
1.0
 10
97.2022068174
 20
43.808053346
 30
0.0
 10
98.1102578038
 20
43.8082805737
 30
0.0
 10
101.7420792683
 20
43.8093004767
 30
0.0
 10
105.3739006083
 20
43.8107632773
 30
0.0
 10
108.0976708687
 20
43.8121073161
 30
0.0
  0
SPLINE
  5
3C4
100
AcDbEntity
  8
RACCORDO
100
AcDbSpline
 62
250
  6
CONTINUOUS
 70
0
 71
3
 72
9
 73
5
 74
0
 42
0.0000001
 43
0.0000001
 44
0.0000000001
 40
0.0
 40
0.0
 40
0.0
 40
0.0
 40
0.2498451627
 40
1.0
 40
1.0
 40
1.0
 40
1.0
 10
63.5150322432
 20
88.3947459417
 30
0.0
 10
63.5132824204
 20
86.5590885032
 30
0.0
 10
63.5076729626
 20
79.2119069696
 30
0.0
 10
63.5058147949
 20
71.8647229638
 30
0.0
 10
63.5058148016
 20
66.3531976741
 30
0.0
  0
SPLINE
  5
3C5
100
AcDbEntity
  8
RACCORDO
100
AcDbSpline
 62
250
  6
CONTINUOUS
 70
0
 71
3
 72
9
 73
5
 74
0
 42
0.0000001
 43
0.0000001
 44
0.0000000001
 40
0.0
 40
0.0
 40
0.0
 40
0.0
 40
0.2500954595
 40
1.0
 40
1.0
 40
1.0
 40
1.0
 10
63.5058148016
 20
66.3531976741
 30
0.0
 10
63.5058148019
 20
64.515700434
 30
0.0
 10
63.5065594356
 20
57.1685170078
 30
0.0
 10
63.5097801975
 20
49.821333189
 30
0.0
 10
63.5150322432
 20
44.3116494066
 30
0.0
  0
SPLINE
  5
3C6
100
AcDbEntity
  8
RACCORDO
100
AcDbSpline
 62
250
  6
CONTINUOUS
 70
0
 71
3
 72
9
 73
5
 74
0
 42
0.0000001
 43
0.0000001
 44
0.0000000001
 40
0.0
 40
0.0
 40
0.0
 40
0.0
 40
0.2499706772
 40
1.0
 40
1.0
 40
1.0
 40
1.0
 10
108.0976708687
 20
88.8942880321
 30
0.0
 10
107.1898220726
 20
88.8947360083
 30
0.0
 10
103.5580008546
 20
88.8964183473
 30
0.0
 10
99.9261794323
 20
88.8976603643
 30
0.0
 10
97.2022068174
 20
88.8983420023
 30
0.0
  0
SPLINE
  5
3C7
100
AcDbEntity
  8
RACCORDO
100
AcDbSpline
 62
250
  6
CONTINUOUS
 70
0
 71
3
 72
8
 73
4
 74
0
 42
0.0000001
 43
0.0000001
 44
0.0000000001
 40
0.0
 40
0.0
 40
0.0
 40
0.0
 40
1.0
 40
1.0
 40
1.0
 40
1.0
 10
97.2022068174
 20
88.8983420023
 30
0.0
 10
93.4869727516
 20
88.8992716902
 30
0.0
 10
89.7717385404
 20
88.8997364624
 30
0.0
 10
86.0565043583
 20
88.8997364624
 30
0.0
  0
SPLINE
  5
3C8
100
AcDbEntity
  8
RACCORDO
100
AcDbSpline
 62
250
  6
CONTINUOUS
 70
0
 71
3
 72
8
 73
4
 74
0
 42
0.0000001
 43
0.0000001
 44
0.0000000001
 40
0.0
 40
0.0
 40
0.0
 40
0.0
 40
1.0
 40
1.0
 40
1.0
 40
1.0
 10
86.0565043583
 20
88.8997364624
 30
0.0
 10
82.3412701762
 20
88.8997364624
 30
0.0
 10
78.626035965
 20
88.8992716902
 30
0.0
 10
74.9108018992
 20
88.8983420023
 30
0.0
  0
SPLINE
  5
3C9
100
AcDbEntity
  8
RACCORDO
100
AcDbSpline
 62
250
  6
CONTINUOUS
 70
0
 71
3
 72
9
 73
5
 74
0
 42
0.0000001
 43
0.0000001
 44
0.0000000001
 40
0.0
 40
0.0
 40
0.0
 40
0.0
 40
0.2500263265
 40
1.0
 40
1.0
 40
1.0
 40
1.0
 10
74.9108018992
 20
88.8983420023
 30
0.0
 10
74.0027509128
 20
88.8981147746
 30
0.0
 10
70.3709294483
 20
88.8970948715
 30
0.0
 10
66.7391081083
 20
88.8956320709
 30
0.0
 10
64.0153378479
 20
88.8942880321
 30
0.0
  0
SPLINE
  5
3CA
100
AcDbEntity
  8
RACCORDO
100
AcDbSpline
 62
250
  6
CONTINUOUS
 70
0
 71
3
 72
9
 73
5
 74
0
 42
0.0000001
 43
0.0000001
 44
0.0000000001
 40
0.0
 40
0.0
 40
0.0
 40
0.0
 40
0.2498451627
 40
1.0
 40
1.0
 40
1.0
 40
1.0
 10
108.5979764734
 20
44.3116494066
 30
0.0
 10
108.5997262962
 20
46.1473068451
 30
0.0
 10
108.605335754
 20
53.4944883786
 30
0.0
 10
108.6071939217
 20
60.8416723844
 30
0.0
 10
108.607193915
 20
66.3531976741
 30
0.0
  0
SPLINE
  5
3CB
100
AcDbEntity
  8
RACCORDO
100
AcDbSpline
 62
250
  6
CONTINUOUS
 70
0
 71
3
 72
9
 73
5
 74
0
 42
0.0000001
 43
0.0000001
 44
0.0000000001
 40
0.0
 40
0.0
 40
0.0
 40
0.0
 40
0.2500954595
 40
1.0
 40
1.0
 40
1.0
 40
1.0
 10
108.607193915
 20
66.3531976741
 30
0.0
 10
108.6071939147
 20
68.1906949142
 30
0.0
 10
108.606449281
 20
75.5378783404
 30
0.0
 10
108.6032285191
 20
82.8850621593
 30
0.0
 10
108.5979764734
 20
88.3947459417
 30
0.0
  0
SPLINE
  5
3CC
100
AcDbEntity
  8
0
100
AcDbSpline
 62
7
  6
CONTINUOUS
 70
0
 71
3
 72
9
 73
5
 74
0
 42
0.0000001
 43
0.0000001
 44
0.0000000001
 40
0.0
 40
0.0
 40
0.0
 40
0.0
 40
0.5
 40
1.0
 40
1.0
 40
1.0
 40
1.0
 10
191.3095092079
 20
66.3531976741
 30
0.0
 10
191.3095092079
 20
62.6257088452
 30
0.0
 10
191.2267934524
 20
55.1648269486
 30
0.0
 10
190.9696547146
 20
47.7320938283
 30
0.0
 10
190.7612618607
 20
44.0331976741
 30
0.0
  0
SPLINE
  5
3CD
100
AcDbEntity
  8
0
100
AcDbSpline
 62
7
  6
CONTINUOUS
 70
0
 71
3
 72
9
 73
5
 74
0
 42
0.0000001
 43
0.0000001
 44
0.0000000001
 40
0.0
 40
0.0
 40
0.0
 40
0.0
 40
0.5
 40
1.0
 40
1.0
 40
1.0
 40
1.0
 10
191.3095092079
 20
66.3531976741
 30
0.0
 10
191.3095092079
 20
70.0806865031
 30
0.0
 10
191.2267934524
 20
77.5415683997
 30
0.0
 10
190.9696547146
 20
84.97430152
 30
0.0
 10
190.7612618607
 20
88.6731976742
 30
0.0
  0
SPLINE
  5
3CE
100
AcDbEntity
  8
SUPERFICI
100
AcDbSpline
 62
7
  6
CONTINUOUS
 70
0
 71
3
 72
10
 73
6
 74
0
 42
0.0000001
 43
0.0000001
 44
0.0000000001
 40
0.0
 40
0.0
 40
0.0
 40
0.0
 40
0.5851463504
 40
0.8143610959
 40
1.0
 40
1.0
 40
1.0
 40
1.0
 10
189.0014193162
 20
108.7347117829
 30
0.0
 10
189.0014157286
 20
108.8289317737
 30
0.0
 10
189.0032649344
 20
108.9601354156
 30
0.0
 10
189.0138860736
 20
109.1208294725
 30
0.0
 10
189.0214871569
 20
109.1872514374
 30
0.0
 10
189.0261661283
 20
109.2167744514
 30
0.0
  0
SPLINE
  5
3CF
100
AcDbEntity
  8
SUPERFICI
100
AcDbSpline
 62
7
  6
CONTINUOUS
 70
0
 71
3
 72
11
 73
7
 74
0
 42
0.0000001
 43
0.0000001
 44
0.0000000001
 40
0.0
 40
0.0
 40
0.0
 40
0.0
 40
0.3924150725
 40
0.5504326348
 40
0.6836279585
 40
1.0
 40
1.0
 40
1.0
 40
1.0
 10
189.0261661283
 20
109.2167744514
 30
0.0
 10
189.0293297351
 20
109.2367359339
 30
0.0
 10
189.0344556998
 20
109.2644943447
 30
0.0
 10
189.0442574191
 20
109.2987654196
 30
0.0
 10
189.0544996588
 20
109.3269223256
 30
0.0
 10
189.07071748
 20
109.3531976741
 30
0.0
 10
189.0870116435
 20
109.3531976741
 30
0.0
  0
SPLINE
  5
3D0
100
AcDbEntity
  8
0
100
AcDbSpline
 62
7
  6
CONTINUOUS
 70
0
 71
3
 72
10
 73
6
 74
0
 42
0.0000001
 43
0.0000001
 44
0.0000000001
 40
0.0
 40
0.0
 40
0.0
 40
0.0
 40
0.5851463504
 40
0.8143610959
 40
1.0
 40
1.0
 40
1.0
 40
1.0
 10
189.0014193162
 20
23.9716835654
 30
0.0
 10
189.0014157286
 20
23.8774635745
 30
0.0
 10
189.0032649344
 20
23.7462599326
 30
0.0
 10
189.0138860736
 20
23.5855658758
 30
0.0
 10
189.0214871569
 20
23.5191439109
 30
0.0
 10
189.0261661283
 20
23.4896208969
 30
0.0
  0
SPLINE
  5
3D1
100
AcDbEntity
  8
0
100
AcDbSpline
 62
7
  6
CONTINUOUS
 70
0
 71
3
 72
11
 73
7
 74
0
 42
0.0000001
 43
0.0000001
 44
0.0000000001
 40
0.0
 40
0.0
 40
0.0
 40
0.0
 40
0.3924150725
 40
0.5504326348
 40
0.6836279585
 40
1.0
 40
1.0
 40
1.0
 40
1.0
 10
189.0261661283
 20
23.4896208969
 30
0.0
 10
189.0293297351
 20
23.4696594143
 30
0.0
 10
189.0344556998
 20
23.4419010036
 30
0.0
 10
189.0442574191
 20
23.4076299287
 30
0.0
 10
189.0544996588
 20
23.3794730226
 30
0.0
 10
189.07071748
 20
23.3531976741
 30
0.0
 10
189.0870116435
 20
23.3531976741
 30
0.0
  0
SPLINE
  5
3D2
100
AcDbEntity
  8
0
100
AcDbSpline
 62
7
  6
CONTINUOUS
 70
0
 71
3
 72
11
 73
7
 74
0
 42
0.0000001
 43
0.0000001
 44
0.0000000001
 40
0.0
 40
0.0
 40
0.0
 40
0.0
 40
0.3835074741
 40
0.6870174786
 40
0.8970681346
 40
1.0
 40
1.0
 40
1.0
 40
1.0
 10
196.3850233626
 20
40.6227809592
 30
0.0
 10
196.3851497232
 20
40.6264974743
 30
0.0
 10
196.3853357035
 20
40.6331489597
 30
0.0
 10
196.3855823075
 20
40.6418694952
 30
0.0
 10
196.3854376362
 20
40.6477985313
 30
0.0
 10
196.3854949652
 20
40.650899078
 30
0.0
 10
196.385194609
 20
40.6518508858
 30
0.0
  0
SPLINE
  5
3D3
100
AcDbEntity
  8
RACCORDO
100
AcDbSpline
 62
250
  6
CONTINUOUS
 70
0
 71
3
 72
9
 73
5
 74
0
 42
0.0000001
 43
0.0000001
 44
0.0000000001
 40
0.0
 40
0.0
 40
0.0
 40
0.0
 40
0.2770782636
 40
1.0
 40
1.0
 40
1.0
 40
1.0
 10
196.1797495421
 20
43.7697333994
 30
0.0
 10
196.179352294
 20
43.7570634057
 30
0.0
 10
196.1779898063
 20
43.7113342364
 30
0.0
 10
196.1769071171
 20
43.6655955356
 30
0.0
 10
196.1764250806
 20
43.6325256682
 30
0.0
  0
SPLINE
  5
3D4
100
AcDbEntity
  8
RACCORDO
100
AcDbSpline
 62
250
  6
CONTINUOUS
 70
0
 71
3
 72
14
 73
10
 74
0
 42
0.0000001
 43
0.0000001
 44
0.0000000001
 40
0.0
 40
0.0
 40
0.0
 40
0.0
 40
0.427639003
 40
0.5988360087
 40
0.7402745886
 40
0.851283578
 40
0.931301387
 40
0.9802687372
 40
1.0
 40
1.0
 40
1.0
 40
1.0
 10
196.1764250806
 20
43.6325256682
 30
0.0
 10
196.1761376355
 20
43.6128056451
 30
0.0
 10
196.1758794651
 20
43.5851695469
 30
0.0
 10
196.1761280618
 20
43.5510691075
 30
0.0
 10
196.1765837678
 20
43.5314514985
 30
0.0
 10
196.1772465018
 20
43.5163509212
 30
0.0
 10
196.1782385622
 20
43.504815339
 30
0.0
 10
196.1791803606
 20
43.4989457688
 30
0.0
 10
196.1804154903
 20
43.4948722634
 30
0.0
 10
196.1813253031
 20
43.4948548978
 30
0.0
  0
SPLINE
  5
3D5
100
AcDbEntity
  8
RACCORDO
100
AcDbSpline
 62
250
  6
CONTINUOUS
 70
0
 71
3
 72
17
 73
13
 74
0
 42
0.0000001
 43
0.0000001
 44
0.0000000001
 40
0.0
 40
0.0
 40
0.0
 40
0.0
 40
0.0118210631
 40
0.0276310291
 40
0.049929772
 40
0.0795753421
 40
0.1618035517
 40
0.2746044363
 40
0.4168698468
 40
0.5868051643
 40
0.7820920165
 40
1.0
 40
1.0
 40
1.0
 40
1.0
 10
192.3901663053
 20
24.038159268
 30
0.0
 10
192.3847643352
 20
24.0380861649
 30
0.0
 10
192.3721027931
 20
24.0434016092
 30
0.0
 10
192.3588086463
 20
24.0626004725
 30
0.0
 10
192.3471447913
 20
24.0913333593
 30
0.0
 10
192.332103877
 20
24.1509484553
 30
0.0
 10
192.3195515038
 20
24.2530863794
 30
0.0
 10
192.3113454048
 20
24.4070461522
 30
0.0
 10
192.3097716729
 20
24.601333909
 30
0.0
 10
192.3147736402
 20
24.833229203
 30
0.0
 10
192.3263921693
 20
25.0994964121
 30
0.0
 10
192.3378397153
 20
25.2879954117
 30
0.0
 10
192.3445372311
 20
25.3873582968
 30
0.0
  0
SPLINE
  5
3D6
100
AcDbEntity
  8
RACCORDO
100
AcDbSpline
 62
250
  6
CONTINUOUS
 70
0
 71
3
 72
9
 73
5
 74
0
 42
0.0000001
 43
0.0000001
 44
0.0000000001
 40
0.0
 40
0.0
 40
0.0
 40
0.0
 40
0.4742878445
 40
1.0
 40
1.0
 40
1.0
 40
1.0
 10
192.3445372311
 20
25.3873582968
 30
0.0
 10
192.3653447282
 20
25.6960537868
 30
0.0
 10
192.4220035589
 20
26.3460497749
 30
0.0
 10
192.4946869658
 20
26.9943811071
 30
0.0
 10
192.5367229356
 20
27.3347370711
 30
0.0
  0
SPLINE
  5
3D7
100
AcDbEntity
  8
RACCORDO
100
AcDbSpline
 62
250
  6
CONTINUOUS
 70
0
 71
3
 72
9
 73
5
 74
0
 42
0.0000001
 43
0.0000001
 44
0.0000000001
 40
0.0
 40
0.0
 40
0.0
 40
0.0
 40
0.5000054754
 40
1.0
 40
1.0
 40
1.0
 40
1.0
 10
196.7317490009
 20
66.2890057031
 30
0.0
 10
196.731286503
 20
62.6301460862
 30
0.0
 10
196.6509925361
 20
55.3125201351
 30
0.0
 10
196.404740722
 20
47.9975642457
 30
0.0
 10
196.2059061071
 20
44.3441915148
 30
0.0
  0
LINE
  5
3D8
100
AcDbEntity
  8
RACCORDO
100
AcDbLine
 62
250
  6
CONTINUOUS
 10
196.1828248811
 20
43.8588633526
 30
0.0
 11
196.1826142873
 21
43.8531976741
 31
0.0
  0
SPLINE
  5
3D9
100
AcDbEntity
  8
RACCORDO
100
AcDbSpline
 62
250
  6
CONTINUOUS
 70
0
 71
3
 72
9
 73
5
 74
0
 42
0.0000001
 43
0.0000001
 44
0.0000000001
 40
0.0
 40
0.0
 40
0.0
 40
0.0
 40
0.4999721102
 40
1.0
 40
1.0
 40
1.0
 40
1.0
 10
194.0273586949
 20
44.0189338952
 30
0.0
 10
194.2344349293
 20
47.7367667656
 30
0.0
 10
194.4893483741
 20
55.1815895603
 30
0.0
 10
194.5713882946
 20
62.6291869677
 30
0.0
 10
194.5713882946
 20
66.3531976741
 30
0.0
  0
SPLINE
  5
3DA
100
AcDbEntity
  8
RACCORDO
100
AcDbSpline
 62
250
  6
CONTINUOUS
 70
0
 71
3
 72
8
 73
4
 74
0
 42
0.0000001
 43
0.0000001
 44
0.0000000001
 40
0.0
 40
0.0
 40
0.0
 40
0.0
 40
1.0
 40
1.0
 40
1.0
 40
1.0
 10
189.2539567406
 20
105.3536976709
 30
0.0
 10
190.2632511333
 20
105.3494603457
 30
0.0
 10
191.2725432482
 20
105.3446782778
 30
0.0
 10
192.2818340996
 20
105.3396679531
 30
0.0
  0
SPLINE
  5
3DB
100
AcDbEntity
  8
SUPERFICI
100
AcDbSpline
 62
7
  6
CONTINUOUS
 70
0
 71
3
 72
12
 73
8
 74
0
 42
0.0000001
 43
0.0000001
 44
0.0000000001
 40
0.0
 40
0.0
 40
0.0
 40
0.0
 40
0.2963750594
 40
0.5727195211
 40
0.8120880729
 40
0.9132581531
 40
1.0
 40
1.0
 40
1.0
 40
1.0
 10
189.2539567406
 20
105.3536976709
 30
0.0
 10
189.2154175648
 20
105.6865571689
 30
0.0
 10
189.1470179384
 20
106.3305061502
 30
0.0
 10
189.0680877132
 20
107.2453056729
 30
0.0
 10
189.0234102104
 20
107.9414309356
 30
0.0
 10
189.004946214
 20
108.4241862019
 30
0.0
 10
189.0014230504
 20
108.6366410113
 30
0.0
 10
189.0014193162
 20
108.7347117829
 30
0.0
  0
SPLINE
  5
3DC
100
AcDbEntity
  8
RACCORDO
100
AcDbSpline
 62
250
  6
CONTINUOUS
 70
0
 71
3
 72
23
 73
19
 74
0
 42
0.0000001
 43
0.0000001
 44
0.0000000001
 40
0.0
 40
0.0
 40
0.0
 40
0.0
 40
0.1938163534
 40
0.3803177317
 40
0.552353254
 40
0.7032044238
 40
0.7688049997
 40
0.8269803904
 40
0.877173827
 40
0.9189351229
 40
0.9365462374
 40
0.9519375018
 40
0.9650921193
 40
0.9760182994
 40
0.984753943
 40
0.9914033126
 40
0.9962452927
 40
1.0
 40
1.0
 40
1.0
 40
1.0
 10
192.2818340996
 20
105.3396679531
 30
0.0
 10
192.2555339336
 20
105.571717392
 30
0.0
 10
192.2068757068
 20
106.0273985547
 30
0.0
 10
192.1452898269
 20
106.6901139803
 30
0.0
 10
192.098091481
 20
107.3020989241
 30
0.0
 10
192.0711675981
 20
107.76947549
 30
0.0
 10
192.0593463775
 20
108.1001831421
 30
0.0
 10
192.0555866112
 20
108.3097860862
 30
0.0
 10
192.0565469241
 20
108.4906963716
 30
0.0
 10
192.0614210757
 20
108.6226675274
 30
0.0
 10
192.0682103676
 20
108.7125083615
 30
0.0
 10
192.0741752488
 20
108.7678144193
 30
0.0
 10
192.0812726899
 20
108.8148660596
 30
0.0
 10
192.0894747753
 20
108.8535690827
 30
0.0
 10
192.0987118193
 20
108.8839861187
 30
0.0
 10
192.1090717402
 20
108.9061198903
 30
0.0
 10
192.120761911
 20
108.9208226952
 30
0.0
 10
192.1311567784
 20
108.9247963842
 30
0.0
 10
192.1356809236
 20
108.924785319
 30
0.0
  0
LINE
  5
3DD
100
AcDbEntity
  8
RACCORDO
100
AcDbLine
 62
250
  6
CONTINUOUS
 10
192.3282062751
 20
104.9619976741
 30
0.0
 11
192.2819033664
 21
105.3396676208
 31
0.0
  0
SPLINE
  5
3DE
100
AcDbEntity
  8
RACCORDO
100
AcDbSpline
 62
250
  6
CONTINUOUS
 70
0
 71
3
 72
9
 73
5
 74
0
 42
0.0000001
 43
0.0000001
 44
0.0000000001
 40
0.0
 40
0.0
 40
0.0
 40
0.0
 40
0.5000054056
 40
1.0
 40
1.0
 40
1.0
 40
1.0
 10
194.3142975995
 20
66.3531976741
 30
0.0
 10
194.3142959988
 20
70.0746618705
 30
0.0
 10
194.2323739126
 20
77.5175016636
 30
0.0
 10
193.9776803385
 20
84.9575695818
 30
0.0
 10
193.7707872549
 20
88.6731976742
 30
0.0
  0
LINE
  5
3DF
100
AcDbEntity
  8
RACCORDO
100
AcDbLine
 62
250
  6
CONTINUOUS
 10
193.7707872549
 20
88.6731976742
 30
0.0
 11
193.7615151661
 21
88.8387687691
 31
0.0
  0
SPLINE
  5
3E0
100
AcDbEntity
  8
RACCORDO
100
AcDbSpline
 62
250
  6
CONTINUOUS
 70
0
 71
3
 72
9
 73
5
 74
0
 42
0.0000001
 43
0.0000001
 44
0.0000000001
 40
0.0
 40
0.0
 40
0.0
 40
0.0
 40
0.5000000059
 40
1.0
 40
1.0
 40
1.0
 40
1.0
 10
187.139502246
 20
66.3531976741
 30
0.0
 10
187.1395022443
 20
70.1023862615
 30
0.0
 10
187.1387337468
 20
77.6007633006
 30
0.0
 10
187.1362303799
 20
85.0991402736
 30
0.0
 10
187.1337402803
 20
88.8483279462
 30
0.0
  0
SPLINE
  5
3E1
100
AcDbEntity
  8
RACCORDO
100
AcDbSpline
 62
250
  6
CONTINUOUS
 70
0
 71
3
 72
11
 73
7
 74
0
 42
0.0000001
 43
0.0000001
 44
0.0000000001
 40
0.0
 40
0.0
 40
0.0
 40
0.0
 40
0.2500000174
 40
0.5000000182
 40
0.7500000213
 40
1.0
 40
1.0
 40
1.0
 40
1.0
 10
187.1337402803
 20
88.8483279462
 30
0.0
 10
187.1328445653
 20
90.1964506883
 30
0.0
 10
187.1304304289
 20
92.8926956999
 30
0.0
 10
187.1245950022
 20
96.9370607984
 30
0.0
 10
187.1174687426
 20
100.9814224773
 30
0.0
 10
187.1131015303
 20
103.6776667083
 30
0.0
 10
187.1085377107
 20
105.0257818142
 30
0.0
  0
SPLINE
  5
3E2
100
AcDbEntity
  8
RACCORDO
100
AcDbSpline
 62
250
  6
CONTINUOUS
 70
0
 71
3
 72
29
 73
25
 74
0
 42
0.0000001
 43
0.0000001
 44
0.0000000001
 40
0.0
 40
0.0
 40
0.0
 40
0.0
 40
0.1948093588
 40
0.3821956775
 40
0.4708452949
 40
0.554976309
 40
0.6337734723
 40
0.7064787396
 40
0.7723933714
 40
0.8308798709
 40
0.8813698964
 40
0.903461039
 40
0.9233784153
 40
0.9410759231
 40
0.9565137245
 40
0.9696581913
 40
0.9804790507
 40
0.9889471551
 40
0.9922895022
 40
0.9950329689
 40
0.9971752176
 40
0.9987146372
 40
0.9996538996
 40
1.0
 40
1.0
 40
1.0
 40
1.0
 10
187.107339884
 20
105.353249568
 30
0.0
 10
187.1066470233
 20
105.528196998
 30
0.0
 10
187.1053275811
 20
105.8714257948
 30
0.0
 10
187.1037136624
 20
106.2942659593
 30
0.0
 10
187.1025868903
 20
106.6177124058
 30
0.0
 10
187.1018611044
 20
106.8436410149
 30
0.0
 10
187.1012663159
 20
107.0552511134
 30
0.0
 10
187.1008293356
 20
107.2505023188
 30
0.0
 10
187.100565576
 20
107.4275138039
 30
0.0
 10
187.1004733894
 20
107.5845750372
 30
0.0
 10
187.1005287255
 20
107.7022805396
 30
0.0
 10
187.1006572598
 20
107.7853489051
 30
0.0
 10
187.1007848634
 20
107.8389677932
 30
0.0
 10
187.1009460721
 20
107.8866117021
 30
0.0
 10
187.101140383
 20
107.9281724593
 30
0.0
 10
187.1013622144
 20
107.9635590354
 30
0.0
 10
187.1016155101
 20
107.9926814612
 30
0.0
 10
187.1018440761
 20
108.0130120959
 30
0.0
 10
187.1020679599
 20
108.0260685207
 30
0.0
 10
187.1021870115
 20
108.033481757
 30
0.0
 10
187.1024136582
 20
108.0391838081
 30
0.0
 10
187.1023915477
 20
108.0434820479
 30
0.0
 10
187.1028473711
 20
108.0457431528
 30
0.0
 10
187.1026299906
 20
108.0471900438
 30
0.0
 10
187.1028922536
 20
108.047356851
 30
0.0
  0
SPLINE
  5
3E3
100
AcDbEntity
  8
RACCORDO
100
AcDbSpline
 62
250
  6
CONTINUOUS
 70
0
 71
3
 72
14
 73
10
 74
0
 42
0.0000001
 43
0.0000001
 44
0.0000000001
 40
0.0
 40
0.0
 40
0.0
 40
0.0
 40
0.019900061
 40
0.0688502579
 40
0.1487663277
 40
0.2596300829
 40
0.4009366871
 40
0.5720665271
 40
1.0
 40
1.0
 40
1.0
 40
1.0
 10
196.1813253031
 20
89.2115404504
 30
0.0
 10
196.1804574444
 20
89.2115241201
 30
0.0
 10
196.1792244344
 20
89.2077072161
 30
0.0
 10
196.1783177886
 20
89.2021272805
 30
0.0
 10
196.177323658
 20
89.1912505279
 30
0.0
 10
196.1766581186
 20
89.1769789706
 30
0.0
 10
196.1761791572
 20
89.158443942
 30
0.0
 10
196.1758775431
 20
89.1261870015
 30
0.0
 10
196.1760780733
 20
89.1000392697
 30
0.0
 10
196.1763213511
 20
89.0813750058
 30
0.0
  0
SPLINE
  5
3E4
100
AcDbEntity
  8
RACCORDO
100
AcDbSpline
 62
250
  6
CONTINUOUS
 70
0
 71
3
 72
9
 73
5
 74
0
 42
0.0000001
 43
0.0000001
 44
0.0000000001
 40
0.0
 40
0.0
 40
0.0
 40
0.0
 40
0.2200454161
 40
1.0
 40
1.0
 40
1.0
 40
1.0
 10
196.1763213511
 20
89.0813750058
 30
0.0
 10
196.1764562499
 20
89.0710255731
 30
0.0
 10
196.1772259399
 20
89.023994451
 30
0.0
 10
196.178496933
 20
88.9769727251
 30
0.0
 10
196.1796359153
 20
88.9403035596
 30
0.0
  0
SPLINE
  5
3E5
100
AcDbEntity
  8
RACCORDO
100
AcDbSpline
 62
250
  6
CONTINUOUS
 70
0
 71
3
 72
9
 73
5
 74
0
 42
0.0000001
 43
0.0000001
 44
0.0000000001
 40
0.0
 40
0.0
 40
0.0
 40
0.0
 40
0.5282664385
 40
1.0
 40
1.0
 40
1.0
 40
1.0
 10
192.5367229356
 20
105.3716582772
 30
0.0
 10
192.492818476
 20
105.7271425588
 30
0.0
 10
192.4176024945
 20
106.4010568617
 30
0.0
 10
192.3598495878
 20
107.0767806921
 30
0.0
 10
192.339488124
 20
107.3959857002
 30
0.0
  0
SPLINE
  5
3E6
100
AcDbEntity
  8
RACCORDO
100
AcDbSpline
 62
250
  6
CONTINUOUS
 70
0
 71
3
 72
19
 73
15
 74
0
 42
0.0000001
 43
0.0000001
 44
0.0000000001
 40
0.0
 40
0.0
 40
0.0
 40
0.0
 40
0.2185316679
 40
0.4139454615
 40
0.5836835475
 40
0.7255851191
 40
0.7855639678
 40
0.8380170301
 40
0.8828435882
 40
0.9200075981
 40
0.9496020174
 40
0.971931083
 40
0.9878927212
 40
1.0
 40
1.0
 40
1.0
 40
1.0
 10
192.339488124
 20
107.3959857002
 30
0.0
 10
192.3334874514
 20
107.4900577552
 30
0.0
 10
192.3233246812
 20
107.6683308708
 30
0.0
 10
192.3133679237
 20
107.9199221597
 30
0.0
 10
192.3096513371
 20
108.1386262719
 30
0.0
 10
192.3118063512
 20
108.2989554628
 30
0.0
 10
192.31732346
 20
108.4085367046
 30
0.0
 10
192.322811423
 20
108.4761589456
 30
0.0
 10
192.3298304065
 20
108.5337521999
 30
0.0
 10
192.3383609923
 20
108.581141292
 30
0.0
 10
192.3482811113
 20
108.618378074
 30
0.0
 10
192.3597095299
 20
108.6453946266
 30
0.0
 10
192.3727721546
 20
108.663413961
 30
0.0
 10
192.3849443287
 20
108.6683066344
 30
0.0
 10
192.3901663053
 20
108.6682360803
 30
0.0
  0
SPLINE
  5
3E7
100
AcDbEntity
  8
RACCORDO
100
AcDbSpline
 62
250
  6
CONTINUOUS
 70
0
 71
3
 72
9
 73
5
 74
0
 42
0.0000001
 43
0.0000001
 44
0.0000000001
 40
0.0
 40
0.0
 40
0.0
 40
0.0
 40
0.5000278898
 40
1.0
 40
1.0
 40
1.0
 40
1.0
 10
194.571386069
 20
66.3531976741
 30
0.0
 10
194.571386069
 20
70.0772083598
 30
0.0
 10
194.4893461493
 20
77.5248057259
 30
0.0
 10
194.2344327076
 20
84.9696284792
 30
0.0
 10
194.0273564762
 20
88.6874613291
 30
0.0
  0
SPLINE
  5
3E8
100
AcDbEntity
  8
RACCORDO
100
AcDbSpline
 62
250
  6
CONTINUOUS
 70
0
 71
3
 72
9
 73
5
 74
0
 42
0.0000001
 43
0.0000001
 44
0.0000000001
 40
0.0
 40
0.0
 40
0.0
 40
0.0
 40
0.4999945572
 40
1.0
 40
1.0
 40
1.0
 40
1.0
 10
196.206007026
 20
88.3603494686
 30
0.0
 10
196.4047876447
 20
84.7074979552
 30
0.0
 10
196.6510093071
 20
77.3935896237
 30
0.0
 10
196.7312772649
 20
70.0770106852
 30
0.0
 10
196.7317488391
 20
66.4186749406
 30
0.0
  0
SPLINE
  5
3E9
100
AcDbEntity
  8
RACCORDO
100
AcDbSpline
 62
250
  6
CONTINUOUS
 70
0
 71
3
 72
8
 73
4
 74
0
 42
0.0000001
 43
0.0000001
 44
0.0000000001
 40
0.0
 40
0.0
 40
0.0
 40
0.0
 40
1.0
 40
1.0
 40
1.0
 40
1.0
 10
189.2539567406
 20
27.3526976773
 30
0.0
 10
190.2632511327
 20
27.3569350026
 30
0.0
 10
191.2725432471
 20
27.3617170704
 30
0.0
 10
192.2818340979
 20
27.3667273951
 30
0.0
  0
SPLINE
  5
3EA
100
AcDbEntity
  8
RACCORDO
100
AcDbSpline
 62
250
  6
CONTINUOUS
 70
0
 71
3
 72
23
 73
19
 74
0
 42
0.0000001
 43
0.0000001
 44
0.0000000001
 40
0.0
 40
0.0
 40
0.0
 40
0.0
 40
0.0037546272
 40
0.0085961158
 40
0.0152447181
 40
0.0239787588
 40
0.0349026271
 40
0.0480556117
 40
0.0634447977
 40
0.0810532598
 40
0.1228117567
 40
0.1730026548
 40
0.2311744862
 40
0.2967727581
 40
0.4476201358
 40
0.6196548467
 40
0.8061681915
 40
1.0
 40
1.0
 40
1.0
 40
1.0
 10
192.1356809236
 20
23.7816100293
 30
0.0
 10
192.1311568742
 20
23.7815989147
 30
0.0
 10
192.1207624422
 20
23.7855712561
 30
0.0
 10
192.1090720359
 20
23.8002720658
 30
0.0
 10
192.0987142106
 20
23.8224030558
 30
0.0
 10
192.0894781823
 20
23.8528143947
 30
0.0
 10
192.0812759721
 20
23.8915106028
 30
0.0
 10
192.0741795583
 20
23.9385550704
 30
0.0
 10
192.0682139281
 20
23.9938533241
 30
0.0
 10
192.061422652
 20
24.0836849464
 30
0.0
 10
192.0565489506
 20
24.2156465442
 30
0.0
 10
192.055586613
 20
24.3965461023
 30
0.0
 10
192.0593439224
 20
24.6061390268
 30
0.0
 10
192.0711635758
 20
24.9368351632
 30
0.0
 10
192.0980842632
 20
25.4042036761
 30
0.0
 10
192.1452828338
 20
26.0161976429
 30
0.0
 10
192.2068703404
 20
26.6789452568
 30
0.0
 10
192.2555319106
 20
27.1346593944
 30
0.0
 10
192.2818340979
 20
27.3667273951
 30
0.0
  0
SPLINE
  5
3EB
100
AcDbEntity
  8
0
100
AcDbSpline
 62
7
  6
CONTINUOUS
 70
0
 71
3
 72
12
 73
8
 74
0
 42
0.0000001
 43
0.0000001
 44
0.0000000001
 40
0.0
 40
0.0
 40
0.0
 40
0.0
 40
0.2963750594
 40
0.5727195211
 40
0.8120880729
 40
0.9132581531
 40
1.0
 40
1.0
 40
1.0
 40
1.0
 10
189.2539567406
 20
27.3526976773
 30
0.0
 10
189.2154175648
 20
27.0198381793
 30
0.0
 10
189.1470179384
 20
26.3758891981
 30
0.0
 10
189.0680877132
 20
25.4610896754
 30
0.0
 10
189.0234102104
 20
24.7649644126
 30
0.0
 10
189.004946214
 20
24.2822091464
 30
0.0
 10
189.0014230504
 20
24.069754337
 30
0.0
 10
189.0014193162
 20
23.9716835654
 30
0.0
  0
LINE
  5
3EC
100
AcDbEntity
  8
RACCORDO
100
AcDbLine
 62
250
  6
CONTINUOUS
 10
192.2819033665
 20
27.3667277274
 30
0.0
 11
192.3282062751
 21
27.7443976741
 31
0.0
  0
SPLINE
  5
3ED
100
AcDbEntity
  8
RACCORDO
100
AcDbSpline
 62
250
  6
CONTINUOUS
 70
0
 71
3
 72
9
 73
5
 74
0
 42
0.0000001
 43
0.0000001
 44
0.0000000001
 40
0.0
 40
0.0
 40
0.0
 40
0.0
 40
0.4999942558
 40
1.0
 40
1.0
 40
1.0
 40
1.0
 10
193.7707872549
 20
44.0331976741
 30
0.0
 10
193.9776758852
 20
47.7488234444
 30
0.0
 10
194.2323533362
 20
55.1888915493
 30
0.0
 10
194.3142997852
 20
62.6317310028
 30
0.0
 10
194.3142975995
 20
66.3531976741
 30
0.0
  0
SPLINE
  5
3EE
100
AcDbEntity
  8
RACCORDO
100
AcDbSpline
 62
250
  6
CONTINUOUS
 70
0
 71
3
 72
29
 73
25
 74
0
 42
0.0000001
 43
0.0000001
 44
0.0000000001
 40
0.0
 40
0.0
 40
0.0
 40
0.0
 40
0.000345685
 40
0.0012846335
 40
0.0028245001
 40
0.0049664327
 40
0.0077096247
 40
0.0110519813
 40
0.0195199041
 40
0.0303410438
 40
0.0434858907
 40
0.0589245153
 40
0.0766232025
 40
0.0965424441
 40
0.1186360429
 40
0.1691325087
 40
0.2276255041
 40
0.2935446613
 40
0.3662503983
 40
0.4450429964
 40
0.5291650401
 40
0.6178053608
 40
0.8051798378
 40
1.0
 40
1.0
 40
1.0
 40
1.0
 10
187.1028922518
 20
24.6590384919
 30
0.0
 10
187.1026301691
 20
24.6592048873
 30
0.0
 10
187.1028472606
 20
24.66065132
 30
0.0
 10
187.1023915096
 20
24.6629117981
 30
0.0
 10
187.1024136946
 20
24.6672101483
 30
0.0
 10
187.1021871181
 20
24.6729119675
 30
0.0
 10
187.1020679875
 20
24.6803247193
 30
0.0
 10
187.1018440308
 20
24.6933807222
 30
0.0
 10
187.1016156158
 20
24.713711469
 30
0.0
 10
187.1013621769
 20
24.7428343179
 30
0.0
 10
187.1011404112
 20
24.7782222295
 30
0.0
 10
187.1009460633
 20
24.8197851258
 30
0.0
 10
187.1007848586
 20
24.867432509
 30
0.0
 10
187.1006572286
 20
24.9210563374
 30
0.0
 10
187.1005287091
 20
25.0041343684
 30
0.0
 10
187.1004733327
 20
25.121853695
 30
0.0
 10
187.1005657454
 20
25.2789306108
 30
0.0
 10
187.1008293788
 20
25.4559524169
 30
0.0
 10
187.1012664088
 20
25.65120401
 30
0.0
 10
187.1018613097
 20
25.8628023761
 30
0.0
 10
187.1025869674
 20
26.0887104828
 30
0.0
 10
187.1037136845
 20
26.4121298928
 30
0.0
 10
187.105327558
 20
26.8349607796
 30
0.0
 10
187.1066470845
 20
27.1781886464
 30
0.0
 10
187.107339884
 20
27.3531457803
 30
0.0
  0
LINE
  5
3EF
100
AcDbEntity
  8
RACCORDO
100
AcDbLine
 62
250
  6
CONTINUOUS
 10
193.7615151661
 20
43.8676265791
 30
0.0
 11
193.7707872549
 21
44.0331976741
 31
0.0
  0
SPLINE
  5
3F0
100
AcDbEntity
  8
RACCORDO
100
AcDbSpline
 62
250
  6
CONTINUOUS
 70
0
 71
3
 72
9
 73
5
 74
0
 42
0.0000001
 43
0.0000001
 44
0.0000000001
 40
0.0
 40
0.0
 40
0.0
 40
0.0
 40
0.4999999941
 40
1.0
 40
1.0
 40
1.0
 40
1.0
 10
187.1337402803
 20
43.8580674021
 30
0.0
 10
187.136230381
 20
47.6072550747
 30
0.0
 10
187.1387337322
 20
55.1056320477
 30
0.0
 10
187.139502246
 20
62.6040090868
 30
0.0
 10
187.139502246
 20
66.3531976741
 30
0.0
  0
SPLINE
  5
3F1
100
AcDbEntity
  8
RACCORDO
100
AcDbSpline
 62
250
  6
CONTINUOUS
 70
0
 71
3
 72
11
 73
7
 74
0
 42
0.0000001
 43
0.0000001
 44
0.0000000001
 40
0.0
 40
0.0
 40
0.0
 40
0.0
 40
0.2499999787
 40
0.4999999818
 40
0.7499999825
 40
1.0
 40
1.0
 40
1.0
 40
1.0
 10
187.1085377107
 20
27.680613534
 30
0.0
 10
187.1131015067
 20
29.0287286401
 30
0.0
 10
187.1174688354
 20
31.7249728711
 30
0.0
 10
187.1245949741
 20
35.76933455
 30
0.0
 10
187.1304304471
 20
39.8136996483
 30
0.0
 10
187.132844566
 20
42.5099446597
 30
0.0
 10
187.1337402803
 20
43.8580674021
 30
0.0
  0
SPLINE
  5
3F2
100
AcDbEntity
  8
RACCORDO
100
AcDbSpline
 62
250
  6
CONTINUOUS
 70
0
 71
3
 72
8
 73
4
 74
0
 42
0.0000001
 43
0.0000001
 44
0.0000000001
 40
0.0
 40
0.0
 40
0.0
 40
0.0
 40
1.0
 40
1.0
 40
1.0
 40
1.0
 10
194.268517166
 20
23.780341468
 30
0.0
 10
194.3109360964
 20
23.7863042921
 30
0.0
 10
194.3529610123
 20
23.8019029103
 30
0.0
 10
194.388987186
 20
23.8250769419
 30
0.0
  0
SPLINE
  5
3F3
100
AcDbEntity
  8
RACCORDO
100
AcDbSpline
 62
250
  6
CONTINUOUS
 70
0
 71
3
 72
11
 73
7
 74
0
 42
0.0000001
 43
0.0000001
 44
0.0000000001
 40
0.0
 40
0.0
 40
0.0
 40
0.0
 40
0.3718222445
 40
0.6838270573
 40
0.9013338382
 40
1.0
 40
1.0
 40
1.0
 40
1.0
 10
192.2818501062
 20
105.3395283106
 30
0.0
 10
192.3134490041
 20
105.3434332089
 30
0.0
 10
192.3715569148
 20
105.350661457
 30
0.0
 10
192.4481532264
 20
105.3601646336
 30
0.0
 10
192.5014933143
 20
105.3670867689
 30
0.0
 10
192.5283728282
 20
105.3703705666
 30
0.0
 10
192.5367229356
 20
105.3716582772
 30
0.0
  0
SPLINE
  5
3F4
100
AcDbEntity
  8
RACCORDO
100
AcDbSpline
 62
250
  6
CONTINUOUS
 70
0
 71
3
 72
8
 73
4
 74
0
 42
0.0000001
 43
0.0000001
 44
0.0000000001
 40
0.0
 40
0.0
 40
0.0
 40
0.0
 40
1.0
 40
1.0
 40
1.0
 40
1.0
 10
194.268517166
 20
108.9260538803
 30
0.0
 10
194.3109361001
 20
108.9200910556
 30
0.0
 10
194.3529610198
 20
108.9044924351
 30
0.0
 10
194.3889871957
 20
108.8813184001
 30
0.0
  0
SPLINE
  5
3F5
100
AcDbEntity
  8
RACCORDO
100
AcDbSpline
 62
250
  6
CONTINUOUS
 70
0
 71
3
 72
16
 73
12
 74
0
 42
0.0000001
 43
0.0000001
 44
0.0000000001
 40
0.0
 40
0.0
 40
0.0
 40
0.0
 40
0.0043297219
 40
0.0172011144
 40
0.0385192309
 40
0.0681809288
 40
0.1521111382
 40
0.2677044903
 40
0.4129824241
 40
0.5858045337
 40
1.0
 40
1.0
 40
1.0
 40
1.0
 10
187.0331149592
 20
27.3527554025
 30
0.0
 10
187.0331149592
 20
27.3528625311
 30
0.0
 10
187.0337967968
 20
27.3526710161
 30
0.0
 10
187.0345034575
 20
27.3528994164
 30
0.0
 10
187.0362213793
 20
27.3528121441
 30
0.0
 10
187.0394759768
 20
27.3529227182
 30
0.0
 10
187.0452075565
 20
27.3529187981
 30
0.0
 10
187.0537098285
 20
27.3529933566
 30
0.0
 10
187.0644512955
 20
27.3530317979
 30
0.0
 10
187.0825651243
 20
27.3530973686
 30
0.0
 10
187.0970916201
 20
27.353127682
 30
0.0
 10
187.107339884
 20
27.3531457714
 30
0.0
  0
SPLINE
  5
3F6
100
AcDbEntity
  8
RACCORDO
100
AcDbSpline
 62
250
  6
CONTINUOUS
 70
0
 71
3
 72
16
 73
12
 74
0
 42
0.0000001
 43
0.0000001
 44
0.0000000001
 40
0.0
 40
0.0
 40
0.0
 40
0.0
 40
0.0043327057
 40
0.0172242286
 40
0.0385751278
 40
0.0682798979
 40
0.1523185552
 40
0.2680279292
 40
0.4133916663
 40
0.5862289974
 40
1.0
 40
1.0
 40
1.0
 40
1.0
 10
187.0331149591
 20
27.6802719358
 30
0.0
 10
187.0331149592
 20
27.6803808672
 30
0.0
 10
187.0338095392
 20
27.6801763576
 30
0.0
 10
187.0345279673
 20
27.6804116865
 30
0.0
 10
187.0362767003
 20
27.680315361
 30
0.0
 10
187.0395881197
 20
27.6804240741
 30
0.0
 10
187.0454191634
 20
27.6804117927
 30
0.0
 10
187.0540662844
 20
27.6804810665
 30
0.0
 10
187.0649865011
 20
27.6805129854
 30
0.0
 10
187.0833843422
 20
27.6805707247
 30
0.0
 10
187.098134833
 20
27.6805966438
 30
0.0
 10
187.1085377063
 20
27.6806122229
 30
0.0
  0
SPLINE
  5
3F7
100
AcDbEntity
  8
RACCORDO
100
AcDbSpline
 62
250
  6
CONTINUOUS
 70
0
 71
3
 72
16
 73
12
 74
0
 42
0.0000001
 43
0.0000001
 44
0.0000000001
 40
0.0
 40
0.0
 40
0.0
 40
0.0
 40
0.0043331281
 40
0.017224779
 40
0.0385757408
 40
0.068280541
 40
0.1523191983
 40
0.2680285172
 40
0.4133921562
 40
0.586229353
 40
1.0
 40
1.0
 40
1.0
 40
1.0
 10
187.0331149591
 20
105.0261260427
 30
0.0
 10
187.0331149591
 20
105.0260171006
 30
0.0
 10
187.033809489
 20
105.0262206813
 30
0.0
 10
187.03452799
 20
105.025985642
 30
0.0
 10
187.0362766871
 20
105.0260812499
 30
0.0
 10
187.0395881295
 20
105.0259721936
 30
0.0
 10
187.0454191575
 20
105.0259836954
 30
0.0
 10
187.0540662882
 20
105.0259138083
 30
0.0
 10
187.0649865036
 20
105.0258812199
 30
0.0
 10
187.083384348
 20
105.0258226776
 30
0.0
 10
187.0981348405
 20
105.0257963293
 30
0.0
 10
187.1085377152
 20
105.0257804954
 30
0.0
  0
SPLINE
  5
3F8
100
AcDbEntity
  8
RACCORDO
100
AcDbSpline
 62
250
  6
CONTINUOUS
 70
0
 71
3
 72
16
 73
12
 74
0
 42
0.0000001
 43
0.0000001
 44
0.0000000001
 40
0.0
 40
0.0
 40
0.0
 40
0.0
 40
0.0043297336
 40
0.0172011294
 40
0.0385192472
 40
0.0681809455
 40
0.1521111542
 40
0.2677045038
 40
0.4129824348
 40
0.5858045422
 40
1.0
 40
1.0
 40
1.0
 40
1.0
 10
187.0331149592
 20
105.3536400077
 30
0.0
 10
187.0331149592
 20
105.3535328788
 30
0.0
 10
187.0337967954
 20
105.3537243717
 30
0.0
 10
187.034503458
 20
105.3534959782
 30
0.0
 10
187.0362213789
 20
105.3535832334
 30
0.0
 10
187.039475977
 20
105.353472651
 30
0.0
 10
187.0452075562
 20
105.3534765524
 30
0.0
 10
187.0537098284
 20
105.3534019792
 30
0.0
 10
187.0644512954
 20
105.3533635217
 30
0.0
 10
187.0825651244
 20
105.3532979316
 30
0.0
 10
187.0970916202
 20
105.3532676078
 30
0.0
 10
187.1073398842
 20
105.3532495123
 30
0.0
  0
ELLIPSE
  5
3F9
100
AcDbEntity
  8
RACCORDO
100
AcDbEllipse
 62
7
  6
CONTINUOUS
 10
64.0618170418
 20
88.3478849906
 30
0.0
 11
-0.3536610946
 21
0.3536610946
 31
0.0
 40
0.9996954599
 41
-0.7852458701
 42
0.7852458701
  0
ELLIPSE
  5
3FA
100
AcDbEntity
  8
RACCORDO
100
AcDbEllipse
 62
7
  6
CONTINUOUS
 10
64.0618170418
 20
44.3585103576
 30
0.0
 11
-0.3536610946
 21
-0.3536610946
 31
0.0
 40
0.9996954599
 41
-0.7852458701
 42
0.7852458701
  0
ELLIPSE
  5
3FB
100
AcDbEntity
  8
RACCORDO
100
AcDbEllipse
 62
7
  6
CONTINUOUS
 10
108.0511916748
 20
88.3478849906
 30
0.0
 11
0.3536610946
 21
0.3536610946
 31
0.0
 40
0.9996954599
 41
-0.7852458701
 42
0.7852458701
  0
ELLIPSE
  5
3FC
100
AcDbEntity
  8
RACCORDO
100
AcDbEllipse
 62
7
  6
CONTINUOUS
 10
108.0511916748
 20
44.3585103576
 30
0.0
 11
-0.3536610946
 21
0.3536610946
 31
0.0
 40
0.9996954599
 41
2.3563467834
 42
3.9268385237
  0
ENDSEC
  0
SECTION
  2
OBJECTS
  0
DICTIONARY
  5
C
100
AcDbDictionary
280
0
281
1
  3
ACAD_GROUP
350
D
  3
ACAD_MLINESTYLE
350
17
  3
ACAD_LAYOUT
350
1A
  3
ACAD_PLOTSETTINGS
350
19
  3
ACAD_PLOTSTYLENAME
350
E
  0
DICTIONARY
  5
D
102
{ACAD_REACTORS
330
C
102
}
100
AcDbDictionary
280
0
281
1
  0
ACDBDICTIONARYWDFLT
  5
E
102
{ACAD_REACTORS
330
C
102
}
100
AcDbDictionary
281
1
  3
Normal
350
F
100
AcDbDictionaryWithDefault
340
F
  0
DICTIONARY
  5
17
102
{ACAD_REACTORS
330
C
102
}
100
AcDbDictionary
280
0
281
1
  3
Standard
350
18
  0
DICTIONARY
  5
19
102
{ACAD_REACTORS
330
C
102
}
100
AcDbDictionary
281
1
  0
DICTIONARY
  5
1A
102
{ACAD_REACTORS
330
C
102
}
100
AcDbDictionary
281
1
  3
Model
350
3FD
  3
Layout1
350
3FE
  0
ACDBPLACEHOLDER
  5
F
102
{ACAD_REACTORS
330
E
102
}
  0
MLINESTYLE
  5
18
102
{ACAD_REACTORS
330
17
102
}
100
AcDbMlineStyle
  2
STANDARD
 70
0
  3

 62
256
 51
90.0
 52
90.0
 71
2
 49
0.5
 62
256
  6
BYLAYER
 49
-0.5
 62
256
  6
BYLAYER
  0
LAYOUT
  5
3FD
102
{ACAD_REACTORS
330
1A
102
}
100
AcDbPlotSettings
  1

  2
none_device
  4
ISO_A4_(297.00_x_210.00_MM)
  6

 40
0.0
 41
0.0
 42
0.0
 43
0.0
 44
297.0
 45
210.0
 46
0.0
 47
0.0
 48
0.0
 49
0.0
140
0.0
141
0.0
142
1.0
143
1.0
 70
1024
 72
1
 73
0
 74
0
  7

 75
0
147
1.0
148
0.0
149
0.0
100
AcDbLayout
  1
Model
 70
0
 71
0
 10
0.0
 20
0.0
 11
297.0
 21
210.0
 12
0.0
 22
0.0
 32
0.0
 14
0.0
 24
0.0
 34
0.0
 15
0.0
 25
0.0
 35
0.0
146
0.0
 13
0.0
 23
0.0
 33
0.0
 16
1.0
 26
0.0
 36
0.0
 17
0.0
 27
1.0
 37
0.0
 76
0
330
219
345
0
346
0
  0
LAYOUT
  5
3FE
102
{ACAD_REACTORS
330
1A
102
}
100
AcDbPlotSettings
  1

  2
none_device
  4
ISO_A4_(297.00_x_210.00_MM)
  6

 40
0.0
 41
0.0
 42
0.0
 43
0.0
 44
297.0
 45
210.0
 46
0.0
 47
0.0
 48
0.0
 49
0.0
140
0.0
141
0.0
142
1.0
143
1.0
 70
0
 72
1
 73
0
 74
0
  7

 75
0
147
1.0
148
0.0
149
0.0
100
AcDbLayout
  1
Layout1
 70
0
 71
1
 10
0.0
 20
0.0
 11
297.0
 21
210.0
 12
0.0
 22
0.0
 32
0.0
 14
0.0
 24
0.0
 34
0.0
 15
0.0
 25
0.0
 35
0.0
146
0.0
 13
0.0
 23
0.0
 33
0.0
 16
1.0
 26
0.0
 36
0.0
 17
0.0
 27
1.0
 37
0.0
 76
0
330
21A
345
0
346
0
  0
ENDSEC
  0
EOF
