  0
SECTION
  2
HEADER
  9
$ACADVER
  1
AC1024
  9
$DWGCODEPAGE
  3
ANSI_1252
  9
$EXTMAX
 10
297.0
 20
210.0
 30
0.0
  9
$EXTMIN
 10
0.0
 20
0.0
 30
0.0
  9
$LIMMIN
 10
0.0
 20
0.0
  9
$LIMMAX
 10
297.0
 20
210.0
  9
$VIEWCTR
 10
148.5
 20
105.0
  9
$VIEWSIZE
 40
210.0
  9
$CLAYER
  8
0
  9
$LTSCALE
 40
16.335
  9
$CELTYPE
  6
BYLAYER
  9
$DIMSCALE
 40
1.0
  9
$DIMASZ
 40
3.0
  9
$DIMEXO
 40
0.5
  9
$DIMDLI
 40
11.286
  9
$DIMEXE
 40
1.5
  9
$DIMCEN
 40
2.673
  9
$DIMLFAC
 40
1.0
  9
$DIMBLK
  1
_FILLED
  9
$DIMALT
 70
0
  9
$DIMALTF
 40
0.0393700787
  9
$DIMTXT
 40
3.0
  9
$DIMTOL
 70
1
  9
$DIMLIM
 70
0
  9
$DIMTFAC
 40
1.0
  9
$DIMTP
 40
0.01
  9
$DIMTM
 40
0.01
  9
$DIMGAP
 40
0.625
  9
$DIMDSEP
 70
44
  9
$AUNITS
 70
0
  9
$PDMODE
 70
3
  9
$PDSIZE
 40
3.0
  9
$HANDSEED
  5
659
  9
$TILEMODE
 70
1
  9
$MEASUREMENT
 70
1
  9
$INSUNITS
 70
4
  0
ENDSEC
  0
SECTION
  2
CLASSES
  0
CLASS
  1
ACDBDICTIONARYWDFLT
  2
AcDbDictionaryWithDefault
  3
AutoCAD 2000
 90
0
 91
1
280
0
281
0
  0
CLASS
  1
ACDBPLACEHOLDER
  2
AcDbPlaceHolder
  3
AutoCAD 2000
 90
0
 91
1
280
0
281
0
  0
CLASS
  1
LAYOUT
  2
AcDbLayout
  3
AutoCAD 2000
 90
0
 91
0
280
0
281
0
  0
ENDSEC
  0
SECTION
  2
TABLES
  0
TABLE
  2
VPORT
  5
8
100
AcDbSymbolTable
 70
2
  0
VPORT
  5
1F4
100
AcDbSymbolTableRecord
100
AcDbViewportTableRecord
  2
*ACTIVE
 70
0
 10
0.0
 20
0.0
 11
1.0
 21
1.0
 12
148.5
 22
105.0
 13
0.0
 23
0.0
 14
1.0
 24
1.0
 15
0.0
 25
0.0
 16
0.0
 26
0.0
 36
1.0
 17
0.0
 27
0.0
 37
0.0
 40
210.0
 41
1.4142857143
 42
50.0
 43
0.0
 44
0.0
 50
0.0
 51
0.0
 71
0
 72
100
 73
1
 74
1
 75
0
 76
0
 77
0
 78
0
  0
ENDTAB
  0
TABLE
  2
LTYPE
  5
5
100
AcDbSymbolTable
 70
6
  0
LTYPE
  5
14
100
AcDbSymbolTableRecord
100
AcDbLinetypeTableRecord
  2
BYBLOCK
 70
0
  3

 72
65
 73
0
 40
0.0
  0
LTYPE
  5
15
100
AcDbSymbolTableRecord
100
AcDbLinetypeTableRecord
  2
BYLAYER
 70
0
  3

 72
65
 73
0
 40
0.0
  0
LTYPE
  5
16
100
AcDbSymbolTableRecord
100
AcDbLinetypeTableRecord
  2
CONTINUOUS
 70
64
  3
Solid line
 72
65
 73
0
 40
0.0
  0
LTYPE
  5
1F5
100
AcDbSymbolTableRecord
100
AcDbLinetypeTableRecord
  2
CENTER
 70
64
  3
____ _ ____ _ ____ _ ____ _ ____ _ ____ _ ____
 72
65
 73
4
 40
0.6
 49
0.375
 74
0
 49
-0.075
 74
0
 49
0.075
 74
0
 49
-0.075
 74
0
  0
LTYPE
  5
1F6
100
AcDbSymbolTableRecord
100
AcDbLinetypeTableRecord
  2
HIDDEN
 70
64
  3
- - - - - - - - - - - - - - - - - - - -
 72
65
 73
2
 40
0.2
 49
0.1
 74
0
 49
-0.1
 74
0
  0
LTYPE
  5
1F7
100
AcDbSymbolTableRecord
100
AcDbLinetypeTableRecord
  2
PHANTOM
 70
64
  3
_____ _ _ _____ _ _ _____ _ _ _____
 72
65
 73
6
 40
0.8
 49
0.45
 74
0
 49
-0.05
 74
0
 49
0.1
 74
0
 49
-0.05
 74
0
 49
0.1
 74
0
 49
-0.05
 74
0
  0
LTYPE
  5
1F8
100
AcDbSymbolTableRecord
100
AcDbLinetypeTableRecord
  2
DOT
 70
64
  3
. . . . . . . . . . . . . . . . . . . .
 72
65
 73
2
 40
0.2
 49
0.1
 74
0
 49
-0.1
 74
0
  0
LTYPE
  5
1F9
100
AcDbSymbolTableRecord
100
AcDbLinetypeTableRecord
  2
DASHED
 70
64
  3
- - - - - - - - - - - - - - - - - - - -
 72
65
 73
2
 40
0.2
 49
0.1
 74
0
 49
-0.1
 74
0
  0
ENDTAB
  0
TABLE
  2
LAYER
  5
2
100
AcDbSymbolTable
 70
36
  0
LAYER
  5
10
100
AcDbSymbolTableRecord
100
AcDbLayerTableRecord
  2
0
 70
0
 62
7
  6
CONTINUOUS
370
-3
390
F
  0
LAYER
  5
1FA
100
AcDbSymbolTableRecord
100
AcDbLayerTableRecord
  2
DEFAULT_1
 70
0
 62
7
  6
CENTER
370
-3
390
F
  0
LAYER
  5
1FB
100
AcDbSymbolTableRecord
100
AcDbLayerTableRecord
  2
DEFAULT_2
 70
0
 62
7
  6
HIDDEN
370
-3
390
F
  0
LAYER
  5
1FC
100
AcDbSymbolTableRecord
100
AcDbLayerTableRecord
  2
DEFAULT_3
 70
0
 62
7
  6
PHANTOM
370
-3
390
F
  0
LAYER
  5
1FD
100
AcDbSymbolTableRecord
100
AcDbLayerTableRecord
  2
ASSI
 70
0
 62
7
  6
CONTINUOUS
370
-3
390
F
  0
LAYER
  5
1FE
100
AcDbSymbolTableRecord
100
AcDbLayerTableRecord
  2
COLOR5
 70
0
 62
7
  6
CONTINUOUS
370
-3
390
F
  0
LAYER
  5
1FF
100
AcDbSymbolTableRecord
100
AcDbLayerTableRecord
  2
COORDINATE
 70
0
 62
7
  6
CONTINUOUS
370
-3
390
F
  0
LAYER
  5
200
100
AcDbSymbolTableRecord
100
AcDbLayerTableRecord
  2
COORD_ORIGINE
 70
0
 62
7
  6
CONTINUOUS
370
-3
390
F
  0
LAYER
  5
201
100
AcDbSymbolTableRecord
100
AcDbLayerTableRecord
  2
CURVE
 70
0
 62
7
  6
CONTINUOUS
370
-3
390
F
  0
LAYER
  5
202
100
AcDbSymbolTableRecord
100
AcDbLayerTableRecord
  2
DRAFT
 70
0
 62
7
  6
CONTINUOUS
370
-3
390
F
  0
LAYER
  5
203
100
AcDbSymbolTableRecord
100
AcDbLayerTableRecord
  2
IGES
 70
0
 62
7
  6
CONTINUOUS
370
-3
390
F
  0
LAYER
  5
204
100
AcDbSymbolTableRecord
100
AcDbLayerTableRecord
  2
INTF_1
 70
0
 62
7
  6
CONTINUOUS
370
-3
390
F
  0
LAYER
  5
205
100
AcDbSymbolTableRecord
100
AcDbLayerTableRecord
  2
INTF_7
 70
0
 62
7
  6
CONTINUOUS
370
-3
390
F
  0
LAYER
  5
206
100
AcDbSymbolTableRecord
100
AcDbLayerTableRecord
  2
INTF_MAGENTA
 70
0
 62
7
  6
CONTINUOUS
370
-3
390
F
  0
LAYER
  5
207
100
AcDbSymbolTableRecord
100
AcDbLayerTableRecord
  2
NOTE
 70
0
 62
7
  6
CONTINUOUS
370
-3
390
F
  0
LAYER
  5
208
100
AcDbSymbolTableRecord
100
AcDbLayerTableRecord
  2
PIANI
 70
0
 62
7
  6
CONTINUOUS
370
-3
390
F
  0
LAYER
  5
209
100
AcDbSymbolTableRecord
100
AcDbLayerTableRecord
  2
PIANI_LIMITI_SUPERFICE_ANGOLO
 70
0
 62
7
  6
CONTINUOUS
370
-3
390
F
  0
LAYER
  5
20A
100
AcDbSymbolTableRecord
100
AcDbLayerTableRecord
  2
PIANI_ORIGINE
 70
0
 62
7
  6
CONTINUOUS
370
-3
390
F
  0
LAYER
  5
20B
100
AcDbSymbolTableRecord
100
AcDbLayerTableRecord
  2
PIANI_RIFERIMENTO
 70
0
 62
7
  6
CONTINUOUS
370
-3
390
F
  0
LAYER
  5
20C
100
AcDbSymbolTableRecord
100
AcDbLayerTableRecord
  2
PIANI_X_COSTR_SUP
 70
0
 62
7
  6
CONTINUOUS
370
-3
390
F
  0
LAYER
  5
20D
100
AcDbSymbolTableRecord
100
AcDbLayerTableRecord
  2
PUNTI
 70
0
 62
7
  6
CONTINUOUS
370
-3
390
F
  0
LAYER
  5
20E
100
AcDbSymbolTableRecord
100
AcDbLayerTableRecord
  2
RACCORDO
 70
0
 62
7
  6
CONTINUOUS
370
-3
390
F
  0
LAYER
  5
20F
100
AcDbSymbolTableRecord
100
AcDbLayerTableRecord
  2
RGB__255__255__255__
 70
0
 62
7
  6
CONTINUOUS
370
-3
390
F
  0
LAYER
  5
210
100
AcDbSymbolTableRecord
100
AcDbLayerTableRecord
  2
RGB____0____0____0__
 70
0
 62
7
  6
CONTINUOUS
370
-3
390
F
  0
LAYER
  5
211
100
AcDbSymbolTableRecord
100
AcDbLayerTableRecord
  2
SNAPLINE
 70
0
 62
7
  6
CONTINUOUS
370
-3
390
F
  0
LAYER
  5
212
100
AcDbSymbolTableRecord
100
AcDbLayerTableRecord
  2
SOLIDO
 70
0
 62
7
  6
CONTINUOUS
370
-3
390
F
  0
LAYER
  5
213
100
AcDbSymbolTableRecord
100
AcDbLayerTableRecord
  2
SUPERFICI
 70
0
 62
7
  6
CONTINUOUS
370
-3
390
F
  0
LAYER
  5
214
100
AcDbSymbolTableRecord
100
AcDbLayerTableRecord
  2
SUPERFICI1
 70
0
 62
7
  6
CONTINUOUS
370
-3
390
F
  0
LAYER
  5
215
100
AcDbSymbolTableRecord
100
AcDbLayerTableRecord
  2
TRASH
 70
0
 62
7
  6
CONTINUOUS
370
-3
390
F
  0
LAYER
  5
216
100
AcDbSymbolTableRecord
100
AcDbLayerTableRecord
  2
___SHELL
 70
0
 62
7
  6
CONTINUOUS
370
-3
390
F
  0
ENDTAB
  0
TABLE
  2
STYLE
  5
3
100
AcDbSymbolTable
 70
1
  0
STYLE
  5
11
100
AcDbSymbolTableRecord
100
AcDbTextStyleTableRecord
  2
STANDARD
 70
0
 40
0.0
 41
0.8
 50
0.0
 71
0
 42
0.2
  3
txt
  4

  0
STYLE
  5
217
100
AcDbSymbolTableRecord
100
AcDbTextStyleTableRecord
  2
TEXTSTYLE_1
 70
0
 40
0.0
 41
0.8
 50
0.0
 71
0
 42
0.2
  3
gdt
  4

  0
ENDTAB
  0
TABLE
  2
VIEW
  5
6
100
AcDbSymbolTable
 70
0
  0
ENDTAB
  0
TABLE
  2
UCS
  5
7
100
AcDbSymbolTable
 70
0
  0
ENDTAB
  0
TABLE
  2
APPID
  5
9
100
AcDbSymbolTable
 70
1
  0
APPID
  5
218
100
AcDbSymbolTableRecord
100
AcDbRegAppTableRecord
  2
ACAD
 70
0
  0
ENDTAB
  0
TABLE
  2
BLOCK_RECORD
  5
1
100
AcDbSymbolTable
 70
0
  0
BLOCK_RECORD
  5
219
100
AcDbSymbolTableRecord
100
AcDbBlockTableRecord
  2
*Model_Space
  0
BLOCK_RECORD
  5
21A
100
AcDbSymbolTableRecord
100
AcDbBlockTableRecord
  2
*Paper_Space
  0
BLOCK_RECORD
  5
21B
100
AcDbSymbolTableRecord
100
AcDbBlockTableRecord
  2
_FILLED
  0
BLOCK_RECORD
  5
21C
100
AcDbSymbolTableRecord
100
AcDbBlockTableRecord
  2
*D0
  0
BLOCK_RECORD
  5
21D
100
AcDbSymbolTableRecord
100
AcDbBlockTableRecord
  2
*D1
  0
BLOCK_RECORD
  5
21E
100
AcDbSymbolTableRecord
100
AcDbBlockTableRecord
  2
*D2
  0
ENDTAB
  0
TABLE
  2
DIMSTYLE
  5
A
100
AcDbSymbolTable
 70
1
100
AcDbDimStyleTable
 71
0
  0
DIMSTYLE
105
21F
100
AcDbSymbolTableRecord
100
AcDbDimStyleTableRecord
  2
STANDARD
 70
0
  3

  4

 40
1.0
 41
3.0
 42
0.5
 43
0.38
 44
1.5
 45
0.0
 46
0.0
 47
0.01
 48
0.01
140
3.0
141
0.09
142
0.0
143
25.4
144
1.0
145
0.0
146
1.0
147
0.625
 71
1
 72
0
 73
0
 74
0
 75
0
 76
0
 77
1
 78
8
 79
2
170
0
171
1
172
0
173
0
174
0
175
0
176
0
177
0
178
0
270
2
179
2
271
2
272
2
273
2
274
2
275
0
280
0
281
0
282
0
283
1
284
8
285
0
286
0
287
3
288
0
340
11
278
44
341
21B
342
21B
343
21B
344
21B
  0
DIMSTYLE
105
220
100
AcDbSymbolTableRecord
100
AcDbDimStyleTableRecord
  2
DIMSTYLE_1
 70
0
  3

  4

 40
1.0
 41
3.0
 42
0.5
 43
0.38
 44
1.5
 45
0.0
 46
0.0
 47
0.0
 48
0.0
140
3.0
141
0.09
142
0.0
143
25.4
144
1.0
145
0.0
146
1.0
147
0.75
 71
0
 72
0
 73
0
 74
0
 75
0
 76
0
 77
1
 78
8
 79
2
170
0
171
1
172
0
173
0
174
0
175
0
176
0
177
0
178
0
270
2
179
2
271
1
272
1
273
2
274
2
275
0
280
0
281
0
282
0
283
1
284
8
285
0
286
0
287
3
288
0
340
11
278
44
341
21B
342
21B
343
21B
344
21B
  0
DIMSTYLE
105
221
100
AcDbSymbolTableRecord
100
AcDbDimStyleTableRecord
  2
DIMSTYLE_2
 70
0
  3

  4

 40
1.0
 41
3.0
 42
0.5
 43
0.38
 44
1.5
 45
0.0
 46
0.0
 47
0.0
 48
0.0
140
3.0
141
0.09
142
0.0
143
25.4
144
1.0
145
0.0
146
1.0
147
0.75
 71
0
 72
0
 73
0
 74
0
 75
0
 76
0
 77
1
 78
8
 79
2
170
0
171
1
172
0
173
0
174
0
175
0
176
0
177
0
178
0
270
2
179
2
271
2
272
2
273
2
274
2
275
0
280
0
281
0
282
0
283
1
284
8
285
0
286
0
287
3
288
0
340
11
278
44
341
21B
342
21B
343
21B
344
21B
  0
ENDTAB
  0
ENDSEC
  0
SECTION
  2
BLOCKS
  0
BLOCK
  5
20
100
AcDbEntity
  8
0
100
AcDbBlockBegin
  2
*Model_Space
 70
0
 10
0.0
 20
0.0
 30
0.0
  3
*Model_Space
  1

  0
ENDBLK
  5
21
100
AcDbEntity
  8
0
100
AcDbBlockEnd
  0
BLOCK
  5
1C
100
AcDbEntity
  8
0
100
AcDbBlockBegin
  2
*Paper_Space
 70
0
 10
0.0
 20
0.0
 30
0.0
  3
*Paper_Space
  1

  0
ENDBLK
  5
1D
100
AcDbEntity
  8
0
100
AcDbBlockEnd
  0
BLOCK
  5
222
100
AcDbEntity
  8
0
100
AcDbBlockBegin
  2
_FILLED
 70
64
 10
0.0
 20
0.0
  3
_FILLED
  1

  0
SOLID
  5
223
100
AcDbEntity
  8
0
  6
BYBLOCK
 62
0
100
AcDbTrace
 10
0.0
 20
0.0
 11
-1.0
 21
0.3166666667
 12
-1.0
 22
-0.3166666667
 13
-1.0
 23
-0.3166666667
  0
ENDBLK
  5
224
100
AcDbEntity
  8
0
  6
BYBLOCK
 62
0
100
AcDbBlockEnd
  0
BLOCK
  5
225
100
AcDbEntity
  8
0
100
AcDbBlockBegin
 62
7
  6
CONTINUOUS
  2
*D0
 70
65
 10
0.0
 20
0.0
  3
*D0
  1

  0
LINE
  5
226
100
AcDbEntity
  8
0
100
AcDbLine
 62
7
  6
CONTINUOUS
 10
-60.0144306333
 20
37.5414726247
 11
-60.0144306333
 21
49.5000171785
  0
LINE
  5
227
100
AcDbEntity
  8
0
100
AcDbLine
 62
7
  6
CONTINUOUS
 10
60.0144274088
 20
37.5415020947
 11
60.0144274088
 21
49.5000171785
  0
LINE
  5
228
100
AcDbEntity
  8
0
100
AcDbLine
 62
7
  6
CONTINUOUS
 10
-60.0144306333
 20
48.0000171785
 11
-0.0000016122
 21
48.0000171785
  0
LINE
  5
229
100
AcDbEntity
  8
0
100
AcDbLine
 62
7
  6
CONTINUOUS
 10
60.0144274088
 20
48.0000171785
 11
-0.0000016122
 21
48.0000171785
  0
INSERT
  5
22A
100
AcDbEntity
  8
0
100
AcDbBlockReference
 62
7
  6
CONTINUOUS
  2
_FILLED
 10
-60.0144306333
 20
48.0000171785
 41
3.0
 42
3.0
 43
3.0
 50
180.0
  0
INSERT
  5
22B
100
AcDbEntity
  8
0
100
AcDbBlockReference
 62
7
  6
CONTINUOUS
  2
_FILLED
 10
60.0144274088
 20
48.0000171785
 41
3.0
 42
3.0
 43
3.0
  0
ENDBLK
  5
22C
100
AcDbEntity
  8
0
  6
BYBLOCK
 62
0
100
AcDbBlockEnd
  0
BLOCK
  5
22D
100
AcDbEntity
  8
0
100
AcDbBlockBegin
 62
7
  6
CONTINUOUS
  2
*D1
 70
65
 10
0.0
 20
0.0
  3
*D1
  1

  0
LINE
  5
22E
100
AcDbEntity
  8
0
100
AcDbLine
 62
7
  6
CONTINUOUS
 10
-72.326930012
 20
40.0000182172
 11
-90.3768278736
 21
40.0000182172
  0
LINE
  5
22F
100
AcDbEntity
  8
0
100
AcDbLine
 62
7
  6
CONTINUOUS
 10
-72.3269300127
 20
-40.0000182171
 11
-90.3768278736
 21
-40.0000182171
  0
LINE
  5
230
100
AcDbEntity
  8
0
100
AcDbLine
 62
7
  6
CONTINUOUS
 10
-88.8768278736
 20
40.0000182172
 11
-88.8768278736
 21
0.0
  0
LINE
  5
231
100
AcDbEntity
  8
0
100
AcDbLine
 62
7
  6
CONTINUOUS
 10
-88.8768278736
 20
-40.0000182171
 11
-88.8768278736
 21
0.0
  0
INSERT
  5
232
100
AcDbEntity
  8
0
100
AcDbBlockReference
 62
7
  6
CONTINUOUS
  2
_FILLED
 10
-88.8768278736
 20
40.0000182172
 41
3.0
 42
3.0
 43
3.0
 50
90.0
  0
INSERT
  5
233
100
AcDbEntity
  8
0
100
AcDbBlockReference
 62
7
  6
CONTINUOUS
  2
_FILLED
 10
-88.8768278736
 20
-40.0000182171
 41
3.0
 42
3.0
 43
3.0
 50
270.0
  0
ENDBLK
  5
234
100
AcDbEntity
  8
0
  6
BYBLOCK
 62
0
100
AcDbBlockEnd
  0
BLOCK
  5
235
100
AcDbEntity
  8
0
100
AcDbBlockBegin
 62
7
  6
CONTINUOUS
  2
*D2
 70
65
 10
0.0
 20
0.0
  3
*D2
  1

  0
LINE
  5
236
100
AcDbEntity
  8
0
100
AcDbLine
 62
7
  6
CONTINUOUS
 10
-71.8271069574
 20
37.5414724713
 11
-71.8271069574
 21
49.5000171785
  0
LINE
  5
237
100
AcDbEntity
  8
0
100
AcDbLine
 62
7
  6
CONTINUOUS
 10
-80.8768291891
 20
24.0707493453
 11
-80.8768291891
 21
49.5000171785
  0
LINE
  5
238
100
AcDbEntity
  8
0
100
AcDbLine
 62
7
  6
CONTINUOUS
 10
-71.8271069574
 20
48.0000171785
 11
-67.8271069574
 21
48.0000171785
  0
LINE
  5
239
100
AcDbEntity
  8
0
100
AcDbLine
 62
7
  6
CONTINUOUS
 10
-67.8271069574
 20
48.0000171785
 11
-76.3519680732
 21
48.0000171785
  0
LINE
  5
23A
100
AcDbEntity
  8
0
100
AcDbLine
 62
7
  6
CONTINUOUS
 10
-80.8768291891
 20
48.0000171785
 11
-84.8768291891
 21
48.0000171785
  0
LINE
  5
23B
100
AcDbEntity
  8
0
100
AcDbLine
 62
7
  6
CONTINUOUS
 10
-84.8768291891
 20
48.0000171785
 11
-76.3519680732
 21
48.0000171785
  0
INSERT
  5
23C
100
AcDbEntity
  8
0
100
AcDbBlockReference
 62
7
  6
CONTINUOUS
  2
_FILLED
 10
-71.8271069574
 20
48.0000171785
 41
3.0
 42
3.0
 43
3.0
 50
180.0
  0
INSERT
  5
23D
100
AcDbEntity
  8
0
100
AcDbBlockReference
 62
7
  6
CONTINUOUS
  2
_FILLED
 10
-80.8768291891
 20
48.0000171785
 41
3.0
 42
3.0
 43
3.0
  0
ENDBLK
  5
23E
100
AcDbEntity
  8
0
  6
BYBLOCK
 62
0
100
AcDbBlockEnd
  0
ENDSEC
  0
SECTION
  2
ENTITIES
  0
DIMENSION
  5
23F
100
AcDbEntity
  8
0
100
AcDbDimension
 62
7
  6
CONTINUOUS
  2
*D0
 10
60.0144274088
 20
48.0000171785
 11
-3.2142873265
 21
48.0000171785
 70
160
 71
2
 72
2
 41
0.9
 42
120.0288580422
  3
DIMSTYLE_1
100
AcDbAlignedDimension
 13
-60.0144306333
 23
37.0414726247
 14
60.0144274088
 24
37.0415020947
100
AcDbRotatedDimension
  0
DIMENSION
  5
240
100
AcDbEntity
  8
0
100
AcDbDimension
 62
7
  6
CONTINUOUS
  2
*D1
 10
-88.8768278736
 20
-40.0000182171
 11
-88.8768278736
 21
-2.3571428571
 70
160
 71
2
 72
2
 41
0.9
 42
80.0000364343
  3
DIMSTYLE_2
100
AcDbAlignedDimension
 13
-71.826930012
 23
40.0000182172
 14
-71.8269300127
 24
-40.0000182171
 50
270.0
100
AcDbRotatedDimension
  0
DIMENSION
  5
241
100
AcDbEntity
  8
0
100
AcDbDimension
 62
7
  6
CONTINUOUS
  2
*D2
 10
-80.8768291891
 20
48.0000171785
 11
-77.5305395018
 21
48.0000171785
 70
160
 71
2
 72
2
 41
0.9
 42
9.0497222316
  3
DIMSTYLE_1
100
AcDbAlignedDimension
 13
-71.8271069574
 23
37.0414724713
 14
-80.8768291891
 24
23.5707493453
 50
180.0
100
AcDbRotatedDimension
  0
LWPOLYLINE
  5
242
100
AcDbEntity
  8
SUPERFICI
100
AcDbPolyline
 62
250
  6
CONTINUOUS
 90
16
 70
0
 10
-59.713696052
 20
37.638021654
 10
-59.6487825826
 20
37.8763885965
 10
-59.5625206835
 20
38.1079331686
 10
-59.4556096954
 20
38.3307456845
 10
-59.3289138632
 20
38.5429999102
 10
-59.1834702827
 20
38.7429278712
 10
-59.0204921988
 20
38.9288401581
 10
-58.8412940491
 20
39.0992294606
 10
-58.6473791439
 20
39.2526598877
 10
-58.4404822291
 20
39.3877789546
 10
-58.2214796393
 20
39.5039240683
 10
-57.9929744894
 20
39.5996090585
 10
-57.7597749618
 20
39.6732743705
 10
-57.525016176
 20
39.7249519866
 10
-57.2897822536
 20
39.7554115668
 10
-57.0559766749
 20
39.7652426033
  0
LWPOLYLINE
  5
243
100
AcDbEntity
  8
SUPERFICI
100
AcDbPolyline
 62
250
  6
CONTINUOUS
 90
10
 70
0
 10
-58.2379645948
 20
38.4901761842
 10
-58.3362326545
 20
38.3988593645
 10
-58.4283404925
 20
38.3008284779
 10
-58.5139480648
 20
38.1963148332
 10
-58.5926698329
 20
38.08560063
 10
-58.6641512494
 20
37.9690748869
 10
-58.7280486308
 20
37.8471983484
 10
-58.784005153
 20
37.7208682388
 10
-58.831710111
 20
37.5905312675
 10
-58.8708705041
 20
37.456495294
  0
LWPOLYLINE
  5
244
100
AcDbEntity
  8
SUPERFICI
100
AcDbPolyline
 62
250
  6
CONTINUOUS
 90
10
 70
0
 10
-58.2379726439
 20
-38.490165016
 10
-58.3349253037
 20
-38.4003386251
 10
-58.4261956899
 20
-38.3034171013
 10
-58.5113566695
 20
-38.1997046014
 10
-58.5897711091
 20
-38.0898851232
 10
-58.6611556175
 20
-37.9741920547
 10
-58.7253486069
 20
-37.8527758655
 10
-58.7820114478
 20
-37.7258363942
 10
-58.830660485
 20
-37.5936432915
 10
-58.870866041
 20
-37.4564938123
  0
LWPOLYLINE
  5
245
100
AcDbEntity
  8
SUPERFICI
100
AcDbPolyline
 62
250
  6
CONTINUOUS
 90
16
 70
0
 10
-59.7136961657
 20
-37.6380214701
 10
-59.648782697
 20
-37.8763884128
 10
-59.5625207986
 20
-38.1079329852
 10
-59.4556098111
 20
-38.3307455015
 10
-59.3289139795
 20
-38.5429997276
 10
-59.1834703996
 20
-38.742927689
 10
-59.0204923163
 20
-38.9288399764
 10
-58.8412941671
 20
-39.0992292794
 10
-58.6473792624
 20
-39.2526597071
 10
-58.4404823479
 20
-39.3877787746
 10
-58.2214797585
 20
-39.5039238889
 10
-57.9929746088
 20
-39.5996088799
 10
-57.7597750815
 20
-39.6732741925
 10
-57.5250162958
 20
-39.7249518093
 10
-57.2897823736
 20
-39.7554113902
 10
-57.055976795
 20
-39.7652424274
  0
LWPOLYLINE
  5
246
100
AcDbEntity
  8
SUPERFICI
100
AcDbPolyline
 62
250
  6
CONTINUOUS
 90
10
 70
0
 10
-58.8708705027
 20
37.4564952936
 10
-58.8843810065
 20
37.3965259087
 10
-58.8963610238
 20
37.3362615781
 10
-58.9068665634
 20
37.2753274262
 10
-58.9158343762
 20
37.2130498153
 10
-58.9234177942
 20
37.1493659226
 10
-58.9300544015
 20
37.0848674698
 10
-58.9359824929
 20
37.0196104966
 10
-58.9412077593
 20
36.953207748
 10
-58.9459489228
 20
36.8860259089
  0
LWPOLYLINE
  5
247
100
AcDbEntity
  8
SUPERFICI
100
AcDbPolyline
 62
250
  6
CONTINUOUS
 90
9
 70
0
 10
-58.870866041
 20
-37.4564938123
 10
-58.8840744336
 20
-37.397464492
 10
-58.8960711329
 20
-37.3373060889
 10
-58.9067769682
 20
-37.2760379524
 10
-58.9158339641
 20
-37.2136792615
 10
-58.9233835741
 20
-37.1502343555
 10
-58.930009075
 20
-37.0856795013
 10
-58.9357486802
 20
-37.0199944277
 10
-58.9458936439
 20
-36.8860248566
  0
LWPOLYLINE
  5
248
100
AcDbEntity
  8
SUPERFICI
100
AcDbPolyline
 62
250
  6
CONTINUOUS
 90
10
 70
0
 10
-59.7136961657
 20
-37.6380214701
 10
-59.7274847527
 20
-37.5727404869
 10
-59.7396747758
 20
-37.5071143756
 10
-59.7502569229
 20
-37.4411821867
 10
-59.7592225732
 20
-37.3749776828
 10
-59.7665643135
 20
-37.3085459925
 10
-59.7722773078
 20
-37.2419435054
 10
-59.776357985
 20
-37.1752155918
 10
-59.7788026813
 20
-37.1083966592
 10
-59.7796091052
 20
-37.0415267489
  0
LWPOLYLINE
  5
249
100
AcDbEntity
  8
SUPERFICI
100
AcDbPolyline
 62
250
  6
CONTINUOUS
 90
8
 70
0
 10
-58.9458930941
 20
-36.8860245526
 10
-58.9498002379
 20
-36.6445156534
 10
-58.9497614599
 20
-36.3992203449
 10
-58.9485479572
 20
-36.150426339
 10
-58.9484193816
 20
-35.8983839877
 10
-58.949742815
 20
-35.6430310353
 10
-58.9524473913
 20
-35.3841632033
 10
-58.9636137492
 20
-34.5849364861
  0
LINE
  5
24A
100
AcDbEntity
  8
SUPERFICI
100
AcDbLine
 62
250
  6
CONTINUOUS
 10
-56.8315884388
 20
-39.4677406084
 11
-56.8304405344
 21
-39.6566480741
  0
LINE
  5
24B
100
AcDbEntity
  8
SUPERFICI
100
AcDbLine
 62
250
  6
CONTINUOUS
 10
-58.9629795198
 20
-34.5849359773
 11
-58.9937113022
 21
-25.9832309891
  0
LINE
  5
24C
100
AcDbEntity
  8
SUPERFICI
100
AcDbLine
 62
250
  6
CONTINUOUS
 10
-58.9937113022
 20
-25.9832309891
 11
-59.0094911708
 21
-19.2421538814
  0
LINE
  5
24D
100
AcDbEntity
  8
SUPERFICI
100
AcDbLine
 62
250
  6
CONTINUOUS
 10
-59.0094911708
 20
-19.2421538814
 11
-59.0201291046
 21
-11.0818992629
  0
LINE
  5
24E
100
AcDbEntity
  8
RACCORDO
100
AcDbLine
 62
7
  6
CONTINUOUS
 10
-60.0144306333
 20
37.0414726247
 11
-60.0144306826
 21
4.2017731098
  0
LINE
  5
24F
100
AcDbEntity
  8
RACCORDO
100
AcDbLine
 62
7
  6
CONTINUOUS
 10
-60.0144306953
 20
-4.2018133435
 11
-60.0144307446
 21
-37.0414724606
  0
LINE
  5
250
100
AcDbEntity
  8
RACCORDO
100
AcDbLine
 62
7
  6
CONTINUOUS
 10
-59.9095676754
 20
3.0614916516
 11
-59.9095676846
 21
-3.0615318854
  0
LINE
  5
251
100
AcDbEntity
  8
SUPERFICI
100
AcDbLine
 62
250
  6
CONTINUOUS
 10
-59.7795220199
 20
37.0415269307
 11
-59.7795221298
 21
-37.0415267466
  0
LINE
  5
252
100
AcDbEntity
  8
SUPERFICI
100
AcDbLine
 62
250
  6
CONTINUOUS
 10
-59.0201291046
 20
-11.0818992629
 11
-59.0232549649
 21
-2.7917307326
  0
LINE
  5
253
100
AcDbEntity
  8
0
100
AcDbLine
 62
250
  6
CONTINUOUS
 10
-57.0560616064
 20
-40.0000171785
 11
-57.0560522137
 21
-39.7652448971
  0
LINE
  5
254
100
AcDbEntity
  8
0
100
AcDbLine
 62
250
  6
CONTINUOUS
 10
-57.0560520935
 20
39.7652449002
 11
-57.0560614855
 21
40.0000171765
  0
LINE
  5
255
100
AcDbEntity
  8
SUPERFICI
100
AcDbLine
 62
250
  6
CONTINUOUS
 10
-59.0201290634
 20
11.0818987785
 11
-59.0232549649
 21
-2.7917307326
  0
LINE
  5
256
100
AcDbEntity
  8
SUPERFICI
100
AcDbLine
 62
250
  6
CONTINUOUS
 10
-59.0043060825
 20
21.9336617633
 11
-59.0201290634
 21
11.0818987785
  0
LINE
  5
257
100
AcDbEntity
  8
SUPERFICI
100
AcDbLine
 62
250
  6
CONTINUOUS
 10
-58.9629794154
 20
34.5849361597
 11
-59.0043060825
 21
21.9336617633
  0
LWPOLYLINE
  5
258
100
AcDbEntity
  8
SUPERFICI
100
AcDbPolyline
 62
250
  6
CONTINUOUS
 90
10
 70
0
 10
-59.7796089933
 20
37.0415269331
 10
-59.7788023791
 20
37.1084046853
 10
-59.7763571944
 20
37.175229672
 10
-59.7722758618
 20
37.2419618456
 10
-59.7665621526
 20
37.3085670443
 10
-59.7592197807
 20
37.3749996577
 10
-59.7502538207
 20
37.4412025765
 10
-59.7396719111
 20
37.5071304567
 10
-59.7274828244
 20
37.5727498175
 10
-59.713696052
 20
37.638021654
  0
LWPOLYLINE
  5
259
100
AcDbEntity
  8
SUPERFICI
100
AcDbPolyline
 62
250
  6
CONTINUOUS
 90
3
 70
0
 10
-58.9497427073
 20
35.6430312176
 10
-58.9594752777
 20
34.855148146
 10
-58.9636136447
 20
34.5849366684
  0
LWPOLYLINE
  5
25A
100
AcDbEntity
  8
SUPERFICI
100
AcDbPolyline
 62
250
  6
CONTINUOUS
 90
6
 70
0
 10
-58.9458929827
 20
36.8860247349
 10
-58.9498001272
 20
36.6445158357
 10
-58.9497613499
 20
36.3992205271
 10
-58.948547848
 20
36.1504265213
 10
-58.9484192731
 20
35.89838417
 10
-58.9497427073
 20
35.6430312176
  0
LWPOLYLINE
  5
25B
100
AcDbEntity
  8
SUPERFICI
100
AcDbPolyline
 62
250
  6
CONTINUOUS
 90
4
 70
0
 10
-56.8292140669
 20
39.7651900755
 10
-56.8296465381
 20
39.7538182808
 10
-56.8299495406
 20
39.731493677
 10
-56.8308380651
 20
39.6011939207
  0
LWPOLYLINE
  5
25C
100
AcDbEntity
  8
SUPERFICI
100
AcDbPolyline
 62
250
  6
CONTINUOUS
 90
10
 70
0
 10
-52.7072140828
 20
29.9008601868
 10
-52.776988399
 20
29.5625576087
 10
-52.8396090908
 20
29.2164814895
 10
-52.8969548729
 20
28.8631824754
 10
-52.9500300416
 20
28.5028127751
 10
-52.9998112237
 20
28.1356689893
 10
-53.0470262443
 20
27.7622444611
 10
-53.0914427444
 20
27.3826689657
 10
-53.1333263565
 20
26.9968617016
 10
-53.2325383195
 20
26.0077730944
  0
LWPOLYLINE
  5
25D
100
AcDbEntity
  8
SUPERFICI
100
AcDbPolyline
 62
250
  6
CONTINUOUS
 90
10
 70
0
 10
-52.7071445053
 20
29.9011372333
 10
-52.6528311274
 20
30.134455887
 10
-52.5955155542
 20
30.3624169377
 10
-52.53657134
 20
30.5853961381
 10
-52.4764680146
 20
30.8034882723
 10
-52.4138309192
 20
31.0162206788
 10
-52.3472032145
 20
31.2231043244
 10
-52.2756102819
 20
31.4237186969
 10
-52.1988795147
 20
31.6177166402
 10
-52.1169920445
 20
31.8048125435
  0
LWPOLYLINE
  5
25E
100
AcDbEntity
  8
SUPERFICI
100
AcDbPolyline
 62
250
  6
CONTINUOUS
 90
10
 70
0
 10
-52.1169920453
 20
31.804812544
 10
-52.0333815985
 20
31.9796867002
 10
-51.9445763912
 20
32.149322894
 10
-51.8516158611
 20
32.3135307929
 10
-51.7546501273
 20
32.4718268181
 10
-51.6536146895
 20
32.6243585726
 10
-51.5482587426
 20
32.7718419422
 10
-51.4386384826
 20
32.9144007244
 10
-51.3251628265
 20
33.0516460283
 10
-51.2080472508
 20
33.1833274887
  0
LWPOLYLINE
  5
25F
100
AcDbEntity
  8
SUPERFICI
100
AcDbPolyline
 62
250
  6
CONTINUOUS
 90
10
 70
0
 10
-51.2080466027
 20
-33.1833281401
 10
-51.3214265517
 20
-33.0560173182
 10
-51.4324755826
 20
-32.9221429367
 10
-51.5405384325
 20
-32.7820816772
 10
-51.6456471055
 20
-32.6355399329
 10
-51.7477474275
 20
-32.4823782904
 10
-51.8464385135
 20
-32.3224803959
 10
-51.9408483192
 20
-32.15624945
 10
-52.0314097691
 20
-31.9836404514
 10
-52.1169915759
 20
-31.8048136089
  0
LWPOLYLINE
  5
260
100
AcDbEntity
  8
SUPERFICI
100
AcDbPolyline
 62
250
  6
CONTINUOUS
 90
10
 70
0
 10
-52.7071445956
 20
-29.9011370691
 10
-52.6528312184
 20
-30.1344557231
 10
-52.595515646
 20
-30.3624167739
 10
-52.5365714324
 20
-30.5853959745
 10
-52.4764681077
 20
-30.8034881088
 10
-52.4138310129
 20
-31.0162205156
 10
-52.3472033089
 20
-31.2231041613
 10
-52.2756103768
 20
-31.4237185341
 10
-52.1988796103
 20
-31.6177164777
 10
-52.1169921405
 20
-31.8048123811
  0
LWPOLYLINE
  5
261
100
AcDbEntity
  8
SUPERFICI
100
AcDbPolyline
 62
250
  6
CONTINUOUS
 90
9
 70
0
 10
-52.7072141731
 20
-29.9008600226
 10
-52.7769884883
 20
-29.5625574443
 10
-52.839609179
 20
-29.2164813249
 10
-52.8969549601
 20
-28.8631823106
 10
-52.9500301278
 20
-28.5028126102
 10
-52.9998113087
 20
-28.1356688242
 10
-53.0470263282
 20
-27.7622442958
 10
-53.0914428272
 20
-27.3826688004
 10
-53.1333264381
 20
-26.9968615361
  0
LINE
  5
262
100
AcDbEntity
  8
SUPERFICI
100
AcDbLine
 62
250
  6
CONTINUOUS
 10
-53.2325383981
 20
-26.0077729287
 11
-53.1333264381
 21
-26.9968615361
  0
LINE
  5
263
100
AcDbEntity
  8
SUPERFICI
100
AcDbLine
 62
250
  6
CONTINUOUS
 10
-53.3462246429
 20
-24.8189947974
 11
-53.2325383981
 21
-26.0077729287
  0
LINE
  5
264
100
AcDbEntity
  8
SUPERFICI
100
AcDbLine
 62
250
  6
CONTINUOUS
 10
-53.4539619393
 20
-23.6376780713
 11
-53.3462246429
 21
-24.8189947974
  0
LINE
  5
265
100
AcDbEntity
  8
SUPERFICI
100
AcDbLine
 62
250
  6
CONTINUOUS
 10
-53.5558084037
 20
-22.463566308
 11
-53.4539619393
 21
-23.6376780713
  0
LINE
  5
266
100
AcDbEntity
  8
SUPERFICI
100
AcDbLine
 62
250
  6
CONTINUOUS
 10
-53.6518020199
 20
-21.2966163351
 11
-53.5558084037
 21
-22.463566308
  0
LWPOLYLINE
  5
267
100
AcDbEntity
  8
SUPERFICI
100
AcDbPolyline
 62
250
  6
CONTINUOUS
 90
10
 70
0
 10
-53.6518009849
 20
-21.2966195779
 10
-53.8304057914
 20
-18.9325373364
 10
-53.9880081618
 20
-16.5675332677
 10
-54.1246050176
 20
-14.2017485451
 10
-54.2401957012
 20
-11.8352699566
 10
-54.334773789
 20
-9.468292583
 10
-54.4083319033
 20
-7.1011199906
 10
-54.4608703869
 20
-4.7339471789
 10
-54.4923924909
 20
-2.3668603888
 10
-54.5028995559
 20
0.0000000848
  0
LWPOLYLINE
  5
268
100
AcDbEntity
  8
SUPERFICI
100
AcDbPolyline
 62
250
  6
CONTINUOUS
 90
5
 70
0
 10
-56.8304405344
 20
-39.6566480741
 10
-56.830206843
 20
-39.69975473
 10
-56.8299678169
 20
-39.73228171
 10
-56.8296581836
 20
-39.754140341
 10
-56.8292215753
 20
-39.7651493384
  0
LINE
  5
269
100
AcDbEntity
  8
SUPERFICI
100
AcDbLine
 62
250
  6
CONTINUOUS
 10
-56.8322051119
 20
-39.0125842545
 11
-56.8315884388
 21
-39.4677406084
  0
LWPOLYLINE
  5
26A
100
AcDbEntity
  8
SUPERFICI
100
AcDbPolyline
 62
250
  6
CONTINUOUS
 90
3
 70
0
 10
-56.8308380651
 20
39.6011939207
 10
-56.8311836681
 20
39.5382154526
 10
-56.8322130514
 20
39.0125841905
  0
LWPOLYLINE
  5
26B
100
AcDbEntity
  8
SUPERFICI
100
AcDbPolyline
 62
250
  6
CONTINUOUS
 90
10
 70
0
 10
-53.6518009205
 20
21.2966197449
 10
-53.8304057342
 20
18.9325375039
 10
-53.9880081118
 20
16.5675334357
 10
-54.1246049747
 20
14.2017487135
 10
-54.2401956655
 20
11.8352701254
 10
-54.3347737605
 20
9.4682927522
 10
-54.4083318819
 20
7.1011201599
 10
-54.4608703727
 20
4.7339473484
 10
-54.4923924838
 20
2.3668605583
 10
-54.5028995559
 20
0.0000000848
  0
LINE
  5
26C
100
AcDbEntity
  8
SUPERFICI
100
AcDbLine
 62
250
  6
CONTINUOUS
 10
-53.6518019556
 20
21.2966165021
 11
-53.5558083358
 21
22.4635664747
  0
LINE
  5
26D
100
AcDbEntity
  8
SUPERFICI
100
AcDbLine
 62
250
  6
CONTINUOUS
 10
-53.5558083358
 20
22.4635664747
 11
-53.4539618679
 21
23.6376782378
  0
LINE
  5
26E
100
AcDbEntity
  8
SUPERFICI
100
AcDbLine
 62
250
  6
CONTINUOUS
 10
-53.4539618679
 20
23.6376782378
 11
-53.3462245679
 21
24.8189949636
  0
LINE
  5
26F
100
AcDbEntity
  8
SUPERFICI
100
AcDbLine
 62
250
  6
CONTINUOUS
 10
-53.3462245679
 20
24.8189949636
 11
-53.2325383195
 21
26.0077730944
  0
LINE
  5
270
100
AcDbEntity
  8
RACCORDO
100
AcDbLine
 62
7
  6
CONTINUOUS
 10
-59.9323615953
 20
-3.557254316
 11
-59.9916367846
 21
-3.7060909128
  0
LINE
  5
271
100
AcDbEntity
  8
RACCORDO
100
AcDbLine
 62
7
  6
CONTINUOUS
 10
-59.9916367735
 20
3.7060506791
 11
-59.9323615846
 21
3.5572140823
  0
LWPOLYLINE
  5
272
100
AcDbEntity
  8
SUPERFICI
100
AcDbPolyline
 62
250
  6
CONTINUOUS
 90
15
 70
0
 10
-36.7929504408
 20
23.8765102735
 10
-36.6664841434
 20
24.1078888327
 10
-36.5224364285
 20
24.3285605282
 10
-36.361827322
 20
24.5372894291
 10
-36.1857946516
 20
24.7328255488
 10
-35.9953623864
 20
24.9140284517
 10
-35.7914106958
 20
25.0798262484
 10
-35.5749583884
 20
25.2291965077
 10
-35.3476107731
 20
25.3612693568
 10
-35.1111660178
 20
25.4753307861
 10
-34.8670494488
 20
25.5707239503
 10
-34.616641823
 20
25.6466885605
 10
-34.3617459967
 20
25.7028279216
 10
-34.1039998324
 20
25.7390423255
 10
-33.8448093752
 20
25.7552528019
  0
LWPOLYLINE
  5
273
100
AcDbEntity
  8
SUPERFICI
100
AcDbPolyline
 62
250
  6
CONTINUOUS
 90
19
 70
0
 10
56.9510899717
 20
-39.0031617671
 10
57.0128922159
 20
-38.9939777372
 10
57.0735296333
 20
-38.9860770494
 10
57.1340377156
 20
-38.9790315084
 10
57.1988784761
 20
-38.9686293601
 10
57.2662103308
 20
-38.9552378465
 10
57.3342980589
 20
-38.9397655319
 10
57.4032590219
 20
-38.9222423339
 10
57.4740411208
 20
-38.9019170969
 10
57.546497976
 20
-38.8786805171
 10
57.6201348013
 20
-38.852489592
 10
57.694830276
 20
-38.8229747272
 10
57.7707527153
 20
-38.7895783293
 10
57.8476131997
 20
-38.7519286879
 10
57.9251363289
 20
-38.709822103
 10
58.0033131985
 20
-38.6628739704
 10
58.081871885
 20
-38.6107609554
 10
58.1602361245
 20
-38.5532743857
 10
58.2379643163
 20
-38.4901760916
  0
LWPOLYLINE
  5
274
100
AcDbEntity
  8
SUPERFICI
100
AcDbPolyline
 62
250
  6
CONTINUOUS
 90
19
 70
0
 10
-56.9510903669
 20
-39.0031616815
 10
-57.0128926112
 20
-38.9939776516
 10
-57.0735300286
 20
-38.9860769636
 10
-57.1340381109
 20
-38.9790314226
 10
-57.1988788713
 20
-38.9686292742
 10
-57.2662107261
 20
-38.9552377605
 10
-57.3342984541
 20
-38.9397654458
 10
-57.4032594171
 20
-38.9222422477
 10
-57.474041516
 20
-38.9019170106
 10
-57.5464983712
 20
-38.8786804307
 10
-57.6201351965
 20
-38.8524895055
 10
-57.6948306712
 20
-38.8229746406
 10
-57.7707531104
 20
-38.7895782425
 10
-57.8476135947
 20
-38.751928601
 10
-57.925136724
 20
-38.709822016
 10
-58.0033135935
 20
-38.6628738833
 10
-58.0818722799
 20
-38.6107608681
 10
-58.1602365193
 20
-38.5532742983
 10
-58.2379647111
 20
-38.4901760041
  0
LWPOLYLINE
  5
275
100
AcDbEntity
  8
SUPERFICI
100
AcDbPolyline
 62
250
  6
CONTINUOUS
 90
16
 70
0
 10
-36.7929505129
 20
-23.8765101563
 10
-36.6664842162
 20
-24.1078887158
 10
-36.522436502
 20
-24.3285604118
 10
-36.3618273961
 20
-24.5372893132
 10
-36.1857947263
 20
-24.7328254334
 10
-35.9953624617
 20
-24.9140283369
 10
-35.7914107716
 20
-25.0798261341
 10
-35.5749584646
 20
-25.2291963941
 10
-35.3476108497
 20
-25.3612692439
 10
-35.1111660947
 20
-25.4753306739
 10
-34.867049526
 20
-25.5707238389
 10
-34.6166419004
 20
-25.6466884498
 10
-34.3617460743
 20
-25.7028278117
 10
-34.1039999101
 20
-25.7390422164
 10
-33.8448094529
 20
-25.7552526935
 10
-33.5063201082
 20
-25.7500566938
  0
LINE
  5
276
100
AcDbEntity
  8
SUPERFICI
100
AcDbLine
 62
250
  6
CONTINUOUS
 10
-37.1839717906
 20
-20.8624207164
 11
-37.1630479923
 21
-21.4759814795
  0
LINE
  5
277
100
AcDbEntity
  8
SUPERFICI
100
AcDbLine
 62
250
  6
CONTINUOUS
 10
-37.1839717276
 20
20.8624208348
 11
-37.1630479274
 21
21.4759815978
  0
LINE
  5
278
100
AcDbEntity
  8
SUPERFICI
100
AcDbLine
 62
250
  6
CONTINUOUS
 10
-37.127636234
 20
22.7948477716
 11
-37.1239339782
 21
22.8202320201
  0
LINE
  5
279
100
AcDbEntity
  8
SUPERFICI
100
AcDbLine
 62
250
  6
CONTINUOUS
 10
-37.1239339782
 20
22.8202320201
 11
-37.1201222025
 21
22.8454879527
  0
LINE
  5
27A
100
AcDbEntity
  8
SUPERFICI
100
AcDbLine
 62
250
  6
CONTINUOUS
 10
-37.1201222025
 20
22.8454879527
 11
-37.1161850677
 21
22.8706388963
  0
LWPOLYLINE
  5
27B
100
AcDbEntity
  8
SUPERFICI
100
AcDbPolyline
 62
250
  6
CONTINUOUS
 90
3
 70
0
 10
-37.1161850677
 20
22.8706388963
 10
-37.1120846667
 20
22.8956474415
 10
-37.1099730582
 20
22.9081168491
  0
LWPOLYLINE
  5
27C
100
AcDbEntity
  8
SUPERFICI
100
AcDbPolyline
 62
250
  6
CONTINUOUS
 90
10
 70
0
 10
-37.109990996
 20
22.9081212658
 10
-37.0891713188
 20
23.0194228681
 10
-37.0646712209
 20
23.1301487356
 10
-37.0365094375
 20
23.2401745416
 10
-37.0046731735
 20
23.3494562553
 10
-36.9692085195
 20
23.4577839061
 10
-36.9302469734
 20
23.5647925838
 10
-36.8878719055
 20
23.6702872545
 10
-36.8420920392
 20
23.7742317589
 10
-36.7929504408
 20
23.8765102735
  0
LWPOLYLINE
  5
27D
100
AcDbEntity
  8
SUPERFICI
100
AcDbPolyline
 62
250
  6
CONTINUOUS
 90
16
 70
0
 10
-35.4801113442
 20
22.6197667477
 10
-35.4402389377
 20
22.7938934259
 10
-35.3843598604
 20
22.9635631745
 10
-35.3128445765
 20
23.1274671503
 10
-35.2262329787
 20
23.2844193611
 10
-35.125349715
 20
23.4329550961
 10
-35.0112817355
 20
23.571404906
 10
-34.8850469845
 20
23.6984040348
 10
-34.7476119898
 20
23.8130037945
 10
-34.6001808425
 20
23.9143199855
 10
-34.4440322593
 20
24.0015368345
 10
-34.2805852341
 20
24.0739201809
 10
-34.1112549084
 20
24.1308350467
 10
-33.9373808625
 20
24.1718309072
 10
-33.7601530356
 20
24.1965513807
 10
-33.5804716735
 20
24.2048018714
  0
LWPOLYLINE
  5
27E
100
AcDbEntity
  8
0
100
AcDbPolyline
 62
250
  6
CONTINUOUS
 90
4
 70
0
 10
-33.8727789035
 20
22.3386840062
 10
-33.8620183101
 20
22.374665855
 10
-33.8469115802
 20
22.4088919066
 10
-33.827742386
 20
22.4408514685
  0
LWPOLYLINE
  5
27F
100
AcDbEntity
  8
0
100
AcDbPolyline
 62
7
  6
CONTINUOUS
 90
5
 70
0
 10
-33.7675956652
 20
22.3736914271
 10
-33.7508085643
 20
22.3989460309
 10
-33.7312574975
 20
22.4214446771
 10
-33.7087512062
 20
22.4410057729
 10
-33.6834809491
 20
22.4578109111
  0
LWPOLYLINE
  5
280
100
AcDbEntity
  8
0
100
AcDbPolyline
 62
250
  6
CONTINUOUS
 90
4
 70
0
 10
-33.827742386
 20
22.4408514685
 10
-33.8048831259
 20
22.4700436179
 10
-33.7787030141
 20
22.4960964798
 10
-33.7495200043
 20
22.5187314525
  0
LWPOLYLINE
  5
281
100
AcDbEntity
  8
0
100
AcDbPolyline
 62
7
  6
CONTINUOUS
 90
3
 70
0
 43
0.3500000006
 10
-3.2142873831
 20
50.8928730011
 10
-2.3571444869
 20
51.7500154724
 10
-2.3571444869
 20
48.7500190887
  0
LWPOLYLINE
  5
282
100
AcDbEntity
  8
SUPERFICI
100
AcDbPolyline
 62
250
  6
CONTINUOUS
 90
7
 70
0
 10
46.0719503091
 20
-35.2675155013
 10
45.0358262441
 20
-35.3768666495
 10
43.9627740596
 20
-35.4600182375
 10
42.8531416415
 20
-35.5200721109
 10
41.7075246896
 20
-35.5599945413
 10
40.5270720328
 20
-35.591494362
 10
39.3119570424
 20
-35.6196808298
  0
LWPOLYLINE
  5
283
100
AcDbEntity
  8
SUPERFICI
100
AcDbPolyline
 62
250
  6
CONTINUOUS
 90
5
 70
0
 10
52.1454277476
 20
-39.1063395979
 10
53.0446364546
 20
-39.0853232248
 10
53.4752325882
 20
-39.0771655628
 10
53.8926015324
 20
-39.0718515224
 10
54.6909622728
 20
-39.0644161752
  0
LINE
  5
284
100
AcDbEntity
  8
SUPERFICI
100
AcDbLine
 62
250
  6
CONTINUOUS
 10
56.157861362
 20
-39.0272164481
 11
56.8322144298
 21
-39.0126714663
  0
LWPOLYLINE
  5
285
100
AcDbEntity
  8
SUPERFICI
100
AcDbPolyline
 62
250
  6
CONTINUOUS
 90
3
 70
0
 10
54.6909622728
 20
-39.0644161752
 10
55.0735329184
 20
-39.0570104457
 10
56.157861362
 20
-39.0272164481
  0
LINE
  5
286
100
AcDbEntity
  8
SUPERFICI
100
AcDbLine
 62
250
  6
CONTINUOUS
 10
47.4404200229
 20
-39.1159617423
 11
52.1454380378
 21
-39.1063514096
  0
LWPOLYLINE
  5
287
100
AcDbEntity
  8
SUPERFICI
100
AcDbPolyline
 62
250
  6
CONTINUOUS
 90
10
 70
0
 10
-56.8322131692
 20
-39.0125840146
 10
-56.8450372471
 20
-39.0126035117
 10
-56.8578956399
 20
-39.0125223886
 10
-56.8708283465
 20
-39.0122392954
 10
-56.8839178126
 20
-39.0115543162
 10
-56.8971664325
 20
-39.0104537644
 10
-56.9104925577
 20
-39.009117877
 10
-56.9238931537
 20
-39.0075434243
 10
-56.9374414705
 20
-39.0055457619
 10
-56.9510903669
 20
-39.0031616815
  0
LINE
  5
288
100
AcDbEntity
  8
0
100
AcDbLine
 62
7
  6
CONTINUOUS
 10
-57.0560240191
 20
-40.0000171785
 11
57.0560258496
 21
-40.0000171785
  0
LINE
  5
289
100
AcDbEntity
  8
SUPERFICI
100
AcDbLine
 62
250
  6
CONTINUOUS
 10
-16.8634878178
 20
-39.1092854919
 11
-42.6413788266
 21
-39.1180671853
  0
LINE
  5
28A
100
AcDbEntity
  8
SUPERFICI
100
AcDbLine
 62
250
  6
CONTINUOUS
 10
-16.8634878178
 20
-39.1092854919
 11
30.2340731117
 21
-39.112341123
  0
LWPOLYLINE
  5
28B
100
AcDbEntity
  8
SUPERFICI
100
AcDbPolyline
 62
250
  6
CONTINUOUS
 90
3
 70
0
 10
30.2344334435
 20
-39.1118316606
 10
42.6413784326
 20
-39.1180672494
 10
47.4404200229
 20
-39.1159617423
  0
LINE
  5
28C
100
AcDbEntity
  8
SUPERFICI
100
AcDbLine
 62
250
  6
CONTINUOUS
 10
-42.6413788266
 20
-39.1180671853
 11
-47.4404204169
 21
-39.1159616711
  0
LINE
  5
28D
100
AcDbEntity
  8
SUPERFICI
100
AcDbLine
 62
250
  6
CONTINUOUS
 10
57.0560518593
 20
-39.7652447604
 11
-57.0560522137
 21
-39.7652448971
  0
LINE
  5
28E
100
AcDbEntity
  8
SUPERFICI
100
AcDbLine
 62
250
  6
CONTINUOUS
 10
-47.4404204169
 20
-39.1159616711
 11
-52.1454384319
 21
-39.1063513313
  0
LWPOLYLINE
  5
28F
100
AcDbEntity
  8
SUPERFICI
100
AcDbPolyline
 62
250
  6
CONTINUOUS
 90
3
 70
0
 10
-53.892601927
 20
-39.0718514415
 10
-54.6909626675
 20
-39.0644160931
 10
-55.0735333132
 20
-39.057010363
  0
LINE
  5
290
100
AcDbEntity
  8
SUPERFICI
100
AcDbLine
 62
250
  6
CONTINUOUS
 10
-53.4752329828
 20
-39.0771654825
 11
-53.892601927
 21
-39.0718514415
  0
LWPOLYLINE
  5
291
100
AcDbEntity
  8
SUPERFICI
100
AcDbPolyline
 62
250
  6
CONTINUOUS
 90
10
 70
0
 10
56.8322144298
 20
-39.0126714663
 10
56.844938268
 20
-39.0128480863
 10
56.8577917356
 20
-39.012727898
 10
56.870773616
 20
-39.0123045119
 10
56.8838896374
 20
-39.0115646978
 10
56.8971312732
 20
-39.010506971
 10
56.9104758458
 20
-39.0091421493
 10
56.9239147403
 20
-39.0074683091
 10
56.9374532348
 20
-39.005470197
 10
56.95108902
 20
-39.0031384053
  0
LINE
  5
292
100
AcDbEntity
  8
SUPERFICI
100
AcDbLine
 62
250
  6
CONTINUOUS
 10
-56.1578617571
 20
-39.0272163638
 11
-56.8322148249
 21
-39.012671381
  0
LWPOLYLINE
  5
293
100
AcDbEntity
  8
SUPERFICI
100
AcDbPolyline
 62
250
  6
CONTINUOUS
 90
3
 70
0
 10
-52.1454281418
 20
-39.1063395196
 10
-52.6013991247
 20
-39.095064638
 10
-53.4752329828
 20
-39.0771654825
  0
LINE
  5
294
100
AcDbEntity
  8
SUPERFICI
100
AcDbLine
 62
250
  6
CONTINUOUS
 10
-55.0735333132
 20
-39.057010363
 11
-56.1578617571
 21
-39.0272163638
  0
LWPOLYLINE
  5
295
100
AcDbEntity
  8
SUPERFICI
100
AcDbPolyline
 62
250
  6
CONTINUOUS
 90
13
 70
0
 10
-46.0719957258
 20
-35.2675096944
 10
-46.6400908836
 20
-35.1860142617
 10
-47.1870973674
 20
-35.0890288439
 10
-47.710937168
 20
-34.9762972064
 10
-48.2110302701
 20
-34.848049143
 10
-48.6865246756
 20
-34.7042442544
 10
-49.1362492134
 20
-34.5429248313
 10
-49.5577631567
 20
-34.3628676619
 10
-49.9493146623
 20
-34.1638218299
 10
-50.3114727243
 20
-33.9448994543
 10
-50.6432826862
 20
-33.7053255213
 10
-50.9418413676
 20
-33.4499379155
 10
-51.2080465062
 20
-33.1833282449
  0
LWPOLYLINE
  5
296
100
AcDbEntity
  8
0
100
AcDbPolyline
 62
250
  6
CONTINUOUS
 90
4
 70
0
 10
-33.7502805432
 20
-22.5182115164
 10
-33.7793775235
 20
-22.4955014954
 10
-33.805374498
 20
-22.469488947
 10
-33.8280603783
 20
-22.4403881707
  0
LWPOLYLINE
  5
297
100
AcDbEntity
  8
0
100
AcDbPolyline
 62
250
  6
CONTINUOUS
 90
4
 70
0
 10
-33.8280603783
 20
-22.4403881707
 10
-33.8470957488
 20
-22.4085359539
 10
-33.8620940031
 20
-22.3744604348
 10
-33.8727826406
 20
-22.3386680744
  0
LWPOLYLINE
  5
298
100
AcDbEntity
  8
0
100
AcDbPolyline
 62
7
  6
CONTINUOUS
 90
5
 70
0
 10
-33.7674605806
 20
-22.3739124771
 10
-33.7806986971
 20
-22.3472624634
 10
-33.7900372433
 20
-22.31970383
 10
-33.7957652119
 20
-22.2907691526
 10
-33.7978826029
 20
-22.2604584314
  0
LWPOLYLINE
  5
299
100
AcDbEntity
  8
SUPERFICI
100
AcDbPolyline
 62
250
  6
CONTINUOUS
 90
16
 70
0
 10
-35.4801114125
 20
-22.6197666339
 10
-35.4402390065
 20
-22.7938933123
 10
-35.3843599297
 20
-22.963563061
 10
-35.3128446463
 20
-23.1274670371
 10
-35.2262330491
 20
-23.2844192481
 10
-35.1253497858
 20
-23.4329549835
 10
-35.0112818067
 20
-23.5714047937
 10
-34.8850470561
 20
-23.6984039229
 10
-34.7476120618
 20
-23.813003683
 10
-34.6001809147
 20
-23.9143198744
 10
-34.4440323318
 20
-24.0015367239
 10
-34.2805853068
 20
-24.0739200708
 10
-34.1112549813
 20
-24.1308349371
 10
-33.9373809355
 20
-24.1718307982
 10
-33.7601531087
 20
-24.1965512722
 10
-33.5804717466
 20
-24.2048017634
  0
LWPOLYLINE
  5
29A
100
AcDbEntity
  8
SUPERFICI
100
AcDbPolyline
 62
250
  6
CONTINUOUS
 90
10
 70
0
 10
-37.1099910653
 20
-22.9081211476
 10
-37.0891713883
 20
-23.0194227499
 10
-37.0646712908
 20
-23.1301486175
 10
-37.0365095077
 20
-23.2401744236
 10
-37.004673244
 20
-23.3494561374
 10
-36.9692085904
 20
-23.4577837884
 10
-36.9302470446
 20
-23.5647924661
 10
-36.887871977
 20
-23.670287137
 10
-36.842092111
 20
-23.7742316416
 10
-36.7929505129
 20
-23.8765101563
  0
LINE
  5
29B
100
AcDbEntity
  8
SUPERFICI
100
AcDbLine
 62
250
  6
CONTINUOUS
 10
-37.1141551243
 20
-22.8831564545
 11
-37.1099731274
 21
-22.9081167309
  0
LINE
  5
29C
100
AcDbEntity
  8
SUPERFICI
100
AcDbLine
 62
250
  6
CONTINUOUS
 10
-37.118173064
 20
-22.8580821449
 11
-37.1141551243
 21
-22.8831564545
  0
LINE
  5
29D
100
AcDbEntity
  8
SUPERFICI
100
AcDbLine
 62
250
  6
CONTINUOUS
 10
-37.1220413896
 20
-22.8328706425
 11
-37.118173064
 21
-22.8580821449
  0
LWPOLYLINE
  5
29E
100
AcDbEntity
  8
SUPERFICI
100
AcDbPolyline
 62
250
  6
CONTINUOUS
 90
3
 70
0
 10
-37.1276363029
 20
-22.7948476533
 10
-37.1257986822
 20
-22.8075593962
 10
-37.1220413896
 20
-22.8328706425
  0
LWPOLYLINE
  5
29F
100
AcDbEntity
  8
SUPERFICI
100
AcDbPolyline
 62
250
  6
CONTINUOUS
 90
10
 70
0
 10
-37.1552407095
 20
22.2456390374
 10
-37.1573842245
 20
22.3035554237
 10
-37.1578717875
 20
22.3625752833
 10
-37.1570133519
 20
22.4224426379
 10
-37.1550518969
 20
22.4829844391
 10
-37.1520158105
 20
22.5441475129
 10
-37.1478052698
 20
22.6059141988
 10
-37.1423182463
 20
22.6683059033
 10
-37.1356048052
 20
22.7312999275
 10
-37.1276344653
 20
22.7948641538
  0
LINE
  5
2A0
100
AcDbEntity
  8
SUPERFICI
100
AcDbLine
 62
250
  6
CONTINUOUS
 10
-37.1993947433
 20
-20.3444701225
 11
-37.1839717906
 21
-20.8624207164
  0
LINE
  5
2A1
100
AcDbEntity
  8
SUPERFICI
100
AcDbLine
 62
250
  6
CONTINUOUS
 10
-37.1630479923
 20
-21.4759814795
 11
-37.1602216068
 21
-21.57543045
  0
LINE
  5
2A2
100
AcDbEntity
  8
SUPERFICI
100
AcDbLine
 62
250
  6
CONTINUOUS
 10
-37.2119717618
 20
-19.8217373751
 11
-37.1993947433
 21
-20.3444701225
  0
LWPOLYLINE
  5
2A3
100
AcDbEntity
  8
SUPERFICI
100
AcDbPolyline
 62
250
  6
CONTINUOUS
 90
5
 70
0
 10
-37.1602216068
 20
-21.57543045
 10
-37.155818554
 20
-21.7714878501
 10
-37.1543588933
 20
-21.8682459787
 10
-37.1540923437
 20
-21.9642047128
 10
-37.1552262592
 20
-22.1530644774
  0
LINE
  5
2A4
100
AcDbEntity
  8
SUPERFICI
100
AcDbLine
 62
250
  6
CONTINUOUS
 10
-37.2376754317
 20
-18.2091315402
 11
-37.2599490659
 21
-16.9552424787
  0
LWPOLYLINE
  5
2A5
100
AcDbEntity
  8
SUPERFICI
100
AcDbPolyline
 62
250
  6
CONTINUOUS
 90
3
 70
0
 10
-37.2261290622
 20
-19.0290510378
 10
-37.2221242021
 20
-19.2944415493
 10
-37.2119717618
 20
-19.8217373751
  0
LWPOLYLINE
  5
2A6
100
AcDbEntity
  8
SUPERFICI
100
AcDbPolyline
 62
250
  6
CONTINUOUS
 90
5
 70
0
 10
-33.5804702457
 20
-24.2026872522
 10
-33.5782575661
 20
-24.3503231833
 10
-33.576903416
 20
-24.5057738479
 10
-33.576406212
 20
-24.6685109949
 10
-33.5769461434
 20
-24.8384509023
  0
LWPOLYLINE
  5
2A7
100
AcDbEntity
  8
SUPERFICI
100
AcDbPolyline
 62
250
  6
CONTINUOUS
 90
5
 70
0
 10
-37.2599490659
 20
-16.9552424787
 10
-37.2655130531
 20
-16.5306843932
 10
-37.2676674707
 20
-16.1023567426
 10
-37.2672096719
 20
-15.6704473359
 10
-37.2647925119
 20
-15.2349583371
  0
LWPOLYLINE
  5
2A8
100
AcDbEntity
  8
0
100
AcDbPolyline
 62
250
  6
CONTINUOUS
 90
3
 70
0
 10
-33.5804700906
 20
24.2005814043
 10
-33.5794325918
 20
24.1217003466
 10
-33.5791367853
 20
24.0799629763
  0
LINE
  5
2A9
100
AcDbEntity
  8
SUPERFICI
100
AcDbLine
 62
250
  6
CONTINUOUS
 10
-37.2647925119
 20
-15.2349583371
 11
-37.3198458125
 21
-10.1405361895
  0
LINE
  5
2AA
100
AcDbEntity
  8
SUPERFICI
100
AcDbLine
 62
250
  6
CONTINUOUS
 10
-37.2279850718
 20
-19.0299463043
 11
-37.2376754317
 21
-18.2091315402
  0
LINE
  5
2AB
100
AcDbEntity
  8
SUPERFICI
100
AcDbLine
 62
250
  6
CONTINUOUS
 10
-37.3198458125
 20
-10.1405361895
 11
-37.3464061189
 21
-6.7838869644
  0
LINE
  5
2AC
100
AcDbEntity
  8
0
100
AcDbLine
 62
250
  6
CONTINUOUS
 10
-33.5800726601
 20
-22.6032338289
 11
-33.5798726637
 21
-22.6328310507
  0
LINE
  5
2AD
100
AcDbEntity
  8
SUPERFICI
100
AcDbLine
 62
250
  6
CONTINUOUS
 10
-37.3464061189
 20
-6.7838869644
 11
-37.3639598184
 21
-3.4080939608
  0
LWPOLYLINE
  5
2AE
100
AcDbEntity
  8
SUPERFICI
100
AcDbPolyline
 62
250
  6
CONTINUOUS
 90
10
 70
0
 10
-35.509639672
 20
-22.2708003874
 10
-35.5094771523
 20
-22.3099729334
 10
-35.5085318554
 20
-22.3490613682
 10
-35.5068049463
 20
-22.3880580609
 10
-35.5042967719
 20
-22.4269522673
 10
-35.5010094964
 20
-22.4657393858
 10
-35.4969464801
 20
-22.5044210726
 10
-35.4921090511
 20
-22.5429928351
 10
-35.4864971266
 20
-22.5814439167
 10
-35.4801114125
 20
-22.6197666339
  0
LINE
  5
2AF
100
AcDbEntity
  8
SUPERFICI
100
AcDbLine
 62
250
  6
CONTINUOUS
 10
-37.3639598184
 20
-3.4080939608
 11
-37.3717763903
 21
0.0000000595
  0
LINE
  5
2B0
100
AcDbEntity
  8
SUPERFICI
100
AcDbLine
 62
250
  6
CONTINUOUS
 10
-35.5041737732
 20
19.0269180194
 11
-35.507534586
 21
22.2707986773
  0
LINE
  5
2B1
100
AcDbEntity
  8
0
100
AcDbLine
 62
250
  6
CONTINUOUS
 10
-33.5703833873
 20
22.5722943195
 11
-33.5703553439
 21
22.4880964149
  0
LINE
  5
2B2
100
AcDbEntity
  8
SUPERFICI
100
AcDbLine
 62
250
  6
CONTINUOUS
 10
-37.1552261923
 20
22.1530645958
 11
-37.1552400849
 21
22.2456390135
  0
LINE
  5
2B3
100
AcDbEntity
  8
SUPERFICI
100
AcDbLine
 62
250
  6
CONTINUOUS
 10
-35.5041749554
 20
-19.0269179064
 11
-35.5041748979
 21
19.0269180202
  0
LINE
  5
2B4
100
AcDbEntity
  8
0
100
AcDbLine
 62
250
  6
CONTINUOUS
 10
-33.8827378259
 20
22.2605380988
 11
-33.8827378939
 21
-22.2605238834
  0
LINE
  5
2B5
100
AcDbEntity
  8
0
100
AcDbLine
 62
7
  6
CONTINUOUS
 10
-33.7978826029
 20
-22.2604584314
 11
-33.7978208619
 21
22.2604814726
  0
LINE
  5
2B6
100
AcDbEntity
  8
SUPERFICI
100
AcDbLine
 62
250
  6
CONTINUOUS
 10
-37.1552262592
 20
-22.1530644774
 11
-37.1552401522
 21
-22.2456388952
  0
LINE
  5
2B7
100
AcDbEntity
  8
0
100
AcDbLine
 62
250
  6
CONTINUOUS
 10
-33.5703010558
 20
-22.5722910455
 11
-33.5702497893
 21
-22.4880962704
  0
LINE
  5
2B8
100
AcDbEntity
  8
SUPERFICI
100
AcDbLine
 62
250
  6
CONTINUOUS
 10
-35.5041738306
 20
-19.0269179056
 11
-35.5075346533
 21
-22.2707985635
  0
LINE
  5
2B9
100
AcDbEntity
  8
0
100
AcDbLine
 62
250
  6
CONTINUOUS
 10
-33.5791367853
 20
24.0799629763
 11
-33.5798725562
 21
22.6328375643
  0
LINE
  5
2BA
100
AcDbEntity
  8
0
100
AcDbLine
 62
250
  6
CONTINUOUS
 10
-33.5798726637
 20
-22.6328310507
 11
-33.579136826
 21
-24.0799543987
  0
LINE
  5
2BB
100
AcDbEntity
  8
SUPERFICI
100
AcDbLine
 62
250
  6
CONTINUOUS
 10
-37.3639598081
 20
3.4080940797
 11
-37.3717763904
 21
0.0000000595
  0
LWPOLYLINE
  5
2BC
100
AcDbEntity
  8
SUPERFICI
100
AcDbPolyline
 62
250
  6
CONTINUOUS
 90
10
 70
0
 10
-35.5096396047
 20
22.2708005012
 10
-35.5094770849
 20
22.3099730473
 10
-35.5085317879
 20
22.349061482
 10
-35.5068048786
 20
22.3880581747
 10
-35.5042967041
 20
22.4269523812
 10
-35.5010094285
 20
22.4657394996
 10
-35.4969464121
 20
22.5044211864
 10
-35.492108983
 20
22.5429929488
 10
-35.4864970584
 20
22.5814440305
 10
-35.4801113442
 20
22.6197667477
  0
LINE
  5
2BD
100
AcDbEntity
  8
SUPERFICI
100
AcDbLine
 62
250
  6
CONTINUOUS
 10
-37.3464060984
 20
6.7838870832
 11
-37.3639598081
 21
3.4080940797
  0
LWPOLYLINE
  5
2BE
100
AcDbEntity
  8
0
100
AcDbPolyline
 62
250
  6
CONTINUOUS
 90
6
 70
0
 10
-33.5798725562
 20
22.6328375643
 10
-33.5800725504
 20
22.6032382782
 10
-33.5800659064
 20
22.5919013643
 10
-33.5799032752
 20
22.5829151886
 10
-33.5796271036
 20
22.5763555121
 10
-33.5792373914
 20
22.5722794457
  0
LINE
  5
2BF
100
AcDbEntity
  8
SUPERFICI
100
AcDbLine
 62
250
  6
CONTINUOUS
 10
-37.3198457819
 20
10.1405363082
 11
-37.3464060984
 21
6.7838870832
  0
LWPOLYLINE
  5
2C0
100
AcDbEntity
  8
0
100
AcDbPolyline
 62
250
  6
CONTINUOUS
 90
3
 70
0
 10
-33.579136826
 20
-24.0799543987
 10
-33.579877089
 20
-24.1619299979
 10
-33.5804701637
 20
-24.2005812963
  0
LINE
  5
2C1
100
AcDbEntity
  8
SUPERFICI
100
AcDbLine
 62
250
  6
CONTINUOUS
 10
-37.2647924659
 20
15.2349584557
 11
-37.3198457819
 21
10.1405363082
  0
LINE
  5
2C2
100
AcDbEntity
  8
SUPERFICI
100
AcDbLine
 62
250
  6
CONTINUOUS
 10
-33.5769461434
 20
-24.8384509023
 11
-33.5856680452
 21
-25.7513559412
  0
LWPOLYLINE
  5
2C3
100
AcDbEntity
  8
SUPERFICI
100
AcDbPolyline
 62
250
  6
CONTINUOUS
 90
5
 70
0
 10
-37.2599490147
 20
16.9552425973
 10
-37.2655130031
 20
16.5306845118
 10
-37.2676674221
 20
16.1023568613
 10
-37.2672096245
 20
15.6704474546
 10
-37.2647924659
 20
15.2349584557
  0
LINE
  5
2C4
100
AcDbEntity
  8
SUPERFICI
100
AcDbLine
 62
250
  6
CONTINUOUS
 10
-37.2279850143
 20
19.0299464229
 11
-37.2376753766
 21
18.2091316588
  0
LWPOLYLINE
  5
2C5
100
AcDbEntity
  8
SUPERFICI
100
AcDbPolyline
 62
250
  6
CONTINUOUS
 90
6
 70
0
 10
-33.5804701726
 20
24.2026873602
 10
-33.5782574925
 20
24.3503232912
 10
-33.576903342
 20
24.5057739558
 10
-33.5764061374
 20
24.6685111027
 10
-33.5769460684
 20
24.83845101
 10
-33.5856679674
 20
25.7513560488
  0
LWPOLYLINE
  5
2C6
100
AcDbEntity
  8
SUPERFICI
100
AcDbPolyline
 62
250
  6
CONTINUOUS
 90
4
 70
0
 10
-37.1558184882
 20
21.7714879684
 10
-37.1543588272
 20
21.868246097
 10
-37.1540922773
 20
21.9642048311
 10
-37.1552261923
 20
22.1530645958
  0
LINE
  5
2C7
100
AcDbEntity
  8
SUPERFICI
100
AcDbLine
 62
250
  6
CONTINUOUS
 10
-37.2261290047
 20
19.0290511563
 11
-37.2173679418
 21
19.558651753
  0
LINE
  5
2C8
100
AcDbEntity
  8
SUPERFICI
100
AcDbLine
 62
250
  6
CONTINUOUS
 10
-37.2376753766
 20
18.2091316588
 11
-37.2599490147
 21
16.9552425973
  0
LINE
  5
2C9
100
AcDbEntity
  8
SUPERFICI
100
AcDbLine
 62
250
  6
CONTINUOUS
 10
-37.2173679418
 20
19.558651753
 11
-37.2060334925
 21
20.083718754
  0
LWPOLYLINE
  5
2CA
100
AcDbEntity
  8
SUPERFICI
100
AcDbPolyline
 62
250
  6
CONTINUOUS
 90
3
 70
0
 10
-37.1630479274
 20
21.4759815978
 10
-37.1602215417
 20
21.5754305684
 10
-37.1558184882
 20
21.7714879684
  0
LWPOLYLINE
  5
2CB
100
AcDbEntity
  8
SUPERFICI
100
AcDbPolyline
 62
250
  6
CONTINUOUS
 90
3
 70
0
 10
-37.2060334925
 20
20.083718754
 10
-37.1919819116
 20
20.6039853866
 10
-37.1839717276
 20
20.8624208348
  0
LWPOLYLINE
  5
2CC
100
AcDbEntity
  8
SUPERFICI
100
AcDbPolyline
 62
250
  6
CONTINUOUS
 90
10
 70
0
 10
-37.1552401522
 20
-22.2456388952
 10
-37.1570231788
 20
-22.3049041564
 10
-37.1576117386
 20
-22.3645610338
 10
-37.1569573147
 20
-22.4245957071
 10
-37.1550713855
 20
-22.4849655966
 10
-37.1519809255
 20
-22.5457293627
 10
-37.1477157883
 20
-22.6070472894
 10
-37.1422613791
 20
-22.6690010396
 10
-37.1355800254
 20
-22.7315857327
 10
-37.1276361019
 20
-22.7948479985
  0
LWPOLYLINE
  5
2CD
100
AcDbEntity
  8
0
100
AcDbPolyline
 62
7
  6
CONTINUOUS
 90
13
 70
0
 10
-33.8826758296
 20
22.2605381135
 10
-33.8805541015
 20
22.2971258344
 10
-33.8744711178
 20
22.3318005475
 10
-33.8647647881
 20
22.3649402768
 10
-33.8516553972
 20
22.3963672894
 10
-33.8353414984
 20
22.4259735154
 10
-33.8158941717
 20
22.453688357
 10
-33.7954196475
 20
22.4775221412
 10
-33.7725826545
 20
22.4992429272
 10
-33.7406223905
 20
22.5224746112
 10
-33.6960611658
 20
22.545100227
 10
-33.6412853892
 20
22.5613954087
 10
-33.5761160053
 20
22.5669389706
  0
LWPOLYLINE
  5
2CE
100
AcDbEntity
  8
0
100
AcDbPolyline
 62
7
  6
CONTINUOUS
 90
5
 70
0
 10
-33.7978208619
 20
22.2604814726
 10
-33.7957467798
 20
22.2907058317
 10
-33.790064773
 20
22.3195713275
 10
-33.7807748413
 20
22.3470779599
 10
-33.7675956652
 20
22.3736914271
  0
LWPOLYLINE
  5
2CF
100
AcDbEntity
  8
0
100
AcDbPolyline
 62
250
  6
CONTINUOUS
 90
4
 70
0
 10
-33.7495200043
 20
22.5187314525
 10
-33.7177353502
 20
22.5376275593
 10
-33.6838675027
 20
22.5524675067
 10
-33.6484312372
 20
22.5630266015
  0
LWPOLYLINE
  5
2D0
100
AcDbEntity
  8
0
100
AcDbPolyline
 62
7
  6
CONTINUOUS
 90
5
 70
0
 10
-33.6834809491
 20
22.4578109111
 10
-33.6568644608
 20
22.471007776
 10
-33.6293743196
 20
22.4803122623
 10
-33.6005379473
 20
22.4860084752
 10
-33.5703553439
 20
22.4880964149
  0
LINE
  5
2D1
100
AcDbEntity
  8
SUPERFICI
100
AcDbLine
 62
250
  6
CONTINUOUS
 10
39.3119570424
 20
-35.6196808298
 11
36.7790237887
 21
-35.6686365653
  0
LINE
  5
2D2
100
AcDbEntity
  8
SUPERFICI
100
AcDbLine
 62
250
  6
CONTINUOUS
 10
36.7790237887
 20
-35.6686365653
 11
34.1009417945
 21
-35.7127608579
  0
LINE
  5
2D3
100
AcDbEntity
  8
SUPERFICI
100
AcDbLine
 62
250
  6
CONTINUOUS
 10
34.1009417945
 20
-35.7127608579
 11
31.2713790377
 21
-35.7509093593
  0
LWPOLYLINE
  5
2D4
100
AcDbEntity
  8
SUPERFICI
100
AcDbPolyline
 62
250
  6
CONTINUOUS
 90
3
 70
0
 10
31.2713790377
 20
-35.7509093593
 10
28.2755507572
 20
-35.7809284864
 10
26.7163736124
 20
-35.7922506454
  0
LINE
  5
2D5
100
AcDbEntity
  8
SUPERFICI
100
AcDbLine
 62
250
  6
CONTINUOUS
 10
23.837084021
 20
-35.8048006563
 11
26.7165611048
 21
-35.7922473626
  0
LINE
  5
2D6
100
AcDbEntity
  8
0
100
AcDbLine
 62
250
  6
CONTINUOUS
 10
59.7795217796
 20
-37.0415268364
 11
60.0144307446
 21
-37.0415189749
  0
LINE
  5
2D7
100
AcDbEntity
  8
0
100
AcDbLine
 62
250
  6
CONTINUOUS
 10
-59.7795221298
 20
-37.0415267466
 11
-60.0144307446
 21
-37.0415188848
  0
LWPOLYLINE
  5
2D8
100
AcDbEntity
  8
SUPERFICI
100
AcDbPolyline
 62
250
  6
CONTINUOUS
 90
3
 70
0
 10
-23.8370839443
 20
-35.8048006215
 10
12.0906711106
 20
-35.8041506909
 10
23.837084021
 20
-35.8048006563
  0
LINE
  5
2D9
100
AcDbEntity
  8
SUPERFICI
100
AcDbLine
 62
250
  6
CONTINUOUS
 10
-23.8370839443
 20
-35.8048006215
 11
-26.7165615424
 21
-35.7922473225
  0
LINE
  5
2DA
100
AcDbEntity
  8
SUPERFICI
100
AcDbLine
 62
250
  6
CONTINUOUS
 10
-26.7165823922
 20
-35.7922674594
 11
-29.7452212708
 21
-35.7674550506
  0
LINE
  5
2DB
100
AcDbEntity
  8
SUPERFICI
100
AcDbLine
 62
250
  6
CONTINUOUS
 10
-29.7452212708
 20
-35.7674550506
 11
-32.6264951746
 21
-35.7339081872
  0
LINE
  5
2DC
100
AcDbEntity
  8
SUPERFICI
100
AcDbLine
 62
250
  6
CONTINUOUS
 10
-32.6264951746
 20
-35.7339081872
 11
-35.3632675907
 21
-35.6933321507
  0
LWPOLYLINE
  5
2DD
100
AcDbEntity
  8
SUPERFICI
100
AcDbPolyline
 62
250
  6
CONTINUOUS
 90
9
 70
0
 10
-35.3632675907
 20
-35.6933321507
 10
-37.9672830349
 20
-35.6467397412
 10
-39.2212095575
 20
-35.6215915675
 10
-40.4444679913
 20
-35.5935709796
 10
-41.6362456427
 20
-35.5620575297
 10
-42.7958996092
 20
-35.5225397478
 10
-43.9220719499
 20
-35.4620682965
 10
-45.014193753
 20
-35.3782118842
 10
-46.0720269175
 20
-35.2675306685
  0
LWPOLYLINE
  5
2DE
100
AcDbEntity
  8
0
100
AcDbPolyline
 62
7
  6
CONTINUOUS
 90
5
 70
0
 10
-33.6832439961
 20
-22.4579546558
 10
-33.7085035943
 20
-22.4412075362
 10
-33.7310195925
 20
-22.4216821002
 10
-33.7506118866
 20
-22.3991864468
 10
-33.7674605806
 20
-22.3739124771
  0
LINE
  5
2DF
100
AcDbEntity
  8
SUPERFICI
100
AcDbLine
 62
250
  6
CONTINUOUS
 10
-29.2678200426
 20
24.2023318342
 11
-29.2678200098
 21
25.8215945015
  0
LINE
  5
2E0
100
AcDbEntity
  8
SUPERFICI
100
AcDbLine
 62
250
  6
CONTINUOUS
 10
-29.2678195071
 20
-25.821471378
 11
-29.2678194736
 21
-24.1989241798
  0
LINE
  5
2E1
100
AcDbEntity
  8
SUPERFICI
100
AcDbLine
 62
250
  6
CONTINUOUS
 10
-31.2050780012
 20
-24.1989231952
 11
-31.2040809552
 21
-25.8003685544
  0
LINE
  5
2E2
100
AcDbEntity
  8
SUPERFICI
100
AcDbLine
 62
250
  6
CONTINUOUS
 10
-31.2050779281
 20
24.198923296
 11
-31.2040808772
 21
25.8003686548
  0
LWPOLYLINE
  5
2E3
100
AcDbEntity
  8
0
100
AcDbPolyline
 62
250
  6
CONTINUOUS
 90
5
 70
0
 10
-33.5792372624
 20
-22.5722765808
 10
-33.5796270682
 20
-22.5763515803
 10
-33.5799033118
 20
-22.5829110262
 10
-33.5800659932
 20
-22.5918972993
 10
-33.5800726601
 20
-22.6032338289
  0
LWPOLYLINE
  5
2E4
100
AcDbEntity
  8
SUPERFICI
100
AcDbPolyline
 62
250
  6
CONTINUOUS
 90
5
 70
0
 10
-59.7137011153
 20
-37.638021781
 10
-59.7008048767
 20
-37.6360916483
 10
-59.6751884643
 20
-37.63128333
 10
-59.6373599401
 20
-37.6236945503
 10
-59.5268690182
 20
-37.6005061016
  0
LWPOLYLINE
  5
2E5
100
AcDbEntity
  8
SUPERFICI
100
AcDbPolyline
 62
250
  6
CONTINUOUS
 90
4
 70
0
 10
59.7137007644
 20
-37.6380218707
 10
59.7008045205
 20
-37.6360917379
 10
59.675188103
 20
-37.6312834196
 10
59.6373595738
 20
-37.6236946399
  0
LWPOLYLINE
  5
2E6
100
AcDbEntity
  8
0
100
AcDbPolyline
 62
250
  6
CONTINUOUS
 90
4
 70
0
 10
-33.6484813462
 20
-22.5630148551
 10
-33.6843161239
 20
-22.5523025373
 10
-33.7184178761
 20
-22.5372756087
 10
-33.7502805432
 20
-22.5182115164
  0
LINE
  5
2E7
100
AcDbEntity
  8
SUPERFICI
100
AcDbLine
 62
250
  6
CONTINUOUS
 10
-59.3741033009
 20
-37.5675278842
 11
-58.8708706159
 21
-37.4564951116
  0
LINE
  5
2E8
100
AcDbEntity
  8
SUPERFICI
100
AcDbLine
 62
250
  6
CONTINUOUS
 10
-59.5268690182
 20
-37.6005061016
 11
-59.3741033009
 21
-37.5675278842
  0
LINE
  5
2E9
100
AcDbEntity
  8
SUPERFICI
100
AcDbLine
 62
250
  6
CONTINUOUS
 10
32.9833894613
 20
-25.7572048248
 11
32.4634157075
 21
-25.7740120353
  0
LWPOLYLINE
  5
2EA
100
AcDbEntity
  8
SUPERFICI
100
AcDbPolyline
 62
250
  6
CONTINUOUS
 90
6
 70
0
 10
31.2040802827
 20
-25.8001251032
 10
30.9970507152
 20
-25.8052199225
 10
30.7879085041
 20
-25.8091889567
 10
30.576676439
 20
-25.8119975645
 10
30.3633200663
 20
-25.8129256464
 10
29.9307001307
 20
-25.8131554182
  0
LINE
  5
2EB
100
AcDbEntity
  8
SUPERFICI
100
AcDbLine
 62
250
  6
CONTINUOUS
 10
32.4634157075
 20
-25.7740120353
 11
31.9035438949
 21
-25.7884335777
  0
LINE
  5
2EC
100
AcDbEntity
  8
SUPERFICI
100
AcDbLine
 62
250
  6
CONTINUOUS
 10
31.9035438949
 20
-25.7884335777
 11
31.6396130557
 21
-25.7939380493
  0
LWPOLYLINE
  5
2ED
100
AcDbEntity
  8
SUPERFICI
100
AcDbPolyline
 62
250
  6
CONTINUOUS
 90
3
 70
0
 10
31.6396130557
 20
-25.7939380493
 10
31.3535292282
 20
-25.7983473514
 10
31.2040802827
 20
-25.8001251032
  0
LWPOLYLINE
  5
2EE
100
AcDbEntity
  8
SUPERFICI
100
AcDbPolyline
 62
250
  6
CONTINUOUS
 90
3
 70
0
 10
29.9307001307
 20
-25.8131554182
 10
29.7116377885
 20
-25.8152344394
 10
29.2678214011
 20
-25.822045938
  0
LINE
  5
2EF
100
AcDbEntity
  8
SUPERFICI
100
AcDbLine
 62
250
  6
CONTINUOUS
 10
29.2678214011
 20
-25.822045938
 11
24.9532102309
 21
-25.8427666147
  0
LWPOLYLINE
  5
2F0
100
AcDbEntity
  8
SUPERFICI
100
AcDbPolyline
 62
250
  6
CONTINUOUS
 90
4
 70
0
 10
-33.5063201082
 20
-25.7500566938
 10
-33.4083126518
 20
-25.7497046638
 10
-33.2916329815
 20
-25.7502757873
 10
-33.1467254154
 20
-25.7527300796
  0
LINE
  5
2F1
100
AcDbEntity
  8
SUPERFICI
100
AcDbLine
 62
250
  6
CONTINUOUS
 10
24.9532102309
 20
-25.8427666147
 11
19.5280932122
 21
-25.8617701765
  0
LINE
  5
2F2
100
AcDbEntity
  8
SUPERFICI
100
AcDbLine
 62
250
  6
CONTINUOUS
 10
19.5285043828
 20
-25.8626127101
 11
9.7230209465
 21
-25.8728228259
  0
LINE
  5
2F3
100
AcDbEntity
  8
SUPERFICI
100
AcDbLine
 62
250
  6
CONTINUOUS
 10
9.7230209465
 20
-25.8728228259
 11
-2.1186359401
 21
-25.8754755839
  0
LINE
  5
2F4
100
AcDbEntity
  8
SUPERFICI
100
AcDbLine
 62
250
  6
CONTINUOUS
 10
29.2678195853
 20
-24.2023317832
 11
-33.5804702457
 21
-24.2026872522
  0
LINE
  5
2F5
100
AcDbEntity
  8
SUPERFICI
100
AcDbLine
 62
250
  6
CONTINUOUS
 10
-15.2425495972
 20
-25.8680318009
 11
-2.1186359401
 21
-25.8754755839
  0
LINE
  5
2F6
100
AcDbEntity
  8
SUPERFICI
100
AcDbLine
 62
250
  6
CONTINUOUS
 10
29.2678189433
 20
-24.1989242237
 11
33.5804697153
 21
-24.2026873026
  0
LINE
  5
2F7
100
AcDbEntity
  8
SUPERFICI
100
AcDbLine
 62
250
  6
CONTINUOUS
 10
-30.3633205688
 20
-25.8129256008
 11
-29.9307006333
 21
-25.8131553733
  0
LINE
  5
2F8
100
AcDbEntity
  8
SUPERFICI
100
AcDbLine
 62
250
  6
CONTINUOUS
 10
-19.8131729342
 20
-25.8602988554
 11
-15.2425495972
 21
-25.8680318009
  0
LINE
  5
2F9
100
AcDbEntity
  8
SUPERFICI
100
AcDbLine
 62
250
  6
CONTINUOUS
 10
-29.2678219036
 20
-25.8220458941
 11
-19.8131729342
 21
-25.8602988554
  0
LWPOLYLINE
  5
2FA
100
AcDbEntity
  8
SUPERFICI
100
AcDbPolyline
 62
250
  6
CONTINUOUS
 90
3
 70
0
 10
-29.9307006333
 20
-25.8131553733
 10
-29.4906830794
 20
-25.8181912187
 10
-29.2678219036
 20
-25.8220458941
  0
LINE
  5
2FB
100
AcDbEntity
  8
SUPERFICI
100
AcDbLine
 62
250
  6
CONTINUOUS
 10
-31.4987060839
 20
-25.7962847658
 11
-31.2040807853
 21
-25.8001250564
  0
LWPOLYLINE
  5
2FC
100
AcDbEntity
  8
SUPERFICI
100
AcDbPolyline
 62
250
  6
CONTINUOUS
 90
6
 70
0
 10
33.8448089503
 20
-25.7552527443
 10
33.5063196055
 20
-25.7500567441
 10
33.408312149
 20
-25.749704714
 10
33.2916324788
 20
-25.7502758373
 10
33.1467249126
 20
-25.7527301294
 10
32.9833894613
 20
-25.7572048248
  0
LINE
  5
2FD
100
AcDbEntity
  8
SUPERFICI
100
AcDbLine
 62
250
  6
CONTINUOUS
 10
-31.7737180916
 20
-25.7913216247
 11
-31.4987060839
 21
-25.7962847658
  0
LWPOLYLINE
  5
2FE
100
AcDbEntity
  8
SUPERFICI
100
AcDbPolyline
 62
250
  6
CONTINUOUS
 90
5
 70
0
 10
-31.2040807853
 20
-25.8001250564
 10
-30.9970512178
 20
-25.8052198759
 10
-30.7879090067
 20
-25.8091889104
 10
-30.5766769416
 20
-25.8119975186
 10
-30.3633205688
 20
-25.8129256008
  0
LINE
  5
2FF
100
AcDbEntity
  8
SUPERFICI
100
AcDbLine
 62
250
  6
CONTINUOUS
 10
-32.3244880153
 20
-25.7778895124
 11
-31.7737180916
 21
-25.7913216247
  0
LINE
  5
300
100
AcDbEntity
  8
SUPERFICI
100
AcDbLine
 62
250
  6
CONTINUOUS
 10
-33.1467254154
 20
-25.7527300796
 11
-32.830571407
 21
-25.7620202295
  0
LWPOLYLINE
  5
301
100
AcDbEntity
  8
SUPERFICI
100
AcDbPolyline
 62
250
  6
CONTINUOUS
 90
3
 70
0
 10
-32.830571407
 20
-25.7620202295
 10
-32.5867631051
 20
-25.7701459608
 10
-32.3244880153
 20
-25.7778895124
  0
LWPOLYLINE
  5
302
100
AcDbEntity
  8
0
100
AcDbPolyline
 62
7
  6
CONTINUOUS
 90
5
 70
0
 10
-33.5702497893
 20
-22.4880677051
 10
-33.6003855324
 20
-22.4860156525
 10
-33.6291849652
 20
-22.4803587139
 10
-33.6566480875
 20
-22.4710968894
 10
-33.6832439961
 20
-22.4579546558
  0
LWPOLYLINE
  5
303
100
AcDbEntity
  8
0
100
AcDbPolyline
 62
7
  6
CONTINUOUS
 90
13
 70
0
 10
-33.5703016044
 20
-22.5729227178
 10
-33.6137708069
 20
-22.5699123578
 10
-33.6546395295
 20
-22.5613594346
 10
-33.6933069885
 20
-22.5477370893
 10
-33.7293504236
 20
-22.5294594622
 10
-33.7622755658
 20
-22.5070526358
 10
-33.7920306641
 20
-22.4806720365
 10
-33.8182619848
 20
-22.4506374099
 10
-33.8404846725
 20
-22.4174249208
 10
-33.8584117802
 20
-22.3813800573
 10
-33.8716031695
 20
-22.3431089004
 10
-33.8798127125
 20
-22.3029648091
 10
-33.8826760256
 20
-22.2605238661
  0
LINE
  5
304
100
AcDbEntity
  8
SUPERFICI
100
AcDbLine
 62
250
  6
CONTINUOUS
 10
59.6373595738
 20
-37.6236946399
 11
59.5268686428
 21
-37.600506191
  0
LINE
  5
305
100
AcDbEntity
  8
SUPERFICI
100
AcDbLine
 62
250
  6
CONTINUOUS
 10
59.5268686428
 20
-37.600506191
 11
59.2850248628
 21
-37.5480756015
  0
LINE
  5
306
100
AcDbEntity
  8
SUPERFICI
100
AcDbLine
 62
250
  6
CONTINUOUS
 10
59.2850248628
 20
-37.5480756015
 11
58.8708702223
 21
-37.4564952
  0
LWPOLYLINE
  5
307
100
AcDbEntity
  8
0
100
AcDbPolyline
 62
250
  6
CONTINUOUS
 90
4
 70
0
 10
-35.5047486779
 20
-22.2707985553
 10
-35.4662688073
 20
-22.2702774501
 10
-35.4262036708
 20
-22.2699245969
 10
-35.3846311859
 20
-22.2697399957
  0
LINE
  5
308
100
AcDbEntity
  8
0
100
AcDbLine
 62
250
  6
CONTINUOUS
 10
33.9279764902
 20
-22.2692636077
 11
33.9440972707
 21
-22.2690863781
  0
LINE
  5
309
100
AcDbEntity
  8
SUPERFICI
100
AcDbLine
 62
250
  6
CONTINUOUS
 10
35.5075231183
 20
-22.2707986984
 11
36.0082003835
 21
-22.2674620601
  0
LINE
  5
30A
100
AcDbEntity
  8
SUPERFICI
100
AcDbLine
 62
250
  6
CONTINUOUS
 10
-36.6116377394
 20
-19.0269041718
 11
-37.2279850718
 21
-19.0299463043
  0
LINE
  5
30B
100
AcDbEntity
  8
SUPERFICI
100
AcDbLine
 62
250
  6
CONTINUOUS
 10
-35.9975800373
 20
-22.2674448086
 11
-36.3676430735
 21
-22.2688163259
  0
LINE
  5
30C
100
AcDbEntity
  8
0
100
AcDbLine
 62
250
  6
CONTINUOUS
 10
35.0621944479
 20
-22.2705619593
 11
35.3846245212
 21
-22.2697400812
  0
LINE
  5
30D
100
AcDbEntity
  8
0
100
AcDbLine
 62
250
  6
CONTINUOUS
 10
-33.8827378939
 20
-22.2605238834
 11
-33.7978826029
 21
-22.2604584314
  0
LINE
  5
30E
100
AcDbEntity
  8
0
100
AcDbLine
 62
250
  6
CONTINUOUS
 10
33.9440972707
 20
-22.2690863781
 11
34.0057826671
 21
-22.2689758612
  0
LINE
  5
30F
100
AcDbEntity
  8
0
100
AcDbLine
 62
250
  6
CONTINUOUS
 10
-33.5703010558
 20
-22.5722910455
 11
33.5703791326
 21
-22.5722935529
  0
LINE
  5
310
100
AcDbEntity
  8
0
100
AcDbLine
 62
7
  6
CONTINUOUS
 10
33.5703496448
 20
-22.4880964101
 11
-33.5702497893
 21
-22.4880677051
  0
LINE
  5
311
100
AcDbEntity
  8
0
100
AcDbLine
 62
250
  6
CONTINUOUS
 10
33.8827375519
 20
-22.2606329154
 11
33.79788215
 21
-22.2606039133
  0
LINE
  5
312
100
AcDbEntity
  8
0
100
AcDbLine
 62
250
  6
CONTINUOUS
 10
-34.8675215315
 20
-22.2708072831
 11
-33.9830753145
 21
-22.268978974
  0
LINE
  5
313
100
AcDbEntity
  8
SUPERFICI
100
AcDbLine
 62
250
  6
CONTINUOUS
 10
-35.5041749554
 20
-19.0269179064
 11
-36.6116377394
 21
-19.0269041718
  0
LINE
  5
314
100
AcDbEntity
  8
SUPERFICI
100
AcDbLine
 62
250
  6
CONTINUOUS
 10
36.5744805906
 20
-19.0268714634
 11
35.5041733079
 21
-19.0269179589
  0
LINE
  5
315
100
AcDbEntity
  8
0
100
AcDbLine
 62
250
  6
CONTINUOUS
 10
34.6300249842
 20
-22.2706268428
 11
35.0621944479
 21
-22.2705619593
  0
LWPOLYLINE
  5
316
100
AcDbEntity
  8
0
100
AcDbPolyline
 62
250
  6
CONTINUOUS
 90
4
 70
0
 10
-33.9027402748
 20
-22.2696376646
 10
-33.8937239035
 20
-22.269664758
 10
-33.8870639903
 20
-22.269613509
 10
-33.882738044
 20
-22.2694839175
  0
LINE
  5
317
100
AcDbEntity
  8
0
100
AcDbLine
 62
250
  6
CONTINUOUS
 10
34.0057826671
 20
-22.2689758612
 11
34.6300249842
 21
-22.2706268428
  0
LWPOLYLINE
  5
318
100
AcDbEntity
  8
SUPERFICI
100
AcDbPolyline
 62
250
  6
CONTINUOUS
 90
6
 70
0
 10
36.0082003835
 20
-22.2674620601
 10
36.3862257666
 20
-22.2682507545
 10
36.5799979259
 20
-22.2670382182
 10
36.7725443036
 20
-22.2627434035
 10
36.9646526818
 20
-22.2557357807
 10
37.1552402791
 20
-22.2456389749
  0
LWPOLYLINE
  5
319
100
AcDbEntity
  8
0
100
AcDbPolyline
 62
250
  6
CONTINUOUS
 90
4
 70
0
 10
-33.9830753145
 20
-22.268978974
 10
-33.9440971811
 20
-22.2690863299
 10
-33.9279765389
 20
-22.2692635693
 10
-33.9027402748
 20
-22.2696376646
  0
LWPOLYLINE
  5
31A
100
AcDbEntity
  8
0
100
AcDbPolyline
 62
250
  6
CONTINUOUS
 90
4
 70
0
 10
35.3846245212
 20
-22.2697400812
 10
35.4261978639
 20
-22.2699246784
 10
35.4662650913
 20
-22.2702775209
 10
35.5047481503
 20
-22.2707986086
  0
LINE
  5
31B
100
AcDbEntity
  8
0
100
AcDbLine
 62
250
  6
CONTINUOUS
 10
-35.3846311859
 20
-22.2697399957
 11
-34.8675215315
 21
-22.2708072831
  0
LINE
  5
31C
100
AcDbEntity
  8
SUPERFICI
100
AcDbLine
 62
250
  6
CONTINUOUS
 10
37.2261126329
 20
-19.0299373338
 11
36.5744805906
 21
-19.0268714634
  0
LWPOLYLINE
  5
31D
100
AcDbEntity
  8
SUPERFICI
100
AcDbPolyline
 62
250
  6
CONTINUOUS
 90
5
 70
0
 10
-36.3676430735
 20
-22.2688163259
 10
-36.5604942223
 20
-22.2672047983
 10
-36.7558813848
 20
-22.2622934869
 10
-36.9542539199
 20
-22.2550860896
 10
-37.1551530282
 20
-22.2456418735
  0
LWPOLYLINE
  5
31E
100
AcDbEntity
  8
SUPERFICI
100
AcDbPolyline
 62
250
  6
CONTINUOUS
 90
3
 70
0
 10
-35.5075346533
 20
-22.2707985635
 10
-35.6619355631
 20
-22.2693129435
 10
-35.9975800373
 20
-22.2674448086
  0
LWPOLYLINE
  5
31F
100
AcDbEntity
  8
0
100
AcDbPolyline
 62
250
  6
CONTINUOUS
 90
5
 70
0
 10
33.8827375519
 20
-22.2694841427
 10
33.8870635988
 20
-22.2696136504
 10
33.8937236566
 20
-22.2696648373
 10
33.9027401816
 20
-22.2696377036
 10
33.9279764902
 20
-22.2692636077
  0
LWPOLYLINE
  5
320
100
AcDbEntity
  8
SUPERFICI
100
AcDbPolyline
 62
250
  6
CONTINUOUS
 90
10
 70
0
 10
-58.9784280999
 20
-30.752540133
 10
-58.426846775
 20
-30.2918300788
 10
-57.8462236543
 20
-29.8247110443
 10
-57.2407731628
 20
-29.3554956812
 10
-56.6138213012
 20
-28.8878580349
 10
-55.9699879329
 20
-28.426275302
 10
-55.3102373623
 20
-27.971730278
 10
-54.6300952259
 20
-27.5208867038
 10
-53.9205058891
 20
-27.0672665524
 10
-53.173456892
 20
-26.6049331365
  0
LWPOLYLINE
  5
321
100
AcDbEntity
  8
SUPERFICI
100
AcDbPolyline
 62
250
  6
CONTINUOUS
 90
10
 70
0
 10
-58.9980784032
 20
-24.6106058366
 10
-58.4797252806
 20
-24.2353113351
 10
-57.9347992018
 20
-23.8551001705
 10
-57.3677500829
 20
-23.4738244161
 10
-56.7786341284
 20
-23.0925267191
 10
-56.174979374
 20
-22.7172364267
 10
-55.5665332735
 20
-22.3542868017
 10
-54.9510992705
 20
-22.0016301594
 10
-54.3155068915
 20
-21.6508355621
 10
-53.6518020199
 20
-21.2966163351
  0
LINE
  5
322
100
AcDbEntity
  8
SUPERFICI
100
AcDbLine
 62
250
  6
CONTINUOUS
 10
-37.109952776
 20
-22.9081195305
 11
-35.4801171645
 21
-22.6197709356
  0
LINE
  5
323
100
AcDbEntity
  8
SUPERFICI
100
AcDbLine
 62
250
  6
CONTINUOUS
 10
37.1099522775
 20
-22.9081195863
 11
35.4801166363
 21
-22.6197709889
  0
LWPOLYLINE
  5
324
100
AcDbEntity
  8
SUPERFICI
100
AcDbPolyline
 62
250
  6
CONTINUOUS
 90
10
 70
0
 10
26.7165611042
 20
35.792247368
 10
25.842443466
 20
34.9196259199
 10
24.9920439872
 20
34.0087966257
 10
24.1563271378
 20
33.041342526
 10
23.3199921904
 20
31.9905609269
 10
22.4805940769
 20
30.8448718034
 10
21.6637193352
 20
29.6339183566
 10
20.8931213446
 20
28.3893894252
 10
20.1776258218
 20
27.1248488546
 10
19.5285043823
 20
25.8626127166
  0
LWPOLYLINE
  5
325
100
AcDbEntity
  8
SUPERFICI
100
AcDbPolyline
 62
250
  6
CONTINUOUS
 90
3
 70
0
 10
26.7163736117
 20
35.7922506507
 10
27.0949014628
 20
36.1530466526
 10
27.4753574447
 20
36.5078662579
  0
LWPOLYLINE
  5
326
100
AcDbEntity
  8
SUPERFICI
100
AcDbPolyline
 62
250
  6
CONTINUOUS
 90
5
 70
0
 10
28.6470012303
 20
37.5838726521
 10
29.0452948567
 20
37.9557931346
 10
29.4431572639
 20
38.3348080672
 10
29.8401930727
 20
38.7207326887
 10
30.2344334428
 20
39.1118316653
  0
LINE
  5
327
100
AcDbEntity
  8
SUPERFICI
100
AcDbLine
 62
250
  6
CONTINUOUS
 10
27.4753574447
 20
36.5078662579
 11
28.6470012303
 21
37.5838726521
  0
LWPOLYLINE
  5
328
100
AcDbEntity
  8
SUPERFICI
100
AcDbPolyline
 62
250
  6
CONTINUOUS
 90
10
 70
0
 10
-58.9458936439
 20
-36.8860248566
 10
-58.2820483618
 20
-36.3406175519
 10
-57.5864171081
 20
-35.7821457533
 10
-56.8673969972
 20
-35.2184995444
 10
-56.1285407617
 20
-34.6535206176
 10
-55.3715398974
 20
-34.0891760742
 10
-54.5946454353
 20
-33.5241629949
 10
-53.7942916701
 20
-32.9557393362
 10
-52.9682024364
 20
-32.3823967857
 10
-52.1169921414
 20
-31.8048123817
  0
LWPOLYLINE
  5
329
100
AcDbEntity
  8
SUPERFICI
100
AcDbPolyline
 62
250
  6
CONTINUOUS
 90
10
 70
0
 10
-58.2379710933
 20
-38.4901664216
 10
-57.4750926608
 20
-37.8685628211
 10
-56.7200657991
 20
-37.2651126983
 10
-55.9636905503
 20
-36.6724810815
 10
-55.2059185408
 20
-36.0907352763
 10
-54.4406924166
 20
-35.5143393454
 10
-53.6498431142
 20
-34.9290565702
 10
-52.8339646191
 20
-34.3356034491
 10
-52.0152124194
 20
-33.7502536704
 10
-51.2080468774
 20
-33.1833278425
  0
LWPOLYLINE
  5
32A
100
AcDbEntity
  8
SUPERFICI
100
AcDbPolyline
 62
250
  6
CONTINUOUS
 90
10
 70
0
 10
52.1454380371
 20
39.1063514147
 10
51.4672656798
 20
38.7017167495
 10
50.7976191497
 20
38.2964752979
 10
50.1310633577
 20
37.8872064625
 10
49.4662306659
 20
37.4730510063
 10
48.7993917199
 20
37.0517812135
 10
48.1240903261
 20
36.619254172
 10
47.4410821041
 20
36.1756661815
 10
46.7565532896
 20
35.7248109404
 10
46.0719503084
 20
35.267515507
  0
LWPOLYLINE
  5
32B
100
AcDbEntity
  8
SUPERFICI
100
AcDbPolyline
 62
250
  6
CONTINUOUS
 90
10
 70
0
 10
-53.1734669774
 20
-26.6049044528
 10
-51.6199272246
 20
-25.6848112681
 10
-50.0290886729
 20
-24.7967887599
 10
-48.384923768
 20
-23.9308659015
 10
-46.6665536771
 20
-23.074635397
 10
-44.8624924224
 20
-22.220519612
 10
-42.9924279617
 20
-21.3771591384
 10
-41.0837671695
 20
-20.5577862177
 10
-39.1543200398
 20
-19.7714284331
 10
-37.2261290622
 20
-19.0290510378
  0
LWPOLYLINE
  5
32C
100
AcDbEntity
  8
SUPERFICI
100
AcDbPolyline
 62
250
  6
CONTINUOUS
 90
10
 70
0
 10
-53.6518019326
 20
-21.2966174252
 10
-51.9096450767
 20
-20.4164705018
 10
-50.2245128514
 20
-19.6322160382
 10
-48.5271010283
 20
-18.9043618932
 10
-46.8002262188
 20
-18.2214887505
 10
-45.0136108858
 20
-17.5657474039
 10
-43.1272350855
 20
-16.9221143862
 10
-41.1572544266
 20
-16.3017926499
 10
-39.1872604251
 20
-15.7347032381
 10
-37.2647924268
 20
-15.235119054
  0
LWPOLYLINE
  5
32D
100
AcDbEntity
  8
SUPERFICI
100
AcDbPolyline
 62
250
  6
CONTINUOUS
 90
10
 70
0
 10
37.22798626
 20
19.0298095002
 10
39.1693629557
 20
19.7769000027
 10
41.1102453438
 20
20.5674813066
 10
43.0263649232
 20
21.3905993575
 10
44.9009124849
 20
22.2376250088
 10
46.7060998669
 20
23.0944639812
 10
48.4205348569
 20
23.9507955834
 10
50.0563629642
 20
24.8133696149
 10
51.6359886927
 20
25.6948524795
 10
53.1734498823
 20
26.6049916386
  0
LWPOLYLINE
  5
32E
100
AcDbEntity
  8
SUPERFICI
100
AcDbPolyline
 62
250
  6
CONTINUOUS
 90
10
 70
0
 10
37.2647905552
 20
-15.2351206338
 10
39.0230151712
 20
-15.6898821835
 10
40.8939408417
 20
-16.2229065422
 10
42.8368022631
 20
-16.8273037984
 10
44.794721232
 20
-17.4885542916
 10
46.7060316101
 20
-18.1857169176
 10
48.5153982298
 20
-18.8995546073
 10
50.238136202
 20
-19.6383070806
 10
51.9261091626
 20
-20.4244574473
 10
53.6518005691
 20
-21.2966196585
  0
LWPOLYLINE
  5
32F
100
AcDbEntity
  8
SUPERFICI
100
AcDbPolyline
 62
250
  6
CONTINUOUS
 90
10
 70
0
 10
37.2279862603
 20
-19.0298094934
 10
39.169362956
 20
-19.776899996
 10
41.1102453441
 20
-20.5674812999
 10
43.0263649235
 20
-21.390599351
 10
44.9009124852
 20
-22.2376250023
 10
46.7060998672
 20
-23.0944639748
 10
48.4205348573
 20
-23.9507955772
 10
50.0563629646
 20
-24.8133696088
 10
51.6359886931
 20
-25.6948524736
 10
53.1734498828
 20
-26.6049916328
  0
LWPOLYLINE
  5
330
100
AcDbEntity
  8
SUPERFICI
100
AcDbPolyline
 62
250
  6
CONTINUOUS
 90
10
 70
0
 10
-53.6518012114
 20
21.2966161114
 10
-54.3274978034
 20
21.6572104083
 10
-54.9695310416
 20
22.0120429868
 10
-55.5881668214
 20
22.3671442925
 10
-56.1963503545
 20
22.7304753328
 10
-56.7969397912
 20
23.1042350703
 10
-57.3827492961
 20
23.4834991423
 10
-57.9461470755
 20
23.8624465548
 10
-58.4854138496
 20
24.2392015609
 10
-58.998078377
 20
24.6106060201
  0
LWPOLYLINE
  5
331
100
AcDbEntity
  8
SUPERFICI
100
AcDbPolyline
 62
250
  6
CONTINUOUS
 90
10
 70
0
 10
52.1454380378
 20
-39.1063514096
 10
51.4672656805
 20
-38.7017167444
 10
50.7976191504
 20
-38.2964752926
 10
50.1310633584
 20
-37.8872064572
 10
49.4662306666
 20
-37.4730510009
 10
48.7993917206
 20
-37.0517812081
 10
48.1240903268
 20
-36.6192541665
 10
47.4410821047
 20
-36.1756661759
 10
46.7565532902
 20
-35.7248109348
 10
46.0719503091
 20
-35.2675155013
  0
LWPOLYLINE
  5
332
100
AcDbEntity
  8
SUPERFICI
100
AcDbPolyline
 62
250
  6
CONTINUOUS
 90
10
 70
0
 10
-53.1734561127
 20
26.6049328757
 10
-53.9233542623
 20
27.0689281398
 10
-54.6347769114
 20
27.5237376026
 10
-55.3158648898
 20
27.9753358358
 10
-55.9755233991
 20
28.4300806084
 10
-56.6184727527
 20
28.8913571316
 10
-57.2443746761
 20
29.358448216
 10
-57.8487905208
 20
29.8269542992
 10
-58.4282009115
 20
30.2930864309
 10
-58.9784279939
 20
30.7525403153
  0
LWPOLYLINE
  5
333
100
AcDbEntity
  8
SUPERFICI
100
AcDbPolyline
 62
250
  6
CONTINUOUS
 90
10
 70
0
 10
-58.9458935325
 20
36.8860250389
 10
-58.282048252
 20
36.3406177323
 10
-57.586417
 20
35.7821459316
 10
-56.8673968908
 20
35.2184997206
 10
-56.128540657
 20
34.6535207917
 10
-55.3715397944
 20
34.0891762461
 10
-54.594645334
 20
33.5241631644
 10
-53.7942915705
 20
32.9557395035
 10
-52.9682023386
 20
32.3823969505
 10
-52.1169920453
 20
31.804812544
  0
LWPOLYLINE
  5
334
100
AcDbEntity
  8
SUPERFICI
100
AcDbPolyline
 62
250
  6
CONTINUOUS
 90
6
 70
0
 10
27.4753574453
 20
-36.5078662527
 10
28.6470012308
 20
-37.583872647
 10
29.0452948573
 20
-37.9557931295
 10
29.4431572645
 20
-38.3348080622
 10
29.8401930733
 20
-38.7207326839
 10
30.2344334435
 20
-39.1118316606
  0
LWPOLYLINE
  5
335
100
AcDbEntity
  8
SUPERFICI
100
AcDbPolyline
 62
250
  6
CONTINUOUS
 90
3
 70
0
 10
26.7163736124
 20
-35.7922506454
 10
27.0949014634
 20
-36.1530466473
 10
27.4753574453
 20
-36.5078662527
  0
LINE
  5
336
100
AcDbEntity
  8
SUPERFICI
100
AcDbLine
 62
250
  6
CONTINUOUS
 10
-0.0000002653
 20
-24.2017597908
 11
-0.0000001772
 21
-39.7651529935
  0
LINE
  5
337
100
AcDbEntity
  8
SUPERFICI
100
AcDbLine
 62
250
  6
CONTINUOUS
 10
-0.0000002657
 20
24.2017597973
 11
-0.0000001779
 21
39.765152997
  0
LINE
  5
338
100
AcDbEntity
  8
0
100
AcDbLine
 62
250
  6
CONTINUOUS
 10
-0.0000002487
 20
22.5722041843
 11
-0.0000002656
 21
24.1987336828
  0
LINE
  5
339
100
AcDbEntity
  8
0
100
AcDbLine
 62
250
  6
CONTINUOUS
 10
-0.0000002652
 20
-24.1987336762
 11
-0.0000002482
 21
-22.57220417
  0
LWPOLYLINE
  5
33A
100
AcDbEntity
  8
SUPERFICI
100
AcDbPolyline
 62
250
  6
CONTINUOUS
 90
10
 70
0
 10
-51.2080465062
 20
-33.1833282449
 10
-49.7696800426
 20
-32.1961435074
 10
-48.2664114891
 20
-31.1898446487
 10
-46.709524191
 20
-30.1691094158
 10
-45.1232897547
 20
-29.145454671
 10
-43.5252860978
 20
-28.1243876401
 10
-41.9143803732
 20
-27.1001498991
 10
-40.2726052496
 20
-26.0612277628
 10
-38.5801816529
 20
-24.9958130221
 10
-36.7929757649
 20
-23.8765062323
  0
LWPOLYLINE
  5
33B
100
AcDbEntity
  8
SUPERFICI
100
AcDbPolyline
 62
250
  6
CONTINUOUS
 90
10
 70
0
 10
46.0720264801
 20
35.2675307434
 10
44.5685489782
 20
34.2404493736
 10
43.073799805
 20
33.1872151251
 10
41.6024579365
 20
32.1201554542
 10
40.1701218327
 20
31.0512999344
 10
38.7892745998
 20
29.9924628916
 10
37.4548433872
 20
28.9436323848
 10
36.1518450313
 20
27.8945533213
 10
34.8668545445
 20
26.8340878023
 10
33.5856675405
 20
25.7513559547
  0
LWPOLYLINE
  5
33C
100
AcDbEntity
  8
SUPERFICI
100
AcDbPolyline
 62
250
  6
CONTINUOUS
 90
10
 70
0
 10
-52.7071445956
 20
-29.9011370691
 10
-53.5019752588
 20
-30.4249424125
 10
-54.2627132932
 20
-30.9406748153
 10
-54.995667952
 20
-31.4536089441
 10
-55.7076259719
 20
-31.9691123336
 10
-56.4022447349
 20
-32.4902212143
 10
-57.0793134846
 20
-33.0167037931
 10
-57.7345915015
 20
-33.5442739946
 10
-58.3641012907
 20
-34.0685365818
 10
-58.963613765
 20
-34.584936482
  0
LWPOLYLINE
  5
33D
100
AcDbEntity
  8
SUPERFICI
100
AcDbPolyline
 62
250
  6
CONTINUOUS
 90
10
 70
0
 10
-52.1169915759
 20
-31.8048136089
 10
-50.6561618314
 20
-30.8422175547
 10
-49.1124618871
 20
-29.8579507328
 10
-47.5030652289
 20
-28.860312951
 10
-45.8568457642
 20
-27.8629799067
 10
-44.1937842622
 20
-26.8722978867
 10
-42.5118966935
 20
-25.8827458921
 10
-40.7898429825
 20
-24.882130696
 10
-39.0070748112
 20
-23.8593533307
 10
-37.1276363029
 20
-22.7948476533
  0
LWPOLYLINE
  5
33E
100
AcDbEntity
  8
SUPERFICI
100
AcDbPolyline
 62
250
  6
CONTINUOUS
 90
10
 70
0
 10
37.1663898467
 20
21.3756849069
 10
39.1354944977
 20
22.3387669131
 10
41.0317200595
 20
23.293057586
 10
42.8645021572
 20
24.2416083623
 10
44.638525089
 20
25.1849118749
 10
46.3627163664
 20
26.1259944406
 10
48.0412210011
 20
27.069431053
 10
49.6659224824
 20
28.0152455604
 10
51.2238790287
 20
28.9596940838
 10
52.7072137439
 20
29.9008601076
  0
LINE
  5
33F
100
AcDbEntity
  8
0
100
AcDbLine
 62
250
  6
CONTINUOUS
 10
-35.5040888406
 20
0.0000000569
 11
-33.8827380105
 21
0.0000000542
  0
LINE
  5
340
100
AcDbEntity
  8
0
100
AcDbLine
 62
250
  6
CONTINUOUS
 10
33.8827375519
 20
0.0000000033
 11
35.5040883465
 21
0.0000000036
  0
LINE
  5
341
100
AcDbEntity
  8
SUPERFICI
100
AcDbLine
 62
250
  6
CONTINUOUS
 10
35.5041757097
 20
0.0000000036
 11
59.7793785192
 21
0.0000000023
  0
LINE
  5
342
100
AcDbEntity
  8
SUPERFICI
100
AcDbLine
 62
250
  6
CONTINUOUS
 10
-35.5041749268
 20
0.0000000569
 11
-59.779378814
 21
0.0000000921
  0
LWPOLYLINE
  5
343
100
AcDbEntity
  8
SUPERFICI
100
AcDbPolyline
 62
250
  6
CONTINUOUS
 90
10
 70
0
 10
37.1663898471
 20
-21.3756849002
 10
39.1354944981
 20
-22.3387669065
 10
41.0317200599
 20
-23.2930575794
 10
42.8645021576
 20
-24.2416083558
 10
44.6385250894
 20
-25.1849118685
 10
46.3627163668
 20
-26.1259944343
 10
48.0412210015
 20
-27.0694310468
 10
49.6659224828
 20
-28.0152455544
 10
51.2238790292
 20
-28.9596940779
 10
52.7072137444
 20
-29.9008601018
  0
LWPOLYLINE
  5
344
100
AcDbEntity
  8
SUPERFICI
100
AcDbPolyline
 62
250
  6
CONTINUOUS
 90
10
 70
0
 10
37.1276356035
 20
-22.7948480543
 10
39.0089735089
 20
-23.8604377285
 10
40.7931694276
 20
-24.8840498395
 10
42.516258448
 20
-25.8852941135
 10
44.1988119296
 20
-26.8752743121
 10
45.8620801988
 20
-27.8661228258
 10
47.5078807863
 20
-28.8632625527
 10
49.1162204267
 20
-29.8603128023
 10
50.6582733365
 20
-30.8435861741
 10
52.1169391499
 20
-31.8047794264
  0
LWPOLYLINE
  5
345
100
AcDbEntity
  8
SUPERFICI
100
AcDbPolyline
 62
250
  6
CONTINUOUS
 90
10
 70
0
 10
-52.1169914798
 20
31.8048137713
 10
-50.6561617382
 20
30.8422177127
 10
-49.1124617969
 20
29.8579508863
 10
-47.5030651417
 20
28.8603130998
 10
-45.85684568
 20
27.8629800507
 10
-44.193784181
 20
26.8722980259
 10
-42.5118966153
 20
25.8827460262
 10
-40.7898429073
 20
24.8821308251
 10
-39.0070747391
 20
23.8593534546
 10
-37.127636234
 20
22.7948477716
  0
LWPOLYLINE
  5
346
100
AcDbEntity
  8
SUPERFICI
100
AcDbPolyline
 62
250
  6
CONTINUOUS
 90
10
 70
0
 10
-52.7071445052
 20
29.9011372332
 10
-53.5019751669
 20
30.4249425789
 10
-54.2627131997
 20
30.940674984
 10
-54.995667857
 20
31.4536091149
 10
-55.7076258753
 20
31.9691125064
 10
-56.4022446368
 20
32.4902213892
 10
-57.0793133849
 20
33.0167039699
 10
-57.7345914001
 20
33.5442741734
 10
-58.3641011878
 20
34.0685367624
 10
-58.9636136605
 20
34.5849366643
  0
LWPOLYLINE
  5
347
100
AcDbEntity
  8
SUPERFICI
100
AcDbPolyline
 62
250
  6
CONTINUOUS
 90
10
 70
0
 10
46.0720264808
 20
-35.2675307377
 10
44.5685489788
 20
-34.2404493678
 10
43.0737998056
 20
-33.1872151192
 10
41.6024579371
 20
-32.1201554481
 10
40.1701218332
 20
-31.0512999282
 10
38.7892746003
 20
-29.9924628852
 10
37.4548433877
 20
-28.9436323783
 10
36.1518450318
 20
-27.8945533148
 10
34.866854545
 20
-26.8340877957
 10
33.585667541
 20
-25.7513559481
  0
LWPOLYLINE
  5
348
100
AcDbEntity
  8
SUPERFICI
100
AcDbPolyline
 62
250
  6
CONTINUOUS
 90
10
 70
0
 10
-51.208046406
 20
33.1833284045
 10
-49.7696799454
 20
32.1961436627
 10
-48.2664113948
 20
31.1898447997
 10
-46.7095240999
 20
30.1691095622
 10
-45.1232896667
 20
29.1454548128
 10
-43.5252860129
 20
28.1243877772
 10
-41.9143802913
 20
27.1001500314
 10
-40.2726051708
 20
26.0612278903
 10
-38.5801815774
 20
24.9958131446
 10
-36.7929756928
 20
23.8765063496
  0
LWPOLYLINE
  5
349
100
AcDbEntity
  8
SUPERFICI
100
AcDbPolyline
 62
250
  6
CONTINUOUS
 90
10
 70
0
 10
-51.2080472508
 20
33.1833274887
 10
-52.0213051039
 20
33.7545716732
 10
-52.8463926389
 20
34.3445669088
 10
-53.6685489952
 20
34.9427828596
 10
-54.4674039739
 20
35.5342829645
 10
-55.2399989984
 20
36.1166493914
 10
-55.9984793629
 20
36.6994779512
 10
-56.7482558735
 20
37.2874434132
 10
-57.4918131892
 20
37.8820557229
 10
-58.2379725276
 20
38.4901651961
  0
LWPOLYLINE
  5
34A
100
AcDbEntity
  8
0
100
AcDbPolyline
 62
7
  6
CONTINUOUS
 90
13
 70
0
 43
0.3500000006
 10
0.8571412675
 20
49.6071615601
 10
0.8571412675
 20
50.8928730011
 10
1.0714269562
 20
51.3214465027
 10
1.4999983335
 20
51.7500154724
 10
1.7142840929
 20
51.7500154724
 10
2.1428554702
 20
51.3214465027
 10
2.3571412296
 20
50.8928730011
 10
2.3571412296
 20
49.6071615601
 10
2.1428554702
 20
49.1785880585
 10
1.7142840929
 20
48.7500190887
 10
1.4999983335
 20
48.7500190887
 10
1.0714269562
 20
49.1785880585
 10
0.8571412675
 20
49.6071615601
  0
LWPOLYLINE
  5
34B
100
AcDbEntity
  8
SUPERFICI
100
AcDbPolyline
 62
250
  6
CONTINUOUS
 90
10
 70
0
 10
51.208046072
 20
33.1833283276
 10
49.7696796011
 20
32.196143588
 10
48.2664110397
 20
31.1898447272
 10
46.7095237334
 20
30.1691094921
 10
45.123289289
 20
29.145454745
 10
43.5252856242
 20
28.1243877118
 10
41.9143798923
 20
27.1001499685
 10
40.2726047618
 20
26.0612278298
 10
38.5801811587
 20
24.9958130867
 10
36.7929752647
 20
23.8765062943
  0
LWPOLYLINE
  5
34C
100
AcDbEntity
  8
SUPERFICI
100
AcDbPolyline
 62
250
  6
CONTINUOUS
 90
10
 70
0
 10
-46.0720269175
 20
-35.2675306685
 10
-44.5685494249
 20
-34.2404493008
 10
-43.0738002609
 20
-33.1872150545
 10
-41.6024584012
 20
-32.1201553856
 10
-40.1701223057
 20
-31.0512998679
 10
-38.7892750804
 20
-29.992462827
 10
-37.4548438745
 20
-28.9436323221
 10
-36.1518455245
 20
-27.8945532605
 10
-34.866855043
 20
-26.8340877433
 10
-33.5856680437
 20
-25.7513558976
  0
LWPOLYLINE
  5
34D
100
AcDbEntity
  8
SUPERFICI
100
AcDbPolyline
 62
250
  6
CONTINUOUS
 90
10
 70
0
 10
52.1169911438
 20
31.804813693
 10
50.6561613914
 20
30.8422176367
 10
49.112461439
 20
29.8579508126
 10
47.5030647725
 20
28.8603130285
 10
45.8568452997
 20
27.8629799818
 10
44.19378379
 20
26.8722979595
 10
42.5118962141
 20
25.8827459624
 10
40.7898424962
 20
24.8821307638
 10
39.0070743185
 20
23.859353396
 10
37.1276358041
 20
22.7948477159
  0
LWPOLYLINE
  5
34E
100
AcDbEntity
  8
SUPERFICI
100
AcDbPolyline
 62
250
  6
CONTINUOUS
 90
10
 70
0
 10
52.7071441663
 20
29.9011371541
 10
53.5019748342
 20
30.4249424986
 10
54.2627128731
 20
30.9406749025
 10
54.9956675363
 20
31.4536090323
 10
55.7076255606
 20
31.9691124228
 10
56.402244328
 20
32.4902213045
 10
57.079313082
 20
33.0167038842
 10
57.7345911032
 20
33.5442740867
 10
58.3641008968
 20
34.0685366747
 10
58.9636133752
 20
34.5849365757
  0
LWPOLYLINE
  5
34F
100
AcDbEntity
  8
SUPERFICI
100
AcDbPolyline
 62
250
  6
CONTINUOUS
 90
10
 70
0
 10
53.1734557688
 20
26.6049327959
 10
53.9233539246
 20
27.0689280588
 10
54.6347765797
 20
27.5237375206
 10
55.3158645639
 20
27.9753357527
 10
55.9755230792
 20
28.4300805243
 10
56.6184724386
 20
28.8913570466
 10
57.2443743679
 20
29.35844813
 10
57.8487902184
 20
29.8269542124
 10
58.4282006149
 20
30.2930863431
 10
58.9784277029
 20
30.7525402267
  0
LWPOLYLINE
  5
350
100
AcDbEntity
  8
SUPERFICI
100
AcDbPolyline
 62
250
  6
CONTINUOUS
 90
10
 70
0
 10
-37.1663903434
 20
-21.3756848443
 10
-39.1354949889
 20
-22.3387668477
 10
-41.0317205445
 20
-23.2930575177
 10
-42.8645026354
 20
-24.2416082914
 10
-44.6385255599
 20
-25.1849118014
 10
-46.3627168294
 20
-26.1259943647
 10
-48.0412214559
 20
-27.0694309746
 10
-49.6659229286
 20
-28.0152454798
 10
-51.2238794664
 20
-28.9596940009
 10
-52.7072141731
 20
-29.9008600226
  0
LWPOLYLINE
  5
351
100
AcDbEntity
  8
SUPERFICI
100
AcDbPolyline
 62
250
  6
CONTINUOUS
 90
10
 70
0
 10
37.2647905549
 20
15.2351206406
 10
39.0230151711
 20
15.6898821902
 10
40.8939408417
 20
16.2229065489
 10
42.8368022631
 20
16.8273038051
 10
44.794721232
 20
17.4885542982
 10
46.7060316101
 20
18.1857169241
 10
48.5153982298
 20
18.8995546137
 10
50.2381362019
 20
19.6383070868
 10
51.9261091624
 20
20.4244574533
 10
53.6518005687
 20
21.2966196643
  0
LWPOLYLINE
  5
352
100
AcDbEntity
  8
SUPERFICI
100
AcDbPolyline
 62
250
  6
CONTINUOUS
 90
10
 70
0
 10
-37.2647909959
 20
15.2351206965
 10
-39.0230156076
 20
15.6898822488
 10
-40.8939412721
 20
16.2229066103
 10
-42.8368026858
 20
16.8273038694
 10
-44.7947216455
 20
17.4885543655
 10
-46.7060320132
 20
18.1857169942
 10
-48.5153986215
 20
18.8995546865
 10
-50.2381365814
 20
19.6383071623
 10
-51.9261095287
 20
20.4244575313
 10
-53.6518009205
 20
21.2966197449
  0
LWPOLYLINE
  5
353
100
AcDbEntity
  8
SUPERFICI
100
AcDbPolyline
 62
250
  6
CONTINUOUS
 90
10
 70
0
 10
-37.2279866954
 20
19.0298095561
 10
-39.1693633844
 20
19.7769000615
 10
-41.1102457647
 20
20.5674813684
 10
-43.0263653351
 20
21.3905994223
 10
-44.9009128868
 20
22.2376250763
 10
-46.706100258
 20
23.0944640514
 10
-48.4205352367
 20
23.9507956562
 10
-50.0563633324
 20
24.8133696901
 10
-51.6359890488
 20
25.6948525571
 10
-53.1734502261
 20
26.6049917185
  0
LWPOLYLINE
  5
354
100
AcDbEntity
  8
SUPERFICI
100
AcDbPolyline
 62
250
  6
CONTINUOUS
 90
10
 70
0
 10
-37.1663902788
 20
21.3756849627
 10
-39.1354949214
 20
22.3387669719
 10
-41.0317204741
 20
23.2930576476
 10
-42.8645025622
 20
24.2416084266
 10
-44.6385254838
 20
25.1849119419
 10
-46.3627167505
 20
26.1259945102
 10
-48.0412213741
 20
27.0694311251
 10
-49.665922844
 20
28.015245635
 10
-51.2238793789
 20
28.9596941607
 10
-52.7072140828
 20
29.9008601868
  0
LWPOLYLINE
  5
355
100
AcDbEntity
  8
SUPERFICI
100
AcDbPolyline
 62
250
  6
CONTINUOUS
 90
10
 70
0
 10
53.1734557693
 20
-26.6049327901
 10
53.9233539251
 20
-27.0689280531
 10
54.6347765802
 20
-27.5237375149
 10
55.3158645644
 20
-27.9753357471
 10
55.9755230797
 20
-28.4300805188
 10
56.6184724391
 20
-28.8913570411
 10
57.2443743684
 20
-29.3584481246
 10
57.8487902189
 20
-29.826954207
 10
58.4282006154
 20
-30.2930863378
 10
58.9784277035
 20
-30.7525402215
  0
LWPOLYLINE
  5
356
100
AcDbEntity
  8
SUPERFICI
100
AcDbPolyline
 62
250
  6
CONTINUOUS
 90
10
 70
0
 10
52.7071441668
 20
-29.9011371483
 10
53.5019748347
 20
-30.4249424929
 10
54.2627128736
 20
-30.9406748968
 10
54.9956675368
 20
-31.4536090267
 10
55.7076255611
 20
-31.9691124172
 10
56.4022443286
 20
-32.490221299
 10
57.0793130826
 20
-33.0167038788
 10
57.7345911038
 20
-33.5442740814
 10
58.3641008974
 20
-34.0685366694
 10
58.9636133758
 20
-34.5849365705
  0
LWPOLYLINE
  5
357
100
AcDbEntity
  8
SUPERFICI
100
AcDbPolyline
 62
250
  6
CONTINUOUS
 90
10
 70
0
 10
-46.072026811
 20
35.2675308126
 10
-44.5685493214
 20
34.2404494405
 10
-43.0738001606
 20
33.1872151898
 10
-41.6024583042
 20
32.1201555166
 10
-40.1701222119
 20
31.0512999948
 10
-38.7892749898
 20
29.9924629498
 10
-37.454843787
 20
28.943632441
 10
-36.1518454402
 20
27.8945533756
 10
-34.8668549619
 20
26.8340878547
 10
-33.5856679659
 20
25.7513560052
  0
LWPOLYLINE
  5
358
100
AcDbEntity
  8
SUPERFICI
100
AcDbPolyline
 62
250
  6
CONTINUOUS
 90
10
 70
0
 10
51.2080460726
 20
-33.1833283218
 10
49.7696796017
 20
-32.1961435821
 10
48.2664110402
 20
-31.1898447212
 10
46.709523734
 20
-30.169109486
 10
45.1232892895
 20
-29.1454547388
 10
43.5252856247
 20
-28.1243877055
 10
41.9143798927
 20
-27.100149962
 10
40.2726047623
 20
-26.0612278233
 10
38.5801811592
 20
-24.99581308
 10
36.7929752651
 20
-23.8765062876
  0
LWPOLYLINE
  5
359
100
AcDbEntity
  8
SUPERFICI
100
AcDbPolyline
 62
250
  6
CONTINUOUS
 90
10
 70
0
 10
51.2080469174
 20
-33.183327406
 10
52.0213047763
 20
-33.7545715894
 10
52.8463923171
 20
-34.3445668238
 10
53.6685486793
 20
-34.9427827734
 10
54.4674036638
 20
-35.5342828772
 10
55.2399986942
 20
-36.1166493031
 10
55.9984790648
 20
-36.6994778618
 10
56.7482555816
 20
-37.2874433228
 10
57.4918129038
 20
-37.8820556313
 10
58.2379722491
 20
-38.4901651034
  0
LWPOLYLINE
  5
35A
100
AcDbEntity
  8
SUPERFICI
100
AcDbPolyline
 62
250
  6
CONTINUOUS
 90
10
 70
0
 10
-26.7165615424
 20
-35.7922473225
 10
-25.8424439138
 20
-34.9196258757
 10
-24.9920444444
 20
-34.0087965826
 10
-24.1563276039
 20
-33.0413424842
 10
-23.319992665
 20
-31.9905608862
 10
-22.4805945595
 20
-30.8448717639
 10
-21.6637198247
 20
-29.6339183182
 10
-20.8931218398
 20
-28.3893893878
 10
-20.1776263216
 20
-27.1248488181
 10
-19.5285048853
 20
-25.8626126808
  0
LWPOLYLINE
  5
35B
100
AcDbEntity
  8
SUPERFICI
100
AcDbPolyline
 62
250
  6
CONTINUOUS
 90
3
 70
0
 10
-26.7163740499
 20
-35.7922506053
 10
-27.0949018969
 20
-36.1530466066
 10
-27.4753578746
 20
-36.5078662114
  0
LWPOLYLINE
  5
35C
100
AcDbEntity
  8
SUPERFICI
100
AcDbPolyline
 62
250
  6
CONTINUOUS
 90
5
 70
0
 10
-28.6470016466
 20
-37.583872604
 10
-29.0452952681
 20
-37.9557930859
 10
-29.4431576699
 20
-38.334808018
 10
-29.8401934732
 20
-38.7207326391
 10
-30.2344338376
 20
-39.1118316152
  0
LINE
  5
35D
100
AcDbEntity
  8
SUPERFICI
100
AcDbLine
 62
250
  6
CONTINUOUS
 10
-27.4753578746
 20
-36.5078662114
 11
-28.6470016466
 21
-37.583872604
  0
LWPOLYLINE
  5
35E
100
AcDbEntity
  8
SUPERFICI
100
AcDbPolyline
 62
250
  6
CONTINUOUS
 90
10
 70
0
 10
58.9458932506
 20
36.8860249503
 10
58.2820479644
 20
36.3406176448
 10
57.5864167065
 20
35.7821458451
 10
56.8673965914
 20
35.2184996352
 10
56.1285403517
 20
34.6535207074
 10
55.3715394831
 20
34.0891761629
 10
54.5946450167
 20
33.5241630824
 10
53.7942912471
 20
32.9557394227
 10
52.9682020088
 20
32.3823968709
 10
52.1169917092
 20
31.8048124657
  0
LWPOLYLINE
  5
35F
100
AcDbEntity
  8
SUPERFICI
100
AcDbPolyline
 62
250
  6
CONTINUOUS
 90
10
 70
0
 10
58.2379706978
 20
38.4901665143
 10
57.4750922601
 20
37.8685629126
 10
56.7200653934
 20
37.2651127887
 10
55.9636901401
 20
36.6724811708
 10
55.2059181264
 20
36.0907353646
 10
54.4406919982
 20
35.5143394326
 10
53.6498426919
 20
34.9290566563
 10
52.8339641928
 20
34.3356035341
 10
52.0152119891
 20
33.7502537542
 10
51.2080464432
 20
33.1833279252
  0
LWPOLYLINE
  5
360
100
AcDbEntity
  8
SUPERFICI
100
AcDbPolyline
 62
250
  6
CONTINUOUS
 90
10
 70
0
 10
-52.1454384319
 20
-39.1063513313
 10
-51.4672660804
 20
-38.7017166671
 10
-50.7976195557
 20
-38.2964752163
 10
-50.1310637687
 20
-37.8872063819
 10
-49.4662310817
 20
-37.4730509266
 10
-48.7993921402
 20
-37.0517811347
 10
-48.1240907508
 20
-36.6192540942
 10
-47.4410825331
 20
-36.1756661046
 10
-46.7565537228
 20
-35.7248108646
 10
-46.0719507458
 20
-35.2675154321
  0
LWPOLYLINE
  5
361
100
AcDbEntity
  8
SUPERFICI
100
AcDbPolyline
 62
250
  6
CONTINUOUS
 90
10
 70
0
 10
-52.1454383138
 20
39.106351493
 10
-51.4672659635
 20
38.7017168268
 10
-50.7976194401
 20
38.2964753742
 10
-50.1310636543
 20
37.8872065378
 10
-49.4662309686
 20
37.4730510806
 10
-48.7993920284
 20
37.0517812868
 10
-48.1240906403
 20
36.6192542443
 10
-47.4410824238
 20
36.1756662527
 10
-46.7565536149
 20
35.7248110107
 10
-46.0719506393
 20
35.2675155762
  0
LWPOLYLINE
  5
362
100
AcDbEntity
  8
SUPERFICI
100
AcDbPolyline
 62
250
  6
CONTINUOUS
 90
10
 70
0
 10
58.9458932512
 20
-36.8860249451
 10
58.282047965
 20
-36.3406176395
 10
57.5864167072
 20
-35.7821458398
 10
56.867396592
 20
-35.2184996298
 10
56.1285403523
 20
-34.6535207019
 10
55.3715394837
 20
-34.0891761574
 10
54.5946450172
 20
-33.5241630768
 10
53.7942912476
 20
-32.955739417
 10
52.9682020094
 20
-32.3823968652
 10
52.1169917098
 20
-31.80481246
  0
LWPOLYLINE
  5
363
100
AcDbEntity
  8
SUPERFICI
100
AcDbPolyline
 62
250
  6
CONTINUOUS
 90
6
 70
0
 10
-27.4753577642
 20
36.5078662991
 10
-28.6470015328
 20
37.5838726948
 10
-29.0452951531
 20
37.9557931779
 10
-29.4431575539
 20
38.3348081111
 10
-29.8401933561
 20
38.7207327333
 10
-30.2344337194
 20
39.1118317107
  0
LWPOLYLINE
  5
364
100
AcDbEntity
  8
SUPERFICI
100
AcDbPolyline
 62
250
  6
CONTINUOUS
 90
3
 70
0
 10
-26.7163739418
 20
35.7922506909
 10
-27.0949017876
 20
36.1530466932
 10
-27.4753577642
 20
36.5078662991
  0
LWPOLYLINE
  5
365
100
AcDbEntity
  8
SUPERFICI
100
AcDbPolyline
 62
250
  6
CONTINUOUS
 90
10
 70
0
 10
-26.7165614342
 20
35.7922474081
 10
-25.8424438083
 20
34.9196259588
 10
-24.9920443416
 20
34.0087966633
 10
-24.1563275041
 20
33.0413425624
 10
-23.3199925683
 20
31.9905609621
 10
-22.4805944662
 20
30.8448718374
 10
-21.6637197351
 20
29.6339183893
 10
-20.893121754
 20
28.3893894567
 10
-20.1776262396
 20
27.1248488851
 10
-19.5285048072
 20
25.8626127459
  0
LWPOLYLINE
  5
366
100
AcDbEntity
  8
SUPERFICI
100
AcDbPolyline
 62
250
  6
CONTINUOUS
 90
10
 70
0
 10
19.5280932122
 20
-25.8617701765
 10
20.1678259725
 20
-27.1048244571
 10
20.8756638104
 20
-28.3547915447
 10
21.6394388059
 20
-29.5919666455
 10
22.4509051591
 20
-30.8025967145
 10
23.2883254533
 20
-31.9527400552
 10
24.1267943063
 20
-33.0101777353
 10
24.9685499357
 20
-33.9860086798
 10
25.8287354058
 20
-34.907033339
 10
26.7165819546
 20
-35.7922674995
  0
LWPOLYLINE
  5
367
100
AcDbEntity
  8
SUPERFICI
100
AcDbPolyline
 62
250
  6
CONTINUOUS
 90
10
 70
0
 10
58.9980780288
 20
24.6106059304
 10
58.4797249017
 20
24.2353114282
 10
57.9347988183
 20
23.8551002628
 10
57.3677496948
 20
23.4738245077
 10
56.7786337355
 20
23.0925268099
 10
56.1749789763
 20
22.7172365166
 10
55.5665328713
 20
22.3542868908
 10
54.9510988636
 20
22.0016302476
 10
54.3155064801
 20
21.6508356494
 10
53.6518016037
 20
21.2966164215
  0
LWPOLYLINE
  5
368
100
AcDbEntity
  8
SUPERFICI
100
AcDbPolyline
 62
250
  6
CONTINUOUS
 90
10
 70
0
 10
58.9980780292
 20
-24.6106059252
 10
58.4797249022
 20
-24.2353114229
 10
57.9347988187
 20
-23.8551002575
 10
57.3677496952
 20
-23.4738245023
 10
56.7786337359
 20
-23.0925268044
 10
56.1749789767
 20
-22.7172365111
 10
55.5665328717
 20
-22.3542868852
 10
54.951098864
 20
-22.001630242
 10
54.3155064804
 20
-21.6508356437
 10
53.6518016041
 20
-21.2966164157
  0
LINE
  5
369
100
AcDbEntity
  8
SUPERFICI
100
AcDbLine
 62
250
  6
CONTINUOUS
 10
35.480104677
 20
22.6197652455
 11
37.1099905664
 21
22.9081212101
  0
LINE
  5
36A
100
AcDbEntity
  8
SUPERFICI
100
AcDbLine
 62
250
  6
CONTINUOUS
 10
36.611637242
 20
19.0269042336
 11
37.227984579
 21
19.029946367
  0
LINE
  5
36B
100
AcDbEntity
  8
SUPERFICI
100
AcDbLine
 62
250
  6
CONTINUOUS
 10
-35.5041748979
 20
19.0269180202
 11
-36.611637682
 21
19.0269042885
  0
LINE
  5
36C
100
AcDbEntity
  8
SUPERFICI
100
AcDbLine
 62
250
  6
CONTINUOUS
 10
35.5041744323
 20
19.0269179669
 11
36.611637242
 21
19.0269042336
  0
LINE
  5
36D
100
AcDbEntity
  8
SUPERFICI
100
AcDbLine
 62
250
  6
CONTINUOUS
 10
-36.611637682
 20
19.0269042885
 11
-37.2279850143
 21
19.0299464229
  0
LINE
  5
36E
100
AcDbEntity
  8
SUPERFICI
100
AcDbLine
 62
250
  6
CONTINUOUS
 10
-35.4801051373
 20
22.6197652988
 11
-37.109990996
 21
22.9081212658
  0
LINE
  5
36F
100
AcDbEntity
  8
SUPERFICI
100
AcDbLine
 62
250
  6
CONTINUOUS
 10
58.870870223
 20
37.4564952056
 11
59.3757363383
 21
37.5678893204
  0
LWPOLYLINE
  5
370
100
AcDbEntity
  8
SUPERFICI
100
AcDbPolyline
 62
250
  6
CONTINUOUS
 90
7
 70
0
 10
59.3757363383
 20
37.5678893204
 10
59.5282897808
 20
37.6008030755
 10
59.5892381278
 20
37.6137106894
 10
59.6387942778
 20
37.6239942512
 10
59.6763071242
 20
37.63151746
 10
59.7014897409
 20
37.6362356163
 10
59.7140917163
 20
37.6381104405
  0
LWPOLYLINE
  5
371
100
AcDbEntity
  8
0
100
AcDbPolyline
 62
250
  6
CONTINUOUS
 90
4
 70
0
 10
35.50474815
 20
22.2707986157
 10
35.4662684838
 20
22.2702775121
 10
35.4262035671
 20
22.2699246594
 10
35.3846313159
 20
22.2697400577
  0
LINE
  5
372
100
AcDbEntity
  8
0
100
AcDbLine
 62
250
  6
CONTINUOUS
 10
-33.927972624
 20
22.2692637069
 11
-33.9440930534
 21
22.2690864586
  0
LINE
  5
373
100
AcDbEntity
  8
SUPERFICI
100
AcDbLine
 62
250
  6
CONTINUOUS
 10
-35.5075235787
 20
22.2707987589
 11
-36.0082008289
 21
22.2674621211
  0
LINE
  5
374
100
AcDbEntity
  8
SUPERFICI
100
AcDbLine
 62
250
  6
CONTINUOUS
 10
35.9975795238
 20
22.2674448696
 11
36.3676425675
 21
22.2688163873
  0
LINE
  5
375
100
AcDbEntity
  8
0
100
AcDbLine
 62
250
  6
CONTINUOUS
 10
33.8827375509
 20
22.2606414837
 11
33.79788215
 21
22.260616571
  0
LINE
  5
376
100
AcDbEntity
  8
0
100
AcDbLine
 62
250
  6
CONTINUOUS
 10
-33.9440930534
 20
22.2690864586
 11
-34.0057771992
 21
22.268975917
  0
LINE
  5
377
100
AcDbEntity
  8
0
100
AcDbLine
 62
250
  6
CONTINUOUS
 10
-34.8191567801
 20
22.2708707614
 11
-35.3846241077
 21
22.2697401392
  0
LINE
  5
378
100
AcDbEntity
  8
0
100
AcDbLine
 62
7
  6
CONTINUOUS
 10
-33.5703553439
 20
22.4880964149
 11
33.5702373884
 21
22.4880964161
  0
LINE
  5
379
100
AcDbEntity
  8
0
100
AcDbLine
 62
250
  6
CONTINUOUS
 10
33.5702922242
 20
22.5722904655
 11
-33.5703833873
 21
22.5722943195
  0
LINE
  5
37A
100
AcDbEntity
  8
0
100
AcDbLine
 62
250
  6
CONTINUOUS
 10
34.8191406761
 20
22.2708706869
 11
33.9830789841
 21
22.2689790284
  0
LINE
  5
37B
100
AcDbEntity
  8
0
100
AcDbLine
 62
250
  6
CONTINUOUS
 10
-33.8827378259
 20
22.2605380988
 11
-33.7978822359
 21
22.2604814726
  0
LINE
  5
37C
100
AcDbEntity
  8
SUPERFICI
100
AcDbLine
 62
250
  6
CONTINUOUS
 10
-29.2678194005
 20
24.1989242747
 11
-33.5804701726
 21
24.2026873602
  0
LINE
  5
37D
100
AcDbEntity
  8
SUPERFICI
100
AcDbLine
 62
250
  6
CONTINUOUS
 10
33.580469633
 20
24.2005813539
 11
-29.2678200426
 21
24.2023318342
  0
LWPOLYLINE
  5
37E
100
AcDbEntity
  8
0
100
AcDbPolyline
 62
250
  6
CONTINUOUS
 90
4
 70
0
 10
33.9027420211
 20
22.2696376746
 10
33.8937247746
 20
22.269664787
 10
33.8870640535
 20
22.2696135714
 10
33.8827375515
 20
22.2694840281
  0
LINE
  5
37F
100
AcDbEntity
  8
0
100
AcDbLine
 62
250
  6
CONTINUOUS
 10
-34.0057771992
 20
22.268975917
 11
-34.8191567801
 21
22.2708707614
  0
LWPOLYLINE
  5
380
100
AcDbEntity
  8
SUPERFICI
100
AcDbPolyline
 62
250
  6
CONTINUOUS
 90
6
 70
0
 10
-36.0082008289
 20
22.2674621211
 10
-36.3862262045
 20
22.268250816
 10
-36.579998361
 20
22.26703828
 10
-36.7725447366
 20
22.2627434655
 10
-36.9646531132
 20
22.255735843
 10
-37.1552407095
 20
22.2456390374
  0
LWPOLYLINE
  5
381
100
AcDbEntity
  8
0
100
AcDbPolyline
 62
250
  6
CONTINUOUS
 90
4
 70
0
 10
33.9830789841
 20
22.2689790284
 10
33.9441001852
 20
22.2690863707
 10
33.9279792788
 20
22.2692635958
 10
33.9027420211
 20
22.2696376746
  0
LWPOLYLINE
  5
382
100
AcDbEntity
  8
0
100
AcDbPolyline
 62
250
  6
CONTINUOUS
 90
4
 70
0
 10
-35.3846241077
 20
22.2697401392
 10
-35.4261977608
 20
22.2699247361
 10
-35.4662652801
 20
22.2702775794
 10
-35.5047486106
 20
22.2707986691
  0
LINE
  5
383
100
AcDbEntity
  8
0
100
AcDbLine
 62
250
  6
CONTINUOUS
 10
35.3846313159
 20
22.2697400577
 11
34.8191406761
 21
22.2708706869
  0
LWPOLYLINE
  5
384
100
AcDbEntity
  8
SUPERFICI
100
AcDbPolyline
 62
250
  6
CONTINUOUS
 90
5
 70
0
 10
36.3676425675
 20
22.2688163873
 10
36.5604937192
 20
22.26720486
 10
36.7558808839
 20
22.2622935489
 10
36.9542534208
 20
22.2550861519
 10
37.1551525302
 20
22.245641936
  0
LWPOLYLINE
  5
385
100
AcDbEntity
  8
SUPERFICI
100
AcDbPolyline
 62
250
  6
CONTINUOUS
 90
3
 70
0
 10
35.5075341253
 20
22.270798624
 10
35.6619350404
 20
22.2693130041
 10
35.9975795238
 20
22.2674448696
  0
LWPOLYLINE
  5
386
100
AcDbEntity
  8
0
100
AcDbPolyline
 62
250
  6
CONTINUOUS
 90
5
 70
0
 10
-33.8827379767
 20
22.2694841299
 10
-33.887063286
 20
22.2696137014
 10
-33.8937222715
 20
22.2696649329
 10
-33.9027376348
 20
22.2696378244
 10
-33.927972624
 20
22.2692637069
  0
LINE
  5
387
100
AcDbEntity
  8
SUPERFICI
100
AcDbLine
 62
250
  6
CONTINUOUS
 10
-59.4568270976
 20
37.5854650639
 11
-59.5892383857
 21
37.6137107789
  0
LINE
  5
388
100
AcDbEntity
  8
SUPERFICI
100
AcDbLine
 62
250
  6
CONTINUOUS
 10
-59.0878743437
 20
37.5046752988
 11
-59.4568270976
 21
37.5854650639
  0
LINE
  5
389
100
AcDbEntity
  8
SUPERFICI
100
AcDbLine
 62
250
  6
CONTINUOUS
 10
-58.8708705041
 20
37.456495294
 11
-59.0878743437
 21
37.5046752988
  0
LINE
  5
38A
100
AcDbEntity
  8
SUPERFICI
100
AcDbLine
 62
250
  6
CONTINUOUS
 10
29.2678190045
 20
-25.8214714219
 11
29.2678189433
 21
-24.1989242237
  0
LINE
  5
38B
100
AcDbEntity
  8
SUPERFICI
100
AcDbLine
 62
250
  6
CONTINUOUS
 10
29.2678195849
 20
24.2023317903
 11
29.2678195848
 21
25.8215944576
  0
LINE
  5
38C
100
AcDbEntity
  8
SUPERFICI
100
AcDbLine
 62
250
  6
CONTINUOUS
 10
-32.9833898862
 20
25.757204881
 11
-32.4634161322
 21
25.7740120907
  0
LWPOLYLINE
  5
38D
100
AcDbEntity
  8
SUPERFICI
100
AcDbPolyline
 62
250
  6
CONTINUOUS
 90
6
 70
0
 10
-31.2040807074
 20
25.8001251567
 10
-30.9970511398
 20
25.8052199756
 10
-30.7879089287
 20
25.8091890095
 10
-30.5766768636
 20
25.8119976171
 10
-30.3633204909
 20
25.8129256986
 10
-29.9307005553
 20
25.8131554698
  0
LINE
  5
38E
100
AcDbEntity
  8
SUPERFICI
100
AcDbLine
 62
250
  6
CONTINUOUS
 10
-32.4634161322
 20
25.7740120907
 11
-31.9035443196
 21
25.7884336323
  0
LINE
  5
38F
100
AcDbEntity
  8
SUPERFICI
100
AcDbLine
 62
250
  6
CONTINUOUS
 10
-31.9035443196
 20
25.7884336323
 11
-31.6396134804
 21
25.7939381035
  0
LWPOLYLINE
  5
390
100
AcDbEntity
  8
SUPERFICI
100
AcDbPolyline
 62
250
  6
CONTINUOUS
 90
3
 70
0
 10
-31.6396134804
 20
25.7939381035
 10
-31.3535296528
 20
25.7983474051
 10
-31.2040807074
 20
25.8001251567
  0
LWPOLYLINE
  5
391
100
AcDbEntity
  8
SUPERFICI
100
AcDbPolyline
 62
250
  6
CONTINUOUS
 90
3
 70
0
 10
-29.9307005553
 20
25.8131554698
 10
-29.7116382131
 20
25.8152344906
 10
-29.2678218256
 20
25.8220459886
  0
LINE
  5
392
100
AcDbEntity
  8
SUPERFICI
100
AcDbLine
 62
250
  6
CONTINUOUS
 10
-29.2678218256
 20
25.8220459886
 11
-24.4268812448
 21
25.8447926849
  0
LWPOLYLINE
  5
393
100
AcDbEntity
  8
SUPERFICI
100
AcDbPolyline
 62
250
  6
CONTINUOUS
 90
4
 70
0
 10
33.5063196051
 20
25.7500567508
 10
33.4083121486
 20
25.7497047207
 10
33.2916324783
 20
25.7502758439
 10
33.1467249122
 20
25.7527301361
  0
LINE
  5
394
100
AcDbEntity
  8
SUPERFICI
100
AcDbLine
 62
250
  6
CONTINUOUS
 10
-24.4268812448
 20
25.8447926849
 11
-19.5280936366
 21
25.8617702123
  0
LINE
  5
395
100
AcDbEntity
  8
SUPERFICI
100
AcDbLine
 62
250
  6
CONTINUOUS
 10
-19.5285048072
 20
25.8626127459
 11
-9.7316643074
 21
25.8728120542
  0
LINE
  5
396
100
AcDbEntity
  8
SUPERFICI
100
AcDbLine
 62
250
  6
CONTINUOUS
 10
-9.7316643074
 20
25.8728120542
 11
-1.0593816376
 21
25.8754466813
  0
LINE
  5
397
100
AcDbEntity
  8
SUPERFICI
100
AcDbLine
 62
250
  6
CONTINUOUS
 10
15.237111937
 20
25.8680412632
 11
-1.0593816376
 21
25.8754466813
  0
LINE
  5
398
100
AcDbEntity
  8
SUPERFICI
100
AcDbLine
 62
250
  6
CONTINUOUS
 10
30.3633200658
 20
25.812925653
 11
29.9307001302
 21
25.8131554248
  0
LINE
  5
399
100
AcDbEntity
  8
SUPERFICI
100
AcDbLine
 62
250
  6
CONTINUOUS
 10
20.0940647091
 20
25.8590138162
 11
15.237111937
 21
25.8680412632
  0
LINE
  5
39A
100
AcDbEntity
  8
SUPERFICI
100
AcDbLine
 62
250
  6
CONTINUOUS
 10
29.2678214006
 20
25.8220459446
 11
20.0940647091
 21
25.8590138162
  0
LWPOLYLINE
  5
39B
100
AcDbEntity
  8
SUPERFICI
100
AcDbPolyline
 62
250
  6
CONTINUOUS
 90
3
 70
0
 10
29.9307001302
 20
25.8131554248
 10
29.4906825764
 20
25.8181912696
 10
29.2678214006
 20
25.8220459446
  0
LINE
  5
39C
100
AcDbEntity
  8
SUPERFICI
100
AcDbLine
 62
250
  6
CONTINUOUS
 10
31.4987055809
 20
25.7962848198
 11
31.2040802823
 21
25.8001251099
  0
LWPOLYLINE
  5
39D
100
AcDbEntity
  8
SUPERFICI
100
AcDbPolyline
 62
250
  6
CONTINUOUS
 90
6
 70
0
 10
-33.8448093752
 20
25.7552528019
 10
-33.5063200304
 20
25.7500568011
 10
-33.408312574
 20
25.7497047709
 10
-33.2916329037
 20
25.7502758939
 10
-33.1467253376
 20
25.7527301859
 10
-32.9833898862
 20
25.757204881
  0
LINE
  5
39E
100
AcDbEntity
  8
SUPERFICI
100
AcDbLine
 62
250
  6
CONTINUOUS
 10
31.7737175885
 20
25.7913216791
 11
31.4987055809
 21
25.7962848198
  0
LWPOLYLINE
  5
39F
100
AcDbEntity
  8
SUPERFICI
100
AcDbPolyline
 62
250
  6
CONTINUOUS
 90
5
 70
0
 10
31.2040802823
 20
25.8001251099
 10
30.9970507147
 20
25.8052199291
 10
30.7879085037
 20
25.8091889633
 10
30.5766764386
 20
25.8119975711
 10
30.3633200658
 20
25.812925653
  0
LINE
  5
3A0
100
AcDbEntity
  8
SUPERFICI
100
AcDbLine
 62
250
  6
CONTINUOUS
 10
32.3244875123
 20
25.7778895676
 11
31.7737175885
 21
25.7913216791
  0
LINE
  5
3A1
100
AcDbEntity
  8
SUPERFICI
100
AcDbLine
 62
250
  6
CONTINUOUS
 10
33.1467249122
 20
25.7527301361
 11
32.8305709039
 21
25.7620202854
  0
LWPOLYLINE
  5
3A2
100
AcDbEntity
  8
SUPERFICI
100
AcDbPolyline
 62
250
  6
CONTINUOUS
 90
3
 70
0
 10
32.8305709039
 20
25.7620202854
 10
32.586762602
 20
25.7701460164
 10
32.3244875123
 20
25.7778895676
  0
LWPOLYLINE
  5
3A3
100
AcDbEntity
  8
0
100
AcDbPolyline
 62
7
  6
CONTINUOUS
 90
5
 70
0
 10
33.5702373884
 20
22.4880964161
 10
33.6004260786
 20
22.4860200993
 10
33.6292662621
 20
22.4803385316
 10
33.6567579388
 20
22.4710517129
 10
33.683369772
 20
22.457879965
  0
LWPOLYLINE
  5
3A4
100
AcDbEntity
  8
0
100
AcDbPolyline
 62
7
  6
CONTINUOUS
 90
13
 70
0
 10
33.5702928109
 20
22.5729228311
 10
33.6138332506
 20
22.5699043298
 10
33.6547354967
 20
22.5613321408
 10
33.6934260151
 20
22.5476862889
 10
33.72948693
 20
22.5293778
 10
33.762425439
 20
22.5069359902
 10
33.7921798294
 20
22.4805212733
 10
33.818396063
 20
22.4504611655
 10
33.8405921621
 20
22.4172401925
 10
33.8584927135
 20
22.3811836828
 10
33.8716510447
 20
22.3429282778
 10
33.8798230318
 20
22.3028986046
 10
33.8826743475
 20
22.2606414809
  0
LWPOLYLINE
  5
3A5
100
AcDbEntity
  8
SUPERFICI
100
AcDbPolyline
 62
250
  6
CONTINUOUS
 90
5
 70
0
 10
-59.5892383857
 20
37.6137107789
 10
-59.638794531
 20
37.6239943408
 10
-59.6763073724
 20
37.6315175496
 10
-59.701489984
 20
37.6362357059
 10
-59.7140919542
 20
37.6381105302
  0
LWPOLYLINE
  5
3A6
100
AcDbEntity
  8
SUPERFICI
100
AcDbPolyline
 62
250
  6
CONTINUOUS
 90
5
 70
0
 10
33.5804697149
 20
24.2026873097
 10
33.5782570402
 20
24.3503232408
 10
33.5769028947
 20
24.5057739054
 10
33.5764056947
 20
24.6685110523
 10
33.5769456298
 20
24.8384509595
  0
LWPOLYLINE
  5
3A7
100
AcDbEntity
  8
0
100
AcDbPolyline
 62
250
  6
CONTINUOUS
 90
3
 70
0
 10
33.5804696335
 20
-24.2005813467
 10
33.5794321393
 20
-24.121701238
 10
33.5791363322
 20
-24.0799643904
  0
LINE
  5
3A8
100
AcDbEntity
  8
0
100
AcDbLine
 62
250
  6
CONTINUOUS
 10
33.5800721632
 20
22.6032333486
 11
33.5798721567
 21
22.6328302233
  0
LINE
  5
3A9
100
AcDbEntity
  8
0
100
AcDbLine
 62
250
  6
CONTINUOUS
 10
33.5703791326
 20
-22.5722935529
 11
33.5703496448
 21
-22.4880964101
  0
LINE
  5
3AA
100
AcDbEntity
  8
0
100
AcDbLine
 62
7
  6
CONTINUOUS
 10
33.79788215
 20
22.260616571
 11
33.79788215
 21
-22.2606039133
  0
LINE
  5
3AB
100
AcDbEntity
  8
0
100
AcDbLine
 62
250
  6
CONTINUOUS
 10
33.8827375519
 20
-22.2606329154
 11
33.8827375509
 21
22.2606414837
  0
LINE
  5
3AC
100
AcDbEntity
  8
SUPERFICI
100
AcDbLine
 62
250
  6
CONTINUOUS
 10
31.2050774704
 20
24.1989232491
 11
31.2040804521
 21
25.8003686079
  0
LINE
  5
3AD
100
AcDbEntity
  8
0
100
AcDbLine
 62
250
  6
CONTINUOUS
 10
33.5702922242
 20
22.5722904655
 11
33.5702373884
 21
22.4880964161
  0
LINE
  5
3AE
100
AcDbEntity
  8
0
100
AcDbLine
 62
250
  6
CONTINUOUS
 10
33.5791363322
 20
-24.0799643904
 11
33.5798721047
 21
-22.6328452457
  0
LINE
  5
3AF
100
AcDbEntity
  8
SUPERFICI
100
AcDbLine
 62
250
  6
CONTINUOUS
 10
31.2040811474
 20
-25.8001260539
 11
31.2050774143
 21
-24.198834902
  0
LINE
  5
3B0
100
AcDbEntity
  8
0
100
AcDbLine
 62
250
  6
CONTINUOUS
 10
33.5798721567
 20
22.6328302233
 11
33.5791362908
 21
24.0799542881
  0
LWPOLYLINE
  5
3B1
100
AcDbEntity
  8
0
100
AcDbPolyline
 62
250
  6
CONTINUOUS
 90
6
 70
0
 10
33.5798721047
 20
-22.6328452457
 10
33.5800720951
 20
-22.603244835
 10
33.580065459
 20
-22.5919061969
 10
33.5799028487
 20
-22.5829176145
 10
33.5796267076
 20
-22.5763558396
 10
33.5792370356
 20
-22.5722786547
  0
LWPOLYLINE
  5
3B2
100
AcDbEntity
  8
0
100
AcDbPolyline
 62
250
  6
CONTINUOUS
 90
3
 70
0
 10
33.5791362908
 20
24.0799542881
 10
33.5798765566
 20
24.1619300032
 10
33.580469633
 20
24.2005813539
  0
LINE
  5
3B3
100
AcDbEntity
  8
SUPERFICI
100
AcDbLine
 62
250
  6
CONTINUOUS
 10
33.5769456298
 20
24.8384509595
 11
33.585667542
 21
25.7513559984
  0
LWPOLYLINE
  5
3B4
100
AcDbEntity
  8
SUPERFICI
100
AcDbPolyline
 62
250
  6
CONTINUOUS
 90
6
 70
0
 10
33.5804697153
 20
-24.2026873026
 10
33.5782570407
 20
-24.3503232337
 10
33.5769028951
 20
-24.5057738984
 10
33.5764056952
 20
-24.6685110454
 10
33.5769456303
 20
-24.8384509527
 10
33.5856675425
 20
-25.7513559917
  0
LWPOLYLINE
  5
3B5
100
AcDbEntity
  8
0
100
AcDbPolyline
 62
250
  6
CONTINUOUS
 90
5
 70
0
 10
33.5792366936
 20
22.5722760542
 10
33.5796265306
 20
22.5763508926
 10
33.579902797
 20
22.5829103906
 10
33.5800654928
 20
22.5918967976
 10
33.5800721632
 20
22.6032333486
  0
LWPOLYLINE
  5
3B6
100
AcDbEntity
  8
0
100
AcDbPolyline
 62
250
  6
CONTINUOUS
 90
4
 70
0
 10
33.6582217511
 20
22.5601025654
 10
33.6843102183
 20
22.5523045877
 10
33.7184173439
 20
22.5372756861
 10
33.7502848068
 20
22.5182083114
  0
LWPOLYLINE
  5
3B7
100
AcDbEntity
  8
SUPERFICI
100
AcDbPolyline
 62
250
  6
CONTINUOUS
 90
10
 70
0
 10
37.1552402791
 20
-22.2456389749
 10
37.1573837941
 20
-22.3035553612
 10
37.1578713573
 20
-22.3625752208
 10
37.1570129218
 20
-22.4224425754
 10
37.1550514669
 20
-22.4829843767
 10
37.1520153806
 20
-22.5441474506
 10
37.14780484
 20
-22.6059141366
 10
37.1423178166
 20
-22.668305841
 10
37.1356043756
 20
-22.7312998651
 10
37.1276340358
 20
-22.7948640913
  0
LINE
  5
3B8
100
AcDbEntity
  8
SUPERFICI
100
AcDbLine
 62
250
  6
CONTINUOUS
 10
37.1919814785
 20
20.6039853308
 11
37.1630474955
 21
21.475981542
  0
LINE
  5
3B9
100
AcDbEntity
  8
SUPERFICI
100
AcDbLine
 62
250
  6
CONTINUOUS
 10
37.1630474955
 20
21.475981542
 11
37.1602211098
 21
21.5754305126
  0
LINE
  5
3BA
100
AcDbEntity
  8
SUPERFICI
100
AcDbLine
 62
250
  6
CONTINUOUS
 10
37.2060330586
 20
20.0837186981
 11
37.1919814785
 21
20.6039853308
  0
LWPOLYLINE
  5
3BB
100
AcDbEntity
  8
SUPERFICI
100
AcDbPolyline
 62
250
  6
CONTINUOUS
 90
4
 70
0
 10
37.1602211098
 20
21.5754305126
 10
37.1558180566
 20
21.7714879126
 10
37.1543583958
 20
21.8682460412
 10
37.154091846
 20
21.9642047753
  0
LINE
  5
3BC
100
AcDbEntity
  8
SUPERFICI
100
AcDbLine
 62
250
  6
CONTINUOUS
 10
37.2173675071
 20
19.5586516971
 11
37.2060330586
 21
20.0837186981
  0
LINE
  5
3BD
100
AcDbEntity
  8
SUPERFICI
100
AcDbLine
 62
250
  6
CONTINUOUS
 10
37.2376749401
 20
18.2091316029
 11
37.2599485763
 21
16.9552425414
  0
LINE
  5
3BE
100
AcDbEntity
  8
SUPERFICI
100
AcDbLine
 62
250
  6
CONTINUOUS
 10
37.2261285693
 20
19.0290511004
 11
37.2173675071
 21
19.5586516971
  0
LWPOLYLINE
  5
3BF
100
AcDbEntity
  8
SUPERFICI
100
AcDbPolyline
 62
250
  6
CONTINUOUS
 90
5
 70
0
 10
37.2599485763
 20
16.9552425414
 10
37.2655125641
 20
16.5306844559
 10
37.2676669824
 20
16.1023568053
 10
37.2672091842
 20
15.6704473986
 10
37.2647920249
 20
15.2349583998
  0
LINE
  5
3C0
100
AcDbEntity
  8
SUPERFICI
100
AcDbLine
 62
250
  6
CONTINUOUS
 10
37.227984579
 20
19.029946367
 11
37.2376749401
 21
18.2091316029
  0
LINE
  5
3C1
100
AcDbEntity
  8
SUPERFICI
100
AcDbLine
 62
250
  6
CONTINUOUS
 10
37.2647920249
 20
15.2349583998
 11
37.3198453333
 21
10.1405362522
  0
LINE
  5
3C2
100
AcDbEntity
  8
SUPERFICI
100
AcDbLine
 62
250
  6
CONTINUOUS
 10
37.3198453333
 20
10.1405362522
 11
37.3464056448
 21
6.7838870272
  0
LWPOLYLINE
  5
3C3
100
AcDbEntity
  8
SUPERFICI
100
AcDbPolyline
 62
250
  6
CONTINUOUS
 90
3
 70
0
 10
37.1540918464
 20
-21.9642047686
 10
37.1552257617
 20
-22.1530645332
 10
37.1552396545
 20
-22.245638951
  0
LINE
  5
3C4
100
AcDbEntity
  8
SUPERFICI
100
AcDbLine
 62
250
  6
CONTINUOUS
 10
37.3464056448
 20
6.7838870272
 11
37.3639593494
 21
3.4080940236
  0
LWPOLYLINE
  5
3C5
100
AcDbEntity
  8
SUPERFICI
100
AcDbPolyline
 62
250
  6
CONTINUOUS
 90
10
 70
0
 10
35.5096391438
 20
22.2708004479
 10
35.5094766241
 20
22.3099729939
 10
35.5085313272
 20
22.3490614287
 10
35.506804418
 20
22.3880581214
 10
35.5042962435
 20
22.4269523278
 10
35.5010089679
 20
22.4657394463
 10
35.4969459516
 20
22.5044211331
 10
35.4921085226
 20
22.5429928955
 10
35.486496598
 20
22.5814439772
 10
35.4801108839
 20
22.6197666944
  0
LINE
  5
3C6
100
AcDbEntity
  8
SUPERFICI
100
AcDbLine
 62
250
  6
CONTINUOUS
 10
37.3639593494
 20
3.4080940236
 11
37.3717759266
 21
0.0000000034
  0
LINE
  5
3C7
100
AcDbEntity
  8
SUPERFICI
100
AcDbLine
 62
250
  6
CONTINUOUS
 10
35.5047481503
 20
-22.2707986086
 11
35.5075341253
 21
22.270798624
  0
LINE
  5
3C8
100
AcDbEntity
  8
SUPERFICI
100
AcDbLine
 62
250
  6
CONTINUOUS
 10
37.2647919401
 20
-15.23511911
 11
37.2653425431
 21
-16.0619027815
  0
LINE
  5
3C9
100
AcDbEntity
  8
SUPERFICI
100
AcDbLine
 62
250
  6
CONTINUOUS
 10
37.3639593495
 20
-3.4080940169
 11
37.3717759265
 21
0.0000000034
  0
LWPOLYLINE
  5
3CA
100
AcDbEntity
  8
SUPERFICI
100
AcDbPolyline
 62
250
  6
CONTINUOUS
 90
10
 70
0
 10
35.5096391442
 20
-22.2708004407
 10
35.5094766245
 20
-22.3099729868
 10
35.5085313276
 20
-22.3490614215
 10
35.5068044183
 20
-22.3880581143
 10
35.5042962439
 20
-22.4269523207
 10
35.5010089683
 20
-22.4657394391
 10
35.496945952
 20
-22.5044211259
 10
35.492108523
 20
-22.5429928884
 10
35.4864965984
 20
-22.58144397
 10
35.4801108843
 20
-22.6197666872
  0
LINE
  5
3CB
100
AcDbEntity
  8
SUPERFICI
100
AcDbLine
 62
250
  6
CONTINUOUS
 10
37.3464056449
 20
-6.7838870205
 11
37.3639593495
 21
-3.4080940169
  0
LWPOLYLINE
  5
3CC
100
AcDbEntity
  8
SUPERFICI
100
AcDbPolyline
 62
250
  6
CONTINUOUS
 90
3
 70
0
 10
37.154091846
 20
21.9642047753
 10
37.1552257613
 20
22.15306454
 10
37.1552396541
 20
22.2456389577
  0
LINE
  5
3CD
100
AcDbEntity
  8
SUPERFICI
100
AcDbLine
 62
250
  6
CONTINUOUS
 10
37.3198453335
 20
-10.1405362455
 11
37.3464056449
 21
-6.7838870205
  0
LINE
  5
3CE
100
AcDbEntity
  8
SUPERFICI
100
AcDbLine
 62
250
  6
CONTINUOUS
 10
37.2653425431
 20
-16.0619027815
 11
37.2593525807
 21
-16.8986210526
  0
LINE
  5
3CF
100
AcDbEntity
  8
SUPERFICI
100
AcDbLine
 62
250
  6
CONTINUOUS
 10
37.2647920252
 20
-15.234958393
 11
37.3198453335
 21
-10.1405362455
  0
LWPOLYLINE
  5
3D0
100
AcDbEntity
  8
SUPERFICI
100
AcDbPolyline
 62
250
  6
CONTINUOUS
 90
3
 70
0
 10
37.155818057
 20
-21.7714879059
 10
37.1543583962
 20
-21.8682460345
 10
37.1540918464
 20
-21.9642047686
  0
LINE
  5
3D1
100
AcDbEntity
  8
SUPERFICI
100
AcDbLine
 62
250
  6
CONTINUOUS
 10
37.2593525807
 20
-16.8986210526
 11
37.2221237091
 21
-19.2944416052
  0
LINE
  5
3D2
100
AcDbEntity
  8
SUPERFICI
100
AcDbLine
 62
250
  6
CONTINUOUS
 10
37.2221237091
 20
-19.2944416052
 11
37.211971268
 21
-19.821737431
  0
LINE
  5
3D3
100
AcDbEntity
  8
SUPERFICI
100
AcDbLine
 62
250
  6
CONTINUOUS
 10
37.211971268
 20
-19.821737431
 11
37.1993942486
 21
-20.3444701783
  0
LWPOLYLINE
  5
3D4
100
AcDbEntity
  8
SUPERFICI
100
AcDbPolyline
 62
250
  6
CONTINUOUS
 90
3
 70
0
 10
37.1630474958
 20
-21.4759815353
 10
37.1602211102
 20
-21.5754305058
 10
37.155818057
 20
-21.7714879059
  0
LWPOLYLINE
  5
3D5
100
AcDbEntity
  8
SUPERFICI
100
AcDbPolyline
 62
250
  6
CONTINUOUS
 90
10
 70
0
 10
37.1552396541
 20
22.2456389577
 10
37.1570226807
 20
22.304904219
 10
37.1576112403
 20
22.3645610964
 10
37.1569568164
 20
22.4245957697
 10
37.1550708871
 20
22.4849656592
 10
37.151980427
 20
22.5457294253
 10
37.1477152898
 20
22.6070473519
 10
37.1422608806
 20
22.6690011021
 10
37.1355795267
 20
22.7315857952
 10
37.1276356031
 20
22.794848061
  0
LINE
  5
3D6
100
AcDbEntity
  8
SUPERFICI
100
AcDbLine
 62
250
  6
CONTINUOUS
 10
37.1993942486
 20
-20.3444701783
 11
37.1839712951
 21
-20.8624207723
  0
LINE
  5
3D7
100
AcDbEntity
  8
SUPERFICI
100
AcDbLine
 62
250
  6
CONTINUOUS
 10
37.1839712951
 20
-20.8624207723
 11
37.1630474958
 21
-21.4759815353
  0
LWPOLYLINE
  5
3D8
100
AcDbEntity
  8
0
100
AcDbPolyline
 62
7
  6
CONTINUOUS
 90
13
 70
0
 10
33.8826743814
 20
-22.2606329227
 10
33.8798196353
 20
-22.302933574
 10
33.8716395068
 20
-22.3429678661
 10
33.8584699195
 20
-22.3812387289
 10
33.8405470081
 20
-22.4173171977
 10
33.8183194287
 20
-22.4505617143
 10
33.7920676211
 20
-22.4806343796
 10
33.7622828882
 20
-22.5070465396
 10
33.7293282961
 20
-22.5294724766
 10
33.69324666
 20
-22.5477622525
 10
33.6545612334
 20
-22.561379577
 10
33.6137678203
 20
-22.5699156651
 10
33.5703794434
 20
-22.5729218485
  0
LWPOLYLINE
  5
3D9
100
AcDbEntity
  8
0
100
AcDbPolyline
 62
7
  6
CONTINUOUS
 90
5
 70
0
 10
33.79788215
 20
-22.2606039133
 10
33.79577155
 20
-22.2908223885
 10
33.790052153
 20
-22.3196875349
 10
33.7807239591
 20
-22.3471993525
 10
33.767500687
 20
-22.3738309987
  0
LWPOLYLINE
  5
3DA
100
AcDbEntity
  8
0
100
AcDbPolyline
 62
250
  6
CONTINUOUS
 90
4
 70
0
 10
33.8727971179
 20
-22.3386035439
 10
33.8620836081
 20
-22.3744873661
 10
33.847047723
 20
-22.4086279693
 10
33.827970366
 20
-22.4405188216
  0
LWPOLYLINE
  5
3DB
100
AcDbEntity
  8
0
100
AcDbPolyline
 62
250
  6
CONTINUOUS
 90
4
 70
0
 10
33.7501130837
 20
-22.5183260009
 10
33.7182610315
 20
-22.5373564641
 10
33.6841945552
 20
-22.5523471618
 10
33.6484209604
 20
-22.5630288019
  0
LWPOLYLINE
  5
3DC
100
AcDbEntity
  8
0
100
AcDbPolyline
 62
7
  6
CONTINUOUS
 90
5
 70
0
 10
33.6832981046
 20
-22.4579154975
 10
33.6566996529
 20
-22.4710751007
 10
33.6292455464
 20
-22.4803531993
 10
33.6004622103
 20
-22.4860269691
 10
33.5703496448
 20
-22.4880964101
  0
LWPOLYLINE
  5
3DD
100
AcDbEntity
  8
SUPERFICI
100
AcDbPolyline
 62
250
  6
CONTINUOUS
 90
7
 70
0
 10
-39.2212094486
 20
35.6215916909
 10
-40.4444678827
 20
35.5935711067
 10
-41.6362455343
 20
35.5620576604
 10
-42.7958995011
 20
35.522539882
 10
-43.9220718422
 20
35.4620684341
 10
-45.0141936458
 20
35.3782120251
 10
-46.072026811
 20
35.2675308126
  0
LINE
  5
3DE
100
AcDbEntity
  8
SUPERFICI
100
AcDbLine
 62
250
  6
CONTINUOUS
 10
-36.6819474325
 20
35.6705920657
 11
-39.2212094486
 21
35.6215916909
  0
LINE
  5
3DF
100
AcDbEntity
  8
SUPERFICI
100
AcDbLine
 62
250
  6
CONTINUOUS
 10
-34.0116018457
 20
35.7144493914
 11
-36.6819474325
 21
35.6705920657
  0
LINE
  5
3E0
100
AcDbEntity
  8
SUPERFICI
100
AcDbLine
 62
250
  6
CONTINUOUS
 10
-31.2046996348
 20
35.751620848
 11
-34.0116018457
 21
35.7144493914
  0
LWPOLYLINE
  5
3E1
100
AcDbEntity
  8
SUPERFICI
100
AcDbPolyline
 62
250
  6
CONTINUOUS
 90
3
 70
0
 10
-26.716582284
 20
35.792267545
 10
-28.2491788077
 20
35.7811142827
 10
-31.2046996348
 20
35.751620848
  0
LINE
  5
3E2
100
AcDbEntity
  8
SUPERFICI
100
AcDbLine
 62
250
  6
CONTINUOUS
 10
-23.8370838478
 20
35.8048006984
 11
-26.7165614342
 21
35.7922474081
  0
LWPOLYLINE
  5
3E3
100
AcDbEntity
  8
SUPERFICI
100
AcDbPolyline
 62
250
  6
CONTINUOUS
 90
10
 70
0
 10
56.8322127735
 20
39.0125841051
 10
56.8450368513
 20
39.0126036023
 10
56.8578952442
 20
39.0125224791
 10
56.8708279508
 20
39.0122393859
 10
56.8839174168
 20
39.0115544068
 10
56.8971660367
 20
39.010453855
 10
56.9104921619
 20
39.0091179677
 10
56.9238927579
 20
39.007543515
 10
56.9374410747
 20
39.0055458526
 10
56.951089971
 20
39.0031617722
  0
LINE
  5
3E4
100
AcDbEntity
  8
0
100
AcDbLine
 62
250
  6
CONTINUOUS
 10
-60.0144306333
 20
37.0415190665
 11
-59.7795220199
 21
37.0415269307
  0
LINE
  5
3E5
100
AcDbEntity
  8
0
100
AcDbLine
 62
250
  6
CONTINUOUS
 10
59.7795217809
 20
37.0415268409
 11
60.0144307446
 21
37.0415189764
  0
LINE
  5
3E6
100
AcDbEntity
  8
SUPERFICI
100
AcDbLine
 62
250
  6
CONTINUOUS
 10
-23.8370838478
 20
35.8048006984
 11
20.9348572829
 21
35.8051678112
  0
LWPOLYLINE
  5
3E7
100
AcDbEntity
  8
SUPERFICI
100
AcDbPolyline
 62
250
  6
CONTINUOUS
 90
3
 70
0
 10
20.9348572829
 20
35.8051678112
 10
23.8370840203
 20
35.8048006616
 10
26.7165611042
 20
35.792247368
  0
LINE
  5
3E8
100
AcDbEntity
  8
SUPERFICI
100
AcDbLine
 62
250
  6
CONTINUOUS
 10
3.3301205716
 20
39.1093371302
 11
42.6413784319
 21
39.1180672543
  0
LINE
  5
3E9
100
AcDbEntity
  8
SUPERFICI
100
AcDbLine
 62
250
  6
CONTINUOUS
 10
3.3301205716
 20
39.1093371302
 11
-26.8989787779
 21
39.1112082178
  0
LINE
  5
3EA
100
AcDbEntity
  8
SUPERFICI
100
AcDbLine
 62
250
  6
CONTINUOUS
 10
-26.8989787779
 20
39.1112082178
 11
-42.6413787084
 21
39.1180673183
  0
LWPOLYLINE
  5
3EB
100
AcDbEntity
  8
SUPERFICI
100
AcDbPolyline
 62
250
  6
CONTINUOUS
 90
10
 70
0
 10
-56.8322130514
 20
39.0125841905
 10
-56.8450371292
 20
39.0126036876
 10
-56.8578955221
 20
39.0125225645
 10
-56.8708282287
 20
39.0122394714
 10
-56.8839176947
 20
39.0115544923
 10
-56.8971663147
 20
39.0104539404
 10
-56.9104924398
 20
39.0091180531
 10
-56.9238930359
 20
39.0075436004
 10
-56.9374413526
 20
39.0055459381
 10
-56.951090249
 20
39.0031618578
  0
LINE
  5
3EC
100
AcDbEntity
  8
SUPERFICI
100
AcDbLine
 62
250
  6
CONTINUOUS
 10
26.716581954
 20
35.7922675049
 11
29.7452208329
 21
35.7674551007
  0
LINE
  5
3ED
100
AcDbEntity
  8
SUPERFICI
100
AcDbLine
 62
250
  6
CONTINUOUS
 10
29.7452208329
 20
35.7674551007
 11
32.6264947369
 21
35.7339082416
  0
LINE
  5
3EE
100
AcDbEntity
  8
SUPERFICI
100
AcDbLine
 62
250
  6
CONTINUOUS
 10
32.6264947369
 20
35.7339082416
 11
35.3632671531
 21
35.6933322093
  0
LWPOLYLINE
  5
3EF
100
AcDbEntity
  8
SUPERFICI
100
AcDbPolyline
 62
250
  6
CONTINUOUS
 90
9
 70
0
 10
35.3632671531
 20
35.6933322093
 10
37.9672825974
 20
35.6467398037
 10
39.22120912
 20
35.621591632
 10
40.4444675538
 20
35.5935710459
 10
41.6362452052
 20
35.5620575979
 10
42.7958991717
 20
35.5225398177
 10
43.9220715124
 20
35.4620683681
 10
45.0141933155
 20
35.3782119575
 10
46.0720264801
 20
35.2675307434
  0
LWPOLYLINE
  5
3F0
100
AcDbEntity
  8
0
100
AcDbPolyline
 62
7
  6
CONTINUOUS
 90
5
 70
0
 10
33.683369772
 20
22.457879965
 10
33.7086330985
 20
22.4411029662
 10
33.7311419283
 20
22.421559751
 10
33.7507111665
 20
22.3990585686
 10
33.7675259079
 20
22.3737911698
  0
LWPOLYLINE
  5
3F1
100
AcDbEntity
  8
0
100
AcDbPolyline
 62
250
  6
CONTINUOUS
 90
4
 70
0
 10
33.7502848068
 20
22.5182083114
 10
33.7793858178
 20
22.4954937774
 10
33.8053857829
 20
22.4694756749
 10
33.8280732972
 20
22.4403686462
  0
LINE
  5
3F2
100
AcDbEntity
  8
SUPERFICI
100
AcDbLine
 62
250
  6
CONTINUOUS
 10
37.1276358045
 20
-22.7948477091
 11
37.1239335488
 21
-22.8202319576
  0
LINE
  5
3F3
100
AcDbEntity
  8
SUPERFICI
100
AcDbLine
 62
250
  6
CONTINUOUS
 10
37.1239335488
 20
-22.8202319576
 11
37.1201217731
 21
-22.8454878902
  0
LINE
  5
3F4
100
AcDbEntity
  8
SUPERFICI
100
AcDbLine
 62
250
  6
CONTINUOUS
 10
37.1201217731
 20
-22.8454878902
 11
37.1161846383
 21
-22.8706388338
  0
LWPOLYLINE
  5
3F5
100
AcDbEntity
  8
SUPERFICI
100
AcDbPolyline
 62
250
  6
CONTINUOUS
 90
3
 70
0
 10
37.1161846383
 20
-22.8706388338
 10
37.1120842374
 20
-22.8956473791
 10
37.1099726289
 20
-22.9081167866
  0
LWPOLYLINE
  5
3F6
100
AcDbEntity
  8
SUPERFICI
100
AcDbPolyline
 62
250
  6
CONTINUOUS
 90
10
 70
0
 10
37.1099905668
 20
-22.9081212034
 10
37.0891708897
 20
-23.0194228056
 10
37.064670792
 20
-23.1301486732
 10
37.0365090087
 20
-23.2401744793
 10
37.0046727449
 20
-23.349456193
 10
36.9692080912
 20
-23.4577838439
 10
36.9302465452
 20
-23.5647925216
 10
36.8878714775
 20
-23.6702871924
 10
36.8420916114
 20
-23.7742316969
 10
36.7929500132
 20
-23.8765102115
  0
LWPOLYLINE
  5
3F7
100
AcDbEntity
  8
SUPERFICI
100
AcDbPolyline
 62
250
  6
CONTINUOUS
 90
16
 70
0
 10
35.4801108843
 20
-22.6197666872
 10
35.4402384781
 20
-22.7938933655
 10
35.384359401
 20
-22.9635631142
 10
35.3128441174
 20
-23.1274670902
 10
35.2262325199
 20
-23.284419301
 10
35.1253492565
 20
-23.4329550362
 10
35.0112812771
 20
-23.5714048463
 10
34.8850465263
 20
-23.6984039753
 10
34.7476115318
 20
-23.8130037352
 10
34.6001803846
 20
-23.9143199264
 10
34.4440318016
 20
-24.0015367757
 10
34.2805847764
 20
-24.0739201223
 10
34.1112544508
 20
-24.1308349884
 10
33.9373804051
 20
-24.1718308491
 10
33.7601525781
 20
-24.1965513229
 10
33.5804712161
 20
-24.2048018138
  0
LWPOLYLINE
  5
3F8
100
AcDbEntity
  8
SUPERFICI
100
AcDbPolyline
 62
250
  6
CONTINUOUS
 90
15
 70
0
 10
36.7929500132
 20
-23.8765102115
 10
36.6664837162
 20
-24.1078887709
 10
36.5224360017
 20
-24.3285604666
 10
36.3618268955
 20
-24.5372893678
 10
36.1857942254
 20
-24.7328254877
 10
35.9953619605
 20
-24.9140283909
 10
35.7914102702
 20
-25.0798261879
 10
35.574957963
 20
-25.2291964475
 10
35.3476103479
 20
-25.361269297
 10
35.1111655928
 20
-25.4753307267
 10
34.8670490239
 20
-25.5707238913
 10
34.6166413982
 20
-25.6466885018
 10
34.3617455719
 20
-25.7028278633
 10
34.1039994076
 20
-25.7390422676
 10
33.8448089503
 20
-25.7552527443
  0
LWPOLYLINE
  5
3F9
100
AcDbEntity
  8
0
100
AcDbPolyline
 62
7
  6
CONTINUOUS
 90
5
 70
0
 10
33.767500687
 20
-22.3738309987
 10
33.7506686179
 20
-22.3991093161
 10
33.7310865956
 20
-22.4216148322
 10
33.7085673267
 20
-22.4411515655
 10
33.6832981046
 20
-22.4579154975
  0
LWPOLYLINE
  5
3FA
100
AcDbEntity
  8
0
100
AcDbPolyline
 62
250
  6
CONTINUOUS
 90
4
 70
0
 10
33.827970366
 20
-22.4405188216
 10
33.8052459878
 20
-22.4696337683
 10
33.7792211179
 20
-22.4956393958
 10
33.7501130837
 20
-22.5183260009
  0
LWPOLYLINE
  5
3FB
100
AcDbEntity
  8
SUPERFICI
100
AcDbPolyline
 62
250
  6
CONTINUOUS
 90
13
 70
0
 10
-46.0719956193
 20
35.2675098384
 10
-46.6400907773
 20
35.1860144075
 10
-47.1870972613
 20
35.0890289913
 10
-47.7109370623
 20
34.9762973554
 10
-48.2110301648
 20
34.8480492936
 10
-48.6865245707
 20
34.7042444064
 10
-49.1362491089
 20
34.5429249846
 10
-49.5577630528
 20
34.3628678166
 10
-49.9493145589
 20
34.1638219857
 10
-50.3114726216
 20
33.9448996113
 10
-50.6432825842
 20
33.7053256793
 10
-50.9418412665
 20
33.4499380744
 10
-51.208046406
 20
33.1833284045
  0
LWPOLYLINE
  5
3FC
100
AcDbEntity
  8
SUPERFICI
100
AcDbPolyline
 62
250
  6
CONTINUOUS
 90
5
 70
0
 10
-52.1454280236
 20
39.1063396813
 10
-53.044636731
 20
39.0853233096
 10
-53.4752328647
 20
39.0771656482
 10
-53.892601809
 20
39.0718516085
 10
-54.6909625494
 20
39.0644162625
  0
LINE
  5
3FD
100
AcDbEntity
  8
SUPERFICI
100
AcDbLine
 62
250
  6
CONTINUOUS
 10
-56.1578616392
 20
39.0272165376
 11
-56.8322147071
 21
39.0126715568
  0
LWPOLYLINE
  5
3FE
100
AcDbEntity
  8
SUPERFICI
100
AcDbPolyline
 62
250
  6
CONTINUOUS
 90
3
 70
0
 10
-54.6909625494
 20
39.0644162625
 10
-55.0735331952
 20
39.0570105335
 10
-56.1578616392
 20
39.0272165376
  0
LINE
  5
3FF
100
AcDbEntity
  8
SUPERFICI
100
AcDbLine
 62
250
  6
CONTINUOUS
 10
-47.4404202987
 20
39.1159618185
 11
-52.1454383138
 21
39.106351493
  0
LINE
  5
400
100
AcDbEntity
  8
SUPERFICI
100
AcDbLine
 62
250
  6
CONTINUOUS
 10
-42.6413787084
 20
39.1180673183
 11
-47.4404202987
 21
39.1159618185
  0
LINE
  5
401
100
AcDbEntity
  8
0
100
AcDbLine
 62
7
  6
CONTINUOUS
 10
57.0560258498
 20
40.0000171785
 11
-57.0560254381
 21
40.0000171765
  0
LINE
  5
402
100
AcDbEntity
  8
SUPERFICI
100
AcDbLine
 62
250
  6
CONTINUOUS
 10
57.0560518586
 20
39.765244765
 11
56.906260222
 21
39.7651700415
  0
LINE
  5
403
100
AcDbEntity
  8
SUPERFICI
100
AcDbLine
 62
250
  6
CONTINUOUS
 10
42.6413784319
 20
39.1180672543
 11
47.4404200222
 21
39.1159617473
  0
LINE
  5
404
100
AcDbEntity
  8
SUPERFICI
100
AcDbLine
 62
250
  6
CONTINUOUS
 10
-57.0560520935
 20
39.7652449002
 11
56.906260222
 21
39.7651700415
  0
LINE
  5
405
100
AcDbEntity
  8
SUPERFICI
100
AcDbLine
 62
250
  6
CONTINUOUS
 10
47.4404200222
 20
39.1159617473
 11
52.1454380371
 21
39.1063514147
  0
LWPOLYLINE
  5
406
100
AcDbEntity
  8
SUPERFICI
100
AcDbPolyline
 62
250
  6
CONTINUOUS
 90
3
 70
0
 10
53.8926015317
 20
39.0718515275
 10
54.6909622721
 20
39.0644161803
 10
55.0735329177
 20
39.0570104508
  0
LINE
  5
407
100
AcDbEntity
  8
SUPERFICI
100
AcDbLine
 62
250
  6
CONTINUOUS
 10
53.4752325875
 20
39.0771655679
 11
53.8926015317
 21
39.0718515275
  0
LWPOLYLINE
  5
408
100
AcDbEntity
  8
SUPERFICI
100
AcDbPolyline
 62
250
  6
CONTINUOUS
 90
3
 70
0
 10
52.1454277469
 20
39.106339603
 10
52.6013987297
 20
39.0950647221
 10
53.4752325875
 20
39.0771655679
  0
LWPOLYLINE
  5
409
100
AcDbEntity
  8
SUPERFICI
100
AcDbPolyline
 62
250
  6
CONTINUOUS
 90
3
 70
0
 10
55.0735329177
 20
39.0570104508
 10
56.1578613614
 20
39.0272164533
 10
56.8322144291
 20
39.0126714715
  0
LWPOLYLINE
  5
40A
100
AcDbEntity
  8
SUPERFICI
100
AcDbPolyline
 62
250
  6
CONTINUOUS
 90
13
 70
0
 10
46.0719952884
 20
35.2675097693
 10
46.6400904464
 20
35.1860143375
 10
47.1870969302
 20
35.0890289204
 10
47.710936731
 20
34.9762972838
 10
48.2110298334
 20
34.8480492212
 10
48.686524239
 20
34.7042443333
 10
49.1362487771
 20
34.5429249108
 10
49.5577627207
 20
34.3628677421
 10
49.9493142266
 20
34.1638219106
 10
50.3114722889
 20
33.9448995356
 10
50.6432822512
 20
33.7053256031
 10
50.941840933
 20
33.4499379978
 10
51.208046072
 20
33.1833283276
  0
LWPOLYLINE
  5
40B
100
AcDbEntity
  8
0
100
AcDbPolyline
 62
250
  6
CONTINUOUS
 90
4
 70
0
 10
33.8280732972
 20
22.4403686462
 10
33.847108796
 20
22.4085097916
 10
33.8621056536
 20
22.3744274768
 10
33.8727913488
 20
22.3386284447
  0
LWPOLYLINE
  5
40C
100
AcDbEntity
  8
SUPERFICI
100
AcDbPolyline
 62
250
  6
CONTINUOUS
 90
16
 70
0
 10
36.7929500128
 20
23.8765102183
 10
36.6664837157
 20
24.1078887776
 10
36.5224360012
 20
24.3285604733
 10
36.3618268951
 20
24.5372893745
 10
36.185794225
 20
24.7328254945
 10
35.9953619601
 20
24.9140283976
 10
35.7914102698
 20
25.0798261946
 10
35.5749579626
 20
25.2291964542
 10
35.3476103475
 20
25.3612693037
 10
35.1111655924
 20
25.4753307334
 10
34.8670490235
 20
25.570723898
 10
34.6166413978
 20
25.6466885085
 10
34.3617455715
 20
25.70282787
 10
34.1039994072
 20
25.7390422743
 10
33.8448089499
 20
25.755252751
 10
33.5063196051
 20
25.7500567508
  0
LWPOLYLINE
  5
40D
100
AcDbEntity
  8
0
100
AcDbPolyline
 62
7
  6
CONTINUOUS
 90
5
 70
0
 10
33.7675259079
 20
22.3737911698
 10
33.7807354475
 20
22.347171842
 10
33.7900562169
 20
22.3196720141
 10
33.7957717844
 20
22.2908202571
 10
33.79788215
 20
22.260616571
  0
LWPOLYLINE
  5
40E
100
AcDbEntity
  8
SUPERFICI
100
AcDbPolyline
 62
250
  6
CONTINUOUS
 90
16
 70
0
 10
35.4801108839
 20
22.6197666944
 10
35.4402384777
 20
22.7938933727
 10
35.3843594006
 20
22.9635631214
 10
35.312844117
 20
23.1274670973
 10
35.2262325195
 20
23.2844193082
 10
35.125349256
 20
23.4329550434
 10
35.0112812767
 20
23.5714048534
 10
34.8850465259
 20
23.6984039824
 10
34.7476115314
 20
23.8130037423
 10
34.6001803842
 20
23.9143199335
 10
34.4440318012
 20
24.0015367828
 10
34.280584776
 20
24.0739201294
 10
34.1112544504
 20
24.1308349955
 10
33.9373804046
 20
24.1718308563
 10
33.7601525777
 20
24.19655133
 10
33.5804712156
 20
24.2048018209
  0
LWPOLYLINE
  5
40F
100
AcDbEntity
  8
SUPERFICI
100
AcDbPolyline
 62
250
  6
CONTINUOUS
 90
10
 70
0
 10
37.1099905664
 20
22.9081212101
 10
37.0891708892
 20
23.0194228124
 10
37.0646707916
 20
23.13014868
 10
37.0365090083
 20
23.240174486
 10
37.0046727445
 20
23.3494561997
 10
36.9692080908
 20
23.4577838506
 10
36.9302465448
 20
23.5647925283
 10
36.8878714771
 20
23.6702871991
 10
36.842091611
 20
23.7742317036
 10
36.7929500128
 20
23.8765102183
  0
LINE
  5
410
100
AcDbEntity
  8
SUPERFICI
100
AcDbLine
 62
250
  6
CONTINUOUS
 10
37.1141546254
 20
22.8831565169
 11
37.1099726285
 21
22.9081167933
  0
LINE
  5
411
100
AcDbEntity
  8
SUPERFICI
100
AcDbLine
 62
250
  6
CONTINUOUS
 10
37.1181725652
 20
22.8580822073
 11
37.1141546254
 21
22.8831565169
  0
LINE
  5
412
100
AcDbEntity
  8
SUPERFICI
100
AcDbLine
 62
250
  6
CONTINUOUS
 10
37.1220408908
 20
22.832870705
 11
37.1181725652
 21
22.8580822073
  0
LWPOLYLINE
  5
413
100
AcDbEntity
  8
SUPERFICI
100
AcDbPolyline
 62
250
  6
CONTINUOUS
 90
3
 70
0
 10
37.1276358041
 20
22.7948477159
 10
37.1257981834
 20
22.8075594587
 10
37.1220408908
 20
22.832870705
  0
LWPOLYLINE
  5
414
100
AcDbEntity
  8
SUPERFICI
100
AcDbPolyline
 62
250
  6
CONTINUOUS
 90
19
 70
0
 10
-56.951090249
 20
39.0031618578
 10
-57.0128924934
 20
38.993977828
 10
-57.0735299108
 20
38.9860771402
 10
-57.1340379931
 20
38.9790315994
 10
-57.1988787536
 20
38.9686294512
 10
-57.2662106084
 20
38.9552379377
 10
-57.3342983365
 20
38.9397656232
 10
-57.4032592996
 20
38.9222424253
 10
-57.4740413985
 20
38.9019171884
 10
-57.5464982538
 20
38.8786806087
 10
-57.6201350791
 20
38.8524896837
 10
-57.6948305539
 20
38.8229748191
 10
-57.7707529932
 20
38.7895784212
 10
-57.8476134777
 20
38.7519287799
 10
-57.925136607
 20
38.7098221952
 10
-58.0033134766
 20
38.6628740627
 10
-58.0818721633
 20
38.6107610478
 10
-58.1602364029
 20
38.5532744782
 10
-58.2379645948
 20
38.4901761842
  0
LWPOLYLINE
  5
415
100
AcDbEntity
  8
SUPERFICI
100
AcDbPolyline
 62
250
  6
CONTINUOUS
 90
19
 70
0
 10
56.951089971
 20
39.0031617722
 10
57.0128922153
 20
38.9939777424
 10
57.0735296326
 20
38.9860770545
 10
57.1340377149
 20
38.9790315136
 10
57.1988784754
 20
38.9686293653
 10
57.2662103301
 20
38.9552378517
 10
57.3342980582
 20
38.9397655371
 10
57.4032590212
 20
38.9222423391
 10
57.4740411201
 20
38.9019171021
 10
57.5464979754
 20
38.8786805223
 10
57.6201348006
 20
38.8524895972
 10
57.6948302753
 20
38.8229747324
 10
57.7707527146
 20
38.7895783344
 10
57.847613199
 20
38.7519286931
 10
57.9251363282
 20
38.7098221082
 10
58.0033131978
 20
38.6628739756
 10
58.0818718843
 20
38.6107609606
 10
58.1602361238
 20
38.5532743909
 10
58.2379643156
 20
38.4901760968
  0
LWPOLYLINE
  5
416
100
AcDbEntity
  8
0
100
AcDbPolyline
 62
7
  6
CONTINUOUS
 90
7
 70
0
 43
0.3500000006
 10
-0.0000016122
 20
48.7500190887
 10
-1.5000015907
 20
48.7500190887
 10
-0.0000016122
 20
50.8928730011
 10
-0.0000016122
 20
51.3214465027
 10
-0.4285730413
 20
51.7500154724
 10
-1.0714302135
 20
51.7500154724
 10
-1.5000015907
 20
51.1071620178
  0
LINE
  5
417
100
AcDbEntity
  8
SUPERFICI
100
AcDbLine
 62
250
  6
CONTINUOUS
 10
53.2325379748
 20
26.0077730143
 11
53.1333260133
 21
26.9968616217
  0
LINE
  5
418
100
AcDbEntity
  8
SUPERFICI
100
AcDbLine
 62
250
  6
CONTINUOUS
 10
53.3462242214
 20
24.818994883
 11
53.2325379748
 21
26.0077730143
  0
LINE
  5
419
100
AcDbEntity
  8
SUPERFICI
100
AcDbLine
 62
250
  6
CONTINUOUS
 10
53.4539615196
 20
23.637678157
 11
53.3462242214
 21
24.818994883
  0
LINE
  5
41A
100
AcDbEntity
  8
SUPERFICI
100
AcDbLine
 62
250
  6
CONTINUOUS
 10
53.5558079858
 20
22.4635663939
 11
53.4539615196
 21
23.637678157
  0
LINE
  5
41B
100
AcDbEntity
  8
SUPERFICI
100
AcDbLine
 62
250
  6
CONTINUOUS
 10
53.6518016037
 20
21.2966164215
 11
53.5558079858
 21
22.4635663939
  0
LWPOLYLINE
  5
41C
100
AcDbEntity
  8
SUPERFICI
100
AcDbPolyline
 62
250
  6
CONTINUOUS
 90
10
 70
0
 10
53.6518005687
 20
21.2966196643
 10
53.8304053789
 20
18.9325374231
 10
53.9880077528
 20
16.5675333546
 10
54.1246046122
 20
14.2017486322
 10
54.2401952995
 20
11.8352700439
 10
54.3347733909
 20
9.4682926705
 10
54.4083315087
 20
7.1011200782
 10
54.460869996
 20
4.7339472666
 10
54.4923921035
 20
2.3668604765
 10
54.5028991721
 20
0.0000000029
  0
LWPOLYLINE
  5
41D
100
AcDbEntity
  8
SUPERFICI
100
AcDbPolyline
 62
250
  6
CONTINUOUS
 90
3
 70
0
 10
56.8299674523
 20
39.7322818
 10
56.8296578237
 20
39.7541404309
 10
56.8292212202
 20
39.7651494283
  0
LINE
  5
41E
100
AcDbEntity
  8
SUPERFICI
100
AcDbLine
 62
250
  6
CONTINUOUS
 10
56.8318813272
 20
39.3880925667
 11
56.8299674523
 21
39.7322818
  0
LINE
  5
41F
100
AcDbEntity
  8
SUPERFICI
100
AcDbLine
 62
250
  6
CONTINUOUS
 10
56.8322047162
 20
39.012584345
 11
56.8318813272
 21
39.3880925667
  0
LINE
  5
420
100
AcDbEntity
  8
0
100
AcDbLine
 62
250
  6
CONTINUOUS
 10
57.0560518593
 20
-39.7652447604
 11
57.0560614574
 21
-40.0000171785
  0
LINE
  5
421
100
AcDbEntity
  8
0
100
AcDbLine
 62
250
  6
CONTINUOUS
 10
57.0560518586
 20
39.765244765
 11
57.0560614567
 21
40.0000171785
  0
LINE
  5
422
100
AcDbEntity
  8
SUPERFICI
100
AcDbLine
 62
250
  6
CONTINUOUS
 10
56.8311834069
 20
-39.5382153623
 11
56.8322127741
 21
-39.0125840999
  0
LWPOLYLINE
  5
423
100
AcDbEntity
  8
SUPERFICI
100
AcDbPolyline
 62
250
  6
CONTINUOUS
 90
4
 70
0
 10
56.8292138326
 20
-39.7651899856
 10
56.829646299
 20
-39.7538181908
 10
56.8299492968
 20
-39.731493587
 10
56.8311834069
 20
-39.5382153623
  0
LWPOLYLINE
  5
424
100
AcDbEntity
  8
SUPERFICI
100
AcDbPolyline
 62
250
  6
CONTINUOUS
 90
10
 70
0
 10
53.6518005691
 20
-21.2966196585
 10
53.8304053792
 20
-18.9325374172
 10
53.9880077531
 20
-16.5675333487
 10
54.1246046124
 20
-14.2017486263
 10
54.2401952997
 20
-11.835270038
 10
54.334773391
 20
-9.4682926646
 10
54.4083315088
 20
-7.1011200722
 10
54.460869996
 20
-4.7339472606
 10
54.4923921035
 20
-2.3668604706
 10
54.502899172
 20
0.0000000029
  0
LINE
  5
425
100
AcDbEntity
  8
SUPERFICI
100
AcDbLine
 62
250
  6
CONTINUOUS
 10
53.5558066737
 20
-22.4635819195
 11
53.6518015168
 21
-21.2966175058
  0
LINE
  5
426
100
AcDbEntity
  8
SUPERFICI
100
AcDbLine
 62
250
  6
CONTINUOUS
 10
53.4539588755
 20
-23.6377078724
 11
53.5558066737
 21
-22.4635819195
  0
LINE
  5
427
100
AcDbEntity
  8
SUPERFICI
100
AcDbLine
 62
250
  6
CONTINUOUS
 10
53.3462201854
 20
-24.8190380844
 11
53.4539588755
 21
-23.6377078724
  0
LINE
  5
428
100
AcDbEntity
  8
SUPERFICI
100
AcDbLine
 62
250
  6
CONTINUOUS
 10
53.232532674
 20
-26.0078271912
 11
53.3462201854
 21
-24.8190380844
  0
LWPOLYLINE
  5
429
100
AcDbEntity
  8
SUPERFICI
100
AcDbPolyline
 62
250
  6
CONTINUOUS
 90
10
 70
0
 10
52.7072137444
 20
-29.9008601018
 10
52.7769880601
 20
-29.5625575236
 10
52.8396087514
 20
-29.2164814043
 10
52.8969545329
 20
-28.86318239
 10
52.9500297011
 20
-28.5028126897
 10
52.9998108827
 20
-28.1356689038
 10
53.0470259027
 20
-27.7622443754
 10
53.0914424022
 20
-27.3826688801
 10
53.1333260137
 20
-26.9968616159
 10
53.232532674
 20
-26.0078271912
  0
LWPOLYLINE
  5
42A
100
AcDbEntity
  8
SUPERFICI
100
AcDbPolyline
 62
250
  6
CONTINUOUS
 90
10
 70
0
 10
52.7071441669
 20
-29.9011371483
 10
52.6528307894
 20
-30.1344558021
 10
52.5955152165
 20
-30.3624168529
 10
52.5365710027
 20
-30.5853960534
 10
52.4764676776
 20
-30.8034881876
 10
52.4138305825
 20
-31.0162205943
 10
52.3472028781
 20
-31.2231042399
 10
52.2756099458
 20
-31.4237186126
 10
52.1988791789
 20
-31.6177165561
 10
52.116991709
 20
-31.8048124594
  0
LINE
  5
42B
100
AcDbEntity
  8
RACCORDO
100
AcDbLine
 62
7
  6
CONTINUOUS
 10
59.9916368147
 20
3.7060506791
 11
59.9323615735
 21
3.5572140823
  0
LINE
  5
42C
100
AcDbEntity
  8
RACCORDO
100
AcDbLine
 62
7
  6
CONTINUOUS
 10
59.9323615735
 20
-3.557254316
 11
59.9916368147
 21
-3.7060909128
  0
LWPOLYLINE
  5
42D
100
AcDbEntity
  8
SUPERFICI
100
AcDbPolyline
 62
250
  6
CONTINUOUS
 90
10
 70
0
 10
52.7071441663
 20
29.9011371541
 10
52.6528307888
 20
30.134455808
 10
52.595515216
 20
30.3624168587
 10
52.5365710021
 20
30.5853960592
 10
52.4764676771
 20
30.8034881934
 10
52.4138305819
 20
31.0162206001
 10
52.3472028776
 20
31.2231042457
 10
52.2756099453
 20
31.4237186184
 10
52.1988791784
 20
31.6177165619
 10
52.1169917084
 20
31.8048124652
  0
LWPOLYLINE
  5
42E
100
AcDbEntity
  8
SUPERFICI
100
AcDbPolyline
 62
250
  6
CONTINUOUS
 90
9
 70
0
 10
52.7072137439
 20
29.9008601076
 10
52.7769880596
 20
29.5625575294
 10
52.8396087508
 20
29.2164814101
 10
52.8969545324
 20
28.8631823959
 10
52.9500297006
 20
28.5028126955
 10
52.9998108822
 20
28.1356689096
 10
53.0470259022
 20
27.7622443813
 10
53.0914424018
 20
27.3826688859
 10
53.1333260133
 20
26.9968616217
  0
LWPOLYLINE
  5
42F
100
AcDbEntity
  8
SUPERFICI
100
AcDbPolyline
 62
250
  6
CONTINUOUS
 90
8
 70
0
 10
58.9458927008
 20
36.8860246464
 10
58.9497998449
 20
36.6445157472
 10
58.9497610673
 20
36.3992204386
 10
58.948547565
 20
36.1504264327
 10
58.9484189897
 20
35.8983840814
 10
58.9497424236
 20
35.643031129
 10
58.9524470002
 20
35.3841632971
 10
58.9636133594
 20
34.5849365798
  0
LINE
  5
430
100
AcDbEntity
  8
SUPERFICI
100
AcDbLine
 62
250
  6
CONTINUOUS
 10
58.9636133752
 20
34.5849365757
 11
58.9704839415
 21
33.312351403
  0
LINE
  5
431
100
AcDbEntity
  8
SUPERFICI
100
AcDbLine
 62
250
  6
CONTINUOUS
 10
59.0094908053
 20
19.2421535961
 11
59.0201287432
 21
11.0818986899
  0
LINE
  5
432
100
AcDbEntity
  8
SUPERFICI
100
AcDbLine
 62
250
  6
CONTINUOUS
 10
58.9704839415
 20
33.312351403
 11
59.0094908053
 21
19.2421535961
  0
LINE
  5
433
100
AcDbEntity
  8
SUPERFICI
100
AcDbLine
 62
250
  6
CONTINUOUS
 10
59.7795217809
 20
37.0415268409
 11
59.7795217796
 21
-37.0415268364
  0
LINE
  5
434
100
AcDbEntity
  8
RACCORDO
100
AcDbLine
 62
7
  6
CONTINUOUS
 10
59.9095676436
 20
3.0614916516
 11
59.9095676436
 21
-3.0615318854
  0
LINE
  5
435
100
AcDbEntity
  8
RACCORDO
100
AcDbLine
 62
7
  6
CONTINUOUS
 10
60.0144307446
 20
-37.0414724874
 11
60.0144307446
 21
-4.2018133435
  0
LINE
  5
436
100
AcDbEntity
  8
RACCORDO
100
AcDbLine
 62
7
  6
CONTINUOUS
 10
60.0144307446
 20
4.2017731098
 11
60.0144307446
 21
37.0414724713
  0
LINE
  5
437
100
AcDbEntity
  8
SUPERFICI
100
AcDbLine
 62
250
  6
CONTINUOUS
 10
59.0201287432
 20
11.0818986899
 11
59.0232546239
 21
-2.7917308212
  0
LINE
  5
438
100
AcDbEntity
  8
SUPERFICI
100
AcDbLine
 62
250
  6
CONTINUOUS
 10
59.0173050622
 20
-13.8161513352
 11
59.0232546239
 21
-2.7917308212
  0
LINE
  5
439
100
AcDbEntity
  8
SUPERFICI
100
AcDbLine
 62
250
  6
CONTINUOUS
 10
58.9770784905
 20
-31.1829649474
 11
59.0173050622
 21
-13.8161513352
  0
LINE
  5
43A
100
AcDbEntity
  8
SUPERFICI
100
AcDbLine
 62
250
  6
CONTINUOUS
 10
58.9629791306
 20
-34.5849360659
 11
58.9770784905
 21
-31.1829649474
  0
LWPOLYLINE
  5
43B
100
AcDbEntity
  8
SUPERFICI
100
AcDbPolyline
 62
250
  6
CONTINUOUS
 90
10
 70
0
 10
59.779608755
 20
-37.0415268387
 10
59.7788021409
 20
-37.108404591
 10
59.7763569563
 20
-37.1752295777
 10
59.7722756239
 20
-37.2419617513
 10
59.7665619148
 20
-37.3085669499
 10
59.759219543
 20
-37.3749995633
 10
59.7502535831
 20
-37.4412024821
 10
59.7396716736
 20
-37.5071303624
 10
59.727482587
 20
-37.5727497232
 10
59.7136958148
 20
-37.6380215597
  0
LWPOLYLINE
  5
43C
100
AcDbEntity
  8
SUPERFICI
100
AcDbPolyline
 62
250
  6
CONTINUOUS
 90
3
 70
0
 10
58.9497424242
 20
-35.6430311238
 10
58.9594749933
 20
-34.8551480522
 10
58.96361336
 20
-34.5849365746
  0
LWPOLYLINE
  5
43D
100
AcDbEntity
  8
SUPERFICI
100
AcDbPolyline
 62
250
  6
CONTINUOUS
 90
6
 70
0
 10
58.9458927014
 20
-36.8860246412
 10
58.9497998456
 20
-36.644515742
 10
58.949761068
 20
-36.3992204334
 10
58.9485475656
 20
-36.1504264275
 10
58.9484189904
 20
-35.8983840762
 10
58.9497424242
 20
-35.6430311238
  0
LINE
  5
43E
100
AcDbEntity
  8
SUPERFICI
100
AcDbLine
 62
250
  6
CONTINUOUS
 10
58.9357482872
 20
-37.0199945163
 11
58.9458932512
 21
-36.8860249451
  0
LWPOLYLINE
  5
43F
100
AcDbEntity
  8
SUPERFICI
100
AcDbPolyline
 62
250
  6
CONTINUOUS
 90
10
 70
0
 10
52.1169917098
 20
-31.80481246
 10
52.0333812633
 20
-31.9796866163
 10
51.9445760562
 20
-32.1493228102
 10
51.8516155264
 20
-32.3135307092
 10
51.7546497928
 20
-32.4718267345
 10
51.6536143553
 20
-32.6243584891
 10
51.5482584086
 20
-32.7718418589
 10
51.4386381488
 20
-32.9144006413
 10
51.3251624929
 20
-33.0516459454
 10
51.2080469174
 20
-33.183327406
  0
LWPOLYLINE
  5
440
100
AcDbEntity
  8
SUPERFICI
100
AcDbPolyline
 62
250
  6
CONTINUOUS
 90
13
 70
0
 10
51.2080464438
 20
-33.1833279194
 10
50.9370640038
 20
-33.4543656494
 10
50.6346108366
 20
-33.712101532
 10
50.3009755619
 20
-33.9518127621
 10
49.9391744635
 20
-34.1693546048
 10
49.5500515245
 20
-34.3662523027
 10
49.1312144191
 20
-34.5448851035
 10
48.6832966978
 20
-34.7056120171
 10
48.209013757
 20
-34.8488986957
 10
47.7095590751
 20
-34.9766180338
 10
47.1861340825
 20
-35.0892225091
 10
46.6401589475
 20
-35.1861396028
 10
46.0719604766
 20
-35.2675142043
  0
LWPOLYLINE
  5
441
100
AcDbEntity
  8
SUPERFICI
100
AcDbPolyline
 62
250
  6
CONTINUOUS
 90
10
 70
0
 10
51.2080461684
 20
33.1833282228
 10
51.3214261176
 20
33.0560174011
 10
51.4324751486
 20
32.9221430199
 10
51.5405379987
 20
32.7820817605
 10
51.645646672
 20
32.6355400164
 10
51.7477469943
 20
32.482378374
 10
51.8464380806
 20
32.3224804795
 10
51.9408478865
 20
32.1562495338
 10
52.0314093367
 20
31.9836405353
 10
52.1169911438
 20
31.804813693
  0
LWPOLYLINE
  5
442
100
AcDbEntity
  8
SUPERFICI
100
AcDbPolyline
 62
250
  6
CONTINUOUS
 90
8
 70
0
 10
58.8708656474
 20
-37.4564939007
 10
58.8840740401
 20
-37.3974645804
 10
58.8960707395
 20
-37.3373061773
 10
58.9067765748
 20
-37.2760380409
 10
58.9158335708
 20
-37.21367935
 10
58.9233831809
 20
-37.150234444
 10
58.9300086819
 20
-37.0856795898
 10
58.9357482872
 20
-37.0199945163
  0
LWPOLYLINE
  5
443
100
AcDbEntity
  8
SUPERFICI
100
AcDbPolyline
 62
250
  6
CONTINUOUS
 90
16
 70
0
 10
59.7136958148
 20
-37.6380215597
 10
59.6487823458
 20
-37.8763885024
 10
59.5625204471
 20
-38.1079330746
 10
59.4556094593
 20
-38.3307455908
 10
59.3289136274
 20
-38.5429998166
 10
59.1834700472
 20
-38.7429277778
 10
59.0204919637
 20
-38.928840065
 10
58.8412938143
 20
-39.0992293678
 10
58.6473789093
 20
-39.2526597952
 10
58.4404819947
 20
-39.3877788624
 10
58.2214794051
 20
-39.5039239764
 10
57.9929742553
 20
-39.5996089669
 10
57.7597747279
 20
-39.6732742792
 10
57.525015942
 20
-39.7249518956
 10
57.2897820195
 20
-39.7554114763
 10
57.0559764407
 20
-39.7652425131
  0
LWPOLYLINE
  5
444
100
AcDbEntity
  8
SUPERFICI
100
AcDbPolyline
 62
250
  6
CONTINUOUS
 90
10
 70
0
 10
58.2379722491
 20
-38.4901651034
 10
58.3349249091
 20
-38.4003387127
 10
58.4261952953
 20
-38.303417189
 10
58.5113562751
 20
-38.1997046892
 10
58.5897707147
 20
-38.0898852111
 10
58.6611552233
 20
-37.9741921427
 10
58.7253482128
 20
-37.8527759537
 10
58.7820110539
 20
-37.7258364825
 10
58.8306600912
 20
-37.5936433799
 10
58.8708656474
 20
-37.4564939007
  0
LWPOLYLINE
  5
445
100
AcDbEntity
  8
SUPERFICI
100
AcDbPolyline
 62
250
  6
CONTINUOUS
 90
10
 70
0
 10
58.2379722484
 20
38.4901651086
 10
58.3349249084
 20
38.4003387179
 10
58.4261952947
 20
38.3034171942
 10
58.5113562744
 20
38.1997046944
 10
58.5897707141
 20
38.0898852163
 10
58.6611552227
 20
37.9741921479
 10
58.7253482122
 20
37.8527759588
 10
58.7820110532
 20
37.7258364877
 10
58.8306600906
 20
37.5936433851
 10
58.8708656467
 20
37.456493906
  0
LWPOLYLINE
  5
446
100
AcDbEntity
  8
SUPERFICI
100
AcDbPolyline
 62
250
  6
CONTINUOUS
 90
16
 70
0
 10
59.7136958141
 20
37.6380215643
 10
59.6487823451
 20
37.8763885069
 10
59.5625204465
 20
38.1079330791
 10
59.4556094587
 20
38.3307455952
 10
59.3289136269
 20
38.542999821
 10
59.1834700467
 20
38.7429277822
 10
59.0204919632
 20
38.9288400694
 10
58.8412938139
 20
39.0992293721
 10
58.647378909
 20
39.2526597995
 10
58.4404819944
 20
39.3877788667
 10
58.2214794048
 20
39.5039239807
 10
57.992974255
 20
39.5996089713
 10
57.7597747275
 20
39.6732742837
 10
57.5250159416
 20
39.7249519001
 10
57.289782019
 20
39.7554114808
 10
57.05597644
 20
39.7652425176
  0
LWPOLYLINE
  5
447
100
AcDbEntity
  8
SUPERFICI
100
AcDbPolyline
 62
250
  6
CONTINUOUS
 90
10
 70
0
 10
58.8708702216
 20
37.4564952052
 10
58.8843807253
 20
37.3965258203
 10
58.8963607425
 20
37.3362614897
 10
58.906866282
 20
37.2753273377
 10
58.9158340947
 20
37.2130497268
 10
58.9234175126
 20
37.1493658341
 10
58.9300541199
 20
37.0848673813
 10
58.9359822112
 20
37.0196104081
 10
58.9412074775
 20
36.9532076595
 10
58.9459486409
 20
36.8860258204
  0
LWPOLYLINE
  5
448
100
AcDbEntity
  8
SUPERFICI
100
AcDbPolyline
 62
250
  6
CONTINUOUS
 90
10
 70
0
 10
59.7136958141
 20
37.6380215643
 10
59.7274844012
 20
37.5727405812
 10
59.7396744243
 20
37.5071144699
 10
59.7502565716
 20
37.441182281
 10
59.7592222219
 20
37.3749777772
 10
59.7665639623
 20
37.3085460868
 10
59.7722769567
 20
37.2419435998
 10
59.776357634
 20
37.1752156861
 10
59.7788023304
 20
37.1083967535
 10
59.7796087544
 20
37.0415268433
  0
LWPOLYLINE
  5
449
100
AcDbEntity
  8
SUPERFICI
100
AcDbPolyline
 62
250
  6
CONTINUOUS
 90
13
 70
0
 10
-76.3024074055
 20
-37.6380218707
 10
-76.417950904
 20
-37.6360917379
 10
-76.5303776545
 20
-37.6312834196
 10
-76.6385774052
 20
-37.6236946399
 10
-76.741462379
 20
-37.613413989
 10
-76.8381142409
 20
-37.600506191
 10
-76.9272446693
 20
-37.5851227948
 10
-77.0071921902
 20
-37.5675279734
 10
-77.0766393786
 20
-37.5480756015
 10
-77.134828101
 20
-37.5270436866
 10
-77.1813961823
 20
-37.5046245513
 10
-77.2158537699
 20
-37.4810344319
 10
-77.237677513
 20
-37.4564952
  0
LINE
  5
44A
100
AcDbEntity
  8
0
100
AcDbLine
 62
7
  6
CONTINUOUS
 10
-76.3075026215
 20
-39.7652447604
 11
-71.8271069574
 21
-40.0000171785
  0
LINE
  5
44B
100
AcDbEntity
  8
SUPERFICI
100
AcDbLine
 62
7
  6
CONTINUOUS
 10
-76.3111088437
 20
-39.7650088604
 11
-76.3089554725
 21
-39.7651320896
  0
LINE
  5
44C
100
AcDbEntity
  8
SUPERFICI
100
AcDbLine
 62
7
  6
CONTINUOUS
 10
-76.316795049
 20
-39.7646612143
 11
-76.3139752902
 21
-39.7648376464
  0
LINE
  5
44D
100
AcDbEntity
  8
SUPERFICI
100
AcDbLine
 62
7
  6
CONTINUOUS
 10
-76.309121001
 20
-39.7651214992
 11
-76.331819782
 21
-39.7635869052
  0
LWPOLYLINE
  5
44E
100
AcDbEntity
  8
SUPERFICI
100
AcDbPolyline
 62
7
  6
CONTINUOUS
 90
3
 70
0
 10
-76.3313890793
 20
-39.7636208535
 10
-76.3304345769
 20
-39.7636954251
 10
-76.324712006
 20
-39.7641233323
  0
LWPOLYLINE
  5
44F
100
AcDbEntity
  8
SUPERFICI
100
AcDbPolyline
 62
7
  6
CONTINUOUS
 90
3
 70
0
 10
-76.331819782
 20
-39.7635869052
 10
-76.3698257867
 20
-39.7598522781
 10
-76.4143932181
 20
-39.7535887957
  0
LINE
  5
450
100
AcDbEntity
  8
SUPERFICI
100
AcDbLine
 62
250
  6
CONTINUOUS
 10
-76.3081282619
 20
-39.7651899856
 11
-76.4132080973
 21
-39.7538181908
  0
LINE
  5
451
100
AcDbEntity
  8
SUPERFICI
100
AcDbLine
 62
7
  6
CONTINUOUS
 10
-76.4143932181
 20
-39.7535887957
 11
-76.4652629999
 21
-39.7438963532
  0
LINE
  5
452
100
AcDbEntity
  8
SUPERFICI
100
AcDbLine
 62
250
  6
CONTINUOUS
 10
-76.4132080973
 20
-39.7538181908
 11
-76.5160305049
 21
-39.731493587
  0
LWPOLYLINE
  5
453
100
AcDbEntity
  8
SUPERFICI
100
AcDbPolyline
 62
250
  6
CONTINUOUS
 90
3
 70
0
 10
-76.5160305049
 20
-39.731493587
 10
-76.6158638796
 20
-39.6984130482
 10
-76.6646812182
 20
-39.6797302447
  0
LWPOLYLINE
  5
454
100
AcDbEntity
  8
0
100
AcDbPolyline
 62
7
  6
CONTINUOUS
 90
10
 70
0
 43
0.3500000006
 10
-77.101972229
 20
48.7500190887
 10
-76.2448252258
 20
49.6071615601
 10
-76.030540741
 20
50.4643040314
 10
-76.030540741
 20
51.3214465027
 10
-76.4591097107
 20
51.7500154724
 10
-77.101972229
 20
51.7500154724
 10
-77.5305411987
 20
51.3214465027
 10
-77.5305411987
 20
50.4643040314
 10
-77.101972229
 20
50.0357305298
 10
-76.173394043
 20
50.0357305298
  0
LWPOLYLINE
  5
455
100
AcDbEntity
  8
SUPERFICI
100
AcDbPolyline
 62
7
  6
CONTINUOUS
 90
7
 70
0
 10
-76.7188801674
 20
39.6534671294
 10
-76.7268790998
 20
39.649237327
 10
-76.7337520834
 20
39.6455273007
 10
-76.7393663001
 20
39.6424443394
 10
-76.7443138865
 20
39.6396880209
 10
-76.7487001234
 20
39.6372132933
 10
-76.7557841738
 20
39.6331540872
  0
LINE
  5
456
100
AcDbEntity
  8
SUPERFICI
100
AcDbLine
 62
7
  6
CONTINUOUS
 10
-76.6531239537
 20
39.6847864694
 11
-76.7735745053
 21
39.6226144249
  0
LWPOLYLINE
  5
457
100
AcDbEntity
  8
SUPERFICI
100
AcDbPolyline
 62
250
  6
CONTINUOUS
 90
4
 70
0
 10
-77.2194803849
 20
39.0125841051
 10
-77.2194339095
 20
39.0126036023
 10
-77.2194192337
 20
39.0125224791
 10
-77.2194568866
 20
39.0122393859
  0
LINE
  5
458
100
AcDbEntity
  8
0
100
AcDbLine
 62
250
  6
CONTINUOUS
 10
-76.3074048455
 20
-37.0415268364
 11
-71.8271069574
 21
-37.0415189749
  0
LWPOLYLINE
  5
459
100
AcDbEntity
  8
SUPERFICI
100
AcDbPolyline
 62
250
  6
CONTINUOUS
 90
10
 70
0
 10
-76.6764969502
 20
-39.6743507112
 10
-76.7119471783
 20
-39.654810817
 10
-76.8031391195
 20
-39.6011938305
 10
-76.888153761
 20
-39.5382153623
 10
-76.9659156245
 20
-39.4665457971
 10
-77.0355938588
 20
-39.3871382077
 10
-77.0963347243
 20
-39.3011414932
 10
-77.1474558387
 20
-39.2095845416
 10
-77.1886073923
 20
-39.1131721447
 10
-77.2194804118
 20
-39.0125840999
  0
LWPOLYLINE
  5
45A
100
AcDbEntity
  8
SUPERFICI
100
AcDbPolyline
 62
7
  6
CONTINUOUS
 90
17
 70
0
 10
-76.7135301236
 20
-39.6562439845
 10
-76.7054264922
 20
-39.6603713054
 10
-76.696504807
 20
-39.6648070229
 10
-76.6869194599
 20
-39.6694481942
 10
-76.6764969502
 20
-39.6743507112
 10
-76.6646812182
 20
-39.6797302447
 10
-76.6517215323
 20
-39.6854167318
 10
-76.6373285863
 20
-39.691475115
 10
-76.6201019209
 20
-39.6983785018
 10
-76.6001182577
 20
-39.7059234307
 10
-76.5771874039
 20
-39.7139842606
 10
-76.5494301347
 20
-39.7229118886
 10
-76.514637811
 20
-39.7328560386
 10
-76.4747427903
 20
-39.742604673
 10
-76.4341822567
 20
-39.7507578132
 10
-76.3945288361
 20
-39.7570581722
 10
-76.3543265153
 20
-39.7617932838
  0
LINE
  5
45B
100
AcDbEntity
  8
SUPERFICI
100
AcDbLine
 62
7
  6
CONTINUOUS
 10
-76.7759390987
 20
-39.6213939045
 11
-76.6531244764
 21
-39.6847862516
  0
LWPOLYLINE
  5
45C
100
AcDbEntity
  8
SUPERFICI
100
AcDbPolyline
 62
7
  6
CONTINUOUS
 90
6
 70
0
 10
-76.7472733124
 20
-39.6380215405
 10
-76.7431254276
 20
-39.640353514
 10
-76.7384323047
 20
-39.6429605271
 10
-76.7331967224
 20
-39.6458297089
 10
-76.7274072768
 20
-39.6489547181
 10
-76.7208702397
 20
-39.6524235819
  0
LINE
  5
45D
100
AcDbEntity
  8
SUPERFICI
100
AcDbLine
 62
7
  6
CONTINUOUS
 10
-76.8610251479
 20
39.5634441121
 11
-76.8619276542
 21
39.5627612875
  0
LINE
  5
45E
100
AcDbEntity
  8
SUPERFICI
100
AcDbLine
 62
7
  6
CONTINUOUS
 10
-76.8543196076
 20
39.5684660332
 11
-76.858408878
 21
39.5654142321
  0
LINE
  5
45F
100
AcDbEntity
  8
SUPERFICI
100
AcDbLine
 62
7
  6
CONTINUOUS
 10
-76.8505102979
 20
39.5712790334
 11
-76.8543196076
 21
39.5684660332
  0
LINE
  5
460
100
AcDbEntity
  8
SUPERFICI
100
AcDbLine
 62
7
  6
CONTINUOUS
 10
-76.8469195238
 20
39.5739046385
 11
-76.8505102979
 21
39.5712790334
  0
LINE
  5
461
100
AcDbEntity
  8
SUPERFICI
100
AcDbLine
 62
7
  6
CONTINUOUS
 10
-76.8428687431
 20
39.5768367357
 11
-76.8469195238
 21
39.5739046385
  0
LINE
  5
462
100
AcDbEntity
  8
SUPERFICI
100
AcDbLine
 62
7
  6
CONTINUOUS
 10
-76.7759388974
 20
39.6213940146
 11
-76.9007954481
 21
39.531601109
  0
LINE
  5
463
100
AcDbEntity
  8
SUPERFICI
100
AcDbLine
 62
7
  6
CONTINUOUS
 10
-76.8355066184
 20
39.5820861498
 11
-76.8390723674
 21
39.5795563537
  0
LINE
  5
464
100
AcDbEntity
  8
SUPERFICI
100
AcDbLine
 62
7
  6
CONTINUOUS
 10
-76.8321517282
 20
39.5844448782
 11
-76.8355066184
 21
39.5820861498
  0
LINE
  5
465
100
AcDbEntity
  8
SUPERFICI
100
AcDbLine
 62
7
  6
CONTINUOUS
 10
-76.8279782089
 20
39.5873505166
 11
-76.8316119242
 21
39.5848224734
  0
LINE
  5
466
100
AcDbEntity
  8
SUPERFICI
100
AcDbLine
 62
7
  6
CONTINUOUS
 10
-76.8245832707
 20
39.5896910036
 11
-76.8279782089
 21
39.5873505166
  0
LINE
  5
467
100
AcDbEntity
  8
SUPERFICI
100
AcDbLine
 62
7
  6
CONTINUOUS
 10
-76.8205293636
 20
39.5924590549
 11
-76.8241164028
 21
39.5900112609
  0
LINE
  5
468
100
AcDbEntity
  8
SUPERFICI
100
AcDbLine
 62
7
  6
CONTINUOUS
 10
-76.8167816284
 20
39.5949925547
 11
-76.8200986116
 21
39.5927514849
  0
LINE
  5
469
100
AcDbEntity
  8
SUPERFICI
100
AcDbLine
 62
7
  6
CONTINUOUS
 10
-76.8129340055
 20
39.597568514
 11
-76.8163825044
 21
39.5952609391
  0
LINE
  5
46A
100
AcDbEntity
  8
SUPERFICI
100
AcDbLine
 62
7
  6
CONTINUOUS
 10
-76.8093866837
 20
39.5999212986
 11
-76.812566207
 21
39.5978134386
  0
LINE
  5
46B
100
AcDbEntity
  8
SUPERFICI
100
AcDbLine
 62
7
  6
CONTINUOUS
 10
-76.8055078219
 20
39.6024701328
 11
-76.8087110857
 21
39.6003670182
  0
LINE
  5
46C
100
AcDbEntity
  8
SUPERFICI
100
AcDbLine
 62
7
  6
CONTINUOUS
 10
-76.8014184012
 20
39.605130986
 11
-76.804621073
 21
39.6030493799
  0
LINE
  5
46D
100
AcDbEntity
  8
SUPERFICI
100
AcDbLine
 62
7
  6
CONTINUOUS
 10
-76.7973966854
 20
39.6077223494
 11
-76.8004663155
 21
39.6057466914
  0
LINE
  5
46E
100
AcDbEntity
  8
SUPERFICI
100
AcDbLine
 62
7
  6
CONTINUOUS
 10
-76.790361053
 20
39.6122067498
 11
-76.7962294597
 21
39.6084699113
  0
LINE
  5
46F
100
AcDbEntity
  8
SUPERFICI
100
AcDbLine
 62
7
  6
CONTINUOUS
 10
-76.7839797541
 20
39.616216976
 11
-76.7876827392
 21
39.613897918
  0
LINE
  5
470
100
AcDbEntity
  8
SUPERFICI
100
AcDbLine
 62
7
  6
CONTINUOUS
 10
-76.7800737064
 20
39.6186391291
 11
-76.7839797541
 21
39.616216976
  0
LINE
  5
471
100
AcDbEntity
  8
SUPERFICI
100
AcDbLine
 62
7
  6
CONTINUOUS
 10
-76.7757919578
 20
39.6212659603
 11
-76.7800737064
 21
39.6186391291
  0
LWPOLYLINE
  5
472
100
AcDbEntity
  8
SUPERFICI
100
AcDbPolyline
 62
7
  6
CONTINUOUS
 90
3
 70
0
 10
-76.7661091884
 20
39.6270981194
 10
-76.7680865982
 20
39.6259191884
 10
-76.7730903964
 20
39.6229082053
  0
LINE
  5
473
100
AcDbEntity
  8
SUPERFICI
100
AcDbLine
 62
7
  6
CONTINUOUS
 10
-76.7614740407
 20
39.6298374319
 11
-76.7638987054
 21
39.628408701
  0
LWPOLYLINE
  5
474
100
AcDbEntity
  8
SUPERFICI
100
AcDbPolyline
 62
250
  6
CONTINUOUS
 90
5
 70
0
 10
-76.7614740407
 20
39.6298374319
 10
-76.7094860905
 20
39.6566481643
 10
-76.6140860834
 20
39.6997548201
 10
-76.5152033724
 20
39.7322818
 10
-76.4133765459
 20
39.7541404309
  0
LINE
  5
475
100
AcDbEntity
  8
SUPERFICI
100
AcDbLine
 62
7
  6
CONTINUOUS
 10
-76.7557841738
 20
39.6331540872
 11
-76.7588143816
 21
39.6313940438
  0
LWPOLYLINE
  5
476
100
AcDbEntity
  8
SUPERFICI
100
AcDbPolyline
 62
7
  6
CONTINUOUS
 90
3
 70
0
 10
-76.7575025858
 20
-39.6321577418
 10
-76.7544596354
 20
-39.6339189557
 10
-76.7472733124
 20
-39.6380215405
  0
LINE
  5
477
100
AcDbEntity
  8
SUPERFICI
100
AcDbLine
 62
7
  6
CONTINUOUS
 10
-76.7628315452
 20
-39.6290386724
 11
-76.7602884479
 21
-39.6305326978
  0
LINE
  5
478
100
AcDbEntity
  8
SUPERFICI
100
AcDbLine
 62
7
  6
CONTINUOUS
 10
-76.7672279433
 20
-39.6264318895
 11
-76.7651199552
 21
-39.6276855932
  0
LINE
  5
479
100
AcDbEntity
  8
SUPERFICI
100
AcDbLine
 62
7
  6
CONTINUOUS
 10
-76.7740513111
 20
-39.6223254282
 11
-76.7691644843
 21
-39.6252739573
  0
LINE
  5
47A
100
AcDbEntity
  8
SUPERFICI
100
AcDbLine
 62
7
  6
CONTINUOUS
 10
-76.7789706638
 20
-39.6193186761
 11
-76.7740513111
 21
-39.6223254282
  0
LINE
  5
47B
100
AcDbEntity
  8
SUPERFICI
100
AcDbLine
 62
7
  6
CONTINUOUS
 10
-76.7833949718
 20
-39.6165811859
 11
-76.7789706638
 21
-39.6193186761
  0
LINE
  5
47C
100
AcDbEntity
  8
SUPERFICI
100
AcDbLine
 62
7
  6
CONTINUOUS
 10
-76.7870420764
 20
-39.6143007466
 11
-76.7833949718
 21
-39.6165811859
  0
LINE
  5
47D
100
AcDbEntity
  8
SUPERFICI
100
AcDbLine
 62
7
  6
CONTINUOUS
 10
-76.7909532265
 20
-39.6118312905
 11
-76.787520553
 21
-39.6139999677
  0
LINE
  5
47E
100
AcDbEntity
  8
SUPERFICI
100
AcDbLine
 62
7
  6
CONTINUOUS
 10
-76.8017034948
 20
-39.6049463567
 11
-76.7985864722
 21
-39.6069582868
  0
LINE
  5
47F
100
AcDbEntity
  8
SUPERFICI
100
AcDbLine
 62
7
  6
CONTINUOUS
 10
-76.8061837825
 20
-39.6020277366
 11
-76.8028011429
 21
-39.6042342677
  0
LINE
  5
480
100
AcDbEntity
  8
SUPERFICI
100
AcDbLine
 62
7
  6
CONTINUOUS
 10
-76.8101032171
 20
-39.599447759
 11
-76.8068629965
 21
-39.6015824492
  0
LINE
  5
481
100
AcDbEntity
  8
SUPERFICI
100
AcDbLine
 62
7
  6
CONTINUOUS
 10
-76.8140657742
 20
-39.5968134268
 11
-76.8108639745
 21
-39.5989440442
  0
LINE
  5
482
100
AcDbEntity
  8
SUPERFICI
100
AcDbLine
 62
7
  6
CONTINUOUS
 10
-76.818449508
 20
-39.5938680671
 11
-76.8149074222
 21
-39.5962504837
  0
LINE
  5
483
100
AcDbEntity
  8
SUPERFICI
100
AcDbLine
 62
7
  6
CONTINUOUS
 10
-76.8222926954
 20
-39.5912585954
 11
-76.8189127863
 21
-39.5935548686
  0
LINE
  5
484
100
AcDbEntity
  8
SUPERFICI
100
AcDbLine
 62
7
  6
CONTINUOUS
 10
-76.8264706042
 20
-39.5883924195
 11
-76.8227958735
 21
-39.5909150331
  0
LINE
  5
485
100
AcDbEntity
  8
SUPERFICI
100
AcDbLine
 62
7
  6
CONTINUOUS
 10
-76.8298493142
 20
-39.586051751
 11
-76.8264706042
 21
-39.5883924195
  0
LINE
  5
486
100
AcDbEntity
  8
SUPERFICI
100
AcDbLine
 62
7
  6
CONTINUOUS
 10
-76.8340904062
 20
-39.5830843857
 11
-76.8304346668
 21
-39.585644145
  0
LINE
  5
487
100
AcDbEntity
  8
SUPERFICI
100
AcDbLine
 62
7
  6
CONTINUOUS
 10
-76.8380147426
 20
-39.5803091939
 11
-76.8340904062
 21
-39.5830843857
  0
LINE
  5
488
100
AcDbEntity
  8
SUPERFICI
100
AcDbLine
 62
7
  6
CONTINUOUS
 10
-76.8415157842
 20
-39.5778090951
 11
-76.8380147426
 21
-39.5803091939
  0
LINE
  5
489
100
AcDbEntity
  8
SUPERFICI
100
AcDbLine
 62
7
  6
CONTINUOUS
 10
-76.9007954464
 20
-39.5316011289
 11
-76.7779697218
 21
-39.619933544
  0
LWPOLYLINE
  5
48A
100
AcDbEntity
  8
SUPERFICI
100
AcDbPolyline
 62
7
  6
CONTINUOUS
 90
3
 70
0
 10
-76.850878451
 20
-39.5710084312
 10
-76.8500437043
 20
-39.5716216454
 10
-76.8460212783
 20
-39.5745575521
  0
LINE
  5
48B
100
AcDbEntity
  8
SUPERFICI
100
AcDbLine
 62
7
  6
CONTINUOUS
 10
-76.8570420442
 20
-39.5664380285
 11
-76.853445607
 21
-39.5691139906
  0
LWPOLYLINE
  5
48C
100
AcDbEntity
  8
SUPERFICI
100
AcDbPolyline
 62
7
  6
CONTINUOUS
 90
3
 70
0
 10
-76.8618617762
 20
-39.5628112018
 10
-76.8608672598
 20
-39.5635634142
 10
-76.8570420442
 20
-39.5664380285
  0
LWPOLYLINE
  5
48D
100
AcDbEntity
  8
SUPERFICI
100
AcDbPolyline
 62
7
  6
CONTINUOUS
 90
15
 70
0
 10
-76.9193145423
 20
39.5157231526
 10
-76.9225910386
 20
39.5128068417
 10
-76.9262376108
 20
39.5095295307
 10
-76.9303939721
 20
39.5057528712
 10
-76.9349071191
 20
39.5016015372
 10
-76.9395063581
 20
39.4973159849
 10
-76.944246241
 20
39.4928401666
 10
-76.9490664442
 20
39.4882256519
 10
-76.9535370916
 20
39.4838880023
 10
-76.9575019848
 20
39.4799936517
 10
-76.9611304
 20
39.4763900477
 10
-76.9644878533
 20
39.4730211655
 10
-76.9675793323
 20
39.4698894914
 10
-76.9704070695
 20
39.4669997574
 10
-76.9754418302
 20
39.4617940751
  0
LINE
  5
48E
100
AcDbEntity
  8
SUPERFICI
100
AcDbLine
 62
7
  6
CONTINUOUS
 10
-76.9133389901
 20
39.5209737044
 11
-76.9193145423
 21
39.5157231526
  0
LWPOLYLINE
  5
48F
100
AcDbEntity
  8
SUPERFICI
100
AcDbPolyline
 62
7
  6
CONTINUOUS
 90
3
 70
0
 10
-76.905666327
 20
39.5275891091
 10
-76.908091207
 20
39.5255135128
 10
-76.9133389901
 20
39.5209737044
  0
LINE
  5
490
100
AcDbEntity
  8
SUPERFICI
100
AcDbLine
 62
7
  6
CONTINUOUS
 10
-76.9012213766
 20
39.5313579775
 11
-76.9033851232
 21
39.5295290977
  0
LINE
  5
491
100
AcDbEntity
  8
SUPERFICI
100
AcDbLine
 62
7
  6
CONTINUOUS
 10
-76.8972593008
 20
39.5346788331
 11
-76.8991806932
 21
39.5330729054
  0
LINE
  5
492
100
AcDbEntity
  8
SUPERFICI
100
AcDbLine
 62
7
  6
CONTINUOUS
 10
-76.893645675
 20
39.5376763602
 11
-76.8954163248
 21
39.536211297
  0
LINE
  5
493
100
AcDbEntity
  8
SUPERFICI
100
AcDbLine
 62
7
  6
CONTINUOUS
 10
-76.8872237881
 20
39.5429309069
 11
-76.8919544345
 21
39.5390691154
  0
LWPOLYLINE
  5
494
100
AcDbEntity
  8
SUPERFICI
100
AcDbPolyline
 62
7
  6
CONTINUOUS
 90
3
 70
0
 10
-76.8815827836
 20
39.5474713529
 10
-76.8829324464
 20
39.5463913306
 10
-76.8872237881
 20
39.5429309069
  0
LINE
  5
495
100
AcDbEntity
  8
SUPERFICI
100
AcDbLine
 62
7
  6
CONTINUOUS
 10
-76.8777425715
 20
39.5505228261
 11
-76.8789905257
 21
39.5495346677
  0
LINE
  5
496
100
AcDbEntity
  8
SUPERFICI
100
AcDbLine
 62
7
  6
CONTINUOUS
 10
-76.8741731039
 20
39.5533308655
 11
-76.8753358568
 21
39.5524191214
  0
LINE
  5
497
100
AcDbEntity
  8
SUPERFICI
100
AcDbLine
 62
7
  6
CONTINUOUS
 10
-76.8676947812
 20
39.558358646
 11
-76.8719236833
 21
39.5550865884
  0
LWPOLYLINE
  5
498
100
AcDbEntity
  8
SUPERFICI
100
AcDbPolyline
 62
7
  6
CONTINUOUS
 90
3
 70
0
 10
-76.8628460249
 20
39.56206476
 10
-76.8637802787
 20
39.5613544213
 10
-76.8676947812
 20
39.558358646
  0
LINE
  5
499
100
AcDbEntity
  8
SUPERFICI
100
AcDbLine
 62
7
  6
CONTINUOUS
 10
-76.866008911
 20
-39.5596527288
 11
-76.8618617762
 21
-39.5628112018
  0
LWPOLYLINE
  5
49A
100
AcDbEntity
  8
SUPERFICI
100
AcDbPolyline
 62
7
  6
CONTINUOUS
 90
3
 70
0
 10
-76.8716160754
 20
-39.5553258723
 10
-76.8704532076
 20
-39.5562285976
 10
-76.866008911
 20
-39.5596527288
  0
LINE
  5
49B
100
AcDbEntity
  8
SUPERFICI
100
AcDbLine
 62
7
  6
CONTINUOUS
 10
-76.8752507759
 20
-39.5524859493
 11
-76.8740149582
 21
-39.5534546671
  0
LINE
  5
49C
100
AcDbEntity
  8
SUPERFICI
100
AcDbLine
 62
7
  6
CONTINUOUS
 10
-76.8818779167
 20
-39.5472355373
 11
-76.8778087972
 21
-39.5504704876
  0
LINE
  5
49D
100
AcDbEntity
  8
SUPERFICI
100
AcDbLine
 62
7
  6
CONTINUOUS
 10
-76.886293039
 20
-39.5436848873
 11
-76.8818779167
 21
-39.5472355373
  0
LWPOLYLINE
  5
49E
100
AcDbEntity
  8
SUPERFICI
100
AcDbPolyline
 62
7
  6
CONTINUOUS
 90
3
 70
0
 10
-76.8929032998
 20
-39.5382885242
 10
-76.8911633742
 20
-39.5397183758
 10
-76.886293039
 20
-39.5436848873
  0
LINE
  5
49F
100
AcDbEntity
  8
SUPERFICI
100
AcDbLine
 62
7
  6
CONTINUOUS
 10
-76.8965756677
 20
-39.5352482052
 11
-76.8947087344
 21
-39.5367976371
  0
LINE
  5
4A0
100
AcDbEntity
  8
SUPERFICI
100
AcDbLine
 62
7
  6
CONTINUOUS
 10
-76.9005219291
 20
-39.5319468725
 11
-76.8985072488
 21
-39.5336367612
  0
LINE
  5
4A1
100
AcDbEntity
  8
SUPERFICI
100
AcDbLine
 62
7
  6
CONTINUOUS
 10
-76.9047796386
 20
-39.5283446365
 11
-76.9026098491
 21
-39.5301856581
  0
LINE
  5
4A2
100
AcDbEntity
  8
SUPERFICI
100
AcDbLine
 62
7
  6
CONTINUOUS
 10
-76.9147686191
 20
-39.5197254769
 11
-76.9094748685
 21
-39.5243229316
  0
LINE
  5
4A3
100
AcDbEntity
  8
SUPERFICI
100
AcDbLine
 62
7
  6
CONTINUOUS
 10
-77.0008563883
 20
39.4342780272
 11
-77.0048147018
 21
39.429797009
  0
LWPOLYLINE
  5
4A4
100
AcDbEntity
  8
SUPERFICI
100
AcDbPolyline
 62
7
  6
CONTINUOUS
 90
3
 70
0
 10
-76.9951792884
 20
39.4406102279
 10
-76.9966482704
 20
39.4389822929
 10
-77.0008563883
 20
39.4342780272
  0
LINE
  5
4A5
100
AcDbEntity
  8
SUPERFICI
100
AcDbLine
 62
7
  6
CONTINUOUS
 10
-76.992132766
 20
39.443963206
 11
-76.9936746789
 21
39.4422700841
  0
LINE
  5
4A6
100
AcDbEntity
  8
SUPERFICI
100
AcDbLine
 62
7
  6
CONTINUOUS
 10
-76.9889052427
 20
39.4474816267
 11
-76.9905421316
 21
39.4457015173
  0
LINE
  5
4A7
100
AcDbEntity
  8
SUPERFICI
100
AcDbLine
 62
7
  6
CONTINUOUS
 10
-76.9854630023
 20
39.4511963622
 11
-76.9872189192
 21
39.4493062786
  0
LINE
  5
4A8
100
AcDbEntity
  8
SUPERFICI
100
AcDbLine
 62
7
  6
CONTINUOUS
 10
-76.9817533168
 20
39.455156718
 11
-76.9836435101
 21
39.4531443335
  0
LINE
  5
4A9
100
AcDbEntity
  8
SUPERFICI
100
AcDbLine
 62
7
  6
CONTINUOUS
 10
-76.97765347
 20
39.4594825151
 11
-76.9797519808
 21
39.4572749997
  0
LINE
  5
4AA
100
AcDbEntity
  8
SUPERFICI
100
AcDbLine
 62
7
  6
CONTINUOUS
 10
-77.0307955793
 20
39.3987611988
 11
-77.0330621453
 21
39.3964451209
  0
LWPOLYLINE
  5
4AB
100
AcDbEntity
  8
SUPERFICI
100
AcDbPolyline
 62
7
  6
CONTINUOUS
 90
12
 70
0
 10
-76.9628270906
 20
-39.4746917681
 10
-76.9595994156
 20
-39.477915259
 10
-76.956105252
 20
-39.4813706926
 10
-76.9522403426
 20
-39.4851519857
 10
-76.9478238116
 20
-39.4894214137
 10
-76.943022356
 20
-39.4940017086
 10
-76.9382593737
 20
-39.498483487
 10
-76.9335619789
 20
-39.5028444108
 10
-76.9289068794
 20
-39.5071092129
 10
-76.924656611
 20
-39.5109545704
 10
-76.9209999885
 20
-39.5142263422
 10
-76.9147686191
 20
-39.5197254769
  0
LINE
  5
4AC
100
AcDbEntity
  8
SUPERFICI
100
AcDbLine
 62
7
  6
CONTINUOUS
 10
-76.9685009079
 20
-39.4689503956
 11
-76.9628270906
 21
-39.4746917681
  0
LINE
  5
4AD
100
AcDbEntity
  8
SUPERFICI
100
AcDbLine
 62
7
  6
CONTINUOUS
 10
-77.0330621143
 20
-39.3964451884
 11
-77.0317263463
 21
-39.3978101353
  0
LWPOLYLINE
  5
4AE
100
AcDbEntity
  8
SUPERFICI
100
AcDbPolyline
 62
7
  6
CONTINUOUS
 90
3
 70
0
 10
-76.9756594413
 20
-39.4615673332
 10
-76.9734319861
 20
-39.4638815428
 10
-76.9685009079
 20
-39.4689503956
  0
LINE
  5
4AF
100
AcDbEntity
  8
SUPERFICI
100
AcDbLine
 62
7
  6
CONTINUOUS
 10
-76.9798296281
 20
-39.4571930761
 11
-76.9777874801
 21
-39.4593419822
  0
LINE
  5
4B0
100
AcDbEntity
  8
SUPERFICI
100
AcDbLine
 62
7
  6
CONTINUOUS
 10
-76.9836441413
 20
-39.4531436838
 11
-76.9817740978
 21
-39.4551346798
  0
LINE
  5
4B1
100
AcDbEntity
  8
SUPERFICI
100
AcDbLine
 62
7
  6
CONTINUOUS
 10
-76.9871623461
 20
-39.4493673555
 11
-76.9854398413
 21
-39.4512212503
  0
LINE
  5
4B2
100
AcDbEntity
  8
SUPERFICI
100
AcDbLine
 62
7
  6
CONTINUOUS
 10
-76.9904656042
 20
-39.4457849626
 11
-76.9888360541
 21
-39.4475566991
  0
LINE
  5
4B3
100
AcDbEntity
  8
SUPERFICI
100
AcDbLine
 62
7
  6
CONTINUOUS
 10
-76.993591648
 20
-39.4423614855
 11
-76.9920470597
 21
-39.4440571088
  0
LINE
  5
4B4
100
AcDbEntity
  8
SUPERFICI
100
AcDbLine
 62
7
  6
CONTINUOUS
 10
-76.9965740881
 20
-39.4390647031
 11
-76.9951010505
 21
-39.4406967518
  0
LWPOLYLINE
  5
4B5
100
AcDbEntity
  8
SUPERFICI
100
AcDbPolyline
 62
7
  6
CONTINUOUS
 90
3
 70
0
 10
-77.0035157633
 20
-39.4312735486
 10
-77.0021789167
 20
-39.4327869717
 10
-76.9980175514
 20
-39.4374582627
  0
LINE
  5
4B6
100
AcDbEntity
  8
SUPERFICI
100
AcDbLine
 62
7
  6
CONTINUOUS
 10
-77.057964016
 20
39.3638095282
 11
-77.0607197801
 21
39.3600596931
  0
LINE
  5
4B7
100
AcDbEntity
  8
SUPERFICI
100
AcDbLine
 62
7
  6
CONTINUOUS
 10
-77.0550530674
 20
39.3677319119
 11
-77.057964016
 21
39.3638095282
  0
LINE
  5
4B8
100
AcDbEntity
  8
SUPERFICI
100
AcDbLine
 62
7
  6
CONTINUOUS
 10
-77.0519931496
 20
39.3718130181
 11
-77.0579290663
 21
39.3639126068
  0
LINE
  5
4B9
100
AcDbEntity
  8
SUPERFICI
100
AcDbLine
 62
7
  6
CONTINUOUS
 10
-77.0487942512
 20
39.3760342942
 11
-77.0540253451
 21
39.3691276727
  0
LINE
  5
4BA
100
AcDbEntity
  8
SUPERFICI
100
AcDbLine
 62
7
  6
CONTINUOUS
 10
-77.0454636488
 20
39.3803811983
 11
-77.0487942512
 21
39.3760342942
  0
LINE
  5
4BB
100
AcDbEntity
  8
SUPERFICI
100
AcDbLine
 62
7
  6
CONTINUOUS
 10
-77.0420085676
 20
39.3848396275
 11
-77.0454636488
 21
39.3803811983
  0
LWPOLYLINE
  5
4BC
100
AcDbEntity
  8
SUPERFICI
100
AcDbPolyline
 62
7
  6
CONTINUOUS
 90
3
 70
0
 10
-77.0375249197
 20
39.3905496141
 10
-77.0384358274
 20
39.3893963922
 10
-77.0420085676
 20
39.3848396275
  0
LINE
  5
4BD
100
AcDbEntity
  8
SUPERFICI
100
AcDbLine
 62
7
  6
CONTINUOUS
 10
-77.0347506944
 20
39.3940406457
 11
-77.0356822024
 21
39.3928719918
  0
LINE
  5
4BE
100
AcDbEntity
  8
SUPERFICI
100
AcDbLine
 62
7
  6
CONTINUOUS
 10
-77.0319155595
 20
39.3975757682
 11
-77.0328672328
 21
39.396392768
  0
LINE
  5
4BF
100
AcDbEntity
  8
SUPERFICI
100
AcDbLine
 62
7
  6
CONTINUOUS
 10
-77.0290180977
 20
39.4011551137
 11
-77.0299912308
 21
39.3999567095
  0
LINE
  5
4C0
100
AcDbEntity
  8
SUPERFICI
100
AcDbLine
 62
7
  6
CONTINUOUS
 10
-77.0260515713
 20
39.4047852314
 11
-77.0270486849
 21
39.4035689375
  0
LINE
  5
4C1
100
AcDbEntity
  8
SUPERFICI
100
AcDbLine
 62
7
  6
CONTINUOUS
 10
-77.0230067597
 20
39.408475351
 11
-77.0240311353
 21
39.4072378857
  0
LINE
  5
4C2
100
AcDbEntity
  8
SUPERFICI
100
AcDbLine
 62
7
  6
CONTINUOUS
 10
-77.0155286758
 20
39.4173878746
 11
-77.0188054609
 21
39.413508543
  0
LINE
  5
4C3
100
AcDbEntity
  8
SUPERFICI
100
AcDbLine
 62
7
  6
CONTINUOUS
 10
-77.0121232154
 20
39.4213773153
 11
-77.0155286758
 21
39.4173878746
  0
LINE
  5
4C4
100
AcDbEntity
  8
SUPERFICI
100
AcDbLine
 62
7
  6
CONTINUOUS
 10
-77.008561144
 20
39.4255049164
 11
-77.0121232154
 21
39.4213773153
  0
LINE
  5
4C5
100
AcDbEntity
  8
SUPERFICI
100
AcDbLine
 62
7
  6
CONTINUOUS
 10
-77.0048147018
 20
39.429797009
 11
-77.008561144
 21
39.4255049164
  0
LWPOLYLINE
  5
4C6
100
AcDbEntity
  8
SUPERFICI
100
AcDbPolyline
 62
250
  6
CONTINUOUS
 90
13
 70
0
 10
-77.2376774997
 20
37.4564952056
 10
-77.2158746856
 20
37.4810498921
 10
-77.1813702523
 20
37.5046752101
 10
-77.1345028605
 20
37.5271756787
 10
-77.0756641956
 20
37.5483475056
 10
-77.0056539018
 20
37.5678893204
 10
-76.9254862713
 20
37.5854649746
 10
-76.8361620512
 20
37.6008030755
 10
-76.7390649714
 20
37.6137106894
 10
-76.6358824895
 20
37.6239942512
 10
-76.5280912886
 20
37.63151746
 10
-76.4166580253
 20
37.6362356163
 10
-76.3025265488
 20
37.6381104405
  0
LINE
  5
4C7
100
AcDbEntity
  8
SUPERFICI
100
AcDbLine
 62
7
  6
CONTINUOUS
 10
-77.0086391913
 20
-39.4254149954
 11
-77.0048282312
 21
-39.4297816248
  0
LINE
  5
4C8
100
AcDbEntity
  8
SUPERFICI
100
AcDbLine
 62
7
  6
CONTINUOUS
 10
-77.0122756387
 20
-39.4211996912
 11
-77.0086391913
 21
-39.4254149954
  0
LINE
  5
4C9
100
AcDbEntity
  8
SUPERFICI
100
AcDbLine
 62
7
  6
CONTINUOUS
 10
-77.0157562408
 20
-39.4171197864
 11
-77.0122756387
 21
-39.4211996912
  0
LWPOLYLINE
  5
4CA
100
AcDbEntity
  8
SUPERFICI
100
AcDbPolyline
 62
7
  6
CONTINUOUS
 90
3
 70
0
 10
-77.0201791241
 20
-39.4118703034
 10
-77.0190954629
 20
-39.4131633007
 10
-77.0157562408
 20
-39.4171197864
  0
LINE
  5
4CB
100
AcDbEntity
  8
SUPERFICI
100
AcDbLine
 62
7
  6
CONTINUOUS
 10
-77.0233462236
 20
-39.4080657489
 11
-77.0223041507
 21
-39.4093218058
  0
LINE
  5
4CC
100
AcDbEntity
  8
SUPERFICI
100
AcDbLine
 62
7
  6
CONTINUOUS
 10
-77.0263934056
 20
-39.4043687243
 11
-77.0253905782
 21
-39.405589404
  0
LINE
  5
4CD
100
AcDbEntity
  8
SUPERFICI
100
AcDbLine
 62
7
  6
CONTINUOUS
 10
-77.0293266538
 20
-39.4007755665
 11
-77.0283612346
 21
-39.4019619353
  0
LINE
  5
4CE
100
AcDbEntity
  8
SUPERFICI
100
AcDbLine
 62
7
  6
CONTINUOUS
 10
-77.0348696809
 20
-39.3938915947
 11
-77.0312211629
 21
-39.3984366772
  0
LINE
  5
4CF
100
AcDbEntity
  8
SUPERFICI
100
AcDbLine
 62
7
  6
CONTINUOUS
 10
-77.0383428509
 20
-39.3895142899
 11
-77.0348696809
 21
-39.3938915947
  0
LINE
  5
4D0
100
AcDbEntity
  8
SUPERFICI
100
AcDbLine
 62
7
  6
CONTINUOUS
 10
-77.0416544788
 20
-39.3852936821
 11
-77.0383428509
 21
-39.3895142899
  0
LINE
  5
4D1
100
AcDbEntity
  8
SUPERFICI
100
AcDbLine
 62
7
  6
CONTINUOUS
 10
-77.0448153337
 20
-39.3812217363
 11
-77.0416544788
 21
-39.3852936821
  0
LINE
  5
4D2
100
AcDbEntity
  8
SUPERFICI
100
AcDbLine
 62
7
  6
CONTINUOUS
 10
-77.0478329186
 20
-39.3772940029
 11
-77.0448153337
 21
-39.3812217363
  0
LINE
  5
4D3
100
AcDbEntity
  8
SUPERFICI
100
AcDbLine
 62
7
  6
CONTINUOUS
 10
-77.0539793591
 20
-39.369188714
 11
-77.0478329186
 21
-39.3772940029
  0
LWPOLYLINE
  5
4D4
100
AcDbEntity
  8
SUPERFICI
100
AcDbPolyline
 62
7
  6
CONTINUOUS
 90
10
 70
0
 10
-77.0988674868
 20
39.3044309061
 10
-77.1034145783
 20
39.2972090827
 10
-77.1078298397
 20
39.2900612219
 10
-77.112108757
 20
39.2830013439
 10
-77.1162611735
 20
39.2760199069
 10
-77.1202440864
 20
39.269197732
 10
-77.1240549226
 20
39.2625501675
 10
-77.1277050369
 20
39.2560681888
 10
-77.1311750192
 20
39.2497976654
 10
-77.1344638931
 20
39.2437529086
  0
LINE
  5
4D5
100
AcDbEntity
  8
SUPERFICI
100
AcDbLine
 62
7
  6
CONTINUOUS
 10
-77.0330621453
 20
39.3964451209
 11
-77.1360328477
 21
39.2409736424
  0
LWPOLYLINE
  5
4D6
100
AcDbEntity
  8
SUPERFICI
100
AcDbPolyline
 62
7
  6
CONTINUOUS
 90
6
 70
0
 10
-77.0754631717
 20
39.3395658306
 10
-77.0801306181
 20
39.3328137862
 10
-77.08483663
 20
39.3258823659
 10
-77.0895783463
 20
39.3187679813
 10
-77.0942578175
 20
39.3116135481
 10
-77.0988674868
 20
39.3044309061
  0
LINE
  5
4D7
100
AcDbEntity
  8
SUPERFICI
100
AcDbLine
 62
7
  6
CONTINUOUS
 10
-77.0697971449
 20
39.3474482757
 11
-77.0754631717
 21
39.3395658306
  0
LINE
  5
4D8
100
AcDbEntity
  8
SUPERFICI
100
AcDbLine
 62
7
  6
CONTINUOUS
 10
-77.0668148823
 20
39.3516364022
 11
-77.0693405234
 21
39.3480924255
  0
LINE
  5
4D9
100
AcDbEntity
  8
SUPERFICI
100
AcDbLine
 62
7
  6
CONTINUOUS
 10
-77.0633061299
 20
39.3565074625
 11
-77.0662636939
 21
39.3524056035
  0
LINE
  5
4DA
100
AcDbEntity
  8
SUPERFICI
100
AcDbLine
 62
7
  6
CONTINUOUS
 10
-77.0626764665
 20
39.3573752416
 11
-77.0663657968
 21
39.3523918693
  0
LWPOLYLINE
  5
4DB
100
AcDbEntity
  8
0
100
AcDbPolyline
 62
250
  6
CONTINUOUS
 90
3
 70
0
 10
-80.8669707624
 20
-22.2707804903
 10
-80.8656895593
 20
-22.2706968711
 10
-80.8620009153
 20
-22.2706064357
  0
LWPOLYLINE
  5
4DC
100
AcDbEntity
  8
SUPERFICI
100
AcDbPolyline
 62
250
  6
CONTINUOUS
 90
8
 70
0
 10
-80.6533750313
 20
-22.2707986984
 10
-80.3290195339
 20
-22.2674620601
 10
-80.241366677
 20
-22.2676149277
 10
-80.1656041197
 20
-22.2682507545
 10
-80.1039220401
 20
-22.2670382182
 10
-80.056497608
 20
-22.2627434035
 10
-80.0224227804
 20
-22.2557357807
 10
-80.0011873069
 20
-22.2456389749
  0
LWPOLYLINE
  5
4DD
100
AcDbEntity
  8
0
100
AcDbPolyline
 62
250
  6
CONTINUOUS
 90
5
 70
0
 10
-80.7532630731
 20
-22.2697845781
 10
-80.73037118
 20
-22.2697400812
 10
-80.7056903016
 20
-22.2699246784
 10
-80.6792488125
 20
-22.2702775209
 10
-80.6511073784
 20
-22.2707986086
  0
LINE
  5
4DE
100
AcDbEntity
  8
0
100
AcDbLine
 62
250
  6
CONTINUOUS
 10
-80.8620009153
 20
-22.2706064357
 11
-80.7532630731
 21
-22.2697845781
  0
LWPOLYLINE
  5
4DF
100
AcDbEntity
  8
SUPERFICI
100
AcDbPolyline
 62
7
  6
CONTINUOUS
 90
7
 70
0
 10
-77.0812113482
 20
-39.3312331735
 10
-77.076142394
 20
-39.3385907017
 10
-77.0711948345
 20
-39.345637436
 10
-77.0664836749
 20
-39.3522284415
 10
-77.0620504903
 20
-39.3583281499
 10
-77.0578742639
 20
-39.3639863465
 10
-77.0539793591
 20
-39.369188714
  0
LINE
  5
4E0
100
AcDbEntity
  8
SUPERFICI
100
AcDbLine
 62
7
  6
CONTINUOUS
 10
-77.1440138486
 20
-39.2257212362
 11
-77.0340772138
 21
-39.3948832318
  0
LWPOLYLINE
  5
4E1
100
AcDbEntity
  8
SUPERFICI
100
AcDbPolyline
 62
250
  6
CONTINUOUS
 90
8
 70
0
 10
-77.2198333264
 20
-39.0126714663
 10
-77.2197206578
 20
-39.0128480863
 10
-77.2196740517
 20
-39.012727898
 10
-77.2196936497
 20
-39.0123045119
 10
-77.219781059
 20
-39.0115646978
 10
-77.2199349821
 20
-39.010506971
 10
-77.2201512064
 20
-39.0091421493
 10
-77.2204284369
 20
-39.0074683091
  0
LWPOLYLINE
  5
4E2
100
AcDbEntity
  8
SUPERFICI
100
AcDbPolyline
 62
7
  6
CONTINUOUS
 90
5
 70
0
 10
-77.1021645536
 20
-39.2992083032
 10
-77.0969702641
 20
-39.3074037052
 10
-77.0917167883
 20
-39.3155153278
 10
-77.0864112947
 20
-39.323534568
 10
-77.0812113482
 20
-39.3312331735
  0
LINE
  5
4E3
100
AcDbEntity
  8
SUPERFICI
100
AcDbLine
 62
7
  6
CONTINUOUS
 10
-77.1348392474
 20
39.2432375051
 11
-77.1552218846
 21
39.2030410008
  0
LWPOLYLINE
  5
4E4
100
AcDbEntity
  8
SUPERFICI
100
AcDbPolyline
 62
7
  6
CONTINUOUS
 90
3
 70
0
 10
-77.1392699871
 20
39.2343771473
 10
-77.1480227892
 20
39.21741932
 10
-77.1650144607
 20
39.1820847093
  0
LINE
  5
4E5
100
AcDbEntity
  8
SUPERFICI
100
AcDbLine
 62
7
  6
CONTINUOUS
 10
-77.1413342995
 20
39.2304398067
 11
-77.138359382
 21
39.2360984284
  0
LINE
  5
4E6
100
AcDbEntity
  8
SUPERFICI
100
AcDbLine
 62
7
  6
CONTINUOUS
 10
-77.1344638931
 20
39.2437529086
 11
-77.1375825202
 21
39.237926191
  0
LINE
  5
4E7
100
AcDbEntity
  8
SUPERFICI
100
AcDbLine
 62
7
  6
CONTINUOUS
 10
-80.6330379706
 20
24.2259992818
 11
-80.6397742011
 21
24.2175639151
  0
LINE
  5
4E8
100
AcDbEntity
  8
SUPERFICI
100
AcDbLine
 62
7
  6
CONTINUOUS
 10
-80.6415132363
 20
24.2153971442
 11
-80.6482471127
 21
24.2070489887
  0
LINE
  5
4E9
100
AcDbEntity
  8
SUPERFICI
100
AcDbLine
 62
7
  6
CONTINUOUS
 10
-80.6493424487
 20
24.2056973308
 11
-80.6504794389
 21
24.2042961052
  0
LINE
  5
4EA
100
AcDbEntity
  8
SUPERFICI
100
AcDbLine
 62
7
  6
CONTINUOUS
 10
-80.7089612276
 20
24.1345903456
 11
-80.7241623096
 21
24.1171890343
  0
LINE
  5
4EB
100
AcDbEntity
  8
SUPERFICI
100
AcDbLine
 62
250
  6
CONTINUOUS
 10
-80.169615761
 20
-19.0267942837
 11
-80.4367484765
 21
-19.0272853364
  0
LINE
  5
4EC
100
AcDbEntity
  8
SUPERFICI
100
AcDbLine
 62
250
  6
CONTINUOUS
 10
-80.4367484765
 20
-19.0272853364
 11
-80.6517274545
 21
-19.0269179589
  0
LWPOLYLINE
  5
4ED
100
AcDbEntity
  8
SUPERFICI
100
AcDbPolyline
 62
250
  6
CONTINUOUS
 90
5
 70
0
 10
-79.994782833
 20
-19.0299373338
 10
-80.0154094068
 20
-19.0285238437
 10
-80.0519030076
 20
-19.0275019412
 10
-80.1034433809
 20
-19.0268714634
 10
-80.169615761
 20
-19.0267942837
  0
LINE
  5
4EE
100
AcDbEntity
  8
SUPERFICI
100
AcDbLine
 62
7
  6
CONTINUOUS
 10
-80.6524373464
 20
-24.2018875528
 11
-80.6460041355
 21
-24.2098223025
  0
LINE
  5
4EF
100
AcDbEntity
  8
SUPERFICI
100
AcDbLine
 62
7
  6
CONTINUOUS
 10
-80.6441466794
 20
-24.2121244929
 11
-80.6381630272
 21
-24.2195753893
  0
LINE
  5
4F0
100
AcDbEntity
  8
SUPERFICI
100
AcDbLine
 62
7
  6
CONTINUOUS
 10
-80.6365168839
 20
-24.2216344848
 11
-80.6325548665
 21
-24.2266068273
  0
LWPOLYLINE
  5
4F1
100
AcDbEntity
  8
SUPERFICI
100
AcDbPolyline
 62
7
  6
CONTINUOUS
 90
10
 70
0
 10
-77.1410543407
 20
-39.2313265681
 10
-77.137619039
 20
-39.2378574456
 10
-77.1339548882
 20
-39.2446950953
 10
-77.1300638676
 20
-39.2518174114
 10
-77.1259542667
 20
-39.2591916097
 10
-77.1216028422
 20
-39.2668413139
 10
-77.1170182531
 20
-39.2747328122
 10
-77.1122600637
 20
-39.2827492789
 10
-77.1073038015
 20
-39.2909200516
 10
-77.1021645536
 20
-39.2992083032
  0
LINE
  5
4F2
100
AcDbEntity
  8
SUPERFICI
100
AcDbLine
 62
7
  6
CONTINUOUS
 10
-77.1473056651
 20
-39.2191262089
 11
-77.1442769788
 21
-39.2250895163
  0
LWPOLYLINE
  5
4F3
100
AcDbEntity
  8
SUPERFICI
100
AcDbPolyline
 62
7
  6
CONTINUOUS
 90
3
 70
0
 10
-77.1650144607
 20
39.1820847093
 10
-77.1871025121
 20
39.1301098085
 10
-77.1960052193
 20
39.1066170074
  0
LINE
  5
4F4
100
AcDbEntity
  8
SUPERFICI
100
AcDbLine
 62
7
  6
CONTINUOUS
 10
-77.1360328477
 20
39.2409736424
 11
-77.1475325837
 21
39.2152590322
  0
LINE
  5
4F5
100
AcDbEntity
  8
SUPERFICI
100
AcDbLine
 62
7
  6
CONTINUOUS
 10
-77.156494412
 20
39.2005314556
 11
-77.1672504229
 21
39.1768233165
  0
LWPOLYLINE
  5
4F6
100
AcDbEntity
  8
SUPERFICI
100
AcDbPolyline
 62
7
  6
CONTINUOUS
 90
3
 70
0
 10
-77.1569119576
 20
39.1995117575
 10
-77.1587530029
 20
39.1956225111
 10
-77.1621474271
 20
39.1883336971
  0
LWPOLYLINE
  5
4F7
100
AcDbEntity
  8
SUPERFICI
100
AcDbPolyline
 62
7
  6
CONTINUOUS
 90
4
 70
0
 10
-77.1459198885
 20
39.2218671568
 10
-77.14838744
 20
39.2169715567
 10
-77.1507097572
 20
39.2123010112
 10
-77.1528929923
 20
39.2078525739
  0
LINE
  5
4F8
100
AcDbEntity
  8
SUPERFICI
100
AcDbLine
 62
7
  6
CONTINUOUS
 10
-80.5338328574
 20
24.3577318057
 11
-80.420411207
 21
24.531199901
  0
LINE
  5
4F9
100
AcDbEntity
  8
SUPERFICI
100
AcDbLine
 62
7
  6
CONTINUOUS
 10
-80.4808354563
 20
24.4357346289
 11
-80.5319752619
 21
24.3608624642
  0
LINE
  5
4FA
100
AcDbEntity
  8
SUPERFICI
100
AcDbLine
 62
7
  6
CONTINUOUS
 10
-80.5319752619
 20
24.3608624642
 11
-80.5728864067
 21
24.3043152855
  0
LINE
  5
4FB
100
AcDbEntity
  8
SUPERFICI
100
AcDbLine
 62
7
  6
CONTINUOUS
 10
-80.5311704159
 20
24.362119432
 11
-80.652578425
 21
24.2017597973
  0
LWPOLYLINE
  5
4FC
100
AcDbEntity
  8
SUPERFICI
100
AcDbPolyline
 62
7
  6
CONTINUOUS
 90
4
 70
0
 10
-80.6496961609
 20
24.2026873097
 10
-80.5368189854
 20
24.3503232408
 10
-80.4329055173
 20
24.5057739054
 10
-80.4023617165
 20
24.5558339287
  0
LINE
  5
4FD
100
AcDbEntity
  8
SUPERFICI
100
AcDbLine
 62
7
  6
CONTINUOUS
 10
-80.6023528948
 20
24.2652669912
 11
-80.6154371764
 21
24.2483530087
  0
LINE
  5
4FE
100
AcDbEntity
  8
SUPERFICI
100
AcDbLine
 62
7
  6
CONTINUOUS
 10
-80.615546042
 20
24.2482134951
 11
-80.6239927099
 21
24.2374306689
  0
LINE
  5
4FF
100
AcDbEntity
  8
SUPERFICI
100
AcDbLine
 62
7
  6
CONTINUOUS
 10
-80.6239927099
 20
24.2374306689
 11
-80.6317502017
 21
24.227619483
  0
LINE
  5
500
100
AcDbEntity
  8
SUPERFICI
100
AcDbLine
 62
7
  6
CONTINUOUS
 10
-80.6325548665
 20
-24.2266068273
 11
-80.6243944747
 21
-24.2369204039
  0
LINE
  5
501
100
AcDbEntity
  8
SUPERFICI
100
AcDbLine
 62
7
  6
CONTINUOUS
 10
-80.6243944747
 20
-24.2369204039
 11
-80.6151344541
 21
-24.2487416163
  0
LINE
  5
502
100
AcDbEntity
  8
SUPERFICI
100
AcDbLine
 62
7
  6
CONTINUOUS
 10
-80.6151344541
 20
-24.2487416163
 11
-80.6044790527
 21
-24.2625011237
  0
LWPOLYLINE
  5
503
100
AcDbEntity
  8
SUPERFICI
100
AcDbPolyline
 62
7
  6
CONTINUOUS
 90
4
 70
0
 10
-80.6496961776
 20
-24.2026873026
 10
-80.5368190022
 20
-24.3503232337
 10
-80.4329055342
 20
-24.5057738984
 10
-80.4023617325
 20
-24.5558339233
  0
LINE
  5
504
100
AcDbEntity
  8
SUPERFICI
100
AcDbLine
 62
7
  6
CONTINUOUS
 10
-80.5311704327
 20
-24.3621194255
 11
-80.6525784417
 21
-24.2017597908
  0
LWPOLYLINE
  5
505
100
AcDbEntity
  8
0
100
AcDbPolyline
 62
7
  6
CONTINUOUS
 90
15
 70
0
 10
-80.6469747822
 20
-24.2005813467
 10
-80.6756034425
 20
-24.1619345756
 10
-80.7024884075
 20
-24.121701238
 10
-80.7275724903
 20
-24.0799643904
 10
-80.7508251278
 20
-24.0367565471
 10
-80.7721543049
 20
-23.9922204161
 10
-80.791432259
 20
-23.946621455
 10
-80.8086157375
 20
-23.9000841633
 10
-80.8236739714
 20
-23.8527021617
 10
-80.8365377329
 20
-23.8047135805
 10
-80.8471850061
 20
-23.7562396871
 10
-80.8555962401
 20
-23.7073915882
 10
-80.8617388081
 20
-23.6583995251
 10
-80.8656062822
 20
-23.6094057571
 10
-80.8670546433
 20
-23.5706505249
  0
LINE
  5
506
100
AcDbEntity
  8
SUPERFICI
100
AcDbLine
 62
7
  6
CONTINUOUS
 10
-80.5841921549
 20
-24.2891730721
 11
-80.5560342464
 21
-24.3272685468
  0
LINE
  5
507
100
AcDbEntity
  8
SUPERFICI
100
AcDbLine
 62
7
  6
CONTINUOUS
 10
-80.5560342464
 20
-24.3272685468
 11
-80.5205479281
 21
-24.3771723245
  0
LINE
  5
508
100
AcDbEntity
  8
SUPERFICI
100
AcDbLine
 62
7
  6
CONTINUOUS
 10
-77.1605421596
 20
-39.1917937246
 11
-77.1362630129
 21
-39.2403879178
  0
LINE
  5
509
100
AcDbEntity
  8
SUPERFICI
100
AcDbLine
 62
7
  6
CONTINUOUS
 10
-77.1552963094
 20
-39.2028890708
 11
-77.1501427112
 21
-39.2134472343
  0
LWPOLYLINE
  5
50A
100
AcDbEntity
  8
SUPERFICI
100
AcDbPolyline
 62
7
  6
CONTINUOUS
 90
3
 70
0
 10
-77.1650144915
 20
-39.1820846959
 10
-77.1480228215
 20
-39.2174193048
 10
-77.1392700196
 20
-39.2343771321
  0
LWPOLYLINE
  5
50B
100
AcDbEntity
  8
SUPERFICI
100
AcDbPolyline
 62
7
  6
CONTINUOUS
 90
5
 70
0
 10
-77.1652689884
 20
-39.181485845
 10
-77.1638558045
 20
-39.1846053663
 10
-77.161924246
 20
-39.1888178078
 10
-77.1598574966
 20
-39.1932679449
 10
-77.1576504912
 20
-39.197956927
  0
LINE
  5
50C
100
AcDbEntity
  8
SUPERFICI
100
AcDbLine
 62
7
  6
CONTINUOUS
 10
-77.1455339364
 20
-39.2222413131
 11
-77.1440138486
 21
-39.2257212362
  0
LWPOLYLINE
  5
50D
100
AcDbEntity
  8
SUPERFICI
100
AcDbPolyline
 62
250
  6
CONTINUOUS
 90
10
 70
0
 10
-77.2022964936
 20
39.0868552062
 10
-77.3343994149
 20
38.7017167495
 10
-77.4653633017
 20
38.2964752979
 10
-77.5895014097
 20
37.8872064625
 10
-77.7071409166
 20
37.4730510063
 10
-77.8196869904
 20
37.0517812135
 10
-77.9294207965
 20
36.619254172
 10
-78.0373134166
 20
36.1756661815
 10
-78.1436519258
 20
35.7248109404
 10
-78.4846185455
 20
34.2404493736
  0
LWPOLYLINE
  5
50E
100
AcDbEntity
  8
SUPERFICI
100
AcDbPolyline
 62
7
  6
CONTINUOUS
 90
4
 70
0
 10
-77.3748551585
 20
38.6068925702
 10
-77.4342784958
 20
38.435477113
 10
-77.490625115
 20
38.2702291792
 10
-77.5871837151
 20
37.9809988804
  0
LWPOLYLINE
  5
50F
100
AcDbEntity
  8
SUPERFICI
100
AcDbPolyline
 62
7
  6
CONTINUOUS
 90
7
 70
0
 10
-77.1968666047
 20
39.1027959212
 10
-77.1995530562
 20
39.0950647221
 10
-77.202808446
 20
39.0853232299
 10
-77.2053831511
 20
39.0771655679
 10
-77.2069346549
 20
39.0718515275
 10
-77.2077980319
 20
39.0686239377
 10
-77.2110508446
 20
39.0570104508
  0
LINE
  5
510
100
AcDbEntity
  8
SUPERFICI
100
AcDbLine
 62
7
  6
CONTINUOUS
 10
-77.2812733387
 20
38.8709153295
 11
-77.3748551585
 21
38.6068925702
  0
LINE
  5
511
100
AcDbEntity
  8
SUPERFICI
100
AcDbLine
 62
7
  6
CONTINUOUS
 10
-77.2204036464
 20
39.0388350534
 11
-77.2883600606
 21
38.8508008595
  0
LINE
  5
512
100
AcDbEntity
  8
SUPERFICI
100
AcDbLine
 62
7
  6
CONTINUOUS
 10
-77.1957608947
 20
39.1059268266
 11
-77.2204036464
 21
39.0388350534
  0
LWPOLYLINE
  5
513
100
AcDbEntity
  8
SUPERFICI
100
AcDbPolyline
 62
250
  6
CONTINUOUS
 90
6
 70
0
 10
-80.228983834
 20
24.8930633066
 10
-80.1789734252
 20
25.0145761145
 10
-80.1157534211
 20
25.1948000708
 10
-80.0641768433
 20
25.3778999349
 10
-80.0242656872
 20
25.5636514957
 10
-79.9962281505
 20
25.7513559984
  0
LINE
  5
514
100
AcDbEntity
  8
SUPERFICI
100
AcDbLine
 62
7
  6
CONTINUOUS
 10
-80.2326132641
 20
24.89319788
 11
-80.3208100186
 21
24.708269195
  0
LINE
  5
515
100
AcDbEntity
  8
SUPERFICI
100
AcDbLine
 62
7
  6
CONTINUOUS
 10
-80.3278928317
 20
24.6925832284
 11
-80.2408581395
 21
24.8712499806
  0
LWPOLYLINE
  5
516
100
AcDbEntity
  8
SUPERFICI
100
AcDbPolyline
 62
7
  6
CONTINUOUS
 90
3
 70
0
 10
-80.3383891863
 20
24.6685110523
 10
-80.2535003881
 20
24.8384509595
 10
-80.228983834
 20
24.8930633066
  0
LINE
  5
517
100
AcDbEntity
  8
SUPERFICI
100
AcDbLine
 62
7
  6
CONTINUOUS
 10
-80.3208100186
 20
24.708269195
 11
-80.420411207
 21
24.531199901
  0
LINE
  5
518
100
AcDbEntity
  8
SUPERFICI
100
AcDbLine
 62
7
  6
CONTINUOUS
 10
-80.4256255556
 20
24.5213720222
 11
-80.3278928317
 21
24.6925832284
  0
LWPOLYLINE
  5
519
100
AcDbEntity
  8
SUPERFICI
100
AcDbPolyline
 62
250
  6
CONTINUOUS
 90
10
 70
0
 10
-79.9977905811
 20
-22.9081195863
 10
-80.0198107839
 20
-22.8730984272
 10
-80.055184176
 20
-22.8384474899
 10
-80.1037941672
 20
-22.8043215372
 10
-80.1655253742
 20
-22.7708277644
 10
-80.240078094
 20
-22.7381550895
 10
-80.3267954469
 20
-22.706568541
 10
-80.4250438207
 20
-22.6762435717
 10
-80.5343893657
 20
-22.6472709953
 10
-80.654235871
 20
-22.6197709889
  0
LWPOLYLINE
  5
51A
100
AcDbEntity
  8
SUPERFICI
100
AcDbPolyline
 62
7
  6
CONTINUOUS
 90
4
 70
0
 10
-80.4023617325
 20
-24.5558339233
 10
-80.3383892034
 20
-24.6685110454
 10
-80.2535004052
 20
-24.8384509527
 10
-80.2289838547
 20
-24.8930632917
  0
LWPOLYLINE
  5
51B
100
AcDbEntity
  8
SUPERFICI
100
AcDbPolyline
 62
7
  6
CONTINUOUS
 90
3
 70
0
 10
-80.3208100357
 20
-24.7082691887
 10
-80.4204112239
 20
-24.5311998946
 10
-80.5311704327
 20
-24.3621194255
  0
LINE
  5
51C
100
AcDbEntity
  8
SUPERFICI
100
AcDbLine
 62
7
  6
CONTINUOUS
 10
-80.2326132813
 20
-24.8931978738
 11
-80.3208100357
 21
-24.7082691887
  0
LWPOLYLINE
  5
51D
100
AcDbEntity
  8
SUPERFICI
100
AcDbPolyline
 62
250
  6
CONTINUOUS
 90
6
 70
0
 10
-80.2289838547
 20
-24.8930632917
 10
-80.1789734425
 20
-25.0145761077
 10
-80.1157534385
 20
-25.1948000641
 10
-80.0641768608
 20
-25.3778999282
 10
-80.0242657049
 20
-25.5636514891
 10
-79.9962281683
 20
-25.7513559917
  0
LWPOLYLINE
  5
51E
100
AcDbEntity
  8
SUPERFICI
100
AcDbPolyline
 62
7
  6
CONTINUOUS
 90
3
 70
0
 10
-77.1960052462
 20
-39.1066170025
 10
-77.1871025411
 20
-39.1301097984
 10
-77.1650144915
 20
-39.1820846959
  0
LINE
  5
51F
100
AcDbEntity
  8
SUPERFICI
100
AcDbLine
 62
7
  6
CONTINUOUS
 10
-77.2330312923
 20
-39.004191884
 11
-77.2355592182
 21
-38.9972854685
  0
LWPOLYLINE
  5
520
100
AcDbEntity
  8
SUPERFICI
100
AcDbPolyline
 62
7
  6
CONTINUOUS
 90
6
 70
0
 10
-77.1971066923
 20
-39.1021049845
 10
-77.1995530832
 20
-39.095064717
 10
-77.202808473
 20
-39.0853232248
 10
-77.2053831781
 20
-39.0771655628
 10
-77.2069346819
 20
-39.0718515224
 10
-77.2077980588
 20
-39.0686239325
  0
LWPOLYLINE
  5
521
100
AcDbEntity
  8
SUPERFICI
100
AcDbPolyline
 62
250
  6
CONTINUOUS
 90
8
 70
0
 10
-77.2003638208
 20
-39.0926386499
 10
-77.3343994417
 20
-38.7017167444
 10
-77.4653633281
 20
-38.2964752926
 10
-77.5895014358
 20
-37.8872064572
 10
-77.7071409425
 20
-37.4730510009
 10
-77.819687016
 20
-37.0517812081
 10
-77.9294208218
 20
-36.6192541665
 10
-78.0373134416
 20
-36.1756661759
  0
LWPOLYLINE
  5
522
100
AcDbEntity
  8
SUPERFICI
100
AcDbPolyline
 62
7
  6
CONTINUOUS
 90
5
 70
0
 10
-77.4906251077
 20
-38.2702292738
 10
-77.4342783821
 20
-38.4354775163
 10
-77.3748549009
 20
-38.6068933783
 10
-77.3225633293
 20
-38.7553170483
 10
-77.2478946201
 20
-38.9633313588
  0
LINE
  5
523
100
AcDbEntity
  8
SUPERFICI
100
AcDbLine
 62
7
  6
CONTINUOUS
 10
-77.5871837318
 20
-37.9809989045
 11
-77.4906251077
 21
-38.2702292738
  0
LINE
  5
524
100
AcDbEntity
  8
SUPERFICI
100
AcDbLine
 62
7
  6
CONTINUOUS
 10
-78.8187457147
 20
33.6134619175
 11
-78.5516765891
 21
34.6931838346
  0
LWPOLYLINE
  5
525
100
AcDbEntity
  8
SUPERFICI
100
AcDbPolyline
 62
7
  6
CONTINUOUS
 90
3
 70
0
 10
-77.2110508446
 20
39.0570104508
 10
-77.2134599153
 20
39.047450908
 10
-77.21563053
 20
39.037214293
  0
LWPOLYLINE
  5
526
100
AcDbEntity
  8
SUPERFICI
100
AcDbPolyline
 62
7
  6
CONTINUOUS
 90
4
 70
0
 10
-78.4867791199
 20
34.9196259199
 10
-78.7189363092
 20
34.0087966257
 10
-78.9447203585
 20
33.041342526
 10
-79.1642397041
 20
31.9905609269
  0
LINE
  5
527
100
AcDbEntity
  8
SUPERFICI
100
AcDbLine
 62
7
  6
CONTINUOUS
 10
-78.5750437341
 20
34.6005979492
 11
-78.634672022
 21
34.3668555998
  0
LINE
  5
528
100
AcDbEntity
  8
SUPERFICI
100
AcDbLine
 62
7
  6
CONTINUOUS
 10
-78.5118824185
 20
34.8430402974
 11
-78.5750437341
 21
34.6005979492
  0
LINE
  5
529
100
AcDbEntity
  8
SUPERFICI
100
AcDbLine
 62
7
  6
CONTINUOUS
 10
-78.3924568817
 20
35.2886705926
 11
-78.5118824185
 21
34.8430402974
  0
LINE
  5
52A
100
AcDbEntity
  8
SUPERFICI
100
AcDbLine
 62
7
  6
CONTINUOUS
 10
-78.5516765891
 20
34.6931838346
 11
-78.2528590702
 21
35.793128763
  0
LINE
  5
52B
100
AcDbEntity
  8
SUPERFICI
100
AcDbLine
 62
7
  6
CONTINUOUS
 10
-78.2496273265
 20
35.792247368
 11
-78.454938685
 21
35.0367856768
  0
LINE
  5
52C
100
AcDbEntity
  8
SUPERFICI
100
AcDbLine
 62
7
  6
CONTINUOUS
 10
-78.2437589219
 20
35.8266504821
 11
-78.3186677357
 21
35.5578345273
  0
LINE
  5
52D
100
AcDbEntity
  8
SUPERFICI
100
AcDbLine
 62
7
  6
CONTINUOUS
 10
-78.2496267459
 20
35.7922506507
 11
-78.1480782036
 21
36.1530466526
  0
LWPOLYLINE
  5
52E
100
AcDbEntity
  8
SUPERFICI
100
AcDbPolyline
 62
7
  6
CONTINUOUS
 90
3
 70
0
 10
-78.045672074
 20
36.5078662579
 10
-78.1522522272
 20
36.1490075236
 10
-78.2437589219
 20
35.8266504821
  0
LINE
  5
52F
100
AcDbEntity
  8
SUPERFICI
100
AcDbLine
 62
7
  6
CONTINUOUS
 10
-78.0666376018
 20
36.4438910663
 11
-77.9407760569
 21
36.8612160959
  0
LINE
  5
530
100
AcDbEntity
  8
SUPERFICI
100
AcDbLine
 62
7
  6
CONTINUOUS
 10
-77.9890213205
 20
36.7053823551
 11
-77.8312829286
 21
37.2190143938
  0
LWPOLYLINE
  5
531
100
AcDbEntity
  8
SUPERFICI
100
AcDbPolyline
 62
250
  6
CONTINUOUS
 90
9
 70
0
 10
-77.2194803198
 20
39.012584345
 10
-77.1884675258
 20
39.1134751856
 10
-77.1470946647
 20
39.2102089921
 10
-77.0957691291
 20
39.3019913138
 10
-77.0348433548
 20
39.3880925667
 10
-76.9646936857
 20
39.4677406988
 10
-76.8862444792
 20
39.539792748
 10
-76.8006831402
 20
39.6030926089
 10
-76.7638987054
 20
39.628408701
  0
LINE
  5
532
100
AcDbEntity
  8
SUPERFICI
100
AcDbLine
 62
7
  6
CONTINUOUS
 10
-77.8444297949
 20
37.1779340382
 11
-77.9208612093
 21
36.9304424691
  0
LINE
  5
533
100
AcDbEntity
  8
SUPERFICI
100
AcDbLine
 62
7
  6
CONTINUOUS
 10
-77.756818686
 20
37.4560691645
 11
-77.8444297949
 21
37.1779340382
  0
LINE
  5
534
100
AcDbEntity
  8
SUPERFICI
100
AcDbLine
 62
7
  6
CONTINUOUS
 10
-80.0942139992
 20
25.2797106289
 11
-80.1567123234
 21
25.0846096672
  0
LINE
  5
535
100
AcDbEntity
  8
SUPERFICI
100
AcDbLine
 62
7
  6
CONTINUOUS
 10
-77.6785258972
 20
37.7007761338
 11
-77.7615856396
 21
37.4410199588
  0
LINE
  5
536
100
AcDbEntity
  8
SUPERFICI
100
AcDbLine
 62
7
  6
CONTINUOUS
 10
-77.5871837151
 20
37.9809988804
 11
-77.6785258972
 21
37.7007761338
  0
LINE
  5
537
100
AcDbEntity
  8
SUPERFICI
100
AcDbLine
 62
7
  6
CONTINUOUS
 10
-80.1653467185
 20
25.0561142279
 11
-80.1024031712
 21
25.2446188117
  0
LINE
  5
538
100
AcDbEntity
  8
SUPERFICI
100
AcDbLine
 62
7
  6
CONTINUOUS
 10
-80.1567123234
 20
25.0846096672
 11
-80.2326132641
 21
24.89319788
  0
LINE
  5
539
100
AcDbEntity
  8
SUPERFICI
100
AcDbLine
 62
7
  6
CONTINUOUS
 10
-80.2408581395
 20
24.8712499806
 11
-80.1653467185
 21
25.0561142279
  0
LWPOLYLINE
  5
53A
100
AcDbEntity
  8
0
100
AcDbPolyline
 62
7
  6
CONTINUOUS
 90
13
 70
0
 43
0.3500000006
 10
-91.3411137085
 20
-1.9285708809
 10
-91.5553981934
 20
-2.2142854156
 10
-92.1982607117
 20
-2.2142854156
 10
-92.6268296814
 20
-1.9285708809
 10
-92.6268296814
 20
-1.2857140274
 10
-92.1982607117
 20
-1.0000006256
 10
-91.5553981934
 20
-1.0000006256
 10
-91.3411137085
 20
-1.2857140274
 10
-90.9125447388
 20
-0.8571427917
 10
-90.0553977356
 20
-0.8571427917
 10
-89.6268287659
 20
-1.2857140274
 10
-89.6268287659
 20
-1.9285708809
 10
-90.0553977356
 20
-2.3571432495
  0
LINE
  5
53B
100
AcDbEntity
  8
SUPERFICI
100
AcDbLine
 62
7
  6
CONTINUOUS
 10
-80.1567123408
 20
-25.084609661
 11
-80.2326132813
 21
-24.8931978738
  0
LINE
  5
53C
100
AcDbEntity
  8
SUPERFICI
100
AcDbLine
 62
7
  6
CONTINUOUS
 10
-77.6785259141
 20
-37.7007761571
 11
-77.5871837318
 21
-37.9809989045
  0
LINE
  5
53D
100
AcDbEntity
  8
SUPERFICI
100
AcDbLine
 62
7
  6
CONTINUOUS
 10
-80.0942140166
 20
-25.2797106227
 11
-80.1567123408
 21
-25.084609661
  0
LINE
  5
53E
100
AcDbEntity
  8
SUPERFICI
100
AcDbLine
 62
7
  6
CONTINUOUS
 10
-77.8116088548
 20
-37.2827486143
 11
-77.6785259141
 21
-37.7007761571
  0
LINE
  5
53F
100
AcDbEntity
  8
SUPERFICI
100
AcDbLine
 62
7
  6
CONTINUOUS
 10
-77.8665551624
 20
-37.1067973229
 11
-77.7615856638
 21
-37.4410199591
  0
LINE
  5
540
100
AcDbEntity
  8
SUPERFICI
100
AcDbLine
 62
7
  6
CONTINUOUS
 10
-77.9890213453
 20
-36.7053823519
 11
-77.8312829543
 21
-37.2190143887
  0
LINE
  5
541
100
AcDbEntity
  8
SUPERFICI
100
AcDbLine
 62
7
  6
CONTINUOUS
 10
-78.0666376266
 20
-36.4438910622
 11
-77.9407760824
 21
-36.8612160907
  0
LINE
  5
542
100
AcDbEntity
  8
SUPERFICI
100
AcDbLine
 62
7
  6
CONTINUOUS
 10
-78.1522522522
 20
-36.1490075185
 11
-78.0456720992
 21
-36.5078662527
  0
LINE
  5
543
100
AcDbEntity
  8
SUPERFICI
100
AcDbLine
 62
7
  6
CONTINUOUS
 10
-78.2437589467
 20
-35.8266504767
 11
-78.1522522522
 21
-36.1490075185
  0
LINE
  5
544
100
AcDbEntity
  8
SUPERFICI
100
AcDbLine
 62
7
  6
CONTINUOUS
 10
-78.2496267706
 20
-35.7922506454
 11
-78.1480782285
 21
-36.1530466473
  0
LWPOLYLINE
  5
545
100
AcDbEntity
  8
SUPERFICI
100
AcDbPolyline
 62
7
  6
CONTINUOUS
 90
5
 70
0
 10
-77.2077980588
 20
-39.0686239325
 10
-77.2110508716
 20
-39.0570104457
 10
-77.2134599423
 20
-39.0474509028
 10
-77.215630557
 20
-39.0372142878
 10
-77.2187534044
 20
-39.0191959945
  0
LINE
  5
546
100
AcDbEntity
  8
SUPERFICI
100
AcDbLine
 62
7
  6
CONTINUOUS
 10
-78.3349512383
 20
-35.4988343197
 11
-78.2437589467
 21
-35.8266504767
  0
LINE
  5
547
100
AcDbEntity
  8
SUPERFICI
100
AcDbLine
 62
7
  6
CONTINUOUS
 10
-78.5516339496
 20
-34.6933477235
 11
-78.2496217473
 21
-35.7922674995
  0
LINE
  5
548
100
AcDbEntity
  8
SUPERFICI
100
AcDbLine
 62
7
  6
CONTINUOUS
 10
-78.4577399128
 20
-35.0463396826
 11
-78.4598780159
 21
-35.0383311878
  0
LINE
  5
549
100
AcDbEntity
  8
SUPERFICI
100
AcDbLine
 62
7
  6
CONTINUOUS
 10
-78.5265557141
 20
-34.7871605365
 11
-78.4610861089
 21
-35.0345544534
  0
LINE
  5
54A
100
AcDbEntity
  8
SUPERFICI
100
AcDbLine
 62
7
  6
CONTINUOUS
 10
-78.5846597797
 20
-34.5632360651
 11
-78.5245650631
 21
-34.7947567168
  0
LINE
  5
54B
100
AcDbEntity
  8
SUPERFICI
100
AcDbLine
 62
7
  6
CONTINUOUS
 10
-78.6333427195
 20
-34.3721216726
 11
-78.5804325243
 21
-34.5796758311
  0
LINE
  5
54C
100
AcDbEntity
  8
SUPERFICI
100
AcDbLine
 62
7
  6
CONTINUOUS
 10
-78.688750199
 20
-34.1503575573
 11
-78.6315953625
 21
-34.3790398189
  0
LINE
  5
54D
100
AcDbEntity
  8
SUPERFICI
100
AcDbLine
 62
7
  6
CONTINUOUS
 10
-78.8186731019
 20
-33.6137724387
 11
-78.5516339496
 21
-34.6933477235
  0
LINE
  5
54E
100
AcDbEntity
  8
SUPERFICI
100
AcDbLine
 62
7
  6
CONTINUOUS
 10
-79.470339249
 20
30.2628322039
 11
-79.5116941724
 21
29.9979924057
  0
LINE
  5
54F
100
AcDbEntity
  8
SUPERFICI
100
AcDbLine
 62
7
  6
CONTINUOUS
 10
-79.4246881243
 20
30.5454021536
 11
-79.470339249
 21
30.2628322039
  0
LINE
  5
550
100
AcDbEntity
  8
SUPERFICI
100
AcDbLine
 62
7
  6
CONTINUOUS
 10
-79.3774970702
 20
30.8275763392
 11
-79.4246881243
 21
30.5454021536
  0
LINE
  5
551
100
AcDbEntity
  8
SUPERFICI
100
AcDbLine
 62
7
  6
CONTINUOUS
 10
-79.4672069086
 20
30.2913114167
 11
-79.2730497096
 21
31.4218368685
  0
LINE
  5
552
100
AcDbEntity
  8
SUPERFICI
100
AcDbLine
 62
7
  6
CONTINUOUS
 10
-80.0102082183
 20
25.6758766205
 11
-80.0454102822
 21
25.4768872937
  0
LINE
  5
553
100
AcDbEntity
  8
SUPERFICI
100
AcDbLine
 62
7
  6
CONTINUOUS
 10
-79.2853981346
 20
31.3520307643
 11
-79.331095808
 21
31.095935748
  0
LWPOLYLINE
  5
554
100
AcDbEntity
  8
SUPERFICI
100
AcDbPolyline
 62
7
  6
CONTINUOUS
 90
4
 70
0
 10
-79.1642397041
 20
31.9905609269
 10
-79.3741628603
 20
30.8448718034
 10
-79.5661095742
 20
29.6339183566
 10
-79.7339035495
 20
28.3893894252
  0
LINE
  5
555
100
AcDbEntity
  8
SUPERFICI
100
AcDbLine
 62
250
  6
CONTINUOUS
 10
-78.1444279312
 20
33.7502537542
 11
-78.2496273624
 21
33.1833279252
  0
LINE
  5
556
100
AcDbEntity
  8
SUPERFICI
100
AcDbLine
 62
7
  6
CONTINUOUS
 10
-79.2086508337
 20
31.7657054665
 11
-79.2853981346
 21
31.3520307643
  0
LWPOLYLINE
  5
557
100
AcDbEntity
  8
SUPERFICI
100
AcDbPolyline
 62
250
  6
CONTINUOUS
 90
4
 70
0
 10
-78.2496273624
 20
33.1833283276
 10
-78.4415637247
 20
32.196143588
 10
-78.645823804
 20
31.1898447272
 10
-79.068970837
 20
29.145454745
  0
LINE
  5
558
100
AcDbEntity
  8
SUPERFICI
100
AcDbLine
 62
7
  6
CONTINUOUS
 10
-79.2730497096
 20
31.4218368685
 11
-79.0579482543
 21
32.5276056227
  0
LINE
  5
559
100
AcDbEntity
  8
SUPERFICI
100
AcDbLine
 62
250
  6
CONTINUOUS
 10
-77.2368615791
 20
36.8860249503
 11
-77.6742870475
 21
34.6535207074
  0
LINE
  5
55A
100
AcDbEntity
  8
SUPERFICI
100
AcDbLine
 62
250
  6
CONTINUOUS
 10
-77.2194568866
 20
39.0122393859
 11
-77.2212696073
 21
39.0031617722
  0
LINE
  5
55B
100
AcDbEntity
  8
SUPERFICI
100
AcDbLine
 62
7
  6
CONTINUOUS
 10
-80.0564153061
 20
25.4127176189
 11
-80.0178982526
 21
25.6056008023
  0
LWPOLYLINE
  5
55C
100
AcDbEntity
  8
SUPERFICI
100
AcDbPolyline
 62
250
  6
CONTINUOUS
 90
6
 70
0
 10
-79.068970837
 20
29.145454745
 10
-79.2737816693
 20
28.1243877118
 10
-79.4675363454
 20
27.1001499685
 10
-79.6508143898
 20
26.0612278298
 10
-79.8250324666
 20
24.9958130867
 10
-79.9935410033
 20
23.8765062943
  0
LINE
  5
55D
100
AcDbEntity
  8
SUPERFICI
100
AcDbLine
 62
250
  6
CONTINUOUS
 10
-77.6742870475
 20
34.6535207074
 11
-78.0135837199
 21
32.9557394227
  0
LWPOLYLINE
  5
55E
100
AcDbEntity
  8
SUPERFICI
100
AcDbPolyline
 62
250
  6
CONTINUOUS
 90
6
 70
0
 10
-79.0841656416
 20
27.8629799818
 10
-79.2853361579
 20
26.8722979595
 10
-79.4760196939
 20
25.8827459624
 10
-79.6573759286
 20
24.8821307638
 10
-79.8307082397
 20
23.859353396
 10
-79.9982902361
 20
22.7948477159
  0
LINE
  5
55F
100
AcDbEntity
  8
SUPERFICI
100
AcDbLine
 62
7
  6
CONTINUOUS
 10
-79.089506351
 20
32.3713269037
 11
-79.1293680344
 21
32.1733896562
  0
LINE
  5
560
100
AcDbEntity
  8
SUPERFICI
100
AcDbLine
 62
250
  6
CONTINUOUS
 10
-77.2198203324
 20
39.010453855
 11
-77.2200934713
 21
39.0091179677
  0
LINE
  5
561
100
AcDbEntity
  8
SUPERFICI
100
AcDbLine
 62
250
  6
CONTINUOUS
 10
-78.0135837199
 20
32.9557394227
 11
-78.2496266849
 21
31.8048124657
  0
LINE
  5
562
100
AcDbEntity
  8
SUPERFICI
100
AcDbLine
 62
7
  6
CONTINUOUS
 10
-79.046083097
 20
32.5819579278
 11
-79.089506351
 21
32.3713269037
  0
LINE
  5
563
100
AcDbEntity
  8
SUPERFICI
100
AcDbLine
 62
250
  6
CONTINUOUS
 10
-77.5652718202
 20
33.0167038842
 11
-77.2353724596
 21
34.5849365757
  0
LWPOLYLINE
  5
564
100
AcDbEntity
  8
SUPERFICI
100
AcDbPolyline
 62
250
  6
CONTINUOUS
 90
3
 70
0
 10
-78.2496266848
 20
31.804813693
 10
-78.6620387945
 20
29.8579508126
 10
-79.0841656416
 20
27.8629799818
  0
LINE
  5
565
100
AcDbEntity
  8
SUPERFICI
100
AcDbLine
 62
7
  6
CONTINUOUS
 10
-79.000902847
 20
32.7958756868
 11
-79.046083097
 21
32.5819579278
  0
LWPOLYLINE
  5
566
100
AcDbEntity
  8
SUPERFICI
100
AcDbPolyline
 62
250
  6
CONTINUOUS
 90
7
 70
0
 10
-77.2298395826
 20
38.4901665143
 10
-77.3633286203
 20
37.8685629126
 10
-77.4883496473
 20
37.2651127887
 10
-77.6065266127
 20
36.6724811708
 10
-77.7180186921
 20
36.0907353646
 10
-77.824943254
 20
35.5143394326
 10
-78.1444279312
 20
33.7502537542
  0
LINE
  5
567
100
AcDbEntity
  8
SUPERFICI
100
AcDbLine
 62
7
  6
CONTINUOUS
 10
-78.9604644091
 20
32.9830494877
 11
-79.000902847
 21
32.7958756868
  0
LINE
  5
568
100
AcDbEntity
  8
SUPERFICI
100
AcDbLine
 62
250
  6
CONTINUOUS
 10
-77.9032386251
 20
31.4536090323
 11
-77.5652718202
 21
33.0167038842
  0
LINE
  5
569
100
AcDbEntity
  8
SUPERFICI
100
AcDbLine
 62
7
  6
CONTINUOUS
 10
-79.0579482543
 20
32.5276056227
 11
-78.8187457147
 21
33.6134619175
  0
LWPOLYLINE
  5
56A
100
AcDbEntity
  8
SUPERFICI
100
AcDbPolyline
 62
250
  6
CONTINUOUS
 90
9
 70
0
 10
-78.4846185455
 20
34.2404493736
 10
-78.7194563997
 20
33.1872151251
 10
-78.9481867358
 20
32.1201554542
 10
-79.1648879656
 20
31.0512999344
 10
-79.3639470156
 20
29.9924628916
 10
-79.5442607764
 20
28.9436323848
 10
-79.7081508394
 20
27.8945533213
 10
-79.8580184868
 20
26.8340878023
 10
-79.9962277644
 20
25.7513559547
  0
LINE
  5
56B
100
AcDbEntity
  8
SUPERFICI
100
AcDbLine
 62
250
  6
CONTINUOUS
 10
-78.1315152239
 20
30.4249424986
 11
-77.9032386251
 21
31.4536090323
  0
LINE
  5
56C
100
AcDbEntity
  8
SUPERFICI
100
AcDbLine
 62
7
  6
CONTINUOUS
 10
-78.8549558146
 20
33.4537956157
 11
-78.8976569753
 21
33.2662081745
  0
LWPOLYLINE
  5
56D
100
AcDbEntity
  8
SUPERFICI
100
AcDbPolyline
 62
250
  6
CONTINUOUS
 90
3
 70
0
 10
-78.8992626756
 20
27.069431053
 10
-78.4648080283
 20
28.9596940838
 10
-78.1315152239
 20
30.4249424986
  0
LINE
  5
56E
100
AcDbEntity
  8
SUPERFICI
100
AcDbLine
 62
7
  6
CONTINUOUS
 10
-78.8084083626
 20
33.6540371121
 11
-78.8549558146
 21
33.4537956157
  0
LINE
  5
56F
100
AcDbEntity
  8
SUPERFICI
100
AcDbLine
 62
250
  6
CONTINUOUS
 10
-77.4515979638
 20
29.8269542124
 11
-77.2335440973
 21
30.7525402267
  0
LINE
  5
570
100
AcDbEntity
  8
SUPERFICI
100
AcDbLine
 62
7
  6
CONTINUOUS
 10
-78.7558802347
 20
33.8750281884
 11
-78.8084083626
 21
33.6540371121
  0
LINE
  5
571
100
AcDbEntity
  8
SUPERFICI
100
AcDbLine
 62
250
  6
CONTINUOUS
 10
-77.676634078
 20
28.8913570466
 11
-77.4515979638
 21
29.8269542124
  0
LINE
  5
572
100
AcDbEntity
  8
SUPERFICI
100
AcDbLine
 62
7
  6
CONTINUOUS
 10
-78.7221138007
 20
34.0144715389
 11
-78.7558802347
 21
33.8750281884
  0
LINE
  5
573
100
AcDbEntity
  8
SUPERFICI
100
AcDbLine
 62
7
  6
CONTINUOUS
 10
-80.0454102822
 20
25.4768872937
 11
-80.0942139992
 21
25.2797106289
  0
LINE
  5
574
100
AcDbEntity
  8
SUPERFICI
100
AcDbLine
 62
250
  6
CONTINUOUS
 10
-77.9020666452
 20
27.9753357527
 11
-77.676634078
 21
28.8913570466
  0
LINE
  5
575
100
AcDbEntity
  8
SUPERFICI
100
AcDbLine
 62
250
  6
CONTINUOUS
 10
-78.1306189772
 20
27.0689280588
 11
-77.9020666452
 21
27.9753357527
  0
LWPOLYLINE
  5
576
100
AcDbEntity
  8
SUPERFICI
100
AcDbPolyline
 62
250
  6
CONTINUOUS
 90
3
 70
0
 10
-78.9426315055
 20
23.9507955834
 10
-78.4864113343
 20
25.6948524795
 10
-78.1306189772
 20
27.0689280588
  0
LWPOLYLINE
  5
577
100
AcDbEntity
  8
SUPERFICI
100
AcDbPolyline
 62
7
  6
CONTINUOUS
 90
3
 70
0
 10
-80.1024031712
 20
25.2446188117
 10
-80.0523191814
 20
25.435287786
 10
-80.0150162093
 20
25.6278822544
  0
LINE
  5
578
100
AcDbEntity
  8
SUPERFICI
100
AcDbLine
 62
7
  6
CONTINUOUS
 10
-80.1064106919
 20
25.2259692722
 11
-80.0564153061
 21
25.4127176189
  0
LWPOLYLINE
  5
579
100
AcDbEntity
  8
SUPERFICI
100
AcDbPolyline
 62
7
  6
CONTINUOUS
 90
4
 70
0
 10
-79.9962277644
 20
25.7513559547
 10
-79.9965834751
 20
25.7500567508
 10
-79.9967386734
 20
25.7497047207
 10
-79.9967189691
 20
25.7500643241
  0
LINE
  5
57A
100
AcDbEntity
  8
SUPERFICI
100
AcDbLine
 62
250
  6
CONTINUOUS
 10
-77.2301857514
 20
24.6106059304
 11
-77.453304198
 21
23.8551002628
  0
LINE
  5
57B
100
AcDbEntity
  8
SUPERFICI
100
AcDbLine
 62
250
  6
CONTINUOUS
 10
-77.453304198
 20
23.8551002628
 11
-77.6835777941
 21
23.0925268099
  0
LINE
  5
57C
100
AcDbEntity
  8
SUPERFICI
100
AcDbLine
 62
250
  6
CONTINUOUS
 10
-77.6835777941
 20
23.0925268099
 11
-77.9120916435
 21
22.3542868908
  0
LWPOLYLINE
  5
57D
100
AcDbEntity
  8
SUPERFICI
100
AcDbPolyline
 62
250
  6
CONTINUOUS
 90
3
 70
0
 10
-77.9120916435
 20
22.3542868908
 10
-78.1353515251
 20
21.6508356494
 10
-78.2496263294
 20
21.2966164215
  0
LINE
  5
57E
100
AcDbEntity
  8
SUPERFICI
100
AcDbLine
 62
250
  6
CONTINUOUS
 10
-79.0394998415
 20
18.8995546137
 11
-78.2496264563
 21
21.2966196643
  0
LINE
  5
57F
100
AcDbEntity
  8
SUPERFICI
100
AcDbLine
 62
250
  6
CONTINUOUS
 10
-78.0233597441
 20
-22.001630242
 11
-78.2496263442
 21
-21.2966164157
  0
LINE
  5
580
100
AcDbEntity
  8
SUPERFICI
100
AcDbLine
 62
250
  6
CONTINUOUS
 10
-77.7990071302
 20
-22.7172365111
 11
-78.0233597441
 21
-22.001630242
  0
LINE
  5
581
100
AcDbEntity
  8
SUPERFICI
100
AcDbLine
 62
250
  6
CONTINUOUS
 10
-77.5677644089
 20
-23.4738245023
 11
-77.7990071302
 21
-22.7172365111
  0
LWPOLYLINE
  5
582
100
AcDbEntity
  8
SUPERFICI
100
AcDbPolyline
 62
250
  6
CONTINUOUS
 90
3
 70
0
 10
-77.2301857684
 20
-24.6106059252
 10
-77.340418107
 20
-24.2353114229
 10
-77.5677644089
 20
-23.4738245023
  0
LWPOLYLINE
  5
583
100
AcDbEntity
  8
SUPERFICI
100
AcDbPolyline
 62
7
  6
CONTINUOUS
 90
4
 70
0
 10
-79.9962277821
 20
-25.7513559481
 10
-79.9965834928
 20
-25.7500567441
 10
-79.9967386912
 20
-25.749704714
 10
-79.99671902
 20
-25.7500640353
  0
LINE
  5
584
100
AcDbEntity
  8
SUPERFICI
100
AcDbLine
 62
7
  6
CONTINUOUS
 10
-80.1063960938
 20
-25.2260184593
 11
-80.0564138906
 21
-25.4127175654
  0
LINE
  5
585
100
AcDbEntity
  8
SUPERFICI
100
AcDbLine
 62
250
  6
CONTINUOUS
 10
-78.9426315221
 20
-23.9507955772
 11
-78.2496295683
 21
-26.6049916328
  0
LINE
  5
586
100
AcDbEntity
  8
SUPERFICI
100
AcDbLine
 62
250
  6
CONTINUOUS
 10
-78.2496295683
 20
-26.6049327901
 11
-78.0152557828
 21
-27.5237375149
  0
LINE
  5
587
100
AcDbEntity
  8
SUPERFICI
100
AcDbLine
 62
7
  6
CONTINUOUS
 10
-80.0454102998
 20
-25.4768872876
 11
-80.0942140166
 21
-25.2797106227
  0
LINE
  5
588
100
AcDbEntity
  8
SUPERFICI
100
AcDbLine
 62
250
  6
CONTINUOUS
 10
-78.0152557828
 20
-27.5237375149
 11
-77.7894740339
 21
-28.4300805188
  0
LINE
  5
589
100
AcDbEntity
  8
SUPERFICI
100
AcDbLine
 62
250
  6
CONTINUOUS
 10
-77.7894740339
 20
-28.4300805188
 11
-77.5636786489
 21
-29.3584481246
  0
LINE
  5
58A
100
AcDbEntity
  8
SUPERFICI
100
AcDbLine
 62
7
  6
CONTINUOUS
 10
-78.7715537246
 20
-33.8096193697
 11
-78.7153595414
 21
-34.0421297658
  0
LWPOLYLINE
  5
58B
100
AcDbEntity
  8
SUPERFICI
100
AcDbPolyline
 62
250
  6
CONTINUOUS
 90
3
 70
0
 10
-77.5636786489
 20
-29.3584481246
 10
-77.341232049
 20
-30.2930863378
 10
-77.2335441186
 20
-30.7525402215
  0
LINE
  5
58C
100
AcDbEntity
  8
SUPERFICI
100
AcDbLine
 62
7
  6
CONTINUOUS
 10
-78.8171011341
 20
-33.6169658249
 11
-78.7636674712
 21
-33.8425856764
  0
LINE
  5
58D
100
AcDbEntity
  8
SUPERFICI
100
AcDbLine
 62
250
  6
CONTINUOUS
 10
-78.0373134416
 20
-36.1756661759
 11
-78.2496276611
 21
-35.2675155013
  0
LINE
  5
58E
100
AcDbEntity
  8
SUPERFICI
100
AcDbLine
 62
7
  6
CONTINUOUS
 10
-78.8628676947
 20
-33.4193266589
 11
-78.8156760074
 21
-33.6230534597
  0
LWPOLYLINE
  5
58F
100
AcDbEntity
  8
SUPERFICI
100
AcDbPolyline
 62
250
  6
CONTINUOUS
 90
10
 70
0
 10
-78.2496228206
 20
-35.2675307377
 10
-78.4846185691
 20
-34.2404493678
 10
-78.7194564226
 20
-33.1872151192
 10
-78.948186758
 20
-32.1201554481
 10
-79.164887987
 20
-31.0512999282
 10
-79.3639470363
 20
-29.9924628852
 10
-79.5442607964
 20
-28.9436323783
 10
-79.7081508587
 20
-27.8945533148
 10
-79.8580185053
 20
-26.8340877957
 10
-79.9906379772
 20
-25.8214714219
  0
LINE
  5
590
100
AcDbEntity
  8
SUPERFICI
100
AcDbLine
 62
250
  6
CONTINUOUS
 10
-78.8992626943
 20
-27.0694310468
 11
-78.2496289774
 21
-29.9008601018
  0
LINE
  5
591
100
AcDbEntity
  8
SUPERFICI
100
AcDbLine
 62
7
  6
CONTINUOUS
 10
-78.911526613
 20
-33.204439357
 11
-78.8628429492
 21
-33.4194346668
  0
LINE
  5
592
100
AcDbEntity
  8
SUPERFICI
100
AcDbLine
 62
250
  6
CONTINUOUS
 10
-78.2496300371
 20
-29.9011371483
 11
-78.0164498051
 21
-30.9406748968
  0
LINE
  5
593
100
AcDbEntity
  8
SUPERFICI
100
AcDbLine
 62
7
  6
CONTINUOUS
 10
-79.0578548539
 20
-32.5280569676
 11
-78.8186731019
 21
-33.6137724387
  0
LINE
  5
594
100
AcDbEntity
  8
SUPERFICI
100
AcDbLine
 62
250
  6
CONTINUOUS
 10
-78.0164498051
 20
-30.9406748968
 11
-77.7906533411
 21
-31.9691124172
  0
LINE
  5
595
100
AcDbEntity
  8
SUPERFICI
100
AcDbLine
 62
250
  6
CONTINUOUS
 10
-77.7906533411
 20
-31.9691124172
 11
-77.4533445465
 21
-33.5442740814
  0
LINE
  5
596
100
AcDbEntity
  8
SUPERFICI
100
AcDbLine
 62
7
  6
CONTINUOUS
 10
-79.0294567244
 20
-32.6612855281
 11
-78.9841687827
 21
-32.8738104732
  0
LINE
  5
597
100
AcDbEntity
  8
SUPERFICI
100
AcDbLine
 62
250
  6
CONTINUOUS
 10
-77.4533445465
 20
-33.5442740814
 11
-77.2353724835
 21
-34.5849365705
  0
LWPOLYLINE
  5
598
100
AcDbEntity
  8
SUPERFICI
100
AcDbPolyline
 62
7
  6
CONTINUOUS
 90
4
 70
0
 10
-79.1719723663
 20
-31.9527400552
 10
-78.9523500492
 20
-33.0101777353
 10
-78.7250945293
 20
-33.9860086798
 10
-78.4903198675
 20
-34.907033339
  0
LWPOLYLINE
  5
599
100
AcDbEntity
  8
SUPERFICI
100
AcDbPolyline
 62
250
  6
CONTINUOUS
 90
7
 70
0
 10
-78.6458238255
 20
-31.1898447212
 10
-79.0689708572
 20
-29.1454547388
 10
-79.2737816887
 20
-28.1243877055
 10
-79.4675363641
 20
-27.100149962
 10
-79.6508144078
 20
-26.0612278233
 10
-79.8250324838
 20
-24.99581308
 10
-79.9935410198
 20
-23.8765062876
  0
LINE
  5
59A
100
AcDbEntity
  8
SUPERFICI
100
AcDbLine
 62
7
  6
CONTINUOUS
 10
-79.0690324457
 20
-32.471270833
 11
-79.0247457631
 21
-32.6836329139
  0
LINE
  5
59B
100
AcDbEntity
  8
SUPERFICI
100
AcDbLine
 62
250
  6
CONTINUOUS
 10
-78.0135837427
 20
-32.955739417
 11
-78.2496267068
 21
-31.80481246
  0
LINE
  5
59C
100
AcDbEntity
  8
SUPERFICI
100
AcDbLine
 62
7
  6
CONTINUOUS
 10
-79.1115429627
 20
-32.2624593734
 11
-79.0690324457
 21
-32.471270833
  0
LINE
  5
59D
100
AcDbEntity
  8
SUPERFICI
100
AcDbLine
 62
7
  6
CONTINUOUS
 10
-80.0564138906
 20
-25.4127175654
 11
-80.0179040351
 21
-25.6055647043
  0
LINE
  5
59E
100
AcDbEntity
  8
SUPERFICI
100
AcDbLine
 62
250
  6
CONTINUOUS
 10
-77.5628219918
 20
-35.2184996298
 11
-78.0135837427
 21
-32.955739417
  0
LINE
  5
59F
100
AcDbEntity
  8
SUPERFICI
100
AcDbLine
 62
7
  6
CONTINUOUS
 10
-79.1525882828
 20
-32.0559709258
 11
-79.1096561302
 21
-32.271834397
  0
LINE
  5
5A0
100
AcDbEntity
  8
SUPERFICI
100
AcDbLine
 62
7
  6
CONTINUOUS
 10
-79.2729449765
 20
-31.4224100245
 11
-79.0578548539
 21
-32.5280569676
  0
LINE
  5
5A1
100
AcDbEntity
  8
SUPERFICI
100
AcDbLine
 62
250
  6
CONTINUOUS
 10
-77.2368616046
 20
-36.8860249451
 11
-77.5628219918
 21
-35.2184996298
  0
LWPOLYLINE
  5
5A2
100
AcDbEntity
  8
SUPERFICI
100
AcDbPolyline
 62
250
  6
CONTINUOUS
 90
3
 70
0
 10
-78.2496273854
 20
-33.1833283218
 10
-78.4415637469
 20
-32.1961435821
 10
-78.6458238255
 20
-31.1898447212
  0
LWPOLYLINE
  5
5A3
100
AcDbEntity
  8
SUPERFICI
100
AcDbPolyline
 62
7
  6
CONTINUOUS
 90
3
 70
0
 10
-80.0154201446
 20
-25.6244391468
 10
-80.0531464919
 20
-25.4291766669
 10
-80.1035843241
 20
-25.2365463779
  0
LWPOLYLINE
  5
5A4
100
AcDbEntity
  8
SUPERFICI
100
AcDbPolyline
 62
250
  6
CONTINUOUS
 90
5
 70
0
 10
-77.71314014
 20
-36.1166493031
 10
-77.6012438276
 20
-36.6994778618
 10
-77.4838031025
 20
-37.2874433228
 10
-77.3604815064
 20
-37.8820556313
 10
-77.2298402369
 20
-38.4901651034
  0
LINE
  5
5A5
100
AcDbEntity
  8
SUPERFICI
100
AcDbLine
 62
7
  6
CONTINUOUS
 10
-79.2594616017
 20
-31.4939666638
 11
-79.2066783154
 21
-31.7760866213
  0
LINE
  5
5A6
100
AcDbEntity
  8
SUPERFICI
100
AcDbLine
 62
7
  6
CONTINUOUS
 10
-79.3805200707
 20
-30.8025967145
 11
-79.1719723663
 21
-31.9527400552
  0
LWPOLYLINE
  5
5A7
100
AcDbEntity
  8
SUPERFICI
100
AcDbPolyline
 62
250
  6
CONTINUOUS
 90
4
 70
0
 10
-78.2496273853
 20
-33.183327406
 10
-78.0366624142
 20
-34.3445668238
 10
-77.9288325017
 20
-34.9427827734
 10
-77.71314014
 20
-36.1166493031
  0
LINE
  5
5A8
100
AcDbEntity
  8
SUPERFICI
100
AcDbLine
 62
7
  6
CONTINUOUS
 10
-80.010208236
 20
-25.6758766144
 11
-80.0454102998
 21
-25.4768872876
  0
LINE
  5
5A9
100
AcDbEntity
  8
SUPERFICI
100
AcDbLine
 62
7
  6
CONTINUOUS
 10
-79.4671009613
 20
-30.291969747
 11
-79.2729449765
 21
-31.4224100245
  0
LINE
  5
5AA
100
AcDbEntity
  8
SUPERFICI
100
AcDbLine
 62
7
  6
CONTINUOUS
 10
-79.9961622178
 20
-25.7545323834
 11
-79.9957898671
 21
-25.757960881
  0
LINE
  5
5AB
100
AcDbEntity
  8
SUPERFICI
100
AcDbLine
 62
7
  6
CONTINUOUS
 10
-79.9887362676
 20
-25.8757970267
 11
-80.010208236
 21
-25.6758766144
  0
LINE
  5
5AC
100
AcDbEntity
  8
SUPERFICI
100
AcDbLine
 62
7
  6
CONTINUOUS
 10
-79.9957898671
 20
-25.757960881
 11
-79.9953750319
 21
-25.7620202788
  0
LINE
  5
5AD
100
AcDbEntity
  8
SUPERFICI
100
AcDbLine
 62
7
  6
CONTINUOUS
 10
-79.9953750319
 20
-25.7620202788
 11
-79.9938573249
 21
-25.777889561
  0
LWPOLYLINE
  5
5AE
100
AcDbEntity
  8
SUPERFICI
100
AcDbPolyline
 62
7
  6
CONTINUOUS
 90
5
 70
0
 10
-79.9888792611
 20
-25.8617701765
 10
-79.8767275817
 20
-27.1048244571
 10
-79.7362954515
 20
-28.3547915447
 10
-79.5702863169
 20
-29.5919666455
 10
-79.3805200707
 20
-30.8025967145
  0
LWPOLYLINE
  5
5AF
100
AcDbEntity
  8
SUPERFICI
100
AcDbPolyline
 62
7
  6
CONTINUOUS
 90
3
 70
0
 10
-79.9938573249
 20
-25.777889561
 10
-79.993202073
 20
-25.7852519284
 10
-79.9929324895
 20
-25.7884335777
  0
LWPOLYLINE
  5
5B0
100
AcDbEntity
  8
SUPERFICI
100
AcDbPolyline
 62
7
  6
CONTINUOUS
 90
5
 70
0
 10
-79.9887362822
 20
-25.8757970157
 10
-79.9021282412
 20
-26.9050103051
 10
-79.785649712
 20
-28.0024322928
 10
-79.6393701146
 20
-29.144601183
 10
-79.4671009613
 20
-30.291969747
  0
LINE
  5
5B1
100
AcDbEntity
  8
SUPERFICI
100
AcDbLine
 62
7
  6
CONTINUOUS
 10
-79.9926942281
 20
-25.7913216724
 11
-79.9924850167
 21
-25.7939380493
  0
LINE
  5
5B2
100
AcDbEntity
  8
SUPERFICI
100
AcDbLine
 62
7
  6
CONTINUOUS
 10
-79.9908887933
 20
-25.818191263
 11
-79.9905837129
 21
-25.822045938
  0
LINE
  5
5B3
100
AcDbEntity
  8
SUPERFICI
100
AcDbLine
 62
7
  6
CONTINUOUS
 10
-79.9923036252
 20
-25.7962848131
 11
-79.9921515789
 21
-25.7983473514
  0
LINE
  5
5B4
100
AcDbEntity
  8
SUPERFICI
100
AcDbLine
 62
7
  6
CONTINUOUS
 10
-79.9889829744
 20
-25.8602988852
 11
-79.9888792611
 21
-25.8617701765
  0
LINE
  5
5B5
100
AcDbEntity
  8
SUPERFICI
100
AcDbLine
 62
7
  6
CONTINUOUS
 10
-79.9921515789
 20
-25.7983473514
 11
-79.9920311553
 21
-25.8001251032
  0
LINE
  5
5B6
100
AcDbEntity
  8
SUPERFICI
100
AcDbLine
 62
7
  6
CONTINUOUS
 10
-79.9920311553
 20
-25.8001251032
 11
-79.9908887933
 21
-25.818191263
  0
LWPOLYLINE
  5
5B7
100
AcDbEntity
  8
0
100
AcDbPolyline
 62
7
  6
CONTINUOUS
 90
15
 70
0
 10
-80.8670546269
 20
23.5706505392
 10
-80.8656055917
 20
23.6094178548
 10
-80.8617375977
 20
23.6584112243
 10
-80.8555947859
 20
23.7074012639
 10
-80.8471837462
 20
23.7562460443
 10
-80.8365370176
 20
23.8047164553
 10
-80.8236741599
 20
23.8527014688
 10
-80.8086172211
 20
23.9000798008
 10
-80.7914350951
 20
23.9466142533
 10
-80.7721584478
 20
23.9922111897
 10
-80.7508304304
 20
24.0367460861
 10
-80.727578227
 20
24.0799542881
 10
-80.7024934652
 20
24.1216932416
 10
-80.6756066487
 20
24.1619300032
 10
-80.6469747655
 20
24.2005813539
  0
LINE
  5
5B8
100
AcDbEntity
  8
SUPERFICI
100
AcDbLine
 62
7
  6
CONTINUOUS
 10
-79.9920311375
 20
25.8001251099
 11
-79.9908887755
 21
25.8181912696
  0
LINE
  5
5B9
100
AcDbEntity
  8
SUPERFICI
100
AcDbLine
 62
7
  6
CONTINUOUS
 10
-79.9921515611
 20
25.798347358
 11
-79.9920311375
 21
25.8001251099
  0
LINE
  5
5BA
100
AcDbEntity
  8
SUPERFICI
100
AcDbLine
 62
7
  6
CONTINUOUS
 10
-79.9889829565
 20
25.8602988916
 11
-79.9888792432
 21
25.8617701829
  0
LINE
  5
5BB
100
AcDbEntity
  8
SUPERFICI
100
AcDbLine
 62
7
  6
CONTINUOUS
 10
-79.9923036074
 20
25.7962848198
 11
-79.9921515611
 21
25.798347358
  0
LINE
  5
5BC
100
AcDbEntity
  8
SUPERFICI
100
AcDbLine
 62
7
  6
CONTINUOUS
 10
-79.9908887755
 20
25.8181912696
 11
-79.9905836951
 21
25.8220459446
  0
LINE
  5
5BD
100
AcDbEntity
  8
SUPERFICI
100
AcDbLine
 62
7
  6
CONTINUOUS
 10
-79.9926942103
 20
25.7913216791
 11
-79.9924849989
 21
25.793938056
  0
LWPOLYLINE
  5
5BE
100
AcDbEntity
  8
SUPERFICI
100
AcDbPolyline
 62
7
  6
CONTINUOUS
 90
3
 70
0
 10
-79.9887997477
 20
25.8749234063
 10
-79.9022086303
 20
26.9041650354
 10
-79.7857428427
 20
28.0016356817
  0
LINE
  5
5BF
100
AcDbEntity
  8
SUPERFICI
100
AcDbLine
 62
7
  6
CONTINUOUS
 10
-79.9938573071
 20
25.7778895676
 11
-79.9932020552
 21
25.7852519351
  0
LWPOLYLINE
  5
5C0
100
AcDbEntity
  8
SUPERFICI
100
AcDbPolyline
 62
7
  6
CONTINUOUS
 90
3
 70
0
 10
-79.9957903483
 20
25.7579560051
 10
-79.9953750142
 20
25.7620202854
 10
-79.9938573071
 20
25.7778895676
  0
LINE
  5
5C1
100
AcDbEntity
  8
SUPERFICI
100
AcDbLine
 62
7
  6
CONTINUOUS
 10
-79.9887362497
 20
25.8757970327
 11
-80.0102082183
 21
25.6758766205
  0
LINE
  5
5C2
100
AcDbEntity
  8
SUPERFICI
100
AcDbLine
 62
7
  6
CONTINUOUS
 10
-79.996162499
 20
25.7545297868
 11
-79.9957903483
 21
25.7579560051
  0
LWPOLYLINE
  5
5C3
100
AcDbEntity
  8
SUPERFICI
100
AcDbPolyline
 62
7
  6
CONTINUOUS
 90
3
 70
0
 10
-79.7339035495
 20
28.3893894252
 10
-79.8754420189
 20
27.1248488546
 10
-79.9888172243
 20
25.8626127166
  0
LINE
  5
5C4
100
AcDbEntity
  8
SUPERFICI
100
AcDbLine
 62
7
  6
CONTINUOUS
 10
-79.9941948654
 20
25.771574236
 11
-79.9963713703
 21
25.7530161745
  0
LINE
  5
5C5
100
AcDbEntity
  8
SUPERFICI
100
AcDbLine
 62
7
  6
CONTINUOUS
 10
-79.7328023181
 20
28.3994640797
 11
-79.7618622455
 21
28.1597062807
  0
LINE
  5
5C6
100
AcDbEntity
  8
SUPERFICI
100
AcDbLine
 62
7
  6
CONTINUOUS
 10
-80.0150162093
 20
25.6278822544
 11
-79.9906266118
 21
25.8215944576
  0
LINE
  5
5C7
100
AcDbEntity
  8
SUPERFICI
100
AcDbLine
 62
7
  6
CONTINUOUS
 10
-79.7857428427
 20
28.0016356817
 11
-79.6394715295
 21
29.1438725665
  0
LINE
  5
5C8
100
AcDbEntity
  8
SUPERFICI
100
AcDbLine
 62
7
  6
CONTINUOUS
 10
-80.0178982526
 20
25.6056008023
 11
-79.9920165572
 21
25.8003686079
  0
LINE
  5
5C9
100
AcDbEntity
  8
SUPERFICI
100
AcDbLine
 62
7
  6
CONTINUOUS
 10
-79.6306080416
 20
29.1819451958
 11
-79.6666687002
 21
28.9156862448
  0
LINE
  5
5CA
100
AcDbEntity
  8
SUPERFICI
100
AcDbLine
 62
7
  6
CONTINUOUS
 10
-79.5917273986
 20
29.4585410474
 11
-79.6306080416
 21
29.1819451958
  0
LINE
  5
5CB
100
AcDbEntity
  8
SUPERFICI
100
AcDbLine
 62
7
  6
CONTINUOUS
 10
-79.5580458835
 20
29.6901813674
 11
-79.5917273986
 21
29.4585410474
  0
LINE
  5
5CC
100
AcDbEntity
  8
SUPERFICI
100
AcDbLine
 62
7
  6
CONTINUOUS
 10
-79.6394715295
 20
29.1438725665
 11
-79.4672069086
 21
30.2913114167
  0
LWPOLYLINE
  5
5CD
100
AcDbEntity
  8
SUPERFICI
100
AcDbPolyline
 62
250
  6
CONTINUOUS
 90
7
 70
0
 10
-79.9998398693
 20
21.3756849069
 10
-79.8479585873
 20
22.3387669131
 10
-79.6824787421
 20
23.293057586
 10
-79.5038583358
 20
24.2416083623
 10
-79.3130775999
 20
25.1849118749
 10
-79.1108023759
 20
26.1259944406
 10
-78.8992626756
 20
27.069431053
  0
LWPOLYLINE
  5
5CE
100
AcDbEntity
  8
SUPERFICI
100
AcDbPolyline
 62
250
  6
CONTINUOUS
 90
7
 70
0
 10
-79.9946734708
 20
19.0298095002
 10
-79.8720893072
 20
19.7769000027
 10
-79.7247361635
 20
20.5674813066
 10
-79.5550239412
 20
21.3905993575
 10
-79.3653188098
 20
22.2376250088
 10
-79.1595198421
 20
23.0944639812
 10
-78.9426315055
 20
23.9507955834
  0
LWPOLYLINE
  5
5CF
100
AcDbEntity
  8
SUPERFICI
100
AcDbPolyline
 62
250
  6
CONTINUOUS
 90
5
 70
0
 10
-77.2212696073
 20
39.0031617722
 10
-77.2227918204
 20
38.9939777424
 10
-77.2235939538
 20
38.9860770545
 10
-77.2237286115
 20
38.9790315136
 10
-77.2246469764
 20
38.9552378517
  0
LWPOLYLINE
  5
5D0
100
AcDbEntity
  8
SUPERFICI
100
AcDbPolyline
 62
7
  6
CONTINUOUS
 90
3
 70
0
 10
-77.21563053
 20
39.037214293
 10
-77.2187533775
 20
39.0191959997
 10
-77.2198332995
 20
39.0126714715
  0
LWPOLYLINE
  5
5D1
100
AcDbEntity
  8
SUPERFICI
100
AcDbPolyline
 62
250
  6
CONTINUOUS
 90
7
 70
0
 10
-79.9924687929
 20
15.2351206406
 10
-79.911564147
 20
15.6898821902
 10
-79.7970763713
 20
16.2229065489
 10
-79.6487301445
 20
16.8273038051
 10
-79.4690493799
 20
17.4885542982
 10
-79.2639031208
 20
18.1857169241
 10
-79.0394998415
 20
18.8995546137
  0
LWPOLYLINE
  5
5D2
100
AcDbEntity
  8
SUPERFICI
100
AcDbPolyline
 62
250
  6
CONTINUOUS
 90
8
 70
0
 10
-79.9924688034
 20
-15.2351206338
 10
-79.9115641578
 20
-15.6898821835
 10
-79.7970763825
 20
-16.2229065422
 10
-79.6487301561
 20
-16.8273037984
 10
-79.4690493921
 20
-17.4885542916
 10
-79.2639031334
 20
-18.1857169176
 10
-79.0394998546
 20
-18.8995546073
 10
-78.249626471
 20
-21.2966196585
  0
LINE
  5
5D3
100
AcDbEntity
  8
SUPERFICI
100
AcDbLine
 62
250
  6
CONTINUOUS
 10
-77.2207683059
 20
-39.005470197
 11
-77.2211709806
 21
-39.0031384053
  0
LWPOLYLINE
  5
5D4
100
AcDbEntity
  8
SUPERFICI
100
AcDbPolyline
 62
250
  6
CONTINUOUS
 90
5
 70
0
 10
-77.2212696342
 20
-39.0031617671
 10
-77.2227918473
 20
-38.9939777372
 10
-77.2235939808
 20
-38.9860770494
 10
-77.2237286384
 20
-38.9790315084
 10
-77.2246470033
 20
-38.9552378465
  0
LINE
  5
5D5
100
AcDbEntity
  8
SUPERFICI
100
AcDbLine
 62
7
  6
CONTINUOUS
 10
-77.2187534044
 20
-39.0191959945
 11
-77.2198333264
 21
-39.0126714663
  0
LWPOLYLINE
  5
5D6
100
AcDbEntity
  8
SUPERFICI
100
AcDbPolyline
 62
250
  6
CONTINUOUS
 90
7
 70
0
 10
-79.9946734839
 20
-19.0298094934
 10
-79.8720893209
 20
-19.776899996
 10
-79.7247361777
 20
-20.5674812999
 10
-79.5550239559
 20
-21.390599351
 10
-79.3653188251
 20
-22.2376250023
 10
-79.1595198581
 20
-23.0944639748
 10
-78.9426315221
 20
-23.9507955772
  0
LWPOLYLINE
  5
5D7
100
AcDbEntity
  8
SUPERFICI
100
AcDbPolyline
 62
250
  6
CONTINUOUS
 90
7
 70
0
 10
-79.9998398841
 20
-21.3756849002
 10
-79.8479586027
 20
-22.3387669065
 10
-79.6824787582
 20
-23.2930575794
 10
-79.5038583525
 20
-24.2416083558
 10
-79.3130776173
 20
-25.1849118685
 10
-79.1108023939
 20
-26.1259944343
 10
-78.8992626943
 20
-27.0694310468
  0
LWPOLYLINE
  5
5D8
100
AcDbEntity
  8
SUPERFICI
100
AcDbPolyline
 62
250
  6
CONTINUOUS
 90
7
 70
0
 10
-79.9982901882
 20
-22.7948480543
 10
-79.8305295968
 20
-23.8604377285
 10
-79.6570419766
 20
-24.8840498395
 10
-79.4755466106
 20
-25.8852941135
 10
-79.2847467721
 20
-26.8752743121
 10
-79.0835137486
 20
-27.8661228258
 10
-78.2496339355
 20
-31.8047794264
  0
LINE
  5
5D9
100
AcDbEntity
  8
SUPERFICI
100
AcDbLine
 62
7
  6
CONTINUOUS
 10
-79.9920407654
 20
-25.8001260539
 11
-80.0179267582
 21
-25.6053937653
  0
LINE
  5
5DA
100
AcDbEntity
  8
SUPERFICI
100
AcDbLine
 62
250
  6
CONTINUOUS
 10
-79.9933027409
 20
-25.8002850397
 11
-79.9962277821
 21
-25.7513559481
  0
LINE
  5
5DB
100
AcDbEntity
  8
SUPERFICI
100
AcDbLine
 62
7
  6
CONTINUOUS
 10
-79.9906379772
 20
-25.8214714219
 11
-80.0154201446
 21
-25.6244391468
  0
LINE
  5
5DC
100
AcDbEntity
  8
SUPERFICI
100
AcDbLine
 62
7
  6
CONTINUOUS
 10
-79.99671902
 20
-25.7500640353
 11
-79.9941958002
 21
-25.7715663502
  0
LINE
  5
5DD
100
AcDbEntity
  8
SUPERFICI
100
AcDbLine
 62
7
  6
CONTINUOUS
 10
-79.9894625192
 20
-25.8490027161
 11
-79.9894108012
 21
-25.8501125091
  0
LWPOLYLINE
  5
5DE
100
AcDbEntity
  8
SUPERFICI
100
AcDbPolyline
 62
7
  6
CONTINUOUS
 90
4
 70
0
 10
-79.9891683921
 20
-25.8570459342
 10
-79.9891284597
 20
-25.8579109338
 10
-79.9890655323
 20
-25.8590138098
 10
-79.9889829744
 20
-25.8602988852
  0
LINE
  5
5DF
100
AcDbEntity
  8
SUPERFICI
100
AcDbLine
 62
7
  6
CONTINUOUS
 10
-79.9904442198
 20
-25.8253499134
 11
-79.9900873759
 21
-25.8330594968
  0
LINE
  5
5E0
100
AcDbEntity
  8
SUPERFICI
100
AcDbLine
 62
7
  6
CONTINUOUS
 10
-79.9900059504
 20
-25.8348307348
 11
-79.9897782724
 21
-25.8406193459
  0
LINE
  5
5E1
100
AcDbEntity
  8
SUPERFICI
100
AcDbLine
 62
7
  6
CONTINUOUS
 10
-79.9896001707
 20
-25.8458194473
 11
-79.9895589101
 21
-25.8468487917
  0
LINE
  5
5E2
100
AcDbEntity
  8
SUPERFICI
100
AcDbLine
 62
7
  6
CONTINUOUS
 10
-79.9899329577
 20
-25.8366064772
 11
-79.9898766193
 21
-25.8381819626
  0
LWPOLYLINE
  5
5E3
100
AcDbEntity
  8
SUPERFICI
100
AcDbPolyline
 62
7
  6
CONTINUOUS
 90
3
 70
0
 10
-79.9905837129
 20
-25.822045938
 10
-79.9905651296
 20
-25.8225710715
 10
-79.9905359022
 20
-25.8232926337
  0
LINE
  5
5E4
100
AcDbEntity
  8
SUPERFICI
100
AcDbLine
 62
7
  6
CONTINUOUS
 10
-79.9893662143
 20
-25.8511107955
 11
-79.9892622976
 21
-25.8541141107
  0
LINE
  5
5E5
100
AcDbEntity
  8
SUPERFICI
100
AcDbLine
 62
7
  6
CONTINUOUS
 10
-79.9896710619
 20
-25.8437786999
 11
-79.9896378528
 21
-25.8447926417
  0
LINE
  5
5E6
100
AcDbEntity
  8
SUPERFICI
100
AcDbLine
 62
7
  6
CONTINUOUS
 10
-79.9887640443
 20
-25.8680412568
 11
-79.9887147704
 21
-25.8696435767
  0
LINE
  5
5E7
100
AcDbEntity
  8
SUPERFICI
100
AcDbLine
 62
7
  6
CONTINUOUS
 10
-79.9892119004
 20
-25.8556623993
 11
-79.9891911489
 21
-25.8563565732
  0
LINE
  5
5E8
100
AcDbEntity
  8
SUPERFICI
100
AcDbLine
 62
7
  6
CONTINUOUS
 10
-79.9887093034
 20
25.8752891022
 11
-79.9887185419
 21
25.8756942944
  0
LINE
  5
5E9
100
AcDbEntity
  8
0
100
AcDbLine
 62
7
  6
CONTINUOUS
 10
-80.8670546433
 20
-23.5706505249
 11
-80.8670562613
 21
-23.5705649546
  0
LWPOLYLINE
  5
5EA
100
AcDbEntity
  8
SUPERFICI
100
AcDbPolyline
 62
250
  6
CONTINUOUS
 90
5
 70
0
 10
-79.9900576916
 20
25.6466885085
 10
-79.9909722414
 20
25.70282787
 10
-79.9922604955
 20
25.7390422743
 10
-79.9939897945
 20
25.755252751
 10
-79.9962255128
 20
25.7513556905
  0
LINE
  5
5EB
100
AcDbEntity
  8
SUPERFICI
100
AcDbLine
 62
250
  6
CONTINUOUS
 10
-80.6521727343
 20
24.19655133
 11
-80.6522944987
 21
24.2048018209
  0
LWPOLYLINE
  5
5EC
100
AcDbEntity
  8
SUPERFICI
100
AcDbPolyline
 62
7
  6
CONTINUOUS
 90
5
 70
0
 10
-79.9888172243
 20
25.8626127166
 10
-79.9888272995
 20
25.8637940139
 10
-79.9888216013
 20
25.86509949
 10
-79.9888026132
 20
25.866477594
 10
-79.9887640264
 20
25.8680412632
  0
LINE
  5
5ED
100
AcDbEntity
  8
SUPERFICI
100
AcDbLine
 62
250
  6
CONTINUOUS
 10
-79.9891009543
 20
25.4753307334
 11
-79.9900576916
 21
25.6466885085
  0
LWPOLYLINE
  5
5EE
100
AcDbEntity
  8
SUPERFICI
100
AcDbPolyline
 62
7
  6
CONTINUOUS
 90
7
 70
0
 10
-79.988639485
 20
-25.8724402422
 10
-79.9886382294
 20
-25.8728228259
 10
-79.9886499161
 20
-25.8729890539
 10
-79.9886658027
 20
-25.8730694103
 10
-79.988678918
 20
-25.8732228259
 10
-79.9886892793
 20
-25.8735749331
 10
-79.9886981199
 20
-25.8741028365
  0
LINE
  5
5EF
100
AcDbEntity
  8
SUPERFICI
100
AcDbLine
 62
250
  6
CONTINUOUS
 10
-80.6560136422
 20
-22.2708004407
 11
-80.6520854892
 21
-24.0015367757
  0
LINE
  5
5F0
100
AcDbEntity
  8
SUPERFICI
100
AcDbLine
 62
250
  6
CONTINUOUS
 10
-80.001426131
 20
-22.0592021059
 11
-79.988969466
 21
-25.361269297
  0
LINE
  5
5F1
100
AcDbEntity
  8
SUPERFICI
100
AcDbLine
 62
250
  6
CONTINUOUS
 10
-79.9943878639
 20
18.6210799872
 11
-80.0014261158
 21
22.0592021127
  0
LINE
  5
5F2
100
AcDbEntity
  8
SUPERFICI
100
AcDbLine
 62
7
  6
CONTINUOUS
 10
-80.8768291891
 20
23.5707493453
 11
-80.8768291903
 21
22.2707871816
  0
LINE
  5
5F3
100
AcDbEntity
  8
SUPERFICI
100
AcDbLine
 62
7
  6
CONTINUOUS
 10
-80.8768292057
 20
-22.2707872651
 11
-80.8768292053
 21
-23.570749338
  0
LINE
  5
5F4
100
AcDbEntity
  8
SUPERFICI
100
AcDbLine
 62
7
  6
CONTINUOUS
 10
-80.8671493034
 20
22.2708203997
 11
-80.8671493188
 21
-22.2708204661
  0
LINE
  5
5F5
100
AcDbEntity
  8
SUPERFICI
100
AcDbLine
 62
250
  6
CONTINUOUS
 10
-80.6511073784
 20
-22.2707986086
 11
-80.653366126
 21
22.270798624
  0
LINE
  5
5F6
100
AcDbEntity
  8
SUPERFICI
100
AcDbLine
 62
250
  6
CONTINUOUS
 10
-79.9943878639
 20
18.6210799872
 11
-79.9910584337
 21
-10.1405362455
  0
LINE
  5
5F7
100
AcDbEntity
  8
SUPERFICI
100
AcDbLine
 62
250
  6
CONTINUOUS
 10
-80.652257504
 20
23.8130037423
 11
-80.6521727343
 21
24.19655133
  0
LINE
  5
5F8
100
AcDbEntity
  8
SUPERFICI
100
AcDbLine
 62
250
  6
CONTINUOUS
 10
-79.9910584337
 20
-10.1405362455
 11
-79.9950674869
 21
-19.2944416052
  0
LINE
  5
5F9
100
AcDbEntity
  8
SUPERFICI
100
AcDbLine
 62
250
  6
CONTINUOUS
 10
-80.0014261158
 20
22.0592021127
 11
-80.0011794282
 21
22.2456389577
  0
LINE
  5
5FA
100
AcDbEntity
  8
SUPERFICI
100
AcDbLine
 62
250
  6
CONTINUOUS
 10
-79.990240114
 20
24.7328254945
 11
-79.9891009543
 21
25.4753307334
  0
LWPOLYLINE
  5
5FB
100
AcDbEntity
  8
SUPERFICI
100
AcDbPolyline
 62
250
  6
CONTINUOUS
 90
3
 70
0
 10
-80.6520854892
 20
-24.0015367757
 10
-80.652172751
 20
-24.1965513229
 10
-80.6522945154
 20
-24.2048018138
  0
LINE
  5
5FC
100
AcDbEntity
  8
SUPERFICI
100
AcDbLine
 62
250
  6
CONTINUOUS
 10
-79.9950674869
 20
-19.2944416052
 11
-80.001426131
 21
-22.0592021059
  0
LWPOLYLINE
  5
5FD
100
AcDbEntity
  8
SUPERFICI
100
AcDbPolyline
 62
250
  6
CONTINUOUS
 90
7
 70
0
 10
-79.988969466
 20
-25.361269297
 10
-79.9894511373
 20
-25.5707238913
 10
-79.9900577093
 20
-25.6466885018
 10
-79.9909722591
 20
-25.7028278633
 10
-79.9922605132
 20
-25.7390422676
 10
-79.9939898123
 20
-25.7552527443
 10
-79.9962255306
 20
-25.7513556838
  0
LINE
  5
5FE
100
AcDbEntity
  8
SUPERFICI
100
AcDbLine
 62
250
  6
CONTINUOUS
 10
-80.6560136268
 20
22.2708004479
 11
-80.652257504
 21
23.8130037423
  0
LINE
  5
5FF
100
AcDbEntity
  8
SUPERFICI
100
AcDbLine
 62
250
  6
CONTINUOUS
 10
-80.0011794282
 20
22.2456389577
 11
-79.990240114
 21
24.7328254945
  0
LWPOLYLINE
  5
600
100
AcDbEntity
  8
SUPERFICI
100
AcDbPolyline
 62
7
  6
CONTINUOUS
 90
5
 70
0
 10
-79.9888172422
 20
-25.8626127101
 10
-79.9888273173
 20
-25.8637940075
 10
-79.9888216191
 20
-25.8650994836
 10
-79.9888026311
 20
-25.8664775876
 10
-79.9886536162
 20
-25.8718087854
  0
LWPOLYLINE
  5
601
100
AcDbEntity
  8
SUPERFICI
100
AcDbPolyline
 62
7
  6
CONTINUOUS
 90
3
 70
0
 10
-79.9887040628
 20
-25.8747126312
 10
-79.9887093213
 20
-25.8752890961
 10
-79.9887185598
 20
-25.8756942883
  0
LINE
  5
602
100
AcDbEntity
  8
0
100
AcDbLine
 62
7
  6
CONTINUOUS
 10
-80.867056245
 20
23.5705649622
 11
-80.8670546269
 21
23.5706505392
  0
LWPOLYLINE
  5
603
100
AcDbEntity
  8
SUPERFICI
100
AcDbPolyline
 62
7
  6
CONTINUOUS
 90
9
 70
0
 10
-79.9886535984
 20
25.8718087917
 10
-79.9886394672
 20
25.8724402485
 10
-79.9886382115
 20
25.8728228321
 10
-79.9886498983
 20
25.8729890601
 10
-79.9886657848
 20
25.8730694165
 10
-79.9886789001
 20
25.8732228321
 10
-79.9886892615
 20
25.8735749393
 10
-79.9886981021
 20
25.8741028427
 10
-79.9887040449
 20
25.8747126373
  0
LINE
  5
604
100
AcDbEntity
  8
SUPERFICI
100
AcDbLine
 62
7
  6
CONTINUOUS
 10
-79.9892118825
 20
25.8556624058
 11
-79.989191131
 21
25.8563565796
  0
LINE
  5
605
100
AcDbEntity
  8
SUPERFICI
100
AcDbLine
 62
7
  6
CONTINUOUS
 10
-79.9887147525
 20
25.8696435831
 11
-79.9886767736
 21
25.8709205729
  0
LINE
  5
606
100
AcDbEntity
  8
SUPERFICI
100
AcDbLine
 62
7
  6
CONTINUOUS
 10
-79.989702024
 20
25.8427666212
 11
-79.989671044
 21
25.8437787064
  0
LINE
  5
607
100
AcDbEntity
  8
SUPERFICI
100
AcDbLine
 62
7
  6
CONTINUOUS
 10
-79.9893661964
 20
25.851110802
 11
-79.9892622797
 21
25.8541141172
  0
LWPOLYLINE
  5
608
100
AcDbEntity
  8
SUPERFICI
100
AcDbPolyline
 62
7
  6
CONTINUOUS
 90
3
 70
0
 10
-79.9905836951
 20
25.8220459446
 10
-79.9905651117
 20
25.822571078
 10
-79.9905358843
 20
25.8232926403
  0
LINE
  5
609
100
AcDbEntity
  8
SUPERFICI
100
AcDbLine
 62
7
  6
CONTINUOUS
 10
-79.9899329398
 20
25.8366064838
 11
-79.9896001529
 21
25.8458194539
  0
LINE
  5
60A
100
AcDbEntity
  8
SUPERFICI
100
AcDbLine
 62
7
  6
CONTINUOUS
 10
-79.9900059326
 20
25.8348307414
 11
-79.9897782546
 21
25.8406193525
  0
LINE
  5
60B
100
AcDbEntity
  8
SUPERFICI
100
AcDbLine
 62
7
  6
CONTINUOUS
 10
-79.9895588922
 20
25.8468487982
 11
-79.9895133672
 21
25.8478972054
  0
LWPOLYLINE
  5
60C
100
AcDbEntity
  8
SUPERFICI
100
AcDbPolyline
 62
7
  6
CONTINUOUS
 90
4
 70
0
 10
-79.9891683743
 20
25.8570459406
 10
-79.9891284418
 20
25.8579109402
 10
-79.9890655145
 20
25.8590138162
 10
-79.9889829565
 20
25.8602988916
  0
LINE
  5
60D
100
AcDbEntity
  8
SUPERFICI
100
AcDbLine
 62
7
  6
CONTINUOUS
 10
-79.9904963156
 20
25.8242103909
 11
-79.990087358
 21
25.8330595034
  0
LWPOLYLINE
  5
60E
100
AcDbEntity
  8
0
100
AcDbPolyline
 62
7
  6
CONTINUOUS
 90
4
 70
0
 43
0.3500000006
 10
-90.0553977356
 20
-2.3571432495
 10
-90.9125447388
 20
-2.3571432495
 10
-91.3411137085
 20
-1.9285708809
 10
-91.3411137085
 20
-1.2857140274
  0
LINE
  5
60F
100
AcDbEntity
  8
RACCORDO
100
AcDbLine
 62
7
  6
CONTINUOUS
 10
-73.3923700535
 20
-3.557254316
 11
-72.2618438613
 21
-3.7060909128
  0
LINE
  5
610
100
AcDbEntity
  8
SUPERFICI
100
AcDbLine
 62
250
  6
CONTINUOUS
 10
-77.2246470033
 20
-38.9552378465
 11
-77.2250972189
 21
-38.9397655319
  0
LINE
  5
611
100
AcDbEntity
  8
SUPERFICI
100
AcDbLine
 62
250
  6
CONTINUOUS
 10
-77.2250972189
 20
-38.9397655319
 11
-77.2258188476
 21
-38.9019170969
  0
LINE
  5
612
100
AcDbEntity
  8
SUPERFICI
100
AcDbLine
 62
250
  6
CONTINUOUS
 10
-77.2258188476
 20
-38.9019170969
 11
-77.226450227
 21
-38.852489592
  0
LINE
  5
613
100
AcDbEntity
  8
SUPERFICI
100
AcDbLine
 62
250
  6
CONTINUOUS
 10
-77.226450227
 20
-38.852489592
 11
-77.236356713
 21
-37.7258364825
  0
LINE
  5
614
100
AcDbEntity
  8
SUPERFICI
100
AcDbLine
 62
250
  6
CONTINUOUS
 10
-77.2382555253
 20
37.0848673813
 11
-77.237205953
 21
36.8860258204
  0
LINE
  5
615
100
AcDbEntity
  8
SUPERFICI
100
AcDbLine
 62
250
  6
CONTINUOUS
 10
-76.3057890545
 20
-37.0415268387
 11
-76.2963516043
 21
-39.0992293678
  0
LINE
  5
616
100
AcDbEntity
  8
SUPERFICI
100
AcDbLine
 62
250
  6
CONTINUOUS
 10
-77.236356713
 20
-37.7258364825
 11
-77.2385927811
 21
-37.21367935
  0
LINE
  5
617
100
AcDbEntity
  8
SUPERFICI
100
AcDbLine
 62
7
  6
CONTINUOUS
 10
-78.2496261905
 20
-35.8057414311
 11
-78.2496273512
 21
-35.7922473626
  0
LINE
  5
618
100
AcDbEntity
  8
SUPERFICI
100
AcDbLine
 62
7
  6
CONTINUOUS
 10
-78.2496261659
 20
35.8057414358
 11
-78.2496273265
 21
35.792247368
  0
LINE
  5
619
100
AcDbEntity
  8
SUPERFICI
100
AcDbLine
 62
250
  6
CONTINUOUS
 10
-76.3111062819
 20
16.3126653243
 11
-76.3074048455
 21
-37.0415268364
  0
LWPOLYLINE
  5
61A
100
AcDbEntity
  8
SUPERFICI
100
AcDbPolyline
 62
250
  6
CONTINUOUS
 90
7
 70
0
 10
-76.2963516043
 20
-39.0992293678
 10
-76.2958497682
 20
-39.5039239764
 10
-76.29616691
 20
-39.5996089669
 10
-76.29742639
 20
-39.6732742792
 10
-76.2998425689
 20
-39.7249518956
 10
-76.3032012477
 20
-39.7554114763
 10
-76.3075025008
 20
-39.7652425131
  0
LINE
  5
61B
100
AcDbEntity
  8
SUPERFICI
100
AcDbLine
 62
250
  6
CONTINUOUS
 10
-78.2496217226
 20
35.7922675049
 11
-78.2496267706
 21
-35.7922506454
  0
LINE
  5
61C
100
AcDbEntity
  8
SUPERFICI
100
AcDbLine
 62
250
  6
CONTINUOUS
 10
-77.2368566107
 20
36.8860246464
 11
-77.2252999296
 21
8.3329962958
  0
LINE
  5
61D
100
AcDbEntity
  8
SUPERFICI
100
AcDbLine
 62
250
  6
CONTINUOUS
 10
-76.295942147
 20
39.2526597995
 11
-76.2961668827
 21
39.5996089713
  0
LINE
  5
61E
100
AcDbEntity
  8
SUPERFICI
100
AcDbLine
 62
250
  6
CONTINUOUS
 10
-77.2381682069
 20
37.3362614897
 11
-77.2382555253
 21
37.0848673813
  0
LINE
  5
61F
100
AcDbEntity
  8
SUPERFICI
100
AcDbLine
 62
250
  6
CONTINUOUS
 10
-77.2385927811
 20
-37.21367935
 11
-77.2385458337
 21
-37.0856795898
  0
LINE
  5
620
100
AcDbEntity
  8
SUPERFICI
100
AcDbLine
 62
250
  6
CONTINUOUS
 10
-77.2368566362
 20
-36.8860246412
 11
-77.2252999296
 21
8.3329962958
  0
LINE
  5
621
100
AcDbEntity
  8
SUPERFICI
100
AcDbLine
 62
250
  6
CONTINUOUS
 10
-76.3053095841
 20
37.1752156861
 11
-76.3111062819
 21
16.3126653243
  0
LINE
  5
622
100
AcDbEntity
  8
SUPERFICI
100
AcDbLine
 62
250
  6
CONTINUOUS
 10
-76.295942147
 20
39.2526597995
 11
-76.3037374827
 21
37.441182281
  0
LINE
  5
623
100
AcDbEntity
  8
SUPERFICI
100
AcDbLine
 62
250
  6
CONTINUOUS
 10
-76.3037374827
 20
37.441182281
 11
-76.3053095841
 21
37.1752156861
  0
LINE
  5
624
100
AcDbEntity
  8
SUPERFICI
100
AcDbLine
 62
250
  6
CONTINUOUS
 10
-77.2336603331
 20
38.0898852163
 11
-77.2381682069
 21
37.3362614897
  0
LWPOLYLINE
  5
625
100
AcDbEntity
  8
SUPERFICI
100
AcDbPolyline
 62
250
  6
CONTINUOUS
 90
3
 70
0
 10
-77.2385458337
 20
-37.0856795898
 10
-77.2376050036
 20
-36.9533449903
 10
-77.2368616046
 20
-36.8860249451
  0
LINE
  5
626
100
AcDbEntity
  8
SUPERFICI
100
AcDbLine
 62
250
  6
CONTINUOUS
 10
-77.2261515587
 20
38.8786805223
 11
-77.2336603331
 21
38.0898852163
  0
LINE
  5
627
100
AcDbEntity
  8
SUPERFICI
100
AcDbLine
 62
250
  6
CONTINUOUS
 10
-77.2254633047
 20
38.9222423391
 11
-77.2261515587
 21
38.8786805223
  0
LWPOLYLINE
  5
628
100
AcDbEntity
  8
SUPERFICI
100
AcDbPolyline
 62
250
  6
CONTINUOUS
 90
3
 70
0
 10
-77.2246469764
 20
38.9552378517
 10
-77.225097192
 20
38.9397655371
 10
-77.2254633047
 20
38.9222423391
  0
LWPOLYLINE
  5
629
100
AcDbEntity
  8
0
100
AcDbPolyline
 62
7
  6
CONTINUOUS
 90
13
 70
0
 43
0.3500000006
 10
-90.4839667053
 20
-0.0000003204
 10
-91.7696826782
 20
-0.0000003204
 10
-92.1982607117
 20
0.2142864304
 10
-92.6268296814
 20
0.642857666
 10
-92.6268296814
 20
0.8571421509
 10
-92.1982607117
 20
1.2857133865
 10
-91.7696826782
 20
1.5000001373
 10
-90.4839667053
 20
1.5000001373
 10
-90.0553977356
 20
1.2857133865
 10
-89.6268287659
 20
0.8571421509
 10
-89.6268287659
 20
0.642857666
 10
-90.0553977356
 20
0.2142864304
 10
-90.4839667053
 20
-0.0000003204
  0
LINE
  5
62A
100
AcDbEntity
  8
0
100
AcDbLine
 62
250
  6
CONTINUOUS
 10
-80.8671493188
 20
0.0000000038
 11
-80.6516144311
 21
0.0000000036
  0
LINE
  5
62B
100
AcDbEntity
  8
SUPERFICI
100
AcDbLine
 62
250
  6
CONTINUOUS
 10
-76.3101436283
 20
0.0000000023
 11
-80.6517255174
 21
0.0000000036
  0
LWPOLYLINE
  5
62C
100
AcDbEntity
  8
SUPERFICI
100
AcDbPolyline
 62
250
  6
CONTINUOUS
 90
5
 70
0
 10
-76.2961668827
 20
39.5996089713
 10
-76.2974263626
 20
39.6732742837
 10
-76.2998425414
 20
39.7249519001
 10
-76.3032012203
 20
39.7554114808
 10
-76.3075024734
 20
39.7652425176
  0
LINE
  5
62D
100
AcDbEntity
  8
RACCORDO
100
AcDbLine
 62
7
  6
CONTINUOUS
 10
-73.8271069574
 20
3.0614916516
 11
-73.8271069574
 21
-3.0615318854
  0
LINE
  5
62E
100
AcDbEntity
  8
SUPERFICI
100
AcDbLine
 62
7
  6
CONTINUOUS
 10
-79.9887185598
 20
-25.8756942883
 11
-79.9887362822
 21
-25.8757970157
  0
LINE
  5
62F
100
AcDbEntity
  8
SUPERFICI
100
AcDbLine
 62
7
  6
CONTINUOUS
 10
-79.9887185419
 20
25.8756942944
 11
-79.9887362644
 21
25.8757970218
  0
LINE
  5
630
100
AcDbEntity
  8
IGES
100
AcDbLine
 62
7
  6
CONTINUOUS
 10
-71.8271069574
 20
-0.7000201169
 11
-71.8271069574
 21
-2.0000201169
  0
LINE
  5
631
100
AcDbEntity
  8
RACCORDO
100
AcDbLine
 62
7
  6
CONTINUOUS
 10
-71.8271069574
 20
-37.0414724874
 11
-71.8271069574
 21
-4.2018133435
  0
LINE
  5
632
100
AcDbEntity
  8
0
100
AcDbLine
 62
7
  6
CONTINUOUS
 10
-71.8271069574
 20
-37.0414724874
 11
-71.8271069574
 21
-40.0000171785
  0
LINE
  5
633
100
AcDbEntity
  8
IGES
100
AcDbLine
 62
7
  6
CONTINUOUS
 10
-71.8271069574
 20
-3.2290381169
 11
-71.8271069574
 21
-2.0000201169
  0
LINE
  5
634
100
AcDbEntity
  8
IGES
100
AcDbLine
 62
7
  6
CONTINUOUS
 10
-71.8271069574
 20
-0.7000201169
 11
-71.8271069574
 21
2.62305885
  0
LINE
  5
635
100
AcDbEntity
  8
RACCORDO
100
AcDbLine
 62
7
  6
CONTINUOUS
 10
-71.8271069574
 20
4.2017731098
 11
-71.8271069574
 21
37.0414724713
  0
LINE
  5
636
100
AcDbEntity
  8
0
100
AcDbLine
 62
7
  6
CONTINUOUS
 10
-71.8271069574
 20
37.0414724713
 11
-71.8271069574
 21
40.0000171785
  0
LINE
  5
637
100
AcDbEntity
  8
RACCORDO
100
AcDbLine
 62
7
  6
CONTINUOUS
 10
-72.2618438613
 20
3.7060506791
 11
-73.3923700535
 21
3.5572140823
  0
LWPOLYLINE
  5
638
100
AcDbEntity
  8
SUPERFICI
100
AcDbPolyline
 62
250
  6
CONTINUOUS
 90
7
 70
0
 10
-80.6517265327
 20
19.0269179669
 10
-80.2330614255
 20
19.0270910431
 10
-80.156451171
 20
19.0268071313
 10
-80.0940956914
 20
19.0269042336
 10
-80.0464688523
 20
19.0275374009
 10
-80.0132758508
 20
19.0285514682
 10
-79.9946800244
 20
19.029946367
  0
LWPOLYLINE
  5
639
100
AcDbEntity
  8
SUPERFICI
100
AcDbPolyline
 62
250
  6
CONTINUOUS
 90
10
 70
0
 10
-80.654246172
 20
22.6197652455
 10
-80.5343946789
 20
22.6472669274
 10
-80.4250754759
 20
22.6762339759
 10
-80.3268275561
 20
22.7065443204
 10
-80.240103827
 20
22.7381110491
 10
-80.1655786244
 20
22.7707717423
 10
-80.1038893209
 20
22.8042701907
 10
-80.0552772934
 20
22.8384113058
 10
-80.0198485173
 20
22.8730795219
 10
-79.9977876881
 20
22.9081212101
  0
LWPOLYLINE
  5
63A
100
AcDbEntity
  8
0
100
AcDbPolyline
 62
250
  6
CONTINUOUS
 90
5
 70
0
 10
-80.6511073631
 20
22.2707986157
 10
-80.6792464393
 20
22.2702775121
 10
-80.7056867144
 20
22.2699246594
 10
-80.7303673444
 20
22.2697400577
 10
-80.7532598992
 20
22.2697845578
  0
LWPOLYLINE
  5
63B
100
AcDbEntity
  8
SUPERFICI
100
AcDbPolyline
 62
250
  6
CONTINUOUS
 90
7
 70
0
 10
-80.3346596803
 20
22.2674448696
 10
-80.2472422628
 20
22.2679702656
 10
-80.1712822433
 20
22.2688163873
 10
-80.1086864828
 20
22.26720486
 10
-80.0596697602
 20
22.2622935489
 10
-80.0238523693
 20
22.2550861519
 10
-80.0011899065
 20
22.245641936
  0
LWPOLYLINE
  5
63C
100
AcDbEntity
  8
0
100
AcDbPolyline
 62
250
  6
CONTINUOUS
 90
4
 70
0
 10
-80.837475442
 20
22.2705227501
 10
-80.8620029416
 20
22.2706063643
 10
-80.8656907
 20
22.270696812
 10
-80.8669707471
 20
22.270780404
  0
LINE
  5
63D
100
AcDbEntity
  8
0
100
AcDbLine
 62
250
  6
CONTINUOUS
 10
-80.7532598992
 20
22.2697845578
 11
-80.837475442
 21
22.2705227501
  0
LWPOLYLINE
  5
63E
100
AcDbEntity
  8
SUPERFICI
100
AcDbPolyline
 62
250
  6
CONTINUOUS
 90
3
 70
0
 10
-80.653366126
 20
22.270798624
 10
-80.5376801149
 20
22.2693130041
 10
-80.3346596803
 20
22.2674448696
  0
LWPOLYLINE
  5
63F
100
AcDbEntity
  8
SUPERFICI
100
AcDbPolyline
 62
7
  6
CONTINUOUS
 90
12
 70
0
 10
-76.3925736402
 20
39.7573267293
 10
-76.4329144919
 20
39.7509845977
 10
-76.4768511678
 20
39.7421328315
 10
-76.5220840349
 20
39.7308423591
 10
-76.5622432159
 20
39.718902177
 10
-76.5951717214
 20
39.7077156465
 10
-76.6233358002
 20
39.697111054
 10
-76.647534069
 20
39.6872069973
 10
-76.6676646019
 20
39.6783896438
 10
-76.6840289612
 20
39.6708227428
 10
-76.6979662426
 20
39.6640881122
 10
-76.7095946655
 20
39.6582601528
  0
LINE
  5
640
100
AcDbEntity
  8
SUPERFICI
100
AcDbLine
 62
250
  6
CONTINUOUS
 10
-76.4133765459
 20
39.7541404309
 11
-76.3093220159
 21
39.7651494283
  0
LINE
  5
641
100
AcDbEntity
  8
SUPERFICI
100
AcDbLine
 62
7
  6
CONTINUOUS
 10
-76.3241639661
 20
39.7641625914
 11
-76.3264494223
 21
39.7639968918
  0
LINE
  5
642
100
AcDbEntity
  8
SUPERFICI
100
AcDbLine
 62
7
  6
CONTINUOUS
 10
-76.3190259644
 20
39.7645159965
 11
-76.321655481
 21
39.7643384345
  0
LINE
  5
643
100
AcDbEntity
  8
SUPERFICI
100
AcDbLine
 62
7
  6
CONTINUOUS
 10
-76.3134188975
 20
39.7648715244
 11
-76.3162834033
 21
39.7646938209
  0
LINE
  5
644
100
AcDbEntity
  8
SUPERFICI
100
AcDbLine
 62
7
  6
CONTINUOUS
 10
-76.3089553446
 20
39.7651320998
 11
-76.3105092848
 21
39.7650436384
  0
LINE
  5
645
100
AcDbEntity
  8
0
100
AcDbLine
 62
7
  6
CONTINUOUS
 10
-76.3075025941
 20
39.765244765
 11
-71.8271069574
 21
40.0000171785
  0
LINE
  5
646
100
AcDbEntity
  8
0
100
AcDbLine
 62
250
  6
CONTINUOUS
 10
-76.3074048201
 20
37.0415268409
 11
-71.8271069574
 21
37.0415189764
  0
ARC
  5
647
100
AcDbEntity
  8
0
100
AcDbCircle
 62
7
  6
CONTINUOUS
 10
57.0561010716
 20
-37.0416874987
 40
2.9583307199
100
AcDbArc
 50
269.9985431882
 51
0.0041642571
  0
ARC
  5
648
100
AcDbEntity
  8
0
100
AcDbCircle
 62
7
  6
CONTINUOUS
 10
57.056101071
 20
37.0416875001
 40
2.9583307185
100
AcDbArc
 50
359.9958354032
 51
90.0014567945
  0
ARC
  5
649
100
AcDbEntity
  8
0
100
AcDbCircle
 62
7
  6
CONTINUOUS
 10
-57.056101216
 20
-37.041687413
 40
2.958330578
100
AcDbArc
 50
179.9958368832
 51
270.00149506
  0
ARC
  5
64A
100
AcDbEntity
  8
0
100
AcDbCircle
 62
7
  6
CONTINUOUS
 10
-57.0561011041
 20
37.0416875858
 40
2.9583305766
100
AcDbArc
 50
89.9985345903
 51
180.0041632856
  0
ARC
  5
64B
100
AcDbEntity
  8
RACCORDO
100
AcDbCircle
 62
7
  6
CONTINUOUS
 10
-72.3271069574
 20
-4.2018133435
 40
0.5
100
AcDbArc
 50
0.0
 51
82.5
  0
ARC
  5
64C
100
AcDbEntity
  8
RACCORDO
100
AcDbCircle
 62
7
  6
CONTINUOUS
 10
-72.3271069574
 20
4.2017731098
 40
0.5
100
AcDbArc
 50
277.5
 51
360.0
  0
ARC
  5
64D
100
AcDbEntity
  8
RACCORDO
100
AcDbCircle
 62
7
  6
CONTINUOUS
 10
-73.3271069574
 20
-3.0615318854
 40
0.5
100
AcDbArc
 50
180.0
 51
262.5
  0
ARC
  5
64E
100
AcDbEntity
  8
RACCORDO
100
AcDbCircle
 62
7
  6
CONTINUOUS
 10
-73.3271069574
 20
3.0614916516
 40
0.5
100
AcDbArc
 50
97.5
 51
180.0
  0
ELLIPSE
  5
64F
100
AcDbEntity
  8
RACCORDO
100
AcDbEllipse
 62
7
  6
CONTINUOUS
 10
-59.988214943
 20
-4.2018133435
 30
0.0
 11
0.000000001
 21
0.5
 31
0.0
 40
0.0524315045
 41
0.1308997034
 42
1.5707963269
  0
ELLIPSE
  5
650
100
AcDbEntity
  8
RACCORDO
100
AcDbEllipse
 62
7
  6
CONTINUOUS
 10
-59.9882149304
 20
4.2017731098
 30
0.0
 11
0.000000001
 21
0.5
 31
0.0
 40
0.0524315045
 41
-4.7123889803
 42
-3.272492338
  0
ELLIPSE
  5
651
100
AcDbEntity
  8
RACCORDO
100
AcDbEllipse
 62
7
  6
CONTINUOUS
 10
59.9882149693
 20
-4.2018133435
 30
0.0
 11
0.0
 21
0.5
 31
0.0
 40
0.0524315505
 41
-1.5707963268
 42
-0.1308996939
  0
ELLIPSE
  5
652
100
AcDbEntity
  8
RACCORDO
100
AcDbEllipse
 62
7
  6
CONTINUOUS
 10
59.9882149693
 20
4.2017731098
 30
0.0
 11
0.0
 21
0.5
 31
0.0
 40
0.0524315505
 41
-3.0106929597
 42
-1.5707963268
  0
ELLIPSE
  5
653
100
AcDbEntity
  8
RACCORDO
100
AcDbEllipse
 62
7
  6
CONTINUOUS
 10
-59.9357834369
 20
-3.0615318854
 30
0.0
 11
0.000000001
 21
0.5
 31
0.0
 40
0.0524315045
 41
-3.0106929502
 42
-1.5707963267
  0
ELLIPSE
  5
654
100
AcDbEntity
  8
RACCORDO
100
AcDbEllipse
 62
7
  6
CONTINUOUS
 10
-59.9357834277
 20
3.0614916516
 30
0.0
 11
0.000000001
 21
0.5
 31
0.0
 40
0.0524315045
 41
-1.5707963267
 42
-0.1308996844
  0
ELLIPSE
  5
655
100
AcDbEntity
  8
RACCORDO
100
AcDbEllipse
 62
7
  6
CONTINUOUS
 10
59.9357834188
 20
3.0614916516
 30
0.0
 11
0.0
 21
0.5
 31
0.0
 40
0.0524315505
 41
0.1308996939
 42
1.5707963268
  0
ELLIPSE
  5
656
100
AcDbEntity
  8
RACCORDO
100
AcDbEllipse
 62
7
  6
CONTINUOUS
 10
59.9357834188
 20
-3.0615318854
 30
0.0
 11
0.0
 21
0.5
 31
0.0
 40
0.0524315505
 41
-4.7123889804
 42
-3.2724923475
  0
ENDSEC
  0
SECTION
  2
OBJECTS
  0
DICTIONARY
  5
C
100
AcDbDictionary
280
0
281
1
  3
ACAD_GROUP
350
D
  3
ACAD_MLINESTYLE
350
17
  3
ACAD_LAYOUT
350
1A
  3
ACAD_PLOTSETTINGS
350
19
  3
ACAD_PLOTSTYLENAME
350
E
  0
DICTIONARY
  5
D
102
{ACAD_REACTORS
330
C
102
}
100
AcDbDictionary
280
0
281
1
  0
ACDBDICTIONARYWDFLT
  5
E
102
{ACAD_REACTORS
330
C
102
}
100
AcDbDictionary
281
1
  3
Normal
350
F
100
AcDbDictionaryWithDefault
340
F
  0
DICTIONARY
  5
17
102
{ACAD_REACTORS
330
C
102
}
100
AcDbDictionary
280
0
281
1
  3
Standard
350
18
  0
DICTIONARY
  5
19
102
{ACAD_REACTORS
330
C
102
}
100
AcDbDictionary
281
1
  0
DICTIONARY
  5
1A
102
{ACAD_REACTORS
330
C
102
}
100
AcDbDictionary
281
1
  3
Model
350
657
  3
Layout1
350
658
  0
ACDBPLACEHOLDER
  5
F
102
{ACAD_REACTORS
330
E
102
}
  0
MLINESTYLE
  5
18
102
{ACAD_REACTORS
330
17
102
}
100
AcDbMlineStyle
  2
STANDARD
 70
0
  3

 62
256
 51
90.0
 52
90.0
 71
2
 49
0.5
 62
256
  6
BYLAYER
 49
-0.5
 62
256
  6
BYLAYER
  0
LAYOUT
  5
657
102
{ACAD_REACTORS
330
1A
102
}
100
AcDbPlotSettings
  1

  2
none_device
  4
ISO_A4_(297.00_x_210.00_MM)
  6

 40
0.0
 41
0.0
 42
0.0
 43
0.0
 44
297.0
 45
210.0
 46
0.0
 47
0.0
 48
0.0
 49
0.0
140
0.0
141
0.0
142
1.0
143
1.0
 70
1024
 72
1
 73
0
 74
0
  7

 75
0
147
1.0
148
0.0
149
0.0
100
AcDbLayout
  1
Model
 70
0
 71
0
 10
0.0
 20
0.0
 11
297.0
 21
210.0
 12
0.0
 22
0.0
 32
0.0
 14
0.0
 24
0.0
 34
0.0
 15
0.0
 25
0.0
 35
0.0
146
0.0
 13
0.0
 23
0.0
 33
0.0
 16
1.0
 26
0.0
 36
0.0
 17
0.0
 27
1.0
 37
0.0
 76
0
330
219
345
0
346
0
  0
LAYOUT
  5
658
102
{ACAD_REACTORS
330
1A
102
}
100
AcDbPlotSettings
  1

  2
none_device
  4
ISO_A4_(297.00_x_210.00_MM)
  6

 40
0.0
 41
0.0
 42
0.0
 43
0.0
 44
297.0
 45
210.0
 46
0.0
 47
0.0
 48
0.0
 49
0.0
140
0.0
141
0.0
142
1.0
143
1.0
 70
0
 72
1
 73
0
 74
0
  7

 75
0
147
1.0
148
0.0
149
0.0
100
AcDbLayout
  1
Layout1
 70
0
 71
1
 10
0.0
 20
0.0
 11
297.0
 21
210.0
 12
0.0
 22
0.0
 32
0.0
 14
0.0
 24
0.0
 34
0.0
 15
0.0
 25
0.0
 35
0.0
146
0.0
 13
0.0
 23
0.0
 33
0.0
 16
1.0
 26
0.0
 36
0.0
 17
0.0
 27
1.0
 37
0.0
 76
0
330
21A
345
0
346
0
  0
ENDSEC
  0
EOF
