  0
SECTION
  2
HEADER
  9
$ACADVER
  1
AC1024
  9
$DWGCODEPAGE
  3
ANSI_1252
  9
$EXTMAX
 10
297.0
 20
210.0
 30
0.0
  9
$EXTMIN
 10
0.0
 20
0.0
 30
0.0
  9
$LIMMIN
 10
0.0
 20
0.0
  9
$LIMMAX
 10
297.0
 20
210.0
  9
$VIEWCTR
 10
148.5
 20
105.0
  9
$VIEWSIZE
 40
210.0
  9
$CLAYER
  8
0
  9
$LTSCALE
 40
16.335
  9
$CELTYPE
  6
BYLAYER
  9
$DIMSCALE
 40
1.0
  9
$DIMASZ
 40
3.0
  9
$DIMEXO
 40
0.5
  9
$DIMDLI
 40
11.286
  9
$DIMEXE
 40
1.5
  9
$DIMCEN
 40
2.673
  9
$DIMLFAC
 40
1.0
  9
$DIMBLK
  1
_FILLED
  9
$DIMALT
 70
0
  9
$DIMALTF
 40
0.0393700787
  9
$DIMTXT
 40
3.0
  9
$DIMTOL
 70
1
  9
$DIMLIM
 70
0
  9
$DIMTFAC
 40
1.0
  9
$DIMTP
 40
0.01
  9
$DIMTM
 40
0.01
  9
$DIMGAP
 40
0.625
  9
$DIMDSEP
 70
44
  9
$AUNITS
 70
0
  9
$PDMODE
 70
3
  9
$PDSIZE
 40
3.0
  9
$HANDSEED
  5
64F
  9
$TILEMODE
 70
1
  9
$MEASUREMENT
 70
1
  9
$INSUNITS
 70
4
  0
ENDSEC
  0
SECTION
  2
CLASSES
  0
CLASS
  1
ACDBDICTIONARYWDFLT
  2
AcDbDictionaryWithDefault
  3
AutoCAD 2000
 90
0
 91
1
280
0
281
0
  0
CLASS
  1
ACDBPLACEHOLDER
  2
AcDbPlaceHolder
  3
AutoCAD 2000
 90
0
 91
1
280
0
281
0
  0
CLASS
  1
LAYOUT
  2
AcDbLayout
  3
AutoCAD 2000
 90
0
 91
0
280
0
281
0
  0
ENDSEC
  0
SECTION
  2
TABLES
  0
TABLE
  2
VPORT
  5
8
100
AcDbSymbolTable
 70
2
  0
VPORT
  5
1F4
100
AcDbSymbolTableRecord
100
AcDbViewportTableRecord
  2
*ACTIVE
 70
0
 10
0.0
 20
0.0
 11
1.0
 21
1.0
 12
148.5
 22
105.0
 13
0.0
 23
0.0
 14
1.0
 24
1.0
 15
0.0
 25
0.0
 16
0.0
 26
0.0
 36
1.0
 17
0.0
 27
0.0
 37
0.0
 40
210.0
 41
1.4142857143
 42
50.0
 43
0.0
 44
0.0
 50
0.0
 51
0.0
 71
0
 72
100
 73
1
 74
1
 75
0
 76
0
 77
0
 78
0
  0
ENDTAB
  0
TABLE
  2
LTYPE
  5
5
100
AcDbSymbolTable
 70
6
  0
LTYPE
  5
14
100
AcDbSymbolTableRecord
100
AcDbLinetypeTableRecord
  2
BYBLOCK
 70
0
  3

 72
65
 73
0
 40
0.0
  0
LTYPE
  5
15
100
AcDbSymbolTableRecord
100
AcDbLinetypeTableRecord
  2
BYLAYER
 70
0
  3

 72
65
 73
0
 40
0.0
  0
LTYPE
  5
16
100
AcDbSymbolTableRecord
100
AcDbLinetypeTableRecord
  2
CONTINUOUS
 70
64
  3
Solid line
 72
65
 73
0
 40
0.0
  0
LTYPE
  5
1F5
100
AcDbSymbolTableRecord
100
AcDbLinetypeTableRecord
  2
CENTER
 70
64
  3
____ _ ____ _ ____ _ ____ _ ____ _ ____ _ ____
 72
65
 73
4
 40
0.6
 49
0.375
 74
0
 49
-0.075
 74
0
 49
0.075
 74
0
 49
-0.075
 74
0
  0
LTYPE
  5
1F6
100
AcDbSymbolTableRecord
100
AcDbLinetypeTableRecord
  2
HIDDEN
 70
64
  3
- - - - - - - - - - - - - - - - - - - -
 72
65
 73
2
 40
0.2
 49
0.1
 74
0
 49
-0.1
 74
0
  0
LTYPE
  5
1F7
100
AcDbSymbolTableRecord
100
AcDbLinetypeTableRecord
  2
PHANTOM
 70
64
  3
_____ _ _ _____ _ _ _____ _ _ _____
 72
65
 73
6
 40
0.8
 49
0.45
 74
0
 49
-0.05
 74
0
 49
0.1
 74
0
 49
-0.05
 74
0
 49
0.1
 74
0
 49
-0.05
 74
0
  0
LTYPE
  5
1F8
100
AcDbSymbolTableRecord
100
AcDbLinetypeTableRecord
  2
DOT
 70
64
  3
. . . . . . . . . . . . . . . . . . . .
 72
65
 73
2
 40
0.2
 49
0.1
 74
0
 49
-0.1
 74
0
  0
LTYPE
  5
1F9
100
AcDbSymbolTableRecord
100
AcDbLinetypeTableRecord
  2
DASHED
 70
64
  3
- - - - - - - - - - - - - - - - - - - -
 72
65
 73
2
 40
0.2
 49
0.1
 74
0
 49
-0.1
 74
0
  0
ENDTAB
  0
TABLE
  2
LAYER
  5
2
100
AcDbSymbolTable
 70
36
  0
LAYER
  5
10
100
AcDbSymbolTableRecord
100
AcDbLayerTableRecord
  2
0
 70
0
 62
7
  6
CONTINUOUS
370
-3
390
F
  0
LAYER
  5
1FA
100
AcDbSymbolTableRecord
100
AcDbLayerTableRecord
  2
DEFAULT_1
 70
0
 62
7
  6
CENTER
370
-3
390
F
  0
LAYER
  5
1FB
100
AcDbSymbolTableRecord
100
AcDbLayerTableRecord
  2
DEFAULT_2
 70
0
 62
7
  6
HIDDEN
370
-3
390
F
  0
LAYER
  5
1FC
100
AcDbSymbolTableRecord
100
AcDbLayerTableRecord
  2
DEFAULT_3
 70
0
 62
7
  6
PHANTOM
370
-3
390
F
  0
LAYER
  5
1FD
100
AcDbSymbolTableRecord
100
AcDbLayerTableRecord
  2
ASSI
 70
0
 62
7
  6
CONTINUOUS
370
-3
390
F
  0
LAYER
  5
1FE
100
AcDbSymbolTableRecord
100
AcDbLayerTableRecord
  2
COORDINATE
 70
0
 62
7
  6
CONTINUOUS
370
-3
390
F
  0
LAYER
  5
1FF
100
AcDbSymbolTableRecord
100
AcDbLayerTableRecord
  2
COORD_ORIGINE
 70
0
 62
7
  6
CONTINUOUS
370
-3
390
F
  0
LAYER
  5
200
100
AcDbSymbolTableRecord
100
AcDbLayerTableRecord
  2
CURVE
 70
0
 62
7
  6
CONTINUOUS
370
-3
390
F
  0
LAYER
  5
201
100
AcDbSymbolTableRecord
100
AcDbLayerTableRecord
  2
DRAFT
 70
0
 62
7
  6
CONTINUOUS
370
-3
390
F
  0
LAYER
  5
202
100
AcDbSymbolTableRecord
100
AcDbLayerTableRecord
  2
NOTE
 70
0
 62
7
  6
CONTINUOUS
370
-3
390
F
  0
LAYER
  5
203
100
AcDbSymbolTableRecord
100
AcDbLayerTableRecord
  2
PIANI
 70
0
 62
7
  6
CONTINUOUS
370
-3
390
F
  0
LAYER
  5
204
100
AcDbSymbolTableRecord
100
AcDbLayerTableRecord
  2
PIANI_ORIGINE
 70
0
 62
7
  6
CONTINUOUS
370
-3
390
F
  0
LAYER
  5
205
100
AcDbSymbolTableRecord
100
AcDbLayerTableRecord
  2
PUNTI
 70
0
 62
7
  6
CONTINUOUS
370
-3
390
F
  0
LAYER
  5
206
100
AcDbSymbolTableRecord
100
AcDbLayerTableRecord
  2
RACCORDO
 70
0
 62
7
  6
CONTINUOUS
370
-3
390
F
  0
LAYER
  5
207
100
AcDbSymbolTableRecord
100
AcDbLayerTableRecord
  2
SCRITTA_VIMAR
 70
0
 62
7
  6
CONTINUOUS
370
-3
390
F
  0
LAYER
  5
208
100
AcDbSymbolTableRecord
100
AcDbLayerTableRecord
  2
SNAPLINE
 70
0
 62
7
  6
CONTINUOUS
370
-3
390
F
  0
LAYER
  5
209
100
AcDbSymbolTableRecord
100
AcDbLayerTableRecord
  2
SUPERFICI
 70
0
 62
7
  6
CONTINUOUS
370
-3
390
F
  0
LAYER
  5
20A
100
AcDbSymbolTableRecord
100
AcDbLayerTableRecord
  2
TRASH
 70
0
 62
7
  6
CONTINUOUS
370
-3
390
F
  0
LAYER
  5
20B
100
AcDbSymbolTableRecord
100
AcDbLayerTableRecord
  2
XSEC_DATUMS
 70
0
 62
7
  6
CONTINUOUS
370
-3
390
F
  0
ENDTAB
  0
TABLE
  2
STYLE
  5
3
100
AcDbSymbolTable
 70
1
  0
STYLE
  5
11
100
AcDbSymbolTableRecord
100
AcDbTextStyleTableRecord
  2
STANDARD
 70
0
 40
0.0
 41
0.8
 50
0.0
 71
0
 42
0.2
  3
txt
  4

  0
STYLE
  5
20C
100
AcDbSymbolTableRecord
100
AcDbTextStyleTableRecord
  2
TEXTSTYLE_1
 70
0
 40
0.0
 41
0.8
 50
0.0
 71
0
 42
0.2
  3
gdt
  4

  0
ENDTAB
  0
TABLE
  2
VIEW
  5
6
100
AcDbSymbolTable
 70
0
  0
ENDTAB
  0
TABLE
  2
UCS
  5
7
100
AcDbSymbolTable
 70
0
  0
ENDTAB
  0
TABLE
  2
APPID
  5
9
100
AcDbSymbolTable
 70
1
  0
APPID
  5
20D
100
AcDbSymbolTableRecord
100
AcDbRegAppTableRecord
  2
ACAD
 70
0
  0
ENDTAB
  0
TABLE
  2
BLOCK_RECORD
  5
1
100
AcDbSymbolTable
 70
0
  0
BLOCK_RECORD
  5
20E
100
AcDbSymbolTableRecord
100
AcDbBlockTableRecord
  2
*Model_Space
  0
BLOCK_RECORD
  5
20F
100
AcDbSymbolTableRecord
100
AcDbBlockTableRecord
  2
*Paper_Space
  0
BLOCK_RECORD
  5
210
100
AcDbSymbolTableRecord
100
AcDbBlockTableRecord
  2
_FILLED
  0
BLOCK_RECORD
  5
211
100
AcDbSymbolTableRecord
100
AcDbBlockTableRecord
  2
*D0
  0
BLOCK_RECORD
  5
212
100
AcDbSymbolTableRecord
100
AcDbBlockTableRecord
  2
*D1
  0
BLOCK_RECORD
  5
213
100
AcDbSymbolTableRecord
100
AcDbBlockTableRecord
  2
*D2
  0
ENDTAB
  0
TABLE
  2
DIMSTYLE
  5
A
100
AcDbSymbolTable
 70
1
100
AcDbDimStyleTable
 71
0
  0
DIMSTYLE
105
214
100
AcDbSymbolTableRecord
100
AcDbDimStyleTableRecord
  2
STANDARD
 70
0
  3

  4

 40
1.0
 41
3.0
 42
0.5
 43
0.38
 44
1.5
 45
0.0
 46
0.0
 47
0.01
 48
0.01
140
3.0
141
0.09
142
0.0
143
25.4
144
1.0
145
0.0
146
1.0
147
0.625
 71
1
 72
0
 73
0
 74
0
 75
0
 76
0
 77
1
 78
8
 79
2
170
0
171
1
172
0
173
0
174
0
175
0
176
0
177
0
178
0
270
2
179
2
271
2
272
2
273
2
274
2
275
0
280
0
281
0
282
0
283
1
284
8
285
0
286
0
287
3
288
0
340
11
278
44
341
210
342
210
343
210
344
210
  0
DIMSTYLE
105
215
100
AcDbSymbolTableRecord
100
AcDbDimStyleTableRecord
  2
DIMSTYLE_1
 70
0
  3

  4

 40
1.0
 41
3.0
 42
0.5
 43
0.38
 44
1.5
 45
0.0
 46
0.0
 47
0.0
 48
0.0
140
3.0
141
0.09
142
0.0
143
25.4
144
1.0
145
0.0
146
1.0
147
0.75
 71
0
 72
0
 73
0
 74
0
 75
0
 76
0
 77
1
 78
8
 79
2
170
0
171
1
172
0
173
0
174
0
175
0
176
0
177
0
178
0
270
2
179
2
271
2
272
2
273
2
274
2
275
0
280
0
281
0
282
0
283
1
284
8
285
0
286
0
287
3
288
0
340
11
278
44
341
210
342
210
343
210
344
210
  0
ENDTAB
  0
ENDSEC
  0
SECTION
  2
BLOCKS
  0
BLOCK
  5
20
100
AcDbEntity
  8
0
100
AcDbBlockBegin
  2
*Model_Space
 70
0
 10
0.0
 20
0.0
 30
0.0
  3
*Model_Space
  1

  0
ENDBLK
  5
21
100
AcDbEntity
  8
0
100
AcDbBlockEnd
  0
BLOCK
  5
1C
100
AcDbEntity
  8
0
100
AcDbBlockBegin
  2
*Paper_Space
 70
0
 10
0.0
 20
0.0
 30
0.0
  3
*Paper_Space
  1

  0
ENDBLK
  5
1D
100
AcDbEntity
  8
0
100
AcDbBlockEnd
  0
BLOCK
  5
216
100
AcDbEntity
  8
0
100
AcDbBlockBegin
  2
_FILLED
 70
64
 10
0.0
 20
0.0
  3
_FILLED
  1

  0
SOLID
  5
217
100
AcDbEntity
  8
0
  6
BYBLOCK
 62
0
100
AcDbTrace
 10
0.0
 20
0.0
 11
-1.0
 21
0.3166666667
 12
-1.0
 22
-0.3166666667
 13
-1.0
 23
-0.3166666667
  0
ENDBLK
  5
218
100
AcDbEntity
  8
0
  6
BYBLOCK
 62
0
100
AcDbBlockEnd
  0
BLOCK
  5
219
100
AcDbEntity
  8
0
100
AcDbBlockBegin
 62
7
  6
CONTINUOUS
  2
*D0
 70
65
 10
0.0
 20
0.0
  3
*D0
  1

  0
LINE
  5
21A
100
AcDbEntity
  8
0
100
AcDbLine
 62
7
  6
CONTINUOUS
 10
-61.9276312986
 20
36.4177058934
 11
-61.9276312986
 21
50.5864055023
  0
LINE
  5
21B
100
AcDbEntity
  8
0
100
AcDbLine
 62
7
  6
CONTINUOUS
 10
58.0723687014
 20
36.4177058934
 11
58.0723687014
 21
50.5864055023
  0
LINE
  5
21C
100
AcDbEntity
  8
0
100
AcDbLine
 62
7
  6
CONTINUOUS
 10
-61.9276312986
 20
49.0864055023
 11
-1.9276312986
 21
49.0864055023
  0
LINE
  5
21D
100
AcDbEntity
  8
0
100
AcDbLine
 62
7
  6
CONTINUOUS
 10
58.0723687014
 20
49.0864055023
 11
-1.9276312986
 21
49.0864055023
  0
INSERT
  5
21E
100
AcDbEntity
  8
0
100
AcDbBlockReference
 62
7
  6
CONTINUOUS
  2
_FILLED
 10
-61.9276312986
 20
49.0864055023
 41
3.0
 42
3.0
 43
3.0
 50
180.0
  0
INSERT
  5
21F
100
AcDbEntity
  8
0
100
AcDbBlockReference
 62
7
  6
CONTINUOUS
  2
_FILLED
 10
58.0723687014
 20
49.0864055023
 41
3.0
 42
3.0
 43
3.0
  0
ENDBLK
  5
220
100
AcDbEntity
  8
0
  6
BYBLOCK
 62
0
100
AcDbBlockEnd
  0
BLOCK
  5
221
100
AcDbEntity
  8
0
100
AcDbBlockBegin
 62
7
  6
CONTINUOUS
  2
*D1
 70
65
 10
0.0
 20
0.0
  3
*D1
  1

  0
LINE
  5
222
100
AcDbEntity
  8
0
100
AcDbLine
 62
7
  6
CONTINUOUS
 10
-86.0470406332
 20
21.7135944977
 11
-86.0470406332
 21
50.5864055023
  0
LINE
  5
223
100
AcDbEntity
  8
0
100
AcDbLine
 62
7
  6
CONTINUOUS
 10
-76.5470406332
 20
39.4135944977
 11
-76.5470406332
 21
50.5864055023
  0
LINE
  5
224
100
AcDbEntity
  8
0
100
AcDbLine
 62
7
  6
CONTINUOUS
 10
-86.0470406332
 20
49.0864055023
 11
-90.0470406332
 21
49.0864055023
  0
LINE
  5
225
100
AcDbEntity
  8
0
100
AcDbLine
 62
7
  6
CONTINUOUS
 10
-90.0470406332
 20
49.0864055023
 11
-81.2970406332
 21
49.0864055023
  0
LINE
  5
226
100
AcDbEntity
  8
0
100
AcDbLine
 62
7
  6
CONTINUOUS
 10
-76.5470406332
 20
49.0864055023
 11
-72.5470406332
 21
49.0864055023
  0
LINE
  5
227
100
AcDbEntity
  8
0
100
AcDbLine
 62
7
  6
CONTINUOUS
 10
-72.5470406332
 20
49.0864055023
 11
-81.2970406332
 21
49.0864055023
  0
INSERT
  5
228
100
AcDbEntity
  8
0
100
AcDbBlockReference
 62
7
  6
CONTINUOUS
  2
_FILLED
 10
-86.0470406332
 20
49.0864055023
 41
3.0
 42
3.0
 43
3.0
  0
INSERT
  5
229
100
AcDbEntity
  8
0
100
AcDbBlockReference
 62
7
  6
CONTINUOUS
  2
_FILLED
 10
-76.5470406332
 20
49.0864055023
 41
3.0
 42
3.0
 43
3.0
 50
180.0
  0
ENDBLK
  5
22A
100
AcDbEntity
  8
0
  6
BYBLOCK
 62
0
100
AcDbBlockEnd
  0
BLOCK
  5
22B
100
AcDbEntity
  8
0
100
AcDbBlockBegin
 62
7
  6
CONTINUOUS
  2
*D2
 70
65
 10
0.0
 20
0.0
  3
*D2
  1

  0
LINE
  5
22C
100
AcDbEntity
  8
0
100
AcDbLine
 62
7
  6
CONTINUOUS
 10
-77.0470406332
 20
38.9135944977
 11
-95.5470406332
 21
38.9135944977
  0
LINE
  5
22D
100
AcDbEntity
  8
0
100
AcDbLine
 62
7
  6
CONTINUOUS
 10
-77.0470406332
 20
-41.0864055023
 11
-95.5470406332
 21
-41.0864055023
  0
LINE
  5
22E
100
AcDbEntity
  8
0
100
AcDbLine
 62
7
  6
CONTINUOUS
 10
-94.0470406332
 20
38.9135944977
 11
-94.0470406332
 21
-1.0864055023
  0
LINE
  5
22F
100
AcDbEntity
  8
0
100
AcDbLine
 62
7
  6
CONTINUOUS
 10
-94.0470406332
 20
-41.0864055023
 11
-94.0470406332
 21
-1.0864055023
  0
INSERT
  5
230
100
AcDbEntity
  8
0
100
AcDbBlockReference
 62
7
  6
CONTINUOUS
  2
_FILLED
 10
-94.0470406332
 20
38.9135944977
 41
3.0
 42
3.0
 43
3.0
 50
90.0
  0
INSERT
  5
231
100
AcDbEntity
  8
0
100
AcDbBlockReference
 62
7
  6
CONTINUOUS
  2
_FILLED
 10
-94.0470406332
 20
-41.0864055023
 41
3.0
 42
3.0
 43
3.0
 50
270.0
  0
ENDBLK
  5
232
100
AcDbEntity
  8
0
  6
BYBLOCK
 62
0
100
AcDbBlockEnd
  0
ENDSEC
  0
SECTION
  2
ENTITIES
  0
DIMENSION
  5
233
100
AcDbEntity
  8
0
100
AcDbDimension
 62
7
  6
CONTINUOUS
  2
*D0
 10
58.0723687014
 20
49.0864055023
 11
-5.1419170129
 21
49.0864055023
 70
160
 71
2
 72
2
 41
0.9
 42
120.0
  3
DIMSTYLE_1
100
AcDbAlignedDimension
 13
-61.9276312986
 23
35.9177058934
 14
58.0723687014
 24
35.9177058934
100
AcDbRotatedDimension
  0
DIMENSION
  5
234
100
AcDbEntity
  8
0
100
AcDbDimension
 62
7
  6
CONTINUOUS
  2
*D1
 10
-76.5470406332
 20
49.0864055023
 11
-84.4041834904
 21
49.0864055023
 70
160
 71
2
 72
2
 41
0.9
 42
9.5
  3
DIMSTYLE_1
100
AcDbAlignedDimension
 13
-86.0470406332
 23
21.2135944977
 14
-76.5470406332
 24
38.9135944977
100
AcDbRotatedDimension
  0
DIMENSION
  5
235
100
AcDbEntity
  8
0
100
AcDbDimension
 62
7
  6
CONTINUOUS
  2
*D2
 10
-94.0470406332
 20
-41.0864055023
 11
-94.0470406332
 21
-3.4435483594
 70
160
 71
2
 72
2
 41
0.9
 42
80.0
  3
DIMSTYLE_1
100
AcDbAlignedDimension
 13
-76.5470406332
 23
38.9135944977
 14
-76.5470406332
 24
-41.0864055023
 50
270.0
100
AcDbRotatedDimension
  0
LWPOLYLINE
  5
236
100
AcDbEntity
  8
RACCORDO
100
AcDbPolyline
 62
250
  6
CONTINUOUS
 90
12
 70
0
 10
-58.6749906134
 20
38.6568424168
 10
-58.6788629403
 20
38.6439722006
 10
-58.6826826588
 20
38.6177094044
 10
-58.6863978747
 20
38.5784108362
 10
-58.6899581138
 20
38.5266104084
 10
-58.6933150072
 20
38.4630118844
 10
-58.6964229486
 20
38.3884793172
 10
-58.6992397142
 20
38.3040253105
 10
-58.701727036
 20
38.2107972608
 10
-58.7038511219
 20
38.1100617697
 10
-58.7055831147
 20
38.003187435
 10
-58.7077823467
 20
37.7768939126
  0
LWPOLYLINE
  5
237
100
AcDbEntity
  8
RACCORDO
100
AcDbPolyline
 62
250
  6
CONTINUOUS
 90
11
 70
0
 10
-58.674990613
 20
-40.8296270246
 10
-58.6788628004
 20
-40.8167571976
 10
-58.6826823955
 20
-40.7904952507
 10
-58.6863975065
 20
-40.7511979705
 10
-58.6899576613
 20
-40.6993992376
 10
-58.6933144931
 20
-40.6358027734
 10
-58.6964223976
 20
-40.5612725795
 10
-58.6992391522
 20
-40.4768211998
 10
-58.7017264906
 20
-40.3835959644
 10
-58.7038506215
 20
-40.2828634022
 10
-58.7055826886
 20
-40.1759920342
  0
LINE
  5
238
100
AcDbEntity
  8
RACCORDO
100
AcDbLine
 62
250
  6
CONTINUOUS
 10
-60.7993349029
 20
-37.5381885927
 11
-60.8077245449
 21
-37.3203106099
  0
LINE
  5
239
100
AcDbEntity
  8
RACCORDO
100
AcDbLine
 62
250
  6
CONTINUOUS
 10
-60.7925237165
 20
-37.744209377
 11
-60.7993349029
 21
-37.5381885927
  0
LWPOLYLINE
  5
23A
100
AcDbEntity
  8
RACCORDO
100
AcDbPolyline
 62
250
  6
CONTINUOUS
 90
3
 70
0
 10
-60.8077245449
 20
-37.3203106099
 10
-60.8090163203
 20
-37.2784477606
 10
-60.8096619823
 20
-37.2364848252
  0
LINE
  5
23B
100
AcDbEntity
  8
RACCORDO
100
AcDbLine
 62
250
  6
CONTINUOUS
 10
-60.7890483702
 20
-37.8607642857
 11
-60.7925237165
 21
-37.744209377
  0
LINE
  5
23C
100
AcDbEntity
  8
RACCORDO
100
AcDbLine
 62
250
  6
CONTINUOUS
 10
-58.7055826886
 20
-40.1759920342
 11
-58.7077821593
 21
-39.9497042393
  0
LINE
  5
23D
100
AcDbEntity
  8
RACCORDO
100
AcDbLine
 62
250
  6
CONTINUOUS
 10
-60.8265410666
 20
-34.4839503631
 11
-60.8279176467
 21
-34.2502794061
  0
LINE
  5
23E
100
AcDbEntity
  8
RACCORDO
100
AcDbLine
 62
250
  6
CONTINUOUS
 10
-60.8279176467
 20
-34.2502794061
 11
-60.830070881
 21
-33.8788603513
  0
LWPOLYLINE
  5
23F
100
AcDbEntity
  8
RACCORDO
100
AcDbPolyline
 62
250
  6
CONTINUOUS
 90
3
 70
0
 10
-60.830070881
 20
-33.8788603513
 10
-60.8315673485
 20
-33.6159833232
 10
-60.8323344195
 20
-33.4797375933
  0
LWPOLYLINE
  5
240
100
AcDbEntity
  8
RACCORDO
100
AcDbPolyline
 62
250
  6
CONTINUOUS
 90
3
 70
0
 10
-60.8323344195
 20
-33.4797375933
 10
-60.833906743
 20
-33.1965188987
 10
-60.834712043
 20
-33.0495461525
  0
LWPOLYLINE
  5
241
100
AcDbEntity
  8
RACCORDO
100
AcDbPolyline
 62
250
  6
CONTINUOUS
 90
3
 70
0
 10
-60.834712043
 20
-33.0495461525
 10
-60.8363596792
 20
-32.7437595803
 10
-60.8372020624
 20
-32.5849460478
  0
LWPOLYLINE
  5
242
100
AcDbEntity
  8
RACCORDO
100
AcDbPolyline
 62
250
  6
CONTINUOUS
 90
3
 70
0
 10
-60.8372020624
 20
-32.5849460478
 10
-60.8389230833
 20
-32.2544090695
 10
-60.8398017689
 20
-32.0826857696
  0
LWPOLYLINE
  5
243
100
AcDbEntity
  8
RACCORDO
100
AcDbPolyline
 62
250
  6
CONTINUOUS
 90
3
 70
0
 10
-60.8398017689
 20
-32.0826857696
 10
-60.841593801
 20
-31.7253687493
 10
-60.8425071948
 20
-31.5397752521
  0
LINE
  5
244
100
AcDbEntity
  8
RACCORDO
100
AcDbLine
 62
250
  6
CONTINUOUS
 10
-60.8425071948
 20
-31.5397752521
 11
-60.8443661987
 21
-31.1537703655
  0
LINE
  5
245
100
AcDbEntity
  8
RACCORDO
100
AcDbLine
 62
250
  6
CONTINUOUS
 10
-60.8096619823
 20
-37.2364848252
 11
-60.8265410666
 21
-34.4839503631
  0
LWPOLYLINE
  5
246
100
AcDbEntity
  8
RACCORDO
100
AcDbPolyline
 62
250
  6
CONTINUOUS
 90
3
 70
0
 10
-60.8443661987
 20
-31.1537703655
 10
-60.8462676347
 20
-30.7476685111
 10
-60.8472333089
 20
-30.5367261955
  0
LINE
  5
247
100
AcDbEntity
  8
RACCORDO
100
AcDbLine
 62
250
  6
CONTINUOUS
 10
-60.8472333089
 20
-30.5367261955
 11
-60.8491952484
 21
-30.0985803961
  0
LWPOLYLINE
  5
248
100
AcDbEntity
  8
RACCORDO
100
AcDbPolyline
 62
250
  6
CONTINUOUS
 90
3
 70
0
 10
-60.8491952484
 20
-30.0985803961
 10
-60.851197666
 20
-29.6376416362
 10
-60.8522152963
 20
-29.3981742987
  0
LINE
  5
249
100
AcDbEntity
  8
RACCORDO
100
AcDbLine
 62
250
  6
CONTINUOUS
 10
-60.8522152963
 20
-29.3981742987
 11
-60.8644783729
 21
-26.3221654945
  0
LINE
  5
24A
100
AcDbEntity
  8
RACCORDO
100
AcDbLine
 62
250
  6
CONTINUOUS
 10
-60.8644783729
 20
-26.3221654945
 11
-60.8749228086
 21
-23.4774723964
  0
LINE
  5
24B
100
AcDbEntity
  8
RACCORDO
100
AcDbLine
 62
250
  6
CONTINUOUS
 10
-60.8749228086
 20
-23.4774723964
 11
-60.883397523
 21
-20.9271804856
  0
LINE
  5
24C
100
AcDbEntity
  8
RACCORDO
100
AcDbLine
 62
250
  6
CONTINUOUS
 10
-60.883397523
 20
-20.9271804856
 11
-60.886285622
 21
-19.9858588192
  0
LINE
  5
24D
100
AcDbEntity
  8
RACCORDO
100
AcDbLine
 62
250
  6
CONTINUOUS
 10
-60.886285622
 20
-19.9858588192
 11
-60.8891781246
 21
-18.9947041448
  0
LINE
  5
24E
100
AcDbEntity
  8
RACCORDO
100
AcDbLine
 62
250
  6
CONTINUOUS
 10
-60.8891781246
 20
-18.9947041448
 11
-60.8920501261
 21
-17.9505533169
  0
LINE
  5
24F
100
AcDbEntity
  8
RACCORDO
100
AcDbLine
 62
250
  6
CONTINUOUS
 10
-60.8920501261
 20
-17.9505533169
 11
-60.8948844646
 21
-16.8512275735
  0
LINE
  5
250
100
AcDbEntity
  8
RACCORDO
100
AcDbLine
 62
250
  6
CONTINUOUS
 10
-60.8948844646
 20
-16.8512275735
 11
-60.8976526483
 21
-15.6933588805
  0
LINE
  5
251
100
AcDbEntity
  8
RACCORDO
100
AcDbLine
 62
250
  6
CONTINUOUS
 10
-60.8976526483
 20
-15.6933588805
 11
-60.9016144441
 21
-13.8393806776
  0
LINE
  5
252
100
AcDbEntity
  8
RACCORDO
100
AcDbLine
 62
250
  6
CONTINUOUS
 10
-60.9016144441
 20
-13.8393806776
 11
-60.9063843307
 21
-11.1306486467
  0
LINE
  5
253
100
AcDbEntity
  8
RACCORDO
100
AcDbLine
 62
250
  6
CONTINUOUS
 10
-60.9063843307
 20
-11.1306486467
 11
-60.9094498683
 21
-8.9054628193
  0
LINE
  5
254
100
AcDbEntity
  8
RACCORDO
100
AcDbLine
 62
250
  6
CONTINUOUS
 10
-60.9094498683
 20
-8.9054628193
 11
-60.9119892595
 21
-6.4992381374
  0
LINE
  5
255
100
AcDbEntity
  8
RACCORDO
100
AcDbLine
 62
250
  6
CONTINUOUS
 10
-60.9119892595
 20
-6.4992381374
 11
-60.9145373715
 21
-2.9838428213
  0
LINE
  5
256
100
AcDbEntity
  8
RACCORDO
100
AcDbLine
 62
250
  6
CONTINUOUS
 10
-60.9145373715
 20
-2.9838428213
 11
-60.9154958148
 21
-1.0859043668
  0
LWPOLYLINE
  5
257
100
AcDbEntity
  8
RACCORDO
100
AcDbPolyline
 62
250
  6
CONTINUOUS
 90
3
 70
0
 10
-61.66841957
 20
26.4810190374
 10
-61.669922554
 20
32.4577019854
 10
-61.6712585904
 20
35.6613331852
  0
LINE
  5
258
100
AcDbEntity
  8
RACCORDO
100
AcDbLine
 62
7
  6
CONTINUOUS
 10
-61.9276312986
 20
35.9177058934
 11
-61.9276312986
 21
4.2135944977
  0
LINE
  5
259
100
AcDbEntity
  8
RACCORDO
100
AcDbLine
 62
7
  6
CONTINUOUS
 10
-61.9276312986
 20
-6.3864055023
 11
-61.9276312986
 21
-38.090516898
  0
LINE
  5
25A
100
AcDbEntity
  8
DRAFT
100
AcDbLine
 62
7
  6
CONTINUOUS
 10
-61.8276312986
 20
-6.2126293148
 11
-61.8276312986
 21
-5.0864055023
  0
LINE
  5
25B
100
AcDbEntity
  8
DRAFT
100
AcDbLine
 62
7
  6
CONTINUOUS
 10
-61.8276312986
 20
2.9135944977
 11
-61.8276312986
 21
4.0397699303
  0
LINE
  5
25C
100
AcDbEntity
  8
RACCORDO
100
AcDbLine
 62
7
  6
CONTINUOUS
 10
-61.7442040711
 20
1.7135944977
 11
-61.7442040711
 21
-3.8864055023
  0
LINE
  5
25D
100
AcDbEntity
  8
RACCORDO
100
AcDbLine
 62
250
  6
CONTINUOUS
 10
-61.6661058542
 20
13.3142774432
 11
-61.66841957
 21
26.4810190374
  0
LINE
  5
25E
100
AcDbEntity
  8
RACCORDO
100
AcDbLine
 62
250
  6
CONTINUOUS
 10
-61.6707539769
 20
-37.272055163
 11
-61.6661058542
 21
13.3142774432
  0
LINE
  5
25F
100
AcDbEntity
  8
RACCORDO
100
AcDbLine
 62
250
  6
CONTINUOUS
 10
-61.6707874501
 20
-37.352896409
 11
-61.6707539769
 21
-37.272055163
  0
LINE
  5
260
100
AcDbEntity
  8
RACCORDO
100
AcDbLine
 62
250
  6
CONTINUOUS
 10
-61.6708354417
 20
-37.4354418368
 11
-61.6707874501
 21
-37.352896409
  0
LINE
  5
261
100
AcDbEntity
  8
RACCORDO
100
AcDbLine
 62
250
  6
CONTINUOUS
 10
-61.6709020188
 20
-37.5221420546
 11
-61.6708354417
 21
-37.4354418368
  0
LINE
  5
262
100
AcDbEntity
  8
RACCORDO
100
AcDbLine
 62
250
  6
CONTINUOUS
 10
-60.9154953532
 20
-1.0859043664
 11
-60.9120698654
 21
4.2367716058
  0
LINE
  5
263
100
AcDbEntity
  8
RACCORDO
100
AcDbLine
 62
250
  6
CONTINUOUS
 10
-61.6709917687
 20
-37.6172757707
 11
-61.6709020188
 21
-37.5221420546
  0
LINE
  5
264
100
AcDbEntity
  8
RACCORDO
100
AcDbLine
 62
250
  6
CONTINUOUS
 10
-60.9120698654
 20
4.2367716058
 11
-60.9086614319
 21
7.3587614581
  0
LWPOLYLINE
  5
265
100
AcDbEntity
  8
RACCORDO
100
AcDbPolyline
 62
250
  6
CONTINUOUS
 90
3
 70
0
 10
-61.6712585904
 20
-37.8341441898
 10
-61.6711806325
 20
-37.7765420123
 10
-61.6709917687
 20
-37.6172757707
  0
LINE
  5
266
100
AcDbEntity
  8
RACCORDO
100
AcDbLine
 62
250
  6
CONTINUOUS
 10
-60.9086614319
 20
7.3587614581
 11
-60.9032003842
 21
10.8370237911
  0
LINE
  5
267
100
AcDbEntity
  8
RACCORDO
100
AcDbLine
 62
250
  6
CONTINUOUS
 10
-60.9032003842
 20
10.8370237911
 11
-60.8940355735
 21
15.0167474232
  0
LINE
  5
268
100
AcDbEntity
  8
RACCORDO
100
AcDbLine
 62
250
  6
CONTINUOUS
 10
-60.8940355735
 20
15.0167474232
 11
-60.8855688367
 21
18.0513877534
  0
LINE
  5
269
100
AcDbEntity
  8
RACCORDO
100
AcDbLine
 62
250
  6
CONTINUOUS
 10
-60.8855688367
 20
18.0513877534
 11
-60.8744386258
 21
21.4428248454
  0
LINE
  5
26A
100
AcDbEntity
  8
RACCORDO
100
AcDbLine
 62
250
  6
CONTINUOUS
 10
-60.8744386258
 20
21.4428248454
 11
-60.8618621127
 21
24.8263548218
  0
LINE
  5
26B
100
AcDbEntity
  8
RACCORDO
100
AcDbLine
 62
250
  6
CONTINUOUS
 10
-60.8618621127
 20
24.8263548218
 11
-60.8482848567
 21
28.1306918946
  0
LINE
  5
26C
100
AcDbEntity
  8
RACCORDO
100
AcDbLine
 62
250
  6
CONTINUOUS
 10
-60.8482848567
 20
28.1306918946
 11
-60.8409037394
 21
29.6913197666
  0
LINE
  5
26D
100
AcDbEntity
  8
RACCORDO
100
AcDbLine
 62
250
  6
CONTINUOUS
 10
-60.8409037394
 20
29.6913197666
 11
-60.8334443658
 21
31.1076255052
  0
LINE
  5
26E
100
AcDbEntity
  8
RACCORDO
100
AcDbLine
 62
250
  6
CONTINUOUS
 10
-60.8334443658
 20
31.1076255052
 11
-60.8198188611
 21
33.4227632175
  0
LWPOLYLINE
  5
26F
100
AcDbEntity
  8
RACCORDO
100
AcDbPolyline
 62
250
  6
CONTINUOUS
 90
5
 70
0
 10
-60.8198188611
 20
33.4227632175
 10
-60.809313471
 20
35.083087189
 10
-60.8085161288
 20
35.1240627066
 10
-60.8071463435
 20
35.1649886528
 10
-60.8036820525
 20
35.2477928981
  0
LINE
  5
270
100
AcDbEntity
  8
RACCORDO
100
AcDbLine
 62
250
  6
CONTINUOUS
 10
-60.7972408788
 20
35.4257754657
 11
-60.7890483822
 21
35.6879532837
  0
LINE
  5
271
100
AcDbEntity
  8
RACCORDO
100
AcDbLine
 62
250
  6
CONTINUOUS
 10
-60.8036820525
 20
35.2477928981
 11
-60.7972408788
 21
35.4257754657
  0
LWPOLYLINE
  5
272
100
AcDbEntity
  8
RACCORDO
100
AcDbPolyline
 62
250
  6
CONTINUOUS
 90
22
 70
0
 10
-61.6712585904
 20
35.6613331852
 10
-61.6624523228
 20
35.8911345116
 10
-61.6360591937
 20
36.1196407552
 10
-61.5922113374
 20
36.3455113646
 10
-61.531150595
 20
36.5673941133
 10
-61.4532096529
 20
36.7840046679
 10
-61.3587928705
 20
36.9941280657
 10
-61.2483218232
 20
37.1966741743
 10
-61.1224845398
 20
37.390249222
 10
-60.9823092709
 20
37.5733000414
 10
-60.8288913814
 20
37.7445724462
 10
-60.6630110253
 20
37.9033547616
 10
-60.4853642175
 20
38.0490141421
 10
-60.2957823258
 20
38.1814456271
 10
-60.0964426489
 20
38.2989035716
 10
-59.8920428393
 20
38.3991100097
 10
-59.6843905081
 20
38.482154023
 10
-59.4747067961
 20
38.54848351
 10
-59.2673368633
 20
38.5979388339
 10
-59.0646615965
 20
38.6315394537
 10
-58.8668812664
 20
38.6507579845
 10
-58.6749906134
 20
38.6568424168
  0
LWPOLYLINE
  5
273
100
AcDbEntity
  8
RACCORDO
100
AcDbPolyline
 62
250
  6
CONTINUOUS
 90
22
 70
0
 10
-60.7890475278
 20
35.6879530884
 10
-60.7787162382
 20
35.8460410593
 10
-60.7567849976
 20
36.0032070193
 10
-60.7232836301
 20
36.1584562838
 10
-60.6784045272
 20
36.3109047364
 10
-60.6223834371
 20
36.459739286
 10
-60.5554401641
 20
36.6041709395
 10
-60.4778416885
 20
36.7434988604
 10
-60.3900737374
 20
36.8768220947
 10
-60.2927917405
 20
37.0030982143
 10
-60.1866807882
 20
37.1214736795
 10
-60.0722732892
 20
37.2315302496
 10
-59.9500080869
 20
37.3328830103
 10
-59.8197030614
 20
37.4254673906
 10
-59.6828336249
 20
37.5081274924
 10
-59.5426022904
 20
37.5793168778
 10
-59.4002071385
 20
37.6390702965
 10
-59.2564446562
 20
37.687672515
 10
-59.1142551137
 20
37.7249917129
 10
-58.9752330062
 20
37.7516812877
 10
-58.8394961104
 20
37.7687103028
 10
-58.7077821592
 20
37.7768932343
  0
LWPOLYLINE
  5
274
100
AcDbEntity
  8
RACCORDO
100
AcDbPolyline
 62
250
  6
CONTINUOUS
 90
9
 70
0
 10
57.8159293712
 20
-37.8341441783
 10
57.8030277891
 20
-37.8372914894
 10
57.7766917556
 20
-37.8403958829
 10
57.73728021
 20
-37.8434150497
 10
57.6853303007
 20
-37.8463078438
 10
57.6215500639
 20
-37.8490348426
 10
57.546808774
 20
-37.8515588851
 10
57.4621250959
 20
-37.853845579
 10
57.3686532011
 20
-37.8558637703
  0
LWPOLYLINE
  5
275
100
AcDbEntity
  8
RACCORDO
100
AcDbPolyline
 62
250
  6
CONTINUOUS
 90
10
 70
0
 10
-61.6712585904
 20
-37.8341441898
 10
-61.658355428
 20
-37.8372915849
 10
-61.6320167473
 20
-37.8403960814
 10
-61.5926015464
 20
-37.8434153647
 10
-61.5406470572
 20
-37.8463082817
 10
-61.476861423
 20
-37.8490354015
 10
-61.4021140464
 20
-37.8515595522
 10
-61.3174237392
 20
-37.8538463291
 10
-61.2239448362
 20
-37.8558645634
 10
-61.0158201611
 20
-37.8589894037
  0
LWPOLYLINE
  5
276
100
AcDbEntity
  8
RACCORDO
100
AcDbPolyline
 62
250
  6
CONTINUOUS
 90
3
 70
0
 10
-38.9423993966
 20
-23.3712681562
 10
-38.9452105255
 20
-22.7213039714
 10
-38.9472877073
 20
-22.0462508919
  0
LWPOLYLINE
  5
277
100
AcDbEntity
  8
RACCORDO
100
AcDbPolyline
 62
250
  6
CONTINUOUS
 90
3
 70
0
 10
-38.9472877073
 20
-22.0462508919
 10
-38.9499079484
 20
-20.6219649892
 10
-38.9507129391
 20
-19.8730577573
  0
LWPOLYLINE
  5
278
100
AcDbEntity
  8
RACCORDO
100
AcDbPolyline
 62
250
  6
CONTINUOUS
 90
4
 70
0
 10
-38.9499080211
 20
18.4486794279
 10
-38.9472882163
 20
19.8731374067
 10
-38.9452111407
 20
20.5483225692
 10
-38.9423993664
 20
21.1984571446
  0
LWPOLYLINE
  5
279
100
AcDbEntity
  8
RACCORDO
100
AcDbPolyline
 62
250
  6
CONTINUOUS
 90
67
 70
0
 10
-38.942399439
 20
21.1984571601
 10
-38.9384162602
 20
21.3499162939
 10
-38.9282635984
 20
21.4962704906
 10
-38.9125351676
 20
21.6373576407
 10
-38.8916257612
 20
21.7729802775
 10
-38.8662808234
 20
21.9030691348
 10
-38.8376692166
 20
22.0274690858
 10
-38.8068311446
 20
22.1457086766
 10
-38.7740131108
 20
22.2576430851
 10
-38.7389898687
 20
22.3640468392
 10
-38.7019150674
 20
22.4653670224
 10
-38.6631837247
 20
22.5620128936
 10
-38.6228125567
 20
22.6545660985
 10
-38.5810894569
 20
22.7429535771
 10
-38.5383833892
 20
22.8270829895
 10
-38.494775403
 20
22.9073789147
 10
-38.45047649
 20
22.9839278424
 10
-38.4057036638
 20
23.056800332
 10
-38.3604592909
 20
23.126420714
 10
-38.314923074
 20
23.1928392628
 10
-38.269265163
 20
23.2560994918
 10
-38.2234214905
 20
23.3165814696
 10
-38.1774701829
 20
23.3744025923
 10
-38.1315858254
 20
23.4295511643
 10
-38.0858091918
 20
23.482204262
 10
-38.0401850671
 20
23.5324811723
 10
-37.9948707533
 20
23.5803734901
 10
-37.9500668744
 20
23.6258683831
 10
-37.9059501795
 20
23.6689472171
 10
-37.8625482172
 20
23.7097415741
 10
-37.8198252951
 20
23.7484660533
 10
-37.7779377412
 20
23.7850965786
 10
-37.7368023541
 20
23.8198451033
 10
-37.6959546707
 20
23.8532818138
 10
-37.6553627959
 20
23.8854845544
 10
-37.6149666312
 20
23.9165676605
 10
-37.5741803496
 20
23.9471287975
 10
-37.5331165852
 20
23.9771095406
 10
-37.4917359045
 20
24.0065132448
 10
-37.4492092774
 20
24.0359361993
 10
-37.4056085841
 20
24.0653479928
 10
-37.3609977596
 20
24.0945779897
 10
-37.3145070105
 20
24.1239235536
 10
-37.2660876359
 20
24.1533219574
 10
-37.2160941744
 20
24.1824670023
 10
-37.1643062784
 20
24.2111992383
 10
-37.1107134514
 20
24.2393110316
 10
-37.0551166692
 20
24.2669591396
 10
-36.9968994178
 20
24.294544412
 10
-36.9358055133
 20
24.3221059977
 10
-36.8718310813
 20
24.3494360641
 10
-36.8047196262
 20
24.3765081843
 10
-36.7343670618
 20
24.4031196956
 10
-36.6609580082
 20
24.429052913
 10
-36.584678383
 20
24.4542354524
 10
-36.5055494796
 20
24.4781831662
 10
-36.423074301
 20
24.5011522333
 10
-36.3364998442
 20
24.5241687043
 10
-36.2451811909
 20
24.5476049906
 10
-36.14919547
 20
24.5705521532
 10
-36.048815499
 20
24.5920602204
 10
-35.9445940851
 20
24.6115259226
 10
-35.8366273642
 20
24.6287054567
 10
-35.7246457512
 20
24.6431283591
 10
-35.6085986812
 20
24.6543845208
 10
-35.4886739132
 20
24.6621540906
 10
-35.365015997
 20
24.6660551813
  0
LWPOLYLINE
  5
27A
100
AcDbEntity
  8
0
100
AcDbPolyline
 62
7
  6
CONTINUOUS
 90
3
 70
0
 43
0.3500000006
 10
-5.1419167328
 20
51.9792641602
 10
-4.2847742615
 20
52.8364066315
 10
-4.2847742615
 20
49.8364057159
  0
LINE
  5
27B
100
AcDbEntity
  8
RACCORDO
100
AcDbLine
 62
250
  6
CONTINUOUS
 10
54.4539608673
 20
-39.9639919843
 11
54.2439022783
 21
-39.9738889361
  0
LWPOLYLINE
  5
27C
100
AcDbEntity
  8
RACCORDO
100
AcDbPolyline
 62
250
  6
CONTINUOUS
 90
3
 70
0
 10
54.2439022783
 20
-39.9738889361
 10
54.2037490624
 20
-39.9754383126
 10
54.1642853295
 20
-39.9764933877
  0
LINE
  5
27D
100
AcDbEntity
  8
RACCORDO
100
AcDbLine
 62
250
  6
CONTINUOUS
 10
54.585325257
 20
-39.9587471475
 11
54.4539608673
 21
-39.9639919843
  0
LWPOLYLINE
  5
27E
100
AcDbEntity
  8
RACCORDO
100
AcDbPolyline
 62
250
  6
CONTINUOUS
 90
3
 70
0
 10
54.8525197494
 20
-39.9497049171
 10
54.8077988907
 20
-39.9511138414
 10
54.585325257
 20
-39.9587471475
  0
LINE
  5
27F
100
AcDbEntity
  8
RACCORDO
100
AcDbLine
 62
250
  6
CONTINUOUS
 10
54.1642853295
 20
-39.9764933877
 11
54.086193236
 21
-39.9777845102
  0
LINE
  5
280
100
AcDbEntity
  8
RACCORDO
100
AcDbLine
 62
250
  6
CONTINUOUS
 10
47.9266727844
 20
-40.0432327587
 11
46.3468640793
 21
-40.0627579954
  0
LINE
  5
281
100
AcDbEntity
  8
RACCORDO
100
AcDbLine
 62
250
  6
CONTINUOUS
 10
46.3468640793
 20
-40.0627579954
 11
45.9834591503
 21
-40.0671908068
  0
LINE
  5
282
100
AcDbEntity
  8
RACCORDO
100
AcDbLine
 62
250
  6
CONTINUOUS
 10
48.3297605292
 20
-40.0383358256
 11
47.9266727844
 21
-40.0432327587
  0
LINE
  5
283
100
AcDbEntity
  8
RACCORDO
100
AcDbLine
 62
250
  6
CONTINUOUS
 10
45.9834591503
 20
-40.0671908068
 11
45.6316890585
 21
-40.0714211631
  0
LINE
  5
284
100
AcDbEntity
  8
RACCORDO
100
AcDbLine
 62
250
  6
CONTINUOUS
 10
43.7637905457
 20
-40.0886385874
 11
42.9604236882
 21
-40.0985991688
  0
LINE
  5
285
100
AcDbEntity
  8
RACCORDO
100
AcDbLine
 62
250
  6
CONTINUOUS
 10
45.6316890585
 20
-40.0714211631
 11
45.2902961858
 21
-40.0754263555
  0
LINE
  5
286
100
AcDbEntity
  8
RACCORDO
100
AcDbLine
 62
250
  6
CONTINUOUS
 10
49.5870121246
 20
-40.0237693447
 11
48.3297605292
 21
-40.0383358256
  0
LINE
  5
287
100
AcDbEntity
  8
RACCORDO
100
AcDbLine
 62
250
  6
CONTINUOUS
 10
49.8936249101
 20
-40.0204152087
 11
49.5870121246
 21
-40.0237693447
  0
LINE
  5
288
100
AcDbEntity
  8
RACCORDO
100
AcDbLine
 62
250
  6
CONTINUOUS
 10
42.9604236882
 20
-40.0985991688
 11
42.2682131635
 21
-40.1062671456
  0
LWPOLYLINE
  5
289
100
AcDbEntity
  8
RACCORDO
100
AcDbPolyline
 62
250
  6
CONTINUOUS
 90
4
 70
0
 10
50.4537297858
 20
-40.0144027215
 10
50.3194615372
 20
-40.0158347301
 10
50.1813433686
 20
-40.0173152355
 10
49.8936249101
 20
-40.0204152087
  0
LWPOLYLINE
  5
28A
100
AcDbEntity
  8
RACCORDO
100
AcDbPolyline
 62
250
  6
CONTINUOUS
 90
4
 70
0
 10
50.9640465221
 20
-40.009018083
 10
50.8404265637
 20
-40.0103143884
 10
50.7142127542
 20
-40.0116424451
 10
50.4537297858
 20
-40.0144027215
  0
LWPOLYLINE
  5
28B
100
AcDbEntity
  8
RACCORDO
100
AcDbPolyline
 62
250
  6
CONTINUOUS
 90
4
 70
0
 10
51.4323876133
 20
-40.0041486596
 10
51.3195307166
 20
-40.0053164292
 10
51.2037868389
 20
-40.0065177163
 10
50.9640465221
 20
-40.009018083
  0
LINE
  5
28C
100
AcDbEntity
  8
RACCORDO
100
AcDbLine
 62
250
  6
CONTINUOUS
 10
52.0495443166
 20
-39.9978232868
 11
51.4323876133
 21
-40.0041486596
  0
LINE
  5
28D
100
AcDbEntity
  8
RACCORDO
100
AcDbLine
 62
250
  6
CONTINUOUS
 10
45.2902961858
 20
-40.0754263555
 11
44.7927614661
 21
-40.0808412113
  0
LINE
  5
28E
100
AcDbEntity
  8
RACCORDO
100
AcDbLine
 62
250
  6
CONTINUOUS
 10
53.1029284838
 20
-39.9872348753
 11
52.0495443166
 21
-39.9978232868
  0
LINE
  5
28F
100
AcDbEntity
  8
RACCORDO
100
AcDbLine
 62
250
  6
CONTINUOUS
 10
53.2370180818
 20
-39.9859095421
 11
53.1029284838
 21
-39.9872348753
  0
LINE
  5
290
100
AcDbEntity
  8
RACCORDO
100
AcDbLine
 62
250
  6
CONTINUOUS
 10
53.7939039297
 20
-39.9803510891
 11
53.2370180818
 21
-39.9859095421
  0
LINE
  5
291
100
AcDbEntity
  8
RACCORDO
100
AcDbLine
 62
250
  6
CONTINUOUS
 10
42.2682131635
 20
-40.1062671456
 11
41.761288488
 21
-40.1108983565
  0
LINE
  5
292
100
AcDbEntity
  8
RACCORDO
100
AcDbLine
 62
250
  6
CONTINUOUS
 10
54.086193236
 20
-39.9777845102
 11
53.7939039297
 21
-39.9803510891
  0
LWPOLYLINE
  5
293
100
AcDbEntity
  8
RACCORDO
100
AcDbPolyline
 62
250
  6
CONTINUOUS
 90
3
 70
0
 10
44.7927614661
 20
-40.0808412113
 10
44.462326369
 20
-40.0833065295
 10
43.7637905457
 20
-40.0886385874
  0
LINE
  5
294
100
AcDbEntity
  8
RACCORDO
100
AcDbLine
 62
250
  6
CONTINUOUS
 10
41.761288488
 20
-40.1108983565
 11
38.6689746227
 21
-40.1256881945
  0
LINE
  5
295
100
AcDbEntity
  8
RACCORDO
100
AcDbLine
 62
250
  6
CONTINUOUS
 10
38.6689746227
 20
-40.1256881945
 11
37.1748915319
 21
-40.1320788101
  0
LINE
  5
296
100
AcDbEntity
  8
RACCORDO
100
AcDbLine
 62
250
  6
CONTINUOUS
 10
37.1748915319
 20
-40.1320788101
 11
35.5187309509
 21
-40.1381132827
  0
LINE
  5
297
100
AcDbEntity
  8
RACCORDO
100
AcDbLine
 62
250
  6
CONTINUOUS
 10
35.5187309509
 20
-40.1381132827
 11
34.160664507
 21
-40.1422438355
  0
LINE
  5
298
100
AcDbEntity
  8
RACCORDO
100
AcDbLine
 62
250
  6
CONTINUOUS
 10
34.160664507
 20
-40.1422438355
 11
32.6937581508
 21
-40.1458847161
  0
LINE
  5
299
100
AcDbEntity
  8
RACCORDO
100
AcDbLine
 62
250
  6
CONTINUOUS
 10
32.6937581508
 20
-40.1458847161
 11
31.1092498686
 21
-40.1488896922
  0
LINE
  5
29A
100
AcDbEntity
  8
RACCORDO
100
AcDbLine
 62
250
  6
CONTINUOUS
 10
31.1092498686
 20
-40.1488896922
 11
29.3976573318
 21
-40.1511167546
  0
LINE
  5
29B
100
AcDbEntity
  8
RACCORDO
100
AcDbLine
 62
250
  6
CONTINUOUS
 10
-58.046122889
 20
-40.8289028888
 11
-58.6749906134
 21
-40.8296534214
  0
LINE
  5
29C
100
AcDbEntity
  8
RACCORDO
100
AcDbLine
 62
250
  6
CONTINUOUS
 10
29.3976573318
 20
-40.1511167546
 11
27.5489680094
 21
-40.1524470439
  0
LINE
  5
29D
100
AcDbEntity
  8
RACCORDO
100
AcDbLine
 62
250
  6
CONTINUOUS
 10
-45.3738774285
 20
-40.821485133
 11
-58.046122889
 21
-40.8289028888
  0
LINE
  5
29E
100
AcDbEntity
  8
RACCORDO
100
AcDbLine
 62
250
  6
CONTINUOUS
 10
-24.9272165015
 20
-40.1510981725
 11
-28.7433815625
 21
-40.1527377296
  0
LINE
  5
29F
100
AcDbEntity
  8
RACCORDO
100
AcDbLine
 62
7
  6
CONTINUOUS
 10
-58.9317426944
 20
-41.0864055023
 11
55.0764800971
 21
-41.0864055023
  0
LWPOLYLINE
  5
2A0
100
AcDbEntity
  8
RACCORDO
100
AcDbPolyline
 62
250
  6
CONTINUOUS
 90
3
 70
0
 10
-30.8006637646
 20
-40.8193891069
 10
-37.0964815102
 20
-40.8197579375
 10
-45.3738774285
 20
-40.821485133
  0
LINE
  5
2A1
100
AcDbEntity
  8
RACCORDO
100
AcDbLine
 62
250
  6
CONTINUOUS
 10
27.5489680094
 20
-40.1524470439
 11
25.5526908193
 21
-40.1528187832
  0
LINE
  5
2A2
100
AcDbEntity
  8
RACCORDO
100
AcDbLine
 62
250
  6
CONTINUOUS
 10
21.0719539042
 20
-40.1510982943
 11
-24.9272165015
 21
-40.1510982305
  0
LINE
  5
2A3
100
AcDbEntity
  8
RACCORDO
100
AcDbLine
 62
250
  6
CONTINUOUS
 10
-28.7433815625
 20
-40.1527377296
 11
-30.8007581148
 21
-40.152662928
  0
LINE
  5
2A4
100
AcDbEntity
  8
RACCORDO
100
AcDbLine
 62
250
  6
CONTINUOUS
 10
42.2615671892
 20
-40.8217172608
 11
-30.8006637646
 21
-40.8193891069
  0
LINE
  5
2A5
100
AcDbEntity
  8
RACCORDO
100
AcDbLine
 62
250
  6
CONTINUOUS
 10
25.5526908193
 20
-40.1528187832
 11
24.1351544825
 21
-40.1525429468
  0
LWPOLYLINE
  5
2A6
100
AcDbEntity
  8
RACCORDO
100
AcDbPolyline
 62
250
  6
CONTINUOUS
 90
3
 70
0
 10
42.9510874519
 20
-40.8220225664
 10
42.7301855288
 20
-40.8219115327
 10
42.2615671892
 20
-40.8217172608
  0
LINE
  5
2A7
100
AcDbEntity
  8
RACCORDO
100
AcDbLine
 62
250
  6
CONTINUOUS
 10
24.1351544825
 20
-40.1525429468
 11
22.6421035412
 21
-40.1519612589
  0
LINE
  5
2A8
100
AcDbEntity
  8
RACCORDO
100
AcDbLine
 62
250
  6
CONTINUOUS
 10
43.3673798868
 20
-40.822255126
 11
42.9510874519
 21
-40.8220225664
  0
LINE
  5
2A9
100
AcDbEntity
  8
RACCORDO
100
AcDbLine
 62
250
  6
CONTINUOUS
 10
-30.8007581148
 20
-40.152662928
 11
-32.7015796656
 21
-40.1516213393
  0
LINE
  5
2AA
100
AcDbEntity
  8
RACCORDO
100
AcDbLine
 62
250
  6
CONTINUOUS
 10
22.6421035412
 20
-40.1519612589
 11
21.0719539044
 21
-40.1510981725
  0
LINE
  5
2AB
100
AcDbEntity
  8
RACCORDO
100
AcDbLine
 62
250
  6
CONTINUOUS
 10
54.3108784712
 20
-40.82898375
 11
43.3673798868
 21
-40.822255126
  0
LINE
  5
2AC
100
AcDbEntity
  8
RACCORDO
100
AcDbLine
 62
250
  6
CONTINUOUS
 10
54.3921807383
 20
-40.8290573468
 11
54.3108784712
 21
-40.82898375
  0
LINE
  5
2AD
100
AcDbEntity
  8
RACCORDO
100
AcDbLine
 62
250
  6
CONTINUOUS
 10
54.4754440607
 20
-40.8291475804
 11
54.3921807383
 21
-40.8290573468
  0
LWPOLYLINE
  5
2AE
100
AcDbEntity
  8
RACCORDO
100
AcDbPolyline
 62
250
  6
CONTINUOUS
 90
3
 70
0
 10
54.6032390745
 20
-40.8293123293
 10
54.5603851358
 20
-40.8292538894
 10
54.4754440607
 20
-40.8291475804
  0
LINE
  5
2AF
100
AcDbEntity
  8
RACCORDO
100
AcDbLine
 62
250
  6
CONTINUOUS
 10
-32.7015796656
 20
-40.1516213393
 11
-34.4585936838
 21
-40.14965193
  0
LINE
  5
2B0
100
AcDbEntity
  8
RACCORDO
100
AcDbLine
 62
250
  6
CONTINUOUS
 10
54.6895805318
 20
-40.8294394739
 11
54.6032390745
 21
-40.8293123293
  0
LWPOLYLINE
  5
2B1
100
AcDbEntity
  8
RACCORDO
100
AcDbPolyline
 62
250
  6
CONTINUOUS
 90
3
 70
0
 10
54.8197280162
 20
-40.8296534214
 10
54.7762397338
 20
-40.8295789541
 10
54.6895805318
 20
-40.8294394739
  0
LINE
  5
2B2
100
AcDbEntity
  8
RACCORDO
100
AcDbLine
 62
250
  6
CONTINUOUS
 10
-34.4585936838
 20
-40.14965193
 11
-36.0833913469
 21
-40.1468634672
  0
LINE
  5
2B3
100
AcDbEntity
  8
RACCORDO
100
AcDbLine
 62
250
  6
CONTINUOUS
 10
-36.0833913469
 20
-40.1468634672
 11
-37.58652496
 21
-40.1433949925
  0
LINE
  5
2B4
100
AcDbEntity
  8
RACCORDO
100
AcDbLine
 62
250
  6
CONTINUOUS
 10
-37.58652496
 20
-40.1433949925
 11
-38.9775303313
 21
-40.1393936175
  0
LINE
  5
2B5
100
AcDbEntity
  8
RACCORDO
100
AcDbLine
 62
250
  6
CONTINUOUS
 10
-38.9775303313
 20
-40.1393936175
 11
-40.6732408739
 21
-40.133469706
  0
LINE
  5
2B6
100
AcDbEntity
  8
RACCORDO
100
AcDbLine
 62
250
  6
CONTINUOUS
 10
-40.6732408739
 20
-40.133469706
 11
-42.2033046013
 21
-40.1271398353
  0
LINE
  5
2B7
100
AcDbEntity
  8
RACCORDO
100
AcDbLine
 62
250
  6
CONTINUOUS
 10
-42.2033046013
 20
-40.1271398353
 11
-43.904002424
 21
-40.1191503769
  0
LINE
  5
2B8
100
AcDbEntity
  8
RACCORDO
100
AcDbLine
 62
250
  6
CONTINUOUS
 10
-43.904002424
 20
-40.1191503769
 11
-45.3785216292
 21
-40.1122747539
  0
LINE
  5
2B9
100
AcDbEntity
  8
RACCORDO
100
AcDbLine
 62
250
  6
CONTINUOUS
 10
-45.3785216292
 20
-40.1122747539
 11
-45.6449239588
 21
-40.1107069047
  0
LINE
  5
2BA
100
AcDbEntity
  8
RACCORDO
100
AcDbLine
 62
250
  6
CONTINUOUS
 10
-47.6430269783
 20
-40.0883185594
 11
-48.6752264002
 21
-40.0805897908
  0
LINE
  5
2BB
100
AcDbEntity
  8
RACCORDO
100
AcDbLine
 62
250
  6
CONTINUOUS
 10
-45.6449239588
 20
-40.1107069047
 11
-46.1491810326
 21
-40.1060174008
  0
LINE
  5
2BC
100
AcDbEntity
  8
RACCORDO
100
AcDbLine
 62
250
  6
CONTINUOUS
 10
-57.4465143771
 20
-39.9824307763
 11
-57.8996457217
 21
-39.9782667068
  0
LINE
  5
2BD
100
AcDbEntity
  8
RACCORDO
100
AcDbLine
 62
250
  6
CONTINUOUS
 10
-46.1491810326
 20
-40.1060174008
 11
-46.8383688096
 21
-40.0983285058
  0
LINE
  5
2BE
100
AcDbEntity
  8
RACCORDO
100
AcDbLine
 62
250
  6
CONTINUOUS
 10
-51.9845037227
 20
-40.0407613406
 11
-57.4465143771
 21
-39.9824307763
  0
LWPOLYLINE
  5
2BF
100
AcDbEntity
  8
RACCORDO
100
AcDbPolyline
 62
250
  6
CONTINUOUS
 90
3
 70
0
 10
-50.3551034826
 20
-40.0608761924
 10
-51.5534346831
 20
-40.0460420838
 10
-51.9845037227
 20
-40.0407613406
  0
LINE
  5
2C0
100
AcDbEntity
  8
RACCORDO
100
AcDbLine
 62
250
  6
CONTINUOUS
 10
-48.6752264002
 20
-40.0805897908
 11
-50.3551034826
 21
-40.0608761924
  0
LINE
  5
2C1
100
AcDbEntity
  8
RACCORDO
100
AcDbLine
 62
250
  6
CONTINUOUS
 10
-46.8383688096
 20
-40.0983285058
 11
-47.6430269783
 21
-40.0883185594
  0
LWPOLYLINE
  5
2C2
100
AcDbEntity
  8
RACCORDO
100
AcDbPolyline
 62
250
  6
CONTINUOUS
 90
5
 70
0
 10
-57.8996457217
 20
-39.9782667068
 10
-57.9782403494
 20
-39.9772522116
 10
-58.0172501067
 20
-39.9765504468
 10
-58.0567444401
 20
-39.9755090452
 10
-58.0969063229
 20
-39.9739751104
  0
LWPOLYLINE
  5
2C3
100
AcDbEntity
  8
RACCORDO
100
AcDbPolyline
 62
250
  6
CONTINUOUS
 90
22
 70
0
 10
-58.6749906134
 20
-40.8296534214
 10
-58.8643929721
 20
-40.8237266755
 10
-59.0597008449
 20
-40.8049947102
 10
-59.2599553046
 20
-40.772225227
 10
-59.464801602
 20
-40.7240145314
 10
-59.672108122
 20
-40.6593230927
 10
-59.8781335247
 20
-40.5780533327
 10
-60.0817654356
 20
-40.4795627896
 10
-60.2810369511
 20
-40.3636710725
 10
-60.4713486792
 20
-40.2323798656
 10
-60.650679973
 20
-40.0870327012
 10
-60.8187646131
 20
-39.9277986872
 10
-60.9741917404
 20
-39.755863484
 10
-61.1159858076
 20
-39.5722238666
 10
-61.2432617214
 20
-39.3779365411
 10
-61.355015569
 20
-39.1745214662
 10
-61.4505506942
 20
-38.9633773325
 10
-61.5294252603
 20
-38.7456303658
 10
-61.591228963
 20
-38.5225017924
 10
-61.635618565
 20
-38.2952929979
 10
-61.6623413607
 20
-38.0653853784
 10
-61.6712585904
 20
-37.8341441898
  0
LINE
  5
2C4
100
AcDbEntity
  8
RACCORDO
100
AcDbLine
 62
250
  6
CONTINUOUS
 10
-58.4836494749
 20
-39.9571702271
 11
-58.7077823466
 21
-39.9497049172
  0
LINE
  5
2C5
100
AcDbEntity
  8
RACCORDO
100
AcDbLine
 62
250
  6
CONTINUOUS
 10
-58.3509621197
 20
-39.9622342435
 11
-58.4836494749
 21
-39.9571702271
  0
LWPOLYLINE
  5
2C6
100
AcDbEntity
  8
RACCORDO
100
AcDbPolyline
 62
250
  6
CONTINUOUS
 90
3
 70
0
 10
-58.0969063229
 20
-39.9739751104
 10
-58.264222028
 20
-39.9660647786
 10
-58.3509621197
 20
-39.9622342435
  0
LWPOLYLINE
  5
2C7
100
AcDbEntity
  8
RACCORDO
100
AcDbPolyline
 62
250
  6
CONTINUOUS
 90
22
 70
0
 10
-58.7077821593
 20
-39.9497042393
 10
-58.8377968041
 20
-39.9416788836
 10
-58.9718344316
 20
-39.9250242886
 10
-59.1091899236
 20
-39.8989420582
 10
-59.2496451189
 20
-39.8625094669
 10
-59.3917750597
 20
-39.8150484124
 10
-59.5330530005
 20
-39.7565110097
 10
-59.6727566888
 20
-39.6864912127
 10
-59.8095738172
 20
-39.6048881122
 10
-59.9403658368
 20
-39.5130553995
 10
-60.0637757642
 20
-39.4118875054
 10
-60.1796876787
 20
-39.3014969615
 10
-60.2871667873
 20
-39.1826446152
 10
-60.3855495766
 20
-39.0559467654
 10
-60.4743020027
 20
-38.9221270785
 10
-60.552778978
 20
-38.7821994189
 10
-60.6204851242
 20
-38.6370629181
 10
-60.677151975
 20
-38.4874448645
 10
-60.7225518828
 20
-38.3341364328
 10
-60.7564341234
 20
-38.1779590133
 10
-60.7786090867
 20
-38.0198285485
 10
-60.7890475988
 20
-37.8607641092
  0
LINE
  5
2C8
100
AcDbEntity
  8
RACCORDO
100
AcDbLine
 62
250
  6
CONTINUOUS
 10
-35.3776312986
 20
-25.2876260189
 11
-35.3717815161
 21
-25.9346772564
  0
LWPOLYLINE
  5
2C9
100
AcDbEntity
  8
RACCORDO
100
AcDbPolyline
 62
250
  6
CONTINUOUS
 90
3
 70
0
 10
-35.3717815161
 20
-25.9346772564
 10
-35.3662916794
 20
-26.6532093977
 10
-35.3650159848
 20
-26.8388659919
  0
LINE
  5
2CA
100
AcDbEntity
  8
RACCORDO
100
AcDbLine
 62
250
  6
CONTINUOUS
 10
-37.2593860599
 20
19.1800849682
 11
-37.2618543053
 21
21.2135944977
  0
LINE
  5
2CB
100
AcDbEntity
  8
RACCORDO
100
AcDbLine
 62
250
  6
CONTINUOUS
 10
-38.9507129391
 20
-19.8730577573
 11
-38.9519572105
 21
-18.3085579137
  0
LINE
  5
2CC
100
AcDbEntity
  8
RACCORDO
100
AcDbLine
 62
250
  6
CONTINUOUS
 10
-38.9519572105
 20
-18.3085579137
 11
-38.9538297761
 21
-14.9130764845
  0
LINE
  5
2CD
100
AcDbEntity
  8
RACCORDO
100
AcDbLine
 62
250
  6
CONTINUOUS
 10
-37.2576336256
 20
16.1386185638
 11
-37.2593860599
 21
19.1800849682
  0
LINE
  5
2CE
100
AcDbEntity
  8
RACCORDO
100
AcDbLine
 62
250
  6
CONTINUOUS
 10
-38.9538297761
 20
-14.9130764845
 11
-38.954896003
 21
-11.1398465368
  0
LINE
  5
2CF
100
AcDbEntity
  8
RACCORDO
100
AcDbLine
 62
250
  6
CONTINUOUS
 10
-37.252005421
 20
-1.0864183358
 11
-37.2576336256
 21
16.1386185638
  0
LINE
  5
2D0
100
AcDbEntity
  8
RACCORDO
100
AcDbLine
 62
250
  6
CONTINUOUS
 10
-38.954896003
 20
-11.1398465368
 11
-38.9554339065
 21
-1.085976047
  0
LINE
  5
2D1
100
AcDbEntity
  8
0
100
AcDbLine
 62
7
  6
CONTINUOUS
 10
-35.6776312986
 20
21.2135944977
 11
-35.6776312986
 21
-23.3864055023
  0
LINE
  5
2D2
100
AcDbEntity
  8
RACCORDO
100
AcDbLine
 62
250
  6
CONTINUOUS
 10
-35.3776312986
 20
-23.6864055023
 11
-35.3776312986
 21
-25.287625897
  0
LINE
  5
2D3
100
AcDbEntity
  8
RACCORDO
100
AcDbLine
 62
250
  6
CONTINUOUS
 10
-35.3776312986
 20
21.5135944977
 11
-35.3776312986
 21
23.1148148924
  0
LINE
  5
2D4
100
AcDbEntity
  8
RACCORDO
100
AcDbLine
 62
250
  6
CONTINUOUS
 10
-38.955433825
 20
-1.0859760462
 11
-38.9547016538
 21
9.9480198708
  0
LINE
  5
2D5
100
AcDbEntity
  8
RACCORDO
100
AcDbLine
 62
250
  6
CONTINUOUS
 10
-38.9547016538
 20
9.9480198708
 11
-38.9529992336
 21
14.4818460534
  0
LINE
  5
2D6
100
AcDbEntity
  8
RACCORDO
100
AcDbLine
 62
250
  6
CONTINUOUS
 10
-37.2593866623
 20
-21.3532996463
 11
-37.252005421
 21
-1.0864183358
  0
LINE
  5
2D7
100
AcDbEntity
  8
RACCORDO
100
AcDbLine
 62
250
  6
CONTINUOUS
 10
-38.9529992336
 20
14.4818460534
 11
-38.9499080211
 21
18.4486794279
  0
LINE
  5
2D8
100
AcDbEntity
  8
RACCORDO
100
AcDbLine
 62
250
  6
CONTINUOUS
 10
-37.2618543053
 20
-23.3864055023
 11
-37.2593866623
 21
-21.3532996463
  0
LINE
  5
2D9
100
AcDbEntity
  8
RACCORDO
100
AcDbLine
 62
250
  6
CONTINUOUS
 10
-35.3776312987
 20
23.1148139155
 11
-35.3650160409
 21
24.666056078
  0
LWPOLYLINE
  5
2DA
100
AcDbEntity
  8
RACCORDO
100
AcDbPolyline
 62
250
  6
CONTINUOUS
 90
67
 70
0
 10
-37.2618543053
 20
21.2135944977
 10
-37.2604551392
 20
21.2926407068
 10
-37.2559070334
 20
21.3690718471
 10
-37.2485214532
 20
21.44277451
 10
-37.2386092158
 20
21.5135653265
 10
-37.2264681319
 20
21.5814709236
 10
-37.212347515
 20
21.6467232658
 10
-37.1964898898
 20
21.7093005395
 10
-37.1791406974
 20
21.7691715915
 10
-37.1604860805
 20
21.8265707635
 10
-37.140729852
 20
21.8815247093
 10
-37.1200573614
 20
21.9340200429
 10
-37.0985764679
 20
21.9842360938
 10
-37.0764620529
 20
22.0321656703
 10
-37.0538564771
 20
22.0778645366
 10
-37.0307739914
 20
22.1215999244
 10
-37.0073281244
 20
22.1634130109
 10
-36.9836431994
 20
22.2033203468
 10
-36.9597080815
 20
22.2415397271
 10
-36.9356142024
 20
22.2781014252
 10
-36.9114519621
 20
22.3130350805
 10
-36.8871766896
 20
22.3465444804
 10
-36.8628297474
 20
22.3786930047
 10
-36.8385048763
 20
22.4094712376
 10
-36.814215969
 20
22.4389648257
 10
-36.7899896686
 20
22.4672372972
 10
-36.7659106298
 20
22.4942805387
 10
-36.7420752477
 20
22.5200736194
 10
-36.718571676
 20
22.5446126998
 10
-36.695415882
 20
22.5679684632
 10
-36.6725918089
 20
22.5902316135
 10
-36.6501959975
 20
22.6113833867
 10
-36.6282151935
 20
22.631504844
 10
-36.606452571
 20
22.6508225776
 10
-36.5849463006
 20
22.6693490994
 10
-36.5637105786
 20
22.6871116919
 10
-36.5424917147
 20
22.704336613
 10
-36.5213823075
 20
22.7209705867
 10
-36.5003199817
 20
22.7370856351
 10
-36.4787920694
 20
22.7530626556
 10
-36.456811436
 20
22.7688751027
 10
-36.4343607573
 20
22.7845231188
 10
-36.4108484071
 20
22.8003804365
 10
-36.386150912
 20
22.8164637794
 10
-36.3603516267
 20
22.8326695533
 10
-36.3331421554
 20
22.8491491509
 10
-36.3043948608
 20
22.8659020457
 10
-36.2741797693
 20
22.8827972588
 10
-36.2424756285
 20
22.8997717709
 10
-36.2093186375
 20
22.9167233336
 10
-36.1746235725
 20
22.9336071348
 10
-36.1381830008
 20
22.9504299765
 10
-36.099882752
 20
22.9671334242
 10
-36.0597846837
 20
22.9835746851
 10
-36.0179453848
 20
22.9996208466
 10
-35.974333109
 20
23.0151827306
 10
-35.9289506952
 20
23.030133217
 10
-35.8819197468
 20
23.0442906482
 10
-35.8333763817
 20
23.0575283943
 10
-35.783193912
 20
23.0697603725
 10
-35.7311132855
 20
23.0808483483
 10
-35.6771475355
 20
23.0906372772
 10
-35.6213304822
 20
23.0989964128
 10
-35.5634455597
 20
23.1057737726
 10
-35.5034532479
 20
23.1107902414
 10
-35.4414927661
 20
23.1138649476
 10
-35.3776312986
 20
23.1148148924
  0
LINE
  5
2DB
100
AcDbEntity
  8
RACCORDO
100
AcDbLine
 62
250
  6
CONTINUOUS
 10
57.3686532011
 20
-37.8558637703
 11
57.1605429682
 21
-37.8589887148
  0
LINE
  5
2DC
100
AcDbEntity
  8
RACCORDO
100
AcDbLine
 62
250
  6
CONTINUOUS
 10
57.1605429682
 20
-37.8589887148
 11
56.9337849309
 21
-37.8607640931
  0
LINE
  5
2DD
100
AcDbEntity
  8
RACCORDO
100
AcDbLine
 62
250
  6
CONTINUOUS
 10
-61.0158201611
 20
-37.8589894037
 11
-60.7890483702
 21
-37.8607642857
  0
LWPOLYLINE
  5
2DE
100
AcDbEntity
  8
SCRITTA_VIMAR
100
AcDbPolyline
 62
250
  6
CONTINUOUS
 90
32
 70
0
 10
32.1692208019
 20
-27.7049968961
 10
32.2324794188
 20
-27.6959508144
 10
32.2949801773
 20
-27.6875407706
 10
32.3567389671
 20
-27.679770229
 10
32.4177716784
 20
-27.6726426539
 10
32.4780942011
 20
-27.6661615096
 10
32.5377224251
 20
-27.6603302604
 10
32.5966722404
 20
-27.6551523707
 10
32.6549558165
 20
-27.650633972
 10
32.7125704411
 20
-27.6467918659
 10
32.7695096815
 20
-27.6436455211
 10
32.8257671049
 20
-27.6412144063
 10
32.8813362787
 20
-27.6395179903
 10
32.9362107701
 20
-27.6385757419
 10
32.9903841463
 20
-27.6384071299
 10
33.0372030649
 20
-27.6389109622
 10
33.0834603867
 20
-27.6400436931
 10
33.1291362312
 20
-27.6418269999
 10
33.174210718
 20
-27.6442825603
 10
33.2186639666
 20
-27.6474320515
 10
33.2624760966
 20
-27.651297151
 10
33.3056272275
 20
-27.6558995364
 10
33.3480974788
 20
-27.6612608849
 10
33.3852638495
 20
-27.6666831959
 10
33.4218788327
 20
-27.6727494691
 10
33.4579447281
 20
-27.6794868642
 10
33.493463835
 20
-27.686922541
 10
33.5284384531
 20
-27.6950836593
 10
33.5628708819
 20
-27.7039973786
 10
33.5967634207
 20
-27.7136908588
 10
33.6301183693
 20
-27.7241912597
 10
33.662938027
 20
-27.7355257408
  0
LWPOLYLINE
  5
2DF
100
AcDbEntity
  8
SCRITTA_VIMAR
100
AcDbPolyline
 62
250
  6
CONTINUOUS
 90
57
 70
0
 10
33.0978934704
 20
-28.9611153423
 10
33.113680331
 20
-28.9606280514
 10
33.1292109651
 20
-28.9598719393
 10
33.144540065
 20
-28.9588380076
 10
33.1597223231
 20
-28.957517258
 10
33.1748124318
 20
-28.9559006922
 10
33.1898650835
 20
-28.9539793119
 10
33.2049233534
 20
-28.9517422938
 10
33.2199838495
 20
-28.9491715148
 10
33.2350315625
 20
-28.946247027
 10
33.2500514833
 20
-28.9429488822
 10
33.2650286028
 20
-28.9392571325
 10
33.2799479117
 20
-28.9351518298
 10
33.2926764203
 20
-28.9312891253
 10
33.3053294928
 20
-28.9270977783
 10
33.3178851931
 20
-28.9225676366
 10
33.3303215853
 20
-28.9176885481
 10
33.3426167334
 20
-28.9124503609
 10
33.3547487014
 20
-28.9068429228
 10
33.3666955532
 20
-28.9008560818
 10
33.3769776511
 20
-28.8953006029
 10
33.38707273
 20
-28.8894533707
 10
33.3969522953
 20
-28.883320885
 10
33.4065878522
 20
-28.8769096457
 10
33.4159567401
 20
-28.8702242391
 10
33.4250596352
 20
-28.863261598
 10
33.4339030476
 20
-28.8560167415
 10
33.4424934875
 20
-28.8484846889
 10
33.4508365499
 20
-28.8406615489
 10
33.4589341693
 20
-28.8325477875
 10
33.4667873649
 20
-28.82414496
 10
33.474397156
 20
-28.8154546219
 10
33.4817617088
 20
-28.8064813056
 10
33.4888677773
 20
-28.7972414524
 10
33.4956992623
 20
-28.7877544808
 10
33.5022400646
 20
-28.778039809
 10
33.5084747797
 20
-28.7681172588
 10
33.5143907816
 20
-28.7580082655
 10
33.519976139
 20
-28.7477346677
 10
33.5252189205
 20
-28.7373183038
 10
33.5301103732
 20
-28.7267795172
 10
33.5346544587
 20
-28.7161326703
 10
33.538858317
 20
-28.7053906302
 10
33.5427290881
 20
-28.6945662642
 10
33.5462751079
 20
-28.6836685818
 10
33.5495094963
 20
-28.6726911623
 10
33.5524465687
 20
-28.6616237274
 10
33.5551006407
 20
-28.650455999
 10
33.5582212379
 20
-28.6354059646
 10
33.5608819917
 20
-28.6202192792
 10
33.5631007208
 20
-28.6049558642
 10
33.5648949823
 20
-28.589655471
 10
33.5662812884
 20
-28.5742771726
 10
33.56727589
 20
-28.5587598719
 10
33.5678950379
 20
-28.5430424721
 10
33.5681549831
 20
-28.5270638763
 10
33.5680719763
 20
-28.5107629876
  0
LINE
  5
2E0
100
AcDbEntity
  8
SCRITTA_VIMAR
100
AcDbLine
 62
250
  6
CONTINUOUS
 10
34.2811471314
 20
-30.5707725958
 11
33.6989464079
 21
-30.5707725958
  0
LINE
  5
2E1
100
AcDbEntity
  8
SCRITTA_VIMAR
100
AcDbLine
 62
250
  6
CONTINUOUS
 10
32.772056763
 20
-30.5707725958
 11
32.1692208019
 21
-30.5707725958
  0
LINE
  5
2E2
100
AcDbEntity
  8
SCRITTA_VIMAR
100
AcDbLine
 62
250
  6
CONTINUOUS
 10
26.2451247014
 20
-30.5707725023
 11
25.6398537014
 21
-30.5707725023
  0
LINE
  5
2E3
100
AcDbEntity
  8
SCRITTA_VIMAR
100
AcDbLine
 62
250
  6
CONTINUOUS
 10
23.9497747014
 20
-30.5707725023
 11
24.4831707014
 21
-30.5707725023
  0
LINE
  5
2E4
100
AcDbEntity
  8
SCRITTA_VIMAR
100
AcDbLine
 62
250
  6
CONTINUOUS
 10
26.5709617014
 20
-30.5707725023
 11
27.1500087014
 21
-30.5707725023
  0
LINE
  5
2E5
100
AcDbEntity
  8
SCRITTA_VIMAR
100
AcDbLine
 62
250
  6
CONTINUOUS
 10
27.9906827014
 20
-30.5707725023
 11
28.0755727014
 21
-30.5707725023
  0
LINE
  5
2E6
100
AcDbEntity
  8
SCRITTA_VIMAR
100
AcDbLine
 62
250
  6
CONTINUOUS
 10
28.9195947014
 20
-30.5707725023
 11
29.5117107014
 21
-30.5707725023
  0
LINE
  5
2E7
100
AcDbEntity
  8
SCRITTA_VIMAR
100
AcDbLine
 62
250
  6
CONTINUOUS
 10
29.6067547014
 20
-30.5707725023
 11
30.2054597014
 21
-30.5707725023
  0
LINE
  5
2E8
100
AcDbEntity
  8
SCRITTA_VIMAR
100
AcDbLine
 62
250
  6
CONTINUOUS
 10
31.3535527014
 20
-30.5707725023
 11
31.9914837014
 21
-30.5707725023
  0
LINE
  5
2E9
100
AcDbEntity
  8
SCRITTA_VIMAR
100
AcDbLine
 62
250
  6
CONTINUOUS
 10
30.3724767014
 20
-29.9918985023
 11
31.1967557014
 21
-29.9918985023
  0
LINE
  5
2EA
100
AcDbEntity
  8
SCRITTA_VIMAR
100
AcDbLine
 62
250
  6
CONTINUOUS
 10
31.0757927014
 20
-29.5439685023
 11
30.4962877014
 21
-29.5439685023
  0
LINE
  5
2EB
100
AcDbEntity
  8
SCRITTA_VIMAR
100
AcDbLine
 62
250
  6
CONTINUOUS
 10
33.096588819
 20
-29.4360084815
 11
32.772056763
 21
-29.4360084815
  0
LINE
  5
2EC
100
AcDbEntity
  8
RACCORDO
100
AcDbLine
 62
250
  6
CONTINUOUS
 10
-24.9272165015
 20
-40.8195238531
 11
-24.9274205914
 21
-40.8040717965
  0
LINE
  5
2ED
100
AcDbEntity
  8
RACCORDO
100
AcDbLine
 62
250
  6
CONTINUOUS
 10
-24.926949215
 20
-25.2884326686
 11
-24.92567349
 21
-25.4460425882
  0
LINE
  5
2EE
100
AcDbEntity
  8
RACCORDO
100
AcDbLine
 62
250
  6
CONTINUOUS
 10
-24.92567349
 20
-25.4460425882
 11
-24.9244088449
 21
-25.7810118271
  0
LINE
  5
2EF
100
AcDbEntity
  8
RACCORDO
100
AcDbLine
 62
250
  6
CONTINUOUS
 10
-24.9274205914
 20
-40.8040717965
 11
-24.9276157821
 21
-40.7229307473
  0
LINE
  5
2F0
100
AcDbEntity
  8
RACCORDO
100
AcDbLine
 62
250
  6
CONTINUOUS
 10
-24.9276525173
 20
23.115621664
 11
-24.9276525173
 21
24.7193810777
  0
LINE
  5
2F1
100
AcDbEntity
  8
RACCORDO
100
AcDbLine
 62
250
  6
CONTINUOUS
 10
-24.9276338262
 20
38.6467128485
 11
-24.9276338262
 21
37.9782872897
  0
LINE
  5
2F2
100
AcDbEntity
  8
RACCORDO
100
AcDbLine
 62
250
  6
CONTINUOUS
 10
-24.9275872672
 20
37.9782872897
 11
-24.9271079506
 21
24.7193810777
  0
LINE
  5
2F3
100
AcDbEntity
  8
RACCORDO
100
AcDbLine
 62
250
  6
CONTINUOUS
 10
-24.9276157821
 20
-40.7229307473
 11
-24.9274715116
 21
-26.8921930587
  0
LINE
  5
2F4
100
AcDbEntity
  8
RACCORDO
100
AcDbLine
 62
250
  6
CONTINUOUS
 10
-24.9265535197
 20
-26.7003345323
 11
-24.926949215
 21
-26.8921920823
  0
LINE
  5
2F5
100
AcDbEntity
  8
RACCORDO
100
AcDbLine
 62
250
  6
CONTINUOUS
 10
-24.9244088449
 20
-25.7810118271
 11
-24.9265535197
 21
-26.7003345323
  0
LWPOLYLINE
  5
2F6
100
AcDbEntity
  8
RACCORDO
100
AcDbPolyline
 62
250
  6
CONTINUOUS
 90
7
 70
0
 10
31.5097534437
 20
-26.8388670825
 10
30.448069089
 20
-26.8525324376
 10
29.3604605974
 20
-26.8629167825
 10
28.2477454198
 20
-26.870663421
 10
27.1100259676
 20
-26.876410832
 10
25.9478800861
 20
-26.8806021743
 10
24.7628860837
 20
-26.883711663
  0
LWPOLYLINE
  5
2F7
100
AcDbEntity
  8
RACCORDO
100
AcDbPolyline
 62
250
  6
CONTINUOUS
 90
3
 70
0
 10
24.7628860837
 20
-26.883711663
 10
22.3251366559
 20
-26.8888870581
 10
21.0716866185
 20
-26.8921964103
  0
LINE
  5
2F8
100
AcDbEntity
  8
RACCORDO
100
AcDbLine
 62
250
  6
CONTINUOUS
 10
-33.2220039126
 20
-25.2858104478
 11
-35.3776312986
 21
-25.287625897
  0
LINE
  5
2F9
100
AcDbEntity
  8
RACCORDO
100
AcDbLine
 62
250
  6
CONTINUOUS
 10
22.3215185329
 20
-25.2876227417
 11
21.0697478357
 21
-25.2884326686
  0
LINE
  5
2FA
100
AcDbEntity
  8
RACCORDO
100
AcDbLine
 62
250
  6
CONTINUOUS
 10
25.9445164808
 20
-25.2858580101
 11
22.3215185329
 21
-25.2876227417
  0
LINE
  5
2FB
100
AcDbEntity
  8
SCRITTA_VIMAR
100
AcDbLine
 62
250
  6
CONTINUOUS
 10
32.7519868744
 20
-28.9611153423
 11
33.0978934704
 21
-28.9611153423
  0
LINE
  5
2FC
100
AcDbEntity
  8
SCRITTA_VIMAR
100
AcDbLine
 62
250
  6
CONTINUOUS
 10
31.1017987014
 20
-27.6711195023
 11
30.5162707014
 21
-27.6711195023
  0
LINE
  5
2FD
100
AcDbEntity
  8
SCRITTA_VIMAR
100
AcDbLine
 62
250
  6
CONTINUOUS
 10
29.2405607014
 20
-27.6711195023
 11
28.6417037014
 21
-27.6711195023
  0
LINE
  5
2FE
100
AcDbEntity
  8
SCRITTA_VIMAR
100
AcDbLine
 62
250
  6
CONTINUOUS
 10
27.4375547014
 20
-27.6711195023
 11
26.8327827014
 21
-27.6711195023
  0
LINE
  5
2FF
100
AcDbEntity
  8
SCRITTA_VIMAR
100
AcDbLine
 62
250
  6
CONTINUOUS
 10
25.4152357014
 20
-27.6711195023
 11
24.8103777014
 21
-27.6711195023
  0
LINE
  5
300
100
AcDbEntity
  8
SCRITTA_VIMAR
100
AcDbLine
 62
250
  6
CONTINUOUS
 10
23.6880407014
 20
-27.6711195023
 11
23.0305287014
 21
-27.6711195023
  0
LINE
  5
301
100
AcDbEntity
  8
SCRITTA_VIMAR
100
AcDbLine
 62
250
  6
CONTINUOUS
 10
25.6398537014
 20
-27.6709455023
 11
26.2451247014
 21
-27.6709455023
  0
LINE
  5
302
100
AcDbEntity
  8
RACCORDO
100
AcDbLine
 62
250
  6
CONTINUOUS
 10
21.0716866178
 20
-26.8921920823
 11
-24.926949215
 21
-26.8921920823
  0
LINE
  5
303
100
AcDbEntity
  8
RACCORDO
100
AcDbLine
 62
250
  6
CONTINUOUS
 10
21.0716866178
 20
-25.2884326686
 11
-24.926949215
 21
-25.2884326686
  0
LINE
  5
304
100
AcDbEntity
  8
RACCORDO
100
AcDbLine
 62
250
  6
CONTINUOUS
 10
-30.9710191394
 20
-25.285465111
 11
-33.2220039126
 21
-25.2858104478
  0
LINE
  5
305
100
AcDbEntity
  8
RACCORDO
100
AcDbLine
 62
250
  6
CONTINUOUS
 10
28.2481146486
 20
-25.2854258037
 11
25.9445164808
 21
-25.2858580101
  0
LINE
  5
306
100
AcDbEntity
  8
RACCORDO
100
AcDbLine
 62
250
  6
CONTINUOUS
 10
-24.9250109307
 20
-25.2884326686
 11
-30.9710191394
 21
-25.285465111
  0
LWPOLYLINE
  5
307
100
AcDbEntity
  8
RACCORDO
100
AcDbPolyline
 62
250
  6
CONTINUOUS
 90
3
 70
0
 10
31.5223687014
 20
-25.287625897
 10
30.4548675885
 20
-25.286543481
 10
28.2481146486
 20
-25.2854258037
  0
LWPOLYLINE
  5
308
100
AcDbEntity
  8
RACCORDO
100
AcDbPolyline
 62
250
  6
CONTINUOUS
 90
7
 70
0
 10
-28.6288278052
 20
-26.8836864211
 10
-29.8131222825
 20
-26.8805717219
 10
-30.9727555216
 20
-26.8763793203
 10
-32.1080322417
 20
-26.8706327046
 10
-33.2189998754
 20
-26.8628852192
 10
-34.3049308755
 20
-26.8525076721
 10
-35.3650160343
 20
-26.8388669588
  0
LWPOLYLINE
  5
309
100
AcDbEntity
  8
RACCORDO
100
AcDbPolyline
 62
250
  6
CONTINUOUS
 90
3
 70
0
 10
-24.9269492164
 20
-26.8921964097
 10
-26.1857765729
 20
-26.8888752985
 10
-28.6288278052
 20
-26.8836864211
  0
LWPOLYLINE
  5
30A
100
AcDbEntity
  8
RACCORDO
100
AcDbPolyline
 62
250
  6
CONTINUOUS
 90
70
 70
0
 10
-35.3776312986
 20
-25.287625897
 10
-35.4384303947
 20
-25.2867732637
 10
-35.4974331666
 20
-25.2839944504
 10
-35.5545815769
 20
-25.2794543751
 10
-35.6097288448
 20
-25.2733197861
 10
-35.6629356885
 20
-25.2657491172
 10
-35.7144676743
 20
-25.2568641404
 10
-35.7642513963
 20
-25.2467873776
 10
-35.8123172083
 20
-25.2356465055
 10
-35.8590908215
 20
-25.2235069794
 10
-35.9047931669
 20
-25.2103919188
 10
-35.9491800295
 20
-25.1964308438
 10
-35.9919905303
 20
-25.1818310218
 10
-36.0331900502
 20
-25.1667161323
 10
-36.0728322775
 20
-25.1511516222
 10
-36.110806018
 20
-25.1352798347
 10
-36.1470549106
 20
-25.1192295801
 10
-36.1816783042
 20
-25.1030560636
 10
-36.2148022584
 20
-25.086787183
 10
-36.246452527
 20
-25.0704948143
 10
-36.2766491951
 20
-25.0542519178
 10
-36.3055057786
 20
-25.0380716318
 10
-36.3330509963
 20
-25.0220164273
 10
-36.359302638
 20
-25.006139638
 10
-36.3843528648
 20
-24.9904280817
 10
-36.4080845485
 20
-24.9750150356
 10
-36.4306604404
 20
-24.9598645064
 10
-36.4525755007
 20
-24.9446817735
 10
-36.4738250397
 20
-24.9294926929
 10
-36.494430028
 20
-24.9143142329
 10
-36.5148951766
 20
-24.8987963451
 10
-36.5352677234
 20
-24.8828961063
 10
-36.5554864834
 20
-24.8666552763
 10
-36.5758681108
 20
-24.8498172277
 10
-36.5964339506
 20
-24.8323359965
 10
-36.6171258503
 20
-24.8142307036
 10
-36.6381224845
 20
-24.795320438
 10
-36.6594039563
 20
-24.7755796713
 10
-36.6809336746
 20
-24.7549911822
 10
-36.7028483809
 20
-24.7333699381
 10
-36.7251439444
 20
-24.7106494776
 10
-36.7477411257
 20
-24.6868370723
 10
-36.7706502168
 20
-24.6618475838
 10
-36.7938593107
 20
-24.6356063819
 10
-36.8172762751
 20
-24.6081246264
 10
-36.8407884625
 20
-24.579447076
 10
-36.8643075172
 20
-24.5495931473
 10
-36.8878144134
 20
-24.5184940139
 10
-36.9112973563
 20
-24.4860640008
 10
-36.9346693569
 20
-24.45231043
 10
-36.9578866477
 20
-24.4171777907
 10
-36.9809833915
 20
-24.3804782172
 10
-37.0038764134
 20
-24.342181086
 10
-37.026475092
 20
-24.3022648339
 10
-37.048774192
 20
-24.2605447522
 10
-37.0706666267
 20
-24.2169895804
 10
-37.092036461
 20
-24.1715830756
 10
-37.112834468
 20
-24.1241559485
 10
-37.1329361907
 20
-24.0746632687
 10
-37.1521865391
 20
-24.0231177749
 10
-37.1704634144
 20
-23.9694366795
 10
-37.1876094434
 20
-23.9136569517
 10
-37.2034588624
 20
-23.8557455143
 10
-37.217843393
 20
-23.7955228115
 10
-37.2305630741
 20
-23.7329888078
 10
-37.2414189146
 20
-23.6682038547
 10
-37.2502042826
 20
-23.6010946917
 10
-37.2566929169
 20
-23.5316832312
 10
-37.2606539014
 20
-23.4600884339
 10
-37.2618543053
 20
-23.3864055023
  0
LWPOLYLINE
  5
30B
100
AcDbEntity
  8
RACCORDO
100
AcDbPolyline
 62
250
  6
CONTINUOUS
 90
70
 70
0
 10
-35.3650159848
 20
-26.8388659919
 10
-35.4827463741
 20
-26.8352471113
 10
-35.5969588434
 20
-26.8281195736
 10
-35.7075114263
 20
-26.817831158
 10
-35.814170476
 20
-26.8047225533
 10
-35.917079389
 20
-26.789109336
 10
-36.0166877429
 20
-26.7712447262
 10
-36.112948506
 20
-26.7511537152
 10
-36.2054063846
 20
-26.7294895793
 10
-36.2940254035
 20
-26.7073612978
 10
-36.3787378305
 20
-26.6857092789
 10
-36.4597458929
 20
-26.6641344774
 10
-36.53749962
 20
-26.6416560208
 10
-36.6124787142
 20
-26.6180211776
 10
-36.6848719267
 20
-26.593629964
 10
-36.7544511088
 20
-26.5685198681
 10
-36.8210615686
 20
-26.542869899
 10
-36.8848007554
 20
-26.5168609538
 10
-36.9458188371
 20
-26.4905295567
 10
-37.0040528785
 20
-26.4640549504
 10
-37.0596549246
 20
-26.4375142169
 10
-37.1131594516
 20
-26.4107048837
 10
-37.1647977097
 20
-26.383627253
 10
-37.2146129655
 20
-26.3563118676
 10
-37.2627652882
 20
-26.3285985151
 10
-37.3090197473
 20
-26.3005105686
 10
-37.353564373
 20
-26.2721958353
 10
-37.3970541807
 20
-26.2437346089
 10
-37.4393053606
 20
-26.2154651683
 10
-37.4801596134
 20
-26.1874101389
 10
-37.5203918537
 20
-26.1590395645
 10
-37.5600667994
 20
-26.1303263367
 10
-37.5991363482
 20
-26.1013231527
 10
-37.6381800427
 20
-26.0715502951
 10
-37.6772246286
 20
-26.0409934809
 10
-37.7161945604
 20
-26.0096633391
 10
-37.7555102331
 20
-25.9770387756
 10
-37.7952260836
 20
-25.9429629417
 10
-37.8354034097
 20
-25.9073329383
 10
-37.8764108272
 20
-25.8696868027
 10
-37.9182514369
 20
-25.8298987959
 10
-37.9607221003
 20
-25.7880255778
 10
-38.0037990188
 20
-25.743908673
 10
-38.0474657522
 20
-25.6974052196
 10
-38.0915671779
 20
-25.6485203963
 10
-38.1358837828
 20
-25.5973029619
 10
-38.1802485163
 20
-25.5437848672
 10
-38.2246243972
 20
-25.4878436816
 10
-38.2689718128
 20
-25.4293096941
 10
-38.3131284154
 20
-25.3681940105
 10
-38.3570113843
 20
-25.3043941717
 10
-38.4006673656
 20
-25.2375549095
 10
-38.4439425831
 20
-25.1676208528
 10
-38.4866623474
 20
-25.0945559674
 10
-38.5287893734
 20
-25.0180191512
 10
-38.5701237977
 20
-24.9379672095
 10
-38.6104431223
 20
-24.8543705085
 10
-38.6496180155
 20
-24.7668998819
 10
-38.6873184825
 20
-24.6754858992
 10
-38.7233618709
 20
-24.5801485071
 10
-38.7577891662
 20
-24.4806620656
 10
-38.7902906307
 20
-24.3769977135
 10
-38.8206163117
 20
-24.2687998413
 10
-38.8488070301
 20
-24.1552104186
 10
-38.8746730715
 20
-24.0358951129
 10
-38.8974087176
 20
-23.9114095487
 10
-38.9160432629
 20
-23.7824029265
 10
-38.9299556665
 20
-23.6493530916
 10
-38.9388808109
 20
-23.5122883838
 10
-38.9423992262
 20
-23.3712681199
  0
LWPOLYLINE
  5
30C
100
AcDbEntity
  8
SCRITTA_VIMAR
100
AcDbPolyline
 62
250
  6
CONTINUOUS
 90
24
 70
0
 10
33.2261478127
 20
-28.1480330955
 10
33.2038662017
 20
-28.1455899492
 10
33.1815809377
 20
-28.143438187
 10
33.1592988072
 20
-28.1415874591
 10
33.137026597
 20
-28.1400474157
 10
33.1147710937
 20
-28.1388277069
 10
33.0925390839
 20
-28.137937983
 10
33.0703373542
 20
-28.1373878941
 10
33.0509370074
 20
-28.1371916133
 10
33.03154554
 20
-28.1372623414
 10
33.0121434521
 20
-28.1375996658
 10
32.9927112439
 20
-28.138203174
 10
32.9732294156
 20
-28.1390724532
 10
32.9536784672
 20
-28.140207091
 10
32.9340388989
 20
-28.1416066747
 10
32.9142912109
 20
-28.1432707917
 10
32.8944196327
 20
-28.1451971673
 10
32.8744233116
 20
-28.147376078
 10
32.8543051241
 20
-28.1497959382
 10
32.834067947
 20
-28.1524451622
 10
32.8137146568
 20
-28.1553121646
 10
32.7932481302
 20
-28.1583853596
 10
32.7726712438
 20
-28.1616531617
 10
32.7519868744
 20
-28.1651039852
  0
LINE
  5
30D
100
AcDbEntity
  8
RACCORDO
100
AcDbLine
 62
250
  6
CONTINUOUS
 10
33.4065933632
 20
-23.3864055023
 11
34.1099934944
 21
-23.3793480136
  0
LWPOLYLINE
  5
30E
100
AcDbEntity
  8
RACCORDO
100
AcDbPolyline
 62
250
  6
CONTINUOUS
 90
3
 70
0
 10
34.1099934944
 20
-23.3793480136
 10
34.8875424403
 20
-23.3727787888
 10
35.0871368421
 20
-23.3712681647
  0
LINE
  5
30F
100
AcDbEntity
  8
0
100
AcDbLine
 62
7
  6
CONTINUOUS
 10
-35.3776312986
 20
-23.6864055023
 11
31.5223687014
 21
-23.6864055023
  0
LINE
  5
310
100
AcDbEntity
  8
RACCORDO
100
AcDbLine
 62
250
  6
CONTINUOUS
 10
31.8223687014
 20
-23.3864055023
 11
33.4065917081
 21
-23.3864055023
  0
LINE
  5
311
100
AcDbEntity
  8
RACCORDO
100
AcDbLine
 62
250
  6
CONTINUOUS
 10
-35.6776312986
 20
-23.3864055023
 11
-37.2618543053
 21
-23.3864055023
  0
LINE
  5
312
100
AcDbEntity
  8
RACCORDO
100
AcDbLine
 62
250
  6
CONTINUOUS
 10
-37.6010134041
 20
-23.3828420198
 11
-38.9423993966
 21
-23.3712681562
  0
LINE
  5
313
100
AcDbEntity
  8
RACCORDO
100
AcDbLine
 62
250
  6
CONTINUOUS
 10
-37.2618537451
 20
-23.3864055023
 11
-37.6010134041
 21
-23.3828420198
  0
LINE
  5
314
100
AcDbEntity
  8
RACCORDO
100
AcDbLine
 62
250
  6
CONTINUOUS
 10
-61.6712585904
 20
-37.8341441898
 11
-61.9276312986
 21
-38.090516898
  0
LINE
  5
315
100
AcDbEntity
  8
RACCORDO
100
AcDbLine
 62
250
  6
CONTINUOUS
 10
-61.6712585904
 20
35.6613331852
 11
-61.9276312986
 21
35.9177058934
  0
LINE
  5
316
100
AcDbEntity
  8
RACCORDO
100
AcDbLine
 62
250
  6
CONTINUOUS
 10
-58.6749906134
 20
-40.8296534214
 11
-58.9317426944
 21
-41.0864055023
  0
LWPOLYLINE
  5
317
100
AcDbEntity
  8
SCRITTA_VIMAR
100
AcDbPolyline
 62
250
  6
CONTINUOUS
 90
83
 70
0
 10
33.662938027
 20
-27.7355257408
 10
33.6825394416
 20
-27.7430990481
 10
33.7016745904
 20
-27.7514589003
 10
33.7203984592
 20
-27.7605511785
 10
33.7387660338
 20
-27.7703217638
 10
33.7627852304
 20
-27.7843243972
 10
33.7863288748
 20
-27.799389902
 10
33.8094570739
 20
-27.8154714819
 10
33.8321983606
 20
-27.8325195999
 10
33.8544549731
 20
-27.8504737569
 10
33.8760975758
 20
-27.869270713
 10
33.8970068188
 20
-27.8888418755
 10
33.9171032952
 20
-27.9090972404
 10
33.9363175839
 20
-27.9299414506
 10
33.9545945789
 20
-27.9512924741
 10
33.9719364339
 20
-27.9731215779
 10
33.9883596179
 20
-27.9954133538
 10
34.0038765673
 20
-28.0181473315
 10
34.0184835885
 20
-28.0412827918
 10
34.0321729556
 20
-28.0647739533
 10
34.0449368613
 20
-28.0885695526
 10
34.0567671735
 20
-28.1125963989
 10
34.0676556786
 20
-28.1367758196
 10
34.0775983335
 20
-28.16102496
 10
34.086607775
 20
-28.1852442378
 10
34.0947008099
 20
-28.2093298886
 10
34.1018997372
 20
-28.233189559
 10
34.1082488231
 20
-28.2567765391
 10
34.1137978258
 20
-28.2800555297
 10
34.1185965034
 20
-28.3029912317
 10
34.122694614
 20
-28.325548346
 10
34.1261419159
 20
-28.3476915735
 10
34.1294867568
 20
-28.3736806184
 10
34.1320345877
 20
-28.3990410613
 10
34.1338539118
 20
-28.4237911277
 10
34.1350132319
 20
-28.4479490434
 10
34.1355810512
 20
-28.4715330338
 10
34.135546598
 20
-28.5002352204
 10
34.1347280209
 20
-28.5281138135
 10
34.1331583804
 20
-28.5552135004
 10
34.1308707368
 20
-28.5815789681
 10
34.1278982402
 20
-28.6072501762
 10
34.1242743999
 20
-28.632248174
 10
34.1200328151
 20
-28.6565892833
 10
34.1152070848
 20
-28.6802898258
 10
34.109832076
 20
-28.7033600747
 10
34.1039477272
 20
-28.7257861084
 10
34.097595245
 20
-28.7475479565
 10
34.0908158358
 20
-28.7686256487
 10
34.0836490904
 20
-28.7890065035
 10
34.0761281375
 20
-28.8087069936
 10
34.0682844901
 20
-28.8277508806
 10
34.0601496613
 20
-28.8461619259
 10
34.0489034735
 20
-28.8697607677
 10
34.0372627467
 20
-28.8922979193
 10
34.0252945744
 20
-28.9137944997
 10
34.0130615538
 20
-28.9342763664
 10
34.0006082951
 20
-28.9537883325
 10
33.9879749119
 20
-28.9723799495
 10
33.9752006176
 20
-28.9900975589
 10
33.9623210237
 20
-29.0069746612
 10
33.9493708415
 20
-29.0230415469
 10
33.9363847977
 20
-29.0383287394
 10
33.9233976809
 20
-29.0528676937
 10
33.9104442953
 20
-29.0666900977
 10
33.8975547857
 20
-29.0798272522
 10
33.8847406604
 20
-29.0923089095
 10
33.8720087686
 20
-29.104164435
 10
33.8593657205
 20
-29.1154165157
 10
33.8468171709
 20
-29.126061126
 10
33.8343685355
 20
-29.136087562
 10
33.8220225308
 20
-29.1454943598
 10
33.8097710758
 20
-29.1543170153
 10
33.79760339
 20
-29.1626002642
 10
33.779525154
 20
-29.1741146461
 10
33.7706143123
 20
-29.1795005925
 10
33.7618378597
 20
-29.1846465781
 10
33.7531996051
 20
-29.1895605899
 10
33.7445801979
 20
-29.1940271984
 10
33.7402224939
 20
-29.1959599376
 10
33.7358368994
 20
-29.1976120516
 10
33.7314326934
 20
-29.1989270615
 10
33.7269833455
 20
-29.199865031
  0
LWPOLYLINE
  5
318
100
AcDbEntity
  8
SCRITTA_VIMAR
100
AcDbPolyline
 62
250
  6
CONTINUOUS
 90
40
 70
0
 10
33.7259022392
 20
-29.2174634045
 10
33.7365272845
 20
-29.2219270983
 10
33.746958206
 20
-29.2267207189
 10
33.7572268926
 20
-29.2318536667
 10
33.7673652332
 20
-29.2373353422
 10
33.7774051167
 20
-29.2431751458
 10
33.7873718979
 20
-29.2493815779
 10
33.7972647938
 20
-29.2559595373
 10
33.8070764875
 20
-29.2629130227
 10
33.8167996617
 20
-29.2702460326
 10
33.8264269994
 20
-29.2779625656
 10
33.8359485586
 20
-29.2860639305
 10
33.8453438987
 20
-29.2945406756
 10
33.8545899542
 20
-29.3033806596
 10
33.8636636595
 20
-29.312571741
 10
33.8725419492
 20
-29.3221017783
 10
33.8812046382
 20
-29.331956612
 10
33.8896430624
 20
-29.342114011
 10
33.8978514382
 20
-29.352549726
 10
33.9058239819
 20
-29.363239508
 10
33.9135549098
 20
-29.3741591078
 10
33.9228769975
 20
-29.3881034434
 10
33.9318432941
 20
-29.4023731993
 10
33.94048457
 20
-29.4169725948
 10
33.9488315958
 20
-29.4319058491
 10
33.956911051
 20
-29.4471732136
 10
33.9647332507
 20
-29.4627590682
 10
33.9723044193
 20
-29.4786438245
 10
33.9796307809
 20
-29.4948078943
 10
33.9867197242
 20
-29.5112349853
 10
33.9935832961
 20
-29.5279219874
 10
34.0002347078
 20
-29.5448690866
 10
34.0066871706
 20
-29.5620764687
 10
34.012953822
 20
-29.5795421218
 10
34.0190475048
 20
-29.5972552428
 10
34.0249809879
 20
-29.6152028308
 10
34.0307670401
 20
-29.633371885
 10
34.038278964
 20
-29.6579233525
 10
34.0456084847
 20
-29.6828387853
 10
34.0528125979
 20
-29.7081115438
  0
LINE
  5
319
100
AcDbEntity
  8
RACCORDO
100
AcDbLine
 62
250
  6
CONTINUOUS
 10
-58.6749906134
 20
38.6568424168
 11
-58.9317426944
 21
38.9135944977
  0
LINE
  5
31A
100
AcDbEntity
  8
RACCORDO
100
AcDbLine
 62
7
  6
CONTINUOUS
 10
-61.9276312986
 20
-6.3864055023
 11
-61.8752235194
 21
-6.3864055023
  0
LINE
  5
31B
100
AcDbEntity
  8
RACCORDO
100
AcDbLine
 62
7
  6
CONTINUOUS
 10
58.0723687014
 20
-6.3864055023
 11
58.0199609221
 21
-6.3864055023
  0
LINE
  5
31C
100
AcDbEntity
  8
DRAFT
100
AcDbLine
 62
7
  6
CONTINUOUS
 10
-61.8276312986
 20
-5.0864055023
 11
-61.7909458531
 21
-5.0864055023
  0
LINE
  5
31D
100
AcDbEntity
  8
DRAFT
100
AcDbLine
 62
7
  6
CONTINUOUS
 10
57.9723687014
 20
-5.0864055023
 11
57.9356832559
 21
-5.0864055023
  0
LWPOLYLINE
  5
31E
100
AcDbEntity
  8
0
100
AcDbPolyline
 62
7
  6
CONTINUOUS
 90
13
 70
0
 43
0.3500000006
 10
-1.0704884362
 20
50.6935481873
 10
-1.0704884362
 20
51.9792641602
 10
-0.8562027476
 20
52.4078331299
 10
-0.4276312995
 20
52.8364066315
 10
-0.2133455932
 20
52.8364066315
 10
0.2152258372
 20
52.4078331299
 10
0.4295115613
 20
51.9792641602
 10
0.4295115613
 20
50.6935481873
 10
0.2152258372
 20
50.2649746857
 10
-0.2133455932
 20
49.8364057159
 10
-0.4276312995
 20
49.8364057159
 10
-0.8562027476
 20
50.2649746857
 10
-1.0704884362
 20
50.6935481873
  0
LINE
  5
31F
100
AcDbEntity
  8
RACCORDO
100
AcDbLine
 62
250
  6
CONTINUOUS
 10
33.3967435035
 20
-1.0886240819
 11
33.565672053
 21
-1.0883113278
  0
LWPOLYLINE
  5
320
100
AcDbEntity
  8
RACCORDO
100
AcDbPolyline
 62
250
  6
CONTINUOUS
 90
3
 70
0
 10
33.565672053
 20
-1.0883113278
 10
33.9238142665
 20
-1.0876914693
 10
34.1114086857
 20
-1.0873871674
  0
LWPOLYLINE
  5
321
100
AcDbEntity
  8
RACCORDO
100
AcDbPolyline
 62
250
  6
CONTINUOUS
 90
3
 70
0
 10
34.1114086857
 20
-1.0873871674
 10
34.4994071921
 20
-1.0867966911
 10
34.6980570472
 20
-1.0865131864
  0
LINE
  5
322
100
AcDbEntity
  8
RACCORDO
100
AcDbLine
 62
250
  6
CONTINUOUS
 10
34.6980570472
 20
-1.0865131864
 11
35.1001713092
 21
-1.0859760468
  0
LINE
  5
323
100
AcDbEntity
  8
RACCORDO
100
AcDbLine
 62
250
  6
CONTINUOUS
 10
-37.2520063734
 20
-1.0833280572
 11
-38.955433825
 21
-1.0859760462
  0
LINE
  5
324
100
AcDbEntity
  8
RACCORDO
100
AcDbLine
 62
250
  6
CONTINUOUS
 10
57.8098510603
 20
-1.0853708542
 11
57.3194836486
 21
-1.0858368662
  0
LINE
  5
325
100
AcDbEntity
  8
RACCORDO
100
AcDbLine
 62
250
  6
CONTINUOUS
 10
35.1001715826
 20
-1.0868492985
 11
37.8817603156
 21
-1.0861875494
  0
LINE
  5
326
100
AcDbEntity
  8
RACCORDO
100
AcDbLine
 62
250
  6
CONTINUOUS
 10
-46.5883622927
 20
-1.087456992
 11
-48.7809774689
 21
-1.0877497769
  0
LINE
  5
327
100
AcDbEntity
  8
RACCORDO
100
AcDbLine
 62
250
  6
CONTINUOUS
 10
-61.6651136869
 20
-1.0864379221
 11
-58.2598152041
 21
-1.0850305706
  0
LINE
  5
328
100
AcDbEntity
  8
RACCORDO
100
AcDbLine
 62
250
  6
CONTINUOUS
 10
-55.6964015403
 20
-1.0851483242
 11
-58.2598152041
 21
-1.0850305706
  0
LWPOLYLINE
  5
329
100
AcDbEntity
  8
RACCORDO
100
AcDbPolyline
 62
250
  6
CONTINUOUS
 90
3
 70
0
 10
51.8411389427
 20
-1.0851483242
 10
54.4045526062
 20
-1.0850305706
 10
57.3194836486
 20
-1.0858368662
  0
LWPOLYLINE
  5
32A
100
AcDbEntity
  8
RACCORDO
100
AcDbPolyline
 62
250
  6
CONTINUOUS
 90
3
 70
0
 10
-38.9554341797
 20
-1.0868492985
 10
-41.7370229124
 20
-1.0861875494
 10
-46.5883622927
 20
-1.087456992
  0
LWPOLYLINE
  5
32B
100
AcDbEntity
  8
RACCORDO
100
AcDbPolyline
 62
250
  6
CONTINUOUS
 90
4
 70
0
 10
37.8817603156
 20
-1.0861875494
 10
42.7330996959
 20
-1.087456992
 10
44.925714872
 20
-1.0877497769
 10
51.8411389427
 20
-1.0851483242
  0
LINE
  5
32C
100
AcDbEntity
  8
RACCORDO
100
AcDbLine
 62
250
  6
CONTINUOUS
 10
-48.7809774689
 20
-1.0877497769
 11
-55.6964015403
 21
-1.0851483242
  0
LINE
  5
32D
100
AcDbEntity
  8
DRAFT
100
AcDbLine
 62
7
  6
CONTINUOUS
 10
-61.8276312986
 20
2.9135944977
 11
-61.7909458531
 21
2.9135944977
  0
LINE
  5
32E
100
AcDbEntity
  8
DRAFT
100
AcDbLine
 62
7
  6
CONTINUOUS
 10
57.9723687014
 20
2.9135944977
 11
57.9356832559
 21
2.9135944977
  0
LINE
  5
32F
100
AcDbEntity
  8
RACCORDO
100
AcDbLine
 62
7
  6
CONTINUOUS
 10
-61.9276312986
 20
4.2135944977
 11
-61.8752235194
 21
4.2135944977
  0
LINE
  5
330
100
AcDbEntity
  8
RACCORDO
100
AcDbLine
 62
7
  6
CONTINUOUS
 10
58.0723687014
 20
4.2135944977
 11
58.0199609221
 21
4.2135944977
  0
LINE
  5
331
100
AcDbEntity
  8
RACCORDO
100
AcDbLine
 62
250
  6
CONTINUOUS
 10
54.8197280162
 20
-40.8296534214
 11
55.0764800971
 21
-41.0864055023
  0
LINE
  5
332
100
AcDbEntity
  8
RACCORDO
100
AcDbLine
 62
250
  6
CONTINUOUS
 10
54.8197280162
 20
38.6568424168
 11
55.0764800971
 21
38.9135944977
  0
LINE
  5
333
100
AcDbEntity
  8
RACCORDO
100
AcDbLine
 62
250
  6
CONTINUOUS
 10
57.8159959931
 20
-37.8341441898
 11
58.0723687014
 21
-38.090516898
  0
LINE
  5
334
100
AcDbEntity
  8
SCRITTA_VIMAR
100
AcDbLine
 62
250
  6
CONTINUOUS
 10
27.2806267014
 20
-28.6773535023
 11
27.9906827014
 21
-30.5707725023
  0
LINE
  5
335
100
AcDbEntity
  8
SCRITTA_VIMAR
100
AcDbLine
 62
250
  6
CONTINUOUS
 10
23.0305287014
 20
-27.6711195023
 11
23.9497747014
 21
-30.5707725023
  0
LINE
  5
336
100
AcDbEntity
  8
SCRITTA_VIMAR
100
AcDbLine
 62
250
  6
CONTINUOUS
 10
24.2407667014
 20
-29.6670405023
 11
23.6880407014
 21
-27.6711195023
  0
LINE
  5
337
100
AcDbEntity
  8
RACCORDO
100
AcDbLine
 62
250
  6
CONTINUOUS
 10
57.8159959931
 20
35.6613331852
 11
58.0723687014
 21
35.9177058934
  0
LINE
  5
338
100
AcDbEntity
  8
SCRITTA_VIMAR
100
AcDbLine
 62
250
  6
CONTINUOUS
 10
28.0364327014
 20
-29.2810155023
 11
27.4375547014
 21
-27.6711195023
  0
LINE
  5
339
100
AcDbEntity
  8
RACCORDO
100
AcDbLine
 62
250
  6
CONTINUOUS
 10
21.0719539042
 20
38.6467128485
 11
21.0721579941
 21
38.631260792
  0
LINE
  5
33A
100
AcDbEntity
  8
RACCORDO
100
AcDbLine
 62
250
  6
CONTINUOUS
 10
21.0716866178
 20
23.115621664
 11
21.0704108928
 21
23.2732315836
  0
LINE
  5
33B
100
AcDbEntity
  8
RACCORDO
100
AcDbLine
 62
250
  6
CONTINUOUS
 10
21.0704108928
 20
23.2732315836
 11
21.0691462476
 21
23.6082008225
  0
LINE
  5
33C
100
AcDbEntity
  8
RACCORDO
100
AcDbLine
 62
250
  6
CONTINUOUS
 10
21.0721579941
 20
38.631260792
 11
21.0723531848
 21
38.5501197427
  0
LINE
  5
33D
100
AcDbEntity
  8
RACCORDO
100
AcDbLine
 62
250
  6
CONTINUOUS
 10
21.0716866178
 20
-25.2884326686
 11
21.0716866178
 21
-26.8921920823
  0
LINE
  5
33E
100
AcDbEntity
  8
RACCORDO
100
AcDbLine
 62
250
  6
CONTINUOUS
 10
21.0719539042
 20
-40.8195238531
 11
21.0722089156
 21
-26.892193057
  0
LINE
  5
33F
100
AcDbEntity
  8
RACCORDO
100
AcDbLine
 62
250
  6
CONTINUOUS
 10
21.0723531848
 20
38.5501197427
 11
21.0722089144
 21
24.7193820541
  0
LINE
  5
340
100
AcDbEntity
  8
RACCORDO
100
AcDbLine
 62
250
  6
CONTINUOUS
 10
21.0691462476
 20
23.6082008225
 11
21.0716866178
 21
24.7193810777
  0
LWPOLYLINE
  5
341
100
AcDbEntity
  8
RACCORDO
100
AcDbPolyline
 62
250
  6
CONTINUOUS
 90
8
 70
0
 10
-35.3650160409
 20
24.666056078
 10
-34.3033916907
 20
24.6797207669
 10
-33.2158477514
 20
24.6901047589
 10
-32.1032014799
 20
24.6978512474
 10
-30.9655552085
 20
24.7035986624
 10
-29.8034869825
 20
24.7077900986
 10
-28.618575442
 20
24.7108996503
 10
-26.1810055682
 20
24.7160745991
  0
LINE
  5
342
100
AcDbEntity
  8
RACCORDO
100
AcDbLine
 62
250
  6
CONTINUOUS
 10
-37.2618559498
 20
21.2135944977
 11
-37.9652560924
 21
21.2065369096
  0
LWPOLYLINE
  5
343
100
AcDbEntity
  8
RACCORDO
100
AcDbPolyline
 62
250
  6
CONTINUOUS
 90
3
 70
0
 10
-37.9652560924
 20
21.2065369096
 10
-38.7428050384
 20
21.199967742
 10
-38.942399439
 20
21.1984571601
  0
LINE
  5
344
100
AcDbEntity
  8
RACCORDO
100
AcDbLine
 62
250
  6
CONTINUOUS
 10
-26.1810055682
 20
24.7160745991
 11
-24.9276525171
 21
24.7193832349
  0
LINE
  5
345
100
AcDbEntity
  8
RACCORDO
100
AcDbLine
 62
250
  6
CONTINUOUS
 10
29.3667393104
 20
23.1129994429
 11
31.5223687014
 21
23.1148148924
  0
LINE
  5
346
100
AcDbEntity
  8
RACCORDO
100
AcDbLine
 62
250
  6
CONTINUOUS
 10
-29.8001681451
 20
23.1130468369
 11
-24.9251135101
 21
23.115621664
  0
LINE
  5
347
100
AcDbEntity
  8
RACCORDO
100
AcDbLine
 62
250
  6
CONTINUOUS
 10
31.8223687014
 20
21.2135944977
 11
33.4065917081
 21
21.2135944977
  0
LINE
  5
348
100
AcDbEntity
  8
RACCORDO
100
AcDbLine
 62
250
  6
CONTINUOUS
 10
-35.6776312986
 20
21.2135944977
 11
-37.2618543053
 21
21.2135944977
  0
LINE
  5
349
100
AcDbEntity
  8
0
100
AcDbLine
 62
7
  6
CONTINUOUS
 10
31.5223687014
 20
21.5135944977
 11
-35.3776312986
 21
21.5135944977
  0
LINE
  5
34A
100
AcDbEntity
  8
RACCORDO
100
AcDbLine
 62
250
  6
CONTINUOUS
 10
27.1157536005
 20
23.1126541067
 11
29.3667393104
 21
23.1129994429
  0
LINE
  5
34B
100
AcDbEntity
  8
RACCORDO
100
AcDbLine
 62
250
  6
CONTINUOUS
 10
-32.1035710562
 20
23.1126148015
 11
-29.8001681451
 21
23.1130468369
  0
LINE
  5
34C
100
AcDbEntity
  8
RACCORDO
100
AcDbLine
 62
250
  6
CONTINUOUS
 10
-24.9276525173
 20
23.115621664
 11
21.0716866178
 21
23.115621664
  0
LINE
  5
34D
100
AcDbEntity
  8
RACCORDO
100
AcDbLine
 62
250
  6
CONTINUOUS
 10
-24.9276525173
 20
24.7193810777
 11
21.0716866178
 21
24.7193810777
  0
LINE
  5
34E
100
AcDbEntity
  8
RACCORDO
100
AcDbLine
 62
250
  6
CONTINUOUS
 10
23.5600782135
 20
23.1141202079
 11
27.1157536005
 21
23.1126541067
  0
LINE
  5
34F
100
AcDbEntity
  8
RACCORDO
100
AcDbLine
 62
250
  6
CONTINUOUS
 10
21.0697483333
 20
23.115621664
 11
23.5600782135
 21
23.1141202079
  0
LWPOLYLINE
  5
350
100
AcDbEntity
  8
RACCORDO
100
AcDbPolyline
 62
250
  6
CONTINUOUS
 90
3
 70
0
 10
-35.3776312986
 20
23.1148148924
 10
-34.3101904155
 20
23.113732502
 10
-32.1035710562
 20
23.1126148015
  0
LWPOLYLINE
  5
351
100
AcDbEntity
  8
RACCORDO
100
AcDbPolyline
 62
250
  6
CONTINUOUS
 90
8
 70
0
 10
22.3305127326
 20
24.7160642967
 10
24.7735624526
 20
24.710875423
 10
25.9578566773
 20
24.7077607265
 10
27.1174899874
 20
24.7035683281
 10
28.2527670497
 20
24.6978217153
 10
29.3637352792
 20
24.690074231
 10
30.4496671449
 20
24.6796966801
 10
31.5097534371
 20
24.6660559543
  0
LINE
  5
352
100
AcDbEntity
  8
RACCORDO
100
AcDbLine
 62
250
  6
CONTINUOUS
 10
21.0716866191
 20
24.7193854051
 11
22.3305127326
 21
24.7160642967
  0
LINE
  5
353
100
AcDbEntity
  8
RACCORDO
100
AcDbLine
 62
250
  6
CONTINUOUS
 10
33.7457508068
 20
21.2100310152
 11
35.0871367993
 21
21.1984571516
  0
LINE
  5
354
100
AcDbEntity
  8
RACCORDO
100
AcDbLine
 62
250
  6
CONTINUOUS
 10
33.4065911478
 20
21.2135944977
 11
33.7457508068
 21
21.2100310152
  0
LWPOLYLINE
  5
355
100
AcDbEntity
  8
RACCORDO
100
AcDbPolyline
 62
250
  6
CONTINUOUS
 90
70
 70
0
 10
31.5223687014
 20
23.1148148924
 10
31.5831692677
 20
23.1139622108
 10
31.6421731757
 20
23.1111832774
 10
31.6993223861
 20
23.1066430442
 10
31.7544701153
 20
23.100508291
 10
31.8076770868
 20
23.0929374828
 10
31.8592088806
 20
23.0840524228
 10
31.9089920915
 20
23.0739756608
 10
31.9570570847
 20
23.0628348952
 10
32.0038296026
 20
23.050695598
 10
32.0495305903
 20
23.0375809075
 10
32.0939158349
 20
23.0236203627
 10
32.1367244699
 20
23.0090212434
 10
32.1779218566
 20
22.9939072536
 10
32.2175617205
 20
22.978343845
 10
32.2555329614
 20
22.9624733335
 10
32.2917792154
 20
22.9464245369
 10
32.3263998449
 20
22.9302526614
 10
32.3595210224
 20
22.9139855547
 10
32.3911684306
 20
22.8976951258
 10
32.4213622292
 20
22.8814542975
 10
32.4502162536
 20
22.8652760287
 10
32.4777594193
 20
22.8492226477
 10
32.5040092974
 20
22.8333475865
 10
32.5290577445
 20
22.8176378445
 10
32.5527875268
 20
22.8022267679
 10
32.5753615035
 20
22.7870782936
 10
32.5972746607
 20
22.7718976895
 10
32.6185223369
 20
22.7567107899
 10
32.6391254751
 20
22.7415345815
 10
32.6595887328
 20
22.7260190709
 10
32.679959258
 20
22.7101214145
 10
32.7001759668
 20
22.6938833013
 10
32.7205557444
 20
22.6770479298
 10
32.7411200136
 20
22.6595692614
 10
32.7618105389
 20
22.6414664793
 10
32.7828059809
 20
22.6225586973
 10
32.8040864385
 20
22.602820387
 10
32.8256153241
 20
22.5822343183
 10
32.8475293795
 20
22.5606154724
 10
32.8698244458
 20
22.5378974176
 10
32.8924213133
 20
22.5140873869
 10
32.9153303582
 20
22.4891001487
 10
32.9385396939
 20
22.462861036
 10
32.9619571551
 20
22.4353812231
 10
32.9854700909
 20
22.4067054475
 10
33.0089901447
 20
22.3768530988
 10
33.032498272
 20
22.345755353
 10
33.0559826485
 20
22.313326558
 10
33.079356253
 20
22.2795740544
 10
33.1025753308
 20
22.2444422914
 10
33.1256740787
 20
22.2077433352
 10
33.1485693015
 20
22.1694465536
 10
33.1711703624
 20
22.1295303635
 10
33.1934720568
 20
22.0878099658
 10
33.2153672702
 20
22.0442540812
 10
33.2367400358
 20
21.998846451
 10
33.2575411349
 20
21.9514176923
 10
33.2776460382
 20
21.9019229318
 10
33.2968996422
 20
21.8503748172
 10
33.3151799067
 20
21.7966902324
 10
33.3323294743
 20
21.7409057768
 10
33.3481823714
 20
21.6829886971
 10
33.3625700707
 20
21.6227601617
 10
33.3752924672
 20
21.5602208122
 10
33.386150703
 20
21.4954303497
 10
33.3949382456
 20
21.428314249
 10
33.4014286905
 20
21.3588939989
 10
33.405390884
 20
21.2872890029
 10
33.4065917081
 20
21.2135944977
  0
LWPOLYLINE
  5
356
100
AcDbEntity
  8
SCRITTA_VIMAR
100
AcDbPolyline
 62
250
  6
CONTINUOUS
 90
49
 70
0
 10
33.4342761107
 20
-29.6915027299
 10
33.4302531756
 20
-29.6810889653
 10
33.4260973409
 20
-29.6709316057
 10
33.4218033344
 20
-29.6610149008
 10
33.417365884
 20
-29.6513231005
 10
33.4127797176
 20
-29.6418404548
 10
33.4080395631
 20
-29.6325512135
 10
33.4031418123
 20
-29.6234437858
 10
33.3980895126
 20
-29.6145232186
 10
33.3928873755
 20
-29.6057987179
 10
33.3875401123
 20
-29.5972794898
 10
33.3820524343
 20
-29.5889747406
 10
33.3764290529
 20
-29.5808936763
 10
33.3706738624
 20
-29.5730434475
 10
33.3647874886
 20
-29.5654229825
 10
33.3587697403
 20
-29.5580291537
 10
33.3526204261
 20
-29.550858834
 10
33.3463393547
 20
-29.5439088959
 10
33.339926335
 20
-29.5371762119
 10
33.3333818515
 20
-29.5306582085
 10
33.3267090924
 20
-29.5243545259
 10
33.3199119216
 20
-29.5182653585
 10
33.3129942033
 20
-29.5123909001
 10
33.3059598014
 20
-29.5067313451
 10
33.29881258
 20
-29.5012868874
 10
33.2915558679
 20
-29.4960578378
 10
33.2841908531
 20
-29.4910449734
 10
33.2767181886
 20
-29.4862491881
 10
33.2691385271
 20
-29.4816713756
 10
33.2614525217
 20
-29.4773124298
 10
33.2536608251
 20
-29.4731732445
 10
33.2457637061
 20
-29.4692542739
 10
33.2377598967
 20
-29.4655542147
 10
33.2296477451
 20
-29.462071324
 10
33.2214255991
 20
-29.4588038587
 10
33.2130918067
 20
-29.4557500761
 10
33.204644716
 20
-29.4529082333
 10
33.1960849155
 20
-29.4502773121
 10
33.1874219568
 20
-29.4478591944
 10
33.1786676319
 20
-29.4456564865
 10
33.1698337329
 20
-29.443671795
 10
33.1609320519
 20
-29.4419077265
 10
33.1519743811
 20
-29.4403668875
 10
33.1429673083
 20
-29.439052129
 10
33.1338966047
 20
-29.437967281
 10
33.124742837
 20
-29.4371164179
 10
33.1154865723
 20
-29.436503614
 10
33.1061083773
 20
-29.4361329437
 10
33.096588819
 20
-29.4360084815
  0
LWPOLYLINE
  5
357
100
AcDbEntity
  8
SCRITTA_VIMAR
100
AcDbPolyline
 62
250
  6
CONTINUOUS
 90
6
 70
0
 10
33.4795453047
 20
-29.8276191634
 10
33.4688597863
 20
-29.7930014266
 10
33.4578528477
 20
-29.7587373972
 10
33.4502604668
 20
-29.736121971
 10
33.4424152181
 20
-29.7137058692
 10
33.4342761107
 20
-29.6915027299
  0
LINE
  5
358
100
AcDbEntity
  8
SCRITTA_VIMAR
100
AcDbLine
 62
250
  6
CONTINUOUS
 10
31.9914837014
 20
-30.5707725023
 11
31.1017987014
 21
-27.6711195023
  0
LINE
  5
359
100
AcDbEntity
  8
SCRITTA_VIMAR
100
AcDbLine
 62
250
  6
CONTINUOUS
 10
33.5945006666
 20
-30.2118059439
 11
33.4795453047
 21
-29.8276191634
  0
LINE
  5
35A
100
AcDbEntity
  8
SCRITTA_VIMAR
100
AcDbLine
 62
250
  6
CONTINUOUS
 10
33.668685772
 20
-30.4660197346
 11
33.5945006666
 21
-30.2118059439
  0
LINE
  5
35B
100
AcDbEntity
  8
SCRITTA_VIMAR
100
AcDbLine
 62
250
  6
CONTINUOUS
 10
33.6989464079
 20
-30.5707725958
 11
33.668685772
 21
-30.4660197346
  0
LINE
  5
35C
100
AcDbEntity
  8
SCRITTA_VIMAR
100
AcDbLine
 62
250
  6
CONTINUOUS
 10
34.0528125979
 20
-29.7081115438
 11
34.0670725848
 21
-29.7597024786
  0
LINE
  5
35D
100
AcDbEntity
  8
SCRITTA_VIMAR
100
AcDbLine
 62
250
  6
CONTINUOUS
 10
31.1967557014
 20
-29.9918985023
 11
31.3535527014
 21
-30.5707725023
  0
LINE
  5
35E
100
AcDbEntity
  8
SCRITTA_VIMAR
100
AcDbLine
 62
250
  6
CONTINUOUS
 10
34.0670725848
 20
-29.7597024786
 11
34.0983081501
 21
-29.8750646697
  0
LINE
  5
35F
100
AcDbEntity
  8
SCRITTA_VIMAR
100
AcDbLine
 62
250
  6
CONTINUOUS
 10
34.2470934035
 20
-30.442949534
 11
34.2811471314
 21
-30.5707725958
  0
LWPOLYLINE
  5
360
100
AcDbEntity
  8
SCRITTA_VIMAR
100
AcDbPolyline
 62
250
  6
CONTINUOUS
 90
3
 70
0
 10
34.0983081501
 20
-29.8750646697
 10
34.1452094833
 20
-30.052006071
 10
34.1681800732
 20
-30.139744933
  0
LINE
  5
361
100
AcDbEntity
  8
SCRITTA_VIMAR
100
AcDbLine
 62
250
  6
CONTINUOUS
 10
30.7976627014
 20
-28.4678705023
 11
31.0757927014
 21
-29.5439685023
  0
LINE
  5
362
100
AcDbEntity
  8
SCRITTA_VIMAR
100
AcDbLine
 62
250
  6
CONTINUOUS
 10
29.5117107014
 20
-30.5707725023
 11
29.2405607014
 21
-27.6711195023
  0
LINE
  5
363
100
AcDbEntity
  8
SCRITTA_VIMAR
100
AcDbLine
 62
250
  6
CONTINUOUS
 10
28.7952397014
 20
-28.6852465023
 11
28.9195947014
 21
-30.5707725023
  0
LINE
  5
364
100
AcDbEntity
  8
SCRITTA_VIMAR
100
AcDbLine
 62
250
  6
CONTINUOUS
 10
25.6398537014
 20
-30.5707725023
 11
25.6398537014
 21
-27.6709455023
  0
LINE
  5
365
100
AcDbEntity
  8
SCRITTA_VIMAR
100
AcDbLine
 62
250
  6
CONTINUOUS
 10
26.2451247014
 20
-27.6709455023
 11
26.2451247014
 21
-30.5707725023
  0
LINE
  5
366
100
AcDbEntity
  8
SCRITTA_VIMAR
100
AcDbLine
 62
250
  6
CONTINUOUS
 10
27.1500087014
 20
-30.5707725023
 11
27.2806267014
 21
-28.6773535023
  0
LINE
  5
367
100
AcDbEntity
  8
SCRITTA_VIMAR
100
AcDbLine
 62
250
  6
CONTINUOUS
 10
26.8327827014
 20
-27.6711195023
 11
26.5709617014
 21
-30.5707725023
  0
LWPOLYLINE
  5
368
100
AcDbEntity
  8
RACCORDO
100
AcDbPolyline
 62
250
  6
CONTINUOUS
 90
70
 70
0
 10
31.5097533875
 20
24.6660549872
 10
31.627486636
 20
24.6624359765
 10
31.7417013143
 20
24.6553081738
 10
31.8522554426
 20
24.6450194318
 10
31.9589153618
 20
24.6319105133
 10
32.0618245004
 20
24.6162970513
 10
32.1614324925
 20
24.5984323049
 10
32.2576923163
 20
24.5783413383
 10
32.3501486601
 20
24.5566774649
 10
32.4387655761
 20
24.5345496322
 10
32.5234753698
 20
24.5128982418
 10
32.6044803728
 20
24.4913242841
 10
32.6822306741
 20
24.4688469265
 10
32.7572059248
 20
24.4452134859
 10
32.829594835
 20
24.4208240164
 10
32.8991693869
 20
24.3957160004
 10
32.9657748579
 20
24.370068481
 10
33.0295087954
 20
24.3440623236
 10
33.0905217295
 20
24.3177338901
 10
33.1487507781
 20
24.2912623116
 10
33.2043479751
 20
24.2647247308
 10
33.2578477915
 20
24.2379189056
 10
33.3094813671
 20
24.2108454415
 10
33.3592916726
 20
24.1835348224
 10
33.4074389739
 20
24.1558262219
 10
33.4536887214
 20
24.1277424878
 10
33.4982293103
 20
24.0994314252
 10
33.54171556
 20
24.0709737339
 10
33.5839634154
 20
24.0427079231
 10
33.6248143444
 20
24.0146566628
 10
33.6650433478
 20
23.9862899559
 10
33.7047152136
 20
23.9575806194
 10
33.7437820721
 20
23.9285811691
 10
33.7828235457
 20
23.8988118937
 10
33.8218661333
 20
23.8682587289
 10
33.8608338876
 20
23.8369326405
 10
33.9001472374
 20
23.8043125568
 10
33.9398608503
 20
23.770241453
 10
33.9800363258
 20
23.7346161543
 10
34.0210423834
 20
23.6969746058
 10
34.0628820234
 20
23.657191164
 10
34.1053520519
 20
23.6153225212
 10
34.1484287869
 20
23.5712100414
 10
34.1920958505
 20
23.5247107679
 10
34.2361980996
 20
23.475829875
 10
34.280516031
 20
23.4246160598
 10
34.3248825891
 20
23.3711012346
 10
34.3692607457
 20
23.3151629824
 10
34.4136108192
 20
23.2566316271
 10
34.4577704085
 20
23.1955182936
 10
34.5016567301
 20
23.131720435
 10
34.5453164997
 20
23.0648826452
 10
34.5885958978
 20
22.9949495635
 10
34.631320186
 20
22.921885147
 10
34.6734521089
 20
22.8453481363
 10
34.7147917665
 20
22.7652952154
 10
34.7551166682
 20
22.6816966038
 10
34.7942975796
 20
22.5942228538
 10
34.8320044492
 20
22.502804802
 10
34.8680543068
 20
22.4074626776
 10
34.9024877371
 20
22.3079707898
 10
34.9349947948
 20
22.204299479
 10
34.9653257688
 20
22.096092857
 10
34.9935219201
 20
21.9824930482
 10
35.0193934866
 20
21.8631670344
 10
35.0421343963
 20
21.7386700551
 10
35.060773582
 20
21.6096498425
 10
35.0746896683
 20
21.4765833811
 10
35.0836172849
 20
21.3394994092
 10
35.0871366294
 20
21.1984571154
  0
LINE
  5
369
100
AcDbEntity
  8
SCRITTA_VIMAR
100
AcDbLine
 62
250
  6
CONTINUOUS
 10
34.1681800732
 20
-30.139744933
 11
34.2470934035
 21
-30.442949534
  0
LWPOLYLINE
  5
36A
100
AcDbEntity
  8
SCRITTA_VIMAR
100
AcDbPolyline
 62
250
  6
CONTINUOUS
 90
50
 70
0
 10
33.5680719763
 20
-28.5107629876
 10
33.5677728474
 20
-28.5005157898
 10
33.5671883512
 20
-28.4904309808
 10
33.5663258323
 20
-28.4804893296
 10
33.5651926351
 20
-28.4706716054
 10
33.5637961042
 20
-28.4609585772
 10
33.562143584
 20
-28.451331014
 10
33.5602424191
 20
-28.441769685
 10
33.5577180906
 20
-28.4306793398
 10
33.5548659382
 20
-28.4196613264
 10
33.5516865742
 20
-28.4087239998
 10
33.548180611
 20
-28.3978757153
 10
33.5443486611
 20
-28.387124828
 10
33.5401913369
 20
-28.376479693
 10
33.5357100708
 20
-28.3659500095
 10
33.5309095754
 20
-28.3555508525
 10
33.525795383
 20
-28.3452986411
 10
33.5203730263
 20
-28.3352097943
 10
33.5146480378
 20
-28.3253007311
 10
33.5086259498
 20
-28.3155878705
 10
33.5023120021
 20
-28.306086743
 10
33.4957102626
 20
-28.2968093239
 10
33.4888245064
 20
-28.2877667002
 10
33.4816585086
 20
-28.2789699585
 10
33.4742160442
 20
-28.2704301858
 10
33.4665008885
 20
-28.2621584687
 10
33.4585178948
 20
-28.2541639691
 10
33.4502762308
 20
-28.2464481487
 10
33.4417861426
 20
-28.2390105441
 10
33.4330578762
 20
-28.231850692
 10
33.4241016776
 20
-28.224968129
 10
33.4149277929
 20
-28.2183623918
 10
33.4055474031
 20
-28.2120335644
 10
33.395975429
 20
-28.2059839206
 10
33.3862277263
 20
-28.2002162814
 10
33.3763201508
 20
-28.1947334679
 10
33.3662685582
 20
-28.1895383012
 10
33.3560888042
 20
-28.1846336023
 10
33.345795458
 20
-28.180021277
 10
33.3353979419
 20
-28.1756995698
 10
33.3249043916
 20
-28.1716658096
 10
33.3143229431
 20
-28.1679173256
 10
33.3036617319
 20
-28.1644514468
 10
33.2929288939
 20
-28.1612655023
 10
33.282126382
 20
-28.1583575351
 10
33.2712314178
 20
-28.155728444
 10
33.26021504
 20
-28.1533798417
 10
33.2490482874
 20
-28.151313341
 10
33.2377021987
 20
-28.1495305546
 10
33.2261478127
 20
-28.1480330953
  0
LINE
  5
36B
100
AcDbEntity
  8
RACCORDO
100
AcDbLine
 62
250
  6
CONTINUOUS
 10
31.5223687014
 20
23.1148150142
 11
31.5165189177
 21
23.7618662518
  0
LWPOLYLINE
  5
36C
100
AcDbEntity
  8
RACCORDO
100
AcDbPolyline
 62
250
  6
CONTINUOUS
 90
3
 70
0
 10
31.5165189177
 20
23.7618662518
 10
31.5110290817
 20
24.480398393
 10
31.5097533875
 20
24.6660549872
  0
LWPOLYLINE
  5
36D
100
AcDbEntity
  8
RACCORDO
100
AcDbPolyline
 62
250
  6
CONTINUOUS
 90
3
 70
0
 10
35.0871367993
 20
21.1984571516
 10
35.0899478458
 20
20.5485144747
 10
35.09202499
 20
19.873484152
  0
LINE
  5
36E
100
AcDbEntity
  8
RACCORDO
100
AcDbLine
 62
250
  6
CONTINUOUS
 10
35.09202499
 20
19.873484152
 11
35.0946452254
 21
18.4492474284
  0
LINE
  5
36F
100
AcDbEntity
  8
RACCORDO
100
AcDbLine
 62
250
  6
CONTINUOUS
 10
33.4041233959
 20
-21.3528140392
 11
33.4065917081
 21
-23.3864055023
  0
LINE
  5
370
100
AcDbEntity
  8
RACCORDO
100
AcDbLine
 62
250
  6
CONTINUOUS
 10
35.0946452254
 20
18.4492474284
 11
35.0966944933
 21
16.1359227138
  0
LINE
  5
371
100
AcDbEntity
  8
RACCORDO
100
AcDbLine
 62
250
  6
CONTINUOUS
 10
33.3994930412
 20
-10.1355139737
 11
33.4041233959
 21
-21.3528140392
  0
LINE
  5
372
100
AcDbEntity
  8
RACCORDO
100
AcDbLine
 62
250
  6
CONTINUOUS
 10
35.0966944933
 20
16.1359227138
 11
35.0991977652
 21
10.9034013392
  0
LINE
  5
373
100
AcDbEntity
  8
RACCORDO
100
AcDbLine
 62
250
  6
CONTINUOUS
 10
33.3967428237
 20
-1.0864182973
 11
33.3994930412
 21
-10.1355139737
  0
LINE
  5
374
100
AcDbEntity
  8
RACCORDO
100
AcDbLine
 62
250
  6
CONTINUOUS
 10
31.5223687014
 20
-23.6864055023
 11
31.5223687014
 21
-25.287625897
  0
LINE
  5
375
100
AcDbEntity
  8
RACCORDO
100
AcDbLine
 62
250
  6
CONTINUOUS
 10
31.5223687014
 20
21.5135944977
 11
31.5223687014
 21
23.1148148924
  0
LINE
  5
376
100
AcDbEntity
  8
0
100
AcDbLine
 62
7
  6
CONTINUOUS
 10
31.8223687014
 20
-23.3864055023
 11
31.8223687014
 21
21.2135944977
  0
LINE
  5
377
100
AcDbEntity
  8
SCRITTA_VIMAR
100
AcDbLine
 62
250
  6
CONTINUOUS
 10
32.1692208019
 20
-30.5707725958
 11
32.1692208019
 21
-27.7049968961
  0
LINE
  5
378
100
AcDbEntity
  8
SCRITTA_VIMAR
100
AcDbLine
 62
250
  6
CONTINUOUS
 10
32.7519868744
 20
-28.1651039852
 11
32.7519868744
 21
-28.9611153423
  0
LINE
  5
379
100
AcDbEntity
  8
SCRITTA_VIMAR
100
AcDbLine
 62
250
  6
CONTINUOUS
 10
32.772056763
 20
-29.4360084815
 11
32.772056763
 21
-30.5707725958
  0
LINE
  5
37A
100
AcDbEntity
  8
RACCORDO
100
AcDbLine
 62
250
  6
CONTINUOUS
 10
35.0991977652
 20
10.9034013392
 11
35.0998954584
 21
6.9278386161
  0
LINE
  5
37B
100
AcDbEntity
  8
RACCORDO
100
AcDbLine
 62
250
  6
CONTINUOUS
 10
35.0998954584
 20
6.9278386161
 11
35.0996334228
 21
-11.1396439185
  0
LINE
  5
37C
100
AcDbEntity
  8
RACCORDO
100
AcDbLine
 62
250
  6
CONTINUOUS
 10
35.0996334228
 20
-11.1396439185
 11
35.0985674463
 21
-14.9123451435
  0
LINE
  5
37D
100
AcDbEntity
  8
RACCORDO
100
AcDbLine
 62
250
  6
CONTINUOUS
 10
35.0985674463
 20
-14.9123451435
 11
35.0972423608
 21
-17.4923431579
  0
LINE
  5
37E
100
AcDbEntity
  8
RACCORDO
100
AcDbLine
 62
250
  6
CONTINUOUS
 10
35.0972423608
 20
-17.4923431579
 11
35.0960998196
 21
-19.1009912611
  0
LINE
  5
37F
100
AcDbEntity
  8
RACCORDO
100
AcDbLine
 62
250
  6
CONTINUOUS
 10
33.4048263897
 20
19.8820964945
 11
33.3967428237
 21
-1.0864182973
  0
LINE
  5
380
100
AcDbEntity
  8
RACCORDO
100
AcDbLine
 62
250
  6
CONTINUOUS
 10
35.0960998196
 20
-19.1009912611
 11
35.0946455737
 21
-20.6213793761
  0
LINE
  5
381
100
AcDbEntity
  8
RACCORDO
100
AcDbLine
 62
250
  6
CONTINUOUS
 10
33.4065917081
 20
21.2135944977
 11
33.4048263897
 21
19.8820964945
  0
LWPOLYLINE
  5
382
100
AcDbEntity
  8
RACCORDO
100
AcDbPolyline
 62
250
  6
CONTINUOUS
 90
4
 70
0
 10
35.0946455737
 20
-20.6213793761
 10
35.0920257639
 20
-22.0458949066
 10
35.0899486436
 20
-22.7211073351
 10
35.0871367692
 20
-23.3712681492
  0
LINE
  5
383
100
AcDbEntity
  8
RACCORDO
100
AcDbLine
 62
250
  6
CONTINUOUS
 10
31.5223687014
 20
-25.2876249201
 11
31.5097534437
 21
-26.8388670825
  0
LWPOLYLINE
  5
384
100
AcDbEntity
  8
RACCORDO
100
AcDbPolyline
 62
250
  6
CONTINUOUS
 90
67
 70
0
 10
33.4065917081
 20
-23.3864055023
 10
33.4051943739
 20
-23.4654041374
 10
33.4006517197
 20
-23.5417915514
 10
33.3932745773
 20
-23.6154545157
 10
33.3833731696
 20
-23.6862098518
 10
33.3712446993
 20
-23.7540841811
 10
33.3571379044
 20
-23.8193092697
 10
33.3412947229
 20
-23.8818635083
 10
33.3239602271
 20
-23.9417154538
 10
33.3053204908
 20
-23.9990984891
 10
33.285579102
 20
-24.0540389681
 10
33.2649210605
 20
-24.1065236563
 10
33.2434541192
 20
-24.1567316243
 10
33.2213528664
 20
-24.2046557578
 10
33.1987595132
 20
-24.250351551
 10
33.1756885223
 20
-24.2940854915
 10
33.1522533634
 20
-24.3358985694
 10
33.128578191
 20
-24.3758073731
 10
33.1046520125
 20
-24.4140293365
 10
33.0805662045
 20
-24.4505946502
 10
33.0564110861
 20
-24.4855329141
 10
33.0321421369
 20
-24.5190476495
 10
33.0078007782
 20
-24.5512020763
 10
32.9834806206
 20
-24.5819868485
 10
32.9591954364
 20
-24.6114877008
 10
32.9349718202
 20
-24.6397681374
 10
32.9108944044
 20
-24.666819969
 10
32.887059497
 20
-24.6926222681
 10
32.8635551027
 20
-24.7171712578
 10
32.8403972837
 20
-24.7405374601
 10
32.8175702795
 20
-24.7628112632
 10
32.7951707404
 20
-24.7839737468
 10
32.7731853018
 20
-24.8041060813
 10
32.7514171123
 20
-24.8234349544
 10
32.7299040611
 20
-24.8419730901
 10
32.7086606043
 20
-24.8597474999
 10
32.6874338526
 20
-24.8769838391
 10
32.6663166564
 20
-24.893628652
 10
32.6452464277
 20
-24.9097541605
 10
32.623710616
 20
-24.9257412507
 10
32.6017220972
 20
-24.941563376
 10
32.5792635538
 20
-24.957220683
 10
32.5557434579
 20
-24.97308689
 10
32.5310389172
 20
-24.9891783484
 10
32.505232723
 20
-25.0053918463
 10
32.4780147989
 20
-25.0218798036
 10
32.4492564208
 20
-25.0386421814
 10
32.4190285787
 20
-25.0555472791
 10
32.3873114017
 20
-25.0725312703
 10
32.3541414483
 20
-25.0894917031
 10
32.3194331314
 20
-25.1063839106
 10
32.2829793675
 20
-25.1232145036
 10
32.2446660937
 20
-25.1399249874
 10
32.2045550807
 20
-25.1563725941
 10
32.1627029898
 20
-25.1724243715
 10
32.1190775719
 20
-25.1879913192
 10
32.0736821988
 20
-25.2029460958
 10
32.0266401508
 20
-25.2171065387
 10
31.9780878292
 20
-25.2303460794
 10
31.9278983967
 20
-25.2425788577
 10
31.8758138888
 20
-25.2536665984
 10
31.8218480993
 20
-25.263454386
 10
31.7660342194
 20
-25.2718119109
 10
31.708154671
 20
-25.2785876288
 10
31.6481695921
 20
-25.2836026772
 10
31.5862185475
 20
-25.2866763529
 10
31.5223687014
 20
-25.287625897
  0
LINE
  5
385
100
AcDbEntity
  8
SCRITTA_VIMAR
100
AcDbLine
 62
250
  6
CONTINUOUS
 10
24.8103777014
 20
-27.6711195023
 11
24.2407667014
 21
-29.6670405023
  0
LINE
  5
386
100
AcDbEntity
  8
SCRITTA_VIMAR
100
AcDbLine
 62
250
  6
CONTINUOUS
 10
24.4831707014
 20
-30.5707725023
 11
25.4152357014
 21
-27.6711195023
  0
LWPOLYLINE
  5
387
100
AcDbEntity
  8
RACCORDO
100
AcDbPolyline
 62
250
  6
CONTINUOUS
 90
67
 70
0
 10
35.0871368421
 20
-23.3712681647
 10
35.0831582278
 20
-23.5226346784
 10
35.0730172173
 20
-23.6689039479
 10
35.0573060496
 20
-23.8099153363
 10
35.0364182039
 20
-23.945473212
 10
35.011097611
 20
-24.0755078663
 10
34.9825117913
 20
-24.1998606193
 10
34.9516993231
 20
-24.3180584132
 10
34.9189067392
 20
-24.4299564166
 10
34.8839098663
 20
-24.5363299955
 10
34.846862654
 20
-24.6376266462
 10
34.8081587651
 20
-24.7342552633
 10
34.767814232
 20
-24.8267955465
 10
34.7261162071
 20
-24.9151742381
 10
34.6834335627
 20
-24.9992989157
 10
34.6398475575
 20
-25.0795932337
 10
34.5955690212
 20
-25.1561434649
 10
34.5508146732
 20
-25.2290201732
 10
34.5055871498
 20
-25.2986469358
 10
34.4600660768
 20
-25.365073824
 10
34.4144214782
 20
-25.4283442374
 10
34.3685895505
 20
-25.4888377184
 10
34.3226485133
 20
-25.5466713926
 10
34.2767726951
 20
-25.6018337134
 10
34.2310026439
 20
-25.6545018673
 10
34.1853831685
 20
-25.7047950193
 10
34.1400715968
 20
-25.7527045307
 10
34.0952683197
 20
-25.7982175031
 10
34.0511494698
 20
-25.8413156525
 10
34.0077426633
 20
-25.8821304735
 10
33.9650129987
 20
-25.9208759246
 10
33.923117873
 20
-25.9575271761
 10
33.8819746243
 20
-25.9922954416
 10
33.8411192458
 20
-26.0257499645
 10
33.8005188593
 20
-26.057969052
 10
33.7601127109
 20
-26.089068152
 10
33.7193151273
 20
-26.119645691
 10
33.6782390728
 20
-26.1496431688
 10
33.636845316
 20
-26.1790634987
 10
33.5943054122
 20
-26.2085026214
 10
33.5506908091
 20
-26.2379299518
 10
33.5060643822
 20
-26.2671759284
 10
33.4595553053
 20
-26.2965398303
 10
33.411115635
 20
-26.3259593791
 10
33.3611010835
 20
-26.3551263029
 10
33.309291822
 20
-26.3838786002
 10
33.2556773099
 20
-26.4120075415
 10
33.2000585036
 20
-26.439670961
 10
33.1418188311
 20
-26.467270837
 10
33.0807012312
 20
-26.4948471442
 10
33.0167018101
 20
-26.5221915736
 10
32.9495653477
 20
-26.5492769046
 10
32.8791884215
 20
-26.575900043
 10
32.8057554929
 20
-26.6018434442
 10
32.7294525872
 20
-26.6270348407
 10
32.6503001669
 20
-26.6509903105
 10
32.5678019352
 20
-26.6739658397
 10
32.4812073763
 20
-26.6969871396
 10
32.3898713325
 20
-26.7204271994
 10
32.2938708677
 20
-26.7433769659
 10
32.1934819238
 20
-26.7648854738
 10
32.0892596743
 20
-26.784349394
 10
31.9812990954
 20
-26.8015259837
 10
31.8693281801
 20
-26.8159456598
 10
31.7532953122
 20
-26.8271988704
 10
31.633388861
 20
-26.8349661793
 10
31.5097533998
 20
-26.8388661872
  0
LINE
  5
388
100
AcDbEntity
  8
SCRITTA_VIMAR
100
AcDbLine
 62
250
  6
CONTINUOUS
 10
30.4962877014
 20
-29.5439685023
 11
30.7976627014
 21
-28.4678705023
  0
LINE
  5
389
100
AcDbEntity
  8
SCRITTA_VIMAR
100
AcDbLine
 62
250
  6
CONTINUOUS
 10
30.2054597014
 20
-30.5707725023
 11
30.3724767014
 21
-29.9918985023
  0
LINE
  5
38A
100
AcDbEntity
  8
SCRITTA_VIMAR
100
AcDbLine
 62
250
  6
CONTINUOUS
 10
30.5162707014
 20
-27.6711195023
 11
29.6067547014
 21
-30.5707725023
  0
LINE
  5
38B
100
AcDbEntity
  8
SCRITTA_VIMAR
100
AcDbLine
 62
250
  6
CONTINUOUS
 10
28.6417037014
 20
-27.6711195023
 11
28.0364327014
 21
-29.2810155023
  0
LINE
  5
38C
100
AcDbEntity
  8
SCRITTA_VIMAR
100
AcDbLine
 62
250
  6
CONTINUOUS
 10
28.0755727014
 20
-30.5707725023
 11
28.7952397014
 21
-28.6852465023
  0
LWPOLYLINE
  5
38D
100
AcDbEntity
  8
RACCORDO
100
AcDbPolyline
 62
250
  6
CONTINUOUS
 90
3
 70
0
 10
-58.0987162728
 20
37.8010950817
 10
-58.0585489181
 20
37.8026415879
 10
-58.0190769988
 20
37.8036939475
  0
LINE
  5
38E
100
AcDbEntity
  8
RACCORDO
100
AcDbLine
 62
250
  6
CONTINUOUS
 10
-58.4403719164
 20
37.785944161
 11
-58.3089042179
 21
37.7911947658
  0
LWPOLYLINE
  5
38F
100
AcDbEntity
  8
RACCORDO
100
AcDbPolyline
 62
250
  6
CONTINUOUS
 90
3
 70
0
 10
-58.7077823467
 20
37.7768939126
 10
-58.6630257593
 20
37.7783039633
 10
-58.4403719164
 20
37.785944161
  0
LINE
  5
390
100
AcDbEntity
  8
RACCORDO
100
AcDbLine
 62
250
  6
CONTINUOUS
 10
-58.0190769988
 20
37.8036939475
 11
-57.9409830152
 21
37.8049799317
  0
LINE
  5
391
100
AcDbEntity
  8
RACCORDO
100
AcDbLine
 62
250
  6
CONTINUOUS
 10
-61.2239157829
 20
35.6830527653
 11
-61.0158055577
 21
35.6861777099
  0
LINE
  5
392
100
AcDbEntity
  8
RACCORDO
100
AcDbLine
 62
250
  6
CONTINUOUS
 10
-47.6275110571
 20
37.9157147234
 11
-46.8245114348
 21
37.9256830989
  0
LINE
  5
393
100
AcDbEntity
  8
RACCORDO
100
AcDbLine
 62
250
  6
CONTINUOUS
 10
-54.0383594259
 20
37.844485391
 11
-49.1522848165
 21
37.9025372865
  0
LINE
  5
394
100
AcDbEntity
  8
RACCORDO
100
AcDbLine
 62
250
  6
CONTINUOUS
 10
-46.8245114348
 20
37.9256830989
 11
-46.1321534929
 21
37.9333713847
  0
LINE
  5
395
100
AcDbEntity
  8
RACCORDO
100
AcDbLine
 62
250
  6
CONTINUOUS
 10
-49.1522848165
 20
37.9025372865
 11
-48.6553001287
 21
37.9079635141
  0
LINE
  5
396
100
AcDbEntity
  8
RACCORDO
100
AcDbLine
 62
250
  6
CONTINUOUS
 10
-46.1321534929
 20
37.9333713847
 11
-45.6250409128
 21
37.9380318664
  0
LINE
  5
397
100
AcDbEntity
  8
RACCORDO
100
AcDbLine
 62
250
  6
CONTINUOUS
 10
-57.9409830152
 20
37.8049799317
 11
-54.0383594259
 21
37.844485391
  0
LINE
  5
398
100
AcDbEntity
  8
RACCORDO
100
AcDbLine
 62
250
  6
CONTINUOUS
 10
-48.1568158017
 20
37.9116371957
 11
-47.6275110571
 21
37.9157147234
  0
LINE
  5
399
100
AcDbEntity
  8
RACCORDO
100
AcDbLine
 62
250
  6
CONTINUOUS
 10
-48.6553001287
 20
37.9079635141
 11
-48.1568158017
 21
37.9116371957
  0
LINE
  5
39A
100
AcDbEntity
  8
RACCORDO
100
AcDbLine
 62
250
  6
CONTINUOUS
 10
-61.0158055577
 20
35.6861777099
 11
-60.7890475278
 21
35.6879530884
  0
LINE
  5
39B
100
AcDbEntity
  8
RACCORDO
100
AcDbLine
 62
250
  6
CONTINUOUS
 10
-45.6250409128
 20
37.9380318664
 11
-42.5319114799
 21
37.9528420594
  0
LINE
  5
39C
100
AcDbEntity
  8
RACCORDO
100
AcDbLine
 62
250
  6
CONTINUOUS
 10
-42.5319114799
 20
37.9528420594
 11
-41.0372887917
 21
37.9592394359
  0
LINE
  5
39D
100
AcDbEntity
  8
RACCORDO
100
AcDbLine
 62
250
  6
CONTINUOUS
 10
-41.0372887917
 20
37.9592394359
 11
-39.3805104373
 21
37.9652806775
  0
LINE
  5
39E
100
AcDbEntity
  8
RACCORDO
100
AcDbLine
 62
250
  6
CONTINUOUS
 10
-39.3805104373
 20
37.9652806775
 11
-38.0219207473
 21
37.9694162176
  0
LINE
  5
39F
100
AcDbEntity
  8
RACCORDO
100
AcDbLine
 62
250
  6
CONTINUOUS
 10
-38.0219207473
 20
37.9694162176
 11
-36.5544368135
 21
37.9730618109
  0
LINE
  5
3A0
100
AcDbEntity
  8
RACCORDO
100
AcDbLine
 62
250
  6
CONTINUOUS
 10
-36.5544368135
 20
37.9730618109
 11
-34.9692889412
 21
37.9760710282
  0
LINE
  5
3A1
100
AcDbEntity
  8
RACCORDO
100
AcDbLine
 62
250
  6
CONTINUOUS
 10
54.7323586624
 20
38.6566958326
 11
54.8197280162
 21
38.6568424168
  0
LWPOLYLINE
  5
3A2
100
AcDbEntity
  8
RACCORDO
100
AcDbPolyline
 62
250
  6
CONTINUOUS
 90
3
 70
0
 10
54.6020983051
 20
38.6564997357
 10
54.6454161788
 20
38.6565619396
 10
54.7323586624
 20
38.6566958326
  0
LINE
  5
3A3
100
AcDbEntity
  8
RACCORDO
100
AcDbLine
 62
250
  6
CONTINUOUS
 10
54.5162916741
 20
38.656386074
 11
54.6020983051
 21
38.6564997357
  0
LINE
  5
3A4
100
AcDbEntity
  8
RACCORDO
100
AcDbLine
 62
250
  6
CONTINUOUS
 10
-34.9692889412
 20
37.9760710282
 11
-33.2569889141
 21
37.9783016402
  0
LINE
  5
3A5
100
AcDbEntity
  8
RACCORDO
100
AcDbLine
 62
250
  6
CONTINUOUS
 10
54.4317991067
 20
38.65628735
 11
54.5162916741
 21
38.656386074
  0
LINE
  5
3A6
100
AcDbEntity
  8
RACCORDO
100
AcDbLine
 62
250
  6
CONTINUOUS
 10
54.3493436624
 20
38.6562058627
 11
54.4317991067
 21
38.65628735
  0
LINE
  5
3A7
100
AcDbEntity
  8
RACCORDO
100
AcDbLine
 62
250
  6
CONTINUOUS
 10
54.2691444995
 20
38.6561414205
 11
54.3493436624
 21
38.6562058627
  0
LINE
  5
3A8
100
AcDbEntity
  8
RACCORDO
100
AcDbLine
 62
250
  6
CONTINUOUS
 10
21.0719539042
 20
37.9782871679
 11
21.875696732
 21
37.9787610158
  0
LINE
  5
3A9
100
AcDbEntity
  8
RACCORDO
100
AcDbLine
 62
250
  6
CONTINUOUS
 10
-33.2569889141
 20
37.9783016402
 11
-31.40751704
 21
37.9796345763
  0
LINE
  5
3AA
100
AcDbEntity
  8
RACCORDO
100
AcDbLine
 62
250
  6
CONTINUOUS
 10
43.3894224221
 20
38.6494575003
 11
44.3101211299
 21
38.6500412132
  0
LWPOLYLINE
  5
3AB
100
AcDbEntity
  8
RACCORDO
100
AcDbPolyline
 62
250
  6
CONTINUOUS
 90
3
 70
0
 10
54.1520691748
 20
38.6560702342
 10
54.1908880924
 20
38.6560918999
 10
54.2691444995
 20
38.6561414205
  0
LWPOLYLINE
  5
3AC
100
AcDbEntity
  8
RACCORDO
100
AcDbPolyline
 62
250
  6
CONTINUOUS
 90
3
 70
0
 10
42.9733582264
 20
38.6492230212
 10
43.1855118719
 20
38.6493380448
 10
43.3894224221
 20
38.6494575003
  0
LINE
  5
3AD
100
AcDbEntity
  8
RACCORDO
100
AcDbLine
 62
250
  6
CONTINUOUS
 10
44.3101211299
 20
38.6500412132
 11
51.684809302
 21
38.654756379
  0
LINE
  5
3AE
100
AcDbEntity
  8
RACCORDO
100
AcDbLine
 62
250
  6
CONTINUOUS
 10
51.684809302
 20
38.654756379
 11
54.1520691748
 21
38.6560702342
  0
LINE
  5
3AF
100
AcDbEntity
  8
RACCORDO
100
AcDbLine
 62
250
  6
CONTINUOUS
 10
21.875696732
 20
37.9787610158
 11
23.4227474851
 21
37.9794820967
  0
LWPOLYLINE
  5
3B0
100
AcDbEntity
  8
RACCORDO
100
AcDbPolyline
 62
250
  6
CONTINUOUS
 90
3
 70
0
 10
42.2868570452
 20
38.6489155822
 10
42.52443926
 20
38.6490083443
 10
42.9733582264
 20
38.6492230212
  0
LINE
  5
3B1
100
AcDbEntity
  8
RACCORDO
100
AcDbLine
 62
250
  6
CONTINUOUS
 10
23.4227474851
 20
37.9794820967
 11
25.5922071138
 21
37.9800095898
  0
LINE
  5
3B2
100
AcDbEntity
  8
RACCORDO
100
AcDbLine
 62
250
  6
CONTINUOUS
 10
-24.9276338262
 20
37.9782872897
 11
21.0719539042
 21
37.9782872259
  0
LINE
  5
3B3
100
AcDbEntity
  8
RACCORDO
100
AcDbLine
 62
250
  6
CONTINUOUS
 10
-31.40751704
 20
37.9796345763
 11
-29.41037537
 21
37.9800078993
  0
LINE
  5
3B4
100
AcDbEntity
  8
RACCORDO
100
AcDbLine
 62
250
  6
CONTINUOUS
 10
21.8762953643
 20
38.6466809444
 11
42.2868570452
 21
38.6489155822
  0
LINE
  5
3B5
100
AcDbEntity
  8
RACCORDO
100
AcDbLine
 62
7
  6
CONTINUOUS
 10
55.0764800971
 20
38.9135944977
 11
-58.9317426944
 21
38.9135944977
  0
LINE
  5
3B6
100
AcDbEntity
  8
RACCORDO
100
AcDbLine
 62
250
  6
CONTINUOUS
 10
-34.967942217
 20
38.6467384725
 11
21.8762953643
 21
38.6466809444
  0
LINE
  5
3B7
100
AcDbEntity
  8
RACCORDO
100
AcDbLine
 62
250
  6
CONTINUOUS
 10
25.5922071138
 20
37.9800095898
 11
27.5958658166
 21
37.9796148747
  0
LINE
  5
3B8
100
AcDbEntity
  8
RACCORDO
100
AcDbLine
 62
250
  6
CONTINUOUS
 10
-29.41037537
 20
37.9800078993
 11
-26.4984955877
 21
37.9791508346
  0
LINE
  5
3B9
100
AcDbEntity
  8
RACCORDO
100
AcDbLine
 62
250
  6
CONTINUOUS
 10
-26.4984955877
 20
37.9791508346
 11
-24.9276338261
 21
37.978287399
  0
LWPOLYLINE
  5
3BA
100
AcDbEntity
  8
RACCORDO
100
AcDbPolyline
 62
250
  6
CONTINUOUS
 90
3
 70
0
 10
-48.146174077
 20
38.6500304155
 10
-47.2313431422
 20
38.6494493543
 10
-34.967942217
 20
38.6467384725
  0
LINE
  5
3BB
100
AcDbEntity
  8
RACCORDO
100
AcDbLine
 62
250
  6
CONTINUOUS
 10
-55.165348483
 20
38.6545444196
 11
-48.146174077
 21
38.6500304155
  0
LINE
  5
3BC
100
AcDbEntity
  8
RACCORDO
100
AcDbLine
 62
250
  6
CONTINUOUS
 10
27.5958658166
 20
37.9796148747
 11
29.4473505811
 21
37.9782551858
  0
LINE
  5
3BD
100
AcDbEntity
  8
RACCORDO
100
AcDbLine
 62
250
  6
CONTINUOUS
 10
29.4473505811
 20
37.9782551858
 11
31.1590195282
 21
37.9759984717
  0
LWPOLYLINE
  5
3BE
100
AcDbEntity
  8
RACCORDO
100
AcDbPolyline
 62
250
  6
CONTINUOUS
 90
3
 70
0
 10
-58.6749906134
 20
38.6568424168
 10
-58.6314676039
 20
38.656767891
 10
-55.165348483
 20
38.6545444196
  0
LINE
  5
3BF
100
AcDbEntity
  8
RACCORDO
100
AcDbLine
 62
250
  6
CONTINUOUS
 10
31.1590195282
 20
37.9759984717
 11
32.7421016148
 21
37.9729670872
  0
LINE
  5
3C0
100
AcDbEntity
  8
RACCORDO
100
AcDbLine
 62
250
  6
CONTINUOUS
 10
32.7421016148
 20
37.9729670872
 11
34.2068205908
 21
37.969304527
  0
LINE
  5
3C1
100
AcDbEntity
  8
RACCORDO
100
AcDbLine
 62
250
  6
CONTINUOUS
 10
34.2068205908
 20
37.969304527
 11
35.5624277579
 21
37.9651571149
  0
LWPOLYLINE
  5
3C2
100
AcDbEntity
  8
RACCORDO
100
AcDbPolyline
 62
250
  6
CONTINUOUS
 90
3
 70
0
 10
35.5624277579
 20
37.9651571149
 10
37.2152461474
 20
37.9591070559
 10
37.6024377377
 20
37.957529173
  0
LINE
  5
3C3
100
AcDbEntity
  8
RACCORDO
100
AcDbLine
 62
250
  6
CONTINUOUS
 10
37.6024377377
 20
37.957529173
 11
39.0549390628
 21
37.9510962658
  0
LINE
  5
3C4
100
AcDbEntity
  8
RACCORDO
100
AcDbLine
 62
250
  6
CONTINUOUS
 10
39.0549390628
 20
37.9510962658
 11
41.7893367974
 21
37.9378981593
  0
LINE
  5
3C5
100
AcDbEntity
  8
RACCORDO
100
AcDbLine
 62
250
  6
CONTINUOUS
 10
43.7874398009
 20
37.9155119354
 11
44.8196895032
 21
37.9077813557
  0
LINE
  5
3C6
100
AcDbEntity
  8
RACCORDO
100
AcDbLine
 62
250
  6
CONTINUOUS
 10
57.1605575639
 20
35.6861783998
 11
56.933785773
 21
35.6879532811
  0
LINE
  5
3C7
100
AcDbEntity
  8
RACCORDO
100
AcDbLine
 62
250
  6
CONTINUOUS
 10
41.7893367974
 20
37.9378981593
 11
42.2935868778
 21
37.9332096852
  0
LINE
  5
3C8
100
AcDbEntity
  8
RACCORDO
100
AcDbLine
 62
250
  6
CONTINUOUS
 10
51.4672343272
 20
37.8309781058
 11
53.6441585337
 21
37.8090698524
  0
LWPOLYLINE
  5
3C9
100
AcDbEntity
  8
RACCORDO
100
AcDbPolyline
 62
250
  6
CONTINUOUS
 90
4
 70
0
 10
50.9638961402
 20
37.8362080058
 10
51.0960937022
 20
37.8348277405
 10
51.2240457269
 20
37.8334960835
 10
51.4672343272
 20
37.8309781058
  0
LWPOLYLINE
  5
3CA
100
AcDbEntity
  8
RACCORDO
100
AcDbPolyline
 62
250
  6
CONTINUOUS
 90
4
 70
0
 10
50.3858549475
 20
37.8423145376
 10
50.5380087187
 20
37.8406954782
 10
50.6848534367
 20
37.8391420413
 10
50.9638961402
 20
37.8362080058
  0
LINE
  5
3CB
100
AcDbEntity
  8
RACCORDO
100
AcDbLine
 62
250
  6
CONTINUOUS
 10
50.065534577
 20
37.8457472571
 11
50.3858549475
 21
37.8423145376
  0
LINE
  5
3CC
100
AcDbEntity
  8
RACCORDO
100
AcDbLine
 62
250
  6
CONTINUOUS
 10
49.7230649676
 20
37.8494646881
 11
50.065534577
 21
37.8457472571
  0
LINE
  5
3CD
100
AcDbEntity
  8
RACCORDO
100
AcDbLine
 62
250
  6
CONTINUOUS
 10
53.6441585337
 20
37.8090698524
 11
54.0838147937
 21
37.8050055096
  0
LINE
  5
3CE
100
AcDbEntity
  8
RACCORDO
100
AcDbLine
 62
250
  6
CONTINUOUS
 10
44.8196895032
 20
37.9077813557
 11
45.4708525304
 21
37.9005198497
  0
LINE
  5
3CF
100
AcDbEntity
  8
RACCORDO
100
AcDbLine
 62
250
  6
CONTINUOUS
 10
42.2935868778
 20
37.9332096852
 11
42.9827688076
 21
37.9255215199
  0
LINE
  5
3D0
100
AcDbEntity
  8
RACCORDO
100
AcDbLine
 62
250
  6
CONTINUOUS
 10
45.4708525304
 20
37.9005198497
 11
45.8016844206
 21
37.8965710284
  0
LINE
  5
3D1
100
AcDbEntity
  8
RACCORDO
100
AcDbLine
 62
250
  6
CONTINUOUS
 10
48.1290609786
 20
37.8679525261
 11
49.7230649676
 21
37.8494646881
  0
LINE
  5
3D2
100
AcDbEntity
  8
RACCORDO
100
AcDbLine
 62
250
  6
CONTINUOUS
 10
45.8016844206
 20
37.8965710284
 11
46.1427613959
 21
37.8924431137
  0
LINE
  5
3D3
100
AcDbEntity
  8
RACCORDO
100
AcDbLine
 62
250
  6
CONTINUOUS
 10
46.1427613959
 20
37.8924431137
 11
46.4996420142
 21
37.8880676391
  0
LWPOLYLINE
  5
3D4
100
AcDbEntity
  8
RACCORDO
100
AcDbPolyline
 62
250
  6
CONTINUOUS
 90
5
 70
0
 10
46.4996420142
 20
37.8880676391
 10
47.2779630384
 20
37.8784232676
 10
47.4857593019
 20
37.8758515596
 10
47.6979846845
 20
37.8732333877
 10
48.1290609786
 20
37.8679525261
  0
LINE
  5
3D5
100
AcDbEntity
  8
RACCORDO
100
AcDbLine
 62
250
  6
CONTINUOUS
 10
42.9827688076
 20
37.9255215199
 11
43.7874398009
 21
37.9155119354
  0
LWPOLYLINE
  5
3D6
100
AcDbEntity
  8
RACCORDO
100
AcDbPolyline
 62
250
  6
CONTINUOUS
 90
5
 70
0
 10
54.0838147937
 20
37.8050055096
 10
54.1620164235
 20
37.8037387459
 10
54.2015103797
 20
37.802697176
 10
54.2416714765
 20
37.8011630552
 10
54.2824219953
 20
37.7992905913
  0
LINE
  5
3D7
100
AcDbEntity
  8
RACCORDO
100
AcDbLine
 62
250
  6
CONTINUOUS
 10
54.6283981362
 20
37.7843588205
 11
54.8525197493
 21
37.7768939126
  0
LINE
  5
3D8
100
AcDbEntity
  8
RACCORDO
100
AcDbLine
 62
250
  6
CONTINUOUS
 10
54.4957173236
 20
37.7894225104
 11
54.6283981362
 21
37.7843588205
  0
LINE
  5
3D9
100
AcDbEntity
  8
RACCORDO
100
AcDbLine
 62
250
  6
CONTINUOUS
 10
-58.3089042179
 20
37.7911947658
 11
-58.0987162728
 21
37.8010950817
  0
LWPOLYLINE
  5
3DA
100
AcDbEntity
  8
RACCORDO
100
AcDbPolyline
 62
250
  6
CONTINUOUS
 90
22
 70
0
 10
54.8197280162
 20
38.6568424168
 10
55.0091351377
 20
38.6509153708
 10
55.204447539
 20
38.6321825066
 10
55.4047062316
 20
38.5994115369
 10
55.6095566972
 20
38.5511987011
 10
55.8168669476
 20
38.4865045392
 10
56.0228947403
 20
38.4052319015
 10
56.2265274559
 20
38.3067387094
 10
56.4257985558
 20
38.1908447153
 10
56.6161087866
 20
38.0595518666
 10
56.7954373825
 20
37.9142041621
 10
56.9635186198
 20
37.7549706879
 10
57.1189425778
 20
37.5830364081
 10
57.2607339614
 20
37.3993977626
 10
57.388007446
 20
37.2051116894
 10
57.499759148
 20
37.0016981075
 10
57.5952924389
 20
36.7905556494
 10
57.6741654836
 20
36.5728105208
 10
57.7359679744
 20
36.349683966
 10
57.7803566895
 20
36.1224773534
 10
57.8070789453
 20
35.8925720213
 10
57.8159959931
 20
35.6613331852
  0
LWPOLYLINE
  5
3DB
100
AcDbEntity
  8
RACCORDO
100
AcDbPolyline
 62
250
  6
CONTINUOUS
 90
3
 70
0
 10
54.2824219953
 20
37.7992905913
 10
54.408981268
 20
37.7932527378
 10
54.4957173236
 20
37.7894225104
  0
LWPOLYLINE
  5
3DC
100
AcDbEntity
  8
RACCORDO
100
AcDbPolyline
 62
250
  6
CONTINUOUS
 90
22
 70
0
 10
54.8525195621
 20
37.7768932347
 10
54.9825374746
 20
37.7688675778
 10
55.1165782118
 20
37.7522122881
 10
55.2539366094
 20
37.7261289761
 10
55.3943946636
 20
37.6896948701
 10
55.5365271631
 20
37.6422319223
 10
55.6778067457
 20
37.5836925457
 10
55.8175109935
 20
37.5136709537
 10
55.9543278496
 20
37.432066329
 10
56.0851188593
 20
37.3402325362
 10
56.2085269542
 20
37.2390643192
 10
56.3244365509
 20
37.1286741876
 10
56.4319134999
 20
37.0098225079
 10
56.5302944615
 20
36.8831253498
 10
56.6190452301
 20
36.7493065386
 10
56.6975207376
 20
36.6093799132
 10
56.7652256259
 20
36.4642445681
 10
56.8218914267
 20
36.314627779
 10
56.8672904877
 20
36.1613207346
 10
56.9011720968
 20
36.0051448163
 10
56.9233466577
 20
35.8470159265
 10
56.9337850016
 20
35.6879531046
  0
LWPOLYLINE
  5
3DD
100
AcDbEntity
  8
RACCORDO
100
AcDbPolyline
 62
250
  6
CONTINUOUS
 90
9
 70
0
 10
-61.6711919326
 20
35.6613331737
 10
-61.6582903514
 20
35.6644804848
 10
-61.6319543193
 20
35.6675848782
 10
-61.5925427757
 20
35.6706040449
 10
-61.5405928689
 20
35.6734968389
 10
-61.4768126351
 20
35.6762238377
 10
-61.4020713485
 20
35.6787478801
 10
-61.3173876739
 20
35.681034574
 10
-61.2239157829
 20
35.6830527653
  0
LWPOLYLINE
  5
3DE
100
AcDbEntity
  8
0
100
AcDbPolyline
 62
7
  6
CONTINUOUS
 90
7
 70
0
 43
0.3500000006
 10
-1.9276313324
 20
49.8364057159
 10
-3.4276312237
 20
49.8364057159
 10
-1.9276313324
 20
51.9792641602
 10
-1.9276313324
 20
52.4078331299
 10
-2.3562027097
 20
52.8364066315
 10
-2.999059988
 20
52.8364066315
 10
-3.4276312237
 20
52.193548645
  0
LWPOLYLINE
  5
3DF
100
AcDbEntity
  8
RACCORDO
100
AcDbPolyline
 62
250
  6
CONTINUOUS
 90
10
 70
0
 10
57.8159959931
 20
35.6613331852
 10
57.8030928308
 20
35.6644805806
 10
57.7767541501
 20
35.6675850773
 10
57.7373389492
 20
35.6706043607
 10
57.6853844601
 20
35.6734972779
 10
57.6215988259
 20
35.6762243979
 10
57.5468514493
 20
35.6787485486
 10
57.4621611421
 20
35.6810353255
 10
57.3686822391
 20
35.6830535597
 10
57.1605575639
 20
35.6861783998
  0
LINE
  5
3E0
100
AcDbEntity
  8
RACCORDO
100
AcDbLine
 62
250
  6
CONTINUOUS
 10
56.9474193796
 20
35.2751954266
 11
56.9524688905
 21
35.1472758684
  0
LINE
  5
3E1
100
AcDbEntity
  8
RACCORDO
100
AcDbLine
 62
250
  6
CONTINUOUS
 10
56.9406943722
 20
35.4638504042
 11
56.9474193796
 21
35.2751954266
  0
LWPOLYLINE
  5
3E2
100
AcDbEntity
  8
RACCORDO
100
AcDbPolyline
 62
250
  6
CONTINUOUS
 90
3
 70
0
 10
56.9524688905
 20
35.1472758684
 10
56.9537597131
 20
35.105395746
 10
56.9544036204
 20
35.0634144407
  0
LINE
  5
3E3
100
AcDbEntity
  8
RACCORDO
100
AcDbLine
 62
250
  6
CONTINUOUS
 10
56.933785773
 20
35.6879532811
 11
56.9406943722
 21
35.4638504042
  0
LINE
  5
3E4
100
AcDbEntity
  8
RACCORDO
100
AcDbLine
 62
250
  6
CONTINUOUS
 10
56.9719689908
 20
32.1942101013
 11
56.983670275
 21
30.0796957726
  0
LINE
  5
3E5
100
AcDbEntity
  8
RACCORDO
100
AcDbLine
 62
250
  6
CONTINUOUS
 10
56.9544036204
 20
35.0634144407
 11
56.9719689908
 21
32.1942101013
  0
LINE
  5
3E6
100
AcDbEntity
  8
RACCORDO
100
AcDbLine
 62
250
  6
CONTINUOUS
 10
56.983670275
 20
30.0796957726
 11
56.9939425025
 21
27.9235356755
  0
LINE
  5
3E7
100
AcDbEntity
  8
RACCORDO
100
AcDbLine
 62
250
  6
CONTINUOUS
 10
56.9939425025
 20
27.9235356755
 11
57.0104633371
 21
23.8221428039
  0
LINE
  5
3E8
100
AcDbEntity
  8
RACCORDO
100
AcDbLine
 62
250
  6
CONTINUOUS
 10
57.0104633371
 20
23.8221428039
 11
57.0252781457
 21
19.6462791114
  0
LINE
  5
3E9
100
AcDbEntity
  8
RACCORDO
100
AcDbLine
 62
250
  6
CONTINUOUS
 10
57.0252781457
 20
19.6462791114
 11
57.038218562
 21
15.2333290379
  0
LINE
  5
3EA
100
AcDbEntity
  8
RACCORDO
100
AcDbLine
 62
250
  6
CONTINUOUS
 10
57.038218562
 20
15.2333290379
 11
57.04506215
 21
12.2987214134
  0
LINE
  5
3EB
100
AcDbEntity
  8
RACCORDO
100
AcDbLine
 62
250
  6
CONTINUOUS
 10
57.04506215
 20
12.2987214134
 11
57.0532223304
 21
7.4930842212
  0
LINE
  5
3EC
100
AcDbEntity
  8
RACCORDO
100
AcDbLine
 62
250
  6
CONTINUOUS
 10
57.815854165
 20
-37.7267487404
 11
57.8159959931
 21
-37.8341441898
  0
LINE
  5
3ED
100
AcDbEntity
  8
RACCORDO
100
AcDbLine
 62
250
  6
CONTINUOUS
 10
57.8157389309
 20
-37.6265305214
 11
57.815854165
 21
-37.7267487404
  0
LINE
  5
3EE
100
AcDbEntity
  8
RACCORDO
100
AcDbLine
 62
250
  6
CONTINUOUS
 10
57.0532223304
 20
7.4930842212
 11
57.0574480723
 21
3.4814341484
  0
LINE
  5
3EF
100
AcDbEntity
  8
RACCORDO
100
AcDbLine
 62
250
  6
CONTINUOUS
 10
57.8156491994
 20
-37.5334508108
 11
57.8157389309
 21
-37.6265305214
  0
LINE
  5
3F0
100
AcDbEntity
  8
RACCORDO
100
AcDbLine
 62
250
  6
CONTINUOUS
 10
57.8155815164
 20
-37.44803658
 11
57.8156491994
 21
-37.5334508108
  0
LINE
  5
3F1
100
AcDbEntity
  8
RACCORDO
100
AcDbLine
 62
250
  6
CONTINUOUS
 10
57.0574480723
 20
3.4814341484
 11
57.0602327559
 21
-1.0859043673
  0
LWPOLYLINE
  5
3F2
100
AcDbEntity
  8
RACCORDO
100
AcDbPolyline
 62
250
  6
CONTINUOUS
 90
3
 70
0
 10
57.8154966891
 20
-37.2869857258
 10
57.8155132193
 20
-37.3269147809
 10
57.8155815164
 20
-37.44803658
  0
LINE
  5
3F3
100
AcDbEntity
  8
RACCORDO
100
AcDbLine
 62
250
  6
CONTINUOUS
 10
57.8098799198
 20
-0.1260186626
 11
57.8154966891
 21
-37.2869857258
  0
LINE
  5
3F4
100
AcDbEntity
  8
RACCORDO
100
AcDbLine
 62
7
  6
CONTINUOUS
 10
57.8889414739
 20
1.7135944977
 11
57.8889414739
 21
-3.8864055023
  0
LINE
  5
3F5
100
AcDbEntity
  8
DRAFT
100
AcDbLine
 62
7
  6
CONTINUOUS
 10
57.9723687014
 20
4.0397699303
 11
57.9723687014
 21
2.9135944977
  0
LINE
  5
3F6
100
AcDbEntity
  8
DRAFT
100
AcDbLine
 62
7
  6
CONTINUOUS
 10
57.9723687014
 20
-5.0864055023
 11
57.9723687014
 21
-6.2126293148
  0
LINE
  5
3F7
100
AcDbEntity
  8
RACCORDO
100
AcDbLine
 62
7
  6
CONTINUOUS
 10
58.0723687014
 20
-38.090516898
 11
58.0723687014
 21
-6.3864055023
  0
LINE
  5
3F8
100
AcDbEntity
  8
RACCORDO
100
AcDbLine
 62
7
  6
CONTINUOUS
 10
58.0723687014
 20
4.2135944977
 11
58.0723687014
 21
35.9177058934
  0
LWPOLYLINE
  5
3F9
100
AcDbEntity
  8
RACCORDO
100
AcDbPolyline
 62
250
  6
CONTINUOUS
 90
3
 70
0
 10
57.8110978747
 20
15.2307356559
 10
57.810064242
 20
4.3251899745
 10
57.8098799198
 20
-0.1260186626
  0
LINE
  5
3FA
100
AcDbEntity
  8
RACCORDO
100
AcDbLine
 62
250
  6
CONTINUOUS
 10
57.0602332176
 20
-1.0859043669
 11
57.0581606666
 21
-4.7149463921
  0
LINE
  5
3FB
100
AcDbEntity
  8
RACCORDO
100
AcDbLine
 62
250
  6
CONTINUOUS
 10
57.0581606666
 20
-4.7149463921
 11
57.0552373176
 21
-7.9929080218
  0
LINE
  5
3FC
100
AcDbEntity
  8
RACCORDO
100
AcDbLine
 62
250
  6
CONTINUOUS
 10
57.0552373176
 20
-7.9929080218
 11
57.0524335124
 21
-10.2413384839
  0
LWPOLYLINE
  5
3FD
100
AcDbEntity
  8
RACCORDO
100
AcDbPolyline
 62
250
  6
CONTINUOUS
 90
3
 70
0
 10
57.8159959931
 20
35.6613331852
 10
57.8159180041
 20
35.6037069738
 10
57.8110978747
 20
15.2307356559
  0
LINE
  5
3FE
100
AcDbEntity
  8
RACCORDO
100
AcDbLine
 62
250
  6
CONTINUOUS
 10
57.0524335124
 20
-10.2413384839
 11
57.0479861654
 21
-12.9835936885
  0
LINE
  5
3FF
100
AcDbEntity
  8
RACCORDO
100
AcDbLine
 62
250
  6
CONTINUOUS
 10
57.0479861654
 20
-12.9835936885
 11
57.0429207551
 21
-15.4597803344
  0
LINE
  5
400
100
AcDbEntity
  8
RACCORDO
100
AcDbLine
 62
250
  6
CONTINUOUS
 10
57.0429207551
 20
-15.4597803344
 11
57.0402259612
 21
-16.606208916
  0
LINE
  5
401
100
AcDbEntity
  8
RACCORDO
100
AcDbLine
 62
250
  6
CONTINUOUS
 10
57.0402259612
 20
-16.606208916
 11
57.0360626639
 21
-18.2204247258
  0
LINE
  5
402
100
AcDbEntity
  8
RACCORDO
100
AcDbLine
 62
250
  6
CONTINUOUS
 10
57.0360626639
 20
-18.2204247258
 11
57.0318242234
 21
-19.716428476
  0
LINE
  5
403
100
AcDbEntity
  8
RACCORDO
100
AcDbLine
 62
250
  6
CONTINUOUS
 10
57.0318242234
 20
-19.716428476
 11
57.0261765293
 21
-21.5426946493
  0
LINE
  5
404
100
AcDbEntity
  8
RACCORDO
100
AcDbLine
 62
250
  6
CONTINUOUS
 10
57.0261765293
 20
-21.5426946493
 11
57.0220137125
 21
-22.7964531354
  0
LINE
  5
405
100
AcDbEntity
  8
RACCORDO
100
AcDbLine
 62
250
  6
CONTINUOUS
 10
57.0220137125
 20
-22.7964531354
 11
57.0115306281
 21
-25.7127865755
  0
LWPOLYLINE
  5
406
100
AcDbEntity
  8
RACCORDO
100
AcDbPolyline
 62
250
  6
CONTINUOUS
 90
3
 70
0
 10
57.0115306281
 20
-25.7127865755
 10
56.9991059899
 20
-28.8798763529
 10
56.9980870709
 20
-29.1270930677
  0
LWPOLYLINE
  5
407
100
AcDbEntity
  8
RACCORDO
100
AcDbPolyline
 62
250
  6
CONTINUOUS
 90
3
 70
0
 10
56.9980870709
 20
-29.1270930677
 10
56.9960814549
 20
-29.6033465523
 10
56.9950946598
 20
-29.8327994216
  0
LWPOLYLINE
  5
408
100
AcDbEntity
  8
RACCORDO
100
AcDbPolyline
 62
250
  6
CONTINUOUS
 90
3
 70
0
 10
56.9950946598
 20
-29.8327994216
 10
56.9931505311
 20
-30.2747945161
 10
56.9921932227
 20
-30.4877539949
  0
LINE
  5
409
100
AcDbEntity
  8
RACCORDO
100
AcDbLine
 62
250
  6
CONTINUOUS
 10
56.9921932227
 20
-30.4877539949
 11
56.9903071399
 21
-30.8980659684
  0
LWPOLYLINE
  5
40A
100
AcDbEntity
  8
RACCORDO
100
AcDbPolyline
 62
250
  6
CONTINUOUS
 90
3
 70
0
 10
56.9903071399
 20
-30.8980659684
 10
56.9884606807
 20
-31.2885642005
 10
56.9875523915
 20
-31.4765153431
  0
LWPOLYLINE
  5
40B
100
AcDbEntity
  8
RACCORDO
100
AcDbPolyline
 62
250
  6
CONTINUOUS
 90
3
 70
0
 10
56.9875523915
 20
-31.4765153431
 10
56.9857681452
 20
-31.8387170846
 10
56.9848921462
 20
-32.0129674038
  0
LWPOLYLINE
  5
40C
100
AcDbEntity
  8
RACCORDO
100
AcDbPolyline
 62
250
  6
CONTINUOUS
 90
3
 70
0
 10
56.9848921462
 20
-32.0129674038
 10
56.9831743158
 20
-32.3486552945
 10
56.9823324394
 20
-32.5100927128
  0
LWPOLYLINE
  5
40D
100
AcDbEntity
  8
RACCORDO
100
AcDbPolyline
 62
250
  6
CONTINUOUS
 90
3
 70
0
 10
56.9823324394
 20
-32.5100927128
 10
56.9806840233
 20
-32.8211072523
 10
56.9798774398
 20
-32.9706841922
  0
LWPOLYLINE
  5
40E
100
AcDbEntity
  8
RACCORDO
100
AcDbPolyline
 62
250
  6
CONTINUOUS
 90
3
 70
0
 10
56.9798774398
 20
-32.9706841922
 10
56.9783002233
 20
-33.259012457
 10
56.977529547
 20
-33.3977635413
  0
LINE
  5
40F
100
AcDbEntity
  8
RACCORDO
100
AcDbLine
 62
250
  6
CONTINUOUS
 10
56.977529547
 20
-33.3977635413
 11
56.9760250082
 21
-33.6654801076
  0
LINE
  5
410
100
AcDbEntity
  8
RACCORDO
100
AcDbLine
 62
250
  6
CONTINUOUS
 10
56.958051175
 20
-36.639371409
 11
56.9577125801
 21
-36.6954319856
  0
LINE
  5
411
100
AcDbEntity
  8
RACCORDO
100
AcDbLine
 62
250
  6
CONTINUOUS
 10
56.9760250082
 20
-33.6654801076
 11
56.9636187197
 21
-35.7474411203
  0
LINE
  5
412
100
AcDbEntity
  8
RACCORDO
100
AcDbLine
 62
250
  6
CONTINUOUS
 10
56.9577125801
 20
-36.6954319856
 11
56.9570561945
 21
-36.8021645782
  0
LINE
  5
413
100
AcDbEntity
  8
RACCORDO
100
AcDbLine
 62
250
  6
CONTINUOUS
 10
56.9636187197
 20
-35.7474411203
 11
56.958051175
 21
-36.639371409
  0
LINE
  5
414
100
AcDbEntity
  8
RACCORDO
100
AcDbLine
 62
250
  6
CONTINUOUS
 10
56.9570561945
 20
-36.8021645782
 11
56.9545092708
 21
-37.2117039322
  0
LWPOLYLINE
  5
415
100
AcDbEntity
  8
RACCORDO
100
AcDbPolyline
 62
250
  6
CONTINUOUS
 90
5
 70
0
 10
56.9545092708
 20
-37.2117039322
 10
56.9541113203
 20
-37.2527945694
 10
56.9533390588
 20
-37.2939904571
 10
56.9519770839
 20
-37.3351265058
 10
56.9485072044
 20
-37.4183595968
  0
LINE
  5
416
100
AcDbEntity
  8
RACCORDO
100
AcDbLine
 62
250
  6
CONTINUOUS
 10
56.9420235566
 20
-37.5972457882
 11
56.9337857868
 21
-37.8607642887
  0
LINE
  5
417
100
AcDbEntity
  8
RACCORDO
100
AcDbLine
 62
250
  6
CONTINUOUS
 10
56.9485072044
 20
-37.4183595968
 11
56.9420235566
 21
-37.5972457882
  0
LWPOLYLINE
  5
418
100
AcDbEntity
  8
RACCORDO
100
AcDbPolyline
 62
250
  6
CONTINUOUS
 90
22
 70
0
 10
57.8159959931
 20
-37.8341441898
 10
57.8071923588
 20
-38.0639112313
 10
57.7808070557
 20
-38.292384094
 10
57.7369720638
 20
-38.5182228114
 10
57.6759289465
 20
-38.7400759213
 10
57.5980101551
 20
-38.956659418
 10
57.5036200119
 20
-39.1667582811
 10
57.3931799546
 20
-39.3692827707
 10
57.2673776332
 20
-39.5628398001
 10
57.1272409605
 20
-39.745876596
 10
56.9738686044
 20
-39.9171355643
 10
56.8080371285
 20
-40.0759098929
 10
56.6304292789
 20
-40.2215768513
 10
56.4408695699
 20
-40.3540317986
 10
56.2415367332
 20
-40.4715225476
 10
56.0371257299
 20
-40.5717676211
 10
55.8294382744
 20
-40.6548541234
 10
55.6196994628
 20
-40.7212239366
 10
55.4122684611
 20
-40.7707107637
 10
55.2095319505
 20
-40.8043330734
 10
55.0116865863
 20
-40.8235646525
 10
54.8197280162
 20
-40.8296534214
  0
LWPOLYLINE
  5
419
100
AcDbEntity
  8
RACCORDO
100
AcDbPolyline
 62
250
  6
CONTINUOUS
 90
22
 70
0
 10
56.9337849309
 20
-37.8607640931
 10
56.9234560794
 20
-38.0188284864
 10
56.9015306734
 20
-38.1759714621
 10
56.8680384763
 20
-38.3311987895
 10
56.8231716918
 20
-38.4836268743
 10
56.7671658932
 20
-38.63244281
 10
56.7002408931
 20
-38.776857543
 10
56.6226636192
 20
-38.9161704878
 10
56.5349195207
 20
-39.0494811194
 10
56.4376638091
 20
-39.17574726
 10
56.3315838883
 20
-39.2941130413
 10
56.2172096775
 20
-39.4041635333
 10
56.0949709292
 20
-39.5055208126
 10
55.9646808671
 20
-39.5981206267
 10
55.8278159313
 20
-39.6808026841
 10
55.6875768037
 20
-39.7520182402
 10
55.5451575155
 20
-39.811800796
 10
55.401357238
 20
-39.8604310533
 10
55.259125806
 20
-39.8977725473
 10
55.1200616558
 20
-39.9244778928
 10
54.9842801022
 20
-39.9415169725
 10
54.8525195617
 20
-39.9497042382
  0
LWPOLYLINE
  5
41A
100
AcDbEntity
  8
RACCORDO
100
AcDbPolyline
 62
250
  6
CONTINUOUS
 90
13
 70
0
 10
54.8197280162
 20
-40.8296534214
 10
54.8236003425
 20
-40.8167832052
 10
54.8274200605
 20
-40.7905204091
 10
54.831135276
 20
-40.7512218408
 10
54.8346955147
 20
-40.699421413
 10
54.8380524078
 20
-40.635822889
 10
54.8411603491
 20
-40.5612903219
 10
54.8439771147
 20
-40.4768363151
 10
54.8464644366
 20
-40.3836082655
 10
54.8485885227
 20
-40.2828727743
 10
54.8503205159
 20
-40.1759984396
 10
54.851636886
 20
-40.0644372618
 10
54.8525197494
 20
-39.9497049171
  0
LWPOLYLINE
  5
41B
100
AcDbEntity
  8
RACCORDO
100
AcDbPolyline
 62
250
  6
CONTINUOUS
 90
13
 70
0
 10
54.8197280157
 20
38.6568160179
 10
54.8236002031
 20
38.6439461909
 10
54.8274197982
 20
38.6176842441
 10
54.8311349092
 20
38.578386964
 10
54.834695064
 20
38.5265882312
 10
54.8380518958
 20
38.4629917672
 10
54.8411598002
 20
38.3884615735
 10
54.8439765549
 20
38.304010194
 10
54.8464638932
 20
38.2107849589
 10
54.8485880242
 20
38.1100523969
 10
54.8503200913
 20
38.0031810291
 10
54.851636565
 20
37.8916227765
 10
54.8525195621
 20
37.7768932347
  0
LINE
  5
41C
100
AcDbEntity
  8
RACCORDO
100
AcDbLine
 62
7
  6
CONTINUOUS
 10
-81.6420357672
 20
-40.8193881219
 11
-76.5470406332
 21
-41.0864055023
  0
LWPOLYLINE
  5
41D
100
AcDbEntity
  8
RACCORDO
100
AcDbPolyline
 62
250
  6
CONTINUOUS
 90
13
 70
0
 10
-81.4461621843
 20
-40.8296534214
 10
-81.5619439491
 20
-40.8167832052
 10
-81.6754416572
 20
-40.7905204091
 10
-81.7851133224
 20
-40.7512218408
 10
-81.8894689396
 20
-40.699421413
 10
-81.9870907275
 20
-40.635822889
 10
-82.0766523913
 20
-40.5612903219
 10
-82.1569371412
 20
-40.4768363151
 10
-82.2268542242
 20
-40.3836082655
 10
-82.285453743
 20
-40.2828727743
 10
-82.3319395614
 20
-40.1759984396
 10
-82.3656801204
 20
-40.0644372618
 10
-82.3862170189
 20
-39.9497049171
  0
LINE
  5
41E
100
AcDbEntity
  8
RACCORDO
100
AcDbLine
 62
7
  6
CONTINUOUS
 10
-81.8410309633
 20
-40.7886604364
 11
-81.7413835086
 21
-40.8091880026
  0
LINE
  5
41F
100
AcDbEntity
  8
RACCORDO
100
AcDbLine
 62
7
  6
CONTINUOUS
 10
-81.9397632446
 20
-40.7574856589
 11
-81.8410309633
 21
-40.7886604364
  0
LWPOLYLINE
  5
420
100
AcDbEntity
  8
0
100
AcDbPolyline
 62
7
  6
CONTINUOUS
 90
10
 70
0
 43
0.3500000006
 10
-83.9756079712
 20
49.8364057159
 10
-83.1184700317
 20
50.6935481873
 10
-82.9041855469
 20
51.5506906586
 10
-82.9041855469
 20
52.4078331299
 10
-83.3327545166
 20
52.8364066315
 10
-83.9756079712
 20
52.8364066315
 10
-84.4041860046
 20
52.4078331299
 10
-84.4041860046
 20
51.5506906586
 10
-83.9756079712
 20
51.1221216888
 10
-83.0470388489
 20
51.1221216888
  0
LINE
  5
421
100
AcDbEntity
  8
RACCORDO
100
AcDbLine
 62
7
  6
CONTINUOUS
 10
-81.8528097917
 20
38.6127141658
 11
-81.955367562
 21
38.5786941749
  0
LINE
  5
422
100
AcDbEntity
  8
RACCORDO
100
AcDbLine
 62
250
  6
CONTINUOUS
 10
-82.3255092207
 20
-37.8589887148
 11
-82.3794235459
 21
-37.8607640931
  0
LINE
  5
423
100
AcDbEntity
  8
RACCORDO
100
AcDbLine
 62
250
  6
CONTINUOUS
 10
-81.4389198316
 20
-37.8341441783
 11
-82.3255092207
 21
-37.8589887148
  0
LINE
  5
424
100
AcDbEntity
  8
RACCORDO
100
AcDbLine
 62
250
  6
CONTINUOUS
 10
-81.4389233223
 20
-37.8341441898
 11
-76.5470406332
 21
-38.090516898
  0
LWPOLYLINE
  5
425
100
AcDbEntity
  8
RACCORDO
100
AcDbPolyline
 62
7
  6
CONTINUOUS
 90
7
 70
0
 10
-81.955367562
 20
38.5786941749
 10
-82.0543514267
 20
38.5334427424
 10
-82.1484544721
 20
38.4772826665
 10
-82.2363427784
 20
38.4107430584
 10
-82.3167943982
 20
38.3344882532
 10
-82.3887027319
 20
38.2492790014
 10
-82.4510117736
 20
38.1560295604
  0
LINE
  5
426
100
AcDbEntity
  8
SCRITTA_VIMAR
100
AcDbLine
 62
250
  6
CONTINUOUS
 10
-84.860847389
 20
-30.5707725023
 11
-84.8604033399
 21
-30.5707725023
  0
LINE
  5
427
100
AcDbEntity
  8
SCRITTA_VIMAR
100
AcDbLine
 62
250
  6
CONTINUOUS
 10
-84.8397892208
 20
-30.5707725023
 11
-84.8337962117
 21
-30.5707725023
  0
LINE
  5
428
100
AcDbEntity
  8
SCRITTA_VIMAR
100
AcDbLine
 62
250
  6
CONTINUOUS
 10
-84.8473814162
 20
-30.5707725023
 11
-84.8467737729
 21
-30.5707725023
  0
LINE
  5
429
100
AcDbEntity
  8
SCRITTA_VIMAR
100
AcDbLine
 62
250
  6
CONTINUOUS
 10
-84.8552455339
 20
-30.5707725023
 11
-84.8525374092
 21
-30.5707725023
  0
LINE
  5
42A
100
AcDbEntity
  8
SCRITTA_VIMAR
100
AcDbLine
 62
250
  6
CONTINUOUS
 10
-84.8085825464
 20
-30.5707725023
 11
-84.7972582323
 21
-30.5707725023
  0
LINE
  5
42B
100
AcDbEntity
  8
SCRITTA_VIMAR
100
AcDbLine
 62
250
  6
CONTINUOUS
 10
-84.8327448131
 20
-30.5707725023
 11
-84.8255234967
 21
-30.5707725023
  0
LINE
  5
42C
100
AcDbEntity
  8
SCRITTA_VIMAR
100
AcDbLine
 62
250
  6
CONTINUOUS
 10
-84.8564951983
 20
-30.5707725023
 11
-84.8583405037
 21
-30.5707725023
  0
LINE
  5
42D
100
AcDbEntity
  8
SCRITTA_VIMAR
100
AcDbLine
 62
250
  6
CONTINUOUS
 10
-84.7813942537
 20
-30.5707725958
 11
-84.7938444724
 21
-30.5707725958
  0
LINE
  5
42E
100
AcDbEntity
  8
SCRITTA_VIMAR
100
AcDbLine
 62
250
  6
CONTINUOUS
 10
-84.7430135978
 20
-30.5707725958
 11
-84.7592351647
 21
-30.5707725958
  0
LINE
  5
42F
100
AcDbEntity
  8
SCRITTA_VIMAR
100
AcDbLine
 62
250
  6
CONTINUOUS
 10
-84.9060071769
 20
-29.9918985023
 11
-84.8944248836
 21
-29.9918985023
  0
LINE
  5
430
100
AcDbEntity
  8
SCRITTA_VIMAR
100
AcDbLine
 62
250
  6
CONTINUOUS
 10
-84.9569961964
 20
-29.5439685023
 11
-84.9647000602
 21
-29.5439685023
  0
LINE
  5
431
100
AcDbEntity
  8
SCRITTA_VIMAR
100
AcDbLine
 62
250
  6
CONTINUOUS
 10
-84.9350876615
 20
-29.4360084815
 11
-84.9420770185
 21
-29.4360084815
  0
LINE
  5
432
100
AcDbEntity
  8
SCRITTA_VIMAR
100
AcDbLine
 62
250
  6
CONTINUOUS
 10
-85.004416545
 20
-28.9611153423
 11
-84.9972508069
 21
-28.9611153423
  0
LINE
  5
433
100
AcDbEntity
  8
SCRITTA_VIMAR
100
AcDbLine
 62
250
  6
CONTINUOUS
 10
-85.1922734138
 20
-27.6711195023
 11
-85.1928994665
 21
-27.6711195023
  0
LINE
  5
434
100
AcDbEntity
  8
SCRITTA_VIMAR
100
AcDbLine
 62
250
  6
CONTINUOUS
 10
-85.1875659986
 20
-27.6711195023
 11
-85.1896776373
 21
-27.6711195023
  0
LINE
  5
435
100
AcDbEntity
  8
SCRITTA_VIMAR
100
AcDbLine
 62
250
  6
CONTINUOUS
 10
-85.1762501296
 20
-27.6711195023
 11
-85.1807139827
 21
-27.6711195023
  0
LWPOLYLINE
  5
436
100
AcDbEntity
  8
RACCORDO
100
AcDbPolyline
 62
250
  6
CONTINUOUS
 90
5
 70
0
 10
-85.4192652321
 20
-23.3776410356
 10
-85.3683910676
 20
-23.3759722867
 10
-85.3305078651
 20
-23.3743491449
 10
-85.3057838757
 20
-23.3727787888
 10
-85.2943289066
 20
-23.3712681647
  0
LINE
  5
437
100
AcDbEntity
  8
RACCORDO
100
AcDbLine
 62
250
  6
CONTINUOUS
 10
-85.5590259606
 20
-23.3810856749
 11
-85.4192652321
 21
-23.3776410356
  0
LINE
  5
438
100
AcDbEntity
  8
RACCORDO
100
AcDbLine
 62
250
  6
CONTINUOUS
 10
-85.8586361055
 20
-23.3864055023
 11
-85.5590259606
 21
-23.3810856749
  0
LINE
  5
439
100
AcDbEntity
  8
RACCORDO
100
AcDbLine
 62
250
  6
CONTINUOUS
 10
-86.0470406332
 20
-23.3864055023
 11
-85.8586338062
 21
-23.3864055023
  0
LWPOLYLINE
  5
43A
100
AcDbEntity
  8
RACCORDO
100
AcDbPolyline
 62
7
  6
CONTINUOUS
 90
3
 70
0
 10
-82.4510117736
 20
38.1560295604
 10
-82.5027560373
 20
38.0557886088
 10
-82.5329826937
 20
37.9799469914
  0
LINE
  5
43B
100
AcDbEntity
  8
RACCORDO
100
AcDbLine
 62
7
  6
CONTINUOUS
 10
-85.7357598806
 20
23.2730085345
 11
-85.7904185671
 21
23.1919606605
  0
LWPOLYLINE
  5
43C
100
AcDbEntity
  8
RACCORDO
100
AcDbPolyline
 62
7
  6
CONTINUOUS
 90
3
 70
0
 10
-85.8461240429
 20
23.1148150142
 10
-85.7384644007
 20
23.2675895886
 10
-85.6616786364
 20
23.3904569305
  0
LINE
  5
43D
100
AcDbEntity
  8
RACCORDO
100
AcDbLine
 62
7
  6
CONTINUOUS
 10
-85.7904185671
 20
23.1919606605
 11
-85.8469649707
 21
23.1137041253
  0
LINE
  5
43E
100
AcDbEntity
  8
RACCORDO
100
AcDbLine
 62
7
  6
CONTINUOUS
 10
-85.8471296877
 20
-25.2862948636
 11
-85.7905873829
 21
-25.3645300841
  0
LWPOLYLINE
  5
43F
100
AcDbEntity
  8
RACCORDO
100
AcDbPolyline
 62
7
  6
CONTINUOUS
 90
3
 70
0
 10
-85.8461225827
 20
-25.2876249201
 10
-85.738464631
 20
-25.4404002392
 10
-85.6731508906
 20
-25.5440506797
  0
LWPOLYLINE
  5
440
100
AcDbEntity
  8
RACCORDO
100
AcDbPolyline
 62
7
  6
CONTINUOUS
 90
5
 70
0
 10
-85.7905873829
 20
-25.3645300841
 10
-85.7359338895
 20
-25.4455523428
 10
-85.6833218195
 20
-25.5293462142
 10
-85.6330288997
 20
-25.6156721253
 10
-85.5850810737
 20
-25.7047023941
  0
LWPOLYLINE
  5
441
100
AcDbEntity
  8
RACCORDO
100
AcDbPolyline
 62
250
  6
CONTINUOUS
 90
9
 70
0
 10
-85.6731508906
 20
-25.5440506797
 10
-85.6405293185
 20
-25.5995832321
 10
-85.552696772
 20
-25.764556045
 10
-85.4753079054
 20
-25.9346783514
 10
-85.4086630962
 20
-26.1092898373
 10
-85.3530210201
 20
-26.2877127647
 10
-85.3085976465
 20
-26.4692546016
 10
-85.2755654006
 20
-26.6532107103
 10
-85.2540524939
 20
-26.8388670825
  0
LINE
  5
442
100
AcDbEntity
  8
RACCORDO
100
AcDbLine
 62
7
  6
CONTINUOUS
 10
-85.6831421079
 20
-25.5296432456
 11
-85.6328421882
 21
-25.6160054156
  0
LWPOLYLINE
  5
443
100
AcDbEntity
  8
RACCORDO
100
AcDbPolyline
 62
7
  6
CONTINUOUS
 90
9
 70
0
 10
-82.5329826836
 20
-40.1527580145
 10
-82.4935716649
 20
-40.2485687925
 10
-82.4386851334
 20
-40.3491802179
 10
-82.3736033779
 20
-40.4416452331
 10
-82.299572655
 20
-40.5250916404
 10
-82.2178610349
 20
-40.5988443205
 10
-82.1296835751
 20
-40.6624359917
 10
-82.0364489958
 20
-40.715419328
 10
-81.9397632446
 20
-40.7574856589
  0
LWPOLYLINE
  5
444
100
AcDbEntity
  8
0
100
AcDbPolyline
 62
7
  6
CONTINUOUS
 90
3
 70
0
 43
0.3500000006
 10
-81.3327539063
 20
50.1221213837
 10
-81.4041850891
 20
49.9078323669
 10
-81.5470383911
 20
49.6221212311
  0
LINE
  5
445
100
AcDbEntity
  8
SUPERFICI
100
AcDbLine
 62
7
  6
CONTINUOUS
 10
-82.628474341
 20
37.7059229371
 11
-82.7065130428
 21
37.4778364138
  0
LINE
  5
446
100
AcDbEntity
  8
SUPERFICI
100
AcDbLine
 62
7
  6
CONTINUOUS
 10
-82.5473093225
 20
37.9391821278
 11
-82.6287702758
 21
37.7050651522
  0
LINE
  5
447
100
AcDbEntity
  8
SUPERFICI
100
AcDbLine
 62
7
  6
CONTINUOUS
 10
-82.5329827786
 20
37.9799470683
 11
-82.5475522739
 21
37.9384897888
  0
LWPOLYLINE
  5
448
100
AcDbEntity
  8
RACCORDO
100
AcDbPolyline
 62
250
  6
CONTINUOUS
 90
9
 70
0
 10
-85.6616786364
 20
23.3904569305
 10
-85.6405274005
 20
23.4267719692
 10
-85.5526931786
 20
23.5917443
 10
-85.4753026575
 20
23.7618662518
 10
-85.4086562236
 20
23.9364775074
 10
-85.3530125606
 20
24.1149003248
 10
-85.3085876456
 20
24.2964421676
 10
-85.2755539112
 20
24.480398393
 10
-85.2540395755
 20
24.6660549872
  0
LINE
  5
449
100
AcDbEntity
  8
RACCORDO
100
AcDbLine
 62
7
  6
CONTINUOUS
 10
-85.5850810737
 20
-25.7047023941
 11
-85.5393238266
 21
-25.7970620008
  0
LINE
  5
44A
100
AcDbEntity
  8
RACCORDO
100
AcDbLine
 62
7
  6
CONTINUOUS
 10
-85.5393238266
 20
-25.7970620008
 11
-85.4957210857
 21
-25.8933577738
  0
LINE
  5
44B
100
AcDbEntity
  8
RACCORDO
100
AcDbLine
 62
7
  6
CONTINUOUS
 10
-85.4959156156
 20
-25.8929067438
 11
-85.4549948098
 21
-25.9925212662
  0
LWPOLYLINE
  5
44C
100
AcDbEntity
  8
RACCORDO
100
AcDbPolyline
 62
7
  6
CONTINUOUS
 90
12
 70
0
 10
-82.5329826941
 20
-40.1527579957
 10
-82.5027579884
 20
-40.228595246
 10
-82.4510144029
 20
-40.3288361081
 10
-82.3887059646
 20
-40.422085711
 10
-82.3167980973
 20
-40.5072953403
 10
-82.2363467567
 20
-40.5835506906
 10
-82.148458512
 20
-40.6500909494
 10
-82.0543552717
 20
-40.7062517295
 10
-81.9553709057
 20
-40.751503866
 10
-81.8528123097
 20
-40.7855244838
 10
-81.7479233017
 20
-40.8081622706
 10
-81.6420390228
 20
-40.8193879512
  0
LINE
  5
44D
100
AcDbEntity
  8
SUPERFICI
100
AcDbLine
 62
7
  6
CONTINUOUS
 10
-82.6169852877
 20
-39.911994178
 11
-82.5329827724
 21
-40.1527580906
  0
LINE
  5
44E
100
AcDbEntity
  8
SUPERFICI
100
AcDbLine
 62
7
  6
CONTINUOUS
 10
-82.6841288048
 20
-39.7164616605
 11
-82.6169852877
 21
-39.911994178
  0
LINE
  5
44F
100
AcDbEntity
  8
SUPERFICI
100
AcDbLine
 62
7
  6
CONTINUOUS
 10
-82.7807534809
 20
-39.4300542063
 11
-82.6841288048
 21
-39.7164616605
  0
LINE
  5
450
100
AcDbEntity
  8
SUPERFICI
100
AcDbLine
 62
7
  6
CONTINUOUS
 10
-82.8730267628
 20
-39.1507612004
 11
-82.7807534809
 21
-39.4300542063
  0
LINE
  5
451
100
AcDbEntity
  8
SUPERFICI
100
AcDbLine
 62
7
  6
CONTINUOUS
 10
-82.9614176869
 20
-38.8776470829
 11
-82.8730267628
 21
-39.1507612004
  0
LINE
  5
452
100
AcDbEntity
  8
SUPERFICI
100
AcDbLine
 62
7
  6
CONTINUOUS
 10
-83.7545384304
 20
33.9566148064
 11
-83.8190273507
 21
33.7036450579
  0
LINE
  5
453
100
AcDbEntity
  8
SUPERFICI
100
AcDbLine
 62
7
  6
CONTINUOUS
 10
-83.6870803244
 20
34.21544937
 11
-83.7547910478
 21
33.9556346132
  0
LINE
  5
454
100
AcDbEntity
  8
SUPERFICI
100
AcDbLine
 62
7
  6
CONTINUOUS
 10
-83.6164319929
 20
34.4805557754
 11
-83.687342558
 21
34.2144542034
  0
LINE
  5
455
100
AcDbEntity
  8
SUPERFICI
100
AcDbLine
 62
7
  6
CONTINUOUS
 10
-83.5425717875
 20
34.7516107565
 11
-83.6167023938
 21
34.4795522491
  0
LINE
  5
456
100
AcDbEntity
  8
SUPERFICI
100
AcDbLine
 62
7
  6
CONTINUOUS
 10
-83.4653269992
 20
35.0288911868
 11
-83.5428486127
 21
34.7506059524
  0
LINE
  5
457
100
AcDbEntity
  8
SUPERFICI
100
AcDbLine
 62
7
  6
CONTINUOUS
 10
-83.3845696803
 20
35.31246599
 11
-83.4656082946
 21
35.027892372
  0
LINE
  5
458
100
AcDbEntity
  8
SUPERFICI
100
AcDbLine
 62
7
  6
CONTINUOUS
 10
-83.3001762182
 20
35.6022909662
 11
-83.384852272
 21
35.3114845172
  0
LINE
  5
459
100
AcDbEntity
  8
SUPERFICI
100
AcDbLine
 62
7
  6
CONTINUOUS
 10
-83.2119305788
 20
35.8985851468
 11
-83.3004575033
 21
35.6013356548
  0
LINE
  5
45A
100
AcDbEntity
  8
SUPERFICI
100
AcDbLine
 62
7
  6
CONTINUOUS
 10
-83.1197017925
 20
36.2012224929
 11
-83.2122104098
 21
35.8976561509
  0
LINE
  5
45B
100
AcDbEntity
  8
SUPERFICI
100
AcDbLine
 62
7
  6
CONTINUOUS
 10
-83.0559660643
 20
36.4063371649
 11
-83.151172736
 21
36.0987415016
  0
LINE
  5
45C
100
AcDbEntity
  8
SUPERFICI
100
AcDbLine
 62
7
  6
CONTINUOUS
 10
-82.9903702972
 20
36.6141439813
 11
-83.0562556654
 21
36.4054123985
  0
LINE
  5
45D
100
AcDbEntity
  8
SUPERFICI
100
AcDbLine
 62
7
  6
CONTINUOUS
 10
-82.9228332607
 20
36.8247444063
 11
-82.9906717708
 21
36.6131963615
  0
LINE
  5
45E
100
AcDbEntity
  8
SUPERFICI
100
AcDbLine
 62
7
  6
CONTINUOUS
 10
-82.8530866605
 20
37.0387981674
 11
-82.9231512968
 21
36.823760451
  0
LINE
  5
45F
100
AcDbEntity
  8
SUPERFICI
100
AcDbLine
 62
7
  6
CONTINUOUS
 10
-82.7809479962
 20
37.2566604876
 11
-82.8534182565
 21
37.0377885429
  0
LINE
  5
460
100
AcDbEntity
  8
SUPERFICI
100
AcDbLine
 62
7
  6
CONTINUOUS
 10
-82.706185865
 20
37.4788006786
 11
-82.7812853892
 21
37.2556496918
  0
LINE
  5
461
100
AcDbEntity
  8
RACCORDO
100
AcDbLine
 62
7
  6
CONTINUOUS
 10
-85.455184528
 20
-25.9920341396
 11
-85.4171469427
 21
-26.0950553425
  0
LINE
  5
462
100
AcDbEntity
  8
RACCORDO
100
AcDbLine
 62
7
  6
CONTINUOUS
 10
-85.4173205895
 20
-26.0945563089
 11
-85.3823913478
 21
-26.2010696786
  0
LINE
  5
463
100
AcDbEntity
  8
SUPERFICI
100
AcDbLine
 62
7
  6
CONTINUOUS
 10
-83.0464254869
 20
-38.6095771924
 11
-82.9614176869
 21
-38.8776470829
  0
LINE
  5
464
100
AcDbEntity
  8
SUPERFICI
100
AcDbLine
 62
7
  6
CONTINUOUS
 10
-83.1283484299
 20
-38.3459569813
 11
-83.0464254869
 21
-38.6095771924
  0
LWPOLYLINE
  5
465
100
AcDbEntity
  8
SCRITTA_VIMAR
100
AcDbPolyline
 62
250
  6
CONTINUOUS
 90
24
 70
0
 10
-85.0941335931
 20
-28.1480330955
 10
-85.0948765664
 20
-28.1455899492
 10
-85.0955813111
 20
-28.143438187
 10
-85.0962467314
 20
-28.1415874591
 10
-85.0968717319
 20
-28.1400474157
 10
-85.0974552171
 20
-28.1388277069
 10
-85.0979960912
 20
-28.137937983
 10
-85.0984932589
 20
-28.1373878941
 10
-85.0988917646
 20
-28.1371916133
 10
-85.0992564237
 20
-28.1372623414
 10
-85.0995876913
 20
-28.1375996658
 10
-85.0998860225
 20
-28.138203174
 10
-85.1001518723
 20
-28.1390724532
 10
-85.1003856958
 20
-28.140207091
 10
-85.1005879479
 20
-28.1416066747
 10
-85.1007590839
 20
-28.1432707917
 10
-85.1008996973
 20
-28.1451971673
 10
-85.1010109362
 20
-28.147376078
 10
-85.1010940873
 20
-28.1497959382
 10
-85.1011504375
 20
-28.1524451622
 10
-85.1011812735
 20
-28.1553121646
 10
-85.1011878819
 20
-28.1583853596
 10
-85.1011715495
 20
-28.1616531617
 10
-85.101133563
 20
-28.1651039852
  0
LINE
  5
466
100
AcDbEntity
  8
SUPERFICI
100
AcDbLine
 62
7
  6
CONTINUOUS
 10
-83.2072941308
 20
-38.0867788211
 11
-83.1283484299
 21
-38.3459569813
  0
LINE
  5
467
100
AcDbEntity
  8
SUPERFICI
100
AcDbLine
 62
7
  6
CONTINUOUS
 10
-83.2833169226
 20
-37.8322323455
 11
-83.2072941308
 21
-38.0867788211
  0
LINE
  5
468
100
AcDbEntity
  8
SUPERFICI
100
AcDbLine
 62
7
  6
CONTINUOUS
 10
-83.3564735684
 20
-37.5824873068
 11
-83.2833169226
 21
-37.8322323455
  0
LWPOLYLINE
  5
469
100
AcDbEntity
  8
RACCORDO
100
AcDbPolyline
 62
7
  6
CONTINUOUS
 90
7
 70
0
 10
-85.3825357307
 20
-26.20059878
 10
-85.3511719861
 20
-26.3099117403
 10
-85.323594473
 20
-26.4220136549
 10
-85.3000608317
 20
-26.5366564798
 10
-85.2807702095
 20
-26.6538333574
 10
-85.2659550157
 20
-26.7733879887
 10
-85.2574018684
 20
-26.8717250398
  0
LINE
  5
46A
100
AcDbEntity
  8
SUPERFICI
100
AcDbLine
 62
7
  6
CONTINUOUS
 10
-83.426925811
 20
-37.3373279769
 11
-83.3564735684
 21
-37.5824873068
  0
LINE
  5
46B
100
AcDbEntity
  8
SUPERFICI
100
AcDbLine
 62
7
  6
CONTINUOUS
 10
-83.4947719983
 20
-37.0967220569
 11
-83.426925811
 21
-37.3373279769
  0
LINE
  5
46C
100
AcDbEntity
  8
SUPERFICI
100
AcDbLine
 62
7
  6
CONTINUOUS
 10
-83.5600506775
 20
-36.8608172072
 11
-83.4947719983
 21
-37.0967220569
  0
LINE
  5
46D
100
AcDbEntity
  8
SUPERFICI
100
AcDbLine
 62
7
  6
CONTINUOUS
 10
-83.6228716836
 20
-36.6294446712
 11
-83.5600506775
 21
-36.8608172072
  0
LINE
  5
46E
100
AcDbEntity
  8
SUPERFICI
100
AcDbLine
 62
7
  6
CONTINUOUS
 10
-83.6833513669
 20
-36.4024025251
 11
-83.6228716836
 21
-36.6294446712
  0
LINE
  5
46F
100
AcDbEntity
  8
SUPERFICI
100
AcDbLine
 62
7
  6
CONTINUOUS
 10
-83.7414682086
 20
-36.1800274058
 11
-83.6833513669
 21
-36.4024025251
  0
LINE
  5
470
100
AcDbEntity
  8
SUPERFICI
100
AcDbLine
 62
7
  6
CONTINUOUS
 10
-83.7972243946
 20
-35.9626057046
 11
-83.7414682086
 21
-36.1800274058
  0
LINE
  5
471
100
AcDbEntity
  8
SUPERFICI
100
AcDbLine
 62
7
  6
CONTINUOUS
 10
-83.8679853038
 20
-35.680617517
 11
-83.7972243946
 21
-35.9626057046
  0
LINE
  5
472
100
AcDbEntity
  8
SUPERFICI
100
AcDbLine
 62
7
  6
CONTINUOUS
 10
-83.9347476493
 20
-35.4080125556
 11
-83.8679853038
 21
-35.680617517
  0
LWPOLYLINE
  5
473
100
AcDbEntity
  8
SUPERFICI
100
AcDbPolyline
 62
7
  6
CONTINUOUS
 90
3
 70
0
 10
-84.0126977353
 20
-35.0811190862
 10
-83.9976037757
 20
-35.1451727927
 10
-83.9347476493
 20
-35.4080125556
  0
LWPOLYLINE
  5
474
100
AcDbEntity
  8
RACCORDO
100
AcDbPolyline
 62
7
  6
CONTINUOUS
 90
4
 70
0
 10
-84.3174084051
 20
31.5284689376
 10
-84.6217560811
 20
29.9261794208
 10
-84.8640092473
 20
28.3878715029
 10
-84.92753665
 20
27.8887528476
  0
LINE
  5
475
100
AcDbEntity
  8
SUPERFICI
100
AcDbLine
 62
7
  6
CONTINUOUS
 10
-84.3281067478
 20
31.4731311429
 11
-84.3751905691
 21
31.2403181906
  0
LINE
  5
476
100
AcDbEntity
  8
SUPERFICI
100
AcDbLine
 62
7
  6
CONTINUOUS
 10
-84.2780089565
 20
31.7149380601
 11
-84.3281067478
 21
31.4731311429
  0
LINE
  5
477
100
AcDbEntity
  8
SUPERFICI
100
AcDbLine
 62
7
  6
CONTINUOUS
 10
-84.2319255749
 20
31.9322942165
 11
-84.2782564276
 21
31.7137580228
  0
LINE
  5
478
100
AcDbEntity
  8
SUPERFICI
100
AcDbLine
 62
7
  6
CONTINUOUS
 10
-84.1807989634
 20
32.1681242901
 11
-84.2321945022
 21
31.9310392783
  0
LINE
  5
479
100
AcDbEntity
  8
RACCORDO
100
AcDbLine
 62
7
  6
CONTINUOUS
 10
-84.3090516988
 20
31.565805112
 11
-84.3174084051
 21
31.5284689376
  0
LINE
  5
47A
100
AcDbEntity
  8
SUPERFICI
100
AcDbLine
 62
7
  6
CONTINUOUS
 10
-84.1241553754
 20
32.4233054872
 11
-84.1810733192
 21
32.1668730531
  0
LINE
  5
47B
100
AcDbEntity
  8
SUPERFICI
100
AcDbLine
 62
7
  6
CONTINUOUS
 10
-84.0614603949
 20
32.6987850277
 11
-84.1244212733
 21
32.4221219129
  0
LINE
  5
47C
100
AcDbEntity
  8
SUPERFICI
100
AcDbLine
 62
7
  6
CONTINUOUS
 10
-84.0105816011
 20
32.9173106825
 11
-84.0617124412
 21
32.6976915181
  0
LINE
  5
47D
100
AcDbEntity
  8
SUPERFICI
100
AcDbLine
 62
7
  6
CONTINUOUS
 10
-83.9565865814
 20
33.1445793426
 11
-84.0108247071
 21
32.9162768181
  0
LINE
  5
47E
100
AcDbEntity
  8
SUPERFICI
100
AcDbLine
 62
7
  6
CONTINUOUS
 10
-83.8995776537
 20
33.3796254081
 11
-83.9568240407
 21
33.1435899488
  0
LINE
  5
47F
100
AcDbEntity
  8
SUPERFICI
100
AcDbLine
 62
7
  6
CONTINUOUS
 10
-83.8395008985
 20
33.6221551318
 11
-83.899814653
 21
33.378658332
  0
LINE
  5
480
100
AcDbEntity
  8
SUPERFICI
100
AcDbLine
 62
7
  6
CONTINUOUS
 10
-83.8187833728
 20
33.7046126687
 11
-83.8397424891
 21
33.6211900725
  0
LWPOLYLINE
  5
481
100
AcDbEntity
  8
0
100
AcDbPolyline
 62
7
  6
CONTINUOUS
 90
13
 70
0
 43
0.3500000006
 10
-96.5113228455
 20
-3.0149767685
 10
-96.725616394
 20
-3.3006913033
 10
-97.3684698486
 20
-3.3006913033
 10
-97.7970388184
 20
-3.0149767685
 10
-97.7970388184
 20
-2.372119915
 10
-97.3684698486
 20
-2.0864053802
 10
-96.725616394
 20
-2.0864053802
 10
-96.5113228455
 20
-2.372119915
 10
-96.0827538757
 20
-1.9435486794
 10
-95.2256159363
 20
-1.9435486794
 10
-94.7970379028
 20
-2.372119915
 10
-94.7970379028
 20
-3.0149767685
 10
-95.2256159363
 20
-3.4435480042
  0
LINE
  5
482
100
AcDbEntity
  8
SUPERFICI
100
AcDbLine
 62
7
  6
CONTINUOUS
 10
-84.0704496045
 20
-34.8325277986
 11
-84.0126977353
 21
-35.0811190862
  0
LINE
  5
483
100
AcDbEntity
  8
SUPERFICI
100
AcDbLine
 62
7
  6
CONTINUOUS
 10
-84.1237226354
 20
-34.5980424382
 11
-84.0704496045
 21
-34.8325277986
  0
LINE
  5
484
100
AcDbEntity
  8
RACCORDO
100
AcDbLine
 62
7
  6
CONTINUOUS
 10
-84.3090373788
 20
-33.7386805372
 11
-84.3174071691
 21
-33.7012859245
  0
LINE
  5
485
100
AcDbEntity
  8
SUPERFICI
100
AcDbLine
 62
7
  6
CONTINUOUS
 10
-84.1724369316
 20
-34.3789994987
 11
-84.1237226354
 21
-34.5980424382
  0
LINE
  5
486
100
AcDbEntity
  8
SUPERFICI
100
AcDbLine
 62
7
  6
CONTINUOUS
 10
-84.228451592
 20
-34.1213025194
 11
-84.1724369316
 21
-34.3789994987
  0
LINE
  5
487
100
AcDbEntity
  8
SUPERFICI
100
AcDbLine
 62
7
  6
CONTINUOUS
 10
-84.2805595182
 20
-33.875580289
 11
-84.228451592
 21
-34.1213025194
  0
LINE
  5
488
100
AcDbEntity
  8
SUPERFICI
100
AcDbLine
 62
7
  6
CONTINUOUS
 10
-84.3329831005
 20
-33.6220848056
 11
-84.2805595182
 21
-33.875580289
  0
LINE
  5
489
100
AcDbEntity
  8
SUPERFICI
100
AcDbLine
 62
7
  6
CONTINUOUS
 10
-84.3754611948
 20
-33.411775063
 11
-84.3329831005
 21
-33.6220848056
  0
LWPOLYLINE
  5
48A
100
AcDbEntity
  8
SCRITTA_VIMAR
100
AcDbPolyline
 62
250
  6
CONTINUOUS
 90
15
 70
0
 10
-84.9291803591
 20
-29.4588038587
 10
-84.9297840043
 20
-29.4557500761
 10
-84.9303611789
 20
-29.4529082333
 10
-84.9309120219
 20
-29.4502773121
 10
-84.9314360755
 20
-29.4478591944
 10
-84.9319327322
 20
-29.4456564865
 10
-84.9324013848
 20
-29.443671795
 10
-84.9328414262
 20
-29.4419077265
 10
-84.9332522489
 20
-29.4403668875
 10
-84.9336333295
 20
-29.439052129
 10
-84.933984479
 20
-29.437967281
 10
-84.9343055922
 20
-29.4371164179
 10
-84.9345965639
 20
-29.436503614
 10
-84.9348572887
 20
-29.4361329437
 10
-84.9350876615
 20
-29.4360084815
  0
LINE
  5
48B
100
AcDbEntity
  8
SCRITTA_VIMAR
100
AcDbLine
 62
250
  6
CONTINUOUS
 10
-84.9488872694
 20
-29.2174634045
 11
-84.9480195483
 21
-29.2219270983
  0
LWPOLYLINE
  5
48C
100
AcDbEntity
  8
RACCORDO
100
AcDbPolyline
 62
7
  6
CONTINUOUS
 90
4
 70
0
 10
-84.3174071691
 20
-33.7012859245
 10
-84.621754775
 20
-32.0989979549
 10
-84.8640081828
 20
-30.5606900232
 10
-84.9312637681
 20
-30.0322805428
  0
LINE
  5
48D
100
AcDbEntity
  8
SCRITTA_VIMAR
100
AcDbLine
 62
250
  6
CONTINUOUS
 10
-84.9278925033
 20
-29.4655542147
 11
-84.9291803591
 21
-29.4588038587
  0
LINE
  5
48E
100
AcDbEntity
  8
SCRITTA_VIMAR
100
AcDbLine
 62
250
  6
CONTINUOUS
 10
-84.9480195483
 20
-29.2219270983
 11
-84.9461632658
 21
-29.2318536667
  0
LWPOLYLINE
  5
48F
100
AcDbEntity
  8
SCRITTA_VIMAR
100
AcDbPolyline
 62
250
  6
CONTINUOUS
 90
9
 70
0
 10
-85.0899474631
 20
-28.1679173256
 10
-85.0905828421
 20
-28.1644514468
 10
-85.0911854952
 20
-28.1612655023
 10
-85.0917556502
 20
-28.1583575351
 10
-85.0922937017
 20
-28.155728444
 10
-85.0928000856
 20
-28.1533798417
 10
-85.0932752381
 20
-28.151313341
 10
-85.0937195952
 20
-28.1495305546
 10
-85.0941335931
 20
-28.1480330953
  0
LINE
  5
490
100
AcDbEntity
  8
SCRITTA_VIMAR
100
AcDbLine
 62
250
  6
CONTINUOUS
 10
-84.9264953048
 20
-29.4731732445
 11
-84.9278925033
 21
-29.4655542147
  0
LINE
  5
491
100
AcDbEntity
  8
SCRITTA_VIMAR
100
AcDbLine
 62
250
  6
CONTINUOUS
 10
-84.9461632658
 20
-29.2318536667
 11
-84.9441316878
 21
-29.2431751458
  0
LINE
  5
492
100
AcDbEntity
  8
SCRITTA_VIMAR
100
AcDbLine
 62
250
  6
CONTINUOUS
 10
-84.9249869827
 20
-29.4816713756
 11
-84.9264953048
 21
-29.4731732445
  0
LINE
  5
493
100
AcDbEntity
  8
SCRITTA_VIMAR
100
AcDbLine
 62
250
  6
CONTINUOUS
 10
-85.0885777831
 20
-28.1756995698
 11
-85.0899474631
 21
-28.1679173256
  0
LINE
  5
494
100
AcDbEntity
  8
SCRITTA_VIMAR
100
AcDbLine
 62
250
  6
CONTINUOUS
 10
-84.9441316878
 20
-29.2431751458
 11
-84.9419100804
 21
-29.2559595373
  0
LWPOLYLINE
  5
495
100
AcDbEntity
  8
SCRITTA_VIMAR
100
AcDbPolyline
 62
250
  6
CONTINUOUS
 90
3
 70
0
 10
-85.13276506
 20
-27.7355257408
 10
-85.1314705919
 20
-27.7430990481
 10
-85.130093307
 20
-27.7514589003
  0
LINE
  5
496
100
AcDbEntity
  8
SCRITTA_VIMAR
100
AcDbLine
 62
250
  6
CONTINUOUS
 10
-84.9225170155
 20
-29.4960578378
 11
-84.9249869827
 21
-29.4816713756
  0
LINE
  5
497
100
AcDbEntity
  8
SCRITTA_VIMAR
100
AcDbLine
 62
250
  6
CONTINUOUS
 10
-85.0870749661
 20
-28.1846336023
 11
-85.0885777831
 21
-28.1756995698
  0
LINE
  5
498
100
AcDbEntity
  8
SCRITTA_VIMAR
100
AcDbLine
 62
250
  6
CONTINUOUS
 10
-84.9419100804
 20
-29.2559595373
 11
-84.9382097669
 21
-29.2779625656
  0
LINE
  5
499
100
AcDbEntity
  8
SCRITTA_VIMAR
100
AcDbLine
 62
250
  6
CONTINUOUS
 10
-84.9198005861
 20
-29.5123909001
 11
-84.9225170155
 21
-29.4960578378
  0
LINE
  5
49A
100
AcDbEntity
  8
SCRITTA_VIMAR
100
AcDbLine
 62
250
  6
CONTINUOUS
 10
-84.9382097669
 20
-29.2779625656
 11
-84.9340695207
 21
-29.3033806596
  0
LINE
  5
49B
100
AcDbEntity
  8
SCRITTA_VIMAR
100
AcDbLine
 62
250
  6
CONTINUOUS
 10
-85.0854386535
 20
-28.1947334679
 11
-85.0870749661
 21
-28.1846336023
  0
LINE
  5
49C
100
AcDbEntity
  8
SCRITTA_VIMAR
100
AcDbLine
 62
250
  6
CONTINUOUS
 10
-84.9157995434
 20
-29.5371762119
 11
-84.9198005861
 21
-29.5123909001
  0
LINE
  5
49D
100
AcDbEntity
  8
SCRITTA_VIMAR
100
AcDbLine
 62
250
  6
CONTINUOUS
 10
-85.130093307
 20
-27.7514589003
 11
-85.1271101098
 21
-27.7703217638
  0
LINE
  5
49E
100
AcDbEntity
  8
SCRITTA_VIMAR
100
AcDbLine
 62
250
  6
CONTINUOUS
 10
-84.9340695207
 20
-29.3033806596
 11
-84.9279491585
 21
-29.342114011
  0
LINE
  5
49F
100
AcDbEntity
  8
SCRITTA_VIMAR
100
AcDbLine
 62
250
  6
CONTINUOUS
 10
-84.9101846366
 20
-29.5730434475
 11
-84.9157995434
 21
-29.5371762119
  0
LINE
  5
4A0
100
AcDbEntity
  8
SCRITTA_VIMAR
100
AcDbLine
 62
250
  6
CONTINUOUS
 10
-84.7592351647
 20
-30.5707725958
 11
-84.7994769097
 21
-30.3121581519
  0
LWPOLYLINE
  5
4A1
100
AcDbEntity
  8
SCRITTA_VIMAR
100
AcDbPolyline
 62
250
  6
CONTINUOUS
 90
6
 70
0
 10
-84.7972582323
 20
-30.5707725023
 10
-84.8246358737
 20
-30.3924556198
 10
-84.8511941254
 20
-30.2161654449
 10
-84.876948176
 20
-30.0419124809
 10
-84.901913214
 20
-29.8697072311
 10
-84.926104428
 20
-29.6995601988
  0
LINE
  5
4A2
100
AcDbEntity
  8
SCRITTA_VIMAR
100
AcDbLine
 62
250
  6
CONTINUOUS
 10
-85.082743342
 20
-28.2120335644
 11
-85.0854386535
 21
-28.1947334679
  0
LINE
  5
4A3
100
AcDbEntity
  8
SCRITTA_VIMAR
100
AcDbLine
 62
250
  6
CONTINUOUS
 10
-84.7962598244
 20
-30.2269806708
 11
-84.7430135978
 21
-30.5707725958
  0
LINE
  5
4A4
100
AcDbEntity
  8
SCRITTA_VIMAR
100
AcDbLine
 62
250
  6
CONTINUOUS
 10
-84.9279491585
 20
-29.342114011
 11
-84.9165133707
 21
-29.4169725948
  0
LINE
  5
4A5
100
AcDbEntity
  8
SCRITTA_VIMAR
100
AcDbLine
 62
250
  6
CONTINUOUS
 10
-84.7994769097
 20
-30.3121581519
 11
-84.8407654366
 21
-30.0405117958
  0
LINE
  5
4A6
100
AcDbEntity
  8
SCRITTA_VIMAR
100
AcDbLine
 62
250
  6
CONTINUOUS
 10
-85.1271101098
 20
-27.7703217638
 11
-85.1227057714
 21
-27.799389902
  0
LINE
  5
4A7
100
AcDbEntity
  8
SCRITTA_VIMAR
100
AcDbLine
 62
250
  6
CONTINUOUS
 10
-85.0807935397
 20
-28.224968129
 11
-85.082743342
 21
-28.2120335644
  0
LINE
  5
4A8
100
AcDbEntity
  8
SCRITTA_VIMAR
100
AcDbLine
 62
250
  6
CONTINUOUS
 10
-84.8997604306
 20
-29.6418404548
 11
-84.9101846366
 21
-29.5730434475
  0
LINE
  5
4A9
100
AcDbEntity
  8
SCRITTA_VIMAR
100
AcDbLine
 62
250
  6
CONTINUOUS
 10
-84.9165133707
 20
-29.4169725948
 11
-84.909667215
 21
-29.4627590682
  0
LINE
  5
4AA
100
AcDbEntity
  8
SCRITTA_VIMAR
100
AcDbLine
 62
250
  6
CONTINUOUS
 10
-84.800641265
 20
-30.4414256202
 11
-84.7813942537
 21
-30.5707725958
  0
LINE
  5
4AB
100
AcDbEntity
  8
SCRITTA_VIMAR
100
AcDbLine
 62
250
  6
CONTINUOUS
 10
-84.8491252294
 20
-29.8750646697
 11
-84.7962598244
 21
-30.2269806708
  0
LINE
  5
4AC
100
AcDbEntity
  8
SCRITTA_VIMAR
100
AcDbLine
 62
250
  6
CONTINUOUS
 10
-84.8407654366
 20
-30.0405117958
 11
-84.8620629103
 21
-29.8976920292
  0
LINE
  5
4AD
100
AcDbEntity
  8
SCRITTA_VIMAR
100
AcDbLine
 62
250
  6
CONTINUOUS
 10
-84.7938444724
 20
-30.5707725958
 11
-84.8198185825
 21
-30.3952604741
  0
LINE
  5
4AE
100
AcDbEntity
  8
SCRITTA_VIMAR
100
AcDbLine
 62
250
  6
CONTINUOUS
 10
-84.895439631
 20
-29.6709316057
 11
-84.8997604306
 21
-29.6418404548
  0
LWPOLYLINE
  5
4AF
100
AcDbEntity
  8
SCRITTA_VIMAR
100
AcDbPolyline
 62
250
  6
CONTINUOUS
 90
3
 70
0
 10
-84.8667021127
 20
-30.1830278764
 10
-84.8572653537
 20
-30.2471449423
 10
-84.8085825464
 20
-30.5707725023
  0
LWPOLYLINE
  5
4B0
100
AcDbEntity
  8
SCRITTA_VIMAR
100
AcDbPolyline
 62
250
  6
CONTINUOUS
 90
11
 70
0
 10
-84.8337962117
 20
-30.5707725023
 10
-84.8594819654
 20
-30.3951864644
 10
-84.8843902374
 20
-30.2212973761
 10
-84.90853293
 20
-30.0491080143
 10
-84.9319219455
 20
-29.8786211557
 10
-84.9545691862
 20
-29.7098395771
 10
-84.9764865545
 20
-29.5427660552
 10
-84.9976860656
 20
-29.3774026916
 10
-85.018180188
 20
-29.2137488866
 10
-85.0379815028
 20
-29.0518033656
 10
-85.0571025915
 20
-28.8915648536
  0
LINE
  5
4B1
100
AcDbEntity
  8
SCRITTA_VIMAR
100
AcDbLine
 62
250
  6
CONTINUOUS
 10
-84.8749622984
 20
-30.3819918498
 11
-84.8473814162
 21
-30.5707725023
  0
LINE
  5
4B2
100
AcDbEntity
  8
SCRITTA_VIMAR
100
AcDbLine
 62
250
  6
CONTINUOUS
 10
-85.0812010177
 20
-28.7777677459
 11
-85.0921914029
 21
-28.6773535023
  0
LINE
  5
4B3
100
AcDbEntity
  8
SCRITTA_VIMAR
100
AcDbLine
 62
250
  6
CONTINUOUS
 10
-85.1447199304
 20
-27.9614475551
 11
-85.1762501296
 21
-27.6711195023
  0
LINE
  5
4B4
100
AcDbEntity
  8
SCRITTA_VIMAR
100
AcDbLine
 62
250
  6
CONTINUOUS
 10
-85.1043043627
 20
-28.57732573
 11
-85.0749790052
 21
-28.8474219694
  0
LINE
  5
4B5
100
AcDbEntity
  8
SCRITTA_VIMAR
100
AcDbLine
 62
250
  6
CONTINUOUS
 10
-85.1202154069
 20
-28.2616647954
 11
-85.0869514831
 21
-28.5684772915
  0
LINE
  5
4B6
100
AcDbEntity
  8
SCRITTA_VIMAR
100
AcDbLine
 62
250
  6
CONTINUOUS
 10
-85.1051589834
 20
-28.5779256105
 11
-85.075947688
 21
-28.8480980091
  0
LINE
  5
4B7
100
AcDbEntity
  8
SCRITTA_VIMAR
100
AcDbLine
 62
250
  6
CONTINUOUS
 10
-85.0935656927
 20
-28.6986026599
 11
-85.0740338947
 21
-28.8800206609
  0
LINE
  5
4B8
100
AcDbEntity
  8
SCRITTA_VIMAR
100
AcDbLine
 62
250
  6
CONTINUOUS
 10
-85.0971286614
 20
-28.6157006894
 11
-85.1203211139
 21
-28.4002313295
  0
LINE
  5
4B9
100
AcDbEntity
  8
SCRITTA_VIMAR
100
AcDbLine
 62
250
  6
CONTINUOUS
 10
-84.973754434
 20
-28.9723799495
 11
-84.9666191699
 21
-29.0383287394
  0
LINE
  5
4BA
100
AcDbEntity
  8
SCRITTA_VIMAR
100
AcDbLine
 62
250
  6
CONTINUOUS
 10
-85.0805614422
 20
-28.814125233
 11
-85.1058474219
 21
-28.5779838287
  0
LINE
  5
4BB
100
AcDbEntity
  8
SCRITTA_VIMAR
100
AcDbLine
 62
250
  6
CONTINUOUS
 10
-85.0062544746
 20
-28.82414496
 11
-85.0112309249
 21
-28.778039809
  0
LINE
  5
4BC
100
AcDbEntity
  8
SCRITTA_VIMAR
100
AcDbLine
 62
250
  6
CONTINUOUS
 10
-85.1105125043
 20
-28.4210793807
 11
-85.1430041246
 21
-28.1159532363
  0
LINE
  5
4BD
100
AcDbEntity
  8
SUPERFICI
100
AcDbLine
 62
7
  6
CONTINUOUS
 10
-85.1038818215
 20
-28.6004145415
 11
-85.0718800689
 21
-28.8997239128
  0
LINE
  5
4BE
100
AcDbEntity
  8
SCRITTA_VIMAR
100
AcDbLine
 62
250
  6
CONTINUOUS
 10
-85.1181276707
 20
-28.3969371919
 11
-85.0834748234
 21
-28.7218643731
  0
LINE
  5
4BF
100
AcDbEntity
  8
SCRITTA_VIMAR
100
AcDbLine
 62
250
  6
CONTINUOUS
 10
-85.1513731607
 20
-27.9625316202
 11
-85.1202154069
 21
-28.2616647954
  0
LINE
  5
4C0
100
AcDbEntity
  8
SCRITTA_VIMAR
100
AcDbLine
 62
250
  6
CONTINUOUS
 10
-85.1203211139
 20
-28.4002313295
 11
-85.1422947287
 21
-28.1879336692
  0
LINE
  5
4C1
100
AcDbEntity
  8
SCRITTA_VIMAR
100
AcDbLine
 62
250
  6
CONTINUOUS
 10
-85.1317649995
 20
-28.3121952093
 11
-85.1043043627
 21
-28.57732573
  0
LINE
  5
4C2
100
AcDbEntity
  8
SCRITTA_VIMAR
100
AcDbLine
 62
250
  6
CONTINUOUS
 10
-84.9666191699
 20
-29.0383287394
 11
-84.961022969
 21
-29.0923089095
  0
LINE
  5
4C3
100
AcDbEntity
  8
SCRITTA_VIMAR
100
AcDbLine
 62
250
  6
CONTINUOUS
 10
-85.1324858061
 20
-28.3126539741
 11
-85.1051589834
 21
-28.5779256105
  0
LINE
  5
4C4
100
AcDbEntity
  8
SCRITTA_VIMAR
100
AcDbLine
 62
250
  6
CONTINUOUS
 10
-85.0037481025
 20
-28.8484846889
 11
-85.0062544746
 21
-28.82414496
  0
LINE
  5
4C5
100
AcDbEntity
  8
SCRITTA_VIMAR
100
AcDbLine
 62
250
  6
CONTINUOUS
 10
-85.1058474219
 20
-28.5779838287
 11
-85.1321230569
 21
-28.3227205529
  0
LINE
  5
4C6
100
AcDbEntity
  8
SCRITTA_VIMAR
100
AcDbLine
 62
250
  6
CONTINUOUS
 10
-85.1502902525
 20
-28.0802484067
 11
-85.1181276707
 21
-28.3969371919
  0
LWPOLYLINE
  5
4C7
100
AcDbEntity
  8
SCRITTA_VIMAR
100
AcDbPolyline
 62
250
  6
CONTINUOUS
 90
3
 70
0
 10
-85.1430041246
 20
-28.1159532363
 10
-85.1732344849
 20
-27.8176789974
 10
-85.1875659986
 20
-27.6711195023
  0
LINE
  5
4C8
100
AcDbEntity
  8
SCRITTA_VIMAR
100
AcDbLine
 62
250
  6
CONTINUOUS
 10
-85.1807139827
 20
-27.6711195023
 11
-85.1513731607
 21
-27.9625316202
  0
LINE
  5
4C9
100
AcDbEntity
  8
SUPERFICI
100
AcDbLine
 62
7
  6
CONTINUOUS
 10
-85.1354916751
 20
-28.2882594068
 11
-85.1038818215
 21
-28.6004145415
  0
LINE
  5
4CA
100
AcDbEntity
  8
SCRITTA_VIMAR
100
AcDbLine
 62
250
  6
CONTINUOUS
 10
-85.1422947287
 20
-28.1879336692
 11
-85.1631348117
 21
-27.9788204775
  0
LINE
  5
4CB
100
AcDbEntity
  8
SCRITTA_VIMAR
100
AcDbLine
 62
250
  6
CONTINUOUS
 10
-85.1574577995
 20
-28.0520361223
 11
-85.1317649995
 21
-28.3121952093
  0
LINE
  5
4CC
100
AcDbEntity
  8
SCRITTA_VIMAR
100
AcDbLine
 62
250
  6
CONTINUOUS
 10
-84.961022969
 20
-29.0923089095
 11
-84.9566860725
 21
-29.136087562
  0
LINE
  5
4CD
100
AcDbEntity
  8
SCRITTA_VIMAR
100
AcDbLine
 62
250
  6
CONTINUOUS
 10
-85.1580213416
 20
-28.0522890751
 11
-85.1324858061
 21
-28.3126539741
  0
LINE
  5
4CE
100
AcDbEntity
  8
SCRITTA_VIMAR
100
AcDbLine
 62
250
  6
CONTINUOUS
 10
-85.0016161235
 20
-28.8702242391
 11
-85.0037481025
 21
-28.8484846889
  0
LINE
  5
4CF
100
AcDbEntity
  8
SCRITTA_VIMAR
100
AcDbLine
 62
250
  6
CONTINUOUS
 10
-85.1291597204
 20
-28.3508349311
 11
-85.1554598535
 21
-28.0822647997
  0
LWPOLYLINE
  5
4D0
100
AcDbEntity
  8
SCRITTA_VIMAR
100
AcDbPolyline
 62
250
  6
CONTINUOUS
 90
3
 70
0
 10
-85.1631348117
 20
-27.9788204775
 10
-85.1828460037
 20
-27.7728912826
 10
-85.1922734138
 20
-27.6711195023
  0
LINE
  5
4D1
100
AcDbEntity
  8
SUPERFICI
100
AcDbLine
 62
7
  6
CONTINUOUS
 10
-85.1651654759
 20
-27.9790601855
 11
-85.1354916751
 21
-28.2882594068
  0
LWPOLYLINE
  5
4D2
100
AcDbEntity
  8
SCRITTA_VIMAR
100
AcDbPolyline
 62
250
  6
CONTINUOUS
 90
3
 70
0
 10
-85.1896776373
 20
-27.6711195023
 10
-85.1801997065
 20
-27.7720057043
 10
-85.1502902525
 20
-28.0802484067
  0
LINE
  5
4D3
100
AcDbEntity
  8
SCRITTA_VIMAR
100
AcDbLine
 62
250
  6
CONTINUOUS
 10
-85.1814820364
 20
-27.7968487306
 11
-85.1538027818
 21
-28.1000478396
  0
LINE
  5
4D4
100
AcDbEntity
  8
SCRITTA_VIMAR
100
AcDbLine
 62
250
  6
CONTINUOUS
 10
-85.0003986505
 20
-28.883320885
 11
-85.0016161235
 21
-28.8702242391
  0
LINE
  5
4D5
100
AcDbEntity
  8
SCRITTA_VIMAR
100
AcDbLine
 62
250
  6
CONTINUOUS
 10
-84.9566860725
 20
-29.136087562
 11
-84.9542043339
 21
-29.1626002642
  0
LINE
  5
4D6
100
AcDbEntity
  8
SCRITTA_VIMAR
100
AcDbLine
 62
250
  6
CONTINUOUS
 10
-85.1928994665
 20
-27.6711195023
 11
-85.1814820364
 21
-27.7968487306
  0
LINE
  5
4D7
100
AcDbEntity
  8
SCRITTA_VIMAR
100
AcDbLine
 62
250
  6
CONTINUOUS
 10
-85.1707917614
 20
-27.9189560018
 11
-85.1812992302
 21
-27.8038807413
  0
LINE
  5
4D8
100
AcDbEntity
  8
SUPERFICI
100
AcDbLine
 62
7
  6
CONTINUOUS
 10
-85.1922088028
 20
-27.6820606587
 11
-85.1651654759
 21
-27.9790601855
  0
LINE
  5
4D9
100
AcDbEntity
  8
SCRITTA_VIMAR
100
AcDbLine
 62
250
  6
CONTINUOUS
 10
-84.9993425323
 20
-28.8953006029
 11
-85.0003986505
 21
-28.883320885
  0
LWPOLYLINE
  5
4DA
100
AcDbEntity
  8
SCRITTA_VIMAR
100
AcDbPolyline
 62
250
  6
CONTINUOUS
 90
7
 70
0
 10
-84.9542043339
 20
-29.1626002642
 10
-84.951844042
 20
-29.1895605899
 10
-84.9514838048
 20
-29.1940271984
 10
-84.9513441963
 20
-29.1959599376
 10
-84.9512420695
 20
-29.1976120516
 10
-84.9511846308
 20
-29.1989270615
 10
-84.9511778474
 20
-29.199865031
  0
LINE
  5
4DB
100
AcDbEntity
  8
SUPERFICI
100
AcDbLine
 62
7
  6
CONTINUOUS
 10
-85.2185672992
 20
-27.3751796868
 11
-85.1922088028
 21
-27.6820606587
  0
LINE
  5
4DC
100
AcDbEntity
  8
SCRITTA_VIMAR
100
AcDbLine
 62
250
  6
CONTINUOUS
 10
-84.9983911467
 20
-28.9068429228
 11
-84.9993425323
 21
-28.8953006029
  0
LINE
  5
4DD
100
AcDbEntity
  8
SUPERFICI
100
AcDbLine
 62
7
  6
CONTINUOUS
 10
-85.2372080529
 20
-27.1440352942
 11
-85.2185672992
 21
-27.3751796868
  0
LINE
  5
4DE
100
AcDbEntity
  8
RACCORDO
100
AcDbLine
 62
7
  6
CONTINUOUS
 10
-85.2574022134
 20
-26.8717201416
 11
-85.2573716634
 21
-26.8721318474
  0
LINE
  5
4DF
100
AcDbEntity
  8
SUPERFICI
100
AcDbLine
 62
7
  6
CONTINUOUS
 10
-85.2544548457
 20
-26.9136542019
 11
-85.2372080529
 21
-27.1440352942
  0
LINE
  5
4E0
100
AcDbEntity
  8
SUPERFICI
100
AcDbLine
 62
7
  6
CONTINUOUS
 10
-85.2573745195
 20
-26.8724925663
 11
-85.2544549904
 21
-26.9136521803
  0
LWPOLYLINE
  5
4E1
100
AcDbEntity
  8
RACCORDO
100
AcDbPolyline
 62
250
  6
CONTINUOUS
 90
7
 70
0
 10
-85.2597626123
 20
-26.7204271994
 10
-85.2558718771
 20
-26.784349394
 10
-85.2549716295
 20
-26.8015259837
 10
-85.2543273231
 20
-26.8159456598
 10
-85.2539469765
 20
-26.8271988704
 10
-85.253842147
 20
-26.8349661793
 10
-85.2540418901
 20
-26.8388661872
  0
LWPOLYLINE
  5
4E2
100
AcDbEntity
  8
RACCORDO
100
AcDbPolyline
 62
250
  6
CONTINUOUS
 90
7
 70
0
 10
-85.8478772977
 20
-25.2171065387
 10
-85.8464479587
 20
-25.263454386
 10
-85.846224539
 20
-25.2718119109
 10
-85.8460782421
 20
-25.2785876288
 10
-85.8460162249
 20
-25.2836026772
 10
-85.8460314405
 20
-25.2866763529
 10
-85.8461238811
 20
-25.287625897
  0
LINE
  5
4E3
100
AcDbEntity
  8
RACCORDO
100
AcDbLine
 62
250
  6
CONTINUOUS
 10
-85.8490302468
 20
-25.1724243715
 11
-85.8478772977
 21
-25.2171065387
  0
LWPOLYLINE
  5
4E4
100
AcDbEntity
  8
RACCORDO
100
AcDbPolyline
 62
250
  6
CONTINUOUS
 90
4
 70
0
 10
-85.8463826137
 20
23.0929374828
 10
-85.8469427809
 20
23.0739756608
 10
-85.847308158
 20
23.0628348952
 10
-85.8484471439
 20
23.0236203627
  0
LWPOLYLINE
  5
4E5
100
AcDbEntity
  8
RACCORDO
100
AcDbPolyline
 62
250
  6
CONTINUOUS
 90
3
 70
0
 10
-85.2605307332
 20
24.5345496322
 10
-85.2616719176
 20
24.5128982418
 10
-85.263670299
 20
24.4688469265
  0
LWPOLYLINE
  5
4E6
100
AcDbEntity
  8
RACCORDO
100
AcDbPolyline
 62
250
  6
CONTINUOUS
 90
4
 70
0
 10
-85.2574022129
 20
24.6989188705
 10
-85.2574690474
 20
24.6978217153
 10
-85.2574615539
 20
24.690074231
 10
-85.2564567589
 20
24.6796966801
  0
LINE
  5
4E7
100
AcDbEntity
  8
RACCORDO
100
AcDbLine
 62
250
  6
CONTINUOUS
 10
-85.2566270084
 20
24.5984323049
 11
-85.2605307332
 21
24.5345496322
  0
LINE
  5
4E8
100
AcDbEntity
  8
RACCORDO
100
AcDbLine
 62
7
  6
CONTINUOUS
 10
-85.2573725111
 20
24.6993196685
 11
-85.2574022129
 21
24.6989188705
  0
LINE
  5
4E9
100
AcDbEntity
  8
SUPERFICI
100
AcDbLine
 62
7
  6
CONTINUOUS
 10
-85.2435154869
 20
24.8892098991
 11
-85.2573744077
 21
24.6996831515
  0
LINE
  5
4EA
100
AcDbEntity
  8
SUPERFICI
100
AcDbLine
 62
7
  6
CONTINUOUS
 10
-85.2250354386
 20
25.1237939091
 11
-85.2435154869
 21
24.8892098991
  0
LINE
  5
4EB
100
AcDbEntity
  8
SUPERFICI
100
AcDbLine
 62
7
  6
CONTINUOUS
 10
-85.1983270489
 20
25.4397142068
 11
-85.2250354386
 21
25.1237939091
  0
LINE
  5
4EC
100
AcDbEntity
  8
RACCORDO
100
AcDbLine
 62
7
  6
CONTINUOUS
 10
-85.2574018993
 20
24.6989233228
 11
-85.2659357122
 21
24.600769645
  0
LINE
  5
4ED
100
AcDbEntity
  8
SUPERFICI
100
AcDbLine
 62
7
  6
CONTINUOUS
 10
-85.1710546939
 20
25.7429022994
 11
-85.1983270489
 21
25.4397142068
  0
LINE
  5
4EE
100
AcDbEntity
  8
SUPERFICI
100
AcDbLine
 62
7
  6
CONTINUOUS
 10
-85.1413161269
 20
26.0560306965
 11
-85.1710546939
 21
25.7429022994
  0
LINE
  5
4EF
100
AcDbEntity
  8
RACCORDO
100
AcDbLine
 62
7
  6
CONTINUOUS
 10
-85.2669520603
 20
24.5275235277
 11
-85.2477731976
 21
24.7193810777
  0
LINE
  5
4F0
100
AcDbEntity
  8
SUPERFICI
100
AcDbLine
 62
7
  6
CONTINUOUS
 10
-85.1091982615
 20
26.3762869844
 11
-85.1412793049
 21
26.0564082495
  0
LINE
  5
4F1
100
AcDbEntity
  8
SUPERFICI
100
AcDbLine
 62
7
  6
CONTINUOUS
 10
-85.0764857638
 20
26.6848218281
 11
-85.1091982615
 21
26.3762869844
  0
LINE
  5
4F2
100
AcDbEntity
  8
SUPERFICI
100
AcDbLine
 62
7
  6
CONTINUOUS
 10
-85.04420075
 20
26.9734151668
 11
-85.0764857638
 21
26.6848218281
  0
LINE
  5
4F3
100
AcDbEntity
  8
SUPERFICI
100
AcDbLine
 62
7
  6
CONTINUOUS
 10
-85.0126231702
 20
27.2424996533
 11
-85.04420075
 21
26.9734151668
  0
LWPOLYLINE
  5
4F4
100
AcDbEntity
  8
RACCORDO
100
AcDbPolyline
 62
7
  6
CONTINUOUS
 90
14
 70
0
 10
-85.2659357122
 20
24.600769645
 10
-85.2807346902
 20
24.4812726107
 10
-85.3000048307
 20
24.3641511924
 10
-85.3235140843
 20
24.249561154
 10
-85.3510615381
 20
24.137516965
 10
-85.3823913802
 20
24.0282585688
 10
-85.417146981
 20
23.922244228
 10
-85.45499485
 20
23.8197101587
 10
-85.4957211241
 20
23.7205466803
 10
-85.5391288143
 20
23.6246627059
 10
-85.5848879724
 20
23.5322652005
 10
-85.6328422089
 20
23.4431943741
 10
-85.6831421211
 20
23.3568322192
 10
-85.7357598806
 20
23.2730085345
  0
LINE
  5
4F5
100
AcDbEntity
  8
SUPERFICI
100
AcDbLine
 62
7
  6
CONTINUOUS
 10
-84.9825506114
 20
27.4883076006
 11
-85.0126231702
 21
27.2424996533
  0
LINE
  5
4F6
100
AcDbEntity
  8
SUPERFICI
100
AcDbLine
 62
7
  6
CONTINUOUS
 10
-84.9498093683
 20
27.7457816503
 11
-84.9825506114
 21
27.4883076006
  0
LINE
  5
4F7
100
AcDbEntity
  8
SUPERFICI
100
AcDbLine
 62
7
  6
CONTINUOUS
 10
-84.9309933034
 20
27.8894399355
 11
-84.9299824075
 21
27.8970778215
  0
LINE
  5
4F8
100
AcDbEntity
  8
SUPERFICI
100
AcDbLine
 62
7
  6
CONTINUOUS
 10
-84.9309088029
 20
27.8900782473
 11
-84.9498093683
 21
27.7457816503
  0
LWPOLYLINE
  5
4F9
100
AcDbEntity
  8
RACCORDO
100
AcDbPolyline
 62
250
  6
CONTINUOUS
 90
13
 70
0
 10
-82.5329840124
 20
37.9799432346
 10
-82.5329962843
 20
37.9798519526
 10
-82.5329595037
 20
37.9796148747
 10
-82.5328524913
 20
37.9792662971
 10
-82.5326749741
 20
37.9788104475
 10
-82.5324253336
 20
37.9782551858
 10
-82.5321069008
 20
37.9775981391
 10
-82.5317230272
 20
37.9768411596
 10
-82.5312715815
 20
37.9759984717
 10
-82.5307574124
 20
37.9750688883
 10
-82.5301858916
 20
37.9740528486
 10
-82.529554742
 20
37.9729670872
 10
-82.528136671
 20
37.9705845477
  0
LINE
  5
4FA
100
AcDbEntity
  8
RACCORDO
100
AcDbLine
 62
7
  6
CONTINUOUS
 10
-76.5470406332
 20
-6.3864055023
 11
-77.5470406332
 21
-6.3864055023
  0
LINE
  5
4FB
100
AcDbEntity
  8
RACCORDO
100
AcDbLine
 62
7
  6
CONTINUOUS
 10
-76.7470406332
 20
-6.2864055023
 11
-77.4470406332
 21
-6.2864055023
  0
LINE
  5
4FC
100
AcDbEntity
  8
SCRITTA_VIMAR
100
AcDbLine
 62
250
  6
CONTINUOUS
 10
-84.8620629103
 20
-29.8976920292
 11
-84.895439631
 21
-29.6709316057
  0
LINE
  5
4FD
100
AcDbEntity
  8
SCRITTA_VIMAR
100
AcDbLine
 62
250
  6
CONTINUOUS
 10
-84.909667215
 20
-29.4627590682
 11
-84.8898636288
 21
-29.5972552428
  0
LINE
  5
4FE
100
AcDbEntity
  8
SCRITTA_VIMAR
100
AcDbLine
 62
250
  6
CONTINUOUS
 10
-84.8898636288
 20
-29.5972552428
 11
-84.8845852425
 21
-29.633371885
  0
LWPOLYLINE
  5
4FF
100
AcDbEntity
  8
SCRITTA_VIMAR
100
AcDbPolyline
 62
250
  6
CONTINUOUS
 90
3
 70
0
 10
-84.8845852425
 20
-29.633371885
 10
-84.8773619978
 20
-29.6828387853
 10
-84.8491252294
 20
-29.8750646697
  0
LINE
  5
500
100
AcDbEntity
  8
SCRITTA_VIMAR
100
AcDbLine
 62
250
  6
CONTINUOUS
 10
-84.838055136
 20
-30.1851618005
 11
-84.800641265
 21
-30.4414256202
  0
LINE
  5
501
100
AcDbEntity
  8
SCRITTA_VIMAR
100
AcDbLine
 62
250
  6
CONTINUOUS
 10
-85.0776474683
 20
-28.2464481487
 11
-85.0807935397
 21
-28.224968129
  0
LINE
  5
502
100
AcDbEntity
  8
SCRITTA_VIMAR
100
AcDbLine
 62
250
  6
CONTINUOUS
 10
-84.8944248836
 20
-29.9918985023
 11
-84.8667021127
 21
-30.1830278764
  0
LINE
  5
503
100
AcDbEntity
  8
SCRITTA_VIMAR
100
AcDbLine
 62
250
  6
CONTINUOUS
 10
-85.1227057714
 20
-27.799389902
 11
-85.1152651827
 21
-27.8504737569
  0
LINE
  5
504
100
AcDbEntity
  8
SCRITTA_VIMAR
100
AcDbLine
 62
250
  6
CONTINUOUS
 10
-84.8198185825
 20
-30.3952604741
 11
-84.8695624904
 21
-30.0499723917
  0
LWPOLYLINE
  5
505
100
AcDbEntity
  8
SCRITTA_VIMAR
100
AcDbPolyline
 62
250
  6
CONTINUOUS
 90
3
 70
0
 10
-84.8868447159
 20
-30.2436988807
 10
-84.8636478555
 20
-30.4065985336
 10
-84.8397892208
 20
-30.5707725023
  0
LINE
  5
506
100
AcDbEntity
  8
SCRITTA_VIMAR
100
AcDbLine
 62
250
  6
CONTINUOUS
 10
-84.8525374092
 20
-30.5707725023
 11
-84.8837069478
 21
-30.3514833458
  0
LINE
  5
507
100
AcDbEntity
  8
SCRITTA_VIMAR
100
AcDbLine
 62
250
  6
CONTINUOUS
 10
-84.8583405037
 20
-30.5707725023
 11
-84.8858706806
 21
-30.3763597416
  0
LINE
  5
508
100
AcDbEntity
  8
SCRITTA_VIMAR
100
AcDbLine
 62
250
  6
CONTINUOUS
 10
-84.8255234967
 20
-30.5707725023
 11
-84.8622232683
 21
-30.3116441736
  0
LINE
  5
509
100
AcDbEntity
  8
SCRITTA_VIMAR
100
AcDbLine
 62
250
  6
CONTINUOUS
 10
-84.9145778015
 20
-30.1021571098
 11
-84.8749622984
 21
-30.3819918498
  0
LINE
  5
50A
100
AcDbEntity
  8
SCRITTA_VIMAR
100
AcDbLine
 62
250
  6
CONTINUOUS
 10
-84.8467737729
 20
-30.5707725023
 11
-84.8775153594
 21
-30.3521914173
  0
LINE
  5
50B
100
AcDbEntity
  8
SCRITTA_VIMAR
100
AcDbLine
 62
250
  6
CONTINUOUS
 10
-84.8915639205
 20
-29.806862102
 11
-84.838055136
 21
-30.1851618005
  0
LINE
  5
50C
100
AcDbEntity
  8
SCRITTA_VIMAR
100
AcDbLine
 62
250
  6
CONTINUOUS
 10
-85.0730472806
 20
-28.2789699585
 11
-85.0776474683
 21
-28.2464481487
  0
LINE
  5
50D
100
AcDbEntity
  8
SCRITTA_VIMAR
100
AcDbLine
 62
250
  6
CONTINUOUS
 10
-84.8975457294
 20
-30.2798810046
 11
-84.8564951983
 21
-30.5707725023
  0
LINE
  5
50E
100
AcDbEntity
  8
SCRITTA_VIMAR
100
AcDbLine
 62
250
  6
CONTINUOUS
 10
-84.8962994223
 20
-30.2796489819
 11
-84.8552455339
 21
-30.5707725023
  0
LINE
  5
50F
100
AcDbEntity
  8
SCRITTA_VIMAR
100
AcDbLine
 62
250
  6
CONTINUOUS
 10
-84.9016034308
 20
-30.2795655049
 11
-84.860847389
 21
-30.5707725023
  0
LINE
  5
510
100
AcDbEntity
  8
SCRITTA_VIMAR
100
AcDbLine
 62
250
  6
CONTINUOUS
 10
-85.1152651827
 20
-27.8504737569
 11
-85.1041361377
 21
-27.9299414506
  0
LINE
  5
511
100
AcDbEntity
  8
SCRITTA_VIMAR
100
AcDbLine
 62
250
  6
CONTINUOUS
 10
-84.8695624904
 20
-30.0499723917
 11
-84.9164998318
 21
-29.7123775404
  0
LINE
  5
512
100
AcDbEntity
  8
SCRITTA_VIMAR
100
AcDbLine
 62
250
  6
CONTINUOUS
 10
-84.8858706806
 20
-30.3763597416
 11
-84.9124090968
 21
-30.1839606402
  0
LINE
  5
513
100
AcDbEntity
  8
SCRITTA_VIMAR
100
AcDbLine
 62
250
  6
CONTINUOUS
 10
-84.8837069478
 20
-30.3514833458
 11
-84.9136863638
 21
-30.1344074676
  0
LINE
  5
514
100
AcDbEntity
  8
SCRITTA_VIMAR
100
AcDbLine
 62
250
  6
CONTINUOUS
 10
-84.9313076072
 20
-29.9217233439
 11
-84.8868447159
 21
-30.2436988807
  0
LINE
  5
515
100
AcDbEntity
  8
SCRITTA_VIMAR
100
AcDbLine
 62
250
  6
CONTINUOUS
 10
-84.926104428
 20
-29.6995601988
 11
-84.9722250877
 21
-29.3654770791
  0
LINE
  5
516
100
AcDbEntity
  8
SCRITTA_VIMAR
100
AcDbLine
 62
250
  6
CONTINUOUS
 10
-84.8877628301
 20
-30.3762400267
 11
-84.9141267193
 21
-30.1837357682
  0
LWPOLYLINE
  5
517
100
AcDbEntity
  8
SCRITTA_VIMAR
100
AcDbPolyline
 62
250
  6
CONTINUOUS
 90
3
 70
0
 10
-84.8622232683
 20
-30.3116441736
 10
-84.8974318073
 20
-30.0554728394
 10
-84.9060071769
 20
-29.9918985023
  0
LINE
  5
518
100
AcDbEntity
  8
SCRITTA_VIMAR
100
AcDbLine
 62
250
  6
CONTINUOUS
 10
-84.8775153594
 20
-30.3521914173
 11
-84.9071101404
 21
-30.1358591091
  0
LINE
  5
519
100
AcDbEntity
  8
SCRITTA_VIMAR
100
AcDbLine
 62
250
  6
CONTINUOUS
 10
-85.0667224538
 20
-28.3253007311
 11
-85.0730472806
 21
-28.2789699585
  0
LINE
  5
51A
100
AcDbEntity
  8
SCRITTA_VIMAR
100
AcDbLine
 62
250
  6
CONTINUOUS
 10
-84.9506193805
 20
-29.8377544128
 11
-84.9145778015
 21
-30.1021571098
  0
LINE
  5
51B
100
AcDbEntity
  8
SCRITTA_VIMAR
100
AcDbLine
 62
250
  6
CONTINUOUS
 10
-84.9420770185
 20
-29.4360084815
 11
-84.8915639205
 21
-29.806862102
  0
LINE
  5
51C
100
AcDbEntity
  8
SCRITTA_VIMAR
100
AcDbLine
 62
250
  6
CONTINUOUS
 10
-84.9363954812
 20
-29.9935275374
 11
-84.8975457294
 21
-30.2798810046
  0
LINE
  5
51D
100
AcDbEntity
  8
SCRITTA_VIMAR
100
AcDbLine
 62
250
  6
CONTINUOUS
 10
-84.9351662292
 20
-29.9931117634
 11
-84.8962994223
 21
-30.2796489819
  0
LINE
  5
51E
100
AcDbEntity
  8
SCRITTA_VIMAR
100
AcDbLine
 62
250
  6
CONTINUOUS
 10
-84.9124090968
 20
-30.1839606402
 11
-84.937971609
 21
-29.9935759776
  0
LWPOLYLINE
  5
51F
100
AcDbEntity
  8
SCRITTA_VIMAR
100
AcDbPolyline
 62
250
  6
CONTINUOUS
 90
5
 70
0
 10
-84.9288021511
 20
-29.8725107133
 10
-84.905931247
 20
-30.0441965018
 10
-84.8823107988
 20
-30.2178051895
 10
-84.8579216923
 20
-30.3933320863
 10
-84.8327448131
 20
-30.5707725023
  0
LINE
  5
520
100
AcDbEntity
  8
SCRITTA_VIMAR
100
AcDbLine
 62
250
  6
CONTINUOUS
 10
-84.9136863638
 20
-30.1344074676
 11
-84.9425091704
 21
-29.9195442873
  0
LINE
  5
521
100
AcDbEntity
  8
SCRITTA_VIMAR
100
AcDbLine
 62
250
  6
CONTINUOUS
 10
-84.9164998318
 20
-29.7123775404
 11
-84.9607874478
 21
-29.3825270855
  0
LINE
  5
522
100
AcDbEntity
  8
SCRITTA_VIMAR
100
AcDbLine
 62
250
  6
CONTINUOUS
 10
-85.1041361377
 20
-27.9299414506
 11
-85.0859862044
 21
-28.0647739533
  0
LINE
  5
523
100
AcDbEntity
  8
SCRITTA_VIMAR
100
AcDbLine
 62
250
  6
CONTINUOUS
 10
-84.9071101404
 20
-30.1358591091
 11
-84.9355975735
 21
-29.9217698065
  0
LINE
  5
524
100
AcDbEntity
  8
SCRITTA_VIMAR
100
AcDbLine
 62
250
  6
CONTINUOUS
 10
-84.9938043881
 20
-29.2680975082
 11
-84.9569961964
 21
-29.5439685023
  0
LINE
  5
525
100
AcDbEntity
  8
SCRITTA_VIMAR
100
AcDbLine
 62
250
  6
CONTINUOUS
 10
-84.9722250877
 20
-29.3654770791
 11
-85.0154064532
 21
-29.0396098546
  0
LINE
  5
526
100
AcDbEntity
  8
SCRITTA_VIMAR
100
AcDbLine
 62
250
  6
CONTINUOUS
 10
-84.9768106488
 20
-29.6390542473
 11
-84.9506193805
 21
-29.8377544128
  0
LINE
  5
527
100
AcDbEntity
  8
SCRITTA_VIMAR
100
AcDbLine
 62
250
  6
CONTINUOUS
 10
-84.9732742541
 20
-29.6048552024
 11
-84.9313076072
 21
-29.9217233439
  0
LINE
  5
528
100
AcDbEntity
  8
SCRITTA_VIMAR
100
AcDbLine
 62
250
  6
CONTINUOUS
 10
-84.9016034308
 20
-30.2795655049
 11
-84.951846085
 21
-29.8987793998
  0
LINE
  5
529
100
AcDbEntity
  8
SCRITTA_VIMAR
100
AcDbLine
 62
250
  6
CONTINUOUS
 10
-84.937971609
 20
-29.9935759776
 11
-84.9625740738
 21
-29.8052065332
  0
LINE
  5
52A
100
AcDbEntity
  8
SCRITTA_VIMAR
100
AcDbLine
 62
250
  6
CONTINUOUS
 10
-85.0571600799
 20
-28.3978757153
 11
-85.0667224538
 21
-28.3253007311
  0
LINE
  5
52B
100
AcDbEntity
  8
SCRITTA_VIMAR
100
AcDbLine
 62
250
  6
CONTINUOUS
 10
-84.9719002878
 20
-29.7111621614
 11
-84.9351662292
 21
-29.9931117634
  0
LINE
  5
52C
100
AcDbEntity
  8
SCRITTA_VIMAR
100
AcDbLine
 62
250
  6
CONTINUOUS
 10
-84.9730965691
 20
-29.7117148945
 11
-84.9363954812
 21
-29.9935275374
  0
LINE
  5
52D
100
AcDbEntity
  8
SCRITTA_VIMAR
100
AcDbLine
 62
250
  6
CONTINUOUS
 10
-84.9607874478
 20
-29.3825270855
 11
-85.002532057
 21
-29.0604065365
  0
LINE
  5
52E
100
AcDbEntity
  8
SCRITTA_VIMAR
100
AcDbLine
 62
250
  6
CONTINUOUS
 10
-84.9425091704
 20
-29.9195442873
 11
-84.9786307683
 21
-29.6409001214
  0
LINE
  5
52F
100
AcDbEntity
  8
SCRITTA_VIMAR
100
AcDbLine
 62
250
  6
CONTINUOUS
 10
-85.0859862044
 20
-28.0647739533
 11
-85.0551018611
 21
-28.3029912317
  0
LINE
  5
530
100
AcDbEntity
  8
SUPERFICI
100
AcDbLine
 62
7
  6
CONTINUOUS
 10
-84.9667029657
 20
-29.7869849516
 11
-84.934890226
 21
-30.0327421158
  0
LINE
  5
531
100
AcDbEntity
  8
SCRITTA_VIMAR
100
AcDbLine
 62
250
  6
CONTINUOUS
 10
-84.9723717834
 20
-29.5349265933
 11
-84.9288021511
 21
-29.8725107133
  0
LINE
  5
532
100
AcDbEntity
  8
SCRITTA_VIMAR
100
AcDbLine
 62
250
  6
CONTINUOUS
 10
-84.9355975735
 20
-29.9217698065
 11
-84.9713636495
 21
-29.6441867947
  0
LINE
  5
533
100
AcDbEntity
  8
SCRITTA_VIMAR
100
AcDbLine
 62
250
  6
CONTINUOUS
 10
-85.0287083843
 20
-28.9968052582
 11
-84.9938043881
 21
-29.2680975082
  0
LINE
  5
534
100
AcDbEntity
  8
SCRITTA_VIMAR
100
AcDbLine
 62
250
  6
CONTINUOUS
 10
-84.9758015392
 20
-29.7113399089
 11
-84.9400714792
 21
-29.9929825011
  0
LINE
  5
535
100
AcDbEntity
  8
SCRITTA_VIMAR
100
AcDbLine
 62
250
  6
CONTINUOUS
 10
-85.0068514721
 20
-29.4034231323
 11
-84.9768106488
 21
-29.6390542473
  0
LINE
  5
536
100
AcDbEntity
  8
SCRITTA_VIMAR
100
AcDbLine
 62
250
  6
CONTINUOUS
 10
-85.0127905082
 20
-29.293134439
 11
-84.9732742541
 21
-29.6048552024
  0
LINE
  5
537
100
AcDbEntity
  8
SCRITTA_VIMAR
100
AcDbLine
 62
250
  6
CONTINUOUS
 10
-85.0154064532
 20
-29.0396098546
 11
-85.0557206626
 21
-28.7217736848
  0
LINE
  5
538
100
AcDbEntity
  8
SCRITTA_VIMAR
100
AcDbLine
 62
250
  6
CONTINUOUS
 10
-84.9929396064
 20
-29.5441950029
 11
-84.9719002878
 21
-29.7111621614
  0
LINE
  5
539
100
AcDbEntity
  8
SCRITTA_VIMAR
100
AcDbLine
 62
250
  6
CONTINUOUS
 10
-84.9941075431
 20
-29.5448080667
 11
-84.9730965691
 21
-29.7117148945
  0
LINE
  5
53A
100
AcDbEntity
  8
SCRITTA_VIMAR
100
AcDbLine
 62
250
  6
CONTINUOUS
 10
-85.0466553482
 20
-28.4804893296
 11
-85.0571600799
 21
-28.3978757153
  0
LINE
  5
53B
100
AcDbEntity
  8
SCRITTA_VIMAR
100
AcDbLine
 62
250
  6
CONTINUOUS
 10
-84.9625740738
 20
-29.8052065332
 11
-84.9954348361
 21
-29.5448763616
  0
LINE
  5
53C
100
AcDbEntity
  8
SCRITTA_VIMAR
100
AcDbLine
 62
250
  6
CONTINUOUS
 10
-85.0551018611
 20
-28.3029912317
 11
-85.0200551098
 21
-28.5815789681
  0
LINE
  5
53D
100
AcDbEntity
  8
SCRITTA_VIMAR
100
AcDbLine
 62
250
  6
CONTINUOUS
 10
-84.9647000602
 20
-29.5439685023
 11
-84.9993028462
 21
-29.2679861728
  0
LINE
  5
53E
100
AcDbEntity
  8
RACCORDO
100
AcDbLine
 62
7
  6
CONTINUOUS
 10
-85.280734682
 20
-26.6540836716
 11
-85.2659357076
 21
-26.7735806934
  0
LINE
  5
53F
100
AcDbEntity
  8
SCRITTA_VIMAR
100
AcDbLine
 62
250
  6
CONTINUOUS
 10
-84.9786307683
 20
-29.6409001214
 11
-85.0080676447
 21
-29.4051251656
  0
LINE
  5
540
100
AcDbEntity
  8
SCRITTA_VIMAR
100
AcDbLine
 62
250
  6
CONTINUOUS
 10
-85.002532057
 20
-29.0604065365
 11
-85.0417902553
 21
-28.7459357467
  0
LINE
  5
541
100
AcDbEntity
  8
SCRITTA_VIMAR
100
AcDbLine
 62
250
  6
CONTINUOUS
 10
-84.9713636495
 20
-29.6441867947
 11
-85.000581387
 21
-29.4093839799
  0
LINE
  5
542
100
AcDbEntity
  8
SCRITTA_VIMAR
100
AcDbLine
 62
250
  6
CONTINUOUS
 10
-85.0492357338
 20
-28.601461659
 11
-85.004416545
 21
-28.9611153423
  0
LINE
  5
543
100
AcDbEntity
  8
SUPERFICI
100
AcDbLine
 62
7
  6
CONTINUOUS
 10
-85.0021037118
 20
-29.5023835963
 11
-84.9667029657
 21
-29.7869849516
  0
LINE
  5
544
100
AcDbEntity
  8
SCRITTA_VIMAR
100
AcDbLine
 62
250
  6
CONTINUOUS
 10
-85.0131678682
 20
-29.2050779685
 11
-84.9723717834
 21
-29.5349265933
  0
LINE
  5
545
100
AcDbEntity
  8
SCRITTA_VIMAR
100
AcDbLine
 62
250
  6
CONTINUOUS
 10
-85.0617077309
 20
-28.730069497
 11
-85.0287083843
 21
-28.9968052582
  0
LINE
  5
546
100
AcDbEntity
  8
SCRITTA_VIMAR
100
AcDbLine
 62
250
  6
CONTINUOUS
 10
-84.9763106981
 20
-29.7110419765
 11
-85.0113076169
 21
-29.4259749375
  0
LINE
  5
547
100
AcDbEntity
  8
SCRITTA_VIMAR
100
AcDbLine
 62
250
  6
CONTINUOUS
 10
-85.0295621
 20
-28.6202192792
 11
-85.0466553482
 21
-28.4804893296
  0
LINE
  5
548
100
AcDbEntity
  8
SCRITTA_VIMAR
100
AcDbLine
 62
250
  6
CONTINUOUS
 10
-85.027304338
 20
-29.2618151285
 11
-84.9929396064
 21
-29.5441950029
  0
LINE
  5
549
100
AcDbEntity
  8
SCRITTA_VIMAR
100
AcDbLine
 62
250
  6
CONTINUOUS
 10
-85.0193793595
 20
-29.2810155023
 11
-85.0467076473
 21
-29.0560982547
  0
LINE
  5
54A
100
AcDbEntity
  8
SCRITTA_VIMAR
100
AcDbLine
 62
250
  6
CONTINUOUS
 10
-85.0284075984
 20
-29.2624934075
 11
-84.9941075431
 21
-29.5448080667
  0
LINE
  5
54B
100
AcDbEntity
  8
SCRITTA_VIMAR
100
AcDbLine
 62
250
  6
CONTINUOUS
 10
-84.9954348361
 20
-29.5448763616
 11
-85.0254132427
 21
-29.2975907887
  0
LINE
  5
54C
100
AcDbEntity
  8
SCRITTA_VIMAR
100
AcDbLine
 62
250
  6
CONTINUOUS
 10
-85.0498884424
 20
-28.986598811
 11
-85.0127905082
 21
-29.293134439
  0
LINE
  5
54D
100
AcDbEntity
  8
SCRITTA_VIMAR
100
AcDbLine
 62
250
  6
CONTINUOUS
 10
-84.9993028462
 20
-29.2679861728
 11
-85.0321661984
 21
-28.996649747
  0
LINE
  5
54E
100
AcDbEntity
  8
SCRITTA_VIMAR
100
AcDbLine
 62
250
  6
CONTINUOUS
 10
-85.0557206626
 20
-28.7217736848
 11
-85.0932433507
 21
-28.4117839305
  0
LINE
  5
54F
100
AcDbEntity
  8
SCRITTA_VIMAR
100
AcDbLine
 62
250
  6
CONTINUOUS
 10
-85.0200551098
 20
-28.5815789681
 11
-84.9972672474
 21
-28.7686256487
  0
LINE
  5
550
100
AcDbEntity
  8
SCRITTA_VIMAR
100
AcDbLine
 62
250
  6
CONTINUOUS
 10
-85.0460915511
 20
-29.0812105383
 11
-85.0068514721
 21
-29.4034231323
  0
LINE
  5
551
100
AcDbEntity
  8
SCRITTA_VIMAR
100
AcDbLine
 62
250
  6
CONTINUOUS
 10
-85.0080676447
 20
-29.4051251656
 11
-85.0345893653
 21
-29.1850680671
  0
LINE
  5
552
100
AcDbEntity
  8
SCRITTA_VIMAR
100
AcDbLine
 62
250
  6
CONTINUOUS
 10
-85.000581387
 20
-29.4093839799
 11
-85.0269763693
 21
-29.1903198584
  0
LINE
  5
553
100
AcDbEntity
  8
SCRITTA_VIMAR
100
AcDbLine
 62
250
  6
CONTINUOUS
 10
-85.0417902553
 20
-28.7459357467
 11
-85.078622121
 21
-28.4390347955
  0
LINE
  5
554
100
AcDbEntity
  8
SUPERFICI
100
AcDbLine
 62
7
  6
CONTINUOUS
 10
-85.0326087411
 20
-29.2464129626
 11
-85.0021037118
 21
-29.5023835963
  0
LINE
  5
555
100
AcDbEntity
  8
SCRITTA_VIMAR
100
AcDbLine
 62
250
  6
CONTINUOUS
 10
-85.0513196128
 20
-28.8829404558
 11
-85.0131678682
 21
-29.2050779685
  0
LINE
  5
556
100
AcDbEntity
  8
SCRITTA_VIMAR
100
AcDbLine
 62
250
  6
CONTINUOUS
 10
-85.0928258818
 20
-28.4678705023
 11
-85.0617077309
 21
-28.730069497
  0
LINE
  5
557
100
AcDbEntity
  8
SCRITTA_VIMAR
100
AcDbLine
 62
250
  6
CONTINUOUS
 10
-85.0065230958
 20
-29.4653018904
 11
-85.0393481043
 21
-29.1883913876
  0
LWPOLYLINE
  5
558
100
AcDbEntity
  8
SCRITTA_VIMAR
100
AcDbPolyline
 62
250
  6
CONTINUOUS
 90
3
 70
0
 10
-85.101133563
 20
-28.1651039852
 10
-85.0911015223
 20
-28.2511997083
 10
-85.0492357338
 20
-28.601461659
  0
LINE
  5
559
100
AcDbEntity
  8
SCRITTA_VIMAR
100
AcDbLine
 62
250
  6
CONTINUOUS
 10
-85.0269763693
 20
-29.1903198584
 11
-85.0507712356
 21
-28.9865479755
  0
LINE
  5
55A
100
AcDbEntity
  8
SCRITTA_VIMAR
100
AcDbLine
 62
250
  6
CONTINUOUS
 10
-85.0182324732
 20
-28.7161326703
 11
-85.0295621
 21
-28.6202192792
  0
LINE
  5
55B
100
AcDbEntity
  8
SCRITTA_VIMAR
100
AcDbLine
 62
250
  6
CONTINUOUS
 10
-85.0467076473
 20
-29.0560982547
 11
-85.072613465
 21
-28.8343259687
  0
LINE
  5
55C
100
AcDbEntity
  8
SCRITTA_VIMAR
100
AcDbLine
 62
250
  6
CONTINUOUS
 10
-85.0345893653
 20
-29.1850680671
 11
-85.0584297308
 21
-28.980288352
  0
LINE
  5
55D
100
AcDbEntity
  8
SCRITTA_VIMAR
100
AcDbLine
 62
250
  6
CONTINUOUS
 10
-85.0321661984
 20
-28.996649747
 11
-85.0633223191
 21
-28.7299477017
  0
LINE
  5
55E
100
AcDbEntity
  8
SCRITTA_VIMAR
100
AcDbLine
 62
250
  6
CONTINUOUS
 10
-85.0254132427
 20
-29.2975907887
 11
-85.0537694136
 21
-29.0540006494
  0
LINE
  5
55F
100
AcDbEntity
  8
SCRITTA_VIMAR
100
AcDbLine
 62
250
  6
CONTINUOUS
 10
-84.9972672474
 20
-28.7686256487
 11
-84.9827757953
 21
-28.8922979193
  0
LINE
  5
560
100
AcDbEntity
  8
SCRITTA_VIMAR
100
AcDbLine
 62
250
  6
CONTINUOUS
 10
-85.078622121
 20
-28.4390347955
 11
-85.1132179413
 21
-28.1396946137
  0
LWPOLYLINE
  5
561
100
AcDbEntity
  8
SCRITTA_VIMAR
100
AcDbPolyline
 62
250
  6
CONTINUOUS
 90
3
 70
0
 10
-85.0932433507
 20
-28.4117839305
 10
-85.1281547457
 20
-28.1095921506
 10
-85.1447199304
 20
-27.9614475551
  0
LINE
  5
562
100
AcDbEntity
  8
SCRITTA_VIMAR
100
AcDbLine
 62
250
  6
CONTINUOUS
 10
-85.0845955212
 20
-28.6852465023
 11
-85.0498884424
 21
-28.986598811
  0
LWPOLYLINE
  5
563
100
AcDbEntity
  8
SCRITTA_VIMAR
100
AcDbPolyline
 62
250
  6
CONTINUOUS
 90
3
 70
0
 10
-85.0571025915
 20
-28.8915648536
 10
-85.0933544158
 20
-28.5762037578
 10
-85.1105125043
 20
-28.4210793807
  0
LINE
  5
564
100
AcDbEntity
  8
SCRITTA_VIMAR
100
AcDbLine
 62
250
  6
CONTINUOUS
 10
-85.0810943155
 20
-28.7774127006
 11
-85.0460915511
 21
-29.0812105383
  0
LWPOLYLINE
  5
565
100
AcDbEntity
  8
SCRITTA_VIMAR
100
AcDbPolyline
 62
250
  6
CONTINUOUS
 90
3
 70
0
 10
-85.0749790052
 20
-28.8474219694
 10
-85.0595896174
 20
-28.9843239718
 10
-85.027304338
 20
-29.2618151285
  0
LWPOLYLINE
  5
566
100
AcDbEntity
  8
SCRITTA_VIMAR
100
AcDbPolyline
 62
250
  6
CONTINUOUS
 90
3
 70
0
 10
-85.0507712356
 20
-28.9865479755
 10
-85.0735670911
 20
-28.7851010211
 10
-85.0845955212
 20
-28.6852465023
  0
LWPOLYLINE
  5
567
100
AcDbEntity
  8
SCRITTA_VIMAR
100
AcDbPolyline
 62
250
  6
CONTINUOUS
 90
3
 70
0
 10
-85.075947688
 20
-28.8480980091
 10
-85.060608088
 20
-28.9850150091
 10
-85.0284075984
 20
-29.2624934075
  0
LINE
  5
568
100
AcDbEntity
  8
SCRITTA_VIMAR
100
AcDbLine
 62
250
  6
CONTINUOUS
 10
-85.0869514831
 20
-28.5684772915
 11
-85.0513196128
 21
-28.8829404558
  0
LWPOLYLINE
  5
569
100
AcDbEntity
  8
SCRITTA_VIMAR
100
AcDbPolyline
 62
250
  6
CONTINUOUS
 90
3
 70
0
 10
-85.1132179413
 20
-28.1396946137
 10
-85.1458982133
 20
-27.8479769841
 10
-85.1616219431
 20
-27.7049968961
  0
LINE
  5
56A
100
AcDbEntity
  8
SCRITTA_VIMAR
100
AcDbLine
 62
250
  6
CONTINUOUS
 10
-85.0633223191
 20
-28.7299477017
 11
-85.0928258818
 21
-28.4678705023
  0
LINE
  5
56B
100
AcDbEntity
  8
SCRITTA_VIMAR
100
AcDbLine
 62
250
  6
CONTINUOUS
 10
-85.0921914029
 20
-28.6773535023
 11
-85.0584297308
 21
-28.980288352
  0
LINE
  5
56C
100
AcDbEntity
  8
SCRITTA_VIMAR
100
AcDbLine
 62
250
  6
CONTINUOUS
 10
-85.072613465
 20
-28.8343259687
 11
-85.0971286614
 21
-28.6157006894
  0
LINE
  5
56D
100
AcDbEntity
  8
SCRITTA_VIMAR
100
AcDbLine
 62
250
  6
CONTINUOUS
 10
-85.0112309249
 20
-28.778039809
 11
-85.0182324732
 21
-28.7161326703
  0
LINE
  5
56E
100
AcDbEntity
  8
SCRITTA_VIMAR
100
AcDbLine
 62
250
  6
CONTINUOUS
 10
-84.9827757953
 20
-28.8922979193
 11
-84.973754434
 21
-28.9723799495
  0
LWPOLYLINE
  5
56F
100
AcDbEntity
  8
SUPERFICI
100
AcDbPolyline
 62
7
  6
CONTINUOUS
 90
3
 70
0
 10
-85.0718800689
 20
-28.8997239128
 10
-85.0639382286
 20
-28.9715582312
 10
-85.0326087411
 20
-29.2464129626
  0
LINE
  5
570
100
AcDbEntity
  8
SCRITTA_VIMAR
100
AcDbLine
 62
250
  6
CONTINUOUS
 10
-85.0537694136
 20
-29.0540006494
 11
-85.0805614422
 21
-28.814125233
  0
LWPOLYLINE
  5
571
100
AcDbEntity
  8
SCRITTA_VIMAR
100
AcDbPolyline
 62
250
  6
CONTINUOUS
 90
3
 70
0
 10
-85.0740338947
 20
-28.8800206609
 10
-85.0639318827
 20
-28.9715396981
 10
-85.0302809444
 20
-29.2659892099
  0
LWPOLYLINE
  5
572
100
AcDbEntity
  8
SCRITTA_VIMAR
100
AcDbPolyline
 62
250
  6
CONTINUOUS
 90
3
 70
0
 10
-85.0834748234
 20
-28.7218643731
 10
-85.071309695
 20
-28.8319376205
 10
-85.0328626717
 20
-29.1674202383
  0
LWPOLYLINE
  5
573
100
AcDbEntity
  8
RACCORDO
100
AcDbPolyline
 62
250
  6
CONTINUOUS
 90
7
 70
0
 10
-85.2540395755
 20
24.6660549872
 10
-85.2538432892
 20
24.6624359765
 10
-85.2539254525
 20
24.6553081738
 10
-85.254256766
 20
24.6450194318
 10
-85.2548187763
 20
24.6319105133
 10
-85.2556088575
 20
24.6162970513
 10
-85.2566270084
 20
24.5984323049
  0
LWPOLYLINE
  5
574
100
AcDbEntity
  8
RACCORDO
100
AcDbPolyline
 62
250
  6
CONTINUOUS
 90
5
 70
0
 10
-85.264247316
 20
-26.6270348407
 10
-85.2632771927
 20
-26.6509903105
 10
-85.262247864
 20
-26.6739658397
 10
-85.2610895622
 20
-26.6969871396
 10
-85.2597626123
 20
-26.7204271994
  0
LINE
  5
575
100
AcDbEntity
  8
RACCORDO
100
AcDbLine
 62
250
  6
CONTINUOUS
 10
-85.2659730229
 20
-26.575900043
 11
-85.264247316
 21
-26.6270348407
  0
LINE
  5
576
100
AcDbEntity
  8
RACCORDO
100
AcDbLine
 62
250
  6
CONTINUOUS
 10
-85.2674439818
 20
-26.5221915736
 11
-85.2659730229
 21
-26.575900043
  0
LWPOLYLINE
  5
577
100
AcDbEntity
  8
SCRITTA_VIMAR
100
AcDbPolyline
 62
250
  6
CONTINUOUS
 90
32
 70
0
 10
-85.1616219431
 20
-27.7049968961
 10
-85.1618114317
 20
-27.6959508144
 10
-85.1619255611
 20
-27.6875407706
 10
-85.1619633563
 20
-27.679770229
 10
-85.1619238422
 20
-27.6726426539
 10
-85.161806044
 20
-27.6661615096
 10
-85.1616089865
 20
-27.6603302604
 10
-85.1613316948
 20
-27.6551523707
 10
-85.160972938
 20
-27.650633972
 10
-85.1605304622
 20
-27.6467918659
 10
-85.1600017575
 20
-27.6436455211
 10
-85.1593843142
 20
-27.6412144063
 10
-85.1586756224
 20
-27.6395179903
 10
-85.1578731723
 20
-27.6385757419
 10
-85.1569744542
 20
-27.6384071299
 10
-85.1561071505
 20
-27.6389109622
 10
-85.1551626443
 20
-27.6400436931
 10
-85.1541393598
 20
-27.6418269999
 10
-85.1530357212
 20
-27.6442825603
 10
-85.1518501528
 20
-27.6474320515
 10
-85.1505810788
 20
-27.651297151
 10
-85.1492269234
 20
-27.6558995364
 10
-85.147786111
 20
-27.6612608849
 10
-85.1464311109
 20
-27.6666831959
 10
-85.14500376
 20
-27.6727494691
 10
-85.1435014224
 20
-27.6794868642
 10
-85.141921462
 20
-27.686922541
 10
-85.1402612429
 20
-27.6950836593
 10
-85.1385181291
 20
-27.7039973786
 10
-85.1366894847
 20
-27.7136908588
 10
-85.1347726736
 20
-27.7241912597
 10
-85.13276506
 20
-27.7355257408
  0
LINE
  5
578
100
AcDbEntity
  8
RACCORDO
100
AcDbLine
 62
250
  6
CONTINUOUS
 10
-85.2692597715
 20
-26.439670961
 11
-85.2674439818
 21
-26.5221915736
  0
LINE
  5
579
100
AcDbEntity
  8
RACCORDO
100
AcDbLine
 62
250
  6
CONTINUOUS
 10
-85.280273927
 20
-25.9208759246
 11
-85.2718267411
 21
-26.2965398303
  0
LINE
  5
57A
100
AcDbEntity
  8
RACCORDO
100
AcDbLine
 62
250
  6
CONTINUOUS
 10
-85.8499823754
 20
-25.1232145036
 11
-85.8490302468
 21
-25.1724243715
  0
LWPOLYLINE
  5
57B
100
AcDbEntity
  8
RACCORDO
100
AcDbPolyline
 62
250
  6
CONTINUOUS
 90
3
 70
0
 10
-85.2718267411
 20
-26.2965398303
 10
-85.2707859515
 20
-26.3551263029
 10
-85.2692597715
 20
-26.439670961
  0
LINE
  5
57C
100
AcDbEntity
  8
RACCORDO
100
AcDbLine
 62
250
  6
CONTINUOUS
 10
-85.2837991859
 20
-25.7047950193
 11
-85.280273927
 21
-25.9208759246
  0
LINE
  5
57D
100
AcDbEntity
  8
RACCORDO
100
AcDbLine
 62
250
  6
CONTINUOUS
 10
-85.8509600075
 20
-25.0555472791
 11
-85.8499823754
 21
-25.1232145036
  0
LINE
  5
57E
100
AcDbEntity
  8
RACCORDO
100
AcDbLine
 62
250
  6
CONTINUOUS
 10
-85.2875667698
 20
-25.365073824
 11
-85.2837991859
 21
-25.7047950193
  0
LINE
  5
57F
100
AcDbEntity
  8
RACCORDO
100
AcDbLine
 62
250
  6
CONTINUOUS
 10
-85.855123079
 20
-24.6926222681
 11
-85.8509600075
 21
-25.0555472791
  0
LINE
  5
580
100
AcDbEntity
  8
RACCORDO
100
AcDbLine
 62
250
  6
CONTINUOUS
 10
-85.2908430687
 20
-24.8267955465
 11
-85.2875667698
 21
-25.365073824
  0
LINE
  5
581
100
AcDbEntity
  8
RACCORDO
100
AcDbLine
 62
250
  6
CONTINUOUS
 10
-85.85700085
 20
-24.3758073731
 11
-85.855123079
 21
-24.6926222681
  0
LINE
  5
582
100
AcDbEntity
  8
RACCORDO
100
AcDbLine
 62
250
  6
CONTINUOUS
 10
-85.2971305907
 20
-22.7211073351
 11
-85.2930323239
 21
-23.6689039479
  0
LINE
  5
583
100
AcDbEntity
  8
RACCORDO
100
AcDbLine
 62
250
  6
CONTINUOUS
 10
-85.2992957521
 20
-22.0458949066
 11
-85.2971305907
 21
-22.7211073351
  0
LINE
  5
584
100
AcDbEntity
  8
RACCORDO
100
AcDbLine
 62
250
  6
CONTINUOUS
 10
-85.3024876248
 20
-20.6213793761
 11
-85.2992957521
 21
-22.0458949066
  0
LINE
  5
585
100
AcDbEntity
  8
RACCORDO
100
AcDbLine
 62
250
  6
CONTINUOUS
 10
-85.3067557182
 20
-17.4923431579
 11
-85.3024876248
 21
-20.6213793761
  0
LWPOLYLINE
  5
586
100
AcDbEntity
  8
RACCORDO
100
AcDbPolyline
 62
250
  6
CONTINUOUS
 90
3
 70
0
 10
-85.2930323239
 20
-23.6689039479
 10
-85.2921189059
 20
-24.0755078663
 10
-85.2908430687
 20
-24.8267955465
  0
LINE
  5
587
100
AcDbEntity
  8
RACCORDO
100
AcDbLine
 62
250
  6
CONTINUOUS
 10
-85.8599020986
 20
-22.054508722
 11
-85.8580155525
 21
-23.7540841811
  0
LINE
  5
588
100
AcDbEntity
  8
RACCORDO
100
AcDbLine
 62
250
  6
CONTINUOUS
 10
-85.321476245
 20
-1.0859760468
 11
-85.3067557182
 21
-17.4923431579
  0
LINE
  5
589
100
AcDbEntity
  8
RACCORDO
100
AcDbLine
 62
250
  6
CONTINUOUS
 10
-85.8580155525
 20
-23.7540841811
 11
-85.85700085
 21
-24.3758073731
  0
LINE
  5
58A
100
AcDbEntity
  8
RACCORDO
100
AcDbLine
 62
250
  6
CONTINUOUS
 10
-85.8630338407
 20
-13.077931579
 11
-85.8599020986
 21
-22.054508722
  0
LINE
  5
58B
100
AcDbEntity
  8
RACCORDO
100
AcDbLine
 62
250
  6
CONTINUOUS
 10
-85.8656335526
 20
-1.0864182973
 11
-85.8630338407
 21
-13.077931579
  0
LINE
  5
58C
100
AcDbEntity
  8
0
100
AcDbLine
 62
7
  6
CONTINUOUS
 10
-86.0470406332
 20
-24.6864055023
 11
-86.0470406332
 21
22.5135944977
  0
LINE
  5
58D
100
AcDbEntity
  8
RACCORDO
100
AcDbLine
 62
250
  6
CONTINUOUS
 10
-85.8632540899
 20
9.950999316
 11
-85.8656335526
 21
-1.0864182973
  0
LINE
  5
58E
100
AcDbEntity
  8
RACCORDO
100
AcDbLine
 62
250
  6
CONTINUOUS
 10
-85.3024859945
 20
18.4492474284
 11
-85.3214754866
 21
-1.0859760476
  0
LINE
  5
58F
100
AcDbEntity
  8
RACCORDO
100
AcDbLine
 62
250
  6
CONTINUOUS
 10
-85.8584604927
 20
21.2872890029
 11
-85.8632540899
 21
9.950999316
  0
LWPOLYLINE
  5
590
100
AcDbEntity
  8
RACCORDO
100
AcDbPolyline
 62
250
  6
CONTINUOUS
 90
4
 70
0
 10
-85.2943271267
 20
21.1984571516
 10
-85.297131297
 20
20.5485144747
 10
-85.2992944459
 20
19.873484152
 10
-85.3024859945
 20
18.4492474284
  0
LINE
  5
591
100
AcDbEntity
  8
RACCORDO
100
AcDbLine
 62
250
  6
CONTINUOUS
 10
-85.8563372431
 20
22.345755353
 11
-85.8584604927
 21
21.2872890029
  0
LINE
  5
592
100
AcDbEntity
  8
RACCORDO
100
AcDbLine
 62
250
  6
CONTINUOUS
 10
-85.2890715111
 20
22.9949495635
 11
-85.2943200606
 21
21.1984571154
  0
LINE
  5
593
100
AcDbEntity
  8
RACCORDO
100
AcDbLine
 62
250
  6
CONTINUOUS
 10
-85.8545353597
 20
22.5822343183
 11
-85.8563372431
 21
22.345755353
  0
LINE
  5
594
100
AcDbEntity
  8
RACCORDO
100
AcDbLine
 62
250
  6
CONTINUOUS
 10
-85.285802427
 20
23.3711012346
 11
-85.2890715111
 21
22.9949495635
  0
LINE
  5
595
100
AcDbEntity
  8
RACCORDO
100
AcDbLine
 62
250
  6
CONTINUOUS
 10
-85.8503057727
 20
22.9302526614
 11
-85.8545353597
 21
22.5822343183
  0
LINE
  5
596
100
AcDbEntity
  8
RACCORDO
100
AcDbLine
 62
250
  6
CONTINUOUS
 10
-85.2825687835
 20
23.6153225212
 11
-85.285802427
 21
23.3711012346
  0
LINE
  5
597
100
AcDbEntity
  8
RACCORDO
100
AcDbLine
 62
250
  6
CONTINUOUS
 10
-85.8494731367
 20
22.978343845
 11
-85.8503057727
 21
22.9302526614
  0
LINE
  5
598
100
AcDbEntity
  8
RACCORDO
100
AcDbLine
 62
250
  6
CONTINUOUS
 10
-85.2791453922
 20
23.8043125568
 11
-85.2825687835
 21
23.6153225212
  0
LINE
  5
599
100
AcDbEntity
  8
RACCORDO
100
AcDbLine
 62
250
  6
CONTINUOUS
 10
-85.2687736555
 20
24.2912623116
 11
-85.2723088552
 21
24.0994314252
  0
LWPOLYLINE
  5
59A
100
AcDbEntity
  8
RACCORDO
100
AcDbPolyline
 62
250
  6
CONTINUOUS
 90
3
 70
0
 10
-85.2723088552
 20
24.0994314252
 10
-85.2755988849
 20
23.9575806194
 10
-85.2791453922
 20
23.8043125568
  0
LWPOLYLINE
  5
59B
100
AcDbEntity
  8
RACCORDO
100
AcDbPolyline
 62
250
  6
CONTINUOUS
 90
3
 70
0
 10
-85.8484471439
 20
23.0236203627
 10
-85.8488145077
 20
23.0090212434
 10
-85.8494731367
 20
22.978343845
  0
LINE
  5
59C
100
AcDbEntity
  8
RACCORDO
100
AcDbLine
 62
250
  6
CONTINUOUS
 10
-85.2669041836
 20
24.370068481
 11
-85.2687736555
 21
24.2912623116
  0
LWPOLYLINE
  5
59D
100
AcDbEntity
  8
RACCORDO
100
AcDbPolyline
 62
250
  6
CONTINUOUS
 90
4
 70
0
 10
-85.263670299
 20
24.4688469265
 10
-85.2645914015
 20
24.4452134859
 10
-85.265422764
 20
24.4208240164
 10
-85.2669041836
 20
24.370068481
  0
LINE
  5
59E
100
AcDbEntity
  8
DRAFT
100
AcDbLine
 62
7
  6
CONTINUOUS
 10
-76.7470406332
 20
-5.0864055023
 11
-77.4470406332
 21
-5.0864055023
  0
LINE
  5
59F
100
AcDbEntity
  8
ASSI
100
AcDbLine
 62
7
  6
CONTINUOUS
 10
-79.9289753624
 20
-4.0864055023
 11
-80.0388456353
 21
-4.0864055023
  0
LINE
  5
5A0
100
AcDbEntity
  8
RACCORDO
100
AcDbLine
 62
250
  6
CONTINUOUS
 10
-80.0470406332
 20
-3.5864055023
 11
-79.9470406332
 21
-3.5864055023
  0
LWPOLYLINE
  5
5A1
100
AcDbEntity
  8
0
100
AcDbPolyline
 62
7
  6
CONTINUOUS
 90
4
 70
0
 43
0.3500000006
 10
-95.2256159363
 20
-3.4435480042
 10
-96.0827538757
 20
-3.4435480042
 10
-96.5113228455
 20
-3.0149767685
 10
-96.5113228455
 20
-2.372119915
  0
LWPOLYLINE
  5
5A2
100
AcDbEntity
  8
RACCORDO
100
AcDbPolyline
 62
250
  6
CONTINUOUS
 90
6
 70
0
 10
-85.8461238811
 20
23.1148148924
 10
-85.8460338066
 20
23.1139622108
 10
-85.8460135916
 20
23.1111832774
 10
-85.8460632454
 20
23.1066430442
 10
-85.8461880366
 20
23.100508291
 10
-85.8463826137
 20
23.0929374828
  0
LINE
  5
5A3
100
AcDbEntity
  8
RACCORDO
100
AcDbLine
 62
250
  6
CONTINUOUS
 10
-81.4427949972
 20
-37.6757376368
 11
-81.4389233223
 21
-37.8341441898
  0
LINE
  5
5A4
100
AcDbEntity
  8
RACCORDO
100
AcDbLine
 62
250
  6
CONTINUOUS
 10
-82.3828096772
 20
-37.6972312312
 11
-82.37600113
 21
-38.0188284864
  0
LINE
  5
5A5
100
AcDbEntity
  8
RACCORDO
100
AcDbLine
 62
250
  6
CONTINUOUS
 10
-81.4455405406
 20
-37.5334508108
 11
-81.4427949972
 21
-37.6757376368
  0
LINE
  5
5A6
100
AcDbEntity
  8
RACCORDO
100
AcDbLine
 62
250
  6
CONTINUOUS
 10
-82.37600113
 20
-38.0188284864
 11
-82.3707069676
 21
-38.3311987895
  0
LINE
  5
5A7
100
AcDbEntity
  8
RACCORDO
100
AcDbLine
 62
250
  6
CONTINUOUS
 10
-82.3850164306
 20
-37.5499449085
 11
-82.3828096772
 21
-37.6972312312
  0
LINE
  5
5A8
100
AcDbEntity
  8
RACCORDO
100
AcDbLine
 62
250
  6
CONTINUOUS
 10
-81.4473474097
 20
-37.406935212
 11
-81.4455405406
 21
-37.5334508108
  0
LINE
  5
5A9
100
AcDbEntity
  8
RACCORDO
100
AcDbLine
 62
250
  6
CONTINUOUS
 10
-82.3707069676
 20
-38.3311987895
 11
-82.3671526731
 21
-38.63244281
  0
LINE
  5
5AA
100
AcDbEntity
  8
RACCORDO
100
AcDbLine
 62
250
  6
CONTINUOUS
 10
-82.3862501677
 20
-37.4183595968
 11
-82.3850164306
 21
-37.5499449085
  0
LINE
  5
5AB
100
AcDbEntity
  8
RACCORDO
100
AcDbLine
 62
250
  6
CONTINUOUS
 10
-82.3664154411
 20
37.432066329
 11
-82.3647015996
 21
37.2390643192
  0
LINE
  5
5AC
100
AcDbEntity
  8
RACCORDO
100
AcDbLine
 62
250
  6
CONTINUOUS
 10
-81.4487243529
 20
-37.2465992171
 11
-81.4473474097
 21
-37.406935212
  0
LINE
  5
5AD
100
AcDbEntity
  8
RACCORDO
100
AcDbLine
 62
250
  6
CONTINUOUS
 10
-82.3671526731
 20
-38.63244281
 11
-82.365050251
 21
-38.9161704878
  0
LINE
  5
5AE
100
AcDbEntity
  8
RACCORDO
100
AcDbLine
 62
250
  6
CONTINUOUS
 10
-81.4698272856
 20
-33.6601810667
 11
-81.4487243529
 21
-37.2465992171
  0
LWPOLYLINE
  5
5AF
100
AcDbEntity
  8
RACCORDO
100
AcDbPolyline
 62
250
  6
CONTINUOUS
 90
4
 70
0
 10
-81.4727472926
 20
-33.1115438533
 10
-81.4720000702
 20
-33.2538536387
 10
-81.4712644374
 20
-33.3925564289
 10
-81.4698272856
 20
-33.6601810667
  0
LWPOLYLINE
  5
5B0
100
AcDbEntity
  8
RACCORDO
100
AcDbPolyline
 62
250
  6
CONTINUOUS
 90
3
 70
0
 10
-81.4750587431
 20
-32.6626253023
 10
-81.4742765532
 20
-32.8161004897
 10
-81.4727472926
 20
-33.1115438533
  0
LWPOLYLINE
  5
5B1
100
AcDbEntity
  8
RACCORDO
100
AcDbPolyline
 62
250
  6
CONTINUOUS
 90
3
 70
0
 10
-81.4774760773
 20
-32.1781566794
 10
-81.4766585674
 20
-32.3438084582
 10
-81.4750587431
 20
-32.6626253023
  0
LWPOLYLINE
  5
5B2
100
AcDbEntity
  8
RACCORDO
100
AcDbPolyline
 62
250
  6
CONTINUOUS
 90
3
 70
0
 10
-81.4799988495
 20
-31.6552728808
 10
-81.4791463359
 20
-31.8340351535
 10
-81.4774760773
 20
-32.1781566794
  0
LWPOLYLINE
  5
5B3
100
AcDbEntity
  8
RACCORDO
100
AcDbPolyline
 62
250
  6
CONTINUOUS
 90
4
 70
0
 10
-81.4835236768
 20
-30.893661139
 10
-81.4826253619
 20
-31.0912830827
 10
-81.4817383395
 20
-31.2840493766
 10
-81.4799988495
 20
-31.6552728808
  0
LWPOLYLINE
  5
5B4
100
AcDbEntity
  8
RACCORDO
100
AcDbPolyline
 62
250
  6
CONTINUOUS
 90
4
 70
0
 10
-82.4057289549
 20
-33.3977635413
 10
-82.4051345671
 20
-33.5332533617
 10
-82.4045487825
 20
-33.6654801076
 10
-82.3870757444
 20
-37.2117039322
  0
LWPOLYLINE
  5
5B5
100
AcDbEntity
  8
RACCORDO
100
AcDbPolyline
 62
250
  6
CONTINUOUS
 90
3
 70
0
 10
-81.4862892582
 20
-30.2705467248
 10
-81.4853555003
 20
-30.4834554079
 10
-81.4835236768
 20
-30.893661139
  0
LWPOLYLINE
  5
5B6
100
AcDbEntity
  8
RACCORDO
100
AcDbPolyline
 62
250
  6
CONTINUOUS
 90
4
 70
0
 10
-82.4081927501
 20
-32.8211072523
 10
-82.4075638801
 20
-32.9706841922
 10
-82.4069432589
 20
-33.1166530991
 10
-82.4057289549
 20
-33.3977635413
  0
LINE
  5
5B7
100
AcDbEntity
  8
RACCORDO
100
AcDbLine
 62
250
  6
CONTINUOUS
 10
-81.4881951289
 20
-29.8286468936
 11
-81.4862892582
 21
-30.2705467248
  0
LWPOLYLINE
  5
5B8
100
AcDbEntity
  8
RACCORDO
100
AcDbPolyline
 62
250
  6
CONTINUOUS
 90
3
 70
0
 10
-82.4101340291
 20
-32.3486552945
 10
-82.4094783941
 20
-32.5100927128
 10
-82.4081927501
 20
-32.8211072523
  0
LWPOLYLINE
  5
5B9
100
AcDbEntity
  8
RACCORDO
100
AcDbPolyline
 62
250
  6
CONTINUOUS
 90
4
 70
0
 10
-82.4128464038
 20
-31.6598991985
 10
-82.4121550845
 20
-31.8387170846
 10
-82.4114729601
 20
-32.0129674038
 10
-82.4101340291
 20
-32.3486552945
  0
LWPOLYLINE
  5
5BA
100
AcDbEntity
  8
RACCORDO
100
AcDbPolyline
 62
250
  6
CONTINUOUS
 90
4
 70
0
 10
-82.4156970337
 20
-30.8980659684
 10
-82.4149714013
 20
-31.095742607
 10
-82.4142543215
 20
-31.2885642005
 10
-82.4128464038
 20
-31.6598991985
  0
LINE
  5
5BB
100
AcDbEntity
  8
RACCORDO
100
AcDbLine
 62
250
  6
CONTINUOUS
 10
-81.4447216557
 20
38.6321825066
 11
-81.444299716
 21
38.5511987011
  0
LINE
  5
5BC
100
AcDbEntity
  8
RACCORDO
100
AcDbLine
 62
250
  6
CONTINUOUS
 10
-81.5198721733
 20
-21.5394726889
 11
-81.4881951289
 21
-29.8286468936
  0
LINE
  5
5BD
100
AcDbEntity
  8
RACCORDO
100
AcDbLine
 62
250
  6
CONTINUOUS
 10
-81.5242537849
 20
-20.187486335
 11
-81.5198721733
 21
-21.5394726889
  0
LINE
  5
5BE
100
AcDbEntity
  8
RACCORDO
100
AcDbLine
 62
250
  6
CONTINUOUS
 10
-82.3870757444
 20
-37.2117039322
 11
-82.3862501677
 21
-37.4183595968
  0
LINE
  5
5BF
100
AcDbEntity
  8
RACCORDO
100
AcDbLine
 62
250
  6
CONTINUOUS
 10
-81.5301343828
 20
-18.2177037241
 11
-81.5242537849
 21
-20.187486335
  0
LINE
  5
5C0
100
AcDbEntity
  8
RACCORDO
100
AcDbLine
 62
250
  6
CONTINUOUS
 10
-82.4445705165
 20
-21.5426946493
 11
-82.4156970337
 21
-30.8980659684
  0
LINE
  5
5C1
100
AcDbEntity
  8
RACCORDO
100
AcDbLine
 62
250
  6
CONTINUOUS
 10
-81.5330480969
 20
-17.1555832784
 11
-81.5301343828
 21
-18.2177037241
  0
LINE
  5
5C2
100
AcDbEntity
  8
RACCORDO
100
AcDbLine
 62
250
  6
CONTINUOUS
 10
-81.5359075859
 20
-16.0377319718
 11
-81.5330480969
 21
-17.1555832784
  0
LINE
  5
5C3
100
AcDbEntity
  8
RACCORDO
100
AcDbLine
 62
250
  6
CONTINUOUS
 10
-81.5400461182
 20
-14.2509689449
 11
-81.5359075859
 21
-16.0377319718
  0
LINE
  5
5C4
100
AcDbEntity
  8
RACCORDO
100
AcDbLine
 62
250
  6
CONTINUOUS
 10
-82.365050251
 20
-38.9161704878
 11
-82.3642453077
 21
-39.17574726
  0
LINE
  5
5C5
100
AcDbEntity
  8
RACCORDO
100
AcDbLine
 62
250
  6
CONTINUOUS
 10
-81.5426620389
 20
-12.9817212876
 11
-81.5400461182
 21
-14.2509689449
  0
LINE
  5
5C6
100
AcDbEntity
  8
RACCORDO
100
AcDbLine
 62
250
  6
CONTINUOUS
 10
-82.4579956311
 20
-15.4597803344
 11
-82.4445705165
 21
-21.5426946493
  0
LINE
  5
5C7
100
AcDbEntity
  8
RACCORDO
100
AcDbLine
 62
250
  6
CONTINUOUS
 10
-81.5495000742
 20
-8.7604996559
 11
-81.5426620389
 21
-12.9817212876
  0
LINE
  5
5C8
100
AcDbEntity
  8
RACCORDO
100
AcDbLine
 62
250
  6
CONTINUOUS
 10
-82.465664162
 20
-10.2413384839
 11
-82.4579956311
 21
-15.4597803344
  0
LWPOLYLINE
  5
5C9
100
AcDbEntity
  8
RACCORDO
100
AcDbPolyline
 62
250
  6
CONTINUOUS
 90
3
 70
0
 10
-81.4396906452
 20
36.349683966
 10
-81.4389620666
 20
35.8925720213
 10
-81.4389233223
 20
35.6613331852
  0
LINE
  5
5CA
100
AcDbEntity
  8
RACCORDO
100
AcDbLine
 62
250
  6
CONTINUOUS
 10
-81.5544132622
 20
-3.841033069
 11
-81.5495000742
 21
-8.7604996559
  0
LINE
  5
5CB
100
AcDbEntity
  8
RACCORDO
100
AcDbLine
 62
250
  6
CONTINUOUS
 10
-82.4709807571
 20
-3.8417387298
 11
-82.465664162
 21
-10.2413384839
  0
LINE
  5
5CC
100
AcDbEntity
  8
RACCORDO
100
AcDbLine
 62
250
  6
CONTINUOUS
 10
-82.3647015996
 20
37.2390643192
 11
-82.3642403393
 21
37.0098225079
  0
LINE
  5
5CD
100
AcDbEntity
  8
RACCORDO
100
AcDbLine
 62
250
  6
CONTINUOUS
 10
-81.5561750045
 20
-1.0863420873
 11
-81.5544132622
 21
-3.841033069
  0
LINE
  5
5CE
100
AcDbEntity
  8
RACCORDO
100
AcDbLine
 62
250
  6
CONTINUOUS
 10
-82.4723399914
 20
-1.0859043669
 11
-82.4709807571
 21
-3.8417387298
  0
LWPOLYLINE
  5
5CF
100
AcDbEntity
  8
RACCORDO
100
AcDbPolyline
 62
250
  6
CONTINUOUS
 90
3
 70
0
 10
-81.444299716
 20
38.5511987011
 10
-81.4441257536
 20
38.3067387094
 10
-81.4396906452
 20
36.349683966
  0
LINE
  5
5D0
100
AcDbEntity
  8
RACCORDO
100
AcDbLine
 62
250
  6
CONTINUOUS
 10
-81.4389233223
 20
-37.8341441898
 11
-81.4392334917
 21
-38.292384094
  0
LINE
  5
5D1
100
AcDbEntity
  8
RACCORDO
100
AcDbLine
 62
250
  6
CONTINUOUS
 10
-81.4431087138
 20
-39.745876596
 11
-81.4441498137
 21
-40.6548541234
  0
LINE
  5
5D2
100
AcDbEntity
  8
RACCORDO
100
AcDbLine
 62
250
  6
CONTINUOUS
 10
-81.4392334917
 20
-38.292384094
 11
-81.4431087138
 21
-39.745876596
  0
LINE
  5
5D3
100
AcDbEntity
  8
RACCORDO
100
AcDbLine
 62
250
  6
CONTINUOUS
 10
-82.3642453077
 20
-39.17574726
 11
-82.3646635067
 21
-39.4041635333
  0
LWPOLYLINE
  5
5D4
100
AcDbEntity
  8
RACCORDO
100
AcDbPolyline
 62
250
  6
CONTINUOUS
 90
5
 70
0
 10
-81.4441498137
 20
-40.6548541234
 10
-81.4444594225
 20
-40.7707107637
 10
-81.4447091863
 20
-40.8043330734
 10
-81.44523758
 20
-40.8235646525
 10
-81.4461621843
 20
-40.8296534214
  0
LINE
  5
5D5
100
AcDbEntity
  8
RACCORDO
100
AcDbLine
 62
250
  6
CONTINUOUS
 10
-82.3642403393
 20
37.0098225079
 11
-82.3650189623
 21
36.7493065386
  0
LINE
  5
5D6
100
AcDbEntity
  8
RACCORDO
100
AcDbLine
 62
250
  6
CONTINUOUS
 10
-81.4738873329
 20
30.7190142994
 11
-81.5561750045
 21
-1.0863420873
  0
LINE
  5
5D7
100
AcDbEntity
  8
RACCORDO
100
AcDbLine
 62
250
  6
CONTINUOUS
 10
-81.4495832756
 20
34.9291609946
 11
-81.450150655
 21
34.8392310223
  0
LINE
  5
5D8
100
AcDbEntity
  8
RACCORDO
100
AcDbLine
 62
250
  6
CONTINUOUS
 10
-81.450150655
 20
34.8392310223
 11
-81.4738873329
 21
30.7190142994
  0
LINE
  5
5D9
100
AcDbEntity
  8
RACCORDO
100
AcDbLine
 62
250
  6
CONTINUOUS
 10
-82.3860356644
 20
35.2751954266
 11
-82.4723395576
 21
-1.0859043673
  0
LINE
  5
5DA
100
AcDbEntity
  8
RACCORDO
100
AcDbLine
 62
250
  6
CONTINUOUS
 10
-82.3650189623
 20
36.7493065386
 11
-82.3671082157
 21
36.4642445681
  0
LINE
  5
5DB
100
AcDbEntity
  8
RACCORDO
100
AcDbLine
 62
250
  6
CONTINUOUS
 10
-81.4479150772
 20
35.1798862066
 11
-81.4495832756
 21
34.9291609946
  0
LWPOLYLINE
  5
5DC
100
AcDbEntity
  8
RACCORDO
100
AcDbPolyline
 62
250
  6
CONTINUOUS
 90
10
 70
0
 10
-82.3646635067
 20
-39.4041635333
 10
-82.3663247519
 20
-39.5981206267
 10
-82.367652656
 20
-39.6808026841
 10
-82.3693102848
 20
-39.7520182402
 10
-82.371300432
 20
-39.811800796
 10
-82.3736366512
 20
-39.8604310533
 10
-82.376300925
 20
-39.8977725473
 10
-82.3792786902
 20
-39.9244778928
 10
-82.3825793432
 20
-39.9415169725
 10
-82.3862113425
 20
-39.9497042382
  0
LINE
  5
5DD
100
AcDbEntity
  8
RACCORDO
100
AcDbLine
 62
250
  6
CONTINUOUS
 10
-82.3845475093
 20
35.4135495811
 11
-82.3860356644
 21
35.2751954266
  0
LINE
  5
5DE
100
AcDbEntity
  8
RACCORDO
100
AcDbLine
 62
250
  6
CONTINUOUS
 10
-82.3671082157
 20
36.4642445681
 11
-82.3706661074
 21
36.1613207346
  0
LINE
  5
5DF
100
AcDbEntity
  8
RACCORDO
100
AcDbLine
 62
250
  6
CONTINUOUS
 10
-81.4464197636
 20
35.304853957
 11
-81.4479150772
 21
35.1798862066
  0
LINE
  5
5E0
100
AcDbEntity
  8
RACCORDO
100
AcDbLine
 62
250
  6
CONTINUOUS
 10
-82.3706661074
 20
36.1613207346
 11
-82.3759816247
 21
35.8470159265
  0
LINE
  5
5E1
100
AcDbEntity
  8
RACCORDO
100
AcDbLine
 62
250
  6
CONTINUOUS
 10
-82.381935808
 20
35.5713494535
 11
-82.3845475093
 21
35.4135495811
  0
LINE
  5
5E2
100
AcDbEntity
  8
RACCORDO
100
AcDbLine
 62
250
  6
CONTINUOUS
 10
-81.444016404
 20
35.4443726673
 11
-81.4464197636
 21
35.304853957
  0
LINE
  5
5E3
100
AcDbEntity
  8
RACCORDO
100
AcDbLine
 62
250
  6
CONTINUOUS
 10
-82.3759816247
 20
35.8470159265
 11
-82.381935808
 21
35.5713494535
  0
LWPOLYLINE
  5
5E4
100
AcDbEntity
  8
RACCORDO
100
AcDbPolyline
 62
250
  6
CONTINUOUS
 90
3
 70
0
 10
-81.4389233223
 20
35.6613331852
 10
-81.4404114418
 20
35.6037069738
 10
-81.444016404
 20
35.4443726673
  0
LWPOLYLINE
  5
5E5
100
AcDbEntity
  8
RACCORDO
100
AcDbPolyline
 62
250
  6
CONTINUOUS
 90
3
 70
0
 10
-85.3512132584
 20
-1.0865131864
 10
-85.3295813718
 20
-1.0862392254
 10
-85.321476245
 20
-1.0859760468
  0
LINE
  5
5E6
100
AcDbEntity
  8
RACCORDO
100
AcDbLine
 62
250
  6
CONTINUOUS
 10
-85.3214762417
 20
-1.0868492985
 11
-85.2608899792
 21
-1.0861875494
  0
LINE
  5
5E7
100
AcDbEntity
  8
RACCORDO
100
AcDbLine
 62
250
  6
CONTINUOUS
 10
-85.5701461869
 20
-1.0876914693
 11
-85.3512132584
 21
-1.0865131864
  0
LINE
  5
5E8
100
AcDbEntity
  8
RACCORDO
100
AcDbLine
 62
250
  6
CONTINUOUS
 10
-85.8656330751
 20
-1.0886240819
 11
-85.5701461869
 21
-1.0876914693
  0
LWPOLYLINE
  5
5E9
100
AcDbEntity
  8
RACCORDO
100
AcDbPolyline
 62
250
  6
CONTINUOUS
 90
4
 70
0
 10
-84.0940772348
 20
-1.0859725044
 10
-83.6509475364
 20
-1.0851483242
 10
-83.1125972673
 20
-1.0850305706
 10
-82.4723396546
 20
-1.0860758948
  0
LINE
  5
5EA
100
AcDbEntity
  8
RACCORDO
100
AcDbLine
 62
250
  6
CONTINUOUS
 10
-81.5561756256
 20
-1.0853708542
 11
-82.4723399914
 21
-1.0859043669
  0
LWPOLYLINE
  5
5EB
100
AcDbEntity
  8
0
100
AcDbPolyline
 62
7
  6
CONTINUOUS
 90
13
 70
0
 43
0.3500000006
 10
-95.654184906
 20
-1.0864050751
 10
-96.9399008789
 20
-1.0864050751
 10
-97.3684698486
 20
-0.8721205902
 10
-97.7970388184
 20
-0.4435493546
 10
-97.7970388184
 20
-0.2292626038
 10
-97.3684698486
 20
0.1993086319
 10
-96.9399008789
 20
0.4135953827
 10
-95.654184906
 20
0.4135953827
 10
-95.2256159363
 20
0.1993086319
 10
-94.7970379028
 20
-0.2292626038
 10
-94.7970379028
 20
-0.4435493546
 10
-95.2256159363
 20
-0.8721205902
 10
-95.654184906
 20
-1.0864050751
  0
LWPOLYLINE
  5
5EC
100
AcDbEntity
  8
RACCORDO
100
AcDbPolyline
 62
250
  6
CONTINUOUS
 90
4
 70
0
 10
-85.2608899792
 20
-1.0861875494
 10
-84.9501871458
 20
-1.087456992
 10
-84.7235059337
 20
-1.0877497769
 10
-84.0940772348
 20
-1.0859725044
  0
LINE
  5
5ED
100
AcDbEntity
  8
RACCORDO
100
AcDbLine
 62
7
  6
CONTINUOUS
 10
-80.0470406332
 20
1.7135944977
 11
-80.0470406332
 21
-3.8864055023
  0
LINE
  5
5EE
100
AcDbEntity
  8
RACCORDO
100
AcDbLine
 62
7
  6
CONTINUOUS
 10
-79.9470406332
 20
-3.7864055023
 11
-79.9470406332
 21
1.6135944977
  0
LINE
  5
5EF
100
AcDbEntity
  8
DRAFT
100
AcDbLine
 62
7
  6
CONTINUOUS
 10
-78.7470406332
 20
1.6135944977
 11
-78.7470406332
 21
-3.7864055023
  0
LWPOLYLINE
  5
5F0
100
AcDbEntity
  8
RACCORDO
100
AcDbPolyline
 62
7
  6
CONTINUOUS
 90
5
 70
0
 10
-85.2540524939
 20
-26.8388670825
 10
-85.2564623552
 20
-26.8525324376
 10
-85.2574643383
 20
-26.8629167825
 10
-85.2574669655
 20
-26.870663421
 10
-85.2574022134
 20
-26.8717201416
  0
LINE
  5
5F1
100
AcDbEntity
  8
RACCORDO
100
AcDbLine
 62
250
  6
CONTINUOUS
 10
-79.9470406332
 20
1.4135944977
 11
-80.0470406332
 21
1.4135944977
  0
LINE
  5
5F2
100
AcDbEntity
  8
ASSI
100
AcDbLine
 62
7
  6
CONTINUOUS
 10
-80.0387841277
 20
1.9135944977
 11
-79.9289753624
 21
1.9135944977
  0
LINE
  5
5F3
100
AcDbEntity
  8
DRAFT
100
AcDbLine
 62
7
  6
CONTINUOUS
 10
-76.7470406332
 20
2.9135944977
 11
-77.4470406332
 21
2.9135944977
  0
LINE
  5
5F4
100
AcDbEntity
  8
RACCORDO
100
AcDbLine
 62
250
  6
CONTINUOUS
 10
-85.2564567589
 20
24.6796966801
 11
-85.2540510293
 21
24.6660559543
  0
LINE
  5
5F5
100
AcDbEntity
  8
DRAFT
100
AcDbLine
 62
7
  6
CONTINUOUS
 10
-76.7470406332
 20
4.1135944977
 11
-76.7470406332
 21
2.9135944977
  0
LINE
  5
5F6
100
AcDbEntity
  8
DRAFT
100
AcDbLine
 62
7
  6
CONTINUOUS
 10
-76.7470406332
 20
-5.0864055023
 11
-76.7470406332
 21
-6.2864055023
  0
LINE
  5
5F7
100
AcDbEntity
  8
RACCORDO
100
AcDbLine
 62
7
  6
CONTINUOUS
 10
-76.5470406332
 20
-6.3864055023
 11
-76.5470406332
 21
-41.0864055023
  0
LINE
  5
5F8
100
AcDbEntity
  8
RACCORDO
100
AcDbLine
 62
7
  6
CONTINUOUS
 10
-76.5470406332
 20
4.2135944977
 11
-76.5470406332
 21
38.9135944977
  0
LINE
  5
5F9
100
AcDbEntity
  8
RACCORDO
100
AcDbLine
 62
7
  6
CONTINUOUS
 10
-77.4470406332
 20
4.1135944977
 11
-76.7470406332
 21
4.1135944977
  0
LINE
  5
5FA
100
AcDbEntity
  8
RACCORDO
100
AcDbLine
 62
7
  6
CONTINUOUS
 10
-76.5470406332
 20
4.2135944977
 11
-77.5470406332
 21
4.2135944977
  0
LWPOLYLINE
  5
5FB
100
AcDbEntity
  8
RACCORDO
100
AcDbPolyline
 62
250
  6
CONTINUOUS
 90
3
 70
0
 10
-81.4461621843
 20
38.6568424168
 10
-81.4452475753
 20
38.6509153708
 10
-81.4447216557
 20
38.6321825066
  0
LWPOLYLINE
  5
5FC
100
AcDbEntity
  8
SCRITTA_VIMAR
100
AcDbPolyline
 62
250
  6
CONTINUOUS
 90
18
 70
0
 10
-84.9972508069
 20
-28.9611153423
 10
-84.9969688792
 20
-28.9606280514
 10
-84.9967254082
 20
-28.9598719393
 10
-84.9965203758
 20
-28.9588380076
 10
-84.9963537637
 20
-28.957517258
 10
-84.9962255538
 20
-28.9559006922
 10
-84.9961357277
 20
-28.9539793119
 10
-84.9960847485
 20
-28.9517422938
 10
-84.9960750037
 20
-28.9491715148
 10
-84.9961093622
 20
-28.946247027
 10
-84.9961906927
 20
-28.9429488822
 10
-84.9963218641
 20
-28.9392571325
 10
-84.9965057452
 20
-28.9351518298
 10
-84.9967074812
 20
-28.9312891253
 10
-84.9969518358
 20
-28.9270977783
 10
-84.9972405942
 20
-28.9225676366
 10
-84.997575542
 20
-28.9176885481
 10
-84.9983911467
 20
-28.9068429228
  0
LWPOLYLINE
  5
5FD
100
AcDbEntity
  8
RACCORDO
100
AcDbPolyline
 62
250
  6
CONTINUOUS
 90
9
 70
0
 10
-82.3862113515
 20
37.7768932347
 10
-82.3826254383
 20
37.7688675778
 10
-82.3793587797
 20
37.7522122881
 10
-82.3764052922
 20
37.7261289761
 10
-82.3737590659
 20
37.6896948701
 10
-82.3714313235
 20
37.6422319223
 10
-82.3694362195
 20
37.5836925457
 10
-82.3677640762
 20
37.5136709537
 10
-82.3664154411
 20
37.432066329
  0
LWPOLYLINE
  5
5FE
100
AcDbEntity
  8
RACCORDO
100
AcDbPolyline
 62
250
  6
CONTINUOUS
 90
12
 70
0
 10
-82.5296170774
 20
-40.1458847161
 10
-82.5302421602
 20
-40.1469621445
 10
-82.530807417
 20
-40.1479693221
 10
-82.5313150382
 20
-40.1488896922
 10
-82.531759853
 20
-40.1497227269
 10
-82.5321371022
 20
-40.1504696857
 10
-82.5324488226
 20
-40.1511167546
 10
-82.5326919634
 20
-40.1516619617
 10
-82.532863355
 20
-40.1521077725
 10
-82.5329645312
 20
-40.1524470439
 10
-82.532996129
 20
-40.1526754452
 10
-82.5329840171
 20
-40.1527542367
  0
LWPOLYLINE
  5
5FF
100
AcDbEntity
  8
RACCORDO
100
AcDbPolyline
 62
250
  6
CONTINUOUS
 90
3
 70
0
 10
-82.5256623627
 20
37.9665833608
 10
-82.5247578739
 20
37.9651571149
 10
-82.5228522577
 20
37.9621883339
  0
LWPOLYLINE
  5
600
100
AcDbEntity
  8
RACCORDO
100
AcDbPolyline
 62
250
  6
CONTINUOUS
 90
3
 70
0
 10
-82.528136671
 20
37.9705845477
 10
-82.5273538742
 20
37.969304527
 10
-82.5256623627
 20
37.9665833608
  0
LWPOLYLINE
  5
601
100
AcDbEntity
  8
RACCORDO
100
AcDbPolyline
 62
250
  6
CONTINUOUS
 90
3
 70
0
 10
-82.5274326502
 20
-40.1422438355
 10
-82.5282102979
 20
-40.1435171602
 10
-82.5296170774
 20
-40.1458847161
  0
LWPOLYLINE
  5
602
100
AcDbEntity
  8
RACCORDO
100
AcDbPolyline
 62
250
  6
CONTINUOUS
 90
3
 70
0
 10
-82.5248501725
 20
-40.1381132827
 10
-82.5257504564
 20
-40.139534414
 10
-82.5274326502
 20
-40.1422438355
  0
LINE
  5
603
100
AcDbEntity
  8
RACCORDO
100
AcDbLine
 62
250
  6
CONTINUOUS
 10
-82.522952131
 20
-40.1351533
 11
-82.5248501725
 21
-40.1381132827
  0
LWPOLYLINE
  5
604
100
AcDbEntity
  8
RACCORDO
100
AcDbPolyline
 62
250
  6
CONTINUOUS
 90
3
 70
0
 10
-82.519902918
 20
-40.1305035489
 10
-82.5209406293
 20
-40.1320788101
 10
-82.522952131
 20
-40.1351533
  0
LWPOLYLINE
  5
605
100
AcDbEntity
  8
RACCORDO
100
AcDbPolyline
 62
250
  6
CONTINUOUS
 90
3
 70
0
 10
-82.5155882747
 20
-40.1240766916
 10
-82.5166862932
 20
-40.1256881945
 10
-82.519902918
 20
-40.1305035489
  0
LWPOLYLINE
  5
606
100
AcDbEntity
  8
RACCORDO
100
AcDbPolyline
 62
250
  6
CONTINUOUS
 90
3
 70
0
 10
-82.5122557762
 20
-40.1193160257
 10
-82.5133726087
 20
-40.1208749764
 10
-82.5155882747
 20
-40.1240766916
  0
LINE
  5
607
100
AcDbEntity
  8
RACCORDO
100
AcDbLine
 62
250
  6
CONTINUOUS
 10
-86.0470406332
 20
21.2135944977
 11
-85.8586338062
 21
21.2135944977
  0
LINE
  5
608
100
AcDbEntity
  8
RACCORDO
100
AcDbLine
 62
250
  6
CONTINUOUS
 10
-85.8586330279
 20
21.2135944977
 11
-85.6472899107
 21
21.2100310152
  0
LWPOLYLINE
  5
609
100
AcDbEntity
  8
RACCORDO
100
AcDbPolyline
 62
250
  6
CONTINUOUS
 90
7
 70
0
 10
-85.6472899107
 20
21.2100310152
 10
-85.482903225
 20
21.2065306737
 10
-85.4192642052
 20
21.2048236271
 10
-85.3683900628
 20
21.2031554643
 10
-85.330506743
 20
21.2015335786
 10
-85.3057824953
 20
21.1999651576
 10
-85.2943271267
 20
21.1984571516
  0
LWPOLYLINE
  5
60A
100
AcDbEntity
  8
RACCORDO
100
AcDbPolyline
 62
250
  6
CONTINUOUS
 90
36
 70
0
 10
-82.5099208886
 20
37.9433562011
 10
-82.5088785978
 20
37.9419244809
 10
-82.5078616744
 20
37.9406727568
 10
-82.5068579206
 20
37.9394656921
 10
-82.505925093
 20
37.9378981593
 10
-82.5050830565
 20
37.9357326149
 10
-82.504217281
 20
37.9332096852
 10
-82.5032011501
 20
37.9306406438
 10
-82.5019978377
 20
37.9281045425
 10
-82.5006575293
 20
37.9255215199
 10
-82.4991891344
 20
37.9229652953
 10
-82.4976596437
 20
37.920337269
 10
-82.496090667
 20
37.9177313877
 10
-82.4944129569
 20
37.9155119354
 10
-82.4926110175
 20
37.9139171183
 10
-82.4908061615
 20
37.9127051376
 10
-82.4891219872
 20
37.9115211813
 10
-82.4876116403
 20
37.9103167748
 10
-82.4862266055
 20
37.9091402065
 10
-82.4849318847
 20
37.9077813557
 10
-82.4836975473
 20
37.9061300787
 10
-82.4824719768
 20
37.9043001206
 10
-82.4811956732
 20
37.9024166823
 10
-82.4798529567
 20
37.9005198497
 10
-82.4784566548
 20
37.8985695406
 10
-82.4769883417
 20
37.8965710284
 10
-82.475449919
 20
37.8945314355
 10
-82.4738461701
 20
37.8924431137
 10
-82.4721602531
 20
37.8902892946
 10
-82.4703929789
 20
37.8880676391
 10
-82.468547304
 20
37.8857800185
 10
-82.4666084311
 20
37.8834159778
 10
-82.4645670037
 20
37.8809582009
 10
-82.4624395924
 20
37.8784232676
 10
-82.4602517925
 20
37.8758515596
 10
-82.4557056888
 20
37.8705775945
  0
LWPOLYLINE
  5
60B
100
AcDbEntity
  8
RACCORDO
100
AcDbPolyline
 62
250
  6
CONTINUOUS
 90
3
 70
0
 10
-82.5132568683
 20
37.9478972672
 10
-82.5121395126
 20
37.9463408733
 10
-82.5099208886
 20
37.9433562011
  0
LWPOLYLINE
  5
60C
100
AcDbEntity
  8
RACCORDO
100
AcDbPolyline
 62
250
  6
CONTINUOUS
 90
3
 70
0
 10
-82.5165715086
 20
37.9527082533
 10
-82.5154724101
 20
37.9510962658
 10
-82.5132568683
 20
37.9478972672
  0
LINE
  5
60D
100
AcDbEntity
  8
RACCORDO
100
AcDbLine
 62
250
  6
CONTINUOUS
 10
-82.5197948904
 20
37.957529173
 11
-82.5165715086
 21
37.9527082533
  0
LWPOLYLINE
  5
60E
100
AcDbEntity
  8
RACCORDO
100
AcDbPolyline
 62
250
  6
CONTINUOUS
 90
3
 70
0
 10
-82.5228522577
 20
37.9621883339
 10
-82.521855902
 20
37.96065971
 10
-82.5197948904
 20
37.957529173
  0
LWPOLYLINE
  5
60F
100
AcDbEntity
  8
0
100
AcDbPolyline
 62
7
  6
CONTINUOUS
 90
10
 70
0
 43
0.3500000006
 10
-81.4041850891
 20
50.3364058685
 10
-81.3327539063
 20
50.1935480347
 10
-81.3327539063
 20
50.1221213837
 10
-81.475616272
 20
49.9792635498
 10
-81.5470383911
 20
49.9792635498
 10
-81.618469574
 20
50.0506902008
 10
-81.618469574
 20
50.1221213837
 10
-81.5470383911
 20
50.2649746857
 10
-81.475616272
 20
50.3364058685
 10
-81.4041850891
 20
50.3364058685
  0
LWPOLYLINE
  5
610
100
AcDbEntity
  8
RACCORDO
100
AcDbPolyline
 62
250
  6
CONTINUOUS
 90
22
 70
0
 10
-82.4838853099
 20
-40.0791909172
 10
-82.4851391834
 20
-40.0808412113
 10
-82.4864530405
 20
-40.0821725278
 10
-82.4878526664
 20
-40.0833065295
 10
-82.489367565
 20
-40.0844950899
 10
-82.4910472482
 20
-40.0857199159
 10
-82.4928414141
 20
-40.0869991886
 10
-82.4946323747
 20
-40.0886385874
 10
-82.496292253
 20
-40.0908545093
 10
-82.4978349387
 20
-40.0934346887
 10
-82.4993403162
 20
-40.0960428563
 10
-82.5007948124
 20
-40.0985991688
 10
-82.5021279798
 20
-40.1011878211
 10
-82.5033237313
 20
-40.1037203335
 10
-82.5043232426
 20
-40.1062671456
 10
-82.5051676015
 20
-40.1087589293
 10
-82.5059956863
 20
-40.1108983565
 10
-82.5069359939
 20
-40.1124490245
 10
-82.5079617956
 20
-40.1136438314
 10
-82.5089970868
 20
-40.1148884693
 10
-82.5100437615
 20
-40.1163205504
 10
-82.5122557762
 20
-40.1193160257
  0
LWPOLYLINE
  5
611
100
AcDbEntity
  8
RACCORDO
100
AcDbPolyline
 62
250
  6
CONTINUOUS
 90
3
 70
0
 10
-82.4059247694
 20
-39.9865604921
 10
-82.4123839177
 20
-39.9941794724
 10
-82.4131277871
 20
-39.9950528035
  0
LWPOLYLINE
  5
612
100
AcDbEntity
  8
RACCORDO
100
AcDbPolyline
 62
250
  6
CONTINUOUS
 90
14
 70
0
 10
-82.4599146496
 20
-40.0482682024
 10
-82.4620469749
 20
-40.0507711323
 10
-82.4641471016
 20
-40.0532678406
 10
-82.4661883802
 20
-40.0557185356
 10
-82.4681574582
 20
-40.0581126802
 10
-82.4700578298
 20
-40.0604615276
 10
-82.4718898173
 20
-40.0627579954
 10
-82.4736492656
 20
-40.0650003205
 10
-82.4753341098
 20
-40.0671908068
 10
-82.4769482571
 20
-40.0693284658
 10
-82.4784857234
 20
-40.0714211631
 10
-82.4799443863
 20
-40.0734616572
 10
-82.4813337834
 20
-40.0754263555
 10
-82.4838853099
 20
-40.0791909172
  0
LINE
  5
613
100
AcDbEntity
  8
RACCORDO
100
AcDbLine
 62
250
  6
CONTINUOUS
 10
-82.4053678356
 20
-39.9859095421
 11
-82.4059247694
 21
-39.9865604921
  0
LINE
  5
614
100
AcDbEntity
  8
RACCORDO
100
AcDbLine
 62
250
  6
CONTINUOUS
 10
-82.4131277871
 20
-39.9950528035
 11
-82.4189862261
 21
-40.0019118524
  0
LINE
  5
615
100
AcDbEntity
  8
RACCORDO
100
AcDbLine
 62
250
  6
CONTINUOUS
 10
-82.4405370769
 20
37.8535004657
 11
-82.4351546918
 21
37.8475712319
  0
LINE
  5
616
100
AcDbEntity
  8
RACCORDO
100
AcDbLine
 62
250
  6
CONTINUOUS
 10
-82.4466700119
 20
37.8603281416
 11
-82.4405370769
 21
37.8535004657
  0
LINE
  5
617
100
AcDbEntity
  8
RACCORDO
100
AcDbLine
 62
250
  6
CONTINUOUS
 10
-82.4351546918
 20
37.8475712319
 11
-82.4319616761
 21
37.8439983433
  0
LINE
  5
618
100
AcDbEntity
  8
RACCORDO
100
AcDbLine
 62
250
  6
CONTINUOUS
 10
-82.4511322187
 20
37.8653614315
 11
-82.4466700119
 21
37.8603281416
  0
LINE
  5
619
100
AcDbEntity
  8
RACCORDO
100
AcDbLine
 62
250
  6
CONTINUOUS
 10
-82.4319616761
 20
37.8439983433
 11
-82.4290443826
 21
37.8406954782
  0
LINE
  5
61A
100
AcDbEntity
  8
RACCORDO
100
AcDbLine
 62
250
  6
CONTINUOUS
 10
-82.4557056888
 20
37.8705775945
 11
-82.4511322187
 21
37.8653614315
  0
LINE
  5
61B
100
AcDbEntity
  8
RACCORDO
100
AcDbLine
 62
250
  6
CONTINUOUS
 10
-82.4290443826
 20
37.8406954782
 11
-82.4251214071
 21
37.8362080058
  0
LINE
  5
61C
100
AcDbEntity
  8
RACCORDO
100
AcDbLine
 62
250
  6
CONTINUOUS
 10
-82.4251214071
 20
37.8362080058
 11
-82.4205986061
 21
37.8309781058
  0
LINE
  5
61D
100
AcDbEntity
  8
RACCORDO
100
AcDbLine
 62
250
  6
CONTINUOUS
 10
-82.4059702724
 20
37.8138031856
 11
-82.4033365273
 21
37.8107400579
  0
LINE
  5
61E
100
AcDbEntity
  8
RACCORDO
100
AcDbLine
 62
250
  6
CONTINUOUS
 10
-82.4205986061
 20
37.8309781058
 11
-82.412557036
 21
37.8215717949
  0
LINE
  5
61F
100
AcDbEntity
  8
RACCORDO
100
AcDbLine
 62
250
  6
CONTINUOUS
 10
-82.412557036
 20
37.8215717949
 11
-82.4059702724
 21
37.8138031856
  0
LWPOLYLINE
  5
620
100
AcDbEntity
  8
RACCORDO
100
AcDbPolyline
 62
250
  6
CONTINUOUS
 90
32
 70
0
 10
-82.4033365273
 20
37.8107400579
 10
-82.4028631954
 20
37.8101792444
 10
-82.4024099128
 20
37.8096196795
 10
-82.4019741748
 20
37.8090698524
 10
-82.4015525662
 20
37.8085447003
 10
-82.4011461017
 20
37.8080441315
 10
-82.4007540054
 20
37.8075682428
 10
-82.400371137
 20
37.807132214
 10
-82.3999964766
 20
37.8067549938
 10
-82.3996335286
 20
37.8064175284
 10
-82.3992835512
 20
37.8060780079
 10
-82.3989423653
 20
37.805767721
 10
-82.3986136718
 20
37.805455408
 10
-82.398308392
 20
37.8050055096
 10
-82.3980192448
 20
37.8044406821
 10
-82.3977428249
 20
37.8037387459
 10
-82.3974876984
 20
37.802697176
 10
-82.3972563963
 20
37.8011630552
 10
-82.3970100337
 20
37.7992905913
 10
-82.3966974202
 20
37.7973379144
 10
-82.3963026148
 20
37.7953350634
 10
-82.3958244662
 20
37.7932527378
 10
-82.3952443045
 20
37.7912600034
 10
-82.3945583196
 20
37.7894225104
 10
-82.3937809093
 20
37.7876743085
 10
-82.3929221358
 20
37.7859871552
 10
-82.3919840648
 20
37.7843588205
 10
-82.3909673604
 20
37.7827915091
 10
-82.3898801852
 20
37.7812635688
 10
-82.3887263778
 20
37.7797677382
 10
-82.3875049213
 20
37.7783111962
 10
-82.3862170191
 20
37.7768939126
  0
LINE
  5
621
100
AcDbEntity
  8
RACCORDO
100
AcDbLine
 62
250
  6
CONTINUOUS
 10
-82.4033047903
 20
-39.9835133848
 11
-82.4053678356
 21
-39.9859095421
  0
LINE
  5
622
100
AcDbEntity
  8
RACCORDO
100
AcDbLine
 62
250
  6
CONTINUOUS
 10
-82.4189862261
 20
-40.0019118524
 11
-82.4229518607
 21
-40.0065177163
  0
LINE
  5
623
100
AcDbEntity
  8
RACCORDO
100
AcDbLine
 62
250
  6
CONTINUOUS
 10
-82.4555695163
 20
-40.0432327587
 11
-82.4599146496
 21
-40.0482682024
  0
LINE
  5
624
100
AcDbEntity
  8
RACCORDO
100
AcDbLine
 62
250
  6
CONTINUOUS
 10
-82.4229518607
 20
-40.0065177163
 11
-82.4262486992
 21
-40.0103143884
  0
LINE
  5
625
100
AcDbEntity
  8
RACCORDO
100
AcDbLine
 62
250
  6
CONTINUOUS
 10
-82.4262486992
 20
-40.0103143884
 11
-82.4298325011
 21
-40.0144027215
  0
LINE
  5
626
100
AcDbEntity
  8
RACCORDO
100
AcDbLine
 62
250
  6
CONTINUOUS
 10
-82.451276968
 20
-40.0383358256
 11
-82.4555695163
 21
-40.0432327587
  0
LINE
  5
627
100
AcDbEntity
  8
RACCORDO
100
AcDbLine
 62
250
  6
CONTINUOUS
 10
-82.4298325011
 20
-40.0144027215
 11
-82.4324100594
 21
-40.0173152355
  0
LINE
  5
628
100
AcDbEntity
  8
RACCORDO
100
AcDbLine
 62
250
  6
CONTINUOUS
 10
-82.4471487775
 20
-40.0336761843
 11
-82.451276968
 21
-40.0383358256
  0
LINE
  5
629
100
AcDbEntity
  8
RACCORDO
100
AcDbLine
 62
250
  6
CONTINUOUS
 10
-82.4324100594
 20
-40.0173152355
 11
-82.4351888816
 21
-40.0204152087
  0
LINE
  5
62A
100
AcDbEntity
  8
RACCORDO
100
AcDbLine
 62
250
  6
CONTINUOUS
 10
-82.4415452593
 20
-40.0274267495
 11
-82.4471487775
 21
-40.0336761843
  0
LWPOLYLINE
  5
62B
100
AcDbEntity
  8
RACCORDO
100
AcDbPolyline
 62
250
  6
CONTINUOUS
 90
32
 70
0
 10
-82.3862170189
 20
-39.9497049171
 10
-82.3874975561
 20
-39.9511138414
 10
-82.3887127819
 20
-39.9525619647
 10
-82.3898614988
 20
-39.9540493172
 10
-82.3909446723
 20
-39.9555687901
 10
-82.3919583542
 20
-39.9571275835
 10
-82.3928944038
 20
-39.9587471475
 10
-82.3937521267
 20
-39.9604251761
 10
-82.3945292563
 20
-39.9621640139
 10
-82.3952162819
 20
-39.9639919843
 10
-82.3958005259
 20
-39.9659724522
 10
-82.3962845701
 20
-39.9680423308
 10
-82.3966835066
 20
-39.9700403331
 10
-82.396995221
 20
-39.9720009783
 10
-82.3972398948
 20
-39.9738889361
 10
-82.397472162
 20
-39.9754383126
 10
-82.3977286817
 20
-39.9764933877
 10
-82.398004685
 20
-39.9772088325
 10
-82.398291374
 20
-39.9777845102
 10
-82.3985948793
 20
-39.9782413656
 10
-82.3989220647
 20
-39.9785578598
 10
-82.3992616291
 20
-39.9788701766
 10
-82.3996107837
 20
-39.979209093
 10
-82.399973406
 20
-39.979543772
 10
-82.4003475136
 20
-39.9799179732
 10
-82.4007294964
 20
-39.9803510891
 10
-82.4011207109
 20
-39.9808238204
 10
-82.4015263904
 20
-39.9813218934
 10
-82.4019469218
 20
-39.9818458714
 10
-82.4023813379
 20
-39.9823952034
 10
-82.4028331275
 20
-39.9829539392
 10
-82.4033047903
 20
-39.9835133848
  0
LINE
  5
62C
100
AcDbEntity
  8
RACCORDO
100
AcDbLine
 62
250
  6
CONTINUOUS
 10
-82.4351888816
 20
-40.0204152087
 11
-82.4415452593
 21
-40.0274267495
  0
LINE
  5
62D
100
AcDbEntity
  8
RACCORDO
100
AcDbLine
 62
250
  6
CONTINUOUS
 10
-81.4389233223
 20
35.6613331852
 11
-76.5470406332
 21
35.9177058934
  0
LINE
  5
62E
100
AcDbEntity
  8
RACCORDO
100
AcDbLine
 62
250
  6
CONTINUOUS
 10
-81.4389233223
 20
35.6613331852
 11
-82.1506892286
 21
35.6810353255
  0
LWPOLYLINE
  5
62F
100
AcDbEntity
  8
RACCORDO
100
AcDbPolyline
 62
250
  6
CONTINUOUS
 90
3
 70
0
 10
-82.1506892286
 20
35.6810353255
 10
-82.3591052643
 20
35.6872424136
 10
-82.3794307248
 20
35.6879532811
  0
LINE
  5
630
100
AcDbEntity
  8
RACCORDO
100
AcDbLine
 62
7
  6
CONTINUOUS
 10
-81.7479219128
 20
38.6353514886
 11
-81.8528097917
 21
38.6127141658
  0
LWPOLYLINE
  5
631
100
AcDbEntity
  8
RACCORDO
100
AcDbPolyline
 62
7
  6
CONTINUOUS
 90
11
 70
0
 10
-81.7413829991
 20
38.6363770763
 10
-81.8410300472
 20
38.6158496697
 10
-81.9397620324
 20
38.5846751073
 10
-82.0364476079
 20
38.5426090165
 10
-82.1296821233
 20
38.4896259185
 10
-82.2178596059
 20
38.4260344696
 10
-82.2995713204
 20
38.3522819809
 10
-82.3736022037
 20
38.268835711
 10
-82.4386841711
 20
38.1763707593
 10
-82.493570945
 20
38.0757593089
 10
-82.5329826836
 20
37.9799470099
  0
LWPOLYLINE
  5
632
100
AcDbEntity
  8
RACCORDO
100
AcDbPolyline
 62
250
  6
CONTINUOUS
 90
13
 70
0
 10
-81.4461608008
 20
38.6568160179
 10
-81.561940897
 20
38.6439461909
 10
-81.6754370018
 20
38.6176842441
 10
-81.7851071927
 20
38.578386964
 10
-81.8894615248
 20
38.5265882312
 10
-81.9870822727
 20
38.4629917672
 10
-82.0766431916
 20
38.3884615735
 10
-82.1569275347
 20
38.304010194
 10
-82.2268445841
 20
38.2107849589
 10
-82.2854444685
 20
38.1100523969
 10
-82.3319310683
 20
38.0031810291
 10
-82.365672831
 20
37.8916227765
 10
-82.3862113515
 20
37.7768932347
  0
LINE
  5
633
100
AcDbEntity
  8
RACCORDO
100
AcDbLine
 62
7
  6
CONTINUOUS
 10
-81.6420390225
 20
38.6465769467
 11
-81.7479219128
 21
38.6353514886
  0
LINE
  5
634
100
AcDbEntity
  8
RACCORDO
100
AcDbLine
 62
7
  6
CONTINUOUS
 10
-81.6420357676
 20
38.6465771173
 11
-76.5470406332
 21
38.9135944977
  0
LWPOLYLINE
  5
635
100
AcDbEntity
  8
0
100
AcDbPolyline
 62
7
  6
CONTINUOUS
 90
8
 70
0
 43
0.3500000006
 10
-80.3327536011
 20
49.8364057159
 10
-79.4756156616
 20
49.8364057159
 10
-79.0470376282
 20
50.2649746857
 10
-79.0470376282
 20
51.1221216888
 10
-79.4756156616
 20
51.5506906586
 10
-80.3327536011
 20
51.5506906586
 10
-80.3327536011
 20
52.8364066315
 10
-79.0470376282
 20
52.8364066315
  0
ARC
  5
636
100
AcDbEntity
  8
0
100
AcDbCircle
 62
7
  6
CONTINUOUS
 10
-35.3776312986
 20
21.2135944977
 40
0.3
100
AcDbArc
 50
90.0
 51
180.0
  0
ARC
  5
637
100
AcDbEntity
  8
0
100
AcDbCircle
 62
7
  6
CONTINUOUS
 10
-35.3776312986
 20
-23.3864055023
 40
0.3
100
AcDbArc
 50
180.0
 51
270.0
  0
ARC
  5
638
100
AcDbEntity
  8
0
100
AcDbCircle
 62
7
  6
CONTINUOUS
 10
31.5223687014
 20
-23.3864055023
 40
0.3
100
AcDbArc
 50
270.0
 51
360.0
  0
ARC
  5
639
100
AcDbEntity
  8
0
100
AcDbCircle
 62
7
  6
CONTINUOUS
 10
31.5223687014
 20
21.2135944977
 40
0.3
100
AcDbArc
 50
0.0
 51
90.0
  0
ARC
  5
63A
100
AcDbEntity
  8
RACCORDO
100
AcDbCircle
 62
7
  6
CONTINUOUS
 10
-88.2409430514
 20
-27.0945141674
 40
3.0
100
AcDbArc
 50
4.8924894945
 51
7.5501377477
  0
ARC
  5
63B
100
AcDbEntity
  8
RACCORDO
100
AcDbCircle
 62
7
  6
CONTINUOUS
 10
-77.4470406332
 20
1.6135944977
 40
2.5
100
AcDbArc
 50
90.0
 51
180.0
  0
ARC
  5
63C
100
AcDbEntity
  8
RACCORDO
100
AcDbCircle
 62
7
  6
CONTINUOUS
 10
-77.4470406332
 20
-3.7864055023
 40
2.5
100
AcDbArc
 50
180.0
 51
270.0
  0
ARC
  5
63D
100
AcDbEntity
  8
RACCORDO
100
AcDbCircle
 62
7
  6
CONTINUOUS
 10
-77.5470406332
 20
-3.8864055023
 40
2.5
100
AcDbArc
 50
180.0
 51
270.0
  0
ARC
  5
63E
100
AcDbEntity
  8
RACCORDO
100
AcDbCircle
 62
7
  6
CONTINUOUS
 10
-77.5470406332
 20
1.7135944977
 40
2.5
100
AcDbArc
 50
90.0
 51
180.0
  0
ARC
  5
63F
100
AcDbEntity
  8
DRAFT
100
AcDbCircle
 62
7
  6
CONTINUOUS
 10
-77.4470406332
 20
1.6135944977
 40
1.3
100
AcDbArc
 50
90.0
 51
180.0
  0
ARC
  5
640
100
AcDbEntity
  8
DRAFT
100
AcDbCircle
 62
7
  6
CONTINUOUS
 10
-77.4470406332
 20
-3.7864055023
 40
1.3
100
AcDbArc
 50
180.0
 51
270.0
  0
ARC
  5
641
100
AcDbEntity
  8
RACCORDO
100
AcDbCircle
 62
7
  6
CONTINUOUS
 10
-85.0470406332
 20
-24.6864055023
 40
1.0
100
AcDbArc
 50
180.0
 51
216.9573520704
  0
ARC
  5
642
100
AcDbEntity
  8
0
100
AcDbCircle
 62
7
  6
CONTINUOUS
 10
-85.0470406332
 20
-24.6864055023
 40
1.0
100
AcDbArc
 50
180.0
 51
216.9573520704
  0
ARC
  5
643
100
AcDbEntity
  8
RACCORDO
100
AcDbCircle
 62
7
  6
CONTINUOUS
 10
-85.0470406332
 20
22.5135944977
 40
1.0
100
AcDbArc
 50
143.0426479296
 51
180.0
  0
ARC
  5
644
100
AcDbEntity
  8
0
100
AcDbCircle
 62
7
  6
CONTINUOUS
 10
-85.0470406332
 20
22.5135944977
 40
1.0
100
AcDbArc
 50
143.0426479296
 51
180.0
  0
ELLIPSE
  5
645
100
AcDbEntity
  8
RACCORDO
100
AcDbEllipse
 62
7
  6
CONTINUOUS
 10
58.0199609221
 20
-3.8864055023
 30
0.0
 11
-0.0
 21
2.5
 31
0.0
 40
0.0524077793
 41
-4.7123889804
 42
-3.1415926536
  0
ELLIPSE
  5
646
100
AcDbEntity
  8
RACCORDO
100
AcDbEllipse
 62
7
  6
CONTINUOUS
 10
-61.8752235194
 20
-3.8864055023
 30
0.0
 11
-0.0
 21
2.5
 31
0.0
 40
0.0524077793
 41
-3.1415926536
 42
-1.5707963268
  0
ELLIPSE
  5
647
100
AcDbEntity
  8
RACCORDO
100
AcDbEllipse
 62
7
  6
CONTINUOUS
 10
58.0199609221
 20
1.7135944977
 30
0.0
 11
0.0
 21
2.5
 31
0.0
 40
0.0524077793
 41
0.0
 42
1.5707963268
  0
ELLIPSE
  5
648
100
AcDbEntity
  8
RACCORDO
100
AcDbEllipse
 62
7
  6
CONTINUOUS
 10
-61.8752235194
 20
1.7135944977
 30
0.0
 11
0.0
 21
2.5
 31
0.0
 40
0.0524077793
 41
-1.5707963268
 42
-0.0
  0
ELLIPSE
  5
649
100
AcDbEntity
  8
RACCORDO
100
AcDbEllipse
 62
7
  6
CONTINUOUS
 10
-58.9235142606
 20
-38.0822884643
 30
0.0
 11
2.1271387303
 21
2.1271387303
 31
0.0
 40
0.9972646886
 41
-3.9256212891
 42
-2.3575640181
  0
ELLIPSE
  5
64A
100
AcDbEntity
  8
RACCORDO
100
AcDbEllipse
 62
7
  6
CONTINUOUS
 10
55.0682516634
 20
-38.0822884643
 30
0.0
 11
2.1271387303
 21
-2.1271387303
 31
0.0
 40
0.9972646886
 41
-0.7840286355
 42
0.7840286355
  0
ELLIPSE
  5
64B
100
AcDbEntity
  8
RACCORDO
100
AcDbEllipse
 62
7
  6
CONTINUOUS
 10
55.0682516634
 20
35.9094774597
 30
0.0
 11
2.1271387303
 21
2.1271387303
 31
0.0
 40
0.9972646886
 41
-0.7840286355
 42
0.7840286355
  0
ELLIPSE
  5
64C
100
AcDbEntity
  8
RACCORDO
100
AcDbEllipse
 62
7
  6
CONTINUOUS
 10
-58.9235142606
 20
35.9094774597
 30
0.0
 11
2.1271387303
 21
-2.1271387303
 31
0.0
 40
0.9972646886
 41
2.3575640181
 42
3.9256212891
  0
ENDSEC
  0
SECTION
  2
OBJECTS
  0
DICTIONARY
  5
C
100
AcDbDictionary
280
0
281
1
  3
ACAD_GROUP
350
D
  3
ACAD_MLINESTYLE
350
17
  3
ACAD_LAYOUT
350
1A
  3
ACAD_PLOTSETTINGS
350
19
  3
ACAD_PLOTSTYLENAME
350
E
  0
DICTIONARY
  5
D
102
{ACAD_REACTORS
330
C
102
}
100
AcDbDictionary
280
0
281
1
  0
ACDBDICTIONARYWDFLT
  5
E
102
{ACAD_REACTORS
330
C
102
}
100
AcDbDictionary
281
1
  3
Normal
350
F
100
AcDbDictionaryWithDefault
340
F
  0
DICTIONARY
  5
17
102
{ACAD_REACTORS
330
C
102
}
100
AcDbDictionary
280
0
281
1
  3
Standard
350
18
  0
DICTIONARY
  5
19
102
{ACAD_REACTORS
330
C
102
}
100
AcDbDictionary
281
1
  0
DICTIONARY
  5
1A
102
{ACAD_REACTORS
330
C
102
}
100
AcDbDictionary
281
1
  3
Model
350
64D
  3
Layout1
350
64E
  0
ACDBPLACEHOLDER
  5
F
102
{ACAD_REACTORS
330
E
102
}
  0
MLINESTYLE
  5
18
102
{ACAD_REACTORS
330
17
102
}
100
AcDbMlineStyle
  2
STANDARD
 70
0
  3

 62
256
 51
90.0
 52
90.0
 71
2
 49
0.5
 62
256
  6
BYLAYER
 49
-0.5
 62
256
  6
BYLAYER
  0
LAYOUT
  5
64D
102
{ACAD_REACTORS
330
1A
102
}
100
AcDbPlotSettings
  1

  2
none_device
  4
ISO_A4_(297.00_x_210.00_MM)
  6

 40
0.0
 41
0.0
 42
0.0
 43
0.0
 44
297.0
 45
210.0
 46
0.0
 47
0.0
 48
0.0
 49
0.0
140
0.0
141
0.0
142
1.0
143
1.0
 70
1024
 72
1
 73
0
 74
0
  7

 75
0
147
1.0
148
0.0
149
0.0
100
AcDbLayout
  1
Model
 70
0
 71
0
 10
0.0
 20
0.0
 11
297.0
 21
210.0
 12
0.0
 22
0.0
 32
0.0
 14
0.0
 24
0.0
 34
0.0
 15
0.0
 25
0.0
 35
0.0
146
0.0
 13
0.0
 23
0.0
 33
0.0
 16
1.0
 26
0.0
 36
0.0
 17
0.0
 27
1.0
 37
0.0
 76
0
330
20E
345
0
346
0
  0
LAYOUT
  5
64E
102
{ACAD_REACTORS
330
1A
102
}
100
AcDbPlotSettings
  1

  2
none_device
  4
ISO_A4_(297.00_x_210.00_MM)
  6

 40
0.0
 41
0.0
 42
0.0
 43
0.0
 44
297.0
 45
210.0
 46
0.0
 47
0.0
 48
0.0
 49
0.0
140
0.0
141
0.0
142
1.0
143
1.0
 70
0
 72
1
 73
0
 74
0
  7

 75
0
147
1.0
148
0.0
149
0.0
100
AcDbLayout
  1
Layout1
 70
0
 71
1
 10
0.0
 20
0.0
 11
297.0
 21
210.0
 12
0.0
 22
0.0
 32
0.0
 14
0.0
 24
0.0
 34
0.0
 15
0.0
 25
0.0
 35
0.0
146
0.0
 13
0.0
 23
0.0
 33
0.0
 16
1.0
 26
0.0
 36
0.0
 17
0.0
 27
1.0
 37
0.0
 76
0
330
20F
345
0
346
0
  0
ENDSEC
  0
EOF
