  0
SECTION
  2
HEADER
  9
$ACADVER
  1
AC1024
  9
$DWGCODEPAGE
  3
ANSI_1252
  9
$EXTMAX
 10
297.0
 20
210.0
 30
0.0
  9
$EXTMIN
 10
0.0
 20
0.0
 30
0.0
  9
$LIMMIN
 10
0.0
 20
0.0
  9
$LIMMAX
 10
297.0
 20
210.0
  9
$VIEWCTR
 10
148.5
 20
105.0
  9
$VIEWSIZE
 40
210.0
  9
$CLAYER
  8
0
  9
$LTSCALE
 40
16.335
  9
$CELTYPE
  6
BYLAYER
  9
$DIMSCALE
 40
1.0
  9
$DIMASZ
 40
3.0
  9
$DIMEXO
 40
0.5
  9
$DIMDLI
 40
11.286
  9
$DIMEXE
 40
1.5
  9
$DIMCEN
 40
2.673
  9
$DIMLFAC
 40
1.0
  9
$DIMBLK
  1
_FILLED
  9
$DIMALT
 70
0
  9
$DIMALTF
 40
0.0393700787
  9
$DIMTXT
 40
3.0
  9
$DIMTOL
 70
1
  9
$DIMLIM
 70
0
  9
$DIMTFAC
 40
1.0
  9
$DIMTP
 40
0.01
  9
$DIMTM
 40
0.01
  9
$DIMGAP
 40
0.625
  9
$DIMDSEP
 70
44
  9
$AUNITS
 70
0
  9
$PDMODE
 70
3
  9
$PDSIZE
 40
3.0
  9
$HANDSEED
  5
66F
  9
$TILEMODE
 70
1
  9
$MEASUREMENT
 70
1
  9
$INSUNITS
 70
4
  0
ENDSEC
  0
SECTION
  2
CLASSES
  0
CLASS
  1
ACDBDICTIONARYWDFLT
  2
AcDbDictionaryWithDefault
  3
AutoCAD 2000
 90
0
 91
1
280
0
281
0
  0
CLASS
  1
ACDBPLACEHOLDER
  2
AcDbPlaceHolder
  3
AutoCAD 2000
 90
0
 91
1
280
0
281
0
  0
CLASS
  1
LAYOUT
  2
AcDbLayout
  3
AutoCAD 2000
 90
0
 91
0
280
0
281
0
  0
ENDSEC
  0
SECTION
  2
TABLES
  0
TABLE
  2
VPORT
  5
8
100
AcDbSymbolTable
 70
2
  0
VPORT
  5
1F4
100
AcDbSymbolTableRecord
100
AcDbViewportTableRecord
  2
*ACTIVE
 70
0
 10
0.0
 20
0.0
 11
1.0
 21
1.0
 12
148.5
 22
105.0
 13
0.0
 23
0.0
 14
1.0
 24
1.0
 15
0.0
 25
0.0
 16
0.0
 26
0.0
 36
1.0
 17
0.0
 27
0.0
 37
0.0
 40
210.0
 41
1.4142857143
 42
50.0
 43
0.0
 44
0.0
 50
0.0
 51
0.0
 71
0
 72
100
 73
1
 74
1
 75
0
 76
0
 77
0
 78
0
  0
ENDTAB
  0
TABLE
  2
LTYPE
  5
5
100
AcDbSymbolTable
 70
6
  0
LTYPE
  5
14
100
AcDbSymbolTableRecord
100
AcDbLinetypeTableRecord
  2
BYBLOCK
 70
0
  3

 72
65
 73
0
 40
0.0
  0
LTYPE
  5
15
100
AcDbSymbolTableRecord
100
AcDbLinetypeTableRecord
  2
BYLAYER
 70
0
  3

 72
65
 73
0
 40
0.0
  0
LTYPE
  5
16
100
AcDbSymbolTableRecord
100
AcDbLinetypeTableRecord
  2
CONTINUOUS
 70
64
  3
Solid line
 72
65
 73
0
 40
0.0
  0
LTYPE
  5
1F5
100
AcDbSymbolTableRecord
100
AcDbLinetypeTableRecord
  2
CENTER
 70
64
  3
____ _ ____ _ ____ _ ____ _ ____ _ ____ _ ____
 72
65
 73
4
 40
0.6
 49
0.375
 74
0
 49
-0.075
 74
0
 49
0.075
 74
0
 49
-0.075
 74
0
  0
LTYPE
  5
1F6
100
AcDbSymbolTableRecord
100
AcDbLinetypeTableRecord
  2
HIDDEN
 70
64
  3
- - - - - - - - - - - - - - - - - - - -
 72
65
 73
2
 40
0.2
 49
0.1
 74
0
 49
-0.1
 74
0
  0
LTYPE
  5
1F7
100
AcDbSymbolTableRecord
100
AcDbLinetypeTableRecord
  2
PHANTOM
 70
64
  3
_____ _ _ _____ _ _ _____ _ _ _____
 72
65
 73
6
 40
0.8
 49
0.45
 74
0
 49
-0.05
 74
0
 49
0.1
 74
0
 49
-0.05
 74
0
 49
0.1
 74
0
 49
-0.05
 74
0
  0
LTYPE
  5
1F8
100
AcDbSymbolTableRecord
100
AcDbLinetypeTableRecord
  2
DOT
 70
64
  3
. . . . . . . . . . . . . . . . . . . .
 72
65
 73
2
 40
0.2
 49
0.1
 74
0
 49
-0.1
 74
0
  0
LTYPE
  5
1F9
100
AcDbSymbolTableRecord
100
AcDbLinetypeTableRecord
  2
DASHED
 70
64
  3
- - - - - - - - - - - - - - - - - - - -
 72
65
 73
2
 40
0.2
 49
0.1
 74
0
 49
-0.1
 74
0
  0
ENDTAB
  0
TABLE
  2
LAYER
  5
2
100
AcDbSymbolTable
 70
36
  0
LAYER
  5
10
100
AcDbSymbolTableRecord
100
AcDbLayerTableRecord
  2
0
 70
0
 62
7
  6
CONTINUOUS
370
-3
390
F
  0
LAYER
  5
1FA
100
AcDbSymbolTableRecord
100
AcDbLayerTableRecord
  2
DEFAULT_1
 70
0
 62
7
  6
CENTER
370
-3
390
F
  0
LAYER
  5
1FB
100
AcDbSymbolTableRecord
100
AcDbLayerTableRecord
  2
DEFAULT_2
 70
0
 62
7
  6
HIDDEN
370
-3
390
F
  0
LAYER
  5
1FC
100
AcDbSymbolTableRecord
100
AcDbLayerTableRecord
  2
DEFAULT_3
 70
0
 62
7
  6
PHANTOM
370
-3
390
F
  0
LAYER
  5
1FD
100
AcDbSymbolTableRecord
100
AcDbLayerTableRecord
  2
ASSI
 70
0
 62
7
  6
CONTINUOUS
370
-3
390
F
  0
LAYER
  5
1FE
100
AcDbSymbolTableRecord
100
AcDbLayerTableRecord
  2
COLOR5
 70
0
 62
7
  6
CONTINUOUS
370
-3
390
F
  0
LAYER
  5
1FF
100
AcDbSymbolTableRecord
100
AcDbLayerTableRecord
  2
COORDINATE
 70
0
 62
7
  6
CONTINUOUS
370
-3
390
F
  0
LAYER
  5
200
100
AcDbSymbolTableRecord
100
AcDbLayerTableRecord
  2
COORD_ORIGINE
 70
0
 62
7
  6
CONTINUOUS
370
-3
390
F
  0
LAYER
  5
201
100
AcDbSymbolTableRecord
100
AcDbLayerTableRecord
  2
CURVE
 70
0
 62
7
  6
CONTINUOUS
370
-3
390
F
  0
LAYER
  5
202
100
AcDbSymbolTableRecord
100
AcDbLayerTableRecord
  2
DRAFT
 70
0
 62
7
  6
CONTINUOUS
370
-3
390
F
  0
LAYER
  5
203
100
AcDbSymbolTableRecord
100
AcDbLayerTableRecord
  2
ESTRATTORI
 70
0
 62
7
  6
CONTINUOUS
370
-3
390
F
  0
LAYER
  5
204
100
AcDbSymbolTableRecord
100
AcDbLayerTableRecord
  2
IGES
 70
0
 62
7
  6
CONTINUOUS
370
-3
390
F
  0
LAYER
  5
205
100
AcDbSymbolTableRecord
100
AcDbLayerTableRecord
  2
INTF_1
 70
0
 62
7
  6
CONTINUOUS
370
-3
390
F
  0
LAYER
  5
206
100
AcDbSymbolTableRecord
100
AcDbLayerTableRecord
  2
INTF_7
 70
0
 62
7
  6
CONTINUOUS
370
-3
390
F
  0
LAYER
  5
207
100
AcDbSymbolTableRecord
100
AcDbLayerTableRecord
  2
INTF_CYAN
 70
0
 62
7
  6
CONTINUOUS
370
-3
390
F
  0
LAYER
  5
208
100
AcDbSymbolTableRecord
100
AcDbLayerTableRecord
  2
INTF_MAGENTA
 70
0
 62
7
  6
CONTINUOUS
370
-3
390
F
  0
LAYER
  5
209
100
AcDbSymbolTableRecord
100
AcDbLayerTableRecord
  2
INTF_RED
 70
0
 62
7
  6
CONTINUOUS
370
-3
390
F
  0
LAYER
  5
20A
100
AcDbSymbolTableRecord
100
AcDbLayerTableRecord
  2
INTF_YELLOW
 70
0
 62
7
  6
CONTINUOUS
370
-3
390
F
  0
LAYER
  5
20B
100
AcDbSymbolTableRecord
100
AcDbLayerTableRecord
  2
NOTE
 70
0
 62
7
  6
CONTINUOUS
370
-3
390
F
  0
LAYER
  5
20C
100
AcDbSymbolTableRecord
100
AcDbLayerTableRecord
  2
PIANI
 70
0
 62
7
  6
CONTINUOUS
370
-3
390
F
  0
LAYER
  5
20D
100
AcDbSymbolTableRecord
100
AcDbLayerTableRecord
  2
PIANI_ORIGINE
 70
0
 62
7
  6
CONTINUOUS
370
-3
390
F
  0
LAYER
  5
20E
100
AcDbSymbolTableRecord
100
AcDbLayerTableRecord
  2
PLACCA
 70
0
 62
7
  6
CONTINUOUS
370
-3
390
F
  0
LAYER
  5
20F
100
AcDbSymbolTableRecord
100
AcDbLayerTableRecord
  2
PUNTI
 70
0
 62
7
  6
CONTINUOUS
370
-3
390
F
  0
LAYER
  5
210
100
AcDbSymbolTableRecord
100
AcDbLayerTableRecord
  2
RACCORDO
 70
0
 62
7
  6
CONTINUOUS
370
-3
390
F
  0
LAYER
  5
211
100
AcDbSymbolTableRecord
100
AcDbLayerTableRecord
  2
RGB__255__255__255__
 70
0
 62
7
  6
CONTINUOUS
370
-3
390
F
  0
LAYER
  5
212
100
AcDbSymbolTableRecord
100
AcDbLayerTableRecord
  2
RGB____0____0____0__
 70
0
 62
7
  6
CONTINUOUS
370
-3
390
F
  0
LAYER
  5
213
100
AcDbSymbolTableRecord
100
AcDbLayerTableRecord
  2
SMUSSO
 70
0
 62
7
  6
CONTINUOUS
370
-3
390
F
  0
LAYER
  5
214
100
AcDbSymbolTableRecord
100
AcDbLayerTableRecord
  2
SNAPLINE
 70
0
 62
7
  6
CONTINUOUS
370
-3
390
F
  0
LAYER
  5
215
100
AcDbSymbolTableRecord
100
AcDbLayerTableRecord
  2
SUPERFICI
 70
0
 62
7
  6
CONTINUOUS
370
-3
390
F
  0
LAYER
  5
216
100
AcDbSymbolTableRecord
100
AcDbLayerTableRecord
  2
SUPPORTO
 70
0
 62
7
  6
CONTINUOUS
370
-3
390
F
  0
LAYER
  5
217
100
AcDbSymbolTableRecord
100
AcDbLayerTableRecord
  2
TRASH
 70
0
 62
7
  6
CONTINUOUS
370
-3
390
F
  0
LAYER
  5
218
100
AcDbSymbolTableRecord
100
AcDbLayerTableRecord
  2
XSEC_DATUMS
 70
0
 62
7
  6
CONTINUOUS
370
-3
390
F
  0
ENDTAB
  0
TABLE
  2
STYLE
  5
3
100
AcDbSymbolTable
 70
1
  0
STYLE
  5
11
100
AcDbSymbolTableRecord
100
AcDbTextStyleTableRecord
  2
STANDARD
 70
0
 40
0.0
 41
0.8
 50
0.0
 71
0
 42
0.2
  3
txt
  4

  0
STYLE
  5
219
100
AcDbSymbolTableRecord
100
AcDbTextStyleTableRecord
  2
TEXTSTYLE_1
 70
0
 40
0.0
 41
0.8
 50
0.0
 71
0
 42
0.2
  3
gdt
  4

  0
ENDTAB
  0
TABLE
  2
VIEW
  5
6
100
AcDbSymbolTable
 70
0
  0
ENDTAB
  0
TABLE
  2
UCS
  5
7
100
AcDbSymbolTable
 70
0
  0
ENDTAB
  0
TABLE
  2
APPID
  5
9
100
AcDbSymbolTable
 70
1
  0
APPID
  5
21A
100
AcDbSymbolTableRecord
100
AcDbRegAppTableRecord
  2
ACAD
 70
0
  0
ENDTAB
  0
TABLE
  2
BLOCK_RECORD
  5
1
100
AcDbSymbolTable
 70
0
  0
BLOCK_RECORD
  5
21B
100
AcDbSymbolTableRecord
100
AcDbBlockTableRecord
  2
*Model_Space
  0
BLOCK_RECORD
  5
21C
100
AcDbSymbolTableRecord
100
AcDbBlockTableRecord
  2
*Paper_Space
  0
BLOCK_RECORD
  5
21D
100
AcDbSymbolTableRecord
100
AcDbBlockTableRecord
  2
_FILLED
  0
BLOCK_RECORD
  5
21E
100
AcDbSymbolTableRecord
100
AcDbBlockTableRecord
  2
*D0
  0
BLOCK_RECORD
  5
21F
100
AcDbSymbolTableRecord
100
AcDbBlockTableRecord
  2
*D1
  0
BLOCK_RECORD
  5
220
100
AcDbSymbolTableRecord
100
AcDbBlockTableRecord
  2
*D2
  0
ENDTAB
  0
TABLE
  2
DIMSTYLE
  5
A
100
AcDbSymbolTable
 70
1
100
AcDbDimStyleTable
 71
0
  0
DIMSTYLE
105
221
100
AcDbSymbolTableRecord
100
AcDbDimStyleTableRecord
  2
STANDARD
 70
0
  3

  4

 40
1.0
 41
3.0
 42
0.5
 43
0.38
 44
1.5
 45
0.0
 46
0.0
 47
0.01
 48
0.01
140
3.0
141
0.09
142
0.0
143
25.4
144
1.0
145
0.0
146
1.0
147
0.625
 71
1
 72
0
 73
0
 74
0
 75
0
 76
0
 77
1
 78
8
 79
2
170
0
171
1
172
0
173
0
174
0
175
0
176
0
177
0
178
0
270
2
179
2
271
2
272
2
273
2
274
2
275
0
280
0
281
0
282
0
283
1
284
8
285
0
286
0
287
3
288
0
340
11
278
44
341
21D
342
21D
343
21D
344
21D
  0
DIMSTYLE
105
222
100
AcDbSymbolTableRecord
100
AcDbDimStyleTableRecord
  2
DIMSTYLE_1
 70
0
  3

  4

 40
1.0
 41
3.0
 42
0.5
 43
0.38
 44
1.5
 45
0.0
 46
0.0
 47
0.0
 48
0.0
140
3.0
141
0.09
142
0.0
143
25.4
144
1.0
145
0.0
146
1.0
147
0.75
 71
0
 72
0
 73
0
 74
0
 75
0
 76
0
 77
1
 78
8
 79
2
170
0
171
1
172
0
173
0
174
0
175
0
176
0
177
0
178
0
270
2
179
2
271
2
272
2
273
2
274
2
275
0
280
0
281
0
282
0
283
1
284
8
285
0
286
0
287
3
288
0
340
11
278
44
341
21D
342
21D
343
21D
344
21D
  0
DIMSTYLE
105
223
100
AcDbSymbolTableRecord
100
AcDbDimStyleTableRecord
  2
DIMSTYLE_2
 70
0
  3

  4

 40
1.0
 41
3.0
 42
0.5
 43
0.38
 44
1.5
 45
0.0
 46
0.0
 47
0.0
 48
0.0
140
3.0
141
0.09
142
0.0
143
25.4
144
1.0
145
0.0
146
1.0
147
0.75
 71
0
 72
0
 73
0
 74
0
 75
0
 76
0
 77
1
 78
8
 79
2
170
0
171
1
172
0
173
0
174
0
175
0
176
0
177
0
178
0
270
2
179
2
271
1
272
1
273
2
274
2
275
0
280
0
281
0
282
0
283
1
284
8
285
0
286
0
287
3
288
0
340
11
278
44
341
21D
342
21D
343
21D
344
21D
  0
ENDTAB
  0
ENDSEC
  0
SECTION
  2
BLOCKS
  0
BLOCK
  5
20
100
AcDbEntity
  8
0
100
AcDbBlockBegin
  2
*Model_Space
 70
0
 10
0.0
 20
0.0
 30
0.0
  3
*Model_Space
  1

  0
ENDBLK
  5
21
100
AcDbEntity
  8
0
100
AcDbBlockEnd
  0
BLOCK
  5
1C
100
AcDbEntity
  8
0
100
AcDbBlockBegin
  2
*Paper_Space
 70
0
 10
0.0
 20
0.0
 30
0.0
  3
*Paper_Space
  1

  0
ENDBLK
  5
1D
100
AcDbEntity
  8
0
100
AcDbBlockEnd
  0
BLOCK
  5
224
100
AcDbEntity
  8
0
100
AcDbBlockBegin
  2
_FILLED
 70
64
 10
0.0
 20
0.0
  3
_FILLED
  1

  0
SOLID
  5
225
100
AcDbEntity
  8
0
  6
BYBLOCK
 62
0
100
AcDbTrace
 10
0.0
 20
0.0
 11
-1.0
 21
0.3166666667
 12
-1.0
 22
-0.3166666667
 13
-1.0
 23
-0.3166666667
  0
ENDBLK
  5
226
100
AcDbEntity
  8
0
  6
BYBLOCK
 62
0
100
AcDbBlockEnd
  0
BLOCK
  5
227
100
AcDbEntity
  8
0
100
AcDbBlockBegin
 62
7
  6
CONTINUOUS
  2
*D0
 70
65
 10
0.0
 20
0.0
  3
*D0
  1

  0
LINE
  5
228
100
AcDbEntity
  8
0
100
AcDbLine
 62
7
  6
CONTINUOUS
 10
-60.0001749313
 20
37.5327354782
 11
-60.0001749313
 21
49.4905554478
  0
LINE
  5
229
100
AcDbEntity
  8
0
100
AcDbLine
 62
7
  6
CONTINUOUS
 10
60.0001749313
 20
37.5327354782
 11
60.0001749313
 21
49.4905554478
  0
LINE
  5
22A
100
AcDbEntity
  8
0
100
AcDbLine
 62
7
  6
CONTINUOUS
 10
-60.0001749313
 20
47.9905554478
 11
0.0
 21
47.9905554478
  0
LINE
  5
22B
100
AcDbEntity
  8
0
100
AcDbLine
 62
7
  6
CONTINUOUS
 10
60.0001749313
 20
47.9905554478
 11
0.0
 21
47.9905554478
  0
INSERT
  5
22C
100
AcDbEntity
  8
0
100
AcDbBlockReference
 62
7
  6
CONTINUOUS
  2
_FILLED
 10
-60.0001749313
 20
47.9905554478
 41
3.0
 42
3.0
 43
3.0
 50
180.0
  0
INSERT
  5
22D
100
AcDbEntity
  8
0
100
AcDbBlockReference
 62
7
  6
CONTINUOUS
  2
_FILLED
 10
60.0001749313
 20
47.9905554478
 41
3.0
 42
3.0
 43
3.0
  0
ENDBLK
  5
22E
100
AcDbEntity
  8
0
  6
BYBLOCK
 62
0
100
AcDbBlockEnd
  0
BLOCK
  5
22F
100
AcDbEntity
  8
0
100
AcDbBlockBegin
 62
7
  6
CONTINUOUS
  2
*D1
 70
65
 10
0.0
 20
0.0
  3
*D1
  1

  0
LINE
  5
230
100
AcDbEntity
  8
0
100
AcDbLine
 62
7
  6
CONTINUOUS
 10
-89.0167799448
 20
22.6680847708
 11
-89.0170958714
 21
49.4905015191
  0
LINE
  5
231
100
AcDbEntity
  8
0
100
AcDbLine
 62
7
  6
CONTINUOUS
 10
-79.8598074103
 20
39.4984673561
 11
-79.8599251023
 21
49.4906093764
  0
LINE
  5
232
100
AcDbEntity
  8
0
100
AcDbLine
 62
7
  6
CONTINUOUS
 10
-89.0170782037
 20
47.9905015192
 11
-93.0170782034
 21
47.9904544054
  0
LINE
  5
233
100
AcDbEntity
  8
0
100
AcDbLine
 62
7
  6
CONTINUOUS
 10
-93.0170782034
 20
47.9904544054
 11
-84.4384928192
 21
47.9905554478
  0
LINE
  5
234
100
AcDbEntity
  8
0
100
AcDbLine
 62
7
  6
CONTINUOUS
 10
-79.8599074346
 20
47.9906093765
 11
-75.8599074349
 21
47.9906564903
  0
LINE
  5
235
100
AcDbEntity
  8
0
100
AcDbLine
 62
7
  6
CONTINUOUS
 10
-75.8599074349
 20
47.9906564903
 11
-84.4384928192
 21
47.9905554478
  0
INSERT
  5
236
100
AcDbEntity
  8
0
100
AcDbBlockReference
 62
7
  6
CONTINUOUS
  2
_FILLED
 10
-89.0170782037
 20
47.9905015192
 41
3.0
 42
3.0
 43
3.0
 50
0.0006748557
  0
INSERT
  5
237
100
AcDbEntity
  8
0
100
AcDbBlockReference
 62
7
  6
CONTINUOUS
  2
_FILLED
 10
-79.8599074346
 20
47.9906093765
 41
3.0
 42
3.0
 43
3.0
 50
180.0006748557
  0
ENDBLK
  5
238
100
AcDbEntity
  8
0
  6
BYBLOCK
 62
0
100
AcDbBlockEnd
  0
BLOCK
  5
239
100
AcDbEntity
  8
0
100
AcDbBlockBegin
 62
7
  6
CONTINUOUS
  2
*D2
 70
65
 10
0.0
 20
0.0
  3
*D2
  1

  0
LINE
  5
23A
100
AcDbEntity
  8
0
100
AcDbLine
 62
7
  6
CONTINUOUS
 10
-80.5598015211
 20
39.9905554478
 11
-99.885397123
 21
39.9905554478
  0
LINE
  5
23B
100
AcDbEntity
  8
0
100
AcDbLine
 62
7
  6
CONTINUOUS
 10
-80.5598015211
 20
-39.9905554478
 11
-99.885397123
 21
-39.9905554478
  0
LINE
  5
23C
100
AcDbEntity
  8
0
100
AcDbLine
 62
7
  6
CONTINUOUS
 10
-98.385397123
 20
39.9905554478
 11
-98.385397123
 21
0.0
  0
LINE
  5
23D
100
AcDbEntity
  8
0
100
AcDbLine
 62
7
  6
CONTINUOUS
 10
-98.385397123
 20
-39.9905554478
 11
-98.385397123
 21
0.0
  0
INSERT
  5
23E
100
AcDbEntity
  8
0
100
AcDbBlockReference
 62
7
  6
CONTINUOUS
  2
_FILLED
 10
-98.385397123
 20
39.9905554478
 41
3.0
 42
3.0
 43
3.0
 50
90.0
  0
INSERT
  5
23F
100
AcDbEntity
  8
0
100
AcDbBlockReference
 62
7
  6
CONTINUOUS
  2
_FILLED
 10
-98.385397123
 20
-39.9905554478
 41
3.0
 42
3.0
 43
3.0
 50
270.0
  0
ENDBLK
  5
240
100
AcDbEntity
  8
0
  6
BYBLOCK
 62
0
100
AcDbBlockEnd
  0
ENDSEC
  0
SECTION
  2
ENTITIES
  0
DIMENSION
  5
241
100
AcDbEntity
  8
0
100
AcDbDimension
 62
7
  6
CONTINUOUS
  2
*D0
 10
60.0001749313
 20
47.9905554478
 11
-3.2142857143
 21
47.9905554478
 70
160
 71
2
 72
2
 41
0.9
 42
120.0003498626
  3
DIMSTYLE_1
100
AcDbAlignedDimension
 13
-60.0001749313
 23
37.0327354782
 14
60.0001749313
 24
37.0327354782
100
AcDbRotatedDimension
  0
DIMENSION
  5
242
100
AcDbEntity
  8
0
100
AcDbDimension
 62
7
  6
CONTINUOUS
  2
*D1
 10
-79.8599074346
 20
47.9906093765
 11
-87.6527696992
 21
47.9905175886
 70
160
 71
2
 72
2
 41
0.9
 42
9.1571707697
  3
DIMSTYLE_2
100
AcDbAlignedDimension
 13
-89.0167740555
 23
22.1680847708
 14
-79.8598015211
 24
38.9984673562
 50
0.0006748557
100
AcDbRotatedDimension
  0
DIMENSION
  5
243
100
AcDbEntity
  8
0
100
AcDbDimension
 62
7
  6
CONTINUOUS
  2
*D2
 10
-98.385397123
 20
-39.9905554478
 11
-98.385397123
 21
-2.3571428571
 70
160
 71
2
 72
2
 41
0.9
 42
79.9811108955
  3
DIMSTYLE_2
100
AcDbAlignedDimension
 13
-80.0598015211
 23
39.9905554478
 14
-80.0598015211
 24
-39.9905554478
 50
270.0
100
AcDbRotatedDimension
  0
LWPOLYLINE
  5
244
100
AcDbEntity
  8
SUPERFICI
100
AcDbPolyline
 62
250
  6
CONTINUOUS
 90
10
 70
0
 10
-59.6995418962
 20
37.6292940192
 10
-59.5804745333
 20
38.0201945781
 10
-59.4042855455
 20
38.3887953519
 10
-59.1749812916
 20
38.7268114931
 10
-58.8977412102
 20
39.0266930837
 10
-58.5788435665
 20
39.2816797799
 10
-58.2255745558
 20
39.485982196
 10
-57.8459703184
 20
39.6350599016
 10
-57.4485814103
 20
39.7256873883
 10
-57.04235868
 20
39.7559298907
  0
LWPOLYLINE
  5
245
100
AcDbEntity
  8
SUPERFICI
100
AcDbPolyline
 62
250
  6
CONTINUOUS
 90
10
 70
0
 10
-58.8111361867
 20
37.6006603655
 10
-58.752995518
 20
37.7549887974
 10
-58.6837127961
 20
37.9016765014
 10
-58.6040777968
 20
38.0402169894
 10
-58.5153182651
 20
38.1695363961
 10
-58.4177774282
 20
38.2899186146
 10
-58.3105965543
 20
38.4025366788
 10
-58.1937193887
 20
38.5069872074
 10
-58.067981108
 20
38.6019651383
 10
-57.9332624275
 20
38.687149363
  0
LWPOLYLINE
  5
246
100
AcDbEntity
  8
SUPERFICI
100
AcDbPolyline
 62
250
  6
CONTINUOUS
 90
10
 70
0
 10
-58.8111361867
 20
-37.6006603655
 10
-58.752995518
 20
-37.7549887974
 10
-58.6837127961
 20
-37.9016765014
 10
-58.6040777968
 20
-38.0402169894
 10
-58.5153182651
 20
-38.1695363961
 10
-58.4177774282
 20
-38.2899186146
 10
-58.3105965543
 20
-38.4025366788
 10
-58.1937193887
 20
-38.5069872074
 10
-58.067981108
 20
-38.6019651383
 10
-57.9332624275
 20
-38.687149363
  0
LWPOLYLINE
  5
247
100
AcDbEntity
  8
SUPERFICI
100
AcDbPolyline
 62
250
  6
CONTINUOUS
 90
10
 70
0
 10
-58.8569831205
 20
37.4476978888
 10
-58.8524310471
 20
37.4649405057
 10
-58.8477416167
 20
37.4821252865
 10
-58.8429155261
 20
37.4992508453
 10
-58.8379532113
 20
37.5163166668
 10
-58.8328556178
 20
37.5333204986
 10
-58.8276242694
 20
37.5502583814
 10
-58.8222602085
 20
37.567128113
 10
-58.8167639274
 20
37.5839292191
 10
-58.8111361866
 20
37.6006603655
  0
LWPOLYLINE
  5
248
100
AcDbEntity
  8
SUPERFICI
100
AcDbPolyline
 62
250
  6
CONTINUOUS
 90
10
 70
0
 10
-56.0965823392
 20
35.4617692735
 10
-56.1376162524
 20
35.310472944
 10
-56.1759274393
 20
35.1573044404
 10
-56.2116522812
 20
35.0025058066
 10
-56.2449618101
 20
34.8461764059
 10
-56.2761507754
 20
34.68828589
 10
-56.3054532554
 20
34.5289343226
 10
-56.3329411219
 20
34.368262584
 10
-56.3587135588
 20
34.2062296046
 10
-56.3828560339
 20
34.0428963753
  0
LWPOLYLINE
  5
249
100
AcDbEntity
  8
SUPERFICI
100
AcDbPolyline
 62
250
  6
CONTINUOUS
 90
10
 70
0
 10
-56.0965823392
 20
35.4617692735
 10
-56.0482306622
 20
35.6247113755
 10
-55.9950778354
 20
35.7831696775
 10
-55.9355206236
 20
35.9361000974
 10
-55.8684494148
 20
36.0820247326
 10
-55.7927622276
 20
36.2200098767
 10
-55.7071228143
 20
36.3493652469
 10
-55.6104785743
 20
36.4687172802
 10
-55.5033183489
 20
36.5767566447
 10
-55.3876151483
 20
36.673112955
  0
LWPOLYLINE
  5
24A
100
AcDbEntity
  8
SUPERFICI
100
AcDbPolyline
 62
250
  6
CONTINUOUS
 90
10
 70
0
 10
-56.0965823392
 20
-35.4617692735
 10
-56.0482306622
 20
-35.6247113755
 10
-55.9950778354
 20
-35.7831696775
 10
-55.9355206236
 20
-35.9361000974
 10
-55.8684494148
 20
-36.0820247326
 10
-55.7927622276
 20
-36.2200098767
 10
-55.7071228143
 20
-36.3493652469
 10
-55.6104785743
 20
-36.4687172802
 10
-55.5033183489
 20
-36.5767566447
 10
-55.3876151483
 20
-36.673112955
  0
LWPOLYLINE
  5
24B
100
AcDbEntity
  8
SUPERFICI
100
AcDbPolyline
 62
250
  6
CONTINUOUS
 90
10
 70
0
 10
-56.0965823392
 20
-35.4617692735
 10
-56.1376162524
 20
-35.310472944
 10
-56.1759274393
 20
-35.1573044404
 10
-56.2116522812
 20
-35.0025058066
 10
-56.2449618101
 20
-34.8461764059
 10
-56.2761507754
 20
-34.68828589
 10
-56.3054532554
 20
-34.5289343226
 10
-56.3329411219
 20
-34.368262584
 10
-56.3587135588
 20
-34.2062296046
 10
-56.3828560339
 20
-34.0428963753
  0
LWPOLYLINE
  5
24C
100
AcDbEntity
  8
SUPERFICI
100
AcDbPolyline
 62
250
  6
CONTINUOUS
 90
10
 70
0
 10
-58.8569831205
 20
-37.4476978888
 10
-58.8524310471
 20
-37.4649405057
 10
-58.8477416167
 20
-37.4821252865
 10
-58.8429155261
 20
-37.4992508453
 10
-58.8379532113
 20
-37.5163166668
 10
-58.8328556178
 20
-37.5333204986
 10
-58.8276242694
 20
-37.5502583814
 10
-58.8222602085
 20
-37.567128113
 10
-58.8167639274
 20
-37.5839292191
 10
-58.8111361866
 20
-37.6006603655
  0
LWPOLYLINE
  5
24D
100
AcDbEntity
  8
SUPERFICI
100
AcDbPolyline
 62
7
  6
CONTINUOUS
 90
10
 70
0
 10
-59.6995418962
 20
-37.6292940192
 10
-59.7133580215
 20
-37.5639295597
 10
-59.725566189
 20
-37.4982472008
 10
-59.7361591396
 20
-37.4322864981
 10
-59.7451298065
 20
-37.3660935837
 10
-59.7524739765
 20
-37.2997019406
 10
-59.7581887182
 20
-37.2331322072
 10
-59.7622695688
 20
-37.1664179042
 10
-59.7647121143
 20
-37.0996055825
 10
-59.7655135488
 20
-37.0327354781
  0
LWPOLYLINE
  5
24E
100
AcDbEntity
  8
SUPERFICI
100
AcDbPolyline
 62
250
  6
CONTINUOUS
 90
5
 70
0
 10
-56.7258237919
 20
-29.4598418674
 10
-56.6793004277
 20
-30.6446945988
 10
-56.6121190355
 20
-31.8040058616
 10
-56.5124627331
 20
-32.9369602339
 10
-56.3828560339
 20
-34.0428963753
  0
LINE
  5
24F
100
AcDbEntity
  8
SUPERFICI
100
AcDbLine
 62
250
  6
CONTINUOUS
 10
-56.8494126046
 20
-25.7651022587
 11
-56.7258237919
 21
-29.4598418674
  0
LWPOLYLINE
  5
250
100
AcDbEntity
  8
SUPERFICI
100
AcDbPolyline
 62
250
  6
CONTINUOUS
 90
3
 70
0
 10
-56.8155660045
 20
-39.755781292
 10
-56.8161090343
 20
-39.7385464995
 10
-56.8165641455
 20
-39.7019785963
  0
LINE
  5
251
100
AcDbEntity
  8
SUPERFICI
100
AcDbLine
 62
250
  6
CONTINUOUS
 10
-56.9260764016
 20
-23.189737925
 11
-56.8494126046
 21
-25.7651022587
  0
LWPOLYLINE
  5
252
100
AcDbEntity
  8
SUPERFICI
100
AcDbPolyline
 62
250
  6
CONTINUOUS
 90
5
 70
0
 10
-58.9280883215
 20
-36.8639025959
 10
-58.9242084878
 20
-37.0118629506
 10
-58.9123062782
 20
-37.159301872
 10
-58.889682325
 20
-37.3047430464
 10
-58.8569831205
 20
-37.4476978888
  0
LINE
  5
253
100
AcDbEntity
  8
SUPERFICI
100
AcDbLine
 62
250
  6
CONTINUOUS
 10
-58.9346359623
 20
-36.4155114349
 11
-58.9280883215
 21
-36.8639025959
  0
LWPOLYLINE
  5
254
100
AcDbEntity
  8
SUPERFICI
100
AcDbPolyline
 62
250
  6
CONTINUOUS
 90
4
 70
0
 10
-58.9596831631
 20
-32.4964336318
 10
-58.949792827
 20
-33.7238345971
 10
-58.9352134221
 20
-34.929828974
 10
-58.9147239667
 20
-36.0895000588
  0
LWPOLYLINE
  5
255
100
AcDbEntity
  8
SUPERFICI
100
AcDbPolyline
 62
250
  6
CONTINUOUS
 90
9
 70
0
 10
-58.9360311352
 20
36.1081982255
 10
-58.9385366104
 20
36.4201071395
 10
-58.9384888004
 20
36.5750457543
 10
-58.9363866088
 20
36.7273218241
 10
-58.931313245
 20
36.8768012217
 10
-58.9221529265
 20
37.0247016079
 10
-58.9076061675
 20
37.170467502
 10
-58.8863581364
 20
37.3119655581
 10
-58.8569341061
 20
37.4476852071
  0
LINE
  5
256
100
AcDbEntity
  8
SUPERFICI
100
AcDbLine
 62
250
  6
CONTINUOUS
 10
-58.9372466096
 20
-36.1081958215
 11
-58.9346359623
 21
-36.4155114349
  0
LINE
  5
257
100
AcDbEntity
  8
SUPERFICI
100
AcDbLine
 62
250
  6
CONTINUOUS
 10
-58.9941622836
 20
-24.6148065375
 11
-58.9715896785
 21
-28.6776527073
  0
LINE
  5
258
100
AcDbEntity
  8
SUPERFICI
100
AcDbLine
 62
250
  6
CONTINUOUS
 10
-56.8165641455
 20
-39.7019785963
 11
-56.8183247701
 21
-39.3774683977
  0
LWPOLYLINE
  5
259
100
AcDbEntity
  8
SUPERFICI
100
AcDbPolyline
 62
250
  6
CONTINUOUS
 90
3
 70
0
 10
-58.9982926736
 20
-16.8315117464
 10
-58.9901137562
 20
-19.4667268551
 10
-58.9656592722
 20
-24.593732649
  0
LINE
  5
25A
100
AcDbEntity
  8
SUPERFICI
100
AcDbLine
 62
250
  6
CONTINUOUS
 10
-58.9715896785
 20
-28.6776527073
 11
-58.9596831631
 21
-32.4964336318
  0
LINE
  5
25B
100
AcDbEntity
  8
SUPERFICI
100
AcDbLine
 62
250
  6
CONTINUOUS
 10
-56.8183247701
 20
-39.3774683977
 11
-56.8191453179
 21
-39.0048498793
  0
LWPOLYLINE
  5
25C
100
AcDbEntity
  8
SUPERFICI
100
AcDbPolyline
 62
250
  6
CONTINUOUS
 90
10
 70
0
 10
-57.2534052609
 20
0.0
 10
-57.2493638505
 20
-2.5770402695
 10
-57.237239762
 20
-5.1540156735
 10
-57.2170332092
 20
-7.7309118219
 10
-57.1887443688
 20
-10.3077173104
 10
-57.1523734733
 20
-12.8844147633
 10
-57.1079209053
 20
-15.4609808342
 10
-57.0553870287
 20
-18.03739815
 10
-56.9947720947
 20
-20.6136553091
 10
-56.9260764017
 20
-23.189737925
  0
LINE
  5
25D
100
AcDbEntity
  8
SUPERFICI
100
AcDbLine
 62
250
  6
CONTINUOUS
 10
-59.0233866315
 20
0.0
 11
-58.9982926736
 21
-16.8315117464
  0
LINE
  5
25E
100
AcDbEntity
  8
0
100
AcDbLine
 62
7
  6
CONTINUOUS
 10
-60.0001749313
 20
37.0327354782
 11
-60.0001749313
 21
3.7099727925
  0
LINE
  5
25F
100
AcDbEntity
  8
0
100
AcDbLine
 62
7
  6
CONTINUOUS
 10
-60.0001749313
 20
-3.7099727925
 11
-60.0001749313
 21
-37.0327354782
  0
LINE
  5
260
100
AcDbEntity
  8
0
100
AcDbLine
 62
7
  6
CONTINUOUS
 10
-59.874396261
 20
3.5
 11
-59.874396261
 21
-3.5
  0
LINE
  5
261
100
AcDbEntity
  8
SUPERFICI
100
AcDbLine
 62
250
  6
CONTINUOUS
 10
-59.765510132
 20
37.0327354781
 11
-59.765510132
 21
-37.0327354781
  0
LINE
  5
262
100
AcDbEntity
  8
0
100
AcDbLine
 62
250
  6
CONTINUOUS
 10
-57.04235868
 20
-39.9905517294
 11
-57.04235868
 21
-39.755781292
  0
LINE
  5
263
100
AcDbEntity
  8
0
100
AcDbLine
 62
250
  6
CONTINUOUS
 10
-57.04235868
 20
39.755781292
 11
-57.04235868
 21
39.9905517294
  0
LINE
  5
264
100
AcDbEntity
  8
SUPERFICI
100
AcDbLine
 62
250
  6
CONTINUOUS
 10
-59.0084184996
 20
8.6283276131
 11
-59.0027652508
 21
14.1326836991
  0
LWPOLYLINE
  5
265
100
AcDbEntity
  8
SUPERFICI
100
AcDbPolyline
 62
250
  6
CONTINUOUS
 90
10
 70
0
 10
-57.2534052609
 20
0.0
 10
-57.2493638505
 20
2.5770402695
 10
-57.237239762
 20
5.1540156735
 10
-57.2170332092
 20
7.7309118219
 10
-57.1887443688
 20
10.3077173104
 10
-57.1523734733
 20
12.8844147633
 10
-57.1079209053
 20
15.4609808342
 10
-57.0553870287
 20
18.0373981499
 10
-56.9947720947
 20
20.6136553091
 10
-56.9260764017
 20
23.189737925
  0
LINE
  5
266
100
AcDbEntity
  8
SUPERFICI
100
AcDbLine
 62
250
  6
CONTINUOUS
 10
-59.0027652508
 20
14.1326836991
 11
-58.9983384956
 21
16.815926926
  0
LINE
  5
267
100
AcDbEntity
  8
SUPERFICI
100
AcDbLine
 62
250
  6
CONTINUOUS
 10
-59.0305763466
 20
0.0
 11
-59.0084184996
 21
8.6283276131
  0
LINE
  5
268
100
AcDbEntity
  8
SUPERFICI
100
AcDbLine
 62
250
  6
CONTINUOUS
 10
-58.9715896785
 20
28.6776527073
 11
-58.9649366966
 21
31.2467272352
  0
LWPOLYLINE
  5
269
100
AcDbEntity
  8
SUPERFICI
100
AcDbPolyline
 62
250
  6
CONTINUOUS
 90
5
 70
0
 10
-58.9649366966
 20
31.2467272352
 10
-58.9596831631
 20
32.4964336318
 10
-58.949792827
 20
33.7238345971
 10
-58.9352134221
 20
34.929828974
 10
-58.9147239667
 20
36.0895000588
  0
LWPOLYLINE
  5
26A
100
AcDbEntity
  8
SUPERFICI
100
AcDbPolyline
 62
250
  6
CONTINUOUS
 90
3
 70
0
 10
-58.9983384956
 20
16.815926926
 10
-58.9793214221
 20
22.0472216866
 10
-58.9656592722
 20
24.593732649
  0
LINE
  5
26B
100
AcDbEntity
  8
SUPERFICI
100
AcDbLine
 62
250
  6
CONTINUOUS
 10
-56.8190891396
 20
39.0034431957
 11
-56.8174686161
 21
39.5729616512
  0
LINE
  5
26C
100
AcDbEntity
  8
SUPERFICI
100
AcDbLine
 62
250
  6
CONTINUOUS
 10
-58.9941622836
 20
24.6148065375
 11
-58.9715896785
 21
28.6776527073
  0
LWPOLYLINE
  5
26D
100
AcDbEntity
  8
SUPERFICI
100
AcDbPolyline
 62
250
  6
CONTINUOUS
 90
4
 70
0
 10
-56.8174686161
 20
39.5729616512
 10
-56.8165423208
 20
39.702149139
 10
-56.8160474397
 20
39.7386400864
 10
-56.8155405913
 20
39.755781292
  0
LWPOLYLINE
  5
26E
100
AcDbEntity
  8
SUPERFICI
100
AcDbPolyline
 62
7
  6
CONTINUOUS
 90
10
 70
0
 10
-59.7655135488
 20
37.0327354781
 10
-59.7647137569
 20
37.0995378769
 10
-59.7622753496
 20
37.1662995375
 10
-59.7581998811
 20
37.2329802705
 10
-59.7524905126
 20
37.2995335269
 10
-59.7451504606
 20
37.3659256929
 10
-59.7361814229
 20
37.4321359425
 10
-59.7255863857
 20
37.4981305785
 10
-59.713371193
 20
37.5638632284
 10
-59.6995418962
 20
37.6292940192
  0
LINE
  5
26F
100
AcDbEntity
  8
SUPERFICI
100
AcDbLine
 62
250
  6
CONTINUOUS
 10
-56.8482653909
 20
25.7628584978
 11
-56.9260764017
 21
23.189737925
  0
LWPOLYLINE
  5
270
100
AcDbEntity
  8
SUPERFICI
100
AcDbPolyline
 62
250
  6
CONTINUOUS
 90
6
 70
0
 10
-56.3828560339
 20
34.0428963753
 10
-56.5125622984
 20
32.9359834982
 10
-56.6122443109
 20
31.8022539147
 10
-56.6793972838
 20
30.6423727215
 10
-56.7259795843
 20
29.4571089204
 10
-56.8482653909
 20
25.7628584978
  0
LWPOLYLINE
  5
271
100
AcDbEntity
  8
SUPERFICI
100
AcDbPolyline
 62
250
  6
CONTINUOUS
 90
10
 70
0
 10
-52.3472324055
 20
31.1792575273
 10
-52.6157885351
 20
30.2272826005
 10
-52.823758986
 20
29.2298402243
 10
-52.9792809622
 20
28.1915872531
 10
-53.1062337343
 20
27.1184424545
 10
-53.2200310971
 20
26.0131474974
 10
-53.3285876337
 20
24.8774994941
 10
-53.4341178707
 20
23.7120888562
 10
-53.5379355919
 20
22.5168139995
 10
-53.6390240547
 20
21.2915918155
  0
LWPOLYLINE
  5
272
100
AcDbEntity
  8
SUPERFICI
100
AcDbPolyline
 62
250
  6
CONTINUOUS
 90
10
 70
0
 10
-52.3472324055
 20
31.1792575273
 10
-52.2976740843
 20
31.3235611191
 10
-52.2449641969
 20
31.4653285003
 10
-52.1891864338
 20
31.6044689113
 10
-52.1303919234
 20
31.7409708544
 10
-52.0686832225
 20
31.8747002243
 10
-52.0040981844
 20
32.0056638629
 10
-51.9367175246
 20
32.1338180901
 10
-51.8666377595
 20
32.2590557656
 10
-51.7937657258
 20
32.3816012438
  0
LWPOLYLINE
  5
273
100
AcDbEntity
  8
SUPERFICI
100
AcDbPolyline
 62
250
  6
CONTINUOUS
 90
10
 70
0
 10
-51.7937657258
 20
32.3816012438
 10
-51.7123044107
 20
32.5104114839
 10
-51.6280476333
 20
32.635556451
 10
-51.5411118527
 20
32.7569963682
 10
-51.4518826631
 20
32.8743878552
 10
-51.3599634382
 20
32.9882320146
 10
-51.2647690652
 20
33.0991974171
 10
-51.1664986356
 20
33.2070015076
 10
-51.0657169831
 20
33.3110477898
 10
-50.962669325
 20
33.4112762543
  0
LWPOLYLINE
  5
274
100
AcDbEntity
  8
SUPERFICI
100
AcDbPolyline
 62
250
  6
CONTINUOUS
 90
10
 70
0
 10
-50.962669325
 20
33.4112762543
 10
-50.8060971774
 20
33.5528474666
 10
-50.6414179872
 20
33.6892329929
 10
-50.4689391367
 20
33.8197407799
 10
-50.2891532349
 20
33.9436416839
 10
-50.1025463142
 20
34.0607416718
 10
-49.9091430383
 20
34.171391619
 10
-49.7087898734
 20
34.2761500951
 10
-49.5017777728
 20
34.3751313584
 10
-49.2883960462
 20
34.468409366
  0
LWPOLYLINE
  5
275
100
AcDbEntity
  8
SUPERFICI
100
AcDbPolyline
 62
250
  6
CONTINUOUS
 90
10
 70
0
 10
-55.3876151483
 20
36.673112955
 10
-55.2066838296
 20
36.7943167488
 10
-55.008803378
 20
36.899191702
 10
-54.7974529292
 20
36.9898588273
 10
-54.5762017529
 20
37.0688660391
 10
-54.3466271061
 20
37.1378833683
 10
-54.1095976209
 20
37.1985881922
 10
-53.8657377989
 20
37.2533472902
 10
-53.6153687588
 20
37.3031459967
 10
-53.35906969
 20
37.3482566975
  0
LWPOLYLINE
  5
276
100
AcDbEntity
  8
SUPERFICI
100
AcDbPolyline
 62
250
  6
CONTINUOUS
 90
10
 70
0
 10
-57.9332624275
 20
38.687149363
 10
-57.8190719222
 20
38.7459721224
 10
-57.7023484054
 20
38.7998034088
 10
-57.5831650599
 20
38.8481058907
 10
-57.4618352165
 20
38.8902238686
 10
-57.3382348743
 20
38.9257236764
 10
-57.2117364954
 20
38.954221312
 10
-57.0824206406
 20
38.9758358863
 10
-56.9512687619
 20
38.9917477888
 10
-56.8190891436
 20
39.0034431954
  0
LWPOLYLINE
  5
277
100
AcDbEntity
  8
SUPERFICI
100
AcDbPolyline
 62
250
  6
CONTINUOUS
 90
10
 70
0
 10
-57.9332624275
 20
-38.687149363
 10
-57.8190719222
 20
-38.7459721224
 10
-57.7023484054
 20
-38.7998034088
 10
-57.5831650599
 20
-38.8481058907
 10
-57.4618352165
 20
-38.8902238686
 10
-57.3382348743
 20
-38.9257236764
 10
-57.2117364954
 20
-38.954221312
 10
-57.0824206406
 20
-38.9758358863
 10
-56.9512687619
 20
-38.9917477888
 10
-56.8190891436
 20
-39.0034431954
  0
LWPOLYLINE
  5
278
100
AcDbEntity
  8
SUPERFICI
100
AcDbPolyline
 62
250
  6
CONTINUOUS
 90
10
 70
0
 10
-55.3876151483
 20
-36.673112955
 10
-55.2066838296
 20
-36.7943167488
 10
-55.008803378
 20
-36.899191702
 10
-54.7974529292
 20
-36.9898588273
 10
-54.5762017529
 20
-37.0688660391
 10
-54.3466271061
 20
-37.1378833683
 10
-54.1095976209
 20
-37.1985881922
 10
-53.8657377989
 20
-37.2533472902
 10
-53.6153687588
 20
-37.3031459967
 10
-53.35906969
 20
-37.3482566975
  0
LWPOLYLINE
  5
279
100
AcDbEntity
  8
SUPERFICI
100
AcDbPolyline
 62
250
  6
CONTINUOUS
 90
10
 70
0
 10
-50.962669325
 20
-33.4112762543
 10
-50.8060971774
 20
-33.5528474666
 10
-50.6414179872
 20
-33.6892329929
 10
-50.4689391367
 20
-33.8197407799
 10
-50.2891532349
 20
-33.9436416839
 10
-50.1025463142
 20
-34.0607416718
 10
-49.9091430383
 20
-34.171391619
 10
-49.7087898734
 20
-34.2761500951
 10
-49.5017777728
 20
-34.3751313584
 10
-49.2883960462
 20
-34.468409366
  0
LWPOLYLINE
  5
27A
100
AcDbEntity
  8
SUPERFICI
100
AcDbPolyline
 62
250
  6
CONTINUOUS
 90
10
 70
0
 10
-51.7937657258
 20
-32.3816012438
 10
-51.7123044107
 20
-32.5104114839
 10
-51.6280476333
 20
-32.635556451
 10
-51.5411118527
 20
-32.7569963682
 10
-51.4518826631
 20
-32.8743878552
 10
-51.3599634382
 20
-32.9882320146
 10
-51.2647690652
 20
-33.0991974171
 10
-51.1664986356
 20
-33.2070015076
 10
-51.0657169831
 20
-33.3110477898
 10
-50.962669325
 20
-33.4112762543
  0
LWPOLYLINE
  5
27B
100
AcDbEntity
  8
SUPERFICI
100
AcDbPolyline
 62
250
  6
CONTINUOUS
 90
10
 70
0
 10
-52.3472324055
 20
-31.1792575273
 10
-52.2976740843
 20
-31.3235611191
 10
-52.2449641969
 20
-31.4653285003
 10
-52.1891864338
 20
-31.6044689113
 10
-52.1303919234
 20
-31.7409708544
 10
-52.0686832225
 20
-31.8747002243
 10
-52.0040981844
 20
-32.0056638629
 10
-51.9367175246
 20
-32.1338180901
 10
-51.8666377595
 20
-32.2590557656
 10
-51.7937657258
 20
-32.3816012438
  0
LWPOLYLINE
  5
27C
100
AcDbEntity
  8
SUPERFICI
100
AcDbPolyline
 62
250
  6
CONTINUOUS
 90
10
 70
0
 10
-53.6390240547
 20
-21.2915918155
 10
-53.5382058213
 20
-22.5167496275
 10
-53.4343002657
 20
-23.7119443162
 10
-53.3276444143
 20
-24.8771771369
 10
-53.2194748762
 20
-26.0128610486
 10
-53.1064049029
 20
-27.1182602828
 10
-52.9792717853
 20
-28.1914148781
 10
-52.8237804077
 20
-29.2297139271
 10
-52.6158049807
 20
-30.2272132186
 10
-52.3472324055
 20
-31.1792575273
  0
LWPOLYLINE
  5
27D
100
AcDbEntity
  8
SUPERFICI
100
AcDbPolyline
 62
250
  6
CONTINUOUS
 90
10
 70
0
 10
-53.6390240547
 20
-21.2915918155
 10
-53.8174602625
 20
-18.9299338208
 10
-53.9749290265
 20
-16.5668927004
 10
-54.1114232568
 20
-14.2026074546
 10
-54.2269382342
 20
-11.8371636848
 10
-54.3214635477
 20
-9.4707538143
 10
-54.3949878356
 20
-7.1036772774
 10
-54.4475073239
 20
-4.7361267472
 10
-54.4790210864
 20
-2.3681879464
 10
-54.4895263008
 20
-0.0000000001
  0
LWPOLYLINE
  5
27E
100
AcDbEntity
  8
SUPERFICI
100
AcDbPolyline
 62
250
  6
CONTINUOUS
 90
10
 70
0
 10
-53.6390240547
 20
21.2915918155
 10
-53.8174602625
 20
18.9299338207
 10
-53.9749290265
 20
16.5668927004
 10
-54.1114232568
 20
14.2026074546
 10
-54.2269382342
 20
11.8371636848
 10
-54.3214635477
 20
9.4707538142
 10
-54.3949878356
 20
7.1036772773
 10
-54.4475073239
 20
4.7361267471
 10
-54.4790210864
 20
2.3681879462
 10
-54.4895263008
 20
-0.0000000001
  0
LWPOLYLINE
  5
27F
100
AcDbEntity
  8
SUPERFICI
100
AcDbPolyline
 62
250
  6
CONTINUOUS
 90
10
 70
0
 10
-44.7796350571
 20
26.5562558118
 10
-44.7234694617
 20
26.6731364957
 10
-44.6662351281
 20
26.7887319647
 10
-44.6079226603
 20
26.9030153852
 10
-44.548489035
 20
27.0160262866
 10
-44.487953267
 20
27.1276862251
 10
-44.426292954
 20
27.2379938294
 10
-44.3634848377
 20
27.3469612033
 10
-44.2995433016
 20
27.4545252576
 10
-44.2343749866
 20
27.5608043266
  0
LWPOLYLINE
  5
280
100
AcDbEntity
  8
SUPERFICI
100
AcDbPolyline
 62
250
  6
CONTINUOUS
 90
10
 70
0
 10
-44.2343749866
 20
27.5608043266
 10
-44.1646400387
 20
27.6709565342
 10
-44.0936960904
 20
27.7792799175
 10
-44.0215179858
 20
27.885638927
 10
-43.9480145975
 20
27.9900220916
 10
-43.8730373605
 20
28.0925223356
 10
-43.7965499983
 20
28.1931323607
 10
-43.7186713636
 20
28.2916752627
 10
-43.6395700464
 20
28.3879248988
 10
-43.5594131872
 20
28.4816778921
  0
LWPOLYLINE
  5
281
100
AcDbEntity
  8
SUPERFICI
100
AcDbPolyline
 62
250
  6
CONTINUOUS
 90
10
 70
0
 10
-44.2343749866
 20
-27.5608043266
 10
-44.1646400387
 20
-27.6709565342
 10
-44.0936960904
 20
-27.7792799175
 10
-44.0215179858
 20
-27.885638927
 10
-43.9480145975
 20
-27.9900220916
 10
-43.8730373605
 20
-28.0925223356
 10
-43.7965499983
 20
-28.1931323607
 10
-43.7186713636
 20
-28.2916752627
 10
-43.6395700464
 20
-28.3879248988
 10
-43.5594131872
 20
-28.4816778921
  0
LWPOLYLINE
  5
282
100
AcDbEntity
  8
SUPERFICI
100
AcDbPolyline
 62
250
  6
CONTINUOUS
 90
10
 70
0
 10
-44.7796350571
 20
-26.5562558118
 10
-44.7234694617
 20
-26.6731364957
 10
-44.6662351281
 20
-26.7887319647
 10
-44.6079226603
 20
-26.9030153852
 10
-44.548489035
 20
-27.0160262866
 10
-44.487953267
 20
-27.1276862251
 10
-44.426292954
 20
-27.2379938294
 10
-44.3634848377
 20
-27.3469612033
 10
-44.2995433016
 20
-27.4545252576
 10
-44.2343749866
 20
-27.5608043266
  0
LWPOLYLINE
  5
283
100
AcDbEntity
  8
SUPERFICI
100
AcDbPolyline
 62
250
  6
CONTINUOUS
 90
10
 70
0
 10
-46.8543626291
 20
18.2420506074
 10
-47.1861728542
 20
16.2317502183
 10
-47.4791761522
 20
14.2157844198
 10
-47.7333075643
 20
12.1947291554
 10
-47.9485240553
 20
10.1689332377
 10
-48.124729865
 20
8.1392001845
 10
-48.2618203349
 20
6.1067920484
 10
-48.3597610846
 20
4.0725173455
 10
-48.4185441866
 20
2.0367272278
 10
-48.4381441976
 20
-0.0
  0
LWPOLYLINE
  5
284
100
AcDbEntity
  8
SUPERFICI
100
AcDbPolyline
 62
250
  6
CONTINUOUS
 90
10
 70
0
 10
-46.8543626291
 20
18.2420506074
 10
-46.6718075221
 20
19.2564448632
 10
-46.4829606437
 20
20.250578147
 10
-46.2883102428
 20
21.2246053133
 10
-46.0883623746
 20
22.1792441948
 10
-45.8846381702
 20
23.114359418
 10
-45.6706270405
 20
24.0264309133
 10
-45.4216328352
 20
24.9073124792
 10
-45.1253906292
 20
25.7518640751
 10
-44.7796350571
 20
26.5562558118
  0
LINE
  5
285
100
AcDbEntity
  8
0
100
AcDbLine
 62
7
  6
CONTINUOUS
 10
-59.874396261
 20
-3.5
 11
-60.0001749313
 21
-3.7099727925
  0
LWPOLYLINE
  5
286
100
AcDbEntity
  8
SUPERFICI
100
AcDbPolyline
 62
250
  6
CONTINUOUS
 90
10
 70
0
 10
-43.5594131872
 20
28.4816778921
 10
-43.431563869
 20
28.6236921615
 10
-43.2996702333
 20
28.7610947051
 10
-43.1639954377
 20
28.893394835
 10
-43.025385033
 20
29.0196272261
 10
-42.8833394923
 20
29.1402325174
 10
-42.7360171421
 20
29.256809729
 10
-42.5827969487
 20
29.3699154585
 10
-42.4243913691
 20
29.4790224157
 10
-42.2608919681
 20
29.5841011634
  0
LWPOLYLINE
  5
287
100
AcDbEntity
  8
SUPERFICI
100
AcDbPolyline
 62
250
  6
CONTINUOUS
 90
10
 70
0
 10
-49.2883960462
 20
34.468409366
 10
-48.9012204217
 20
34.6182643116
 10
-48.4998299368
 20
34.7518505067
 10
-48.0860661117
 20
34.8709022082
 10
-47.6615707111
 20
34.9769536448
 10
-47.2270722141
 20
35.0706881797
 10
-46.7829651404
 20
35.1525086304
 10
-46.3296969395
 20
35.2229560437
 10
-45.8678341507
 20
35.2828610848
 10
-45.3975904597
 20
35.3332178334
  0
LWPOLYLINE
  5
288
100
AcDbEntity
  8
SUPERFICI
100
AcDbPolyline
 62
250
  6
CONTINUOUS
 90
10
 70
0
 10
-49.2883960462
 20
-34.468409366
 10
-48.9012204217
 20
-34.6182643116
 10
-48.4998299368
 20
-34.7518505067
 10
-48.0860661117
 20
-34.8709022082
 10
-47.6615707111
 20
-34.9769536448
 10
-47.2270722141
 20
-35.0706881797
 10
-46.7829651404
 20
-35.1525086304
 10
-46.3296969395
 20
-35.2229560437
 10
-45.8678341507
 20
-35.2828610848
 10
-45.3975904597
 20
-35.3332178334
  0
LWPOLYLINE
  5
289
100
AcDbEntity
  8
SUPERFICI
100
AcDbPolyline
 62
250
  6
CONTINUOUS
 90
10
 70
0
 10
-42.2608919681
 20
-29.5841011634
 10
-41.9533149967
 20
-29.7635305348
 10
-41.6312306195
 20
-29.9293809671
 10
-41.2954190937
 20
-30.0819450502
 10
-40.946954891
 20
-30.2215790558
 10
-40.5869157526
 20
-30.3489384263
 10
-40.2162881471
 20
-30.464893782
 10
-39.8363721773
 20
-30.5702622932
 10
-39.448015834
 20
-30.6655876029
 10
-39.0508246976
 20
-30.7515950091
  0
LWPOLYLINE
  5
28A
100
AcDbEntity
  8
SUPERFICI
100
AcDbPolyline
 62
250
  6
CONTINUOUS
 90
10
 70
0
 10
-43.5594131872
 20
-28.4816778921
 10
-43.431563869
 20
-28.6236921615
 10
-43.2996702333
 20
-28.7610947051
 10
-43.1639954377
 20
-28.893394835
 10
-43.025385033
 20
-29.0196272261
 10
-42.8833394923
 20
-29.1402325174
 10
-42.7360171421
 20
-29.256809729
 10
-42.5827969487
 20
-29.3699154585
 10
-42.4243913691
 20
-29.4790224157
 10
-42.2608919681
 20
-29.5841011634
  0
LINE
  5
28B
100
AcDbEntity
  8
0
100
AcDbLine
 62
7
  6
CONTINUOUS
 10
-60.0001749313
 20
3.7099727925
 11
-59.874396261
 21
3.5
  0
LWPOLYLINE
  5
28C
100
AcDbEntity
  8
SUPERFICI
100
AcDbPolyline
 62
250
  6
CONTINUOUS
 90
10
 70
0
 10
-46.8543626291
 20
-18.2420506074
 10
-46.6718075221
 20
-19.2564448632
 10
-46.4829606437
 20
-20.250578147
 10
-46.2883102428
 20
-21.2246053133
 10
-46.0883623746
 20
-22.1792441948
 10
-45.8846381702
 20
-23.114359418
 10
-45.6706270405
 20
-24.0264309133
 10
-45.4216328352
 20
-24.9073124792
 10
-45.1253906292
 20
-25.7518640751
 10
-44.7796350571
 20
-26.5562558118
  0
LWPOLYLINE
  5
28D
100
AcDbEntity
  8
SUPERFICI
100
AcDbPolyline
 62
250
  6
CONTINUOUS
 90
10
 70
0
 10
-46.8543626291
 20
-18.2420506074
 10
-47.1861728542
 20
-16.2317502183
 10
-47.4791761522
 20
-14.2157844198
 10
-47.7333075643
 20
-12.1947291554
 10
-47.9485240553
 20
-10.1689332377
 10
-48.124729865
 20
-8.1392001845
 10
-48.2618203349
 20
-6.1067920484
 10
-48.3597610846
 20
-4.0725173455
 10
-48.4185441866
 20
-2.0367272278
 10
-48.4381441976
 20
-0.0
  0
LWPOLYLINE
  5
28E
100
AcDbEntity
  8
SUPERFICI
100
AcDbPolyline
 62
7
  6
CONTINUOUS
 90
10
 70
0
 10
-37.0627122617
 20
23.2624446145
 10
-37.0954196038
 20
23.1657621083
 10
-37.1252439483
 20
23.0683571806
 10
-37.1521827297
 20
22.9702839953
 10
-37.1762383273
 20
22.8715730689
 10
-37.1974127693
 20
22.7722178913
 10
-37.215669712
 20
22.6724177705
 10
-37.2309902937
 20
22.5723215158
 10
-37.2433909589
 20
22.4718695394
 10
-37.2528685132
 20
22.3711064406
  0
LWPOLYLINE
  5
28F
100
AcDbEntity
  8
SUPERFICI
100
AcDbPolyline
 62
7
  6
CONTINUOUS
 90
10
 70
0
 10
-36.6623177384
 20
24.0564348734
 10
-36.71641404
 20
23.973793794
 10
-36.7683138335
 20
23.8894319485
 10
-36.8178713772
 20
23.8035514838
 10
-36.8649902002
 20
23.7163168349
 10
-36.90960712
 20
23.6278582453
 10
-36.9516952044
 20
23.538233788
 10
-36.9912525909
 20
23.4474511766
 10
-37.0282700904
 20
23.3555239796
 10
-37.0627332749
 20
23.2624569637
  0
LWPOLYLINE
  5
290
100
AcDbEntity
  8
SUPERFICI
100
AcDbPolyline
 62
7
  6
CONTINUOUS
 90
10
 70
0
 10
-35.7288112852
 20
25.0036036029
 10
-35.853649445
 20
24.9115413817
 10
-35.9730261967
 20
24.815815301
 10
-36.0871153499
 20
24.7165146561
 10
-36.1963075512
 20
24.6135464521
 10
-36.3006589128
 20
24.5071917526
 10
-36.399652272
 20
24.3980244628
 10
-36.4929784591
 20
24.2863085497
 10
-36.5806027401
 20
24.1722841309
 10
-36.6623177384
 20
24.0564348734
  0
LINE
  5
291
100
AcDbEntity
  8
SUPERFICI
100
AcDbLine
 62
250
  6
CONTINUOUS
 10
56.8190891436
 20
-39.0034431954
 11
56.7104765622
 21
-39.0084969252
  0
LINE
  5
292
100
AcDbEntity
  8
SUPERFICI
100
AcDbLine
 62
250
  6
CONTINUOUS
 10
-56.0458256499
 20
-39.0455776985
 11
-55.8231328005
 21
-39.0544976394
  0
LINE
  5
293
100
AcDbEntity
  8
SUPERFICI
100
AcDbLine
 62
250
  6
CONTINUOUS
 10
-56.2677548237
 20
-39.0354982781
 11
-56.0458256499
 21
-39.0455776985
  0
LINE
  5
294
100
AcDbEntity
  8
SUPERFICI
100
AcDbLine
 62
250
  6
CONTINUOUS
 10
-56.4889116352
 20
-39.0242010053
 11
-56.2677548237
 21
-39.0354982781
  0
LWPOLYLINE
  5
295
100
AcDbEntity
  8
SUPERFICI
100
AcDbPolyline
 62
250
  6
CONTINUOUS
 90
3
 70
0
 10
-56.8191453179
 20
-39.0048498793
 10
-56.7092670175
 20
-39.0116302647
 10
-56.4889116352
 20
-39.0242010053
  0
LWPOLYLINE
  5
296
100
AcDbEntity
  8
SUPERFICI
100
AcDbPolyline
 62
250
  6
CONTINUOUS
 90
10
 70
0
 10
-57.04235868
 20
-39.7559298907
 10
-57.4488786764
 20
-39.7256425675
 10
-57.8464781005
 20
-39.6349030952
 10
-58.2261982068
 20
-39.4856813546
 10
-58.5794963128
 20
-39.2812336736
 10
-58.8983406252
 20
-39.0261350478
 10
-59.1754514622
 20
-38.7262192441
 10
-59.4045817535
 20
-38.3882790715
 10
-59.5805988646
 20
-38.0198747435
 10
-59.6995418962
 20
-37.6292940192
  0
LWPOLYLINE
  5
297
100
AcDbEntity
  8
SUPERFICI
100
AcDbPolyline
 62
7
  6
CONTINUOUS
 90
10
 70
0
 10
-35.7288112852
 20
-25.0036036029
 10
-35.853649445
 20
-24.9115413817
 10
-35.9730261967
 20
-24.815815301
 10
-36.0871153499
 20
-24.7165146561
 10
-36.1963075512
 20
-24.6135464521
 10
-36.3006589128
 20
-24.5071917526
 10
-36.399652272
 20
-24.3980244628
 10
-36.4929784591
 20
-24.2863085497
 10
-36.5806027401
 20
-24.1722841309
 10
-36.6623177384
 20
-24.0564348734
  0
LWPOLYLINE
  5
298
100
AcDbEntity
  8
SUPERFICI
100
AcDbPolyline
 62
7
  6
CONTINUOUS
 90
10
 70
0
 10
-36.6623177384
 20
-24.0564348734
 10
-36.71641404
 20
-23.973793794
 10
-36.7683138335
 20
-23.8894319485
 10
-36.8178713772
 20
-23.8035514838
 10
-36.8649902002
 20
-23.7163168349
 10
-36.90960712
 20
-23.6278582453
 10
-36.9516952044
 20
-23.538233788
 10
-36.9912525909
 20
-23.4474511766
 10
-37.0282700904
 20
-23.3555239796
 10
-37.0627332749
 20
-23.2624569637
  0
LWPOLYLINE
  5
299
100
AcDbEntity
  8
SUPERFICI
100
AcDbPolyline
 62
7
  6
CONTINUOUS
 90
10
 70
0
 10
-37.0627122617
 20
-23.2624446145
 10
-37.0954196038
 20
-23.1657621083
 10
-37.1252439483
 20
-23.0683571806
 10
-37.1521827297
 20
-22.9702839953
 10
-37.1762383273
 20
-22.8715730689
 10
-37.1974127693
 20
-22.7722178913
 10
-37.215669712
 20
-22.6724177705
 10
-37.2309902937
 20
-22.5723215158
 10
-37.2433909589
 20
-22.4718695394
 10
-37.2528685132
 20
-22.3711064406
  0
LWPOLYLINE
  5
29A
100
AcDbEntity
  8
SUPERFICI
100
AcDbPolyline
 62
7
  6
CONTINUOUS
 90
8
 70
0
 10
-37.2528906362
 20
-22.3711183207
 10
-37.2554500665
 20
-22.3358022431
 10
-37.2575794276
 20
-22.3003381905
 10
-37.2593229008
 20
-22.2647374937
 10
-37.2607249135
 20
-22.2290137439
 10
-37.261830408
 20
-22.1931762681
 10
-37.2626846747
 20
-22.1572300898
 10
-37.2633331244
 20
-22.1211846595
  0
LINE
  5
29B
100
AcDbEntity
  8
SUPERFICI
100
AcDbLine
 62
7
  6
CONTINUOUS
 10
-37.2633331244
 20
-22.1211846595
 11
-37.2641958126
 21
-22.0488496307
  0
LINE
  5
29C
100
AcDbEntity
  8
SUPERFICI
100
AcDbLine
 62
7
  6
CONTINUOUS
 10
-37.2641958126
 20
-22.0488496307
 11
-37.264379723
 21
20.581387586
  0
LINE
  5
29D
100
AcDbEntity
  8
SUPERFICI
100
AcDbLine
 62
7
  6
CONTINUOUS
 10
-37.2641958126
 20
22.0488496307
 11
-37.264379723
 21
20.581387586
  0
LWPOLYLINE
  5
29E
100
AcDbEntity
  8
SUPERFICI
100
AcDbPolyline
 62
7
  6
CONTINUOUS
 90
9
 70
0
 10
-37.2528906362
 20
22.3711183207
 10
-37.2554500665
 20
22.3358022431
 10
-37.2575794276
 20
22.3003381905
 10
-37.2593229008
 20
22.2647374937
 10
-37.2607249135
 20
22.2290137439
 10
-37.261830408
 20
22.1931762681
 10
-37.2626846747
 20
22.1572300898
 10
-37.2633331244
 20
22.1211846595
 10
-37.2641958126
 20
22.0488496307
  0
LWPOLYLINE
  5
29F
100
AcDbEntity
  8
SUPERFICI
100
AcDbPolyline
 62
250
  6
CONTINUOUS
 90
10
 70
0
 10
-35.4468608503
 20
22.1392525329
 10
-35.4001386264
 20
22.4695693476
 10
-35.3019732897
 20
22.7918790592
 10
-35.1555460055
 20
23.0971002558
 10
-34.9643542891
 20
23.375811315
 10
-34.7314603864
 20
23.61977942
 10
-34.4615450257
 20
23.8239229032
 10
-34.1625749422
 20
23.9845847964
 10
-33.8437062561
 20
24.0975287297
 10
-33.5138568048
 20
24.1588090258
  0
LWPOLYLINE
  5
2A0
100
AcDbEntity
  8
0
100
AcDbPolyline
 62
7
  6
CONTINUOUS
 90
3
 70
0
 10
-33.8355447918
 20
22.2186737998
 10
-33.8109005415
 20
22.3008548442
 10
-33.7803228022
 20
22.3646272718
  0
LWPOLYLINE
  5
2A1
100
AcDbEntity
  8
SUPERFICI
100
AcDbPolyline
 62
7
  6
CONTINUOUS
 90
4
 70
0
 10
-33.861306027
 20
22.2184147613
 10
-33.8392528173
 20
22.2686074405
 10
-33.8123907945
 20
22.3171138077
 10
-33.7818540414
 20
22.3621932798
  0
LWPOLYLINE
  5
2A2
100
AcDbEntity
  8
SUPERFICI
100
AcDbPolyline
 62
7
  6
CONTINUOUS
 90
4
 70
0
 10
-33.7818540414
 20
22.3621932798
 10
-33.7456968691
 20
22.4062691289
 10
-33.7065481491
 20
22.4456587055
 10
-33.6617632937
 20
22.4827815245
  0
LWPOLYLINE
  5
2A3
100
AcDbEntity
  8
0
100
AcDbPolyline
 62
7
  6
CONTINUOUS
 90
3
 70
0
 43
0.3500000006
 10
-3.2142856836
 20
50.8834104767
 10
-2.3571427875
 20
51.7405574799
 10
-2.3571427875
 20
48.7405565643
  0
LWPOLYLINE
  5
2A4
100
AcDbEntity
  8
SUPERFICI
100
AcDbPolyline
 62
7
  6
CONTINUOUS
 90
4
 70
0
 10
-33.6617632937
 20
22.4827815245
 10
-33.6175517707
 20
22.5130412079
 10
-33.5689394955
 20
22.5402945814
 10
-33.5185142178
 20
22.5627275258
  0
LWPOLYLINE
  5
2A5
100
AcDbEntity
  8
SUPERFICI
100
AcDbPolyline
 62
250
  6
CONTINUOUS
 90
7
 70
0
 10
39.0508246976
 20
-30.7515950091
 10
38.3394147012
 20
-30.8811698874
 10
37.6128255843
 20
-30.9876447488
 10
36.8724220788
 20
-31.0764156171
 10
36.1188895034
 20
-31.1517527532
 10
35.3529092098
 20
-31.2103084842
 10
34.5761862598
 20
-31.2529815571
  0
LWPOLYLINE
  5
2A6
100
AcDbEntity
  8
SUPERFICI
100
AcDbPolyline
 62
250
  6
CONTINUOUS
 90
5
 70
0
 10
45.3975904597
 20
-35.3332178334
 10
44.5394529596
 20
-35.4083054389
 10
43.6725990367
 20
-35.4683874328
 10
42.7972557795
 20
-35.5136213485
 10
41.9131879001
 20
-35.5452952675
  0
LWPOLYLINE
  5
2A7
100
AcDbEntity
  8
SUPERFICI
100
AcDbPolyline
 62
250
  6
CONTINUOUS
 90
10
 70
0
 10
49.0488028286
 20
-37.6866984292
 10
49.548628772
 20
-37.6696991882
 10
50.0434141112
 20
-37.6491131598
 10
50.5333544219
 20
-37.6242582988
 10
51.0182263112
 20
-37.5944984958
 10
51.4979313994
 20
-37.5594906747
 10
51.9723431571
 20
-37.5189784102
 10
52.4412016926
 20
-37.4720932304
 10
52.9037311005
 20
-37.4161324868
 10
53.35906969
 20
-37.3482566975
  0
LWPOLYLINE
  5
2A8
100
AcDbEntity
  8
SUPERFICI
100
AcDbPolyline
 62
250
  6
CONTINUOUS
 90
3
 70
0
 10
56.7104765622
 20
-39.0084969252
 10
55.9349446427
 20
-39.0342986846
 10
55.8221269279
 20
-39.0373750603
  0
LWPOLYLINE
  5
2A9
100
AcDbEntity
  8
SUPERFICI
100
AcDbPolyline
 62
250
  6
CONTINUOUS
 90
4
 70
0
 10
49.0488028286
 20
-37.6866984292
 10
48.1065701696
 20
-37.7111560103
 10
47.1591515029
 20
-37.7278007374
 10
46.2065782764
 20
-37.7380187565
  0
LINE
  5
2AA
100
AcDbEntity
  8
SUPERFICI
100
AcDbLine
 62
250
  6
CONTINUOUS
 10
41.9131879001
 20
-35.5452952675
 11
40.1232128895
 21
-35.5926931086
  0
LINE
  5
2AB
100
AcDbEntity
  8
SUPERFICI
100
AcDbLine
 62
250
  6
CONTINUOUS
 10
40.1232128895
 20
-35.5926931086
 11
38.3095536025
 21
-35.631399954
  0
LINE
  5
2AC
100
AcDbEntity
  8
SUPERFICI
100
AcDbLine
 62
250
  6
CONTINUOUS
 10
55.8221285569
 20
-39.0373755861
 11
54.8244886956
 21
-39.057172978
  0
LINE
  5
2AD
100
AcDbEntity
  8
SUPERFICI
100
AcDbLine
 62
250
  6
CONTINUOUS
 10
54.8244886956
 20
-39.057172978
 11
53.3385794239
 21
-39.0789154525
  0
LINE
  5
2AE
100
AcDbEntity
  8
SUPERFICI
100
AcDbLine
 62
250
  6
CONTINUOUS
 10
53.3385794239
 20
-39.0789154525
 11
51.866115384
 21
-39.0937305005
  0
LINE
  5
2AF
100
AcDbEntity
  8
SUPERFICI
100
AcDbLine
 62
250
  6
CONTINUOUS
 10
46.2065782764
 20
-37.7380187565
 11
42.3474213566
 21
-37.754265829
  0
LINE
  5
2B0
100
AcDbEntity
  8
SUPERFICI
100
AcDbLine
 62
250
  6
CONTINUOUS
 10
51.866115384
 20
-39.0937305005
 11
50.3820679732
 21
-39.1006169111
  0
LINE
  5
2B1
100
AcDbEntity
  8
SUPERFICI
100
AcDbLine
 62
250
  6
CONTINUOUS
 10
36.5455629705
 20
-37.7694558941
 11
42.3474213566
 21
-37.754265829
  0
LINE
  5
2B2
100
AcDbEntity
  8
SUPERFICI
100
AcDbLine
 62
250
  6
CONTINUOUS
 10
50.3820679732
 20
-39.1006169111
 11
47.3785588893
 21
-39.1066246592
  0
LINE
  5
2B3
100
AcDbEntity
  8
SUPERFICI
100
AcDbLine
 62
250
  6
CONTINUOUS
 10
-23.0821126799
 20
-37.7652788987
 11
-30.7908868857
 21
-37.7730730395
  0
LINE
  5
2B4
100
AcDbEntity
  8
SUPERFICI
100
AcDbLine
 62
250
  6
CONTINUOUS
 10
-23.0840865804
 20
-37.7654303256
 11
-0.0008065511
 21
-37.7623501141
  0
LINE
  5
2B5
100
AcDbEntity
  8
0
100
AcDbLine
 62
7
  6
CONTINUOUS
 10
-57.04235868
 20
-39.9905517294
 11
57.04235868
 21
-39.9905517294
  0
LINE
  5
2B6
100
AcDbEntity
  8
SUPERFICI
100
AcDbLine
 62
250
  6
CONTINUOUS
 10
57.04235868
 20
-39.755781292
 11
-57.04235868
 21
-39.755781292
  0
LINE
  5
2B7
100
AcDbEntity
  8
SUPERFICI
100
AcDbLine
 62
250
  6
CONTINUOUS
 10
-42.3191150428
 20
-39.1028307873
 11
-24.1822254608
 21
-39.1028895476
  0
LINE
  5
2B8
100
AcDbEntity
  8
SUPERFICI
100
AcDbLine
 62
250
  6
CONTINUOUS
 10
42.3191150428
 20
-39.1028307873
 11
24.1822254608
 21
-39.1028895476
  0
LINE
  5
2B9
100
AcDbEntity
  8
SUPERFICI
100
AcDbLine
 62
250
  6
CONTINUOUS
 10
-24.18088115
 20
-39.0989757475
 11
24.1789418635
 21
-39.0987112248
  0
LINE
  5
2BA
100
AcDbEntity
  8
SUPERFICI
100
AcDbLine
 62
250
  6
CONTINUOUS
 10
30.7908868857
 20
-37.7730730395
 11
36.5455629705
 21
-37.7694558941
  0
LINE
  5
2BB
100
AcDbEntity
  8
0
100
AcDbLine
 62
250
  6
CONTINUOUS
 10
59.765510132
 20
-37.0327354781
 11
60.0001749313
 21
-37.0327354782
  0
LINE
  5
2BC
100
AcDbEntity
  8
0
100
AcDbLine
 62
250
  6
CONTINUOUS
 10
-59.765510132
 20
-37.0327354781
 11
-60.0001749313
 21
-37.0327354782
  0
LINE
  5
2BD
100
AcDbEntity
  8
SUPERFICI
100
AcDbLine
 62
250
  6
CONTINUOUS
 10
47.3785588893
 20
-39.1066246592
 11
44.3522979919
 21
-39.1074762594
  0
LINE
  5
2BE
100
AcDbEntity
  8
SUPERFICI
100
AcDbLine
 62
250
  6
CONTINUOUS
 10
-30.7908868857
 20
-37.7730730395
 11
-34.6242322427
 21
-37.7720224102
  0
LINE
  5
2BF
100
AcDbEntity
  8
SUPERFICI
100
AcDbLine
 62
250
  6
CONTINUOUS
 10
-48.382253188
 20
-39.1051854391
 11
-42.3223614109
 21
-39.1051045143
  0
LWPOLYLINE
  5
2C0
100
AcDbEntity
  8
SUPERFICI
100
AcDbPolyline
 62
250
  6
CONTINUOUS
 90
3
 70
0
 10
-0.0008065511
 20
-37.7623501141
 10
25.0157755864
 20
-37.7679282707
 10
30.7908868857
 20
-37.7730730395
  0
LINE
  5
2C1
100
AcDbEntity
  8
SUPERFICI
100
AcDbLine
 62
250
  6
CONTINUOUS
 10
44.3522979919
 20
-39.1074762594
 11
42.3223614109
 21
-39.1051045143
  0
LINE
  5
2C2
100
AcDbEntity
  8
SUPERFICI
100
AcDbLine
 62
250
  6
CONTINUOUS
 10
-34.6242322427
 20
-37.7720224102
 11
-38.4687089439
 21
-37.7655475137
  0
LINE
  5
2C3
100
AcDbEntity
  8
SUPERFICI
100
AcDbLine
 62
250
  6
CONTINUOUS
 10
-51.3780820371
 20
-39.0974101611
 11
-48.382253188
 21
-39.1051854391
  0
LINE
  5
2C4
100
AcDbEntity
  8
SUPERFICI
100
AcDbLine
 62
250
  6
CONTINUOUS
 10
-53.3385794239
 20
-39.0789154525
 11
-51.3780821228
 21
-39.0974101675
  0
LWPOLYLINE
  5
2C5
100
AcDbEntity
  8
SUPERFICI
100
AcDbPolyline
 62
250
  6
CONTINUOUS
 90
8
 70
0
 10
-35.5807119647
 20
-35.681105194
 10
-33.7768386848
 20
-35.7093184467
 10
-31.9819136477
 20
-35.733674656
 10
-30.1971479281
 20
-35.7542605618
 10
-28.4213472591
 20
-35.7710924083
 10
-26.6509139797
 20
-35.7841713229
 10
-24.8846534711
 20
-35.7932503121
 10
-23.1237766333
 20
-35.7973849612
  0
LINE
  5
2C6
100
AcDbEntity
  8
SUPERFICI
100
AcDbLine
 62
250
  6
CONTINUOUS
 10
-54.8244886956
 20
-39.057172978
 11
-53.3385794239
 21
-39.0789154525
  0
LINE
  5
2C7
100
AcDbEntity
  8
SUPERFICI
100
AcDbLine
 62
250
  6
CONTINUOUS
 10
-39.2194655836
 20
-35.6129412177
 11
-35.5807119647
 21
-35.681105194
  0
LINE
  5
2C8
100
AcDbEntity
  8
SUPERFICI
100
AcDbLine
 62
250
  6
CONTINUOUS
 10
-55.8221285569
 20
-39.0373755861
 11
-54.8244886956
 21
-39.057172978
  0
LWPOLYLINE
  5
2C9
100
AcDbEntity
  8
SUPERFICI
100
AcDbPolyline
 62
250
  6
CONTINUOUS
 90
5
 70
0
 10
-49.0488028286
 20
-37.6866984292
 10
-48.1065701696
 20
-37.7111560103
 10
-47.1591515029
 20
-37.7278007374
 10
-46.2065782764
 20
-37.7380187565
 10
-38.4687089439
 20
-37.7655475137
  0
LWPOLYLINE
  5
2CA
100
AcDbEntity
  8
SUPERFICI
100
AcDbPolyline
 62
250
  6
CONTINUOUS
 90
10
 70
0
 10
-49.0488028286
 20
-37.6866984292
 10
-49.548628772
 20
-37.6696991882
 10
-50.0434141112
 20
-37.6491131598
 10
-50.5333544219
 20
-37.6242582988
 10
-51.0182263112
 20
-37.5944984958
 10
-51.4979313994
 20
-37.5594906747
 10
-51.9723431571
 20
-37.5189784102
 10
-52.4412016926
 20
-37.4720932304
 10
-52.9037311005
 20
-37.4161324868
 10
-53.35906969
 20
-37.3482566975
  0
LWPOLYLINE
  5
2CB
100
AcDbEntity
  8
SUPERFICI
100
AcDbPolyline
 62
250
  6
CONTINUOUS
 90
7
 70
0
 10
-45.3975904597
 20
-35.3332178334
 10
-44.5394529596
 20
-35.4083054389
 10
-43.6725990367
 20
-35.4683874328
 10
-42.7972557795
 20
-35.5136213485
 10
-41.9131879001
 20
-35.5452952675
 10
-41.0212726435
 20
-35.5701143965
 10
-39.2194655836
 20
-35.6129412177
  0
LWPOLYLINE
  5
2CC
100
AcDbEntity
  8
SUPERFICI
100
AcDbPolyline
 62
250
  6
CONTINUOUS
 90
9
 70
0
 10
-39.0508246976
 20
-30.7515950091
 10
-38.3394147012
 20
-30.8811698874
 10
-37.6128255843
 20
-30.9876447488
 10
-36.8724220788
 20
-31.0764156171
 10
-36.1188895034
 20
-31.1517527532
 10
-35.3529092098
 20
-31.2103084842
 10
-34.5761862598
 20
-31.2529815571
 10
-33.7900280229
 20
-31.2901917748
 10
-32.1886423741
 20
-31.3574649338
  0
LWPOLYLINE
  5
2CD
100
AcDbEntity
  8
SUPERFICI
100
AcDbPolyline
 62
7
  6
CONTINUOUS
 90
4
 70
0
 10
-33.6617632937
 20
-22.4827815245
 10
-33.6175517707
 20
-22.5130412079
 10
-33.5689394955
 20
-22.5402945814
 10
-33.5185142178
 20
-22.5627275258
  0
LWPOLYLINE
  5
2CE
100
AcDbEntity
  8
SUPERFICI
100
AcDbPolyline
 62
7
  6
CONTINUOUS
 90
4
 70
0
 10
-33.7818540414
 20
-22.3621932798
 10
-33.7456968691
 20
-22.4062691289
 10
-33.7065481491
 20
-22.4456587055
 10
-33.6617632937
 20
-22.4827815245
  0
LWPOLYLINE
  5
2CF
100
AcDbEntity
  8
SUPERFICI
100
AcDbPolyline
 62
7
  6
CONTINUOUS
 90
4
 70
0
 10
-33.861306027
 20
-22.2184147613
 10
-33.8392528173
 20
-22.2686074405
 10
-33.8123907945
 20
-22.3171138077
 10
-33.7818540414
 20
-22.3621932798
  0
LINE
  5
2D0
100
AcDbEntity
  8
0
100
AcDbLine
 62
7
  6
CONTINUOUS
 10
-33.8082858024
 20
-22.3068734053
 11
-33.8343323543
 21
-22.2260711184
  0
LWPOLYLINE
  5
2D1
100
AcDbEntity
  8
SUPERFICI
100
AcDbPolyline
 62
250
  6
CONTINUOUS
 90
10
 70
0
 10
-35.4468608503
 20
-22.1392525329
 10
-35.4001386264
 20
-22.4695693476
 10
-35.3019732897
 20
-22.7918790592
 10
-35.1555460055
 20
-23.0971002558
 10
-34.9643542891
 20
-23.375811315
 10
-34.7314603864
 20
-23.61977942
 10
-34.4615450257
 20
-23.8239229032
 10
-34.1625749422
 20
-23.9845847964
 10
-33.8437062561
 20
-24.0975287297
 10
-33.5138568048
 20
-24.1588090258
  0
LINE
  5
2D2
100
AcDbEntity
  8
0
100
AcDbLine
 62
7
  6
CONTINUOUS
 10
-33.5185143723
 20
-22.562726873
 11
-33.5185702917
 21
-22.5368697967
  0
LINE
  5
2D3
100
AcDbEntity
  8
SUPERFICI
100
AcDbLine
 62
7
  6
CONTINUOUS
 10
-33.5117506066
 20
-25.724700364
 11
-33.5185140011
 21
-22.5617056208
  0
LINE
  5
2D4
100
AcDbEntity
  8
SUPERFICI
100
AcDbLine
 62
250
  6
CONTINUOUS
 10
-35.4464473296
 20
22.1392524891
 11
-35.4464473296
 21
-22.1392524891
  0
LINE
  5
2D5
100
AcDbEntity
  8
SUPERFICI
100
AcDbLine
 62
250
  6
CONTINUOUS
 10
-33.8617601176
 20
22.2186742152
 11
-33.8605482614
 21
-22.2186741821
  0
LINE
  5
2D6
100
AcDbEntity
  8
0
100
AcDbLine
 62
7
  6
CONTINUOUS
 10
-33.8343323543
 20
-22.2260711184
 11
-33.8355447918
 21
22.2186737998
  0
LINE
  5
2D7
100
AcDbEntity
  8
0
100
AcDbLine
 62
7
  6
CONTINUOUS
 10
-33.5185143723
 20
22.562726873
 11
-33.5185702917
 21
22.5368697967
  0
LINE
  5
2D8
100
AcDbEntity
  8
SUPERFICI
100
AcDbLine
 62
7
  6
CONTINUOUS
 10
-33.5185140011
 20
22.5617056208
 11
-33.5117506066
 21
25.724700364
  0
LINE
  5
2D9
100
AcDbEntity
  8
0
100
AcDbLine
 62
7
  6
CONTINUOUS
 10
-33.5995842081
 20
22.5129855088
 11
-33.5185702917
 21
22.5368697967
  0
LWPOLYLINE
  5
2DA
100
AcDbEntity
  8
SUPERFICI
100
AcDbPolyline
 62
7
  6
CONTINUOUS
 90
3
 70
0
 10
34.0414803637
 20
-25.6799480655
 10
34.3025431069
 20
-25.6317591423
 10
34.5601225508
 20
-25.5663567702
  0
LWPOLYLINE
  5
2DB
100
AcDbEntity
  8
SUPERFICI
100
AcDbPolyline
 62
250
  6
CONTINUOUS
 90
3
 70
0
 10
34.5761862598
 20
-31.2529815571
 10
32.9941863329
 20
-31.3250081796
 10
32.1886423741
 20
-31.3574649338
  0
LWPOLYLINE
  5
2DC
100
AcDbEntity
  8
SUPERFICI
100
AcDbPolyline
 62
250
  6
CONTINUOUS
 90
7
 70
0
 10
32.1886423741
 20
-31.3574649338
 10
30.6357695342
 20
-31.4126429583
 10
29.0899938245
 20
-31.4584553336
 10
27.5513792915
 20
-31.4958518399
 10
26.0228668611
 20
-31.5255697347
 10
24.5016227356
 20
-31.5469987705
 10
22.9790481295
 20
-31.5591803109
  0
LWPOLYLINE
  5
2DD
100
AcDbEntity
  8
SUPERFICI
100
AcDbPolyline
 62
250
  6
CONTINUOUS
 90
10
 70
0
 10
-23.1237766333
 20
-35.7973849612
 10
23.1238242724
 20
-35.797384919
 10
24.8847410456
 20
-35.7932499761
 10
26.6510337852
 20
-35.7841705647
 10
28.4214971997
 20
-35.771091143
 10
30.1973202994
 20
-35.75425875
 10
31.9820839207
 20
-35.7336725191
 10
33.7769767239
 20
-35.7093164319
 10
35.580793245
 20
-35.6811038373
 10
38.3095536025
 20
-35.631399954
  0
LWPOLYLINE
  5
2DE
100
AcDbEntity
  8
SUPERFICI
100
AcDbPolyline
 62
250
  6
CONTINUOUS
 90
8
 70
0
 10
-32.1886423741
 20
-31.3574649338
 10
-30.6357695342
 20
-31.4126429583
 10
-29.0899938245
 20
-31.4584553336
 10
-27.5513792915
 20
-31.4958518399
 10
-26.0228668611
 20
-31.5255697347
 10
-24.5016227356
 20
-31.5469987705
 10
-22.9790481295
 20
-31.5591803109
 10
22.9790481295
 20
-31.5591803109
  0
LWPOLYLINE
  5
2DF
100
AcDbEntity
  8
0
100
AcDbPolyline
 62
7
  6
CONTINUOUS
 90
3
 70
0
 10
-33.5185702917
 20
-22.5368697967
 10
-33.5977777606
 20
-22.5140725241
 10
-33.6629908533
 20
-22.4819319172
  0
LINE
  5
2E0
100
AcDbEntity
  8
0
100
AcDbLine
 62
7
  6
CONTINUOUS
 10
33.8343323543
 20
-22.2260711184
 11
33.8605482614
 21
-22.2186741821
  0
LWPOLYLINE
  5
2E1
100
AcDbEntity
  8
SUPERFICI
100
AcDbPolyline
 62
250
  6
CONTINUOUS
 90
6
 70
0
 10
-59.6995419034
 20
-37.6292939872
 10
-59.6800175297
 20
-37.6260948908
 10
-59.6381738024
 20
-37.6178501381
 10
-59.5747705875
 20
-37.6047119253
 10
-59.4911646181
 20
-37.5869613462
 10
-59.2717889135
 20
-37.5394086428
  0
LWPOLYLINE
  5
2E2
100
AcDbEntity
  8
SUPERFICI
100
AcDbPolyline
 62
7
  6
CONTINUOUS
 90
3
 70
0
 10
33.5117671475
 20
-25.7240340862
 10
33.777498408
 20
-25.7108043
 10
34.0414803637
 20
-25.6799480655
  0
LINE
  5
2E3
100
AcDbEntity
  8
0
100
AcDbLine
 62
7
  6
CONTINUOUS
 10
31.6303189313
 20
-28.7905587294
 11
31.0502969313
 21
-28.7905667294
  0
LINE
  5
2E4
100
AcDbEntity
  8
0
100
AcDbLine
 62
7
  6
CONTINUOUS
 10
29.5352139313
 20
-28.7905587294
 11
28.9552059313
 21
-28.7905667294
  0
LINE
  5
2E5
100
AcDbEntity
  8
0
100
AcDbLine
 62
7
  6
CONTINUOUS
 10
36.2001749313
 20
-28.7905517294
 11
35.5468699313
 21
-28.7905587294
  0
LINE
  5
2E6
100
AcDbEntity
  8
0
100
AcDbLine
 62
7
  6
CONTINUOUS
 10
27.2468019313
 20
-28.7905667294
 11
26.6667799313
 21
-28.7905737294
  0
LINE
  5
2E7
100
AcDbEntity
  8
0
100
AcDbLine
 62
7
  6
CONTINUOUS
 10
25.3489689313
 20
-28.7905667294
 11
24.7689259313
 21
-28.7905737294
  0
LINE
  5
2E8
100
AcDbEntity
  8
0
100
AcDbLine
 62
7
  6
CONTINUOUS
 10
30.6636179313
 20
-28.7905667294
 11
30.0835959313
 21
-28.7905667294
  0
LINE
  5
2E9
100
AcDbEntity
  8
0
100
AcDbLine
 62
7
  6
CONTINUOUS
 10
28.4068309313
 20
-28.7905667294
 11
27.8268089313
 21
-28.7905667294
  0
LINE
  5
2EA
100
AcDbEntity
  8
0
100
AcDbLine
 62
7
  6
CONTINUOUS
 10
34.4593189313
 20
-28.7905587294
 11
33.8792899313
 21
-28.7905587294
  0
LINE
  5
2EB
100
AcDbEntity
  8
0
100
AcDbLine
 62
7
  6
CONTINUOUS
 10
33.4926119313
 20
-28.7905667294
 11
32.9125829313
 21
-28.7905587294
  0
LINE
  5
2EC
100
AcDbEntity
  8
0
100
AcDbLine
 62
7
  6
CONTINUOUS
 10
32.7294769313
 20
-28.2202307294
 11
31.8134319313
 21
-28.2202307294
  0
LINE
  5
2ED
100
AcDbEntity
  8
0
100
AcDbLine
 62
7
  6
CONTINUOUS
 10
31.9903539313
 20
-27.6692087294
 11
32.5525479313
 21
-27.6692087294
  0
LINE
  5
2EE
100
AcDbEntity
  8
0
100
AcDbLine
 62
7
  6
CONTINUOUS
 10
34.9656159313
 20
-27.6692087294
 11
34.4593849313
 21
-27.6692017294
  0
LINE
  5
2EF
100
AcDbEntity
  8
0
100
AcDbLine
 62
7
  6
CONTINUOUS
 10
34.4513229313
 20
-27.1326797294
 11
35.1558108841
 21
-27.1326797294
  0
LINE
  5
2F0
100
AcDbEntity
  8
0
100
AcDbLine
 62
7
  6
CONTINUOUS
 10
35.1569989313
 20
-26.4269497294
 11
34.4513149313
 21
-26.4269497294
  0
LINE
  5
2F1
100
AcDbEntity
  8
0
100
AcDbLine
 62
7
  6
CONTINUOUS
 10
23.8377939313
 20
-25.8904357294
 11
24.4178229313
 21
-25.8904357294
  0
LINE
  5
2F2
100
AcDbEntity
  8
0
100
AcDbLine
 62
7
  6
CONTINUOUS
 10
25.7000799313
 20
-25.8904357294
 11
26.2801089313
 21
-25.8904357294
  0
LINE
  5
2F3
100
AcDbEntity
  8
0
100
AcDbLine
 62
7
  6
CONTINUOUS
 10
26.6667869313
 20
-25.8904357294
 11
27.2468089313
 21
-25.8904357294
  0
LINE
  5
2F4
100
AcDbEntity
  8
0
100
AcDbLine
 62
7
  6
CONTINUOUS
 10
27.8268089313
 20
-25.8904357294
 11
28.7036459313
 21
-25.8904357294
  0
LINE
  5
2F5
100
AcDbEntity
  8
0
100
AcDbLine
 62
7
  6
CONTINUOUS
 10
29.7867809313
 20
-25.8904357294
 11
30.6636179313
 21
-25.8904357294
  0
LINE
  5
2F6
100
AcDbEntity
  8
0
100
AcDbLine
 62
7
  6
CONTINUOUS
 10
31.9814219313
 20
-25.8904287294
 11
32.5614719313
 21
-25.8904287294
  0
LINE
  5
2F7
100
AcDbEntity
  8
0
100
AcDbLine
 62
7
  6
CONTINUOUS
 10
33.8792899313
 20
-25.8904287294
 11
35.2356727946
 21
-25.8904287294
  0
LINE
  5
2F8
100
AcDbEntity
  8
SUPERFICI
100
AcDbLine
 62
7
  6
CONTINUOUS
 10
33.5117506066
 20
-25.724700364
 11
27.238553139
 21
-25.7247563131
  0
LINE
  5
2F9
100
AcDbEntity
  8
SUPERFICI
100
AcDbLine
 62
250
  6
CONTINUOUS
 10
27.238553139
 20
-25.7247563131
 11
-27.238553139
 21
-25.7247563131
  0
LINE
  5
2FA
100
AcDbEntity
  8
SUPERFICI
100
AcDbLine
 62
7
  6
CONTINUOUS
 10
-27.2385531282
 20
-25.7247563177
 11
-33.5116850672
 21
-25.7198562154
  0
LWPOLYLINE
  5
2FB
100
AcDbEntity
  8
SUPERFICI
100
AcDbPolyline
 62
7
  6
CONTINUOUS
 90
10
 70
0
 10
-33.5117671475
 20
-25.7240340862
 10
-33.777498408
 20
-25.7108043
 10
-34.0414803637
 20
-25.6799480655
 10
-34.3025431069
 20
-25.6317591423
 10
-34.5601225508
 20
-25.5663567702
 10
-34.8124449515
 20
-25.4841251786
 10
-35.0566554207
 20
-25.3861060214
 10
-35.2912259044
 20
-25.2732162796
 10
-35.5158253361
 20
-25.1458560802
 10
-35.7295871636
 20
-25.0046984272
  0
LINE
  5
2FC
100
AcDbEntity
  8
0
100
AcDbLine
 62
7
  6
CONTINUOUS
 10
-33.8605482614
 20
-22.2186741821
 11
-33.8343323543
 21
-22.2260711184
  0
LINE
  5
2FD
100
AcDbEntity
  8
SUPERFICI
100
AcDbLine
 62
250
  6
CONTINUOUS
 10
-59.2717889135
 20
-37.5394086428
 11
-58.8569341145
 21
-37.4476851745
  0
LINE
  5
2FE
100
AcDbEntity
  8
SUPERFICI
100
AcDbLine
 62
250
  6
CONTINUOUS
 10
37.2642420431
 20
-22.0488303276
 11
35.4464473296
 21
-22.1392524891
  0
LINE
  5
2FF
100
AcDbEntity
  8
SUPERFICI
100
AcDbLine
 62
7
  6
CONTINUOUS
 10
35.4469009226
 20
-22.1392525325
 11
33.8609378716
 21
-22.2181553029
  0
LINE
  5
300
100
AcDbEntity
  8
SUPERFICI
100
AcDbLine
 62
250
  6
CONTINUOUS
 10
33.5150989117
 20
-24.1601165104
 11
-33.5150989117
 21
-24.1601165104
  0
LINE
  5
301
100
AcDbEntity
  8
SUPERFICI
100
AcDbLine
 62
250
  6
CONTINUOUS
 10
-33.5185143723
 20
-22.562726873
 11
33.5185143723
 21
-22.562726873
  0
LINE
  5
302
100
AcDbEntity
  8
0
100
AcDbLine
 62
7
  6
CONTINUOUS
 10
-33.5185702917
 20
-22.5368697967
 11
33.5185702919
 21
-22.5368697967
  0
LINE
  5
303
100
AcDbEntity
  8
SUPERFICI
100
AcDbLine
 62
250
  6
CONTINUOUS
 10
-35.4464473296
 20
-22.1392524891
 11
-37.2642420431
 21
-22.0488303276
  0
LINE
  5
304
100
AcDbEntity
  8
SUPERFICI
100
AcDbLine
 62
7
  6
CONTINUOUS
 10
-33.8609378716
 20
-22.2181553029
 11
-35.4469009226
 21
-22.1392525325
  0
LWPOLYLINE
  5
305
100
AcDbEntity
  8
SUPERFICI
100
AcDbPolyline
 62
250
  6
CONTINUOUS
 90
4
 70
0
 10
59.574850608
 20
-37.6047302021
 10
59.6379680565
 20
-37.617807693
 10
59.6798858557
 20
-37.626068403
 10
59.6995418927
 20
-37.6292940352
  0
LINE
  5
306
100
AcDbEntity
  8
SUPERFICI
100
AcDbLine
 62
250
  6
CONTINUOUS
 10
59.3895156193
 20
-37.5650528823
 11
59.574850608
 21
-37.6047302021
  0
LWPOLYLINE
  5
307
100
AcDbEntity
  8
SUPERFICI
100
AcDbPolyline
 62
250
  6
CONTINUOUS
 90
3
 70
0
 10
58.8569341061
 20
-37.4476852071
 10
59.0038092155
 20
-37.4803533707
 10
59.3895156193
 20
-37.5650528823
  0
LWPOLYLINE
  5
308
100
AcDbEntity
  8
SUPERFICI
100
AcDbPolyline
 62
250
  6
CONTINUOUS
 90
10
 70
0
 10
-58.9656592722
 20
24.593732649
 10
-58.7422599117
 20
24.429855729
 10
-58.5189913649
 20
24.2686381759
 10
-58.2952365933
 20
24.1096346006
 10
-58.0704009391
 20
23.9524151968
 10
-57.8438854422
 20
23.7965467263
 10
-57.615647982
 20
23.6419826529
 10
-57.386215295
 20
23.4890711722
 10
-57.1561707793
 20
23.3381989191
 10
-56.9260764016
 20
23.189737925
  0
LWPOLYLINE
  5
309
100
AcDbEntity
  8
SUPERFICI
100
AcDbPolyline
 62
250
  6
CONTINUOUS
 90
10
 70
0
 10
-56.9260764017
 20
-23.189737925
 10
-57.1578122054
 20
-23.3392708283
 10
-57.389142349
 20
-23.4910476752
 10
-57.6200053991
 20
-23.6450421738
 10
-57.8498250487
 20
-23.8008754872
 10
-58.0790399613
 20
-23.9588481942
 10
-58.3087526286
 20
-24.1197116181
 10
-58.5386675971
 20
-24.283248894
 10
-58.7674252184
 20
-24.4484894737
 10
-58.9941622836
 20
-24.6148065375
  0
LWPOLYLINE
  5
30A
100
AcDbEntity
  8
SUPERFICI
100
AcDbPolyline
 62
250
  6
CONTINUOUS
 90
10
 70
0
 10
-56.9260764017
 20
-23.189737925
 10
-56.5690789299
 20
-22.9638582505
 10
-56.2133282601
 20
-22.7439038622
 10
-55.8570887191
 20
-22.528776038
 10
-55.4976150376
 20
-22.3167862755
 10
-55.1340941691
 20
-22.1073975798
 10
-54.7677602338
 20
-21.9011574363
 10
-54.3980048526
 20
-21.697464266
 10
-54.0222608772
 20
-21.4946335884
 10
-53.6390240547
 20
-21.2915918155
  0
LWPOLYLINE
  5
30B
100
AcDbEntity
  8
SUPERFICI
100
AcDbPolyline
 62
250
  6
CONTINUOUS
 90
10
 70
0
 10
-56.9260764017
 20
23.189737925
 10
-56.5690789299
 20
22.9638582505
 10
-56.2133282601
 20
22.7439038622
 10
-55.8570887191
 20
22.528776038
 10
-55.4976150376
 20
22.3167862755
 10
-55.1340941691
 20
22.1073975798
 10
-54.7677602338
 20
21.9011574363
 10
-54.3980048526
 20
21.697464266
 10
-54.0222608772
 20
21.4946335884
 10
-53.6390240547
 20
21.2915918155
  0
LWPOLYLINE
  5
30C
100
AcDbEntity
  8
SUPERFICI
100
AcDbPolyline
 62
250
  6
CONTINUOUS
 90
10
 70
0
 10
-58.9147239667
 20
36.0895000588
 10
-58.6367664335
 20
35.8536263611
 10
-58.3584872615
 20
35.620391894
 10
-58.0793476109
 20
35.3893131102
 10
-57.7986917266
 20
35.1598114141
 10
-57.516135566
 20
34.9315320039
 10
-57.2322939461
 20
34.7049359463
 10
-56.9482236761
 20
34.4808485966
 10
-56.6647617676
 20
34.2599217757
 10
-56.3828560339
 20
34.0428963753
  0
LWPOLYLINE
  5
30D
100
AcDbEntity
  8
SUPERFICI
100
AcDbPolyline
 62
250
  6
CONTINUOUS
 90
10
 70
0
 10
-15.5648882968
 20
-25.7248604276
 10
-15.8227016412
 20
-26.375417454
 10
-16.0985212988
 20
-27.0338081734
 10
-16.3908759848
 20
-27.6967756692
 10
-16.6981400847
 20
-28.3607821595
 10
-17.0186268793
 20
-29.022213643
 10
-17.3505944553
 20
-29.6773623404
 10
-17.6921051522
 20
-30.3221389657
 10
-18.0410125093
 20
-30.9520783536
 10
-18.3950606674
 20
-31.5625352195
  0
LWPOLYLINE
  5
30E
100
AcDbEntity
  8
SUPERFICI
100
AcDbPolyline
 62
250
  6
CONTINUOUS
 90
10
 70
0
 10
21.3682932997
 20
35.7968599443
 10
21.0053004785
 20
35.3541744254
 10
20.6516856351
 20
34.9059972776
 10
20.3074487748
 20
34.4523352286
 10
19.9742160132
 20
33.9951491206
 10
19.6503612462
 20
33.5325069237
 10
19.331006152
 20
33.0585391545
 10
19.0145246295
 20
32.5712579324
 10
18.7025427974
 20
32.0726019789
 10
18.3950606658
 20
31.5625587485
  0
LWPOLYLINE
  5
30F
100
AcDbEntity
  8
SUPERFICI
100
AcDbPolyline
 62
250
  6
CONTINUOUS
 90
10
 70
0
 10
23.0821126861
 20
37.765177803
 10
23.2072660922
 20
37.9114740448
 10
23.3316015469
 20
38.0582519428
 10
23.4551190503
 20
38.2055083057
 10
23.5778225002
 20
38.3532473175
 10
23.6997079989
 20
38.5014582742
 10
23.8207638538
 20
38.6501156607
 10
23.9409861674
 20
38.7992088002
 10
24.0603788372
 20
38.9487417763
 10
24.1789418635
 20
39.0987112248
  0
LINE
  5
310
100
AcDbEntity
  8
SUPERFICI
100
AcDbLine
 62
250
  6
CONTINUOUS
 10
23.0821126799
 20
37.7652788987
 11
22.8874448384
 21
37.5404839994
  0
LWPOLYLINE
  5
311
100
AcDbEntity
  8
SUPERFICI
100
AcDbPolyline
 62
250
  6
CONTINUOUS
 90
4
 70
0
 10
21.9286524173
 20
36.4514053348
 10
21.7408886074
 20
36.2351920465
 10
21.5542178868
 20
36.0173560181
 10
21.3682932996
 20
35.7968673365
  0
LWPOLYLINE
  5
312
100
AcDbEntity
  8
SUPERFICI
100
AcDbPolyline
 62
250
  6
CONTINUOUS
 90
3
 70
0
 10
22.8874448384
 20
37.5404839994
 10
22.502726428
 20
37.102765859
 10
21.9286524173
 20
36.4514053348
  0
LINE
  5
313
100
AcDbEntity
  8
SUPERFICI
100
AcDbLine
 62
250
  6
CONTINUOUS
 10
-58.2173724806
 20
-37.1184742879
 11
-58.8111361867
 21
-37.6006603655
  0
LINE
  5
314
100
AcDbEntity
  8
SUPERFICI
100
AcDbLine
 62
250
  6
CONTINUOUS
 10
-57.9332624275
 20
-38.687149363
 11
-57.3699957376
 21
-38.2323983777
  0
LINE
  5
315
100
AcDbEntity
  8
SUPERFICI
100
AcDbLine
 62
250
  6
CONTINUOUS
 10
-57.3699957376
 20
-38.2323983777
 11
-56.8083842565
 21
-37.7841735341
  0
LINE
  5
316
100
AcDbEntity
  8
SUPERFICI
100
AcDbLine
 62
250
  6
CONTINUOUS
 10
-57.6151191697
 20
-36.6377884023
 11
-58.2173724806
 21
-37.1184742879
  0
LINE
  5
317
100
AcDbEntity
  8
SUPERFICI
100
AcDbLine
 62
250
  6
CONTINUOUS
 10
-56.8083842565
 20
-37.7841735341
 11
-56.244409237
 21
-37.3392957335
  0
LINE
  5
318
100
AcDbEntity
  8
SUPERFICI
100
AcDbLine
 62
250
  6
CONTINUOUS
 10
-57.0080675009
 20
-36.1615151301
 11
-57.6151191697
 21
-36.6377884023
  0
LINE
  5
319
100
AcDbEntity
  8
SUPERFICI
100
AcDbLine
 62
250
  6
CONTINUOUS
 10
-56.244409237
 20
-37.3392957335
 11
-55.6753675412
 21
-36.8955924656
  0
LWPOLYLINE
  5
31A
100
AcDbEntity
  8
SUPERFICI
100
AcDbPolyline
 62
250
  6
CONTINUOUS
 90
10
 70
0
 10
-56.3828560339
 20
-34.0428963753
 10
-56.6688759413
 20
-34.2631111637
 10
-56.9556769315
 20
-34.486712817
 10
-57.2426628831
 20
-34.7132214512
 10
-57.5292119665
 20
-34.9421362122
 10
-57.8147833756
 20
-35.1730203694
 10
-58.098916694
 20
-35.4055042418
 10
-58.3810884216
 20
-35.6391692405
 10
-58.6607124888
 20
-35.8735448502
 10
-58.9372466096
 20
-36.1081958215
  0
LWPOLYLINE
  5
31B
100
AcDbEntity
  8
SUPERFICI
100
AcDbPolyline
 62
250
  6
CONTINUOUS
 90
3
 70
0
 10
-56.0965823392
 20
-35.4617692735
 10
-56.3998650515
 20
-35.6925361557
 10
-57.0080675009
 20
-36.1615151301
  0
LWPOLYLINE
  5
31C
100
AcDbEntity
  8
SUPERFICI
100
AcDbPolyline
 62
250
  6
CONTINUOUS
 90
3
 70
0
 10
38.048712336
 20
36.1211560023
 10
37.7201378092
 20
35.8855790285
 10
37.3935225534
 20
35.6489049843
  0
LINE
  5
31D
100
AcDbEntity
  8
SUPERFICI
100
AcDbLine
 62
250
  6
CONTINUOUS
 10
38.7118464225
 20
36.5903489752
 11
38.048712336
 21
36.1211560023
  0
LINE
  5
31E
100
AcDbEntity
  8
SUPERFICI
100
AcDbLine
 62
250
  6
CONTINUOUS
 10
42.3223614109
 20
39.1051045143
 11
40.8241332236
 21
38.0594792289
  0
LINE
  5
31F
100
AcDbEntity
  8
SUPERFICI
100
AcDbLine
 62
250
  6
CONTINUOUS
 10
39.7181703193
 20
37.2919905946
 11
38.7118464225
 21
36.5903489752
  0
LINE
  5
320
100
AcDbEntity
  8
SUPERFICI
100
AcDbLine
 62
250
  6
CONTINUOUS
 10
40.8241332236
 20
38.0594792289
 11
39.7181703193
 21
37.2919905946
  0
LINE
  5
321
100
AcDbEntity
  8
SUPERFICI
100
AcDbLine
 62
250
  6
CONTINUOUS
 10
46.2126645708
 20
35.8745123771
 11
47.0271634534
 21
36.4059861226
  0
LINE
  5
322
100
AcDbEntity
  8
SUPERFICI
100
AcDbLine
 62
250
  6
CONTINUOUS
 10
47.0271634534
 20
36.4059861226
 11
47.8384857021
 21
36.9264235918
  0
LINE
  5
323
100
AcDbEntity
  8
SUPERFICI
100
AcDbLine
 62
250
  6
CONTINUOUS
 10
47.8384857021
 20
36.9264235918
 11
48.6469425428
 21
37.4363819656
  0
LINE
  5
324
100
AcDbEntity
  8
SUPERFICI
100
AcDbLine
 62
250
  6
CONTINUOUS
 10
48.6469425428
 20
37.4363819656
 11
49.3087968915
 21
37.8475536573
  0
LINE
  5
325
100
AcDbEntity
  8
SUPERFICI
100
AcDbLine
 62
250
  6
CONTINUOUS
 10
49.3087968915
 20
37.8475536573
 11
49.8255483279
 21
38.1647527149
  0
LINE
  5
326
100
AcDbEntity
  8
SUPERFICI
100
AcDbLine
 62
250
  6
CONTINUOUS
 10
49.8255483279
 20
38.1647527149
 11
50.3409532093
 21
38.4777386378
  0
LINE
  5
327
100
AcDbEntity
  8
SUPERFICI
100
AcDbLine
 62
250
  6
CONTINUOUS
 10
50.3409532093
 20
38.4777386378
 11
50.8573747352
 21
38.7879545744
  0
LINE
  5
328
100
AcDbEntity
  8
SUPERFICI
100
AcDbLine
 62
250
  6
CONTINUOUS
 10
50.8573747352
 20
38.7879545744
 11
51.3780820371
 21
39.0974101611
  0
LWPOLYLINE
  5
329
100
AcDbEntity
  8
SUPERFICI
100
AcDbPolyline
 62
250
  6
CONTINUOUS
 90
10
 70
0
 10
-37.2642439968
 20
-15.2332274103
 10
-38.3189726225
 20
-15.5006829721
 10
-39.3932299746
 20
-15.7904488438
 10
-40.4796122142
 20
-16.1000425063
 10
-41.5675394936
 20
-16.4259811923
 10
-42.6517730465
 20
-16.7663154014
 10
-43.7319562922
 20
-17.1208929117
 10
-44.8010247489
 20
-17.4877061114
 10
-45.8456336865
 20
-17.8626134406
 10
-46.8543626291
 20
-18.2420506074
  0
LWPOLYLINE
  5
32A
100
AcDbEntity
  8
SUPERFICI
100
AcDbPolyline
 62
250
  6
CONTINUOUS
 90
10
 70
0
 10
37.2642439968
 20
-15.2332274103
 10
38.3189726225
 20
-15.5006829721
 10
39.3932299746
 20
-15.7904488438
 10
40.4796122142
 20
-16.1000425063
 10
41.5675394936
 20
-16.4259811923
 10
42.6517730465
 20
-16.7663154014
 10
43.7319562922
 20
-17.1208929117
 10
44.8010247489
 20
-17.4877061114
 10
45.8456336865
 20
-17.8626134406
 10
46.8543626291
 20
-18.2420506074
  0
LWPOLYLINE
  5
32B
100
AcDbEntity
  8
SUPERFICI
100
AcDbPolyline
 62
250
  6
CONTINUOUS
 90
10
 70
0
 10
-53.6390240547
 20
21.2915918155
 10
-52.8959614518
 20
20.9073599806
 10
-52.1634864575
 20
20.5409960267
 10
-51.4344362651
 20
20.1891127807
 10
-50.700054401
 20
19.8475818252
 10
-49.9560100437
 20
19.5143520029
 10
-49.2029679423
 20
19.1893558615
 10
-48.4385629271
 20
18.8709155125
 10
-47.6567807847
 20
18.5558156981
 10
-46.8543626291
 20
18.2420506074
  0
LINE
  5
32C
100
AcDbEntity
  8
SUPERFICI
100
AcDbLine
 62
250
  6
CONTINUOUS
 10
51.3780821228
 20
-39.0974101675
 11
50.8559940126
 21
-38.7871488366
  0
LINE
  5
32D
100
AcDbEntity
  8
SUPERFICI
100
AcDbLine
 62
250
  6
CONTINUOUS
 10
50.8559940126
 20
-38.7871488366
 11
50.3390166899
 21
-38.47658871
  0
LINE
  5
32E
100
AcDbEntity
  8
SUPERFICI
100
AcDbLine
 62
250
  6
CONTINUOUS
 10
50.3390166899
 20
-38.47658871
 11
49.8238352452
 21
-38.1637174275
  0
LINE
  5
32F
100
AcDbEntity
  8
SUPERFICI
100
AcDbLine
 62
250
  6
CONTINUOUS
 10
49.8238352452
 20
-38.1637174275
 11
49.3080365889
 21
-37.8470860682
  0
LINE
  5
330
100
AcDbEntity
  8
SUPERFICI
100
AcDbLine
 62
250
  6
CONTINUOUS
 10
49.3080365889
 20
-37.8470860682
 11
48.6469496333
 21
-37.4363864008
  0
LINE
  5
331
100
AcDbEntity
  8
SUPERFICI
100
AcDbLine
 62
250
  6
CONTINUOUS
 10
48.6469496333
 20
-37.4363864008
 11
47.838497873
 21
-36.9264313335
  0
LINE
  5
332
100
AcDbEntity
  8
SUPERFICI
100
AcDbLine
 62
250
  6
CONTINUOUS
 10
47.838497873
 20
-36.9264313335
 11
47.0271649758
 21
-36.4059871074
  0
LINE
  5
333
100
AcDbEntity
  8
SUPERFICI
100
AcDbLine
 62
250
  6
CONTINUOUS
 10
47.0271649758
 20
-36.4059871074
 11
46.212660335
 21
-35.8745095891
  0
LWPOLYLINE
  5
334
100
AcDbEntity
  8
SUPERFICI
100
AcDbPolyline
 62
250
  6
CONTINUOUS
 90
3
 70
0
 10
42.3223614109
 20
-39.1051045143
 10
42.1075313248
 20
-38.9547081054
 10
39.0463299156
 20
-36.8245731104
  0
LWPOLYLINE
  5
335
100
AcDbEntity
  8
SUPERFICI
100
AcDbPolyline
 62
250
  6
CONTINUOUS
 90
5
 70
0
 10
39.0463299156
 20
-36.8245731104
 10
38.3792103105
 20
-36.3559208956
 10
38.048712336
 20
-36.1211560023
 10
37.7201378092
 20
-35.8855790285
 10
37.3935225534
 20
-35.6489049843
  0
LWPOLYLINE
  5
336
100
AcDbEntity
  8
SUPERFICI
100
AcDbPolyline
 62
250
  6
CONTINUOUS
 90
10
 70
0
 10
37.3935225534
 20
-35.6489049843
 10
36.7674952086
 20
-35.187374405
 10
36.1540082791
 20
-34.7238834419
 10
35.5525529886
 20
-34.2573106161
 10
34.9619562036
 20
-33.7860606757
 10
34.3824503524
 20
-33.3097047077
 10
33.8156190339
 20
-32.8291045713
 10
33.2616683498
 20
-32.3441842679
 10
32.7194798523
 20
-31.8537994842
 10
32.1886423741
 20
-31.3574649338
  0
LWPOLYLINE
  5
337
100
AcDbEntity
  8
SUPERFICI
100
AcDbPolyline
 62
250
  6
CONTINUOUS
 90
10
 70
0
 10
-56.0965823392
 20
35.4617692735
 10
-55.6362002465
 20
35.1153796761
 10
-55.1700864113
 20
34.7692522826
 10
-54.6989712344
 20
34.4238446379
 10
-54.2243456521
 20
34.0801542582
 10
-53.7462873864
 20
33.7381415841
 10
-53.2634716061
 20
33.3967994384
 10
-52.7760895254
 20
33.0562370292
 10
-52.285840367
 20
32.7176117925
 10
-51.7937657258
 20
32.3816012438
  0
LWPOLYLINE
  5
338
100
AcDbEntity
  8
SUPERFICI
100
AcDbPolyline
 62
250
  6
CONTINUOUS
 90
10
 70
0
 10
-56.3828560339
 20
34.0428963753
 10
-55.9523399275
 20
33.7164223365
 10
-55.5180168498
 20
33.392759796
 10
-55.0794722283
 20
33.0715261086
 10
-54.635769832
 20
32.7519542397
 10
-54.1869449542
 20
32.4339705254
 10
-53.7340195064
 20
32.1181476855
 10
-53.2770119492
 20
31.8042991049
 10
-52.814921468
 20
31.4915248779
 10
-52.3472324055
 20
31.1792575273
  0
LINE
  5
339
100
AcDbEntity
  8
SUPERFICI
100
AcDbLine
 62
250
  6
CONTINUOUS
 10
-56.703855201
 20
35.9259125698
 11
-56.0965823392
 21
35.4617692735
  0
LINE
  5
33A
100
AcDbEntity
  8
SUPERFICI
100
AcDbLine
 62
250
  6
CONTINUOUS
 10
-55.6753675412
 20
36.8955924656
 11
-54.9175622322
 21
36.312619919
  0
LINE
  5
33B
100
AcDbEntity
  8
SUPERFICI
100
AcDbLine
 62
250
  6
CONTINUOUS
 10
-57.3119661633
 20
36.3989210779
 11
-56.703855201
 21
35.9259125698
  0
LINE
  5
33C
100
AcDbEntity
  8
SUPERFICI
100
AcDbLine
 62
250
  6
CONTINUOUS
 10
-56.244409237
 20
37.3392957335
 11
-55.6753675412
 21
36.8955924656
  0
LINE
  5
33D
100
AcDbEntity
  8
SUPERFICI
100
AcDbLine
 62
250
  6
CONTINUOUS
 10
-56.8083842565
 20
37.7841735341
 11
-56.244409237
 21
37.3392957335
  0
LINE
  5
33E
100
AcDbEntity
  8
SUPERFICI
100
AcDbLine
 62
250
  6
CONTINUOUS
 10
-57.9170554616
 20
36.8777451203
 11
-57.3119661633
 21
36.3989210779
  0
LINE
  5
33F
100
AcDbEntity
  8
SUPERFICI
100
AcDbLine
 62
250
  6
CONTINUOUS
 10
-57.3699957376
 20
38.2323983777
 11
-56.8083842565
 21
37.7841735341
  0
LINE
  5
340
100
AcDbEntity
  8
SUPERFICI
100
AcDbLine
 62
250
  6
CONTINUOUS
 10
-57.9332624275
 20
38.687149363
 11
-57.3699957376
 21
38.2323983777
  0
LWPOLYLINE
  5
341
100
AcDbEntity
  8
SUPERFICI
100
AcDbPolyline
 62
250
  6
CONTINUOUS
 90
3
 70
0
 10
-58.8111361866
 20
37.6006603655
 10
-58.5155406421
 20
37.3595573832
 10
-57.9170554616
 20
36.8777451203
  0
LWPOLYLINE
  5
342
100
AcDbEntity
  8
SUPERFICI
100
AcDbPolyline
 62
250
  6
CONTINUOUS
 90
5
 70
0
 10
22.6945105069
 20
-37.3202031769
 10
21.9286524173
 20
-36.4514053348
 10
21.7408886074
 20
-36.2351920465
 10
21.5542178868
 20
-36.0173560181
 10
21.3682932996
 20
-35.7968673365
  0
LWPOLYLINE
  5
343
100
AcDbEntity
  8
SUPERFICI
100
AcDbPolyline
 62
250
  6
CONTINUOUS
 90
3
 70
0
 10
23.0821126799
 20
-37.7652788987
 10
22.8874448384
 20
-37.5404839994
 10
22.6945105069
 20
-37.3202031769
  0
LWPOLYLINE
  5
344
100
AcDbEntity
  8
SUPERFICI
100
AcDbPolyline
 62
250
  6
CONTINUOUS
 90
10
 70
0
 10
21.3682932997
 20
-35.7968599443
 10
21.0053004785
 20
-35.3541744254
 10
20.6516856351
 20
-34.9059972776
 10
20.3074487748
 20
-34.4523352286
 10
19.9742160132
 20
-33.9951491206
 10
19.6503612462
 20
-33.5325069237
 10
19.331006152
 20
-33.0585391545
 10
19.0145246295
 20
-32.5712579324
 10
18.7025427974
 20
-32.0726019789
 10
18.3950606658
 20
-31.5625587485
  0
LWPOLYLINE
  5
345
100
AcDbEntity
  8
SUPERFICI
100
AcDbPolyline
 62
250
  6
CONTINUOUS
 90
10
 70
0
 10
24.1789418635
 20
-39.0987112248
 10
24.0603779971
 20
-38.9487407328
 10
23.9409846872
 20
-38.7992069665
 10
23.8207619338
 20
-38.6501132912
 10
23.6997058259
 20
-38.5014556166
 10
23.5778202742
 20
-38.3532446278
 10
23.4551170113
 20
-38.2055058627
 10
23.3315999477
 20
-38.0582500334
 10
23.2072651727
 20
-37.9114729495
 10
23.0821126861
 20
-37.765177803
  0
LWPOLYLINE
  5
346
100
AcDbEntity
  8
SUPERFICI
100
AcDbPolyline
 62
250
  6
CONTINUOUS
 90
10
 70
0
 10
-27.238553139
 20
25.7247563131
 10
-27.7239935204
 20
26.375003215
 10
-28.2290341292
 20
27.0240697735
 10
-28.7529293779
 20
27.6705564806
 10
-29.2966603292
 20
28.315079902
 10
-29.8575999255
 20
28.9539071837
 10
-30.4291601062
 20
29.5793820668
 10
-31.0081384745
 20
30.1882842634
 10
-31.5950687847
 20
30.7814012228
 10
-32.1886423741
 20
31.3574649338
  0
LWPOLYLINE
  5
347
100
AcDbEntity
  8
SUPERFICI
100
AcDbPolyline
 62
250
  6
CONTINUOUS
 90
10
 70
0
 10
-15.5648882968
 20
25.7248604276
 10
-15.8227016412
 20
26.375417454
 10
-16.0985212988
 20
27.0338081734
 10
-16.3908759848
 20
27.6967756692
 10
-16.6981400847
 20
28.3607821595
 10
-17.0186268793
 20
29.022213643
 10
-17.3505944553
 20
29.6773623404
 10
-17.6921051522
 20
30.3221389657
 10
-18.0410125093
 20
30.9520783536
 10
-18.3950606674
 20
31.5625352195
  0
LINE
  5
348
100
AcDbEntity
  8
SUPERFICI
100
AcDbLine
 62
250
  6
CONTINUOUS
 10
-0.0000000333
 20
-39.0987646341
 11
-0.0
 21
-39.755781292
  0
LINE
  5
349
100
AcDbEntity
  8
SUPERFICI
100
AcDbLine
 62
250
  6
CONTINUOUS
 10
-0.0000000333
 20
39.0987646341
 11
-0.0
 21
39.755781292
  0
LINE
  5
34A
100
AcDbEntity
  8
SUPERFICI
100
AcDbLine
 62
250
  6
CONTINUOUS
 10
0.000000002
 20
37.7623006116
 11
0.0000000018
 21
35.7965511798
  0
LINE
  5
34B
100
AcDbEntity
  8
SUPERFICI
100
AcDbLine
 62
250
  6
CONTINUOUS
 10
0.000000002
 20
-37.7623006595
 11
0.0000000018
 21
-35.7965511798
  0
LINE
  5
34C
100
AcDbEntity
  8
SUPERFICI
100
AcDbLine
 62
250
  6
CONTINUOUS
 10
-0.0000000059
 20
31.5626824861
 11
-0.0000000504
 21
22.5637534558
  0
LINE
  5
34D
100
AcDbEntity
  8
SUPERFICI
100
AcDbLine
 62
250
  6
CONTINUOUS
 10
-0.0000000059
 20
-31.5626824861
 11
-0.0000000504
 21
-22.5637534558
  0
LWPOLYLINE
  5
34E
100
AcDbEntity
  8
SUPERFICI
100
AcDbPolyline
 62
250
  6
CONTINUOUS
 90
10
 70
0
 10
18.3950606674
 20
31.5625352195
 10
18.0410462647
 20
30.9521379774
 10
17.6921624505
 20
30.3222449604
 10
17.3506648527
 20
29.6774986371
 10
17.018698461
 20
29.0223587687
 10
16.6982031962
 20
28.3609163907
 10
16.3909264909
 20
27.6968887242
 10
16.0985572019
 20
27.0338932466
 10
15.8227201434
 20
26.3754646642
 10
15.5648875263
 20
25.7248604276
  0
LWPOLYLINE
  5
34F
100
AcDbEntity
  8
SUPERFICI
100
AcDbPolyline
 62
250
  6
CONTINUOUS
 90
10
 70
0
 10
32.1886423741
 20
31.3574649338
 10
31.5940767948
 20
30.7803796287
 10
31.0065189893
 20
30.186481021
 10
30.4272707029
 20
29.5771056532
 10
29.8559139021
 20
28.9516715228
 10
29.295502568
 20
28.3133228726
 10
28.7522366319
 20
27.6693264606
 10
28.2286249203
 20
27.0232874232
 10
27.7238139312
 20
26.3746848371
 10
27.2385531282
 20
25.7247563177
  0
LWPOLYLINE
  5
350
100
AcDbEntity
  8
SUPERFICI
100
AcDbPolyline
 62
250
  6
CONTINUOUS
 90
10
 70
0
 10
-32.1886423741
 20
-31.3574649338
 10
-31.5940767948
 20
-30.7803796287
 10
-31.0065189893
 20
-30.186481021
 10
-30.4272707029
 20
-29.5771056532
 10
-29.8559139021
 20
-28.9516715228
 10
-29.295502568
 20
-28.3133228726
 10
-28.7522366319
 20
-27.6693264606
 10
-28.2286249203
 20
-27.0232874232
 10
-27.7238139312
 20
-26.3746848371
 10
-27.2385531282
 20
-25.7247563177
  0
LWPOLYLINE
  5
351
100
AcDbEntity
  8
SUPERFICI
100
AcDbPolyline
 62
250
  6
CONTINUOUS
 90
10
 70
0
 10
32.1886423741
 20
31.3574649338
 10
32.7195456857
 20
31.8538600208
 10
33.2617802119
 20
32.3442837932
 10
33.815756815
 20
32.8292232579
 10
34.3825880718
 20
33.3098196619
 10
34.9620728442
 20
33.7861551182
 10
35.5526437622
 20
34.2573820132
 10
36.1540738759
 20
34.723933645
 10
36.7675306098
 20
35.1874008168
 10
37.3935225534
 20
35.6489049843
  0
LWPOLYLINE
  5
352
100
AcDbEntity
  8
SUPERFICI
100
AcDbPolyline
 62
250
  6
CONTINUOUS
 90
10
 70
0
 10
-39.0508246976
 20
-30.7515950091
 10
-38.3579315138
 20
-30.2072195754
 10
-37.675772718
 20
-29.6620090652
 10
-37.0030245603
 20
-29.1149154746
 10
-36.3389598299
 20
-28.5653890896
 10
-35.6816292374
 20
-28.011877815
 10
-35.0279209471
 20
-27.451789563
 10
-34.3759355195
 20
-26.8834931936
 10
-33.7249261112
 20
-26.3063559171
 10
-33.0735212863
 20
-25.719216141
  0
LWPOLYLINE
  5
353
100
AcDbEntity
  8
SUPERFICI
100
AcDbPolyline
 62
250
  6
CONTINUOUS
 90
10
 70
0
 10
39.0508246976
 20
30.7515950091
 10
39.7190862799
 20
31.267595944
 10
40.3990279011
 20
31.7835909028
 10
41.0891922371
 20
32.2985658079
 10
41.786830974
 20
32.8105672145
 10
42.4917321615
 20
33.3195186832
 10
43.2063279747
 20
33.8271471953
 10
43.9304924271
 20
34.333228013
 10
44.6614325972
 20
34.8356575758
 10
45.3975904597
 20
35.3332178334
  0
LWPOLYLINE
  5
354
100
AcDbEntity
  8
SUPERFICI
100
AcDbPolyline
 62
250
  6
CONTINUOUS
 90
10
 70
0
 10
-39.0508246976
 20
-30.7515950091
 10
-39.7190862799
 20
-31.267595944
 10
-40.3990279011
 20
-31.7835909028
 10
-41.0891922371
 20
-32.2985658079
 10
-41.786830974
 20
-32.8105672145
 10
-42.4917321615
 20
-33.3195186832
 10
-43.2063279747
 20
-33.8271471953
 10
-43.9304924271
 20
-34.333228013
 10
-44.6614325972
 20
-34.8356575758
 10
-45.3975904597
 20
-35.3332178334
  0
LWPOLYLINE
  5
355
100
AcDbEntity
  8
SUPERFICI
100
AcDbPolyline
 62
250
  6
CONTINUOUS
 90
10
 70
0
 10
-50.962669325
 20
-33.4112762543
 10
-51.4632103054
 20
-33.765550294
 10
-51.967484805
 20
-34.126561657
 10
-52.4716425959
 20
-34.4913109085
 10
-52.9694994517
 20
-34.8550865349
 10
-53.4605310487
 20
-35.2172972482
 10
-53.9498805281
 20
-35.5816627828
 10
-54.437386826
 20
-35.948119736
 10
-54.9175622322
 20
-36.312619919
 10
-55.6753675412
 20
-36.8955924656
  0
LINE
  5
356
100
AcDbEntity
  8
SUPERFICI
100
AcDbLine
 62
250
  6
CONTINUOUS
 10
-49.2883960462
 20
-34.468409366
 11
-52.0159855224
 21
-36.4033456744
  0
LINE
  5
357
100
AcDbEntity
  8
SUPERFICI
100
AcDbLine
 62
250
  6
CONTINUOUS
 10
-52.0159855224
 20
-36.4033456744
 11
-52.9153413288
 21
-37.0376065173
  0
LINE
  5
358
100
AcDbEntity
  8
SUPERFICI
100
AcDbLine
 62
250
  6
CONTINUOUS
 10
52.9150788934
 20
37.0374222644
 11
49.2883960462
 21
34.468409366
  0
LINE
  5
359
100
AcDbEntity
  8
SUPERFICI
100
AcDbLine
 62
250
  6
CONTINUOUS
 10
-38.6182485683
 20
-27.0424601787
 11
-35.7288112852
 21
-25.0036036029
  0
LINE
  5
35A
100
AcDbEntity
  8
SUPERFICI
100
AcDbLine
 62
250
  6
CONTINUOUS
 10
38.6182485683
 20
27.0424601787
 11
35.7288112852
 21
25.0036036029
  0
LINE
  5
35B
100
AcDbEntity
  8
SUPERFICI
100
AcDbLine
 62
250
  6
CONTINUOUS
 10
-47.7134545829
 20
-33.3628494576
 11
-49.2883960462
 21
-34.468409366
  0
LINE
  5
35C
100
AcDbEntity
  8
SUPERFICI
100
AcDbLine
 62
250
  6
CONTINUOUS
 10
47.7134545829
 20
33.3628494576
 11
49.2883960462
 21
34.468409366
  0
LINE
  5
35D
100
AcDbEntity
  8
SUPERFICI
100
AcDbLine
 62
250
  6
CONTINUOUS
 10
41.5186240653
 20
29.0686736792
 11
38.6182485683
 21
27.0424601787
  0
LINE
  5
35E
100
AcDbEntity
  8
SUPERFICI
100
AcDbLine
 62
250
  6
CONTINUOUS
 10
-41.5186240653
 20
-29.0686736792
 11
-38.6182485683
 21
-27.0424601787
  0
LINE
  5
35F
100
AcDbEntity
  8
SUPERFICI
100
AcDbLine
 62
250
  6
CONTINUOUS
 10
52.9150788934
 20
37.0374222644
 11
53.9090471169
 21
37.7306578444
  0
LINE
  5
360
100
AcDbEntity
  8
SUPERFICI
100
AcDbLine
 62
250
  6
CONTINUOUS
 10
-52.9153413288
 20
-37.0376065173
 11
-53.9090471169
 21
-37.7306578444
  0
LINE
  5
361
100
AcDbEntity
  8
SUPERFICI
100
AcDbLine
 62
250
  6
CONTINUOUS
 10
45.3577457771
 20
31.7264359741
 11
47.7134545829
 21
33.3628494576
  0
LINE
  5
362
100
AcDbEntity
  8
SUPERFICI
100
AcDbLine
 62
250
  6
CONTINUOUS
 10
-45.3577457771
 20
-31.7264359741
 11
-47.7134545829
 21
-33.3628494576
  0
LINE
  5
363
100
AcDbEntity
  8
SUPERFICI
100
AcDbLine
 62
250
  6
CONTINUOUS
 10
41.5186240653
 20
29.0686736792
 11
45.3577457771
 21
31.7264359741
  0
LINE
  5
364
100
AcDbEntity
  8
SUPERFICI
100
AcDbLine
 62
250
  6
CONTINUOUS
 10
-41.5186240653
 20
-29.0686736792
 11
-45.3577457771
 21
-31.7264359741
  0
LINE
  5
365
100
AcDbEntity
  8
SUPERFICI
100
AcDbLine
 62
250
  6
CONTINUOUS
 10
53.9090471169
 20
37.7306578444
 11
54.7272424509
 21
38.2940019324
  0
LINE
  5
366
100
AcDbEntity
  8
SUPERFICI
100
AcDbLine
 62
250
  6
CONTINUOUS
 10
-53.9090471169
 20
-37.7306578444
 11
-54.7272424509
 21
-38.2940019324
  0
LWPOLYLINE
  5
367
100
AcDbEntity
  8
SUPERFICI
100
AcDbPolyline
 62
250
  6
CONTINUOUS
 90
10
 70
0
 10
-51.7937657258
 20
-32.3816012439
 10
-52.2858878529
 20
-32.717644404
 10
-52.7761719046
 20
-33.0562942593
 10
-53.2635758104
 20
-33.3968726778
 10
-53.7463982808
 20
-33.7382204488
 10
-54.2244496849
 20
-34.0802291338
 10
-54.6990600994
 20
-34.4239093847
 10
-55.1701536397
 20
-34.7693018852
 10
-55.6362377751
 20
-35.115407726
 10
-56.0965823392
 20
-35.4617692735
  0
LWPOLYLINE
  5
368
100
AcDbEntity
  8
SUPERFICI
100
AcDbPolyline
 62
250
  6
CONTINUOUS
 90
3
 70
0
 10
54.7272424509
 20
38.2940019324
 10
55.5465232397
 20
38.8513520548
 10
55.8221285569
 20
39.0373755861
  0
LWPOLYLINE
  5
369
100
AcDbEntity
  8
SUPERFICI
100
AcDbPolyline
 62
250
  6
CONTINUOUS
 90
10
 70
0
 10
-52.3472324055
 20
-31.1792575273
 10
-52.814926832
 20
-31.4915284834
 10
-53.2770228793
 20
-31.804306556
 10
-53.7340362174
 20
-32.1181592481
 10
-54.1869697891
 20
-32.4339879793
 10
-54.6358030215
 20
-32.7519779463
 10
-55.0795077152
 20
-33.0715518829
 10
-55.5180465207
 20
-33.3927817167
 10
-55.9523577799
 20
-33.7164357565
 10
-56.3828560339
 20
-34.0428963753
  0
LINE
  5
36A
100
AcDbEntity
  8
SUPERFICI
100
AcDbLine
 62
250
  6
CONTINUOUS
 10
45.3975904597
 20
35.3332178334
 11
46.2126645708
 21
35.8745123771
  0
LWPOLYLINE
  5
36B
100
AcDbEntity
  8
SUPERFICI
100
AcDbPolyline
 62
250
  6
CONTINUOUS
 90
7
 70
0
 10
-46.0873859982
 20
-30.121078207
 10
-46.9194748278
 20
-30.6671840586
 10
-47.7425290813
 20
-31.212281194
 10
-48.559817533
 20
-31.7593933173
 10
-49.3711431945
 20
-32.3092466806
 10
-50.1726904434
 20
-32.8600494374
 10
-50.962669325
 20
-33.4112762543
  0
LINE
  5
36C
100
AcDbEntity
  8
SUPERFICI
100
AcDbLine
 62
250
  6
CONTINUOUS
 10
46.9186468856
 20
30.6666383576
 11
45.2464334117
 21
29.5731775464
  0
LINE
  5
36D
100
AcDbEntity
  8
SUPERFICI
100
AcDbLine
 62
250
  6
CONTINUOUS
 10
-44.4033601777
 20
-29.0268370209
 11
-46.0873859982
 21
-30.121078207
  0
LINE
  5
36E
100
AcDbEntity
  8
SUPERFICI
100
AcDbLine
 62
250
  6
CONTINUOUS
 10
45.2464334117
 20
29.5731775464
 11
42.7787173957
 21
27.978093542
  0
LINE
  5
36F
100
AcDbEntity
  8
SUPERFICI
100
AcDbLine
 62
250
  6
CONTINUOUS
 10
42.7787173957
 20
27.978093542
 11
40.4835917833
 21
26.5014758982
  0
LINE
  5
370
100
AcDbEntity
  8
SUPERFICI
100
AcDbLine
 62
250
  6
CONTINUOUS
 10
-39.7416832346
 20
-26.0254620106
 11
-44.4033601777
 21
-29.0268370209
  0
LINE
  5
371
100
AcDbEntity
  8
SUPERFICI
100
AcDbLine
 62
250
  6
CONTINUOUS
 10
40.4835917833
 20
26.5014758982
 11
37.438084273
 21
24.551520403
  0
LINE
  5
372
100
AcDbEntity
  8
SUPERFICI
100
AcDbLine
 62
250
  6
CONTINUOUS
 10
37.438084273
 20
24.551520403
 11
36.6623177384
 21
24.0564348734
  0
LINE
  5
373
100
AcDbEntity
  8
SUPERFICI
100
AcDbLine
 62
250
  6
CONTINUOUS
 10
-36.6623177384
 20
-24.0564348734
 11
-39.7416832346
 21
-26.0254620106
  0
LWPOLYLINE
  5
374
100
AcDbEntity
  8
SUPERFICI
100
AcDbPolyline
 62
250
  6
CONTINUOUS
 90
8
 70
0
 10
45.961270113
 20
28.6226469645
 10
46.821455756
 20
29.1576212304
 10
47.6721663403
 20
29.6918136224
 10
48.5124871552
 20
30.225316223
 10
49.3466707927
 20
30.7615204528
 10
50.1744533857
 20
31.3010159927
 10
50.990935092
 20
31.8413396216
 10
51.7937657258
 20
32.3816012438
  0
LWPOLYLINE
  5
375
100
AcDbEntity
  8
SUPERFICI
100
AcDbPolyline
 62
250
  6
CONTINUOUS
 90
8
 70
0
 10
-45.961270113
 20
-28.6226469645
 10
-46.821455756
 20
-29.1576212304
 10
-47.6721663403
 20
-29.6918136224
 10
-48.5124871552
 20
-30.225316223
 10
-49.3466707927
 20
-30.7615204528
 10
-50.1744533857
 20
-31.3010159927
 10
-50.990935092
 20
-31.8413396216
 10
-51.7937657258
 20
-32.3816012438
  0
LINE
  5
376
100
AcDbEntity
  8
SUPERFICI
100
AcDbLine
 62
250
  6
CONTINUOUS
 10
44.2343749866
 20
27.5608043266
 11
45.961270113
 21
28.6226469645
  0
LINE
  5
377
100
AcDbEntity
  8
SUPERFICI
100
AcDbLine
 62
250
  6
CONTINUOUS
 10
-44.2343749866
 20
-27.5608043266
 11
-45.961270113
 21
-28.6226469645
  0
LINE
  5
378
100
AcDbEntity
  8
SUPERFICI
100
AcDbLine
 62
250
  6
CONTINUOUS
 10
44.2343749866
 20
27.5608043266
 11
42.6265023056
 21
26.5820460481
  0
LWPOLYLINE
  5
379
100
AcDbEntity
  8
SUPERFICI
100
AcDbPolyline
 62
250
  6
CONTINUOUS
 90
3
 70
0
 10
-41.8519069056
 20
-26.1135559045
 10
-42.640682196
 20
-26.5906411092
 10
-44.2343749866
 20
-27.5608043266
  0
LINE
  5
37A
100
AcDbEntity
  8
SUPERFICI
100
AcDbLine
 62
250
  6
CONTINUOUS
 10
42.6265023056
 20
26.5820460481
 11
40.8275769678
 21
25.497415619
  0
LINE
  5
37B
100
AcDbEntity
  8
SUPERFICI
100
AcDbLine
 62
250
  6
CONTINUOUS
 10
40.8275769678
 20
25.497415619
 11
39.460732634
 21
24.6804410412
  0
LINE
  5
37C
100
AcDbEntity
  8
SUPERFICI
100
AcDbLine
 62
250
  6
CONTINUOUS
 10
39.460732634
 20
24.6804410412
 11
37.8712227245
 21
23.7385384623
  0
LINE
  5
37D
100
AcDbEntity
  8
SUPERFICI
100
AcDbLine
 62
250
  6
CONTINUOUS
 10
37.8712227245
 20
23.7385384623
 11
37.0627122617
 21
23.2624446145
  0
LWPOLYLINE
  5
37E
100
AcDbEntity
  8
SUPERFICI
100
AcDbPolyline
 62
250
  6
CONTINUOUS
 90
10
 70
0
 10
-44.7796350571
 20
-26.5562558118
 10
-45.6503106145
 20
-27.0595665387
 10
-46.519533032
 20
-27.5672270066
 10
-47.3836166145
 20
-28.0779051816
 10
-48.2369203565
 20
-28.5889959313
 10
-49.0785670301
 20
-29.1006355571
 10
-49.9124260131
 20
-29.6159074872
 10
-50.7380011564
 20
-30.1353477374
 10
-51.5504352602
 20
-30.6567359338
 10
-52.3472324055
 20
-31.1792575273
  0
LINE
  5
37F
100
AcDbEntity
  8
SUPERFICI
100
AcDbLine
 62
250
  6
CONTINUOUS
 10
44.7796350571
 20
26.5562558118
 11
43.099953354
 21
25.596751441
  0
LINE
  5
380
100
AcDbEntity
  8
SUPERFICI
100
AcDbLine
 62
250
  6
CONTINUOUS
 10
43.099953354
 20
25.596751441
 11
41.4388904164
 21
24.6622384913
  0
LINE
  5
381
100
AcDbEntity
  8
SUPERFICI
100
AcDbLine
 62
250
  6
CONTINUOUS
 10
41.4388904164
 20
24.6622384913
 11
39.778306744
 21
23.7426185541
  0
LINE
  5
382
100
AcDbEntity
  8
SUPERFICI
100
AcDbLine
 62
250
  6
CONTINUOUS
 10
39.778306744
 20
23.7426185541
 11
38.1030009293
 21
22.8293129178
  0
LINE
  5
383
100
AcDbEntity
  8
SUPERFICI
100
AcDbLine
 62
250
  6
CONTINUOUS
 10
38.1030009293
 20
22.8293129178
 11
37.2528906362
 21
22.3711183207
  0
LWPOLYLINE
  5
384
100
AcDbEntity
  8
SUPERFICI
100
AcDbPolyline
 62
250
  6
CONTINUOUS
 90
10
 70
0
 10
-46.8543626291
 20
-18.2420506074
 10
-47.6560378067
 20
-18.5555208788
 10
-48.4373569391
 20
-18.8704215562
 10
-49.2015397491
 20
-19.1887505221
 10
-49.954614523
 20
-19.5137386304
 10
-50.6988748801
 20
-19.8470435426
 10
-51.433512954
 20
-20.1886752838
 10
-52.1628190695
 20
-20.5406680352
 10
-52.8955989741
 20
-20.9071755696
 10
-53.6390240547
 20
-21.2915918155
  0
LWPOLYLINE
  5
385
100
AcDbEntity
  8
SUPERFICI
100
AcDbPolyline
 62
250
  6
CONTINUOUS
 90
10
 70
0
 10
46.8543626291
 20
18.2420506074
 10
45.8458655117
 20
17.8626831576
 10
44.8014807329
 20
17.4878186102
 10
43.7325697124
 20
17.1210202459
 10
42.6523889257
 20
16.766418183
 10
41.5679996374
 20
16.4260346971
 10
40.479881555
 20
16.1000590183
 10
39.3933528283
 20
15.7904509385
 10
38.3189939356
 20
15.5006804512
 10
37.2642439968
 20
15.2332284157
  0
LINE
  5
386
100
AcDbEntity
  8
SUPERFICI
100
AcDbLine
 62
250
  6
CONTINUOUS
 10
59.7652784513
 20
-0.0
 11
33.8610690043
 21
-0.0000000257
  0
LINE
  5
387
100
AcDbEntity
  8
SUPERFICI
100
AcDbLine
 62
250
  6
CONTINUOUS
 10
-33.8610690043
 20
-0.0000000257
 11
-59.7652784513
 21
0.0
  0
LINE
  5
388
100
AcDbEntity
  8
SUPERFICI
100
AcDbLine
 62
250
  6
CONTINUOUS
 10
37.2528685132
 20
-22.3711064406
 11
38.9541909921
 21
-23.2915767991
  0
LINE
  5
389
100
AcDbEntity
  8
SUPERFICI
100
AcDbLine
 62
250
  6
CONTINUOUS
 10
38.9541909921
 20
-23.2915767991
 11
40.6236374517
 21
-24.2089282701
  0
LINE
  5
38A
100
AcDbEntity
  8
SUPERFICI
100
AcDbLine
 62
250
  6
CONTINUOUS
 10
40.6236374517
 20
-24.2089282701
 11
42.2811396008
 21
-25.134260263
  0
LWPOLYLINE
  5
38B
100
AcDbEntity
  8
SUPERFICI
100
AcDbPolyline
 62
250
  6
CONTINUOUS
 90
3
 70
0
 10
42.2811396008
 20
-25.134260263
 10
43.9419227428
 20
-26.0759425879
 10
44.7796350571
 20
-26.5562558118
  0
LINE
  5
38C
100
AcDbEntity
  8
SUPERFICI
100
AcDbLine
 62
250
  6
CONTINUOUS
 10
38.6692664727
 20
-24.2104148213
 11
37.0627122617
 21
-23.2624446145
  0
LINE
  5
38D
100
AcDbEntity
  8
SUPERFICI
100
AcDbLine
 62
250
  6
CONTINUOUS
 10
41.8337869001
 20
-26.1026213079
 11
38.6692664727
 21
-24.2104148213
  0
LINE
  5
38E
100
AcDbEntity
  8
SUPERFICI
100
AcDbLine
 62
250
  6
CONTINUOUS
 10
43.4256698361
 20
-27.0674949197
 11
41.8337869001
 21
-26.1026213079
  0
LINE
  5
38F
100
AcDbEntity
  8
SUPERFICI
100
AcDbLine
 62
250
  6
CONTINUOUS
 10
-41.8519069056
 20
26.1135559045
 11
-43.4338720438
 21
27.0724879873
  0
LINE
  5
390
100
AcDbEntity
  8
SUPERFICI
100
AcDbLine
 62
250
  6
CONTINUOUS
 10
-36.6623177384
 20
24.0564348734
 11
-39.7416832346
 21
26.0254620106
  0
LINE
  5
391
100
AcDbEntity
  8
SUPERFICI
100
AcDbLine
 62
250
  6
CONTINUOUS
 10
42.7787173957
 20
-27.978093542
 11
36.6623177384
 21
-24.0564348734
  0
LINE
  5
392
100
AcDbEntity
  8
SUPERFICI
100
AcDbLine
 62
250
  6
CONTINUOUS
 10
-39.7416832346
 20
26.0254620106
 11
-42.7865046361
 21
27.9831135754
  0
LINE
  5
393
100
AcDbEntity
  8
SUPERFICI
100
AcDbLine
 62
250
  6
CONTINUOUS
 10
45.2464334117
 20
-29.5731775464
 11
42.7787173957
 21
-27.978093542
  0
LINE
  5
394
100
AcDbEntity
  8
SUPERFICI
100
AcDbLine
 62
250
  6
CONTINUOUS
 10
-45.2464334117
 20
29.5731775464
 11
-42.7865046361
 21
27.9831135754
  0
LWPOLYLINE
  5
395
100
AcDbEntity
  8
SUPERFICI
100
AcDbPolyline
 62
250
  6
CONTINUOUS
 90
10
 70
0
 10
-52.3472324055
 20
31.1792575273
 10
-51.5503687058
 20
30.6566927707
 10
-50.73787676
 20
30.1352687133
 10
-49.9122533543
 20
29.6157998594
 10
-49.0783473211
 20
29.1005009339
 10
-48.2366643506
 20
28.5888414912
 10
-47.3833625559
 20
28.0777540613
 10
-46.5193278065
 20
27.5671064653
 10
-45.6501907917
 20
27.059496935
 10
-44.7796350571
 20
26.5562558118
  0
LINE
  5
396
100
AcDbEntity
  8
SUPERFICI
100
AcDbLine
 62
250
  6
CONTINUOUS
 10
46.212660335
 20
-35.8745095891
 11
45.3975904597
 21
-35.3332178334
  0
LWPOLYLINE
  5
397
100
AcDbEntity
  8
SUPERFICI
100
AcDbPolyline
 62
250
  6
CONTINUOUS
 90
10
 70
0
 10
-51.7937657258
 20
32.3816012438
 10
-50.9908118333
 20
31.8412573862
 10
-50.1742313045
 20
31.3008701788
 10
-49.3463755619
 20
30.7613294125
 10
-48.5121380543
 20
30.2250932627
 10
-47.6717902651
 20
29.6915762219
 10
-46.8211008919
 20
29.1573995183
 10
-45.9609903858
 20
28.6224737452
 10
-45.0974312686
 20
28.0897538842
 10
-43.4338720438
 20
27.0724879873
  0
LINE
  5
398
100
AcDbEntity
  8
SUPERFICI
100
AcDbLine
 62
250
  6
CONTINUOUS
 10
54.9997488071
 20
-38.4801272432
 11
55.8221285569
 21
-39.0373755861
  0
LINE
  5
399
100
AcDbEntity
  8
SUPERFICI
100
AcDbLine
 62
250
  6
CONTINUOUS
 10
54.1820741691
 20
-37.9193917555
 11
54.9997488071
 21
-38.4801272432
  0
LINE
  5
39A
100
AcDbEntity
  8
SUPERFICI
100
AcDbLine
 62
250
  6
CONTINUOUS
 10
-53.9090471169
 20
37.7306578444
 11
-54.7272424509
 21
38.2940019324
  0
LINE
  5
39B
100
AcDbEntity
  8
SUPERFICI
100
AcDbLine
 62
250
  6
CONTINUOUS
 10
46.923771001
 20
-32.8125478324
 11
40.7864402793
 21
-28.5590599845
  0
LINE
  5
39C
100
AcDbEntity
  8
SUPERFICI
100
AcDbLine
 62
250
  6
CONTINUOUS
 10
53.35906969
 20
-37.3482566975
 11
54.1820741691
 21
-37.9193917555
  0
LWPOLYLINE
  5
39D
100
AcDbEntity
  8
SUPERFICI
100
AcDbPolyline
 62
250
  6
CONTINUOUS
 90
7
 70
0
 10
-50.962669325
 20
33.4112762543
 10
-50.1724657666
 20
32.8598938951
 10
-49.3707281801
 20
32.3089635309
 10
-48.5592477343
 20
31.7590096257
 10
-47.7418116041
 20
31.2118035965
 10
-46.9186468856
 20
30.6666383576
 10
-45.2464334117
 20
29.5731775464
  0
LINE
  5
39E
100
AcDbEntity
  8
SUPERFICI
100
AcDbLine
 62
250
  6
CONTINUOUS
 10
-53.9090471169
 20
37.7306578444
 11
-52.9150788934
 21
37.0374222644
  0
LINE
  5
39F
100
AcDbEntity
  8
SUPERFICI
100
AcDbLine
 62
250
  6
CONTINUOUS
 10
46.923771001
 20
-32.8125478324
 11
48.502538377
 21
-33.915224822
  0
LINE
  5
3A0
100
AcDbEntity
  8
SUPERFICI
100
AcDbLine
 62
250
  6
CONTINUOUS
 10
40.7864402793
 20
-28.5590599845
 11
38.6182485683
 21
-27.0424601787
  0
LINE
  5
3A1
100
AcDbEntity
  8
SUPERFICI
100
AcDbLine
 62
250
  6
CONTINUOUS
 10
53.35906969
 20
-37.3482566975
 11
52.4666899571
 21
-36.7218445894
  0
LWPOLYLINE
  5
3A2
100
AcDbEntity
  8
SUPERFICI
100
AcDbPolyline
 62
250
  6
CONTINUOUS
 90
3
 70
0
 10
38.6182485683
 20
-27.0424601787
 10
36.4593605079
 20
-25.5209125045
 10
35.7288112852
 20
-25.0036036029
  0
LWPOLYLINE
  5
3A3
100
AcDbEntity
  8
SUPERFICI
100
AcDbPolyline
 62
250
  6
CONTINUOUS
 90
9
 70
0
 10
-50.962669325
 20
33.4112762543
 10
-51.4632103054
 20
33.765550294
 10
-51.967484805
 20
34.126561657
 10
-52.4716425959
 20
34.4913109085
 10
-52.9694994517
 20
34.8550865349
 10
-53.4605310487
 20
35.2172972482
 10
-53.9498805281
 20
35.5816627828
 10
-54.437386826
 20
35.948119736
 10
-54.9175622322
 20
36.312619919
  0
LINE
  5
3A4
100
AcDbEntity
  8
SUPERFICI
100
AcDbLine
 62
250
  6
CONTINUOUS
 10
-37.1818039216
 20
26.0313155722
 11
-35.7288112852
 21
25.0036036029
  0
LINE
  5
3A5
100
AcDbEntity
  8
SUPERFICI
100
AcDbLine
 62
250
  6
CONTINUOUS
 10
-52.9150788934
 20
37.0374222644
 11
-51.5636450377
 21
36.0827564091
  0
LINE
  5
3A6
100
AcDbEntity
  8
SUPERFICI
100
AcDbLine
 62
250
  6
CONTINUOUS
 10
-50.2000655343
 20
35.114190157
 11
-37.1818039216
 21
26.0313155722
  0
LINE
  5
3A7
100
AcDbEntity
  8
SUPERFICI
100
AcDbLine
 62
250
  6
CONTINUOUS
 10
-51.5636450377
 20
36.0827564091
 11
-50.2000655343
 21
35.114190157
  0
LWPOLYLINE
  5
3A8
100
AcDbEntity
  8
SUPERFICI
100
AcDbPolyline
 62
250
  6
CONTINUOUS
 90
3
 70
0
 10
52.4666899571
 20
-36.7218445894
 10
50.6572056603
 20
-35.4389135852
 10
48.502538377
 20
-33.915224822
  0
LWPOLYLINE
  5
3A9
100
AcDbEntity
  8
SUPERFICI
100
AcDbPolyline
 62
250
  6
CONTINUOUS
 90
10
 70
0
 10
39.0508246976
 20
-30.7515950091
 10
39.7190862799
 20
-31.267595944
 10
40.3990279011
 20
-31.7835909028
 10
41.0891922371
 20
-32.2985658079
 10
41.786830974
 20
-32.8105672145
 10
42.4917321615
 20
-33.3195186832
 10
43.2063279747
 20
-33.8271471953
 10
43.9304924271
 20
-34.333228013
 10
44.6614325972
 20
-34.8356575758
 10
45.3975904597
 20
-35.3332178334
  0
LWPOLYLINE
  5
3AA
100
AcDbEntity
  8
0
100
AcDbPolyline
 62
250
  6
CONTINUOUS
 90
6
 70
0
 10
39.0508246976
 20
-30.7515950091
 10
38.508041848
 20
-30.3259444428
 10
37.972273593
 20
-29.9001424229
 10
37.4428784621
 20
-29.4736899009
 10
36.9192148423
 20
-29.0460877173
 10
36.4006409782
 20
-28.6168366021
  0
LWPOLYLINE
  5
3AB
100
AcDbEntity
  8
SUPERFICI
100
AcDbPolyline
 62
250
  6
CONTINUOUS
 90
10
 70
0
 10
-33.0716566638
 20
25.7202658278
 10
-33.7037544502
 20
26.2893769146
 10
-34.3423158122
 20
26.8543367341
 10
-34.9879343673
 20
27.4164571482
 10
-35.6432463513
 20
27.977999591
 10
-36.3084191241
 20
28.5386177206
 10
-36.9806969178
 20
29.0956282974
 10
-37.6601185417
 20
29.6488469359
 10
-38.3496548866
 20
30.200498679
 10
-39.0508246976
 20
30.7515950091
  0
LWPOLYLINE
  5
3AC
100
AcDbEntity
  8
SUPERFICI
100
AcDbPolyline
 62
250
  6
CONTINUOUS
 90
10
 70
0
 10
18.3950606674
 20
-31.5625352195
 10
18.0410462647
 20
-30.9521379774
 10
17.6921624505
 20
-30.3222449604
 10
17.3506648527
 20
-29.6774986371
 10
17.018698461
 20
-29.0223587687
 10
16.6982031962
 20
-28.3609163907
 10
16.3909264909
 20
-27.6968887242
 10
16.0985572019
 20
-27.0338932466
 10
15.8227201434
 20
-26.3754646642
 10
15.5648875263
 20
-25.7248604276
  0
LWPOLYLINE
  5
3AD
100
AcDbEntity
  8
0
100
AcDbPolyline
 62
7
  6
CONTINUOUS
 90
13
 70
0
 43
0.3500000006
 10
0.8571428254
 20
49.5976990356
 10
0.8571428254
 20
50.8834104767
 10
1.0714285848
 20
51.3119839783
 10
1.5000000329
 20
51.7405574799
 10
1.7142856507
 20
51.7405574799
 10
2.1428571696
 20
51.3119839783
 10
2.3571427875
 20
50.8834104767
 10
2.3571427875
 20
49.5976990356
 10
2.1428571696
 20
49.1691255341
 10
1.7142856507
 20
48.7405565643
 10
1.5000000329
 20
48.7405565643
 10
1.0714285848
 20
49.1691255341
 10
0.8571428254
 20
49.5976990356
  0
LWPOLYLINE
  5
3AE
100
AcDbEntity
  8
SUPERFICI
100
AcDbPolyline
 62
250
  6
CONTINUOUS
 90
10
 70
0
 10
-32.1886423741
 20
-31.3574649338
 10
-32.7195456857
 20
-31.8538600208
 10
-33.2617802119
 20
-32.3442837932
 10
-33.815756815
 20
-32.8292232579
 10
-34.3825880718
 20
-33.3098196619
 10
-34.9620728442
 20
-33.7861551182
 10
-35.5526437622
 20
-34.2573820132
 10
-36.1540738759
 20
-34.723933645
 10
-36.7675306098
 20
-35.1874008168
 10
-37.3935225534
 20
-35.6489049843
  0
LWPOLYLINE
  5
3AF
100
AcDbEntity
  8
SUPERFICI
100
AcDbPolyline
 62
250
  6
CONTINUOUS
 90
10
 70
0
 10
33.0716566638
 20
25.7202658278
 10
33.7037544502
 20
26.2893769146
 10
34.3423158122
 20
26.8543367341
 10
34.9879343673
 20
27.4164571482
 10
35.6432463513
 20
27.977999591
 10
36.3084191241
 20
28.5386177206
 10
36.9806969178
 20
29.0956282974
 10
37.6601185417
 20
29.6488469359
 10
38.3496548866
 20
30.200498679
 10
39.0508246976
 20
30.7515950091
  0
LINE
  5
3B0
100
AcDbEntity
  8
SUPERFICI
100
AcDbLine
 62
250
  6
CONTINUOUS
 10
57.0893063754
 20
38.0077260266
 11
56.526806467
 21
37.5614075786
  0
LINE
  5
3B1
100
AcDbEntity
  8
SUPERFICI
100
AcDbLine
 62
250
  6
CONTINUOUS
 10
56.526806467
 20
37.5614075786
 11
55.9608035728
 21
37.1175232203
  0
LINE
  5
3B2
100
AcDbEntity
  8
SUPERFICI
100
AcDbLine
 62
250
  6
CONTINUOUS
 10
55.9608035728
 20
37.1175232203
 11
55.3876151483
 21
36.673112955
  0
LWPOLYLINE
  5
3B3
100
AcDbEntity
  8
SUPERFICI
100
AcDbPolyline
 62
250
  6
CONTINUOUS
 90
10
 70
0
 10
55.3876151483
 20
36.673112955
 10
54.9172463595
 20
36.312378928
 10
54.4368194257
 20
35.947691153
 10
53.9491340055
 20
35.5811043094
 10
53.4596761634
 20
35.2166636895
 10
52.9686168511
 20
34.8544385347
 10
52.470834543
 20
34.4907233428
 10
51.9668575911
 20
34.1261102125
 10
51.462856141
 20
33.7652981496
 10
50.962669325
 20
33.4112762543
  0
LWPOLYLINE
  5
3B4
100
AcDbEntity
  8
SUPERFICI
100
AcDbPolyline
 62
250
  6
CONTINUOUS
 90
10
 70
0
 10
56.0965823392
 20
35.4617692735
 10
55.6362002465
 20
35.1153796761
 10
55.1700864113
 20
34.7692522826
 10
54.6989712344
 20
34.4238446379
 10
54.2243456521
 20
34.0801542582
 10
53.7462873864
 20
33.7381415841
 10
53.2634716061
 20
33.3967994384
 10
52.7760895254
 20
33.0562370292
 10
52.285840367
 20
32.7176117925
 10
51.7937657258
 20
32.3816012438
  0
LWPOLYLINE
  5
3B5
100
AcDbEntity
  8
SUPERFICI
100
AcDbPolyline
 62
250
  6
CONTINUOUS
 90
6
 70
0
 10
50.962669325
 20
33.4112762543
 10
50.1724657666
 20
32.8598938951
 10
49.3707281801
 20
32.3089635309
 10
48.5592477343
 20
31.7590096257
 10
47.7418116041
 20
31.2118035965
 10
46.9186468856
 20
30.6666383576
  0
LWPOLYLINE
  5
3B6
100
AcDbEntity
  8
SUPERFICI
100
AcDbPolyline
 62
250
  6
CONTINUOUS
 90
3
 70
0
 10
-54.7272424509
 20
-38.2940019324
 10
-55.5465232397
 20
-38.8513520548
 10
-55.8221285569
 20
-39.0373755861
  0
LINE
  5
3B7
100
AcDbEntity
  8
SUPERFICI
100
AcDbLine
 62
250
  6
CONTINUOUS
 10
-45.3975904597
 20
-35.3332178334
 11
-46.2126645708
 21
-35.8745123771
  0
LWPOLYLINE
  5
3B8
100
AcDbEntity
  8
SUPERFICI
100
AcDbPolyline
 62
250
  6
CONTINUOUS
 90
10
 70
0
 10
52.3472324055
 20
31.1792575273
 10
51.5503687058
 20
30.6566927707
 10
50.73787676
 20
30.1352687133
 10
49.9122533543
 20
29.6157998594
 10
49.0783473211
 20
29.1005009339
 10
48.2366643506
 20
28.5888414912
 10
47.3833625559
 20
28.0777540613
 10
46.5193278065
 20
27.5671064653
 10
45.6501907917
 20
27.059496935
 10
44.7796350571
 20
26.5562558118
  0
LINE
  5
3B9
100
AcDbEntity
  8
SUPERFICI
100
AcDbLine
 62
250
  6
CONTINUOUS
 10
-46.2126645708
 20
-35.8745123771
 11
-47.0271634534
 21
-36.4059861226
  0
LINE
  5
3BA
100
AcDbEntity
  8
SUPERFICI
100
AcDbLine
 62
250
  6
CONTINUOUS
 10
-47.0271634534
 20
-36.4059861226
 11
-47.8384857021
 21
-36.9264235918
  0
LINE
  5
3BB
100
AcDbEntity
  8
SUPERFICI
100
AcDbLine
 62
250
  6
CONTINUOUS
 10
-47.8384857021
 20
-36.9264235918
 11
-48.6469425428
 21
-37.4363819656
  0
LINE
  5
3BC
100
AcDbEntity
  8
SUPERFICI
100
AcDbLine
 62
250
  6
CONTINUOUS
 10
-39.4796101874
 20
-24.6916771212
 11
-41.8519069056
 21
-26.1135559045
  0
LINE
  5
3BD
100
AcDbEntity
  8
SUPERFICI
100
AcDbLine
 62
250
  6
CONTINUOUS
 10
-37.0627332749
 20
-23.2624569637
 11
-39.4796101874
 21
-24.6916771212
  0
LINE
  5
3BE
100
AcDbEntity
  8
SUPERFICI
100
AcDbLine
 62
250
  6
CONTINUOUS
 10
-43.1098430849
 20
-25.6023559531
 11
-44.7796350571
 21
-26.5562558118
  0
LINE
  5
3BF
100
AcDbEntity
  8
SUPERFICI
100
AcDbLine
 62
250
  6
CONTINUOUS
 10
-41.4530866797
 20
-24.6701568663
 11
-43.1098430849
 21
-25.6023559531
  0
LINE
  5
3C0
100
AcDbEntity
  8
SUPERFICI
100
AcDbLine
 62
250
  6
CONTINUOUS
 10
-39.7914122
 20
-23.7498148345
 11
-41.4530866797
 21
-24.6701568663
  0
LWPOLYLINE
  5
3C1
100
AcDbEntity
  8
SUPERFICI
100
AcDbPolyline
 62
250
  6
CONTINUOUS
 90
3
 70
0
 10
-37.2528685132
 20
-22.3711064406
 10
-38.1089231609
 20
-22.8325163775
 10
-39.7914122
 20
-23.7498148345
  0
LWPOLYLINE
  5
3C2
100
AcDbEntity
  8
SUPERFICI
100
AcDbPolyline
 62
250
  6
CONTINUOUS
 90
10
 70
0
 10
53.6390240547
 20
21.2915918155
 10
52.8959614518
 20
20.9073599806
 10
52.1634864575
 20
20.5409960267
 10
51.4344362651
 20
20.1891127807
 10
50.700054401
 20
19.8475818252
 10
49.9560100437
 20
19.5143520029
 10
49.2029679423
 20
19.1893558615
 10
48.4385629271
 20
18.8709155125
 10
47.6567807847
 20
18.5558156981
 10
46.8543626291
 20
18.2420506074
  0
LWPOLYLINE
  5
3C3
100
AcDbEntity
  8
SUPERFICI
100
AcDbPolyline
 62
250
  6
CONTINUOUS
 90
10
 70
0
 10
-37.2642439968
 20
15.2332274103
 10
-38.3189726225
 20
15.5006829721
 10
-39.3932299746
 20
15.7904488438
 10
-40.4796122142
 20
16.1000425063
 10
-41.5675394936
 20
16.4259811923
 10
-42.6517730465
 20
16.7663154014
 10
-43.7319562922
 20
17.1208929117
 10
-44.8010247489
 20
17.4877061114
 10
-45.8456336865
 20
17.8626134406
 10
-46.8543626291
 20
18.2420506074
  0
LWPOLYLINE
  5
3C4
100
AcDbEntity
  8
SUPERFICI
100
AcDbPolyline
 62
250
  6
CONTINUOUS
 90
10
 70
0
 10
53.6390240547
 20
-21.2915918155
 10
52.8959614518
 20
-20.9073599806
 10
52.1634864575
 20
-20.5409960267
 10
51.4344362651
 20
-20.1891127807
 10
50.700054401
 20
-19.8475818252
 10
49.9560100437
 20
-19.5143520029
 10
49.2029679423
 20
-19.1893558615
 10
48.4385629271
 20
-18.8709155125
 10
47.6567807847
 20
-18.5558156981
 10
46.8543626291
 20
-18.2420506074
  0
LINE
  5
3C5
100
AcDbEntity
  8
SUPERFICI
100
AcDbLine
 62
250
  6
CONTINUOUS
 10
-37.2528685132
 20
22.3711064406
 11
-38.9541909921
 21
23.2915767991
  0
LINE
  5
3C6
100
AcDbEntity
  8
SUPERFICI
100
AcDbLine
 62
250
  6
CONTINUOUS
 10
-38.9541909921
 20
23.2915767991
 11
-40.6236374517
 21
24.2089282701
  0
LINE
  5
3C7
100
AcDbEntity
  8
SUPERFICI
100
AcDbLine
 62
250
  6
CONTINUOUS
 10
-40.6236374517
 20
24.2089282701
 11
-42.2811396008
 21
25.134260263
  0
LWPOLYLINE
  5
3C8
100
AcDbEntity
  8
SUPERFICI
100
AcDbPolyline
 62
250
  6
CONTINUOUS
 90
3
 70
0
 10
-42.2811396008
 20
25.134260263
 10
-43.9419227428
 20
26.0759425879
 10
-44.7796350571
 20
26.5562558118
  0
LINE
  5
3C9
100
AcDbEntity
  8
SUPERFICI
100
AcDbLine
 62
250
  6
CONTINUOUS
 10
-37.0627332749
 20
23.2624569637
 11
-38.6841273789
 21
24.2192208912
  0
LINE
  5
3CA
100
AcDbEntity
  8
SUPERFICI
100
AcDbLine
 62
250
  6
CONTINUOUS
 10
-38.6841273789
 20
24.2192208912
 11
-40.2717629962
 21
25.164289393
  0
LINE
  5
3CB
100
AcDbEntity
  8
SUPERFICI
100
AcDbLine
 62
250
  6
CONTINUOUS
 10
-40.2717629962
 20
25.164289393
 11
-41.8519069056
 21
26.1135559045
  0
LINE
  5
3CC
100
AcDbEntity
  8
SUPERFICI
100
AcDbLine
 62
250
  6
CONTINUOUS
 10
-48.6469496333
 20
37.4363864008
 11
-47.838497873
 21
36.9264313335
  0
LINE
  5
3CD
100
AcDbEntity
  8
SUPERFICI
100
AcDbLine
 62
250
  6
CONTINUOUS
 10
-47.838497873
 20
36.9264313335
 11
-47.0271649758
 21
36.4059871074
  0
LINE
  5
3CE
100
AcDbEntity
  8
SUPERFICI
100
AcDbLine
 62
250
  6
CONTINUOUS
 10
-47.0271649758
 20
36.4059871074
 11
-46.212660335
 21
35.8745095891
  0
LWPOLYLINE
  5
3CF
100
AcDbEntity
  8
SUPERFICI
100
AcDbPolyline
 62
250
  6
CONTINUOUS
 90
10
 70
0
 10
52.3472324055
 20
-31.1792575273
 10
51.5503687058
 20
-30.6566927707
 10
50.73787676
 20
-30.1352687133
 10
49.9122533543
 20
-29.6157998594
 10
49.0783473211
 20
-29.1005009339
 10
48.2366643506
 20
-28.5888414912
 10
47.3833625559
 20
-28.0777540613
 10
46.5193278065
 20
-27.5671064653
 10
45.6501907917
 20
-27.059496935
 10
44.7796350571
 20
-26.5562558118
  0
LINE
  5
3D0
100
AcDbEntity
  8
SUPERFICI
100
AcDbLine
 62
250
  6
CONTINUOUS
 10
-46.212660335
 20
35.8745095891
 11
-45.3975904597
 21
35.3332178334
  0
LWPOLYLINE
  5
3D1
100
AcDbEntity
  8
SUPERFICI
100
AcDbPolyline
 62
250
  6
CONTINUOUS
 90
10
 70
0
 10
51.7937657258
 20
-32.3816012438
 10
50.9908118333
 20
-31.8412573862
 10
50.1742313045
 20
-31.3008701788
 10
49.3463755619
 20
-30.7613294125
 10
48.5121380543
 20
-30.2250932627
 10
47.6717902651
 20
-29.6915762219
 10
46.8211008919
 20
-29.1573995183
 10
45.9609903858
 20
-28.6224737452
 10
45.0974312686
 20
-28.0897538842
 10
43.4256698361
 20
-27.0674949197
  0
LWPOLYLINE
  5
3D2
100
AcDbEntity
  8
SUPERFICI
100
AcDbPolyline
 62
250
  6
CONTINUOUS
 90
10
 70
0
 10
-45.3975904597
 20
35.3332178334
 10
-44.6614387683
 20
34.8356617823
 10
-43.9305083329
 20
34.3332390376
 10
-43.2063570949
 20
33.8271677137
 10
-42.4917846149
 20
33.3195562492
 10
-41.7869098304
 20
32.8106246156
 10
-41.0892803886
 20
32.2986310377
 10
-40.3991021423
 20
31.7836467659
 10
-39.7191308298
 20
31.267630044
 10
-39.0508246976
 20
30.7515950091
  0
LWPOLYLINE
  5
3D3
100
AcDbEntity
  8
SUPERFICI
100
AcDbPolyline
 62
250
  6
CONTINUOUS
 90
3
 70
0
 10
-54.7272424509
 20
38.2940019324
 10
-54.9997488071
 20
38.4801272432
 10
-55.8221285569
 20
39.0373755861
  0
LWPOLYLINE
  5
3D4
100
AcDbEntity
  8
SUPERFICI
100
AcDbPolyline
 62
250
  6
CONTINUOUS
 90
7
 70
0
 10
50.962669325
 20
-33.4112762543
 10
50.1724657666
 20
-32.8598938951
 10
49.3707281801
 20
-32.3089635309
 10
48.5592477343
 20
-31.7590096257
 10
47.7418116041
 20
-31.2118035965
 10
46.9186468856
 20
-30.6666383576
 10
45.2464334117
 20
-29.5731775464
  0
LWPOLYLINE
  5
3D5
100
AcDbEntity
  8
SUPERFICI
100
AcDbPolyline
 62
250
  6
CONTINUOUS
 90
9
 70
0
 10
50.962669325
 20
-33.4112762543
 10
51.4632103054
 20
-33.765550294
 10
51.967484805
 20
-34.126561657
 10
52.4716425959
 20
-34.4913109085
 10
52.9694994517
 20
-34.8550865349
 10
53.4605310487
 20
-35.2172972482
 10
53.9498805281
 20
-35.5816627828
 10
54.437386826
 20
-35.948119736
 10
54.9175622322
 20
-36.312619919
  0
LWPOLYLINE
  5
3D6
100
AcDbEntity
  8
SUPERFICI
100
AcDbPolyline
 62
250
  6
CONTINUOUS
 90
10
 70
0
 10
56.0965823392
 20
-35.4617692735
 10
55.6362002465
 20
-35.1153796761
 10
55.1700864113
 20
-34.7692522826
 10
54.6989712344
 20
-34.4238446379
 10
54.2243456521
 20
-34.0801542582
 10
53.7462873864
 20
-33.7381415841
 10
53.2634716061
 20
-33.3967994384
 10
52.7760895254
 20
-33.0562370292
 10
52.285840367
 20
-32.7176117925
 10
51.7937657258
 20
-32.3816012438
  0
LINE
  5
3D7
100
AcDbEntity
  8
SUPERFICI
100
AcDbLine
 62
250
  6
CONTINUOUS
 10
56.3998624703
 20
-35.6925341829
 11
56.0965823392
 21
-35.4617692735
  0
LINE
  5
3D8
100
AcDbEntity
  8
SUPERFICI
100
AcDbLine
 62
250
  6
CONTINUOUS
 10
55.6753675412
 20
-36.8955924656
 11
54.9175622322
 21
-36.312619919
  0
LINE
  5
3D9
100
AcDbEntity
  8
SUPERFICI
100
AcDbLine
 62
250
  6
CONTINUOUS
 10
56.244409237
 20
-37.3392957335
 11
55.6753675412
 21
-36.8955924656
  0
LWPOLYLINE
  5
3DA
100
AcDbEntity
  8
SUPERFICI
100
AcDbPolyline
 62
250
  6
CONTINUOUS
 90
3
 70
0
 10
57.0893063754
 20
-38.0077260266
 10
56.8083842565
 20
-37.7841735341
 10
56.244409237
 20
-37.3392957335
  0
LINE
  5
3DB
100
AcDbEntity
  8
0
100
AcDbLine
 62
250
  6
CONTINUOUS
 10
36.4006409782
 20
-28.6168366021
 11
35.8865149717
 21
-28.1854371745
  0
LINE
  5
3DC
100
AcDbEntity
  8
0
100
AcDbLine
 62
250
  6
CONTINUOUS
 10
35.8889088577
 20
-28.1900555446
 11
35.4788998101
 21
-27.8413268762
  0
LINE
  5
3DD
100
AcDbEntity
  8
0
100
AcDbLine
 62
250
  6
CONTINUOUS
 10
35.4788998101
 20
-27.8413268762
 11
35.069216186
 21
-27.4889633238
  0
LINE
  5
3DE
100
AcDbEntity
  8
0
100
AcDbLine
 62
250
  6
CONTINUOUS
 10
35.069216186
 20
-27.4889633238
 11
34.555965608
 21
-27.0413850445
  0
LINE
  5
3DF
100
AcDbEntity
  8
0
100
AcDbLine
 62
250
  6
CONTINUOUS
 10
34.555965608
 20
-27.0413850445
 11
34.2614578949
 21
-26.7827280364
  0
LINE
  5
3E0
100
AcDbEntity
  8
0
100
AcDbLine
 62
250
  6
CONTINUOUS
 10
34.2614578949
 20
-26.7827280364
 11
33.7457175881
 21
-26.3249376318
  0
LINE
  5
3E1
100
AcDbEntity
  8
0
100
AcDbLine
 62
250
  6
CONTINUOUS
 10
33.7457175881
 20
-26.3249376318
 11
33.3433140645
 21
-25.963557366
  0
LINE
  5
3E2
100
AcDbEntity
  8
0
100
AcDbLine
 62
250
  6
CONTINUOUS
 10
33.3433140645
 20
-25.963557366
 11
33.0735212863
 21
-25.719216141
  0
LWPOLYLINE
  5
3E3
100
AcDbEntity
  8
SUPERFICI
100
AcDbPolyline
 62
250
  6
CONTINUOUS
 90
10
 70
0
 10
-32.1886423741
 20
31.3574649338
 10
-32.7195456857
 20
31.8538600208
 10
-33.2617802119
 20
32.3442837932
 10
-33.815756815
 20
32.8292232579
 10
-34.3825880718
 20
33.3098196619
 10
-34.9620728442
 20
33.7861551182
 10
-35.5526437622
 20
34.2573820132
 10
-36.1540738759
 20
34.723933645
 10
-36.7675306098
 20
35.1874008168
 10
-37.3935225534
 20
35.6489049843
  0
LWPOLYLINE
  5
3E4
100
AcDbEntity
  8
0
100
AcDbPolyline
 62
250
  6
CONTINUOUS
 90
6
 70
0
 10
30.0019062299
 20
-29.1140791727
 10
30.4306284826
 20
-29.5809148785
 10
30.8642235
 20
-30.0391822865
 10
31.3021306053
 20
-30.4883700276
 10
31.7437899202
 20
-30.92796751
 10
32.1886423741
 20
-31.3574649338
  0
LINE
  5
3E5
100
AcDbEntity
  8
0
100
AcDbLine
 62
250
  6
CONTINUOUS
 10
29.5786182072
 20
-28.639187302
 11
30.0019062299
 21
-29.1140791727
  0
LINE
  5
3E6
100
AcDbEntity
  8
0
100
AcDbLine
 62
250
  6
CONTINUOUS
 10
29.406016054
 20
-28.4425683388
 11
29.5783097856
 21
-28.6402638088
  0
LWPOLYLINE
  5
3E7
100
AcDbEntity
  8
0
100
AcDbPolyline
 62
250
  6
CONTINUOUS
 90
3
 70
0
 10
29.0664405654
 20
-28.0456526201
 10
29.2353839525
 20
-28.2443485164
 10
29.406016054
 20
-28.4425683388
  0
LWPOLYLINE
  5
3E8
100
AcDbEntity
  8
0
100
AcDbPolyline
 62
250
  6
CONTINUOUS
 90
3
 70
0
 10
28.7337244481
 20
-27.6470217641
 10
28.8992122108
 20
-27.8465281359
 10
29.0664405654
 20
-28.0456526201
  0
LINE
  5
3E9
100
AcDbEntity
  8
0
100
AcDbLine
 62
250
  6
CONTINUOUS
 10
28.515459433
 20
-27.3807232229
 11
28.7337244481
 21
-27.6470217641
  0
LINE
  5
3EA
100
AcDbEntity
  8
0
100
AcDbLine
 62
250
  6
CONTINUOUS
 10
28.4338842682
 20
-27.2799001145
 11
28.515459433
 21
-27.3807232229
  0
LINE
  5
3EB
100
AcDbEntity
  8
0
100
AcDbLine
 62
250
  6
CONTINUOUS
 10
28.3085516441
 20
-27.1228015373
 11
28.4338842682
 21
-27.2799001145
  0
LWPOLYLINE
  5
3EC
100
AcDbEntity
  8
SUPERFICI
100
AcDbPolyline
 62
250
  6
CONTINUOUS
 90
10
 70
0
 10
-24.18088115
 20
39.0989757475
 10
-24.0623212649
 20
38.9490039581
 10
-23.9429319021
 20
38.7994688854
 10
-23.8227130615
 20
38.6503738947
 10
-23.7016608329
 20
38.5017148956
 10
-23.5797791267
 20
38.3535025734
 10
-23.4570796751
 20
38.2057624659
 10
-23.3335663888
 20
38.0585052853
 10
-23.2092353572
 20
37.9117268412
 10
-23.0840865804
 20
37.7654303256
  0
LINE
  5
3ED
100
AcDbEntity
  8
0
100
AcDbLine
 62
250
  6
CONTINUOUS
 10
28.113906493
 20
-26.8769677014
 11
28.3085516441
 21
-27.1228015373
  0
LWPOLYLINE
  5
3EE
100
AcDbEntity
  8
0
100
AcDbPolyline
 62
250
  6
CONTINUOUS
 90
3
 70
0
 10
27.8268089435
 20
-26.5072971441
 10
27.9218512046
 20
-26.6306309675
 10
28.113906493
 20
-26.8769677014
  0
LWPOLYLINE
  5
3EF
100
AcDbEntity
  8
SUPERFICI
100
AcDbPolyline
 62
250
  6
CONTINUOUS
 90
10
 70
0
 10
-21.3682932997
 20
-35.7968599443
 10
-21.0053004785
 20
-35.3541744254
 10
-20.6516856351
 20
-34.9059972776
 10
-20.3074487748
 20
-34.4523352286
 10
-19.9742160132
 20
-33.9951491206
 10
-19.6503612462
 20
-33.5325069237
 10
-19.331006152
 20
-33.0585391545
 10
-19.0145246295
 20
-32.5712579324
 10
-18.7025427974
 20
-32.0726019789
 10
-18.3950606658
 20
-31.5625587485
  0
LWPOLYLINE
  5
3F0
100
AcDbEntity
  8
SUPERFICI
100
AcDbPolyline
 62
250
  6
CONTINUOUS
 90
4
 70
0
 10
-21.3682932996
 20
-35.7968673365
 10
-21.5547480985
 20
-36.0179794742
 10
-21.7418011158
 20
-36.2362492599
 10
-21.9298073363
 20
-36.4527277894
  0
LWPOLYLINE
  5
3F1
100
AcDbEntity
  8
SUPERFICI
100
AcDbPolyline
 62
250
  6
CONTINUOUS
 90
10
 70
0
 10
-23.0840865804
 20
-37.7654303256
 10
-23.2092362766
 20
-37.9117279365
 10
-23.3335679879
 20
-38.0585071947
 10
-23.4570817141
 20
-38.2057649089
 10
-23.5797813526
 20
-38.3535052631
 10
-23.7016630059
 20
-38.5017175532
 10
-23.8227149816
 20
-38.6503762642
 10
-23.9429333822
 20
-38.7994707191
 10
-24.062322105
 20
-38.9490050016
 10
-24.18088115
 20
-39.0989757475
  0
LINE
  5
3F2
100
AcDbEntity
  8
SUPERFICI
100
AcDbLine
 62
250
  6
CONTINUOUS
 10
-22.8879290646
 20
-37.5410396126
 11
-23.0821126799
 21
-37.7652788987
  0
LWPOLYLINE
  5
3F3
100
AcDbEntity
  8
SUPERFICI
100
AcDbPolyline
 62
250
  6
CONTINUOUS
 90
3
 70
0
 10
-21.9298073363
 20
-36.4527277894
 10
-22.5038220055
 20
-37.1040054768
 10
-22.8879290646
 20
-37.5410396126
  0
LWPOLYLINE
  5
3F4
100
AcDbEntity
  8
SUPERFICI
100
AcDbPolyline
 62
250
  6
CONTINUOUS
 90
10
 70
0
 10
58.9147239667
 20
36.0895000588
 10
58.6367664335
 20
35.8536263611
 10
58.3584872615
 20
35.620391894
 10
58.0793476109
 20
35.3893131102
 10
57.7986917266
 20
35.1598114141
 10
57.516135566
 20
34.9315320039
 10
57.2322939461
 20
34.7049359463
 10
56.9482236761
 20
34.4808485966
 10
56.6647617676
 20
34.2599217757
 10
56.3828560339
 20
34.0428963753
  0
LINE
  5
3F5
100
AcDbEntity
  8
SUPERFICI
100
AcDbLine
 62
250
  6
CONTINUOUS
 10
58.8111361866
 20
37.6006603655
 11
58.2173611635
 21
37.1184651772
  0
LWPOLYLINE
  5
3F6
100
AcDbEntity
  8
SUPERFICI
100
AcDbPolyline
 62
250
  6
CONTINUOUS
 90
3
 70
0
 10
57.9332624275
 20
38.687149363
 10
57.3699957376
 20
38.2323983777
 10
57.0893063754
 20
38.0077260266
  0
LINE
  5
3F7
100
AcDbEntity
  8
SUPERFICI
100
AcDbLine
 62
250
  6
CONTINUOUS
 10
58.2173611635
 20
37.1184651772
 11
57.6151060086
 21
36.6377779875
  0
LINE
  5
3F8
100
AcDbEntity
  8
SUPERFICI
100
AcDbLine
 62
250
  6
CONTINUOUS
 10
57.6151060086
 20
36.6377779875
 11
57.0080600769
 21
36.1615093555
  0
LWPOLYLINE
  5
3F9
100
AcDbEntity
  8
SUPERFICI
100
AcDbPolyline
 62
250
  6
CONTINUOUS
 90
3
 70
0
 10
57.0080600769
 20
36.1615093555
 10
56.3998624703
 20
35.6925341829
 10
56.0965823392
 20
35.4617692735
  0
LWPOLYLINE
  5
3FA
100
AcDbEntity
  8
SUPERFICI
100
AcDbPolyline
 62
250
  6
CONTINUOUS
 90
10
 70
0
 10
56.3828560339
 20
34.0428963753
 10
55.9523399275
 20
33.7164223365
 10
55.5180168498
 20
33.392759796
 10
55.0794722283
 20
33.0715261086
 10
54.635769832
 20
32.7519542397
 10
54.1869449542
 20
32.4339705254
 10
53.7340195064
 20
32.1181476855
 10
53.2770119492
 20
31.8042991049
 10
52.814921468
 20
31.4915248779
 10
52.3472324055
 20
31.1792575273
  0
LWPOLYLINE
  5
3FB
100
AcDbEntity
  8
SUPERFICI
100
AcDbPolyline
 62
250
  6
CONTINUOUS
 90
3
 70
0
 10
-37.3935225534
 20
-35.6489049843
 10
-37.7203917648
 20
-35.8857620359
 10
-38.0491388213
 20
-36.1214602897
  0
LINE
  5
3FC
100
AcDbEntity
  8
SUPERFICI
100
AcDbLine
 62
250
  6
CONTINUOUS
 10
-38.0491388213
 20
-36.1214602897
 11
-38.7123510079
 21
-36.5907033576
  0
LWPOLYLINE
  5
3FD
100
AcDbEntity
  8
SUPERFICI
100
AcDbPolyline
 62
250
  6
CONTINUOUS
 90
3
 70
0
 10
-38.7123510079
 20
-36.5907033576
 10
-39.7183848889
 20
-37.2921394727
 10
-40.3936700814
 20
-37.7604537292
  0
LINE
  5
3FE
100
AcDbEntity
  8
SUPERFICI
100
AcDbLine
 62
250
  6
CONTINUOUS
 10
-40.3936700814
 20
-37.7604537292
 11
-42.3191150428
 21
-39.1028307873
  0
LWPOLYLINE
  5
3FF
100
AcDbEntity
  8
SUPERFICI
100
AcDbPolyline
 62
250
  6
CONTINUOUS
 90
10
 70
0
 10
56.9260764017
 20
23.189737925
 10
56.5690789299
 20
22.9638582505
 10
56.2133282601
 20
22.7439038622
 10
55.8570887191
 20
22.528776038
 10
55.4976150376
 20
22.3167862755
 10
55.1340941691
 20
22.1073975798
 10
54.7677602338
 20
21.9011574363
 10
54.3980048526
 20
21.697464266
 10
54.0222608772
 20
21.4946335884
 10
53.6390240547
 20
21.2915918155
  0
LINE
  5
400
100
AcDbEntity
  8
SUPERFICI
100
AcDbLine
 62
250
  6
CONTINUOUS
 10
-48.6469425428
 20
-37.4363819656
 11
-49.3087968915
 21
-37.8475536573
  0
LINE
  5
401
100
AcDbEntity
  8
SUPERFICI
100
AcDbLine
 62
250
  6
CONTINUOUS
 10
-49.3087968915
 20
-37.8475536573
 11
-49.8255483279
 21
-38.1647527149
  0
LINE
  5
402
100
AcDbEntity
  8
SUPERFICI
100
AcDbLine
 62
250
  6
CONTINUOUS
 10
-49.8255483279
 20
-38.1647527149
 11
-50.3409532093
 21
-38.4777386378
  0
LINE
  5
403
100
AcDbEntity
  8
SUPERFICI
100
AcDbLine
 62
250
  6
CONTINUOUS
 10
-50.3409532093
 20
-38.4777386378
 11
-50.8573747352
 21
-38.7879545744
  0
LINE
  5
404
100
AcDbEntity
  8
SUPERFICI
100
AcDbLine
 62
250
  6
CONTINUOUS
 10
-50.8573747352
 20
-38.7879545744
 11
-51.3780820371
 21
-39.0974101611
  0
LINE
  5
405
100
AcDbEntity
  8
SUPERFICI
100
AcDbLine
 62
250
  6
CONTINUOUS
 10
-51.3780821228
 20
39.0974101675
 11
-50.8559940126
 21
38.7871488366
  0
LINE
  5
406
100
AcDbEntity
  8
SUPERFICI
100
AcDbLine
 62
250
  6
CONTINUOUS
 10
-50.8559940126
 20
38.7871488366
 11
-50.3390166899
 21
38.47658871
  0
LINE
  5
407
100
AcDbEntity
  8
SUPERFICI
100
AcDbLine
 62
250
  6
CONTINUOUS
 10
-50.3390166899
 20
38.47658871
 11
-49.8238352452
 21
38.1637174275
  0
LINE
  5
408
100
AcDbEntity
  8
SUPERFICI
100
AcDbLine
 62
250
  6
CONTINUOUS
 10
-49.8238352452
 20
38.1637174275
 11
-49.3080365889
 21
37.8470860682
  0
LINE
  5
409
100
AcDbEntity
  8
SUPERFICI
100
AcDbLine
 62
250
  6
CONTINUOUS
 10
-49.3080365889
 20
37.8470860682
 11
-48.6469496333
 21
37.4363864008
  0
LWPOLYLINE
  5
40A
100
AcDbEntity
  8
SUPERFICI
100
AcDbPolyline
 62
250
  6
CONTINUOUS
 90
10
 70
0
 10
56.9260764017
 20
-23.189737925
 10
56.5690789299
 20
-22.9638582505
 10
56.2133282601
 20
-22.7439038622
 10
55.8570887191
 20
-22.528776038
 10
55.4976150376
 20
-22.3167862755
 10
55.1340941691
 20
-22.1073975798
 10
54.7677602338
 20
-21.9011574363
 10
54.3980048526
 20
-21.697464266
 10
54.0222608772
 20
-21.4946335884
 10
53.6390240547
 20
-21.2915918155
  0
LWPOLYLINE
  5
40B
100
AcDbEntity
  8
SUPERFICI
100
AcDbPolyline
 62
250
  6
CONTINUOUS
 90
3
 70
0
 10
-42.3223614109
 20
39.1051045143
 10
-42.1075313248
 20
38.9547081054
 10
-39.0463299156
 20
36.8245731104
  0
LWPOLYLINE
  5
40C
100
AcDbEntity
  8
SUPERFICI
100
AcDbPolyline
 62
250
  6
CONTINUOUS
 90
5
 70
0
 10
-39.0463299156
 20
36.8245731104
 10
-38.3792103105
 20
36.3559208956
 10
-38.048712336
 20
36.1211560023
 10
-37.7201378092
 20
35.8855790285
 10
-37.3935225534
 20
35.6489049843
  0
LWPOLYLINE
  5
40D
100
AcDbEntity
  8
SUPERFICI
100
AcDbPolyline
 62
250
  6
CONTINUOUS
 90
10
 70
0
 10
56.3828560339
 20
-34.0428963753
 10
55.9523399275
 20
-33.7164223365
 10
55.5180168498
 20
-33.392759796
 10
55.0794722283
 20
-33.0715261086
 10
54.635769832
 20
-32.7519542397
 10
54.1869449542
 20
-32.4339705254
 10
53.7340195064
 20
-32.1181476855
 10
53.2770119492
 20
-31.8042991049
 10
52.814921468
 20
-31.4915248779
 10
52.3472324055
 20
-31.1792575273
  0
LINE
  5
40E
100
AcDbEntity
  8
SUPERFICI
100
AcDbLine
 62
250
  6
CONTINUOUS
 10
57.0080600769
 20
-36.1615093555
 11
56.3998624703
 21
-35.6925341829
  0
LINE
  5
40F
100
AcDbEntity
  8
SUPERFICI
100
AcDbLine
 62
250
  6
CONTINUOUS
 10
57.6151060086
 20
-36.6377779875
 11
57.0080600769
 21
-36.1615093555
  0
LINE
  5
410
100
AcDbEntity
  8
SUPERFICI
100
AcDbLine
 62
250
  6
CONTINUOUS
 10
58.2173611635
 20
-37.1184651772
 11
57.6151060086
 21
-36.6377779875
  0
LWPOLYLINE
  5
411
100
AcDbEntity
  8
SUPERFICI
100
AcDbPolyline
 62
250
  6
CONTINUOUS
 90
3
 70
0
 10
57.9332624275
 20
-38.687149363
 10
57.6511269038
 20
-38.4587245292
 10
57.0893063754
 20
-38.0077260266
  0
LINE
  5
412
100
AcDbEntity
  8
SUPERFICI
100
AcDbLine
 62
250
  6
CONTINUOUS
 10
58.8111361866
 20
-37.6006603655
 11
58.2173611635
 21
-37.1184651772
  0
LWPOLYLINE
  5
413
100
AcDbEntity
  8
SUPERFICI
100
AcDbPolyline
 62
250
  6
CONTINUOUS
 90
10
 70
0
 10
58.9147239667
 20
-36.0895000588
 10
58.6367664335
 20
-35.8536263611
 10
58.3584872615
 20
-35.620391894
 10
58.0793476109
 20
-35.3893131102
 10
57.7986917266
 20
-35.1598114141
 10
57.516135566
 20
-34.9315320039
 10
57.2322939461
 20
-34.7049359463
 10
56.9482236761
 20
-34.4808485966
 10
56.6647617676
 20
-34.2599217757
 10
56.3828560339
 20
-34.0428963753
  0
LWPOLYLINE
  5
414
100
AcDbEntity
  8
SUPERFICI
100
AcDbPolyline
 62
250
  6
CONTINUOUS
 90
5
 70
0
 10
-22.6945105069
 20
37.3202031769
 10
-21.9286524173
 20
36.4514053348
 10
-21.7408886074
 20
36.2351920465
 10
-21.5542178868
 20
36.0173560181
 10
-21.3682932996
 20
35.7968673365
  0
LWPOLYLINE
  5
415
100
AcDbEntity
  8
SUPERFICI
100
AcDbPolyline
 62
250
  6
CONTINUOUS
 90
3
 70
0
 10
-23.0821126799
 20
37.7652788987
 10
-22.8874448384
 20
37.5404839994
 10
-22.6945105069
 20
37.3202031769
  0
LWPOLYLINE
  5
416
100
AcDbEntity
  8
SUPERFICI
100
AcDbPolyline
 62
250
  6
CONTINUOUS
 90
10
 70
0
 10
-21.3682932997
 20
35.7968599443
 10
-21.0053004785
 20
35.3541744254
 10
-20.6516856351
 20
34.9059972776
 10
-20.3074487748
 20
34.4523352286
 10
-19.9742160132
 20
33.9951491206
 10
-19.6503612462
 20
33.5325069237
 10
-19.331006152
 20
33.0585391545
 10
-19.0145246295
 20
32.5712579324
 10
-18.7025427974
 20
32.0726019789
 10
-18.3950606658
 20
31.5625587485
  0
LINE
  5
417
100
AcDbEntity
  8
0
100
AcDbLine
 62
250
  6
CONTINUOUS
 10
27.627501981
 20
-26.2478845173
 11
27.8268084296
 21
-26.5092559966
  0
LINE
  5
418
100
AcDbEntity
  8
0
100
AcDbLine
 62
250
  6
CONTINUOUS
 10
27.431402194
 20
-25.9863557257
 11
27.627501981
 21
-26.2478845173
  0
LINE
  5
419
100
AcDbEntity
  8
0
100
AcDbLine
 62
250
  6
CONTINUOUS
 10
27.238553139
 20
-25.7247563131
 11
27.431402194
 21
-25.9863557257
  0
LWPOLYLINE
  5
41A
100
AcDbEntity
  8
SUPERFICI
100
AcDbPolyline
 62
250
  6
CONTINUOUS
 90
10
 70
0
 10
56.9260764017
 20
23.189737925
 10
57.1578122054
 20
23.3392708283
 10
57.389142349
 20
23.4910476752
 10
57.6200053991
 20
23.6450421738
 10
57.8498250487
 20
23.8008754872
 10
58.0790399613
 20
23.9588481942
 10
58.3087526286
 20
24.1197116181
 10
58.5386675971
 20
24.283248894
 10
58.7674252184
 20
24.4484894737
 10
58.9941622836
 20
24.6148065375
  0
LWPOLYLINE
  5
41B
100
AcDbEntity
  8
SUPERFICI
100
AcDbPolyline
 62
250
  6
CONTINUOUS
 90
10
 70
0
 10
58.9656592722
 20
-24.593732649
 10
58.7422599117
 20
-24.429855729
 10
58.518991365
 20
-24.2686381759
 10
58.2952365934
 20
-24.1096346007
 10
58.0704009391
 20
-23.9524151968
 10
57.8438854423
 20
-23.7965467264
 10
57.615647982
 20
-23.6419826529
 10
57.386215295
 20
-23.4890711722
 10
57.1561707793
 20
-23.338198919
 10
56.9260764016
 20
-23.189737925
  0
LINE
  5
41C
100
AcDbEntity
  8
0
100
AcDbLine
 62
7
  6
CONTINUOUS
 10
24.7689259313
 20
-28.7905737294
 11
23.8377939313
 21
-25.8904357294
  0
LINE
  5
41D
100
AcDbEntity
  8
0
100
AcDbLine
 62
7
  6
CONTINUOUS
 10
24.4178229313
 20
-25.8904357294
 11
25.0589549313
 21
-27.8873317294
  0
LINE
  5
41E
100
AcDbEntity
  8
0
100
AcDbLine
 62
7
  6
CONTINUOUS
 10
35.5468699313
 20
-28.7905587294
 11
34.9656159313
 21
-27.6692087294
  0
LINE
  5
41F
100
AcDbEntity
  8
0
100
AcDbLine
 62
7
  6
CONTINUOUS
 10
35.5827707219
 20
-27.5994543964
 11
36.2001749313
 21
-28.7905517294
  0
LINE
  5
420
100
AcDbEntity
  8
0
100
AcDbLine
 62
7
  6
CONTINUOUS
 10
28.9552059313
 20
-28.7905667294
 11
28.4068309313
 21
-26.8781247294
  0
LINE
  5
421
100
AcDbEntity
  8
0
100
AcDbLine
 62
7
  6
CONTINUOUS
 10
28.7036459313
 20
-25.8904357294
 11
29.2452139313
 21
-27.7791037294
  0
LINE
  5
422
100
AcDbEntity
  8
0
100
AcDbLine
 62
7
  6
CONTINUOUS
 10
26.6667799313
 20
-28.7905737294
 11
26.6667869313
 21
-25.8904357294
  0
LINE
  5
423
100
AcDbEntity
  8
SUPERFICI
100
AcDbLine
 62
250
  6
CONTINUOUS
 10
59.2717889135
 20
37.5394086428
 11
58.8569341145
 21
37.4476851745
  0
LINE
  5
424
100
AcDbEntity
  8
SUPERFICI
100
AcDbLine
 62
250
  6
CONTINUOUS
 10
-37.2642420431
 20
22.0488303276
 11
-35.4464473296
 21
22.1392524891
  0
LINE
  5
425
100
AcDbEntity
  8
SUPERFICI
100
AcDbLine
 62
7
  6
CONTINUOUS
 10
-35.4469009226
 20
22.1392525325
 11
-33.8609378716
 21
22.2181553029
  0
LINE
  5
426
100
AcDbEntity
  8
0
100
AcDbLine
 62
7
  6
CONTINUOUS
 10
33.8355447918
 20
22.2186737998
 11
33.8617601176
 21
22.2186742152
  0
LINE
  5
427
100
AcDbEntity
  8
0
100
AcDbLine
 62
7
  6
CONTINUOUS
 10
-33.8355447918
 20
22.2186737998
 11
-33.8617601176
 21
22.2186742152
  0
LINE
  5
428
100
AcDbEntity
  8
0
100
AcDbLine
 62
7
  6
CONTINUOUS
 10
-33.5185702917
 20
22.5368697967
 11
33.5185702919
 21
22.5368697967
  0
LINE
  5
429
100
AcDbEntity
  8
SUPERFICI
100
AcDbLine
 62
250
  6
CONTINUOUS
 10
33.5185143723
 20
22.562726873
 11
-33.5185143723
 21
22.562726873
  0
LINE
  5
42A
100
AcDbEntity
  8
SUPERFICI
100
AcDbLine
 62
250
  6
CONTINUOUS
 10
33.5150989639
 20
24.1592506131
 11
-33.5150989639
 21
24.1592506131
  0
LINE
  5
42B
100
AcDbEntity
  8
SUPERFICI
100
AcDbLine
 62
250
  6
CONTINUOUS
 10
27.238553139
 20
25.7247563131
 11
-27.238553139
 21
25.7247563131
  0
LINE
  5
42C
100
AcDbEntity
  8
SUPERFICI
100
AcDbLine
 62
7
  6
CONTINUOUS
 10
27.2385531282
 20
25.7247563177
 11
33.5116850672
 21
25.7198562154
  0
LINE
  5
42D
100
AcDbEntity
  8
SUPERFICI
100
AcDbLine
 62
7
  6
CONTINUOUS
 10
-27.2385531282
 20
25.7247563177
 11
-33.5116850672
 21
25.7198562154
  0
LINE
  5
42E
100
AcDbEntity
  8
SUPERFICI
100
AcDbLine
 62
7
  6
CONTINUOUS
 10
33.8609378716
 20
22.2181553029
 11
35.4469009226
 21
22.1392525325
  0
LINE
  5
42F
100
AcDbEntity
  8
SUPERFICI
100
AcDbLine
 62
250
  6
CONTINUOUS
 10
35.4464473296
 20
22.1392524891
 11
37.2642420431
 21
22.0488303276
  0
LWPOLYLINE
  5
430
100
AcDbEntity
  8
SUPERFICI
100
AcDbPolyline
 62
250
  6
CONTINUOUS
 90
4
 70
0
 10
-59.574850608
 20
37.604730202
 10
-59.6379680565
 20
37.617807693
 10
-59.6798858557
 20
37.626068403
 10
-59.6995418927
 20
37.6292940352
  0
LINE
  5
431
100
AcDbEntity
  8
SUPERFICI
100
AcDbLine
 62
250
  6
CONTINUOUS
 10
-59.3895156193
 20
37.5650528823
 11
-59.574850608
 21
37.604730202
  0
LWPOLYLINE
  5
432
100
AcDbEntity
  8
SUPERFICI
100
AcDbPolyline
 62
250
  6
CONTINUOUS
 90
3
 70
0
 10
-58.8569341061
 20
37.4476852071
 10
-59.0038092155
 20
37.4803533707
 10
-59.3895156193
 20
37.5650528823
  0
LINE
  5
433
100
AcDbEntity
  8
0
100
AcDbLine
 62
7
  6
CONTINUOUS
 10
32.5525479313
 20
-27.6692087294
 11
32.2714429313
 21
-26.7936697294
  0
LINE
  5
434
100
AcDbEntity
  8
0
100
AcDbLine
 62
7
  6
CONTINUOUS
 10
32.9125829313
 20
-28.7905587294
 11
32.7294769313
 21
-28.2202307294
  0
LINE
  5
435
100
AcDbEntity
  8
0
100
AcDbLine
 62
7
  6
CONTINUOUS
 10
32.5614719313
 20
-25.8904287294
 11
33.4926119313
 21
-28.7905667294
  0
LINE
  5
436
100
AcDbEntity
  8
0
100
AcDbLine
 62
7
  6
CONTINUOUS
 10
27.2468089313
 20
-25.8904357294
 11
27.2468019313
 21
-28.7905667294
  0
LINE
  5
437
100
AcDbEntity
  8
0
100
AcDbLine
 62
7
  6
CONTINUOUS
 10
27.8268089313
 20
-28.7905667294
 11
27.8268089313
 21
-25.8904357294
  0
LINE
  5
438
100
AcDbEntity
  8
0
100
AcDbLine
 62
7
  6
CONTINUOUS
 10
28.4068309313
 20
-26.8781247294
 11
28.4068309313
 21
-28.7905667294
  0
LINE
  5
439
100
AcDbEntity
  8
0
100
AcDbLine
 62
7
  6
CONTINUOUS
 10
30.0835959313
 20
-28.7905667294
 11
30.0835889313
 21
-26.8781247294
  0
LINE
  5
43A
100
AcDbEntity
  8
0
100
AcDbLine
 62
7
  6
CONTINUOUS
 10
30.6636179313
 20
-25.8904357294
 11
30.6636179313
 21
-28.7905667294
  0
LINE
  5
43B
100
AcDbEntity
  8
0
100
AcDbLine
 62
7
  6
CONTINUOUS
 10
33.5980711808
 20
-22.5137872132
 11
33.5185702919
 21
-22.5368697967
  0
LWPOLYLINE
  5
43C
100
AcDbEntity
  8
SUPERFICI
100
AcDbPolyline
 62
250
  6
CONTINUOUS
 90
6
 70
0
 10
59.6995419034
 20
37.6292939872
 10
59.6800175297
 20
37.6260948908
 10
59.6381738024
 20
37.6178501381
 10
59.5747705875
 20
37.6047119253
 10
59.4911646181
 20
37.5869613462
 10
59.2717889135
 20
37.5394086428
  0
LWPOLYLINE
  5
43D
100
AcDbEntity
  8
SUPERFICI
100
AcDbPolyline
 62
7
  6
CONTINUOUS
 90
10
 70
0
 10
-33.5116850672
 20
25.7198562154
 10
-33.7815614279
 20
25.7064687307
 10
-34.0475700411
 20
25.6761623486
 10
-34.3086883294
 20
25.6283521049
 10
-34.5639462743
 20
25.5634700084
 10
-34.8125674299
 20
25.4822127694
 10
-35.053936913
 20
25.3852726321
 10
-35.2874605883
 20
25.2730702942
 10
-35.512576445
 20
25.1457856649
 10
-35.7288088902
 20
25.0036019052
  0
LWPOLYLINE
  5
43E
100
AcDbEntity
  8
SUPERFICI
100
AcDbPolyline
 62
7
  6
CONTINUOUS
 90
10
 70
0
 10
33.5116850672
 20
25.7198562154
 10
33.7815614279
 20
25.7064687307
 10
34.0475700411
 20
25.6761623486
 10
34.3086883294
 20
25.6283521049
 10
34.5639462743
 20
25.5634700084
 10
34.8125674299
 20
25.4822127694
 10
35.053936913
 20
25.3852726321
 10
35.2874605883
 20
25.2730702942
 10
35.512576445
 20
25.1457856649
 10
35.7288088902
 20
25.0036019052
  0
LWPOLYLINE
  5
43F
100
AcDbEntity
  8
SUPERFICI
100
AcDbPolyline
 62
250
  6
CONTINUOUS
 90
10
 70
0
 10
33.5126146357
 20
24.1581205668
 10
33.8397582405
 20
24.0976196144
 10
34.1569173117
 20
23.9860599065
 10
34.4551939968
 20
23.8269669159
 10
34.7253442471
 20
23.6242021429
 10
34.9592415208
 20
23.3811201502
 10
35.1519024559
 20
23.1025112004
 10
35.2999356621
 20
22.7964532646
 10
35.3994579453
 20
22.4723167001
 10
35.4468608503
 20
22.1392525329
  0
LWPOLYLINE
  5
440
100
AcDbEntity
  8
0
100
AcDbPolyline
 62
7
  6
CONTINUOUS
 90
3
 70
0
 10
33.5185702919
 20
22.5368697967
 10
33.59928435
 20
22.5132837196
 10
33.6626781536
 20
22.4821299705
  0
LINE
  5
441
100
AcDbEntity
  8
SUPERFICI
100
AcDbLine
 62
7
  6
CONTINUOUS
 10
33.5117506066
 20
25.724700364
 11
33.5185140011
 21
22.5617056208
  0
LINE
  5
442
100
AcDbEntity
  8
0
100
AcDbLine
 62
7
  6
CONTINUOUS
 10
33.5185143723
 20
22.562726873
 11
33.5185702919
 21
22.5368697967
  0
LINE
  5
443
100
AcDbEntity
  8
0
100
AcDbLine
 62
7
  6
CONTINUOUS
 10
33.8343323543
 20
-22.2260711184
 11
33.8355447918
 21
22.2186737998
  0
LINE
  5
444
100
AcDbEntity
  8
SUPERFICI
100
AcDbLine
 62
250
  6
CONTINUOUS
 10
33.8617601176
 20
22.2186742152
 11
33.8605482614
 21
-22.2186741821
  0
LINE
  5
445
100
AcDbEntity
  8
0
100
AcDbLine
 62
7
  6
CONTINUOUS
 10
33.8792899313
 20
-28.7905587294
 11
33.8792899313
 21
-25.8904287294
  0
LINE
  5
446
100
AcDbEntity
  8
0
100
AcDbLine
 62
7
  6
CONTINUOUS
 10
34.4513149313
 20
-26.4269497294
 11
34.4513229313
 21
-27.1326797294
  0
LINE
  5
447
100
AcDbEntity
  8
SUPERFICI
100
AcDbLine
 62
250
  6
CONTINUOUS
 10
35.4469009226
 20
22.1392525325
 11
35.4469009226
 21
-22.1392525325
  0
LINE
  5
448
100
AcDbEntity
  8
0
100
AcDbLine
 62
7
  6
CONTINUOUS
 10
34.4593849313
 20
-27.6692017294
 11
34.4593189313
 21
-28.7905587294
  0
LINE
  5
449
100
AcDbEntity
  8
SUPERFICI
100
AcDbLine
 62
7
  6
CONTINUOUS
 10
37.2641958126
 20
-22.0488496307
 11
37.2642420431
 21
22.0488303276
  0
LINE
  5
44A
100
AcDbEntity
  8
SUPERFICI
100
AcDbLine
 62
7
  6
CONTINUOUS
 10
33.5185140011
 20
-22.5617056208
 11
33.5117506066
 21
-25.724700364
  0
LINE
  5
44B
100
AcDbEntity
  8
0
100
AcDbLine
 62
7
  6
CONTINUOUS
 10
33.5185702919
 20
-22.5368697967
 11
33.5185143723
 21
-22.562726873
  0
LINE
  5
44C
100
AcDbEntity
  8
0
100
AcDbLine
 62
7
  6
CONTINUOUS
 10
29.2452139313
 20
-27.7791037294
 11
29.7867809313
 21
-25.8904357294
  0
LINE
  5
44D
100
AcDbEntity
  8
0
100
AcDbLine
 62
7
  6
CONTINUOUS
 10
30.0835889313
 20
-26.8781247294
 11
29.5352139313
 21
-28.7905587294
  0
LINE
  5
44E
100
AcDbEntity
  8
0
100
AcDbLine
 62
7
  6
CONTINUOUS
 10
25.0589549313
 20
-27.8873317294
 11
25.7000799313
 21
-25.8904357294
  0
LINE
  5
44F
100
AcDbEntity
  8
0
100
AcDbLine
 62
7
  6
CONTINUOUS
 10
26.2801089313
 20
-25.8904357294
 11
25.3489689313
 21
-28.7905667294
  0
LWPOLYLINE
  5
450
100
AcDbEntity
  8
SUPERFICI
100
AcDbPolyline
 62
7
  6
CONTINUOUS
 90
6
 70
0
 10
34.5601225508
 20
-25.5663567702
 10
34.8124449515
 20
-25.4841251786
 10
35.0566554207
 20
-25.3861060214
 10
35.2912259044
 20
-25.2732162796
 10
35.5158253361
 20
-25.1458560802
 10
35.7295871636
 20
-25.0046984272
  0
LWPOLYLINE
  5
451
100
AcDbEntity
  8
SUPERFICI
100
AcDbPolyline
 62
250
  6
CONTINUOUS
 90
7
 70
0
 10
-34.5756741763
 20
31.2530077365
 10
-35.3523446947
 20
31.2103496051
 10
-36.1183191268
 20
31.1517857566
 10
-36.8719233598
 20
31.0764820718
 10
-37.612491237
 20
30.9878234382
 10
-38.3392340233
 20
30.8812992661
 10
-39.0508246976
 20
30.7515950091
  0
LWPOLYLINE
  5
452
100
AcDbEntity
  8
SUPERFICI
100
AcDbPolyline
 62
250
  6
CONTINUOUS
 90
3
 70
0
 10
-32.1886423741
 20
31.3574649338
 10
-32.9939570129
 20
31.3250160051
 10
-34.5756741763
 20
31.2530077365
  0
LWPOLYLINE
  5
453
100
AcDbEntity
  8
SUPERFICI
100
AcDbPolyline
 62
250
  6
CONTINUOUS
 90
5
 70
0
 10
-41.9131869429
 20
35.5452952964
 10
-42.7972548546
 20
35.5136213883
 10
-43.6725982942
 20
35.4683874777
 10
-44.5394525257
 20
35.4083054729
 10
-45.3975904597
 20
35.3332178334
  0
LWPOLYLINE
  5
454
100
AcDbEntity
  8
SUPERFICI
100
AcDbPolyline
 62
250
  6
CONTINUOUS
 90
7
 70
0
 10
-32.1886423741
 20
31.3574649338
 10
-30.6357695342
 20
31.4126429583
 10
-29.0899938245
 20
31.4584553336
 10
-27.5513792915
 20
31.4958518399
 10
-26.0228668611
 20
31.5255697347
 10
-24.5016227356
 20
31.5469987705
 10
-22.9790481295
 20
31.5591803109
  0
LINE
  5
455
100
AcDbEntity
  8
SUPERFICI
100
AcDbLine
 62
250
  6
CONTINUOUS
 10
-40.1232121772
 20
35.5926931256
 11
-41.9131869429
 21
35.5452952964
  0
LINE
  5
456
100
AcDbEntity
  8
SUPERFICI
100
AcDbLine
 62
250
  6
CONTINUOUS
 10
-37.3935225534
 20
35.6489049843
 11
-40.1232121772
 21
35.5926931256
  0
LINE
  5
457
100
AcDbEntity
  8
SUPERFICI
100
AcDbLine
 62
250
  6
CONTINUOUS
 10
23.1238242724
 20
35.797384919
 11
-21.3682932997
 21
35.7968599443
  0
LINE
  5
458
100
AcDbEntity
  8
0
100
AcDbLine
 62
250
  6
CONTINUOUS
 10
-60.0001749313
 20
37.0327354782
 11
-59.765510132
 21
37.0327354781
  0
LINE
  5
459
100
AcDbEntity
  8
0
100
AcDbLine
 62
250
  6
CONTINUOUS
 10
59.765510132
 20
37.0327354781
 11
60.0001749313
 21
37.0327354782
  0
LWPOLYLINE
  5
45A
100
AcDbEntity
  8
SUPERFICI
100
AcDbPolyline
 62
250
  6
CONTINUOUS
 90
10
 70
0
 10
-21.3682932996
 20
35.7968673365
 10
-23.1238242724
 20
35.797384919
 10
-24.8847410456
 20
35.7932499761
 10
-26.6510337852
 20
35.7841705647
 10
-28.4214971997
 20
35.771091143
 10
-30.1973202994
 20
35.75425875
 10
-31.9820839207
 20
35.7336725191
 10
-33.7769767239
 20
35.7093164319
 10
-35.580793245
 20
35.6811038373
 10
-37.3935225534
 20
35.6489049843
  0
LWPOLYLINE
  5
45B
100
AcDbEntity
  8
SUPERFICI
100
AcDbPolyline
 62
250
  6
CONTINUOUS
 90
8
 70
0
 10
23.1238242724
 20
35.797384919
 10
24.8847410456
 20
35.7932499761
 10
26.6510337852
 20
35.7841705647
 10
28.4214971997
 20
35.771091143
 10
30.1973202994
 20
35.75425875
 10
31.9820839207
 20
35.7336725191
 10
33.7769767239
 20
35.7093164319
 10
35.580793245
 20
35.6811038373
  0
LINE
  5
45C
100
AcDbEntity
  8
SUPERFICI
100
AcDbLine
 62
250
  6
CONTINUOUS
 10
35.580793245
 20
35.6811038373
 11
38.3095533096
 21
35.6313999598
  0
LINE
  5
45D
100
AcDbEntity
  8
SUPERFICI
100
AcDbLine
 62
250
  6
CONTINUOUS
 10
38.3095533096
 20
35.6313999598
 11
40.1232121772
 21
35.5926931256
  0
LWPOLYLINE
  5
45E
100
AcDbEntity
  8
SUPERFICI
100
AcDbPolyline
 62
250
  6
CONTINUOUS
 90
6
 70
0
 10
40.1232121772
 20
35.5926931256
 10
41.9131869429
 20
35.5452952964
 10
42.7972548546
 20
35.5136213883
 10
43.6725982942
 20
35.4683874777
 10
44.5394525257
 20
35.4083054729
 10
45.3975904597
 20
35.3332178334
  0
LWPOLYLINE
  5
45F
100
AcDbEntity
  8
SUPERFICI
100
AcDbPolyline
 62
250
  6
CONTINUOUS
 90
8
 70
0
 10
32.1886423741
 20
31.3574649338
 10
30.6357695342
 20
31.4126429583
 10
29.0899938245
 20
31.4584553336
 10
27.5513792915
 20
31.4958518399
 10
26.0228668611
 20
31.5255697347
 10
24.5016227356
 20
31.5469987705
 10
22.9790481295
 20
31.5591803109
 10
-22.9790481295
 20
31.5591803109
  0
LWPOLYLINE
  5
460
100
AcDbEntity
  8
SUPERFICI
100
AcDbPolyline
 62
250
  6
CONTINUOUS
 90
9
 70
0
 10
39.0508246976
 20
30.7515950091
 10
38.3394147012
 20
30.8811698874
 10
37.6128255843
 20
30.9876447488
 10
36.8724220788
 20
31.0764156171
 10
36.1188895034
 20
31.1517527532
 10
35.3529092098
 20
31.2103084842
 10
34.5761862598
 20
31.2529815571
 10
33.7900280229
 20
31.2901917748
 10
32.1886423741
 20
31.3574649338
  0
LWPOLYLINE
  5
461
100
AcDbEntity
  8
SUPERFICI
100
AcDbPolyline
 62
7
  6
CONTINUOUS
 90
8
 70
0
 10
37.2528906362
 20
22.3711183207
 10
37.2554500665
 20
22.3358022431
 10
37.2575794276
 20
22.3003381905
 10
37.2593229008
 20
22.2647374937
 10
37.2607249135
 20
22.2290137439
 10
37.261830408
 20
22.1931762681
 10
37.2626846747
 20
22.1572300898
 10
37.2633331244
 20
22.1211846595
  0
LINE
  5
462
100
AcDbEntity
  8
SUPERFICI
100
AcDbLine
 62
7
  6
CONTINUOUS
 10
37.2633331244
 20
22.1211846595
 11
37.2641958126
 21
22.0488496307
  0
LWPOLYLINE
  5
463
100
AcDbEntity
  8
SUPERFICI
100
AcDbPolyline
 62
7
  6
CONTINUOUS
 90
9
 70
0
 10
37.2528906362
 20
-22.3711183207
 10
37.2554500665
 20
-22.3358022431
 10
37.2575794276
 20
-22.3003381905
 10
37.2593229008
 20
-22.2647374937
 10
37.2607249135
 20
-22.2290137439
 10
37.261830408
 20
-22.1931762681
 10
37.2626846747
 20
-22.1572300898
 10
37.2633331244
 20
-22.1211846595
 10
37.2641958126
 20
-22.0488496307
  0
LWPOLYLINE
  5
464
100
AcDbEntity
  8
SUPERFICI
100
AcDbPolyline
 62
250
  6
CONTINUOUS
 90
10
 70
0
 10
35.4468608503
 20
-22.1392525329
 10
35.4001386264
 20
-22.4695693476
 10
35.3019732897
 20
-22.7918790592
 10
35.1555460055
 20
-23.0971002558
 10
34.9643542891
 20
-23.375811315
 10
34.7314603864
 20
-23.61977942
 10
34.4615450257
 20
-23.8239229032
 10
34.1625749422
 20
-23.9845847964
 10
33.8437062561
 20
-24.0975287297
 10
33.5138568048
 20
-24.1588090258
  0
LWPOLYLINE
  5
465
100
AcDbEntity
  8
0
100
AcDbPolyline
 62
7
  6
CONTINUOUS
 90
3
 70
0
 10
33.8343323543
 20
-22.2260711184
 10
33.8085792225
 20
-22.3065880943
 10
33.7803022331
 20
-22.3646596946
  0
LINE
  5
466
100
AcDbEntity
  8
0
100
AcDbLine
 62
7
  6
CONTINUOUS
 10
31.0502969313
 20
-28.7905667294
 11
31.9814219313
 21
-25.8904287294
  0
LINE
  5
467
100
AcDbEntity
  8
0
100
AcDbLine
 62
7
  6
CONTINUOUS
 10
32.2714429313
 20
-26.7936697294
 11
31.9903539313
 21
-27.6692087294
  0
LINE
  5
468
100
AcDbEntity
  8
0
100
AcDbLine
 62
7
  6
CONTINUOUS
 10
31.8134319313
 20
-28.2202307294
 11
31.6303189313
 21
-28.7905587294
  0
LWPOLYLINE
  5
469
100
AcDbEntity
  8
SUPERFICI
100
AcDbPolyline
 62
7
  6
CONTINUOUS
 90
4
 70
0
 10
33.861306027
 20
-22.2184147613
 10
33.8392528173
 20
-22.2686074405
 10
33.8123907945
 20
-22.3171138077
 10
33.7818540414
 20
-22.3621932798
  0
LWPOLYLINE
  5
46A
100
AcDbEntity
  8
SUPERFICI
100
AcDbPolyline
 62
7
  6
CONTINUOUS
 90
4
 70
0
 10
33.7818540414
 20
-22.3621932798
 10
33.7456968691
 20
-22.4062691289
 10
33.7065481491
 20
-22.4456587055
 10
33.6617632937
 20
-22.4827815245
  0
LWPOLYLINE
  5
46B
100
AcDbEntity
  8
SUPERFICI
100
AcDbPolyline
 62
7
  6
CONTINUOUS
 90
10
 70
0
 10
35.7288112852
 20
-25.0036036029
 10
35.853649445
 20
-24.9115413817
 10
35.9730261967
 20
-24.815815301
 10
36.0871153499
 20
-24.7165146561
 10
36.1963075512
 20
-24.6135464521
 10
36.3006589128
 20
-24.5071917526
 10
36.399652272
 20
-24.3980244628
 10
36.4929784591
 20
-24.2863085497
 10
36.5806027401
 20
-24.1722841309
 10
36.6623177384
 20
-24.0564348734
  0
LWPOLYLINE
  5
46C
100
AcDbEntity
  8
SUPERFICI
100
AcDbPolyline
 62
7
  6
CONTINUOUS
 90
4
 70
0
 10
33.6617632937
 20
-22.4827815245
 10
33.6175517707
 20
-22.5130412079
 10
33.5689394955
 20
-22.5402945814
 10
33.5185142178
 20
-22.5627275258
  0
LWPOLYLINE
  5
46D
100
AcDbEntity
  8
SUPERFICI
100
AcDbPolyline
 62
250
  6
CONTINUOUS
 90
10
 70
0
 10
-39.0508246976
 20
30.7515950091
 10
-39.4480735587
 20
30.6655745828
 10
-39.836470353
 20
30.5702356147
 10
-40.2164100154
 20
30.4648587645
 10
-40.5870418182
 20
30.3489067621
 10
-40.9470678428
 20
30.2215501078
 10
-41.2955098628
 20
30.081901982
 10
-41.631294253
 20
29.9293142538
 10
-41.9533488566
 20
29.7634870292
 10
-42.2608919681
 20
29.5841011634
  0
LINE
  5
46E
100
AcDbEntity
  8
SUPERFICI
100
AcDbLine
 62
250
  6
CONTINUOUS
 10
-56.8190891436
 20
39.0034431954
 11
-56.7104765622
 21
39.0084969252
  0
LWPOLYLINE
  5
46F
100
AcDbEntity
  8
SUPERFICI
100
AcDbPolyline
 62
250
  6
CONTINUOUS
 90
10
 70
0
 10
-49.0488028286
 20
37.6866984292
 10
-49.548628772
 20
37.6696991882
 10
-50.0434141112
 20
37.6491131598
 10
-50.5333544219
 20
37.6242582988
 10
-51.0182263112
 20
37.5944984958
 10
-51.4979313994
 20
37.5594906747
 10
-51.9723431571
 20
37.5189784102
 10
-52.4412016926
 20
37.4720932304
 10
-52.9037311005
 20
37.4161324868
 10
-53.35906969
 20
37.3482566975
  0
LWPOLYLINE
  5
470
100
AcDbEntity
  8
SUPERFICI
100
AcDbPolyline
 62
250
  6
CONTINUOUS
 90
3
 70
0
 10
-56.7104765622
 20
39.0084969252
 10
-55.9349446427
 20
39.0342986846
 10
-55.8221269279
 20
39.0373750603
  0
LWPOLYLINE
  5
471
100
AcDbEntity
  8
SUPERFICI
100
AcDbPolyline
 62
250
  6
CONTINUOUS
 90
4
 70
0
 10
-49.0488028286
 20
37.6866984292
 10
-48.1065701696
 20
37.7111560103
 10
-47.1591515029
 20
37.7278007374
 10
-46.2065782764
 20
37.7380187565
  0
LINE
  5
472
100
AcDbEntity
  8
SUPERFICI
100
AcDbLine
 62
250
  6
CONTINUOUS
 10
-55.8221285569
 20
39.0373755861
 11
-54.8244886956
 21
39.057172978
  0
LINE
  5
473
100
AcDbEntity
  8
SUPERFICI
100
AcDbLine
 62
250
  6
CONTINUOUS
 10
-54.8244886956
 20
39.057172978
 11
-53.3385794239
 21
39.0789154525
  0
LINE
  5
474
100
AcDbEntity
  8
SUPERFICI
100
AcDbLine
 62
250
  6
CONTINUOUS
 10
-53.3385794239
 20
39.0789154525
 11
-51.866115384
 21
39.0937305005
  0
LINE
  5
475
100
AcDbEntity
  8
SUPERFICI
100
AcDbLine
 62
250
  6
CONTINUOUS
 10
-46.2065782764
 20
37.7380187565
 11
-42.3474213566
 21
37.754265829
  0
LINE
  5
476
100
AcDbEntity
  8
SUPERFICI
100
AcDbLine
 62
250
  6
CONTINUOUS
 10
-51.866115384
 20
39.0937305005
 11
-50.3820679732
 21
39.1006169111
  0
LINE
  5
477
100
AcDbEntity
  8
SUPERFICI
100
AcDbLine
 62
250
  6
CONTINUOUS
 10
-36.5455629705
 20
37.7694558941
 11
-42.3474213566
 21
37.754265829
  0
LINE
  5
478
100
AcDbEntity
  8
SUPERFICI
100
AcDbLine
 62
250
  6
CONTINUOUS
 10
-50.3820679732
 20
39.1006169111
 11
-47.3785588893
 21
39.1066246592
  0
LINE
  5
479
100
AcDbEntity
  8
SUPERFICI
100
AcDbLine
 62
250
  6
CONTINUOUS
 10
23.0821126799
 20
37.7652788987
 11
30.7908868857
 21
37.7730730395
  0
LINE
  5
47A
100
AcDbEntity
  8
SUPERFICI
100
AcDbLine
 62
250
  6
CONTINUOUS
 10
-0.0008065511
 20
37.7623501141
 11
23.0821126861
 21
37.765177803
  0
LINE
  5
47B
100
AcDbEntity
  8
SUPERFICI
100
AcDbLine
 62
250
  6
CONTINUOUS
 10
-30.7908868857
 20
37.7730730395
 11
-36.5455629705
 21
37.7694558941
  0
LINE
  5
47C
100
AcDbEntity
  8
SUPERFICI
100
AcDbLine
 62
250
  6
CONTINUOUS
 10
-42.3191150428
 20
39.1028307873
 11
34.2879429805
 21
39.1009704369
  0
LINE
  5
47D
100
AcDbEntity
  8
SUPERFICI
100
AcDbLine
 62
250
  6
CONTINUOUS
 10
57.04235868
 20
39.755781292
 11
-57.04235868
 21
39.755781292
  0
LINE
  5
47E
100
AcDbEntity
  8
0
100
AcDbLine
 62
7
  6
CONTINUOUS
 10
-57.04235868
 20
39.9905517294
 11
57.04235868
 21
39.9905517294
  0
LINE
  5
47F
100
AcDbEntity
  8
SUPERFICI
100
AcDbLine
 62
250
  6
CONTINUOUS
 10
-47.3785588893
 20
39.1066246592
 11
-44.3522979919
 21
39.1074762594
  0
LINE
  5
480
100
AcDbEntity
  8
SUPERFICI
100
AcDbLine
 62
250
  6
CONTINUOUS
 10
30.7908868857
 20
37.7730730395
 11
34.6242322427
 21
37.7720224102
  0
LWPOLYLINE
  5
481
100
AcDbEntity
  8
SUPERFICI
100
AcDbPolyline
 62
250
  6
CONTINUOUS
 90
3
 70
0
 10
-0.0008065511
 20
37.7623501141
 10
-25.0157755864
 20
37.7679282707
 10
-30.7908868857
 20
37.7730730395
  0
LINE
  5
482
100
AcDbEntity
  8
SUPERFICI
100
AcDbLine
 62
250
  6
CONTINUOUS
 10
48.382253188
 20
39.1051854391
 11
34.2879429805
 21
39.1009704369
  0
LINE
  5
483
100
AcDbEntity
  8
SUPERFICI
100
AcDbLine
 62
250
  6
CONTINUOUS
 10
-44.3522979919
 20
39.1074762594
 11
-42.3223614109
 21
39.1051045143
  0
LINE
  5
484
100
AcDbEntity
  8
SUPERFICI
100
AcDbLine
 62
250
  6
CONTINUOUS
 10
34.6242322427
 20
37.7720224102
 11
38.4687089439
 21
37.7655475137
  0
LINE
  5
485
100
AcDbEntity
  8
SUPERFICI
100
AcDbLine
 62
250
  6
CONTINUOUS
 10
51.3780820371
 20
39.0974101611
 11
48.382253188
 21
39.1051854391
  0
LINE
  5
486
100
AcDbEntity
  8
SUPERFICI
100
AcDbLine
 62
250
  6
CONTINUOUS
 10
38.4687089439
 20
37.7655475137
 11
44.2860009397
 21
37.7472114628
  0
LWPOLYLINE
  5
487
100
AcDbEntity
  8
SUPERFICI
100
AcDbPolyline
 62
250
  6
CONTINUOUS
 90
5
 70
0
 10
44.2860009397
 20
37.7472114628
 10
46.2070981701
 20
37.7380146851
 10
47.1595542263
 20
37.7277951426
 10
48.1067995828
 20
37.7111510752
 10
49.0488028286
 20
37.6866984292
  0
LINE
  5
488
100
AcDbEntity
  8
SUPERFICI
100
AcDbLine
 62
250
  6
CONTINUOUS
 10
53.3385794239
 20
39.0789154525
 11
51.3780821228
 21
39.0974101675
  0
LINE
  5
489
100
AcDbEntity
  8
SUPERFICI
100
AcDbLine
 62
250
  6
CONTINUOUS
 10
54.8244886956
 20
39.057172978
 11
53.3385794239
 21
39.0789154525
  0
LINE
  5
48A
100
AcDbEntity
  8
SUPERFICI
100
AcDbLine
 62
250
  6
CONTINUOUS
 10
55.8221285569
 20
39.0373755861
 11
54.8244886956
 21
39.057172978
  0
LINE
  5
48B
100
AcDbEntity
  8
SUPERFICI
100
AcDbLine
 62
250
  6
CONTINUOUS
 10
56.0472480381
 20
39.0308096667
 11
55.8221269279
 21
39.0373750603
  0
LINE
  5
48C
100
AcDbEntity
  8
SUPERFICI
100
AcDbLine
 62
250
  6
CONTINUOUS
 10
56.7104765622
 20
39.0084969252
 11
56.0472480381
 21
39.0308096667
  0
LINE
  5
48D
100
AcDbEntity
  8
SUPERFICI
100
AcDbLine
 62
250
  6
CONTINUOUS
 10
56.8190891436
 20
39.0034431954
 11
56.7104765622
 21
39.0084969252
  0
LWPOLYLINE
  5
48E
100
AcDbEntity
  8
SUPERFICI
100
AcDbPolyline
 62
250
  6
CONTINUOUS
 90
10
 70
0
 10
45.3975904597
 20
35.3332178334
 10
45.8676753128
 20
35.2828787543
 10
46.3294242671
 20
35.2229987195
 10
46.7826107284
 20
35.1525654292
 10
47.2266577292
 20
35.0707313388
 10
47.6611529733
 20
34.9769974084
 10
48.0857389665
 20
34.8710076701
 10
48.4996649466
 20
34.7520492399
 10
48.9011397732
 20
34.6183981028
 10
49.2883960462
 20
34.468409366
  0
LWPOLYLINE
  5
48F
100
AcDbEntity
  8
SUPERFICI
100
AcDbPolyline
 62
250
  6
CONTINUOUS
 90
10
 70
0
 10
39.0508246976
 20
30.7515950091
 10
39.4480735587
 20
30.6655745828
 10
39.836470353
 20
30.5702356147
 10
40.2164100154
 20
30.4648587645
 10
40.5870418182
 20
30.3489067621
 10
40.9470678428
 20
30.2215501078
 10
41.2955098628
 20
30.081901982
 10
41.631294253
 20
29.9293142538
 10
41.9533488566
 20
29.7634870292
 10
42.2608919681
 20
29.5841011634
  0
LWPOLYLINE
  5
490
100
AcDbEntity
  8
SUPERFICI
100
AcDbPolyline
 62
7
  6
CONTINUOUS
 90
4
 70
0
 10
33.6618836116
 20
22.482941795
 10
33.6176474751
 20
22.5131899182
 10
33.5691367788
 20
22.5402980566
 10
33.5185143723
 20
22.5627274556
  0
LWPOLYLINE
  5
491
100
AcDbEntity
  8
SUPERFICI
100
AcDbPolyline
 62
7
  6
CONTINUOUS
 90
10
 70
0
 10
35.7288112852
 20
25.0036036029
 10
35.853649445
 20
24.9115413817
 10
35.9730261967
 20
24.815815301
 10
36.0871153499
 20
24.7165146561
 10
36.1963075512
 20
24.6135464521
 10
36.3006589128
 20
24.5071917526
 10
36.399652272
 20
24.3980244628
 10
36.4929784591
 20
24.2863085497
 10
36.5806027401
 20
24.1722841309
 10
36.6623177384
 20
24.0564348734
  0
LWPOLYLINE
  5
492
100
AcDbEntity
  8
SUPERFICI
100
AcDbPolyline
 62
7
  6
CONTINUOUS
 90
4
 70
0
 10
33.7821258113
 20
22.3623955583
 10
33.7455308639
 20
22.406802591
 10
33.706310545
 20
22.4461321309
 10
33.6618836116
 20
22.482941795
  0
LWPOLYLINE
  5
493
100
AcDbEntity
  8
SUPERFICI
100
AcDbPolyline
 62
7
  6
CONTINUOUS
 90
4
 70
0
 10
33.861608614
 20
22.2186742197
 10
33.8393184581
 20
22.2693624778
 10
33.8123438125
 20
22.3179509223
 10
33.7821258113
 20
22.3623955583
  0
LINE
  5
494
100
AcDbEntity
  8
0
100
AcDbLine
 62
7
  6
CONTINUOUS
 10
33.8106006833
 20
22.301153055
 11
33.8355447918
 21
22.2186737998
  0
LWPOLYLINE
  5
495
100
AcDbEntity
  8
SUPERFICI
100
AcDbPolyline
 62
7
  6
CONTINUOUS
 90
10
 70
0
 10
37.0627122617
 20
-23.2624446145
 10
37.0954196038
 20
-23.1657621083
 10
37.1252439483
 20
-23.0683571806
 10
37.1521827297
 20
-22.9702839953
 10
37.1762383273
 20
-22.8715730689
 10
37.1974127693
 20
-22.7722178913
 10
37.215669712
 20
-22.6724177705
 10
37.2309902937
 20
-22.5723215158
 10
37.2433909589
 20
-22.4718695394
 10
37.2528685132
 20
-22.3711064406
  0
LWPOLYLINE
  5
496
100
AcDbEntity
  8
SUPERFICI
100
AcDbPolyline
 62
7
  6
CONTINUOUS
 90
10
 70
0
 10
36.6623177384
 20
-24.0564348734
 10
36.71641404
 20
-23.973793794
 10
36.7683138335
 20
-23.8894319485
 10
36.8178713772
 20
-23.8035514838
 10
36.8649902002
 20
-23.7163168349
 10
36.90960712
 20
-23.6278582453
 10
36.9516952044
 20
-23.538233788
 10
36.9912525909
 20
-23.4474511766
 10
37.0282700904
 20
-23.3555239796
 10
37.0627332749
 20
-23.2624569637
  0
LWPOLYLINE
  5
497
100
AcDbEntity
  8
SUPERFICI
100
AcDbPolyline
 62
250
  6
CONTINUOUS
 90
10
 70
0
 10
42.2608919681
 20
-29.5841011634
 10
41.9533149967
 20
-29.7635305348
 10
41.6312306195
 20
-29.9293809671
 10
41.2954190937
 20
-30.0819450502
 10
40.946954891
 20
-30.2215790558
 10
40.5869157526
 20
-30.3489384263
 10
40.2162881471
 20
-30.464893782
 10
39.8363721773
 20
-30.5702622932
 10
39.448015834
 20
-30.6655876029
 10
39.0508246976
 20
-30.7515950091
  0
LWPOLYLINE
  5
498
100
AcDbEntity
  8
SUPERFICI
100
AcDbPolyline
 62
250
  6
CONTINUOUS
 90
10
 70
0
 10
57.04235868
 20
39.7559298907
 10
57.4488786764
 20
39.7256425675
 10
57.8464781005
 20
39.6349030952
 10
58.2261982068
 20
39.4856813546
 10
58.5794963128
 20
39.2812336736
 10
58.8983406252
 20
39.0261350478
 10
59.1754514622
 20
38.7262192441
 10
59.4045817535
 20
38.3882790715
 10
59.5805988646
 20
38.0198747435
 10
59.6995418962
 20
37.6292940192
  0
LWPOLYLINE
  5
499
100
AcDbEntity
  8
SUPERFICI
100
AcDbPolyline
 62
250
  6
CONTINUOUS
 90
10
 70
0
 10
53.35906969
 20
37.3482566975
 10
52.903714536
 20
37.4161347046
 10
52.4411728997
 20
37.4720963783
 10
51.9723065735
 20
37.5189817724
 10
51.4978918315
 20
37.5594938031
 10
51.0181881718
 20
37.5945010529
 10
50.5333210678
 20
37.6242601622
 10
50.0433885482
 20
37.649114333
 10
49.5486143375
 20
37.6696997308
 10
49.0488028286
 20
37.6866984292
  0
LWPOLYLINE
  5
49A
100
AcDbEntity
  8
SUPERFICI
100
AcDbPolyline
 62
250
  6
CONTINUOUS
 90
10
 70
0
 10
42.2608919681
 20
29.5841011634
 10
42.4247318229
 20
29.4787958854
 10
42.5833751486
 20
29.3695031226
 10
42.7367354112
 20
29.2562607121
 10
42.884099774
 20
29.1396093222
 10
43.0261019248
 20
29.0189965865
 10
43.1646077352
 20
28.892817596
 10
43.3001272344
 20
28.7606338794
 10
43.4318145251
 20
28.623422436
 10
43.5594131872
 20
28.4816778921
  0
LWPOLYLINE
  5
49B
100
AcDbEntity
  8
SUPERFICI
100
AcDbPolyline
 62
7
  6
CONTINUOUS
 90
10
 70
0
 10
36.6623177384
 20
24.0564348734
 10
36.71641404
 20
23.973793794
 10
36.7683138335
 20
23.8894319485
 10
36.8178713772
 20
23.8035514838
 10
36.8649902002
 20
23.7163168349
 10
36.90960712
 20
23.6278582453
 10
36.9516952044
 20
23.538233788
 10
36.9912525909
 20
23.4474511766
 10
37.0282700904
 20
23.3555239796
 10
37.0627332749
 20
23.2624569637
  0
LWPOLYLINE
  5
49C
100
AcDbEntity
  8
SUPERFICI
100
AcDbPolyline
 62
7
  6
CONTINUOUS
 90
10
 70
0
 10
37.0627122617
 20
23.2624446145
 10
37.0954196038
 20
23.1657621083
 10
37.1252439483
 20
23.0683571806
 10
37.1521827297
 20
22.9702839953
 10
37.1762383273
 20
22.8715730689
 10
37.1974127693
 20
22.7722178913
 10
37.215669712
 20
22.6724177705
 10
37.2309902937
 20
22.5723215158
 10
37.2433909589
 20
22.4718695394
 10
37.2528685132
 20
22.3711064406
  0
LWPOLYLINE
  5
49D
100
AcDbEntity
  8
SUPERFICI
100
AcDbPolyline
 62
250
  6
CONTINUOUS
 90
10
 70
0
 10
48.4381441976
 20
0.0
 10
48.4185314642
 20
2.0373880904
 10
48.3597165018
 20
4.0736749729
 10
48.2617341976
 20
6.1082823217
 10
48.124601686
 20
8.1408619933
 10
47.9483628587
 20
10.1706032443
 10
47.7331327199
 20
12.1962366073
 10
47.4790172316
 20
14.2169569722
 10
47.1860689586
 20
16.2324197107
 10
46.8543626291
 20
18.2420506074
  0
LWPOLYLINE
  5
49E
100
AcDbEntity
  8
SUPERFICI
100
AcDbPolyline
 62
250
  6
CONTINUOUS
 90
10
 70
0
 10
48.4381441976
 20
0.0
 10
48.4185314642
 20
-2.0373880904
 10
48.3597165018
 20
-4.0736749729
 10
48.2617341976
 20
-6.1082823217
 10
48.124601686
 20
-8.1408619933
 10
47.9483628587
 20
-10.1706032443
 10
47.7331327199
 20
-12.1962366073
 10
47.4790172316
 20
-14.2169569722
 10
47.1860689586
 20
-16.2324197107
 10
46.8543626291
 20
-18.2420506074
  0
LWPOLYLINE
  5
49F
100
AcDbEntity
  8
SUPERFICI
100
AcDbPolyline
 62
250
  6
CONTINUOUS
 90
10
 70
0
 10
46.8543626291
 20
-18.2420506074
 10
46.6718075221
 20
-19.2564448632
 10
46.4829606437
 20
-20.250578147
 10
46.2883102428
 20
-21.2246053133
 10
46.0883623746
 20
-22.1792441948
 10
45.8846381702
 20
-23.114359418
 10
45.6706270405
 20
-24.0264309133
 10
45.4216328352
 20
-24.9073124792
 10
45.1253906292
 20
-25.7518640751
 10
44.7796350571
 20
-26.5562558118
  0
LWPOLYLINE
  5
4A0
100
AcDbEntity
  8
SUPERFICI
100
AcDbPolyline
 62
250
  6
CONTINUOUS
 90
10
 70
0
 10
44.7796350571
 20
-26.5562558118
 10
44.7234694617
 20
-26.6731364957
 10
44.6662351281
 20
-26.7887319647
 10
44.6079226603
 20
-26.9030153852
 10
44.548489035
 20
-27.0160262866
 10
44.487953267
 20
-27.1276862251
 10
44.426292954
 20
-27.2379938294
 10
44.3634848377
 20
-27.3469612033
 10
44.2995433016
 20
-27.4545252576
 10
44.2343749866
 20
-27.5608043266
  0
LINE
  5
4A1
100
AcDbEntity
  8
0
100
AcDbLine
 62
7
  6
CONTINUOUS
 10
60.0001749313
 20
3.7099727925
 11
59.874396261
 21
3.5
  0
LWPOLYLINE
  5
4A2
100
AcDbEntity
  8
SUPERFICI
100
AcDbPolyline
 62
250
  6
CONTINUOUS
 90
10
 70
0
 10
43.5594131872
 20
-28.4816778921
 10
43.6395620064
 20
-28.3879354605
 10
43.7186624193
 20
-28.2916871654
 10
43.7965550248
 20
-28.1931229496
 10
43.8730579877
 20
-28.09249098
 10
43.9480181166
 20
-27.9900219089
 10
44.0215139063
 20
-27.8856512782
 10
44.0937286259
 20
-27.7792303036
 10
44.1646653733
 20
-27.6709164483
 10
44.2343749866
 20
-27.5608043266
  0
LWPOLYLINE
  5
4A3
100
AcDbEntity
  8
SUPERFICI
100
AcDbPolyline
 62
250
  6
CONTINUOUS
 90
10
 70
0
 10
43.5594131872
 20
-28.4816778921
 10
43.431563869
 20
-28.6236921615
 10
43.2996702333
 20
-28.7610947051
 10
43.1639954377
 20
-28.893394835
 10
43.025385033
 20
-29.0196272261
 10
42.8833394923
 20
-29.1402325174
 10
42.7360171421
 20
-29.256809729
 10
42.5827969487
 20
-29.3699154585
 10
42.4243913691
 20
-29.4790224157
 10
42.2608919681
 20
-29.5841011634
  0
LWPOLYLINE
  5
4A4
100
AcDbEntity
  8
SUPERFICI
100
AcDbPolyline
 62
250
  6
CONTINUOUS
 90
10
 70
0
 10
49.2883960462
 20
-34.468409366
 10
48.9012204217
 20
-34.6182643116
 10
48.4998299368
 20
-34.7518505067
 10
48.0860661117
 20
-34.8709022082
 10
47.6615707111
 20
-34.9769536448
 10
47.2270722141
 20
-35.0706881797
 10
46.7829651404
 20
-35.1525086304
 10
46.3296969395
 20
-35.2229560437
 10
45.8678341507
 20
-35.2828610848
 10
45.3975904597
 20
-35.3332178334
  0
LWPOLYLINE
  5
4A5
100
AcDbEntity
  8
0
100
AcDbPolyline
 62
7
  6
CONTINUOUS
 90
7
 70
0
 43
0.3500000006
 10
0.0
 20
48.7405565643
 10
-1.5000000329
 20
48.7405565643
 10
0.0
 20
50.8834104767
 10
0.0
 20
51.3119839783
 10
-0.4285714127
 20
51.7405574799
 10
-1.0714285848
 20
51.7405574799
 10
-1.5000000329
 20
51.0976994934
  0
LWPOLYLINE
  5
4A6
100
AcDbEntity
  8
SUPERFICI
100
AcDbPolyline
 62
250
  6
CONTINUOUS
 90
10
 70
0
 10
49.2883960462
 20
34.468409366
 10
49.5014971787
 20
34.3752596243
 10
49.7082485616
 20
34.2764207081
 10
49.9083618209
 20
34.1718186427
 10
50.1014705949
 20
34.0613857673
 10
50.2878067294
 20
33.9445266916
 10
50.4675655375
 20
33.8207326636
 10
50.6403124572
 20
33.6901083602
 10
50.8054581715
 20
33.5534005405
 10
50.962669325
 20
33.4112762543
  0
LWPOLYLINE
  5
4A7
100
AcDbEntity
  8
SUPERFICI
100
AcDbPolyline
 62
250
  6
CONTINUOUS
 90
10
 70
0
 10
44.2343749866
 20
27.5608043266
 10
44.1646400387
 20
27.6709565342
 10
44.0936960904
 20
27.7792799175
 10
44.0215179858
 20
27.885638927
 10
43.9480145975
 20
27.9900220916
 10
43.8730373605
 20
28.0925223356
 10
43.7965499983
 20
28.1931323607
 10
43.7186713636
 20
28.2916752627
 10
43.6395700464
 20
28.3879248988
 10
43.5594131872
 20
28.4816778921
  0
LINE
  5
4A8
100
AcDbEntity
  8
0
100
AcDbLine
 62
7
  6
CONTINUOUS
 10
59.874396261
 20
-3.5
 11
60.0001749313
 21
-3.7099727925
  0
LWPOLYLINE
  5
4A9
100
AcDbEntity
  8
SUPERFICI
100
AcDbPolyline
 62
250
  6
CONTINUOUS
 90
10
 70
0
 10
44.7796350571
 20
26.5562558118
 10
44.7234694617
 20
26.6731364957
 10
44.6662351281
 20
26.7887319647
 10
44.6079226603
 20
26.9030153852
 10
44.548489035
 20
27.0160262866
 10
44.487953267
 20
27.1276862251
 10
44.426292954
 20
27.2379938294
 10
44.3634848377
 20
27.3469612033
 10
44.2995433016
 20
27.4545252576
 10
44.2343749866
 20
27.5608043266
  0
LWPOLYLINE
  5
4AA
100
AcDbEntity
  8
SUPERFICI
100
AcDbPolyline
 62
250
  6
CONTINUOUS
 90
10
 70
0
 10
44.7796350571
 20
26.5562558118
 10
45.1252169361
 20
25.7522156373
 10
45.4214500917
 20
24.9078795878
 10
45.6704138555
 20
24.0271377213
 10
45.884640197
 20
23.115138251
 10
46.0877576271
 20
22.1797673094
 10
46.2883740014
 20
21.225181078
 10
46.4828277854
 20
20.2509531846
 10
46.6716946988
 20
19.2566392653
 10
46.8543626291
 20
18.2420506074
  0
LWPOLYLINE
  5
4AB
100
AcDbEntity
  8
SUPERFICI
100
AcDbPolyline
 62
250
  6
CONTINUOUS
 90
10
 70
0
 10
53.6390240547
 20
21.2915918155
 10
53.5382058213
 20
22.5167496275
 10
53.4343002657
 20
23.7119443162
 10
53.3276444143
 20
24.8771771369
 10
53.2194748762
 20
26.0128610486
 10
53.1064049029
 20
27.1182602828
 10
52.9792717853
 20
28.1914148781
 10
52.8237804077
 20
29.2297139271
 10
52.6158049807
 20
30.2272132186
 10
52.3472324055
 20
31.1792575273
  0
LWPOLYLINE
  5
4AC
100
AcDbEntity
  8
SUPERFICI
100
AcDbPolyline
 62
250
  6
CONTINUOUS
 90
10
 70
0
 10
53.6390240547
 20
21.2915918155
 10
53.8174602625
 20
18.9299338207
 10
53.9749290265
 20
16.5668927004
 10
54.1114232568
 20
14.2026074546
 10
54.2269382342
 20
11.8371636848
 10
54.3214635477
 20
9.4707538142
 10
54.3949878356
 20
7.1036772773
 10
54.4475073239
 20
4.7361267471
 10
54.4790210864
 20
2.3681879462
 10
54.4895263008
 20
-0.0000000001
  0
LWPOLYLINE
  5
4AD
100
AcDbEntity
  8
SUPERFICI
100
AcDbPolyline
 62
250
  6
CONTINUOUS
 90
5
 70
0
 10
56.7258237919
 20
29.4598418674
 10
56.6793004277
 20
30.6446945988
 10
56.6121190355
 20
31.8040058616
 10
56.5124627331
 20
32.9369602339
 10
56.3828560339
 20
34.0428963753
  0
LINE
  5
4AE
100
AcDbEntity
  8
SUPERFICI
100
AcDbLine
 62
250
  6
CONTINUOUS
 10
56.8494126046
 20
25.7651022587
 11
56.7258237919
 21
29.4598418674
  0
LINE
  5
4AF
100
AcDbEntity
  8
SUPERFICI
100
AcDbLine
 62
250
  6
CONTINUOUS
 10
56.9260764016
 20
23.189737925
 11
56.8494126046
 21
25.7651022587
  0
LWPOLYLINE
  5
4B0
100
AcDbEntity
  8
SUPERFICI
100
AcDbPolyline
 62
250
  6
CONTINUOUS
 90
3
 70
0
 10
56.8165423208
 20
39.702149139
 10
56.8160474397
 20
39.7386400864
 10
56.8155405913
 20
39.755781292
  0
LINE
  5
4B1
100
AcDbEntity
  8
SUPERFICI
100
AcDbLine
 62
250
  6
CONTINUOUS
 10
56.8178944472
 20
39.4825042812
 11
56.8165423208
 21
39.702149139
  0
LWPOLYLINE
  5
4B2
100
AcDbEntity
  8
SUPERFICI
100
AcDbPolyline
 62
250
  6
CONTINUOUS
 90
10
 70
0
 10
57.2534052609
 20
0.0
 10
57.2493638505
 20
2.5770402695
 10
57.237239762
 20
5.1540156735
 10
57.2170332092
 20
7.7309118219
 10
57.1887443688
 20
10.3077173104
 10
57.1523734733
 20
12.8844147633
 10
57.1079209053
 20
15.4609808342
 10
57.0553870287
 20
18.0373981499
 10
56.9947720947
 20
20.6136553091
 10
56.9260764017
 20
23.189737925
  0
LINE
  5
4B3
100
AcDbEntity
  8
SUPERFICI
100
AcDbLine
 62
250
  6
CONTINUOUS
 10
56.8190891396
 20
39.0034431957
 11
56.8178944472
 21
39.4825042812
  0
LINE
  5
4B4
100
AcDbEntity
  8
0
100
AcDbLine
 62
250
  6
CONTINUOUS
 10
57.04235868
 20
39.9905517294
 11
57.04235868
 21
39.755781292
  0
LINE
  5
4B5
100
AcDbEntity
  8
0
100
AcDbLine
 62
250
  6
CONTINUOUS
 10
57.04235868
 20
-39.755781292
 11
57.04235868
 21
-39.9905517294
  0
LWPOLYLINE
  5
4B6
100
AcDbEntity
  8
SUPERFICI
100
AcDbPolyline
 62
250
  6
CONTINUOUS
 90
10
 70
0
 10
57.2534052609
 20
0.0
 10
57.2493638505
 20
-2.5770402695
 10
57.237239762
 20
-5.1540156735
 10
57.2170332092
 20
-7.7309118219
 10
57.1887443688
 20
-10.3077173104
 10
57.1523734733
 20
-12.8844147633
 10
57.1079209053
 20
-15.4609808342
 10
57.0553870287
 20
-18.03739815
 10
56.9947720947
 20
-20.6136553091
 10
56.9260764017
 20
-23.189737925
  0
LINE
  5
4B7
100
AcDbEntity
  8
SUPERFICI
100
AcDbLine
 62
250
  6
CONTINUOUS
 10
56.8190891396
 20
-39.0034431957
 11
56.8174686161
 21
-39.5729616512
  0
LWPOLYLINE
  5
4B8
100
AcDbEntity
  8
SUPERFICI
100
AcDbPolyline
 62
250
  6
CONTINUOUS
 90
4
 70
0
 10
56.8174686161
 20
-39.5729616512
 10
56.8165423208
 20
-39.702149139
 10
56.8160474397
 20
-39.7386400864
 10
56.8155405913
 20
-39.755781292
  0
LINE
  5
4B9
100
AcDbEntity
  8
SUPERFICI
100
AcDbLine
 62
250
  6
CONTINUOUS
 10
56.8482653909
 20
-25.7628584978
 11
56.9260764017
 21
-23.189737925
  0
LWPOLYLINE
  5
4BA
100
AcDbEntity
  8
SUPERFICI
100
AcDbPolyline
 62
250
  6
CONTINUOUS
 90
10
 70
0
 10
53.6390240547
 20
-21.2915918155
 10
53.8174602625
 20
-18.9299338208
 10
53.9749290265
 20
-16.5668927004
 10
54.1114232568
 20
-14.2026074546
 10
54.2269382342
 20
-11.8371636848
 10
54.3214635477
 20
-9.4707538143
 10
54.3949878356
 20
-7.1036772774
 10
54.4475073239
 20
-4.7361267472
 10
54.4790210864
 20
-2.3681879464
 10
54.4895263008
 20
-0.0000000001
  0
LWPOLYLINE
  5
4BB
100
AcDbEntity
  8
SUPERFICI
100
AcDbPolyline
 62
250
  6
CONTINUOUS
 90
5
 70
0
 10
58.9280883215
 20
36.8639025959
 10
58.9242084878
 20
37.0118629506
 10
58.9123062782
 20
37.159301872
 10
58.889682325
 20
37.3047430464
 10
58.8569831205
 20
37.4476978888
  0
LINE
  5
4BC
100
AcDbEntity
  8
SUPERFICI
100
AcDbLine
 62
250
  6
CONTINUOUS
 10
58.9346359623
 20
36.4155114349
 11
58.9280883215
 21
36.8639025959
  0
LWPOLYLINE
  5
4BD
100
AcDbEntity
  8
SUPERFICI
100
AcDbPolyline
 62
250
  6
CONTINUOUS
 90
9
 70
0
 10
58.9360311352
 20
-36.1081982255
 10
58.9385366104
 20
-36.4201071395
 10
58.9384888004
 20
-36.5750457544
 10
58.9363866088
 20
-36.7273218241
 10
58.931313245
 20
-36.8768012217
 10
58.9221529265
 20
-37.0247016079
 10
58.9076061675
 20
-37.170467502
 10
58.8863581364
 20
-37.3119655581
 10
58.8569341061
 20
-37.4476852071
  0
LINE
  5
4BE
100
AcDbEntity
  8
SUPERFICI
100
AcDbLine
 62
250
  6
CONTINUOUS
 10
58.9372466096
 20
36.1081958215
 11
58.9346359623
 21
36.4155114349
  0
LWPOLYLINE
  5
4BF
100
AcDbEntity
  8
SUPERFICI
100
AcDbPolyline
 62
250
  6
CONTINUOUS
 90
4
 70
0
 10
58.9631629682
 20
32.3911456981
 10
58.9553566414
 20
33.6435290863
 10
58.9401311466
 20
34.8817945042
 10
58.9360311352
 20
36.1081982255
  0
LWPOLYLINE
  5
4C0
100
AcDbEntity
  8
SUPERFICI
100
AcDbPolyline
 62
250
  6
CONTINUOUS
 90
3
 70
0
 10
58.9983384956
 20
16.815926926
 10
58.9901459166
 20
19.4545105141
 10
58.9656592722
 20
24.593732649
  0
LWPOLYLINE
  5
4C1
100
AcDbEntity
  8
SUPERFICI
100
AcDbPolyline
 62
250
  6
CONTINUOUS
 90
3
 70
0
 10
58.9819743301
 20
24.6208600636
 10
58.9667523261
 20
29.8476521022
 10
58.9631629682
 20
32.3911456981
  0
LINE
  5
4C2
100
AcDbEntity
  8
SUPERFICI
100
AcDbLine
 62
250
  6
CONTINUOUS
 10
59.0305763466
 20
0.0
 11
59.0084184996
 21
8.6283276131
  0
LINE
  5
4C3
100
AcDbEntity
  8
SUPERFICI
100
AcDbLine
 62
250
  6
CONTINUOUS
 10
59.0084184996
 20
8.6283276131
 11
58.9983384956
 21
16.815926926
  0
LINE
  5
4C4
100
AcDbEntity
  8
SUPERFICI
100
AcDbLine
 62
250
  6
CONTINUOUS
 10
59.765510132
 20
37.0327354781
 11
59.765510132
 21
-37.0327354781
  0
LINE
  5
4C5
100
AcDbEntity
  8
0
100
AcDbLine
 62
7
  6
CONTINUOUS
 10
59.874396261
 20
3.5
 11
59.874396261
 21
-3.5
  0
LINE
  5
4C6
100
AcDbEntity
  8
0
100
AcDbLine
 62
7
  6
CONTINUOUS
 10
60.0001749313
 20
37.0327354782
 11
60.0001749313
 21
3.7099727925
  0
LINE
  5
4C7
100
AcDbEntity
  8
0
100
AcDbLine
 62
7
  6
CONTINUOUS
 10
60.0001749313
 20
-3.7099727925
 11
60.0001749313
 21
-37.0327354782
  0
LINE
  5
4C8
100
AcDbEntity
  8
SUPERFICI
100
AcDbLine
 62
250
  6
CONTINUOUS
 10
59.0029790194
 20
-14.1498491178
 11
58.9982926736
 21
-16.8315117464
  0
LINE
  5
4C9
100
AcDbEntity
  8
SUPERFICI
100
AcDbLine
 62
250
  6
CONTINUOUS
 10
59.0233866315
 20
0.0
 11
59.0029790194
 21
-14.1498491178
  0
LINE
  5
4CA
100
AcDbEntity
  8
SUPERFICI
100
AcDbLine
 62
250
  6
CONTINUOUS
 10
58.9715896785
 20
-28.6776527073
 11
58.9649366966
 21
-31.2467272352
  0
LWPOLYLINE
  5
4CB
100
AcDbEntity
  8
SUPERFICI
100
AcDbPolyline
 62
250
  6
CONTINUOUS
 90
3
 70
0
 10
58.9982926736
 20
-16.8315117464
 10
58.9793040856
 20
-22.0542435283
 10
58.9656592722
 20
-24.593732649
  0
LWPOLYLINE
  5
4CC
100
AcDbEntity
  8
SUPERFICI
100
AcDbPolyline
 62
250
  6
CONTINUOUS
 90
5
 70
0
 10
58.9649366966
 20
-31.2467272352
 10
58.9596831631
 20
-32.4964336318
 10
58.949792827
 20
-33.7238345971
 10
58.9352134221
 20
-34.929828974
 10
58.9147239667
 20
-36.0895000588
  0
LINE
  5
4CD
100
AcDbEntity
  8
SUPERFICI
100
AcDbLine
 62
250
  6
CONTINUOUS
 10
58.9941622836
 20
-24.6148065375
 11
58.9715896785
 21
-28.6776527073
  0
LWPOLYLINE
  5
4CE
100
AcDbEntity
  8
SUPERFICI
100
AcDbPolyline
 62
7
  6
CONTINUOUS
 90
10
 70
0
 10
59.7655135488
 20
-37.0327354781
 10
59.7647137569
 20
-37.0995378769
 10
59.7622753496
 20
-37.1662995375
 10
59.7581998811
 20
-37.2329802705
 10
59.7524905126
 20
-37.2995335269
 10
59.7451504606
 20
-37.3659256929
 10
59.7361814229
 20
-37.4321359425
 10
59.7255863857
 20
-37.4981305785
 10
59.713371193
 20
-37.5638632284
 10
59.6995418962
 20
-37.6292940192
  0
LWPOLYLINE
  5
4CF
100
AcDbEntity
  8
SUPERFICI
100
AcDbPolyline
 62
250
  6
CONTINUOUS
 90
6
 70
0
 10
56.3828560339
 20
-34.0428963753
 10
56.5125622984
 20
-32.9359834982
 10
56.6122443109
 20
-31.8022539147
 10
56.6793972838
 20
-30.6423727215
 10
56.7259795843
 20
-29.4571089204
 10
56.8482653909
 20
-25.7628584978
  0
LWPOLYLINE
  5
4D0
100
AcDbEntity
  8
SUPERFICI
100
AcDbPolyline
 62
250
  6
CONTINUOUS
 90
10
 70
0
 10
56.0965823392
 20
-35.4617692735
 10
56.1376162524
 20
-35.310472944
 10
56.1759274393
 20
-35.1573044404
 10
56.2116522812
 20
-35.0025058066
 10
56.2449618101
 20
-34.8461764059
 10
56.2761507754
 20
-34.68828589
 10
56.3054532554
 20
-34.5289343226
 10
56.3329411219
 20
-34.368262584
 10
56.3587135588
 20
-34.2062296046
 10
56.3828560339
 20
-34.0428963753
  0
LWPOLYLINE
  5
4D1
100
AcDbEntity
  8
SUPERFICI
100
AcDbPolyline
 62
250
  6
CONTINUOUS
 90
10
 70
0
 10
52.3472324055
 20
-31.1792575273
 10
52.6157885351
 20
-30.2272826005
 10
52.823758986
 20
-29.2298402243
 10
52.9792809622
 20
-28.1915872531
 10
53.1062337343
 20
-27.1184424545
 10
53.2200310971
 20
-26.0131474974
 10
53.3285876337
 20
-24.8774994941
 10
53.4341178707
 20
-23.7120888562
 10
53.5379355919
 20
-22.5168139995
 10
53.6390240547
 20
-21.2915918155
  0
LWPOLYLINE
  5
4D2
100
AcDbEntity
  8
SUPERFICI
100
AcDbPolyline
 62
250
  6
CONTINUOUS
 90
10
 70
0
 10
52.3472324055
 20
-31.1792575273
 10
52.2976740843
 20
-31.3235611191
 10
52.2449641969
 20
-31.4653285003
 10
52.1891864338
 20
-31.6044689113
 10
52.1303919234
 20
-31.7409708544
 10
52.0686832225
 20
-31.8747002243
 10
52.0040981844
 20
-32.0056638629
 10
51.9367175246
 20
-32.1338180901
 10
51.8666377595
 20
-32.2590557656
 10
51.7937657258
 20
-32.3816012438
  0
LWPOLYLINE
  5
4D3
100
AcDbEntity
  8
SUPERFICI
100
AcDbPolyline
 62
250
  6
CONTINUOUS
 90
10
 70
0
 10
51.7937657258
 20
-32.3816012438
 10
51.7123044107
 20
-32.5104114839
 10
51.6280476333
 20
-32.635556451
 10
51.5411118527
 20
-32.7569963682
 10
51.4518826631
 20
-32.8743878552
 10
51.3599634382
 20
-32.9882320146
 10
51.2647690652
 20
-33.0991974171
 10
51.1664986356
 20
-33.2070015076
 10
51.0657169831
 20
-33.3110477898
 10
50.962669325
 20
-33.4112762543
  0
LWPOLYLINE
  5
4D4
100
AcDbEntity
  8
SUPERFICI
100
AcDbPolyline
 62
250
  6
CONTINUOUS
 90
10
 70
0
 10
50.962669325
 20
-33.4112762543
 10
50.8060971774
 20
-33.5528474666
 10
50.6414179872
 20
-33.6892329929
 10
50.4689391367
 20
-33.8197407799
 10
50.2891532349
 20
-33.9436416839
 10
50.1025463142
 20
-34.0607416718
 10
49.9091430383
 20
-34.171391619
 10
49.7087898734
 20
-34.2761500951
 10
49.5017777728
 20
-34.3751313584
 10
49.2883960462
 20
-34.468409366
  0
LWPOLYLINE
  5
4D5
100
AcDbEntity
  8
SUPERFICI
100
AcDbPolyline
 62
250
  6
CONTINUOUS
 90
10
 70
0
 10
55.3876151483
 20
-36.673112955
 10
55.2066838296
 20
-36.7943167488
 10
55.008803378
 20
-36.899191702
 10
54.7974529292
 20
-36.9898588273
 10
54.5762017529
 20
-37.0688660391
 10
54.3466271061
 20
-37.1378833683
 10
54.1095976209
 20
-37.1985881922
 10
53.8657377989
 20
-37.2533472902
 10
53.6153687588
 20
-37.3031459967
 10
53.35906969
 20
-37.3482566975
  0
LWPOLYLINE
  5
4D6
100
AcDbEntity
  8
SUPERFICI
100
AcDbPolyline
 62
250
  6
CONTINUOUS
 90
10
 70
0
 10
57.9332624275
 20
-38.687149363
 10
57.8190719222
 20
-38.7459721224
 10
57.7023484054
 20
-38.7998034088
 10
57.5831650599
 20
-38.8481058907
 10
57.4618352165
 20
-38.8902238686
 10
57.3382348743
 20
-38.9257236764
 10
57.2117364954
 20
-38.954221312
 10
57.0824206406
 20
-38.9758358863
 10
56.9512687619
 20
-38.9917477888
 10
56.8190891436
 20
-39.0034431954
  0
LWPOLYLINE
  5
4D7
100
AcDbEntity
  8
SUPERFICI
100
AcDbPolyline
 62
250
  6
CONTINUOUS
 90
10
 70
0
 10
57.9332624275
 20
38.687149363
 10
57.8190719222
 20
38.7459721224
 10
57.7023484054
 20
38.7998034088
 10
57.5831650599
 20
38.8481058907
 10
57.4618352165
 20
38.8902238686
 10
57.3382348743
 20
38.9257236764
 10
57.2117364954
 20
38.954221312
 10
57.0824206406
 20
38.9758358863
 10
56.9512687619
 20
38.9917477888
 10
56.8190891436
 20
39.0034431954
  0
LWPOLYLINE
  5
4D8
100
AcDbEntity
  8
SUPERFICI
100
AcDbPolyline
 62
250
  6
CONTINUOUS
 90
10
 70
0
 10
55.3876151483
 20
36.673112955
 10
55.2066838296
 20
36.7943167488
 10
55.008803378
 20
36.899191702
 10
54.7974529292
 20
36.9898588273
 10
54.5762017529
 20
37.0688660391
 10
54.3466271061
 20
37.1378833683
 10
54.1095976209
 20
37.1985881922
 10
53.8657377989
 20
37.2533472902
 10
53.6153687588
 20
37.3031459967
 10
53.35906969
 20
37.3482566975
  0
LWPOLYLINE
  5
4D9
100
AcDbEntity
  8
SUPERFICI
100
AcDbPolyline
 62
250
  6
CONTINUOUS
 90
10
 70
0
 10
51.7937657258
 20
32.3816012438
 10
51.7123044107
 20
32.5104114839
 10
51.6280476333
 20
32.635556451
 10
51.5411118527
 20
32.7569963682
 10
51.4518826631
 20
32.8743878552
 10
51.3599634382
 20
32.9882320146
 10
51.2647690652
 20
33.0991974171
 10
51.1664986356
 20
33.2070015076
 10
51.0657169831
 20
33.3110477898
 10
50.962669325
 20
33.4112762543
  0
LWPOLYLINE
  5
4DA
100
AcDbEntity
  8
SUPERFICI
100
AcDbPolyline
 62
250
  6
CONTINUOUS
 90
10
 70
0
 10
52.3472324055
 20
31.1792575273
 10
52.2976740843
 20
31.3235611191
 10
52.2449641969
 20
31.4653285003
 10
52.1891864338
 20
31.6044689113
 10
52.1303919234
 20
31.7409708544
 10
52.0686832225
 20
31.8747002243
 10
52.0040981844
 20
32.0056638629
 10
51.9367175246
 20
32.1338180901
 10
51.8666377595
 20
32.2590557656
 10
51.7937657258
 20
32.3816012438
  0
LWPOLYLINE
  5
4DB
100
AcDbEntity
  8
SUPERFICI
100
AcDbPolyline
 62
250
  6
CONTINUOUS
 90
10
 70
0
 10
56.3828560339
 20
34.0428963753
 10
56.3587129968
 20
34.2062332706
 10
56.3329400046
 20
34.3682693576
 10
56.3054516022
 20
34.5289436432
 10
56.2761485287
 20
34.68829768
 10
56.2449590027
 20
34.8461901092
 10
56.211649257
 20
35.0025194494
 10
56.1759247753
 20
35.157315532
 10
56.1376145512
 20
35.3104794774
 10
56.0965823392
 20
35.4617692735
  0
LWPOLYLINE
  5
4DC
100
AcDbEntity
  8
SUPERFICI
100
AcDbPolyline
 62
250
  6
CONTINUOUS
 90
10
 70
0
 10
58.8569831205
 20
-37.4476978888
 10
58.8524310471
 20
-37.4649405057
 10
58.8477416167
 20
-37.4821252865
 10
58.8429155261
 20
-37.4992508453
 10
58.8379532113
 20
-37.5163166668
 10
58.8328556178
 20
-37.5333204986
 10
58.8276242694
 20
-37.5502583814
 10
58.8222602085
 20
-37.567128113
 10
58.8167639274
 20
-37.5839292191
 10
58.8111361866
 20
-37.6006603655
  0
LWPOLYLINE
  5
4DD
100
AcDbEntity
  8
SUPERFICI
100
AcDbPolyline
 62
250
  6
CONTINUOUS
 90
10
 70
0
 10
56.0965823392
 20
-35.4617692735
 10
56.0482306622
 20
-35.6247113755
 10
55.9950778354
 20
-35.7831696775
 10
55.9355206236
 20
-35.9361000974
 10
55.8684494148
 20
-36.0820247326
 10
55.7927622276
 20
-36.2200098767
 10
55.7071228143
 20
-36.3493652469
 10
55.6104785743
 20
-36.4687172802
 10
55.5033183489
 20
-36.5767566447
 10
55.3876151483
 20
-36.673112955
  0
LWPOLYLINE
  5
4DE
100
AcDbEntity
  8
SUPERFICI
100
AcDbPolyline
 62
250
  6
CONTINUOUS
 90
10
 70
0
 10
59.6995418962
 20
-37.6292940192
 10
59.5804745333
 20
-38.0201945781
 10
59.4042855455
 20
-38.3887953519
 10
59.1749812916
 20
-38.7268114931
 10
58.8977412102
 20
-39.0266930837
 10
58.5788435665
 20
-39.2816797799
 10
58.2255745558
 20
-39.485982196
 10
57.8459703184
 20
-39.6350599016
 10
57.4485814103
 20
-39.7256873883
 10
57.04235868
 20
-39.7559298907
  0
LWPOLYLINE
  5
4DF
100
AcDbEntity
  8
SUPERFICI
100
AcDbPolyline
 62
250
  6
CONTINUOUS
 90
10
 70
0
 10
58.8111361867
 20
-37.6006603655
 10
58.752995518
 20
-37.7549887974
 10
58.6837127961
 20
-37.9016765014
 10
58.6040777968
 20
-38.0402169894
 10
58.5153182651
 20
-38.1695363961
 10
58.4177774282
 20
-38.2899186146
 10
58.3105965543
 20
-38.4025366788
 10
58.1937193887
 20
-38.5069872074
 10
58.067981108
 20
-38.6019651383
 10
57.9332624275
 20
-38.687149363
  0
LWPOLYLINE
  5
4E0
100
AcDbEntity
  8
SUPERFICI
100
AcDbPolyline
 62
250
  6
CONTINUOUS
 90
10
 70
0
 10
55.3876151483
 20
36.673112955
 10
55.5032964142
 20
36.5767791586
 10
55.6104576395
 20
36.4687424484
 10
55.7071337292
 20
36.3493470783
 10
55.7928186181
 20
36.2199168505
 10
55.8684953622
 20
36.0819229647
 10
55.9354809575
 20
35.9361033901
 10
55.9949876229
 20
35.7832427268
 10
56.0481978071
 20
35.6247095461
 10
56.0965823392
 20
35.4617692735
  0
LWPOLYLINE
  5
4E1
100
AcDbEntity
  8
SUPERFICI
100
AcDbPolyline
 62
250
  6
CONTINUOUS
 90
10
 70
0
 10
58.8111361867
 20
37.6006603655
 10
58.752995518
 20
37.7549887974
 10
58.6837127961
 20
37.9016765014
 10
58.6040777968
 20
38.0402169894
 10
58.5153182651
 20
38.1695363961
 10
58.4177774282
 20
38.2899186146
 10
58.3105965543
 20
38.4025366788
 10
58.1937193887
 20
38.5069872074
 10
58.067981108
 20
38.6019651383
 10
57.9332624275
 20
38.687149363
  0
LWPOLYLINE
  5
4E2
100
AcDbEntity
  8
SUPERFICI
100
AcDbPolyline
 62
250
  6
CONTINUOUS
 90
10
 70
0
 10
58.8569831205
 20
37.4476978888
 10
58.8524310471
 20
37.4649405057
 10
58.8477416167
 20
37.4821252865
 10
58.8429155261
 20
37.4992508453
 10
58.8379532113
 20
37.5163166668
 10
58.8328556178
 20
37.5333204986
 10
58.8276242694
 20
37.5502583814
 10
58.8222602085
 20
37.567128113
 10
58.8167639274
 20
37.5839292191
 10
58.8111361866
 20
37.6006603655
  0
LWPOLYLINE
  5
4E3
100
AcDbEntity
  8
SUPERFICI
100
AcDbPolyline
 62
7
  6
CONTINUOUS
 90
10
 70
0
 10
59.6995418962
 20
37.6292940192
 10
59.7133580215
 20
37.5639295597
 10
59.725566189
 20
37.4982472008
 10
59.7361591396
 20
37.4322864981
 10
59.7451298065
 20
37.3660935837
 10
59.7524739765
 20
37.2997019406
 10
59.7581887182
 20
37.2331322072
 10
59.7622695688
 20
37.1664179042
 10
59.7647121143
 20
37.0996055825
 10
59.7655135488
 20
37.0327354781
  0
LWPOLYLINE
  5
4E4
100
AcDbEntity
  8
0
100
AcDbPolyline
 62
7
  6
CONTINUOUS
 90
10
 70
0
 43
0.3500000006
 10
-87.2242086182
 20
48.7405565643
 10
-86.367061615
 20
49.5976990356
 10
-86.1527771301
 20
50.454841507
 10
-86.1527771301
 20
51.3119839783
 10
-86.5813460999
 20
51.7405574799
 10
-87.2242086182
 20
51.7405574799
 10
-87.6527775879
 20
51.3119839783
 10
-87.6527775879
 20
50.454841507
 10
-87.2242086182
 20
50.0262680054
 10
-86.2956394958
 20
50.0262680054
  0
LINE
  5
4E5
100
AcDbEntity
  8
SUPERFICI
100
AcDbLine
 62
7
  6
CONTINUOUS
 10
-84.9415881703
 20
39.6466668457
 11
-84.8145801338
 21
39.701464822
  0
LWPOLYLINE
  5
4E6
100
AcDbEntity
  8
SUPERFICI
100
AcDbPolyline
 62
7
  6
CONTINUOUS
 90
6
 70
0
 10
-84.7898812155
 20
39.710067612
 10
-84.8333225436
 20
39.6949367218
 10
-84.8731882155
 20
39.6789938118
 10
-84.9105242871
 20
39.6622048729
 10
-84.9466180433
 20
39.6441712363
 10
-84.9833641327
 20
39.6238720394
  0
LINE
  5
4E7
100
AcDbEntity
  8
SUPERFICI
100
AcDbLine
 62
7
  6
CONTINUOUS
 10
-84.6875024491
 20
39.7377932413
 11
-84.8759458617
 21
39.6801500181
  0
LWPOLYLINE
  5
4E8
100
AcDbEntity
  8
SUPERFICI
100
AcDbPolyline
 62
7
  6
CONTINUOUS
 90
3
 70
0
 10
-85.4498471565
 20
-39.012209402
 10
-85.4494973592
 20
-39.0121705576
 10
-85.4485754491
 20
-39.0194369676
  0
LINE
  5
4E9
100
AcDbEntity
  8
0
100
AcDbLine
 62
7
  6
CONTINUOUS
 10
-84.5394883267
 20
-39.755781292
 11
-80.0598015211
 21
-39.9905517294
  0
LINE
  5
4EA
100
AcDbEntity
  8
0
100
AcDbLine
 62
7
  6
CONTINUOUS
 10
-79.8598015211
 20
-38.9984671407
 11
-80.0598015211
 21
-38.9879830098
  0
LWPOLYLINE
  5
4EB
100
AcDbEntity
  8
SUPERFICI
100
AcDbPolyline
 62
7
  6
CONTINUOUS
 90
9
 70
0
 10
-84.710601143
 20
-39.7319406135
 10
-84.6889250702
 20
-39.7366817465
 10
-84.6664465009
 20
-39.7410549659
 10
-84.6422557422
 20
-39.7451533339
 10
-84.6171807441
 20
-39.7487474619
 10
-84.5934065931
 20
-39.7515512743
 10
-84.5725367196
 20
-39.7535390063
 10
-84.5529258133
 20
-39.7550124234
 10
-84.5399446036
 20
-39.7557782935
  0
LWPOLYLINE
  5
4EC
100
AcDbEntity
  8
SUPERFICI
100
AcDbPolyline
 62
7
  6
CONTINUOUS
 90
3
 70
0
 10
-84.8057081681
 20
-39.7066060224
 10
-84.6530252605
 20
-39.7440272955
 10
-84.5394883267
 20
-39.755781292
  0
LWPOLYLINE
  5
4ED
100
AcDbEntity
  8
SUPERFICI
100
AcDbPolyline
 62
7
  6
CONTINUOUS
 90
6
 70
0
 10
-84.8503321795
 20
-39.68837967
 10
-84.8321154349
 20
-39.6953883437
 10
-84.813249613
 20
-39.7022138693
 10
-84.7937853375
 20
-39.7088017777
 10
-84.7736825151
 20
-39.715129894
 10
-84.7529878804
 20
-39.721148099
  0
LINE
  5
4EE
100
AcDbEntity
  8
SUPERFICI
100
AcDbLine
 62
7
  6
CONTINUOUS
 10
-84.9246244219
 20
-39.6581019369
 11
-84.8057081681
 21
-39.7066060224
  0
LWPOLYLINE
  5
4EF
100
AcDbEntity
  8
SUPERFICI
100
AcDbPolyline
 62
7
  6
CONTINUOUS
 90
4
 70
0
 10
-84.9415881703
 20
-39.6466668457
 10
-84.8129940579
 20
-39.702149139
 10
-84.6784392131
 20
-39.7386400864
 10
-84.5394883267
 20
-39.755781292
  0
LWPOLYLINE
  5
4F0
100
AcDbEntity
  8
SUPERFICI
100
AcDbPolyline
 62
7
  6
CONTINUOUS
 90
3
 70
0
 10
-85.0505761698
 20
39.5843520006
 10
-85.0422119075
 20
39.590034781
 10
-85.0370785712
 20
39.5934824342
  0
LINE
  5
4F1
100
AcDbEntity
  8
SUPERFICI
100
AcDbLine
 62
7
  6
CONTINUOUS
 10
-85.0186406968
 20
39.6024146288
 11
-85.0479025845
 21
39.583041825
  0
LINE
  5
4F2
100
AcDbEntity
  8
SUPERFICI
100
AcDbLine
 62
7
  6
CONTINUOUS
 10
-85.0601761847
 20
39.5744165968
 11
-84.9415881703
 21
39.6466668457
  0
LWPOLYLINE
  5
4F3
100
AcDbEntity
  8
SUPERFICI
100
AcDbPolyline
 62
7
  6
CONTINUOUS
 90
3
 70
0
 10
-84.8759458617
 20
39.6801500181
 10
-85.0074020702
 20
39.6125060797
 10
-85.0456173503
 20
39.587706205
  0
LINE
  5
4F4
100
AcDbEntity
  8
0
100
AcDbLine
 62
250
  6
CONTINUOUS
 10
-84.5374726306
 20
-37.0327354781
 11
-80.0598015211
 21
-37.0327354782
  0
LINE
  5
4F5
100
AcDbEntity
  8
0
100
AcDbLine
 62
250
  6
CONTINUOUS
 10
-79.8598015211
 20
-36.8424440704
 11
-80.0598015211
 21
-36.8424440704
  0
LWPOLYLINE
  5
4F6
100
AcDbEntity
  8
SUPERFICI
100
AcDbPolyline
 62
7
  6
CONTINUOUS
 90
8
 70
0
 10
-84.9994010903
 20
-39.6143653224
 10
-84.9839059604
 20
-39.6235574749
 10
-84.9679624766
 20
-39.6326266293
 10
-84.9517045528
 20
-39.6414808569
 10
-84.935104878
 20
-39.6501231147
 10
-84.918198073
 20
-39.6585236352
 10
-84.901229897
 20
-39.6665584146
 10
-84.8844836662
 20
-39.6741093021
  0
LINE
  5
4F7
100
AcDbEntity
  8
SUPERFICI
100
AcDbLine
 62
7
  6
CONTINUOUS
 10
-85.0290542566
 20
-39.5956896788
 11
-85.0144478741
 21
-39.6050708557
  0
LWPOLYLINE
  5
4F8
100
AcDbEntity
  8
SUPERFICI
100
AcDbPolyline
 62
7
  6
CONTINUOUS
 90
4
 70
0
 10
-85.0482423271
 20
-39.5859512534
 10
-85.0235132521
 20
-39.6023569998
 10
-84.9871505239
 20
-39.6246535207
 10
-84.9246244219
 20
-39.6581019369
  0
LINE
  5
4F9
100
AcDbEntity
  8
SUPERFICI
100
AcDbLine
 62
7
  6
CONTINUOUS
 10
-85.0521985479
 20
-39.5832208187
 11
-85.0509853185
 21
-39.5840466306
  0
LINE
  5
4FA
100
AcDbEntity
  8
SUPERFICI
100
AcDbLine
 62
7
  6
CONTINUOUS
 10
-85.0984947934
 20
39.5458549772
 11
-85.1315219844
 21
39.5188754908
  0
LINE
  5
4FB
100
AcDbEntity
  8
SUPERFICI
100
AcDbLine
 62
7
  6
CONTINUOUS
 10
-85.1315219844
 20
39.5188754908
 11
-85.0601761847
 21
39.5744165968
  0
LINE
  5
4FC
100
AcDbEntity
  8
SUPERFICI
100
AcDbLine
 62
7
  6
CONTINUOUS
 10
-85.0788299021
 20
39.5608914884
 11
-85.0984947934
 21
39.5458549772
  0
LINE
  5
4FD
100
AcDbEntity
  8
SUPERFICI
100
AcDbLine
 62
7
  6
CONTINUOUS
 10
-85.0888433718
 20
39.556935844
 11
-85.0927237833
 21
39.5540171482
  0
LINE
  5
4FE
100
AcDbEntity
  8
SUPERFICI
100
AcDbLine
 62
7
  6
CONTINUOUS
 10
-85.0843928623
 20
39.5602545942
 11
-85.0888433718
 21
39.556935844
  0
LINE
  5
4FF
100
AcDbEntity
  8
SUPERFICI
100
AcDbLine
 62
7
  6
CONTINUOUS
 10
-85.0729775307
 20
39.5686222586
 11
-85.0781510552
 21
39.5648612559
  0
LINE
  5
500
100
AcDbEntity
  8
SUPERFICI
100
AcDbLine
 62
7
  6
CONTINUOUS
 10
-85.0700425444
 20
39.5706924787
 11
-85.0723267411
 21
39.5690523474
  0
LINE
  5
501
100
AcDbEntity
  8
SUPERFICI
100
AcDbLine
 62
7
  6
CONTINUOUS
 10
-85.0652520344
 20
39.5741064753
 11
-85.0676848461
 21
39.5723770272
  0
LWPOLYLINE
  5
502
100
AcDbEntity
  8
SUPERFICI
100
AcDbPolyline
 62
7
  6
CONTINUOUS
 90
3
 70
0
 10
-85.0479025845
 20
39.583041825
 10
-85.0659833931
 20
39.5703099855
 10
-85.0843928623
 20
39.5602545942
  0
LINE
  5
503
100
AcDbEntity
  8
SUPERFICI
100
AcDbLine
 62
7
  6
CONTINUOUS
 10
-85.0505761698
 20
39.5843520006
 11
-85.0605418644
 21
39.5774551393
  0
LINE
  5
504
100
AcDbEntity
  8
SUPERFICI
100
AcDbLine
 62
7
  6
CONTINUOUS
 10
-85.0550527553
 20
39.5812595511
 11
-85.0567255176
 21
39.5801082035
  0
LINE
  5
505
100
AcDbEntity
  8
SUPERFICI
100
AcDbLine
 62
7
  6
CONTINUOUS
 10
-85.0622389754
 20
-39.5762325445
 11
-85.0431116845
 21
-39.5863159283
  0
LINE
  5
506
100
AcDbEntity
  8
SUPERFICI
100
AcDbLine
 62
7
  6
CONTINUOUS
 10
-85.0654752594
 20
-39.573985679
 11
-85.0619984544
 21
-39.5764354735
  0
LINE
  5
507
100
AcDbEntity
  8
SUPERFICI
100
AcDbLine
 62
7
  6
CONTINUOUS
 10
-85.0794284337
 20
-39.5638993417
 11
-85.057395746
 21
-39.5764320774
  0
LINE
  5
508
100
AcDbEntity
  8
SUPERFICI
100
AcDbLine
 62
7
  6
CONTINUOUS
 10
-85.0776124023
 20
-39.5652552446
 11
-85.0732854859
 21
-39.5683998208
  0
LWPOLYLINE
  5
509
100
AcDbEntity
  8
SUPERFICI
100
AcDbPolyline
 62
7
  6
CONTINUOUS
 90
3
 70
0
 10
-85.0959589907
 20
-39.5478553881
 10
-85.0622246104
 20
-39.5729616512
 10
-84.9415881703
 20
-39.6466668457
  0
LINE
  5
50A
100
AcDbEntity
  8
SUPERFICI
100
AcDbLine
 62
7
  6
CONTINUOUS
 10
-85.10086581
 20
-39.5477951024
 11
-85.0820029284
 21
-39.5585180027
  0
LINE
  5
50B
100
AcDbEntity
  8
SUPERFICI
100
AcDbLine
 62
7
  6
CONTINUOUS
 10
-85.0939314198
 20
-39.5494117504
 11
-85.0893162028
 21
-39.5529687909
  0
LINE
  5
50C
100
AcDbEntity
  8
SUPERFICI
100
AcDbLine
 62
250
  6
CONTINUOUS
 10
-85.1718520921
 20
-39.4825042812
 11
-85.0959589907
 21
-39.5478553881
  0
LINE
  5
50D
100
AcDbEntity
  8
SUPERFICI
100
AcDbLine
 62
250
  6
CONTINUOUS
 10
-85.2672772652
 20
39.3779270263
 11
-85.1718520921
 21
39.4825042812
  0
LINE
  5
50E
100
AcDbEntity
  8
SUPERFICI
100
AcDbLine
 62
250
  6
CONTINUOUS
 10
-85.1718520921
 20
39.4825042812
 11
-85.1315219844
 21
39.5188754908
  0
LWPOLYLINE
  5
50F
100
AcDbEntity
  8
SUPERFICI
100
AcDbPolyline
 62
250
  6
CONTINUOUS
 90
10
 70
0
 10
-85.4690714826
 20
-37.4476852071
 10
-85.4369138203
 20
-37.4803533707
 10
-85.3824714828
 20
-37.5111442063
 10
-85.307044037
 20
-37.5395374891
 10
-85.2117180513
 20
-37.5650528823
 10
-85.0986389171
 20
-37.5870152173
 10
-84.9713714707
 20
-37.6047302021
 10
-84.8332661747
 20
-37.617807693
 10
-84.6866906598
 20
-37.626068403
 10
-84.5342066112
 20
-37.6292940352
  0
LINE
  5
510
100
AcDbEntity
  8
SUPERFICI
100
AcDbLine
 62
7
  6
CONTINUOUS
 10
-85.2372029144
 20
-39.417810507
 11
-85.1902969752
 21
-39.468599801
  0
LWPOLYLINE
  5
511
100
AcDbEntity
  8
SUPERFICI
100
AcDbPolyline
 62
7
  6
CONTINUOUS
 90
4
 70
0
 10
-85.2120367602
 20
-39.4459480852
 10
-85.223034536
 20
-39.4339250046
 10
-85.2412525764
 20
-39.4130769373
 10
-85.2372029144
 20
-39.417810507
  0
LINE
  5
512
100
AcDbEntity
  8
SUPERFICI
100
AcDbLine
 62
250
  6
CONTINUOUS
 10
-85.2672772652
 20
-39.3779270263
 11
-85.1718520921
 21
-39.4825042812
  0
LINE
  5
513
100
AcDbEntity
  8
SUPERFICI
100
AcDbLine
 62
7
  6
CONTINUOUS
 10
-87.4764280845
 20
31.5625587485
 11
-87.4763036531
 21
31.5626611662
  0
LINE
  5
514
100
AcDbEntity
  8
0
100
AcDbLine
 62
7
  6
CONTINUOUS
 10
-87.8237643003
 20
-28.7905517294
 11
-87.836515721
 21
-28.7905587294
  0
LINE
  5
515
100
AcDbEntity
  8
SUPERFICI
100
AcDbLine
 62
7
  6
CONTINUOUS
 10
-87.4764280845
 20
-31.5625587485
 11
-87.4763036531
 21
-31.5626611662
  0
LWPOLYLINE
  5
516
100
AcDbEntity
  8
SUPERFICI
100
AcDbPolyline
 62
7
  6
CONTINUOUS
 90
10
 70
0
 10
-85.3297520486
 20
39.2878380088
 10
-85.3400623277
 20
39.2709347964
 10
-85.3497058886
 20
39.2543850378
 10
-85.3587141019
 20
39.2382100315
 10
-85.3672176045
 20
39.2222381555
 10
-85.3751396884
 20
39.2066770354
 10
-85.3822304859
 20
39.1921318074
 10
-85.3890637422
 20
39.177505532
 10
-85.3951437099
 20
39.1639391549
 10
-85.396035756
 20
39.1619020564
  0
LINE
  5
517
100
AcDbEntity
  8
0
100
AcDbLine
 62
7
  6
CONTINUOUS
 10
-88.1855144917
 20
-25.8904287294
 11
-88.1778931574
 21
-25.8904287294
  0
LWPOLYLINE
  5
518
100
AcDbEntity
  8
SUPERFICI
100
AcDbPolyline
 62
250
  6
CONTINUOUS
 90
3
 70
0
 10
-85.3532893962
 20
39.247950548
 10
-85.3463781394
 20
39.2620227551
 10
-85.2672772652
 20
39.3779270263
  0
LINE
  5
519
100
AcDbEntity
  8
SUPERFICI
100
AcDbLine
 62
250
  6
CONTINUOUS
 10
-85.3751396884
 20
39.2066770354
 11
-85.3532893962
 21
39.247950548
  0
LWPOLYLINE
  5
51A
100
AcDbEntity
  8
SUPERFICI
100
AcDbPolyline
 62
250
  6
CONTINUOUS
 90
3
 70
0
 10
-85.4079366817
 20
-39.1366816503
 10
-85.3463781394
 20
-39.2620227551
 10
-85.2672772652
 20
-39.3779270263
  0
LWPOLYLINE
  5
51B
100
AcDbEntity
  8
0
100
AcDbPolyline
 62
7
  6
CONTINUOUS
 90
3
 70
0
 43
0.3500000006
 10
-84.5813454895
 20
49.0262677002
 10
-84.6527766724
 20
48.8119832153
 10
-84.7956390381
 20
48.5262675476
  0
LWPOLYLINE
  5
51C
100
AcDbEntity
  8
SUPERFICI
100
AcDbPolyline
 62
7
  6
CONTINUOUS
 90
5
 70
0
 10
-88.8179433077
 20
24.1601165104
 10
-88.9156956775
 20
24.0039556497
 10
-88.9821737044
 20
23.8347062411
 10
-89.0161489571
 20
23.6568057947
 10
-89.018219396
 20
23.4939321416
  0
LWPOLYLINE
  5
51D
100
AcDbEntity
  8
SUPERFICI
100
AcDbPolyline
 62
7
  6
CONTINUOUS
 90
5
 70
0
 10
-88.8253405021
 20
-22.1392525325
 10
-88.9189025883
 20
-22.1473646418
 10
-88.9820036866
 20
-22.1556414361
 10
-89.0133052327
 20
-22.1640829555
 10
-89.0141497232
 20
-22.1677920632
  0
LWPOLYLINE
  5
51E
100
AcDbEntity
  8
SUPERFICI
100
AcDbPolyline
 62
7
  6
CONTINUOUS
 90
10
 70
0
 10
-88.8168052911
 20
-24.1592506131
 10
-88.709808273
 20
-24.3101601369
 10
-88.6119065137
 20
-24.4693279844
 10
-88.5236337177
 20
-24.6360033709
 10
-88.445216918
 20
-24.8101799425
 10
-88.3776423602
 20
-24.990294734
 10
-88.3221497036
 20
-25.1730379282
 10
-88.2790201774
 20
-25.3565831067
 10
-88.2480829409
 20
-25.5407759916
 10
-88.2294257194
 20
-25.724700364
  0
LWPOLYLINE
  5
51F
100
AcDbEntity
  8
0
100
AcDbPolyline
 62
7
  6
CONTINUOUS
 90
7
 70
0
 10
-88.1778931574
 20
-25.8904287294
 10
-88.1730373954
 20
-25.8979416008
 10
-88.1665701733
 20
-25.9220126086
 10
-88.1584914912
 20
-25.9639960995
 10
-88.148631403
 20
-26.0249768667
 10
-88.1371598547
 20
-26.1053145125
 10
-88.1245866847
 20
-26.2042150687
  0
LWPOLYLINE
  5
520
100
AcDbEntity
  8
SUPERFICI
100
AcDbPolyline
 62
7
  6
CONTINUOUS
 90
19
 70
0
 10
-85.39509849
 20
-39.164042098
 10
-85.3902941614
 20
-39.1748036074
 10
-85.3836035804
 20
-39.1892426864
 10
-85.3764262497
 20
-39.2040830208
 10
-85.3692248375
 20
-39.2183603405
 10
-85.361517309
 20
-39.2330238561
 10
-85.3534504183
 20
-39.2477495685
 10
-85.3450292582
 20
-39.2625048792
 10
-85.3362308985
 20
-39.277307312
 10
-85.3271884949
 20
-39.2919233501
 10
-85.3178802381
 20
-39.3063916267
 10
-85.308337338
 20
-39.3206678011
 10
-85.2988041618
 20
-39.3344118833
 10
-85.2891589392
 20
-39.3478314155
 10
-85.2795619206
 20
-39.3607338502
 10
-85.2707407373
 20
-39.3722241585
 10
-85.2629918871
 20
-39.3820437371
 10
-85.2561352395
 20
-39.3905308561
 10
-85.2502206637
 20
-39.3977085032
  0
LWPOLYLINE
  5
521
100
AcDbEntity
  8
SUPERFICI
100
AcDbPolyline
 62
7
  6
CONTINUOUS
 90
3
 70
0
 10
-85.3948272518
 20
-39.1646133945
 10
-85.3979021291
 20
-39.157583446
 10
-85.398959406
 20
-39.1551324354
  0
LWPOLYLINE
  5
522
100
AcDbEntity
  8
SUPERFICI
100
AcDbPolyline
 62
7
  6
CONTINUOUS
 90
3
 70
0
 10
-86.1814002845
 20
36.8251155067
 10
-86.2473896264
 20
36.6057254902
 10
-86.3220633793
 20
36.3526265304
  0
LINE
  5
523
100
AcDbEntity
  8
SUPERFICI
100
AcDbLine
 62
7
  6
CONTINUOUS
 10
-86.0823491152
 20
37.1473037312
 11
-86.1814002845
 21
36.8251155067
  0
LWPOLYLINE
  5
524
100
AcDbEntity
  8
SUPERFICI
100
AcDbPolyline
 62
250
  6
CONTINUOUS
 90
7
 70
0
 10
-85.8834978261
 20
37.7604537292
 10
-85.9561258798
 20
37.5258881126
 10
-86.0265061027
 20
37.2919905946
 10
-86.0949580939
 20
37.058396009
 10
-86.1618433918
 20
36.8245731104
 10
-86.2274151999
 20
36.5903489752
 10
-86.3553164728
 20
36.1211560023
  0
LINE
  5
525
100
AcDbEntity
  8
SUPERFICI
100
AcDbLine
 62
7
  6
CONTINUOUS
 10
-85.9954035256
 20
37.4239854197
 11
-86.0823491152
 21
37.1473037312
  0
LINE
  5
526
100
AcDbEntity
  8
SUPERFICI
100
AcDbLine
 62
7
  6
CONTINUOUS
 10
-85.9006687994
 20
37.7201822614
 11
-85.9954035256
 21
37.4239854197
  0
LWPOLYLINE
  5
527
100
AcDbEntity
  8
SUPERFICI
100
AcDbPolyline
 62
7
  6
CONTINUOUS
 90
3
 70
0
 10
-85.7877211419
 20
38.0594792289
 10
-85.8359996823
 20
37.9101606547
 10
-85.8834978261
 20
37.7604537292
  0
LWPOLYLINE
  5
528
100
AcDbEntity
  8
SUPERFICI
100
AcDbPolyline
 62
250
  6
CONTINUOUS
 90
3
 70
0
 10
-85.4512488186
 20
39.0034431957
 10
-85.4079366817
 20
39.1366816503
 10
-85.3822304859
 20
39.1921318074
  0
LINE
  5
529
100
AcDbEntity
  8
SUPERFICI
100
AcDbLine
 62
7
  6
CONTINUOUS
 10
-85.8445164473
 20
37.8929388766
 11
-85.9006687994
 21
37.7201822614
  0
LINE
  5
52A
100
AcDbEntity
  8
SUPERFICI
100
AcDbLine
 62
7
  6
CONTINUOUS
 10
-85.7386178721
 20
38.2085393528
 11
-85.8445164473
 21
37.8929388766
  0
LINE
  5
52B
100
AcDbEntity
  8
SUPERFICI
100
AcDbLine
 62
7
  6
CONTINUOUS
 10
-85.6886472051
 20
38.3574661388
 11
-85.7521764642
 21
38.1716516277
  0
LINE
  5
52C
100
AcDbEntity
  8
SUPERFICI
100
AcDbLine
 62
7
  6
CONTINUOUS
 10
-85.6302487511
 20
38.5290014813
 11
-85.693256278
 21
38.3458724753
  0
LINE
  5
52D
100
AcDbEntity
  8
SUPERFICI
100
AcDbLine
 62
250
  6
CONTINUOUS
 10
-85.4791125549
 20
38.9547081054
 11
-85.4477945002
 21
39.0386185052
  0
LINE
  5
52E
100
AcDbEntity
  8
SUPERFICI
100
AcDbLine
 62
7
  6
CONTINUOUS
 10
-85.4791125549
 20
38.9547081054
 11
-85.6377618358
 21
38.5063987523
  0
LINE
  5
52F
100
AcDbEntity
  8
SUPERFICI
100
AcDbLine
 62
7
  6
CONTINUOUS
 10
-85.4269320816
 20
39.097361324
 11
-85.4788046738
 21
38.9554990193
  0
LWPOLYLINE
  5
530
100
AcDbEntity
  8
SUPERFICI
100
AcDbPolyline
 62
7
  6
CONTINUOUS
 90
3
 70
0
 10
-88.981863433
 20
-23.8357775107
 10
-88.9153991151
 20
-24.0045435503
 10
-88.8179433077
 20
-24.1601165104
  0
LINE
  5
531
100
AcDbEntity
  8
SUPERFICI
100
AcDbLine
 62
7
  6
CONTINUOUS
 10
-85.4694499889
 20
-38.9811936104
 11
-85.5330413283
 21
-38.8048830319
  0
LWPOLYLINE
  5
532
100
AcDbEntity
  8
SUPERFICI
100
AcDbPolyline
 62
250
  6
CONTINUOUS
 90
3
 70
0
 10
-85.4282258282
 20
-39.0937305005
 10
-85.4820600628
 20
-38.9421722767
 10
-85.5359091721
 20
-38.7871488366
  0
LINE
  5
533
100
AcDbEntity
  8
SUPERFICI
100
AcDbLine
 62
7
  6
CONTINUOUS
 10
-85.5964456042
 20
-38.6258752543
 11
-85.5188058061
 21
-38.8447372845
  0
LINE
  5
534
100
AcDbEntity
  8
SUPERFICI
100
AcDbLine
 62
7
  6
CONTINUOUS
 10
-85.6625307385
 20
-38.4355892461
 11
-85.5859094644
 21
-38.6554903329
  0
LINE
  5
535
100
AcDbEntity
  8
SUPERFICI
100
AcDbLine
 62
7
  6
CONTINUOUS
 10
-85.7225544881
 20
-38.2595965091
 11
-85.6377618358
 21
-38.5063987523
  0
LINE
  5
536
100
AcDbEntity
  8
SUPERFICI
100
AcDbLine
 62
250
  6
CONTINUOUS
 10
-85.5359091721
 20
-38.7871488366
 11
-85.5885530413
 21
-38.6320627034
  0
LINE
  5
537
100
AcDbEntity
  8
SUPERFICI
100
AcDbLine
 62
7
  6
CONTINUOUS
 10
-85.7829869891
 20
-38.0794184178
 11
-85.6886472051
 21
-38.3574661388
  0
LWPOLYLINE
  5
538
100
AcDbEntity
  8
SUPERFICI
100
AcDbPolyline
 62
250
  6
CONTINUOUS
 90
7
 70
0
 10
-85.5885530413
 20
-38.6320627034
 10
-85.6400962831
 20
-38.47658871
 10
-85.6906076254
 20
-38.3205091344
 10
-85.740122816
 20
-38.1637174275
 10
-85.7887118027
 20
-38.0060107296
 10
-85.836475851
 20
-37.8470860682
 10
-85.8834978261
 20
-37.6866984292
  0
LINE
  5
539
100
AcDbEntity
  8
SUPERFICI
100
AcDbLine
 62
7
  6
CONTINUOUS
 10
-85.8445164407
 20
-37.8929388967
 11
-85.7386178721
 21
-38.2085393528
  0
LINE
  5
53A
100
AcDbEntity
  8
SUPERFICI
100
AcDbLine
 62
250
  6
CONTINUOUS
 10
-85.4512488186
 20
-39.0034431957
 11
-85.4079366817
 21
-39.1366816503
  0
LWPOLYLINE
  5
53B
100
AcDbEntity
  8
SUPERFICI
100
AcDbPolyline
 62
7
  6
CONTINUOUS
 90
3
 70
0
 10
-85.7877211419
 20
-38.0594792289
 10
-85.8359996823
 20
-37.9101606547
 10
-85.8834978261
 20
-37.7604537292
  0
LINE
  5
53C
100
AcDbEntity
  8
SUPERFICI
100
AcDbLine
 62
7
  6
CONTINUOUS
 10
-85.9266176503
 20
-37.6395998144
 11
-85.8445164407
 21
-37.8929388967
  0
LINE
  5
53D
100
AcDbEntity
  8
SUPERFICI
100
AcDbLine
 62
7
  6
CONTINUOUS
 10
-86.0208977998
 20
-37.3433695707
 11
-85.9266176503
 21
-37.6395998144
  0
LINE
  5
53E
100
AcDbEntity
  8
SUPERFICI
100
AcDbLine
 62
7
  6
CONTINUOUS
 10
-86.0823491152
 20
-37.1473037312
 11
-86.0208977998
 21
-37.3433695707
  0
LWPOLYLINE
  5
53F
100
AcDbEntity
  8
SUPERFICI
100
AcDbPolyline
 62
250
  6
CONTINUOUS
 90
6
 70
0
 10
-85.8834978261
 20
-37.7604537292
 10
-85.9561258798
 20
-37.5258881126
 10
-86.0265061027
 20
-37.2919905946
 10
-86.0949580939
 20
-37.058396009
 10
-86.1618433918
 20
-36.8245731104
 10
-86.2274151999
 20
-36.5903489752
  0
LINE
  5
540
100
AcDbEntity
  8
SUPERFICI
100
AcDbLine
 62
7
  6
CONTINUOUS
 10
-87.2954413161
 20
32.4761877259
 11
-87.344202626
 21
32.23844171
  0
LINE
  5
541
100
AcDbEntity
  8
SUPERFICI
100
AcDbLine
 62
7
  6
CONTINUOUS
 10
-87.2451429172
 20
32.715316692
 11
-87.2954413161
 21
32.4761877259
  0
LINE
  5
542
100
AcDbEntity
  8
SUPERFICI
100
AcDbLine
 62
7
  6
CONTINUOUS
 10
-87.1944628143
 20
32.9503276928
 11
-87.2451429172
 21
32.715316692
  0
LINE
  5
543
100
AcDbEntity
  8
SUPERFICI
100
AcDbLine
 62
7
  6
CONTINUOUS
 10
-87.1433487922
 20
33.1816600683
 11
-87.1944628143
 21
32.9503276928
  0
LINE
  5
544
100
AcDbEntity
  8
SUPERFICI
100
AcDbLine
 62
250
  6
CONTINUOUS
 10
-85.4595263461
 20
38.687149363
 11
-85.5607567067
 21
38.2323983777
  0
LWPOLYLINE
  5
545
100
AcDbEntity
  8
SUPERFICI
100
AcDbPolyline
 62
250
  6
CONTINUOUS
 90
5
 70
0
 10
-85.8834978261
 20
37.3482566975
 10
-85.9543897157
 20
37.0374222644
 10
-86.0236928139
 20
36.7218445894
 10
-86.0915456085
 20
36.4028645499
 10
-86.2230776035
 20
35.7619269728
  0
LINE
  5
546
100
AcDbEntity
  8
SUPERFICI
100
AcDbLine
 62
7
  6
CONTINUOUS
 10
-87.0916890484
 20
33.409993139
 11
-87.1433487922
 21
33.1816600683
  0
LWPOLYLINE
  5
547
100
AcDbEntity
  8
SUPERFICI
100
AcDbPolyline
 62
7
  6
CONTINUOUS
 90
9
 70
0
 10
-85.4442943973
 20
39.0373755861
 10
-85.4418682429
 20
39.0479950476
 10
-85.4395447747
 20
39.057172978
 10
-85.4373304215
 20
39.0652245509
 10
-85.435207219
 20
39.0724431952
 10
-85.4331948064
 20
39.0789154525
 10
-85.431354019
 20
39.0845782056
 10
-85.4297047465
 20
39.0894717394
 10
-85.4282258282
 20
39.0937305005
  0
LINE
  5
548
100
AcDbEntity
  8
SUPERFICI
100
AcDbLine
 62
250
  6
CONTINUOUS
 10
-86.9442258295
 20
33.3195186832
 11
-86.7141174565
 21
34.333228013
  0
LINE
  5
549
100
AcDbEntity
  8
SUPERFICI
100
AcDbLine
 62
7
  6
CONTINUOUS
 10
-87.0393431469
 20
33.6360878875
 11
-87.0916890484
 21
33.409993139
  0
LWPOLYLINE
  5
54A
100
AcDbEntity
  8
SUPERFICI
100
AcDbPolyline
 62
7
  6
CONTINUOUS
 90
8
 70
0
 10
-88.2790192751
 20
25.3565875887
 10
-88.3221481652
 20
25.1730436484
 10
-88.3776402208
 20
24.9903010459
 10
-88.4452143394
 20
24.8101861971
 10
-88.5236310145
 20
24.6360088946
 10
-88.6119041332
 20
24.46933215
 10
-88.7098067602
 20
24.3101624262
 10
-88.8168052911
 20
24.1592506131
  0
LWPOLYLINE
  5
54B
100
AcDbEntity
  8
SUPERFICI
100
AcDbPolyline
 62
250
  6
CONTINUOUS
 90
10
 70
0
 10
-85.8834978261
 20
37.3482566975
 10
-85.8381987212
 20
37.5403982246
 10
-85.7922257216
 20
37.7306578444
 10
-85.745483882
 20
37.9193917555
 10
-85.6978435767
 20
38.1070917725
 10
-85.6492374184
 20
38.2940019324
 10
-85.599665934
 20
38.4801272432
 10
-85.5490667952
 20
38.6657361845
 10
-85.4973091206
 20
38.8513520548
 10
-85.4442943973
 20
39.0373755861
  0
LINE
  5
54C
100
AcDbEntity
  8
SUPERFICI
100
AcDbLine
 62
250
  6
CONTINUOUS
 10
-86.7141174565
 20
34.333228013
 11
-86.4166971168
 21
35.6049508501
  0
LINE
  5
54D
100
AcDbEntity
  8
SUPERFICI
100
AcDbLine
 62
7
  6
CONTINUOUS
 10
-86.9862108932
 20
33.8604914853
 11
-87.0393431469
 21
33.6360878875
  0
LWPOLYLINE
  5
54E
100
AcDbEntity
  8
SUPERFICI
100
AcDbPolyline
 62
250
  6
CONTINUOUS
 90
8
 70
0
 10
-86.4166971168
 20
35.6049508501
 10
-86.2882819876
 20
36.1416679674
 10
-86.2235539933
 20
36.4059861226
 10
-86.1581442965
 20
36.6674465316
 10
-86.0916768601
 20
36.9264235918
 10
-86.0238719896
 20
37.182879755
 10
-85.9545540184
 20
37.4363819656
 10
-85.8834978261
 20
37.6866984292
  0
LINE
  5
54F
100
AcDbEntity
  8
SUPERFICI
100
AcDbLine
 62
7
  6
CONTINUOUS
 10
-86.9321520862
 20
34.0838897986
 11
-86.9862108932
 21
33.8604914853
  0
LINE
  5
550
100
AcDbEntity
  8
SUPERFICI
100
AcDbLine
 62
7
  6
CONTINUOUS
 10
-86.8771508153
 20
34.306437052
 11
-86.9321520862
 21
34.0838897986
  0
LINE
  5
551
100
AcDbEntity
  8
SUPERFICI
100
AcDbLine
 62
7
  6
CONTINUOUS
 10
-86.8212595808
 20
34.5280306422
 11
-86.8771508153
 21
34.306437052
  0
LINE
  5
552
100
AcDbEntity
  8
SUPERFICI
100
AcDbLine
 62
7
  6
CONTINUOUS
 10
-86.7645546137
 20
34.7485089863
 11
-86.8212595808
 21
34.5280306422
  0
LINE
  5
553
100
AcDbEntity
  8
SUPERFICI
100
AcDbLine
 62
7
  6
CONTINUOUS
 10
-85.4432235313
 20
39.036165601
 11
-85.4457612292
 21
39.0264281497
  0
LINE
  5
554
100
AcDbEntity
  8
SUPERFICI
100
AcDbLine
 62
250
  6
CONTINUOUS
 10
-86.7207457713
 20
34.723933645
 11
-86.4808000112
 21
35.6489049843
  0
LINE
  5
555
100
AcDbEntity
  8
SUPERFICI
100
AcDbLine
 62
7
  6
CONTINUOUS
 10
-86.7071463829
 20
34.9676169924
 11
-86.7645546137
 21
34.7485089863
  0
LINE
  5
556
100
AcDbEntity
  8
SUPERFICI
100
AcDbLine
 62
250
  6
CONTINUOUS
 10
-86.3553164728
 20
36.1211560023
 11
-86.4808000112
 21
35.6489049843
  0
LINE
  5
557
100
AcDbEntity
  8
SUPERFICI
100
AcDbLine
 62
7
  6
CONTINUOUS
 10
-86.6375780455
 20
35.2280886472
 11
-86.7071463829
 21
34.9676169924
  0
LINE
  5
558
100
AcDbEntity
  8
SUPERFICI
100
AcDbLine
 62
7
  6
CONTINUOUS
 10
-86.5679370028
 20
35.4838400715
 11
-86.6375780455
 21
35.2280886472
  0
LINE
  5
559
100
AcDbEntity
  8
SUPERFICI
100
AcDbLine
 62
7
  6
CONTINUOUS
 10
-86.4882456377
 20
35.7710851611
 11
-86.5679370028
 21
35.4838400715
  0
LWPOLYLINE
  5
55A
100
AcDbEntity
  8
SUPERFICI
100
AcDbPolyline
 62
7
  6
CONTINUOUS
 90
3
 70
0
 10
-86.3220633793
 20
36.3526265304
 10
-86.4056258088
 20
36.0632802153
 10
-86.4882456377
 20
35.7710851611
  0
LWPOLYLINE
  5
55B
100
AcDbEntity
  8
SUPERFICI
100
AcDbPolyline
 62
250
  6
CONTINUOUS
 90
9
 70
0
 10
-85.8834978261
 20
37.6866984292
 10
-85.836334793
 20
37.8475536573
 10
-85.7884571386
 20
38.0068215292
 10
-85.7397845229
 20
38.1647527149
 10
-85.6902177958
 20
38.3216571367
 10
-85.6396910165
 20
38.4777386378
 10
-85.5881744668
 20
38.6330989326
 10
-85.5356043629
 20
38.7879545744
 10
-85.4818798287
 20
38.9426330474
  0
LWPOLYLINE
  5
55C
100
AcDbEntity
  8
0
100
AcDbPolyline
 62
7
  6
CONTINUOUS
 90
13
 70
0
 43
0.3500000006
 10
-100.8496818237
 20
-1.9285708809
 10
-101.0639663086
 20
-2.2142854156
 10
-101.7068288269
 20
-2.2142854156
 10
-102.1353977966
 20
-1.9285708809
 10
-102.1353977966
 20
-1.2857140274
 10
-101.7068288269
 20
-1.0000006256
 10
-101.0639663086
 20
-1.0000006256
 10
-100.8496818237
 20
-1.2857140274
 10
-100.421112854
 20
-0.8571427917
 10
-99.5639658508
 20
-0.8571427917
 10
-99.1353968811
 20
-1.2857140274
 10
-99.1353968811
 20
-1.9285708809
 10
-99.5639658508
 20
-2.3571432495
  0
LWPOLYLINE
  5
55D
100
AcDbEntity
  8
SUPERFICI
100
AcDbPolyline
 62
7
  6
CONTINUOUS
 90
5
 70
0
 10
-86.4056258088
 20
-36.0632802153
 10
-86.3220633793
 20
-36.3526265304
 10
-86.2473896264
 20
-36.6057254902
 10
-86.1814002845
 20
-36.8251155067
 10
-86.0823491152
 20
-37.1473037312
  0
LWPOLYLINE
  5
55E
100
AcDbEntity
  8
SUPERFICI
100
AcDbPolyline
 62
250
  6
CONTINUOUS
 90
6
 70
0
 10
-85.8834978261
 20
-37.6866984292
 10
-85.9545527835
 20
-37.4363864008
 10
-86.0238700981
 20
-37.1828867947
 10
-86.0916748449
 20
-36.9264313335
 10
-86.1581429344
 20
-36.6674519109
 10
-86.2235537497
 20
-36.4059871074
  0
LINE
  5
55F
100
AcDbEntity
  8
SUPERFICI
100
AcDbLine
 62
7
  6
CONTINUOUS
 10
-86.5107148858
 20
-35.6906372475
 11
-86.4056258088
 21
-36.0632802153
  0
LINE
  5
560
100
AcDbEntity
  8
SUPERFICI
100
AcDbLine
 62
7
  6
CONTINUOUS
 10
-86.5910918137
 20
-35.3993253279
 11
-86.5107148858
 21
-35.6906372475
  0
LINE
  5
561
100
AcDbEntity
  8
SUPERFICI
100
AcDbLine
 62
250
  6
CONTINUOUS
 10
-86.2274151999
 20
-36.5903489752
 11
-86.3553164728
 21
-36.1211560023
  0
LINE
  5
562
100
AcDbEntity
  8
SUPERFICI
100
AcDbLine
 62
7
  6
CONTINUOUS
 10
-86.6724313228
 20
-35.0982528306
 11
-86.5910918137
 21
-35.3993253279
  0
LINE
  5
563
100
AcDbEntity
  8
SUPERFICI
100
AcDbLine
 62
250
  6
CONTINUOUS
 10
-86.3553164728
 20
-36.1211560023
 11
-86.4808000112
 21
-35.6489049843
  0
LINE
  5
564
100
AcDbEntity
  8
SUPERFICI
100
AcDbLine
 62
7
  6
CONTINUOUS
 10
-86.7416675474
 20
-34.8363370558
 11
-86.6724313228
 21
-35.0982528306
  0
LINE
  5
565
100
AcDbEntity
  8
SUPERFICI
100
AcDbLine
 62
7
  6
CONTINUOUS
 10
-86.7986703844
 20
-34.6163658961
 11
-86.7416675474
 21
-34.8363370558
  0
LWPOLYLINE
  5
566
100
AcDbEntity
  8
SUPERFICI
100
AcDbPolyline
 62
250
  6
CONTINUOUS
 90
9
 70
0
 10
-86.4808000112
 20
-35.6489049843
 10
-86.7207585433
 20
-34.7238834419
 10
-86.8379588911
 20
-34.2573106161
 10
-86.9529164399
 20
-33.7860606757
 10
-87.065133699
 20
-33.3097047077
 10
-87.1738875946
 20
-32.8291045713
 10
-87.2787658856
 20
-32.3441842679
 10
-87.3796459894
 20
-31.8537994842
 10
-87.4763036531
 20
-31.3574649338
  0
LINE
  5
567
100
AcDbEntity
  8
SUPERFICI
100
AcDbLine
 62
7
  6
CONTINUOUS
 10
-86.8548974173
 20
-34.3951965707
 11
-86.7986703844
 21
-34.6163658961
  0
LINE
  5
568
100
AcDbEntity
  8
SUPERFICI
100
AcDbLine
 62
7
  6
CONTINUOUS
 10
-86.9102619107
 20
-34.173016615
 11
-86.8548974173
 21
-34.3951965707
  0
LINE
  5
569
100
AcDbEntity
  8
SUPERFICI
100
AcDbLine
 62
7
  6
CONTINUOUS
 10
-86.9647039099
 20
-33.9499445876
 11
-86.9102619107
 21
-34.173016615
  0
LINE
  5
56A
100
AcDbEntity
  8
SUPERFICI
100
AcDbLine
 62
250
  6
CONTINUOUS
 10
-86.2235537497
 20
-36.4059871074
 11
-86.3526034579
 21
-35.8745095891
  0
LINE
  5
56B
100
AcDbEntity
  8
SUPERFICI
100
AcDbLine
 62
7
  6
CONTINUOUS
 10
-87.0181913509
 20
-33.7260177141
 11
-86.9647039099
 21
-33.9499445876
  0
LWPOLYLINE
  5
56C
100
AcDbEntity
  8
SUPERFICI
100
AcDbPolyline
 62
250
  6
CONTINUOUS
 90
10
 70
0
 10
-85.8834978261
 20
-37.3482566975
 10
-85.8381987212
 20
-37.5403982246
 10
-85.7922257216
 20
-37.7306578444
 10
-85.745483882
 20
-37.9193917555
 10
-85.6978435767
 20
-38.1070917725
 10
-85.6492374184
 20
-38.2940019324
 10
-85.599665934
 20
-38.4801272432
 10
-85.5490667952
 20
-38.6657361845
 10
-85.4973091206
 20
-38.8513520548
 10
-85.4442943973
 20
-39.0373755861
  0
LINE
  5
56D
100
AcDbEntity
  8
SUPERFICI
100
AcDbLine
 62
250
  6
CONTINUOUS
 10
-86.5974684116
 20
-34.8356575758
 11
-86.3526034579
 21
-35.8745095891
  0
LINE
  5
56E
100
AcDbEntity
  8
SUPERFICI
100
AcDbLine
 62
7
  6
CONTINUOUS
 10
-87.0708399903
 20
-33.5006625295
 11
-87.0181913509
 21
-33.7260177141
  0
LWPOLYLINE
  5
56F
100
AcDbEntity
  8
SUPERFICI
100
AcDbPolyline
 62
7
  6
CONTINUOUS
 90
10
 70
0
 10
-85.4442943973
 20
-39.0373755861
 10
-85.4418682429
 20
-39.0479950476
 10
-85.4395447747
 20
-39.057172978
 10
-85.4373304215
 20
-39.0652245509
 10
-85.435207219
 20
-39.0724431952
 10
-85.4331948064
 20
-39.0789154525
 10
-85.431354019
 20
-39.0845782056
 10
-85.4297047465
 20
-39.0894717394
 10
-85.4282258282
 20
-39.0937305005
 10
-85.4269169688
 20
-39.0974101675
  0
LWPOLYLINE
  5
570
100
AcDbEntity
  8
SUPERFICI
100
AcDbPolyline
 62
250
  6
CONTINUOUS
 90
4
 70
0
 10
-85.8834978261
 20
-37.3482566975
 10
-85.9543897157
 20
-37.0374222644
 10
-86.0236928139
 20
-36.7218445894
 10
-86.0915456085
 20
-36.4028645499
  0
LINE
  5
571
100
AcDbEntity
  8
SUPERFICI
100
AcDbLine
 62
7
  6
CONTINUOUS
 10
-87.1227584105
 20
-33.2733087649
 11
-87.0708399903
 21
-33.5006625295
  0
LINE
  5
572
100
AcDbEntity
  8
SUPERFICI
100
AcDbLine
 62
7
  6
CONTINUOUS
 10
-87.1740733109
 20
-33.0432731547
 11
-87.1227584105
 21
-33.2733087649
  0
LINE
  5
573
100
AcDbEntity
  8
SUPERFICI
100
AcDbLine
 62
250
  6
CONTINUOUS
 10
-85.4595263461
 20
-38.687149363
 11
-85.5607567067
 21
-38.2323983777
  0
LINE
  5
574
100
AcDbEntity
  8
SUPERFICI
100
AcDbLine
 62
7
  6
CONTINUOUS
 10
-87.2249227567
 20
-32.8097754954
 11
-87.1740733109
 21
-33.0432731547
  0
LINE
  5
575
100
AcDbEntity
  8
SUPERFICI
100
AcDbLine
 62
7
  6
CONTINUOUS
 10
-87.2752866182
 20
-32.5727333421
 11
-87.2249227567
 21
-32.8097754954
  0
LINE
  5
576
100
AcDbEntity
  8
SUPERFICI
100
AcDbLine
 62
7
  6
CONTINUOUS
 10
-87.3254011593
 20
-32.3308240835
 11
-87.2752866182
 21
-32.5727333421
  0
LINE
  5
577
100
AcDbEntity
  8
SUPERFICI
100
AcDbLine
 62
7
  6
CONTINUOUS
 10
-87.344202626
 20
-32.23844171
 11
-87.3254011593
 21
-32.3308240835
  0
LINE
  5
578
100
AcDbEntity
  8
SUPERFICI
100
AcDbLine
 62
7
  6
CONTINUOUS
 10
-88.2226724862
 20
25.7849672047
 11
-88.230220811
 21
25.7210281409
  0
LWPOLYLINE
  5
579
100
AcDbEntity
  8
SUPERFICI
100
AcDbPolyline
 62
250
  6
CONTINUOUS
 90
10
 70
0
 10
-88.2226724862
 20
25.7849672047
 10
-88.1626831991
 20
26.2893769146
 10
-88.0917535246
 20
26.8543367341
 10
-88.0169145928
 20
27.4164571482
 10
-87.9376960411
 20
27.977999591
 10
-87.8539958043
 20
28.5386177206
 10
-87.7661298873
 20
29.0956282974
 10
-87.6741123316
 20
29.6488469359
 10
-87.5775669022
 20
30.200498679
 10
-87.4763036531
 20
30.7515950091
  0
LINE
  5
57A
100
AcDbEntity
  8
SUPERFICI
100
AcDbLine
 62
7
  6
CONTINUOUS
 10
-87.941929334
 20
28.5663714066
 11
-87.9752050142
 21
28.2977986612
  0
LWPOLYLINE
  5
57B
100
AcDbEntity
  8
SUPERFICI
100
AcDbPolyline
 62
7
  6
CONTINUOUS
 90
5
 70
0
 10
-87.8829271834
 20
29.0223587687
 10
-87.9681683175
 20
28.3609163907
 10
-88.04588748
 20
27.6968887242
 10
-88.1156649872
 20
27.0338932466
 10
-88.1771040726
 20
26.3754646642
  0
LWPOLYLINE
  5
57C
100
AcDbEntity
  8
SUPERFICI
100
AcDbPolyline
 62
7
  6
CONTINUOUS
 90
5
 70
0
 10
-87.8924839089
 20
28.9750718054
 10
-87.9773006638
 20
28.3185163914
 10
-88.054175571
 20
27.6611813325
 10
-88.1226034607
 20
27.0053340528
 10
-88.1815192642
 20
26.3584146786
  0
LINE
  5
57D
100
AcDbEntity
  8
SUPERFICI
100
AcDbLine
 62
7
  6
CONTINUOUS
 10
-87.8520359
 20
29.2453130524
 11
-87.8907037008
 21
28.9609725714
  0
LINE
  5
57E
100
AcDbEntity
  8
SUPERFICI
100
AcDbLine
 62
7
  6
CONTINUOUS
 10
-87.7906014091
 20
29.6774986371
 11
-87.8924839089
 21
28.9750718054
  0
LINE
  5
57F
100
AcDbEntity
  8
SUPERFICI
100
AcDbLine
 62
7
  6
CONTINUOUS
 10
-87.7618402751
 20
29.8693680271
 11
-87.8037825096
 21
29.5855708267
  0
LINE
  5
580
100
AcDbEntity
  8
SUPERFICI
100
AcDbLine
 62
7
  6
CONTINUOUS
 10
-87.6916818554
 20
30.3222449604
 11
-87.7993911671
 21
29.6334266514
  0
LINE
  5
581
100
AcDbEntity
  8
SUPERFICI
100
AcDbLine
 62
7
  6
CONTINUOUS
 10
-87.6723149693
 20
30.4419701789
 11
-87.7091047012
 21
30.2118289325
  0
LINE
  5
582
100
AcDbEntity
  8
SUPERFICI
100
AcDbLine
 62
7
  6
CONTINUOUS
 10
-87.586720409
 20
30.9521379774
 11
-87.6982800026
 21
30.290050071
  0
LINE
  5
583
100
AcDbEntity
  8
SUPERFICI
100
AcDbLine
 62
7
  6
CONTINUOUS
 10
-87.5640587689
 20
31.0814148206
 11
-87.6046336353
 21
30.8480307194
  0
LWPOLYLINE
  5
584
100
AcDbEntity
  8
SUPERFICI
100
AcDbPolyline
 62
250
  6
CONTINUOUS
 90
3
 70
0
 10
-85.4512488187
 20
39.0034431954
 10
-85.4503414802
 20
39.0084969252
 10
-85.4498471565
 20
39.012209402
  0
LINE
  5
585
100
AcDbEntity
  8
SUPERFICI
100
AcDbLine
 62
7
  6
CONTINUOUS
 10
-87.4763036531
 20
31.5625352195
 11
-87.5902854262
 21
30.9355944248
  0
LWPOLYLINE
  5
586
100
AcDbEntity
  8
SUPERFICI
100
AcDbPolyline
 62
250
  6
CONTINUOUS
 90
9
 70
0
 10
-87.4763036531
 20
31.3574649338
 10
-87.5814867431
 20
30.7803796287
 10
-87.6819149103
 20
30.186481021
 10
-87.7773777354
 20
29.5771056532
 10
-87.8679319707
 20
28.9516715228
 10
-87.9530730614
 20
28.3133228726
 10
-88.0318979763
 20
27.6693264606
 10
-88.1041443132
 20
27.0232874232
 10
-88.1700362304
 20
26.3746848371
  0
LINE
  5
587
100
AcDbEntity
  8
SUPERFICI
100
AcDbLine
 62
250
  6
CONTINUOUS
 10
-86.41525325
 20
33.7652981496
 11
-86.4808000112
 21
33.4112762543
  0
LWPOLYLINE
  5
588
100
AcDbEntity
  8
SUPERFICI
100
AcDbPolyline
 62
250
  6
CONTINUOUS
 90
10
 70
0
 10
-87.4763036531
 20
29.5841011634
 10
-87.5732359399
 20
29.0686736792
 10
-87.6661405846
 20
28.5590599845
 10
-87.7553174963
 20
28.0532783889
 10
-87.841275583
 20
27.5481088664
 10
-87.924156435
 20
27.0424601787
 10
-88.0038145936
 20
26.5373061823
 10
-88.0805320427
 20
26.0313155722
 10
-88.1549385268
 20
25.5209125045
 10
-88.2274906368
 20
25.0036036029
  0
LINE
  5
589
100
AcDbEntity
  8
SUPERFICI
100
AcDbLine
 62
7
  6
CONTINUOUS
 10
-87.4570419739
 20
31.6640620805
 11
-87.5014306985
 21
31.4282432967
  0
LWPOLYLINE
  5
58A
100
AcDbEntity
  8
SUPERFICI
100
AcDbPolyline
 62
250
  6
CONTINUOUS
 90
3
 70
0
 10
-86.4808000112
 20
33.4112762543
 10
-86.5859973938
 20
32.8598938951
 10
-86.6943547072
 20
32.3089635309
  0
LINE
  5
58B
100
AcDbEntity
  8
SUPERFICI
100
AcDbLine
 62
7
  6
CONTINUOUS
 10
-87.4397059349
 20
31.7545974501
 11
-87.4570419739
 21
31.6640620805
  0
LWPOLYLINE
  5
58C
100
AcDbEntity
  8
SUPERFICI
100
AcDbPolyline
 62
250
  6
CONTINUOUS
 90
4
 70
0
 10
-85.8834978261
 20
36.673112955
 10
-85.9527252736
 20
36.312378928
 10
-86.0209545651
 20
35.947691153
 10
-86.41525325
 20
33.7652981496
  0
LWPOLYLINE
  5
58D
100
AcDbEntity
  8
SUPERFICI
100
AcDbPolyline
 62
250
  6
CONTINUOUS
 90
6
 70
0
 10
-87.4763036531
 20
30.7515950091
 10
-87.3769463137
 20
31.267595944
 10
-87.273341252
 20
31.7835909028
 10
-87.1661639496
 20
32.2985658079
 10
-87.0562967476
 20
32.8105672145
 10
-86.9442258295
 20
33.3195186832
  0
LWPOLYLINE
  5
58E
100
AcDbEntity
  8
SUPERFICI
100
AcDbPolyline
 62
250
  6
CONTINUOUS
 90
10
 70
0
 10
-87.4763036531
 20
28.4816778921
 10
-87.5733584342
 20
27.978093542
 10
-87.6662567248
 20
27.4817959009
 10
-87.7553112156
 20
26.9907456389
 10
-87.8410829072
 20
26.5014758982
 10
-87.9237001587
 20
26.0129548874
 10
-88.002958081
 20
25.5264672339
 10
-88.0791587498
 20
25.0406326846
 10
-88.1530126602
 20
24.551520403
 10
-88.2250262002
 20
24.0564348734
  0
LINE
  5
58F
100
AcDbEntity
  8
SUPERFICI
100
AcDbLine
 62
250
  6
CONTINUOUS
 10
-87.4763036531
 20
29.5841011634
 11
-87.3736117845
 21
30.1131632665
  0
LWPOLYLINE
  5
590
100
AcDbEntity
  8
SUPERFICI
100
AcDbPolyline
 62
250
  6
CONTINUOUS
 90
8
 70
0
 10
-87.4763036531
 20
31.3574649338
 10
-87.3796338641
 20
31.8538600208
 10
-87.2787448769
 20
32.3442837932
 10
-87.1738613178
 20
32.8292232579
 10
-87.065107136
 20
33.3098196619
 10
-86.9528937796
 20
33.7861551182
 10
-86.8379412006
 20
34.2573820132
 10
-86.7207457713
 20
34.723933645
  0
LWPOLYLINE
  5
591
100
AcDbEntity
  8
SUPERFICI
100
AcDbPolyline
 62
250
  6
CONTINUOUS
 90
10
 70
0
 10
-87.4763036532
 20
27.5608043266
 10
-87.5724633361
 20
27.0674949197
 10
-87.6646808649
 20
26.5820460481
 10
-87.7532561546
 20
26.1026213079
 10
-87.8386882293
 20
25.62626696
 10
-87.9211279893
 20
25.1519482668
 10
-88.0004528411
 20
24.6804410412
 10
-88.076945985
 20
24.2104148213
 10
-88.1512223489
 20
23.7385384623
 10
-88.2237328449
 20
23.2624446145
  0
LINE
  5
592
100
AcDbEntity
  8
SUPERFICI
100
AcDbLine
 62
250
  6
CONTINUOUS
 10
-85.4684441931
 20
37.6006603655
 11
-86.2806655648
 21
33.3967994384
  0
LWPOLYLINE
  5
593
100
AcDbEntity
  8
SUPERFICI
100
AcDbPolyline
 62
250
  6
CONTINUOUS
 90
3
 70
0
 10
-85.4471045699
 20
39.0231796922
 10
-85.4449417046
 20
39.0342986846
 10
-85.4442954554
 20
39.0373750603
  0
LINE
  5
594
100
AcDbEntity
  8
SUPERFICI
100
AcDbLine
 62
250
  6
CONTINUOUS
 10
-87.3680388637
 20
29.0265918484
 11
-87.4763036531
 21
28.4816778921
  0
LINE
  5
595
100
AcDbEntity
  8
SUPERFICI
100
AcDbLine
 62
250
  6
CONTINUOUS
 10
-86.2806655648
 20
33.3967994384
 11
-86.4808000113
 21
32.3816012438
  0
LINE
  5
596
100
AcDbEntity
  8
SUPERFICI
100
AcDbLine
 62
250
  6
CONTINUOUS
 10
-85.7954269671
 20
37.1175232203
 11
-85.8834978261
 21
36.673112955
  0
LINE
  5
597
100
AcDbEntity
  8
SUPERFICI
100
AcDbLine
 62
250
  6
CONTINUOUS
 10
-87.4763036532
 20
27.5608043266
 11
-87.3704080338
 21
28.0898523928
  0
LWPOLYLINE
  5
598
100
AcDbEntity
  8
SUPERFICI
100
AcDbPolyline
 62
250
  6
CONTINUOUS
 90
10
 70
0
 10
-87.4763036531
 20
26.5562558118
 10
-87.5733892401
 20
26.0726945913
 10
-87.6664060277
 20
25.596751441
 10
-87.7555866119
 20
25.1271268102
 10
-87.8412155193
 20
24.6622384913
 10
-87.9234915058
 20
24.2009651611
 10
-88.0025455003
 20
23.7426185541
 10
-88.0786125647
 20
23.285977028
 10
-88.1520141325
 20
22.8293129178
 10
-88.2230336622
 20
22.3711183207
  0
LINE
  5
599
100
AcDbEntity
  8
SUPERFICI
100
AcDbLine
 62
7
  6
CONTINUOUS
 10
-87.344202626
 20
32.23844171
 11
-87.3819152691
 21
32.0503560008
  0
LINE
  5
59A
100
AcDbEntity
  8
SUPERFICI
100
AcDbLine
 62
250
  6
CONTINUOUS
 10
-86.5927369932
 20
33.915224822
 11
-86.2230776035
 21
35.7619269728
  0
LINE
  5
59B
100
AcDbEntity
  8
SUPERFICI
100
AcDbLine
 62
250
  6
CONTINUOUS
 10
-85.4717083016
 20
36.0895000588
 11
-85.794532497
 21
34.4808485966
  0
LINE
  5
59C
100
AcDbEntity
  8
SUPERFICI
100
AcDbLine
 62
250
  6
CONTINUOUS
 10
-87.3736117845
 20
30.1131632665
 11
-87.1572257342
 21
31.1867049453
  0
LINE
  5
59D
100
AcDbEntity
  8
SUPERFICI
100
AcDbLine
 62
250
  6
CONTINUOUS
 10
-86.6943547072
 20
32.3089635309
 11
-86.9172710122
 21
31.2118035965
  0
LINE
  5
59E
100
AcDbEntity
  8
SUPERFICI
100
AcDbLine
 62
250
  6
CONTINUOUS
 10
-86.701392535
 20
31.3010159927
 11
-86.4808000113
 21
32.3816012438
  0
LINE
  5
59F
100
AcDbEntity
  8
SUPERFICI
100
AcDbLine
 62
250
  6
CONTINUOUS
 10
-87.3725353436
 20
27.059496935
 11
-87.4763036531
 21
26.5562558118
  0
LINE
  5
5A0
100
AcDbEntity
  8
SUPERFICI
100
AcDbLine
 62
250
  6
CONTINUOUS
 10
-85.794532497
 20
34.4808485966
 11
-86.0827381597
 21
33.0715261086
  0
LINE
  5
5A1
100
AcDbEntity
  8
SUPERFICI
100
AcDbLine
 62
250
  6
CONTINUOUS
 10
-85.7043519895
 20
37.5614075786
 11
-85.7954269671
 21
37.1175232203
  0
LINE
  5
5A2
100
AcDbEntity
  8
SUPERFICI
100
AcDbLine
 62
250
  6
CONTINUOUS
 10
-86.9172710122
 20
31.2118035965
 11
-87.3680388637
 21
29.0265918484
  0
LINE
  5
5A3
100
AcDbEntity
  8
SUPERFICI
100
AcDbLine
 62
250
  6
CONTINUOUS
 10
-87.3704080338
 20
28.0898523928
 11
-87.1501426365
 21
29.1576212304
  0
LINE
  5
5A4
100
AcDbEntity
  8
SUPERFICI
100
AcDbLine
 62
250
  6
CONTINUOUS
 10
-87.1572257342
 20
31.1867049453
 11
-86.5927369932
 21
33.915224822
  0
LINE
  5
5A5
100
AcDbEntity
  8
SUPERFICI
100
AcDbLine
 62
250
  6
CONTINUOUS
 10
-87.1501426365
 20
29.1576212304
 11
-86.701392535
 21
31.3010159927
  0
LINE
  5
5A6
100
AcDbEntity
  8
SUPERFICI
100
AcDbLine
 62
250
  6
CONTINUOUS
 10
-86.0827381597
 20
33.0715261086
 11
-86.3476157544
 21
31.8042991049
  0
LINE
  5
5A7
100
AcDbEntity
  8
SUPERFICI
100
AcDbLine
 62
250
  6
CONTINUOUS
 10
-87.1559095183
 20
28.0777540613
 11
-87.3725353436
 21
27.059496935
  0
LWPOLYLINE
  5
5A8
100
AcDbEntity
  8
SUPERFICI
100
AcDbPolyline
 62
7
  6
CONTINUOUS
 90
5
 70
0
 10
-88.2294293953
 20
25.7247017414
 10
-88.2302187465
 20
25.7210421901
 10
-88.2302076585
 20
25.7209677672
 10
-88.2301956508
 20
25.7205956255
 10
-88.2301824155
 20
25.7198562154
  0
LINE
  5
5A9
100
AcDbEntity
  8
SUPERFICI
100
AcDbLine
 62
250
  6
CONTINUOUS
 10
-86.3476157544
 20
31.8042991049
 11
-86.5935255621
 21
30.6566927707
  0
LWPOLYLINE
  5
5AA
100
AcDbEntity
  8
SUPERFICI
100
AcDbPolyline
 62
250
  6
CONTINUOUS
 90
3
 70
0
 10
-85.5607567067
 20
38.2323983777
 10
-85.6096217177
 20
38.0077260266
 10
-85.7043519895
 20
37.5614075786
  0
LINE
  5
5AB
100
AcDbEntity
  8
SUPERFICI
100
AcDbLine
 62
250
  6
CONTINUOUS
 10
-86.5935255621
 20
30.6566927707
 11
-87.1559095183
 21
28.0777540613
  0
LINE
  5
5AC
100
AcDbEntity
  8
SUPERFICI
100
AcDbLine
 62
250
  6
CONTINUOUS
 10
-85.6523038859
 20
23.9588481942
 11
-85.4594195838
 21
24.6148065375
  0
LINE
  5
5AD
100
AcDbEntity
  8
SUPERFICI
100
AcDbLine
 62
250
  6
CONTINUOUS
 10
-85.8380674991
 20
23.3392708283
 11
-85.6523038859
 21
23.9588481942
  0
LWPOLYLINE
  5
5AE
100
AcDbEntity
  8
SUPERFICI
100
AcDbPolyline
 62
250
  6
CONTINUOUS
 90
10
 70
0
 10
-87.4763036531
 20
18.2420506074
 10
-87.5912178764
 20
17.8626831576
 10
-87.6997963604
 20
17.4878186102
 10
-87.8011614896
 20
17.1210202459
 10
-87.8943037331
 20
16.766418183
 10
-87.9787901251
 20
16.4260346971
 10
-88.0545654665
 20
16.1000590183
 10
-88.1210518432
 20
15.7904509385
 10
-88.177342987
 20
15.5006804512
 10
-88.2227789588
 20
15.2332284157
  0
LINE
  5
5AF
100
AcDbEntity
  8
SUPERFICI
100
AcDbLine
 62
250
  6
CONTINUOUS
 10
-85.8380674991
 20
23.3392708283
 11
-86.0202959989
 21
22.7439038622
  0
LINE
  5
5B0
100
AcDbEntity
  8
SUPERFICI
100
AcDbLine
 62
250
  6
CONTINUOUS
 10
-86.0202959989
 20
22.7439038622
 11
-86.2193058296
 21
22.1073975798
  0
LWPOLYLINE
  5
5B1
100
AcDbEntity
  8
SUPERFICI
100
AcDbPolyline
 62
250
  6
CONTINUOUS
 90
3
 70
0
 10
-87.2775326067
 20
18.8709155125
 10
-87.378101223
 20
18.5558156981
 10
-87.4763036531
 20
18.2420506074
  0
LINE
  5
5B2
100
AcDbEntity
  8
SUPERFICI
100
AcDbLine
 62
250
  6
CONTINUOUS
 10
-86.2193058296
 20
22.1073975798
 11
-86.4151006186
 21
21.4946335884
  0
LINE
  5
5B3
100
AcDbEntity
  8
SUPERFICI
100
AcDbLine
 62
250
  6
CONTINUOUS
 10
-86.4151006186
 20
21.4946335884
 11
-86.6062503427
 21
20.9073599806
  0
LINE
  5
5B4
100
AcDbEntity
  8
SUPERFICI
100
AcDbLine
 62
250
  6
CONTINUOUS
 10
-87.0675158732
 20
19.5143520029
 11
-87.2775326067
 21
18.8709155125
  0
LINE
  5
5B5
100
AcDbEntity
  8
SUPERFICI
100
AcDbLine
 62
250
  6
CONTINUOUS
 10
-86.6062503427
 20
20.9073599806
 11
-87.0675158732
 21
19.5143520029
  0
LWPOLYLINE
  5
5B6
100
AcDbEntity
  8
SUPERFICI
100
AcDbPolyline
 62
250
  6
CONTINUOUS
 90
5
 70
0
 10
-86.6062503427
 20
-20.9073599806
 10
-87.1742396148
 20
-19.1893558615
 10
-87.2775326067
 20
-18.8709155125
 10
-87.378101223
 20
-18.5558156981
 10
-87.4763036531
 20
-18.2420506074
  0
LINE
  5
5B7
100
AcDbEntity
  8
SUPERFICI
100
AcDbLine
 62
250
  6
CONTINUOUS
 10
-86.4151006186
 20
-21.4946335884
 11
-86.6062503427
 21
-20.9073599806
  0
LINE
  5
5B8
100
AcDbEntity
  8
SUPERFICI
100
AcDbLine
 62
250
  6
CONTINUOUS
 10
-86.2193058296
 20
-22.1073975798
 11
-86.4151006186
 21
-21.4946335884
  0
LINE
  5
5B9
100
AcDbEntity
  8
SUPERFICI
100
AcDbLine
 62
250
  6
CONTINUOUS
 10
-86.0202959989
 20
-22.7439038622
 11
-86.2193058296
 21
-22.1073975798
  0
LINE
  5
5BA
100
AcDbEntity
  8
SUPERFICI
100
AcDbLine
 62
250
  6
CONTINUOUS
 10
-85.8383918386
 20
-23.338198919
 11
-86.0202959989
 21
-22.7439038622
  0
LINE
  5
5BB
100
AcDbEntity
  8
SUPERFICI
100
AcDbLine
 62
250
  6
CONTINUOUS
 10
-85.6541728781
 20
-23.9524151968
 11
-85.8383918386
 21
-23.338198919
  0
LINE
  5
5BC
100
AcDbEntity
  8
SUPERFICI
100
AcDbLine
 62
250
  6
CONTINUOUS
 10
-85.4655644238
 20
-24.593732649
 11
-85.6541728781
 21
-23.9524151968
  0
LINE
  5
5BD
100
AcDbEntity
  8
SUPERFICI
100
AcDbLine
 62
250
  6
CONTINUOUS
 10
-86.4808000112
 20
-31.1792575273
 11
-87.1559095183
 21
-28.0777540613
  0
LINE
  5
5BE
100
AcDbEntity
  8
SUPERFICI
100
AcDbLine
 62
250
  6
CONTINUOUS
 10
-85.5607567067
 20
-38.2323983777
 11
-85.6574636792
 21
-37.7841735341
  0
LWPOLYLINE
  5
5BF
100
AcDbEntity
  8
SUPERFICI
100
AcDbPolyline
 62
250
  6
CONTINUOUS
 90
3
 70
0
 10
-87.1559095183
 20
-28.0777540613
 10
-87.3725353436
 20
-27.059496935
 10
-87.4763036531
 20
-26.5562558118
  0
LINE
  5
5C0
100
AcDbEntity
  8
SUPERFICI
100
AcDbLine
 62
250
  6
CONTINUOUS
 10
-85.4449417046
 20
-39.0342986846
 11
-85.4442954554
 21
-39.0373750603
  0
LINE
  5
5C1
100
AcDbEntity
  8
SUPERFICI
100
AcDbLine
 62
250
  6
CONTINUOUS
 10
-86.215206518
 20
-32.4339705254
 11
-86.4808000112
 21
-31.1792575273
  0
LINE
  5
5C2
100
AcDbEntity
  8
SUPERFICI
100
AcDbLine
 62
250
  6
CONTINUOUS
 10
-85.6574636792
 20
-37.7841735341
 11
-85.7503162514
 21
-37.3392957335
  0
LINE
  5
5C3
100
AcDbEntity
  8
SUPERFICI
100
AcDbLine
 62
250
  6
CONTINUOUS
 10
-86.5902286416
 20
-31.8412573862
 11
-87.2613562992
 21
-28.6224737452
  0
LWPOLYLINE
  5
5C4
100
AcDbEntity
  8
SUPERFICI
100
AcDbPolyline
 62
250
  6
CONTINUOUS
 90
3
 70
0
 10
-87.2613562992
 20
-28.6224737452
 10
-87.3704280034
 20
-28.0897538842
 10
-87.4763036532
 20
-27.5608043266
  0
LINE
  5
5C5
100
AcDbEntity
  8
SUPERFICI
100
AcDbLine
 62
250
  6
CONTINUOUS
 10
-85.8834978261
 20
-34.0428963753
 11
-86.215206518
 21
-32.4339705254
  0
LWPOLYLINE
  5
5C6
100
AcDbEntity
  8
SUPERFICI
100
AcDbPolyline
 62
250
  6
CONTINUOUS
 90
3
 70
0
 10
-87.2566848455
 20
-29.5731775464
 10
-87.3680388637
 20
-29.0265918484
 10
-87.4763036531
 20
-28.4816778921
  0
LINE
  5
5C7
100
AcDbEntity
  8
SUPERFICI
100
AcDbLine
 62
250
  6
CONTINUOUS
 10
-86.0915456085
 20
-36.4028645499
 11
-86.2230776035
 21
-35.7619269728
  0
LWPOLYLINE
  5
5C8
100
AcDbEntity
  8
SUPERFICI
100
AcDbPolyline
 62
250
  6
CONTINUOUS
 90
3
 70
0
 10
-85.7503162514
 20
-37.3392957335
 10
-85.8397922131
 20
-36.8955924656
 10
-85.8834978261
 20
-36.673112955
  0
LINE
  5
5C9
100
AcDbEntity
  8
SUPERFICI
100
AcDbLine
 62
250
  6
CONTINUOUS
 10
-86.4138357754
 20
-32.7176117925
 11
-86.5902286416
 21
-31.8412573862
  0
LINE
  5
5CA
100
AcDbEntity
  8
SUPERFICI
100
AcDbLine
 62
7
  6
CONTINUOUS
 10
-87.3829724787
 20
-32.0450287274
 11
-87.344202626
 21
-32.23844171
  0
LINE
  5
5CB
100
AcDbEntity
  8
SUPERFICI
100
AcDbLine
 62
250
  6
CONTINUOUS
 10
-85.4717083016
 20
-36.0895000588
 11
-85.8834978261
 21
-34.0428963753
  0
LINE
  5
5CC
100
AcDbEntity
  8
SUPERFICI
100
AcDbLine
 62
250
  6
CONTINUOUS
 10
-86.2230776035
 20
-35.7619269728
 11
-86.5927369932
 21
-33.915224822
  0
LWPOLYLINE
  5
5CD
100
AcDbEntity
  8
SUPERFICI
100
AcDbPolyline
 62
250
  6
CONTINUOUS
 90
10
 70
0
 10
-87.4763036532
 20
-27.5608043266
 10
-87.5724633361
 20
-27.0674949197
 10
-87.6646808649
 20
-26.5820460481
 10
-87.7532561546
 20
-26.1026213079
 10
-87.8386882293
 20
-25.62626696
 10
-87.9211279893
 20
-25.1519482668
 10
-88.0004528411
 20
-24.6804410412
 10
-88.076945985
 20
-24.2104148213
 10
-88.1512223489
 20
-23.7385384623
 10
-88.2237328449
 20
-23.2624446145
  0
LWPOLYLINE
  5
5CE
100
AcDbEntity
  8
SUPERFICI
100
AcDbPolyline
 62
250
  6
CONTINUOUS
 90
4
 70
0
 10
-87.4763036531
 20
-29.5841011634
 10
-87.3736117845
 20
-30.1131632665
 10
-87.2669022745
 20
-30.6478993692
 10
-86.5927369932
 20
-33.915224822
  0
LINE
  5
5CF
100
AcDbEntity
  8
SUPERFICI
100
AcDbLine
 62
250
  6
CONTINUOUS
 10
-87.4763036531
 20
-28.4816778921
 11
-87.5733584342
 21
-27.978093542
  0
LINE
  5
5D0
100
AcDbEntity
  8
SUPERFICI
100
AcDbLine
 62
250
  6
CONTINUOUS
 10
-86.1486085485
 20
-34.0801542582
 11
-86.4138357754
 21
-32.7176117925
  0
LWPOLYLINE
  5
5D1
100
AcDbEntity
  8
SUPERFICI
100
AcDbPolyline
 62
250
  6
CONTINUOUS
 90
8
 70
0
 10
-87.4763036531
 20
-30.7515950091
 10
-87.3769463137
 20
-31.267595944
 10
-87.273341252
 20
-31.7835909028
 10
-87.1661639496
 20
-32.2985658079
 10
-87.0562967476
 20
-32.8105672145
 10
-86.9442258295
 20
-33.3195186832
 10
-86.8300090059
 20
-33.8271471953
 10
-86.5974684116
 20
-34.8356575758
  0
LINE
  5
5D2
100
AcDbEntity
  8
SUPERFICI
100
AcDbLine
 62
250
  6
CONTINUOUS
 10
-85.4471045699
 20
-39.0231796922
 11
-85.4449417046
 21
-39.0342986846
  0
LINE
  5
5D3
100
AcDbEntity
  8
SUPERFICI
100
AcDbLine
 62
250
  6
CONTINUOUS
 10
-85.4684441931
 20
-37.6006603655
 11
-85.8834978261
 21
-35.4617692735
  0
LINE
  5
5D4
100
AcDbEntity
  8
SUPERFICI
100
AcDbLine
 62
250
  6
CONTINUOUS
 10
-85.9526796536
 20
-36.312619919
 11
-85.8834978261
 21
-36.673112955
  0
LINE
  5
5D5
100
AcDbEntity
  8
SUPERFICI
100
AcDbLine
 62
250
  6
CONTINUOUS
 10
-85.8834978261
 20
-35.4617692735
 11
-86.1486085485
 21
-34.0801542582
  0
LWPOLYLINE
  5
5D6
100
AcDbEntity
  8
SUPERFICI
100
AcDbPolyline
 62
250
  6
CONTINUOUS
 90
5
 70
0
 10
-86.4808000112
 20
-33.4112762543
 10
-86.5859973938
 20
-32.8598938951
 10
-86.6943547072
 20
-32.3089635309
 10
-86.8051325455
 20
-31.7590096257
 10
-87.2566848455
 20
-29.5731775464
  0
LINE
  5
5D7
100
AcDbEntity
  8
SUPERFICI
100
AcDbLine
 62
7
  6
CONTINUOUS
 10
-87.4848148321
 20
-31.5174045159
 11
-87.4400724893
 21
-31.7526919938
  0
LWPOLYLINE
  5
5D8
100
AcDbEntity
  8
SUPERFICI
100
AcDbPolyline
 62
250
  6
CONTINUOUS
 90
3
 70
0
 10
-87.4763036531
 20
-29.5841011634
 10
-87.5732359399
 20
-29.0686736792
 10
-87.6661405846
 20
-28.5590599845
  0
LINE
  5
5D9
100
AcDbEntity
  8
SUPERFICI
100
AcDbLine
 62
250
  6
CONTINUOUS
 10
-87.5733584342
 20
-27.978093542
 11
-87.6662567248
 21
-27.4817959009
  0
LWPOLYLINE
  5
5DA
100
AcDbEntity
  8
0
100
AcDbPolyline
 62
250
  6
CONTINUOUS
 90
6
 70
0
 10
-87.4763036531
 20
-30.7515950091
 10
-87.554938799
 20
-30.3259444428
 10
-87.6307230261
 20
-29.9001424229
 10
-87.7037505624
 20
-29.4736899009
 10
-87.7741156569
 20
-29.0460877173
 10
-87.8419125798
 20
-28.6168366021
  0
LINE
  5
5DB
100
AcDbEntity
  8
SUPERFICI
100
AcDbLine
 62
250
  6
CONTINUOUS
 10
-86.0880995561
 20
-35.5816627828
 11
-85.9526796536
 21
-36.312619919
  0
LINE
  5
5DC
100
AcDbEntity
  8
SUPERFICI
100
AcDbLine
 62
7
  6
CONTINUOUS
 10
-87.5221559938
 20
-31.3150235847
 11
-87.4848148321
 21
-31.5174045159
  0
LINE
  5
5DD
100
AcDbEntity
  8
SUPERFICI
100
AcDbLine
 62
7
  6
CONTINUOUS
 10
-87.4763036531
 20
-31.5626824861
 11
-87.5902854262
 21
-30.9355944248
  0
LINE
  5
5DE
100
AcDbEntity
  8
SUPERFICI
100
AcDbLine
 62
250
  6
CONTINUOUS
 10
-86.4808000112
 20
-33.4112762543
 11
-86.3496291259
 21
-34.126561657
  0
LINE
  5
5DF
100
AcDbEntity
  8
SUPERFICI
100
AcDbLine
 62
250
  6
CONTINUOUS
 10
-87.6662567248
 20
-27.4817959009
 11
-87.7553112156
 21
-26.9907456389
  0
LWPOLYLINE
  5
5E0
100
AcDbEntity
  8
SUPERFICI
100
AcDbPolyline
 62
250
  6
CONTINUOUS
 90
3
 70
0
 10
-85.4512488187
 20
-39.0034431954
 10
-85.4503414802
 20
-39.0084969252
 10
-85.4498471565
 20
-39.012209402
  0
LINE
  5
5E1
100
AcDbEntity
  8
SUPERFICI
100
AcDbLine
 62
250
  6
CONTINUOUS
 10
-86.3496291259
 20
-34.126561657
 11
-86.0880995561
 21
-35.5816627828
  0
LINE
  5
5E2
100
AcDbEntity
  8
SUPERFICI
100
AcDbLine
 62
250
  6
CONTINUOUS
 10
-87.6661405846
 20
-28.5590599845
 11
-87.7553174963
 21
-28.0532783889
  0
LINE
  5
5E3
100
AcDbEntity
  8
SUPERFICI
100
AcDbLine
 62
250
  6
CONTINUOUS
 10
-87.7553112156
 20
-26.9907456389
 11
-87.8410829072
 21
-26.5014758982
  0
LINE
  5
5E4
100
AcDbEntity
  8
SUPERFICI
100
AcDbLine
 62
7
  6
CONTINUOUS
 10
-87.6046684171
 20
-30.8478275225
 11
-87.5628909109
 21
-31.0880259852
  0
LINE
  5
5E5
100
AcDbEntity
  8
SUPERFICI
100
AcDbLine
 62
250
  6
CONTINUOUS
 10
-87.7553174963
 20
-28.0532783889
 11
-87.841275583
 21
-27.5481088664
  0
LWPOLYLINE
  5
5E6
100
AcDbEntity
  8
SUPERFICI
100
AcDbPolyline
 62
250
  6
CONTINUOUS
 90
3
 70
0
 10
-87.8410829072
 20
-26.5014758982
 10
-87.9237001587
 20
-26.0129548874
 10
-88.002958081
 20
-25.5264672339
  0
LINE
  5
5E7
100
AcDbEntity
  8
SUPERFICI
100
AcDbLine
 62
7
  6
CONTINUOUS
 10
-87.586720409
 20
-30.9521379774
 11
-87.6982800026
 21
-30.290050071
  0
LINE
  5
5E8
100
AcDbEntity
  8
SUPERFICI
100
AcDbLine
 62
250
  6
CONTINUOUS
 10
-87.841275583
 20
-27.5481088664
 11
-87.924156435
 21
-27.0424601787
  0
LINE
  5
5E9
100
AcDbEntity
  8
SUPERFICI
100
AcDbLine
 62
250
  6
CONTINUOUS
 10
-87.924156435
 20
-27.0424601787
 11
-88.0038145936
 21
-26.5373061823
  0
LWPOLYLINE
  5
5EA
100
AcDbEntity
  8
SUPERFICI
100
AcDbPolyline
 62
250
  6
CONTINUOUS
 90
4
 70
0
 10
-88.002958081
 20
-25.5264672339
 10
-88.0791587498
 20
-25.0406326846
 10
-88.1530126602
 20
-24.551520403
 10
-88.2250262002
 20
-24.0564348734
  0
LINE
  5
5EB
100
AcDbEntity
  8
SUPERFICI
100
AcDbLine
 62
7
  6
CONTINUOUS
 10
-87.726634011
 20
-30.0996885783
 11
-87.6566727736
 21
-30.5377596598
  0
LWPOLYLINE
  5
5EC
100
AcDbEntity
  8
SUPERFICI
100
AcDbPolyline
 62
250
  6
CONTINUOUS
 90
10
 70
0
 10
-88.2230354702
 20
-22.3711064406
 10
-88.1515096781
 20
-22.8325163775
 10
-88.0777005922
 20
-23.2915767991
 10
-88.0013336353
 20
-23.7498148345
 10
-87.9221052319
 20
-24.2089282701
 10
-87.839790637
 20
-24.6701568663
 10
-87.7542603327
 20
-25.134260263
 10
-87.6653306389
 20
-25.6023559531
 10
-87.5727470711
 20
-26.0759425879
 10
-87.4763036531
 20
-26.5562558118
  0
LINE
  5
5ED
100
AcDbEntity
  8
SUPERFICI
100
AcDbLine
 62
7
  6
CONTINUOUS
 10
-87.6916818554
 20
-30.3222449604
 11
-87.7993911671
 21
-29.6334266514
  0
LINE
  5
5EE
100
AcDbEntity
  8
SUPERFICI
100
AcDbLine
 62
250
  6
CONTINUOUS
 10
-88.0038145936
 20
-26.5373061823
 11
-88.0805320427
 21
-26.0313155722
  0
LINE
  5
5EF
100
AcDbEntity
  8
0
100
AcDbLine
 62
250
  6
CONTINUOUS
 10
-87.8419125798
 20
-28.6168366021
 11
-87.9072356219
 21
-28.1854371745
  0
LWPOLYLINE
  5
5F0
100
AcDbEntity
  8
0
100
AcDbPolyline
 62
250
  6
CONTINUOUS
 90
6
 70
0
 10
-87.8451114851
 20
-29.1140791727
 10
-87.7768047619
 20
-29.5809148785
 10
-87.705674232
 20
-30.0391822865
 10
-87.6318163466
 20
-30.4883700276
 10
-87.555327425
 20
-30.92796751
 10
-87.4763036531
 20
-31.3574649338
  0
LINE
  5
5F1
100
AcDbEntity
  8
SUPERFICI
100
AcDbLine
 62
250
  6
CONTINUOUS
 10
-88.0805320427
 20
-26.0313155722
 11
-88.1549385268
 21
-25.5209125045
  0
LINE
  5
5F2
100
AcDbEntity
  8
SUPERFICI
100
AcDbLine
 62
7
  6
CONTINUOUS
 10
-87.8105781941
 20
-29.5385720157
 11
-87.7742060397
 21
-29.7867922478
  0
LINE
  5
5F3
100
AcDbEntity
  8
SUPERFICI
100
AcDbLine
 62
7
  6
CONTINUOUS
 10
-87.7906014091
 20
-29.6774986371
 11
-87.8924839089
 21
-28.9750718054
  0
LINE
  5
5F4
100
AcDbEntity
  8
SUPERFICI
100
AcDbLine
 62
250
  6
CONTINUOUS
 10
-88.1549385268
 20
-25.5209125045
 11
-88.2274906368
 21
-25.0036036029
  0
LINE
  5
5F5
100
AcDbEntity
  8
0
100
AcDbLine
 62
250
  6
CONTINUOUS
 10
-87.9104978204
 20
-28.639187302
 11
-87.8451114851
 21
-29.1140791727
  0
LINE
  5
5F6
100
AcDbEntity
  8
0
100
AcDbLine
 62
7
  6
CONTINUOUS
 10
-87.8919919399
 20
-28.2980675892
 11
-87.8237643003
 21
-28.7905517294
  0
LINE
  5
5F7
100
AcDbEntity
  8
0
100
AcDbLine
 62
7
  6
CONTINUOUS
 10
-87.836515721
 20
-28.7905587294
 11
-87.9134408976
 21
-28.2277345786
  0
LINE
  5
5F8
100
AcDbEntity
  8
SUPERFICI
100
AcDbLine
 62
7
  6
CONTINUOUS
 10
-87.8950352879
 20
-28.928408875
 11
-87.862140552
 21
-29.1720577841
  0
LINE
  5
5F9
100
AcDbEntity
  8
0
100
AcDbLine
 62
7
  6
CONTINUOUS
 10
-87.9598318484
 20
-27.7916307275
 11
-87.8919919399
 21
-28.2980675892
  0
LINE
  5
5FA
100
AcDbEntity
  8
0
100
AcDbLine
 62
7
  6
CONTINUOUS
 10
-87.9849537556
 20
-27.5994543964
 11
-87.9598318484
 21
-27.7916307275
  0
LINE
  5
5FB
100
AcDbEntity
  8
0
100
AcDbLine
 62
7
  6
CONTINUOUS
 10
-87.9134408976
 20
-28.2277345786
 11
-87.9866785203
 21
-27.6692087294
  0
LINE
  5
5FC
100
AcDbEntity
  8
SUPERFICI
100
AcDbLine
 62
7
  6
CONTINUOUS
 10
-87.8829271834
 20
-29.0223587687
 11
-87.8950110104
 21
-28.9285923572
  0
LINE
  5
5FD
100
AcDbEntity
  8
0
100
AcDbLine
 62
7
  6
CONTINUOUS
 10
-88.1245866847
 20
-26.2042150687
 11
-88.1107100235
 21
-26.3213122138
  0
LINE
  5
5FE
100
AcDbEntity
  8
SUPERFICI
100
AcDbLine
 62
7
  6
CONTINUOUS
 10
-88.2302245394
 20
-25.7209966356
 11
-88.223623977
 21
-25.7768701166
  0
LINE
  5
5FF
100
AcDbEntity
  8
0
100
AcDbLine
 62
7
  6
CONTINUOUS
 10
-88.1385078961
 20
-26.4885607839
 11
-88.2083229877
 21
-25.8904287294
  0
LINE
  5
600
100
AcDbEntity
  8
0
100
AcDbLine
 62
250
  6
CONTINUOUS
 10
-88.2161090641
 20
-25.8417372478
 11
-88.2300855041
 21
-25.7209427392
  0
LINE
  5
601
100
AcDbEntity
  8
0
100
AcDbLine
 62
7
  6
CONTINUOUS
 10
-88.2300855041
 20
-25.7209427392
 11
-88.2302840077
 21
-25.719216141
  0
LINE
  5
602
100
AcDbEntity
  8
0
100
AcDbLine
 62
7
  6
CONTINUOUS
 10
-88.1107100235
 20
-26.3213122138
 11
-88.0957317405
 21
-26.4539523056
  0
LINE
  5
603
100
AcDbEntity
  8
0
100
AcDbLine
 62
7
  6
CONTINUOUS
 10
-88.0957317405
 20
-26.4539523056
 11
-88.0658126349
 21
-26.742705389
  0
LINE
  5
604
100
AcDbEntity
  8
0
100
AcDbLine
 62
7
  6
CONTINUOUS
 10
-88.0658126349
 20
-26.742705389
 11
-88.0370723005
 21
-27.0323440097
  0
LINE
  5
605
100
AcDbEntity
  8
0
100
AcDbLine
 62
7
  6
CONTINUOUS
 10
-88.0370723005
 20
-27.0323440097
 11
-88.0036491174
 21
-27.3840518794
  0
LWPOLYLINE
  5
606
100
AcDbEntity
  8
0
100
AcDbPolyline
 62
7
  6
CONTINUOUS
 90
3
 70
0
 10
-88.0036491174
 20
-27.3840518794
 10
-87.9895491183
 20
-27.5441793294
 10
-87.9849537556
 20
-27.5994543964
  0
LINE
  5
607
100
AcDbEntity
  8
SUPERFICI
100
AcDbLine
 62
7
  6
CONTINUOUS
 10
-88.2164128863
 20
-25.890629499
 11
-88.2256229763
 21
-25.7770321888
  0
LINE
  5
608
100
AcDbEntity
  8
SUPERFICI
100
AcDbLine
 62
7
  6
CONTINUOUS
 10
-89.0203523863
 20
23.5323463464
 11
-89.0203667178
 21
23.5327973057
  0
LINE
  5
609
100
AcDbEntity
  8
SUPERFICI
100
AcDbLine
 62
7
  6
CONTINUOUS
 10
-89.0204220658
 20
23.5347128476
 11
-89.0202957601
 21
23.5279823234
  0
LWPOLYLINE
  5
60A
100
AcDbEntity
  8
SUPERFICI
100
AcDbPolyline
 62
7
  6
CONTINUOUS
 90
3
 70
0
 10
-89.0181858444
 20
-23.4934929163
 10
-89.0160141224
 20
-23.6581920233
 10
-88.981863433
 20
-23.8357775107
  0
LINE
  5
60B
100
AcDbEntity
  8
SUPERFICI
100
AcDbLine
 62
7
  6
CONTINUOUS
 10
-89.0202957601
 20
23.5279823234
 11
-89.0199413542
 21
23.5017509456
  0
LINE
  5
60C
100
AcDbEntity
  8
SUPERFICI
100
AcDbLine
 62
7
  6
CONTINUOUS
 10
-89.0199413542
 20
23.5017509456
 11
-89.0189287945
 21
23.3821139452
  0
LINE
  5
60D
100
AcDbEntity
  8
SUPERFICI
100
AcDbLine
 62
250
  6
CONTINUOUS
 10
-88.8252861291
 20
-22.1392525329
 11
-88.8191691217
 21
-24.1588090258
  0
LINE
  5
60E
100
AcDbEntity
  8
SUPERFICI
100
AcDbLine
 62
7
  6
CONTINUOUS
 10
-88.2299174744
 20
25.6761623486
 11
-88.2233222549
 21
22.8715730689
  0
LINE
  5
60F
100
AcDbEntity
  8
SUPERFICI
100
AcDbLine
 62
7
  6
CONTINUOUS
 10
-89.0189287945
 20
23.3821139452
 11
-89.0167740555
 21
-22.1680847708
  0
LINE
  5
610
100
AcDbEntity
  8
SUPERFICI
100
AcDbLine
 62
7
  6
CONTINUOUS
 10
-88.2233222549
 20
22.8715730689
 11
-88.2224015716
 21
-21.3184546612
  0
LINE
  5
611
100
AcDbEntity
  8
SUPERFICI
100
AcDbLine
 62
250
  6
CONTINUOUS
 10
-88.8212081242
 20
24.1581205668
 11
-88.8253405021
 21
-22.1392525325
  0
LINE
  5
612
100
AcDbEntity
  8
SUPERFICI
100
AcDbLine
 62
7
  6
CONTINUOUS
 10
-88.2298540312
 20
-25.722034741
 11
-88.2224015716
 21
-21.3184546612
  0
LINE
  5
613
100
AcDbEntity
  8
SUPERFICI
100
AcDbLine
 62
7
  6
CONTINUOUS
 10
-89.0141497232
 20
-22.1677920632
 11
-89.0191342002
 21
-23.4112663353
  0
LINE
  5
614
100
AcDbEntity
  8
SUPERFICI
100
AcDbLine
 62
7
  6
CONTINUOUS
 10
-89.0191342002
 20
-23.4112663353
 11
-89.0200030292
 21
-23.5069730131
  0
LWPOLYLINE
  5
615
100
AcDbEntity
  8
SUPERFICI
100
AcDbPolyline
 62
7
  6
CONTINUOUS
 90
3
 70
0
 10
-89.0200030292
 20
-23.5069730131
 10
-89.0203398441
 20
-23.5305338332
 10
-89.0203628157
 20
-23.5317858751
  0
LINE
  5
616
100
AcDbEntity
  8
SUPERFICI
100
AcDbLine
 62
7
  6
CONTINUOUS
 10
-88.1771040726
 20
26.3754646642
 11
-88.2298528882
 21
25.7248604276
  0
LINE
  5
617
100
AcDbEntity
  8
SUPERFICI
100
AcDbLine
 62
250
  6
CONTINUOUS
 10
-88.1700362304
 20
26.3746848371
 11
-88.2295750374
 21
25.7247563177
  0
LWPOLYLINE
  5
618
100
AcDbEntity
  8
SUPERFICI
100
AcDbPolyline
 62
7
  6
CONTINUOUS
 90
3
 70
0
 10
-88.2294257194
 20
25.724700364
 10
-88.2480825947
 20
25.5407785621
 10
-88.2790192751
 20
25.3565875887
  0
LWPOLYLINE
  5
619
100
AcDbEntity
  8
SUPERFICI
100
AcDbPolyline
 62
250
  6
CONTINUOUS
 90
10
 70
0
 10
-88.2227789589
 20
-15.2332274103
 10
-88.1773478129
 20
-15.5006829721
 10
-88.1210702092
 20
-15.7904488438
 10
-88.0546016303
 20
-16.1000425063
 10
-87.9788462523
 20
-16.4259811923
 10
-87.8943746242
 20
-16.7663154014
 10
-87.8012310732
 20
-17.1208929117
 10
-87.6998485785
 20
-17.4877061114
 10
-87.591244852
 20
-17.8626134406
 10
-87.4763036531
 20
-18.2420506074
  0
LWPOLYLINE
  5
61A
100
AcDbEntity
  8
SUPERFICI
100
AcDbPolyline
 62
7
  6
CONTINUOUS
 90
6
 70
0
 10
-89.018219396
 20
23.4939321416
 10
-89.0168507436
 20
23.474511773
 10
-88.983984641
 20
23.293874416
 10
-88.9190010699
 20
23.1224062464
 10
-88.8240948846
 20
22.9653865659
 10
-88.7020877222
 20
22.8279752338
  0
LWPOLYLINE
  5
61B
100
AcDbEntity
  8
SUPERFICI
100
AcDbPolyline
 62
250
  6
CONTINUOUS
 90
4
 70
0
 10
-85.4485754491
 20
-39.0194369676
 10
-85.4486828243
 20
-39.0156137547
 10
-85.4478837251
 20
-39.019320145
 10
-85.4471045699
 20
-39.0231796922
  0
LINE
  5
61C
100
AcDbEntity
  8
SUPERFICI
100
AcDbLine
 62
7
  6
CONTINUOUS
 10
-88.2301824155
 20
25.7198562154
 11
-88.2299174744
 21
25.6761623486
  0
LINE
  5
61D
100
AcDbEntity
  8
SUPERFICI
100
AcDbLine
 62
250
  6
CONTINUOUS
 10
-85.4685263156
 20
-37.5839292191
 11
-85.4595263461
 21
-38.687149363
  0
LWPOLYLINE
  5
61E
100
AcDbEntity
  8
SUPERFICI
100
AcDbPolyline
 62
250
  6
CONTINUOUS
 90
10
 70
0
 10
-85.4595263461
 20
-38.687149363
 10
-85.4594474257
 20
-38.7459721224
 10
-85.4591090044
 20
-38.7998034088
 10
-85.458536272
 20
-38.8481058907
 10
-85.4577635355
 20
-38.8902238686
 10
-85.4568120388
 20
-38.9257236764
 10
-85.4556932952
 20
-38.954221312
 10
-85.4544100535
 20
-38.9758358863
 10
-85.4529402558
 20
-38.9917477888
 10
-85.4512488187
 20
-39.0034431954
  0
LINE
  5
61F
100
AcDbEntity
  8
SUPERFICI
100
AcDbLine
 62
250
  6
CONTINUOUS
 10
-85.4695441372
 20
-37.170467502
 11
-85.4685263156
 21
-37.5839292191
  0
LINE
  5
620
100
AcDbEntity
  8
SUPERFICI
100
AcDbLine
 62
250
  6
CONTINUOUS
 10
-85.4510119426
 20
0.0
 11
-85.4655644238
 21
24.593732649
  0
LINE
  5
621
100
AcDbEntity
  8
SUPERFICI
100
AcDbLine
 62
7
  6
CONTINUOUS
 10
-87.4763036531
 20
-31.5623470493
 11
-87.4763036531
 21
-31.5624344878
  0
LINE
  5
622
100
AcDbEntity
  8
SUPERFICI
100
AcDbLine
 62
7
  6
CONTINUOUS
 10
-87.4763036531
 20
31.5623470492
 11
-87.4763036531
 21
31.562433029
  0
LINE
  5
623
100
AcDbEntity
  8
SUPERFICI
100
AcDbLine
 62
250
  6
CONTINUOUS
 10
-87.4763036531
 20
-31.5624344877
 11
-87.4763036531
 21
31.5624344877
  0
LINE
  5
624
100
AcDbEntity
  8
SUPERFICI
100
AcDbLine
 62
7
  6
CONTINUOUS
 10
-86.4808000112
 20
-35.7968673365
 11
-86.4808000112
 21
-35.7976539027
  0
LINE
  5
625
100
AcDbEntity
  8
SUPERFICI
100
AcDbLine
 62
7
  6
CONTINUOUS
 10
-86.4808000112
 20
35.7968673365
 11
-86.4808000112
 21
35.7976539027
  0
LINE
  5
626
100
AcDbEntity
  8
SUPERFICI
100
AcDbLine
 62
250
  6
CONTINUOUS
 10
-86.4808000112
 20
-35.7976543377
 11
-86.4808000112
 21
35.7976543377
  0
LINE
  5
627
100
AcDbEntity
  8
SUPERFICI
100
AcDbLine
 62
7
  6
CONTINUOUS
 10
-85.8834978261
 20
-37.6866984292
 11
-85.8834978261
 21
-37.7730730395
  0
LINE
  5
628
100
AcDbEntity
  8
SUPERFICI
100
AcDbLine
 62
7
  6
CONTINUOUS
 10
-85.8834978261
 20
37.6866984292
 11
-85.8834978261
 21
37.7730730395
  0
LINE
  5
629
100
AcDbEntity
  8
SUPERFICI
100
AcDbLine
 62
250
  6
CONTINUOUS
 10
-85.8834978261
 20
-37.6866984292
 11
-85.8834978261
 21
37.6866984292
  0
LINE
  5
62A
100
AcDbEntity
  8
SUPERFICI
100
AcDbLine
 62
250
  6
CONTINUOUS
 10
-85.4528376588
 20
0.0
 11
-85.4588368181
 21
-16.8315117464
  0
LINE
  5
62B
100
AcDbEntity
  8
SUPERFICI
100
AcDbLine
 62
250
  6
CONTINUOUS
 10
-85.4588368181
 20
-16.8315117464
 11
-85.4655644238
 21
-24.593732649
  0
LWPOLYLINE
  5
62C
100
AcDbEntity
  8
SUPERFICI
100
AcDbPolyline
 62
250
  6
CONTINUOUS
 90
10
 70
0
 10
-85.4595263461
 20
38.687149363
 10
-85.4594474257
 20
38.7459721224
 10
-85.4591090044
 20
38.7998034088
 10
-85.458536272
 20
38.8481058907
 10
-85.4577635355
 20
38.8902238686
 10
-85.4568120388
 20
38.9257236764
 10
-85.4556932952
 20
38.954221312
 10
-85.4544100535
 20
38.9758358863
 10
-85.4529402558
 20
38.9917477888
 10
-85.4512488187
 20
39.0034431954
  0
LINE
  5
62D
100
AcDbEntity
  8
SUPERFICI
100
AcDbLine
 62
250
  6
CONTINUOUS
 10
-85.4594195838
 20
-24.6148065375
 11
-85.465558008
 21
-32.4964336318
  0
LINE
  5
62E
100
AcDbEntity
  8
SUPERFICI
100
AcDbLine
 62
250
  6
CONTINUOUS
 10
-85.465558008
 20
-32.4964336318
 11
-85.4717083016
 21
-36.0895000588
  0
LINE
  5
62F
100
AcDbEntity
  8
SUPERFICI
100
AcDbLine
 62
250
  6
CONTINUOUS
 10
-85.4678471421
 20
-36.1081982255
 11
-85.4695441372
 21
-37.170467502
  0
LINE
  5
630
100
AcDbEntity
  8
SUPERFICI
100
AcDbLine
 62
250
  6
CONTINUOUS
 10
-85.4620450738
 20
24.6208600636
 11
-85.4688217558
 21
37.5163166668
  0
LINE
  5
631
100
AcDbEntity
  8
SUPERFICI
100
AcDbLine
 62
250
  6
CONTINUOUS
 10
-85.4688217558
 20
37.5163166668
 11
-85.4652026914
 21
38.0402169894
  0
LINE
  5
632
100
AcDbEntity
  8
SUPERFICI
100
AcDbLine
 62
250
  6
CONTINUOUS
 10
-85.4652026914
 20
38.0402169894
 11
-85.4595263461
 21
38.687149363
  0
LWPOLYLINE
  5
633
100
AcDbEntity
  8
SUPERFICI
100
AcDbPolyline
 62
250
  6
CONTINUOUS
 90
4
 70
0
 10
-85.4485754491
 20
39.0194369676
 10
-85.4486828243
 20
39.0156137547
 10
-85.4478837251
 20
39.019320145
 10
-85.4471045699
 20
39.0231796922
  0
LINE
  5
634
100
AcDbEntity
  8
SUPERFICI
100
AcDbLine
 62
7
  6
CONTINUOUS
 10
-84.5374728096
 20
-37.0327354781
 11
-84.5342066113
 21
-37.6292940192
  0
LINE
  5
635
100
AcDbEntity
  8
SUPERFICI
100
AcDbLine
 62
250
  6
CONTINUOUS
 10
-84.5342066113
 20
-37.6292940192
 11
-84.5270900536
 21
-39.2816797799
  0
LINE
  5
636
100
AcDbEntity
  8
SUPERFICI
100
AcDbLine
 62
250
  6
CONTINUOUS
 10
-84.5374726306
 20
37.0327354781
 11
-84.5409113598
 21
4.3782329703
  0
LINE
  5
637
100
AcDbEntity
  8
SUPERFICI
100
AcDbLine
 62
250
  6
CONTINUOUS
 10
-84.5409113598
 20
4.3782329703
 11
-84.5374726306
 21
-37.0327354781
  0
LINE
  5
638
100
AcDbEntity
  8
SUPERFICI
100
AcDbLine
 62
250
  6
CONTINUOUS
 10
-84.5270900536
 20
-39.2816797799
 11
-84.5274999227
 21
-39.485982196
  0
LINE
  5
639
100
AcDbEntity
  8
SUPERFICI
100
AcDbLine
 62
250
  6
CONTINUOUS
 10
-84.5270902011
 20
39.2812336736
 11
-84.5342066113
 21
37.6292940192
  0
LINE
  5
63A
100
AcDbEntity
  8
SUPERFICI
100
AcDbLine
 62
7
  6
CONTINUOUS
 10
-84.5342066113
 20
37.6292940192
 11
-84.5374728096
 21
37.0327354781
  0
LWPOLYLINE
  5
63B
100
AcDbEntity
  8
SUPERFICI
100
AcDbPolyline
 62
250
  6
CONTINUOUS
 90
4
 70
0
 10
-84.5274999227
 20
-39.485982196
 10
-84.5293746553
 20
-39.6350599016
 10
-84.5324474379
 20
-39.7256873883
 10
-84.5367182705
 20
-39.7559298907
  0
LINE
  5
63C
100
AcDbEntity
  8
0
100
AcDbLine
 62
7
  6
CONTINUOUS
 10
-82.4598015211
 20
-3.5
 11
-80.0598015211
 21
-3.7099727925
  0
LWPOLYLINE
  5
63D
100
AcDbEntity
  8
SUPERFICI
100
AcDbPolyline
 62
7
  6
CONTINUOUS
 90
5
 70
0
 10
-89.0141497231
 20
22.1677920606
 10
-89.013190284
 20
22.1640155988
 10
-88.9817157758
 20
22.1555874326
 10
-88.9186228711
 20
22.1473330908
 10
-88.8253405021
 20
22.1392525325
  0
LINE
  5
63E
100
AcDbEntity
  8
0
100
AcDbLine
 62
7
  6
CONTINUOUS
 10
-82.4598015211
 20
3.5
 11
-82.4598015211
 21
-3.5
  0
LINE
  5
63F
100
AcDbEntity
  8
0
100
AcDbLine
 62
7
  6
CONTINUOUS
 10
-80.0598015211
 20
-3.7099727925
 11
-80.0598015211
 21
-39.9905517294
  0
LINE
  5
640
100
AcDbEntity
  8
0
100
AcDbLine
 62
7
  6
CONTINUOUS
 10
-80.0598015211
 20
3.7099727925
 11
-80.0598015211
 21
39.9905517294
  0
LINE
  5
641
100
AcDbEntity
  8
0
100
AcDbLine
 62
7
  6
CONTINUOUS
 10
-79.8598015211
 20
38.9984673562
 11
-79.8598015211
 21
36.8424955229
  0
LINE
  5
642
100
AcDbEntity
  8
RACCORDO
100
AcDbLine
 62
7
  6
CONTINUOUS
 10
-79.8598015211
 20
-36.8424953033
 11
-79.8598015211
 21
-4.2031338449
  0
LINE
  5
643
100
AcDbEntity
  8
0
100
AcDbLine
 62
7
  6
CONTINUOUS
 10
-79.8598015211
 20
-36.8424953033
 11
-79.8598015211
 21
-38.9984671407
  0
LINE
  5
644
100
AcDbEntity
  8
RACCORDO
100
AcDbLine
 62
7
  6
CONTINUOUS
 10
-79.8598015211
 20
4.2031338449
 11
-79.8598015211
 21
36.8424955229
  0
LWPOLYLINE
  5
645
100
AcDbEntity
  8
0
100
AcDbPolyline
 62
7
  6
CONTINUOUS
 90
4
 70
0
 43
0.3500000006
 10
-99.5639658508
 20
-2.3571432495
 10
-100.421112854
 20
-2.3571432495
 10
-100.8496818237
 20
-1.9285708809
 10
-100.8496818237
 20
-1.2857140274
  0
LWPOLYLINE
  5
646
100
AcDbEntity
  8
0
100
AcDbPolyline
 62
7
  6
CONTINUOUS
 90
13
 70
0
 43
0.3500000006
 10
-99.9925438843
 20
-0.0000003204
 10
-101.2782507935
 20
-0.0000003204
 10
-101.7068288269
 20
0.2142864304
 10
-102.1353977966
 20
0.642857666
 10
-102.1353977966
 20
0.8571421509
 10
-101.7068288269
 20
1.2857133865
 10
-101.2782507935
 20
1.5000001373
 10
-99.9925438843
 20
1.5000001373
 10
-99.5639658508
 20
1.2857133865
 10
-99.1353968811
 20
0.8571421509
 10
-99.1353968811
 20
0.642857666
 10
-99.5639658508
 20
0.2142864304
 10
-99.9925438843
 20
-0.0000003204
  0
LINE
  5
647
100
AcDbEntity
  8
SUPERFICI
100
AcDbLine
 62
250
  6
CONTINUOUS
 10
-89.0165129497
 20
-0.0000056481
 11
-84.5418933626
 21
-0.0
  0
LWPOLYLINE
  5
648
100
AcDbEntity
  8
SUPERFICI
100
AcDbPolyline
 62
250
  6
CONTINUOUS
 90
5
 70
0
 10
-84.5367182705
 20
39.7559298907
 10
-84.5324467296
 20
39.7256425675
 10
-84.5293736774
 20
39.6349030952
 10
-84.5274991138
 20
39.4856813546
 10
-84.5270902011
 20
39.2812336736
  0
LINE
  5
649
100
AcDbEntity
  8
0
100
AcDbLine
 62
7
  6
CONTINUOUS
 10
-80.0598015211
 20
3.7099727925
 11
-82.4598015211
 21
3.5
  0
LWPOLYLINE
  5
64A
100
AcDbEntity
  8
SUPERFICI
100
AcDbPolyline
 62
250
  6
CONTINUOUS
 90
10
 70
0
 10
-88.2223499932
 20
-22.0488303276
 10
-88.2309350209
 20
-22.0594821358
 10
-88.2547679093
 20
-22.0700650021
 10
-88.2937864832
 20
-22.0805789475
 10
-88.3482083166
 20
-22.0911337463
 10
-88.4177854459
 20
-22.1016196762
 10
-88.5011141171
 20
-22.1117074701
 10
-88.5969863005
 20
-22.1212873389
 10
-88.7050791773
 20
-22.130469019
 10
-88.8247254534
 20
-22.1392524891
  0
LWPOLYLINE
  5
64B
100
AcDbEntity
  8
SUPERFICI
100
AcDbPolyline
 62
7
  6
CONTINUOUS
 90
5
 70
0
 10
-88.7031138307
 20
-22.8289378771
 10
-88.8248583949
 20
-22.9664252088
 10
-88.9195293916
 20
-23.1234934571
 10
-88.9843326577
 20
-23.2951280116
 10
-89.0181858444
 20
-23.4934929163
  0
LWPOLYLINE
  5
64C
100
AcDbEntity
  8
0
100
AcDbPolyline
 62
7
  6
CONTINUOUS
 90
10
 70
0
 43
0.3500000006
 10
-84.6527766724
 20
49.2405567169
 10
-84.5813454895
 20
49.0976988831
 10
-84.5813454895
 20
49.0262677002
 10
-84.7242078552
 20
48.8834143982
 10
-84.7956390381
 20
48.8834143982
 10
-84.8670611572
 20
48.9548410492
 10
-84.8670611572
 20
49.0262677002
 10
-84.7956390381
 20
49.1691255341
 10
-84.7242078552
 20
49.2405567169
 10
-84.6527766724
 20
49.2405567169
  0
LINE
  5
64D
100
AcDbEntity
  8
SUPERFICI
100
AcDbLine
 62
7
  6
CONTINUOUS
 10
-88.2302233616
 20
-25.724999247
 11
-88.2298528882
 21
-25.7248604276
  0
LINE
  5
64E
100
AcDbEntity
  8
SUPERFICI
100
AcDbLine
 62
250
  6
CONTINUOUS
 10
-88.8247254534
 20
22.1392524891
 11
-88.7050812667
 21
22.1304691937
  0
LWPOLYLINE
  5
64F
100
AcDbEntity
  8
SUPERFICI
100
AcDbPolyline
 62
250
  6
CONTINUOUS
 90
9
 70
0
 10
-88.7050812667
 20
22.1304691937
 10
-88.5969895652
 20
22.1212876484
 10
-88.5011177913
 20
22.1117078747
 10
-88.4177889352
 20
22.101620141
 10
-88.348211185
 20
22.0911342316
 10
-88.2937884675
 20
22.0805793981
 10
-88.2547689637
 20
22.0700653576
 10
-88.2309353352
 20
22.0594823411
 10
-88.2223499932
 20
22.0488303276
  0
LINE
  5
650
100
AcDbEntity
  8
SUPERFICI
100
AcDbLine
 62
7
  6
CONTINUOUS
 10
-88.2302233616
 20
25.724999247
 11
-88.2298528882
 21
25.7248604276
  0
LINE
  5
651
100
AcDbEntity
  8
SUPERFICI
100
AcDbLine
 62
7
  6
CONTINUOUS
 10
-84.8129940579
 20
39.702149139
 11
-84.6784392131
 21
39.7386400864
  0
LWPOLYLINE
  5
652
100
AcDbEntity
  8
SUPERFICI
100
AcDbPolyline
 62
7
  6
CONTINUOUS
 90
4
 70
0
 10
-84.6481765453
 20
39.7442050434
 10
-84.6963131378
 20
39.7351240426
 10
-84.7437180764
 20
39.7236820606
 10
-84.7898812155
 20
39.710067612
  0
LWPOLYLINE
  5
653
100
AcDbEntity
  8
SUPERFICI
100
AcDbPolyline
 62
7
  6
CONTINUOUS
 90
3
 70
0
 10
-84.6391955264
 20
39.746165207
 10
-84.6030841725
 20
39.7508140381
 10
-84.5666913823
 20
39.7541541977
  0
LINE
  5
654
100
AcDbEntity
  8
SUPERFICI
100
AcDbLine
 62
7
  6
CONTINUOUS
 10
-84.6708080696
 20
39.739935591
 11
-84.6875024491
 21
39.7377932413
  0
LINE
  5
655
100
AcDbEntity
  8
SUPERFICI
100
AcDbLine
 62
7
  6
CONTINUOUS
 10
-84.6784392131
 20
39.7386400864
 11
-84.5394883267
 21
39.755781292
  0
LINE
  5
656
100
AcDbEntity
  8
SUPERFICI
100
AcDbLine
 62
7
  6
CONTINUOUS
 10
-84.6068051076
 20
39.7503940886
 11
-84.6163764236
 21
39.7492568813
  0
LWPOLYLINE
  5
657
100
AcDbEntity
  8
SUPERFICI
100
AcDbPolyline
 62
7
  6
CONTINUOUS
 90
4
 70
0
 10
-84.539939926
 20
39.7557785507
 10
-84.5469779692
 20
39.7553842183
 10
-84.5984929728
 20
39.7509974171
 10
-84.6481765453
 20
39.7442050434
  0
LINE
  5
658
100
AcDbEntity
  8
0
100
AcDbLine
 62
7
  6
CONTINUOUS
 10
-80.0598015211
 20
38.9879832253
 11
-79.8598015211
 21
38.9984673562
  0
LINE
  5
659
100
AcDbEntity
  8
0
100
AcDbLine
 62
7
  6
CONTINUOUS
 10
-80.0598015211
 20
39.9905517294
 11
-84.5394883267
 21
39.755781292
  0
LWPOLYLINE
  5
65A
100
AcDbEntity
  8
SUPERFICI
100
AcDbPolyline
 62
250
  6
CONTINUOUS
 90
10
 70
0
 10
-84.5342066113
 20
37.6292939872
 10
-84.6863055907
 20
37.6260948908
 10
-84.8327964114
 20
37.6178501381
 10
-84.9713306004
 20
37.6047119253
 10
-85.098918523
 20
37.5869613462
 10
-85.2119566008
 20
37.5649914676
 10
-85.3073474644
 20
37.5394086428
 10
-85.3829417169
 20
37.5109452728
 10
-85.437162939
 20
37.4802103339
 10
-85.4690714827
 20
37.4476851745
  0
LINE
  5
65B
100
AcDbEntity
  8
0
100
AcDbLine
 62
250
  6
CONTINUOUS
 10
-79.8598015211
 20
36.8424442942
 11
-80.0598015211
 21
36.8424442943
  0
LINE
  5
65C
100
AcDbEntity
  8
0
100
AcDbLine
 62
250
  6
CONTINUOUS
 10
-84.5374726306
 20
37.0327354781
 11
-80.0598015211
 21
37.0327354782
  0
LWPOLYLINE
  5
65D
100
AcDbEntity
  8
0
100
AcDbPolyline
 62
7
  6
CONTINUOUS
 90
7
 70
0
 43
0.3500000006
 10
-82.0813537903
 20
48.7405565643
 10
-83.581354248
 20
48.7405565643
 10
-82.0813537903
 20
50.8834104767
 10
-82.0813537903
 20
51.3119839783
 10
-82.50992276
 20
51.7405574799
 10
-83.1527762146
 20
51.7405574799
 10
-83.581354248
 20
51.0976994934
  0
LWPOLYLINE
  5
65E
100
AcDbEntity
  8
SUPERFICI
100
AcDbPolyline
 62
7
  6
CONTINUOUS
 90
3
 70
0
 10
-85.4498471565
 20
39.012209402
 10
-85.4494973592
 20
39.0121705576
 10
-85.4485754491
 20
39.0194369676
  0
ARC
  5
65F
100
AcDbEntity
  8
0
100
AcDbCircle
 62
7
  6
CONTINUOUS
 10
-57.0423586801
 20
37.0327354782
 40
2.9578199696
100
AcDbArc
 50
90.0003621154
 51
179.9996378846
  0
ARC
  5
660
100
AcDbEntity
  8
0
100
AcDbCircle
 62
7
  6
CONTINUOUS
 10
-57.0423586801
 20
-37.0327354782
 40
2.9578199696
100
AcDbArc
 50
180.0003621154
 51
269.9996378846
  0
ARC
  5
661
100
AcDbEntity
  8
0
100
AcDbCircle
 62
7
  6
CONTINUOUS
 10
57.0423586801
 20
-37.0327354782
 40
2.9578199696
100
AcDbArc
 50
270.0003621154
 51
359.9996378846
  0
ARC
  5
662
100
AcDbEntity
  8
0
100
AcDbCircle
 62
7
  6
CONTINUOUS
 10
57.0423586801
 20
37.0327354782
 40
2.9578199696
100
AcDbArc
 50
0.0003621154
 51
89.9996378846
  0
ARC
  5
663
100
AcDbEntity
  8
0
100
AcDbCircle
 62
7
  6
CONTINUOUS
 10
35.2375049313
 20
-26.7798167294
 40
0.8893898871
100
AcDbArc
 50
292.842868527
 51
90.1180289746
  0
ARC
  5
664
100
AcDbEntity
  8
0
100
AcDbCircle
 62
7
  6
CONTINUOUS
 10
35.1569989313
 20
-26.7798167294
 40
0.352865
100
AcDbArc
 50
269.8070927538
 51
90.0
  0
ARC
  5
665
100
AcDbEntity
  8
SUPERFICI
100
AcDbCircle
 62
7
  6
CONTINUOUS
 10
-36.8667228119
 20
21.7299475132
 40
51.5727024586
100
AcDbArc
 50
161.7641260922
 51
161.8850263229
  0
ARC
  5
666
100
AcDbEntity
  8
SUPERFICI
100
AcDbCircle
 62
7
  6
CONTINUOUS
 10
-36.8667228119
 20
-21.7299475132
 40
51.5727024586
100
AcDbArc
 50
198.1149736771
 51
198.2358740048
  0
ARC
  5
667
100
AcDbEntity
  8
SUPERFICI
100
AcDbCircle
 62
7
  6
CONTINUOUS
 10
-38.9583232432
 20
22.3879790427
 40
49.3779421922
100
AcDbArc
 50
164.2431164721
 51
164.7608794343
  0
ARC
  5
668
100
AcDbEntity
  8
SUPERFICI
100
AcDbCircle
 62
7
  6
CONTINUOUS
 10
-38.9583232432
 20
-22.3879790427
 40
49.3779421922
100
AcDbArc
 50
195.2391205657
 51
195.7568835279
  0
ARC
  5
669
100
AcDbEntity
  8
SUPERFICI
100
AcDbCircle
 62
7
  6
CONTINUOUS
 10
-38.9583232432
 20
-22.3879790427
 40
49.3779421922
100
AcDbArc
 50
190.7079682669
 51
190.9350767561
  0
ARC
  5
66A
100
AcDbEntity
  8
SUPERFICI
100
AcDbCircle
 62
7
  6
CONTINUOUS
 10
-38.9583232432
 20
22.3879790427
 40
49.3779421922
100
AcDbArc
 50
169.0650498811
 51
169.2920317331
  0
ARC
  5
66B
100
AcDbEntity
  8
RACCORDO
100
AcDbCircle
 62
7
  6
CONTINUOUS
 10
-80.1598015211
 20
4.2031338449
 40
0.3
100
AcDbArc
 50
289.4783521669
 51
360.0
  0
ARC
  5
66C
100
AcDbEntity
  8
RACCORDO
100
AcDbCircle
 62
7
  6
CONTINUOUS
 10
-80.1598015211
 20
-4.2031338449
 40
0.3
100
AcDbArc
 50
0.0
 51
70.5216478331
  0
ENDSEC
  0
SECTION
  2
OBJECTS
  0
DICTIONARY
  5
C
100
AcDbDictionary
280
0
281
1
  3
ACAD_GROUP
350
D
  3
ACAD_MLINESTYLE
350
17
  3
ACAD_LAYOUT
350
1A
  3
ACAD_PLOTSETTINGS
350
19
  3
ACAD_PLOTSTYLENAME
350
E
  0
DICTIONARY
  5
D
102
{ACAD_REACTORS
330
C
102
}
100
AcDbDictionary
280
0
281
1
  0
ACDBDICTIONARYWDFLT
  5
E
102
{ACAD_REACTORS
330
C
102
}
100
AcDbDictionary
281
1
  3
Normal
350
F
100
AcDbDictionaryWithDefault
340
F
  0
DICTIONARY
  5
17
102
{ACAD_REACTORS
330
C
102
}
100
AcDbDictionary
280
0
281
1
  3
Standard
350
18
  0
DICTIONARY
  5
19
102
{ACAD_REACTORS
330
C
102
}
100
AcDbDictionary
281
1
  0
DICTIONARY
  5
1A
102
{ACAD_REACTORS
330
C
102
}
100
AcDbDictionary
281
1
  3
Model
350
66D
  3
Layout1
350
66E
  0
ACDBPLACEHOLDER
  5
F
102
{ACAD_REACTORS
330
E
102
}
  0
MLINESTYLE
  5
18
102
{ACAD_REACTORS
330
17
102
}
100
AcDbMlineStyle
  2
STANDARD
 70
0
  3

 62
256
 51
90.0
 52
90.0
 71
2
 49
0.5
 62
256
  6
BYLAYER
 49
-0.5
 62
256
  6
BYLAYER
  0
LAYOUT
  5
66D
102
{ACAD_REACTORS
330
1A
102
}
100
AcDbPlotSettings
  1

  2
none_device
  4
ISO_A4_(297.00_x_210.00_MM)
  6

 40
0.0
 41
0.0
 42
0.0
 43
0.0
 44
297.0
 45
210.0
 46
0.0
 47
0.0
 48
0.0
 49
0.0
140
0.0
141
0.0
142
1.0
143
1.0
 70
1024
 72
1
 73
0
 74
0
  7

 75
0
147
1.0
148
0.0
149
0.0
100
AcDbLayout
  1
Model
 70
0
 71
0
 10
0.0
 20
0.0
 11
297.0
 21
210.0
 12
0.0
 22
0.0
 32
0.0
 14
0.0
 24
0.0
 34
0.0
 15
0.0
 25
0.0
 35
0.0
146
0.0
 13
0.0
 23
0.0
 33
0.0
 16
1.0
 26
0.0
 36
0.0
 17
0.0
 27
1.0
 37
0.0
 76
0
330
21B
345
0
346
0
  0
LAYOUT
  5
66E
102
{ACAD_REACTORS
330
1A
102
}
100
AcDbPlotSettings
  1

  2
none_device
  4
ISO_A4_(297.00_x_210.00_MM)
  6

 40
0.0
 41
0.0
 42
0.0
 43
0.0
 44
297.0
 45
210.0
 46
0.0
 47
0.0
 48
0.0
 49
0.0
140
0.0
141
0.0
142
1.0
143
1.0
 70
0
 72
1
 73
0
 74
0
  7

 75
0
147
1.0
148
0.0
149
0.0
100
AcDbLayout
  1
Layout1
 70
0
 71
1
 10
0.0
 20
0.0
 11
297.0
 21
210.0
 12
0.0
 22
0.0
 32
0.0
 14
0.0
 24
0.0
 34
0.0
 15
0.0
 25
0.0
 35
0.0
146
0.0
 13
0.0
 23
0.0
 33
0.0
 16
1.0
 26
0.0
 36
0.0
 17
0.0
 27
1.0
 37
0.0
 76
0
330
21C
345
0
346
0
  0
ENDSEC
  0
EOF
