  0
SECTION
  2
HEADER
  9
$ACADVER
  1
AC1024
  9
$DWGCODEPAGE
  3
ANSI_1252
  9
$EXTMAX
 10
297.0
 20
210.0
 30
0.0
  9
$EXTMIN
 10
0.0
 20
0.0
 30
0.0
  9
$LIMMIN
 10
0.0
 20
0.0
  9
$LIMMAX
 10
297.0
 20
210.0
  9
$VIEWCTR
 10
148.5
 20
105.0
  9
$VIEWSIZE
 40
210.0
  9
$CLAYER
  8
0
  9
$LTSCALE
 40
16.335
  9
$CELTYPE
  6
BYLAYER
  9
$DIMSCALE
 40
1.0
  9
$DIMASZ
 40
3.0
  9
$DIMEXO
 40
0.5
  9
$DIMDLI
 40
11.286
  9
$DIMEXE
 40
1.5
  9
$DIMCEN
 40
2.673
  9
$DIMLFAC
 40
1.0
  9
$DIMBLK
  1
_FILLED
  9
$DIMALT
 70
0
  9
$DIMALTF
 40
0.0393700787
  9
$DIMTXT
 40
3.0
  9
$DIMTOL
 70
1
  9
$DIMLIM
 70
0
  9
$DIMTFAC
 40
1.0
  9
$DIMTP
 40
0.01
  9
$DIMTM
 40
0.01
  9
$DIMGAP
 40
0.625
  9
$DIMDSEP
 70
44
  9
$AUNITS
 70
0
  9
$PDMODE
 70
3
  9
$PDSIZE
 40
3.0
  9
$HANDSEED
  5
40D
  9
$TILEMODE
 70
1
  9
$MEASUREMENT
 70
1
  9
$INSUNITS
 70
4
  0
ENDSEC
  0
SECTION
  2
CLASSES
  0
CLASS
  1
ACDBDICTIONARYWDFLT
  2
AcDbDictionaryWithDefault
  3
AutoCAD 2000
 90
0
 91
1
280
0
281
0
  0
CLASS
  1
ACDBPLACEHOLDER
  2
AcDbPlaceHolder
  3
AutoCAD 2000
 90
0
 91
1
280
0
281
0
  0
CLASS
  1
LAYOUT
  2
AcDbLayout
  3
AutoCAD 2000
 90
0
 91
0
280
0
281
0
  0
ENDSEC
  0
SECTION
  2
TABLES
  0
TABLE
  2
VPORT
  5
8
100
AcDbSymbolTable
 70
2
  0
VPORT
  5
1F4
100
AcDbSymbolTableRecord
100
AcDbViewportTableRecord
  2
*ACTIVE
 70
0
 10
0.0
 20
0.0
 11
1.0
 21
1.0
 12
148.5
 22
105.0
 13
0.0
 23
0.0
 14
1.0
 24
1.0
 15
0.0
 25
0.0
 16
0.0
 26
0.0
 36
1.0
 17
0.0
 27
0.0
 37
0.0
 40
210.0
 41
1.4142857143
 42
50.0
 43
0.0
 44
0.0
 50
0.0
 51
0.0
 71
0
 72
100
 73
1
 74
1
 75
0
 76
0
 77
0
 78
0
  0
ENDTAB
  0
TABLE
  2
LTYPE
  5
5
100
AcDbSymbolTable
 70
6
  0
LTYPE
  5
14
100
AcDbSymbolTableRecord
100
AcDbLinetypeTableRecord
  2
BYBLOCK
 70
0
  3

 72
65
 73
0
 40
0.0
  0
LTYPE
  5
15
100
AcDbSymbolTableRecord
100
AcDbLinetypeTableRecord
  2
BYLAYER
 70
0
  3

 72
65
 73
0
 40
0.0
  0
LTYPE
  5
16
100
AcDbSymbolTableRecord
100
AcDbLinetypeTableRecord
  2
CONTINUOUS
 70
64
  3
Solid line
 72
65
 73
0
 40
0.0
  0
LTYPE
  5
1F5
100
AcDbSymbolTableRecord
100
AcDbLinetypeTableRecord
  2
CENTER
 70
64
  3
____ _ ____ _ ____ _ ____ _ ____ _ ____ _ ____
 72
65
 73
4
 40
0.6
 49
0.375
 74
0
 49
-0.075
 74
0
 49
0.075
 74
0
 49
-0.075
 74
0
  0
LTYPE
  5
1F6
100
AcDbSymbolTableRecord
100
AcDbLinetypeTableRecord
  2
HIDDEN
 70
64
  3
- - - - - - - - - - - - - - - - - - - -
 72
65
 73
2
 40
0.2
 49
0.1
 74
0
 49
-0.1
 74
0
  0
LTYPE
  5
1F7
100
AcDbSymbolTableRecord
100
AcDbLinetypeTableRecord
  2
PHANTOM
 70
64
  3
_____ _ _ _____ _ _ _____ _ _ _____
 72
65
 73
6
 40
0.8
 49
0.45
 74
0
 49
-0.05
 74
0
 49
0.1
 74
0
 49
-0.05
 74
0
 49
0.1
 74
0
 49
-0.05
 74
0
  0
LTYPE
  5
1F8
100
AcDbSymbolTableRecord
100
AcDbLinetypeTableRecord
  2
DOT
 70
64
  3
. . . . . . . . . . . . . . . . . . . .
 72
65
 73
2
 40
0.2
 49
0.1
 74
0
 49
-0.1
 74
0
  0
LTYPE
  5
1F9
100
AcDbSymbolTableRecord
100
AcDbLinetypeTableRecord
  2
DASHED
 70
64
  3
- - - - - - - - - - - - - - - - - - - -
 72
65
 73
2
 40
0.2
 49
0.1
 74
0
 49
-0.1
 74
0
  0
ENDTAB
  0
TABLE
  2
LAYER
  5
2
100
AcDbSymbolTable
 70
36
  0
LAYER
  5
10
100
AcDbSymbolTableRecord
100
AcDbLayerTableRecord
  2
0
 70
0
 62
7
  6
CONTINUOUS
370
-3
390
F
  0
LAYER
  5
1FA
100
AcDbSymbolTableRecord
100
AcDbLayerTableRecord
  2
DEFAULT_1
 70
0
 62
7
  6
CENTER
370
-3
390
F
  0
LAYER
  5
1FB
100
AcDbSymbolTableRecord
100
AcDbLayerTableRecord
  2
DEFAULT_2
 70
0
 62
7
  6
HIDDEN
370
-3
390
F
  0
LAYER
  5
1FC
100
AcDbSymbolTableRecord
100
AcDbLayerTableRecord
  2
DEFAULT_3
 70
0
 62
7
  6
PHANTOM
370
-3
390
F
  0
LAYER
  5
1FD
100
AcDbSymbolTableRecord
100
AcDbLayerTableRecord
  2
AREE_SCRITTE
 70
0
 62
7
  6
CONTINUOUS
370
-3
390
F
  0
LAYER
  5
1FE
100
AcDbSymbolTableRecord
100
AcDbLayerTableRecord
  2
ASSI
 70
0
 62
7
  6
CONTINUOUS
370
-3
390
F
  0
LAYER
  5
1FF
100
AcDbSymbolTableRecord
100
AcDbLayerTableRecord
  2
COORDINATE
 70
0
 62
7
  6
CONTINUOUS
370
-3
390
F
  0
LAYER
  5
200
100
AcDbSymbolTableRecord
100
AcDbLayerTableRecord
  2
COPY_PUBLISH
 70
0
 62
7
  6
CONTINUOUS
370
-3
390
F
  0
LAYER
  5
201
100
AcDbSymbolTableRecord
100
AcDbLayerTableRecord
  2
COSMETICI
 70
0
 62
7
  6
CONTINUOUS
370
-3
390
F
  0
LAYER
  5
202
100
AcDbSymbolTableRecord
100
AcDbLayerTableRecord
  2
CURVE
 70
0
 62
7
  6
CONTINUOUS
370
-3
390
F
  0
LAYER
  5
203
100
AcDbSymbolTableRecord
100
AcDbLayerTableRecord
  2
DRAFT
 70
0
 62
7
  6
CONTINUOUS
370
-3
390
F
  0
LAYER
  5
204
100
AcDbSymbolTableRecord
100
AcDbLayerTableRecord
  2
IMPORT_IGES
 70
0
 62
7
  6
CONTINUOUS
370
-3
390
F
  0
LAYER
  5
205
100
AcDbSymbolTableRecord
100
AcDbLayerTableRecord
  2
INTFCLR
 70
0
 62
7
  6
CONTINUOUS
370
-3
390
F
  0
LAYER
  5
206
100
AcDbSymbolTableRecord
100
AcDbLayerTableRecord
  2
INTFCLR_17
 70
0
 62
7
  6
CONTINUOUS
370
-3
390
F
  0
LAYER
  5
207
100
AcDbSymbolTableRecord
100
AcDbLayerTableRecord
  2
INTF_1
 70
0
 62
7
  6
CONTINUOUS
370
-3
390
F
  0
LAYER
  5
208
100
AcDbSymbolTableRecord
100
AcDbLayerTableRecord
  2
INTF_11
 70
0
 62
7
  6
CONTINUOUS
370
-3
390
F
  0
LAYER
  5
209
100
AcDbSymbolTableRecord
100
AcDbLayerTableRecord
  2
INTF_2
 70
0
 62
7
  6
CONTINUOUS
370
-3
390
F
  0
LAYER
  5
20A
100
AcDbSymbolTableRecord
100
AcDbLayerTableRecord
  2
INTF_5
 70
0
 62
7
  6
CONTINUOUS
370
-3
390
F
  0
LAYER
  5
20B
100
AcDbSymbolTableRecord
100
AcDbLayerTableRecord
  2
INTF_8
 70
0
 62
7
  6
CONTINUOUS
370
-3
390
F
  0
LAYER
  5
20C
100
AcDbSymbolTableRecord
100
AcDbLayerTableRecord
  2
INTF_CYAN
 70
0
 62
7
  6
CONTINUOUS
370
-3
390
F
  0
LAYER
  5
20D
100
AcDbSymbolTableRecord
100
AcDbLayerTableRecord
  2
INTF_YELLOW
 70
0
 62
7
  6
CONTINUOUS
370
-3
390
F
  0
LAYER
  5
20E
100
AcDbSymbolTableRecord
100
AcDbLayerTableRecord
  2
NONE
 70
0
 62
7
  6
CONTINUOUS
370
-3
390
F
  0
LAYER
  5
20F
100
AcDbSymbolTableRecord
100
AcDbLayerTableRecord
  2
NOTE
 70
0
 62
7
  6
CONTINUOUS
370
-3
390
F
  0
LAYER
  5
210
100
AcDbSymbolTableRecord
100
AcDbLayerTableRecord
  2
PIANI
 70
0
 62
7
  6
CONTINUOUS
370
-3
390
F
  0
LAYER
  5
211
100
AcDbSymbolTableRecord
100
AcDbLayerTableRecord
  2
PUNTI
 70
0
 62
7
  6
CONTINUOUS
370
-3
390
F
  0
LAYER
  5
212
100
AcDbSymbolTableRecord
100
AcDbLayerTableRecord
  2
RACCORDO
 70
0
 62
7
  6
CONTINUOUS
370
-3
390
F
  0
LAYER
  5
213
100
AcDbSymbolTableRecord
100
AcDbLayerTableRecord
  2
RGB____0____0____0__
 70
0
 62
7
  6
CONTINUOUS
370
-3
390
F
  0
LAYER
  5
214
100
AcDbSymbolTableRecord
100
AcDbLayerTableRecord
  2
SIMBOLI
 70
0
 62
7
  6
CONTINUOUS
370
-3
390
F
  0
LAYER
  5
215
100
AcDbSymbolTableRecord
100
AcDbLayerTableRecord
  2
SMUSSO
 70
0
 62
7
  6
CONTINUOUS
370
-3
390
F
  0
LAYER
  5
216
100
AcDbSymbolTableRecord
100
AcDbLayerTableRecord
  2
SUPERFICI
 70
0
 62
7
  6
CONTINUOUS
370
-3
390
F
  0
LAYER
  5
217
100
AcDbSymbolTableRecord
100
AcDbLayerTableRecord
  2
TRASH
 70
0
 62
7
  6
CONTINUOUS
370
-3
390
F
  0
ENDTAB
  0
TABLE
  2
STYLE
  5
3
100
AcDbSymbolTable
 70
1
  0
STYLE
  5
11
100
AcDbSymbolTableRecord
100
AcDbTextStyleTableRecord
  2
STANDARD
 70
0
 40
0.0
 41
0.8
 50
0.0
 71
0
 42
0.2
  3
txt
  4

  0
STYLE
  5
218
100
AcDbSymbolTableRecord
100
AcDbTextStyleTableRecord
  2
TEXTSTYLE_1
 70
0
 40
0.0
 41
0.8
 50
0.0
 71
0
 42
0.2
  3
gdt
  4

  0
ENDTAB
  0
TABLE
  2
VIEW
  5
6
100
AcDbSymbolTable
 70
0
  0
ENDTAB
  0
TABLE
  2
UCS
  5
7
100
AcDbSymbolTable
 70
0
  0
ENDTAB
  0
TABLE
  2
APPID
  5
9
100
AcDbSymbolTable
 70
1
  0
APPID
  5
219
100
AcDbSymbolTableRecord
100
AcDbRegAppTableRecord
  2
ACAD
 70
0
  0
ENDTAB
  0
TABLE
  2
BLOCK_RECORD
  5
1
100
AcDbSymbolTable
 70
0
  0
BLOCK_RECORD
  5
21A
100
AcDbSymbolTableRecord
100
AcDbBlockTableRecord
  2
*Model_Space
  0
BLOCK_RECORD
  5
21B
100
AcDbSymbolTableRecord
100
AcDbBlockTableRecord
  2
*Paper_Space
  0
BLOCK_RECORD
  5
21C
100
AcDbSymbolTableRecord
100
AcDbBlockTableRecord
  2
_FILLED
  0
BLOCK_RECORD
  5
21D
100
AcDbSymbolTableRecord
100
AcDbBlockTableRecord
  2
*D0
  0
BLOCK_RECORD
  5
21E
100
AcDbSymbolTableRecord
100
AcDbBlockTableRecord
  2
*D1
  0
BLOCK_RECORD
  5
21F
100
AcDbSymbolTableRecord
100
AcDbBlockTableRecord
  2
*D2
  0
ENDTAB
  0
TABLE
  2
DIMSTYLE
  5
A
100
AcDbSymbolTable
 70
1
100
AcDbDimStyleTable
 71
0
  0
DIMSTYLE
105
220
100
AcDbSymbolTableRecord
100
AcDbDimStyleTableRecord
  2
STANDARD
 70
0
  3

  4

 40
1.0
 41
3.0
 42
0.5
 43
0.38
 44
1.5
 45
0.0
 46
0.0
 47
0.01
 48
0.01
140
3.0
141
0.0
142
0.0
143
25.4
144
1.0
145
0.0
146
1.0
147
0.625
 71
1
 72
0
 73
0
 74
0
 75
0
 76
0
 77
1
 78
8
 79
2
170
0
171
1
172
0
173
0
174
0
175
0
176
0
177
0
178
0
270
2
179
2
271
2
272
2
273
2
274
2
275
0
280
0
281
0
282
0
283
1
284
8
285
0
286
0
287
3
288
0
340
11
278
44
341
21C
342
21C
343
21C
344
21C
  0
DIMSTYLE
105
221
100
AcDbSymbolTableRecord
100
AcDbDimStyleTableRecord
  2
DIMSTYLE_1
 70
0
  3

  4

 40
1.0
 41
3.0
 42
0.5
 43
0.38
 44
1.5
 45
0.0
 46
0.0
 47
0.0
 48
0.0
140
3.0
141
0.0
142
0.0
143
25.4
144
1.0
145
0.0
146
1.0
147
0.75
 71
0
 72
0
 73
0
 74
0
 75
0
 76
0
 77
1
 78
8
 79
2
170
0
171
1
172
0
173
0
174
0
175
0
176
0
177
0
178
0
270
2
179
2
271
1
272
1
273
2
274
2
275
0
280
0
281
0
282
0
283
1
284
8
285
0
286
0
287
3
288
0
340
11
278
44
341
21C
342
21C
343
21C
344
21C
  0
DIMSTYLE
105
222
100
AcDbSymbolTableRecord
100
AcDbDimStyleTableRecord
  2
DIMSTYLE_2
 70
0
  3

  4

 40
1.0
 41
3.0
 42
0.5
 43
0.38
 44
1.5
 45
0.0
 46
0.0
 47
0.0
 48
0.0
140
3.0
141
0.0
142
0.0
143
25.4
144
1.0
145
0.0
146
1.0
147
0.75
 71
0
 72
0
 73
0
 74
0
 75
0
 76
0
 77
1
 78
8
 79
2
170
0
171
1
172
0
173
0
174
0
175
0
176
0
177
0
178
0
270
2
179
2
271
2
272
2
273
2
274
2
275
0
280
0
281
0
282
0
283
1
284
8
285
0
286
0
287
3
288
0
340
11
278
44
341
21C
342
21C
343
21C
344
21C
  0
ENDTAB
  0
ENDSEC
  0
SECTION
  2
BLOCKS
  0
BLOCK
  5
20
100
AcDbEntity
  8
0
100
AcDbBlockBegin
  2
*Model_Space
 70
0
 10
0.0
 20
0.0
 30
0.0
  3
*Model_Space
  1

  0
ENDBLK
  5
21
100
AcDbEntity
  8
0
100
AcDbBlockEnd
  0
BLOCK
  5
1C
100
AcDbEntity
  8
0
100
AcDbBlockBegin
  2
*Paper_Space
 70
0
 10
0.0
 20
0.0
 30
0.0
  3
*Paper_Space
  1

  0
ENDBLK
  5
1D
100
AcDbEntity
  8
0
100
AcDbBlockEnd
  0
BLOCK
  5
223
100
AcDbEntity
  8
0
100
AcDbBlockBegin
  2
_FILLED
 70
64
 10
0.0
 20
0.0
 30
0.0
  3
_FILLED
  1

  0
SOLID
  5
224
100
AcDbEntity
  8
0
  6
BYBLOCK
 62
0
100
AcDbTrace
 10
0.0
 20
0.0
 30
0.0
 11
-1.0
 21
0.3166666667
 31
0.0
 12
-1.0
 22
-0.3166666667
 32
0.0
 13
-1.0
 23
-0.3166666667
 33
0.0
  0
ENDBLK
  5
225
100
AcDbEntity
  8
0
  6
BYBLOCK
 62
0
100
AcDbBlockEnd
  0
BLOCK
  5
226
100
AcDbEntity
  8
0
100
AcDbBlockBegin
 62
7
  6
CONTINUOUS
  2
*D0
 70
65
 10
0.0
 20
0.0
 30
0.0
  3
*D0
  1

  0
MTEXT
  5
227
100
AcDbEntity
  8
0
100
AcDbMText
 62
7
  6
CONTINUOUS
  7
STANDARD
 71
2
 72
1
 10
38.7638851964
 20
153.9684058075
 30
0.0
 11
1.0
 21
0.0
 31
0.0
 73
2
 44
0.9
  1
{\ftxt;\W0.0001;\H0.0001;\~}{\ftxt;\W2.1428571429;\H3.0; }{\ftxt;\W0.0001;\H0.0001;\~}
 40
3.0
 41
9.6428571429
  0
LINE
  5
228
100
AcDbEntity
  8
0
100
AcDbLine
 62
7
  6
CONTINUOUS
 10
43.6311176316
 20
140.7107835788
 30
0.0
 11
43.6311176316
 21
151.7184058075
 31
0.0
  0
LINE
  5
229
100
AcDbEntity
  8
0
100
AcDbLine
 62
7
  6
CONTINUOUS
 10
33.8966527613
 20
100.6723375921
 30
0.0
 11
33.8966527613
 21
151.7184058075
 31
0.0
  0
LINE
  5
22A
100
AcDbEntity
  8
0
100
AcDbLine
 62
7
  6
CONTINUOUS
 10
43.6311176316
 20
150.2184058075
 30
0.0
 11
47.6311176316
 21
150.2184058075
 31
0.0
  0
LINE
  5
22B
100
AcDbEntity
  8
0
100
AcDbLine
 62
7
  6
CONTINUOUS
 10
47.6311176316
 20
150.2184058075
 30
0.0
 11
38.7638851964
 21
150.2184058075
 31
0.0
  0
LINE
  5
22C
100
AcDbEntity
  8
0
100
AcDbLine
 62
7
  6
CONTINUOUS
 10
33.8966527613
 20
150.2184058075
 30
0.0
 11
29.8966527613
 21
150.2184058075
 31
0.0
  0
LINE
  5
22D
100
AcDbEntity
  8
0
100
AcDbLine
 62
7
  6
CONTINUOUS
 10
29.8966527613
 20
150.2184058075
 30
0.0
 11
38.7638851964
 21
150.2184058075
 31
0.0
  0
INSERT
  5
22E
100
AcDbEntity
  8
0
100
AcDbBlockReference
 62
7
  6
CONTINUOUS
  2
_FILLED
 10
43.6311176316
 20
150.2184058075
 30
0.0
 41
3.0
 42
3.0
 43
3.0
 50
180.0
  0
INSERT
  5
22F
100
AcDbEntity
  8
0
100
AcDbBlockReference
 62
7
  6
CONTINUOUS
  2
_FILLED
 10
33.8966527613
 20
150.2184058075
 30
0.0
 41
3.0
 42
3.0
 43
3.0
  0
ENDBLK
  5
230
100
AcDbEntity
  8
0
  6
BYBLOCK
 62
0
100
AcDbBlockEnd
  0
BLOCK
  5
231
100
AcDbEntity
  8
0
100
AcDbBlockBegin
 62
7
  6
CONTINUOUS
  2
*D1
 70
65
 10
0.0
 20
0.0
 30
0.0
  3
*D1
  1

  0
MTEXT
  5
232
100
AcDbEntity
  8
0
100
AcDbMText
 62
7
  6
CONTINUOUS
  7
STANDARD
 71
2
 72
1
 10
132.2141053538
 20
154.1811768501
 30
0.0
 11
1.0
 21
0.0
 31
0.0
 73
2
 44
0.9
  1
{\ftxt;\W0.0001;\H0.0001;\~}{\ftxt;\W3.5;\H3.0; }{\ftxt;\W0.0001;\H0.0001;\~}
 40
3.0
 41
15.75
  0
LINE
  5
233
100
AcDbEntity
  8
0
100
AcDbLine
 62
7
  6
CONTINUOUS
 10
70.8141053538
 20
139.4408599673
 30
0.0
 11
70.8141053538
 21
151.9311768501
 31
0.0
  0
LINE
  5
234
100
AcDbEntity
  8
0
100
AcDbLine
 62
7
  6
CONTINUOUS
 10
193.6141053538
 20
139.3433367558
 30
0.0
 11
193.6141053538
 21
151.9311768501
 31
0.0
  0
LINE
  5
235
100
AcDbEntity
  8
0
100
AcDbLine
 62
7
  6
CONTINUOUS
 10
70.8141053538
 20
150.4311768501
 30
0.0
 11
132.2141053538
 21
150.4311768501
 31
0.0
  0
LINE
  5
236
100
AcDbEntity
  8
0
100
AcDbLine
 62
7
  6
CONTINUOUS
 10
193.6141053538
 20
150.4311768501
 30
0.0
 11
132.2141053538
 21
150.4311768501
 31
0.0
  0
INSERT
  5
237
100
AcDbEntity
  8
0
100
AcDbBlockReference
 62
7
  6
CONTINUOUS
  2
_FILLED
 10
70.8141053538
 20
150.4311768501
 30
0.0
 41
3.0
 42
3.0
 43
3.0
 50
180.0
  0
INSERT
  5
238
100
AcDbEntity
  8
0
100
AcDbBlockReference
 62
7
  6
CONTINUOUS
  2
_FILLED
 10
193.6141053538
 20
150.4311768501
 30
0.0
 41
3.0
 42
3.0
 43
3.0
  0
ENDBLK
  5
239
100
AcDbEntity
  8
0
  6
BYBLOCK
 62
0
100
AcDbBlockEnd
  0
BLOCK
  5
23A
100
AcDbEntity
  8
0
100
AcDbBlockBegin
 62
7
  6
CONTINUOUS
  2
*D2
 70
65
 10
0.0
 20
0.0
 30
0.0
  3
*D2
  1

  0
MTEXT
  5
23B
100
AcDbEntity
  8
0
100
AcDbMText
 62
7
  6
CONTINUOUS
  7
STANDARD
 71
2
 72
1
 10
201.7961913781
 20
97.6113037064
 30
0.0
 11
0.0
 21
1.0
 31
0.0
 73
2
 44
0.9
  1
{\ftxt;\W0.0001;\H0.0001;\~}{\ftxt;\W1.5714285714;\H3.0; }{\ftxt;\W0.0001;\H0.0001;\~}
 40
3.0
 41
7.0714285714
  0
LINE
  5
23C
100
AcDbEntity
  8
0
100
AcDbLine
 62
7
  6
CONTINUOUS
 10
192.493631459
 20
140.6113037064
 30
0.0
 11
207.0461913781
 21
140.6113037064
 31
0.0
  0
LINE
  5
23D
100
AcDbEntity
  8
0
100
AcDbLine
 62
7
  6
CONTINUOUS
 10
192.1197924819
 20
54.6113037064
 30
0.0
 11
207.0461913781
 21
54.6113037064
 31
0.0
  0
LINE
  5
23E
100
AcDbEntity
  8
0
100
AcDbLine
 62
7
  6
CONTINUOUS
 10
205.5461913781
 20
140.6113037064
 30
0.0
 11
205.5461913781
 21
97.6113037064
 31
0.0
  0
LINE
  5
23F
100
AcDbEntity
  8
0
100
AcDbLine
 62
7
  6
CONTINUOUS
 10
205.5461913781
 20
54.6113037064
 30
0.0
 11
205.5461913781
 21
97.6113037064
 31
0.0
  0
INSERT
  5
240
100
AcDbEntity
  8
0
100
AcDbBlockReference
 62
7
  6
CONTINUOUS
  2
_FILLED
 10
205.5461913781
 20
140.6113037064
 30
0.0
 41
3.0
 42
3.0
 43
3.0
 50
90.0
  0
INSERT
  5
241
100
AcDbEntity
  8
0
100
AcDbBlockReference
 62
7
  6
CONTINUOUS
  2
_FILLED
 10
205.5461913781
 20
54.6113037064
 30
0.0
 41
3.0
 42
3.0
 43
3.0
 50
270.0
  0
ENDBLK
  5
242
100
AcDbEntity
  8
0
  6
BYBLOCK
 62
0
100
AcDbBlockEnd
  0
ENDSEC
  0
SECTION
  2
ENTITIES
  0
DIMENSION
  5
243
100
AcDbEntity
  8
0
100
AcDbDimension
 62
7
  6
CONTINUOUS
  2
*D0
 10
33.8966527613
 20
150.2184058075
 30
0.0
 11
38.3353126144
 21
150.2184058075
 31
0.0
 70
160
 71
2
 72
2
 41
0.9
 42
9.7344648703
  1
{\ftxt;\W0.0001;\H0.0001;\~}{\ftxt;\W2.1428571429;\H3.0; }{\ftxt;\W0.0001;\H0.0001;\~}
  3
DIMSTYLE_1
100
AcDbAlignedDimension
 13
43.6311176316
 23
140.2107835788
 33
0.0
 14
33.8966527613
 24
100.1723375921
 34
0.0
 50
180.0
100
AcDbRotatedDimension
  0
DIMENSION
  5
244
100
AcDbEntity
  8
0
100
AcDbDimension
 62
7
  6
CONTINUOUS
  2
*D1
 10
193.6141053538
 20
150.4311768501
 30
0.0
 11
131.7855337372
 21
150.4311768501
 31
0.0
 70
160
 71
2
 72
2
 41
0.9
 42
122.8
  1
{\ftxt;\W0.0001;\H0.0001;\~}{\ftxt;\W3.5;\H3.0; }{\ftxt;\W0.0001;\H0.0001;\~}
  3
DIMSTYLE_2
100
AcDbAlignedDimension
 13
70.8141053538
 23
138.9408599673
 33
0.0
 14
193.6141053538
 24
138.8433367558
 34
0.0
100
AcDbRotatedDimension
  0
DIMENSION
  5
245
100
AcDbEntity
  8
0
100
AcDbDimension
 62
7
  6
CONTINUOUS
  2
*D2
 10
205.5461913781
 20
54.6113037064
 30
0.0
 11
205.5461913781
 21
97.1827311899
 31
0.0
 70
160
 71
2
 72
2
 41
0.9
 42
86.0
  1
{\ftxt;\W0.0001;\H0.0001;\~}{\ftxt;\W1.5714285714;\H3.0; }{\ftxt;\W0.0001;\H0.0001;\~}
  3
DIMSTYLE_2
100
AcDbAlignedDimension
 13
191.993631459
 23
140.6113037064
 33
0.0
 14
191.6197924819
 24
54.6113037064
 34
0.0
 50
270.0
100
AcDbRotatedDimension
  0
LINE
  5
246
100
AcDbEntity
  8
0
100
AcDbLine
 62
7
  6
CONTINUOUS
 10
70.8141053492
 20
58.6107322664
 30
0.0
 11
70.8141053538
 21
119.9313037064
 31
0.0
  0
LINE
  5
247
100
AcDbEntity
  8
SUPERFICI
100
AcDbLine
 62
7
  6
CONTINUOUS
 10
70.8141053538
 20
119.9313037064
 30
0.0
 11
70.8141053492
 21
136.6118751464
 31
0.0
  0
LINE
  5
248
100
AcDbEntity
  8
RACCORDO
100
AcDbLine
 62
250
  6
CONTINUOUS
 10
71.499273171
 20
75.2771154028
 30
0.0
 11
71.5017502936
 21
136.6300732619
 31
0.0
  0
LINE
  5
249
100
AcDbEntity
  8
RACCORDO
100
AcDbLine
 62
250
  6
CONTINUOUS
 10
71.5017502936
 20
58.5925341509
 30
0.0
 11
71.499273171
 21
75.2771154028
 31
0.0
  0
LINE
  5
24A
100
AcDbEntity
  8
RACCORDO
100
AcDbLine
 62
250
  6
CONTINUOUS
 10
74.8141053538
 20
140.6113037064
 30
0.0
 11
74.8206371343
 21
140.1814598138
 31
0.0
  0
LINE
  5
24B
100
AcDbEntity
  8
RACCORDO
100
AcDbLine
 62
250
  6
CONTINUOUS
 10
75.1934967661
 20
55.0414083523
 30
0.0
 11
75.1934967661
 21
54.6113037064
 31
0.0
  0
LINE
  5
24C
100
AcDbEntity
  8
RACCORDO
100
AcDbLine
 62
250
  6
CONTINUOUS
 10
75.1934967661
 20
140.1811990605
 30
0.0
 11
75.1934967661
 21
140.6113037064
 31
0.0
  0
LINE
  5
24D
100
AcDbEntity
  8
RACCORDO
100
AcDbLine
 62
250
  6
CONTINUOUS
 10
74.8141053538
 20
54.6113037064
 30
0.0
 11
74.8206371343
 21
55.041147599
 31
0.0
  0
LWPOLYLINE
  5
24E
100
AcDbEntity
  8
0
100
AcDbPolyline
 62
7
  6
CONTINUOUS
 90
3
 70
0
 43
0.3500000006
 10
126.9641011047
 20
153.3240426636
 10
127.8212481079
 20
154.181180603
 10
127.8212481079
 20
151.1811796875
  0
LINE
  5
24F
100
AcDbEntity
  8
SUPERFICI
100
AcDbLine
 62
7
  6
CONTINUOUS
 10
189.6141053538
 20
54.6113037064
 30
0.0
 11
154.6856657808
 21
54.6113037064
 31
0.0
  0
LINE
  5
250
100
AcDbEntity
  8
0
100
AcDbLine
 62
7
  6
CONTINUOUS
 10
74.8141053538
 20
54.6113037064
 30
0.0
 11
154.6856657808
 21
54.6113037064
 31
0.0
  0
LINE
  5
251
100
AcDbEntity
  8
RACCORDO
100
AcDbLine
 62
250
  6
CONTINUOUS
 10
154.7118349299
 20
55.0384202121
 30
0.0
 11
109.7163757778
 21
55.0384202121
 31
0.0
  0
LINE
  5
252
100
AcDbEntity
  8
RACCORDO
100
AcDbLine
 62
250
  6
CONTINUOUS
 10
154.7141053538
 20
55.2948472337
 30
0.0
 11
109.7141053538
 21
55.2948472337
 31
0.0
  0
LINE
  5
253
100
AcDbEntity
  8
RACCORDO
100
AcDbLine
 62
250
  6
CONTINUOUS
 10
71.2439163474
 20
59.0025037064
 30
0.0
 11
70.8141053538
 21
59.0025037064
 31
0.0
  0
LINE
  5
254
100
AcDbEntity
  8
RACCORDO
100
AcDbLine
 62
250
  6
CONTINUOUS
 10
193.1842943602
 20
59.0025037064
 30
0.0
 11
193.6141053538
 21
59.0025037064
 31
0.0
  0
LINE
  5
255
100
AcDbEntity
  8
RACCORDO
100
AcDbLine
 62
7
  6
CONTINUOUS
 10
98.4193418733
 20
119.4311433393
 30
0.0
 11
98.4193418733
 21
75.7914640734
 31
0.0
  0
LINE
  5
256
100
AcDbEntity
  8
0
100
AcDbLine
 62
7
  6
CONTINUOUS
 10
136.9990591145
 20
69.3811239257
 30
0.0
 11
136.4971550162
 21
69.3811239257
 31
0.0
  0
LINE
  5
257
100
AcDbEntity
  8
0
100
AcDbLine
 62
7
  6
CONTINUOUS
 10
135.6981011974
 20
69.3811239257
 30
0.0
 11
135.1784078559
 21
69.3811239257
 31
0.0
  0
LINE
  5
258
100
AcDbEntity
  8
0
100
AcDbLine
 62
7
  6
CONTINUOUS
 10
135.0251843538
 20
69.3811237064
 30
0.0
 11
134.4752363538
 21
69.3811237064
 31
0.0
  0
LINE
  5
259
100
AcDbEntity
  8
0
100
AcDbLine
 62
7
  6
CONTINUOUS
 10
133.4854863538
 20
69.3811237064
 30
0.0
 11
132.9693553538
 21
69.3811237064
 31
0.0
  0
LINE
  5
25A
100
AcDbEntity
  8
0
100
AcDbLine
 62
7
  6
CONTINUOUS
 10
132.8874193538
 20
69.3811237064
 30
0.0
 11
132.3769673538
 21
69.3811237064
 31
0.0
  0
LINE
  5
25B
100
AcDbEntity
  8
0
100
AcDbLine
 62
7
  6
CONTINUOUS
 10
131.6493523538
 20
69.3811237064
 30
0.0
 11
131.5761703538
 21
69.3811237064
 31
0.0
  0
LINE
  5
25C
100
AcDbEntity
  8
0
100
AcDbLine
 62
7
  6
CONTINUOUS
 10
130.8514413538
 20
69.3811237064
 30
0.0
 11
130.3522553538
 21
69.3811237064
 31
0.0
  0
LINE
  5
25D
100
AcDbEntity
  8
0
100
AcDbLine
 62
7
  6
CONTINUOUS
 10
130.0713583538
 20
69.3811237064
 30
0.0
 11
129.5495653538
 21
69.3811237064
 31
0.0
  0
LINE
  5
25E
100
AcDbEntity
  8
0
100
AcDbLine
 62
7
  6
CONTINUOUS
 10
128.5524113538
 20
69.3811237064
 30
0.0
 11
128.0925813538
 21
69.3811237064
 31
0.0
  0
LINE
  5
25F
100
AcDbEntity
  8
0
100
AcDbLine
 62
7
  6
CONTINUOUS
 10
134.3400643538
 20
69.8801597064
 30
0.0
 11
133.6294693538
 21
69.8801597064
 31
0.0
  0
LINE
  5
260
100
AcDbEntity
  8
0
100
AcDbLine
 62
7
  6
CONTINUOUS
 10
133.7362043538
 20
70.2663117064
 30
0.0
 11
134.2357843538
 21
70.2663117064
 31
0.0
  0
LINE
  5
261
100
AcDbEntity
  8
0
100
AcDbLine
 62
7
  6
CONTINUOUS
 10
135.9778740702
 20
70.359382345
 30
0.0
 11
135.6981011974
 21
70.359382345
 31
0.0
  0
LINE
  5
262
100
AcDbEntity
  8
0
100
AcDbLine
 62
7
  6
CONTINUOUS
 10
135.6807993307
 20
70.7687786291
 30
0.0
 11
135.9789987852
 21
70.7687786291
 31
0.0
  0
LINE
  5
263
100
AcDbEntity
  8
RACCORDO
100
AcDbLine
 62
250
  6
CONTINUOUS
 10
109.7141053538
 20
74.9242801047
 30
0.0
 11
109.7141053538
 21
55.2948472337
 31
0.0
  0
LINE
  5
264
100
AcDbEntity
  8
RACCORDO
100
AcDbLine
 62
250
  6
CONTINUOUS
 10
109.7141053538
 20
120.2983273081
 30
0.0
 11
109.7141053538
 21
139.9277601791
 31
0.0
  0
LINE
  5
265
100
AcDbEntity
  8
RACCORDO
100
AcDbLine
 62
250
  6
CONTINUOUS
 10
109.7425449268
 20
55.0384201717
 30
0.0
 11
109.7425449268
 21
54.6113037064
 31
0.0
  0
LINE
  5
266
100
AcDbEntity
  8
RACCORDO
100
AcDbLine
 62
250
  6
CONTINUOUS
 10
109.7425449268
 20
140.1841872411
 30
0.0
 11
109.7425449268
 21
140.6113037064
 31
0.0
  0
LINE
  5
267
100
AcDbEntity
  8
0
100
AcDbLine
 62
7
  6
CONTINUOUS
 10
127.3001163538
 20
71.8808597064
 30
0.0
 11
127.8669443538
 21
71.8808597064
 31
0.0
  0
LINE
  5
268
100
AcDbEntity
  8
0
100
AcDbLine
 62
7
  6
CONTINUOUS
 10
128.8344903538
 20
71.8808597064
 30
0.0
 11
129.3559263538
 21
71.8808597064
 31
0.0
  0
LINE
  5
269
100
AcDbEntity
  8
0
100
AcDbLine
 62
7
  6
CONTINUOUS
 10
130.5779673538
 20
71.8808597064
 30
0.0
 11
131.0993283538
 21
71.8808597064
 31
0.0
  0
LINE
  5
26A
100
AcDbEntity
  8
0
100
AcDbLine
 62
7
  6
CONTINUOUS
 10
132.1374033538
 20
71.8808597064
 30
0.0
 11
132.6536663538
 21
71.8808597064
 31
0.0
  0
LINE
  5
26B
100
AcDbEntity
  8
0
100
AcDbLine
 62
7
  6
CONTINUOUS
 10
133.7534313538
 20
71.8808597064
 30
0.0
 11
134.2582033538
 21
71.8808597064
 31
0.0
  0
LINE
  5
26C
100
AcDbEntity
  8
0
100
AcDbLine
 62
7
  6
CONTINUOUS
 10
129.5495653538
 20
71.8810097064
 30
0.0
 11
130.0713583538
 21
71.8810097064
 31
0.0
  0
LINE
  5
26D
100
AcDbEntity
  8
RACCORDO
100
AcDbLine
 62
250
  6
CONTINUOUS
 10
192.9289205258
 20
75.1113037064
 30
0.0
 11
166.0750972353
 21
75.1113037064
 31
0.0
  0
LINE
  5
26E
100
AcDbEntity
  8
RACCORDO
100
AcDbLine
 62
250
  6
CONTINUOUS
 10
71.4992901819
 20
75.1113037064
 30
0.0
 11
98.3531134724
 21
75.1113037064
 31
0.0
  0
LINE
  5
26F
100
AcDbEntity
  8
RACCORDO
100
AcDbLine
 62
250
  6
CONTINUOUS
 10
71.2413943649
 20
75.2913037064
 30
0.0
 11
70.8141053538
 21
75.2913037064
 31
0.0
  0
LINE
  5
270
100
AcDbEntity
  8
RACCORDO
100
AcDbLine
 62
250
  6
CONTINUOUS
 10
193.1868163427
 20
75.2913037064
 30
0.0
 11
193.6141053538
 21
75.2913037064
 31
0.0
  0
LINE
  5
271
100
AcDbEntity
  8
RACCORDO
100
AcDbLine
 62
7
  6
CONTINUOUS
 10
98.9192657209
 20
75.2915402259
 30
0.0
 11
165.5089449868
 21
75.2915402259
 31
0.0
  0
LWPOLYLINE
  5
272
100
AcDbEntity
  8
0
100
AcDbPolyline
 62
7
  6
CONTINUOUS
 90
3
 70
0
 43
0.3500000006
 10
134.1069656067
 20
151.4668862915
 10
134.0355344238
 20
151.2526018066
 10
133.8926811218
 20
150.9668952026
  0
LINE
  5
273
100
AcDbEntity
  8
0
100
AcDbLine
 62
7
  6
CONTINUOUS
 10
128.0925813538
 20
69.3811237064
 30
0.0
 11
127.3001163538
 21
71.8808597064
 31
0.0
  0
LINE
  5
274
100
AcDbEntity
  8
RACCORDO
100
AcDbLine
 62
250
  6
CONTINUOUS
 10
98.3718421727
 20
75.7439643729
 30
0.0
 11
98.4193418733
 21
75.7914640734
 31
0.0
  0
LINE
  5
275
100
AcDbEntity
  8
RACCORDO
100
AcDbLine
 62
250
  6
CONTINUOUS
 10
98.8721216511
 20
75.2443961561
 30
0.0
 11
98.9192657209
 21
75.2915402259
 31
0.0
  0
LINE
  5
276
100
AcDbEntity
  8
RACCORDO
100
AcDbLine
 62
250
  6
CONTINUOUS
 10
98.3718421727
 20
119.4786430399
 30
0.0
 11
98.4193418733
 21
119.4311433393
 31
0.0
  0
LINE
  5
277
100
AcDbEntity
  8
RACCORDO
100
AcDbLine
 62
250
  6
CONTINUOUS
 10
98.8721216511
 20
119.9782112567
 30
0.0
 11
98.9192657209
 21
119.9310671869
 31
0.0
  0
LINE
  5
278
100
AcDbEntity
  8
0
100
AcDbLine
 62
7
  6
CONTINUOUS
 10
131.5761703538
 20
69.3811237064
 30
0.0
 11
130.9640443538
 21
71.0134037064
 31
0.0
  0
LINE
  5
279
100
AcDbEntity
  8
0
100
AcDbLine
 62
7
  6
CONTINUOUS
 10
131.0993283538
 20
71.8808597064
 30
0.0
 11
131.6156103538
 21
70.4929987064
 31
0.0
  0
LINE
  5
27A
100
AcDbEntity
  8
0
100
AcDbLine
 62
7
  6
CONTINUOUS
 10
127.8669443538
 20
71.8808597064
 30
0.0
 11
128.3434393538
 21
70.1602137064
 31
0.0
  0
LINE
  5
27B
100
AcDbEntity
  8
0
100
AcDbLine
 62
7
  6
CONTINUOUS
 10
132.6536663538
 20
71.8808597064
 30
0.0
 11
132.8874193538
 21
69.3811237064
 31
0.0
  0
LINE
  5
27C
100
AcDbEntity
  8
0
100
AcDbLine
 62
7
  6
CONTINUOUS
 10
132.3769673538
 20
69.3811237064
 30
0.0
 11
132.2697633538
 21
71.0065997064
 31
0.0
  0
LINE
  5
27D
100
AcDbEntity
  8
0
100
AcDbLine
 62
7
  6
CONTINUOUS
 10
129.5495653538
 20
69.3811237064
 30
0.0
 11
129.5495653538
 21
71.8810097064
 31
0.0
  0
LINE
  5
27E
100
AcDbEntity
  8
0
100
AcDbLine
 62
7
  6
CONTINUOUS
 10
130.0713583538
 20
71.8810097064
 30
0.0
 11
130.0713583538
 21
69.3811237064
 31
0.0
  0
LWPOLYLINE
  5
27F
100
AcDbEntity
  8
0
100
AcDbPolyline
 62
7
  6
CONTINUOUS
 90
4
 70
0
 43
0.3500000006
 10
204.3676142578
 20
95.2541618042
 10
203.5104763184
 20
95.2541618042
 10
203.0819073486
 20
95.6827307739
 10
203.0819073486
 20
96.3255932922
  0
LINE
  5
280
100
AcDbEntity
  8
0
100
AcDbLine
 62
7
  6
CONTINUOUS
 10
134.2582033538
 20
71.8808597064
 30
0.0
 11
135.0251843538
 21
69.3811237064
 31
0.0
  0
LINE
  5
281
100
AcDbEntity
  8
0
100
AcDbLine
 62
7
  6
CONTINUOUS
 10
134.4752363538
 20
69.3811237064
 30
0.0
 11
134.3400643538
 21
69.8801597064
 31
0.0
  0
LINE
  5
282
100
AcDbEntity
  8
0
100
AcDbLine
 62
7
  6
CONTINUOUS
 10
134.2357843538
 20
70.2663117064
 30
0.0
 11
133.9960133538
 21
71.1939957064
 31
0.0
  0
LINE
  5
283
100
AcDbEntity
  8
0
100
AcDbLine
 62
250
  6
CONTINUOUS
 10
132.2141053538
 20
74.9225337734
 30
0.0
 11
132.2141053538
 21
55.2948289452
 31
0.0
  0
LINE
  5
284
100
AcDbEntity
  8
RACCORDO
100
AcDbLine
 62
250
  6
CONTINUOUS
 10
132.2141053538
 20
54.6113037064
 30
0.0
 11
132.2141053538
 21
55.2948289452
 31
0.0
  0
LINE
  5
285
100
AcDbEntity
  8
RACCORDO
100
AcDbLine
 62
250
  6
CONTINUOUS
 10
132.2141053538
 20
74.9225337734
 30
0.0
 11
132.2141053538
 21
75.2395896059
 31
0.0
  0
LINE
  5
286
100
AcDbEntity
  8
RACCORDO
100
AcDbLine
 62
250
  6
CONTINUOUS
 10
132.2141053538
 20
119.9830178069
 30
0.0
 11
132.2141053538
 21
140.6113037064
 31
0.0
  0
LWPOLYLINE
  5
287
100
AcDbEntity
  8
0
100
AcDbPolyline
 62
7
  6
CONTINUOUS
 90
4
 70
0
 43
0.3500000006
 10
135.1069659119
 20
151.6097486572
 10
135.1069659119
 20
152.4668865967
 10
135.5355348816
 20
152.8954555664
 10
136.1783883362
 20
152.8954555664
  0
LINE
  5
288
100
AcDbEntity
  8
0
100
AcDbLine
 62
7
  6
CONTINUOUS
 10
135.1784078559
 20
69.3811239257
 30
0.0
 11
135.1784078559
 21
71.8516542948
 31
0.0
  0
LINE
  5
289
100
AcDbEntity
  8
0
100
AcDbLine
 62
7
  6
CONTINUOUS
 10
135.6807993307
 20
71.4550047814
 30
0.0
 11
135.6807993307
 21
70.7687786291
 31
0.0
  0
LINE
  5
28A
100
AcDbEntity
  8
0
100
AcDbLine
 62
7
  6
CONTINUOUS
 10
135.6981011974
 20
70.359382345
 30
0.0
 11
135.6981011974
 21
69.3811239257
 31
0.0
  0
LINE
  5
28B
100
AcDbEntity
  8
0
100
AcDbLine
 62
7
  6
CONTINUOUS
 10
136.519911751
 20
70.5627495742
 30
0.0
 11
136.519911751
 21
70.5479783163
 31
0.0
  0
LINE
  5
28C
100
AcDbEntity
  8
0
100
AcDbLine
 62
7
  6
CONTINUOUS
 10
130.9640443538
 20
71.0134037064
 30
0.0
 11
130.8514413538
 21
69.3811237064
 31
0.0
  0
LINE
  5
28D
100
AcDbEntity
  8
0
100
AcDbLine
 62
7
  6
CONTINUOUS
 10
130.3522553538
 20
69.3811237064
 30
0.0
 11
130.5779673538
 21
71.8808597064
 31
0.0
  0
LINE
  5
28E
100
AcDbEntity
  8
0
100
AcDbLine
 62
7
  6
CONTINUOUS
 10
128.3434393538
 20
70.1602137064
 30
0.0
 11
128.8344903538
 21
71.8808597064
 31
0.0
  0
LINE
  5
28F
100
AcDbEntity
  8
RACCORDO
100
AcDbLine
 62
250
  6
CONTINUOUS
 10
193.6141053538
 20
97.6113037064
 30
0.0
 11
166.0654205965
 21
97.6113036901
 31
0.0
  0
LINE
  5
290
100
AcDbEntity
  8
RACCORDO
100
AcDbLine
 62
250
  6
CONTINUOUS
 10
70.8141053538
 20
97.6113037064
 30
0.0
 11
98.3627901111
 21
97.6113037227
 31
0.0
  0
LINE
  5
291
100
AcDbEntity
  8
0
100
AcDbLine
 62
7
  6
CONTINUOUS
 10
133.9960133538
 20
71.1939957064
 30
0.0
 11
133.7362043538
 21
70.2663117064
 31
0.0
  0
LINE
  5
292
100
AcDbEntity
  8
0
100
AcDbLine
 62
7
  6
CONTINUOUS
 10
133.6294693538
 20
69.8801597064
 30
0.0
 11
133.4854863538
 21
69.3811237064
 31
0.0
  0
LINE
  5
293
100
AcDbEntity
  8
0
100
AcDbLine
 62
7
  6
CONTINUOUS
 10
132.9693553538
 20
69.3811237064
 30
0.0
 11
133.7534313538
 21
71.8808597064
 31
0.0
  0
LINE
  5
294
100
AcDbEntity
  8
0
100
AcDbLine
 62
7
  6
CONTINUOUS
 10
129.3559263538
 20
71.8808597064
 30
0.0
 11
128.5524113538
 21
69.3811237064
 31
0.0
  0
LINE
  5
295
100
AcDbEntity
  8
0
100
AcDbLine
 62
7
  6
CONTINUOUS
 10
131.6156103538
 20
70.4929987064
 30
0.0
 11
132.1374033538
 21
71.8808597064
 31
0.0
  0
LINE
  5
296
100
AcDbEntity
  8
0
100
AcDbLine
 62
7
  6
CONTINUOUS
 10
132.2697633538
 20
71.0065997064
 30
0.0
 11
131.6493523538
 21
69.3811237064
 31
0.0
  0
LINE
  5
297
100
AcDbEntity
  8
RACCORDO
100
AcDbLine
 62
250
  6
CONTINUOUS
 10
165.5560890565
 20
119.9782112567
 30
0.0
 11
165.5089449868
 21
119.9310671869
 31
0.0
  0
LINE
  5
298
100
AcDbEntity
  8
RACCORDO
100
AcDbLine
 62
250
  6
CONTINUOUS
 10
166.0563685349
 20
119.4786430399
 30
0.0
 11
166.0088688343
 21
119.4311433393
 31
0.0
  0
LINE
  5
299
100
AcDbEntity
  8
RACCORDO
100
AcDbLine
 62
250
  6
CONTINUOUS
 10
165.5089449868
 20
75.2915402259
 30
0.0
 11
165.5560890565
 21
75.2443961561
 31
0.0
  0
LINE
  5
29A
100
AcDbEntity
  8
RACCORDO
100
AcDbLine
 62
250
  6
CONTINUOUS
 10
166.0088688343
 20
75.7914640734
 30
0.0
 11
166.0563685349
 21
75.7439643729
 31
0.0
  0
LINE
  5
29B
100
AcDbEntity
  8
RACCORDO
100
AcDbLine
 62
250
  6
CONTINUOUS
 10
154.6856657808
 20
55.0384201717
 30
0.0
 11
154.6856657808
 21
54.6113037064
 31
0.0
  0
LINE
  5
29C
100
AcDbEntity
  8
RACCORDO
100
AcDbLine
 62
250
  6
CONTINUOUS
 10
154.6856657808
 20
140.1841872411
 30
0.0
 11
154.6856657808
 21
140.6113037064
 31
0.0
  0
LINE
  5
29D
100
AcDbEntity
  8
RACCORDO
100
AcDbLine
 62
250
  6
CONTINUOUS
 10
154.7141053538
 20
74.9242801047
 30
0.0
 11
154.7141053538
 21
55.2948472337
 31
0.0
  0
LINE
  5
29E
100
AcDbEntity
  8
RACCORDO
100
AcDbLine
 62
250
  6
CONTINUOUS
 10
154.7141053538
 20
120.2983273081
 30
0.0
 11
154.7141053538
 21
139.9277601791
 31
0.0
  0
LINE
  5
29F
100
AcDbEntity
  8
RACCORDO
100
AcDbLine
 62
7
  6
CONTINUOUS
 10
165.5089449868
 20
119.9310671869
 30
0.0
 11
98.9192657209
 21
119.9310671869
 31
0.0
  0
LINE
  5
2A0
100
AcDbEntity
  8
RACCORDO
100
AcDbLine
 62
250
  6
CONTINUOUS
 10
71.2413943649
 20
119.9313037064
 30
0.0
 11
70.8141053538
 21
119.9313037064
 31
0.0
  0
LINE
  5
2A1
100
AcDbEntity
  8
RACCORDO
100
AcDbLine
 62
250
  6
CONTINUOUS
 10
193.1868163427
 20
119.9313037064
 30
0.0
 11
193.6141053538
 21
119.9313037064
 31
0.0
  0
LINE
  5
2A2
100
AcDbEntity
  8
RACCORDO
100
AcDbLine
 62
250
  6
CONTINUOUS
 10
192.9289205258
 20
120.1113037064
 30
0.0
 11
166.0750972353
 21
120.1113037064
 31
0.0
  0
LINE
  5
2A3
100
AcDbEntity
  8
RACCORDO
100
AcDbLine
 62
250
  6
CONTINUOUS
 10
71.4992901819
 20
120.1113037064
 30
0.0
 11
98.3531134724
 21
120.1113037064
 31
0.0
  0
LWPOLYLINE
  5
2A4
100
AcDbEntity
  8
0
100
AcDbPolyline
 62
7
  6
CONTINUOUS
 90
10
 70
0
 43
0.3500000006
 10
134.0355344238
 20
151.6811707764
 10
134.1069656067
 20
151.5383265381
 10
134.1069656067
 20
151.4668862915
 10
133.964103241
 20
151.3240420532
 10
133.8926811218
 20
151.3240420532
 10
133.821249939
 20
151.3954641724
 10
133.821249939
 20
151.4668862915
 10
133.8926811218
 20
151.6097486572
 10
133.964103241
 20
151.6811707764
 10
134.0355344238
 20
151.6811707764
  0
LINE
  5
2A5
100
AcDbEntity
  8
RACCORDO
100
AcDbLine
 62
7
  6
CONTINUOUS
 10
166.0088688343
 20
75.7914640734
 30
0.0
 11
166.0088688343
 21
119.4311433393
 31
0.0
  0
LINE
  5
2A6
100
AcDbEntity
  8
RACCORDO
100
AcDbLine
 62
250
  6
CONTINUOUS
 10
71.2439163474
 20
136.2201037064
 30
0.0
 11
70.8141053538
 21
136.2201037064
 31
0.0
  0
LINE
  5
2A7
100
AcDbEntity
  8
RACCORDO
100
AcDbLine
 62
250
  6
CONTINUOUS
 10
193.1842943602
 20
136.2201037064
 30
0.0
 11
193.6141053538
 21
136.2201037064
 31
0.0
  0
LINE
  5
2A8
100
AcDbEntity
  8
RACCORDO
100
AcDbLine
 62
250
  6
CONTINUOUS
 10
109.7141053538
 20
139.9277601791
 30
0.0
 11
154.7141053538
 21
139.9277601791
 31
0.0
  0
LINE
  5
2A9
100
AcDbEntity
  8
RACCORDO
100
AcDbLine
 62
250
  6
CONTINUOUS
 10
109.7163757778
 20
140.1841872007
 30
0.0
 11
154.7118349299
 21
140.1841872007
 31
0.0
  0
LINE
  5
2AA
100
AcDbEntity
  8
SUPERFICI
100
AcDbLine
 62
7
  6
CONTINUOUS
 10
189.6141053538
 20
140.6113037064
 30
0.0
 11
154.6856657808
 21
140.6113037064
 31
0.0
  0
LINE
  5
2AB
100
AcDbEntity
  8
SUPERFICI
100
AcDbLine
 62
7
  6
CONTINUOUS
 10
74.8141053538
 20
140.6113037064
 30
0.0
 11
109.7425449268
 21
140.6113037064
 31
0.0
  0
LINE
  5
2AC
100
AcDbEntity
  8
0
100
AcDbLine
 62
7
  6
CONTINUOUS
 10
109.7425449268
 20
140.6113037064
 30
0.0
 11
154.6856657808
 21
140.6113037064
 31
0.0
  0
LWPOLYLINE
  5
2AD
100
AcDbEntity
  8
0
100
AcDbPolyline
 62
7
  6
CONTINUOUS
 90
13
 70
0
 43
0.3500000006
 10
135.5355348816
 20
152.8954555664
 10
135.2498192139
 20
153.1097400513
 10
135.2498192139
 20
153.7526116333
 10
135.5355348816
 20
154.181180603
 10
136.1783883362
 20
154.181180603
 10
136.4641040039
 20
153.7526116333
 10
136.4641040039
 20
153.1097400513
 10
136.1783883362
 20
152.8954555664
 10
136.6069663696
 20
152.4668865967
 10
136.6069663696
 20
151.6097486572
 10
136.1783883362
 20
151.1811796875
 10
135.5355348816
 20
151.1811796875
 10
135.1069659119
 20
151.6097486572
  0
LWPOLYLINE
  5
2AE
100
AcDbEntity
  8
0
100
AcDbPolyline
 62
7
  6
CONTINUOUS
 90
7
 70
0
 43
0.3500000006
 10
132.5355339661
 20
151.1811796875
 10
131.0355335083
 20
151.1811796875
 10
132.5355339661
 20
153.3240426636
 10
132.5355339661
 20
153.7526116333
 10
132.1069649963
 20
154.181180603
 10
131.464102478
 20
154.181180603
 10
131.0355335083
 20
153.5383271484
  0
LWPOLYLINE
  5
2AF
100
AcDbEntity
  8
0
100
AcDbPolyline
 62
7
  6
CONTINUOUS
 90
7
 70
0
 43
0.3500000006
 10
130.1783955688
 20
151.1811796875
 10
128.6783951111
 20
151.1811796875
 10
130.1783955688
 20
153.3240426636
 10
130.1783955688
 20
153.7526116333
 10
129.7498175354
 20
154.181180603
 10
129.1069640808
 20
154.181180603
 10
128.6783951111
 20
153.5383271484
  0
LWPOLYLINE
  5
2B0
100
AcDbEntity
  8
0
100
AcDbPolyline
 62
7
  6
CONTINUOUS
 90
10
 70
0
 43
0.3500000006
 10
201.7962004395
 20
98.6827316895
 10
202.439053894
 20
98.0398782349
 10
203.2961918335
 20
97.6113002014
 10
204.3676142578
 20
97.6113002014
 10
204.7961832275
 20
98.0398782349
 10
204.7961832275
 20
98.6827316895
 10
204.3676142578
 20
99.1113006592
 10
203.5104763184
 20
99.1113006592
 10
203.0819073486
 20
98.6827316895
 10
203.0819073486
 20
97.7541625671
  0
LINE
  5
2B1
100
AcDbEntity
  8
RACCORDO
100
AcDbLine
 62
250
  6
CONTINUOUS
 10
189.6141053538
 20
54.6113037064
 30
0.0
 11
189.6075735735
 21
55.041147599
 31
0.0
  0
LINE
  5
2B2
100
AcDbEntity
  8
RACCORDO
100
AcDbLine
 62
250
  6
CONTINUOUS
 10
189.2347139415
 20
55.0414083523
 30
0.0
 11
189.2347139415
 21
54.6113037064
 31
0.0
  0
LINE
  5
2B3
100
AcDbEntity
  8
RACCORDO
100
AcDbLine
 62
250
  6
CONTINUOUS
 10
189.2347139415
 20
140.1811990605
 30
0.0
 11
189.2347139415
 21
140.6113037064
 31
0.0
  0
LINE
  5
2B4
100
AcDbEntity
  8
RACCORDO
100
AcDbLine
 62
250
  6
CONTINUOUS
 10
192.9289375366
 20
119.9454920104
 30
0.0
 11
192.926460414
 21
58.5925341509
 31
0.0
  0
LINE
  5
2B5
100
AcDbEntity
  8
RACCORDO
100
AcDbLine
 62
250
  6
CONTINUOUS
 10
192.926460414
 20
136.6300732619
 30
0.0
 11
192.9289375366
 21
119.9454920104
 31
0.0
  0
LINE
  5
2B6
100
AcDbEntity
  8
RACCORDO
100
AcDbLine
 62
250
  6
CONTINUOUS
 10
189.6141053538
 20
140.6113037064
 30
0.0
 11
189.6075735735
 21
140.1814598138
 31
0.0
  0
LWPOLYLINE
  5
2B7
100
AcDbEntity
  8
0
100
AcDbPolyline
 62
7
  6
CONTINUOUS
 90
13
 70
0
 43
0.3500000006
 10
203.0819073486
 20
95.6827307739
 10
202.8676228638
 20
95.3970151062
 10
202.2247694092
 20
95.3970151062
 10
201.7962004395
 20
95.6827307739
 10
201.7962004395
 20
96.3255932922
 10
202.2247694092
 20
96.6112998962
 10
202.8676228638
 20
96.6112998962
 10
203.0819073486
 20
96.3255932922
 10
203.5104763184
 20
96.754162262
 10
204.3676142578
 20
96.754162262
 10
204.7961832275
 20
96.3255932922
 10
204.7961832275
 20
95.6827307739
 10
204.3676142578
 20
95.2541618042
  0
LINE
  5
2B8
100
AcDbEntity
  8
SUPERFICI
100
AcDbLine
 62
7
  6
CONTINUOUS
 10
193.6141053584
 20
58.6107322664
 30
0.0
 11
193.6141053584
 21
136.6118751464
 31
0.0
  0
LINE
  5
2B9
100
AcDbEntity
  8
0
100
AcDbLine
 62
7
  6
CONTINUOUS
 10
39.4545970039
 20
54.6113037064
 30
0.0
 11
39.3547233829
 21
54.6113037064
 31
0.0
  0
LINE
  5
2BA
100
AcDbEntity
  8
SUPERFICI
100
AcDbLine
 62
7
  6
CONTINUOUS
 10
41.4255834601
 20
54.6113037064
 30
0.0
 11
39.4545970039
 21
54.6113037064
 31
0.0
  0
LWPOLYLINE
  5
2BB
100
AcDbEntity
  8
0
100
AcDbPolyline
 62
7
  6
CONTINUOUS
 90
10
 70
0
 43
0.3500000006
 10
35.9781719513
 20
150.9683997803
 10
36.8353144226
 20
151.8255558472
 10
37.0495989075
 20
152.6826937866
 10
37.0495989075
 20
153.5398317261
 10
36.6210276718
 20
153.9684006958
 10
35.9781719513
 20
153.9684006958
 10
35.5495984497
 20
153.5398317261
 10
35.5495984497
 20
152.6826937866
 10
35.9781719513
 20
152.2541248169
 10
36.9067433395
 20
152.2541248169
  0
LINE
  5
2BC
100
AcDbEntity
  8
RACCORDO
100
AcDbLine
 62
250
  6
CONTINUOUS
 10
38.3219989037
 20
55.0414083523
 30
0.0
 11
36.4157379135
 21
55.0384202121
 31
0.0
  0
LINE
  5
2BD
100
AcDbEntity
  8
RACCORDO
100
AcDbLine
 62
7
  6
CONTINUOUS
 10
36.415505439
 20
55.0384201717
 30
0.0
 11
36.3157519066
 21
55.0384032943
 31
0.0
  0
LINE
  5
2BE
100
AcDbEntity
  8
RACCORDO
100
AcDbLine
 62
250
  6
CONTINUOUS
 10
38.068525304
 20
55.2980722353
 30
0.0
 11
36.0602712853
 21
55.2948289452
 31
0.0
  0
LINE
  5
2BF
100
AcDbEntity
  8
RACCORDO
100
AcDbLine
 62
7
  6
CONTINUOUS
 10
39.3547233829
 20
54.6113037064
 30
0.0
 11
36.3157519066
 21
55.0384032943
 31
0.0
  0
LINE
  5
2C0
100
AcDbEntity
  8
RACCORDO
100
AcDbLine
 62
7
  6
CONTINUOUS
 10
36.415505439
 20
55.0384201717
 30
0.0
 11
39.4545970039
 21
54.6113037064
 31
0.0
  0
LINE
  5
2C1
100
AcDbEntity
  8
RACCORDO
100
AcDbLine
 62
250
  6
CONTINUOUS
 10
38.3219989037
 20
55.0414083523
 30
0.0
 11
41.3823524785
 21
54.6113037064
 31
0.0
  0
LINE
  5
2C2
100
AcDbEntity
  8
RACCORDO
100
AcDbLine
 62
250
  6
CONTINUOUS
 10
41.4255834601
 20
54.6113037064
 30
0.0
 11
38.3663784231
 21
55.041147599
 31
0.0
  0
LINE
  5
2C3
100
AcDbEntity
  8
RACCORDO
100
AcDbLine
 62
250
  6
CONTINUOUS
 10
38.3051151357
 20
59.0025037079
 30
0.0
 11
38.0515809873
 21
58.9717102098
 31
0.0
  0
LINE
  5
2C4
100
AcDbEntity
  8
RACCORDO
100
AcDbLine
 62
250
  6
CONTINUOUS
 10
43.5568733789
 20
58.6112393407
 30
0.0
 11
41.4102011767
 21
58.609378525
 31
0.0
  0
LINE
  5
2C5
100
AcDbEntity
  8
RACCORDO
100
AcDbLine
 62
250
  6
CONTINUOUS
 10
38.3051151359
 20
59.0025037064
 30
0.0
 11
41.3633792661
 21
59.0025037064
 31
0.0
  0
LINE
  5
2C6
100
AcDbEntity
  8
RACCORDO
100
AcDbLine
 62
250
  6
CONTINUOUS
 10
43.5556947968
 20
58.939312692
 30
0.0
 11
41.3630157804
 21
59.0054548543
 31
0.0
  0
LINE
  5
2C7
100
AcDbEntity
  8
0
100
AcDbLine
 62
7
  6
CONTINUOUS
 10
34.4630833471
 20
69.3811239257
 30
0.0
 11
34.5433187349
 21
69.3811239257
 31
0.0
  0
LINE
  5
2C8
100
AcDbEntity
  8
0
100
AcDbLine
 62
250
  6
CONTINUOUS
 10
34.4099616101
 20
70.0576427885
 30
0.0
 11
34.4901825475
 21
70.0576427885
 31
0.0
  0
LINE
  5
2C9
100
AcDbEntity
  8
0
100
AcDbLine
 62
7
  6
CONTINUOUS
 10
34.3723237437
 20
70.5479783163
 30
0.0
 11
34.4525346485
 21
70.5479783163
 31
0.0
  0
LINE
  5
2CA
100
AcDbEntity
  8
0
100
AcDbLine
 62
7
  6
CONTINUOUS
 10
34.3712209056
 20
70.5627495742
 30
0.0
 11
34.451431514
 21
70.5627495742
 31
0.0
  0
LINE
  5
2CB
100
AcDbEntity
  8
0
100
AcDbLine
 62
250
  6
CONTINUOUS
 10
34.2801142685
 20
71.8253359622
 30
0.0
 11
34.3603005255
 21
71.8253359622
 31
0.0
  0
LINE
  5
2CC
100
AcDbEntity
  8
SUPERFICI
100
AcDbLine
 62
7
  6
CONTINUOUS
 10
34.3534639194
 20
71.9101889914
 30
0.0
 11
34.2732792682
 21
71.9101889914
 31
0.0
  0
LINE
  5
2CD
100
AcDbEntity
  8
RACCORDO
100
AcDbLine
 62
250
  6
CONTINUOUS
 10
36.8719272333
 20
75.1256537371
 30
0.0
 11
36.616719682
 21
75.1113037064
 31
0.0
  0
LINE
  5
2CE
100
AcDbEntity
  8
RACCORDO
100
AcDbLine
 62
250
  6
CONTINUOUS
 10
36.8626514377
 20
75.2913037064
 30
0.0
 11
36.6074334648
 21
75.2771154024
 31
0.0
  0
LINE
  5
2CF
100
AcDbEntity
  8
RACCORDO
100
AcDbLine
 62
250
  6
CONTINUOUS
 10
34.4360815392
 20
74.9273531064
 30
0.0
 11
34.160592161
 21
74.9225337734
 31
0.0
  0
LINE
  5
2D0
100
AcDbEntity
  8
RACCORDO
100
AcDbLine
 62
250
  6
CONTINUOUS
 10
36.616719682
 20
75.1113037064
 30
0.0
 11
34.4407135809
 21
75.1113037064
 31
0.0
  0
LINE
  5
2D1
100
AcDbEntity
  8
RACCORDO
100
AcDbLine
 62
250
  6
CONTINUOUS
 10
36.8626514377
 20
75.2913037064
 30
0.0
 11
39.90297073
 21
75.2913037064
 31
0.0
  0
LINE
  5
2D2
100
AcDbEntity
  8
RACCORDO
100
AcDbLine
 62
250
  6
CONTINUOUS
 10
43.6311176316
 20
75.1160978349
 30
0.0
 11
43.5304921904
 21
75.1161727454
 31
0.0
  0
LINE
  5
2D3
100
AcDbEntity
  8
RACCORDO
100
AcDbLine
 62
250
  6
CONTINUOUS
 10
43.5304921904
 20
75.1161727454
 30
0.0
 11
39.9029486744
 21
75.2916959119
 31
0.0
  0
LINE
  5
2D4
100
AcDbEntity
  8
RACCORDO
100
AcDbLine
 62
250
  6
CONTINUOUS
 10
34.4156801598
 20
75.7278027677
 30
0.0
 11
34.4155329286
 21
75.7278036481
 31
0.0
  0
LWPOLYLINE
  5
2D5
100
AcDbEntity
  8
0
100
AcDbPolyline
 62
7
  6
CONTINUOUS
 90
3
 70
0
 43
0.3500000006
 10
38.6210260162
 20
151.2541245117
 10
38.5495993652
 20
151.0398400269
 10
38.4067415314
 20
150.7541152954
  0
LINE
  5
2D6
100
AcDbEntity
  8
0
100
AcDbLine
 62
7
  6
CONTINUOUS
 10
34.3710234536
 20
70.565212042
 30
0.0
 11
34.3712209056
 21
70.5627495742
 31
0.0
  0
LINE
  5
2D7
100
AcDbEntity
  8
0
100
AcDbLine
 62
7
  6
CONTINUOUS
 10
34.3723237437
 20
70.5479783163
 30
0.0
 11
34.3742914551
 21
70.5231202209
 31
0.0
  0
LINE
  5
2D8
100
AcDbEntity
  8
0
100
AcDbLine
 62
7
  6
CONTINUOUS
 10
34.480434863
 20
70.1843259085
 30
0.0
 11
34.4525346485
 21
70.5479783163
 31
0.0
  0
LINE
  5
2D9
100
AcDbEntity
  8
0
100
AcDbLine
 62
7
  6
CONTINUOUS
 10
34.3712209056
 20
70.5627495742
 30
0.0
 11
34.4099616101
 21
70.0576427885
 31
0.0
  0
LINE
  5
2DA
100
AcDbEntity
  8
0
100
AcDbLine
 62
7
  6
CONTINUOUS
 10
34.3340150932
 20
71.0766333924
 30
0.0
 11
34.3712209056
 21
70.5627495742
 31
0.0
  0
LINE
  5
2DB
100
AcDbEntity
  8
0
100
AcDbLine
 62
7
  6
CONTINUOUS
 10
34.2801142685
 20
71.8253359622
 30
0.0
 11
34.321575659
 21
71.248999098
 31
0.0
  0
LINE
  5
2DC
100
AcDbEntity
  8
0
100
AcDbLine
 62
7
  6
CONTINUOUS
 10
34.451431514
 20
70.5627495742
 30
0.0
 11
34.3603005288
 21
71.8253358888
 31
0.0
  0
LINE
  5
2DD
100
AcDbEntity
  8
0
100
AcDbLine
 62
7
  6
CONTINUOUS
 10
34.3703981753
 20
70.5745640289
 30
0.0
 11
34.3710234536
 21
70.565212042
 31
0.0
  0
LWPOLYLINE
  5
2DE
100
AcDbEntity
  8
RACCORDO
100
AcDbPolyline
 62
7
  6
CONTINUOUS
 90
8
 70
0
 10
34.440234579
 20
120.2367409461
 10
34.4402739937
 20
120.2361162885
 10
34.4403528935
 20
120.2346598024
 10
34.4404504319
 20
120.2325368997
 10
34.4405584454
 20
120.2297494503
 10
34.4406710464
 20
120.2262656456
 10
34.4407788749
 20
120.2222106939
 10
34.4408777061
 20
120.2175994959
  0
LINE
  5
2DF
100
AcDbEntity
  8
RACCORDO
100
AcDbLine
 62
250
  6
CONTINUOUS
 10
36.607432357
 20
75.277115341
 30
0.0
 11
36.6167208122
 21
75.1113037701
 31
0.0
  0
LINE
  5
2E0
100
AcDbEntity
  8
RACCORDO
100
AcDbLine
 62
250
  6
CONTINUOUS
 10
34.4407135809
 20
75.1113037065
 30
0.0
 11
34.4401603417
 21
75.1222069866
 31
0.0
  0
LINE
  5
2E1
100
AcDbEntity
  8
RACCORDO
100
AcDbLine
 62
7
  6
CONTINUOUS
 10
34.3118272948
 20
77.7955512237
 30
0.0
 11
34.4228544666
 21
75.585280829
 31
0.0
  0
LINE
  5
2E2
100
AcDbEntity
  8
RACCORDO
100
AcDbLine
 62
7
  6
CONTINUOUS
 10
34.4228544666
 20
75.585280829
 30
0.0
 11
34.4294809439
 21
75.440981843
 31
0.0
  0
LINE
  5
2E3
100
AcDbEntity
  8
RACCORDO
100
AcDbLine
 62
7
  6
CONTINUOUS
 10
34.4294809439
 20
75.440981843
 30
0.0
 11
34.4331697624
 21
75.3505143174
 31
0.0
  0
LINE
  5
2E4
100
AcDbEntity
  8
RACCORDO
100
AcDbLine
 62
7
  6
CONTINUOUS
 10
34.4331697624
 20
75.3505143174
 30
0.0
 11
34.4362074953
 21
75.2663940425
 31
0.0
  0
LINE
  5
2E5
100
AcDbEntity
  8
RACCORDO
100
AcDbLine
 62
7
  6
CONTINUOUS
 10
34.4362074953
 20
75.2663940425
 30
0.0
 11
34.4385482417
 21
75.1900696419
 31
0.0
  0
LINE
  5
2E6
100
AcDbEntity
  8
RACCORDO
100
AcDbLine
 62
7
  6
CONTINUOUS
 10
34.4385482417
 20
75.1900696419
 30
0.0
 11
34.4401603416
 21
75.1222069872
 31
0.0
  0
LINE
  5
2E7
100
AcDbEntity
  8
RACCORDO
100
AcDbLine
 62
7
  6
CONTINUOUS
 10
34.4401588637
 20
75.122281437
 30
0.0
 11
34.4406555443
 21
75.0938759734
 31
0.0
  0
LINE
  5
2E8
100
AcDbEntity
  8
RACCORDO
100
AcDbLine
 62
7
  6
CONTINUOUS
 10
34.4408777061
 20
120.2175994959
 30
0.0
 11
34.4410358064
 21
120.2066805965
 31
0.0
  0
LINE
  5
2E9
100
AcDbEntity
  8
RACCORDO
100
AcDbLine
 62
7
  6
CONTINUOUS
 10
34.4406555443
 20
75.0938759734
 30
0.0
 11
34.4409298241
 21
75.0726599901
 31
0.0
  0
LINE
  5
2EA
100
AcDbEntity
  8
RACCORDO
100
AcDbLine
 62
7
  6
CONTINUOUS
 10
34.4409298241
 20
75.0726599901
 30
0.0
 11
34.441087132
 21
75.0534317613
 31
0.0
  0
LINE
  5
2EB
100
AcDbEntity
  8
RACCORDO
100
AcDbLine
 62
7
  6
CONTINUOUS
 10
34.4410358064
 20
120.2066805965
 30
0.0
 11
34.4411228443
 21
120.1936675985
 31
0.0
  0
LWPOLYLINE
  5
2EC
100
AcDbEntity
  8
RACCORDO
100
AcDbPolyline
 62
7
  6
CONTINUOUS
 90
9
 70
0
 10
33.8965050676
 20
97.6113037228
 10
33.9035771981
 20
94.9369387852
 10
33.9249662557
 20
92.2584040139
 10
33.9596398564
 20
89.6563739475
 10
34.0065680736
 20
87.1308789334
 10
34.064834343
 20
84.6819586956
 10
34.134708406
 20
82.3096738993
 10
34.2169108127
 20
80.0141716851
 10
34.3118272948
 20
77.7955512237
  0
LINE
  5
2ED
100
AcDbEntity
  8
RACCORDO
100
AcDbLine
 62
7
  6
CONTINUOUS
 10
34.441087132
 20
75.0534317613
 30
0.0
 11
34.4411360413
 21
75.0363204499
 31
0.0
  0
LINE
  5
2EE
100
AcDbEntity
  8
RACCORDO
100
AcDbLine
 62
7
  6
CONTINUOUS
 10
34.4411228443
 20
120.1936675985
 30
0.0
 11
34.4411266207
 21
120.1787002757
 31
0.0
  0
LINE
  5
2EF
100
AcDbEntity
  8
RACCORDO
100
AcDbLine
 62
7
  6
CONTINUOUS
 10
34.4411360413
 20
75.0363204499
 30
0.0
 11
34.4410846025
 21
75.0214965893
 31
0.0
  0
LINE
  5
2F0
100
AcDbEntity
  8
RACCORDO
100
AcDbLine
 62
7
  6
CONTINUOUS
 10
34.4411266207
 20
120.1787002757
 30
0.0
 11
34.4410406272
 21
120.1619005143
 31
0.0
  0
LINE
  5
2F1
100
AcDbEntity
  8
RACCORDO
100
AcDbLine
 62
7
  6
CONTINUOUS
 10
34.4410406272
 20
120.1619005143
 30
0.0
 11
34.4408583064
 21
120.1435079853
 31
0.0
  0
LWPOLYLINE
  5
2F2
100
AcDbEntity
  8
RACCORDO
100
AcDbPolyline
 62
7
  6
CONTINUOUS
 90
10
 70
0
 10
34.4410846025
 20
75.0214965893
 10
34.4409466089
 20
75.0090343788
 10
34.4408518675
 20
75.0037160377
 10
34.4407443725
 20
74.9990052619
 10
34.4406306624
 20
74.9950016528
 10
34.4405153959
 20
74.9916762682
 10
34.4404047573
 20
74.9890274828
 10
34.4403133179
 20
74.9871887776
 10
34.4402496184
 20
74.9860997962
 10
34.4402274687
 20
74.9857731054
  0
LINE
  5
2F3
100
AcDbEntity
  8
RACCORDO
100
AcDbLine
 62
7
  6
CONTINUOUS
 10
34.4408583064
 20
120.1435079853
 30
0.0
 11
34.440400285
 21
120.1132059998
 31
0.0
  0
LINE
  5
2F4
100
AcDbEntity
  8
RACCORDO
100
AcDbLine
 62
7
  6
CONTINUOUS
 10
34.440400285
 20
120.1132059998
 30
0.0
 11
34.4395851481
 21
120.0734723598
 31
0.0
  0
LINE
  5
2F5
100
AcDbEntity
  8
RACCORDO
100
AcDbLine
 62
7
  6
CONTINUOUS
 10
34.4395851481
 20
120.0734723598
 30
0.0
 11
34.4376775949
 21
120.0024046956
 31
0.0
  0
LINE
  5
2F6
100
AcDbEntity
  8
RACCORDO
100
AcDbLine
 62
7
  6
CONTINUOUS
 10
34.4376775949
 20
120.0024046956
 30
0.0
 11
34.4350506975
 21
119.9227803557
 31
0.0
  0
LINE
  5
2F7
100
AcDbEntity
  8
RACCORDO
100
AcDbLine
 62
7
  6
CONTINUOUS
 10
34.4350506975
 20
119.9227803557
 30
0.0
 11
34.4317435707
 21
119.835901458
 31
0.0
  0
LWPOLYLINE
  5
2F8
100
AcDbEntity
  8
RACCORDO
100
AcDbPolyline
 62
7
  6
CONTINUOUS
 90
9
 70
0
 10
34.312137184
 20
117.4337223653
 10
34.2171725101
 20
115.2151057134
 10
34.134925089
 20
112.9196047863
 10
34.0650150644
 20
110.5473186907
 10
34.0067019421
 20
108.0983943384
 10
33.9597463202
 20
105.5728965741
 10
33.9250377619
 20
102.9708667696
 10
33.9036125289
 20
100.2923331479
 10
33.8965050676
 20
97.6113036973
  0
LINE
  5
2F9
100
AcDbEntity
  8
RACCORDO
100
AcDbLine
 62
7
  6
CONTINUOUS
 10
34.4317435707
 20
119.835901458
 30
0.0
 11
34.4256138737
 21
119.6952333924
 31
0.0
  0
LINE
  5
2FA
100
AcDbEntity
  8
RACCORDO
100
AcDbLine
 62
250
  6
CONTINUOUS
 10
34.4407135809
 20
120.1113037055
 30
0.0
 11
34.440160158
 21
120.1003912578
 31
0.0
  0
LINE
  5
2FB
100
AcDbEntity
  8
RACCORDO
100
AcDbLine
 62
7
  6
CONTINUOUS
 10
34.4256138737
 20
119.6952333924
 30
0.0
 11
34.312137184
 21
117.4337223653
 31
0.0
  0
LINE
  5
2FC
100
AcDbEntity
  8
RACCORDO
100
AcDbLine
 62
250
  6
CONTINUOUS
 10
34.4156801598
 20
119.4948046451
 30
0.0
 11
34.4125068073
 21
119.4358598612
 31
0.0
  0
LINE
  5
2FD
100
AcDbEntity
  8
RACCORDO
100
AcDbLine
 62
250
  6
CONTINUOUS
 10
36.6167208123
 20
120.1113036427
 30
0.0
 11
36.6074323572
 21
119.9454920721
 31
0.0
  0
LINE
  5
2FE
100
AcDbEntity
  8
RACCORDO
100
AcDbLine
 62
7
  6
CONTINUOUS
 10
34.4402809481
 20
120.2361828908
 30
0.0
 11
34.4402459452
 21
120.2365992723
 31
0.0
  0
LWPOLYLINE
  5
2FF
100
AcDbEntity
  8
0
100
AcDbPolyline
 62
7
  6
CONTINUOUS
 90
4
 70
0
 43
0.3500000006
 10
39.6210263214
 20
153.3255472412
 10
39.6210263214
 20
153.9684006958
 10
41.1210267792
 20
153.9684006958
 10
40.2638843079
 20
150.9683997803
  0
LINE
  5
300
100
AcDbEntity
  8
RACCORDO
100
AcDbLine
 62
250
  6
CONTINUOUS
 10
43.6311176316
 20
97.6113037064
 30
0.0
 11
33.8966527613
 21
97.6113037064
 31
0.0
  0
LINE
  5
301
100
AcDbEntity
  8
RACCORDO
100
AcDbLine
 62
250
  6
CONTINUOUS
 10
43.5554723172
 20
58.9393116645
 30
0.0
 11
43.5570460093
 21
58.6112402079
 31
0.0
  0
LINE
  5
302
100
AcDbEntity
  8
RACCORDO
100
AcDbLine
 62
7
  6
CONTINUOUS
 10
43.6311176316
 20
139.1756038244
 30
0.0
 11
43.6311176316
 21
56.0470036008
 31
0.0
  0
LINE
  5
303
100
AcDbEntity
  8
RACCORDO
100
AcDbLine
 62
250
  6
CONTINUOUS
 10
43.5568733789
 20
136.6113680721
 30
0.0
 11
43.5556947968
 21
136.2832947208
 31
0.0
  0
LINE
  5
304
100
AcDbEntity
  8
RACCORDO
100
AcDbLine
 62
250
  6
CONTINUOUS
 10
43.5304921904
 20
120.1064346674
 30
0.0
 11
39.9029486744
 21
119.9309115009
 31
0.0
  0
LINE
  5
305
100
AcDbEntity
  8
RACCORDO
100
AcDbLine
 62
250
  6
CONTINUOUS
 10
34.4156801658
 20
119.4948047565
 30
0.0
 11
34.4155329286
 21
119.494803765
 31
0.0
  0
LINE
  5
306
100
AcDbEntity
  8
RACCORDO
100
AcDbLine
 62
250
  6
CONTINUOUS
 10
43.6311176316
 20
120.1065095779
 30
0.0
 11
43.5304921904
 21
120.1064346674
 31
0.0
  0
LINE
  5
307
100
AcDbEntity
  8
RACCORDO
100
AcDbLine
 62
250
  6
CONTINUOUS
 10
36.8626514377
 20
119.9313037064
 30
0.0
 11
39.90297073
 21
119.9313037064
 31
0.0
  0
LINE
  5
308
100
AcDbEntity
  8
RACCORDO
100
AcDbLine
 62
250
  6
CONTINUOUS
 10
36.616719682
 20
120.1113037064
 30
0.0
 11
34.4407135809
 21
120.1113037064
 31
0.0
  0
LINE
  5
309
100
AcDbEntity
  8
RACCORDO
100
AcDbLine
 62
250
  6
CONTINUOUS
 10
34.160592161
 20
120.3000736394
 30
0.0
 11
34.4360815392
 21
120.2952543064
 31
0.0
  0
LINE
  5
30A
100
AcDbEntity
  8
RACCORDO
100
AcDbLine
 62
250
  6
CONTINUOUS
 10
36.8626514354
 20
119.9313036667
 30
0.0
 11
36.6074334671
 21
119.9454920502
 31
0.0
  0
LINE
  5
30B
100
AcDbEntity
  8
RACCORDO
100
AcDbLine
 62
250
  6
CONTINUOUS
 10
36.8719272333
 20
120.0969536757
 30
0.0
 11
36.616719682
 21
120.1113037064
 31
0.0
  0
LWPOLYLINE
  5
30C
100
AcDbEntity
  8
0
100
AcDbPolyline
 62
7
  6
CONTINUOUS
 90
10
 70
0
 43
0.3500000006
 10
38.5495993652
 20
151.4684089966
 10
38.6210260162
 20
151.3255466309
 10
38.6210260162
 20
151.2541245117
 10
38.4781727142
 20
151.111262146
 10
38.4067415314
 20
151.111262146
 10
38.3353148804
 20
151.1826842651
 10
38.3353148804
 20
151.2541245117
 10
38.4067415314
 20
151.39696875
 10
38.4781727142
 20
151.4684089966
 10
38.5495993652
 20
151.4684089966
  0
LINE
  5
30D
100
AcDbEntity
  8
SUPERFICI
100
AcDbLine
 62
7
  6
CONTINUOUS
 10
43.5573047143
 20
55.9177923832
 30
0.0
 11
41.5056012679
 21
54.7014184763
 31
0.0
  0
LINE
  5
30E
100
AcDbEntity
  8
RACCORDO
100
AcDbLine
 62
250
  6
CONTINUOUS
 10
41.4255834601
 20
140.6113037064
 30
0.0
 11
38.3663784231
 21
140.1814598138
 31
0.0
  0
LINE
  5
30F
100
AcDbEntity
  8
RACCORDO
100
AcDbLine
 62
250
  6
CONTINUOUS
 10
38.3219989037
 20
140.1811990605
 30
0.0
 11
41.3823524785
 21
140.6113037064
 31
0.0
  0
LINE
  5
310
100
AcDbEntity
  8
RACCORDO
100
AcDbLine
 62
7
  6
CONTINUOUS
 10
36.415505439
 20
140.1841872411
 30
0.0
 11
39.4545970039
 21
140.6113037064
 31
0.0
  0
LINE
  5
311
100
AcDbEntity
  8
RACCORDO
100
AcDbLine
 62
7
  6
CONTINUOUS
 10
39.3547233829
 20
140.6113037064
 30
0.0
 11
36.3157519066
 21
140.1842041185
 31
0.0
  0
LINE
  5
312
100
AcDbEntity
  8
RACCORDO
100
AcDbLine
 62
250
  6
CONTINUOUS
 10
43.5556947968
 20
136.2832947208
 30
0.0
 11
41.3630157804
 21
136.2171525584
 31
0.0
  0
LINE
  5
313
100
AcDbEntity
  8
RACCORDO
100
AcDbLine
 62
250
  6
CONTINUOUS
 10
38.3051151359
 20
136.2201037064
 30
0.0
 11
41.3633792661
 21
136.2201037064
 31
0.0
  0
LINE
  5
314
100
AcDbEntity
  8
0
100
AcDbLine
 62
7
  6
CONTINUOUS
 10
39.4545970039
 20
140.6113037064
 30
0.0
 11
39.3547233829
 21
140.6113037064
 31
0.0
  0
LINE
  5
315
100
AcDbEntity
  8
SUPERFICI
100
AcDbLine
 62
7
  6
CONTINUOUS
 10
41.4255834601
 20
140.6113037064
 30
0.0
 11
39.4545970039
 21
140.6113037064
 31
0.0
  0
LINE
  5
316
100
AcDbEntity
  8
RACCORDO
100
AcDbLine
 62
7
  6
CONTINUOUS
 10
36.3157519066
 20
140.1842041185
 30
0.0
 11
36.415505439
 21
140.1841872411
 31
0.0
  0
LINE
  5
317
100
AcDbEntity
  8
RACCORDO
100
AcDbLine
 62
250
  6
CONTINUOUS
 10
43.5568733789
 20
136.6113680721
 30
0.0
 11
41.4102011767
 21
136.6132288877
 31
0.0
  0
LINE
  5
318
100
AcDbEntity
  8
RACCORDO
100
AcDbLine
 62
250
  6
CONTINUOUS
 10
36.4157379135
 20
140.1841872007
 30
0.0
 11
38.3219989037
 21
140.1811990605
 31
0.0
  0
LINE
  5
319
100
AcDbEntity
  8
RACCORDO
100
AcDbLine
 62
250
  6
CONTINUOUS
 10
36.0602712853
 20
139.9277784676
 30
0.0
 11
38.0685253041
 21
139.9245351775
 31
0.0
  0
LINE
  5
31A
100
AcDbEntity
  8
RACCORDO
100
AcDbLine
 62
250
  6
CONTINUOUS
 10
38.3051151359
 20
136.2201037064
 30
0.0
 11
38.0515809872
 21
136.2508972015
 31
0.0
  0
LINE
  5
31B
100
AcDbEntity
  8
SUPERFICI
100
AcDbLine
 62
7
  6
CONTINUOUS
 10
43.5573046602
 20
139.3048150615
 30
0.0
 11
42.4287345025
 21
139.9724760234
 31
0.0
  0
LINE
  5
31C
100
AcDbEntity
  8
SUPERFICI
100
AcDbLine
 62
7
  6
CONTINUOUS
 10
42.4287345025
 20
139.9724760234
 30
0.0
 11
41.5056012679
 21
140.5211889365
 31
0.0
  0
ARC
  5
31D
100
AcDbEntity
  8
RACCORDO
100
AcDbCircle
 62
250
  6
CONTINUOUS
 10
195.664279795
 20
129.2803258888
 30
0.0
 40
70.699325867
100
AcDbArc
 50
267.9899812864
 51
268.3382753224
  0
ARC
  5
31E
100
AcDbEntity
  8
RACCORDO
100
AcDbCircle
 62
250
  6
CONTINUOUS
 10
68.7639309128
 20
65.9422815277
 30
0.0
 40
70.6993258633
100
AcDbArc
 50
87.9899812864
 51
88.3382753224
  0
ARC
  5
31F
100
AcDbEntity
  8
RACCORDO
100
AcDbCircle
 62
250
  6
CONTINUOUS
 10
195.6642797481
 20
65.94228307
 30
0.0
 40
70.6993243202
100
AcDbArc
 50
91.661724676
 51
92.0100187193
  0
ARC
  5
320
100
AcDbEntity
  8
RACCORDO
100
AcDbCircle
 62
250
  6
CONTINUOUS
 10
68.7639309597
 20
129.280324339
 30
0.0
 40
70.6993243165
100
AcDbArc
 50
271.661724676
 51
272.0100187194
  0
ARC
  5
321
100
AcDbEntity
  8
SUPERFICI
100
AcDbCircle
 62
7
  6
CONTINUOUS
 10
189.6141053536
 20
58.6113037065
 30
0.0
 40
4.0000000001
100
AcDbArc
 50
270.0000000032
 51
359.9918147351
  0
ARC
  5
322
100
AcDbEntity
  8
SUPERFICI
100
AcDbCircle
 62
7
  6
CONTINUOUS
 10
189.6141053536
 20
136.6113037063
 30
0.0
 40
4.0000000001
100
AcDbArc
 50
0.0081852649
 51
89.9999999968
  0
ARC
  5
323
100
AcDbEntity
  8
0
100
AcDbCircle
 62
7
  6
CONTINUOUS
 10
74.814105354
 20
58.6113037065
 30
0.0
 40
4.0000000001
100
AcDbArc
 50
180.0081852649
 51
269.9999999968
  0
ARC
  5
324
100
AcDbEntity
  8
SUPERFICI
100
AcDbCircle
 62
7
  6
CONTINUOUS
 10
74.814105354
 20
136.6113037063
 30
0.0
 40
4.0000000001
100
AcDbArc
 50
90.0000000032
 51
179.9918147351
  0
ARC
  5
325
100
AcDbEntity
  8
RACCORDO
100
AcDbCircle
 62
250
  6
CONTINUOUS
 10
189.6091791545
 20
136.6061018984
 30
0.0
 40
3.5753405188
100
AcDbArc
 50
359.8718770461
 51
90.0257282225
  0
ARC
  5
326
100
AcDbEntity
  8
RACCORDO
100
AcDbCircle
 62
250
  6
CONTINUOUS
 10
74.8190318759
 20
58.616505181
 30
0.0
 40
3.5753405188
100
AcDbArc
 50
179.8718717146
 51
270.0257230555
  0
ARC
  5
327
100
AcDbEntity
  8
RACCORDO
100
AcDbCircle
 62
250
  6
CONTINUOUS
 10
74.8190321005
 20
136.6061024189
 30
0.0
 40
3.5753404787
100
AcDbArc
 50
89.9742805422
 51
180.1281312763
  0
ARC
  5
328
100
AcDbEntity
  8
RACCORDO
100
AcDbCircle
 62
250
  6
CONTINUOUS
 10
189.6091785301
 20
58.6165057271
 30
0.0
 40
3.5753404787
100
AcDbArc
 50
269.9742817851
 51
0.1281195236
  0
ARC
  5
329
100
AcDbEntity
  8
RACCORDO
100
AcDbCircle
 62
250
  6
CONTINUOUS
 10
74.7840887396
 20
58.5801247591
 30
0.0
 40
3.2823028828
100
AcDbArc
 50
179.7833854139
 51
270.1012299944
  0
ARC
  5
32A
100
AcDbEntity
  8
RACCORDO
100
AcDbCircle
 62
250
  6
CONTINUOUS
 10
189.6441220046
 20
136.6424826902
 30
0.0
 40
3.2823028828
100
AcDbArc
 50
359.7833847735
 51
90.1012306328
  0
ARC
  5
32B
100
AcDbEntity
  8
RACCORDO
100
AcDbCircle
 62
250
  6
CONTINUOUS
 10
189.6441214617
 20
58.5801241111
 30
0.0
 40
3.2823028512
100
AcDbArc
 50
269.8987788254
 51
0.2166258652
  0
ARC
  5
32C
100
AcDbEntity
  8
RACCORDO
100
AcDbCircle
 62
250
  6
CONTINUOUS
 10
74.7840892826
 20
136.642483265
 30
0.0
 40
3.2823028512
100
AcDbArc
 50
89.8987794664
 51
180.2166252228
  0
ARC
  5
32D
100
AcDbEntity
  8
RACCORDO
100
AcDbCircle
 62
250
  6
CONTINUOUS
 10
98.8637147856
 20
75.7287458257
 30
0.0
 40
0.8012168693
100
AcDbArc
 50
180.0674389862
 51
269.965034908
  0
ARC
  5
32E
100
AcDbEntity
  8
RACCORDO
100
AcDbCircle
 62
250
  6
CONTINUOUS
 10
165.5644959221
 20
119.4938615871
 30
0.0
 40
0.8012168693
100
AcDbArc
 50
0.0674389862
 51
89.965034908
  0
ARC
  5
32F
100
AcDbEntity
  8
RACCORDO
100
AcDbCircle
 62
250
  6
CONTINUOUS
 10
165.5644975819
 20
75.7287450432
 30
0.0
 40
0.8012152086
100
AcDbArc
 50
270.0349712944
 51
359.9326168274
  0
ARC
  5
330
100
AcDbEntity
  8
RACCORDO
100
AcDbCircle
 62
250
  6
CONTINUOUS
 10
98.8636785251
 20
119.4938786801
 30
0.0
 40
0.801180589
100
AcDbArc
 50
90.0349400693
 51
179.9337803547
  0
ARC
  5
331
100
AcDbEntity
  8
RACCORDO
100
AcDbCircle
 62
250
  6
CONTINUOUS
 10
98.8720193277
 20
75.7447973398
 30
0.0
 40
0.5001778486
100
AcDbArc
 50
180.0954170784
 51
269.9574728594
  0
ARC
  5
332
100
AcDbEntity
  8
RACCORDO
100
AcDbCircle
 62
250
  6
CONTINUOUS
 10
165.5561913799
 20
119.477810073
 30
0.0
 40
0.5001778486
100
AcDbArc
 50
0.0954170784
 51
89.9574728594
  0
ARC
  5
333
100
AcDbEntity
  8
RACCORDO
100
AcDbCircle
 62
250
  6
CONTINUOUS
 10
165.5561922614
 20
75.7447969217
 30
0.0
 40
0.5001769664
100
AcDbArc
 50
270.0425387025
 51
359.9046306418
  0
ARC
  5
334
100
AcDbEntity
  8
RACCORDO
100
AcDbCircle
 62
250
  6
CONTINUOUS
 10
98.871997129
 20
119.4778205343
 30
0.0
 40
0.5001556428
100
AcDbArc
 50
90.042504648
 51
179.9057759199
  0
ARC
  5
335
100
AcDbEntity
  8
SUPERFICI
100
AcDbCircle
 62
7
  6
CONTINUOUS
 10
5.8735983012
 20
54.6231877138
 30
0.0
 40
35.7589563815
100
AcDbArc
 50
6.4024698763
 51
7.0345401934
  0
ARC
  5
336
100
AcDbEntity
  8
RACCORDO
100
AcDbCircle
 62
250
  6
CONTINUOUS
 10
23.8055577564
 20
74.8917301338
 30
0.0
 40
10.6374307956
100
AcDbArc
 50
1.2403151944
 51
1.7509595438
  0
ARC
  5
337
100
AcDbEntity
  8
RACCORDO
100
AcDbCircle
 62
250
  6
CONTINUOUS
 10
27.7676527766
 20
74.9800271351
 30
0.0
 40
6.6743519563
100
AcDbArc
 50
0.8971346028
 51
1.1270125676
  0
ARC
  5
338
100
AcDbEntity
  8
RACCORDO
100
AcDbCircle
 62
250
  6
CONTINUOUS
 10
29.5750718384
 20
75.007912776
 30
0.0
 40
4.8667178574
100
AcDbArc
 50
0.3378673319
 51
0.90204515
  0
ARC
  5
339
100
AcDbEntity
  8
RACCORDO
100
AcDbCircle
 62
250
  6
CONTINUOUS
 10
38.3268086209
 20
52.08324101
 30
0.0
 40
2.9581712523
100
AcDbArc
 50
89.2335635482
 51
90.0931577637
  0
ARC
  5
33A
100
AcDbEntity
  8
RACCORDO
100
AcDbCircle
 62
250
  6
CONTINUOUS
 10
38.0741126991
 20
52.3447918468
 30
0.0
 40
2.9532856739
100
AcDbArc
 50
89.2464378438
 51
90.1083993847
  0
ARC
  5
33B
100
AcDbEntity
  8
RACCORDO
100
AcDbCircle
 62
250
  6
CONTINUOUS
 10
34.7371974295
 20
74.9443432028
 30
0.0
 40
0.3015948321
100
AcDbArc
 50
169.7074088983
 51
183.2294201937
  0
ARC
  5
33C
100
AcDbEntity
  8
RACCORDO
100
AcDbCircle
 62
250
  6
CONTINUOUS
 10
34.560019974
 20
74.9413703788
 30
0.0
 40
0.3000160906
100
AcDbArc
 50
114.0615861632
 51
183.2656099129
  0
ARC
  5
33D
100
AcDbEntity
  8
RACCORDO
100
AcDbCircle
 62
7
  6
CONTINUOUS
 10
36.3575038369
 20
55.3354837149
 30
0.0
 40
0.3
100
AcDbArc
 50
187.7884528795
 51
262.0
  0
ARC
  5
33E
100
AcDbEntity
  8
RACCORDO
100
AcDbCircle
 62
7
  6
CONTINUOUS
 10
34.4601043275
 20
74.9396352973
 30
0.0
 40
0.3
100
AcDbArc
 50
94.4006456008
 51
183.2679220069
  0
ARC
  5
33F
100
AcDbEntity
  8
RACCORDO
100
AcDbCircle
 62
7
  6
CONTINUOUS
 10
43.3311176316
 20
76.0561128853
 30
0.0
 40
0.3
100
AcDbArc
 50
354.0666128389
 51
360.0
  0
ARC
  5
340
100
AcDbEntity
  8
RACCORDO
100
AcDbCircle
 62
7
  6
CONTINUOUS
 10
43.3311176316
 20
76.1664945275
 30
0.0
 40
0.3
100
AcDbArc
 50
0.0
 51
5.9333871612
  0
ARC
  5
341
100
AcDbEntity
  8
RACCORDO
100
AcDbCircle
 62
250
  6
CONTINUOUS
 10
36.4572640535
 20
55.3354937457
 30
0.0
 40
0.2999941504
100
AcDbArc
 50
187.7870222778
 51
261.9985538166
  0
ARC
  5
342
100
AcDbEntity
  8
RACCORDO
100
AcDbCircle
 62
7
  6
CONTINUOUS
 10
43.4811176316
 20
56.0470036008
 30
0.0
 40
0.15
100
AcDbArc
 50
300.5248440177
 51
359.9999999999
  0
ARC
  5
343
100
AcDbEntity
  8
SUPERFICI
100
AcDbCircle
 62
7
  6
CONTINUOUS
 10
5.8735983012
 20
140.599419699
 30
0.0
 40
35.7589563815
100
AcDbArc
 50
352.9654598066
 51
353.5975301237
  0
ARC
  5
344
100
AcDbEntity
  8
RACCORDO
100
AcDbCircle
 62
250
  6
CONTINUOUS
 10
24.2128327246
 20
120.3212243722
 30
0.0
 40
10.2300477271
100
AcDbArc
 50
358.2957741322
 51
358.6562385351
  0
ARC
  5
345
100
AcDbEntity
  8
RACCORDO
100
AcDbCircle
 62
250
  6
CONTINUOUS
 10
26.5377851217
 20
120.2667079837
 30
0.0
 40
7.9044562572
100
AcDbArc
 50
358.6560873451
 51
358.8734730602
  0
ARC
  5
346
100
AcDbEntity
  8
RACCORDO
100
AcDbCircle
 62
250
  6
CONTINUOUS
 10
28.1161109807
 20
120.2363975832
 30
0.0
 40
6.3258395909
100
AcDbArc
 50
358.8668984886
 51
359.1460363985
  0
ARC
  5
347
100
AcDbEntity
  8
RACCORDO
100
AcDbCircle
 62
250
  6
CONTINUOUS
 10
30.2988330828
 20
120.207144773
 30
0.0
 40
4.1429252409
100
AcDbArc
 50
359.1006530471
 51
359.8270158225
  0
ARC
  5
348
100
AcDbEntity
  8
RACCORDO
100
AcDbCircle
 62
250
  6
CONTINUOUS
 10
38.3268086617
 20
143.1393594589
 30
0.0
 40
2.9581643086
100
AcDbArc
 50
269.9068412274
 51
270.7664374607
  0
ARC
  5
349
100
AcDbEntity
  8
RACCORDO
100
AcDbCircle
 62
250
  6
CONTINUOUS
 10
38.0741137137
 20
142.87763536
 30
0.0
 40
2.9531054702
100
AcDbArc
 50
269.8915743171
 51
270.7535884559
  0
ARC
  5
34A
100
AcDbEntity
  8
RACCORDO
100
AcDbCircle
 62
250
  6
CONTINUOUS
 10
34.7371973194
 20
120.2782641979
 30
0.0
 40
0.3015947228
100
AcDbArc
 50
176.7705763381
 51
190.2912013977
  0
ARC
  5
34B
100
AcDbEntity
  8
RACCORDO
100
AcDbCircle
 62
250
  6
CONTINUOUS
 10
34.5600199759
 20
120.2812370353
 30
0.0
 40
0.3000160924
100
AcDbArc
 50
176.7343903494
 51
245.9394428342
  0
ARC
  5
34C
100
AcDbEntity
  8
RACCORDO
100
AcDbCircle
 62
7
  6
CONTINUOUS
 10
36.3575038369
 20
139.8871236979
 30
0.0
 40
0.3
100
AcDbArc
 50
98.0
 51
172.2115471205
  0
ARC
  5
34D
100
AcDbEntity
  8
RACCORDO
100
AcDbCircle
 62
7
  6
CONTINUOUS
 10
34.4601043275
 20
120.2829721154
 30
0.0
 40
0.3
100
AcDbArc
 50
176.7320779931
 51
265.5988515972
  0
ARC
  5
34E
100
AcDbEntity
  8
RACCORDO
100
AcDbCircle
 62
7
  6
CONTINUOUS
 10
43.3311176316
 20
119.0561128853
 30
0.0
 40
0.3
100
AcDbArc
 50
354.0666128389
 51
360.0
  0
ARC
  5
34F
100
AcDbEntity
  8
RACCORDO
100
AcDbCircle
 62
7
  6
CONTINUOUS
 10
43.3311176316
 20
119.1664945275
 30
0.0
 40
0.3
100
AcDbArc
 50
0.0
 51
5.9333871611
  0
ARC
  5
350
100
AcDbEntity
  8
RACCORDO
100
AcDbCircle
 62
250
  6
CONTINUOUS
 10
36.4572640535
 20
139.8871136671
 30
0.0
 40
0.2999941504
100
AcDbArc
 50
98.0014461835
 51
172.2129777226
  0
ARC
  5
351
100
AcDbEntity
  8
RACCORDO
100
AcDbCircle
 62
7
  6
CONTINUOUS
 10
43.4811176316
 20
139.175603812
 30
0.0
 40
0.15
100
AcDbArc
 50
0.0000000001
 51
59.4751332964
  0
ARC
  5
352
100
AcDbEntity
  8
0
100
AcDbCircle
 62
7
  6
CONTINUOUS
 10
284.0529204233
 20
89.3198074708
 30
0.0
 40
250.3849793283
100
AcDbArc
 50
184.4121346953
 51
184.5674195732
  0
ARC
  5
353
100
AcDbEntity
  8
0
100
AcDbCircle
 62
7
  6
CONTINUOUS
 10
284.0323070862
 20
89.3172188283
 30
0.0
 40
250.2842447869
100
AcDbArc
 50
184.4133196381
 51
184.5686672885
  0
ARC
  5
354
100
AcDbEntity
  8
0
100
AcDbCircle
 62
7
  6
CONTINUOUS
 10
283.7540642417
 20
89.1738037064
 30
0.0
 40
250.0
100
AcDbArc
 50
183.2679220069
 51
183.9597275791
  0
ARC
  5
355
100
AcDbEntity
  8
0
100
AcDbCircle
 62
7
  6
CONTINUOUS
 10
283.7540642417
 20
89.1738037064
 30
0.0
 40
250.0
100
AcDbArc
 50
184.5409005326
 51
187.7884528795
  0
ARC
  5
356
100
AcDbEntity
  8
0
100
AcDbCircle
 62
7
  6
CONTINUOUS
 10
283.7577263886
 20
89.1738037064
 30
0.0
 40
250.0
100
AcDbArc
 50
184.2692889841
 51
184.2726837343
  0
ARC
  5
357
100
AcDbEntity
  8
RACCORDO
100
AcDbCircle
 62
250
  6
CONTINUOUS
 10
286.2207638839
 20
89.1738037064
 30
0.0
 40
250.0
100
AcDbArc
 50
183.2245913274
 51
186.938752297
  0
ARC
  5
358
100
AcDbEntity
  8
RACCORDO
100
AcDbCircle
 62
250
  6
CONTINUOUS
 10
283.8540642417
 20
89.1738037064
 30
0.0
 40
250.0
100
AcDbArc
 50
183.2675211255
 51
187.7884486491
  0
ARC
  5
359
100
AcDbEntity
  8
RACCORDO
100
AcDbCircle
 62
250
  6
CONTINUOUS
 10
286.3201383794
 20
89.1738490879
 30
0.0
 40
249.8434746728
100
AcDbArc
 50
183.2233262726
 51
186.9360235044
  0
ARC
  5
35A
100
AcDbEntity
  8
SUPERFICI
100
AcDbCircle
 62
7
  6
CONTINUOUS
 10
286.3122160796
 20
89.1738037064
 30
0.0
 40
246.8
100
AcDbArc
 50
183.2245895917
 51
187.0219743237
  0
ARC
  5
35B
100
AcDbEntity
  8
RACCORDO
100
AcDbCircle
 62
7
  6
CONTINUOUS
 10
283.7540642417
 20
106.0488037064
 30
0.0
 40
250.0
100
AcDbArc
 50
172.2115471205
 51
176.7320779931
  0
ARC
  5
35C
100
AcDbEntity
  8
RACCORDO
100
AcDbCircle
 62
250
  6
CONTINUOUS
 10
283.8540642417
 20
106.0488037064
 30
0.0
 40
250.0
100
AcDbArc
 50
172.2115513509
 51
176.7324788745
  0
ARC
  5
35D
100
AcDbEntity
  8
RACCORDO
100
AcDbCircle
 62
250
  6
CONTINUOUS
 10
286.2207524887
 20
106.0488037064
 30
0.0
 40
250.0
100
AcDbArc
 50
173.0612473875
 51
176.7754085257
  0
ARC
  5
35E
100
AcDbEntity
  8
RACCORDO
100
AcDbCircle
 62
250
  6
CONTINUOUS
 10
286.320363093
 20
106.04873835
 30
0.0
 40
249.8437001541
100
AcDbArc
 50
173.0639781716
 51
176.7766720514
  0
ARC
  5
35F
100
AcDbEntity
  8
SUPERFICI
100
AcDbCircle
 62
7
  6
CONTINUOUS
 10
286.3122160796
 20
106.0488037064
 30
0.0
 40
246.8
100
AcDbArc
 50
172.9780256763
 51
176.7754104083
  0
SPLINE
  5
360
100
AcDbEntity
  8
0
100
AcDbSpline
 62
7
  6
CONTINUOUS
 70
0
 71
3
 72
9
 73
5
 74
0
 42
0.0000001
 43
0.0000001
 44
0.0000000001
 40
0.0
 40
0.0
 40
0.0
 40
0.0
 40
0.6439297259
 40
1.0
 40
1.0
 40
1.0
 40
1.0
 10
136.2689287418
 20
70.1392829635
 30
0.0
 10
136.2400003418
 20
70.2162669279
 30
0.0
 10
136.154093595
 20
70.3318605958
 30
0.0
 10
136.0233445545
 20
70.359382345
 30
0.0
 10
135.9778740702
 20
70.359382345
 30
0.0
  0
SPLINE
  5
361
100
AcDbEntity
  8
0
100
AcDbSpline
 62
7
  6
CONTINUOUS
 70
0
 71
3
 72
9
 73
5
 74
0
 42
0.0000001
 43
0.0000001
 44
0.0000000001
 40
0.0
 40
0.0
 40
0.0
 40
0.0
 40
0.4412849067
 40
1.0
 40
1.0
 40
1.0
 40
1.0
 10
136.4971550162
 20
69.3811239257
 30
0.0
 10
136.4649735156
 20
69.4930580165
 30
0.0
 10
136.3889873299
 20
69.7456731173
 30
0.0
 10
136.3207994927
 20
70.0012449645
 30
0.0
 10
136.2689287144
 20
70.1392829532
 30
0.0
  0
SPLINE
  5
362
100
AcDbEntity
  8
0
100
AcDbSpline
 62
7
  6
CONTINUOUS
 70
0
 71
3
 72
9
 73
5
 74
0
 42
0.0000001
 43
0.0000001
 44
0.0000000001
 40
0.0
 40
0.0
 40
0.0
 40
0.0
 40
0.8019701384
 40
1.0
 40
1.0
 40
1.0
 40
1.0
 10
136.8206938766
 20
70.0576427886
 30
0.0
 10
136.8698565533
 20
69.877190532
 30
0.0
 10
136.9277122088
 20
69.6512575819
 30
0.0
 10
136.9869544455
 20
69.4256923911
 30
0.0
 10
136.9990591145
 20
69.3811239257
 30
0.0
  0
SPLINE
  5
363
100
AcDbEntity
  8
0
100
AcDbSpline
 62
7
  6
CONTINUOUS
 70
0
 71
3
 72
8
 73
4
 74
0
 42
0.0000001
 43
0.0000001
 44
0.0000000001
 40
0.0
 40
0.0
 40
0.0
 40
0.0
 40
1.0
 40
1.0
 40
1.0
 40
1.0
 10
136.519911751
 20
70.5479783163
 30
0.0
 10
136.5369015245
 20
70.5412036442
 30
0.0
 10
136.5530043315
 20
70.5328431206
 30
0.0
 10
136.5682671175
 20
70.5231202209
 30
0.0
  0
SPLINE
  5
364
100
AcDbEntity
  8
0
100
AcDbSpline
 62
7
  6
CONTINUOUS
 70
0
 71
3
 72
9
 73
5
 74
0
 42
0.0000001
 43
0.0000001
 44
0.0000000001
 40
0.0
 40
0.0
 40
0.0
 40
0.0
 40
0.7320070107
 40
1.0
 40
1.0
 40
1.0
 40
1.0
 10
136.5682671175
 20
70.5231202209
 30
0.0
 10
136.6756170764
 20
70.4547347455
 30
0.0
 10
136.765499646
 20
70.2692429138
 30
0.0
 10
136.8083133341
 20
70.1030857328
 30
0.0
 10
136.8206938763
 20
70.0576427885
 30
0.0
  0
SPLINE
  5
365
100
AcDbEntity
  8
0
100
AcDbSpline
 62
7
  6
CONTINUOUS
 70
0
 71
3
 72
17
 73
13
 74
0
 42
0.0000001
 43
0.0000001
 44
0.0000000001
 40
0.0
 40
0.0
 40
0.0
 40
0.0
 40
0.0799595168
 40
0.1896577306
 40
0.3223977561
 40
0.3986068941
 40
0.483386777
 40
0.5877249163
 40
0.678993766
 40
0.8312459613
 40
0.9440219048
 40
1.0
 40
1.0
 40
1.0
 40
1.0
 10
136.4661128804
 20
71.8253359622
 30
0.0
 10
136.5051585117
 20
71.8112501128
 30
0.0
 10
136.5923502699
 20
71.7631607309
 30
0.0
 10
136.7191631681
 20
71.6516596801
 30
0.0
 10
136.808978952
 20
71.5090800059
 30
0.0
 10
136.8567989721
 20
71.3635937788
 30
0.0
 10
136.8765294979
 20
71.2266756177
 30
0.0
 10
136.8727856442
 20
71.0800810243
 30
0.0
 10
136.8329353669
 20
70.9034565902
 30
0.0
 10
136.7434800869
 20
70.7341506344
 30
0.0
 10
136.6219902417
 20
70.624164904
 30
0.0
 10
136.5487322528
 20
70.5664683486
 30
0.0
 10
136.519911751
 20
70.5627495742
 30
0.0
  0
SPLINE
  5
366
100
AcDbEntity
  8
0
100
AcDbSpline
 62
7
  6
CONTINUOUS
 70
0
 71
3
 72
9
 73
5
 74
0
 42
0.0000001
 43
0.0000001
 44
0.0000000001
 40
0.0
 40
0.0
 40
0.0
 40
0.0
 40
0.7042582166
 40
1.0
 40
1.0
 40
1.0
 40
1.0
 10
135.1784078559
 20
71.8516542948
 30
0.0
 10
135.4795200699
 20
71.8959530288
 30
0.0
 10
135.9138475815
 20
71.9395515875
 30
0.0
 10
136.345908731
 20
71.8687629724
 30
0.0
 10
136.4661128804
 20
71.8253359622
 30
0.0
  0
SPLINE
  5
367
100
AcDbEntity
  8
0
100
AcDbSpline
 62
7
  6
CONTINUOUS
 70
0
 71
3
 72
9
 73
5
 74
0
 42
0.0000001
 43
0.0000001
 44
0.0000000001
 40
0.0
 40
0.0
 40
0.0
 40
0.0
 40
0.7295958313
 40
1.0
 40
1.0
 40
1.0
 40
1.0
 10
136.0895637724
 20
71.4697213413
 30
0.0
 10
135.9905438602
 20
71.4812138277
 30
0.0
 10
135.852322784
 20
71.4816568282
 30
0.0
 10
135.717218223
 20
71.4612190988
 30
0.0
 10
135.6807993307
 20
71.4550047814
 30
0.0
  0
SPLINE
  5
368
100
AcDbEntity
  8
0
100
AcDbSpline
 62
7
  6
CONTINUOUS
 70
0
 71
3
 72
9
 73
5
 74
0
 42
0.0000001
 43
0.0000001
 44
0.0000000001
 40
0.0
 40
0.0
 40
0.0
 40
0.0
 40
0.4988584794
 40
1.0
 40
1.0
 40
1.0
 40
1.0
 10
136.3843304974
 20
71.1570306189
 30
0.0
 10
136.3831856038
 20
71.2336578227
 30
0.0
 10
136.3207981356
 20
71.3934685242
 30
0.0
 10
136.1660427907
 20
71.4608450049
 30
0.0
 10
136.0895637724
 20
71.4697213415
 30
0.0
  0
SPLINE
  5
369
100
AcDbEntity
  8
0
100
AcDbSpline
 62
7
  6
CONTINUOUS
 70
0
 71
3
 72
9
 73
5
 74
0
 42
0.0000001
 43
0.0000001
 44
0.0000000001
 40
0.0
 40
0.0
 40
0.0
 40
0.0
 40
0.479537635
 40
1.0
 40
1.0
 40
1.0
 40
1.0
 10
135.9789987852
 20
70.7687786291
 30
0.0
 10
136.0784902887
 20
70.7710008443
 30
0.0
 10
136.3095757401
 20
70.8130906216
 30
0.0
 10
136.3859443399
 20
71.0490154289
 30
0.0
 10
136.3843304758
 20
71.1570306185
 30
0.0
  0
LINE
  5
36A
100
AcDbEntity
  8
RACCORDO
100
AcDbLine
 62
250
  6
CONTINUOUS
 10
71.2414101971
 20
75.1256537371
 30
0.0
 11
71.2413943649
 21
75.2913037064
 31
0.0
  0
SPLINE
  5
36B
100
AcDbEntity
  8
RACCORDO
100
AcDbSpline
 62
250
  6
CONTINUOUS
 70
0
 71
3
 72
11
 73
7
 74
0
 42
0.0000001
 43
0.0000001
 44
0.0000000001
 40
0.0
 40
0.0
 40
0.0
 40
0.0
 40
0.1120551871
 40
0.3328483187
 40
0.6394505005
 40
1.0
 40
1.0
 40
1.0
 40
1.0
 10
154.6856657808
 20
140.1841872411
 30
0.0
 10
154.6862696373
 20
140.1746276327
 30
0.0
 10
154.6865717938
 20
140.1461602634
 30
0.0
 10
154.6873658494
 20
140.0915162171
 30
0.0
 10
154.6877239417
 20
140.0156078933
 30
0.0
 10
154.6878962101
 20
139.9585805637
 30
0.0
 10
154.6879335891
 20
139.9277602227
 30
0.0
  0
SPLINE
  5
36C
100
AcDbEntity
  8
RACCORDO
100
AcDbSpline
 62
250
  6
CONTINUOUS
 70
0
 71
3
 72
11
 73
7
 74
0
 42
0.0000001
 43
0.0000001
 44
0.0000000001
 40
0.0
 40
0.0
 40
0.0
 40
0.0
 40
0.1120551871
 40
0.3328483187
 40
0.6394505005
 40
1.0
 40
1.0
 40
1.0
 40
1.0
 10
109.7425449268
 20
140.1841872411
 30
0.0
 10
109.7419410703
 20
140.1746276327
 30
0.0
 10
109.7416389138
 20
140.1461602634
 30
0.0
 10
109.7408448582
 20
140.0915162171
 30
0.0
 10
109.7404867659
 20
140.0156078933
 30
0.0
 10
109.7403144976
 20
139.9585805637
 30
0.0
 10
109.7402771185
 20
139.9277602227
 30
0.0
  0
SPLINE
  5
36D
100
AcDbEntity
  8
RACCORDO
100
AcDbSpline
 62
250
  6
CONTINUOUS
 70
0
 71
3
 72
11
 73
7
 74
0
 42
0.0000001
 43
0.0000001
 44
0.0000000001
 40
0.0
 40
0.0
 40
0.0
 40
0.0
 40
0.1120552782
 40
0.3328484138
 40
0.6394505591
 40
1.0
 40
1.0
 40
1.0
 40
1.0
 10
109.7163757777
 20
140.1841872007
 30
0.0
 10
109.7157712219
 20
140.174627627
 30
0.0
 10
109.7154687124
 20
140.14616021
 30
0.0
 10
109.7146737407
 20
140.091516189
 30
0.0
 10
109.7143152371
 20
140.0156078475
 30
0.0
 10
109.7141427737
 20
139.9585805204
 30
0.0
 10
109.7141053538
 20
139.9277601791
 30
0.0
  0
SPLINE
  5
36E
100
AcDbEntity
  8
RACCORDO
100
AcDbSpline
 62
250
  6
CONTINUOUS
 70
0
 71
3
 72
13
 73
9
 74
0
 42
0.0000001
 43
0.0000001
 44
0.0000000001
 40
0.0
 40
0.0
 40
0.0
 40
0.0
 40
0.0462276135
 40
0.1189791826
 40
0.2176685853
 40
0.3400558637
 40
0.6438741147
 40
1.0
 40
1.0
 40
1.0
 40
1.0
 10
75.1934967661
 20
140.1811990605
 30
0.0
 10
75.1909428259
 20
140.1781149906
 30
0.0
 10
75.1868292967
 20
140.1684013661
 30
0.0
 10
75.1818676047
 20
140.1502987233
 30
0.0
 10
75.1772596956
 20
140.125199292
 30
0.0
 10
75.1712613264
 20
140.0801432575
 30
0.0
 10
75.1660576328
 20
140.0125178543
 30
0.0
 10
75.1641083178
 20
139.9553791686
 30
0.0
 10
75.1636229663
 20
139.9245351775
 30
0.0
  0
SPLINE
  5
36F
100
AcDbEntity
  8
RACCORDO
100
AcDbSpline
 62
250
  6
CONTINUOUS
 70
0
 71
3
 72
13
 73
9
 74
0
 42
0.0000001
 43
0.0000001
 44
0.0000000001
 40
0.0
 40
0.0
 40
0.0
 40
0.0
 40
0.0463515417
 40
0.1191618835
 40
0.2178722274
 40
0.3402540017
 40
0.6440018827
 40
1.0
 40
1.0
 40
1.0
 40
1.0
 10
74.8206371322
 20
140.1814598138
 30
0.0
 10
74.8180487483
 20
140.1783874677
 30
0.0
 10
74.8138545197
 20
140.168680967
 30
0.0
 10
74.8087916986
 20
140.1505764037
 30
0.0
 10
74.8040723755
 20
140.1254753445
 30
0.0
 10
74.7979103238
 20
140.0804191014
 30
0.0
 10
74.7925127723
 20
140.0127856325
 30
0.0
 10
74.79043493
 20
139.9556348505
 30
0.0
 10
74.789888257
 20
139.9247849182
 30
0.0
  0
SPLINE
  5
370
100
AcDbEntity
  8
RACCORDO
100
AcDbSpline
 62
250
  6
CONTINUOUS
 70
0
 71
3
 72
13
 73
9
 74
0
 42
0.0000001
 43
0.0000001
 44
0.0000000001
 40
0.0
 40
0.0
 40
0.0
 40
0.0
 40
0.0466048512
 40
0.1195601912
 40
0.2183033436
 40
0.3408084437
 40
0.6444339441
 40
1.0
 40
1.0
 40
1.0
 40
1.0
 10
71.2436571497
 20
136.5979707392
 30
0.0
 10
71.2467233659
 20
136.6006398148
 30
0.0
 10
71.2564725654
 20
136.6050104882
 30
0.0
 10
71.2746898133
 20
136.6102577681
 30
0.0
 10
71.2999456552
 20
136.6151826728
 30
0.0
 10
71.3452641514
 20
136.6216026203
 30
0.0
 10
71.4132758896
 20
136.6272715307
 30
0.0
 10
71.4707412436
 20
136.6294782619
 30
0.0
 10
71.5017502936
 20
136.6300732619
 30
0.0
  0
SPLINE
  5
371
100
AcDbEntity
  8
RACCORDO
100
AcDbSpline
 62
250
  6
CONTINUOUS
 70
0
 71
3
 72
13
 73
9
 74
0
 42
0.0000001
 43
0.0000001
 44
0.0000000001
 40
0.0
 40
0.0
 40
0.0
 40
0.0
 40
0.0464794345
 40
0.1193747101
 40
0.2180948883
 40
0.3406030776
 40
0.6442966403
 40
1.0
 40
1.0
 40
1.0
 40
1.0
 10
71.2439163474
 20
136.2201037049
 30
0.0
 10
71.2469986193
 20
136.2227321105
 30
0.0
 10
71.2567607165
 20
136.2270032351
 30
0.0
 10
71.274980098
 20
136.2321166102
 30
0.0
 10
71.3002358105
 20
136.2368861401
 30
0.0
 10
71.3455524121
 20
136.2430655922
 30
0.0
 10
71.4135478583
 20
136.248427998
 30
0.0
 10
71.4709899396
 20
136.2504132176
 30
0.0
 10
71.5019865457
 20
136.250897203
 30
0.0
  0
SPLINE
  5
372
100
AcDbEntity
  8
RACCORDO
100
AcDbSpline
 62
250
  6
CONTINUOUS
 70
0
 71
3
 72
13
 73
9
 74
0
 42
0.0000001
 43
0.0000001
 44
0.0000000001
 40
0.0
 40
0.0
 40
0.0
 40
0.0
 40
0.0425557927
 40
0.1137096346
 40
0.211895919
 40
0.334691954
 40
0.640667211
 40
1.0
 40
1.0
 40
1.0
 40
1.0
 10
71.2414101971
 20
120.0969536757
 30
0.0
 10
71.2448173184
 20
120.0983144947
 30
0.0
 10
71.2545363061
 20
120.1001650401
 30
0.0
 10
71.2725964091
 20
120.102591661
 30
0.0
 10
71.2977166444
 20
120.1047685678
 30
0.0
 10
71.3430445654
 20
120.1076651197
 30
0.0
 10
71.4109618365
 20
120.1101482828
 30
0.0
 10
71.4683121385
 20
120.1110771361
 30
0.0
 10
71.4992901819
 20
120.1113037064
 30
0.0
  0
SPLINE
  5
373
100
AcDbEntity
  8
RACCORDO
100
AcDbSpline
 62
250
  6
CONTINUOUS
 70
0
 71
3
 72
13
 73
9
 74
0
 42
0.0000001
 43
0.0000001
 44
0.0000000001
 40
0.0
 40
0.0
 40
0.0
 40
0.0
 40
0.0425296555
 40
0.1136723542
 40
0.2118553695
 40
0.3346534235
 40
0.6406436422
 40
1.0
 40
1.0
 40
1.0
 40
1.0
 10
71.2413943649
 20
119.9313037064
 30
0.0
 10
71.2448044287
 20
119.9326503186
 30
0.0
 10
71.2545219626
 20
119.9344784594
 30
0.0
 10
71.2725816012
 20
119.9368782732
 30
0.0
 10
71.2977006486
 20
119.9390301354
 30
0.0
 10
71.3430287907
 20
119.9418942098
 30
0.0
 10
71.4109454716
 20
119.944349317
 30
0.0
 10
71.4682952391
 20
119.9452678899
 30
0.0
 10
71.499273171
 20
119.9454920104
 30
0.0
  0
SPLINE
  5
374
100
AcDbEntity
  8
RACCORDO
100
AcDbSpline
 62
250
  6
CONTINUOUS
 70
0
 71
3
 72
13
 73
9
 74
0
 42
0.0000001
 43
0.0000001
 44
0.0000000001
 40
0.0
 40
0.0
 40
0.0
 40
0.0
 40
0.0425296827
 40
0.1136723864
 40
0.2118553989
 40
0.3346534488
 40
0.6406436557
 40
1.0
 40
1.0
 40
1.0
 40
1.0
 10
71.2413943649
 20
75.2913037461
 30
0.0
 10
71.2448044246
 20
75.2899571169
 30
0.0
 10
71.2545219609
 20
75.2881289564
 30
0.0
 10
71.2725816004
 20
75.2857291345
 30
0.0
 10
71.2977006498
 20
75.2835772785
 30
0.0
 10
71.3430287913
 20
75.2807132011
 30
0.0
 10
71.4109454729
 20
75.2782581071
 30
0.0
 10
71.4682952393
 20
75.277339507
 30
0.0
 10
71.499273171
 20
75.2771153626
 30
0.0
  0
SPLINE
  5
375
100
AcDbEntity
  8
RACCORDO
100
AcDbSpline
 62
250
  6
CONTINUOUS
 70
0
 71
3
 72
13
 73
9
 74
0
 42
0.0000001
 43
0.0000001
 44
0.0000000001
 40
0.0
 40
0.0
 40
0.0
 40
0.0
 40
0.0425557927
 40
0.1137096346
 40
0.211895919
 40
0.334691954
 40
0.640667211
 40
1.0
 40
1.0
 40
1.0
 40
1.0
 10
71.2414101971
 20
75.1256537371
 30
0.0
 10
71.2448173184
 20
75.124292918
 30
0.0
 10
71.2545363061
 20
75.1224423727
 30
0.0
 10
71.2725964091
 20
75.1200157518
 30
0.0
 10
71.2977166444
 20
75.117838845
 30
0.0
 10
71.3430445654
 20
75.1149422931
 30
0.0
 10
71.4109618365
 20
75.1124591299
 30
0.0
 10
71.4683121385
 20
75.1115302767
 30
0.0
 10
71.4992901819
 20
75.1113037064
 30
0.0
  0
SPLINE
  5
376
100
AcDbEntity
  8
RACCORDO
100
AcDbSpline
 62
250
  6
CONTINUOUS
 70
0
 71
3
 72
13
 73
9
 74
0
 42
0.0000001
 43
0.0000001
 44
0.0000000001
 40
0.0
 40
0.0
 40
0.0
 40
0.0
 40
0.0464794325
 40
0.1193747079
 40
0.2180948864
 40
0.340603076
 40
0.6442966396
 40
1.0
 40
1.0
 40
1.0
 40
1.0
 10
71.2439163474
 20
59.0025037064
 30
0.0
 10
71.2469986195
 20
58.9998753013
 30
0.0
 10
71.2567607167
 20
58.9956041776
 30
0.0
 10
71.274980098
 20
58.9904908027
 30
0.0
 10
71.3002358105
 20
58.9857212727
 30
0.0
 10
71.3455524121
 20
58.9795418207
 30
0.0
 10
71.4135478583
 20
58.9741794144
 30
0.0
 10
71.4709899396
 20
58.9721941958
 30
0.0
 10
71.5019865457
 20
58.9717102113
 30
0.0
  0
SPLINE
  5
377
100
AcDbEntity
  8
RACCORDO
100
AcDbSpline
 62
250
  6
CONTINUOUS
 70
0
 71
3
 72
13
 73
9
 74
0
 42
0.0000001
 43
0.0000001
 44
0.0000000001
 40
0.0
 40
0.0
 40
0.0
 40
0.0
 40
0.0466391081
 40
0.1196108345
 40
0.2183586354
 40
0.3408598421
 40
0.6444618147
 40
1.0
 40
1.0
 40
1.0
 40
1.0
 10
71.2436665489
 20
58.6243649399
 30
0.0
 10
71.2467351816
 20
58.6216949257
 30
0.0
 10
71.2564886838
 20
58.617325528
 30
0.0
 10
71.2747119242
 20
58.6120901822
 30
0.0
 10
71.2999700164
 20
58.6071869776
 30
0.0
 10
71.3452868688
 20
58.6008130604
 30
0.0
 10
71.4132912374
 20
58.5952226666
 30
0.0
 10
71.4707471627
 20
58.5930884447
 30
0.0
 10
71.5017503503
 20
58.5925342038
 30
0.0
  0
SPLINE
  5
378
100
AcDbEntity
  8
RACCORDO
100
AcDbSpline
 62
250
  6
CONTINUOUS
 70
0
 71
3
 72
13
 73
9
 74
0
 42
0.0000001
 43
0.0000001
 44
0.0000000001
 40
0.0
 40
0.0
 40
0.0
 40
0.0
 40
0.0463510826
 40
0.1191610719
 40
0.2178712189
 40
0.3402529535
 40
0.6440011767
 40
1.0
 40
1.0
 40
1.0
 40
1.0
 10
74.8206374105
 20
55.0411444999
 30
0.0
 10
74.8180489738
 20
55.0442168069
 30
0.0
 10
74.813854659
 20
55.0539233344
 30
0.0
 10
74.8087917323
 20
55.0720279838
 30
0.0
 10
74.8040722926
 20
55.0971292572
 30
0.0
 10
74.7979100621
 20
55.1421859854
 30
0.0
 10
74.79251231
 20
55.2098202723
 30
0.0
 10
74.7904343434
 20
55.2669717662
 30
0.0
 10
74.7898876098
 20
55.2978220961
 30
0.0
  0
SPLINE
  5
379
100
AcDbEntity
  8
RACCORDO
100
AcDbSpline
 62
250
  6
CONTINUOUS
 70
0
 71
3
 72
13
 73
9
 74
0
 42
0.0000001
 43
0.0000001
 44
0.0000000001
 40
0.0
 40
0.0
 40
0.0
 40
0.0
 40
0.0462276146
 40
0.118979184
 40
0.2176685866
 40
0.3400558648
 40
0.6438741152
 40
1.0
 40
1.0
 40
1.0
 40
1.0
 10
75.1934967672
 20
55.0414083523
 30
0.0
 10
75.1909428267
 20
55.044492422
 30
0.0
 10
75.186829297
 20
55.0542060465
 30
0.0
 10
75.1818676047
 20
55.0723086894
 30
0.0
 10
75.1772596955
 20
55.0974081208
 30
0.0
 10
75.1712613265
 20
55.1424641553
 30
0.0
 10
75.166057633
 20
55.2100895585
 30
0.0
 10
75.1641083172
 20
55.2672282442
 30
0.0
 10
75.1636229652
 20
55.2980722353
 30
0.0
  0
SPLINE
  5
37A
100
AcDbEntity
  8
RACCORDO
100
AcDbSpline
 62
250
  6
CONTINUOUS
 70
0
 71
3
 72
11
 73
7
 74
0
 42
0.0000001
 43
0.0000001
 44
0.0000000001
 40
0.0
 40
0.0
 40
0.0
 40
0.0
 40
0.1120552782
 40
0.3328484138
 40
0.6394505591
 40
1.0
 40
1.0
 40
1.0
 40
1.0
 10
109.7163757777
 20
55.0384202121
 30
0.0
 10
109.7157712216
 20
55.0479797858
 30
0.0
 10
109.7154687121
 20
55.0764472028
 30
0.0
 10
109.7146737403
 20
55.1310912237
 30
0.0
 10
109.7143152369
 20
55.2069995653
 30
0.0
 10
109.7141427736
 20
55.2640268924
 30
0.0
 10
109.7141053538
 20
55.2948472337
 30
0.0
  0
SPLINE
  5
37B
100
AcDbEntity
  8
RACCORDO
100
AcDbSpline
 62
250
  6
CONTINUOUS
 70
0
 71
3
 72
11
 73
7
 74
0
 42
0.0000001
 43
0.0000001
 44
0.0000000001
 40
0.0
 40
0.0
 40
0.0
 40
0.0
 40
0.1120551871
 40
0.3328483187
 40
0.6394505005
 40
1.0
 40
1.0
 40
1.0
 40
1.0
 10
109.7425449268
 20
55.0384201717
 30
0.0
 10
109.7419410703
 20
55.0479797801
 30
0.0
 10
109.7416389138
 20
55.0764471494
 30
0.0
 10
109.7408448582
 20
55.1310911957
 30
0.0
 10
109.7404867659
 20
55.2069995195
 30
0.0
 10
109.7403144976
 20
55.2640268491
 30
0.0
 10
109.7402771185
 20
55.29484719
 30
0.0
  0
SPLINE
  5
37C
100
AcDbEntity
  8
RACCORDO
100
AcDbSpline
 62
250
  6
CONTINUOUS
 70
0
 71
3
 72
11
 73
7
 74
0
 42
0.0000001
 43
0.0000001
 44
0.0000000001
 40
0.0
 40
0.0
 40
0.0
 40
0.0
 40
0.1120551871
 40
0.3328483187
 40
0.6394505005
 40
1.0
 40
1.0
 40
1.0
 40
1.0
 10
154.6856657808
 20
55.0384201717
 30
0.0
 10
154.6862696373
 20
55.0479797801
 30
0.0
 10
154.6865717938
 20
55.0764471494
 30
0.0
 10
154.6873658494
 20
55.1310911957
 30
0.0
 10
154.6877239417
 20
55.2069995195
 30
0.0
 10
154.6878962101
 20
55.2640268491
 30
0.0
 10
154.6879335891
 20
55.29484719
 30
0.0
  0
SPLINE
  5
37D
100
AcDbEntity
  8
RACCORDO
100
AcDbSpline
 62
250
  6
CONTINUOUS
 70
0
 71
3
 72
11
 73
7
 74
0
 42
0.0000001
 43
0.0000001
 44
0.0000000001
 40
0.0
 40
0.0
 40
0.0
 40
0.0
 40
0.1120552782
 40
0.3328484138
 40
0.6394505591
 40
1.0
 40
1.0
 40
1.0
 40
1.0
 10
154.7118349299
 20
55.0384202121
 30
0.0
 10
154.7124394857
 20
55.0479797858
 30
0.0
 10
154.7127419953
 20
55.0764472028
 30
0.0
 10
154.713536967
 20
55.1310912238
 30
0.0
 10
154.7138954706
 20
55.2069995653
 30
0.0
 10
154.714067934
 20
55.2640268924
 30
0.0
 10
154.7141053538
 20
55.2948472337
 30
0.0
  0
SPLINE
  5
37E
100
AcDbEntity
  8
RACCORDO
100
AcDbSpline
 62
250
  6
CONTINUOUS
 70
0
 71
3
 72
13
 73
9
 74
0
 42
0.0000001
 43
0.0000001
 44
0.0000000001
 40
0.0
 40
0.0
 40
0.0
 40
0.0
 40
0.0462276135
 40
0.1189791826
 40
0.2176685853
 40
0.3400558637
 40
0.6438741147
 40
1.0
 40
1.0
 40
1.0
 40
1.0
 10
189.2347139415
 20
55.0414083523
 30
0.0
 10
189.2372678817
 20
55.0444924221
 30
0.0
 10
189.2413814109
 20
55.0542060466
 30
0.0
 10
189.2463431029
 20
55.0723086895
 30
0.0
 10
189.2509510121
 20
55.0974081208
 30
0.0
 10
189.2569493812
 20
55.1424641553
 30
0.0
 10
189.2621530748
 20
55.2100895584
 30
0.0
 10
189.2641023898
 20
55.2672282442
 30
0.0
 10
189.2645877413
 20
55.2980722353
 30
0.0
  0
SPLINE
  5
37F
100
AcDbEntity
  8
RACCORDO
100
AcDbSpline
 62
250
  6
CONTINUOUS
 70
0
 71
3
 72
13
 73
9
 74
0
 42
0.0000001
 43
0.0000001
 44
0.0000000001
 40
0.0
 40
0.0
 40
0.0
 40
0.0
 40
0.0463515417
 40
0.1191618835
 40
0.2178722274
 40
0.3402540017
 40
0.6440018827
 40
1.0
 40
1.0
 40
1.0
 40
1.0
 10
189.6075735755
 20
55.0411475989
 30
0.0
 10
189.6101619593
 20
55.0442199451
 30
0.0
 10
189.6143561879
 20
55.0539264457
 30
0.0
 10
189.6194190091
 20
55.0720310091
 30
0.0
 10
189.6241383322
 20
55.0971320683
 30
0.0
 10
189.6303003838
 20
55.1421883114
 30
0.0
 10
189.6356979353
 20
55.2098217802
 30
0.0
 10
189.6377757776
 20
55.2669725623
 30
0.0
 10
189.6383224506
 20
55.2978224946
 30
0.0
  0
SPLINE
  5
380
100
AcDbEntity
  8
RACCORDO
100
AcDbSpline
 62
250
  6
CONTINUOUS
 70
0
 71
3
 72
13
 73
9
 74
0
 42
0.0000001
 43
0.0000001
 44
0.0000000001
 40
0.0
 40
0.0
 40
0.0
 40
0.0
 40
0.0466048512
 40
0.1195601912
 40
0.2183033436
 40
0.3408084437
 40
0.6444339441
 40
1.0
 40
1.0
 40
1.0
 40
1.0
 10
193.184553558
 20
58.6246366736
 30
0.0
 10
193.1814873418
 20
58.621967598
 30
0.0
 10
193.1717381422
 20
58.6175969245
 30
0.0
 10
193.1535208944
 20
58.6123496447
 30
0.0
 10
193.1282650525
 20
58.60742474
 30
0.0
 10
193.0829465562
 20
58.6010047925
 30
0.0
 10
193.0149348181
 20
58.595335882
 30
0.0
 10
192.957469464
 20
58.5931291509
 30
0.0
 10
192.926460414
 20
58.5925341509
 30
0.0
  0
SPLINE
  5
381
100
AcDbEntity
  8
RACCORDO
100
AcDbSpline
 62
250
  6
CONTINUOUS
 70
0
 71
3
 72
13
 73
9
 74
0
 42
0.0000001
 43
0.0000001
 44
0.0000000001
 40
0.0
 40
0.0
 40
0.0
 40
0.0
 40
0.0464794345
 40
0.1193747101
 40
0.2180948883
 40
0.3406030776
 40
0.6442966403
 40
1.0
 40
1.0
 40
1.0
 40
1.0
 10
193.1842943602
 20
59.0025037079
 30
0.0
 10
193.1812120883
 20
58.9998753023
 30
0.0
 10
193.1714499911
 20
58.9956041777
 30
0.0
 10
193.1532306097
 20
58.9904908025
 30
0.0
 10
193.1279748971
 20
58.9857212727
 30
0.0
 10
193.0826582955
 20
58.9795418206
 30
0.0
 10
193.0146628493
 20
58.9741794148
 30
0.0
 10
192.9572207681
 20
58.9721941952
 30
0.0
 10
192.9262241619
 20
58.9717102098
 30
0.0
  0
SPLINE
  5
382
100
AcDbEntity
  8
RACCORDO
100
AcDbSpline
 62
250
  6
CONTINUOUS
 70
0
 71
3
 72
13
 73
9
 74
0
 42
0.0000001
 43
0.0000001
 44
0.0000000001
 40
0.0
 40
0.0
 40
0.0
 40
0.0
 40
0.0425557927
 40
0.1137096346
 40
0.211895919
 40
0.334691954
 40
0.640667211
 40
1.0
 40
1.0
 40
1.0
 40
1.0
 10
193.1868005105
 20
75.1256537371
 30
0.0
 10
193.1833933892
 20
75.124292918
 30
0.0
 10
193.1736744015
 20
75.1224423727
 30
0.0
 10
193.1556142985
 20
75.1200157518
 30
0.0
 10
193.1304940632
 20
75.117838845
 30
0.0
 10
193.0851661422
 20
75.1149422931
 30
0.0
 10
193.0172488711
 20
75.1124591299
 30
0.0
 10
192.9598985691
 20
75.1115302767
 30
0.0
 10
192.9289205258
 20
75.1113037064
 30
0.0
  0
SPLINE
  5
383
100
AcDbEntity
  8
RACCORDO
100
AcDbSpline
 62
250
  6
CONTINUOUS
 70
0
 71
3
 72
13
 73
9
 74
0
 42
0.0000001
 43
0.0000001
 44
0.0000000001
 40
0.0
 40
0.0
 40
0.0
 40
0.0
 40
0.0425296555
 40
0.1136723542
 40
0.2118553695
 40
0.3346534235
 40
0.6406436422
 40
1.0
 40
1.0
 40
1.0
 40
1.0
 10
193.1868163427
 20
75.2913037064
 30
0.0
 10
193.1834062789
 20
75.2899570942
 30
0.0
 10
193.173688745
 20
75.2881289534
 30
0.0
 10
193.1556291064
 20
75.2857291395
 30
0.0
 10
193.1305100591
 20
75.2835772774
 30
0.0
 10
193.0851819169
 20
75.280713203
 30
0.0
 10
193.017265236
 20
75.2782580958
 30
0.0
 10
192.9599154685
 20
75.2773395229
 30
0.0
 10
192.9289375366
 20
75.2771154024
 30
0.0
  0
SPLINE
  5
384
100
AcDbEntity
  8
RACCORDO
100
AcDbSpline
 62
250
  6
CONTINUOUS
 70
0
 71
3
 72
9
 73
5
 74
0
 42
0.0000001
 43
0.0000001
 44
0.0000000001
 40
0.0
 40
0.0
 40
0.0
 40
0.0
 40
0.2500247042
 40
1.0
 40
1.0
 40
1.0
 40
1.0
 10
109.716767633
 20
75.2413331682
 30
0.0
 10
108.8129578048
 20
75.241473263
 30
0.0
 10
105.1980757169
 20
75.2420673549
 30
0.0
 10
101.583193619
 20
75.2430407294
 30
0.0
 10
98.8721216511
 20
75.2443961561
 30
0.0
  0
SPLINE
  5
385
100
AcDbEntity
  8
RACCORDO
100
AcDbSpline
 62
250
  6
CONTINUOUS
 70
0
 71
3
 72
8
 73
4
 74
0
 42
0.0000001
 43
0.0000001
 44
0.0000000001
 40
0.0
 40
0.0
 40
0.0
 40
0.0
 40
1.0
 40
1.0
 40
1.0
 40
1.0
 10
132.2141053538
 20
75.2395896059
 30
0.0
 10
124.7149927577
 20
75.2395896059
 30
0.0
 10
117.215880139
 20
75.2401707703
 30
0.0
 10
109.716767633
 20
75.2413331682
 30
0.0
  0
SPLINE
  5
386
100
AcDbEntity
  8
RACCORDO
100
AcDbSpline
 62
250
  6
CONTINUOUS
 70
0
 71
3
 72
8
 73
4
 74
0
 42
0.0000001
 43
0.0000001
 44
0.0000000001
 40
0.0
 40
0.0
 40
0.0
 40
0.0
 40
1.0
 40
1.0
 40
1.0
 40
1.0
 10
154.7114430746
 20
75.2413331682
 30
0.0
 10
147.2123305686
 20
75.2401707703
 30
0.0
 10
139.7132179499
 20
75.2395896059
 30
0.0
 10
132.2141053538
 20
75.2395896059
 30
0.0
  0
SPLINE
  5
387
100
AcDbEntity
  8
RACCORDO
100
AcDbSpline
 62
250
  6
CONTINUOUS
 70
0
 71
3
 72
9
 73
5
 74
0
 42
0.0000001
 43
0.0000001
 44
0.0000000001
 40
0.0
 40
0.0
 40
0.0
 40
0.0
 40
0.2499613244
 40
1.0
 40
1.0
 40
1.0
 40
1.0
 10
165.5560890565
 20
75.2443961561
 30
0.0
 10
164.6525084393
 20
75.243944402
 30
0.0
 10
161.0376265971
 20
75.2424150566
 30
0.0
 10
157.4227444629
 20
75.2417534322
 30
0.0
 10
154.7114430746
 20
75.2413331682
 30
0.0
  0
SPLINE
  5
388
100
AcDbEntity
  8
RACCORDO
100
AcDbSpline
 62
250
  6
CONTINUOUS
 70
0
 71
3
 72
9
 73
5
 74
0
 42
0.0000001
 43
0.0000001
 44
0.0000000001
 40
0.0
 40
0.0
 40
0.0
 40
0.0
 40
0.2500934054
 40
1.0
 40
1.0
 40
1.0
 40
1.0
 10
98.3627901111
 20
97.6113037064
 30
0.0
 10
98.3627901115
 20
99.434263014
 30
0.0
 10
98.363522548
 20
106.723376778
 30
0.0
 10
98.3666949441
 20
114.0124909116
 30
0.0
 10
98.3718421727
 20
119.4786430399
 30
0.0
  0
SPLINE
  5
389
100
AcDbEntity
  8
RACCORDO
100
AcDbSpline
 62
250
  6
CONTINUOUS
 70
0
 71
3
 72
9
 73
5
 74
0
 42
0.0000001
 43
0.0000001
 44
0.0000000001
 40
0.0
 40
0.0
 40
0.0
 40
0.0
 40
0.2498488806
 40
1.0
 40
1.0
 40
1.0
 40
1.0
 10
98.3718421727
 20
75.7439643729
 30
0.0
 10
98.3701272513
 20
77.5651405123
 30
0.0
 10
98.3646253879
 20
84.8542524377
 30
0.0
 10
98.3627901051
 20
92.1433667591
 30
0.0
 10
98.3627901111
 20
97.6113037064
 30
0.0
  0
SPLINE
  5
38A
100
AcDbEntity
  8
RACCORDO
100
AcDbSpline
 62
250
  6
CONTINUOUS
 70
0
 71
3
 72
9
 73
5
 74
0
 42
0.0000001
 43
0.0000001
 44
0.0000000001
 40
0.0
 40
0.0
 40
0.0
 40
0.0
 40
0.2500247042
 40
1.0
 40
1.0
 40
1.0
 40
1.0
 10
154.7114430746
 20
119.9812742446
 30
0.0
 10
155.6152529028
 20
119.9811341497
 30
0.0
 10
159.2301349907
 20
119.9805400579
 30
0.0
 10
162.8450170886
 20
119.9795666834
 30
0.0
 10
165.5560890565
 20
119.9782112567
 30
0.0
  0
SPLINE
  5
38B
100
AcDbEntity
  8
RACCORDO
100
AcDbSpline
 62
250
  6
CONTINUOUS
 70
0
 71
3
 72
8
 73
4
 74
0
 42
0.0000001
 43
0.0000001
 44
0.0000000001
 40
0.0
 40
0.0
 40
0.0
 40
0.0
 40
1.0
 40
1.0
 40
1.0
 40
1.0
 10
132.2141053538
 20
119.9830178069
 30
0.0
 10
139.7132179499
 20
119.9830178069
 30
0.0
 10
147.2123305686
 20
119.9824366425
 30
0.0
 10
154.7114430746
 20
119.9812742446
 30
0.0
  0
SPLINE
  5
38C
100
AcDbEntity
  8
RACCORDO
100
AcDbSpline
 62
250
  6
CONTINUOUS
 70
0
 71
3
 72
8
 73
4
 74
0
 42
0.0000001
 43
0.0000001
 44
0.0000000001
 40
0.0
 40
0.0
 40
0.0
 40
0.0
 40
1.0
 40
1.0
 40
1.0
 40
1.0
 10
109.716767633
 20
119.9812742446
 30
0.0
 10
117.215880139
 20
119.9824366425
 30
0.0
 10
124.7149927577
 20
119.9830178069
 30
0.0
 10
132.2141053538
 20
119.9830178069
 30
0.0
  0
SPLINE
  5
38D
100
AcDbEntity
  8
RACCORDO
100
AcDbSpline
 62
250
  6
CONTINUOUS
 70
0
 71
3
 72
9
 73
5
 74
0
 42
0.0000001
 43
0.0000001
 44
0.0000000001
 40
0.0
 40
0.0
 40
0.0
 40
0.0
 40
0.2499613244
 40
1.0
 40
1.0
 40
1.0
 40
1.0
 10
98.8721216511
 20
119.9782112567
 30
0.0
 10
99.7757022683
 20
119.9786630107
 30
0.0
 10
103.3905841105
 20
119.9801923561
 30
0.0
 10
107.0054662447
 20
119.9808539806
 30
0.0
 10
109.716767633
 20
119.9812742446
 30
0.0
  0
SPLINE
  5
38E
100
AcDbEntity
  8
RACCORDO
100
AcDbSpline
 62
250
  6
CONTINUOUS
 70
0
 71
3
 72
8
 73
4
 74
0
 42
0.0000001
 43
0.0000001
 44
0.0000000001
 40
0.0
 40
0.0
 40
0.0
 40
0.0
 40
1.0
 40
1.0
 40
1.0
 40
1.0
 10
132.2141053538
 20
74.9225337734
 30
0.0
 10
124.7141053312
 20
74.9225337734
 30
0.0
 10
117.214105286
 20
74.9231158608
 30
0.0
 10
109.7141053538
 20
74.9242801047
 30
0.0
  0
SPLINE
  5
38F
100
AcDbEntity
  8
RACCORDO
100
AcDbSpline
 62
250
  6
CONTINUOUS
 70
0
 71
3
 72
9
 73
5
 74
0
 42
0.0000001
 43
0.0000001
 44
0.0000000001
 40
0.0
 40
0.0
 40
0.0
 40
0.0
 40
0.2500934054
 40
1.0
 40
1.0
 40
1.0
 40
1.0
 10
166.0654205965
 20
97.6113037064
 30
0.0
 10
166.0654205961
 20
95.7883443988
 30
0.0
 10
166.0646881597
 20
88.4992306348
 30
0.0
 10
166.0615157635
 20
81.2101165012
 30
0.0
 10
166.0563685349
 20
75.7439643729
 30
0.0
  0
SPLINE
  5
390
100
AcDbEntity
  8
RACCORDO
100
AcDbSpline
 62
250
  6
CONTINUOUS
 70
0
 71
3
 72
9
 73
5
 74
0
 42
0.0000001
 43
0.0000001
 44
0.0000000001
 40
0.0
 40
0.0
 40
0.0
 40
0.0
 40
0.2498488806
 40
1.0
 40
1.0
 40
1.0
 40
1.0
 10
166.0563685349
 20
119.4786430399
 30
0.0
 10
166.0580834564
 20
117.6574669005
 30
0.0
 10
166.0635853198
 20
110.3683549751
 30
0.0
 10
166.0654206025
 20
103.0792406537
 30
0.0
 10
166.0654205965
 20
97.6113037064
 30
0.0
  0
SPLINE
  5
391
100
AcDbEntity
  8
RACCORDO
100
AcDbSpline
 62
250
  6
CONTINUOUS
 70
0
 71
3
 72
9
 73
5
 74
0
 42
0.0000001
 43
0.0000001
 44
0.0000000001
 40
0.0
 40
0.0
 40
0.0
 40
0.0
 40
0.2500247089
 40
1.0
 40
1.0
 40
1.0
 40
1.0
 10
109.7141053538
 20
74.9242801047
 30
0.0
 10
108.8098019938
 20
74.9244204819
 30
0.0
 10
105.1929460422
 20
74.9250159281
 30
0.0
 10
101.5760900804
 20
74.9259923244
 30
0.0
 10
98.863537783
 20
74.9273531064
 30
0.0
  0
SPLINE
  5
392
100
AcDbEntity
  8
RACCORDO
100
AcDbSpline
 62
250
  6
CONTINUOUS
 70
0
 71
3
 72
9
 73
5
 74
0
 42
0.0000001
 43
0.0000001
 44
0.0000000001
 40
0.0
 40
0.0
 40
0.0
 40
0.0
 40
0.2505002989
 40
1.0
 40
1.0
 40
1.0
 40
1.0
 10
109.7141053538
 20
55.2948472337
 30
0.0
 10
106.8291366163
 20
55.2948518999
 30
0.0
 10
95.3123090913
 20
55.2948591976
 30
0.0
 10
83.7954815683
 20
55.2962806629
 30
0.0
 10
75.163622966
 20
55.2980722353
 30
0.0
  0
LINE
  5
393
100
AcDbEntity
  8
RACCORDO
100
AcDbLine
 62
250
  6
CONTINUOUS
 10
75.163622966
 20
55.2980722353
 30
0.0
 11
74.7898879071
 21
55.2978220965
 31
0.0
  0
SPLINE
  5
394
100
AcDbEntity
  8
RACCORDO
100
AcDbSpline
 62
250
  6
CONTINUOUS
 70
0
 71
3
 72
9
 73
5
 74
0
 42
0.0000001
 43
0.0000001
 44
0.0000000001
 40
0.0
 40
0.0
 40
0.0
 40
0.0
 40
0.2498488695
 40
1.0
 40
1.0
 40
1.0
 40
1.0
 10
98.0624984712
 20
75.7278027677
 30
0.0
 10
98.0607789629
 20
77.5503248101
 30
0.0
 10
98.0552625705
 20
84.8448239319
 30
0.0
 10
98.0534233388
 20
92.1393254606
 30
0.0
 10
98.0534233443
 20
97.6113037064
 30
0.0
  0
LINE
  5
395
100
AcDbEntity
  8
RACCORDO
100
AcDbLine
 62
250
  6
CONTINUOUS
 10
193.1868163427
 20
75.2913037064
 30
0.0
 11
193.1868005105
 21
75.1256537371
 31
0.0
  0
LINE
  5
396
100
AcDbEntity
  8
RACCORDO
100
AcDbLine
 62
250
  6
CONTINUOUS
 10
74.8206371343
 20
140.1814598138
 30
0.0
 11
75.1934967661
 21
140.1811990605
 31
0.0
  0
SPLINE
  5
397
100
AcDbEntity
  8
RACCORDO
100
AcDbSpline
 62
250
  6
CONTINUOUS
 70
0
 71
3
 72
9
 73
5
 74
0
 42
0.0000001
 43
0.0000001
 44
0.0000000001
 40
0.0
 40
0.0
 40
0.0
 40
0.0
 40
0.2492299167
 40
1.0
 40
1.0
 40
1.0
 40
1.0
 10
75.1934967661
 20
140.1811990605
 30
0.0
 10
78.0615414804
 20
140.1817515363
 30
0.0
 10
89.5691677155
 20
140.1836991562
 30
0.0
 10
101.0767941528
 20
140.1841733657
 30
0.0
 10
109.7163757778
 20
140.1841872007
 30
0.0
  0
SPLINE
  5
398
100
AcDbEntity
  8
RACCORDO
100
AcDbSpline
 62
250
  6
CONTINUOUS
 70
0
 71
3
 72
9
 73
5
 74
0
 42
0.0000001
 43
0.0000001
 44
0.0000000001
 40
0.0
 40
0.0
 40
0.0
 40
0.0
 40
0.250506866
 40
1.0
 40
1.0
 40
1.0
 40
1.0
 10
193.1868005105
 20
75.1256537371
 30
0.0
 10
193.1866687079
 20
73.7793337985
 30
0.0
 10
193.1860661583
 20
68.4049504219
 30
0.0
 10
193.1851563478
 20
63.0305670793
 30
0.0
 10
193.1842943602
 20
59.0025037064
 30
0.0
  0
LINE
  5
399
100
AcDbEntity
  8
RACCORDO
100
AcDbLine
 62
250
  6
CONTINUOUS
 10
71.2439163474
 20
136.2201037064
 30
0.0
 11
71.2436667602
 21
136.5981064316
 31
0.0
  0
LINE
  5
39A
100
AcDbEntity
  8
RACCORDO
100
AcDbLine
 62
250
  6
CONTINUOUS
 10
189.6075735735
 20
55.041147599
 30
0.0
 11
189.2347139415
 21
55.0414083523
 31
0.0
  0
SPLINE
  5
39B
100
AcDbEntity
  8
RACCORDO
100
AcDbSpline
 62
250
  6
CONTINUOUS
 70
0
 71
3
 72
9
 73
5
 74
0
 42
0.0000001
 43
0.0000001
 44
0.0000000001
 40
0.0
 40
0.0
 40
0.0
 40
0.0
 40
0.2500985861
 40
1.0
 40
1.0
 40
1.0
 40
1.0
 10
71.2407242398
 20
97.6113037064
 30
0.0
 10
71.2407241829
 20
99.4720371881
 30
0.0
 10
71.2407727718
 20
106.9120371901
 30
0.0
 10
71.2408752498
 20
114.3520372081
 30
0.0
 10
71.2413943649
 20
119.9313037064
 30
0.0
  0
SPLINE
  5
39C
100
AcDbEntity
  8
RACCORDO
100
AcDbSpline
 62
250
  6
CONTINUOUS
 70
0
 71
3
 72
9
 73
5
 74
0
 42
0.0000001
 43
0.0000001
 44
0.0000000001
 40
0.0
 40
0.0
 40
0.0
 40
0.0
 40
0.2492299167
 40
1.0
 40
1.0
 40
1.0
 40
1.0
 10
189.2347139415
 20
55.0414083523
 30
0.0
 10
186.3666692272
 20
55.0408558765
 30
0.0
 10
174.8590429921
 20
55.0389082566
 30
0.0
 10
163.3514165548
 20
55.0384340471
 30
0.0
 10
154.7118349299
 20
55.0384202121
 30
0.0
  0
LINE
  5
39D
100
AcDbEntity
  8
RACCORDO
100
AcDbLine
 62
250
  6
CONTINUOUS
 10
71.2413943649
 20
119.9313037064
 30
0.0
 11
71.2414101971
 21
120.0969536757
 31
0.0
  0
SPLINE
  5
39E
100
AcDbEntity
  8
RACCORDO
100
AcDbSpline
 62
250
  6
CONTINUOUS
 70
0
 71
3
 72
9
 73
5
 74
0
 42
0.0000001
 43
0.0000001
 44
0.0000000001
 40
0.0
 40
0.0
 40
0.0
 40
0.0
 40
0.250506866
 40
1.0
 40
1.0
 40
1.0
 40
1.0
 10
71.2414101971
 20
120.0969536757
 30
0.0
 10
71.2415419998
 20
121.4432736143
 30
0.0
 10
71.2421445493
 20
126.8176569909
 30
0.0
 10
71.2430543598
 20
132.1920403335
 30
0.0
 10
71.2439163474
 20
136.2201037064
 30
0.0
  0
SPLINE
  5
39F
100
AcDbEntity
  8
RACCORDO
100
AcDbSpline
 62
250
  6
CONTINUOUS
 70
0
 71
3
 72
17
 73
13
 74
0
 42
0.0000001
 43
0.0000001
 44
0.0000000001
 40
0.0
 40
0.0
 40
0.0
 40
0.0
 40
0.1904522014
 40
0.374806952
 40
0.5456029597
 40
0.6963701521
 40
0.8211897761
 40
0.9152741606
 40
0.9496660641
 40
0.9751962057
 40
0.9917904133
 40
1.0
 40
1.0
 40
1.0
 40
1.0
 10
166.3657122363
 20
119.4948047565
 30
0.0
 10
166.3459878093
 20
119.4948194667
 30
0.0
 10
166.3071702039
 20
119.4946431553
 30
0.0
 10
166.2506685999
 20
119.4937795467
 30
0.0
 10
166.1982937456
 20
119.4923502856
 30
0.0
 10
166.1520917118
 20
119.4904289323
 30
0.0
 10
166.1139013363
 20
119.4880932745
 30
0.0
 10
166.0877074401
 20
119.4857573325
 30
0.0
 10
166.0719777296
 20
119.4836078866
 30
0.0
 10
166.064049337
 20
119.4821185374
 30
0.0
 10
166.0592933653
 20
119.4807424047
 30
0.0
 10
166.0566301942
 20
119.4794519015
 30
0.0
 10
166.056368535
 20
119.4786429288
 30
0.0
  0
SPLINE
  5
3A0
100
AcDbEntity
  8
RACCORDO
100
AcDbSpline
 62
250
  6
CONTINUOUS
 70
0
 71
3
 72
18
 73
14
 74
0
 42
0.0000001
 43
0.0000001
 44
0.0000000001
 40
0.0
 40
0.0
 40
0.0
 40
0.0
 40
0.1887516411
 40
0.3724227952
 40
0.5433301977
 40
0.6947685693
 40
0.8205664023
 40
0.8722293446
 40
0.9156684186
 40
0.9504774378
 40
0.9762743497
 40
0.9928208037
 40
1.0
 40
1.0
 40
1.0
 40
1.0
 10
166.0750972363
 20
120.1113037055
 30
0.0
 10
166.0623026356
 20
120.0958585201
 30
0.0
 10
166.0370959375
 20
120.0653522458
 30
0.0
 10
166.0004339659
 20
120.0207540874
 30
0.0
 10
165.9664039365
 20
119.9791245836
 30
0.0
 10
165.9363912077
 20
119.9421557018
 30
0.0
 10
165.9144748443
 20
119.9149305299
 30
0.0
 10
165.89986701
 20
119.8965621519
 30
0.0
 10
165.8913046835
 20
119.8857245233
 30
0.0
 10
165.8845719542
 20
119.8769810629
 30
0.0
 10
165.879494272
 20
119.870482858
 30
0.0
 10
165.8766296888
 20
119.866166986
 30
0.0
 10
165.8749611438
 20
119.8641319316
 30
0.0
 10
165.8747944416
 20
119.8633875242
 30
0.0
  0
SPLINE
  5
3A1
100
AcDbEntity
  8
RACCORDO
100
AcDbSpline
 62
250
  6
CONTINUOUS
 70
0
 71
3
 72
18
 73
14
 74
0
 42
0.0000001
 43
0.0000001
 44
0.0000000001
 40
0.0
 40
0.0
 40
0.0
 40
0.0
 40
0.1896675477
 40
0.3740070148
 40
0.5452986663
 40
0.6968176877
 40
0.8223882502
 40
0.873827593
 40
0.9169759319
 40
0.9514364723
 40
0.9768442789
 40
0.9930042575
 40
1.0
 40
1.0
 40
1.0
 40
1.0
 10
165.5646729257
 20
120.2952543064
 30
0.0
 10
165.5646956839
 20
120.2751848333
 30
0.0
 10
165.5646271498
 20
120.2356093647
 30
0.0
 10
165.5641941693
 20
120.1779107827
 30
0.0
 10
165.5634507902
 20
120.1242507118
 30
0.0
 10
165.5624274613
 20
120.0768198129
 30
0.0
 10
165.5613374431
 20
120.0420641172
 30
0.0
 10
165.5602993474
 20
120.0188048943
 30
0.0
 10
165.5595605962
 20
120.0051391591
 30
0.0
 10
165.5587313283
 20
119.9943495184
 30
0.0
 10
165.5580632483
 20
119.9861431742
 30
0.0
 10
165.5570863336
 20
119.9814360704
 30
0.0
 10
165.556721227
 20
119.978596389
 30
0.0
 10
165.5560890564
 20
119.9782112567
 30
0.0
  0
SPLINE
  5
3A2
100
AcDbEntity
  8
RACCORDO
100
AcDbSpline
 62
250
  6
CONTINUOUS
 70
0
 71
3
 72
18
 73
14
 74
0
 42
0.0000001
 43
0.0000001
 44
0.0000000001
 40
0.0
 40
0.0
 40
0.0
 40
0.0
 40
0.189880033
 40
0.3744224411
 40
0.5458924256
 40
0.6975500635
 40
0.823202038
 40
0.8746531039
 40
0.9177881269
 40
0.9522025279
 40
0.9775154558
 40
0.9934899929
 40
1.0
 40
1.0
 40
1.0
 40
1.0
 10
154.7141053538
 20
120.2983273081
 30
0.0
 10
154.7141124173
 20
120.2782574871
 30
0.0
 10
154.7140912171
 20
120.2386819715
 30
0.0
 10
154.7139567422
 20
120.1809828049
 30
0.0
 10
154.7137268515
 20
120.1273235119
 30
0.0
 10
154.7134074833
 20
120.0798907799
 30
0.0
 10
154.7130744136
 20
120.0451405099
 30
0.0
 10
154.712744444
 20
120.0218683827
 30
0.0
 10
154.7125329482
 20
120.0082258841
 30
0.0
 10
154.7122288779
 20
119.9973815582
 30
0.0
 10
154.7121328947
 20
119.9893238276
 30
0.0
 10
154.7116243237
 20
119.9843894414
 30
0.0
 10
154.7117551578
 20
119.9818874924
 30
0.0
 10
154.7114430746
 20
119.9812742446
 30
0.0
  0
SPLINE
  5
3A3
100
AcDbEntity
  8
RACCORDO
100
AcDbSpline
 62
250
  6
CONTINUOUS
 70
0
 71
3
 72
18
 73
14
 74
0
 42
0.0000001
 43
0.0000001
 44
0.0000000001
 40
0.0
 40
0.0
 40
0.0
 40
0.0
 40
0.189880033
 40
0.3744224411
 40
0.5458924256
 40
0.6975500635
 40
0.823202038
 40
0.8746531039
 40
0.9177881269
 40
0.9522025279
 40
0.9775154558
 40
0.9934899929
 40
1.0
 40
1.0
 40
1.0
 40
1.0
 10
109.7141053538
 20
120.2983273081
 30
0.0
 10
109.7140982903
 20
120.2782574871
 30
0.0
 10
109.7141194905
 20
120.2386819715
 30
0.0
 10
109.7142539654
 20
120.1809828049
 30
0.0
 10
109.7144838562
 20
120.1273235119
 30
0.0
 10
109.7148032244
 20
120.0798907799
 30
0.0
 10
109.715136294
 20
120.0451405099
 30
0.0
 10
109.7154662637
 20
120.0218683827
 30
0.0
 10
109.7156777594
 20
120.0082258841
 30
0.0
 10
109.7159818297
 20
119.9973815582
 30
0.0
 10
109.7160778129
 20
119.9893238276
 30
0.0
 10
109.7165863839
 20
119.9843894414
 30
0.0
 10
109.7164555498
 20
119.9818874924
 30
0.0
 10
109.716767633
 20
119.9812742446
 30
0.0
  0
SPLINE
  5
3A4
100
AcDbEntity
  8
RACCORDO
100
AcDbSpline
 62
250
  6
CONTINUOUS
 70
0
 71
3
 72
18
 73
14
 74
0
 42
0.0000001
 43
0.0000001
 44
0.0000000001
 40
0.0
 40
0.0
 40
0.0
 40
0.0
 40
0.1896675413
 40
0.3740069982
 40
0.545298649
 40
0.6968176729
 40
0.82238824
 40
0.8738275847
 40
0.9169759262
 40
0.9514364693
 40
0.9768442771
 40
0.993004257
 40
1.0
 40
1.0
 40
1.0
 40
1.0
 10
98.863537783
 20
120.2952543064
 30
0.0
 10
98.8635150244
 20
120.275184834
 30
0.0
 10
98.8635835578
 20
120.2356093671
 30
0.0
 10
98.8640165382
 20
120.1779107869
 30
0.0
 10
98.8647599174
 20
120.1242507169
 30
0.0
 10
98.8657832462
 20
120.0768198174
 30
0.0
 10
98.8668732644
 20
120.0420641207
 30
0.0
 10
98.8679113601
 20
120.0188048969
 30
0.0
 10
98.8686501113
 20
120.0051391609
 30
0.0
 10
98.8694793792
 20
119.9943495196
 30
0.0
 10
98.8701474592
 20
119.9861431747
 30
0.0
 10
98.8711243741
 20
119.9814360707
 30
0.0
 10
98.8714894805
 20
119.978596389
 30
0.0
 10
98.8721216511
 20
119.9782112567
 30
0.0
  0
SPLINE
  5
3A5
100
AcDbEntity
  8
RACCORDO
100
AcDbSpline
 62
250
  6
CONTINUOUS
 70
0
 71
3
 72
18
 73
14
 74
0
 42
0.0000001
 43
0.0000001
 44
0.0000000001
 40
0.0
 40
0.0
 40
0.0
 40
0.0
 40
0.1887516427
 40
0.3724227995
 40
0.5433302021
 40
0.6947685731
 40
0.8205664049
 40
0.8722293468
 40
0.91566842
 40
0.9504774386
 40
0.9762743502
 40
0.9928208038
 40
1.0
 40
1.0
 40
1.0
 40
1.0
 10
98.353113472
 20
120.1113037061
 30
0.0
 10
98.3659080728
 20
120.0958585205
 30
0.0
 10
98.3911147712
 20
120.0653522459
 30
0.0
 10
98.427776743
 20
120.020754087
 30
0.0
 10
98.4618067725
 20
119.979124583
 30
0.0
 10
98.4918195011
 20
119.9421557013
 30
0.0
 10
98.5137358643
 20
119.9149305295
 30
0.0
 10
98.5283436985
 20
119.8965621517
 30
0.0
 10
98.5369060248
 20
119.8857245232
 30
0.0
 10
98.543638754
 20
119.8769810629
 30
0.0
 10
98.5487164361
 20
119.8704828581
 30
0.0
 10
98.5515810192
 20
119.8661669862
 30
0.0
 10
98.5532495641
 20
119.8641319318
 30
0.0
 10
98.5534162662
 20
119.8633875244
 30
0.0
  0
SPLINE
  5
3A6
100
AcDbEntity
  8
RACCORDO
100
AcDbSpline
 62
250
  6
CONTINUOUS
 70
0
 71
3
 72
17
 73
13
 74
0
 42
0.0000001
 43
0.0000001
 44
0.0000000001
 40
0.0
 40
0.0
 40
0.0
 40
0.0
 40
0.1904520384
 40
0.3748066622
 40
0.5456025627
 40
0.6963697024
 40
0.8211893489
 40
0.9152738508
 40
0.9496658439
 40
0.9751960915
 40
0.9917903957
 40
1.0
 40
1.0
 40
1.0
 40
1.0
 10
98.0624984712
 20
119.4948046485
 30
0.0
 10
98.0822228763
 20
119.4948194002
 30
0.0
 10
98.1210404422
 20
119.4946431561
 30
0.0
 10
98.1775419911
 20
119.4937795647
 30
0.0
 10
98.2299168018
 20
119.4923502869
 30
0.0
 10
98.2761188096
 20
119.4904289423
 30
0.0
 10
98.3143091853
 20
119.4880932939
 30
0.0
 10
98.3405030979
 20
119.4857573476
 30
0.0
 10
98.3562328366
 20
119.4836078961
 30
0.0
 10
98.3641612618
 20
119.4821185796
 30
0.0
 10
98.3689172623
 20
119.4807424549
 30
0.0
 10
98.3715804673
 20
119.4794520337
 30
0.0
 10
98.3718421626
 20
119.478643071
 30
0.0
  0
SPLINE
  5
3A7
100
AcDbEntity
  8
RACCORDO
100
AcDbSpline
 62
250
  6
CONTINUOUS
 70
0
 71
3
 72
17
 73
13
 74
0
 42
0.0000001
 43
0.0000001
 44
0.0000000001
 40
0.0
 40
0.0
 40
0.0
 40
0.0
 40
0.1904522014
 40
0.374806952
 40
0.5456029597
 40
0.6963701521
 40
0.8211897761
 40
0.9152741606
 40
0.9496660641
 40
0.9751962057
 40
0.9917904133
 40
1.0
 40
1.0
 40
1.0
 40
1.0
 10
98.0624984713
 20
75.7278026563
 30
0.0
 10
98.0822228984
 20
75.7277879461
 30
0.0
 10
98.1210405037
 20
75.7279642575
 30
0.0
 10
98.1775421077
 20
75.728827866
 30
0.0
 10
98.229916962
 20
75.7302571272
 30
0.0
 10
98.2761189958
 20
75.7321784805
 30
0.0
 10
98.3143093714
 20
75.7345141383
 30
0.0
 10
98.3405032676
 20
75.7368500803
 30
0.0
 10
98.356232978
 20
75.7389995262
 30
0.0
 10
98.3641613706
 20
75.7404888754
 30
0.0
 10
98.3689173424
 20
75.7418650081
 30
0.0
 10
98.3715805135
 20
75.7431555113
 30
0.0
 10
98.3718421726
 20
75.743964484
 30
0.0
  0
SPLINE
  5
3A8
100
AcDbEntity
  8
RACCORDO
100
AcDbSpline
 62
250
  6
CONTINUOUS
 70
0
 71
3
 72
18
 73
14
 74
0
 42
0.0000001
 43
0.0000001
 44
0.0000000001
 40
0.0
 40
0.0
 40
0.0
 40
0.0
 40
0.1887516411
 40
0.3724227952
 40
0.5433301977
 40
0.6947685693
 40
0.8205664023
 40
0.8722293446
 40
0.9156684186
 40
0.9504774378
 40
0.9762743497
 40
0.9928208037
 40
1.0
 40
1.0
 40
1.0
 40
1.0
 10
98.3531134713
 20
75.1113037072
 30
0.0
 10
98.365908072
 20
75.1267488927
 30
0.0
 10
98.3911147702
 20
75.157255167
 30
0.0
 10
98.4277767417
 20
75.2018533254
 30
0.0
 10
98.4618067712
 20
75.2434828292
 30
0.0
 10
98.4918194999
 20
75.2804517109
 30
0.0
 10
98.5137358634
 20
75.3076768829
 30
0.0
 10
98.5283436977
 20
75.3260452609
 30
0.0
 10
98.5369060241
 20
75.3368828895
 30
0.0
 10
98.5436387534
 20
75.3456263499
 30
0.0
 10
98.5487164357
 20
75.3521245548
 30
0.0
 10
98.5515810189
 20
75.3564404267
 30
0.0
 10
98.5532495638
 20
75.3584754812
 30
0.0
 10
98.553416266
 20
75.3592198886
 30
0.0
  0
SPLINE
  5
3A9
100
AcDbEntity
  8
RACCORDO
100
AcDbSpline
 62
250
  6
CONTINUOUS
 70
0
 71
3
 72
18
 73
14
 74
0
 42
0.0000001
 43
0.0000001
 44
0.0000000001
 40
0.0
 40
0.0
 40
0.0
 40
0.0
 40
0.1896675477
 40
0.3740070148
 40
0.5452986663
 40
0.6968176877
 40
0.8223882502
 40
0.873827593
 40
0.9169759319
 40
0.9514364723
 40
0.9768442789
 40
0.9930042575
 40
1.0
 40
1.0
 40
1.0
 40
1.0
 10
98.8635377819
 20
74.9273531064
 30
0.0
 10
98.8635150237
 20
74.9474225795
 30
0.0
 10
98.8635835578
 20
74.9869980481
 30
0.0
 10
98.8640165383
 20
75.0446966301
 30
0.0
 10
98.8647599174
 20
75.098356701
 30
0.0
 10
98.8657832464
 20
75.1457875999
 30
0.0
 10
98.8668732645
 20
75.1805432956
 30
0.0
 10
98.8679113602
 20
75.2038025184
 30
0.0
 10
98.8686501114
 20
75.2174682537
 30
0.0
 10
98.8694793793
 20
75.2282578944
 30
0.0
 10
98.8701474593
 20
75.2364642386
 30
0.0
 10
98.8711243741
 20
75.2411713423
 30
0.0
 10
98.8714894806
 20
75.2440110238
 30
0.0
 10
98.8721216512
 20
75.2443961561
 30
0.0
  0
LINE
  5
3AA
100
AcDbEntity
  8
RACCORDO
100
AcDbLine
 62
250
  6
CONTINUOUS
 10
189.6383228005
 20
55.2978220965
 30
0.0
 11
189.264587741
 21
55.2980722353
 31
0.0
  0
SPLINE
  5
3AB
100
AcDbEntity
  8
RACCORDO
100
AcDbSpline
 62
250
  6
CONTINUOUS
 70
0
 71
3
 72
9
 73
5
 74
0
 42
0.0000001
 43
0.0000001
 44
0.0000000001
 40
0.0
 40
0.0
 40
0.0
 40
0.0
 40
0.2492297249
 40
1.0
 40
1.0
 40
1.0
 40
1.0
 10
189.264587741
 20
55.2980722353
 30
0.0
 10
186.394252047
 20
55.2974764872
 30
0.0
 10
174.8774247034
 20
55.2953751518
 30
0.0
 10
163.3605971247
 20
55.2948621907
 30
0.0
 10
154.7141053538
 20
55.2948472337
 30
0.0
  0
SPLINE
  5
3AC
100
AcDbEntity
  8
RACCORDO
100
AcDbSpline
 62
250
  6
CONTINUOUS
 70
0
 71
3
 72
8
 73
4
 74
0
 42
0.0000001
 43
0.0000001
 44
0.0000000001
 40
0.0
 40
0.0
 40
0.0
 40
0.0
 40
1.0
 40
1.0
 40
1.0
 40
1.0
 10
109.7141053538
 20
120.2983273081
 30
0.0
 10
117.214105286
 20
120.299491552
 30
0.0
 10
124.7141053312
 20
120.3000736394
 30
0.0
 10
132.2141053538
 20
120.3000736394
 30
0.0
  0
LINE
  5
3AD
100
AcDbEntity
  8
RACCORDO
100
AcDbLine
 62
250
  6
CONTINUOUS
 10
74.7898879071
 20
139.9247853163
 30
0.0
 11
75.1636229666
 21
139.9245351775
 31
0.0
  0
SPLINE
  5
3AE
100
AcDbEntity
  8
RACCORDO
100
AcDbSpline
 62
250
  6
CONTINUOUS
 70
0
 71
3
 72
9
 73
5
 74
0
 42
0.0000001
 43
0.0000001
 44
0.0000000001
 40
0.0
 40
0.0
 40
0.0
 40
0.0
 40
0.2492297249
 40
1.0
 40
1.0
 40
1.0
 40
1.0
 10
75.1636229666
 20
139.9245351775
 30
0.0
 10
78.0339586606
 20
139.9251309255
 30
0.0
 10
89.5507860042
 20
139.9272322609
 30
0.0
 10
101.067613583
 20
139.927745222
 30
0.0
 10
109.7141053538
 20
139.9277601791
 30
0.0
  0
SPLINE
  5
3AF
100
AcDbEntity
  8
RACCORDO
100
AcDbSpline
 62
250
  6
CONTINUOUS
 70
0
 71
3
 72
9
 73
5
 74
0
 42
0.0000001
 43
0.0000001
 44
0.0000000001
 40
0.0
 40
0.0
 40
0.0
 40
0.0
 40
0.2499613228
 40
1.0
 40
1.0
 40
1.0
 40
1.0
 10
98.863537783
 20
120.2952543064
 30
0.0
 10
99.7676117829
 20
120.2957078451
 30
0.0
 10
103.384467487
 20
120.2972429119
 30
0.0
 10
107.0013234852
 20
120.2979061957
 30
0.0
 10
109.7141053538
 20
120.2983273081
 30
0.0
  0
SPLINE
  5
3B0
100
AcDbEntity
  8
RACCORDO
100
AcDbSpline
 62
250
  6
CONTINUOUS
 70
0
 71
3
 72
9
 73
5
 74
0
 42
0.0000001
 43
0.0000001
 44
0.0000000001
 40
0.0
 40
0.0
 40
0.0
 40
0.0
 40
0.2500934206
 40
1.0
 40
1.0
 40
1.0
 40
1.0
 10
98.0534233443
 20
97.6113037064
 30
0.0
 10
98.0534233447
 20
99.4356104288
 30
0.0
 10
98.0541575566
 20
106.7301113973
 30
0.0
 10
98.0573374694
 20
114.0246127377
 30
0.0
 10
98.0624984712
 20
119.4948046451
 30
0.0
  0
SPLINE
  5
3B1
100
AcDbEntity
  8
RACCORDO
100
AcDbSpline
 62
250
  6
CONTINUOUS
 70
0
 71
3
 72
9
 73
5
 74
0
 42
0.0000001
 43
0.0000001
 44
0.0000000001
 40
0.0
 40
0.0
 40
0.0
 40
0.0
 40
0.2499613228
 40
1.0
 40
1.0
 40
1.0
 40
1.0
 10
165.5646729247
 20
74.9273531064
 30
0.0
 10
164.6605989247
 20
74.9268995677
 30
0.0
 10
161.0437432207
 20
74.9253645009
 30
0.0
 10
157.4268872224
 20
74.9247012171
 30
0.0
 10
154.7141053538
 20
74.9242801047
 30
0.0
  0
SPLINE
  5
3B2
100
AcDbEntity
  8
RACCORDO
100
AcDbSpline
 62
250
  6
CONTINUOUS
 70
0
 71
3
 72
9
 73
5
 74
0
 42
0.0000001
 43
0.0000001
 44
0.0000000001
 40
0.0
 40
0.0
 40
0.0
 40
0.0
 40
0.2500934206
 40
1.0
 40
1.0
 40
1.0
 40
1.0
 10
166.3747873633
 20
97.6113037064
 30
0.0
 10
166.374787363
 20
95.786996984
 30
0.0
 10
166.3740531511
 20
88.4924960155
 30
0.0
 10
166.3708732382
 20
81.1979946751
 30
0.0
 10
166.3657122364
 20
75.7278027677
 30
0.0
  0
LINE
  5
3B3
100
AcDbEntity
  8
RACCORDO
100
AcDbLine
 62
250
  6
CONTINUOUS
 10
189.2347139415
 20
140.1811990605
 30
0.0
 11
189.6075735735
 21
140.1814598138
 31
0.0
  0
SPLINE
  5
3B4
100
AcDbEntity
  8
RACCORDO
100
AcDbSpline
 62
250
  6
CONTINUOUS
 70
0
 71
3
 72
9
 73
5
 74
0
 42
0.0000001
 43
0.0000001
 44
0.0000000001
 40
0.0
 40
0.0
 40
0.0
 40
0.0
 40
0.2505000999
 40
1.0
 40
1.0
 40
1.0
 40
1.0
 10
154.7118349299
 20
140.1841872007
 30
0.0
 10
157.5944964901
 20
140.1841827534
 30
0.0
 10
169.1021228808
 20
140.1841762936
 30
0.0
 10
180.6097492703
 20
140.1828605007
 30
0.0
 10
189.2347139415
 20
140.1811990605
 30
0.0
  0
LINE
  5
3B5
100
AcDbEntity
  8
RACCORDO
100
AcDbLine
 62
250
  6
CONTINUOUS
 10
193.1845439474
 20
136.5981064316
 30
0.0
 11
193.1842943602
 21
136.2201037064
 31
0.0
  0
SPLINE
  5
3B6
100
AcDbEntity
  8
RACCORDO
100
AcDbSpline
 62
250
  6
CONTINUOUS
 70
0
 71
3
 72
9
 73
5
 74
0
 42
0.0000001
 43
0.0000001
 44
0.0000000001
 40
0.0
 40
0.0
 40
0.0
 40
0.0
 40
0.2498392756
 40
1.0
 40
1.0
 40
1.0
 40
1.0
 10
193.1868163427
 20
119.9313037064
 30
0.0
 10
193.186989448
 20
118.0724995024
 30
0.0
 10
193.187448034
 20
110.6324995085
 30
0.0
 10
193.1874862756
 20
103.1924994994
 30
0.0
 10
193.1874864678
 20
97.6113037064
 30
0.0
  0
SPLINE
  5
3B7
100
AcDbEntity
  8
RACCORDO
100
AcDbSpline
 62
250
  6
CONTINUOUS
 70
0
 71
3
 72
9
 73
5
 74
0
 42
0.0000001
 43
0.0000001
 44
0.0000000001
 40
0.0
 40
0.0
 40
0.0
 40
0.0
 40
0.2494274174
 40
1.0
 40
1.0
 40
1.0
 40
1.0
 10
193.1842943602
 20
136.2201037064
 30
0.0
 10
193.1845812257
 20
134.879585163
 30
0.0
 10
193.1856511309
 20
129.5052018589
 30
0.0
 10
193.1864056023
 20
124.1308184925
 30
0.0
 10
193.1868005105
 20
120.0969536757
 30
0.0
  0
LINE
  5
3B8
100
AcDbEntity
  8
RACCORDO
100
AcDbLine
 62
250
  6
CONTINUOUS
 10
193.1842943602
 20
59.0025037064
 30
0.0
 11
193.1845439475
 21
58.6245009812
 31
0.0
  0
LINE
  5
3B9
100
AcDbEntity
  8
RACCORDO
100
AcDbLine
 62
250
  6
CONTINUOUS
 10
193.1868005105
 20
120.0969536757
 30
0.0
 11
193.1868163427
 21
119.9313037064
 31
0.0
  0
SPLINE
  5
3BA
100
AcDbEntity
  8
RACCORDO
100
AcDbSpline
 62
250
  6
CONTINUOUS
 70
0
 71
3
 72
18
 73
14
 74
0
 42
0.0000001
 43
0.0000001
 44
0.0000000001
 40
0.0
 40
0.0
 40
0.0
 40
0.0
 40
0.189880033
 40
0.3744224411
 40
0.5458924256
 40
0.6975500635
 40
0.823202038
 40
0.8746531039
 40
0.9177881269
 40
0.9522025279
 40
0.9775154558
 40
0.9934899929
 40
1.0
 40
1.0
 40
1.0
 40
1.0
 10
109.7141053538
 20
74.9242801047
 30
0.0
 10
109.7140982903
 20
74.9443499256
 30
0.0
 10
109.7141194905
 20
74.9839254413
 30
0.0
 10
109.7142539654
 20
75.0416246079
 30
0.0
 10
109.7144838562
 20
75.0952839008
 30
0.0
 10
109.7148032244
 20
75.1427166329
 30
0.0
 10
109.715136294
 20
75.1774669029
 30
0.0
 10
109.7154662637
 20
75.2007390301
 30
0.0
 10
109.7156777594
 20
75.2143815287
 30
0.0
 10
109.7159818297
 20
75.2252258546
 30
0.0
 10
109.7160778129
 20
75.2332835852
 30
0.0
 10
109.7165863839
 20
75.2382179714
 30
0.0
 10
109.7164555498
 20
75.2407199204
 30
0.0
 10
109.716767633
 20
75.2413331682
 30
0.0
  0
SPLINE
  5
3BB
100
AcDbEntity
  8
RACCORDO
100
AcDbSpline
 62
250
  6
CONTINUOUS
 70
0
 71
3
 72
18
 73
14
 74
0
 42
0.0000001
 43
0.0000001
 44
0.0000000001
 40
0.0
 40
0.0
 40
0.0
 40
0.0
 40
0.189880033
 40
0.3744224411
 40
0.5458924256
 40
0.6975500635
 40
0.823202038
 40
0.8746531039
 40
0.9177881269
 40
0.9522025279
 40
0.9775154558
 40
0.9934899929
 40
1.0
 40
1.0
 40
1.0
 40
1.0
 10
154.7141053538
 20
74.9242801047
 30
0.0
 10
154.7141124173
 20
74.9443499256
 30
0.0
 10
154.7140912171
 20
74.9839254413
 30
0.0
 10
154.7139567422
 20
75.0416246079
 30
0.0
 10
154.7137268515
 20
75.0952839008
 30
0.0
 10
154.7134074833
 20
75.1427166329
 30
0.0
 10
154.7130744136
 20
75.1774669029
 30
0.0
 10
154.712744444
 20
75.2007390301
 30
0.0
 10
154.7125329482
 20
75.2143815287
 30
0.0
 10
154.7122288779
 20
75.2252258546
 30
0.0
 10
154.7121328947
 20
75.2332835852
 30
0.0
 10
154.7116243237
 20
75.2382179714
 30
0.0
 10
154.7117551578
 20
75.2407199204
 30
0.0
 10
154.7114430746
 20
75.2413331682
 30
0.0
  0
SPLINE
  5
3BC
100
AcDbEntity
  8
RACCORDO
100
AcDbSpline
 62
250
  6
CONTINUOUS
 70
0
 71
3
 72
18
 73
14
 74
0
 42
0.0000001
 43
0.0000001
 44
0.0000000001
 40
0.0
 40
0.0
 40
0.0
 40
0.0
 40
0.1896675413
 40
0.3740069982
 40
0.545298649
 40
0.6968176729
 40
0.82238824
 40
0.8738275847
 40
0.9169759262
 40
0.9514364693
 40
0.9768442771
 40
0.993004257
 40
1.0
 40
1.0
 40
1.0
 40
1.0
 10
165.5646729247
 20
74.9273531064
 30
0.0
 10
165.5646956833
 20
74.9474225788
 30
0.0
 10
165.5646271498
 20
74.9869980457
 30
0.0
 10
165.5641941695
 20
75.0446966258
 30
0.0
 10
165.5634507903
 20
75.0983566958
 30
0.0
 10
165.5624274614
 20
75.1457875954
 30
0.0
 10
165.5613374433
 20
75.1805432921
 30
0.0
 10
165.5602993475
 20
75.2038025159
 30
0.0
 10
165.5595605964
 20
75.2174682519
 30
0.0
 10
165.5587313284
 20
75.2282578932
 30
0.0
 10
165.5580632484
 20
75.236464238
 30
0.0
 10
165.5570863336
 20
75.241171342
 30
0.0
 10
165.5567212272
 20
75.2440110237
 30
0.0
 10
165.5560890565
 20
75.2443961561
 30
0.0
  0
SPLINE
  5
3BD
100
AcDbEntity
  8
RACCORDO
100
AcDbSpline
 62
250
  6
CONTINUOUS
 70
0
 71
3
 72
18
 73
14
 74
0
 42
0.0000001
 43
0.0000001
 44
0.0000000001
 40
0.0
 40
0.0
 40
0.0
 40
0.0
 40
0.1887516386
 40
0.372422789
 40
0.5433301911
 40
0.6947685636
 40
0.8205663983
 40
0.8722293414
 40
0.9156684163
 40
0.9504774365
 40
0.9762743489
 40
0.9928208033
 40
1.0
 40
1.0
 40
1.0
 40
1.0
 10
166.0750972354
 20
75.1113037065
 30
0.0
 10
166.0623026349
 20
75.1267488918
 30
0.0
 10
166.0370959371
 20
75.1572551655
 30
0.0
 10
166.000433966
 20
75.2018533234
 30
0.0
 10
165.9664039368
 20
75.2434828269
 30
0.0
 10
165.936391208
 20
75.280451709
 30
0.0
 10
165.9144748444
 20
75.3076768813
 30
0.0
 10
165.89986701
 20
75.3260452597
 30
0.0
 10
165.8913046835
 20
75.3368828886
 30
0.0
 10
165.8845719541
 20
75.3456263493
 30
0.0
 10
165.8794942718
 20
75.3521245544
 30
0.0
 10
165.8766296888
 20
75.3564404266
 30
0.0
 10
165.8749611438
 20
75.3584754812
 30
0.0
 10
165.8747944418
 20
75.3592198887
 30
0.0
  0
SPLINE
  5
3BE
100
AcDbEntity
  8
RACCORDO
100
AcDbSpline
 62
250
  6
CONTINUOUS
 70
0
 71
3
 72
17
 73
13
 74
0
 42
0.0000001
 43
0.0000001
 44
0.0000000001
 40
0.0
 40
0.0
 40
0.0
 40
0.0
 40
0.190452235
 40
0.3748070218
 40
0.5456030607
 40
0.6963702773
 40
0.8211899187
 40
0.9152743178
 40
0.949666223
 40
0.9751963548
 40
0.9917905244
 40
1.0
 40
1.0
 40
1.0
 40
1.0
 10
166.3657122364
 20
75.7278027677
 30
0.0
 10
166.3459878092
 20
75.7277880159
 30
0.0
 10
166.3071702024
 20
75.7279642599
 30
0.0
 10
166.2506685967
 20
75.7288278529
 30
0.0
 10
166.1982937422
 20
75.7302571331
 30
0.0
 10
166.152091708
 20
75.7321784816
 30
0.0
 10
166.1139013335
 20
75.7345141327
 30
0.0
 10
166.0877074363
 20
75.7368500854
 30
0.0
 10
166.0719777323
 20
75.7389995371
 30
0.0
 10
166.0640493361
 20
75.7404888621
 30
0.0
 10
166.0592933867
 20
75.7418649739
 30
0.0
 10
166.0566301997
 20
75.7431554143
 30
0.0
 10
166.0563685349
 20
75.7439643729
 30
0.0
  0
SPLINE
  5
3BF
100
AcDbEntity
  8
RACCORDO
100
AcDbSpline
 62
250
  6
CONTINUOUS
 70
0
 71
3
 72
8
 73
4
 74
0
 42
0.0000001
 43
0.0000001
 44
0.0000000001
 40
0.0
 40
0.0
 40
0.0
 40
0.0
 40
1.0
 40
1.0
 40
1.0
 40
1.0
 10
154.7141053538
 20
74.9242801047
 30
0.0
 10
147.2141054216
 20
74.9231158608
 30
0.0
 10
139.7141053764
 20
74.9225337734
 30
0.0
 10
132.2141053538
 20
74.9225337734
 30
0.0
  0
SPLINE
  5
3C0
100
AcDbEntity
  8
RACCORDO
100
AcDbSpline
 62
250
  6
CONTINUOUS
 70
0
 71
3
 72
13
 73
9
 74
0
 42
0.0000001
 43
0.0000001
 44
0.0000000001
 40
0.0
 40
0.0
 40
0.0
 40
0.0
 40
0.0425296827
 40
0.1136723864
 40
0.2118553989
 40
0.3346534488
 40
0.6406436557
 40
1.0
 40
1.0
 40
1.0
 40
1.0
 10
193.1868163427
 20
119.9313036667
 30
0.0
 10
193.183406283
 20
119.9326502959
 30
0.0
 10
193.1736887467
 20
119.9344784564
 30
0.0
 10
193.1556291072
 20
119.9368782783
 30
0.0
 10
193.1305100579
 20
119.9390301343
 30
0.0
 10
193.0851819163
 20
119.9418942117
 30
0.0
 10
193.0172652347
 20
119.9443493056
 30
0.0
 10
192.9599154683
 20
119.9452679058
 30
0.0
 10
192.9289375366
 20
119.9454920502
 30
0.0
  0
SPLINE
  5
3C1
100
AcDbEntity
  8
RACCORDO
100
AcDbSpline
 62
250
  6
CONTINUOUS
 70
0
 71
3
 72
13
 73
9
 74
0
 42
0.0000001
 43
0.0000001
 44
0.0000000001
 40
0.0
 40
0.0
 40
0.0
 40
0.0
 40
0.0425557927
 40
0.1137096346
 40
0.211895919
 40
0.334691954
 40
0.640667211
 40
1.0
 40
1.0
 40
1.0
 40
1.0
 10
193.1868005105
 20
120.0969536757
 30
0.0
 10
193.1833933892
 20
120.0983144947
 30
0.0
 10
193.1736744015
 20
120.1001650401
 30
0.0
 10
193.1556142985
 20
120.102591661
 30
0.0
 10
193.1304940632
 20
120.1047685678
 30
0.0
 10
193.0851661422
 20
120.1076651197
 30
0.0
 10
193.0172488711
 20
120.1101482828
 30
0.0
 10
192.9598985691
 20
120.1110771361
 30
0.0
 10
192.9289205258
 20
120.1113037064
 30
0.0
  0
SPLINE
  5
3C2
100
AcDbEntity
  8
RACCORDO
100
AcDbSpline
 62
250
  6
CONTINUOUS
 70
0
 71
3
 72
13
 73
9
 74
0
 42
0.0000001
 43
0.0000001
 44
0.0000000001
 40
0.0
 40
0.0
 40
0.0
 40
0.0
 40
0.0464794325
 40
0.1193747079
 40
0.2180948864
 40
0.340603076
 40
0.6442966396
 40
1.0
 40
1.0
 40
1.0
 40
1.0
 10
193.1842943602
 20
136.2201037064
 30
0.0
 10
193.1812120881
 20
136.2227321115
 30
0.0
 10
193.1714499909
 20
136.2270032352
 30
0.0
 10
193.1532306096
 20
136.2321166101
 30
0.0
 10
193.1279748971
 20
136.2368861401
 30
0.0
 10
193.0826582955
 20
136.2430655921
 30
0.0
 10
193.0146628493
 20
136.2484279984
 30
0.0
 10
192.9572207681
 20
136.250413217
 30
0.0
 10
192.9262241619
 20
136.2508972015
 30
0.0
  0
SPLINE
  5
3C3
100
AcDbEntity
  8
RACCORDO
100
AcDbSpline
 62
250
  6
CONTINUOUS
 70
0
 71
3
 72
13
 73
9
 74
0
 42
0.0000001
 43
0.0000001
 44
0.0000000001
 40
0.0
 40
0.0
 40
0.0
 40
0.0
 40
0.0466391081
 40
0.1196108345
 40
0.2183586354
 40
0.3408598421
 40
0.6444618147
 40
1.0
 40
1.0
 40
1.0
 40
1.0
 10
193.1845441587
 20
136.5982424729
 30
0.0
 10
193.181475526
 20
136.6009124871
 30
0.0
 10
193.1717220238
 20
136.6052818847
 30
0.0
 10
193.1534987834
 20
136.6105172305
 30
0.0
 10
193.1282406912
 20
136.6154204352
 30
0.0
 10
193.0829238388
 20
136.6217943524
 30
0.0
 10
193.0149194702
 20
136.6273847462
 30
0.0
 10
192.957463545
 20
136.6295189681
 30
0.0
 10
192.9264603574
 20
136.630073209
 30
0.0
  0
SPLINE
  5
3C4
100
AcDbEntity
  8
RACCORDO
100
AcDbSpline
 62
250
  6
CONTINUOUS
 70
0
 71
3
 72
13
 73
9
 74
0
 42
0.0000001
 43
0.0000001
 44
0.0000000001
 40
0.0
 40
0.0
 40
0.0
 40
0.0
 40
0.0463510826
 40
0.1191610719
 40
0.2178712189
 40
0.3402529535
 40
0.6440011767
 40
1.0
 40
1.0
 40
1.0
 40
1.0
 10
189.6075732971
 20
140.1814629129
 30
0.0
 10
189.6101617339
 20
140.1783906059
 30
0.0
 10
189.6143560486
 20
140.1686840783
 30
0.0
 10
189.6194189753
 20
140.150579429
 30
0.0
 10
189.624138415
 20
140.1254781555
 30
0.0
 10
189.6303006455
 20
140.0804214274
 30
0.0
 10
189.6356983976
 20
140.0127871405
 30
0.0
 10
189.6377763642
 20
139.9556356466
 30
0.0
 10
189.6383230978
 20
139.9247853167
 30
0.0
  0
SPLINE
  5
3C5
100
AcDbEntity
  8
RACCORDO
100
AcDbSpline
 62
250
  6
CONTINUOUS
 70
0
 71
3
 72
13
 73
9
 74
0
 42
0.0000001
 43
0.0000001
 44
0.0000000001
 40
0.0
 40
0.0
 40
0.0
 40
0.0
 40
0.0462276146
 40
0.118979184
 40
0.2176685866
 40
0.3400558648
 40
0.6438741152
 40
1.0
 40
1.0
 40
1.0
 40
1.0
 10
189.2347139404
 20
140.1811990605
 30
0.0
 10
189.2372678809
 20
140.1781149907
 30
0.0
 10
189.2413814107
 20
140.1684013662
 30
0.0
 10
189.246343103
 20
140.1502987234
 30
0.0
 10
189.2509510122
 20
140.125199292
 30
0.0
 10
189.2569493812
 20
140.0801432575
 30
0.0
 10
189.2621530747
 20
140.0125178543
 30
0.0
 10
189.2641023904
 20
139.9553791686
 30
0.0
 10
189.2645877424
 20
139.9245351775
 30
0.0
  0
SPLINE
  5
3C6
100
AcDbEntity
  8
RACCORDO
100
AcDbSpline
 62
250
  6
CONTINUOUS
 70
0
 71
3
 72
11
 73
7
 74
0
 42
0.0000001
 43
0.0000001
 44
0.0000000001
 40
0.0
 40
0.0
 40
0.0
 40
0.0
 40
0.1120552782
 40
0.3328484138
 40
0.6394505591
 40
1.0
 40
1.0
 40
1.0
 40
1.0
 10
154.7118349299
 20
140.1841872007
 30
0.0
 10
154.712439486
 20
140.174627627
 30
0.0
 10
154.7127419956
 20
140.14616021
 30
0.0
 10
154.7135369674
 20
140.091516189
 30
0.0
 10
154.7138954707
 20
140.0156078475
 30
0.0
 10
154.714067934
 20
139.9585805204
 30
0.0
 10
154.7141053538
 20
139.9277601791
 30
0.0
  0
SPLINE
  5
3C7
100
AcDbEntity
  8
RACCORDO
100
AcDbSpline
 62
250
  6
CONTINUOUS
 70
0
 71
3
 72
8
 73
4
 74
0
 42
0.0000001
 43
0.0000001
 44
0.0000000001
 40
0.0
 40
0.0
 40
0.0
 40
0.0
 40
1.0
 40
1.0
 40
1.0
 40
1.0
 10
132.2141053538
 20
120.3000736394
 30
0.0
 10
139.7141053764
 20
120.3000736394
 30
0.0
 10
147.2141054216
 20
120.299491552
 30
0.0
 10
154.7141053538
 20
120.2983273081
 30
0.0
  0
SPLINE
  5
3C8
100
AcDbEntity
  8
RACCORDO
100
AcDbSpline
 62
250
  6
CONTINUOUS
 70
0
 71
3
 72
9
 73
5
 74
0
 42
0.0000001
 43
0.0000001
 44
0.0000000001
 40
0.0
 40
0.0
 40
0.0
 40
0.0
 40
0.2500247089
 40
1.0
 40
1.0
 40
1.0
 40
1.0
 10
154.7141053538
 20
120.2983273081
 30
0.0
 10
155.6184087139
 20
120.2981869309
 30
0.0
 10
159.2352646654
 20
120.2975914846
 30
0.0
 10
162.8521206273
 20
120.2966150884
 30
0.0
 10
165.5646729247
 20
120.2952543064
 30
0.0
  0
SPLINE
  5
3C9
100
AcDbEntity
  8
RACCORDO
100
AcDbSpline
 62
250
  6
CONTINUOUS
 70
0
 71
3
 72
9
 73
5
 74
0
 42
0.0000001
 43
0.0000001
 44
0.0000000001
 40
0.0
 40
0.0
 40
0.0
 40
0.0
 40
0.2505002989
 40
1.0
 40
1.0
 40
1.0
 40
1.0
 10
154.7141053538
 20
139.9277601791
 30
0.0
 10
157.5990740914
 20
139.9277555129
 30
0.0
 10
169.1159016163
 20
139.9277482151
 30
0.0
 10
180.6327291394
 20
139.9263267498
 30
0.0
 10
189.2645877417
 20
139.9245351775
 30
0.0
  0
LINE
  5
3CA
100
AcDbEntity
  8
RACCORDO
100
AcDbLine
 62
250
  6
CONTINUOUS
 10
189.2645877417
 20
139.9245351775
 30
0.0
 11
189.6383228005
 21
139.9247853163
 31
0.0
  0
SPLINE
  5
3CB
100
AcDbEntity
  8
RACCORDO
100
AcDbSpline
 62
250
  6
CONTINUOUS
 70
0
 71
3
 72
9
 73
5
 74
0
 42
0.0000001
 43
0.0000001
 44
0.0000000001
 40
0.0
 40
0.0
 40
0.0
 40
0.0
 40
0.2498488695
 40
1.0
 40
1.0
 40
1.0
 40
1.0
 10
166.3657122364
 20
119.4948046451
 30
0.0
 10
166.3674317448
 20
117.6722826027
 30
0.0
 10
166.3729481372
 20
110.3777834809
 30
0.0
 10
166.3747873688
 20
103.0832819522
 30
0.0
 10
166.3747873633
 20
97.6113037064
 30
0.0
  0
LINE
  5
3CC
100
AcDbEntity
  8
RACCORDO
100
AcDbLine
 62
250
  6
CONTINUOUS
 10
75.1934967661
 20
55.0414083523
 30
0.0
 11
74.8206371343
 21
55.041147599
 31
0.0
  0
SPLINE
  5
3CD
100
AcDbEntity
  8
RACCORDO
100
AcDbSpline
 62
250
  6
CONTINUOUS
 70
0
 71
3
 72
9
 73
5
 74
0
 42
0.0000001
 43
0.0000001
 44
0.0000000001
 40
0.0
 40
0.0
 40
0.0
 40
0.0
 40
0.2505000999
 40
1.0
 40
1.0
 40
1.0
 40
1.0
 10
109.7163757778
 20
55.0384202121
 30
0.0
 10
106.8337142175
 20
55.0384246594
 30
0.0
 10
95.3260878268
 20
55.0384311192
 30
0.0
 10
83.8184614373
 20
55.0397469121
 30
0.0
 10
75.1934967661
 20
55.0414083523
 30
0.0
  0
SPLINE
  5
3CE
100
AcDbEntity
  8
RACCORDO
100
AcDbSpline
 62
250
  6
CONTINUOUS
 70
0
 71
3
 72
9
 73
5
 74
0
 42
0.0000001
 43
0.0000001
 44
0.0000000001
 40
0.0
 40
0.0
 40
0.0
 40
0.0
 40
0.2500985861
 40
1.0
 40
1.0
 40
1.0
 40
1.0
 10
193.1874864678
 20
97.6113037064
 30
0.0
 10
193.1874865247
 20
95.7505702247
 30
0.0
 10
193.1874379358
 20
88.3105702227
 30
0.0
 10
193.1873354578
 20
80.8705702046
 30
0.0
 10
193.1868163427
 20
75.2913037064
 30
0.0
  0
LINE
  5
3CF
100
AcDbEntity
  8
RACCORDO
100
AcDbLine
 62
250
  6
CONTINUOUS
 10
71.2436667602
 20
58.6245009812
 30
0.0
 11
71.2439163474
 21
59.0025037064
 31
0.0
  0
SPLINE
  5
3D0
100
AcDbEntity
  8
RACCORDO
100
AcDbSpline
 62
250
  6
CONTINUOUS
 70
0
 71
3
 72
9
 73
5
 74
0
 42
0.0000001
 43
0.0000001
 44
0.0000000001
 40
0.0
 40
0.0
 40
0.0
 40
0.0
 40
0.2498392756
 40
1.0
 40
1.0
 40
1.0
 40
1.0
 10
71.2413943649
 20
75.2913037064
 30
0.0
 10
71.2412212597
 20
77.1501079103
 30
0.0
 10
71.2407626737
 20
84.5901079043
 30
0.0
 10
71.240724432
 20
92.0301079133
 30
0.0
 10
71.2407242398
 20
97.6113037064
 30
0.0
  0
SPLINE
  5
3D1
100
AcDbEntity
  8
RACCORDO
100
AcDbSpline
 62
250
  6
CONTINUOUS
 70
0
 71
3
 72
9
 73
5
 74
0
 42
0.0000001
 43
0.0000001
 44
0.0000000001
 40
0.0
 40
0.0
 40
0.0
 40
0.0
 40
0.2494274174
 40
1.0
 40
1.0
 40
1.0
 40
1.0
 10
71.2439163474
 20
59.0025037064
 30
0.0
 10
71.243629482
 20
60.3430222498
 30
0.0
 10
71.2425595768
 20
65.7174055539
 30
0.0
 10
71.2418051054
 20
71.0917889203
 30
0.0
 10
71.2414101971
 20
75.1256537371
 30
0.0
  0
SPLINE
  5
3D2
100
AcDbEntity
  8
SUPERFICI
100
AcDbSpline
 62
7
  6
CONTINUOUS
 70
0
 71
3
 72
9
 73
5
 74
0
 42
0.0000001
 43
0.0000001
 44
0.0000000001
 40
0.0
 40
0.0
 40
0.0
 40
0.0
 40
0.5
 40
1.0
 40
1.0
 40
1.0
 40
1.0
 10
39.3547233829
 20
97.6113037064
 30
0.0
 10
39.3547233829
 20
93.8838148775
 30
0.0
 10
39.4374391383
 20
86.4229329808
 30
0.0
 10
39.6945778762
 20
78.9901998606
 30
0.0
 10
39.90297073
 20
75.2913037064
 30
0.0
  0
SPLINE
  5
3D3
100
AcDbEntity
  8
SUPERFICI
100
AcDbSpline
 62
7
  6
CONTINUOUS
 70
0
 71
3
 72
9
 73
5
 74
0
 42
0.0000001
 43
0.0000001
 44
0.0000000001
 40
0.0
 40
0.0
 40
0.0
 40
0.0
 40
0.5
 40
1.0
 40
1.0
 40
1.0
 40
1.0
 10
39.3547233829
 20
97.6113037064
 30
0.0
 10
39.3547233829
 20
101.3387925353
 30
0.0
 10
39.4374391383
 20
108.7996744319
 30
0.0
 10
39.6945778762
 20
116.2324075522
 30
0.0
 10
39.90297073
 20
119.9313037064
 30
0.0
  0
SPLINE
  5
3D4
100
AcDbEntity
  8
SUPERFICI
100
AcDbSpline
 62
7
  6
CONTINUOUS
 70
0
 71
3
 72
12
 73
8
 74
0
 42
0.0000001
 43
0.0000001
 44
0.0000000001
 40
0.0
 40
0.0
 40
0.0
 40
0.0
 40
0.3360721124
 40
0.6172612374
 40
0.8393503973
 40
0.9274102043
 40
1.0
 40
1.0
 40
1.0
 40
1.0
 10
41.5972221859
 20
139.4923755682
 30
0.0
 10
41.5972227202
 20
139.6057393795
 30
0.0
 10
41.5945180511
 20
139.8139911453
 30
0.0
 10
41.5801368764
 20
140.0967973844
 30
0.0
 10
41.5592427827
 20
140.2954208556
 30
0.0
 10
41.5356781316
 20
140.4224151134
 30
0.0
 10
41.5219423169
 20
140.4749336951
 30
0.0
 10
41.5143149073
 20
140.4982013973
 30
0.0
  0
SPLINE
  5
3D5
100
AcDbEntity
  8
SUPERFICI
100
AcDbSpline
 62
7
  6
CONTINUOUS
 70
0
 71
3
 72
11
 73
7
 74
0
 42
0.0000001
 43
0.0000001
 44
0.0000000001
 40
0.0
 40
0.0
 40
0.0
 40
0.0
 40
0.349379213
 40
0.6216543547
 40
0.8290276313
 40
1.0
 40
1.0
 40
1.0
 40
1.0
 10
41.5143149073
 20
140.4982013973
 30
0.0
 10
41.5088140966
 20
140.5149818289
 30
0.0
 10
41.4977085071
 20
140.5444876432
 30
0.0
 10
41.4769656237
 20
140.581115776
 30
0.0
 10
41.4535249556
 20
140.6052112819
 30
0.0
 10
41.4342250973
 20
140.6113037064
 30
0.0
 10
41.4255834601
 20
140.6113037064
 30
0.0
  0
SPLINE
  5
3D6
100
AcDbEntity
  8
SUPERFICI
100
AcDbSpline
 62
7
  6
CONTINUOUS
 70
0
 71
3
 72
12
 73
8
 74
0
 42
0.0000001
 43
0.0000001
 44
0.0000000001
 40
0.0
 40
0.0
 40
0.0
 40
0.0
 40
0.3360721124
 40
0.6172612374
 40
0.8393503973
 40
0.9274102043
 40
1.0
 40
1.0
 40
1.0
 40
1.0
 10
41.5972221859
 20
55.7302318446
 30
0.0
 10
41.5972227202
 20
55.6168680333
 30
0.0
 10
41.5945180511
 20
55.4086162675
 30
0.0
 10
41.5801368764
 20
55.1258100284
 30
0.0
 10
41.5592427827
 20
54.9271865572
 30
0.0
 10
41.5356781316
 20
54.8001922993
 30
0.0
 10
41.5219423169
 20
54.7476737177
 30
0.0
 10
41.5143149073
 20
54.7244060154
 30
0.0
  0
SPLINE
  5
3D7
100
AcDbEntity
  8
SUPERFICI
100
AcDbSpline
 62
7
  6
CONTINUOUS
 70
0
 71
3
 72
11
 73
7
 74
0
 42
0.0000001
 43
0.0000001
 44
0.0000000001
 40
0.0
 40
0.0
 40
0.0
 40
0.0
 40
0.349379213
 40
0.6216543547
 40
0.8290276313
 40
1.0
 40
1.0
 40
1.0
 40
1.0
 10
41.5143149073
 20
54.7244060154
 30
0.0
 10
41.5088140966
 20
54.7076255839
 30
0.0
 10
41.4977085071
 20
54.6781197696
 30
0.0
 10
41.4769656237
 20
54.6414916368
 30
0.0
 10
41.4535249556
 20
54.6173961309
 30
0.0
 10
41.4342250973
 20
54.6113037064
 30
0.0
 10
41.4255834601
 20
54.6113037064
 30
0.0
  0
SPLINE
  5
3D8
100
AcDbEntity
  8
RACCORDO
100
AcDbSpline
 62
250
  6
CONTINUOUS
 70
0
 71
3
 72
22
 73
18
 74
0
 42
0.0000001
 43
0.0000001
 44
0.0000000001
 40
0.0
 40
0.0
 40
0.0
 40
0.0
 40
0.0057164877
 40
0.0120543891
 40
0.0197195617
 40
0.0291212278
 40
0.0538504719
 40
0.0869900095
 40
0.1285950125
 40
0.1784519775
 40
0.2361829987
 40
0.3012806018
 40
0.3731359261
 40
0.451058011
 40
0.621993419
 40
0.8073732696
 40
1.0
 40
1.0
 40
1.0
 40
1.0
 10
38.1129536082
 20
139.9247853163
 30
0.0
 10
38.119330165
 20
139.9248682486
 30
0.0
 10
38.1329634635
 20
139.9220786964
 30
0.0
 10
38.1513681561
 20
139.9092846837
 30
0.0
 10
38.1680462864
 20
139.8889253231
 30
0.0
 10
38.1905982999
 20
139.8479265922
 30
0.0
 10
38.2138291715
 20
139.7760594723
 30
0.0
 10
38.2355586764
 20
139.6671915878
 30
0.0
 10
38.2525044675
 20
139.5291044939
 30
0.0
 10
38.2644589175
 20
139.3630653314
 30
0.0
 10
38.271163603
 20
139.1705024356
 30
0.0
 10
38.2725114412
 20
138.9533029034
 30
0.0
 10
38.2684598289
 20
138.7136123554
 30
0.0
 10
38.2554661149
 20
138.3560557749
 30
0.0
 10
38.2255043038
 20
137.8724821517
 30
0.0
 10
38.1715023726
 20
137.2624346822
 30
0.0
 10
38.1244314985
 20
136.843334967
 30
0.0
 10
38.0980518008
 20
136.6300732619
 30
0.0
  0
LINE
  5
3D9
100
AcDbEntity
  8
RACCORDO
100
AcDbLine
 62
250
  6
CONTINUOUS
 10
38.0980518008
 20
136.6300732619
 30
0.0
 11
38.0515809872
 21
136.2508972015
 31
0.0
  0
SPLINE
  5
3DA
100
AcDbEntity
  8
RACCORDO
100
AcDbSpline
 62
250
  6
CONTINUOUS
 70
0
 71
3
 72
14
 73
10
 74
0
 42
0.0000001
 43
0.0000001
 44
0.0000000001
 40
0.0
 40
0.0
 40
0.0
 40
0.0
 40
0.0209528272
 40
0.0699579836
 40
0.1495362185
 40
0.2598578421
 40
0.4005949339
 40
0.5712996047
 40
1.0
 40
1.0
 40
1.0
 40
1.0
 10
34.4360815392
 20
120.2952543064
 30
0.0
 10
34.4367893804
 20
120.2952409789
 30
0.0
 10
34.4380077888
 20
120.2924343698
 30
0.0
 10
34.4388131254
 20
120.287983517
 30
0.0
 10
34.4398259866
 20
120.2796807196
 30
0.0
 10
34.4405357979
 20
120.2686531908
 30
0.0
 10
34.4411388541
 20
120.2543670906
 30
0.0
 10
34.4417086272
 20
120.2293867197
 30
0.0
 10
34.4417783251
 20
120.2091218395
 30
0.0
 10
34.4417394419
 20
120.1946367064
 30
0.0
  0
SPLINE
  5
3DB
100
AcDbEntity
  8
RACCORDO
100
AcDbSpline
 62
250
  6
CONTINUOUS
 70
0
 71
3
 72
9
 73
5
 74
0
 42
0.0000001
 43
0.0000001
 44
0.0000000001
 40
0.0
 40
0.0
 40
0.0
 40
0.0
 40
0.2210024708
 40
1.0
 40
1.0
 40
1.0
 40
1.0
 10
34.4383553881
 20
120.016983092
 30
0.0
 10
34.4372194408
 20
119.9784955007
 30
0.0
 10
34.4312658979
 20
119.8043698433
 30
0.0
 10
34.422991741
 20
119.6303290915
 30
0.0
 10
34.4156801598
 20
119.4948046451
 30
0.0
  0
SPLINE
  5
3DC
100
AcDbEntity
  8
RACCORDO
100
AcDbSpline
 62
250
  6
CONTINUOUS
 70
0
 71
3
 72
9
 73
5
 74
0
 42
0.0000001
 43
0.0000001
 44
0.0000000001
 40
0.0
 40
0.0
 40
0.0
 40
0.0
 40
0.4999721106
 40
1.0
 40
1.0
 40
1.0
 40
1.0
 10
36.6075049298
 20
119.94548803
 30
0.0
 10
36.4004305679
 20
116.2276683333
 30
0.0
 10
36.1455191513
 20
108.782872034
 30
0.0
 10
36.0634797556
 20
101.3353011478
 30
0.0
 10
36.0634797556
 20
97.6113037064
 30
0.0
  0
SPLINE
  5
3DD
100
AcDbEntity
  8
RACCORDO
100
AcDbSpline
 62
250
  6
CONTINUOUS
 70
0
 71
3
 72
9
 73
5
 74
0
 42
0.0000001
 43
0.0000001
 44
0.0000000001
 40
0.0
 40
0.0
 40
0.0
 40
0.0
 40
0.4999947995
 40
1.0
 40
1.0
 40
1.0
 40
1.0
 10
34.4125068073
 20
119.4358598612
 30
0.0
 10
34.2179762864
 20
115.8149892325
 30
0.0
 10
33.9763314085
 20
108.5653541335
 30
0.0
 10
33.8971983504
 20
101.3131056942
 30
0.0
 10
33.8966583909
 20
97.6869378847
 30
0.0
  0
SPLINE
  5
3DE
100
AcDbEntity
  8
RACCORDO
100
AcDbSpline
 62
250
  6
CONTINUOUS
 70
0
 71
3
 72
9
 73
5
 74
0
 42
0.0000001
 43
0.0000001
 44
0.0000000001
 40
0.0
 40
0.0
 40
0.0
 40
0.0
 40
0.500005404
 40
1.0
 40
1.0
 40
1.0
 40
1.0
 10
36.3191722784
 20
97.6113037064
 30
0.0
 10
36.3191738792
 20
93.8898396945
 30
0.0
 10
36.4010932397
 20
86.4470002009
 30
0.0
 10
36.655774403
 20
79.0069325319
 30
0.0
 10
36.8626514377
 20
75.2913037064
 30
0.0
  0
LINE
  5
3DF
100
AcDbEntity
  8
RACCORDO
100
AcDbLine
 62
250
  6
CONTINUOUS
 10
36.8626514377
 20
75.2913037064
 30
0.0
 11
36.8719272333
 21
75.1256537371
 31
0.0
  0
SPLINE
  5
3E0
100
AcDbEntity
  8
RACCORDO
100
AcDbSpline
 62
250
  6
CONTINUOUS
 70
0
 71
3
 72
9
 73
5
 74
0
 42
0.0000001
 43
0.0000001
 44
0.0000000001
 40
0.0
 40
0.0
 40
0.0
 40
0.0
 40
0.5000000059
 40
1.0
 40
1.0
 40
1.0
 40
1.0
 10
43.5247303448
 20
97.6113037064
 30
0.0
 10
43.5247303462
 20
93.8621150042
 30
0.0
 10
43.5254990144
 20
86.3637377355
 30
0.0
 10
43.5280021792
 20
78.8653605329
 30
0.0
 10
43.5304921904
 20
75.1161727454
 30
0.0
  0
SPLINE
  5
3E1
100
AcDbEntity
  8
RACCORDO
100
AcDbSpline
 62
250
  6
CONTINUOUS
 70
0
 71
3
 72
29
 73
25
 74
0
 42
0.0000001
 43
0.0000001
 44
0.0000000001
 40
0.0
 40
0.0
 40
0.0
 40
0.0
 40
0.0003623622
 40
0.0013151334
 40
0.0028677226
 40
0.0050215321
 40
0.0077755167
 40
0.0111277443
 40
0.019613383
 40
0.030450628
 40
0.0436115408
 40
0.0590658299
 40
0.0767802178
 40
0.0967135256
 40
0.1188204977
 40
0.1693366527
 40
0.2278404586
 40
0.2937618135
 40
0.3664612659
 40
0.4452394482
 40
0.5293398782
 40
0.6179528828
 40
0.8052611041
 40
1.0
 40
1.0
 40
1.0
 40
1.0
 10
43.5573045706
 20
139.3048150851
 30
0.0
 10
43.5575845146
 20
139.3046493139
 30
0.0
 10
43.5574693209
 20
139.303176013
 30
0.0
 10
43.5579308107
 20
139.3008801096
 30
0.0
 10
43.5580047348
 20
139.2965529198
 30
0.0
 10
43.5582855939
 20
139.2908216621
 30
0.0
 10
43.5584804663
 20
139.2833836167
 30
0.0
 10
43.5588063019
 20
139.2702980131
 30
0.0
 10
43.5591650717
 20
139.249934781
 30
0.0
 10
43.5595687019
 20
139.2207755128
 30
0.0
 10
43.5599461256
 20
139.1853542204
 30
0.0
 10
43.5602997039
 20
139.143759447
 30
0.0
 10
43.5606232844
 20
139.0960831917
 30
0.0
 10
43.5609155089
 20
139.0424337566
 30
0.0
 10
43.5612761444
 20
138.9593334384
 30
0.0
 10
43.5616178462
 20
138.8416025947
 30
0.0
 10
43.5618528564
 20
138.684533038
 30
0.0
 10
43.5619070872
 20
138.5075462202
 30
0.0
 10
43.5617705567
 20
138.3123562614
 30
0.0
 10
43.561453141
 20
138.1008445617
 30
0.0
 10
43.5609742701
 20
137.8750452802
 30
0.0
 10
43.5601346272
 20
137.5518037351
 30
0.0
 10
43.5587712737
 20
137.1292274019
 30
0.0
 10
43.5575422386
 20
136.7862115853
 30
0.0
 10
43.5568733789
 20
136.6113680721
 30
0.0
  0
SPLINE
  5
3E2
100
AcDbEntity
  8
RACCORDO
100
AcDbSpline
 62
250
  6
CONTINUOUS
 70
0
 71
3
 72
11
 73
7
 74
0
 42
0.0000001
 43
0.0000001
 44
0.0000000001
 40
0.0
 40
0.0
 40
0.0
 40
0.0
 40
0.2500000173
 40
0.5000000179
 40
0.750000021
 40
1.0
 40
1.0
 40
1.0
 40
1.0
 10
43.5304921904
 20
75.1161727454
 30
0.0
 10
43.5313878367
 20
73.7680994896
 30
0.0
 10
43.5338033935
 20
71.0719534508
 30
0.0
 10
43.5396540512
 20
67.0277368339
 30
0.0
 10
43.5467878288
 20
62.9835236237
 30
0.0
 10
43.5511395252
 20
60.2873783425
 30
0.0
 10
43.5556947968
 20
58.939312692
 30
0.0
  0
LINE
  5
3E3
100
AcDbEntity
  8
0
100
AcDbLine
 62
7
  6
CONTINUOUS
 10
34.4901825427
 20
70.0576428507
 30
0.0
 11
34.480434863
 21
70.1843259085
 31
0.0
  0
SPLINE
  5
3E4
100
AcDbEntity
  8
0
100
AcDbSpline
 62
7
  6
CONTINUOUS
 70
0
 71
3
 72
17
 73
13
 74
0
 42
0.0000001
 43
0.0000001
 44
0.0000000001
 40
0.0
 40
0.0
 40
0.0
 40
0.0
 40
0.2777584368
 40
0.4983533027
 40
0.6684825885
 40
0.7959698063
 40
0.8887055311
 40
0.9516051691
 40
0.9729160865
 40
0.9879517649
 40
0.9969098195
 40
1.0
 40
1.0
 40
1.0
 40
1.0
 10
34.3603005288
 20
71.8253358888
 30
0.0
 10
34.3597172047
 20
71.8331962225
 30
0.0
 10
34.3586647681
 20
71.847298343
 30
0.0
 10
34.3572316809
 20
71.8662151677
 30
0.0
 10
34.3560918897
 20
71.8808724609
 30
0.0
 10
34.3552139679
 20
71.8919238403
 30
0.0
 10
34.3545284942
 20
71.89990739
 30
0.0
 10
34.3541106575
 20
71.9049526345
 30
0.0
 10
34.3537944243
 20
71.9076985052
 30
0.0
 10
34.3537109769
 20
71.9090665936
 30
0.0
 10
34.3535071954
 20
71.9096699695
 30
0.0
 10
34.3535514395
 20
71.9101728924
 30
0.0
 10
34.3534643331
 20
71.9101829924
 30
0.0
  0
SPLINE
  5
3E5
100
AcDbEntity
  8
RACCORDO
100
AcDbSpline
 62
250
  6
CONTINUOUS
 70
0
 71
3
 72
29
 73
25
 74
0
 42
0.0000001
 43
0.0000001
 44
0.0000000001
 40
0.0
 40
0.0
 40
0.0
 40
0.0
 40
0.1947306964
 40
0.3820475466
 40
0.4706684429
 40
0.5547772748
 40
0.6335617718
 40
0.7062639442
 40
0.7721835564
 40
0.8306815516
 40
0.881190379
 40
0.9032937511
 40
0.9232245887
 40
0.940936597
 40
0.9563896021
 40
0.969549225
 40
0.9803858827
 40
0.9888713795
 40
0.9922235864
 40
0.9949779842
 40
0.9971318394
 40
0.9986838506
 40
0.9996371029
 40
1.0
 40
1.0
 40
1.0
 40
1.0
 10
43.5568733789
 20
58.6112393407
 30
0.0
 10
43.5575422276
 20
58.436403193
 30
0.0
 10
43.5587712315
 20
58.093386998
 30
0.0
 10
43.5601346122
 20
57.6708032028
 30
0.0
 10
43.5609743289
 20
57.3475392883
 30
0.0
 10
43.561453258
 20
57.1217197131
 30
0.0
 10
43.5617706233
 20
56.9101923625
 30
0.0
 10
43.5619069694
 20
56.7149958606
 30
0.0
 10
43.5618528732
 20
56.5380133861
 30
0.0
 10
43.5616177295
 20
56.3809571937
 30
0.0
 10
43.5612760052
 20
56.263241381
 30
0.0
 10
43.5609154046
 20
56.1801530938
 30
0.0
 10
43.5606232411
 20
56.126511246
 30
0.0
 10
43.5602995748
 20
56.0788405001
 30
0.0
 10
43.5599461819
 20
56.0372501724
 30
0.0
 10
43.5595686108
 20
56.001831724
 30
0.0
 10
43.5591652419
 20
55.9726742575
 30
0.0
 10
43.5588061784
 20
55.952311722
 30
0.0
 10
43.5584805949
 20
55.939225863
 30
0.0
 10
43.5582857291
 20
55.931787473
 30
0.0
 10
43.558004785
 20
55.9260561861
 30
0.0
 10
43.5579307865
 20
55.9217293932
 30
0.0
 10
43.5574691024
 20
55.9194326481
 30
0.0
 10
43.5575847434
 20
55.9179586674
 30
0.0
 10
43.5573045685
 20
55.9177923439
 30
0.0
  0
SPLINE
  5
3E6
100
AcDbEntity
  8
RACCORDO
100
AcDbSpline
 62
250
  6
CONTINUOUS
 70
0
 71
3
 72
14
 73
10
 74
0
 42
0.0000001
 43
0.0000001
 44
0.0000000001
 40
0.0
 40
0.0
 40
0.0
 40
0.0
 40
0.4284028766
 40
0.5992183285
 40
0.7401523097
 40
0.8506704617
 40
0.9303610292
 40
0.9793629557
 40
1.0
 40
1.0
 40
1.0
 40
1.0
 10
34.4417050799
 20
75.0366111455
 30
0.0
 10
34.4417872044
 20
75.0209035241
 30
0.0
 10
34.4417723584
 20
74.9989189322
 30
0.0
 10
34.4412474945
 20
74.9718107893
 30
0.0
 10
34.4406590724
 20
74.9562831688
 30
0.0
 10
34.4399456789
 20
74.9443045726
 30
0.0
 10
34.4389181884
 20
74.9352533023
 30
0.0
 10
34.4380777865
 20
74.93046331
 30
0.0
 10
34.436838079
 20
74.927367603
 30
0.0
 10
34.4360815392
 20
74.9273531064
 30
0.0
  0
LINE
  5
3E7
100
AcDbEntity
  8
RACCORDO
100
AcDbLine
 62
250
  6
CONTINUOUS
 10
38.0515809871
 20
58.9717102113
 30
0.0
 11
38.0980518008
 21
58.5925341509
 31
0.0
  0
SPLINE
  5
3E8
100
AcDbEntity
  8
RACCORDO
100
AcDbSpline
 62
250
  6
CONTINUOUS
 70
0
 71
3
 72
22
 73
18
 74
0
 42
0.0000001
 43
0.0000001
 44
0.0000000001
 40
0.0
 40
0.0
 40
0.0
 40
0.0
 40
0.1926112115
 40
0.3779792355
 40
0.548915335
 40
0.6268397128
 40
0.6986967213
 40
0.7637966158
 40
0.8215312298
 40
0.8713909271
 40
0.9129986485
 40
0.9461426513
 40
0.9708757494
 40
0.9802789768
 40
0.9879449832
 40
0.9942833969
 40
1.0
 40
1.0
 40
1.0
 40
1.0
 10
38.0980518008
 20
58.5925341509
 30
0.0
 10
38.1244294211
 20
58.3792896657
 30
0.0
 10
38.1714969076
 20
57.9602203486
 30
0.0
 10
38.2254985818
 20
57.3502027955
 30
0.0
 10
38.2554606603
 20
56.8666391707
 30
0.0
 10
38.2684579811
 20
56.5090775673
 30
0.0
 10
38.2725110582
 20
56.2693800789
 30
0.0
 10
38.2711644388
 20
56.0521721351
 30
0.0
 10
38.2644625557
 20
55.8595995876
 30
0.0
 10
38.2525102639
 20
55.6935501061
 30
0.0
 10
38.2355636854
 20
55.5554520912
 30
0.0
 10
38.2138366087
 20
55.4465711363
 30
0.0
 10
38.1906041349
 20
55.37469298
 30
0.0
 10
38.1680500555
 20
55.3336872408
 30
0.0
 10
38.1513693487
 20
55.3133258503
 30
0.0
 10
38.1329642227
 20
55.3005298285
 30
0.0
 10
38.1193302941
 20
55.2977392676
 30
0.0
 10
38.1129536082
 20
55.2978220965
 30
0.0
  0
SPLINE
  5
3E9
100
AcDbEntity
  8
RACCORDO
100
AcDbSpline
 62
250
  6
CONTINUOUS
 70
0
 71
3
 72
9
 73
5
 74
0
 42
0.0000001
 43
0.0000001
 44
0.0000000001
 40
0.0
 40
0.0
 40
0.0
 40
0.0
 40
0.2698481424
 40
1.0
 40
1.0
 40
1.0
 40
1.0
 10
34.4156801598
 20
75.7278027677
 30
0.0
 10
34.4181588261
 20
75.6818571369
 30
0.0
 10
34.4269096548
 20
75.5115703624
 30
0.0
 10
34.4342382153
 20
75.3412019266
 30
0.0
 10
34.438021715
 20
75.2167595187
 30
0.0
  0
LINE
  5
3EA
100
AcDbEntity
  8
RACCORDO
100
AcDbLine
 62
250
  6
CONTINUOUS
 10
34.4404962042
 20
75.1219868247
 30
0.0
 11
34.4407135809
 21
75.1113037064
 31
0.0
  0
SPLINE
  5
3EB
100
AcDbEntity
  8
RACCORDO
100
AcDbSpline
 62
250
  6
CONTINUOUS
 70
0
 71
3
 72
9
 73
5
 74
0
 42
0.0000001
 43
0.0000001
 44
0.0000000001
 40
0.0
 40
0.0
 40
0.0
 40
0.0
 40
0.5000052322
 40
1.0
 40
1.0
 40
1.0
 40
1.0
 10
33.8966581746
 20
97.5371540813
 30
0.0
 10
33.897187728
 20
93.9103827798
 30
0.0
 10
33.9763456013
 20
86.6569280163
 30
0.0
 10
34.2180295764
 20
79.4060862179
 30
0.0
 10
34.4126213888
 20
75.7846149953
 30
0.0
  0
SPLINE
  5
3EC
100
AcDbEntity
  8
RACCORDO
100
AcDbSpline
 62
250
  6
CONTINUOUS
 70
0
 71
3
 72
9
 73
5
 74
0
 42
0.0000001
 43
0.0000001
 44
0.0000000001
 40
0.0
 40
0.0
 40
0.0
 40
0.0
 40
0.5000278894
 40
1.0
 40
1.0
 40
1.0
 40
1.0
 10
36.0634831805
 20
97.6113037064
 30
0.0
 10
36.0634831805
 20
93.8873062968
 30
0.0
 10
36.145522575
 20
86.4397354742
 30
0.0
 10
36.4004339867
 20
78.9949392385
 30
0.0
 10
36.6075083441
 20
75.2771195734
 30
0.0
  0
SPLINE
  5
3ED
100
AcDbEntity
  8
RACCORDO
100
AcDbSpline
 62
250
  6
CONTINUOUS
 70
0
 71
3
 72
10
 73
6
 74
0
 42
0.0000001
 43
0.0000001
 44
0.0000000001
 40
0.0
 40
0.0
 40
0.0
 40
0.0
 40
0.6701906225
 40
0.8903184991
 40
1.0
 40
1.0
 40
1.0
 40
1.0
 10
38.3515486821
 20
58.6246366736
 30
0.0
 10
38.2948984715
 20
58.6176213396
 30
0.0
 10
38.2196377164
 20
58.6083150366
 30
0.0
 10
38.1351637904
 20
58.5974358533
 30
0.0
 10
38.1072930964
 20
58.5939023634
 30
0.0
 10
38.0980518008
 20
58.5925341509
 30
0.0
  0
SPLINE
  5
3EE
100
AcDbEntity
  8
RACCORDO
100
AcDbSpline
 62
250
  6
CONTINUOUS
 70
0
 71
3
 72
11
 73
7
 74
0
 42
0.0000001
 43
0.0000001
 44
0.0000000001
 40
0.0
 40
0.0
 40
0.0
 40
0.0
 40
0.2492687386
 40
0.4989825732
 40
0.7492624471
 40
1.0
 40
1.0
 40
1.0
 40
1.0
 10
38.3663784234
 20
55.0411475989
 30
0.0
 10
38.3346648652
 20
55.0456625542
 30
0.0
 10
38.2721979161
 20
55.0652620652
 30
0.0
 10
38.1930959961
 20
55.1230059881
 30
0.0
 10
38.1362935147
 20
55.2030036744
 30
0.0
 10
38.1172563515
 20
55.2658885841
 30
0.0
 10
38.1129565187
 20
55.2978224946
 30
0.0
  0
SPLINE
  5
3EF
100
AcDbEntity
  8
RACCORDO
100
AcDbSpline
 62
250
  6
CONTINUOUS
 70
0
 71
3
 72
11
 73
7
 74
0
 42
0.0000001
 43
0.0000001
 44
0.0000000001
 40
0.0
 40
0.0
 40
0.0
 40
0.0
 40
0.2492839769
 40
0.4990106916
 40
0.7492877697
 40
1.0
 40
1.0
 40
1.0
 40
1.0
 10
38.3219989037
 20
55.0414083523
 30
0.0
 10
38.2902830698
 20
55.0459285361
 30
0.0
 10
38.2278134337
 20
55.0655348306
 30
0.0
 10
38.1487036205
 20
55.1232764232
 30
0.0
 10
38.0918857997
 20
55.2032633823
 30
0.0
 10
38.0728329462
 20
55.2661416135
 30
0.0
 10
38.068525304
 20
55.2980722353
 30
0.0
  0
SPLINE
  5
3F0
100
AcDbEntity
  8
RACCORDO
100
AcDbSpline
 62
250
  6
CONTINUOUS
 70
0
 71
3
 72
8
 73
4
 74
0
 42
0.0000001
 43
0.0000001
 44
0.0000000001
 40
0.0
 40
0.0
 40
0.0
 40
0.0
 40
1.0
 40
1.0
 40
1.0
 40
1.0
 10
36.4157379135
 20
55.0384202121
 30
0.0
 10
36.3733165044
 20
55.044382624
 30
0.0
 10
36.3312888934
 20
55.0599806633
 30
0.0
 10
36.295259833
 20
55.0831546382
 30
0.0
  0
SPLINE
  5
3F1
100
AcDbEntity
  8
RACCORDO
100
AcDbSpline
 62
250
  6
CONTINUOUS
 70
0
 71
3
 72
8
 73
4
 74
0
 42
0.0000001
 43
0.0000001
 44
0.0000000001
 40
0.0
 40
0.0
 40
0.0
 40
0.0
 40
1.0
 40
1.0
 40
1.0
 40
1.0
 10
41.4095300836
 20
136.6118751455
 30
0.0
 10
40.390206067
 20
136.6077769193
 30
0.0
 10
39.3708844572
 20
136.6030758216
 30
0.0
 10
38.3515643138
 20
136.5981067483
 30
0.0
  0
SPLINE
  5
3F2
100
AcDbEntity
  8
0
100
AcDbSpline
 62
7
  6
CONTINUOUS
 70
0
 71
3
 72
17
 73
13
 74
0
 42
0.0000001
 43
0.0000001
 44
0.0000000001
 40
0.0
 40
0.0
 40
0.0
 40
0.0
 40
0.0030906744
 40
0.0120498709
 40
0.0270871194
 40
0.0483990821
 40
0.1112963338
 40
0.2040302546
 40
0.3315173196
 40
0.5016469941
 40
0.7222418469
 40
1.0
 40
1.0
 40
1.0
 40
1.0
 10
34.273279674
 20
71.9101831053
 30
0.0
 10
34.2733667922
 20
71.9101729861
 30
0.0
 10
34.2733225135
 20
71.9096700266
 30
0.0
 10
34.2735263121
 20
71.9090665441
 30
0.0
 10
34.2736097278
 20
71.9076983595
 30
0.0
 10
34.2739259089
 20
71.9049524666
 30
0.0
 10
34.2743436497
 20
71.8999073213
 30
0.0
 10
34.2750289614
 20
71.8919238839
 30
0.0
 10
34.2759066715
 20
71.8808725466
 30
0.0
 10
34.2770461872
 20
71.8662152405
 30
0.0
 10
34.2784789203
 20
71.8472984072
 30
0.0
 10
34.2795310923
 20
71.8331962904
 30
0.0
 10
34.2801142685
 20
71.8253359622
 30
0.0
  0
SPLINE
  5
3F3
100
AcDbEntity
  8
RACCORDO
100
AcDbSpline
 62
250
  6
CONTINUOUS
 70
0
 71
3
 72
21
 73
17
 74
0
 42
0.0000001
 43
0.0000001
 44
0.0000000001
 40
0.0
 40
0.0
 40
0.0
 40
0.0
 40
0.0267380729
 40
0.0380412869
 40
0.0514403247
 40
0.0669760944
 40
0.0846547914
 40
0.1263846639
 40
0.1763966293
 40
0.2342973881
 40
0.2995718006
 40
0.3716080903
 40
0.4497153811
 40
0.6210438995
 40
0.8068666776
 40
1.0
 40
1.0
 40
1.0
 40
1.0
 10
38.3663788086
 20
140.1814658422
 30
0.0
 10
38.3987077977
 20
140.181527756
 30
0.0
 10
38.4306683278
 20
140.1289258083
 30
0.0
 10
38.4507633479
 20
140.0729391922
 30
0.0
 10
38.4641153673
 20
140.0254621468
 30
0.0
 10
38.4758904167
 20
139.9705309265
 30
0.0
 10
38.4910012159
 20
139.8810747888
 30
0.0
 10
38.5057671949
 20
139.7495628017
 30
0.0
 10
38.5177242499
 20
139.5689697073
 30
0.0
 10
38.5244169088
 20
139.3596485113
 30
0.0
 10
38.5257712156
 20
139.1235995905
 30
0.0
 10
38.52173283
 20
138.8631524842
 30
0.0
 10
38.5087713696
 20
138.4746597681
 30
0.0
 10
38.4788645142
 20
137.949162827
 30
0.0
 10
38.4249400822
 20
137.2859514963
 30
0.0
 10
38.3779129767
 20
136.8301333004
 30
0.0
 10
38.3515643138
 20
136.5981067483
 30
0.0
  0
SPLINE
  5
3F4
100
AcDbEntity
  8
SUPERFICI
100
AcDbSpline
 62
7
  6
CONTINUOUS
 70
0
 71
3
 72
11
 73
7
 74
0
 42
0.0000001
 43
0.0000001
 44
0.0000000001
 40
0.0
 40
0.0
 40
0.0
 40
0.0
 40
0.2786930688
 40
0.5449141908
 40
0.7884656416
 40
1.0
 40
1.0
 40
1.0
 40
1.0
 10
41.4095300837
 20
136.6118751455
 30
0.0
 10
41.4393875709
 20
136.8784825571
 30
0.0
 10
41.4918659478
 20
137.4004451198
 30
0.0
 10
41.5506592784
 20
138.1572265254
 30
0.0
 10
41.5870652306
 20
138.8506783457
 30
0.0
 10
41.5972212261
 20
139.2887494593
 30
0.0
 10
41.5972221859
 20
139.4923755682
 30
0.0
  0
SPLINE
  5
3F5
100
AcDbEntity
  8
RACCORDO
100
AcDbSpline
 62
250
  6
CONTINUOUS
 70
0
 71
3
 72
8
 73
4
 74
0
 42
0.0000001
 43
0.0000001
 44
0.0000000001
 40
0.0
 40
0.0
 40
0.0
 40
0.0
 40
1.0
 40
1.0
 40
1.0
 40
1.0
 10
36.4157379135
 20
140.1841872007
 30
0.0
 10
36.3733165045
 20
140.1782247888
 30
0.0
 10
36.3312888936
 20
140.1626267496
 30
0.0
 10
36.2952598332
 20
140.1394527748
 30
0.0
  0
SPLINE
  5
3F6
100
AcDbEntity
  8
RACCORDO
100
AcDbSpline
 62
250
  6
CONTINUOUS
 70
0
 71
3
 72
11
 73
7
 74
0
 42
0.0000001
 43
0.0000001
 44
0.0000000001
 40
0.0
 40
0.0
 40
0.0
 40
0.0
 40
0.2492839767
 40
0.4990106915
 40
0.7492877697
 40
1.0
 40
1.0
 40
1.0
 40
1.0
 10
38.3219989036
 20
140.1811990605
 30
0.0
 10
38.2902830697
 20
140.1766788767
 30
0.0
 10
38.2278134337
 20
140.1570725821
 30
0.0
 10
38.1487036205
 20
140.0993309896
 30
0.0
 10
38.0918857997
 20
140.0193440305
 30
0.0
 10
38.0728329462
 20
139.9564657993
 30
0.0
 10
38.0685253042
 20
139.9245351775
 30
0.0
  0
SPLINE
  5
3F7
100
AcDbEntity
  8
RACCORDO
100
AcDbSpline
 62
250
  6
CONTINUOUS
 70
0
 71
3
 72
11
 73
7
 74
0
 42
0.0000001
 43
0.0000001
 44
0.0000000001
 40
0.0
 40
0.0
 40
0.0
 40
0.0
 40
0.2492687289
 40
0.4989825477
 40
0.7492624245
 40
1.0
 40
1.0
 40
1.0
 40
1.0
 10
38.3663791845
 20
140.1814629129
 30
0.0
 10
38.3346652014
 20
140.1769480288
 30
0.0
 10
38.2721973739
 20
140.1573484868
 30
0.0
 10
38.1930942872
 20
140.0996040119
 30
0.0
 10
38.1362909572
 20
140.0196053655
 30
0.0
 10
38.1172535257
 20
139.9567196417
 30
0.0
 10
38.1129536438
 20
139.9247853167
 30
0.0
  0
SPLINE
  5
3F8
100
AcDbEntity
  8
RACCORDO
100
AcDbSpline
 62
250
  6
CONTINUOUS
 70
0
 71
3
 72
9
 73
5
 74
0
 42
0.0000001
 43
0.0000001
 44
0.0000000001
 40
0.0
 40
0.0
 40
0.0
 40
0.0
 40
0.6702007077
 40
1.0
 40
1.0
 40
1.0
 40
1.0
 10
38.351513706
 20
136.5982424729
 30
0.0
 10
38.2948792043
 20
136.6052645251
 30
0.0
 10
38.2104059585
 20
136.6159709057
 30
0.0
 10
38.1258721605
 20
136.6262405577
 30
0.0
 10
38.0980522299
 20
136.630073209
 30
0.0
  0
LINE
  5
3F9
100
AcDbEntity
  8
RACCORDO
100
AcDbLine
 62
250
  6
CONTINUOUS
 10
38.3514969122
 20
136.5981064316
 30
0.0
 11
38.3051151359
 21
136.2201037064
 31
0.0
  0
SPLINE
  5
3FA
100
AcDbEntity
  8
RACCORDO
100
AcDbSpline
 62
250
  6
CONTINUOUS
 70
0
 71
3
 72
9
 73
5
 74
0
 42
0.0000001
 43
0.0000001
 44
0.0000000001
 40
0.0
 40
0.0
 40
0.0
 40
0.0
 40
0.4999942575
 40
1.0
 40
1.0
 40
1.0
 40
1.0
 10
36.8626514377
 20
119.9313037064
 30
0.0
 10
36.6557788572
 20
116.2156772025
 30
0.0
 10
36.4011138464
 20
108.7756093461
 30
0.0
 10
36.3191700948
 20
101.3327701928
 30
0.0
 10
36.3191722784
 20
97.6113037064
 30
0.0
  0
LINE
  5
3FB
100
AcDbEntity
  8
0
100
AcDbLine
 62
7
  6
CONTINUOUS
 10
34.321575659
 20
71.248999098
 30
0.0
 11
34.3340161281
 21
71.0766337824
 31
0.0
  0
LINE
  5
3FC
100
AcDbEntity
  8
RACCORDO
100
AcDbLine
 62
250
  6
CONTINUOUS
 10
36.8719272333
 20
120.0969536757
 30
0.0
 11
36.8626514377
 21
119.9313037064
 31
0.0
  0
SPLINE
  5
3FD
100
AcDbEntity
  8
RACCORDO
100
AcDbSpline
 62
250
  6
CONTINUOUS
 70
0
 71
3
 72
9
 73
5
 74
0
 42
0.0000001
 43
0.0000001
 44
0.0000000001
 40
0.0
 40
0.0
 40
0.0
 40
0.0
 40
0.4999999941
 40
1.0
 40
1.0
 40
1.0
 40
1.0
 10
43.5304921904
 20
120.1064346674
 30
0.0
 10
43.5280021779
 20
116.3572468799
 30
0.0
 10
43.5254990322
 20
108.8588696773
 30
0.0
 10
43.5247303448
 20
101.3604924085
 30
0.0
 10
43.5247303448
 20
97.6113037064
 30
0.0
  0
SPLINE
  5
3FE
100
AcDbEntity
  8
RACCORDO
100
AcDbSpline
 62
250
  6
CONTINUOUS
 70
0
 71
3
 72
11
 73
7
 74
0
 42
0.0000001
 43
0.0000001
 44
0.0000000001
 40
0.0
 40
0.0
 40
0.0
 40
0.0
 40
0.2499999791
 40
0.4999999821
 40
0.7499999826
 40
1.0
 40
1.0
 40
1.0
 40
1.0
 10
43.5556947968
 20
136.2832947208
 30
0.0
 10
43.5511395598
 20
134.93522907
 30
0.0
 10
43.5467876895
 20
132.2390837891
 30
0.0
 10
43.5396540942
 20
128.1948705786
 30
0.0
 10
43.533803382
 20
124.150653962
 30
0.0
 10
43.5313878355
 20
121.4545079233
 30
0.0
 10
43.5304921904
 20
120.1064346674
 30
0.0
  0
SPLINE
  5
3FF
100
AcDbEntity
  8
RACCORDO
100
AcDbSpline
 62
250
  6
CONTINUOUS
 70
0
 71
3
 72
8
 73
4
 74
0
 42
0.0000001
 43
0.0000001
 44
0.0000000001
 40
0.0
 40
0.0
 40
0.0
 40
0.0
 40
1.0
 40
1.0
 40
1.0
 40
1.0
 10
41.4095300836
 20
58.6107322672
 30
0.0
 10
40.3902060664
 20
58.6148304934
 30
0.0
 10
39.3708844561
 20
58.6195315912
 30
0.0
 10
38.3515643121
 20
58.6245006644
 30
0.0
  0
SPLINE
  5
400
100
AcDbEntity
  8
SUPERFICI
100
AcDbSpline
 62
7
  6
CONTINUOUS
 70
0
 71
3
 72
11
 73
7
 74
0
 42
0.0000001
 43
0.0000001
 44
0.0000000001
 40
0.0
 40
0.0
 40
0.0
 40
0.0
 40
0.2786930688
 40
0.5449141908
 40
0.7884656416
 40
1.0
 40
1.0
 40
1.0
 40
1.0
 10
41.4095300837
 20
58.6107322672
 30
0.0
 10
41.4393875709
 20
58.3441248557
 30
0.0
 10
41.4918659478
 20
57.8221622929
 30
0.0
 10
41.5506592784
 20
57.0653808874
 30
0.0
 10
41.5870652306
 20
56.3719290671
 30
0.0
 10
41.5972212261
 20
55.9338579534
 30
0.0
 10
41.5972221859
 20
55.7302318446
 30
0.0
  0
SPLINE
  5
401
100
AcDbEntity
  8
RACCORDO
100
AcDbSpline
 62
250
  6
CONTINUOUS
 70
0
 71
3
 72
21
 73
17
 74
0
 42
0.0000001
 43
0.0000001
 44
0.0000000001
 40
0.0
 40
0.0
 40
0.0
 40
0.0
 40
0.1931178265
 40
0.3789288481
 40
0.5502580562
 40
0.6283676143
 40
0.700405581
 40
0.7656822769
 40
0.8235865868
 40
0.8736012694
 40
0.915333882
 40
0.9330150942
 40
0.9485527928
 40
0.9619534513
 40
0.9732589256
 40
1.0
 40
1.0
 40
1.0
 40
1.0
 10
38.3515643121
 20
58.6245006644
 30
0.0
 10
38.3779109566
 20
58.3924927777
 30
0.0
 10
38.4249347789
 20
57.9367074602
 30
0.0
 10
38.4788590234
 20
57.2735284367
 30
0.0
 10
38.5087657461
 20
56.7480422556
 30
0.0
 10
38.5217309038
 20
56.3595441239
 30
0.0
 10
38.525770815
 20
56.099089546
 30
0.0
 10
38.5244178173
 20
55.863031578
 30
0.0
 10
38.5177279288
 20
55.6537000168
 30
0.0
 10
38.5057732011
 20
55.4730958105
 30
0.0
 10
38.4910060264
 20
55.3415743471
 30
0.0
 10
38.4758972991
 20
55.2521090766
 30
0.0
 10
38.4641226819
 20
55.1971702829
 30
0.0
 10
38.450769076
 20
55.1496862399
 30
0.0
 10
38.4306740445
 20
55.0936916623
 30
0.0
 10
38.3987114222
 20
55.0410799195
 30
0.0
 10
38.3663788086
 20
55.0411415706
 30
0.0
  0
LINE
  5
402
100
AcDbEntity
  8
RACCORDO
100
AcDbLine
 62
250
  6
CONTINUOUS
 10
38.3051151359
 20
59.0025037064
 30
0.0
 11
38.3514969125
 21
58.6245009812
 31
0.0
  0
SPLINE
  5
403
100
AcDbEntity
  8
RACCORDO
100
AcDbSpline
 62
250
  6
CONTINUOUS
 70
0
 71
3
 72
16
 73
12
 74
0
 42
0.0000001
 43
0.0000001
 44
0.0000000001
 40
0.0
 40
0.0
 40
0.0
 40
0.0
 40
0.0043326562
 40
0.017224165
 40
0.0385750588
 40
0.0682798281
 40
0.1523184928
 40
0.2680278816
 40
0.4133916364
 40
0.5862289847
 40
1.0
 40
1.0
 40
1.0
 40
1.0
 10
43.6311176317
 20
136.2836356482
 30
0.0
 10
43.6311176315
 20
136.283526718
 30
0.0
 10
43.6304230447
 20
136.2837313389
 30
0.0
 10
43.6297046244
 20
136.2834959765
 30
0.0
 10
43.627955885
 20
136.2835923893
 30
0.0
 10
43.6246444643
 20
136.2834837204
 30
0.0
 10
43.6188134118
 20
136.2834960979
 30
0.0
 10
43.6101662817
 20
136.2834268993
 30
0.0
 10
43.5992460522
 20
136.2833950622
 30
0.0
 10
43.5808481915
 20
136.2833374231
 30
0.0
 10
43.5660976851
 20
136.2833115576
 30
0.0
 10
43.5556948011
 20
136.2832960079
 30
0.0
  0
SPLINE
  5
404
100
AcDbEntity
  8
RACCORDO
100
AcDbSpline
 62
250
  6
CONTINUOUS
 70
0
 71
3
 72
16
 73
12
 74
0
 42
0.0000001
 43
0.0000001
 44
0.0000000001
 40
0.0
 40
0.0
 40
0.0
 40
0.0
 40
0.0043285863
 40
0.0171999359
 40
0.0385183971
 40
0.0681806982
 40
0.1521126489
 40
0.2677080253
 40
0.4129876209
 40
0.5858103596
 40
1.0
 40
1.0
 40
1.0
 40
1.0
 10
43.6311176316
 20
136.6117445163
 30
0.0
 10
43.6311176316
 20
136.6116373882
 30
0.0
 10
43.6304354503
 20
136.6118313525
 30
0.0
 10
43.6297288005
 20
136.6116021737
 30
0.0
 10
43.6280102829
 20
136.6116913538
 30
0.0
 10
43.6247548322
 20
136.6115817031
 30
0.0
 10
43.6190216043
 20
136.6115877024
 30
0.0
 10
43.6105170212
 20
136.6115147558
 30
0.0
 10
43.5997726641
 20
136.6114780815
 30
0.0
 10
43.5816542532
 20
136.6114146738
 30
0.0
 10
43.56712414
 20
136.6113855251
 30
0.0
 10
43.556873379
 20
136.6113680848
 30
0.0
  0
SPLINE
  5
405
100
AcDbEntity
  8
RACCORDO
100
AcDbSpline
 62
250
  6
CONTINUOUS
 70
0
 71
3
 72
16
 73
12
 74
0
 42
0.0000001
 43
0.0000001
 44
0.0000000001
 40
0.0
 40
0.0
 40
0.0
 40
0.0
 40
0.0043285964
 40
0.0171999487
 40
0.0385184111
 40
0.0681807127
 40
0.1521126629
 40
0.2677080372
 40
0.4129876305
 40
0.5858103671
 40
1.0
 40
1.0
 40
1.0
 40
1.0
 10
43.6311176316
 20
58.6108628415
 30
0.0
 10
43.6311176316
 20
58.6109699699
 30
0.0
 10
43.6304354515
 20
58.6107760251
 30
0.0
 10
43.6297288
 20
58.6110051978
 30
0.0
 10
43.6280102832
 20
58.6109160329
 30
0.0
 10
43.624754832
 20
58.611025691
 30
0.0
 10
43.6190216045
 20
58.6110197083
 30
0.0
 10
43.6105170212
 20
58.6110926679
 30
0.0
 10
43.5997726642
 20
58.6111293565
 30
0.0
 10
43.5816542531
 20
58.6111927814
 30
0.0
 10
43.5671241398
 20
58.6112219393
 30
0.0
 10
43.5568733788
 20
58.6112393851
 30
0.0
  0
SPLINE
  5
406
100
AcDbEntity
  8
RACCORDO
100
AcDbSpline
 62
250
  6
CONTINUOUS
 70
0
 71
3
 72
16
 73
12
 74
0
 42
0.0000001
 43
0.0000001
 44
0.0000000001
 40
0.0
 40
0.0
 40
0.0
 40
0.0
 40
0.00433307
 40
0.0172247043
 40
0.0385756594
 40
0.0682804582
 40
0.1523191229
 40
0.2680284576
 40
0.4133921164
 40
0.5862293331
 40
1.0
 40
1.0
 40
1.0
 40
1.0
 10
43.6311176317
 20
58.938969182
 30
0.0
 10
43.6311176317
 20
58.9390781227
 30
0.0
 10
43.6304230939
 20
58.938874414
 30
0.0
 10
43.6297046021
 20
58.939109492
 30
0.0
 10
43.6279558979
 20
58.9390137837
 30
0.0
 10
43.6246444546
 20
58.9391227897
 30
0.0
 10
43.6188134175
 20
58.9391111776
 30
0.0
 10
43.6101662779
 20
58.9391809784
 30
0.0
 10
43.5992460497
 20
58.9392134727
 30
0.0
 10
43.5808481858
 20
58.9392719004
 30
0.0
 10
43.5660976778
 20
58.9392981873
 30
0.0
 10
43.5556947923
 20
58.9393139871
 30
0.0
  0
ELLIPSE
  5
407
100
AcDbEntity
  8
RACCORDO
100
AcDbEllipse
 62
7
  6
CONTINUOUS
 10
98.9194180373
 20
119.4309910229
 30
0.0
 11
-0.3536610946
 21
0.3536610946
 31
0.0
 40
0.9996954599
 41
-0.7852458701
 42
0.7852458701
  0
ELLIPSE
  5
408
100
AcDbEntity
  8
RACCORDO
100
AcDbEllipse
 62
7
  6
CONTINUOUS
 10
98.9194180373
 20
75.7916163899
 30
0.0
 11
-0.3536610946
 21
-0.3536610946
 31
0.0
 40
0.9996954599
 41
-0.7852458701
 42
0.7852458701
  0
ELLIPSE
  5
409
100
AcDbEntity
  8
RACCORDO
100
AcDbEllipse
 62
7
  6
CONTINUOUS
 10
165.5087926703
 20
119.4309910229
 30
0.0
 11
0.3536610946
 21
0.3536610946
 31
0.0
 40
0.9996954599
 41
-0.7852458701
 42
0.7852458701
  0
ELLIPSE
  5
40A
100
AcDbEntity
  8
RACCORDO
100
AcDbEllipse
 62
7
  6
CONTINUOUS
 10
165.5087926703
 20
75.7916163899
 30
0.0
 11
-0.3536610946
 21
0.3536610946
 31
0.0
 40
0.9996954599
 41
2.3563467834
 42
3.9268385237
  0
ENDSEC
  0
SECTION
  2
OBJECTS
  0
DICTIONARY
  5
C
100
AcDbDictionary
280
0
281
1
  3
ACAD_GROUP
350
D
  3
ACAD_MLINESTYLE
350
17
  3
ACAD_LAYOUT
350
1A
  3
ACAD_PLOTSETTINGS
350
19
  3
ACAD_PLOTSTYLENAME
350
E
  0
DICTIONARY
  5
D
102
{ACAD_REACTORS
330
C
102
}
100
AcDbDictionary
280
0
281
1
  0
ACDBDICTIONARYWDFLT
  5
E
102
{ACAD_REACTORS
330
C
102
}
100
AcDbDictionary
281
1
  3
Normal
350
F
100
AcDbDictionaryWithDefault
340
F
  0
DICTIONARY
  5
17
102
{ACAD_REACTORS
330
C
102
}
100
AcDbDictionary
280
0
281
1
  3
Standard
350
18
  0
DICTIONARY
  5
19
102
{ACAD_REACTORS
330
C
102
}
100
AcDbDictionary
281
1
  0
DICTIONARY
  5
1A
102
{ACAD_REACTORS
330
C
102
}
100
AcDbDictionary
281
1
  3
Model
350
40B
  3
Layout1
350
40C
  0
ACDBPLACEHOLDER
  5
F
102
{ACAD_REACTORS
330
E
102
}
  0
MLINESTYLE
  5
18
102
{ACAD_REACTORS
330
17
102
}
100
AcDbMlineStyle
  2
STANDARD
 70
0
  3

 62
256
 51
90.0
 52
90.0
 71
2
 49
0.5
 62
256
  6
BYLAYER
 49
-0.5
 62
256
  6
BYLAYER
  0
LAYOUT
  5
40B
102
{ACAD_REACTORS
330
1A
102
}
100
AcDbPlotSettings
  1

  2
none_device
  4
ISO_A4_(297.00_x_210.00_MM)
  6

 40
0.0
 41
0.0
 42
0.0
 43
0.0
 44
297.0
 45
210.0
 46
0.0
 47
0.0
 48
0.0
 49
0.0
140
0.0
141
0.0
142
1.0
143
1.0
 70
1024
 72
1
 73
0
 74
0
  7

 75
0
147
1.0
148
0.0
149
0.0
100
AcDbLayout
  1
Model
 70
0
 71
0
 10
0.0
 20
0.0
 11
297.0
 21
210.0
 12
0.0
 22
0.0
 32
0.0
 14
0.0
 24
0.0
 34
0.0
 15
0.0
 25
0.0
 35
0.0
146
0.0
 13
0.0
 23
0.0
 33
0.0
 16
1.0
 26
0.0
 36
0.0
 17
0.0
 27
1.0
 37
0.0
 76
0
330
21A
345
0
346
0
  0
LAYOUT
  5
40C
102
{ACAD_REACTORS
330
1A
102
}
100
AcDbPlotSettings
  1

  2
none_device
  4
ISO_A4_(297.00_x_210.00_MM)
  6

 40
0.0
 41
0.0
 42
0.0
 43
0.0
 44
297.0
 45
210.0
 46
0.0
 47
0.0
 48
0.0
 49
0.0
140
0.0
141
0.0
142
1.0
143
1.0
 70
0
 72
1
 73
0
 74
0
  7

 75
0
147
1.0
148
0.0
149
0.0
100
AcDbLayout
  1
Layout1
 70
0
 71
1
 10
0.0
 20
0.0
 11
297.0
 21
210.0
 12
0.0
 22
0.0
 32
0.0
 14
0.0
 24
0.0
 34
0.0
 15
0.0
 25
0.0
 35
0.0
146
0.0
 13
0.0
 23
0.0
 33
0.0
 16
1.0
 26
0.0
 36
0.0
 17
0.0
 27
1.0
 37
0.0
 76
0
330
21B
345
0
346
0
  0
ENDSEC
  0
EOF
