  0
SECTION
  2
HEADER
  9
$ACADVER
  1
AC1024
  9
$DWGCODEPAGE
  3
ANSI_1252
  9
$EXTMAX
 10
558.8
 20
431.8
 30
0.0
  9
$EXTMIN
 10
0.0
 20
0.0
 30
0.0
  9
$LIMMIN
 10
0.0
 20
0.0
  9
$LIMMAX
 10
558.8
 20
431.8
  9
$VIEWCTR
 10
279.4
 20
215.9
  9
$VIEWSIZE
 40
431.8
  9
$CLAYER
  8
0
  9
$LTSCALE
 40
30.734
  9
$CELTYPE
  6
BYLAYER
  9
$DIMSCALE
 40
1.0
  9
$DIMASZ
 40
3.0
  9
$DIMEXO
 40
0.5
  9
$DIMDLI
 40
21.2344
  9
$DIMEXE
 40
1.5
  9
$DIMCEN
 40
5.0292
  9
$DIMLFAC
 40
1.0
  9
$DIMBLK
  1
_FILLED
  9
$DIMALT
 70
0
  9
$DIMALTF
 40
0.0393700787
  9
$DIMTXT
 40
3.0
  9
$DIMTOL
 70
1
  9
$DIMLIM
 70
0
  9
$DIMTFAC
 40
1.0
  9
$DIMTP
 40
0.01
  9
$DIMTM
 40
0.01
  9
$DIMGAP
 40
0.625
  9
$DIMDSEP
 70
44
  9
$AUNITS
 70
0
  9
$PDMODE
 70
3
  9
$PDSIZE
 40
3.0
  9
$HANDSEED
  5
3FD
  9
$TILEMODE
 70
1
  9
$MEASUREMENT
 70
1
  9
$INSUNITS
 70
4
  0
ENDSEC
  0
SECTION
  2
CLASSES
  0
CLASS
  1
ACDBDICTIONARYWDFLT
  2
AcDbDictionaryWithDefault
  3
AutoCAD 2000
 90
0
 91
1
280
0
281
0
  0
CLASS
  1
ACDBPLACEHOLDER
  2
AcDbPlaceHolder
  3
AutoCAD 2000
 90
0
 91
1
280
0
281
0
  0
CLASS
  1
LAYOUT
  2
AcDbLayout
  3
AutoCAD 2000
 90
0
 91
0
280
0
281
0
  0
ENDSEC
  0
SECTION
  2
TABLES
  0
TABLE
  2
VPORT
  5
8
100
AcDbSymbolTable
 70
2
  0
VPORT
  5
1F4
100
AcDbSymbolTableRecord
100
AcDbViewportTableRecord
  2
*ACTIVE
 70
0
 10
0.0
 20
0.0
 11
1.0
 21
1.0
 12
279.4
 22
215.9
 13
0.0
 23
0.0
 14
1.0
 24
1.0
 15
0.0
 25
0.0
 16
0.0
 26
0.0
 36
1.0
 17
0.0
 27
0.0
 37
0.0
 40
431.8
 41
1.2941176471
 42
50.0
 43
0.0
 44
0.0
 50
0.0
 51
0.0
 71
0
 72
100
 73
1
 74
1
 75
0
 76
0
 77
0
 78
0
  0
ENDTAB
  0
TABLE
  2
LTYPE
  5
5
100
AcDbSymbolTable
 70
6
  0
LTYPE
  5
14
100
AcDbSymbolTableRecord
100
AcDbLinetypeTableRecord
  2
BYBLOCK
 70
0
  3

 72
65
 73
0
 40
0.0
  0
LTYPE
  5
15
100
AcDbSymbolTableRecord
100
AcDbLinetypeTableRecord
  2
BYLAYER
 70
0
  3

 72
65
 73
0
 40
0.0
  0
LTYPE
  5
16
100
AcDbSymbolTableRecord
100
AcDbLinetypeTableRecord
  2
CONTINUOUS
 70
64
  3
Solid line
 72
65
 73
0
 40
0.0
  0
LTYPE
  5
1F5
100
AcDbSymbolTableRecord
100
AcDbLinetypeTableRecord
  2
CENTER
 70
64
  3
____ _ ____ _ ____ _ ____ _ ____ _ ____ _ ____
 72
65
 73
4
 40
0.6
 49
0.375
 74
0
 49
-0.075
 74
0
 49
0.075
 74
0
 49
-0.075
 74
0
  0
LTYPE
  5
1F6
100
AcDbSymbolTableRecord
100
AcDbLinetypeTableRecord
  2
HIDDEN
 70
64
  3
- - - - - - - - - - - - - - - - - - - -
 72
65
 73
2
 40
0.2
 49
0.1
 74
0
 49
-0.1
 74
0
  0
LTYPE
  5
1F7
100
AcDbSymbolTableRecord
100
AcDbLinetypeTableRecord
  2
PHANTOM
 70
64
  3
_____ _ _ _____ _ _ _____ _ _ _____
 72
65
 73
6
 40
0.8
 49
0.45
 74
0
 49
-0.05
 74
0
 49
0.1
 74
0
 49
-0.05
 74
0
 49
0.1
 74
0
 49
-0.05
 74
0
  0
LTYPE
  5
1F8
100
AcDbSymbolTableRecord
100
AcDbLinetypeTableRecord
  2
DOT
 70
64
  3
. . . . . . . . . . . . . . . . . . . .
 72
65
 73
2
 40
0.2
 49
0.1
 74
0
 49
-0.1
 74
0
  0
LTYPE
  5
1F9
100
AcDbSymbolTableRecord
100
AcDbLinetypeTableRecord
  2
DASHED
 70
64
  3
- - - - - - - - - - - - - - - - - - - -
 72
65
 73
2
 40
0.2
 49
0.1
 74
0
 49
-0.1
 74
0
  0
ENDTAB
  0
TABLE
  2
LAYER
  5
2
100
AcDbSymbolTable
 70
36
  0
LAYER
  5
10
100
AcDbSymbolTableRecord
100
AcDbLayerTableRecord
  2
0
 70
0
 62
7
  6
CONTINUOUS
370
-3
390
F
  0
LAYER
  5
1FA
100
AcDbSymbolTableRecord
100
AcDbLayerTableRecord
  2
DEFAULT_1
 70
0
 62
7
  6
CENTER
370
-3
390
F
  0
LAYER
  5
1FB
100
AcDbSymbolTableRecord
100
AcDbLayerTableRecord
  2
DEFAULT_2
 70
0
 62
7
  6
HIDDEN
370
-3
390
F
  0
LAYER
  5
1FC
100
AcDbSymbolTableRecord
100
AcDbLayerTableRecord
  2
DEFAULT_3
 70
0
 62
7
  6
PHANTOM
370
-3
390
F
  0
LAYER
  5
1FD
100
AcDbSymbolTableRecord
100
AcDbLayerTableRecord
  2
ASSI
 70
0
 62
7
  6
CONTINUOUS
370
-3
390
F
  0
LAYER
  5
1FE
100
AcDbSymbolTableRecord
100
AcDbLayerTableRecord
  2
COORDINATE
 70
0
 62
7
  6
CONTINUOUS
370
-3
390
F
  0
LAYER
  5
1FF
100
AcDbSymbolTableRecord
100
AcDbLayerTableRecord
  2
COORD_ORIGINE
 70
0
 62
7
  6
CONTINUOUS
370
-3
390
F
  0
LAYER
  5
200
100
AcDbSymbolTableRecord
100
AcDbLayerTableRecord
  2
CURVE
 70
0
 62
7
  6
CONTINUOUS
370
-3
390
F
  0
LAYER
  5
201
100
AcDbSymbolTableRecord
100
AcDbLayerTableRecord
  2
DRAFT
 70
0
 62
7
  6
CONTINUOUS
370
-3
390
F
  0
LAYER
  5
202
100
AcDbSymbolTableRecord
100
AcDbLayerTableRecord
  2
IGES-VIMAR
 70
0
 62
7
  6
CONTINUOUS
370
-3
390
F
  0
LAYER
  5
203
100
AcDbSymbolTableRecord
100
AcDbLayerTableRecord
  2
INTF_1
 70
0
 62
7
  6
CONTINUOUS
370
-3
390
F
  0
LAYER
  5
204
100
AcDbSymbolTableRecord
100
AcDbLayerTableRecord
  2
INTF_11
 70
0
 62
7
  6
CONTINUOUS
370
-3
390
F
  0
LAYER
  5
205
100
AcDbSymbolTableRecord
100
AcDbLayerTableRecord
  2
INTF_7
 70
0
 62
7
  6
CONTINUOUS
370
-3
390
F
  0
LAYER
  5
206
100
AcDbSymbolTableRecord
100
AcDbLayerTableRecord
  2
NOTE
 70
0
 62
7
  6
CONTINUOUS
370
-3
390
F
  0
LAYER
  5
207
100
AcDbSymbolTableRecord
100
AcDbLayerTableRecord
  2
PIANI
 70
0
 62
7
  6
CONTINUOUS
370
-3
390
F
  0
LAYER
  5
208
100
AcDbSymbolTableRecord
100
AcDbLayerTableRecord
  2
PIANI_ORIGINE
 70
0
 62
7
  6
CONTINUOUS
370
-3
390
F
  0
LAYER
  5
209
100
AcDbSymbolTableRecord
100
AcDbLayerTableRecord
  2
PPP
 70
0
 62
7
  6
CONTINUOUS
370
-3
390
F
  0
LAYER
  5
20A
100
AcDbSymbolTableRecord
100
AcDbLayerTableRecord
  2
PUNTI
 70
0
 62
7
  6
CONTINUOUS
370
-3
390
F
  0
LAYER
  5
20B
100
AcDbSymbolTableRecord
100
AcDbLayerTableRecord
  2
RACCORDO
 70
0
 62
7
  6
CONTINUOUS
370
-3
390
F
  0
LAYER
  5
20C
100
AcDbSymbolTableRecord
100
AcDbLayerTableRecord
  2
RGB__255__255__255__
 70
0
 62
7
  6
CONTINUOUS
370
-3
390
F
  0
LAYER
  5
20D
100
AcDbSymbolTableRecord
100
AcDbLayerTableRecord
  2
RGB____0____0____0__
 70
0
 62
7
  6
CONTINUOUS
370
-3
390
F
  0
LAYER
  5
20E
100
AcDbSymbolTableRecord
100
AcDbLayerTableRecord
  2
SNAPLINE
 70
0
 62
7
  6
CONTINUOUS
370
-3
390
F
  0
LAYER
  5
20F
100
AcDbSymbolTableRecord
100
AcDbLayerTableRecord
  2
SUPERFICI
 70
0
 62
7
  6
CONTINUOUS
370
-3
390
F
  0
LAYER
  5
210
100
AcDbSymbolTableRecord
100
AcDbLayerTableRecord
  2
TRASH
 70
0
 62
7
  6
CONTINUOUS
370
-3
390
F
  0
ENDTAB
  0
TABLE
  2
STYLE
  5
3
100
AcDbSymbolTable
 70
1
  0
STYLE
  5
11
100
AcDbSymbolTableRecord
100
AcDbTextStyleTableRecord
  2
STANDARD
 70
0
 40
0.0
 41
0.8
 50
0.0
 71
0
 42
0.2
  3
txt
  4

  0
STYLE
  5
211
100
AcDbSymbolTableRecord
100
AcDbTextStyleTableRecord
  2
TEXTSTYLE_1
 70
0
 40
0.0
 41
0.8
 50
0.0
 71
0
 42
0.2
  3
gdt
  4

  0
ENDTAB
  0
TABLE
  2
VIEW
  5
6
100
AcDbSymbolTable
 70
0
  0
ENDTAB
  0
TABLE
  2
UCS
  5
7
100
AcDbSymbolTable
 70
0
  0
ENDTAB
  0
TABLE
  2
APPID
  5
9
100
AcDbSymbolTable
 70
1
  0
APPID
  5
212
100
AcDbSymbolTableRecord
100
AcDbRegAppTableRecord
  2
ACAD
 70
0
  0
ENDTAB
  0
TABLE
  2
BLOCK_RECORD
  5
1
100
AcDbSymbolTable
 70
0
  0
BLOCK_RECORD
  5
213
100
AcDbSymbolTableRecord
100
AcDbBlockTableRecord
  2
*Model_Space
  0
BLOCK_RECORD
  5
214
100
AcDbSymbolTableRecord
100
AcDbBlockTableRecord
  2
*Paper_Space
  0
BLOCK_RECORD
  5
215
100
AcDbSymbolTableRecord
100
AcDbBlockTableRecord
  2
_FILLED
  0
BLOCK_RECORD
  5
216
100
AcDbSymbolTableRecord
100
AcDbBlockTableRecord
  2
*D0
  0
BLOCK_RECORD
  5
217
100
AcDbSymbolTableRecord
100
AcDbBlockTableRecord
  2
*D1
  0
BLOCK_RECORD
  5
218
100
AcDbSymbolTableRecord
100
AcDbBlockTableRecord
  2
*D2
  0
ENDTAB
  0
TABLE
  2
DIMSTYLE
  5
A
100
AcDbSymbolTable
 70
1
100
AcDbDimStyleTable
 71
0
  0
DIMSTYLE
105
219
100
AcDbSymbolTableRecord
100
AcDbDimStyleTableRecord
  2
STANDARD
 70
0
  3

  4

 40
1.0
 41
3.0
 42
0.5
 43
0.38
 44
1.5
 45
0.0
 46
0.0
 47
0.01
 48
0.01
140
3.0
141
0.09
142
0.0
143
25.4
144
1.0
145
0.0
146
1.0
147
0.625
 71
1.0
 72
0.0
 73
0
 74
0
 75
0
 76
0
 77
1
 78
8
 79
2
170
0
171
1
172
0
173
0
174
0
175
0
176
0
177
0
178
0
270
2
179
2
271
2
272
2
273
2
274
2
275
0
280
0
281
0
282
0
283
1
284
8
285
0
286
0
287
3
288
0
340
11
278
44
341
215
342
215
343
215
344
215
  0
DIMSTYLE
105
21A
100
AcDbSymbolTableRecord
100
AcDbDimStyleTableRecord
  2
DIMSTYLE_1
 70
0
  3

  4

 40
1.0
 41
3.0
 42
0.5
 43
0.38
 44
1.5
 45
0.0
 46
0.0
 47
0.0
 48
0.0
140
3.0
141
0.09
142
0.0
143
25.4
144
1.0
145
0.0
146
1.0
147
0.75
 71
0.0
 72
0.0
 73
0
 74
0
 75
0
 76
0
 77
1
 78
8
 79
2
170
0
171
1
172
0
173
0
174
0
175
0
176
0
177
0
178
0
270
2
179
2
271
2
272
2
273
2
274
2
275
0
280
0
281
0
282
0
283
1
284
8
285
0
286
0
287
3
288
0
340
11
278
44
341
215
342
215
343
215
344
215
  0
DIMSTYLE
105
21B
100
AcDbSymbolTableRecord
100
AcDbDimStyleTableRecord
  2
DIMSTYLE_2
 70
0
  3

  4

 40
1.0
 41
3.0
 42
0.5
 43
0.38
 44
1.5
 45
0.0
 46
0.0
 47
0.0
 48
0.0
140
3.0
141
0.09
142
0.0
143
25.4
144
1.0
145
0.0
146
1.0
147
0.75
 71
0.0
 72
0.0
 73
0
 74
0
 75
0
 76
0
 77
1
 78
8
 79
2
170
0
171
1
172
0
173
0
174
0
175
0
176
0
177
0
178
0
270
2
179
2
271
1
272
1
273
2
274
2
275
0
280
0
281
0
282
0
283
1
284
8
285
0
286
0
287
3
288
0
340
11
278
44
341
215
342
215
343
215
344
215
  0
ENDTAB
  0
ENDSEC
  0
SECTION
  2
BLOCKS
  0
BLOCK
  5
20
100
AcDbEntity
  8
0
100
AcDbBlockBegin
  2
*Model_Space
 70
0
 10
0.0
 20
0.0
 30
0.0
  3
*Model_Space
  1

  0
ENDBLK
  5
21
100
AcDbEntity
  8
0
100
AcDbBlockEnd
  0
BLOCK
  5
1C
100
AcDbEntity
  8
0
100
AcDbBlockBegin
  2
*Paper_Space
 70
0
 10
0.0
 20
0.0
 30
0.0
  3
*Paper_Space
  1

  0
ENDBLK
  5
1D
100
AcDbEntity
  8
0
100
AcDbBlockEnd
  0
BLOCK
  5
21C
100
AcDbEntity
  8
0
100
AcDbBlockBegin
  2
_FILLED
 70
64
 10
0.0
 20
0.0
  3
_FILLED
  1

  0
SOLID
  5
21D
100
AcDbEntity
  8
0
  6
BYBLOCK
 62
0
100
AcDbTrace
 10
0.0
 20
0.0
 11
-1.0
 21
0.3166666667
 12
-1.0
 22
-0.3166666667
 13
-1.0
 23
-0.3166666667
  0
ENDBLK
  5
21E
100
AcDbEntity
  8
0
  6
BYBLOCK
 62
0
100
AcDbBlockEnd
  0
BLOCK
  5
21F
100
AcDbEntity
  8
0
100
AcDbBlockBegin
 62
7
  6
CONTINUOUS
  2
*D0
 70
65
 10
0.0
 20
0.0
  3
*D0
  1

  0
LINE
  5
220
100
AcDbEntity
  8
0
100
AcDbLine
 62
7
  6
CONTINUOUS
 10
-71.25
 20
37.5
 11
-71.25
 21
49.5
  0
LINE
  5
221
100
AcDbEntity
  8
0
100
AcDbLine
 62
7
  6
CONTINUOUS
 10
71.25
 20
37.5
 11
71.25
 21
49.5
  0
LINE
  5
222
100
AcDbEntity
  8
0
100
AcDbLine
 62
7
  6
CONTINUOUS
 10
-71.25
 20
48.0
 11
0.0
 21
48.0
  0
LINE
  5
223
100
AcDbEntity
  8
0
100
AcDbLine
 62
7
  6
CONTINUOUS
 10
71.25
 20
48.0
 11
0.0
 21
48.0
  0
INSERT
  5
224
100
AcDbEntity
  8
0
100
AcDbBlockReference
 62
7
  6
CONTINUOUS
  2
_FILLED
 10
-71.25
 20
48.0
 41
3.0
 42
3.0
 43
3.0
 50
180.0
  0
INSERT
  5
225
100
AcDbEntity
  8
0
100
AcDbBlockReference
 62
7
  6
CONTINUOUS
  2
_FILLED
 10
71.25
 20
48.0
 41
3.0
 42
3.0
 43
3.0
  0
ENDBLK
  5
226
100
AcDbEntity
  8
0
  6
BYBLOCK
 62
0
100
AcDbBlockEnd
  0
BLOCK
  5
227
100
AcDbEntity
  8
0
100
AcDbBlockBegin
 62
7
  6
CONTINUOUS
  2
*D1
 70
65
 10
0.0
 20
0.0
  3
*D1
  1

  0
LINE
  5
228
100
AcDbEntity
  8
0
100
AcDbLine
 62
7
  6
CONTINUOUS
 10
68.7499999999
 20
40.0
 11
80.75
 21
40.0
  0
LINE
  5
229
100
AcDbEntity
  8
0
100
AcDbLine
 62
7
  6
CONTINUOUS
 10
68.7499999999
 20
-40.0
 11
80.75
 21
-40.0
  0
LINE
  5
22A
100
AcDbEntity
  8
0
100
AcDbLine
 62
7
  6
CONTINUOUS
 10
79.25
 20
40.0
 11
79.25
 21
0.0
  0
LINE
  5
22B
100
AcDbEntity
  8
0
100
AcDbLine
 62
7
  6
CONTINUOUS
 10
79.25
 20
-40.0
 11
79.25
 21
0.0
  0
INSERT
  5
22C
100
AcDbEntity
  8
0
100
AcDbBlockReference
 62
7
  6
CONTINUOUS
  2
_FILLED
 10
79.25
 20
40.0
 41
3.0
 42
3.0
 43
3.0
 50
90.0
  0
INSERT
  5
22D
100
AcDbEntity
  8
0
100
AcDbBlockReference
 62
7
  6
CONTINUOUS
  2
_FILLED
 10
79.25
 20
-40.0
 41
3.0
 42
3.0
 43
3.0
 50
270.0
  0
ENDBLK
  5
22E
100
AcDbEntity
  8
0
  6
BYBLOCK
 62
0
100
AcDbBlockEnd
  0
BLOCK
  5
22F
100
AcDbEntity
  8
0
100
AcDbBlockBegin
 62
7
  6
CONTINUOUS
  2
*D2
 70
65
 10
0.0
 20
0.0
  3
*D2
  1

  0
LINE
  5
230
100
AcDbEntity
  8
0
100
AcDbLine
 62
7
  6
CONTINUOUS
 10
-107.603498944
 20
22.7000000003
 11
-107.6034986973
 21
49.5000000415
  0
LINE
  5
231
100
AcDbEntity
  8
0
100
AcDbLine
 62
7
  6
CONTINUOUS
 10
-98.5845815202
 20
31.8
 11
-98.5845813573
 21
49.4999999585
  0
LINE
  5
232
100
AcDbEntity
  8
0
100
AcDbLine
 62
7
  6
CONTINUOUS
 10
-107.6034987111
 20
48.0000000415
 11
-103.0940400411
 21
48.0
  0
LINE
  5
233
100
AcDbEntity
  8
0
100
AcDbLine
 62
7
  6
CONTINUOUS
 10
-98.5845813711
 20
47.9999999585
 11
-103.0940400411
 21
48.0
  0
INSERT
  5
234
100
AcDbEntity
  8
0
100
AcDbBlockReference
 62
7
  6
CONTINUOUS
  2
_FILLED
 10
-107.6034987111
 20
48.0000000415
 41
3.0
 42
3.0
 43
3.0
 50
179.9999994727
  0
INSERT
  5
235
100
AcDbEntity
  8
0
100
AcDbBlockReference
 62
7
  6
CONTINUOUS
  2
_FILLED
 10
-98.5845813711
 20
47.9999999585
 41
3.0
 42
3.0
 43
3.0
 50
359.9999994727
  0
ENDBLK
  5
236
100
AcDbEntity
  8
0
  6
BYBLOCK
 62
0
100
AcDbBlockEnd
  0
ENDSEC
  0
SECTION
  2
ENTITIES
  0
DIMENSION
  5
237
100
AcDbEntity
  8
0
100
AcDbDimension
 62
7
  6
CONTINUOUS
  2
*D0
 10
71.25
 20
48.0
 11
-5.1428571429
 21
48.0
 70
160
 71
2
 72
2
 41
0.9
 42
142.5
  3
DIMSTYLE_1
100
AcDbAlignedDimension
 13
-71.25
 23
37.0
 14
71.25
 24
37.0
100
AcDbRotatedDimension
  0
DIMENSION
  5
238
100
AcDbEntity
  8
0
100
AcDbDimension
 62
7
  6
CONTINUOUS
  2
*D1
 10
79.25
 20
-40.0
 11
79.25
 21
-2.3571428571
 70
160
 71
2
 72
2
 41
0.9
 42
80.0
  3
DIMSTYLE_1
100
AcDbAlignedDimension
 13
68.2499999999
 23
40.0
 14
68.2499999999
 24
-40.0
 50
270.0
100
AcDbRotatedDimension
  0
DIMENSION
  5
239
100
AcDbEntity
  8
0
100
AcDbDimension
 62
7
  6
CONTINUOUS
  2
*D2
 10
-98.5845813711
 20
47.9999999585
 11
-104.2726114729
 21
48.0000000108
 70
160
 71
2
 72
2
 41
0.9
 42
9.01891734
  3
DIMSTYLE_2
100
AcDbAlignedDimension
 13
-107.6034989486
 23
22.2000000003
 14
-98.5845815248
 24
31.3
 50
359.9999994727
100
AcDbRotatedDimension
  0
LINE
  5
23A
100
AcDbEntity
  8
0
100
AcDbLine
 62
7
  6
CONTINUOUS
 10
-71.25
 20
-37.0
 11
-71.25
 21
-4.1331429141
  0
LINE
  5
23B
100
AcDbEntity
  8
0
100
AcDbLine
 62
7
  6
CONTINUOUS
 10
-71.25
 20
4.1331429141
 11
-71.25
 21
37.0
  0
LINE
  5
23C
100
AcDbEntity
  8
0
100
AcDbLine
 62
7
  6
CONTINUOUS
 10
-71.1451844414
 20
3.041834413
 11
-71.1451844414
 21
-3.041834413
  0
LINE
  5
23D
100
AcDbEntity
  8
0
100
AcDbLine
 62
250
  6
CONTINUOUS
 10
-68.25
 20
40.0
 11
-68.25
 21
39.7696626545
  0
LINE
  5
23E
100
AcDbEntity
  8
0
100
AcDbLine
 62
250
  6
CONTINUOUS
 10
-68.25
 20
-39.7696626545
 11
-68.25
 21
-40.0
  0
LINE
  5
23F
100
AcDbEntity
  8
0
100
AcDbLine
 62
7
  6
CONTINUOUS
 10
-71.1691045116
 20
-3.539931762
 11
-71.2260799298
 21
-3.635045565
  0
LINE
  5
240
100
AcDbEntity
  8
0
100
AcDbLine
 62
7
  6
CONTINUOUS
 10
-71.2260799298
 20
3.635045565
 11
-71.1691045116
 21
3.539931762
  0
LINE
  5
241
100
AcDbEntity
  8
RACCORDO
100
AcDbLine
 62
250
  6
CONTINUOUS
 10
-44.7000538508
 20
-22.4999999952
 11
-44.7000304496
 21
-22.5022653002
  0
LINE
  5
242
100
AcDbEntity
  8
0
100
AcDbLine
 62
7
  6
CONTINUOUS
 10
-45.0
 20
22.2
 11
-45.0
 21
-22.2
  0
LINE
  5
243
100
AcDbEntity
  8
RACCORDO
100
AcDbLine
 62
250
  6
CONTINUOUS
 10
-44.7000538508
 20
-22.4999999952
 11
-44.6999999791
 21
-24.105868968
  0
LINE
  5
244
100
AcDbEntity
  8
RACCORDO
100
AcDbLine
 62
250
  6
CONTINUOUS
 10
-44.7000000003
 20
22.5
 11
-44.7000000004
 21
24.1058687787
  0
LWPOLYLINE
  5
245
100
AcDbEntity
  8
0
100
AcDbPolyline
 62
7
  6
CONTINUOUS
 90
3
 70
0
 43
0.3500000087
 10
-5.1428570644
 20
50.8928555725
 10
-4.285714398
 20
51.7500017029
 10
-4.285714398
 20
48.7499987732
  0
LINE
  5
246
100
AcDbEntity
  8
0
100
AcDbLine
 62
7
  6
CONTINUOUS
 10
68.2499999999
 20
-40.0
 11
-68.2499999999
 21
-40.0
  0
LINE
  5
247
100
AcDbEntity
  8
0
100
AcDbLine
 62
250
  6
CONTINUOUS
 10
-34.2502775393
 20
-39.7614221211
 11
34.2502774301
 21
-39.7614221211
  0
LINE
  5
248
100
AcDbEntity
  8
0
100
AcDbLine
 62
250
  6
CONTINUOUS
 10
-34.25
 20
-39.096939302
 11
34.25
 21
-39.096939302
  0
LINE
  5
249
100
AcDbEntity
  8
0
100
AcDbLine
 62
250
  6
CONTINUOUS
 10
-34.25
 20
39.096939302
 11
-34.2504809436
 21
39.7614221146
  0
LINE
  5
24A
100
AcDbEntity
  8
RACCORDO
100
AcDbLine
 62
250
  6
CONTINUOUS
 10
-34.2500538504
 20
-22.5
 11
-34.25
 21
-39.0969392559
  0
LINE
  5
24B
100
AcDbEntity
  8
0
100
AcDbLine
 62
250
  6
CONTINUOUS
 10
-34.25
 20
-39.096939302
 11
-34.25
 21
-39.7614221211
  0
LINE
  5
24C
100
AcDbEntity
  8
RACCORDO
100
AcDbLine
 62
250
  6
CONTINUOUS
 10
-34.25
 20
22.5
 11
-34.25
 21
39.096939302
  0
LINE
  5
24D
100
AcDbEntity
  8
0
100
AcDbLine
 62
250
  6
CONTINUOUS
 10
-71.25
 20
-37.0
 11
-71.0201889283
 21
-37.0
  0
LINE
  5
24E
100
AcDbEntity
  8
0
100
AcDbLine
 62
250
  6
CONTINUOUS
 10
71.0201889283
 20
-37.0
 11
71.25
 21
-37.0
  0
LINE
  5
24F
100
AcDbEntity
  8
0
100
AcDbLine
 62
7
  6
CONTINUOUS
 10
42.242525
 20
-28.799985
 11
41.662503
 21
-28.799993
  0
LINE
  5
250
100
AcDbEntity
  8
0
100
AcDbLine
 62
7
  6
CONTINUOUS
 10
40.14742
 20
-28.799985
 11
39.567413
 21
-28.799993
  0
LINE
  5
251
100
AcDbEntity
  8
0
100
AcDbLine
 62
7
  6
CONTINUOUS
 10
46.812381
 20
-28.799978
 11
46.159076
 21
-28.799985
  0
LINE
  5
252
100
AcDbEntity
  8
0
100
AcDbLine
 62
7
  6
CONTINUOUS
 10
37.859008
 20
-28.799993
 11
37.278986
 21
-28.8
  0
LINE
  5
253
100
AcDbEntity
  8
0
100
AcDbLine
 62
7
  6
CONTINUOUS
 10
35.961176
 20
-28.799993
 11
35.381132
 21
-28.8
  0
LINE
  5
254
100
AcDbEntity
  8
0
100
AcDbLine
 62
7
  6
CONTINUOUS
 10
41.275824
 20
-28.799993
 11
40.695803
 21
-28.799993
  0
LINE
  5
255
100
AcDbEntity
  8
0
100
AcDbLine
 62
7
  6
CONTINUOUS
 10
39.019037
 20
-28.799993
 11
38.439015
 21
-28.799993
  0
LINE
  5
256
100
AcDbEntity
  8
0
100
AcDbLine
 62
7
  6
CONTINUOUS
 10
45.071526
 20
-28.799985
 11
44.491497
 21
-28.799985
  0
LINE
  5
257
100
AcDbEntity
  8
0
100
AcDbLine
 62
7
  6
CONTINUOUS
 10
44.104818
 20
-28.799993
 11
43.524789
 21
-28.799985
  0
LINE
  5
258
100
AcDbEntity
  8
0
100
AcDbLine
 62
7
  6
CONTINUOUS
 10
43.341683
 20
-28.229657
 11
42.425638
 21
-28.229657
  0
LINE
  5
259
100
AcDbEntity
  8
0
100
AcDbLine
 62
7
  6
CONTINUOUS
 10
42.60256
 20
-27.678635
 11
43.164754
 21
-27.678635
  0
LINE
  5
25A
100
AcDbEntity
  8
0
100
AcDbLine
 62
7
  6
CONTINUOUS
 10
45.577822
 20
-27.678635
 11
45.071591
 21
-27.678628
  0
LINE
  5
25B
100
AcDbEntity
  8
0
100
AcDbLine
 62
7
  6
CONTINUOUS
 10
45.063529
 20
-27.142106
 11
45.769205
 21
-27.142106
  0
LINE
  5
25C
100
AcDbEntity
  8
0
100
AcDbLine
 62
7
  6
CONTINUOUS
 10
45.769205
 20
-26.436377
 11
45.063522
 21
-26.436377
  0
LINE
  5
25D
100
AcDbEntity
  8
0
100
AcDbLine
 62
7
  6
CONTINUOUS
 10
34.45
 20
-25.899862
 11
35.030029
 21
-25.899862
  0
LINE
  5
25E
100
AcDbEntity
  8
0
100
AcDbLine
 62
7
  6
CONTINUOUS
 10
36.312286
 20
-25.899862
 11
36.892315
 21
-25.899862
  0
LINE
  5
25F
100
AcDbEntity
  8
0
100
AcDbLine
 62
7
  6
CONTINUOUS
 10
37.278994
 20
-25.899862
 11
37.859015
 21
-25.899862
  0
LINE
  5
260
100
AcDbEntity
  8
0
100
AcDbLine
 62
7
  6
CONTINUOUS
 10
38.439015
 20
-25.899862
 11
39.315852
 21
-25.899862
  0
LINE
  5
261
100
AcDbEntity
  8
0
100
AcDbLine
 62
7
  6
CONTINUOUS
 10
40.398988
 20
-25.899862
 11
41.275824
 21
-25.899862
  0
LINE
  5
262
100
AcDbEntity
  8
0
100
AcDbLine
 62
7
  6
CONTINUOUS
 10
42.593628
 20
-25.899855
 11
43.173679
 21
-25.899855
  0
LINE
  5
263
100
AcDbEntity
  8
0
100
AcDbLine
 62
7
  6
CONTINUOUS
 10
44.491497
 20
-25.899855
 11
45.849711
 21
-25.899855
  0
LINE
  5
264
100
AcDbEntity
  8
RACCORDO
100
AcDbLine
 62
250
  6
CONTINUOUS
 10
-34.25
 20
-25.7186611821
 11
34.25
 21
-25.7186611821
  0
LINE
  5
265
100
AcDbEntity
  8
RACCORDO
100
AcDbLine
 62
250
  6
CONTINUOUS
 10
-34.25
 20
-24.1086438406
 11
34.25
 21
-24.1086438451
  0
LINE
  5
266
100
AcDbEntity
  8
0
100
AcDbLine
 62
7
  6
CONTINUOUS
 10
-44.7
 20
-22.5
 11
44.7
 21
-22.5
  0
LINE
  5
267
100
AcDbEntity
  8
RACCORDO
100
AcDbLine
 62
250
  6
CONTINUOUS
 10
44.9999999956
 20
-22.2000511342
 11
46.5949704305
 21
-22.1999999802
  0
LINE
  5
268
100
AcDbEntity
  8
RACCORDO
100
AcDbLine
 62
250
  6
CONTINUOUS
 10
-45.0
 20
-22.2
 11
-46.5949704096
 21
-22.2000000001
  0
LWPOLYLINE
  5
269
100
AcDbEntity
  8
0
100
AcDbPolyline
 62
7
  6
CONTINUOUS
 90
3
 70
0
 43
0.3500000087
 10
1.9999999547
 20
49.0357127289
 10
1.9285714658
 20
48.8214304596
 10
1.7857142215
 20
48.5357122406
  0
LWPOLYLINE
  5
26A
100
AcDbEntity
  8
0
100
AcDbPolyline
 62
7
  6
CONTINUOUS
 90
2
 70
0
 43
0.3500000087
 10
-2.4285715544
 20
48.7499987732
 10
-2.4285715544
 20
50.250000238
  0
LWPOLYLINE
  5
26B
100
AcDbEntity
  8
0
100
AcDbPolyline
 62
7
  6
CONTINUOUS
 90
4
 70
0
 43
0.3500000087
 10
78.0714268555
 20
-2.3571431381
 10
77.2142892517
 20
-2.3571431381
 10
76.7857161865
 20
-1.9285722046
 10
76.7857161865
 20
-1.2857147385
  0
LINE
  5
26C
100
AcDbEntity
  8
RACCORDO
100
AcDbLine
 62
250
  6
CONTINUOUS
 10
45.0
 20
-0.0000511341
 11
70.2670229694
 21
0.0
  0
LWPOLYLINE
  5
26D
100
AcDbEntity
  8
0
100
AcDbPolyline
 62
7
  6
CONTINUOUS
 90
13
 70
0
 43
0.3500000087
 10
77.6428537903
 20
0.0000001938
 10
76.3571431213
 20
0.0000001938
 10
75.9285700562
 20
0.2142867264
 10
75.499996991
 20
0.6428576599
 10
75.499996991
 20
0.8571420609
 10
75.9285700562
 20
1.285715126
 10
76.3571431213
 20
1.499999527
 10
77.6428537903
 20
1.499999527
 10
78.0714268555
 20
1.285715126
 10
78.4999999207
 20
0.8571420609
 10
78.4999999207
 20
0.6428576599
 10
78.0714268555
 20
0.2142867264
 10
77.6428537903
 20
0.0000001938
  0
LINE
  5
26E
100
AcDbEntity
  8
RACCORDO
100
AcDbLine
 62
250
  6
CONTINUOUS
 10
-45.0
 20
0.0000511341
 11
-70.2670229694
 21
0.0
  0
LINE
  5
26F
100
AcDbEntity
  8
0
100
AcDbLine
 62
250
  6
CONTINUOUS
 10
-70.2670229699
 20
-0.0
 11
-71.0149154403
 21
0.0003969818
  0
LINE
  5
270
100
AcDbEntity
  8
0
100
AcDbLine
 62
250
  6
CONTINUOUS
 10
70.2670229699
 20
0.0
 11
71.0149154403
 21
-0.0003969818
  0
LINE
  5
271
100
AcDbEntity
  8
RACCORDO
100
AcDbLine
 62
250
  6
CONTINUOUS
 10
45.0
 20
22.2
 11
46.59497041
 21
22.2000000001
  0
LINE
  5
272
100
AcDbEntity
  8
RACCORDO
100
AcDbLine
 62
250
  6
CONTINUOUS
 10
-44.9999999956
 20
22.2000511342
 11
-46.59497043
 21
22.1999999802
  0
LINE
  5
273
100
AcDbEntity
  8
0
100
AcDbLine
 62
7
  6
CONTINUOUS
 10
44.7
 20
22.5
 11
-44.7
 21
22.5
  0
LINE
  5
274
100
AcDbEntity
  8
RACCORDO
100
AcDbLine
 62
250
  6
CONTINUOUS
 10
34.25
 20
24.1086438406
 11
-34.25
 21
24.1086438451
  0
LINE
  5
275
100
AcDbEntity
  8
RACCORDO
100
AcDbLine
 62
250
  6
CONTINUOUS
 10
34.25
 20
25.7186611821
 11
-34.25
 21
25.7186611821
  0
LINE
  5
276
100
AcDbEntity
  8
0
100
AcDbLine
 62
7
  6
CONTINUOUS
 10
46.159076
 20
-28.799985
 11
45.577822
 21
-27.678635
  0
LWPOLYLINE
  5
277
100
AcDbEntity
  8
0
100
AcDbPolyline
 62
7
  6
CONTINUOUS
 90
10
 70
0
 43
0.3500000087
 10
1.9285714658
 20
49.2499992615
 10
1.9999999547
 20
49.1071444153
 10
1.9999999547
 20
49.0357127289
 10
1.8571428436
 20
48.8928578827
 10
1.7857142215
 20
48.8928578827
 10
1.7142857326
 20
48.9642853058
 10
1.7142857326
 20
49.0357127289
 10
1.7857142215
 20
49.1785718384
 10
1.8571428436
 20
49.2499992615
 10
1.9285714658
 20
49.2499992615
  0
LINE
  5
278
100
AcDbEntity
  8
0
100
AcDbLine
 62
7
  6
CONTINUOUS
 10
35.381132
 20
-28.8
 11
34.45
 21
-25.899862
  0
LINE
  5
279
100
AcDbEntity
  8
0
100
AcDbLine
 62
7
  6
CONTINUOUS
 10
35.030029
 20
-25.899862
 11
35.671161
 21
-27.896759
  0
LINE
  5
27A
100
AcDbEntity
  8
0
100
AcDbLine
 62
7
  6
CONTINUOUS
 10
46.1949767907
 20
-27.6088806669
 11
46.812381
 21
-28.799978
  0
LINE
  5
27B
100
AcDbEntity
  8
0
100
AcDbLine
 62
7
  6
CONTINUOUS
 10
43.164754
 20
-27.678635
 11
42.88365
 21
-26.803096
  0
LINE
  5
27C
100
AcDbEntity
  8
0
100
AcDbLine
 62
7
  6
CONTINUOUS
 10
43.524789
 20
-28.799985
 11
43.341683
 21
-28.229657
  0
LINE
  5
27D
100
AcDbEntity
  8
0
100
AcDbLine
 62
7
  6
CONTINUOUS
 10
43.173679
 20
-25.899855
 11
44.104818
 21
-28.799993
  0
LINE
  5
27E
100
AcDbEntity
  8
0
100
AcDbLine
 62
7
  6
CONTINUOUS
 10
39.567413
 20
-28.799993
 11
39.019037
 21
-26.887551
  0
LINE
  5
27F
100
AcDbEntity
  8
0
100
AcDbLine
 62
7
  6
CONTINUOUS
 10
39.315852
 20
-25.899862
 11
39.85742
 21
-27.788531
  0
LINE
  5
280
100
AcDbEntity
  8
0
100
AcDbLine
 62
250
  6
CONTINUOUS
 10
34.25
 20
-39.096939302
 11
34.2504809436
 21
-39.7614221146
  0
LINE
  5
281
100
AcDbEntity
  8
RACCORDO
100
AcDbLine
 62
250
  6
CONTINUOUS
 10
34.25
 20
-22.5
 11
34.25
 21
-39.0969392559
  0
LINE
  5
282
100
AcDbEntity
  8
0
100
AcDbLine
 62
250
  6
CONTINUOUS
 10
34.25
 20
39.096939302
 11
34.25
 21
39.7614221211
  0
LINE
  5
283
100
AcDbEntity
  8
RACCORDO
100
AcDbLine
 62
250
  6
CONTINUOUS
 10
34.2500538504
 20
22.5
 11
34.25
 21
39.0969392559
  0
LINE
  5
284
100
AcDbEntity
  8
0
100
AcDbLine
 62
7
  6
CONTINUOUS
 10
37.278986
 20
-28.8
 11
37.278994
 21
-25.899862
  0
LINE
  5
285
100
AcDbEntity
  8
0
100
AcDbLine
 62
7
  6
CONTINUOUS
 10
37.859015
 20
-25.899862
 11
37.859008
 21
-28.799993
  0
LINE
  5
286
100
AcDbEntity
  8
0
100
AcDbLine
 62
7
  6
CONTINUOUS
 10
38.439015
 20
-28.799993
 11
38.439015
 21
-25.899862
  0
LINE
  5
287
100
AcDbEntity
  8
0
100
AcDbLine
 62
250
  6
CONTINUOUS
 10
71.25
 20
37.0
 11
71.0201889283
 21
37.0
  0
LINE
  5
288
100
AcDbEntity
  8
0
100
AcDbLine
 62
250
  6
CONTINUOUS
 10
-71.0201889283
 20
37.0
 11
-71.25
 21
37.0
  0
LINE
  5
289
100
AcDbEntity
  8
0
100
AcDbLine
 62
7
  6
CONTINUOUS
 10
39.019037
 20
-26.887551
 11
39.019037
 21
-28.799993
  0
LINE
  5
28A
100
AcDbEntity
  8
0
100
AcDbLine
 62
7
  6
CONTINUOUS
 10
40.695803
 20
-28.799993
 11
40.695795
 21
-26.887551
  0
LINE
  5
28B
100
AcDbEntity
  8
0
100
AcDbLine
 62
7
  6
CONTINUOUS
 10
41.275824
 20
-25.899862
 11
41.275824
 21
-28.799993
  0
LINE
  5
28C
100
AcDbEntity
  8
0
100
AcDbLine
 62
7
  6
CONTINUOUS
 10
35.671161
 20
-27.896759
 11
36.312286
 21
-25.899862
  0
LINE
  5
28D
100
AcDbEntity
  8
0
100
AcDbLine
 62
7
  6
CONTINUOUS
 10
36.892315
 20
-25.899862
 11
35.961176
 21
-28.799993
  0
LINE
  5
28E
100
AcDbEntity
  8
0
100
AcDbLine
 62
250
  6
CONTINUOUS
 10
34.25
 20
39.096939302
 11
-34.25
 21
39.096939302
  0
LINE
  5
28F
100
AcDbEntity
  8
0
100
AcDbLine
 62
250
  6
CONTINUOUS
 10
34.2502774524
 20
39.7614221211
 11
-34.2502775177
 21
39.7614221211
  0
LINE
  5
290
100
AcDbEntity
  8
0
100
AcDbLine
 62
7
  6
CONTINUOUS
 10
68.2499999999
 20
40.0
 11
-68.2499999999
 21
40.0
  0
LINE
  5
291
100
AcDbEntity
  8
RACCORDO
100
AcDbLine
 62
250
  6
CONTINUOUS
 10
44.7000538508
 20
22.4999999952
 11
44.7000304496
 21
22.5022653002
  0
LINE
  5
292
100
AcDbEntity
  8
0
100
AcDbLine
 62
7
  6
CONTINUOUS
 10
44.491497
 20
-28.799985
 11
44.491497
 21
-25.899855
  0
LINE
  5
293
100
AcDbEntity
  8
RACCORDO
100
AcDbLine
 62
250
  6
CONTINUOUS
 10
44.7000000003
 20
-22.5
 11
44.7000000004
 21
-24.1058687792
  0
LINE
  5
294
100
AcDbEntity
  8
RACCORDO
100
AcDbLine
 62
250
  6
CONTINUOUS
 10
44.7000538508
 20
22.4999999952
 11
44.6999999791
 21
24.1058689684
  0
LINE
  5
295
100
AcDbEntity
  8
0
100
AcDbLine
 62
7
  6
CONTINUOUS
 10
45.0
 20
-22.2
 11
45.0
 21
22.2
  0
LINE
  5
296
100
AcDbEntity
  8
0
100
AcDbLine
 62
7
  6
CONTINUOUS
 10
45.063522
 20
-26.436377
 11
45.063529
 21
-27.142106
  0
LINE
  5
297
100
AcDbEntity
  8
0
100
AcDbLine
 62
7
  6
CONTINUOUS
 10
45.071591
 20
-27.678628
 11
45.071526
 21
-28.799985
  0
LINE
  5
298
100
AcDbEntity
  8
0
100
AcDbLine
 62
7
  6
CONTINUOUS
 10
39.85742
 20
-27.788531
 11
40.398988
 21
-25.899862
  0
LINE
  5
299
100
AcDbEntity
  8
0
100
AcDbLine
 62
7
  6
CONTINUOUS
 10
40.695795
 20
-26.887551
 11
40.14742
 21
-28.799985
  0
LINE
  5
29A
100
AcDbEntity
  8
0
100
AcDbLine
 62
7
  6
CONTINUOUS
 10
41.662503
 20
-28.799993
 11
42.593628
 21
-25.899855
  0
LINE
  5
29B
100
AcDbEntity
  8
0
100
AcDbLine
 62
7
  6
CONTINUOUS
 10
42.88365
 20
-26.803096
 11
42.60256
 21
-27.678635
  0
LINE
  5
29C
100
AcDbEntity
  8
0
100
AcDbLine
 62
7
  6
CONTINUOUS
 10
42.425638
 20
-28.229657
 11
42.242525
 21
-28.799985
  0
LWPOLYLINE
  5
29D
100
AcDbEntity
  8
0
100
AcDbPolyline
 62
7
  6
CONTINUOUS
 90
7
 70
0
 43
0.3500000087
 10
0.4285714331
 20
48.7499987732
 10
-1.0714285995
 20
48.7499987732
 10
0.4285714331
 20
50.8928555725
 10
0.4285714331
 20
51.3214286377
 10
0.0
 20
51.7500017029
 10
-0.6428571331
 20
51.7500017029
 10
-1.0714285995
 20
51.1071421051
  0
LWPOLYLINE
  5
29E
100
AcDbEntity
  8
0
100
AcDbPolyline
 62
7
  6
CONTINUOUS
 90
8
 70
0
 43
0.3500000087
 10
2.9999999987
 20
48.7499987732
 10
3.8571429316
 20
48.7499987732
 10
4.285714398
 20
49.1785718384
 10
4.285714398
 20
50.0357137054
 10
3.8571429316
 20
50.4642867706
 10
2.9999999987
 20
50.4642867706
 10
2.9999999987
 20
51.7500017029
 10
4.285714398
 20
51.7500017029
  0
LWPOLYLINE
  5
29F
100
AcDbEntity
  8
0
100
AcDbPolyline
 62
7
  6
CONTINUOUS
 90
3
 70
0
 43
0.3500000087
 10
-1.9285714658
 20
49.392858371
 10
-3.4285714651
 20
49.392858371
 10
-2.7857142654
 20
51.7500017029
  0
LINE
  5
2A0
100
AcDbEntity
  8
0
100
AcDbLine
 62
7
  6
CONTINUOUS
 10
71.2260799298
 20
3.635045565
 11
71.1691045116
 21
3.539931762
  0
LINE
  5
2A1
100
AcDbEntity
  8
0
100
AcDbLine
 62
7
  6
CONTINUOUS
 10
71.1691045116
 20
-3.539931762
 11
71.2260799298
 21
-3.635045565
  0
LWPOLYLINE
  5
2A2
100
AcDbEntity
  8
0
100
AcDbPolyline
 62
7
  6
CONTINUOUS
 90
13
 70
0
 43
0.3500000087
 10
76.7857161865
 20
-1.9285722046
 10
76.5714253906
 20
-2.2142861603
 10
75.9285700562
 20
-2.2142861603
 10
75.499996991
 20
-1.9285722046
 10
75.499996991
 20
-1.2857147385
 10
75.9285700562
 20
-1.0000007828
 10
76.5714253906
 20
-1.0000007828
 10
76.7857161865
 20
-1.2857147385
 10
77.2142892517
 20
-0.8571438049
 10
78.0714268555
 20
-0.8571438049
 10
78.4999999207
 20
-1.2857147385
 10
78.4999999207
 20
-1.9285722046
 10
78.0714268555
 20
-2.3571431381
  0
LINE
  5
2A3
100
AcDbEntity
  8
0
100
AcDbLine
 62
250
  6
CONTINUOUS
 10
68.25
 20
-39.7696626545
 11
68.25
 21
-40.0
  0
LINE
  5
2A4
100
AcDbEntity
  8
0
100
AcDbLine
 62
250
  6
CONTINUOUS
 10
68.25
 20
39.7696626545
 11
68.25
 21
40.0
  0
LINE
  5
2A5
100
AcDbEntity
  8
0
100
AcDbLine
 62
7
  6
CONTINUOUS
 10
71.1451844414
 20
3.041834413
 11
71.1451844414
 21
-3.041834413
  0
LINE
  5
2A6
100
AcDbEntity
  8
0
100
AcDbLine
 62
7
  6
CONTINUOUS
 10
71.25
 20
-37.0
 11
71.25
 21
-4.1331429141
  0
LINE
  5
2A7
100
AcDbEntity
  8
0
100
AcDbLine
 62
7
  6
CONTINUOUS
 10
71.25
 20
4.1331429141
 11
71.25
 21
37.0
  0
LINE
  5
2A8
100
AcDbEntity
  8
0
100
AcDbLine
 62
7
  6
CONTINUOUS
 10
-103.1542864409
 20
-39.760511914
 11
-98.5845815368
 21
-40.0
  0
LWPOLYLINE
  5
2A9
100
AcDbEntity
  8
0
100
AcDbPolyline
 62
7
  6
CONTINUOUS
 90
10
 70
0
 43
0.3500000087
 10
-103.8440389954
 20
48.7499987732
 10
-102.9869013916
 20
49.6071449036
 10
-102.7726105957
 20
50.4642867706
 10
-102.7726105957
 20
51.3214286377
 10
-103.2011836609
 20
51.7500017029
 10
-103.8440389954
 20
51.7500017029
 10
-104.2726120605
 20
51.3214286377
 10
-104.2726120605
 20
50.4642867706
 10
-103.8440389954
 20
50.0357137054
 10
-102.9154654419
 20
50.0357137054
  0
LWPOLYLINE
  5
2AA
100
AcDbEntity
  8
0
100
AcDbPolyline
 62
7
  6
CONTINUOUS
 90
7
 70
0
 10
-103.5121545109
 20
39.6738764543
 10
-103.5673921089
 20
39.6469613108
 10
-103.6208723948
 20
39.616704439
 10
-103.6723934713
 20
39.5832200573
 10
-103.7217608165
 20
39.5466345769
 10
-103.7687880244
 20
39.5070861288
 10
-103.8132975342
 20
39.4647240243
  0
LINE
  5
2AB
100
AcDbEntity
  8
0
100
AcDbLine
 62
250
  6
CONTINUOUS
 10
-102.9696380089
 20
-37.0
 11
-98.5845815368
 21
-37.0
  0
LWPOLYLINE
  5
2AC
100
AcDbEntity
  8
0
100
AcDbPolyline
 62
7
  6
CONTINUOUS
 90
3
 70
0
 10
-103.8133327072
 20
39.4646875579
 10
-103.8551511845
 20
39.4196729825
 10
-103.8941263136
 20
39.3721751084
  0
LINE
  5
2AD
100
AcDbEntity
  8
0
100
AcDbLine
 62
7
  6
CONTINUOUS
 10
-106.6549513926
 20
-28.799985
 11
-106.6707837129
 21
-28.799993
  0
LINE
  5
2AE
100
AcDbEntity
  8
0
100
AcDbLine
 62
7
  6
CONTINUOUS
 10
-106.4032999045
 20
-28.799978
 11
-106.6522037061
 21
-28.799985
  0
LINE
  5
2AF
100
AcDbEntity
  8
0
100
AcDbLine
 62
7
  6
CONTINUOUS
 10
-106.7535972327
 20
-28.229657
 11
-106.7628592924
 21
-28.229657
  0
LINE
  5
2B0
100
AcDbEntity
  8
0
100
AcDbLine
 62
7
  6
CONTINUOUS
 10
-106.82528112
 20
-27.678635
 11
-106.8202372162
 21
-27.678635
  0
LINE
  5
2B1
100
AcDbEntity
  8
0
100
AcDbLine
 62
7
  6
CONTINUOUS
 10
-106.5707540084
 20
-27.6088806669
 11
-106.7722740566
 21
-27.6088806669
  0
LINE
  5
2B2
100
AcDbEntity
  8
0
100
AcDbLine
 62
7
  6
CONTINUOUS
 10
-106.8542479583
 20
-27.142106
 11
-106.8392144158
 21
-27.142106
  0
LINE
  5
2B3
100
AcDbEntity
  8
0
100
AcDbLine
 62
7
  6
CONTINUOUS
 10
-106.7801035488
 20
-27.678635
 11
-106.7914205672
 21
-27.678628
  0
LINE
  5
2B4
100
AcDbEntity
  8
0
100
AcDbLine
 62
7
  6
CONTINUOUS
 10
-106.6748589255
 20
-28.7999894803
 11
-106.6934374408
 21
-28.799985
  0
LINE
  5
2B5
100
AcDbEntity
  8
0
100
AcDbLine
 62
7
  6
CONTINUOUS
 10
-106.7731897008
 20
-25.899855
 11
-106.9853897098
 21
-25.899855
  0
LWPOLYLINE
  5
2B6
100
AcDbEntity
  8
0
100
AcDbPolyline
 62
7
  6
CONTINUOUS
 90
4
 70
0
 10
-103.8941013671
 20
39.3722086128
 10
-103.930090586
 20
39.3224046024
 10
-103.9629530544
 20
39.2704842066
 10
-103.9925646871
 20
39.2166434543
  0
LINE
  5
2B7
100
AcDbEntity
  8
RACCORDO
100
AcDbLine
 62
250
  6
CONTINUOUS
 10
-107.603498544
 20
-22.1999999999
 11
-107.4072470658
 21
-22.1999999802
  0
LINE
  5
2B8
100
AcDbEntity
  8
0
100
AcDbLine
 62
7
  6
CONTINUOUS
 10
-103.9925646871
 20
39.2166434543
 11
-104.0188136722
 21
39.1610856261
  0
LINE
  5
2B9
100
AcDbEntity
  8
RACCORDO
100
AcDbLine
 62
7
  6
CONTINUOUS
 10
-107.2052036876
 20
24.3960128602
 11
-107.2359524073
 21
24.3447590018
  0
LINE
  5
2BA
100
AcDbEntity
  8
RACCORDO
100
AcDbLine
 62
7
  6
CONTINUOUS
 10
-107.2329090095
 20
24.3497405116
 11
-107.260140153
 21
24.3060392955
  0
LINE
  5
2BB
100
AcDbEntity
  8
RACCORDO
100
AcDbLine
 62
7
  6
CONTINUOUS
 10
-107.2609616486
 20
24.304733611
 11
-107.2868058903
 21
24.2648177005
  0
LINE
  5
2BC
100
AcDbEntity
  8
RACCORDO
100
AcDbLine
 62
7
  6
CONTINUOUS
 10
-107.2853057797
 20
24.2670836956
 11
-107.3127745225
 21
24.2260586362
  0
LINE
  5
2BD
100
AcDbEntity
  8
RACCORDO
100
AcDbLine
 62
7
  6
CONTINUOUS
 10
-107.3088823485
 20
24.2317702524
 11
-107.3373742378
 21
24.1905180732
  0
LINE
  5
2BE
100
AcDbEntity
  8
RACCORDO
100
AcDbLine
 62
7
  6
CONTINUOUS
 10
-107.3316095671
 20
24.1987329271
 11
-107.3602224146
 21
24.1584699254
  0
LINE
  5
2BF
100
AcDbEntity
  8
RACCORDO
100
AcDbLine
 62
7
  6
CONTINUOUS
 10
-107.3530187439
 20
24.1684617441
 11
-107.372816413
 21
24.1411653884
  0
LINE
  5
2C0
100
AcDbEntity
  8
RACCORDO
100
AcDbLine
 62
7
  6
CONTINUOUS
 10
-107.3602224146
 20
24.1584699254
 11
-107.3814491971
 21
24.1294809597
  0
LINE
  5
2C1
100
AcDbEntity
  8
RACCORDO
100
AcDbLine
 62
7
  6
CONTINUOUS
 10
-107.372816413
 20
24.1411653884
 11
-107.3911086636
 21
24.1165119642
  0
LINE
  5
2C2
100
AcDbEntity
  8
RACCORDO
100
AcDbLine
 62
7
  6
CONTINUOUS
 10
-107.3814491971
 20
24.1294809597
 11
-107.3972046051
 21
24.1084697453
  0
LWPOLYLINE
  5
2C3
100
AcDbEntity
  8
RACCORDO
100
AcDbPolyline
 62
7
  6
CONTINUOUS
 90
4
 70
0
 10
-107.3962391695
 20
-24.1097572381
 10
-107.381449197
 20
-24.1294809598
 10
-107.3602224145
 20
-24.1584699255
 10
-107.3373742377
 20
-24.1905180733
  0
LWPOLYLINE
  5
2C4
100
AcDbEntity
  8
RACCORDO
100
AcDbPolyline
 62
7
  6
CONTINUOUS
 90
4
 70
0
 10
-107.3373742377
 20
-24.1905180733
 10
-107.3127745224
 20
-24.2260586364
 10
-107.2868058902
 20
-24.2648177007
 10
-107.2601401529
 20
-24.3060392957
  0
LINE
  5
2C5
100
AcDbEntity
  8
RACCORDO
100
AcDbLine
 62
7
  6
CONTINUOUS
 10
-107.2601401529
 20
-24.3060392957
 11
-107.2329090093
 21
-24.3497405118
  0
LWPOLYLINE
  5
2C6
100
AcDbEntity
  8
RACCORDO
100
AcDbPolyline
 62
7
  6
CONTINUOUS
 90
23
 70
0
 10
-107.2329090093
 20
-24.3497405118
 10
-107.2052036874
 20
-24.3960128605
 10
-107.1775673742
 20
-24.4441613785
 10
-107.1501596185
 20
-24.49407761
 10
-107.1229921234
 20
-24.5459204553
 10
-107.0963310896
 20
-24.5993581365
 10
-107.0702786534
 20
-24.654342177
 10
-107.0448821836
 20
-24.7109387102
 10
-107.0202968681
 20
-24.7689684463
 10
-106.9966072493
 20
-24.8283897398
 10
-106.9738664938
 20
-24.8892381501
 10
-106.9521689921
 20
-24.9514398266
 10
-106.9315905728
 20
-25.0149603549
 10
-106.9121920304
 20
-25.0798103194
 10
-106.8940425721
 20
-25.1459779381
 10
-106.8772135822
 20
-25.2134445962
 10
-106.8617770839
 20
-25.2821892026
 10
-106.8478049534
 20
-25.3521920559
 10
-106.8353706855
 20
-25.4234266087
 10
-106.8245485308
 20
-25.495861467
 10
-106.8154126579
 20
-25.5694649126
 10
-106.8080377931
 20
-25.6442003475
 10
-106.8027206873
 20
-25.7163789426
  0
LWPOLYLINE
  5
2C7
100
AcDbEntity
  8
0
100
AcDbPolyline
 62
7
  6
CONTINUOUS
 90
19
 70
0
 10
-104.01882034
 20
-39.1610689982
 10
-103.9925737782
 20
-39.2166245343
 10
-103.9629648842
 20
-39.2704632199
 10
-103.9301054519
 20
-39.3223818047
 10
-103.8941195456
 20
-39.3721842895
 10
-103.8551430334
 20
-39.4196826632
 10
-103.8133230743
 20
-39.4646976132
 10
-103.7688175615
 20
-39.5070592045
 10
-103.7217945221
 20
-39.5466075236
 10
-103.6724314837
 20
-39.5831932802
 10
-103.620914822
 20
-39.6166783581
 10
-103.5674390203
 20
-39.6469363632
 10
-103.512205926
 20
-39.6738530948
 10
-103.4554239922
 20
-39.6973269656
 10
-103.3973076461
 20
-39.7172693287
 10
-103.3380764498
 20
-39.7336048632
 10
-103.2779540751
 20
-39.7462719233
 10
-103.2171674481
 20
-39.7552227392
 10
-103.1559460512
 20
-39.7604235548
  0
LINE
  5
2C8
100
AcDbEntity
  8
0
100
AcDbLine
 62
7
  6
CONTINUOUS
 10
-104.4359625809
 20
37.9710008394
 11
-104.4969861577
 21
37.7854225307
  0
LINE
  5
2C9
100
AcDbEntity
  8
0
100
AcDbLine
 62
7
  6
CONTINUOUS
 10
-104.3751903064
 20
38.153062175
 11
-104.4359625809
 21
37.9710008394
  0
LINE
  5
2CA
100
AcDbEntity
  8
0
100
AcDbLine
 62
7
  6
CONTINUOUS
 10
-104.0946172802
 20
38.9589384716
 11
-104.3770809735
 21
38.1474389588
  0
LINE
  5
2CB
100
AcDbEntity
  8
0
100
AcDbLine
 62
7
  6
CONTINUOUS
 10
-104.0621515774
 20
39.048186598
 11
-104.0946172802
 21
38.9589384716
  0
LINE
  5
2CC
100
AcDbEntity
  8
0
100
AcDbLine
 62
7
  6
CONTINUOUS
 10
-104.0398934365
 20
39.1086750016
 11
-104.0621515774
 21
39.048186598
  0
LINE
  5
2CD
100
AcDbEntity
  8
0
100
AcDbLine
 62
7
  6
CONTINUOUS
 10
-104.0188136722
 20
39.1610856261
 11
-104.039904701
 21
39.1086434801
  0
LINE
  5
2CE
100
AcDbEntity
  8
0
100
AcDbLine
 62
7
  6
CONTINUOUS
 10
-104.0399050251
 20
39.1086436569
 11
-104.0397925763
 21
39.1089195234
  0
LWPOLYLINE
  5
2CF
100
AcDbEntity
  8
RACCORDO
100
AcDbPolyline
 62
7
  6
CONTINUOUS
 90
9
 70
0
 10
-107.0152185219
 20
24.7813882033
 10
-107.0380548516
 20
24.726703446
 10
-107.0615247599
 20
24.6734852379
 10
-107.0855609735
 20
24.621726427
 10
-107.1100965751
 20
24.5714210079
 10
-107.1349651016
 20
24.5227547395
 10
-107.1601129863
 20
24.4756750357
 10
-107.1854511944
 20
24.4302001891
 10
-107.2107369052
 20
24.3866054988
  0
LINE
  5
2D0
100
AcDbEntity
  8
0
100
AcDbLine
 62
7
  6
CONTINUOUS
 10
-104.0397876884
 20
-39.1089325215
 11
-104.0399011575
 21
-39.1086541179
  0
LINE
  5
2D1
100
AcDbEntity
  8
0
100
AcDbLine
 62
7
  6
CONTINUOUS
 10
-104.0399059937
 20
-39.1086390668
 11
-104.0188209266
 21
-39.1610681888
  0
LINE
  5
2D2
100
AcDbEntity
  8
0
100
AcDbLine
 62
7
  6
CONTINUOUS
 10
-104.0720305966
 20
-39.0211570378
 11
-104.0398936704
 21
-39.108674369
  0
LINE
  5
2D3
100
AcDbEntity
  8
0
100
AcDbLine
 62
7
  6
CONTINUOUS
 10
-104.1115949322
 20
-38.9117884529
 11
-104.0720305966
 21
-39.0211570378
  0
LINE
  5
2D4
100
AcDbEntity
  8
0
100
AcDbLine
 62
7
  6
CONTINUOUS
 10
-104.1612554823
 20
-38.7726976435
 11
-104.1054642066
 21
-38.9288521986
  0
LINE
  5
2D5
100
AcDbEntity
  8
0
100
AcDbLine
 62
7
  6
CONTINUOUS
 10
-104.2154823006
 20
-38.6187526572
 11
-104.1612554823
 21
-38.7726976435
  0
LINE
  5
2D6
100
AcDbEntity
  8
0
100
AcDbLine
 62
7
  6
CONTINUOUS
 10
-104.2722544273
 20
-38.4553088858
 11
-104.2154823006
 21
-38.6187526572
  0
LINE
  5
2D7
100
AcDbEntity
  8
0
100
AcDbLine
 62
7
  6
CONTINUOUS
 10
-104.3300568072
 20
-38.2865271038
 11
-104.2722544273
 21
-38.4553088858
  0
LINE
  5
2D8
100
AcDbEntity
  8
0
100
AcDbLine
 62
7
  6
CONTINUOUS
 10
-104.3766150909
 20
-38.1488248275
 11
-104.3300568072
 21
-38.2865271038
  0
LINE
  5
2D9
100
AcDbEntity
  8
0
100
AcDbLine
 62
7
  6
CONTINUOUS
 10
-104.3882748664
 20
-38.1140926473
 11
-104.3766150909
 21
-38.1488248275
  0
LINE
  5
2DA
100
AcDbEntity
  8
0
100
AcDbLine
 62
7
  6
CONTINUOUS
 10
-104.4002761667
 20
-38.0782392231
 11
-104.3882748664
 21
-38.1140926473
  0
LINE
  5
2DB
100
AcDbEntity
  8
0
100
AcDbLine
 62
7
  6
CONTINUOUS
 10
-104.4168071094
 20
-38.0286803695
 11
-104.4002761667
 21
-38.0782392231
  0
LINE
  5
2DC
100
AcDbEntity
  8
0
100
AcDbLine
 62
7
  6
CONTINUOUS
 10
-104.4427937954
 20
-37.9503653016
 11
-104.4168071094
 21
-38.0286803695
  0
LINE
  5
2DD
100
AcDbEntity
  8
0
100
AcDbLine
 62
7
  6
CONTINUOUS
 10
-104.4953848927
 20
-37.7903280551
 11
-104.4427937954
 21
-37.9503653016
  0
LINE
  5
2DE
100
AcDbEntity
  8
0
100
AcDbLine
 62
7
  6
CONTINUOUS
 10
-105.4512754873
 20
34.4431906463
 11
-105.5037283721
 21
34.2281790382
  0
LINE
  5
2DF
100
AcDbEntity
  8
0
100
AcDbLine
 62
7
  6
CONTINUOUS
 10
-105.3898100911
 20
34.6898302091
 11
-105.4512754873
 21
34.4431906463
  0
LINE
  5
2E0
100
AcDbEntity
  8
0
100
AcDbLine
 62
7
  6
CONTINUOUS
 10
-105.3330692048
 20
34.9126744731
 11
-105.3898100911
 21
34.6898302091
  0
LINE
  5
2E1
100
AcDbEntity
  8
0
100
AcDbLine
 62
7
  6
CONTINUOUS
 10
-105.2803215018
 20
35.1158814836
 11
-105.3330692048
 21
34.9126744731
  0
LINE
  5
2E2
100
AcDbEntity
  8
0
100
AcDbLine
 62
7
  6
CONTINUOUS
 10
-105.2208389205
 20
35.3407011037
 11
-105.2803215018
 21
35.1158814836
  0
LINE
  5
2E3
100
AcDbEntity
  8
0
100
AcDbLine
 62
7
  6
CONTINUOUS
 10
-105.1642728052
 20
35.5504659868
 11
-105.2208389205
 21
35.3407011037
  0
LINE
  5
2E4
100
AcDbEntity
  8
0
100
AcDbLine
 62
7
  6
CONTINUOUS
 10
-105.1018795961
 20
35.7775474133
 11
-105.1642728052
 21
35.5504659868
  0
LINE
  5
2E5
100
AcDbEntity
  8
0
100
AcDbLine
 62
7
  6
CONTINUOUS
 10
-105.0436066597
 20
35.9858089218
 11
-105.1018793387
 21
35.7775483413
  0
LINE
  5
2E6
100
AcDbEntity
  8
0
100
AcDbLine
 62
7
  6
CONTINUOUS
 10
-104.9823061591
 20
36.2011316302
 11
-105.0436064189
 21
35.9858097751
  0
LINE
  5
2E7
100
AcDbEntity
  8
0
100
AcDbLine
 62
7
  6
CONTINUOUS
 10
-104.9203383296
 20
36.4150476132
 11
-104.9823061591
 21
36.2011316302
  0
LINE
  5
2E8
100
AcDbEntity
  8
0
100
AcDbLine
 62
7
  6
CONTINUOUS
 10
-104.8590021248
 20
36.6232118607
 11
-104.9203383296
 21
36.4150476132
  0
LINE
  5
2E9
100
AcDbEntity
  8
RACCORDO
100
AcDbLine
 62
7
  6
CONTINUOUS
 10
-106.9121920306
 20
25.0798103186
 11
-106.9323333256
 21
25.0125709933
  0
LINE
  5
2EA
100
AcDbEntity
  8
0
100
AcDbLine
 62
7
  6
CONTINUOUS
 10
-104.7979503395
 20
36.8270071245
 11
-104.859001947
 21
36.6232124589
  0
LINE
  5
2EB
100
AcDbEntity
  8
0
100
AcDbLine
 62
7
  6
CONTINUOUS
 10
-104.7381628862
 20
37.0233967068
 11
-104.7979503395
 21
36.8270071245
  0
LINE
  5
2EC
100
AcDbEntity
  8
0
100
AcDbLine
 62
7
  6
CONTINUOUS
 10
-104.6763425242
 20
37.2232473017
 11
-104.7381630216
 21
37.0233962657
  0
LINE
  5
2ED
100
AcDbEntity
  8
0
100
AcDbLine
 62
7
  6
CONTINUOUS
 10
-104.6147185667
 20
37.4192988708
 11
-104.6763425242
 21
37.2232473017
  0
LINE
  5
2EE
100
AcDbEntity
  8
0
100
AcDbLine
 62
7
  6
CONTINUOUS
 10
-104.5523306311
 20
37.6146630528
 11
-104.614718662
 21
37.4192985702
  0
LINE
  5
2EF
100
AcDbEntity
  8
RACCORDO
100
AcDbLine
 62
7
  6
CONTINUOUS
 10
-106.931590573
 20
25.0149603543
 11
-106.9521689923
 21
24.951439826
  0
LINE
  5
2F0
100
AcDbEntity
  8
0
100
AcDbLine
 62
7
  6
CONTINUOUS
 10
-104.4969862248
 20
37.7854223252
 11
-104.5523306311
 21
37.6146630528
  0
LINE
  5
2F1
100
AcDbEntity
  8
RACCORDO
100
AcDbLine
 62
7
  6
CONTINUOUS
 10
-106.9516444715
 20
24.95299103
 11
-106.973866494
 21
24.8892381495
  0
LINE
  5
2F2
100
AcDbEntity
  8
RACCORDO
100
AcDbLine
 62
7
  6
CONTINUOUS
 10
-106.9719544181
 20
24.8945364384
 11
-106.9966072495
 21
24.8283897393
  0
LWPOLYLINE
  5
2F3
100
AcDbEntity
  8
RACCORDO
100
AcDbPolyline
 62
7
  6
CONTINUOUS
 90
9
 70
0
 10
-106.993162345
 20
24.8373421377
 10
-107.0202968683
 20
24.7689684458
 10
-107.0448821838
 20
24.7109387097
 10
-107.0702786537
 20
24.6543421766
 10
-107.0963310898
 20
24.5993581361
 10
-107.1229921236
 20
24.545920455
 10
-107.1501596187
 20
24.4940776096
 10
-107.1775673743
 20
24.4441613781
 10
-107.2052036876
 20
24.3960128602
  0
LINE
  5
2F4
100
AcDbEntity
  8
0
100
AcDbLine
 62
7
  6
CONTINUOUS
 10
-104.5572449501
 20
-37.5993856818
 11
-104.4953848927
 21
-37.7903280551
  0
LINE
  5
2F5
100
AcDbEntity
  8
0
100
AcDbLine
 62
7
  6
CONTINUOUS
 10
-104.6177014582
 20
-37.409880339
 11
-104.5572449501
 21
-37.5993856818
  0
LINE
  5
2F6
100
AcDbEntity
  8
0
100
AcDbLine
 62
7
  6
CONTINUOUS
 10
-104.6805522578
 20
-37.2097401495
 11
-104.6177014582
 21
-37.409880339
  0
LINE
  5
2F7
100
AcDbEntity
  8
0
100
AcDbLine
 62
7
  6
CONTINUOUS
 10
-104.7437157918
 20
-37.0052867653
 11
-104.6805522578
 21
-37.2097401495
  0
LINE
  5
2F8
100
AcDbEntity
  8
0
100
AcDbLine
 62
7
  6
CONTINUOUS
 10
-104.8048953385
 20
-36.8039917918
 11
-104.7437157918
 21
-37.0052867653
  0
LINE
  5
2F9
100
AcDbEntity
  8
0
100
AcDbLine
 62
7
  6
CONTINUOUS
 10
-104.8674503052
 20
-36.5947464176
 11
-104.8048953385
 21
-36.8039917918
  0
LINE
  5
2FA
100
AcDbEntity
  8
0
100
AcDbLine
 62
7
  6
CONTINUOUS
 10
-104.9304785009
 20
-36.3802950318
 11
-104.8674503052
 21
-36.5947464176
  0
LINE
  5
2FB
100
AcDbEntity
  8
0
100
AcDbLine
 62
7
  6
CONTINUOUS
 10
-104.9945027572
 20
-36.1585890475
 11
-104.9304785009
 21
-36.3802950318
  0
LINE
  5
2FC
100
AcDbEntity
  8
0
100
AcDbLine
 62
7
  6
CONTINUOUS
 10
-105.0577371664
 20
-35.9356346265
 11
-104.9945027572
 21
-36.1585890475
  0
LINE
  5
2FD
100
AcDbEntity
  8
0
100
AcDbLine
 62
7
  6
CONTINUOUS
 10
-105.1177604964
 20
-35.7201607157
 11
-105.0577371664
 21
-35.9356346265
  0
LINE
  5
2FE
100
AcDbEntity
  8
0
100
AcDbLine
 62
7
  6
CONTINUOUS
 10
-105.1725249619
 20
-35.520100544
 11
-105.1177604964
 21
-35.7201607157
  0
LINE
  5
2FF
100
AcDbEntity
  8
0
100
AcDbLine
 62
7
  6
CONTINUOUS
 10
-105.2301700612
 20
-35.3057269625
 11
-105.1725249619
 21
-35.520100544
  0
LINE
  5
300
100
AcDbEntity
  8
0
100
AcDbLine
 62
7
  6
CONTINUOUS
 10
-105.2909298555
 20
-35.0753102239
 11
-105.2301700612
 21
-35.3057269625
  0
LINE
  5
301
100
AcDbEntity
  8
0
100
AcDbLine
 62
7
  6
CONTINUOUS
 10
-105.3450406715
 20
-34.8660320667
 11
-105.2909298555
 21
-35.0753102239
  0
LINE
  5
302
100
AcDbEntity
  8
0
100
AcDbLine
 62
7
  6
CONTINUOUS
 10
-105.4034773546
 20
-34.6354692113
 11
-105.3450406715
 21
-34.8660320667
  0
LINE
  5
303
100
AcDbEntity
  8
0
100
AcDbLine
 62
7
  6
CONTINUOUS
 10
-105.4537210736
 20
-34.4332605146
 11
-105.4034773546
 21
-34.6354692113
  0
LINE
  5
304
100
AcDbEntity
  8
0
100
AcDbLine
 62
7
  6
CONTINUOUS
 10
-105.5069258189
 20
-34.2149321853
 11
-105.4537210736
 21
-34.4332605146
  0
LINE
  5
305
100
AcDbEntity
  8
0
100
AcDbLine
 62
7
  6
CONTINUOUS
 10
-106.3009786043
 20
30.2050873337
 11
-106.3390826614
 21
29.9578634526
  0
LINE
  5
306
100
AcDbEntity
  8
0
100
AcDbLine
 62
7
  6
CONTINUOUS
 10
-106.2629417673
 20
30.4443781651
 11
-106.3009786043
 21
30.2050873337
  0
LINE
  5
307
100
AcDbEntity
  8
0
100
AcDbLine
 62
7
  6
CONTINUOUS
 10
-106.2250939974
 20
30.6756460509
 11
-106.2629417673
 21
30.4443781651
  0
LINE
  5
308
100
AcDbEntity
  8
0
100
AcDbLine
 62
7
  6
CONTINUOUS
 10
-106.1689118321
 20
31.0074356478
 11
-106.2250939974
 21
30.6756460509
  0
LINE
  5
309
100
AcDbEntity
  8
0
100
AcDbLine
 62
7
  6
CONTINUOUS
 10
-106.1136235247
 20
31.3216733312
 11
-106.1689118321
 21
31.0074356478
  0
LINE
  5
30A
100
AcDbEntity
  8
0
100
AcDbLine
 62
7
  6
CONTINUOUS
 10
-106.0593140635
 20
31.6196178166
 11
-106.1136235247
 21
31.3216733312
  0
LINE
  5
30B
100
AcDbEntity
  8
0
100
AcDbLine
 62
7
  6
CONTINUOUS
 10
-106.0060162157
 20
31.9026946481
 11
-106.0593140635
 21
31.6196178166
  0
LINE
  5
30C
100
AcDbEntity
  8
0
100
AcDbLine
 62
7
  6
CONTINUOUS
 10
-105.9537200937
 20
32.1722681939
 11
-106.0060162157
 21
31.9026946481
  0
LINE
  5
30D
100
AcDbEntity
  8
0
100
AcDbLine
 62
7
  6
CONTINUOUS
 10
-105.9024259546
 20
32.4294107749
 11
-105.9537200937
 21
32.1722681939
  0
LINE
  5
30E
100
AcDbEntity
  8
0
100
AcDbLine
 62
7
  6
CONTINUOUS
 10
-105.8521657847
 20
32.6748655157
 11
-105.9024259546
 21
32.4294107749
  0
LINE
  5
30F
100
AcDbEntity
  8
0
100
AcDbLine
 62
7
  6
CONTINUOUS
 10
-105.8029444674
 20
32.9093827712
 11
-105.8521657847
 21
32.6748655157
  0
LINE
  5
310
100
AcDbEntity
  8
0
100
AcDbLine
 62
7
  6
CONTINUOUS
 10
-105.754741074
 20
33.1337335659
 11
-105.8029444674
 21
32.9093827712
  0
LINE
  5
311
100
AcDbEntity
  8
0
100
AcDbLine
 62
7
  6
CONTINUOUS
 10
-105.7075553599
 20
33.3485520669
 11
-105.754741074
 21
33.1337335659
  0
LINE
  5
312
100
AcDbEntity
  8
0
100
AcDbLine
 62
7
  6
CONTINUOUS
 10
-105.6463876735
 20
33.6204187534
 11
-105.7075553599
 21
33.3485520669
  0
LINE
  5
313
100
AcDbEntity
  8
0
100
AcDbLine
 62
7
  6
CONTINUOUS
 10
-105.5874577909
 20
33.8757399986
 11
-105.6463876735
 21
33.6204187534
  0
LINE
  5
314
100
AcDbEntity
  8
0
100
AcDbLine
 62
7
  6
CONTINUOUS
 10
-105.530985052
 20
34.1147263332
 11
-105.5874577909
 21
33.8757399986
  0
LINE
  5
315
100
AcDbEntity
  8
0
100
AcDbLine
 62
7
  6
CONTINUOUS
 10
-105.5037283721
 20
34.2281790382
 11
-105.530985052
 21
34.1147263332
  0
LINE
  5
316
100
AcDbEntity
  8
0
100
AcDbLine
 62
7
  6
CONTINUOUS
 10
-105.5629036339
 20
-33.98031433
 11
-105.5069258189
 21
-34.2149321853
  0
LINE
  5
317
100
AcDbEntity
  8
0
100
AcDbLine
 62
7
  6
CONTINUOUS
 10
-105.6214793523
 20
-33.7291015437
 11
-105.5629036339
 21
-33.98031433
  0
LINE
  5
318
100
AcDbEntity
  8
0
100
AcDbLine
 62
7
  6
CONTINUOUS
 10
-105.6824435056
 20
-33.4610404294
 11
-105.6214793523
 21
-33.7291015437
  0
LINE
  5
319
100
AcDbEntity
  8
0
100
AcDbLine
 62
7
  6
CONTINUOUS
 10
-105.729583226
 20
-33.2488393161
 11
-105.6824435056
 21
-33.4610404294
  0
LINE
  5
31A
100
AcDbEntity
  8
0
100
AcDbLine
 62
7
  6
CONTINUOUS
 10
-105.7778094003
 20
-33.0270048961
 11
-105.729583226
 21
-33.2488393161
  0
LINE
  5
31B
100
AcDbEntity
  8
0
100
AcDbLine
 62
7
  6
CONTINUOUS
 10
-105.8270636889
 20
-32.7951697738
 11
-105.7778094003
 21
-33.0270048961
  0
LINE
  5
31C
100
AcDbEntity
  8
0
100
AcDbLine
 62
7
  6
CONTINUOUS
 10
-105.877371425
 20
-32.5525478717
 11
-105.8270636889
 21
-32.7951697738
  0
LINE
  5
31D
100
AcDbEntity
  8
0
100
AcDbLine
 62
7
  6
CONTINUOUS
 10
-105.9287419974
 20
-32.298351926
 11
-105.877371425
 21
-32.5525478717
  0
LINE
  5
31E
100
AcDbEntity
  8
0
100
AcDbLine
 62
7
  6
CONTINUOUS
 10
-105.9811543713
 20
-32.0318202998
 11
-105.9287419974
 21
-32.298351926
  0
LINE
  5
31F
100
AcDbEntity
  8
0
100
AcDbLine
 62
7
  6
CONTINUOUS
 10
-106.0345847342
 20
-31.7520547501
 11
-105.9811543713
 21
-32.0318202998
  0
LINE
  5
320
100
AcDbEntity
  8
0
100
AcDbLine
 62
7
  6
CONTINUOUS
 10
-106.0890471005
 20
-31.4577499855
 11
-106.0345847342
 21
-31.7520547501
  0
LINE
  5
321
100
AcDbEntity
  8
0
100
AcDbLine
 62
7
  6
CONTINUOUS
 10
-106.1445363477
 20
-31.1474090936
 11
-106.0890471005
 21
-31.4577499855
  0
LINE
  5
322
100
AcDbEntity
  8
0
100
AcDbLine
 62
7
  6
CONTINUOUS
 10
-106.2009920599
 20
-30.8196019159
 11
-106.1445363477
 21
-31.1474090936
  0
LINE
  5
323
100
AcDbEntity
  8
0
100
AcDbLine
 62
7
  6
CONTINUOUS
 10
-106.2390929418
 20
-30.5908664562
 11
-106.2009920599
 21
-30.8196019159
  0
LINE
  5
324
100
AcDbEntity
  8
0
100
AcDbLine
 62
7
  6
CONTINUOUS
 10
-106.2774590072
 20
-30.3538926541
 11
-106.2390929418
 21
-30.5908664562
  0
LWPOLYLINE
  5
325
100
AcDbEntity
  8
0
100
AcDbPolyline
 62
7
  6
CONTINUOUS
 90
3
 70
0
 10
-106.3352445701
 20
-29.9831257895
 10
-106.3159783058
 20
-30.1087019943
 10
-106.2774590072
 20
-30.3538926541
  0
LINE
  5
326
100
AcDbEntity
  8
0
100
AcDbLine
 62
7
  6
CONTINUOUS
 10
-106.8818567017
 20
-27.0815847886
 11
-106.8746087082
 21
-27.147850084
  0
LINE
  5
327
100
AcDbEntity
  8
0
100
AcDbLine
 62
7
  6
CONTINUOUS
 10
-106.8331968814
 20
-27.6721089657
 11
-106.8323993871
 21
-27.6794205849
  0
LINE
  5
328
100
AcDbEntity
  8
0
100
AcDbLine
 62
7
  6
CONTINUOUS
 10
-106.9314416196
 20
-26.436377
 11
-106.9230536731
 21
-26.5171735441
  0
LINE
  5
329
100
AcDbEntity
  8
0
100
AcDbLine
 62
7
  6
CONTINUOUS
 10
-106.8878505958
 20
-27.1468772808
 11
-106.8835194796
 21
-27.1905318003
  0
LINE
  5
32A
100
AcDbEntity
  8
0
100
AcDbLine
 62
7
  6
CONTINUOUS
 10
-106.9290726624
 20
-26.5274244821
 11
-106.9378575963
 21
-26.4380802261
  0
LINE
  5
32B
100
AcDbEntity
  8
0
100
AcDbLine
 62
7
  6
CONTINUOUS
 10
-106.9532782772
 20
-26.4204297865
 11
-106.9517549512
 21
-26.4389599052
  0
LINE
  5
32C
100
AcDbEntity
  8
0
100
AcDbLine
 62
7
  6
CONTINUOUS
 10
-106.8027156881
 20
-25.7163964819
 11
-106.7909470222
 21
-25.8998628978
  0
LINE
  5
32D
100
AcDbEntity
  8
0
100
AcDbLine
 62
7
  6
CONTINUOUS
 10
-106.7894576427
 20
25.9227222425
 11
-106.8027156908
 21
25.7163964378
  0
LINE
  5
32E
100
AcDbEntity
  8
0
100
AcDbLine
 62
7
  6
CONTINUOUS
 10
-106.7690327981
 20
26.2103905975
 11
-106.7894576427
 21
25.9227222425
  0
LINE
  5
32F
100
AcDbEntity
  8
RACCORDO
100
AcDbLine
 62
7
  6
CONTINUOUS
 10
-106.8027203727
 20
25.7163789973
 11
-106.8080377932
 21
25.6442003465
  0
LINE
  5
330
100
AcDbEntity
  8
0
100
AcDbLine
 62
7
  6
CONTINUOUS
 10
-106.7461207725
 20
26.5017005492
 11
-106.7690327981
 21
26.2103905975
  0
LINE
  5
331
100
AcDbEntity
  8
0
100
AcDbLine
 62
7
  6
CONTINUOUS
 10
-106.7210981016
 20
26.7927259885
 11
-106.7461207725
 21
26.5017005492
  0
LWPOLYLINE
  5
332
100
AcDbEntity
  8
RACCORDO
100
AcDbPolyline
 62
7
  6
CONTINUOUS
 90
10
 70
0
 10
-106.8067460097
 20
25.6597038594
 10
-106.8130048007
 20
25.5918299344
 10
-106.8207788936
 20
25.5244378493
 10
-106.8300359037
 20
25.4576025418
 10
-106.840724456
 20
25.3914815631
 10
-106.8528060508
 20
25.326103577
 10
-106.8662420688
 20
25.261494948
 10
-106.8809636213
 20
25.1978045123
 10
-106.8969236611
 20
25.1350537112
 10
-106.9140751906
 20
25.0732625346
  0
LINE
  5
333
100
AcDbEntity
  8
0
100
AcDbLine
 62
7
  6
CONTINUOUS
 10
-106.6946533837
 20
27.0779367753
 11
-106.7210981016
 21
26.7927259885
  0
LWPOLYLINE
  5
334
100
AcDbEntity
  8
RACCORDO
100
AcDbPolyline
 62
7
  6
CONTINUOUS
 90
9
 70
0
 10
-106.8080377932
 20
25.6442003465
 10
-106.815412658
 20
25.5694649116
 10
-106.8245485309
 20
25.495861466
 10
-106.8353706856
 20
25.4234266078
 10
-106.8478049536
 20
25.352192055
 10
-106.8617770841
 20
25.2821892018
 10
-106.8772135824
 20
25.2134445954
 10
-106.8940425723
 20
25.1459779373
 10
-106.9121920306
 20
25.0798103186
  0
LINE
  5
335
100
AcDbEntity
  8
0
100
AcDbLine
 62
7
  6
CONTINUOUS
 10
-106.6671579186
 20
27.3565248864
 11
-106.6946533837
 21
27.0779367753
  0
LINE
  5
336
100
AcDbEntity
  8
0
100
AcDbLine
 62
7
  6
CONTINUOUS
 10
-106.6383399791
 20
27.6330804459
 11
-106.6671579186
 21
27.3565248864
  0
LINE
  5
337
100
AcDbEntity
  8
0
100
AcDbLine
 62
7
  6
CONTINUOUS
 10
-106.6058709531
 20
27.9294593721
 11
-106.6383399791
 21
27.6330804459
  0
LINE
  5
338
100
AcDbEntity
  8
0
100
AcDbLine
 62
7
  6
CONTINUOUS
 10
-106.5700352688
 20
28.2413386775
 11
-106.6058709531
 21
27.9294593721
  0
LINE
  5
339
100
AcDbEntity
  8
0
100
AcDbLine
 62
7
  6
CONTINUOUS
 10
-106.5313917098
 20
28.561693703
 11
-106.5700352688
 21
28.2413386775
  0
LINE
  5
33A
100
AcDbEntity
  8
0
100
AcDbLine
 62
7
  6
CONTINUOUS
 10
-106.4923900272
 20
28.8693851929
 11
-106.5313917098
 21
28.561693703
  0
LINE
  5
33B
100
AcDbEntity
  8
0
100
AcDbLine
 62
7
  6
CONTINUOUS
 10
-106.4535640113
 20
29.1616136928
 11
-106.4923900272
 21
28.8693851929
  0
LINE
  5
33C
100
AcDbEntity
  8
0
100
AcDbLine
 62
7
  6
CONTINUOUS
 10
-106.4152744786
 20
29.437880033
 11
-106.4535640113
 21
29.1616136928
  0
LINE
  5
33D
100
AcDbEntity
  8
0
100
AcDbLine
 62
7
  6
CONTINUOUS
 10
-106.3771854764
 20
29.7023976121
 11
-106.4152744786
 21
29.437880033
  0
LINE
  5
33E
100
AcDbEntity
  8
0
100
AcDbLine
 62
7
  6
CONTINUOUS
 10
-106.3390826614
 20
29.9578634526
 11
-106.3771854764
 21
29.7023976121
  0
LINE
  5
33F
100
AcDbEntity
  8
0
100
AcDbLine
 62
7
  6
CONTINUOUS
 10
-106.3737657762
 20
-29.7256844795
 11
-106.3352445701
 21
-29.9831257895
  0
LINE
  5
340
100
AcDbEntity
  8
0
100
AcDbLine
 62
7
  6
CONTINUOUS
 10
-106.4032999045
 20
-28.799978
 11
-106.4053512786
 21
-28.7859878966
  0
LINE
  5
341
100
AcDbEntity
  8
0
100
AcDbLine
 62
7
  6
CONTINUOUS
 10
-106.412261547
 20
-29.4591616065
 11
-106.3737657762
 21
-29.7256844795
  0
LINE
  5
342
100
AcDbEntity
  8
0
100
AcDbLine
 62
7
  6
CONTINUOUS
 10
-106.4509516131
 20
-29.180820469
 11
-106.412261547
 21
-29.4591616065
  0
LINE
  5
343
100
AcDbEntity
  8
0
100
AcDbLine
 62
7
  6
CONTINUOUS
 10
-106.7722740566
 20
-27.6088806669
 11
-106.7556515451
 21
-27.7317135627
  0
LINE
  5
344
100
AcDbEntity
  8
0
100
AcDbLine
 62
7
  6
CONTINUOUS
 10
-106.6795739747
 20
-28.799985
 11
-106.6883081008
 21
-28.7348771631
  0
LINE
  5
345
100
AcDbEntity
  8
0
100
AcDbLine
 62
7
  6
CONTINUOUS
 10
-106.5013542966
 20
-28.7999918968
 11
-106.4509516131
 21
-29.180820469
  0
LINE
  5
346
100
AcDbEntity
  8
0
100
AcDbLine
 62
7
  6
CONTINUOUS
 10
-106.7016270226
 20
-28.7350364484
 11
-106.6934374408
 21
-28.799985
  0
LINE
  5
347
100
AcDbEntity
  8
0
100
AcDbLine
 62
7
  6
CONTINUOUS
 10
-106.7695960153
 20
-28.2315535124
 11
-106.7584761205
 21
-28.3249108891
  0
LINE
  5
348
100
AcDbEntity
  8
0
100
AcDbLine
 62
7
  6
CONTINUOUS
 10
-106.8243383329
 20
-27.5876818243
 11
-106.8044763088
 21
-27.7542023347
  0
LINE
  5
349
100
AcDbEntity
  8
0
100
AcDbLine
 62
7
  6
CONTINUOUS
 10
-106.7628592924
 20
-28.229657
 11
-106.7555954647
 21
-28.2914416696
  0
LINE
  5
34A
100
AcDbEntity
  8
0
100
AcDbLine
 62
7
  6
CONTINUOUS
 10
-106.8629397168
 20
-27.0660561607
 11
-106.8542479583
 21
-27.142106
  0
LINE
  5
34B
100
AcDbEntity
  8
0
100
AcDbLine
 62
7
  6
CONTINUOUS
 10
-106.8597753004
 20
-27.1785321481
 11
-106.8635420733
 21
-27.1448079244
  0
LINE
  5
34C
100
AcDbEntity
  8
0
100
AcDbLine
 62
7
  6
CONTINUOUS
 10
-106.8331900452
 20
-27.6721082205
 11
-106.8323832138
 21
-27.6794188198
  0
LWPOLYLINE
  5
34D
100
AcDbEntity
  8
RACCORDO
100
AcDbPolyline
 62
250
  6
CONTINUOUS
 90
6
 70
0
 10
-106.8027204028
 20
-25.7163835741
 10
-106.8027559463
 20
-25.714129896
 10
-106.8025297598
 20
-25.7102272536
 10
-106.8019725266
 20
-25.7051597315
 10
-106.8010254854
 20
-25.6988661656
 10
-106.7996339696
 20
-25.6913268056
  0
LINE
  5
34E
100
AcDbEntity
  8
0
100
AcDbLine
 62
7
  6
CONTINUOUS
 10
-107.6034994768
 20
-23.5
 11
-107.6034994768
 21
23.5
  0
LINE
  5
34F
100
AcDbEntity
  8
0
100
AcDbLine
 62
7
  6
CONTINUOUS
 10
-100.1281594081
 20
-3.539931762
 11
-99.0410036654
 21
-3.635045565
  0
LINE
  5
350
100
AcDbEntity
  8
RACCORDO
100
AcDbLine
 62
250
  6
CONTINUOUS
 10
-106.8027177129
 20
-25.7163858018
 11
-106.7996339696
 21
-25.6913268056
  0
LINE
  5
351
100
AcDbEntity
  8
RACCORDO
100
AcDbLine
 62
250
  6
CONTINUOUS
 10
-106.8589694422
 20
0.0
 11
-106.8766297139
 21
-0.0000508339
  0
LINE
  5
352
100
AcDbEntity
  8
RACCORDO
100
AcDbLine
 62
250
  6
CONTINUOUS
 10
-107.6034991529
 20
0.0
 11
-103.9859813448
 21
0.0
  0
LINE
  5
353
100
AcDbEntity
  8
0
100
AcDbLine
 62
250
  6
CONTINUOUS
 10
-103.9859813467
 20
0.0
 11
-103.0702621543
 21
-0.0003969818
  0
LINE
  5
354
100
AcDbEntity
  8
RACCORDO
100
AcDbLine
 62
250
  6
CONTINUOUS
 10
-106.7996340402
 20
25.6913268828
 11
-106.8027179287
 21
25.7163812542
  0
LINE
  5
355
100
AcDbEntity
  8
0
100
AcDbLine
 62
7
  6
CONTINUOUS
 10
-100.5845815368
 20
3.041834413
 11
-100.5845815368
 21
-3.041834413
  0
LWPOLYLINE
  5
356
100
AcDbEntity
  8
RACCORDO
100
AcDbPolyline
 62
250
  6
CONTINUOUS
 90
6
 70
0
 10
-106.7996340402
 20
25.6913268828
 10
-106.8010585565
 20
25.699110223
 10
-106.8020131358
 20
25.7054858162
 10
-106.8025589013
 20
25.7105457206
 10
-106.8027611988
 20
25.7144175108
 10
-106.8027201151
 20
25.716383191
  0
LINE
  5
357
100
AcDbEntity
  8
0
100
AcDbLine
 62
7
  6
CONTINUOUS
 10
-98.5845815368
 20
-40.0
 11
-98.5845815368
 21
-4.1331429141
  0
LINE
  5
358
100
AcDbEntity
  8
0
100
AcDbLine
 62
7
  6
CONTINUOUS
 10
-98.5845815368
 20
4.1331429141
 11
-98.5845815368
 21
40.0
  0
LINE
  5
359
100
AcDbEntity
  8
0
100
AcDbLine
 62
7
  6
CONTINUOUS
 10
-99.0410036654
 20
3.635045565
 11
-100.1281594081
 21
3.539931762
  0
LINE
  5
35A
100
AcDbEntity
  8
RACCORDO
100
AcDbLine
 62
250
  6
CONTINUOUS
 10
-107.6034994768
 20
22.2000000002
 11
-107.407247081
 21
22.2000000001
  0
LWPOLYLINE
  5
35B
100
AcDbEntity
  8
0
100
AcDbPolyline
 62
7
  6
CONTINUOUS
 90
7
 70
0
 10
-103.1559767798
 20
39.7604218922
 10
-103.2171964277
 20
39.7552193574
 10
-103.2779812673
 20
39.7462670213
 10
-103.338101833
 20
39.7335986347
 10
-103.3973312286
 20
39.7172619568
 10
-103.4554457829
 20
39.6973186285
 10
-103.5122259074
 20
39.6738439801
  0
LINE
  5
35C
100
AcDbEntity
  8
0
100
AcDbLine
 62
7
  6
CONTINUOUS
 10
-98.5845815368
 20
40.0
 11
-103.154286076
 21
39.7605119331
  0
LINE
  5
35D
100
AcDbEntity
  8
0
100
AcDbLine
 62
250
  6
CONTINUOUS
 10
-98.5845815368
 20
37.0
 11
-102.9696380089
 21
37.0
  0
ARC
  5
35E
100
AcDbEntity
  8
RACCORDO
100
AcDbCircle
 62
250
  6
CONTINUOUS
 10
-585.6702502665
 20
-29.4007844054
 40
540.9960161031
100
AcDbArc
 50
0.3928641237
 51
0.5607827381
  0
ARC
  5
35F
100
AcDbEntity
  8
RACCORDO
100
AcDbCircle
 62
250
  6
CONTINUOUS
 10
585.6702498753
 20
29.4007844094
 40
540.996015712
100
AcDbArc
 50
180.3928641243
 51
180.5607827389
  0
ARC
  5
360
100
AcDbEntity
  8
RACCORDO
100
AcDbCircle
 62
250
  6
CONTINUOUS
 10
-572.99257015
 20
29.1497116967
 40
528.3169355802
100
AcDbArc
 50
359.4529882612
 51
359.6249365595
  0
ARC
  5
361
100
AcDbEntity
  8
RACCORDO
100
AcDbCircle
 62
250
  6
CONTINUOUS
 10
572.9925645937
 20
-29.1497116598
 40
528.3169300238
100
AcDbArc
 50
179.4529882595
 51
179.6249365597
  0
ARC
  5
362
100
AcDbEntity
  8
RACCORDO
100
AcDbCircle
 62
250
  6
CONTINUOUS
 10
-51.9519709728
 20
-427.1125050295
 40
404.9482167364
100
AcDbArc
 50
89.242020162
 51
89.4792572911
  0
ARC
  5
363
100
AcDbEntity
  8
RACCORDO
100
AcDbCircle
 62
250
  6
CONTINUOUS
 10
51.9519709569
 20
427.1125032972
 40
404.9482150041
100
AcDbArc
 50
269.242020161
 51
269.4792572913
  0
ARC
  5
364
100
AcDbEntity
  8
RACCORDO
100
AcDbCircle
 62
250
  6
CONTINUOUS
 10
-51.9837926326
 20
420.9993269212
 40
398.8355925533
100
AcDbArc
 50
270.5332955613
 51
270.7741691653
  0
ARC
  5
365
100
AcDbEntity
  8
RACCORDO
100
AcDbCircle
 62
250
  6
CONTINUOUS
 10
51.9837926348
 20
-420.999326873
 40
398.8355925051
100
AcDbArc
 50
90.5332955615
 51
90.7741691657
  0
ARC
  5
366
100
AcDbEntity
  8
0
100
AcDbCircle
 62
7
  6
CONTINUOUS
 10
68.25
 20
37.0
 40
3.0
100
AcDbArc
 50
0.0
 51
90.0000000026
  0
ARC
  5
367
100
AcDbEntity
  8
0
100
AcDbCircle
 62
7
  6
CONTINUOUS
 10
-68.25
 20
37.0
 40
3.0
100
AcDbArc
 50
89.9999999974
 51
180.0000000008
  0
ARC
  5
368
100
AcDbEntity
  8
0
100
AcDbCircle
 62
7
  6
CONTINUOUS
 10
-68.25
 20
-37.0
 40
3.0
100
AcDbArc
 50
179.9999999992
 51
270.0000000026
  0
ARC
  5
369
100
AcDbEntity
  8
0
100
AcDbCircle
 62
7
  6
CONTINUOUS
 10
68.25
 20
-37.0
 40
3.0
100
AcDbArc
 50
269.9999999974
 51
360.0
  0
ARC
  5
36A
100
AcDbEntity
  8
0
100
AcDbCircle
 62
250
  6
CONTINUOUS
 10
68.2533042555
 20
-37.0028169064
 40
2.7668866841
100
AcDbArc
 50
269.9315755847
 51
0.0583315934
  0
ARC
  5
36B
100
AcDbEntity
  8
0
100
AcDbCircle
 62
250
  6
CONTINUOUS
 10
68.2533039079
 20
37.002816559
 40
2.7668866844
100
AcDbArc
 50
359.9416756068
 51
90.0684172097
  0
ARC
  5
36C
100
AcDbEntity
  8
0
100
AcDbCircle
 62
250
  6
CONTINUOUS
 10
-68.2533042549
 20
-37.002816906
 40
2.7668866844
100
AcDbArc
 50
179.9416684147
 51
270.0684244038
  0
ARC
  5
36D
100
AcDbEntity
  8
0
100
AcDbCircle
 62
250
  6
CONTINUOUS
 10
-68.2533039082
 20
37.0028165592
 40
2.7668866841
100
AcDbArc
 50
89.931582784
 51
180.0583243961
  0
ARC
  5
36E
100
AcDbEntity
  8
0
100
AcDbCircle
 62
7
  6
CONTINUOUS
 10
45.849711
 20
-26.789243
 40
0.8893898871
100
AcDbArc
 50
292.842868527
 51
90.0
  0
ARC
  5
36F
100
AcDbEntity
  8
0
100
AcDbCircle
 62
7
  6
CONTINUOUS
 10
45.769205
 20
-26.789243
 40
0.352865
100
AcDbArc
 50
270.0
 51
90.0
  0
ARC
  5
370
100
AcDbEntity
  8
0
100
AcDbCircle
 62
7
  6
CONTINUOUS
 10
-44.7
 20
22.2
 40
0.3
100
AcDbArc
 50
90.0
 51
180.0
  0
ARC
  5
371
100
AcDbEntity
  8
0
100
AcDbCircle
 62
7
  6
CONTINUOUS
 10
44.7
 20
22.2
 40
0.3
100
AcDbArc
 50
0.0
 51
90.0
  0
ARC
  5
372
100
AcDbEntity
  8
0
100
AcDbCircle
 62
7
  6
CONTINUOUS
 10
44.7
 20
-22.2
 40
0.3
100
AcDbArc
 50
270.0
 51
360.0
  0
ARC
  5
373
100
AcDbEntity
  8
0
100
AcDbCircle
 62
7
  6
CONTINUOUS
 10
-44.7
 20
-22.2
 40
0.3
100
AcDbArc
 50
180.0
 51
270.0
  0
ARC
  5
374
100
AcDbEntity
  8
0
100
AcDbCircle
 62
7
  6
CONTINUOUS
 10
-145.9714957242
 20
-31.4354785643
 40
39.392127882
100
AcDbArc
 50
6.3898332853
 51
7.1583192833
  0
ARC
  5
375
100
AcDbEntity
  8
0
100
AcDbCircle
 62
7
  6
CONTINUOUS
 10
-77.7495723311
 20
-23.5891730034
 40
29.3269887491
100
AcDbArc
 50
184.5190350554
 51
185.5746665549
  0
ARC
  5
376
100
AcDbEntity
  8
0
100
AcDbCircle
 62
7
  6
CONTINUOUS
 10
-78.9671661686
 20
-23.901055209
 40
28.0939901178
100
AcDbArc
 50
184.0798629575
 51
185.2654047842
  0
ARC
  5
377
100
AcDbEntity
  8
0
100
AcDbCircle
 62
7
  6
CONTINUOUS
 10
-130.904563874
 20
-29.7186942529
 40
24.2277489064
100
AcDbArc
 50
6.0586412988
 51
6.3205867206
  0
ARC
  5
378
100
AcDbEntity
  8
RACCORDO
100
AcDbCircle
 62
7
  6
CONTINUOUS
 10
-109.765549421
 20
-25.9076430605
 40
2.9743435397
100
AcDbArc
 50
30.4606741346
 51
33.4823793033
  0
ARC
  5
379
100
AcDbEntity
  8
RACCORDO
100
AcDbCircle
 62
7
  6
CONTINUOUS
 10
-109.7620435521
 20
-25.9052519188
 40
2.9701003047
100
AcDbArc
 50
33.4812175032
 51
37.2888796118
  0
ARC
  5
37A
100
AcDbEntity
  8
RACCORDO
100
AcDbCircle
 62
250
  6
CONTINUOUS
 10
-109.7619023735
 20
-25.9052931493
 40
2.9700085926
100
AcDbArc
 50
4.1313322169
 51
30.457265124
  0
ARC
  5
37B
100
AcDbEntity
  8
0
100
AcDbCircle
 62
7
  6
CONTINUOUS
 10
-106.6034994768
 20
-23.5
 40
1.0
100
AcDbArc
 50
180.0
 51
217.2913845123
  0
ARC
  5
37C
100
AcDbEntity
  8
RACCORDO
100
AcDbCircle
 62
7
  6
CONTINUOUS
 10
-106.6034994768
 20
-23.5
 40
1.0
100
AcDbArc
 50
180.0
 51
217.2913845123
  0
ARC
  5
37D
100
AcDbEntity
  8
0
100
AcDbCircle
 62
250
  6
CONTINUOUS
 10
-102.9269820435
 20
-38.7717532893
 40
0.9993203152
100
AcDbArc
 50
186.9846825277
 51
266.977116866
  0
ARC
  5
37E
100
AcDbEntity
  8
0
100
AcDbCircle
 62
7
  6
CONTINUOUS
 10
-99.0845815368
 20
-4.1331429141
 40
0.5
100
AcDbArc
 50
0.0
 51
85.0
  0
ARC
  5
37F
100
AcDbEntity
  8
0
100
AcDbCircle
 62
7
  6
CONTINUOUS
 10
-100.0845815368
 20
-3.041834413
 40
0.5
100
AcDbArc
 50
180.0
 51
265.0
  0
ARC
  5
380
100
AcDbEntity
  8
RACCORDO
100
AcDbCircle
 62
7
  6
CONTINUOUS
 10
-109.765672981
 20
25.9077269644
 40
2.9744892454
100
AcDbArc
 50
325.8639312104
 51
329.5284628513
  0
ARC
  5
381
100
AcDbEntity
  8
RACCORDO
100
AcDbCircle
 62
250
  6
CONTINUOUS
 10
-109.7617543154
 20
25.9052022298
 40
2.9698315085
100
AcDbArc
 50
329.532105791
 51
355.870212912
  0
ARC
  5
382
100
AcDbEntity
  8
RACCORDO
100
AcDbCircle
 62
7
  6
CONTINUOUS
 10
-109.7607989501
 20
25.9043720841
 40
2.9685723499
100
AcDbArc
 50
322.7100920224
 51
325.8647369572
  0
ARC
  5
383
100
AcDbEntity
  8
0
100
AcDbCircle
 62
7
  6
CONTINUOUS
 10
-106.6034994768
 20
23.5
 40
1.0
100
AcDbArc
 50
142.7086018591
 51
180.0
  0
ARC
  5
384
100
AcDbEntity
  8
0
100
AcDbCircle
 62
7
  6
CONTINUOUS
 10
-103.0845826983
 20
38.7627925863
 40
1.0
100
AcDbArc
 50
93.0000000001
 51
96.7488523043
  0
ARC
  5
385
100
AcDbEntity
  8
RACCORDO
100
AcDbCircle
 62
7
  6
CONTINUOUS
 10
-106.6035103147
 20
23.5000061595
 40
0.9999876459
100
AcDbArc
 50
142.7085064004
 51
180.0003529127
  0
ARC
  5
386
100
AcDbEntity
  8
0
100
AcDbCircle
 62
250
  6
CONTINUOUS
 10
-102.9269815187
 20
38.771755557
 40
0.9993207909
100
AcDbArc
 50
93.0229199793
 51
173.0154501693
  0
ARC
  5
387
100
AcDbEntity
  8
0
100
AcDbCircle
 62
7
  6
CONTINUOUS
 10
-99.0845815368
 20
4.1331429141
 40
0.5
100
AcDbArc
 50
275.0
 51
360.0
  0
ARC
  5
388
100
AcDbEntity
  8
0
100
AcDbCircle
 62
7
  6
CONTINUOUS
 10
-100.0845815368
 20
3.041834413
 40
0.5
100
AcDbArc
 50
95.0
 51
180.0
  0
ARC
  5
389
100
AcDbEntity
  8
0
100
AcDbCircle
 62
7
  6
CONTINUOUS
 10
-2.3486715039
 20
-13.5641557816
 40
105.1641420764
100
AcDbArc
 50
187.674811299
 51
188.322429496
  0
ARC
  5
38A
100
AcDbEntity
  8
0
100
AcDbCircle
 62
7
  6
CONTINUOUS
 10
-4.6489743905
 20
-13.8846887665
 40
103.0413199414
100
AcDbArc
 50
187.7229562533
 51
188.3228352052
  0
ARC
  5
38B
100
AcDbEntity
  8
0
100
AcDbCircle
 62
7
  6
CONTINUOUS
 10
-13.2604888328
 20
-16.6880007704
 40
94.1853368409
100
AcDbArc
 50
186.3949758137
 51
186.7027913191
  0
ARC
  5
38C
100
AcDbEntity
  8
0
100
AcDbCircle
 62
7
  6
CONTINUOUS
 10
-14.5579504168
 20
-16.7971310503
 40
92.8731392377
100
AcDbArc
 50
186.7285244295
 51
187.4256331406
  0
ARC
  5
38D
100
AcDbEntity
  8
0
100
AcDbCircle
 62
7
  6
CONTINUOUS
 10
-19.6944300404
 20
-16.1975941202
 40
87.8392214793
100
AcDbArc
 50
187.5103436129
 51
188.2487547468
  0
ARC
  5
38E
100
AcDbEntity
  8
0
100
AcDbCircle
 62
7
  6
CONTINUOUS
 10
-22.6789975832
 20
-17.8647550734
 40
84.6938826304
100
AcDbArc
 50
186.6558479509
 51
187.4184404144
  0
ARC
  5
38F
100
AcDbEntity
  8
0
100
AcDbCircle
 62
7
  6
CONTINUOUS
 10
-31.9294551765
 20
-18.743392455
 40
75.4152735475
100
AcDbArc
 50
186.8622405466
 51
187.2248425044
  0
ARC
  5
390
100
AcDbEntity
  8
0
100
AcDbCircle
 62
7
  6
CONTINUOUS
 10
-39.9360760349
 20
-20.4040921105
 40
67.2874875426
100
AcDbArc
 50
186.211003306
 51
186.6810935023
  0
ARC
  5
391
100
AcDbEntity
  8
0
100
AcDbCircle
 62
7
  6
CONTINUOUS
 10
-43.2282887454
 20
-20.1736316687
 40
64.0262780233
100
AcDbArc
 50
187.2267182399
 51
187.74309851
  0
ARC
  5
392
100
AcDbEntity
  8
0
100
AcDbCircle
 62
7
  6
CONTINUOUS
 10
-43.3939059725
 20
-20.7170194276
 40
63.8122515234
100
AcDbArc
 50
185.7411016174
 51
186.2631651774
  0
ARC
  5
393
100
AcDbEntity
  8
0
100
AcDbCircle
 62
7
  6
CONTINUOUS
 10
-45.9523793457
 20
-21.0341494296
 40
61.2416236636
100
AcDbArc
 50
186.2293766744
 51
186.7492680093
  0
ARC
  5
394
100
AcDbEntity
  8
0
100
AcDbCircle
 62
7
  6
CONTINUOUS
 10
-46.4224041876
 20
-21.1762905609
 40
60.7512908914
100
AcDbArc
 50
186.7258804972
 51
187.1473295532
  0
ARC
  5
395
100
AcDbEntity
  8
0
100
AcDbCircle
 62
7
  6
CONTINUOUS
 10
-46.5082176187
 20
-20.1734379229
 40
60.747006355
100
AcDbArc
 50
185.99425975
 51
186.5150560827
  0
ARC
  5
396
100
AcDbEntity
  8
0
100
AcDbCircle
 62
7
  6
CONTINUOUS
 10
-46.5371876252
 20
-20.7047750903
 40
60.6847578373
100
AcDbArc
 50
187.1229840191
 51
187.603957801
  0
ARC
  5
397
100
AcDbEntity
  8
0
100
AcDbCircle
 62
7
  6
CONTINUOUS
 10
-51.1916258067
 20
-21.0063767341
 40
56.0206415503
100
AcDbArc
 50
186.2939155387
 51
186.7466885493
  0
ARC
  5
398
100
AcDbEntity
  8
0
100
AcDbCircle
 62
7
  6
CONTINUOUS
 10
-51.2824729722
 20
-21.6798488276
 40
55.8725672858
100
AcDbArc
 50
186.8304960224
 51
187.3214201559
  0
ARC
  5
399
100
AcDbEntity
  8
0
100
AcDbCircle
 62
7
  6
CONTINUOUS
 10
-54.547784993
 20
-21.2797159591
 40
52.6434966795
100
AcDbArc
 50
185.7209677448
 51
186.3966898851
  0
ARC
  5
39A
100
AcDbEntity
  8
0
100
AcDbCircle
 62
7
  6
CONTINUOUS
 10
-54.6573321791
 20
-21.9765533299
 40
52.4858096197
100
AcDbArc
 50
185.7012078661
 51
186.2297825993
  0
ARC
  5
39B
100
AcDbEntity
  8
0
100
AcDbCircle
 62
7
  6
CONTINUOUS
 10
-54.7412530475
 20
-21.5754751996
 40
52.4353807233
100
AcDbArc
 50
186.0533974716
 51
186.6840310689
  0
ARC
  5
39C
100
AcDbEntity
  8
0
100
AcDbCircle
 62
7
  6
CONTINUOUS
 10
-62.8668085932
 20
-22.7977983573
 40
44.2353549378
100
AcDbArc
 50
185.2950799296
 51
185.6422530585
  0
ARC
  5
39D
100
AcDbEntity
  8
0
100
AcDbCircle
 62
7
  6
CONTINUOUS
 10
-64.2685169623
 20
-22.4508363651
 40
42.864208593
100
AcDbArc
 50
185.9469106701
 51
186.2019379115
  0
ARC
  5
39E
100
AcDbEntity
  8
0
100
AcDbCircle
 62
7
  6
CONTINUOUS
 10
-66.1421304985
 20
-23.0209017555
 40
40.9507188954
100
AcDbArc
 50
184.8381781203
 51
185.2997211846
  0
ARC
  5
39F
100
AcDbEntity
  8
0
100
AcDbCircle
 62
7
  6
CONTINUOUS
 10
-68.2945716255
 20
-23.297193738
 40
38.7846676241
100
AcDbArc
 50
184.6463594651
 51
185.3004532174
  0
ARC
  5
3A0
100
AcDbEntity
  8
0
100
AcDbCircle
 62
7
  6
CONTINUOUS
 10
-72.6696592423
 20
-23.3184354447
 40
34.4183901028
100
AcDbArc
 50
185.2691389228
 51
185.9593732646
  0
SPLINE
  5
3A1
100
AcDbEntity
  8
RACCORDO
100
AcDbSpline
 62
250
  6
CONTINUOUS
 70
0
 71
3
 72
12
 73
8
 74
0
 42
0.0000001
 43
0.0000001
 44
0.0000000001
 40
0.0
 40
0.0
 40
0.0
 40
0.0
 40
0.1249991121
 40
0.2499991157
 40
0.4999993822
 40
0.7499996896
 40
1.0
 40
1.0
 40
1.0
 40
1.0
 10
-48.2715788909
 20
22.1810106963
 30
0.0
 10
-48.2783523723
 20
21.2568319042
 30
0.0
 10
-48.2855708937
 20
19.4084232262
 30
0.0
 10
-48.2897248732
 20
15.7115905895
 30
0.0
 10
-48.2915707427
 20
11.0905348266
 30
0.0
 10
-48.2933619279
 20
5.5452678133
 30
0.0
 10
-48.2942703428
 20
1.8484225694
 30
0.0
 10
-48.2948250226
 20
0.0
 30
0.0
  0
SPLINE
  5
3A2
100
AcDbEntity
  8
RACCORDO
100
AcDbSpline
 62
250
  6
CONTINUOUS
 70
0
 71
3
 72
12
 73
8
 74
0
 42
0.0000001
 43
0.0000001
 44
0.0000000001
 40
0.0
 40
0.0
 40
0.0
 40
0.0
 40
0.250000022
 40
0.5000000437
 40
0.7500000625
 40
0.8750000626
 40
1.0
 40
1.0
 40
1.0
 40
1.0
 10
-46.5830381965
 20
0.0
 30
0.0
 10
-46.5837133769
 20
-1.8499773567
 30
0.0
 10
-46.5850067295
 20
-5.5499321052
 30
0.0
 10
-46.5870474434
 20
-11.0998640696
 30
0.0
 10
-46.5886736042
 20
-15.7248076057
 30
0.0
 10
-46.590934191
 20
-19.4247608558
 30
0.0
 10
-46.5928112232
 20
-21.2747376851
 30
0.0
 10
-46.594968293
 20
-22.1997233657
 30
0.0
  0
SPLINE
  5
3A3
100
AcDbEntity
  8
RACCORDO
100
AcDbSpline
 62
250
  6
CONTINUOUS
 70
0
 71
3
 72
11
 73
7
 74
0
 42
0.0000001
 43
0.0000001
 44
0.0000000001
 40
0.0
 40
0.0
 40
0.0
 40
0.0
 40
0.2500003846
 40
0.5000007662
 40
0.750001107
 40
1.0
 40
1.0
 40
1.0
 40
1.0
 10
-48.2948250839
 20
-0.0
 30
0.0
 10
-48.2942704037
 20
-1.8484227906
 30
0.0
 10
-48.2933352918
 20
-5.5452675132
 30
0.0
 10
-48.291664249
 20
-11.0905395266
 30
0.0
 10
-48.2890078856
 20
-16.6357815915
 30
0.0
 10
-48.2850625582
 20
-20.3326506579
 30
0.0
 10
-48.271578839
 20
-22.1810133229
 30
0.0
  0
SPLINE
  5
3A4
100
AcDbEntity
  8
RACCORDO
100
AcDbSpline
 62
250
  6
CONTINUOUS
 70
0
 71
3
 72
15
 73
11
 74
0
 42
0.0000001
 43
0.0000001
 44
0.0000000001
 40
0.0
 40
0.0
 40
0.0
 40
0.0
 40
0.1250393984
 40
0.2500677849
 40
0.3750877862
 40
0.5000873907
 40
0.6250672006
 40
0.7500323941
 40
0.8750210701
 40
1.0
 40
1.0
 40
1.0
 40
1.0
 10
-46.5949704096
 20
-22.2000000001
 30
0.0
 10
-46.5954990689
 20
-22.3241829608
 30
0.0
 10
-46.5716329965
 20
-22.5734015384
 30
0.0
 10
-46.4619361972
 20
-22.9317944887
 30
0.0
 10
-46.285767152
 20
-23.2626698796
 30
0.0
 10
-46.0490226901
 20
-23.5530511833
 30
0.0
 10
-45.7617547678
 20
-23.7939033282
 30
0.0
 10
-45.4309115602
 20
-23.9702448492
 30
0.0
 10
-45.0731755271
 20
-24.0810242322
 30
0.0
 10
-44.8241234968
 20
-24.1062259538
 30
0.0
 10
-44.6999999791
 20
-24.105868968
 30
0.0
  0
SPLINE
  5
3A5
100
AcDbEntity
  8
RACCORDO
100
AcDbSpline
 62
250
  6
CONTINUOUS
 70
0
 71
3
 72
23
 73
19
 74
0
 42
0.0000001
 43
0.0000001
 44
0.0000000001
 40
0.0
 40
0.0
 40
0.0
 40
0.0
 40
0.0625467402
 40
0.1250763819
 40
0.1876268411
 40
0.2501483191
 40
0.3750351222
 40
0.4998862028
 40
0.5623890207
 40
0.6248979697
 40
0.656160112
 40
0.6874182791
 40
0.7186829956
 40
0.7499425727
 40
0.8124473276
 40
0.8749619135
 40
0.9374808682
 40
1.0
 40
1.0
 40
1.0
 40
1.0
 10
-48.2715789792
 20
-22.1810133513
 30
0.0
 10
-48.2706711654
 20
-22.2970913732
 30
0.0
 10
-48.2580151192
 20
-22.5293799682
 30
0.0
 10
-48.2010562766
 20
-22.8735017706
 30
0.0
 10
-48.1135510144
 20
-23.2109079899
 30
0.0
 10
-47.9601870552
 20
-23.6493310336
 30
0.0
 10
-47.682989995
 20
-24.1634897371
 30
0.0
 10
-47.3053086306
 20
-24.6089397499
 30
0.0
 10
-46.9526209838
 20
-24.9112042781
 30
0.0
 10
-46.7138628855
 20
-25.076576938
 30
0.0
 10
-46.5170082579
 20
-25.1994009067
 30
0.0
 10
-46.3659744638
 20
-25.2861849461
 30
0.0
 10
-46.2084429708
 20
-25.3604988805
 30
0.0
 10
-45.9948656458
 20
-25.4513073927
 30
0.0
 10
-45.718866232
 20
-25.5426558146
 30
0.0
 10
-45.3787877385
 20
-25.6180645262
 30
0.0
 10
-45.0350613122
 20
-25.6748063558
 30
0.0
 10
-44.8029675895
 20
-25.6894979375
 30
0.0
 10
-44.686951674
 20
-25.6913270119
 30
0.0
  0
SPLINE
  5
3A6
100
AcDbEntity
  8
RACCORDO
100
AcDbSpline
 62
250
  6
CONTINUOUS
 70
0
 71
3
 72
10
 73
6
 74
0
 42
0.0000001
 43
0.0000001
 44
0.0000000001
 40
0.0
 40
0.0
 40
0.0
 40
0.0
 40
0.2499999856
 40
0.5000000082
 40
1.0
 40
1.0
 40
1.0
 40
1.0
 10
-44.7001463828
 20
-24.1058676407
 30
0.0
 10
-43.8293020482
 20
-24.1043539787
 30
0.0
 10
-42.0876095322
 20
-24.1039347783
 30
0.0
 10
-38.6042272053
 20
-24.1048804038
 30
0.0
 10
-35.9916910529
 20
-24.1075881707
 30
0.0
 10
-34.25
 20
-24.108642375
 30
0.0
  0
SPLINE
  5
3A7
100
AcDbEntity
  8
RACCORDO
100
AcDbSpline
 62
250
  6
CONTINUOUS
 70
0
 71
3
 72
11
 73
7
 74
0
 42
0.0000001
 43
0.0000001
 44
0.0000000001
 40
0.0
 40
0.0
 40
0.0
 40
0.0
 40
0.2499996497
 40
0.4999999657
 40
0.7500000077
 40
1.0
 40
1.0
 40
1.0
 40
1.0
 10
-44.6869516663
 20
-25.6913268817
 30
0.0
 10
-43.8173005759
 20
-25.7047542575
 30
0.0
 10
-42.0778001218
 20
-25.7183567188
 30
0.0
 10
-39.4685374735
 20
-25.7223094768
 30
0.0
 10
-36.8592673268
 20
-25.7201512968
 30
0.0
 10
-35.1197557959
 20
-25.7181759287
 30
0.0
 10
-34.2499999993
 20
-25.7186670343
 30
0.0
  0
SPLINE
  5
3A8
100
AcDbEntity
  8
RACCORDO
100
AcDbSpline
 62
250
  6
CONTINUOUS
 70
0
 71
3
 72
10
 73
6
 74
0
 42
0.0000001
 43
0.0000001
 44
0.0000000001
 40
0.0
 40
0.0
 40
0.0
 40
0.0
 40
0.4999999926
 40
0.7500000147
 40
1.0
 40
1.0
 40
1.0
 40
1.0
 10
34.25
 20
-24.1086423712
 30
0.0
 10
35.9916186474
 20
-24.1075888247
 30
0.0
 10
38.6040462136
 20
-24.1048559204
 30
0.0
 10
42.0872836511
 20
-24.1039741768
 30
0.0
 10
43.8289039076
 20
-24.1042962265
 30
0.0
 10
44.6997119375
 20
-24.105866028
 30
0.0
  0
SPLINE
  5
3A9
100
AcDbEntity
  8
RACCORDO
100
AcDbSpline
 62
250
  6
CONTINUOUS
 70
0
 71
3
 72
11
 73
7
 74
0
 42
0.0000001
 43
0.0000001
 44
0.0000000001
 40
0.0
 40
0.0
 40
0.0
 40
0.0
 40
0.2499999977
 40
0.5000000423
 40
0.7500003951
 40
1.0
 40
1.0
 40
1.0
 40
1.0
 10
34.25
 20
-25.7186670994
 30
0.0
 10
35.1197560341
 20
-25.718176675
 30
0.0
 10
36.8592681197
 20
-25.7201593702
 30
0.0
 10
39.4685386676
 20
-25.722279574
 30
0.0
 10
42.0778034569
 20
-25.7184587569
 30
0.0
 10
43.8173007449
 20
-25.7046066611
 30
0.0
 10
44.6869541629
 20
-25.6913268056
 30
0.0
  0
SPLINE
  5
3AA
100
AcDbEntity
  8
RACCORDO
100
AcDbSpline
 62
250
  6
CONTINUOUS
 70
0
 71
3
 72
15
 73
11
 74
0
 42
0.0000001
 43
0.0000001
 44
0.0000000001
 40
0.0
 40
0.0
 40
0.0
 40
0.0
 40
0.1249989386
 40
0.2499940916
 40
0.3749632829
 40
0.499946707
 40
0.6249522875
 40
0.749981169
 40
0.874993813
 40
1.0
 40
1.0
 40
1.0
 40
1.0
 10
44.7000000004
 20
-24.1058687792
 30
0.0
 10
44.8241434745
 20
-24.106228952
 30
0.0
 10
45.0732203975
 20
-24.0810063269
 30
0.0
 10
45.4309880143
 20
-23.9702223212
 30
0.0
 10
45.7618213274
 20
-23.7938318429
 30
0.0
 10
46.0491039462
 20
-23.5529788118
 30
0.0
 10
46.2858432487
 20
-23.2625652476
 30
0.0
 10
46.4619841969
 20
-22.9316786952
 30
0.0
 10
46.5716774093
 20
-22.5733233441
 30
0.0
 10
46.5954952806
 20
-22.3241500662
 30
0.0
 10
46.5949704305
 20
-22.1999999802
 30
0.0
  0
SPLINE
  5
3AB
100
AcDbEntity
  8
RACCORDO
100
AcDbSpline
 62
250
  6
CONTINUOUS
 70
0
 71
3
 72
25
 73
21
 74
0
 42
0.0000001
 43
0.0000001
 44
0.0000000001
 40
0.0
 40
0.0
 40
0.0
 40
0.0
 40
0.062510387
 40
0.1250048895
 40
0.1562671785
 40
0.1875215576
 40
0.2500014994
 40
0.3124801174
 40
0.3437363505
 40
0.3749889568
 40
0.4374778258
 40
0.4999612055
 40
0.5624543021
 40
0.6249547252
 40
0.6874689064
 40
0.7499735484
 40
0.8124877853
 40
0.8749883857
 40
0.9374919135
 40
1.0
 40
1.0
 40
1.0
 40
1.0
 10
44.6869540683
 20
-25.6913251634
 30
0.0
 10
44.8029903878
 20
-25.6894777823
 30
0.0
 10
45.0350453468
 20
-25.6746738245
 30
0.0
 10
45.321731027
 20
-25.6280769831
 30
0.0
 10
45.5487264873
 20
-25.5797107743
 30
0.0
 10
45.7742189843
 20
-25.5245707706
 30
0.0
 10
46.049704432
 20
-25.4322711035
 30
0.0
 10
46.3150655541
 20
-25.3136613731
 30
0.0
 10
46.5170327797
 20
-25.1991752611
 30
0.0
 10
46.7141996447
 20
-25.0767628055
 30
0.0
 10
46.9526033672
 20
-24.9109286828
 30
0.0
 10
47.2175438975
 20
-24.6842379835
 30
0.0
 10
47.4567397207
 20
-24.4304866202
 30
0.0
 10
47.6679248136
 20
-24.1529802498
 30
0.0
 10
47.8494530015
 20
-23.8551496554
 30
0.0
 10
47.9976326748
 20
-23.5393822644
 30
0.0
 10
48.1140603236
 20
-23.2107971553
 30
0.0
 10
48.201698768
 20
-22.8734214112
 30
0.0
 10
48.2576216255
 20
-22.5292542685
 30
0.0
 10
48.2706951927
 20
-22.2970541422
 30
0.0
 10
48.2715791841
 20
-22.1810107557
 30
0.0
  0
SPLINE
  5
3AC
100
AcDbEntity
  8
RACCORDO
100
AcDbSpline
 62
250
  6
CONTINUOUS
 70
0
 71
3
 72
12
 73
8
 74
0
 42
0.0000001
 43
0.0000001
 44
0.0000000001
 40
0.0
 40
0.0
 40
0.0
 40
0.0
 40
0.1249999375
 40
0.2499999376
 40
0.4999999564
 40
0.749999978
 40
1.0
 40
1.0
 40
1.0
 40
1.0
 10
46.5949694888
 20
-22.2001412745
 30
0.0
 10
46.592820724
 20
-21.2751381612
 30
0.0
 10
46.5909303068
 20
-19.4251265356
 30
0.0
 10
46.5886761527
 20
-15.7251036189
 30
0.0
 10
46.5870466878
 20
-11.1000730257
 30
0.0
 10
46.5850070095
 20
-5.5500365818
 30
0.0
 10
46.5837134052
 20
-1.8500121824
 30
0.0
 10
46.5830382121
 20
-0.0
 30
0.0
  0
SPLINE
  5
3AD
100
AcDbEntity
  8
RACCORDO
100
AcDbSpline
 62
250
  6
CONTINUOUS
 70
0
 71
3
 72
12
 73
8
 74
0
 42
0.0000001
 43
0.0000001
 44
0.0000000001
 40
0.0
 40
0.0
 40
0.0
 40
0.0
 40
0.1249991121
 40
0.2499991157
 40
0.4999993822
 40
0.7499996896
 40
1.0
 40
1.0
 40
1.0
 40
1.0
 10
48.2715788921
 20
-22.1810106962
 30
0.0
 10
48.2783523734
 20
-21.2568319042
 30
0.0
 10
48.2855708931
 20
-19.4084232261
 30
0.0
 10
48.2897248735
 20
-15.7115905895
 30
0.0
 10
48.2915707426
 20
-11.0905348266
 30
0.0
 10
48.2933619279
 20
-5.5452678133
 30
0.0
 10
48.2942703428
 20
-1.8484225694
 30
0.0
 10
48.2948250226
 20
-0.0
 30
0.0
  0
SPLINE
  5
3AE
100
AcDbEntity
  8
RACCORDO
100
AcDbSpline
 62
250
  6
CONTINUOUS
 70
0
 71
3
 72
12
 73
8
 74
0
 42
0.0000001
 43
0.0000001
 44
0.0000000001
 40
0.0
 40
0.0
 40
0.0
 40
0.0
 40
0.250000022
 40
0.5000000437
 40
0.7500000625
 40
0.8750000626
 40
1.0
 40
1.0
 40
1.0
 40
1.0
 10
46.5830381965
 20
-0.0
 30
0.0
 10
46.5837133769
 20
1.8499773567
 30
0.0
 10
46.5850067295
 20
5.5499321052
 30
0.0
 10
46.5870474434
 20
11.0998640696
 30
0.0
 10
46.5886736043
 20
15.7248076057
 30
0.0
 10
46.5909341909
 20
19.4247608558
 30
0.0
 10
46.5928112234
 20
21.2747376851
 30
0.0
 10
46.5949682932
 20
22.1997233657
 30
0.0
  0
SPLINE
  5
3AF
100
AcDbEntity
  8
RACCORDO
100
AcDbSpline
 62
250
  6
CONTINUOUS
 70
0
 71
3
 72
11
 73
7
 74
0
 42
0.0000001
 43
0.0000001
 44
0.0000000001
 40
0.0
 40
0.0
 40
0.0
 40
0.0
 40
0.2500003846
 40
0.5000007662
 40
0.750001107
 40
1.0
 40
1.0
 40
1.0
 40
1.0
 10
48.2948250839
 20
0.0
 30
0.0
 10
48.2942704037
 20
1.8484227906
 30
0.0
 10
48.2933352918
 20
5.5452675132
 30
0.0
 10
48.2916642491
 20
11.0905395266
 30
0.0
 10
48.2890078851
 20
16.6357815915
 30
0.0
 10
48.2850625592
 20
20.3326506579
 30
0.0
 10
48.2715788402
 20
22.1810133228
 30
0.0
  0
SPLINE
  5
3B0
100
AcDbEntity
  8
RACCORDO
100
AcDbSpline
 62
250
  6
CONTINUOUS
 70
0
 71
3
 72
15
 73
11
 74
0
 42
0.0000001
 43
0.0000001
 44
0.0000000001
 40
0.0
 40
0.0
 40
0.0
 40
0.0
 40
0.1250393984
 40
0.2500677849
 40
0.3750877862
 40
0.5000873907
 40
0.6250672006
 40
0.7500323941
 40
0.8750210701
 40
1.0
 40
1.0
 40
1.0
 40
1.0
 10
46.59497041
 20
22.2000000001
 30
0.0
 10
46.5954990693
 20
22.3241829608
 30
0.0
 10
46.5716329972
 20
22.5734015385
 30
0.0
 10
46.4619361978
 20
22.9317944889
 30
0.0
 10
46.2857671525
 20
23.26266988
 30
0.0
 10
46.0490226905
 20
23.5530511837
 30
0.0
 10
45.7617547682
 20
23.7939033287
 30
0.0
 10
45.4309115605
 20
23.9702448498
 30
0.0
 10
45.0731755272
 20
24.0810242329
 30
0.0
 10
44.8241234969
 20
24.1062259543
 30
0.0
 10
44.6999999791
 20
24.1058689684
 30
0.0
  0
SPLINE
  5
3B1
100
AcDbEntity
  8
RACCORDO
100
AcDbSpline
 62
250
  6
CONTINUOUS
 70
0
 71
3
 72
23
 73
19
 74
0
 42
0.0000001
 43
0.0000001
 44
0.0000000001
 40
0.0
 40
0.0
 40
0.0
 40
0.0
 40
0.0625467402
 40
0.1250763819
 40
0.1876268411
 40
0.2501483191
 40
0.3750351222
 40
0.4998862028
 40
0.5623890207
 40
0.6248979697
 40
0.656160112
 40
0.6874182791
 40
0.7186829956
 40
0.7499425727
 40
0.8124473276
 40
0.8749619135
 40
0.9374808682
 40
1.0
 40
1.0
 40
1.0
 40
1.0
 10
48.2715789804
 20
22.1810133512
 30
0.0
 10
48.2706711666
 20
22.2970913733
 30
0.0
 10
48.2580151214
 20
22.5293799685
 30
0.0
 10
48.2010562792
 20
22.8735017712
 30
0.0
 10
48.1135510165
 20
23.2109079905
 30
0.0
 10
47.9601870573
 20
23.6493310346
 30
0.0
 10
47.6829899969
 20
24.1634897384
 30
0.0
 10
47.3053086323
 20
24.6089397514
 30
0.0
 10
46.9526209853
 20
24.9112042798
 30
0.0
 10
46.7138628868
 20
25.0765769398
 30
0.0
 10
46.5170082591
 20
25.1994009086
 30
0.0
 10
46.3659744649
 20
25.286184948
 30
0.0
 10
46.2084429718
 20
25.3604988825
 30
0.0
 10
45.9948656466
 20
25.4513073947
 30
0.0
 10
45.7188662327
 20
25.5426558167
 30
0.0
 10
45.3787877389
 20
25.6180645281
 30
0.0
 10
45.0350613125
 20
25.6748063586
 30
0.0
 10
44.8029675895
 20
25.6894979386
 30
0.0
 10
44.686951674
 20
25.691327013
 30
0.0
  0
SPLINE
  5
3B2
100
AcDbEntity
  8
0
100
AcDbSpline
 62
250
  6
CONTINUOUS
 70
0
 71
3
 72
14
 73
10
 74
0
 42
0.0000001
 43
0.0000001
 44
0.0000000001
 40
0.0
 40
0.0
 40
0.0
 40
0.0
 40
0.2500104812
 40
0.5000209427
 40
0.6250262133
 40
0.7500269968
 40
0.8750171372
 40
0.937512811
 40
1.0
 40
1.0
 40
1.0
 40
1.0
 10
-34.2502775177
 20
39.7614221211
 30
0.0
 10
-37.0837068117
 20
39.761344916
 30
0.0
 10
-42.7505651823
 20
39.760968991
 30
0.0
 10
-49.8341384865
 20
39.7608562998
 30
0.0
 10
-55.5009467572
 20
39.7601153708
 30
0.0
 10
-59.7508691553
 20
39.7619874729
 30
0.0
 10
-63.2923542617
 20
39.7651471051
 30
0.0
 10
-66.1253572023
 20
39.7676453803
 30
0.0
 10
-67.541819421
 20
39.7680403303
 30
0.0
 10
-68.25
 20
39.7696626545
 30
0.0
  0
SPLINE
  5
3B3
100
AcDbEntity
  8
0
100
AcDbSpline
 62
250
  6
CONTINUOUS
 70
0
 71
3
 72
28
 73
24
 74
0
 42
0.0000001
 43
0.0000001
 44
0.0000000001
 40
0.0
 40
0.0
 40
0.0
 40
0.0
 40
0.0078099219
 40
0.0156215722
 40
0.0195278083
 40
0.0214809195
 40
0.0234340254
 40
0.0273402485
 40
0.031246485
 40
0.0390589556
 40
0.0468714273
 40
0.0624963747
 40
0.0781213269
 40
0.0937462834
 40
0.1249962067
 40
0.1874960706
 40
0.2499959657
 40
0.3749960686
 40
0.4999966293
 40
0.6249974296
 40
0.7499982853
 40
0.8749991411
 40
1.0
 40
1.0
 40
1.0
 40
1.0
 10
70.1399643939
 20
-37.0335618751
 30
0.0
 10
70.1425375634
 20
-36.9371845022
 30
0.0
 10
70.148199713
 20
-36.7444242144
 30
0.0
 10
70.1564840665
 20
-36.5034904513
 30
0.0
 10
70.1644462535
 20
-36.3349170269
 30
0.0
 10
70.1679713918
 20
-36.2385272639
 30
0.0
 10
70.1681305186
 20
-36.1420755711
 30
0.0
 10
70.168646374
 20
-36.0215269824
 30
0.0
 10
70.1702574105
 20
-35.8286455674
 30
0.0
 10
70.1715804189
 20
-35.5875418733
 30
0.0
 10
70.174160028
 20
-35.201777372
 30
0.0
 10
70.1771692234
 20
-34.7195707715
 30
0.0
 10
70.1808310346
 20
-34.1409228264
 30
0.0
 10
70.1856254747
 20
-33.3693914605
 30
0.0
 10
70.193900855
 20
-32.0192103631
 30
0.0
 10
70.2054356371
 20
-30.090377876
 30
0.0
 10
70.2244144157
 20
-27.0042446499
 30
0.0
 10
70.2465192297
 20
-23.1465581633
 30
0.0
 10
70.2639556576
 20
-18.5172790491
 30
0.0
 10
70.2714495986
 20
-13.8879645895
 30
0.0
 10
70.2711361782
 20
-9.258642341
 30
0.0
 10
70.267541244
 20
-4.629322199
 30
0.0
 10
70.2663441228
 20
-1.5431071539
 30
0.0
 10
70.2670229694
 20
0.0
 30
0.0
  0
SPLINE
  5
3B4
100
AcDbEntity
  8
0
100
AcDbSpline
 62
250
  6
CONTINUOUS
 70
0
 71
3
 72
11
 73
7
 74
0
 42
0.0000001
 43
0.0000001
 44
0.0000000001
 40
0.0
 40
0.0
 40
0.0
 40
0.0
 40
0.2499211955
 40
0.4999655747
 40
0.7500207666
 40
1.0
 40
1.0
 40
1.0
 40
1.0
 10
68.2930626959
 20
-38.8932774762
 30
0.0
 10
68.5319711964
 20
-38.8856413013
 30
0.0
 10
69.0115702931
 20
-38.7762660161
 30
0.0
 10
69.616232553
 20
-38.3605925518
 30
0.0
 10
70.027521411
 20
-37.7528438245
 30
0.0
 10
70.1335717265
 20
-37.2725624112
 30
0.0
 10
70.1399643939
 20
-37.0335618751
 30
0.0
  0
SPLINE
  5
3B5
100
AcDbEntity
  8
0
100
AcDbSpline
 62
250
  6
CONTINUOUS
 70
0
 71
3
 72
41
 73
37
 74
0
 42
0.0000001
 43
0.0000001
 44
0.0000000001
 40
0.0
 40
0.0
 40
0.0
 40
0.0
 40
0.1250029877
 40
0.2500059683
 40
0.3750089402
 40
0.4375104238
 40
0.5000119061
 40
0.5625133875
 40
0.5937641286
 40
0.6093894992
 40
0.6250148221
 40
0.6406401867
 40
0.6562655385
 40
0.6640781899
 40
0.6718908131
 40
0.6797032718
 40
0.6875157424
 40
0.7031408916
 40
0.7187661412
 40
0.7343912804
 40
0.7500162674
 40
0.7812657569
 40
0.8125147089
 40
0.8437633654
 40
0.8750119799
 40
0.9062606389
 40
0.921884993
 40
0.9375093679
 40
0.9531337639
 40
0.9609459785
 40
0.9687581758
 40
0.9765701748
 40
0.9804763318
 40
0.9843821528
 40
0.9921922006
 40
1.0
 40
1.0
 40
1.0
 40
1.0
 10
34.25
 20
-39.0969392559
 30
0.0
 10
35.668587324
 20
-39.0977389573
 30
0.0
 10
38.5057611322
 20
-39.1005624098
 30
0.0
 10
42.7615200958
 20
-39.1059092073
 30
0.0
 10
46.3079867061
 20
-39.1096677973
 30
0.0
 10
49.1451609805
 20
-39.1113706676
 30
0.0
 10
51.2730418645
 20
-39.1116546957
 30
0.0
 10
53.0462762677
 20
-39.1112288608
 30
0.0
 10
54.2875391539
 20
-39.109770419
 30
0.0
 10
54.9968327408
 20
-39.1096663057
 30
0.0
 10
55.5287994661
 20
-39.1072234584
 30
0.0
 10
56.0607445676
 20
-39.1020105837
 30
0.0
 10
56.504022616
 20
-39.0968765148
 30
0.0
 10
56.8586383534
 20
-39.0922524772
 30
0.0
 10
57.1245879453
 20
-39.0881519613
 30
0.0
 10
57.3905545205
 20
-39.0852400379
 30
0.0
 10
57.7451948549
 20
-39.0846140554
 30
0.0
 10
58.1884917388
 20
-39.0817660338
 30
0.0
 10
58.7204069231
 20
-39.0744272436
 30
0.0
 10
59.2523134534
 20
-39.0667844711
 30
0.0
 10
59.9614981439
 20
-39.055603609
 30
0.0
 10
60.8479474947
 20
-39.0404787956
 30
0.0
 10
61.911658809
 20
-39.0214049227
 30
0.0
 10
62.9753627639
 20
-39.0024722195
 30
0.0
 10
64.0390766645
 20
-38.9843041951
 30
0.0
 10
64.9255134177
 20
-38.9696384496
 30
0.0
 10
65.6346695052
 20
-38.9583024759
 30
0.0
 10
66.1665423011
 20
-38.9499799936
 30
0.0
 10
66.6097682255
 20
-38.943316025
 30
0.0
 10
66.964362983
 20
-38.9379922455
 30
0.0
 10
67.2302661576
 20
-38.9337838642
 30
0.0
 10
67.4520038755
 20
-38.9324842064
 30
0.0
 10
67.6289488056
 20
-38.9206540668
 30
0.0
 10
67.8059838967
 20
-38.9112836779
 30
0.0
 10
68.0273719797
 20
-38.9022871006
 30
0.0
 10
68.2045015085
 20
-38.8961032539
 30
0.0
 10
68.2930626959
 20
-38.8932774762
 30
0.0
  0
SPLINE
  5
3B6
100
AcDbEntity
  8
0
100
AcDbSpline
 62
250
  6
CONTINUOUS
 70
0
 71
3
 72
14
 73
10
 74
0
 42
0.0000001
 43
0.0000001
 44
0.0000000001
 40
0.0
 40
0.0
 40
0.0
 40
0.0
 40
0.0624949018
 40
0.1249946355
 40
0.2499941382
 40
0.3749940744
 40
0.4999948127
 40
0.7499973591
 40
1.0
 40
1.0
 40
1.0
 40
1.0
 10
71.0201889283
 20
-37.0
 30
0.0
 10
71.0188142442
 20
-36.2292304208
 30
0.0
 10
71.0191525004
 20
-34.6876279222
 30
0.0
 10
71.0178892045
 20
-31.6043662789
 30
0.0
 10
71.016960695
 20
-27.7502079049
 30
0.0
 10
71.0157088212
 20
-23.1252038783
 30
0.0
 10
71.0147446618
 20
-16.9584947226
 30
0.0
 10
71.0146770457
 20
-9.2500848035
 30
0.0
 10
71.0149825869
 20
-3.0833513669
 30
0.0
 10
71.0149154416
 20
0.0000159346
 30
0.0
  0
SPLINE
  5
3B7
100
AcDbEntity
  8
0
100
AcDbSpline
 62
250
  6
CONTINUOUS
 70
0
 71
3
 72
14
 73
10
 74
0
 42
0.0000001
 43
0.0000001
 44
0.0000000001
 40
0.0
 40
0.0
 40
0.0
 40
0.0
 40
0.2500026407
 40
0.5000051869
 40
0.6250059251
 40
0.7500058611
 40
0.8750053637
 40
0.9375050973
 40
1.0
 40
1.0
 40
1.0
 40
1.0
 10
71.0149154416
 20
0.0000159346
 30
0.0
 10
71.0149826231
 20
3.0833805775
 30
0.0
 10
71.0146770262
 20
9.2501086971
 30
0.0
 10
71.0147446692
 20
16.9585119701
 30
0.0
 10
71.0157088211
 20
23.1252158087
 30
0.0
 10
71.0169607014
 20
27.7502158473
 30
0.0
 10
71.0178892032
 20
31.6043708974
 30
0.0
 10
71.0191525051
 20
34.6876298932
 30
0.0
 10
71.0188142349
 20
36.229231074
 30
0.0
 10
71.0201889283
 20
37.0
 30
0.0
  0
SPLINE
  5
3B8
100
AcDbEntity
  8
0
100
AcDbSpline
 62
250
  6
CONTINUOUS
 70
0
 71
3
 72
42
 73
38
 74
0
 42
0.0000001
 43
0.0000001
 44
0.0000000001
 40
0.0
 40
0.0
 40
0.0
 40
0.0
 40
0.0078077989
 40
0.0156178464
 40
0.019523668
 40
0.0234298232
 40
0.0312418201
 40
0.0390540172
 40
0.0468662313
 40
0.0624906262
 40
0.0781150002
 40
0.0937393534
 40
0.1249880106
 40
0.1562366229
 40
0.1874852778
 40
0.2187342282
 40
0.2499837162
 40
0.2656087023
 40
0.2812338407
 40
0.2968590892
 40
0.312484241
 40
0.320296715
 40
0.3242029234
 40
0.3281092294
 40
0.3359218487
 40
0.3437344993
 40
0.3593598503
 40
0.3749852138
 40
0.3906105366
 40
0.406235906
 40
0.4374866452
 40
0.499988123
 40
0.5624896017
 40
0.6249910817
 40
0.7499940462
 40
0.8749970196
 40
1.0
 40
1.0
 40
1.0
 40
1.0
 10
68.2930626959
 20
38.8932774762
 30
0.0
 10
68.204501508
 20
38.8961032557
 30
0.0
 10
68.0273719449
 20
38.9022865022
 30
0.0
 10
67.8059839694
 20
38.9112852382
 30
0.0
 10
67.6289486361
 20
38.9206510062
 30
0.0
 10
67.4520038196
 20
38.9324827406
 30
0.0
 10
67.2302661054
 20
38.9337817151
 30
0.0
 10
66.9643630493
 20
38.9379969659
 30
0.0
 10
66.609768237
 20
38.943317199
 30
0.0
 10
66.1665422847
 20
38.949979301
 30
0.0
 10
65.634669501
 20
38.9583025813
 30
0.0
 10
64.9255134077
 20
38.9696383462
 30
0.0
 10
64.0390766767
 20
38.984305353
 30
0.0
 10
62.9753627275
 20
39.0024706966
 30
0.0
 10
61.9116587954
 20
39.0214046888
 30
0.0
 10
60.847947475
 20
39.0404796487
 30
0.0
 10
59.9614980847
 20
39.055600161
 30
0.0
 10
59.2523134593
 20
39.0667904352
 30
0.0
 10
58.7204067141
 20
39.0744050839
 30
0.0
 10
58.1884924701
 20
39.0818617915
 30
0.0
 10
57.7451925962
 20
39.0843546428
 30
0.0
 10
57.4348873569
 20
39.0855467571
 30
0.0
 10
57.2575665855
 20
39.0861616695
 30
0.0
 10
57.0802693355
 20
39.0892027248
 30
0.0
 10
56.8586367667
 20
39.0921331817
 30
0.0
 10
56.50402355
 20
39.0969455682
 30
0.0
 10
56.0607442867
 20
39.1019882077
 30
0.0
 10
55.528799551
 20
39.1072248062
 30
0.0
 10
54.9968328247
 20
39.1096871907
 30
0.0
 10
54.2875392054
 20
39.1097608929
 30
0.0
 10
53.0462763326
 20
39.1112358213
 30
0.0
 10
51.2730419159
 20
39.111652331
 30
0.0
 10
49.1451610277
 20
39.1113712872
 30
0.0
 10
46.3079867436
 20
39.1096674397
 30
0.0
 10
42.7615201226
 20
39.1059093295
 30
0.0
 10
38.5057611455
 20
39.1005623746
 30
0.0
 10
35.6685873285
 20
39.0977389573
 30
0.0
 10
34.25
 20
39.0969392559
 30
0.0
  0
SPLINE
  5
3B9
100
AcDbEntity
  8
0
100
AcDbSpline
 62
250
  6
CONTINUOUS
 70
0
 71
3
 72
11
 73
7
 74
0
 42
0.0000001
 43
0.0000001
 44
0.0000000001
 40
0.0
 40
0.0
 40
0.0
 40
0.0
 40
0.2499792394
 40
0.5000344283
 40
0.7500788059
 40
1.0
 40
1.0
 40
1.0
 40
1.0
 10
70.1399643939
 20
37.0335618751
 30
0.0
 10
70.1335717262
 20
37.2725624169
 30
0.0
 10
70.0275214074
 20
37.7528438332
 30
0.0
 10
69.616232545
 20
38.3605925582
 30
0.0
 10
69.0115702888
 20
38.7762660189
 30
0.0
 10
68.5319711949
 20
38.8856412984
 30
0.0
 10
68.2930626959
 20
38.8932774762
 30
0.0
  0
SPLINE
  5
3BA
100
AcDbEntity
  8
0
100
AcDbSpline
 62
250
  6
CONTINUOUS
 70
0
 71
3
 72
29
 73
25
 74
0
 42
0.0000001
 43
0.0000001
 44
0.0000000001
 40
0.0
 40
0.0
 40
0.0
 40
0.0
 40
0.0078099224
 40
0.0156215718
 40
0.0175746714
 40
0.0195278018
 40
0.0214809281
 40
0.0234340473
 40
0.027340262
 40
0.031246498
 40
0.0390589685
 40
0.0468714401
 40
0.0624963873
 40
0.0781213392
 40
0.0937462955
 40
0.1249962184
 40
0.1874960815
 40
0.2499959757
 40
0.374996077
 40
0.4999966359
 40
0.6249974347
 40
0.7499982886
 40
0.8749991427
 40
1.0
 40
1.0
 40
1.0
 40
1.0
 10
-70.1399643939
 20
37.0335618751
 30
0.0
 10
-70.1425374949
 20
36.9371844932
 30
0.0
 10
-70.1480711498
 20
36.7444175817
 30
0.0
 10
-70.155960852
 20
36.5276039607
 30
0.0
 10
-70.1619285778
 20
36.3830713995
 30
0.0
 10
-70.1654710141
 20
36.3108263275
 30
0.0
 10
-70.1679004402
 20
36.2385252829
 30
0.0
 10
-70.1682050267
 20
36.1420766427
 30
0.0
 10
-70.1686224836
 20
36.0215262728
 30
0.0
 10
-70.1702717119
 20
35.8286456418
 30
0.0
 10
-70.1715751917
 20
35.5875416193
 30
0.0
 10
-70.1741634999
 20
35.2017772577
 30
0.0
 10
-70.1771680637
 20
34.7195705895
 30
0.0
 10
-70.1808313131
 20
34.1409226693
 30
0.0
 10
-70.1856253033
 20
33.3693913002
 30
0.0
 10
-70.1939009558
 20
32.0192102138
 30
0.0
 10
-70.2054355371
 20
30.0903777334
 30
0.0
 10
-70.2244144104
 20
27.0042445236
 30
0.0
 10
-70.2465192474
 20
23.146558055
 30
0.0
 10
-70.2639556193
 20
18.5172789624
 30
0.0
 10
-70.2714496042
 20
13.8879645243
 30
0.0
 10
-70.2711361656
 20
9.2586422976
 30
0.0
 10
-70.2675412508
 20
4.6293221775
 30
0.0
 10
-70.2663441228
 20
1.5431071469
 30
0.0
 10
-70.2670229694
 20
0.0
 30
0.0
  0
SPLINE
  5
3BB
100
AcDbEntity
  8
0
100
AcDbSpline
 62
250
  6
CONTINUOUS
 70
0
 71
3
 72
11
 73
7
 74
0
 42
0.0000001
 43
0.0000001
 44
0.0000000001
 40
0.0
 40
0.0
 40
0.0
 40
0.0
 40
0.2499211955
 40
0.4999655747
 40
0.7500207666
 40
1.0
 40
1.0
 40
1.0
 40
1.0
 10
-68.2930626959
 20
38.8932774762
 30
0.0
 10
-68.5319711964
 20
38.8856413013
 30
0.0
 10
-69.0115702931
 20
38.7762660161
 30
0.0
 10
-69.616232553
 20
38.3605925518
 30
0.0
 10
-70.027521411
 20
37.7528438245
 30
0.0
 10
-70.1335717265
 20
37.2725624112
 30
0.0
 10
-70.1399643939
 20
37.0335618751
 30
0.0
  0
SPLINE
  5
3BC
100
AcDbEntity
  8
0
100
AcDbSpline
 62
250
  6
CONTINUOUS
 70
0
 71
3
 72
42
 73
38
 74
0
 42
0.0000001
 43
0.0000001
 44
0.0000000001
 40
0.0
 40
0.0
 40
0.0
 40
0.0
 40
0.1250029788
 40
0.2500059506
 40
0.3750089136
 40
0.4375103928
 40
0.5000118706
 40
0.5625133477
 40
0.5937640865
 40
0.6093894557
 40
0.6250147794
 40
0.6406401435
 40
0.6562654943
 40
0.6640781451
 40
0.6718907692
 40
0.675797051
 40
0.6797032832
 40
0.6875157513
 40
0.7031408997
 40
0.7187661487
 40
0.7343912869
 40
0.7500162728
 40
0.78126576
 40
0.8125147098
 40
0.8437633641
 40
0.8750119764
 40
0.9062606331
 40
0.9218849861
 40
0.9375093599
 40
0.9531337547
 40
0.9609459687
 40
0.9687581654
 40
0.9765701713
 40
0.9804763328
 40
0.984382153
 40
0.9921922007
 40
1.0
 40
1.0
 40
1.0
 40
1.0
 10
-34.25
 20
39.0969392559
 30
0.0
 10
-35.6685873196
 20
39.0977389573
 30
0.0
 10
-38.5057611189
 20
39.1005623697
 30
0.0
 10
-42.7615200693
 20
39.1059093447
 30
0.0
 10
-46.3079866681
 20
39.1096673951
 30
0.0
 10
-49.1451609345
 20
39.1113713642
 30
0.0
 10
-51.273041809
 20
39.1116520366
 30
0.0
 10
-53.0462762158
 20
39.1112366863
 30
0.0
 10
-54.2875390799
 20
39.1097596955
 30
0.0
 10
-54.9968327119
 20
39.1096899204
 30
0.0
 10
-55.5287994593
 20
39.1072288332
 30
0.0
 10
-56.0607442368
 20
39.1019920325
 30
0.0
 10
-56.5040232527
 20
39.0969301174
 30
0.0
 10
-56.8586370743
 20
39.0921599409
 30
0.0
 10
-57.080268012
 20
39.0891204048
 30
0.0
 10
-57.2575672076
 20
39.0862322343
 30
0.0
 10
-57.4348866704
 20
39.0854497981
 30
0.0
 10
-57.7451930456
 20
39.0844128453
 30
0.0
 10
-58.1884922979
 20
39.0818363553
 30
0.0
 10
-58.7204067028
 20
39.0744085555
 30
0.0
 10
-59.2523134466
 20
39.0667893985
 30
0.0
 10
-59.9614980678
 20
39.0556007704
 30
0.0
 10
-60.8479474466
 20
39.0404796065
 30
0.0
 10
-61.911658749
 20
39.0214046498
 30
0.0
 10
-62.9753627772
 20
39.0024765371
 30
0.0
 10
-64.0390765861
 20
38.9843033658
 30
0.0
 10
-64.9255133552
 20
38.9696386564
 30
0.0
 10
-65.634669434
 20
38.9583023981
 30
0.0
 10
-66.1665422301
 20
38.9499797434
 30
0.0
 10
-66.609768157
 20
38.9433174043
 30
0.0
 10
-66.9643630005
 20
38.9379970349
 30
0.0
 10
-67.2302660762
 20
38.9337843594
 30
0.0
 10
-67.452004526
 20
38.9324997961
 30
0.0
 10
-67.628948686
 20
38.9206534081
 30
0.0
 10
-67.8059839722
 20
38.9112855871
 30
0.0
 10
-68.0273719285
 20
38.9022863485
 30
0.0
 10
-68.2045015049
 20
38.8961033074
 30
0.0
 10
-68.2930626959
 20
38.8932774762
 30
0.0
  0
SPLINE
  5
3BD
100
AcDbEntity
  8
0
100
AcDbSpline
 62
250
  6
CONTINUOUS
 70
0
 71
3
 72
42
 73
38
 74
0
 42
0.0000001
 43
0.0000001
 44
0.0000000001
 40
0.0
 40
0.0
 40
0.0
 40
0.0
 40
0.0078077993
 40
0.0156178471
 40
0.0195236669
 40
0.0234298285
 40
0.0312418339
 40
0.0390540307
 40
0.0468662445
 40
0.0624906395
 40
0.0781150132
 40
0.0937393662
 40
0.124988023
 40
0.1562366349
 40
0.1874852895
 40
0.2187342396
 40
0.2499837272
 40
0.2656087131
 40
0.2812338512
 40
0.2968590998
 40
0.3124842499
 40
0.3202967251
 40
0.3242029285
 40
0.3281092362
 40
0.335921855
 40
0.3437345056
 40
0.3593598563
 40
0.3749852202
 40
0.3906105436
 40
0.406235913
 40
0.4374866519
 40
0.4999881289
 40
0.5624896069
 40
0.6249910861
 40
0.7499940492
 40
0.8749970211
 40
1.0
 40
1.0
 40
1.0
 40
1.0
 10
-68.2930626959
 20
-38.8932774762
 30
0.0
 10
-68.2045015044
 20
-38.8961033063
 30
0.0
 10
-68.027371956
 20
-38.902286884
 30
0.0
 10
-67.8059838981
 20
-38.9112842226
 30
0.0
 10
-67.6289488227
 20
-38.9206558099
 30
0.0
 10
-67.4520043722
 20
-38.9324970283
 30
0.0
 10
-67.2302660643
 20
-38.9337835424
 30
0.0
 10
-66.9643629849
 20
-38.9379979544
 30
0.0
 10
-66.6097680818
 20
-38.9433136923
 30
0.0
 10
-66.1665422188
 20
-38.9499806586
 30
0.0
 10
-65.6346694047
 20
-38.9583021446
 30
0.0
 10
-64.9255133245
 20
-38.9696384755
 30
0.0
 10
-64.0390766085
 20
-38.984306071
 30
0.0
 10
-62.9753625918
 20
-39.0024672308
 30
0.0
 10
-61.9116587325
 20
-39.0214051576
 30
0.0
 10
-60.8479474077
 20
-39.0404795498
 30
0.0
 10
-59.9614980208
 20
-39.0556003962
 30
0.0
 10
-59.2523134019
 20
-39.066789987
 30
0.0
 10
-58.7204066388
 20
-39.074405796
 30
0.0
 10
-58.1884922747
 20
-39.0818437118
 30
0.0
 10
-57.7451927223
 20
-39.084385955
 30
0.0
 10
-57.4348869914
 20
-39.0854918514
 30
0.0
 10
-57.2575669692
 20
-39.086205
 30
0.0
 10
-57.0802686073
 20
-39.0891537683
 30
0.0
 10
-56.8586368409
 20
-39.0921471638
 30
0.0
 10
-56.5040233425
 20
-39.0969373604
 30
0.0
 10
-56.0607442085
 20
-39.1019905187
 30
0.0
 10
-55.5287994571
 20
-39.1072257414
 30
0.0
 10
-54.996832769
 20
-39.1097022349
 30
0.0
 10
-54.2875391062
 20
-39.1097533921
 30
0.0
 10
-53.0462762563
 20
-39.1112413033
 30
0.0
 10
-51.2730418355
 20
-39.1116504692
 30
0.0
 10
-49.1451609608
 20
-39.1113717749
 30
0.0
 10
-46.3079866884
 20
-39.109667158
 30
0.0
 10
-42.7615200841
 20
-39.1059094257
 30
0.0
 10
-38.5057611261
 20
-39.1005623463
 30
0.0
 10
-35.668587322
 20
-39.0977389573
 30
0.0
 10
-34.25
 20
-39.0969392559
 30
0.0
  0
SPLINE
  5
3BE
100
AcDbEntity
  8
0
100
AcDbSpline
 62
250
  6
CONTINUOUS
 70
0
 71
3
 72
11
 73
7
 74
0
 42
0.0000001
 43
0.0000001
 44
0.0000000001
 40
0.0
 40
0.0
 40
0.0
 40
0.0
 40
0.2499792394
 40
0.5000344283
 40
0.7500788059
 40
1.0
 40
1.0
 40
1.0
 40
1.0
 10
-70.1399643939
 20
-37.0335618751
 30
0.0
 10
-70.1335717262
 20
-37.2725624169
 30
0.0
 10
-70.0275214074
 20
-37.7528438332
 30
0.0
 10
-69.616232545
 20
-38.3605925582
 30
0.0
 10
-69.0115702888
 20
-38.7762660189
 30
0.0
 10
-68.5319711949
 20
-38.8856412984
 30
0.0
 10
-68.2930626959
 20
-38.8932774762
 30
0.0
  0
SPLINE
  5
3BF
100
AcDbEntity
  8
0
100
AcDbSpline
 62
250
  6
CONTINUOUS
 70
0
 71
3
 72
28
 73
24
 74
0
 42
0.0000001
 43
0.0000001
 44
0.0000000001
 40
0.0
 40
0.0
 40
0.0
 40
0.0
 40
0.1250008589
 40
0.2500017146
 40
0.3750025702
 40
0.5000033705
 40
0.6250039311
 40
0.750004034
 40
0.8125039291
 40
0.8750037929
 40
0.9062537162
 40
0.9218786727
 40
0.9375036249
 40
0.9531285723
 40
0.9609410439
 40
0.9687535146
 40
0.9726597508
 40
0.9765659732
 40
0.9785190796
 40
0.9804721952
 40
0.9843784289
 40
0.9921900782
 40
1.0
 40
1.0
 40
1.0
 40
1.0
 10
-70.2670229694
 20
0.0
 30
0.0
 10
-70.2663441211
 20
-1.5431071564
 30
0.0
 10
-70.2675412563
 20
-4.6293222058
 30
0.0
 10
-70.2711361615
 20
-9.2586423538
 30
0.0
 10
-70.271449605
 20
-13.8879646082
 30
0.0
 10
-70.2639556225
 20
-18.5172790745
 30
0.0
 10
-70.2465192478
 20
-23.1465581957
 30
0.0
 10
-70.2244144304
 20
-27.0042446879
 30
0.0
 10
-70.2054353992
 20
-30.0903779162
 30
0.0
 10
-70.1939008827
 20
-32.0192104072
 30
0.0
 10
-70.1856254702
 20
-33.3693915057
 30
0.0
 10
-70.1808310372
 20
-34.1409228728
 30
0.0
 10
-70.1771691766
 20
-34.7195708171
 30
0.0
 10
-70.1741603347
 20
-35.2017774239
 30
0.0
 10
-70.1715799923
 20
-35.5875419139
 30
0.0
 10
-70.1702584635
 20
-35.8286456339
 30
0.0
 10
-70.1686445034
 20
-36.0215269816
 30
0.0
 10
-70.1681231903
 20
-36.1420756111
 30
0.0
 10
-70.1679682246
 20
-36.2385272341
 30
0.0
 10
-70.1644652302
 20
-36.3349178118
 30
0.0
 10
-70.1564755474
 20
-36.5034901629
 30
0.0
 10
-70.1482027222
 20
-36.7444243527
 30
0.0
 10
-70.142537562
 20
-36.9371845032
 30
0.0
 10
-70.1399643939
 20
-37.0335618751
 30
0.0
  0
SPLINE
  5
3C0
100
AcDbEntity
  8
0
100
AcDbSpline
 62
250
  6
CONTINUOUS
 70
0
 71
3
 72
29
 73
25
 74
0
 42
0.0000001
 43
0.0000001
 44
0.0000000001
 40
0.0
 40
0.0
 40
0.0
 40
0.0
 40
0.1250008579
 40
0.2500017126
 40
0.3750025671
 40
0.5000033665
 40
0.6250039261
 40
0.7500040279
 40
0.8125039225
 40
0.8750037858
 40
0.9062537088
 40
0.9218786652
 40
0.9375036172
 40
0.9531285645
 40
0.9609410361
 40
0.9687535067
 40
0.9726597428
 40
0.9765659555
 40
0.9785190766
 40
0.9804721983
 40
0.9824253289
 40
0.9843784277
 40
0.9921900777
 40
1.0
 40
1.0
 40
1.0
 40
1.0
 10
70.2670229694
 20
0.0
 30
0.0
 10
70.2663441211
 20
1.543107153
 30
0.0
 10
70.2675412639
 20
4.6293221949
 30
0.0
 10
70.2711361515
 20
9.2586423318
 30
0.0
 10
70.2714495993
 20
13.8879645752
 30
0.0
 10
70.2639555838
 20
18.5172790306
 30
0.0
 10
70.2465192734
 20
23.146558141
 30
0.0
 10
70.2244144644
 20
27.0042446241
 30
0.0
 10
70.2054353715
 20
30.0903778436
 30
0.0
 10
70.1939010333
 20
32.0192103321
 30
0.0
 10
70.1856252807
 20
33.3693914226
 30
0.0
 10
70.1808313547
 20
34.1409227946
 30
0.0
 10
70.1771678711
 20
34.7195707156
 30
0.0
 10
70.1741640786
 20
35.2017773894
 30
0.0
 10
70.1715736638
 20
35.5875417412
 30
0.0
 10
70.170275521
 20
35.8286457951
 30
0.0
 10
70.1686163884
 20
36.021526351
 30
0.0
 10
70.1682396234
 20
36.1420769677
 30
0.0
 10
70.1678896455
 20
36.2385251967
 30
0.0
 10
70.1654693258
 20
36.3108262353
 30
0.0
 10
70.1619373008
 20
36.3830718087
 30
0.0
 10
70.1559446245
 20
36.5276032582
 30
0.0
 10
70.1480780381
 20
36.7444178751
 30
0.0
 10
70.1425374999
 20
36.9371844946
 30
0.0
 10
70.1399643939
 20
37.0335618751
 30
0.0
  0
SPLINE
  5
3C1
100
AcDbEntity
  8
0
100
AcDbSpline
 62
250
  6
CONTINUOUS
 70
0
 71
3
 72
14
 73
10
 74
0
 42
0.0000001
 43
0.0000001
 44
0.0000000001
 40
0.0
 40
0.0
 40
0.0
 40
0.0
 40
0.0624871885
 40
0.1249828623
 40
0.249973003
 40
0.3749737864
 40
0.4999790571
 40
0.7499895187
 40
1.0
 40
1.0
 40
1.0
 40
1.0
 10
68.25
 20
39.7696626545
 30
0.0
 10
67.5418194259
 20
39.7680403445
 30
0.0
 10
66.1253572106
 20
39.7676453733
 30
0.0
 10
63.292354267
 20
39.7651471131
 30
0.0
 10
59.7508691506
 20
39.7619874827
 30
0.0
 10
55.5009467408
 20
39.7601153263
 30
0.0
 10
49.834138458
 20
39.7608563261
 30
0.0
 10
42.7505651372
 20
39.7609689776
 30
0.0
 10
37.0837067531
 20
39.7613449245
 30
0.0
 10
34.2502774524
 20
39.7614221211
 30
0.0
  0
SPLINE
  5
3C2
100
AcDbEntity
  8
0
100
AcDbSpline
 62
250
  6
CONTINUOUS
 70
0
 71
3
 72
14
 73
10
 74
0
 42
0.0000001
 43
0.0000001
 44
0.0000000001
 40
0.0
 40
0.0
 40
0.0
 40
0.0
 40
0.0624949029
 40
0.1249946365
 40
0.2499941391
 40
0.3749940751
 40
0.4999948132
 40
0.7499973594
 40
1.0
 40
1.0
 40
1.0
 40
1.0
 10
-71.0201889283
 20
37.0
 30
0.0
 10
-71.0188142349
 20
36.2292306924
 30
0.0
 10
-71.0191525047
 20
34.6876287513
 30
0.0
 10
-71.0178892027
 20
31.604368238
 30
0.0
 10
-71.016960698
 20
27.7502112946
 30
0.0
 10
-71.015708821
 20
23.1252089845
 30
0.0
 10
-71.014744664
 20
16.9585021173
 30
0.0
 10
-71.014677045
 20
9.2500950586
 30
0.0
 10
-71.0149825869
 20
3.0833639103
 30
0.0
 10
-71.0149154416
 20
-0.0000022469
 30
0.0
  0
SPLINE
  5
3C3
100
AcDbEntity
  8
0
100
AcDbSpline
 62
250
  6
CONTINUOUS
 70
0
 71
3
 72
14
 73
10
 74
0
 42
0.0000001
 43
0.0000001
 44
0.0000000001
 40
0.0
 40
0.0
 40
0.0
 40
0.0
 40
0.250002641
 40
0.5000051875
 40
0.6250059258
 40
0.7500058619
 40
0.8750053647
 40
0.9375050984
 40
1.0
 40
1.0
 40
1.0
 40
1.0
 10
-71.0149154416
 20
-0.0000022469
 30
0.0
 10
-71.0149826231
 20
-3.083368034
 30
0.0
 10
-71.014677027
 20
-9.2500984417
 30
0.0
 10
-71.0147446667
 20
-16.9585045749
 30
0.0
 10
-71.0157088218
 20
-23.1252107018
 30
0.0
 10
-71.016960696
 20
-27.7502124569
 30
0.0
 10
-71.0178892059
 20
-31.6043689375
 30
0.0
 10
-71.0191525002
 20
-34.6876290634
 30
0.0
 10
-71.0188142449
 20
-36.2292308021
 30
0.0
 10
-71.0201889283
 20
-37.0
 30
0.0
  0
SPLINE
  5
3C4
100
AcDbEntity
  8
RACCORDO
100
AcDbSpline
 62
250
  6
CONTINUOUS
 70
0
 71
3
 72
10
 73
6
 74
0
 42
0.0000001
 43
0.0000001
 44
0.0000000001
 40
0.0
 40
0.0
 40
0.0
 40
0.0
 40
0.2499999856
 40
0.5000000082
 40
1.0
 40
1.0
 40
1.0
 40
1.0
 10
44.7001463828
 20
24.1058676409
 30
0.0
 10
43.8293020482
 20
24.1043539789
 30
0.0
 10
42.0876095322
 20
24.1039347781
 30
0.0
 10
38.6042272053
 20
24.1048804039
 30
0.0
 10
35.9916910529
 20
24.1075881707
 30
0.0
 10
34.25
 20
24.108642375
 30
0.0
  0
SPLINE
  5
3C5
100
AcDbEntity
  8
0
100
AcDbSpline
 62
250
  6
CONTINUOUS
 70
0
 71
3
 72
17
 73
13
 74
0
 42
0.0000001
 43
0.0000001
 44
0.0000000001
 40
0.0
 40
0.0
 40
0.0
 40
0.0
 40
0.1939415971
 40
0.3778289863
 40
0.5460207355
 40
0.6934793634
 40
0.8157343537
 40
0.9091315321
 40
0.944119216
 40
0.9709706637
 40
0.9895521897
 40
1.0
 40
1.0
 40
1.0
 40
1.0
 10
-68.2930626854
 20
38.8932774462
 30
0.0
 10
-68.292627187
 20
38.9500915059
 30
0.0
 10
-68.2913604326
 20
39.0607714667
 30
0.0
 10
-68.2882207722
 20
39.2207016577
 30
0.0
 10
-68.283969034
 20
39.3669809792
 30
0.0
 10
-68.2787773282
 20
39.495172499
 30
0.0
 10
-68.2727818319
 20
39.601363477
 30
0.0
 10
-68.2670323759
 20
39.6746175896
 30
0.0
 10
-68.2617824248
 20
39.7197447301
 30
0.0
 10
-68.2582856689
 20
39.7431459628
 30
0.0
 10
-68.2546767336
 20
39.7589346083
 30
0.0
 10
-68.2519636116
 20
39.7673121525
 30
0.0
 10
-68.2499999999
 20
39.769659961
 30
0.0
  0
SPLINE
  5
3C6
100
AcDbEntity
  8
0
100
AcDbSpline
 62
250
  6
CONTINUOUS
 70
0
 71
3
 72
17
 73
13
 74
0
 42
0.0000001
 43
0.0000001
 44
0.0000000001
 40
0.0
 40
0.0
 40
0.0
 40
0.0
 40
0.1939834257
 40
0.3779932209
 40
0.5463473383
 40
0.6939679392
 40
0.816343413
 40
0.9097750785
 40
0.9447279843
 40
0.9714926542
 40
0.9899039684
 40
1.0
 40
1.0
 40
1.0
 40
1.0
 10
70.1399643948
 20
-37.0335618753
 30
0.0
 10
70.1969775789
 20
-37.0332290783
 30
0.0
 10
70.3080709
 20
-37.0322528209
 30
0.0
 10
70.4686325506
 20
-37.0298177508
 30
0.0
 10
70.6155466362
 20
-37.026509464
 30
0.0
 10
70.7443278514
 20
-37.0224664954
 30
0.0
 10
70.8510287706
 20
-37.0177847556
 30
0.0
 10
70.9246353591
 20
-37.0133121228
 30
0.0
 10
70.970010408
 20
-37.0091941965
 30
0.0
 10
70.9934890753
 20
-37.0065021432
 30
0.0
 10
71.0093317167
 20
-37.0036240513
 30
0.0
 10
71.0177022784
 20
-37.0016191783
 30
0.0
 10
71.0201889283
 20
-37.0
 30
0.0
  0
SPLINE
  5
3C7
100
AcDbEntity
  8
0
100
AcDbSpline
 62
250
  6
CONTINUOUS
 70
0
 71
3
 72
17
 73
13
 74
0
 42
0.0000001
 43
0.0000001
 44
0.0000000001
 40
0.0
 40
0.0
 40
0.0
 40
0.0
 40
0.1939415971
 40
0.3778289863
 40
0.5460207355
 40
0.6934793634
 40
0.8157343537
 40
0.9091315321
 40
0.944119216
 40
0.9709706637
 40
0.9895521897
 40
1.0
 40
1.0
 40
1.0
 40
1.0
 10
68.2930626854
 20
-38.8932774462
 30
0.0
 10
68.292627187
 20
-38.9500915059
 30
0.0
 10
68.2913604326
 20
-39.0607714667
 30
0.0
 10
68.2882207722
 20
-39.2207016577
 30
0.0
 10
68.283969034
 20
-39.3669809792
 30
0.0
 10
68.2787773282
 20
-39.495172499
 30
0.0
 10
68.2727818319
 20
-39.601363477
 30
0.0
 10
68.2670323759
 20
-39.6746175896
 30
0.0
 10
68.2617824248
 20
-39.7197447301
 30
0.0
 10
68.2582856689
 20
-39.7431459628
 30
0.0
 10
68.2546767336
 20
-39.7589346083
 30
0.0
 10
68.2519636116
 20
-39.7673121525
 30
0.0
 10
68.2499999999
 20
-39.769659961
 30
0.0
  0
SPLINE
  5
3C8
100
AcDbEntity
  8
0
100
AcDbSpline
 62
250
  6
CONTINUOUS
 70
0
 71
3
 72
17
 73
13
 74
0
 42
0.0000001
 43
0.0000001
 44
0.0000000001
 40
0.0
 40
0.0
 40
0.0
 40
0.0
 40
0.1939414186
 40
0.3778287035
 40
0.5460204176
 40
0.6934790682
 40
0.8157341226
 40
0.9091313855
 40
0.9441191126
 40
0.9709706009
 40
0.9895521622
 40
1.0
 40
1.0
 40
1.0
 40
1.0
 10
-68.2930626964
 20
-38.8932774775
 30
0.0
 10
-68.2926272066
 20
-38.950091657
 30
0.0
 10
-68.2913604668
 20
-39.0607718702
 30
0.0
 10
-68.2882208217
 20
-39.2207024527
 30
0.0
 10
-68.2839690917
 20
-39.3669821835
 30
0.0
 10
-68.2787773869
 20
-39.4951741072
 30
0.0
 10
-68.2727818849
 20
-39.6013654578
 30
0.0
 10
-68.2670324191
 20
-39.6746198487
 30
0.0
 10
-68.2617824566
 20
-39.7197471764
 30
0.0
 10
-68.2582856918
 20
-39.7431485148
 30
0.0
 10
-68.2546767463
 20
-39.7589372408
 30
0.0
 10
-68.2519636168
 20
-39.7673148276
 30
0.0
 10
-68.25
 20
-39.7696626545
 30
0.0
  0
SPLINE
  5
3C9
100
AcDbEntity
  8
0
100
AcDbSpline
 62
250
  6
CONTINUOUS
 70
0
 71
3
 72
17
 73
13
 74
0
 42
0.0000001
 43
0.0000001
 44
0.0000000001
 40
0.0
 40
0.0
 40
0.0
 40
0.0
 40
0.1939837147
 40
0.3779936806
 40
0.5463478567
 40
0.693968421
 40
0.8163437901
 40
0.909775317
 40
0.9447281522
 40
0.9714927561
 40
0.989904013
 40
1.0
 40
1.0
 40
1.0
 40
1.0
 10
-70.1399643469
 20
-37.0335618618
 30
0.0
 10
-70.1969773429
 20
-37.0332290553
 30
0.0
 10
-70.3080702669
 20
-37.032252782
 30
0.0
 10
-70.4686313005
 20
-37.0298176948
 30
0.0
 10
-70.6155447387
 20
-37.0265093988
 30
0.0
 10
-70.7443253123
 20
-37.0224664288
 30
0.0
 10
-70.8510256372
 20
-37.0177846951
 30
0.0
 10
-70.9246317806
 20
-37.0133120734
 30
0.0
 10
-70.9700065297
 20
-37.0091941596
 30
0.0
 10
-70.9934850282
 20
-37.0065021168
 30
0.0
 10
-71.0093275408
 20
-37.0036240362
 30
0.0
 10
-71.0176980348
 20
-37.0016191727
 30
0.0
 10
-71.0201846556
 20
-36.9999999998
 30
0.0
  0
SPLINE
  5
3CA
100
AcDbEntity
  8
0
100
AcDbSpline
 62
250
  6
CONTINUOUS
 70
0
 71
3
 72
17
 73
13
 74
0
 42
0.0000001
 43
0.0000001
 44
0.0000000001
 40
0.0
 40
0.0
 40
0.0
 40
0.0
 40
0.1939834251
 40
0.3779932198
 40
0.5463473369
 40
0.6939679378
 40
0.8163434118
 40
0.9097750777
 40
0.9447279837
 40
0.9714926539
 40
0.9899039684
 40
1.0
 40
1.0
 40
1.0
 40
1.0
 10
-70.139964394
 20
37.0335618751
 30
0.0
 10
-70.1969775779
 20
37.0332290768
 30
0.0
 10
-70.3080708987
 20
37.0322528171
 30
0.0
 10
-70.4686325488
 20
37.0298177448
 30
0.0
 10
-70.6155466341
 20
37.026509457
 30
0.0
 10
-70.7443278493
 20
37.0224664883
 30
0.0
 10
-70.8510287687
 20
37.0177847494
 30
0.0
 10
-70.9246353574
 20
37.0133121179
 30
0.0
 10
-70.9700104067
 20
37.0091941929
 30
0.0
 10
-70.9934890743
 20
37.0065021406
 30
0.0
 10
-71.0093317162
 20
37.0036240498
 30
0.0
 10
-71.017702278
 20
37.0016191777
 30
0.0
 10
-71.0201889283
 20
37.0
 30
0.0
  0
SPLINE
  5
3CB
100
AcDbEntity
  8
0
100
AcDbSpline
 62
250
  6
CONTINUOUS
 70
0
 71
3
 72
17
 73
13
 74
0
 42
0.0000001
 43
0.0000001
 44
0.0000000001
 40
0.0
 40
0.0
 40
0.0
 40
0.0
 40
0.1939414172
 40
0.3778287009
 40
0.5460204141
 40
0.6934790644
 40
0.8157341189
 40
0.9091313824
 40
0.94411911
 40
0.970970599
 40
0.9895521612
 40
1.0
 40
1.0
 40
1.0
 40
1.0
 10
68.293062696
 20
38.8932774763
 30
0.0
 10
68.2926272069
 20
38.9500916555
 30
0.0
 10
68.2913604683
 20
39.0607718682
 30
0.0
 10
68.2882208245
 20
39.2207024499
 30
0.0
 10
68.2839690951
 20
39.3669821804
 30
0.0
 10
68.2787773904
 20
39.495174104
 30
0.0
 10
68.2727818881
 20
39.6013654548
 30
0.0
 10
68.2670324216
 20
39.6746198463
 30
0.0
 10
68.2617824585
 20
39.7197471745
 30
0.0
 10
68.258285693
 20
39.7431485134
 30
0.0
 10
68.254676747
 20
39.7589372402
 30
0.0
 10
68.251963617
 20
39.7673148274
 30
0.0
 10
68.25
 20
39.7696626545
 30
0.0
  0
SPLINE
  5
3CC
100
AcDbEntity
  8
0
100
AcDbSpline
 62
250
  6
CONTINUOUS
 70
0
 71
3
 72
17
 73
13
 74
0
 42
0.0000001
 43
0.0000001
 44
0.0000000001
 40
0.0
 40
0.0
 40
0.0
 40
0.0
 40
0.1939837147
 40
0.3779936806
 40
0.5463478567
 40
0.693968421
 40
0.8163437901
 40
0.909775317
 40
0.9447281522
 40
0.9714927561
 40
0.989904013
 40
1.0
 40
1.0
 40
1.0
 40
1.0
 10
70.1399643469
 20
37.0335618618
 30
0.0
 10
70.1969773429
 20
37.0332290553
 30
0.0
 10
70.3080702669
 20
37.032252782
 30
0.0
 10
70.4686313005
 20
37.0298176948
 30
0.0
 10
70.6155447387
 20
37.0265093988
 30
0.0
 10
70.7443253123
 20
37.0224664288
 30
0.0
 10
70.8510256372
 20
37.0177846951
 30
0.0
 10
70.9246317806
 20
37.0133120734
 30
0.0
 10
70.9700065297
 20
37.0091941596
 30
0.0
 10
70.9934850282
 20
37.0065021168
 30
0.0
 10
71.0093275408
 20
37.0036240362
 30
0.0
 10
71.0176980348
 20
37.0016191727
 30
0.0
 10
71.0201846556
 20
36.9999999998
 30
0.0
  0
SPLINE
  5
3CD
100
AcDbEntity
  8
RACCORDO
100
AcDbSpline
 62
250
  6
CONTINUOUS
 70
0
 71
3
 72
11
 73
7
 74
0
 42
0.0000001
 43
0.0000001
 44
0.0000000001
 40
0.0
 40
0.0
 40
0.0
 40
0.0
 40
0.2499996497
 40
0.4999999657
 40
0.7500000077
 40
1.0
 40
1.0
 40
1.0
 40
1.0
 10
44.6869516663
 20
25.6913268828
 30
0.0
 10
43.8173005759
 20
25.7047542586
 30
0.0
 10
42.0778001217
 20
25.7183567179
 30
0.0
 10
39.4685374735
 20
25.7223094771
 30
0.0
 10
36.8592673268
 20
25.7201512968
 30
0.0
 10
35.1197557959
 20
25.7181759287
 30
0.0
 10
34.2499999993
 20
25.7186670343
 30
0.0
  0
SPLINE
  5
3CE
100
AcDbEntity
  8
0
100
AcDbSpline
 62
250
  6
CONTINUOUS
 70
0
 71
3
 72
14
 73
10
 74
0
 42
0.0000001
 43
0.0000001
 44
0.0000000001
 40
0.0
 40
0.0
 40
0.0
 40
0.0
 40
0.062487189
 40
0.1249828628
 40
0.2499730035
 40
0.3749737868
 40
0.4999790574
 40
0.7499895189
 40
1.0
 40
1.0
 40
1.0
 40
1.0
 10
-68.25
 20
-39.7696626545
 30
0.0
 10
-67.541819421
 20
-39.7680403299
 30
0.0
 10
-66.1253572029
 20
-39.7676453799
 30
0.0
 10
-63.2923542611
 20
-39.7651471115
 30
0.0
 10
-59.7508691556
 20
-39.7619874737
 30
0.0
 10
-55.5009467594
 20
-39.7601153624
 30
0.0
 10
-49.8341384947
 20
-39.7608563052
 30
0.0
 10
-42.7505651969
 20
-39.7609689852
 30
0.0
 10
-37.0837068309
 20
-39.7613449245
 30
0.0
 10
-34.2502775393
 20
-39.7614221211
 30
0.0
  0
SPLINE
  5
3CF
100
AcDbEntity
  8
0
100
AcDbSpline
 62
250
  6
CONTINUOUS
 70
0
 71
3
 72
14
 73
10
 74
0
 42
0.0000001
 43
0.0000001
 44
0.0000000001
 40
0.0
 40
0.0
 40
0.0
 40
0.0
 40
0.2500104813
 40
0.500020943
 40
0.6250262137
 40
0.7500269973
 40
0.8750171378
 40
0.9375128116
 40
1.0
 40
1.0
 40
1.0
 40
1.0
 10
34.2502774301
 20
-39.7614221211
 30
0.0
 10
37.0837067332
 20
-39.761344916
 30
0.0
 10
42.7505651219
 20
-39.760968982
 30
0.0
 10
49.8341384491
 20
-39.7608563247
 30
0.0
 10
55.5009467382
 20
-39.760115328
 30
0.0
 10
59.7508691508
 20
-39.761987488
 30
0.0
 10
63.2923542682
 20
-39.7651470928
 30
0.0
 10
66.1253572106
 20
-39.7676453771
 30
0.0
 10
67.5418194259
 20
-39.7680403443
 30
0.0
 10
68.25
 20
-39.7696626545
 30
0.0
  0
SPLINE
  5
3D0
100
AcDbEntity
  8
RACCORDO
100
AcDbSpline
 62
250
  6
CONTINUOUS
 70
0
 71
3
 72
10
 73
6
 74
0
 42
0.0000001
 43
0.0000001
 44
0.0000000001
 40
0.0
 40
0.0
 40
0.0
 40
0.0
 40
0.4999999926
 40
0.7500000147
 40
1.0
 40
1.0
 40
1.0
 40
1.0
 10
-34.25
 20
24.1086423712
 30
0.0
 10
-35.9916186474
 20
24.1075888247
 30
0.0
 10
-38.6040462136
 20
24.1048559203
 30
0.0
 10
-42.0872836511
 20
24.1039741769
 30
0.0
 10
-43.8289039076
 20
24.1042962264
 30
0.0
 10
-44.6997119375
 20
24.1058660279
 30
0.0
  0
SPLINE
  5
3D1
100
AcDbEntity
  8
RACCORDO
100
AcDbSpline
 62
250
  6
CONTINUOUS
 70
0
 71
3
 72
11
 73
7
 74
0
 42
0.0000001
 43
0.0000001
 44
0.0000000001
 40
0.0
 40
0.0
 40
0.0
 40
0.0
 40
0.2499999977
 40
0.5000000423
 40
0.7500003951
 40
1.0
 40
1.0
 40
1.0
 40
1.0
 10
-34.25
 20
25.7186670994
 30
0.0
 10
-35.1197560341
 20
25.718176675
 30
0.0
 10
-36.8592681197
 20
25.7201593703
 30
0.0
 10
-39.4685386676
 20
25.7222795737
 30
0.0
 10
-42.077803457
 20
25.7184587578
 30
0.0
 10
-43.8173007449
 20
25.70460666
 30
0.0
 10
-44.6869541629
 20
25.6913268045
 30
0.0
  0
SPLINE
  5
3D2
100
AcDbEntity
  8
RACCORDO
100
AcDbSpline
 62
250
  6
CONTINUOUS
 70
0
 71
3
 72
15
 73
11
 74
0
 42
0.0000001
 43
0.0000001
 44
0.0000000001
 40
0.0
 40
0.0
 40
0.0
 40
0.0
 40
0.1249989386
 40
0.2499940916
 40
0.3749632829
 40
0.499946707
 40
0.6249522875
 40
0.749981169
 40
0.874993813
 40
1.0
 40
1.0
 40
1.0
 40
1.0
 10
-44.7000000004
 20
24.1058687787
 30
0.0
 10
-44.8241434745
 20
24.1062289516
 30
0.0
 10
-45.0732203973
 20
24.0810063261
 30
0.0
 10
-45.430988014
 20
23.9702223207
 30
0.0
 10
-45.7618213271
 20
23.7938318423
 30
0.0
 10
-46.0491039457
 20
23.5529788114
 30
0.0
 10
-46.2858432482
 20
23.2625652472
 30
0.0
 10
-46.4619841964
 20
22.9316786949
 30
0.0
 10
-46.5716774086
 20
22.573323344
 30
0.0
 10
-46.5954952802
 20
22.3241500661
 30
0.0
 10
-46.59497043
 20
22.1999999802
 30
0.0
  0
SPLINE
  5
3D3
100
AcDbEntity
  8
RACCORDO
100
AcDbSpline
 62
250
  6
CONTINUOUS
 70
0
 71
3
 72
25
 73
21
 74
0
 42
0.0000001
 43
0.0000001
 44
0.0000000001
 40
0.0
 40
0.0
 40
0.0
 40
0.0
 40
0.062510387
 40
0.1250048895
 40
0.1562671785
 40
0.1875215576
 40
0.2500014994
 40
0.3124801174
 40
0.3437363505
 40
0.3749889568
 40
0.4374778258
 40
0.4999612055
 40
0.5624543021
 40
0.6249547252
 40
0.6874689064
 40
0.7499735484
 40
0.8124877853
 40
0.8749883857
 40
0.9374919135
 40
1.0
 40
1.0
 40
1.0
 40
1.0
 10
-44.6869540683
 20
25.6913251623
 30
0.0
 10
-44.8029903877
 20
25.6894777812
 30
0.0
 10
-45.0350453465
 20
25.6746738222
 30
0.0
 10
-45.3217310265
 20
25.6280769808
 30
0.0
 10
-45.5487264867
 20
25.5797107723
 30
0.0
 10
-45.7742189836
 20
25.5245707686
 30
0.0
 10
-46.0497044311
 20
25.4322711015
 30
0.0
 10
-46.315065553
 20
25.3136613712
 30
0.0
 10
-46.5170327785
 20
25.1991752593
 30
0.0
 10
-46.7141996434
 20
25.0767628037
 30
0.0
 10
-46.9526033657
 20
24.9109286811
 30
0.0
 10
-47.2175438958
 20
24.684237982
 30
0.0
 10
-47.4567397189
 20
24.4304866188
 30
0.0
 10
-47.6679248117
 20
24.1529802485
 30
0.0
 10
-47.8494529995
 20
23.8551496544
 30
0.0
 10
-47.9976326726
 20
23.5393822635
 30
0.0
 10
-48.1140603214
 20
23.2107971546
 30
0.0
 10
-48.2016987656
 20
22.8734214107
 30
0.0
 10
-48.257621623
 20
22.5292542682
 30
0.0
 10
-48.2706951915
 20
22.2970541421
 30
0.0
 10
-48.2715791829
 20
22.1810107557
 30
0.0
  0
SPLINE
  5
3D4
100
AcDbEntity
  8
RACCORDO
100
AcDbSpline
 62
250
  6
CONTINUOUS
 70
0
 71
3
 72
12
 73
8
 74
0
 42
0.0000001
 43
0.0000001
 44
0.0000000001
 40
0.0
 40
0.0
 40
0.0
 40
0.0
 40
0.1249999375
 40
0.2499999376
 40
0.4999999564
 40
0.749999978
 40
1.0
 40
1.0
 40
1.0
 40
1.0
 10
-46.5949694886
 20
22.2001412745
 30
0.0
 10
-46.5928207238
 20
21.2751381612
 30
0.0
 10
-46.5909303069
 20
19.4251265356
 30
0.0
 10
-46.5886761526
 20
15.7251036189
 30
0.0
 10
-46.5870466878
 20
11.1000730257
 30
0.0
 10
-46.5850070095
 20
5.5500365818
 30
0.0
 10
-46.5837134052
 20
1.8500121824
 30
0.0
 10
-46.5830382121
 20
0.0
 30
0.0
  0
SPLINE
  5
3D5
100
AcDbEntity
  8
0
100
AcDbSpline
 62
7
  6
CONTINUOUS
 70
0
 71
3
 72
29
 73
25
 74
0
 42
0.0000001
 43
0.0000001
 44
0.0000000001
 40
0.0
 40
0.0
 40
0.0
 40
0.0
 40
0.0025704237
 40
0.0097715929
 40
0.021692417
 40
0.0382318651
 40
0.0592316924
 40
0.0844916212
 40
0.1467341113
 40
0.2225062304
 40
0.3088433949
 40
0.4024008477
 40
0.4995984104
 40
0.5967783686
 40
0.6902838074
 40
0.7765729705
 40
0.8523477275
 40
0.9146841561
 40
0.9400323023
 40
0.9611589351
 40
0.9778478429
 40
0.9899413017
 40
0.9973221421
 40
1.0
 40
1.0
 40
1.0
 40
1.0
 10
-106.8392146518
 20
-27.142108
 30
0.0
 10
-106.8386054606
 20
-27.142108
 30
0.0
 10
-106.8385734683
 20
-27.1386348696
 30
0.0
 10
-106.838177271
 20
-27.1345800902
 30
0.0
 10
-106.8385620951
 20
-27.1255187752
 30
0.0
 10
-106.839097482
 20
-27.1140784798
 30
0.0
 10
-106.8401169227
 20
-27.0991262488
 30
0.0
 10
-106.842086721
 20
-27.0735342322
 30
0.0
 10
-106.8455292989
 20
-27.0349603088
 30
0.0
 10
-106.8507265117
 20
-26.9820554067
 30
0.0
 10
-106.8570719446
 20
-26.9217909991
 30
0.0
 10
-106.864312805
 20
-26.8565214007
 30
0.0
 10
-106.8721663056
 20
-26.7887336195
 30
0.0
 10
-106.8803139863
 20
-26.7209930842
 30
0.0
 10
-106.888420237
 20
-26.6558533346
 30
0.0
 10
-106.8961439136
 20
-26.5957740669
 30
0.0
 10
-106.903172514
 20
-26.5430681508
 30
0.0
 10
-106.9085005768
 20
-26.504669686
 30
0.0
 10
-106.9122654526
 20
-26.4791992674
 30
0.0
 10
-106.9145146185
 20
-26.4643086008
 30
0.0
 10
-106.9165270127
 20
-26.4528899561
 30
0.0
 10
-106.9178784819
 20
-26.4438777092
 30
0.0
 10
-106.9193640226
 20
-26.4397972726
 30
0.0
 10
-106.9197013023
 20
-26.436378
 30
0.0
 10
-106.9203359555
 20
-26.436378
 30
0.0
  0
SPLINE
  5
3D6
100
AcDbEntity
  8
0
100
AcDbSpline
 62
250
  6
CONTINUOUS
 70
0
 71
3
 72
24
 73
20
 74
0
 42
0.0000001
 43
0.0000001
 44
0.0000000001
 40
0.0
 40
0.0
 40
0.0
 40
0.0
 40
0.0156164602
 40
0.0234243457
 40
0.0312368615
 40
0.0468618707
 40
0.0624868828
 40
0.0937369256
 40
0.1249869932
 40
0.156237078
 40
0.1874871627
 40
0.2499873194
 40
0.3124875658
 40
0.374988041
 40
0.4999897591
 40
0.6249921765
 40
0.7499947884
 40
0.8749973863
 40
1.0
 40
1.0
 40
1.0
 40
1.0
 10
-103.909700086
 20
-37.0335618751
 30
0.0
 10
-103.9156027891
 20
-36.8408733073
 30
0.0
 10
-103.9220548812
 20
-36.5517421727
 30
0.0
 10
-103.9222267984
 20
-36.1661311082
 30
0.0
 10
-103.9244987722
 20
-35.7804256871
 30
0.0
 10
-103.9264850799
 20
-35.2982181722
 30
0.0
 10
-103.9300735941
 20
-34.526688277
 30
0.0
 10
-103.9343009772
 20
-33.5622741039
 30
0.0
 10
-103.9393134401
 20
-32.4049762979
 30
0.0
 10
-103.9442381397
 20
-31.2476775834
 30
0.0
 10
-103.9508212998
 20
-29.7046125857
 30
0.0
 10
-103.958906046
 20
-27.7757797267
 30
0.0
 10
-103.9677126792
 20
-25.4611729924
 30
0.0
 10
-103.977436168
 20
-22.3750079504
 30
0.0
 10
-103.9854534434
 20
-18.5172703732
 30
0.0
 10
-103.9888055403
 20
-13.8879622476
 30
0.0
 10
-103.988072378
 20
-9.258642864
 30
0.0
 10
-103.9859963215
 20
-4.6293217856
 30
0.0
 10
-103.9855243506
 20
-1.5431072136
 30
0.0
 10
-103.9859813448
 20
0.0
 30
0.0
  0
SPLINE
  5
3D7
100
AcDbEntity
  8
0
100
AcDbSpline
 62
250
  6
CONTINUOUS
 70
0
 71
3
 72
25
 73
21
 74
0
 42
0.0000001
 43
0.0000001
 44
0.0000000001
 40
0.0
 40
0.0
 40
0.0
 40
0.0
 40
0.0156247186
 40
0.0234371971
 40
0.0312496995
 40
0.0468747043
 40
0.0624997091
 40
0.0937497187
 40
0.1249997283
 40
0.156249738
 40
0.1874997477
 40
0.249999767
 40
0.3124997859
 40
0.3749998048
 40
0.437499824
 40
0.4999998437
 40
0.624999875
 40
0.7499999151
 40
0.8749999588
 40
1.0
 40
1.0
 40
1.0
 40
1.0
 10
-102.9696380089
 20
-37.0
 30
0.0
 10
-102.9761923432
 20
-36.8074045615
 30
0.0
 10
-102.9838497066
 20
-36.5184088692
 30
0.0
 10
-102.9858892317
 20
-36.1329923876
 30
0.0
 10
-102.9881419747
 20
-35.7475795001
 30
0.0
 10
-102.9908145844
 20
-35.2658101841
 30
0.0
 10
-102.9951252239
 20
-34.494980608
 30
0.0
 10
-103.000411795
 20
-33.5314426807
 30
0.0
 10
-103.0066712012
 20
-32.3751968769
 30
0.0
 10
-103.0128951194
 20
-31.2189508361
 30
0.0
 10
-103.0212842134
 20
-29.677289954
 30
0.0
 10
-103.0318044618
 20
-27.750214039
 30
0.0
 10
-103.043646728
 20
-25.4377186899
 30
0.0
 10
-103.0537778152
 20
-23.1252150638
 30
0.0
 10
-103.0618936956
 20
-20.8127034168
 30
0.0
 10
-103.0698156472
 20
-17.7293458239
 30
0.0
 10
-103.0743061383
 20
-13.8751372476
 30
0.0
 10
-103.0734642684
 20
-9.2500856489
 30
0.0
 10
-103.0704094092
 20
-4.6250355973
 30
0.0
 10
-103.0696215252
 20
-1.5416676737
 30
0.0
 10
-103.0702621294
 20
0.0000159346
 30
0.0
  0
SPLINE
  5
3D8
100
AcDbEntity
  8
0
100
AcDbSpline
 62
250
  6
CONTINUOUS
 70
0
 71
3
 72
25
 73
21
 74
0
 42
0.0000001
 43
0.0000001
 44
0.0000000001
 40
0.0
 40
0.0
 40
0.0
 40
0.0
 40
0.1250000411
 40
0.2500000846
 40
0.3750001246
 40
0.5000001558
 40
0.5625001755
 40
0.6250001947
 40
0.6875002135
 40
0.7500002324
 40
0.8125002516
 40
0.8437502612
 40
0.8750002708
 40
0.9062502805
 40
0.93750029
 40
0.9531252948
 40
0.9687502996
 40
0.9765628019
 40
0.9843752805
 40
1.0
 40
1.0
 40
1.0
 40
1.0
 10
-103.0702621294
 20
0.0000159346
 30
0.0
 10
-103.0696211794
 20
1.5416982139
 30
0.0
 10
-103.0704096471
 20
4.6250634791
 30
0.0
 10
-103.0734642109
 20
9.2501095426
 30
0.0
 10
-103.0743061528
 20
13.8751571532
 30
0.0
 10
-103.0698155529
 20
17.7293624063
 30
0.0
 10
-103.0618936861
 20
20.8127173413
 30
0.0
 10
-103.0537777544
 20
23.1252269945
 30
0.0
 10
-103.0436467642
 20
25.4377286272
 30
0.0
 10
-103.0318043388
 20
27.7502219812
 30
0.0
 10
-103.0212842114
 20
29.6772962348
 30
0.0
 10
-103.0128949651
 20
31.2189557864
 30
0.0
 10
-103.0066712107
 20
32.3752008308
 30
0.0
 10
-103.0004117754
 20
33.5314456371
 30
0.0
 10
-102.9951252009
 20
34.4949827334
 30
0.0
 10
-102.9908146055
 20
35.2658116449
 30
0.0
 10
-102.9881418397
 20
35.7475805444
 30
0.0
 10
-102.9858894646
 20
36.1329931026
 30
0.0
 10
-102.9838495718
 20
36.5184092608
 30
0.0
 10
-102.9761923875
 20
36.8074047183
 30
0.0
 10
-102.9696380089
 20
37.0
 30
0.0
  0
SPLINE
  5
3D9
100
AcDbEntity
  8
0
100
AcDbSpline
 62
250
  6
CONTINUOUS
 70
0
 71
3
 72
20
 73
16
 74
0
 42
0.0000001
 43
0.0000001
 44
0.0000000001
 40
0.0
 40
0.0
 40
0.0
 40
0.0
 40
0.0032719449
 40
0.0085806362
 40
0.0257913383
 40
0.0518485823
 40
0.0865496011
 40
0.129582412
 40
0.1805627302
 40
0.2390413683
 40
0.3044989791
 40
0.4539881921
 40
0.6237938984
 40
0.8079526474
 40
1.0
 40
1.0
 40
1.0
 40
1.0
 10
-103.9189093435
 20
-38.8932774762
 30
0.0
 10
-103.9173305685
 20
-38.8919997104
 30
0.0
 10
-103.9147357985
 20
-38.8870706585
 30
0.0
 10
-103.9102082347
 20
-38.8718422945
 30
0.0
 10
-103.9060515372
 20
-38.8417364242
 30
0.0
 10
-103.9019515684
 20
-38.7936115107
 30
0.0
 10
-103.8986721098
 20
-38.729213057
 30
0.0
 10
-103.8960333926
 20
-38.6493723874
 30
0.0
 10
-103.8940715262
 20
-38.5547255301
 30
0.0
 10
-103.8927266607
 20
-38.4461553764
 30
0.0
 10
-103.8916982079
 20
-38.2764277217
 30
0.0
 10
-103.8920708976
 20
-38.0375897495
 30
0.0
 10
-103.8948345528
 20
-37.7250800631
 30
0.0
 10
-103.9002872082
 20
-37.3861837025
 30
0.0
 10
-103.9060501348
 20
-37.1527195582
 30
0.0
 10
-103.909700086
 20
-37.0335618751
 30
0.0
  0
SPLINE
  5
3DA
100
AcDbEntity
  8
0
100
AcDbSpline
 62
250
  6
CONTINUOUS
 70
0
 71
3
 72
22
 73
18
 74
0
 42
0.0000001
 43
0.0000001
 44
0.0000000001
 40
0.0
 40
0.0
 40
0.0
 40
0.0
 40
0.1949895908
 40
0.3824910264
 40
0.5552963374
 40
0.6340754072
 40
0.7067408659
 40
0.7725929564
 40
0.8309954774
 40
0.8813848198
 40
0.923279025
 40
0.9562790304
 40
0.9800813893
 40
0.988475262
 40
0.994521042
 40
0.9982640694
 40
1.0
 40
1.0
 40
1.0
 40
1.0
 10
-102.9696380089
 20
37.0
 30
0.0
 10
-102.9657171365
 20
37.1801781795
 30
0.0
 10
-102.9594735838
 20
37.5336474197
 30
0.0
 10
-102.9535303196
 20
38.0468525758
 30
0.0
 10
-102.9509201641
 20
38.4526752713
 30
0.0
 10
-102.9502416881
 20
38.7523654768
 30
0.0
 10
-102.9504043484
 20
38.9532044369
 30
0.0
 10
-102.9512177209
 20
39.1352070907
 30
0.0
 10
-102.9526952159
 20
39.2966208137
 30
0.0
 10
-102.9548457897
 20
39.4358678601
 30
0.0
 10
-102.9577265043
 20
39.551658848
 30
0.0
 10
-102.961285313
 20
39.6427368946
 30
0.0
 10
-102.9652897818
 20
39.7030405335
 30
0.0
 10
-102.9690560428
 20
39.7379735821
 30
0.0
 10
-102.9722375019
 20
39.7548840438
 30
0.0
 10
-102.9744570106
 20
39.7645475221
 30
0.0
 10
-102.9780775853
 20
39.7697451868
 30
0.0
 10
-102.9796799103
 20
39.7696626545
 30
0.0
  0
SPLINE
  5
3DB
100
AcDbEntity
  8
0
100
AcDbSpline
 62
250
  6
CONTINUOUS
 70
0
 71
3
 72
28
 73
24
 74
0
 42
0.0000001
 43
0.0000001
 44
0.0000000001
 40
0.0
 40
0.0
 40
0.0
 40
0.0
 40
0.0795592524
 40
0.1216796043
 40
0.1461764926
 40
0.1678724695
 40
0.2004595254
 40
0.2307631726
 40
0.2922344488
 40
0.3557167399
 40
0.4875545691
 40
0.624017975
 40
0.6912518906
 40
0.7548275758
 40
0.8124302587
 40
0.8619095682
 40
0.8816013657
 40
0.8948325491
 40
0.9087016757
 40
0.9204588325
 40
0.9323359192
 40
0.9725543063
 40
1.0
 40
1.0
 40
1.0
 40
1.0
 10
-103.9189093435
 20
38.8932774762
 30
0.0
 10
-103.9240989038
 20
38.8974700498
 30
0.0
 10
-103.9313813592
 20
38.9050299992
 30
0.0
 10
-103.9363449349
 20
38.9164134505
 30
0.0
 10
-103.9378553614
 20
38.9236523735
 30
0.0
 10
-103.9380961067
 20
38.9304272994
 30
0.0
 10
-103.9428107394
 20
38.9361687054
 30
0.0
 10
-103.9487521697
 20
38.9446050198
 30
0.0
 10
-103.9566053733
 20
38.9550585641
 30
0.0
 10
-103.9690767958
 20
38.9725871877
 30
0.0
 10
-103.9849737195
 20
38.9954325991
 30
0.0
 10
-104.0006046958
 20
39.0188363173
 30
0.0
 10
-104.0122108083
 20
39.0380118796
 30
0.0
 10
-104.0198956807
 20
39.051830767
 30
0.0
 10
-104.0260318388
 20
39.0647516671
 30
0.0
 10
-104.0300053407
 20
39.0746669533
 30
0.0
 10
-104.0314879115
 20
39.0814236246
 30
0.0
 10
-104.0337919384
 20
39.0848499788
 30
0.0
 10
-104.0375103098
 20
39.0855217316
 30
0.0
 10
-104.0381401697
 20
39.0889712818
 30
0.0
 10
-104.0397626817
 20
39.0939347279
 30
0.0
 10
-104.0409803598
 20
39.1006029536
 30
0.0
 10
-104.0406987653
 20
39.1064144183
 30
0.0
 10
-104.0399271642
 20
39.1085827063
 30
0.0
  0
SPLINE
  5
3DC
100
AcDbEntity
  8
0
100
AcDbSpline
 62
7
  6
CONTINUOUS
 70
0
 71
3
 72
9
 73
5
 74
0
 42
0.0000001
 43
0.0000001
 44
0.0000000001
 40
0.0
 40
0.0
 40
0.0
 40
0.0
 40
0.4015769271
 40
1.0
 40
1.0
 40
1.0
 40
1.0
 10
-106.5707540084
 20
-27.6088806669
 30
0.0
 10
-106.5742322868
 20
-27.5426214548
 30
0.0
 10
-106.5883863622
 20
-27.3779523923
 30
0.0
 10
-106.6049180158
 20
-27.2135681918
 30
0.0
 10
-106.6155419109
 20
-27.1152663097
 30
0.0
  0
SPLINE
  5
3DD
100
AcDbEntity
  8
0
100
AcDbSpline
 62
7
  6
CONTINUOUS
 70
0
 71
3
 72
9
 73
5
 74
0
 42
0.0000001
 43
0.0000001
 44
0.0000000001
 40
0.0
 40
0.0
 40
0.0
 40
0.0
 40
0.2464754377
 40
1.0
 40
1.0
 40
1.0
 40
1.0
 10
-106.6155419109
 20
-27.1152663097
 30
0.0
 10
-106.6216032471
 20
-27.0591813466
 30
0.0
 10
-106.6470267717
 20
-26.8317233911
 30
0.0
 10
-106.6749317352
 20
-26.6045486668
 30
0.0
 10
-106.696802085
 20
-26.4334796553
 30
0.0
  0
SPLINE
  5
3DE
100
AcDbEntity
  8
0
100
AcDbSpline
 62
7
  6
CONTINUOUS
 70
0
 71
3
 72
18
 73
14
 74
0
 42
0.0000001
 43
0.0000001
 44
0.0000000001
 40
0.0
 40
0.0
 40
0.0
 40
0.0
 40
0.212498125
 40
0.4069025276
 40
0.5791317332
 40
0.7255361847
 40
0.842982417
 40
0.8900286661
 40
0.9289408364
 40
0.9595024234
 40
0.9815630931
 40
0.9950211315
 40
1.0
 40
1.0
 40
1.0
 40
1.0
 10
-106.696802085
 20
-26.4334796553
 30
0.0
 10
-106.7016467689
 20
-26.3955847294
 30
0.0
 10
-106.7110109572
 20
-26.3230322475
 30
0.0
 10
-106.7245935264
 20
-26.2198060968
 30
0.0
 10
-106.7368823531
 20
-26.1283879798
 30
0.0
 10
-106.747635897
 20
-26.0507445219
 30
0.0
 10
-106.7556146113
 20
-25.9953866925
 30
0.0
 10
-106.761177898
 20
-25.9592992639
 30
0.0
 10
-106.7644957853
 20
-25.9384960197
 30
0.0
 10
-106.7674147326
 20
-25.9226104477
 30
0.0
 10
-106.7695169265
 20
-25.9102056922
 30
0.0
 10
-106.7715633133
 20
-25.9044693925
 30
0.0
 10
-106.7722947628
 20
-25.8998531129
 30
0.0
 10
-106.7731898742
 20
-25.8998531129
 30
0.0
  0
SPLINE
  5
3DF
100
AcDbEntity
  8
0
100
AcDbSpline
 62
250
  6
CONTINUOUS
 70
0
 71
3
 72
20
 73
16
 74
0
 42
0.0000001
 43
0.0000001
 44
0.0000000001
 40
0.0
 40
0.0
 40
0.0
 40
0.0
 40
0.1920473556
 40
0.3762061102
 40
0.5460118154
 40
0.6955010242
 40
0.7609586346
 40
0.8194372719
 40
0.8704175894
 40
0.9134503999
 40
0.9481514185
 40
0.974208662
 40
0.9914193636
 40
0.9967280549
 40
1.0
 40
1.0
 40
1.0
 40
1.0
 10
-103.909700086
 20
37.0335618751
 30
0.0
 10
-103.9060501347
 20
37.15271956
 30
0.0
 10
-103.9002872081
 20
37.3861837096
 30
0.0
 10
-103.8948345525
 20
37.7250800749
 30
0.0
 10
-103.8920708978
 20
38.0375897615
 30
0.0
 10
-103.8916982078
 20
38.2764277302
 30
0.0
 10
-103.8927266609
 20
38.4461553815
 30
0.0
 10
-103.8940715262
 20
38.554725534
 30
0.0
 10
-103.8960333927
 20
38.6493723901
 30
0.0
 10
-103.8986721099
 20
38.7292130589
 30
0.0
 10
-103.9019515684
 20
38.7936115119
 30
0.0
 10
-103.9060515372
 20
38.8417364247
 30
0.0
 10
-103.9102082348
 20
38.8718422942
 30
0.0
 10
-103.9147357987
 20
38.8870706582
 30
0.0
 10
-103.9173305686
 20
38.8919997099
 30
0.0
 10
-103.9189093435
 20
38.8932774762
 30
0.0
  0
SPLINE
  5
3E0
100
AcDbEntity
  8
0
100
AcDbSpline
 62
250
  6
CONTINUOUS
 70
0
 71
3
 72
15
 73
11
 74
0
 42
0.0000001
 43
0.0000001
 44
0.0000000001
 40
0.0
 40
0.0
 40
0.0
 40
0.0
 40
0.184717474
 40
0.2501846868
 40
0.3233264832
 40
0.4104419639
 40
0.5101519192
 40
0.6543228428
 40
0.8187938577
 40
1.0
 40
1.0
 40
1.0
 40
1.0
 10
-104.0399069237
 20
-39.1086383789
 30
0.0
 10
-104.0412965314
 20
-39.1048025044
 30
0.0
 10
-104.0407973893
 20
-39.0988215851
 30
0.0
 10
-104.038968996
 20
-39.0921094025
 30
0.0
 10
-104.0385193097
 20
-39.0866580776
 30
0.0
 10
-104.0322931108
 20
-39.0842950561
 30
0.0
 10
-104.0304840546
 20
-39.0766806929
 30
0.0
 10
-104.0275201232
 20
-39.0683600101
 30
0.0
 10
-104.0231081756
 20
-39.058397567
 30
0.0
 10
-104.0196311634
 20
-39.0516159506
 30
0.0
 10
-104.0177367207
 20
-39.0480904394
 30
0.0
  0
SPLINE
  5
3E1
100
AcDbEntity
  8
0
100
AcDbSpline
 62
250
  6
CONTINUOUS
 70
0
 71
3
 72
17
 73
13
 74
0
 42
0.0000001
 43
0.0000001
 44
0.0000000001
 40
0.0
 40
0.0
 40
0.0
 40
0.0
 40
0.2201210072
 40
0.4418888351
 40
0.548581884
 40
0.6516992061
 40
0.7015466891
 40
0.7266831023
 40
0.7494778495
 40
0.7928801544
 40
0.8690655701
 40
1.0
 40
1.0
 40
1.0
 40
1.0
 10
-104.0177367207
 20
-39.0480904394
 30
0.0
 10
-104.0113117927
 20
-39.036133806
 30
0.0
 10
-103.9969505844
 20
-39.0129295597
 30
0.0
 10
-103.9778292255
 20
-38.985028557
 30
0.0
 10
-103.9624429019
 20
-38.9633126428
 30
0.0
 10
-103.9532322027
 20
-38.9502176311
 30
0.0
 10
-103.9464026518
 20
-38.9415963785
 30
0.0
 10
-103.9431989049
 20
-38.9364861244
 30
0.0
 10
-103.9388898276
 20
-38.9326022804
 30
0.0
 10
-103.9377782858
 20
-38.9233969231
 30
0.0
 10
-103.9344719465
 20
-38.9083600843
 30
0.0
 10
-103.9251897971
 20
-38.8983513633
 30
0.0
 10
-103.9189093435
 20
-38.8932774762
 30
0.0
  0
SPLINE
  5
3E2
100
AcDbEntity
  8
0
100
AcDbSpline
 62
250
  6
CONTINUOUS
 70
0
 71
3
 72
10
 73
6
 74
0
 42
0.0000001
 43
0.0000001
 44
0.0000000001
 40
0.0
 40
0.0
 40
0.0
 40
0.0
 40
0.1071402289
 40
0.3292451539
 40
1.0
 40
1.0
 40
1.0
 40
1.0
 10
-103.909699692
 20
37.0335618618
 30
0.0
 10
-103.876145709
 20
37.0319175459
 30
0.0
 10
-103.7729688814
 20
37.028299947
 30
0.0
 10
-103.4596351232
 20
37.0166598872
 30
0.0
 10
-103.179833305
 20
37.0071729596
 30
0.0
 10
-102.969637785
 20
36.9999999998
 30
0.0
  0
SPLINE
  5
3E3
100
AcDbEntity
  8
RACCORDO
100
AcDbSpline
 62
250
  6
CONTINUOUS
 70
0
 71
3
 72
9
 73
5
 74
0
 42
0.0000001
 43
0.0000001
 44
0.0000000001
 40
0.0
 40
0.0
 40
0.0
 40
0.0
 40
0.5000000855
 40
1.0
 40
1.0
 40
1.0
 40
1.0
 10
-107.4159438965
 20
-0.0
 30
0.0
 10
-107.4149748312
 20
3.6999547159
 30
0.0
 10
-107.4126195859
 20
11.0998619786
 30
0.0
 10
-107.4120359103
 20
18.4997728858
 30
0.0
 10
-107.4072477216
 20
22.1997233657
 30
0.0
  0
SPLINE
  5
3E4
100
AcDbEntity
  8
0
100
AcDbSpline
 62
250
  6
CONTINUOUS
 70
0
 71
3
 72
24
 73
20
 74
0
 42
0.0000001
 43
0.0000001
 44
0.0000000001
 40
0.0
 40
0.0
 40
0.0
 40
0.0
 40
0.1250026136
 40
0.2500052113
 40
0.375007823
 40
0.5000102403
 40
0.6250119583
 40
0.6875124335
 40
0.7500126798
 40
0.8125128364
 40
0.8437629209
 40
0.8750130057
 40
0.9062630733
 40
0.9375131161
 40
0.9531381281
 40
0.9687631374
 40
0.9765756476
 40
0.9843835407
 40
1.0
 40
1.0
 40
1.0
 40
1.0
 10
-103.9859813448
 20
0.0
 30
0.0
 10
-103.9855243571
 20
1.5431072127
 30
0.0
 10
-103.9859963277
 20
4.6293217815
 30
0.0
 10
-103.9880723745
 20
9.2586428548
 30
0.0
 10
-103.9888055482
 20
13.8879622332
 30
0.0
 10
-103.9854534026
 20
18.5172703549
 30
0.0
 10
-103.9774362027
 20
22.37500793
 30
0.0
 10
-103.9677126089
 20
25.4611729686
 30
0.0
 10
-103.9589060447
 20
27.7757796999
 30
0.0
 10
-103.9508213095
 20
29.7046125548
 30
0.0
 10
-103.9442381633
 20
31.2476775504
 30
0.0
 10
-103.9393135184
 20
32.4049762637
 30
0.0
 10
-103.9343006237
 20
33.5622740667
 30
0.0
 10
-103.9300746521
 20
34.5266882451
 30
0.0
 10
-103.9264832533
 20
35.2982181273
 30
0.0
 10
-103.9245042046
 20
35.7804256071
 30
0.0
 10
-103.922217196
 20
36.166130985
 30
0.0
 10
-103.9220606771
 20
36.5517421241
 30
0.0
 10
-103.9156028319
 20
36.8408733197
 30
0.0
 10
-103.909700086
 20
37.0335618751
 30
0.0
  0
SPLINE
  5
3E5
100
AcDbEntity
  8
RACCORDO
100
AcDbSpline
 62
250
  6
CONTINUOUS
 70
0
 71
3
 72
12
 73
8
 74
0
 42
0.0000001
 43
0.0000001
 44
0.0000000001
 40
0.0
 40
0.0
 40
0.0
 40
0.0
 40
0.2500004256
 40
0.5000008476
 40
0.7500012414
 40
0.8750013052
 40
1.0
 40
1.0
 40
1.0
 40
1.0
 10
-106.8589694422
 20
0.0
 30
0.0
 10
-106.8570691277
 20
1.8484227648
 30
0.0
 10
-106.8534179111
 20
5.5452684936
 30
0.0
 10
-106.8477210852
 20
11.0905361995
 30
0.0
 10
-106.8430186735
 20
15.711592813
 30
0.0
 10
-106.8369877674
 20
19.4084212887
 30
0.0
 10
-106.8313087454
 20
21.2568290094
 30
0.0
 10
-106.8258141065
 20
22.1810133228
 30
0.0
  0
SPLINE
  5
3E6
100
AcDbEntity
  8
RACCORDO
100
AcDbSpline
 62
250
  6
CONTINUOUS
 70
0
 71
3
 72
22
 73
18
 74
0
 42
0.0000001
 43
0.0000001
 44
0.0000000001
 40
0.0
 40
0.0
 40
0.0
 40
0.0
 40
0.1945750783
 40
0.3815617932
 40
0.5540373844
 40
0.7056062863
 40
0.7717905012
 40
0.8306686468
 40
0.8811696279
 40
0.9230916814
 40
0.9563209687
 40
0.9695884646
 40
0.9805779951
 40
0.9891741664
 40
0.9952808473
 40
0.9988889078
 40
1.0
 40
1.0
 40
1.0
 40
1.0
 10
-107.407247081
 20
22.2000000001
 30
0.0
 10
-107.4068644839
 20
22.3236136424
 30
0.0
 10
-107.406320683
 20
22.5660210798
 30
0.0
 10
-107.406767994
 20
22.9180029346
 30
0.0
 10
-107.4061213963
 20
23.2426631818
 30
0.0
 10
-107.4048722876
 20
23.4905731662
 30
0.0
 10
-107.4033302184
 20
23.6663136054
 30
0.0
 10
-107.401738258
 20
23.7778342163
 30
0.0
 10
-107.4012740911
 20
23.8739708063
 30
0.0
 10
-107.4010470695
 20
23.9537561582
 30
0.0
 10
-107.4005593571
 20
24.0100247911
 30
0.0
 10
-107.400067412
 20
24.0463910871
 30
0.0
 10
-107.3995257847
 20
24.0675818641
 30
0.0
 10
-107.3993361597
 20
24.0830572932
 30
0.0
 10
-107.3986436715
 20
24.0965816695
 30
0.0
 10
-107.3994096043
 20
24.1002107014
 30
0.0
 10
-107.3986284763
 20
24.1064245322
 30
0.0
 10
-107.3990639262
 20
24.1058689684
 30
0.0
  0
SPLINE
  5
3E7
100
AcDbEntity
  8
RACCORDO
100
AcDbSpline
 62
250
  6
CONTINUOUS
 70
0
 71
3
 72
14
 73
10
 74
0
 42
0.0000001
 43
0.0000001
 44
0.0000000001
 40
0.0
 40
0.0
 40
0.0
 40
0.0
 40
0.0266753571
 40
0.0824124578
 40
0.1669930378
 40
0.2799096606
 40
0.4205463611
 40
0.5881228181
 40
1.0
 40
1.0
 40
1.0
 40
1.0
 10
-106.8258187092
 20
22.1810133512
 30
0.0
 10
-106.8307725266
 20
22.1825058216
 30
0.0
 10
-106.8469186779
 20
22.1834060283
 30
0.0
 10
-106.8790698696
 20
22.1859335079
 30
0.0
 10
-106.9282275579
 20
22.1878395709
 30
0.0
 10
-106.9937336318
 20
22.1902314956
 30
0.0
 10
-107.0753928865
 20
22.1925456325
 30
0.0
 10
-107.2150077209
 20
22.1960138586
 30
0.0
 10
-107.327375347
 20
22.1982500946
 30
0.0
 10
-107.4072464634
 20
22.1997233557
 30
0.0
  0
SPLINE
  5
3E8
100
AcDbEntity
  8
RACCORDO
100
AcDbSpline
 62
250
  6
CONTINUOUS
 70
0
 71
3
 72
22
 73
18
 74
0
 42
0.0000001
 43
0.0000001
 44
0.0000000001
 40
0.0
 40
0.0
 40
0.0
 40
0.0
 40
0.1969333084
 40
0.386462634
 40
0.5608266343
 40
0.71181559
 40
0.7763792723
 40
0.8333684569
 40
0.8839674248
 40
0.9247124091
 40
0.9559962081
 40
0.9680151013
 40
0.9782280445
 40
0.9868587972
 40
0.9936439685
 40
0.9980433328
 40
1.0
 40
1.0
 40
1.0
 40
1.0
 10
-106.8258187092
 20
22.1810133512
 30
0.0
 10
-106.8244592806
 20
22.4114569778
 30
0.0
 10
-106.8227857635
 20
22.8636883226
 30
0.0
 10
-106.824422679
 20
23.5199570669
 30
0.0
 10
-106.8224028145
 20
24.1224620656
 30
0.0
 10
-106.8184439423
 20
24.5787220921
 30
0.0
 10
-106.8133424076
 20
24.897607033
 30
0.0
 10
-106.8083300004
 20
25.0989967272
 30
0.0
 10
-106.8065843722
 20
25.2725701165
 30
0.0
 10
-106.8063158325
 20
25.4160662116
 30
0.0
 10
-106.805093865
 20
25.514413341
 30
0.0
 10
-106.8035858726
 20
25.5770183538
 30
0.0
 10
-106.8020302317
 20
25.6131057501
 30
0.0
 10
-106.8006726784
 20
25.6430508177
 30
0.0
 10
-106.7996260034
 20
25.6662514769
 30
0.0
 10
-106.7995274568
 20
25.6815647929
 30
0.0
 10
-106.7991985835
 20
25.6890794979
 30
0.0
 10
-106.7996358432
 20
25.691327013
 30
0.0
  0
SPLINE
  5
3E9
100
AcDbEntity
  8
0
100
AcDbSpline
 62
250
  6
CONTINUOUS
 70
0
 71
3
 72
10
 73
6
 74
0
 42
0.0000001
 43
0.0000001
 44
0.0000000001
 40
0.0
 40
0.0
 40
0.0
 40
0.0
 40
0.107139402
 40
0.3292440483
 40
1.0
 40
1.0
 40
1.0
 40
1.0
 10
-103.9097000929
 20
-37.0335618753
 30
0.0
 10
-103.8761463622
 20
-37.0319175796
 30
0.0
 10
-103.7729698615
 20
-37.0283000003
 30
0.0
 10
-103.4596360441
 20
-37.0166599365
 30
0.0
 10
-103.1798339145
 20
-37.0071729861
 30
0.0
 10
-102.9696380089
 20
-37.0
 30
0.0
  0
SPLINE
  5
3EA
100
AcDbEntity
  8
0
100
AcDbSpline
 62
250
  6
CONTINUOUS
 70
0
 71
3
 72
22
 73
18
 74
0
 42
0.0000001
 43
0.0000001
 44
0.0000000001
 40
0.0
 40
0.0
 40
0.0
 40
0.0
 40
0.0017359305
 40
0.005478958
 40
0.0115247381
 40
0.0199186109
 40
0.04372097
 40
0.076720976
 40
0.1186151816
 40
0.1690045247
 40
0.2274070466
 40
0.2932591377
 40
0.3659245979
 40
0.4447036708
 40
0.617508983
 40
0.8050104124
 40
1.0
 40
1.0
 40
1.0
 40
1.0
 10
-102.9796799103
 20
-39.7696626545
 30
0.0
 10
-102.9780775854
 20
-39.7697451867
 30
0.0
 10
-102.9744570113
 20
-39.7645475214
 30
0.0
 10
-102.9722375017
 20
-39.7548840437
 30
0.0
 10
-102.9690560422
 20
-39.7379735817
 30
0.0
 10
-102.9652897813
 20
-39.7030405327
 30
0.0
 10
-102.9612853135
 20
-39.6427368929
 30
0.0
 10
-102.9577265041
 20
-39.5516588452
 30
0.0
 10
-102.9548457895
 20
-39.4358678558
 30
0.0
 10
-102.9526952159
 20
-39.2966208075
 30
0.0
 10
-102.9512177208
 20
-39.1352070826
 30
0.0
 10
-102.9504043484
 20
-38.953204426
 30
0.0
 10
-102.9502416882
 20
-38.7523654611
 30
0.0
 10
-102.950920164
 20
-38.4526752503
 30
0.0
 10
-102.9535303199
 20
-38.0468525566
 30
0.0
 10
-102.9594735839
 20
-37.5336474081
 30
0.0
 10
-102.9657171366
 20
-37.1801781765
 30
0.0
 10
-102.9696380089
 20
-37.0
 30
0.0
  0
SPLINE
  5
3EB
100
AcDbEntity
  8
RACCORDO
100
AcDbSpline
 62
250
  6
CONTINUOUS
 70
0
 71
3
 72
22
 73
18
 74
0
 42
0.0000001
 43
0.0000001
 44
0.0000000001
 40
0.0
 40
0.0
 40
0.0
 40
0.0
 40
0.0011063006
 40
0.0047132761
 40
0.0108368617
 40
0.0194310093
 40
0.0304076139
 40
0.0436882429
 40
0.0769251513
 40
0.1188484065
 40
0.169364963
 40
0.2282434238
 40
0.2944333498
 40
0.4460160196
 40
0.6185098306
 40
0.8054750412
 40
1.0
 40
1.0
 40
1.0
 40
1.0
 10
-107.3990640703
 20
-24.1058687792
 30
0.0
 10
-107.3986352045
 20
-24.1064256038
 30
0.0
 10
-107.3993813786
 20
-24.1002133703
 30
0.0
 10
-107.39863661
 20
-24.0965898429
 30
0.0
 10
-107.3993544885
 20
-24.0830468824
 30
0.0
 10
-107.3995305742
 20
-24.0675726197
 30
0.0
 10
-107.4000373033
 20
-24.0463815601
 30
0.0
 10
-107.4005771312
 20
-24.0100116835
 30
0.0
 10
-107.4010427825
 20
-23.9537282737
 30
0.0
 10
-107.4012622846
 20
-23.8739276608
 30
0.0
 10
-107.4017587201
 20
-23.7777803006
 30
0.0
 10
-107.4033222519
 20
-23.6662457023
 30
0.0
 10
-107.4048781373
 20
-23.4904927716
 30
0.0
 10
-107.4061157057
 20
-23.2425587035
 30
0.0
 10
-107.4067661403
 20
-22.9178917583
 30
0.0
 10
-107.4063006899
 20
-22.5659437545
 30
0.0
 10
-107.4068588868
 20
-22.3235817874
 30
0.0
 10
-107.4072470658
 20
-22.1999999802
 30
0.0
  0
SPLINE
  5
3EC
100
AcDbEntity
  8
RACCORDO
100
AcDbSpline
 62
250
  6
CONTINUOUS
 70
0
 71
3
 72
21
 73
17
 74
0
 42
0.0000001
 43
0.0000001
 44
0.0000000001
 40
0.0
 40
0.0
 40
0.0
 40
0.0
 40
0.0019896531
 40
0.0063467066
 40
0.0130179948
 40
0.0217375099
 40
0.0440486802
 40
0.0753224289
 40
0.1162225619
 40
0.1666261163
 40
0.2236633603
 40
0.2882108045
 40
0.4392275798
 40
0.6136627993
 40
0.803082573
 40
1.0
 40
1.0
 40
1.0
 40
1.0
 10
-106.7996112431
 20
-25.6913251634
 30
0.0
 10
-106.7991721727
 20
-25.6890386869
 30
0.0
 10
-106.7995416931
 20
-25.6815347534
 30
0.0
 10
-106.7996597527
 20
-25.6663654149
 30
0.0
 10
-106.8007754824
 20
-25.6432473335
 30
0.0
 10
-106.8026492835
 20
-25.5991882553
 30
0.0
 10
-106.8050313776
 20
-25.5263027997
 30
0.0
 10
-106.8063852601
 20
-25.415746632
 30
0.0
 10
-106.8065272268
 20
-25.2723070604
 30
0.0
 10
-106.808479734
 20
-25.0987277564
 30
0.0
 10
-106.8132679983
 20
-24.8975255427
 30
0.0
 10
-106.8185013266
 20
-24.5785734925
 30
0.0
 10
-106.8223690686
 20
-24.1222156266
 30
0.0
 10
-106.8244907338
 20
-23.5197241809
 30
0.0
 10
-106.8226595291
 20
-22.8635193343
 30
0.0
 10
-106.8244523452
 20
-22.4114354926
 30
0.0
 10
-106.8258237024
 20
-22.1810107557
 30
0.0
  0
SPLINE
  5
3ED
100
AcDbEntity
  8
RACCORDO
100
AcDbSpline
 62
250
  6
CONTINUOUS
 70
0
 71
3
 72
10
 73
6
 74
0
 42
0.0000001
 43
0.0000001
 44
0.0000000001
 40
0.0
 40
0.0
 40
0.0
 40
0.0
 40
0.2499998865
 40
0.4999999208
 40
1.0
 40
1.0
 40
1.0
 40
1.0
 10
-107.4072474838
 20
-22.2001412745
 30
0.0
 10
-107.4096505089
 20
-20.3501317207
 30
0.0
 10
-107.4116769497
 20
-16.6501083077
 30
0.0
 10
-107.4135111575
 20
-9.2500609723
 30
0.0
 10
-107.4149747567
 20
-3.7000243673
 30
0.0
 10
-107.4159438403
 20
-0.0
 30
0.0
  0
SPLINE
  5
3EE
100
AcDbEntity
  8
RACCORDO
100
AcDbSpline
 62
250
  6
CONTINUOUS
 70
0
 71
3
 72
14
 73
10
 74
0
 42
0.0000001
 43
0.0000001
 44
0.0000000001
 40
0.0
 40
0.0
 40
0.0
 40
0.0
 40
0.0266870053
 40
0.0824288684
 40
0.1670111654
 40
0.2799273731
 40
0.4205618901
 40
0.5881345892
 40
1.0
 40
1.0
 40
1.0
 40
1.0
 10
-106.8258141154
 20
-22.1810106962
 30
0.0
 10
-106.8307604922
 20
-22.1825361052
 30
0.0
 10
-106.8469171368
 20
-22.1834620346
 30
0.0
 10
-106.8790628389
 20
-22.1860457415
 30
0.0
 10
-106.928225453
 20
-22.1879978797
 30
0.0
 10
-106.9937308613
 20
-22.1904441193
 30
0.0
 10
-107.0753915261
 20
-22.1928106665
 30
0.0
 10
-107.2150069219
 20
-22.1963551578
 30
0.0
 10
-107.3273756892
 20
-22.1986382172
 30
0.0
 10
-107.4072474838
 20
-22.2001412745
 30
0.0
  0
SPLINE
  5
3EF
100
AcDbEntity
  8
RACCORDO
100
AcDbSpline
 62
250
  6
CONTINUOUS
 70
0
 71
3
 72
12
 73
8
 74
0
 42
0.0000001
 43
0.0000001
 44
0.0000000001
 40
0.0
 40
0.0
 40
0.0
 40
0.0
 40
0.1249986959
 40
0.2499987596
 40
0.4999991531
 40
0.7499995747
 40
1.0
 40
1.0
 40
1.0
 40
1.0
 10
-106.8258141154
 20
-22.1810106962
 30
0.0
 10
-106.8313077349
 20
-21.2568264781
 30
0.0
 10
-106.8369889349
 20
-19.40841898
 30
0.0
 10
-106.8430179678
 20
-15.7115909304
 30
0.0
 10
-106.8477213615
 20
-11.090534873
 30
0.0
 10
-106.8534178342
 20
-5.5452678298
 30
0.0
 10
-106.8570691283
 20
-1.8484225436
 30
0.0
 10
-106.8589694427
 20
-0.0
 30
0.0
  0
SPLINE
  5
3F0
100
AcDbEntity
  8
0
100
AcDbSpline
 62
7
  6
CONTINUOUS
 70
0
 71
3
 72
19
 73
15
 74
0
 42
0.0000001
 43
0.0000001
 44
0.0000000001
 40
0.0
 40
0.0
 40
0.0
 40
0.0
 40
0.0049860964
 40
0.0185534925
 40
0.0408039078
 40
0.0716254616
 40
0.1108493811
 40
0.158240251
 40
0.2135271899
 40
0.2763782991
 40
0.4232841398
 40
0.595563652
 40
0.7892678065
 40
1.0
 40
1.0
 40
1.0
 40
1.0
 10
-106.9740451868
 20
-25.8998531129
 30
0.0
 10
-106.9730842255
 20
-25.8998531129
 30
0.0
 10
-106.9723777011
 20
-25.9048784572
 30
0.0
 10
-106.9701712754
 20
-25.9110506239
 30
0.0
 10
-106.9679794414
 20
-25.9244914763
 30
0.0
 10
-106.9648769134
 20
-25.9416648714
 30
0.0
 10
-106.961365217
 20
-25.9641567255
 30
0.0
 10
-106.9572735738
 20
-25.9911504031
 30
0.0
 10
-106.9526948173
 20
-26.0227381647
 30
0.0
 10
-106.9455559047
 20
-26.0733117668
 30
0.0
 10
-106.9356047435
 20
-26.1462696418
 30
0.0
 10
-106.9225908277
 20
-26.2442560545
 30
0.0
 10
-106.9082524412
 20
-26.3544773609
 30
0.0
 10
-106.8983820179
 20
-26.4317961292
 30
0.0
 10
-106.8932875922
 20
-26.4720893846
 30
0.0
  0
LINE
  5
3F1
100
AcDbEntity
  8
0
100
AcDbLine
 62
7
  6
CONTINUOUS
 10
-106.8932875922
 20
-26.4720893846
 11
-106.8864052756
 21
-26.5267675628
  0
SPLINE
  5
3F2
100
AcDbEntity
  8
0
100
AcDbSpline
 62
7
  6
CONTINUOUS
 70
0
 71
3
 72
9
 73
5
 74
0
 42
0.0000001
 43
0.0000001
 44
0.0000000001
 40
0.0
 40
0.0
 40
0.0
 40
0.0
 40
0.5966237219
 40
1.0
 40
1.0
 40
1.0
 40
1.0
 10
-106.8121416923
 20
-27.1615453538
 30
0.0
 10
-106.802724077
 20
-27.2503692237
 30
0.0
 10
-106.7879875355
 20
-27.3993456873
 30
0.0
 10
-106.7754440877
 20
-27.5485736572
 30
0.0
 10
-106.7722740566
 20
-27.6088806669
 30
0.0
  0
ELLIPSE
  5
3F3
100
AcDbEntity
  8
0
100
AcDbEllipse
 62
7
  6
CONTINUOUS
 10
-71.2237961104
 20
-4.1331429141
 30
0.0
 11
-0.0
 21
0.5
 31
0.0
 40
0.0524077793
 41
0.0872664626
 42
1.5707963268
  0
ELLIPSE
  5
3F4
100
AcDbEntity
  8
0
100
AcDbEllipse
 62
7
  6
CONTINUOUS
 10
-71.2237961104
 20
4.1331429141
 30
0.0
 11
0.0
 21
0.5
 31
0.0
 40
0.0524077793
 41
-4.7123889804
 42
-3.2288591162
  0
ELLIPSE
  5
3F5
100
AcDbEntity
  8
0
100
AcDbEllipse
 62
7
  6
CONTINUOUS
 10
71.2237961104
 20
4.1331429141
 30
0.0
 11
0.0
 21
0.5
 31
0.0
 40
0.0524077793
 41
-3.054326191
 42
-1.5707963268
  0
ELLIPSE
  5
3F6
100
AcDbEntity
  8
0
100
AcDbEllipse
 62
7
  6
CONTINUOUS
 10
71.2237961104
 20
-4.1331429141
 30
0.0
 11
0.0
 21
0.5
 31
0.0
 40
0.0524077793
 41
-1.5707963268
 42
-0.0872664626
  0
ELLIPSE
  5
3F7
100
AcDbEntity
  8
0
100
AcDbEllipse
 62
7
  6
CONTINUOUS
 10
-71.1713883311
 20
3.041834413
 30
0.0
 11
-0.0
 21
0.5
 31
0.0
 40
0.0524077793
 41
-1.5707963268
 42
-0.0872664626
  0
ELLIPSE
  5
3F8
100
AcDbEntity
  8
0
100
AcDbEllipse
 62
7
  6
CONTINUOUS
 10
-71.1713883311
 20
-3.041834413
 30
0.0
 11
0.0
 21
0.5
 31
0.0
 40
0.0524077793
 41
-3.054326191
 42
-1.5707963268
  0
ELLIPSE
  5
3F9
100
AcDbEntity
  8
0
100
AcDbEllipse
 62
7
  6
CONTINUOUS
 10
71.1713883311
 20
-3.041834413
 30
0.0
 11
0.0
 21
0.5
 31
0.0
 40
0.0524077793
 41
-4.7123889804
 42
-3.2288591162
  0
ELLIPSE
  5
3FA
100
AcDbEntity
  8
0
100
AcDbEllipse
 62
7
  6
CONTINUOUS
 10
71.1713883311
 20
3.041834413
 30
0.0
 11
-0.0
 21
0.5
 31
0.0
 40
0.0524077793
 41
0.0872664626
 42
1.5707963268
  0
ENDSEC
  0
SECTION
  2
OBJECTS
  0
DICTIONARY
  5
C
100
AcDbDictionary
280
0
281
1
  3
ACAD_GROUP
350
D
  3
ACAD_MLINESTYLE
350
17
  3
ACAD_LAYOUT
350
1A
  3
ACAD_PLOTSETTINGS
350
19
  3
ACAD_PLOTSTYLENAME
350
E
  0
DICTIONARY
  5
D
102
{ACAD_REACTORS
330
C
102
}
100
AcDbDictionary
280
0
281
1
  0
ACDBDICTIONARYWDFLT
  5
E
102
{ACAD_REACTORS
330
C
102
}
100
AcDbDictionary
281
1
  3
Normal
350
F
100
AcDbDictionaryWithDefault
340
F
  0
DICTIONARY
  5
17
102
{ACAD_REACTORS
330
C
102
}
100
AcDbDictionary
280
0
281
1
  3
Standard
350
18
  0
DICTIONARY
  5
19
102
{ACAD_REACTORS
330
C
102
}
100
AcDbDictionary
281
1
  0
DICTIONARY
  5
1A
102
{ACAD_REACTORS
330
C
102
}
100
AcDbDictionary
281
1
  3
Model
350
3FB
  3
Layout1
350
3FC
  0
ACDBPLACEHOLDER
  5
F
102
{ACAD_REACTORS
330
E
102
}
  0
MLINESTYLE
  5
18
102
{ACAD_REACTORS
330
17
102
}
100
AcDbMlineStyle
  2
STANDARD
 70
0
  3

 62
256
 51
90.0
 52
90.0
 71
2
 49
0.5
 62
256
  6
BYLAYER
 49
-0.5
 62
256
  6
BYLAYER
  0
LAYOUT
  5
3FB
102
{ACAD_REACTORS
330
1A
102
}
100
AcDbPlotSettings
  1

  2
none_device
  4
ANSI_C_(22.00_x_17.00_Inches)
  6

 40
0.0
 41
0.0
 42
0.0
 43
0.0
 44
558.8
 45
431.8
 46
0.0
 47
0.0
 48
0.0
 49
0.0
140
0.0
141
0.0
142
1.0
143
1.0
 70
1024
 72
1
 73
0
 74
0
  7

 75
0
147
1.0
148
0.0
149
0.0
100
AcDbLayout
  1
Model
 70
0
 71
0
 10
0.0
 20
0.0
 11
558.8
 21
431.8
 12
0.0
 22
0.0
 32
0.0
 14
0.0
 24
0.0
 34
0.0
 15
0.0
 25
0.0
 35
0.0
146
0.0
 13
0.0
 23
0.0
 33
0.0
 16
1.0
 26
0.0
 36
0.0
 17
0.0
 27
1.0
 37
0.0
 76
0
330
213
345
0
346
0
  0
LAYOUT
  5
3FC
102
{ACAD_REACTORS
330
1A
102
}
100
AcDbPlotSettings
  1

  2
none_device
  4
ANSI_C_(22.00_x_17.00_Inches)
  6

 40
0.0
 41
0.0
 42
0.0
 43
0.0
 44
558.8
 45
431.8
 46
0.0
 47
0.0
 48
0.0
 49
0.0
140
0.0
141
0.0
142
1.0
143
1.0
 70
0
 72
1
 73
0
 74
0
  7

 75
0
147
1.0
148
0.0
149
0.0
100
AcDbLayout
  1
Layout1
 70
0
 71
1
 10
0.0
 20
0.0
 11
558.8
 21
431.8
 12
0.0
 22
0.0
 32
0.0
 14
0.0
 24
0.0
 34
0.0
 15
0.0
 25
0.0
 35
0.0
146
0.0
 13
0.0
 23
0.0
 33
0.0
 16
1.0
 26
0.0
 36
0.0
 17
0.0
 27
1.0
 37
0.0
 76
0
330
214
345
0
346
0
  0
ENDSEC
  0
EOF
