  0
SECTION
  2
HEADER
  9
$ACADVER
  1
AC1024
  9
$DWGCODEPAGE
  3
ANSI_1252
  9
$EXTMAX
 10
297.0
 20
210.0
 30
0.0
  9
$EXTMIN
 10
0.0
 20
0.0
 30
0.0
  9
$LIMMIN
 10
0.0
 20
0.0
  9
$LIMMAX
 10
297.0
 20
210.0
  9
$VIEWCTR
 10
148.5
 20
105.0
  9
$VIEWSIZE
 40
210.0
  9
$CLAYER
  8
0
  9
$LTSCALE
 40
16.335
  9
$CELTYPE
  6
BYLAYER
  9
$DIMSCALE
 40
1.0
  9
$DIMASZ
 40
3.0
  9
$DIMEXO
 40
0.5
  9
$DIMDLI
 40
11.286
  9
$DIMEXE
 40
1.5
  9
$DIMCEN
 40
2.673
  9
$DIMLFAC
 40
1.0
  9
$DIMBLK
  1
_FILLED
  9
$DIMALT
 70
0
  9
$DIMALTF
 40
0.0393700787
  9
$DIMTXT
 40
3.0
  9
$DIMTOL
 70
1
  9
$DIMLIM
 70
0
  9
$DIMTFAC
 40
1.0
  9
$DIMTP
 40
0.01
  9
$DIMTM
 40
0.01
  9
$DIMGAP
 40
0.625
  9
$DIMDSEP
 70
44
  9
$AUNITS
 70
0
  9
$PDMODE
 70
3
  9
$PDSIZE
 40
3.0
  9
$HANDSEED
  5
5DA
  9
$TILEMODE
 70
1
  9
$MEASUREMENT
 70
1
  9
$INSUNITS
 70
4
  0
ENDSEC
  0
SECTION
  2
CLASSES
  0
CLASS
  1
ACDBDICTIONARYWDFLT
  2
AcDbDictionaryWithDefault
  3
AutoCAD 2000
 90
0
 91
1
280
0
281
0
  0
CLASS
  1
ACDBPLACEHOLDER
  2
AcDbPlaceHolder
  3
AutoCAD 2000
 90
0
 91
1
280
0
281
0
  0
CLASS
  1
LAYOUT
  2
AcDbLayout
  3
AutoCAD 2000
 90
0
 91
0
280
0
281
0
  0
ENDSEC
  0
SECTION
  2
TABLES
  0
TABLE
  2
VPORT
  5
8
100
AcDbSymbolTable
 70
2
  0
VPORT
  5
1F4
100
AcDbSymbolTableRecord
100
AcDbViewportTableRecord
  2
*ACTIVE
 70
0
 10
0.0
 20
0.0
 11
1.0
 21
1.0
 12
148.5
 22
105.0
 13
0.0
 23
0.0
 14
1.0
 24
1.0
 15
0.0
 25
0.0
 16
0.0
 26
0.0
 36
1.0
 17
0.0
 27
0.0
 37
0.0
 40
210.0
 41
1.4142857143
 42
50.0
 43
0.0
 44
0.0
 50
0.0
 51
0.0
 71
0
 72
100
 73
1
 74
1
 75
0
 76
0
 77
0
 78
0
  0
ENDTAB
  0
TABLE
  2
LTYPE
  5
5
100
AcDbSymbolTable
 70
6
  0
LTYPE
  5
14
100
AcDbSymbolTableRecord
100
AcDbLinetypeTableRecord
  2
BYBLOCK
 70
0
  3

 72
65
 73
0
 40
0.0
  0
LTYPE
  5
15
100
AcDbSymbolTableRecord
100
AcDbLinetypeTableRecord
  2
BYLAYER
 70
0
  3

 72
65
 73
0
 40
0.0
  0
LTYPE
  5
16
100
AcDbSymbolTableRecord
100
AcDbLinetypeTableRecord
  2
CONTINUOUS
 70
64
  3
Solid line
 72
65
 73
0
 40
0.0
  0
LTYPE
  5
1F5
100
AcDbSymbolTableRecord
100
AcDbLinetypeTableRecord
  2
CENTER
 70
64
  3
____ _ ____ _ ____ _ ____ _ ____ _ ____ _ ____
 72
65
 73
4
 40
0.6
 49
0.375
 74
0
 49
-0.075
 74
0
 49
0.075
 74
0
 49
-0.075
 74
0
  0
LTYPE
  5
1F6
100
AcDbSymbolTableRecord
100
AcDbLinetypeTableRecord
  2
HIDDEN
 70
64
  3
- - - - - - - - - - - - - - - - - - - -
 72
65
 73
2
 40
0.2
 49
0.1
 74
0
 49
-0.1
 74
0
  0
LTYPE
  5
1F7
100
AcDbSymbolTableRecord
100
AcDbLinetypeTableRecord
  2
PHANTOM
 70
64
  3
_____ _ _ _____ _ _ _____ _ _ _____
 72
65
 73
6
 40
0.8
 49
0.45
 74
0
 49
-0.05
 74
0
 49
0.1
 74
0
 49
-0.05
 74
0
 49
0.1
 74
0
 49
-0.05
 74
0
  0
LTYPE
  5
1F8
100
AcDbSymbolTableRecord
100
AcDbLinetypeTableRecord
  2
DOT
 70
64
  3
. . . . . . . . . . . . . . . . . . . .
 72
65
 73
2
 40
0.2
 49
0.1
 74
0
 49
-0.1
 74
0
  0
LTYPE
  5
1F9
100
AcDbSymbolTableRecord
100
AcDbLinetypeTableRecord
  2
DASHED
 70
64
  3
- - - - - - - - - - - - - - - - - - - -
 72
65
 73
2
 40
0.2
 49
0.1
 74
0
 49
-0.1
 74
0
  0
ENDTAB
  0
TABLE
  2
LAYER
  5
2
100
AcDbSymbolTable
 70
36
  0
LAYER
  5
10
100
AcDbSymbolTableRecord
100
AcDbLayerTableRecord
  2
0
 70
0
 62
7
  6
CONTINUOUS
370
-3
390
F
  0
LAYER
  5
1FA
100
AcDbSymbolTableRecord
100
AcDbLayerTableRecord
  2
DEFAULT_1
 70
0
 62
7
  6
CENTER
370
-3
390
F
  0
LAYER
  5
1FB
100
AcDbSymbolTableRecord
100
AcDbLayerTableRecord
  2
DEFAULT_2
 70
0
 62
7
  6
HIDDEN
370
-3
390
F
  0
LAYER
  5
1FC
100
AcDbSymbolTableRecord
100
AcDbLayerTableRecord
  2
DEFAULT_3
 70
0
 62
7
  6
PHANTOM
370
-3
390
F
  0
LAYER
  5
1FD
100
AcDbSymbolTableRecord
100
AcDbLayerTableRecord
  2
ASSI
 70
0
 62
7
  6
CONTINUOUS
370
-3
390
F
  0
LAYER
  5
1FE
100
AcDbSymbolTableRecord
100
AcDbLayerTableRecord
  2
COORDINATE
 70
0
 62
7
  6
CONTINUOUS
370
-3
390
F
  0
LAYER
  5
1FF
100
AcDbSymbolTableRecord
100
AcDbLayerTableRecord
  2
COORD_ORIGINE
 70
0
 62
7
  6
CONTINUOUS
370
-3
390
F
  0
LAYER
  5
200
100
AcDbSymbolTableRecord
100
AcDbLayerTableRecord
  2
CURVE
 70
0
 62
7
  6
CONTINUOUS
370
-3
390
F
  0
LAYER
  5
201
100
AcDbSymbolTableRecord
100
AcDbLayerTableRecord
  2
DRAFT
 70
0
 62
7
  6
CONTINUOUS
370
-3
390
F
  0
LAYER
  5
202
100
AcDbSymbolTableRecord
100
AcDbLayerTableRecord
  2
MARCHI_SOTTO
 70
0
 62
7
  6
CONTINUOUS
370
-3
390
F
  0
LAYER
  5
203
100
AcDbSymbolTableRecord
100
AcDbLayerTableRecord
  2
NOTE
 70
0
 62
7
  6
CONTINUOUS
370
-3
390
F
  0
LAYER
  5
204
100
AcDbSymbolTableRecord
100
AcDbLayerTableRecord
  2
PIANI
 70
0
 62
7
  6
CONTINUOUS
370
-3
390
F
  0
LAYER
  5
205
100
AcDbSymbolTableRecord
100
AcDbLayerTableRecord
  2
PIANI_ORIGINE
 70
0
 62
7
  6
CONTINUOUS
370
-3
390
F
  0
LAYER
  5
206
100
AcDbSymbolTableRecord
100
AcDbLayerTableRecord
  2
PUNTI
 70
0
 62
7
  6
CONTINUOUS
370
-3
390
F
  0
LAYER
  5
207
100
AcDbSymbolTableRecord
100
AcDbLayerTableRecord
  2
RACCORDO
 70
0
 62
7
  6
CONTINUOUS
370
-3
390
F
  0
LAYER
  5
208
100
AcDbSymbolTableRecord
100
AcDbLayerTableRecord
  2
SCRITTA_VIMAR
 70
0
 62
7
  6
CONTINUOUS
370
-3
390
F
  0
LAYER
  5
209
100
AcDbSymbolTableRecord
100
AcDbLayerTableRecord
  2
SNAPLINE
 70
0
 62
7
  6
CONTINUOUS
370
-3
390
F
  0
LAYER
  5
20A
100
AcDbSymbolTableRecord
100
AcDbLayerTableRecord
  2
SUPERFICI
 70
0
 62
7
  6
CONTINUOUS
370
-3
390
F
  0
LAYER
  5
20B
100
AcDbSymbolTableRecord
100
AcDbLayerTableRecord
  2
TRASH
 70
0
 62
7
  6
CONTINUOUS
370
-3
390
F
  0
LAYER
  5
20C
100
AcDbSymbolTableRecord
100
AcDbLayerTableRecord
  2
XSEC_DATUMS
 70
0
 62
7
  6
CONTINUOUS
370
-3
390
F
  0
ENDTAB
  0
TABLE
  2
STYLE
  5
3
100
AcDbSymbolTable
 70
1
  0
STYLE
  5
11
100
AcDbSymbolTableRecord
100
AcDbTextStyleTableRecord
  2
STANDARD
 70
0
 40
0.0
 41
0.8
 50
0.0
 71
0
 42
0.2
  3
txt
  4

  0
STYLE
  5
20D
100
AcDbSymbolTableRecord
100
AcDbTextStyleTableRecord
  2
TEXTSTYLE_1
 70
0
 40
0.0
 41
0.8
 50
0.0
 71
0
 42
0.2
  3
gdt
  4

  0
ENDTAB
  0
TABLE
  2
VIEW
  5
6
100
AcDbSymbolTable
 70
0
  0
ENDTAB
  0
TABLE
  2
UCS
  5
7
100
AcDbSymbolTable
 70
0
  0
ENDTAB
  0
TABLE
  2
APPID
  5
9
100
AcDbSymbolTable
 70
1
  0
APPID
  5
20E
100
AcDbSymbolTableRecord
100
AcDbRegAppTableRecord
  2
ACAD
 70
0
  0
ENDTAB
  0
TABLE
  2
BLOCK_RECORD
  5
1
100
AcDbSymbolTable
 70
0
  0
BLOCK_RECORD
  5
20F
100
AcDbSymbolTableRecord
100
AcDbBlockTableRecord
  2
*Model_Space
  0
BLOCK_RECORD
  5
210
100
AcDbSymbolTableRecord
100
AcDbBlockTableRecord
  2
*Paper_Space
  0
BLOCK_RECORD
  5
211
100
AcDbSymbolTableRecord
100
AcDbBlockTableRecord
  2
_FILLED
  0
BLOCK_RECORD
  5
212
100
AcDbSymbolTableRecord
100
AcDbBlockTableRecord
  2
*D0
  0
BLOCK_RECORD
  5
213
100
AcDbSymbolTableRecord
100
AcDbBlockTableRecord
  2
*D1
  0
BLOCK_RECORD
  5
214
100
AcDbSymbolTableRecord
100
AcDbBlockTableRecord
  2
*D2
  0
ENDTAB
  0
TABLE
  2
DIMSTYLE
  5
A
100
AcDbSymbolTable
 70
1
100
AcDbDimStyleTable
 71
0
  0
DIMSTYLE
105
215
100
AcDbSymbolTableRecord
100
AcDbDimStyleTableRecord
  2
STANDARD
 70
0
  3

  4

 40
1.0
 41
3.0
 42
0.5
 43
0.38
 44
1.5
 45
0.0
 46
0.0
 47
0.01
 48
0.01
140
3.0
141
0.09
142
0.0
143
25.4
144
1.0
145
0.0
146
1.0
147
0.625
 71
1
 72
0
 73
0
 74
0
 75
0
 76
0
 77
1
 78
8
 79
2
170
0
171
1
172
0
173
0
174
0
175
0
176
0
177
0
178
0
270
2
179
2
271
2
272
2
273
2
274
2
275
0
280
0
281
0
282
0
283
1
284
8
285
0
286
0
287
3
288
0
340
11
278
44
341
211
342
211
343
211
344
211
  0
DIMSTYLE
105
216
100
AcDbSymbolTableRecord
100
AcDbDimStyleTableRecord
  2
DIMSTYLE_1
 70
0
  3

  4

 40
1.0
 41
3.0
 42
0.5
 43
0.38
 44
1.5
 45
0.0
 46
0.0
 47
0.0
 48
0.0
140
3.0
141
0.09
142
0.0
143
25.4
144
1.0
145
0.0
146
1.0
147
0.75
 71
0
 72
0
 73
0
 74
0
 75
0
 76
0
 77
1
 78
8
 79
2
170
0
171
1
172
0
173
0
174
0
175
0
176
0
177
0
178
0
270
2
179
2
271
2
272
2
273
2
274
2
275
0
280
0
281
0
282
0
283
1
284
8
285
0
286
0
287
3
288
0
340
11
278
44
341
211
342
211
343
211
344
211
  0
ENDTAB
  0
ENDSEC
  0
SECTION
  2
BLOCKS
  0
BLOCK
  5
20
100
AcDbEntity
  8
0
100
AcDbBlockBegin
  2
*Model_Space
 70
0
 10
0.0
 20
0.0
 30
0.0
  3
*Model_Space
  1

  0
ENDBLK
  5
21
100
AcDbEntity
  8
0
100
AcDbBlockEnd
  0
BLOCK
  5
1C
100
AcDbEntity
  8
0
100
AcDbBlockBegin
  2
*Paper_Space
 70
0
 10
0.0
 20
0.0
 30
0.0
  3
*Paper_Space
  1

  0
ENDBLK
  5
1D
100
AcDbEntity
  8
0
100
AcDbBlockEnd
  0
BLOCK
  5
217
100
AcDbEntity
  8
0
100
AcDbBlockBegin
  2
_FILLED
 70
64
 10
0.0
 20
0.0
  3
_FILLED
  1

  0
SOLID
  5
218
100
AcDbEntity
  8
0
  6
BYBLOCK
 62
0
100
AcDbTrace
 10
0.0
 20
0.0
 11
-1.0
 21
0.3166666667
 12
-1.0
 22
-0.3166666667
 13
-1.0
 23
-0.3166666667
  0
ENDBLK
  5
219
100
AcDbEntity
  8
0
  6
BYBLOCK
 62
0
100
AcDbBlockEnd
  0
BLOCK
  5
21A
100
AcDbEntity
  8
0
100
AcDbBlockBegin
 62
7
  6
CONTINUOUS
  2
*D0
 70
65
 10
0.0
 20
0.0
  3
*D0
  1

  0
LINE
  5
21B
100
AcDbEntity
  8
0
100
AcDbLine
 62
7
  6
CONTINUOUS
 10
-72.7043939239
 20
36.7402675194
 11
-72.7043939239
 21
50.2638438763
  0
LINE
  5
21C
100
AcDbEntity
  8
0
100
AcDbLine
 62
7
  6
CONTINUOUS
 10
69.7956060761
 20
36.7402675194
 11
69.7956060761
 21
50.2638438763
  0
LINE
  5
21D
100
AcDbEntity
  8
0
100
AcDbLine
 62
7
  6
CONTINUOUS
 10
-72.7043939239
 20
48.7638438763
 11
-1.4543939239
 21
48.7638438763
  0
LINE
  5
21E
100
AcDbEntity
  8
0
100
AcDbLine
 62
7
  6
CONTINUOUS
 10
69.7956060761
 20
48.7638438763
 11
-1.4543939239
 21
48.7638438763
  0
INSERT
  5
21F
100
AcDbEntity
  8
0
100
AcDbBlockReference
 62
7
  6
CONTINUOUS
  2
_FILLED
 10
-72.7043939239
 20
48.7638438763
 41
3.0
 42
3.0
 43
3.0
 50
180.0
  0
INSERT
  5
220
100
AcDbEntity
  8
0
100
AcDbBlockReference
 62
7
  6
CONTINUOUS
  2
_FILLED
 10
69.7956060761
 20
48.7638438763
 41
3.0
 42
3.0
 43
3.0
  0
ENDBLK
  5
221
100
AcDbEntity
  8
0
  6
BYBLOCK
 62
0
100
AcDbBlockEnd
  0
BLOCK
  5
222
100
AcDbEntity
  8
0
100
AcDbBlockBegin
 62
7
  6
CONTINUOUS
  2
*D1
 70
65
 10
0.0
 20
0.0
  3
*D1
  1

  0
LINE
  5
223
100
AcDbEntity
  8
0
100
AcDbLine
 62
7
  6
CONTINUOUS
 10
-94.910665219
 20
22.0361561237
 11
-94.910665219
 21
50.2638438763
  0
LINE
  5
224
100
AcDbEntity
  8
0
100
AcDbLine
 62
7
  6
CONTINUOUS
 10
-85.410665219
 20
39.7361561237
 11
-85.410665219
 21
50.2638438763
  0
LINE
  5
225
100
AcDbEntity
  8
0
100
AcDbLine
 62
7
  6
CONTINUOUS
 10
-94.910665219
 20
48.7638438763
 11
-98.910665219
 21
48.7638438763
  0
LINE
  5
226
100
AcDbEntity
  8
0
100
AcDbLine
 62
7
  6
CONTINUOUS
 10
-98.910665219
 20
48.7638438763
 11
-90.160665219
 21
48.7638438763
  0
LINE
  5
227
100
AcDbEntity
  8
0
100
AcDbLine
 62
7
  6
CONTINUOUS
 10
-85.410665219
 20
48.7638438763
 11
-81.410665219
 21
48.7638438763
  0
LINE
  5
228
100
AcDbEntity
  8
0
100
AcDbLine
 62
7
  6
CONTINUOUS
 10
-81.410665219
 20
48.7638438763
 11
-90.160665219
 21
48.7638438763
  0
INSERT
  5
229
100
AcDbEntity
  8
0
100
AcDbBlockReference
 62
7
  6
CONTINUOUS
  2
_FILLED
 10
-94.910665219
 20
48.7638438763
 41
3.0
 42
3.0
 43
3.0
  0
INSERT
  5
22A
100
AcDbEntity
  8
0
100
AcDbBlockReference
 62
7
  6
CONTINUOUS
  2
_FILLED
 10
-85.410665219
 20
48.7638438763
 41
3.0
 42
3.0
 43
3.0
 50
180.0
  0
ENDBLK
  5
22B
100
AcDbEntity
  8
0
  6
BYBLOCK
 62
0
100
AcDbBlockEnd
  0
BLOCK
  5
22C
100
AcDbEntity
  8
0
100
AcDbBlockBegin
 62
7
  6
CONTINUOUS
  2
*D2
 70
65
 10
0.0
 20
0.0
  3
*D2
  1

  0
LINE
  5
22D
100
AcDbEntity
  8
0
100
AcDbLine
 62
7
  6
CONTINUOUS
 10
-85.910665219
 20
39.2361561237
 11
-104.410665219
 21
39.2361561237
  0
LINE
  5
22E
100
AcDbEntity
  8
0
100
AcDbLine
 62
7
  6
CONTINUOUS
 10
-85.910665219
 20
-40.7638438763
 11
-104.410665219
 21
-40.7638438763
  0
LINE
  5
22F
100
AcDbEntity
  8
0
100
AcDbLine
 62
7
  6
CONTINUOUS
 10
-102.910665219
 20
39.2361561237
 11
-102.910665219
 21
-0.7638438763
  0
LINE
  5
230
100
AcDbEntity
  8
0
100
AcDbLine
 62
7
  6
CONTINUOUS
 10
-102.910665219
 20
-40.7638438763
 11
-102.910665219
 21
-0.7638438763
  0
INSERT
  5
231
100
AcDbEntity
  8
0
100
AcDbBlockReference
 62
7
  6
CONTINUOUS
  2
_FILLED
 10
-102.910665219
 20
39.2361561237
 41
3.0
 42
3.0
 43
3.0
 50
90.0
  0
INSERT
  5
232
100
AcDbEntity
  8
0
100
AcDbBlockReference
 62
7
  6
CONTINUOUS
  2
_FILLED
 10
-102.910665219
 20
-40.7638438763
 41
3.0
 42
3.0
 43
3.0
 50
270.0
  0
ENDBLK
  5
233
100
AcDbEntity
  8
0
  6
BYBLOCK
 62
0
100
AcDbBlockEnd
  0
ENDSEC
  0
SECTION
  2
ENTITIES
  0
DIMENSION
  5
234
100
AcDbEntity
  8
0
100
AcDbDimension
 62
7
  6
CONTINUOUS
  2
*D0
 10
69.7956060761
 20
48.7638438763
 11
-6.5972510668
 21
48.7638438763
 70
160
 71
2
 72
2
 41
0.9
 42
142.5
  3
DIMSTYLE_1
100
AcDbAlignedDimension
 13
-72.7043939239
 23
36.2402675194
 14
69.7956060761
 24
36.2402675194
100
AcDbRotatedDimension
  0
DIMENSION
  5
235
100
AcDbEntity
  8
0
100
AcDbDimension
 62
7
  6
CONTINUOUS
  2
*D1
 10
-85.410665219
 20
48.7638438763
 11
-93.2678080761
 21
48.7638438763
 70
160
 71
2
 72
2
 41
0.9
 42
9.5
  3
DIMSTYLE_1
100
AcDbAlignedDimension
 13
-94.910665219
 23
21.5361561237
 14
-85.410665219
 24
39.2361561237
100
AcDbRotatedDimension
  0
DIMENSION
  5
236
100
AcDbEntity
  8
0
100
AcDbDimension
 62
7
  6
CONTINUOUS
  2
*D2
 10
-102.910665219
 20
-40.7638438763
 11
-102.910665219
 21
-3.1209867335
 70
160
 71
2
 72
2
 41
0.9
 42
80.0
  3
DIMSTYLE_1
100
AcDbAlignedDimension
 13
-85.410665219
 23
39.2361561237
 14
-85.410665219
 24
-40.7638438763
 50
270.0
100
AcDbRotatedDimension
  0
LWPOLYLINE
  5
237
100
AcDbEntity
  8
RACCORDO
100
AcDbPolyline
 62
250
  6
CONTINUOUS
 90
13
 70
0
 10
-69.451004909
 20
38.978655713
 10
-69.455565943
 20
38.9659228105
 10
-69.4600658654
 20
38.9399807258
 10
-69.4644443841
 20
38.9011770347
 10
-69.4686428333
 20
38.8500316345
 10
-69.4726049597
 20
38.7872297785
 10
-69.476277676
 20
38.7136128948
 10
-69.4796117729
 20
38.6301673128
 10
-69.482562578
 20
38.5380110482
 10
-69.4850905543
 20
38.4383788235
 10
-69.4871618299
 20
38.3326055254
 10
-69.488748652
 20
38.2221083194
 10
-69.4898297583
 20
38.1083676626
  0
LWPOLYLINE
  5
238
100
AcDbEntity
  8
RACCORDO
100
AcDbPolyline
 62
250
  6
CONTINUOUS
 90
13
 70
0
 10
-69.4510049013
 20
-40.5062887037
 10
-69.4555655746
 20
-40.4935567559
 10
-69.4600651615
 20
-40.4676165488
 10
-69.4644433798
 20
-40.4288156139
 10
-69.4686415743
 20
-40.3776737826
 10
-69.4726035019
 20
-40.3148762223
 10
-69.4762760857
 20
-40.2412642569
 10
-69.4796101265
 20
-40.1578240952
 10
-69.4825609625
 20
-40.065673618
 10
-69.4850890668
 20
-39.9660474018
 10
-69.4871605775
 20
-39.8602801787
 10
-69.4887477517
 20
-39.749788954
 10
-69.4898293367
 20
-39.6360540226
  0
LINE
  5
239
100
AcDbEntity
  8
RACCORDO
100
AcDbLine
 62
250
  6
CONTINUOUS
 10
-71.5800235192
 20
-37.319377556
 11
-71.5932277083
 21
-36.9736275588
  0
LWPOLYLINE
  5
23A
100
AcDbEntity
  8
RACCORDO
100
AcDbPolyline
 62
250
  6
CONTINUOUS
 90
4
 70
0
 10
-71.5932277083
 20
-36.9736275588
 10
-71.594709074
 20
-36.9250590468
 10
-71.5953482103
 20
-36.876081221
 10
-71.5963517994
 20
-36.6697102056
  0
LINE
  5
23B
100
AcDbEntity
  8
RACCORDO
100
AcDbLine
 62
250
  6
CONTINUOUS
 10
-71.5731025214
 20
-37.5392117444
 11
-71.5800235192
 21
-37.319377556
  0
LINE
  5
23C
100
AcDbEntity
  8
RACCORDO
100
AcDbLine
 62
250
  6
CONTINUOUS
 10
-71.5963517994
 20
-36.6697102056
 11
-71.5971247843
 21
-36.5555606556
  0
LINE
  5
23D
100
AcDbEntity
  8
RACCORDO
100
AcDbLine
 62
250
  6
CONTINUOUS
 10
-71.5995915509
 20
-36.1641727813
 11
-71.6005267911
 21
-36.0178127048
  0
LINE
  5
23E
100
AcDbEntity
  8
RACCORDO
100
AcDbLine
 62
250
  6
CONTINUOUS
 10
-71.5971247843
 20
-36.5555606556
 11
-71.5995915509
 21
-36.1641727813
  0
LINE
  5
23F
100
AcDbEntity
  8
RACCORDO
100
AcDbLine
 62
250
  6
CONTINUOUS
 10
-71.6005267911
 20
-36.0178127048
 11
-71.6173271843
 21
-33.2832722665
  0
LINE
  5
240
100
AcDbEntity
  8
RACCORDO
100
AcDbLine
 62
250
  6
CONTINUOUS
 10
-71.6173271843
 20
-33.2832722665
 11
-71.6542841279
 21
-26.976326569
  0
LINE
  5
241
100
AcDbEntity
  8
RACCORDO
100
AcDbLine
 62
250
  6
CONTINUOUS
 10
-71.6542841279
 20
-26.976326569
 11
-71.6576751958
 21
-26.3630080138
  0
LINE
  5
242
100
AcDbEntity
  8
RACCORDO
100
AcDbLine
 62
250
  6
CONTINUOUS
 10
-71.6576751958
 20
-26.3630080138
 11
-71.6611332581
 21
-25.718025658
  0
LINE
  5
243
100
AcDbEntity
  8
RACCORDO
100
AcDbLine
 62
250
  6
CONTINUOUS
 10
-71.6611332581
 20
-25.718025658
 11
-71.6663811512
 21
-24.6868994521
  0
LINE
  5
244
100
AcDbEntity
  8
RACCORDO
100
AcDbLine
 62
250
  6
CONTINUOUS
 10
-71.6663811512
 20
-24.6868994521
 11
-71.6733425904
 21
-23.1833954702
  0
LINE
  5
245
100
AcDbEntity
  8
RACCORDO
100
AcDbLine
 62
250
  6
CONTINUOUS
 10
-71.6733425904
 20
-23.1833954702
 11
-71.6800150415
 21
-21.518049308
  0
LINE
  5
246
100
AcDbEntity
  8
RACCORDO
100
AcDbLine
 62
250
  6
CONTINUOUS
 10
-71.6800150415
 20
-21.518049308
 11
-71.6846124255
 21
-20.1515371479
  0
LINE
  5
247
100
AcDbEntity
  8
RACCORDO
100
AcDbLine
 62
250
  6
CONTINUOUS
 10
-71.6846124255
 20
-20.1515371479
 11
-71.6886693026
 21
-18.675107569
  0
LINE
  5
248
100
AcDbEntity
  8
RACCORDO
100
AcDbLine
 62
250
  6
CONTINUOUS
 10
-71.6886693026
 20
-18.675107569
 11
-71.6920012748
 21
-17.0797105509
  0
LINE
  5
249
100
AcDbEntity
  8
RACCORDO
100
AcDbLine
 62
250
  6
CONTINUOUS
 10
-71.6920012748
 20
-17.0797105509
 11
-71.694434535
 21
-15.3557314858
  0
LINE
  5
24A
100
AcDbEntity
  8
RACCORDO
100
AcDbLine
 62
250
  6
CONTINUOUS
 10
-71.694434535
 20
-15.3557314858
 11
-71.6958369947
 21
-13.4930782608
  0
LINE
  5
24B
100
AcDbEntity
  8
RACCORDO
100
AcDbLine
 62
250
  6
CONTINUOUS
 10
-72.4470569044
 20
35.4432582954
 11
-72.4475870027
 21
35.9834605982
  0
LINE
  5
24C
100
AcDbEntity
  8
RACCORDO
100
AcDbLine
 62
250
  6
CONTINUOUS
 10
-72.4432588708
 20
23.5439863681
 11
-72.4470569044
 21
35.4432582954
  0
LINE
  5
24D
100
AcDbEntity
  8
RACCORDO
100
AcDbLine
 62
250
  6
CONTINUOUS
 10
-71.6921697851
 20
1.1453026148
 11
-71.6960632014
 21
9.311833766
  0
LINE
  5
24E
100
AcDbEntity
  8
RACCORDO
100
AcDbLine
 62
7
  6
CONTINUOUS
 10
-72.7043939239
 20
36.2402675194
 11
-72.7043939239
 21
4.5361561237
  0
LINE
  5
24F
100
AcDbEntity
  8
RACCORDO
100
AcDbLine
 62
7
  6
CONTINUOUS
 10
-72.7043939239
 20
-6.0638438763
 11
-72.7043939239
 21
-37.7679552721
  0
LINE
  5
250
100
AcDbEntity
  8
DRAFT
100
AcDbLine
 62
7
  6
CONTINUOUS
 10
-72.6043939239
 20
-5.8900571226
 11
-72.6043939239
 21
-4.7638438763
  0
LINE
  5
251
100
AcDbEntity
  8
DRAFT
100
AcDbLine
 62
7
  6
CONTINUOUS
 10
-72.6043939239
 20
3.2361561237
 11
-72.6043939239
 21
4.3623265131
  0
LINE
  5
252
100
AcDbEntity
  8
RACCORDO
100
AcDbLine
 62
7
  6
CONTINUOUS
 10
-72.5209666964
 20
2.0361561237
 11
-72.5209666964
 21
-3.5638438763
  0
LINE
  5
253
100
AcDbEntity
  8
RACCORDO
100
AcDbLine
 62
250
  6
CONTINUOUS
 10
-72.4418758999
 20
-0.7668902451
 11
-72.441752699
 21
14.4697035226
  0
LINE
  5
254
100
AcDbEntity
  8
RACCORDO
100
AcDbLine
 62
250
  6
CONTINUOUS
 10
-72.441752699
 20
14.4697035226
 11
-72.4432588708
 21
23.5439863681
  0
LINE
  5
255
100
AcDbEntity
  8
RACCORDO
100
AcDbLine
 62
250
  6
CONTINUOUS
 10
-71.6958369947
 20
-13.4930782608
 11
-71.6961614178
 21
-11.4813265721
  0
LINE
  5
256
100
AcDbEntity
  8
RACCORDO
100
AcDbLine
 62
250
  6
CONTINUOUS
 10
-71.6960632014
 20
9.311833766
 11
-71.6960516874
 21
11.3726121005
  0
LINE
  5
257
100
AcDbEntity
  8
RACCORDO
100
AcDbLine
 62
250
  6
CONTINUOUS
 10
-72.4448714031
 20
-30.28535947
 11
-72.4418758999
 21
-0.7668902451
  0
LINE
  5
258
100
AcDbEntity
  8
RACCORDO
100
AcDbLine
 62
250
  6
CONTINUOUS
 10
-71.6926565295
 20
-4.4480466984
 11
-71.6921697851
 21
1.1453026148
  0
LWPOLYLINE
  5
259
100
AcDbEntity
  8
RACCORDO
100
AcDbPolyline
 62
250
  6
CONTINUOUS
 90
3
 70
0
 10
-72.4470752049
 20
-37.0124378092
 10
-72.4470544131
 20
-36.9657746354
 10
-72.4448714031
 20
-30.28535947
  0
LINE
  5
25A
100
AcDbEntity
  8
RACCORDO
100
AcDbLine
 62
250
  6
CONTINUOUS
 10
-71.6961614178
 20
-11.4813265721
 11
-71.6951152098
 21
-8.5494927347
  0
LINE
  5
25B
100
AcDbEntity
  8
RACCORDO
100
AcDbLine
 62
250
  6
CONTINUOUS
 10
-71.6951152098
 20
-8.5494927347
 11
-71.6926565295
 21
-4.4480466984
  0
LINE
  5
25C
100
AcDbEntity
  8
RACCORDO
100
AcDbLine
 62
250
  6
CONTINUOUS
 10
-72.4471682114
 20
-37.1528534939
 11
-72.4470752049
 21
-37.0124378092
  0
LINE
  5
25D
100
AcDbEntity
  8
RACCORDO
100
AcDbLine
 62
250
  6
CONTINUOUS
 10
-71.6960516874
 20
11.3726121005
 11
-71.69497295
 21
13.2792952541
  0
LINE
  5
25E
100
AcDbEntity
  8
RACCORDO
100
AcDbLine
 62
250
  6
CONTINUOUS
 10
-72.4472567311
 20
-37.2491290851
 11
-72.4471682114
 21
-37.1528534939
  0
LINE
  5
25F
100
AcDbEntity
  8
RACCORDO
100
AcDbLine
 62
250
  6
CONTINUOUS
 10
-72.4473682564
 20
-37.3493683771
 11
-72.4472567311
 21
-37.2491290851
  0
LWPOLYLINE
  5
260
100
AcDbEntity
  8
RACCORDO
100
AcDbPolyline
 62
250
  6
CONTINUOUS
 90
3
 70
0
 10
-72.4475870027
 20
-37.5111483508
 10
-72.4475073867
 20
-37.4557810725
 10
-72.4473682564
 20
-37.3493683771
  0
LINE
  5
261
100
AcDbEntity
  8
RACCORDO
100
AcDbLine
 62
250
  6
CONTINUOUS
 10
-71.69497295
 20
13.2792952541
 11
-71.6928389418
 21
15.0440663756
  0
LINE
  5
262
100
AcDbEntity
  8
RACCORDO
100
AcDbLine
 62
250
  6
CONTINUOUS
 10
-71.6928389418
 20
15.0440663756
 11
-71.6897601632
 21
16.6775919266
  0
LINE
  5
263
100
AcDbEntity
  8
RACCORDO
100
AcDbLine
 62
250
  6
CONTINUOUS
 10
-71.6897601632
 20
16.6775919266
 11
-71.6859011806
 21
18.1895721115
  0
LINE
  5
264
100
AcDbEntity
  8
RACCORDO
100
AcDbLine
 62
250
  6
CONTINUOUS
 10
-71.6859011806
 20
18.1895721115
 11
-71.6814449349
 21
19.5891956322
  0
LINE
  5
265
100
AcDbEntity
  8
RACCORDO
100
AcDbLine
 62
250
  6
CONTINUOUS
 10
-71.6814449349
 20
19.5891956322
 11
-71.6748855344
 21
21.2954400977
  0
LINE
  5
266
100
AcDbEntity
  8
RACCORDO
100
AcDbLine
 62
250
  6
CONTINUOUS
 10
-71.6748855344
 20
21.2954400977
 11
-71.6679503345
 21
22.8355480215
  0
LINE
  5
267
100
AcDbEntity
  8
RACCORDO
100
AcDbLine
 62
250
  6
CONTINUOUS
 10
-71.6679503345
 20
22.8355480215
 11
-71.6592053365
 21
24.5532186251
  0
LINE
  5
268
100
AcDbEntity
  8
RACCORDO
100
AcDbLine
 62
250
  6
CONTINUOUS
 10
-71.6592053365
 20
24.5532186251
 11
-71.6172009007
 21
31.7767123754
  0
LINE
  5
269
100
AcDbEntity
  8
RACCORDO
100
AcDbLine
 62
250
  6
CONTINUOUS
 10
-71.6172009007
 20
31.7767123754
 11
-71.6009493281
 21
34.4233767254
  0
LINE
  5
26A
100
AcDbEntity
  8
RACCORDO
100
AcDbLine
 62
250
  6
CONTINUOUS
 10
-71.6009493281
 20
34.4233767254
 11
-71.5952622638
 21
35.3537456637
  0
LWPOLYLINE
  5
26B
100
AcDbEntity
  8
RACCORDO
100
AcDbPolyline
 62
250
  6
CONTINUOUS
 90
6
 70
0
 10
-71.5952622638
 20
35.3537456637
 10
-71.5945862886
 20
35.4027455454
 10
-71.593069529
 20
35.4513614231
 10
-71.5910501754
 20
35.499493978
 10
-71.5890272705
 20
35.5478780618
 10
-71.5799026638
 20
35.7952965417
  0
LWPOLYLINE
  5
26C
100
AcDbEntity
  8
RACCORDO
100
AcDbPolyline
 62
250
  6
CONTINUOUS
 90
31
 70
0
 10
-72.4475870027
 20
35.9834605982
 10
-72.4461041124
 20
36.0780928847
 10
-72.4414670624
 20
36.1752760383
 10
-72.4334232572
 20
36.2748959497
 10
-72.4217640793
 20
36.3764802535
 10
-72.4062105911
 20
36.4802235703
 10
-72.3862956354
 20
36.5869687129
 10
-72.3616001436
 20
36.6967193955
 10
-72.331791258
 20
36.809010789
 10
-72.2963804708
 20
36.9239092855
 10
-72.2549793873
 20
37.0410370098
 10
-72.2071696996
 20
37.1600773609
 10
-72.1523218644
 20
37.2810911743
 10
-72.0899684446
 20
37.4036319232
 10
-72.0196978398
 20
37.5271134267
 10
-71.9408787118
 20
37.6512536054
 10
-71.8531147939
 20
37.7753240638
 10
-71.7559898082
 20
37.8986121315
 10
-71.6487834115
 20
38.020682965
 10
-71.5313993156
 20
38.1403406303
 10
-71.4033153548
 20
38.2568404911
 10
-71.26301874
 20
38.3700539603
 10
-71.1101842697
 20
38.4785965308
 10
-70.9446631404
 20
38.5809312253
 10
-70.7650521605
 20
38.6760921626
 10
-70.5693374829
 20
38.7629070724
 10
-70.3596569801
 20
38.838164747
 10
-70.1413900797
 20
38.898472963
 10
-69.9172068778
 20
38.9424329915
 10
-69.6866532339
 20
38.969492475
 10
-69.451004909
 20
38.978655713
  0
LINE
  5
26D
100
AcDbEntity
  8
RACCORDO
100
AcDbLine
 62
250
  6
CONTINUOUS
 10
-71.5799026638
 20
35.7952965417
 11
-71.5731024902
 21
36.0115239847
  0
LWPOLYLINE
  5
26E
100
AcDbEntity
  8
RACCORDO
100
AcDbPolyline
 62
250
  6
CONTINUOUS
 90
31
 70
0
 10
-71.5731024911
 20
36.0115239849
 10
-71.5702256148
 20
36.0766849428
 10
-71.5652189606
 20
36.1435845866
 10
-71.5579110675
 20
36.212150507
 10
-71.5481642933
 20
36.2820638862
 10
-71.5357881266
 20
36.3534620697
 10
-71.5204553055
 20
36.4269275606
 10
-71.5018811252
 20
36.5024653923
 10
-71.4798518532
 20
36.5797585402
 10
-71.4540426345
 20
36.6588555535
 10
-71.4241947539
 20
36.7394990254
 10
-71.3900296195
 20
36.8214797692
 10
-71.3511228487
 20
36.9048521247
 10
-71.3071549745
 20
36.9893179774
 10
-71.2578496927
 20
37.0744890698
 10
-71.202783685
 20
37.1601934594
 10
-71.1416824913
 20
37.245943958
 10
-71.0742620911
 20
37.3312705955
 10
-71.0000399918
 20
37.4159073669
 10
-70.918944637
 20
37.4990481365
 10
-70.8306104907
 20
37.5802085944
 10
-70.7340059635
 20
37.6593608831
 10
-70.6288887775
 20
37.735585745
 10
-70.5151397128
 20
37.8078644276
 10
-70.3918119928
 20
37.8756253234
 10
-70.2575100758
 20
37.9381397998
 10
-70.1136578223
 20
37.9932186642
 10
-69.9639072554
 20
38.0385444266
 10
-69.8100306005
 20
38.0731478115
 10
-69.65167349
 20
38.0966491583
 10
-69.4898293996
 20
38.108366478
  0
LWPOLYLINE
  5
26F
100
AcDbEntity
  8
RACCORDO
100
AcDbPolyline
 62
250
  6
CONTINUOUS
 90
5
 70
0
 10
-49.7075513391
 20
-23.0451332857
 10
-49.7132270749
 20
-22.2639879429
 10
-49.7172361658
 20
-21.4527433528
 10
-49.7200836376
 20
-20.6119930704
 10
-49.7222004986
 20
-19.7415153564
  0
LINE
  5
270
100
AcDbEntity
  8
RACCORDO
100
AcDbLine
 62
250
  6
CONTINUOUS
 10
-49.7222004986
 20
-19.7415153564
 11
-49.7249044329
 21
-17.91563017
  0
LINE
  5
271
100
AcDbEntity
  8
RACCORDO
100
AcDbLine
 62
250
  6
CONTINUOUS
 10
-49.7249044329
 20
-17.91563017
 11
-49.7265517807
 21
-15.9830302327
  0
LINE
  5
272
100
AcDbEntity
  8
RACCORDO
100
AcDbLine
 62
250
  6
CONTINUOUS
 10
-49.7265517807
 20
-15.9830302327
 11
-49.7286085265
 21
-11.8039271894
  0
LINE
  5
273
100
AcDbEntity
  8
RACCORDO
100
AcDbLine
 62
250
  6
CONTINUOUS
 10
-49.7286085265
 20
-11.8039271894
 11
-49.7320469616
 21
-0.763546598
  0
LINE
  5
274
100
AcDbEntity
  8
RACCORDO
100
AcDbLine
 62
250
  6
CONTINUOUS
 10
-49.7320467781
 20
-0.7635465971
 11
-49.7286091949
 21
10.2744706061
  0
LINE
  5
275
100
AcDbEntity
  8
RACCORDO
100
AcDbLine
 62
250
  6
CONTINUOUS
 10
-49.7286091949
 20
10.2744706061
 11
-49.725821721
 21
15.4335079645
  0
LWPOLYLINE
  5
276
100
AcDbEntity
  8
RACCORDO
100
AcDbPolyline
 62
250
  6
CONTINUOUS
 90
7
 70
0
 10
-49.725821721
 20
15.4335079645
 10
-49.7237504696
 20
17.3131087521
 10
-49.7222012748
 20
18.2127869508
 10
-49.7200846278
 20
19.083491916
 10
-49.7172379754
 20
19.9244878248
 10
-49.7132277669
 20
20.7359999167
 10
-49.7075512977
 20
21.5174455235
  0
LWPOLYLINE
  5
277
100
AcDbEntity
  8
RACCORDO
100
AcDbPolyline
 62
250
  6
CONTINUOUS
 90
76
 70
0
 10
-49.7075514756
 20
21.51744556
 10
-49.7032913627
 20
21.6634125368
 10
-49.6931736088
 20
21.8055370556
 10
-49.6776115139
 20
21.9437043829
 10
-49.656751844
 20
22.0775805403
 10
-49.6312582271
 20
22.20728846
 10
-49.6023663838
 20
22.3330431668
 10
-49.571004737
 20
22.4548306061
 10
-49.5372958238
 20
22.5715084019
 10
-49.5011120631
 20
22.6823800412
 10
-49.462543043
 20
22.7879510894
 10
-49.4219493448
 20
22.8890289729
 10
-49.3797682671
 20
22.9851641168
 10
-49.3365769099
 20
23.0758248307
 10
-49.2926910424
 20
23.1613107068
 10
-49.2481400632
 20
23.2423603282
 10
-49.2031937506
 20
23.3190742853
 10
-49.1580877075
 20
23.3915858289
 10
-49.1126701788
 20
23.4606582352
 10
-49.0670758329
 20
23.5264378203
 10
-49.0215448452
 20
23.5888817525
 10
-48.975996655
 20
23.6484313293
 10
-48.9305291097
 20
23.7051992644
 10
-48.8853064719
 20
23.7592013151
 10
-48.8403024842
 20
23.8107113447
 10
-48.7956254427
 20
23.8597866328
 10
-48.7513792531
 20
23.9064801027
 10
-48.7074948307
 20
23.9510491092
 10
-48.6639682385
 20
23.9936278022
 10
-48.6209472198
 20
24.0341951192
 10
-48.5785949779
 20
24.0727530138
 10
-48.5369804429
 20
24.109360167
 10
-48.4962093445
 20
24.1440378535
 10
-48.4564311813
 20
24.1768053066
 10
-48.4177074005
 20
24.2077032613
 10
-48.3799348028
 20
24.2369549946
 10
-48.3429832186
 20
24.2648617517
 10
-48.3069963711
 20
24.2914054965
 10
-48.2718391496
 20
24.3167426442
 10
-48.2369963818
 20
24.341354129
 10
-48.2026060413
 20
24.3651752248
 10
-48.1686997358
 20
24.3882078827
 10
-48.1345430567
 20
24.4110035526
 10
-48.1001327317
 20
24.4335734677
 10
-48.0655048363
 20
24.4558748557
 10
-48.029980362
 20
24.4783083493
 10
-47.993610226
 20
24.5009197166
 10
-47.9565695945
 20
24.5234482908
 10
-47.9184284953
 20
24.5457563839
 10
-47.8792735646
 20
24.567592041
 10
-47.8394600478
 20
24.5889050624
 10
-47.7986678574
 20
24.6099953355
 10
-47.7565340579
 20
24.6310632301
 10
-47.7126453861
 20
24.6522230998
 10
-47.6667144137
 20
24.6735486336
 10
-47.6188166312
 20
24.6949126937
 10
-47.5690901836
 20
24.7161576407
 10
-47.517405613
 20
24.7372544244
 10
-47.4637155956
 20
24.7581450196
 10
-47.4079568797
 20
24.7787487561
 10
-47.3499536675
 20
24.7989941288
 10
-47.2896766381
 20
24.8187320286
 10
-47.2271782495
 20
24.8378733244
 10
-47.1624088991
 20
24.8564209143
 10
-47.0953078973
 20
24.8740968444
 10
-47.0258873851
 20
24.8909557802
 10
-46.9538579246
 20
24.9075522072
 10
-46.8788971255
 20
24.9240596308
 10
-46.8000830185
 20
24.9401862349
 10
-46.7167354276
 20
24.9555902665
 10
-46.6294634531
 20
24.9698620503
 10
-46.5391611437
 20
24.9825849289
 10
-46.4454009094
 20
24.9933548773
 10
-46.3477716339
 20
25.0018710977
 10
-46.2462244521
 20
25.0079086752
 10
-46.1407778124
 20
25.0111476351
  0
LWPOLYLINE
  5
278
100
AcDbEntity
  8
RACCORDO
100
AcDbPolyline
 62
250
  6
CONTINUOUS
 90
9
 70
0
 10
69.5387991673
 20
-37.5111483508
 10
69.5260051984
 20
-37.5144525448
 10
69.4999227968
 20
-37.5177122001
 10
69.4609035367
 20
-37.5208833786
 10
69.4094733727
 20
-37.523923335
 10
69.3463255504
 20
-37.5267910925
 10
69.2723112622
 20
-37.5294479957
 10
69.1884281732
 20
-37.5318582313
 10
69.0958069739
 20
-37.5339893109
  0
LWPOLYLINE
  5
279
100
AcDbEntity
  8
RACCORDO
100
AcDbPolyline
 62
250
  6
CONTINUOUS
 90
11
 70
0
 10
-72.4475870027
 20
-37.5111483508
 10
-72.434793037
 20
-37.5144528899
 10
-72.408710639
 20
-37.5177128701
 10
-72.3696913827
 20
-37.5208843388
 10
-72.3182612227
 20
-37.5239245365
 10
-72.2551134047
 20
-37.5267924734
 10
-72.1810991206
 20
-37.5294494814
 10
-72.0972160358
 20
-37.5318597361
 10
-72.0045948404
 20
-37.5339907388
 10
-71.9044840089
 20
-37.5358137553
 10
-71.687273923
 20
-37.5384419812
  0
LINE
  5
27A
100
AcDbEntity
  8
RACCORDO
100
AcDbLine
 62
250
  6
CONTINUOUS
 10
-46.1543939239
 20
-24.9626975851
 11
-46.1480693389
 21
-25.620304267
  0
LWPOLYLINE
  5
27B
100
AcDbEntity
  8
RACCORDO
100
AcDbPolyline
 62
250
  6
CONTINUOUS
 90
3
 70
0
 10
-46.1480693389
 20
-25.620304267
 10
-46.1421494425
 20
-26.3503717971
 10
-46.1407777599
 20
-26.5388345256
  0
LINE
  5
27C
100
AcDbEntity
  8
RACCORDO
100
AcDbLine
 62
250
  6
CONTINUOUS
 10
-48.0377764238
 20
19.9348546379
 11
-48.0403747486
 21
21.5361561237
  0
LINE
  5
27D
100
AcDbEntity
  8
RACCORDO
100
AcDbLine
 62
250
  6
CONTINUOUS
 10
-48.0359660123
 20
18.2191387666
 11
-48.0377764238
 21
19.9348546379
  0
LWPOLYLINE
  5
27E
100
AcDbEntity
  8
RACCORDO
100
AcDbPolyline
 62
250
  6
CONTINUOUS
 90
3
 70
0
 10
-48.0282743258
 20
-0.7638488437
 10
-48.0338950895
 20
14.4570903041
 10
-48.0359660123
 20
18.2191387666
  0
LINE
  5
27F
100
AcDbEntity
  8
0
100
AcDbLine
 62
7
  6
CONTINUOUS
 10
-46.4543939239
 20
21.5361561237
 11
-46.4543939239
 21
-23.0638438763
  0
LINE
  5
280
100
AcDbEntity
  8
RACCORDO
100
AcDbLine
 62
250
  6
CONTINUOUS
 10
-46.1543939239
 20
-23.3638438763
 11
-46.1543939239
 21
-24.9626977765
  0
LINE
  5
281
100
AcDbEntity
  8
RACCORDO
100
AcDbLine
 62
250
  6
CONTINUOUS
 10
-46.1543939239
 20
21.8361561237
 11
-46.1543939239
 21
23.4350100238
  0
LINE
  5
282
100
AcDbEntity
  8
RACCORDO
100
AcDbLine
 62
250
  6
CONTINUOUS
 10
-48.0353635479
 20
-18.8472290914
 11
-48.0282743258
 21
-0.7638488437
  0
LINE
  5
283
100
AcDbEntity
  8
RACCORDO
100
AcDbLine
 62
250
  6
CONTINUOUS
 10
-48.0377773866
 20
-21.4631084167
 11
-48.0353635479
 21
-18.8472290914
  0
LINE
  5
284
100
AcDbEntity
  8
RACCORDO
100
AcDbLine
 62
250
  6
CONTINUOUS
 10
-48.0403747486
 20
-23.0638438763
 11
-48.0377773866
 21
-21.4631084167
  0
LWPOLYLINE
  5
285
100
AcDbEntity
  8
RACCORDO
100
AcDbPolyline
 62
250
  6
CONTINUOUS
 90
3
 70
0
 10
-46.154393924
 20
23.435008636
 10
-46.1527979655
 20
23.5902273037
 10
-46.1407777673
 20
25.0111468913
  0
LWPOLYLINE
  5
286
100
AcDbEntity
  8
RACCORDO
100
AcDbPolyline
 62
250
  6
CONTINUOUS
 90
76
 70
0
 10
-48.0403747486
 20
21.5361561237
 10
-48.0391506618
 20
21.6122676594
 10
-48.0349486431
 20
21.6864085026
 10
-48.0279956059
 20
21.7584693597
 10
-48.0185410537
 20
21.8281303652
 10
-48.0067987588
 20
21.8955453796
 10
-47.9928632692
 20
21.9613306397
 10
-47.9767484702
 20
22.0258777699
 10
-47.95869284
 20
22.0886749512
 10
-47.9391222388
 20
22.1490134382
 10
-47.9182962401
 20
22.206798904
 10
-47.8963617616
 20
22.2621274696
 10
-47.8736716529
 20
22.3146314774
 10
-47.8505625273
 20
22.3640959307
 10
-47.8271278963
 20
22.4108251924
 10
-47.8033441136
 20
22.4552401686
 10
-47.7793614471
 20
22.4973798643
 10
-47.7553221763
 20
22.5372915699
 10
-47.7311200717
 20
22.5753821744
 10
-47.7068209873
 20
22.6117380869
 10
-47.6825559216
 20
22.6463440412
 10
-47.6582683278
 20
22.679431931
 10
-47.634012551
 20
22.7110602359
 10
-47.6098803377
 20
22.7412349304
 10
-47.5858458907
 20
22.7700963409
 10
-47.5619665074
 20
22.7976757987
 10
-47.5382996621
 20
22.8240029787
 10
-47.5148033056
 20
22.8492063164
 10
-47.4914829836
 20
22.8733536936
 10
-47.468420542
 20
22.8964304574
 10
-47.4456809691
 20
22.918437976
 10
-47.423271499
 20
22.9394362543
 10
-47.4012630261
 20
22.959422912
 10
-47.3798198849
 20
22.978312892
 10
-47.3590381889
 20
22.9960970317
 10
-47.3388997408
 20
23.0128551801
 10
-47.3193985138
 20
23.0286391903
 10
-47.3006689651
 20
23.043399765
 10
-47.2826398717
 20
23.0572504128
 10
-47.264983334
 20
23.0704718404
 10
-47.2477443635
 20
23.0830586095
 10
-47.2309118283
 20
23.0950501424
 10
-47.2140525086
 20
23.1067670756
 10
-47.1971795151
 20
23.1182070422
 10
-47.1802897148
 20
23.1293765764
 10
-47.1629049423
 20
23.1405799507
 10
-47.1449856577
 20
23.1518198653
 10
-47.1265610111
 20
23.1630653162
 10
-47.1072375438
 20
23.1745409366
 10
-47.086877603
 20
23.18628682
 10
-47.0655907877
 20
23.1982003801
 10
-47.0433451387
 20
23.2102761918
 10
-47.0201253363
 20
23.2224855581
 10
-46.9959191687
 20
23.2347868644
 10
-46.9706983153
 20
23.2471515575
 10
-46.9444744414
 20
23.2595275969
 10
-46.9172105828
 20
23.2718862964
 10
-46.8888037986
 20
23.2842266623
 10
-46.8592410861
 20
23.2964988947
 10
-46.8285099441
 20
23.3086513836
 10
-46.7965053302
 20
23.3206681514
 10
-46.7631851973
 20
23.3324976114
 10
-46.7285685571
 20
23.3440651528
 10
-46.6926416206
 20
23.3553113545
 10
-46.655306421
 20
23.3662012983
 10
-46.6166466437
 20
23.3766251216
 10
-46.5769297083
 20
23.38642382
 10
-46.5364429314
 20
23.3954884237
 10
-46.4949135916
 20
23.4038214294
 10
-46.4517737862
 20
23.4114074711
 10
-46.4070018818
 20
23.4181384281
 10
-46.3606419714
 20
23.4239118159
 10
-46.3122237879
 20
23.4286412277
 10
-46.2616066215
 20
23.4321788568
 10
-46.208983596
 20
23.4343558167
 10
-46.1543939239
 20
23.4350100238
  0
LWPOLYLINE
  5
287
100
AcDbEntity
  8
RACCORDO
100
AcDbPolyline
 62
250
  6
CONTINUOUS
 90
28
 70
0
 10
-69.4898293367
 20
-39.6360540226
 10
-69.6615960726
 20
-39.6232188987
 10
-69.830546996
 20
-39.5969035203
 10
-69.9954629322
 20
-39.5576540014
 10
-70.1570346393
 20
-39.5055235545
 10
-70.3126282142
 20
-39.4415284346
 10
-70.45677363
 20
-39.368923966
 10
-70.5874742364
 20
-39.2907397267
 10
-70.7068259959
 20
-39.207693544
 10
-70.8161071044
 20
-39.1203848352
 10
-70.9156095437
 20
-39.0299606978
 10
-71.005559889
 20
-38.9376011702
 10
-71.087017103
 20
-38.8434795753
 10
-71.1604251297
 20
-38.7482493353
 10
-71.2259981107
 20
-38.6528300402
 10
-71.2843416689
 20
-38.5575302274
 10
-71.33583667
 20
-38.462944392
 10
-71.380897664
 20
-38.3695894521
 10
-71.420110579
 20
-38.2775043978
 10
-71.4538497917
 20
-38.1870898919
 10
-71.4825019733
 20
-38.0986918295
 10
-71.5065667188
 20
-38.0121557055
 10
-71.5263745698
 20
-37.927730831
 10
-71.542251973
 20
-37.8456512498
 10
-71.5545823913
 20
-37.765663938
 10
-71.5636601845
 20
-37.6877727387
 10
-71.5697423845
 20
-37.6122527798
 10
-71.5731024535
 20
-37.5392117291
  0
LWPOLYLINE
  5
288
100
AcDbEntity
  8
0
100
AcDbPolyline
 62
7
  6
CONTINUOUS
 90
3
 70
0
 43
0.3500000006
 10
-6.5972511749
 20
51.6566999359
 10
-5.7401081371
 20
52.5138424072
 10
-5.7401081371
 20
49.5138460236
  0
LINE
  5
289
100
AcDbEntity
  8
RACCORDO
100
AcDbLine
 62
250
  6
CONTINUOUS
 10
66.1550735852
 20
-39.6531832697
 11
66.0311581249
 21
-39.660118568
  0
LWPOLYLINE
  5
28A
100
AcDbEntity
  8
RACCORDO
100
AcDbPolyline
 62
250
  6
CONTINUOUS
 90
7
 70
0
 10
66.0311581249
 20
-39.660118568
 10
65.9709395642
 20
-39.663110963
 10
65.9117393234
 20
-39.6652699605
 10
65.8535247623
 20
-39.666890206
 10
65.7948944732
 20
-39.6681974417
 10
65.7356757664
 20
-39.6691423922
 10
64.8739675345
 20
-39.6810381042
  0
LINE
  5
28B
100
AcDbEntity
  8
RACCORDO
100
AcDbLine
 62
250
  6
CONTINUOUS
 10
66.2858854533
 20
-39.6472394969
 11
66.1550735852
 21
-39.6531832697
  0
LINE
  5
28C
100
AcDbEntity
  8
RACCORDO
100
AcDbLine
 62
250
  6
CONTINUOUS
 10
66.4273979961
 20
-39.6415534101
 11
66.2858854533
 21
-39.6472394969
  0
LINE
  5
28D
100
AcDbEntity
  8
RACCORDO
100
AcDbLine
 62
250
  6
CONTINUOUS
 10
66.5810419068
 20
-39.6360554033
 11
66.4273979961
 21
-39.6415534101
  0
LINE
  5
28E
100
AcDbEntity
  8
RACCORDO
100
AcDbLine
 62
250
  6
CONTINUOUS
 10
60.9772860506
 20
-39.7414308133
 11
60.1165137129
 21
-39.7554476257
  0
LINE
  5
28F
100
AcDbEntity
  8
RACCORDO
100
AcDbLine
 62
250
  6
CONTINUOUS
 10
60.1165137129
 20
-39.7554476257
 11
59.6734791088
 21
-39.7626075476
  0
LWPOLYLINE
  5
290
100
AcDbEntity
  8
RACCORDO
100
AcDbPolyline
 62
250
  6
CONTINUOUS
 90
3
 70
0
 10
61.9077349368
 20
-39.7265336861
 10
61.5581071514
 20
-39.7321004765
 10
60.9772860506
 20
-39.7414308133
  0
LINE
  5
291
100
AcDbEntity
  8
RACCORDO
100
AcDbLine
 62
250
  6
CONTINUOUS
 10
62.0714379581
 20
-39.7239320079
 11
61.9077349368
 21
-39.7265336861
  0
LWPOLYLINE
  5
292
100
AcDbEntity
  8
RACCORDO
100
AcDbPolyline
 62
250
  6
CONTINUOUS
 90
3
 70
0
 10
62.528055824
 20
-39.7167196793
 10
62.3815983618
 20
-39.7190246951
 10
62.0714379581
 20
-39.7239320079
  0
LWPOLYLINE
  5
293
100
AcDbEntity
  8
RACCORDO
100
AcDbPolyline
 62
250
  6
CONTINUOUS
 90
4
 70
0
 10
63.0727008207
 20
-39.7082092511
 10
62.941949751
 20
-39.7102425677
 10
62.8082311654
 20
-39.7123284072
 10
62.528055824
 20
-39.7167196793
  0
LWPOLYLINE
  5
294
100
AcDbEntity
  8
RACCORDO
100
AcDbPolyline
 62
250
  6
CONTINUOUS
 90
3
 70
0
 10
63.4484476357
 20
-39.7024043348
 10
63.3260058079
 20
-39.7042894011
 10
63.0727008207
 20
-39.7082092511
  0
LINE
  5
295
100
AcDbEntity
  8
RACCORDO
100
AcDbLine
 62
250
  6
CONTINUOUS
 10
59.6734791088
 20
-39.7626075476
 11
58.5974763719
 21
-39.7795068017
  0
LWPOLYLINE
  5
296
100
AcDbEntity
  8
RACCORDO
100
AcDbPolyline
 62
250
  6
CONTINUOUS
 90
3
 70
0
 10
63.7996519278
 20
-39.6970365937
 10
63.6854161253
 20
-39.6987759126
 10
63.4484476357
 20
-39.7024043348
  0
LWPOLYLINE
  5
297
100
AcDbEntity
  8
RACCORDO
100
AcDbPolyline
 62
250
  6
CONTINUOUS
 90
3
 70
0
 10
64.1248916246
 20
-39.6921247441
 10
64.0193561288
 20
-39.6937122121
 10
63.7996519278
 20
-39.6970365937
  0
LWPOLYLINE
  5
298
100
AcDbEntity
  8
RACCORDO
100
AcDbPolyline
 62
250
  6
CONTINUOUS
 90
3
 70
0
 10
64.4242647437
 20
-39.6876578194
 10
64.3271288478
 20
-39.6891019207
 10
64.1248916246
 20
-39.6921247441
  0
LWPOLYLINE
  5
299
100
AcDbEntity
  8
RACCORDO
100
AcDbPolyline
 62
250
  6
CONTINUOUS
 90
3
 70
0
 10
64.7007322909
 20
-39.6835745026
 10
64.6108782369
 20
-39.6848965764
 10
64.4242647437
 20
-39.6876578194
  0
LINE
  5
29A
100
AcDbEntity
  8
RACCORDO
100
AcDbLine
 62
250
  6
CONTINUOUS
 10
64.8739675345
 20
-39.6810381042
 11
64.7007322909
 21
-39.6835745026
  0
LINE
  5
29B
100
AcDbEntity
  8
RACCORDO
100
AcDbLine
 62
250
  6
CONTINUOUS
 10
58.5974763719
 20
-39.7795068017
 11
57.6390469883
 21
-39.7935362384
  0
LWPOLYLINE
  5
29C
100
AcDbEntity
  8
RACCORDO
100
AcDbPolyline
 62
250
  6
CONTINUOUS
 90
4
 70
0
 10
69.0958069739
 20
-37.5339893109
 10
68.8894450977
 20
-37.5373032502
 10
68.7784860468
 20
-37.5384414404
 10
68.6643146432
 20
-37.5392117376
  0
LINE
  5
29D
100
AcDbEntity
  8
RACCORDO
100
AcDbLine
 62
250
  6
CONTINUOUS
 10
57.6390469883
 20
-39.7935362384
 11
56.9944863677
 21
-39.8022046985
  0
LINE
  5
29E
100
AcDbEntity
  8
RACCORDO
100
AcDbLine
 62
250
  6
CONTINUOUS
 10
55.5533490682
 20
-39.812113308
 11
54.9990524734
 21
-39.8194255572
  0
LINE
  5
29F
100
AcDbEntity
  8
RACCORDO
100
AcDbLine
 62
250
  6
CONTINUOUS
 10
56.9944863677
 20
-39.8022046985
 11
56.5789675647
 21
-39.8072419014
  0
LINE
  5
2A0
100
AcDbEntity
  8
RACCORDO
100
AcDbLine
 62
250
  6
CONTINUOUS
 10
54.9990524734
 20
-39.8194255572
 11
54.3612686662
 21
-39.8267871766
  0
LINE
  5
2A1
100
AcDbEntity
  8
RACCORDO
100
AcDbLine
 62
250
  6
CONTINUOUS
 10
54.3612686662
 20
-39.8267871766
 11
53.7721337523
 21
-39.8325527829
  0
LINE
  5
2A2
100
AcDbEntity
  8
RACCORDO
100
AcDbLine
 62
250
  6
CONTINUOUS
 10
56.5789675647
 20
-39.8072419014
 11
56.3297063036
 21
-39.8092003846
  0
LINE
  5
2A3
100
AcDbEntity
  8
RACCORDO
100
AcDbLine
 62
250
  6
CONTINUOUS
 10
53.7721337523
 20
-39.8325527829
 11
53.4531459482
 21
-39.8343445031
  0
LINE
  5
2A4
100
AcDbEntity
  8
RACCORDO
100
AcDbLine
 62
250
  6
CONTINUOUS
 10
56.3297063036
 20
-39.8092003846
 11
56.0964629467
 21
-39.8103285914
  0
LINE
  5
2A5
100
AcDbEntity
  8
RACCORDO
100
AcDbLine
 62
250
  6
CONTINUOUS
 10
56.0964629467
 20
-39.8103285914
 11
55.5533490682
 21
-39.812113308
  0
LINE
  5
2A6
100
AcDbEntity
  8
RACCORDO
100
AcDbLine
 62
250
  6
CONTINUOUS
 10
53.4531459482
 20
-39.8343445031
 11
52.5777812549
 21
-39.8361221215
  0
LWPOLYLINE
  5
2A7
100
AcDbEntity
  8
RACCORDO
100
AcDbPolyline
 62
250
  6
CONTINUOUS
 90
4
 70
0
 10
52.5777812549
 20
-39.8361221215
 10
52.1919114697
 20
-39.8367228753
 10
51.9906723175
 20
-39.8370131417
 10
51.7836947644
 20
-39.8373047917
  0
LINE
  5
2A8
100
AcDbEntity
  8
RACCORDO
100
AcDbLine
 62
250
  6
CONTINUOUS
 10
51.7836947644
 20
-39.8373047917
 11
51.3523942235
 21
-39.8378702201
  0
LINE
  5
2A9
100
AcDbEntity
  8
RACCORDO
100
AcDbLine
 62
250
  6
CONTINUOUS
 10
51.3523942235
 20
-39.8378702201
 11
50.8972403975
 21
-39.8383933088
  0
LINE
  5
2AA
100
AcDbEntity
  8
RACCORDO
100
AcDbLine
 62
250
  6
CONTINUOUS
 10
50.8972403975
 20
-39.8383933088
 11
50.4175695697
 21
-39.8388678749
  0
LINE
  5
2AB
100
AcDbEntity
  8
RACCORDO
100
AcDbLine
 62
250
  6
CONTINUOUS
 10
-68.0836589894
 20
-40.5047987593
 11
-69.451004909
 21
-40.5063434657
  0
LINE
  5
2AC
100
AcDbEntity
  8
RACCORDO
100
AcDbLine
 62
250
  6
CONTINUOUS
 10
50.4175695697
 20
-39.8388678749
 11
49.912787814
 21
-39.8392880284
  0
LINE
  5
2AD
100
AcDbEntity
  8
RACCORDO
100
AcDbLine
 62
250
  6
CONTINUOUS
 10
49.912787814
 20
-39.8392880284
 11
49.3819113923
 21
-39.8396451942
  0
LINE
  5
2AE
100
AcDbEntity
  8
RACCORDO
100
AcDbLine
 62
250
  6
CONTINUOUS
 10
-37.1055326142
 20
-39.8294622884
 11
-47.6167780048
 21
-39.8395334292
  0
LINE
  5
2AF
100
AcDbEntity
  8
RACCORDO
100
AcDbLine
 62
250
  6
CONTINUOUS
 10
-35.7038535643
 20
-39.8285347982
 11
-37.1055326142
 21
-39.8294622884
  0
LINE
  5
2B0
100
AcDbEntity
  8
RACCORDO
100
AcDbLine
 62
250
  6
CONTINUOUS
 10
-58.5887214221
 20
-40.4967025013
 11
-68.0836589894
 21
-40.5047987593
  0
LINE
  5
2B1
100
AcDbEntity
  8
RACCORDO
100
AcDbLine
 62
250
  6
CONTINUOUS
 10
49.3819113923
 20
-39.8396451942
 11
48.8234183603
 21
-39.839928194
  0
LWPOLYLINE
  5
2B2
100
AcDbEntity
  8
RACCORDO
100
AcDbPolyline
 62
250
  6
CONTINUOUS
 90
3
 70
0
 10
48.8234183603
 20
-39.839928194
 10
48.2363120836
 20
-39.8401300823
 10
47.9314660173
 20
-39.8401967397
  0
LINE
  5
2B3
100
AcDbEntity
  8
RACCORDO
100
AcDbLine
 62
7
  6
CONTINUOUS
 10
-69.7085053197
 20
-40.7638438763
 11
66.7997174718
 21
-40.7638438763
  0
LINE
  5
2B4
100
AcDbEntity
  8
RACCORDO
100
AcDbLine
 62
250
  6
CONTINUOUS
 10
53.4529239835
 20
-40.4959270714
 11
32.7955183989
 21
-40.4969622858
  0
LINE
  5
2B5
100
AcDbEntity
  8
RACCORDO
100
AcDbLine
 62
250
  6
CONTINUOUS
 10
-56.7010444094
 20
-40.4959428758
 11
-58.5887214221
 21
-40.4967025013
  0
LINE
  5
2B6
100
AcDbEntity
  8
RACCORDO
100
AcDbLine
 62
250
  6
CONTINUOUS
 10
47.9314660173
 20
-39.8401967397
 11
47.298567495
 21
-39.8402581981
  0
LINE
  5
2B7
100
AcDbEntity
  8
RACCORDO
100
AcDbLine
 62
250
  6
CONTINUOUS
 10
-47.6167780048
 20
-39.8395334292
 11
-49.8213543226
 21
-39.8402461348
  0
LINE
  5
2B8
100
AcDbEntity
  8
RACCORDO
100
AcDbLine
 62
250
  6
CONTINUOUS
 10
32.7955183989
 20
-40.4969622858
 11
-37.7794834959
 21
-40.4968738358
  0
LINE
  5
2B9
100
AcDbEntity
  8
RACCORDO
100
AcDbLine
 62
250
  6
CONTINUOUS
 10
-37.7794834959
 20
-40.4968738358
 11
-56.7010444094
 21
-40.4959428758
  0
LWPOLYLINE
  5
2BA
100
AcDbEntity
  8
RACCORDO
100
AcDbPolyline
 62
250
  6
CONTINUOUS
 90
4
 70
0
 10
54.0716059108
 20
-40.4959813793
 10
53.9232564552
 20
-40.4959587592
 10
53.7707663517
 20
-40.4959427193
 10
53.4529239835
 20
-40.4959270714
  0
LINE
  5
2BB
100
AcDbEntity
  8
RACCORDO
100
AcDbLine
 62
250
  6
CONTINUOUS
 10
47.298567495
 20
-39.8402581981
 11
46.6332120583
 21
-39.8402146377
  0
LWPOLYLINE
  5
2BC
100
AcDbEntity
  8
RACCORDO
100
AcDbPolyline
 62
250
  6
CONTINUOUS
 90
3
 70
0
 10
54.4919889153
 20
-40.4960901729
 10
54.3562175776
 20
-40.496048725
 10
54.0716059108
 20
-40.4959813793
  0
LINE
  5
2BD
100
AcDbEntity
  8
RACCORDO
100
AcDbLine
 62
250
  6
CONTINUOUS
 10
46.6332120583
 20
-39.8402146377
 11
45.9335305012
 21
-39.8400566268
  0
LWPOLYLINE
  5
2BE
100
AcDbEntity
  8
RACCORDO
100
AcDbPolyline
 62
250
  6
CONTINUOUS
 90
5
 70
0
 10
55.1045669554
 20
-40.4963533056
 10
54.9903685692
 20
-40.4962948896
 10
54.8721943752
 20
-40.4962393316
 10
54.7495978177
 20
-40.4961862118
 10
54.4919889153
 20
-40.4960901729
  0
LINE
  5
2BF
100
AcDbEntity
  8
RACCORDO
100
AcDbLine
 62
250
  6
CONTINUOUS
 10
56.8402726302
 20
-40.497302503
 11
55.9755646682
 21
-40.4968752216
  0
LINE
  5
2C0
100
AcDbEntity
  8
RACCORDO
100
AcDbLine
 62
250
  6
CONTINUOUS
 10
-49.8213543226
 20
-39.8402461348
 11
-51.9919011003
 21
-39.8398076079
  0
LWPOLYLINE
  5
2C1
100
AcDbEntity
  8
RACCORDO
100
AcDbPolyline
 62
250
  6
CONTINUOUS
 90
3
 70
0
 10
45.9335305012
 20
-39.8400566268
 10
45.1982260198
 20
-39.8397784754
 10
44.8164611151
 20
-39.8395911945
  0
LINE
  5
2C2
100
AcDbEntity
  8
RACCORDO
100
AcDbLine
 62
250
  6
CONTINUOUS
 10
55.3264716843
 20
-40.496478101
 11
55.1045669554
 21
-40.4963533056
  0
LWPOLYLINE
  5
2C3
100
AcDbEntity
  8
RACCORDO
100
AcDbPolyline
 62
250
  6
CONTINUOUS
 90
3
 70
0
 10
55.9755646682
 20
-40.4968752216
 10
55.7564268658
 20
-40.4967486946
 10
55.3264716843
 20
-40.496478101
  0
LWPOLYLINE
  5
2C4
100
AcDbEntity
  8
RACCORDO
100
AcDbPolyline
 62
250
  6
CONTINUOUS
 90
5
 70
0
 10
57.6260274572
 20
-40.4978039243
 10
57.4545935281
 20
-40.4976823724
 10
57.2908821985
 20
-40.497572299
 10
57.1343321609
 20
-40.4974731521
 10
56.8402726302
 20
-40.497302503
  0
LINE
  5
2C5
100
AcDbEntity
  8
RACCORDO
100
AcDbLine
 62
250
  6
CONTINUOUS
 10
44.8164611151
 20
-39.8395911945
 11
44.0239558679
 21
-39.8391193696
  0
LINE
  5
2C6
100
AcDbEntity
  8
RACCORDO
100
AcDbLine
 62
250
  6
CONTINUOUS
 10
33.4765208553
 20
-39.8289535267
 11
-35.7038535643
 21
-39.8285348782
  0
LWPOLYLINE
  5
2C7
100
AcDbEntity
  8
RACCORDO
100
AcDbPolyline
 62
250
  6
CONTINUOUS
 90
5
 70
0
 10
58.5814713279
 20
-40.4985787578
 10
58.3789130362
 20
-40.4984023319
 10
58.1810654677
 20
-40.4982356064
 10
57.9895478135
 20
-40.4980800962
 10
57.6260274572
 20
-40.4978039243
  0
LWPOLYLINE
  5
2C8
100
AcDbEntity
  8
RACCORDO
100
AcDbPolyline
 62
250
  6
CONTINUOUS
 90
3
 70
0
 10
44.0239558679
 20
-39.8391193696
 10
43.1909314091
 20
-39.8385126068
 10
42.7584334521
 20
-39.8381591565
  0
LINE
  5
2C9
100
AcDbEntity
  8
RACCORDO
100
AcDbLine
 62
250
  6
CONTINUOUS
 10
34.7886951614
 20
-39.8299242853
 11
33.4765208553
 21
-39.8289535267
  0
LINE
  5
2CA
100
AcDbEntity
  8
RACCORDO
100
AcDbLine
 62
250
  6
CONTINUOUS
 10
60.9587879103
 20
-40.5009063966
 11
58.5814713279
 21
-40.4985787578
  0
LWPOLYLINE
  5
2CB
100
AcDbEntity
  8
RACCORDO
100
AcDbPolyline
 62
250
  6
CONTINUOUS
 90
4
 70
0
 10
42.7584334521
 20
-39.8381591565
 10
41.8607463472
 20
-39.837350313
 10
41.3946664521
 20
-39.8368983808
 10
40.9168423959
 20
-39.836414286
  0
LINE
  5
2CC
100
AcDbEntity
  8
RACCORDO
100
AcDbLine
 62
250
  6
CONTINUOUS
 10
36.0328097134
 20
-39.8311025304
 11
34.7886951614
 21
-39.8299242853
  0
LINE
  5
2CD
100
AcDbEntity
  8
RACCORDO
100
AcDbLine
 62
250
  6
CONTINUOUS
 10
66.0698302637
 20
-40.5055551267
 11
60.9587879103
 21
-40.5009063966
  0
LINE
  5
2CE
100
AcDbEntity
  8
RACCORDO
100
AcDbLine
 62
250
  6
CONTINUOUS
 10
-51.9919011003
 20
-39.8398076079
 11
-54.0355173098
 21
-39.8381385438
  0
LINE
  5
2CF
100
AcDbEntity
  8
RACCORDO
100
AcDbLine
 62
250
  6
CONTINUOUS
 10
40.9168423959
 20
-39.836414286
 11
36.0328097134
 21
-39.8311025304
  0
LINE
  5
2D0
100
AcDbEntity
  8
RACCORDO
100
AcDbLine
 62
250
  6
CONTINUOUS
 10
66.3228117027
 20
-40.5059276546
 11
66.0698302637
 21
-40.5055551267
  0
LINE
  5
2D1
100
AcDbEntity
  8
RACCORDO
100
AcDbLine
 62
250
  6
CONTINUOUS
 10
66.5422170611
 20
-40.5063434657
 11
66.3228117027
 21
-40.5059276546
  0
LINE
  5
2D2
100
AcDbEntity
  8
RACCORDO
100
AcDbLine
 62
250
  6
CONTINUOUS
 10
-54.0355173098
 20
-39.8381385438
 11
-56.2142431216
 21
-39.834866789
  0
LINE
  5
2D3
100
AcDbEntity
  8
RACCORDO
100
AcDbLine
 62
250
  6
CONTINUOUS
 10
-58.6001467179
 20
-39.8112221056
 11
-59.0394537224
 21
-39.8102067285
  0
LINE
  5
2D4
100
AcDbEntity
  8
RACCORDO
100
AcDbLine
 62
250
  6
CONTINUOUS
 10
-56.2142431216
 20
-39.834866789
 11
-56.5440636661
 21
-39.8333146303
  0
LINE
  5
2D5
100
AcDbEntity
  8
RACCORDO
100
AcDbLine
 62
250
  6
CONTINUOUS
 10
-59.0394537224
 20
-39.8102067285
 11
-59.2753397035
 21
-39.8090060745
  0
LINE
  5
2D6
100
AcDbEntity
  8
RACCORDO
100
AcDbLine
 62
250
  6
CONTINUOUS
 10
-56.5440636661
 20
-39.8333146303
 11
-56.8574668639
 21
-39.830969186
  0
LINE
  5
2D7
100
AcDbEntity
  8
RACCORDO
100
AcDbLine
 62
250
  6
CONTINUOUS
 10
-59.2753397035
 20
-39.8090060745
 11
-59.5305176433
 21
-39.8066903014
  0
LINE
  5
2D8
100
AcDbEntity
  8
RACCORDO
100
AcDbLine
 62
250
  6
CONTINUOUS
 10
-56.8574668639
 20
-39.830969186
 11
-57.4336939701
 21
-39.8250021029
  0
LWPOLYLINE
  5
2D9
100
AcDbEntity
  8
RACCORDO
100
AcDbPolyline
 62
250
  6
CONTINUOUS
 90
4
 70
0
 10
-57.4336939701
 20
-39.8250021029
 10
-58.0523159017
 20
-39.8175722806
 10
-58.1646357998
 20
-39.8160901802
 10
-58.6001467179
 20
-39.8112221056
  0
LINE
  5
2DA
100
AcDbEntity
  8
RACCORDO
100
AcDbLine
 62
250
  6
CONTINUOUS
 10
-59.5305176433
 20
-39.8066903014
 11
-59.9557215868
 21
-39.8015592502
  0
LINE
  5
2DB
100
AcDbEntity
  8
RACCORDO
100
AcDbLine
 62
250
  6
CONTINUOUS
 10
-59.9557215868
 20
-39.8015592502
 11
-60.7783328048
 21
-39.7902754477
  0
LINE
  5
2DC
100
AcDbEntity
  8
RACCORDO
100
AcDbLine
 62
250
  6
CONTINUOUS
 10
-67.6839495526
 20
-39.6824817945
 11
-68.6412821466
 21
-39.6691849061
  0
LINE
  5
2DD
100
AcDbEntity
  8
RACCORDO
100
AcDbLine
 62
250
  6
CONTINUOUS
 10
-60.7783328048
 20
-39.7902754477
 11
-61.7349136826
 21
-39.775998456
  0
LINE
  5
2DE
100
AcDbEntity
  8
RACCORDO
100
AcDbLine
 62
250
  6
CONTINUOUS
 10
-65.7042593712
 20
-39.7125278734
 11
-67.6839495526
 21
-39.6824817945
  0
LWPOLYLINE
  5
2DF
100
AcDbEntity
  8
RACCORDO
100
AcDbPolyline
 62
250
  6
CONTINUOUS
 90
7
 70
0
 10
-68.6412821466
 20
-39.6691849061
 10
-68.7007743094
 20
-39.6682455471
 10
-68.7596837328
 20
-39.6669566841
 10
-68.8181563972
 20
-39.6653607725
 10
-68.8775827926
 20
-39.6632154129
 10
-68.9380330749
 20
-39.6602175247
 10
-69.0625348283
 20
-39.6532498942
  0
LWPOLYLINE
  5
2E0
100
AcDbEntity
  8
RACCORDO
100
AcDbPolyline
 62
250
  6
CONTINUOUS
 90
3
 70
0
 10
-61.7349136826
 20
-39.775998456
 10
-63.4749089322
 20
-39.7481157648
 10
-65.7042593712
 20
-39.7125278734
  0
LINE
  5
2E1
100
AcDbEntity
  8
RACCORDO
100
AcDbLine
 62
250
  6
CONTINUOUS
 10
-69.2632307577
 20
-39.6444030794
 11
-69.4898297345
 21
-39.6360553392
  0
LWPOLYLINE
  5
2E2
100
AcDbEntity
  8
RACCORDO
100
AcDbPolyline
 62
250
  6
CONTINUOUS
 90
28
 70
0
 10
-69.451004909
 20
-40.5063434657
 10
-69.7010972504
 20
-40.4960154599
 10
-69.9470783509
 20
-40.4652826944
 10
-70.1873488041
 20
-40.4149294713
 10
-70.4228405348
 20
-40.3450182488
 10
-70.6496230508
 20
-40.2569970529
 10
-70.8596519925
 20
-40.1556053377
 10
-71.0499313456
 20
-40.0452735754
 10
-71.2235012487
 20
-39.9272017338
 10
-71.3822533222
 20
-39.8024262369
 10
-71.5265728741
 20
-39.6726762146
 10
-71.6567633607
 20
-39.5397316981
 10
-71.7743851961
 20
-39.4039472478
 10
-71.8800711837
 20
-39.2663118511
 10
-71.9741352359
 20
-39.1281928604
 10
-72.057488973
 20
-38.9900921804
 10
-72.1306848884
 20
-38.8529052757
 10
-72.1943265765
 20
-38.7174117627
 10
-72.2492866421
 20
-38.5837057075
 10
-72.2961201046
 20
-38.4523898588
 10
-72.3354020574
 20
-38.3239774481
 10
-72.3678785469
 20
-38.1982562712
 10
-72.3940489186
 20
-38.0755937457
 10
-72.414406909
 20
-37.9563314185
 10
-72.4295255591
 20
-37.840103844
 10
-72.4398382793
 20
-37.7269278778
 10
-72.4457233034
 20
-37.6172197456
 10
-72.4475870027
 20
-37.5111483508
  0
LWPOLYLINE
  5
2E3
100
AcDbEntity
  8
RACCORDO
100
AcDbPolyline
 62
250
  6
CONTINUOUS
 90
3
 70
0
 10
-69.0625348283
 20
-39.6532498942
 10
-69.1274235114
 20
-39.6501994663
 10
-69.2632307577
 20
-39.6444030794
  0
LINE
  5
2E4
100
AcDbEntity
  8
RACCORDO
100
AcDbLine
 62
250
  6
CONTINUOUS
 10
-35.7036148956
 20
-26.1866134522
 11
-35.7023897318
 21
-26.5685694945
  0
LINE
  5
2E5
100
AcDbEntity
  8
RACCORDO
100
AcDbLine
 62
250
  6
CONTINUOUS
 10
-35.7016957418
 20
23.4376949078
 11
-35.7029797566
 21
25.040881209
  0
LINE
  5
2E6
100
AcDbEntity
  8
RACCORDO
100
AcDbLine
 62
250
  6
CONTINUOUS
 10
-35.7047105915
 20
38.9692745263
 11
-35.7046435238
 21
38.8083893073
  0
LINE
  5
2E7
100
AcDbEntity
  8
RACCORDO
100
AcDbLine
 62
250
  6
CONTINUOUS
 10
-35.703793885
 20
25.040881209
 11
-35.7046435238
 21
38.8083893073
  0
LINE
  5
2E8
100
AcDbEntity
  8
RACCORDO
100
AcDbLine
 62
250
  6
CONTINUOUS
 10
-35.7039076341
 20
-40.0622870073
 11
-35.7041310459
 21
-26.5685755915
  0
LINE
  5
2E9
100
AcDbEntity
  8
RACCORDO
100
AcDbLine
 62
250
  6
CONTINUOUS
 10
-35.7035482631
 20
-25.8143053313
 11
-35.7036148956
 21
-26.1866134522
  0
LINE
  5
2EA
100
AcDbEntity
  8
RACCORDO
100
AcDbLine
 62
250
  6
CONTINUOUS
 10
-35.7011059579
 20
-24.9653828465
 11
-35.7035482631
 21
-25.8143053313
  0
LINE
  5
2EB
100
AcDbEntity
  8
RACCORDO
100
AcDbLine
 62
250
  6
CONTINUOUS
 10
-35.7043062467
 20
-40.4969622858
 11
-35.7039076341
 21
-40.0622870073
  0
LINE
  5
2EC
100
AcDbEntity
  8
RACCORDO
100
AcDbLine
 62
250
  6
CONTINUOUS
 10
-71.687273923
 20
-37.5384419812
 11
-71.5731025214
 21
-37.5392117444
  0
LWPOLYLINE
  5
2ED
100
AcDbEntity
  8
SCRITTA_VIMAR
100
AcDbPolyline
 62
250
  6
CONTINUOUS
 90
87
 70
0
 10
44.9524302018
 20
-28.6059738763
 10
44.9621958733
 20
-28.6058333043
 10
44.9721060916
 20
-28.6054135915
 10
44.9820696395
 20
-28.6047177325
 10
44.9919952998
 20
-28.6037487219
 10
45.0050569628
 20
-28.6020364759
 10
45.017937157
 20
-28.5998480184
 10
45.0306839331
 20
-28.5971874169
 10
45.043332407
 20
-28.5940590929
 10
45.0558659542
 20
-28.5904688836
 10
45.0682550152
 20
-28.58642298
 10
45.0804785383
 20
-28.5819244787
 10
45.0925495033
 20
-28.5769640986
 10
45.104489398
 20
-28.5715294643
 10
45.1163129644
 20
-28.5656087358
 10
45.1280079624
 20
-28.5591922144
 10
45.1395554067
 20
-28.5522707369
 10
45.1509286337
 20
-28.5448434171
 10
45.1620702679
 20
-28.5369424758
 10
45.1729152558
 20
-28.5286084112
 10
45.1834077851
 20
-28.5198774019
 10
45.1935290078
 20
-28.5107683487
 10
45.2032693171
 20
-28.5012958334
 10
45.212619106
 20
-28.4914744376
 10
45.2215687676
 20
-28.4813187429
 10
45.2301086952
 20
-28.4708433309
 10
45.2382296838
 20
-28.4600628647
 10
45.2459241363
 20
-28.4489923332
 10
45.2531848576
 20
-28.4376468065
 10
45.2600046527
 20
-28.4260413549
 10
45.2663763265
 20
-28.4141910486
 10
45.2722926839
 20
-28.4021109579
 10
45.2777465382
 20
-28.3898146141
 10
45.2827307363
 20
-28.377309392
 10
45.2872381334
 20
-28.3646011278
 10
45.2912615849
 20
-28.3516956575
 10
45.294793946
 20
-28.338598817
 10
45.297828072
 20
-28.3253164424
 10
45.3003567398
 20
-28.3118591763
 10
45.3023724124
 20
-28.2982568879
 10
45.3038674744
 20
-28.284544253
 10
45.3048343106
 20
-28.2707559475
 10
45.3052653055
 20
-28.2569266471
 10
45.3051528439
 20
-28.2430910278
 10
45.3044919103
 20
-28.229282053
 10
45.3032878893
 20
-28.2155258371
 10
45.3015487654
 20
-28.2018467825
 10
45.299282523
 20
-28.1882692911
 10
45.2964971468
 20
-28.1748177653
 10
45.2932006212
 20
-28.1615166071
 10
45.2894009909
 20
-28.14838854
 10
45.2851065413
 20
-28.135449572
 10
45.2803256181
 20
-28.1227140326
 10
45.2750665667
 20
-28.1101962509
 10
45.2693377329
 20
-28.0979105564
 10
45.2631474622
 20
-28.0858712784
 10
45.256505646
 20
-28.0740933989
 10
45.2494283584
 20
-28.062594511
 10
45.2419332195
 20
-28.0513928604
 10
45.2340378493
 20
-28.0405066929
 10
45.2257598676
 20
-28.0299542541
 10
45.2171168946
 20
-28.01975379
 10
45.2081181313
 20
-28.009916019
 10
45.1987391032
 20
-28.0004215508
 10
45.1889469171
 20
-27.9912434679
 10
45.178725167
 20
-27.9823697937
 10
45.1681233969
 20
-27.9738483157
 10
45.1572076381
 20
-27.9657417622
 10
45.1460452631
 20
-27.9581062014
 10
45.134709009
 20
-27.950971061
 10
45.1232729544
 20
-27.9443591085
 10
45.111803984
 20
-27.9382863394
 10
45.1003402073
 20
-27.932741661
 10
45.0889125399
 20
-27.9277072087
 10
45.0775402435
 20
-27.9231630916
 10
45.066195964
 20
-27.9190813131
 10
45.0548406932
 20
-27.9154318506
 10
45.0434473172
 20
-27.9121892036
 10
45.0320362991
 20
-27.9093459615
 10
45.0206399963
 20
-27.9068992361
 10
45.0092761186
 20
-27.9048454006
 10
44.9979037852
 20
-27.9031778743
 10
44.9864674677
 20
-27.9018893379
 10
44.9778337568
 20
-27.9011675479
 10
44.9692229177
 20
-27.9006535536
 10
44.960725048
 20
-27.9003460861
 10
44.9524302455
 20
-27.9002438763
  0
LWPOLYLINE
  5
2EE
100
AcDbEntity
  8
RACCORDO
100
AcDbPolyline
 62
250
  6
CONTINUOUS
 90
9
 70
0
 10
43.2319899194
 20
-26.5388346439
 10
42.1742398318
 20
-26.5525936785
 10
41.0894819645
 20
-26.5610997823
 10
39.9784286849
 20
-26.5660025817
 10
38.8408749794
 20
-26.568771085
 10
37.6776772027
 20
-26.5699068996
 10
36.4911980469
 20
-26.5698123895
 10
35.282185273
 20
-26.5690073991
 10
34.0497081087
 20
-26.5682822147
  0
LINE
  5
2EF
100
AcDbEntity
  8
SCRITTA_VIMAR
100
AcDbLine
 62
250
  6
CONTINUOUS
 10
41.4257500761
 20
-30.2638508763
 11
40.8457280761
 21
-30.2638588763
  0
LINE
  5
2F0
100
AcDbEntity
  8
SCRITTA_VIMAR
100
AcDbLine
 62
250
  6
CONTINUOUS
 10
39.3306450761
 20
-30.2638508763
 11
38.7506370761
 21
-30.2638588763
  0
LINE
  5
2F1
100
AcDbEntity
  8
SCRITTA_VIMAR
100
AcDbLine
 62
250
  6
CONTINUOUS
 10
45.9956060761
 20
-30.2638438763
 11
45.3423010761
 21
-30.2638508763
  0
LINE
  5
2F2
100
AcDbEntity
  8
SCRITTA_VIMAR
100
AcDbLine
 62
250
  6
CONTINUOUS
 10
37.0422330761
 20
-30.2638588763
 11
36.4622110761
 21
-30.2638658763
  0
LINE
  5
2F3
100
AcDbEntity
  8
SCRITTA_VIMAR
100
AcDbLine
 62
250
  6
CONTINUOUS
 10
35.1444000761
 20
-30.2638588763
 11
34.5643570761
 21
-30.2638658763
  0
LINE
  5
2F4
100
AcDbEntity
  8
SCRITTA_VIMAR
100
AcDbLine
 62
250
  6
CONTINUOUS
 10
40.4590490761
 20
-30.2638588763
 11
39.8790270761
 21
-30.2638588763
  0
LINE
  5
2F5
100
AcDbEntity
  8
SCRITTA_VIMAR
100
AcDbLine
 62
250
  6
CONTINUOUS
 10
38.2022620761
 20
-30.2638588763
 11
37.6222400761
 21
-30.2638588763
  0
LINE
  5
2F6
100
AcDbEntity
  8
SCRITTA_VIMAR
100
AcDbLine
 62
250
  6
CONTINUOUS
 10
44.2547500761
 20
-30.2638508763
 11
43.6747210761
 21
-30.2638508763
  0
LINE
  5
2F7
100
AcDbEntity
  8
SCRITTA_VIMAR
100
AcDbLine
 62
250
  6
CONTINUOUS
 10
43.2880430761
 20
-30.2638588763
 11
42.7080140761
 21
-30.2638508763
  0
LINE
  5
2F8
100
AcDbEntity
  8
SCRITTA_VIMAR
100
AcDbLine
 62
250
  6
CONTINUOUS
 10
42.5249080761
 20
-29.6935228763
 11
41.6088630761
 21
-29.6935228763
  0
LINE
  5
2F9
100
AcDbEntity
  8
SCRITTA_VIMAR
100
AcDbLine
 62
250
  6
CONTINUOUS
 10
41.7857850761
 20
-29.1425008763
 11
42.3479790761
 21
-29.1425008763
  0
LINE
  5
2FA
100
AcDbEntity
  8
SCRITTA_VIMAR
100
AcDbLine
 62
250
  6
CONTINUOUS
 10
44.7610470761
 20
-29.1425008763
 11
44.2548160761
 21
-29.1424938763
  0
LINE
  5
2FB
100
AcDbEntity
  8
SCRITTA_VIMAR
100
AcDbLine
 62
250
  6
CONTINUOUS
 10
44.2467540761
 20
-28.6059718763
 11
44.9524299504
 21
-28.6059718763
  0
LINE
  5
2FC
100
AcDbEntity
  8
SCRITTA_VIMAR
100
AcDbLine
 62
250
  6
CONTINUOUS
 10
44.9524299066
 20
-27.9002418763
 11
44.2467460761
 21
-27.9002418763
  0
LINE
  5
2FD
100
AcDbEntity
  8
SCRITTA_VIMAR
100
AcDbLine
 62
250
  6
CONTINUOUS
 10
33.6332250761
 20
-27.3637278763
 11
34.2132540761
 21
-27.3637278763
  0
LINE
  5
2FE
100
AcDbEntity
  8
SCRITTA_VIMAR
100
AcDbLine
 62
250
  6
CONTINUOUS
 10
35.4955110761
 20
-27.3637278763
 11
36.0755400761
 21
-27.3637278763
  0
LINE
  5
2FF
100
AcDbEntity
  8
SCRITTA_VIMAR
100
AcDbLine
 62
250
  6
CONTINUOUS
 10
36.4622180761
 20
-27.3637278763
 11
37.0422400761
 21
-27.3637278763
  0
LINE
  5
300
100
AcDbEntity
  8
SCRITTA_VIMAR
100
AcDbLine
 62
250
  6
CONTINUOUS
 10
37.6222400761
 20
-27.3637278763
 11
38.4990770761
 21
-27.3637278763
  0
LINE
  5
301
100
AcDbEntity
  8
SCRITTA_VIMAR
100
AcDbLine
 62
250
  6
CONTINUOUS
 10
39.5822120761
 20
-27.3637278763
 11
40.4590490761
 21
-27.3637278763
  0
LINE
  5
302
100
AcDbEntity
  8
SCRITTA_VIMAR
100
AcDbLine
 62
250
  6
CONTINUOUS
 10
41.7768530761
 20
-27.3637208763
 11
42.3569030761
 21
-27.3637208763
  0
LINE
  5
303
100
AcDbEntity
  8
SCRITTA_VIMAR
100
AcDbLine
 62
250
  6
CONTINUOUS
 10
43.6747210761
 20
-27.3637208763
 11
45.0329362665
 21
-27.3637208763
  0
LWPOLYLINE
  5
304
100
AcDbEntity
  8
RACCORDO
100
AcDbPolyline
 62
250
  6
CONTINUOUS
 90
76
 70
0
 10
-46.1407777599
 20
-26.5388345256
 10
-46.2507090802
 20
-26.5353728322
 10
-46.3567188867
 20
-26.5288521866
 10
-46.458766705
 20
-26.5196200663
 10
-46.55656863
 20
-26.5079506002
 10
-46.6500918116
 20
-26.4942871204
 10
-46.7397428254
 20
-26.4791642882
 10
-46.8252729302
 20
-26.4629919467
 10
-46.9066273592
 20
-26.4460267175
 10
-46.9845717336
 20
-26.428438689
 10
-47.0595077231
 20
-26.4105768194
 10
-47.1313812396
 20
-26.3924151628
 10
-47.2001969825
 20
-26.3735057105
 10
-47.2660634158
 20
-26.3537981387
 10
-47.329246263
 20
-26.333563805
 10
-47.3898874866
 20
-26.3128473065
 10
-47.447933367
 20
-26.291776365
 10
-47.5034207189
 20
-26.2704912141
 10
-47.5566377448
 20
-26.2490199209
 10
-47.6076219731
 20
-26.2274621554
 10
-47.6563475357
 20
-26.2059339685
 10
-47.7029898575
 20
-26.1844655832
 10
-47.7474930055
 20
-26.1632064351
 10
-47.7900193078
 20
-26.1421355585
 10
-47.831133261
 20
-26.120955352
 10
-47.8710670649
 20
-26.0995617979
 10
-47.9099018399
 20
-26.077982514
 10
-47.9478525097
 20
-26.0561427058
 10
-47.9846959906
 20
-26.0341151423
 10
-48.0204803582
 20
-26.0119931201
 10
-48.0557801431
 20
-25.9897311312
 10
-48.0904158086
 20
-25.9675550357
 10
-48.1242747865
 20
-25.9454747962
 10
-48.1581075291
 20
-25.923011137
 10
-48.1918995267
 20
-25.9001780467
 10
-48.2256464209
 20
-25.8769644246
 10
-48.260039957
 20
-25.852830203
 10
-48.2950663204
 20
-25.82775377
 10
-48.3305474741
 20
-25.8018152941
 10
-48.3669264962
 20
-25.7745575078
 10
-48.4043290012
 20
-25.745814693
 10
-48.4426308332
 20
-25.7155918539
 10
-48.4818979802
 20
-25.683638045
 10
-48.5222186393
 20
-25.649736922
 10
-48.5635511474
 20
-25.6138227467
 10
-48.6056958916
 20
-25.5759242408
 10
-48.6485351777
 20
-25.536030386
 10
-48.6919913074
 20
-25.4940850588
 10
-48.7359010043
 20
-25.4500836721
 10
-48.7801473551
 20
-25.4040124426
 10
-48.8246988495
 20
-25.3557680405
 10
-48.8695208911
 20
-25.3052050606
 10
-48.9145029837
 20
-25.2522868178
 10
-48.9595484024
 20
-25.1969543139
 10
-49.0046207329
 20
-25.1390263291
 10
-49.0495684554
 20
-25.0784944915
 10
-49.0943001809
 20
-25.01526283
 10
-49.1388360475
 20
-24.9490090508
 10
-49.1829780765
 20
-24.8797592463
 10
-49.2265917258
 20
-24.8074165228
 10
-49.2697316366
 20
-24.7314488073
 10
-49.3122011652
 20
-24.6517578927
 10
-49.3537795947
 20
-24.5682726455
 10
-49.3943985922
 20
-24.4804877672
 10
-49.4336980086
 20
-24.3884082775
 10
-49.4713603364
 20
-24.2922478505
 10
-49.5073073306
 20
-24.191800067
 10
-49.5411326462
 20
-24.0865893268
 10
-49.5728024101
 20
-23.975990075
 10
-49.6027905875
 20
-23.8591452964
 10
-49.6310099858
 20
-23.7363005045
 10
-49.6562809909
 20
-23.6080027459
 10
-49.6771734108
 20
-23.4746013518
 10
-49.692886949
 20
-23.3362488578
 10
-49.7031850146
 20
-23.1930844485
 10
-49.7075514696
 20
-23.0451333125
  0
LINE
  5
305
100
AcDbEntity
  8
RACCORDO
100
AcDbLine
 62
250
  6
CONTINUOUS
 10
-72.4475870027
 20
-37.5111483508
 11
-72.7043939239
 21
-37.7679552721
  0
LINE
  5
306
100
AcDbEntity
  8
RACCORDO
100
AcDbLine
 62
250
  6
CONTINUOUS
 10
45.1315894293
 20
-23.0638438764
 11
45.6457134149
 21
-23.0572751363
  0
LINE
  5
307
100
AcDbEntity
  8
RACCORDO
100
AcDbLine
 62
250
  6
CONTINUOUS
 10
45.6457134149
 20
-23.0572751363
 11
46.2088215629
 21
-23.050955928
  0
LINE
  5
308
100
AcDbEntity
  8
RACCORDO
100
AcDbLine
 62
250
  6
CONTINUOUS
 10
46.2088215629
 20
-23.050955928
 11
46.7987636276
 21
-23.0451333126
  0
LINE
  5
309
100
AcDbEntity
  8
RACCORDO
100
AcDbLine
 62
250
  6
CONTINUOUS
 10
35.2769275207
 20
-24.9633234853
 11
32.7923181101
 21
-24.9653828465
  0
LWPOLYLINE
  5
30A
100
AcDbEntity
  8
RACCORDO
100
AcDbPolyline
 62
250
  6
CONTINUOUS
 90
3
 70
0
 10
39.977778563
 20
-24.9607421252
 10
38.8378146609
 20
-24.961006455
 10
35.2769275207
 20
-24.9633234853
  0
LWPOLYLINE
  5
30B
100
AcDbEntity
  8
RACCORDO
100
AcDbPolyline
 62
250
  6
CONTINUOUS
 90
3
 70
0
 10
-42.8950059097
 20
-24.960740824
 10
-44.006389364
 20
-24.9609834941
 10
-46.1543939239
 20
-24.9626977765
  0
LINE
  5
30C
100
AcDbEntity
  8
RACCORDO
100
AcDbLine
 62
250
  6
CONTINUOUS
 10
34.0497081087
 20
-26.5682822147
 11
-35.7023897318
 21
-26.5685694945
  0
LWPOLYLINE
  5
30D
100
AcDbEntity
  8
RACCORDO
100
AcDbPolyline
 62
250
  6
CONTINUOUS
 90
7
 70
0
 10
-39.4168395786
 20
-26.5698194382
 10
-40.602198522
 20
-26.5698962883
 10
-41.7617527435
 20
-26.5687441039
 10
-42.8956501185
 20
-26.5659724542
 10
-44.0038678832
 20
-26.5610798599
 10
-45.0858004849
 20
-26.5525869378
 10
-46.1407777631
 20
-26.5388345768
  0
LINE
  5
30E
100
AcDbEntity
  8
RACCORDO
100
AcDbLine
 62
250
  6
CONTINUOUS
 10
32.79231811
 20
-24.9653828465
 11
-35.7011059579
 21
-24.9653828465
  0
LINE
  5
30F
100
AcDbEntity
  8
0
100
AcDbLine
 62
7
  6
CONTINUOUS
 10
-46.1543939239
 20
-23.3638438763
 11
43.2456060761
 21
-23.3638438763
  0
LINE
  5
310
100
AcDbEntity
  8
RACCORDO
100
AcDbLine
 62
250
  6
CONTINUOUS
 10
43.5456060761
 20
-23.0638438763
 11
45.1315869007
 21
-23.0638438763
  0
LINE
  5
311
100
AcDbEntity
  8
RACCORDO
100
AcDbLine
 62
250
  6
CONTINUOUS
 10
-46.4543939239
 20
-23.0638438763
 11
-48.0403747486
 21
-23.0638438763
  0
LWPOLYLINE
  5
312
100
AcDbEntity
  8
RACCORDO
100
AcDbPolyline
 62
250
  6
CONTINUOUS
 90
3
 70
0
 10
-35.7049551865
 20
-26.5685697581
 10
-36.9683533789
 20
-26.5682846262
 10
-39.4168395786
 20
-26.5698194382
  0
LINE
  5
313
100
AcDbEntity
  8
RACCORDO
100
AcDbLine
 62
250
  6
CONTINUOUS
 10
-40.5976442665
 20
-24.9616713166
 11
-42.8950059097
 21
-24.960740824
  0
LWPOLYLINE
  5
314
100
AcDbEntity
  8
RACCORDO
100
AcDbPolyline
 62
250
  6
CONTINUOUS
 90
3
 70
0
 10
-35.7011059579
 20
-24.9653828465
 10
-36.9630197922
 20
-24.9642823546
 10
-40.5976442665
 20
-24.9616713166
  0
LWPOLYLINE
  5
315
100
AcDbEntity
  8
RACCORDO
100
AcDbPolyline
 62
250
  6
CONTINUOUS
 90
3
 70
0
 10
43.2456060761
 20
-24.9626977765
 10
42.1812485491
 20
-24.9616353473
 10
39.977778563
 20
-24.9607421252
  0
LINE
  5
316
100
AcDbEntity
  8
RACCORDO
100
AcDbLine
 62
250
  6
CONTINUOUS
 10
-48.5545003675
 20
-23.0572656436
 11
-49.7075513391
 21
-23.0451332857
  0
LWPOLYLINE
  5
317
100
AcDbEntity
  8
RACCORDO
100
AcDbPolyline
 62
250
  6
CONTINUOUS
 90
76
 70
0
 10
-46.1543939239
 20
-24.9626977765
 10
-46.2112883504
 20
-24.9619802141
 10
-46.2661269192
 20
-24.9596089098
 10
-46.3188652891
 20
-24.9557602861
 10
-46.3693084469
 20
-24.9506168116
 10
-46.4175921346
 20
-24.944340428
 10
-46.464178398
 20
-24.9370310272
 10
-46.5090231902
 20
-24.9287997057
 10
-46.5521461195
 20
-24.9197686074
 10
-46.5941051317
 20
-24.9099721702
 10
-46.6352277897
 20
-24.8994065583
 10
-46.6751734665
 20
-24.8881977792
 10
-46.7135066282
 20
-24.8765618714
 10
-46.7500644642
 20
-24.8646548739
 10
-46.7850360196
 20
-24.8525060749
 10
-46.8185242255
 20
-24.8401590953
 10
-46.8505272855
 20
-24.8276943156
 10
-46.8810787009
 20
-24.8151774065
 10
-46.910331356
 20
-24.8026125363
 10
-46.9382976296
 20
-24.7900588962
 10
-46.9649975649
 20
-24.7775704039
 10
-46.99059039
 20
-24.765125507
 10
-47.0151338857
 20
-24.7527457005
 10
-47.0385993422
 20
-24.7404940063
 10
-47.061013262
 20
-24.7284010341
 10
-47.0823488083
 20
-24.716533834
 10
-47.1026644061
 20
-24.7048998527
 10
-47.1221106429
 20
-24.6934319836
 10
-47.1405836098
 20
-24.6822236234
 10
-47.1582127965
 20
-24.6712377237
 10
-47.1754852636
 20
-24.6601887081
 10
-47.1924090778
 20
-24.649079184
 10
-47.2089805048
 20
-24.6379240799
 10
-47.2256494215
 20
-24.6264259281
 10
-47.2424067126
 20
-24.6145810853
 10
-47.2592466087
 20
-24.6023820494
 10
-47.2766033722
 20
-24.5894966429
 10
-47.2945136162
 20
-24.575858246
 10
-47.3128992165
 20
-24.561490554
 10
-47.3320025
 20
-24.5461717334
 10
-47.3518806492
 20
-24.5297964929
 10
-47.3724089991
 20
-24.5124026467
 10
-47.3935470597
 20
-24.4939721786
 10
-47.4152906633
 20
-24.4744430907
 10
-47.437564585
 20
-24.453807752
 10
-47.4602236258
 20
-24.4321342419
 10
-47.4832036537
 20
-24.4094165997
 10
-47.5064868378
 20
-24.3856021563
 10
-47.5300008246
 20
-24.3606956475
 10
-47.5536785114
 20
-24.3346946137
 10
-47.5774957129
 20
-24.3075480509
 10
-47.6014406137
 20
-24.2791880196
 10
-47.6254535973
 20
-24.2495934753
 10
-47.6494836272
 20
-24.218731553
 10
-47.6735217329
 20
-24.1865126305
 10
-47.697483919
 20
-24.1529348833
 10
-47.7213201973
 20
-24.1179478193
 10
-47.7450546171
 20
-24.0813811763
 10
-47.7685802976
 20
-24.0432408157
 10
-47.7918310572
 20
-24.0034669382
 10
-47.8148578986
 20
-23.961776487
 10
-47.8375439752
 20
-23.9181350379
 10
-47.8597657988
 20
-23.8725181264
 10
-47.8815167251
 20
-23.8246417036
 10
-47.9026715373
 20
-23.7744018701
 10
-47.9230302586
 20
-23.7218507327
 10
-47.942438959
 20
-23.6669354365
 10
-47.9607368641
 20
-23.6096401239
 10
-47.9777118462
 20
-23.5499722008
 10
-47.9931172902
 20
-23.4879305657
 10
-48.0067106591
 20
-23.4237037448
 10
-48.0183308884
 20
-23.3571733565
 10
-48.027790327
 20
-23.2878958252
 10
-48.0348154054
 20
-23.2157711491
 10
-48.039106817
 20
-23.1410510368
 10
-48.0403747486
 20
-23.0638438763
  0
LINE
  5
318
100
AcDbEntity
  8
RACCORDO
100
AcDbLine
 62
250
  6
CONTINUOUS
 10
-48.040373966
 20
-23.0638438763
 11
-48.5545003675
 21
-23.0572656436
  0
LWPOLYLINE
  5
319
100
AcDbEntity
  8
SCRITTA_VIMAR
100
AcDbPolyline
 62
250
  6
CONTINUOUS
 90
73
 70
0
 10
45.0329358856
 20
-27.3637189892
 10
45.0605355429
 20
-27.3641423646
 10
45.0886568047
 20
-27.3654492333
 10
45.1172664625
 20
-27.3676946915
 10
45.1463313076
 20
-27.3709338358
 10
45.1758181314
 20
-27.3752217623
 10
45.2056937253
 20
-27.3806135673
 10
45.2359248807
 20
-27.3871643473
 10
45.266478389
 20
-27.3949291986
 10
45.2973116842
 20
-27.4039583614
 10
45.328344771
 20
-27.4142826526
 10
45.3594882969
 20
-27.4259280329
 10
45.3906529091
 20
-27.4389204631
 10
45.421749255
 20
-27.453285904
 10
45.4526879821
 20
-27.4690503163
 10
45.4833797376
 20
-27.4862396608
 10
45.5137351691
 20
-27.5048798984
 10
45.5403628909
 20
-27.5226823494
 10
45.5665896973
 20
-27.5416359125
 10
45.5923510101
 20
-27.5617248027
 10
45.617582251
 20
-27.5829332353
 10
45.6422188418
 20
-27.6052454253
 10
45.6661962042
 20
-27.628645588
 10
45.6894497601
 20
-27.6531179386
 10
45.7119149311
 20
-27.6786466922
 10
45.7335271391
 20
-27.7052160641
 10
45.7542241612
 20
-27.7328043533
 10
45.773953197
 20
-27.7613661957
 10
45.792663801
 20
-27.7908503108
 10
45.8103055281
 20
-27.8212054183
 10
45.8268279332
 20
-27.852380238
 10
45.842180571
 20
-27.8843234895
 10
45.8563129963
 20
-27.9169838925
 10
45.8691747639
 20
-27.9503101667
 10
45.8807154287
 20
-27.9842510318
 10
45.8908898632
 20
-28.0187527336
 10
45.8996742113
 20
-28.0537516223
 10
45.9070499348
 20
-28.0891815741
 10
45.9129984953
 20
-28.1249764652
 10
45.9175013546
 20
-28.1610701721
 10
45.9205399744
 20
-28.1973965708
 10
45.9220958163
 20
-28.2338895377
 10
45.9221503422
 20
-28.2704829491
 10
45.9206850137
 20
-28.3071106812
 10
45.9180553318
 20
-28.3400498569
 10
45.9141895038
 20
-28.3729122116
 10
45.9090974819
 20
-28.4056466847
 10
45.9027892181
 20
-28.4382022154
 10
45.8952746645
 20
-28.4705277432
 10
45.886563773
 20
-28.5025722074
 10
45.8766664958
 20
-28.5342845476
 10
45.8655927849
 20
-28.5656137029
 10
45.8533525924
 20
-28.5965086128
 10
45.8399558703
 20
-28.6269182168
 10
45.8254166967
 20
-28.6567932334
 10
45.8097656537
 20
-28.6860914988
 10
45.7930374497
 20
-28.7147726283
 10
45.7752667928
 20
-28.7427962375
 10
45.7564883911
 20
-28.7701219416
 10
45.736736953
 20
-28.796709356
 10
45.7160471866
 20
-28.8225180962
 10
45.6944538002
 20
-28.8475077776
 10
45.6719915019
 20
-28.8716380155
 10
45.648695
 20
-28.8948684254
 10
45.6218748097
 20
-28.9195809364
 10
45.5941211022
 20
-28.9431097973
 10
45.5654873918
 20
-28.9654321143
 10
45.5360271928
 20
-28.9865249936
 10
45.5057940194
 20
-29.0063655415
 10
45.4748413859
 20
-29.0249308642
 10
45.4432228064
 20
-29.0421980679
 10
45.4109917953
 20
-29.0581442589
 10
45.3782018667
 20
-29.0727465433
  0
LINE
  5
31A
100
AcDbEntity
  8
RACCORDO
100
AcDbLine
 62
250
  6
CONTINUOUS
 10
-72.4475870027
 20
35.9834605982
 11
-72.7043939239
 21
36.2402675194
  0
LINE
  5
31B
100
AcDbEntity
  8
RACCORDO
100
AcDbLine
 62
250
  6
CONTINUOUS
 10
-69.451004909
 20
38.978655713
 11
-69.7085053197
 21
39.2361561237
  0
LINE
  5
31C
100
AcDbEntity
  8
RACCORDO
100
AcDbLine
 62
250
  6
CONTINUOUS
 10
-69.451004909
 20
-40.5063434657
 11
-69.7085053197
 21
-40.7638438763
  0
LWPOLYLINE
  5
31D
100
AcDbEntity
  8
0
100
AcDbPolyline
 62
7
  6
CONTINUOUS
 90
3
 70
0
 43
0.3500000006
 10
0.545606069
 20
49.7995571594
 10
0.4741775061
 20
49.5852726746
 10
0.3313203449
 20
49.2995570068
  0
LINE
  5
31E
100
AcDbEntity
  8
RACCORDO
100
AcDbLine
 62
7
  6
CONTINUOUS
 10
-72.7043939239
 20
-6.0638438763
 11
-72.6519861447
 21
-6.0638438763
  0
LINE
  5
31F
100
AcDbEntity
  8
RACCORDO
100
AcDbLine
 62
7
  6
CONTINUOUS
 10
69.7956060761
 20
-6.0638438763
 11
69.7431982968
 21
-6.0638438763
  0
LWPOLYLINE
  5
320
100
AcDbEntity
  8
0
100
AcDbPolyline
 62
7
  6
CONTINUOUS
 90
2
 70
0
 43
0.3500000006
 10
-3.8829653606
 20
49.5138460236
 10
-3.8829653606
 20
51.0138419495
  0
LINE
  5
321
100
AcDbEntity
  8
RACCORDO
100
AcDbLine
 62
250
  6
CONTINUOUS
 10
45.119487469
 20
-0.7666004369
 11
45.4644402765
 21
-0.7658806854
  0
LWPOLYLINE
  5
322
100
AcDbEntity
  8
RACCORDO
100
AcDbPolyline
 62
250
  6
CONTINUOUS
 90
3
 70
0
 10
45.4644402765
 20
-0.7658806854
 10
45.8342979183
 20
-0.7651739407
 10
46.0264916936
 20
-0.7648294527
  0
LINE
  5
323
100
AcDbEntity
  8
RACCORDO
100
AcDbLine
 62
250
  6
CONTINUOUS
 10
46.0264916936
 20
-0.7648294527
 11
46.4210666965
 21
-0.7641660287
  0
LINE
  5
324
100
AcDbEntity
  8
RACCORDO
100
AcDbLine
 62
250
  6
CONTINUOUS
 10
46.4210666965
 20
-0.7641660287
 11
46.8232591137
 21
-0.7635465977
  0
LINE
  5
325
100
AcDbEntity
  8
RACCORDO
100
AcDbLine
 62
250
  6
CONTINUOUS
 10
-48.0282755345
 20
-0.7604927799
 11
-49.7320467781
 21
-0.7635465971
  0
LINE
  5
326
100
AcDbEntity
  8
RACCORDO
100
AcDbLine
 62
250
  6
CONTINUOUS
 10
69.5330880382
 20
-0.7629122328
 11
69.2619677555
 21
-0.7632309705
  0
LINE
  5
327
100
AcDbEntity
  8
RACCORDO
100
AcDbLine
 62
250
  6
CONTINUOUS
 10
69.2619677555
 20
-0.7632309705
 11
68.9168965892
 21
-0.7633568826
  0
LINE
  5
328
100
AcDbEntity
  8
RACCORDO
100
AcDbLine
 62
250
  6
CONTINUOUS
 10
58.8551395619
 20
-0.7644495294
 11
63.5486692982
 21
-0.7627781201
  0
LINE
  5
329
100
AcDbEntity
  8
RACCORDO
100
AcDbLine
 62
250
  6
CONTINUOUS
 10
56.7013355632
 20
-0.7649433413
 11
58.8551395619
 21
-0.7644495294
  0
LWPOLYLINE
  5
32A
100
AcDbEntity
  8
RACCORDO
100
AcDbPolyline
 62
250
  6
CONTINUOUS
 90
4
 70
0
 10
46.8232584718
 20
-0.7641455216
 10
49.4245845338
 20
-0.76363264
 10
52.1297808408
 20
-0.7639173719
 10
56.7013355632
 20
-0.7649433413
  0
LINE
  5
32B
100
AcDbEntity
  8
RACCORDO
100
AcDbLine
 62
250
  6
CONTINUOUS
 10
-55.0385686883
 20
-0.7639173719
 11
-59.6101234103
 21
-0.7649433413
  0
LWPOLYLINE
  5
32C
100
AcDbEntity
  8
RACCORDO
100
AcDbPolyline
 62
250
  6
CONTINUOUS
 90
3
 70
0
 10
-72.4418759099
 20
-0.7638518861
 10
-71.8256841233
 20
-0.7634075374
 10
-69.0231869231
 20
-0.7626404233
  0
LINE
  5
32D
100
AcDbEntity
  8
DRAFT
100
AcDbLine
 62
7
  6
CONTINUOUS
 10
-72.6043939239
 20
-4.7638438763
 11
-72.5677084784
 21
-4.7638438763
  0
LINE
  5
32E
100
AcDbEntity
  8
DRAFT
100
AcDbLine
 62
7
  6
CONTINUOUS
 10
69.6956060761
 20
-4.7638438763
 11
69.6589206306
 21
-4.7638438763
  0
LWPOLYLINE
  5
32F
100
AcDbEntity
  8
RACCORDO
100
AcDbPolyline
 62
250
  6
CONTINUOUS
 90
3
 70
0
 10
-49.7320463198
 20
-0.7641455216
 10
-52.3333723816
 20
-0.76363264
 10
-55.0385686883
 20
-0.7639173719
  0
LINE
  5
330
100
AcDbEntity
  8
RACCORDO
100
AcDbLine
 62
250
  6
CONTINUOUS
 10
-66.4574571458
 20
-0.7627781201
 11
-69.0231869231
 21
-0.7626404233
  0
LINE
  5
331
100
AcDbEntity
  8
RACCORDO
100
AcDbLine
 62
250
  6
CONTINUOUS
 10
63.5486692982
 20
-0.7627781201
 11
68.9168965892
 21
-0.7633568826
  0
LINE
  5
332
100
AcDbEntity
  8
RACCORDO
100
AcDbLine
 62
250
  6
CONTINUOUS
 10
-59.6101234103
 20
-0.7649433413
 11
-66.4574571458
 21
-0.7627781201
  0
LINE
  5
333
100
AcDbEntity
  8
DRAFT
100
AcDbLine
 62
7
  6
CONTINUOUS
 10
-72.6043939239
 20
3.2361561237
 11
-72.5677084784
 21
3.2361561237
  0
LINE
  5
334
100
AcDbEntity
  8
DRAFT
100
AcDbLine
 62
7
  6
CONTINUOUS
 10
69.6956060761
 20
3.2361561237
 11
69.6589206306
 21
3.2361561237
  0
LINE
  5
335
100
AcDbEntity
  8
RACCORDO
100
AcDbLine
 62
7
  6
CONTINUOUS
 10
-72.7043939239
 20
4.5361561237
 11
-72.6519861447
 21
4.5361561237
  0
LINE
  5
336
100
AcDbEntity
  8
RACCORDO
100
AcDbLine
 62
7
  6
CONTINUOUS
 10
69.7956060761
 20
4.5361561237
 11
69.7431982968
 21
4.5361561237
  0
LINE
  5
337
100
AcDbEntity
  8
RACCORDO
100
AcDbLine
 62
250
  6
CONTINUOUS
 10
66.5422170611
 20
38.978655713
 11
66.7997174718
 21
39.2361561237
  0
LINE
  5
338
100
AcDbEntity
  8
RACCORDO
100
AcDbLine
 62
250
  6
CONTINUOUS
 10
-48.0403772789
 20
21.5361561237
 11
-48.5545012628
 21
21.5295873981
  0
LINE
  5
339
100
AcDbEntity
  8
RACCORDO
100
AcDbLine
 62
250
  6
CONTINUOUS
 10
-48.5545012628
 20
21.5295873981
 11
-49.1176094105
 21
21.5232681906
  0
LINE
  5
33A
100
AcDbEntity
  8
RACCORDO
100
AcDbLine
 62
250
  6
CONTINUOUS
 10
-49.1176094105
 20
21.5232681906
 11
-49.7075514756
 21
21.51744556
  0
LINE
  5
33B
100
AcDbEntity
  8
RACCORDO
100
AcDbLine
 62
250
  6
CONTINUOUS
 10
43.5456060761
 20
21.5361561237
 11
45.1315869007
 21
21.5361561237
  0
LINE
  5
33C
100
AcDbEntity
  8
RACCORDO
100
AcDbLine
 62
250
  6
CONTINUOUS
 10
-46.4543939239
 20
21.5361561237
 11
-48.0403747486
 21
21.5361561237
  0
LINE
  5
33D
100
AcDbEntity
  8
0
100
AcDbLine
 62
7
  6
CONTINUOUS
 10
43.2456060761
 20
21.8361561237
 11
-46.1543939239
 21
21.8361561237
  0
LINE
  5
33E
100
AcDbEntity
  8
RACCORDO
100
AcDbLine
 62
250
  6
CONTINUOUS
 10
45.6457125196
 20
21.529577891
 11
46.7987634913
 21
21.5174455331
  0
LINE
  5
33F
100
AcDbEntity
  8
RACCORDO
100
AcDbLine
 62
250
  6
CONTINUOUS
 10
45.1315861182
 20
21.5361561237
 11
45.6457125196
 21
21.529577891
  0
LINE
  5
340
100
AcDbEntity
  8
RACCORDO
100
AcDbLine
 62
250
  6
CONTINUOUS
 10
66.5422170611
 20
-40.5063434657
 11
66.7997174718
 21
-40.7638438763
  0
LINE
  5
341
100
AcDbEntity
  8
RACCORDO
100
AcDbLine
 62
250
  6
CONTINUOUS
 10
69.5387991548
 20
-37.5111483508
 11
69.7956060761
 21
-37.7679552721
  0
LWPOLYLINE
  5
342
100
AcDbEntity
  8
0
100
AcDbPolyline
 62
7
  6
CONTINUOUS
 90
10
 70
0
 43
0.3500000006
 10
0.4741775061
 20
50.0138416443
 10
0.545606069
 20
49.8709883423
 10
0.545606069
 20
49.7995571594
 10
0.4027489432
 20
49.6566993256
 10
0.3313203449
 20
49.6566993256
 10
0.259891782
 20
49.7281305084
 10
0.259891782
 20
49.7995571594
 10
0.3313203449
 20
49.9424149933
 10
0.4027489432
 20
50.0138416443
 10
0.4741775061
 20
50.0138416443
  0
LINE
  5
343
100
AcDbEntity
  8
RACCORDO
100
AcDbLine
 62
250
  6
CONTINUOUS
 10
69.5387991548
 20
35.9834605982
 11
69.7956060761
 21
36.2402675194
  0
LWPOLYLINE
  5
344
100
AcDbEntity
  8
RACCORDO
100
AcDbPolyline
 62
250
  6
CONTINUOUS
 90
9
 70
0
 10
-46.1407777673
 20
25.0111468913
 10
-45.083083516
 20
25.024905345
 10
-43.9983840748
 20
25.0334113423
 10
-42.8873916795
 20
25.0383142063
 10
-41.7499014182
 20
25.0410828605
 10
-40.5867695829
 20
25.0422189463
 10
-39.4003585415
 20
25.0421247883
 10
-38.1914159744
 20
25.041320076
 10
-36.9590112591
 20
25.0405948901
  0
LWPOLYLINE
  5
345
100
AcDbEntity
  8
RACCORDO
100
AcDbPolyline
 62
250
  6
CONTINUOUS
 90
3
 70
0
 10
39.9862172309
 20
23.4330530714
 10
41.0976008743
 20
23.4332957415
 10
43.2456060761
 20
23.4350100238
  0
LWPOLYLINE
  5
346
100
AcDbEntity
  8
RACCORDO
100
AcDbPolyline
 62
250
  6
CONTINUOUS
 90
3
 70
0
 10
-42.8867420378
 20
23.433054346
 10
-41.7468415884
 20
23.4333185927
 10
-35.7016957418
 20
23.4376949078
  0
LINE
  5
347
100
AcDbEntity
  8
RACCORDO
100
AcDbLine
 62
250
  6
CONTINUOUS
 10
-35.7016957418
 20
23.4376949078
 11
32.79231811
 21
23.4376950939
  0
LWPOLYLINE
  5
348
100
AcDbEntity
  8
RACCORDO
100
AcDbPolyline
 62
250
  6
CONTINUOUS
 90
7
 70
0
 10
36.5080508598
 20
25.0421316851
 10
37.6934097203
 20
25.042208536
 10
38.8529639604
 20
25.0410563527
 10
39.9868614415
 20
25.0382847045
 10
41.0950793955
 20
25.0333921113
 10
42.1770122739
 20
25.024899189
 10
43.2319899152
 20
25.0111468241
  0
LINE
  5
349
100
AcDbEntity
  8
RACCORDO
100
AcDbLine
 62
250
  6
CONTINUOUS
 10
-36.9590112591
 20
25.0405948901
 11
32.793601884
 21
25.0408817418
  0
LWPOLYLINE
  5
34A
100
AcDbEntity
  8
RACCORDO
100
AcDbPolyline
 62
250
  6
CONTINUOUS
 90
3
 70
0
 10
32.7961673387
 20
25.0408820054
 10
34.0595651391
 20
25.0405968735
 10
36.5080508598
 20
25.0421316851
  0
LINE
  5
34B
100
AcDbEntity
  8
RACCORDO
100
AcDbLine
 62
250
  6
CONTINUOUS
 10
37.688855464
 20
23.4339835645
 11
39.9862172309
 21
23.4330530714
  0
LWPOLYLINE
  5
34C
100
AcDbEntity
  8
RACCORDO
100
AcDbPolyline
 62
250
  6
CONTINUOUS
 90
3
 70
0
 10
32.7923181101
 20
23.4376950939
 10
34.0542315526
 20
23.4365946023
 10
37.688855464
 20
23.4339835645
  0
LWPOLYLINE
  5
34D
100
AcDbEntity
  8
RACCORDO
100
AcDbPolyline
 62
250
  6
CONTINUOUS
 90
3
 70
0
 10
-46.1543939239
 20
23.4350100238
 10
-45.0900925259
 20
23.4339476118
 10
-42.8867420378
 20
23.433054346
  0
LWPOLYLINE
  5
34E
100
AcDbEntity
  8
RACCORDO
100
AcDbPolyline
 62
250
  6
CONTINUOUS
 90
76
 70
0
 10
43.2456060761
 20
23.4350100238
 10
43.3024763726
 20
23.4342931585
 10
43.3572919122
 20
23.4319239357
 10
43.4100084078
 20
23.4280786107
 10
43.4604315051
 20
23.4229394237
 10
43.5086963531
 20
23.416668192
 10
43.5552631756
 20
23.4093649618
 10
43.6000863303
 20
23.4011411591
 10
43.6431871027
 20
23.3921186782
 10
43.6851264956
 20
23.3823312016
 10
43.7262334777
 20
23.3717743235
 10
43.7661659472
 20
23.360574191
 10
43.8044870704
 20
23.348947046
 10
43.841033528
 20
23.3370489778
 10
43.8759948314
 20
23.3249090588
 10
43.9094740874
 20
23.312570786
 10
43.9414692508
 20
23.3001145437
 10
43.9720140111
 20
23.2876058373
 10
44.0012620649
 20
23.2750484122
 10
44.0292260582
 20
23.2625012019
 10
44.0559256601
 20
23.2500181623
 10
44.0815199362
 20
23.2375777388
 10
44.1060660448
 20
23.2252016372
 10
44.129535816
 20
23.2129525351
 10
44.1519573059
 20
23.2008601563
 10
44.1733055583
 20
23.1889903371
 10
44.1936369443
 20
23.1773514605
 10
44.2130977645
 20
23.1658788652
 10
44.2315828057
 20
23.1546668162
 10
44.2492229267
 20
23.1436775386
 10
44.266505
 20
23.1326256569
 10
44.2834370833
 20
23.1215138249
 10
44.300015497
 20
23.1103570138
 10
44.3166900285
 20
23.0988579469
 10
44.3334515586
 20
23.0870130428
 10
44.3502943778
 20
23.0748148207
 10
44.3676527605
 20
23.0619312318
 10
44.3855629678
 20
23.0482960101
 10
44.4039473112
 20
23.0339325969
 10
44.4230492881
 20
23.0186183382
 10
44.442926242
 20
23.0022478365
 10
44.4634533745
 20
22.9848590265
 10
44.4845908726
 20
22.9664333417
 10
44.5063347797
 20
22.9469085734
 10
44.5286096346
 20
22.9262772505
 10
44.551270217
 20
22.9046074264
 10
44.5742524158
 20
22.8818930771
 10
44.5975383453
 20
22.858081543
 10
44.6210555199
 20
22.8331776485
 10
44.6447367844
 20
22.8071789475
 10
44.6685579755
 20
22.7800343794
 10
44.6925072608
 20
22.7516759922
 10
44.7165249934
 20
22.7220827292
 10
44.7405601264
 20
22.6912216914
 10
44.7646036971
 20
22.65900321
 10
44.7885716913
 20
22.6254254181
 10
44.8124140814
 20
22.5904378147
 10
44.8361548907
 20
22.5538701372
 10
44.8596871855
 20
22.5157282401
 10
44.8829447662
 20
22.4759522817
 10
44.9059786538
 20
22.4342591471
 10
44.9286718667
 20
22.390614564
 10
44.9509009603
 20
22.3449938649
 10
44.9726595166
 20
22.2971123816
 10
44.9938222942
 20
22.2468659365
 10
45.0141890867
 20
22.1943068178
 10
45.0336058253
 20
22.1393822224
 10
45.0519116241
 20
22.0820761842
 10
45.0688941785
 20
22.0223961631
 10
45.0843066619
 20
21.9603413727
 10
45.0979064172
 20
21.8961004263
 10
45.1095322443
 20
21.8295548743
 10
45.1189962775
 20
21.7602612544
 10
45.1260247751
 20
21.6881196409
 10
45.1303183047
 20
21.6133817753
 10
45.1315869007
 20
21.5361561237
  0
LWPOLYLINE
  5
34F
100
AcDbEntity
  8
RACCORDO
100
AcDbPolyline
 62
250
  6
CONTINUOUS
 90
76
 70
0
 10
43.2319899122
 20
25.0111467749
 10
43.3418759265
 20
25.0076870817
 10
43.4478415737
 20
25.0011711633
 10
43.5498455024
 20
24.9919463716
 10
43.6476041807
 20
24.9802870592
 10
43.7410870822
 20
24.9666353845
 10
43.8307022184
 20
24.9515239242
 10
43.916200345
 20
24.9353609405
 10
43.9975249433
 20
24.9184044917
 10
44.0754413575
 20
24.9008270777
 10
44.150351082
 20
24.8829785325
 10
44.222199897
 20
24.8648316593
 10
44.290992315
 20
24.8459377201
 10
44.3568368236
 20
24.826246196
 10
44.4199996956
 20
24.8060282571
 10
44.4806236712
 20
24.7853277081
 10
44.5386548909
 20
24.7642719295
 10
44.5941300967
 20
24.7430012104
 10
44.6473381744
 20
24.7215434174
 10
44.698316478
 20
24.6999982567
 10
44.7470394217
 20
24.6784812472
 10
44.7936842582
 20
24.6570212245
 10
44.8381962201
 20
24.6357661321
 10
44.8807361383
 20
24.6146961682
 10
44.9218644272
 20
24.5935174757
 10
44.9618113557
 20
24.5721288619
 10
45.0006571774
 20
24.5505567511
 10
45.0386179405
 20
24.5287221594
 10
45.0754743346
 20
24.5066935688
 10
45.1112770486
 20
24.4845645127
 10
45.1465968692
 20
24.4622940436
 10
45.1812514966
 20
24.4401104869
 10
45.2151267629
 20
24.418024041
 10
45.248972623
 20
24.3955559291
 10
45.2827747608
 20
24.3727201188
 10
45.3165296779
 20
24.3495051289
 10
45.3509295819
 20
24.3253708354
 10
45.3859604715
 20
24.3002957429
 10
45.4214449391
 20
24.2743596629
 10
45.4578270581
 20
24.2471050719
 10
45.4952314557
 20
24.218367487
 10
45.5335328577
 20
24.1881527145
 10
45.5727987963
 20
24.1562081118
 10
45.613118794
 20
24.1223159856
 10
45.6544520147
 20
24.0864100652
 10
45.6965992176
 20
24.0485188238
 10
45.7394425589
 20
24.0086313737
 10
45.7829037391
 20
23.9666919717
 10
45.8268191279
 20
23.9226961791
 10
45.8710718039
 20
23.876630114
 10
45.9156304549
 20
23.8283902379
 10
45.9604604954
 20
23.7778310949
 10
46.005451351
 20
23.7249160189
 10
46.0505062283
 20
23.6695859822
 10
46.095588704
 20
23.6116596602
 10
46.140547236
 20
23.5511285716
 10
46.1852903907
 20
23.4878967066
 10
46.2298382544
 20
23.4216417822
 10
46.2739927362
 20
23.3523899258
 10
46.3176192424
 20
23.280044169
 10
46.3607724767
 20
23.2040721838
 10
46.4032556232
 20
23.1243757701
 10
46.4448480572
 20
23.0408834313
 10
46.4854817059
 20
22.9530893286
 10
46.5247963439
 20
22.8609989541
 10
46.5624737624
 20
22.7648263928
 10
46.5984351199
 20
22.6643638562
 10
46.6322736769
 20
22.5591336211
 10
46.6639559699
 20
22.4485103091
 10
46.6939565683
 20
22.3316394778
 10
46.7221881788
 20
22.2087692812
 10
46.747470326
 20
22.08044579
 10
46.7683719922
 20
21.9470165407
 10
46.7840926054
 20
21.8086324157
 10
46.7943953487
 20
21.6654334134
 10
46.7987636227
 20
21.5174455601
  0
LINE
  5
350
100
AcDbEntity
  8
SCRITTA_VIMAR
100
AcDbLine
 62
250
  6
CONTINUOUS
 10
45.3423010761
 20
-30.2638508763
 11
44.7610470761
 21
-29.1425008763
  0
LINE
  5
351
100
AcDbEntity
  8
SCRITTA_VIMAR
100
AcDbLine
 62
250
  6
CONTINUOUS
 10
45.3782018667
 20
-29.0727465433
 11
45.9956060761
 21
-30.2638438763
  0
LINE
  5
352
100
AcDbEntity
  8
SCRITTA_VIMAR
100
AcDbLine
 62
250
  6
CONTINUOUS
 10
34.5643570761
 20
-30.2638658763
 11
33.6332250761
 21
-27.3637278763
  0
LINE
  5
353
100
AcDbEntity
  8
SCRITTA_VIMAR
100
AcDbLine
 62
250
  6
CONTINUOUS
 10
34.2132540761
 20
-27.3637278763
 11
34.8543860761
 21
-29.3606238763
  0
LINE
  5
354
100
AcDbEntity
  8
RACCORDO
100
AcDbLine
 62
250
  6
CONTINUOUS
 10
32.7948270477
 20
24.6589256995
 11
32.793601884
 21
25.0408817418
  0
LINE
  5
355
100
AcDbEntity
  8
RACCORDO
100
AcDbLine
 62
250
  6
CONTINUOUS
 10
32.79231811
 20
-24.9653828465
 11
32.793601884
 21
-26.5685694945
  0
LINE
  5
356
100
AcDbEntity
  8
RACCORDO
100
AcDbLine
 62
250
  6
CONTINUOUS
 10
32.7955183989
 20
-40.4969622858
 11
32.7954513384
 21
-40.3360770983
  0
LINE
  5
357
100
AcDbEntity
  8
RACCORDO
100
AcDbLine
 62
250
  6
CONTINUOUS
 10
32.7953431962
 20
-26.5685755912
 11
32.7954513384
 21
-40.3360770983
  0
LINE
  5
358
100
AcDbEntity
  8
RACCORDO
100
AcDbLine
 62
250
  6
CONTINUOUS
 10
32.7947604152
 20
24.2866175787
 11
32.7948270477
 21
24.6589256995
  0
LINE
  5
359
100
AcDbEntity
  8
RACCORDO
100
AcDbLine
 62
250
  6
CONTINUOUS
 10
32.79231811
 20
23.4376950939
 11
32.7947604152
 21
24.2866175787
  0
LWPOLYLINE
  5
35A
100
AcDbEntity
  8
RACCORDO
100
AcDbPolyline
 62
250
  6
CONTINUOUS
 90
3
 70
0
 10
32.7955183988
 20
38.9692745332
 10
32.7954465418
 20
38.953822452
 10
32.795343198
 20
25.0408878389
  0
LINE
  5
35B
100
AcDbEntity
  8
SCRITTA_VIMAR
100
AcDbLine
 62
250
  6
CONTINUOUS
 10
42.3479790761
 20
-29.1425008763
 11
42.0668740761
 21
-28.2669618763
  0
LINE
  5
35C
100
AcDbEntity
  8
SCRITTA_VIMAR
100
AcDbLine
 62
250
  6
CONTINUOUS
 10
42.7080140761
 20
-30.2638508763
 11
42.5249080761
 21
-29.6935228763
  0
LINE
  5
35D
100
AcDbEntity
  8
SCRITTA_VIMAR
100
AcDbLine
 62
250
  6
CONTINUOUS
 10
42.3569030761
 20
-27.3637208763
 11
43.2880430761
 21
-30.2638588763
  0
LINE
  5
35E
100
AcDbEntity
  8
SCRITTA_VIMAR
100
AcDbLine
 62
250
  6
CONTINUOUS
 10
38.7506370761
 20
-30.2638588763
 11
38.2022620761
 21
-28.3514168763
  0
LINE
  5
35F
100
AcDbEntity
  8
SCRITTA_VIMAR
100
AcDbLine
 62
250
  6
CONTINUOUS
 10
38.4990770761
 20
-27.3637278763
 11
39.0406450761
 21
-29.2523958763
  0
LINE
  5
360
100
AcDbEntity
  8
SCRITTA_VIMAR
100
AcDbLine
 62
250
  6
CONTINUOUS
 10
36.4622110761
 20
-30.2638658763
 11
36.4622180761
 21
-27.3637278763
  0
LINE
  5
361
100
AcDbEntity
  8
SCRITTA_VIMAR
100
AcDbLine
 62
250
  6
CONTINUOUS
 10
37.0422400761
 20
-27.3637278763
 11
37.0422330761
 21
-30.2638588763
  0
LINE
  5
362
100
AcDbEntity
  8
SCRITTA_VIMAR
100
AcDbLine
 62
250
  6
CONTINUOUS
 10
37.6222400761
 20
-30.2638588763
 11
37.6222400761
 21
-27.3637278763
  0
LINE
  5
363
100
AcDbEntity
  8
SCRITTA_VIMAR
100
AcDbLine
 62
250
  6
CONTINUOUS
 10
38.2022620761
 20
-28.3514168763
 11
38.2022620761
 21
-30.2638588763
  0
LINE
  5
364
100
AcDbEntity
  8
RACCORDO
100
AcDbLine
 62
250
  6
CONTINUOUS
 10
-61.6524075813
 20
38.2495817516
 11
-60.6778639331
 21
38.2640206446
  0
LINE
  5
365
100
AcDbEntity
  8
RACCORDO
100
AcDbLine
 62
250
  6
CONTINUOUS
 10
-72.004594822
 20
36.0063015583
 11
-71.7982329457
 21
36.0096154976
  0
LINE
  5
366
100
AcDbEntity
  8
RACCORDO
100
AcDbLine
 62
250
  6
CONTINUOUS
 10
-60.6778639331
 20
38.2640206446
 11
-59.8670949192
 21
38.2749810759
  0
LINE
  5
367
100
AcDbEntity
  8
RACCORDO
100
AcDbLine
 62
250
  6
CONTINUOUS
 10
-58.443151725
 20
38.2846846843
 11
-57.8909095757
 21
38.2919475142
  0
LINE
  5
368
100
AcDbEntity
  8
RACCORDO
100
AcDbLine
 62
250
  6
CONTINUOUS
 10
-57.8909095757
 20
38.2919475142
 11
-57.2538310033
 21
38.2992709306
  0
LINE
  5
369
100
AcDbEntity
  8
RACCORDO
100
AcDbLine
 62
250
  6
CONTINUOUS
 10
-59.8670949192
 20
38.2749810759
 11
-59.4578112067
 21
38.2798451067
  0
LINE
  5
36A
100
AcDbEntity
  8
RACCORDO
100
AcDbLine
 62
250
  6
CONTINUOUS
 10
-57.2538310033
 20
38.2992709306
 11
-56.818864127
 21
38.3036230375
  0
LINE
  5
36B
100
AcDbEntity
  8
RACCORDO
100
AcDbLine
 62
250
  6
CONTINUOUS
 10
-56.818864127
 20
38.3036230375
 11
-56.508471629
 21
38.3060811664
  0
LINE
  5
36C
100
AcDbEntity
  8
RACCORDO
100
AcDbLine
 62
250
  6
CONTINUOUS
 10
-71.7982329457
 20
36.0096154976
 11
-71.5731024911
 21
36.0115239849
  0
LINE
  5
36D
100
AcDbEntity
  8
RACCORDO
100
AcDbLine
 62
250
  6
CONTINUOUS
 10
-59.4578112067
 20
38.2798451067
 11
-59.2120361761
 21
38.2816764474
  0
LWPOLYLINE
  5
36E
100
AcDbEntity
  8
RACCORDO
100
AcDbPolyline
 62
250
  6
CONTINUOUS
 90
4
 70
0
 10
-59.2120361761
 20
38.2816764474
 10
-58.9817008386
 20
38.2827118099
 10
-58.8715912212
 20
38.282964041
 10
-58.443151725
 20
38.2846846843
  0
LINE
  5
36F
100
AcDbEntity
  8
RACCORDO
100
AcDbLine
 62
250
  6
CONTINUOUS
 10
66.4661564159
 20
38.9785038451
 11
66.5422170611
 21
38.978655713
  0
LINE
  5
370
100
AcDbEntity
  8
RACCORDO
100
AcDbLine
 62
250
  6
CONTINUOUS
 10
66.255804257
 20
38.9781283941
 11
66.4661564159
 21
38.9785038451
  0
LINE
  5
371
100
AcDbEntity
  8
RACCORDO
100
AcDbLine
 62
250
  6
CONTINUOUS
 10
-56.508471629
 20
38.3060811664
 11
-55.0881765207
 21
38.3090541277
  0
LINE
  5
372
100
AcDbEntity
  8
RACCORDO
100
AcDbLine
 62
250
  6
CONTINUOUS
 10
66.0109473341
 20
38.9778015612
 11
66.255804257
 21
38.9781283941
  0
LWPOLYLINE
  5
373
100
AcDbEntity
  8
RACCORDO
100
AcDbPolyline
 62
250
  6
CONTINUOUS
 90
4
 70
0
 10
35.5249918881
 20
38.3029028641
 10
41.6552077137
 20
38.3094663489
 10
42.1275713066
 20
38.3099121862
 10
42.5871106283
 20
38.3103242236
  0
LINE
  5
374
100
AcDbEntity
  8
RACCORDO
100
AcDbLine
 62
250
  6
CONTINUOUS
 10
-55.0881765207
 20
38.3090541277
 11
-53.3164752888
 21
38.3111891096
  0
LINE
  5
375
100
AcDbEntity
  8
RACCORDO
100
AcDbLine
 62
250
  6
CONTINUOUS
 10
34.1971753048
 20
38.3017748908
 11
35.5249918881
 21
38.3029028641
  0
LINE
  5
376
100
AcDbEntity
  8
RACCORDO
100
AcDbLine
 62
250
  6
CONTINUOUS
 10
42.5871106283
 20
38.3103242236
 11
43.4709421945
 21
38.3110403293
  0
LINE
  5
377
100
AcDbEntity
  8
RACCORDO
100
AcDbLine
 62
250
  6
CONTINUOUS
 10
64.764235551
 20
38.9767681614
 11
66.0109473341
 21
38.9778015612
  0
LWPOLYLINE
  5
378
100
AcDbEntity
  8
RACCORDO
100
AcDbPolyline
 62
250
  6
CONTINUOUS
 90
6
 70
0
 10
57.3590827311
 20
38.9699299474
 10
57.5236549388
 20
38.9700427217
 10
57.6937482677
 20
38.9701654536
 10
57.8694435247
 20
38.9702984087
 10
58.0506599029
 20
38.9704413214
 10
64.764235551
 20
38.9767681614
  0
LINE
  5
379
100
AcDbEntity
  8
RACCORDO
100
AcDbLine
 62
250
  6
CONTINUOUS
 10
32.7950657164
 20
38.3008470455
 11
34.1971753048
 21
38.3017748908
  0
LWPOLYLINE
  5
37A
100
AcDbEntity
  8
RACCORDO
100
AcDbPolyline
 62
250
  6
CONTINUOUS
 90
3
 70
0
 10
43.4709421945
 20
38.3110403293
 10
44.3087264965
 20
38.311613782
 10
44.7114485938
 20
38.311847562
  0
LWPOLYLINE
  5
37B
100
AcDbEntity
  8
RACCORDO
100
AcDbPolyline
 62
250
  6
CONTINUOUS
 90
4
 70
0
 10
55.6859891739
 20
38.969018628
 10
55.9035832967
 20
38.9691472126
 10
56.0150792311
 20
38.9692084818
 10
56.1289672881
 20
38.9692663651
  0
LWPOLYLINE
  5
37C
100
AcDbEntity
  8
RACCORDO
100
AcDbPolyline
 62
250
  6
CONTINUOUS
 90
4
 70
0
 10
56.7576564476
 20
38.9695702768
 10
56.8994974559
 20
38.9696476883
 10
57.0470039896
 20
38.9697324307
 10
57.3590827311
 20
38.9699299474
  0
LWPOLYLINE
  5
37D
100
AcDbEntity
  8
RACCORDO
100
AcDbPolyline
 62
250
  6
CONTINUOUS
 90
5
 70
0
 10
55.0243290503
 20
38.9686242369
 10
55.1394907249
 20
38.9686838765
 10
55.2512461612
 20
38.968746123
 10
55.3615756911
 20
38.9688107446
 10
55.6859891739
 20
38.969018628
  0
LINE
  5
37E
100
AcDbEntity
  8
RACCORDO
100
AcDbLine
 62
250
  6
CONTINUOUS
 10
44.7114485938
 20
38.311847562
 11
45.4853665811
 21
38.3122126453
  0
LINE
  5
37F
100
AcDbEntity
  8
RACCORDO
100
AcDbLine
 62
250
  6
CONTINUOUS
 10
56.1289672881
 20
38.9692663651
 11
56.7576564476
 21
38.9695702768
  0
LWPOLYLINE
  5
380
100
AcDbEntity
  8
RACCORDO
100
AcDbPolyline
 62
250
  6
CONTINUOUS
 90
4
 70
0
 10
54.5244615431
 20
38.9684135004
 10
54.6564262656
 20
38.968461192
 10
54.7832802089
 20
38.9685122
 10
55.0243290503
 20
38.9686242369
  0
LINE
  5
381
100
AcDbEntity
  8
RACCORDO
100
AcDbLine
 62
250
  6
CONTINUOUS
 10
45.4853665811
 20
38.3122126453
 11
46.2196260116
 21
38.3124464021
  0
LINE
  5
382
100
AcDbEntity
  8
RACCORDO
100
AcDbLine
 62
250
  6
CONTINUOUS
 10
-53.3164752888
 20
38.3111891096
 11
-51.1380368063
 21
38.3124441681
  0
LWPOLYLINE
  5
383
100
AcDbEntity
  8
RACCORDO
100
AcDbPolyline
 62
250
  6
CONTINUOUS
 90
3
 70
0
 10
54.1015221343
 20
38.9682999528
 10
54.2468858494
 20
38.9683315099
 10
54.5244615431
 20
38.9684135004
  0
LWPOLYLINE
  5
384
100
AcDbEntity
  8
RACCORDO
100
AcDbPolyline
 62
250
  6
CONTINUOUS
 90
3
 70
0
 10
46.2196260116
 20
38.3124464021
 10
46.916609873
 20
38.312558701
 10
47.2514272231
 20
38.3125704417
  0
LWPOLYLINE
  5
385
100
AcDbEntity
  8
RACCORDO
100
AcDbPolyline
 62
250
  6
CONTINUOUS
 90
3
 70
0
 10
53.6398702666
 20
38.9682457972
 10
53.7978044581
 20
38.9682556381
 10
54.1015221343
 20
38.9682999528
  0
LINE
  5
386
100
AcDbEntity
  8
RACCORDO
100
AcDbLine
 62
7
  6
CONTINUOUS
 10
66.7997174718
 20
39.2361561237
 11
-69.7085053197
 21
39.2361561237
  0
LINE
  5
387
100
AcDbEntity
  8
RACCORDO
100
AcDbLine
 62
250
  6
CONTINUOUS
 10
47.2514272231
 20
38.3125704417
 11
47.8958284321
 21
38.3125160467
  0
LINE
  5
388
100
AcDbEntity
  8
RACCORDO
100
AcDbLine
 62
250
  6
CONTINUOUS
 10
41.1711840475
 20
38.9687884645
 11
53.6398702666
 21
38.9682457972
  0
LINE
  5
389
100
AcDbEntity
  8
RACCORDO
100
AcDbLine
 62
250
  6
CONTINUOUS
 10
-51.1380368063
 20
38.3124441681
 11
-48.837626453
 21
38.3123674538
  0
LINE
  5
38A
100
AcDbEntity
  8
RACCORDO
100
AcDbLine
 62
250
  6
CONTINUOUS
 10
47.8958284321
 20
38.3125160467
 11
48.5072483711
 21
38.3123614177
  0
LINE
  5
38B
100
AcDbEntity
  8
RACCORDO
100
AcDbLine
 62
250
  6
CONTINUOUS
 10
48.5072483711
 20
38.3123614177
 11
49.087711814
 21
38.3121175414
  0
LINE
  5
38C
100
AcDbEntity
  8
RACCORDO
100
AcDbLine
 62
250
  6
CONTINUOUS
 10
-36.3857209433
 20
38.3012660416
 11
32.7950657164
 21
38.3008471255
  0
LINE
  5
38D
100
AcDbEntity
  8
RACCORDO
100
AcDbLine
 62
250
  6
CONTINUOUS
 10
49.087711814
 20
38.3121175414
 11
49.6390608266
 21
38.3117955066
  0
LINE
  5
38E
100
AcDbEntity
  8
RACCORDO
100
AcDbLine
 62
250
  6
CONTINUOUS
 10
-58.2174826564
 20
38.9687797068
 11
41.1711840475
 21
38.9687884645
  0
LINE
  5
38F
100
AcDbEntity
  8
RACCORDO
100
AcDbLine
 62
250
  6
CONTINUOUS
 10
-48.837626453
 20
38.3123674538
 11
-46.0971610213
 21
38.3108228366
  0
LINE
  5
390
100
AcDbEntity
  8
RACCORDO
100
AcDbLine
 62
250
  6
CONTINUOUS
 10
49.6390608266
 20
38.3117955066
 11
50.1624746141
 21
38.3114025077
  0
LINE
  5
391
100
AcDbEntity
  8
RACCORDO
100
AcDbLine
 62
250
  6
CONTINUOUS
 10
-38.9418158554
 20
38.3034149961
 11
-36.3857209433
 21
38.3012660416
  0
LINE
  5
392
100
AcDbEntity
  8
RACCORDO
100
AcDbLine
 62
250
  6
CONTINUOUS
 10
50.1624746141
 20
38.3114025077
 11
50.6597742815
 21
38.3109498408
  0
LINE
  5
393
100
AcDbEntity
  8
RACCORDO
100
AcDbLine
 62
250
  6
CONTINUOUS
 10
-62.0594504761
 20
38.9714148713
 11
-58.2174826564
 21
38.9687797068
  0
LINE
  5
394
100
AcDbEntity
  8
RACCORDO
100
AcDbLine
 62
250
  6
CONTINUOUS
 10
-42.3179894591
 20
38.3071048444
 11
-38.9418158554
 21
38.3034149961
  0
LINE
  5
395
100
AcDbEntity
  8
RACCORDO
100
AcDbLine
 62
250
  6
CONTINUOUS
 10
-46.0971610213
 20
38.3108228366
 11
-42.3179894591
 21
38.3071048444
  0
LWPOLYLINE
  5
396
100
AcDbEntity
  8
RACCORDO
100
AcDbPolyline
 62
250
  6
CONTINUOUS
 90
3
 70
0
 10
50.6597742815
 20
38.3109498408
 10
51.1318267846
 20
38.3104449212
 10
51.358510273
 20
38.3101738521
  0
LINE
  5
397
100
AcDbEntity
  8
RACCORDO
100
AcDbLine
 62
250
  6
CONTINUOUS
 10
51.358510273
 20
38.3101738521
 11
51.7939195922
 21
38.3096068977
  0
LINE
  5
398
100
AcDbEntity
  8
RACCORDO
100
AcDbLine
 62
250
  6
CONTINUOUS
 10
51.7939195922
 20
38.3096068977
 11
52.2057641256
 21
38.3090095758
  0
LINE
  5
399
100
AcDbEntity
  8
RACCORDO
100
AcDbLine
 62
250
  6
CONTINUOUS
 10
52.2057641256
 20
38.3090095758
 11
52.5950214905
 21
38.3083880728
  0
LINE
  5
39A
100
AcDbEntity
  8
RACCORDO
100
AcDbLine
 62
250
  6
CONTINUOUS
 10
-69.451004909
 20
38.978655713
 11
-62.0594504761
 21
38.9714148713
  0
LINE
  5
39B
100
AcDbEntity
  8
RACCORDO
100
AcDbLine
 62
250
  6
CONTINUOUS
 10
52.5950214905
 20
38.3083880728
 11
53.3109265719
 21
38.3071743315
  0
LINE
  5
39C
100
AcDbEntity
  8
RACCORDO
100
AcDbLine
 62
250
  6
CONTINUOUS
 10
55.6973653377
 20
38.2835272475
 11
56.1377733343
 21
38.2824915495
  0
LINE
  5
39D
100
AcDbEntity
  8
RACCORDO
100
AcDbLine
 62
250
  6
CONTINUOUS
 10
53.3109265719
 20
38.3071743315
 11
53.6408227956
 21
38.3055941142
  0
LINE
  5
39E
100
AcDbEntity
  8
RACCORDO
100
AcDbLine
 62
250
  6
CONTINUOUS
 10
56.1377733343
 20
38.2824915495
 11
56.3744915818
 21
38.2812648261
  0
LINE
  5
39F
100
AcDbEntity
  8
RACCORDO
100
AcDbLine
 62
250
  6
CONTINUOUS
 10
53.6408227956
 20
38.3055941142
 11
53.9542867384
 21
38.3032285004
  0
LINE
  5
3A0
100
AcDbEntity
  8
RACCORDO
100
AcDbLine
 62
250
  6
CONTINUOUS
 10
56.3744915818
 20
38.2812648261
 11
56.6307313604
 21
38.2789040447
  0
LINE
  5
3A1
100
AcDbEntity
  8
RACCORDO
100
AcDbLine
 62
250
  6
CONTINUOUS
 10
68.8894451198
 20
36.0096164301
 11
68.6643146714
 21
36.0115239913
  0
LINE
  5
3A2
100
AcDbEntity
  8
RACCORDO
100
AcDbLine
 62
250
  6
CONTINUOUS
 10
53.9542867384
 20
38.3032285004
 11
54.5305150094
 21
38.2972516794
  0
LWPOLYLINE
  5
3A3
100
AcDbEntity
  8
RACCORDO
100
AcDbPolyline
 62
250
  6
CONTINUOUS
 90
4
 70
0
 10
54.5305150094
 20
38.2972516794
 10
55.1490551298
 20
38.2898113657
 10
55.2614213586
 20
38.2883250426
 10
55.6973653377
 20
38.2835272475
  0
LWPOLYLINE
  5
3A4
100
AcDbEntity
  8
RACCORDO
100
AcDbPolyline
 62
250
  6
CONTINUOUS
 90
3
 70
0
 10
56.6307313604
 20
38.2789040447
 10
57.0576417746
 20
38.273730986
 10
57.2115147851
 20
38.2716793693
  0
LINE
  5
3A5
100
AcDbEntity
  8
RACCORDO
100
AcDbLine
 62
250
  6
CONTINUOUS
 10
57.2115147851
 20
38.2716793693
 11
58.0651524062
 21
38.2597610504
  0
LWPOLYLINE
  5
3A6
100
AcDbEntity
  8
RACCORDO
100
AcDbPolyline
 62
250
  6
CONTINUOUS
 90
4
 70
0
 10
64.405655642
 20
38.1602463512
 10
64.5034454404
 20
38.1587958744
 10
64.598173121
 20
38.1573962338
 10
64.7799704061
 20
38.1547237445
  0
LINE
  5
3A7
100
AcDbEntity
  8
RACCORDO
100
AcDbLine
 62
250
  6
CONTINUOUS
 10
64.2008680017
 20
38.1632982931
 11
64.405655642
 21
38.1602463512
  0
LWPOLYLINE
  5
3A8
100
AcDbEntity
  8
RACCORDO
100
AcDbPolyline
 62
250
  6
CONTINUOUS
 90
3
 70
0
 10
63.8678106516
 20
38.1683144626
 10
63.9823766483
 20
38.1665821443
 10
64.2008680017
 20
38.1632982931
  0
LWPOLYLINE
  5
3A9
100
AcDbEntity
  8
RACCORDO
100
AcDbPolyline
 62
250
  6
CONTINUOUS
 90
3
 70
0
 10
63.5009207961
 20
38.173910576
 10
63.6270827021
 20
38.1719788297
 10
63.8678106516
 20
38.1683144626
  0
LWPOLYLINE
  5
3AA
100
AcDbEntity
  8
RACCORDO
100
AcDbPolyline
 62
250
  6
CONTINUOUS
 90
3
 70
0
 10
63.0977443247
 20
38.180132642
 10
63.2362515158
 20
38.177987667
 10
63.5009207961
 20
38.173910576
  0
LINE
  5
3AB
100
AcDbEntity
  8
RACCORDO
100
AcDbLine
 62
250
  6
CONTINUOUS
 10
58.0651524062
 20
38.2597610504
 11
59.0497108018
 21
38.2448314186
  0
LWPOLYLINE
  5
3AC
100
AcDbEntity
  8
RACCORDO
100
AcDbPolyline
 62
250
  6
CONTINUOUS
 90
3
 70
0
 10
62.6545735022
 20
38.1870448376
 10
62.8069054964
 20
38.1846614646
 10
63.0977443247
 20
38.180132642
  0
LWPOLYLINE
  5
3AD
100
AcDbEntity
  8
RACCORDO
100
AcDbPolyline
 62
250
  6
CONTINUOUS
 90
5
 70
0
 10
61.8086300793
 20
38.2004186847
 10
61.9899523396
 20
38.1975380277
 10
62.1648920264
 20
38.194763544
 10
62.3335670374
 20
38.1920961787
 10
62.6545735022
 20
38.1870448376
  0
LWPOLYLINE
  5
3AE
100
AcDbEntity
  8
RACCORDO
100
AcDbPolyline
 62
250
  6
CONTINUOUS
 90
7
 70
0
 10
64.7799704061
 20
38.1547237445
 10
65.7937004255
 20
38.1405287478
 10
65.8524703451
 20
38.1392295447
 10
65.9108153766
 20
38.1376197787
 10
65.9701143406
 20
38.1354659073
 10
66.0304349341
 20
38.1324691764
 10
66.1546754217
 20
38.1255158275
  0
LINE
  5
3AF
100
AcDbEntity
  8
RACCORDO
100
AcDbLine
 62
250
  6
CONTINUOUS
 10
61.4267228222
 20
38.2065134197
 11
61.8086300793
 21
38.2004186847
  0
LINE
  5
3B0
100
AcDbEntity
  8
RACCORDO
100
AcDbLine
 62
250
  6
CONTINUOUS
 10
61.0159292624
 20
38.2131250263
 11
61.4267228222
 21
38.2065134197
  0
LWPOLYLINE
  5
3B1
100
AcDbEntity
  8
RACCORDO
100
AcDbPolyline
 62
250
  6
CONTINUOUS
 90
3
 70
0
 10
59.0497108018
 20
38.2448314186
 10
59.9177843244
 20
38.2309783708
 10
60.1402527594
 20
38.2273722903
  0
LWPOLYLINE
  5
3B2
100
AcDbEntity
  8
RACCORDO
100
AcDbPolyline
 62
250
  6
CONTINUOUS
 90
3
 70
0
 10
60.1402527594
 20
38.2273722903
 10
60.5849290865
 20
38.2201210832
 10
61.0159292624
 20
38.2131250263
  0
LINE
  5
3B3
100
AcDbEntity
  8
RACCORDO
100
AcDbLine
 62
250
  6
CONTINUOUS
 10
43.2456060761
 20
23.4350098352
 11
43.2392815163
 21
24.0926165164
  0
LWPOLYLINE
  5
3B4
100
AcDbEntity
  8
RACCORDO
100
AcDbPolyline
 62
250
  6
CONTINUOUS
 90
3
 70
0
 10
43.2392815163
 20
24.0926165164
 10
43.2333616053
 20
24.8226840464
 10
43.2319899122
 20
25.0111467749
  0
LINE
  5
3B5
100
AcDbEntity
  8
RACCORDO
100
AcDbLine
 62
250
  6
CONTINUOUS
 10
45.1289885403
 20
-21.4625099376
 11
45.1315869007
 21
-23.0638438763
  0
LINE
  5
3B6
100
AcDbEntity
  8
RACCORDO
100
AcDbLine
 62
250
  6
CONTINUOUS
 10
45.1271781097
 20
-19.7467567454
 11
45.1289885403
 21
-21.4625099376
  0
LWPOLYLINE
  5
3B7
100
AcDbEntity
  8
RACCORDO
100
AcDbPolyline
 62
250
  6
CONTINUOUS
 90
3
 70
0
 10
45.1194864779
 20
-0.7638488517
 10
45.1213562419
 20
-5.9726614846
 10
45.1271781097
 20
-19.7467567454
  0
LINE
  5
3B8
100
AcDbEntity
  8
SCRITTA_VIMAR
100
AcDbLine
 62
250
  6
CONTINUOUS
 10
39.8790270761
 20
-30.2638588763
 11
39.8790200761
 21
-28.3514168763
  0
LINE
  5
3B9
100
AcDbEntity
  8
SCRITTA_VIMAR
100
AcDbLine
 62
250
  6
CONTINUOUS
 10
40.4590490761
 20
-27.3637278763
 11
40.4590490761
 21
-30.2638588763
  0
LINE
  5
3BA
100
AcDbEntity
  8
RACCORDO
100
AcDbLine
 62
250
  6
CONTINUOUS
 10
43.2456060761
 20
-23.3638438763
 11
43.2456060761
 21
-24.9626977765
  0
LINE
  5
3BB
100
AcDbEntity
  8
RACCORDO
100
AcDbLine
 62
250
  6
CONTINUOUS
 10
43.2456060761
 20
21.8361561237
 11
43.2456060761
 21
23.4350100238
  0
LINE
  5
3BC
100
AcDbEntity
  8
0
100
AcDbLine
 62
7
  6
CONTINUOUS
 10
43.5456060761
 20
-23.0638438763
 11
43.5456060761
 21
21.5361561237
  0
LINE
  5
3BD
100
AcDbEntity
  8
SCRITTA_VIMAR
100
AcDbLine
 62
250
  6
CONTINUOUS
 10
43.6747210761
 20
-30.2638508763
 11
43.6747210761
 21
-27.3637208763
  0
LINE
  5
3BE
100
AcDbEntity
  8
SCRITTA_VIMAR
100
AcDbLine
 62
250
  6
CONTINUOUS
 10
44.2467460761
 20
-27.9002418763
 11
44.2467540761
 21
-28.6059718763
  0
LINE
  5
3BF
100
AcDbEntity
  8
SCRITTA_VIMAR
100
AcDbLine
 62
250
  6
CONTINUOUS
 10
44.2548160761
 20
-29.1424938763
 11
44.2547500761
 21
-30.2638508763
  0
LINE
  5
3C0
100
AcDbEntity
  8
RACCORDO
100
AcDbLine
 62
250
  6
CONTINUOUS
 10
45.1265757528
 20
17.3196237884
 11
45.1194864779
 21
-0.7638488517
  0
LINE
  5
3C1
100
AcDbEntity
  8
RACCORDO
100
AcDbLine
 62
250
  6
CONTINUOUS
 10
45.1289895706
 20
19.9354496919
 11
45.1265757528
 21
17.3196237884
  0
LINE
  5
3C2
100
AcDbEntity
  8
RACCORDO
100
AcDbLine
 62
250
  6
CONTINUOUS
 10
45.1315869007
 20
21.5361561237
 11
45.1289895706
 21
19.9354496919
  0
LWPOLYLINE
  5
3C3
100
AcDbEntity
  8
RACCORDO
100
AcDbPolyline
 62
250
  6
CONTINUOUS
 90
3
 70
0
 10
43.2456060761
 20
-24.9626963887
 10
43.2440101176
 20
-25.1179150564
 10
43.2319899194
 20
-26.5388346439
  0
LINE
  5
3C4
100
AcDbEntity
  8
SCRITTA_VIMAR
100
AcDbLine
 62
250
  6
CONTINUOUS
 10
34.8543860761
 20
-29.3606238763
 11
35.4955110761
 21
-27.3637278763
  0
LINE
  5
3C5
100
AcDbEntity
  8
SCRITTA_VIMAR
100
AcDbLine
 62
250
  6
CONTINUOUS
 10
36.0755400761
 20
-27.3637278763
 11
35.1444000761
 21
-30.2638588763
  0
LINE
  5
3C6
100
AcDbEntity
  8
RACCORDO
100
AcDbLine
 62
250
  6
CONTINUOUS
 10
-69.0608562255
 20
38.1256448117
 11
-68.9361168959
 21
38.1326257094
  0
LWPOLYLINE
  5
3C7
100
AcDbEntity
  8
RACCORDO
100
AcDbPolyline
 62
250
  6
CONTINUOUS
 90
7
 70
0
 10
-68.9361168959
 20
38.1326257094
 10
-68.8754797937
 20
38.1356217764
 10
-68.8158579953
 20
38.1377533887
 10
-68.7572217885
 20
38.1393291051
 10
-68.6981337206
 20
38.1406032006
 10
-68.6384023249
 20
38.1415376827
 10
-61.6524075813
 20
38.2495817516
  0
LINE
  5
3C8
100
AcDbEntity
  8
RACCORDO
100
AcDbLine
 62
250
  6
CONTINUOUS
 10
-69.19255427
 20
38.1196444594
 11
-69.0608562255
 21
38.1256448117
  0
LINE
  5
3C9
100
AcDbEntity
  8
RACCORDO
100
AcDbLine
 62
250
  6
CONTINUOUS
 10
-69.3350691928
 20
38.1139065543
 11
-69.19255427
 21
38.1196444594
  0
LINE
  5
3CA
100
AcDbEntity
  8
RACCORDO
100
AcDbLine
 62
250
  6
CONTINUOUS
 10
-69.4898297583
 20
38.1083676626
 11
-69.3350691928
 21
38.1139065543
  0
LINE
  5
3CB
100
AcDbEntity
  8
RACCORDO
100
AcDbLine
 62
250
  6
CONTINUOUS
 10
66.3549464813
 20
38.1166954771
 11
66.5810418859
 21
38.1083675839
  0
LWPOLYLINE
  5
3CC
100
AcDbEntity
  8
RACCORDO
100
AcDbPolyline
 62
250
  6
CONTINUOUS
 90
28
 70
0
 10
66.5422170611
 20
38.978655713
 10
66.7921695089
 20
38.9683393895
 10
67.0380400192
 20
38.9376368507
 10
67.2782305831
 20
38.887325202
 10
67.5136771327
 20
38.8174589084
 10
67.7404443852
 20
38.729479512
 10
67.9504752292
 20
38.6281243659
 10
68.1407721092
 20
38.5178197702
 10
68.3143728174
 20
38.3997635092
 10
68.4731567913
 20
38.2749983845
 10
68.6175063623
 20
38.1452558074
 10
68.7477270903
 20
38.012313875
 10
68.8653769176
 20
37.8765299291
 10
68.97108737
 20
37.7388952117
 10
69.0651738767
 20
37.6007757896
 10
69.1485498312
 20
37.4626710501
 10
69.2217678557
 20
37.3254755439
 10
69.2854306384
 20
37.1899698891
 10
69.3404105732
 20
37.0562482096
 10
69.3872625379
 20
36.9249129579
 10
69.4265612077
 20
36.7964779075
 10
69.4590521729
 20
36.6707322111
 10
69.4852347311
 20
36.5480434761
 10
69.505602595
 20
36.4287534166
 10
69.5207286851
 20
36.3124979539
 10
69.5310465145
 20
36.1992945079
 10
69.5369345015
 20
36.0895590471
 10
69.5387991548
 20
35.9834605982
  0
LWPOLYLINE
  5
3CD
100
AcDbEntity
  8
RACCORDO
100
AcDbPolyline
 62
250
  6
CONTINUOUS
 90
3
 70
0
 10
66.1546754217
 20
38.1255158275
 10
66.2194283538
 20
38.122473662
 10
66.3549464813
 20
38.1166954771
  0
LWPOLYLINE
  5
3CE
100
AcDbEntity
  8
RACCORDO
100
AcDbPolyline
 62
250
  6
CONTINUOUS
 90
28
 70
0
 10
66.5810414895
 20
38.1083662725
 10
66.7527121164
 20
38.0955422618
 10
66.9215869293
 20
38.0692496015
 10
67.0864480361
 20
38.0300297108
 10
67.2479888103
 20
37.9779303443
 10
67.4035719022
 20
37.9139635099
 10
67.5477185449
 20
37.8413835052
 10
67.6784310322
 20
37.7632171975
 10
67.7978037
 20
37.6801809359
 10
67.9071064554
 20
37.5928786494
 10
68.0066292724
 20
37.5024590485
 10
68.096600141
 20
37.4101008066
 10
68.1780763189
 20
37.3159791591
 10
68.2515008851
 20
37.2207490857
 10
68.3170890266
 20
37.1253292585
 10
68.3754476092
 20
37.0300264571
 10
68.4269576186
 20
36.9354345503
 10
68.4720329759
 20
36.842071142
 10
68.5112594686
 20
36.7499752547
 10
68.5450114026
 20
36.659547346
 10
68.573675166
 20
36.5711336732
 10
68.5977500295
 20
36.4845806527
 10
68.6175665081
 20
36.4001377269
 10
68.6334510253
 20
36.3180390556
 10
68.6457869312
 20
36.2380325537
 10
68.6548686549
 20
36.1601224429
 10
68.6609533626
 20
36.0845836674
 10
68.6643146055
 20
36.0115239764
  0
LWPOLYLINE
  5
3CF
100
AcDbEntity
  8
RACCORDO
100
AcDbPolyline
 62
250
  6
CONTINUOUS
 90
5
 70
0
 10
46.7987634913
 20
21.5174455331
 10
46.8044391444
 20
20.7363139854
 10
46.8084482006
 20
19.9250845499
 10
46.8112956523
 20
19.0843507352
 10
46.8134125123
 20
18.2138908125
  0
LINE
  5
3D0
100
AcDbEntity
  8
RACCORDO
100
AcDbLine
 62
250
  6
CONTINUOUS
 10
46.8134125123
 20
18.2138908125
 11
46.816116468
 21
16.3880452282
  0
LINE
  5
3D1
100
AcDbEntity
  8
RACCORDO
100
AcDbLine
 62
250
  6
CONTINUOUS
 10
46.816116468
 20
16.3880452282
 11
46.8177638396
 21
14.4554901518
  0
LINE
  5
3D2
100
AcDbEntity
  8
RACCORDO
100
AcDbLine
 62
250
  6
CONTINUOUS
 10
46.8177638396
 20
14.4554901518
 11
46.8193784535
 21
11.3607578825
  0
LINE
  5
3D3
100
AcDbEntity
  8
RACCORDO
100
AcDbLine
 62
250
  6
CONTINUOUS
 10
46.8193784535
 20
11.3607578825
 11
46.8232589303
 21
-0.7635465986
  0
LINE
  5
3D4
100
AcDbEntity
  8
RACCORDO
100
AcDbLine
 62
250
  6
CONTINUOUS
 10
46.8232591137
 20
-0.7635465977
 11
46.8198214564
 21
-11.8018914542
  0
LINE
  5
3D5
100
AcDbEntity
  8
RACCORDO
100
AcDbLine
 62
250
  6
CONTINUOUS
 10
46.8198214564
 20
-11.8018914542
 11
46.8177652862
 21
-15.9811886698
  0
LINE
  5
3D6
100
AcDbEntity
  8
RACCORDO
100
AcDbLine
 62
250
  6
CONTINUOUS
 10
46.8177652862
 20
-15.9811886698
 11
46.8161185462
 21
-17.9140979047
  0
LWPOLYLINE
  5
3D7
100
AcDbEntity
  8
RACCORDO
100
AcDbPolyline
 62
250
  6
CONTINUOUS
 90
6
 70
0
 10
46.8161185462
 20
-17.9140979047
 10
46.8134135788
 20
-19.7404050562
 10
46.8112969317
 20
-20.6111292838
 10
46.8084502595
 20
-21.4521432153
 10
46.8044400127
 20
-22.2636721183
 10
46.7987634498
 20
-23.0451332761
  0
LWPOLYLINE
  5
3D8
100
AcDbEntity
  8
RACCORDO
100
AcDbPolyline
 62
250
  6
CONTINUOUS
 90
76
 70
0
 10
45.1315869007
 20
-23.0638438763
 10
45.1303625744
 20
-23.1399620228
 10
45.1261598491
 20
-23.214108644
 10
45.1192057526
 20
-23.2861744254
 10
45.1097498852
 20
-23.3558395511
 10
45.0980061343
 20
-23.4232578164
 10
45.0840691994
 20
-23.4890452801
 10
45.0679531534
 20
-23.553593304
 10
45.0498965234
 20
-23.6163903774
 10
45.0303250553
 20
-23.67672843
 10
45.0094983121
 20
-23.7345132607
 10
44.9875632723
 20
-23.7898408899
 10
44.9648726783
 20
-23.8423439674
 10
44.9417631079
 20
-23.8918075677
 10
44.9183280971
 20
-23.9385359867
 10
44.8945439473
 20
-23.9829502154
 10
44.8705608885
 20
-24.0250893082
 10
44.846521218
 20
-24.0650005014
 10
44.8223187372
 20
-24.103090612
 10
44.7980193088
 20
-24.1394460324
 10
44.7737539194
 20
-24.1740515147
 10
44.7494660296
 20
-24.2071389359
 10
44.7252099881
 20
-24.2387667702
 10
44.7010775366
 20
-24.2689409997
 10
44.6770428731
 20
-24.297801953
 10
44.6531632909
 20
-24.325380966
 10
44.6294962666
 20
-24.35170771
 10
44.6059997571
 20
-24.3769106116
 10
44.5826793036
 20
-24.4010575568
 10
44.5596167558
 20
-24.4241338901
 10
44.5368771227
 20
-24.4461409607
 10
44.514467638
 20
-24.4671387758
 10
44.4924591974
 20
-24.4871249561
 10
44.4710161601
 20
-24.5060144261
 10
44.4502346801
 20
-24.5237979932
 10
44.4300965224
 20
-24.5405555419
 10
44.4105955643
 20
-24.5563390015
 10
44.3918662465
 20
-24.5710990846
 10
44.3738373577
 20
-24.5849492858
 10
44.3561809413
 20
-24.5981703465
 10
44.3389419822
 20
-24.610756843
 10
44.3221093691
 20
-24.622748176
 10
44.3052498965
 20
-24.6344649624
 10
44.2883767052
 20
-24.6459048121
 10
44.2714866292
 20
-24.6570742782
 10
44.2541014208
 20
-24.6682776749
 10
44.2361814216
 20
-24.6795177653
 10
44.2177558923
 20
-24.6907634687
 10
44.1984316392
 20
-24.7022392562
 10
44.1780710956
 20
-24.7139851783
 10
44.15678378
 20
-24.7258986995
 10
44.1345377544
 20
-24.7379743839
 10
44.1113177224
 20
-24.7501835282
 10
44.0871114556
 20
-24.7624845344
 10
44.061890595
 20
-24.7748488724
 10
44.0356667954
 20
-24.7872245115
 10
44.0084031079
 20
-24.7995827641
 10
43.9799965914
 20
-24.8119226409
 10
43.9504342556
 20
-24.8241943434
 10
43.9197035921
 20
-24.8363462714
 10
43.887699528
 20
-24.8483624638
 10
43.8543799938
 20
-24.8601913467
 10
43.8197640267
 20
-24.8717583054
 10
43.783837879
 20
-24.8830039115
 10
43.746503629
 20
-24.8938932433
 10
43.7078449213
 20
-24.9043164601
 10
43.6681290873
 20
-24.9141145853
 10
43.6276433842
 20
-24.9231786634
 10
43.5861151485
 20
-24.9315111798
 10
43.5429765651
 20
-24.939096759
 10
43.4982060512
 20
-24.9458272836
 10
43.4518476493
 20
-24.9516002896
 10
43.4034310274
 20
-24.9563293913
 10
43.3528154522
 20
-24.9598667931
 10
43.3001940656
 20
-24.9620436131
 10
43.2456060761
 20
-24.9626977765
  0
LWPOLYLINE
  5
3D9
100
AcDbEntity
  8
RACCORDO
100
AcDbPolyline
 62
250
  6
CONTINUOUS
 90
76
 70
0
 10
46.7987636276
 20
-23.0451333126
 10
46.7945028428
 20
-23.1911132184
 10
46.7843835111
 20
-23.3332490238
 10
46.7688191957
 20
-23.471425767
 10
46.7479568832
 20
-23.6053092852
 10
46.7224604766
 20
-23.7350224768
 10
46.6935660019
 20
-23.8607806502
 10
46.6622022992
 20
-23.9825696584
 10
46.6284918842
 20
-24.0992475646
 10
46.59230679
 20
-24.210118535
 10
46.5537364716
 20
-24.3156881793
 10
46.5131417147
 20
-24.4167639321
 10
46.4709596825
 20
-24.5128971064
 10
46.4277674497
 20
-24.6035561912
 10
46.383880813
 20
-24.6890405319
 10
46.3393291045
 20
-24.7700887604
 10
46.294382038
 20
-24.8468015424
 10
46.2492752407
 20
-24.9193120597
 10
46.2038570055
 20
-24.9883834758
 10
46.1582620165
 20
-25.0541620786
 10
46.1127304292
 20
-25.1166050668
 10
46.0671816955
 20
-25.176153705
 10
46.0217136671
 20
-25.2329206995
 10
45.9764905962
 20
-25.2869218235
 10
45.9314862195
 20
-25.3384309442
 10
45.8868088307
 20
-25.3875053448
 10
45.8425623424
 20
-25.434197939
 10
45.7986776713
 20
-25.4787660724
 10
45.7551508536
 20
-25.5213439161
 10
45.7121296326
 20
-25.5619104123
 10
45.6697772813
 20
-25.6004674597
 10
45.6281627919
 20
-25.6370736887
 10
45.5873919077
 20
-25.6717503681
 10
45.547614043
 20
-25.7045168165
 10
45.5088905505
 20
-25.7354138525
 10
45.4711181146
 20
-25.7646648446
 10
45.4341665255
 20
-25.792571056
 10
45.3981796156
 20
-25.8191143461
 10
45.3630223722
 20
-25.8444510425
 10
45.3281795264
 20
-25.8690621491
 10
45.2937889986
 20
-25.8928829879
 10
45.2598823953
 20
-25.9159154979
 10
45.2257252693
 20
-25.9387111144
 10
45.1913142918
 20
-25.9612810995
 10
45.156685511
 20
-25.9835826867
 10
45.121160075
 20
-26.0060163678
 10
45.0847891124
 20
-26.0286277966
 10
45.0477480777
 20
-26.0511561254
 10
45.0096069704
 20
-26.0734636223
 10
44.9704519539
 20
-26.0952985528
 10
44.9306377984
 20
-26.1166110719
 10
44.8898446937
 20
-26.1377010502
 10
44.847710119
 20
-26.158768684
 10
44.803821111
 20
-26.1799280921
 10
44.7578901821
 20
-26.2012529536
 10
44.7099926868
 20
-26.2226162034
 10
44.6602666397
 20
-26.2438603006
 10
44.6085825808
 20
-26.2649561996
 10
44.5548932602
 20
-26.2858458498
 10
44.4991354651
 20
-26.3064485734
 10
44.4411333328
 20
-26.3266928988
 10
44.3808574942
 20
-26.3464297393
 10
44.3183604184
 20
-26.3655699773
 10
44.2535924868
 20
-26.3841165394
 10
44.1864929623
 20
-26.4017914803
 10
44.1170739353
 20
-26.418649498
 10
44.0450460729
 20
-26.4352451079
 10
43.9700871132
 20
-26.4517518677
 10
43.8912751802
 20
-26.4678778692
 10
43.8079299657
 20
-26.4832812255
 10
43.7206605286
 20
-26.4975522083
 10
43.6303608715
 20
-26.5102742986
 10
43.5366034878
 20
-26.521043582
 10
43.4389772482
 20
-26.5295593146
 10
43.3374332817
 20
-26.5355965655
 10
43.2319899645
 20
-26.5388353876
  0
LINE
  5
3DA
100
AcDbEntity
  8
SCRITTA_VIMAR
100
AcDbLine
 62
250
  6
CONTINUOUS
 10
39.0406450761
 20
-29.2523958763
 11
39.5822120761
 21
-27.3637278763
  0
LINE
  5
3DB
100
AcDbEntity
  8
SCRITTA_VIMAR
100
AcDbLine
 62
250
  6
CONTINUOUS
 10
39.8790200761
 20
-28.3514168763
 11
39.3306450761
 21
-30.2638508763
  0
LINE
  5
3DC
100
AcDbEntity
  8
SCRITTA_VIMAR
100
AcDbLine
 62
250
  6
CONTINUOUS
 10
40.8457280761
 20
-30.2638588763
 11
41.7768530761
 21
-27.3637208763
  0
LINE
  5
3DD
100
AcDbEntity
  8
SCRITTA_VIMAR
100
AcDbLine
 62
250
  6
CONTINUOUS
 10
42.0668740761
 20
-28.2669618763
 11
41.7857850761
 21
-29.1425008763
  0
LINE
  5
3DE
100
AcDbEntity
  8
SCRITTA_VIMAR
100
AcDbLine
 62
250
  6
CONTINUOUS
 10
41.6088630761
 20
-29.6935228763
 11
41.4257500761
 21
-30.2638508763
  0
LWPOLYLINE
  5
3DF
100
AcDbEntity
  8
0
100
AcDbPolyline
 62
7
  6
CONTINUOUS
 90
8
 70
0
 43
0.3500000006
 10
1.5456061263
 20
49.5138460236
 10
2.4027490225
 20
49.5138460236
 10
2.8313202581
 20
49.9424149933
 10
2.8313202581
 20
50.7995574646
 10
2.4027490225
 20
51.2281309662
 10
1.5456061263
 20
51.2281309662
 10
1.5456061263
 20
52.5138424072
 10
2.8313202581
 20
52.5138424072
  0
LWPOLYLINE
  5
3E0
100
AcDbEntity
  8
0
100
AcDbPolyline
 62
7
  6
CONTINUOUS
 90
7
 70
0
 43
0.3500000006
 10
-1.0258224914
 20
49.5138460236
 10
-2.5258224535
 20
49.5138460236
 10
-1.0258224914
 20
51.6566999359
 10
-1.0258224914
 20
52.0852734375
 10
-1.4543939395
 20
52.5138424072
 10
-2.0972510762
 20
52.5138424072
 10
-2.5258224535
 20
51.8709889526
  0
LWPOLYLINE
  5
3E1
100
AcDbEntity
  8
0
100
AcDbPolyline
 62
7
  6
CONTINUOUS
 90
3
 70
0
 43
0.3500000006
 10
-3.3829654913
 20
50.1566994781
 10
-4.8829650993
 20
50.1566994781
 10
-4.2401082458
 20
52.5138424072
  0
LWPOLYLINE
  5
3E2
100
AcDbEntity
  8
RACCORDO
100
AcDbPolyline
 62
250
  6
CONTINUOUS
 90
9
 70
0
 10
-72.4475870154
 20
35.9834605982
 10
-72.4347930465
 20
35.9867647922
 10
-72.4087106449
 20
35.9900244475
 10
-72.3696913848
 20
35.993195626
 10
-72.3182612208
 20
35.9962355824
 10
-72.2551133985
 20
35.9991033399
 10
-72.1810991103
 20
36.0017602431
 10
-72.0972160213
 20
36.0041704787
 10
-72.004594822
 20
36.0063015583
  0
LWPOLYLINE
  5
3E3
100
AcDbEntity
  8
RACCORDO
100
AcDbPolyline
 62
250
  6
CONTINUOUS
 90
10
 70
0
 10
69.5387991548
 20
35.9834605982
 10
69.5260051878
 20
35.9867651301
 10
69.4999227888
 20
35.9900251036
 10
69.4609035316
 20
35.9931965662
 10
69.409473371
 20
35.9962367589
 10
69.3463255525
 20
35.999104692
 10
69.2723112683
 20
36.0017616979
 10
69.1884281835
 20
36.0041719521
 10
69.0958069883
 20
36.0063029564
 10
68.8894451198
 20
36.0096164301
  0
LINE
  5
3E4
100
AcDbEntity
  8
RACCORDO
100
AcDbLine
 62
250
  6
CONTINUOUS
 10
68.6712230904
 20
35.7920635525
 11
68.6844054385
 21
35.4471400219
  0
LWPOLYLINE
  5
3E5
100
AcDbEntity
  8
RACCORDO
100
AcDbPolyline
 62
250
  6
CONTINUOUS
 90
4
 70
0
 10
68.6844054385
 20
35.4471400219
 10
68.685891926
 20
35.3986996507
 10
68.686538681
 20
35.3498589274
 10
68.7045006739
 20
32.4270235312
  0
LINE
  5
3E6
100
AcDbEntity
  8
RACCORDO
100
AcDbLine
 62
250
  6
CONTINUOUS
 10
68.6643146714
 20
36.0115239913
 11
68.6712230904
 21
35.7920635525
  0
LINE
  5
3E7
100
AcDbEntity
  8
RACCORDO
100
AcDbLine
 62
250
  6
CONTINUOUS
 10
68.7045006739
 20
32.4270235312
 11
68.7420919106
 21
26.0487335643
  0
LINE
  5
3E8
100
AcDbEntity
  8
RACCORDO
100
AcDbLine
 62
250
  6
CONTINUOUS
 10
68.7420919106
 20
26.0487335643
 11
68.7522498622
 21
24.2084837427
  0
LINE
  5
3E9
100
AcDbEntity
  8
RACCORDO
100
AcDbLine
 62
250
  6
CONTINUOUS
 10
68.7522498622
 20
24.2084837427
 11
68.7610079278
 21
22.4454285335
  0
LINE
  5
3EA
100
AcDbEntity
  8
RACCORDO
100
AcDbLine
 62
250
  6
CONTINUOUS
 10
68.7610079278
 20
22.4454285335
 11
68.7678717175
 21
20.8631762361
  0
LINE
  5
3EB
100
AcDbEntity
  8
RACCORDO
100
AcDbLine
 62
250
  6
CONTINUOUS
 10
68.7678717175
 20
20.8631762361
 11
68.7727408472
 21
19.5651338542
  0
LINE
  5
3EC
100
AcDbEntity
  8
RACCORDO
100
AcDbLine
 62
250
  6
CONTINUOUS
 10
68.7727408472
 20
19.5651338542
 11
68.7771906272
 21
18.1626796237
  0
LINE
  5
3ED
100
AcDbEntity
  8
RACCORDO
100
AcDbLine
 62
250
  6
CONTINUOUS
 10
68.7771906272
 20
18.1626796237
 11
68.7810399296
 21
16.6471397698
  0
LINE
  5
3EE
100
AcDbEntity
  8
RACCORDO
100
AcDbLine
 62
250
  6
CONTINUOUS
 10
68.7810399296
 20
16.6471397698
 11
68.7841048333
 21
15.0092311018
  0
LINE
  5
3EF
100
AcDbEntity
  8
RACCORDO
100
AcDbLine
 62
250
  6
CONTINUOUS
 10
69.5387212122
 20
-37.4570511544
 11
69.5387991548
 21
-37.5111483508
  0
LINE
  5
3F0
100
AcDbEntity
  8
RACCORDO
100
AcDbLine
 62
250
  6
CONTINUOUS
 10
69.5385259493
 20
-37.302661881
 11
69.5387212122
 21
-37.4570511544
  0
LINE
  5
3F1
100
AcDbEntity
  8
RACCORDO
100
AcDbLine
 62
250
  6
CONTINUOUS
 10
68.7841048333
 20
15.0092311018
 11
68.7862202628
 21
13.2391291377
  0
LINE
  5
3F2
100
AcDbEntity
  8
RACCORDO
100
AcDbLine
 62
250
  6
CONTINUOUS
 10
69.5384269747
 20
-37.2058613189
 11
69.5385259493
 21
-37.302661881
  0
LINE
  5
3F3
100
AcDbEntity
  8
RACCORDO
100
AcDbLine
 62
250
  6
CONTINUOUS
 10
69.53834841
 20
-37.1120747891
 11
69.5384269747
 21
-37.2058613189
  0
LINE
  5
3F4
100
AcDbEntity
  8
RACCORDO
100
AcDbLine
 62
250
  6
CONTINUOUS
 10
68.7862202628
 20
13.2391291377
 11
68.7872760013
 21
11.3265705275
  0
LWPOLYLINE
  5
3F5
100
AcDbEntity
  8
RACCORDO
100
AcDbPolyline
 62
250
  6
CONTINUOUS
 90
4
 70
0
 10
69.5382336805
 20
-36.8780543283
 10
69.5382509657
 20
-36.9260202929
 10
69.5382699615
 20
-36.9730840222
 10
69.53834841
 20
-37.1120747891
  0
LINE
  5
3F6
100
AcDbEntity
  8
RACCORDO
100
AcDbLine
 62
250
  6
CONTINUOUS
 10
68.7833832066
 20
-2.6771958454
 11
68.7867504209
 21
-9.3931804675
  0
LINE
  5
3F7
100
AcDbEntity
  8
RACCORDO
100
AcDbLine
 62
250
  6
CONTINUOUS
 10
68.7867504209
 20
-9.3931804675
 11
68.7872803949
 21
-10.8617383342
  0
LWPOLYLINE
  5
3F8
100
AcDbEntity
  8
RACCORDO
100
AcDbPolyline
 62
250
  6
CONTINUOUS
 90
3
 70
0
 10
69.5330811347
 20
-4.4932752946
 10
69.5329740734
 20
-7.8454990363
 10
69.5382336805
 20
-36.8780543283
  0
LINE
  5
3F9
100
AcDbEntity
  8
RACCORDO
100
AcDbLine
 62
7
  6
CONTINUOUS
 10
69.6121788486
 20
2.0361561237
 11
69.6121788486
 21
-3.5638438763
  0
LINE
  5
3FA
100
AcDbEntity
  8
DRAFT
100
AcDbLine
 62
7
  6
CONTINUOUS
 10
69.6956060761
 20
4.3623265131
 11
69.6956060761
 21
3.2361561237
  0
LINE
  5
3FB
100
AcDbEntity
  8
DRAFT
100
AcDbLine
 62
7
  6
CONTINUOUS
 10
69.6956060761
 20
-4.7638438763
 11
69.6956060761
 21
-5.8900571226
  0
LINE
  5
3FC
100
AcDbEntity
  8
RACCORDO
100
AcDbLine
 62
7
  6
CONTINUOUS
 10
69.7956060761
 20
-37.7679552721
 11
69.7956060761
 21
-6.0638438763
  0
LINE
  5
3FD
100
AcDbEntity
  8
RACCORDO
100
AcDbLine
 62
7
  6
CONTINUOUS
 10
69.7956060761
 20
4.5361561237
 11
69.7956060761
 21
36.2402675194
  0
LINE
  5
3FE
100
AcDbEntity
  8
RACCORDO
100
AcDbLine
 62
250
  6
CONTINUOUS
 10
68.7835298968
 20
2.039802884
 11
68.7833832066
 21
-2.6771958454
  0
LINE
  5
3FF
100
AcDbEntity
  8
RACCORDO
100
AcDbLine
 62
250
  6
CONTINUOUS
 10
68.7872760013
 20
11.3265705275
 11
68.7872634692
 21
9.2610672363
  0
LINE
  5
400
100
AcDbEntity
  8
RACCORDO
100
AcDbLine
 62
250
  6
CONTINUOUS
 10
68.7872803949
 20
-10.8617383342
 11
68.7872568092
 21
-12.9259229926
  0
LINE
  5
401
100
AcDbEntity
  8
RACCORDO
100
AcDbLine
 62
250
  6
CONTINUOUS
 10
69.5329998307
 20
15.0079441822
 11
69.5330811347
 21
-4.4932752946
  0
LINE
  5
402
100
AcDbEntity
  8
RACCORDO
100
AcDbLine
 62
250
  6
CONTINUOUS
 10
69.5339999639
 20
21.6702297125
 11
69.5329998307
 21
15.0079441822
  0
LINE
  5
403
100
AcDbEntity
  8
RACCORDO
100
AcDbLine
 62
250
  6
CONTINUOUS
 10
68.7872634692
 20
9.2610672363
 11
68.7835298968
 21
2.039802884
  0
LINE
  5
404
100
AcDbEntity
  8
RACCORDO
100
AcDbLine
 62
250
  6
CONTINUOUS
 10
68.7872568092
 20
-12.9259229926
 11
68.7861599758
 21
-14.8352949302
  0
LINE
  5
405
100
AcDbEntity
  8
RACCORDO
100
AcDbLine
 62
250
  6
CONTINUOUS
 10
68.7861599758
 20
-14.8352949302
 11
68.7840038492
 21
-16.6021224222
  0
LWPOLYLINE
  5
406
100
AcDbEntity
  8
RACCORDO
100
AcDbPolyline
 62
250
  6
CONTINUOUS
 90
3
 70
0
 10
69.5387991548
 20
35.9834605982
 10
69.5387196566
 20
35.9281776372
 10
69.5339999639
 20
21.6702297125
  0
LINE
  5
407
100
AcDbEntity
  8
RACCORDO
100
AcDbLine
 62
250
  6
CONTINUOUS
 10
68.7840038492
 20
-16.6021224222
 11
68.7809011398
 21
-18.2371449158
  0
LINE
  5
408
100
AcDbEntity
  8
RACCORDO
100
AcDbLine
 62
250
  6
CONTINUOUS
 10
68.7809011398
 20
-18.2371449158
 11
68.7770184093
 21
-19.7501368917
  0
LINE
  5
409
100
AcDbEntity
  8
RACCORDO
100
AcDbLine
 62
250
  6
CONTINUOUS
 10
68.7770184093
 20
-19.7501368917
 11
68.7725401533
 21
-21.1503560852
  0
LINE
  5
40A
100
AcDbEntity
  8
RACCORDO
100
AcDbLine
 62
250
  6
CONTINUOUS
 10
68.7725401533
 20
-21.1503560852
 11
68.765955884
 21
-22.8568512232
  0
LINE
  5
40B
100
AcDbEntity
  8
RACCORDO
100
AcDbLine
 62
250
  6
CONTINUOUS
 10
68.765955884
 20
-22.8568512232
 11
68.7607592852
 21
-24.0264956412
  0
LINE
  5
40C
100
AcDbEntity
  8
RACCORDO
100
AcDbLine
 62
250
  6
CONTINUOUS
 10
68.7607592852
 20
-24.0264956412
 11
68.753728186
 21
-25.4527686424
  0
LINE
  5
40D
100
AcDbEntity
  8
RACCORDO
100
AcDbLine
 62
250
  6
CONTINUOUS
 10
68.753728186
 20
-25.4527686424
 11
68.7502423409
 21
-26.1134669293
  0
LINE
  5
40E
100
AcDbEntity
  8
RACCORDO
100
AcDbLine
 62
250
  6
CONTINUOUS
 10
68.7502423409
 20
-26.1134669293
 11
68.7468067003
 21
-26.7412285173
  0
LINE
  5
40F
100
AcDbEntity
  8
RACCORDO
100
AcDbLine
 62
250
  6
CONTINUOUS
 10
68.7468067003
 20
-26.7412285173
 11
68.6946726545
 21
-35.5512232518
  0
LWPOLYLINE
  5
410
100
AcDbEntity
  8
RACCORDO
100
AcDbPolyline
 62
250
  6
CONTINUOUS
 90
3
 70
0
 10
68.6946726545
 20
-35.5512232518
 10
68.688256041
 20
-36.5669581395
 10
68.6864312009
 20
-36.8841230927
  0
LWPOLYLINE
  5
411
100
AcDbEntity
  8
RACCORDO
100
AcDbPolyline
 62
250
  6
CONTINUOUS
 90
4
 70
0
 10
68.6864312009
 20
-36.8841230927
 10
68.6857398789
 20
-36.932866979
 10
68.6842149557
 20
-36.9812470265
 10
68.6783022457
 20
-37.1256936568
  0
LWPOLYLINE
  5
412
100
AcDbEntity
  8
RACCORDO
100
AcDbPolyline
 62
250
  6
CONTINUOUS
 90
31
 70
0
 10
69.5387991548
 20
-37.5111483508
 10
69.5373148217
 20
-37.6058264704
 10
69.5326734235
 20
-37.7030542787
 10
69.5246223554
 20
-37.8027175191
 10
69.5129530035
 20
-37.9043438211
 10
69.497386446
 20
-38.008127494
 10
69.4774555585
 20
-38.1149107264
 10
69.4527412984
 20
-38.2246970839
 10
69.4229109114
 20
-38.3370215106
 10
69.3874761302
 20
-38.4519496522
 10
69.3460487305
 20
-38.5691035137
 10
69.2982106325
 20
-38.6881662576
 10
69.2433327954
 20
-38.8091978371
 10
69.1809481194
 20
-38.9317516318
 10
69.110645422
 20
-39.0552413388
 10
69.0317942223
 20
-39.1793840675
 10
68.9439991054
 20
-39.3034510994
 10
68.8468441418
 20
-39.4267302695
 10
68.7396091732
 20
-39.5487872395
 10
68.6221983986
 20
-39.6684264348
 10
68.4940903012
 20
-39.7849032872
 10
68.3537725116
 20
-39.898089286
 10
68.2009190432
 20
-40.0066012398
 10
68.0353829938
 20
-40.1089015619
 10
67.8557662066
 20
-40.2040224936
 10
67.6600473367
 20
-40.2907964076
 10
67.4503732621
 20
-40.3660098188
 10
67.2321556653
 20
-40.4262660795
 10
67.0080769175
 20
-40.4701744358
 10
66.7776726231
 20
-40.4971953872
 10
66.5422170611
 20
-40.5063434657
  0
LINE
  5
413
100
AcDbEntity
  8
RACCORDO
100
AcDbLine
 62
250
  6
CONTINUOUS
 10
68.6710915011
 20
-37.3236773656
 11
68.66431464
 21
-37.5392117368
  0
LINE
  5
414
100
AcDbEntity
  8
RACCORDO
100
AcDbLine
 62
250
  6
CONTINUOUS
 10
68.6783022457
 20
-37.1256936568
 11
68.6710915011
 21
-37.3236773656
  0
LWPOLYLINE
  5
415
100
AcDbEntity
  8
RACCORDO
100
AcDbPolyline
 62
250
  6
CONTINUOUS
 90
31
 70
0
 10
68.6643146432
 20
-37.5392117376
 10
68.6614358903
 20
-37.6044042609
 10
68.6564254707
 20
-37.6713346377
 10
68.6491119105
 20
-37.7399303714
 10
68.6393575519
 20
-37.8098726599
 10
68.6269718957
 20
-37.8812986376
 10
68.6116277238
 20
-37.9547903675
 10
68.5930403544
 20
-38.0303527714
 10
68.5709961214
 20
-38.107668676
 10
68.5451703421
 20
-38.1867861294
 10
68.5153044057
 20
-38.2674476492
 10
68.4811198596
 20
-38.3494438937
 10
68.4421926675
 20
-38.4328286187
 10
68.3982035771
 20
-38.5173036608
 10
68.3488765466
 20
-38.6024806722
 10
68.2937888595
 20
-38.6881871478
 10
68.2326666523
 20
-38.7739356639
 10
68.1652261049
 20
-38.8592565884
 10
68.0909848252
 20
-38.9438842964
 10
68.0098715749
 20
-39.0270129263
 10
67.9215212252
 20
-39.1081581862
 10
67.8249024793
 20
-39.187292271
 10
67.7197725529
 20
-39.2634968477
 10
67.6060134945
 20
-39.3357526784
 10
67.4826819328
 20
-39.4034868011
 10
67.3483772279
 20
-39.4659739121
 10
67.2045293802
 20
-39.5210230339
 10
67.0548125265
 20
-39.566312941
 10
66.9010075564
 20
-39.6008794234
 10
66.7427532319
 20
-39.6243516107
 10
66.5810415527
 20
-39.6360542337
  0
LWPOLYLINE
  5
416
100
AcDbEntity
  8
RACCORDO
100
AcDbPolyline
 62
250
  6
CONTINUOUS
 90
13
 70
0
 10
66.5422170611
 20
-40.5063434657
 10
66.5467780878
 20
-40.4936105556
 10
66.5512780034
 20
-40.4676684647
 10
66.5556565159
 20
-40.4288647686
 10
66.5598549598
 20
-40.3777193647
 10
66.5638170822
 20
-40.3149175063
 10
66.5674897961
 20
-40.2413006214
 10
66.5708238922
 20
-40.1578550395
 10
66.5737746985
 20
-40.065698776
 10
66.5763026782
 20
-39.9660665534
 10
66.5783739596
 20
-39.8602932583
 10
66.5799607898
 20
-39.7497960559
 10
66.5810419068
 20
-39.6360554033
  0
LWPOLYLINE
  5
417
100
AcDbEntity
  8
RACCORDO
100
AcDbPolyline
 62
250
  6
CONTINUOUS
 90
13
 70
0
 10
66.5422170535
 20
38.9786010866
 10
66.5467777273
 20
38.9658691358
 10
66.5512773146
 20
38.9399289236
 10
66.5556555333
 20
38.9011279814
 10
66.5598537281
 20
38.849986141
 10
66.563815656
 20
38.7871885699
 10
66.5674882401
 20
38.7135765922
 10
66.570822281
 20
38.630136417
 10
66.573773117
 20
38.5379859256
 10
66.5763012212
 20
38.4383596947
 10
66.5783727316
 20
38.3325924568
 10
66.5799599053
 20
38.2221012177
 10
66.5810414895
 20
38.1083662725
  0
LWPOLYLINE
  5
418
100
AcDbEntity
  8
RACCORDO
100
AcDbPolyline
 62
250
  6
CONTINUOUS
 90
21
 70
0
 10
-91.4033416016
 20
-39.8109086695
 10
-91.4044765835
 20
-39.8111791329
 10
-91.405652779
 20
-39.8114685355
 10
-91.4067349388
 20
-39.812113308
 10
-91.4076023166
 20
-39.813348844
 10
-91.4083083332
 20
-39.8149422126
 10
-91.4089797509
 20
-39.816527627
 10
-91.4096423727
 20
-39.8179798547
 10
-91.4102467428
 20
-39.8194255572
 10
-91.4108013959
 20
-39.8208777562
 10
-91.4113008023
 20
-39.8223430111
 10
-91.4117333426
 20
-39.8238156269
 10
-91.4120927869
 20
-39.825290523
 10
-91.4123606546
 20
-39.8267871766
 10
-91.4125255684
 20
-39.8282876452
 10
-91.4125903541
 20
-39.8297309344
 10
-91.4125208633
 20
-39.8311700089
 10
-91.4123376014
 20
-39.8325527829
 10
-91.412129755
 20
-39.8336609574
 10
-91.41196767
 20
-39.8343445031
 10
-91.4118825006
 20
-39.8346136121
  0
LINE
  5
419
100
AcDbEntity
  8
RACCORDO
100
AcDbLine
 62
7
  6
CONTINUOUS
 10
-85.410665219
 20
-40.7638438763
 11
-90.5228223953
 21
-40.4959270714
  0
LWPOLYLINE
  5
41A
100
AcDbEntity
  8
RACCORDO
100
AcDbPolyline
 62
250
  6
CONTINUOUS
 90
13
 70
0
 10
-90.3240657519
 20
-40.5063434657
 10
-90.4390231861
 20
-40.4936105556
 10
-90.551739202
 20
-40.4676684647
 10
-90.6607036149
 20
-40.4288647686
 10
-90.7644565043
 20
-40.3777193647
 10
-90.8616077746
 20
-40.3149175063
 10
-90.9508557796
 20
-40.2413006214
 10
-91.031004762
 20
-40.1578550395
 10
-91.1009808748
 20
-40.065698776
 10
-91.1598465682
 20
-39.9660665534
 10
-91.2068131516
 20
-39.8602932583
 10
-91.24125136
 20
-39.7497960559
 10
-91.2626997857
 20
-39.6360554033
  0
LWPOLYLINE
  5
41B
100
AcDbEntity
  8
0
100
AcDbPolyline
 62
7
  6
CONTINUOUS
 90
10
 70
0
 43
0.3500000006
 10
-92.8392379761
 20
49.5138460236
 10
-91.9820909729
 20
50.3709884949
 10
-91.767806488
 20
51.2281309662
 10
-91.767806488
 20
52.0852734375
 10
-92.1963754578
 20
52.5138424072
 10
-92.8392379761
 20
52.5138424072
 10
-93.2678069458
 20
52.0852734375
 10
-93.2678069458
 20
51.2281309662
 10
-92.8392379761
 20
50.7995574646
 10
-91.9106688538
 20
50.7995574646
  0
LINE
  5
41C
100
AcDbEntity
  8
RACCORDO
100
AcDbLine
 62
7
  6
CONTINUOUS
 10
-90.8428494349
 20
38.8976866347
 11
-90.9428842742
 21
38.8509978074
  0
LINE
  5
41D
100
AcDbEntity
  8
RACCORDO
100
AcDbLine
 62
250
  6
CONTINUOUS
 10
-91.1951522316
 20
-37.5373032502
 11
-91.2503644017
 21
-37.5392117376
  0
LINE
  5
41E
100
AcDbEntity
  8
RACCORDO
100
AcDbLine
 62
250
  6
CONTINUOUS
 10
-90.3108331862
 20
-37.5111483508
 11
-91.1951522316
 21
-37.5373032502
  0
LINE
  5
41F
100
AcDbEntity
  8
RACCORDO
100
AcDbLine
 62
250
  6
CONTINUOUS
 10
-90.3108331855
 20
-37.5111483508
 11
-85.410665219
 21
-37.7679552721
  0
LINE
  5
420
100
AcDbEntity
  8
RACCORDO
100
AcDbLine
 62
7
  6
CONTINUOUS
 10
-90.9423112144
 20
38.8512878384
 11
-91.0367175634
 21
38.7938597079
  0
LINE
  5
421
100
AcDbEntity
  8
RACCORDO
100
AcDbLine
 62
7
  6
CONTINUOUS
 10
-91.0361156806
 20
38.7942507006
 11
-91.1237182702
 21
38.7267721165
  0
LINE
  5
422
100
AcDbEntity
  8
SCRITTA_VIMAR
100
AcDbLine
 62
250
  6
CONTINUOUS
 10
-93.735805458
 20
-30.2638508763
 11
-93.7371399786
 21
-30.2638588763
  0
LINE
  5
423
100
AcDbEntity
  8
SCRITTA_VIMAR
100
AcDbLine
 62
250
  6
CONTINUOUS
 10
-93.7214346295
 20
-30.2638508763
 11
-93.7270846726
 21
-30.2638588763
  0
LINE
  5
424
100
AcDbEntity
  8
SCRITTA_VIMAR
100
AcDbLine
 62
250
  6
CONTINUOUS
 10
-93.6198172264
 20
-30.2638438763
 11
-93.6411334556
 21
-30.2638508763
  0
LINE
  5
425
100
AcDbEntity
  8
SCRITTA_VIMAR
100
AcDbLine
 62
250
  6
CONTINUOUS
 10
-93.7301010488
 20
-30.2638588763
 11
-93.733579867
 21
-30.2638588763
  0
LINE
  5
426
100
AcDbEntity
  8
SCRITTA_VIMAR
100
AcDbLine
 62
250
  6
CONTINUOUS
 10
-93.6714449321
 20
-30.2638508763
 11
-93.684992373
 21
-30.2638508763
  0
LINE
  5
427
100
AcDbEntity
  8
SCRITTA_VIMAR
100
AcDbLine
 62
250
  6
CONTINUOUS
 10
-93.6930357523
 20
-30.2638588763
 11
-93.7036695226
 21
-30.2638508763
  0
LINE
  5
428
100
AcDbEntity
  8
RACCORDO
100
AcDbLine
 62
7
  6
CONTINUOUS
 10
-91.12312419
 20
38.7272559329
 11
-91.2028358651
 21
38.6505443374
  0
LINE
  5
429
100
AcDbEntity
  8
SCRITTA_VIMAR
100
AcDbLine
 62
250
  6
CONTINUOUS
 10
-93.7844961332
 20
-29.6935228763
 11
-93.7971051046
 21
-29.6935228763
  0
LINE
  5
42A
100
AcDbEntity
  8
SCRITTA_VIMAR
100
AcDbLine
 62
250
  6
CONTINUOUS
 10
-93.864980398
 20
-29.1425008763
 11
-93.8575697977
 21
-29.1425008763
  0
LINE
  5
42B
100
AcDbEntity
  8
SCRITTA_VIMAR
100
AcDbLine
 62
250
  6
CONTINUOUS
 10
-93.8857701704
 20
-28.6059718763
 11
-93.8663121235
 21
-28.6059718763
  0
LINE
  5
42C
100
AcDbEntity
  8
SCRITTA_VIMAR
100
AcDbLine
 62
250
  6
CONTINUOUS
 10
-93.9512377973
 20
-27.9002418763
 11
-93.9697362917
 21
-27.9002418763
  0
LINE
  5
42D
100
AcDbEntity
  8
SCRITTA_VIMAR
100
AcDbLine
 62
250
  6
CONTINUOUS
 10
-94.0657008626
 20
-27.3637278763
 11
-94.0646053356
 21
-27.3637278763
  0
LINE
  5
42E
100
AcDbEntity
  8
SCRITTA_VIMAR
100
AcDbLine
 62
250
  6
CONTINUOUS
 10
-94.0596641196
 20
-27.3637208763
 11
-94.0557797707
 21
-27.3637208763
  0
LINE
  5
42F
100
AcDbEntity
  8
SCRITTA_VIMAR
100
AcDbLine
 62
250
  6
CONTINUOUS
 10
-94.0411952697
 20
-27.3637208763
 11
-94.0129250188
 21
-27.3637208763
  0
LINE
  5
430
100
AcDbEntity
  8
SCRITTA_VIMAR
100
AcDbLine
 62
250
  6
CONTINUOUS
 10
-93.8058806944
 20
-29.1425008763
 11
-93.8196772124
 21
-29.1424938763
  0
LINE
  5
431
100
AcDbEntity
  8
RACCORDO
100
AcDbLine
 62
7
  6
CONTINUOUS
 10
-91.2022809998
 20
38.6511048453
 11
-91.2731150136
 21
38.5660959584
  0
LWPOLYLINE
  5
432
100
AcDbEntity
  8
SCRITTA_VIMAR
100
AcDbPolyline
 62
250
  6
CONTINUOUS
 90
16
 70
0
 10
-94.0129252498
 20
-27.3637189892
 10
-94.0120473042
 20
-27.3641423646
 10
-94.0110367089
 20
-27.3654492333
 10
-94.0098878867
 20
-27.3676946915
 10
-94.00859526
 20
-27.3709338358
 10
-94.0071532515
 20
-27.3752217623
 10
-94.0055562837
 20
-27.3806135673
 10
-94.0037987793
 20
-27.3871643473
 10
-94.0018751608
 20
-27.3949291986
 10
-93.9997808624
 20
-27.4039583614
 10
-93.9975153649
 20
-27.4142826526
 10
-93.9950791603
 20
-27.4259280329
 10
-93.9924727412
 20
-27.4389204631
 10
-93.9896965997
 20
-27.453285904
 10
-93.9867512282
 20
-27.4690503163
 10
-93.9836371189
 20
-27.4862396608
  0
LINE
  5
433
100
AcDbEntity
  8
RACCORDO
100
AcDbLine
 62
7
  6
CONTINUOUS
 10
-91.2726255712
 20
38.5667087566
 11
-91.3337069161
 21
38.4744459256
  0
LWPOLYLINE
  5
434
100
AcDbEntity
  8
RACCORDO
100
AcDbPolyline
 62
250
  6
CONTINUOUS
 90
6
 70
0
 10
-94.3448769359
 20
-23.0551285162
 10
-94.2807660474
 20
-23.0530190499
 10
-94.2292349438
 20
-23.050955928
 10
-94.1905095083
 20
-23.0489481421
 10
-94.1647594915
 20
-23.0470044449
 10
-94.152097767
 20
-23.0451333126
  0
LINE
  5
435
100
AcDbEntity
  8
RACCORDO
100
AcDbLine
 62
250
  6
CONTINUOUS
 10
-94.5096600529
 20
-23.0594495609
 11
-94.3448769359
 21
-23.0551285162
  0
LINE
  5
436
100
AcDbEntity
  8
RACCORDO
100
AcDbLine
 62
250
  6
CONTINUOUS
 10
-94.7206981972
 20
-23.0638438764
 11
-94.5096600529
 21
-23.0594495609
  0
LINE
  5
437
100
AcDbEntity
  8
RACCORDO
100
AcDbLine
 62
250
  6
CONTINUOUS
 10
-94.9106638885
 20
-23.0638438763
 11
-94.720694705
 21
-23.0638438763
  0
LINE
  5
438
100
AcDbEntity
  8
RACCORDO
100
AcDbLine
 62
7
  6
CONTINUOUS
 10
-91.333301616
 20
38.4750803203
 11
-91.3838796374
 21
38.3767002083
  0
LINE
  5
439
100
AcDbEntity
  8
RACCORDO
100
AcDbLine
 62
7
  6
CONTINUOUS
 10
-94.5729804574
 20
23.6377317681
 11
-94.6430622091
 21
23.530506791
  0
LWPOLYLINE
  5
43A
100
AcDbEntity
  8
RACCORDO
100
AcDbPolyline
 62
7
  6
CONTINUOUS
 90
4
 70
0
 10
-94.7070776442
 20
23.4405499737
 10
-94.6024784521
 20
23.5902282863
 10
-94.503759432
 20
23.7520032452
 10
-94.4418108964
 20
23.8668818898
  0
LINE
  5
43B
100
AcDbEntity
  8
RACCORDO
100
AcDbLine
 62
7
  6
CONTINUOUS
 10
-94.6430622091
 20
23.530506791
 11
-94.6964600084
 21
23.4557434927
  0
LINE
  5
43C
100
AcDbEntity
  8
RACCORDO
100
AcDbLine
 62
7
  6
CONTINUOUS
 10
-94.7112157242
 20
23.4350098352
 11
-94.7070776442
 21
23.4405499737
  0
LINE
  5
43D
100
AcDbEntity
  8
RACCORDO
100
AcDbLine
 62
7
  6
CONTINUOUS
 10
-94.7112141226
 20
-24.9626963887
 11
-94.7067966274
 21
-24.9686115993
  0
LINE
  5
43E
100
AcDbEntity
  8
RACCORDO
100
AcDbLine
 62
7
  6
CONTINUOUS
 10
-94.6953986646
 20
-24.9849245199
 11
-94.6425412041
 21
-25.0589555286
  0
LWPOLYLINE
  5
43F
100
AcDbEntity
  8
RACCORDO
100
AcDbPolyline
 62
7
  6
CONTINUOUS
 90
4
 70
0
 10
-94.7067966274
 20
-24.9686115993
 10
-94.6024771555
 20
-25.1179150564
 10
-94.5037584552
 20
-25.2796902159
 10
-94.4514529466
 20
-25.3758784517
  0
LINE
  5
440
100
AcDbEntity
  8
RACCORDO
100
AcDbLine
 62
7
  6
CONTINUOUS
 10
-94.6425412041
 20
-25.0589555286
 11
-94.5723137231
 21
-25.1664890789
  0
LWPOLYLINE
  5
441
100
AcDbEntity
  8
RACCORDO
100
AcDbPolyline
 62
7
  6
CONTINUOUS
 90
13
 70
0
 10
-94.5723137231
 20
-25.1664890789
 10
-94.5088369108
 20
-25.2732453439
 10
-94.4533003748
 20
-25.3758051027
 10
-94.4035891018
 20
-25.4766172344
 10
-94.3554245812
 20
-25.5845633165
 10
-94.3079766103
 20
-25.7038485004
 10
-94.2638856334
 20
-25.8305765161
 10
-94.224783808
 20
-25.9617846932
 10
-94.191319285
 20
-26.0963761883
 10
-94.1636382188
 20
-26.2350617777
 10
-94.1422074539
 20
-26.3773974654
 10
-94.1274401282
 20
-26.5230386322
 10
-94.1245311872
 20
-26.5646510001
  0
LINE
  5
442
100
AcDbEntity
  8
RACCORDO
100
AcDbLine
 62
7
  6
CONTINUOUS
 10
-91.4118825006
 20
-39.8346136121
 11
-91.4116482218
 21
-39.8351739345
  0
LWPOLYLINE
  5
443
100
AcDbEntity
  8
0
100
AcDbPolyline
 62
7
  6
CONTINUOUS
 90
3
 70
0
 43
0.3500000006
 10
-90.1963839111
 20
49.7995571594
 10
-90.2678060303
 20
49.5852726746
 10
-90.410668396
 20
49.2995570068
  0
LINE
  5
444
100
AcDbEntity
  8
RACCORDO
100
AcDbLine
 62
7
  6
CONTINUOUS
 10
-91.411557926
 20
38.3077270093
 11
-91.4115719678
 21
38.3076853241
  0
LINE
  5
445
100
AcDbEntity
  8
SUPERFICI
100
AcDbLine
 62
7
  6
CONTINUOUS
 10
-91.6376492448
 20
37.6597195954
 11
-91.708604027
 21
37.4488358747
  0
LWPOLYLINE
  5
446
100
AcDbEntity
  8
RACCORDO
100
AcDbPolyline
 62
250
  6
CONTINUOUS
 90
28
 70
0
 10
-91.4115719678
 20
38.3076853241
 10
-91.4119895217
 20
38.3064803286
 10
-91.4122346654
 20
38.3055941142
 10
-91.4124271745
 20
38.304526297
 10
-91.4125485487
 20
38.3032285004
 10
-91.4125884202
 20
38.3017499836
 10
-91.4125071319
 20
38.300247669
 10
-91.4123051629
 20
38.2987623514
 10
-91.4120107039
 20
38.2972516794
 10
-91.4116267826
 20
38.2957481627
 10
-91.4111677126
 20
38.294260807
 10
-91.4106492768
 20
38.2927790642
 10
-91.4100732912
 20
38.2913063657
 10
-91.4094608584
 20
38.2898113657
 10
-91.4087978111
 20
38.2883250426
 10
-91.4080269797
 20
38.2869448203
 10
-91.4071673064
 20
38.2856339246
 10
-91.4062556725
 20
38.2844265247
 10
-91.4052557687
 20
38.2835272475
 10
-91.4041453231
 20
38.2831406147
 10
-91.4029996325
 20
38.2830599764
 10
-91.4019333055
 20
38.2828729916
 10
-91.400974339
 20
38.2824915495
 10
-91.4000773629
 20
38.2820045614
 10
-91.3992501172
 20
38.2812648261
 10
-91.3984845567
 20
38.2802096341
 10
-91.3977319573
 20
38.2789040447
 10
-91.3969303707
 20
38.2773928192
  0
LINE
  5
447
100
AcDbEntity
  8
SUPERFICI
100
AcDbLine
 62
7
  6
CONTINUOUS
 10
-91.5632333867
 20
37.8770254985
 11
-91.637850432
 21
37.6591267597
  0
LINE
  5
448
100
AcDbEntity
  8
SUPERFICI
100
AcDbLine
 62
7
  6
CONTINUOUS
 10
-91.4964392231
 20
38.0687370262
 11
-91.5632333867
 21
37.8770254985
  0
LINE
  5
449
100
AcDbEntity
  8
RACCORDO
100
AcDbLine
 62
250
  6
CONTINUOUS
 10
-91.4115993335
 20
38.3076048117
 11
-91.4117509254
 21
38.3071743315
  0
LINE
  5
44A
100
AcDbEntity
  8
RACCORDO
100
AcDbLine
 62
7
  6
CONTINUOUS
 10
-91.4114827025
 20
38.3079459715
 11
-91.4115085318
 21
38.3078727776
  0
LINE
  5
44B
100
AcDbEntity
  8
SUPERFICI
100
AcDbLine
 62
7
  6
CONTINUOUS
 10
-91.4401658051
 20
38.2277758809
 11
-91.4965031584
 21
38.0685550346
  0
LINE
  5
44C
100
AcDbEntity
  8
SUPERFICI
100
AcDbLine
 62
7
  6
CONTINUOUS
 10
-91.4115864247
 20
38.3076693271
 11
-91.4401658051
 21
38.2277758809
  0
LINE
  5
44D
100
AcDbEntity
  8
RACCORDO
100
AcDbLine
 62
7
  6
CONTINUOUS
 10
-91.3835684913
 20
38.3773209294
 11
-91.4118052839
 21
38.3071433966
  0
LINE
  5
44E
100
AcDbEntity
  8
RACCORDO
100
AcDbLine
 62
7
  6
CONTINUOUS
 10
-91.4118638698
 20
38.3069799678
 11
-91.4116541222
 21
38.307478815
  0
LWPOLYLINE
  5
44F
100
AcDbEntity
  8
RACCORDO
100
AcDbPolyline
 62
250
  6
CONTINUOUS
 90
8
 70
0
 10
-94.4418108964
 20
23.8668818898
 10
-94.4154526521
 20
23.919689067
 10
-94.3379105456
 20
24.0926165164
 10
-94.2714425832
 20
24.2700954389
 10
-94.2163140393
 20
24.4514175148
 10
-94.172744932
 20
24.6358590865
 10
-94.140909146
 20
24.8226840464
 10
-94.1209337382
 20
25.0111467749
  0
LINE
  5
450
100
AcDbEntity
  8
RACCORDO
100
AcDbLine
 62
7
  6
CONTINUOUS
 10
-94.5095025399
 20
23.7443841656
 11
-94.5729804574
 21
23.6377317681
  0
LWPOLYLINE
  5
451
100
AcDbEntity
  8
RACCORDO
100
AcDbPolyline
 62
250
  6
CONTINUOUS
 90
8
 70
0
 10
-94.4514529466
 20
-25.3758784517
 10
-94.4154520087
 20
-25.4473762214
 10
-94.3379102476
 20
-25.620303837
 10
-94.2714426418
 20
-25.7977829074
 10
-94.2163144641
 20
-25.9791051125
 10
-94.1727457314
 20
-26.1635467942
 10
-94.1409103272
 20
-26.3503718447
 10
-94.1209353068
 20
-26.5388346439
  0
LINE
  5
452
100
AcDbEntity
  8
RACCORDO
100
AcDbLine
 62
7
  6
CONTINUOUS
 10
-91.4116179538
 20
-39.8352465433
 11
-91.411518306
 21
-39.835496667
  0
LINE
  5
453
100
AcDbEntity
  8
SUPERFICI
100
AcDbLine
 62
7
  6
CONTINUOUS
 10
-91.4643316437
 20
-39.6874455925
 11
-91.4114423975
 21
-39.8357579119
  0
LINE
  5
454
100
AcDbEntity
  8
SUPERFICI
100
AcDbLine
 62
7
  6
CONTINUOUS
 10
-91.520331519
 20
-39.5282122804
 11
-91.4643316437
 21
-39.6874455925
  0
LINE
  5
455
100
AcDbEntity
  8
SUPERFICI
100
AcDbLine
 62
7
  6
CONTINUOUS
 10
-91.5799009843
 20
-39.3563825582
 11
-91.520331519
 21
-39.5282122804
  0
LINE
  5
456
100
AcDbEntity
  8
SUPERFICI
100
AcDbLine
 62
7
  6
CONTINUOUS
 10
-91.6377008181
 20
-39.1872553805
 11
-91.5799009843
 21
-39.3563825582
  0
LINE
  5
457
100
AcDbEntity
  8
SUPERFICI
100
AcDbLine
 62
7
  6
CONTINUOUS
 10
-91.7084027659
 20
-38.9771269363
 11
-91.6377008181
 21
-39.1872553805
  0
LINE
  5
458
100
AcDbEntity
  8
SUPERFICI
100
AcDbLine
 62
7
  6
CONTINUOUS
 10
-91.7947654479
 20
-38.7155080136
 11
-91.7084027659
 21
-38.9771269363
  0
LINE
  5
459
100
AcDbEntity
  8
SUPERFICI
100
AcDbLine
 62
7
  6
CONTINUOUS
 10
-92.6165123442
 20
34.3773991703
 11
-92.7332058184
 21
33.9185815425
  0
LINE
  5
45A
100
AcDbEntity
  8
SUPERFICI
100
AcDbLine
 62
7
  6
CONTINUOUS
 10
-92.5025043975
 20
34.8082807691
 11
-92.618309539
 21
34.370474294
  0
LINE
  5
45B
100
AcDbEntity
  8
SUPERFICI
100
AcDbLine
 62
7
  6
CONTINUOUS
 10
-92.3900532432
 20
35.2182216874
 11
-92.5042369628
 21
34.8018521009
  0
LINE
  5
45C
100
AcDbEntity
  8
SUPERFICI
100
AcDbLine
 62
7
  6
CONTINUOUS
 10
-92.2880211738
 20
35.5785894008
 11
-92.3916442138
 21
35.2125183943
  0
LWPOLYLINE
  5
45D
100
AcDbEntity
  8
SUPERFICI
100
AcDbPolyline
 62
7
  6
CONTINUOUS
 90
6
 70
0
 10
-91.9544902105
 20
36.6890128058
 10
-92.0056866902
 20
36.5248223879
 10
-92.0647083119
 20
36.332823766
 10
-92.1301253559
 20
36.1165318692
 10
-92.2026419618
 20
35.8723330268
 10
-92.2894480567
 20
35.5736211671
  0
LWPOLYLINE
  5
45E
100
AcDbEntity
  8
SUPERFICI
100
AcDbPolyline
 62
7
  6
CONTINUOUS
 90
5
 70
0
 10
-91.9551462168
 20
36.6869225468
 10
-92.006433393
 20
36.5224116319
 10
-92.0655780304
 20
36.3299724623
 10
-92.1311701028
 20
36.1130471828
 10
-92.2038880508
 20
35.86809506
  0
LINE
  5
45F
100
AcDbEntity
  8
SUPERFICI
100
AcDbLine
 62
7
  6
CONTINUOUS
 10
-91.8659070939
 20
36.9681055803
 11
-91.9551462168
 21
36.6869225468
  0
LINE
  5
460
100
AcDbEntity
  8
SUPERFICI
100
AcDbLine
 62
7
  6
CONTINUOUS
 10
-91.7946632746
 20
37.1881330494
 11
-91.8664064782
 21
36.9665495389
  0
LINE
  5
461
100
AcDbEntity
  8
SUPERFICI
100
AcDbLine
 62
7
  6
CONTINUOUS
 10
-91.7083314441
 20
37.4496529738
 11
-91.7950428075
 21
37.1869711261
  0
LWPOLYLINE
  5
462
100
AcDbEntity
  8
SUPERFICI
100
AcDbPolyline
 62
7
  6
CONTINUOUS
 90
8
 70
0
 10
-92.2030034741
 20
-37.3987914183
 10
-92.1304262248
 20
-37.6432161921
 10
-92.0649565781
 20
-37.8596976635
 10
-92.0058982262
 20
-38.0518272362
 10
-91.9546748648
 20
-38.2161122225
 10
-91.9081517096
 20
-38.363473007
 10
-91.8660451022
 20
-38.4953633296
 10
-91.7947654479
 20
-38.7155080136
  0
LINE
  5
463
100
AcDbEntity
  8
SUPERFICI
100
AcDbLine
 62
7
  6
CONTINUOUS
 10
-92.2885736001
 20
-37.1043539066
 11
-92.203123903
 21
-37.3983818603
  0
LINE
  5
464
100
AcDbEntity
  8
SUPERFICI
100
AcDbLine
 62
7
  6
CONTINUOUS
 10
-92.3906695419
 20
-36.7437004561
 11
-92.2884371676
 21
-37.1048289176
  0
LINE
  5
465
100
AcDbEntity
  8
SUPERFICI
100
AcDbLine
 62
7
  6
CONTINUOUS
 10
-92.5031757773
 20
-36.3334777941
 11
-92.3905186353
 21
-36.7442413838
  0
LINE
  5
466
100
AcDbEntity
  8
SUPERFICI
100
AcDbLine
 62
7
  6
CONTINUOUS
 10
-92.6172087607
 20
-35.9024040261
 11
-92.5030124272
 21
-36.3340838497
  0
LINE
  5
467
100
AcDbEntity
  8
SUPERFICI
100
AcDbLine
 62
7
  6
CONTINUOUS
 10
-92.7321281768
 20
-35.4505946588
 11
-92.6170399909
 21
-35.9030542589
  0
LINE
  5
468
100
AcDbEntity
  8
SUPERFICI
100
AcDbLine
 62
7
  6
CONTINUOUS
 10
-92.8482332994
 20
-34.9744381902
 11
-92.7319635355
 21
-35.451255335
  0
LWPOLYLINE
  5
469
100
AcDbEntity
  8
SUPERFICI
100
AcDbPolyline
 62
7
  6
CONTINUOUS
 90
5
 70
0
 10
-93.6219192103
 20
29.5130081016
 10
-93.6786283677
 20
29.1419336789
 10
-93.7306667595
 20
28.784715622
 10
-93.7781928169
 20
28.4422374398
 10
-93.8217689773
 20
28.1122478267
  0
LWPOLYLINE
  5
46A
100
AcDbEntity
  8
SUPERFICI
100
AcDbPolyline
 62
7
  6
CONTINUOUS
 90
4
 70
0
 10
-93.6225060416
 20
29.5092567084
 10
-93.6791381522
 20
29.1385157639
 10
-93.7311065404
 20
28.7816214561
 10
-93.778570017
 20
28.4394503292
  0
LWPOLYLINE
  5
46B
100
AcDbEntity
  8
SUPERFICI
100
AcDbPolyline
 62
7
  6
CONTINUOUS
 90
4
 70
0
 10
-93.4198815319
 20
30.7126537136
 10
-93.4929618749
 20
30.2981769179
 10
-93.5602038293
 20
29.8980944663
 10
-93.6225060416
 20
29.5092567084
  0
LWPOLYLINE
  5
46C
100
AcDbEntity
  8
SUPERFICI
100
AcDbPolyline
 62
7
  6
CONTINUOUS
 90
3
 70
0
 10
-93.4207539643
 20
30.7078207797
 10
-93.4937284505
 20
30.2937212952
 10
-93.5608756433
 20
29.8939988603
  0
LWPOLYLINE
  5
46D
100
AcDbEntity
  8
SUPERFICI
100
AcDbPolyline
 62
7
  6
CONTINUOUS
 90
4
 70
0
 10
-93.1625131653
 20
32.0381683992
 10
-93.2552033374
 20
31.5818461063
 10
-93.3407531843
 20
31.140503844
 10
-93.4207539643
 20
30.7078207797
  0
LWPOLYLINE
  5
46E
100
AcDbEntity
  8
SUPERFICI
100
AcDbPolyline
 62
7
  6
CONTINUOUS
 90
3
 70
0
 10
-93.1637636121
 20
32.0321521372
 10
-93.2563148237
 20
31.576241615
 10
-93.3417409745
 20
31.1352847275
  0
LWPOLYLINE
  5
46F
100
AcDbEntity
  8
SUPERFICI
100
AcDbPolyline
 62
7
  6
CONTINUOUS
 90
3
 70
0
 10
-92.958610936
 20
32.9736440078
 10
-93.0631331702
 20
32.5049623121
 10
-93.1637636121
 20
32.0321521372
  0
LINE
  5
470
100
AcDbEntity
  8
SUPERFICI
100
AcDbLine
 62
7
  6
CONTINUOUS
 10
-92.960142268
 20
32.9669288141
 11
-93.0645312983
 21
32.4985447607
  0
LINE
  5
471
100
AcDbEntity
  8
SUPERFICI
100
AcDbLine
 62
7
  6
CONTINUOUS
 10
-92.8475931688
 20
33.4494338458
 11
-92.960142268
 21
32.9669288141
  0
LINE
  5
472
100
AcDbEntity
  8
SUPERFICI
100
AcDbLine
 62
7
  6
CONTINUOUS
 10
-92.7314470684
 20
33.9256398145
 11
-92.849247624
 21
33.442497047
  0
LWPOLYLINE
  5
473
100
AcDbEntity
  8
RACCORDO
100
AcDbPolyline
 62
7
  6
CONTINUOUS
 90
8
 70
0
 10
-94.1913173794
 20
24.5686951645
 10
-94.2247851143
 20
24.4340909609
 10
-94.2638840177
 20
24.3028929665
 10
-94.3079749727
 20
24.1761646337
 10
-94.3554712104
 20
24.0567649939
 10
-94.4038146364
 20
23.9484496425
 10
-94.4537890191
 20
23.8471719201
 10
-94.5095025399
 20
23.7443841656
  0
LWPOLYLINE
  5
474
100
AcDbEntity
  8
0
100
AcDbPolyline
 62
7
  6
CONTINUOUS
 90
13
 70
0
 43
0.3500000006
 10
-105.3749528503
 20
-2.6924148102
 10
-105.5892373352
 20
-2.9781293449
 10
-106.2320907898
 20
-2.9781293449
 10
-106.6606688232
 20
-2.6924148102
 10
-106.6606688232
 20
-2.0495579567
 10
-106.2320907898
 20
-1.7638434219
 10
-105.5892373352
 20
-1.7638434219
 10
-105.3749528503
 20
-2.0495579567
 10
-104.9463838806
 20
-1.620986721
 10
-104.0892368774
 20
-1.620986721
 10
-103.6606679077
 20
-2.0495579567
 10
-103.6606679077
 20
-2.6924148102
 10
-104.0892368774
 20
-3.1209871788
  0
LINE
  5
475
100
AcDbEntity
  8
SUPERFICI
100
AcDbLine
 62
7
  6
CONTINUOUS
 10
-92.959203086
 20
-34.4987355778
 11
-92.848078793
 21
-34.9750859377
  0
LINE
  5
476
100
AcDbEntity
  8
SUPERFICI
100
AcDbLine
 62
7
  6
CONTINUOUS
 10
-93.0636739452
 20
-34.0301683369
 11
-92.959060058
 21
-34.4993627191
  0
LINE
  5
477
100
AcDbEntity
  8
SUPERFICI
100
AcDbLine
 62
7
  6
CONTINUOUS
 10
-93.1629971747
 20
-33.5635278793
 11
-93.0635426989
 21
-34.0307707093
  0
LINE
  5
478
100
AcDbEntity
  8
SUPERFICI
100
AcDbLine
 62
7
  6
CONTINUOUS
 10
-93.2556338576
 20
-33.1073634178
 11
-93.1628787562
 21
-33.5640975689
  0
LINE
  5
479
100
AcDbEntity
  8
SUPERFICI
100
AcDbLine
 62
7
  6
CONTINUOUS
 10
-93.3411359259
 20
-32.6661696814
 11
-93.2555276779
 21
-33.107898762
  0
LINE
  5
47A
100
AcDbEntity
  8
SUPERFICI
100
AcDbLine
 62
7
  6
CONTINUOUS
 10
-93.4202196498
 20
-32.2384687401
 11
-93.3410409488
 21
-32.6666714595
  0
LWPOLYLINE
  5
47B
100
AcDbEntity
  8
SCRITTA_VIMAR
100
AcDbPolyline
 62
250
  6
CONTINUOUS
 90
17
 70
0
 10
-93.9407702634
 20
-27.9443591085
 10
-93.9418582926
 20
-27.9382863394
 10
-93.9428809869
 20
-27.932741661
 10
-93.9438395548
 20
-27.9277072087
 10
-93.944735806
 20
-27.9231630916
 10
-93.9455739562
 20
-27.9190813131
 10
-93.9463588228
 20
-27.9154318506
 10
-93.9470943203
 20
-27.9121892036
 10
-93.9477807535
 20
-27.9093459615
 10
-93.9484175242
 20
-27.9068992361
 10
-93.94900456
 20
-27.9048454006
 10
-93.9495438904
 20
-27.9031778743
 10
-93.9500380706
 20
-27.9018893379
 10
-93.9503800236
 20
-27.9011675479
 10
-93.9506955591
 20
-27.9006535536
 10
-93.9509822193
 20
-27.9003460861
 10
-93.9512375466
 20
-27.9002438763
  0
LINE
  5
47C
100
AcDbEntity
  8
SCRITTA_VIMAR
100
AcDbLine
 62
250
  6
CONTINUOUS
 10
-93.9836371189
 20
-27.4862396608
 11
-93.9772970263
 21
-27.5226823494
  0
LINE
  5
47D
100
AcDbEntity
  8
SCRITTA_VIMAR
100
AcDbLine
 62
250
  6
CONTINUOUS
 10
-93.9384018393
 20
-27.9581062014
 11
-93.9407702634
 21
-27.9443591085
  0
LINE
  5
47E
100
AcDbEntity
  8
SCRITTA_VIMAR
100
AcDbLine
 62
250
  6
CONTINUOUS
 10
-93.9772970263
 20
-27.5226823494
 11
-93.9708034436
 21
-27.5617248027
  0
LINE
  5
47F
100
AcDbEntity
  8
SCRITTA_VIMAR
100
AcDbLine
 62
250
  6
CONTINUOUS
 10
-93.9358091868
 20
-27.9738483157
 11
-93.9384018393
 21
-27.9581062014
  0
LINE
  5
480
100
AcDbEntity
  8
SCRITTA_VIMAR
100
AcDbLine
 62
250
  6
CONTINUOUS
 10
-93.9708034436
 20
-27.5617248027
 11
-93.9638382679
 21
-27.6052454253
  0
LINE
  5
481
100
AcDbEntity
  8
SCRITTA_VIMAR
100
AcDbLine
 62
250
  6
CONTINUOUS
 10
-93.933052171
 20
-27.9912434679
 11
-93.9358091868
 21
-27.9738483157
  0
LWPOLYLINE
  5
482
100
AcDbEntity
  8
SCRITTA_VIMAR
100
AcDbPolyline
 62
250
  6
CONTINUOUS
 90
3
 70
0
 10
-93.9638382679
 20
-27.6052454253
 10
-93.9564405592
 20
-27.6531179386
 10
-93.9525917112
 20
-27.6786466922
  0
LINE
  5
483
100
AcDbEntity
  8
SCRITTA_VIMAR
100
AcDbLine
 62
250
  6
CONTINUOUS
 10
-93.6411334556
 20
-30.2638508763
 11
-93.6847625761
 21
-29.9760150311
  0
LWPOLYLINE
  5
484
100
AcDbEntity
  8
SCRITTA_VIMAR
100
AcDbPolyline
 62
250
  6
CONTINUOUS
 90
3
 70
0
 10
-93.9287161104
 20
-28.01975379
 10
-93.9301899837
 20
-28.009916019
 10
-93.933052171
 20
-27.9912434679
  0
LWPOLYLINE
  5
485
100
AcDbEntity
  8
SCRITTA_VIMAR
100
AcDbPolyline
 62
250
  6
CONTINUOUS
 90
3
 70
0
 10
-93.711050012
 20
-29.6567611502
 10
-93.6963300909
 20
-29.7563417778
 10
-93.6198172264
 20
-30.2638438763
  0
LINE
  5
486
100
AcDbEntity
  8
SCRITTA_VIMAR
100
AcDbLine
 62
250
  6
CONTINUOUS
 10
-93.6847625761
 20
-29.9760150311
 11
-93.7267362944
 21
-29.6931764657
  0
LINE
  5
487
100
AcDbEntity
  8
SCRITTA_VIMAR
100
AcDbLine
 62
250
  6
CONTINUOUS
 10
-93.7179155053
 20
-30.092831911
 11
-93.6930357523
 21
-30.2638588763
  0
LINE
  5
488
100
AcDbEntity
  8
SCRITTA_VIMAR
100
AcDbLine
 62
250
  6
CONTINUOUS
 10
-93.7036695226
 20
-30.2638508763
 11
-93.7222824787
 21
-30.1356799425
  0
LINE
  5
489
100
AcDbEntity
  8
SCRITTA_VIMAR
100
AcDbLine
 62
250
  6
CONTINUOUS
 10
-93.9642049174
 20
-28.2669618763
 11
-93.9487054812
 21
-28.4090636882
  0
LINE
  5
48A
100
AcDbEntity
  8
SCRITTA_VIMAR
100
AcDbLine
 62
250
  6
CONTINUOUS
 10
-93.9436866598
 20
-28.5945856322
 11
-93.9699787767
 21
-28.3514168763
  0
LINE
  5
48B
100
AcDbEntity
  8
SCRITTA_VIMAR
100
AcDbLine
 62
250
  6
CONTINUOUS
 10
-93.9709526152
 20
-28.3611051877
 11
-93.9417378398
 21
-28.6308786941
  0
LWPOLYLINE
  5
48C
100
AcDbEntity
  8
SCRITTA_VIMAR
100
AcDbPolyline
 62
250
  6
CONTINUOUS
 90
5
 70
0
 10
-93.9478017804
 20
-28.4713392429
 10
-93.98984606
 20
-28.0779326037
 10
-94.0141515572
 20
-27.8402819454
 10
-94.0374997968
 20
-27.60203276
 10
-94.0596641196
 20
-27.3637208763
  0
LINE
  5
48D
100
AcDbEntity
  8
SCRITTA_VIMAR
100
AcDbLine
 62
250
  6
CONTINUOUS
 10
-93.955072213
 20
-28.5041865072
 11
-93.9813245363
 21
-28.2566093155
  0
LINE
  5
48E
100
AcDbEntity
  8
SCRITTA_VIMAR
100
AcDbLine
 62
250
  6
CONTINUOUS
 10
-93.8443320259
 20
-28.5342845476
 11
-93.8312447898
 21
-28.6567932334
  0
LINE
  5
48F
100
AcDbEntity
  8
SCRITTA_VIMAR
100
AcDbLine
 62
250
  6
CONTINUOUS
 10
-93.8796588144
 20
-28.4141910486
 11
-93.8849504866
 21
-28.3646011278
  0
LWPOLYLINE
  5
490
100
AcDbEntity
  8
SCRITTA_VIMAR
100
AcDbPolyline
 62
250
  6
CONTINUOUS
 90
5
 70
0
 10
-94.0557797707
 20
-27.3637208763
 10
-94.0314985485
 20
-27.6025795815
 10
-94.0057281973
 20
-27.8412171631
 10
-93.9788138209
 20
-28.0790801257
 10
-93.9323213956
 20
-28.4724064872
  0
LINE
  5
491
100
AcDbEntity
  8
SCRITTA_VIMAR
100
AcDbLine
 62
250
  6
CONTINUOUS
 10
-93.9944815788
 20
-28.1333098594
 11
-93.9709526152
 21
-28.3611051877
  0
LINE
  5
492
100
AcDbEntity
  8
SCRITTA_VIMAR
100
AcDbLine
 62
250
  6
CONTINUOUS
 10
-93.9813245363
 20
-28.2566093155
 11
-94.006631712
 21
-28.0068188646
  0
LINE
  5
493
100
AcDbEntity
  8
SCRITTA_VIMAR
100
AcDbLine
 62
250
  6
CONTINUOUS
 10
-93.8312447898
 20
-28.6567932334
 11
-93.8225054477
 21
-28.7427962375
  0
LINE
  5
494
100
AcDbEntity
  8
SCRITTA_VIMAR
100
AcDbLine
 62
250
  6
CONTINUOUS
 10
-93.8761281474
 20
-28.4489923332
 11
-93.8796588144
 21
-28.4141910486
  0
LINE
  5
495
100
AcDbEntity
  8
SCRITTA_VIMAR
100
AcDbLine
 62
250
  6
CONTINUOUS
 10
-94.0027878888
 20
-28.0502327184
 11
-93.9944815788
 21
-28.1333098594
  0
LINE
  5
496
100
AcDbEntity
  8
SCRITTA_VIMAR
100
AcDbLine
 62
250
  6
CONTINUOUS
 10
-94.0069026324
 20
-28.008513079
 11
-94.0292011518
 21
-27.7728387087
  0
LINE
  5
497
100
AcDbEntity
  8
SCRITTA_VIMAR
100
AcDbLine
 62
250
  6
CONTINUOUS
 10
-93.8225054477
 20
-28.7427962375
 11
-93.8148114204
 21
-28.8225180962
  0
LINE
  5
498
100
AcDbEntity
  8
SCRITTA_VIMAR
100
AcDbLine
 62
250
  6
CONTINUOUS
 10
-93.8730143454
 20
-28.4813187429
 11
-93.8761281474
 21
-28.4489923332
  0
LINE
  5
499
100
AcDbEntity
  8
SCRITTA_VIMAR
100
AcDbLine
 62
250
  6
CONTINUOUS
 10
-93.8148114204
 20
-28.8225180962
 11
-93.810314738
 21
-28.8716380155
  0
LINE
  5
49A
100
AcDbEntity
  8
SCRITTA_VIMAR
100
AcDbLine
 62
250
  6
CONTINUOUS
 10
-93.8711895147
 20
-28.5012958334
 11
-93.8730143454
 21
-28.4813187429
  0
LINE
  5
49B
100
AcDbEntity
  8
SCRITTA_VIMAR
100
AcDbLine
 62
250
  6
CONTINUOUS
 10
-94.0292011518
 20
-27.7728387087
 11
-94.0508849133
 21
-27.535276886
  0
LWPOLYLINE
  5
49C
100
AcDbEntity
  8
SCRITTA_VIMAR
100
AcDbPolyline
 62
250
  6
CONTINUOUS
 90
8
 70
0
 10
-94.0646053356
 20
-27.3637278763
 10
-94.0431809027
 20
-27.6025266093
 10
-94.020356303
 20
-27.8412204451
 10
-93.9963532854
 20
-28.0793178178
 10
-93.9713935988
 20
-28.3163271612
 10
-93.9543112226
 20
-28.4735853177
 10
-93.9368442706
 20
-28.6305906035
 10
-93.9005248609
 20
-28.9456392501
  0
LINE
  5
49D
100
AcDbEntity
  8
SCRITTA_VIMAR
100
AcDbLine
 62
250
  6
CONTINUOUS
 10
-93.8695786717
 20
-28.5198774019
 11
-93.8711895147
 21
-28.5012958334
  0
LINE
  5
49E
100
AcDbEntity
  8
SCRITTA_VIMAR
100
AcDbLine
 62
250
  6
CONTINUOUS
 10
-93.810314738
 20
-28.8716380155
 11
-93.8061565331
 21
-28.9195809364
  0
LINE
  5
49F
100
AcDbEntity
  8
SCRITTA_VIMAR
100
AcDbLine
 62
250
  6
CONTINUOUS
 10
-94.0508849133
 20
-27.535276886
 11
-94.0657008626
 21
-27.3637278763
  0
LINE
  5
4A0
100
AcDbEntity
  8
SCRITTA_VIMAR
100
AcDbLine
 62
250
  6
CONTINUOUS
 10
-93.8681932841
 20
-28.5369424758
 11
-93.8695786717
 21
-28.5198774019
  0
LINE
  5
4A1
100
AcDbEntity
  8
SCRITTA_VIMAR
100
AcDbLine
 62
250
  6
CONTINUOUS
 10
-93.8061565331
 20
-28.9195809364
 11
-93.8024510541
 21
-28.9654321143
  0
LWPOLYLINE
  5
4A2
100
AcDbEntity
  8
SCRITTA_VIMAR
100
AcDbPolyline
 62
250
  6
CONTINUOUS
 90
6
 70
0
 10
-93.8024510541
 20
-28.9654321143
 10
-93.7994360166
 20
-29.0063655415
 10
-93.7981877178
 20
-29.0249308642
 10
-93.7971123947
 20
-29.0421980679
 10
-93.7962101691
 20
-29.0581442589
 10
-93.7954811627
 20
-29.0727465433
  0
LWPOLYLINE
  5
4A3
100
AcDbEntity
  8
SUPERFICI
100
AcDbPolyline
 62
7
  6
CONTINUOUS
 90
20
 70
0
 10
-94.1245009759
 20
-26.5648975362
 10
-94.1153401307
 20
-26.7062633652
 10
-94.0973860274
 20
-26.9621795003
 10
-94.0777410954
 20
-27.217699353
 10
-94.0564514114
 20
-27.4731574001
 10
-94.0332058119
 20
-27.7328540054
 10
-94.0086715776
 20
-27.9904940835
 10
-93.9835471116
 20
-28.2407244068
 10
-93.9571985626
 20
-28.4910448547
 10
-93.9282343717
 20
-28.7544218392
 10
-93.8960041707
 20
-29.0354117354
 10
-93.8606355713
 20
-29.3305412412
 10
-93.8215393939
 20
-29.641718858
 10
-93.7783012434
 20
-29.9691241528
 10
-93.7307934458
 20
-30.3115121844
 10
-93.6787755208
 20
-30.6686349823
 10
-93.6220889457
 20
-31.0396109812
 10
-93.5603985196
 20
-31.4245955298
 10
-93.4931844391
 20
-31.8245712851
 10
-93.4201352708
 20
-32.2389361256
  0
LINE
  5
4A4
100
AcDbEntity
  8
RACCORDO
100
AcDbLine
 62
250
  6
CONTINUOUS
 10
-94.7119287129
 20
-24.9141145853
 11
-94.7115152369
 21
-24.9315111798
  0
LINE
  5
4A5
100
AcDbEntity
  8
RACCORDO
100
AcDbLine
 62
250
  6
CONTINUOUS
 10
-94.7115152369
 20
-24.9315111798
 11
-94.7113428315
 21
-24.939096759
  0
LINE
  5
4A6
100
AcDbEntity
  8
SUPERFICI
100
AcDbLine
 62
7
  6
CONTINUOUS
 10
-94.1153521292
 20
25.1783861489
 11
-94.1245009772
 21
25.0372097633
  0
LINE
  5
4A7
100
AcDbEntity
  8
SUPERFICI
100
AcDbLine
 62
7
  6
CONTINUOUS
 10
-94.0973718216
 20
25.4346848433
 11
-94.1153303855
 21
25.1787216772
  0
LINE
  5
4A8
100
AcDbEntity
  8
RACCORDO
100
AcDbLine
 62
7
  6
CONTINUOUS
 10
-94.1245306363
 20
25.0369649508
 11
-94.1274400543
 21
24.995351911
  0
LINE
  5
4A9
100
AcDbEntity
  8
SUPERFICI
100
AcDbLine
 62
7
  6
CONTINUOUS
 10
-94.0777222627
 20
25.6902465436
 11
-94.0974224729
 21
25.4339962934
  0
LINE
  5
4AA
100
AcDbEntity
  8
SUPERFICI
100
AcDbLine
 62
7
  6
CONTINUOUS
 10
-94.0564283058
 20
25.9457368529
 11
-94.0777892343
 21
25.6894109742
  0
LINE
  5
4AB
100
AcDbEntity
  8
SUPERFICI
100
AcDbLine
 62
7
  6
CONTINUOUS
 10
-94.0331783461
 20
26.2054632627
 11
-94.0565101604
 21
25.9447901523
  0
LINE
  5
4AC
100
AcDbEntity
  8
SUPERFICI
100
AcDbLine
 62
7
  6
CONTINUOUS
 10
-94.0086389696
 20
26.4631393938
 11
-94.0332752536
 21
26.2044152302
  0
LINE
  5
4AD
100
AcDbEntity
  8
SUPERFICI
100
AcDbLine
 62
7
  6
CONTINUOUS
 10
-93.9835083837
 20
26.7134131056
 11
-94.0087537536
 21
26.4619668687
  0
LWPOLYLINE
  5
4AE
100
AcDbEntity
  8
RACCORDO
100
AcDbPolyline
 62
7
  6
CONTINUOUS
 90
4
 70
0
 10
-94.1274400543
 20
24.995351911
 10
-94.1422072627
 20
24.8497112666
 10
-94.1636378626
 20
24.7073760827
 10
-94.1913187188
 20
24.5686909767
  0
LINE
  5
4AF
100
AcDbEntity
  8
SUPERFICI
100
AcDbLine
 62
7
  6
CONTINUOUS
 10
-93.9571527411
 20
26.9637829244
 11
-93.983644812
 21
26.7120868448
  0
LINE
  5
4B0
100
AcDbEntity
  8
SUPERFICI
100
AcDbLine
 62
7
  6
CONTINUOUS
 10
-93.9281798288
 20
27.2272198015
 11
-93.957314402
 21
26.9622804605
  0
LINE
  5
4B1
100
AcDbEntity
  8
SUPERFICI
100
AcDbLine
 62
7
  6
CONTINUOUS
 10
-93.8959388232
 20
27.5082817533
 11
-93.9283721519
 21
27.2255069669
  0
LINE
  5
4B2
100
AcDbEntity
  8
SUPERFICI
100
AcDbLine
 62
7
  6
CONTINUOUS
 10
-93.8605575941
 20
27.8034895321
 11
-93.8961684759
 21
27.5063213551
  0
LINE
  5
4B3
100
AcDbEntity
  8
SUPERFICI
100
AcDbLine
 62
7
  6
CONTINUOUS
 10
-93.8214471026
 20
28.1147478323
 11
-93.8608304966
 21
27.8012632487
  0
LINE
  5
4B4
100
AcDbEntity
  8
RACCORDO
100
AcDbLine
 62
7
  6
CONTINUOUS
 10
-85.410665219
 20
-6.0638438763
 11
-86.410665219
 21
-6.0638438763
  0
LINE
  5
4B5
100
AcDbEntity
  8
RACCORDO
100
AcDbLine
 62
7
  6
CONTINUOUS
 10
-85.610665219
 20
-5.9638438763
 11
-86.310665219
 21
-5.9638438763
  0
LINE
  5
4B6
100
AcDbEntity
  8
SCRITTA_VIMAR
100
AcDbLine
 62
250
  6
CONTINUOUS
 10
-93.7267362944
 20
-29.6931764657
 11
-93.7670983061
 21
-29.4153379888
  0
LINE
  5
4B7
100
AcDbEntity
  8
SCRITTA_VIMAR
100
AcDbLine
 62
250
  6
CONTINUOUS
 10
-93.9525917112
 20
-27.6786466922
 11
-93.9405078589
 21
-27.7613661957
  0
LINE
  5
4B8
100
AcDbEntity
  8
SCRITTA_VIMAR
100
AcDbLine
 62
250
  6
CONTINUOUS
 10
-93.9241054443
 20
-28.0513928604
 11
-93.9287161104
 21
-28.01975379
  0
LWPOLYLINE
  5
4B9
100
AcDbEntity
  8
SCRITTA_VIMAR
100
AcDbPolyline
 62
250
  6
CONTINUOUS
 90
3
 70
0
 10
-93.7954811627
 20
-29.0727465433
 10
-93.7818628061
 20
-29.1684776396
 10
-93.711050012
 20
-29.6567611502
  0
LINE
  5
4BA
100
AcDbEntity
  8
SCRITTA_VIMAR
100
AcDbLine
 62
250
  6
CONTINUOUS
 10
-93.7670983061
 20
-29.4153379888
 11
-93.8058806944
 21
-29.1425008763
  0
LINE
  5
4BB
100
AcDbEntity
  8
SCRITTA_VIMAR
100
AcDbLine
 62
250
  6
CONTINUOUS
 10
-93.7222824787
 20
-30.1356799425
 11
-93.758387686
 21
-29.8817901171
  0
LINE
  5
4BC
100
AcDbEntity
  8
SCRITTA_VIMAR
100
AcDbLine
 62
250
  6
CONTINUOUS
 10
-93.7657650143
 20
-29.755071624
 11
-93.7179155053
 21
-30.092831911
  0
LWPOLYLINE
  5
4BD
100
AcDbEntity
  8
SCRITTA_VIMAR
100
AcDbPolyline
 62
250
  6
CONTINUOUS
 90
6
 70
0
 10
-93.733579867
 20
-30.2638588763
 10
-93.7568592194
 20
-30.0971243964
 10
-93.7794378911
 20
-29.9317094441
 10
-93.801323769
 20
-29.7676046711
 10
-93.8225247397
 20
-29.6048007295
 10
-93.8430523343
 20
-29.4432957579
  0
LINE
  5
4BE
100
AcDbEntity
  8
SCRITTA_VIMAR
100
AcDbLine
 62
250
  6
CONTINUOUS
 10
-93.9192666722
 20
-28.0858712784
 11
-93.9241054443
 21
-28.0513928604
  0
LINE
  5
4BF
100
AcDbEntity
  8
SCRITTA_VIMAR
100
AcDbLine
 62
250
  6
CONTINUOUS
 10
-93.9405078589
 20
-27.7613661957
 11
-93.9277700014
 21
-27.852380238
  0
LINE
  5
4C0
100
AcDbEntity
  8
SCRITTA_VIMAR
100
AcDbLine
 62
250
  6
CONTINUOUS
 10
-93.7371399786
 20
-30.2638588763
 11
-93.7701733214
 21
-30.0266103583
  0
LINE
  5
4C1
100
AcDbEntity
  8
SCRITTA_VIMAR
100
AcDbLine
 62
250
  6
CONTINUOUS
 10
-93.758387686
 20
-29.8817901171
 11
-93.7844961332
 21
-29.6935228763
  0
LINE
  5
4C2
100
AcDbEntity
  8
SCRITTA_VIMAR
100
AcDbLine
 62
250
  6
CONTINUOUS
 10
-93.684992373
 20
-30.2638508763
 11
-93.7254592857
 21
-29.9705711526
  0
LWPOLYLINE
  5
4C3
100
AcDbEntity
  8
SCRITTA_VIMAR
100
AcDbPolyline
 62
250
  6
CONTINUOUS
 90
4
 70
0
 10
-93.7270846726
 20
-30.2638588763
 10
-93.7504735232
 20
-30.0929127007
 10
-93.7731412285
 20
-29.9233119272
 10
-93.7950986432
 20
-29.755223269
  0
LINE
  5
4C4
100
AcDbEntity
  8
SCRITTA_VIMAR
100
AcDbLine
 62
250
  6
CONTINUOUS
 10
-93.8110140226
 20
-29.4241916396
 11
-93.7657650143
 21
-29.755071624
  0
LINE
  5
4C5
100
AcDbEntity
  8
SCRITTA_VIMAR
100
AcDbLine
 62
250
  6
CONTINUOUS
 10
-93.7235616207
 20
-29.8828551737
 11
-93.6714449321
 21
-30.2638508763
  0
LINE
  5
4C6
100
AcDbEntity
  8
SCRITTA_VIMAR
100
AcDbLine
 62
250
  6
CONTINUOUS
 10
-93.9142739526
 20
-28.1227140326
 11
-93.9192666722
 21
-28.0858712784
  0
LINE
  5
4C7
100
AcDbEntity
  8
SCRITTA_VIMAR
100
AcDbLine
 62
250
  6
CONTINUOUS
 10
-93.7602005716
 20
-29.9769830999
 11
-93.7214346295
 21
-30.2638508763
  0
LINE
  5
4C8
100
AcDbEntity
  8
SCRITTA_VIMAR
100
AcDbLine
 62
250
  6
CONTINUOUS
 10
-93.7682995171
 20
-30.0426237304
 11
-93.8017217188
 21
-29.7920971328
  0
LINE
  5
4C9
100
AcDbEntity
  8
SCRITTA_VIMAR
100
AcDbLine
 62
250
  6
CONTINUOUS
 10
-93.7254592857
 20
-29.9705711526
 11
-93.7641324946
 21
-29.6819441762
  0
LINE
  5
4CA
100
AcDbEntity
  8
SCRITTA_VIMAR
100
AcDbLine
 62
250
  6
CONTINUOUS
 10
-93.9277700014
 20
-27.852380238
 11
-93.9145920016
 21
-27.9503101667
  0
LWPOLYLINE
  5
4CB
100
AcDbEntity
  8
SCRITTA_VIMAR
100
AcDbPolyline
 62
250
  6
CONTINUOUS
 90
4
 70
0
 10
-93.8030707381
 20
-29.7672047561
 10
-93.7813607714
 20
-29.9314168716
 10
-93.7589429116
 20
-30.096961811
 10
-93.735805458
 20
-30.2638508763
  0
LINE
  5
4CC
100
AcDbEntity
  8
SCRITTA_VIMAR
100
AcDbLine
 62
250
  6
CONTINUOUS
 10
-93.8536123999
 20
-29.1014641524
 11
-93.8110140226
 21
-29.4241916396
  0
LINE
  5
4CD
100
AcDbEntity
  8
SCRITTA_VIMAR
100
AcDbLine
 62
250
  6
CONTINUOUS
 10
-93.7729137713
 20
-29.5090074056
 11
-93.7235616207
 21
-29.8828551737
  0
LWPOLYLINE
  5
4CE
100
AcDbEntity
  8
SCRITTA_VIMAR
100
AcDbPolyline
 62
250
  6
CONTINUOUS
 90
5
 70
0
 10
-93.8207891908
 20
-29.5916621524
 10
-93.7991683603
 20
-29.7575658413
 10
-93.7768515455
 20
-29.9250021601
 10
-93.7538315178
 20
-30.093817656
 10
-93.7301010488
 20
-30.2638588763
  0
LINE
  5
4CF
100
AcDbEntity
  8
SCRITTA_VIMAR
100
AcDbLine
 62
250
  6
CONTINUOUS
 10
-93.7641324946
 20
-29.6819441762
 11
-93.8009828367
 21
-29.3989135771
  0
LINE
  5
4D0
100
AcDbEntity
  8
SCRITTA_VIMAR
100
AcDbLine
 62
250
  6
CONTINUOUS
 10
-93.7971051046
 20
-29.6935228763
 11
-93.7602005716
 21
-29.9769830999
  0
LINE
  5
4D1
100
AcDbEntity
  8
SCRITTA_VIMAR
100
AcDbLine
 62
250
  6
CONTINUOUS
 10
-93.9074781226
 20
-28.1748177653
 11
-93.9142739526
 21
-28.1227140326
  0
LINE
  5
4D2
100
AcDbEntity
  8
SCRITTA_VIMAR
100
AcDbLine
 62
250
  6
CONTINUOUS
 10
-93.9145920016
 20
-27.9503101667
 11
-93.901187601
 21
-28.0537516223
  0
LINE
  5
4D3
100
AcDbEntity
  8
SCRITTA_VIMAR
100
AcDbLine
 62
250
  6
CONTINUOUS
 10
-93.8404038669
 20
-29.4749501866
 11
-93.8030707381
 21
-29.7672047561
  0
LINE
  5
4D4
100
AcDbEntity
  8
SCRITTA_VIMAR
100
AcDbLine
 62
250
  6
CONTINUOUS
 10
-93.8938429469
 20
-28.7855315649
 11
-93.8536123999
 21
-29.1014641524
  0
LINE
  5
4D5
100
AcDbEntity
  8
SCRITTA_VIMAR
100
AcDbLine
 62
250
  6
CONTINUOUS
 10
-93.8196772124
 20
-29.1424938763
 11
-93.7729137713
 21
-29.5090074056
  0
LINE
  5
4D6
100
AcDbEntity
  8
SCRITTA_VIMAR
100
AcDbLine
 62
250
  6
CONTINUOUS
 10
-93.8009828367
 20
-29.3989135771
 11
-93.8359926882
 21
-29.122345618
  0
LINE
  5
4D7
100
AcDbEntity
  8
SCRITTA_VIMAR
100
AcDbLine
 62
250
  6
CONTINUOUS
 10
-93.8454205316
 20
-29.4534541635
 11
-93.7958016728
 21
-29.8385731782
  0
LINE
  5
4D8
100
AcDbEntity
  8
SCRITTA_VIMAR
100
AcDbLine
 62
250
  6
CONTINUOUS
 10
-93.8575697977
 20
-29.1425008763
 11
-93.8856824494
 21
-28.9201045611
  0
LINE
  5
4D9
100
AcDbEntity
  8
SCRITTA_VIMAR
100
AcDbLine
 62
250
  6
CONTINUOUS
 10
-93.7950986432
 20
-29.755223269
 11
-93.8369260204
 21
-29.4242491516
  0
LINE
  5
4DA
100
AcDbEntity
  8
SCRITTA_VIMAR
100
AcDbLine
 62
250
  6
CONTINUOUS
 10
-93.8619718128
 20
-29.2650664748
 11
-93.8207891908
 21
-29.5916621524
  0
LINE
  5
4DB
100
AcDbEntity
  8
SCRITTA_VIMAR
100
AcDbLine
 62
250
  6
CONTINUOUS
 10
-93.9006659244
 20
-28.229282053
 11
-93.9074781226
 21
-28.1748177653
  0
LINE
  5
4DC
100
AcDbEntity
  8
SCRITTA_VIMAR
100
AcDbLine
 62
250
  6
CONTINUOUS
 10
-93.8359926882
 20
-29.122345618
 11
-93.8694098316
 21
-28.8513271171
  0
LINE
  5
4DD
100
AcDbEntity
  8
SCRITTA_VIMAR
100
AcDbLine
 62
250
  6
CONTINUOUS
 10
-93.901187601
 20
-28.0537516223
 11
-93.8833188349
 21
-28.1973965708
  0
LINE
  5
4DE
100
AcDbEntity
  8
SCRITTA_VIMAR
100
AcDbLine
 62
250
  6
CONTINUOUS
 10
-93.9323213956
 20
-28.4724064872
 11
-93.8938429469
 21
-28.7855315649
  0
LINE
  5
4DF
100
AcDbEntity
  8
SCRITTA_VIMAR
100
AcDbLine
 62
250
  6
CONTINUOUS
 10
-93.8438301059
 20
-29.4652757202
 11
-93.872943566
 21
-29.2289319737
  0
LINE
  5
4E0
100
AcDbEntity
  8
SCRITTA_VIMAR
100
AcDbLine
 62
250
  6
CONTINUOUS
 10
-93.8717938573
 20
-29.2188250678
 11
-93.8404038669
 21
-29.4749501866
  0
LINE
  5
4E1
100
AcDbEntity
  8
SCRITTA_VIMAR
100
AcDbLine
 62
250
  6
CONTINUOUS
 10
-93.8430523343
 20
-29.4432957579
 11
-93.8821954764
 21
-29.1243025583
  0
LINE
  5
4E2
100
AcDbEntity
  8
SCRITTA_VIMAR
100
AcDbLine
 62
250
  6
CONTINUOUS
 10
-93.8856824494
 20
-28.9201045611
 11
-93.9213838437
 21
-28.6292463447
  0
LINE
  5
4E3
100
AcDbEntity
  8
SCRITTA_VIMAR
100
AcDbLine
 62
250
  6
CONTINUOUS
 10
-93.8369260204
 20
-29.4242491516
 11
-93.876052987
 21
-29.1012151222
  0
LINE
  5
4E4
100
AcDbEntity
  8
SCRITTA_VIMAR
100
AcDbLine
 62
250
  6
CONTINUOUS
 10
-93.9005248609
 20
-28.9456392501
 11
-93.8619718128
 21
-29.2650664748
  0
LINE
  5
4E5
100
AcDbEntity
  8
SCRITTA_VIMAR
100
AcDbLine
 62
250
  6
CONTINUOUS
 10
-93.8694098316
 20
-28.8513271171
 11
-93.9176754249
 21
-28.4492903025
  0
LWPOLYLINE
  5
4E6
100
AcDbEntity
  8
SCRITTA_VIMAR
100
AcDbPolyline
 62
250
  6
CONTINUOUS
 90
3
 70
0
 10
-93.9213838437
 20
-28.6292463447
 10
-93.9472899601
 20
-28.4120607591
 10
-93.9642049174
 20
-28.2669618763
  0
LINE
  5
4E7
100
AcDbEntity
  8
SCRITTA_VIMAR
100
AcDbLine
 62
250
  6
CONTINUOUS
 10
-93.8940395005
 20
-28.284544253
 11
-93.9006659244
 21
-28.229282053
  0
LINE
  5
4E8
100
AcDbEntity
  8
SCRITTA_VIMAR
100
AcDbLine
 62
250
  6
CONTINUOUS
 10
-93.9697362917
 20
-27.9002418763
 11
-93.8857701704
 21
-28.6059718763
  0
LINE
  5
4E9
100
AcDbEntity
  8
SCRITTA_VIMAR
100
AcDbLine
 62
250
  6
CONTINUOUS
 10
-93.872943566
 20
-29.2289319737
 11
-93.8983775595
 21
-29.0149922195
  0
LINE
  5
4EA
100
AcDbEntity
  8
SCRITTA_VIMAR
100
AcDbLine
 62
250
  6
CONTINUOUS
 10
-93.8833188349
 20
-28.1973965708
 11
-93.8663190704
 21
-28.3400498569
  0
LINE
  5
4EB
100
AcDbEntity
  8
SCRITTA_VIMAR
100
AcDbLine
 62
250
  6
CONTINUOUS
 10
-93.9016280654
 20
-28.9663157442
 11
-93.8717938573
 21
-29.2188250678
  0
LWPOLYLINE
  5
4EC
100
AcDbEntity
  8
SCRITTA_VIMAR
100
AcDbPolyline
 62
250
  6
CONTINUOUS
 90
5
 70
0
 10
-93.9176754249
 20
-28.4492903025
 10
-93.9611917045
 20
-28.078828169
 10
-93.9885458458
 20
-27.8411120096
 10
-94.0153084535
 20
-27.6025427188
 10
-94.0411952697
 20
-27.3637208763
  0
LINE
  5
4ED
100
AcDbEntity
  8
SCRITTA_VIMAR
100
AcDbLine
 62
250
  6
CONTINUOUS
 10
-93.869383298
 20
-29.2523958763
 11
-93.9063621872
 21
-28.939516958
  0
LINE
  5
4EE
100
AcDbEntity
  8
SCRITTA_VIMAR
100
AcDbLine
 62
250
  6
CONTINUOUS
 10
-93.8821954764
 20
-29.1243025583
 11
-93.9189827436
 21
-28.8108944575
  0
LINE
  5
4EF
100
AcDbEntity
  8
SCRITTA_VIMAR
100
AcDbLine
 62
250
  6
CONTINUOUS
 10
-93.876052987
 20
-29.1012151222
 11
-93.9128182279
 21
-28.7848405188
  0
LINE
  5
4F0
100
AcDbEntity
  8
SCRITTA_VIMAR
100
AcDbLine
 62
250
  6
CONTINUOUS
 10
-93.9081800224
 20
-28.7710702266
 11
-93.864980398
 21
-29.1425008763
  0
LINE
  5
4F1
100
AcDbEntity
  8
SCRITTA_VIMAR
100
AcDbLine
 62
250
  6
CONTINUOUS
 10
-93.8878330478
 20
-28.338598817
 11
-93.8940395005
 21
-28.284544253
  0
LINE
  5
4F2
100
AcDbEntity
  8
SCRITTA_VIMAR
100
AcDbLine
 62
250
  6
CONTINUOUS
 10
-93.8663190704
 20
-28.3400498569
 11
-93.8513948276
 21
-28.4705277432
  0
LINE
  5
4F3
100
AcDbEntity
  8
SCRITTA_VIMAR
100
AcDbLine
 62
250
  6
CONTINUOUS
 10
-93.9417378398
 20
-28.6308786941
 11
-93.9063621872
 21
-28.939516958
  0
LINE
  5
4F4
100
AcDbEntity
  8
SCRITTA_VIMAR
100
AcDbLine
 62
250
  6
CONTINUOUS
 10
-93.9031410567
 20
-28.9741261297
 11
-93.9309190533
 21
-28.7305139552
  0
LINE
  5
4F5
100
AcDbEntity
  8
SCRITTA_VIMAR
100
AcDbLine
 62
250
  6
CONTINUOUS
 10
-93.9241804144
 20
-28.7834874268
 11
-93.941531787
 21
-28.6280431489
  0
LINE
  5
4F6
100
AcDbEntity
  8
SCRITTA_VIMAR
100
AcDbLine
 62
250
  6
CONTINUOUS
 10
-93.9436866598
 20
-28.5945856322
 11
-93.9016280654
 21
-28.9663157442
  0
LINE
  5
4F7
100
AcDbEntity
  8
SCRITTA_VIMAR
100
AcDbLine
 62
250
  6
CONTINUOUS
 10
-93.9365376933
 20
-28.6563264965
 11
-93.9535361233
 21
-28.5031708756
  0
LINE
  5
4F8
100
AcDbEntity
  8
SCRITTA_VIMAR
100
AcDbLine
 62
250
  6
CONTINUOUS
 10
-93.9128182279
 20
-28.7848405188
 11
-93.9478017804
 21
-28.4713392429
  0
LINE
  5
4F9
100
AcDbEntity
  8
SCRITTA_VIMAR
100
AcDbLine
 62
250
  6
CONTINUOUS
 10
-93.9487054812
 20
-28.4090636882
 11
-93.9081800224
 21
-28.7710702266
  0
LINE
  5
4FA
100
AcDbEntity
  8
SCRITTA_VIMAR
100
AcDbLine
 62
250
  6
CONTINUOUS
 10
-93.8849504866
 20
-28.3646011278
 11
-93.8878330478
 21
-28.338598817
  0
LINE
  5
4FB
100
AcDbEntity
  8
SCRITTA_VIMAR
100
AcDbLine
 62
250
  6
CONTINUOUS
 10
-93.8513948276
 20
-28.4705277432
 11
-93.8443320259
 21
-28.5342845476
  0
LWPOLYLINE
  5
4FC
100
AcDbEntity
  8
RACCORDO
100
AcDbPolyline
 62
250
  6
CONTINUOUS
 90
6
 70
0
 10
-94.1215678575
 20
-26.4975522083
 10
-94.1210656674
 20
-26.5102742986
 10
-94.1207485275
 20
-26.521043582
 10
-94.12062788
 20
-26.5295593146
 10
-94.1206919215
 20
-26.5355965655
 10
-94.1209453346
 20
-26.5388353876
  0
LWPOLYLINE
  5
4FD
100
AcDbEntity
  8
RACCORDO
100
AcDbPolyline
 62
250
  6
CONTINUOUS
 90
4
 70
0
 10
-94.1255865084
 20
-26.4017914803
 10
-94.125010187
 20
-26.418649498
 10
-94.124343442
 20
-26.4352451079
 10
-94.1215678575
 20
-26.4975522083
  0
LINE
  5
4FE
100
AcDbEntity
  8
RACCORDO
100
AcDbLine
 62
250
  6
CONTINUOUS
 10
-94.1265235812
 20
-26.3655699773
 11
-94.1255865084
 21
-26.4017914803
  0
LINE
  5
4FF
100
AcDbEntity
  8
RACCORDO
100
AcDbLine
 62
250
  6
CONTINUOUS
 10
-94.1380438533
 20
-25.6370736887
 11
-94.1313847358
 21
-25.9387111144
  0
LINE
  5
500
100
AcDbEntity
  8
RACCORDO
100
AcDbLine
 62
250
  6
CONTINUOUS
 10
-94.7125166848
 20
-24.8830039115
 11
-94.7119287129
 21
-24.9141145853
  0
LWPOLYLINE
  5
501
100
AcDbEntity
  8
RACCORDO
100
AcDbPolyline
 62
250
  6
CONTINUOUS
 90
6
 70
0
 10
-94.7113428315
 20
-24.939096759
 10
-94.7111146793
 20
-24.9516002896
 10
-94.7110653193
 20
-24.9563293913
 10
-94.71106796
 20
-24.9598667931
 10
-94.7111181842
 20
-24.9620436131
 10
-94.7112159761
 20
-24.9626977765
  0
LINE
  5
502
100
AcDbEntity
  8
RACCORDO
100
AcDbLine
 62
250
  6
CONTINUOUS
 10
-94.1275885365
 20
-26.3064485734
 11
-94.1265235812
 21
-26.3655699773
  0
LINE
  5
503
100
AcDbEntity
  8
RACCORDO
100
AcDbLine
 62
250
  6
CONTINUOUS
 10
-94.1414391273
 20
-25.434197939
 11
-94.1380438533
 21
-25.6370736887
  0
LINE
  5
504
100
AcDbEntity
  8
RACCORDO
100
AcDbLine
 62
250
  6
CONTINUOUS
 10
-94.1313847358
 20
-25.9387111144
 11
-94.130254677
 21
-26.0060163678
  0
LINE
  5
505
100
AcDbEntity
  8
RACCORDO
100
AcDbLine
 62
250
  6
CONTINUOUS
 10
-94.7130789483
 20
-24.8363462714
 11
-94.7125166848
 21
-24.8830039115
  0
LINE
  5
506
100
AcDbEntity
  8
RACCORDO
100
AcDbLine
 62
250
  6
CONTINUOUS
 10
-94.130254677
 20
-26.0060163678
 11
-94.1297330012
 21
-26.0511561254
  0
LINE
  5
507
100
AcDbEntity
  8
RACCORDO
100
AcDbLine
 62
250
  6
CONTINUOUS
 10
-94.1285848725
 20
-26.2226162034
 11
-94.1275885365
 21
-26.3064485734
  0
LINE
  5
508
100
AcDbEntity
  8
RACCORDO
100
AcDbLine
 62
250
  6
CONTINUOUS
 10
-94.1451831807
 20
-25.1166050668
 11
-94.1414391273
 21
-25.434197939
  0
LINE
  5
509
100
AcDbEntity
  8
RACCORDO
100
AcDbLine
 62
250
  6
CONTINUOUS
 10
-94.7172433501
 20
-24.3769106116
 11
-94.7142312943
 21
-24.6459048121
  0
LINE
  5
50A
100
AcDbEntity
  8
RACCORDO
100
AcDbLine
 62
250
  6
CONTINUOUS
 10
-94.1297330012
 20
-26.0511561254
 11
-94.1285848725
 21
-26.2226162034
  0
LINE
  5
50B
100
AcDbEntity
  8
RACCORDO
100
AcDbLine
 62
250
  6
CONTINUOUS
 10
-94.7142312943
 20
-24.6459048121
 11
-94.7139075463
 21
-24.6907634687
  0
LINE
  5
50C
100
AcDbEntity
  8
RACCORDO
100
AcDbLine
 62
250
  6
CONTINUOUS
 10
-94.7136617965
 20
-24.7501835282
 11
-94.7130789483
 21
-24.8363462714
  0
LINE
  5
50D
100
AcDbEntity
  8
RACCORDO
100
AcDbLine
 62
250
  6
CONTINUOUS
 10
-94.1486140465
 20
-24.6035561912
 11
-94.1451831807
 21
-25.1166050668
  0
LINE
  5
50E
100
AcDbEntity
  8
RACCORDO
100
AcDbLine
 62
250
  6
CONTINUOUS
 10
-94.1561716997
 20
-22.2636721183
 11
-94.1506049047
 21
-23.3332490238
  0
LINE
  5
50F
100
AcDbEntity
  8
RACCORDO
100
AcDbLine
 62
250
  6
CONTINUOUS
 10
-94.719093913
 20
-24.0650005014
 11
-94.7172433501
 21
-24.3769106116
  0
LINE
  5
510
100
AcDbEntity
  8
RACCORDO
100
AcDbLine
 62
250
  6
CONTINUOUS
 10
-94.7139075463
 20
-24.6907634687
 11
-94.7136617965
 21
-24.7501835282
  0
LWPOLYLINE
  5
511
100
AcDbEntity
  8
RACCORDO
100
AcDbPolyline
 62
250
  6
CONTINUOUS
 90
3
 70
0
 10
-94.1617610928
 20
-20.6111292838
 10
-94.1592973518
 20
-21.4521432153
 10
-94.1561716997
 20
-22.2636721183
  0
LWPOLYLINE
  5
512
100
AcDbEntity
  8
RACCORDO
100
AcDbPolyline
 62
250
  6
CONTINUOUS
 90
4
 70
0
 10
-94.1245580704
 20
25.0365890783
 10
-94.1245500807
 20
25.0333921113
 10
-94.1235388641
 20
25.024899189
 10
-94.120934402
 20
25.0111468241
  0
LINE
  5
513
100
AcDbEntity
  8
RACCORDO
100
AcDbLine
 62
250
  6
CONTINUOUS
 10
-94.1506049047
 20
-23.3332490238
 11
-94.1498185925
 21
-23.6053092852
  0
LINE
  5
514
100
AcDbEntity
  8
RACCORDO
100
AcDbLine
 62
250
  6
CONTINUOUS
 10
-94.1655459059
 20
-18.8407063613
 11
-94.1617610928
 21
-20.6111292838
  0
LINE
  5
515
100
AcDbEntity
  8
RACCORDO
100
AcDbLine
 62
250
  6
CONTINUOUS
 10
-94.7217009662
 20
-22.277401641
 11
-94.7200472144
 21
-23.3558395511
  0
LINE
  5
516
100
AcDbEntity
  8
RACCORDO
100
AcDbLine
 62
250
  6
CONTINUOUS
 10
-94.1695939147
 20
-15.9811886698
 11
-94.1655459059
 21
-18.8407063613
  0
LINE
  5
517
100
AcDbEntity
  8
RACCORDO
100
AcDbLine
 62
250
  6
CONTINUOUS
 10
-94.1851768715
 20
-0.7635465977
 11
-94.1695939147
 21
-15.9811886698
  0
LINE
  5
518
100
AcDbEntity
  8
RACCORDO
100
AcDbLine
 62
250
  6
CONTINUOUS
 10
-94.7238687248
 20
-19.7467567454
 11
-94.7217009662
 21
-22.277401641
  0
LINE
  5
519
100
AcDbEntity
  8
RACCORDO
100
AcDbLine
 62
250
  6
CONTINUOUS
 10
-94.1497603781
 20
-23.9825696584
 11
-94.1486140465
 21
-24.6035561912
  0
LWPOLYLINE
  5
51A
100
AcDbEntity
  8
RACCORDO
100
AcDbPolyline
 62
250
  6
CONTINUOUS
 90
3
 70
0
 10
-94.7293198244
 20
-0.7638488517
 10
-94.7280047205
 20
-5.9726614846
 10
-94.7238687248
 20
-19.7467567454
  0
LINE
  5
51B
100
AcDbEntity
  8
0
100
AcDbLine
 62
7
  6
CONTINUOUS
 10
-94.910665219
 20
-24.3635354744
 11
-94.910665219
 21
22.8358477218
  0
LINE
  5
51C
100
AcDbEntity
  8
RACCORDO
100
AcDbLine
 62
250
  6
CONTINUOUS
 10
-94.7200472144
 20
-23.3558395511
 11
-94.719093913
 21
-24.0650005014
  0
LINE
  5
51D
100
AcDbEntity
  8
RACCORDO
100
AcDbLine
 62
250
  6
CONTINUOUS
 10
-94.1498185925
 20
-23.6053092852
 11
-94.1497603781
 21
-23.9825696584
  0
LINE
  5
51E
100
AcDbEntity
  8
RACCORDO
100
AcDbLine
 62
250
  6
CONTINUOUS
 10
-94.7225690011
 20
19.9354496919
 11
-94.7293198244
 21
-0.7638488517
  0
LINE
  5
51F
100
AcDbEntity
  8
RACCORDO
100
AcDbLine
 62
250
  6
CONTINUOUS
 10
-94.1655429801
 20
17.3144362513
 11
-94.1851762661
 21
-0.7635465986
  0
LINE
  5
520
100
AcDbEntity
  8
RACCORDO
100
AcDbLine
 62
250
  6
CONTINUOUS
 10
-94.7201394476
 20
21.7602612544
 11
-94.7225690011
 21
19.9354496919
  0
LINE
  5
521
100
AcDbEntity
  8
RACCORDO
100
AcDbLine
 62
250
  6
CONTINUOUS
 10
-94.7190276738
 20
22.5538701372
 11
-94.7201394476
 21
21.7602612544
  0
LINE
  5
522
100
AcDbEntity
  8
RACCORDO
100
AcDbLine
 62
250
  6
CONTINUOUS
 10
-94.1487579827
 20
23.0408834313
 11
-94.1500949638
 21
21.9470165407
  0
LWPOLYLINE
  5
523
100
AcDbEntity
  8
RACCORDO
100
AcDbPolyline
 62
250
  6
CONTINUOUS
 90
4
 70
0
 10
-94.1561723272
 20
20.7363139854
 10
-94.1592953128
 20
19.9250845499
 10
-94.1617577636
 20
19.0843507352
 10
-94.1655429801
 20
17.3144362513
  0
LINE
  5
524
100
AcDbEntity
  8
RACCORDO
100
AcDbLine
 62
250
  6
CONTINUOUS
 10
-94.1500949638
 20
21.9470165407
 11
-94.1561723272
 21
20.7363139854
  0
LINE
  5
525
100
AcDbEntity
  8
RACCORDO
100
AcDbLine
 62
250
  6
CONTINUOUS
 10
-94.7132608374
 20
23.2876058373
 11
-94.7140192112
 21
23.1436775386
  0
LINE
  5
526
100
AcDbEntity
  8
RACCORDO
100
AcDbLine
 62
250
  6
CONTINUOUS
 10
-94.7171672635
 20
22.858081543
 11
-94.7190276738
 21
22.5538701372
  0
LINE
  5
527
100
AcDbEntity
  8
RACCORDO
100
AcDbLine
 62
250
  6
CONTINUOUS
 10
-94.1455314915
 20
23.5511285716
 11
-94.1487579827
 21
23.0408834313
  0
LINE
  5
528
100
AcDbEntity
  8
RACCORDO
100
AcDbLine
 62
250
  6
CONTINUOUS
 10
-94.1285377194
 20
24.6999982567
 11
-94.1298957186
 21
24.5066935688
  0
LINE
  5
529
100
AcDbEntity
  8
RACCORDO
100
AcDbLine
 62
250
  6
CONTINUOUS
 10
-94.7140192112
 20
23.1436775386
 11
-94.7145678701
 21
23.0870130428
  0
LINE
  5
52A
100
AcDbEntity
  8
RACCORDO
100
AcDbLine
 62
250
  6
CONTINUOUS
 10
-94.7127695685
 20
23.3370489778
 11
-94.7132608374
 21
23.2876058373
  0
LINE
  5
52B
100
AcDbEntity
  8
RACCORDO
100
AcDbLine
 62
250
  6
CONTINUOUS
 10
-94.7145678701
 20
23.0870130428
 11
-94.7171672635
 21
22.858081543
  0
LINE
  5
52C
100
AcDbEntity
  8
RACCORDO
100
AcDbLine
 62
250
  6
CONTINUOUS
 10
-94.1418632983
 20
23.876630114
 11
-94.1455314915
 21
23.5511285716
  0
LINE
  5
52D
100
AcDbEntity
  8
RACCORDO
100
AcDbLine
 62
250
  6
CONTINUOUS
 10
-94.127490045
 20
24.7853277081
 11
-94.1285377194
 21
24.6999982567
  0
LINE
  5
52E
100
AcDbEntity
  8
RACCORDO
100
AcDbLine
 62
250
  6
CONTINUOUS
 10
-94.7124288345
 20
23.360574191
 11
-94.7127695685
 21
23.3370489778
  0
LINE
  5
52F
100
AcDbEntity
  8
RACCORDO
100
AcDbLine
 62
250
  6
CONTINUOUS
 10
-94.1298957186
 20
24.5066935688
 11
-94.1308519972
 21
24.4401104869
  0
LINE
  5
530
100
AcDbEntity
  8
RACCORDO
100
AcDbLine
 62
250
  6
CONTINUOUS
 10
-94.1384798412
 20
24.0864100652
 11
-94.1418632983
 21
23.876630114
  0
LINE
  5
531
100
AcDbEntity
  8
RACCORDO
100
AcDbLine
 62
250
  6
CONTINUOUS
 10
-94.1267687186
 20
24.826246196
 11
-94.127490045
 21
24.7853277081
  0
LWPOLYLINE
  5
532
100
AcDbEntity
  8
RACCORDO
100
AcDbPolyline
 62
250
  6
CONTINUOUS
 90
6
 70
0
 10
-94.7111262504
 20
23.4229394237
 10
-94.7113829771
 20
23.4093649618
 10
-94.7115747524
 20
23.4011411591
 10
-94.711802707
 20
23.3921186782
 10
-94.7120244787
 20
23.3823312016
 10
-94.7124288345
 20
23.360574191
  0
LINE
  5
533
100
AcDbEntity
  8
RACCORDO
100
AcDbLine
 62
250
  6
CONTINUOUS
 10
-94.1308519972
 20
24.4401104869
 11
-94.1326799209
 21
24.3495051289
  0
LINE
  5
534
100
AcDbEntity
  8
RACCORDO
100
AcDbLine
 62
250
  6
CONTINUOUS
 10
-94.1350933944
 20
24.2471050719
 11
-94.1384798412
 21
24.0864100652
  0
LINE
  5
535
100
AcDbEntity
  8
RACCORDO
100
AcDbLine
 62
250
  6
CONTINUOUS
 10
-94.1326799209
 20
24.3495051289
 11
-94.1350933944
 21
24.2471050719
  0
LINE
  5
536
100
AcDbEntity
  8
RACCORDO
100
AcDbLine
 62
250
  6
CONTINUOUS
 10
-94.125842853
 20
24.8648316593
 11
-94.1267687186
 21
24.826246196
  0
LWPOLYLINE
  5
537
100
AcDbEntity
  8
RACCORDO
100
AcDbPolyline
 62
250
  6
CONTINUOUS
 90
4
 70
0
 10
-94.1239079882
 20
24.9184044917
 10
-94.1246644815
 20
24.9008270777
 10
-94.1253040838
 20
24.8829785325
 10
-94.125842853
 20
24.8648316593
  0
LINE
  5
538
100
AcDbEntity
  8
DRAFT
100
AcDbLine
 62
7
  6
CONTINUOUS
 10
-85.610665219
 20
-4.7638438763
 11
-86.310665219
 21
-4.7638438763
  0
LINE
  5
539
100
AcDbEntity
  8
ASSI
100
AcDbLine
 62
7
  6
CONTINUOUS
 10
-88.7925999482
 20
-3.7638438763
 11
-88.9024730226
 21
-3.7638438763
  0
LINE
  5
53A
100
AcDbEntity
  8
RACCORDO
100
AcDbLine
 62
250
  6
CONTINUOUS
 10
-88.910665219
 20
-3.2638438763
 11
-88.810665219
 21
-3.2638438763
  0
LWPOLYLINE
  5
53B
100
AcDbEntity
  8
0
100
AcDbPolyline
 62
7
  6
CONTINUOUS
 90
4
 70
0
 43
0.3500000006
 10
-104.0892368774
 20
-3.1209871788
 10
-104.9463838806
 20
-3.1209871788
 10
-105.3749528503
 20
-2.6924148102
 10
-105.3749528503
 20
-2.0495579567
  0
LWPOLYLINE
  5
53C
100
AcDbEntity
  8
RACCORDO
100
AcDbPolyline
 62
250
  6
CONTINUOUS
 90
8
 70
0
 10
-94.1209337382
 20
25.0111467749
 10
-94.1206812771
 20
25.0076870817
 10
-94.1206478156
 20
25.0011711633
 10
-94.1208104782
 20
24.9919463716
 10
-94.1211557822
 20
24.9802870592
 10
-94.1216663698
 20
24.9666353845
 10
-94.1223227042
 20
24.9515239242
 10
-94.1239079882
 20
24.9184044917
  0
LINE
  5
53D
100
AcDbEntity
  8
RACCORDO
100
AcDbLine
 62
250
  6
CONTINUOUS
 10
-90.3149305291
 20
-37.3527159909
 11
-90.3108331855
 21
-37.5111483508
  0
LINE
  5
53E
100
AcDbEntity
  8
RACCORDO
100
AcDbLine
 62
250
  6
CONTINUOUS
 10
-91.2539231067
 20
-37.375490262
 11
-91.2459155593
 21
-37.7399303714
  0
LINE
  5
53F
100
AcDbEntity
  8
RACCORDO
100
AcDbLine
 62
250
  6
CONTINUOUS
 10
-90.3179348058
 20
-37.2058613189
 11
-90.3149305291
 21
-37.3527159909
  0
LINE
  5
540
100
AcDbEntity
  8
RACCORDO
100
AcDbLine
 62
250
  6
CONTINUOUS
 10
-91.2459155593
 20
-37.7399303714
 11
-91.2421508693
 21
-37.9547903675
  0
LINE
  5
541
100
AcDbEntity
  8
RACCORDO
100
AcDbLine
 62
250
  6
CONTINUOUS
 10
-91.2563166792
 20
-37.2233350057
 11
-91.2539231067
 21
-37.375490262
  0
LINE
  5
542
100
AcDbEntity
  8
RACCORDO
100
AcDbLine
 62
250
  6
CONTINUOUS
 10
-90.3200390153
 20
-37.0656201911
 11
-90.3179348058
 21
-37.2058613189
  0
LINE
  5
543
100
AcDbEntity
  8
RACCORDO
100
AcDbLine
 62
250
  6
CONTINUOUS
 10
-91.2421508693
 20
-37.9547903675
 11
-91.2390716568
 21
-38.1867861294
  0
LINE
  5
544
100
AcDbEntity
  8
RACCORDO
100
AcDbLine
 62
250
  6
CONTINUOUS
 10
-91.2390716568
 20
-38.1867861294
 11
-91.2368096511
 21
-38.4328286187
  0
LINE
  5
545
100
AcDbEntity
  8
RACCORDO
100
AcDbLine
 62
250
  6
CONTINUOUS
 10
-91.2577170155
 20
-37.0773013136
 11
-91.2563166792
 21
-37.2233350057
  0
LINE
  5
546
100
AcDbEntity
  8
RACCORDO
100
AcDbLine
 62
250
  6
CONTINUOUS
 10
-91.2374866311
 20
37.6801809359
 11
-91.2359209735
 21
37.5024590485
  0
LWPOLYLINE
  5
547
100
AcDbEntity
  8
RACCORDO
100
AcDbPolyline
 62
250
  6
CONTINUOUS
 90
4
 70
0
 10
-90.3222216194
 20
-36.7789389763
 10
-90.3219166904
 20
-36.8292570951
 10
-90.3216230784
 20
-36.8780543283
 10
-90.3200390153
 20
-37.0656201911
  0
LWPOLYLINE
  5
548
100
AcDbEntity
  8
RACCORDO
100
AcDbPolyline
 62
250
  6
CONTINUOUS
 90
3
 70
0
 10
-90.3808140442
 20
-27.3322672218
 10
-90.379104103
 20
-27.6195239565
 10
-90.3222216194
 20
-36.7789389763
  0
LINE
  5
549
100
AcDbEntity
  8
RACCORDO
100
AcDbLine
 62
250
  6
CONTINUOUS
 10
-90.3860682592
 20
-26.4257605869
 11
-90.3808140442
 21
-27.3322672218
  0
LINE
  5
54A
100
AcDbEntity
  8
RACCORDO
100
AcDbLine
 62
250
  6
CONTINUOUS
 10
-90.389643508
 20
-25.7820584569
 11
-90.3860682592
 21
-26.4257605869
  0
LINE
  5
54B
100
AcDbEntity
  8
RACCORDO
100
AcDbLine
 62
250
  6
CONTINUOUS
 10
-90.3968444097
 20
-24.3919691779
 11
-90.389643508
 21
-25.7820584569
  0
LINE
  5
54C
100
AcDbEntity
  8
RACCORDO
100
AcDbLine
 62
250
  6
CONTINUOUS
 10
-90.3183287605
 20
38.729479512
 11
-90.3171630507
 21
38.5178197702
  0
LWPOLYLINE
  5
54D
100
AcDbEntity
  8
RACCORDO
100
AcDbPolyline
 62
250
  6
CONTINUOUS
 90
3
 70
0
 10
-91.3054667883
 20
-27.6253180876
 10
-91.3041351325
 20
-27.9054819788
 10
-91.2601378445
 20
-36.5669581395
  0
LINE
  5
54E
100
AcDbEntity
  8
RACCORDO
100
AcDbLine
 62
250
  6
CONTINUOUS
 10
-91.308173195
 20
-27.0434906243
 11
-91.3054667883
 21
-27.6253180876
  0
LINE
  5
54F
100
AcDbEntity
  8
RACCORDO
100
AcDbLine
 62
250
  6
CONTINUOUS
 10
-91.3109253435
 20
-26.4312270831
 11
-91.308173195
 21
-27.0434906243
  0
LINE
  5
550
100
AcDbEntity
  8
RACCORDO
100
AcDbLine
 62
250
  6
CONTINUOUS
 10
-91.31369992
 20
-25.7873079483
 11
-91.3109253435
 21
-26.4312270831
  0
LINE
  5
551
100
AcDbEntity
  8
RACCORDO
100
AcDbLine
 62
250
  6
CONTINUOUS
 10
-91.3178625034
 20
-24.7577993676
 11
-91.31369992
 21
-25.7873079483
  0
LINE
  5
552
100
AcDbEntity
  8
RACCORDO
100
AcDbLine
 62
250
  6
CONTINUOUS
 10
-90.4089080637
 20
-21.5901405739
 11
-90.3968444097
 21
-24.3919691779
  0
LINE
  5
553
100
AcDbEntity
  8
RACCORDO
100
AcDbLine
 62
250
  6
CONTINUOUS
 10
-91.2368096511
 20
-38.4328286187
 11
-91.2355506979
 21
-38.6881871478
  0
LINE
  5
554
100
AcDbEntity
  8
RACCORDO
100
AcDbLine
 62
250
  6
CONTINUOUS
 10
-91.3245911297
 20
-22.8568512232
 11
-91.3178625034
 21
-24.7577993676
  0
LINE
  5
555
100
AcDbEntity
  8
RACCORDO
100
AcDbLine
 62
250
  6
CONTINUOUS
 10
-90.4161838631
 20
-19.2562229262
 11
-90.4089080637
 21
-21.5901405739
  0
LINE
  5
556
100
AcDbEntity
  8
RACCORDO
100
AcDbLine
 62
250
  6
CONTINUOUS
 10
-91.2601378445
 20
-36.5669581395
 11
-91.2577170155
 21
-37.0773013136
  0
LINE
  5
557
100
AcDbEntity
  8
RACCORDO
100
AcDbLine
 62
250
  6
CONTINUOUS
 10
-91.3317092353
 20
-20.2290869441
 11
-91.3245911297
 21
-22.8568512232
  0
LINE
  5
558
100
AcDbEntity
  8
RACCORDO
100
AcDbLine
 62
250
  6
CONTINUOUS
 10
-90.4205638863
 20
-17.1598682633
 11
-90.4161838631
 21
-19.2562229262
  0
LINE
  5
559
100
AcDbEntity
  8
RACCORDO
100
AcDbLine
 62
250
  6
CONTINUOUS
 10
-91.2359209735
 20
37.5024590485
 11
-91.2353810416
 21
37.3159791591
  0
LINE
  5
55A
100
AcDbEntity
  8
RACCORDO
100
AcDbLine
 62
250
  6
CONTINUOUS
 10
-91.3361516756
 20
-17.7060581807
 11
-91.3317092353
 21
-20.2290869441
  0
LINE
  5
55B
100
AcDbEntity
  8
RACCORDO
100
AcDbLine
 62
250
  6
CONTINUOUS
 10
-90.3171630507
 20
38.5178197702
 11
-90.3107843556
 21
36.4287534166
  0
LINE
  5
55C
100
AcDbEntity
  8
RACCORDO
100
AcDbLine
 62
250
  6
CONTINUOUS
 10
-90.4232238297
 20
-14.834629863
 11
-90.4205638863
 21
-17.1598682633
  0
LINE
  5
55D
100
AcDbEntity
  8
RACCORDO
100
AcDbLine
 62
250
  6
CONTINUOUS
 10
-91.3386459896
 20
-14.8352949302
 11
-91.3361516756
 21
-17.7060581807
  0
LINE
  5
55E
100
AcDbEntity
  8
RACCORDO
100
AcDbLine
 62
250
  6
CONTINUOUS
 10
-91.3390845344
 20
-12.9259229926
 11
-91.3386459896
 21
-14.8352949302
  0
LINE
  5
55F
100
AcDbEntity
  8
RACCORDO
100
AcDbLine
 62
250
  6
CONTINUOUS
 10
-91.3359663035
 20
-0.7633822187
 11
-91.3356456315
 21
-2.6771958454
  0
LWPOLYLINE
  5
560
100
AcDbEntity
  8
RACCORDO
100
AcDbPolyline
 62
250
  6
CONTINUOUS
 90
3
 70
0
 10
-91.3360072424
 20
2.9263323737
 10
-91.3356872899
 20
0.1945372713
 10
-91.3359659498
 20
-0.763382219
  0
LINE
  5
561
100
AcDbEntity
  8
RACCORDO
100
AcDbLine
 62
250
  6
CONTINUOUS
 10
-91.2355506979
 20
-38.6881871478
 11
-91.2353930606
 21
-38.8592565884
  0
LINE
  5
562
100
AcDbEntity
  8
RACCORDO
100
AcDbLine
 62
250
  6
CONTINUOUS
 10
-90.42396286
 20
-12.2556388053
 11
-90.4232238297
 21
-14.834629863
  0
LINE
  5
563
100
AcDbEntity
  8
RACCORDO
100
AcDbLine
 62
250
  6
CONTINUOUS
 10
-90.4199230068
 20
2.9269870608
 11
-90.4195251046
 21
1.1283221992
  0
LINE
  5
564
100
AcDbEntity
  8
RACCORDO
100
AcDbLine
 62
250
  6
CONTINUOUS
 10
-91.3390376583
 20
11.9806960295
 11
-91.3360072424
 21
2.9263323737
  0
LINE
  5
565
100
AcDbEntity
  8
RACCORDO
100
AcDbLine
 62
250
  6
CONTINUOUS
 10
-91.3356456315
 20
-2.6771958454
 11
-91.336325261
 21
-5.3643258335
  0
LINE
  5
566
100
AcDbEntity
  8
RACCORDO
100
AcDbLine
 62
250
  6
CONTINUOUS
 10
-90.4236210733
 20
12.617390778
 11
-90.4199230068
 21
2.9269870608
  0
LWPOLYLINE
  5
567
100
AcDbEntity
  8
RACCORDO
100
AcDbPolyline
 62
250
  6
CONTINUOUS
 90
3
 70
0
 10
-91.336325261
 20
-5.3643258335
 10
-91.3374826959
 20
-7.844866437
 10
-91.3390845344
 20
-12.9259229926
  0
LINE
  5
568
100
AcDbEntity
  8
RACCORDO
100
AcDbLine
 62
250
  6
CONTINUOUS
 10
-90.4195251046
 20
1.1283221992
 11
-90.4204084483
 21
-5.3647097928
  0
LWPOLYLINE
  5
569
100
AcDbEntity
  8
RACCORDO
100
AcDbPolyline
 62
250
  6
CONTINUOUS
 90
3
 70
0
 10
-90.4204084483
 20
-5.3647097928
 10
-90.4219823604
 20
-7.8454990363
 10
-90.42396286
 20
-12.2556388053
  0
LINE
  5
56A
100
AcDbEntity
  8
RACCORDO
100
AcDbLine
 62
250
  6
CONTINUOUS
 10
-90.3108331855
 20
-37.5111483508
 11
-90.3107261549
 21
-37.9043438211
  0
LINE
  5
56B
100
AcDbEntity
  8
RACCORDO
100
AcDbLine
 62
250
  6
CONTINUOUS
 10
-91.3368915375
 20
15.5695254528
 11
-91.3390376583
 21
11.9806960295
  0
LINE
  5
56C
100
AcDbEntity
  8
RACCORDO
100
AcDbLine
 62
250
  6
CONTINUOUS
 10
-90.4214908823
 20
15.0079441822
 11
-90.4236210733
 21
12.617390778
  0
LINE
  5
56D
100
AcDbEntity
  8
RACCORDO
100
AcDbLine
 62
250
  6
CONTINUOUS
 10
-90.3107843556
 20
36.4287534166
 11
-90.3108331855
 21
35.9834605982
  0
LINE
  5
56E
100
AcDbEntity
  8
RACCORDO
100
AcDbLine
 62
250
  6
CONTINUOUS
 10
-91.3318393891
 20
18.6424085047
 11
-91.3368915375
 21
15.5695254528
  0
LINE
  5
56F
100
AcDbEntity
  8
RACCORDO
100
AcDbLine
 62
250
  6
CONTINUOUS
 10
-90.4175660392
 20
17.1633757051
 11
-90.4214908823
 21
15.0079441822
  0
LINE
  5
570
100
AcDbEntity
  8
RACCORDO
100
AcDbLine
 62
250
  6
CONTINUOUS
 10
-91.2353810416
 20
37.3159791591
 11
-91.2356544337
 21
37.1253292585
  0
LINE
  5
571
100
AcDbEntity
  8
RACCORDO
100
AcDbLine
 62
250
  6
CONTINUOUS
 10
-90.3107261549
 20
-37.9043438211
 11
-90.3118188204
 21
-38.4519496522
  0
LINE
  5
572
100
AcDbEntity
  8
RACCORDO
100
AcDbLine
 62
250
  6
CONTINUOUS
 10
-90.4106838832
 20
19.5618483976
 11
-90.4175660392
 21
17.1633757051
  0
LINE
  5
573
100
AcDbEntity
  8
RACCORDO
100
AcDbLine
 62
250
  6
CONTINUOUS
 10
-91.3221400485
 20
22.0648655707
 11
-91.3318393891
 21
18.6424085047
  0
LINE
  5
574
100
AcDbEntity
  8
RACCORDO
100
AcDbLine
 62
250
  6
CONTINUOUS
 10
-90.3118188204
 20
-38.4519496522
 11
-90.3129392253
 21
-38.8091978371
  0
LINE
  5
575
100
AcDbEntity
  8
RACCORDO
100
AcDbLine
 62
250
  6
CONTINUOUS
 10
-90.3129392253
 20
-38.8091978371
 11
-90.316285415
 21
-39.7849032872
  0
LINE
  5
576
100
AcDbEntity
  8
RACCORDO
100
AcDbLine
 62
250
  6
CONTINUOUS
 10
-91.2353930606
 20
-38.8592565884
 11
-91.2359033932
 21
-39.0270129263
  0
LINE
  5
577
100
AcDbEntity
  8
RACCORDO
100
AcDbLine
 62
250
  6
CONTINUOUS
 10
-91.3125282107
 20
24.5350417112
 11
-91.3221400485
 21
22.0648655707
  0
LINE
  5
578
100
AcDbEntity
  8
RACCORDO
100
AcDbLine
 62
250
  6
CONTINUOUS
 10
-90.3988898944
 20
22.4408813604
 11
-90.4106838832
 21
19.5618483976
  0
LINE
  5
579
100
AcDbEntity
  8
RACCORDO
100
AcDbLine
 62
250
  6
CONTINUOUS
 10
-91.2980147923
 20
27.6303729831
 11
-91.3125282107
 21
24.5350417112
  0
LINE
  5
57A
100
AcDbEntity
  8
RACCORDO
100
AcDbLine
 62
250
  6
CONTINUOUS
 10
-90.316285415
 20
-39.7849032872
 11
-90.3179231934
 21
-40.2040224936
  0
LINE
  5
57B
100
AcDbEntity
  8
RACCORDO
100
AcDbLine
 62
250
  6
CONTINUOUS
 10
-90.3881338211
 20
24.529703608
 11
-90.3988898944
 21
22.4408813604
  0
LINE
  5
57C
100
AcDbEntity
  8
RACCORDO
100
AcDbLine
 62
250
  6
CONTINUOUS
 10
-91.2356544337
 20
37.1253292585
 11
-91.2366013968
 21
36.9354345503
  0
LINE
  5
57D
100
AcDbEntity
  8
RACCORDO
100
AcDbLine
 62
250
  6
CONTINUOUS
 10
-90.3777132828
 20
26.3234277663
 11
-90.3881338211
 21
24.529703608
  0
LWPOLYLINE
  5
57E
100
AcDbEntity
  8
RACCORDO
100
AcDbPolyline
 62
250
  6
CONTINUOUS
 90
6
 70
0
 10
-90.3179231934
 20
-40.2040224936
 10
-90.3190334495
 20
-40.3660098188
 10
-90.319812583
 20
-40.4262660795
 10
-90.3209650776
 20
-40.4701744358
 10
-90.3223777553
 20
-40.4971953872
 10
-90.3240657519
 20
-40.5063434657
  0
LINE
  5
57F
100
AcDbEntity
  8
RACCORDO
100
AcDbLine
 62
250
  6
CONTINUOUS
 10
-91.2569424501
 20
35.6412470072
 11
-91.2980147923
 21
27.6303729831
  0
LWPOLYLINE
  5
580
100
AcDbEntity
  8
RACCORDO
100
AcDbPolyline
 62
250
  6
CONTINUOUS
 90
11
 70
0
 10
-91.2359033932
 20
-39.0270129263
 10
-91.2372350516
 20
-39.187292271
 10
-91.2382817521
 20
-39.2634968477
 10
-91.2396286204
 20
-39.3357526784
 10
-91.2413352793
 20
-39.4034868011
 10
-91.2434847463
 20
-39.4659739121
 10
-91.2461339484
 20
-39.5210230339
 10
-91.2493056994
 20
-39.566312941
 10
-91.2530468798
 20
-39.6008794234
 10
-91.2574670528
 20
-39.6243516107
 10
-91.2626907571
 20
-39.6360542337
  0
LINE
  5
581
100
AcDbEntity
  8
RACCORDO
100
AcDbLine
 62
250
  6
CONTINUOUS
 10
-91.2366013968
 20
36.9354345503
 11
-91.2390663769
 21
36.659547346
  0
LINE
  5
582
100
AcDbEntity
  8
RACCORDO
100
AcDbLine
 62
250
  6
CONTINUOUS
 10
-90.32009937
 20
35.5323679847
 11
-90.3777132828
 21
26.3234277663
  0
LINE
  5
583
100
AcDbEntity
  8
RACCORDO
100
AcDbLine
 62
250
  6
CONTINUOUS
 10
-91.2390663769
 20
36.659547346
 11
-91.2425716137
 21
36.4001377269
  0
LINE
  5
584
100
AcDbEntity
  8
RACCORDO
100
AcDbLine
 62
250
  6
CONTINUOUS
 10
-91.2549067396
 20
35.7920635525
 11
-91.2569424501
 21
35.6412470072
  0
LINE
  5
585
100
AcDbEntity
  8
RACCORDO
100
AcDbLine
 62
250
  6
CONTINUOUS
 10
-90.3180203333
 20
35.6734297127
 11
-90.32009937
 21
35.5323679847
  0
LINE
  5
586
100
AcDbEntity
  8
RACCORDO
100
AcDbLine
 62
250
  6
CONTINUOUS
 10
-91.2425716137
 20
36.4001377269
 11
-91.2469788561
 21
36.1601224429
  0
LINE
  5
587
100
AcDbEntity
  8
RACCORDO
100
AcDbLine
 62
250
  6
CONTINUOUS
 10
-90.3150010631
 20
35.8219450914
 11
-90.3180203333
 21
35.6734297127
  0
LINE
  5
588
100
AcDbEntity
  8
RACCORDO
100
AcDbLine
 62
250
  6
CONTINUOUS
 10
-91.2469788561
 20
36.1601224429
 11
-91.2503641009
 21
36.0115239764
  0
LWPOLYLINE
  5
589
100
AcDbEntity
  8
RACCORDO
100
AcDbPolyline
 62
250
  6
CONTINUOUS
 90
3
 70
0
 10
-91.2503646274
 20
36.0115239913
 10
-91.2517135347
 20
35.9544557916
 10
-91.2549067396
 20
35.7920635525
  0
LINE
  5
58A
100
AcDbEntity
  8
RACCORDO
100
AcDbLine
 62
250
  6
CONTINUOUS
 10
-90.3108331855
 20
35.9834605982
 11
-90.3150010631
 21
35.8219450914
  0
LWPOLYLINE
  5
58B
100
AcDbEntity
  8
RACCORDO
100
AcDbPolyline
 62
250
  6
CONTINUOUS
 90
3
 70
0
 10
-94.2148750654
 20
-0.7641660287
 10
-94.1932600084
 20
-0.7638500934
 10
-94.1851768715
 20
-0.7635465977
  0
LINE
  5
58C
100
AcDbEntity
  8
RACCORDO
100
AcDbLine
 62
250
  6
CONTINUOUS
 10
-94.1851768597
 20
-0.7641455216
 11
-94.1311277909
 21
-0.76363264
  0
LINE
  5
58D
100
AcDbEntity
  8
RACCORDO
100
AcDbLine
 62
250
  6
CONTINUOUS
 10
-94.3596310335
 20
-0.7651739407
 11
-94.2148750654
 21
-0.7641660287
  0
LINE
  5
58E
100
AcDbEntity
  8
RACCORDO
100
AcDbLine
 62
250
  6
CONTINUOUS
 10
-94.7293191303
 20
-0.7666004369
 11
-94.3596310335
 21
-0.7651739407
  0
LWPOLYLINE
  5
58F
100
AcDbEntity
  8
RACCORDO
100
AcDbPolyline
 62
250
  6
CONTINUOUS
 90
4
 70
0
 10
-93.5811369342
 20
-0.7649433413
 10
-92.5176532211
 20
-0.7627781201
 10
-91.9793668132
 20
-0.7626404233
 10
-91.335965986
 20
-0.7635977709
  0
LINE
  5
590
100
AcDbEntity
  8
RACCORDO
100
AcDbLine
 62
250
  6
CONTINUOUS
 10
-90.4198077825
 20
-0.7629122328
 11
-91.3359663035
 21
-0.7633822187
  0
LWPOLYLINE
  5
591
100
AcDbEntity
  8
0
100
AcDbPolyline
 62
7
  6
CONTINUOUS
 90
13
 70
0
 43
0.3500000006
 10
-104.5178058472
 20
-0.7638431168
 10
-105.8035218201
 20
-0.7638431168
 10
-106.2320907898
 20
-0.5495586319
 10
-106.6606688232
 20
-0.1209873962
 10
-106.6606688232
 20
0.0932993546
 10
-106.2320907898
 20
0.5218705902
 10
-105.8035218201
 20
0.7361550751
 10
-104.5178058472
 20
0.7361550751
 10
-104.0892368774
 20
0.5218705902
 10
-103.6606679077
 20
0.0932993546
 10
-103.6606679077
 20
-0.1209873962
 10
-104.0892368774
 20
-0.5495586319
 10
-104.5178058472
 20
-0.7638431168
  0
LWPOLYLINE
  5
592
100
AcDbEntity
  8
RACCORDO
100
AcDbPolyline
 62
250
  6
CONTINUOUS
 90
3
 70
0
 10
-94.1311277909
 20
-0.76363264
 10
-93.809630662
 20
-0.7646463159
 10
-93.5811369342
 20
-0.7649433413
  0
LWPOLYLINE
  5
593
100
AcDbEntity
  8
RACCORDO
100
AcDbPolyline
 62
250
  6
CONTINUOUS
 90
5
 70
0
 10
-94.7112159761
 20
23.4350100238
 10
-94.711114961
 20
23.4342931585
 10
-94.7110654803
 20
23.4319239357
 10
-94.7110675512
 20
23.4280786107
 10
-94.7111262504
 20
23.4229394237
  0
LINE
  5
594
100
AcDbEntity
  8
RACCORDO
100
AcDbLine
 62
7
  6
CONTINUOUS
 10
-88.910665219
 20
2.0361561237
 11
-88.910665219
 21
-3.5638438763
  0
LINE
  5
595
100
AcDbEntity
  8
RACCORDO
100
AcDbLine
 62
7
  6
CONTINUOUS
 10
-88.810665219
 20
-3.4638438763
 11
-88.810665219
 21
1.9361561237
  0
LINE
  5
596
100
AcDbEntity
  8
DRAFT
100
AcDbLine
 62
7
  6
CONTINUOUS
 10
-87.610665219
 20
1.9361561237
 11
-87.610665219
 21
-3.4638438763
  0
LWPOLYLINE
  5
597
100
AcDbEntity
  8
RACCORDO
100
AcDbPolyline
 62
250
  6
CONTINUOUS
 90
4
 70
0
 10
-94.1209353068
 20
-26.5388346439
 10
-94.1235475947
 20
-26.5525936785
 10
-94.1245543861
 20
-26.5610997823
 10
-94.1245594024
 20
-26.5642654099
  0
LINE
  5
598
100
AcDbEntity
  8
RACCORDO
100
AcDbLine
 62
250
  6
CONTINUOUS
 10
-88.810665219
 20
1.7361561237
 11
-88.910665219
 21
1.7361561237
  0
LINE
  5
599
100
AcDbEntity
  8
ASSI
100
AcDbLine
 62
7
  6
CONTINUOUS
 10
-88.9024187267
 20
2.2361561237
 11
-88.7925999482
 21
2.2361561237
  0
LINE
  5
59A
100
AcDbEntity
  8
DRAFT
100
AcDbLine
 62
7
  6
CONTINUOUS
 10
-85.610665219
 20
4.4361561237
 11
-85.610665219
 21
3.2361561237
  0
LINE
  5
59B
100
AcDbEntity
  8
DRAFT
100
AcDbLine
 62
7
  6
CONTINUOUS
 10
-85.610665219
 20
-4.7638438763
 11
-85.610665219
 21
-5.9638438763
  0
LINE
  5
59C
100
AcDbEntity
  8
RACCORDO
100
AcDbLine
 62
7
  6
CONTINUOUS
 10
-85.410665219
 20
-6.0638438763
 11
-85.410665219
 21
-40.7638438763
  0
LINE
  5
59D
100
AcDbEntity
  8
RACCORDO
100
AcDbLine
 62
7
  6
CONTINUOUS
 10
-85.410665219
 20
4.5361561237
 11
-85.410665219
 21
39.2361561237
  0
LINE
  5
59E
100
AcDbEntity
  8
DRAFT
100
AcDbLine
 62
7
  6
CONTINUOUS
 10
-85.610665219
 20
3.2361561237
 11
-86.310665219
 21
3.2361561237
  0
LINE
  5
59F
100
AcDbEntity
  8
RACCORDO
100
AcDbLine
 62
7
  6
CONTINUOUS
 10
-86.310665219
 20
4.4361561237
 11
-85.610665219
 21
4.4361561237
  0
LINE
  5
5A0
100
AcDbEntity
  8
RACCORDO
100
AcDbLine
 62
7
  6
CONTINUOUS
 10
-85.410665219
 20
4.5361561237
 11
-86.410665219
 21
4.5361561237
  0
LWPOLYLINE
  5
5A1
100
AcDbEntity
  8
RACCORDO
100
AcDbPolyline
 62
250
  6
CONTINUOUS
 90
6
 70
0
 10
-90.3240657519
 20
38.978655713
 10
-90.3222583663
 20
38.9683393895
 10
-90.3207950667
 20
38.9376368507
 10
-90.3196328315
 20
38.887325202
 10
-90.3188696573
 20
38.8174589084
 10
-90.3183287605
 20
38.729479512
  0
LWPOLYLINE
  5
5A2
100
AcDbEntity
  8
RACCORDO
100
AcDbPolyline
 62
250
  6
CONTINUOUS
 90
8
 70
0
 10
-91.2752643327
 20
38.1289301644
 10
-91.274267202
 20
38.1255158275
 10
-91.2729929859
 20
38.122473662
 10
-91.2714793532
 20
38.1195574716
 10
-91.2697032274
 20
38.1166954771
 10
-91.2676514263
 20
38.1138640475
 10
-91.2653212802
 20
38.1110878152
 10
-91.2626992704
 20
38.1083675839
  0
LWPOLYLINE
  5
5A3
100
AcDbEntity
  8
RACCORDO
100
AcDbPolyline
 62
250
  6
CONTINUOUS
 90
19
 70
0
 10
-91.3969303707
 20
38.2773928192
 10
-91.3950499942
 20
38.273730986
 10
-91.3939233106
 20
38.2716793693
 10
-91.3926460415
 20
38.269538422
 10
-91.3912207086
 20
38.2672787188
 10
-91.3896432026
 20
38.2648967232
 10
-91.3879068848
 20
38.2623901196
 10
-91.3860079051
 20
38.2597610504
 10
-91.3839487165
 20
38.2570125235
 10
-91.3817289751
 20
38.2541418347
 10
-91.3793483046
 20
38.251150952
 10
-91.3768125328
 20
38.2480497441
 10
-91.3741225456
 20
38.2448314186
 10
-91.3712856455
 20
38.2415015777
 10
-91.3683218356
 20
38.2380885825
 10
-91.3652289087
 20
38.2345758102
 10
-91.3620267688
 20
38.2309783708
 10
-91.3587752418
 20
38.2273722903
 10
-91.352173156
 20
38.2201210832
  0
LWPOLYLINE
  5
5A4
100
AcDbEntity
  8
RACCORDO
100
AcDbPolyline
 62
250
  6
CONTINUOUS
 90
9
 70
0
 10
-91.2626891477
 20
38.1083662725
 10
-91.2571689448
 20
38.0955422618
 10
-91.2525160083
 20
38.0692496015
 10
-91.248597614
 20
38.0300297108
 10
-91.245292647
 20
37.9779303443
 10
-91.2425640443
 20
37.9139635099
 10
-91.2404032513
 20
37.8413835052
 10
-91.2387451913
 20
37.7632171975
 10
-91.2374866311
 20
37.6801809359
  0
LINE
  5
5A5
100
AcDbEntity
  8
RACCORDO
100
AcDbLine
 62
250
  6
CONTINUOUS
 10
-94.910665219
 20
21.5361561237
 11
-94.720694705
 21
21.5361561237
  0
LINE
  5
5A6
100
AcDbEntity
  8
RACCORDO
100
AcDbLine
 62
250
  6
CONTINUOUS
 10
-94.7206936241
 20
21.5361561237
 11
-94.5096567468
 21
21.5317545582
  0
LWPOLYLINE
  5
5A7
100
AcDbEntity
  8
RACCORDO
100
AcDbPolyline
 62
250
  6
CONTINUOUS
 90
7
 70
0
 10
-94.5096567468
 20
21.5317545582
 10
-94.3448742328
 20
21.5274300392
 10
-94.2807633766
 20
21.5253204095
 10
-94.2292321183
 20
21.5232582409
 10
-94.190506338
 20
21.5212525641
 10
-94.1647557844
 20
21.5193121625
 10
-94.1520933315
 20
21.5174455331
  0
LWPOLYLINE
  5
5A8
100
AcDbEntity
  8
SCRITTA_VIMAR
100
AcDbPolyline
 62
250
  6
CONTINUOUS
 90
18
 70
0
 10
-93.8663118735
 20
-28.6059738763
 10
-93.8660343207
 20
-28.6058333043
 10
-93.8657855248
 20
-28.6054135915
 10
-93.8655678834
 20
-28.6047177325
 10
-93.865383794
 20
-28.6037487219
 10
-93.8651934103
 20
-28.6020364759
 10
-93.8650650186
 20
-28.5998480184
 10
-93.8649967006
 20
-28.5971874169
 10
-93.8649868865
 20
-28.5940590929
 10
-93.8650353992
 20
-28.5904688836
 10
-93.8651424101
 20
-28.58642298
 10
-93.8653082018
 20
-28.5819244787
 10
-93.865533501
 20
-28.5769640986
 10
-93.865819146
 20
-28.5715294643
 10
-93.866166114
 20
-28.5656087358
 10
-93.866575939
 20
-28.5591922144
 10
-93.8670502947
 20
-28.5522707369
 10
-93.8681932841
 20
-28.5369424758
  0
LINE
  5
5A9
100
AcDbEntity
  8
RACCORDO
100
AcDbLine
 62
250
  6
CONTINUOUS
 10
-91.3192686429
 20
38.1846614646
 11
-91.2956192304
 21
38.1587958744
  0
LINE
  5
5AA
100
AcDbEntity
  8
RACCORDO
100
AcDbLine
 62
250
  6
CONTINUOUS
 10
-91.2956192304
 20
38.1587958744
 11
-91.2896173934
 21
38.1522200128
  0
LWPOLYLINE
  5
5AB
100
AcDbEntity
  8
0
100
AcDbPolyline
 62
7
  6
CONTINUOUS
 90
10
 70
0
 43
0.3500000006
 10
-90.2678060303
 20
50.0138416443
 10
-90.1963839111
 20
49.8709883423
 10
-90.1963839111
 20
49.7995571594
 10
-90.3392372131
 20
49.6566993256
 10
-90.410668396
 20
49.6566993256
 10
-90.4820905151
 20
49.7281305084
 10
-90.4820905151
 20
49.7995571594
 10
-90.410668396
 20
49.9424149933
 10
-90.3392372131
 20
50.0138416443
 10
-90.2678060303
 20
50.0138416443
  0
LWPOLYLINE
  5
5AC
100
AcDbEntity
  8
RACCORDO
100
AcDbPolyline
 62
250
  6
CONTINUOUS
 90
24
 70
0
 10
-91.3623569863
 20
-39.7590385382
 10
-91.3655381138
 20
-39.7626075476
 10
-91.3686577396
 20
-39.7661612872
 10
-91.3716649539
 20
-39.7696339722
 10
-91.3745449153
 20
-39.77301655
 10
-91.3772937846
 20
-39.7763196019
 10
-91.3798847666
 20
-39.7795068017
 10
-91.382314168
 20
-39.78257496
 10
-91.3845785148
 20
-39.7855284375
 10
-91.3866593925
 20
-39.7883420348
 10
-91.3885583559
 20
-39.7910088661
 10
-91.3902832632
 20
-39.7935362384
 10
-91.3918319764
 20
-39.7959199658
 10
-91.3932079681
 20
-39.7981567226
 10
-91.3944245846
 20
-39.800249774
 10
-91.3954962095
 20
-39.8022046985
 10
-91.3964166044
 20
-39.8040654908
 10
-91.3972238644
 20
-39.8057870819
 10
-91.3979944763
 20
-39.8072419014
 10
-91.3987732542
 20
-39.8083555127
 10
-91.3995709519
 20
-39.8092003846
 10
-91.4004033458
 20
-39.8098698411
 10
-91.4013071362
 20
-39.8103285914
 10
-91.4033416016
 20
-39.8109086695
  0
LINE
  5
5AD
100
AcDbEntity
  8
RACCORDO
100
AcDbLine
 62
250
  6
CONTINUOUS
 10
-91.3558553484
 20
-39.7518401048
 11
-91.3623569863
 21
-39.7590385382
  0
LINE
  5
5AE
100
AcDbEntity
  8
RACCORDO
100
AcDbLine
 62
250
  6
CONTINUOUS
 10
-91.3494200071
 20
-39.7448320292
 11
-91.3558553484
 21
-39.7518401048
  0
LINE
  5
5AF
100
AcDbEntity
  8
RACCORDO
100
AcDbLine
 62
250
  6
CONTINUOUS
 10
-91.2895425526
 20
-39.6798263669
 11
-91.323292106
 21
-39.7167196793
  0
LINE
  5
5B0
100
AcDbEntity
  8
RACCORDO
100
AcDbLine
 62
250
  6
CONTINUOUS
 10
-91.3432466566
 20
-39.7381654016
 11
-91.3494200071
 21
-39.7448320292
  0
LINE
  5
5B1
100
AcDbEntity
  8
RACCORDO
100
AcDbLine
 62
250
  6
CONTINUOUS
 10
-91.323292106
 20
-39.7167196793
 11
-91.3349017986
 21
-39.7292560204
  0
LINE
  5
5B2
100
AcDbEntity
  8
RACCORDO
100
AcDbLine
 62
250
  6
CONTINUOUS
 10
-91.3349017986
 20
-39.7292560204
 11
-91.3432466566
 21
-39.7381654016
  0
LWPOLYLINE
  5
5B3
100
AcDbEntity
  8
RACCORDO
100
AcDbPolyline
 62
250
  6
CONTINUOUS
 90
24
 70
0
 10
-91.2626997857
 20
-39.6360554033
 10
-91.2653217296
 20
-39.6387774191
 10
-91.2676505894
 20
-39.6415534101
 10
-91.2697006289
 20
-39.6443825372
 10
-91.2714764823
 20
-39.6472394969
 10
-91.2729906967
 20
-39.6501485296
 10
-91.2742637325
 20
-39.6531832697
 10
-91.275255618
 20
-39.6565887572
 10
-91.2760161871
 20
-39.660118568
 10
-91.2766902102
 20
-39.663110963
 10
-91.2773431632
 20
-39.6652699605
 10
-91.2779754708
 20
-39.666890206
 10
-91.2786227805
 20
-39.6681974417
 10
-91.2793397592
 20
-39.6691423922
 10
-91.2801306828
 20
-39.6697717475
 10
-91.2809510614
 20
-39.6704549096
 10
-91.2817822004
 20
-39.6713151819
 10
-91.2826395274
 20
-39.6722293248
 10
-91.2835290065
 20
-39.6731967796
 10
-91.2844496567
 20
-39.6742283119
 10
-91.2853990435
 20
-39.6753132481
 10
-91.2863809905
 20
-39.6764188912
 10
-91.2874009994
 20
-39.6775284296
 10
-91.2895425526
 20
-39.6798263669
  0
LINE
  5
5B4
100
AcDbEntity
  8
RACCORDO
100
AcDbLine
 62
250
  6
CONTINUOUS
 10
-91.2896173934
 20
38.1522200128
 11
-91.2874513208
 21
38.1498949703
  0
LINE
  5
5B5
100
AcDbEntity
  8
RACCORDO
100
AcDbLine
 62
250
  6
CONTINUOUS
 10
-91.3489041098
 20
38.2165728597
 11
-91.3285868696
 21
38.194763544
  0
LINE
  5
5B6
100
AcDbEntity
  8
RACCORDO
100
AcDbLine
 62
250
  6
CONTINUOUS
 10
-91.352173156
 20
38.2201210832
 11
-91.3489041098
 21
38.2165728597
  0
LINE
  5
5B7
100
AcDbEntity
  8
RACCORDO
100
AcDbLine
 62
250
  6
CONTINUOUS
 10
-91.3285868696
 20
38.194763544
 11
-91.3192686429
 21
38.1846614646
  0
LWPOLYLINE
  5
5B8
100
AcDbEntity
  8
RACCORDO
100
AcDbPolyline
 62
250
  6
CONTINUOUS
 90
16
 70
0
 10
-91.2874513208
 20
38.1498949703
 10
-91.2864225466
 20
38.1487763016
 10
-91.2854336949
 20
38.147664224
 10
-91.2844796712
 20
38.1465752968
 10
-91.2835557095
 20
38.145540028
 10
-91.2826635536
 20
38.1445680679
 10
-91.2818040924
 20
38.1436497154
 10
-91.2809711733
 20
38.142786478
 10
-91.2801497811
 20
38.1421014098
 10
-91.2793572847
 20
38.1414714423
 10
-91.2786354904
 20
38.1405287478
 10
-91.2779838352
 20
38.1392295447
 10
-91.2773521244
 20
38.1376197787
 10
-91.276703412
 20
38.1354659073
 10
-91.2760301975
 20
38.1324691764
 10
-91.2752643327
 20
38.1289301644
  0
LWPOLYLINE
  5
5B9
100
AcDbEntity
  8
RACCORDO
100
AcDbPolyline
 62
7
  6
CONTINUOUS
 90
3
 70
0
 10
-90.6320479861
 20
38.9564730093
 10
-90.7393208422
 20
38.9327973977
 10
-90.8433514861
 20
38.8974972296
  0
LWPOLYLINE
  5
5BA
100
AcDbEntity
  8
RACCORDO
100
AcDbPolyline
 62
250
  6
CONTINUOUS
 90
13
 70
0
 10
-90.3240628895
 20
38.9786010866
 10
-90.4390169755
 20
38.9658691358
 10
-90.551729791
 20
38.9399289236
 10
-90.6606912775
 20
38.9011279814
 10
-90.7644416344
 20
38.849986141
 10
-90.8615908768
 20
38.7871885699
 10
-90.9508374575
 20
38.7135765922
 10
-91.0309857043
 20
38.630136417
 10
-91.1009618392
 20
38.5379859256
 10
-91.1598283636
 20
38.4383596947
 10
-91.206796619
 20
38.3325924568
 10
-91.2412373526
 20
38.2221012177
 10
-91.2626891477
 20
38.1083662725
  0
LINE
  5
5BB
100
AcDbEntity
  8
RACCORDO
100
AcDbLine
 62
7
  6
CONTINUOUS
 10
-90.5228276438
 20
38.9682390436
 11
-90.6320479861
 21
38.9564730093
  0
LINE
  5
5BC
100
AcDbEntity
  8
RACCORDO
100
AcDbLine
 62
250
  6
CONTINUOUS
 10
-90.3108331855
 20
35.9834605982
 11
-85.410665219
 21
36.2402675194
  0
LINE
  5
5BD
100
AcDbEntity
  8
RACCORDO
100
AcDbLine
 62
7
  6
CONTINUOUS
 10
-85.410665219
 20
39.2361561237
 11
-90.5228253986
 21
38.9682391613
  0
LWPOLYLINE
  5
5BE
100
AcDbEntity
  8
0
100
AcDbPolyline
 62
7
  6
CONTINUOUS
 90
8
 70
0
 43
0.3500000006
 10
-89.196383606
 20
49.5138460236
 10
-88.3392366028
 20
49.5138460236
 10
-87.9106676331
 20
49.9424149933
 10
-87.9106676331
 20
50.7995574646
 10
-88.3392366028
 20
51.2281309662
 10
-89.196383606
 20
51.2281309662
 10
-89.196383606
 20
52.5138424072
 10
-87.9106676331
 20
52.5138424072
  0
LINE
  5
5BF
100
AcDbEntity
  8
RACCORDO
100
AcDbLine
 62
250
  6
CONTINUOUS
 10
-90.3108331855
 20
35.9834605982
 11
-91.0196359478
 21
36.0041719521
  0
LWPOLYLINE
  5
5C0
100
AcDbEntity
  8
RACCORDO
100
AcDbPolyline
 62
250
  6
CONTINUOUS
 90
3
 70
0
 10
-91.0196359478
 20
36.0041719521
 10
-91.2293014246
 20
36.010754217
 10
-91.2503646274
 20
36.0115239913
  0
ARC
  5
5C1
100
AcDbEntity
  8
0
100
AcDbCircle
 62
7
  6
CONTINUOUS
 10
43.2456060761
 20
-23.0638438763
 40
0.3
100
AcDbArc
 50
270.0
 51
360.0
  0
ARC
  5
5C2
100
AcDbEntity
  8
0
100
AcDbCircle
 62
7
  6
CONTINUOUS
 10
43.2456060761
 20
21.5361561237
 40
0.3
100
AcDbArc
 50
0.0
 51
90.0
  0
ARC
  5
5C3
100
AcDbEntity
  8
0
100
AcDbCircle
 62
7
  6
CONTINUOUS
 10
-46.1543939239
 20
21.5361561237
 40
0.3
100
AcDbArc
 50
90.0
 51
180.0
  0
ARC
  5
5C4
100
AcDbEntity
  8
0
100
AcDbCircle
 62
7
  6
CONTINUOUS
 10
-46.1543939239
 20
-23.0638438763
 40
0.3
100
AcDbArc
 50
180.0
 51
270.0
  0
ARC
  5
5C5
100
AcDbEntity
  8
RACCORDO
100
AcDbCircle
 62
7
  6
CONTINUOUS
 10
-86.310665219
 20
1.9361561237
 40
2.5
100
AcDbArc
 50
90.0
 51
180.0
  0
ARC
  5
5C6
100
AcDbEntity
  8
RACCORDO
100
AcDbCircle
 62
7
  6
CONTINUOUS
 10
-86.310665219
 20
-3.4638438763
 40
2.5
100
AcDbArc
 50
180.0
 51
270.0
  0
ARC
  5
5C7
100
AcDbEntity
  8
RACCORDO
100
AcDbCircle
 62
7
  6
CONTINUOUS
 10
-86.410665219
 20
2.0361561237
 40
2.5
100
AcDbArc
 50
90.0
 51
180.0
  0
ARC
  5
5C8
100
AcDbEntity
  8
RACCORDO
100
AcDbCircle
 62
7
  6
CONTINUOUS
 10
-86.410665219
 20
-3.5638438763
 40
2.5
100
AcDbArc
 50
180.0
 51
270.0
  0
ARC
  5
5C9
100
AcDbEntity
  8
DRAFT
100
AcDbCircle
 62
7
  6
CONTINUOUS
 10
-86.310665219
 20
1.9361561237
 40
1.3
100
AcDbArc
 50
90.0
 51
180.0
  0
ARC
  5
5CA
100
AcDbEntity
  8
DRAFT
100
AcDbCircle
 62
7
  6
CONTINUOUS
 10
-86.310665219
 20
-3.4638438763
 40
1.3
100
AcDbArc
 50
180.0
 51
270.0
  0
ARC
  5
5CB
100
AcDbEntity
  8
RACCORDO
100
AcDbCircle
 62
7
  6
CONTINUOUS
 10
-90.470490908
 20
-39.4972973024
 40
1.0
100
AcDbArc
 50
199.7257272259
 51
266.808586613
  0
ARC
  5
5CC
100
AcDbEntity
  8
RACCORDO
100
AcDbCircle
 62
7
  6
CONTINUOUS
 10
-93.9109736209
 20
-24.3635354744
 40
0.9996915981
100
AcDbArc
 50
180.0
 51
216.8231544198
  0
ARC
  5
5CD
100
AcDbEntity
  8
0
100
AcDbCircle
 62
7
  6
CONTINUOUS
 10
-93.9109736209
 20
-24.3635354744
 40
0.9996915981
100
AcDbArc
 50
180.0
 51
216.8231544198
  0
ARC
  5
5CE
100
AcDbEntity
  8
RACCORDO
100
AcDbCircle
 62
7
  6
CONTINUOUS
 10
-93.9109736209
 20
22.8358477218
 40
0.9996915981
100
AcDbArc
 50
143.1768455802
 51
180.0
  0
ARC
  5
5CF
100
AcDbEntity
  8
0
100
AcDbCircle
 62
7
  6
CONTINUOUS
 10
-93.9109736209
 20
22.8358477218
 40
0.9996915981
100
AcDbArc
 50
143.1768455802
 51
180.0
  0
ELLIPSE
  5
5D0
100
AcDbEntity
  8
RACCORDO
100
AcDbEllipse
 62
7
  6
CONTINUOUS
 10
69.7431982968
 20
2.0361561237
 30
0.0
 11
-0.0
 21
2.5
 31
0.0
 40
0.0524077793
 41
-0.0
 42
1.5707963268
  0
ELLIPSE
  5
5D1
100
AcDbEntity
  8
RACCORDO
100
AcDbEllipse
 62
7
  6
CONTINUOUS
 10
-72.6519861447
 20
2.0361561237
 30
0.0
 11
0.0
 21
2.5
 31
0.0
 40
0.0524077793
 41
-1.5707963268
 42
-0.0
  0
ELLIPSE
  5
5D2
100
AcDbEntity
  8
RACCORDO
100
AcDbEllipse
 62
7
  6
CONTINUOUS
 10
69.7431982968
 20
-3.5638438763
 30
0.0
 11
0.0
 21
2.5
 31
0.0
 40
0.0524077793
 41
-4.7123889804
 42
-3.1415926536
  0
ELLIPSE
  5
5D3
100
AcDbEntity
  8
RACCORDO
100
AcDbEllipse
 62
7
  6
CONTINUOUS
 10
-72.6519861447
 20
-3.5638438763
 30
0.0
 11
-0.0
 21
2.5
 31
0.0
 40
0.0524077793
 41
-3.1415926536
 42
-1.5707963268
  0
ELLIPSE
  5
5D4
100
AcDbEntity
  8
RACCORDO
100
AcDbEllipse
 62
7
  6
CONTINUOUS
 10
66.7914890381
 20
-37.7597268383
 30
0.0
 11
-2.1271387303
 21
2.1271387303
 31
0.0
 40
0.9972646886
 41
-3.9256212891
 42
-2.3575640181
  0
ELLIPSE
  5
5D5
100
AcDbEntity
  8
RACCORDO
100
AcDbEllipse
 62
7
  6
CONTINUOUS
 10
66.7914890381
 20
36.2320390857
 30
0.0
 11
2.1271387303
 21
2.1271387303
 31
0.0
 40
0.9972646886
 41
-0.7840286355
 42
0.7840286355
  0
ELLIPSE
  5
5D6
100
AcDbEntity
  8
RACCORDO
100
AcDbEllipse
 62
7
  6
CONTINUOUS
 10
-69.7002768859
 20
-37.7597268383
 30
0.0
 11
2.1271387303
 21
2.1271387303
 31
0.0
 40
0.9972646886
 41
-3.9256212891
 42
-2.3575640181
  0
ELLIPSE
  5
5D7
100
AcDbEntity
  8
RACCORDO
100
AcDbEllipse
 62
7
  6
CONTINUOUS
 10
-69.7002768859
 20
36.2320390857
 30
0.0
 11
2.1271387303
 21
-2.1271387303
 31
0.0
 40
0.9972646886
 41
2.3575640181
 42
3.9256212891
  0
ENDSEC
  0
SECTION
  2
OBJECTS
  0
DICTIONARY
  5
C
100
AcDbDictionary
280
0
281
1
  3
ACAD_GROUP
350
D
  3
ACAD_MLINESTYLE
350
17
  3
ACAD_LAYOUT
350
1A
  3
ACAD_PLOTSETTINGS
350
19
  3
ACAD_PLOTSTYLENAME
350
E
  0
DICTIONARY
  5
D
102
{ACAD_REACTORS
330
C
102
}
100
AcDbDictionary
280
0
281
1
  0
ACDBDICTIONARYWDFLT
  5
E
102
{ACAD_REACTORS
330
C
102
}
100
AcDbDictionary
281
1
  3
Normal
350
F
100
AcDbDictionaryWithDefault
340
F
  0
DICTIONARY
  5
17
102
{ACAD_REACTORS
330
C
102
}
100
AcDbDictionary
280
0
281
1
  3
Standard
350
18
  0
DICTIONARY
  5
19
102
{ACAD_REACTORS
330
C
102
}
100
AcDbDictionary
281
1
  0
DICTIONARY
  5
1A
102
{ACAD_REACTORS
330
C
102
}
100
AcDbDictionary
281
1
  3
Model
350
5D8
  3
Layout1
350
5D9
  0
ACDBPLACEHOLDER
  5
F
102
{ACAD_REACTORS
330
E
102
}
  0
MLINESTYLE
  5
18
102
{ACAD_REACTORS
330
17
102
}
100
AcDbMlineStyle
  2
STANDARD
 70
0
  3

 62
256
 51
90.0
 52
90.0
 71
2
 49
0.5
 62
256
  6
BYLAYER
 49
-0.5
 62
256
  6
BYLAYER
  0
LAYOUT
  5
5D8
102
{ACAD_REACTORS
330
1A
102
}
100
AcDbPlotSettings
  1

  2
none_device
  4
ISO_A4_(297.00_x_210.00_MM)
  6

 40
0.0
 41
0.0
 42
0.0
 43
0.0
 44
297.0
 45
210.0
 46
0.0
 47
0.0
 48
0.0
 49
0.0
140
0.0
141
0.0
142
1.0
143
1.0
 70
1024
 72
1
 73
0
 74
0
  7

 75
0
147
1.0
148
0.0
149
0.0
100
AcDbLayout
  1
Model
 70
0
 71
0
 10
0.0
 20
0.0
 11
297.0
 21
210.0
 12
0.0
 22
0.0
 32
0.0
 14
0.0
 24
0.0
 34
0.0
 15
0.0
 25
0.0
 35
0.0
146
0.0
 13
0.0
 23
0.0
 33
0.0
 16
1.0
 26
0.0
 36
0.0
 17
0.0
 27
1.0
 37
0.0
 76
0
330
20F
345
0
346
0
  0
LAYOUT
  5
5D9
102
{ACAD_REACTORS
330
1A
102
}
100
AcDbPlotSettings
  1

  2
none_device
  4
ISO_A4_(297.00_x_210.00_MM)
  6

 40
0.0
 41
0.0
 42
0.0
 43
0.0
 44
297.0
 45
210.0
 46
0.0
 47
0.0
 48
0.0
 49
0.0
140
0.0
141
0.0
142
1.0
143
1.0
 70
0
 72
1
 73
0
 74
0
  7

 75
0
147
1.0
148
0.0
149
0.0
100
AcDbLayout
  1
Layout1
 70
0
 71
1
 10
0.0
 20
0.0
 11
297.0
 21
210.0
 12
0.0
 22
0.0
 32
0.0
 14
0.0
 24
0.0
 34
0.0
 15
0.0
 25
0.0
 35
0.0
146
0.0
 13
0.0
 23
0.0
 33
0.0
 16
1.0
 26
0.0
 36
0.0
 17
0.0
 27
1.0
 37
0.0
 76
0
330
210
345
0
346
0
  0
ENDSEC
  0
EOF
