  0
SECTION
  2
HEADER
  9
$ACADVER
  1
AC1024
  9
$DWGCODEPAGE
  3
ANSI_1252
  9
$EXTMAX
 10
297.0
 20
210.0
 30
0.0
  9
$EXTMIN
 10
0.0
 20
0.0
 30
0.0
  9
$LIMMIN
 10
0.0
 20
0.0
  9
$LIMMAX
 10
297.0
 20
210.0
  9
$VIEWCTR
 10
148.5
 20
105.0
  9
$VIEWSIZE
 40
210.0
  9
$CLAYER
  8
0
  9
$LTSCALE
 40
16.335
  9
$CELTYPE
  6
BYLAYER
  9
$DIMSCALE
 40
1.0
  9
$DIMASZ
 40
3.0
  9
$DIMEXO
 40
0.5
  9
$DIMDLI
 40
11.286
  9
$DIMEXE
 40
1.5
  9
$DIMCEN
 40
2.673
  9
$DIMLFAC
 40
1.0
  9
$DIMBLK
  1
_FILLED
  9
$DIMALT
 70
0
  9
$DIMALTF
 40
0.0393700787
  9
$DIMTXT
 40
3.0
  9
$DIMTOL
 70
1
  9
$DIMLIM
 70
0
  9
$DIMTFAC
 40
1.0
  9
$DIMTP
 40
0.01
  9
$DIMTM
 40
0.01
  9
$DIMGAP
 40
0.625
  9
$DIMDSEP
 70
44
  9
$AUNITS
 70
0
  9
$PDMODE
 70
3
  9
$PDSIZE
 40
3.0
  9
$HANDSEED
  5
416
  9
$TILEMODE
 70
1
  9
$MEASUREMENT
 70
1
  9
$INSUNITS
 70
4
  0
ENDSEC
  0
SECTION
  2
CLASSES
  0
CLASS
  1
ACDBDICTIONARYWDFLT
  2
AcDbDictionaryWithDefault
  3
AutoCAD 2000
 90
0
 91
1
280
0
281
0
  0
CLASS
  1
ACDBPLACEHOLDER
  2
AcDbPlaceHolder
  3
AutoCAD 2000
 90
0
 91
1
280
0
281
0
  0
CLASS
  1
LAYOUT
  2
AcDbLayout
  3
AutoCAD 2000
 90
0
 91
0
280
0
281
0
  0
ENDSEC
  0
SECTION
  2
TABLES
  0
TABLE
  2
VPORT
  5
8
100
AcDbSymbolTable
 70
2
  0
VPORT
  5
1F4
100
AcDbSymbolTableRecord
100
AcDbViewportTableRecord
  2
*ACTIVE
 70
0
 10
0.0
 20
0.0
 11
1.0
 21
1.0
 12
148.5
 22
105.0
 13
0.0
 23
0.0
 14
1.0
 24
1.0
 15
0.0
 25
0.0
 16
0.0
 26
0.0
 36
1.0
 17
0.0
 27
0.0
 37
0.0
 40
210.0
 41
1.4142857143
 42
50.0
 43
0.0
 44
0.0
 50
0.0
 51
0.0
 71
0
 72
100
 73
1
 74
1
 75
0
 76
0
 77
0
 78
0
  0
ENDTAB
  0
TABLE
  2
LTYPE
  5
5
100
AcDbSymbolTable
 70
6
  0
LTYPE
  5
14
100
AcDbSymbolTableRecord
100
AcDbLinetypeTableRecord
  2
BYBLOCK
 70
0
  3

 72
65
 73
0
 40
0.0
  0
LTYPE
  5
15
100
AcDbSymbolTableRecord
100
AcDbLinetypeTableRecord
  2
BYLAYER
 70
0
  3

 72
65
 73
0
 40
0.0
  0
LTYPE
  5
16
100
AcDbSymbolTableRecord
100
AcDbLinetypeTableRecord
  2
CONTINUOUS
 70
64
  3
Solid line
 72
65
 73
0
 40
0.0
  0
LTYPE
  5
1F5
100
AcDbSymbolTableRecord
100
AcDbLinetypeTableRecord
  2
CENTER
 70
64
  3
____ _ ____ _ ____ _ ____ _ ____ _ ____ _ ____
 72
65
 73
4
 40
0.6
 49
0.375
 74
0
 49
-0.075
 74
0
 49
0.075
 74
0
 49
-0.075
 74
0
  0
LTYPE
  5
1F6
100
AcDbSymbolTableRecord
100
AcDbLinetypeTableRecord
  2
HIDDEN
 70
64
  3
- - - - - - - - - - - - - - - - - - - -
 72
65
 73
2
 40
0.2
 49
0.1
 74
0
 49
-0.1
 74
0
  0
LTYPE
  5
1F7
100
AcDbSymbolTableRecord
100
AcDbLinetypeTableRecord
  2
PHANTOM
 70
64
  3
_____ _ _ _____ _ _ _____ _ _ _____
 72
65
 73
6
 40
0.8
 49
0.45
 74
0
 49
-0.05
 74
0
 49
0.1
 74
0
 49
-0.05
 74
0
 49
0.1
 74
0
 49
-0.05
 74
0
  0
LTYPE
  5
1F8
100
AcDbSymbolTableRecord
100
AcDbLinetypeTableRecord
  2
DOT
 70
64
  3
. . . . . . . . . . . . . . . . . . . .
 72
65
 73
2
 40
0.2
 49
0.1
 74
0
 49
-0.1
 74
0
  0
LTYPE
  5
1F9
100
AcDbSymbolTableRecord
100
AcDbLinetypeTableRecord
  2
DASHED
 70
64
  3
- - - - - - - - - - - - - - - - - - - -
 72
65
 73
2
 40
0.2
 49
0.1
 74
0
 49
-0.1
 74
0
  0
ENDTAB
  0
TABLE
  2
LAYER
  5
2
100
AcDbSymbolTable
 70
36
  0
LAYER
  5
10
100
AcDbSymbolTableRecord
100
AcDbLayerTableRecord
  2
0
 70
0
 62
7
  6
CONTINUOUS
370
-3
390
F
  0
LAYER
  5
1FA
100
AcDbSymbolTableRecord
100
AcDbLayerTableRecord
  2
DEFAULT_1
 70
0
 62
7
  6
CENTER
370
-3
390
F
  0
LAYER
  5
1FB
100
AcDbSymbolTableRecord
100
AcDbLayerTableRecord
  2
DEFAULT_2
 70
0
 62
7
  6
HIDDEN
370
-3
390
F
  0
LAYER
  5
1FC
100
AcDbSymbolTableRecord
100
AcDbLayerTableRecord
  2
DEFAULT_3
 70
0
 62
7
  6
PHANTOM
370
-3
390
F
  0
LAYER
  5
1FD
100
AcDbSymbolTableRecord
100
AcDbLayerTableRecord
  2
ASSI
 70
0
 62
7
  6
CONTINUOUS
370
-3
390
F
  0
LAYER
  5
1FE
100
AcDbSymbolTableRecord
100
AcDbLayerTableRecord
  2
COORDINATE
 70
0
 62
7
  6
CONTINUOUS
370
-3
390
F
  0
LAYER
  5
1FF
100
AcDbSymbolTableRecord
100
AcDbLayerTableRecord
  2
COPY_PUBLISH
 70
0
 62
7
  6
CONTINUOUS
370
-3
390
F
  0
LAYER
  5
200
100
AcDbSymbolTableRecord
100
AcDbLayerTableRecord
  2
COSMETICI
 70
0
 62
7
  6
CONTINUOUS
370
-3
390
F
  0
LAYER
  5
201
100
AcDbSymbolTableRecord
100
AcDbLayerTableRecord
  2
CURVE
 70
0
 62
7
  6
CONTINUOUS
370
-3
390
F
  0
LAYER
  5
202
100
AcDbSymbolTableRecord
100
AcDbLayerTableRecord
  2
DRAFT
 70
0
 62
7
  6
CONTINUOUS
370
-3
390
F
  0
LAYER
  5
203
100
AcDbSymbolTableRecord
100
AcDbLayerTableRecord
  2
IMPORT_IGES
 70
0
 62
7
  6
CONTINUOUS
370
-3
390
F
  0
LAYER
  5
204
100
AcDbSymbolTableRecord
100
AcDbLayerTableRecord
  2
INTFCLR
 70
0
 62
7
  6
CONTINUOUS
370
-3
390
F
  0
LAYER
  5
205
100
AcDbSymbolTableRecord
100
AcDbLayerTableRecord
  2
INTFCLR_17
 70
0
 62
7
  6
CONTINUOUS
370
-3
390
F
  0
LAYER
  5
206
100
AcDbSymbolTableRecord
100
AcDbLayerTableRecord
  2
INTF_1
 70
0
 62
7
  6
CONTINUOUS
370
-3
390
F
  0
LAYER
  5
207
100
AcDbSymbolTableRecord
100
AcDbLayerTableRecord
  2
INTF_11
 70
0
 62
7
  6
CONTINUOUS
370
-3
390
F
  0
LAYER
  5
208
100
AcDbSymbolTableRecord
100
AcDbLayerTableRecord
  2
INTF_2
 70
0
 62
7
  6
CONTINUOUS
370
-3
390
F
  0
LAYER
  5
209
100
AcDbSymbolTableRecord
100
AcDbLayerTableRecord
  2
INTF_5
 70
0
 62
7
  6
CONTINUOUS
370
-3
390
F
  0
LAYER
  5
20A
100
AcDbSymbolTableRecord
100
AcDbLayerTableRecord
  2
INTF_YELLOW
 70
0
 62
7
  6
CONTINUOUS
370
-3
390
F
  0
LAYER
  5
20B
100
AcDbSymbolTableRecord
100
AcDbLayerTableRecord
  2
NONE
 70
0
 62
7
  6
CONTINUOUS
370
-3
390
F
  0
LAYER
  5
20C
100
AcDbSymbolTableRecord
100
AcDbLayerTableRecord
  2
NOTE
 70
0
 62
7
  6
CONTINUOUS
370
-3
390
F
  0
LAYER
  5
20D
100
AcDbSymbolTableRecord
100
AcDbLayerTableRecord
  2
PIANI
 70
0
 62
7
  6
CONTINUOUS
370
-3
390
F
  0
LAYER
  5
20E
100
AcDbSymbolTableRecord
100
AcDbLayerTableRecord
  2
POSIZIONE_SCRITTE
 70
0
 62
7
  6
CONTINUOUS
370
-3
390
F
  0
LAYER
  5
20F
100
AcDbSymbolTableRecord
100
AcDbLayerTableRecord
  2
PUNTI
 70
0
 62
7
  6
CONTINUOUS
370
-3
390
F
  0
LAYER
  5
210
100
AcDbSymbolTableRecord
100
AcDbLayerTableRecord
  2
RACCORDO
 70
0
 62
7
  6
CONTINUOUS
370
-3
390
F
  0
LAYER
  5
211
100
AcDbSymbolTableRecord
100
AcDbLayerTableRecord
  2
RGB____0____0____0__
 70
0
 62
7
  6
CONTINUOUS
370
-3
390
F
  0
LAYER
  5
212
100
AcDbSymbolTableRecord
100
AcDbLayerTableRecord
  2
SIMBOLI
 70
0
 62
7
  6
CONTINUOUS
370
-3
390
F
  0
LAYER
  5
213
100
AcDbSymbolTableRecord
100
AcDbLayerTableRecord
  2
SMUSSO
 70
0
 62
7
  6
CONTINUOUS
370
-3
390
F
  0
LAYER
  5
214
100
AcDbSymbolTableRecord
100
AcDbLayerTableRecord
  2
SUPERFICI
 70
0
 62
7
  6
CONTINUOUS
370
-3
390
F
  0
LAYER
  5
215
100
AcDbSymbolTableRecord
100
AcDbLayerTableRecord
  2
TRASH
 70
0
 62
7
  6
CONTINUOUS
370
-3
390
F
  0
ENDTAB
  0
TABLE
  2
STYLE
  5
3
100
AcDbSymbolTable
 70
1
  0
STYLE
  5
11
100
AcDbSymbolTableRecord
100
AcDbTextStyleTableRecord
  2
STANDARD
 70
0
 40
0.0
 41
0.8
 50
0.0
 71
0
 42
0.2
  3
txt
  4

  0
STYLE
  5
216
100
AcDbSymbolTableRecord
100
AcDbTextStyleTableRecord
  2
TEXTSTYLE_1
 70
0
 40
0.0
 41
0.8
 50
0.0
 71
0
 42
0.2
  3
gdt
  4

  0
ENDTAB
  0
TABLE
  2
VIEW
  5
6
100
AcDbSymbolTable
 70
0
  0
ENDTAB
  0
TABLE
  2
UCS
  5
7
100
AcDbSymbolTable
 70
0
  0
ENDTAB
  0
TABLE
  2
APPID
  5
9
100
AcDbSymbolTable
 70
1
  0
APPID
  5
217
100
AcDbSymbolTableRecord
100
AcDbRegAppTableRecord
  2
ACAD
 70
0
  0
ENDTAB
  0
TABLE
  2
BLOCK_RECORD
  5
1
100
AcDbSymbolTable
 70
0
  0
BLOCK_RECORD
  5
218
100
AcDbSymbolTableRecord
100
AcDbBlockTableRecord
  2
*Model_Space
  0
BLOCK_RECORD
  5
219
100
AcDbSymbolTableRecord
100
AcDbBlockTableRecord
  2
*Paper_Space
  0
BLOCK_RECORD
  5
21A
100
AcDbSymbolTableRecord
100
AcDbBlockTableRecord
  2
_FILLED
  0
BLOCK_RECORD
  5
21B
100
AcDbSymbolTableRecord
100
AcDbBlockTableRecord
  2
*D0
  0
BLOCK_RECORD
  5
21C
100
AcDbSymbolTableRecord
100
AcDbBlockTableRecord
  2
*D1
  0
BLOCK_RECORD
  5
21D
100
AcDbSymbolTableRecord
100
AcDbBlockTableRecord
  2
*D2
  0
ENDTAB
  0
TABLE
  2
DIMSTYLE
  5
A
100
AcDbSymbolTable
 70
1
100
AcDbDimStyleTable
 71
0
  0
DIMSTYLE
105
21E
100
AcDbSymbolTableRecord
100
AcDbDimStyleTableRecord
  2
STANDARD
 70
0
  3

  4

 40
1.0
 41
3.0
 42
0.5
 43
0.38
 44
1.5
 45
0.0
 46
0.0
 47
0.01
 48
0.01
140
3.0
141
0.0
142
0.0
143
25.4
144
1.0
145
0.0
146
1.0
147
0.625
 71
1
 72
0
 73
0
 74
0
 75
0
 76
0
 77
1
 78
8
 79
2
170
0
171
1
172
0
173
0
174
0
175
0
176
0
177
0
178
0
270
2
179
2
271
2
272
2
273
2
274
2
275
0
280
0
281
0
282
0
283
1
284
8
285
0
286
0
287
3
288
0
340
11
278
44
341
21A
342
21A
343
21A
344
21A
  0
DIMSTYLE
105
21F
100
AcDbSymbolTableRecord
100
AcDbDimStyleTableRecord
  2
DIMSTYLE_1
 70
0
  3

  4

 40
1.0
 41
3.0
 42
0.5
 43
0.38
 44
1.5
 45
0.0
 46
0.0
 47
0.0
 48
0.0
140
3.0
141
0.0
142
0.0
143
25.4
144
1.0
145
0.0
146
1.0
147
0.75
 71
0
 72
0
 73
0
 74
0
 75
0
 76
0
 77
1
 78
8
 79
2
170
0
171
1
172
0
173
0
174
0
175
0
176
0
177
0
178
0
270
2
179
2
271
2
272
2
273
2
274
2
275
0
280
0
281
0
282
0
283
1
284
8
285
0
286
0
287
3
288
0
340
11
278
44
341
21A
342
21A
343
21A
344
21A
  0
DIMSTYLE
105
220
100
AcDbSymbolTableRecord
100
AcDbDimStyleTableRecord
  2
DIMSTYLE_2
 70
0
  3

  4

 40
1.0
 41
3.0
 42
0.5
 43
0.38
 44
1.5
 45
0.0
 46
0.0
 47
0.0
 48
0.0
140
3.0
141
0.0
142
0.0
143
25.4
144
1.0
145
0.0
146
1.0
147
0.75
 71
0
 72
0
 73
0
 74
0
 75
0
 76
0
 77
1
 78
8
 79
2
170
0
171
1
172
0
173
0
174
0
175
0
176
0
177
0
178
0
270
2
179
2
271
1
272
1
273
2
274
2
275
0
280
0
281
0
282
0
283
1
284
8
285
0
286
0
287
3
288
0
340
11
278
44
341
21A
342
21A
343
21A
344
21A
  0
ENDTAB
  0
ENDSEC
  0
SECTION
  2
BLOCKS
  0
BLOCK
  5
20
100
AcDbEntity
  8
0
100
AcDbBlockBegin
  2
*Model_Space
 70
0
 10
0.0
 20
0.0
 30
0.0
  3
*Model_Space
  1

  0
ENDBLK
  5
21
100
AcDbEntity
  8
0
100
AcDbBlockEnd
  0
BLOCK
  5
1C
100
AcDbEntity
  8
0
100
AcDbBlockBegin
  2
*Paper_Space
 70
0
 10
0.0
 20
0.0
 30
0.0
  3
*Paper_Space
  1

  0
ENDBLK
  5
1D
100
AcDbEntity
  8
0
100
AcDbBlockEnd
  0
BLOCK
  5
221
100
AcDbEntity
  8
0
100
AcDbBlockBegin
  2
_FILLED
 70
64
 10
0.0
 20
0.0
 30
0.0
  3
_FILLED
  1

  0
SOLID
  5
222
100
AcDbEntity
  8
0
  6
BYBLOCK
 62
0
100
AcDbTrace
 10
0.0
 20
0.0
 30
0.0
 11
-1.0
 21
0.3166666667
 31
0.0
 12
-1.0
 22
-0.3166666667
 32
0.0
 13
-1.0
 23
-0.3166666667
 33
0.0
  0
ENDBLK
  5
223
100
AcDbEntity
  8
0
  6
BYBLOCK
 62
0
100
AcDbBlockEnd
  0
BLOCK
  5
224
100
AcDbEntity
  8
0
100
AcDbBlockBegin
 62
7
  6
CONTINUOUS
  2
*D0
 70
65
 10
0.0
 20
0.0
 30
0.0
  3
*D0
  1

  0
MTEXT
  5
225
100
AcDbEntity
  8
0
100
AcDbMText
 62
7
  6
CONTINUOUS
  7
STANDARD
 71
2
 72
1
 10
159.2272892442
 20
162.2914931252
 30
0.0
 11
1.0
 21
0.0
 31
0.0
 73
2
 44
0.9
  1
{\ftxt;\W0.0001;\H0.0001;\~}{\ftxt;\W3.5;\H3.0; }{\ftxt;\W0.0001;\H0.0001;\~}
 40
3.0
 41
15.75
  0
LINE
  5
226
100
AcDbEntity
  8
0
100
AcDbLine
 62
7
  6
CONTINUOUS
 10
232.5272892442
 20
148.7800601648
 30
0.0
 11
232.5272892442
 21
160.0414931252
 31
0.0
  0
LINE
  5
227
100
AcDbEntity
  8
0
100
AcDbLine
 62
7
  6
CONTINUOUS
 10
85.9272892442
 20
149.0351469648
 30
0.0
 11
85.9272892442
 21
160.0414931252
 31
0.0
  0
LINE
  5
228
100
AcDbEntity
  8
0
100
AcDbLine
 62
7
  6
CONTINUOUS
 10
232.5272892442
 20
158.5414931252
 30
0.0
 11
159.2272892442
 21
158.5414931252
 31
0.0
  0
LINE
  5
229
100
AcDbEntity
  8
0
100
AcDbLine
 62
7
  6
CONTINUOUS
 10
85.9272892442
 20
158.5414931252
 30
0.0
 11
159.2272892442
 21
158.5414931252
 31
0.0
  0
INSERT
  5
22A
100
AcDbEntity
  8
0
100
AcDbBlockReference
 62
7
  6
CONTINUOUS
  2
_FILLED
 10
232.5272892442
 20
158.5414931252
 30
0.0
 41
3.0
 42
3.0
 43
3.0
  0
INSERT
  5
22B
100
AcDbEntity
  8
0
100
AcDbBlockReference
 62
7
  6
CONTINUOUS
  2
_FILLED
 10
85.9272892442
 20
158.5414931252
 30
0.0
 41
3.0
 42
3.0
 43
3.0
 50
180.0
  0
ENDBLK
  5
22C
100
AcDbEntity
  8
0
  6
BYBLOCK
 62
0
100
AcDbBlockEnd
  0
BLOCK
  5
22D
100
AcDbEntity
  8
0
100
AcDbBlockBegin
 62
7
  6
CONTINUOUS
  2
*D1
 70
65
 10
0.0
 20
0.0
 30
0.0
  3
*D1
  1

  0
MTEXT
  5
22E
100
AcDbEntity
  8
0
100
AcDbMText
 62
7
  6
CONTINUOUS
  7
STANDARD
 71
2
 72
1
 10
240.9729882208
 20
107.1475290586
 30
0.0
 11
0.0
 21
1.0
 31
0.0
 73
2
 44
0.9
  1
{\ftxt;\W0.0001;\H0.0001;\~}{\ftxt;\W1.5714285714;\H3.0; }{\ftxt;\W0.0001;\H0.0001;\~}
 40
3.0
 41
7.0714285714
  0
LINE
  5
22F
100
AcDbEntity
  8
0
100
AcDbLine
 62
7
  6
CONTINUOUS
 10
231.0853246224
 20
150.1475290586
 30
0.0
 11
246.2229882208
 21
150.1475290586
 31
0.0
  0
LINE
  5
230
100
AcDbEntity
  8
0
100
AcDbLine
 62
7
  6
CONTINUOUS
 10
231.0310508351
 20
64.1475290586
 30
0.0
 11
246.2229882208
 21
64.1475290586
 31
0.0
  0
LINE
  5
231
100
AcDbEntity
  8
0
100
AcDbLine
 62
7
  6
CONTINUOUS
 10
244.7229882208
 20
150.1475290586
 30
0.0
 11
244.7229882208
 21
107.1475290586
 31
0.0
  0
LINE
  5
232
100
AcDbEntity
  8
0
100
AcDbLine
 62
7
  6
CONTINUOUS
 10
244.7229882208
 20
64.1475290586
 30
0.0
 11
244.7229882208
 21
107.1475290586
 31
0.0
  0
INSERT
  5
233
100
AcDbEntity
  8
0
100
AcDbBlockReference
 62
7
  6
CONTINUOUS
  2
_FILLED
 10
244.7229882208
 20
150.1475290586
 30
0.0
 41
3.0
 42
3.0
 43
3.0
 50
90.0
  0
INSERT
  5
234
100
AcDbEntity
  8
0
100
AcDbBlockReference
 62
7
  6
CONTINUOUS
  2
_FILLED
 10
244.7229882208
 20
64.1475290586
 30
0.0
 41
3.0
 42
3.0
 43
3.0
 50
270.0
  0
ENDBLK
  5
235
100
AcDbEntity
  8
0
  6
BYBLOCK
 62
0
100
AcDbBlockEnd
  0
BLOCK
  5
236
100
AcDbEntity
  8
0
100
AcDbBlockBegin
 62
7
  6
CONTINUOUS
  2
*D2
 70
65
 10
0.0
 20
0.0
 30
0.0
  3
*D2
  1

  0
MTEXT
  5
237
100
AcDbEntity
  8
0
100
AcDbMText
 62
7
  6
CONTINUOUS
  7
STANDARD
 71
2
 72
1
 10
46.4789971591
 20
162.0484922956
 30
0.0
 11
1.0
 21
0.0
 31
0.0
 73
2
 44
0.9
  1
{\ftxt;\W0.0001;\H0.0001;\~}{\ftxt;\W2.1428571429;\H3.0; }{\ftxt;\W0.0001;\H0.0001;\~}
 40
3.0
 41
9.6428571429
  0
LINE
  5
238
100
AcDbEntity
  8
0
100
AcDbLine
 62
7
  6
CONTINUOUS
 10
51.3660720611
 20
149.2117010786
 30
0.0
 11
51.3660720611
 21
159.7984922956
 31
0.0
  0
LINE
  5
239
100
AcDbEntity
  8
0
100
AcDbLine
 62
7
  6
CONTINUOUS
 10
41.5919222572
 20
107.6475451941
 30
0.0
 11
41.5919222572
 21
159.7984922956
 31
0.0
  0
LINE
  5
23A
100
AcDbEntity
  8
0
100
AcDbLine
 62
7
  6
CONTINUOUS
 10
51.3660720611
 20
158.2984922956
 30
0.0
 11
55.3660720611
 21
158.2984922956
 31
0.0
  0
LINE
  5
23B
100
AcDbEntity
  8
0
100
AcDbLine
 62
7
  6
CONTINUOUS
 10
55.3660720611
 20
158.2984922956
 30
0.0
 11
46.4789971591
 21
158.2984922956
 31
0.0
  0
LINE
  5
23C
100
AcDbEntity
  8
0
100
AcDbLine
 62
7
  6
CONTINUOUS
 10
41.5919222572
 20
158.2984922956
 30
0.0
 11
37.5919222572
 21
158.2984922956
 31
0.0
  0
LINE
  5
23D
100
AcDbEntity
  8
0
100
AcDbLine
 62
7
  6
CONTINUOUS
 10
37.5919222572
 20
158.2984922956
 30
0.0
 11
46.4789971591
 21
158.2984922956
 31
0.0
  0
INSERT
  5
23E
100
AcDbEntity
  8
0
100
AcDbBlockReference
 62
7
  6
CONTINUOUS
  2
_FILLED
 10
51.3660720611
 20
158.2984922956
 30
0.0
 41
3.0
 42
3.0
 43
3.0
 50
180.0
  0
INSERT
  5
23F
100
AcDbEntity
  8
0
100
AcDbBlockReference
 62
7
  6
CONTINUOUS
  2
_FILLED
 10
41.5919222572
 20
158.2984922956
 30
0.0
 41
3.0
 42
3.0
 43
3.0
  0
ENDBLK
  5
240
100
AcDbEntity
  8
0
  6
BYBLOCK
 62
0
100
AcDbBlockEnd
  0
ENDSEC
  0
SECTION
  2
ENTITIES
  0
DIMENSION
  5
241
100
AcDbEntity
  8
0
100
AcDbDimension
 62
7
  6
CONTINUOUS
  2
*D0
 10
85.9272892442
 20
158.5414931252
 30
0.0
 11
158.7987251587
 21
158.5414931252
 31
0.0
 70
160
 71
2
 72
2
 41
0.9
 42
146.6
  1
{\ftxt;\W0.0001;\H0.0001;\~}{\ftxt;\W3.5;\H3.0; }{\ftxt;\W0.0001;\H0.0001;\~}
  3
DIMSTYLE_1
100
AcDbAlignedDimension
 13
232.5272892442
 23
148.2800601648
 33
0.0
 14
85.9272892442
 24
148.5351469648
 34
0.0
 50
180.0
100
AcDbRotatedDimension
  0
DIMENSION
  5
242
100
AcDbEntity
  8
0
100
AcDbDimension
 62
7
  6
CONTINUOUS
  2
*D1
 10
244.7229882208
 20
64.1475290586
 30
0.0
 11
244.7229882208
 21
106.7189594736
 31
0.0
 70
160
 71
2
 72
2
 41
0.9
 42
86.0
  1
{\ftxt;\W0.0001;\H0.0001;\~}{\ftxt;\W1.5714285714;\H3.0; }{\ftxt;\W0.0001;\H0.0001;\~}
  3
DIMSTYLE_1
100
AcDbAlignedDimension
 13
230.5853246224
 23
150.1475290586
 33
0.0
 14
230.5310508351
 24
64.1475290586
 34
0.0
 50
270.0
100
AcDbRotatedDimension
  0
DIMENSION
  5
243
100
AcDbEntity
  8
0
100
AcDbDimension
 62
7
  6
CONTINUOUS
  2
*D2
 10
41.5919222572
 20
158.2984922956
 30
0.0
 11
46.0504241867
 21
158.2984922956
 31
0.0
 70
160
 71
2
 72
2
 41
0.9
 42
9.7741498039
  1
{\ftxt;\W0.0001;\H0.0001;\~}{\ftxt;\W2.1428571429;\H3.0; }{\ftxt;\W0.0001;\H0.0001;\~}
  3
DIMSTYLE_2
100
AcDbAlignedDimension
 13
51.3660720611
 23
148.7117010786
 33
0.0
 14
41.5919222572
 24
107.1475451941
 34
0.0
 50
180.0
100
AcDbRotatedDimension
  0
LINE
  5
244
100
AcDbEntity
  8
0
100
AcDbLine
 62
7
  6
CONTINUOUS
 10
85.9272892442
 20
68.1475290586
 30
0.0
 11
85.9272892442
 21
129.4675118645
 31
0.0
  0
LINE
  5
245
100
AcDbEntity
  8
SUPERFICI
100
AcDbLine
 62
7
  6
CONTINUOUS
 10
85.9272892442
 20
129.4675118645
 30
0.0
 11
85.9272892442
 21
146.1475290586
 31
0.0
  0
LINE
  5
246
100
AcDbEntity
  8
RACCORDO
100
AcDbLine
 62
250
  6
CONTINUOUS
 10
86.6121289827
 20
84.8133756678
 30
0.0
 11
86.6146061532
 21
146.1662607306
 31
0.0
  0
LINE
  5
247
100
AcDbEntity
  8
RACCORDO
100
AcDbLine
 62
250
  6
CONTINUOUS
 10
86.614606166
 20
68.1288061272
 30
0.0
 11
86.6121289827
 21
84.8133756678
 31
0.0
  0
LINE
  5
248
100
AcDbEntity
  8
RACCORDO
100
AcDbLine
 62
250
  6
CONTINUOUS
 10
90.3115742913
 20
64.5777121711
 30
0.0
 11
90.3115742913
 21
64.1475290586
 31
0.0
  0
LINE
  5
249
100
AcDbEntity
  8
RACCORDO
100
AcDbLine
 62
250
  6
CONTINUOUS
 10
90.3115742913
 20
149.7173459461
 30
0.0
 11
90.3115742913
 21
150.1475290586
 31
0.0
  0
LINE
  5
24A
100
AcDbEntity
  8
RACCORDO
100
AcDbLine
 62
7
  6
CONTINUOUS
 10
114.1825257637
 20
128.9673686916
 30
0.0
 11
114.1825257637
 21
85.3276894257
 31
0.0
  0
LWPOLYLINE
  5
24B
100
AcDbEntity
  8
0
100
AcDbPolyline
 62
7
  6
CONTINUOUS
 90
3
 70
0
 43
0.3500000006
 10
153.9772970581
 20
161.4343505859
 10
154.8344349976
 20
162.2914885254
 10
154.8344349976
 20
159.2914876099
  0
LINE
  5
24C
100
AcDbEntity
  8
SUPERFICI
100
AcDbLine
 62
7
  6
CONTINUOUS
 10
228.5276643227
 20
64.1475290518
 30
0.0
 11
192.8582703016
 21
64.1475290586
 31
0.0
  0
LINE
  5
24D
100
AcDbEntity
  8
0
100
AcDbLine
 62
7
  6
CONTINUOUS
 10
89.9269141656
 20
64.1475290518
 30
0.0
 11
192.8582703016
 21
64.1475290586
 31
0.0
  0
LINE
  5
24E
100
AcDbEntity
  8
RACCORDO
100
AcDbLine
 62
250
  6
CONTINUOUS
 10
192.8757709506
 20
64.5746362053
 30
0.0
 11
125.5788075378
 21
64.5746362053
 31
0.0
  0
LINE
  5
24F
100
AcDbEntity
  8
RACCORDO
100
AcDbLine
 62
250
  6
CONTINUOUS
 10
192.8772892442
 20
64.8310624692
 30
0.0
 11
125.5772892442
 21
64.8310624692
 31
0.0
  0
LWPOLYLINE
  5
250
100
AcDbEntity
  8
0
100
AcDbPolyline
 62
7
  6
CONTINUOUS
 90
10
 70
0
 43
0.3500000006
 10
159.1201428223
 20
162.2914885254
 10
158.4772893677
 20
161.6486350708
 10
158.0487203979
 20
160.7914971313
 10
158.0487203979
 20
159.7200565796
 10
158.4772893677
 20
159.2914876099
 10
159.1201428223
 20
159.2914876099
 10
159.548711792
 20
159.7200565796
 10
159.548711792
 20
160.5772126465
 10
159.1201428223
 20
161.0057816162
 10
158.1915827637
 20
161.0057816162
  0
LWPOLYLINE
  5
251
100
AcDbEntity
  8
0
100
AcDbPolyline
 62
7
  6
CONTINUOUS
 90
10
 70
0
 43
0.3500000006
 10
163.1915661621
 20
162.2914885254
 10
162.5487127075
 20
161.6486350708
 10
162.1201437378
 20
160.7914971313
 10
162.1201437378
 20
159.7200565796
 10
162.5487127075
 20
159.2914876099
 10
163.1915661621
 20
159.2914876099
 10
163.6201532593
 20
159.7200565796
 10
163.6201532593
 20
160.5772126465
 10
163.1915661621
 20
161.0057816162
 10
162.2630061035
 20
161.0057816162
  0
LINE
  5
252
100
AcDbEntity
  8
RACCORDO
100
AcDbLine
 62
250
  6
CONTINUOUS
 10
86.3572685625
 20
68.5387290586
 30
0.0
 11
85.9272892442
 21
68.5387290586
 31
0.0
  0
LINE
  5
253
100
AcDbEntity
  8
RACCORDO
100
AcDbLine
 62
250
  6
CONTINUOUS
 10
232.0973099259
 20
68.5387290586
 30
0.0
 11
232.5272892442
 21
68.5387290586
 31
0.0
  0
LINE
  5
254
100
AcDbEntity
  8
RACCORDO
100
AcDbLine
 62
250
  6
CONTINUOUS
 10
125.5772892442
 20
84.4605051984
 30
0.0
 11
125.5772892442
 21
64.8310624692
 31
0.0
  0
LINE
  5
255
100
AcDbEntity
  8
RACCORDO
100
AcDbLine
 62
250
  6
CONTINUOUS
 10
125.5772892442
 20
129.8345529188
 30
0.0
 11
125.5772892442
 21
149.463995648
 31
0.0
  0
LINE
  5
256
100
AcDbEntity
  8
RACCORDO
100
AcDbLine
 62
250
  6
CONTINUOUS
 10
125.5963081867
 20
64.5746361969
 30
0.0
 11
125.5963081867
 21
64.1475290586
 31
0.0
  0
LINE
  5
257
100
AcDbEntity
  8
RACCORDO
100
AcDbLine
 62
250
  6
CONTINUOUS
 10
125.5963081867
 20
149.7204219203
 30
0.0
 11
125.5963081867
 21
150.1475290586
 31
0.0
  0
LINE
  5
258
100
AcDbEntity
  8
0
100
AcDbLine
 62
7
  6
CONTINUOUS
 10
164.0122430048
 20
78.9173492779
 30
0.0
 11
163.5103389066
 21
78.9173492779
 31
0.0
  0
LINE
  5
259
100
AcDbEntity
  8
0
100
AcDbLine
 62
7
  6
CONTINUOUS
 10
162.7112850878
 20
78.9173492779
 30
0.0
 11
162.1915917462
 21
78.9173492779
 31
0.0
  0
LINE
  5
25A
100
AcDbEntity
  8
0
100
AcDbLine
 62
7
  6
CONTINUOUS
 10
162.0383682442
 20
78.9173490586
 30
0.0
 11
161.4884202442
 21
78.9173490586
 31
0.0
  0
LINE
  5
25B
100
AcDbEntity
  8
0
100
AcDbLine
 62
7
  6
CONTINUOUS
 10
160.4986702442
 20
78.9173490586
 30
0.0
 11
159.9825392442
 21
78.9173490586
 31
0.0
  0
LINE
  5
25C
100
AcDbEntity
  8
0
100
AcDbLine
 62
7
  6
CONTINUOUS
 10
159.9006032442
 20
78.9173490586
 30
0.0
 11
159.3901512442
 21
78.9173490586
 31
0.0
  0
LINE
  5
25D
100
AcDbEntity
  8
0
100
AcDbLine
 62
7
  6
CONTINUOUS
 10
158.6625362442
 20
78.9173490586
 30
0.0
 11
158.5893542442
 21
78.9173490586
 31
0.0
  0
LINE
  5
25E
100
AcDbEntity
  8
0
100
AcDbLine
 62
7
  6
CONTINUOUS
 10
157.8646252442
 20
78.9173490586
 30
0.0
 11
157.3654392442
 21
78.9173490586
 31
0.0
  0
LINE
  5
25F
100
AcDbEntity
  8
0
100
AcDbLine
 62
7
  6
CONTINUOUS
 10
157.0845422442
 20
78.9173490586
 30
0.0
 11
156.5627492442
 21
78.9173490586
 31
0.0
  0
LINE
  5
260
100
AcDbEntity
  8
0
100
AcDbLine
 62
7
  6
CONTINUOUS
 10
155.5655952442
 20
78.9173490586
 30
0.0
 11
155.1057652442
 21
78.9173490586
 31
0.0
  0
LINE
  5
261
100
AcDbEntity
  8
0
100
AcDbLine
 62
7
  6
CONTINUOUS
 10
161.3532482442
 20
79.4163850586
 30
0.0
 11
160.6426532442
 21
79.4163850586
 31
0.0
  0
LINE
  5
262
100
AcDbEntity
  8
0
100
AcDbLine
 62
7
  6
CONTINUOUS
 10
160.7493882442
 20
79.8025370586
 30
0.0
 11
161.2489682442
 21
79.8025370586
 31
0.0
  0
LINE
  5
263
100
AcDbEntity
  8
0
100
AcDbLine
 62
7
  6
CONTINUOUS
 10
162.9910579605
 20
79.8956076972
 30
0.0
 11
162.7112850878
 21
79.8956076972
 31
0.0
  0
LINE
  5
264
100
AcDbEntity
  8
0
100
AcDbLine
 62
7
  6
CONTINUOUS
 10
162.693983221
 20
80.3050039813
 30
0.0
 11
162.9921826756
 21
80.3050039813
 31
0.0
  0
LINE
  5
265
100
AcDbEntity
  8
0
100
AcDbLine
 62
7
  6
CONTINUOUS
 10
154.3133002442
 20
81.4170850586
 30
0.0
 11
154.8801282442
 21
81.4170850586
 31
0.0
  0
LINE
  5
266
100
AcDbEntity
  8
0
100
AcDbLine
 62
7
  6
CONTINUOUS
 10
155.8476742442
 20
81.4170850586
 30
0.0
 11
156.3691102442
 21
81.4170850586
 31
0.0
  0
LINE
  5
267
100
AcDbEntity
  8
0
100
AcDbLine
 62
7
  6
CONTINUOUS
 10
157.5911512442
 20
81.4170850586
 30
0.0
 11
158.1125122442
 21
81.4170850586
 31
0.0
  0
LINE
  5
268
100
AcDbEntity
  8
0
100
AcDbLine
 62
7
  6
CONTINUOUS
 10
159.1505872442
 20
81.4170850586
 30
0.0
 11
159.6668502442
 21
81.4170850586
 31
0.0
  0
LINE
  5
269
100
AcDbEntity
  8
0
100
AcDbLine
 62
7
  6
CONTINUOUS
 10
160.7666152442
 20
81.4170850586
 30
0.0
 11
161.2713872442
 21
81.4170850586
 31
0.0
  0
LINE
  5
26A
100
AcDbEntity
  8
0
100
AcDbLine
 62
7
  6
CONTINUOUS
 10
156.5627492442
 20
81.4172350586
 30
0.0
 11
157.0845422442
 21
81.4172350586
 31
0.0
  0
LINE
  5
26B
100
AcDbEntity
  8
RACCORDO
100
AcDbLine
 62
250
  6
CONTINUOUS
 10
231.8424324701
 20
84.6475290586
 30
0.0
 11
204.3387429026
 21
84.6475290586
 31
0.0
  0
LINE
  5
26C
100
AcDbEntity
  8
RACCORDO
100
AcDbLine
 62
250
  6
CONTINUOUS
 10
86.6121460183
 20
84.6475290586
 30
0.0
 11
114.1158355858
 21
84.6475290586
 31
0.0
  0
LINE
  5
26D
100
AcDbEntity
  8
RACCORDO
100
AcDbLine
 62
7
  6
CONTINUOUS
 10
114.6824496112
 20
84.8277655781
 30
0.0
 11
203.7721288771
 21
84.8277655781
 31
0.0
  0
LINE
  5
26E
100
AcDbEntity
  8
RACCORDO
100
AcDbLine
 62
250
  6
CONTINUOUS
 10
86.3547459172
 20
84.8275602801
 30
0.0
 11
85.9272892442
 21
84.8275462527
 31
0.0
  0
LINE
  5
26F
100
AcDbEntity
  8
RACCORDO
100
AcDbLine
 62
250
  6
CONTINUOUS
 10
232.0998325711
 20
84.8275602801
 30
0.0
 11
232.5272892442
 21
84.8275462527
 31
0.0
  0
LWPOLYLINE
  5
270
100
AcDbEntity
  8
0
100
AcDbPolyline
 62
7
  6
CONTINUOUS
 90
3
 70
0
 43
0.3500000006
 10
161.1201434326
 20
159.5772123413
 10
161.0487213135
 20
159.3629278564
 10
160.9058589478
 20
159.077203125
  0
LINE
  5
271
100
AcDbEntity
  8
RACCORDO
100
AcDbLine
 62
250
  6
CONTINUOUS
 10
114.1343350783
 20
85.2794987403
 30
0.0
 11
114.1825257637
 21
85.3276894257
 31
0.0
  0
LINE
  5
272
100
AcDbEntity
  8
RACCORDO
100
AcDbLine
 62
250
  6
CONTINUOUS
 10
114.6346626736
 20
84.7799786405
 30
0.0
 11
114.6824496112
 21
84.8277655781
 31
0.0
  0
LINE
  5
273
100
AcDbEntity
  8
RACCORDO
100
AcDbLine
 62
250
  6
CONTINUOUS
 10
114.1343350783
 20
129.0155593769
 30
0.0
 11
114.1825257637
 21
128.9673686916
 31
0.0
  0
LINE
  5
274
100
AcDbEntity
  8
RACCORDO
100
AcDbLine
 62
250
  6
CONTINUOUS
 10
114.6346626736
 20
129.5150794768
 30
0.0
 11
114.6824496112
 21
129.4672925391
 31
0.0
  0
LINE
  5
275
100
AcDbEntity
  8
0
100
AcDbLine
 62
7
  6
CONTINUOUS
 10
158.5893542442
 20
78.9173490586
 30
0.0
 11
157.9772282442
 21
80.5496290586
 31
0.0
  0
LINE
  5
276
100
AcDbEntity
  8
0
100
AcDbLine
 62
7
  6
CONTINUOUS
 10
158.1125122442
 20
81.4170850586
 30
0.0
 11
158.6287942442
 21
80.0292240586
 31
0.0
  0
LINE
  5
277
100
AcDbEntity
  8
0
100
AcDbLine
 62
7
  6
CONTINUOUS
 10
155.1057652442
 20
78.9173490586
 30
0.0
 11
154.3133002442
 21
81.4170850586
 31
0.0
  0
LINE
  5
278
100
AcDbEntity
  8
0
100
AcDbLine
 62
7
  6
CONTINUOUS
 10
154.8801282442
 20
81.4170850586
 30
0.0
 11
155.3566232442
 21
79.6964390586
 31
0.0
  0
LINE
  5
279
100
AcDbEntity
  8
0
100
AcDbLine
 62
7
  6
CONTINUOUS
 10
159.6668502442
 20
81.4170850586
 30
0.0
 11
159.9006032442
 21
78.9173490586
 31
0.0
  0
LINE
  5
27A
100
AcDbEntity
  8
0
100
AcDbLine
 62
7
  6
CONTINUOUS
 10
159.3901512442
 20
78.9173490586
 30
0.0
 11
159.2829472442
 21
80.5428250586
 31
0.0
  0
LINE
  5
27B
100
AcDbEntity
  8
0
100
AcDbLine
 62
7
  6
CONTINUOUS
 10
156.5627492442
 20
78.9173490586
 30
0.0
 11
156.5627492442
 21
81.4172350586
 31
0.0
  0
LWPOLYLINE
  5
27C
100
AcDbEntity
  8
0
100
AcDbPolyline
 62
7
  6
CONTINUOUS
 90
2
 70
0
 43
0.3500000006
 10
156.6915732422
 20
159.2914876099
 10
156.6915732422
 20
160.7914971313
  0
LINE
  5
27D
100
AcDbEntity
  8
0
100
AcDbLine
 62
7
  6
CONTINUOUS
 10
157.0845422442
 20
81.4172350586
 30
0.0
 11
157.0845422442
 21
78.9173490586
 31
0.0
  0
LWPOLYLINE
  5
27E
100
AcDbEntity
  8
0
100
AcDbPolyline
 62
7
  6
CONTINUOUS
 90
4
 70
0
 43
0.3500000006
 10
243.5444230957
 20
104.7903833313
 10
242.6872670288
 20
104.7903833313
 10
242.2586980591
 20
105.2189613647
 10
242.2586980591
 20
105.8618148193
  0
LINE
  5
27F
100
AcDbEntity
  8
0
100
AcDbLine
 62
7
  6
CONTINUOUS
 10
161.2713872442
 20
81.4170850586
 30
0.0
 11
162.0383682442
 21
78.9173490586
 31
0.0
  0
LINE
  5
280
100
AcDbEntity
  8
0
100
AcDbLine
 62
7
  6
CONTINUOUS
 10
161.4884202442
 20
78.9173490586
 30
0.0
 11
161.3532482442
 21
79.4163850586
 31
0.0
  0
LINE
  5
281
100
AcDbEntity
  8
0
100
AcDbLine
 62
7
  6
CONTINUOUS
 10
161.2489682442
 20
79.8025370586
 30
0.0
 11
161.0091972442
 21
80.7302210586
 31
0.0
  0
LINE
  5
282
100
AcDbEntity
  8
0
100
AcDbLine
 62
250
  6
CONTINUOUS
 10
159.2272892442
 20
84.4587591256
 30
0.0
 11
159.2272892442
 21
64.8310542974
 31
0.0
  0
LINE
  5
283
100
AcDbEntity
  8
RACCORDO
100
AcDbLine
 62
250
  6
CONTINUOUS
 10
159.2272892442
 20
64.1475290586
 30
0.0
 11
159.2272892442
 21
64.8310542974
 31
0.0
  0
LINE
  5
284
100
AcDbEntity
  8
RACCORDO
100
AcDbLine
 62
250
  6
CONTINUOUS
 10
159.2272892442
 20
84.4587591256
 30
0.0
 11
159.2272892442
 21
84.7758149581
 31
0.0
  0
LINE
  5
285
100
AcDbEntity
  8
RACCORDO
100
AcDbLine
 62
250
  6
CONTINUOUS
 10
159.2272892442
 20
129.5192431591
 30
0.0
 11
159.2272892442
 21
150.1475290586
 31
0.0
  0
LINE
  5
286
100
AcDbEntity
  8
0
100
AcDbLine
 62
7
  6
CONTINUOUS
 10
162.1915917462
 20
78.9173492779
 30
0.0
 11
162.1915917462
 21
81.387879647
 31
0.0
  0
LINE
  5
287
100
AcDbEntity
  8
0
100
AcDbLine
 62
7
  6
CONTINUOUS
 10
162.693983221
 20
80.9912301337
 30
0.0
 11
162.693983221
 21
80.3050039813
 31
0.0
  0
LINE
  5
288
100
AcDbEntity
  8
0
100
AcDbLine
 62
7
  6
CONTINUOUS
 10
162.7112850878
 20
79.8956076972
 30
0.0
 11
162.7112850878
 21
78.9173492779
 31
0.0
  0
LINE
  5
289
100
AcDbEntity
  8
0
100
AcDbLine
 62
7
  6
CONTINUOUS
 10
163.5330956414
 20
80.0989749264
 30
0.0
 11
163.5330956414
 21
80.0842036686
 31
0.0
  0
LINE
  5
28A
100
AcDbEntity
  8
0
100
AcDbLine
 62
7
  6
CONTINUOUS
 10
157.9772282442
 20
80.5496290586
 30
0.0
 11
157.8646252442
 21
78.9173490586
 31
0.0
  0
LINE
  5
28B
100
AcDbEntity
  8
0
100
AcDbLine
 62
7
  6
CONTINUOUS
 10
157.3654392442
 20
78.9173490586
 30
0.0
 11
157.5911512442
 21
81.4170850586
 31
0.0
  0
LINE
  5
28C
100
AcDbEntity
  8
0
100
AcDbLine
 62
7
  6
CONTINUOUS
 10
155.3566232442
 20
79.6964390586
 30
0.0
 11
155.8476742442
 21
81.4170850586
 31
0.0
  0
LINE
  5
28D
100
AcDbEntity
  8
0
100
AcDbLine
 62
7
  6
CONTINUOUS
 10
156.3691102442
 20
81.4170850586
 30
0.0
 11
155.5655952442
 21
78.9173490586
 31
0.0
  0
LINE
  5
28E
100
AcDbEntity
  8
RACCORDO
100
AcDbLine
 62
250
  6
CONTINUOUS
 10
232.5272892442
 20
107.1475290586
 30
0.0
 11
204.3292966612
 21
107.1475290423
 31
0.0
  0
LINE
  5
28F
100
AcDbEntity
  8
RACCORDO
100
AcDbLine
 62
250
  6
CONTINUOUS
 10
85.9272892442
 20
107.1475290586
 30
0.0
 11
114.1252818272
 21
107.1475290749
 31
0.0
  0
LINE
  5
290
100
AcDbEntity
  8
0
100
AcDbLine
 62
7
  6
CONTINUOUS
 10
161.0091972442
 20
80.7302210586
 30
0.0
 11
160.7493882442
 21
79.8025370586
 31
0.0
  0
LINE
  5
291
100
AcDbEntity
  8
0
100
AcDbLine
 62
7
  6
CONTINUOUS
 10
160.6426532442
 20
79.4163850586
 30
0.0
 11
160.4986702442
 21
78.9173490586
 31
0.0
  0
LINE
  5
292
100
AcDbEntity
  8
0
100
AcDbLine
 62
7
  6
CONTINUOUS
 10
159.9825392442
 20
78.9173490586
 30
0.0
 11
160.7666152442
 21
81.4170850586
 31
0.0
  0
LINE
  5
293
100
AcDbEntity
  8
0
100
AcDbLine
 62
7
  6
CONTINUOUS
 10
158.6287942442
 20
80.0292240586
 30
0.0
 11
159.1505872442
 21
81.4170850586
 31
0.0
  0
LINE
  5
294
100
AcDbEntity
  8
0
100
AcDbLine
 62
7
  6
CONTINUOUS
 10
159.2829472442
 20
80.5428250586
 30
0.0
 11
158.6625362442
 21
78.9173490586
 31
0.0
  0
LINE
  5
295
100
AcDbEntity
  8
RACCORDO
100
AcDbLine
 62
250
  6
CONTINUOUS
 10
203.8199158148
 20
129.5150794768
 30
0.0
 11
203.7721288771
 21
129.4672925391
 31
0.0
  0
LINE
  5
296
100
AcDbEntity
  8
RACCORDO
100
AcDbLine
 62
250
  6
CONTINUOUS
 10
204.3202434101
 20
129.0155593769
 30
0.0
 11
204.2720527247
 21
128.9673686916
 31
0.0
  0
LINE
  5
297
100
AcDbEntity
  8
RACCORDO
100
AcDbLine
 62
250
  6
CONTINUOUS
 10
203.7721288771
 20
84.8277655781
 30
0.0
 11
203.8199158148
 21
84.7799786405
 31
0.0
  0
LINE
  5
298
100
AcDbEntity
  8
RACCORDO
100
AcDbLine
 62
250
  6
CONTINUOUS
 10
232.0998325711
 20
129.4674978371
 30
0.0
 11
232.5272892442
 21
129.4675118645
 31
0.0
  0
LINE
  5
299
100
AcDbEntity
  8
RACCORDO
100
AcDbLine
 62
250
  6
CONTINUOUS
 10
86.3547459172
 20
129.4674978371
 30
0.0
 11
85.9272892442
 21
129.4675118645
 31
0.0
  0
LINE
  5
29A
100
AcDbEntity
  8
RACCORDO
100
AcDbLine
 62
7
  6
CONTINUOUS
 10
203.7721288771
 20
129.4672925391
 30
0.0
 11
114.6824496112
 21
129.4672925391
 31
0.0
  0
LINE
  5
29B
100
AcDbEntity
  8
RACCORDO
100
AcDbLine
 62
250
  6
CONTINUOUS
 10
204.2720527247
 20
85.3276894257
 30
0.0
 11
204.3202434101
 21
85.2794987403
 31
0.0
  0
LINE
  5
29C
100
AcDbEntity
  8
RACCORDO
100
AcDbLine
 62
250
  6
CONTINUOUS
 10
231.8424324701
 20
129.6475290586
 30
0.0
 11
204.3387429026
 21
129.6475290586
 31
0.0
  0
LINE
  5
29D
100
AcDbEntity
  8
RACCORDO
100
AcDbLine
 62
250
  6
CONTINUOUS
 10
86.6121460183
 20
129.6475290586
 30
0.0
 11
114.1158355858
 21
129.6475290586
 31
0.0
  0
LWPOLYLINE
  5
29E
100
AcDbEntity
  8
0
100
AcDbPolyline
 62
7
  6
CONTINUOUS
 90
10
 70
0
 43
0.3500000006
 10
161.0487213135
 20
159.7914968262
 10
161.1201434326
 20
159.6486344604
 10
161.1201434326
 20
159.5772123413
 10
160.9772810669
 20
159.4343499756
 10
160.9058589478
 20
159.4343499756
 10
160.8344368286
 20
159.5057720947
 10
160.8344368286
 20
159.5772123413
 10
160.9058589478
 20
159.7200565796
 10
160.9772810669
 20
159.7914968262
 10
161.0487213135
 20
159.7914968262
  0
LINE
  5
29F
100
AcDbEntity
  8
RACCORDO
100
AcDbLine
 62
250
  6
CONTINUOUS
 10
192.8582703016
 20
64.5746361969
 30
0.0
 11
192.8582703016
 21
64.1475290586
 31
0.0
  0
LINE
  5
2A0
100
AcDbEntity
  8
RACCORDO
100
AcDbLine
 62
250
  6
CONTINUOUS
 10
192.8582703016
 20
149.7204219203
 30
0.0
 11
192.8582703016
 21
150.1475290586
 31
0.0
  0
LINE
  5
2A1
100
AcDbEntity
  8
RACCORDO
100
AcDbLine
 62
250
  6
CONTINUOUS
 10
192.8772892442
 20
84.4605051984
 30
0.0
 11
192.8772892442
 21
64.8310624692
 31
0.0
  0
LINE
  5
2A2
100
AcDbEntity
  8
RACCORDO
100
AcDbLine
 62
250
  6
CONTINUOUS
 10
192.8772892442
 20
129.8345529188
 30
0.0
 11
192.8772892442
 21
149.463995648
 31
0.0
  0
LINE
  5
2A3
100
AcDbEntity
  8
RACCORDO
100
AcDbLine
 62
250
  6
CONTINUOUS
 10
86.3572685625
 20
145.7563290586
 30
0.0
 11
85.9272892442
 21
145.7563290586
 31
0.0
  0
LINE
  5
2A4
100
AcDbEntity
  8
RACCORDO
100
AcDbLine
 62
250
  6
CONTINUOUS
 10
232.0973099259
 20
145.7563290586
 30
0.0
 11
232.5272892442
 21
145.7563290586
 31
0.0
  0
LINE
  5
2A5
100
AcDbEntity
  8
RACCORDO
100
AcDbLine
 62
7
  6
CONTINUOUS
 10
204.2720527247
 20
85.3276894257
 30
0.0
 11
204.2720527247
 21
128.9673686916
 31
0.0
  0
LINE
  5
2A6
100
AcDbEntity
  8
RACCORDO
100
AcDbLine
 62
250
  6
CONTINUOUS
 10
125.5772892442
 20
149.463995648
 30
0.0
 11
192.8772892442
 21
149.463995648
 31
0.0
  0
LINE
  5
2A7
100
AcDbEntity
  8
RACCORDO
100
AcDbLine
 62
250
  6
CONTINUOUS
 10
125.5788075378
 20
149.7204219119
 30
0.0
 11
192.8757709506
 21
149.7204219119
 31
0.0
  0
LINE
  5
2A8
100
AcDbEntity
  8
SUPERFICI
100
AcDbLine
 62
7
  6
CONTINUOUS
 10
228.5276643227
 20
150.1475290654
 30
0.0
 11
192.8582703016
 21
150.1475290586
 31
0.0
  0
LINE
  5
2A9
100
AcDbEntity
  8
SUPERFICI
100
AcDbLine
 62
7
  6
CONTINUOUS
 10
89.9269141656
 20
150.1475290654
 30
0.0
 11
125.5963081867
 21
150.1475290586
 31
0.0
  0
LINE
  5
2AA
100
AcDbEntity
  8
0
100
AcDbLine
 62
7
  6
CONTINUOUS
 10
125.5963081867
 20
150.1475290586
 30
0.0
 11
192.8582703016
 21
150.1475290586
 31
0.0
  0
LWPOLYLINE
  5
2AB
100
AcDbEntity
  8
0
100
AcDbPolyline
 62
7
  6
CONTINUOUS
 90
3
 70
0
 43
0.3500000006
 10
157.1915824585
 20
159.9343591919
 10
155.691572937
 20
159.9343591919
 10
156.3344263916
 20
162.2914885254
  0
LWPOLYLINE
  5
2AC
100
AcDbEntity
  8
0
100
AcDbPolyline
 62
7
  6
CONTINUOUS
 90
10
 70
0
 43
0.3500000006
 10
240.9729911499
 20
108.2189532166
 10
241.6158446045
 20
107.576099762
 10
242.4729825439
 20
107.1475307922
 10
243.5444230957
 20
107.1475307922
 10
243.9729920654
 20
107.576099762
 10
243.9729920654
 20
108.2189532166
 10
243.5444230957
 20
108.64753125
 10
242.6872670288
 20
108.64753125
 10
242.2586980591
 20
108.2189532166
 10
242.2586980591
 20
107.2903840942
  0
LWPOLYLINE
  5
2AD
100
AcDbEntity
  8
0
100
AcDbPolyline
 62
7
  6
CONTINUOUS
 90
13
 70
0
 43
0.3500000006
 10
242.2586980591
 20
105.2189613647
 10
242.0444135742
 20
104.933245697
 10
241.4015601196
 20
104.933245697
 10
240.9729911499
 20
105.2189613647
 10
240.9729911499
 20
105.8618148193
 10
241.4015601196
 20
106.1475304871
 10
242.0444135742
 20
106.1475304871
 10
242.2586980591
 20
105.8618148193
 10
242.6872670288
 20
106.2903837891
 10
243.5444230957
 20
106.2903837891
 10
243.9729920654
 20
105.8618148193
 10
243.9729920654
 20
105.2189613647
 10
243.5444230957
 20
104.7903833313
  0
LINE
  5
2AE
100
AcDbEntity
  8
RACCORDO
100
AcDbLine
 62
250
  6
CONTINUOUS
 10
228.143004197
 20
64.5777121711
 30
0.0
 11
228.143004197
 21
64.1475290586
 31
0.0
  0
LINE
  5
2AF
100
AcDbEntity
  8
RACCORDO
100
AcDbLine
 62
250
  6
CONTINUOUS
 10
228.143004197
 20
149.7173459461
 30
0.0
 11
228.143004197
 21
150.1475290586
 31
0.0
  0
LINE
  5
2B0
100
AcDbEntity
  8
SUPERFICI
100
AcDbLine
 62
7
  6
CONTINUOUS
 10
232.5272892442
 20
68.1475290586
 30
0.0
 11
232.5272892442
 21
146.1475290586
 31
0.0
  0
LINE
  5
2B1
100
AcDbEntity
  8
RACCORDO
100
AcDbLine
 62
250
  6
CONTINUOUS
 10
231.8424495057
 20
129.4816824503
 30
0.0
 11
231.8399723352
 21
68.1287973866
 31
0.0
  0
LINE
  5
2B2
100
AcDbEntity
  8
RACCORDO
100
AcDbLine
 62
250
  6
CONTINUOUS
 10
231.8399723224
 20
146.16625199
 30
0.0
 11
231.8424495057
 21
129.4816824503
 31
0.0
  0
LINE
  5
2B3
100
AcDbEntity
  8
SUPERFICI
100
AcDbLine
 62
7
  6
CONTINUOUS
 10
49.1545361967
 20
64.1475290518
 30
0.0
 11
47.1896212931
 21
64.1475290586
 31
0.0
  0
LINE
  5
2B4
100
AcDbEntity
  8
0
100
AcDbLine
 62
7
  6
CONTINUOUS
 10
47.1896212931
 20
64.1475290586
 30
0.0
 11
47.0896778124
 21
64.1475290586
 31
0.0
  0
LWPOLYLINE
  5
2B5
100
AcDbEntity
  8
0
100
AcDbPolyline
 62
7
  6
CONTINUOUS
 90
10
 70
0
 43
0.3500000006
 10
43.6932835236
 20
159.0484892578
 10
44.5504259949
 20
159.9056271973
 10
44.7647104797
 20
160.7627832642
 10
44.7647104797
 20
161.6199212036
 10
44.33614151
 20
162.0484901733
 10
43.6932835236
 20
162.0484901733
 10
43.264710022
 20
161.6199212036
 10
43.264710022
 20
160.7627832642
 10
43.6932835236
 20
160.3342142944
 10
44.6218526459
 20
160.3342142944
  0
LINE
  5
2B6
100
AcDbEntity
  8
RACCORDO
100
AcDbLine
 62
250
  6
CONTINUOUS
 10
46.049220742
 20
64.5777121711
 30
0.0
 11
44.1507000806
 21
64.5746362053
 31
0.0
  0
LINE
  5
2B7
100
AcDbEntity
  8
RACCORDO
100
AcDbLine
 62
7
  6
CONTINUOUS
 10
44.1505960929
 20
64.5746361969
 30
0.0
 11
44.0507063361
 21
64.5746286465
 31
0.0
  0
LINE
  5
2B8
100
AcDbEntity
  8
RACCORDO
100
AcDbLine
 62
250
  6
CONTINUOUS
 10
45.7957988926
 20
64.8343821751
 30
0.0
 11
43.7952257149
 21
64.8310542974
 31
0.0
  0
LINE
  5
2B9
100
AcDbEntity
  8
RACCORDO
100
AcDbLine
 62
7
  6
CONTINUOUS
 10
47.0896778124
 20
64.1475290586
 30
0.0
 11
44.0507063361
 21
64.5746286465
 31
0.0
  0
LINE
  5
2BA
100
AcDbEntity
  8
RACCORDO
100
AcDbLine
 62
7
  6
CONTINUOUS
 10
44.1505960929
 20
64.5746361969
 30
0.0
 11
47.1896212931
 21
64.1475290586
 31
0.0
  0
LINE
  5
2BB
100
AcDbEntity
  8
RACCORDO
100
AcDbLine
 62
250
  6
CONTINUOUS
 10
46.049220742
 20
64.5777121711
 30
0.0
 11
49.1101326358
 21
64.1475290586
 31
0.0
  0
LINE
  5
2BC
100
AcDbEntity
  8
RACCORDO
100
AcDbLine
 62
250
  6
CONTINUOUS
 10
46.0388718729
 20
68.5387290601
 30
0.0
 11
45.785402244
 21
68.5079434235
 31
0.0
  0
LINE
  5
2BD
100
AcDbEntity
  8
RACCORDO
100
AcDbLine
 62
250
  6
CONTINUOUS
 10
51.2918248697
 20
68.1474898893
 30
0.0
 11
49.1450371494
 21
68.1463575657
 31
0.0
  0
LINE
  5
2BE
100
AcDbEntity
  8
RACCORDO
100
AcDbLine
 62
250
  6
CONTINUOUS
 10
46.0388718731
 20
68.5387290586
 30
0.0
 11
49.0983336956
 21
68.5387290586
 31
0.0
  0
LINE
  5
2BF
100
AcDbEntity
  8
RACCORDO
100
AcDbLine
 62
250
  6
CONTINUOUS
 10
51.2906493071
 20
68.4751392998
 30
0.0
 11
49.0979716589
 21
68.5416684429
 31
0.0
  0
LINE
  5
2C0
100
AcDbEntity
  8
0
100
AcDbLine
 62
7
  6
CONTINUOUS
 10
42.1955373402
 20
78.9173492779
 30
0.0
 11
42.2757726279
 21
78.9173492779
 31
0.0
  0
LINE
  5
2C1
100
AcDbEntity
  8
0
100
AcDbLine
 62
250
  6
CONTINUOUS
 10
42.1425985427
 20
79.5938681407
 30
0.0
 11
42.2228193875
 21
79.5938681407
 31
0.0
  0
LINE
  5
2C2
100
AcDbEntity
  8
0
100
AcDbLine
 62
7
  6
CONTINUOUS
 10
42.1052534329
 20
80.0842036686
 30
0.0
 11
42.1854642572
 21
80.0842036686
 31
0.0
  0
LINE
  5
2C3
100
AcDbEntity
  8
0
100
AcDbLine
 62
7
  6
CONTINUOUS
 10
42.1041505948
 20
80.0989749264
 30
0.0
 11
42.1843611227
 21
80.0989749264
 31
0.0
  0
LINE
  5
2C4
100
AcDbEntity
  8
0
100
AcDbLine
 62
250
  6
CONTINUOUS
 10
42.0130942379
 20
81.3615613144
 30
0.0
 11
42.0932804163
 21
81.3615613145
 31
0.0
  0
LINE
  5
2C5
100
AcDbEntity
  8
SUPERFICI
100
AcDbLine
 62
7
  6
CONTINUOUS
 10
42.0869682961
 20
81.4464143436
 30
0.0
 11
42.006783702
 21
81.4464143436
 31
0.0
  0
LINE
  5
2C6
100
AcDbEntity
  8
RACCORDO
100
AcDbLine
 62
250
  6
CONTINUOUS
 10
44.6056888443
 20
84.6618753908
 30
0.0
 11
44.3505469289
 21
84.6475290586
 31
0.0
  0
LINE
  5
2C7
100
AcDbEntity
  8
RACCORDO
100
AcDbLine
 62
250
  6
CONTINUOUS
 10
44.5964111315
 20
84.8275602802
 30
0.0
 11
44.3412587994
 21
84.8133756669
 31
0.0
  0
LINE
  5
2C8
100
AcDbEntity
  8
RACCORDO
100
AcDbLine
 62
250
  6
CONTINUOUS
 10
42.1341781556
 20
84.4629332195
 30
0.0
 11
41.8955465906
 21
84.4587591256
 31
0.0
  0
LINE
  5
2C9
100
AcDbEntity
  8
RACCORDO
100
AcDbLine
 62
250
  6
CONTINUOUS
 10
44.3505469289
 20
84.6475290586
 30
0.0
 11
42.137029824
 21
84.6475290586
 31
0.0
  0
LINE
  5
2CA
100
AcDbEntity
  8
RACCORDO
100
AcDbLine
 62
250
  6
CONTINUOUS
 10
44.5964111315
 20
84.8275602801
 30
0.0
 11
47.6379241909
 21
84.8275462527
 31
0.0
  0
LINE
  5
2CB
100
AcDbEntity
  8
RACCORDO
100
AcDbLine
 62
250
  6
CONTINUOUS
 10
51.3660720611
 20
84.6523236891
 30
0.0
 11
51.2654466405
 21
84.6523985991
 31
0.0
  0
LINE
  5
2CC
100
AcDbEntity
  8
RACCORDO
100
AcDbLine
 62
250
  6
CONTINUOUS
 10
51.2654466405
 20
84.6523985991
 30
0.0
 11
47.6379021186
 21
84.8279386699
 31
0.0
  0
LINE
  5
2CD
100
AcDbEntity
  8
RACCORDO
100
AcDbLine
 62
250
  6
CONTINUOUS
 10
42.111018
 20
85.2633347252
 30
0.0
 11
42.110900961
 21
85.2633362752
 31
0.0
  0
LWPOLYLINE
  5
2CE
100
AcDbEntity
  8
0
100
AcDbPolyline
 62
7
  6
CONTINUOUS
 90
3
 70
0
 43
0.3500000006
 10
46.3361421204
 20
159.3342139893
 10
46.2647109375
 20
159.1199295044
 10
46.1218531036
 20
158.8342047729
  0
LWPOLYLINE
  5
2CF
100
AcDbEntity
  8
0
100
AcDbPolyline
 62
7
  6
CONTINUOUS
 90
4
 70
0
 10
42.0067855788
 20
81.4464143436
 10
42.0067985953
 20
81.446371304
 10
42.0068859401
 20
81.4455795041
 10
42.0070500953
 20
81.443746198
  0
LWPOLYLINE
  5
2D0
100
AcDbEntity
  8
0
100
AcDbPolyline
 62
7
  6
CONTINUOUS
 90
4
 70
0
 10
42.087233082
 20
81.4437658137
 10
42.0870692978
 20
81.4456117503
 10
42.086982597
 20
81.4463523502
 10
42.0869702106
 20
81.4463866846
  0
LINE
  5
2D1
100
AcDbEntity
  8
0
100
AcDbLine
 62
7
  6
CONTINUOUS
 10
42.0877836373
 20
81.436879087
 30
0.0
 11
42.087233082
 21
81.4437658137
 31
0.0
  0
LINE
  5
2D2
100
AcDbEntity
  8
0
100
AcDbLine
 62
7
  6
CONTINUOUS
 10
42.213099327
 20
79.7206588985
 30
0.0
 11
42.1854642572
 21
80.0842036686
 31
0.0
  0
LINE
  5
2D3
100
AcDbEntity
  8
0
100
AcDbLine
 62
7
  6
CONTINUOUS
 10
42.0825701085
 20
80.3934669695
 30
0.0
 11
42.143072469
 21
79.587720477
 31
0.0
  0
LINE
  5
2D4
100
AcDbEntity
  8
0
100
AcDbLine
 62
7
  6
CONTINUOUS
 10
42.1843611227
 20
80.0989749264
 30
0.0
 11
42.1627756131
 21
80.393455719
 31
0.0
  0
LINE
  5
2D5
100
AcDbEntity
  8
0
100
AcDbLine
 62
7
  6
CONTINUOUS
 10
42.1239316889
 20
80.9305762991
 30
0.0
 11
42.0869682906
 21
81.4464083666
 31
0.0
  0
LINE
  5
2D6
100
AcDbEntity
  8
0
100
AcDbLine
 62
7
  6
CONTINUOUS
 10
42.0067841088
 20
81.4464084399
 30
0.0
 11
42.0429666004
 21
80.9413613011
 31
0.0
  0
LINE
  5
2D7
100
AcDbEntity
  8
RACCORDO
100
AcDbLine
 62
250
  6
CONTINUOUS
 10
44.3412576757
 20
84.8133756047
 30
0.0
 11
44.3505480753
 21
84.6475291232
 31
0.0
  0
LWPOLYLINE
  5
2D8
100
AcDbEntity
  8
RACCORDO
100
AcDbPolyline
 62
7
  6
CONTINUOUS
 90
7
 70
0
 10
42.137445637
 20
129.7782888743
 10
42.1374740061
 20
129.7777637841
 10
42.137530503
 20
129.776539236
 10
42.1375998672
 20
129.774752538
 10
42.1376758529
 20
129.7724061648
 10
42.1377538596
 20
129.7694735771
 10
42.1378271295
 20
129.7660561272
  0
LINE
  5
2D9
100
AcDbEntity
  8
RACCORDO
100
AcDbLine
 62
250
  6
CONTINUOUS
 10
42.137029824
 20
84.6475290584
 30
0.0
 11
42.1365339265
 21
84.6571614692
 31
0.0
  0
LINE
  5
2DA
100
AcDbEntity
  8
RACCORDO
100
AcDbLine
 62
7
  6
CONTINUOUS
 10
42.0071808731
 20
87.331150727
 30
0.0
 11
42.1182394211
 21
85.1213901417
 31
0.0
  0
LINE
  5
2DB
100
AcDbEntity
  8
RACCORDO
100
AcDbLine
 62
7
  6
CONTINUOUS
 10
42.1182394211
 20
85.1213901417
 30
0.0
 11
42.1250092066
 21
84.9771201554
 31
0.0
  0
LINE
  5
2DC
100
AcDbEntity
  8
RACCORDO
100
AcDbLine
 62
7
  6
CONTINUOUS
 10
42.1250092066
 20
84.9771201554
 30
0.0
 11
42.1305463677
 21
84.8435022793
 31
0.0
  0
LINE
  5
2DD
100
AcDbEntity
  8
RACCORDO
100
AcDbLine
 62
7
  6
CONTINUOUS
 10
42.1305463677
 20
84.8435022793
 30
0.0
 11
42.1336826452
 21
84.7559177804
 31
0.0
  0
LINE
  5
2DE
100
AcDbEntity
  8
RACCORDO
100
AcDbLine
 62
7
  6
CONTINUOUS
 10
42.1334523289
 20
84.7628407021
 30
0.0
 11
42.1357574379
 21
84.6873828992
 31
0.0
  0
LINE
  5
2DF
100
AcDbEntity
  8
RACCORDO
100
AcDbLine
 62
7
  6
CONTINUOUS
 10
42.1356773404
 20
84.6905003453
 30
0.0
 11
42.1368601966
 21
84.6429731644
 31
0.0
  0
LINE
  5
2E0
100
AcDbEntity
  8
RACCORDO
100
AcDbLine
 62
7
  6
CONTINUOUS
 10
42.1368601966
 20
84.6429731644
 30
0.0
 11
42.1374870107
 21
84.6109111178
 31
0.0
  0
LINE
  5
2E1
100
AcDbEntity
  8
RACCORDO
100
AcDbLine
 62
7
  6
CONTINUOUS
 10
42.1378271295
 20
129.7660561272
 30
0.0
 11
42.1379485787
 21
129.757772362
 31
0.0
  0
LINE
  5
2E2
100
AcDbEntity
  8
RACCORDO
100
AcDbLine
 62
7
  6
CONTINUOUS
 10
42.1374870107
 20
84.6109111178
 30
0.0
 11
42.1378691364
 21
84.5829224879
 31
0.0
  0
LINE
  5
2E3
100
AcDbEntity
  8
RACCORDO
100
AcDbLine
 62
7
  6
CONTINUOUS
 10
42.1378691364
 20
84.5829224879
 30
0.0
 11
42.1379974065
 21
84.5666897639
 31
0.0
  0
LINE
  5
2E4
100
AcDbEntity
  8
RACCORDO
100
AcDbLine
 62
7
  6
CONTINUOUS
 10
42.1379485787
 20
129.757772362
 30
0.0
 11
42.138019381
 21
129.747697476
 31
0.0
  0
LWPOLYLINE
  5
2E5
100
AcDbEntity
  8
RACCORDO
100
AcDbPolyline
 62
7
  6
CONTINUOUS
 90
9
 70
0
 10
41.5918048597
 20
107.147529075
 10
41.5988778706
 20
104.4730773608
 10
41.6202695687
 20
101.7944581807
 10
41.6549474465
 20
99.1923461497
 10
41.7018814622
 20
96.6667716262
 10
41.7601550101
 20
94.2177743305
 10
41.8300381211
 20
91.8454149563
 10
41.9122514784
 20
89.5498406884
 10
42.0071808731
 20
87.331150727
  0
LINE
  5
2E6
100
AcDbEntity
  8
RACCORDO
100
AcDbLine
 62
7
  6
CONTINUOUS
 10
42.1379974065
 20
84.5666897639
 30
0.0
 11
42.1380307706
 21
84.5525675008
 31
0.0
  0
LINE
  5
2E7
100
AcDbEntity
  8
RACCORDO
100
AcDbLine
 62
7
  6
CONTINUOUS
 10
42.138019381
 20
129.747697476
 30
0.0
 11
42.1380260385
 21
129.7359040062
 31
0.0
  0
LINE
  5
2E8
100
AcDbEntity
  8
RACCORDO
100
AcDbLine
 62
7
  6
CONTINUOUS
 10
42.1380260385
 20
129.7359040062
 30
0.0
 11
42.1379603579
 21
129.7224678971
 31
0.0
  0
LINE
  5
2E9
100
AcDbEntity
  8
RACCORDO
100
AcDbLine
 62
7
  6
CONTINUOUS
 10
42.1380307706
 20
84.5525675008
 30
0.0
 11
42.1379796328
 21
84.5406169126
 31
0.0
  0
LINE
  5
2EA
100
AcDbEntity
  8
RACCORDO
100
AcDbLine
 62
7
  6
CONTINUOUS
 10
42.1379603579
 20
129.7224678971
 30
0.0
 11
42.1377193449
 21
129.6995025283
 31
0.0
  0
LWPOLYLINE
  5
2EB
100
AcDbEntity
  8
RACCORDO
100
AcDbPolyline
 62
7
  6
CONTINUOUS
 90
7
 70
0
 10
42.1379796328
 20
84.5406169126
 10
42.1378612007
 20
84.5308936032
 10
42.137784769
 20
84.5269232169
 10
42.1377013275
 20
84.5235377992
 10
42.1376183347
 20
84.5208354268
 10
42.1375411677
 20
84.5187773668
 10
42.1374868815
 20
84.5175608195
  0
LINE
  5
2EC
100
AcDbEntity
  8
RACCORDO
100
AcDbLine
 62
7
  6
CONTINUOUS
 10
42.1377193449
 20
129.6995025283
 30
0.0
 11
42.1372990443
 21
129.6735276868
 31
0.0
  0
LINE
  5
2ED
100
AcDbEntity
  8
RACCORDO
100
AcDbLine
 62
7
  6
CONTINUOUS
 10
42.1372990443
 20
129.6735276868
 30
0.0
 11
42.1365320765
 21
129.6378198722
 31
0.0
  0
LINE
  5
2EE
100
AcDbEntity
  8
RACCORDO
100
AcDbLine
 62
7
  6
CONTINUOUS
 10
42.1365337829
 20
129.6378907374
 30
0.0
 11
42.1358415867
 21
129.6106173159
 31
0.0
  0
LINE
  5
2EF
100
AcDbEntity
  8
RACCORDO
100
AcDbLine
 62
7
  6
CONTINUOUS
 10
42.1358415867
 20
129.6106173159
 30
0.0
 11
42.1336826452
 21
129.5391403369
 31
0.0
  0
LINE
  5
2F0
100
AcDbEntity
  8
RACCORDO
100
AcDbLine
 62
7
  6
CONTINUOUS
 10
42.1336826452
 20
129.5391403369
 30
0.0
 11
42.1308382085
 21
129.4592201789
 31
0.0
  0
LWPOLYLINE
  5
2F1
100
AcDbEntity
  8
RACCORDO
100
AcDbPolyline
 62
7
  6
CONTINUOUS
 90
9
 70
0
 10
42.0074907952
 20
126.9705735696
 10
41.9125132031
 20
124.7518874186
 10
41.8302548258
 20
122.4563144387
 10
41.7603357499
 20
120.083953769
 10
41.7020153271
 20
117.6349523555
 10
41.6550539245
 20
115.1093750875
 10
41.6203410815
 20
112.5072633178
 10
41.5989132047
 20
109.8286452855
 10
41.5918048597
 20
107.147529049
  0
LINE
  5
2F2
100
AcDbEntity
  8
RACCORDO
100
AcDbLine
 62
7
  6
CONTINUOUS
 10
42.1308382085
 20
129.4592201789
 30
0.0
 11
42.1253829214
 21
129.3264204761
 31
0.0
  0
LINE
  5
2F3
100
AcDbEntity
  8
RACCORDO
100
AcDbLine
 62
7
  6
CONTINUOUS
 10
42.1253829214
 20
129.3264204761
 30
0.0
 11
42.1186791777
 21
129.1825954778
 31
0.0
  0
LINE
  5
2F4
100
AcDbEntity
  8
RACCORDO
100
AcDbLine
 62
250
  6
CONTINUOUS
 10
42.137029824
 20
129.6475290581
 30
0.0
 11
42.1365337829
 21
129.6378907374
 31
0.0
  0
LINE
  5
2F5
100
AcDbEntity
  8
RACCORDO
100
AcDbLine
 62
7
  6
CONTINUOUS
 10
42.1186791777
 20
129.1825954778
 30
0.0
 11
42.0074907952
 21
126.9705735696
 31
0.0
  0
LINE
  5
2F6
100
AcDbEntity
  8
RACCORDO
100
AcDbLine
 62
250
  6
CONTINUOUS
 10
44.3505480754
 20
129.647528994
 30
0.0
 11
44.3412576758
 21
129.4816825129
 31
0.0
  0
LINE
  5
2F7
100
AcDbEntity
  8
RACCORDO
100
AcDbLine
 62
7
  6
CONTINUOUS
 10
42.1374782842
 20
129.7778321253
 30
0.0
 11
42.137453514
 21
129.7781748764
 31
0.0
  0
LWPOLYLINE
  5
2F8
100
AcDbEntity
  8
0
100
AcDbPolyline
 62
7
  6
CONTINUOUS
 90
4
 70
0
 43
0.3500000006
 10
47.3361378937
 20
159.4770582275
 10
47.3361378937
 20
160.3342142944
 10
47.7647113953
 20
160.7627832642
 10
48.4075693817
 20
160.7627832642
  0
LINE
  5
2F9
100
AcDbEntity
  8
RACCORDO
100
AcDbLine
 62
250
  6
CONTINUOUS
 10
51.3660720611
 20
107.1475290586
 30
0.0
 11
41.5919222572
 21
107.1475290586
 31
0.0
  0
LINE
  5
2FA
100
AcDbEntity
  8
RACCORDO
100
AcDbLine
 62
250
  6
CONTINUOUS
 10
51.2904272578
 20
68.4751382746
 30
0.0
 11
51.2919969408
 21
68.1474907509
 31
0.0
  0
LINE
  5
2FB
100
AcDbEntity
  8
RACCORDO
100
AcDbLine
 62
7
  6
CONTINUOUS
 10
51.3660720611
 20
148.7117118395
 30
0.0
 11
51.3660720611
 21
65.5833462904
 31
0.0
  0
LINE
  5
2FC
100
AcDbEntity
  8
RACCORDO
100
AcDbLine
 62
250
  6
CONTINUOUS
 10
51.2918248697
 20
146.1475682279
 30
0.0
 11
51.2906493071
 21
145.8199188174
 31
0.0
  0
LINE
  5
2FD
100
AcDbEntity
  8
RACCORDO
100
AcDbLine
 62
250
  6
CONTINUOUS
 10
51.2654466405
 20
129.6426595182
 30
0.0
 11
47.6379021186
 21
129.4671194473
 31
0.0
  0
LINE
  5
2FE
100
AcDbEntity
  8
RACCORDO
100
AcDbLine
 62
250
  6
CONTINUOUS
 10
42.111018006
 20
129.0317235035
 30
0.0
 11
42.110900961
 21
129.031721842
 31
0.0
  0
LINE
  5
2FF
100
AcDbEntity
  8
RACCORDO
100
AcDbLine
 62
250
  6
CONTINUOUS
 10
51.3660720611
 20
129.6427344281
 30
0.0
 11
51.2654466405
 21
129.6426595182
 31
0.0
  0
LINE
  5
300
100
AcDbEntity
  8
RACCORDO
100
AcDbLine
 62
250
  6
CONTINUOUS
 10
44.5964111315
 20
129.4674978371
 30
0.0
 11
47.6379241909
 21
129.4675118645
 31
0.0
  0
LINE
  5
301
100
AcDbEntity
  8
RACCORDO
100
AcDbLine
 62
250
  6
CONTINUOUS
 10
44.3505469289
 20
129.6475290586
 30
0.0
 11
42.137029824
 21
129.6475290586
 31
0.0
  0
LINE
  5
302
100
AcDbEntity
  8
RACCORDO
100
AcDbLine
 62
250
  6
CONTINUOUS
 10
41.8955465906
 20
129.8362989916
 30
0.0
 11
42.1341781556
 21
129.8321248977
 31
0.0
  0
LINE
  5
303
100
AcDbEntity
  8
RACCORDO
100
AcDbLine
 62
250
  6
CONTINUOUS
 10
44.5964111293
 20
129.4674977975
 30
0.0
 11
44.3412588016
 21
129.4816824901
 31
0.0
  0
LINE
  5
304
100
AcDbEntity
  8
RACCORDO
100
AcDbLine
 62
250
  6
CONTINUOUS
 10
44.6056888443
 20
129.6331827264
 30
0.0
 11
44.3505469289
 21
129.6475290586
 31
0.0
  0
LWPOLYLINE
  5
305
100
AcDbEntity
  8
0
100
AcDbPolyline
 62
7
  6
CONTINUOUS
 90
10
 70
0
 43
0.3500000006
 10
46.2647109375
 20
159.5484984741
 10
46.3361421204
 20
159.4056361084
 10
46.3361421204
 20
159.3342139893
 10
46.1932842865
 20
159.1913516235
 10
46.1218531036
 20
159.1913516235
 10
46.0504264526
 20
159.2627737427
 10
46.0504264526
 20
159.3342139893
 10
46.1218531036
 20
159.4770582275
 10
46.1932842865
 20
159.5484984741
 10
46.2647109375
 20
159.5484984741
  0
LINE
  5
306
100
AcDbEntity
  8
SUPERFICI
100
AcDbLine
 62
7
  6
CONTINUOUS
 10
51.2921069701
 20
65.4540454664
 30
0.0
 11
49.2359027999
 21
64.2381806354
 31
0.0
  0
LINE
  5
307
100
AcDbEntity
  8
RACCORDO
100
AcDbLine
 62
250
  6
CONTINUOUS
 10
46.049220742
 20
149.7173459461
 30
0.0
 11
49.1101326358
 21
150.1475290586
 31
0.0
  0
LINE
  5
308
100
AcDbEntity
  8
RACCORDO
100
AcDbLine
 62
7
  6
CONTINUOUS
 10
44.1505960929
 20
149.7204219203
 30
0.0
 11
47.1896212931
 21
150.1475290586
 31
0.0
  0
LINE
  5
309
100
AcDbEntity
  8
RACCORDO
100
AcDbLine
 62
7
  6
CONTINUOUS
 10
47.0896778124
 20
150.1475290586
 30
0.0
 11
44.0507063361
 21
149.7204294707
 31
0.0
  0
LINE
  5
30A
100
AcDbEntity
  8
RACCORDO
100
AcDbLine
 62
250
  6
CONTINUOUS
 10
51.2906493071
 20
145.8199188174
 30
0.0
 11
49.0979716589
 21
145.7533896743
 31
0.0
  0
LINE
  5
30B
100
AcDbEntity
  8
RACCORDO
100
AcDbLine
 62
250
  6
CONTINUOUS
 10
46.0388718731
 20
145.7563290586
 30
0.0
 11
49.0983336956
 21
145.7563290586
 31
0.0
  0
LINE
  5
30C
100
AcDbEntity
  8
SUPERFICI
100
AcDbLine
 62
7
  6
CONTINUOUS
 10
49.1545361967
 20
150.1475290654
 30
0.0
 11
47.1896212931
 21
150.1475290586
 31
0.0
  0
LINE
  5
30D
100
AcDbEntity
  8
0
100
AcDbLine
 62
7
  6
CONTINUOUS
 10
47.1896212931
 20
150.1475290586
 30
0.0
 11
47.0896778124
 21
150.1475290586
 31
0.0
  0
LINE
  5
30E
100
AcDbEntity
  8
RACCORDO
100
AcDbLine
 62
250
  6
CONTINUOUS
 10
44.1534598483
 20
149.7204071369
 30
0.0
 11
44.1637315996
 21
149.7204180213
 31
0.0
  0
LINE
  5
30F
100
AcDbEntity
  8
RACCORDO
100
AcDbLine
 62
7
  6
CONTINUOUS
 10
44.0507063361
 20
149.7204294707
 30
0.0
 11
44.1505960929
 21
149.7204219203
 31
0.0
  0
LINE
  5
310
100
AcDbEntity
  8
RACCORDO
100
AcDbLine
 62
250
  6
CONTINUOUS
 10
51.2918248697
 20
146.1475682279
 30
0.0
 11
49.1450371494
 21
146.1487005515
 31
0.0
  0
LINE
  5
311
100
AcDbEntity
  8
RACCORDO
100
AcDbLine
 62
250
  6
CONTINUOUS
 10
43.7952257149
 20
149.4640038198
 30
0.0
 11
45.7957988927
 21
149.4606759421
 31
0.0
  0
LINE
  5
312
100
AcDbEntity
  8
RACCORDO
100
AcDbLine
 62
250
  6
CONTINUOUS
 10
44.1507000806
 20
149.7204219119
 30
0.0
 11
46.049220742
 21
149.7173459461
 31
0.0
  0
LINE
  5
313
100
AcDbEntity
  8
RACCORDO
100
AcDbLine
 62
250
  6
CONTINUOUS
 10
46.0388718731
 20
145.7563290586
 30
0.0
 11
45.7854022438
 21
145.7871146922
 31
0.0
  0
LINE
  5
314
100
AcDbEntity
  8
SUPERFICI
100
AcDbLine
 62
7
  6
CONTINUOUS
 10
51.2921069149
 20
148.8410126833
 30
0.0
 11
50.1601436383
 21
149.5089177102
 31
0.0
  0
LINE
  5
315
100
AcDbEntity
  8
SUPERFICI
100
AcDbLine
 62
7
  6
CONTINUOUS
 10
50.1601436383
 20
149.5089177102
 30
0.0
 11
49.2359027999
 21
150.0568774818
 31
0.0
  0
LWPOLYLINE
  5
316
100
AcDbEntity
  8
0
100
AcDbPolyline
 62
7
  6
CONTINUOUS
 90
13
 70
0
 43
0.3500000006
 10
47.7647113953
 20
160.7627832642
 10
47.4789957275
 20
160.977067749
 10
47.4789957275
 20
161.6199212036
 10
47.7647113953
 20
162.0484901733
 10
48.4075693817
 20
162.0484901733
 10
48.6932850494
 20
161.6199212036
 10
48.6932850494
 20
160.977067749
 10
48.4075693817
 20
160.7627832642
 10
48.8361383514
 20
160.3342142944
 10
48.8361383514
 20
159.4770582275
 10
48.4075693817
 20
159.0484892578
 10
47.7647113953
 20
159.0484892578
 10
47.3361378937
 20
159.4770582275
  0
ARC
  5
317
100
AcDbEntity
  8
SUPERFICI
100
AcDbCircle
 62
7
  6
CONTINUOUS
 10
89.9272748571
 20
146.1475434481
 30
0.0
 40
3.9999804797
100
AcDbArc
 50
90.005166536
 51
180.0002061154
  0
ARC
  5
318
100
AcDbEntity
  8
SUPERFICI
100
AcDbCircle
 62
7
  6
CONTINUOUS
 10
228.5273036315
 20
68.1475146689
 30
0.0
 40
3.9999804795
100
AcDbArc
 50
270.0051665337
 51
0.0002061177
  0
ARC
  5
319
100
AcDbEntity
  8
SUPERFICI
100
AcDbCircle
 62
7
  6
CONTINUOUS
 10
228.5273036313
 20
146.1475434481
 30
0.0
 40
3.9999804796
100
AcDbArc
 50
359.9997938846
 51
89.994833464
  0
ARC
  5
31A
100
AcDbEntity
  8
0
100
AcDbCircle
 62
7
  6
CONTINUOUS
 10
89.9272748569
 20
68.1475146689
 30
0.0
 40
3.9999804795
100
AcDbArc
 50
179.9997938825
 51
269.9948334661
  0
ARC
  5
31B
100
AcDbEntity
  8
RACCORDO
100
AcDbCircle
 62
250
  6
CONTINUOUS
 10
228.5223755152
 20
68.1526324261
 30
0.0
 40
3.5751573634
100
AcDbArc
 50
269.8678476755
 51
0.1354607099
  0
ARC
  5
31C
100
AcDbEntity
  8
RACCORDO
100
AcDbCircle
 62
250
  6
CONTINUOUS
 10
89.9322026428
 20
146.1424253533
 30
0.0
 40
3.5751572698
100
AcDbArc
 50
89.8678423932
 51
180.1354553098
  0
ARC
  5
31D
100
AcDbEntity
  8
RACCORDO
100
AcDbCircle
 62
250
  6
CONTINUOUS
 10
89.9322028076
 20
68.1526322749
 30
0.0
 40
3.5751572265
100
AcDbArc
 50
179.8645368597
 51
270.1321549858
  0
ARC
  5
31E
100
AcDbEntity
  8
RACCORDO
100
AcDbCircle
 62
250
  6
CONTINUOUS
 10
228.5223759668
 20
146.1424255792
 30
0.0
 40
3.5751571416
100
AcDbArc
 50
359.8645410664
 51
90.1321595594
  0
ARC
  5
31F
100
AcDbEntity
  8
RACCORDO
100
AcDbCircle
 62
250
  6
CONTINUOUS
 10
228.5577880899
 20
68.1162836958
 30
0.0
 40
3.2821452658
100
AcDbArc
 50
269.7862598099
 51
0.2184454435
  0
ARC
  5
320
100
AcDbEntity
  8
RACCORDO
100
AcDbCircle
 62
250
  6
CONTINUOUS
 10
89.8967903926
 20
146.1787744153
 30
0.0
 40
3.2821452637
100
AcDbArc
 50
89.7862597071
 51
180.2184453378
  0
ARC
  5
321
100
AcDbEntity
  8
RACCORDO
100
AcDbCircle
 62
250
  6
CONTINUOUS
 10
89.8967901301
 20
68.1162836731
 30
0.0
 40
3.2821451165
100
AcDbArc
 50
179.7814015629
 51
270.213744877
  0
ARC
  5
322
100
AcDbEntity
  8
RACCORDO
100
AcDbCircle
 62
250
  6
CONTINUOUS
 10
228.557788364
 20
146.1787744388
 30
0.0
 40
3.2821451142
100
AcDbArc
 50
359.7814016551
 51
90.2137449766
  0
ARC
  5
323
100
AcDbEntity
  8
RACCORDO
100
AcDbCircle
 62
250
  6
CONTINUOUS
 10
203.8274317534
 20
129.0307789141
 30
0.0
 40
0.8011365876
100
AcDbArc
 50
0.0675472966
 51
89.9691528629
  0
ARC
  5
324
100
AcDbEntity
  8
RACCORDO
100
AcDbCircle
 62
250
  6
CONTINUOUS
 10
114.627146735
 20
85.2642792032
 30
0.0
 40
0.8011365876
100
AcDbArc
 50
180.0675472966
 51
269.9691528629
  0
ARC
  5
325
100
AcDbEntity
  8
RACCORDO
100
AcDbCircle
 62
250
  6
CONTINUOUS
 10
203.8274334379
 20
85.2642784104
 30
0.0
 40
0.8011349022
100
AcDbArc
 50
270.0308326599
 51
359.9325092612
  0
ARC
  5
326
100
AcDbEntity
  8
RACCORDO
100
AcDbCircle
 62
250
  6
CONTINUOUS
 10
114.6271428173
 20
129.0307807579
 30
0.0
 40
0.8011326678
100
AcDbArc
 50
90.0308785075
 51
179.9325842394
  0
ARC
  5
327
100
AcDbEntity
  8
RACCORDO
100
AcDbCircle
 62
250
  6
CONTINUOUS
 10
114.6344410449
 20
85.2803300578
 30
0.0
 40
0.5001066576
100
AcDbArc
 50
180.0952416926
 51
269.9639382229
  0
ARC
  5
328
100
AcDbEntity
  8
RACCORDO
100
AcDbCircle
 62
250
  6
CONTINUOUS
 10
203.8201374434
 20
129.0147280594
 30
0.0
 40
0.5001066576
100
AcDbArc
 50
0.0952416927
 51
89.9639382229
  0
ARC
  5
329
100
AcDbEntity
  8
RACCORDO
100
AcDbCircle
 62
250
  6
CONTINUOUS
 10
203.8201384811
 20
85.2803295713
 30
0.0
 40
0.5001056191
100
AcDbArc
 50
270.0360457113
 51
359.9048138513
  0
ARC
  5
32A
100
AcDbEntity
  8
RACCORDO
100
AcDbCircle
 62
250
  6
CONTINUOUS
 10
114.6344386172
 20
129.014729201
 30
0.0
 40
0.500104228
100
AcDbArc
 50
90.0360951082
 51
179.9048886276
  0
ARC
  5
32B
100
AcDbEntity
  8
SUPERFICI
100
AcDbCircle
 62
7
  6
CONTINUOUS
 10
14.0689698207
 20
64.2163692755
 30
0.0
 40
35.2950297858
100
AcDbArc
 50
6.3948715949
 51
7.0343108731
  0
ARC
  5
32C
100
AcDbEntity
  8
SUPERFICI
100
AcDbCircle
 62
7
  6
CONTINUOUS
 10
14.3157702292
 20
64.2000609458
 30
0.0
 40
35.0521189702
100
AcDbArc
 50
6.4642749411
 51
7.1150125813
  0
ARC
  5
32D
100
AcDbEntity
  8
RACCORDO
100
AcDbCircle
 62
250
  6
CONTINUOUS
 10
30.1050837776
 20
84.3503083548
 30
0.0
 40
12.0356229396
100
AcDbArc
 50
1.460116147
 51
1.9060285601
  0
ARC
  5
32E
100
AcDbEntity
  8
RACCORDO
100
AcDbCircle
 62
250
  6
CONTINUOUS
 10
34.5466571702
 20
84.466071296
 30
0.0
 40
7.5925413363
100
AcDbArc
 50
1.1551152195
 51
1.3694695227
  0
ARC
  5
32F
100
AcDbEntity
  8
RACCORDO
100
AcDbCircle
 62
250
  6
CONTINUOUS
 10
36.0917754502
 20
84.4975983529
 30
0.0
 40
6.0471015023
100
AcDbArc
 50
0.9044246154
 51
1.151587665
  0
ARC
  5
330
100
AcDbEntity
  8
RACCORDO
100
AcDbCircle
 62
250
  6
CONTINUOUS
 10
37.4830856535
 20
84.5199353248
 30
0.0
 40
4.6556120696
100
AcDbArc
 50
0.6068948853
 51
0.8998340622
  0
ARC
  5
331
100
AcDbEntity
  8
RACCORDO
100
AcDbCircle
 62
250
  6
CONTINUOUS
 10
45.8017170122
 20
61.7943343036
 30
0.0
 40
3.0400536319
100
AcDbArc
 50
89.2666733195
 51
90.1115386543
  0
ARC
  5
332
100
AcDbEntity
  8
RACCORDO
100
AcDbCircle
 62
250
  6
CONTINUOUS
 10
46.0542157063
 20
61.5440349659
 30
0.0
 40
3.0336813173
100
AcDbArc
 50
89.2492971718
 51
90.0943376951
  0
ARC
  5
333
100
AcDbEntity
  8
RACCORDO
100
AcDbCircle
 62
250
  6
CONTINUOUS
 10
42.4351325882
 20
84.4799359409
 30
0.0
 40
0.3014343428
100
AcDbArc
 50
170.8720466895
 51
183.2335449651
  0
ARC
  5
334
100
AcDbEntity
  8
RACCORDO
100
AcDbCircle
 62
7
  6
CONTINUOUS
 10
44.0924582664
 20
64.8717090671
 30
0.0
 40
0.3
100
AcDbArc
 50
187.7884528795
 51
262.0
  0
ARC
  5
335
100
AcDbEntity
  8
RACCORDO
100
AcDbCircle
 62
7
  6
CONTINUOUS
 10
42.1950587571
 20
84.4758606496
 30
0.0
 40
0.3
100
AcDbArc
 50
101.899917831
 51
183.2679220069
  0
ARC
  5
336
100
AcDbEntity
  8
RACCORDO
100
AcDbCircle
 62
7
  6
CONTINUOUS
 10
51.0660720611
 20
85.5923382375
 30
0.0
 40
0.3
100
AcDbArc
 50
350.1110255703
 51
360.0
  0
ARC
  5
337
100
AcDbEntity
  8
RACCORDO
100
AcDbCircle
 62
7
  6
CONTINUOUS
 10
51.0660720611
 20
85.7027198797
 30
0.0
 40
0.3
100
AcDbArc
 50
0.0
 51
4.9444758839
  0
ARC
  5
338
100
AcDbEntity
  8
RACCORDO
100
AcDbCircle
 62
250
  6
CONTINUOUS
 10
44.1924561959
 20
64.8717134026
 30
0.0
 40
0.2999985361
100
AcDbArc
 50
187.7877516216
 51
261.9959632268
  0
ARC
  5
339
100
AcDbEntity
  8
RACCORDO
100
AcDbCircle
 62
250
  6
CONTINUOUS
 10
42.2949403241
 20
84.4776081367
 30
0.0
 40
0.2999813691
100
AcDbArc
 50
122.37266042
 51
183.2683957807
  0
ARC
  5
33A
100
AcDbEntity
  8
RACCORDO
100
AcDbCircle
 62
7
  6
CONTINUOUS
 10
51.2160720611
 20
65.5833462904
 30
0.0
 40
0.15
100
AcDbArc
 50
300.4573879819
 51
359.9999999999
  0
ARC
  5
33B
100
AcDbEntity
  8
SUPERFICI
100
AcDbCircle
 62
7
  6
CONTINUOUS
 10
14.0689698209
 20
150.0786888417
 30
0.0
 40
35.2950297856
100
AcDbArc
 50
352.9656891269
 51
353.6051284051
  0
ARC
  5
33C
100
AcDbEntity
  8
RACCORDO
100
AcDbCircle
 62
250
  6
CONTINUOUS
 10
30.4100226073
 20
129.9367284322
 30
0.0
 40
11.7305842546
100
AcDbArc
 50
358.1199315827
 51
358.4388796547
  0
ARC
  5
33D
100
AcDbEntity
  8
RACCORDO
100
AcDbCircle
 62
250
  6
CONTINUOUS
 10
33.0943593514
 20
129.8635935805
 30
0.0
 40
9.0452514146
100
AcDbArc
 50
358.4387369061
 51
358.6312417173
  0
ARC
  5
33E
100
AcDbEntity
  8
RACCORDO
100
AcDbCircle
 62
250
  6
CONTINUOUS
 10
35.7916131086
 20
129.8021400922
 30
0.0
 40
6.3473000452
100
AcDbArc
 50
358.604219765
 51
359.1114708775
  0
ARC
  5
33F
100
AcDbEntity
  8
RACCORDO
100
AcDbCircle
 62
250
  6
CONTINUOUS
 10
37.8123635664
 20
129.770848503
 30
0.0
 40
4.3263073256
100
AcDbArc
 50
359.1108321695
 51
359.435486468
  0
ARC
  5
340
100
AcDbEntity
  8
RACCORDO
100
AcDbCircle
 62
250
  6
CONTINUOUS
 10
45.801717018
 20
152.500722752
 30
0.0
 40
3.0400525703
100
AcDbArc
 50
269.8884611996
 51
270.7333268278
  0
ARC
  5
341
100
AcDbEntity
  8
RACCORDO
100
AcDbCircle
 62
250
  6
CONTINUOUS
 10
46.0542156968
 20
152.7510243706
 30
0.0
 40
3.0336825366
100
AcDbArc
 50
269.9056625224
 51
270.7507027116
  0
ARC
  5
342
100
AcDbEntity
  8
RACCORDO
100
AcDbCircle
 62
250
  6
CONTINUOUS
 10
42.4351325005
 20
129.8151221709
 30
0.0
 40
0.3014342556
100
AcDbArc
 50
176.7664530709
 51
189.1273153025
  0
ARC
  5
343
100
AcDbEntity
  8
RACCORDO
100
AcDbCircle
 62
7
  6
CONTINUOUS
 10
44.0924582664
 20
149.4233490501
 30
0.0
 40
0.3
100
AcDbArc
 50
98.0
 51
172.2115471205
  0
ARC
  5
344
100
AcDbEntity
  8
RACCORDO
100
AcDbCircle
 62
7
  6
CONTINUOUS
 10
42.1950587571
 20
129.8191974677
 30
0.0
 40
0.3
100
AcDbArc
 50
176.7320779931
 51
258.0992029465
  0
ARC
  5
345
100
AcDbEntity
  8
RACCORDO
100
AcDbCircle
 62
7
  6
CONTINUOUS
 10
51.0660720611
 20
128.5923382375
 30
0.0
 40
0.3
100
AcDbArc
 50
350.1110255703
 51
360.0
  0
ARC
  5
346
100
AcDbEntity
  8
RACCORDO
100
AcDbCircle
 62
7
  6
CONTINUOUS
 10
51.0660720611
 20
128.7027198797
 30
0.0
 40
0.3
100
AcDbArc
 50
0.0
 51
9.8889744297
  0
ARC
  5
347
100
AcDbEntity
  8
RACCORDO
100
AcDbCircle
 62
250
  6
CONTINUOUS
 10
44.1924561959
 20
149.4233447146
 30
0.0
 40
0.2999985361
100
AcDbArc
 50
98.0040367733
 51
172.2122483761
  0
ARC
  5
348
100
AcDbEntity
  8
RACCORDO
100
AcDbCircle
 62
250
  6
CONTINUOUS
 10
42.2949403507
 20
129.8174499879
 30
0.0
 40
0.2999813953
100
AcDbArc
 50
176.7316059159
 51
237.6259962954
  0
ARC
  5
349
100
AcDbEntity
  8
RACCORDO
100
AcDbCircle
 62
7
  6
CONTINUOUS
 10
51.2160720611
 20
148.7117118269
 30
0.0
 40
0.15
100
AcDbArc
 50
0.0000000001
 51
59.5425889649
  0
ARC
  5
34A
100
AcDbEntity
  8
0
100
AcDbCircle
 62
7
  6
CONTINUOUS
 10
291.6112457473
 20
98.7748948064
 30
0.0
 40
250.204951419
100
AcDbArc
 50
184.3980915539
 51
184.5520736498
  0
ARC
  5
34B
100
AcDbEntity
  8
0
100
AcDbCircle
 62
7
  6
CONTINUOUS
 10
291.6188314234
 20
98.7745396334
 30
0.0
 40
250.1325028426
100
AcDbArc
 50
184.3978746682
 51
184.5533132842
  0
ARC
  5
34C
100
AcDbEntity
  8
0
100
AcDbCircle
 62
7
  6
CONTINUOUS
 10
291.4890186713
 20
98.7100290586
 30
0.0
 40
250.0
100
AcDbArc
 50
183.2679220069
 51
183.9597049517
  0
ARC
  5
34D
100
AcDbEntity
  8
0
100
AcDbCircle
 62
7
  6
CONTINUOUS
 10
291.4890186713
 20
98.7100290586
 30
0.0
 40
250.0
100
AcDbArc
 50
184.5409004817
 51
187.7884528795
  0
ARC
  5
34E
100
AcDbEntity
  8
0
100
AcDbCircle
 62
7
  6
CONTINUOUS
 10
291.4906559972
 20
98.7100290586
 30
0.0
 40
250.0
100
AcDbArc
 50
184.2692889841
 51
184.2726837343
  0
ARC
  5
34F
100
AcDbEntity
  8
RACCORDO
100
AcDbCircle
 62
250
  6
CONTINUOUS
 10
293.954589226
 20
98.7100290586
 30
0.0
 40
250.0
100
AcDbArc
 50
183.2245913519
 51
186.9387503954
  0
ARC
  5
350
100
AcDbEntity
  8
RACCORDO
100
AcDbCircle
 62
250
  6
CONTINUOUS
 10
291.5890186713
 20
98.7100290586
 30
0.0
 40
250.0
100
AcDbArc
 50
183.2675211848
 51
187.7884509893
  0
ARC
  5
351
100
AcDbEntity
  8
RACCORDO
100
AcDbCircle
 62
250
  6
CONTINUOUS
 10
294.0547064741
 20
98.7100743788
 30
0.0
 40
249.8442800852
100
AcDbArc
 50
183.2233167062
 51
186.9360010209
  0
ARC
  5
352
100
AcDbEntity
  8
SUPERFICI
100
AcDbCircle
 62
7
  6
CONTINUOUS
 10
294.0471705092
 20
98.7100290586
 30
0.0
 40
246.8
100
AcDbArc
 50
183.2245855937
 51
187.0219743237
  0
ARC
  5
353
100
AcDbEntity
  8
RACCORDO
100
AcDbCircle
 62
7
  6
CONTINUOUS
 10
291.4890186713
 20
115.5850290586
 30
0.0
 40
250.0
100
AcDbArc
 50
172.2115471205
 51
176.7320779931
  0
ARC
  5
354
100
AcDbEntity
  8
RACCORDO
100
AcDbCircle
 62
250
  6
CONTINUOUS
 10
291.5890186713
 20
115.5850290586
 30
0.0
 40
250.0
100
AcDbArc
 50
172.2115490107
 51
176.7324788152
  0
ARC
  5
355
100
AcDbEntity
  8
RACCORDO
100
AcDbCircle
 62
250
  6
CONTINUOUS
 10
293.9545776696
 20
115.5850290586
 30
0.0
 40
250.0
100
AcDbArc
 50
173.0612492847
 51
176.7754084991
  0
ARC
  5
356
100
AcDbEntity
  8
RACCORDO
100
AcDbCircle
 62
250
  6
CONTINUOUS
 10
294.0549309021
 20
115.5849637891
 30
0.0
 40
249.8445052798
100
AcDbArc
 50
173.0640006528
 51
176.7766816201
  0
ARC
  5
357
100
AcDbEntity
  8
SUPERFICI
100
AcDbCircle
 62
7
  6
CONTINUOUS
 10
294.0471705092
 20
115.5850290586
 30
0.0
 40
246.8
100
AcDbArc
 50
172.9780256763
 51
176.7754144063
  0
SPLINE
  5
358
100
AcDbEntity
  8
0
100
AcDbSpline
 62
7
  6
CONTINUOUS
 70
0
 71
3
 72
9
 73
5
 74
0
 42
0.0000001
 43
0.0000001
 44
0.0000000001
 40
0.0
 40
0.0
 40
0.0
 40
0.0
 40
0.6439297259
 40
1.0
 40
1.0
 40
1.0
 40
1.0
 10
163.2821126322
 20
79.6755083157
 30
0.0
 10
163.2531842322
 20
79.7524922801
 30
0.0
 10
163.1672774853
 20
79.868085948
 30
0.0
 10
163.0365284448
 20
79.8956076972
 30
0.0
 10
162.9910579605
 20
79.8956076972
 30
0.0
  0
SPLINE
  5
359
100
AcDbEntity
  8
0
100
AcDbSpline
 62
7
  6
CONTINUOUS
 70
0
 71
3
 72
9
 73
5
 74
0
 42
0.0000001
 43
0.0000001
 44
0.0000000001
 40
0.0
 40
0.0
 40
0.0
 40
0.0
 40
0.4412849067
 40
1.0
 40
1.0
 40
1.0
 40
1.0
 10
163.5103389066
 20
78.9173492779
 30
0.0
 10
163.478157406
 20
79.0292833687
 30
0.0
 10
163.4021712203
 20
79.2818984695
 30
0.0
 10
163.333983383
 20
79.5374703167
 30
0.0
 10
163.2821126047
 20
79.6755083054
 30
0.0
  0
SPLINE
  5
35A
100
AcDbEntity
  8
0
100
AcDbSpline
 62
7
  6
CONTINUOUS
 70
0
 71
3
 72
9
 73
5
 74
0
 42
0.0000001
 43
0.0000001
 44
0.0000000001
 40
0.0
 40
0.0
 40
0.0
 40
0.0
 40
0.8019701384
 40
1.0
 40
1.0
 40
1.0
 40
1.0
 10
163.833877767
 20
79.5938681408
 30
0.0
 10
163.8830404437
 20
79.4134158842
 30
0.0
 10
163.9408960992
 20
79.1874829341
 30
0.0
 10
164.0001383359
 20
78.9619177433
 30
0.0
 10
164.0122430048
 20
78.9173492779
 30
0.0
  0
SPLINE
  5
35B
100
AcDbEntity
  8
0
100
AcDbSpline
 62
7
  6
CONTINUOUS
 70
0
 71
3
 72
8
 73
4
 74
0
 42
0.0000001
 43
0.0000001
 44
0.0000000001
 40
0.0
 40
0.0
 40
0.0
 40
0.0
 40
1.0
 40
1.0
 40
1.0
 40
1.0
 10
163.5330956414
 20
80.0842036686
 30
0.0
 10
163.549860331
 20
80.0775187486
 30
0.0
 10
163.5657614
 20
80.0692897181
 30
0.0
 10
163.5808439524
 20
80.0597312878
 30
0.0
  0
SPLINE
  5
35C
100
AcDbEntity
  8
0
100
AcDbSpline
 62
7
  6
CONTINUOUS
 70
0
 71
3
 72
9
 73
5
 74
0
 42
0.0000001
 43
0.0000001
 44
0.0000000001
 40
0.0
 40
0.0
 40
0.0
 40
0.0
 40
0.7323760128
 40
1.0
 40
1.0
 40
1.0
 40
1.0
 10
163.5808439524
 20
80.0597312878
 30
0.0
 10
163.6885530157
 20
79.9914716497
 30
0.0
 10
163.7786245045
 20
79.8056973649
 30
0.0
 10
163.8214972244
 20
79.639311085
 30
0.0
 10
163.8338777666
 20
79.5938681407
 30
0.0
  0
SPLINE
  5
35D
100
AcDbEntity
  8
0
100
AcDbSpline
 62
7
  6
CONTINUOUS
 70
0
 71
3
 72
17
 73
13
 74
0
 42
0.0000001
 43
0.0000001
 44
0.0000000001
 40
0.0
 40
0.0
 40
0.0
 40
0.0
 40
0.0799595168
 40
0.1896577306
 40
0.3223977561
 40
0.3986068941
 40
0.483386777
 40
0.5877249163
 40
0.678993766
 40
0.8312459613
 40
0.9440219048
 40
1.0
 40
1.0
 40
1.0
 40
1.0
 10
163.4792967707
 20
81.3615613144
 30
0.0
 10
163.5183424021
 20
81.347475465
 30
0.0
 10
163.6055341603
 20
81.2993860831
 30
0.0
 10
163.7323470585
 20
81.1878850324
 30
0.0
 10
163.8221628423
 20
81.0453053582
 30
0.0
 10
163.8699828625
 20
80.899819131
 30
0.0
 10
163.8897133883
 20
80.7629009699
 30
0.0
 10
163.8859695346
 20
80.6163063766
 30
0.0
 10
163.8461192573
 20
80.4396819424
 30
0.0
 10
163.7566639772
 20
80.2703759866
 30
0.0
 10
163.6351741321
 20
80.1603902562
 30
0.0
 10
163.5619161432
 20
80.1026937009
 30
0.0
 10
163.5330956414
 20
80.0989749264
 30
0.0
  0
SPLINE
  5
35E
100
AcDbEntity
  8
0
100
AcDbSpline
 62
7
  6
CONTINUOUS
 70
0
 71
3
 72
9
 73
5
 74
0
 42
0.0000001
 43
0.0000001
 44
0.0000000001
 40
0.0
 40
0.0
 40
0.0
 40
0.0
 40
0.7042582166
 40
1.0
 40
1.0
 40
1.0
 40
1.0
 10
162.1915917462
 20
81.387879647
 30
0.0
 10
162.4927039603
 20
81.432178381
 30
0.0
 10
162.9270314719
 20
81.4757769397
 30
0.0
 10
163.3590926214
 20
81.4049883247
 30
0.0
 10
163.4792967707
 20
81.3615613144
 30
0.0
  0
SPLINE
  5
35F
100
AcDbEntity
  8
0
100
AcDbSpline
 62
7
  6
CONTINUOUS
 70
0
 71
3
 72
9
 73
5
 74
0
 42
0.0000001
 43
0.0000001
 44
0.0000000001
 40
0.0
 40
0.0
 40
0.0
 40
0.0
 40
0.7295958313
 40
1.0
 40
1.0
 40
1.0
 40
1.0
 10
163.1027476627
 20
81.0059466936
 30
0.0
 10
163.0037277506
 20
81.0174391799
 30
0.0
 10
162.8655066743
 20
81.0178821804
 30
0.0
 10
162.7304021134
 20
80.997444451
 30
0.0
 10
162.693983221
 20
80.9912301337
 30
0.0
  0
SPLINE
  5
360
100
AcDbEntity
  8
0
100
AcDbSpline
 62
7
  6
CONTINUOUS
 70
0
 71
3
 72
9
 73
5
 74
0
 42
0.0000001
 43
0.0000001
 44
0.0000000001
 40
0.0
 40
0.0
 40
0.0
 40
0.0
 40
0.4988584794
 40
1.0
 40
1.0
 40
1.0
 40
1.0
 10
163.3975143878
 20
80.6932559711
 30
0.0
 10
163.3963694942
 20
80.7698831749
 30
0.0
 10
163.3339820259
 20
80.9296938765
 30
0.0
 10
163.1792266811
 20
80.9970703571
 30
0.0
 10
163.1027476627
 20
81.0059466937
 30
0.0
  0
SPLINE
  5
361
100
AcDbEntity
  8
0
100
AcDbSpline
 62
7
  6
CONTINUOUS
 70
0
 71
3
 72
9
 73
5
 74
0
 42
0.0000001
 43
0.0000001
 44
0.0000000001
 40
0.0
 40
0.0
 40
0.0
 40
0.0
 40
0.479537635
 40
1.0
 40
1.0
 40
1.0
 40
1.0
 10
162.9921826756
 20
80.3050039813
 30
0.0
 10
163.0916741791
 20
80.3072261965
 30
0.0
 10
163.3227596304
 20
80.3493159738
 30
0.0
 10
163.3991282303
 20
80.5852407812
 30
0.0
 10
163.3975143661
 20
80.6932559708
 30
0.0
  0
LINE
  5
362
100
AcDbEntity
  8
RACCORDO
100
AcDbLine
 62
250
  6
CONTINUOUS
 10
89.9404494235
 20
149.7176022242
 30
0.0
 11
90.3115742913
 21
149.7173459461
 31
0.0
  0
SPLINE
  5
363
100
AcDbEntity
  8
RACCORDO
100
AcDbSpline
 62
250
  6
CONTINUOUS
 70
0
 71
3
 72
9
 73
5
 74
0
 42
0.0000001
 43
0.0000001
 44
0.0000000001
 40
0.0
 40
0.0
 40
0.0
 40
0.0
 40
0.2505068627
 40
1.0
 40
1.0
 40
1.0
 40
1.0
 10
86.3547617568
 20
129.6331827264
 30
0.0
 10
86.354893594
 20
130.9795023381
 30
0.0
 10
86.3554963012
 20
136.3538844819
 30
0.0
 10
86.3564063496
 20
141.7282665916
 30
0.0
 10
86.3572685625
 20
145.7563290586
 30
0.0
  0
SPLINE
  5
364
100
AcDbEntity
  8
RACCORDO
100
AcDbSpline
 62
250
  6
CONTINUOUS
 70
0
 71
3
 72
9
 73
5
 74
0
 42
0.0000001
 43
0.0000001
 44
0.0000000001
 40
0.0
 40
0.0
 40
0.0
 40
0.0
 40
0.2492023557
 40
1.0
 40
1.0
 40
1.0
 40
1.0
 10
90.3115742913
 20
149.7173459461
 30
0.0
 10
93.2411334503
 20
149.7179245984
 30
0.0
 10
104.9968777542
 20
149.7199730683
 30
0.0
 10
116.7526222801
 20
149.7204179897
 30
0.0
 10
125.5788075378
 20
149.7204219119
 30
0.0
  0
LINE
  5
365
100
AcDbEntity
  8
RACCORDO
100
AcDbLine
 62
250
  6
CONTINUOUS
 10
85.9272892442
 20
146.1475290586
 30
0.0
 11
86.3570053866
 21
146.1339730667
 31
0.0
  0
SPLINE
  5
366
100
AcDbEntity
  8
RACCORDO
100
AcDbSpline
 62
250
  6
CONTINUOUS
 70
0
 71
3
 72
8
 73
4
 74
0
 42
0.0000001
 43
0.0000001
 44
0.0000000001
 40
0.0
 40
0.0
 40
0.0
 40
0.0
 40
1.0
 40
1.0
 40
1.0
 40
1.0
 10
125.5772892442
 20
129.8345529188
 30
0.0
 10
136.7939558656
 20
129.8357169777
 30
0.0
 10
148.0106225624
 20
129.8362989916
 30
0.0
 10
159.2272892442
 20
129.8362989916
 30
0.0
  0
SPLINE
  5
367
100
AcDbEntity
  8
RACCORDO
100
AcDbSpline
 62
250
  6
CONTINUOUS
 70
0
 71
3
 72
17
 73
13
 74
0
 42
0.0000001
 43
0.0000001
 44
0.0000000001
 40
0.0
 40
0.0
 40
0.0
 40
0.0
 40
0.1906283892
 40
0.3750548407
 40
0.5458468574
 40
0.6965625058
 40
0.8213105288
 40
0.9153270583
 40
0.9496925016
 40
0.9752038842
 40
0.9917886332
 40
1.0
 40
1.0
 40
1.0
 40
1.0
 10
204.6285677842
 20
129.0317235035
 30
0.0
 10
204.6088898437
 20
129.0317345736
 30
0.0
 10
204.5701739646
 20
129.0315521479
 30
0.0
 10
204.5138325957
 20
129.0306820156
 30
0.0
 10
204.4616280249
 20
129.0292491549
 30
0.0
 10
204.4155909512
 20
129.0273269616
 30
0.0
 10
204.3775458083
 20
129.024993004
 30
0.0
 10
204.3514556351
 20
129.0226601158
 30
0.0
 10
204.3357893565
 20
129.0205144617
 30
0.0
 10
204.3278937533
 20
129.0190276542
 30
0.0
 10
204.323155495
 20
129.0176544655
 30
0.0
 10
204.3205042423
 20
129.0163657689
 30
0.0
 10
204.3202434102
 20
129.0155592657
 30
0.0
  0
SPLINE
  5
368
100
AcDbEntity
  8
RACCORDO
100
AcDbSpline
 62
250
  6
CONTINUOUS
 70
0
 71
3
 72
18
 73
14
 74
0
 42
0.0000001
 43
0.0000001
 44
0.0000000001
 40
0.0
 40
0.0
 40
0.0
 40
0.0
 40
0.1888488213
 40
0.3725490349
 40
0.5434375997
 40
0.6948292123
 40
0.8205722287
 40
0.8722105022
 40
0.9156296236
 40
0.95042549
 40
0.9762188387
 40
0.9927760734
 40
1.0
 40
1.0
 40
1.0
 40
1.0
 10
204.3387429032
 20
129.6475290581
 30
0.0
 10
204.3259453106
 20
129.632124026
 30
0.0
 10
204.3007452298
 20
129.6016954968
 30
0.0
 10
204.2641220726
 20
129.5571971442
 30
0.0
 10
204.2301619462
 20
129.5156513969
 30
0.0
 10
204.2002438671
 20
129.4787426663
 30
0.0
 10
204.1784238406
 20
129.4515440074
 30
0.0
 10
204.163905274
 20
129.4331784879
 30
0.0
 10
204.1554032605
 20
129.4223322372
 30
0.0
 10
204.1487411193
 20
129.4135755669
 30
0.0
 10
204.1437066715
 20
129.4070441039
 30
0.0
 10
204.1409326254
 20
129.4027091296
 30
0.0
 10
204.1392668946
 20
129.4006234273
 30
0.0
 10
204.1391617815
 20
129.3998645791
 30
0.0
  0
SPLINE
  5
369
100
AcDbEntity
  8
RACCORDO
100
AcDbSpline
 62
250
  6
CONTINUOUS
 70
0
 71
3
 72
18
 73
14
 74
0
 42
0.0000001
 43
0.0000001
 44
0.0000000001
 40
0.0
 40
0.0
 40
0.0
 40
0.0
 40
0.1897204671
 40
0.3741104471
 40
0.5454464466
 40
0.6969998665
 40
0.822590495
 40
0.8740326049
 40
0.9171774316
 40
0.9516262256
 40
0.9770100633
 40
0.9931234534
 40
1.0
 40
1.0
 40
1.0
 40
1.0
 10
203.827457208
 20
129.8321248977
 30
0.0
 10
203.827477206
 20
129.8120553441
 30
0.0
 10
203.8274170171
 20
129.7724798686
 30
0.0
 10
203.8270365624
 20
129.7147812129
 30
0.0
 10
203.8263836929
 20
129.6611212065
 30
0.0
 10
203.8254839881
 20
129.6136903578
 30
0.0
 10
203.8245280317
 20
129.5789348408
 30
0.0
 10
203.8236133244
 20
129.5556743182
 30
0.0
 10
203.8229702077
 20
129.5420101744
 30
0.0
 10
203.8222260089
 20
129.5312181751
 30
0.0
 10
203.8216765143
 20
129.52302232
 30
0.0
 10
203.8207496905
 20
129.5183081553
 30
0.0
 10
203.8205135718
 20
129.5154940224
 30
0.0
 10
203.8199158148
 20
129.5150794768
 30
0.0
  0
SPLINE
  5
36A
100
AcDbEntity
  8
RACCORDO
100
AcDbSpline
 62
250
  6
CONTINUOUS
 70
0
 71
3
 72
16
 73
12
 74
0
 42
0.0000001
 43
0.0000001
 44
0.0000000001
 40
0.0
 40
0.0
 40
0.0
 40
0.0
 40
0.374447435
 40
0.5459281695
 40
0.6975941784
 40
0.8232511115
 40
0.917837152
 40
0.9522488711
 40
0.9775562219
 40
0.9935197728
 40
1.0
 40
1.0
 40
1.0
 40
1.0
 10
192.8772892442
 20
129.8345529188
 30
0.0
 10
192.8772985577
 20
129.7949774602
 30
0.0
 10
192.8772487282
 20
129.7372777638
 30
0.0
 10
192.8770337947
 20
129.6635499252
 30
0.0
 10
192.8768300305
 20
129.6161142203
 30
0.0
 10
192.8765504038
 20
129.576813369
 30
0.0
 10
192.8763364703
 20
129.549887851
 30
0.0
 10
192.8760316234
 20
129.533598094
 30
0.0
 10
192.8759786152
 20
129.5255711295
 30
0.0
 10
192.8756162552
 20
129.5205827151
 30
0.0
 10
192.8757297263
 20
129.5181478707
 30
0.0
 10
192.8755090976
 20
129.5174994827
 30
0.0
  0
SPLINE
  5
36B
100
AcDbEntity
  8
RACCORDO
100
AcDbSpline
 62
250
  6
CONTINUOUS
 70
0
 71
3
 72
16
 73
12
 74
0
 42
0.0000001
 43
0.0000001
 44
0.0000000001
 40
0.0
 40
0.0
 40
0.0
 40
0.0
 40
0.374447435
 40
0.5459281695
 40
0.6975941784
 40
0.8232511115
 40
0.917837152
 40
0.9522488711
 40
0.9775562219
 40
0.9935197728
 40
1.0
 40
1.0
 40
1.0
 40
1.0
 10
125.5772892442
 20
129.8345529188
 30
0.0
 10
125.5772799306
 20
129.7949774602
 30
0.0
 10
125.5773297602
 20
129.7372777638
 30
0.0
 10
125.5775446937
 20
129.6635499252
 30
0.0
 10
125.5777484579
 20
129.6161142203
 30
0.0
 10
125.5780280846
 20
129.576813369
 30
0.0
 10
125.578242018
 20
129.549887851
 30
0.0
 10
125.578546865
 20
129.533598094
 30
0.0
 10
125.5785998731
 20
129.5255711295
 30
0.0
 10
125.5789622332
 20
129.5205827151
 30
0.0
 10
125.578848762
 20
129.5181478707
 30
0.0
 10
125.5790693907
 20
129.5174994827
 30
0.0
  0
SPLINE
  5
36C
100
AcDbEntity
  8
RACCORDO
100
AcDbSpline
 62
250
  6
CONTINUOUS
 70
0
 71
3
 72
18
 73
14
 74
0
 42
0.0000001
 43
0.0000001
 44
0.0000000001
 40
0.0
 40
0.0
 40
0.0
 40
0.0
 40
0.1897204661
 40
0.3741104445
 40
0.5454464439
 40
0.6969998642
 40
0.8225904934
 40
0.8740326036
 40
0.9171774307
 40
0.9516262251
 40
0.977010063
 40
0.9931234532
 40
1.0
 40
1.0
 40
1.0
 40
1.0
 10
114.6271212804
 20
129.8321248977
 30
0.0
 10
114.6271012824
 20
129.8120553442
 30
0.0
 10
114.6271614713
 20
129.772479869
 30
0.0
 10
114.627541926
 20
129.7147812136
 30
0.0
 10
114.6281947954
 20
129.6611212073
 30
0.0
 10
114.6290945002
 20
129.6136903585
 30
0.0
 10
114.6300504566
 20
129.5789348414
 30
0.0
 10
114.630965164
 20
129.5556743186
 30
0.0
 10
114.6316082806
 20
129.5420101747
 30
0.0
 10
114.6323524794
 20
129.5312181753
 30
0.0
 10
114.6329019741
 20
129.5230223201
 30
0.0
 10
114.6338287979
 20
129.5183081553
 30
0.0
 10
114.6340649166
 20
129.5154940224
 30
0.0
 10
114.6346626736
 20
129.5150794768
 30
0.0
  0
SPLINE
  5
36D
100
AcDbEntity
  8
RACCORDO
100
AcDbSpline
 62
250
  6
CONTINUOUS
 70
0
 71
3
 72
18
 73
14
 74
0
 42
0.0000001
 43
0.0000001
 44
0.0000000001
 40
0.0
 40
0.0
 40
0.0
 40
0.0
 40
0.1888488137
 40
0.3725490156
 40
0.5434375793
 40
0.6948291948
 40
0.8205722165
 40
0.8722104921
 40
0.9156296166
 40
0.9504254861
 40
0.9762188361
 40
0.9927760725
 40
1.0
 40
1.0
 40
1.0
 40
1.0
 10
114.1158355859
 20
129.6475290587
 30
0.0
 10
114.1286331781
 20
129.6321240273
 30
0.0
 10
114.1538332578
 20
129.6016954998
 30
0.0
 10
114.1904564138
 20
129.557197149
 30
0.0
 10
114.2244165397
 20
129.5156514026
 30
0.0
 10
114.2543346192
 20
129.4787426713
 30
0.0
 10
114.2761546462
 20
129.4515440114
 30
0.0
 10
114.2906732133
 20
129.4331784909
 30
0.0
 10
114.2991752272
 20
129.4223322394
 30
0.0
 10
114.3058373687
 20
129.4135755683
 30
0.0
 10
114.3108718167
 20
129.4070441046
 30
0.0
 10
114.3136458626
 20
129.4027091298
 30
0.0
 10
114.3153115936
 20
129.4006234271
 30
0.0
 10
114.3154167064
 20
129.3998645788
 30
0.0
  0
SPLINE
  5
36E
100
AcDbEntity
  8
RACCORDO
100
AcDbSpline
 62
250
  6
CONTINUOUS
 70
0
 71
3
 72
17
 73
13
 74
0
 42
0.0000001
 43
0.0000001
 44
0.0000000001
 40
0.0
 40
0.0
 40
0.0
 40
0.0
 40
0.1906284239
 40
0.3750549134
 40
0.5458469615
 40
0.6965626338
 40
0.8213106735
 40
0.9153272171
 40
0.9496926618
 40
0.9752040343
 40
0.9917887449
 40
1.0
 40
1.0
 40
1.0
 40
1.0
 10
113.8260107041
 20
129.031723392
 30
0.0
 10
113.8456886449
 20
129.0317345038
 30
0.0
 10
113.8844045256
 20
129.0315521454
 30
0.0
 10
113.9407458965
 20
129.0306820287
 30
0.0
 10
113.9929504677
 20
129.029249149
 30
0.0
 10
114.0389875417
 20
129.0273269605
 30
0.0
 10
114.0770326833
 20
129.0249930096
 30
0.0
 10
114.1031228573
 20
129.0226601106
 30
0.0
 10
114.1187891293
 20
129.0205144508
 30
0.0
 10
114.126684736
 20
129.0190276675
 30
0.0
 10
114.1314229719
 20
129.0176544997
 30
0.0
 10
114.1340742405
 20
129.016365866
 30
0.0
 10
114.1343350783
 20
129.0155593769
 30
0.0
  0
SPLINE
  5
36F
100
AcDbEntity
  8
RACCORDO
100
AcDbSpline
 62
250
  6
CONTINUOUS
 70
0
 71
3
 72
17
 73
13
 74
0
 42
0.0000001
 43
0.0000001
 44
0.0000000001
 40
0.0
 40
0.0
 40
0.0
 40
0.0
 40
0.1906283892
 40
0.3750548407
 40
0.5458468574
 40
0.6965625058
 40
0.8213105288
 40
0.9153270583
 40
0.9496925016
 40
0.9752038842
 40
0.9917886332
 40
1.0
 40
1.0
 40
1.0
 40
1.0
 10
113.8260107042
 20
85.2633346137
 30
0.0
 10
113.8456886447
 20
85.2633235436
 30
0.0
 10
113.8844045238
 20
85.2635059693
 30
0.0
 10
113.9407458927
 20
85.2643761016
 30
0.0
 10
113.9929504635
 20
85.2658089623
 30
0.0
 10
114.0389875372
 20
85.2677311556
 30
0.0
 10
114.0770326801
 20
85.2700651132
 30
0.0
 10
114.1031228533
 20
85.2723980014
 30
0.0
 10
114.1187891319
 20
85.2745436555
 30
0.0
 10
114.126684735
 20
85.276030463
 30
0.0
 10
114.1314229934
 20
85.2774036518
 30
0.0
 10
114.134074246
 20
85.2786923483
 30
0.0
 10
114.1343350782
 20
85.2794988515
 30
0.0
  0
SPLINE
  5
370
100
AcDbEntity
  8
RACCORDO
100
AcDbSpline
 62
250
  6
CONTINUOUS
 70
0
 71
3
 72
18
 73
14
 74
0
 42
0.0000001
 43
0.0000001
 44
0.0000000001
 40
0.0
 40
0.0
 40
0.0
 40
0.0
 40
0.1888488213
 40
0.3725490349
 40
0.5434375997
 40
0.6948292123
 40
0.8205722287
 40
0.8722105022
 40
0.9156296236
 40
0.95042549
 40
0.9762188387
 40
0.9927760734
 40
1.0
 40
1.0
 40
1.0
 40
1.0
 10
114.1158355852
 20
84.6475290591
 30
0.0
 10
114.1286331778
 20
84.6629340913
 30
0.0
 10
114.1538332586
 20
84.6933626205
 30
0.0
 10
114.1904564158
 20
84.737860973
 30
0.0
 10
114.2244165422
 20
84.7794067203
 30
0.0
 10
114.2543346213
 20
84.8163154509
 30
0.0
 10
114.2761546478
 20
84.8435141098
 30
0.0
 10
114.2906732144
 20
84.8618796294
 30
0.0
 10
114.2991752279
 20
84.87272588
 30
0.0
 10
114.3058373691
 20
84.8814825504
 30
0.0
 10
114.3108718169
 20
84.8880140133
 30
0.0
 10
114.313645863
 20
84.8923489877
 30
0.0
 10
114.3153115937
 20
84.8944346899
 30
0.0
 10
114.3154167068
 20
84.8951935381
 30
0.0
  0
SPLINE
  5
371
100
AcDbEntity
  8
RACCORDO
100
AcDbSpline
 62
250
  6
CONTINUOUS
 70
0
 71
3
 72
18
 73
14
 74
0
 42
0.0000001
 43
0.0000001
 44
0.0000000001
 40
0.0
 40
0.0
 40
0.0
 40
0.0
 40
0.1897204671
 40
0.3741104471
 40
0.5454464466
 40
0.6969998665
 40
0.822590495
 40
0.8740326049
 40
0.9171774316
 40
0.9516262256
 40
0.9770100633
 40
0.9931234534
 40
1.0
 40
1.0
 40
1.0
 40
1.0
 10
114.6271212803
 20
84.4629332195
 30
0.0
 10
114.6271012824
 20
84.4830027731
 30
0.0
 10
114.6271614713
 20
84.5225782486
 30
0.0
 10
114.627541926
 20
84.5802769043
 30
0.0
 10
114.6281947955
 20
84.6339369107
 30
0.0
 10
114.6290945003
 20
84.6813677594
 30
0.0
 10
114.6300504567
 20
84.7161232764
 30
0.0
 10
114.630965164
 20
84.7393837991
 30
0.0
 10
114.6316082806
 20
84.7530479428
 30
0.0
 10
114.6323524794
 20
84.7638399421
 30
0.0
 10
114.6329019741
 20
84.7720357972
 30
0.0
 10
114.6338287979
 20
84.776749962
 30
0.0
 10
114.6340649166
 20
84.7795640948
 30
0.0
 10
114.6346626736
 20
84.7799786405
 30
0.0
  0
SPLINE
  5
372
100
AcDbEntity
  8
RACCORDO
100
AcDbSpline
 62
250
  6
CONTINUOUS
 70
0
 71
3
 72
16
 73
12
 74
0
 42
0.0000001
 43
0.0000001
 44
0.0000000001
 40
0.0
 40
0.0
 40
0.0
 40
0.0
 40
0.374447435
 40
0.5459281695
 40
0.6975941784
 40
0.8232511115
 40
0.917837152
 40
0.9522488711
 40
0.9775562219
 40
0.9935197728
 40
1.0
 40
1.0
 40
1.0
 40
1.0
 10
125.5772892442
 20
84.4605051984
 30
0.0
 10
125.5772799306
 20
84.500080657
 30
0.0
 10
125.5773297602
 20
84.5577803534
 30
0.0
 10
125.5775446937
 20
84.631508192
 30
0.0
 10
125.5777484578
 20
84.678943897
 30
0.0
 10
125.5780280846
 20
84.7182447482
 30
0.0
 10
125.578242018
 20
84.7451702663
 30
0.0
 10
125.578546865
 20
84.7614600233
 30
0.0
 10
125.5785998731
 20
84.7694869877
 30
0.0
 10
125.5789622332
 20
84.7744754021
 30
0.0
 10
125.578848762
 20
84.7769102465
 30
0.0
 10
125.5790693907
 20
84.7775586345
 30
0.0
  0
SPLINE
  5
373
100
AcDbEntity
  8
RACCORDO
100
AcDbSpline
 62
250
  6
CONTINUOUS
 70
0
 71
3
 72
16
 73
12
 74
0
 42
0.0000001
 43
0.0000001
 44
0.0000000001
 40
0.0
 40
0.0
 40
0.0
 40
0.0
 40
0.374447435
 40
0.5459281695
 40
0.6975941784
 40
0.8232511115
 40
0.917837152
 40
0.9522488711
 40
0.9775562219
 40
0.9935197728
 40
1.0
 40
1.0
 40
1.0
 40
1.0
 10
192.8772892442
 20
84.4605051984
 30
0.0
 10
192.8772985577
 20
84.500080657
 30
0.0
 10
192.8772487282
 20
84.5577803534
 30
0.0
 10
192.8770337946
 20
84.631508192
 30
0.0
 10
192.8768300305
 20
84.678943897
 30
0.0
 10
192.8765504038
 20
84.7182447482
 30
0.0
 10
192.8763364703
 20
84.7451702663
 30
0.0
 10
192.8760316234
 20
84.7614600233
 30
0.0
 10
192.8759786152
 20
84.7694869877
 30
0.0
 10
192.8756162552
 20
84.7744754021
 30
0.0
 10
192.8757297263
 20
84.7769102465
 30
0.0
 10
192.8755090976
 20
84.7775586345
 30
0.0
  0
SPLINE
  5
374
100
AcDbEntity
  8
RACCORDO
100
AcDbSpline
 62
250
  6
CONTINUOUS
 70
0
 71
3
 72
18
 73
14
 74
0
 42
0.0000001
 43
0.0000001
 44
0.0000000001
 40
0.0
 40
0.0
 40
0.0
 40
0.0
 40
0.1897204661
 40
0.3741104445
 40
0.5454464439
 40
0.6969998642
 40
0.8225904934
 40
0.8740326036
 40
0.9171774307
 40
0.9516262251
 40
0.977010063
 40
0.9931234532
 40
1.0
 40
1.0
 40
1.0
 40
1.0
 10
203.827457208
 20
84.4629332195
 30
0.0
 10
203.8274772059
 20
84.483002773
 30
0.0
 10
203.8274170171
 20
84.5225782482
 30
0.0
 10
203.8270365624
 20
84.5802769037
 30
0.0
 10
203.826383693
 20
84.6339369099
 30
0.0
 10
203.8254839881
 20
84.6813677587
 30
0.0
 10
203.8245280317
 20
84.7161232758
 30
0.0
 10
203.8236133244
 20
84.7393837987
 30
0.0
 10
203.8229702078
 20
84.7530479426
 30
0.0
 10
203.822226009
 20
84.7638399419
 30
0.0
 10
203.8216765143
 20
84.7720357971
 30
0.0
 10
203.8207496905
 20
84.7767499619
 30
0.0
 10
203.8205135718
 20
84.7795640948
 30
0.0
 10
203.8199158148
 20
84.7799786405
 30
0.0
  0
SPLINE
  5
375
100
AcDbEntity
  8
RACCORDO
100
AcDbSpline
 62
250
  6
CONTINUOUS
 70
0
 71
3
 72
18
 73
14
 74
0
 42
0.0000001
 43
0.0000001
 44
0.0000000001
 40
0.0
 40
0.0
 40
0.0
 40
0.0
 40
0.1888488194
 40
0.3725490302
 40
0.5434375947
 40
0.694829208
 40
0.8205722257
 40
0.8722104997
 40
0.9156296219
 40
0.950425489
 40
0.976218838
 40
0.9927760731
 40
1.0
 40
1.0
 40
1.0
 40
1.0
 10
204.3387429023
 20
84.6475290584
 30
0.0
 10
204.3259453098
 20
84.6629340904
 30
0.0
 10
204.3007452293
 20
84.6933626192
 30
0.0
 10
204.2641220724
 20
84.7378609714
 30
0.0
 10
204.2301619462
 20
84.7794067185
 30
0.0
 10
204.2002438671
 20
84.8163154493
 30
0.0
 10
204.1784238405
 20
84.8435141085
 30
0.0
 10
204.1639052738
 20
84.8618796283
 30
0.0
 10
204.1554032603
 20
84.8727258792
 30
0.0
 10
204.1487411191
 20
84.8814825498
 30
0.0
 10
204.1437066713
 20
84.888014013
 30
0.0
 10
204.1409326254
 20
84.8923489875
 30
0.0
 10
204.1392668946
 20
84.89443469
 30
0.0
 10
204.1391617817
 20
84.8951935382
 30
0.0
  0
SPLINE
  5
376
100
AcDbEntity
  8
RACCORDO
100
AcDbSpline
 62
250
  6
CONTINUOUS
 70
0
 71
3
 72
17
 73
13
 74
0
 42
0.0000001
 43
0.0000001
 44
0.0000000001
 40
0.0
 40
0.0
 40
0.0
 40
0.0
 40
0.1906284231
 40
0.3750549113
 40
0.5458469593
 40
0.6965626319
 40
0.8213106722
 40
0.9153272164
 40
0.9496926614
 40
0.975204034
 40
0.9917887448
 40
1.0
 40
1.0
 40
1.0
 40
1.0
 10
204.6285677843
 20
85.2633347252
 30
0.0
 10
204.6088898436
 20
85.2633236134
 30
0.0
 10
204.5701739631
 20
85.2635059717
 30
0.0
 10
204.5138325924
 20
85.2643760885
 30
0.0
 10
204.4616280213
 20
85.2658089682
 30
0.0
 10
204.4155909472
 20
85.2677311567
 30
0.0
 10
204.3775458054
 20
85.2700651076
 30
0.0
 10
204.3514556313
 20
85.2723980066
 30
0.0
 10
204.3357893592
 20
85.2745436664
 30
0.0
 10
204.3278937524
 20
85.2760304497
 30
0.0
 10
204.3231555165
 20
85.2774036175
 30
0.0
 10
204.3205042479
 20
85.2786922512
 30
0.0
 10
204.3202434101
 20
85.2794987403
 30
0.0
  0
LINE
  5
377
100
AcDbEntity
  8
RACCORDO
100
AcDbLine
 62
250
  6
CONTINUOUS
 10
89.909034398
 20
149.4609191792
 30
0.0
 11
90.2813206763
 21
149.4606759421
 31
0.0
  0
SPLINE
  5
378
100
AcDbEntity
  8
RACCORDO
100
AcDbSpline
 62
250
  6
CONTINUOUS
 70
0
 71
3
 72
13
 73
9
 74
0
 42
0.0000001
 43
0.0000001
 44
0.0000000001
 40
0.0
 40
0.0
 40
0.0
 40
0.0
 40
0.0425382831
 40
0.1136724463
 40
0.2118348859
 40
0.334607471
 40
0.6405696127
 40
1.0
 40
1.0
 40
1.0
 40
1.0
 10
232.0998325711
 20
129.4674977975
 30
0.0
 10
232.0964283569
 20
129.4688421111
 30
0.0
 10
232.0867299158
 20
129.4706685415
 30
0.0
 10
232.0687067711
 20
129.4730654455
 30
0.0
 10
232.0436408403
 20
129.4752155234
 30
0.0
 10
231.9984061763
 20
129.4780778951
 30
0.0
 10
231.9306181296
 20
129.4805340471
 30
0.0
 10
231.87337441
 20
129.4814558147
 30
0.0
 10
231.8424495056
 20
129.4816824901
 30
0.0
  0
SPLINE
  5
379
100
AcDbEntity
  8
RACCORDO
100
AcDbSpline
 62
250
  6
CONTINUOUS
 70
0
 71
3
 72
13
 73
9
 74
0
 42
0.0000001
 43
0.0000001
 44
0.0000000001
 40
0.0
 40
0.0
 40
0.0
 40
0.0
 40
0.0425644237
 40
0.1137097442
 40
0.2118754657
 40
0.3346460385
 40
0.6405932144
 40
1.0
 40
1.0
 40
1.0
 40
1.0
 10
232.0998167315
 20
129.6331827264
 30
0.0
 10
232.0964154489
 20
129.6345412093
 30
0.0
 10
232.0867155634
 20
129.6363900043
 30
0.0
 10
232.0686919512
 20
129.6388136828
 30
0.0
 10
232.0436248352
 20
129.6409887948
 30
0.0
 10
231.998390388
 20
129.6438836292
 30
0.0
 10
231.9306017483
 20
129.6463678681
 30
0.0
 10
231.8733574887
 20
129.6472999277
 30
0.0
 10
231.8424324701
 20
129.6475290586
 30
0.0
  0
SPLINE
  5
37A
100
AcDbEntity
  8
RACCORDO
100
AcDbSpline
 62
250
  6
CONTINUOUS
 70
0
 71
3
 72
13
 73
9
 74
0
 42
0.0000001
 43
0.0000001
 44
0.0000000001
 40
0.0
 40
0.0
 40
0.0
 40
0.0
 40
0.0464915747
 40
0.119380851
 40
0.2180819345
 40
0.3405651868
 40
0.6442288659
 40
1.0
 40
1.0
 40
1.0
 40
1.0
 10
232.0973099259
 20
145.7563290586
 30
0.0
 10
232.094232656
 20
145.7589531895
 30
0.0
 10
232.0844901876
 20
145.7632194038
 30
0.0
 10
232.0663071018
 20
145.7683271773
 30
0.0
 10
232.0411044835
 20
145.7730925497
 30
0.0
 10
231.9958808184
 20
145.7792684897
 30
0.0
 10
231.9280134129
 20
145.7846331067
 30
0.0
 10
231.8706766916
 20
145.7866252303
 30
0.0
 10
231.8397327186
 20
145.7871146922
 30
0.0
  0
SPLINE
  5
37B
100
AcDbEntity
  8
RACCORDO
100
AcDbSpline
 62
250
  6
CONTINUOUS
 70
0
 71
3
 72
13
 73
9
 74
0
 42
0.0000001
 43
0.0000001
 44
0.0000000001
 40
0.0
 40
0.0
 40
0.0
 40
0.0
 40
0.0466274415
 40
0.119581068
 40
0.2183050137
 40
0.3407820353
 40
0.6443683055
 40
1.0
 40
1.0
 40
1.0
 40
1.0
 10
232.0975631532
 20
146.1339727648
 30
0.0
 10
232.0944981112
 20
146.1366331724
 30
0.0
 10
232.0847634829
 20
146.1409849752
 30
0.0
 10
232.0665775199
 20
146.1461990392
 30
0.0
 10
232.0413728732
 20
146.1510808621
 30
0.0
 10
231.9961484572
 20
146.1574263642
 30
0.0
 10
231.9282719911
 20
146.1629899403
 30
0.0
 10
231.8709220194
 20
146.1651120339
 30
0.0
 10
231.839971598
 20
146.1656629599
 30
0.0
  0
SPLINE
  5
37C
100
AcDbEntity
  8
RACCORDO
100
AcDbSpline
 62
250
  6
CONTINUOUS
 70
0
 71
3
 72
13
 73
9
 74
0
 42
0.0000001
 43
0.0000001
 44
0.0000000001
 40
0.0
 40
0.0
 40
0.0
 40
0.0
 40
0.0464713825
 40
0.1193324663
 40
0.2179970781
 40
0.3404434689
 40
0.6440836985
 40
1.0
 40
1.0
 40
1.0
 40
1.0
 10
228.5140020443
 20
149.7176115691
 30
0.0
 10
228.5166219384
 20
149.714549333
 30
0.0
 10
228.5208959159
 20
149.7048521633
 30
0.0
 10
228.5260379926
 20
149.6867463247
 30
0.0
 10
228.5308646073
 20
149.66164498
 30
0.0
 10
228.5371671852
 20
149.6165889043
 30
0.0
 10
228.5427482875
 20
149.5489419295
 30
0.0
 10
228.5449411757
 20
149.4917785883
 30
0.0
 10
228.5455440904
 20
149.4609191792
 30
0.0
  0
SPLINE
  5
37D
100
AcDbEntity
  8
RACCORDO
100
AcDbSpline
 62
250
  6
CONTINUOUS
 70
0
 71
3
 72
13
 73
9
 74
0
 42
0.0000001
 43
0.0000001
 44
0.0000000001
 40
0.0
 40
0.0
 40
0.0
 40
0.0
 40
0.0463548345
 40
0.1191600707
 40
0.2178031096
 40
0.340252026
 40
0.6439550376
 40
1.0
 40
1.0
 40
1.0
 40
1.0
 10
228.1430041959
 20
149.7173459461
 30
0.0
 10
228.145584971
 20
149.7142681607
 30
0.0
 10
228.1497633176
 20
149.7045585833
 30
0.0
 10
228.1547756046
 20
149.6864501223
 30
0.0
 10
228.1594506579
 20
149.6613487182
 30
0.0
 10
228.1655170867
 20
149.6162945047
 30
0.0
 10
228.1707947632
 20
149.5486635475
 30
0.0
 10
228.1727663811
 20
149.491523051
 30
0.0
 10
228.1732578135
 20
149.4606759421
 30
0.0
  0
SPLINE
  5
37E
100
AcDbEntity
  8
RACCORDO
100
AcDbSpline
 62
250
  6
CONTINUOUS
 70
0
 71
3
 72
11
 73
7
 74
0
 42
0.0000001
 43
0.0000001
 44
0.0000000001
 40
0.0
 40
0.0
 40
0.0
 40
0.0
 40
0.1120435833
 40
0.332843726
 40
0.6394071435
 40
1.0
 40
1.0
 40
1.0
 40
1.0
 10
192.8757709506
 20
149.7204219119
 30
0.0
 10
192.8761755963
 20
149.7108531916
 30
0.0
 10
192.8763772568
 20
149.6823956205
 30
0.0
 10
192.8769091224
 20
149.6277480537
 30
0.0
 10
192.8771488488
 20
149.551844828
 30
0.0
 10
192.8772642037
 20
149.4948184292
 30
0.0
 10
192.8772892442
 20
149.463995648
 30
0.0
  0
SPLINE
  5
37F
100
AcDbEntity
  8
RACCORDO
100
AcDbSpline
 62
250
  6
CONTINUOUS
 70
0
 71
3
 72
11
 73
7
 74
0
 42
0.0000001
 43
0.0000001
 44
0.0000000001
 40
0.0
 40
0.0
 40
0.0
 40
0.0
 40
0.1120435651
 40
0.3328437069
 40
0.6394071317
 40
1.0
 40
1.0
 40
1.0
 40
1.0
 10
192.8582703016
 20
149.7204219203
 30
0.0
 10
192.858674738
 20
149.7108531931
 30
0.0
 10
192.8588762951
 20
149.6823956316
 30
0.0
 10
192.8594078885
 20
149.6277480596
 30
0.0
 10
192.8596474956
 20
149.5518448376
 30
0.0
 10
192.8597627945
 20
149.4948184381
 30
0.0
 10
192.8597878241
 20
149.4639956571
 30
0.0
  0
SPLINE
  5
380
100
AcDbEntity
  8
RACCORDO
100
AcDbSpline
 62
250
  6
CONTINUOUS
 70
0
 71
3
 72
11
 73
7
 74
0
 42
0.0000001
 43
0.0000001
 44
0.0000000001
 40
0.0
 40
0.0
 40
0.0
 40
0.0
 40
0.1120435651
 40
0.3328437069
 40
0.6394071317
 40
1.0
 40
1.0
 40
1.0
 40
1.0
 10
125.5963081867
 20
149.7204219203
 30
0.0
 10
125.5959037504
 20
149.7108531931
 30
0.0
 10
125.5957021932
 20
149.6823956316
 30
0.0
 10
125.5951705999
 20
149.6277480596
 30
0.0
 10
125.5949309928
 20
149.5518448376
 30
0.0
 10
125.5948156939
 20
149.4948184381
 30
0.0
 10
125.5947906643
 20
149.4639956571
 30
0.0
  0
SPLINE
  5
381
100
AcDbEntity
  8
RACCORDO
100
AcDbSpline
 62
250
  6
CONTINUOUS
 70
0
 71
3
 72
11
 73
7
 74
0
 42
0.0000001
 43
0.0000001
 44
0.0000000001
 40
0.0
 40
0.0
 40
0.0
 40
0.0
 40
0.1120435833
 40
0.3328437259
 40
0.6394071434
 40
1.0
 40
1.0
 40
1.0
 40
1.0
 10
125.5788075378
 20
149.7204219119
 30
0.0
 10
125.5784028925
 20
149.7108531916
 30
0.0
 10
125.578201232
 20
149.6823956205
 30
0.0
 10
125.5776693666
 20
149.6277480537
 30
0.0
 10
125.5774296399
 20
149.5518448281
 30
0.0
 10
125.5773142848
 20
149.4948184292
 30
0.0
 10
125.5772892442
 20
149.463995648
 30
0.0
  0
SPLINE
  5
382
100
AcDbEntity
  8
RACCORDO
100
AcDbSpline
 62
250
  6
CONTINUOUS
 70
0
 71
3
 72
13
 73
9
 74
0
 42
0.0000001
 43
0.0000001
 44
0.0000000001
 40
0.0
 40
0.0
 40
0.0
 40
0.0
 40
0.0463548331
 40
0.1191600691
 40
0.2178031082
 40
0.3402520249
 40
0.643955037
 40
1.0
 40
1.0
 40
1.0
 40
1.0
 10
90.3115742913
 20
149.7173459461
 30
0.0
 10
90.3089935167
 20
149.7142681605
 30
0.0
 10
90.3048151706
 20
149.7045585832
 30
0.0
 10
90.2998028838
 20
149.6864501223
 30
0.0
 10
90.2951278304
 20
149.6613487182
 30
0.0
 10
90.2890614017
 20
149.6162945047
 30
0.0
 10
90.2837837249
 20
149.5486635475
 30
0.0
 10
90.2818121077
 20
149.491523051
 30
0.0
 10
90.281320676
 20
149.4606759421
 30
0.0
  0
SPLINE
  5
383
100
AcDbEntity
  8
RACCORDO
100
AcDbSpline
 62
250
  6
CONTINUOUS
 70
0
 71
3
 72
13
 73
9
 74
0
 42
0.0000001
 43
0.0000001
 44
0.0000000001
 40
0.0
 40
0.0
 40
0.0
 40
0.0
 40
0.046505052
 40
0.1193822449
 40
0.2180514409
 40
0.3404940208
 40
0.6441111339
 40
1.0
 40
1.0
 40
1.0
 40
1.0
 10
89.940302569
 20
149.7176024578
 30
0.0
 10
89.9376818116
 20
149.7145378344
 30
0.0
 10
89.9334093411
 20
149.7048363699
 30
0.0
 10
89.9282794676
 20
149.6867246283
 30
0.0
 10
89.9234748241
 20
149.661621044
 30
0.0
 10
89.9172186578
 20
149.6165665608
 30
0.0
 10
89.9117165307
 20
149.548926833
 30
0.0
 10
89.909596439
 20
149.4917727793
 30
0.0
 10
89.909034428
 20
149.4609191453
 30
0.0
  0
SPLINE
  5
384
100
AcDbEntity
  8
RACCORDO
100
AcDbSpline
 62
250
  6
CONTINUOUS
 70
0
 71
3
 72
13
 73
9
 74
0
 42
0.0000001
 43
0.0000001
 44
0.0000000001
 40
0.0
 40
0.0
 40
0.0
 40
0.0
 40
0.0466451871
 40
0.1196084845
 40
0.2183378382
 40
0.3408169338
 40
0.6443959725
 40
1.0
 40
1.0
 40
1.0
 40
1.0
 10
86.3570053866
 20
146.1339730676
 30
0.0
 10
86.3600647134
 20
146.1366443893
 30
0.0
 10
86.3697931646
 20
146.141025516
 30
0.0
 10
86.3879750697
 20
146.146286117
 30
0.0
 10
86.4131781816
 20
146.1512275045
 30
0.0
 10
86.458403318
 20
146.1576736644
 30
0.0
 10
86.5262873798
 20
146.1633793038
 30
0.0
 10
86.5836485906
 20
146.1656152555
 30
0.0
 10
86.6146054745
 20
146.166226146
 30
0.0
  0
SPLINE
  5
385
100
AcDbEntity
  8
RACCORDO
100
AcDbSpline
 62
250
  6
CONTINUOUS
 70
0
 71
3
 72
13
 73
9
 74
0
 42
0.0000001
 43
0.0000001
 44
0.0000000001
 40
0.0
 40
0.0
 40
0.0
 40
0.0
 40
0.0464915767
 40
0.1193808532
 40
0.2180819365
 40
0.3405651884
 40
0.6442288667
 40
1.0
 40
1.0
 40
1.0
 40
1.0
 10
86.3572685625
 20
145.7563290571
 30
0.0
 10
86.3603458322
 20
145.7589531885
 30
0.0
 10
86.3700883006
 20
145.7632194037
 30
0.0
 10
86.3882713865
 20
145.7683271775
 30
0.0
 10
86.4134740049
 20
145.7730925497
 30
0.0
 10
86.4586976699
 20
145.7792684898
 30
0.0
 10
86.5265650755
 20
145.7846331062
 30
0.0
 10
86.5839017968
 20
145.7866252309
 30
0.0
 10
86.6148457698
 20
145.7871146937
 30
0.0
  0
SPLINE
  5
386
100
AcDbEntity
  8
RACCORDO
100
AcDbSpline
 62
250
  6
CONTINUOUS
 70
0
 71
3
 72
13
 73
9
 74
0
 42
0.0000001
 43
0.0000001
 44
0.0000000001
 40
0.0
 40
0.0
 40
0.0
 40
0.0
 40
0.0425644237
 40
0.1137097442
 40
0.2118754657
 40
0.3346460384
 40
0.6405932144
 40
1.0
 40
1.0
 40
1.0
 40
1.0
 10
86.3547617568
 20
129.6331827264
 30
0.0
 10
86.3581630394
 20
129.6345412093
 30
0.0
 10
86.367862925
 20
129.6363900043
 30
0.0
 10
86.3858865372
 20
129.6388136828
 30
0.0
 10
86.4109536531
 20
129.6409887948
 30
0.0
 10
86.4561881004
 20
129.6438836292
 30
0.0
 10
86.5239767401
 20
129.6463678681
 30
0.0
 10
86.5812209997
 20
129.6472999277
 30
0.0
 10
86.6121460183
 20
129.6475290586
 30
0.0
  0
SPLINE
  5
387
100
AcDbEntity
  8
RACCORDO
100
AcDbSpline
 62
250
  6
CONTINUOUS
 70
0
 71
3
 72
13
 73
9
 74
0
 42
0.0000001
 43
0.0000001
 44
0.0000000001
 40
0.0
 40
0.0
 40
0.0
 40
0.0
 40
0.042538256
 40
0.1136724141
 40
0.2118348565
 40
0.3346074456
 40
0.6405695992
 40
1.0
 40
1.0
 40
1.0
 40
1.0
 10
86.3547459172
 20
129.4674978371
 30
0.0
 10
86.3581501355
 20
129.4688421337
 30
0.0
 10
86.3678485743
 20
129.4706685445
 30
0.0
 10
86.3858717181
 20
129.4730654404
 30
0.0
 10
86.4109376469
 20
129.4752155245
 30
0.0
 10
86.4561723114
 20
129.4780778932
 30
0.0
 10
86.5239603575
 20
129.4805340585
 30
0.0
 10
86.5812040781
 20
129.4814557988
 30
0.0
 10
86.6121289827
 20
129.4816824503
 30
0.0
  0
SPLINE
  5
388
100
AcDbEntity
  8
RACCORDO
100
AcDbSpline
 62
250
  6
CONTINUOUS
 70
0
 71
3
 72
13
 73
9
 74
0
 42
0.0000001
 43
0.0000001
 44
0.0000000001
 40
0.0
 40
0.0
 40
0.0
 40
0.0
 40
0.0425382831
 40
0.1136724463
 40
0.2118348859
 40
0.334607471
 40
0.6405696127
 40
1.0
 40
1.0
 40
1.0
 40
1.0
 10
86.3547459172
 20
84.8275603198
 30
0.0
 10
86.3581501315
 20
84.8262160061
 30
0.0
 10
86.3678485726
 20
84.8243895757
 30
0.0
 10
86.3858717173
 20
84.8219926717
 30
0.0
 10
86.4109376481
 20
84.8198425939
 30
0.0
 10
86.456172312
 20
84.8169802222
 30
0.0
 10
86.5239603588
 20
84.8145240701
 30
0.0
 10
86.5812040784
 20
84.8136023025
 30
0.0
 10
86.6121289827
 20
84.8133756271
 30
0.0
  0
SPLINE
  5
389
100
AcDbEntity
  8
RACCORDO
100
AcDbSpline
 62
250
  6
CONTINUOUS
 70
0
 71
3
 72
13
 73
9
 74
0
 42
0.0000001
 43
0.0000001
 44
0.0000000001
 40
0.0
 40
0.0
 40
0.0
 40
0.0
 40
0.0425644237
 40
0.1137097442
 40
0.2118754657
 40
0.3346460385
 40
0.6405932144
 40
1.0
 40
1.0
 40
1.0
 40
1.0
 10
86.3547617568
 20
84.6618753908
 30
0.0
 10
86.3581630394
 20
84.6605169079
 30
0.0
 10
86.367862925
 20
84.6586681129
 30
0.0
 10
86.3858865372
 20
84.6562444344
 30
0.0
 10
86.4109536531
 20
84.6540693224
 30
0.0
 10
86.4561881004
 20
84.651174488
 30
0.0
 10
86.5239767401
 20
84.6486902491
 30
0.0
 10
86.5812209997
 20
84.6477581895
 30
0.0
 10
86.6121460183
 20
84.6475290586
 30
0.0
  0
SPLINE
  5
38A
100
AcDbEntity
  8
RACCORDO
100
AcDbSpline
 62
250
  6
CONTINUOUS
 70
0
 71
3
 72
13
 73
9
 74
0
 42
0.0000001
 43
0.0000001
 44
0.0000000001
 40
0.0
 40
0.0
 40
0.0
 40
0.0
 40
0.0464915747
 40
0.119380851
 40
0.2180819345
 40
0.3405651868
 40
0.6442288659
 40
1.0
 40
1.0
 40
1.0
 40
1.0
 10
86.3572685625
 20
68.5387290586
 30
0.0
 10
86.3603458324
 20
68.5361049277
 30
0.0
 10
86.3700883008
 20
68.5318387134
 30
0.0
 10
86.3882713866
 20
68.5267309399
 30
0.0
 10
86.4134740049
 20
68.5219655675
 30
0.0
 10
86.4586976699
 20
68.5157896275
 30
0.0
 10
86.5265650755
 20
68.5104250106
 30
0.0
 10
86.5839017968
 20
68.5084328869
 30
0.0
 10
86.6148457698
 20
68.507943425
 30
0.0
  0
SPLINE
  5
38B
100
AcDbEntity
  8
RACCORDO
100
AcDbSpline
 62
250
  6
CONTINUOUS
 70
0
 71
3
 72
13
 73
9
 74
0
 42
0.0000001
 43
0.0000001
 44
0.0000000001
 40
0.0
 40
0.0
 40
0.0
 40
0.0
 40
0.0466274415
 40
0.119581068
 40
0.2183050137
 40
0.3407820353
 40
0.6443683055
 40
1.0
 40
1.0
 40
1.0
 40
1.0
 10
86.3570153351
 20
68.1610853524
 30
0.0
 10
86.3600803772
 20
68.1584249448
 30
0.0
 10
86.3698150054
 20
68.1540731421
 30
0.0
 10
86.3880009685
 20
68.148859078
 30
0.0
 10
86.4132056152
 20
68.1439772551
 30
0.0
 10
86.4584300312
 20
68.137631753
 30
0.0
 10
86.5263064973
 20
68.1320681769
 30
0.0
 10
86.583656469
 20
68.1299460833
 30
0.0
 10
86.6146068904
 20
68.1293951573
 30
0.0
  0
SPLINE
  5
38C
100
AcDbEntity
  8
RACCORDO
100
AcDbSpline
 62
250
  6
CONTINUOUS
 70
0
 71
3
 72
13
 73
9
 74
0
 42
0.0000001
 43
0.0000001
 44
0.0000000001
 40
0.0
 40
0.0
 40
0.0
 40
0.0
 40
0.0464713825
 40
0.1193324663
 40
0.2179970781
 40
0.3404434689
 40
0.6440836985
 40
1.0
 40
1.0
 40
1.0
 40
1.0
 10
89.940576444
 20
64.5774465481
 30
0.0
 10
89.93795655
 20
64.5805087843
 30
0.0
 10
89.9336825724
 20
64.5902059539
 30
0.0
 10
89.9285404958
 20
64.6083117926
 30
0.0
 10
89.9237138811
 20
64.6334131372
 30
0.0
 10
89.9174113032
 20
64.6784692129
 30
0.0
 10
89.9118302009
 20
64.7461161877
 30
0.0
 10
89.9096373127
 20
64.8032795289
 30
0.0
 10
89.909034398
 20
64.834138938
 30
0.0
  0
SPLINE
  5
38D
100
AcDbEntity
  8
RACCORDO
100
AcDbSpline
 62
250
  6
CONTINUOUS
 70
0
 71
3
 72
13
 73
9
 74
0
 42
0.0000001
 43
0.0000001
 44
0.0000000001
 40
0.0
 40
0.0
 40
0.0
 40
0.0
 40
0.0463548345
 40
0.1191600707
 40
0.2178031096
 40
0.340252026
 40
0.6439550376
 40
1.0
 40
1.0
 40
1.0
 40
1.0
 10
90.3115742924
 20
64.5777121711
 30
0.0
 10
90.3089935174
 20
64.5807899566
 30
0.0
 10
90.3048151707
 20
64.5904995339
 30
0.0
 10
90.2998028837
 20
64.6086079949
 30
0.0
 10
90.2951278304
 20
64.633709399
 30
0.0
 10
90.2890614017
 20
64.6787636125
 30
0.0
 10
90.2837837252
 20
64.7463945697
 30
0.0
 10
90.2818121073
 20
64.8035350662
 30
0.0
 10
90.2813206749
 20
64.8343821751
 30
0.0
  0
SPLINE
  5
38E
100
AcDbEntity
  8
RACCORDO
100
AcDbSpline
 62
250
  6
CONTINUOUS
 70
0
 71
3
 72
11
 73
7
 74
0
 42
0.0000001
 43
0.0000001
 44
0.0000000001
 40
0.0
 40
0.0
 40
0.0
 40
0.0
 40
0.1120435833
 40
0.332843726
 40
0.6394071435
 40
1.0
 40
1.0
 40
1.0
 40
1.0
 10
125.5788075378
 20
64.5746362053
 30
0.0
 10
125.578402892
 20
64.5842049256
 30
0.0
 10
125.5782012316
 20
64.6126624967
 30
0.0
 10
125.577669366
 20
64.6673100635
 30
0.0
 10
125.5774296395
 20
64.7432132892
 30
0.0
 10
125.5773142846
 20
64.8002396881
 30
0.0
 10
125.5772892442
 20
64.8310624692
 30
0.0
  0
SPLINE
  5
38F
100
AcDbEntity
  8
RACCORDO
100
AcDbSpline
 62
250
  6
CONTINUOUS
 70
0
 71
3
 72
11
 73
7
 74
0
 42
0.0000001
 43
0.0000001
 44
0.0000000001
 40
0.0
 40
0.0
 40
0.0
 40
0.0
 40
0.1120435651
 40
0.3328437069
 40
0.6394071317
 40
1.0
 40
1.0
 40
1.0
 40
1.0
 10
125.5963081867
 20
64.5746361969
 30
0.0
 10
125.5959037504
 20
64.5842049241
 30
0.0
 10
125.5957021932
 20
64.6126624857
 30
0.0
 10
125.5951705999
 20
64.6673100576
 30
0.0
 10
125.5949309928
 20
64.7432132797
 30
0.0
 10
125.5948156939
 20
64.8002396791
 30
0.0
 10
125.5947906643
 20
64.8310624601
 30
0.0
  0
SPLINE
  5
390
100
AcDbEntity
  8
RACCORDO
100
AcDbSpline
 62
250
  6
CONTINUOUS
 70
0
 71
3
 72
11
 73
7
 74
0
 42
0.0000001
 43
0.0000001
 44
0.0000000001
 40
0.0
 40
0.0
 40
0.0
 40
0.0
 40
0.1120435651
 40
0.3328437069
 40
0.6394071317
 40
1.0
 40
1.0
 40
1.0
 40
1.0
 10
192.8582703016
 20
64.5746361969
 30
0.0
 10
192.858674738
 20
64.5842049241
 30
0.0
 10
192.8588762951
 20
64.6126624857
 30
0.0
 10
192.8594078885
 20
64.6673100576
 30
0.0
 10
192.8596474956
 20
64.7432132797
 30
0.0
 10
192.8597627945
 20
64.8002396791
 30
0.0
 10
192.8597878241
 20
64.8310624601
 30
0.0
  0
SPLINE
  5
391
100
AcDbEntity
  8
RACCORDO
100
AcDbSpline
 62
250
  6
CONTINUOUS
 70
0
 71
3
 72
11
 73
7
 74
0
 42
0.0000001
 43
0.0000001
 44
0.0000000001
 40
0.0
 40
0.0
 40
0.0
 40
0.0
 40
0.1120435833
 40
0.3328437259
 40
0.6394071434
 40
1.0
 40
1.0
 40
1.0
 40
1.0
 10
192.8757709506
 20
64.5746362053
 30
0.0
 10
192.8761755958
 20
64.5842049256
 30
0.0
 10
192.8763772564
 20
64.6126624967
 30
0.0
 10
192.8769091217
 20
64.6673100635
 30
0.0
 10
192.8771488485
 20
64.7432132892
 30
0.0
 10
192.8772642036
 20
64.8002396881
 30
0.0
 10
192.8772892442
 20
64.8310624692
 30
0.0
  0
SPLINE
  5
392
100
AcDbEntity
  8
RACCORDO
100
AcDbSpline
 62
250
  6
CONTINUOUS
 70
0
 71
3
 72
13
 73
9
 74
0
 42
0.0000001
 43
0.0000001
 44
0.0000000001
 40
0.0
 40
0.0
 40
0.0
 40
0.0
 40
0.0463548331
 40
0.1191600691
 40
0.2178031082
 40
0.3402520249
 40
0.643955037
 40
1.0
 40
1.0
 40
1.0
 40
1.0
 10
228.143004197
 20
64.5777121711
 30
0.0
 10
228.1455849717
 20
64.5807899567
 30
0.0
 10
228.1497633177
 20
64.590499534
 30
0.0
 10
228.1547756045
 20
64.6086079949
 30
0.0
 10
228.159450658
 20
64.633709399
 30
0.0
 10
228.1655170866
 20
64.6787636126
 30
0.0
 10
228.1707947635
 20
64.7463945697
 30
0.0
 10
228.1727663806
 20
64.8035350662
 30
0.0
 10
228.1732578124
 20
64.8343821751
 30
0.0
  0
SPLINE
  5
393
100
AcDbEntity
  8
RACCORDO
100
AcDbSpline
 62
250
  6
CONTINUOUS
 70
0
 71
3
 72
13
 73
9
 74
0
 42
0.0000001
 43
0.0000001
 44
0.0000000001
 40
0.0
 40
0.0
 40
0.0
 40
0.0
 40
0.046505052
 40
0.1193822449
 40
0.2180514409
 40
0.3404940208
 40
0.6441111339
 40
1.0
 40
1.0
 40
1.0
 40
1.0
 10
228.5142759194
 20
64.5774556594
 30
0.0
 10
228.5168966768
 20
64.5805202828
 30
0.0
 10
228.5211691473
 20
64.5902217473
 30
0.0
 10
228.5262990208
 20
64.6083334889
 30
0.0
 10
228.5311036643
 20
64.6334370732
 30
0.0
 10
228.5373598306
 20
64.6784915565
 30
0.0
 10
228.5428619576
 20
64.7461312842
 30
0.0
 10
228.5449820494
 20
64.8032853379
 30
0.0
 10
228.5455440604
 20
64.8341389719
 30
0.0
  0
SPLINE
  5
394
100
AcDbEntity
  8
RACCORDO
100
AcDbSpline
 62
250
  6
CONTINUOUS
 70
0
 71
3
 72
13
 73
9
 74
0
 42
0.0000001
 43
0.0000001
 44
0.0000000001
 40
0.0
 40
0.0
 40
0.0
 40
0.0
 40
0.0466451871
 40
0.1196084845
 40
0.2183378382
 40
0.3408169338
 40
0.6443959725
 40
1.0
 40
1.0
 40
1.0
 40
1.0
 10
232.0975731018
 20
68.1610850496
 30
0.0
 10
232.094513775
 20
68.1584137279
 30
0.0
 10
232.0847853238
 20
68.1540326012
 30
0.0
 10
232.0666034186
 20
68.1487720002
 30
0.0
 10
232.0414003067
 20
68.1438306127
 30
0.0
 10
231.9961751703
 20
68.1373844529
 30
0.0
 10
231.9282911086
 20
68.1316788134
 30
0.0
 10
231.8709298977
 20
68.1294428617
 30
0.0
 10
231.8399730138
 20
68.1288319713
 30
0.0
  0
SPLINE
  5
395
100
AcDbEntity
  8
RACCORDO
100
AcDbSpline
 62
250
  6
CONTINUOUS
 70
0
 71
3
 72
13
 73
9
 74
0
 42
0.0000001
 43
0.0000001
 44
0.0000000001
 40
0.0
 40
0.0
 40
0.0
 40
0.0
 40
0.0464915767
 40
0.1193808532
 40
0.2180819365
 40
0.3405651884
 40
0.6442288667
 40
1.0
 40
1.0
 40
1.0
 40
1.0
 10
232.0973099259
 20
68.5387290601
 30
0.0
 10
232.0942326562
 20
68.5361049287
 30
0.0
 10
232.0844901878
 20
68.5318387135
 30
0.0
 10
232.0663071019
 20
68.5267309397
 30
0.0
 10
232.0411044835
 20
68.5219655675
 30
0.0
 10
231.9958808185
 20
68.5157896274
 30
0.0
 10
231.9280134128
 20
68.510425011
 30
0.0
 10
231.8706766916
 20
68.5084328863
 30
0.0
 10
231.8397327186
 20
68.5079434235
 30
0.0
  0
SPLINE
  5
396
100
AcDbEntity
  8
RACCORDO
100
AcDbSpline
 62
250
  6
CONTINUOUS
 70
0
 71
3
 72
13
 73
9
 74
0
 42
0.0000001
 43
0.0000001
 44
0.0000000001
 40
0.0
 40
0.0
 40
0.0
 40
0.0
 40
0.0425644237
 40
0.1137097442
 40
0.2118754657
 40
0.3346460384
 40
0.6405932144
 40
1.0
 40
1.0
 40
1.0
 40
1.0
 10
232.0998167315
 20
84.6618753908
 30
0.0
 10
232.0964154489
 20
84.6605169079
 30
0.0
 10
232.0867155634
 20
84.6586681129
 30
0.0
 10
232.0686919512
 20
84.6562444344
 30
0.0
 10
232.0436248352
 20
84.6540693224
 30
0.0
 10
231.998390388
 20
84.6511744881
 30
0.0
 10
231.9306017483
 20
84.6486902491
 30
0.0
 10
231.8733574887
 20
84.6477581895
 30
0.0
 10
231.8424324701
 20
84.6475290586
 30
0.0
  0
SPLINE
  5
397
100
AcDbEntity
  8
RACCORDO
100
AcDbSpline
 62
250
  6
CONTINUOUS
 70
0
 71
3
 72
13
 73
9
 74
0
 42
0.0000001
 43
0.0000001
 44
0.0000000001
 40
0.0
 40
0.0
 40
0.0
 40
0.0
 40
0.042538256
 40
0.1136724141
 40
0.2118348565
 40
0.3346074456
 40
0.6405695992
 40
1.0
 40
1.0
 40
1.0
 40
1.0
 10
232.0998325711
 20
84.8275602802
 30
0.0
 10
232.0964283528
 20
84.8262159835
 30
0.0
 10
232.086729914
 20
84.8243895727
 30
0.0
 10
232.0687067703
 20
84.8219926768
 30
0.0
 10
232.0436408414
 20
84.8198425927
 30
0.0
 10
231.998406177
 20
84.8169802241
 30
0.0
 10
231.9306181309
 20
84.8145240588
 30
0.0
 10
231.8733744102
 20
84.8136023184
 30
0.0
 10
231.8424495057
 20
84.8133756669
 30
0.0
  0
SPLINE
  5
398
100
AcDbEntity
  8
RACCORDO
100
AcDbSpline
 62
250
  6
CONTINUOUS
 70
0
 71
3
 72
9
 73
5
 74
0
 42
0.0000001
 43
0.0000001
 44
0.0000000001
 40
0.0
 40
0.0
 40
0.0
 40
0.0
 40
0.2500183674
 40
1.0
 40
1.0
 40
1.0
 40
1.0
 10
125.5790693907
 20
84.7775586345
 30
0.0
 10
124.6669684717
 20
84.777653167
 30
0.0
 10
121.0188328344
 20
84.7780466334
 30
0.0
 10
117.3706971543
 20
84.7787769723
 30
0.0
 10
114.6346626736
 20
84.7799786405
 30
0.0
  0
SPLINE
  5
399
100
AcDbEntity
  8
RACCORDO
100
AcDbSpline
 62
250
  6
CONTINUOUS
 70
0
 71
3
 72
8
 73
4
 74
0
 42
0.0000001
 43
0.0000001
 44
0.0000000001
 40
0.0
 40
0.0
 40
0.0
 40
0.0
 40
1.0
 40
1.0
 40
1.0
 40
1.0
 10
159.2272892442
 20
84.7758149581
 30
0.0
 10
148.0112159446
 20
84.7758149581
 30
0.0
 10
136.79514263
 20
84.7763961732
 30
0.0
 10
125.5790693907
 20
84.7775586345
 30
0.0
  0
SPLINE
  5
39A
100
AcDbEntity
  8
RACCORDO
100
AcDbSpline
 62
250
  6
CONTINUOUS
 70
0
 71
3
 72
8
 73
4
 74
0
 42
0.0000001
 43
0.0000001
 44
0.0000000001
 40
0.0
 40
0.0
 40
0.0
 40
0.0
 40
1.0
 40
1.0
 40
1.0
 40
1.0
 10
192.8755090976
 20
84.7775586345
 30
0.0
 10
181.6594358583
 20
84.7763961732
 30
0.0
 10
170.4433625437
 20
84.7758149581
 30
0.0
 10
159.2272892442
 20
84.7758149581
 30
0.0
  0
SPLINE
  5
39B
100
AcDbEntity
  8
RACCORDO
100
AcDbSpline
 62
250
  6
CONTINUOUS
 70
0
 71
3
 72
9
 73
5
 74
0
 42
0.0000001
 43
0.0000001
 44
0.0000000001
 40
0.0
 40
0.0
 40
0.0
 40
0.0
 40
0.2499689569
 40
1.0
 40
1.0
 40
1.0
 40
1.0
 10
203.8199158148
 20
84.7799786405
 30
0.0
 10
202.9079952337
 20
84.779578124
 30
0.0
 10
199.2598597793
 20
84.7782664589
 30
0.0
 10
195.6117240883
 20
84.7778422218
 30
0.0
 10
192.8755090976
 20
84.7775586345
 30
0.0
  0
SPLINE
  5
39C
100
AcDbEntity
  8
RACCORDO
100
AcDbSpline
 62
250
  6
CONTINUOUS
 70
0
 71
3
 72
9
 73
5
 74
0
 42
0.0000001
 43
0.0000001
 44
0.0000000001
 40
0.0
 40
0.0
 40
0.0
 40
0.0
 40
0.2500934245
 40
1.0
 40
1.0
 40
1.0
 40
1.0
 10
114.1252818272
 20
107.1475290586
 30
0.0
 10
114.1252818276
 20
108.970546109
 30
0.0
 10
114.1260143558
 20
116.2598902014
 30
0.0
 10
114.1291871311
 20
123.5492346635
 30
0.0
 10
114.1343350783
 20
129.0155593769
 30
0.0
  0
SPLINE
  5
39D
100
AcDbEntity
  8
RACCORDO
100
AcDbSpline
 62
250
  6
CONTINUOUS
 70
0
 71
3
 72
9
 73
5
 74
0
 42
0.0000001
 43
0.0000001
 44
0.0000000001
 40
0.0
 40
0.0
 40
0.0
 40
0.0
 40
0.249848848
 40
1.0
 40
1.0
 40
1.0
 40
1.0
 10
114.1343350783
 20
85.2794987403
 30
0.0
 10
114.1326199176
 20
87.1007321892
 30
0.0
 10
114.1271173035
 20
94.3900744426
 30
0.0
 10
114.1252818212
 20
101.6794190926
 30
0.0
 10
114.1252818272
 20
107.1475290586
 30
0.0
  0
SPLINE
  5
39E
100
AcDbEntity
  8
RACCORDO
100
AcDbSpline
 62
250
  6
CONTINUOUS
 70
0
 71
3
 72
9
 73
5
 74
0
 42
0.0000001
 43
0.0000001
 44
0.0000000001
 40
0.0
 40
0.0
 40
0.0
 40
0.0
 40
0.2500183674
 40
1.0
 40
1.0
 40
1.0
 40
1.0
 10
192.8755090976
 20
129.5174994827
 30
0.0
 10
193.7876100167
 20
129.5174049502
 30
0.0
 10
197.435745654
 20
129.5170114838
 30
0.0
 10
201.0838813341
 20
129.5162811449
 30
0.0
 10
203.8199158148
 20
129.5150794768
 30
0.0
  0
SPLINE
  5
39F
100
AcDbEntity
  8
RACCORDO
100
AcDbSpline
 62
250
  6
CONTINUOUS
 70
0
 71
3
 72
8
 73
4
 74
0
 42
0.0000001
 43
0.0000001
 44
0.0000000001
 40
0.0
 40
0.0
 40
0.0
 40
0.0
 40
1.0
 40
1.0
 40
1.0
 40
1.0
 10
159.2272892442
 20
129.5192431591
 30
0.0
 10
170.4433625437
 20
129.5192431591
 30
0.0
 10
181.6594358583
 20
129.518661944
 30
0.0
 10
192.8755090976
 20
129.5174994827
 30
0.0
  0
SPLINE
  5
3A0
100
AcDbEntity
  8
RACCORDO
100
AcDbSpline
 62
250
  6
CONTINUOUS
 70
0
 71
3
 72
8
 73
4
 74
0
 42
0.0000001
 43
0.0000001
 44
0.0000000001
 40
0.0
 40
0.0
 40
0.0
 40
0.0
 40
1.0
 40
1.0
 40
1.0
 40
1.0
 10
125.5790693907
 20
129.5174994827
 30
0.0
 10
136.79514263
 20
129.518661944
 30
0.0
 10
148.0112159446
 20
129.5192431591
 30
0.0
 10
159.2272892442
 20
129.5192431591
 30
0.0
  0
SPLINE
  5
3A1
100
AcDbEntity
  8
RACCORDO
100
AcDbSpline
 62
250
  6
CONTINUOUS
 70
0
 71
3
 72
9
 73
5
 74
0
 42
0.0000001
 43
0.0000001
 44
0.0000000001
 40
0.0
 40
0.0
 40
0.0
 40
0.0
 40
0.2499689569
 40
1.0
 40
1.0
 40
1.0
 40
1.0
 10
114.6346626736
 20
129.5150794768
 30
0.0
 10
115.5465832546
 20
129.5154799932
 30
0.0
 10
119.1947187091
 20
129.5167916583
 30
0.0
 10
122.8428544001
 20
129.5172158954
 30
0.0
 10
125.5790693907
 20
129.5174994827
 30
0.0
  0
SPLINE
  5
3A2
100
AcDbEntity
  8
RACCORDO
100
AcDbSpline
 62
250
  6
CONTINUOUS
 70
0
 71
3
 72
9
 73
5
 74
0
 42
0.0000001
 43
0.0000001
 44
0.0000000001
 40
0.0
 40
0.0
 40
0.0
 40
0.0
 40
0.2500934245
 40
1.0
 40
1.0
 40
1.0
 40
1.0
 10
204.3292966612
 20
107.1475290586
 30
0.0
 10
204.3292966607
 20
105.3245120082
 30
0.0
 10
204.3285641326
 20
98.0351679159
 30
0.0
 10
204.3253913572
 20
90.7458234538
 30
0.0
 10
204.3202434101
 20
85.2794987403
 30
0.0
  0
LINE
  5
3A3
100
AcDbEntity
  8
RACCORDO
100
AcDbLine
 62
250
  6
CONTINUOUS
 10
232.5272892442
 20
68.1475290586
 30
0.0
 11
232.0975731018
 21
68.1610850506
 31
0.0
  0
SPLINE
  5
3A4
100
AcDbEntity
  8
RACCORDO
100
AcDbSpline
 62
250
  6
CONTINUOUS
 70
0
 71
3
 72
9
 73
5
 74
0
 42
0.0000001
 43
0.0000001
 44
0.0000000001
 40
0.0
 40
0.0
 40
0.0
 40
0.0
 40
0.249848848
 40
1.0
 40
1.0
 40
1.0
 40
1.0
 10
204.3202434101
 20
129.0155593769
 30
0.0
 10
204.3219585707
 20
127.194325928
 30
0.0
 10
204.3274611848
 20
119.9049836746
 30
0.0
 10
204.3292966672
 20
112.6156390246
 30
0.0
 10
204.3292966612
 20
107.1475290586
 30
0.0
  0
LINE
  5
3A5
100
AcDbEntity
  8
RACCORDO
100
AcDbLine
 62
250
  6
CONTINUOUS
 10
228.5141290649
 20
64.5774558931
 30
0.0
 11
228.143004197
 21
64.5777121711
 31
0.0
  0
LINE
  5
3A6
100
AcDbEntity
  8
RACCORDO
100
AcDbLine
 62
250
  6
CONTINUOUS
 10
228.5276643227
 20
64.1475290518
 30
0.0
 11
228.5141290649
 21
64.5774558931
 31
0.0
  0
SPLINE
  5
3A7
100
AcDbEntity
  8
RACCORDO
100
AcDbSpline
 62
250
  6
CONTINUOUS
 70
0
 71
3
 72
9
 73
5
 74
0
 42
0.0000001
 43
0.0000001
 44
0.0000000001
 40
0.0
 40
0.0
 40
0.0
 40
0.0
 40
0.2492023557
 40
1.0
 40
1.0
 40
1.0
 40
1.0
 10
228.143004197
 20
64.5777121711
 30
0.0
 10
225.2134450381
 20
64.5771335188
 30
0.0
 10
213.4577007341
 20
64.5750850489
 30
0.0
 10
201.7019562083
 20
64.5746401275
 30
0.0
 10
192.8757709506
 20
64.5746362053
 30
0.0
  0
SPLINE
  5
3A8
100
AcDbEntity
  8
RACCORDO
100
AcDbSpline
 62
250
  6
CONTINUOUS
 70
0
 71
3
 72
9
 73
5
 74
0
 42
0.0000001
 43
0.0000001
 44
0.0000000001
 40
0.0
 40
0.0
 40
0.0
 40
0.0
 40
0.2492021552
 40
1.0
 40
1.0
 40
1.0
 40
1.0
 10
90.2813206763
 20
149.4606759421
 30
0.0
 10
93.2132644392
 20
149.4612999613
 30
0.0
 10
104.9785871655
 20
149.4635098849
 30
0.0
 10
116.7439101497
 20
149.4639920012
 30
0.0
 10
125.5772892442
 20
149.463995648
 30
0.0
  0
SPLINE
  5
3A9
100
AcDbEntity
  8
RACCORDO
100
AcDbSpline
 62
250
  6
CONTINUOUS
 70
0
 71
3
 72
9
 73
5
 74
0
 42
0.0000001
 43
0.0000001
 44
0.0000000001
 40
0.0
 40
0.0
 40
0.0
 40
0.0
 40
0.2500985852
 40
1.0
 40
1.0
 40
1.0
 40
1.0
 10
232.1005028688
 20
107.1475290586
 30
0.0
 10
232.1005029257
 20
105.2867981862
 30
0.0
 10
232.1004543243
 20
97.8468085914
 30
0.0
 10
232.1003518195
 20
90.4068189806
 30
0.0
 10
232.0998325711
 20
84.8275602801
 30
0.0
  0
SPLINE
  5
3AA
100
AcDbEntity
  8
RACCORDO
100
AcDbSpline
 62
250
  6
CONTINUOUS
 70
0
 71
3
 72
9
 73
5
 74
0
 42
0.0000001
 43
0.0000001
 44
0.0000000001
 40
0.0
 40
0.0
 40
0.0
 40
0.0
 40
0.2505068627
 40
1.0
 40
1.0
 40
1.0
 40
1.0
 10
232.0998167315
 20
84.6618753908
 30
0.0
 10
232.0996848944
 20
83.3155557791
 30
0.0
 10
232.0990821871
 20
77.9411736353
 30
0.0
 10
232.0981721387
 20
72.5667915256
 30
0.0
 10
232.0973099259
 20
68.5387290586
 30
0.0
  0
LINE
  5
3AB
100
AcDbEntity
  8
RACCORDO
100
AcDbLine
 62
250
  6
CONTINUOUS
 10
232.0998325711
 20
84.8275602801
 30
0.0
 11
232.0998167315
 21
84.6618753908
 31
0.0
  0
SPLINE
  5
3AC
100
AcDbEntity
  8
RACCORDO
100
AcDbSpline
 62
250
  6
CONTINUOUS
 70
0
 71
3
 72
9
 73
5
 74
0
 42
0.0000001
 43
0.0000001
 44
0.0000000001
 40
0.0
 40
0.0
 40
0.0
 40
0.0
 40
0.2499689546
 40
1.0
 40
1.0
 40
1.0
 40
1.0
 10
114.6271212804
 20
129.8321248977
 30
0.0
 10
115.539521897
 20
129.832527012
 30
0.0
 10
119.1895777662
 20
129.8338436159
 30
0.0
 10
122.8396338736
 20
129.834268806
 30
0.0
 10
125.5772892442
 20
129.8345529188
 30
0.0
  0
LINE
  5
3AD
100
AcDbEntity
  8
RACCORDO
100
AcDbLine
 62
250
  6
CONTINUOUS
 10
232.0973099259
 20
68.5387290586
 30
0.0
 11
232.0975631532
 21
68.161085355
 31
0.0
  0
SPLINE
  5
3AE
100
AcDbEntity
  8
RACCORDO
100
AcDbSpline
 62
250
  6
CONTINUOUS
 70
0
 71
3
 72
9
 73
5
 74
0
 42
0.0000001
 43
0.0000001
 44
0.0000000001
 40
0.0
 40
0.0
 40
0.0
 40
0.0
 40
0.2500934397
 40
1.0
 40
1.0
 40
1.0
 40
1.0
 10
113.8169355748
 20
107.1475290586
 30
0.0
 10
113.8169355752
 20
108.971893725
 30
0.0
 10
113.8176697985
 20
116.2666258251
 30
0.0
 10
113.8208499499
 20
123.5613582968
 30
0.0
 10
113.8260107041
 20
129.031723392
 30
0.0
  0
LINE
  5
3AF
100
AcDbEntity
  8
RACCORDO
100
AcDbLine
 62
250
  6
CONTINUOUS
 10
232.5272892442
 20
146.1475290586
 30
0.0
 11
232.0975731018
 21
146.1339730667
 31
0.0
  0
LINE
  5
3B0
100
AcDbEntity
  8
RACCORDO
100
AcDbLine
 62
250
  6
CONTINUOUS
 10
228.143004197
 20
149.7173459461
 30
0.0
 11
228.5141290649
 21
149.7176022242
 31
0.0
  0
LINE
  5
3B1
100
AcDbEntity
  8
RACCORDO
100
AcDbLine
 62
250
  6
CONTINUOUS
 10
228.5276643227
 20
150.1475290654
 30
0.0
 11
228.5141290649
 21
149.7176022242
 31
0.0
  0
SPLINE
  5
3B2
100
AcDbEntity
  8
RACCORDO
100
AcDbSpline
 62
250
  6
CONTINUOUS
 70
0
 71
3
 72
9
 73
5
 74
0
 42
0.0000001
 43
0.0000001
 44
0.0000000001
 40
0.0
 40
0.0
 40
0.0
 40
0.0
 40
0.2505065227
 40
1.0
 40
1.0
 40
1.0
 40
1.0
 10
192.8757709506
 20
149.7204219119
 30
0.0
 10
195.8206616199
 20
149.7204205112
 30
0.0
 10
207.5764060917
 20
149.7204637168
 30
0.0
 10
219.3321505657
 20
149.7190863612
 30
0.0
 10
228.143004197
 20
149.7173459461
 30
0.0
  0
SPLINE
  5
3B3
100
AcDbEntity
  8
RACCORDO
100
AcDbSpline
 62
250
  6
CONTINUOUS
 70
0
 71
3
 72
9
 73
5
 74
0
 42
0.0000001
 43
0.0000001
 44
0.0000000001
 40
0.0
 40
0.0
 40
0.0
 40
0.0
 40
0.2498392773
 40
1.0
 40
1.0
 40
1.0
 40
1.0
 10
232.0998325711
 20
129.4674978371
 30
0.0
 10
232.1000057208
 20
127.6086962211
 30
0.0
 10
232.100464425
 20
120.1687066343
 30
0.0
 10
232.1005026767
 20
112.7287170324
 30
0.0
 10
232.1005028688
 20
107.1475290586
 30
0.0
  0
LINE
  5
3B4
100
AcDbEntity
  8
RACCORDO
100
AcDbLine
 62
250
  6
CONTINUOUS
 10
232.0998167315
 20
129.6331827264
 30
0.0
 11
232.0998325711
 21
129.4674978371
 31
0.0
  0
SPLINE
  5
3B5
100
AcDbEntity
  8
RACCORDO
100
AcDbSpline
 62
250
  6
CONTINUOUS
 70
0
 71
3
 72
9
 73
5
 74
0
 42
0.0000001
 43
0.0000001
 44
0.0000000001
 40
0.0
 40
0.0
 40
0.0
 40
0.0
 40
0.2494274212
 40
1.0
 40
1.0
 40
1.0
 40
1.0
 10
232.0973099259
 20
145.7563290586
 30
0.0
 10
232.0975968663
 20
144.4158108022
 30
0.0
 10
232.0986670511
 20
139.041428731
 30
0.0
 10
232.0994217199
 20
133.6670465973
 30
0.0
 10
232.0998167315
 20
129.6331827264
 30
0.0
  0
LINE
  5
3B6
100
AcDbEntity
  8
RACCORDO
100
AcDbLine
 62
250
  6
CONTINUOUS
 10
232.0975631532
 20
146.1339727622
 30
0.0
 11
232.0973099259
 21
145.7563290586
 31
0.0
  0
LINE
  5
3B7
100
AcDbEntity
  8
RACCORDO
100
AcDbLine
 62
250
  6
CONTINUOUS
 10
86.3572685625
 20
145.7563290586
 30
0.0
 11
86.3570153351
 21
146.1339727622
 31
0.0
  0
LINE
  5
3B8
100
AcDbEntity
  8
RACCORDO
100
AcDbLine
 62
250
  6
CONTINUOUS
 10
86.3547617568
 20
84.6618753908
 30
0.0
 11
86.3547459172
 21
84.8275602801
 31
0.0
  0
SPLINE
  5
3B9
100
AcDbEntity
  8
RACCORDO
100
AcDbSpline
 62
250
  6
CONTINUOUS
 70
0
 71
3
 72
9
 73
5
 74
0
 42
0.0000001
 43
0.0000001
 44
0.0000000001
 40
0.0
 40
0.0
 40
0.0
 40
0.0
 40
0.2494274212
 40
1.0
 40
1.0
 40
1.0
 40
1.0
 10
86.3572685625
 20
68.5387290586
 30
0.0
 10
86.3569816221
 20
69.879247315
 30
0.0
 10
86.3559114373
 20
75.2536293862
 30
0.0
 10
86.3551567685
 20
80.6280115199
 30
0.0
 10
86.3547617568
 20
84.6618753908
 30
0.0
  0
SPLINE
  5
3BA
100
AcDbEntity
  8
RACCORDO
100
AcDbSpline
 62
250
  6
CONTINUOUS
 70
0
 71
3
 72
9
 73
5
 74
0
 42
0.0000001
 43
0.0000001
 44
0.0000000001
 40
0.0
 40
0.0
 40
0.0
 40
0.0
 40
0.2498392773
 40
1.0
 40
1.0
 40
1.0
 40
1.0
 10
86.3547459172
 20
84.8275602801
 30
0.0
 10
86.3545727676
 20
86.6863618962
 30
0.0
 10
86.3541140634
 20
94.126351483
 30
0.0
 10
86.3540758117
 20
101.5663410848
 30
0.0
 10
86.3540756196
 20
107.1475290586
 30
0.0
  0
LINE
  5
3BB
100
AcDbEntity
  8
RACCORDO
100
AcDbLine
 62
250
  6
CONTINUOUS
 10
86.3570153351
 20
68.1610853551
 30
0.0
 11
86.3572685625
 21
68.5387290586
 31
0.0
  0
LINE
  5
3BC
100
AcDbEntity
  8
RACCORDO
100
AcDbLine
 62
250
  6
CONTINUOUS
 10
89.9269141656
 20
150.1475290654
 30
0.0
 11
89.9404494235
 21
149.7176022242
 31
0.0
  0
SPLINE
  5
3BD
100
AcDbEntity
  8
RACCORDO
100
AcDbSpline
 62
250
  6
CONTINUOUS
 70
0
 71
3
 72
9
 73
5
 74
0
 42
0.0000001
 43
0.0000001
 44
0.0000000001
 40
0.0
 40
0.0
 40
0.0
 40
0.0
 40
0.2500985852
 40
1.0
 40
1.0
 40
1.0
 40
1.0
 10
86.3540756196
 20
107.1475290586
 30
0.0
 10
86.3540755627
 20
109.008259931
 30
0.0
 10
86.354124164
 20
116.4482495258
 30
0.0
 10
86.3542266689
 20
123.8882391367
 30
0.0
 10
86.3547459172
 20
129.4674978371
 30
0.0
  0
LINE
  5
3BE
100
AcDbEntity
  8
RACCORDO
100
AcDbLine
 62
250
  6
CONTINUOUS
 10
85.9272892442
 20
68.1475290586
 30
0.0
 11
86.3570053866
 21
68.1610850506
 31
0.0
  0
SPLINE
  5
3BF
100
AcDbEntity
  8
RACCORDO
100
AcDbSpline
 62
250
  6
CONTINUOUS
 70
0
 71
3
 72
9
 73
5
 74
0
 42
0.0000001
 43
0.0000001
 44
0.0000000001
 40
0.0
 40
0.0
 40
0.0
 40
0.0
 40
0.2505065227
 40
1.0
 40
1.0
 40
1.0
 40
1.0
 10
125.5788075378
 20
64.5746362053
 30
0.0
 10
122.6339168685
 20
64.574637606
 30
0.0
 10
110.8781723967
 20
64.5745944005
 30
0.0
 10
99.1224279227
 20
64.575971756
 30
0.0
 10
90.3115742913
 20
64.5777121711
 30
0.0
  0
LINE
  5
3C0
100
AcDbEntity
  8
RACCORDO
100
AcDbLine
 62
250
  6
CONTINUOUS
 10
86.3547459172
 20
129.4674978371
 30
0.0
 11
86.3547617568
 21
129.6331827264
 31
0.0
  0
LINE
  5
3C1
100
AcDbEntity
  8
RACCORDO
100
AcDbLine
 62
250
  6
CONTINUOUS
 10
90.3115742913
 20
64.5777121711
 30
0.0
 11
89.9404494235
 21
64.577455893
 31
0.0
  0
LINE
  5
3C2
100
AcDbEntity
  8
RACCORDO
100
AcDbLine
 62
250
  6
CONTINUOUS
 10
89.9269141656
 20
64.1475290518
 30
0.0
 11
89.9404494235
 21
64.577455893
 31
0.0
  0
SPLINE
  5
3C3
100
AcDbEntity
  8
RACCORDO
100
AcDbSpline
 62
250
  6
CONTINUOUS
 70
0
 71
3
 72
9
 73
5
 74
0
 42
0.0000001
 43
0.0000001
 44
0.0000000001
 40
0.0
 40
0.0
 40
0.0
 40
0.0
 40
0.2500934397
 40
1.0
 40
1.0
 40
1.0
 40
1.0
 10
204.6376429136
 20
107.1475290586
 30
0.0
 10
204.6376429132
 20
105.3231643922
 30
0.0
 10
204.6369086899
 20
98.0284322922
 30
0.0
 10
204.6337285384
 20
90.7336998205
 30
0.0
 10
204.6285677843
 20
85.2633347252
 30
0.0
  0
SPLINE
  5
3C4
100
AcDbEntity
  8
RACCORDO
100
AcDbSpline
 62
250
  6
CONTINUOUS
 70
0
 71
3
 72
9
 73
5
 74
0
 42
0.0000001
 43
0.0000001
 44
0.0000000001
 40
0.0
 40
0.0
 40
0.0
 40
0.0
 40
0.2499689546
 40
1.0
 40
1.0
 40
1.0
 40
1.0
 10
203.827457208
 20
84.4629332195
 30
0.0
 10
202.9150565914
 20
84.4625311053
 30
0.0
 10
199.2650007222
 20
84.4612145013
 30
0.0
 10
195.6149446147
 20
84.4607893112
 30
0.0
 10
192.8772892442
 20
84.4605051984
 30
0.0
  0
SPLINE
  5
3C5
100
AcDbEntity
  8
RACCORDO
100
AcDbSpline
 62
250
  6
CONTINUOUS
 70
0
 71
3
 72
9
 73
5
 74
0
 42
0.0000001
 43
0.0000001
 44
0.0000000001
 40
0.0
 40
0.0
 40
0.0
 40
0.0
 40
0.2492021552
 40
1.0
 40
1.0
 40
1.0
 40
1.0
 10
228.173257812
 20
64.8343821751
 30
0.0
 10
225.2413140491
 20
64.8337581559
 30
0.0
 10
213.4759913229
 20
64.8315482323
 30
0.0
 10
201.7106683386
 20
64.831066116
 30
0.0
 10
192.8772892442
 20
64.8310624692
 30
0.0
  0
LINE
  5
3C6
100
AcDbEntity
  8
RACCORDO
100
AcDbLine
 62
250
  6
CONTINUOUS
 10
228.5455440904
 20
64.834138938
 30
0.0
 11
228.173257812
 21
64.8343821751
 31
0.0
  0
SPLINE
  5
3C7
100
AcDbEntity
  8
RACCORDO
100
AcDbSpline
 62
250
  6
CONTINUOUS
 70
0
 71
3
 72
8
 73
4
 74
0
 42
0.0000001
 43
0.0000001
 44
0.0000000001
 40
0.0
 40
0.0
 40
0.0
 40
0.0
 40
1.0
 40
1.0
 40
1.0
 40
1.0
 10
192.8772892442
 20
84.4605051984
 30
0.0
 10
181.6606226228
 20
84.4593411396
 30
0.0
 10
170.443955926
 20
84.4587591256
 30
0.0
 10
159.2272892442
 20
84.4587591256
 30
0.0
  0
SPLINE
  5
3C8
100
AcDbEntity
  8
RACCORDO
100
AcDbSpline
 62
250
  6
CONTINUOUS
 70
0
 71
3
 72
9
 73
5
 74
0
 42
0.0000001
 43
0.0000001
 44
0.0000000001
 40
0.0
 40
0.0
 40
0.0
 40
0.0
 40
0.2498488369
 40
1.0
 40
1.0
 40
1.0
 40
1.0
 10
204.6285677843
 20
129.031723392
 30
0.0
 10
204.6302872102
 20
127.2091438398
 30
0.0
 10
204.6358035011
 20
119.9144135864
 30
0.0
 10
204.6376429184
 20
112.6196809262
 30
0.0
 10
204.6376429136
 20
107.1475290586
 30
0.0
  0
LINE
  5
3C9
100
AcDbEntity
  8
RACCORDO
100
AcDbLine
 62
250
  6
CONTINUOUS
 10
228.1732578128
 20
149.4606759421
 30
0.0
 11
228.5455440904
 21
149.4609191792
 31
0.0
  0
SPLINE
  5
3CA
100
AcDbEntity
  8
RACCORDO
100
AcDbSpline
 62
250
  6
CONTINUOUS
 70
0
 71
3
 72
9
 73
5
 74
0
 42
0.0000001
 43
0.0000001
 44
0.0000000001
 40
0.0
 40
0.0
 40
0.0
 40
0.0
 40
0.2505067314
 40
1.0
 40
1.0
 40
1.0
 40
1.0
 10
192.8772892442
 20
149.463995648
 30
0.0
 10
195.8245818334
 20
149.4639942428
 30
0.0
 10
207.5899047552
 20
149.4640405167
 30
0.0
 10
219.3552276791
 20
149.4625528748
 30
0.0
 10
228.1732578128
 20
149.4606759421
 30
0.0
  0
SPLINE
  5
3CB
100
AcDbEntity
  8
RACCORDO
100
AcDbSpline
 62
250
  6
CONTINUOUS
 70
0
 71
3
 72
9
 73
5
 74
0
 42
0.0000001
 43
0.0000001
 44
0.0000000001
 40
0.0
 40
0.0
 40
0.0
 40
0.0
 40
0.2500183718
 40
1.0
 40
1.0
 40
1.0
 40
1.0
 10
192.8772892442
 20
129.8345529188
 30
0.0
 10
193.7898703185
 20
129.8344582119
 30
0.0
 10
197.4399263718
 20
129.8340639018
 30
0.0
 10
201.0899824684
 20
129.8333313611
 30
0.0
 10
203.827457208
 20
129.8321248977
 30
0.0
  0
SPLINE
  5
3CC
100
AcDbEntity
  8
RACCORDO
100
AcDbSpline
 62
250
  6
CONTINUOUS
 70
0
 71
3
 72
8
 73
4
 74
0
 42
0.0000001
 43
0.0000001
 44
0.0000000001
 40
0.0
 40
0.0
 40
0.0
 40
0.0
 40
1.0
 40
1.0
 40
1.0
 40
1.0
 10
159.2272892442
 20
129.8362989916
 30
0.0
 10
170.443955926
 20
129.8362989916
 30
0.0
 10
181.6606226228
 20
129.8357169777
 30
0.0
 10
192.8772892442
 20
129.8345529188
 30
0.0
  0
SPLINE
  5
3CD
100
AcDbEntity
  8
RACCORDO
100
AcDbSpline
 62
250
  6
CONTINUOUS
 70
0
 71
3
 72
9
 73
5
 74
0
 42
0.0000001
 43
0.0000001
 44
0.0000000001
 40
0.0
 40
0.0
 40
0.0
 40
0.0
 40
0.2498488369
 40
1.0
 40
1.0
 40
1.0
 40
1.0
 10
113.8260107041
 20
85.2633347252
 30
0.0
 10
113.8242912782
 20
87.0859142774
 30
0.0
 10
113.8187749873
 20
94.3806445308
 30
0.0
 10
113.81693557
 20
101.675377191
 30
0.0
 10
113.8169355748
 20
107.1475290586
 30
0.0
  0
LINE
  5
3CE
100
AcDbEntity
  8
RACCORDO
100
AcDbLine
 62
250
  6
CONTINUOUS
 10
90.2813206756
 20
64.8343821751
 30
0.0
 11
89.909034398
 21
64.834138938
 31
0.0
  0
SPLINE
  5
3CF
100
AcDbEntity
  8
RACCORDO
100
AcDbSpline
 62
250
  6
CONTINUOUS
 70
0
 71
3
 72
9
 73
5
 74
0
 42
0.0000001
 43
0.0000001
 44
0.0000000001
 40
0.0
 40
0.0
 40
0.0
 40
0.0
 40
0.2505067314
 40
1.0
 40
1.0
 40
1.0
 40
1.0
 10
125.5772892442
 20
64.8310624692
 30
0.0
 10
122.629996655
 20
64.8310638744
 30
0.0
 10
110.8646737332
 20
64.8310176005
 30
0.0
 10
99.0993508093
 20
64.8325052424
 30
0.0
 10
90.2813206756
 20
64.8343821751
 30
0.0
  0
SPLINE
  5
3D0
100
AcDbEntity
  8
RACCORDO
100
AcDbSpline
 62
250
  6
CONTINUOUS
 70
0
 71
3
 72
9
 73
5
 74
0
 42
0.0000001
 43
0.0000001
 44
0.0000000001
 40
0.0
 40
0.0
 40
0.0
 40
0.0
 40
0.2500183718
 40
1.0
 40
1.0
 40
1.0
 40
1.0
 10
125.5772892442
 20
84.4605051984
 30
0.0
 10
124.6647081699
 20
84.4605999054
 30
0.0
 10
121.0146521165
 20
84.4609942154
 30
0.0
 10
117.36459602
 20
84.4617267562
 30
0.0
 10
114.6271212804
 20
84.4629332195
 30
0.0
  0
SPLINE
  5
3D1
100
AcDbEntity
  8
RACCORDO
100
AcDbSpline
 62
250
  6
CONTINUOUS
 70
0
 71
3
 72
8
 73
4
 74
0
 42
0.0000001
 43
0.0000001
 44
0.0000000001
 40
0.0
 40
0.0
 40
0.0
 40
0.0
 40
1.0
 40
1.0
 40
1.0
 40
1.0
 10
159.2272892442
 20
84.4587591256
 30
0.0
 10
148.0106225624
 20
84.4587591256
 30
0.0
 10
136.7939558656
 20
84.4593411396
 30
0.0
 10
125.5772892442
 20
84.4605051984
 30
0.0
  0
LINE
  5
3D2
100
AcDbEntity
  8
0
100
AcDbLine
 62
7
  6
CONTINUOUS
 10
42.2228193826
 20
79.5938682041
 30
0.0
 11
42.2195680941
 21
79.6361896957
 31
0.0
  0
LINE
  5
3D3
100
AcDbEntity
  8
0
100
AcDbLine
 62
7
  6
CONTINUOUS
 10
42.2195680941
 20
79.6361896957
 30
0.0
 11
42.213099327
 21
79.7206588985
 31
0.0
  0
LINE
  5
3D4
100
AcDbEntity
  8
0
100
AcDbLine
 62
7
  6
CONTINUOUS
 10
42.1627756131
 20
80.393455719
 30
0.0
 11
42.1465464932
 21
80.6164445848
 31
0.0
  0
LINE
  5
3D5
100
AcDbEntity
  8
0
100
AcDbLine
 62
7
  6
CONTINUOUS
 10
42.1465464932
 20
80.6164445848
 30
0.0
 11
42.1388314285
 21
80.7231475621
 31
0.0
  0
LINE
  5
3D6
100
AcDbEntity
  8
0
100
AcDbLine
 62
7
  6
CONTINUOUS
 10
42.1388314285
 20
80.7231475621
 30
0.0
 11
42.1360554112
 21
80.7616587802
 31
0.0
  0
LINE
  5
3D7
100
AcDbEntity
  8
0
100
AcDbLine
 62
7
  6
CONTINUOUS
 10
42.1360554112
 20
80.7616587802
 30
0.0
 11
42.1239261115
 21
80.9306584048
 31
0.0
  0
SPLINE
  5
3D8
100
AcDbEntity
  8
SUPERFICI
100
AcDbSpline
 62
7
  6
CONTINUOUS
 70
0
 71
3
 72
12
 73
8
 74
0
 42
0.0000001
 43
0.0000001
 44
0.0000000001
 40
0.0
 40
0.0
 40
0.0
 40
0.0
 40
0.3364784397
 40
0.6176993513
 40
0.8399638005
 40
0.9276910748
 40
1.0
 40
1.0
 40
1.0
 40
1.0
 10
49.3300768872
 20
149.0093979154
 30
0.0
 10
49.3300824582
 20
149.1250823396
 30
0.0
 10
49.3273569589
 20
149.3374948683
 30
0.0
 10
49.3124247917
 20
149.6259371528
 30
0.0
 10
49.2909517134
 20
149.8283287927
 30
0.0
 10
49.2666044382
 20
149.957554043
 30
0.0
 10
49.2524338955
 20
150.0108235147
 30
0.0
 10
49.2445618465
 20
150.0344047454
 30
0.0
  0
SPLINE
  5
3D9
100
AcDbEntity
  8
SUPERFICI
100
AcDbSpline
 62
7
  6
CONTINUOUS
 70
0
 71
3
 72
11
 73
7
 74
0
 42
0.0000001
 43
0.0000001
 44
0.0000000001
 40
0.0
 40
0.0
 40
0.0
 40
0.0
 40
0.3483781338
 40
0.6204232997
 40
0.8280826666
 40
1.0
 40
1.0
 40
1.0
 40
1.0
 10
49.2445618465
 20
150.0344047454
 30
0.0
 10
49.2389547715
 20
150.0512011003
 30
0.0
 10
49.2276357591
 20
150.0807476124
 30
0.0
 10
49.2065656887
 20
150.1174142849
 30
0.0
 10
49.1827499459
 20
150.1414811043
 30
0.0
 10
49.1632744447
 20
150.147521565
 30
0.0
 10
49.1545361487
 20
150.147529041
 30
0.0
  0
SPLINE
  5
3DA
100
AcDbEntity
  8
SUPERFICI
100
AcDbSpline
 62
7
  6
CONTINUOUS
 70
0
 71
3
 72
12
 73
8
 74
0
 42
0.0000001
 43
0.0000001
 44
0.0000000001
 40
0.0
 40
0.0
 40
0.0
 40
0.0
 40
0.3364784397
 40
0.6176993513
 40
0.8399638005
 40
0.9276910748
 40
1.0
 40
1.0
 40
1.0
 40
1.0
 10
49.3300768872
 20
65.2856602018
 30
0.0
 10
49.3300824582
 20
65.1699757776
 30
0.0
 10
49.3273569589
 20
64.9575632489
 30
0.0
 10
49.3124247917
 20
64.6691209645
 30
0.0
 10
49.2909517134
 20
64.4667293245
 30
0.0
 10
49.2666044382
 20
64.3375040742
 30
0.0
 10
49.2524338955
 20
64.2842346025
 30
0.0
 10
49.2445618465
 20
64.2606533718
 30
0.0
  0
SPLINE
  5
3DB
100
AcDbEntity
  8
SUPERFICI
100
AcDbSpline
 62
7
  6
CONTINUOUS
 70
0
 71
3
 72
11
 73
7
 74
0
 42
0.0000001
 43
0.0000001
 44
0.0000000001
 40
0.0
 40
0.0
 40
0.0
 40
0.0
 40
0.3483781338
 40
0.6204232997
 40
0.8280826666
 40
1.0
 40
1.0
 40
1.0
 40
1.0
 10
49.2445618465
 20
64.2606533718
 30
0.0
 10
49.2389547715
 20
64.2438570169
 30
0.0
 10
49.2276357591
 20
64.2143105049
 30
0.0
 10
49.2065656887
 20
64.1776438323
 30
0.0
 10
49.1827499459
 20
64.1535770129
 30
0.0
 10
49.1632744447
 20
64.1475365522
 30
0.0
 10
49.1545361487
 20
64.1475290762
 30
0.0
  0
SPLINE
  5
3DC
100
AcDbEntity
  8
SUPERFICI
100
AcDbSpline
 62
7
  6
CONTINUOUS
 70
0
 71
3
 72
9
 73
5
 74
0
 42
0.0000001
 43
0.0000001
 44
0.0000000001
 40
0.0
 40
0.0
 40
0.0
 40
0.0
 40
0.5000003874
 40
1.0
 40
1.0
 40
1.0
 40
1.0
 10
47.0896778124
 20
107.1475290586
 30
0.0
 10
47.0896778124
 20
110.8750178875
 30
0.0
 10
47.1723935038
 20
118.3358940039
 30
0.0
 10
47.4295319073
 20
125.7686213875
 30
0.0
 10
47.6379241909
 20
129.4675118645
 30
0.0
  0
SPLINE
  5
3DD
100
AcDbEntity
  8
SUPERFICI
100
AcDbSpline
 62
7
  6
CONTINUOUS
 70
0
 71
3
 72
9
 73
5
 74
0
 42
0.0000001
 43
0.0000001
 44
0.0000000001
 40
0.0
 40
0.0
 40
0.0
 40
0.0
 40
0.5000003874
 40
1.0
 40
1.0
 40
1.0
 40
1.0
 10
47.0896778124
 20
107.1475290586
 30
0.0
 10
47.0896778124
 20
103.4200402297
 30
0.0
 10
47.1723935038
 20
95.9591641133
 30
0.0
 10
47.4295319073
 20
88.5264367297
 30
0.0
 10
47.6379241909
 20
84.8275462527
 30
0.0
  0
LINE
  5
3DE
100
AcDbEntity
  8
0
100
AcDbLine
 62
7
  6
CONTINUOUS
 10
42.0429666004
 20
80.9413613011
 30
0.0
 11
42.0541299966
 21
80.7856682606
 31
0.0
  0
LINE
  5
3DF
100
AcDbEntity
  8
0
100
AcDbLine
 62
7
  6
CONTINUOUS
 10
42.0541299966
 20
80.7856682606
 30
0.0
 11
42.066104767
 21
80.619776887
 31
0.0
  0
LINE
  5
3E0
100
AcDbEntity
  8
0
100
AcDbLine
 62
7
  6
CONTINUOUS
 10
42.066104767
 20
80.619776887
 30
0.0
 11
42.0825701085
 21
80.3934669695
 31
0.0
  0
LINE
  5
3E1
100
AcDbEntity
  8
RACCORDO
100
AcDbLine
 62
250
  6
CONTINUOUS
 10
46.0852107844
 20
146.1339727622
 30
0.0
 11
46.0388718731
 21
145.7563290586
 31
0.0
  0
LINE
  5
3E2
100
AcDbEntity
  8
RACCORDO
100
AcDbLine
 62
250
  6
CONTINUOUS
 10
44.6056888443
 20
129.6331827264
 30
0.0
 11
44.5964111315
 21
129.4674978371
 31
0.0
  0
SPLINE
  5
3E3
100
AcDbEntity
  8
RACCORDO
100
AcDbSpline
 62
250
  6
CONTINUOUS
 70
0
 71
3
 72
9
 73
5
 74
0
 42
0.0000001
 43
0.0000001
 44
0.0000000001
 40
0.0
 40
0.0
 40
0.0
 40
0.0
 40
0.4999942576
 40
1.0
 40
1.0
 40
1.0
 40
1.0
 10
44.5964111315
 20
129.4674978371
 30
0.0
 10
44.3895399291
 20
125.7518764814
 30
0.0
 10
44.1348762148
 20
118.3118190462
 30
0.0
 10
44.0529327757
 20
110.8689903263
 30
0.0
 10
44.052934959
 20
107.1475290586
 30
0.0
  0
LINE
  5
3E4
100
AcDbEntity
  8
RACCORDO
100
AcDbLine
 62
250
  6
CONTINUOUS
 10
49.1545361967
 20
150.1475290654
 30
0.0
 11
46.0939625781
 21
149.7176022242
 31
0.0
  0
LINE
  5
3E5
100
AcDbEntity
  8
RACCORDO
100
AcDbLine
 62
250
  6
CONTINUOUS
 10
49.1443901366
 20
146.1475290586
 30
0.0
 11
46.0852816062
 21
146.1339730667
 31
0.0
  0
SPLINE
  5
3E6
100
AcDbEntity
  8
RACCORDO
100
AcDbSpline
 62
250
  6
CONTINUOUS
 70
0
 71
3
 72
22
 73
18
 74
0
 42
0.0000001
 43
0.0000001
 44
0.0000000001
 40
0.0
 40
0.0
 40
0.0
 40
0.0
 40
0.0053588595
 40
0.0114056962
 40
0.0188637267
 40
0.0281272375
 40
0.0393807277
 40
0.0527156745
 40
0.0857892635
 40
0.1274149405
 40
0.1772843583
 40
0.2350623697
 40
0.3002473924
 40
0.3721618064
 40
0.4501813305
 40
0.6213579616
 40
1.0
 40
1.0
 40
1.0
 40
1.0
 10
46.0940293723
 20
149.7176118287
 30
0.0
 10
46.1005200214
 20
149.7177308696
 30
0.0
 10
46.1145550609
 20
149.7146865964
 30
0.0
 10
46.1332369905
 20
149.7007425141
 30
0.0
 10
46.1501116378
 20
149.6786674509
 30
0.0
 10
46.1657139164
 20
149.6484586322
 30
0.0
 10
46.1802095522
 20
149.6100322349
 30
0.0
 10
46.199414892
 20
149.5428138601
 30
0.0
 10
46.2189994001
 20
149.4377922065
 30
0.0
 10
46.2364841384
 20
149.287857237
 30
0.0
 10
46.248980282
 20
149.1074022633
 30
0.0
 10
46.2561638883
 20
148.8981270204
 30
0.0
 10
46.2579311144
 20
148.6620354789
 30
0.0
 10
46.2543273452
 20
148.4014484136
 30
0.0
 10
46.2418380754
 20
148.0126353004
 30
0.0
 10
46.199195983
 20
147.253176182
 30
0.0
 10
46.1370644473
 20
146.5897289751
 30
0.0
 10
46.0852816062
 20
146.1339730667
 30
0.0
  0
SPLINE
  5
3E7
100
AcDbEntity
  8
SUPERFICI
100
AcDbSpline
 62
7
  6
CONTINUOUS
 70
0
 71
3
 72
11
 73
7
 74
0
 42
0.0000001
 43
0.0000001
 44
0.0000000001
 40
0.0
 40
0.0
 40
0.0
 40
0.0
 40
0.2782261455
 40
0.5440187607
 40
0.7878947692
 40
1.0
 40
1.0
 40
1.0
 40
1.0
 10
49.1443901366
 20
146.1475290586
 30
0.0
 10
49.1739700369
 20
146.4119676578
 30
0.0
 10
49.2259305796
 20
146.9297028941
 30
0.0
 10
49.2841457341
 20
147.6810441374
 30
0.0
 10
49.3201363458
 20
148.3704578671
 30
0.0
 10
49.3300671184
 20
148.8065462948
 30
0.0
 10
49.3300768872
 20
149.0093979154
 30
0.0
  0
LINE
  5
3E8
100
AcDbEntity
  8
RACCORDO
100
AcDbLine
 62
250
  6
CONTINUOUS
 10
46.0388718731
 20
68.5387290586
 30
0.0
 11
46.0852107844
 21
68.161085355
 31
0.0
  0
LINE
  5
3E9
100
AcDbEntity
  8
RACCORDO
100
AcDbLine
 62
250
  6
CONTINUOUS
 10
44.5964111315
 20
84.8275602801
 30
0.0
 11
44.6056888443
 21
84.6618753908
 31
0.0
  0
SPLINE
  5
3EA
100
AcDbEntity
  8
RACCORDO
100
AcDbSpline
 62
250
  6
CONTINUOUS
 70
0
 71
3
 72
9
 73
5
 74
0
 42
0.0000001
 43
0.0000001
 44
0.0000000001
 40
0.0
 40
0.0
 40
0.0
 40
0.0
 40
0.5000054039
 40
1.0
 40
1.0
 40
1.0
 40
1.0
 10
44.052934959
 20
107.1475290586
 30
0.0
 10
44.0529365598
 20
103.4260702654
 30
0.0
 10
44.1348556045
 20
95.9832412051
 30
0.0
 10
44.3895354749
 20
88.5431839574
 30
0.0
 10
44.5964111315
 20
84.8275602801
 30
0.0
  0
SPLINE
  5
3EB
100
AcDbEntity
  8
RACCORDO
100
AcDbSpline
 62
250
  6
CONTINUOUS
 70
0
 71
3
 72
29
 73
25
 74
0
 42
0.0000001
 43
0.0000001
 44
0.0000000001
 40
0.0
 40
0.0
 40
0.0
 40
0.0
 40
0.0003630147
 40
0.0013162903
 40
0.0028693467
 40
0.0050235869
 40
0.0077779845
 40
0.0111305999
 40
0.0196169267
 40
0.0304547589
 40
0.0436161633
 40
0.0590708781
 40
0.0767856736
 40
0.0967193995
 40
0.1188268435
 40
0.1693440346
 40
0.2278487808
 40
0.2937705753
 40
0.3664698034
 40
0.4452473059
 40
0.5293468768
 40
0.6179589255
 40
0.8052646303
 40
1.0
 40
1.0
 40
1.0
 40
1.0
 10
51.2921068245
 20
148.8410127069
 30
0.0
 10
51.2923874725
 20
148.8408469755
 30
0.0
 10
51.2922761572
 20
148.8393727511
 30
0.0
 10
51.2927377105
 20
148.8370754287
 30
0.0
 10
51.2928151677
 20
148.8327472162
 30
0.0
 10
51.2930981403
 20
148.8270148202
 30
0.0
 10
51.2932961939
 20
148.819575784
 30
0.0
 10
51.2936268013
 20
148.8064889516
 30
0.0
 10
51.2939924139
 20
148.7861243617
 30
0.0
 10
51.2944046302
 20
148.7569636302
 30
0.0
 10
51.2947910974
 20
148.7215410951
 30
0.0
 10
51.2951536078
 20
148.6799452195
 30
0.0
 10
51.2954854518
 20
148.6322679105
 30
0.0
 10
51.2957847775
 20
148.5786173644
 30
0.0
 10
51.2961529987
 20
148.4955153735
 30
0.0
 10
51.2964995249
 20
148.3777823768
 30
0.0
 10
51.296737611
 20
148.2207107025
 30
0.0
 10
51.2968001865
 20
148.0437229045
 30
0.0
 10
51.2966812082
 20
147.8485334102
 30
0.0
 10
51.2963842332
 20
147.6370233251
 30
0.0
 10
51.2959205204
 20
147.4112263167
 30
0.0
 10
51.2950896073
 20
147.0879887309
 30
0.0
 10
51.293718441
 20
146.6654188282
 30
0.0
 10
51.2924914523
 20
146.3224085325
 30
0.0
 10
51.2918248697
 20
146.1475682279
 30
0.0
  0
LINE
  5
3EC
100
AcDbEntity
  8
RACCORDO
100
AcDbLine
 62
250
  6
CONTINUOUS
 10
49.1545361967
 20
64.1475290518
 30
0.0
 11
46.0939625778
 21
64.5774558931
 31
0.0
  0
LINE
  5
3ED
100
AcDbEntity
  8
RACCORDO
100
AcDbLine
 62
250
  6
CONTINUOUS
 10
49.1443901366
 20
68.1475290586
 30
0.0
 11
46.0852816062
 21
68.1610850506
 31
0.0
  0
SPLINE
  5
3EE
100
AcDbEntity
  8
SUPERFICI
100
AcDbSpline
 62
7
  6
CONTINUOUS
 70
0
 71
3
 72
11
 73
7
 74
0
 42
0.0000001
 43
0.0000001
 44
0.0000000001
 40
0.0
 40
0.0
 40
0.0
 40
0.0
 40
0.2782261455
 40
0.5440187607
 40
0.7878947692
 40
1.0
 40
1.0
 40
1.0
 40
1.0
 10
49.1443901366
 20
68.1475290586
 30
0.0
 10
49.1739700369
 20
67.8830904595
 30
0.0
 10
49.2259305796
 20
67.3653552231
 30
0.0
 10
49.2841457341
 20
66.6140139799
 30
0.0
 10
49.3201363458
 20
65.9246002501
 30
0.0
 10
49.3300671184
 20
65.4885118224
 30
0.0
 10
49.3300768872
 20
65.2856602018
 30
0.0
  0
SPLINE
  5
3EF
100
AcDbEntity
  8
RACCORDO
100
AcDbSpline
 62
250
  6
CONTINUOUS
 70
0
 71
3
 72
22
 73
18
 74
0
 42
0.0000001
 43
0.0000001
 44
0.0000000001
 40
0.0
 40
0.0
 40
0.0
 40
0.0
 40
0.3786433209
 40
0.5498183214
 40
0.6278371033
 40
0.6997512388
 40
0.7649366961
 40
0.8227155435
 40
0.8725853835
 40
0.9142112076
 40
0.9472845581
 40
0.9606188826
 40
0.9718723604
 40
0.9811353779
 40
0.9885937149
 40
0.9946408688
 40
1.0
 40
1.0
 40
1.0
 40
1.0
 10
46.0852816062
 20
68.1610850506
 30
0.0
 10
46.1370645881
 20
67.7053276174
 30
0.0
 10
46.1991967446
 20
67.0418809
 30
0.0
 10
46.2418376381
 20
66.2824230871
 30
0.0
 10
46.2543274467
 20
65.893613224
 30
0.0
 10
46.2579310906
 20
65.6330268804
 30
0.0
 10
46.2561639076
 20
65.3969341416
 30
0.0
 10
46.2489803952
 20
65.1876568817
 30
0.0
 10
46.2364844736
 20
65.0072001184
 30
0.0
 10
46.2189983465
 20
64.8572650633
 30
0.0
 10
46.199415704
 20
64.7522437308
 30
0.0
 10
46.1802092599
 20
64.6850269742
 30
0.0
 10
46.16571582
 20
64.6466009269
 30
0.0
 10
46.1501108779
 20
64.6163941788
 30
0.0
 10
46.1332396352
 20
64.5943160666
 30
0.0
 10
46.1145558121
 20
64.5803726317
 30
0.0
 10
46.100520376
 20
64.5773271556
 30
0.0
 10
46.0940293996
 20
64.5774462847
 30
0.0
  0
SPLINE
  5
3F0
100
AcDbEntity
  8
RACCORDO
100
AcDbSpline
 62
250
  6
CONTINUOUS
 70
0
 71
3
 72
9
 73
5
 74
0
 42
0.0000001
 43
0.0000001
 44
0.0000000001
 40
0.0
 40
0.0
 40
0.0
 40
0.0
 40
0.4999999941
 40
1.0
 40
1.0
 40
1.0
 40
1.0
 10
51.2654466405
 20
129.6426595182
 30
0.0
 10
51.2629566454
 20
125.8934718142
 30
0.0
 10
51.2604534412
 20
118.3950947788
 30
0.0
 10
51.2596847743
 20
110.8967176772
 30
0.0
 10
51.2596847743
 20
107.1475290586
 30
0.0
  0
SPLINE
  5
3F1
100
AcDbEntity
  8
RACCORDO
100
AcDbSpline
 62
250
  6
CONTINUOUS
 70
0
 71
3
 72
11
 73
7
 74
0
 42
0.0000001
 43
0.0000001
 44
0.0000000001
 40
0.0
 40
0.0
 40
0.0
 40
0.0
 40
0.249999979
 40
0.499999982
 40
0.7499999826
 40
1.0
 40
1.0
 40
1.0
 40
1.0
 10
51.2906493071
 20
145.8199188174
 30
0.0
 10
51.2860954176
 20
144.4718198905
 30
0.0
 10
51.2817167772
 20
141.7756081293
 30
0.0
 10
51.274590206
 20
137.7312950836
 30
0.0
 10
51.2687550639
 20
133.6869786305
 30
0.0
 10
51.2663423104
 20
130.9907660462
 30
0.0
 10
51.2654466405
 20
129.6426595182
 30
0.0
  0
SPLINE
  5
3F2
100
AcDbEntity
  8
SUPERFICI
100
AcDbSpline
 62
7
  6
CONTINUOUS
 70
0
 71
3
 72
10
 73
6
 74
0
 42
0.0000001
 43
0.0000001
 44
0.0000000001
 40
0.0
 40
0.0
 40
0.0
 40
0.0
 40
0.5348593617
 40
0.7827561012
 40
1.0
 40
1.0
 40
1.0
 40
1.0
 10
49.1450213198
 20
146.1487023446
 30
0.0
 10
49.2016979127
 20
146.6503755311
 30
0.0
 10
49.2691466471
 20
147.3865181009
 30
0.0
 10
49.3198378319
 20
148.3291456139
 30
0.0
 10
49.3300770738
 20
148.768207714
 30
0.0
 10
49.3300798348
 20
148.9732686195
 30
0.0
  0
SPLINE
  5
3F3
100
AcDbEntity
  8
RACCORDO
100
AcDbSpline
 62
250
  6
CONTINUOUS
 70
0
 71
3
 72
9
 73
5
 74
0
 42
0.0000001
 43
0.0000001
 44
0.0000000001
 40
0.0
 40
0.0
 40
0.0
 40
0.0
 40
0.5000000059
 40
1.0
 40
1.0
 40
1.0
 40
1.0
 10
51.2596847743
 20
107.1475290586
 30
0.0
 10
51.2596847758
 20
103.39834044
 30
0.0
 10
51.260453425
 20
95.8999633384
 30
0.0
 10
51.2629566466
 20
88.4015863029
 30
0.0
 10
51.2654466405
 20
84.6523985991
 30
0.0
  0
SPLINE
  5
3F4
100
AcDbEntity
  8
RACCORDO
100
AcDbSpline
 62
250
  6
CONTINUOUS
 70
0
 71
3
 72
11
 73
7
 74
0
 42
0.0000001
 43
0.0000001
 44
0.0000000001
 40
0.0
 40
0.0
 40
0.0
 40
0.0
 40
0.2500000174
 40
0.500000018
 40
0.750000021
 40
1.0
 40
1.0
 40
1.0
 40
1.0
 10
51.2654466405
 20
84.6523985991
 30
0.0
 10
51.2663423109
 20
83.3042920711
 30
0.0
 10
51.2687550761
 20
80.6080794867
 30
0.0
 10
51.2745901634
 20
76.5637630334
 30
0.0
 10
51.2817169152
 20
72.5194499879
 30
0.0
 10
51.2860953835
 20
69.8232382265
 30
0.0
 10
51.2906493071
 20
68.4751392998
 30
0.0
  0
SPLINE
  5
3F5
100
AcDbEntity
  8
RACCORDO
100
AcDbSpline
 62
250
  6
CONTINUOUS
 70
0
 71
3
 72
29
 73
25
 74
0
 42
0.0000001
 43
0.0000001
 44
0.0000000001
 40
0.0
 40
0.0
 40
0.0
 40
0.0
 40
0.1947271033
 40
0.3820413617
 40
0.4706612666
 40
0.5547693499
 40
0.633553372
 40
0.7062555114
 40
0.7721756427
 40
0.8306745459
 40
0.8811843292
 40
0.9032881302
 40
0.923219333
 40
0.9409317098
 40
0.9563850903
 40
0.969545173
 40
0.9803823818
 40
0.9888685516
 40
0.9922211345
 40
0.9949759341
 40
0.9971302285
 40
0.9986827026
 40
0.9996364514
 40
1.0
 40
1.0
 40
1.0
 40
1.0
 10
51.2918248697
 20
68.1474898893
 30
0.0
 10
51.2924914407
 20
67.9726570104
 30
0.0
 10
51.2937183902
 20
67.6296464639
 30
0.0
 10
51.2950895956
 20
67.2070692587
 30
0.0
 10
51.2959205919
 20
66.8838093036
 30
0.0
 10
51.2963843156
 20
66.6579917498
 30
0.0
 10
51.2966812406
 20
66.4464655588
 30
0.0
 10
51.2968001585
 20
66.2512690945
 30
0.0
 10
51.2967375754
 20
66.0742854258
 30
0.0
 10
51.2964994118
 20
65.9172271453
 30
0.0
 10
51.2961528924
 20
65.799509319
 30
0.0
 10
51.2957846555
 20
65.7164195173
 30
0.0
 10
51.2954854026
 20
65.6627766797
 30
0.0
 10
51.2951534804
 20
65.6151050078
 30
0.0
 10
51.2947911425
 20
65.5735136868
 30
0.0
 10
51.2944045342
 20
65.5380941018
 30
0.0
 10
51.2939925998
 20
65.5089352462
 30
0.0
 10
51.2936266532
 20
65.4885714103
 30
0.0
 10
51.2932963304
 20
65.475484356
 30
0.0
 10
51.2930982839
 20
65.4680449879
 30
0.0
 10
51.2928152056
 20
65.462312571
 30
0.0
 10
51.292737699
 20
65.4579847564
 30
0.0
 10
51.2922759529
 20
65.4556866039
 30
0.0
 10
51.2923877021
 20
65.4542117089
 30
0.0
 10
51.2921068227
 20
65.4540454269
 30
0.0
  0
SPLINE
  5
3F6
100
AcDbEntity
  8
SUPERFICI
100
AcDbSpline
 62
7
  6
CONTINUOUS
 70
0
 71
3
 72
10
 73
6
 74
0
 42
0.0000001
 43
0.0000001
 44
0.0000000001
 40
0.0
 40
0.0
 40
0.0
 40
0.0
 40
0.5348593617
 40
0.7827561012
 40
1.0
 40
1.0
 40
1.0
 40
1.0
 10
49.1450213198
 20
68.1463557726
 30
0.0
 10
49.2016979127
 20
67.6446825861
 30
0.0
 10
49.2691466471
 20
66.9085400163
 30
0.0
 10
49.3198378319
 20
65.9659125033
 30
0.0
 10
49.3300770738
 20
65.5268504033
 30
0.0
 10
49.3300798348
 20
65.3217894977
 30
0.0
  0
SPLINE
  5
3F7
100
AcDbEntity
  8
RACCORDO
100
AcDbSpline
 62
250
  6
CONTINUOUS
 70
0
 71
3
 72
22
 73
18
 74
0
 42
0.0000001
 43
0.0000001
 44
0.0000000001
 40
0.0
 40
0.0
 40
0.0
 40
0.0
 40
0.005789938
 40
0.0121551711
 40
0.0198178154
 40
0.0292014938
 40
0.0538499432
 40
0.0868985118
 40
0.1284522111
 40
0.1782262862
 40
0.2359056954
 40
0.3009979881
 40
0.3728216192
 40
0.4507575853
 40
0.6217676002
 40
0.8072677678
 40
1.0
 40
1.0
 40
1.0
 40
1.0
 10
45.8406254902
 20
149.4609191792
 30
0.0
 10
45.8470853651
 20
149.4611032233
 30
0.0
 10
45.8608877815
 20
149.458583381
 30
0.0
 10
45.8796620231
 20
149.4460932276
 30
0.0
 10
45.8966687232
 20
149.4259663414
 30
0.0
 10
45.9196560574
 20
149.3853056961
 30
0.0
 10
45.9434649011
 20
149.3137921204
 30
0.0
 10
45.9657852562
 20
149.2052307985
 30
0.0
 10
45.9832350223
 20
149.0673813334
 30
0.0
 10
45.9957703172
 20
148.9015031516
 30
0.0
 10
46.0029693888
 20
148.7090083936
 30
0.0
 10
46.0047308289
 20
148.4917941017
 30
0.0
 10
46.00112927
 20
148.2519931986
 30
0.0
 10
45.9885930203
 20
147.8941640261
 30
0.0
 10
45.9590838864
 20
147.4100666273
 30
0.0
 10
45.9053238484
 20
146.7993296114
 30
0.0
 10
45.8582814169
 20
146.3797443623
 30
0.0
 10
45.8318691171
 20
146.16625199
 30
0.0
  0
LINE
  5
3F8
100
AcDbEntity
  8
RACCORDO
100
AcDbLine
 62
250
  6
CONTINUOUS
 10
45.8318691171
 20
146.16625199
 30
0.0
 11
45.7854022438
 21
145.7871146921
 31
0.0
  0
SPLINE
  5
3F9
100
AcDbEntity
  8
RACCORDO
100
AcDbSpline
 62
250
  6
CONTINUOUS
 70
0
 71
3
 72
14
 73
10
 74
0
 42
0.0000001
 43
0.0000001
 44
0.0000000001
 40
0.0
 40
0.0
 40
0.0
 40
0.0
 40
0.0197943066
 40
0.068485155
 40
0.1480500106
 40
0.2585289118
 40
0.3995340132
 40
0.5705799573
 40
1.0
 40
1.0
 40
1.0
 40
1.0
 10
42.1341781556
 20
129.8321248977
 30
0.0
 10
42.1348672654
 20
129.8321117991
 30
0.0
 10
42.1358523651
 20
129.8290862979
 30
0.0
 10
42.1365842419
 20
129.8246525096
 30
0.0
 10
42.1373961681
 20
129.8160092873
 30
0.0
 10
42.1379578503
 20
129.8046532147
 30
0.0
 10
42.1383823656
 20
129.7898853515
 30
0.0
 10
42.1387016993
 20
129.7640977892
 30
0.0
 10
42.138607125
 20
129.7431753456
 30
0.0
 10
42.1384609074
 20
129.7282237314
 30
0.0
  0
SPLINE
  5
3FA
100
AcDbEntity
  8
RACCORDO
100
AcDbSpline
 62
250
  6
CONTINUOUS
 70
0
 71
3
 72
9
 73
5
 74
0
 42
0.0000001
 43
0.0000001
 44
0.0000000001
 40
0.0
 40
0.0
 40
0.0
 40
0.0
 40
0.2212924418
 40
1.0
 40
1.0
 40
1.0
 40
1.0
 10
42.1342921619
 20
129.5518773374
 30
0.0
 10
42.1330402522
 20
129.5134902454
 30
0.0
 10
42.1266785808
 20
129.3400457989
 30
0.0
 10
42.1182997058
 20
129.1666795178
 30
0.0
 10
42.111018
 20
129.031723392
 30
0.0
  0
SPLINE
  5
3FB
100
AcDbEntity
  8
RACCORDO
100
AcDbSpline
 62
250
  6
CONTINUOUS
 70
0
 71
3
 72
9
 73
5
 74
0
 42
0.0000001
 43
0.0000001
 44
0.0000000001
 40
0.0
 40
0.0
 40
0.0
 40
0.0
 40
0.4999721107
 40
1.0
 40
1.0
 40
1.0
 40
1.0
 10
44.3413312755
 20
129.4816784135
 30
0.0
 10
44.1342577377
 20
125.7638645146
 30
0.0
 10
43.8793472138
 20
118.3190798761
 30
0.0
 10
43.797308049
 20
110.8715206621
 30
0.0
 10
43.797308049
 20
107.1475290586
 30
0.0
  0
SPLINE
  5
3FC
100
AcDbEntity
  8
RACCORDO
100
AcDbSpline
 62
250
  6
CONTINUOUS
 70
0
 71
3
 72
9
 73
5
 74
0
 42
0.0000001
 43
0.0000001
 44
0.0000000001
 40
0.0
 40
0.0
 40
0.0
 40
0.0
 40
0.4999947777
 40
1.0
 40
1.0
 40
1.0
 40
1.0
 10
42.1084955431
 20
128.9848939046
 30
0.0
 10
41.9135252333
 20
125.3593140349
 30
0.0
 10
41.6714717444
 20
118.1002281512
 30
0.0
 10
41.5923554286
 20
110.8385251598
 30
0.0
 10
41.5919258117
 20
107.2076308632
 30
0.0
  0
SPLINE
  5
3FD
100
AcDbEntity
  8
RACCORDO
100
AcDbSpline
 62
250
  6
CONTINUOUS
 70
0
 71
3
 72
10
 73
6
 74
0
 42
0.0000001
 43
0.0000001
 44
0.0000000001
 40
0.0
 40
0.0
 40
0.0
 40
0.0
 40
0.6696745294
 40
0.8899009815
 40
1.0
 40
1.0
 40
1.0
 40
1.0
 10
46.0852816063
 20
68.1610850496
 30
0.0
 10
46.028691268
 20
68.1540556524
 30
0.0
 10
45.9534871684
 20
68.144727377
 30
0.0
 10
45.869042426
 20
68.1337853505
 30
0.0
 10
45.8411371292
 20
68.1302260797
 30
0.0
 10
45.8318660242
 20
68.1288319713
 30
0.0
  0
SPLINE
  5
3FE
100
AcDbEntity
  8
RACCORDO
100
AcDbSpline
 62
250
  6
CONTINUOUS
 70
0
 71
3
 72
11
 73
7
 74
0
 42
0.0000001
 43
0.0000001
 44
0.0000000001
 40
0.0
 40
0.0
 40
0.0
 40
0.0
 40
0.249268485
 40
0.4989517415
 40
0.749217803
 40
1.0
 40
1.0
 40
1.0
 40
1.0
 10
46.093980383
 20
64.5774556594
 30
0.0
 10
46.0622707252
 20
64.5819718362
 30
0.0
 10
45.9998131963
 20
64.6015704783
 30
0.0
 10
45.9207454543
 20
64.6593306369
 30
0.0
 10
45.8639478844
 20
64.7393162851
 30
0.0
 10
45.8449230977
 20
64.8022026516
 30
0.0
 10
45.8406257378
 20
64.8341389719
 30
0.0
  0
SPLINE
  5
3FF
100
AcDbEntity
  8
RACCORDO
100
AcDbSpline
 62
250
  6
CONTINUOUS
 70
0
 71
3
 72
11
 73
7
 74
0
 42
0.0000001
 43
0.0000001
 44
0.0000000001
 40
0.0
 40
0.0
 40
0.0
 40
0.0
 40
0.2492868655
 40
0.4989852207
 40
0.7492478194
 40
1.0
 40
1.0
 40
1.0
 40
1.0
 10
46.049220742
 20
64.5777121711
 30
0.0
 10
46.0175077171
 20
64.5822335998
 30
0.0
 10
45.9550454143
 20
64.6018388954
 30
0.0
 10
45.875966029
 20
64.6595958818
 30
0.0
 10
45.8191488371
 20
64.7395697041
 30
0.0
 10
45.8001053223
 20
64.8024492302
 30
0.0
 10
45.7957988927
 20
64.8343821751
 30
0.0
  0
SPLINE
  5
400
100
AcDbEntity
  8
RACCORDO
100
AcDbSpline
 62
250
  6
CONTINUOUS
 70
0
 71
3
 72
8
 73
4
 74
0
 42
0.0000001
 43
0.0000001
 44
0.0000000001
 40
0.0
 40
0.0
 40
0.0
 40
0.0
 40
1.0
 40
1.0
 40
1.0
 40
1.0
 10
44.1507000806
 20
64.5746362053
 30
0.0
 10
44.1082776746
 20
64.5805984964
 30
0.0
 10
44.0662531037
 20
64.5962019863
 30
0.0
 10
44.0302181193
 20
64.619368543
 30
0.0
  0
SPLINE
  5
401
100
AcDbEntity
  8
RACCORDO
100
AcDbSpline
 62
250
  6
CONTINUOUS
 70
0
 71
3
 72
8
 73
4
 74
0
 42
0.0000001
 43
0.0000001
 44
0.0000000001
 40
0.0
 40
0.0
 40
0.0
 40
0.0
 40
1.0
 40
1.0
 40
1.0
 40
1.0
 10
44.1507000806
 20
149.7204219119
 30
0.0
 10
44.108277674
 20
149.7144596207
 30
0.0
 10
44.0662531025
 20
149.6988561305
 30
0.0
 10
44.0302181178
 20
149.6756895732
 30
0.0
  0
SPLINE
  5
402
100
AcDbEntity
  8
RACCORDO
100
AcDbSpline
 62
250
  6
CONTINUOUS
 70
0
 71
3
 72
11
 73
7
 74
0
 42
0.0000001
 43
0.0000001
 44
0.0000000001
 40
0.0
 40
0.0
 40
0.0
 40
0.0
 40
0.2492868652
 40
0.4989852206
 40
0.7492478194
 40
1.0
 40
1.0
 40
1.0
 40
1.0
 10
46.0492207419
 20
149.7173459461
 30
0.0
 10
46.0175077171
 20
149.7128245174
 30
0.0
 10
45.9550454143
 20
149.6932192218
 30
0.0
 10
45.875966029
 20
149.6354622355
 30
0.0
 10
45.8191488371
 20
149.5554884131
 30
0.0
 10
45.8001053223
 20
149.492608887
 30
0.0
 10
45.7957988928
 20
149.4606759421
 30
0.0
  0
SPLINE
  5
403
100
AcDbEntity
  8
RACCORDO
100
AcDbSpline
 62
250
  6
CONTINUOUS
 70
0
 71
3
 72
11
 73
7
 74
0
 42
0.0000001
 43
0.0000001
 44
0.0000000001
 40
0.0
 40
0.0
 40
0.0
 40
0.0
 40
0.2492771534
 40
0.4989578459
 40
0.7492181713
 40
1.0
 40
1.0
 40
1.0
 40
1.0
 10
46.0940151009
 20
149.7176115691
 30
0.0
 10
46.062299173
 20
149.7131019712
 30
0.0
 10
45.9998281125
 20
149.6935132063
 30
0.0
 10
45.9207428288
 20
149.6357534805
 30
0.0
 10
45.8639382691
 20
149.5557570717
 30
0.0
 10
45.8449183825
 20
149.4928602823
 30
0.0
 10
45.8406254902
 20
149.4609191792
 30
0.0
  0
SPLINE
  5
404
100
AcDbEntity
  8
RACCORDO
100
AcDbSpline
 62
250
  6
CONTINUOUS
 70
0
 71
3
 72
9
 73
5
 74
0
 42
0.0000001
 43
0.0000001
 44
0.0000000001
 40
0.0
 40
0.0
 40
0.0
 40
0.0
 40
0.669686896
 40
1.0
 40
1.0
 40
1.0
 40
1.0
 10
46.0852107848
 20
146.1339727648
 30
0.0
 10
46.0286318207
 20
146.1409705315
 30
0.0
 10
45.9441716833
 20
146.1516138525
 30
0.0
 10
45.859661548
 20
146.1618902042
 30
0.0
 10
45.8317964227
 20
146.1656629599
 30
0.0
  0
SPLINE
  5
405
100
AcDbEntity
  8
RACCORDO
100
AcDbSpline
 62
250
  6
CONTINUOUS
 70
0
 71
3
 72
14
 73
10
 74
0
 42
0.0000001
 43
0.0000001
 44
0.0000000001
 40
0.0
 40
0.0
 40
0.0
 40
0.0
 40
0.4292970712
 40
0.6003581967
 40
0.7414192431
 40
0.8519609674
 40
0.9315621194
 40
0.9802688189
 40
1.0
 40
1.0
 40
1.0
 40
1.0
 10
42.1384365524
 20
84.5692481074
 30
0.0
 10
42.138595632
 20
84.5539557695
 30
0.0
 10
42.1387069426
 20
84.5325539984
 30
0.0
 10
42.1384023594
 20
84.506173134
 30
0.0
 10
42.1379841613
 20
84.4910580824
 30
0.0
 10
42.1374225427
 20
84.4794363423
 30
0.0
 10
42.1366103861
 20
84.4705819393
 30
0.0
 10
42.1358664699
 20
84.4660553651
 30
0.0
 10
42.1348809236
 20
84.4629467551
 30
0.0
 10
42.1341781556
 20
84.4629332195
 30
0.0
  0
LINE
  5
406
100
AcDbEntity
  8
RACCORDO
100
AcDbLine
 62
250
  6
CONTINUOUS
 10
45.7854022438
 20
68.507943425
 30
0.0
 11
45.8318701961
 21
68.1287973866
 31
0.0
  0
SPLINE
  5
407
100
AcDbEntity
  8
RACCORDO
100
AcDbSpline
 62
250
  6
CONTINUOUS
 70
0
 71
3
 72
22
 73
18
 74
0
 42
0.0000001
 43
0.0000001
 44
0.0000000001
 40
0.0
 40
0.0
 40
0.0
 40
0.0
 40
0.1927291833
 40
0.3782338949
 40
0.5492422602
 40
0.627177466
 40
0.6990007874
 40
0.7640934881
 40
0.8217737089
 40
0.8715481739
 40
0.9131019899
 40
0.9461503161
 40
0.9707981191
 40
0.9801812423
 40
0.9878443124
 40
0.9942097441
 40
1.0
 40
1.0
 40
1.0
 40
1.0
 10
45.8318701961
 20
68.1287973866
 30
0.0
 10
45.858281967
 20
67.9153089632
 30
0.0
 10
45.9053241092
 20
67.4957231564
 30
0.0
 10
45.9590845078
 20
66.8849879984
 30
0.0
 10
45.9885929626
 20
66.4008894876
 30
0.0
 10
46.0011294125
 20
66.0430643299
 30
0.0
 10
46.0047308452
 20
65.8032648064
 30
0.0
 10
46.0029693724
 20
65.5860500982
 30
0.0
 10
45.9957703325
 20
65.3935540278
 30
0.0
 10
45.9832347106
 20
65.2276749353
 30
0.0
 10
45.9657849043
 20
65.0898253009
 30
0.0
 10
45.9434639777
 20
64.9812659098
 30
0.0
 10
45.9196584324
 20
64.9097521379
 30
0.0
 10
45.8966682281
 20
64.8690949427
 30
0.0
 10
45.8796646963
 20
64.8489649153
 30
0.0
 10
45.8608881695
 20
64.8364765929
 30
0.0
 10
45.8470857007
 20
64.8339548248
 30
0.0
 10
45.8406254902
 20
64.834138938
 30
0.0
  0
SPLINE
  5
408
100
AcDbEntity
  8
RACCORDO
100
AcDbSpline
 62
250
  6
CONTINUOUS
 70
0
 71
3
 72
9
 73
5
 74
0
 42
0.0000001
 43
0.0000001
 44
0.0000000001
 40
0.0
 40
0.0
 40
0.0
 40
0.0
 40
0.2700129115
 40
1.0
 40
1.0
 40
1.0
 40
1.0
 10
42.111018
 20
85.2633347252
 30
0.0
 10
42.1135067221
 20
85.217208107
 30
0.0
 10
42.1223382525
 20
85.046357282
 30
0.0
 10
42.1299119061
 20
84.8754346673
 30
0.0
 10
42.1340476704
 20
84.7506172488
 30
0.0
  0
LINE
  5
409
100
AcDbEntity
  8
RACCORDO
100
AcDbLine
 62
250
  6
CONTINUOUS
 10
42.1367988066
 20
84.6569889777
 30
0.0
 11
42.137029824
 21
84.6475290586
 31
0.0
  0
SPLINE
  5
40A
100
AcDbEntity
  8
RACCORDO
100
AcDbSpline
 62
250
  6
CONTINUOUS
 70
0
 71
3
 72
9
 73
5
 74
0
 42
0.0000001
 43
0.0000001
 44
0.0000000001
 40
0.0
 40
0.0
 40
0.0
 40
0.0
 40
0.5000052533
 40
1.0
 40
1.0
 40
1.0
 40
1.0
 10
41.5919256757
 20
107.0886056383
 30
0.0
 10
41.5923470363
 20
103.4572320675
 30
0.0
 10
41.6714873403
 20
96.1945712115
 30
0.0
 10
41.9135676183
 20
88.9345269604
 30
0.0
 10
42.1085866472
 20
85.3084702071
 30
0.0
  0
SPLINE
  5
40B
100
AcDbEntity
  8
RACCORDO
100
AcDbSpline
 62
250
  6
CONTINUOUS
 70
0
 71
3
 72
9
 73
5
 74
0
 42
0.0000001
 43
0.0000001
 44
0.0000000001
 40
0.0
 40
0.0
 40
0.0
 40
0.0
 40
0.5000278893
 40
1.0
 40
1.0
 40
1.0
 40
1.0
 10
43.7973115224
 20
107.1475290586
 30
0.0
 10
43.7973115224
 20
103.4235374874
 30
0.0
 10
43.8793506858
 20
95.9759783378
 30
0.0
 10
44.1342612049
 20
88.5311937638
 30
0.0
 10
44.3413347381
 20
84.8133798969
 30
0.0
  0
SPLINE
  5
40C
100
AcDbEntity
  8
RACCORDO
100
AcDbSpline
 62
250
  6
CONTINUOUS
 70
0
 71
3
 72
16
 73
12
 74
0
 42
0.0000001
 43
0.0000001
 44
0.0000000001
 40
0.0
 40
0.0
 40
0.0
 40
0.0
 40
0.0043326469
 40
0.0172241516
 40
0.0385750417
 40
0.0682798074
 40
0.1523184648
 40
0.2680278469
 40
0.4133915981
 40
0.5862289483
 40
1.0
 40
1.0
 40
1.0
 40
1.0
 10
51.3660720612
 20
145.820259626
 30
0.0
 10
51.3660720611
 20
145.8201506961
 30
0.0
 10
51.365377474
 20
145.8203553362
 30
0.0
 10
51.3646590561
 20
145.8201199683
 30
0.0
 10
51.362910318
 20
145.8202163963
 30
0.0
 10
51.3595989016
 20
145.8201077352
 30
0.0
 10
51.3537678554
 20
145.8201201296
 30
0.0
 10
51.3451207353
 20
145.8200509442
 30
0.0
 10
51.3342005178
 20
145.8200191215
 30
0.0
 10
51.3158026762
 20
145.8199615
 30
0.0
 10
51.301052185
 20
145.8199356439
 30
0.0
 10
51.2906493114
 20
145.8199200994
 30
0.0
  0
SPLINE
  5
40D
100
AcDbEntity
  8
RACCORDO
100
AcDbSpline
 62
250
  6
CONTINUOUS
 70
0
 71
3
 72
16
 73
12
 74
0
 42
0.0000001
 43
0.0000001
 44
0.0000000001
 40
0.0
 40
0.0
 40
0.0
 40
0.0
 40
0.0043285945
 40
0.0171999936
 40
0.0385185351
 40
0.0681809417
 40
0.1521131578
 40
0.2677088181
 40
0.4129886236
 40
0.5858113994
 40
1.0
 40
1.0
 40
1.0
 40
1.0
 10
51.3660720611
 20
146.1479445618
 30
0.0
 10
51.3660720611
 20
146.1478374292
 30
0.0
 10
51.3653898487
 20
146.1480314227
 30
0.0
 10
51.3646831699
 20
146.1478022278
 30
0.0
 10
51.362964577
 20
146.1478914279
 30
0.0
 10
51.359708987
 20
146.1477817807
 30
0.0
 10
51.3539755154
 20
146.1477877981
 30
0.0
 10
51.3454705772
 20
146.1477148627
 30
0.0
 10
51.3347257819
 20
146.1476782024
 30
0.0
 10
51.3166066737
 20
146.1476148116
 30
0.0
 10
51.3020760105
 20
146.1475856724
 30
0.0
 10
51.2918248697
 20
146.1475682376
 30
0.0
  0
SPLINE
  5
40E
100
AcDbEntity
  8
RACCORDO
100
AcDbSpline
 62
250
  6
CONTINUOUS
 70
0
 71
3
 72
16
 73
12
 74
0
 42
0.0000001
 43
0.0000001
 44
0.0000000001
 40
0.0
 40
0.0
 40
0.0
 40
0.0
 40
0.004328604
 40
0.0172000057
 40
0.0385185483
 40
0.0681809553
 40
0.1521131709
 40
0.2677088292
 40
0.4129886325
 40
0.5858114064
 40
1.0
 40
1.0
 40
1.0
 40
1.0
 10
51.3660720611
 20
68.1471135034
 30
0.0
 10
51.3660720611
 20
68.1472206362
 30
0.0
 10
51.3653898499
 20
68.1470266613
 30
0.0
 10
51.3646831695
 20
68.1472558505
 30
0.0
 10
51.3629645773
 20
68.1471666648
 30
0.0
 10
51.3597089869
 20
68.1472763189
 30
0.0
 10
51.3539755156
 20
68.1472703172
 30
0.0
 10
51.3454705773
 20
68.147343265
 30
0.0
 10
51.334725782
 20
68.1473799387
 30
0.0
 10
51.3166066737
 20
68.1474433459
 30
0.0
 10
51.3020760104
 20
68.1474724938
 30
0.0
 10
51.2918248695
 20
68.1474899338
 30
0.0
  0
SPLINE
  5
40F
100
AcDbEntity
  8
RACCORDO
100
AcDbSpline
 62
250
  6
CONTINUOUS
 70
0
 71
3
 72
16
 73
12
 74
0
 42
0.0000001
 43
0.0000001
 44
0.0000000001
 40
0.0
 40
0.0
 40
0.0
 40
0.0
 40
0.0043330589
 40
0.0172246885
 40
0.0385756397
 40
0.0682804348
 40
0.1523190921
 40
0.2680284204
 40
0.413392076
 40
0.5862292952
 40
1.0
 40
1.0
 40
1.0
 40
1.0
 10
51.3660720612
 20
68.4747959189
 30
0.0
 10
51.3660720612
 20
68.4749048593
 30
0.0
 10
51.3653775231
 20
68.4747011278
 30
0.0
 10
51.3646590339
 20
68.4749362123
 30
0.0
 10
51.3629103309
 20
68.4748404861
 30
0.0
 10
51.359598892
 20
68.4749494829
 30
0.0
 10
51.3537678612
 20
68.4749378509
 30
0.0
 10
51.3451207316
 20
68.4750076361
 30
0.0
 10
51.3342005153
 20
68.4750401135
 30
0.0
 10
51.3158026706
 20
68.4750985204
 30
0.0
 10
51.3010521777
 20
68.4751247962
 30
0.0
 10
51.2906493026
 20
68.4751405899
 30
0.0
  0
ELLIPSE
  5
410
100
AcDbEntity
  8
RACCORDO
100
AcDbEllipse
 62
7
  6
CONTINUOUS
 10
114.6826019277
 20
128.9672163751
 30
0.0
 11
-0.3536610946
 21
0.3536610946
 31
0.0
 40
0.9996954599
 41
-0.7852458701
 42
0.7852458701
  0
ELLIPSE
  5
411
100
AcDbEntity
  8
RACCORDO
100
AcDbEllipse
 62
7
  6
CONTINUOUS
 10
114.6826019277
 20
85.3278417421
 30
0.0
 11
-0.3536610946
 21
-0.3536610946
 31
0.0
 40
0.9996954599
 41
-0.7852458701
 42
0.7852458701
  0
ELLIPSE
  5
412
100
AcDbEntity
  8
RACCORDO
100
AcDbEllipse
 62
7
  6
CONTINUOUS
 10
203.7719765607
 20
128.9672163751
 30
0.0
 11
0.3536610946
 21
0.3536610946
 31
0.0
 40
0.9996954599
 41
-0.7852458701
 42
0.7852458701
  0
ELLIPSE
  5
413
100
AcDbEntity
  8
RACCORDO
100
AcDbEllipse
 62
7
  6
CONTINUOUS
 10
203.7719765607
 20
85.3278417421
 30
0.0
 11
-0.3536610946
 21
0.3536610946
 31
0.0
 40
0.9996954599
 41
2.3563467834
 42
3.9268385237
  0
ENDSEC
  0
SECTION
  2
OBJECTS
  0
DICTIONARY
  5
C
100
AcDbDictionary
280
0
281
1
  3
ACAD_GROUP
350
D
  3
ACAD_MLINESTYLE
350
17
  3
ACAD_LAYOUT
350
1A
  3
ACAD_PLOTSETTINGS
350
19
  3
ACAD_PLOTSTYLENAME
350
E
  0
DICTIONARY
  5
D
102
{ACAD_REACTORS
330
C
102
}
100
AcDbDictionary
280
0
281
1
  0
ACDBDICTIONARYWDFLT
  5
E
102
{ACAD_REACTORS
330
C
102
}
100
AcDbDictionary
281
1
  3
Normal
350
F
100
AcDbDictionaryWithDefault
340
F
  0
DICTIONARY
  5
17
102
{ACAD_REACTORS
330
C
102
}
100
AcDbDictionary
280
0
281
1
  3
Standard
350
18
  0
DICTIONARY
  5
19
102
{ACAD_REACTORS
330
C
102
}
100
AcDbDictionary
281
1
  0
DICTIONARY
  5
1A
102
{ACAD_REACTORS
330
C
102
}
100
AcDbDictionary
281
1
  3
Model
350
414
  3
Layout1
350
415
  0
ACDBPLACEHOLDER
  5
F
102
{ACAD_REACTORS
330
E
102
}
  0
MLINESTYLE
  5
18
102
{ACAD_REACTORS
330
17
102
}
100
AcDbMlineStyle
  2
STANDARD
 70
0
  3

 62
256
 51
90.0
 52
90.0
 71
2
 49
0.5
 62
256
  6
BYLAYER
 49
-0.5
 62
256
  6
BYLAYER
  0
LAYOUT
  5
414
102
{ACAD_REACTORS
330
1A
102
}
100
AcDbPlotSettings
  1

  2
none_device
  4
ISO_A4_(297.00_x_210.00_MM)
  6

 40
0.0
 41
0.0
 42
0.0
 43
0.0
 44
297.0
 45
210.0
 46
0.0
 47
0.0
 48
0.0
 49
0.0
140
0.0
141
0.0
142
1.0
143
1.0
 70
1024
 72
1
 73
0
 74
0
  7

 75
0
147
1.0
148
0.0
149
0.0
100
AcDbLayout
  1
Model
 70
0
 71
0
 10
0.0
 20
0.0
 11
297.0
 21
210.0
 12
0.0
 22
0.0
 32
0.0
 14
0.0
 24
0.0
 34
0.0
 15
0.0
 25
0.0
 35
0.0
146
0.0
 13
0.0
 23
0.0
 33
0.0
 16
1.0
 26
0.0
 36
0.0
 17
0.0
 27
1.0
 37
0.0
 76
0
330
218
345
0
346
0
  0
LAYOUT
  5
415
102
{ACAD_REACTORS
330
1A
102
}
100
AcDbPlotSettings
  1

  2
none_device
  4
ISO_A4_(297.00_x_210.00_MM)
  6

 40
0.0
 41
0.0
 42
0.0
 43
0.0
 44
297.0
 45
210.0
 46
0.0
 47
0.0
 48
0.0
 49
0.0
140
0.0
141
0.0
142
1.0
143
1.0
 70
0
 72
1
 73
0
 74
0
  7

 75
0
147
1.0
148
0.0
149
0.0
100
AcDbLayout
  1
Layout1
 70
0
 71
1
 10
0.0
 20
0.0
 11
297.0
 21
210.0
 12
0.0
 22
0.0
 32
0.0
 14
0.0
 24
0.0
 34
0.0
 15
0.0
 25
0.0
 35
0.0
146
0.0
 13
0.0
 23
0.0
 33
0.0
 16
1.0
 26
0.0
 36
0.0
 17
0.0
 27
1.0
 37
0.0
 76
0
330
219
345
0
346
0
  0
ENDSEC
  0
EOF
