  0
SECTION
  2
HEADER
  9
$ACADVER
  1
AC1024
  9
$DWGCODEPAGE
  3
ANSI_1252
  9
$EXTMAX
 10
297.0
 20
210.0
 30
0.0
  9
$EXTMIN
 10
0.0
 20
0.0
 30
0.0
  9
$LIMMIN
 10
0.0
 20
0.0
  9
$LIMMAX
 10
297.0
 20
210.0
  9
$VIEWCTR
 10
148.5
 20
105.0
  9
$VIEWSIZE
 40
210.0
  9
$CLAYER
  8
0
  9
$LTSCALE
 40
16.335
  9
$CELTYPE
  6
BYLAYER
  9
$DIMSCALE
 40
1.0
  9
$DIMASZ
 40
3.0
  9
$DIMEXO
 40
0.5
  9
$DIMDLI
 40
11.286
  9
$DIMEXE
 40
1.5
  9
$DIMCEN
 40
2.673
  9
$DIMLFAC
 40
1.0
  9
$DIMBLK
  1
_FILLED
  9
$DIMALT
 70
0
  9
$DIMALTF
 40
0.0393700787
  9
$DIMTXT
 40
3.0
  9
$DIMTOL
 70
1
  9
$DIMLIM
 70
0
  9
$DIMTFAC
 40
1.0
  9
$DIMTP
 40
0.01
  9
$DIMTM
 40
0.01
  9
$DIMGAP
 40
0.625
  9
$DIMDSEP
 70
44
  9
$AUNITS
 70
0
  9
$PDMODE
 70
3
  9
$PDSIZE
 40
3.0
  9
$HANDSEED
  5
46C
  9
$TILEMODE
 70
1
  9
$MEASUREMENT
 70
1
  9
$INSUNITS
 70
4
  0
ENDSEC
  0
SECTION
  2
CLASSES
  0
CLASS
  1
ACDBDICTIONARYWDFLT
  2
AcDbDictionaryWithDefault
  3
AutoCAD 2000
 90
0
 91
1
280
0
281
0
  0
CLASS
  1
ACDBPLACEHOLDER
  2
AcDbPlaceHolder
  3
AutoCAD 2000
 90
0
 91
1
280
0
281
0
  0
CLASS
  1
LAYOUT
  2
AcDbLayout
  3
AutoCAD 2000
 90
0
 91
0
280
0
281
0
  0
ENDSEC
  0
SECTION
  2
TABLES
  0
TABLE
  2
VPORT
  5
8
100
AcDbSymbolTable
 70
2
  0
VPORT
  5
1F4
100
AcDbSymbolTableRecord
100
AcDbViewportTableRecord
  2
*ACTIVE
 70
0
 10
0.0
 20
0.0
 11
1.0
 21
1.0
 12
148.5
 22
105.0
 13
0.0
 23
0.0
 14
1.0
 24
1.0
 15
0.0
 25
0.0
 16
0.0
 26
0.0
 36
1.0
 17
0.0
 27
0.0
 37
0.0
 40
210.0
 41
1.4142857143
 42
50.0
 43
0.0
 44
0.0
 50
0.0
 51
0.0
 71
0
 72
100
 73
1
 74
1
 75
0
 76
0
 77
0
 78
0
  0
ENDTAB
  0
TABLE
  2
LTYPE
  5
5
100
AcDbSymbolTable
 70
6
  0
LTYPE
  5
14
100
AcDbSymbolTableRecord
100
AcDbLinetypeTableRecord
  2
BYBLOCK
 70
0
  3

 72
65
 73
0
 40
0.0
  0
LTYPE
  5
15
100
AcDbSymbolTableRecord
100
AcDbLinetypeTableRecord
  2
BYLAYER
 70
0
  3

 72
65
 73
0
 40
0.0
  0
LTYPE
  5
16
100
AcDbSymbolTableRecord
100
AcDbLinetypeTableRecord
  2
CONTINUOUS
 70
64
  3
Solid line
 72
65
 73
0
 40
0.0
  0
LTYPE
  5
1F5
100
AcDbSymbolTableRecord
100
AcDbLinetypeTableRecord
  2
CENTER
 70
64
  3
____ _ ____ _ ____ _ ____ _ ____ _ ____ _ ____
 72
65
 73
4
 40
0.6
 49
0.375
 74
0
 49
-0.075
 74
0
 49
0.075
 74
0
 49
-0.075
 74
0
  0
LTYPE
  5
1F6
100
AcDbSymbolTableRecord
100
AcDbLinetypeTableRecord
  2
HIDDEN
 70
64
  3
- - - - - - - - - - - - - - - - - - - -
 72
65
 73
2
 40
0.2
 49
0.1
 74
0
 49
-0.1
 74
0
  0
LTYPE
  5
1F7
100
AcDbSymbolTableRecord
100
AcDbLinetypeTableRecord
  2
PHANTOM
 70
64
  3
_____ _ _ _____ _ _ _____ _ _ _____
 72
65
 73
6
 40
0.8
 49
0.45
 74
0
 49
-0.05
 74
0
 49
0.1
 74
0
 49
-0.05
 74
0
 49
0.1
 74
0
 49
-0.05
 74
0
  0
LTYPE
  5
1F8
100
AcDbSymbolTableRecord
100
AcDbLinetypeTableRecord
  2
DOT
 70
64
  3
. . . . . . . . . . . . . . . . . . . .
 72
65
 73
2
 40
0.2
 49
0.1
 74
0
 49
-0.1
 74
0
  0
LTYPE
  5
1F9
100
AcDbSymbolTableRecord
100
AcDbLinetypeTableRecord
  2
DASHED
 70
64
  3
- - - - - - - - - - - - - - - - - - - -
 72
65
 73
2
 40
0.2
 49
0.1
 74
0
 49
-0.1
 74
0
  0
ENDTAB
  0
TABLE
  2
LAYER
  5
2
100
AcDbSymbolTable
 70
36
  0
LAYER
  5
10
100
AcDbSymbolTableRecord
100
AcDbLayerTableRecord
  2
0
 70
0
 62
7
  6
CONTINUOUS
370
-3
390
F
  0
LAYER
  5
1FA
100
AcDbSymbolTableRecord
100
AcDbLayerTableRecord
  2
DEFAULT_1
 70
0
 62
7
  6
CENTER
370
-3
390
F
  0
LAYER
  5
1FB
100
AcDbSymbolTableRecord
100
AcDbLayerTableRecord
  2
DEFAULT_2
 70
0
 62
7
  6
HIDDEN
370
-3
390
F
  0
LAYER
  5
1FC
100
AcDbSymbolTableRecord
100
AcDbLayerTableRecord
  2
DEFAULT_3
 70
0
 62
7
  6
PHANTOM
370
-3
390
F
  0
LAYER
  5
1FD
100
AcDbSymbolTableRecord
100
AcDbLayerTableRecord
  2
262146410
 70
0
 62
7
  6
CONTINUOUS
370
-3
390
F
  0
LAYER
  5
1FE
100
AcDbSymbolTableRecord
100
AcDbLayerTableRecord
  2
262146420
 70
0
 62
7
  6
CONTINUOUS
370
-3
390
F
  0
LAYER
  5
1FF
100
AcDbSymbolTableRecord
100
AcDbLayerTableRecord
  2
262146520
 70
0
 62
7
  6
CONTINUOUS
370
-3
390
F
  0
LAYER
  5
200
100
AcDbSymbolTableRecord
100
AcDbLayerTableRecord
  2
262146530
 70
0
 62
7
  6
CONTINUOUS
370
-3
390
F
  0
LAYER
  5
201
100
AcDbSymbolTableRecord
100
AcDbLayerTableRecord
  2
262146540
 70
0
 62
7
  6
CONTINUOUS
370
-3
390
F
  0
LAYER
  5
202
100
AcDbSymbolTableRecord
100
AcDbLayerTableRecord
  2
262146570
 70
0
 62
7
  6
CONTINUOUS
370
-3
390
F
  0
LAYER
  5
203
100
AcDbSymbolTableRecord
100
AcDbLayerTableRecord
  2
ASSI
 70
0
 62
7
  6
CONTINUOUS
370
-3
390
F
  0
LAYER
  5
204
100
AcDbSymbolTableRecord
100
AcDbLayerTableRecord
  2
COORDINATE
 70
0
 62
7
  6
CONTINUOUS
370
-3
390
F
  0
LAYER
  5
205
100
AcDbSymbolTableRecord
100
AcDbLayerTableRecord
  2
COORD_ORIGINE
 70
0
 62
7
  6
CONTINUOUS
370
-3
390
F
  0
LAYER
  5
206
100
AcDbSymbolTableRecord
100
AcDbLayerTableRecord
  2
CURVE
 70
0
 62
7
  6
CONTINUOUS
370
-3
390
F
  0
LAYER
  5
207
100
AcDbSymbolTableRecord
100
AcDbLayerTableRecord
  2
DRAFT
 70
0
 62
7
  6
CONTINUOUS
370
-3
390
F
  0
LAYER
  5
208
100
AcDbSymbolTableRecord
100
AcDbLayerTableRecord
  2
IGES
 70
0
 62
7
  6
CONTINUOUS
370
-3
390
F
  0
LAYER
  5
209
100
AcDbSymbolTableRecord
100
AcDbLayerTableRecord
  2
IGES_CONTROLLO_PUNTI
 70
0
 62
7
  6
CONTINUOUS
370
-3
390
F
  0
LAYER
  5
20A
100
AcDbSymbolTableRecord
100
AcDbLayerTableRecord
  2
IGES_PUNTI_DI_CONTROLLO
 70
0
 62
7
  6
CONTINUOUS
370
-3
390
F
  0
LAYER
  5
20B
100
AcDbSymbolTableRecord
100
AcDbLayerTableRecord
  2
IGES_SCRITTA_VIMAR
 70
0
 62
7
  6
CONTINUOUS
370
-3
390
F
  0
LAYER
  5
20C
100
AcDbSymbolTableRecord
100
AcDbLayerTableRecord
  2
INTF_1
 70
0
 62
7
  6
CONTINUOUS
370
-3
390
F
  0
LAYER
  5
20D
100
AcDbSymbolTableRecord
100
AcDbLayerTableRecord
  2
INTF_6
 70
0
 62
7
  6
CONTINUOUS
370
-3
390
F
  0
LAYER
  5
20E
100
AcDbSymbolTableRecord
100
AcDbLayerTableRecord
  2
INTF_7
 70
0
 62
7
  6
CONTINUOUS
370
-3
390
F
  0
LAYER
  5
20F
100
AcDbSymbolTableRecord
100
AcDbLayerTableRecord
  2
INTF_BLANK
 70
0
 62
7
  6
CONTINUOUS
370
-3
390
F
  0
LAYER
  5
210
100
AcDbSymbolTableRecord
100
AcDbLayerTableRecord
  2
INTF_GREEN
 70
0
 62
7
  6
CONTINUOUS
370
-3
390
F
  0
LAYER
  5
211
100
AcDbSymbolTableRecord
100
AcDbLayerTableRecord
  2
INTF_RED
 70
0
 62
7
  6
CONTINUOUS
370
-3
390
F
  0
LAYER
  5
212
100
AcDbSymbolTableRecord
100
AcDbLayerTableRecord
  2
INTF_YELLOW
 70
0
 62
7
  6
CONTINUOUS
370
-3
390
F
  0
LAYER
  5
213
100
AcDbSymbolTableRecord
100
AcDbLayerTableRecord
  2
PIANI
 70
0
 62
7
  6
CONTINUOUS
370
-3
390
F
  0
LAYER
  5
214
100
AcDbSymbolTableRecord
100
AcDbLayerTableRecord
  2
PIANI_COST_ANGOLO
 70
0
 62
7
  6
CONTINUOUS
370
-3
390
F
  0
LAYER
  5
215
100
AcDbSymbolTableRecord
100
AcDbLayerTableRecord
  2
PIANI_ORIGINE
 70
0
 62
7
  6
CONTINUOUS
370
-3
390
F
  0
LAYER
  5
216
100
AcDbSymbolTableRecord
100
AcDbLayerTableRecord
  2
PIANO_RIFERIMENTO
 70
0
 62
7
  6
CONTINUOUS
370
-3
390
F
  0
LAYER
  5
217
100
AcDbSymbolTableRecord
100
AcDbLayerTableRecord
  2
PUBLISH_GEOM
 70
0
 62
7
  6
CONTINUOUS
370
-3
390
F
  0
LAYER
  5
218
100
AcDbSymbolTableRecord
100
AcDbLayerTableRecord
  2
PUNTI
 70
0
 62
7
  6
CONTINUOUS
370
-3
390
F
  0
LAYER
  5
219
100
AcDbSymbolTableRecord
100
AcDbLayerTableRecord
  2
RACCORDO
 70
0
 62
7
  6
CONTINUOUS
370
-3
390
F
  0
LAYER
  5
21A
100
AcDbSymbolTableRecord
100
AcDbLayerTableRecord
  2
RGB__255__255__255__
 70
0
 62
7
  6
CONTINUOUS
370
-3
390
F
  0
LAYER
  5
21B
100
AcDbSymbolTableRecord
100
AcDbLayerTableRecord
  2
RGB____0____0____0__
 70
0
 62
7
  6
CONTINUOUS
370
-3
390
F
  0
LAYER
  5
21C
100
AcDbSymbolTableRecord
100
AcDbLayerTableRecord
  2
SNAPLINE
 70
0
 62
7
  6
CONTINUOUS
370
-3
390
F
  0
LAYER
  5
21D
100
AcDbSymbolTableRecord
100
AcDbLayerTableRecord
  2
SOLIDO
 70
0
 62
7
  6
CONTINUOUS
370
-3
390
F
  0
LAYER
  5
21E
100
AcDbSymbolTableRecord
100
AcDbLayerTableRecord
  2
SUPERFICI
 70
0
 62
7
  6
CONTINUOUS
370
-3
390
F
  0
LAYER
  5
21F
100
AcDbSymbolTableRecord
100
AcDbLayerTableRecord
  2
SUPERFICI_UTENSILE_INTERNO
 70
0
 62
7
  6
CONTINUOUS
370
-3
390
F
  0
LAYER
  5
220
100
AcDbSymbolTableRecord
100
AcDbLayerTableRecord
  2
SUP_SRITTA_VIMAR
 70
0
 62
7
  6
CONTINUOUS
370
-3
390
F
  0
LAYER
  5
221
100
AcDbSymbolTableRecord
100
AcDbLayerTableRecord
  2
TRASH
 70
0
 62
7
  6
CONTINUOUS
370
-3
390
F
  0
LAYER
  5
222
100
AcDbSymbolTableRecord
100
AcDbLayerTableRecord
  2
WHITE
 70
0
 62
7
  6
CONTINUOUS
370
-3
390
F
  0
ENDTAB
  0
TABLE
  2
STYLE
  5
3
100
AcDbSymbolTable
 70
1
  0
STYLE
  5
11
100
AcDbSymbolTableRecord
100
AcDbTextStyleTableRecord
  2
STANDARD
 70
0
 40
0.0
 41
0.8
 50
0.0
 71
0
 42
0.2
  3
txt
  4

  0
STYLE
  5
223
100
AcDbSymbolTableRecord
100
AcDbTextStyleTableRecord
  2
TEXTSTYLE_1
 70
0
 40
0.0
 41
0.8
 50
0.0
 71
0
 42
0.2
  3
gdt
  4

  0
ENDTAB
  0
TABLE
  2
VIEW
  5
6
100
AcDbSymbolTable
 70
0
  0
ENDTAB
  0
TABLE
  2
UCS
  5
7
100
AcDbSymbolTable
 70
0
  0
ENDTAB
  0
TABLE
  2
APPID
  5
9
100
AcDbSymbolTable
 70
1
  0
APPID
  5
224
100
AcDbSymbolTableRecord
100
AcDbRegAppTableRecord
  2
ACAD
 70
0
  0
ENDTAB
  0
TABLE
  2
BLOCK_RECORD
  5
1
100
AcDbSymbolTable
 70
0
  0
BLOCK_RECORD
  5
225
100
AcDbSymbolTableRecord
100
AcDbBlockTableRecord
  2
*Model_Space
  0
BLOCK_RECORD
  5
226
100
AcDbSymbolTableRecord
100
AcDbBlockTableRecord
  2
*Paper_Space
  0
BLOCK_RECORD
  5
227
100
AcDbSymbolTableRecord
100
AcDbBlockTableRecord
  2
_FILLED
  0
BLOCK_RECORD
  5
228
100
AcDbSymbolTableRecord
100
AcDbBlockTableRecord
  2
*D0
  0
BLOCK_RECORD
  5
229
100
AcDbSymbolTableRecord
100
AcDbBlockTableRecord
  2
*D1
  0
BLOCK_RECORD
  5
22A
100
AcDbSymbolTableRecord
100
AcDbBlockTableRecord
  2
*D2
  0
ENDTAB
  0
TABLE
  2
DIMSTYLE
  5
A
100
AcDbSymbolTable
 70
1
100
AcDbDimStyleTable
 71
0
  0
DIMSTYLE
105
22B
100
AcDbSymbolTableRecord
100
AcDbDimStyleTableRecord
  2
STANDARD
 70
0
  3

  4

 40
1.0
 41
3.0
 42
0.5
 43
0.38
 44
1.5
 45
0.0
 46
0.0
 47
0.01
 48
0.01
140
3.0
141
0.09
142
0.0
143
25.4
144
1.0
145
0.0
146
1.0
147
0.625
 71
1
 72
0
 73
0
 74
0
 75
0
 76
0
 77
1
 78
8
 79
2
170
0
171
1
172
0
173
0
174
0
175
0
176
0
177
0
178
0
270
2
179
2
271
2
272
2
273
2
274
2
275
0
280
0
281
0
282
0
283
1
284
8
285
0
286
0
287
3
288
0
340
11
278
44
341
227
342
227
343
227
344
227
  0
DIMSTYLE
105
22C
100
AcDbSymbolTableRecord
100
AcDbDimStyleTableRecord
  2
DIMSTYLE_1
 70
0
  3

  4

 40
1.0
 41
3.0
 42
0.5
 43
0.38
 44
1.5
 45
0.0
 46
0.0
 47
0.0
 48
0.0
140
3.0
141
0.09
142
0.0
143
25.4
144
1.0
145
0.0
146
1.0
147
0.75
 71
0
 72
0
 73
0
 74
0
 75
0
 76
0
 77
1
 78
8
 79
2
170
0
171
1
172
0
173
0
174
0
175
0
176
0
177
0
178
0
270
2
179
2
271
2
272
2
273
2
274
2
275
0
280
0
281
0
282
0
283
1
284
8
285
0
286
0
287
3
288
0
340
11
278
44
341
227
342
227
343
227
344
227
  0
ENDTAB
  0
ENDSEC
  0
SECTION
  2
BLOCKS
  0
BLOCK
  5
20
100
AcDbEntity
  8
0
100
AcDbBlockBegin
  2
*Model_Space
 70
0
 10
0.0
 20
0.0
 30
0.0
  3
*Model_Space
  1

  0
ENDBLK
  5
21
100
AcDbEntity
  8
0
100
AcDbBlockEnd
  0
BLOCK
  5
1C
100
AcDbEntity
  8
0
100
AcDbBlockBegin
  2
*Paper_Space
 70
0
 10
0.0
 20
0.0
 30
0.0
  3
*Paper_Space
  1

  0
ENDBLK
  5
1D
100
AcDbEntity
  8
0
100
AcDbBlockEnd
  0
BLOCK
  5
22D
100
AcDbEntity
  8
0
100
AcDbBlockBegin
  2
_FILLED
 70
64
 10
0.0
 20
0.0
  3
_FILLED
  1

  0
SOLID
  5
22E
100
AcDbEntity
  8
0
  6
BYBLOCK
 62
0
100
AcDbTrace
 10
0.0
 20
0.0
 11
-1.0
 21
0.3166666667
 12
-1.0
 22
-0.3166666667
 13
-1.0
 23
-0.3166666667
  0
ENDBLK
  5
22F
100
AcDbEntity
  8
0
  6
BYBLOCK
 62
0
100
AcDbBlockEnd
  0
BLOCK
  5
230
100
AcDbEntity
  8
0
100
AcDbBlockBegin
 62
7
  6
CONTINUOUS
  2
*D0
 70
65
 10
0.0
 20
0.0
  3
*D0
  1

  0
LINE
  5
231
100
AcDbEntity
  8
0
100
AcDbLine
 62
7
  6
CONTINUOUS
 10
-100.866579966
 20
37.9152518687
 11
-100.866579966
 21
54.7849634578
  0
LINE
  5
232
100
AcDbEntity
  8
0
100
AcDbLine
 62
7
  6
CONTINUOUS
 10
105.133420034
 20
37.9152518687
 11
105.133420034
 21
54.7849634578
  0
LINE
  5
233
100
AcDbEntity
  8
0
100
AcDbLine
 62
7
  6
CONTINUOUS
 10
-100.866579966
 20
53.2849634578
 11
2.133420034
 21
53.2849634578
  0
LINE
  5
234
100
AcDbEntity
  8
0
100
AcDbLine
 62
7
  6
CONTINUOUS
 10
105.133420034
 20
53.2849634578
 11
2.133420034
 21
53.2849634578
  0
INSERT
  5
235
100
AcDbEntity
  8
0
100
AcDbBlockReference
 62
7
  6
CONTINUOUS
  2
_FILLED
 10
-100.866579966
 20
53.2849634578
 41
3.0
 42
3.0
 43
3.0
 50
180.0
  0
INSERT
  5
236
100
AcDbEntity
  8
0
100
AcDbBlockReference
 62
7
  6
CONTINUOUS
  2
_FILLED
 10
105.133420034
 20
53.2849634578
 41
3.0
 42
3.0
 43
3.0
  0
ENDBLK
  5
237
100
AcDbEntity
  8
0
  6
BYBLOCK
 62
0
100
AcDbBlockEnd
  0
BLOCK
  5
238
100
AcDbEntity
  8
0
100
AcDbBlockBegin
 62
7
  6
CONTINUOUS
  2
*D1
 70
65
 10
0.0
 20
0.0
  3
*D1
  1

  0
LINE
  5
239
100
AcDbEntity
  8
0
100
AcDbLine
 62
7
  6
CONTINUOUS
 10
-116.9899163081
 20
40.9152518687
 11
-116.9899163081
 21
54.7849634578
  0
LINE
  5
23A
100
AcDbEntity
  8
0
100
AcDbLine
 62
7
  6
CONTINUOUS
 10
-125.9899163081
 20
23.2152518687
 11
-125.9899163081
 21
54.7849634578
  0
LINE
  5
23B
100
AcDbEntity
  8
0
100
AcDbLine
 62
7
  6
CONTINUOUS
 10
-116.9899163081
 20
53.2849634578
 11
-112.9899163081
 21
53.2849634578
  0
LINE
  5
23C
100
AcDbEntity
  8
0
100
AcDbLine
 62
7
  6
CONTINUOUS
 10
-112.9899163081
 20
53.2849634578
 11
-121.4899163081
 21
53.2849634578
  0
LINE
  5
23D
100
AcDbEntity
  8
0
100
AcDbLine
 62
7
  6
CONTINUOUS
 10
-125.9899163081
 20
53.2849634578
 11
-129.9899163081
 21
53.2849634578
  0
LINE
  5
23E
100
AcDbEntity
  8
0
100
AcDbLine
 62
7
  6
CONTINUOUS
 10
-129.9899163081
 20
53.2849634578
 11
-121.4899163081
 21
53.2849634578
  0
INSERT
  5
23F
100
AcDbEntity
  8
0
100
AcDbBlockReference
 62
7
  6
CONTINUOUS
  2
_FILLED
 10
-116.9899163081
 20
53.2849634578
 41
3.0
 42
3.0
 43
3.0
 50
180.0
  0
INSERT
  5
240
100
AcDbEntity
  8
0
100
AcDbBlockReference
 62
7
  6
CONTINUOUS
  2
_FILLED
 10
-125.9899163081
 20
53.2849634578
 41
3.0
 42
3.0
 43
3.0
  0
ENDBLK
  5
241
100
AcDbEntity
  8
0
  6
BYBLOCK
 62
0
100
AcDbBlockEnd
  0
BLOCK
  5
242
100
AcDbEntity
  8
0
100
AcDbBlockBegin
 62
7
  6
CONTINUOUS
  2
*D2
 70
65
 10
0.0
 20
0.0
  3
*D2
  1

  0
LINE
  5
243
100
AcDbEntity
  8
0
100
AcDbLine
 62
7
  6
CONTINUOUS
 10
-117.4899163081
 20
40.4152518687
 11
-135.4899163081
 21
40.4152518687
  0
LINE
  5
244
100
AcDbEntity
  8
0
100
AcDbLine
 62
7
  6
CONTINUOUS
 10
-117.4899163081
 20
-39.5847481313
 11
-135.4899163081
 21
-39.5847481313
  0
LINE
  5
245
100
AcDbEntity
  8
0
100
AcDbLine
 62
7
  6
CONTINUOUS
 10
-133.9899163081
 20
40.4152518687
 11
-133.9899163081
 21
0.4152518687
  0
LINE
  5
246
100
AcDbEntity
  8
0
100
AcDbLine
 62
7
  6
CONTINUOUS
 10
-133.9899163081
 20
-39.5847481313
 11
-133.9899163081
 21
0.4152518687
  0
INSERT
  5
247
100
AcDbEntity
  8
0
100
AcDbBlockReference
 62
7
  6
CONTINUOUS
  2
_FILLED
 10
-133.9899163081
 20
40.4152518687
 41
3.0
 42
3.0
 43
3.0
 50
90.0
  0
INSERT
  5
248
100
AcDbEntity
  8
0
100
AcDbBlockReference
 62
7
  6
CONTINUOUS
  2
_FILLED
 10
-133.9899163081
 20
-39.5847481313
 41
3.0
 42
3.0
 43
3.0
 50
270.0
  0
ENDBLK
  5
249
100
AcDbEntity
  8
0
  6
BYBLOCK
 62
0
100
AcDbBlockEnd
  0
ENDSEC
  0
SECTION
  2
ENTITIES
  0
DIMENSION
  5
24A
100
AcDbEntity
  8
0
100
AcDbDimension
 62
7
  6
CONTINUOUS
  2
*D0
 10
105.133420034
 20
53.2849634578
 11
-1.4022942517
 21
53.2849634578
 70
160
 71
2
 72
2
 41
0.9
 42
206.0
  3
DIMSTYLE_1
100
AcDbAlignedDimension
 13
-100.866579966
 23
37.4152518687
 14
105.133420034
 24
37.4152518687
100
AcDbRotatedDimension
  0
DIMENSION
  5
24B
100
AcDbEntity
  8
0
100
AcDbDimension
 62
7
  6
CONTINUOUS
  2
*D1
 10
-125.9899163081
 20
53.2849634578
 11
-122.6684877367
 21
53.2849634578
 70
160
 71
2
 72
2
 41
0.9
 42
9.0
  3
DIMSTYLE_1
100
AcDbAlignedDimension
 13
-116.9899163081
 23
40.4152518687
 14
-125.9899163081
 24
22.7152518687
 50
180.0
100
AcDbRotatedDimension
  0
DIMENSION
  5
24C
100
AcDbEntity
  8
0
100
AcDbDimension
 62
7
  6
CONTINUOUS
  2
*D2
 10
-133.9899163081
 20
-39.5847481313
 11
-133.9899163081
 21
-1.9418909884
 70
160
 71
2
 72
2
 41
0.9
 42
80.0
  3
DIMSTYLE_1
100
AcDbAlignedDimension
 13
-116.9899163081
 23
40.4152518687
 14
-116.9899163081
 24
-39.5847481313
 50
270.0
100
AcDbRotatedDimension
  0
LWPOLYLINE
  5
24D
100
AcDbEntity
  8
RACCORDO
100
AcDbPolyline
 62
250
  6
CONTINUOUS
 90
28
 70
0
 10
-99.7370572955
 20
-36.6198271287
 10
-99.7317137464
 20
-36.7214700455
 10
-99.7206264185
 20
-36.823811244
 10
-99.7036637312
 20
-36.9264752156
 10
-99.6806694543
 20
-37.0293500777
 10
-99.6515916422
 20
-37.1318255045
 10
-99.6166183742
 20
-37.2328225395
 10
-99.5758961537
 20
-37.3318523276
 10
-99.5294752831
 20
-37.4287115893
 10
-99.4775988915
 20
-37.5228023925
 10
-99.4205113399
 20
-37.6137072894
 10
-99.3583539027
 20
-37.7012440923
 10
-99.2912645932
 20
-37.7851924627
 10
-99.2193895807
 20
-37.8653269136
 10
-99.1430144367
 20
-37.9413146547
 10
-99.0625005275
 20
-38.0127887346
 10
-98.9781827876
 20
-38.0794649631
 10
-98.8902930962
 20
-38.1412034382
 10
-98.7990467549
 20
-38.1978613938
 10
-98.7046148825
 20
-38.2493009093
 10
-98.6074287845
 20
-38.2952847481
 10
-98.5081090951
 20
-38.3355586408
 10
-98.4068631271
 20
-38.3700721274
 10
-98.304169713
 20
-38.3987041961
 10
-98.2011066359
 20
-38.4212794227
 10
-98.0982806869
 20
-38.4378540276
 10
-97.9958127586
 20
-38.4485993555
 10
-97.8940804112
 20
-38.4536628418
  0
LWPOLYLINE
  5
24E
100
AcDbEntity
  8
RACCORDO
100
AcDbPolyline
 62
250
  6
CONTINUOUS
 90
3
 70
0
 10
-99.7577395323
 20
-35.967990541
 10
-99.7501533593
 20
-36.1705846201
 10
-99.7466212337
 20
-36.277511103
  0
LWPOLYLINE
  5
24F
100
AcDbEntity
  8
RACCORDO
100
AcDbPolyline
 62
250
  6
CONTINUOUS
 90
28
 70
0
 10
-100.6375042613
 20
-36.5847481313
 10
-100.6333062635
 20
-36.7403671511
 10
-100.6201931954
 20
-36.8969927176
 10
-100.5979542071
 20
-37.0540972918
 10
-100.566324042
 20
-37.2114900811
 10
-100.5251973695
 20
-37.36821942
 10
-100.4748416858
 20
-37.5226298404
 10
-100.4154598115
 20
-37.6739529405
 10
-100.3471292186
 20
-37.8218667949
 10
-100.2702346734
 20
-37.9654720999
 10
-100.1851532743
 20
-38.1041152869
 10
-100.0920999671
 20
-38.2374911281
 10
-99.9913021431
 20
-38.3652638513
 10
-99.8830027841
 20
-38.4870743245
 10
-99.7676400445
 20
-38.602381346
 10
-99.6457810959
 20
-38.7106190345
 10
-99.5179687718
 20
-38.8113495696
 10
-99.3845619474
 20
-38.9043317395
 10
-99.2458942076
 20
-38.9893413493
 10
-99.1022543854
 20
-39.0661721815
 10
-98.9543114816
 20
-39.1344378106
 10
-98.8030135241
 20
-39.1937374301
 10
-98.6487020965
 20
-39.2439976949
 10
-98.4921306909
 20
-39.2850323393
 10
-98.3349534413
 20
-39.3165845797
 10
-98.1781204543
 20
-39.33876901
 10
-98.0218210761
 20
-39.3518591532
 10
-97.866579966
 20
-39.3560742224
  0
LINE
  5
250
100
AcDbEntity
  8
RACCORDO
100
AcDbLine
 62
7
420
13828095
  6
CONTINUOUS
 10
-100.866579966
 20
-36.5847481313
 11
-100.866579966
 21
-3.786541358
  0
LINE
  5
251
100
AcDbEntity
  8
RACCORDO
100
AcDbLine
 62
7
420
13828095
  6
CONTINUOUS
 10
-100.866579966
 20
4.6170450954
 11
-100.866579966
 21
37.4152518687
  0
LINE
  5
252
100
AcDbEntity
  8
RACCORDO
100
AcDbLine
 62
250
  6
CONTINUOUS
 10
-99.7432837186
 20
37.2177734005
 11
-99.750141775
 21
37.001164203
  0
LWPOLYLINE
  5
253
100
AcDbEntity
  8
RACCORDO
100
AcDbPolyline
 62
250
  6
CONTINUOUS
 90
6
 70
0
 10
-99.750141775
 20
37.001164203
 10
-99.7576540034
 20
36.8005875255
 10
-99.7621294625
 20
36.7071333767
 10
-99.7667928969
 20
36.6180015663
 10
-99.7703621606
 20
36.5321497223
 10
-99.7720704474
 20
36.4500405069
  0
LWPOLYLINE
  5
254
100
AcDbEntity
  8
RACCORDO
100
AcDbPolyline
 62
250
  6
CONTINUOUS
 90
9
 70
0
 10
-97.8857050424
 20
-39.0463722532
 10
-97.8837083367
 20
-39.1118936799
 10
-97.8815578124
 20
-39.1706390629
 10
-97.8792727817
 20
-39.2220807839
 10
-97.8768737651
 20
-39.2657568218
 10
-97.8743823068
 20
-39.3012749025
 10
-97.8718207813
 20
-39.3283160223
 10
-97.8692121922
 20
-39.3466373128
 10
-97.866579966
 20
-39.3560742224
  0
LWPOLYLINE
  5
255
100
AcDbEntity
  8
RACCORDO
100
AcDbPolyline
 62
250
  6
CONTINUOUS
 90
3
 70
0
 10
-99.7466212337
 20
-36.277511103
 10
-99.7400714537
 20
-36.5019624312
 10
-99.7370574374
 20
-36.6198271794
  0
LINE
  5
256
100
AcDbEntity
  8
RACCORDO
100
AcDbLine
 62
250
  6
CONTINUOUS
 10
-97.8891668167
 20
-38.8974107513
 11
-97.8857050424
 21
-39.0463722532
  0
LWPOLYLINE
  5
257
100
AcDbEntity
  8
RACCORDO
100
AcDbPolyline
 62
250
  6
CONTINUOUS
 90
5
 70
0
 10
-99.772140603
 20
-35.6177474522
 10
-99.7704561607
 20
-35.6992158451
 10
-99.7668940794
 20
-35.7846940978
 10
-99.7622283938
 20
-35.873941625
 10
-99.7577395323
 20
-35.967990541
  0
LINE
  5
258
100
AcDbEntity
  8
RACCORDO
100
AcDbLine
 62
250
  6
CONTINUOUS
 10
-97.8918190669
 20
-38.7290941
 11
-97.8891668167
 21
-38.8974107513
  0
LINE
  5
259
100
AcDbEntity
  8
RACCORDO
100
AcDbLine
 62
250
  6
CONTINUOUS
 10
-99.7731913226
 20
-35.4638549527
 11
-99.772140603
 21
-35.6177474522
  0
LWPOLYLINE
  5
25A
100
AcDbEntity
  8
RACCORDO
100
AcDbPolyline
 62
250
  6
CONTINUOUS
 90
3
 70
0
 10
-97.8940804569
 20
-38.4536630016
 10
-97.8935667421
 20
-38.5474556298
 10
-97.8918190669
 20
-38.7290941
  0
LINE
  5
25B
100
AcDbEntity
  8
RACCORDO
100
AcDbLine
 62
250
  6
CONTINUOUS
 10
-99.8573892873
 20
-24.2485957037
 11
-99.7731913226
 21
-35.4638549527
  0
LINE
  5
25C
100
AcDbEntity
  8
RACCORDO
100
AcDbLine
 62
250
  6
CONTINUOUS
 10
-100.6375042613
 20
37.4152518687
 11
-100.6318863913
 21
20.9615455973
  0
LINE
  5
25D
100
AcDbEntity
  8
RACCORDO
100
AcDbLine
 62
250
  6
CONTINUOUS
 10
-99.8867547753
 20
-11.197624202
 11
-99.8573892873
 21
-24.2485957037
  0
LINE
  5
25E
100
AcDbEntity
  8
RACCORDO
100
AcDbLine
 62
7
420
13828095
  6
CONTINUOUS
 10
-100.7617644074
 20
3.4767636372
 11
-100.7617644074
 21
-2.6462598998
  0
LINE
  5
25F
100
AcDbEntity
  8
RACCORDO
100
AcDbLine
 62
250
  6
CONTINUOUS
 10
-97.866579966
 20
40.4152518687
 11
-97.866579966
 21
40.1865779598
  0
LINE
  5
260
100
AcDbEntity
  8
RACCORDO
100
AcDbLine
 62
250
  6
CONTINUOUS
 10
-97.866579966
 20
-39.3560742224
 11
-97.866579966
 21
-39.5847481313
  0
LINE
  5
261
100
AcDbEntity
  8
RACCORDO
100
AcDbLine
 62
250
  6
CONTINUOUS
 10
-100.6318863913
 20
20.9615455973
 11
-100.6363927421
 21
-35.6894856674
  0
LINE
  5
262
100
AcDbEntity
  8
RACCORDO
100
AcDbLine
 62
250
  6
CONTINUOUS
 10
-99.8844251734
 20
-3.3443324317
 11
-99.8867547753
 21
-11.197624202
  0
LINE
  5
263
100
AcDbEntity
  8
RACCORDO
100
AcDbLine
 62
250
  6
CONTINUOUS
 10
-100.6363927421
 20
-35.6894856674
 11
-100.6375042613
 21
-36.5847481313
  0
LINE
  5
264
100
AcDbEntity
  8
RACCORDO
100
AcDbLine
 62
250
  6
CONTINUOUS
 10
-97.8940804114
 20
39.2841665795
 11
-97.8928109737
 21
39.4700433784
  0
LINE
  5
265
100
AcDbEntity
  8
RACCORDO
100
AcDbLine
 62
250
  6
CONTINUOUS
 10
-99.7720704474
 20
36.4500405069
 11
-99.8844251734
 21
-3.3443324317
  0
LINE
  5
266
100
AcDbEntity
  8
RACCORDO
100
AcDbLine
 62
250
  6
CONTINUOUS
 10
-97.8928109737
 20
39.4700433784
 11
-97.8906013034
 21
39.6458082725
  0
LWPOLYLINE
  5
267
100
AcDbEntity
  8
RACCORDO
100
AcDbPolyline
 62
250
  6
CONTINUOUS
 90
11
 70
0
 10
-97.8906013034
 20
39.6458082725
 10
-97.8875306005
 20
39.8051610192
 10
-97.8857056524
 20
39.8768690955
 10
-97.8837089301
 20
39.9423896645
 10
-97.8815583667
 20
40.0011342634
 10
-97.8792732768
 20
40.0525752866
 10
-97.8768741837
 20
40.0962507246
 10
-97.8743826344
 20
40.1317683131
 10
-97.8718210065
 20
40.1588090565
 10
-97.8692123068
 20
40.1771300925
 10
-97.8665799651
 20
40.1865668735
  0
LINE
  5
268
100
AcDbEntity
  8
RACCORDO
100
AcDbLine
 62
250
  6
CONTINUOUS
 10
-99.7370576017
 20
37.4503309755
 11
-99.7432837186
 21
37.2177734005
  0
LINE
  5
269
100
AcDbEntity
  8
RACCORDO
100
AcDbLine
 62
7
420
13828095
  6
CONTINUOUS
 10
-100.7845480031
 20
-3.1419823305
 11
-100.8437963703
 21
-3.2908189273
  0
LINE
  5
26A
100
AcDbEntity
  8
RACCORDO
100
AcDbLine
 62
7
420
13828095
  6
CONTINUOUS
 10
-100.8437963703
 20
4.1213226647
 11
-100.7845480031
 21
3.9724860679
  0
LINE
  5
26B
100
AcDbEntity
  8
RACCORDO
100
AcDbLine
 62
250
  6
CONTINUOUS
 10
-79.9521144071
 20
-21.8656638306
 11
-79.9592134271
 21
-19.8697969154
  0
LINE
  5
26C
100
AcDbEntity
  8
RACCORDO
100
AcDbLine
 62
250
  6
CONTINUOUS
 10
-79.9592134271
 20
-19.8697969154
 11
-79.9693192299
 21
-9.7143748174
  0
LINE
  5
26D
100
AcDbEntity
  8
RACCORDO
100
AcDbLine
 62
250
  6
CONTINUOUS
 10
-79.9693192299
 20
-9.7143748174
 11
-79.9702405129
 21
6.3416048941
  0
LINE
  5
26E
100
AcDbEntity
  8
RACCORDO
100
AcDbLine
 62
250
  6
CONTINUOUS
 10
-78.3118237322
 20
-21.8847481313
 11
-78.3118237322
 21
22.7152518687
  0
LINE
  5
26F
100
AcDbEntity
  8
RACCORDO
100
AcDbLine
 62
250
  6
CONTINUOUS
 10
-79.9702405129
 20
6.3416048941
 11
-79.9574974854
 21
21.3920099942
  0
LINE
  5
270
100
AcDbEntity
  8
RACCORDO
100
AcDbLine
 62
250
  6
CONTINUOUS
 10
-79.9574974854
 20
21.3920099942
 11
-79.9521143853
 21
22.6961675664
  0
LWPOLYLINE
  5
271
100
AcDbEntity
  8
RACCORDO
100
AcDbPolyline
 62
250
  6
CONTINUOUS
 90
61
 70
0
 10
-78.3118237322
 20
22.7152518687
 10
-78.3096210519
 20
22.8139030867
 10
-78.3025006026
 20
22.9089489364
 10
-78.2909888019
 20
23.0001664982
 10
-78.2755945348
 20
23.0872230998
 10
-78.2568430768
 20
23.1701512398
 10
-78.2352012988
 20
23.2493460611
 10
-78.2110366974
 20
23.3249075277
 10
-78.1847680106
 20
23.3966586723
 10
-78.1568478767
 20
23.4646335202
 10
-78.1277318666
 20
23.5287338696
 10
-78.0976611137
 20
23.5891514346
 10
-78.066689495
 20
23.6463673866
 10
-78.0350483473
 20
23.7004685291
 10
-78.0029986312
 20
23.7514876429
 10
-77.970542668
 20
23.7997955295
 10
-77.9378349606
 20
23.8454944701
 10
-77.9050805394
 20
23.888610486
 10
-77.8722980943
 20
23.9293773051
 10
-77.8396449722
 20
23.9678411484
 10
-77.8072412486
 20
24.0040906034
 10
-77.7750063676
 20
24.0384009345
 10
-77.7430468674
 20
24.070825843
 10
-77.7114566221
 20
24.101430297
 10
-77.6800958988
 20
24.1304784604
 10
-77.6488673425
 20
24.1581701962
 10
-77.618002459
 20
24.1843937181
 10
-77.5878506448
 20
24.2089492524
 10
-77.5586046847
 20
24.231817488
 10
-77.5302214019
 20
24.2531543903
 10
-77.502703988
 20
24.2730364725
 10
-77.4763717962
 20
24.2913392124
 10
-77.4510257572
 20
24.3083152623
 10
-77.4258565211
 20
24.3245608634
 10
-77.4008659696
 20
24.3400948608
 10
-77.3760948338
 20
24.3549318781
 10
-77.3507396834
 20
24.3695841437
 10
-77.324587541
 20
24.384147848
 10
-77.297842042
 20
24.3984795142
 10
-77.2702954054
 20
24.4126843558
 10
-77.2419518098
 20
24.4267312965
 10
-77.2127922766
 20
24.44058726
 10
-77.1825629094
 20
24.4543308455
 10
-77.1513066667
 20
24.4678897512
 10
-77.118959664
 20
24.4812406823
 10
-77.0850933838
 20
24.4944977125
 10
-77.0494824374
 20
24.5076568295
 10
-77.012316147
 20
24.5205540443
 10
-76.9737849622
 20
24.5330475581
 10
-76.9337524922
 20
24.5451101765
 10
-76.892341209
 20
24.5566086676
 10
-76.8501507228
 20
24.5672908658
 10
-76.8076085771
 20
24.5770346258
 10
-76.764318749
 20
24.5858977897
 10
-76.7196555417
 20
24.5938933178
 10
-76.6736415974
 20
24.6009205644
 10
-76.6262869893
 20
24.6069016406
 10
-76.5769424286
 20
24.6117855309
 10
-76.5254081052
 20
24.6154319726
 10
-76.4719401753
 20
24.6176678508
 10
-76.416579966
 20
24.6183351618
  0
LWPOLYLINE
  5
272
100
AcDbEntity
  8
RACCORDO
100
AcDbPolyline
 62
250
  6
CONTINUOUS
 90
61
 70
0
 10
-79.9521153937
 20
22.6961676994
 10
-79.945890643
 20
22.8861329126
 10
-79.929909584
 20
23.0689169807
 10
-79.9051595196
 20
23.2443437472
 10
-79.8720346372
 20
23.4122432885
 10
-79.8322057501
 20
23.5719142051
 10
-79.7887318395
 20
23.7222665113
 10
-79.7442117017
 20
23.8624615004
 10
-79.6984339873
 20
23.9929432741
 10
-79.6497534961
 20
24.115528554
 10
-79.5978826108
 20
24.2310741032
 10
-79.5438056496
 20
24.3403455392
 10
-79.4877293064
 20
24.4441469119
 10
-79.4301408863
 20
24.5424004655
 10
-79.3716106739
 20
24.6348882018
 10
-79.3122415033
 20
24.7222919485
 10
-79.2523025772
 20
24.8048171178
 10
-79.1921439364
 20
24.882535409
 10
-79.1318928552
 20
24.9558860089
 10
-79.0718591543
 20
25.0249343926
 10
-79.0122530946
 20
25.0898217001
 10
-78.9529555442
 20
25.1510884008
 10
-78.894146585
 20
25.2088439145
 10
-78.8359972173
 20
25.2631990064
 10
-78.778348934
 20
25.3146101572
 10
-78.7211814563
 20
25.36325703
 10
-78.6647801311
 20
25.4091186037
 10
-78.6091626135
 20
25.4525315836
 10
-78.5541353445
 20
25.4938003997
 10
-78.4995659314
 20
25.5331784468
 10
-78.4458290606
 20
25.5707022779
 10
-78.3936654482
 20
25.6060698453
 10
-78.3429123185
 20
25.6394391448
 10
-78.2925864104
 20
25.6714775993
 10
-78.2429823748
 20
25.7022246087
 10
-78.194238866
 20
25.731513314
 10
-78.1451160412
 20
25.759580867
 10
-78.0955806634
 20
25.7861942135
 10
-78.0461207046
 20
25.8113879178
 10
-77.9959412965
 20
25.8358594842
 10
-77.9446700035
 20
25.8598649377
 10
-77.8919376781
 20
25.8834535188
 10
-77.8371167103
 20
25.9068336391
 10
-77.7803286142
 20
25.9298641492
 10
-77.7216374294
 20
25.9524039874
 10
-77.6603371068
 20
25.9745743944
 10
-77.5960616932
 20
25.9963166018
 10
-77.5291264928
 20
26.0174121247
 10
-77.4598164009
 20
26.0377291906
 10
-77.3879823963
 20
26.0569208361
 10
-77.3137094209
 20
26.075089008
 10
-77.2372606539
 20
26.0928894587
 10
-77.1585230585
 20
26.1106538541
 10
-77.0763348325
 20
26.1279960779
 10
-76.9899832542
 20
26.1443097369
 10
-76.9002200227
 20
26.1590896863
 10
-76.8078932962
 20
26.1720527254
 10
-76.7122286449
 20
26.1828529334
 10
-76.6127085818
 20
26.1912006743
 10
-76.5094061182
 20
26.1968681219
 10
-76.4023392859
 20
26.1995411757
  0
LINE
  5
273
100
AcDbEntity
  8
RACCORDO
100
AcDbLine
 62
250
  6
CONTINUOUS
 10
-76.416579966
 20
-23.7878318988
 11
-76.4023392551
 21
-25.3690369449
  0
LINE
  5
274
100
AcDbEntity
  8
0
100
AcDbLine
 62
7
420
13828095
  6
CONTINUOUS
 10
-76.716579966
 20
22.7152518687
 11
-76.716579966
 21
-21.8847481313
  0
LINE
  5
275
100
AcDbEntity
  8
DRAFT
100
AcDbLine
 62
7
  6
CONTINUOUS
 10
-76.616579966
 20
-21.7847481313
 11
-76.616579966
 21
22.6152518687
  0
LINE
  5
276
100
AcDbEntity
  8
RACCORDO
100
AcDbLine
 62
250
  6
CONTINUOUS
 10
-76.416579966
 20
-22.1847481313
 11
-76.416579966
 21
-23.7878314244
  0
LINE
  5
277
100
AcDbEntity
  8
RACCORDO
100
AcDbLine
 62
250
  6
CONTINUOUS
 10
-76.416579966
 20
23.0152518687
 11
-76.416579966
 21
24.6183351618
  0
LINE
  5
278
100
AcDbEntity
  8
DRAFT
100
AcDbLine
 62
250
  6
CONTINUOUS
 10
-76.316579966
 20
23.0152518687
 11
-76.316579966
 21
22.9152518687
  0
LINE
  5
279
100
AcDbEntity
  8
DRAFT
100
AcDbLine
 62
250
  6
CONTINUOUS
 10
-76.316579966
 20
-22.1847481313
 11
-76.316579966
 21
-22.0847481313
  0
LINE
  5
27A
100
AcDbEntity
  8
RACCORDO
100
AcDbLine
 62
250
  6
CONTINUOUS
 10
-76.416579966
 20
24.6183350418
 11
-76.4023392472
 21
26.1995405499
  0
LINE
  5
27B
100
AcDbEntity
  8
RACCORDO
100
AcDbLine
 62
250
  6
CONTINUOUS
 10
-65.8654907899
 20
24.6176922581
 11
-65.866579966
 21
39.5121705927
  0
LINE
  5
27C
100
AcDbEntity
  8
RACCORDO
100
AcDbLine
 62
250
  6
CONTINUOUS
 10
-65.8666474372
 20
39.5121705927
 11
-65.8667149083
 21
40.1766742782
  0
LINE
  5
27D
100
AcDbEntity
  8
RACCORDO
100
AcDbLine
 62
250
  6
CONTINUOUS
 10
-65.8654907899
 20
-23.7871885207
 11
-65.8667149083
 21
-39.3461705408
  0
LWPOLYLINE
  5
27E
100
AcDbEntity
  8
RACCORDO
100
AcDbPolyline
 62
250
  6
CONTINUOUS
 90
28
 70
0
 10
102.1609204793
 20
-38.4536628421
 10
102.2626529731
 20
-38.4485993282
 10
102.3651214239
 20
-38.4378539226
 10
102.4679477032
 20
-38.4212792509
 10
102.5710107984
 20
-38.3987039791
 10
102.6737040744
 20
-38.3700718733
 10
102.7749499187
 20
-38.3355583483
 10
102.8742695734
 20
-38.2952844112
 10
102.9714556852
 20
-38.2493005234
 10
103.0658875744
 20
-38.1978609585
 10
103.1571339055
 20
-38.1412029566
 10
103.2450235666
 20
-38.0794644389
 10
103.3293412684
 20
-38.0127881709
 10
103.4098551425
 20
-37.9413140542
 10
103.4862302545
 20
-37.8653262766
 10
103.5581052351
 20
-37.7851917863
 10
103.6251945098
 20
-37.7012433717
 10
103.6873519083
 20
-37.6137065269
 10
103.7444394174
 20
-37.5228016037
 10
103.7963157629
 20
-37.4287108024
 10
103.8427365852
 20
-37.3318515573
 10
103.8834587587
 20
-37.2328217526
 10
103.9184319822
 20
-37.131824617
 10
103.9475097549
 20
-37.029349017
 10
103.9705039911
 20
-36.9264740771
 10
103.9874666227
 20
-36.8238103019
 10
103.9985538706
 20
-36.7214696439
 10
104.0038973632
 20
-36.6198271286
  0
LWPOLYLINE
  5
27F
100
AcDbEntity
  8
RACCORDO
100
AcDbPolyline
 62
250
  6
CONTINUOUS
 90
28
 70
0
 10
102.133420034
 20
-39.3560742224
 10
102.288661144
 20
-39.3518591535
 10
102.4449605221
 20
-39.3387690105
 10
102.6017935092
 20
-39.3165845803
 10
102.7589707588
 20
-39.2850323397
 10
102.9155421644
 20
-39.2439976949
 10
103.069853592
 20
-39.1937374299
 10
103.2211515495
 20
-39.1344378104
 10
103.3690944533
 20
-39.0661721815
 10
103.5127342756
 20
-38.9893413493
 10
103.6514020153
 20
-38.9043317396
 10
103.7848088398
 20
-38.8113495696
 10
103.9126211639
 20
-38.7106190345
 10
104.0344801124
 20
-38.602381346
 10
104.149842852
 20
-38.4870743245
 10
104.2581422111
 20
-38.3652638513
 10
104.358940035
 20
-38.2374911281
 10
104.4519933422
 20
-38.1041152868
 10
104.5370747412
 20
-37.9654720999
 10
104.6139692866
 20
-37.8218667949
 10
104.6822998798
 20
-37.6739529405
 10
104.7416817541
 20
-37.5226298405
 10
104.7920374374
 20
-37.3682194201
 10
104.8331641095
 20
-37.2114900812
 10
104.8647942743
 20
-37.0540972919
 10
104.8870332626
 20
-36.8969927177
 10
104.900146331
 20
-36.7403671512
 10
104.9043443293
 20
-36.5847481313
  0
LWPOLYLINE
  5
280
100
AcDbEntity
  8
RACCORDO
100
AcDbPolyline
 62
250
  6
CONTINUOUS
 90
11
 70
0
 10
104.4467911008
 20
-36.6135429998
 10
104.5238682552
 20
-36.6114542054
 10
104.5954087888
 20
-36.6091261693
 10
104.6607719338
 20
-36.6065797476
 10
104.7193722517
 20
-36.6038377522
 10
104.7706848764
 20
-36.6009247471
 10
104.8142502157
 20
-36.5978668278
 10
104.8496780676
 20
-36.5946913877
 10
104.8766511151
 20
-36.591426873
 10
104.8949277685
 20
-36.5881025276
 10
104.9043443292
 20
-36.5847481313
  0
LINE
  5
281
100
AcDbEntity
  8
RACCORDO
100
AcDbLine
 62
250
  6
CONTINUOUS
 10
101.4663814713
 20
-38.4731926451
 11
101.9802800433
 21
-38.4579041605
  0
LINE
  5
282
100
AcDbEntity
  8
RACCORDO
100
AcDbLine
 62
250
  6
CONTINUOUS
 10
101.9802800433
 20
-38.4579041605
 11
102.1609204967
 21
-38.4536629032
  0
LINE
  5
283
100
AcDbEntity
  8
RACCORDO
100
AcDbLine
 62
250
  6
CONTINUOUS
 10
104.2788317665
 20
-36.6169303208
 11
104.4467911008
 21
-36.6135429998
  0
LINE
  5
284
100
AcDbEntity
  8
RACCORDO
100
AcDbLine
 62
250
  6
CONTINUOUS
 10
91.3240626715
 20
-38.5786577661
 11
91.8954726933
 21
-38.5700267033
  0
LINE
  5
285
100
AcDbEntity
  8
RACCORDO
100
AcDbLine
 62
250
  6
CONTINUOUS
 10
90.004558482
 20
-38.5956907477
 11
91.3240626715
 21
-38.5786577661
  0
LINE
  5
286
100
AcDbEntity
  8
RACCORDO
100
AcDbLine
 62
250
  6
CONTINUOUS
 10
91.8954726933
 20
-38.5700267033
 11
92.7968763235
 21
-38.5580733246
  0
LINE
  5
287
100
AcDbEntity
  8
RACCORDO
100
AcDbLine
 62
250
  6
CONTINUOUS
 10
92.7968763235
 20
-38.5580733246
 11
97.7805211544
 21
-38.5021930061
  0
LINE
  5
288
100
AcDbEntity
  8
RACCORDO
100
AcDbLine
 62
250
  6
CONTINUOUS
 10
97.7805211544
 20
-38.5021930061
 11
98.8475966202
 21
-38.4930425094
  0
LINE
  5
289
100
AcDbEntity
  8
RACCORDO
100
AcDbLine
 62
250
  6
CONTINUOUS
 10
98.8475966202
 20
-38.4930425094
 11
99.4469681906
 21
-38.4883682441
  0
LINE
  5
28A
100
AcDbEntity
  8
RACCORDO
100
AcDbLine
 62
250
  6
CONTINUOUS
 10
81.0480955425
 20
-38.6742458565
 11
90.004558482
 21
-38.5956907477
  0
LWPOLYLINE
  5
28B
100
AcDbEntity
  8
RACCORDO
100
AcDbPolyline
 62
250
  6
CONTINUOUS
 90
4
 70
0
 10
99.4469681906
 20
-38.4883682441
 10
101.2996936002
 20
-38.476136638
 10
101.3832946672
 20
-38.475219558
 10
101.4663814713
 20
-38.4731926451
  0
LINE
  5
28C
100
AcDbEntity
  8
RACCORDO
100
AcDbLine
 62
250
  6
CONTINUOUS
 10
77.3988228573
 20
-38.6873486847
 11
81.0480955425
 21
-38.6742458565
  0
LINE
  5
28D
100
AcDbEntity
  8
RACCORDO
100
AcDbLine
 62
250
  6
CONTINUOUS
 10
-97.866579966
 20
-39.3560742224
 11
-75.2766003891
 21
-39.3460340659
  0
LINE
  5
28E
100
AcDbEntity
  8
SUPERFICI
100
AcDbLine
 62
7
420
13828095
  6
CONTINUOUS
 10
102.133420034
 20
-39.5847481313
 11
-97.866579966
 21
-39.5847481313
  0
LINE
  5
28F
100
AcDbEntity
  8
RACCORDO
100
AcDbLine
 62
250
  6
CONTINUOUS
 10
-75.2766003891
 20
-39.3460340659
 11
70.1335549763
 21
-39.3461705408
  0
LINE
  5
290
100
AcDbEntity
  8
RACCORDO
100
AcDbLine
 62
250
  6
CONTINUOUS
 10
70.1335549763
 20
-39.3461705408
 11
86.5998028673
 21
-39.3481946297
  0
LINE
  5
291
100
AcDbEntity
  8
RACCORDO
100
AcDbLine
 62
250
  6
CONTINUOUS
 10
86.5998028673
 20
-39.3481946297
 11
101.7035170605
 21
-39.3555779792
  0
LWPOLYLINE
  5
292
100
AcDbEntity
  8
RACCORDO
100
AcDbPolyline
 62
250
  6
CONTINUOUS
 90
3
 70
0
 10
101.7035170605
 20
-39.3555779792
 10
102.0446407865
 20
-39.3559497294
 10
102.133420034
 20
-39.3560742224
  0
LWPOLYLINE
  5
293
100
AcDbEntity
  8
RACCORDO
100
AcDbPolyline
 62
250
  6
CONTINUOUS
 90
3
 70
0
 10
-65.8666474372
 20
-38.6816668553
 10
73.01913599
 20
-38.6849480754
 10
77.3988228573
 20
-38.6873486847
  0
LINE
  5
294
100
AcDbEntity
  8
RACCORDO
100
AcDbLine
 62
250
  6
CONTINUOUS
 10
-74.7585824951
 20
-38.683582834
 11
-65.8666474372
 21
-38.6816669968
  0
LINE
  5
295
100
AcDbEntity
  8
RACCORDO
100
AcDbLine
 62
250
  6
CONTINUOUS
 10
-79.3922624007
 20
-38.6557946987
 11
-74.7585824951
 21
-38.683582834
  0
LINE
  5
296
100
AcDbEntity
  8
RACCORDO
100
AcDbLine
 62
250
  6
CONTINUOUS
 10
-97.0622592191
 20
-38.475835176
 11
-92.2878059261
 21
-38.5143727938
  0
LINE
  5
297
100
AcDbEntity
  8
RACCORDO
100
AcDbLine
 62
250
  6
CONTINUOUS
 10
-92.2878059261
 20
-38.5143727938
 11
-88.3350098199
 21
-38.5601058186
  0
LINE
  5
298
100
AcDbEntity
  8
RACCORDO
100
AcDbLine
 62
250
  6
CONTINUOUS
 10
-86.8392225898
 20
-38.5818829046
 11
-79.3922624007
 21
-38.6557946987
  0
LINE
  5
299
100
AcDbEntity
  8
RACCORDO
100
AcDbLine
 62
250
  6
CONTINUOUS
 10
-88.3350098199
 20
-38.5601058186
 11
-86.8392225898
 21
-38.5818829046
  0
LWPOLYLINE
  5
29A
100
AcDbEntity
  8
RACCORDO
100
AcDbPolyline
 62
250
  6
CONTINUOUS
 90
12
 70
0
 10
-100.0119877519
 20
-36.6169292063
 10
-100.1799444453
 20
-36.6135415519
 10
-100.2570203164
 20
-36.6114526931
 10
-100.3285596199
 20
-36.6091246548
 10
-100.393921608
 20
-36.6065782878
 10
-100.4525208607
 20
-36.6038363985
 10
-100.5038325288
 20
-36.6009235447
 10
-100.5473970352
 20
-36.5978658155
 10
-100.5828241905
 20
-36.5946905977
 10
-100.6097966886
 20
-36.5914263306
 10
-100.628072948
 20
-36.5881022507
 10
-100.6374892759
 20
-36.5847481307
  0
LINE
  5
29B
100
AcDbEntity
  8
RACCORDO
100
AcDbLine
 62
250
  6
CONTINUOUS
 10
-97.8940804569
 20
-38.4536630016
 11
-97.6319651241
 21
-38.4600187174
  0
LINE
  5
29C
100
AcDbEntity
  8
RACCORDO
100
AcDbLine
 62
250
  6
CONTINUOUS
 10
-97.6319651241
 20
-38.4600187174
 11
-97.3825237863
 21
-38.4672794151
  0
LWPOLYLINE
  5
29D
100
AcDbEntity
  8
RACCORDO
100
AcDbPolyline
 62
250
  6
CONTINUOUS
 90
4
 70
0
 10
-97.3825237863
 20
-38.4672794151
 10
-97.2229767774
 20
-38.4727710885
 10
-97.1429856683
 20
-38.4748694264
 10
-97.0622592191
 20
-38.475835176
  0
LWPOLYLINE
  5
29E
100
AcDbEntity
  8
0
100
AcDbPolyline
 62
7
  6
CONTINUOUS
 90
10
 70
0
 43
0.3500000006
 10
4.3834201155
 20
57.0349622498
 10
3.7405629787
 20
56.3921087952
 10
3.3119914598
 20
55.534961792
 10
3.3119914598
 20
54.4635348358
 10
3.7405629787
 20
54.0349613342
 10
4.3834201155
 20
54.0349613342
 10
4.8119916344
 20
54.4635348358
 10
4.8119916344
 20
55.3206773071
 10
4.3834201155
 20
55.7492462769
 10
3.4548487272
 20
55.7492462769
  0
LWPOLYLINE
  5
29F
100
AcDbEntity
  8
RACCORDO
100
AcDbPolyline
 62
250
  6
CONTINUOUS
 90
3
 70
0
 10
104.0038975004
 20
-36.6198271776
 10
104.0975347629
 20
-36.6191670112
 10
104.2788317665
 20
-36.6169303208
  0
LINE
  5
2A0
100
AcDbEntity
  8
RACCORDO
100
AcDbLine
 62
250
  6
CONTINUOUS
 10
-100.866579966
 20
-36.5847481313
 11
-100.6375042613
 21
-36.5847481313
  0
LINE
  5
2A1
100
AcDbEntity
  8
RACCORDO
100
AcDbLine
 62
250
  6
CONTINUOUS
 10
104.9043443292
 20
-36.5847481313
 11
105.1334200339
 21
-36.5847481313
  0
LWPOLYLINE
  5
2A2
100
AcDbEntity
  8
RACCORDO
100
AcDbPolyline
 62
250
  6
CONTINUOUS
 90
3
 70
0
 10
-99.7370572955
 20
-36.6198271287
 10
-99.9226112477
 20
-36.6181976614
 10
-100.0119877519
 20
-36.6169292063
  0
LINE
  5
2A3
100
AcDbEntity
  8
RACCORDO
100
AcDbLine
 62
250
  6
CONTINUOUS
 10
82.5786653153
 20
-21.8847481313
 11
84.2189554616
 21
-21.865663962
  0
LINE
  5
2A4
100
AcDbEntity
  8
RACCORDO
100
AcDbLine
 62
250
  6
CONTINUOUS
 10
80.6691793152
 20
-25.3690368125
 11
79.6446032409
 21
-25.3768341424
  0
LINE
  5
2A5
100
AcDbEntity
  8
RACCORDO
100
AcDbLine
 62
250
  6
CONTINUOUS
 10
79.6446032409
 20
-25.3768341424
 11
77.4802288323
 21
-25.3837059183
  0
LINE
  5
2A6
100
AcDbEntity
  8
RACCORDO
100
AcDbLine
 62
250
  6
CONTINUOUS
 10
77.4802288323
 20
-25.3837059183
 11
70.132875446
 21
-25.3896400766
  0
LINE
  5
2A7
100
AcDbEntity
  8
RACCORDO
100
AcDbLine
 62
250
  6
CONTINUOUS
 10
-65.8654907899
 20
-23.7871885207
 11
-76.416579966
 21
-23.7878314244
  0
LINE
  5
2A8
100
AcDbEntity
  8
RACCORDO
100
AcDbLine
 62
250
  6
CONTINUOUS
 10
70.1328754459
 20
-25.3896393844
 11
-67.1723021826
 21
-25.3888310299
  0
LINE
  5
2A9
100
AcDbEntity
  8
RACCORDO
100
AcDbLine
 62
250
  6
CONTINUOUS
 10
80.683420034
 20
-23.7878314244
 11
-65.8654907899
 21
-23.7871885207
  0
LWPOLYLINE
  5
2AA
100
AcDbEntity
  8
RACCORDO
100
AcDbPolyline
 62
250
  6
CONTINUOUS
 90
4
 70
0
 10
-67.1723021826
 20
-25.3888310299
 10
-74.3151845331
 20
-25.3813046338
 10
-75.3780230485
 20
-25.3768258556
 10
-76.4023392458
 20
-25.3690367969
  0
LWPOLYLINE
  5
2AB
100
AcDbEntity
  8
RACCORDO
100
AcDbPolyline
 62
250
  6
CONTINUOUS
 90
61
 70
0
 10
-76.416579966
 20
-23.7878314244
 10
-76.4770090587
 20
-23.7870229021
 10
-76.5355000897
 20
-23.784334087
 10
-76.5919981604
 20
-23.7799415158
 10
-76.6463571432
 20
-23.7740193754
 10
-76.6986445521
 20
-23.766739012
 10
-76.7491397341
 20
-23.7582402634
 10
-76.7978887746
 20
-23.7486295568
 10
-76.8448118414
 20
-23.7380590202
 10
-76.8900116317
 20
-23.7266975
 10
-76.9336714829
 20
-23.7146273673
 10
-76.9756126731
 20
-23.7019791617
 10
-77.0154144051
 20
-23.6890095859
 10
-77.052810602
 20
-23.6759554599
 10
-77.0881195094
 20
-23.6628398675
 10
-77.121800917
 20
-23.6495923548
 10
-77.1538395971
 20
-23.6363089153
 10
-77.1842919557
 20
-23.6230559775
 10
-77.2137048633
 20
-23.6096586977
 10
-77.2421335843
 20
-23.5961404605
 10
-77.2695448391
 20
-23.5825647018
 10
-77.2963319588
 20
-23.5687676784
 10
-77.3225622912
 20
-23.5547452769
 10
-77.3481751778
 20
-23.5405444241
 10
-77.3733569735
 20
-23.5260499634
 10
-77.3978562423
 20
-23.5114213286
 10
-77.4219264356
 20
-23.4965324035
 10
-77.4464790381
 20
-23.4807894057
 10
-77.4715955385
 20
-23.4640820752
 10
-77.4971328145
 20
-23.4464591509
 10
-77.5236174116
 20
-23.4274958286
 10
-77.5512218748
 20
-23.4069529716
 10
-77.579651288
 20
-23.3849436928
 10
-77.608713201
 20
-23.3615495553
 10
-77.6383421385
 20
-23.3367298182
 10
-77.6684771666
 20
-23.3104189381
 10
-77.6989412787
 20
-23.2826757303
 10
-77.7295533637
 20
-23.2535677663
 10
-77.7603628363
 20
-23.2229432681
 10
-77.791524004
 20
-23.1905243234
 10
-77.8229533379
 20
-23.1562393662
 10
-77.8545373242
 20
-23.1200455827
 10
-77.8863454231
 20
-23.0816807008
 10
-77.9182650503
 20
-23.0410541762
 10
-77.9501384565
 20
-22.9981283995
 10
-77.9819280879
 20
-22.9527017978
 10
-78.0134397966
 20
-22.9047487369
 10
-78.0445236214
 20
-22.8541767405
 10
-78.0751572148
 20
-22.8006663703
 10
-78.1050745409
 20
-22.7442339562
 10
-78.1340838742
 20
-22.6847592378
 10
-78.1621779186
 20
-22.6216878439
 10
-78.1891520919
 20
-22.5547679821
 10
-78.2145338236
 20
-22.4841593686
 10
-78.2378433972
 20
-22.4099381864
 10
-78.2586425783
 20
-22.3324478213
 10
-78.2766547807
 20
-22.2514303177
 10
-78.2915189121
 20
-22.1661028147
 10
-78.3027087696
 20
-22.076288255
 10
-78.3096615807
 20
-21.9824330042
 10
-78.3118237322
 20
-21.8847481313
  0
LINE
  5
2AC
100
AcDbEntity
  8
RACCORDO
100
AcDbLine
 62
250
  6
CONTINUOUS
 10
-78.3118235998
 20
-21.8847481313
 11
-79.9521144071
 21
-21.8656638306
  0
LWPOLYLINE
  5
2AD
100
AcDbEntity
  8
RACCORDO
100
AcDbPolyline
 62
250
  6
CONTINUOUS
 90
61
 70
0
 10
-76.4023392551
 20
-25.3690369449
 10
-76.5193650093
 20
-25.3659614754
 10
-76.6325700272
 20
-25.3592548976
 10
-76.7418442848
 20
-25.3492834876
 10
-76.8469758564
 20
-25.3362260751
 10
-76.9479674861
 20
-25.3206136613
 10
-77.045083593
 20
-25.3033018482
 10
-77.1381395354
 20
-25.2849024619
 10
-77.22653091
 20
-25.2656720251
 10
-77.309877218
 20
-25.2459354618
 10
-77.3886221106
 20
-25.2261114884
 10
-77.4634647703
 20
-25.2060981372
 10
-77.534693778
 20
-25.1853328668
 10
-77.6020903498
 20
-25.1638644732
 10
-77.665916434
 20
-25.142074151
 10
-77.7268753021
 20
-25.1199110941
 10
-77.7849105995
 20
-25.0975512072
 10
-77.8401550545
 20
-25.0750885563
 10
-77.8936179132
 20
-25.0522300673
 10
-77.9453164037
 20
-25.0290867591
 10
-77.9951404805
 20
-25.0057682641
 10
-78.0438521699
 20
-24.9818975703
 10
-78.0917034536
 20
-24.9573524344
 10
-78.1391387087
 20
-24.9319017148
 10
-78.1873191785
 20
-24.9048299657
 10
-78.2359756855
 20
-24.8760742105
 10
-78.28471699
 20
-24.8459778487
 10
-78.3342631814
 20
-24.8144695322
 10
-78.3843980904
 20
-24.78174431
 10
-78.4348996747
 20
-24.7477448395
 10
-78.4865264173
 20
-24.7118830052
 10
-78.5395455426
 20
-24.6739179019
 10
-78.5934318315
 20
-24.6340149127
 10
-78.6477113513
 20
-24.5921849609
 10
-78.7022549416
 20
-24.5483733831
 10
-78.7573054836
 20
-24.5022834398
 10
-78.8130156084
 20
-24.453499562
 10
-78.8692586129
 20
-24.4019247026
 10
-78.9259840604
 20
-24.3474294832
 10
-78.983354114
 20
-24.2895656652
 10
-79.0411812506
 20
-24.2282495266
 10
-79.0992752527
 20
-24.1633849257
 10
-79.1577369658
 20
-24.0944490212
 10
-79.2163783739
 20
-24.0212818535
 10
-79.2748911642
 20
-23.9438362841
 10
-79.3331138761
 20
-23.8617426967
 10
-79.3906985
 20
-23.7749655865
 10
-79.4473874708
 20
-23.6833130746
 10
-79.5030642362
 20
-23.5861487638
 10
-79.557187503
 20
-23.4836196395
 10
-79.6093591069
 20
-23.3757443614
 10
-79.6594742609
 20
-23.2617395681
 10
-79.7065349304
 20
-23.1411661101
 10
-79.7507500328
 20
-23.0132406849
 10
-79.793663953
 20
-22.8760534103
 10
-79.8355706465
 20
-22.7287909514
 10
-79.8740630719
 20
-22.5721367848
 10
-79.906263288
 20
-22.4068435407
 10
-79.9304030327
 20
-22.2338681364
 10
-79.9460151946
 20
-22.0534840545
 10
-79.9521151032
 20
-21.8656639248
  0
LINE
  5
2AE
100
AcDbEntity
  8
0
100
AcDbLine
 62
7
420
13828095
  6
CONTINUOUS
 10
-76.416579966
 20
-22.1847481313
 11
80.683420034
 21
-22.1847481313
  0
LINE
  5
2AF
100
AcDbEntity
  8
DRAFT
100
AcDbLine
 62
7
  6
CONTINUOUS
 10
80.583420034
 20
-22.0847481313
 11
-76.316579966
 21
-22.0847481313
  0
LINE
  5
2B0
100
AcDbEntity
  8
RACCORDO
100
AcDbLine
 62
250
  6
CONTINUOUS
 10
-76.716579966
 20
-21.8847481313
 11
-78.3118237322
 21
-21.8847481313
  0
LINE
  5
2B1
100
AcDbEntity
  8
RACCORDO
100
AcDbLine
 62
250
  6
CONTINUOUS
 10
80.983420034
 20
-21.8847481313
 11
82.5786638001
 21
-21.8847481313
  0
LINE
  5
2B2
100
AcDbEntity
  8
DRAFT
100
AcDbLine
 62
250
  6
CONTINUOUS
 10
80.983420034
 20
-21.7847481313
 11
80.883420034
 21
-21.7847481313
  0
LINE
  5
2B3
100
AcDbEntity
  8
DRAFT
100
AcDbLine
 62
250
  6
CONTINUOUS
 10
-76.716579966
 20
-21.7847481313
 11
-76.616579966
 21
-21.7847481313
  0
LWPOLYLINE
  5
2B4
100
AcDbEntity
  8
0
100
AcDbPolyline
 62
7
  6
CONTINUOUS
 90
13
 70
0
 43
0.3500000006
 10
0.9548486016
 20
54.8921083374
 10
0.9548486016
 20
56.1778243103
 10
1.1691342902
 20
56.60639328
 10
1.5977058091
 20
57.0349622498
 10
1.8119914269
 20
57.0349622498
 10
2.2405629458
 20
56.60639328
 10
2.4548487053
 20
56.1778243103
 10
2.4548487053
 20
54.8921083374
 10
2.2405629458
 20
54.4635348358
 10
1.8119914269
 20
54.0349613342
 10
1.5977058091
 20
54.0349613342
 10
1.1691342902
 20
54.4635348358
 10
0.9548486016
 20
54.8921083374
  0
LINE
  5
2B5
100
AcDbEntity
  8
RACCORDO
100
AcDbLine
 62
250
  6
CONTINUOUS
 10
-78.3024224499
 20
0.4152518687
 11
-99.9644918911
 21
0.415257388
  0
LINE
  5
2B6
100
AcDbEntity
  8
RACCORDO
100
AcDbLine
 62
250
  6
CONTINUOUS
 10
82.5692625178
 20
0.4152518687
 11
104.5248222964
 21
0.41521219
  0
LINE
  5
2B7
100
AcDbEntity
  8
RACCORDO
100
AcDbLine
 62
250
  6
CONTINUOUS
 10
104.5248222964
 20
0.41521219
 11
104.8247493959
 21
0.4151323979
  0
LINE
  5
2B8
100
AcDbEntity
  8
RACCORDO
100
AcDbLine
 62
250
  6
CONTINUOUS
 10
-99.9644918911
 20
0.415257388
 11
-100.6314840258
 21
0.4154348334
  0
LINE
  5
2B9
100
AcDbEntity
  8
RACCORDO
100
AcDbLine
 62
250
  6
CONTINUOUS
 10
104.8247493959
 20
0.4151323979
 11
104.8983240938
 21
0.415068904
  0
LINE
  5
2BA
100
AcDbEntity
  8
RACCORDO
100
AcDbLine
 62
250
  6
CONTINUOUS
 10
-78.3118252474
 20
22.7152518687
 11
-79.9521153937
 21
22.6961676994
  0
LINE
  5
2BB
100
AcDbEntity
  8
RACCORDO
100
AcDbLine
 62
250
  6
CONTINUOUS
 10
79.6524835893
 20
24.6172942931
 11
80.683420034
 21
24.6183351618
  0
LINE
  5
2BC
100
AcDbEntity
  8
DRAFT
100
AcDbLine
 62
250
  6
CONTINUOUS
 10
80.983420034
 20
22.6152518687
 11
80.883420034
 21
22.6152518687
  0
LINE
  5
2BD
100
AcDbEntity
  8
DRAFT
100
AcDbLine
 62
250
  6
CONTINUOUS
 10
-76.716579966
 20
22.6152518687
 11
-76.616579966
 21
22.6152518687
  0
LINE
  5
2BE
100
AcDbEntity
  8
RACCORDO
100
AcDbLine
 62
250
  6
CONTINUOUS
 10
-76.716579966
 20
22.7152518687
 11
-78.3118237322
 21
22.7152518687
  0
LINE
  5
2BF
100
AcDbEntity
  8
RACCORDO
100
AcDbLine
 62
250
  6
CONTINUOUS
 10
80.983420034
 20
22.7152518687
 11
82.5786638001
 21
22.7152518687
  0
LINE
  5
2C0
100
AcDbEntity
  8
DRAFT
100
AcDbLine
 62
7
  6
CONTINUOUS
 10
-76.316579966
 20
22.9152518687
 11
80.583420034
 21
22.9152518687
  0
LINE
  5
2C1
100
AcDbEntity
  8
0
100
AcDbLine
 62
7
420
13828095
  6
CONTINUOUS
 10
80.683420034
 20
23.0152518687
 11
-76.416579966
 21
23.0152518687
  0
LWPOLYLINE
  5
2C2
100
AcDbEntity
  8
RACCORDO
100
AcDbPolyline
 62
250
  6
CONTINUOUS
 90
3
 70
0
 10
-76.416579966
 20
24.6183351618
 10
-75.3853810249
 20
24.6172942597
 10
70.1323308579
 20
24.6176922581
  0
LINE
  5
2C3
100
AcDbEntity
  8
RACCORDO
100
AcDbLine
 62
250
  6
CONTINUOUS
 10
82.5786636677
 20
22.7152518687
 11
84.2189544751
 21
22.696167568
  0
LINE
  5
2C4
100
AcDbEntity
  8
RACCORDO
100
AcDbLine
 62
250
  6
CONTINUOUS
 10
-76.4023392472
 20
26.1995405499
 11
-75.377763173
 21
26.2073378798
  0
LINE
  5
2C5
100
AcDbEntity
  8
RACCORDO
100
AcDbLine
 62
250
  6
CONTINUOUS
 10
-75.377763173
 20
26.2073378798
 11
-73.2133887644
 21
26.2142096557
  0
LINE
  5
2C6
100
AcDbEntity
  8
RACCORDO
100
AcDbLine
 62
250
  6
CONTINUOUS
 10
-73.2133887644
 20
26.2142096557
 11
-65.8660353781
 21
26.220143814
  0
LINE
  5
2C7
100
AcDbEntity
  8
RACCORDO
100
AcDbLine
 62
250
  6
CONTINUOUS
 10
70.1323308579
 20
24.6176922581
 11
79.6524835893
 21
24.6172942931
  0
LINE
  5
2C8
100
AcDbEntity
  8
RACCORDO
100
AcDbLine
 62
250
  6
CONTINUOUS
 10
-65.866035378
 20
26.2201431218
 11
73.9529894935
 21
26.2176176064
  0
LWPOLYLINE
  5
2C9
100
AcDbEntity
  8
RACCORDO
100
AcDbPolyline
 62
250
  6
CONTINUOUS
 90
4
 70
0
 10
73.9529894935
 20
26.2176176064
 10
78.582024601
 20
26.2118083712
 10
79.6448631164
 20
26.207329593
 10
80.6691793137
 20
26.1995405343
  0
LWPOLYLINE
  5
2CA
100
AcDbEntity
  8
RACCORDO
100
AcDbPolyline
 62
250
  6
CONTINUOUS
 90
61
 70
0
 10
80.683420034
 20
24.6183351618
 10
80.7438491266
 20
24.6175266395
 10
80.8023401576
 20
24.6148378244
 10
80.8588382283
 20
24.6104452532
 10
80.9131972112
 20
24.6045231128
 10
80.96548462
 20
24.5972427494
 10
81.0159798021
 20
24.5887440008
 10
81.0647288426
 20
24.5791332942
 10
81.1116519094
 20
24.5685627576
 10
81.1568516997
 20
24.5572012374
 10
81.2005115508
 20
24.5451311047
 10
81.242452741
 20
24.5324828991
 10
81.2822544731
 20
24.5195133233
 10
81.3196506699
 20
24.5064591973
 10
81.3549595774
 20
24.4933436049
 10
81.388640985
 20
24.4800960922
 10
81.4206796651
 20
24.4668126527
 10
81.4511320237
 20
24.4535597149
 10
81.4805449312
 20
24.4401624351
 10
81.5089736523
 20
24.4266441979
 10
81.5363849071
 20
24.4130684392
 10
81.5631720267
 20
24.3992714158
 10
81.5894023591
 20
24.3852490143
 10
81.6150152457
 20
24.3710481615
 10
81.6401970414
 20
24.3565537009
 10
81.6646963103
 20
24.341925066
 10
81.6887665036
 20
24.3270361409
 10
81.713319106
 20
24.3112931431
 10
81.7384356065
 20
24.2945858126
 10
81.7639728824
 20
24.2769628884
 10
81.7904574795
 20
24.257999566
 10
81.8180619428
 20
24.237456709
 10
81.846491356
 20
24.2154474302
 10
81.8755532689
 20
24.1920532927
 10
81.9051822064
 20
24.1672335557
 10
81.9353172345
 20
24.1409226755
 10
81.9657813467
 20
24.1131794677
 10
81.9963934317
 20
24.0840715037
 10
82.0272029042
 20
24.0534470055
 10
82.0583640719
 20
24.0210280609
 10
82.0897934059
 20
23.9867431036
 10
82.1213773921
 20
23.9505493201
 10
82.153185491
 20
23.9121844382
 10
82.1851051183
 20
23.8715579136
 10
82.2169785244
 20
23.8286321369
 10
82.2487681559
 20
23.7832055352
 10
82.2802798645
 20
23.7352524743
 10
82.3113636893
 20
23.6846804779
 10
82.3419972827
 20
23.6311701077
 10
82.3719146088
 20
23.5747376936
 10
82.4009239421
 20
23.5152629752
 10
82.4290179866
 20
23.4521915814
 10
82.4559921599
 20
23.3852717195
 10
82.4813738915
 20
23.3146631061
 10
82.5046834652
 20
23.2404419238
 10
82.5254826462
 20
23.1629515587
 10
82.5434948486
 20
23.0819340551
 10
82.55835898
 20
22.9966065521
 10
82.5695488375
 20
22.9067919924
 10
82.5765016487
 20
22.8129367416
 10
82.5786638001
 20
22.7152518687
  0
LWPOLYLINE
  5
2CB
100
AcDbEntity
  8
RACCORDO
100
AcDbPolyline
 62
250
  6
CONTINUOUS
 90
61
 70
0
 10
80.669179323
 20
26.1995406823
 10
80.7862050773
 20
26.1964652128
 10
80.8994100952
 20
26.189758635
 10
81.0086843527
 20
26.179787225
 10
81.1138159244
 20
26.1667298125
 10
81.2148075541
 20
26.1511173987
 10
81.311923661
 20
26.1338055856
 10
81.4049796034
 20
26.1154061993
 10
81.493370978
 20
26.0961757625
 10
81.5767172859
 20
26.0764391992
 10
81.6554621785
 20
26.0566152258
 10
81.7303048383
 20
26.0366018747
 10
81.801533846
 20
26.0158366042
 10
81.8689304177
 20
25.9943682106
 10
81.932756502
 20
25.9725778884
 10
81.99371537
 20
25.9504148315
 10
82.0517506674
 20
25.9280549447
 10
82.1069951225
 20
25.9055922937
 10
82.1604579811
 20
25.8827338047
 10
82.2121564717
 20
25.8595904965
 10
82.2619805485
 20
25.8362720015
 10
82.3106922379
 20
25.8124013077
 10
82.3585435215
 20
25.7878561718
 10
82.4059787767
 20
25.7624054522
 10
82.4541592464
 20
25.7353337031
 10
82.5028157534
 20
25.7065779479
 10
82.5515570579
 20
25.6764815861
 10
82.6011032493
 20
25.6449732696
 10
82.6512381584
 20
25.6122480474
 10
82.7017397427
 20
25.5782485769
 10
82.7533664852
 20
25.5423867426
 10
82.8063856106
 20
25.5044216393
 10
82.8602718995
 20
25.4645186501
 10
82.9145514192
 20
25.4226886983
 10
82.9690950096
 20
25.3788771205
 10
83.0241455516
 20
25.3327871772
 10
83.0798556764
 20
25.2840032994
 10
83.1360986809
 20
25.23242844
 10
83.1928241283
 20
25.1779332206
 10
83.2501941819
 20
25.1200694027
 10
83.3080213185
 20
25.058753264
 10
83.3661153207
 20
24.9938886631
 10
83.4245770338
 20
24.9249527586
 10
83.4832184418
 20
24.8517855909
 10
83.5417312321
 20
24.7743400215
 10
83.599953944
 20
24.6922464341
 10
83.6575385679
 20
24.6054693239
 10
83.7142275387
 20
24.513816812
 10
83.7699043041
 20
24.4166525012
 10
83.824027571
 20
24.3141233769
 10
83.8761991749
 20
24.2062480988
 10
83.9263143289
 20
24.0922433055
 10
83.9733749984
 20
23.9716698475
 10
84.0175901007
 20
23.8437444223
 10
84.0605040209
 20
23.7065571477
 10
84.1024107145
 20
23.5592946888
 10
84.1409031398
 20
23.4026405222
 10
84.173103356
 20
23.2373472781
 10
84.1972431007
 20
23.0643718738
 10
84.2128552625
 20
22.8839877919
 10
84.2189551711
 20
22.6961676622
  0
LWPOLYLINE
  5
2CC
100
AcDbEntity
  8
RACCORDO
100
AcDbPolyline
 62
250
  6
CONTINUOUS
 90
11
 70
0
 10
-100.1799515002
 20
37.4440451342
 10
-100.2570286822
 20
37.4419562555
 10
-100.3285692289
 20
37.4396282075
 10
-100.3939323715
 20
37.4370818404
 10
-100.4525326701
 20
37.43433996
 10
-100.5038452583
 20
37.4314271229
 10
-100.5474105432
 20
37.4283694172
 10
-100.5828383227
 20
37.4251942285
 10
-100.6098112798
 20
37.4219299947
 10
-100.6280878254
 20
37.4186059511
 10
-100.6375042613
 20
37.4152518687
  0
LINE
  5
2CD
100
AcDbEntity
  8
RACCORDO
100
AcDbLine
 62
250
  6
CONTINUOUS
 10
-100.0119920734
 20
37.4474328611
 11
-100.1799515002
 21
37.4440451342
  0
LWPOLYLINE
  5
2CE
100
AcDbEntity
  8
RACCORDO
100
AcDbPolyline
 62
250
  6
CONTINUOUS
 90
3
 70
0
 10
-88.3403406876
 20
39.3905014737
 10
-88.5164126648
 20
39.3888432017
 10
-92.7768131328
 20
39.3397970816
  0
LWPOLYLINE
  5
2CF
100
AcDbEntity
  8
RACCORDO
100
AcDbPolyline
 62
250
  6
CONTINUOUS
 90
3
 70
0
 10
-99.7370576017
 20
37.4503309755
 10
-99.830694939
 20
37.4496702997
 10
-100.0119920734
 20
37.4474328611
  0
LINE
  5
2D0
100
AcDbEntity
  8
RACCORDO
100
AcDbLine
 62
250
  6
CONTINUOUS
 10
-93.2052270341
 20
39.3355861706
 11
-96.2728857593
 21
39.3110620854
  0
LINE
  5
2D1
100
AcDbEntity
  8
RACCORDO
100
AcDbLine
 62
250
  6
CONTINUOUS
 10
-76.1490507932
 20
39.5081926164
 11
-81.4747704629
 21
39.4679925505
  0
LINE
  5
2D2
100
AcDbEntity
  8
RACCORDO
100
AcDbLine
 62
250
  6
CONTINUOUS
 10
-96.2728857593
 20
39.3110620854
 11
-97.0847178257
 21
39.3060203475
  0
LINE
  5
2D3
100
AcDbEntity
  8
RACCORDO
100
AcDbLine
 62
250
  6
CONTINUOUS
 10
102.133420034
 20
40.1865779598
 11
101.869147979
 21
40.1862399988
  0
LINE
  5
2D4
100
AcDbEntity
  8
RACCORDO
100
AcDbLine
 62
250
  6
CONTINUOUS
 10
-72.4473294168
 20
39.5184577562
 11
-76.1490507932
 21
39.5081926164
  0
LINE
  5
2D5
100
AcDbEntity
  8
RACCORDO
100
AcDbLine
 62
250
  6
CONTINUOUS
 10
101.869147979
 20
40.1862399988
 11
79.4893774663
 21
40.1765302479
  0
LINE
  5
2D6
100
AcDbEntity
  8
RACCORDO
100
AcDbLine
 62
250
  6
CONTINUOUS
 10
105.1334200339
 20
37.4152518687
 11
104.9043443292
 21
37.4152518687
  0
LINE
  5
2D7
100
AcDbEntity
  8
RACCORDO
100
AcDbLine
 62
250
  6
CONTINUOUS
 10
-100.6375042613
 20
37.4152518687
 11
-100.866579966
 21
37.4152518687
  0
LINE
  5
2D8
100
AcDbEntity
  8
RACCORDO
100
AcDbLine
 62
250
  6
CONTINUOUS
 10
79.4893774663
 20
40.1765302479
 11
-73.5728878979
 21
40.1763788269
  0
LINE
  5
2D9
100
AcDbEntity
  8
RACCORDO
100
AcDbLine
 62
250
  6
CONTINUOUS
 10
-73.5728878979
 20
40.1763788269
 11
-97.384652792
 21
40.1860395496
  0
LWPOLYLINE
  5
2DA
100
AcDbEntity
  8
RACCORDO
100
AcDbPolyline
 62
250
  6
CONTINUOUS
 90
3
 70
0
 10
70.1334875051
 20
39.5121705927
 10
-68.7024725766
 20
39.5153786095
 10
-72.4473294168
 20
39.5184577562
  0
LWPOLYLINE
  5
2DB
100
AcDbEntity
  8
RACCORDO
100
AcDbPolyline
 62
250
  6
CONTINUOUS
 90
3
 70
0
 10
-97.384652792
 20
40.1860395496
 10
-97.7829315205
 20
40.1864609041
 10
-97.866579966
 20
40.1865779598
  0
LINE
  5
2DC
100
AcDbEntity
  8
RACCORDO
100
AcDbLine
 62
250
  6
CONTINUOUS
 10
78.4418657241
 20
39.5158469087
 11
70.1334875051
 21
39.5121707342
  0
LINE
  5
2DD
100
AcDbEntity
  8
RACCORDO
100
AcDbLine
 62
250
  6
CONTINUOUS
 10
82.7616111026
 20
39.4933198243
 11
78.4418657241
 21
39.5158469087
  0
LINE
  5
2DE
100
AcDbEntity
  8
RACCORDO
100
AcDbLine
 62
250
  6
CONTINUOUS
 10
101.2979677603
 20
39.306650751
 11
98.9400140228
 21
39.3228056508
  0
LINE
  5
2DF
100
AcDbEntity
  8
RACCORDO
100
AcDbLine
 62
250
  6
CONTINUOUS
 10
84.7566461287
 20
39.4769544739
 11
82.7616111026
 21
39.4933198243
  0
LINE
  5
2E0
100
AcDbEntity
  8
RACCORDO
100
AcDbLine
 62
250
  6
CONTINUOUS
 10
98.9400140228
 20
39.3228056508
 11
97.817601771
 21
39.33235415
  0
LINE
  5
2E1
100
AcDbEntity
  8
RACCORDO
100
AcDbLine
 62
250
  6
CONTINUOUS
 10
104.0038973634
 20
37.4503308661
 11
104.1894513157
 21
37.4487013988
  0
LWPOLYLINE
  5
2E2
100
AcDbEntity
  8
RACCORDO
100
AcDbPolyline
 62
250
  6
CONTINUOUS
 90
13
 70
0
 10
104.1894513157
 20
37.4487013988
 10
104.364862411
 20
37.4458762599
 10
104.4467845132
 20
37.4440452893
 10
104.5238603843
 20
37.4419564305
 10
104.5953996878
 20
37.4396283922
 10
104.660761676
 20
37.4370820252
 10
104.7193609287
 20
37.4343401358
 10
104.7706725968
 20
37.431427282
 10
104.8142371031
 20
37.4283695529
 10
104.8496642585
 20
37.4251943351
 10
104.8766367566
 20
37.4219300679
 10
104.894913016
 20
37.4186059881
 10
104.9043293439
 20
37.4152518681
  0
LWPOLYLINE
  5
2E3
100
AcDbEntity
  8
RACCORDO
100
AcDbPolyline
 62
250
  6
CONTINUOUS
 90
28
 70
0
 10
-97.8940804114
 20
39.2841665795
 10
-97.9958129051
 20
39.2791030657
 10
-98.098281356
 20
39.26835766
 10
-98.2011076353
 20
39.2517829883
 10
-98.3041707305
 20
39.2292077165
 10
-98.4068640064
 20
39.2005756107
 10
-98.5081098508
 20
39.1660620857
 10
-98.6074295054
 20
39.1257881486
 10
-98.7046156172
 20
39.0798042608
 10
-98.7990475064
 20
39.0283646959
 10
-98.8902938375
 20
38.971706694
 10
-98.9781834986
 20
38.9099681763
 10
-99.0625012005
 20
38.8432919083
 10
-99.1430150746
 20
38.7718177916
 10
-99.2193901866
 20
38.695830014
 10
-99.2912651671
 20
38.6156955237
 10
-99.3583544418
 20
38.5317471091
 10
-99.4205118404
 20
38.4442102643
 10
-99.4775993495
 20
38.3533053411
 10
-99.529475695
 20
38.2592145398
 10
-99.5758965173
 20
38.1623552947
 10
-99.6166186907
 20
38.06332549
 10
-99.6515919142
 20
37.9623283544
 10
-99.680669687
 20
37.8598527544
 10
-99.7036639232
 20
37.7569778145
 10
-99.7206265547
 20
37.6543140393
 10
-99.7317138027
 20
37.5519733813
 10
-99.7370572953
 20
37.450330866
  0
LINE
  5
2E4
100
AcDbEntity
  8
RACCORDO
100
AcDbLine
 62
250
  6
CONTINUOUS
 10
-97.2421162862
 20
39.3028200937
 11
-97.3984933162
 21
39.2972741845
  0
LINE
  5
2E5
100
AcDbEntity
  8
RACCORDO
100
AcDbLine
 62
250
  6
CONTINUOUS
 10
-97.3984933162
 20
39.2972741845
 11
-97.6406946775
 21
39.2902923656
  0
LWPOLYLINE
  5
2E6
100
AcDbEntity
  8
RACCORDO
100
AcDbPolyline
 62
250
  6
CONTINUOUS
 90
28
 70
0
 10
-97.866579966
 20
40.1865779598
 10
-98.021821076
 20
40.1823628909
 10
-98.1781204542
 20
40.1692727479
 10
-98.3349534412
 20
40.1470883177
 10
-98.4921306909
 20
40.1155360771
 10
-98.6487020965
 20
40.0745014323
 10
-98.8030135241
 20
40.0242411673
 10
-98.9543114816
 20
39.9649415478
 10
-99.1022543854
 20
39.8966759189
 10
-99.2458942077
 20
39.8198450867
 10
-99.3845619474
 20
39.734835477
 10
-99.5179687718
 20
39.641853307
 10
-99.6457810959
 20
39.5411227719
 10
-99.7676400445
 20
39.4328850834
 10
-99.8830027841
 20
39.3175780619
 10
-99.9913021431
 20
39.1957675887
 10
-100.0920999671
 20
39.0679948655
 10
-100.1851532742
 20
38.9346190242
 10
-100.2702346733
 20
38.7959758373
 10
-100.3471292186
 20
38.6523705323
 10
-100.4154598118
 20
38.5044566779
 10
-100.4748416862
 20
38.3531335779
 10
-100.5251973695
 20
38.1987231574
 10
-100.5663240415
 20
38.0419938186
 10
-100.5979542063
 20
37.8846010293
 10
-100.6201931947
 20
37.7274964551
 10
-100.633306263
 20
37.5708708886
 10
-100.6375042613
 20
37.4152518687
  0
LINE
  5
2E7
100
AcDbEntity
  8
RACCORDO
100
AcDbLine
 62
250
  6
CONTINUOUS
 10
-97.6406946775
 20
39.2902923656
 11
-97.8940804572
 21
39.28416674
  0
LWPOLYLINE
  5
2E8
100
AcDbEntity
  8
RACCORDO
100
AcDbPolyline
 62
250
  6
CONTINUOUS
 90
3
 70
0
 10
-97.0847178257
 20
39.3060203475
 10
-97.1636553231
 20
39.3049788186
 10
-97.2421162862
 20
39.3028200937
  0
LINE
  5
2E9
100
AcDbEntity
  8
RACCORDO
100
AcDbLine
 62
250
  6
CONTINUOUS
 10
-85.7814299018
 20
39.425545756
 11
-88.3403406876
 21
39.3905014737
  0
LINE
  5
2EA
100
AcDbEntity
  8
RACCORDO
100
AcDbLine
 62
250
  6
CONTINUOUS
 10
-92.7768131328
 20
39.3397970816
 11
-93.2052270341
 21
39.3355861706
  0
LWPOLYLINE
  5
2EB
100
AcDbEntity
  8
RACCORDO
100
AcDbPolyline
 62
250
  6
CONTINUOUS
 90
3
 70
0
 10
-81.4747704629
 20
39.4679925505
 10
-81.8156525243
 20
39.4647934304
 10
-85.7814299018
 20
39.425545756
  0
LINE
  5
2EC
100
AcDbEntity
  8
SUPERFICI
100
AcDbLine
 62
7
420
13828095
  6
CONTINUOUS
 10
-97.866579966
 20
40.4152518687
 11
102.133420034
 21
40.4152518687
  0
LINE
  5
2ED
100
AcDbEntity
  8
RACCORDO
100
AcDbLine
 62
250
  6
CONTINUOUS
 10
85.4851919315
 20
39.4703688303
 11
84.7566461287
 21
39.4769544739
  0
LINE
  5
2EE
100
AcDbEntity
  8
RACCORDO
100
AcDbLine
 62
250
  6
CONTINUOUS
 10
97.817601771
 20
39.33235415
 11
95.2946341148
 21
39.3591232591
  0
LINE
  5
2EF
100
AcDbEntity
  8
RACCORDO
100
AcDbLine
 62
250
  6
CONTINUOUS
 10
90.8243756008
 20
39.4163529349
 11
85.4851919315
 21
39.4703688303
  0
LINE
  5
2F0
100
AcDbEntity
  8
RACCORDO
100
AcDbLine
 62
250
  6
CONTINUOUS
 10
91.9951928013
 20
39.3990816089
 11
90.8243756008
 21
39.4163529349
  0
LINE
  5
2F1
100
AcDbEntity
  8
RACCORDO
100
AcDbLine
 62
250
  6
CONTINUOUS
 10
95.2946341148
 20
39.3591232591
 11
91.9951928013
 21
39.3990816089
  0
LINE
  5
2F2
100
AcDbEntity
  8
RACCORDO
100
AcDbLine
 62
250
  6
CONTINUOUS
 10
102.160920497
 20
39.2841666415
 11
101.8898344994
 21
39.2907592487
  0
LWPOLYLINE
  5
2F3
100
AcDbEntity
  8
RACCORDO
100
AcDbPolyline
 62
250
  6
CONTINUOUS
 90
4
 70
0
 10
101.8898344994
 20
39.2907592487
 10
101.4635038354
 20
39.3037490708
 10
101.3809329893
 20
39.3057460301
 10
101.2979677603
 20
39.306650751
  0
LWPOLYLINE
  5
2F4
100
AcDbEntity
  8
0
100
AcDbPolyline
 62
7
  6
CONTINUOUS
 90
7
 70
0
 43
0.3500000006
 10
0.0977057497
 20
54.0349613342
 10
-1.4022942567
 20
54.0349613342
 10
0.0977057497
 20
56.1778243103
 10
0.0977057497
 20
56.60639328
 10
-0.3308656719
 20
57.0349622498
 10
-0.9737228086
 20
57.0349622498
 10
-1.4022942567
 20
56.3921087952
  0
LINE
  5
2F5
100
AcDbEntity
  8
RACCORDO
100
AcDbLine
 62
250
  6
CONTINUOUS
 10
70.1323308579
 20
-23.7871885207
 11
70.133420034
 21
-38.681666814
  0
LINE
  5
2F6
100
AcDbEntity
  8
RACCORDO
100
AcDbLine
 62
250
  6
CONTINUOUS
 10
70.1334875051
 20
-38.6816668553
 11
70.1335549763
 21
-39.3461705408
  0
LINE
  5
2F7
100
AcDbEntity
  8
RACCORDO
100
AcDbLine
 62
250
  6
CONTINUOUS
 10
70.1323308579
 20
24.6176922581
 11
70.1335549763
 21
40.1766742782
  0
LINE
  5
2F8
100
AcDbEntity
  8
RACCORDO
100
AcDbLine
 62
250
  6
CONTINUOUS
 10
80.683420034
 20
24.6183356362
 11
80.669179323
 21
26.1995406823
  0
LINE
  5
2F9
100
AcDbEntity
  8
RACCORDO
100
AcDbLine
 62
250
  6
CONTINUOUS
 10
84.2189544751
 20
22.696167568
 11
84.226053495
 21
20.7003006528
  0
LINE
  5
2FA
100
AcDbEntity
  8
RACCORDO
100
AcDbLine
 62
250
  6
CONTINUOUS
 10
84.226053495
 20
20.7003006528
 11
84.2340341162
 21
14.3107148869
  0
LINE
  5
2FB
100
AcDbEntity
  8
DRAFT
100
AcDbLine
 62
250
  6
CONTINUOUS
 10
80.583420034
 20
23.0152518687
 11
80.583420034
 21
22.9152518687
  0
LINE
  5
2FC
100
AcDbEntity
  8
DRAFT
100
AcDbLine
 62
250
  6
CONTINUOUS
 10
80.583420034
 20
-22.1847481313
 11
80.583420034
 21
-22.0847481313
  0
LINE
  5
2FD
100
AcDbEntity
  8
RACCORDO
100
AcDbLine
 62
250
  6
CONTINUOUS
 10
80.683420034
 20
-22.1847481313
 11
80.683420034
 21
-23.7878314244
  0
LINE
  5
2FE
100
AcDbEntity
  8
RACCORDO
100
AcDbLine
 62
250
  6
CONTINUOUS
 10
80.683420034
 20
23.0152518687
 11
80.683420034
 21
24.6183351618
  0
LINE
  5
2FF
100
AcDbEntity
  8
DRAFT
100
AcDbLine
 62
7
  6
CONTINUOUS
 10
80.883420034
 20
-21.7847481313
 11
80.883420034
 21
22.6152518687
  0
LINE
  5
300
100
AcDbEntity
  8
0
100
AcDbLine
 62
7
420
13828095
  6
CONTINUOUS
 10
80.983420034
 20
-21.8847481313
 11
80.983420034
 21
22.7152518687
  0
LINE
  5
301
100
AcDbEntity
  8
RACCORDO
100
AcDbLine
 62
250
  6
CONTINUOUS
 10
84.2340341162
 20
14.3107148869
 11
84.2371534636
 21
-4.3877408851
  0
LINE
  5
302
100
AcDbEntity
  8
RACCORDO
100
AcDbLine
 62
250
  6
CONTINUOUS
 10
82.5694765706
 20
1.6628597038
 11
82.5786638001
 21
-21.8847481313
  0
LINE
  5
303
100
AcDbEntity
  8
RACCORDO
100
AcDbLine
 62
250
  6
CONTINUOUS
 10
84.2371534636
 20
-4.3877408851
 11
84.2332848843
 21
-14.3588847223
  0
LINE
  5
304
100
AcDbEntity
  8
RACCORDO
100
AcDbLine
 62
250
  6
CONTINUOUS
 10
82.5786638001
 20
22.7152518687
 11
82.5694765706
 21
1.6628597038
  0
LWPOLYLINE
  5
305
100
AcDbEntity
  8
RACCORDO
100
AcDbPolyline
 62
250
  6
CONTINUOUS
 90
3
 70
0
 10
84.2332848843
 20
-14.3588847223
 10
84.2220200464
 20
-21.2267369787
 10
84.2189544533
 20
-21.865663829
  0
LINE
  5
306
100
AcDbEntity
  8
RACCORDO
100
AcDbLine
 62
250
  6
CONTINUOUS
 10
80.683420034
 20
-23.7878313044
 11
80.6691793152
 21
-25.3690368125
  0
LWPOLYLINE
  5
307
100
AcDbEntity
  8
RACCORDO
100
AcDbPolyline
 62
250
  6
CONTINUOUS
 90
61
 70
0
 10
82.5786638001
 20
-21.8847481313
 10
82.5764611199
 20
-21.9833993493
 10
82.5693406705
 20
-22.078445199
 10
82.5578288698
 20
-22.1696627608
 10
82.5424346028
 20
-22.2567193623
 10
82.5236831448
 20
-22.3396475024
 10
82.5020413668
 20
-22.4188423237
 10
82.4778767653
 20
-22.4944037903
 10
82.4516080785
 20
-22.5661549349
 10
82.4236879447
 20
-22.6341297828
 10
82.3945719346
 20
-22.6982301322
 10
82.3645011816
 20
-22.7586476972
 10
82.333529563
 20
-22.8158636492
 10
82.3018884153
 20
-22.8699647917
 10
82.2698386991
 20
-22.9209839055
 10
82.237382736
 20
-22.9692917921
 10
82.2046750285
 20
-23.0149907327
 10
82.1719206073
 20
-23.0581067486
 10
82.1391381622
 20
-23.0988735677
 10
82.1064850402
 20
-23.137337411
 10
82.0740813165
 20
-23.173586866
 10
82.0418464355
 20
-23.2078971971
 10
82.0098869354
 20
-23.2403221056
 10
81.9782966901
 20
-23.2709265596
 10
81.9469359667
 20
-23.299974723
 10
81.9157074105
 20
-23.3276664588
 10
81.8848425269
 20
-23.3538899807
 10
81.8546907128
 20
-23.378445515
 10
81.8254447527
 20
-23.4013137506
 10
81.7970614699
 20
-23.4226506529
 10
81.769544056
 20
-23.4425327351
 10
81.7432118642
 20
-23.460835475
 10
81.7178658251
 20
-23.4778115249
 10
81.692696589
 20
-23.494057126
 10
81.6677060375
 20
-23.5095911234
 10
81.6429349018
 20
-23.5244281407
 10
81.6175797513
 20
-23.5390804063
 10
81.591427609
 20
-23.5536441106
 10
81.56468211
 20
-23.5679757768
 10
81.5371354734
 20
-23.5821806184
 10
81.5087918778
 20
-23.5962275591
 10
81.4796323445
 20
-23.6100835226
 10
81.4494029774
 20
-23.6238271081
 10
81.4181467346
 20
-23.6373860138
 10
81.385799732
 20
-23.6507369449
 10
81.3519334517
 20
-23.6639939751
 10
81.3163225054
 20
-23.6771530921
 10
81.279156215
 20
-23.6900503069
 10
81.2406250302
 20
-23.7025438207
 10
81.2005925602
 20
-23.7146064391
 10
81.159181277
 20
-23.7261049302
 10
81.1169907907
 20
-23.7367871284
 10
81.0744486451
 20
-23.7465308884
 10
81.0311588169
 20
-23.7553940523
 10
80.9864956096
 20
-23.7633895804
 10
80.9404816654
 20
-23.7704168269
 10
80.8931270573
 20
-23.7763979032
 10
80.8437824966
 20
-23.7812817935
 10
80.7922481731
 20
-23.7849282352
 10
80.7387802433
 20
-23.7871641134
 10
80.683420034
 20
-23.7878314244
  0
LWPOLYLINE
  5
308
100
AcDbEntity
  8
RACCORDO
100
AcDbPolyline
 62
250
  6
CONTINUOUS
 90
61
 70
0
 10
84.2189554616
 20
-21.865663962
 10
84.2127307109
 20
-22.0556291752
 10
84.1967496519
 20
-22.2384132433
 10
84.1719995875
 20
-22.4138400098
 10
84.1388747051
 20
-22.581739551
 10
84.0990458181
 20
-22.7414104677
 10
84.0555719074
 20
-22.8917627739
 10
84.0110517697
 20
-23.031957763
 10
83.9652740552
 20
-23.1624395367
 10
83.916593564
 20
-23.2850248166
 10
83.8647226787
 20
-23.4005703658
 10
83.8106457175
 20
-23.5098418018
 10
83.7545693743
 20
-23.6136431745
 10
83.6969809542
 20
-23.7118967281
 10
83.6384507418
 20
-23.8043844644
 10
83.5790815712
 20
-23.8917882111
 10
83.5191426451
 20
-23.9743133803
 10
83.4589840043
 20
-24.0520316716
 10
83.3987329231
 20
-24.1253822715
 10
83.3386992222
 20
-24.1944306552
 10
83.2790931626
 20
-24.2593179627
 10
83.2197956122
 20
-24.3205846634
 10
83.1609866529
 20
-24.3783401771
 10
83.1028372853
 20
-24.432695269
 10
83.045189002
 20
-24.4841064198
 10
82.9880215242
 20
-24.5327532926
 10
82.9316201991
 20
-24.5786148662
 10
82.8760026814
 20
-24.6220278462
 10
82.8209754124
 20
-24.6632966623
 10
82.7664059993
 20
-24.7026747094
 10
82.7126691285
 20
-24.7401985405
 10
82.6605055162
 20
-24.7755661079
 10
82.6097523864
 20
-24.8089354074
 10
82.5594264783
 20
-24.8409738619
 10
82.5098224427
 20
-24.8717208713
 10
82.461078934
 20
-24.9010095766
 10
82.4119561091
 20
-24.9290771296
 10
82.3624207313
 20
-24.9556904761
 10
82.3129607726
 20
-24.9808841804
 10
82.2627813645
 20
-25.0053557468
 10
82.2115100715
 20
-25.0293612003
 10
82.1587777461
 20
-25.0529497814
 10
82.1039567782
 20
-25.0763299017
 10
82.0471686822
 20
-25.0993604118
 10
81.9884774974
 20
-25.12190025
 10
81.9271771748
 20
-25.144070657
 10
81.8629017612
 20
-25.1658128644
 10
81.7959665608
 20
-25.1869083873
 10
81.7266564688
 20
-25.2072254532
 10
81.6548224643
 20
-25.2264170987
 10
81.5805494888
 20
-25.2445852706
 10
81.5041007219
 20
-25.2623857213
 10
81.4253631265
 20
-25.2801501167
 10
81.3431749004
 20
-25.2974923405
 10
81.2568233221
 20
-25.3138059995
 10
81.1670600906
 20
-25.3285859488
 10
81.0747333642
 20
-25.341548988
 10
80.9790687128
 20
-25.352349196
 10
80.8795486498
 20
-25.3606969369
 10
80.7762461862
 20
-25.3663643845
 10
80.6691793538
 20
-25.3690374383
  0
LINE
  5
309
100
AcDbEntity
  8
RACCORDO
100
AcDbLine
 62
250
  6
CONTINUOUS
 10
102.1586589838
 20
39.5595976673
 11
102.1560066963
 21
39.7279142882
  0
LWPOLYLINE
  5
30A
100
AcDbEntity
  8
RACCORDO
100
AcDbPolyline
 62
250
  6
CONTINUOUS
 90
3
 70
0
 10
102.160920497
 20
39.2841666415
 10
102.1604067318
 20
39.3779592429
 10
102.1586589838
 20
39.5595976673
  0
LINE
  5
30B
100
AcDbEntity
  8
RACCORDO
100
AcDbLine
 62
250
  6
CONTINUOUS
 10
102.133420034
 20
-39.3560742224
 11
102.133420034
 21
-39.5847481313
  0
LINE
  5
30C
100
AcDbEntity
  8
RACCORDO
100
AcDbLine
 62
250
  6
CONTINUOUS
 10
102.133420034
 20
40.1865779598
 11
102.133420034
 21
40.4152518687
  0
LINE
  5
30D
100
AcDbEntity
  8
RACCORDO
100
AcDbLine
 62
250
  6
CONTINUOUS
 10
102.1609204793
 20
-38.4536628421
 11
102.1596510416
 21
-38.639539641
  0
LWPOLYLINE
  5
30E
100
AcDbEntity
  8
RACCORDO
100
AcDbPolyline
 62
250
  6
CONTINUOUS
 90
3
 70
0
 10
102.1596510416
 20
-38.639539641
 10
102.1574413713
 20
-38.8153045351
 10
102.1560074522
 20
-38.8974057332
  0
LINE
  5
30F
100
AcDbEntity
  8
RACCORDO
100
AcDbLine
 62
7
420
13828095
  6
CONTINUOUS
 10
105.1106364382
 20
4.1213226647
 11
105.0513880711
 21
3.9724860679
  0
LINE
  5
310
100
AcDbEntity
  8
RACCORDO
100
AcDbLine
 62
7
420
13828095
  6
CONTINUOUS
 10
105.0513880711
 20
-3.1419823305
 11
105.1106364382
 21
-3.2908189273
  0
LWPOLYLINE
  5
311
100
AcDbEntity
  8
RACCORDO
100
AcDbPolyline
 62
250
  6
CONTINUOUS
 90
28
 70
0
 10
104.0038973634
 20
37.4503308661
 10
103.9985538143
 20
37.5519737829
 10
103.9874664864
 20
37.6543149814
 10
103.9705037992
 20
37.756978953
 10
103.9475095223
 20
37.8598538151
 10
103.9184317102
 20
37.9623292419
 10
103.8834584422
 20
38.0633262769
 10
103.8427362216
 20
38.1623560651
 10
103.7963153511
 20
38.2592153268
 10
103.7444389595
 20
38.3533061299
 10
103.6873514078
 20
38.4442110268
 10
103.6251939707
 20
38.5317478297
 10
103.5581046612
 20
38.6156962001
 10
103.4862296486
 20
38.695830651
 10
103.4098545047
 20
38.7718183921
 10
103.3293405954
 20
38.843292472
 10
103.2450228556
 20
38.9099687005
 10
103.1571331642
 20
38.9717071756
 10
103.0658868228
 20
39.0283651312
 10
102.9714549505
 20
39.0798046467
 10
102.8742688525
 20
39.1257884855
 10
102.7749491631
 20
39.1660623782
 10
102.673703195
 20
39.2005758648
 10
102.571009781
 20
39.2292079335
 10
102.4679467039
 20
39.2517831601
 10
102.3651207548
 20
39.268357765
 10
102.2626528266
 20
39.2791030929
 10
102.1609204792
 20
39.2841665792
  0
LINE
  5
312
100
AcDbEntity
  8
RACCORDO
100
AcDbLine
 62
250
  6
CONTINUOUS
 10
104.0244803618
 20
36.8009230262
 11
104.0169731989
 21
37.0014067651
  0
LWPOLYLINE
  5
313
100
AcDbEntity
  8
RACCORDO
100
AcDbPolyline
 62
250
  6
CONTINUOUS
 90
9
 70
0
 10
102.1525449168
 20
39.8768757799
 10
102.1505482192
 20
39.9423972102
 10
102.1483977091
 20
40.0011426031
 10
102.1461126981
 20
40.0525843405
 10
102.1437137059
 20
40.0962604014
 10
102.1412222758
 20
40.1317785118
 10
102.1386607815
 20
40.158819668
 10
102.1360522257
 20
40.1771410013
 10
102.133420034
 20
40.1865779598
  0
LINE
  5
314
100
AcDbEntity
  8
RACCORDO
100
AcDbLine
 62
250
  6
CONTINUOUS
 10
104.0169731989
 20
37.0014067651
 11
104.0101199788
 21
37.2179057679
  0
LWPOLYLINE
  5
315
100
AcDbEntity
  8
RACCORDO
100
AcDbPolyline
 62
250
  6
CONTINUOUS
 90
28
 70
0
 10
104.9043443293
 20
37.4152518687
 10
104.9001463314
 20
37.5708708885
 10
104.8870332634
 20
37.727496455
 10
104.8647942751
 20
37.8846010292
 10
104.83316411
 20
38.0419938185
 10
104.7920374374
 20
38.1987231574
 10
104.7416817538
 20
38.3531335778
 10
104.6822998795
 20
38.5044566779
 10
104.6139692865
 20
38.6523705323
 10
104.5370747413
 20
38.7959758373
 10
104.4519933423
 20
38.9346190243
 10
104.3589400351
 20
39.0679948655
 10
104.258142211
 20
39.1957675887
 10
104.149842852
 20
39.3175780619
 10
104.0344801124
 20
39.4328850834
 10
103.9126211639
 20
39.5411227719
 10
103.7848088398
 20
39.641853307
 10
103.6514020153
 20
39.7348354769
 10
103.5127342756
 20
39.8198450867
 10
103.3690944533
 20
39.8966759189
 10
103.2211515496
 20
39.964941548
 10
103.0698535921
 20
40.0242411675
 10
102.9155421644
 20
40.0745014323
 10
102.7589707589
 20
40.1155360767
 10
102.6017935092
 20
40.1470883171
 10
102.4449605222
 20
40.1692727474
 10
102.288661144
 20
40.1823628906
 10
102.133420034
 20
40.1865779598
  0
LINE
  5
316
100
AcDbEntity
  8
RACCORDO
100
AcDbLine
 62
250
  6
CONTINUOUS
 10
104.0101199788
 20
37.2179057679
 11
104.0038976868
 21
37.4503309817
  0
LINE
  5
317
100
AcDbEntity
  8
RACCORDO
100
AcDbLine
 62
250
  6
CONTINUOUS
 10
102.1560066963
 20
39.7279142882
 11
102.1525449168
 21
39.8768757799
  0
LWPOLYLINE
  5
318
100
AcDbEntity
  8
RACCORDO
100
AcDbPolyline
 62
250
  6
CONTINUOUS
 90
5
 70
0
 10
104.0388977394
 20
36.4505035477
 10
104.0371859407
 20
36.5325836946
 10
104.0336162538
 20
36.6184066003
 10
104.0289540358
 20
36.7075071543
 10
104.0244803618
 20
36.8009230262
  0
LINE
  5
319
100
AcDbEntity
  8
RACCORDO
100
AcDbLine
 62
250
  6
CONTINUOUS
 10
104.0400208444
 20
36.2955623673
 11
104.0388977394
 21
36.4505035477
  0
LINE
  5
31A
100
AcDbEntity
  8
RACCORDO
100
AcDbLine
 62
250
  6
CONTINUOUS
 10
104.9043443292
 20
-36.5847481313
 11
104.8982512625
 21
-14.3995309353
  0
LINE
  5
31B
100
AcDbEntity
  8
RACCORDO
100
AcDbLine
 62
7
420
13828095
  6
CONTINUOUS
 10
105.0286044754
 20
3.4767636372
 11
105.0286044754
 21
-2.6462598998
  0
LINE
  5
31C
100
AcDbEntity
  8
RACCORDO
100
AcDbLine
 62
7
420
13828095
  6
CONTINUOUS
 10
105.133420034
 20
37.4152518687
 11
105.1334200339
 21
4.6170450954
  0
LINE
  5
31D
100
AcDbEntity
  8
RACCORDO
100
AcDbLine
 62
7
420
13828095
  6
CONTINUOUS
 10
105.1334200339
 20
-3.786541358
 11
105.133420034
 21
-36.5847481313
  0
LINE
  5
31E
100
AcDbEntity
  8
RACCORDO
100
AcDbLine
 62
250
  6
CONTINUOUS
 10
104.8982512625
 20
-14.3995309353
 11
104.8996156165
 21
26.0218020065
  0
LINE
  5
31F
100
AcDbEntity
  8
RACCORDO
100
AcDbLine
 62
250
  6
CONTINUOUS
 10
104.1507824861
 20
2.3311116974
 11
104.0400208444
 21
36.2955623673
  0
LINE
  5
320
100
AcDbEntity
  8
RACCORDO
100
AcDbLine
 62
250
  6
CONTINUOUS
 10
104.8996156165
 20
26.0218020065
 11
104.9033428408
 21
36.6922714426
  0
LINE
  5
321
100
AcDbEntity
  8
RACCORDO
100
AcDbLine
 62
250
  6
CONTINUOUS
 10
104.9033428408
 20
36.6922714426
 11
104.9043443292
 21
37.4152518687
  0
LINE
  5
322
100
AcDbEntity
  8
RACCORDO
100
AcDbLine
 62
250
  6
CONTINUOUS
 10
104.1324136741
 20
-22.3478161721
 11
104.1507824861
 21
2.3311116974
  0
LINE
  5
323
100
AcDbEntity
  8
RACCORDO
100
AcDbLine
 62
250
  6
CONTINUOUS
 10
104.081586533
 20
-30.7626776778
 11
104.1324136741
 21
-22.3478161721
  0
LINE
  5
324
100
AcDbEntity
  8
RACCORDO
100
AcDbLine
 62
250
  6
CONTINUOUS
 10
104.0390983304
 20
-35.6134946635
 11
104.081586533
 21
-30.7626776778
  0
LWPOLYLINE
  5
325
100
AcDbEntity
  8
RACCORDO
100
AcDbPolyline
 62
250
  6
CONTINUOUS
 90
10
 70
0
 10
102.1560074522
 20
-38.8974057332
 10
102.1525457204
 20
-39.0463653581
 10
102.1505489981
 20
-39.1118859271
 10
102.1483984346
 20
-39.170630526
 10
102.1461133448
 20
-39.2220715492
 10
102.1437142517
 20
-39.2657469872
 10
102.1412227024
 20
-39.3012645757
 10
102.1386610744
 20
-39.3283053191
 10
102.1360523748
 20
-39.3466263551
 10
102.1334200331
 20
-39.3560631361
  0
LINE
  5
326
100
AcDbEntity
  8
RACCORDO
100
AcDbLine
 62
250
  6
CONTINUOUS
 10
104.0038975004
 20
-36.6198271776
 11
104.0101511083
 21
-36.3860634463
  0
LINE
  5
327
100
AcDbEntity
  8
RACCORDO
100
AcDbLine
 62
250
  6
CONTINUOUS
 10
104.0101511083
 20
-36.3860634463
 11
104.0171076637
 21
-36.1673887008
  0
LWPOLYLINE
  5
328
100
AcDbEntity
  8
RACCORDO
100
AcDbPolyline
 62
250
  6
CONTINUOUS
 90
6
 70
0
 10
104.0171076637
 20
-36.1673887008
 10
104.0247540124
 20
-35.9637766965
 10
104.0292495573
 20
-35.8694961594
 10
104.0339092831
 20
-35.7802028418
 10
104.0374531252
 20
-35.6947964464
 10
104.0390983304
 20
-35.6134946635
  0
LINE
  5
329
100
AcDbEntity
  8
RACCORDO
100
AcDbLine
 62
7
  6
CONTINUOUS
 10
-121.5483387234
 20
-39.3458513355
 11
-116.9899163081
 21
-39.5847481313
  0
LWPOLYLINE
  5
32A
100
AcDbEntity
  8
0
100
AcDbPolyline
 62
7
  6
CONTINUOUS
 90
10
 70
0
 43
0.3500000006
 10
-122.2399176636
 20
54.0349613342
 10
-121.3827706604
 20
54.8921083374
 10
-121.1684861755
 20
55.7492462769
 10
-121.1684861755
 20
56.60639328
 10
-121.5970551453
 20
57.0349622498
 10
-122.2399176636
 20
57.0349622498
 10
-122.6684866333
 20
56.60639328
 10
-122.6684866333
 20
55.7492462769
 10
-122.2399176636
 20
55.3206773071
 10
-121.3113485413
 20
55.3206773071
  0
LINE
  5
32B
100
AcDbEntity
  8
RACCORDO
100
AcDbLine
 62
250
  6
CONTINUOUS
 10
-122.3031553954
 20
-36.6198271776
 11
-122.2894318511
 21
-36.6191670112
  0
LINE
  5
32C
100
AcDbEntity
  8
RACCORDO
100
AcDbLine
 62
250
  6
CONTINUOUS
 10
-122.2894318511
 20
-36.6191670112
 11
-122.1490858862
 21
-36.6135429998
  0
LINE
  5
32D
100
AcDbEntity
  8
RACCORDO
100
AcDbLine
 62
250
  6
CONTINUOUS
 10
-122.1490858862
 20
-36.6135429998
 11
-121.3609411412
 21
-36.5847481313
  0
LINE
  5
32E
100
AcDbEntity
  8
RACCORDO
100
AcDbLine
 62
250
  6
CONTINUOUS
 10
-121.3609411412
 20
-36.5847481313
 11
-116.9899163081
 21
-36.5847481313
  0
LWPOLYLINE
  5
32F
100
AcDbEntity
  8
RACCORDO
100
AcDbPolyline
 62
250
  6
CONTINUOUS
 90
6
 70
0
 10
-125.4134345691
 20
-21.87586859
 10
-125.3474116147
 20
-21.8737177222
 10
-125.2936238342
 20
-21.8716129822
 10
-125.2523016
 20
-21.8695633331
 10
-125.2236218948
 20
-21.8675775057
 10
-125.2077075534
 20
-21.865663962
  0
LINE
  5
330
100
AcDbEntity
  8
RACCORDO
100
AcDbLine
 62
250
  6
CONTINUOUS
 10
-125.5810037064
 20
-21.8802719287
 11
-125.4134345691
 21
-21.87586859
  0
LINE
  5
331
100
AcDbEntity
  8
RACCORDO
100
AcDbLine
 62
250
  6
CONTINUOUS
 10
-125.7934635351
 20
-21.8847481313
 11
-125.5810037064
 21
-21.8802719287
  0
LINE
  5
332
100
AcDbEntity
  8
RACCORDO
100
AcDbLine
 62
250
  6
CONTINUOUS
 10
-125.9899163081
 20
-21.8847481313
 11
-125.7934614897
 21
-21.8847481313
  0
LINE
  5
333
100
AcDbEntity
  8
RACCORDO
100
AcDbLine
 62
7
  6
CONTINUOUS
 10
-125.7238454067
 20
24.7066050979
 11
-125.7875020038
 21
24.6184736751
  0
LWPOLYLINE
  5
334
100
AcDbEntity
  8
RACCORDO
100
AcDbPolyline
 62
7
  6
CONTINUOUS
 90
3
 70
0
 10
-125.4928276486
 20
25.099674352
 10
-125.5466640221
 20
24.9949660892
 10
-125.6030997363
 20
24.8949374306
  0
LWPOLYLINE
  5
335
100
AcDbEntity
  8
RACCORDO
100
AcDbPolyline
 62
250
  6
CONTINUOUS
 90
9
 70
0
 10
-125.6044158575
 20
24.8903444205
 10
-125.5777897025
 20
24.9358722519
 10
-125.4884119532
 20
25.1039797666
 10
-125.4098782744
 20
25.2774186533
 10
-125.3425049941
 20
25.4554903129
 10
-125.2865634868
 20
25.6374774856
 10
-125.2422790811
 20
25.8226471404
 10
-125.2098301513
 20
26.0102534275
 10
-125.1893473994
 20
26.1995406823
  0
LINE
  5
336
100
AcDbEntity
  8
RACCORDO
100
AcDbLine
 62
7
  6
CONTINUOUS
 10
-125.6024096244
 20
24.8961084495
 11
-125.6616707595
 21
24.799716674
  0
LINE
  5
337
100
AcDbEntity
  8
RACCORDO
100
AcDbLine
 62
7
  6
CONTINUOUS
 10
-125.6616707595
 20
24.799716674
 11
-125.7238454067
 21
24.7066050979
  0
LWPOLYLINE
  5
338
100
AcDbEntity
  8
RACCORDO
100
AcDbPolyline
 62
7
  6
CONTINUOUS
 90
3
 70
0
 10
-125.787595155
 20
24.6183356362
 10
-125.6776515151
 20
24.7737732341
 10
-125.6044158575
 20
24.8903444205
  0
LINE
  5
339
100
AcDbEntity
  8
RACCORDO
100
AcDbLine
 62
7
  6
CONTINUOUS
 10
-125.7875565975
 20
-23.7878972473
 11
-125.7234717035
 21
-23.8766392734
  0
LWPOLYLINE
  5
33A
100
AcDbEntity
  8
RACCORDO
100
AcDbPolyline
 62
7
  6
CONTINUOUS
 90
4
 70
0
 10
-125.7875943687
 20
-23.7878313044
 10
-125.6776507075
 20
-23.9432690005
 10
-125.5777888535
 20
-24.105368102
 10
-125.5098692406
 20
-24.2306933207
  0
LINE
  5
33B
100
AcDbEntity
  8
RACCORDO
100
AcDbLine
 62
7
  6
CONTINUOUS
 10
-125.7234717035
 20
-23.8766392734
 11
-125.661670759
 21
-23.9692129374
  0
LWPOLYLINE
  5
33C
100
AcDbEntity
  8
RACCORDO
100
AcDbPolyline
 62
7
  6
CONTINUOUS
 90
12
 70
0
 10
-125.6024096239
 20
-24.065604713
 10
-125.546094286
 20
-24.1655195877
 10
-125.4928276484
 20
-24.2691706152
 10
-125.4425136876
 20
-24.3773321447
 10
-125.3953722323
 20
-24.4903721758
 10
-125.3519824289
 20
-24.6078454414
 10
-125.312852477
 20
-24.7293014377
 10
-125.2783698315
 20
-24.8545002598
 10
-125.2488581109
 20
-24.9833990397
 10
-125.2246854862
 20
-25.1157858187
 10
-125.2062116665
 20
-25.2514401139
 10
-125.1942096823
 20
-25.3838999491
  0
LWPOLYLINE
  5
33D
100
AcDbEntity
  8
RACCORDO
100
AcDbPolyline
 62
7
  6
CONTINUOUS
 90
14
 70
0
 10
-122.4263751474
 20
-38.7138816746
 10
-122.3905337463
 20
-38.794262223
 10
-122.3477660315
 20
-38.871176472
 10
-122.2984042536
 20
-38.944029248
 10
-122.2428317133
 20
-39.0122569179
 10
-122.1814798961
 20
-39.0753316827
 10
-122.1148244578
 20
-39.1327662904
 10
-122.0433814356
 20
-39.1841174937
 10
-121.9677033076
 20
-39.228989144
 10
-121.8883773473
 20
-39.2670339337
 10
-121.806020696
 20
-39.2979573501
 10
-121.7212722396
 20
-39.3215214594
 10
-121.6347872945
 20
-39.3375459531
 10
-121.5483564005
 20
-39.3458504091
  0
LINE
  5
33E
100
AcDbEntity
  8
SUPERFICI
100
AcDbLine
 62
7
  6
CONTINUOUS
 10
-123.3466720445
 20
36.7100225288
 11
-123.4389332337
 21
36.3857299587
  0
LINE
  5
33F
100
AcDbEntity
  8
SUPERFICI
100
AcDbLine
 62
7
  6
CONTINUOUS
 10
-123.249050774
 20
37.0438383122
 11
-123.3466720445
 21
36.7100225288
  0
LINE
  5
340
100
AcDbEntity
  8
SUPERFICI
100
AcDbLine
 62
7
  6
CONTINUOUS
 10
-123.1457023044
 20
37.3874645355
 11
-123.249050774
 21
37.0438383122
  0
LINE
  5
341
100
AcDbEntity
  8
SUPERFICI
100
AcDbLine
 62
7
  6
CONTINUOUS
 10
-123.036349828
 20
37.7408121698
 11
-123.1457023044
 21
37.3874645355
  0
LWPOLYLINE
  5
342
100
AcDbEntity
  8
SUPERFICI
100
AcDbPolyline
 62
7
  6
CONTINUOUS
 90
8
 70
0
 10
-122.535678494
 20
39.2408238879
 10
-122.604058795
 20
39.0463465162
 10
-122.6707351444
 20
38.8537317524
 10
-122.7357207089
 20
38.6630796361
 10
-122.7990569605
 20
38.4744047666
 10
-122.8607616197
 20
38.2877885536
 10
-122.9208635728
 20
38.1032766518
 10
-123.036349828
 20
37.7408121698
  0
LINE
  5
343
100
AcDbEntity
  8
SUPERFICI
100
AcDbLine
 62
7
  6
CONTINUOUS
 10
-122.4361786505
 20
39.5184588337
 11
-122.535678494
 21
39.2408238879
  0
LWPOLYLINE
  5
344
100
AcDbEntity
  8
RACCORDO
100
AcDbPolyline
 62
250
  6
CONTINUOUS
 90
8
 70
0
 10
-125.5098692406
 20
-24.2306933207
 10
-125.4884110423
 20
-24.2734756869
 10
-125.4098772804
 20
-24.4469146316
 10
-125.3425038952
 20
-24.6249863381
 10
-125.2865622614
 20
-24.806973548
 10
-125.2422777072
 20
-24.9921432318
 10
-125.2098286071
 20
-25.1797495409
 10
-125.1893456635
 20
-25.3690368125
  0
LINE
  5
345
100
AcDbEntity
  8
RACCORDO
100
AcDbLine
 62
7
  6
CONTINUOUS
 10
-122.4361813624
 20
-38.6879516543
 11
-122.4263751474
 21
-38.7138816746
  0
LWPOLYLINE
  5
346
100
AcDbEntity
  8
SUPERFICI
100
AcDbPolyline
 62
7
  6
CONTINUOUS
 90
8
 70
0
 10
-122.9317459381
 20
-37.2390680916
 10
-122.8708197518
 20
-37.4265974538
 10
-122.8082379236
 20
-37.6163118419
 10
-122.7439684563
 20
-37.8081681991
 10
-122.6779909869
 20
-38.0020857733
 10
-122.610261496
 20
-38.1980500567
 10
-122.5407662108
 20
-38.3959550672
 10
-122.436178608
 20
-38.6879552136
  0
LINE
  5
347
100
AcDbEntity
  8
RACCORDO
100
AcDbLine
 62
250
  6
CONTINUOUS
 10
-122.4361899207
 20
-38.6879280389
 11
-122.4362022155
 21
-38.6878898318
  0
LINE
  5
348
100
AcDbEntity
  8
SUPERFICI
100
AcDbLine
 62
7
  6
CONTINUOUS
 10
-123.0487192841
 20
-36.8708460694
 11
-122.9317459381
 21
-37.2390680916
  0
LINE
  5
349
100
AcDbEntity
  8
SUPERFICI
100
AcDbLine
 62
7
  6
CONTINUOUS
 10
-123.1593416318
 20
-36.5121636851
 11
-123.0487192841
 21
-36.8708460694
  0
LINE
  5
34A
100
AcDbEntity
  8
SUPERFICI
100
AcDbLine
 62
7
  6
CONTINUOUS
 10
-123.2637679052
 20
-36.1635984717
 11
-123.1593416318
 21
-36.5121636851
  0
LINE
  5
34B
100
AcDbEntity
  8
SUPERFICI
100
AcDbLine
 62
7
  6
CONTINUOUS
 10
-123.3623030111
 20
-35.8251947299
 11
-123.2637679052
 21
-36.1635984717
  0
LINE
  5
34C
100
AcDbEntity
  8
SUPERFICI
100
AcDbLine
 62
7
  6
CONTINUOUS
 10
-124.4187583372
 20
32.1942558287
 11
-124.4652309579
 21
31.9454937514
  0
LINE
  5
34D
100
AcDbEntity
  8
SUPERFICI
100
AcDbLine
 62
7
  6
CONTINUOUS
 10
-124.3691418964
 20
32.4527643022
 11
-124.4187583372
 21
32.1942558287
  0
LINE
  5
34E
100
AcDbEntity
  8
SUPERFICI
100
AcDbLine
 62
7
  6
CONTINUOUS
 10
-124.3160438654
 20
32.7219075727
 11
-124.3691418964
 21
32.4527643022
  0
LINE
  5
34F
100
AcDbEntity
  8
SUPERFICI
100
AcDbLine
 62
7
  6
CONTINUOUS
 10
-124.2591249388
 20
33.0024220917
 11
-124.3160438654
 21
32.7219075727
  0
LINE
  5
350
100
AcDbEntity
  8
SUPERFICI
100
AcDbLine
 62
7
  6
CONTINUOUS
 10
-124.1982590555
 20
33.2938779112
 11
-124.2591249388
 21
33.0024220917
  0
LINE
  5
351
100
AcDbEntity
  8
SUPERFICI
100
AcDbLine
 62
7
  6
CONTINUOUS
 10
-124.1334789757
 20
33.5950868935
 11
-124.1982590555
 21
33.2938779112
  0
LINE
  5
352
100
AcDbEntity
  8
SUPERFICI
100
AcDbLine
 62
7
  6
CONTINUOUS
 10
-124.0648206597
 20
33.9049619744
 11
-124.1334789757
 21
33.5950868935
  0
LINE
  5
353
100
AcDbEntity
  8
SUPERFICI
100
AcDbLine
 62
7
  6
CONTINUOUS
 10
-124.0167711367
 20
34.1164814712
 11
-124.0648206597
 21
33.9049619744
  0
LINE
  5
354
100
AcDbEntity
  8
SUPERFICI
100
AcDbLine
 62
7
  6
CONTINUOUS
 10
-123.966184295
 20
34.334705142
 11
-124.0167711367
 21
34.1164814712
  0
LINE
  5
355
100
AcDbEntity
  8
SUPERFICI
100
AcDbLine
 62
7
  6
CONTINUOUS
 10
-123.9125652136
 20
34.5612748916
 11
-123.966184295
 21
34.334705142
  0
LINE
  5
356
100
AcDbEntity
  8
SUPERFICI
100
AcDbLine
 62
7
  6
CONTINUOUS
 10
-123.855229164
 20
34.7984536391
 11
-123.9125652136
 21
34.5612748916
  0
LINE
  5
357
100
AcDbEntity
  8
SUPERFICI
100
AcDbLine
 62
7
  6
CONTINUOUS
 10
-123.7927805227
 20
35.0511253101
 11
-123.855229164
 21
34.7984536391
  0
LINE
  5
358
100
AcDbEntity
  8
SUPERFICI
100
AcDbLine
 62
7
  6
CONTINUOUS
 10
-123.7244632689
 20
35.3211768946
 11
-123.7927805227
 21
35.0511253101
  0
LINE
  5
359
100
AcDbEntity
  8
SUPERFICI
100
AcDbLine
 62
7
  6
CONTINUOUS
 10
-123.6491873569
 20
35.6114828024
 11
-123.7244632689
 21
35.3211768946
  0
LINE
  5
35A
100
AcDbEntity
  8
SUPERFICI
100
AcDbLine
 62
7
  6
CONTINUOUS
 10
-123.56863177
 20
35.9142350076
 11
-123.6491873569
 21
35.6114828024
  0
LWPOLYLINE
  5
35B
100
AcDbEntity
  8
RACCORDO
100
AcDbPolyline
 62
7
  6
CONTINUOUS
 90
6
 70
0
 10
-125.2783698315
 20
25.685003997
 10
-125.3128524771
 20
25.5598051749
 10
-125.351982429
 20
25.4383491786
 10
-125.3953722324
 20
25.320875913
 10
-125.4425136877
 20
25.2078358819
 10
-125.4928276486
 20
25.099674352
  0
LWPOLYLINE
  5
35C
100
AcDbEntity
  8
SUPERFICI
100
AcDbPolyline
 62
7
  6
CONTINUOUS
 90
3
 70
0
 10
-123.4389332337
 20
36.3857299587
 10
-123.4832428716
 20
36.2267713281
 10
-123.56863177
 20
35.9142350076
  0
LWPOLYLINE
  5
35D
100
AcDbEntity
  8
0
100
AcDbPolyline
 62
7
  6
CONTINUOUS
 90
13
 70
0
 43
0.3500000006
 10
-136.4542064209
 20
-1.5133199158
 10
-136.6684909058
 20
-1.7990333176
 10
-137.3113443604
 20
-1.7990333176
 10
-137.7399133301
 20
-1.5133199158
 10
-137.7399133301
 20
-0.8704619293
 10
-137.3113443604
 20
-0.5847485275
 10
-136.6684909058
 20
-0.5847485275
 10
-136.4542064209
 20
-0.8704619293
 10
-136.0256283875
 20
-0.4418906937
 10
-135.168490448
 20
-0.4418906937
 10
-134.7399124146
 20
-0.8704619293
 10
-134.7399124146
 20
-1.5133199158
 10
-135.168490448
 20
-1.9418911514
  0
LINE
  5
35E
100
AcDbEntity
  8
SUPERFICI
100
AcDbLine
 62
7
  6
CONTINUOUS
 10
-123.4553748896
 20
-35.4964922728
 11
-123.3623030111
 21
-35.8251947299
  0
LINE
  5
35F
100
AcDbEntity
  8
SUPERFICI
100
AcDbLine
 62
7
  6
CONTINUOUS
 10
-123.5436624837
 20
-35.1759907239
 11
-123.4553748896
 21
-35.4964922728
  0
LINE
  5
360
100
AcDbEntity
  8
SUPERFICI
100
AcDbLine
 62
7
  6
CONTINUOUS
 10
-123.6271969928
 20
-34.864416234
 11
-123.5436624837
 21
-35.1759907239
  0
LINE
  5
361
100
AcDbEntity
  8
SUPERFICI
100
AcDbLine
 62
7
  6
CONTINUOUS
 10
-123.705454897
 20
-34.5646799984
 11
-123.6271969928
 21
-34.864416234
  0
LINE
  5
362
100
AcDbEntity
  8
SUPERFICI
100
AcDbLine
 62
7
  6
CONTINUOUS
 10
-123.7768820376
 20
-34.284046625
 11
-123.705454897
 21
-34.5646799984
  0
LINE
  5
363
100
AcDbEntity
  8
SUPERFICI
100
AcDbLine
 62
7
  6
CONTINUOUS
 10
-123.8416423803
 20
-34.0234133306
 11
-123.7768820376
 21
-34.284046625
  0
LINE
  5
364
100
AcDbEntity
  8
SUPERFICI
100
AcDbLine
 62
7
  6
CONTINUOUS
 10
-123.9010888677
 20
-33.7786570739
 11
-123.8416423803
 21
-34.0234133306
  0
LINE
  5
365
100
AcDbEntity
  8
SUPERFICI
100
AcDbLine
 62
7
  6
CONTINUOUS
 10
-123.9564425525
 20
-33.5457200731
 11
-123.9010888677
 21
-33.7786570739
  0
LINE
  5
366
100
AcDbEntity
  8
SUPERFICI
100
AcDbLine
 62
7
  6
CONTINUOUS
 10
-124.0083952848
 20
-33.3224197464
 11
-123.9564425525
 21
-33.5457200731
  0
LINE
  5
367
100
AcDbEntity
  8
SUPERFICI
100
AcDbLine
 62
7
  6
CONTINUOUS
 10
-124.0577280663
 20
-33.1059494649
 11
-124.0083952848
 21
-33.3224197464
  0
LINE
  5
368
100
AcDbEntity
  8
SUPERFICI
100
AcDbLine
 62
7
  6
CONTINUOUS
 10
-124.1280107498
 20
-32.7896063013
 11
-124.0577280663
 21
-33.1059494649
  0
LINE
  5
369
100
AcDbEntity
  8
SUPERFICI
100
AcDbLine
 62
7
  6
CONTINUOUS
 10
-124.1942608821
 20
-32.482226148
 11
-124.1280107498
 21
-32.7896063013
  0
LINE
  5
36A
100
AcDbEntity
  8
SUPERFICI
100
AcDbLine
 62
7
  6
CONTINUOUS
 10
-124.2564626491
 20
-32.1848461981
 11
-124.1942608821
 21
-32.482226148
  0
LINE
  5
36B
100
AcDbEntity
  8
SUPERFICI
100
AcDbLine
 62
7
  6
CONTINUOUS
 10
-124.3145642755
 20
-31.8987979075
 11
-124.2564626491
 21
-32.1848461981
  0
LINE
  5
36C
100
AcDbEntity
  8
SUPERFICI
100
AcDbLine
 62
7
  6
CONTINUOUS
 10
-124.3687107364
 20
-31.6244765072
 11
-124.3145642755
 21
-31.8987979075
  0
LINE
  5
36D
100
AcDbEntity
  8
SUPERFICI
100
AcDbLine
 62
7
  6
CONTINUOUS
 10
-124.4192380613
 20
-31.3612178465
 11
-124.3687107364
 21
-31.6244765072
  0
LINE
  5
36E
100
AcDbEntity
  8
SUPERFICI
100
AcDbLine
 62
7
  6
CONTINUOUS
 10
-125.0399441036
 20
-27.134278473
 11
-125.0128247127
 21
-27.3862529831
  0
LINE
  5
36F
100
AcDbEntity
  8
SUPERFICI
100
AcDbLine
 62
7
  6
CONTINUOUS
 10
-125.0691842772
 20
-26.8498275862
 11
-125.0399441036
 21
-27.134278473
  0
LINE
  5
370
100
AcDbEntity
  8
SUPERFICI
100
AcDbLine
 62
7
  6
CONTINUOUS
 10
-125.0936736083
 20
-26.6006667469
 11
-125.0691842772
 21
-26.8498275862
  0
LINE
  5
371
100
AcDbEntity
  8
SUPERFICI
100
AcDbLine
 62
7
  6
CONTINUOUS
 10
-125.1204957417
 20
-26.3122901194
 11
-125.0936736083
 21
-26.6006667469
  0
LINE
  5
372
100
AcDbEntity
  8
SUPERFICI
100
AcDbLine
 62
7
  6
CONTINUOUS
 10
-125.1415649664
 20
-26.0711041652
 11
-125.1204957417
 21
-26.3122901194
  0
LINE
  5
373
100
AcDbEntity
  8
SUPERFICI
100
AcDbLine
 62
7
  6
CONTINUOUS
 10
-125.1653352185
 20
-25.7787012521
 11
-125.1415649664
 21
-26.0711041652
  0
LINE
  5
374
100
AcDbEntity
  8
SUPERFICI
100
AcDbLine
 62
7
  6
CONTINUOUS
 10
-125.1530404455
 20
26.763482308
 11
-125.1780481894
 21
26.4417040671
  0
LINE
  5
375
100
AcDbEntity
  8
SUPERFICI
100
AcDbLine
 62
7
  6
CONTINUOUS
 10
-125.1307482191
 20
27.0272708146
 11
-125.1530404455
 21
26.763482308
  0
LWPOLYLINE
  5
376
100
AcDbEntity
  8
RACCORDO
100
AcDbPolyline
 62
7
  6
CONTINUOUS
 90
5
 70
0
 10
-125.1942097697
 20
26.2144024989
 10
-125.2062240694
 20
26.0818341203
 10
-125.2247113203
 20
25.9461275784
 10
-125.2489020303
 20
25.8136894148
 10
-125.2784361021
 20
25.6847412674
  0
LINE
  5
377
100
AcDbEntity
  8
SUPERFICI
100
AcDbLine
 62
7
  6
CONTINUOUS
 10
-125.1108010313
 20
27.2491736262
 11
-125.1307482191
 21
27.0272708146
  0
LINE
  5
378
100
AcDbEntity
  8
SUPERFICI
100
AcDbLine
 62
7
  6
CONTINUOUS
 10
-125.0864023617
 20
27.5064041382
 11
-125.1108010313
 21
27.2491736262
  0
LINE
  5
379
100
AcDbEntity
  8
SUPERFICI
100
AcDbLine
 62
7
  6
CONTINUOUS
 10
-125.056147142
 20
27.8087970589
 11
-125.0864023617
 21
27.5064041382
  0
LINE
  5
37A
100
AcDbEntity
  8
SUPERFICI
100
AcDbLine
 62
7
  6
CONTINUOUS
 10
-125.0293272231
 20
28.064743237
 11
-125.056147142
 21
27.8087970589
  0
LINE
  5
37B
100
AcDbEntity
  8
SUPERFICI
100
AcDbLine
 62
7
  6
CONTINUOUS
 10
-125.0015017625
 20
28.3188014837
 11
-125.0293272231
 21
28.064743237
  0
LINE
  5
37C
100
AcDbEntity
  8
SUPERFICI
100
AcDbLine
 62
7
  6
CONTINUOUS
 10
-124.974233061
 20
28.5575353303
 11
-125.0015017625
 21
28.3188014837
  0
LINE
  5
37D
100
AcDbEntity
  8
RACCORDO
100
AcDbLine
 62
7
  6
CONTINUOUS
 10
-125.0038865471
 20
28.2958184828
 11
-124.9150682105
 21
29.0469395142
  0
LINE
  5
37E
100
AcDbEntity
  8
SUPERFICI
100
AcDbLine
 62
7
  6
CONTINUOUS
 10
-124.9545293312
 20
28.7243404805
 11
-124.974233061
 21
28.5575353303
  0
LWPOLYLINE
  5
37F
100
AcDbEntity
  8
RACCORDO
100
AcDbPolyline
 62
7
  6
CONTINUOUS
 90
3
 70
0
 10
-124.9150682105
 20
29.0469395142
 10
-124.7669847029
 20
30.129295647
 10
-124.7637495298
 20
30.1495493197
  0
LWPOLYLINE
  5
380
100
AcDbEntity
  8
RACCORDO
100
AcDbPolyline
 62
250
  6
CONTINUOUS
 90
16
 70
0
 10
-122.2959184556
 20
39.2841666415
 10
-122.2823492045
 20
39.3779592429
 10
-122.2599654716
 20
39.4700452732
 10
-122.228968295
 20
39.5595976673
 10
-122.1896360742
 20
39.6458121156
 10
-122.1423220693
 20
39.7279142882
 10
-122.0874512283
 20
39.8051667892
 10
-122.0255163706
 20
39.8768757799
 10
-121.9570737603
 20
39.9423972102
 10
-121.882738111
 20
40.0011426031
 10
-121.803177064
 20
40.0525843405
 10
-121.7191051921
 20
40.0962604014
 10
-121.631277582
 20
40.1317785118
 10
-121.5404830522
 20
40.158819668
 10
-121.4475370687
 20
40.1771410013
 10
-121.3532744203
 20
40.1865779598
  0
LINE
  5
381
100
AcDbEntity
  8
SUPERFICI
100
AcDbLine
 62
7
  6
CONTINUOUS
 10
-124.7833065123
 20
30.0163331034
 11
-124.8127901469
 21
29.8106685298
  0
LINE
  5
382
100
AcDbEntity
  8
SUPERFICI
100
AcDbLine
 62
7
  6
CONTINUOUS
 10
-124.7327524894
 20
30.3559440613
 11
-124.7833065123
 21
30.0163331034
  0
LINE
  5
383
100
AcDbEntity
  8
SUPERFICI
100
AcDbLine
 62
7
  6
CONTINUOUS
 10
-124.6930379145
 20
30.6123816946
 11
-124.7327524894
 21
30.3559440613
  0
LINE
  5
384
100
AcDbEntity
  8
SUPERFICI
100
AcDbLine
 62
7
  6
CONTINUOUS
 10
-124.6553826317
 20
30.8479800417
 11
-124.6930379145
 21
30.6123816946
  0
LINE
  5
385
100
AcDbEntity
  8
SUPERFICI
100
AcDbLine
 62
7
  6
CONTINUOUS
 10
-124.6119572523
 20
31.111396377
 11
-124.6553826317
 21
30.8479800417
  0
LINE
  5
386
100
AcDbEntity
  8
SUPERFICI
100
AcDbLine
 62
7
  6
CONTINUOUS
 10
-124.5629631413
 20
31.3989145879
 11
-124.6119572523
 21
31.111396377
  0
LINE
  5
387
100
AcDbEntity
  8
SUPERFICI
100
AcDbLine
 62
7
  6
CONTINUOUS
 10
-124.5228498189
 20
31.6273478968
 11
-124.5629631413
 21
31.3989145879
  0
LWPOLYLINE
  5
388
100
AcDbEntity
  8
SUPERFICI
100
AcDbPolyline
 62
7
  6
CONTINUOUS
 90
3
 70
0
 10
-124.4652309579
 20
31.9454937514
 10
-124.4800847103
 20
31.864545094
 10
-124.5228498189
 20
31.6273478968
  0
LINE
  5
389
100
AcDbEntity
  8
SUPERFICI
100
AcDbLine
 62
7
  6
CONTINUOUS
 10
-124.4665079438
 20
-31.1080589472
 11
-124.4192380613
 21
-31.3612178465
  0
LINE
  5
38A
100
AcDbEntity
  8
SUPERFICI
100
AcDbLine
 62
7
  6
CONTINUOUS
 10
-124.5108705371
 20
-30.8639247794
 11
-124.4665079438
 21
-31.1080589472
  0
LINE
  5
38B
100
AcDbEntity
  8
SUPERFICI
100
AcDbLine
 62
7
  6
CONTINUOUS
 10
-124.5524879489
 20
-30.6286453679
 11
-124.5108705371
 21
-30.8639247794
  0
LINE
  5
38C
100
AcDbEntity
  8
SUPERFICI
100
AcDbLine
 62
7
  6
CONTINUOUS
 10
-124.6034054635
 20
-30.3317900475
 11
-124.5524879489
 21
-30.6286453679
  0
LINE
  5
38D
100
AcDbEntity
  8
SUPERFICI
100
AcDbLine
 62
7
  6
CONTINUOUS
 10
-124.6486352728
 20
-30.0589680188
 11
-124.6034054635
 21
-30.3317900475
  0
LINE
  5
38E
100
AcDbEntity
  8
SUPERFICI
100
AcDbLine
 62
7
  6
CONTINUOUS
 10
-124.6878869502
 20
-29.8145236891
 11
-124.6486352728
 21
-30.0589680188
  0
LINE
  5
38F
100
AcDbEntity
  8
SUPERFICI
100
AcDbLine
 62
7
  6
CONTINUOUS
 10
-124.729120817
 20
-29.5492506311
 11
-124.6878869502
 21
-29.8145236891
  0
LINE
  5
390
100
AcDbEntity
  8
SUPERFICI
100
AcDbLine
 62
7
  6
CONTINUOUS
 10
-124.7634332779
 20
-29.3212079761
 11
-124.729120817
 21
-29.5492506311
  0
LWPOLYLINE
  5
391
100
AcDbEntity
  8
RACCORDO
100
AcDbPolyline
 62
250
  6
CONTINUOUS
 90
16
 70
0
 10
-122.2959178144
 20
-38.4536628421
 10
-122.2823479094
 20
-38.5474545501
 10
-122.2599636262
 20
-38.639539641
 10
-122.228966006
 20
-38.7290910667
 10
-122.189633449
 20
-38.8153045351
 10
-122.1423192145
 20
-38.8974057332
 10
-122.0874482481
 20
-38.9746572818
 10
-122.0255133648
 20
-39.0463653581
 10
-121.9570708232
 20
-39.1118859271
 10
-121.8827353294
 20
-39.170630526
 10
-121.8031745161
 20
-39.2220715492
 10
-121.7191029464
 20
-39.2657469872
 10
-121.6312756962
 20
-39.3012645757
 10
-121.5404815723
 20
-39.3283053191
 10
-121.447536028
 20
-39.3466263551
 10
-121.3532738393
 20
-39.3560631361
  0
LINE
  5
392
100
AcDbEntity
  8
SUPERFICI
100
AcDbLine
 62
7
  6
CONTINUOUS
 10
-124.8005320509
 20
-29.066394119
 11
-124.7634332771
 21
-29.3212079814
  0
LINE
  5
393
100
AcDbEntity
  8
SUPERFICI
100
AcDbLine
 62
7
  6
CONTINUOUS
 10
-124.8138473109
 20
-28.9726792606
 11
-124.8005320509
 21
-29.066394119
  0
LWPOLYLINE
  5
394
100
AcDbEntity
  8
RACCORDO
100
AcDbPolyline
 62
7
  6
CONTINUOUS
 90
3
 70
0
 10
-124.9150681659
 20
-28.2164361308
 10
-124.7669846315
 20
-29.2987923926
 10
-124.7637923431
 20
-29.3187775855
  0
LINE
  5
395
100
AcDbEntity
  8
RACCORDO
100
AcDbLine
 62
7
  6
CONTINUOUS
 10
-124.9598933899
 20
-27.8373571171
 11
-124.9150681659
 21
-28.2164361308
  0
LINE
  5
396
100
AcDbEntity
  8
SUPERFICI
100
AcDbLine
 62
7
  6
CONTINUOUS
 10
-124.9903274595
 20
-27.587289385
 11
-124.9612419551
 21
-27.8375165818
  0
LINE
  5
397
100
AcDbEntity
  8
SUPERFICI
100
AcDbLine
 62
7
  6
CONTINUOUS
 10
-125.0128247127
 20
-27.3862529831
 11
-124.9903274595
 21
-27.587289385
  0
LWPOLYLINE
  5
398
100
AcDbEntity
  8
RACCORDO
100
AcDbPolyline
 62
250
  6
CONTINUOUS
 90
15
 70
0
 10
-122.4362022155
 20
-38.6878898318
 10
-122.436244393
 20
-38.6873486847
 10
-122.4361454792
 20
-38.6864520646
 10
-122.4359064556
 20
-38.6851613656
 10
-122.4355193632
 20
-38.6835151615
 10
-122.4349650705
 20
-38.6815939982
 10
-122.4342603205
 20
-38.6793879311
 10
-122.4334258037
 20
-38.6769033576
 10
-122.4324457197
 20
-38.6742458565
 10
-122.4313424007
 20
-38.6714188095
 10
-122.4301448046
 20
-38.6684149088
 10
-122.4288430379
 20
-38.6653245699
 10
-122.4274572645
 20
-38.6621571097
 10
-122.4260125417
 20
-38.6589002329
 10
-122.42450255
 20
-38.6556127271
  0
LINE
  5
399
100
AcDbEntity
  8
SUPERFICI
100
AcDbLine
 62
7
  6
CONTINUOUS
 10
-125.1904813971
 20
-25.4379695321
 11
-125.1653352185
 21
-25.7787012521
  0
LINE
  5
39A
100
AcDbEntity
  8
SUPERFICI
100
AcDbLine
 62
7
  6
CONTINUOUS
 10
-125.1942152333
 20
-25.3838381853
 11
-125.1904813971
 21
-25.4379695321
  0
LINE
  5
39B
100
AcDbEntity
  8
RACCORDO
100
AcDbLine
 62
7
  6
CONTINUOUS
 10
-125.1942123628
 20
-25.3838586599
 11
-125.1942098903
 21
-25.3838969033
  0
LWPOLYLINE
  5
39C
100
AcDbEntity
  8
RACCORDO
100
AcDbPolyline
 62
250
  6
CONTINUOUS
 90
6
 70
0
 10
-125.1897900674
 20
-25.3285859488
 10
-125.1892962857
 20
-25.341548988
 10
-125.1890012175
 20
-25.352349196
 10
-125.1889170141
 20
-25.3606969369
 10
-125.1890323895
 20
-25.3663643845
 10
-125.1893538733
 20
-25.3690374383
  0
LWPOLYLINE
  5
39D
100
AcDbEntity
  8
RACCORDO
100
AcDbPolyline
 62
250
  6
CONTINUOUS
 90
5
 70
0
 10
-125.1944649243
 20
-25.2072254532
 10
-125.1939794655
 20
-25.2264170987
 10
-125.1933957584
 20
-25.2445852706
 10
-125.1927026648
 20
-25.2623857213
 10
-125.1897900674
 20
-25.3285859488
  0
LINE
  5
39E
100
AcDbEntity
  8
RACCORDO
100
AcDbLine
 62
250
  6
CONTINUOUS
 10
-125.7883275495
 20
-23.7367871284
 11
-125.787709227
 21
-23.7633895804
  0
LINE
  5
39F
100
AcDbEntity
  8
RACCORDO
100
AcDbLine
 62
250
  6
CONTINUOUS
 10
-125.1952382105
 20
-25.1658128644
 11
-125.1944649243
 21
-25.2072254532
  0
LINE
  5
3A0
100
AcDbEntity
  8
RACCORDO
100
AcDbLine
 62
250
  6
CONTINUOUS
 10
-125.7889561038
 20
-23.7025438207
 11
-125.7883275495
 21
-23.7367871284
  0
LWPOLYLINE
  5
3A1
100
AcDbEntity
  8
RACCORDO
100
AcDbPolyline
 62
250
  6
CONTINUOUS
 90
6
 70
0
 10
-125.787709227
 20
-23.7633895804
 10
-125.7874773372
 20
-23.7763979032
 10
-125.7874296146
 20
-23.7812817935
 10
-125.7874351909
 20
-23.7849282352
 10
-125.7874901678
 20
-23.7871641134
 10
-125.7875945275
 20
-23.7878314244
  0
LINE
  5
3A2
100
AcDbEntity
  8
RACCORDO
100
AcDbLine
 62
250
  6
CONTINUOUS
 10
-125.2036927912
 20
-24.4841064198
 11
-125.1980588661
 21
-24.8089354074
  0
LINE
  5
3A3
100
AcDbEntity
  8
RACCORDO
100
AcDbLine
 62
250
  6
CONTINUOUS
 10
-125.1960632915
 20
-25.0993604118
 11
-125.1952382105
 21
-25.1658128644
  0
LINE
  5
3A4
100
AcDbEntity
  8
RACCORDO
100
AcDbLine
 62
250
  6
CONTINUOUS
 10
-125.1980588661
 20
-24.8089354074
 11
-125.1973096733
 21
-24.8717208713
  0
LINE
  5
3A5
100
AcDbEntity
  8
RACCORDO
100
AcDbLine
 62
250
  6
CONTINUOUS
 10
-125.2063734147
 20
-24.2593179627
 11
-125.2036927912
 21
-24.4841064198
  0
LINE
  5
3A6
100
AcDbEntity
  8
RACCORDO
100
AcDbLine
 62
250
  6
CONTINUOUS
 10
-125.7893976538
 20
-23.6639939751
 11
-125.7889561038
 21
-23.7025438207
  0
LINE
  5
3A7
100
AcDbEntity
  8
RACCORDO
100
AcDbLine
 62
250
  6
CONTINUOUS
 10
-125.7926599562
 20
-23.2078971971
 11
-125.7902093592
 21
-23.494057126
  0
LINE
  5
3A8
100
AcDbEntity
  8
RACCORDO
100
AcDbLine
 62
250
  6
CONTINUOUS
 10
-125.2085226761
 20
-23.9743133803
 11
-125.2063734147
 21
-24.2593179627
  0
LINE
  5
3A9
100
AcDbEntity
  8
RACCORDO
100
AcDbLine
 62
250
  6
CONTINUOUS
 10
-125.1965738482
 20
-25.0293612003
 11
-125.1960632915
 21
-25.0993604118
  0
LINE
  5
3AA
100
AcDbEntity
  8
RACCORDO
100
AcDbLine
 62
250
  6
CONTINUOUS
 10
-125.1973096733
 20
-24.8717208713
 11
-125.1969381088
 21
-24.9290771296
  0
LINE
  5
3AB
100
AcDbEntity
  8
RACCORDO
100
AcDbLine
 62
250
  6
CONTINUOUS
 10
-125.789837251
 20
-23.5962275591
 11
-125.7893976538
 21
-23.6639939751
  0
LINE
  5
3AC
100
AcDbEntity
  8
RACCORDO
100
AcDbLine
 62
250
  6
CONTINUOUS
 10
-125.1969381088
 20
-24.9290771296
 11
-125.1965738482
 21
-25.0293612003
  0
LINE
  5
3AD
100
AcDbEntity
  8
RACCORDO
100
AcDbLine
 62
250
  6
CONTINUOUS
 10
-125.7902093592
 20
-23.494057126
 11
-125.789837251
 21
-23.5962275591
  0
LINE
  5
3AE
100
AcDbEntity
  8
RACCORDO
100
AcDbLine
 62
250
  6
CONTINUOUS
 10
-125.7938242495
 20
-22.8699647917
 11
-125.7926599562
 21
-23.2078971971
  0
LINE
  5
3AF
100
AcDbEntity
  8
RACCORDO
100
AcDbLine
 62
250
  6
CONTINUOUS
 10
-125.2205722556
 20
-16.8552091553
 11
-125.2061071861
 21
-22.2384132433
  0
LINE
  5
3B0
100
AcDbEntity
  8
RACCORDO
100
AcDbLine
 62
250
  6
CONTINUOUS
 10
-125.2098522038
 20
-23.5098418018
 11
-125.2085226761
 21
-23.9743133803
  0
LINE
  5
3B1
100
AcDbEntity
  8
RACCORDO
100
AcDbLine
 62
250
  6
CONTINUOUS
 10
-125.2098628136
 20
24.3141233769
 11
-125.2060291163
 21
23.2373472781
  0
LINE
  5
3B2
100
AcDbEntity
  8
0
100
AcDbLine
 62
7
  6
CONTINUOUS
 10
-125.9899163081
 20
-23.1847481313
 11
-125.9899163081
 21
24.0152518687
  0
LINE
  5
3B3
100
AcDbEntity
  8
RACCORDO
100
AcDbLine
 62
250
  6
CONTINUOUS
 10
-125.8003412486
 20
0.4152518687
 11
-125.7929459868
 21
-22.1696627608
  0
LINE
  5
3B4
100
AcDbEntity
  8
RACCORDO
100
AcDbLine
 62
250
  6
CONTINUOUS
 10
-125.2323471274
 20
1.6629116235
 11
-125.2205722556
 21
-16.8552091553
  0
LINE
  5
3B5
100
AcDbEntity
  8
RACCORDO
100
AcDbLine
 62
250
  6
CONTINUOUS
 10
-125.7937713801
 20
23.7352524743
 11
-125.7930272657
 21
22.9067919924
  0
LINE
  5
3B6
100
AcDbEntity
  8
RACCORDO
100
AcDbLine
 62
250
  6
CONTINUOUS
 10
-125.7929459868
 20
-22.1696627608
 11
-125.7938242495
 21
-22.8699647917
  0
LINE
  5
3B7
100
AcDbEntity
  8
RACCORDO
100
AcDbLine
 62
250
  6
CONTINUOUS
 10
-125.2061071861
 20
-22.2384132433
 11
-125.2064364447
 21
-22.581739551
  0
LINE
  5
3B8
100
AcDbEntity
  8
RACCORDO
100
AcDbLine
 62
250
  6
CONTINUOUS
 10
-125.7930272657
 20
22.9067919924
 11
-125.8003412486
 21
0.4152518687
  0
LINE
  5
3B9
100
AcDbEntity
  8
RACCORDO
100
AcDbLine
 62
250
  6
CONTINUOUS
 10
-125.2060291163
 20
23.2373472781
 11
-125.2066877325
 21
22.8839877919
  0
LINE
  5
3BA
100
AcDbEntity
  8
RACCORDO
100
AcDbLine
 62
250
  6
CONTINUOUS
 10
-125.2086861168
 20
24.7743400215
 11
-125.2098628136
 21
24.3141233769
  0
LINE
  5
3BB
100
AcDbEntity
  8
RACCORDO
100
AcDbLine
 62
250
  6
CONTINUOUS
 10
-125.2066877325
 20
22.8839877919
 11
-125.2323471274
 21
1.6629116235
  0
LWPOLYLINE
  5
3BC
100
AcDbEntity
  8
RACCORDO
100
AcDbPolyline
 62
250
  6
CONTINUOUS
 90
3
 70
0
 10
-125.2064364447
 20
-22.581739551
 10
-125.2080863504
 20
-22.8917627739
 10
-125.2098522038
 20
-23.5098418018
  0
LINE
  5
3BD
100
AcDbEntity
  8
RACCORDO
100
AcDbLine
 62
250
  6
CONTINUOUS
 10
-125.7925673207
 20
24.0534470055
 11
-125.7937713801
 21
23.7352524743
  0
LINE
  5
3BE
100
AcDbEntity
  8
RACCORDO
100
AcDbLine
 62
250
  6
CONTINUOUS
 10
-125.7896167872
 20
24.4668126527
 11
-125.790198422
 21
24.3270361409
  0
LINE
  5
3BF
100
AcDbEntity
  8
RACCORDO
100
AcDbLine
 62
250
  6
CONTINUOUS
 10
-125.1964445248
 20
25.8827338047
 11
-125.19706488
 21
25.7353337031
  0
LINE
  5
3C0
100
AcDbEntity
  8
RACCORDO
100
AcDbLine
 62
250
  6
CONTINUOUS
 10
-125.2060727107
 20
25.1200694027
 11
-125.2086861168
 21
24.7743400215
  0
LINE
  5
3C1
100
AcDbEntity
  8
RACCORDO
100
AcDbLine
 62
250
  6
CONTINUOUS
 10
-125.19706488
 20
25.7353337031
 11
-125.197593144
 21
25.6764815861
  0
LINE
  5
3C2
100
AcDbEntity
  8
RACCORDO
100
AcDbLine
 62
250
  6
CONTINUOUS
 10
-125.790198422
 20
24.3270361409
 11
-125.7925673207
 21
24.0534470055
  0
LINE
  5
3C3
100
AcDbEntity
  8
RACCORDO
100
AcDbLine
 62
250
  6
CONTINUOUS
 10
-125.7891334706
 20
24.5195133233
 11
-125.7896167872
 21
24.4668126527
  0
LINE
  5
3C4
100
AcDbEntity
  8
RACCORDO
100
AcDbLine
 62
250
  6
CONTINUOUS
 10
-125.1955852473
 20
25.9725778884
 11
-125.1964445248
 21
25.8827338047
  0
LINE
  5
3C5
100
AcDbEntity
  8
RACCORDO
100
AcDbLine
 62
250
  6
CONTINUOUS
 10
-125.2034073998
 20
25.3327871772
 11
-125.2060727107
 21
25.1200694027
  0
LINE
  5
3C6
100
AcDbEntity
  8
RACCORDO
100
AcDbLine
 62
250
  6
CONTINUOUS
 10
-125.197593144
 20
25.6764815861
 11
-125.1984660964
 21
25.6122480474
  0
LINE
  5
3C7
100
AcDbEntity
  8
RACCORDO
100
AcDbLine
 62
250
  6
CONTINUOUS
 10
-125.7885489184
 20
24.5572012374
 11
-125.7891334706
 21
24.5195133233
  0
LINE
  5
3C8
100
AcDbEntity
  8
RACCORDO
100
AcDbLine
 62
250
  6
CONTINUOUS
 10
-125.1984660964
 20
25.6122480474
 11
-125.2034073998
 21
25.3327871772
  0
LINE
  5
3C9
100
AcDbEntity
  8
RACCORDO
100
AcDbLine
 62
250
  6
CONTINUOUS
 10
-125.7875116137
 20
24.6045231128
 11
-125.7885489184
 21
24.5572012374
  0
LWPOLYLINE
  5
3CA
100
AcDbEntity
  8
RACCORDO
100
AcDbPolyline
 62
250
  6
CONTINUOUS
 90
6
 70
0
 10
-125.1926109931
 20
26.0961757625
 10
-125.1933532393
 20
26.0764391992
 10
-125.1939676033
 20
26.0566152258
 10
-125.1944732352
 20
26.0366018747
 10
-125.1949064663
 20
26.0158366042
 10
-125.1955852473
 20
25.9725778884
  0
LINE
  5
3CB
100
AcDbEntity
  8
RACCORDO
100
AcDbLine
 62
250
  6
CONTINUOUS
 10
-125.1900860461
 20
26.1511173987
 11
-125.1926109931
 21
26.0961757625
  0
LINE
  5
3CC
100
AcDbEntity
  8
RACCORDO
100
AcDbLine
 62
7
  6
CONTINUOUS
 10
-125.1942099689
 20
26.214399582
 11
-125.1942123786
 21
26.2143623707
  0
LINE
  5
3CD
100
AcDbEntity
  8
SUPERFICI
100
AcDbLine
 62
7
  6
CONTINUOUS
 10
-125.1780481894
 20
26.4417040671
 11
-125.1942152333
 21
26.2143419227
  0
LINE
  5
3CE
100
AcDbEntity
  8
RACCORDO
100
AcDbLine
 62
250
  6
CONTINUOUS
 10
-122.4362454845
 20
39.5179326993
 11
-122.4361902542
 21
39.5184317149
  0
LINE
  5
3CF
100
AcDbEntity
  8
RACCORDO
100
AcDbLine
 62
7
  6
CONTINUOUS
 10
-118.5551794043
 20
-3.1419823305
 11
-117.424653212
 21
-3.2908189273
  0
LWPOLYLINE
  5
3D0
100
AcDbEntity
  8
RACCORDO
100
AcDbPolyline
 62
250
  6
CONTINUOUS
 90
6
 70
0
 10
-125.1893473994
 20
26.1995406823
 10
-125.1890135671
 20
26.1964652128
 10
-125.1889337796
 20
26.189758635
 10
-125.1890826439
 20
26.179787225
 10
-125.1894693533
 20
26.1667298125
 10
-125.1900860461
 20
26.1511173987
  0
LINE
  5
3D1
100
AcDbEntity
  8
RACCORDO
100
AcDbLine
 62
250
  6
CONTINUOUS
 10
-121.3609411412
 20
-36.5847481313
 11
-121.3684619275
 21
-36.3560702637
  0
LINE
  5
3D2
100
AcDbEntity
  8
RACCORDO
100
AcDbLine
 62
250
  6
CONTINUOUS
 10
-122.2970984793
 20
-36.8238103019
 11
-122.3101782741
 21
-36.3860634463
  0
LINE
  5
3D3
100
AcDbEntity
  8
RACCORDO
100
AcDbLine
 62
250
  6
CONTINUOUS
 10
-121.3684619275
 20
-36.3560702637
 11
-121.3743593094
 21
-36.1429355326
  0
LINE
  5
3D4
100
AcDbEntity
  8
RACCORDO
100
AcDbLine
 62
250
  6
CONTINUOUS
 10
-122.2921350971
 20
-37.029349017
 11
-122.2970984793
 21
-36.8238103019
  0
LINE
  5
3D5
100
AcDbEntity
  8
RACCORDO
100
AcDbLine
 62
250
  6
CONTINUOUS
 10
-122.3101782741
 20
-36.3860634463
 11
-122.3154186001
 21
-36.1673887008
  0
LINE
  5
3D6
100
AcDbEntity
  8
RACCORDO
100
AcDbLine
 62
250
  6
CONTINUOUS
 10
-121.3743593094
 20
-36.1429355326
 11
-121.3786497895
 21
-35.9459556532
  0
LINE
  5
3D7
100
AcDbEntity
  8
RACCORDO
100
AcDbLine
 62
250
  6
CONTINUOUS
 10
-121.3517405172
 20
-37.0540972919
 11
-121.3609411412
 21
-36.5847481313
  0
LINE
  5
3D8
100
AcDbEntity
  8
RACCORDO
100
AcDbLine
 62
250
  6
CONTINUOUS
 10
-122.2865590224
 20
-37.3318515573
 11
-122.2921350971
 21
-37.029349017
  0
LINE
  5
3D9
100
AcDbEntity
  8
RACCORDO
100
AcDbLine
 62
250
  6
CONTINUOUS
 10
-122.3154186001
 20
-36.1673887008
 11
-122.3189275544
 21
-35.9637766965
  0
LWPOLYLINE
  5
3DA
100
AcDbEntity
  8
RACCORDO
100
AcDbPolyline
 62
250
  6
CONTINUOUS
 90
10
 70
0
 10
-122.281986471
 20
39.0283651312
 10
-122.2826896097
 20
39.0798046467
 10
-122.2835896776
 20
39.1257884855
 10
-122.2846913967
 20
39.1660623782
 10
-122.2860032819
 20
39.2005758648
 10
-122.2875343109
 20
39.2292079335
 10
-122.2892846747
 20
39.2517831601
 10
-122.2912572687
 20
39.268357765
 10
-122.293464681
 20
39.2791030929
 10
-122.2959178106
 20
39.2841665792
  0
LINE
  5
3DB
100
AcDbEntity
  8
RACCORDO
100
AcDbLine
 62
250
  6
CONTINUOUS
 10
-121.3786497895
 20
-35.9459556532
 11
-121.3812716144
 21
-35.7685273716
  0
LINE
  5
3DC
100
AcDbEntity
  8
RACCORDO
100
AcDbLine
 62
250
  6
CONTINUOUS
 10
-121.3450025057
 20
-37.5226298405
 11
-121.3517405172
 21
-37.0540972919
  0
LINE
  5
3DD
100
AcDbEntity
  8
RACCORDO
100
AcDbLine
 62
250
  6
CONTINUOUS
 10
-122.2830146059
 20
-37.6137065269
 11
-122.2865590224
 21
-37.3318515573
  0
LINE
  5
3DE
100
AcDbEntity
  8
RACCORDO
100
AcDbLine
 62
250
  6
CONTINUOUS
 10
-121.3394698957
 20
-38.1041152868
 11
-121.3450025057
 21
-37.5226298405
  0
LWPOLYLINE
  5
3DF
100
AcDbEntity
  8
RACCORDO
100
AcDbPolyline
 62
250
  6
CONTINUOUS
 90
3
 70
0
 10
-122.3189275544
 20
-35.9637766965
 10
-122.320560776
 20
-35.7802028418
 10
-122.3557357825
 20
-29.9763866831
  0
LINE
  5
3E0
100
AcDbEntity
  8
RACCORDO
100
AcDbLine
 62
250
  6
CONTINUOUS
 10
-121.3812716144
 20
-35.7685273716
 11
-121.4310786481
 21
-29.0996997506
  0
LINE
  5
3E1
100
AcDbEntity
  8
RACCORDO
100
AcDbLine
 62
250
  6
CONTINUOUS
 10
-122.2811469804
 20
38.9099687005
 11
-122.281986471
 21
39.0283651312
  0
LINE
  5
3E2
100
AcDbEntity
  8
RACCORDO
100
AcDbLine
 62
250
  6
CONTINUOUS
 10
-122.2812552045
 20
-37.8653262766
 11
-122.2830146059
 21
-37.6137065269
  0
LINE
  5
3E3
100
AcDbEntity
  8
RACCORDO
100
AcDbLine
 62
250
  6
CONTINUOUS
 10
-121.4310786481
 20
-29.0996997506
 11
-121.4509300039
 21
-25.2483804876
  0
LINE
  5
3E4
100
AcDbEntity
  8
RACCORDO
100
AcDbLine
 62
250
  6
CONTINUOUS
 10
-122.3557357825
 20
-29.9763866831
 11
-122.3724718984
 21
-25.8905955578
  0
LINE
  5
3E5
100
AcDbEntity
  8
RACCORDO
100
AcDbLine
 62
250
  6
CONTINUOUS
 10
-121.4509300039
 20
-25.2483804876
 11
-121.4667824873
 21
-20.6542846918
  0
LINE
  5
3E6
100
AcDbEntity
  8
RACCORDO
100
AcDbLine
 62
250
  6
CONTINUOUS
 10
-122.3724718984
 20
-25.8905955578
 11
-122.385610566
 21
-20.6568377087
  0
LINE
  5
3E7
100
AcDbEntity
  8
RACCORDO
100
AcDbLine
 62
250
  6
CONTINUOUS
 10
-121.3373551082
 20
-38.602381346
 11
-121.3394698957
 21
-38.1041152868
  0
LINE
  5
3E8
100
AcDbEntity
  8
RACCORDO
100
AcDbLine
 62
250
  6
CONTINUOUS
 10
-121.4667824873
 20
-20.6542846918
 11
-121.4754917731
 21
-16.1492296973
  0
LINE
  5
3E9
100
AcDbEntity
  8
RACCORDO
100
AcDbLine
 62
250
  6
CONTINUOUS
 10
-122.385610566
 20
-20.6568377087
 11
-122.3922500505
 21
-14.9984671706
  0
LINE
  5
3EA
100
AcDbEntity
  8
RACCORDO
100
AcDbLine
 62
250
  6
CONTINUOUS
 10
-122.2810023762
 20
-38.0127881709
 11
-122.2812552045
 21
-37.8653262766
  0
LINE
  5
3EB
100
AcDbEntity
  8
RACCORDO
100
AcDbLine
 62
250
  6
CONTINUOUS
 10
-121.4754917731
 20
-16.1492296973
 11
-121.4784336725
 21
-10.4672185396
  0
LINE
  5
3EC
100
AcDbEntity
  8
RACCORDO
100
AcDbLine
 62
250
  6
CONTINUOUS
 10
-122.3922500505
 20
-14.9984671706
 11
-122.3930298987
 21
13.9501236142
  0
LINE
  5
3ED
100
AcDbEntity
  8
RACCORDO
100
AcDbLine
 62
250
  6
CONTINUOUS
 10
-121.3373551083
 20
39.4328850834
 11
-121.3378224733
 21
39.7348354769
  0
LINE
  5
3EE
100
AcDbEntity
  8
RACCORDO
100
AcDbLine
 62
250
  6
CONTINUOUS
 10
-122.2810379789
 20
38.7718183921
 11
-122.2811469804
 21
38.9099687005
  0
LINE
  5
3EF
100
AcDbEntity
  8
RACCORDO
100
AcDbLine
 62
250
  6
CONTINUOUS
 10
-121.4784336725
 20
-10.4672185396
 11
-121.4779580651
 21
13.9497073109
  0
LINE
  5
3F0
100
AcDbEntity
  8
RACCORDO
100
AcDbLine
 62
250
  6
CONTINUOUS
 10
-122.3930298987
 20
13.9501236142
 11
-122.3880011682
 21
20.0448933206
  0
LINE
  5
3F1
100
AcDbEntity
  8
RACCORDO
100
AcDbLine
 62
250
  6
CONTINUOUS
 10
-121.4779580651
 20
13.9497073109
 11
-121.4722876264
 21
19.0584513197
  0
LINE
  5
3F2
100
AcDbEntity
  8
RACCORDO
100
AcDbLine
 62
250
  6
CONTINUOUS
 10
-122.3880011682
 20
20.0448933206
 11
-122.3746363257
 21
26.0258464775
  0
LINE
  5
3F3
100
AcDbEntity
  8
RACCORDO
100
AcDbLine
 62
250
  6
CONTINUOUS
 10
-121.4722876264
 20
19.0584513197
 11
-121.4566206181
 21
24.6428414128
  0
LINE
  5
3F4
100
AcDbEntity
  8
RACCORDO
100
AcDbLine
 62
250
  6
CONTINUOUS
 10
-122.3746363257
 20
26.0258464775
 11
-122.3570017183
 21
30.5536176653
  0
LINE
  5
3F5
100
AcDbEntity
  8
RACCORDO
100
AcDbLine
 62
250
  6
CONTINUOUS
 10
-121.4566206181
 20
24.6428414128
 11
-121.4327861463
 21
29.6506243403
  0
LINE
  5
3F6
100
AcDbEntity
  8
RACCORDO
100
AcDbLine
 62
250
  6
CONTINUOUS
 10
-121.3394698937
 20
38.9346190243
 11
-121.3373551083
 21
39.4328850834
  0
LWPOLYLINE
  5
3F7
100
AcDbEntity
  8
RACCORDO
100
AcDbPolyline
 62
250
  6
CONTINUOUS
 90
3
 70
0
 10
-121.3383768827
 20
-38.9893413493
 10
-121.3378224723
 20
-38.9043317396
 10
-121.3373551082
 20
-38.602381346
  0
LINE
  5
3F8
100
AcDbEntity
  8
RACCORDO
100
AcDbLine
 62
250
  6
CONTINUOUS
 10
-122.3570017183
 20
30.5536176653
 11
-122.3223650642
 21
36.2955623673
  0
LINE
  5
3F9
100
AcDbEntity
  8
RACCORDO
100
AcDbLine
 62
250
  6
CONTINUOUS
 10
-122.3223650642
 20
36.2955623673
 11
-122.3198942938
 21
36.7075071543
  0
LINE
  5
3FA
100
AcDbEntity
  8
RACCORDO
100
AcDbLine
 62
250
  6
CONTINUOUS
 10
-122.2822403269
 20
38.5317478297
 11
-122.2810379789
 21
38.7718183921
  0
LINE
  5
3FB
100
AcDbEntity
  8
RACCORDO
100
AcDbLine
 62
250
  6
CONTINUOUS
 10
-121.4327861463
 20
29.6506243403
 11
-121.3990160132
 21
34.3870801235
  0
LINE
  5
3FC
100
AcDbEntity
  8
RACCORDO
100
AcDbLine
 62
250
  6
CONTINUOUS
 10
-122.3198942938
 20
36.7075071543
 11
-122.3188712718
 21
36.8009230262
  0
LINE
  5
3FD
100
AcDbEntity
  8
RACCORDO
100
AcDbLine
 62
250
  6
CONTINUOUS
 10
-121.3990160132
 20
34.3870801235
 11
-121.3811460749
 21
36.6061506767
  0
LINE
  5
3FE
100
AcDbEntity
  8
RACCORDO
100
AcDbLine
 62
250
  6
CONTINUOUS
 10
-121.3450025124
 20
38.3531335778
 11
-121.3394698937
 21
38.9346190243
  0
LINE
  5
3FF
100
AcDbEntity
  8
RACCORDO
100
AcDbLine
 62
250
  6
CONTINUOUS
 10
-122.2851649674
 20
38.2592153268
 11
-122.2822403269
 21
38.5317478297
  0
LINE
  5
400
100
AcDbEntity
  8
RACCORDO
100
AcDbLine
 62
250
  6
CONTINUOUS
 10
-121.3517405024
 20
37.8846010292
 11
-121.3450025124
 21
38.3531335778
  0
LINE
  5
401
100
AcDbEntity
  8
RACCORDO
100
AcDbLine
 62
250
  6
CONTINUOUS
 10
-121.3811460749
 20
36.6061506767
 11
-121.3785641726
 21
36.7826119243
  0
LINE
  5
402
100
AcDbEntity
  8
RACCORDO
100
AcDbLine
 62
250
  6
CONTINUOUS
 10
-122.2900315672
 20
37.9623292419
 11
-122.2851649674
 21
38.2592153268
  0
LINE
  5
403
100
AcDbEntity
  8
RACCORDO
100
AcDbLine
 62
250
  6
CONTINUOUS
 10
-122.3188712718
 20
36.8009230262
 11
-122.3153440445
 21
37.0014067651
  0
LINE
  5
404
100
AcDbEntity
  8
RACCORDO
100
AcDbLine
 62
250
  6
CONTINUOUS
 10
-121.3609411412
 20
37.4152518687
 11
-121.3517405024
 21
37.8846010292
  0
LINE
  5
405
100
AcDbEntity
  8
RACCORDO
100
AcDbLine
 62
250
  6
CONTINUOUS
 10
-122.2944884984
 20
37.756978953
 11
-122.2900315672
 21
37.9623292419
  0
LINE
  5
406
100
AcDbEntity
  8
RACCORDO
100
AcDbLine
 62
250
  6
CONTINUOUS
 10
-121.3785641726
 20
36.7826119243
 11
-121.3742812066
 21
36.9769591264
  0
LINE
  5
407
100
AcDbEntity
  8
RACCORDO
100
AcDbLine
 62
250
  6
CONTINUOUS
 10
-122.3153440445
 20
37.0014067651
 11
-122.3101354485
 21
37.2179057679
  0
LINE
  5
408
100
AcDbEntity
  8
RACCORDO
100
AcDbLine
 62
250
  6
CONTINUOUS
 10
-122.2999823904
 20
37.5519737829
 11
-122.2944884984
 21
37.756978953
  0
LINE
  5
409
100
AcDbEntity
  8
RACCORDO
100
AcDbLine
 62
250
  6
CONTINUOUS
 10
-121.3742812066
 20
36.9769591264
 11
-121.3684093111
 21
37.18787057
  0
LINE
  5
40A
100
AcDbEntity
  8
RACCORDO
100
AcDbLine
 62
250
  6
CONTINUOUS
 10
-122.3101354485
 20
37.2179057679
 11
-122.2999823904
 21
37.5519737829
  0
LINE
  5
40B
100
AcDbEntity
  8
RACCORDO
100
AcDbLine
 62
250
  6
CONTINUOUS
 10
-121.3684093111
 20
37.18787057
 11
-121.3609411412
 21
37.4152518687
  0
LWPOLYLINE
  5
40C
100
AcDbEntity
  8
0
100
AcDbPolyline
 62
7
  6
CONTINUOUS
 90
4
 70
0
 43
0.3500000006
 10
-135.168490448
 20
-1.9418911514
 10
-136.0256283875
 20
-1.9418911514
 10
-136.4542064209
 20
-1.5133199158
 10
-136.4542064209
 20
-0.8704619293
  0
LWPOLYLINE
  5
40D
100
AcDbEntity
  8
RACCORDO
100
AcDbPolyline
 62
250
  6
CONTINUOUS
 90
5
 70
0
 10
-125.7875945275
 20
24.6183351618
 10
-125.7874803011
 20
24.6175266395
 10
-125.7874270813
 20
24.6148378244
 10
-125.7874348896
 20
24.6104452532
 10
-125.7875116137
 20
24.6045231128
  0
LWPOLYLINE
  5
40E
100
AcDbEntity
  8
RACCORDO
100
AcDbPolyline
 62
250
  6
CONTINUOUS
 90
3
 70
0
 10
-125.1942123786
 20
26.2143623707
 10
-125.1939101208
 20
26.2118083712
 10
-125.1924548458
 20
26.207329593
  0
LWPOLYLINE
  5
40F
100
AcDbEntity
  8
RACCORDO
100
AcDbPolyline
 62
250
  6
CONTINUOUS
 90
8
 70
0
 10
-121.3400943213
 20
39.964941548
 10
-121.3412794664
 20
40.0242411675
 10
-121.3426896033
 20
40.0745014323
 10
-121.3443236937
 20
40.1155360767
 10
-121.3461976313
 20
40.1470883171
 10
-121.3483167138
 20
40.1692727474
 10
-121.3506756435
 20
40.1823628906
 10
-121.3532744203
 20
40.1865779598
  0
LWPOLYLINE
  5
410
100
AcDbEntity
  8
RACCORDO
100
AcDbPolyline
 62
250
  6
CONTINUOUS
 90
3
 70
0
 10
-121.3378224733
 20
39.7348354769
 10
-121.3383768835
 20
39.8198450867
 10
-121.3400943213
 20
39.964941548
  0
LINE
  5
411
100
AcDbEntity
  8
RACCORDO
100
AcDbLine
 62
7
  6
CONTINUOUS
 10
-118.9899163081
 20
3.4767636372
 11
-118.9899163081
 21
-2.6462598998
  0
LWPOLYLINE
  5
412
100
AcDbEntity
  8
0
100
AcDbPolyline
 62
7
  6
CONTINUOUS
 90
13
 70
0
 43
0.3500000006
 10
-135.5970594177
 20
0.4152517776
 10
-136.8827753906
 20
0.4152517776
 10
-137.3113443604
 20
0.6295385284
 10
-137.7399133301
 20
1.0581097641
 10
-137.7399133301
 20
1.272394249
 10
-137.3113443604
 20
1.7009654846
 10
-136.8827753906
 20
1.9152522354
 10
-135.5970594177
 20
1.9152522354
 10
-135.168490448
 20
1.7009654846
 10
-134.7399124146
 20
1.272394249
 10
-134.7399124146
 20
1.0581097641
 10
-135.168490448
 20
0.6295385284
 10
-135.5970594177
 20
0.4152517776
  0
LINE
  5
413
100
AcDbEntity
  8
RACCORDO
100
AcDbLine
 62
250
  6
CONTINUOUS
 10
-125.8003412487
 20
0.4152518687
 11
-121.4758140773
 21
0.415068904
  0
LINE
  5
414
100
AcDbEntity
  8
SUPERFICI
100
AcDbLine
 62
7
  6
CONTINUOUS
 10
-116.9899163081
 20
40.4152518687
 11
-116.9899163081
 21
37.4152518687
  0
LINE
  5
415
100
AcDbEntity
  8
RACCORDO
100
AcDbLine
 62
7
  6
CONTINUOUS
 10
-116.9899163081
 20
37.4152518687
 11
-116.9899163081
 21
4.6170450954
  0
LINE
  5
416
100
AcDbEntity
  8
RACCORDO
100
AcDbLine
 62
7
  6
CONTINUOUS
 10
-116.9899163081
 20
-3.786541358
 11
-116.9899163081
 21
-36.5847481313
  0
LINE
  5
417
100
AcDbEntity
  8
SUPERFICI
100
AcDbLine
 62
7
  6
CONTINUOUS
 10
-116.9899163081
 20
-36.5847481313
 11
-116.9899163081
 21
-39.5847481313
  0
LWPOLYLINE
  5
418
100
AcDbEntity
  8
RACCORDO
100
AcDbPolyline
 62
250
  6
CONTINUOUS
 90
4
 70
0
 10
-125.1893456635
 20
-25.3690368125
 10
-125.1924554999
 20
-25.3768341424
 10
-125.1939102949
 20
-25.3813104089
 10
-125.1942123628
 20
-25.3838586599
  0
LINE
  5
419
100
AcDbEntity
  8
RACCORDO
100
AcDbLine
 62
7
  6
CONTINUOUS
 10
-117.424653212
 20
4.1213226647
 11
-118.5551794043
 21
3.9724860679
  0
LINE
  5
41A
100
AcDbEntity
  8
RACCORDO
100
AcDbLine
 62
250
  6
CONTINUOUS
 10
-125.1924548458
 20
26.207329593
 11
-125.1893454585
 21
26.1995405343
  0
LWPOLYLINE
  5
41B
100
AcDbEntity
  8
RACCORDO
100
AcDbPolyline
 62
250
  6
CONTINUOUS
 90
8
 70
0
 10
-122.3060030858
 20
-38.4705072979
 10
-122.3053421406
 20
-38.4678014441
 10
-122.3044162238
 20
-38.4652418664
 10
-122.3032439373
 20
-38.4626624773
 10
-122.3018033204
 20
-38.4602012893
 10
-122.3000930691
 20
-38.4579041605
 10
-122.2981302216
 20
-38.4557247212
 10
-122.2959184458
 20
-38.4536629032
  0
LWPOLYLINE
  5
41C
100
AcDbEntity
  8
RACCORDO
100
AcDbPolyline
 62
250
  6
CONTINUOUS
 90
6
 70
0
 10
-122.3067571256
 20
39.3057460301
 10
-122.3071028924
 20
39.306650751
 10
-122.30752143
 20
39.3068962623
 10
-122.3079921013
 20
39.3071800022
 10
-122.3084766817
 20
39.3077411795
 10
-122.30897936
 20
39.3083423118
  0
LWPOLYLINE
  5
41D
100
AcDbEntity
  8
RACCORDO
100
AcDbPolyline
 62
250
  6
CONTINUOUS
 90
3
 70
0
 10
-122.42450255
 20
-38.6556127271
 10
-122.4213505655
 20
-38.6489533692
 10
-122.4197215494
 20
-38.6456173123
  0
LWPOLYLINE
  5
41E
100
AcDbEntity
  8
RACCORDO
100
AcDbPolyline
 62
250
  6
CONTINUOUS
 90
15
 70
0
 10
-122.3868565414
 20
-38.5845943836
 10
-122.3854468125
 20
-38.5816412229
 10
-122.3839880507
 20
-38.5786577661
 10
-122.3824697281
 20
-38.5757263952
 10
-122.3809218183
 20
-38.5728514499
 10
-122.379356891
 20
-38.5700267033
 10
-122.3777267675
 20
-38.567319674
 10
-122.3760391808
 20
-38.5647195909
 10
-122.3743191503
 20
-38.5622360851
 10
-122.3725638089
 20
-38.5599666099
 10
-122.3708073165
 20
-38.5580733246
 10
-122.3691128264
 20
-38.5563899612
 10
-122.3674842879
 20
-38.5545228035
 10
-122.3659011323
 20
-38.5523297439
 10
-122.3642989178
 20
-38.54995659
  0
LWPOLYLINE
  5
41F
100
AcDbEntity
  8
RACCORDO
100
AcDbPolyline
 62
250
  6
CONTINUOUS
 90
12
 70
0
 10
-122.2959178144
 20
-38.4536628421
 10
-122.2934646807
 20
-38.4485993282
 10
-122.2912572565
 20
-38.4378539226
 10
-122.2892846557
 20
-38.4212792509
 10
-122.2875342928
 20
-38.3987039791
 10
-122.2860032688
 20
-38.3700718733
 10
-122.284691388
 20
-38.3355583483
 10
-122.283589671
 20
-38.2952844112
 10
-122.282689604
 20
-38.2493005234
 10
-122.281986466
 20
-38.1978609585
 10
-122.2814738693
 20
-38.1412029566
 10
-122.2810023762
 20
-38.0127881709
  0
LWPOLYLINE
  5
420
100
AcDbEntity
  8
RACCORDO
100
AcDbPolyline
 62
250
  6
CONTINUOUS
 90
3
 70
0
 10
-122.4197215494
 20
-38.6456173123
 10
-122.4164005888
 20
-38.638982835
 10
-122.4147192346
 20
-38.635706141
  0
LWPOLYLINE
  5
421
100
AcDbEntity
  8
RACCORDO
100
AcDbPolyline
 62
250
  6
CONTINUOUS
 90
3
 70
0
 10
-122.4147192346
 20
-38.635706141
 10
-122.4113475994
 20
-38.6292672228
 10
-122.4096643668
 20
-38.6261180747
  0
LINE
  5
422
100
AcDbEntity
  8
RACCORDO
100
AcDbLine
 62
250
  6
CONTINUOUS
 10
-122.4096643668
 20
-38.6261180747
 11
-122.406325786
 21
-38.6199823877
  0
LWPOLYLINE
  5
423
100
AcDbEntity
  8
RACCORDO
100
AcDbPolyline
 62
250
  6
CONTINUOUS
 90
5
 70
0
 10
-122.3922654778
 20
-38.5956907477
 10
-122.3908678404
 20
-38.5931871989
 10
-122.3895353532
 20
-38.5904287819
 10
-122.3882149406
 20
-38.5875269752
 10
-122.3868565414
 20
-38.5845943836
  0
LWPOLYLINE
  5
424
100
AcDbEntity
  8
RACCORDO
100
AcDbPolyline
 62
250
  6
CONTINUOUS
 90
6
 70
0
 10
-122.406325786
 20
-38.6199823877
 10
-122.4030463792
 20
-38.6140827556
 10
-122.40143773
 20
-38.6112248534
 10
-122.399846559
 20
-38.6084350566
 10
-122.3982743996
 20
-38.6057140429
 10
-122.3967290695
 20
-38.603061113
  0
LWPOLYLINE
  5
425
100
AcDbEntity
  8
RACCORDO
100
AcDbPolyline
 62
250
  6
CONTINUOUS
 90
3
 70
0
 10
-122.4019859845
 20
39.4426999779
 10
-122.405214798
 20
39.4484738125
 10
-122.4068555406
 20
39.4514497656
  0
LWPOLYLINE
  5
426
100
AcDbEntity
  8
RACCORDO
100
AcDbPolyline
 62
250
  6
CONTINUOUS
 90
3
 70
0
 10
-122.4068555406
 20
39.4514497656
 10
-122.4101726263
 20
39.4575690935
 10
-122.4118429571
 20
39.4607059666
  0
LWPOLYLINE
  5
427
100
AcDbEntity
  8
RACCORDO
100
AcDbPolyline
 62
250
  6
CONTINUOUS
 90
3
 70
0
 10
-122.4118429571
 20
39.4607059666
 10
-122.4151845051
 20
39.4671123648
 10
-122.4168486889
 20
39.4703688303
  0
LWPOLYLINE
  5
428
100
AcDbEntity
  8
RACCORDO
100
AcDbPolyline
 62
250
  6
CONTINUOUS
 90
3
 70
0
 10
-122.4168486889
 20
39.4703688303
 10
-122.4201308832
 20
39.4769544739
 10
-122.4217384054
 20
39.4802614526
  0
LWPOLYLINE
  5
429
100
AcDbEntity
  8
RACCORDO
100
AcDbPolyline
 62
250
  6
CONTINUOUS
 90
5
 70
0
 10
-122.3887666805
 20
39.4191724858
 10
-122.3900840827
 20
39.4219195958
 10
-122.3914222136
 20
39.4245726363
 10
-122.3928239231
 20
39.4270692225
 10
-122.3942866019
 20
39.4294701524
  0
LWPOLYLINE
  5
42A
100
AcDbEntity
  8
RACCORDO
100
AcDbPolyline
 62
250
  6
CONTINUOUS
 90
15
 70
0
 10
-122.4217384054
 20
39.4802614526
 10
-122.4248436111
 20
39.4868538083
 10
-122.4263285088
 20
39.4901035517
 10
-122.4277470297
 20
39.4933198243
 10
-122.4291054158
 20
39.4964438987
 10
-122.430378739
 20
39.4994880141
 10
-122.4315471592
 20
39.5024429047
 10
-122.4326208482
 20
39.5052183627
 10
-122.4335716769
 20
39.5078208053
 10
-122.4343776813
 20
39.5102476804
 10
-122.4350543559
 20
39.5123961661
 10
-122.4355822332
 20
39.5142590407
 10
-122.4359457126
 20
39.5158469087
 10
-122.4361637226
 20
39.5170841617
 10
-122.4362454845
 20
39.5179326993
  0
LINE
  5
42B
100
AcDbEntity
  8
RACCORDO
100
AcDbLine
 62
250
  6
CONTINUOUS
 10
-122.3952167435
 20
-38.600481188
 11
-122.3937253691
 21
-38.5980491464
  0
LWPOLYLINE
  5
42C
100
AcDbEntity
  8
RACCORDO
100
AcDbPolyline
 62
250
  6
CONTINUOUS
 90
9
 70
0
 10
-121.3532744203
 20
-39.3560742224
 10
-121.3506756369
 20
-39.3518591535
 10
-121.3483167035
 20
-39.3387690105
 10
-121.3461976202
 20
-39.3165845803
 10
-121.3443236866
 20
-39.2850323397
 10
-121.342689603
 20
-39.2439976949
 10
-121.3412794707
 20
-39.1937374299
 10
-121.3400943251
 20
-39.1344378104
 10
-121.3383768827
 20
-38.9893413493
  0
LWPOLYLINE
  5
42D
100
AcDbEntity
  8
RACCORDO
100
AcDbPolyline
 62
250
  6
CONTINUOUS
 90
11
 70
0
 10
-122.3626261643
 20
-38.547440399
 10
-122.3589898204
 20
-38.5419525182
 10
-122.3570240555
 20
-38.5390739599
 10
-122.3549612715
 20
-38.5361357454
 10
-122.3528235447
 20
-38.5331325296
 10
-122.3506432376
 20
-38.5301293669
 10
-122.3484192825
 20
-38.5271178367
 10
-122.3461695611
 20
-38.5241055306
 10
-122.3439541885
 20
-38.5211819107
 10
-122.3417849193
 20
-38.5183610479
 10
-122.3396640557
 20
-38.5156285906
  0
LWPOLYLINE
  5
42E
100
AcDbEntity
  8
RACCORDO
100
AcDbPolyline
 62
250
  6
CONTINUOUS
 90
5
 70
0
 10
-122.3634385643
 20
39.3792095493
 10
-122.3650925431
 20
39.3816453932
 10
-122.3666918501
 20
39.3839012719
 10
-122.3682930613
 20
39.3859951994
 10
-122.3734309518
 20
39.3913116082
  0
LINE
  5
42F
100
AcDbEntity
  8
RACCORDO
100
AcDbLine
 62
250
  6
CONTINUOUS
 10
-122.3957797116
 20
39.4319384566
 11
-122.3972917369
 21
39.4345284914
  0
LWPOLYLINE
  5
430
100
AcDbEntity
  8
RACCORDO
100
AcDbPolyline
 62
250
  6
CONTINUOUS
 90
3
 70
0
 10
-122.3988326971
 20
39.4371854796
 10
-122.4003994685
 20
39.4399086021
 10
-122.4019859845
 20
39.4426999779
  0
LWPOLYLINE
  5
431
100
AcDbEntity
  8
RACCORDO
100
AcDbPolyline
 62
250
  6
CONTINUOUS
 90
3
 70
0
 10
-122.3376320499
 20
-38.5130319349
 10
-122.3356975039
 20
-38.5105869766
 10
-122.3338531172
 20
-38.5082782988
  0
LINE
  5
432
100
AcDbEntity
  8
RACCORDO
100
AcDbLine
 62
250
  6
CONTINUOUS
 10
-122.3321107539
 20
-38.5061066424
 11
-122.3304726002
 21
-38.5040809623
  0
LINE
  5
433
100
AcDbEntity
  8
RACCORDO
100
AcDbLine
 62
250
  6
CONTINUOUS
 10
-122.3105756128
 20
-38.4798024398
 11
-122.3100271835
 21
-38.4791264357
  0
LWPOLYLINE
  5
434
100
AcDbEntity
  8
RACCORDO
100
AcDbPolyline
 62
250
  6
CONTINUOUS
 90
3
 70
0
 10
-122.3304726002
 20
-38.5040809623
 10
-122.3261223515
 20
-38.4987587181
 10
-122.3248460916
 20
-38.4972131198
  0
LINE
  5
435
100
AcDbEntity
  8
RACCORDO
100
AcDbLine
 62
250
  6
CONTINUOUS
 10
-122.3236403969
 20
-38.4957465903
 11
-122.3117515676
 21
-38.4812396614
  0
LWPOLYLINE
  5
436
100
AcDbEntity
  8
RACCORDO
100
AcDbPolyline
 62
250
  6
CONTINUOUS
 90
7
 70
0
 10
-122.3089844656
 20
-38.4778450485
 10
-122.3084783668
 20
-38.4772403024
 10
-122.3079904461
 20
-38.4766745872
 10
-122.3075159992
 20
-38.4763869705
 10
-122.3070941579
 20
-38.476136638
 10
-122.3067456565
 20
-38.475219558
 10
-122.3064289749
 20
-38.4731926451
  0
LINE
  5
437
100
AcDbEntity
  8
RACCORDO
100
AcDbLine
 62
250
  6
CONTINUOUS
 10
-125.9899163081
 20
22.7152518687
 11
-125.7934614897
 21
22.7152518687
  0
LINE
  5
438
100
AcDbEntity
  8
RACCORDO
100
AcDbLine
 62
250
  6
CONTINUOUS
 10
-125.793461311
 20
22.7152518687
 11
-125.5809993695
 21
22.7107681145
  0
LWPOLYLINE
  5
439
100
AcDbEntity
  8
RACCORDO
100
AcDbPolyline
 62
250
  6
CONTINUOUS
 90
7
 70
0
 10
-125.5809993695
 20
22.7107681145
 10
-125.4134270271
 20
22.7063610993
 10
-125.3474020545
 20
22.7042100266
 10
-125.2936119804
 20
22.7021062501
 10
-125.2522871814
 20
22.7000587811
 10
-125.2236046468
 20
22.6980763899
 10
-125.2076872204
 20
22.696167568
  0
LINE
  5
43A
100
AcDbEntity
  8
RACCORDO
100
AcDbLine
 62
250
  6
CONTINUOUS
 10
-122.3117155622
 20
39.3116994014
 11
-122.3286542266
 21
39.33235415
  0
LINE
  5
43B
100
AcDbEntity
  8
RACCORDO
100
AcDbLine
 62
250
  6
CONTINUOUS
 10
-122.3105566726
 20
39.310283087
 11
-122.3111241694
 21
39.3109784582
  0
LINE
  5
43C
100
AcDbEntity
  8
RACCORDO
100
AcDbLine
 62
250
  6
CONTINUOUS
 10
-122.3286542266
 20
39.33235415
 11
-122.3299991888
 21
39.3340035241
  0
LINE
  5
43D
100
AcDbEntity
  8
RACCORDO
100
AcDbLine
 62
250
  6
CONTINUOUS
 10
-122.3314087368
 20
39.3357424535
 11
-122.332885483
 21
39.337570696
  0
LINE
  5
43E
100
AcDbEntity
  8
RACCORDO
100
AcDbLine
 62
250
  6
CONTINUOUS
 10
-122.3344372379
 20
39.339508111
 11
-122.3360671496
 21
39.3415574122
  0
LWPOLYLINE
  5
43F
100
AcDbEntity
  8
RACCORDO
100
AcDbPolyline
 62
250
  6
CONTINUOUS
 90
3
 70
0
 10
-122.3377740466
 20
39.3437154567
 10
-122.3395590504
 20
39.3459932714
 10
-122.3414281191
 20
39.3484015808
  0
LWPOLYLINE
  5
440
100
AcDbEntity
  8
RACCORDO
100
AcDbPolyline
 62
250
  6
CONTINUOUS
 90
10
 70
0
 10
-122.3433737997
 20
39.3509292901
 10
-122.34537493
 20
39.353554812
 10
-122.3474312563
 20
39.3562900702
 10
-122.3495320711
 20
39.3591232591
 10
-122.3516371205
 20
39.3619975199
 10
-122.3537437358
 20
39.3649238045
 10
-122.3558412309
 20
39.3678915988
 10
-122.3578769297
 20
39.3708121887
 10
-122.3598262887
 20
39.3737010455
 10
-122.3616860355
 20
39.3765442954
  0
LWPOLYLINE
  5
441
100
AcDbEntity
  8
RACCORDO
100
AcDbPolyline
 62
250
  6
CONTINUOUS
 90
10
 70
0
 10
-122.3734309518
 20
39.3913116082
 10
-122.3751613737
 20
39.3936952969
 10
-122.376834012
 20
39.3963534633
 10
-122.3784743721
 20
39.3990816089
 10
-122.3800715653
 20
39.4018187605
 10
-122.3816113496
 20
39.4046269176
 10
-122.3831343896
 20
39.4074854829
 10
-122.3846232538
 20
39.4104301731
 10
-122.3860504685
 20
39.4134272281
 10
-122.3874279163
 20
39.4163529349
  0
LWPOLYLINE
  5
442
100
AcDbEntity
  8
RACCORDO
100
AcDbPolyline
 62
250
  6
CONTINUOUS
 90
9
 70
0
 10
-122.2959184556
 20
39.2841666415
 10
-122.2981478401
 20
39.2862462361
 10
-122.3001230767
 20
39.2884437542
 10
-122.3018407682
 20
39.2907592487
 10
-122.3032841113
 20
39.2932444909
 10
-122.3044534788
 20
39.2958482498
 10
-122.3053713242
 20
39.2984162545
 10
-122.306023413
 20
39.3011010742
 10
-122.3064434896
 20
39.3037490708
  0
LINE
  5
443
100
AcDbEntity
  8
RACCORDO
100
AcDbLine
 62
250
  6
CONTINUOUS
 10
-122.3699506899
 20
39.3877867599
 11
-122.3716692198
 21
39.3894139384
  0
LINE
  5
444
100
AcDbEntity
  8
RACCORDO
100
AcDbLine
 62
250
  6
CONTINUOUS
 10
-116.9899163081
 20
37.4152518687
 11
-121.3609411412
 21
37.4152518687
  0
LINE
  5
445
100
AcDbEntity
  8
RACCORDO
100
AcDbLine
 62
250
  6
CONTINUOUS
 10
-122.2358280494
 20
37.4474329437
 11
-121.3609403559
 21
37.4152518681
  0
LWPOLYLINE
  5
446
100
AcDbEntity
  8
RACCORDO
100
AcDbPolyline
 62
250
  6
CONTINUOUS
 90
3
 70
0
 10
-122.3031540079
 20
37.4503308661
 10
-122.2894296564
 20
37.4496702652
 10
-122.2358280494
 20
37.4474329437
  0
LWPOLYLINE
  5
447
100
AcDbEntity
  8
RACCORDO
100
AcDbPolyline
 62
7
  6
CONTINUOUS
 90
15
 70
0
 10
-121.5483566379
 20
40.176354134
 10
-121.6337338994
 20
40.168196749
 10
-121.7193719953
 20
40.1524626245
 10
-121.8034736298
 20
40.1292879065
 10
-121.8854106577
 20
40.0987976168
 10
-121.9645171052
 20
40.061190033
 10
-122.0401038144
 20
40.0167559634
 10
-122.1115516033
 20
39.9658373978
 10
-122.1783263889
 20
39.9087916504
 10
-122.2399140301
 20
39.8460230428
 10
-122.2958225391
 20
39.7779888106
 10
-122.3455886749
 20
39.7052038589
 10
-122.3887993931
 20
39.628220244
 10
-122.4250922519
 20
39.5476248271
 10
-122.4361816808
 20
39.5184553719
  0
LINE
  5
448
100
AcDbEntity
  8
RACCORDO
100
AcDbLine
 62
7
  6
CONTINUOUS
 10
-121.5483402516
 20
40.1763549928
 11
-116.9899163081
 21
40.4152518687
  0
ARC
  5
449
100
AcDbEntity
  8
SUPERFICI
100
AcDbCircle
 62
7
420
13828095
  6
CONTINUOUS
 10
-97.866579966
 20
-36.5847481313
 40
3.0
100
AcDbArc
 50
180.0000000009
 51
269.9999999999
  0
ARC
  5
44A
100
AcDbEntity
  8
SUPERFICI
100
AcDbCircle
 62
7
420
13828095
  6
CONTINUOUS
 10
102.133420034
 20
-36.5847481313
 40
3.0
100
AcDbArc
 50
270.0000000001
 51
359.9999999991
  0
ARC
  5
44B
100
AcDbEntity
  8
SUPERFICI
100
AcDbCircle
 62
7
420
13828095
  6
CONTINUOUS
 10
102.133420034
 20
37.4152518687
 40
3.0
100
AcDbArc
 50
0.0000000009
 51
89.9999999999
  0
ARC
  5
44C
100
AcDbEntity
  8
SUPERFICI
100
AcDbCircle
 62
7
420
13828095
  6
CONTINUOUS
 10
-97.866579966
 20
37.4152518687
 40
3.0
100
AcDbArc
 50
90.0000000001
 51
179.9999999991
  0
ARC
  5
44D
100
AcDbEntity
  8
DRAFT
100
AcDbCircle
 62
7
  6
CONTINUOUS
 10
-76.316579966
 20
22.6152518687
 40
0.4046157009
100
AcDbArc
 50
112.5261013496
 51
172.2776274274
  0
ARC
  5
44E
100
AcDbEntity
  8
DRAFT
100
AcDbCircle
 62
7
  6
CONTINUOUS
 10
-76.316579966
 20
-21.7847481313
 40
0.4046157009
100
AcDbArc
 50
202.5261013496
 51
262.2776274274
  0
ARC
  5
44F
100
AcDbEntity
  8
DRAFT
100
AcDbCircle
 62
7
  6
CONTINUOUS
 10
80.583420034
 20
-21.7847481313
 40
0.4046157009
100
AcDbArc
 50
292.5261013496
 51
352.2776274274
  0
ARC
  5
450
100
AcDbEntity
  8
DRAFT
100
AcDbCircle
 62
7
  6
CONTINUOUS
 10
80.583420034
 20
22.6152518687
 40
0.4046157009
100
AcDbArc
 50
22.5261013496
 51
82.2776274274
  0
ARC
  5
451
100
AcDbEntity
  8
DRAFT
100
AcDbCircle
 62
7
  6
CONTINUOUS
 10
-76.316579966
 20
22.6152518687
 40
0.3
100
AcDbArc
 50
90.0
 51
180.0
  0
ARC
  5
452
100
AcDbEntity
  8
DRAFT
100
AcDbCircle
 62
7
  6
CONTINUOUS
 10
-76.316579966
 20
-21.7847481313
 40
0.3
100
AcDbArc
 50
180.0
 51
270.0
  0
ARC
  5
453
100
AcDbEntity
  8
DRAFT
100
AcDbCircle
 62
7
  6
CONTINUOUS
 10
80.583420034
 20
-21.7847481313
 40
0.3
100
AcDbArc
 50
270.0
 51
360.0
  0
ARC
  5
454
100
AcDbEntity
  8
DRAFT
100
AcDbCircle
 62
7
  6
CONTINUOUS
 10
80.583420034
 20
22.6152518687
 40
0.3
100
AcDbArc
 50
0.0
 51
90.0
  0
ARC
  5
455
100
AcDbEntity
  8
0
100
AcDbCircle
 62
7
420
13828095
  6
CONTINUOUS
 10
-76.416579966
 20
-21.8847481313
 40
0.3
100
AcDbArc
 50
180.0
 51
270.0
  0
ARC
  5
456
100
AcDbEntity
  8
0
100
AcDbCircle
 62
7
420
13828095
  6
CONTINUOUS
 10
-76.416579966
 20
22.7152518687
 40
0.3
100
AcDbArc
 50
90.0
 51
180.0
  0
ARC
  5
457
100
AcDbEntity
  8
0
100
AcDbCircle
 62
7
420
13828095
  6
CONTINUOUS
 10
80.683420034
 20
22.7152518687
 40
0.3
100
AcDbArc
 50
0.0
 51
90.0
  0
ARC
  5
458
100
AcDbEntity
  8
0
100
AcDbCircle
 62
7
420
13828095
  6
CONTINUOUS
 10
80.683420034
 20
-21.8847481313
 40
0.3
100
AcDbArc
 50
270.0
 51
360.0
  0
ARC
  5
459
100
AcDbEntity
  8
0
100
AcDbCircle
 62
7
  6
CONTINUOUS
 10
-124.9899163081
 20
-23.1847481313
 40
1.0
100
AcDbArc
 50
180.0
 51
217.0910428807
  0
ARC
  5
45A
100
AcDbEntity
  8
RACCORDO
100
AcDbCircle
 62
7
  6
CONTINUOUS
 10
-124.9899163081
 20
-23.1847481313
 40
1.0
100
AcDbArc
 50
180.0
 51
217.0910428807
  0
ARC
  5
45B
100
AcDbEntity
  8
0
100
AcDbCircle
 62
7
  6
CONTINUOUS
 10
-124.9899163081
 20
24.0152518687
 40
1.0
100
AcDbArc
 50
142.9089571193
 51
180.0
  0
ARC
  5
45C
100
AcDbEntity
  8
RACCORDO
100
AcDbCircle
 62
7
  6
CONTINUOUS
 10
-124.9899163081
 20
24.0152518687
 40
1.0
100
AcDbArc
 50
142.9089571193
 51
180.0
  0
ARC
  5
45D
100
AcDbEntity
  8
RACCORDO
100
AcDbCircle
 62
7
  6
CONTINUOUS
 10
-121.4899119936
 20
-38.3475410046
 40
1.0
100
AcDbArc
 50
210.7661598239
 51
267.0000021112
  0
ARC
  5
45E
100
AcDbEntity
  8
RACCORDO
100
AcDbCircle
 62
7
  6
CONTINUOUS
 10
-118.4899163081
 20
-2.6462598998
 40
0.5
100
AcDbArc
 50
180.0
 51
262.5
  0
ARC
  5
45F
100
AcDbEntity
  8
RACCORDO
100
AcDbCircle
 62
7
  6
CONTINUOUS
 10
-118.4899163081
 20
3.4767636372
 40
0.5
100
AcDbArc
 50
97.5
 51
180.0
  0
ARC
  5
460
100
AcDbEntity
  8
RACCORDO
100
AcDbCircle
 62
7
  6
CONTINUOUS
 10
-117.4899163081
 20
-3.786541358
 40
0.5
100
AcDbArc
 50
0.0
 51
82.5
  0
ARC
  5
461
100
AcDbEntity
  8
RACCORDO
100
AcDbCircle
 62
7
  6
CONTINUOUS
 10
-117.4899163081
 20
4.6170450954
 40
0.5
100
AcDbArc
 50
277.5
 51
360.0
  0
ELLIPSE
  5
462
100
AcDbEntity
  8
RACCORDO
100
AcDbEllipse
 62
7
420
13828095
  6
CONTINUOUS
 10
105.1072161443
 20
4.6170450954
 30
0.0
 11
0.0
 21
0.5
 31
0.0
 40
0.0524077793
 41
-3.0106929597
 42
-1.5707963268
  0
ELLIPSE
  5
463
100
AcDbEntity
  8
RACCORDO
100
AcDbEllipse
 62
7
420
13828095
  6
CONTINUOUS
 10
105.1072161443
 20
-3.786541358
 30
0.0
 11
-0.0
 21
0.5
 31
0.0
 40
0.0524077793
 41
-1.5707963268
 42
-0.1308996939
  0
ELLIPSE
  5
464
100
AcDbEntity
  8
RACCORDO
100
AcDbEllipse
 62
7
420
13828095
  6
CONTINUOUS
 10
-100.8403760763
 20
4.6170450954
 30
0.0
 11
-0.0
 21
0.5
 31
0.0
 40
0.0524077793
 41
-4.7123889804
 42
-3.2724923475
  0
ELLIPSE
  5
465
100
AcDbEntity
  8
RACCORDO
100
AcDbEllipse
 62
7
420
13828095
  6
CONTINUOUS
 10
-100.8403760763
 20
-3.786541358
 30
0.0
 11
-0.0
 21
0.5
 31
0.0
 40
0.0524077793
 41
0.1308996939
 42
1.5707963268
  0
ELLIPSE
  5
466
100
AcDbEntity
  8
RACCORDO
100
AcDbEllipse
 62
7
420
13828095
  6
CONTINUOUS
 10
105.054808365
 20
3.4767636372
 30
0.0
 11
-0.0
 21
0.5
 31
0.0
 40
0.0524077793
 41
0.1308996939
 42
1.5707963268
  0
ELLIPSE
  5
467
100
AcDbEntity
  8
RACCORDO
100
AcDbEllipse
 62
7
420
13828095
  6
CONTINUOUS
 10
105.054808365
 20
-2.6462598998
 30
0.0
 11
0.0
 21
0.5
 31
0.0
 40
0.0524077793
 41
1.5707963268
 42
3.0106929597
  0
ELLIPSE
  5
468
100
AcDbEntity
  8
RACCORDO
100
AcDbEllipse
 62
7
420
13828095
  6
CONTINUOUS
 10
-100.7879682971
 20
3.4767636372
 30
0.0
 11
-0.0
 21
0.5
 31
0.0
 40
0.0524077793
 41
-1.5707963268
 42
-0.1308996939
  0
ELLIPSE
  5
469
100
AcDbEntity
  8
RACCORDO
100
AcDbEllipse
 62
7
420
13828095
  6
CONTINUOUS
 10
-100.7879682971
 20
-2.6462598998
 30
0.0
 11
0.0
 21
0.5
 31
0.0
 40
0.0524077793
 41
-3.0106929597
 42
-1.5707963268
  0
ENDSEC
  0
SECTION
  2
OBJECTS
  0
DICTIONARY
  5
C
100
AcDbDictionary
280
0
281
1
  3
ACAD_GROUP
350
D
  3
ACAD_MLINESTYLE
350
17
  3
ACAD_LAYOUT
350
1A
  3
ACAD_PLOTSETTINGS
350
19
  3
ACAD_PLOTSTYLENAME
350
E
  0
DICTIONARY
  5
D
102
{ACAD_REACTORS
330
C
102
}
100
AcDbDictionary
280
0
281
1
  0
ACDBDICTIONARYWDFLT
  5
E
102
{ACAD_REACTORS
330
C
102
}
100
AcDbDictionary
281
1
  3
Normal
350
F
100
AcDbDictionaryWithDefault
340
F
  0
DICTIONARY
  5
17
102
{ACAD_REACTORS
330
C
102
}
100
AcDbDictionary
280
0
281
1
  3
Standard
350
18
  0
DICTIONARY
  5
19
102
{ACAD_REACTORS
330
C
102
}
100
AcDbDictionary
281
1
  0
DICTIONARY
  5
1A
102
{ACAD_REACTORS
330
C
102
}
100
AcDbDictionary
281
1
  3
Model
350
46A
  3
Layout1
350
46B
  0
ACDBPLACEHOLDER
  5
F
102
{ACAD_REACTORS
330
E
102
}
  0
MLINESTYLE
  5
18
102
{ACAD_REACTORS
330
17
102
}
100
AcDbMlineStyle
  2
STANDARD
 70
0
  3

 62
256
 51
90.0
 52
90.0
 71
2
 49
0.5
 62
256
  6
BYLAYER
 49
-0.5
 62
256
  6
BYLAYER
  0
LAYOUT
  5
46A
102
{ACAD_REACTORS
330
1A
102
}
100
AcDbPlotSettings
  1

  2
none_device
  4
ISO_A4_(297.00_x_210.00_MM)
  6

 40
0.0
 41
0.0
 42
0.0
 43
0.0
 44
297.0
 45
210.0
 46
0.0
 47
0.0
 48
0.0
 49
0.0
140
0.0
141
0.0
142
1.0
143
1.0
 70
1024
 72
1
 73
0
 74
0
  7

 75
0
147
1.0
148
0.0
149
0.0
100
AcDbLayout
  1
Model
 70
0
 71
0
 10
0.0
 20
0.0
 11
297.0
 21
210.0
 12
0.0
 22
0.0
 32
0.0
 14
0.0
 24
0.0
 34
0.0
 15
0.0
 25
0.0
 35
0.0
146
0.0
 13
0.0
 23
0.0
 33
0.0
 16
1.0
 26
0.0
 36
0.0
 17
0.0
 27
1.0
 37
0.0
 76
0
330
225
345
0
346
0
  0
LAYOUT
  5
46B
102
{ACAD_REACTORS
330
1A
102
}
100
AcDbPlotSettings
  1

  2
none_device
  4
ISO_A4_(297.00_x_210.00_MM)
  6

 40
0.0
 41
0.0
 42
0.0
 43
0.0
 44
297.0
 45
210.0
 46
0.0
 47
0.0
 48
0.0
 49
0.0
140
0.0
141
0.0
142
1.0
143
1.0
 70
0
 72
1
 73
0
 74
0
  7

 75
0
147
1.0
148
0.0
149
0.0
100
AcDbLayout
  1
Layout1
 70
0
 71
1
 10
0.0
 20
0.0
 11
297.0
 21
210.0
 12
0.0
 22
0.0
 32
0.0
 14
0.0
 24
0.0
 34
0.0
 15
0.0
 25
0.0
 35
0.0
146
0.0
 13
0.0
 23
0.0
 33
0.0
 16
1.0
 26
0.0
 36
0.0
 17
0.0
 27
1.0
 37
0.0
 76
0
330
226
345
0
346
0
  0
ENDSEC
  0
EOF
