  0
SECTION
  2
HEADER
  9
$ACADVER
  1
AC1024
  9
$DWGCODEPAGE
  3
ANSI_1252
  9
$EXTMAX
 10
297.0
 20
210.0
 30
0.0
  9
$EXTMIN
 10
0.0
 20
0.0
 30
0.0
  9
$LIMMIN
 10
0.0
 20
0.0
  9
$LIMMAX
 10
297.0
 20
210.0
  9
$VIEWCTR
 10
148.5
 20
105.0
  9
$VIEWSIZE
 40
210.0
  9
$CLAYER
  8
0
  9
$LTSCALE
 40
16.335
  9
$CELTYPE
  6
BYLAYER
  9
$DIMSCALE
 40
1.0
  9
$DIMASZ
 40
3.0
  9
$DIMEXO
 40
0.5
  9
$DIMDLI
 40
11.286
  9
$DIMEXE
 40
1.5
  9
$DIMCEN
 40
2.673
  9
$DIMLFAC
 40
1.0
  9
$DIMBLK
  1
_FILLED
  9
$DIMALT
 70
0
  9
$DIMALTF
 40
0.0393700787
  9
$DIMTXT
 40
3.0
  9
$DIMTOL
 70
1
  9
$DIMLIM
 70
0
  9
$DIMTFAC
 40
1.0
  9
$DIMTP
 40
0.01
  9
$DIMTM
 40
0.01
  9
$DIMGAP
 40
0.625
  9
$DIMDSEP
 70
44
  9
$AUNITS
 70
0
  9
$PDMODE
 70
3
  9
$PDSIZE
 40
3.0
  9
$HANDSEED
  5
621
  9
$TILEMODE
 70
1
  9
$MEASUREMENT
 70
1
  9
$INSUNITS
 70
4
  0
ENDSEC
  0
SECTION
  2
CLASSES
  0
CLASS
  1
ACDBDICTIONARYWDFLT
  2
AcDbDictionaryWithDefault
  3
AutoCAD 2000
 90
0
 91
1
280
0
281
0
  0
CLASS
  1
ACDBPLACEHOLDER
  2
AcDbPlaceHolder
  3
AutoCAD 2000
 90
0
 91
1
280
0
281
0
  0
CLASS
  1
LAYOUT
  2
AcDbLayout
  3
AutoCAD 2000
 90
0
 91
0
280
0
281
0
  0
ENDSEC
  0
SECTION
  2
TABLES
  0
TABLE
  2
VPORT
  5
8
100
AcDbSymbolTable
 70
2
  0
VPORT
  5
1F4
100
AcDbSymbolTableRecord
100
AcDbViewportTableRecord
  2
*ACTIVE
 70
0
 10
0.0
 20
0.0
 11
1.0
 21
1.0
 12
148.5
 22
105.0
 13
0.0
 23
0.0
 14
1.0
 24
1.0
 15
0.0
 25
0.0
 16
0.0
 26
0.0
 36
1.0
 17
0.0
 27
0.0
 37
0.0
 40
210.0
 41
1.4142857143
 42
50.0
 43
0.0
 44
0.0
 50
0.0
 51
0.0
 71
0
 72
100
 73
1
 74
1
 75
0
 76
0
 77
0
 78
0
  0
ENDTAB
  0
TABLE
  2
LTYPE
  5
5
100
AcDbSymbolTable
 70
6
  0
LTYPE
  5
14
100
AcDbSymbolTableRecord
100
AcDbLinetypeTableRecord
  2
BYBLOCK
 70
0
  3

 72
65
 73
0
 40
0.0
  0
LTYPE
  5
15
100
AcDbSymbolTableRecord
100
AcDbLinetypeTableRecord
  2
BYLAYER
 70
0
  3

 72
65
 73
0
 40
0.0
  0
LTYPE
  5
16
100
AcDbSymbolTableRecord
100
AcDbLinetypeTableRecord
  2
CONTINUOUS
 70
64
  3
Solid line
 72
65
 73
0
 40
0.0
  0
LTYPE
  5
1F5
100
AcDbSymbolTableRecord
100
AcDbLinetypeTableRecord
  2
CENTER
 70
64
  3
____ _ ____ _ ____ _ ____ _ ____ _ ____ _ ____
 72
65
 73
4
 40
0.6
 49
0.375
 74
0
 49
-0.075
 74
0
 49
0.075
 74
0
 49
-0.075
 74
0
  0
LTYPE
  5
1F6
100
AcDbSymbolTableRecord
100
AcDbLinetypeTableRecord
  2
HIDDEN
 70
64
  3
- - - - - - - - - - - - - - - - - - - -
 72
65
 73
2
 40
0.2
 49
0.1
 74
0
 49
-0.1
 74
0
  0
LTYPE
  5
1F7
100
AcDbSymbolTableRecord
100
AcDbLinetypeTableRecord
  2
PHANTOM
 70
64
  3
_____ _ _ _____ _ _ _____ _ _ _____
 72
65
 73
6
 40
0.8
 49
0.45
 74
0
 49
-0.05
 74
0
 49
0.1
 74
0
 49
-0.05
 74
0
 49
0.1
 74
0
 49
-0.05
 74
0
  0
LTYPE
  5
1F8
100
AcDbSymbolTableRecord
100
AcDbLinetypeTableRecord
  2
DOT
 70
64
  3
. . . . . . . . . . . . . . . . . . . .
 72
65
 73
2
 40
0.2
 49
0.1
 74
0
 49
-0.1
 74
0
  0
LTYPE
  5
1F9
100
AcDbSymbolTableRecord
100
AcDbLinetypeTableRecord
  2
DASHED
 70
64
  3
- - - - - - - - - - - - - - - - - - - -
 72
65
 73
2
 40
0.2
 49
0.1
 74
0
 49
-0.1
 74
0
  0
ENDTAB
  0
TABLE
  2
LAYER
  5
2
100
AcDbSymbolTable
 70
36
  0
LAYER
  5
10
100
AcDbSymbolTableRecord
100
AcDbLayerTableRecord
  2
0
 70
0
 62
7
  6
CONTINUOUS
370
-3
390
F
  0
LAYER
  5
1FA
100
AcDbSymbolTableRecord
100
AcDbLayerTableRecord
  2
DEFAULT_1
 70
0
 62
7
  6
CENTER
370
-3
390
F
  0
LAYER
  5
1FB
100
AcDbSymbolTableRecord
100
AcDbLayerTableRecord
  2
DEFAULT_2
 70
0
 62
7
  6
HIDDEN
370
-3
390
F
  0
LAYER
  5
1FC
100
AcDbSymbolTableRecord
100
AcDbLayerTableRecord
  2
DEFAULT_3
 70
0
 62
7
  6
PHANTOM
370
-3
390
F
  0
LAYER
  5
1FD
100
AcDbSymbolTableRecord
100
AcDbLayerTableRecord
  2
ASSI
 70
0
 62
7
  6
CONTINUOUS
370
-3
390
F
  0
LAYER
  5
1FE
100
AcDbSymbolTableRecord
100
AcDbLayerTableRecord
  2
COORDINATE
 70
0
 62
7
  6
CONTINUOUS
370
-3
390
F
  0
LAYER
  5
1FF
100
AcDbSymbolTableRecord
100
AcDbLayerTableRecord
  2
COORD_ORIGINE
 70
0
 62
7
  6
CONTINUOUS
370
-3
390
F
  0
LAYER
  5
200
100
AcDbSymbolTableRecord
100
AcDbLayerTableRecord
  2
CURVE
 70
0
 62
7
  6
CONTINUOUS
370
-3
390
F
  0
LAYER
  5
201
100
AcDbSymbolTableRecord
100
AcDbLayerTableRecord
  2
DRAFT
 70
0
 62
7
  6
CONTINUOUS
370
-3
390
F
  0
LAYER
  5
202
100
AcDbSymbolTableRecord
100
AcDbLayerTableRecord
  2
MARCHI_SOTTO
 70
0
 62
7
  6
CONTINUOUS
370
-3
390
F
  0
LAYER
  5
203
100
AcDbSymbolTableRecord
100
AcDbLayerTableRecord
  2
NOTE
 70
0
 62
7
  6
CONTINUOUS
370
-3
390
F
  0
LAYER
  5
204
100
AcDbSymbolTableRecord
100
AcDbLayerTableRecord
  2
PIANI
 70
0
 62
7
  6
CONTINUOUS
370
-3
390
F
  0
LAYER
  5
205
100
AcDbSymbolTableRecord
100
AcDbLayerTableRecord
  2
PIANI_ORIGINE
 70
0
 62
7
  6
CONTINUOUS
370
-3
390
F
  0
LAYER
  5
206
100
AcDbSymbolTableRecord
100
AcDbLayerTableRecord
  2
PUNTI
 70
0
 62
7
  6
CONTINUOUS
370
-3
390
F
  0
LAYER
  5
207
100
AcDbSymbolTableRecord
100
AcDbLayerTableRecord
  2
RACCORDO
 70
0
 62
7
  6
CONTINUOUS
370
-3
390
F
  0
LAYER
  5
208
100
AcDbSymbolTableRecord
100
AcDbLayerTableRecord
  2
SCRITTA_VIMAR
 70
0
 62
7
  6
CONTINUOUS
370
-3
390
F
  0
LAYER
  5
209
100
AcDbSymbolTableRecord
100
AcDbLayerTableRecord
  2
SNAPLINE
 70
0
 62
7
  6
CONTINUOUS
370
-3
390
F
  0
LAYER
  5
20A
100
AcDbSymbolTableRecord
100
AcDbLayerTableRecord
  2
SUPERFICI
 70
0
 62
7
  6
CONTINUOUS
370
-3
390
F
  0
LAYER
  5
20B
100
AcDbSymbolTableRecord
100
AcDbLayerTableRecord
  2
TRASH
 70
0
 62
7
  6
CONTINUOUS
370
-3
390
F
  0
LAYER
  5
20C
100
AcDbSymbolTableRecord
100
AcDbLayerTableRecord
  2
XSEC_DATUMS
 70
0
 62
7
  6
CONTINUOUS
370
-3
390
F
  0
ENDTAB
  0
TABLE
  2
STYLE
  5
3
100
AcDbSymbolTable
 70
1
  0
STYLE
  5
11
100
AcDbSymbolTableRecord
100
AcDbTextStyleTableRecord
  2
STANDARD
 70
0
 40
0.0
 41
0.8
 50
0.0
 71
0
 42
0.2
  3
txt
  4

  0
STYLE
  5
20D
100
AcDbSymbolTableRecord
100
AcDbTextStyleTableRecord
  2
TEXTSTYLE_1
 70
0
 40
0.0
 41
0.8
 50
0.0
 71
0
 42
0.2
  3
gdt
  4

  0
ENDTAB
  0
TABLE
  2
VIEW
  5
6
100
AcDbSymbolTable
 70
0
  0
ENDTAB
  0
TABLE
  2
UCS
  5
7
100
AcDbSymbolTable
 70
0
  0
ENDTAB
  0
TABLE
  2
APPID
  5
9
100
AcDbSymbolTable
 70
1
  0
APPID
  5
20E
100
AcDbSymbolTableRecord
100
AcDbRegAppTableRecord
  2
ACAD
 70
0
  0
ENDTAB
  0
TABLE
  2
BLOCK_RECORD
  5
1
100
AcDbSymbolTable
 70
0
  0
BLOCK_RECORD
  5
20F
100
AcDbSymbolTableRecord
100
AcDbBlockTableRecord
  2
*Model_Space
  0
BLOCK_RECORD
  5
210
100
AcDbSymbolTableRecord
100
AcDbBlockTableRecord
  2
*Paper_Space
  0
BLOCK_RECORD
  5
211
100
AcDbSymbolTableRecord
100
AcDbBlockTableRecord
  2
_FILLED
  0
BLOCK_RECORD
  5
212
100
AcDbSymbolTableRecord
100
AcDbBlockTableRecord
  2
*D0
  0
BLOCK_RECORD
  5
213
100
AcDbSymbolTableRecord
100
AcDbBlockTableRecord
  2
*D1
  0
BLOCK_RECORD
  5
214
100
AcDbSymbolTableRecord
100
AcDbBlockTableRecord
  2
*D2
  0
ENDTAB
  0
TABLE
  2
DIMSTYLE
  5
A
100
AcDbSymbolTable
 70
1
100
AcDbDimStyleTable
 71
0
  0
DIMSTYLE
105
215
100
AcDbSymbolTableRecord
100
AcDbDimStyleTableRecord
  2
STANDARD
 70
0
  3

  4

 40
1.0
 41
3.0
 42
0.5
 43
0.38
 44
1.5
 45
0.0
 46
0.0
 47
0.01
 48
0.01
140
3.0
141
0.09
142
0.0
143
25.4
144
1.0
145
0.0
146
1.0
147
0.625
 71
1
 72
0
 73
0
 74
0
 75
0
 76
0
 77
1
 78
8
 79
2
170
0
171
1
172
0
173
0
174
0
175
0
176
0
177
0
178
0
270
2
179
2
271
2
272
2
273
2
274
2
275
0
280
0
281
0
282
0
283
1
284
8
285
0
286
0
287
3
288
0
340
11
278
44
341
211
342
211
343
211
344
211
  0
DIMSTYLE
105
216
100
AcDbSymbolTableRecord
100
AcDbDimStyleTableRecord
  2
DIMSTYLE_1
 70
0
  3

  4

 40
1.0
 41
3.0
 42
0.5
 43
0.38
 44
1.5
 45
0.0
 46
0.0
 47
0.0
 48
0.0
140
3.0
141
0.09
142
0.0
143
25.4
144
1.0
145
0.0
146
1.0
147
0.75
 71
0
 72
0
 73
0
 74
0
 75
0
 76
0
 77
1
 78
8
 79
2
170
0
171
1
172
0
173
0
174
0
175
0
176
0
177
0
178
0
270
2
179
2
271
2
272
2
273
2
274
2
275
0
280
0
281
0
282
0
283
1
284
8
285
0
286
0
287
3
288
0
340
11
278
44
341
211
342
211
343
211
344
211
  0
ENDTAB
  0
ENDSEC
  0
SECTION
  2
BLOCKS
  0
BLOCK
  5
20
100
AcDbEntity
  8
0
100
AcDbBlockBegin
  2
*Model_Space
 70
0
 10
0.0
 20
0.0
 30
0.0
  3
*Model_Space
  1

  0
ENDBLK
  5
21
100
AcDbEntity
  8
0
100
AcDbBlockEnd
  0
BLOCK
  5
1C
100
AcDbEntity
  8
0
100
AcDbBlockBegin
  2
*Paper_Space
 70
0
 10
0.0
 20
0.0
 30
0.0
  3
*Paper_Space
  1

  0
ENDBLK
  5
1D
100
AcDbEntity
  8
0
100
AcDbBlockEnd
  0
BLOCK
  5
217
100
AcDbEntity
  8
0
100
AcDbBlockBegin
  2
_FILLED
 70
64
 10
0.0
 20
0.0
  3
_FILLED
  1

  0
SOLID
  5
218
100
AcDbEntity
  8
0
  6
BYBLOCK
 62
0
100
AcDbTrace
 10
0.0
 20
0.0
 11
-1.0
 21
0.3166666667
 12
-1.0
 22
-0.3166666667
 13
-1.0
 23
-0.3166666667
  0
ENDBLK
  5
219
100
AcDbEntity
  8
0
  6
BYBLOCK
 62
0
100
AcDbBlockEnd
  0
BLOCK
  5
21A
100
AcDbEntity
  8
0
100
AcDbBlockBegin
 62
7
  6
CONTINUOUS
  2
*D0
 70
65
 10
0.0
 20
0.0
  3
*D0
  1

  0
LINE
  5
21B
100
AcDbEntity
  8
0
100
AcDbLine
 62
7
  6
CONTINUOUS
 10
-104.1123307138
 20
36.9850346208
 11
-104.1123307138
 21
50.0190767749
  0
LINE
  5
21C
100
AcDbEntity
  8
0
100
AcDbLine
 62
7
  6
CONTINUOUS
 10
101.8876692862
 20
36.9850346208
 11
101.8876692862
 21
50.0190767749
  0
LINE
  5
21D
100
AcDbEntity
  8
0
100
AcDbLine
 62
7
  6
CONTINUOUS
 10
-104.1123307138
 20
48.5190767749
 11
-1.1123307138
 21
48.5190767749
  0
LINE
  5
21E
100
AcDbEntity
  8
0
100
AcDbLine
 62
7
  6
CONTINUOUS
 10
101.8876692862
 20
48.5190767749
 11
-1.1123307138
 21
48.5190767749
  0
INSERT
  5
21F
100
AcDbEntity
  8
0
100
AcDbBlockReference
 62
7
  6
CONTINUOUS
  2
_FILLED
 10
-104.1123307138
 20
48.5190767749
 41
3.0
 42
3.0
 43
3.0
 50
180.0
  0
INSERT
  5
220
100
AcDbEntity
  8
0
100
AcDbBlockReference
 62
7
  6
CONTINUOUS
  2
_FILLED
 10
101.8876692862
 20
48.5190767749
 41
3.0
 42
3.0
 43
3.0
  0
ENDBLK
  5
221
100
AcDbEntity
  8
0
  6
BYBLOCK
 62
0
100
AcDbBlockEnd
  0
BLOCK
  5
222
100
AcDbEntity
  8
0
100
AcDbBlockBegin
 62
7
  6
CONTINUOUS
  2
*D1
 70
65
 10
0.0
 20
0.0
  3
*D1
  1

  0
LINE
  5
223
100
AcDbEntity
  8
0
100
AcDbLine
 62
7
  6
CONTINUOUS
 10
-124.3342432042
 20
23.5809232251
 11
-124.3342432042
 21
50.0190767749
  0
LINE
  5
224
100
AcDbEntity
  8
0
100
AcDbLine
 62
7
  6
CONTINUOUS
 10
-114.8342432042
 20
39.9809232251
 11
-114.8342432042
 21
50.0190767749
  0
LINE
  5
225
100
AcDbEntity
  8
0
100
AcDbLine
 62
7
  6
CONTINUOUS
 10
-124.3342432042
 20
48.5190767749
 11
-128.3342432042
 21
48.5190767749
  0
LINE
  5
226
100
AcDbEntity
  8
0
100
AcDbLine
 62
7
  6
CONTINUOUS
 10
-128.3342432042
 20
48.5190767749
 11
-119.5842432042
 21
48.5190767749
  0
LINE
  5
227
100
AcDbEntity
  8
0
100
AcDbLine
 62
7
  6
CONTINUOUS
 10
-114.8342432042
 20
48.5190767749
 11
-110.8342432042
 21
48.5190767749
  0
LINE
  5
228
100
AcDbEntity
  8
0
100
AcDbLine
 62
7
  6
CONTINUOUS
 10
-110.8342432042
 20
48.5190767749
 11
-119.5842432042
 21
48.5190767749
  0
INSERT
  5
229
100
AcDbEntity
  8
0
100
AcDbBlockReference
 62
7
  6
CONTINUOUS
  2
_FILLED
 10
-124.3342432042
 20
48.5190767749
 41
3.0
 42
3.0
 43
3.0
  0
INSERT
  5
22A
100
AcDbEntity
  8
0
100
AcDbBlockReference
 62
7
  6
CONTINUOUS
  2
_FILLED
 10
-114.8342432042
 20
48.5190767749
 41
3.0
 42
3.0
 43
3.0
 50
180.0
  0
ENDBLK
  5
22B
100
AcDbEntity
  8
0
  6
BYBLOCK
 62
0
100
AcDbBlockEnd
  0
BLOCK
  5
22C
100
AcDbEntity
  8
0
100
AcDbBlockBegin
 62
7
  6
CONTINUOUS
  2
*D2
 70
65
 10
0.0
 20
0.0
  3
*D2
  1

  0
LINE
  5
22D
100
AcDbEntity
  8
0
100
AcDbLine
 62
7
  6
CONTINUOUS
 10
-115.3342432042
 20
39.4809232251
 11
-133.8342432042
 21
39.4809232251
  0
LINE
  5
22E
100
AcDbEntity
  8
0
100
AcDbLine
 62
7
  6
CONTINUOUS
 10
-115.3342432042
 20
-40.5190767749
 11
-133.8342432042
 21
-40.5190767749
  0
LINE
  5
22F
100
AcDbEntity
  8
0
100
AcDbLine
 62
7
  6
CONTINUOUS
 10
-132.3342432042
 20
39.4809232251
 11
-132.3342432042
 21
-0.5190767749
  0
LINE
  5
230
100
AcDbEntity
  8
0
100
AcDbLine
 62
7
  6
CONTINUOUS
 10
-132.3342432042
 20
-40.5190767749
 11
-132.3342432042
 21
-0.5190767749
  0
INSERT
  5
231
100
AcDbEntity
  8
0
100
AcDbBlockReference
 62
7
  6
CONTINUOUS
  2
_FILLED
 10
-132.3342432042
 20
39.4809232251
 41
3.0
 42
3.0
 43
3.0
 50
90.0
  0
INSERT
  5
232
100
AcDbEntity
  8
0
100
AcDbBlockReference
 62
7
  6
CONTINUOUS
  2
_FILLED
 10
-132.3342432042
 20
-40.5190767749
 41
3.0
 42
3.0
 43
3.0
 50
270.0
  0
ENDBLK
  5
233
100
AcDbEntity
  8
0
  6
BYBLOCK
 62
0
100
AcDbBlockEnd
  0
ENDSEC
  0
SECTION
  2
ENTITIES
  0
DIMENSION
  5
234
100
AcDbEntity
  8
0
100
AcDbDimension
 62
7
  6
CONTINUOUS
  2
*D0
 10
101.8876692862
 20
48.5190767749
 11
-4.6480449995
 21
48.5190767749
 70
160
 71
2
 72
2
 41
0.9
 42
206.0
  3
DIMSTYLE_1
100
AcDbAlignedDimension
 13
-104.1123307138
 23
36.4850346208
 14
101.8876692862
 24
36.4850346208
100
AcDbRotatedDimension
  0
DIMENSION
  5
235
100
AcDbEntity
  8
0
100
AcDbDimension
 62
7
  6
CONTINUOUS
  2
*D1
 10
-114.8342432042
 20
48.5190767749
 11
-122.6913860614
 21
48.5190767749
 70
160
 71
2
 72
2
 41
0.9
 42
9.5
  3
DIMSTYLE_1
100
AcDbAlignedDimension
 13
-124.3342432042
 23
23.0809232251
 14
-114.8342432042
 24
39.4809232251
100
AcDbRotatedDimension
  0
DIMENSION
  5
236
100
AcDbEntity
  8
0
100
AcDbDimension
 62
7
  6
CONTINUOUS
  2
*D2
 10
-132.3342432042
 20
-40.5190767749
 11
-132.3342432042
 21
-2.8762196321
 70
160
 71
2
 72
2
 41
0.9
 42
80.0
  3
DIMSTYLE_1
100
AcDbAlignedDimension
 13
-114.8342432042
 23
39.4809232251
 14
-114.8342432042
 24
-40.5190767749
 50
270.0
100
AcDbRotatedDimension
  0
LINE
  5
237
100
AcDbEntity
  8
RACCORDO
100
AcDbLine
 62
250
  6
CONTINUOUS
 10
-102.978233777
 20
-36.7749853569
 11
-102.9852743131
 21
-36.6175562943
  0
LWPOLYLINE
  5
238
100
AcDbEntity
  8
RACCORDO
100
AcDbPolyline
 62
250
  6
CONTINUOUS
 90
5
 70
0
 10
-102.9852743131
 20
-36.6175562943
 10
-102.989231621
 20
-36.5128041
 10
-102.990639845
 20
-36.4599673794
 10
-102.991294397
 20
-36.4063335332
 10
-102.9916978102
 20
-36.2950973473
  0
LINE
  5
239
100
AcDbEntity
  8
RACCORDO
100
AcDbLine
 62
250
  6
CONTINUOUS
 10
-102.9721149344
 20
-36.9367006809
 11
-102.978233777
 21
-36.7749853569
  0
LINE
  5
23A
100
AcDbEntity
  8
RACCORDO
100
AcDbLine
 62
250
  6
CONTINUOUS
 10
-102.9664231685
 20
-37.1091671461
 11
-102.9721149344
 21
-36.9367006809
  0
LINE
  5
23B
100
AcDbEntity
  8
RACCORDO
100
AcDbLine
 62
250
  6
CONTINUOUS
 10
-102.9609780673
 20
-37.2986583806
 11
-102.9664231685
 21
-37.1091671461
  0
LINE
  5
23C
100
AcDbEntity
  8
RACCORDO
100
AcDbLine
 62
250
  6
CONTINUOUS
 10
-102.9926983586
 20
-36.1758900513
 11
-102.9932516918
 21
-36.1128086248
  0
LWPOLYLINE
  5
23D
100
AcDbEntity
  8
RACCORDO
100
AcDbPolyline
 62
250
  6
CONTINUOUS
 90
4
 70
0
 10
-102.9932516918
 20
-36.1128086248
 10
-102.9956554172
 20
-35.8345827678
 10
-102.9962950921
 20
-35.7586513426
 10
-103.0280769798
 20
-32.1192685385
  0
LINE
  5
23E
100
AcDbEntity
  8
RACCORDO
100
AcDbLine
 62
250
  6
CONTINUOUS
 10
-103.0280769798
 20
-32.1192685385
 11
-103.0295131554
 21
-31.9490893783
  0
LWPOLYLINE
  5
23F
100
AcDbEntity
  8
RACCORDO
100
AcDbPolyline
 62
250
  6
CONTINUOUS
 90
3
 70
0
 10
-103.0295131554
 20
-31.9490893783
 10
-103.0324650015
 20
-31.5953823448
 10
-103.0339789429
 20
-31.4115505925
  0
LINE
  5
240
100
AcDbEntity
  8
RACCORDO
100
AcDbLine
 62
250
  6
CONTINUOUS
 10
-102.9916978102
 20
-36.2950973473
 11
-102.9926983586
 21
-36.1758900513
  0
LINE
  5
241
100
AcDbEntity
  8
RACCORDO
100
AcDbLine
 62
250
  6
CONTINUOUS
 10
-103.0339789429
 20
-31.4115505925
 11
-103.0386612887
 21
-30.8312178182
  0
LWPOLYLINE
  5
242
100
AcDbEntity
  8
RACCORDO
100
AcDbPolyline
 62
250
  6
CONTINUOUS
 90
3
 70
0
 10
-103.0386612887
 20
-30.8312178182
 10
-103.0418870085
 20
-30.41916797
 10
-103.0435257293
 20
-30.2051878656
  0
LINE
  5
243
100
AcDbEntity
  8
RACCORDO
100
AcDbLine
 62
250
  6
CONTINUOUS
 10
-103.8543558314
 20
33.0792149086
 11
-103.8563173951
 21
36.229021302
  0
LINE
  5
244
100
AcDbEntity
  8
RACCORDO
100
AcDbLine
 62
250
  6
CONTINUOUS
 10
-103.8514146085
 20
25.289657146
 11
-103.8543558314
 21
33.0792149086
  0
LINE
  5
245
100
AcDbEntity
  8
RACCORDO
100
AcDbLine
 62
7
  6
CONTINUOUS
 10
-104.1123307138
 20
36.4850346208
 11
-104.1123307138
 21
4.7809232251
  0
LINE
  5
246
100
AcDbEntity
  8
RACCORDO
100
AcDbLine
 62
7
  6
CONTINUOUS
 10
-104.1123307138
 20
-5.8190767749
 11
-104.1123307138
 21
-37.5231881707
  0
LINE
  5
247
100
AcDbEntity
  8
DRAFT
100
AcDbLine
 62
7
  6
CONTINUOUS
 10
-104.0123307138
 20
-5.6453866294
 11
-104.0123307138
 21
-4.5190767749
  0
LINE
  5
248
100
AcDbEntity
  8
DRAFT
100
AcDbLine
 62
7
  6
CONTINUOUS
 10
-104.0123307138
 20
3.4809232251
 11
-104.0123307138
 21
4.6071518926
  0
LINE
  5
249
100
AcDbEntity
  8
RACCORDO
100
AcDbLine
 62
7
  6
CONTINUOUS
 10
-103.9289034863
 20
2.2809232251
 11
-103.9289034863
 21
-3.3190767749
  0
LINE
  5
24A
100
AcDbEntity
  8
RACCORDO
100
AcDbLine
 62
250
  6
CONTINUOUS
 10
-103.8496523481
 20
12.4043044824
 11
-103.8514146085
 21
25.289657146
  0
LINE
  5
24B
100
AcDbEntity
  8
RACCORDO
100
AcDbLine
 62
250
  6
CONTINUOUS
 10
-103.8546554614
 20
-34.7598855727
 11
-103.8496523481
 21
12.4043044824
  0
LINE
  5
24C
100
AcDbEntity
  8
RACCORDO
100
AcDbLine
 62
250
  6
CONTINUOUS
 10
-103.8555195069
 20
-36.6056929516
 11
-103.8546554614
 21
-34.7598855727
  0
LINE
  5
24D
100
AcDbEntity
  8
RACCORDO
100
AcDbLine
 62
250
  6
CONTINUOUS
 10
-103.8555942788
 20
-36.7064056992
 11
-103.8555195069
 21
-36.6056929516
  0
LINE
  5
24E
100
AcDbEntity
  8
RACCORDO
100
AcDbLine
 62
250
  6
CONTINUOUS
 10
-103.8556898712
 20
-36.8087294118
 11
-103.8555942788
 21
-36.7064056992
  0
LINE
  5
24F
100
AcDbEntity
  8
RACCORDO
100
AcDbLine
 62
250
  6
CONTINUOUS
 10
-103.8558078465
 20
-36.9141701145
 11
-103.8556898712
 21
-36.8087294118
  0
LINE
  5
250
100
AcDbEntity
  8
RACCORDO
100
AcDbLine
 62
250
  6
CONTINUOUS
 10
-103.8559486528
 20
-37.024414634
 11
-103.8558078465
 21
-36.9141701145
  0
LINE
  5
251
100
AcDbEntity
  8
RACCORDO
100
AcDbLine
 62
250
  6
CONTINUOUS
 10
-103.8561180012
 20
-37.1418499313
 11
-103.8559486528
 21
-37.024414634
  0
LINE
  5
252
100
AcDbEntity
  8
RACCORDO
100
AcDbLine
 62
250
  6
CONTINUOUS
 10
-103.8563173951
 20
-37.2671748519
 11
-103.8561180012
 21
-37.1418499313
  0
LINE
  5
253
100
AcDbEntity
  8
RACCORDO
100
AcDbLine
 62
250
  6
CONTINUOUS
 10
-103.0382638377
 20
29.8430977392
 11
-103.0236119959
 21
31.6031850225
  0
LINE
  5
254
100
AcDbEntity
  8
RACCORDO
100
AcDbLine
 62
250
  6
CONTINUOUS
 10
-103.0236119959
 20
31.6031850225
 11
-102.9920954866
 21
35.2078416753
  0
LWPOLYLINE
  5
255
100
AcDbEntity
  8
RACCORDO
100
AcDbPolyline
 62
250
  6
CONTINUOUS
 90
3
 70
0
 10
-102.9912493053
 20
35.3762389207
 10
-102.9905721368
 20
35.4295988188
 10
-102.9890757636
 20
35.4821584568
  0
LINE
  5
256
100
AcDbEntity
  8
RACCORDO
100
AcDbLine
 62
250
  6
CONTINUOUS
 10
-102.9681628821
 20
36.0157124008
 11
-102.9609780741
 21
36.2605048328
  0
LINE
  5
257
100
AcDbEntity
  8
RACCORDO
100
AcDbLine
 62
250
  6
CONTINUOUS
 10
-102.9738926626
 20
35.8490330609
 11
-102.9681628821
 21
36.0157124008
  0
LWPOLYLINE
  5
258
100
AcDbEntity
  8
RACCORDO
100
AcDbPolyline
 62
250
  6
CONTINUOUS
 90
19
 70
0
 10
-103.8563173951
 20
36.229021302
 10
-103.8467443576
 20
36.4692517929
 10
-103.8169785246
 20
36.7139620695
 10
-103.7657225405
 20
36.9613231808
 10
-103.6911568291
 20
37.2112092029
 10
-103.5926442472
 20
37.4592557621
 10
-103.4724503765
 20
37.6975364201
 10
-103.3326987616
 20
37.9224378646
 10
-103.1736181022
 20
38.1341151344
 10
-102.9963554052
 20
38.3310071733
 10
-102.802168451
 20
38.511632729
 10
-102.5926263832
 20
38.6744541482
 10
-102.3695581805
 20
38.8180407284
 10
-102.1344705357
 20
38.9414058875
 10
-101.8894385173
 20
39.043445265
 10
-101.637424495
 20
39.1231040999
 10
-101.3808249916
 20
39.179992275
 10
-101.1213326698
 20
39.2140901168
 10
-100.8609544115
 20
39.225435527
  0
LINE
  5
259
100
AcDbEntity
  8
RACCORDO
100
AcDbLine
 62
250
  6
CONTINUOUS
 10
-102.9779939872
 20
35.7428500408
 11
-102.9738926626
 21
35.8490330609
  0
LINE
  5
25A
100
AcDbEntity
  8
RACCORDO
100
AcDbLine
 62
250
  6
CONTINUOUS
 10
-102.9890757636
 20
35.4821584568
 11
-102.9849242154
 21
35.5861584514
  0
LINE
  5
25B
100
AcDbEntity
  8
RACCORDO
100
AcDbLine
 62
250
  6
CONTINUOUS
 10
-102.9849242154
 20
35.5861584514
 11
-102.9779939872
 21
35.7428500408
  0
LWPOLYLINE
  5
25C
100
AcDbEntity
  8
RACCORDO
100
AcDbPolyline
 62
250
  6
CONTINUOUS
 90
19
 70
0
 10
-102.9609772717
 20
36.2605045883
 10
-102.9501285449
 20
36.4245155738
 10
-102.925752325
 20
36.5915871556
 10
-102.8869751451
 20
36.7603972024
 10
-102.8326460881
 20
36.9308965908
 10
-102.7623993133
 20
37.1001606844
 10
-102.6777623687
 20
37.262820551
 10
-102.5801959619
 20
37.4164803173
 10
-102.4698563196
 20
37.5613138508
 10
-102.3474364422
 20
37.6962683877
 10
-102.2137033368
 20
37.8203364073
 10
-102.0697574206
 20
37.932584199
 10
-101.9168127451
 20
38.032091899
 10
-101.7558060383
 20
38.1181494769
 10
-101.5880925491
 20
38.1900652706
 10
-101.4156282827
 20
38.2472045876
 10
-101.2399444792
 20
38.2892700816
 10
-101.0621459883
 20
38.3162019646
 10
-100.8837399434
 20
38.3281105057
  0
LWPOLYLINE
  5
25D
100
AcDbEntity
  8
RACCORDO
100
AcDbPolyline
 62
250
  6
CONTINUOUS
 90
10
 70
0
 10
-100.8609544115
 20
39.2254355269
 10
-100.8645715705
 20
39.2048823919
 10
-100.8680991326
 20
39.1601346187
 10
-100.8714497408
 20
39.0922991304
 10
-100.8745404171
 20
39.0030539698
 10
-100.8772946125
 20
38.8946067893
 10
-100.8796441002
 20
38.7696402407
 10
-100.881530667
 20
38.6312456143
 10
-100.8829075534
 20
38.4828463701
 10
-100.8837406068
 20
38.3281134517
  0
LWPOLYLINE
  5
25E
100
AcDbEntity
  8
RACCORDO
100
AcDbPolyline
 62
250
  6
CONTINUOUS
 90
10
 70
0
 10
-100.8609543915
 20
-40.2634669958
 10
-100.8645693512
 20
-40.2429158142
 10
-100.8680948713
 20
-40.1981740213
 10
-100.8714437597
 20
-40.1303482446
 10
-100.8745331992
 20
-40.0411160619
 10
-100.8772868029
 20
-39.9326845101
 10
-100.8796365061
 20
-39.807735497
 10
-100.8815242443
 20
-39.6693594674
 10
-100.8829033922
 20
-39.5209789641
 10
-100.883739923
 20
-39.3662639774
  0
LINE
  5
25F
100
AcDbEntity
  8
RACCORDO
100
AcDbLine
 62
250
  6
CONTINUOUS
 10
-103.0435257293
 20
-30.2051878656
 11
-103.0485288606
 21
-29.5299316242
  0
LINE
  5
260
100
AcDbEntity
  8
RACCORDO
100
AcDbLine
 62
250
  6
CONTINUOUS
 10
-103.0485288606
 20
-29.5299316242
 11
-103.0570324073
 21
-28.2836753401
  0
LINE
  5
261
100
AcDbEntity
  8
RACCORDO
100
AcDbLine
 62
250
  6
CONTINUOUS
 10
-103.0570324073
 20
-28.2836753401
 11
-103.0637987795
 21
-27.1660480177
  0
LINE
  5
262
100
AcDbEntity
  8
RACCORDO
100
AcDbLine
 62
250
  6
CONTINUOUS
 10
-103.0637987795
 20
-27.1660480177
 11
-103.0703883946
 21
-25.9293423984
  0
LWPOLYLINE
  5
263
100
AcDbEntity
  8
RACCORDO
100
AcDbPolyline
 62
250
  6
CONTINUOUS
 90
3
 70
0
 10
-103.0703883946
 20
-25.9293423984
 10
-103.0767333297
 20
-24.5606230562
 10
-103.0782964364
 20
-24.1961452607
  0
LINE
  5
264
100
AcDbEntity
  8
RACCORDO
100
AcDbLine
 62
250
  6
CONTINUOUS
 10
-103.0782964364
 20
-24.1961452607
 11
-103.08442885
 21
-22.6423313056
  0
LINE
  5
265
100
AcDbEntity
  8
RACCORDO
100
AcDbLine
 62
250
  6
CONTINUOUS
 10
-103.08442885
 20
-22.6423313056
 11
-103.0901546989
 21
-20.9212827216
  0
LINE
  5
266
100
AcDbEntity
  8
RACCORDO
100
AcDbLine
 62
250
  6
CONTINUOUS
 10
-103.0901546989
 20
-20.9212827216
 11
-103.0940016209
 21
-19.5099902492
  0
LINE
  5
267
100
AcDbEntity
  8
RACCORDO
100
AcDbLine
 62
250
  6
CONTINUOUS
 10
-103.0940016209
 20
-19.5099902492
 11
-103.0973301494
 21
-17.9859597825
  0
LINE
  5
268
100
AcDbEntity
  8
RACCORDO
100
AcDbLine
 62
250
  6
CONTINUOUS
 10
-103.0973301494
 20
-17.9859597825
 11
-103.1000118185
 21
-16.3400666643
  0
LINE
  5
269
100
AcDbEntity
  8
RACCORDO
100
AcDbLine
 62
250
  6
CONTINUOUS
 10
-103.1000118185
 20
-16.3400666643
 11
-103.1019370309
 21
-14.5625875982
  0
LINE
  5
26A
100
AcDbEntity
  8
RACCORDO
100
AcDbLine
 62
250
  6
CONTINUOUS
 10
-103.1019370309
 20
-14.5625875982
 11
-103.1030339557
 21
-12.6432313733
  0
LINE
  5
26B
100
AcDbEntity
  8
RACCORDO
100
AcDbLine
 62
250
  6
CONTINUOUS
 10
-103.1030339557
 20
-12.6432313733
 11
-103.1032927634
 21
-10.5712643789
  0
LINE
  5
26C
100
AcDbEntity
  8
RACCORDO
100
AcDbLine
 62
250
  6
CONTINUOUS
 10
-103.1032927634
 20
-10.5712643789
 11
-103.1025083147
 21
-7.5526100551
  0
LINE
  5
26D
100
AcDbEntity
  8
RACCORDO
100
AcDbLine
 62
250
  6
CONTINUOUS
 10
-103.1032259756
 20
8.9426668179
 11
-103.1026882017
 21
12.404688762
  0
LWPOLYLINE
  5
26E
100
AcDbEntity
  8
RACCORDO
100
AcDbPolyline
 62
250
  6
CONTINUOUS
 90
3
 70
0
 10
-103.1025083147
 20
-7.5526100551
 10
-103.1014249908
 20
-5.0820669962
 10
-103.1032259756
 20
8.9426668179
  0
LINE
  5
26F
100
AcDbEntity
  8
RACCORDO
100
AcDbLine
 62
250
  6
CONTINUOUS
 10
-103.1026882017
 20
12.404688762
 11
-103.1012417289
 21
14.2729888168
  0
LINE
  5
270
100
AcDbEntity
  8
RACCORDO
100
AcDbLine
 62
250
  6
CONTINUOUS
 10
-103.1012417289
 20
14.2729888168
 11
-103.0989864879
 21
16.0002376392
  0
LINE
  5
271
100
AcDbEntity
  8
RACCORDO
100
AcDbLine
 62
250
  6
CONTINUOUS
 10
-103.0989864879
 20
16.0002376392
 11
-103.0960152082
 21
17.5977365537
  0
LINE
  5
272
100
AcDbEntity
  8
RACCORDO
100
AcDbLine
 62
250
  6
CONTINUOUS
 10
-103.0960152082
 20
17.5977365537
 11
-103.092449451
 21
19.075776249
  0
LINE
  5
273
100
AcDbEntity
  8
RACCORDO
100
AcDbLine
 62
250
  6
CONTINUOUS
 10
-103.092449451
 20
19.075776249
 11
-103.086986528
 21
20.8765854517
  0
LINE
  5
274
100
AcDbEntity
  8
RACCORDO
100
AcDbLine
 62
250
  6
CONTINUOUS
 10
-103.086986528
 20
20.8765854517
 11
-103.0809886683
 21
22.501944635
  0
LINE
  5
275
100
AcDbEntity
  8
RACCORDO
100
AcDbLine
 62
250
  6
CONTINUOUS
 10
-103.0809886683
 20
22.501944635
 11
-103.0747541388
 21
23.969364786
  0
LINE
  5
276
100
AcDbEntity
  8
RACCORDO
100
AcDbLine
 62
250
  6
CONTINUOUS
 10
-103.0747541388
 20
23.969364786
 11
-103.06833383
 21
25.294568546
  0
LINE
  5
277
100
AcDbEntity
  8
RACCORDO
100
AcDbLine
 62
250
  6
CONTINUOUS
 10
-103.06833383
 20
25.294568546
 11
-103.0616848926
 21
26.4920621327
  0
LINE
  5
278
100
AcDbEntity
  8
RACCORDO
100
AcDbLine
 62
250
  6
CONTINUOUS
 10
-103.0616848926
 20
26.4920621327
 11
-103.0548893537
 21
27.5739000482
  0
LINE
  5
279
100
AcDbEntity
  8
RACCORDO
100
AcDbLine
 62
250
  6
CONTINUOUS
 10
-103.0548893537
 20
27.5739000482
 11
-103.0464252013
 21
28.7802059051
  0
LINE
  5
27A
100
AcDbEntity
  8
RACCORDO
100
AcDbLine
 62
250
  6
CONTINUOUS
 10
-103.0464252013
 20
28.7802059051
 11
-103.0382638377
 21
29.8430977392
  0
LWPOLYLINE
  5
27B
100
AcDbEntity
  8
RACCORDO
100
AcDbPolyline
 62
250
  6
CONTINUOUS
 90
3
 70
0
 10
-102.9920954866
 20
35.2078416753
 10
-102.9916313485
 20
35.2658784192
 10
-102.9912493053
 20
35.3762389207
  0
LWPOLYLINE
  5
27C
100
AcDbEntity
  8
RACCORDO
100
AcDbPolyline
 62
250
  6
CONTINUOUS
 90
3
 70
0
 10
-83.0940532037
 20
-22.8019198851
 10
-83.099019605
 20
-21.8286867637
 10
-83.1020249751
 20
-20.8225758308
  0
LINE
  5
27D
100
AcDbEntity
  8
RACCORDO
100
AcDbLine
 62
250
  6
CONTINUOUS
 10
-83.1020249751
 20
-20.8225758308
 11
-83.1057890379
 21
-18.713561982
  0
LINE
  5
27E
100
AcDbEntity
  8
RACCORDO
100
AcDbLine
 62
250
  6
CONTINUOUS
 10
-83.1057890379
 20
-18.713561982
 11
-83.1087983061
 21
-16.481020132
  0
LINE
  5
27F
100
AcDbEntity
  8
RACCORDO
100
AcDbLine
 62
250
  6
CONTINUOUS
 10
-81.4530853225
 20
19.7912423395
 11
-81.4556318775
 21
21.7809232251
  0
LINE
  5
280
100
AcDbEntity
  8
RACCORDO
100
AcDbLine
 62
250
  6
CONTINUOUS
 10
-83.1087983061
 20
-16.481020132
 11
-83.11116217
 21
-14.1390839546
  0
LINE
  5
281
100
AcDbEntity
  8
RACCORDO
100
AcDbLine
 62
250
  6
CONTINUOUS
 10
-83.11116217
 20
-14.1390839546
 11
-83.1129116292
 21
-11.6762637127
  0
LINE
  5
282
100
AcDbEntity
  8
RACCORDO
100
AcDbLine
 62
250
  6
CONTINUOUS
 10
-81.4515180113
 20
17.6788398813
 11
-81.4530853225
 21
19.7912423395
  0
LINE
  5
283
100
AcDbEntity
  8
RACCORDO
100
AcDbLine
 62
250
  6
CONTINUOUS
 10
-83.1129116292
 20
-11.6762637127
 11
-83.1144509454
 21
-7.744512685
  0
LWPOLYLINE
  5
284
100
AcDbEntity
  8
RACCORDO
100
AcDbPolyline
 62
250
  6
CONTINUOUS
 90
3
 70
0
 10
-81.4470391109
 20
-0.5188583565
 10
-81.4491943196
 20
10.6388186219
 10
-81.4515180113
 20
17.6788398813
  0
LINE
  5
285
100
AcDbEntity
  8
RACCORDO
100
AcDbLine
 62
250
  6
CONTINUOUS
 10
-83.1144509454
 20
-7.744512685
 11
-83.1152956622
 21
-0.5195509188
  0
LINE
  5
286
100
AcDbEntity
  8
RACCORDO
100
AcDbLine
 62
250
  6
CONTINUOUS
 10
-83.1152956011
 20
-0.519550919
 11
-83.1144513733
 21
6.7051874497
  0
LINE
  5
287
100
AcDbEntity
  8
RACCORDO
100
AcDbLine
 62
250
  6
CONTINUOUS
 10
-81.4515180886
 20
-18.7168774223
 11
-81.4470391109
 21
-0.5188583565
  0
LINE
  5
288
100
AcDbEntity
  8
RACCORDO
100
AcDbLine
 62
250
  6
CONTINUOUS
 10
-83.1144513733
 20
6.7051874497
 11
-83.1121168597
 21
11.8842678917
  0
LINE
  5
289
100
AcDbEntity
  8
RACCORDO
100
AcDbLine
 62
250
  6
CONTINUOUS
 10
-81.4530853616
 20
-20.8294170637
 11
-81.4515180886
 21
-18.7168774223
  0
LINE
  5
28A
100
AcDbEntity
  8
RACCORDO
100
AcDbLine
 62
250
  6
CONTINUOUS
 10
-83.1121168597
 20
11.8842678917
 11
-83.1100577597
 21
14.2859694842
  0
LINE
  5
28B
100
AcDbEntity
  8
RACCORDO
100
AcDbLine
 62
250
  6
CONTINUOUS
 10
-83.1100577597
 20
14.2859694842
 11
-83.107373709
 21
16.573580631
  0
LINE
  5
28C
100
AcDbEntity
  8
RACCORDO
100
AcDbLine
 62
250
  6
CONTINUOUS
 10
-81.4556318775
 20
-22.8190767749
 11
-81.4530853616
 21
-20.8294170637
  0
LWPOLYLINE
  5
28D
100
AcDbEntity
  8
RACCORDO
100
AcDbPolyline
 62
250
  6
CONTINUOUS
 90
5
 70
0
 10
-83.107373709
 20
16.573580631
 10
-83.1040331419
 20
18.7461720949
 10
-83.1020361613
 20
19.7843995289
 10
-83.0990343509
 20
20.7904958522
 10
-83.0940531141
 20
21.7637663244
  0
LWPOLYLINE
  5
28E
100
AcDbEntity
  8
RACCORDO
100
AcDbPolyline
 62
250
  6
CONTINUOUS
 90
73
 70
0
 10
-81.4556318775
 20
21.7809232251
 10
-81.4549635808
 20
21.8383425636
 10
-81.4526332245
 20
21.8936651072
 10
-81.4488229818
 20
21.946847132
 10
-81.4437239453
 20
21.9976999213
 10
-81.4374997095
 20
22.0463550444
 10
-81.4302458209
 20
22.0932591358
 10
-81.4221608208
 20
22.1380030631
 10
-81.4133065949
 20
22.1809774149
 10
-81.4034165137
 20
22.2238097523
 10
-81.392401577
 20
22.2667712673
 10
-81.3803377614
 20
22.309534251
 10
-81.367040761
 20
22.3527933897
 10
-81.3523646963
 20
22.3968178056
 10
-81.3363417963
 20
22.4412485158
 10
-81.3190201393
 20
22.4858289242
 10
-81.3003466238
 20
22.5305782869
 10
-81.2803083523
 20
22.5753884871
 10
-81.2590613679
 20
22.6198287494
 10
-81.2365896826
 20
22.6638965989
 10
-81.2129114601
 20
22.7075250379
 10
-81.1883026933
 20
22.750219266
 10
-81.1628024108
 20
22.7919699377
 10
-81.1364515444
 20
22.8327613499
 10
-81.1096009851
 20
22.8721338173
 10
-81.0823534012
 20
22.9100625137
 10
-81.0547511858
 20
22.9466056701
 10
-81.027109914
 20
22.9814712053
 10
-80.9995628368
 20
23.0146434044
 10
-80.9721482773
 20
23.0462189905
 10
-80.9450656792
 20
23.076101992
 10
-80.9184648783
 20
23.1042729852
 10
-80.8923586726
 20
23.1308559332
 10
-80.8667386045
 20
23.1559740387
 10
-80.8417373907
 20
23.1796108075
 10
-80.8173484914
 20
23.2018793295
 10
-80.7933305604
 20
23.2230773856
 10
-80.7697146727
 20
23.2432485401
 10
-80.7465474317
 20
23.2624123791
 10
-80.7235838374
 20
23.2808025719
 10
-80.7009408332
 20
23.2983679695
 10
-80.6785520112
 20
23.3152001906
 10
-80.655867553
 20
23.3317093339
 10
-80.632864404
 20
23.3479054642
 10
-80.6095743918
 20
23.3637662782
 10
-80.5854971082
 20
23.3796063447
 10
-80.5605924759
 20
23.3954056359
 10
-80.5348816171
 20
23.4111249269
 10
-80.5079282035
 20
23.4270063177
 10
-80.4794336231
 20
23.4431524262
 10
-80.4496487914
 20
23.4593416057
 10
-80.418959882
 20
23.4753268861
 10
-80.3875450602
 20
23.4909838243
 10
-80.3552137956
 20
23.5063648332
 10
-80.3218070725
 20
23.5214993664
 10
-80.2872694473
 20
23.5363543956
 10
-80.2516383537
 20
23.5508570639
 10
-80.2148911394
 20
23.5649651018
 10
-80.1768467893
 20
23.5786848775
 10
-80.1376743785
 20
23.591886138
 10
-80.0978898377
 20
23.6043514478
 10
-80.0575339198
 20
23.616058855
 10
-80.0165884964
 20
23.6269759714
 10
-79.9755049718
 20
23.6369317136
 10
-79.9349218898
 20
23.6457972501
 10
-79.8942532173
 20
23.6537321851
 10
-79.852107454
 20
23.6609355318
 10
-79.8081632716
 20
23.6673555602
 10
-79.7627629964
 20
23.6728417238
 10
-79.7154973532
 20
23.6773176504
 10
-79.666245306
 20
23.6806535536
 10
-79.615177743
 20
23.6827006903
 10
-79.5623307138
 20
23.683317016
  0
LWPOLYLINE
  5
28F
100
AcDbEntity
  8
RACCORDO
100
AcDbPolyline
 62
250
  6
CONTINUOUS
 90
63
 70
0
 10
-83.0940516382
 20
21.7637661413
 10
-83.0915420464
 20
21.8742996445
 10
-83.0857704396
 20
21.9808128085
 10
-83.0771072669
 20
22.0831677626
 10
-83.0659630883
 20
22.1809484475
 10
-83.0526395598
 20
22.2744317222
 10
-83.0372253876
 20
22.3646484004
 10
-83.0198269944
 20
22.4511134539
 10
-83.000790482
 20
22.5344027483
 10
-82.9803908485
 20
22.6167450801
 10
-82.9589682422
 20
22.6979480282
 10
-82.9365796444
 20
22.77718128
 10
-82.9126609369
 20
22.8561705769
 10
-82.8870229874
 20
22.9359575916
 10
-82.8594413118
 20
23.0164417422
 10
-82.8292329067
 20
23.0973953896
 10
-82.7960496254
 20
23.178775762
 10
-82.7601508966
 20
23.2602786212
 10
-82.7218879551
 20
23.341113444
 10
-82.6812445621
 20
23.4212846507
 10
-82.6382443241
 20
23.5006452629
 10
-82.5934165508
 20
23.5782649261
 10
-82.5468358421
 20
23.654098147
 10
-82.4985892027
 20
23.7281049689
 10
-82.4493554467
 20
23.7994461876
 10
-82.3993222452
 20
23.8680651682
 10
-82.3485728653
 20
23.9340631243
 10
-82.297727003
 20
23.9969226087
 10
-82.2470373159
 20
24.0566032828
 10
-82.1965797981
 20
24.1132705122
 10
-82.1467465108
 20
24.166777317
 10
-82.0977830664
 20
24.217109686
 10
-82.0496935328
 20
24.264509024
 10
-82.0025078437
 20
24.3092171344
 10
-81.9565782645
 20
24.3511216449
 10
-81.911912968
 20
24.3903961279
 10
-81.8679734303
 20
24.4276774654
 10
-81.8245793369
 20
24.4631760049
 10
-81.7815481342
 20
24.497193842
 10
-81.7381181348
 20
24.5305664064
 10
-81.6944479159
 20
24.5632068406
 10
-81.6506513014
 20
24.5950119986
 10
-81.605995062
 20
24.6265851643
 10
-81.560415189
 20
24.6579676574
 10
-81.5139208058
 20
24.6890704464
 10
-81.4657524468
 20
24.7202944262
 10
-81.4161013337
 20
24.7515933368
 10
-81.365554968
 20
24.7824088081
 10
-81.3141814542
 20
24.8121901428
 10
-81.2617962991
 20
24.8407641556
 10
-81.2081578001
 20
24.8684839197
 10
-81.1529108901
 20
24.8957732709
 10
-81.0959168189
 20
24.9227470956
 10
-81.0371184781
 20
24.9492429378
 10
-80.9764040851
 20
24.9751709632
 10
-80.9137858339
 20
25.0004128976
 10
-80.84933079
 20
25.0248591131
 10
-80.7829956489
 20
25.0484262769
 10
-80.7144946163
 20
25.0710381778
 10
-80.6441061567
 20
25.092579963
 10
-80.5726375637
 20
25.1129559447
 10
-80.500107772
 20
25.1319166608
 10
-80.4259184197
 20
25.1497454065
  0
LINE
  5
290
100
AcDbEntity
  8
RACCORDO
100
AcDbLine
 62
250
  6
CONTINUOUS
 10
-79.5623307137
 20
-24.7214743847
 11
-79.5564082812
 21
-25.3817551807
  0
LWPOLYLINE
  5
291
100
AcDbEntity
  8
RACCORDO
100
AcDbPolyline
 62
250
  6
CONTINUOUS
 90
3
 70
0
 10
-79.5564082812
 20
-25.3817551807
 10
-79.5508219305
 20
-26.1157622276
 10
-79.5495197577
 20
-26.3053159533
  0
LINE
  5
292
100
AcDbEntity
  8
0
100
AcDbLine
 62
7
  6
CONTINUOUS
 10
-79.8623307138
 20
21.7809232251
 11
-79.8623307138
 21
-22.8190767749
  0
LINE
  5
293
100
AcDbEntity
  8
RACCORDO
100
AcDbLine
 62
250
  6
CONTINUOUS
 10
-79.5623307138
 20
-23.1190767749
 11
-79.5623307138
 21
-24.7214705659
  0
LINE
  5
294
100
AcDbEntity
  8
RACCORDO
100
AcDbLine
 62
250
  6
CONTINUOUS
 10
-79.5623307138
 20
22.0809232251
 11
-79.5623307138
 21
23.683317016
  0
LINE
  5
295
100
AcDbEntity
  8
RACCORDO
100
AcDbLine
 62
250
  6
CONTINUOUS
 10
-79.5623307139
 20
23.6833152708
 11
-79.5495197304
 21
25.2671619106
  0
LINE
  5
296
100
AcDbEntity
  8
RACCORDO
100
AcDbLine
 62
250
  6
CONTINUOUS
 10
-69.1111977416
 20
23.6829421226
 11
-69.1117384176
 21
25.2861874827
  0
LINE
  5
297
100
AcDbEntity
  8
RACCORDO
100
AcDbLine
 62
250
  6
CONTINUOUS
 10
-69.1120660923
 20
25.2861874827
 11
-69.112297974
 21
38.5455822974
  0
LINE
  5
298
100
AcDbEntity
  8
RACCORDO
100
AcDbLine
 62
250
  6
CONTINUOUS
 10
-69.1125047462
 20
39.2140422541
 11
-69.1124199452
 21
38.5455822974
  0
LWPOLYLINE
  5
299
100
AcDbEntity
  8
RACCORDO
100
AcDbPolyline
 62
250
  6
CONTINUOUS
 90
3
 70
0
 10
-69.1120642271
 20
-39.8174983606
 10
-69.1120469456
 20
-39.7045001668
 10
-69.1122292132
 20
-26.3243412858
  0
LINE
  5
29A
100
AcDbEntity
  8
RACCORDO
100
AcDbLine
 62
250
  6
CONTINUOUS
 10
-69.1121117963
 20
-40.0125792762
 11
-69.1120642271
 21
-39.8174983606
  0
LINE
  5
29B
100
AcDbEntity
  8
RACCORDO
100
AcDbLine
 62
250
  6
CONTINUOUS
 10
-69.1119721209
 20
-25.5700518686
 11
-69.1114838194
 21
-26.3243411373
  0
LINE
  5
29C
100
AcDbEntity
  8
RACCORDO
100
AcDbLine
 62
250
  6
CONTINUOUS
 10
-69.1109431359
 20
-24.7210957059
 11
-69.1119721209
 21
-25.5700518686
  0
LINE
  5
29D
100
AcDbEntity
  8
RACCORDO
100
AcDbLine
 62
250
  6
CONTINUOUS
 10
-69.1122881677
 20
-40.252195806
 11
-69.1121117963
 21
-40.0125792762
  0
LWPOLYLINE
  5
29E
100
AcDbEntity
  8
RACCORDO
100
AcDbPolyline
 62
250
  6
CONTINUOUS
 90
10
 70
0
 10
101.6315759239
 20
-37.2671748488
 10
101.6110716102
 20
-37.2721643622
 10
101.5664416804
 20
-37.2770308617
 10
101.4987869643
 20
-37.2816543109
 10
101.4097762141
 20
-37.2859206681
 10
101.3016049444
 20
-37.2897246985
 10
101.1769412775
 20
-37.2929725701
 10
101.0388601325
 20
-37.2955841677
 10
100.8907673805
 20
-37.2974950697
 10
100.7363158361
 20
-37.2986581358
  0
LWPOLYLINE
  5
29F
100
AcDbEntity
  8
RACCORDO
100
AcDbPolyline
 62
250
  6
CONTINUOUS
 90
10
 70
0
 10
-103.8563173951
 20
-37.2671748519
 10
-103.8358102306
 20
-37.2721646723
 10
-103.7911751994
 20
-37.2770314162
 10
-103.723513338
 20
-37.2816550396
 10
-103.6344936978
 20
-37.2859214964
 10
-103.5263121741
 20
-37.2897255495
 10
-103.4016373381
 20
-37.2929733664
 10
-103.2635446105
 20
-37.2955848373
 10
-103.1154403983
 20
-37.2974955508
 10
-102.9609780673
 20
-37.2986583806
  0
LINE
  5
2A0
100
AcDbEntity
  8
RACCORDO
100
AcDbLine
 62
250
  6
CONTINUOUS
 10
-103.8563173951
 20
-37.2671748519
 11
-104.1123307138
 21
-37.5231881707
  0
LWPOLYLINE
  5
2A1
100
AcDbEntity
  8
RACCORDO
100
AcDbPolyline
 62
250
  6
CONTINUOUS
 90
19
 70
0
 10
-100.8609544115
 20
-40.2635890769
 10
-101.1195160641
 20
-40.2524011108
 10
-101.376959579
 20
-40.2188235242
 10
-101.6313347282
 20
-40.1628840411
 10
-101.8809227486
 20
-40.0846956357
 10
-102.1235089986
 20
-39.9846785657
 10
-102.3564839174
 20
-39.8637684795
 10
-102.5779259263
 20
-39.7229530739
 10
-102.78626548
 20
-39.5632203229
 10
-102.9796700407
 20
-39.3859865617
 10
-103.1566031381
 20
-39.1927522362
 10
-103.3158600605
 20
-38.9849330375
 10
-103.4563238504
 20
-38.7640385177
 10
-103.5770131688
 20
-38.5316016329
 10
-103.6769235388
 20
-38.2895412795
 10
-103.7552029772
 20
-38.0400923813
 10
-103.8113483083
 20
-37.7853124519
 10
-103.8450985669
 20
-37.5270218454
 10
-103.8563173951
 20
-37.2671748519
  0
LWPOLYLINE
  5
2A2
100
AcDbEntity
  8
RACCORDO
100
AcDbPolyline
 62
250
  6
CONTINUOUS
 90
19
 70
0
 10
-100.883739923
 20
-39.3662639774
 10
-101.0609177634
 20
-39.3545010954
 10
-101.2372996492
 20
-39.3279443465
 10
-101.4114366086
 20
-39.2865431687
 10
-101.582228662
 20
-39.2304349095
 10
-101.7482601424
 20
-39.159914827
 10
-101.9078102392
 20
-39.0755256663
 10
-102.0596361583
 20
-38.9779138764
 10
-102.2027435528
 20
-38.8677773804
 10
-102.3358989109
 20
-38.7460053342
 10
-102.4580419831
 20
-38.6135215017
 10
-102.5684566032
 20
-38.4713147406
 10
-102.6664448934
 20
-38.3203927403
 10
-102.7513068437
 20
-38.1617185451
 10
-102.8223975598
 20
-37.9965474459
 10
-102.8792131279
 20
-37.8263603128
 10
-102.9213779207
 20
-37.6524714828
 10
-102.9486470458
 20
-37.4760752086
 10
-102.9609768258
 20
-37.2986580021
  0
LINE
  5
2A3
100
AcDbEntity
  8
RACCORDO
100
AcDbLine
 62
250
  6
CONTINUOUS
 10
-103.8563173951
 20
36.229021302
 11
-104.1123307138
 21
36.4850346208
  0
LINE
  5
2A4
100
AcDbEntity
  8
RACCORDO
100
AcDbLine
 62
250
  6
CONTINUOUS
 10
-100.8609544115
 20
-40.2635890769
 11
-101.1164421096
 21
-40.5190767749
  0
LWPOLYLINE
  5
2A5
100
AcDbEntity
  8
RACCORDO
100
AcDbPolyline
 62
250
  6
CONTINUOUS
 90
10
 70
0
 10
78.2014261375
 20
-26.1878572158
 10
78.0478187529
 20
-26.2227975361
 10
77.9684337023
 20
-26.2397041904
 10
77.8858762486
 20
-26.255235315
 10
77.8004582698
 20
-26.2687811326
 10
77.7126399997
 20
-26.2804072713
 10
77.6213729992
 20
-26.2901167801
 10
77.5261515826
 20
-26.2977228513
 10
77.427264219
 20
-26.302890685
 10
77.3248582651
 20
-26.3053147901
  0
LINE
  5
2A6
100
AcDbEntity
  8
RACCORDO
100
AcDbLine
 62
250
  6
CONTINUOUS
 10
98.6590791782
 20
-39.3662669973
 11
98.4486347203
 21
-39.3722717722
  0
LWPOLYLINE
  5
2A7
100
AcDbEntity
  8
RACCORDO
100
AcDbPolyline
 62
250
  6
CONTINUOUS
 90
5
 70
0
 10
98.4486347203
 20
-39.3722717722
 10
98.1082949151
 20
-39.3809793971
 10
97.9889223906
 20
-39.3832191721
 10
97.8663369089
 20
-39.3844152214
 10
97.474848778
 20
-39.3864457619
  0
LINE
  5
2A8
100
AcDbEntity
  8
RACCORDO
100
AcDbLine
 62
250
  6
CONTINUOUS
 10
89.0940146477
 20
-39.4675733196
 11
87.0366617016
 21
-39.4960470247
  0
LINE
  5
2A9
100
AcDbEntity
  8
RACCORDO
100
AcDbLine
 62
250
  6
CONTINUOUS
 10
91.797802812
 20
-39.4369940363
 11
90.0266382148
 21
-39.4581542912
  0
LINE
  5
2AA
100
AcDbEntity
  8
RACCORDO
100
AcDbLine
 62
250
  6
CONTINUOUS
 10
93.8991223998
 20
-39.4145372598
 11
91.797802812
 21
-39.4369940363
  0
LWPOLYLINE
  5
2AB
100
AcDbEntity
  8
RACCORDO
100
AcDbPolyline
 62
250
  6
CONTINUOUS
 90
3
 70
0
 10
85.7874227085
 20
-39.508266313
 10
84.7524180515
 20
-39.5181517062
 10
84.3888263743
 20
-39.5216067254
  0
LWPOLYLINE
  5
2AC
100
AcDbEntity
  8
RACCORDO
100
AcDbPolyline
 62
250
  6
CONTINUOUS
 90
3
 70
0
 10
87.0366617016
 20
-39.4960470247
 10
86.4307852129
 20
-39.5021362113
 10
85.7874227085
 20
-39.508266313
  0
LINE
  5
2AD
100
AcDbEntity
  8
RACCORDO
100
AcDbLine
 62
250
  6
CONTINUOUS
 10
84.3888263743
 20
-39.5216067254
 11
83.6327605923
 21
-39.528689656
  0
LWPOLYLINE
  5
2AE
100
AcDbEntity
  8
RACCORDO
100
AcDbPolyline
 62
250
  6
CONTINUOUS
 90
3
 70
0
 10
90.0266382148
 20
-39.4581542912
 10
89.5585511979
 20
-39.4625426406
 10
89.0940146477
 20
-39.4675733196
  0
LINE
  5
2AF
100
AcDbEntity
  8
RACCORDO
100
AcDbLine
 62
250
  6
CONTINUOUS
 10
83.6327605923
 20
-39.528689656
 11
82.0007207418
 21
-39.5434065704
  0
LINE
  5
2B0
100
AcDbEntity
  8
RACCORDO
100
AcDbLine
 62
250
  6
CONTINUOUS
 10
82.0007207418
 20
-39.5434065704
 11
80.662482175
 21
-39.5545835748
  0
LINE
  5
2B1
100
AcDbEntity
  8
RACCORDO
100
AcDbLine
 62
250
  6
CONTINUOUS
 10
95.7329657875
 20
-39.3987986417
 11
93.8991223998
 21
-39.4145372598
  0
LINE
  5
2B2
100
AcDbEntity
  8
RACCORDO
100
AcDbLine
 62
250
  6
CONTINUOUS
 10
80.662482175
 20
-39.5545835748
 11
79.2163940148
 21
-39.5654092935
  0
LINE
  5
2B3
100
AcDbEntity
  8
RACCORDO
100
AcDbLine
 62
250
  6
CONTINUOUS
 10
96.4231897361
 20
-39.3936524047
 11
95.7329657875
 21
-39.3987986417
  0
LINE
  5
2B4
100
AcDbEntity
  8
RACCORDO
100
AcDbLine
 62
250
  6
CONTINUOUS
 10
96.7428208154
 20
-39.3913871555
 11
96.4231897361
 21
-39.3936524047
  0
LINE
  5
2B5
100
AcDbEntity
  8
RACCORDO
100
AcDbLine
 62
250
  6
CONTINUOUS
 10
97.1924824735
 20
-39.3883138582
 11
96.7428208154
 21
-39.3913871555
  0
LINE
  5
2B6
100
AcDbEntity
  8
RACCORDO
100
AcDbLine
 62
250
  6
CONTINUOUS
 10
97.474848778
 20
-39.3864457619
 11
97.1924824735
 21
-39.3883138582
  0
LINE
  5
2B7
100
AcDbEntity
  8
RACCORDO
100
AcDbLine
 62
250
  6
CONTINUOUS
 10
79.2163940148
 20
-39.5654092935
 11
78.1872286263
 21
-39.5721179647
  0
LINE
  5
2B8
100
AcDbEntity
  8
RACCORDO
100
AcDbLine
 62
250
  6
CONTINUOUS
 10
78.1872286263
 20
-39.5721179647
 11
77.1029486761
 21
-39.5781841034
  0
LINE
  5
2B9
100
AcDbEntity
  8
RACCORDO
100
AcDbLine
 62
250
  6
CONTINUOUS
 10
77.1029486761
 20
-39.5781841034
 11
75.9599125493
 21
-39.5832422526
  0
LINE
  5
2BA
100
AcDbEntity
  8
RACCORDO
100
AcDbLine
 62
250
  6
CONTINUOUS
 10
75.9599125493
 20
-39.5832422526
 11
74.7547286995
 21
-39.5868691158
  0
LINE
  5
2BB
100
AcDbEntity
  8
RACCORDO
100
AcDbLine
 62
250
  6
CONTINUOUS
 10
74.7547286995
 20
-39.5868691158
 11
73.4853533803
 21
-39.5889085572
  0
LWPOLYLINE
  5
2BC
100
AcDbEntity
  8
RACCORDO
100
AcDbPolyline
 62
250
  6
CONTINUOUS
 90
3
 70
0
 10
-69.1120338306
 20
-39.583735746
 10
-69.9842463651
 20
-39.5842831418
 10
-73.2081757412
 20
-39.5883745855
  0
LINE
  5
2BD
100
AcDbEntity
  8
RACCORDO
100
AcDbLine
 62
250
  6
CONTINUOUS
 10
-99.5758047454
 20
-40.2629009406
 11
-99.9956429758
 21
-40.2630376982
  0
LINE
  5
2BE
100
AcDbEntity
  8
RACCORDO
100
AcDbLine
 62
250
  6
CONTINUOUS
 10
-99.9956429758
 20
-40.2630376982
 11
-100.8609544115
 21
-40.2635890769
  0
LWPOLYLINE
  5
2BF
100
AcDbEntity
  8
RACCORDO
100
AcDbPolyline
 62
250
  6
CONTINUOUS
 90
3
 70
0
 10
-89.7187062818
 20
-40.2570794538
 10
-97.7556505322
 20
-40.2621584586
 10
-99.5758047454
 20
-40.2629009406
  0
LINE
  5
2C0
100
AcDbEntity
  8
RACCORDO
100
AcDbLine
 62
250
  6
CONTINUOUS
 10
-73.2081757412
 20
-39.5883745855
 11
-74.6714590256
 21
-39.5892840557
  0
LINE
  5
2C1
100
AcDbEntity
  8
RACCORDO
100
AcDbLine
 62
250
  6
CONTINUOUS
 10
-79.7005380364
 20
-40.2523457504
 11
-89.7187062818
 21
-40.2570794538
  0
LINE
  5
2C2
100
AcDbEntity
  8
RACCORDO
100
AcDbLine
 62
7
  6
CONTINUOUS
 10
-101.1164421096
 20
-40.5190767749
 11
98.8917806819
 21
-40.5190767749
  0
LWPOLYLINE
  5
2C3
100
AcDbEntity
  8
RACCORDO
100
AcDbPolyline
 62
250
  6
CONTINUOUS
 90
3
 70
0
 10
73.4851583294
 20
-40.2517995265
 10
72.8258106854
 20
-40.2518049529
 10
66.8876267407
 20
-40.252195806
  0
LINE
  5
2C4
100
AcDbEntity
  8
RACCORDO
100
AcDbLine
 62
250
  6
CONTINUOUS
 10
66.8875419856
 20
-39.5837358453
 11
-69.1120338306
 21
-39.5837358452
  0
LINE
  5
2C5
100
AcDbEntity
  8
RACCORDO
100
AcDbLine
 62
250
  6
CONTINUOUS
 10
66.8876267407
 20
-40.252195806
 11
-73.9521746311
 21
-40.2518528618
  0
LINE
  5
2C6
100
AcDbEntity
  8
RACCORDO
100
AcDbLine
 62
250
  6
CONTINUOUS
 10
-73.9521746311
 20
-40.2518528618
 11
-79.7005380364
 21
-40.2523457504
  0
LWPOLYLINE
  5
2C7
100
AcDbEntity
  8
RACCORDO
100
AcDbPolyline
 62
250
  6
CONTINUOUS
 90
4
 70
0
 10
75.9568883608
 20
-40.2520073753
 10
75.3629619974
 20
-40.2519194967
 10
74.7531823676
 20
-40.2518570826
 10
73.4851583294
 20
-40.2517995265
  0
LINE
  5
2C8
100
AcDbEntity
  8
RACCORDO
100
AcDbLine
 62
250
  6
CONTINUOUS
 10
73.4853533803
 20
-39.5889085572
 11
72.1488076254
 21
-39.5891714132
  0
LINE
  5
2C9
100
AcDbEntity
  8
RACCORDO
100
AcDbLine
 62
250
  6
CONTINUOUS
 10
97.8608217875
 20
-40.2630795615
 11
97.6029862394
 21
-40.2629942731
  0
LWPOLYLINE
  5
2CA
100
AcDbEntity
  8
RACCORDO
100
AcDbPolyline
 62
250
  6
CONTINUOUS
 90
6
 70
0
 10
79.2096109848
 20
-40.252915415
 10
78.7022553282
 20
-40.2527312716
 10
78.1814978591
 20
-40.2525569961
 10
77.6473103968
 20
-40.2523930869
 10
77.098483976
 20
-40.2522466697
 10
75.9568883608
 20
-40.2520073753
  0
LINE
  5
2CB
100
AcDbEntity
  8
RACCORDO
100
AcDbLine
 62
250
  6
CONTINUOUS
 10
98.1010446133
 20
-40.2631714881
 11
97.8608217875
 21
-40.2630795615
  0
LWPOLYLINE
  5
2CC
100
AcDbEntity
  8
RACCORDO
100
AcDbPolyline
 62
250
  6
CONTINUOUS
 90
3
 70
0
 10
80.6544948395
 20
-40.2535125444
 10
80.1851567416
 20
-40.253309169
 10
79.2096109848
 20
-40.252915415
  0
LWPOLYLINE
  5
2CD
100
AcDbEntity
  8
RACCORDO
100
AcDbPolyline
 62
250
  6
CONTINUOUS
 90
3
 70
0
 10
97.6029862394
 20
-40.2629942731
 10
94.7660791113
 20
-40.2617925428
 10
94.5579400623
 20
-40.2616862744
  0
LINE
  5
2CE
100
AcDbEntity
  8
RACCORDO
100
AcDbLine
 62
250
  6
CONTINUOUS
 10
94.5579400623
 20
-40.2616862744
 11
94.1200721576
 21
-40.2614532232
  0
LINE
  5
2CF
100
AcDbEntity
  8
RACCORDO
100
AcDbLine
 62
250
  6
CONTINUOUS
 10
94.1200721576
 20
-40.2614532232
 11
93.1384802492
 21
-40.2608858713
  0
LINE
  5
2D0
100
AcDbEntity
  8
RACCORDO
100
AcDbLine
 62
250
  6
CONTINUOUS
 10
93.1384802492
 20
-40.2608858713
 11
89.545705612
 21
-40.2585555759
  0
LWPOLYLINE
  5
2D1
100
AcDbEntity
  8
RACCORDO
100
AcDbPolyline
 62
250
  6
CONTINUOUS
 90
6
 70
0
 10
88.3665755806
 20
-40.2576722256
 10
88.1181610405
 20
-40.2574917408
 10
87.8603727608
 20
-40.2573141687
 10
87.5919777578
 20
-40.2571408734
 10
87.3142090151
 20
-40.2569704909
 10
80.6544948395
 20
-40.2535125444
  0
LWPOLYLINE
  5
2D2
100
AcDbEntity
  8
RACCORDO
100
AcDbPolyline
 62
250
  6
CONTINUOUS
 90
4
 70
0
 10
89.545705612
 20
-40.2585555759
 10
89.080236047
 20
-40.2582182831
 10
88.8476130839
 20
-40.2580354968
 10
88.3665755806
 20
-40.2576722256
  0
LWPOLYLINE
  5
2D3
100
AcDbEntity
  8
RACCORDO
100
AcDbPolyline
 62
250
  6
CONTINUOUS
 90
4
 70
0
 10
-74.6714590256
 20
-39.5892840557
 10
-76.0456993902
 20
-39.5885604017
 10
-76.7024768659
 20
-39.5874970203
 10
-77.338906252
 20
-39.5859834211
  0
LWPOLYLINE
  5
2D4
100
AcDbEntity
  8
RACCORDO
100
AcDbPolyline
 62
250
  6
CONTINUOUS
 90
4
 70
0
 10
72.1488076254
 20
-39.5891714132
 10
70.7436731503
 20
-39.5881093615
 10
70.0151993724
 20
-39.5871157221
 10
68.4939797419
 20
-39.585333102
  0
LWPOLYLINE
  5
2D5
100
AcDbEntity
  8
RACCORDO
100
AcDbPolyline
 62
250
  6
CONTINUOUS
 90
3
 70
0
 10
68.4939797419
 20
-39.585333102
 10
67.7012604799
 20
-39.5845296308
 10
66.8875419856
 20
-39.5837359585
  0
LINE
  5
2D6
100
AcDbEntity
  8
RACCORDO
100
AcDbLine
 62
250
  6
CONTINUOUS
 10
98.6362929839
 20
-40.2635890769
 11
98.1010446133
 21
-40.2631714881
  0
LINE
  5
2D7
100
AcDbEntity
  8
RACCORDO
100
AcDbLine
 62
250
  6
CONTINUOUS
 10
-77.338906252
 20
-39.5859834211
 11
-78.5575124708
 21
-39.5817427217
  0
LWPOLYLINE
  5
2D8
100
AcDbEntity
  8
RACCORDO
100
AcDbPolyline
 62
250
  6
CONTINUOUS
 90
6
 70
0
 10
-99.3730813023
 20
-39.388171281
 10
-99.5825824382
 20
-39.3872156117
 10
-99.792121982
 20
-39.3867797625
 10
-100.0018731529
 20
-39.3858672294
 10
-100.2157102505
 20
-39.3832085764
 10
-100.4348547916
 20
-39.3785000978
  0
LINE
  5
2D9
100
AcDbEntity
  8
RACCORDO
100
AcDbLine
 62
250
  6
CONTINUOUS
 10
-78.5575124708
 20
-39.5817427217
 11
-79.705555242
 21
-39.5762019732
  0
LINE
  5
2DA
100
AcDbEntity
  8
RACCORDO
100
AcDbLine
 62
250
  6
CONTINUOUS
 10
-79.705555242
 20
-39.5762019732
 11
-80.7887870982
 21
-39.569763603
  0
LINE
  5
2DB
100
AcDbEntity
  8
RACCORDO
100
AcDbLine
 62
250
  6
CONTINUOUS
 10
-80.7887870982
 20
-39.569763603
 11
-81.8120325665
 21
-39.5627570131
  0
LINE
  5
2DC
100
AcDbEntity
  8
RACCORDO
100
AcDbLine
 62
250
  6
CONTINUOUS
 10
-81.8120325665
 20
-39.5627570131
 11
-83.241844023
 21
-39.55170762
  0
LINE
  5
2DD
100
AcDbEntity
  8
RACCORDO
100
AcDbLine
 62
250
  6
CONTINUOUS
 10
-97.495837153
 20
-39.4024525567
 11
-99.3730813023
 21
-39.388171281
  0
LINE
  5
2DE
100
AcDbEntity
  8
RACCORDO
100
AcDbLine
 62
250
  6
CONTINUOUS
 10
-83.241844023
 20
-39.55170762
 11
-84.5569232829
 21
-39.5404916288
  0
LINE
  5
2DF
100
AcDbEntity
  8
RACCORDO
100
AcDbLine
 62
250
  6
CONTINUOUS
 10
-84.5569232829
 20
-39.5404916288
 11
-87.2384527442
 21
-39.515667389
  0
LINE
  5
2E0
100
AcDbEntity
  8
RACCORDO
100
AcDbLine
 62
250
  6
CONTINUOUS
 10
-95.9897595508
 20
-39.4158281847
 11
-97.495837153
 21
-39.4024525567
  0
LINE
  5
2E1
100
AcDbEntity
  8
RACCORDO
100
AcDbLine
 62
250
  6
CONTINUOUS
 10
-91.4522062335
 20
-39.4658261261
 11
-92.1187624863
 21
-39.4596505929
  0
LINE
  5
2E2
100
AcDbEntity
  8
RACCORDO
100
AcDbLine
 62
250
  6
CONTINUOUS
 10
-87.2384527442
 20
-39.515667389
 11
-89.1627488086
 21
-39.4969342353
  0
LINE
  5
2E3
100
AcDbEntity
  8
RACCORDO
100
AcDbLine
 62
250
  6
CONTINUOUS
 10
-94.1049390018
 20
-39.4360338951
 11
-95.9897595508
 21
-39.4158281847
  0
LINE
  5
2E4
100
AcDbEntity
  8
RACCORDO
100
AcDbLine
 62
250
  6
CONTINUOUS
 10
-91.2262286401
 20
-39.4684041806
 11
-91.4522062335
 21
-39.4658261261
  0
LWPOLYLINE
  5
2E5
100
AcDbEntity
  8
RACCORDO
100
AcDbPolyline
 62
250
  6
CONTINUOUS
 90
3
 70
0
 10
-92.1187624863
 20
-39.4596505929
 10
-92.8000294156
 20
-39.4515551572
 10
-94.1049390018
 20
-39.4360338951
  0
LINE
  5
2E6
100
AcDbEntity
  8
RACCORDO
100
AcDbLine
 62
250
  6
CONTINUOUS
 10
-89.1627488086
 20
-39.4969342353
 11
-89.7302556452
 21
-39.4899119493
  0
LINE
  5
2E7
100
AcDbEntity
  8
RACCORDO
100
AcDbLine
 62
250
  6
CONTINUOUS
 10
-89.7302556452
 20
-39.4899119493
 11
-90.5126700334
 21
-39.4786176826
  0
LWPOLYLINE
  5
2E8
100
AcDbEntity
  8
RACCORDO
100
AcDbPolyline
 62
250
  6
CONTINUOUS
 90
3
 70
0
 10
-90.5126700334
 20
-39.4786176826
 10
-90.7563215583
 20
-39.4750687971
 10
-91.2262286401
 20
-39.4684041806
  0
LINE
  5
2E9
100
AcDbEntity
  8
RACCORDO
100
AcDbLine
 62
250
  6
CONTINUOUS
 10
-100.4348547916
 20
-39.3785000978
 11
-100.8837421565
 21
-39.3662742494
  0
LINE
  5
2EA
100
AcDbEntity
  8
RACCORDO
100
AcDbLine
 62
250
  6
CONTINUOUS
 10
-100.8609544115
 20
39.225435527
 11
-101.1164421096
 21
39.4809232251
  0
LWPOLYLINE
  5
2EB
100
AcDbEntity
  8
0
100
AcDbPolyline
 62
7
  6
CONTINUOUS
 90
10
 70
0
 43
0.3500000006
 10
1.1376693006
 20
52.2690766296
 10
0.4948121284
 20
51.6262186432
 10
0.0662407157
 20
50.7690761719
 10
0.0662407157
 20
49.6976492157
 10
0.4948121284
 20
49.2690757141
 10
1.1376693006
 20
49.2690757141
 10
1.5662406778
 20
49.6976492157
 10
1.5662406778
 20
50.554791687
 10
1.1376693006
 20
50.9833606567
 10
0.2090978592
 20
50.9833606567
  0
LWPOLYLINE
  5
2EC
100
AcDbEntity
  8
SCRITTA_VIMAR
100
AcDbPolyline
 62
250
  6
CONTINUOUS
 90
96
 70
0
 10
79.044493417
 20
-28.3612067749
 10
79.0521586663
 20
-28.3611200471
 10
79.0600009337
 20
-28.3608611312
 10
79.0678650142
 20
-28.3604319204
 10
79.0794715949
 20
-28.359472855
 10
79.090908654
 20
-28.3581407484
 10
79.1022777433
 20
-28.3564414398
 10
79.1135641803
 20
-28.3543806742
 10
79.124732538
 20
-28.351963732
 10
79.1357806444
 20
-28.3491941278
 10
79.146711972
 20
-28.3460753848
 10
79.1575193153
 20
-28.3426128257
 10
79.168192799
 20
-28.3388122235
 10
79.1787225481
 20
-28.3346793509
 10
79.1891018226
 20
-28.3302178381
 10
79.1993364231
 20
-28.3254227449
 10
79.2094352851
 20
-28.3202869885
 10
79.2194073444
 20
-28.3148034862
 10
79.2292577874
 20
-28.3089660823
 10
79.2389768038
 20
-28.3027723294
 10
79.2485508341
 20
-28.2962207073
 10
79.2579663189
 20
-28.2893096958
 10
79.2672074872
 20
-28.2820407359
 10
79.2762497228
 20
-28.2744271144
 10
79.2850661976
 20
-28.2664850793
 10
79.293630084
 20
-28.2582308788
 10
79.3019157655
 20
-28.2496828407
 10
79.309902472
 20
-28.2408676127
 10
79.3175706447
 20
-28.2318139222
 10
79.3249007249
 20
-28.2225504968
 10
79.3318777059
 20
-28.2131007126
 10
79.3385047884
 20
-28.2034665411
 10
79.3447897253
 20
-28.1936446025
 10
79.3507402692
 20
-28.1836315169
 10
79.3563624445
 20
-28.1734233524
 10
79.3616553617
 20
-28.1630139679
 10
79.3666164029
 20
-28.1523966702
 10
79.3712429501
 20
-28.141564766
 10
79.3755302137
 20
-28.1305173444
 10
79.3794647167
 20
-28.119276624
 10
79.3830308103
 20
-28.1078706055
 10
79.3862128458
 20
-28.0963272898
 10
79.3889978127
 20
-28.0846762851
 10
79.391383255
 20
-28.0729536284
 10
79.393369355
 20
-28.0611969642
 10
79.3949562949
 20
-28.0494439369
 10
79.3961441631
 20
-28.0377210715
 10
79.3969326717
 20
-28.0260104146
 10
79.3973214389
 20
-28.0142828936
 10
79.3973100829
 20
-28.0025094354
 10
79.3968066264
 20
-27.9889742103
 10
79.3957792418
 20
-27.9753798137
 10
79.3942271095
 20
-27.961765046
 10
79.3921494101
 20
-27.9481687078
 10
79.389545324
 20
-27.9346295996
 10
79.3864140318
 20
-27.921186522
 10
79.3827547139
 20
-27.9078782753
 10
79.3785700949
 20
-27.8947413747
 10
79.373877076
 20
-27.8818031932
 10
79.3686961025
 20
-27.8690888185
 10
79.3630476197
 20
-27.856623338
 10
79.3569520729
 20
-27.8444318394
 10
79.3504299073
 20
-27.8325394103
 10
79.3435015682
 20
-27.8209711382
 10
79.3371167412
 20
-27.8111277185
 10
79.3304178053
 20
-27.8015276132
 10
79.3233859744
 20
-27.7921467461
 10
79.3160024628
 20
-27.782961041
 10
79.3082566431
 20
-27.7739571887
 10
79.3001705219
 20
-27.7651649465
 10
79.2917742642
 20
-27.7566248386
 10
79.2830980354
 20
-27.7483773892
 10
79.2741732707
 20
-27.7404590697
 10
79.2650364862
 20
-27.732890141
 10
79.2557254684
 20
-27.7256868113
 10
79.2462780035
 20
-27.7188652887
 10
79.236728584
 20
-27.7124378833
 10
79.2270985264
 20
-27.7064013119
 10
79.217405853
 20
-27.7007483934
 10
79.2076685865
 20
-27.6954719464
 10
79.1978992132
 20
-27.6905634535
 10
79.1880880746
 20
-27.6860090518
 10
79.1782199763
 20
-27.6817935423
 10
79.1682797238
 20
-27.6779017258
 10
79.154897956
 20
-27.6731964779
 10
79.1413873113
 20
-27.6690431661
 10
79.1277741994
 20
-27.6654452924
 10
79.117509541
 20
-27.6631127803
 10
79.1071924355
 20
-27.6610918291
 10
79.0968219155
 20
-27.6593801742
 10
79.0864318026
 20
-27.6579778655
 10
79.076034477
 20
-27.6568855455
 10
79.0655217642
 20
-27.6561039131
 10
79.0584140887
 20
-27.655755826
 10
79.0513519144
 20
-27.6555466198
 10
79.0444934982
 20
-27.6554767749
  0
LINE
  5
2ED
100
AcDbEntity
  8
SCRITTA_VIMAR
100
AcDbLine
 62
250
  6
CONTINUOUS
 10
75.5178132862
 20
-30.0190837749
 11
74.9377912862
 21
-30.0190917749
  0
LINE
  5
2EE
100
AcDbEntity
  8
SCRITTA_VIMAR
100
AcDbLine
 62
250
  6
CONTINUOUS
 10
73.4227082862
 20
-30.0190837749
 11
72.8427002862
 21
-30.0190917749
  0
LINE
  5
2EF
100
AcDbEntity
  8
SCRITTA_VIMAR
100
AcDbLine
 62
250
  6
CONTINUOUS
 10
71.1342962862
 20
-30.0190917749
 11
70.5542742862
 21
-30.0190987749
  0
LINE
  5
2F0
100
AcDbEntity
  8
SCRITTA_VIMAR
100
AcDbLine
 62
250
  6
CONTINUOUS
 10
80.0876692862
 20
-30.0190767749
 11
79.4343642862
 21
-30.0190837749
  0
LINE
  5
2F1
100
AcDbEntity
  8
SCRITTA_VIMAR
100
AcDbLine
 62
250
  6
CONTINUOUS
 10
69.2364632862
 20
-30.0190917749
 11
68.6564202862
 21
-30.0190987749
  0
LINE
  5
2F2
100
AcDbEntity
  8
SCRITTA_VIMAR
100
AcDbLine
 62
250
  6
CONTINUOUS
 10
74.5511122862
 20
-30.0190917749
 11
73.9710902862
 21
-30.0190917749
  0
LINE
  5
2F3
100
AcDbEntity
  8
SCRITTA_VIMAR
100
AcDbLine
 62
250
  6
CONTINUOUS
 10
72.2943252862
 20
-30.0190917749
 11
71.7143032862
 21
-30.0190917749
  0
LINE
  5
2F4
100
AcDbEntity
  8
SCRITTA_VIMAR
100
AcDbLine
 62
250
  6
CONTINUOUS
 10
78.3468132862
 20
-30.0190837749
 11
77.7667842862
 21
-30.0190837749
  0
LINE
  5
2F5
100
AcDbEntity
  8
SCRITTA_VIMAR
100
AcDbLine
 62
250
  6
CONTINUOUS
 10
77.3801062862
 20
-30.0190917749
 11
76.8000772862
 21
-30.0190837749
  0
LINE
  5
2F6
100
AcDbEntity
  8
SCRITTA_VIMAR
100
AcDbLine
 62
250
  6
CONTINUOUS
 10
76.6169712862
 20
-29.4487557749
 11
75.7009262862
 21
-29.4487557749
  0
LINE
  5
2F7
100
AcDbEntity
  8
SCRITTA_VIMAR
100
AcDbLine
 62
250
  6
CONTINUOUS
 10
75.8778482862
 20
-28.8977337749
 11
76.4400422862
 21
-28.8977337749
  0
LINE
  5
2F8
100
AcDbEntity
  8
SCRITTA_VIMAR
100
AcDbLine
 62
250
  6
CONTINUOUS
 10
78.8531102862
 20
-28.8977337749
 11
78.3468792862
 21
-28.8977267749
  0
LINE
  5
2F9
100
AcDbEntity
  8
RACCORDO
100
AcDbLine
 62
250
  6
CONTINUOUS
 10
79.2309695019
 20
-22.819076775
 11
79.7353267614
 21
-22.8130483575
  0
LINE
  5
2FA
100
AcDbEntity
  8
RACCORDO
100
AcDbLine
 62
250
  6
CONTINUOUS
 10
79.7353267614
 20
-22.8130483575
 11
80.288528212
 21
-22.8072551424
  0
LINE
  5
2FB
100
AcDbEntity
  8
RACCORDO
100
AcDbLine
 62
250
  6
CONTINUOUS
 10
80.288528212
 20
-22.8072551424
 11
80.8693902107
 21
-22.8019196912
  0
LWPOLYLINE
  5
2FC
100
AcDbEntity
  8
RACCORDO
100
AcDbPolyline
 62
250
  6
CONTINUOUS
 90
4
 70
0
 10
77.3248583028
 20
-26.3053154605
 10
76.2571715081
 20
-26.3129009201
 10
75.1646950021
 20
-26.3170036503
 10
74.0479504854
 20
-26.3191168963
  0
LINE
  5
2FD
100
AcDbEntity
  8
RACCORDO
100
AcDbLine
 62
250
  6
CONTINUOUS
 10
74.0479504854
 20
-26.3191168963
 11
71.7409779282
 21
-26.3213953129
  0
LWPOLYLINE
  5
2FE
100
AcDbEntity
  8
RACCORDO
100
AcDbPolyline
 62
250
  6
CONTINUOUS
 90
3
 70
0
 10
71.7409779282
 20
-26.3213953129
 10
68.1293930089
 20
-26.3236460646
 10
66.8868224198
 20
-26.3243418042
  0
LINE
  5
2FF
100
AcDbEntity
  8
RACCORDO
100
AcDbLine
 62
250
  6
CONTINUOUS
 10
-77.3976469007
 20
-24.7199054591
 11
-79.5623307138
 21
-24.7214705659
  0
LINE
  5
300
100
AcDbEntity
  8
SCRITTA_VIMAR
100
AcDbLine
 62
250
  6
CONTINUOUS
 10
78.3388172862
 20
-28.3612047749
 11
79.0444931553
 21
-28.3612047749
  0
LINE
  5
301
100
AcDbEntity
  8
SCRITTA_VIMAR
100
AcDbLine
 62
250
  6
CONTINUOUS
 10
79.0444930742
 20
-27.6554747749
 11
78.3388092862
 21
-27.6554747749
  0
LINE
  5
302
100
AcDbEntity
  8
SCRITTA_VIMAR
100
AcDbLine
 62
250
  6
CONTINUOUS
 10
67.7252882862
 20
-27.1189607749
 11
68.3053172862
 21
-27.1189607749
  0
LINE
  5
303
100
AcDbEntity
  8
SCRITTA_VIMAR
100
AcDbLine
 62
250
  6
CONTINUOUS
 10
69.5875742862
 20
-27.1189607749
 11
70.1676032862
 21
-27.1189607749
  0
LINE
  5
304
100
AcDbEntity
  8
SCRITTA_VIMAR
100
AcDbLine
 62
250
  6
CONTINUOUS
 10
70.5542812862
 20
-27.1189607749
 11
71.1343032862
 21
-27.1189607749
  0
LINE
  5
305
100
AcDbEntity
  8
SCRITTA_VIMAR
100
AcDbLine
 62
250
  6
CONTINUOUS
 10
71.7143032862
 20
-27.1189607749
 11
72.5911402862
 21
-27.1189607749
  0
LINE
  5
306
100
AcDbEntity
  8
SCRITTA_VIMAR
100
AcDbLine
 62
250
  6
CONTINUOUS
 10
73.6742752862
 20
-27.1189607749
 11
74.5511122862
 21
-27.1189607749
  0
LINE
  5
307
100
AcDbEntity
  8
SCRITTA_VIMAR
100
AcDbLine
 62
250
  6
CONTINUOUS
 10
75.8689162862
 20
-27.1189537749
 11
76.4489662862
 21
-27.1189537749
  0
LINE
  5
308
100
AcDbEntity
  8
SCRITTA_VIMAR
100
AcDbLine
 62
250
  6
CONTINUOUS
 10
77.7667842862
 20
-27.1189537749
 11
79.1268314229
 21
-27.1189537749
  0
LINE
  5
309
100
AcDbEntity
  8
RACCORDO
100
AcDbLine
 62
250
  6
CONTINUOUS
 10
66.8868224201
 20
-26.3243411372
 11
-69.1114838194
 21
-26.3243411373
  0
LINE
  5
30A
100
AcDbEntity
  8
RACCORDO
100
AcDbLine
 62
250
  6
CONTINUOUS
 10
74.0477941169
 20
-24.7195510764
 11
66.8862817366
 21
-24.7210957059
  0
LINE
  5
30B
100
AcDbEntity
  8
0
100
AcDbLine
 62
7
  6
CONTINUOUS
 10
-79.5623307138
 20
-23.1190767749
 11
77.3376692862
 21
-23.1190767749
  0
LINE
  5
30C
100
AcDbEntity
  8
RACCORDO
100
AcDbLine
 62
250
  6
CONTINUOUS
 10
77.6376692862
 20
-22.8190767749
 11
79.2309704499
 21
-22.8190767749
  0
LINE
  5
30D
100
AcDbEntity
  8
RACCORDO
100
AcDbLine
 62
250
  6
CONTINUOUS
 10
-79.8623307138
 20
-22.8190767749
 11
-81.4556318775
 21
-22.8190767749
  0
LWPOLYLINE
  5
30E
100
AcDbEntity
  8
RACCORDO
100
AcDbPolyline
 62
250
  6
CONTINUOUS
 90
3
 70
0
 10
-72.7942925579
 20
-24.72020084
 10
-75.1413043779
 20
-24.719567923
 10
-77.3976469007
 20
-24.7199054591
  0
LINE
  5
30F
100
AcDbEntity
  8
RACCORDO
100
AcDbLine
 62
250
  6
CONTINUOUS
 10
66.8862817366
 20
-24.7210957059
 11
-70.3605690905
 21
-24.7207702534
  0
LINE
  5
310
100
AcDbEntity
  8
RACCORDO
100
AcDbLine
 62
250
  6
CONTINUOUS
 10
-70.3605690905
 20
-24.7207702534
 11
-72.7942925579
 21
-24.72020084
  0
LWPOLYLINE
  5
311
100
AcDbEntity
  8
RACCORDO
100
AcDbPolyline
 62
250
  6
CONTINUOUS
 90
6
 70
0
 10
-69.1125652488
 20
-26.3243412501
 10
-75.1426783032
 20
-26.3204475071
 10
-76.2812239888
 20
-26.3191041853
 10
-77.395274606
 20
-26.3170147844
 10
-78.4848612822
 20
-26.3129253611
 10
-79.5495197242
 20
-26.3053153798
  0
LWPOLYLINE
  5
312
100
AcDbEntity
  8
RACCORDO
100
AcDbPolyline
 62
250
  6
CONTINUOUS
 90
3
 70
0
 10
77.3376692862
 20
-24.7214705659
 10
76.263666015
 20
-24.720545344
 10
74.0477941169
 20
-24.7195510764
  0
LINE
  5
313
100
AcDbEntity
  8
RACCORDO
100
AcDbLine
 62
250
  6
CONTINUOUS
 10
-81.9599904401
 20
-22.8130540353
 11
-83.0940532037
 21
-22.8019198851
  0
LINE
  5
314
100
AcDbEntity
  8
RACCORDO
100
AcDbLine
 62
250
  6
CONTINUOUS
 10
-81.4556303921
 20
-22.819076775
 11
-81.9599904401
 21
-22.8130540353
  0
LWPOLYLINE
  5
315
100
AcDbEntity
  8
RACCORDO
100
AcDbPolyline
 62
250
  6
CONTINUOUS
 90
67
 70
0
 10
-79.5623307138
 20
-24.7214705659
 10
-79.6260522125
 20
-24.7205352785
 10
-79.6878008618
 20
-24.7175056759
 10
-79.747511971
 20
-24.712571057
 10
-79.8049945231
 20
-24.70592387
 10
-79.8603458755
 20
-24.6977457247
 10
-79.9139480214
 20
-24.688166211
 10
-79.9658846799
 20
-24.6772819553
 10
-80.0160246671
 20
-24.6652576358
 10
-80.0644401763
 20
-24.6522765387
 10
-80.1112664172
 20
-24.6384354053
 10
-80.1563660583
 20
-24.6238628879
 10
-80.1994236862
 20
-24.6088019913
 10
-80.2402948375
 20
-24.5934548098
 10
-80.2791708923
 20
-24.5778775629
 10
-80.3162496403
 20
-24.5620980321
 10
-80.351512224
 20
-24.5462322723
 10
-80.3850285618
 20
-24.5303593591
 10
-80.4171188705
 20
-24.5144153323
 10
-80.4478910335
 20
-24.4984277413
 10
-80.4772788797
 20
-24.4825001353
 10
-80.505332947
 20
-24.4666589264
 10
-80.5319630161
 20
-24.4510309556
 10
-80.5573065146
 20
-24.4356062548
 10
-80.5817429895
 20
-24.4201832216
 10
-80.605154122
 20
-24.4048722116
 10
-80.6276855049
 20
-24.3896331222
 10
-80.6500801757
 20
-24.373987851
 10
-80.6724250001
 20
-24.3578641315
 10
-80.6946142503
 20
-24.3413308099
 10
-80.7170667878
 20
-24.3240708538
 10
-80.7398437335
 20
-24.3059960183
 10
-80.7628343106
 20
-24.2871543361
 10
-80.7861787456
 20
-24.2674065739
 10
-80.8098568873
 20
-24.246720678
 10
-80.8338216979
 20
-24.2250755464
 10
-80.8581594375
 20
-24.202334325
 10
-80.8827885057
 20
-24.1785018208
 10
-80.9077015994
 20
-24.1535102104
 10
-80.9330745327
 20
-24.1270949136
 10
-80.9588740081
 20
-24.0991758448
 10
-80.9849972268
 20
-24.0697438039
 10
-81.0114888032
 20
-24.0386208654
 10
-81.0382932365
 20
-24.0057172834
 10
-81.0652852276
 20
-23.9710232276
 10
-81.092387357
 20
-23.9344735592
 10
-81.119517103
 20
-23.8959890838
 10
-81.1465404937
 20
-23.8555582285
 10
-81.1732993445
 20
-23.8132231921
 10
-81.1996715896
 20
-23.7689629791
 10
-81.2255441176
 20
-23.7227358898
 10
-81.2507743732
 20
-23.6745640653
 10
-81.2753331622
 20
-23.6242142209
 10
-81.2989778739
 20
-23.5718820217
 10
-81.3213056739
 20
-23.5182697612
 10
-81.3423174971
 20
-23.4632441856
 10
-81.3618525001
 20
-23.4069849353
 10
-81.3794397829
 20
-23.3507389191
 10
-81.39494572
 20
-23.295272595
 10
-81.4086257817
 20
-23.2399689472
 10
-81.420630225
 20
-23.1840243028
 10
-81.4308504231
 20
-23.1278239601
 10
-81.4393493902
 20
-23.0710911021
 10
-81.44628789
 20
-23.0119925964
 10
-81.4515010817
 20
-22.9499381327
 10
-81.4546895978
 20
-22.8856096429
 10
-81.4556318775
 20
-22.8190767749
  0
LWPOLYLINE
  5
316
100
AcDbEntity
  8
SCRITTA_VIMAR
100
AcDbPolyline
 62
250
  6
CONTINUOUS
 90
81
 70
0
 10
79.1268314229
 20
-27.1189537749
 10
79.14885183
 20
-27.11927813
 10
79.1713589762
 20
-27.12016973
 10
79.1941015001
 20
-27.1216404412
 10
79.2282842234
 20
-27.1249610774
 10
79.2626473818
 20
-27.1296681307
 10
79.2973480851
 20
-27.1358159954
 10
79.3323062902
 20
-27.1434497717
 10
79.3557004397
 20
-27.1493897881
 10
79.3791923967
 20
-27.1560471045
 10
79.4028274487
 20
-27.1634596036
 10
79.4266381379
 20
-27.171664405
 10
79.4506060261
 20
-27.1806955743
 10
79.47469993
 20
-27.1905864136
 10
79.4988718751
 20
-27.2013583248
 10
79.5230067219
 20
-27.2129851074
 10
79.54697254
 20
-27.2254286608
 10
79.5753533564
 20
-27.2413950571
 10
79.6032570823
 20
-27.2584747458
 10
79.6306400088
 20
-27.2766597343
 10
79.6574584272
 20
-27.2959420304
 10
79.6836686285
 20
-27.3163136417
 10
79.7092269538
 20
-27.337764687
 10
79.7340899427
 20
-27.3602777291
 10
79.7582141845
 20
-27.3838334422
 10
79.7815562688
 20
-27.4084125003
 10
79.8040727849
 20
-27.4339955775
 10
79.8221759783
 20
-27.4560732842
 10
79.8396589375
 20
-27.4788563791
 10
79.8565048859
 20
-27.5023664357
 10
79.872697047
 20
-27.5266250274
 10
79.8882186441
 20
-27.5516537278
 10
79.9030529006
 20
-27.5774741103
 10
79.9171759989
 20
-27.6040933729
 10
79.9305359588
 20
-27.6314612112
 10
79.9430737589
 20
-27.6595129449
 10
79.954730378
 20
-27.688183894
 10
79.9654467948
 20
-27.7174093785
 10
79.9751639882
 20
-27.7471247181
 10
79.9838315958
 20
-27.7772617498
 10
79.9914338922
 20
-27.807738378
 10
79.9979638108
 20
-27.8384690241
 10
80.0034142851
 20
-27.8693681095
 10
80.0077782484
 20
-27.9003500557
 10
80.0110486344
 20
-27.931329284
 10
80.013221134
 20
-27.9622349415
 10
80.0143024683
 20
-27.9930550788
 10
80.0143021159
 20
-28.0237924718
 10
80.0132295556
 20
-28.0544498969
 10
80.0110942659
 20
-28.0850301301
 10
80.0079057255
 20
-28.1155359475
 10
80.0036700806
 20
-28.1459663376
 10
79.9983801475
 20
-28.1763051379
 10
79.9920254099
 20
-28.2065323979
 10
79.9845953516
 20
-28.2366281675
 10
79.9760794564
 20
-28.2665724962
 10
79.9664672082
 20
-28.2963454337
 10
79.9557506207
 20
-28.3259216701
 10
79.9439318279
 20
-28.3552544566
 10
79.9310154937
 20
-28.3842916847
 10
79.917006282
 20
-28.412981246
 10
79.9019088567
 20
-28.4412710319
 10
79.8857278819
 20
-28.4691089341
 10
79.8684865187
 20
-28.4964263904
 10
79.8502819184
 20
-28.5230890238
 10
79.8312297295
 20
-28.5489460037
 10
79.8114351823
 20
-28.5738714816
 10
79.7909618346
 20
-28.5978395374
 10
79.7698628259
 20
-28.6208492332
 10
79.7481768631
 20
-28.6429080885
 10
79.7258849227
 20
-28.6640574525
 10
79.7029535481
 20
-28.6843471317
 10
79.6793639977
 20
-28.7038133036
 10
79.6551563884
 20
-28.7224376277
 10
79.6303855518
 20
-28.7401881344
 10
79.6050853884
 20
-28.7570430913
 10
79.5792060752
 20
-28.7730217154
 10
79.5526768581
 20
-28.788153461
 10
79.5254930139
 20
-28.8024387999
 10
79.497913943
 20
-28.8157622738
 10
79.4702650768
 20
-28.8279794419
  0
LWPOLYLINE
  5
317
100
AcDbEntity
  8
RACCORDO
100
AcDbPolyline
 62
250
  6
CONTINUOUS
 90
67
 70
0
 10
-79.5495197577
 20
-26.3053159533
 10
-79.6727537062
 20
-26.3020673264
 10
-79.792059778
 20
-26.2947984346
 10
-79.9075062926
 20
-26.2838597349
 10
-80.0192668433
 20
-26.2693773922
 10
-80.1275237495
 20
-26.2518202606
 10
-80.2318249788
 20
-26.2321721655
 10
-80.3311479494
 20
-26.2112563134
 10
-80.424729829
 20
-26.189446266
 10
-80.5130498551
 20
-26.1669313217
 10
-80.5971970102
 20
-26.1439853727
 10
-80.677876949
 20
-26.120497823
 10
-80.7551974784
 20
-26.0959465827
 10
-80.8289235746
 20
-26.0703807822
 10
-80.8991918532
 20
-26.0442054273
 10
-80.9663160523
 20
-26.0174886562
 10
-81.0302141522
 20
-25.9904333069
 10
-81.0910080918
 20
-25.9631904201
 10
-81.1493407347
 20
-25.9356758057
 10
-81.2053722599
 20
-25.9080399512
 10
-81.2590434382
 20
-25.880341905
 10
-81.3108235348
 20
-25.8521857401
 10
-81.3608924714
 20
-25.8233042238
 10
-81.4096785088
 20
-25.7937226705
 10
-81.4578020415
 20
-25.7635464056
 10
-81.5046842446
 20
-25.7333061872
 10
-81.5500014624
 20
-25.7031529088
 10
-81.5945978998
 20
-25.6726460473
 10
-81.6386033743
 20
-25.6417693321
 10
-81.6819565887
 20
-25.6105390536
 10
-81.7253157904
 20
-25.5784006203
 10
-81.7686724214
 20
-25.5453644603
 10
-81.8117888147
 20
-25.511571832
 10
-81.8549691257
 20
-25.4765832476
 10
-81.8983390791
 20
-25.4401777775
 10
-81.942110443
 20
-25.4021399884
 10
-81.986727151
 20
-25.361946884
 10
-82.0320570693
 20
-25.3195881728
 10
-82.0779579266
 20
-25.2750496579
 10
-82.1246731476
 20
-25.2278843652
 10
-82.1721534303
 20
-25.1779436504
 10
-82.2202360673
 20
-25.1251871057
 10
-82.2689875358
 20
-25.0692600125
 10
-82.3183091861
 20
-25.010007487
 10
-82.3679634337
 20
-24.9474168094
 10
-82.4177615033
 20
-24.8813532892
 10
-82.4675556184
 20
-24.8116862607
 10
-82.5170935354
 20
-24.7384058753
 10
-82.5660263916
 20
-24.6615707006
 10
-82.6141451336
 20
-24.5811263027
 10
-82.6612422543
 20
-24.4970060904
 10
-82.7069657201
 20
-24.4093070671
 10
-82.7512123787
 20
-24.3178065078
 10
-82.7935154956
 20
-24.2229281128
 10
-82.8331000023
 20
-24.1257571208
 10
-82.8695794274
 20
-24.0257102673
 10
-82.9032559319
 20
-23.9229130856
 10
-82.9347235618
 20
-23.8193339903
 10
-82.9643715035
 20
-23.7161338038
 10
-82.9918583502
 20
-23.6119437126
 10
-83.0166133254
 20
-23.5052001179
 10
-83.0380949368
 20
-23.3968879146
 10
-83.0564247289
 20
-23.28706052
 10
-83.0715907611
 20
-23.172960444
 10
-83.083222898
 20
-23.053557889
 10
-83.0908484697
 20
-22.9298724166
 10
-83.0940520592
 20
-22.8019197459
  0
LWPOLYLINE
  5
318
100
AcDbEntity
  8
0
100
AcDbPolyline
 62
7
  6
CONTINUOUS
 90
13
 70
0
 43
0.3500000006
 10
-2.2909021425
 20
50.1262181854
 10
-2.2909021425
 20
51.4119341583
 10
-2.0766163831
 20
51.8405031281
 10
-1.6480450058
 20
52.2690766296
 10
-1.4337592463
 20
52.2690766296
 10
-1.0051878691
 20
51.8405031281
 10
-0.7909021096
 20
51.4119341583
 10
-0.7909021096
 20
50.1262181854
 10
-1.0051878691
 20
49.6976492157
 10
-1.4337592463
 20
49.2690757141
 10
-1.6480450058
 20
49.2690757141
 10
-2.0766163831
 20
49.6976492157
 10
-2.2909021425
 20
50.1262181854
  0
LINE
  5
319
100
AcDbEntity
  8
RACCORDO
100
AcDbLine
 62
250
  6
CONTINUOUS
 10
79.2223776789
 20
-0.5188584293
 11
79.3872417165
 21
-0.5187720949
  0
LWPOLYLINE
  5
31A
100
AcDbEntity
  8
RACCORDO
100
AcDbPolyline
 62
250
  6
CONTINUOUS
 90
8
 70
0
 10
79.3872417165
 20
-0.5187720949
 10
79.7371103247
 20
-0.5186022862
 10
79.9205816939
 20
-0.5185202305
 10
80.1086803575
 20
-0.5184410059
 10
80.3005820256
 20
-0.5183652969
 10
80.4954457427
 20
-0.5182937724
 10
80.692417573
 20
-0.5182270831
 10
80.8906343423
 20
-0.5181658582
  0
LWPOLYLINE
  5
31B
100
AcDbEntity
  8
RACCORDO
100
AcDbPolyline
 62
250
  6
CONTINUOUS
 90
7
 70
0
 10
-81.4470391065
 20
-0.5188583565
 10
-81.9617716859
 20
-0.5191144966
 10
-82.1452430346
 20
-0.5191965514
 10
-82.3333416789
 20
-0.519275775
 10
-82.5252433289
 20
-0.519351483
 10
-82.7201070295
 20
-0.5194230066
 10
-82.9170788448
 20
-0.5194896951
  0
LWPOLYLINE
  5
31C
100
AcDbEntity
  8
RACCORDO
100
AcDbPolyline
 62
250
  6
CONTINUOUS
 90
3
 70
0
 10
101.6251374496
 20
-0.5187073359
 10
101.3541235527
 20
-0.5188541526
 10
101.2507182409
 20
-0.5188769717
  0
LINE
  5
31D
100
AcDbEntity
  8
RACCORDO
100
AcDbLine
 62
7
  6
CONTINUOUS
 10
-104.1123307138
 20
-5.8190767749
 11
-104.0599229345
 21
-5.8190767749
  0
LINE
  5
31E
100
AcDbEntity
  8
RACCORDO
100
AcDbLine
 62
7
  6
CONTINUOUS
 10
101.8876692862
 20
-5.8190767749
 11
101.8352615069
 21
-5.8190767749
  0
LINE
  5
31F
100
AcDbEntity
  8
DRAFT
100
AcDbLine
 62
7
  6
CONTINUOUS
 10
-104.0123307138
 20
-4.5190767749
 11
-103.9756452683
 21
-4.5190767749
  0
LINE
  5
320
100
AcDbEntity
  8
DRAFT
100
AcDbLine
 62
7
  6
CONTINUOUS
 10
101.7876692862
 20
-4.5190767749
 11
101.7509838407
 21
-4.5190767749
  0
LINE
  5
321
100
AcDbEntity
  8
RACCORDO
100
AcDbLine
 62
250
  6
CONTINUOUS
 10
101.2507182409
 20
-0.5188769717
 11
101.0091752606
 21
-0.5189121652
  0
LINE
  5
322
100
AcDbEntity
  8
RACCORDO
100
AcDbLine
 62
250
  6
CONTINUOUS
 10
96.2183477492
 20
-0.5187327397
 11
89.7078458744
 21
-0.5194903876
  0
LWPOLYLINE
  5
323
100
AcDbEntity
  8
RACCORDO
100
AcDbPolyline
 62
250
  6
CONTINUOUS
 90
3
 70
0
 10
-87.6874793676
 20
-0.5191599621
 10
-85.4115944076
 20
-0.5189680675
 10
-82.9170788448
 20
-0.5194896951
  0
LWPOLYLINE
  5
324
100
AcDbEntity
  8
RACCORDO
100
AcDbPolyline
 62
250
  6
CONTINUOUS
 90
3
 70
0
 10
-103.8497988808
 20
-0.5191402728
 10
-103.2338366399
 20
-0.5189355123
 10
-103.1004740926
 20
-0.5189238374
  0
LWPOLYLINE
  5
325
100
AcDbEntity
  8
RACCORDO
100
AcDbPolyline
 62
250
  6
CONTINUOUS
 90
4
 70
0
 10
-103.1004741702
 20
-0.51897588
 10
-96.1965901745
 20
-0.5189702377
 10
-94.0324973946
 20
-0.5192828494
 10
-87.6874793676
 20
-0.5191599621
  0
LWPOLYLINE
  5
326
100
AcDbEntity
  8
RACCORDO
100
AcDbPolyline
 62
250
  6
CONTINUOUS
 90
3
 70
0
 10
89.7078458744
 20
-0.5194903876
 10
85.4628179533
 20
-0.5191600071
 10
80.8906343366
 20
-0.5192228946
  0
LINE
  5
327
100
AcDbEntity
  8
RACCORDO
100
AcDbLine
 62
250
  6
CONTINUOUS
 10
101.0091752606
 20
-0.5189121652
 11
96.2183477492
 21
-0.5187327397
  0
LINE
  5
328
100
AcDbEntity
  8
DRAFT
100
AcDbLine
 62
7
  6
CONTINUOUS
 10
-104.0123307138
 20
3.4809232251
 11
-103.9756452683
 21
3.4809232251
  0
LINE
  5
329
100
AcDbEntity
  8
DRAFT
100
AcDbLine
 62
7
  6
CONTINUOUS
 10
101.7876692862
 20
3.4809232251
 11
101.7509838407
 21
3.4809232251
  0
LINE
  5
32A
100
AcDbEntity
  8
RACCORDO
100
AcDbLine
 62
7
  6
CONTINUOUS
 10
-104.1123307138
 20
4.7809232251
 11
-104.0599229345
 21
4.7809232251
  0
LINE
  5
32B
100
AcDbEntity
  8
RACCORDO
100
AcDbLine
 62
7
  6
CONTINUOUS
 10
101.8876692862
 20
4.7809232251
 11
101.8352615069
 21
4.7809232251
  0
LINE
  5
32C
100
AcDbEntity
  8
RACCORDO
100
AcDbLine
 62
250
  6
CONTINUOUS
 10
-81.4556309294
 20
21.7809232251
 11
-81.9599881888
 21
21.7748948102
  0
LINE
  5
32D
100
AcDbEntity
  8
RACCORDO
100
AcDbLine
 62
250
  6
CONTINUOUS
 10
-81.9599881888
 20
21.7748948102
 11
-82.5131896393
 21
21.7691015952
  0
LINE
  5
32E
100
AcDbEntity
  8
RACCORDO
100
AcDbLine
 62
250
  6
CONTINUOUS
 10
-82.5131896393
 20
21.7691015952
 11
-83.0940516382
 21
21.7637661413
  0
LINE
  5
32F
100
AcDbEntity
  8
RACCORDO
100
AcDbLine
 62
250
  6
CONTINUOUS
 10
77.6376692862
 20
21.7809232251
 11
79.2309704499
 21
21.7809232251
  0
LINE
  5
330
100
AcDbEntity
  8
RACCORDO
100
AcDbLine
 62
250
  6
CONTINUOUS
 10
-79.8623307138
 20
21.7809232251
 11
-81.4556318775
 21
21.7809232251
  0
LINE
  5
331
100
AcDbEntity
  8
0
100
AcDbLine
 62
7
  6
CONTINUOUS
 10
77.3376692862
 20
22.0809232251
 11
-79.5623307138
 21
22.0809232251
  0
LINE
  5
332
100
AcDbEntity
  8
RACCORDO
100
AcDbLine
 62
250
  6
CONTINUOUS
 10
79.7353290125
 20
21.7749004854
 11
80.869391776
 21
21.7637663352
  0
LINE
  5
333
100
AcDbEntity
  8
RACCORDO
100
AcDbLine
 62
250
  6
CONTINUOUS
 10
79.2309689645
 20
21.7809232251
 11
79.7353290125
 21
21.7749004854
  0
LWPOLYLINE
  5
334
100
AcDbEntity
  8
RACCORDO
100
AcDbPolyline
 62
250
  6
CONTINUOUS
 90
4
 70
0
 10
-79.5495197304
 20
25.2671619106
 10
-78.4818570953
 20
25.2747472551
 10
-77.3894058757
 20
25.2788499873
 10
-76.2726877307
 20
25.2809632365
  0
LINE
  5
335
100
AcDbEntity
  8
RACCORDO
100
AcDbLine
 62
250
  6
CONTINUOUS
 10
-76.2726877307
 20
25.2809632365
 11
-73.9657712527
 21
25.2832416426
  0
LINE
  5
336
100
AcDbEntity
  8
RACCORDO
100
AcDbLine
 62
250
  6
CONTINUOUS
 10
75.1729851247
 20
23.6817519092
 11
77.3376692862
 21
23.683317016
  0
LINE
  5
337
100
AcDbEntity
  8
RACCORDO
100
AcDbLine
 62
250
  6
CONTINUOUS
 10
-70.3542770533
 20
25.2854924148
 11
-69.1117384172
 21
25.2861882242
  0
LINE
  5
338
100
AcDbEntity
  8
RACCORDO
100
AcDbLine
 62
250
  6
CONTINUOUS
 10
-73.9657712527
 20
25.2832416426
 11
-70.3542770533
 21
25.2854924148
  0
LINE
  5
339
100
AcDbEntity
  8
RACCORDO
100
AcDbLine
 62
250
  6
CONTINUOUS
 10
-72.7791456656
 20
23.6820508142
 11
-69.1111977416
 21
23.6829421226
  0
LINE
  5
33A
100
AcDbEntity
  8
RACCORDO
100
AcDbLine
 62
250
  6
CONTINUOUS
 10
72.9166423991
 20
23.6814143732
 11
75.1729851247
 21
23.6817519092
  0
LINE
  5
33B
100
AcDbEntity
  8
RACCORDO
100
AcDbLine
 62
250
  6
CONTINUOUS
 10
-76.2725314887
 20
23.6813975244
 11
-72.7791456656
 21
23.6820508142
  0
LINE
  5
33C
100
AcDbEntity
  8
RACCORDO
100
AcDbLine
 62
250
  6
CONTINUOUS
 10
-69.1117384176
 20
25.2861874827
 11
66.8868224203
 21
25.2861875873
  0
LWPOLYLINE
  5
33D
100
AcDbEntity
  8
RACCORDO
100
AcDbPolyline
 62
250
  6
CONTINUOUS
 90
3
 70
0
 10
-69.1111977416
 20
23.6829421226
 10
68.1359074136
 20
23.6826167036
 10
70.5696305605
 20
23.6820472902
  0
LINE
  5
33E
100
AcDbEntity
  8
RACCORDO
100
AcDbLine
 62
250
  6
CONTINUOUS
 10
70.5696305605
 20
23.6820472902
 11
72.9166423991
 21
23.6814143732
  0
LINE
  5
33F
100
AcDbEntity
  8
RACCORDO
100
AcDbLine
 62
250
  6
CONTINUOUS
 10
66.8879038497
 20
25.2861877002
 11
71.7556909088
 21
25.2832231325
  0
LWPOLYLINE
  5
340
100
AcDbEntity
  8
RACCORDO
100
AcDbPolyline
 62
250
  6
CONTINUOUS
 90
3
 70
0
 10
-79.5623307138
 20
23.683317016
 10
-78.4883517052
 20
23.6823917975
 10
-76.2725314887
 20
23.6813975244
  0
LWPOLYLINE
  5
341
100
AcDbEntity
  8
RACCORDO
100
AcDbPolyline
 62
250
  6
CONTINUOUS
 90
5
 70
0
 10
71.7556909088
 20
25.2832231325
 10
74.0565620988
 20
25.280950636
 10
75.170612831
 20
25.2788612356
 10
76.2601996614
 20
25.2747718123
 10
77.3248582966
 20
25.2671618299
  0
LWPOLYLINE
  5
342
100
AcDbEntity
  8
RACCORDO
100
AcDbPolyline
 62
250
  6
CONTINUOUS
 90
67
 70
0
 10
77.3376692862
 20
23.683317016
 10
77.4013880303
 20
23.6823818146
 10
77.4631341471
 20
23.6793524716
 10
77.5228429531
 20
23.6744182567
 10
77.5803234164
 20
23.6677715969
 10
77.6356729181
 20
23.6595940695
 10
77.6892735118
 20
23.6500152167
 10
77.7412089865
 20
23.639131618
 10
77.7913480818
 20
23.62710794
 10
77.8397628295
 20
23.6141274862
 10
77.8865883899
 20
23.6002869993
 10
77.9316874761
 20
23.5857151109
 10
77.9747446579
 20
23.5706548243
 10
78.0156155002
 20
23.5553082136
 10
78.0544913478
 20
23.5397315005
 10
78.0915698807
 20
23.5239525086
 10
78.1268321665
 20
23.5080873272
 10
78.160348199
 20
23.4922150004
 10
78.1924383118
 20
23.4762715115
 10
78.2232104582
 20
23.4602843628
 10
78.2525983885
 20
23.4443571358
 10
78.280652535
 20
23.4285163049
 10
78.3072826623
 20
23.4128887228
 10
78.3326262142
 20
23.3974644109
 10
78.3570626843
 20
23.3820418028
 10
78.3804737444
 20
23.3667312623
 10
78.4030049997
 20
23.3514926838
 10
78.4253994706
 20
23.3358479883
 10
78.4477439832
 20
23.3197249447
 10
78.4699328557
 20
23.3031923719
 10
78.4923850599
 20
23.2859331625
 10
78.515161736
 20
23.2678590548
 10
78.5381520872
 20
23.2490180958
 10
78.5614963863
 20
23.2292710181
 10
78.5851745202
 20
23.2085857292
 10
78.6091394082
 20
23.1869411579
 10
78.6334772377
 20
23.1642005211
 10
78.6581063993
 20
23.1403686373
 10
78.6830196028
 20
23.1153776723
 10
78.7083926288
 20
23.0889630896
 10
78.7341922033
 20
23.0610447864
 10
78.7603155129
 20
23.0316135834
 10
78.7868070918
 20
23.0004916638
 10
78.8136114223
 20
22.9675893285
 10
78.8406032516
 20
22.9328967171
 10
78.8677051821
 20
22.8963486894
 10
78.8948346668
 20
22.8578661202
 10
78.9218577967
 20
22.8174373826
 10
78.9486165275
 20
22.7751044773
 10
78.9749887923
 20
22.73084641
 10
79.0008614883
 20
22.6846214699
 10
79.0260921792
 20
22.6364515604
 10
79.0506516322
 20
22.5861034358
 10
79.0742972412
 20
22.5337726909
 10
79.096626297
 20
22.4801611927
 10
79.117639706
 20
22.4251355632
 10
79.1371765189
 20
22.368875511
 10
79.1547657919
 20
22.3126277936
 10
79.1702738715
 20
22.2571586483
 10
79.1839560909
 20
22.2018512465
 10
79.1959625296
 20
22.1459023922
 10
79.2061844972
 20
22.0896974846
 10
79.2146850022
 20
22.0329596192
 10
79.2216247586
 20
21.9738558699
 10
79.2268388857
 20
21.9117960032
 10
79.2300279824
 20
21.8474618995
 10
79.2309704499
 20
21.7809232251
  0
LWPOLYLINE
  5
343
100
AcDbEntity
  8
RACCORDO
100
AcDbPolyline
 62
250
  6
CONTINUOUS
 90
67
 70
0
 10
77.32485833
 20
25.2671624032
 10
77.448086803
 20
25.2639139966
 10
77.567387888
 20
25.2566456775
 10
77.6828300543
 20
25.245707818
 10
77.7945869579
 20
25.231226566
 10
77.9028408588
 20
25.2136706674
 10
78.0071393912
 20
25.1940237787
 10
78.1064600316
 20
25.1731088632
 10
78.2000400382
 20
25.1512995448
 10
78.2883588143
 20
25.128785337
 10
78.3725051851
 20
25.1058402898
 10
78.4531845658
 20
25.0823537293
 10
78.5305044339
 20
25.0578035519
 10
78.6042298563
 20
25.0322388283
 10
78.6744975701
 20
25.0060645441
 10
78.7416212652
 20
24.9793488266
 10
78.8055189053
 20
24.9522945016
 10
78.8663125287
 20
24.9250525631
 10
78.924644928
 20
24.8975388575
 10
78.9806760177
 20
24.8699039885
 10
79.0343463269
 20
24.8422071749
 10
79.086125331
 20
24.814052471
 10
79.1361934331
 20
24.7851724679
 10
79.1849791835
 20
24.7555922096
 10
79.2331027361
 20
24.7254169603
 10
79.2799849667
 20
24.6951775275
 10
79.3253020689
 20
24.6650249966
 10
79.3698982886
 20
24.6345189612
 10
79.4139035362
 20
24.6036431173
 10
79.4572566742
 20
24.5724136077
 10
79.5006160417
 20
24.5402758286
 10
79.5439729011
 20
24.5072403725
 10
79.587089328
 20
24.4734486806
 10
79.6302694854
 20
24.4384612483
 10
79.6736392875
 20
24.4020569889
 10
79.7174106416
 20
24.3640203643
 10
79.7620274651
 20
24.3238284009
 10
79.8073575819
 20
24.2814708445
 10
79.8532586678
 20
24.2369335437
 10
79.899974059
 20
24.1897696166
 10
79.9474545061
 20
24.1398303724
 10
79.9955372992
 20
24.0870754253
 10
80.0442887818
 20
24.0311502493
 10
80.0936102665
 20
23.9719000522
 10
80.1432642444
 20
23.909312068
 10
80.1930619831
 20
23.8432516067
 10
80.242855664
 20
23.7735881127
 10
80.2923931689
 20
23.7003116243
 10
80.3413259052
 20
23.6234803551
 10
80.3894448063
 20
23.5430399248
 10
80.4365423541
 20
23.4589237502
 10
80.4822667294
 20
23.371228356
 10
80.5265148034
 20
23.2797308896
 10
80.5688198707
 20
23.1848547814
 10
80.6084069679
 20
23.0876845925
 10
80.6448894408
 20
22.9876373552
 10
80.6785691007
 20
22.8848392239
 10
80.7100397534
 20
22.7812584778
 10
80.7396905183
 20
22.6780549317
 10
80.7671802103
 20
22.5738593232
 10
80.7919383909
 20
22.4671082787
 10
80.8134235995
 20
22.3587870213
 10
80.8317568577
 20
22.248949443
 10
80.8469256832
 20
22.1348390211
 10
80.858559786
 20
22.0154261245
 10
80.8661865915
 20
21.8917299696
 10
80.8693906321
 20
21.7637661961
  0
LINE
  5
344
100
AcDbEntity
  8
RACCORDO
100
AcDbLine
 62
250
  6
CONTINUOUS
 10
98.6362929839
 20
39.225435527
 11
98.8917806819
 21
39.4809232251
  0
LWPOLYLINE
  5
345
100
AcDbEntity
  8
RACCORDO
100
AcDbPolyline
 62
250
  6
CONTINUOUS
 90
10
 70
0
 10
-80.4259184197
 20
25.1497454065
 10
-80.2723375123
 20
25.1846747115
 10
-80.1929669143
 20
25.2015753117
 10
-80.1104245057
 20
25.2171007994
 10
-80.0250223862
 20
25.2306416413
 10
-79.9372213919
 20
25.2422633298
 10
-79.8459729736
 20
25.2519690592
 10
-79.7507712999
 20
25.2595721623
 10
-79.6519044665
 20
25.2647380062
 10
-79.5495196928
 20
25.2671612409
  0
LWPOLYLINE
  5
346
100
AcDbEntity
  8
RACCORDO
100
AcDbPolyline
 62
250
  6
CONTINUOUS
 90
3
 70
0
 10
-100.8837406068
 20
38.3281134517
 10
-100.6733980795
 20
38.3341141095
 10
-100.5629699219
 20
38.3369844671
  0
LWPOLYLINE
  5
347
100
AcDbEntity
  8
RACCORDO
100
AcDbPolyline
 62
250
  6
CONTINUOUS
 90
5
 70
0
 10
-100.5629699219
 20
38.3369844671
 10
-100.3332355477
 20
38.3428232203
 10
-100.2139356951
 20
38.3450639517
 10
-100.0914316428
 20
38.3462596522
 10
-99.7002132702
 20
38.3482875934
  0
LWPOLYLINE
  5
348
100
AcDbEntity
  8
RACCORDO
100
AcDbPolyline
 62
250
  6
CONTINUOUS
 90
3
 70
0
 10
-90.6069922864
 20
38.4389785943
 10
-89.5514396275
 20
38.4542031333
 10
-89.2631075824
 20
38.4578715635
  0
LINE
  5
349
100
AcDbEntity
  8
RACCORDO
100
AcDbLine
 62
250
  6
CONTINUOUS
 10
-91.3210149386
 20
38.4293959435
 11
-90.6069922864
 21
38.4389785943
  0
LWPOLYLINE
  5
34A
100
AcDbEntity
  8
RACCORDO
100
AcDbPolyline
 62
250
  6
CONTINUOUS
 90
4
 70
0
 10
-95.1139353289
 20
38.3866530141
 10
-92.0183451658
 20
38.4222850491
 10
-91.7858653591
 20
38.4243647515
 10
-91.3210149386
 20
38.4293959435
  0
LWPOLYLINE
  5
34B
100
AcDbEntity
  8
RACCORDO
100
AcDbPolyline
 62
250
  6
CONTINUOUS
 90
3
 70
0
 10
-89.2631075824
 20
38.4578715635
 10
-88.6570800645
 20
38.463965672
 10
-88.013550668
 20
38.4700989939
  0
LINE
  5
34C
100
AcDbEntity
  8
RACCORDO
100
AcDbLine
 62
250
  6
CONTINUOUS
 10
-88.013550668
 20
38.4700989939
 11
-85.0628591698
 21
38.4978174224
  0
LINE
  5
34D
100
AcDbEntity
  8
RACCORDO
100
AcDbLine
 62
250
  6
CONTINUOUS
 10
-85.0628591698
 20
38.4978174224
 11
-83.7911003633
 21
38.5089737976
  0
LINE
  5
34E
100
AcDbEntity
  8
RACCORDO
100
AcDbLine
 62
250
  6
CONTINUOUS
 10
-97.3993108965
 20
38.3650855585
 11
-95.1139353289
 21
38.3866530141
  0
LINE
  5
34F
100
AcDbEntity
  8
RACCORDO
100
AcDbLine
 62
250
  6
CONTINUOUS
 10
-83.7911003633
 20
38.5089737976
 11
-82.4177838348
 21
38.5200899775
  0
LINE
  5
350
100
AcDbEntity
  8
RACCORDO
100
AcDbLine
 62
250
  6
CONTINUOUS
 10
-82.4177838348
 20
38.5200899775
 11
-81.4412728697
 21
38.5272542296
  0
LINE
  5
351
100
AcDbEntity
  8
RACCORDO
100
AcDbLine
 62
250
  6
CONTINUOUS
 10
-99.7002132702
 20
38.3482875934
 11
-97.3993108965
 21
38.3650855585
  0
LINE
  5
352
100
AcDbEntity
  8
RACCORDO
100
AcDbLine
 62
250
  6
CONTINUOUS
 10
-81.4412728697
 20
38.5272542296
 11
-80.4120034949
 21
38.5339637212
  0
LINE
  5
353
100
AcDbEntity
  8
RACCORDO
100
AcDbLine
 62
250
  6
CONTINUOUS
 10
-80.4120034949
 20
38.5339637212
 11
-79.3276371058
 21
38.5400304174
  0
LINE
  5
354
100
AcDbEntity
  8
RACCORDO
100
AcDbLine
 62
250
  6
CONTINUOUS
 10
-79.3276371058
 20
38.5400304174
 11
-78.1845345397
 21
38.5450888439
  0
LINE
  5
355
100
AcDbEntity
  8
RACCORDO
100
AcDbLine
 62
250
  6
CONTINUOUS
 10
-78.1845345397
 20
38.5450888439
 11
-76.9793072831
 21
38.5487157606
  0
LINE
  5
356
100
AcDbEntity
  8
RACCORDO
100
AcDbLine
 62
250
  6
CONTINUOUS
 10
-76.9793072831
 20
38.5487157606
 11
-75.7099136881
 21
38.5507550942
  0
LINE
  5
357
100
AcDbEntity
  8
RACCORDO
100
AcDbLine
 62
250
  6
CONTINUOUS
 10
98.4161096894
 20
39.2252573723
 11
98.6362929839
 21
39.225435527
  0
LINE
  5
358
100
AcDbEntity
  8
RACCORDO
100
AcDbLine
 62
250
  6
CONTINUOUS
 10
88.2722524434
 20
39.2194488523
 11
89.2110701469
 21
39.2201596022
  0
LWPOLYLINE
  5
359
100
AcDbEntity
  8
RACCORDO
100
AcDbPolyline
 62
250
  6
CONTINUOUS
 90
3
 70
0
 10
89.2110701469
 20
39.2201596022
 10
89.435774762
 20
39.2203237513
 10
89.6584433705
 20
39.2204774043
  0
LINE
  5
35A
100
AcDbEntity
  8
RACCORDO
100
AcDbLine
 62
250
  6
CONTINUOUS
 10
88.0208580444
 20
39.2192683736
 11
88.2722524434
 21
39.2194488523
  0
LWPOLYLINE
  5
35B
100
AcDbEntity
  8
RACCORDO
100
AcDbPolyline
 62
250
  6
CONTINUOUS
 90
3
 70
0
 10
66.8873724046
 20
38.5455821962
 10
67.759442214
 20
38.5461294611
 10
70.9828707069
 20
38.5502203677
  0
LWPOLYLINE
  5
35C
100
AcDbEntity
  8
RACCORDO
100
AcDbPolyline
 62
250
  6
CONTINUOUS
 90
8
 70
0
 10
89.6584433705
 20
39.2204774043
 10
93.1076082617
 20
39.2227134411
 10
93.4298371486
 20
39.2229067403
 10
93.7500950476
 20
39.2230921582
 10
94.0691539393
 20
39.2232710477
 10
94.3802917369
 20
39.2234395573
 10
94.6825304433
 20
39.2235963787
 10
94.9768480558
 20
39.22374282
  0
LWPOLYLINE
  5
35D
100
AcDbEntity
  8
RACCORDO
100
AcDbPolyline
 62
250
  6
CONTINUOUS
 90
4
 70
0
 10
86.9253118465
 20
39.2185933373
 10
87.2134668825
 20
39.2187567707
 10
87.4917050691
 20
39.2189244543
 10
88.0208580444
 20
39.2192683736
  0
LINE
  5
35E
100
AcDbEntity
  8
RACCORDO
100
AcDbLine
 62
250
  6
CONTINUOUS
 10
70.9828707069
 20
38.5502203677
 11
72.4459417747
 21
38.5511304191
  0
LINE
  5
35F
100
AcDbEntity
  8
RACCORDO
100
AcDbLine
 62
250
  6
CONTINUOUS
 10
94.9768480558
 20
39.22374282
 11
95.5286289921
 21
39.2240038366
  0
LWPOLYLINE
  5
360
100
AcDbEntity
  8
RACCORDO
100
AcDbPolyline
 62
250
  6
CONTINUOUS
 90
7
 70
0
 10
78.5562623527
 20
39.2145276285
 10
79.0745667903
 20
39.2147123175
 10
79.5784009754
 20
39.2149049398
 10
80.0676885839
 20
39.2151062225
 10
80.543846742
 20
39.2153107934
 10
81.0069413495
 20
39.2155180483
 10
86.9253118465
 20
39.2185933373
  0
LINE
  5
361
100
AcDbEntity
  8
RACCORDO
100
AcDbLine
 62
250
  6
CONTINUOUS
 10
95.5286289921
 20
39.2240038366
 11
97.3505208117
 21
39.2247471646
  0
LWPOLYLINE
  5
362
100
AcDbEntity
  8
RACCORDO
100
AcDbPolyline
 62
250
  6
CONTINUOUS
 90
3
 70
0
 10
97.3505208117
 20
39.2247471646
 10
97.7706265127
 20
39.224884016
 10
98.4161096894
 20
39.2252573723
  0
LWPOLYLINE
  5
363
100
AcDbEntity
  8
RACCORDO
100
AcDbPolyline
 62
250
  6
CONTINUOUS
 90
4
 70
0
 10
76.3278901547
 20
39.2139211635
 10
76.9092252394
 20
39.2140483674
 10
77.4743676489
 20
39.2141917849
 10
78.5562623527
 20
39.2145276285
  0
LINE
  5
364
100
AcDbEntity
  8
RACCORDO
100
AcDbLine
 62
250
  6
CONTINUOUS
 10
-69.1124199452
 20
38.5455822974
 11
66.8873724046
 21
38.5455822953
  0
LWPOLYLINE
  5
365
100
AcDbEntity
  8
RACCORDO
100
AcDbPolyline
 62
250
  6
CONTINUOUS
 90
5
 70
0
 10
73.143164196
 20
39.2136465114
 10
73.8194154476
 20
39.2136514945
 10
74.4753979537
 20
39.2136831648
 10
75.1109765118
 20
39.2137385622
 10
76.3278901547
 20
39.2139211635
  0
LINE
  5
366
100
AcDbEntity
  8
RACCORDO
100
AcDbLine
 62
7
  6
CONTINUOUS
 10
98.8917806819
 20
39.4809232251
 11
-101.1164421096
 21
39.4809232251
  0
LINE
  5
367
100
AcDbEntity
  8
RACCORDO
100
AcDbLine
 62
250
  6
CONTINUOUS
 10
-75.7099136881
 20
38.5507550942
 11
-74.373378007
 21
38.5510178366
  0
LINE
  5
368
100
AcDbEntity
  8
RACCORDO
100
AcDbLine
 62
250
  6
CONTINUOUS
 10
-76.9777614674
 20
39.2137035255
 11
-69.1125047462
 21
39.2140422541
  0
LINE
  5
369
100
AcDbEntity
  8
RACCORDO
100
AcDbLine
 62
250
  6
CONTINUOUS
 10
71.7267609333
 20
39.2136993583
 11
73.143164196
 21
39.2136465114
  0
LINE
  5
36A
100
AcDbEntity
  8
RACCORDO
100
AcDbLine
 62
250
  6
CONTINUOUS
 10
-69.1125047462
 20
39.2140422541
 11
71.7267609333
 21
39.2136993583
  0
LINE
  5
36B
100
AcDbEntity
  8
RACCORDO
100
AcDbLine
 62
250
  6
CONTINUOUS
 10
-82.4101559411
 20
39.2151557627
 11
-76.9777614674
 21
39.2137035255
  0
LWPOLYLINE
  5
36C
100
AcDbEntity
  8
RACCORDO
100
AcDbPolyline
 62
250
  6
CONTINUOUS
 90
4
 70
0
 10
72.4459417747
 20
38.5511304191
 10
73.8199917643
 20
38.5504081269
 10
74.4766811769
 20
38.5493457151
 10
75.113027307
 20
38.5478332249
  0
LWPOLYLINE
  5
36D
100
AcDbEntity
  8
RACCORDO
100
AcDbPolyline
 62
250
  6
CONTINUOUS
 90
4
 70
0
 10
-96.9936014997
 20
39.2236404319
 10
-91.3072433522
 20
39.2200664797
 10
-91.0745076647
 20
39.2198836395
 10
-82.4101559411
 20
39.2151557627
  0
LWPOLYLINE
  5
36E
100
AcDbEntity
  8
RACCORDO
100
AcDbPolyline
 62
250
  6
CONTINUOUS
 90
4
 70
0
 10
-74.373378007
 20
38.5510178366
 10
-72.9682861716
 20
38.5499557714
 10
-72.2398464261
 20
38.5489621779
 10
-69.1124199452
 20
38.5455824663
  0
LINE
  5
36F
100
AcDbEntity
  8
RACCORDO
100
AcDbLine
 62
250
  6
CONTINUOUS
 10
-100.8609544115
 20
39.225435527
 11
-96.9936014997
 21
39.2236404319
  0
LINE
  5
370
100
AcDbEntity
  8
RACCORDO
100
AcDbLine
 62
250
  6
CONTINUOUS
 10
75.113027307
 20
38.5478332249
 11
76.3314791824
 21
38.5435949462
  0
LWPOLYLINE
  5
371
100
AcDbEntity
  8
RACCORDO
100
AcDbPolyline
 62
250
  6
CONTINUOUS
 90
6
 70
0
 10
97.1476518553
 20
38.3500227964
 10
97.3572993594
 20
38.3490661628
 10
97.5669782385
 20
38.3486293612
 10
97.7768576797
 20
38.3477157713
 10
97.9908076372
 20
38.3450561482
 10
98.2100478999
 20
38.3403472261
  0
LINE
  5
372
100
AcDbEntity
  8
RACCORDO
100
AcDbLine
 62
250
  6
CONTINUOUS
 10
76.3314791824
 20
38.5435949462
 11
77.4793832696
 21
38.5380566377
  0
LINE
  5
373
100
AcDbEntity
  8
RACCORDO
100
AcDbLine
 62
250
  6
CONTINUOUS
 10
77.4793832696
 20
38.5380566377
 11
78.5624902447
 21
38.5316205687
  0
LINE
  5
374
100
AcDbEntity
  8
RACCORDO
100
AcDbLine
 62
250
  6
CONTINUOUS
 10
78.5624902447
 20
38.5316205687
 11
79.5856230659
 21
38.5246161181
  0
LINE
  5
375
100
AcDbEntity
  8
RACCORDO
100
AcDbLine
 62
250
  6
CONTINUOUS
 10
79.5856230659
 20
38.5246161181
 11
81.0152864927
 21
38.5135695866
  0
LINE
  5
376
100
AcDbEntity
  8
RACCORDO
100
AcDbLine
 62
250
  6
CONTINUOUS
 10
96.7218550941
 20
38.353379625
 11
97.1476518553
 21
38.3500227964
  0
LINE
  5
377
100
AcDbEntity
  8
RACCORDO
100
AcDbLine
 62
250
  6
CONTINUOUS
 10
94.6922742328
 20
38.3691525327
 11
96.7218550941
 21
38.353379625
  0
LINE
  5
378
100
AcDbEntity
  8
RACCORDO
100
AcDbLine
 62
250
  6
CONTINUOUS
 10
81.0152864927
 20
38.5135695866
 11
82.3302398334
 21
38.5023559433
  0
LWPOLYLINE
  5
379
100
AcDbEntity
  8
RACCORDO
100
AcDbPolyline
 62
250
  6
CONTINUOUS
 90
3
 70
0
 10
82.3302398334
 20
38.5023559433
 10
83.9235705045
 20
38.4878263477
 10
84.2959655837
 20
38.4843277094
  0
LINE
  5
37A
100
AcDbEntity
  8
RACCORDO
100
AcDbLine
 62
250
  6
CONTINUOUS
 10
84.2959655837
 20
38.4843277094
 11
85.0115422663
 21
38.4775352259
  0
LINE
  5
37B
100
AcDbEntity
  8
RACCORDO
100
AcDbLine
 62
250
  6
CONTINUOUS
 10
89.2251925987
 20
38.4276966938
 11
89.8915461656
 21
38.4215231984
  0
LINE
  5
37C
100
AcDbEntity
  8
RACCORDO
100
AcDbLine
 62
250
  6
CONTINUOUS
 10
93.4410938511
 20
38.380903811
 11
94.6922742328
 21
38.3691525327
  0
LINE
  5
37D
100
AcDbEntity
  8
RACCORDO
100
AcDbLine
 62
250
  6
CONTINUOUS
 10
85.0115422663
 20
38.4775352259
 11
86.9357395669
 21
38.4588079956
  0
LINE
  5
37E
100
AcDbEntity
  8
RACCORDO
100
AcDbLine
 62
250
  6
CONTINUOUS
 10
88.9992416926
 20
38.4302799824
 11
89.2251925987
 21
38.4276966938
  0
LINE
  5
37F
100
AcDbEntity
  8
RACCORDO
100
AcDbLine
 62
250
  6
CONTINUOUS
 10
91.060943806
 20
38.4075384889
 11
93.4410938511
 21
38.380903811
  0
LWPOLYLINE
  5
380
100
AcDbEntity
  8
RACCORDO
100
AcDbPolyline
 62
250
  6
CONTINUOUS
 90
3
 70
0
 10
89.8915461656
 20
38.4215231984
 10
90.5723980482
 20
38.413438336
 10
91.060943806
 20
38.4075384889
  0
LINE
  5
381
100
AcDbEntity
  8
RACCORDO
100
AcDbLine
 62
250
  6
CONTINUOUS
 10
86.9357395669
 20
38.4588079956
 11
87.5032485038
 21
38.4517917613
  0
LWPOLYLINE
  5
382
100
AcDbEntity
  8
RACCORDO
100
AcDbPolyline
 62
250
  6
CONTINUOUS
 90
3
 70
0
 10
88.0336577853
 20
38.4441243663
 10
88.5293527124
 20
38.436950015
 10
88.9992416926
 20
38.4302799824
  0
LINE
  5
383
100
AcDbEntity
  8
RACCORDO
100
AcDbLine
 62
250
  6
CONTINUOUS
 10
87.5032485038
 20
38.4517917613
 11
88.0336577853
 21
38.4441243663
  0
LINE
  5
384
100
AcDbEntity
  8
RACCORDO
100
AcDbLine
 62
250
  6
CONTINUOUS
 10
98.2100478999
 20
38.3403472261
 11
98.6590807295
 21
38.3281207023
  0
LWPOLYLINE
  5
385
100
AcDbEntity
  8
RACCORDO
100
AcDbPolyline
 62
250
  6
CONTINUOUS
 90
19
 70
0
 10
98.6362929839
 20
39.225435527
 10
98.894846602
 20
39.2142482606
 10
99.1522846301
 20
39.1806723403
 10
99.4066568859
 20
39.1247348564
 10
99.6562453494
 20
39.0465478632
 10
99.8988343469
 20
38.9465311568
 10
100.1318117965
 20
38.8256210885
 10
100.3532553113
 20
38.6848059489
 10
100.5615962031
 20
38.5250733574
 10
100.7550021334
 20
38.3478394945
 10
100.9319366855
 20
38.1546046808
 10
101.0911949862
 20
37.9467847035
 10
101.2316599433
 20
37.7258892718
 10
101.352350214
 20
37.4934513676
 10
101.4522613144
 20
37.2513899274
 10
101.5305412113
 20
37.0019401005
 10
101.5866867748
 20
36.7471595085
 10
101.6204371243
 20
36.4888684728
 10
101.6316559674
 20
36.229021302
  0
LWPOLYLINE
  5
386
100
AcDbEntity
  8
RACCORDO
100
AcDbPolyline
 62
250
  6
CONTINUOUS
 90
19
 70
0
 10
98.6590784954
 20
38.3281104277
 10
98.8362508231
 20
38.3163481508
 10
99.0126289348
 20
38.2897925946
 10
99.1867639138
 20
38.2483927904
 10
99.3575562768
 20
38.1922854689
 10
99.5235896383
 20
38.121765593
 10
99.6831414649
 20
38.0373764085
 10
99.8349684126
 20
37.9397647787
 10
99.9780767173
 20
37.829628376
 10
100.1112330036
 20
37.7078562453
 10
100.2333770654
 20
37.575372067
 10
100.3437926298
 20
37.4331647681
 10
100.4417817235
 20
37.2822421423
 10
100.5266443308
 20
37.1235672485
 10
100.5977355558
 20
36.9583954056
 10
100.654551449
 20
36.7882076363
 10
100.6967164099
 20
36.6143183503
 10
100.7239856038
 20
36.4379217805
 10
100.7363153982
 20
36.2605044522
  0
LINE
  5
387
100
AcDbEntity
  8
RACCORDO
100
AcDbLine
 62
250
  6
CONTINUOUS
 10
98.6362929839
 20
-40.2635890769
 11
98.8917806819
 21
-40.5190767749
  0
LINE
  5
388
100
AcDbEntity
  8
RACCORDO
100
AcDbLine
 62
250
  6
CONTINUOUS
 10
101.6316559674
 20
-37.2671748519
 11
101.8876692862
 21
-37.5231881707
  0
LINE
  5
389
100
AcDbEntity
  8
RACCORDO
100
AcDbLine
 62
250
  6
CONTINUOUS
 10
101.6316559674
 20
36.229021302
 11
101.8876692862
 21
36.4850346208
  0
LWPOLYLINE
  5
38A
100
AcDbEntity
  8
0
100
AcDbPolyline
 62
7
  6
CONTINUOUS
 90
7
 70
0
 43
0.3500000006
 10
-3.1480448971
 20
49.2690757141
 10
-4.6480450716
 20
49.2690757141
 10
-3.1480448971
 20
51.4119341583
 10
-3.1480448971
 20
51.8405031281
 10
-3.576616416
 20
52.2690766296
 10
-4.2194735527
 20
52.2690766296
 10
-4.6480450716
 20
51.6262186432
  0
LWPOLYLINE
  5
38B
100
AcDbEntity
  8
RACCORDO
100
AcDbPolyline
 62
250
  6
CONTINUOUS
 90
10
 70
0
 10
-103.8562381454
 20
36.2290212991
 10
-103.8357338037
 20
36.2340108152
 10
-103.7911038236
 20
36.238877317
 10
-103.7234490366
 20
36.2435007681
 10
-103.6344381984
 20
36.2477671266
 10
-103.5262668269
 20
36.2515711576
 10
-103.4016030491
 20
36.2548190289
 10
-103.2635217891
 20
36.2574306255
 10
-103.1154289233
 20
36.2593415253
 10
-102.9609772717
 20
36.2605045883
  0
LWPOLYLINE
  5
38C
100
AcDbEntity
  8
RACCORDO
100
AcDbPolyline
 62
250
  6
CONTINUOUS
 90
10
 70
0
 10
101.6316559674
 20
36.229021302
 10
101.6111488032
 20
36.2340111212
 10
101.5665137723
 20
36.2388778642
 10
101.498851911
 20
36.2435014868
 10
101.409832271
 20
36.2477679431
 10
101.3016507472
 20
36.2515719959
 10
101.1769759111
 20
36.254819813
 10
101.0388831834
 20
36.2574312846
 10
100.8907789711
 20
36.2593419992
 10
100.7363166399
 20
36.2605048308
  0
LINE
  5
38D
100
AcDbEntity
  8
SCRITTA_VIMAR
100
AcDbLine
 62
250
  6
CONTINUOUS
 10
79.4343642862
 20
-30.0190837749
 11
78.8531102862
 21
-28.8977337749
  0
LINE
  5
38E
100
AcDbEntity
  8
SCRITTA_VIMAR
100
AcDbLine
 62
250
  6
CONTINUOUS
 10
79.4702650768
 20
-28.8279794419
 11
80.0876692862
 21
-30.0190767749
  0
LINE
  5
38F
100
AcDbEntity
  8
SCRITTA_VIMAR
100
AcDbLine
 62
250
  6
CONTINUOUS
 10
68.6564202862
 20
-30.0190987749
 11
67.7252882862
 21
-27.1189607749
  0
LINE
  5
390
100
AcDbEntity
  8
SCRITTA_VIMAR
100
AcDbLine
 62
250
  6
CONTINUOUS
 10
68.3053172862
 20
-27.1189607749
 11
68.9464492862
 21
-29.1158567749
  0
LINE
  5
391
100
AcDbEntity
  8
RACCORDO
100
AcDbLine
 62
250
  6
CONTINUOUS
 10
66.8862817366
 20
-24.7210957059
 11
66.8868224201
 21
-26.3243411372
  0
LINE
  5
392
100
AcDbEntity
  8
RACCORDO
100
AcDbLine
 62
250
  6
CONTINUOUS
 10
66.8876267407
 20
-40.252195806
 11
66.8875419856
 21
-39.5837358453
  0
LINE
  5
393
100
AcDbEntity
  8
RACCORDO
100
AcDbLine
 62
250
  6
CONTINUOUS
 10
66.8875678133
 20
-26.324341286
 11
66.8875278502
 21
-39.5837355687
  0
LINE
  5
394
100
AcDbEntity
  8
RACCORDO
100
AcDbLine
 62
250
  6
CONTINUOUS
 10
66.8873107218
 20
24.5318983187
 11
66.8868224203
 21
25.2861875873
  0
LWPOLYLINE
  5
395
100
AcDbEntity
  8
RACCORDO
100
AcDbPolyline
 62
250
  6
CONTINUOUS
 90
3
 70
0
 10
66.8862817368
 20
23.682942156
 10
66.8864781988
 20
23.8405039939
 10
66.8866711674
 20
24.0048714561
  0
LINE
  5
396
100
AcDbEntity
  8
RACCORDO
100
AcDbLine
 62
250
  6
CONTINUOUS
 10
66.8866711674
 20
24.0048714561
 11
66.8873107218
 21
24.5318983187
  0
LINE
  5
397
100
AcDbEntity
  8
RACCORDO
100
AcDbLine
 62
250
  6
CONTINUOUS
 10
66.8876267418
 20
39.2140422561
 11
66.8875678135
 21
25.2861877359
  0
LINE
  5
398
100
AcDbEntity
  8
SCRITTA_VIMAR
100
AcDbLine
 62
250
  6
CONTINUOUS
 10
76.4400422862
 20
-28.8977337749
 11
76.1589372862
 21
-28.0221947749
  0
LINE
  5
399
100
AcDbEntity
  8
SCRITTA_VIMAR
100
AcDbLine
 62
250
  6
CONTINUOUS
 10
76.8000772862
 20
-30.0190837749
 11
76.6169712862
 21
-29.4487557749
  0
LINE
  5
39A
100
AcDbEntity
  8
SCRITTA_VIMAR
100
AcDbLine
 62
250
  6
CONTINUOUS
 10
76.4489662862
 20
-27.1189537749
 11
77.3801062862
 21
-30.0190917749
  0
LINE
  5
39B
100
AcDbEntity
  8
SCRITTA_VIMAR
100
AcDbLine
 62
250
  6
CONTINUOUS
 10
72.8427002862
 20
-30.0190917749
 11
72.2943252862
 21
-28.1066497749
  0
LINE
  5
39C
100
AcDbEntity
  8
SCRITTA_VIMAR
100
AcDbLine
 62
250
  6
CONTINUOUS
 10
72.5911402862
 20
-27.1189607749
 11
73.1327082862
 21
-29.0076287749
  0
LINE
  5
39D
100
AcDbEntity
  8
SCRITTA_VIMAR
100
AcDbLine
 62
250
  6
CONTINUOUS
 10
70.5542742862
 20
-30.0190987749
 11
70.5542812862
 21
-27.1189607749
  0
LINE
  5
39E
100
AcDbEntity
  8
SCRITTA_VIMAR
100
AcDbLine
 62
250
  6
CONTINUOUS
 10
71.1343032862
 20
-27.1189607749
 11
71.1342962862
 21
-30.0190917749
  0
LINE
  5
39F
100
AcDbEntity
  8
SCRITTA_VIMAR
100
AcDbLine
 62
250
  6
CONTINUOUS
 10
71.7143032862
 20
-30.0190917749
 11
71.7143032862
 21
-27.1189607749
  0
LINE
  5
3A0
100
AcDbEntity
  8
SCRITTA_VIMAR
100
AcDbLine
 62
250
  6
CONTINUOUS
 10
72.2943252862
 20
-28.1066497749
 11
72.2943252862
 21
-30.0190917749
  0
LINE
  5
3A1
100
AcDbEntity
  8
SCRITTA_VIMAR
100
AcDbLine
 62
250
  6
CONTINUOUS
 10
73.9710902862
 20
-30.0190917749
 11
73.9710832862
 21
-28.1066497749
  0
LINE
  5
3A2
100
AcDbEntity
  8
SCRITTA_VIMAR
100
AcDbLine
 62
250
  6
CONTINUOUS
 10
74.5511122862
 20
-27.1189607749
 11
74.5511122862
 21
-30.0190917749
  0
LINE
  5
3A3
100
AcDbEntity
  8
SCRITTA_VIMAR
100
AcDbLine
 62
250
  6
CONTINUOUS
 10
68.9464492862
 20
-29.1158567749
 11
69.5875742862
 21
-27.1189607749
  0
LINE
  5
3A4
100
AcDbEntity
  8
SCRITTA_VIMAR
100
AcDbLine
 62
250
  6
CONTINUOUS
 10
70.1676032862
 20
-27.1189607749
 11
69.2364632862
 21
-30.0190917749
  0
LINE
  5
3A5
100
AcDbEntity
  8
RACCORDO
100
AcDbLine
 62
250
  6
CONTINUOUS
 10
77.3376692861
 20
23.6833208351
 11
77.3317468574
 21
24.3436016305
  0
LWPOLYLINE
  5
3A6
100
AcDbEntity
  8
RACCORDO
100
AcDbPolyline
 62
250
  6
CONTINUOUS
 90
3
 70
0
 10
77.3317468574
 20
24.3436016305
 10
77.3261605045
 20
25.0776086773
 10
77.32485833
 20
25.2671624032
  0
LWPOLYLINE
  5
3A7
100
AcDbEntity
  8
RACCORDO
100
AcDbPolyline
 62
250
  6
CONTINUOUS
 90
3
 70
0
 10
80.869391776
 20
21.7637663352
 10
80.8743581196
 20
20.7905507136
 10
80.8773634842
 20
19.784458075
  0
LINE
  5
3A8
100
AcDbEntity
  8
RACCORDO
100
AcDbLine
 62
250
  6
CONTINUOUS
 10
80.8773634842
 20
19.784458075
 11
80.8811275185
 21
17.6754830677
  0
LINE
  5
3A9
100
AcDbEntity
  8
RACCORDO
100
AcDbLine
 62
250
  6
CONTINUOUS
 10
80.8811275185
 20
17.6754830677
 11
80.8841367325
 21
15.4429830194
  0
LINE
  5
3AA
100
AcDbEntity
  8
RACCORDO
100
AcDbLine
 62
250
  6
CONTINUOUS
 10
79.2284238691
 20
-20.8293566333
 11
79.2309704499
 21
-22.8190767749
  0
LINE
  5
3AB
100
AcDbEntity
  8
RACCORDO
100
AcDbLine
 62
250
  6
CONTINUOUS
 10
80.8841367325
 20
15.4429830194
 11
80.8865006015
 21
13.1010916279
  0
LINE
  5
3AC
100
AcDbEntity
  8
RACCORDO
100
AcDbLine
 62
250
  6
CONTINUOUS
 10
79.2268565435
 20
-18.7169125671
 11
79.2284238691
 21
-20.8293566333
  0
LINE
  5
3AD
100
AcDbEntity
  8
RACCORDO
100
AcDbLine
 62
250
  6
CONTINUOUS
 10
80.8865006015
 20
13.1010916279
 11
80.8882500886
 21
10.6383195155
  0
LINE
  5
3AE
100
AcDbEntity
  8
RACCORDO
100
AcDbLine
 62
250
  6
CONTINUOUS
 10
79.2223776833
 20
-0.5188584293
 11
79.2268565435
 21
-18.7169125671
  0
LINE
  5
3AF
100
AcDbEntity
  8
RACCORDO
100
AcDbLine
 62
250
  6
CONTINUOUS
 10
80.8882500886
 20
10.6383195155
 11
80.8897894477
 21
6.7066472383
  0
LINE
  5
3B0
100
AcDbEntity
  8
RACCORDO
100
AcDbLine
 62
250
  6
CONTINUOUS
 10
77.3376692862
 20
-23.1190767749
 11
77.3376692862
 21
-24.7214705659
  0
LINE
  5
3B1
100
AcDbEntity
  8
RACCORDO
100
AcDbLine
 62
250
  6
CONTINUOUS
 10
77.3376692862
 20
22.0809232251
 11
77.3376692862
 21
23.683317016
  0
LINE
  5
3B2
100
AcDbEntity
  8
0
100
AcDbLine
 62
7
  6
CONTINUOUS
 10
77.6376692862
 20
-22.8190767749
 11
77.6376692862
 21
21.7809232251
  0
LINE
  5
3B3
100
AcDbEntity
  8
SCRITTA_VIMAR
100
AcDbLine
 62
250
  6
CONTINUOUS
 10
77.7667842862
 20
-30.0190837749
 11
77.7667842862
 21
-27.1189537749
  0
LINE
  5
3B4
100
AcDbEntity
  8
SCRITTA_VIMAR
100
AcDbLine
 62
250
  6
CONTINUOUS
 10
78.3388092862
 20
-27.6554747749
 11
78.3388172862
 21
-28.3612047749
  0
LINE
  5
3B5
100
AcDbEntity
  8
SCRITTA_VIMAR
100
AcDbLine
 62
250
  6
CONTINUOUS
 10
78.3468792862
 20
-28.8977267749
 11
78.3468132862
 21
-30.0190837749
  0
LINE
  5
3B6
100
AcDbEntity
  8
RACCORDO
100
AcDbLine
 62
250
  6
CONTINUOUS
 10
80.8897894477
 20
6.7066472383
 11
80.8902933388
 21
-4.956622617
  0
LINE
  5
3B7
100
AcDbEntity
  8
RACCORDO
100
AcDbLine
 62
250
  6
CONTINUOUS
 10
79.224218885
 20
9.3620634162
 11
79.2223776833
 21
-0.5188584293
  0
LINE
  5
3B8
100
AcDbEntity
  8
RACCORDO
100
AcDbLine
 62
250
  6
CONTINUOUS
 10
80.8902933388
 20
-4.956622617
 11
80.8893970066
 21
-9.0864397634
  0
LINE
  5
3B9
100
AcDbEntity
  8
RACCORDO
100
AcDbLine
 62
250
  6
CONTINUOUS
 10
80.8893970066
 20
-9.0864397634
 11
80.8882505829
 21
-11.6750367198
  0
LINE
  5
3BA
100
AcDbEntity
  8
RACCORDO
100
AcDbLine
 62
250
  6
CONTINUOUS
 10
79.2274921554
 20
18.7507015811
 11
79.224218885
 21
9.3620634162
  0
LWPOLYLINE
  5
3BB
100
AcDbEntity
  8
RACCORDO
100
AcDbPolyline
 62
250
  6
CONTINUOUS
 90
3
 70
0
 10
80.8882505829
 20
-11.6750367198
 10
80.8865021977
 20
-14.138477821
 10
80.8853964923
 20
-15.3239754706
  0
LINE
  5
3BC
100
AcDbEntity
  8
RACCORDO
100
AcDbLine
 62
250
  6
CONTINUOUS
 10
80.8853964923
 20
-15.3239754706
 11
80.8827124126
 21
-17.6116316748
  0
LWPOLYLINE
  5
3BD
100
AcDbEntity
  8
RACCORDO
100
AcDbPolyline
 62
250
  6
CONTINUOUS
 90
3
 70
0
 10
79.2309704499
 20
21.7809232251
 10
79.2295836312
 20
20.8013732922
 10
79.2274921554
 20
18.7507015811
  0
LWPOLYLINE
  5
3BE
100
AcDbEntity
  8
RACCORDO
100
AcDbPolyline
 62
250
  6
CONTINUOUS
 90
5
 70
0
 10
80.8827124126
 20
-17.6116316748
 10
80.879371789
 20
-19.784265987
 10
80.8773748045
 20
-20.8225139375
 10
80.8743729883
 20
-21.8286301594
 10
80.8693916865
 20
-22.8019198743
  0
LINE
  5
3BF
100
AcDbEntity
  8
RACCORDO
100
AcDbLine
 62
250
  6
CONTINUOUS
 10
77.3376692862
 20
-24.7214688207
 11
77.3248583028
 21
-26.3053154605
  0
LWPOLYLINE
  5
3C0
100
AcDbEntity
  8
RACCORDO
100
AcDbPolyline
 62
250
  6
CONTINUOUS
 90
73
 70
0
 10
79.2309704499
 20
-22.8190767749
 10
79.2303024433
 20
-22.8764856083
 10
79.2279729741
 20
-22.9317981797
 10
79.2241641372
 20
-22.9849707878
 10
79.219066938
 20
-23.0358147938
 10
79.2128449049
 20
-23.0844617164
 10
79.2055935624
 20
-23.1313580153
 10
79.1975113376
 20
-23.1760949041
 10
79.1886601191
 20
-23.2190626314
 10
79.1787735567
 20
-23.2618875775
 10
79.1677628843
 20
-23.3048403291
 10
79.1557039926
 20
-23.3475938476
 10
79.1424124362
 20
-23.3908435687
 10
79.1277424133
 20
-23.4348584896
 10
79.1117261195
 20
-23.4792798089
 10
79.0944111966
 20
-23.5238520999
 10
79.0757443371
 20
-23.5685949436
 10
79.0557126787
 20
-23.6133998742
 10
79.0344720831
 20
-23.6578362264
 10
79.0120064384
 20
-23.7019015555
 10
78.9883338443
 20
-23.7455287678
 10
78.9637301903
 20
-23.7882229655
 10
78.9382343938
 20
-23.8299748031
 10
78.9118873286
 20
-23.8707684811
 10
78.885039884
 20
-23.9101440706
 10
78.8577946457
 20
-23.9480767222
 10
78.8301939758
 20
-23.9846245906
 10
78.8025535677
 20
-24.0194952881
 10
78.775006587
 20
-24.0526731245
 10
78.7475913926
 20
-24.0842547231
 10
78.7205077829
 20
-24.1141436576
 10
78.6939056224
 20
-24.1423204718
 10
78.667797705
 20
-24.1689091469
 10
78.642175929
 20
-24.1940325524
 10
78.6171730852
 20
-24.2176741495
 10
78.5927826178
 20
-24.2399471023
 10
78.5687634234
 20
-24.2611490654
 10
78.5451467934
 20
-24.2813234689
 10
78.5219791742
 20
-24.3004900849
 10
78.4990152352
 20
-24.3188829275
 10
78.4763715915
 20
-24.3364511087
 10
78.4539821688
 20
-24.353285986
 10
78.4312978116
 20
-24.36979723
 10
78.408295786
 20
-24.3859947371
 10
78.3850076521
 20
-24.4018564469
 10
78.3609327911
 20
-24.4176971366
 10
78.3360314537
 20
-24.4334966225
 10
78.3103244679
 20
-24.4492159006
 10
78.2833743212
 20
-24.4650977826
 10
78.2548818646
 20
-24.4812451352
 10
78.2250985012
 20
-24.4974359888
 10
78.1944107318
 20
-24.5134231874
 10
78.1629968365
 20
-24.5290822154
 10
78.1306661483
 20
-24.5444655282
 10
78.0972596091
 20
-24.55960258
 10
78.0627218215
 20
-24.5744602967
 10
78.0270901492
 20
-24.5889658238
 10
77.9903417182
 20
-24.6030769489
 10
77.952295721
 20
-24.6167999301
 10
77.9131209965
 20
-24.6300045513
 10
77.8733325657
 20
-24.6424735825
 10
77.8329703235
 20
-24.6541851935
 10
77.7920169375
 20
-24.6651066293
 10
77.750925404
 20
-24.6750663325
 10
77.7103350136
 20
-24.6839353267
 10
77.6696590184
 20
-24.6918734061
 10
77.6275053367
 20
-24.6990796695
 10
77.5835523877
 20
-24.705502359
 10
77.5381427566
 20
-24.7109908314
 10
77.4908673482
 20
-24.7154686432
 10
77.441605197
 20
-24.7188059501
 10
77.3905271524
 20
-24.7208539581
 10
77.3376692862
 20
-24.7214705659
  0
LWPOLYLINE
  5
3C1
100
AcDbEntity
  8
RACCORDO
100
AcDbPolyline
 62
250
  6
CONTINUOUS
 90
63
 70
0
 10
80.8693902107
 20
-22.8019196912
 10
80.866881419
 20
-22.9124330282
 10
80.861111784
 20
-23.0189270311
 10
80.8524516035
 20
-23.1212638287
 10
80.8413112558
 20
-23.2190274116
 10
80.8279922798
 20
-23.3124946634
 10
80.8125833601
 20
-23.4026963975
 10
80.7951909971
 20
-23.4891484374
 10
80.776160963
 20
-23.5724258803
 10
80.7557677807
 20
-23.6547551788
 10
80.7343509412
 20
-23.7359428837
 10
80.7119680108
 20
-23.8151603003
 10
80.6880565479
 20
-23.8941344557
 10
80.6624287619
 20
-23.9739062334
 10
80.634859516
 20
-24.0543744021
 10
80.6046641758
 20
-24.1353131117
 10
80.5714937222
 20
-24.2166806908
 10
80.5356076791
 20
-24.2981732044
 10
80.497356847
 20
-24.3790007629
 10
80.4567248591
 20
-24.4591676884
 10
80.4137353137
 20
-24.5385264332
 10
80.3689173267
 20
-24.6161462841
 10
80.3223452485
 20
-24.6919818067
 10
80.2741059393
 20
-24.7659929944
 10
80.2248781682
 20
-24.8373402294
 10
80.1748494701
 20
-24.9059668041
 10
80.124103081
 20
-24.97197375
 10
80.0732589215
 20
-25.034843011
 10
80.0225694963
 20
-25.0945342782
 10
79.9721108733
 20
-25.1512127451
 10
79.9222757386
 20
-25.2047306387
 10
79.8733096974
 20
-25.2550739457
 10
79.8252168207
 20
-25.3024840927
 10
79.7780278577
 20
-25.3472021312
 10
79.7320953853
 20
-25.3891154618
 10
79.6874276265
 20
-25.4283977054
 10
79.6434864346
 20
-25.465685546
 10
79.600091825
 20
-25.5011892257
 10
79.5570610999
 20
-25.5352110914
 10
79.5136322675
 20
-25.5685868885
 10
79.4699635361
 20
-25.6012300179
 10
79.426168889
 20
-25.6330373052
 10
79.3815154934
 20
-25.6646119557
 10
79.3359391104
 20
-25.6959952605
 10
79.2894481366
 20
-25.7270989613
 10
79.2412826204
 20
-25.7583251541
 10
79.1916350657
 20
-25.7896273795
 10
79.141093055
 20
-25.8204464968
 10
79.089723135
 20
-25.8502315422
 10
79.0373392205
 20
-25.8788096379
 10
78.9837006297
 20
-25.9065337901
 10
78.9284534716
 20
-25.9338277376
 10
78.8714601573
 20
-25.960805987
 10
78.8126629361
 20
-25.9873062179
 10
78.7519492079
 20
-26.0132388603
 10
78.6893306774
 20
-26.0384857988
 10
78.6248743055
 20
-26.0629374071
 10
78.5585363509
 20
-26.0865104121
 10
78.490031506
 20
-26.1091285487
 10
78.4196385662
 20
-26.1306765942
 10
78.3481642835
 20
-26.1510583347
 10
78.2756263152
 20
-26.1700239391
 10
78.2014261375
 20
-26.1878572158
  0
LINE
  5
3C2
100
AcDbEntity
  8
SCRITTA_VIMAR
100
AcDbLine
 62
250
  6
CONTINUOUS
 10
73.1327082862
 20
-29.0076287749
 11
73.6742752862
 21
-27.1189607749
  0
LINE
  5
3C3
100
AcDbEntity
  8
SCRITTA_VIMAR
100
AcDbLine
 62
250
  6
CONTINUOUS
 10
73.9710832862
 20
-28.1066497749
 11
73.4227082862
 21
-30.0190837749
  0
LINE
  5
3C4
100
AcDbEntity
  8
SCRITTA_VIMAR
100
AcDbLine
 62
250
  6
CONTINUOUS
 10
74.9377912862
 20
-30.0190917749
 11
75.8689162862
 21
-27.1189537749
  0
LINE
  5
3C5
100
AcDbEntity
  8
SCRITTA_VIMAR
100
AcDbLine
 62
250
  6
CONTINUOUS
 10
76.1589372862
 20
-28.0221947749
 11
75.8778482862
 21
-28.8977337749
  0
LINE
  5
3C6
100
AcDbEntity
  8
SCRITTA_VIMAR
100
AcDbLine
 62
250
  6
CONTINUOUS
 10
75.7009262862
 20
-29.4487557749
 11
75.5178132862
 21
-30.0190837749
  0
LINE
  5
3C7
100
AcDbEntity
  8
RACCORDO
100
AcDbLine
 62
250
  6
CONTINUOUS
 10
100.7535585024
 20
35.7371755933
 11
100.7605878437
 21
35.5798930966
  0
LWPOLYLINE
  5
3C8
100
AcDbEntity
  8
RACCORDO
100
AcDbPolyline
 62
250
  6
CONTINUOUS
 90
5
 70
0
 10
100.7605878437
 20
35.5798930966
 10
100.7645588842
 20
35.475250153
 10
100.7659733453
 20
35.4224714472
 10
100.7666291085
 20
35.368899972
 10
100.7670299366
 20
35.2578081873
  0
LINE
  5
3C9
100
AcDbEntity
  8
RACCORDO
100
AcDbLine
 62
250
  6
CONTINUOUS
 10
100.74744596
 20
35.8987600327
 11
100.7535585024
 21
35.7371755933
  0
LINE
  5
3CA
100
AcDbEntity
  8
RACCORDO
100
AcDbLine
 62
250
  6
CONTINUOUS
 10
100.7417586797
 20
36.0711132617
 11
100.74744596
 21
35.8987600327
  0
LINE
  5
3CB
100
AcDbEntity
  8
RACCORDO
100
AcDbLine
 62
250
  6
CONTINUOUS
 10
100.7363166399
 20
36.2605048308
 11
100.7417586797
 21
36.0711132617
  0
LINE
  5
3CC
100
AcDbEntity
  8
RACCORDO
100
AcDbLine
 62
250
  6
CONTINUOUS
 10
100.7685801552
 20
35.07578192
 11
100.769150736
 21
35.0101043557
  0
LWPOLYLINE
  5
3CD
100
AcDbEntity
  8
RACCORDO
100
AcDbPolyline
 62
250
  6
CONTINUOUS
 90
4
 70
0
 10
100.769150736
 20
35.0101043557
 10
100.7709812463
 20
34.7979374776
 10
100.7716200129
 20
34.7221002515
 10
100.8019690197
 20
31.2513994264
  0
LINE
  5
3CE
100
AcDbEntity
  8
RACCORDO
100
AcDbLine
 62
250
  6
CONTINUOUS
 10
100.7670299366
 20
35.2578081873
 11
100.7685801552
 21
35.07578192
  0
LINE
  5
3CF
100
AcDbEntity
  8
RACCORDO
100
AcDbLine
 62
250
  6
CONTINUOUS
 10
100.8019690197
 20
31.2513994264
 11
100.8139579297
 21
29.7983501096
  0
LINE
  5
3D0
100
AcDbEntity
  8
RACCORDO
100
AcDbLine
 62
250
  6
CONTINUOUS
 10
100.8139579297
 20
29.7983501096
 11
100.8238252076
 21
28.4976327258
  0
LINE
  5
3D1
100
AcDbEntity
  8
RACCORDO
100
AcDbLine
 62
250
  6
CONTINUOUS
 10
100.8238252076
 20
28.4976327258
 11
100.8323305538
 21
27.251811524
  0
LINE
  5
3D2
100
AcDbEntity
  8
RACCORDO
100
AcDbLine
 62
250
  6
CONTINUOUS
 10
100.8323305538
 20
27.251811524
 11
100.8390997842
 21
26.1344887051
  0
LINE
  5
3D3
100
AcDbEntity
  8
RACCORDO
100
AcDbLine
 62
250
  6
CONTINUOUS
 10
100.8390997842
 20
26.1344887051
 11
100.8456928909
 21
24.8980348754
  0
LINE
  5
3D4
100
AcDbEntity
  8
RACCORDO
100
AcDbLine
 62
250
  6
CONTINUOUS
 10
100.8456928909
 20
24.8980348754
 11
100.8520413489
 21
23.5295013322
  0
LINE
  5
3D5
100
AcDbEntity
  8
RACCORDO
100
AcDbLine
 62
250
  6
CONTINUOUS
 10
100.8520413489
 20
23.5295013322
 11
100.8582284414
 21
22.0146056953
  0
LINE
  5
3D6
100
AcDbEntity
  8
RACCORDO
100
AcDbLine
 62
250
  6
CONTINUOUS
 10
100.8582284414
 20
22.0146056953
 11
100.8640954297
 21
20.3372501638
  0
LINE
  5
3D7
100
AcDbEntity
  8
RACCORDO
100
AcDbLine
 62
250
  6
CONTINUOUS
 10
100.8640954297
 20
20.3372501638
 11
100.8680924783
 21
18.9615514736
  0
LINE
  5
3D8
100
AcDbEntity
  8
RACCORDO
100
AcDbLine
 62
250
  6
CONTINUOUS
 10
100.8680924783
 20
18.9615514736
 11
100.8716119394
 21
17.4759356564
  0
LINE
  5
3D9
100
AcDbEntity
  8
RACCORDO
100
AcDbLine
 62
250
  6
CONTINUOUS
 10
100.8716119394
 20
17.4759356564
 11
100.8745262823
 21
15.8714718631
  0
LINE
  5
3DA
100
AcDbEntity
  8
RACCORDO
100
AcDbLine
 62
250
  6
CONTINUOUS
 10
101.6315567251
 20
-37.2061788367
 11
101.6316559674
 21
-37.2671748519
  0
LINE
  5
3DB
100
AcDbEntity
  8
RACCORDO
100
AcDbLine
 62
250
  6
CONTINUOUS
 10
101.6313784591
 20
-37.089314927
 11
101.6315567251
 21
-37.2061788367
  0
LWPOLYLINE
  5
3DC
100
AcDbEntity
  8
RACCORDO
100
AcDbPolyline
 62
250
  6
CONTINUOUS
 90
3
 70
0
 10
101.6311616066
 20
-36.9268393649
 10
101.6312279556
 20
-36.9796874841
 10
101.6313784591
 20
-37.089314927
  0
LINE
  5
3DD
100
AcDbEntity
  8
RACCORDO
100
AcDbLine
 62
250
  6
CONTINUOUS
 10
100.8745262823
 20
15.8714718631
 11
100.8767169389
 21
14.1386185184
  0
LINE
  5
3DE
100
AcDbEntity
  8
RACCORDO
100
AcDbLine
 62
250
  6
CONTINUOUS
 10
101.6310451413
 20
-36.8244285365
 11
101.6311616066
 21
-36.9268393649
  0
LINE
  5
3DF
100
AcDbEntity
  8
RACCORDO
100
AcDbLine
 62
250
  6
CONTINUOUS
 10
101.6309486849
 20
-36.7249468619
 11
101.6310451413
 21
-36.8244285365
  0
LINE
  5
3E0
100
AcDbEntity
  8
RACCORDO
100
AcDbLine
 62
250
  6
CONTINUOUS
 10
100.8767169389
 20
14.1386185184
 11
100.8780966702
 21
12.2672466299
  0
LINE
  5
3E1
100
AcDbEntity
  8
RACCORDO
100
AcDbLine
 62
250
  6
CONTINUOUS
 10
101.6308408404
 20
-36.5780557811
 11
101.6309486849
 21
-36.7249468619
  0
LINE
  5
3E2
100
AcDbEntity
  8
RACCORDO
100
AcDbLine
 62
250
  6
CONTINUOUS
 10
100.875821384
 20
0.4413758406
 11
100.878359844
 21
-9.0629606734
  0
LINE
  5
3E3
100
AcDbEntity
  8
RACCORDO
100
AcDbLine
 62
250
  6
CONTINUOUS
 10
100.878359844
 20
-9.0629606734
 11
100.878634782
 21
-11.2179011028
  0
LINE
  5
3E4
100
AcDbEntity
  8
RACCORDO
100
AcDbLine
 62
250
  6
CONTINUOUS
 10
100.8780966702
 20
12.2672466299
 11
100.8786310673
 21
10.2467198633
  0
LWPOLYLINE
  5
3E5
100
AcDbEntity
  8
RACCORDO
100
AcDbPolyline
 62
250
  6
CONTINUOUS
 90
3
 70
0
 10
101.6250937574
 20
-5.0736066472
 10
101.6250533123
 20
-6.732943391
 10
101.6308408404
 20
-36.5780557811
  0
LINE
  5
3E6
100
AcDbEntity
  8
RACCORDO
100
AcDbLine
 62
7
  6
CONTINUOUS
 10
101.7042420587
 20
2.2809232251
 11
101.7042420587
 21
-3.3190767749
  0
LINE
  5
3E7
100
AcDbEntity
  8
DRAFT
100
AcDbLine
 62
7
  6
CONTINUOUS
 10
101.7876692862
 20
4.6071518926
 11
101.7876692862
 21
3.4809232251
  0
LINE
  5
3E8
100
AcDbEntity
  8
DRAFT
100
AcDbLine
 62
7
  6
CONTINUOUS
 10
101.7876692862
 20
-4.5190767749
 11
101.7876692862
 21
-5.6453866294
  0
LINE
  5
3E9
100
AcDbEntity
  8
RACCORDO
100
AcDbLine
 62
7
  6
CONTINUOUS
 10
101.8876692862
 20
-37.5231881707
 11
101.8876692862
 21
-5.8190767749
  0
LINE
  5
3EA
100
AcDbEntity
  8
RACCORDO
100
AcDbLine
 62
7
  6
CONTINUOUS
 10
101.8876692862
 20
4.7809232251
 11
101.8876692862
 21
36.4850346208
  0
LINE
  5
3EB
100
AcDbEntity
  8
RACCORDO
100
AcDbLine
 62
250
  6
CONTINUOUS
 10
101.6251978197
 20
16.4182697676
 11
101.6250937574
 21
-5.0736066472
  0
LINE
  5
3EC
100
AcDbEntity
  8
RACCORDO
100
AcDbLine
 62
250
  6
CONTINUOUS
 10
100.8786310673
 20
10.2467198633
 11
100.8783707988
 21
8.0662056758
  0
LINE
  5
3ED
100
AcDbEntity
  8
RACCORDO
100
AcDbLine
 62
250
  6
CONTINUOUS
 10
101.626317724
 20
23.525287768
 11
101.6251978197
 21
16.4182697676
  0
LINE
  5
3EE
100
AcDbEntity
  8
RACCORDO
100
AcDbLine
 62
250
  6
CONTINUOUS
 10
100.8783707988
 20
8.0662056758
 11
100.875821384
 21
0.4413758406
  0
LINE
  5
3EF
100
AcDbEntity
  8
RACCORDO
100
AcDbLine
 62
250
  6
CONTINUOUS
 10
100.878634782
 20
-11.2179011028
 11
100.878141988
 21
-13.2116067589
  0
LINE
  5
3F0
100
AcDbEntity
  8
RACCORDO
100
AcDbLine
 62
250
  6
CONTINUOUS
 10
100.878141988
 20
-13.2116067589
 11
100.8768344001
 21
-15.057049467
  0
LINE
  5
3F1
100
AcDbEntity
  8
RACCORDO
100
AcDbLine
 62
250
  6
CONTINUOUS
 10
100.8768344001
 20
-15.057049467
 11
100.8747443186
 21
-16.766007718
  0
LINE
  5
3F2
100
AcDbEntity
  8
RACCORDO
100
AcDbLine
 62
250
  6
CONTINUOUS
 10
101.6316559674
 20
36.229021302
 11
101.626317724
 21
23.525287768
  0
LINE
  5
3F3
100
AcDbEntity
  8
RACCORDO
100
AcDbLine
 62
250
  6
CONTINUOUS
 10
100.8747443186
 20
-16.766007718
 11
100.871952948
 21
-18.3492049233
  0
LWPOLYLINE
  5
3F4
100
AcDbEntity
  8
RACCORDO
100
AcDbPolyline
 62
250
  6
CONTINUOUS
 90
3
 70
0
 10
100.871952948
 20
-18.3492049233
 10
100.8685707086
 20
-19.8164223447
 10
100.8673300682
 20
-20.2810841949
  0
LINE
  5
3F5
100
AcDbEntity
  8
RACCORDO
100
AcDbLine
 62
250
  6
CONTINUOUS
 10
100.8673300682
 20
-20.2810841949
 11
100.8619426016
 21
-22.0278710809
  0
LWPOLYLINE
  5
3F6
100
AcDbEntity
  8
RACCORDO
100
AcDbPolyline
 62
250
  6
CONTINUOUS
 90
3
 70
0
 10
100.8619426016
 20
-22.0278710809
 10
100.8560592564
 20
-23.6078204542
 10
100.8545436228
 20
-23.9785371625
  0
LINE
  5
3F7
100
AcDbEntity
  8
RACCORDO
100
AcDbLine
 62
250
  6
CONTINUOUS
 10
100.8545436228
 20
-23.9785371625
 11
100.8468514703
 21
-25.7005043478
  0
LINE
  5
3F8
100
AcDbEntity
  8
RACCORDO
100
AcDbLine
 62
250
  6
CONTINUOUS
 10
100.8468514703
 20
-25.7005043478
 11
100.8404539679
 21
-26.9318369031
  0
LINE
  5
3F9
100
AcDbEntity
  8
RACCORDO
100
AcDbLine
 62
250
  6
CONTINUOUS
 10
100.8404539679
 20
-26.9318369031
 11
100.8338733449
 21
-28.0469710451
  0
LINE
  5
3FA
100
AcDbEntity
  8
RACCORDO
100
AcDbLine
 62
250
  6
CONTINUOUS
 10
100.8338733449
 20
-28.0469710451
 11
100.8288763542
 21
-28.8134697763
  0
LINE
  5
3FB
100
AcDbEntity
  8
RACCORDO
100
AcDbLine
 62
250
  6
CONTINUOUS
 10
100.8288763542
 20
-28.8134697763
 11
100.8206331769
 21
-29.9704964383
  0
LINE
  5
3FC
100
AcDbEntity
  8
RACCORDO
100
AcDbLine
 62
250
  6
CONTINUOUS
 10
100.7672273685
 20
-36.2737081346
 11
100.7663798505
 21
-36.4356524568
  0
LINE
  5
3FD
100
AcDbEntity
  8
RACCORDO
100
AcDbLine
 62
250
  6
CONTINUOUS
 10
100.8206331769
 20
-29.9704964383
 11
100.8158279072
 21
-30.5990355857
  0
LINE
  5
3FE
100
AcDbEntity
  8
RACCORDO
100
AcDbLine
 62
250
  6
CONTINUOUS
 10
100.8158279072
 20
-30.5990355857
 11
100.8127114845
 21
-30.9930364511
  0
LINE
  5
3FF
100
AcDbEntity
  8
RACCORDO
100
AcDbLine
 62
250
  6
CONTINUOUS
 10
100.8127114845
 20
-30.9930364511
 11
100.8096753934
 21
-31.367905423
  0
LWPOLYLINE
  5
400
100
AcDbEntity
  8
RACCORDO
100
AcDbPolyline
 62
250
  6
CONTINUOUS
 90
3
 70
0
 10
100.8096753934
 20
-31.367905423
 10
100.8067310992
 20
-31.7245336443
 10
100.8052956524
 20
-31.8962833954
  0
LINE
  5
401
100
AcDbEntity
  8
RACCORDO
100
AcDbLine
 62
250
  6
CONTINUOUS
 10
100.7717262247
 20
-35.7472985116
 11
100.7704957653
 21
-35.8933486751
  0
LWPOLYLINE
  5
402
100
AcDbEntity
  8
RACCORDO
100
AcDbPolyline
 62
250
  6
CONTINUOUS
 90
3
 70
0
 10
100.8052956524
 20
-31.8962833954
 10
100.8025015332
 20
-32.2269229697
 10
100.8011436573
 20
-32.38611832
  0
LWPOLYLINE
  5
403
100
AcDbEntity
  8
RACCORDO
100
AcDbPolyline
 62
250
  6
CONTINUOUS
 90
3
 70
0
 10
100.7704957653
 20
-35.8933486751
 10
100.7693149559
 20
-36.0297790939
 10
100.7672273685
 20
-36.2737081346
  0
LINE
  5
404
100
AcDbEntity
  8
RACCORDO
100
AcDbLine
 62
250
  6
CONTINUOUS
 10
100.8011436573
 20
-32.38611832
 11
100.7717262247
 21
-35.7472985116
  0
LWPOLYLINE
  5
405
100
AcDbEntity
  8
RACCORDO
100
AcDbPolyline
 62
250
  6
CONTINUOUS
 90
3
 70
0
 10
100.7663798505
 20
-36.4356524568
 10
100.76563408
 20
-36.4874377463
 10
100.7639750508
 20
-36.5385806412
  0
LINE
  5
406
100
AcDbEntity
  8
RACCORDO
100
AcDbLine
 62
250
  6
CONTINUOUS
 10
100.7433208134
 20
-37.0594961196
 11
100.7363166553
 21
-37.2986583854
  0
LINE
  5
407
100
AcDbEntity
  8
RACCORDO
100
AcDbLine
 62
250
  6
CONTINUOUS
 10
100.7488921375
 20
-36.8964987431
 11
100.7433208134
 21
-37.0594961196
  0
LINE
  5
408
100
AcDbEntity
  8
RACCORDO
100
AcDbLine
 62
250
  6
CONTINUOUS
 10
100.7528650343
 20
-36.7926818534
 11
100.7488921375
 21
-36.8964987431
  0
LWPOLYLINE
  5
409
100
AcDbEntity
  8
RACCORDO
100
AcDbPolyline
 62
250
  6
CONTINUOUS
 90
19
 70
0
 10
101.6316559674
 20
-37.2671748519
 10
101.6220573458
 20
-37.5077226978
 10
101.5922286146
 20
-37.752655451
 10
101.5408937028
 20
-38.0001419309
 10
101.4662643304
 20
-38.2500297949
 10
101.3677218717
 20
-38.497989542
 10
101.2475125442
 20
-38.7361819621
 10
101.1077445818
 20
-38.9610190393
 10
100.948657966
 20
-39.1726315041
 10
100.7713972557
 20
-39.3694622794
 10
100.577218177
 20
-39.5500319772
 10
100.3676901636
 20
-39.7128022962
 10
100.1446426562
 20
-39.8563423247
 10
99.9095810153
 20
-39.9796665026
 10
99.664580113
 20
-40.0816707655
 10
99.4126049186
 20
-40.1613000596
 10
99.1560524007
 20
-40.2181654033
 10
98.8966131663
 20
-40.2522487375
 10
98.6362929839
 20
-40.2635890769
  0
LINE
  5
40A
100
AcDbEntity
  8
RACCORDO
100
AcDbLine
 62
250
  6
CONTINUOUS
 10
100.7639750508
 20
-36.5385806412
 11
100.7528650343
 21
-36.7926818534
  0
LWPOLYLINE
  5
40B
100
AcDbEntity
  8
RACCORDO
100
AcDbPolyline
 62
250
  6
CONTINUOUS
 90
19
 70
0
 10
100.7363158361
 20
-37.2986581358
 10
100.725443988
 20
-37.4628864898
 10
100.7010219298
 20
-37.6301108183
 10
100.6621897832
 20
-37.7990064664
 10
100.6078179413
 20
-37.9695067651
 10
100.5375525313
 20
-38.1387113965
 10
100.4529067926
 20
-38.3013110649
 10
100.3553303048
 20
-38.4549269439
 10
100.2449874359
 20
-38.5997164562
 10
100.1225697786
 20
-38.7346295937
 10
99.9888427333
 20
-38.8586597684
 10
99.8449067801
 20
-38.9708727408
 10
99.6919764461
 20
-39.0703487021
 10
99.5309877026
 20
-39.1563784465
 10
99.3632956129
 20
-39.2282701998
 10
99.1908580253
 20
-39.2853890647
 10
99.0152066127
 20
-39.3274385789
 10
98.8374447194
 20
-39.3543599556
 10
98.6590785162
 20
-39.3662640573
  0
LWPOLYLINE
  5
40C
100
AcDbEntity
  8
RACCORDO
100
AcDbPolyline
 62
250
  6
CONTINUOUS
 90
10
 70
0
 10
98.6362929839
 20
-40.2635890768
 10
98.6399100994
 20
-40.2430359382
 10
98.6434376221
 20
-40.1982881622
 10
98.6467881984
 20
-40.130452672
 10
98.6498788533
 20
-40.0412075103
 10
98.6526330405
 20
-39.9327603295
 10
98.6549825358
 20
-39.8077937814
 10
98.6568691282
 20
-39.6693991562
 10
98.6582460594
 20
-39.5209999137
 10
98.6590791782
 20
-39.3662669973
  0
LWPOLYLINE
  5
40D
100
AcDbEntity
  8
RACCORDO
100
AcDbPolyline
 62
250
  6
CONTINUOUS
 90
10
 70
0
 10
98.6362929639
 20
39.2253134661
 10
98.6399079236
 20
39.2047622837
 10
98.6434334437
 20
39.1600204896
 10
98.6467823322
 20
39.0921947111
 10
98.6498717717
 20
39.0029625262
 10
98.6526253754
 20
38.8945309717
 10
98.6549750786
 20
38.7695819559
 10
98.6568628168
 20
38.6312059233
 10
98.6582419647
 20
38.4828254172
 10
98.6590784954
 20
38.3281104277
  0
LINE
  5
40E
100
AcDbEntity
  8
RACCORDO
100
AcDbLine
 62
7
  6
CONTINUOUS
 10
-114.8342432042
 20
-40.5190767749
 11
-119.9396311392
 21
-40.251500262
  0
LWPOLYLINE
  5
40F
100
AcDbEntity
  8
RACCORDO
100
AcDbPolyline
 62
250
  6
CONTINUOUS
 90
10
 70
0
 10
-119.7092388924
 20
-40.2635890768
 10
-119.8651282189
 20
-40.2430359382
 10
-120.0158670245
 20
-40.1982881622
 10
-120.1577264943
 20
-40.130452672
 10
-120.2871974609
 20
-40.0412075103
 10
-120.4010772107
 20
-39.9327603295
 10
-120.4965487091
 20
-39.8077937814
 10
-120.5712502856
 20
-39.6693991562
 10
-120.6233340538
 20
-39.5209999137
 10
-120.6515116227
 20
-39.3662669973
  0
LWPOLYLINE
  5
410
100
AcDbEntity
  8
RACCORDO
100
AcDbPolyline
 62
7
  6
CONTINUOUS
 90
3
 70
0
 10
-120.1557956489
 20
-40.2149212878
 10
-120.0421799507
 20
-40.2402366643
 10
-119.9342097008
 20
-40.2517988564
  0
LWPOLYLINE
  5
411
100
AcDbEntity
  8
0
100
AcDbPolyline
 62
7
  6
CONTINUOUS
 90
10
 70
0
 43
0.3500000006
 10
-122.2628126221
 20
49.2690757141
 10
-121.4056746826
 20
50.1262181854
 10
-121.1913901978
 20
50.9833606567
 10
-121.1913901978
 20
51.8405031281
 10
-121.6199591675
 20
52.2690766296
 10
-122.2628126221
 20
52.2690766296
 10
-122.6913815918
 20
51.8405031281
 10
-122.6913815918
 20
50.9833606567
 10
-122.2628126221
 20
50.554791687
 10
-121.3342434998
 20
50.554791687
  0
LINE
  5
412
100
AcDbEntity
  8
RACCORDO
100
AcDbLine
 62
250
  6
CONTINUOUS
 10
-120.5804076072
 20
-37.2955841677
 11
-120.6610773379
 21
-37.2986581358
  0
LINE
  5
413
100
AcDbEntity
  8
RACCORDO
100
AcDbLine
 62
250
  6
CONTINUOUS
 10
-119.7192641391
 20
-37.2671748488
 11
-120.5804076072
 21
-37.2955841677
  0
LINE
  5
414
100
AcDbEntity
  8
RACCORDO
100
AcDbLine
 62
250
  6
CONTINUOUS
 10
-119.7192683332
 20
-37.2671748519
 11
-114.8342432042
 21
-37.5231881707
  0
LINE
  5
415
100
AcDbEntity
  8
SCRITTA_VIMAR
100
AcDbLine
 62
250
  6
CONTINUOUS
 10
-123.1462804337
 20
-30.0190917749
 11
-123.1467791052
 21
-30.0190987749
  0
LINE
  5
416
100
AcDbEntity
  8
SCRITTA_VIMAR
100
AcDbLine
 62
250
  6
CONTINUOUS
 10
-123.1418541412
 20
-30.0190837749
 11
-123.1434902669
 21
-30.0190917749
  0
LINE
  5
417
100
AcDbEntity
  8
SCRITTA_VIMAR
100
AcDbLine
 62
250
  6
CONTINUOUS
 10
-123.1292175049
 20
-30.0190837749
 11
-123.1341612466
 21
-30.0190917749
  0
LINE
  5
418
100
AcDbEntity
  8
SCRITTA_VIMAR
100
AcDbLine
 62
250
  6
CONTINUOUS
 10
-123.0037922312
 20
-30.0190767749
 11
-123.035780802
 21
-30.0190837749
  0
LINE
  5
419
100
AcDbEntity
  8
SCRITTA_VIMAR
100
AcDbLine
 62
250
  6
CONTINUOUS
 10
-123.1446351332
 20
-30.0190917749
 11
-123.1455695768
 21
-30.0190917749
  0
LINE
  5
41A
100
AcDbEntity
  8
SCRITTA_VIMAR
100
AcDbLine
 62
250
  6
CONTINUOUS
 10
-123.136742798
 20
-30.0190917749
 11
-123.1397516919
 21
-30.0190917749
  0
LINE
  5
41B
100
AcDbEntity
  8
SCRITTA_VIMAR
100
AcDbLine
 62
250
  6
CONTINUOUS
 10
-123.0761500607
 20
-30.0190837749
 11
-123.0922071109
 21
-30.0190837749
  0
LINE
  5
41C
100
AcDbEntity
  8
SCRITTA_VIMAR
100
AcDbLine
 62
250
  6
CONTINUOUS
 10
-123.1011546413
 20
-30.0190917749
 11
-123.1123079421
 21
-30.0190837749
  0
LINE
  5
41D
100
AcDbEntity
  8
SCRITTA_VIMAR
100
AcDbLine
 62
250
  6
CONTINUOUS
 10
-123.1985305075
 20
-29.4487557749
 11
-123.2089904915
 21
-29.4487557749
  0
LINE
  5
41E
100
AcDbEntity
  8
SCRITTA_VIMAR
100
AcDbLine
 62
250
  6
CONTINUOUS
 10
-123.2803213594
 20
-28.8977337749
 11
-123.2748324229
 21
-28.8977337749
  0
LINE
  5
41F
100
AcDbEntity
  8
SCRITTA_VIMAR
100
AcDbLine
 62
250
  6
CONTINUOUS
 10
-123.311646178
 20
-28.3612047749
 11
-123.2925306339
 21
-28.3612047749
  0
LINE
  5
420
100
AcDbEntity
  8
SCRITTA_VIMAR
100
AcDbLine
 62
250
  6
CONTINUOUS
 10
-123.3800439765
 20
-27.6554747749
 11
-123.3960692592
 21
-27.6554747749
  0
LINE
  5
421
100
AcDbEntity
  8
SCRITTA_VIMAR
100
AcDbLine
 62
250
  6
CONTINUOUS
 10
-123.4779885821
 20
-27.1189607749
 11
-123.4774425291
 21
-27.1189607749
  0
LINE
  5
422
100
AcDbEntity
  8
SCRITTA_VIMAR
100
AcDbLine
 62
250
  6
CONTINUOUS
 10
-123.4744480193
 20
-27.1189537749
 11
-123.4718717724
 21
-27.1189537749
  0
LINE
  5
423
100
AcDbEntity
  8
SCRITTA_VIMAR
100
AcDbLine
 62
250
  6
CONTINUOUS
 10
-123.4614113943
 20
-27.1189537749
 11
-123.438936137
 21
-27.1189537749
  0
LINE
  5
424
100
AcDbEntity
  8
SCRITTA_VIMAR
100
AcDbLine
 62
250
  6
CONTINUOUS
 10
-123.2265070017
 20
-28.8977337749
 11
-123.2410564523
 21
-28.8977267749
  0
LWPOLYLINE
  5
425
100
AcDbEntity
  8
SCRITTA_VIMAR
100
AcDbPolyline
 62
250
  6
CONTINUOUS
 90
14
 70
0
 10
-123.438936137
 20
-27.1189537749
 10
-123.4383496792
 20
-27.11927813
 10
-123.4376789489
 20
-27.12016973
 10
-123.4369286547
 20
-27.1216404412
 10
-123.435659593
 20
-27.1249610774
 10
-123.4342095741
 20
-27.1296681307
 10
-123.4325678291
 20
-27.1358159954
 10
-123.4307306407
 20
-27.1434497717
 10
-123.4293954082
 20
-27.1493897881
 10
-123.4279664917
 20
-27.1560471045
 10
-123.4264379397
 20
-27.1634596036
 10
-123.4248042082
 20
-27.171664405
 10
-123.423061383
 20
-27.1806955743
 10
-123.4212059579
 20
-27.1905864136
  0
LWPOLYLINE
  5
426
100
AcDbEntity
  8
RACCORDO
100
AcDbPolyline
 62
250
  6
CONTINUOUS
 90
5
 70
0
 10
-123.6958126604
 20
-22.8091460579
 10
-123.6424497462
 20
-22.8072551424
 10
-123.601510789
 20
-22.8054152358
 10
-123.5731704709
 20
-22.8036342119
 10
-123.5575497165
 20
-22.8019196912
  0
LINE
  5
427
100
AcDbEntity
  8
RACCORDO
100
AcDbLine
 62
250
  6
CONTINUOUS
 10
-123.8388475467
 20
-22.8130483575
 11
-123.6958126604
 21
-22.8091460579
  0
LWPOLYLINE
  5
428
100
AcDbEntity
  8
RACCORDO
100
AcDbPolyline
 62
250
  6
CONTINUOUS
 90
3
 70
0
 10
-124.1392224949
 20
-22.819076775
 10
-124.028176798
 20
-22.8170553809
 10
-123.8388475467
 20
-22.8130483575
  0
LINE
  5
429
100
AcDbEntity
  8
RACCORDO
100
AcDbLine
 62
250
  6
CONTINUOUS
 10
-124.3342432042
 20
-22.8190767749
 11
-124.1392237811
 21
-22.8190767749
  0
LINE
  5
42A
100
AcDbEntity
  8
RACCORDO
100
AcDbLine
 62
7
  6
CONTINUOUS
 10
-124.0152893444
 20
23.8512492611
 11
-124.1316597891
 21
23.6843711562
  0
LWPOLYLINE
  5
42B
100
AcDbEntity
  8
RACCORDO
100
AcDbPolyline
 62
7
  6
CONTINUOUS
 90
4
 70
0
 10
-124.132447313
 20
23.6833208351
 10
-124.0225073905
 20
23.8390499433
 10
-123.9226808158
 20
24.0014476684
 10
-123.9090272042
 20
24.0255867148
  0
LWPOLYLINE
  5
42C
100
AcDbEntity
  8
RACCORDO
100
AcDbPolyline
 62
7
  6
CONTINUOUS
 90
3
 70
0
 10
-124.13243994
 20
-24.7214688207
 10
-124.0225014709
 20
-24.8771997493
 10
-123.9179516543
 20
-25.0478928371
  0
LINE
  5
42D
100
AcDbEntity
  8
RACCORDO
100
AcDbLine
 62
7
  6
CONTINUOUS
 10
-124.0414942243
 20
-24.8496625256
 11
-123.9570623595
 21
-24.9829706097
  0
LWPOLYLINE
  5
42E
100
AcDbEntity
  8
RACCORDO
100
AcDbPolyline
 62
7
  6
CONTINUOUS
 90
3
 70
0
 10
-123.9570623595
 20
-24.9829706097
 10
-123.8787877523
 20
-25.12237024
 10
-123.8076048186
 20
-25.2667092894
  0
LINE
  5
42F
100
AcDbEntity
  8
RACCORDO
100
AcDbLine
 62
250
  6
CONTINUOUS
 10
-120.8237413301
 20
-39.5891343854
 11
-120.8237876743
 21
-39.5890402675
  0
LWPOLYLINE
  5
430
100
AcDbEntity
  8
RACCORDO
100
AcDbPolyline
 62
7
  6
CONTINUOUS
 90
10
 70
0
 10
-120.8128523506
 20
-39.6182581243
 10
-120.7583414635
 20
-39.7346406445
 10
-120.6892156093
 20
-39.8432613032
 10
-120.6069508019
 20
-39.9418431822
 10
-120.5130048006
 20
-40.0288502358
 10
-120.4090120241
 20
-40.1029524012
 10
-120.2972928388
 20
-40.1628020506
 10
-120.1800035703
 20
-40.2076964053
 10
-120.0589521195
 20
-40.237367057
 10
-119.9361036
 20
-40.2516980581
  0
LWPOLYLINE
  5
431
100
AcDbEntity
  8
RACCORDO
100
AcDbPolyline
 62
7
  6
CONTINUOUS
 90
9
 70
0
 10
-120.82378373
 20
-39.5890351013
 10
-120.7758303551
 20
-39.7013230972
 10
-120.7161670679
 20
-39.8044903362
 10
-120.6447213613
 20
-39.8997477806
 10
-120.5626902978
 20
-39.9856234074
 10
-120.4713040328
 20
-40.0609886558
 10
-120.3719217398
 20
-40.1248648397
 10
-120.2662111394
 20
-40.1763620714
 10
-120.1557956489
 20
-40.2149212878
  0
LWPOLYLINE
  5
432
100
AcDbEntity
  8
0
100
AcDbPolyline
 62
7
  6
CONTINUOUS
 90
3
 70
0
 43
0.3500000006
 10
-119.6199585571
 20
49.5547913818
 10
-119.69138974
 20
49.340506897
 10
-119.834243042
 20
49.0547912292
  0
LINE
  5
433
100
AcDbEntity
  8
SUPERFICI
100
AcDbLine
 62
7
  6
CONTINUOUS
 10
-121.0917728367
 20
37.7758510158
 11
-121.1618906889
 21
37.5649143994
  0
LINE
  5
434
100
AcDbEntity
  8
SUPERFICI
100
AcDbLine
 62
7
  6
CONTINUOUS
 10
-121.0247109119
 20
37.9743307978
 11
-121.092743845
 21
37.7729539987
  0
LINE
  5
435
100
AcDbEntity
  8
SUPERFICI
100
AcDbLine
 62
7
  6
CONTINUOUS
 10
-120.981116091
 20
38.1016934951
 11
-121.0477356292
 21
37.9065388399
  0
LINE
  5
436
100
AcDbEntity
  8
SUPERFICI
100
AcDbLine
 62
7
  6
CONTINUOUS
 10
-120.9384218329
 20
38.2251852
 11
-121.0036128515
 21
38.0361303378
  0
LINE
  5
437
100
AcDbEntity
  8
SUPERFICI
100
AcDbLine
 62
7
  6
CONTINUOUS
 10
-120.8761003182
 20
38.4032937718
 11
-120.9391223428
 21
38.2231687725
  0
LINE
  5
438
100
AcDbEntity
  8
SUPERFICI
100
AcDbLine
 62
7
  6
CONTINUOUS
 10
-120.823786999
 20
38.5508707538
 11
-120.8972731489
 21
38.3430672178
  0
LWPOLYLINE
  5
439
100
AcDbEntity
  8
RACCORDO
100
AcDbPolyline
 62
7
  6
CONTINUOUS
 90
3
 70
0
 10
-123.8076042363
 20
24.2285570043
 10
-123.8787869548
 20
24.0842182029
 10
-123.9491317256
 20
23.9589406949
  0
LWPOLYLINE
  5
43A
100
AcDbEntity
  8
RACCORDO
100
AcDbPolyline
 62
250
  6
CONTINUOUS
 90
8
 70
0
 10
-123.9090272042
 20
24.0255867148
 10
-123.8333706901
 20
24.1698582456
 10
-123.7549376496
 20
24.3436016305
 10
-123.6876984083
 20
24.5219762444
 10
-123.6319244796
 20
24.704261808
 10
-123.5878410798
 20
24.8897222496
 10
-123.5556262186
 20
25.0776086773
 10
-123.5354099806
 20
25.2671624032
  0
LWPOLYLINE
  5
43B
100
AcDbEntity
  8
RACCORDO
100
AcDbPolyline
 62
250
  6
CONTINUOUS
 90
8
 70
0
 10
-123.9179516543
 20
-25.0478928371
 10
-123.833366741
 20
-25.2080106127
 10
-123.7549341801
 20
-25.3817547789
 10
-123.6876950613
 20
-25.5601298722
 10
-123.6319208868
 20
-25.7424156387
 10
-123.5878368652
 20
-25.9278760336
 10
-123.5556210015
 20
-26.1157621937
 10
-123.5354033792
 20
-26.3053154605
  0
LWPOLYLINE
  5
43C
100
AcDbEntity
  8
RACCORDO
100
AcDbPolyline
 62
7
  6
CONTINUOUS
 90
8
 70
0
 10
-123.8076048186
 20
-25.2667092894
 10
-123.7434996591
 20
-25.416588621
 10
-123.6860136361
 20
-25.5745779143
 10
-123.6357796628
 20
-25.7417910219
 10
-123.5943242671
 20
-25.9166493423
 10
-123.5628380498
 20
-26.0976901501
 10
-123.5422002347
 20
-26.2840100687
 10
-123.5396384794
 20
-26.3189289115
  0
LWPOLYLINE
  5
43D
100
AcDbEntity
  8
RACCORDO
100
AcDbPolyline
 62
7
  6
CONTINUOUS
 90
6
 70
0
 10
-123.8092808944
 20
-25.2630739599
 10
-123.7232632403
 20
-25.4691351845
 10
-123.6509433233
 20
-25.6874534001
 10
-123.5940692467
 20
-25.9178909114
 10
-123.5546657832
 20
-26.1596459453
 10
-123.5471417202
 20
-26.2393979248
  0
LINE
  5
43E
100
AcDbEntity
  8
RACCORDO
100
AcDbLine
 62
7
  6
CONTINUOUS
 10
-120.8237897716
 20
-39.589034386
 11
-120.8128523506
 21
-39.6182581243
  0
LINE
  5
43F
100
AcDbEntity
  8
SUPERFICI
100
AcDbLine
 62
7
  6
CONTINUOUS
 10
-120.8938506247
 20
-39.3909758314
 11
-120.8237869975
 21
-39.5890243081
  0
LINE
  5
440
100
AcDbEntity
  8
SUPERFICI
100
AcDbLine
 62
7
  6
CONTINUOUS
 10
-120.9353030862
 20
-39.2723121761
 11
-120.8740761376
 21
-39.4471900218
  0
LINE
  5
441
100
AcDbEntity
  8
SUPERFICI
100
AcDbLine
 62
7
  6
CONTINUOUS
 10
-120.9776630722
 20
-39.1498800668
 11
-120.9151461303
 21
-39.3301545906
  0
LINE
  5
442
100
AcDbEntity
  8
SUPERFICI
100
AcDbLine
 62
7
  6
CONTINUOUS
 10
-121.0209130128
 20
-39.023631465
 11
-120.9571291851
 21
-39.2093778547
  0
LINE
  5
443
100
AcDbEntity
  8
SUPERFICI
100
AcDbLine
 62
7
  6
CONTINUOUS
 10
-121.0650420523
 20
-38.893494817
 11
-121.0000126308
 21
-39.0847991854
  0
LINE
  5
444
100
AcDbEntity
  8
SUPERFICI
100
AcDbLine
 62
7
  6
CONTINUOUS
 10
-121.1100371437
 20
-38.7594004202
 11
-121.0437865907
 21
-38.9563456289
  0
LINE
  5
445
100
AcDbEntity
  8
SUPERFICI
100
AcDbLine
 62
7
  6
CONTINUOUS
 10
-121.1558772013
 20
-38.6212981309
 11
-121.0884322976
 21
-38.8239660079
  0
LINE
  5
446
100
AcDbEntity
  8
SUPERFICI
100
AcDbLine
 62
7
  6
CONTINUOUS
 10
-121.2025445173
 20
-38.4791233864
 11
-121.1339357312
 21
-38.6875909071
  0
LINE
  5
447
100
AcDbEntity
  8
SUPERFICI
100
AcDbLine
 62
7
  6
CONTINUOUS
 10
-121.2513250838
 20
-38.3287647005
 11
-121.1802803043
 21
-38.5471538648
  0
LINE
  5
448
100
AcDbEntity
  8
SUPERFICI
100
AcDbLine
 62
7
  6
CONTINUOUS
 10
-121.299695236
 20
-38.1778640368
 11
-121.2500217421
 21
-38.3328056378
  0
LINE
  5
449
100
AcDbEntity
  8
SUPERFICI
100
AcDbLine
 62
7
  6
CONTINUOUS
 10
-122.1499753122
 20
34.1263091059
 11
-122.2163604941
 21
33.8548229784
  0
LINE
  5
44A
100
AcDbEntity
  8
SUPERFICI
100
AcDbLine
 62
7
  6
CONTINUOUS
 10
-122.0870558857
 20
34.3777182775
 11
-122.1530266242
 21
34.1139737304
  0
LINE
  5
44B
100
AcDbEntity
  8
SUPERFICI
100
AcDbLine
 62
7
  6
CONTINUOUS
 10
-122.0246928473
 20
34.6215518498
 11
-122.0900061012
 21
34.3660534888
  0
LINE
  5
44C
100
AcDbEntity
  8
SUPERFICI
100
AcDbLine
 62
7
  6
CONTINUOUS
 10
-121.9630124709
 20
34.8577442181
 11
-122.0275322983
 21
34.6105616633
  0
LINE
  5
44D
100
AcDbEntity
  8
SUPERFICI
100
AcDbLine
 62
7
  6
CONTINUOUS
 10
-121.9022676502
 20
35.0857582179
 11
-121.9657267348
 21
34.8474510877
  0
LINE
  5
44E
100
AcDbEntity
  8
SUPERFICI
100
AcDbLine
 62
7
  6
CONTINUOUS
 10
-121.8426243969
 20
35.3054071275
 11
-121.9048481036
 21
35.076161978
  0
LINE
  5
44F
100
AcDbEntity
  8
SUPERFICI
100
AcDbLine
 62
7
  6
CONTINUOUS
 10
-121.7841683914
 20
35.5167972269
 11
-121.8450706449
 21
35.2964782701
  0
LINE
  5
450
100
AcDbEntity
  8
SUPERFICI
100
AcDbLine
 62
7
  6
CONTINUOUS
 10
-121.7268716789
 20
35.7204190564
 11
-121.7864838537
 21
35.5084950948
  0
LINE
  5
451
100
AcDbEntity
  8
SUPERFICI
100
AcDbLine
 62
7
  6
CONTINUOUS
 10
-121.6449951955
 20
36.0055307081
 11
-121.7290634308
 21
35.7126933385
  0
LINE
  5
452
100
AcDbEntity
  8
SUPERFICI
100
AcDbLine
 62
7
  6
CONTINUOUS
 10
-121.5883252911
 20
36.1990067527
 11
-121.6706655326
 21
35.9168638406
  0
LINE
  5
453
100
AcDbEntity
  8
SUPERFICI
100
AcDbLine
 62
7
  6
CONTINUOUS
 10
-121.5081684346
 20
36.4675327124
 11
-121.5902327011
 21
36.1925444888
  0
LINE
  5
454
100
AcDbEntity
  8
SUPERFICI
100
AcDbLine
 62
7
  6
CONTINUOUS
 10
-121.4301054722
 20
36.7235206328
 11
-121.5099182536
 21
36.461733201
  0
LINE
  5
455
100
AcDbEntity
  8
SUPERFICI
100
AcDbLine
 62
7
  6
CONTINUOUS
 10
-121.3792055434
 20
36.8876241832
 11
-121.4575471958
 21
36.6341366414
  0
LINE
  5
456
100
AcDbEntity
  8
SUPERFICI
100
AcDbLine
 62
7
  6
CONTINUOUS
 10
-121.3045073387
 20
37.1245979167
 11
-121.3807056334
 21
36.8828187375
  0
LINE
  5
457
100
AcDbEntity
  8
SUPERFICI
100
AcDbLine
 62
7
  6
CONTINUOUS
 10
-121.2557770913
 20
37.2767980948
 11
-121.3305978394
 21
37.0423394639
  0
LWPOLYLINE
  5
458
100
AcDbEntity
  8
SUPERFICI
100
AcDbPolyline
 62
7
  6
CONTINUOUS
 90
3
 70
0
 10
-121.1607952256
 20
37.5682373253
 10
-121.1842291582
 20
37.4969611231
 10
-121.2570457391
 20
37.272859119
  0
LINE
  5
459
100
AcDbEntity
  8
SUPERFICI
100
AcDbLine
 62
7
  6
CONTINUOUS
 10
-121.1618906889
 20
37.5649143994
 11
-121.2090510502
 21
37.4210185213
  0
LWPOLYLINE
  5
45A
100
AcDbEntity
  8
0
100
AcDbPolyline
 62
7
  6
CONTINUOUS
 90
13
 70
0
 43
0.3500000006
 10
-134.7985274963
 20
-2.4476478996
 10
-135.0128119812
 20
-2.7333624344
 10
-135.6556744995
 20
-2.7333624344
 10
-136.0842434692
 20
-2.4476478996
 10
-136.0842434692
 20
-1.8047910461
 10
-135.6556744995
 20
-1.5190765114
 10
-135.0128119812
 20
-1.5190765114
 10
-134.7985274963
 20
-1.8047910461
 10
-134.3699585266
 20
-1.3762198105
 10
-133.5128115234
 20
-1.3762198105
 10
-133.0842425537
 20
-1.8047910461
 10
-133.0842425537
 20
-2.4476478996
 10
-133.5128115234
 20
-2.8762191353
  0
LINE
  5
45B
100
AcDbEntity
  8
SUPERFICI
100
AcDbLine
 62
7
  6
CONTINUOUS
 10
-121.3738295967
 20
-37.9429839975
 11
-121.2983009284
 21
-38.1822394885
  0
LINE
  5
45C
100
AcDbEntity
  8
SUPERFICI
100
AcDbLine
 62
7
  6
CONTINUOUS
 10
-121.4499670024
 20
-37.6970453227
 11
-121.3722922204
 21
-37.9479001495
  0
LINE
  5
45D
100
AcDbEntity
  8
SUPERFICI
100
AcDbLine
 62
7
  6
CONTINUOUS
 10
-121.5282130916
 20
-37.4390866422
 11
-121.4482777029
 21
-37.7025554237
  0
LINE
  5
45E
100
AcDbEntity
  8
SUPERFICI
100
AcDbLine
 62
7
  6
CONTINUOUS
 10
-121.6086529322
 20
-37.1681136075
 11
-121.5263617975
 21
-37.4452528551
  0
LINE
  5
45F
100
AcDbEntity
  8
SUPERFICI
100
AcDbLine
 62
7
  6
CONTINUOUS
 10
-121.6913319807
 20
-36.8831584503
 11
-121.6066289432
 21
-37.1750060547
  0
LINE
  5
460
100
AcDbEntity
  8
SUPERFICI
100
AcDbLine
 62
7
  6
CONTINUOUS
 10
-121.7738831542
 20
-36.5917589732
 11
-121.6891266693
 21
-36.890846933
  0
LINE
  5
461
100
AcDbEntity
  8
SUPERFICI
100
AcDbLine
 62
7
  6
CONTINUOUS
 10
-121.8316364525
 20
-36.3835840314
 11
-121.7477049947
 21
-36.6849351702
  0
LINE
  5
462
100
AcDbEntity
  8
SUPERFICI
100
AcDbLine
 62
7
  6
CONTINUOUS
 10
-121.8634634003
 20
-36.2672809533
 11
-121.8050907529
 21
-36.4797222905
  0
LINE
  5
463
100
AcDbEntity
  8
SUPERFICI
100
AcDbLine
 62
7
  6
CONTINUOUS
 10
-121.9228086148
 20
-36.0473051067
 11
-121.8608915268
 21
-36.2767218118
  0
LINE
  5
464
100
AcDbEntity
  8
SUPERFICI
100
AcDbLine
 62
7
  6
CONTINUOUS
 10
-121.9831865395
 20
-35.8191740431
 11
-121.9201190817
 21
-36.0573641585
  0
LINE
  5
465
100
AcDbEntity
  8
SUPERFICI
100
AcDbLine
 62
7
  6
CONTINUOUS
 10
-122.0445944045
 20
-35.5824538433
 11
-121.9803743716
 21
-35.829899421
  0
LINE
  5
466
100
AcDbEntity
  8
SUPERFICI
100
AcDbLine
 62
7
  6
CONTINUOUS
 10
-122.1070870185
 20
-35.3364353801
 11
-122.0416504657
 21
-35.5939140413
  0
LINE
  5
467
100
AcDbEntity
  8
SUPERFICI
100
AcDbLine
 62
7
  6
CONTINUOUS
 10
-122.170685738
 20
-35.0804708181
 11
-122.1039943865
 21
-35.3487359248
  0
LINE
  5
468
100
AcDbEntity
  8
SUPERFICI
100
AcDbLine
 62
7
  6
CONTINUOUS
 10
-122.2353095437
 20
-34.81425288
 11
-122.1674236391
 21
-35.0937421027
  0
LINE
  5
469
100
AcDbEntity
  8
SUPERFICI
100
AcDbLine
 62
7
  6
CONTINUOUS
 10
-122.3008524822
 20
-34.537523857
 11
-122.2318664628
 21
-34.8285988577
  0
LINE
  5
46A
100
AcDbEntity
  8
SUPERFICI
100
AcDbLine
 62
7
  6
CONTINUOUS
 10
-123.057027439
 20
29.5905580479
 11
-123.0935544042
 21
29.3498599325
  0
LINE
  5
46B
100
AcDbEntity
  8
SUPERFICI
100
AcDbLine
 62
7
  6
CONTINUOUS
 10
-123.0140351738
 20
29.8645827816
 11
-123.0581956279
 21
29.5829764381
  0
LINE
  5
46C
100
AcDbEntity
  8
SUPERFICI
100
AcDbLine
 62
7
  6
CONTINUOUS
 10
-122.9639518105
 20
30.1724174696
 11
-123.0154807928
 21
29.8555213409
  0
LINE
  5
46D
100
AcDbEntity
  8
SUPERFICI
100
AcDbLine
 62
7
  6
CONTINUOUS
 10
-122.9095847554
 20
30.4941650113
 11
-122.965669737
 21
30.1620474032
  0
LINE
  5
46E
100
AcDbEntity
  8
SUPERFICI
100
AcDbLine
 62
7
  6
CONTINUOUS
 10
-122.8875875978
 20
30.6209870913
 11
-122.9270030492
 21
30.3924038585
  0
LINE
  5
46F
100
AcDbEntity
  8
SUPERFICI
100
AcDbLine
 62
7
  6
CONTINUOUS
 10
-122.8460478079
 20
30.8556002144
 11
-122.8896333113
 21
30.6092703568
  0
LINE
  5
470
100
AcDbEntity
  8
SUPERFICI
100
AcDbLine
 62
7
  6
CONTINUOUS
 10
-122.8022783328
 20
31.0963571587
 11
-122.8482462191
 21
30.8433375021
  0
LINE
  5
471
100
AcDbEntity
  8
SUPERFICI
100
AcDbLine
 62
7
  6
CONTINUOUS
 10
-122.7556707213
 20
31.346009089
 11
-122.8046422204
 21
31.083514961
  0
LINE
  5
472
100
AcDbEntity
  8
SUPERFICI
100
AcDbLine
 62
7
  6
CONTINUOUS
 10
-122.7052663644
 20
31.6087887967
 11
-122.7582556439
 21
31.3323355752
  0
LINE
  5
473
100
AcDbEntity
  8
SUPERFICI
100
AcDbLine
 62
7
  6
CONTINUOUS
 10
-122.6502113473
 20
31.8878916105
 11
-122.708139508
 21
31.5940014838
  0
LINE
  5
474
100
AcDbEntity
  8
SUPERFICI
100
AcDbLine
 62
7
  6
CONTINUOUS
 10
-122.5885308722
 20
32.1914900242
 11
-122.6534466371
 21
31.8717080485
  0
LINE
  5
475
100
AcDbEntity
  8
SUPERFICI
100
AcDbLine
 62
7
  6
CONTINUOUS
 10
-122.555592233
 20
32.3499266213
 11
-122.5922549586
 21
32.1734190802
  0
LINE
  5
476
100
AcDbEntity
  8
SUPERFICI
100
AcDbLine
 62
7
  6
CONTINUOUS
 10
-122.5209194715
 20
32.5140672053
 11
-122.559503532
 21
32.3312426774
  0
LINE
  5
477
100
AcDbEntity
  8
SUPERFICI
100
AcDbLine
 62
7
  6
CONTINUOUS
 10
-122.4848651229
 20
32.6819917656
 11
-122.5249098515
 21
32.4953112235
  0
LINE
  5
478
100
AcDbEntity
  8
SUPERFICI
100
AcDbLine
 62
7
  6
CONTINUOUS
 10
-122.4489602189
 20
32.8465441323
 11
-122.4888606666
 21
32.6635171553
  0
LINE
  5
479
100
AcDbEntity
  8
SUPERFICI
100
AcDbLine
 62
7
  6
CONTINUOUS
 10
-122.4136363219
 20
33.0059354626
 11
-122.4529113272
 21
32.8285634585
  0
LINE
  5
47A
100
AcDbEntity
  8
SUPERFICI
100
AcDbLine
 62
7
  6
CONTINUOUS
 10
-122.3785293307
 20
33.1619911006
 11
-122.4174789705
 21
32.9887133711
  0
LINE
  5
47B
100
AcDbEntity
  8
SUPERFICI
100
AcDbLine
 62
7
  6
CONTINUOUS
 10
-122.3105304594
 20
33.4579072627
 11
-122.3822097899
 21
33.1457384347
  0
LINE
  5
47C
100
AcDbEntity
  8
SUPERFICI
100
AcDbLine
 62
7
  6
CONTINUOUS
 10
-122.2452866004
 20
33.734423143
 11
-122.3139452454
 21
33.4432394373
  0
LINE
  5
47D
100
AcDbEntity
  8
SUPERFICI
100
AcDbLine
 62
7
  6
CONTINUOUS
 10
-122.213203339
 20
33.8678851349
 11
-122.2485128967
 21
33.7209124402
  0
LINE
  5
47E
100
AcDbEntity
  8
SUPERFICI
100
AcDbLine
 62
7
  6
CONTINUOUS
 10
-122.3672294001
 20
-34.2498897543
 11
-122.297242721
 21
-34.5529485446
  0
LINE
  5
47F
100
AcDbEntity
  8
SUPERFICI
100
AcDbLine
 62
7
  6
CONTINUOUS
 10
-122.4339443288
 20
-33.9527504265
 11
-122.3634986682
 21
-34.2662624869
  0
LINE
  5
480
100
AcDbEntity
  8
SUPERFICI
100
AcDbLine
 62
7
  6
CONTINUOUS
 10
-122.5002923244
 20
-33.6486289221
 11
-122.430179104
 21
-33.9697453367
  0
LINE
  5
481
100
AcDbEntity
  8
SUPERFICI
100
AcDbLine
 62
7
  6
CONTINUOUS
 10
-122.5624710574
 20
-33.3551975421
 11
-122.4966926894
 21
-33.6653604391
  0
LINE
  5
482
100
AcDbEntity
  8
SUPERFICI
100
AcDbLine
 62
7
  6
CONTINUOUS
 10
-122.6192758084
 20
-33.0794696669
 11
-122.5592165256
 21
-33.3707684065
  0
LINE
  5
483
100
AcDbEntity
  8
SUPERFICI
100
AcDbLine
 62
7
  6
CONTINUOUS
 10
-122.6693882054
 20
-32.8297280565
 11
-122.6164704716
 21
-33.0932662851
  0
LINE
  5
484
100
AcDbEntity
  8
SUPERFICI
100
AcDbLine
 62
7
  6
CONTINUOUS
 10
-122.7154292439
 20
-32.5945348208
 11
-122.6668838378
 21
-32.8423600972
  0
LINE
  5
485
100
AcDbEntity
  8
SUPERFICI
100
AcDbLine
 62
7
  6
CONTINUOUS
 10
-122.7766841974
 20
-32.2724284437
 11
-122.7131612625
 21
-32.6062549359
  0
LWPOLYLINE
  5
486
100
AcDbEntity
  8
SCRITTA_VIMAR
100
AcDbPolyline
 62
250
  6
CONTINUOUS
 90
15
 70
0
 10
-123.3724113207
 20
-27.6860090518
 10
-123.3732003916
 20
-27.6817935423
 10
-123.3739506157
 20
-27.6779017258
 10
-123.3748935059
 20
-27.6731964779
 10
-123.3757706204
 20
-27.6690431661
 10
-123.3765810065
 20
-27.6654452924
 10
-123.3771446152
 20
-27.6631127803
 10
-123.3776708483
 20
-27.6610918291
 10
-123.3781600958
 20
-27.6593801742
 10
-123.3786115257
 20
-27.6579778655
 10
-123.3790248068
 20
-27.6568855455
 10
-123.3794028327
 20
-27.6561039131
 10
-123.379636195
 20
-27.655755826
 10
-123.3798512536
 20
-27.6555466198
 10
-123.3800437289
 20
-27.6554767749
  0
LINE
  5
487
100
AcDbEntity
  8
SCRITTA_VIMAR
100
AcDbLine
 62
250
  6
CONTINUOUS
 10
-123.0545209891
 20
-29.7491271991
 11
-123.0037922312
 21
-30.0190767749
  0
LINE
  5
488
100
AcDbEntity
  8
SUPERFICI
100
AcDbLine
 62
7
  6
CONTINUOUS
 10
-122.8177073278
 20
-32.0503652425
 11
-122.7582637379
 21
-32.3704462795
  0
LINE
  5
489
100
AcDbEntity
  8
SCRITTA_VIMAR
100
AcDbLine
 62
250
  6
CONTINUOUS
 10
-123.1030118258
 20
-29.4821710352
 11
-123.0545209891
 21
-29.7491271991
  0
LINE
  5
48A
100
AcDbEntity
  8
SCRITTA_VIMAR
100
AcDbLine
 62
250
  6
CONTINUOUS
 10
-123.035780802
 20
-30.0190837749
 11
-123.0817576876
 21
-29.7655437809
  0
LINE
  5
48B
100
AcDbEntity
  8
SCRITTA_VIMAR
100
AcDbLine
 62
250
  6
CONTINUOUS
 10
-123.4212059579
 20
-27.1905864136
 11
-123.417158623
 21
-27.2129851074
  0
LINE
  5
48C
100
AcDbEntity
  8
SCRITTA_VIMAR
100
AcDbLine
 62
250
  6
CONTINUOUS
 10
-123.3707071015
 20
-27.6954719464
 11
-123.3724113207
 21
-27.6860090518
  0
LINE
  5
48D
100
AcDbEntity
  8
SUPERFICI
100
AcDbLine
 62
7
  6
CONTINUOUS
 10
-122.8727986378
 20
-31.7433816531
 11
-122.8158607712
 21
-32.0604765537
  0
LINE
  5
48E
100
AcDbEntity
  8
SCRITTA_VIMAR
100
AcDbLine
 62
250
  6
CONTINUOUS
 10
-123.0817576876
 20
-29.7655437809
 11
-123.1256941748
 21
-29.514426359
  0
LINE
  5
48F
100
AcDbEntity
  8
SCRITTA_VIMAR
100
AcDbLine
 62
250
  6
CONTINUOUS
 10
-123.1492113834
 20
-29.2182171498
 11
-123.1030118258
 21
-29.4821710352
  0
LINE
  5
490
100
AcDbEntity
  8
SUPERFICI
100
AcDbLine
 62
7
  6
CONTINUOUS
 10
-122.9243737493
 20
-31.4459959694
 11
-122.8711252414
 21
-31.7528631401
  0
LINE
  5
491
100
AcDbEntity
  8
SCRITTA_VIMAR
100
AcDbLine
 62
250
  6
CONTINUOUS
 10
-123.417158623
 20
-27.2129851074
 11
-123.4122444909
 21
-27.2413950571
  0
LINE
  5
492
100
AcDbEntity
  8
SCRITTA_VIMAR
100
AcDbLine
 62
250
  6
CONTINUOUS
 10
-123.3688213901
 20
-27.7064013119
 11
-123.3707071015
 21
-27.6954719464
  0
LINE
  5
493
100
AcDbEntity
  8
SCRITTA_VIMAR
100
AcDbLine
 62
250
  6
CONTINUOUS
 10
-123.1256941748
 20
-29.514426359
 11
-123.167566237
 21
-29.2657886963
  0
LINE
  5
494
100
AcDbEntity
  8
SUPERFICI
100
AcDbLine
 62
7
  6
CONTINUOUS
 10
-122.971782883
 20
-31.1631941091
 11
-122.9228687526
 21
-31.4548203766
  0
LINE
  5
495
100
AcDbEntity
  8
SCRITTA_VIMAR
100
AcDbLine
 62
250
  6
CONTINUOUS
 10
-123.3667476404
 20
-27.7188652887
 11
-123.3688213901
 21
-27.7064013119
  0
LINE
  5
496
100
AcDbEntity
  8
SCRITTA_VIMAR
100
AcDbLine
 62
250
  6
CONTINUOUS
 10
-123.4122444909
 20
-27.2413950571
 11
-123.4063804774
 21
-27.2766597343
  0
LWPOLYLINE
  5
497
100
AcDbEntity
  8
SCRITTA_VIMAR
100
AcDbPolyline
 62
250
  6
CONTINUOUS
 90
3
 70
0
 10
-123.2141746659
 20
-28.8279794419
 10
-123.1930940743
 20
-28.9572996014
 10
-123.1492113834
 20
-29.2182171498
  0
LINE
  5
498
100
AcDbEntity
  8
SUPERFICI
100
AcDbLine
 62
7
  6
CONTINUOUS
 10
-123.0143801104
 20
-30.9005751291
 11
-122.9704602698
 21
-31.1712147808
  0
LWPOLYLINE
  5
499
100
AcDbEntity
  8
SCRITTA_VIMAR
100
AcDbPolyline
 62
250
  6
CONTINUOUS
 90
3
 70
0
 10
-123.167566237
 20
-29.2657886963
 10
-123.2073685228
 20
-29.0197663433
 10
-123.2265070017
 20
-28.8977337749
  0
LINE
  5
49A
100
AcDbEntity
  8
SCRITTA_VIMAR
100
AcDbLine
 62
250
  6
CONTINUOUS
 10
-123.3644864675
 20
-27.732890141
 11
-123.3667476404
 21
-27.7188652887
  0
LINE
  5
49B
100
AcDbEntity
  8
SCRITTA_VIMAR
100
AcDbLine
 62
250
  6
CONTINUOUS
 10
-123.4063804774
 20
-27.2766597343
 11
-123.4000054208
 21
-27.3163136417
  0
LINE
  5
49C
100
AcDbEntity
  8
SUPERFICI
100
AcDbLine
 62
7
  6
CONTINUOUS
 10
-123.0516898524
 20
-30.6632585484
 11
-123.0132461216
 21
-30.9076779483
  0
LINE
  5
49D
100
AcDbEntity
  8
SCRITTA_VIMAR
100
AcDbLine
 62
250
  6
CONTINUOUS
 10
-123.1123079421
 20
-30.0190837749
 11
-123.1420540177
 21
-29.8278362938
  0
LINE
  5
49E
100
AcDbEntity
  8
SCRITTA_VIMAR
100
AcDbLine
 62
250
  6
CONTINUOUS
 10
-123.3607873212
 20
-27.7566248386
 11
-123.3644864675
 21
-27.732890141
  0
LINE
  5
49F
100
AcDbEntity
  8
SCRITTA_VIMAR
100
AcDbLine
 62
250
  6
CONTINUOUS
 10
-123.4000054208
 20
-27.3163136417
 11
-123.3895190597
 21
-27.3838334422
  0
LINE
  5
4A0
100
AcDbEntity
  8
SCRITTA_VIMAR
100
AcDbLine
 62
250
  6
CONTINUOUS
 10
-123.1206371029
 20
-29.7323052146
 11
-123.0761500607
 21
-30.0190837749
  0
LWPOLYLINE
  5
4A1
100
AcDbEntity
  8
SCRITTA_VIMAR
100
AcDbPolyline
 62
250
  6
CONTINUOUS
 90
4
 70
0
 10
-123.16938106
 20
-29.5818596041
 10
-123.1472991486
 20
-29.7265297643
 10
-123.1245573465
 20
-29.872311129
 10
-123.1011546413
 20
-30.0190917749
  0
LINE
  5
4A2
100
AcDbEntity
  8
SCRITTA_VIMAR
100
AcDbLine
 62
250
  6
CONTINUOUS
 10
-123.0922071109
 20
-30.0190837749
 11
-123.1370934114
 21
-29.7252173318
  0
LINE
  5
4A3
100
AcDbEntity
  8
SCRITTA_VIMAR
100
AcDbLine
 62
250
  6
CONTINUOUS
 10
-123.1420540177
 20
-29.8278362938
 11
-123.1707924918
 21
-29.6376926838
  0
LINE
  5
4A4
100
AcDbEntity
  8
SUPERFICI
100
AcDbLine
 62
7
  6
CONTINUOUS
 10
-123.0942214054
 20
-30.3835461208
 11
-123.0507444219
 21
-30.6693617188
  0
LINE
  5
4A5
100
AcDbEntity
  8
SCRITTA_VIMAR
100
AcDbLine
 62
250
  6
CONTINUOUS
 10
-123.3568207751
 20
-27.782961041
 11
-123.3607873212
 21
-27.7566248386
  0
LINE
  5
4A6
100
AcDbEntity
  8
SCRITTA_VIMAR
100
AcDbLine
 62
250
  6
CONTINUOUS
 10
-123.3895190597
 20
-27.3838334422
 11
-123.3786575717
 21
-27.4560732842
  0
LINE
  5
4A7
100
AcDbEntity
  8
SCRITTA_VIMAR
100
AcDbLine
 62
250
  6
CONTINUOUS
 10
-123.2115692604
 20
-29.2963005903
 11
-123.16938106
 21
-29.5818596041
  0
LWPOLYLINE
  5
4A8
100
AcDbEntity
  8
SCRITTA_VIMAR
100
AcDbPolyline
 62
250
  6
CONTINUOUS
 90
3
 70
0
 10
-123.1765308843
 20
-29.356446995
 10
-123.162919201
 20
-29.4496987265
 10
-123.1206371029
 20
-29.7323052146
  0
LINE
  5
4A9
100
AcDbEntity
  8
SCRITTA_VIMAR
100
AcDbLine
 62
250
  6
CONTINUOUS
 10
-123.1707924918
 20
-29.6376926838
 11
-123.1985305075
 21
-29.4487557749
  0
LINE
  5
4AA
100
AcDbEntity
  8
SCRITTA_VIMAR
100
AcDbLine
 62
250
  6
CONTINUOUS
 10
-123.1370934114
 20
-29.7252173318
 11
-123.1795802306
 21
-29.4361534015
  0
LINE
  5
4AB
100
AcDbEntity
  8
SCRITTA_VIMAR
100
AcDbLine
 62
250
  6
CONTINUOUS
 10
-123.1554675722
 20
-29.8898246906
 11
-123.136742798
 21
-30.0190917749
  0
LINE
  5
4AC
100
AcDbEntity
  8
SCRITTA_VIMAR
100
AcDbLine
 62
250
  6
CONTINUOUS
 10
-123.1384883271
 20
-29.9549919488
 11
-123.1292175049
 21
-30.0190837749
  0
LINE
  5
4AD
100
AcDbEntity
  8
SUPERFICI
100
AcDbLine
 62
7
  6
CONTINUOUS
 10
-123.1338592478
 20
-30.1130862
 11
-123.0934658121
 21
-30.3886066432
  0
LINE
  5
4AE
100
AcDbEntity
  8
SUPERFICI
100
AcDbLine
 62
7
  6
CONTINUOUS
 10
-123.1279813585
 20
-30.1538273435
 11
-123.1277978227
 21
-30.1550997593
  0
LWPOLYLINE
  5
4AF
100
AcDbEntity
  8
SCRITTA_VIMAR
100
AcDbPolyline
 62
250
  6
CONTINUOUS
 90
3
 70
0
 10
-123.3821521622
 20
-28.0221947749
 10
-123.3744488169
 20
-28.092988386
 10
-123.3505026633
 20
-28.307748325
  0
LINE
  5
4B0
100
AcDbEntity
  8
SCRITTA_VIMAR
100
AcDbLine
 62
250
  6
CONTINUOUS
 10
-123.3657234438
 20
-28.2523488714
 11
-123.3815690719
 21
-28.1066497749
  0
LINE
  5
4B1
100
AcDbEntity
  8
SCRITTA_VIMAR
100
AcDbLine
 62
250
  6
CONTINUOUS
 10
-123.4008381339
 20
-27.914837577
 11
-123.3752151446
 21
-28.1540310401
  0
LINE
  5
4B2
100
AcDbEntity
  8
SCRITTA_VIMAR
100
AcDbLine
 62
250
  6
CONTINUOUS
 10
-123.3929535952
 20
-28.0089831971
 11
-123.356223364
 21
-28.3535351113
  0
LINE
  5
4B3
100
AcDbEntity
  8
SCRITTA_VIMAR
100
AcDbLine
 62
250
  6
CONTINUOUS
 10
-123.3022505347
 20
-28.2131007126
 11
-123.3065185952
 21
-28.1734233524
  0
LINE
  5
4B4
100
AcDbEntity
  8
SUPERFICI
100
AcDbLine
 62
7
  6
CONTINUOUS
 10
-123.3899414692
 20
-28.040437517
 11
-123.3567265465
 21
-28.3518129904
  0
LINE
  5
4B5
100
AcDbEntity
  8
SCRITTA_VIMAR
100
AcDbLine
 62
250
  6
CONTINUOUS
 10
-123.2461933221
 20
-28.4691089341
 11
-123.2376949798
 21
-28.5489460037
  0
LINE
  5
4B6
100
AcDbEntity
  8
SCRITTA_VIMAR
100
AcDbLine
 62
250
  6
CONTINUOUS
 10
-123.3811050359
 20
-28.1238608015
 11
-123.4078188273
 21
-27.8658804917
  0
LINE
  5
4B7
100
AcDbEntity
  8
SCRITTA_VIMAR
100
AcDbLine
 62
250
  6
CONTINUOUS
 10
-123.4281067728
 20
-27.6473883776
 11
-123.4008381339
 21
-27.914837577
  0
LINE
  5
4B8
100
AcDbEntity
  8
SCRITTA_VIMAR
100
AcDbLine
 62
250
  6
CONTINUOUS
 10
-123.2994166571
 20
-28.2408676127
 11
-123.3022505347
 21
-28.2131007126
  0
LINE
  5
4B9
100
AcDbEntity
  8
SUPERFICI
100
AcDbLine
 62
7
  6
CONTINUOUS
 10
-123.4171889786
 20
-27.7723303492
 11
-123.3899414692
 21
-28.040437517
  0
LINE
  5
4BA
100
AcDbEntity
  8
SCRITTA_VIMAR
100
AcDbLine
 62
250
  6
CONTINUOUS
 10
-123.2376949798
 20
-28.5489460037
 11
-123.2327483453
 21
-28.5978395374
  0
LINE
  5
4BB
100
AcDbEntity
  8
SUPERFICI
100
AcDbLine
 62
7
  6
CONTINUOUS
 10
-123.4346778214
 20
-27.5935486129
 11
-123.4171889786
 21
-27.7723303492
  0
LWPOLYLINE
  5
4BC
100
AcDbEntity
  8
SCRITTA_VIMAR
100
AcDbPolyline
 62
250
  6
CONTINUOUS
 90
7
 70
0
 10
-123.4718717724
 20
-27.1189537749
 10
-123.4487997231
 20
-27.3577309816
 10
-123.4243094773
 20
-27.5963287819
 10
-123.3985379121
 20
-27.8341648
 10
-123.3716219047
 20
-28.07065666
 10
-123.3557681592
 20
-28.2050401151
 10
-123.3228874784
 20
-28.4732340331
  0
LINE
  5
4BD
100
AcDbEntity
  8
SCRITTA_VIMAR
100
AcDbLine
 62
250
  6
CONTINUOUS
 10
-123.38988413
 20
-28.0348662336
 11
-123.4401173337
 21
-27.5351162077
  0
LINE
  5
4BE
100
AcDbEntity
  8
SCRITTA_VIMAR
100
AcDbLine
 62
250
  6
CONTINUOUS
 10
-123.4387209119
 20
-27.5512761027
 11
-123.4201127857
 21
-27.7426506129
  0
LINE
  5
4BF
100
AcDbEntity
  8
SCRITTA_VIMAR
100
AcDbLine
 62
250
  6
CONTINUOUS
 10
-123.2327483453
 20
-28.5978395374
 11
-123.2283913934
 21
-28.6429080885
  0
LINE
  5
4C0
100
AcDbEntity
  8
SCRITTA_VIMAR
100
AcDbLine
 62
250
  6
CONTINUOUS
 10
-123.4536640916
 20
-27.3819849102
 11
-123.4281067728
 21
-27.6473883776
  0
LINE
  5
4C1
100
AcDbEntity
  8
SCRITTA_VIMAR
100
AcDbLine
 62
250
  6
CONTINUOUS
 10
-123.2969472407
 20
-28.2664850793
 11
-123.2994166571
 21
-28.2408676127
  0
LINE
  5
4C2
100
AcDbEntity
  8
SCRITTA_VIMAR
100
AcDbLine
 62
250
  6
CONTINUOUS
 10
-123.4401173337
 20
-27.5351162077
 11
-123.4574620952
 21
-27.3496306894
  0
LINE
  5
4C3
100
AcDbEntity
  8
SCRITTA_VIMAR
100
AcDbLine
 62
250
  6
CONTINUOUS
 10
-123.2283913934
 20
-28.6429080885
 11
-123.2245939691
 21
-28.6843471317
  0
LINE
  5
4C4
100
AcDbEntity
  8
SCRITTA_VIMAR
100
AcDbLine
 62
250
  6
CONTINUOUS
 10
-123.2955362977
 20
-28.2820407359
 11
-123.2969472407
 21
-28.2664850793
  0
LINE
  5
4C5
100
AcDbEntity
  8
SCRITTA_VIMAR
100
AcDbLine
 62
250
  6
CONTINUOUS
 10
-123.4774425291
 20
-27.1189607749
 11
-123.4536640916
 21
-27.3819849102
  0
LINE
  5
4C6
100
AcDbEntity
  8
SCRITTA_VIMAR
100
AcDbLine
 62
250
  6
CONTINUOUS
 10
-123.4574620952
 20
-27.3496306894
 11
-123.4779885821
 21
-27.1189607749
  0
LINE
  5
4C7
100
AcDbEntity
  8
SCRITTA_VIMAR
100
AcDbLine
 62
250
  6
CONTINUOUS
 10
-123.2245939691
 20
-28.6843471317
 11
-123.2213276867
 21
-28.7224376277
  0
LINE
  5
4C8
100
AcDbEntity
  8
SCRITTA_VIMAR
100
AcDbLine
 62
250
  6
CONTINUOUS
 10
-123.2943259778
 20
-28.2962207073
 11
-123.2955362977
 21
-28.2820407359
  0
LWPOLYLINE
  5
4C9
100
AcDbEntity
  8
SUPERFICI
100
AcDbPolyline
 62
7
  6
CONTINUOUS
 90
5
 70
0
 10
-123.5147093573
 20
-26.6665724542
 10
-123.4953522707
 20
-26.9123790078
 10
-123.4770934995
 20
-27.1296083291
 10
-123.4610836568
 20
-27.3105816726
 10
-123.4346777565
 20
-27.5935492878
  0
LINE
  5
4CA
100
AcDbEntity
  8
SCRITTA_VIMAR
100
AcDbLine
 62
250
  6
CONTINUOUS
 10
-123.2933185921
 20
-28.3089660823
 11
-123.2943259778
 21
-28.2962207073
  0
LWPOLYLINE
  5
4CB
100
AcDbEntity
  8
SCRITTA_VIMAR
100
AcDbPolyline
 62
250
  6
CONTINUOUS
 90
7
 70
0
 10
-123.2213276867
 20
-28.7224376277
 10
-123.2186011033
 20
-28.7570430913
 10
-123.2174421518
 20
-28.7730217154
 10
-123.2164176813
 20
-28.788153461
 10
-123.2155276382
 20
-28.8024387999
 10
-123.2147776268
 20
-28.8157622738
 10
-123.2141746659
 20
-28.8279794419
  0
LINE
  5
4CC
100
AcDbEntity
  8
SUPERFICI
100
AcDbLine
 62
7
  6
CONTINUOUS
 10
-123.5396397937
 20
-26.3189312938
 11
-123.5147093573
 21
-26.6665724542
  0
LWPOLYLINE
  5
4CD
100
AcDbEntity
  8
RACCORDO
100
AcDbPolyline
 62
250
  6
CONTINUOUS
 90
3
 70
0
 10
-123.5396535989
 20
-26.1878572158
 10
-123.5388613268
 20
-26.205319992
 10
-123.5364215337
 20
-26.255235315
  0
LWPOLYLINE
  5
4CE
100
AcDbEntity
  8
RACCORDO
100
AcDbPolyline
 62
250
  6
CONTINUOUS
 90
7
 70
0
 10
-123.5364215337
 20
-26.255235315
 10
-123.5358294029
 20
-26.2687811326
 10
-123.5354094194
 20
-26.2804072713
 10
-123.535155155
 20
-26.2901167801
 10
-123.5350595346
 20
-26.2977228513
 10
-123.5351323429
 20
-26.302890685
 10
-123.5353943984
 20
-26.3053147901
  0
LINE
  5
4CF
100
AcDbEntity
  8
RACCORDO
100
AcDbLine
 62
250
  6
CONTINUOUS
 10
-124.1336612833
 20
-24.6541851935
 11
-124.1325783598
 21
-24.6990796695
  0
LINE
  5
4D0
100
AcDbEntity
  8
RACCORDO
100
AcDbLine
 62
250
  6
CONTINUOUS
 10
-124.1326191064
 20
23.6595940695
 11
-124.1337028417
 21
23.6141274862
  0
LINE
  5
4D1
100
AcDbEntity
  8
RACCORDO
100
AcDbLine
 62
250
  6
CONTINUOUS
 10
-123.53581611
 20
25.231226566
 11
-123.5395406973
 21
25.1512995448
  0
LINE
  5
4D2
100
AcDbEntity
  8
RACCORDO
100
AcDbLine
 62
7
  6
CONTINUOUS
 10
-123.5396384807
 20
25.2807753467
 11
-123.5422002309
 21
25.2458565704
  0
LWPOLYLINE
  5
4D3
100
AcDbEntity
  8
SUPERFICI
100
AcDbPolyline
 62
7
  6
CONTINUOUS
 90
5
 70
0
 10
-123.4610832804
 20
26.272432286
 10
-123.4770931698
 20
26.0914585914
 10
-123.4953520231
 20
25.8742284925
 10
-123.514709204
 20
25.6284209247
 10
-123.539639875
 20
25.2807765388
  0
LWPOLYLINE
  5
4D4
100
AcDbEntity
  8
RACCORDO
100
AcDbPolyline
 62
7
  6
CONTINUOUS
 90
8
 70
0
 10
-123.5396386308
 20
25.2807740422
 10
-123.5546657829
 20
25.1214923981
 10
-123.5940692457
 20
24.8797373664
 10
-123.6509433211
 20
24.649299858
 10
-123.7232632362
 20
24.4309816456
 10
-123.8092808883
 20
24.2249204231
 10
-123.9072511451
 20
24.0314867902
 10
-124.0152893444
 20
23.8512492611
  0
LINE
  5
4D5
100
AcDbEntity
  8
SUPERFICI
100
AcDbLine
 62
7
  6
CONTINUOUS
 10
-123.4346773506
 20
26.5553999607
 11
-123.4610832804
 21
26.272432286
  0
LINE
  5
4D6
100
AcDbEntity
  8
SUPERFICI
100
AcDbLine
 62
7
  6
CONTINUOUS
 10
-123.4049791012
 20
26.8556823239
 11
-123.4346773506
 21
26.5553999607
  0
LINE
  5
4D7
100
AcDbEntity
  8
SUPERFICI
100
AcDbLine
 62
7
  6
CONTINUOUS
 10
-123.3746397193
 20
27.1478093909
 11
-123.4049791012
 21
26.8556823239
  0
LINE
  5
4D8
100
AcDbEntity
  8
SUPERFICI
100
AcDbLine
 62
7
  6
CONTINUOUS
 10
-123.347915058
 20
27.3935461316
 11
-123.3746397193
 21
27.1478093909
  0
LWPOLYLINE
  5
4D9
100
AcDbEntity
  8
RACCORDO
100
AcDbPolyline
 62
7
  6
CONTINUOUS
 90
7
 70
0
 10
-123.5422002309
 20
25.2458565704
 10
-123.5628380352
 20
25.0595367044
 10
-123.5943242418
 20
24.8784959158
 10
-123.6357796226
 20
24.7036376217
 10
-123.6860135364
 20
24.5364246639
 10
-123.7434993688
 20
24.3784358039
 10
-123.8076042363
 20
24.2285570043
  0
LINE
  5
4DA
100
AcDbEntity
  8
RACCORDO
100
AcDbLine
 62
7
  6
CONTINUOUS
 10
-123.3133091162
 20
27.6972481473
 11
-123.3123721619
 21
27.7054994617
  0
LINE
  5
4DB
100
AcDbEntity
  8
SUPERFICI
100
AcDbLine
 62
7
  6
CONTINUOUS
 10
-123.3144195028
 20
27.6877736226
 11
-123.347915058
 21
27.3935461316
  0
LINE
  5
4DC
100
AcDbEntity
  8
SUPERFICI
100
AcDbLine
 62
7
  6
CONTINUOUS
 10
-123.2950564729
 20
27.8515803962
 11
-123.3144195028
 21
27.6877736226
  0
LINE
  5
4DD
100
AcDbEntity
  8
RACCORDO
100
AcDbLine
 62
7
  6
CONTINUOUS
 10
-123.3123721619
 20
27.7054994617
 11
-123.1307962141
 21
29.0980572568
  0
LINE
  5
4DE
100
AcDbEntity
  8
SUPERFICI
100
AcDbLine
 62
7
  6
CONTINUOUS
 10
-123.1212833764
 20
29.1618294841
 11
-123.1514735037
 21
28.9514307122
  0
LINE
  5
4DF
100
AcDbEntity
  8
SUPERFICI
100
AcDbLine
 62
7
  6
CONTINUOUS
 10
-123.0926434388
 20
29.3559569767
 11
-123.1219717829
 21
29.1570995813
  0
LINE
  5
4E0
100
AcDbEntity
  8
SUPERFICI
100
AcDbLine
 62
7
  6
CONTINUOUS
 10
-123.0935544042
 20
29.3498599325
 11
-123.1037522136
 21
29.2812638228
  0
LINE
  5
4E1
100
AcDbEntity
  8
RACCORDO
100
AcDbLine
 62
7
  6
CONTINUOUS
 10
-114.8342432042
 20
-5.8190767749
 11
-115.8342432042
 21
-5.8190767749
  0
LINE
  5
4E2
100
AcDbEntity
  8
RACCORDO
100
AcDbLine
 62
7
  6
CONTINUOUS
 10
-115.0342432042
 20
-5.7190767749
 11
-115.7342432042
 21
-5.7190767749
  0
LINE
  5
4E3
100
AcDbEntity
  8
SCRITTA_VIMAR
100
AcDbLine
 62
250
  6
CONTINUOUS
 10
-123.3512858632
 20
-27.8209711382
 11
-123.3568207751
 21
-27.782961041
  0
LINE
  5
4E4
100
AcDbEntity
  8
SCRITTA_VIMAR
100
AcDbLine
 62
250
  6
CONTINUOUS
 10
-123.3786575717
 20
-27.4560732842
 11
-123.3609851709
 21
-27.5774741103
  0
LWPOLYLINE
  5
4E5
100
AcDbEntity
  8
SCRITTA_VIMAR
100
AcDbPolyline
 62
250
  6
CONTINUOUS
 90
18
 70
0
 10
-123.1341612466
 20
-30.0190917749
 10
-123.1589928041
 20
-29.8454051885
 10
-123.1830428872
 20
-29.6732419578
 10
-123.2063246778
 20
-29.5026482444
 10
-123.2288513579
 20
-29.3336702097
 10
-123.2506361094
 20
-29.1663540152
 10
-123.2716921144
 20
-29.0007458223
 10
-123.2920344289
 20
-28.8368624105
 10
-123.3116856059
 20
-28.6746030322
 10
-123.3306700724
 20
-28.5138375579
 10
-123.3490122552
 20
-28.3544358579
 10
-123.3667365816
 20
-28.1962678027
 10
-123.3838674784
 20
-28.0392032627
 10
-123.4036667351
 20
-27.8520492419
 10
-123.4226355228
 20
-27.6663720896
 10
-123.4407627362
 20
-27.482246999
 10
-123.4580372702
 20
-27.299749163
 10
-123.4744480193
 20
-27.1189537749
  0
LINE
  5
4E6
100
AcDbEntity
  8
SUPERFICI
100
AcDbLine
 62
7
  6
CONTINUOUS
 10
-123.1338592478
 20
-30.1130862
 11
-123.1531795916
 21
-29.9775087241
  0
LINE
  5
4E7
100
AcDbEntity
  8
SCRITTA_VIMAR
100
AcDbLine
 62
250
  6
CONTINUOUS
 10
-123.1434902669
 20
-30.0190917749
 11
-123.1668217511
 21
-29.8553372867
  0
LINE
  5
4E8
100
AcDbEntity
  8
SCRITTA_VIMAR
100
AcDbLine
 62
250
  6
CONTINUOUS
 10
-123.1397516919
 20
-30.0190917749
 11
-123.1775629721
 21
-29.7536269091
  0
LINE
  5
4E9
100
AcDbEntity
  8
SCRITTA_VIMAR
100
AcDbLine
 62
250
  6
CONTINUOUS
 10
-123.2159405963
 20
-29.0797043417
 11
-123.1765308843
 21
-29.356446995
  0
LINE
  5
4EA
100
AcDbEntity
  8
SCRITTA_VIMAR
100
AcDbLine
 62
250
  6
CONTINUOUS
 10
-123.1733679765
 20
-29.8259917051
 11
-123.1462804337
 21
-30.0190917749
  0
LINE
  5
4EB
100
AcDbEntity
  8
SCRITTA_VIMAR
100
AcDbLine
 62
250
  6
CONTINUOUS
 10
-123.1795802306
 20
-29.4361534015
 11
-123.2196529771
 21
-29.1528563432
  0
LINE
  5
4EC
100
AcDbEntity
  8
SCRITTA_VIMAR
100
AcDbLine
 62
250
  6
CONTINUOUS
 10
-123.1745446058
 20
-29.7004071089
 11
-123.1384883271
 21
-29.9549919488
  0
LINE
  5
4ED
100
AcDbEntity
  8
SCRITTA_VIMAR
100
AcDbLine
 62
250
  6
CONTINUOUS
 10
-123.2511300473
 20
-29.0165294742
 11
-123.2115692604
 21
-29.2963005903
  0
LINE
  5
4EE
100
AcDbEntity
  8
SCRITTA_VIMAR
100
AcDbLine
 62
250
  6
CONTINUOUS
 10
-123.1915973213
 20
-29.6336115449
 11
-123.1554675722
 21
-29.8898246906
  0
LWPOLYLINE
  5
4EF
100
AcDbEntity
  8
SCRITTA_VIMAR
100
AcDbPolyline
 62
250
  6
CONTINUOUS
 90
5
 70
0
 10
-123.1668217511
 20
-29.8553372867
 10
-123.1895036269
 20
-29.6923602138
 10
-123.2115502638
 20
-29.5301496451
 10
-123.2329760314
 20
-29.36869467
 10
-123.2537934279
 20
-29.2079926768
  0
LINE
  5
4F0
100
AcDbEntity
  8
SCRITTA_VIMAR
100
AcDbLine
 62
250
  6
CONTINUOUS
 10
-123.181703896
 20
-29.7355758609
 11
-123.1418541412
 21
-30.0190837749
  0
LINE
  5
4F1
100
AcDbEntity
  8
SCRITTA_VIMAR
100
AcDbLine
 62
250
  6
CONTINUOUS
 10
-123.1472613695
 20
-30.0190917749
 11
-123.1752279976
 21
-29.8195258917
  0
LINE
  5
4F2
100
AcDbEntity
  8
SCRITTA_VIMAR
100
AcDbLine
 62
250
  6
CONTINUOUS
 10
-123.3445263031
 20
-27.8690888185
 11
-123.3512858632
 21
-27.8209711382
  0
LINE
  5
4F3
100
AcDbEntity
  8
SCRITTA_VIMAR
100
AcDbLine
 62
250
  6
CONTINUOUS
 10
-123.3609851709
 20
-27.5774741103
 11
-123.3371664616
 21
-27.7471247181
  0
LWPOLYLINE
  5
4F4
100
AcDbEntity
  8
SCRITTA_VIMAR
100
AcDbPolyline
 62
250
  6
CONTINUOUS
 90
3
 70
0
 10
-123.1924860261
 20
-29.6762228184
 10
-123.1709535229
 20
-29.8325426916
 10
-123.1446351332
 20
-30.0190917749
  0
LINE
  5
4F5
100
AcDbEntity
  8
SCRITTA_VIMAR
100
AcDbLine
 62
250
  6
CONTINUOUS
 10
-123.2410564523
 20
-28.8977267749
 11
-123.2159405963
 21
-29.0797043417
  0
LWPOLYLINE
  5
4F6
100
AcDbEntity
  8
SCRITTA_VIMAR
100
AcDbPolyline
 62
250
  6
CONTINUOUS
 90
4
 70
0
 10
-123.1599812545
 20
-29.9172211598
 10
-123.1962884854
 20
-29.6540010904
 10
-123.2178127545
 20
-29.4931869477
 10
-123.2387272556
 20
-29.333251632
  0
LINE
  5
4F7
100
AcDbEntity
  8
SCRITTA_VIMAR
100
AcDbLine
 62
250
  6
CONTINUOUS
 10
-123.1775629721
 20
-29.7536269091
 11
-123.2135726291
 21
-29.4912566658
  0
LINE
  5
4F8
100
AcDbEntity
  8
SCRITTA_VIMAR
100
AcDbLine
 62
250
  6
CONTINUOUS
 10
-123.2089904915
 20
-29.4487557749
 11
-123.1745446058
 21
-29.7004071089
  0
LINE
  5
4F9
100
AcDbEntity
  8
SCRITTA_VIMAR
100
AcDbLine
 62
250
  6
CONTINUOUS
 10
-123.225997235
 20
-29.380688632
 11
-123.1915973213
 21
-29.6336115449
  0
LINE
  5
4FA
100
AcDbEntity
  8
SCRITTA_VIMAR
100
AcDbLine
 62
250
  6
CONTINUOUS
 10
-123.2196529771
 20
-29.1528563432
 11
-123.2573057915
 21
-28.8762113182
  0
LINE
  5
4FB
100
AcDbEntity
  8
SCRITTA_VIMAR
100
AcDbLine
 62
250
  6
CONTINUOUS
 10
-123.2156884312
 20
-29.4848024896
 11
-123.181703896
 21
-29.7355758609
  0
LINE
  5
4FC
100
AcDbEntity
  8
SCRITTA_VIMAR
100
AcDbLine
 62
250
  6
CONTINUOUS
 10
-123.1680576142
 20
-29.8676411908
 11
-123.2110325394
 21
-29.5550761317
  0
LINE
  5
4FD
100
AcDbEntity
  8
SCRITTA_VIMAR
100
AcDbLine
 62
250
  6
CONTINUOUS
 10
-123.3374594883
 20
-27.921186522
 11
-123.3445263031
 21
-27.8690888185
  0
LINE
  5
4FE
100
AcDbEntity
  8
SCRITTA_VIMAR
100
AcDbLine
 62
250
  6
CONTINUOUS
 10
-123.2881322326
 20
-28.7428543363
 11
-123.2511300473
 21
-29.0165294742
  0
LINE
  5
4FF
100
AcDbEntity
  8
SCRITTA_VIMAR
100
AcDbLine
 62
250
  6
CONTINUOUS
 10
-123.3371664616
 20
-27.7471247181
 11
-123.3122555544
 21
-27.931329284
  0
LINE
  5
500
100
AcDbEntity
  8
SCRITTA_VIMAR
100
AcDbLine
 62
250
  6
CONTINUOUS
 10
-123.2338146734
 20
-29.3660880268
 11
-123.1924860261
 21
-29.6762228184
  0
LINE
  5
501
100
AcDbEntity
  8
SCRITTA_VIMAR
100
AcDbLine
 62
250
  6
CONTINUOUS
 10
-123.1965443565
 20
-29.6628682505
 11
-123.2283163156
 21
-29.4236458678
  0
LINE
  5
502
100
AcDbEntity
  8
SCRITTA_VIMAR
100
AcDbLine
 62
250
  6
CONTINUOUS
 10
-123.2135726291
 20
-29.4912566658
 11
-123.2478561431
 21
-29.2319008362
  0
LINE
  5
503
100
AcDbEntity
  8
SCRITTA_VIMAR
100
AcDbLine
 62
250
  6
CONTINUOUS
 10
-123.2384494664
 20
-29.3392525175
 11
-123.2173728478
 21
-29.5006609988
  0
LINE
  5
504
100
AcDbEntity
  8
RACCORDO
100
AcDbLine
 62
7
  6
CONTINUOUS
 10
-123.3123721592
 20
-28.743653035
 11
-123.13079621
 21
-30.1362108348
  0
LINE
  5
505
100
AcDbEntity
  8
SCRITTA_VIMAR
100
AcDbLine
 62
250
  6
CONTINUOUS
 10
-123.1956826381
 20
-29.66290521
 11
-123.2389989539
 21
-29.3377901013
  0
LINE
  5
506
100
AcDbEntity
  8
SCRITTA_VIMAR
100
AcDbLine
 62
250
  6
CONTINUOUS
 10
-123.2587031899
 20
-29.1312905946
 11
-123.225997235
 21
-29.380688632
  0
LINE
  5
507
100
AcDbEntity
  8
SCRITTA_VIMAR
100
AcDbLine
 62
250
  6
CONTINUOUS
 10
-123.2488672974
 20
-29.2311821475
 11
-123.2156884312
 21
-29.4848024896
  0
LINE
  5
508
100
AcDbEntity
  8
SCRITTA_VIMAR
100
AcDbLine
 62
250
  6
CONTINUOUS
 10
-123.2573057915
 20
-28.8762113182
 11
-123.2927336416
 21
-28.6052819385
  0
LINE
  5
509
100
AcDbEntity
  8
SCRITTA_VIMAR
100
AcDbLine
 62
250
  6
CONTINUOUS
 10
-123.2181761508
 20
-29.5005425044
 11
-123.2451880986
 21
-29.2927978399
  0
LINE
  5
50A
100
AcDbEntity
  8
SCRITTA_VIMAR
100
AcDbLine
 62
250
  6
CONTINUOUS
 10
-123.3286084692
 20
-27.9889742103
 11
-123.3374594883
 21
-27.921186522
  0
LINE
  5
50B
100
AcDbEntity
  8
SCRITTA_VIMAR
100
AcDbLine
 62
250
  6
CONTINUOUS
 10
-123.3122555544
 20
-27.931329284
 11
-123.2922226039
 21
-28.0850301301
  0
LINE
  5
50C
100
AcDbEntity
  8
SCRITTA_VIMAR
100
AcDbLine
 62
250
  6
CONTINUOUS
 10
-123.2748324229
 20
-28.8977337749
 11
-123.3038503527
 21
-28.6742262408
  0
LINE
  5
50D
100
AcDbEntity
  8
SCRITTA_VIMAR
100
AcDbLine
 62
250
  6
CONTINUOUS
 10
-123.3228874784
 20
-28.4732340331
 11
-123.2881322326
 21
-28.7428543363
  0
LINE
  5
50E
100
AcDbEntity
  8
SCRITTA_VIMAR
100
AcDbLine
 62
250
  6
CONTINUOUS
 10
-123.2338146734
 20
-29.3660880268
 11
-123.2740074672
 21
-29.048074251
  0
LINE
  5
50F
100
AcDbEntity
  8
SCRITTA_VIMAR
100
AcDbLine
 62
250
  6
CONTINUOUS
 10
-123.2478561431
 20
-29.2319008362
 11
-123.2804574143
 21
-28.9756652035
  0
LINE
  5
510
100
AcDbEntity
  8
SCRITTA_VIMAR
100
AcDbLine
 62
250
  6
CONTINUOUS
 10
-123.2907595233
 20
-28.8775086514
 11
-123.2587031899
 21
-29.1312905946
  0
LINE
  5
511
100
AcDbEntity
  8
SCRITTA_VIMAR
100
AcDbLine
 62
250
  6
CONTINUOUS
 10
-123.2811727243
 20
-28.9750085163
 11
-123.2488672974
 21
-29.2311821475
  0
LINE
  5
512
100
AcDbEntity
  8
SCRITTA_VIMAR
100
AcDbLine
 62
250
  6
CONTINUOUS
 10
-123.2384494664
 20
-29.3392525175
 11
-123.2787357305
 21
-29.0218089076
  0
LINE
  5
513
100
AcDbEntity
  8
SCRITTA_VIMAR
100
AcDbLine
 62
250
  6
CONTINUOUS
 10
-123.2927336416
 20
-28.6052819385
 11
-123.326332323
 21
-28.3373102668
  0
LINE
  5
514
100
AcDbEntity
  8
SCRITTA_VIMAR
100
AcDbLine
 62
250
  6
CONTINUOUS
 10
-123.2922226039
 20
-28.0850301301
 11
-123.276943922
 21
-28.2065323979
  0
LINE
  5
515
100
AcDbEntity
  8
SCRITTA_VIMAR
100
AcDbLine
 62
250
  6
CONTINUOUS
 10
-123.2391870917
 20
-29.3390517038
 11
-123.2776966946
 21
-29.0330059676
  0
LINE
  5
516
100
AcDbEntity
  8
SCRITTA_VIMAR
100
AcDbLine
 62
250
  6
CONTINUOUS
 10
-123.3038503527
 20
-28.6742262408
 11
-123.331318177
 21
-28.4543312282
  0
LINE
  5
517
100
AcDbEntity
  8
SCRITTA_VIMAR
100
AcDbLine
 62
250
  6
CONTINUOUS
 10
-123.3210271188
 20
-28.0494439369
 11
-123.3286084692
 21
-27.9889742103
  0
LINE
  5
518
100
AcDbEntity
  8
SCRITTA_VIMAR
100
AcDbLine
 62
250
  6
CONTINUOUS
 10
-123.2941836759
 20
-28.8860345006
 11
-123.2387272556
 21
-29.333251632
  0
LINE
  5
519
100
AcDbEntity
  8
SCRITTA_VIMAR
100
AcDbLine
 62
250
  6
CONTINUOUS
 10
-123.3505653153
 20
-28.0453817287
 11
-123.311646178
 21
-28.3612047749
  0
LINE
  5
51A
100
AcDbEntity
  8
SCRITTA_VIMAR
100
AcDbLine
 62
250
  6
CONTINUOUS
 10
-123.3118477742
 20
-28.7223275484
 11
-123.2804574143
 21
-28.9756652035
  0
LINE
  5
51B
100
AcDbEntity
  8
SCRITTA_VIMAR
100
AcDbLine
 62
250
  6
CONTINUOUS
 10
-123.3220765118
 20
-28.6194520871
 11
-123.2907595233
 21
-28.8775086514
  0
LINE
  5
51C
100
AcDbEntity
  8
SCRITTA_VIMAR
100
AcDbLine
 62
250
  6
CONTINUOUS
 10
-123.2782662852
 20
-29.0076287749
 11
-123.3084564055
 21
-28.7592628411
  0
LINE
  5
51D
100
AcDbEntity
  8
SCRITTA_VIMAR
100
AcDbLine
 62
250
  6
CONTINUOUS
 10
-123.3130977176
 20
-28.7280263883
 11
-123.2936212918
 21
-28.8889782774
  0
LINE
  5
51E
100
AcDbEntity
  8
SCRITTA_VIMAR
100
AcDbLine
 62
250
  6
CONTINUOUS
 10
-123.3165828213
 20
-28.5996362889
 11
-123.2803213594
 21
-28.8977337749
  0
LINE
  5
51F
100
AcDbEntity
  8
SCRITTA_VIMAR
100
AcDbLine
 62
250
  6
CONTINUOUS
 10
-123.2595888825
 20
-29.1783868818
 11
-123.314214518
 21
-28.7216844821
  0
LWPOLYLINE
  5
520
100
AcDbEntity
  8
SCRITTA_VIMAR
100
AcDbPolyline
 62
250
  6
CONTINUOUS
 90
6
 70
0
 10
-123.326332323
 20
-28.3373102668
 10
-123.3585063629
 20
-28.0694591677
 10
-123.3857404239
 20
-27.8333796402
 10
-123.4120589536
 20
-27.5958494372
 10
-123.4373274458
 20
-27.3574977512
 10
-123.4614113943
 20
-27.1189537749
  0
LINE
  5
521
100
AcDbEntity
  8
SCRITTA_VIMAR
100
AcDbLine
 62
250
  6
CONTINUOUS
 10
-123.276943922
 20
-28.2065323979
 11
-123.2625158737
 21
-28.3259216701
  0
LINE
  5
522
100
AcDbEntity
  8
SCRITTA_VIMAR
100
AcDbLine
 62
250
  6
CONTINUOUS
 10
-123.331318177
 20
-28.4543312282
 11
-123.3601936738
 21
-28.2132534791
  0
LINE
  5
523
100
AcDbEntity
  8
SCRITTA_VIMAR
100
AcDbLine
 62
250
  6
CONTINUOUS
 10
-123.3139995335
 20
-28.1078706055
 11
-123.3210271188
 21
-28.0494439369
  0
LINE
  5
524
100
AcDbEntity
  8
SCRITTA_VIMAR
100
AcDbLine
 62
250
  6
CONTINUOUS
 10
-123.3113887641
 20
-28.722841543
 11
-123.3406666439
 21
-28.4736639349
  0
LINE
  5
525
100
AcDbEntity
  8
SCRITTA_VIMAR
100
AcDbLine
 62
250
  6
CONTINUOUS
 10
-123.3079595703
 20
-28.7649631952
 11
-123.3371001599
 21
-28.5143588537
  0
LINE
  5
526
100
AcDbEntity
  8
SCRITTA_VIMAR
100
AcDbLine
 62
250
  6
CONTINUOUS
 10
-123.3313668857
 20
-28.5786195406
 11
-123.2946274697
 21
-28.8932583878
  0
LINE
  5
527
100
AcDbEntity
  8
SCRITTA_VIMAR
100
AcDbLine
 62
250
  6
CONTINUOUS
 10
-123.3517128408
 20
-28.3645805743
 11
-123.3220765118
 21
-28.6194520871
  0
LINE
  5
528
100
AcDbEntity
  8
SUPERFICI
100
AcDbLine
 62
7
  6
CONTINUOUS
 10
-123.3305996181
 20
-28.5856024881
 11
-123.3025853688
 21
-28.8265536153
  0
LINE
  5
529
100
AcDbEntity
  8
SCRITTA_VIMAR
100
AcDbLine
 62
250
  6
CONTINUOUS
 10
-123.3505026633
 20
-28.307748325
 11
-123.3165828213
 21
-28.5996362889
  0
LWPOLYLINE
  5
52A
100
AcDbEntity
  8
SCRITTA_VIMAR
100
AcDbPolyline
 62
250
  6
CONTINUOUS
 90
3
 70
0
 10
-123.3960692592
 20
-27.6554747749
 10
-123.3827092513
 20
-27.7725067668
 10
-123.3505653153
 20
-28.0453817287
  0
LINE
  5
52B
100
AcDbEntity
  8
SCRITTA_VIMAR
100
AcDbLine
 62
250
  6
CONTINUOUS
 10
-123.2625158737
 20
-28.3259216701
 11
-123.2524437755
 21
-28.412981246
  0
LINE
  5
52C
100
AcDbEntity
  8
SCRITTA_VIMAR
100
AcDbLine
 62
250
  6
CONTINUOUS
 10
-123.3601936738
 20
-28.2132534791
 11
-123.3821521622
 21
-28.0221947749
  0
LINE
  5
52D
100
AcDbEntity
  8
RACCORDO
100
AcDbLine
 62
7
  6
CONTINUOUS
 10
-123.3133092332
 20
-28.7354006662
 11
-123.3123721592
 21
-28.743653035
  0
LINE
  5
52E
100
AcDbEntity
  8
SCRITTA_VIMAR
100
AcDbLine
 62
250
  6
CONTINUOUS
 10
-123.3088656701
 20
-28.1523966702
 11
-123.3139995335
 21
-28.1078706055
  0
LINE
  5
52F
100
AcDbEntity
  8
SCRITTA_VIMAR
100
AcDbLine
 62
250
  6
CONTINUOUS
 10
-123.3289108772
 20
-28.6001259339
 11
-123.3476976057
 21
-28.4334849002
  0
LINE
  5
530
100
AcDbEntity
  8
SCRITTA_VIMAR
100
AcDbLine
 62
250
  6
CONTINUOUS
 10
-123.3641914246
 20
-28.2765175114
 11
-123.3126380446
 21
-28.7307436409
  0
LINE
  5
531
100
AcDbEntity
  8
SCRITTA_VIMAR
100
AcDbLine
 62
250
  6
CONTINUOUS
 10
-123.3065185952
 20
-28.1734233524
 11
-123.3088656701
 21
-28.1523966702
  0
LINE
  5
532
100
AcDbEntity
  8
SCRITTA_VIMAR
100
AcDbLine
 62
250
  6
CONTINUOUS
 10
-123.3553545086
 20
-28.3529972978
 11
-123.3671560136
 21
-28.2462674086
  0
LINE
  5
533
100
AcDbEntity
  8
SCRITTA_VIMAR
100
AcDbLine
 62
250
  6
CONTINUOUS
 10
-123.3752151446
 20
-28.1540310401
 11
-123.3517128408
 21
-28.3645805743
  0
LINE
  5
534
100
AcDbEntity
  8
SCRITTA_VIMAR
100
AcDbLine
 62
250
  6
CONTINUOUS
 10
-123.3628865408
 20
-28.2912979097
 11
-123.3476461381
 21
-28.4305918864
  0
LINE
  5
535
100
AcDbEntity
  8
SCRITTA_VIMAR
100
AcDbLine
 62
250
  6
CONTINUOUS
 10
-123.2524437755
 20
-28.412981246
 11
-123.2461933221
 21
-28.4691089341
  0
LINE
  5
536
100
AcDbEntity
  8
SUPERFICI
100
AcDbLine
 62
7
  6
CONTINUOUS
 10
-123.3567265465
 20
-28.3518129904
 11
-123.3305996181
 21
-28.5856024881
  0
LINE
  5
537
100
AcDbEntity
  8
SCRITTA_VIMAR
100
AcDbLine
 62
250
  6
CONTINUOUS
 10
-123.3406666439
 20
-28.4736639349
 11
-123.3710086751
 21
-28.2037425569
  0
LINE
  5
538
100
AcDbEntity
  8
RACCORDO
100
AcDbLine
 62
250
  6
CONTINUOUS
 10
-119.7098945876
 20
-40.2522487375
 11
-119.7092388924
 21
-40.2635890769
  0
LWPOLYLINE
  5
539
100
AcDbEntity
  8
RACCORDO
100
AcDbPolyline
 62
250
  6
CONTINUOUS
 90
3
 70
0
 10
-123.5417779214
 20
-26.1306765942
 10
-123.5411303677
 20
-26.1510583347
 10
-123.5396535989
 20
-26.1878572158
  0
LINE
  5
53A
100
AcDbEntity
  8
RACCORDO
100
AcDbLine
 62
250
  6
CONTINUOUS
 10
-123.5428148136
 20
-26.0865104121
 11
-123.5417779214
 21
-26.1306765942
  0
LINE
  5
53B
100
AcDbEntity
  8
RACCORDO
100
AcDbLine
 62
250
  6
CONTINUOUS
 10
-124.1341239578
 20
-24.6300045513
 11
-124.1336612833
 21
-24.6541851935
  0
LWPOLYLINE
  5
53C
100
AcDbEntity
  8
RACCORDO
100
AcDbPolyline
 62
250
  6
CONTINUOUS
 90
6
 70
0
 10
-124.1325783598
 20
-24.6990796695
 10
-124.1323576899
 20
-24.7109908314
 10
-124.1323094054
 20
-24.7154686432
 10
-124.1323090386
 20
-24.7188059501
 10
-124.1323533253
 20
-24.7208539581
 10
-124.1324422525
 20
-24.7214705659
  0
LINE
  5
53D
100
AcDbEntity
  8
RACCORDO
100
AcDbLine
 62
250
  6
CONTINUOUS
 10
-123.5530418032
 20
-25.3472021312
 11
-123.5469751278
 21
-25.6959952605
  0
LINE
  5
53E
100
AcDbEntity
  8
RACCORDO
100
AcDbLine
 62
250
  6
CONTINUOUS
 10
-123.5440077829
 20
-26.0132388603
 11
-123.5428148136
 21
-26.0865104121
  0
LINE
  5
53F
100
AcDbEntity
  8
RACCORDO
100
AcDbLine
 62
250
  6
CONTINUOUS
 10
-123.5469751278
 20
-25.6959952605
 11
-123.5461549282
 21
-25.7583251541
  0
LINE
  5
540
100
AcDbEntity
  8
RACCORDO
100
AcDbLine
 62
250
  6
CONTINUOUS
 10
-124.1346755034
 20
-24.5889658238
 11
-124.1341239578
 21
-24.6300045513
  0
LINE
  5
541
100
AcDbEntity
  8
RACCORDO
100
AcDbLine
 62
250
  6
CONTINUOUS
 10
-123.5559403452
 20
-25.0945342782
 11
-123.5530418032
 21
-25.3472021312
  0
LINE
  5
542
100
AcDbEntity
  8
RACCORDO
100
AcDbLine
 62
250
  6
CONTINUOUS
 10
-123.5448545229
 20
-25.9338277376
 11
-123.5440077829
 21
-26.0132388603
  0
LINE
  5
543
100
AcDbEntity
  8
RACCORDO
100
AcDbLine
 62
250
  6
CONTINUOUS
 10
-124.1352649782
 20
-24.5134231874
 11
-124.1346755034
 21
-24.5889658238
  0
LINE
  5
544
100
AcDbEntity
  8
RACCORDO
100
AcDbLine
 62
250
  6
CONTINUOUS
 10
-123.5461549282
 20
-25.7583251541
 11
-123.5448545229
 21
-25.9338277376
  0
LINE
  5
545
100
AcDbEntity
  8
RACCORDO
100
AcDbLine
 62
250
  6
CONTINUOUS
 10
-123.5585427712
 20
-24.6919818067
 11
-123.5559403452
 21
-25.0945342782
  0
LINE
  5
546
100
AcDbEntity
  8
RACCORDO
100
AcDbLine
 62
250
  6
CONTINUOUS
 10
-124.1356067152
 20
-24.4334966225
 11
-124.1352649782
 21
-24.5134231874
  0
LINE
  5
547
100
AcDbEntity
  8
RACCORDO
100
AcDbLine
 62
250
  6
CONTINUOUS
 10
-123.5619511514
 20
-21.8286301594
 11
-123.5566496769
 21
-23.0189270311
  0
LWPOLYLINE
  5
548
100
AcDbEntity
  8
RACCORDO
100
AcDbPolyline
 62
250
  6
CONTINUOUS
 90
3
 70
0
 10
-123.566687589
 20
-19.784265987
 10
-123.564785677
 20
-20.8225139375
 10
-123.5619511514
 20
-21.8286301594
  0
LINE
  5
549
100
AcDbEntity
  8
RACCORDO
100
AcDbLine
 62
250
  6
CONTINUOUS
 10
-123.559217437
 20
23.0876845925
 11
-123.5566679642
 21
22.4671082787
  0
LINE
  5
54A
100
AcDbEntity
  8
RACCORDO
100
AcDbLine
 62
250
  6
CONTINUOUS
 10
-123.5693511922
 20
-17.6116316748
 11
-123.566687589
 21
-19.784265987
  0
LINE
  5
54B
100
AcDbEntity
  8
RACCORDO
100
AcDbLine
 62
250
  6
CONTINUOUS
 10
-124.1395749012
 20
-23.7019015555
 11
-124.1356067152
 21
-24.4334966225
  0
LINE
  5
54C
100
AcDbEntity
  8
RACCORDO
100
AcDbLine
 62
250
  6
CONTINUOUS
 10
-124.1402441122
 20
-21.8394664796
 11
-124.1388258635
 21
-23.0358147938
  0
LINE
  5
54D
100
AcDbEntity
  8
RACCORDO
100
AcDbLine
 62
250
  6
CONTINUOUS
 10
-123.5754151996
 20
-10.3970736645
 11
-123.5693511922
 21
-17.6116316748
  0
LINE
  5
54E
100
AcDbEntity
  8
RACCORDO
100
AcDbLine
 62
250
  6
CONTINUOUS
 10
-124.1422397239
 20
-18.7169125671
 11
-124.1402441122
 21
-21.8394664796
  0
LINE
  5
54F
100
AcDbEntity
  8
RACCORDO
100
AcDbLine
 62
250
  6
CONTINUOUS
 10
-123.5804445733
 20
-0.5181658582
 11
-123.5754151996
 21
-10.3970736645
  0
LINE
  5
550
100
AcDbEntity
  8
RACCORDO
100
AcDbLine
 62
250
  6
CONTINUOUS
 10
-123.5566496769
 20
-23.0189270311
 11
-123.5562673762
 21
-23.3124946634
  0
LINE
  5
551
100
AcDbEntity
  8
0
100
AcDbLine
 62
7
  6
CONTINUOUS
 10
-124.3342432042
 20
-24.1190767749
 11
-124.3342432042
 21
23.0809232251
  0
LINE
  5
552
100
AcDbEntity
  8
RACCORDO
100
AcDbLine
 62
250
  6
CONTINUOUS
 10
-124.1454867499
 20
-0.5188584293
 11
-124.1422397239
 21
-18.7169125671
  0
LINE
  5
553
100
AcDbEntity
  8
RACCORDO
100
AcDbLine
 62
250
  6
CONTINUOUS
 10
-123.559313377
 20
-24.2166806908
 11
-123.5585427712
 21
-24.6919818067
  0
LINE
  5
554
100
AcDbEntity
  8
RACCORDO
100
AcDbLine
 62
250
  6
CONTINUOUS
 10
-123.5566679642
 20
22.4671082787
 11
-123.5563143924
 21
22.1348390211
  0
LINE
  5
555
100
AcDbEntity
  8
RACCORDO
100
AcDbLine
 62
250
  6
CONTINUOUS
 10
-124.1410944409
 20
19.7912994109
 11
-124.1454867499
 21
-0.5188584293
  0
LINE
  5
556
100
AcDbEntity
  8
RACCORDO
100
AcDbLine
 62
250
  6
CONTINUOUS
 10
-123.5736318894
 20
11.8852336475
 11
-123.5804437501
 21
-0.5181658587
  0
LINE
  5
557
100
AcDbEntity
  8
RACCORDO
100
AcDbLine
 62
250
  6
CONTINUOUS
 10
-123.5693503508
 20
16.5734176467
 11
-123.5736318894
 21
11.8852336475
  0
LWPOLYLINE
  5
558
100
AcDbEntity
  8
RACCORDO
100
AcDbPolyline
 62
250
  6
CONTINUOUS
 90
3
 70
0
 10
-124.1388258635
 20
-23.0358147938
 10
-124.1391031766
 20
-23.3048403291
 10
-124.1395749012
 20
-23.7019015555
  0
LINE
  5
559
100
AcDbEntity
  8
RACCORDO
100
AcDbLine
 62
250
  6
CONTINUOUS
 10
-124.1388494927
 20
21.9738558699
 11
-124.1410944409
 21
19.7912994109
  0
LWPOLYLINE
  5
55A
100
AcDbEntity
  8
RACCORDO
100
AcDbPolyline
 62
250
  6
CONTINUOUS
 90
4
 70
0
 10
-123.5619539932
 20
20.7905507136
 10
-123.5647862405
 20
19.784458075
 10
-123.566687562
 20
18.7462091979
 10
-123.5693503508
 20
16.5734176467
  0
LINE
  5
55B
100
AcDbEntity
  8
RACCORDO
100
AcDbLine
 62
250
  6
CONTINUOUS
 10
-123.558658362
 20
23.6234803551
 11
-123.559217437
 21
23.0876845925
  0
LINE
  5
55C
100
AcDbEntity
  8
RACCORDO
100
AcDbLine
 62
250
  6
CONTINUOUS
 10
-123.5563143924
 20
22.1348390211
 11
-123.5569508732
 21
21.8917299696
  0
LWPOLYLINE
  5
55D
100
AcDbEntity
  8
RACCORDO
100
AcDbPolyline
 62
250
  6
CONTINUOUS
 90
3
 70
0
 10
-123.5562673762
 20
-23.3124946634
 10
-123.556972668
 20
-23.5724258803
 10
-123.5573709043
 20
-23.6547551788
  0
LINE
  5
55E
100
AcDbEntity
  8
RACCORDO
100
AcDbLine
 62
250
  6
CONTINUOUS
 10
-123.5569508732
 20
21.8917299696
 11
-123.5619539932
 21
20.7905507136
  0
LINE
  5
55F
100
AcDbEntity
  8
RACCORDO
100
AcDbLine
 62
250
  6
CONTINUOUS
 10
-124.1385302987
 20
23.0316135834
 11
-124.1388494927
 21
21.9738558699
  0
LWPOLYLINE
  5
560
100
AcDbEntity
  8
RACCORDO
100
AcDbPolyline
 62
250
  6
CONTINUOUS
 90
3
 70
0
 10
-123.5573709043
 20
-23.6547551788
 10
-123.5581686017
 20
-23.8151603003
 10
-123.559313377
 20
-24.2166806908
  0
LINE
  5
561
100
AcDbEntity
  8
RACCORDO
100
AcDbLine
 62
250
  6
CONTINUOUS
 10
-124.1349299468
 20
23.5239525086
 11
-124.1358916766
 21
23.3514926838
  0
LINE
  5
562
100
AcDbEntity
  8
RACCORDO
100
AcDbLine
 62
250
  6
CONTINUOUS
 10
-123.5561683273
 20
24.0311502493
 11
-123.558658362
 21
23.6234803551
  0
LINE
  5
563
100
AcDbEntity
  8
RACCORDO
100
AcDbLine
 62
250
  6
CONTINUOUS
 10
-123.5448425843
 20
24.8975388575
 11
-123.5457743351
 21
24.7555922096
  0
LWPOLYLINE
  5
564
100
AcDbEntity
  8
RACCORDO
100
AcDbPolyline
 62
250
  6
CONTINUOUS
 90
4
 70
0
 10
-124.1358916766
 20
23.3514926838
 10
-124.136708437
 20
23.2678590548
 10
-124.1369054078
 20
23.2490180958
 10
-124.1385302987
 20
23.0316135834
  0
LINE
  5
565
100
AcDbEntity
  8
RACCORDO
100
AcDbLine
 62
250
  6
CONTINUOUS
 10
-124.1344396849
 20
23.5706548243
 11
-124.1349299468
 21
23.5239525086
  0
LINE
  5
566
100
AcDbEntity
  8
RACCORDO
100
AcDbLine
 62
250
  6
CONTINUOUS
 10
-123.5439466047
 20
24.9793488266
 11
-123.5448425843
 21
24.8975388575
  0
LINE
  5
567
100
AcDbEntity
  8
RACCORDO
100
AcDbLine
 62
250
  6
CONTINUOUS
 10
-123.5534166755
 20
24.2814708445
 11
-123.5561683273
 21
24.0311502493
  0
LINE
  5
568
100
AcDbEntity
  8
RACCORDO
100
AcDbLine
 62
250
  6
CONTINUOUS
 10
-123.5457743351
 20
24.7555922096
 11
-123.5468746275
 21
24.6650249966
  0
LINE
  5
569
100
AcDbEntity
  8
RACCORDO
100
AcDbLine
 62
250
  6
CONTINUOUS
 10
-123.5431322786
 20
25.0322388283
 11
-123.5439466047
 21
24.9793488266
  0
LINE
  5
56A
100
AcDbEntity
  8
RACCORDO
100
AcDbLine
 62
250
  6
CONTINUOUS
 10
-123.5503691077
 20
24.4734486806
 11
-123.5534166755
 21
24.2814708445
  0
LINE
  5
56B
100
AcDbEntity
  8
RACCORDO
100
AcDbLine
 62
250
  6
CONTINUOUS
 10
-124.1337028417
 20
23.6141274862
 11
-124.1344396849
 21
23.5706548243
  0
LWPOLYLINE
  5
56C
100
AcDbEntity
  8
RACCORDO
100
AcDbPolyline
 62
250
  6
CONTINUOUS
 90
3
 70
0
 10
-123.5468746275
 20
24.6650249966
 10
-123.5491051149
 20
24.5402758286
 10
-123.5503691077
 20
24.4734486806
  0
LWPOLYLINE
  5
56D
100
AcDbEntity
  8
RACCORDO
100
AcDbPolyline
 62
250
  6
CONTINUOUS
 90
5
 70
0
 10
-123.5395406973
 20
25.1512995448
 10
-123.5404944636
 20
25.128785337
 10
-123.5413533472
 20
25.1058402898
 10
-123.5420567723
 20
25.0823537293
 10
-123.5431322786
 20
25.0322388283
  0
LWPOLYLINE
  5
56E
100
AcDbEntity
  8
RACCORDO
100
AcDbPolyline
 62
250
  6
CONTINUOUS
 90
5
 70
0
 10
-119.7092388924
 20
39.225435527
 10
-119.7098969878
 20
39.2142482606
 10
-119.71079882
 20
39.1806723403
 10
-119.7118436038
 20
39.1247348564
 10
-119.7129323133
 20
39.0465478632
  0
LWPOLYLINE
  5
56F
100
AcDbEntity
  8
RACCORDO
100
AcDbPolyline
 62
250
  6
CONTINUOUS
 90
18
 70
0
 10
-120.8237890825
 20
38.5508826884
 10
-120.8238362588
 20
38.5504081269
 10
-120.8236449852
 20
38.5493457151
 10
-120.8231434804
 20
38.5478332249
 10
-120.8223204338
 20
38.5459037154
 10
-120.82117268
 20
38.5435949462
 10
-120.8197243624
 20
38.5409628507
 10
-120.8180044177
 20
38.5380566377
 10
-120.8160438513
 20
38.5349265832
 10
-120.8138797831
 20
38.5316205687
 10
-120.8115429721
 20
38.528171377
 10
-120.8090663097
 20
38.5246161181
 10
-120.8064807839
 20
38.5209862636
 10
-120.803806113
 20
38.5172967145
 10
-120.8010659231
 20
38.5135695866
 10
-120.7982820379
 20
38.5098282526
 10
-120.7954659184
 20
38.5060839985
 10
-120.7898026852
 20
38.4986598114
  0
LINE
  5
570
100
AcDbEntity
  8
DRAFT
100
AcDbLine
 62
7
  6
CONTINUOUS
 10
-115.0342432042
 20
-4.5190767749
 11
-115.7342432042
 21
-4.5190767749
  0
LINE
  5
571
100
AcDbEntity
  8
ASSI
100
AcDbLine
 62
7
  6
CONTINUOUS
 10
-118.2161779334
 20
-3.5190767749
 11
-118.3260005925
 21
-3.5190767749
  0
LINE
  5
572
100
AcDbEntity
  8
RACCORDO
100
AcDbLine
 62
250
  6
CONTINUOUS
 10
-118.3342432042
 20
-3.0190767749
 11
-118.2342432042
 21
-3.0190767749
  0
LWPOLYLINE
  5
573
100
AcDbEntity
  8
0
100
AcDbPolyline
 62
7
  6
CONTINUOUS
 90
4
 70
0
 43
0.3500000006
 10
-133.5128115234
 20
-2.8762191353
 10
-134.3699585266
 20
-2.8762191353
 10
-134.7985274963
 20
-2.4476478996
 10
-134.7985274963
 20
-1.8047910461
  0
LWPOLYLINE
  5
574
100
AcDbEntity
  8
RACCORDO
100
AcDbPolyline
 62
250
  6
CONTINUOUS
 90
6
 70
0
 10
-124.1324422525
 20
23.683317016
 10
-124.1323425246
 20
23.6823818146
 10
-124.1323087563
 20
23.6793524716
 10
-124.132340962
 20
23.6744182567
 10
-124.1324470785
 20
23.6677715969
 10
-124.1326191064
 20
23.6595940695
  0
LWPOLYLINE
  5
575
100
AcDbEntity
  8
RACCORDO
100
AcDbPolyline
 62
250
  6
CONTINUOUS
 90
5
 70
0
 10
-123.5354099806
 20
25.2671624032
 10
-123.5350972197
 20
25.2639139966
 10
-123.5350509595
 20
25.2566456775
 10
-123.5352814604
 20
25.245707818
 10
-123.53581611
 20
25.231226566
  0
LWPOLYLINE
  5
576
100
AcDbEntity
  8
RACCORDO
100
AcDbPolyline
 62
250
  6
CONTINUOUS
 90
4
 70
0
 10
-123.5396389987
 20
25.2807683002
 10
-123.5394662294
 20
25.2788612356
 10
-123.5382521265
 20
25.2747718123
 10
-123.5354022983
 20
25.2671618299
  0
LINE
  5
577
100
AcDbEntity
  8
RACCORDO
100
AcDbLine
 62
250
  6
CONTINUOUS
 10
-119.7260636956
 20
-37.0336465188
 11
-119.7192683332
 21
-37.2671748519
  0
LINE
  5
578
100
AcDbEntity
  8
RACCORDO
100
AcDbLine
 62
250
  6
CONTINUOUS
 10
-120.6659183183
 20
-37.1166045928
 11
-120.6566835726
 21
-37.4628864898
  0
LWPOLYLINE
  5
579
100
AcDbEntity
  8
RACCORDO
100
AcDbPolyline
 62
250
  6
CONTINUOUS
 90
3
 70
0
 10
-120.6566835726
 20
-37.4628864898
 10
-120.6528392242
 20
-37.6301108183
 10
-120.6495041672
 20
-37.7990064664
  0
LINE
  5
57A
100
AcDbEntity
  8
RACCORDO
100
AcDbLine
 62
250
  6
CONTINUOUS
 10
-119.7298652332
 20
-36.875078493
 11
-119.7260636956
 21
-37.0336465188
  0
LINE
  5
57B
100
AcDbEntity
  8
RACCORDO
100
AcDbLine
 62
250
  6
CONTINUOUS
 10
-120.6695286938
 20
-36.9497417735
 11
-120.6659183183
 21
-37.1166045928
  0
LWPOLYLINE
  5
57C
100
AcDbEntity
  8
RACCORDO
100
AcDbPolyline
 62
250
  6
CONTINUOUS
 90
3
 70
0
 10
-119.7118689509
 20
-40.1613000596
 10
-119.7108069947
 20
-40.2181654033
 10
-119.7098945876
 20
-40.2522487375
  0
LINE
  5
57D
100
AcDbEntity
  8
RACCORDO
100
AcDbLine
 62
250
  6
CONTINUOUS
 10
-119.7327640881
 20
-36.7249468619
 11
-119.7298652332
 21
-36.875078493
  0
LINE
  5
57E
100
AcDbEntity
  8
RACCORDO
100
AcDbLine
 62
250
  6
CONTINUOUS
 10
-120.6720978967
 20
-36.7926818534
 11
-120.6695286938
 21
-36.9497417735
  0
LINE
  5
57F
100
AcDbEntity
  8
RACCORDO
100
AcDbLine
 62
250
  6
CONTINUOUS
 10
-120.6495041672
 20
-37.7990064664
 11
-120.6442452651
 21
-38.1387113965
  0
LINE
  5
580
100
AcDbEntity
  8
RACCORDO
100
AcDbLine
 62
250
  6
CONTINUOUS
 10
-119.7348218838
 20
-36.5780557811
 11
-119.7327640881
 21
-36.7249468619
  0
LINE
  5
581
100
AcDbEntity
  8
RACCORDO
100
AcDbLine
 62
250
  6
CONTINUOUS
 10
-119.7140333925
 20
-39.9796665026
 11
-119.7118689509
 21
-40.1613000596
  0
LINE
  5
582
100
AcDbEntity
  8
RACCORDO
100
AcDbLine
 62
250
  6
CONTINUOUS
 10
-120.6442452651
 20
-38.1387113965
 11
-120.6408731377
 21
-38.4549269439
  0
LINE
  5
583
100
AcDbEntity
  8
RACCORDO
100
AcDbLine
 62
250
  6
CONTINUOUS
 10
-120.6736914111
 20
-36.6397961324
 11
-120.6720978967
 21
-36.7926818534
  0
LWPOLYLINE
  5
584
100
AcDbEntity
  8
RACCORDO
100
AcDbPolyline
 62
250
  6
CONTINUOUS
 90
3
 70
0
 10
-119.7717614727
 20
-32.3779278249
 10
-119.7704560492
 20
-32.5330667502
 10
-119.7679169204
 20
-32.831748992
  0
LWPOLYLINE
  5
585
100
AcDbEntity
  8
RACCORDO
100
AcDbPolyline
 62
250
  6
CONTINUOUS
 90
3
 70
0
 10
-119.7679169204
 20
-32.831748992
 10
-119.7366803113
 20
-36.3749001769
 10
-119.7348218838
 20
-36.5780557811
  0
LINE
  5
586
100
AcDbEntity
  8
RACCORDO
100
AcDbLine
 62
250
  6
CONTINUOUS
 10
-119.7744446524
 20
-32.0556857948
 11
-119.7717614727
 21
-32.3779278249
  0
LINE
  5
587
100
AcDbEntity
  8
RACCORDO
100
AcDbLine
 62
250
  6
CONTINUOUS
 10
-119.7772191029
 20
-31.716625606
 11
-119.7744446524
 21
-32.0556857948
  0
LINE
  5
588
100
AcDbEntity
  8
RACCORDO
100
AcDbLine
 62
250
  6
CONTINUOUS
 10
-119.7800807124
 20
-31.3601677335
 11
-119.7772191029
 21
-31.716625606
  0
LINE
  5
589
100
AcDbEntity
  8
RACCORDO
100
AcDbLine
 62
250
  6
CONTINUOUS
 10
-119.7830217954
 20
-30.9854898777
 11
-119.7800807124
 21
-31.3601677335
  0
LINE
  5
58A
100
AcDbEntity
  8
RACCORDO
100
AcDbLine
 62
250
  6
CONTINUOUS
 10
-119.7860313563
 20
-30.591701419
 11
-119.7830217954
 21
-30.9854898777
  0
LINE
  5
58B
100
AcDbEntity
  8
RACCORDO
100
AcDbLine
 62
250
  6
CONTINUOUS
 10
-119.7906554998
 20
-29.9635205472
 11
-119.7860313563
 21
-30.591701419
  0
LINE
  5
58C
100
AcDbEntity
  8
RACCORDO
100
AcDbLine
 62
250
  6
CONTINUOUS
 10
-119.8001506536
 20
-28.5581179996
 11
-119.7906554998
 21
-29.9635205472
  0
LINE
  5
58D
100
AcDbEntity
  8
RACCORDO
100
AcDbLine
 62
250
  6
CONTINUOUS
 10
-120.7137640717
 20
-30.9930364511
 11
-120.6744642477
 21
-36.4874377463
  0
LINE
  5
58E
100
AcDbEntity
  8
RACCORDO
100
AcDbLine
 62
250
  6
CONTINUOUS
 10
-120.7161614287
 20
-30.5990355857
 11
-120.7137640717
 21
-30.9930364511
  0
LINE
  5
58F
100
AcDbEntity
  8
RACCORDO
100
AcDbLine
 62
250
  6
CONTINUOUS
 10
-119.7158658309
 20
-39.7128022962
 11
-119.7140333925
 21
-39.9796665026
  0
LINE
  5
590
100
AcDbEntity
  8
RACCORDO
100
AcDbLine
 62
250
  6
CONTINUOUS
 10
-120.7198176854
 20
-29.9704964383
 11
-120.7161614287
 21
-30.5990355857
  0
LINE
  5
591
100
AcDbEntity
  8
RACCORDO
100
AcDbLine
 62
250
  6
CONTINUOUS
 10
-120.7235194471
 20
-29.293568111
 11
-120.7198176854
 21
-29.9704964383
  0
LINE
  5
592
100
AcDbEntity
  8
RACCORDO
100
AcDbLine
 62
250
  6
CONTINUOUS
 10
-120.6408731377
 20
-38.4549269439
 11
-120.6391606544
 21
-38.7346295937
  0
LINE
  5
593
100
AcDbEntity
  8
RACCORDO
100
AcDbLine
 62
250
  6
CONTINUOUS
 10
-119.8143875021
 20
-26.0150224997
 11
-119.8001506536
 21
-28.5581179996
  0
LINE
  5
594
100
AcDbEntity
  8
RACCORDO
100
AcDbLine
 62
250
  6
CONTINUOUS
 10
-120.728465937
 20
-28.3089075591
 11
-120.7235194471
 21
-29.293568111
  0
LINE
  5
595
100
AcDbEntity
  8
RACCORDO
100
AcDbLine
 62
250
  6
CONTINUOUS
 10
-120.6744642477
 20
-36.4874377463
 11
-120.6736914111
 21
-36.6397961324
  0
LINE
  5
596
100
AcDbEntity
  8
RACCORDO
100
AcDbLine
 62
250
  6
CONTINUOUS
 10
-119.8205795744
 20
-24.6889836683
 11
-119.8143875021
 21
-26.0150224997
  0
LINE
  5
597
100
AcDbEntity
  8
RACCORDO
100
AcDbLine
 62
250
  6
CONTINUOUS
 10
-120.7333590329
 20
-27.2211229614
 11
-120.728465937
 21
-28.3089075591
  0
LINE
  5
598
100
AcDbEntity
  8
RACCORDO
100
AcDbLine
 62
250
  6
CONTINUOUS
 10
-120.7369695099
 20
-26.3314356584
 11
-120.7333590329
 21
-27.2211229614
  0
LINE
  5
599
100
AcDbEntity
  8
RACCORDO
100
AcDbLine
 62
250
  6
CONTINUOUS
 10
-119.8266698044
 20
-23.2237316034
 11
-119.8205795744
 21
-24.6889836683
  0
LINE
  5
59A
100
AcDbEntity
  8
RACCORDO
100
AcDbLine
 62
250
  6
CONTINUOUS
 10
-119.7192683332
 20
-37.2671748519
 11
-119.7183901467
 21
-37.5077226978
  0
LINE
  5
59B
100
AcDbEntity
  8
RACCORDO
100
AcDbLine
 62
250
  6
CONTINUOUS
 10
-120.7405244342
 20
-25.3729782976
 11
-120.7369695099
 21
-26.3314356584
  0
LINE
  5
59C
100
AcDbEntity
  8
RACCORDO
100
AcDbLine
 62
250
  6
CONTINUOUS
 10
-120.7428715366
 20
-24.6932416164
 11
-120.7405244342
 21
-25.3729782976
  0
LINE
  5
59D
100
AcDbEntity
  8
RACCORDO
100
AcDbLine
 62
250
  6
CONTINUOUS
 10
-120.7463451893
 20
-23.6078204542
 11
-120.7428715366
 21
-24.6932416164
  0
LINE
  5
59E
100
AcDbEntity
  8
RACCORDO
100
AcDbLine
 62
250
  6
CONTINUOUS
 10
-119.7170920748
 20
-39.3694622794
 11
-119.7158658309
 21
-39.7128022962
  0
LINE
  5
59F
100
AcDbEntity
  8
RACCORDO
100
AcDbLine
 62
250
  6
CONTINUOUS
 10
-119.8363847509
 20
-20.2784866191
 11
-119.8266698044
 21
-23.2237316034
  0
LINE
  5
5A0
100
AcDbEntity
  8
RACCORDO
100
AcDbLine
 62
250
  6
CONTINUOUS
 10
-120.7496859775
 20
-22.4378974937
 11
-120.7463451893
 21
-23.6078204542
  0
LINE
  5
5A1
100
AcDbEntity
  8
RACCORDO
100
AcDbLine
 62
250
  6
CONTINUOUS
 10
-120.7537745015
 20
-20.73446659
 11
-120.7496859775
 21
-22.4378974937
  0
LINE
  5
5A2
100
AcDbEntity
  8
RACCORDO
100
AcDbLine
 62
250
  6
CONTINUOUS
 10
-119.8418568926
 20
-17.83299109
 11
-119.8363847509
 21
-20.2784866191
  0
LINE
  5
5A3
100
AcDbEntity
  8
RACCORDO
100
AcDbLine
 62
250
  6
CONTINUOUS
 10
-120.758004492
 20
-18.3492049233
 11
-120.7537745015
 21
-20.73446659
  0
LINE
  5
5A4
100
AcDbEntity
  8
RACCORDO
100
AcDbLine
 62
250
  6
CONTINUOUS
 10
-120.6394586239
 20
38.0373764085
 11
-120.6388638768
 21
37.829628376
  0
LINE
  5
5A5
100
AcDbEntity
  8
RACCORDO
100
AcDbLine
 62
250
  6
CONTINUOUS
 10
-119.8454508082
 20
-15.0562420222
 11
-119.8418568926
 21
-17.83299109
  0
LINE
  5
5A6
100
AcDbEntity
  8
RACCORDO
100
AcDbLine
 62
250
  6
CONTINUOUS
 10
-120.7612518948
 20
-15.057049467
 11
-120.758004492
 21
-18.3492049233
  0
LWPOLYLINE
  5
5A7
100
AcDbEntity
  8
RACCORDO
100
AcDbPolyline
 62
250
  6
CONTINUOUS
 90
4
 70
0
 10
-119.7183901467
 20
-37.5077226978
 10
-119.7178910376
 20
-38.0001419309
 10
-119.7179081171
 20
-38.2500297949
 10
-119.7170920748
 20
-39.3694622794
  0
LINE
  5
5A8
100
AcDbEntity
  8
RACCORDO
100
AcDbLine
 62
250
  6
CONTINUOUS
 10
-120.7619803214
 20
-13.2116067589
 11
-120.7612518948
 21
-15.057049467
  0
LINE
  5
5A9
100
AcDbEntity
  8
RACCORDO
100
AcDbLine
 62
250
  6
CONTINUOUS
 10
-119.8467891662
 20
-11.899338508
 11
-119.8454508082
 21
-15.0562420222
  0
LINE
  5
5AA
100
AcDbEntity
  8
RACCORDO
100
AcDbLine
 62
250
  6
CONTINUOUS
 10
-119.8436657737
 20
1.3785680483
 11
-119.8438199163
 21
-3.3245798335
  0
LINE
  5
5AB
100
AcDbEntity
  8
RACCORDO
100
AcDbLine
 62
250
  6
CONTINUOUS
 10
-120.7596266655
 20
-1.4780404767
 11
-120.7603143681
 21
-5.0731673149
  0
LWPOLYLINE
  5
5AC
100
AcDbEntity
  8
RACCORDO
100
AcDbPolyline
 62
250
  6
CONTINUOUS
 90
3
 70
0
 10
-120.7603143681
 20
-5.0731673149
 10
-120.7609001612
 20
-6.7324810443
 10
-120.7619803214
 20
-13.2116067589
  0
LINE
  5
5AD
100
AcDbEntity
  8
RACCORDO
100
AcDbLine
 62
250
  6
CONTINUOUS
 10
-120.7615116303
 20
13.530595296
 11
-120.7596266655
 21
-1.4780404767
  0
LINE
  5
5AE
100
AcDbEntity
  8
RACCORDO
100
AcDbLine
 62
250
  6
CONTINUOUS
 10
-119.8438199163
 20
-3.3245798335
 11
-119.8467891662
 21
-11.899338508
  0
LINE
  5
5AF
100
AcDbEntity
  8
RACCORDO
100
AcDbLine
 62
250
  6
CONTINUOUS
 10
-119.8458288081
 20
13.5299240416
 11
-119.8436657737
 21
1.3785680483
  0
LWPOLYLINE
  5
5B0
100
AcDbEntity
  8
RACCORDO
100
AcDbPolyline
 62
250
  6
CONTINUOUS
 90
9
 70
0
 10
-120.6391606544
 20
-38.7346295937
 10
-120.6389550752
 20
-38.9708727408
 10
-120.6394212819
 20
-39.0703487021
 10
-120.6402766147
 20
-39.1563784465
 10
-120.6415470491
 20
-39.2282701998
 10
-120.6432636621
 20
-39.2853890647
 10
-120.6454564042
 20
-39.3274385789
 10
-120.6481715688
 20
-39.3543599556
 10
-120.6514827724
 20
-39.3662640573
  0
LINE
  5
5B1
100
AcDbEntity
  8
RACCORDO
100
AcDbLine
 62
250
  6
CONTINUOUS
 10
-120.7591626688
 20
16.4198364791
 11
-120.7615116303
 21
13.530595296
  0
LINE
  5
5B2
100
AcDbEntity
  8
RACCORDO
100
AcDbLine
 62
250
  6
CONTINUOUS
 10
-119.8424971336
 20
16.4182697676
 11
-119.8458288081
 21
13.5299240416
  0
LINE
  5
5B3
100
AcDbEntity
  8
RACCORDO
100
AcDbLine
 62
250
  6
CONTINUOUS
 10
-120.7543287172
 20
19.4317002975
 11
-120.7591626688
 21
16.4198364791
  0
LINE
  5
5B4
100
AcDbEntity
  8
RACCORDO
100
AcDbLine
 62
250
  6
CONTINUOUS
 10
-119.7170512
 20
38.3478394945
 11
-119.7180780293
 21
36.7471595085
  0
LINE
  5
5B5
100
AcDbEntity
  8
RACCORDO
100
AcDbLine
 62
250
  6
CONTINUOUS
 10
-120.7491138772
 20
21.6113291653
 11
-120.7543287172
 21
19.4317002975
  0
LINE
  5
5B6
100
AcDbEntity
  8
RACCORDO
100
AcDbLine
 62
250
  6
CONTINUOUS
 10
-119.8358661449
 20
19.429030879
 11
-119.8424971336
 21
16.4182697676
  0
LINE
  5
5B7
100
AcDbEntity
  8
RACCORDO
100
AcDbLine
 62
250
  6
CONTINUOUS
 10
-119.7180780293
 20
36.7471595085
 11
-119.7192683332
 21
36.229021302
  0
LINE
  5
5B8
100
AcDbEntity
  8
RACCORDO
100
AcDbLine
 62
250
  6
CONTINUOUS
 10
-120.7420931985
 20
23.8848232407
 11
-120.7491138772
 21
21.6113291653
  0
LINE
  5
5B9
100
AcDbEntity
  8
RACCORDO
100
AcDbLine
 62
250
  6
CONTINUOUS
 10
-119.825811166
 20
22.4041627534
 11
-119.8358661449
 21
19.429030879
  0
LINE
  5
5BA
100
AcDbEntity
  8
RACCORDO
100
AcDbLine
 62
250
  6
CONTINUOUS
 10
-120.7310702712
 20
26.7074291944
 11
-120.7420931985
 21
23.8848232407
  0
LINE
  5
5BB
100
AcDbEntity
  8
RACCORDO
100
AcDbLine
 62
250
  6
CONTINUOUS
 10
-120.6388638768
 20
37.829628376
 11
-120.6397400345
 21
37.575372067
  0
LINE
  5
5BC
100
AcDbEntity
  8
RACCORDO
100
AcDbLine
 62
250
  6
CONTINUOUS
 10
-119.8115996024
 20
25.52688313
 11
-119.825811166
 21
22.4041627534
  0
LINE
  5
5BD
100
AcDbEntity
  8
RACCORDO
100
AcDbLine
 62
250
  6
CONTINUOUS
 10
-120.7209586716
 20
28.7284045356
 11
-120.7310702712
 21
26.7074291944
  0
LINE
  5
5BE
100
AcDbEntity
  8
RACCORDO
100
AcDbLine
 62
250
  6
CONTINUOUS
 10
-119.7149604999
 20
38.8256210885
 11
-119.7170512
 21
38.3478394945
  0
LINE
  5
5BF
100
AcDbEntity
  8
RACCORDO
100
AcDbLine
 62
250
  6
CONTINUOUS
 10
-120.7064618956
 20
31.0856858993
 11
-120.7209586716
 21
28.7284045356
  0
LINE
  5
5C0
100
AcDbEntity
  8
RACCORDO
100
AcDbLine
 62
250
  6
CONTINUOUS
 10
-119.7937186485
 20
28.490914401
 11
-119.8115996024
 21
25.52688313
  0
LINE
  5
5C1
100
AcDbEntity
  8
RACCORDO
100
AcDbLine
 62
250
  6
CONTINUOUS
 10
-119.7767751994
 20
30.7332561379
 11
-119.7937186485
 21
28.490914401
  0
LINE
  5
5C2
100
AcDbEntity
  8
RACCORDO
100
AcDbLine
 62
250
  6
CONTINUOUS
 10
-119.7379377968
 20
35.1905998544
 11
-119.7390387
 21
35.0671092152
  0
LINE
  5
5C3
100
AcDbEntity
  8
RACCORDO
100
AcDbLine
 62
250
  6
CONTINUOUS
 10
-119.7390387
 20
35.0671092152
 11
-119.7767751994
 21
30.7332561379
  0
LINE
  5
5C4
100
AcDbEntity
  8
RACCORDO
100
AcDbLine
 62
250
  6
CONTINUOUS
 10
-120.6397400345
 20
37.575372067
 11
-120.6421342573
 21
37.2822421423
  0
LINE
  5
5C5
100
AcDbEntity
  8
RACCORDO
100
AcDbLine
 62
250
  6
CONTINUOUS
 10
-119.7129323133
 20
39.0465478632
 11
-119.7149604999
 21
38.8256210885
  0
LINE
  5
5C6
100
AcDbEntity
  8
RACCORDO
100
AcDbLine
 62
250
  6
CONTINUOUS
 10
-119.7344873115
 20
35.5680146314
 11
-119.7379377968
 21
35.1905998544
  0
LINE
  5
5C7
100
AcDbEntity
  8
RACCORDO
100
AcDbLine
 62
250
  6
CONTINUOUS
 10
-120.6723350755
 20
35.7371755933
 11
-120.7064618956
 21
31.0856858993
  0
LWPOLYLINE
  5
5C8
100
AcDbEntity
  8
RACCORDO
100
AcDbPolyline
 62
250
  6
CONTINUOUS
 90
5
 70
0
 10
-120.6421342573
 20
37.2822421423
 10
-120.6462264274
 20
36.9583954056
 10
-120.6490146548
 20
36.7882076363
 10
-120.65236783
 20
36.6143183503
 10
-120.6563540209
 20
36.4379217805
  0
LINE
  5
5C9
100
AcDbEntity
  8
RACCORDO
100
AcDbLine
 62
250
  6
CONTINUOUS
 10
-119.7322020209
 20
35.7193978977
 11
-119.7344873115
 21
35.5680146314
  0
LINE
  5
5CA
100
AcDbEntity
  8
RACCORDO
100
AcDbLine
 62
250
  6
CONTINUOUS
 10
-120.6697679293
 20
35.8987600327
 11
-120.6723350755
 21
35.7371755933
  0
LINE
  5
5CB
100
AcDbEntity
  8
RACCORDO
100
AcDbLine
 62
250
  6
CONTINUOUS
 10
-119.7289863952
 20
35.876223579
 11
-119.7322020209
 21
35.7193978977
  0
LINE
  5
5CC
100
AcDbEntity
  8
RACCORDO
100
AcDbLine
 62
250
  6
CONTINUOUS
 10
-120.6660953127
 20
36.0711132617
 11
-120.6697679293
 21
35.8987600327
  0
LINE
  5
5CD
100
AcDbEntity
  8
RACCORDO
100
AcDbLine
 62
250
  6
CONTINUOUS
 10
-119.7247612499
 20
36.0440023243
 11
-119.7289863952
 21
35.876223579
  0
LINE
  5
5CE
100
AcDbEntity
  8
RACCORDO
100
AcDbLine
 62
250
  6
CONTINUOUS
 10
-120.6563540209
 20
36.4379217805
 11
-120.6660953127
 21
36.0711132617
  0
LINE
  5
5CF
100
AcDbEntity
  8
RACCORDO
100
AcDbLine
 62
250
  6
CONTINUOUS
 10
-119.7192683332
 20
36.229021302
 11
-119.7247612499
 21
36.0440023243
  0
LINE
  5
5D0
100
AcDbEntity
  8
RACCORDO
100
AcDbLine
 62
250
  6
CONTINUOUS
 10
-124.1454867438
 20
-0.5188584293
 11
-123.5804445733
 21
-0.5181658582
  0
LWPOLYLINE
  5
5D1
100
AcDbEntity
  8
0
100
AcDbPolyline
 62
7
  6
CONTINUOUS
 90
13
 70
0
 43
0.3500000006
 10
-133.9413895569
 20
-0.5190773392
 10
-135.2270964661
 20
-0.5190773392
 10
-135.6556744995
 20
-0.3047905884
 10
-136.0842434692
 20
0.1237806473
 10
-136.0842434692
 20
0.3380651321
 10
-135.6556744995
 20
0.7666386337
 10
-135.2270964661
 20
0.9809231186
 10
-133.9413895569
 20
0.9809231186
 10
-133.5128115234
 20
0.7666386337
 10
-133.0842425537
 20
0.3380651321
 10
-133.0842425537
 20
0.1237806473
 10
-133.5128115234
 20
-0.3047905884
 10
-133.9413895569
 20
-0.5190773392
  0
LINE
  5
5D2
100
AcDbEntity
  8
RACCORDO
100
AcDbLine
 62
250
  6
CONTINUOUS
 10
-119.8436490636
 20
-0.5187073359
 11
-122.8970226916
 21
-0.5194903876
  0
LINE
  5
5D3
100
AcDbEntity
  8
RACCORDO
100
AcDbLine
 62
250
  6
CONTINUOUS
 10
-122.8970226916
 20
-0.5194903876
 11
-123.5804443896
 21
-0.5192228946
  0
LINE
  5
5D4
100
AcDbEntity
  8
RACCORDO
100
AcDbLine
 62
7
  6
CONTINUOUS
 10
-118.3342432042
 20
2.2809232251
 11
-118.3342432042
 21
-3.3190767749
  0
LINE
  5
5D5
100
AcDbEntity
  8
RACCORDO
100
AcDbLine
 62
7
  6
CONTINUOUS
 10
-118.2342432042
 20
-3.2190767749
 11
-118.2342432042
 21
2.1809232251
  0
LINE
  5
5D6
100
AcDbEntity
  8
DRAFT
100
AcDbLine
 62
7
  6
CONTINUOUS
 10
-117.0342432042
 20
2.1809232251
 11
-117.0342432042
 21
-3.2190767749
  0
LINE
  5
5D7
100
AcDbEntity
  8
RACCORDO
100
AcDbLine
 62
250
  6
CONTINUOUS
 10
-118.2342432042
 20
1.9809232251
 11
-118.3342432042
 21
1.9809232251
  0
LINE
  5
5D8
100
AcDbEntity
  8
ASSI
100
AcDbLine
 62
7
  6
CONTINUOUS
 10
-118.3258957935
 20
2.4809232251
 11
-118.2161779334
 21
2.4809232251
  0
LINE
  5
5D9
100
AcDbEntity
  8
DRAFT
100
AcDbLine
 62
7
  6
CONTINUOUS
 10
-115.0342432042
 20
4.6809232251
 11
-115.0342432042
 21
3.4809232251
  0
LINE
  5
5DA
100
AcDbEntity
  8
DRAFT
100
AcDbLine
 62
7
  6
CONTINUOUS
 10
-115.0342432042
 20
-4.5190767749
 11
-115.0342432042
 21
-5.7190767749
  0
LINE
  5
5DB
100
AcDbEntity
  8
RACCORDO
100
AcDbLine
 62
7
  6
CONTINUOUS
 10
-114.8342432042
 20
-5.8190767749
 11
-114.8342432042
 21
-40.5190767749
  0
LINE
  5
5DC
100
AcDbEntity
  8
RACCORDO
100
AcDbLine
 62
7
  6
CONTINUOUS
 10
-114.8342432042
 20
4.7809232251
 11
-114.8342432042
 21
39.4809232251
  0
LWPOLYLINE
  5
5DD
100
AcDbEntity
  8
RACCORDO
100
AcDbPolyline
 62
7
  6
CONTINUOUS
 90
4
 70
0
 10
-123.5354033792
 20
-26.3053154605
 10
-123.5382624449
 20
-26.3129009201
 10
-123.5394720248
 20
-26.3170036503
 10
-123.5396390734
 20
-26.3189198558
  0
LINE
  5
5DE
100
AcDbEntity
  8
DRAFT
100
AcDbLine
 62
7
  6
CONTINUOUS
 10
-115.0342432042
 20
3.4809232251
 11
-115.7342432042
 21
3.4809232251
  0
LINE
  5
5DF
100
AcDbEntity
  8
RACCORDO
100
AcDbLine
 62
7
  6
CONTINUOUS
 10
-115.7342432042
 20
4.6809232251
 11
-115.0342432042
 21
4.6809232251
  0
LINE
  5
5E0
100
AcDbEntity
  8
RACCORDO
100
AcDbLine
 62
7
  6
CONTINUOUS
 10
-114.8342432042
 20
4.7809232251
 11
-115.8342432042
 21
4.7809232251
  0
LWPOLYLINE
  5
5E1
100
AcDbEntity
  8
RACCORDO
100
AcDbPolyline
 62
250
  6
CONTINUOUS
 90
7
 70
0
 10
-120.6514819898
 20
38.3281104277
 10
-120.6481920967
 20
38.3163481508
 10
-120.6454921279
 20
38.2897925946
 10
-120.6433088005
 20
38.2483927904
 10
-120.6415978538
 20
38.1922854689
 10
-120.6403256844
 20
38.121765593
 10
-120.6394586239
 20
38.0373764085
  0
LWPOLYLINE
  5
5E2
100
AcDbEntity
  8
RACCORDO
100
AcDbPolyline
 62
250
  6
CONTINUOUS
 90
12
 70
0
 10
-120.7561916232
 20
38.455467641
 10
-120.7516571141
 20
38.4479395373
 10
-120.7492042716
 20
38.4441243663
 10
-120.7466209069
 20
38.4404982243
 10
-120.7439638361
 20
38.436950015
 10
-120.7412758211
 20
38.4334709356
 10
-120.7386072654
 20
38.4302799824
 10
-120.7359618904
 20
38.4276966938
 10
-120.7333385403
 20
38.4256193208
 10
-120.7308209237
 20
38.4236875977
 10
-120.7284848579
 20
38.4215231984
 10
-120.7262697784
 20
38.4189945969
  0
LWPOLYLINE
  5
5E3
100
AcDbEntity
  8
RACCORDO
100
AcDbPolyline
 62
250
  6
CONTINUOUS
 90
12
 70
0
 10
-120.6515116227
 20
-39.3662669973
 10
-120.6534470524
 20
-39.3693146627
 10
-120.6551142556
 20
-39.3722717722
 10
-120.6564291578
 20
-39.3751428553
 10
-120.6573753795
 20
-39.3781066419
 10
-120.6580662482
 20
-39.3809793971
 10
-120.6586800526
 20
-39.3832191721
 10
-120.659349228
 20
-39.3844152214
 10
-120.6600806014
 20
-39.3849723919
 10
-120.6608550055
 20
-39.3855728188
 10
-120.661670484
 20
-39.3864457619
 10
-120.6634400895
 20
-39.3883138582
  0
LWPOLYLINE
  5
5E4
100
AcDbEntity
  8
RACCORDO
100
AcDbPolyline
 62
250
  6
CONTINUOUS
 90
14
 70
0
 10
-120.8058349882
 20
-39.5582461143
 10
-120.808423532
 20
-39.5618566323
 10
-120.8108944576
 20
-39.5654092935
 10
-120.8132452712
 20
-39.5688237728
 10
-120.8154291619
 20
-39.5721179647
 10
-120.8174072416
 20
-39.5752795384
 10
-120.8191811418
 20
-39.5781841034
 10
-120.8206991205
 20
-39.580838325
 10
-120.8219210165
 20
-39.5832422526
 10
-120.8228579709
 20
-39.5852628213
 10
-120.8234857714
 20
-39.5868691158
 10
-120.8237944503
 20
-39.5880958382
 10
-120.8238161456
 20
-39.5889085572
 10
-120.8237834439
 20
-39.5890358502
  0
LINE
  5
5E5
100
AcDbEntity
  8
RACCORDO
100
AcDbLine
 62
250
  6
CONTINUOUS
 10
-124.3342432042
 20
21.7809232251
 11
-124.1392237811
 21
21.7809232251
  0
LINE
  5
5E6
100
AcDbEntity
  8
RACCORDO
100
AcDbLine
 62
250
  6
CONTINUOUS
 10
-124.1392217657
 20
21.7809232251
 11
-123.927915965
 21
21.7768937587
  0
LWPOLYLINE
  5
5E7
100
AcDbEntity
  8
RACCORDO
100
AcDbPolyline
 62
250
  6
CONTINUOUS
 90
7
 70
0
 10
-123.927915965
 20
21.7768937587
 10
-123.7613862346
 20
21.7729328486
 10
-123.6958308829
 20
21.7709992178
 10
-123.642471776
 20
21.7691078175
 10
-123.6015365894
 20
21.7672666918
 10
-123.5731999878
 20
21.7654836704
 10
-123.5575828795
 20
21.7637663352
  0
LWPOLYLINE
  5
5E8
100
AcDbEntity
  8
RACCORDO
100
AcDbPolyline
 62
250
  6
CONTINUOUS
 90
3
 70
0
 10
-120.7607143775
 20
38.4618891066
 10
-120.7584211442
 20
38.4588079956
 10
-120.7561916232
 20
38.455467641
  0
LWPOLYLINE
  5
5E9
100
AcDbEntity
  8
RACCORDO
100
AcDbPolyline
 62
250
  6
CONTINUOUS
 90
3
 70
0
 10
-120.7976463185
 20
-39.5471319514
 10
-120.8004306103
 20
-39.5508594616
 10
-120.8058349882
 20
-39.5582461143
  0
LWPOLYLINE
  5
5EA
100
AcDbEntity
  8
RACCORDO
100
AcDbPolyline
 62
250
  6
CONTINUOUS
 90
3
 70
0
 10
-120.7891594116
 20
-39.5359779726
 10
-120.7919998792
 20
-39.5396755974
 10
-120.7976463185
 20
-39.5471319514
  0
LINE
  5
5EB
100
AcDbEntity
  8
RACCORDO
100
AcDbLine
 62
250
  6
CONTINUOUS
 10
-120.7835057747
 20
-39.528689656
 11
-120.7891594116
 21
-39.5359779726
  0
LINE
  5
5EC
100
AcDbEntity
  8
RACCORDO
100
AcDbLine
 62
250
  6
CONTINUOUS
 10
-120.764782602
 20
-39.5051147567
 11
-120.7672831873
 21
-39.508266313
  0
LWPOLYLINE
  5
5ED
100
AcDbEntity
  8
RACCORDO
100
AcDbPolyline
 62
250
  6
CONTINUOUS
 90
4
 70
0
 10
-120.7672831873
 20
-39.508266313
 10
-120.7725365465
 20
-39.5147734354
 10
-120.7752280632
 20
-39.5181517062
 10
-120.7835057747
 20
-39.528689656
  0
LINE
  5
5EE
100
AcDbEntity
  8
RACCORDO
100
AcDbLine
 62
250
  6
CONTINUOUS
 10
-120.7680742906
 20
38.4710063505
 11
-120.7607143775
 21
38.4618891066
  0
LWPOLYLINE
  5
5EF
100
AcDbEntity
  8
RACCORDO
100
AcDbPolyline
 62
250
  6
CONTINUOUS
 90
11
 70
0
 10
-120.7262697784
 20
38.4189945969
 10
-120.7218545275
 20
38.413438336
 10
-120.7194545797
 20
38.4105387046
 10
-120.7168997928
 20
38.4075384889
 10
-120.7142248079
 20
38.4044544717
 10
-120.7114179691
 20
38.4012549436
 10
-120.7084598424
 20
38.3979266792
 10
-120.7053863208
 20
38.3945169452
 10
-120.7022566848
 20
38.3910935465
 10
-120.6990723611
 20
38.3876519573
 10
-120.6927486838
 20
38.380903811
  0
LINE
  5
5F0
100
AcDbEntity
  8
RACCORDO
100
AcDbLine
 62
250
  6
CONTINUOUS
 10
-120.7786389362
 20
38.4843277094
 11
-120.7680742906
 21
38.4710063505
  0
LINE
  5
5F1
100
AcDbEntity
  8
RACCORDO
100
AcDbLine
 62
250
  6
CONTINUOUS
 10
-120.7841690972
 20
38.4913832391
 11
-120.7786389362
 21
38.4843277094
  0
LINE
  5
5F2
100
AcDbEntity
  8
RACCORDO
100
AcDbLine
 62
250
  6
CONTINUOUS
 10
-120.7898026852
 20
38.4986598114
 11
-120.7841690972
 21
38.4913832391
  0
LWPOLYLINE
  5
5F3
100
AcDbEntity
  8
0
100
AcDbPolyline
 62
7
  6
CONTINUOUS
 90
10
 70
0
 43
0.3500000006
 10
-119.69138974
 20
49.7690758667
 10
-119.6199585571
 20
49.6262180328
 10
-119.6199585571
 20
49.5547913818
 10
-119.7628118591
 20
49.411933548
 10
-119.834243042
 20
49.411933548
 10
-119.9056742249
 20
49.4833647308
 10
-119.9056742249
 20
49.5547913818
 10
-119.834243042
 20
49.6976492157
 10
-119.7628118591
 20
49.7690758667
 10
-119.69138974
 20
49.7690758667
  0
LWPOLYLINE
  5
5F4
100
AcDbEntity
  8
RACCORDO
100
AcDbPolyline
 62
250
  6
CONTINUOUS
 90
24
 70
0
 10
-120.7036784264
 20
-39.4308012156
 10
-120.7064666555
 20
-39.4338664164
 10
-120.7092737927
 20
-39.4369940363
 10
-120.7120454115
 20
-39.4401105117
 10
-120.7147510987
 20
-39.4432034662
 10
-120.7173919084
 20
-39.4462868141
 10
-120.7199611423
 20
-39.4493266597
 10
-120.7224366678
 20
-39.4523756508
 10
-120.7248303854
 20
-39.4553817413
 10
-120.7271912745
 20
-39.4581542912
 10
-120.7295879258
 20
-39.4604678751
 10
-120.7320764797
 20
-39.4625426406
 10
-120.734693532
 20
-39.4648554995
 10
-120.7374221349
 20
-39.4675733196
 10
-120.7401988328
 20
-39.4705320896
 10
-120.7429817162
 20
-39.4737119404
 10
-120.7456650755
 20
-39.4771633414
 10
-120.7482192739
 20
-39.4808414105
 10
-120.7507068033
 20
-39.4845842488
 10
-120.753101025
 20
-39.4884494978
 10
-120.7553903964
 20
-39.4923807901
 10
-120.757658147
 20
-39.4960470247
 10
-120.759980214
 20
-39.4992251327
 10
-120.764782602
 20
-39.5051147567
  0
LWPOLYLINE
  5
5F5
100
AcDbEntity
  8
RACCORDO
100
AcDbPolyline
 62
250
  6
CONTINUOUS
 90
3
 70
0
 10
-120.6955684987
 20
-39.4220510767
 10
-120.6981856242
 20
-39.4248558105
 10
-120.7036784264
 20
-39.4308012156
  0
LINE
  5
5F6
100
AcDbEntity
  8
RACCORDO
100
AcDbLine
 62
250
  6
CONTINUOUS
 10
-120.6634400895
 20
-39.3883138582
 11
-120.6673654313
 21
-39.3924977151
  0
LINE
  5
5F7
100
AcDbEntity
  8
RACCORDO
100
AcDbLine
 62
250
  6
CONTINUOUS
 10
-120.6906987834
 20
-39.4168958513
 11
-120.6955684987
 21
-39.4220510767
  0
LINE
  5
5F8
100
AcDbEntity
  8
RACCORDO
100
AcDbLine
 62
250
  6
CONTINUOUS
 10
-120.6863642683
 20
-39.4123458074
 11
-120.6906987834
 21
-39.4168958513
  0
LWPOLYLINE
  5
5F9
100
AcDbEntity
  8
RACCORDO
100
AcDbPolyline
 62
250
  6
CONTINUOUS
 90
3
 70
0
 10
-120.6673654313
 20
-39.3924977151
 10
-120.6791622395
 20
-39.404879008
 10
-120.6863642683
 20
-39.4123458074
  0
LWPOLYLINE
  5
5FA
100
AcDbEntity
  8
SCRITTA_VIMAR
100
AcDbPolyline
 62
250
  6
CONTINUOUS
 90
18
 70
0
 10
-123.2925303657
 20
-28.3612067749
 10
-123.2923005008
 20
-28.3611200471
 10
-123.2920866728
 20
-28.3608611312
 10
-123.2918935384
 20
-28.3604319204
 10
-123.2916494081
 20
-28.359472855
 10
-123.2914575376
 20
-28.3581407484
 10
-123.2913140629
 20
-28.3564414398
 10
-123.291218777
 20
-28.3543806742
 10
-123.2911721813
 20
-28.351963732
 10
-123.2911739525
 20
-28.3491941278
 10
-123.2912235865
 20
-28.3460753848
 10
-123.2913206786
 20
-28.3426128257
 10
-123.2914648496
 20
-28.3388122235
 10
-123.29165572
 20
-28.3346793509
 10
-123.2918930809
 20
-28.3302178381
 10
-123.2921774053
 20
-28.3254227449
 10
-123.2925093364
 20
-28.3202869885
 10
-123.2933185921
 20
-28.3089660823
  0
LWPOLYLINE
  5
5FB
100
AcDbEntity
  8
RACCORDO
100
AcDbPolyline
 62
250
  6
CONTINUOUS
 90
14
 70
0
 10
-120.6728902479
 20
38.3601293275
 10
-120.6711124789
 20
38.3583016388
 10
-120.6694560145
 20
38.3566527148
 10
-120.6679121295
 20
38.3550671025
 10
-120.6664517746
 20
38.353379625
 10
-120.6650775904
 20
38.3515920029
 10
-120.6637618338
 20
38.3500227964
 10
-120.6624317977
 20
38.3490661628
 10
-120.6610704759
 20
38.3486293612
 10
-120.659749103
 20
38.3477157713
 10
-120.6585378469
 20
38.3450561482
 10
-120.6571921453
 20
38.3403472261
 10
-120.6550941284
 20
38.3344432088
 10
-120.6515828388
 20
38.3281207023
  0
LINE
  5
5FC
100
AcDbEntity
  8
RACCORDO
100
AcDbLine
 62
250
  6
CONTINUOUS
 10
-120.6868197654
 20
38.3746579493
 11
-120.6790801099
 21
38.366657777
  0
LWPOLYLINE
  5
5FD
100
AcDbEntity
  8
RACCORDO
100
AcDbPolyline
 62
250
  6
CONTINUOUS
 90
3
 70
0
 10
-120.6790801099
 20
38.366657777
 10
-120.6768447886
 20
38.3643206848
 10
-120.6728902479
 20
38.3601293275
  0
LINE
  5
5FE
100
AcDbEntity
  8
RACCORDO
100
AcDbLine
 62
250
  6
CONTINUOUS
 10
-120.6927486838
 20
38.380903811
 11
-120.6868197654
 21
38.3746579493
  0
LWPOLYLINE
  5
5FF
100
AcDbEntity
  8
RACCORDO
100
AcDbPolyline
 62
7
  6
CONTINUOUS
 90
10
 70
0
 10
-120.0589539139
 20
39.1992131819
 10
-120.1800050498
 20
39.1695423893
 10
-120.2972940391
 20
39.1246479466
 10
-120.4090129939
 20
39.0647982418
 10
-120.5130055805
 20
38.9906960409
 10
-120.6069514111
 20
38.9036889774
 10
-120.6892160685
 20
38.8051071076
 10
-120.7583417935
 20
38.6964864706
 10
-120.8128525614
 20
38.5801040041
 10
-120.8237897554
 20
38.5508808452
  0
LWPOLYLINE
  5
600
100
AcDbEntity
  8
RACCORDO
100
AcDbPolyline
 62
250
  6
CONTINUOUS
 90
10
 70
0
 10
-119.709232497
 20
39.2253134661
 10
-119.8651109526
 20
39.2047622837
 10
-120.0158395289
 20
39.1600204896
 10
-120.1576901591
 20
39.0921947111
 10
-120.2871543605
 20
39.0029625262
 10
-120.401030011
 20
38.8945309717
 10
-120.4965005494
 20
38.7695819559
 10
-120.5712046404
 20
38.6312059233
 10
-120.623294579
 20
38.4828254172
 10
-120.6514819898
 20
38.3281104277
  0
LINE
  5
601
100
AcDbEntity
  8
RACCORDO
100
AcDbLine
 62
7
  6
CONTINUOUS
 10
-119.9361057362
 20
39.2135443914
 11
-120.0589539139
 21
39.1992131819
  0
LINE
  5
602
100
AcDbEntity
  8
RACCORDO
100
AcDbLine
 62
7
  6
CONTINUOUS
 10
-119.9396492397
 20
39.2133456639
 11
-119.9324226308
 21
39.2137375907
  0
LINE
  5
603
100
AcDbEntity
  8
RACCORDO
100
AcDbLine
 62
250
  6
CONTINUOUS
 10
-119.7192683332
 20
36.229021302
 11
-114.8342432042
 21
36.4850346208
  0
LINE
  5
604
100
AcDbEntity
  8
RACCORDO
100
AcDbLine
 62
7
  6
CONTINUOUS
 10
-119.9342120749
 20
39.2136451821
 11
-114.8342432042
 21
39.4809232251
  0
LWPOLYLINE
  5
605
100
AcDbEntity
  8
0
100
AcDbPolyline
 62
7
  6
CONTINUOUS
 90
8
 70
0
 43
0.3500000006
 10
-118.619958252
 20
49.2690757141
 10
-117.7628112488
 20
49.2690757141
 10
-117.3342422791
 20
49.6976492157
 10
-117.3342422791
 20
50.554791687
 10
-117.7628112488
 20
50.9833606567
 10
-118.619958252
 20
50.9833606567
 10
-118.619958252
 20
52.2690766296
 10
-117.3342422791
 20
52.2690766296
  0
LINE
  5
606
100
AcDbEntity
  8
RACCORDO
100
AcDbLine
 62
250
  6
CONTINUOUS
 10
-119.7192683332
 20
36.229021302
 11
-120.4101905959
 21
36.2515719959
  0
LWPOLYLINE
  5
607
100
AcDbEntity
  8
RACCORDO
100
AcDbPolyline
 62
250
  6
CONTINUOUS
 90
3
 70
0
 10
-120.4101905959
 20
36.2515719959
 10
-120.6326673092
 20
36.2593419992
 10
-120.6610850699
 20
36.2605048308
  0
ARC
  5
608
100
AcDbEntity
  8
0
100
AcDbCircle
 62
7
  6
CONTINUOUS
 10
77.3376692862
 20
-22.8190767749
 40
0.3
100
AcDbArc
 50
270.0
 51
360.0
  0
ARC
  5
609
100
AcDbEntity
  8
0
100
AcDbCircle
 62
7
  6
CONTINUOUS
 10
77.3376692862
 20
21.7809232251
 40
0.3
100
AcDbArc
 50
0.0
 51
90.0
  0
ARC
  5
60A
100
AcDbEntity
  8
0
100
AcDbCircle
 62
7
  6
CONTINUOUS
 10
-79.5623307138
 20
21.7809232251
 40
0.3
100
AcDbArc
 50
90.0
 51
180.0
  0
ARC
  5
60B
100
AcDbEntity
  8
0
100
AcDbCircle
 62
7
  6
CONTINUOUS
 10
-79.5623307138
 20
-22.8190767749
 40
0.3
100
AcDbArc
 50
180.0
 51
270.0
  0
ARC
  5
60C
100
AcDbEntity
  8
RACCORDO
100
AcDbCircle
 62
7
  6
CONTINUOUS
 10
-115.7342432042
 20
2.1809232251
 40
2.5
100
AcDbArc
 50
90.0
 51
180.0
  0
ARC
  5
60D
100
AcDbEntity
  8
RACCORDO
100
AcDbCircle
 62
7
  6
CONTINUOUS
 10
-115.7342432042
 20
-3.2190767749
 40
2.5
100
AcDbArc
 50
180.0
 51
270.0
  0
ARC
  5
60E
100
AcDbEntity
  8
RACCORDO
100
AcDbCircle
 62
7
  6
CONTINUOUS
 10
-115.8342432042
 20
2.2809232251
 40
2.5
100
AcDbArc
 50
90.0
 51
180.0
  0
ARC
  5
60F
100
AcDbEntity
  8
RACCORDO
100
AcDbCircle
 62
7
  6
CONTINUOUS
 10
-115.8342432042
 20
-3.3190767749
 40
2.5
100
AcDbArc
 50
180.0
 51
270.0
  0
ARC
  5
610
100
AcDbEntity
  8
DRAFT
100
AcDbCircle
 62
7
  6
CONTINUOUS
 10
-115.7342432042
 20
2.1809232251
 40
1.3
100
AcDbArc
 50
90.0
 51
180.0
  0
ARC
  5
611
100
AcDbEntity
  8
DRAFT
100
AcDbCircle
 62
7
  6
CONTINUOUS
 10
-115.7342432042
 20
-3.2190767749
 40
1.3
100
AcDbArc
 50
180.0
 51
270.0
  0
ARC
  5
612
100
AcDbEntity
  8
0
100
AcDbCircle
 62
7
  6
CONTINUOUS
 10
-123.3342432042
 20
23.0809232251
 40
1.0
100
AcDbArc
 50
142.9584666451
 51
180.0
  0
ARC
  5
613
100
AcDbEntity
  8
RACCORDO
100
AcDbCircle
 62
7
  6
CONTINUOUS
 10
-123.3342432042
 20
23.0809232251
 40
1.0
100
AcDbArc
 50
142.9584666451
 51
180.0
  0
ARC
  5
614
100
AcDbEntity
  8
0
100
AcDbCircle
 62
7
  6
CONTINUOUS
 10
-123.3342432042
 20
-24.1190767749
 40
1.0
100
AcDbArc
 50
180.0
 51
217.0415333549
  0
ARC
  5
615
100
AcDbEntity
  8
RACCORDO
100
AcDbCircle
 62
7
  6
CONTINUOUS
 10
-123.3342432042
 20
-24.1190767749
 40
1.0
100
AcDbArc
 50
180.0
 51
217.0415333549
  0
ARC
  5
616
100
AcDbEntity
  8
RACCORDO
100
AcDbCircle
 62
7
  6
CONTINUOUS
 10
-119.8742992492
 20
38.2154127343
 40
0.9999999952
100
AcDbArc
 50
100.5245615784
 51
160.7209380899
  0
ELLIPSE
  5
617
100
AcDbEntity
  8
RACCORDO
100
AcDbEllipse
 62
7
  6
CONTINUOUS
 10
-101.1082136758
 20
-37.514959737
 30
0.0
 11
2.1271387303
 21
2.1271387303
 31
0.0
 40
0.9972646886
 41
2.3575640181
 42
3.9256212891
  0
ELLIPSE
  5
618
100
AcDbEntity
  8
RACCORDO
100
AcDbEllipse
 62
7
  6
CONTINUOUS
 10
98.8835522482
 20
-37.514959737
 30
0.0
 11
2.1271387303
 21
-2.1271387303
 31
0.0
 40
0.9972646886
 41
-0.7840286355
 42
0.7840286355
  0
ELLIPSE
  5
619
100
AcDbEntity
  8
RACCORDO
100
AcDbEllipse
 62
7
  6
CONTINUOUS
 10
98.8835522482
 20
36.4768061871
 30
0.0
 11
2.1271387303
 21
2.1271387303
 31
0.0
 40
0.9972646886
 41
-0.7840286355
 42
0.7840286355
  0
ELLIPSE
  5
61A
100
AcDbEntity
  8
RACCORDO
100
AcDbEllipse
 62
7
  6
CONTINUOUS
 10
-101.1082136758
 20
36.4768061871
 30
0.0
 11
2.1271387303
 21
-2.1271387303
 31
0.0
 40
0.9972646886
 41
2.3575640181
 42
3.9256212891
  0
ELLIPSE
  5
61B
100
AcDbEntity
  8
RACCORDO
100
AcDbEllipse
 62
7
  6
CONTINUOUS
 10
-104.0599229345
 20
-3.3190767749
 30
0.0
 11
0.0
 21
2.5
 31
0.0
 40
0.0524077793
 41
-3.1415926536
 42
-1.5707963268
  0
ELLIPSE
  5
61C
100
AcDbEntity
  8
RACCORDO
100
AcDbEllipse
 62
7
  6
CONTINUOUS
 10
101.8352615069
 20
-3.3190767749
 30
0.0
 11
-0.0
 21
2.5
 31
0.0
 40
0.0524077793
 41
1.5707963268
 42
3.1415926536
  0
ELLIPSE
  5
61D
100
AcDbEntity
  8
RACCORDO
100
AcDbEllipse
 62
7
  6
CONTINUOUS
 10
-104.0599229345
 20
2.2809232251
 30
0.0
 11
-0.0
 21
2.5
 31
0.0
 40
0.0524077793
 41
-1.5707963268
 42
0.0
  0
ELLIPSE
  5
61E
100
AcDbEntity
  8
RACCORDO
100
AcDbEllipse
 62
7
  6
CONTINUOUS
 10
101.8352615069
 20
2.2809232251
 30
0.0
 11
0.0
 21
2.5
 31
0.0
 40
0.0524077793
 41
-0.0
 42
1.5707963268
  0
ENDSEC
  0
SECTION
  2
OBJECTS
  0
DICTIONARY
  5
C
100
AcDbDictionary
280
0
281
1
  3
ACAD_GROUP
350
D
  3
ACAD_MLINESTYLE
350
17
  3
ACAD_LAYOUT
350
1A
  3
ACAD_PLOTSETTINGS
350
19
  3
ACAD_PLOTSTYLENAME
350
E
  0
DICTIONARY
  5
D
102
{ACAD_REACTORS
330
C
102
}
100
AcDbDictionary
280
0
281
1
  0
ACDBDICTIONARYWDFLT
  5
E
102
{ACAD_REACTORS
330
C
102
}
100
AcDbDictionary
281
1
  3
Normal
350
F
100
AcDbDictionaryWithDefault
340
F
  0
DICTIONARY
  5
17
102
{ACAD_REACTORS
330
C
102
}
100
AcDbDictionary
280
0
281
1
  3
Standard
350
18
  0
DICTIONARY
  5
19
102
{ACAD_REACTORS
330
C
102
}
100
AcDbDictionary
281
1
  0
DICTIONARY
  5
1A
102
{ACAD_REACTORS
330
C
102
}
100
AcDbDictionary
281
1
  3
Model
350
61F
  3
Layout1
350
620
  0
ACDBPLACEHOLDER
  5
F
102
{ACAD_REACTORS
330
E
102
}
  0
MLINESTYLE
  5
18
102
{ACAD_REACTORS
330
17
102
}
100
AcDbMlineStyle
  2
STANDARD
 70
0
  3

 62
256
 51
90.0
 52
90.0
 71
2
 49
0.5
 62
256
  6
BYLAYER
 49
-0.5
 62
256
  6
BYLAYER
  0
LAYOUT
  5
61F
102
{ACAD_REACTORS
330
1A
102
}
100
AcDbPlotSettings
  1

  2
none_device
  4
ISO_A4_(297.00_x_210.00_MM)
  6

 40
0.0
 41
0.0
 42
0.0
 43
0.0
 44
297.0
 45
210.0
 46
0.0
 47
0.0
 48
0.0
 49
0.0
140
0.0
141
0.0
142
1.0
143
1.0
 70
1024
 72
1
 73
0
 74
0
  7

 75
0
147
1.0
148
0.0
149
0.0
100
AcDbLayout
  1
Model
 70
0
 71
0
 10
0.0
 20
0.0
 11
297.0
 21
210.0
 12
0.0
 22
0.0
 32
0.0
 14
0.0
 24
0.0
 34
0.0
 15
0.0
 25
0.0
 35
0.0
146
0.0
 13
0.0
 23
0.0
 33
0.0
 16
1.0
 26
0.0
 36
0.0
 17
0.0
 27
1.0
 37
0.0
 76
0
330
20F
345
0
346
0
  0
LAYOUT
  5
620
102
{ACAD_REACTORS
330
1A
102
}
100
AcDbPlotSettings
  1

  2
none_device
  4
ISO_A4_(297.00_x_210.00_MM)
  6

 40
0.0
 41
0.0
 42
0.0
 43
0.0
 44
297.0
 45
210.0
 46
0.0
 47
0.0
 48
0.0
 49
0.0
140
0.0
141
0.0
142
1.0
143
1.0
 70
0
 72
1
 73
0
 74
0
  7

 75
0
147
1.0
148
0.0
149
0.0
100
AcDbLayout
  1
Layout1
 70
0
 71
1
 10
0.0
 20
0.0
 11
297.0
 21
210.0
 12
0.0
 22
0.0
 32
0.0
 14
0.0
 24
0.0
 34
0.0
 15
0.0
 25
0.0
 35
0.0
146
0.0
 13
0.0
 23
0.0
 33
0.0
 16
1.0
 26
0.0
 36
0.0
 17
0.0
 27
1.0
 37
0.0
 76
0
330
210
345
0
346
0
  0
ENDSEC
  0
EOF
