  0
SECTION
  2
HEADER
  9
$ACADVER
  1
AC1024
  9
$DWGCODEPAGE
  3
ANSI_1252
  9
$EXTMAX
 10
297.0
 20
210.0
 30
0.0
  9
$EXTMIN
 10
0.0
 20
0.0
 30
0.0
  9
$LIMMIN
 10
0.0
 20
0.0
  9
$LIMMAX
 10
297.0
 20
210.0
  9
$VIEWCTR
 10
148.5
 20
105.0
  9
$VIEWSIZE
 40
210.0
  9
$CLAYER
  8
0
  9
$LTSCALE
 40
16.335
  9
$CELTYPE
  6
BYLAYER
  9
$DIMSCALE
 40
1.0
  9
$DIMASZ
 40
3.0
  9
$DIMEXO
 40
0.5
  9
$DIMDLI
 40
11.286
  9
$DIMEXE
 40
1.5
  9
$DIMCEN
 40
2.673
  9
$DIMLFAC
 40
1.0
  9
$DIMBLK
  1
_FILLED
  9
$DIMALT
 70
0
  9
$DIMALTF
 40
0.0393700787
  9
$DIMTXT
 40
3.0
  9
$DIMTOL
 70
1
  9
$DIMLIM
 70
0
  9
$DIMTFAC
 40
1.0
  9
$DIMTP
 40
0.01
  9
$DIMTM
 40
0.01
  9
$DIMGAP
 40
0.625
  9
$DIMDSEP
 70
44
  9
$AUNITS
 70
0
  9
$PDMODE
 70
3
  9
$PDSIZE
 40
3.0
  9
$HANDSEED
  5
611
  9
$TILEMODE
 70
1
  9
$MEASUREMENT
 70
1
  9
$INSUNITS
 70
4
  0
ENDSEC
  0
SECTION
  2
CLASSES
  0
CLASS
  1
ACDBDICTIONARYWDFLT
  2
AcDbDictionaryWithDefault
  3
AutoCAD 2000
 90
0
 91
1
280
0
281
0
  0
CLASS
  1
ACDBPLACEHOLDER
  2
AcDbPlaceHolder
  3
AutoCAD 2000
 90
0
 91
1
280
0
281
0
  0
CLASS
  1
LAYOUT
  2
AcDbLayout
  3
AutoCAD 2000
 90
0
 91
0
280
0
281
0
  0
ENDSEC
  0
SECTION
  2
TABLES
  0
TABLE
  2
VPORT
  5
8
100
AcDbSymbolTable
 70
2
  0
VPORT
  5
1F4
100
AcDbSymbolTableRecord
100
AcDbViewportTableRecord
  2
*ACTIVE
 70
0
 10
0.0
 20
0.0
 11
1.0
 21
1.0
 12
148.5
 22
105.0
 13
0.0
 23
0.0
 14
1.0
 24
1.0
 15
0.0
 25
0.0
 16
0.0
 26
0.0
 36
1.0
 17
0.0
 27
0.0
 37
0.0
 40
210.0
 41
1.4142857143
 42
50.0
 43
0.0
 44
0.0
 50
0.0
 51
0.0
 71
0
 72
100
 73
1
 74
1
 75
0
 76
0
 77
0
 78
0
  0
ENDTAB
  0
TABLE
  2
LTYPE
  5
5
100
AcDbSymbolTable
 70
6
  0
LTYPE
  5
14
100
AcDbSymbolTableRecord
100
AcDbLinetypeTableRecord
  2
BYBLOCK
 70
0
  3

 72
65
 73
0
 40
0.0
  0
LTYPE
  5
15
100
AcDbSymbolTableRecord
100
AcDbLinetypeTableRecord
  2
BYLAYER
 70
0
  3

 72
65
 73
0
 40
0.0
  0
LTYPE
  5
16
100
AcDbSymbolTableRecord
100
AcDbLinetypeTableRecord
  2
CONTINUOUS
 70
64
  3
Solid line
 72
65
 73
0
 40
0.0
  0
LTYPE
  5
1F5
100
AcDbSymbolTableRecord
100
AcDbLinetypeTableRecord
  2
CENTER
 70
64
  3
____ _ ____ _ ____ _ ____ _ ____ _ ____ _ ____
 72
65
 73
4
 40
0.6
 49
0.375
 74
0
 49
-0.075
 74
0
 49
0.075
 74
0
 49
-0.075
 74
0
  0
LTYPE
  5
1F6
100
AcDbSymbolTableRecord
100
AcDbLinetypeTableRecord
  2
HIDDEN
 70
64
  3
- - - - - - - - - - - - - - - - - - - -
 72
65
 73
2
 40
0.2
 49
0.1
 74
0
 49
-0.1
 74
0
  0
LTYPE
  5
1F7
100
AcDbSymbolTableRecord
100
AcDbLinetypeTableRecord
  2
PHANTOM
 70
64
  3
_____ _ _ _____ _ _ _____ _ _ _____
 72
65
 73
6
 40
0.8
 49
0.45
 74
0
 49
-0.05
 74
0
 49
0.1
 74
0
 49
-0.05
 74
0
 49
0.1
 74
0
 49
-0.05
 74
0
  0
LTYPE
  5
1F8
100
AcDbSymbolTableRecord
100
AcDbLinetypeTableRecord
  2
DOT
 70
64
  3
. . . . . . . . . . . . . . . . . . . .
 72
65
 73
2
 40
0.2
 49
0.1
 74
0
 49
-0.1
 74
0
  0
LTYPE
  5
1F9
100
AcDbSymbolTableRecord
100
AcDbLinetypeTableRecord
  2
DASHED
 70
64
  3
- - - - - - - - - - - - - - - - - - - -
 72
65
 73
2
 40
0.2
 49
0.1
 74
0
 49
-0.1
 74
0
  0
ENDTAB
  0
TABLE
  2
LAYER
  5
2
100
AcDbSymbolTable
 70
36
  0
LAYER
  5
10
100
AcDbSymbolTableRecord
100
AcDbLayerTableRecord
  2
0
 70
0
 62
7
  6
CONTINUOUS
370
-3
390
F
  0
LAYER
  5
1FA
100
AcDbSymbolTableRecord
100
AcDbLayerTableRecord
  2
DEFAULT_1
 70
0
 62
7
  6
CENTER
370
-3
390
F
  0
LAYER
  5
1FB
100
AcDbSymbolTableRecord
100
AcDbLayerTableRecord
  2
DEFAULT_2
 70
0
 62
7
  6
HIDDEN
370
-3
390
F
  0
LAYER
  5
1FC
100
AcDbSymbolTableRecord
100
AcDbLayerTableRecord
  2
DEFAULT_3
 70
0
 62
7
  6
PHANTOM
370
-3
390
F
  0
LAYER
  5
1FD
100
AcDbSymbolTableRecord
100
AcDbLayerTableRecord
  2
ASSI
 70
0
 62
7
  6
CONTINUOUS
370
-3
390
F
  0
LAYER
  5
1FE
100
AcDbSymbolTableRecord
100
AcDbLayerTableRecord
  2
COLOR16
 70
0
 62
7
  6
CONTINUOUS
370
-3
390
F
  0
LAYER
  5
1FF
100
AcDbSymbolTableRecord
100
AcDbLayerTableRecord
  2
COLOR5
 70
0
 62
7
  6
CONTINUOUS
370
-3
390
F
  0
LAYER
  5
200
100
AcDbSymbolTableRecord
100
AcDbLayerTableRecord
  2
COORDINATE
 70
0
 62
7
  6
CONTINUOUS
370
-3
390
F
  0
LAYER
  5
201
100
AcDbSymbolTableRecord
100
AcDbLayerTableRecord
  2
COORD_ORIGINE
 70
0
 62
7
  6
CONTINUOUS
370
-3
390
F
  0
LAYER
  5
202
100
AcDbSymbolTableRecord
100
AcDbLayerTableRecord
  2
CURVE
 70
0
 62
7
  6
CONTINUOUS
370
-3
390
F
  0
LAYER
  5
203
100
AcDbSymbolTableRecord
100
AcDbLayerTableRecord
  2
DRAFT
 70
0
 62
7
  6
CONTINUOUS
370
-3
390
F
  0
LAYER
  5
204
100
AcDbSymbolTableRecord
100
AcDbLayerTableRecord
  2
ESTRATTORI
 70
0
 62
7
  6
CONTINUOUS
370
-3
390
F
  0
LAYER
  5
205
100
AcDbSymbolTableRecord
100
AcDbLayerTableRecord
  2
IGES
 70
0
 62
7
  6
CONTINUOUS
370
-3
390
F
  0
LAYER
  5
206
100
AcDbSymbolTableRecord
100
AcDbLayerTableRecord
  2
INTF_1
 70
0
 62
7
  6
CONTINUOUS
370
-3
390
F
  0
LAYER
  5
207
100
AcDbSymbolTableRecord
100
AcDbLayerTableRecord
  2
INTF_7
 70
0
 62
7
  6
CONTINUOUS
370
-3
390
F
  0
LAYER
  5
208
100
AcDbSymbolTableRecord
100
AcDbLayerTableRecord
  2
INTF_RED
 70
0
 62
7
  6
CONTINUOUS
370
-3
390
F
  0
LAYER
  5
209
100
AcDbSymbolTableRecord
100
AcDbLayerTableRecord
  2
NOTE
 70
0
 62
7
  6
CONTINUOUS
370
-3
390
F
  0
LAYER
  5
20A
100
AcDbSymbolTableRecord
100
AcDbLayerTableRecord
  2
PIANI
 70
0
 62
7
  6
CONTINUOUS
370
-3
390
F
  0
LAYER
  5
20B
100
AcDbSymbolTableRecord
100
AcDbLayerTableRecord
  2
PIANI_ORIGINE
 70
0
 62
7
  6
CONTINUOUS
370
-3
390
F
  0
LAYER
  5
20C
100
AcDbSymbolTableRecord
100
AcDbLayerTableRecord
  2
PLACCA
 70
0
 62
7
  6
CONTINUOUS
370
-3
390
F
  0
LAYER
  5
20D
100
AcDbSymbolTableRecord
100
AcDbLayerTableRecord
  2
PUNTI
 70
0
 62
7
  6
CONTINUOUS
370
-3
390
F
  0
LAYER
  5
20E
100
AcDbSymbolTableRecord
100
AcDbLayerTableRecord
  2
RACCORDO
 70
0
 62
7
  6
CONTINUOUS
370
-3
390
F
  0
LAYER
  5
20F
100
AcDbSymbolTableRecord
100
AcDbLayerTableRecord
  2
RGB__255__255__255__
 70
0
 62
7
  6
CONTINUOUS
370
-3
390
F
  0
LAYER
  5
210
100
AcDbSymbolTableRecord
100
AcDbLayerTableRecord
  2
RGB____0____0____0__
 70
0
 62
7
  6
CONTINUOUS
370
-3
390
F
  0
LAYER
  5
211
100
AcDbSymbolTableRecord
100
AcDbLayerTableRecord
  2
SMUSSO
 70
0
 62
7
  6
CONTINUOUS
370
-3
390
F
  0
LAYER
  5
212
100
AcDbSymbolTableRecord
100
AcDbLayerTableRecord
  2
SNAPLINE
 70
0
 62
7
  6
CONTINUOUS
370
-3
390
F
  0
LAYER
  5
213
100
AcDbSymbolTableRecord
100
AcDbLayerTableRecord
  2
SUPERFICI
 70
0
 62
7
  6
CONTINUOUS
370
-3
390
F
  0
LAYER
  5
214
100
AcDbSymbolTableRecord
100
AcDbLayerTableRecord
  2
SUPPORTO
 70
0
 62
7
  6
CONTINUOUS
370
-3
390
F
  0
LAYER
  5
215
100
AcDbSymbolTableRecord
100
AcDbLayerTableRecord
  2
TEMP
 70
0
 62
7
  6
CONTINUOUS
370
-3
390
F
  0
LAYER
  5
216
100
AcDbSymbolTableRecord
100
AcDbLayerTableRecord
  2
TRASH
 70
0
 62
7
  6
CONTINUOUS
370
-3
390
F
  0
LAYER
  5
217
100
AcDbSymbolTableRecord
100
AcDbLayerTableRecord
  2
XSEC_DATUMS
 70
0
 62
7
  6
CONTINUOUS
370
-3
390
F
  0
ENDTAB
  0
TABLE
  2
STYLE
  5
3
100
AcDbSymbolTable
 70
1
  0
STYLE
  5
11
100
AcDbSymbolTableRecord
100
AcDbTextStyleTableRecord
  2
STANDARD
 70
0
 40
0.0
 41
0.8
 50
0.0
 71
0
 42
0.2
  3
txt
  4

  0
STYLE
  5
218
100
AcDbSymbolTableRecord
100
AcDbTextStyleTableRecord
  2
TEXTSTYLE_1
 70
0
 40
0.0
 41
0.8
 50
0.0
 71
0
 42
0.2
  3
gdt
  4

  0
ENDTAB
  0
TABLE
  2
VIEW
  5
6
100
AcDbSymbolTable
 70
0
  0
ENDTAB
  0
TABLE
  2
UCS
  5
7
100
AcDbSymbolTable
 70
0
  0
ENDTAB
  0
TABLE
  2
APPID
  5
9
100
AcDbSymbolTable
 70
1
  0
APPID
  5
219
100
AcDbSymbolTableRecord
100
AcDbRegAppTableRecord
  2
ACAD
 70
0
  0
ENDTAB
  0
TABLE
  2
BLOCK_RECORD
  5
1
100
AcDbSymbolTable
 70
0
  0
BLOCK_RECORD
  5
21A
100
AcDbSymbolTableRecord
100
AcDbBlockTableRecord
  2
*Model_Space
  0
BLOCK_RECORD
  5
21B
100
AcDbSymbolTableRecord
100
AcDbBlockTableRecord
  2
*Paper_Space
  0
BLOCK_RECORD
  5
21C
100
AcDbSymbolTableRecord
100
AcDbBlockTableRecord
  2
_FILLED
  0
BLOCK_RECORD
  5
21D
100
AcDbSymbolTableRecord
100
AcDbBlockTableRecord
  2
*D0
  0
BLOCK_RECORD
  5
21E
100
AcDbSymbolTableRecord
100
AcDbBlockTableRecord
  2
*D1
  0
BLOCK_RECORD
  5
21F
100
AcDbSymbolTableRecord
100
AcDbBlockTableRecord
  2
*D2
  0
ENDTAB
  0
TABLE
  2
DIMSTYLE
  5
A
100
AcDbSymbolTable
 70
1
100
AcDbDimStyleTable
 71
0
  0
DIMSTYLE
105
220
100
AcDbSymbolTableRecord
100
AcDbDimStyleTableRecord
  2
STANDARD
 70
0
  3

  4

 40
1.0
 41
3.0
 42
0.5
 43
0.38
 44
1.5
 45
0.0
 46
0.0
 47
0.01
 48
0.01
140
3.0
141
0.09
142
0.0
143
25.4
144
1.0
145
0.0
146
1.0
147
0.625
 71
1
 72
0
 73
0
 74
0
 75
0
 76
0
 77
1
 78
8
 79
2
170
0
171
1
172
0
173
0
174
0
175
0
176
0
177
0
178
0
270
2
179
2
271
2
272
2
273
2
274
2
275
0
280
0
281
0
282
0
283
1
284
8
285
0
286
0
287
3
288
0
340
11
278
44
341
21C
342
21C
343
21C
344
21C
  0
DIMSTYLE
105
221
100
AcDbSymbolTableRecord
100
AcDbDimStyleTableRecord
  2
DIMSTYLE_1
 70
0
  3

  4

 40
1.0
 41
3.0
 42
0.5
 43
0.38
 44
1.5
 45
0.0
 46
0.0
 47
0.0
 48
0.0
140
3.0
141
0.09
142
0.0
143
25.4
144
1.0
145
0.0
146
1.0
147
0.75
 71
0
 72
0
 73
0
 74
0
 75
0
 76
0
 77
1
 78
8
 79
2
170
0
171
1
172
0
173
0
174
0
175
0
176
0
177
0
178
0
270
2
179
2
271
1
272
1
273
2
274
2
275
0
280
0
281
0
282
0
283
1
284
8
285
0
286
0
287
3
288
0
340
11
278
44
341
21C
342
21C
343
21C
344
21C
  0
DIMSTYLE
105
222
100
AcDbSymbolTableRecord
100
AcDbDimStyleTableRecord
  2
DIMSTYLE_2
 70
0
  3

  4

 40
1.0
 41
3.0
 42
0.5
 43
0.38
 44
1.5
 45
0.0
 46
0.0
 47
0.0
 48
0.0
140
3.0
141
0.09
142
0.0
143
25.4
144
1.0
145
0.0
146
1.0
147
0.75
 71
0
 72
0
 73
0
 74
0
 75
0
 76
0
 77
1
 78
8
 79
2
170
0
171
1
172
0
173
0
174
0
175
0
176
0
177
0
178
0
270
2
179
2
271
2
272
2
273
2
274
2
275
0
280
0
281
0
282
0
283
1
284
8
285
0
286
0
287
3
288
0
340
11
278
44
341
21C
342
21C
343
21C
344
21C
  0
ENDTAB
  0
ENDSEC
  0
SECTION
  2
BLOCKS
  0
BLOCK
  5
20
100
AcDbEntity
  8
0
100
AcDbBlockBegin
  2
*Model_Space
 70
0
 10
0.0
 20
0.0
 30
0.0
  3
*Model_Space
  1

  0
ENDBLK
  5
21
100
AcDbEntity
  8
0
100
AcDbBlockEnd
  0
BLOCK
  5
1C
100
AcDbEntity
  8
0
100
AcDbBlockBegin
  2
*Paper_Space
 70
0
 10
0.0
 20
0.0
 30
0.0
  3
*Paper_Space
  1

  0
ENDBLK
  5
1D
100
AcDbEntity
  8
0
100
AcDbBlockEnd
  0
BLOCK
  5
223
100
AcDbEntity
  8
0
100
AcDbBlockBegin
  2
_FILLED
 70
64
 10
0.0
 20
0.0
  3
_FILLED
  1

  0
SOLID
  5
224
100
AcDbEntity
  8
0
  6
BYBLOCK
 62
0
100
AcDbTrace
 10
0.0
 20
0.0
 11
-1.0
 21
0.3166666667
 12
-1.0
 22
-0.3166666667
 13
-1.0
 23
-0.3166666667
  0
ENDBLK
  5
225
100
AcDbEntity
  8
0
  6
BYBLOCK
 62
0
100
AcDbBlockEnd
  0
BLOCK
  5
226
100
AcDbEntity
  8
0
100
AcDbBlockBegin
 62
7
  6
CONTINUOUS
  2
*D0
 70
65
 10
0.0
 20
0.0
  3
*D0
  1

  0
LINE
  5
227
100
AcDbEntity
  8
0
100
AcDbLine
 62
7
  6
CONTINUOUS
 10
-103.05892912
 20
37.541498446
 11
-103.05892912
 21
57.0
  0
LINE
  5
228
100
AcDbEntity
  8
0
100
AcDbLine
 62
7
  6
CONTINUOUS
 10
103.05892912
 20
37.541498446
 11
103.05892912
 21
57.0
  0
LINE
  5
229
100
AcDbEntity
  8
0
100
AcDbLine
 62
7
  6
CONTINUOUS
 10
-103.05892912
 20
55.5
 11
-0.0
 21
55.5
  0
LINE
  5
22A
100
AcDbEntity
  8
0
100
AcDbLine
 62
7
  6
CONTINUOUS
 10
103.05892912
 20
55.5
 11
-0.0
 21
55.5
  0
INSERT
  5
22B
100
AcDbEntity
  8
0
100
AcDbBlockReference
 62
7
  6
CONTINUOUS
  2
_FILLED
 10
-103.05892912
 20
55.5
 41
3.0
 42
3.0
 43
3.0
 50
180.0
  0
INSERT
  5
22C
100
AcDbEntity
  8
0
100
AcDbBlockReference
 62
7
  6
CONTINUOUS
  2
_FILLED
 10
103.05892912
 20
55.5
 41
3.0
 42
3.0
 43
3.0
  0
ENDBLK
  5
22D
100
AcDbEntity
  8
0
  6
BYBLOCK
 62
0
100
AcDbBlockEnd
  0
BLOCK
  5
22E
100
AcDbEntity
  8
0
100
AcDbBlockBegin
 62
7
  6
CONTINUOUS
  2
*D1
 70
65
 10
0.0
 20
0.0
  3
*D1
  1

  0
LINE
  5
22F
100
AcDbEntity
  8
0
100
AcDbLine
 62
7
  6
CONTINUOUS
 10
-130.5797077311
 20
22.7383359429
 11
-130.5786948191
 21
57.0001359311
  0
LINE
  5
230
100
AcDbEntity
  8
0
100
AcDbLine
 62
7
  6
CONTINUOUS
 10
-121.3834661161
 20
39.5068917719
 11
-121.3829489558
 21
56.9998640691
  0
LINE
  5
231
100
AcDbEntity
  8
0
100
AcDbLine
 62
7
  6
CONTINUOUS
 10
-130.5787391649
 20
55.5001359317
 11
-134.5787391632
 21
55.5002541873
  0
LINE
  5
232
100
AcDbEntity
  8
0
100
AcDbLine
 62
7
  6
CONTINUOUS
 10
-134.5787391632
 20
55.5002541873
 11
-125.9808662333
 21
55.5000000007
  0
LINE
  5
233
100
AcDbEntity
  8
0
100
AcDbLine
 62
7
  6
CONTINUOUS
 10
-121.3829933016
 20
55.4998640697
 11
-117.3829933034
 21
55.4997458142
  0
LINE
  5
234
100
AcDbEntity
  8
0
100
AcDbLine
 62
7
  6
CONTINUOUS
 10
-117.3829933034
 20
55.4997458142
 11
-125.9808662333
 21
55.5000000007
  0
INSERT
  5
235
100
AcDbEntity
  8
0
100
AcDbBlockReference
 62
7
  6
CONTINUOUS
  2
_FILLED
 10
-130.5787391649
 20
55.5001359317
 41
3.0
 42
3.0
 43
3.0
 50
359.998306114
  0
INSERT
  5
236
100
AcDbEntity
  8
0
100
AcDbBlockReference
 62
7
  6
CONTINUOUS
  2
_FILLED
 10
-121.3829933016
 20
55.4998640697
 41
3.0
 42
3.0
 43
3.0
 50
179.998306114
  0
ENDBLK
  5
237
100
AcDbEntity
  8
0
  6
BYBLOCK
 62
0
100
AcDbBlockEnd
  0
BLOCK
  5
238
100
AcDbEntity
  8
0
100
AcDbBlockBegin
 62
7
  6
CONTINUOUS
  2
*D2
 70
65
 10
0.0
 20
0.0
  3
*D2
  1

  0
LINE
  5
239
100
AcDbEntity
  8
0
100
AcDbLine
 62
7
  6
CONTINUOUS
 10
-122.083480898
 20
39.9999877898
 11
-141.1991170666
 21
39.9999877898
  0
LINE
  5
23A
100
AcDbEntity
  8
0
100
AcDbLine
 62
7
  6
CONTINUOUS
 10
-122.083480898
 20
-39.9999877898
 11
-141.1991170666
 21
-39.9999877898
  0
LINE
  5
23B
100
AcDbEntity
  8
0
100
AcDbLine
 62
7
  6
CONTINUOUS
 10
-139.6991170666
 20
39.9999877898
 11
-139.6991170666
 21
-0.0
  0
LINE
  5
23C
100
AcDbEntity
  8
0
100
AcDbLine
 62
7
  6
CONTINUOUS
 10
-139.6991170666
 20
-39.9999877898
 11
-139.6991170666
 21
-0.0
  0
INSERT
  5
23D
100
AcDbEntity
  8
0
100
AcDbBlockReference
 62
7
  6
CONTINUOUS
  2
_FILLED
 10
-139.6991170666
 20
39.9999877898
 41
3.0
 42
3.0
 43
3.0
 50
90.0
  0
INSERT
  5
23E
100
AcDbEntity
  8
0
100
AcDbBlockReference
 62
7
  6
CONTINUOUS
  2
_FILLED
 10
-139.6991170666
 20
-39.9999877898
 41
3.0
 42
3.0
 43
3.0
 50
270.0
  0
ENDBLK
  5
23F
100
AcDbEntity
  8
0
  6
BYBLOCK
 62
0
100
AcDbBlockEnd
  0
ENDSEC
  0
SECTION
  2
ENTITIES
  0
DIMENSION
  5
240
100
AcDbEntity
  8
0
100
AcDbDimension
 62
7
  6
CONTINUOUS
  2
*D0
 10
103.05892912
 20
55.5
 11
-5.25
 21
55.5
 70
160
 71
2
 72
2
 41
0.9
 42
206.11785824
  3
DIMSTYLE_1
100
AcDbAlignedDimension
 13
-103.05892912
 23
37.041498446
 14
103.05892912
 24
37.041498446
100
AcDbRotatedDimension
  0
DIMENSION
  5
241
100
AcDbEntity
  8
0
100
AcDbDimension
 62
7
  6
CONTINUOUS
  2
*D1
 10
-121.3829933016
 20
55.4998640697
 11
-129.1951496077
 21
55.5000950274
 70
160
 71
2
 72
2
 41
0.9
 42
9.1957458673
  3
DIMSTYLE_2
100
AcDbAlignedDimension
 13
-130.5797225131
 23
22.2383359431
 14
-121.383480898
 24
39.0068917721
 50
359.998306114
100
AcDbRotatedDimension
  0
DIMENSION
  5
242
100
AcDbEntity
  8
0
100
AcDbDimension
 62
7
  6
CONTINUOUS
  2
*D2
 10
-139.6991170666
 20
-39.9999877898
 11
-139.6991170666
 21
-2.3571428571
 70
160
 71
2
 72
2
 41
0.9
 42
79.9999755795
  3
DIMSTYLE_2
100
AcDbAlignedDimension
 13
-121.583480898
 23
39.9999877898
 14
-121.583480898
 24
-39.9999877898
 50
270.0
100
AcDbRotatedDimension
  0
LINE
  5
243
100
AcDbEntity
  8
0
100
AcDbLine
 62
7
  6
CONTINUOUS
 10
-103.05892912
 20
37.041498446
 11
-103.05892912
 21
3.7099727925
  0
LINE
  5
244
100
AcDbEntity
  8
0
100
AcDbLine
 62
7
  6
CONTINUOUS
 10
-103.05892912
 20
-3.7099727925
 11
-103.05892912
 21
-37.041498446
  0
LINE
  5
245
100
AcDbEntity
  8
0
100
AcDbLine
 62
7
  6
CONTINUOUS
 10
-102.9331504497
 20
3.5
 11
-102.9331504497
 21
-3.5
  0
LWPOLYLINE
  5
246
100
AcDbEntity
  8
SUPERFICI
100
AcDbPolyline
 62
7
  6
CONTINUOUS
 90
13
 70
0
 10
-78.9850916715
 20
-22.2248808178
 10
-78.9822182016
 20
-22.2694231858
 10
-78.9735887094
 20
-22.3134407732
 10
-78.9592639699
 20
-22.3561801181
 10
-78.9393820324
 20
-22.3969313199
 10
-78.914217359
 20
-22.4349147197
 10
-78.8842300794
 20
-22.469328139
 10
-78.8498839921
 20
-22.4995779513
 10
-78.8117805326
 20
-22.5250806133
 10
-78.7708069585
 20
-22.5452643243
 10
-78.7277883449
 20
-22.5598184118
 10
-78.6834104781
 20
-22.568601148
 10
-78.6384424532
 20
-22.5715300361
  0
LWPOLYLINE
  5
247
100
AcDbEntity
  8
SUPERFICI
100
AcDbPolyline
 62
7
  6
CONTINUOUS
 90
16
 70
0
 10
-80.5740338012
 20
-22.235697173
 10
-80.5636509645
 20
-22.4326296399
 10
-80.5326479681
 20
-22.6302589199
 10
-80.4812423408
 20
-22.8253407605
 10
-80.4099742107
 20
-23.0139148779
 10
-80.3190880334
 20
-23.1936260606
 10
-80.2095895873
 20
-23.3636535693
 10
-80.0820451498
 20
-23.522529209
 10
-79.9388668622
 20
-23.6667755593
 10
-79.7802383485
 20
-23.7959803439
 10
-79.6087630033
 20
-23.9083096853
 10
-79.4259861171
 20
-24.001498117
 10
-79.2343326209
 20
-24.0743087305
 10
-79.036929863
 20
-24.1266146122
 10
-78.837403444
 20
-24.1581276475
 10
-78.6391021566
 20
-24.1686709627
  0
LWPOLYLINE
  5
248
100
AcDbEntity
  8
SUPERFICI
100
AcDbPolyline
 62
7
  6
CONTINUOUS
 90
5
 70
0
 10
-82.2485280381
 20
-22.2182230635
 10
-82.2532421647
 20
-21.9406561342
 10
-82.2562552422
 20
-21.664988968
 10
-82.2577713705
 20
-21.3913618577
 10
-82.2577905343
 20
-21.1198066078
  0
LWPOLYLINE
  5
249
100
AcDbEntity
  8
SUPERFICI
100
AcDbPolyline
 62
7
  6
CONTINUOUS
 90
7
 70
0
 10
-82.255541048
 20
-18.3998709546
 10
-82.2563269455
 20
-18.3308901814
 10
-82.2555116813
 20
-18.274235475
 10
-82.253879421
 20
-18.2222561267
 10
-82.2525255223
 20
-18.1651590265
 10
-82.2518073655
 20
-18.0996790126
 10
-82.2511631581
 20
-17.9533683283
  0
LWPOLYLINE
  5
24A
100
AcDbEntity
  8
SUPERFICI
100
AcDbPolyline
 62
7
  6
CONTINUOUS
 90
3
 70
0
 10
-82.2564637324
 20
20.8501344062
 10
-82.2496749341
 20
20.0517389636
 10
-82.2489014516
 20
19.7906610082
  0
LINE
  5
24B
100
AcDbEntity
  8
SUPERFICI
100
AcDbLine
 62
7
  6
CONTINUOUS
 10
-82.2520895662
 20
-17.2283029099
 11
-82.2563827527
 21
-16.4912943415
  0
LINE
  5
24C
100
AcDbEntity
  8
SUPERFICI
100
AcDbLine
 62
7
  6
CONTINUOUS
 10
-82.2518073655
 20
18.0996790126
 11
-82.2511631581
 21
17.9533683283
  0
LINE
  5
24D
100
AcDbEntity
  8
SUPERFICI
100
AcDbLine
 62
7
  6
CONTINUOUS
 10
-82.2511631581
 20
-17.9533683283
 11
-82.2520895662
 21
-17.2283029099
  0
LINE
  5
24E
100
AcDbEntity
  8
SUPERFICI
100
AcDbLine
 62
7
  6
CONTINUOUS
 10
-80.5740338012
 20
-22.235697173
 11
-80.5740338012
 21
22.235697173
  0
LINE
  5
24F
100
AcDbEntity
  8
SUPERFICI
100
AcDbLine
 62
7
  6
CONTINUOUS
 10
-82.2569159727
 20
16.242787947
 11
-82.2548733103
 21
14.4969094241
  0
LINE
  5
250
100
AcDbEntity
  8
SUPERFICI
100
AcDbLine
 62
7
  6
CONTINUOUS
 10
-82.2563827527
 20
-16.4912943415
 11
-82.2569414002
 21
-15.7419314932
  0
LWPOLYLINE
  5
251
100
AcDbEntity
  8
SUPERFICI
100
AcDbPolyline
 62
7
  6
CONTINUOUS
 90
18
 70
0
 10
-82.2489014603
 20
-19.7906610117
 10
-82.2497879245
 20
-19.3735964602
 10
-82.2486786281
 20
-19.3012867977
 10
-82.2471466255
 20
-19.2263441124
 10
-82.2466415262
 20
-19.1579133119
 10
-82.2484421458
 20
-19.1025939963
 10
-82.2513270403
 20
-19.0537869985
 10
-82.2529989173
 20
-19.0008396043
 10
-82.2519172551
 20
-18.9366900259
 10
-82.2495818211
 20
-18.8684088215
 10
-82.2482643319
 20
-18.8065379259
 10
-82.2492837821
 20
-18.7565244954
 10
-82.2513662256
 20
-18.7129167646
 10
-82.2529136246
 20
-18.6699047036
 10
-82.2530604756
 20
-18.628587234
 10
-82.2526697178
 20
-18.5878708562
 10
-82.2527147271
 20
-18.5386558267
 10
-82.255541048
 20
-18.3998709546
  0
LINE
  5
252
100
AcDbEntity
  8
SUPERFICI
100
AcDbLine
 62
7
  6
CONTINUOUS
 10
-82.2511631581
 20
17.9533683283
 11
-82.2520895662
 21
17.2283029099
  0
LINE
  5
253
100
AcDbEntity
  8
SUPERFICI
100
AcDbLine
 62
7
  6
CONTINUOUS
 10
-82.2548733103
 20
14.4969094241
 11
-82.2581207305
 21
11.9488570462
  0
LWPOLYLINE
  5
254
100
AcDbEntity
  8
SUPERFICI
100
AcDbPolyline
 62
7
  6
CONTINUOUS
 90
3
 70
0
 10
-82.25694139
 20
-15.7419315048
 10
-82.2558449073
 20
-15.3290532014
 10
-82.2581207305
 20
-11.9488570462
  0
LINE
  5
255
100
AcDbEntity
  8
SUPERFICI
100
AcDbLine
 62
7
  6
CONTINUOUS
 10
-82.2496749341
 20
-20.0517389636
 11
-82.2489014516
 21
-19.7906610082
  0
LWPOLYLINE
  5
256
100
AcDbEntity
  8
SUPERFICI
100
AcDbPolyline
 62
7
  6
CONTINUOUS
 90
18
 70
0
 10
-82.2489014603
 20
19.7906610117
 10
-82.2498680417
 20
19.4381168762
 10
-82.2497879245
 20
19.3735964602
 10
-82.2486786281
 20
19.3012867977
 10
-82.2471466255
 20
19.2263441124
 10
-82.2466415262
 20
19.1579133119
 10
-82.2484421458
 20
19.1025939963
 10
-82.2513270403
 20
19.0537869985
 10
-82.2529989173
 20
19.0008396043
 10
-82.2519172551
 20
18.9366900259
 10
-82.2495818211
 20
18.8684088215
 10
-82.2482643319
 20
18.8065379259
 10
-82.2492837821
 20
18.7565244954
 10
-82.2513662256
 20
18.7129167646
 10
-82.2529136246
 20
18.6699047036
 10
-82.2530604756
 20
18.628587234
 10
-82.2526697178
 20
18.5878708562
 10
-82.2527147271
 20
18.5386558267
  0
LINE
  5
257
100
AcDbEntity
  8
SUPERFICI
100
AcDbLine
 62
7
  6
CONTINUOUS
 10
-82.2520895662
 20
17.2283029099
 11
-82.2569159727
 21
16.242787947
  0
LINE
  5
258
100
AcDbEntity
  8
SUPERFICI
100
AcDbLine
 62
7
  6
CONTINUOUS
 10
-82.2577905343
 20
-21.1198066078
 11
-82.2496749341
 21
-20.0517389636
  0
LWPOLYLINE
  5
259
100
AcDbEntity
  8
SUPERFICI
100
AcDbPolyline
 62
7
  6
CONTINUOUS
 90
6
 70
0
 10
-82.2485280381
 20
22.2182230635
 10
-82.2532421647
 20
21.9406561342
 10
-82.2562552422
 20
21.664988968
 10
-82.2577713705
 20
21.3913618577
 10
-82.2577905343
 20
21.1198066078
 10
-82.2564637324
 20
20.8501344062
  0
LWPOLYLINE
  5
25A
100
AcDbEntity
  8
SUPERFICI
100
AcDbPolyline
 62
7
  6
CONTINUOUS
 90
7
 70
0
 10
-82.2527147271
 20
18.5386558267
 10
-82.255541048
 20
18.3998709546
 10
-82.2563269455
 20
18.3308901814
 10
-82.2555116813
 20
18.274235475
 10
-82.253879421
 20
18.2222561267
 10
-82.2525255223
 20
18.1651590265
 10
-82.2518073655
 20
18.0996790126
  0
LWPOLYLINE
  5
25B
100
AcDbEntity
  8
SUPERFICI
100
AcDbPolyline
 62
7
  6
CONTINUOUS
 90
16
 70
0
 10
-80.5740338012
 20
22.235697173
 10
-80.5636509645
 20
22.4326296399
 10
-80.5326479681
 20
22.6302589199
 10
-80.4812423408
 20
22.8253407605
 10
-80.4099742107
 20
23.0139148779
 10
-80.3190880334
 20
23.1936260606
 10
-80.2095895873
 20
23.3636535693
 10
-80.0820451498
 20
23.522529209
 10
-79.9388668622
 20
23.6667755593
 10
-79.7802383485
 20
23.7959803439
 10
-79.6087630033
 20
23.9083096853
 10
-79.4259861171
 20
24.001498117
 10
-79.2343326209
 20
24.0743087305
 10
-79.036929863
 20
24.1266146122
 10
-78.837403444
 20
24.1581276475
 10
-78.6391021566
 20
24.1686709627
  0
LWPOLYLINE
  5
25C
100
AcDbEntity
  8
SUPERFICI
100
AcDbPolyline
 62
7
  6
CONTINUOUS
 90
13
 70
0
 10
-78.9850916715
 20
22.2248808178
 10
-78.9822182016
 20
22.2694231858
 10
-78.9735887094
 20
22.3134407732
 10
-78.9592639699
 20
22.3561801181
 10
-78.9393820324
 20
22.3969313199
 10
-78.914217359
 20
22.4349147197
 10
-78.8842300794
 20
22.469328139
 10
-78.8498839921
 20
22.4995779513
 10
-78.8117805326
 20
22.5250806133
 10
-78.7708069585
 20
22.5452643243
 10
-78.7277883449
 20
22.5598184118
 10
-78.6834104781
 20
22.568601148
 10
-78.6384424532
 20
22.5715300361
  0
LWPOLYLINE
  5
25D
100
AcDbEntity
  8
SUPERFICI
100
AcDbPolyline
 62
7
  6
CONTINUOUS
 90
10
 70
0
 10
-82.0613346938
 20
23.3261887012
 10
-82.0993169258
 20
23.2183067448
 10
-82.1317459499
 20
23.105928724
 10
-82.159529614
 20
22.989483875
 10
-82.1840949643
 20
22.8695488327
 10
-82.20587691
 20
22.7464328038
 10
-82.2235728772
 20
22.6198486651
 10
-82.2365036857
 20
22.4896133746
 10
-82.2448875618
 20
22.3557527915
 10
-82.2485280381
 20
22.2182230635
  0
LINE
  5
25E
100
AcDbEntity
  8
0
100
AcDbLine
 62
7
  6
CONTINUOUS
 10
-102.9331504497
 20
-3.5
 11
-103.05892912
 21
-3.7099727925
  0
LINE
  5
25F
100
AcDbEntity
  8
0
100
AcDbLine
 62
7
  6
CONTINUOUS
 10
-103.05892912
 20
3.7099727925
 11
-102.9331504497
 21
3.5
  0
LWPOLYLINE
  5
260
100
AcDbEntity
  8
SUPERFICI
100
AcDbPolyline
 62
7
  6
CONTINUOUS
 90
10
 70
0
 10
-82.0613346938
 20
-23.3261887012
 10
-82.0993169258
 20
-23.2183067448
 10
-82.1317459499
 20
-23.105928724
 10
-82.159529614
 20
-22.989483875
 10
-82.1840949643
 20
-22.8695488327
 10
-82.20587691
 20
-22.7464328038
 10
-82.2235728772
 20
-22.6198486651
 10
-82.2365036857
 20
-22.4896133746
 10
-82.2448875618
 20
-22.3557527915
 10
-82.2485280381
 20
-22.2182230635
  0
LWPOLYLINE
  5
261
100
AcDbEntity
  8
SUPERFICI
100
AcDbPolyline
 62
7
  6
CONTINUOUS
 90
4
 70
0
 10
-78.6401483181
 20
22.6401122897
 10
-78.6395989753
 20
22.6034863701
 10
-78.6390293126
 20
22.580572768
 10
-78.6384437412
 20
22.5715300352
  0
LINE
  5
262
100
AcDbEntity
  8
SUPERFICI
100
AcDbLine
 62
7
  6
CONTINUOUS
 10
-78.6411665114
 20
22.7532739047
 11
-78.6401483181
 21
22.6401122897
  0
LINE
  5
263
100
AcDbEntity
  8
SUPERFICI
100
AcDbLine
 62
7
  6
CONTINUOUS
 10
-78.6429687425
 20
23.2387036887
 11
-78.6411665114
 21
22.7532739047
  0
LINE
  5
264
100
AcDbEntity
  8
0
100
AcDbLine
 62
7
  6
CONTINUOUS
 10
-78.958505597
 20
-22.2248809166
 11
-78.958505597
 21
22.2248809166
  0
LINE
  5
265
100
AcDbEntity
  8
SUPERFICI
100
AcDbLine
 62
7
  6
CONTINUOUS
 10
-78.6431718278
 20
-23.3839365803
 11
-78.6423012167
 21
-24.1674297575
  0
LWPOLYLINE
  5
266
100
AcDbEntity
  8
SUPERFICI
100
AcDbPolyline
 62
7
  6
CONTINUOUS
 90
3
 70
0
 10
-78.6423012167
 20
24.1674297575
 10
-78.6426325611
 20
24.067076264
 10
-78.6429687425
 20
23.2387036887
  0
LINE
  5
267
100
AcDbEntity
  8
SUPERFICI
100
AcDbLine
 62
7
  6
CONTINUOUS
 10
-78.6417024389
 20
-22.8436910315
 11
-78.6431718278
 21
-23.3839365803
  0
LWPOLYLINE
  5
268
100
AcDbEntity
  8
SUPERFICI
100
AcDbPolyline
 62
7
  6
CONTINUOUS
 90
5
 70
0
 10
-78.6384437412
 20
-22.5715300352
 10
-78.6390403119
 20
-22.5808795759
 10
-78.6396229037
 20
-22.6047728565
 10
-78.6401863476
 20
-22.6432211378
 10
-78.6417024389
 20
-22.8436910315
  0
LWPOLYLINE
  5
269
100
AcDbEntity
  8
SUPERFICI
100
AcDbPolyline
 62
7
  6
CONTINUOUS
 90
10
 70
0
 10
-81.3349673294
 20
24.5345205694
 10
-81.4451814119
 20
24.4084530136
 10
-81.5480960824
 20
24.2803453273
 10
-81.6432903368
 20
24.1502462099
 10
-81.7303477624
 20
24.018727792
 10
-81.8099058971
 20
23.885776989
 10
-81.8826993281
 20
23.7503442528
 10
-81.9487172465
 20
23.6113948691
 10
-82.008109983
 20
23.4697743926
 10
-82.0613346936
 20
23.3261887011
  0
LWPOLYLINE
  5
26A
100
AcDbEntity
  8
SUPERFICI
100
AcDbPolyline
 62
7
  6
CONTINUOUS
 90
10
 70
0
 10
-81.3349673294
 20
-24.5345205694
 10
-81.4451814119
 20
-24.4084530136
 10
-81.5480960824
 20
-24.2803453273
 10
-81.6432903368
 20
-24.1502462099
 10
-81.7303477624
 20
-24.018727792
 10
-81.8099058971
 20
-23.885776989
 10
-81.8826993281
 20
-23.7503442528
 10
-81.9487172465
 20
-23.6113948691
 10
-82.008109983
 20
-23.4697743926
 10
-82.0613346936
 20
-23.3261887011
  0
LWPOLYLINE
  5
26B
100
AcDbEntity
  8
SUPERFICI
100
AcDbPolyline
 62
7
  6
CONTINUOUS
 90
10
 70
0
 10
-80.9801561869
 20
24.8694480602
 10
-81.0232988398
 20
24.8334243143
 10
-81.065510536
 20
24.7969618983
 10
-81.1067969195
 20
24.7601530159
 10
-81.1471351988
 20
24.7231231158
 10
-81.1865603649
 20
24.6859234574
 10
-81.2251225195
 20
24.6484834918
 10
-81.2627761404
 20
24.610759535
 10
-81.2994178347
 20
24.572776771
 10
-81.3349733752
 20
24.5345242889
  0
LWPOLYLINE
  5
26C
100
AcDbEntity
  8
SUPERFICI
100
AcDbPolyline
 62
7
  6
CONTINUOUS
 90
10
 70
0
 10
-80.9801561869
 20
-24.8694480602
 10
-81.0232988398
 20
-24.8334243143
 10
-81.065510536
 20
-24.7969618983
 10
-81.1067969195
 20
-24.7601530159
 10
-81.1471351988
 20
-24.7231231158
 10
-81.1865603649
 20
-24.6859234574
 10
-81.2251225195
 20
-24.6484834918
 10
-81.2627761404
 20
-24.610759535
 10
-81.2994178347
 20
-24.572776771
 10
-81.3349733752
 20
-24.5345242889
  0
LINE
  5
26D
100
AcDbEntity
  8
SUPERFICI
100
AcDbLine
 62
7
  6
CONTINUOUS
 10
-43.0446020018
 20
35.805214626
 11
-43.044602572
 21
31.5700997936
  0
LINE
  5
26E
100
AcDbEntity
  8
SUPERFICI
100
AcDbLine
 62
7
  6
CONTINUOUS
 10
-43.0446022913
 20
-31.5701269947
 11
-43.0446022934
 21
-35.8049943062
  0
LWPOLYLINE
  5
26F
100
AcDbEntity
  8
0
100
AcDbPolyline
 62
7
  6
CONTINUOUS
 90
10
 70
0
 43
0.3500000006
 10
0.5357142924
 20
59.2499996338
 10
-0.1071428532
 20
58.6071461792
 10
-0.5357142924
 20
57.749999176
 10
-0.5357142924
 20
56.678567688
 10
-0.1071428532
 20
56.2499987183
 10
0.5357142924
 20
56.2499987183
 10
0.9642857051
 20
56.678567688
 10
0.9642857051
 20
57.5357146912
 10
0.5357142924
 20
57.9642836609
 10
-0.3928571312
 20
57.9642836609
  0
LWPOLYLINE
  5
270
100
AcDbEntity
  8
SUPERFICI
100
AcDbPolyline
 62
7
  6
CONTINUOUS
 90
10
 70
0
 10
-79.5860989189
 20
25.5789396446
 10
-79.7582385136
 20
25.5288087107
 10
-79.9258885521
 20
25.4718696786
 10
-80.0889316205
 20
25.408053547
 10
-80.2464833359
 20
25.3373963756
 10
-80.3991840326
 20
25.2596744787
 10
-80.5490828287
 20
25.1742456473
 10
-80.6966006411
 20
25.0805666496
 10
-80.8404907883
 20
24.9788523537
 10
-80.980158463
 20
24.8694495148
  0
LINE
  5
271
100
AcDbEntity
  8
0
100
AcDbLine
 62
7
  6
CONTINUOUS
 10
-100.1004434766
 20
-39.9999840706
 11
100.1004434766
 21
-39.9999840706
  0
LWPOLYLINE
  5
272
100
AcDbEntity
  8
SUPERFICI
100
AcDbPolyline
 62
7
  6
CONTINUOUS
 90
10
 70
0
 10
-79.5860989189
 20
-25.5789396446
 10
-79.7582385136
 20
-25.5288087107
 10
-79.9258885521
 20
-25.4718696786
 10
-80.0889316205
 20
-25.408053547
 10
-80.2464833359
 20
-25.3373963756
 10
-80.3991840326
 20
-25.2596744787
 10
-80.5490828287
 20
-25.1742456473
 10
-80.6966006411
 20
-25.0805666496
 10
-80.8404907883
 20
-24.9788523537
 10
-80.980158463
 20
-24.8694495148
  0
LWPOLYLINE
  5
273
100
AcDbEntity
  8
0
100
AcDbPolyline
 62
7
  6
CONTINUOUS
 90
3
 70
0
 43
0.3500000006
 10
3.5357143936
 20
58.3928526306
 10
4.3928571482
 20
59.2499996338
 10
4.3928571482
 20
56.2499987183
  0
LINE
  5
274
100
AcDbEntity
  8
SUPERFICI
100
AcDbLine
 62
7
  6
CONTINUOUS
 10
77.0612808052
 20
-25.7098261377
 11
77.2397755017
 21
-25.7068812087
  0
LWPOLYLINE
  5
275
100
AcDbEntity
  8
SUPERFICI
100
AcDbPolyline
 62
7
  6
CONTINUOUS
 90
10
 70
0
 10
78.6292303322
 20
-25.7057117297
 10
78.7316203646
 20
-25.704154286
 10
78.8350900857
 20
-25.6996694262
 10
78.9395683692
 20
-25.6921604216
 10
79.0448629273
 20
-25.6814963227
 10
79.1510091972
 20
-25.6676156382
 10
79.2582682542
 20
-25.6505170432
 10
79.3666618376
 20
-25.6301255403
 10
79.4759740598
 20
-25.6063018746
 10
79.5860989199
 20
-25.5789396453
  0
LINE
  5
276
100
AcDbEntity
  8
SUPERFICI
100
AcDbLine
 62
7
  6
CONTINUOUS
 10
77.2397755017
 20
-25.7068812087
 11
77.4231798139
 21
-25.7050784969
  0
LINE
  5
277
100
AcDbEntity
  8
SUPERFICI
100
AcDbLine
 62
7
  6
CONTINUOUS
 10
76.8877643375
 20
-25.7113062299
 11
77.0612808052
 21
-25.7098261377
  0
LINE
  5
278
100
AcDbEntity
  8
SUPERFICI
100
AcDbLine
 62
7
  6
CONTINUOUS
 10
76.8889945089
 20
-25.7111993911
 11
73.5589606895
 21
-25.7215567292
  0
LINE
  5
279
100
AcDbEntity
  8
SUPERFICI
100
AcDbLine
 62
7
  6
CONTINUOUS
 10
73.5589606895
 20
-25.7215567292
 11
70.2894669679
 21
-25.7269433413
  0
LINE
  5
27A
100
AcDbEntity
  8
SUPERFICI
100
AcDbLine
 62
7
  6
CONTINUOUS
 10
77.4231798139
 20
-25.7050784969
 11
77.8045427785
 21
-25.7040398102
  0
LINE
  5
27B
100
AcDbEntity
  8
0
100
AcDbLine
 62
7
  6
CONTINUOUS
 10
74.730144
 20
-28.800007
 11
74.150122
 21
-28.800015
  0
LINE
  5
27C
100
AcDbEntity
  8
0
100
AcDbLine
 62
7
  6
CONTINUOUS
 10
72.635039
 20
-28.800007
 11
72.055031
 21
-28.800015
  0
LINE
  5
27D
100
AcDbEntity
  8
0
100
AcDbLine
 62
7
  6
CONTINUOUS
 10
70.346627
 20
-28.800015
 11
69.766605
 21
-28.800022
  0
LINE
  5
27E
100
AcDbEntity
  8
0
100
AcDbLine
 62
7
  6
CONTINUOUS
 10
79.3
 20
-28.8
 11
78.646695
 21
-28.800007
  0
LINE
  5
27F
100
AcDbEntity
  8
0
100
AcDbLine
 62
7
  6
CONTINUOUS
 10
68.448794
 20
-28.800015
 11
67.868751
 21
-28.800022
  0
LINE
  5
280
100
AcDbEntity
  8
0
100
AcDbLine
 62
7
  6
CONTINUOUS
 10
73.763443
 20
-28.800015
 11
73.183421
 21
-28.800015
  0
LINE
  5
281
100
AcDbEntity
  8
0
100
AcDbLine
 62
7
  6
CONTINUOUS
 10
71.506656
 20
-28.800015
 11
70.926634
 21
-28.800015
  0
LINE
  5
282
100
AcDbEntity
  8
0
100
AcDbLine
 62
7
  6
CONTINUOUS
 10
77.559144
 20
-28.800007
 11
76.979115
 21
-28.800007
  0
LINE
  5
283
100
AcDbEntity
  8
0
100
AcDbLine
 62
7
  6
CONTINUOUS
 10
76.592437
 20
-28.800015
 11
76.012408
 21
-28.800007
  0
LINE
  5
284
100
AcDbEntity
  8
0
100
AcDbLine
 62
7
  6
CONTINUOUS
 10
75.829302
 20
-28.229679
 11
74.913257
 21
-28.229679
  0
LINE
  5
285
100
AcDbEntity
  8
0
100
AcDbLine
 62
7
  6
CONTINUOUS
 10
75.090179
 20
-27.678657
 11
75.652373
 21
-27.678657
  0
LINE
  5
286
100
AcDbEntity
  8
0
100
AcDbLine
 62
7
  6
CONTINUOUS
 10
78.065441
 20
-27.678657
 11
77.55921
 21
-27.67865
  0
LINE
  5
287
100
AcDbEntity
  8
0
100
AcDbLine
 62
7
  6
CONTINUOUS
 10
77.551148
 20
-27.142128
 11
78.2562299744
 21
-27.142128
  0
LINE
  5
288
100
AcDbEntity
  8
0
100
AcDbLine
 62
7
  6
CONTINUOUS
 10
78.256824
 20
-26.436398
 11
77.55114
 21
-26.436398
  0
LINE
  5
289
100
AcDbEntity
  8
0
100
AcDbLine
 62
7
  6
CONTINUOUS
 10
66.937619
 20
-25.899884
 11
67.517648
 21
-25.899884
  0
LINE
  5
28A
100
AcDbEntity
  8
0
100
AcDbLine
 62
7
  6
CONTINUOUS
 10
68.799905
 20
-25.899884
 11
69.379934
 21
-25.899884
  0
LINE
  5
28B
100
AcDbEntity
  8
0
100
AcDbLine
 62
7
  6
CONTINUOUS
 10
69.766612
 20
-25.899884
 11
70.346634
 21
-25.899884
  0
LINE
  5
28C
100
AcDbEntity
  8
0
100
AcDbLine
 62
7
  6
CONTINUOUS
 10
70.926634
 20
-25.899884
 11
71.803471
 21
-25.899884
  0
LINE
  5
28D
100
AcDbEntity
  8
0
100
AcDbLine
 62
7
  6
CONTINUOUS
 10
72.886606
 20
-25.899884
 11
73.763443
 21
-25.899884
  0
LINE
  5
28E
100
AcDbEntity
  8
0
100
AcDbLine
 62
7
  6
CONTINUOUS
 10
75.081247
 20
-25.899877
 11
75.661297
 21
-25.899877
  0
LINE
  5
28F
100
AcDbEntity
  8
0
100
AcDbLine
 62
7
  6
CONTINUOUS
 10
76.979115
 20
-25.899877
 11
78.3391621367
 21
-25.899877
  0
LINE
  5
290
100
AcDbEntity
  8
SUPERFICI
100
AcDbLine
 62
7
  6
CONTINUOUS
 10
43.0446022927
 20
-24.1674297575
 11
78.6391021566
 21
-24.1686709627
  0
LINE
  5
291
100
AcDbEntity
  8
SUPERFICI
100
AcDbLine
 62
7
  6
CONTINUOUS
 10
-43.0446022927
 20
-24.1674297575
 11
-78.6391021566
 21
-24.1686709627
  0
LINE
  5
292
100
AcDbEntity
  8
SUPERFICI
100
AcDbLine
 62
7
  6
CONTINUOUS
 10
70.2894669679
 20
-25.7269433413
 11
43.044602294
 21
-25.7265213799
  0
LINE
  5
293
100
AcDbEntity
  8
SUPERFICI
100
AcDbLine
 62
7
  6
CONTINUOUS
 10
-76.1272128331
 20
-25.7264531299
 11
43.0446022927
 21
-25.7265524471
  0
LINE
  5
294
100
AcDbEntity
  8
SUPERFICI
100
AcDbLine
 62
7
  6
CONTINUOUS
 10
77.8045427785
 20
-25.7040398102
 11
78.6292303322
 21
-25.7057117297
  0
LINE
  5
295
100
AcDbEntity
  8
SUPERFICI
100
AcDbLine
 62
7
  6
CONTINUOUS
 10
-76.8889945089
 20
-25.7111993911
 11
-76.1275887139
 21
-25.7137784747
  0
LWPOLYLINE
  5
296
100
AcDbEntity
  8
SUPERFICI
100
AcDbPolyline
 62
7
  6
CONTINUOUS
 90
6
 70
0
 10
-76.8877643375
 20
-25.7113062299
 10
-77.0612808052
 20
-25.7098261377
 10
-77.2397755017
 20
-25.7068812087
 10
-77.4231798139
 20
-25.7050784969
 10
-77.6114036459
 20
-25.7042091628
 10
-78.6292303322
 20
-25.7057117297
  0
LWPOLYLINE
  5
297
100
AcDbEntity
  8
SUPERFICI
100
AcDbPolyline
 62
7
  6
CONTINUOUS
 90
10
 70
0
 10
-78.6292303322
 20
-25.7057117297
 10
-78.7316203646
 20
-25.704154286
 10
-78.8350900857
 20
-25.6996694262
 10
-78.9395683692
 20
-25.6921604216
 10
-79.0448629273
 20
-25.6814963227
 10
-79.1510091972
 20
-25.6676156382
 10
-79.2582682542
 20
-25.6505170432
 10
-79.3666618376
 20
-25.6301255403
 10
-79.4759740598
 20
-25.6063018746
 10
-79.5860989199
 20
-25.5789396453
  0
LWPOLYLINE
  5
298
100
AcDbEntity
  8
0
100
AcDbPolyline
 62
7
  6
CONTINUOUS
 90
3
 70
0
 43
0.3500000006
 10
2.5357143717
 20
56.535714386
 10
2.464285738
 20
56.3214299011
 10
2.3214286122
 20
56.0357142334
  0
LINE
  5
299
100
AcDbEntity
  8
SUPERFICI
100
AcDbLine
 62
7
  6
CONTINUOUS
 10
-79.1757162255
 20
-22.2326319039
 11
-79.3466056573
 21
-22.2350937226
  0
LINE
  5
29A
100
AcDbEntity
  8
SUPERFICI
100
AcDbLine
 62
7
  6
CONTINUOUS
 10
-79.3466056573
 20
-22.2350937226
 11
-79.6729574344
 21
-22.2375866251
  0
LINE
  5
29B
100
AcDbEntity
  8
SUPERFICI
100
AcDbLine
 62
7
  6
CONTINUOUS
 10
80.5740338012
 20
-22.235697173
 11
80.2534897658
 21
-22.2378656003
  0
LINE
  5
29C
100
AcDbEntity
  8
SUPERFICI
100
AcDbLine
 62
7
  6
CONTINUOUS
 10
-79.6729574344
 20
-22.2375866251
 11
-80.0307366694
 21
-22.2383288292
  0
LINE
  5
29D
100
AcDbEntity
  8
0
100
AcDbLine
 62
7
  6
CONTINUOUS
 10
78.638442552
 20
-22.5449439616
 11
-78.638442552
 21
-22.5449439616
  0
LINE
  5
29E
100
AcDbEntity
  8
SUPERFICI
100
AcDbLine
 62
7
  6
CONTINUOUS
 10
80.2534897658
 20
-22.2378656003
 11
79.8906425787
 21
-22.2382540123
  0
LINE
  5
29F
100
AcDbEntity
  8
SUPERFICI
100
AcDbLine
 62
7
  6
CONTINUOUS
 10
-80.0307366694
 20
-22.2383288292
 11
-80.3709837211
 21
-22.2373036944
  0
LINE
  5
2A0
100
AcDbEntity
  8
SUPERFICI
100
AcDbLine
 62
7
  6
CONTINUOUS
 10
79.8906425787
 20
-22.2382540123
 11
79.5331700575
 21
-22.2367728549
  0
LINE
  5
2A1
100
AcDbEntity
  8
SUPERFICI
100
AcDbLine
 62
7
  6
CONTINUOUS
 10
-80.3709837211
 20
-22.2373036944
 11
-80.5740338012
 21
-22.235697173
  0
LINE
  5
2A2
100
AcDbEntity
  8
SUPERFICI
100
AcDbLine
 62
7
  6
CONTINUOUS
 10
79.5331700575
 20
-22.2367728549
 11
79.3278462756
 21
-22.2348770246
  0
LWPOLYLINE
  5
2A3
100
AcDbEntity
  8
SUPERFICI
100
AcDbPolyline
 62
7
  6
CONTINUOUS
 90
7
 70
0
 10
79.3278462756
 20
-22.2348770246
 10
79.1654985592
 20
-22.2324390427
 10
79.1028564492
 20
-22.2310664933
 10
79.053164812
 20
-22.2296107972
 10
79.016813052
 20
-22.2280861945
 10
78.9940705406
 20
-22.2265059031
 10
78.9850916706
 20
-22.2248821058
  0
LWPOLYLINE
  5
2A4
100
AcDbEntity
  8
SUPERFICI
100
AcDbPolyline
 62
7
  6
CONTINUOUS
 90
6
 70
0
 10
-78.9850916706
 20
-22.2248821058
 10
-78.994374533
 20
-22.2265363551
 10
-79.0180862097
 20
-22.2281523992
 10
-79.0562390485
 20
-22.2297159838
 10
-79.1089250865
 20
-22.2312170186
 10
-79.1757162255
 20
-22.2326319039
  0
LINE
  5
2A5
100
AcDbEntity
  8
SUPERFICI
100
AcDbLine
 62
7
  6
CONTINUOUS
 10
-80.5736137956
 20
-11.9488343537
 11
-82.258114556
 21
-11.9494069796
  0
LINE
  5
2A6
100
AcDbEntity
  8
SUPERFICI
100
AcDbLine
 62
7
  6
CONTINUOUS
 10
80.5736137956
 20
-11.9488343537
 11
82.258114556
 21
-11.9494069796
  0
LWPOLYLINE
  5
2A7
100
AcDbEntity
  8
0
100
AcDbPolyline
 62
7
  6
CONTINUOUS
 90
13
 70
0
 43
0.3500000006
 10
-2.8928572569
 20
57.1071457214
 10
-2.8928572569
 20
58.3928526306
 10
-2.6785713558
 20
58.8214306641
 10
-2.2499999785
 20
59.2499996338
 10
-2.0357142191
 20
59.2499996338
 10
-1.6071428418
 20
58.8214306641
 10
-1.3928570824
 20
58.3928526306
 10
-1.3928570824
 20
57.1071457214
 10
-1.6071428418
 20
56.678567688
 10
-2.0357142191
 20
56.2499987183
 10
-2.2499999785
 20
56.2499987183
 10
-2.6785713558
 20
56.678567688
 10
-2.8928572569
 20
57.1071457214
  0
LINE
  5
2A8
100
AcDbEntity
  8
SUPERFICI
100
AcDbLine
 62
7
  6
CONTINUOUS
 10
0.0
 20
-25.726552409
 11
0.0
 21
-39.1060423705
  0
LINE
  5
2A9
100
AcDbEntity
  8
SUPERFICI
100
AcDbLine
 62
7
  6
CONTINUOUS
 10
-0.0
 20
25.726552409
 11
-0.0
 21
39.1060423714
  0
LWPOLYLINE
  5
2AA
100
AcDbEntity
  8
SUPERFICI
100
AcDbPolyline
 62
7
  6
CONTINUOUS
 90
6
 70
0
 10
78.9850916706
 20
22.2248821058
 10
78.994374533
 20
22.2265363551
 10
79.0180862097
 20
22.2281523992
 10
79.0562390485
 20
22.2297159838
 10
79.1089250865
 20
22.2312170186
 10
79.1757162255
 20
22.2326319039
  0
LINE
  5
2AB
100
AcDbEntity
  8
SUPERFICI
100
AcDbLine
 62
7
  6
CONTINUOUS
 10
80.5736137956
 20
11.9488343537
 11
82.258114556
 21
11.9494069796
  0
LINE
  5
2AC
100
AcDbEntity
  8
SUPERFICI
100
AcDbLine
 62
7
  6
CONTINUOUS
 10
-80.5736137956
 20
11.9488343537
 11
-82.258114556
 21
11.9494069796
  0
LINE
  5
2AD
100
AcDbEntity
  8
SUPERFICI
100
AcDbLine
 62
7
  6
CONTINUOUS
 10
79.1757162255
 20
22.2326319039
 11
79.3466056573
 21
22.2350937226
  0
LINE
  5
2AE
100
AcDbEntity
  8
SUPERFICI
100
AcDbLine
 62
7
  6
CONTINUOUS
 10
79.3466056573
 20
22.2350937226
 11
79.6729574344
 21
22.2375866251
  0
LINE
  5
2AF
100
AcDbEntity
  8
SUPERFICI
100
AcDbLine
 62
7
  6
CONTINUOUS
 10
-80.5740338012
 20
22.235697173
 11
-80.2534897658
 21
22.2378656003
  0
LINE
  5
2B0
100
AcDbEntity
  8
SUPERFICI
100
AcDbLine
 62
7
  6
CONTINUOUS
 10
79.6729574344
 20
22.2375866251
 11
80.0307366694
 21
22.2383288292
  0
LINE
  5
2B1
100
AcDbEntity
  8
0
100
AcDbLine
 62
7
  6
CONTINUOUS
 10
-78.638442552
 20
22.5449439616
 11
78.638442552
 21
22.5449439616
  0
LINE
  5
2B2
100
AcDbEntity
  8
SUPERFICI
100
AcDbLine
 62
7
  6
CONTINUOUS
 10
43.0446022927
 20
24.1674297575
 11
78.6391021566
 21
24.1686709627
  0
LINE
  5
2B3
100
AcDbEntity
  8
SUPERFICI
100
AcDbLine
 62
7
  6
CONTINUOUS
 10
-43.0446022927
 20
24.1674297575
 11
-78.6423012167
 21
24.1674297575
  0
LINE
  5
2B4
100
AcDbEntity
  8
SUPERFICI
100
AcDbLine
 62
7
  6
CONTINUOUS
 10
-80.2534897658
 20
22.2378656003
 11
-79.8906425787
 21
22.2382540123
  0
LINE
  5
2B5
100
AcDbEntity
  8
SUPERFICI
100
AcDbLine
 62
7
  6
CONTINUOUS
 10
80.0307366694
 20
22.2383288292
 11
80.3709837211
 21
22.2373036944
  0
LINE
  5
2B6
100
AcDbEntity
  8
SUPERFICI
100
AcDbLine
 62
7
  6
CONTINUOUS
 10
-79.8906425787
 20
22.2382540123
 11
-79.5331700575
 21
22.2367728549
  0
LINE
  5
2B7
100
AcDbEntity
  8
SUPERFICI
100
AcDbLine
 62
7
  6
CONTINUOUS
 10
80.3709837211
 20
22.2373036944
 11
80.5740338012
 21
22.235697173
  0
LINE
  5
2B8
100
AcDbEntity
  8
SUPERFICI
100
AcDbLine
 62
7
  6
CONTINUOUS
 10
-79.5331700575
 20
22.2367728549
 11
-79.3278462756
 21
22.2348770246
  0
LWPOLYLINE
  5
2B9
100
AcDbEntity
  8
SUPERFICI
100
AcDbPolyline
 62
7
  6
CONTINUOUS
 90
7
 70
0
 10
-79.3278462756
 20
22.2348770246
 10
-79.1654985592
 20
22.2324390427
 10
-79.1028564492
 20
22.2310664933
 10
-79.053164812
 20
22.2296107972
 10
-79.016813052
 20
22.2280861945
 10
-78.9940705406
 20
22.2265059031
 10
-78.9850916706
 20
22.2248821058
  0
LWPOLYLINE
  5
2BA
100
AcDbEntity
  8
SUPERFICI
100
AcDbPolyline
 62
7
  6
CONTINUOUS
 90
10
 70
0
 10
-78.6292303322
 20
25.7057117297
 10
-78.7316203646
 20
25.704154286
 10
-78.8350900857
 20
25.6996694262
 10
-78.9395683692
 20
25.6921604216
 10
-79.0448629273
 20
25.6814963227
 10
-79.1510091972
 20
25.6676156382
 10
-79.2582682542
 20
25.6505170432
 10
-79.3666618376
 20
25.6301255403
 10
-79.4759740598
 20
25.6063018746
 10
-79.5860989199
 20
25.5789396453
  0
LWPOLYLINE
  5
2BB
100
AcDbEntity
  8
SUPERFICI
100
AcDbPolyline
 62
7
  6
CONTINUOUS
 90
4
 70
0
 10
-76.8877643375
 20
25.7113062299
 10
-77.0612808052
 20
25.7098261377
 10
-77.2397755017
 20
25.7068812087
 10
-77.4231798139
 20
25.7050784969
  0
LINE
  5
2BC
100
AcDbEntity
  8
SUPERFICI
100
AcDbLine
 62
7
  6
CONTINUOUS
 10
-76.8889945089
 20
25.7111993911
 11
-76.1275887139
 21
25.7137784747
  0
LINE
  5
2BD
100
AcDbEntity
  8
SUPERFICI
100
AcDbLine
 62
7
  6
CONTINUOUS
 10
-77.4231798139
 20
25.7050784969
 11
-77.8045427785
 21
25.7040398102
  0
LINE
  5
2BE
100
AcDbEntity
  8
SUPERFICI
100
AcDbLine
 62
7
  6
CONTINUOUS
 10
-69.0058747906
 20
25.7272946023
 11
-76.1272128331
 21
25.7264531299
  0
LINE
  5
2BF
100
AcDbEntity
  8
SUPERFICI
100
AcDbLine
 62
7
  6
CONTINUOUS
 10
-59.9237355723
 20
25.7268317307
 11
-69.0058747906
 21
25.7272946023
  0
LINE
  5
2C0
100
AcDbEntity
  8
SUPERFICI
100
AcDbLine
 62
7
  6
CONTINUOUS
 10
76.1272128331
 20
25.7264531299
 11
-59.9237355723
 21
25.7268317307
  0
LWPOLYLINE
  5
2C1
100
AcDbEntity
  8
SUPERFICI
100
AcDbPolyline
 62
7
  6
CONTINUOUS
 90
3
 70
0
 10
-77.8045427785
 20
25.7040398102
 10
-78.2064723591
 20
25.7048380464
 10
-78.6292303322
 20
25.7057117297
  0
LINE
  5
2C2
100
AcDbEntity
  8
SUPERFICI
100
AcDbLine
 62
7
  6
CONTINUOUS
 10
76.8889945089
 20
25.7111993911
 11
76.5514557621
 21
25.7122244862
  0
LINE
  5
2C3
100
AcDbEntity
  8
SUPERFICI
100
AcDbLine
 62
7
  6
CONTINUOUS
 10
76.5514557621
 20
25.7122244862
 11
76.1275887139
 21
25.7137784747
  0
LWPOLYLINE
  5
2C4
100
AcDbEntity
  8
SUPERFICI
100
AcDbPolyline
 62
7
  6
CONTINUOUS
 90
6
 70
0
 10
76.8877643375
 20
25.7113062299
 10
77.0612808052
 20
25.7098261377
 10
77.2397755017
 20
25.7068812087
 10
77.4231798139
 20
25.7050784969
 10
77.6114036459
 20
25.7042091628
 10
78.6292303322
 20
25.7057117297
  0
LWPOLYLINE
  5
2C5
100
AcDbEntity
  8
SUPERFICI
100
AcDbPolyline
 62
7
  6
CONTINUOUS
 90
10
 70
0
 10
78.6292303322
 20
25.7057117297
 10
78.7316203646
 20
25.704154286
 10
78.8350900857
 20
25.6996694262
 10
78.9395683692
 20
25.6921604216
 10
79.0448629273
 20
25.6814963227
 10
79.1510091972
 20
25.6676156382
 10
79.2582682542
 20
25.6505170432
 10
79.3666618376
 20
25.6301255403
 10
79.4759740598
 20
25.6063018746
 10
79.5860989199
 20
25.5789396453
  0
LWPOLYLINE
  5
2C6
100
AcDbEntity
  8
0
100
AcDbPolyline
 62
7
  6
CONTINUOUS
 90
10
 70
0
 43
0.3500000006
 10
2.464285738
 20
56.7499988708
 10
2.5357143717
 20
56.6071455688
 10
2.5357143717
 20
56.535714386
 10
2.3928571043
 20
56.392861084
 10
2.3214286122
 20
56.392861084
 10
2.2499999785
 20
56.4642832031
 10
2.2499999785
 20
56.535714386
 10
2.3214286122
 20
56.678567688
 10
2.3928571043
 20
56.7499988708
 10
2.464285738
 20
56.7499988708
  0
LINE
  5
2C7
100
AcDbEntity
  8
0
100
AcDbLine
 62
7
  6
CONTINUOUS
 10
100.1004434799
 20
39.9999840702
 11
-100.1004434799
 21
39.9999840702
  0
LINE
  5
2C8
100
AcDbEntity
  8
SUPERFICI
100
AcDbLine
 62
7
  6
CONTINUOUS
 10
43.0446022913
 20
-31.5701269947
 11
43.0446022934
 21
-35.8049943062
  0
LINE
  5
2C9
100
AcDbEntity
  8
SUPERFICI
100
AcDbLine
 62
7
  6
CONTINUOUS
 10
43.0446022913
 20
31.5701269947
 11
43.0446022934
 21
35.8049943062
  0
LWPOLYLINE
  5
2CA
100
AcDbEntity
  8
SUPERFICI
100
AcDbPolyline
 62
7
  6
CONTINUOUS
 90
10
 70
0
 10
79.5860989189
 20
-25.5789396446
 10
79.7582385136
 20
-25.5288087107
 10
79.9258885521
 20
-25.4718696786
 10
80.0889316205
 20
-25.408053547
 10
80.2464833359
 20
-25.3373963756
 10
80.3991840326
 20
-25.2596744787
 10
80.5490828287
 20
-25.1742456473
 10
80.6966006411
 20
-25.0805666496
 10
80.8404907883
 20
-24.9788523537
 10
80.980158463
 20
-24.8694495148
  0
LWPOLYLINE
  5
2CB
100
AcDbEntity
  8
SUPERFICI
100
AcDbPolyline
 62
7
  6
CONTINUOUS
 90
10
 70
0
 10
79.5860989189
 20
25.5789396446
 10
79.7582385136
 20
25.5288087107
 10
79.9258885521
 20
25.4718696786
 10
80.0889316205
 20
25.408053547
 10
80.2464833359
 20
25.3373963756
 10
80.3991840326
 20
25.2596744787
 10
80.5490828287
 20
25.1742456473
 10
80.6966006411
 20
25.0805666496
 10
80.8404907883
 20
24.9788523537
 10
80.980158463
 20
24.8694495148
  0
LWPOLYLINE
  5
2CC
100
AcDbEntity
  8
0
100
AcDbPolyline
 62
7
  6
CONTINUOUS
 90
7
 70
0
 43
0.3500000006
 10
-3.7500000114
 20
56.2499987183
 10
-5.2499999027
 20
56.2499987183
 10
-3.7500000114
 20
58.3928526306
 10
-3.7500000114
 20
58.8214306641
 10
-4.1785715303
 20
59.2499996338
 10
-4.8214286671
 20
59.2499996338
 10
-5.2499999027
 20
58.6071461792
  0
LINE
  5
2CD
100
AcDbEntity
  8
0
100
AcDbLine
 62
7
  6
CONTINUOUS
 10
78.646695
 20
-28.800007
 11
78.065441
 21
-27.678657
  0
LINE
  5
2CE
100
AcDbEntity
  8
0
100
AcDbLine
 62
7
  6
CONTINUOUS
 10
78.6825957907
 20
-27.6089026669
 11
79.3
 21
-28.8
  0
LINE
  5
2CF
100
AcDbEntity
  8
0
100
AcDbLine
 62
7
  6
CONTINUOUS
 10
67.868751
 20
-28.800022
 11
66.937619
 21
-25.899884
  0
LINE
  5
2D0
100
AcDbEntity
  8
0
100
AcDbLine
 62
7
  6
CONTINUOUS
 10
67.517648
 20
-25.899884
 11
68.15878
 21
-27.89678
  0
LINE
  5
2D1
100
AcDbEntity
  8
0
100
AcDbLine
 62
7
  6
CONTINUOUS
 10
75.652373
 20
-27.678657
 11
75.371268
 21
-26.803118
  0
LINE
  5
2D2
100
AcDbEntity
  8
0
100
AcDbLine
 62
7
  6
CONTINUOUS
 10
76.012408
 20
-28.800007
 11
75.829302
 21
-28.229679
  0
LINE
  5
2D3
100
AcDbEntity
  8
0
100
AcDbLine
 62
7
  6
CONTINUOUS
 10
75.661297
 20
-25.899877
 11
76.592437
 21
-28.800015
  0
LINE
  5
2D4
100
AcDbEntity
  8
0
100
AcDbLine
 62
7
  6
CONTINUOUS
 10
72.055031
 20
-28.800015
 11
71.506656
 21
-26.887573
  0
LINE
  5
2D5
100
AcDbEntity
  8
0
100
AcDbLine
 62
7
  6
CONTINUOUS
 10
71.803471
 20
-25.899884
 11
72.345039
 21
-27.788552
  0
LINE
  5
2D6
100
AcDbEntity
  8
0
100
AcDbLine
 62
7
  6
CONTINUOUS
 10
69.766605
 20
-28.800022
 11
69.766612
 21
-25.899884
  0
LINE
  5
2D7
100
AcDbEntity
  8
0
100
AcDbLine
 62
7
  6
CONTINUOUS
 10
70.346634
 20
-25.899884
 11
70.346627
 21
-28.800015
  0
LINE
  5
2D8
100
AcDbEntity
  8
0
100
AcDbLine
 62
7
  6
CONTINUOUS
 10
70.926634
 20
-28.800015
 11
70.926634
 21
-25.899884
  0
LINE
  5
2D9
100
AcDbEntity
  8
0
100
AcDbLine
 62
7
  6
CONTINUOUS
 10
71.506656
 20
-26.887573
 11
71.506656
 21
-28.800015
  0
LINE
  5
2DA
100
AcDbEntity
  8
0
100
AcDbLine
 62
7
  6
CONTINUOUS
 10
73.183421
 20
-28.800015
 11
73.183414
 21
-26.887573
  0
LWPOLYLINE
  5
2DB
100
AcDbEntity
  8
SUPERFICI
100
AcDbPolyline
 62
7
  6
CONTINUOUS
 90
10
 70
0
 10
80.9801561869
 20
-24.8694480602
 10
81.0232988398
 20
-24.8334243143
 10
81.065510536
 20
-24.7969618983
 10
81.1067969195
 20
-24.7601530159
 10
81.1471351988
 20
-24.7231231158
 10
81.1865603649
 20
-24.6859234574
 10
81.2251225195
 20
-24.6484834918
 10
81.2627761404
 20
-24.610759535
 10
81.2994178347
 20
-24.572776771
 10
81.3349733752
 20
-24.5345242889
  0
LWPOLYLINE
  5
2DC
100
AcDbEntity
  8
SUPERFICI
100
AcDbPolyline
 62
7
  6
CONTINUOUS
 90
10
 70
0
 10
80.9801561869
 20
24.8694480602
 10
81.0232988398
 20
24.8334243143
 10
81.065510536
 20
24.7969618983
 10
81.1067969195
 20
24.7601530159
 10
81.1471351988
 20
24.7231231158
 10
81.1865603649
 20
24.6859234574
 10
81.2251225195
 20
24.6484834918
 10
81.2627761404
 20
24.610759535
 10
81.2994178347
 20
24.572776771
 10
81.3349733752
 20
24.5345242889
  0
LWPOLYLINE
  5
2DD
100
AcDbEntity
  8
SUPERFICI
100
AcDbPolyline
 62
7
  6
CONTINUOUS
 90
13
 70
0
 10
78.9850916715
 20
22.2248808178
 10
78.9822182016
 20
22.2694231858
 10
78.9735887094
 20
22.3134407732
 10
78.9592639699
 20
22.3561801181
 10
78.9393820324
 20
22.3969313199
 10
78.914217359
 20
22.4349147197
 10
78.8842300794
 20
22.469328139
 10
78.8498839921
 20
22.4995779513
 10
78.8117805326
 20
22.5250806133
 10
78.7708069585
 20
22.5452643243
 10
78.7277883449
 20
22.5598184118
 10
78.6834104781
 20
22.568601148
 10
78.6384424532
 20
22.5715300361
  0
LWPOLYLINE
  5
2DE
100
AcDbEntity
  8
SUPERFICI
100
AcDbPolyline
 62
7
  6
CONTINUOUS
 90
4
 70
0
 10
78.6384437412
 20
-22.5715300352
 10
78.6390403119
 20
-22.5808795759
 10
78.6396229037
 20
-22.6047728565
 10
78.6401863476
 20
-22.6432211378
  0
LINE
  5
2DF
100
AcDbEntity
  8
SUPERFICI
100
AcDbLine
 62
7
  6
CONTINUOUS
 10
78.6401863476
 20
-22.6432211378
 11
78.6417024389
 21
-22.8436910315
  0
LINE
  5
2E0
100
AcDbEntity
  8
SUPERFICI
100
AcDbLine
 62
7
  6
CONTINUOUS
 10
78.6417024389
 20
-22.8436910315
 11
78.643257303
 21
-23.5044500026
  0
LINE
  5
2E1
100
AcDbEntity
  8
0
100
AcDbLine
 62
7
  6
CONTINUOUS
 10
73.763443
 20
-25.899884
 11
73.763443
 21
-28.800015
  0
LINE
  5
2E2
100
AcDbEntity
  8
0
100
AcDbLine
 62
7
  6
CONTINUOUS
 10
76.979115
 20
-28.800007
 11
76.979115
 21
-25.899877
  0
LINE
  5
2E3
100
AcDbEntity
  8
0
100
AcDbLine
 62
7
  6
CONTINUOUS
 10
77.55114
 20
-26.436398
 11
77.551148
 21
-27.142128
  0
LINE
  5
2E4
100
AcDbEntity
  8
0
100
AcDbLine
 62
7
  6
CONTINUOUS
 10
78.958505597
 20
22.2248809166
 11
78.958505597
 21
-22.2248809166
  0
LINE
  5
2E5
100
AcDbEntity
  8
0
100
AcDbLine
 62
7
  6
CONTINUOUS
 10
77.55921
 20
-27.67865
 11
77.559144
 21
-28.800007
  0
LINE
  5
2E6
100
AcDbEntity
  8
SUPERFICI
100
AcDbLine
 62
7
  6
CONTINUOUS
 10
80.5740338012
 20
22.235697173
 11
80.5740338012
 21
-22.235697173
  0
LINE
  5
2E7
100
AcDbEntity
  8
SUPERFICI
100
AcDbLine
 62
7
  6
CONTINUOUS
 10
78.6431718278
 20
23.3839365803
 11
78.6423012167
 21
24.1674297575
  0
LINE
  5
2E8
100
AcDbEntity
  8
SUPERFICI
100
AcDbLine
 62
7
  6
CONTINUOUS
 10
78.643257303
 20
-23.5044500026
 11
78.6423012167
 21
-24.1674297575
  0
LINE
  5
2E9
100
AcDbEntity
  8
SUPERFICI
100
AcDbLine
 62
7
  6
CONTINUOUS
 10
78.6417024389
 20
22.8436910315
 11
78.6431718278
 21
23.3839365803
  0
LWPOLYLINE
  5
2EA
100
AcDbEntity
  8
SUPERFICI
100
AcDbPolyline
 62
7
  6
CONTINUOUS
 90
5
 70
0
 10
78.6384437412
 20
22.5715300352
 10
78.6390403119
 20
22.5808795759
 10
78.6396229037
 20
22.6047728565
 10
78.6401863476
 20
22.6432211378
 10
78.6417024389
 20
22.8436910315
  0
LWPOLYLINE
  5
2EB
100
AcDbEntity
  8
SUPERFICI
100
AcDbPolyline
 62
7
  6
CONTINUOUS
 90
13
 70
0
 10
78.9850916715
 20
-22.2248808178
 10
78.9822182016
 20
-22.2694231858
 10
78.9735887094
 20
-22.3134407732
 10
78.9592639699
 20
-22.3561801181
 10
78.9393820324
 20
-22.3969313199
 10
78.914217359
 20
-22.4349147197
 10
78.8842300794
 20
-22.469328139
 10
78.8498839921
 20
-22.4995779513
 10
78.8117805326
 20
-22.5250806133
 10
78.7708069585
 20
-22.5452643243
 10
78.7277883449
 20
-22.5598184118
 10
78.6834104781
 20
-22.568601148
 10
78.6384424532
 20
-22.5715300361
  0
LINE
  5
2EC
100
AcDbEntity
  8
0
100
AcDbLine
 62
7
  6
CONTINUOUS
 10
72.345039
 20
-27.788552
 11
72.886606
 21
-25.899884
  0
LINE
  5
2ED
100
AcDbEntity
  8
0
100
AcDbLine
 62
7
  6
CONTINUOUS
 10
73.183414
 20
-26.887573
 11
72.635039
 21
-28.800007
  0
LINE
  5
2EE
100
AcDbEntity
  8
0
100
AcDbLine
 62
7
  6
CONTINUOUS
 10
68.15878
 20
-27.89678
 11
68.799905
 21
-25.899884
  0
LINE
  5
2EF
100
AcDbEntity
  8
0
100
AcDbLine
 62
7
  6
CONTINUOUS
 10
69.379934
 20
-25.899884
 11
68.448794
 21
-28.800015
  0
LINE
  5
2F0
100
AcDbEntity
  8
0
100
AcDbLine
 62
7
  6
CONTINUOUS
 10
74.150122
 20
-28.800015
 11
75.081247
 21
-25.899877
  0
LINE
  5
2F1
100
AcDbEntity
  8
0
100
AcDbLine
 62
7
  6
CONTINUOUS
 10
75.371268
 20
-26.803118
 11
75.090179
 21
-27.678657
  0
LINE
  5
2F2
100
AcDbEntity
  8
0
100
AcDbLine
 62
7
  6
CONTINUOUS
 10
74.913257
 20
-28.229679
 11
74.730144
 21
-28.800007
  0
LWPOLYLINE
  5
2F3
100
AcDbEntity
  8
SUPERFICI
100
AcDbPolyline
 62
7
  6
CONTINUOUS
 90
10
 70
0
 10
81.3349673294
 20
-24.5345205694
 10
81.4451814119
 20
-24.4084530136
 10
81.5480960824
 20
-24.2803453273
 10
81.6432903368
 20
-24.1502462099
 10
81.7303477624
 20
-24.018727792
 10
81.8099058971
 20
-23.885776989
 10
81.8826993281
 20
-23.7503442528
 10
81.9487172465
 20
-23.6113948691
 10
82.008109983
 20
-23.4697743926
 10
82.0613346936
 20
-23.3261887011
  0
LWPOLYLINE
  5
2F4
100
AcDbEntity
  8
SUPERFICI
100
AcDbPolyline
 62
7
  6
CONTINUOUS
 90
10
 70
0
 10
81.3349673294
 20
24.5345205694
 10
81.4451814119
 20
24.4084530136
 10
81.5480960824
 20
24.2803453273
 10
81.6432903368
 20
24.1502462099
 10
81.7303477624
 20
24.018727792
 10
81.8099058971
 20
23.885776989
 10
81.8826993281
 20
23.7503442528
 10
81.9487172465
 20
23.6113948691
 10
82.008109983
 20
23.4697743926
 10
82.0613346936
 20
23.3261887011
  0
LWPOLYLINE
  5
2F5
100
AcDbEntity
  8
SUPERFICI
100
AcDbPolyline
 62
7
  6
CONTINUOUS
 90
16
 70
0
 10
80.5740338012
 20
22.235697173
 10
80.5636509645
 20
22.4326296399
 10
80.5326479681
 20
22.6302589199
 10
80.4812423408
 20
22.8253407605
 10
80.4099742107
 20
23.0139148779
 10
80.3190880334
 20
23.1936260606
 10
80.2095895873
 20
23.3636535693
 10
80.0820451498
 20
23.522529209
 10
79.9388668622
 20
23.6667755593
 10
79.7802383485
 20
23.7959803439
 10
79.6087630033
 20
23.9083096853
 10
79.4259861171
 20
24.001498117
 10
79.2343326209
 20
24.0743087305
 10
79.036929863
 20
24.1266146122
 10
78.837403444
 20
24.1581276475
 10
78.6391021566
 20
24.1686709627
  0
LWPOLYLINE
  5
2F6
100
AcDbEntity
  8
SUPERFICI
100
AcDbPolyline
 62
7
  6
CONTINUOUS
 90
5
 70
0
 10
82.2485280381
 20
22.2182230635
 10
82.2532421647
 20
21.9406561342
 10
82.2562552422
 20
21.664988968
 10
82.2577713705
 20
21.3913618577
 10
82.2577905343
 20
21.1198066078
  0
LWPOLYLINE
  5
2F7
100
AcDbEntity
  8
SUPERFICI
100
AcDbPolyline
 62
7
  6
CONTINUOUS
 90
7
 70
0
 10
82.255541048
 20
18.3998709546
 10
82.2563269455
 20
18.3308901814
 10
82.2555116813
 20
18.274235475
 10
82.253879421
 20
18.2222561267
 10
82.2525255223
 20
18.1651590265
 10
82.2518073655
 20
18.0996790126
 10
82.2511631581
 20
17.9533683283
  0
LWPOLYLINE
  5
2F8
100
AcDbEntity
  8
SUPERFICI
100
AcDbPolyline
 62
7
  6
CONTINUOUS
 90
3
 70
0
 10
82.2564637324
 20
-20.8501344062
 10
82.2496749341
 20
-20.0517389636
 10
82.2489014516
 20
-19.7906610082
  0
LINE
  5
2F9
100
AcDbEntity
  8
SUPERFICI
100
AcDbLine
 62
7
  6
CONTINUOUS
 10
82.2520895662
 20
17.2283029099
 11
82.2563827527
 21
16.4912943415
  0
LINE
  5
2FA
100
AcDbEntity
  8
SUPERFICI
100
AcDbLine
 62
7
  6
CONTINUOUS
 10
82.2518073655
 20
-18.0996790126
 11
82.2511631581
 21
-17.9533683283
  0
LINE
  5
2FB
100
AcDbEntity
  8
SUPERFICI
100
AcDbLine
 62
7
  6
CONTINUOUS
 10
82.2489014603
 20
19.7906610117
 11
82.2498680417
 21
19.4381168762
  0
LINE
  5
2FC
100
AcDbEntity
  8
SUPERFICI
100
AcDbLine
 62
7
  6
CONTINUOUS
 10
82.2511631581
 20
17.9533683283
 11
82.2520895662
 21
17.2283029099
  0
LINE
  5
2FD
100
AcDbEntity
  8
SUPERFICI
100
AcDbLine
 62
7
  6
CONTINUOUS
 10
82.2563827527
 20
16.4912943415
 11
82.2569414002
 21
15.7419314932
  0
LINE
  5
2FE
100
AcDbEntity
  8
SUPERFICI
100
AcDbLine
 62
7
  6
CONTINUOUS
 10
82.2569159727
 20
-16.242787947
 11
82.2548733103
 21
-14.4969094241
  0
LWPOLYLINE
  5
2FF
100
AcDbEntity
  8
SUPERFICI
100
AcDbPolyline
 62
7
  6
CONTINUOUS
 90
18
 70
0
 10
82.2498680417
 20
19.4381168762
 10
82.2497879245
 20
19.3735964602
 10
82.2486786281
 20
19.3012867977
 10
82.2471466255
 20
19.2263441124
 10
82.2466415262
 20
19.1579133119
 10
82.2484421458
 20
19.1025939963
 10
82.2513270403
 20
19.0537869985
 10
82.2529989173
 20
19.0008396043
 10
82.2519172551
 20
18.9366900259
 10
82.2495818211
 20
18.8684088215
 10
82.2482643319
 20
18.8065379259
 10
82.2492837821
 20
18.7565244954
 10
82.2513662256
 20
18.7129167646
 10
82.2529136246
 20
18.6699047036
 10
82.2530604756
 20
18.628587234
 10
82.2526697178
 20
18.5878708562
 10
82.2527147271
 20
18.5386558267
 10
82.255541048
 20
18.3998709546
  0
LINE
  5
300
100
AcDbEntity
  8
SUPERFICI
100
AcDbLine
 62
7
  6
CONTINUOUS
 10
82.2548733103
 20
-14.4969094241
 11
82.2581207305
 21
-11.9488570462
  0
LINE
  5
301
100
AcDbEntity
  8
SUPERFICI
100
AcDbLine
 62
7
  6
CONTINUOUS
 10
82.2511631581
 20
-17.9533683283
 11
82.2520895662
 21
-17.2283029099
  0
LWPOLYLINE
  5
302
100
AcDbEntity
  8
SUPERFICI
100
AcDbPolyline
 62
7
  6
CONTINUOUS
 90
3
 70
0
 10
82.25694139
 20
15.7419315048
 10
82.2558449073
 20
15.3290532014
 10
82.2581207305
 20
11.9488570462
  0
LINE
  5
303
100
AcDbEntity
  8
SUPERFICI
100
AcDbLine
 62
7
  6
CONTINUOUS
 10
82.2496749341
 20
20.0517389636
 11
82.2489014516
 21
19.7906610082
  0
LWPOLYLINE
  5
304
100
AcDbEntity
  8
SUPERFICI
100
AcDbPolyline
 62
7
  6
CONTINUOUS
 90
18
 70
0
 10
82.2489014603
 20
-19.7906610117
 10
82.2498680417
 20
-19.4381168762
 10
82.2497879245
 20
-19.3735964602
 10
82.2486786281
 20
-19.3012867977
 10
82.2471466255
 20
-19.2263441124
 10
82.2466415262
 20
-19.1579133119
 10
82.2484421458
 20
-19.1025939963
 10
82.2513270403
 20
-19.0537869985
 10
82.2529989173
 20
-19.0008396043
 10
82.2519172551
 20
-18.9366900259
 10
82.2495818211
 20
-18.8684088215
 10
82.2482643319
 20
-18.8065379259
 10
82.2492837821
 20
-18.7565244954
 10
82.2513662256
 20
-18.7129167646
 10
82.2529136246
 20
-18.6699047036
 10
82.2530604756
 20
-18.628587234
 10
82.2526697178
 20
-18.5878708562
 10
82.2527147271
 20
-18.5386558267
  0
LWPOLYLINE
  5
305
100
AcDbEntity
  8
SUPERFICI
100
AcDbPolyline
 62
7
  6
CONTINUOUS
 90
3
 70
0
 10
82.2520895662
 20
-17.2283029099
 10
82.2551123163
 20
-16.7383538165
 10
82.2569159727
 20
-16.242787947
  0
LINE
  5
306
100
AcDbEntity
  8
SUPERFICI
100
AcDbLine
 62
7
  6
CONTINUOUS
 10
82.2577905343
 20
21.1198066078
 11
82.2496749341
 21
20.0517389636
  0
LWPOLYLINE
  5
307
100
AcDbEntity
  8
SUPERFICI
100
AcDbPolyline
 62
7
  6
CONTINUOUS
 90
6
 70
0
 10
82.2485280381
 20
-22.2182230635
 10
82.2532421647
 20
-21.9406561342
 10
82.2562552422
 20
-21.664988968
 10
82.2577713705
 20
-21.3913618577
 10
82.2577905343
 20
-21.1198066078
 10
82.2564637324
 20
-20.8501344062
  0
LWPOLYLINE
  5
308
100
AcDbEntity
  8
SUPERFICI
100
AcDbPolyline
 62
7
  6
CONTINUOUS
 90
7
 70
0
 10
82.2527147271
 20
-18.5386558267
 10
82.255541048
 20
-18.3998709546
 10
82.2563269455
 20
-18.3308901814
 10
82.2555116813
 20
-18.274235475
 10
82.253879421
 20
-18.2222561267
 10
82.2525255223
 20
-18.1651590265
 10
82.2518073655
 20
-18.0996790126
  0
LWPOLYLINE
  5
309
100
AcDbEntity
  8
SUPERFICI
100
AcDbPolyline
 62
7
  6
CONTINUOUS
 90
16
 70
0
 10
80.5740338012
 20
-22.235697173
 10
80.5636509645
 20
-22.4326296399
 10
80.5326479681
 20
-22.6302589199
 10
80.4812423408
 20
-22.8253407605
 10
80.4099742107
 20
-23.0139148779
 10
80.3190880334
 20
-23.1936260606
 10
80.2095895873
 20
-23.3636535693
 10
80.0820451498
 20
-23.522529209
 10
79.9388668622
 20
-23.6667755593
 10
79.7802383485
 20
-23.7959803439
 10
79.6087630033
 20
-23.9083096853
 10
79.4259861171
 20
-24.001498117
 10
79.2343326209
 20
-24.0743087305
 10
79.036929863
 20
-24.1266146122
 10
78.837403444
 20
-24.1581276475
 10
78.6391021566
 20
-24.1686709627
  0
LWPOLYLINE
  5
30A
100
AcDbEntity
  8
SUPERFICI
100
AcDbPolyline
 62
7
  6
CONTINUOUS
 90
10
 70
0
 10
82.0613346938
 20
-23.3261887012
 10
82.0993169258
 20
-23.2183067448
 10
82.1317459499
 20
-23.105928724
 10
82.159529614
 20
-22.989483875
 10
82.1840949643
 20
-22.8695488327
 10
82.20587691
 20
-22.7464328038
 10
82.2235728772
 20
-22.6198486651
 10
82.2365036857
 20
-22.4896133746
 10
82.2448875618
 20
-22.3557527915
 10
82.2485280381
 20
-22.2182230635
  0
LINE
  5
30B
100
AcDbEntity
  8
0
100
AcDbLine
 62
7
  6
CONTINUOUS
 10
103.05892912
 20
3.7099727925
 11
102.9331504497
 21
3.5
  0
LINE
  5
30C
100
AcDbEntity
  8
0
100
AcDbLine
 62
7
  6
CONTINUOUS
 10
102.9331504497
 20
-3.5
 11
103.05892912
 21
-3.7099727925
  0
LWPOLYLINE
  5
30D
100
AcDbEntity
  8
SUPERFICI
100
AcDbPolyline
 62
7
  6
CONTINUOUS
 90
10
 70
0
 10
82.0613346938
 20
23.3261887012
 10
82.0993169258
 20
23.2183067448
 10
82.1317459499
 20
23.105928724
 10
82.159529614
 20
22.989483875
 10
82.1840949643
 20
22.8695488327
 10
82.20587691
 20
22.7464328038
 10
82.2235728772
 20
22.6198486651
 10
82.2365036857
 20
22.4896133746
 10
82.2448875618
 20
22.3557527915
 10
82.2485280381
 20
22.2182230635
  0
LINE
  5
30E
100
AcDbEntity
  8
0
100
AcDbLine
 62
7
  6
CONTINUOUS
 10
102.9331504497
 20
-3.5
 11
102.9331504497
 21
3.5
  0
LINE
  5
30F
100
AcDbEntity
  8
0
100
AcDbLine
 62
7
  6
CONTINUOUS
 10
103.05892912
 20
-37.041498446
 11
103.05892912
 21
-3.7099727925
  0
LINE
  5
310
100
AcDbEntity
  8
0
100
AcDbLine
 62
7
  6
CONTINUOUS
 10
103.05892912
 20
3.7099727925
 11
103.05892912
 21
37.041498446
  0
LWPOLYLINE
  5
311
100
AcDbEntity
  8
0
100
AcDbPolyline
 62
7
  6
CONTINUOUS
 90
10
 70
0
 43
0.3500000006
 10
-128.7665579224
 20
56.2499987183
 10
-127.9094109192
 20
57.1071457214
 10
-127.6951264343
 20
57.9642836609
 10
-127.6951264343
 20
58.8214306641
 10
-128.1236954041
 20
59.2499996338
 10
-128.7665579224
 20
59.2499996338
 10
-129.1951268921
 20
58.8214306641
 10
-129.1951268921
 20
57.9642836609
 10
-128.7665579224
 20
57.5357146912
 10
-127.8379888
 20
57.5357146912
  0
LINE
  5
312
100
AcDbEntity
  8
SUPERFICI
100
AcDbLine
 62
7
  6
CONTINUOUS
 10
-126.3999639556
 20
39.6888042004
 11
-126.4041799803
 21
39.6870303412
  0
LINE
  5
313
100
AcDbEntity
  8
SUPERFICI
100
AcDbLine
 62
7
  6
CONTINUOUS
 10
-126.3916783667
 20
39.6918132361
 11
-126.4031320547
 21
39.6873976701
  0
LINE
  5
314
100
AcDbEntity
  8
SUPERFICI
100
AcDbLine
 62
7
  6
CONTINUOUS
 10
-126.3914870887
 20
39.6923019141
 11
-126.3957342597
 21
39.6905609015
  0
LINE
  5
315
100
AcDbEntity
  8
SUPERFICI
100
AcDbLine
 62
7
  6
CONTINUOUS
 10
-126.3822452967
 20
39.6956432871
 11
-126.3916783667
 21
39.6918132361
  0
LINE
  5
316
100
AcDbEntity
  8
SUPERFICI
100
AcDbLine
 62
7
  6
CONTINUOUS
 10
-126.37190952
 20
39.6997108819
 11
-126.3903614986
 21
39.6926910347
  0
LINE
  5
317
100
AcDbEntity
  8
SUPERFICI
100
AcDbLine
 62
7
  6
CONTINUOUS
 10
-126.3753324115
 20
39.6987164777
 11
-126.3796837658
 21
39.6970207885
  0
LINE
  5
318
100
AcDbEntity
  8
SUPERFICI
100
AcDbLine
 62
7
  6
CONTINUOUS
 10
-126.3709405546
 20
39.7004041681
 11
-126.3753324115
 21
39.6987164777
  0
LINE
  5
319
100
AcDbEntity
  8
SUPERFICI
100
AcDbLine
 62
7
  6
CONTINUOUS
 10
-126.3624946023
 20
39.7035290364
 11
-126.3767936275
 21
39.6980884351
  0
LINE
  5
31A
100
AcDbEntity
  8
SUPERFICI
100
AcDbLine
 62
7
  6
CONTINUOUS
 10
-126.3620071741
 20
39.7037639103
 11
-126.3665015147
 21
39.7020858529
  0
LINE
  5
31B
100
AcDbEntity
  8
SUPERFICI
100
AcDbLine
 62
7
  6
CONTINUOUS
 10
-126.3492817188
 20
39.7083823216
 11
-126.3539805139
 21
39.7066997575
  0
LWPOLYLINE
  5
31C
100
AcDbEntity
  8
SUPERFICI
100
AcDbPolyline
 62
250
  6
CONTINUOUS
 90
4
 70
0
 10
-126.3202783009
 20
39.7180647609
 10
-126.2710580175
 20
39.7321695616
 10
-126.1687192553
 20
39.7541284184
 10
-126.1586913083
 20
39.7560207231
  0
LINE
  5
31D
100
AcDbEntity
  8
SUPERFICI
100
AcDbLine
 62
7
  6
CONTINUOUS
 10
-126.3174959206
 20
39.7190775467
 11
-126.3215756507
 21
39.7177708594
  0
LWPOLYLINE
  5
31E
100
AcDbEntity
  8
SUPERFICI
100
AcDbPolyline
 62
7
  6
CONTINUOUS
 90
4
 70
0
 10
-126.3015771132
 20
39.7239669663
 10
-126.3170846028
 20
39.7191751181
 10
-126.3326422855
 20
39.714089054
 10
-126.3477913112
 20
39.7088634643
  0
LINE
  5
31F
100
AcDbEntity
  8
SUPERFICI
100
AcDbLine
 62
7
  6
CONTINUOUS
 10
-126.3016757573
 20
39.7239639519
 11
-126.306143256
 21
39.7226129958
  0
LWPOLYLINE
  5
320
100
AcDbEntity
  8
SUPERFICI
100
AcDbPolyline
 62
7
  6
CONTINUOUS
 90
6
 70
0
 10
-126.2872435435
 20
39.7281480246
 10
-126.3044167725
 20
39.7230641327
 10
-126.3202783009
 20
39.7180647609
 10
-126.3348596831
 20
39.713207378
 10
-126.3483179586
 20
39.7084983785
 10
-126.3606597627
 20
39.7039867193
  0
LWPOLYLINE
  5
321
100
AcDbEntity
  8
SUPERFICI
100
AcDbPolyline
 62
7
  6
CONTINUOUS
 90
3
 70
0
 10
-126.2873413911
 20
39.7281465257
 10
-126.2890162561
 20
39.7276697175
 10
-126.2939080058
 20
39.726259139
  0
LINE
  5
322
100
AcDbEntity
  8
0
100
AcDbLine
 62
7
  6
CONTINUOUS
 10
-126.0641378793
 20
-39.7651627884
 11
-121.583480898
 21
-39.9999840706
  0
LINE
  5
323
100
AcDbEntity
  8
0
100
AcDbLine
 62
7
  6
CONTINUOUS
 10
-121.383480898
 20
-39.0068917647
 11
-121.583480898
 21
-38.9964139126
  0
LWPOLYLINE
  5
324
100
AcDbEntity
  8
SUPERFICI
100
AcDbPolyline
 62
7
  6
CONTINUOUS
 90
4
 70
0
 10
-126.0828328934
 20
-39.7639925593
 10
-126.0753159122
 20
-39.7645130008
 10
-126.0675030246
 20
-39.7649952199
 10
-126.0620458615
 20
-39.7652965778
  0
LINE
  5
325
100
AcDbEntity
  8
SUPERFICI
100
AcDbLine
 62
7
  6
CONTINUOUS
 10
-126.0828328934
 20
-39.7639925593
 11
-126.0927316282
 21
-39.7632218282
  0
LINE
  5
326
100
AcDbEntity
  8
SUPERFICI
100
AcDbLine
 62
7
  6
CONTINUOUS
 10
-126.0920159887
 20
-39.7632815423
 11
-126.0884971967
 21
-39.763563851
  0
LINE
  5
327
100
AcDbEntity
  8
SUPERFICI
100
AcDbLine
 62
7
  6
CONTINUOUS
 10
-126.1586913083
 20
-39.7560207231
 11
-126.0666544631
 21
-39.7654921009
  0
LINE
  5
328
100
AcDbEntity
  8
SUPERFICI
100
AcDbLine
 62
7
  6
CONTINUOUS
 10
-126.2549596858
 20
-39.7368819111
 11
-126.2042427787
 21
-39.7444293903
  0
LINE
  5
329
100
AcDbEntity
  8
SUPERFICI
100
AcDbLine
 62
7
  6
CONTINUOUS
 10
-126.0857047349
 20
-39.7608841221
 11
-126.3621814028
 21
-39.7036884367
  0
LINE
  5
32A
100
AcDbEntity
  8
SUPERFICI
100
AcDbLine
 62
7
  6
CONTINUOUS
 10
-126.2756890479
 20
-39.7313774022
 11
-126.271262278
 21
-39.7325654781
  0
LWPOLYLINE
  5
32B
100
AcDbEntity
  8
SUPERFICI
100
AcDbPolyline
 62
7
  6
CONTINUOUS
 90
8
 70
0
 10
-126.2861210171
 20
-39.7284715781
 10
-126.2677643379
 20
-39.7335074904
 10
-126.2479065119
 20
-39.7385332344
 10
-126.2265365264
 20
-39.7434561582
 10
-126.2037000843
 20
-39.7481698131
 10
-126.1794770083
 20
-39.7525619521
 10
-126.1538839729
 20
-39.7565334047
 10
-126.126872953
 20
-39.7599902793
  0
LINE
  5
32C
100
AcDbEntity
  8
SUPERFICI
100
AcDbLine
 62
7
  6
CONTINUOUS
 10
-126.2867949379
 20
-39.728301415
 11
-126.282759149
 21
-39.7294350364
  0
LINE
  5
32D
100
AcDbEntity
  8
SUPERFICI
100
AcDbLine
 62
7
  6
CONTINUOUS
 10
-126.2932214999
 20
-39.7264587174
 11
-126.2881087419
 21
-39.7279284617
  0
LINE
  5
32E
100
AcDbEntity
  8
SUPERFICI
100
AcDbLine
 62
7
  6
CONTINUOUS
 10
-126.3015323103
 20
-39.7239804133
 11
-126.2861210171
 21
-39.7284715781
  0
LINE
  5
32F
100
AcDbEntity
  8
SUPERFICI
100
AcDbLine
 62
7
  6
CONTINUOUS
 10
-126.3028755546
 20
-39.7236033618
 11
-126.2981348336
 21
-39.7250186526
  0
LINE
  5
330
100
AcDbEntity
  8
SUPERFICI
100
AcDbLine
 62
7
  6
CONTINUOUS
 10
-126.3074645605
 20
-39.7222090911
 11
-126.3028755546
 21
-39.7236033618
  0
LINE
  5
331
100
AcDbEntity
  8
SUPERFICI
100
AcDbLine
 62
7
  6
CONTINUOUS
 10
-126.3225536155
 20
-39.7174547695
 11
-126.3183789291
 21
-39.7187963594
  0
LWPOLYLINE
  5
332
100
AcDbEntity
  8
SUPERFICI
100
AcDbPolyline
 62
250
  6
CONTINUOUS
 90
4
 70
0
 10
-126.3170303001
 20
-39.7191923788
 10
-126.2710580175
 20
-39.7321695616
 10
-126.1687192553
 20
-39.7541284184
 10
-126.1586913083
 20
-39.7560207231
  0
LWPOLYLINE
  5
333
100
AcDbEntity
  8
SUPERFICI
100
AcDbPolyline
 62
7
  6
CONTINUOUS
 90
3
 70
0
 10
-126.3337286835
 20
-39.7135931921
 10
-126.3191610192
 20
-39.7184265674
 10
-126.3033277639
 20
-39.7233966173
  0
LINE
  5
334
100
AcDbEntity
  8
SUPERFICI
100
AcDbLine
 62
7
  6
CONTINUOUS
 10
-126.3374264315
 20
-39.7125103256
 11
-126.3335691131
 21
-39.7138175632
  0
LINE
  5
335
100
AcDbEntity
  8
SUPERFICI
100
AcDbLine
 62
7
  6
CONTINUOUS
 10
-126.3485964909
 20
-39.7086254773
 11
-126.3449355547
 21
-39.7099150653
  0
LINE
  5
336
100
AcDbEntity
  8
SUPERFICI
100
AcDbLine
 62
7
  6
CONTINUOUS
 10
-126.3530921552
 20
-39.7070198995
 11
-126.3495026168
 21
-39.7083038152
  0
LWPOLYLINE
  5
337
100
AcDbEntity
  8
SUPERFICI
100
AcDbPolyline
 62
7
  6
CONTINUOUS
 90
4
 70
0
 10
-126.3624173127
 20
-39.7035577623
 10
-126.3477185003
 20
-39.7088892327
 10
-126.3325771796
 20
-39.7141109268
 10
-126.3170303001
 20
-39.7191923788
  0
LINE
  5
338
100
AcDbEntity
  8
SUPERFICI
100
AcDbLine
 62
7
  6
CONTINUOUS
 10
-126.3627077393
 20
-39.7035039606
 11
-126.3592496748
 21
-39.7047813016
  0
LINE
  5
339
100
AcDbEntity
  8
SUPERFICI
100
AcDbLine
 62
7
  6
CONTINUOUS
 10
-126.366978607
 20
-39.7019062709
 11
-126.3635662798
 21
-39.7031845776
  0
LINE
  5
33A
100
AcDbEntity
  8
SUPERFICI
100
AcDbLine
 62
7
  6
CONTINUOUS
 10
-126.3753801871
 20
-39.6986979875
 11
-126.3720392378
 21
-39.6999842024
  0
LINE
  5
33B
100
AcDbEntity
  8
SUPERFICI
100
AcDbLine
 62
7
  6
CONTINUOUS
 10
-126.3811598082
 20
-39.6960767879
 11
-126.3708005781
 21
-39.7001393543
  0
LINE
  5
33C
100
AcDbEntity
  8
SUPERFICI
100
AcDbLine
 62
7
  6
CONTINUOUS
 10
-126.391815636
 20
-39.6921680524
 11
-126.3811598082
 21
-39.6960767879
  0
LINE
  5
33D
100
AcDbEntity
  8
SUPERFICI
100
AcDbLine
 62
7
  6
CONTINUOUS
 10
-126.3958809899
 20
-39.6905003433
 11
-126.391815636
 21
-39.6921680524
  0
LINE
  5
33E
100
AcDbEntity
  8
SUPERFICI
100
AcDbLine
 62
7
  6
CONTINUOUS
 10
-126.4343786595
 20
-39.6709176719
 11
-126.3717455133
 21
-39.697055495
  0
LWPOLYLINE
  5
33F
100
AcDbEntity
  8
SUPERFICI
100
AcDbPolyline
 62
7
  6
CONTINUOUS
 90
3
 70
0
 10
-126.3496284171
 20
-39.7062853163
 10
-126.3430253364
 20
-39.7090408884
 10
-126.2510690111
 20
-39.7372613303
  0
LINE
  5
340
100
AcDbEntity
  8
SUPERFICI
100
AcDbLine
 62
7
  6
CONTINUOUS
 10
-126.4015608708
 20
-39.688135001
 11
-126.4007498797
 21
-39.6884752622
  0
LINE
  5
341
100
AcDbEntity
  8
SUPERFICI
100
AcDbLine
 62
7
  6
CONTINUOUS
 10
-126.58749459
 20
39.5852741145
 11
-126.5930733945
 21
39.5812121644
  0
LINE
  5
342
100
AcDbEntity
  8
SUPERFICI
100
AcDbLine
 62
7
  6
CONTINUOUS
 10
-126.5837206436
 20
39.5879147186
 11
-126.5879673518
 21
39.5848033282
  0
LINE
  5
343
100
AcDbEntity
  8
SUPERFICI
100
AcDbLine
 62
7
  6
CONTINUOUS
 10
-126.5800378474
 20
39.5904665814
 11
-126.5843006643
 21
39.5873532281
  0
LINE
  5
344
100
AcDbEntity
  8
SUPERFICI
100
AcDbLine
 62
7
  6
CONTINUOUS
 10
-126.5764316344
 20
39.5929417006
 11
-126.5803955642
 21
39.5900427971
  0
LINE
  5
345
100
AcDbEntity
  8
SUPERFICI
100
AcDbLine
 62
7
  6
CONTINUOUS
 10
-126.5694110021
 20
39.5976938629
 11
-126.5746553876
 21
39.594152276
  0
LINE
  5
346
100
AcDbEntity
  8
SUPERFICI
100
AcDbLine
 62
7
  6
CONTINUOUS
 10
-126.6073414335
 20
39.5666680946
 11
-126.5234373019
 21
39.6230152857
  0
LINE
  5
347
100
AcDbEntity
  8
SUPERFICI
100
AcDbLine
 62
7
  6
CONTINUOUS
 10
-126.5642765154
 20
39.6011144207
 11
-126.5725684267
 21
39.5953542504
  0
LINE
  5
348
100
AcDbEntity
  8
SUPERFICI
100
AcDbLine
 62
7
  6
CONTINUOUS
 10
-126.5592306257
 20
39.6044313487
 11
-126.566950187
 21
39.5991031912
  0
LINE
  5
349
100
AcDbEntity
  8
SUPERFICI
100
AcDbLine
 62
7
  6
CONTINUOUS
 10
-126.5550484706
 20
39.6068812938
 11
-126.5616229348
 21
39.6026105186
  0
LINE
  5
34A
100
AcDbEntity
  8
SUPERFICI
100
AcDbLine
 62
7
  6
CONTINUOUS
 10
-126.5505718194
 20
39.6097656
 11
-126.55343581
 21
39.6079242167
  0
LINE
  5
34B
100
AcDbEntity
  8
SUPERFICI
100
AcDbLine
 62
7
  6
CONTINUOUS
 10
-126.5461733555
 20
39.6125666082
 11
-126.5493140109
 21
39.6105699247
  0
LINE
  5
34C
100
AcDbEntity
  8
SUPERFICI
100
AcDbLine
 62
7
  6
CONTINUOUS
 10
-126.5392749787
 20
39.6168940451
 11
-126.5431239115
 21
39.6144894053
  0
LWPOLYLINE
  5
34D
100
AcDbEntity
  8
SUPERFICI
100
AcDbPolyline
 62
7
  6
CONTINUOUS
 90
3
 70
0
 10
-126.5324479486
 20
39.6210986618
 10
-126.5343740618
 20
39.619920215
 10
-126.5392749787
 20
39.6168940451
  0
LINE
  5
34E
100
AcDbEntity
  8
SUPERFICI
100
AcDbLine
 62
7
  6
CONTINUOUS
 10
-126.5255962387
 20
39.6252414631
 11
-126.5303667353
 21
39.6223651501
  0
LINE
  5
34F
100
AcDbEntity
  8
SUPERFICI
100
AcDbLine
 62
7
  6
CONTINUOUS
 10
-126.5199469984
 20
39.6285999468
 11
-126.5255962387
 21
39.6252414631
  0
LINE
  5
350
100
AcDbEntity
  8
SUPERFICI
100
AcDbLine
 62
7
  6
CONTINUOUS
 10
-126.5132306028
 20
39.6325264157
 11
-126.5199469984
 21
39.6285999468
  0
LWPOLYLINE
  5
351
100
AcDbEntity
  8
SUPERFICI
100
AcDbPolyline
 62
7
  6
CONTINUOUS
 90
7
 70
0
 10
-126.48449385
 20
39.648534166
 10
-126.4903357359
 20
39.6453818071
 10
-126.4957322424
 20
39.6424241541
 10
-126.5006939154
 20
39.6396657224
 10
-126.5052181364
 20
39.6371175054
 10
-126.509394502
 20
39.6347370176
 10
-126.5157051155
 20
39.6312747457
  0
LINE
  5
352
100
AcDbEntity
  8
SUPERFICI
100
AcDbLine
 62
7
  6
CONTINUOUS
 10
-126.5234373019
 20
39.6230152857
 11
-126.4343786595
 21
39.6709176719
  0
LINE
  5
353
100
AcDbEntity
  8
SUPERFICI
100
AcDbLine
 62
7
  6
CONTINUOUS
 10
-126.4798608539
 20
39.6503423096
 11
-126.4848739911
 21
39.6484737662
  0
LINE
  5
354
100
AcDbEntity
  8
SUPERFICI
100
AcDbLine
 62
7
  6
CONTINUOUS
 10
-126.4750458187
 20
39.6528793646
 11
-126.480199861
 21
39.6509566398
  0
LINE
  5
355
100
AcDbEntity
  8
SUPERFICI
100
AcDbLine
 62
7
  6
CONTINUOUS
 10
-126.4711328062
 20
39.6555541044
 11
-126.4780949278
 21
39.6519288831
  0
LINE
  5
356
100
AcDbEntity
  8
SUPERFICI
100
AcDbLine
 62
7
  6
CONTINUOUS
 10
-126.4607245811
 20
39.6602351293
 11
-126.4711328062
 21
39.6555541044
  0
LINE
  5
357
100
AcDbEntity
  8
SUPERFICI
100
AcDbLine
 62
7
  6
CONTINUOUS
 10
-126.4519501512
 20
39.6646029858
 11
-126.4636014922
 21
39.6593966324
  0
LINE
  5
358
100
AcDbEntity
  8
SUPERFICI
100
AcDbLine
 62
7
  6
CONTINUOUS
 10
-126.4464670494
 20
39.6678384207
 11
-126.455386509
 21
39.6634955633
  0
LINE
  5
359
100
AcDbEntity
  8
SUPERFICI
100
AcDbLine
 62
7
  6
CONTINUOUS
 10
-126.4417556474
 20
39.6695460174
 11
-126.4455846771
 21
39.6677060012
  0
LINE
  5
35A
100
AcDbEntity
  8
SUPERFICI
100
AcDbLine
 62
7
  6
CONTINUOUS
 10
-126.4374747076
 20
39.6715796838
 11
-126.4464670494
 21
39.6678384207
  0
LINE
  5
35B
100
AcDbEntity
  8
SUPERFICI
100
AcDbLine
 62
7
  6
CONTINUOUS
 10
-126.4327318554
 20
39.6738039236
 11
-126.4374747076
 21
39.6715796838
  0
LINE
  5
35C
100
AcDbEntity
  8
SUPERFICI
100
AcDbLine
 62
7
  6
CONTINUOUS
 10
-126.4274314511
 20
39.6762539304
 11
-126.4368465719
 21
39.6723989938
  0
LINE
  5
35D
100
AcDbEntity
  8
SUPERFICI
100
AcDbLine
 62
7
  6
CONTINUOUS
 10
-126.4215813445
 20
39.6789145401
 11
-126.4274314511
 21
39.6762539304
  0
LWPOLYLINE
  5
35E
100
AcDbEntity
  8
SUPERFICI
100
AcDbPolyline
 62
250
  6
CONTINUOUS
 90
3
 70
0
 10
-126.4215813445
 20
39.6789145401
 10
-126.3705281555
 20
39.6994169593
 10
-126.3348596831
 20
39.713207378
  0
LINE
  5
35F
100
AcDbEntity
  8
SUPERFICI
100
AcDbLine
 62
7
  6
CONTINUOUS
 10
-126.415163831
 20
39.6817810873
 11
-126.4264438936
 21
39.6771883602
  0
LINE
  5
360
100
AcDbEntity
  8
SUPERFICI
100
AcDbLine
 62
7
  6
CONTINUOUS
 10
-126.408042311
 20
39.6848987668
 11
-126.4178278368
 21
39.6811299998
  0
LINE
  5
361
100
AcDbEntity
  8
SUPERFICI
100
AcDbLine
 62
7
  6
CONTINUOUS
 10
-126.4002198684
 20
39.6882471796
 11
-126.4151902332
 21
39.6822061788
  0
LINE
  5
362
100
AcDbEntity
  8
SUPERFICI
100
AcDbLine
 62
7
  6
CONTINUOUS
 10
-126.4041799803
 20
39.6870303412
 11
-126.4052322648
 21
39.6865840285
  0
LINE
  5
363
100
AcDbEntity
  8
SUPERFICI
100
AcDbLine
 62
250
  6
CONTINUOUS
 10
-126.9920248415
 20
-36.1152349379
 11
-126.0644190175
 21
-36.1033166861
  0
LINE
  5
364
100
AcDbEntity
  8
0
100
AcDbLine
 62
250
  6
CONTINUOUS
 10
-126.0644190175
 20
-37.0414701762
 11
-121.583480898
 21
-37.0414701762
  0
LINE
  5
365
100
AcDbEntity
  8
0
100
AcDbLine
 62
250
  6
CONTINUOUS
 10
-121.383480898
 20
-36.8502844496
 11
-121.583480898
 21
-36.8502844496
  0
LINE
  5
366
100
AcDbEntity
  8
SUPERFICI
100
AcDbLine
 62
7
  6
CONTINUOUS
 10
-126.408049912
 20
-39.6853819054
 11
-126.3991972644
 21
-39.6886790558
  0
LINE
  5
367
100
AcDbEntity
  8
SUPERFICI
100
AcDbLine
 62
7
  6
CONTINUOUS
 10
-126.4170003515
 20
-39.6814946849
 11
-126.4070567708
 21
-39.6853250023
  0
LINE
  5
368
100
AcDbEntity
  8
SUPERFICI
100
AcDbLine
 62
7
  6
CONTINUOUS
 10
-126.4284925448
 20
-39.6763487045
 11
-126.4206771371
 21
-39.6793217188
  0
LINE
  5
369
100
AcDbEntity
  8
SUPERFICI
100
AcDbLine
 62
7
  6
CONTINUOUS
 10
-126.4393265482
 20
-39.6713354142
 11
-126.431916769
 21
-39.6741831282
  0
LINE
  5
36A
100
AcDbEntity
  8
SUPERFICI
100
AcDbLine
 62
7
  6
CONTINUOUS
 10
-126.4504086842
 20
-39.6660417124
 11
-126.4410365771
 21
-39.6698893448
  0
LINE
  5
36B
100
AcDbEntity
  8
SUPERFICI
100
AcDbLine
 62
7
  6
CONTINUOUS
 10
-126.460066801
 20
-39.6612892882
 11
-126.4513893711
 21
-39.6648785706
  0
LINE
  5
36C
100
AcDbEntity
  8
SUPERFICI
100
AcDbLine
 62
7
  6
CONTINUOUS
 10
-126.467311717
 20
-39.6576380203
 11
-126.4636624267
 21
-39.6594864942
  0
LINE
  5
36D
100
AcDbEntity
  8
SUPERFICI
100
AcDbLine
 62
7
  6
CONTINUOUS
 10
-126.5234373019
 20
-39.6230152857
 11
-126.4343786595
 21
-39.6709176719
  0
LWPOLYLINE
  5
36E
100
AcDbEntity
  8
SUPERFICI
100
AcDbPolyline
 62
7
  6
CONTINUOUS
 90
16
 70
0
 10
-126.5007035381
 20
-39.6396603361
 10
-126.4957701991
 20
-39.6424031948
 10
-126.4903946785
 20
-39.6453497402
 10
-126.4845674229
 20
-39.6484947819
 10
-126.478175814
 20
-39.6518863486
 10
-126.4712125496
 20
-39.6555129809
 10
-126.4636725943
 20
-39.6593607365
 10
-126.4554436544
 20
-39.66346738
 10
-126.4465032499
 20
-39.6678210189
 10
-126.4368563157
 20
-39.672394439
 10
-126.4264286963
 20
-39.6771952502
 10
-126.4151524075
 20
-39.6822227617
 10
-126.4030731469
 20
-39.687422568
 10
-126.390287939
 20
-39.6927209223
 10
-126.3767148528
 20
-39.6981190997
 10
-126.3595331517
 20
-39.7044063039
  0
LINE
  5
36F
100
AcDbEntity
  8
SUPERFICI
100
AcDbLine
 62
7
  6
CONTINUOUS
 10
-126.5054807306
 20
-39.6362937654
 11
-126.5024273996
 21
-39.6380166983
  0
LINE
  5
370
100
AcDbEntity
  8
SUPERFICI
100
AcDbLine
 62
7
  6
CONTINUOUS
 10
-126.5125389988
 20
-39.633108112
 11
-126.5088708449
 21
-39.6352126567
  0
LINE
  5
371
100
AcDbEntity
  8
SUPERFICI
100
AcDbLine
 62
7
  6
CONTINUOUS
 10
-126.5175970155
 20
-39.6301717261
 11
-126.5137851802
 21
-39.6323883704
  0
LINE
  5
372
100
AcDbEntity
  8
SUPERFICI
100
AcDbLine
 62
7
  6
CONTINUOUS
 10
-126.521521548
 20
-39.6278656379
 11
-126.5175970155
 21
-39.6301717261
  0
LINE
  5
373
100
AcDbEntity
  8
SUPERFICI
100
AcDbLine
 62
7
  6
CONTINUOUS
 10
-126.525559194
 20
-39.6254675628
 11
-126.521521548
 21
-39.6278656379
  0
LINE
  5
374
100
AcDbEntity
  8
SUPERFICI
100
AcDbLine
 62
7
  6
CONTINUOUS
 10
-126.529709314
 20
-39.6229754853
 11
-126.525559194
 21
-39.6254675628
  0
LINE
  5
375
100
AcDbEntity
  8
SUPERFICI
100
AcDbLine
 62
7
  6
CONTINUOUS
 10
-126.5325377583
 20
-39.6212611301
 11
-126.5277982918
 21
-39.6239183661
  0
LINE
  5
376
100
AcDbEntity
  8
SUPERFICI
100
AcDbLine
 62
7
  6
CONTINUOUS
 10
-126.5368705829
 20
-39.618609724
 11
-126.5321124855
 21
-39.6213032828
  0
LINE
  5
377
100
AcDbEntity
  8
SUPERFICI
100
AcDbLine
 62
7
  6
CONTINUOUS
 10
-126.5428086412
 20
-39.6149259728
 11
-126.5383381907
 21
-39.6177046804
  0
LINE
  5
378
100
AcDbEntity
  8
SUPERFICI
100
AcDbLine
 62
7
  6
CONTINUOUS
 10
-126.5458429048
 20
-39.6130210764
 11
-126.5415133445
 21
-39.6154986303
  0
LINE
  5
379
100
AcDbEntity
  8
SUPERFICI
100
AcDbLine
 62
7
  6
CONTINUOUS
 10
-126.5504620508
 20
-39.6100916303
 11
-126.5457265745
 21
-39.6128492998
  0
LINE
  5
37A
100
AcDbEntity
  8
SUPERFICI
100
AcDbLine
 62
7
  6
CONTINUOUS
 10
-126.5535846916
 20
-39.6080908955
 11
-126.5495191674
 21
-39.6104389166
  0
LINE
  5
37B
100
AcDbEntity
  8
SUPERFICI
100
AcDbLine
 62
7
  6
CONTINUOUS
 10
-126.5611710962
 20
-39.6029059342
 11
-126.5541444432
 21
-39.6074610851
  0
LINE
  5
37C
100
AcDbEntity
  8
SUPERFICI
100
AcDbLine
 62
7
  6
CONTINUOUS
 10
-126.5645075619
 20
-39.6007169785
 11
-126.5618732486
 21
-39.6024467249
  0
LINE
  5
37D
100
AcDbEntity
  8
SUPERFICI
100
AcDbLine
 62
7
  6
CONTINUOUS
 10
-126.5693995952
 20
-39.5974751657
 11
-126.5631802537
 21
-39.6018387937
  0
LINE
  5
37E
100
AcDbEntity
  8
SUPERFICI
100
AcDbLine
 62
7
  6
CONTINUOUS
 10
-126.5723906889
 20
-39.5954736547
 11
-126.5697601812
 21
-39.5972346647
  0
LINE
  5
37F
100
AcDbEntity
  8
SUPERFICI
100
AcDbLine
 62
7
  6
CONTINUOUS
 10
-126.6073414335
 20
-39.5666680946
 11
-126.5234373019
 21
-39.6230152857
  0
LINE
  5
380
100
AcDbEntity
  8
SUPERFICI
100
AcDbLine
 62
7
  6
CONTINUOUS
 10
-126.5764915064
 20
-39.5927051511
 11
-126.5735771657
 21
-39.594675574
  0
LINE
  5
381
100
AcDbEntity
  8
SUPERFICI
100
AcDbLine
 62
7
  6
CONTINUOUS
 10
-126.5800848863
 20
-39.5902556268
 11
-126.5749223441
 21
-39.5939706944
  0
LINE
  5
382
100
AcDbEntity
  8
SUPERFICI
100
AcDbLine
 62
7
  6
CONTINUOUS
 10
-126.5844849308
 20
-39.5872256553
 11
-126.5784202648
 21
-39.5915796921
  0
LINE
  5
383
100
AcDbEntity
  8
SUPERFICI
100
AcDbLine
 62
7
  6
CONTINUOUS
 10
-126.5887389566
 20
-39.5842636739
 11
-126.5819964072
 21
-39.5891125229
  0
LINE
  5
384
100
AcDbEntity
  8
SUPERFICI
100
AcDbLine
 62
7
  6
CONTINUOUS
 10
-126.5921584412
 20
-39.5818591547
 11
-126.585663123
 21
-39.5865588286
  0
LWPOLYLINE
  5
385
100
AcDbEntity
  8
SUPERFICI
100
AcDbPolyline
 62
7
  6
CONTINUOUS
 90
9
 70
0
 10
-126.6729497505
 20
39.5181364237
 10
-126.6768229858
 20
39.5147081432
 10
-126.6811567256
 20
39.5108271311
 10
-126.6857500848
 20
39.5066608929
 10
-126.6908329437
 20
39.5019864916
 10
-126.696160751
 20
39.4970132849
 10
-126.7008424323
 20
39.4925800508
 10
-126.7044746608
 20
39.4890992688
 10
-126.7074863744
 20
39.4861854104
  0
LINE
  5
386
100
AcDbEntity
  8
SUPERFICI
100
AcDbLine
 62
7
  6
CONTINUOUS
 10
-126.6669376233
 20
39.5233835719
 11
-126.6729497505
 21
39.5181364237
  0
LINE
  5
387
100
AcDbEntity
  8
SUPERFICI
100
AcDbLine
 62
7
  6
CONTINUOUS
 10
-126.6619026676
 20
39.5277095284
 11
-126.6669376233
 21
39.5233835719
  0
LWPOLYLINE
  5
388
100
AcDbEntity
  8
SUPERFICI
100
AcDbPolyline
 62
7
  6
CONTINUOUS
 90
3
 70
0
 10
-126.6554094023
 20
39.5331986181
 10
-126.6574811427
 20
39.53145812
 10
-126.6619026676
 20
39.5277095284
  0
LINE
  5
389
100
AcDbEntity
  8
SUPERFICI
100
AcDbLine
 62
7
  6
CONTINUOUS
 10
-126.6515530619
 20
39.5364116814
 11
-126.6534440438
 21
39.5348404522
  0
LINE
  5
38A
100
AcDbEntity
  8
SUPERFICI
100
AcDbLine
 62
7
  6
CONTINUOUS
 10
-126.6479845629
 20
39.5393543594
 11
-126.6497311205
 21
39.5379177447
  0
LINE
  5
38B
100
AcDbEntity
  8
SUPERFICI
100
AcDbLine
 62
7
  6
CONTINUOUS
 10
-126.6415919533
 20
39.5445537544
 11
-126.6462985463
 21
39.5407345977
  0
LINE
  5
38C
100
AcDbEntity
  8
SUPERFICI
100
AcDbLine
 62
7
  6
CONTINUOUS
 10
-126.6373136899
 20
39.5479826998
 11
-126.6415919533
 21
39.5445537544
  0
LINE
  5
38D
100
AcDbEntity
  8
SUPERFICI
100
AcDbLine
 62
7
  6
CONTINUOUS
 10
-126.6333807883
 20
39.5510996065
 11
-126.6373136899
 21
39.5479826998
  0
LINE
  5
38E
100
AcDbEntity
  8
SUPERFICI
100
AcDbLine
 62
7
  6
CONTINUOUS
 10
-126.6297342905
 20
39.5539598243
 11
-126.6333807883
 21
39.5510996065
  0
LINE
  5
38F
100
AcDbEntity
  8
SUPERFICI
100
AcDbLine
 62
7
  6
CONTINUOUS
 10
-126.6263306186
 20
39.556604136
 11
-126.6297342905
 21
39.5539598243
  0
LINE
  5
390
100
AcDbEntity
  8
SUPERFICI
100
AcDbLine
 62
7
  6
CONTINUOUS
 10
-126.6221133764
 20
39.559846913
 11
-126.6263306186
 21
39.556604136
  0
LINE
  5
391
100
AcDbEntity
  8
SUPERFICI
100
AcDbLine
 62
7
  6
CONTINUOUS
 10
-126.6182107278
 20
39.5628151315
 11
-126.6221133764
 21
39.559846913
  0
LINE
  5
392
100
AcDbEntity
  8
SUPERFICI
100
AcDbLine
 62
7
  6
CONTINUOUS
 10
-126.608661596
 20
39.5699716593
 11
-126.6182107278
 21
39.5628151315
  0
LINE
  5
393
100
AcDbEntity
  8
SUPERFICI
100
AcDbLine
 62
7
  6
CONTINUOUS
 10
-126.6039914428
 20
39.5734210242
 11
-126.6120065261
 21
39.5674703399
  0
LINE
  5
394
100
AcDbEntity
  8
SUPERFICI
100
AcDbLine
 62
7
  6
CONTINUOUS
 10
-126.599576133
 20
39.5766436608
 11
-126.6072107275
 21
39.5710163345
  0
LINE
  5
395
100
AcDbEntity
  8
SUPERFICI
100
AcDbLine
 62
7
  6
CONTINUOUS
 10
-126.5974670777
 20
39.5781699444
 11
-126.6020876669
 21
39.5747548498
  0
LINE
  5
396
100
AcDbEntity
  8
SUPERFICI
100
AcDbLine
 62
7
  6
CONTINUOUS
 10
-126.5933694771
 20
39.5811113799
 11
-126.5980441374
 21
39.5776702114
  0
LINE
  5
397
100
AcDbEntity
  8
SUPERFICI
100
AcDbLine
 62
7
  6
CONTINUOUS
 10
-126.5936710004
 20
39.5807887508
 11
-126.5942749688
 21
39.5803601618
  0
LINE
  5
398
100
AcDbEntity
  8
SUPERFICI
100
AcDbLine
 62
7
  6
CONTINUOUS
 10
-126.5894235731
 20
39.5839143386
 11
-126.5913814585
 21
39.5825271701
  0
LINE
  5
399
100
AcDbEntity
  8
SUPERFICI
100
AcDbLine
 62
7
  6
CONTINUOUS
 10
-126.5957895249
 20
-39.5792824376
 11
-126.5894389499
 21
-39.5839034717
  0
LINE
  5
39A
100
AcDbEntity
  8
SUPERFICI
100
AcDbLine
 62
7
  6
CONTINUOUS
 10
-126.5996486243
 20
-39.5765170809
 11
-126.5933381282
 21
-39.5811337624
  0
LINE
  5
39B
100
AcDbEntity
  8
SUPERFICI
100
AcDbLine
 62
7
  6
CONTINUOUS
 10
-126.603755067
 20
-39.5735436201
 11
-126.5973849139
 21
-39.5782292348
  0
LINE
  5
39C
100
AcDbEntity
  8
SUPERFICI
100
AcDbLine
 62
7
  6
CONTINUOUS
 10
-126.6073790251
 20
-39.5708926594
 11
-126.6016195135
 21
-39.5751568638
  0
LINE
  5
39D
100
AcDbEntity
  8
SUPERFICI
100
AcDbLine
 62
7
  6
CONTINUOUS
 10
-126.6111961413
 20
-39.5680727181
 11
-126.6081265818
 21
-39.570342643
  0
LINE
  5
39E
100
AcDbEntity
  8
SUPERFICI
100
AcDbLine
 62
7
  6
CONTINUOUS
 10
-126.6160740386
 20
-39.5644270916
 11
-126.6083610727
 21
-39.5701948958
  0
LINE
  5
39F
100
AcDbEntity
  8
SUPERFICI
100
AcDbLine
 62
7
  6
CONTINUOUS
 10
-126.6195246753
 20
-39.5618192648
 11
-126.6160740386
 21
-39.5644270916
  0
LINE
  5
3A0
100
AcDbEntity
  8
SUPERFICI
100
AcDbLine
 62
7
  6
CONTINUOUS
 10
-126.6231576092
 20
-39.5590474033
 11
-126.6195246753
 21
-39.5618192648
  0
LINE
  5
3A1
100
AcDbEntity
  8
SUPERFICI
100
AcDbLine
 62
7
  6
CONTINUOUS
 10
-126.6270086617
 20
-39.5560793082
 11
-126.6231576092
 21
-39.5590474033
  0
LINE
  5
3A2
100
AcDbEntity
  8
SUPERFICI
100
AcDbLine
 62
7
  6
CONTINUOUS
 10
-126.6311255952
 20
-39.5528718676
 11
-126.6270086617
 21
-39.5560793082
  0
LINE
  5
3A3
100
AcDbEntity
  8
SUPERFICI
100
AcDbLine
 62
7
  6
CONTINUOUS
 10
-126.6344278661
 20
-39.5502730427
 11
-126.6311255952
 21
-39.5528718676
  0
LINE
  5
3A4
100
AcDbEntity
  8
SUPERFICI
100
AcDbLine
 62
7
  6
CONTINUOUS
 10
-126.6379538677
 20
-39.5474721658
 11
-126.6344278661
 21
-39.5502730427
  0
LINE
  5
3A5
100
AcDbEntity
  8
SUPERFICI
100
AcDbLine
 62
7
  6
CONTINUOUS
 10
-126.6417552153
 20
-39.5444221033
 11
-126.6379538677
 21
-39.5474721658
  0
LINE
  5
3A6
100
AcDbEntity
  8
SUPERFICI
100
AcDbLine
 62
7
  6
CONTINUOUS
 10
-126.6459457561
 20
-39.5410225918
 11
-126.6417552153
 21
-39.5444221033
  0
LWPOLYLINE
  5
3A7
100
AcDbEntity
  8
SUPERFICI
100
AcDbPolyline
 62
7
  6
CONTINUOUS
 90
3
 70
0
 10
-126.6522160904
 20
-39.5358617085
 10
-126.6505751002
 20
-39.5372210375
 10
-126.6459457561
 20
-39.5410225918
  0
LINE
  5
3A8
100
AcDbEntity
  8
SUPERFICI
100
AcDbLine
 62
7
  6
CONTINUOUS
 10
-126.6556373863
 20
-39.5330075793
 11
-126.6539024579
 21
-39.5344583043
  0
LINE
  5
3A9
100
AcDbEntity
  8
SUPERFICI
100
AcDbLine
 62
7
  6
CONTINUOUS
 10
-126.6592768982
 20
-39.5299412838
 11
-126.6574319559
 21
-39.5314995597
  0
LINE
  5
3AA
100
AcDbEntity
  8
SUPERFICI
100
AcDbLine
 62
7
  6
CONTINUOUS
 10
-126.667348012
 20
-39.5230282463
 11
-126.6631805482
 21
-39.5266174159
  0
LINE
  5
3AB
100
AcDbEntity
  8
SUPERFICI
100
AcDbLine
 62
7
  6
CONTINUOUS
 10
-126.7857314872
 20
39.4006295457
 11
-126.7890275079
 21
39.3965531942
  0
LINE
  5
3AC
100
AcDbEntity
  8
SUPERFICI
100
AcDbLine
 62
7
  6
CONTINUOUS
 10
-126.7823536302
 20
39.4047624642
 11
-126.7876241094
 21
39.3986347304
  0
LINE
  5
3AD
100
AcDbEntity
  8
SUPERFICI
100
AcDbLine
 62
7
  6
CONTINUOUS
 10
-126.7800553784
 20
39.4075490318
 11
-126.7850920975
 21
39.4017382457
  0
LINE
  5
3AE
100
AcDbEntity
  8
SUPERFICI
100
AcDbLine
 62
7
  6
CONTINUOUS
 10
-126.7753438224
 20
39.4131984843
 11
-126.7788920575
 21
39.4089517753
  0
LINE
  5
3AF
100
AcDbEntity
  8
SUPERFICI
100
AcDbLine
 62
7
  6
CONTINUOUS
 10
-126.7717047659
 20
39.4175048738
 11
-126.7775694908
 21
39.4108105088
  0
LINE
  5
3B0
100
AcDbEntity
  8
SUPERFICI
100
AcDbLine
 62
7
  6
CONTINUOUS
 10
-126.7679702201
 20
39.4218736033
 11
-126.7717047659
 21
39.4175048738
  0
LINE
  5
3B1
100
AcDbEntity
  8
SUPERFICI
100
AcDbLine
 62
7
  6
CONTINUOUS
 10
-126.7641352166
 20
39.4263074346
 11
-126.7701467856
 21
39.4195519315
  0
LINE
  5
3B2
100
AcDbEntity
  8
SUPERFICI
100
AcDbLine
 62
7
  6
CONTINUOUS
 10
-126.7601909764
 20
39.4308131948
 11
-126.7641352166
 21
39.4263074346
  0
LINE
  5
3B3
100
AcDbEntity
  8
SUPERFICI
100
AcDbLine
 62
7
  6
CONTINUOUS
 10
-126.7574944413
 20
39.4338624233
 11
-126.7628094712
 21
39.427995723
  0
LWPOLYLINE
  5
3B4
100
AcDbEntity
  8
SUPERFICI
100
AcDbPolyline
 62
250
  6
CONTINUOUS
 90
13
 70
0
 10
-126.9940333614
 20
37.4565050651
 10
-126.9722126303
 20
37.4809145484
 10
-126.9375208818
 20
37.5045333497
 10
-126.8905086421
 20
37.5270879496
 10
-126.8316194227
 20
37.5483376661
 10
-126.7615335671
 20
37.5679448637
 10
-126.6813775777
 20
37.5855122625
 10
-126.5921121013
 20
37.6007893369
 10
-126.4949449525
 20
37.6136376763
 10
-126.3916391348
 20
37.6238931966
 10
-126.2837291987
 20
37.6314525301
 10
-126.1724249183
 20
37.6362402081
 10
-126.0590306236
 20
37.6381691769
  0
LINE
  5
3B5
100
AcDbEntity
  8
SUPERFICI
100
AcDbLine
 62
7
  6
CONTINUOUS
 10
-126.7519162696
 20
39.4400913086
 11
-126.7561240012
 21
39.4354025225
  0
LINE
  5
3B6
100
AcDbEntity
  8
SUPERFICI
100
AcDbLine
 62
7
  6
CONTINUOUS
 10
-126.750479213
 20
39.4416790311
 11
-126.7555451428
 21
39.4361699327
  0
LINE
  5
3B7
100
AcDbEntity
  8
SUPERFICI
100
AcDbLine
 62
7
  6
CONTINUOUS
 10
-126.7475445608
 20
39.4449000889
 11
-126.7490219163
 21
39.4432821062
  0
LWPOLYLINE
  5
3B8
100
AcDbEntity
  8
SUPERFICI
100
AcDbPolyline
 62
7
  6
CONTINUOUS
 90
3
 70
0
 10
-126.7414107911
 20
39.4515416785
 10
-126.7429799866
 20
39.4498541318
 10
-126.7483458631
 20
39.4440954565
  0
LINE
  5
3B9
100
AcDbEntity
  8
SUPERFICI
100
AcDbLine
 62
7
  6
CONTINUOUS
 10
-126.7381672024
 20
39.4550050425
 11
-126.7398070805
 21
39.4532582207
  0
LWPOLYLINE
  5
3BA
100
AcDbEntity
  8
SUPERFICI
100
AcDbPolyline
 62
7
  6
CONTINUOUS
 90
3
 70
0
 10
-126.7312166272
 20
39.4623155955
 10
-126.733017343
 20
39.4604359715
 10
-126.7388352001
 20
39.4543081053
  0
LINE
  5
3BB
100
AcDbEntity
  8
SUPERFICI
100
AcDbLine
 62
7
  6
CONTINUOUS
 10
-126.7255827845
 20
39.4681326056
 11
-126.7293762576
 21
39.4642263654
  0
LINE
  5
3BC
100
AcDbEntity
  8
SUPERFICI
100
AcDbLine
 62
7
  6
CONTINUOUS
 10
-126.7216148462
 20
39.4721724863
 11
-126.7255827845
 21
39.4681326056
  0
LINE
  5
3BD
100
AcDbEntity
  8
SUPERFICI
100
AcDbLine
 62
7
  6
CONTINUOUS
 10
-126.7174067859
 20
39.4764062352
 11
-126.7216148462
 21
39.4721724863
  0
LINE
  5
3BE
100
AcDbEntity
  8
SUPERFICI
100
AcDbLine
 62
7
  6
CONTINUOUS
 10
-126.7128331223
 20
39.4809496337
 11
-126.7174067859
 21
39.4764062352
  0
LINE
  5
3BF
100
AcDbEntity
  8
SUPERFICI
100
AcDbLine
 62
7
  6
CONTINUOUS
 10
-126.7074863748
 20
39.48618541
 11
-126.7128331223
 21
39.4809496337
  0
LINE
  5
3C0
100
AcDbEntity
  8
0
100
AcDbLine
 62
7
  6
CONTINUOUS
 10
-129.3478929998
 20
-28.8
 11
-129.3607833296
 21
-28.800007
  0
LINE
  5
3C1
100
AcDbEntity
  8
0
100
AcDbLine
 62
7
  6
CONTINUOUS
 10
-129.3845110183
 20
-28.800007
 11
-129.3857470748
 21
-28.800007
  0
LWPOLYLINE
  5
3C2
100
AcDbEntity
  8
SUPERFICI
100
AcDbPolyline
 62
7
  6
CONTINUOUS
 90
11
 70
0
 10
-126.7104810047
 20
-39.4832628916
 10
-126.7071425384
 20
-39.4865193544
 10
-126.7033601865
 20
-39.490171144
 10
-126.6992020259
 20
-39.4941401889
 10
-126.6947014145
 20
-39.4983830501
 10
-126.6895237631
 20
-39.5031969707
 10
-126.6839874842
 20
-39.5082660591
 10
-126.679127527
 20
-39.5126503195
 10
-126.6754427967
 20
-39.5159341172
 10
-126.6724637786
 20
-39.5185639036
 10
-126.667348012
 20
-39.5230282463
  0
LINE
  5
3C3
100
AcDbEntity
  8
SUPERFICI
100
AcDbLine
 62
7
  6
CONTINUOUS
 10
-126.7162501178
 20
-39.4775609391
 11
-126.7104810047
 21
-39.4832628916
  0
LINE
  5
3C4
100
AcDbEntity
  8
SUPERFICI
100
AcDbLine
 62
7
  6
CONTINUOUS
 10
-126.7213737282
 20
-39.4724164759
 11
-126.7162501178
 21
-39.4775609391
  0
LINE
  5
3C5
100
AcDbEntity
  8
SUPERFICI
100
AcDbLine
 62
7
  6
CONTINUOUS
 10
-126.7260825401
 20
-39.467620468
 11
-126.7213737282
 21
-39.4724164759
  0
LINE
  5
3C6
100
AcDbEntity
  8
SUPERFICI
100
AcDbLine
 62
7
  6
CONTINUOUS
 10
-126.7304937966
 20
-39.4630673075
 11
-126.7260825401
 21
-39.467620468
  0
LINE
  5
3C7
100
AcDbEntity
  8
SUPERFICI
100
AcDbLine
 62
7
  6
CONTINUOUS
 10
-126.7346711835
 20
-39.4587008596
 11
-126.7304937966
 21
-39.4630673075
  0
LINE
  5
3C8
100
AcDbEntity
  8
SUPERFICI
100
AcDbLine
 62
7
  6
CONTINUOUS
 10
-126.740025572
 20
-39.4530455168
 11
-126.7346711835
 21
-39.4587008596
  0
LINE
  5
3C9
100
AcDbEntity
  8
SUPERFICI
100
AcDbLine
 62
7
  6
CONTINUOUS
 10
-126.7443824935
 20
-39.4483863357
 11
-126.740025572
 21
-39.4530455168
  0
LINE
  5
3CA
100
AcDbEntity
  8
SUPERFICI
100
AcDbLine
 62
7
  6
CONTINUOUS
 10
-126.7487308845
 20
-39.4436759136
 11
-126.7424495368
 21
-39.4504254719
  0
LINE
  5
3CB
100
AcDbEntity
  8
SUPERFICI
100
AcDbLine
 62
7
  6
CONTINUOUS
 10
-126.7509031245
 20
-39.4412998343
 11
-126.746098427
 21
-39.4464769437
  0
LINE
  5
3CC
100
AcDbEntity
  8
SUPERFICI
100
AcDbLine
 62
7
  6
CONTINUOUS
 10
-126.7552448769
 20
-39.4365039354
 11
-126.7509031245
 21
-39.4412998343
  0
LWPOLYLINE
  5
3CD
100
AcDbEntity
  8
SUPERFICI
100
AcDbPolyline
 62
250
  6
CONTINUOUS
 90
13
 70
0
 10
-126.9940333614
 20
-37.4565050651
 10
-126.9722126303
 20
-37.4809145484
 10
-126.9375208818
 20
-37.5045333497
 10
-126.8905086421
 20
-37.5270879496
 10
-126.8316194227
 20
-37.5483376661
 10
-126.7615335671
 20
-37.5679448637
 10
-126.6813775777
 20
-37.5855122625
 10
-126.5921121013
 20
-37.6007893369
 10
-126.4949449525
 20
-37.6136376763
 10
-126.3916391348
 20
-37.6238931966
 10
-126.2837291987
 20
-37.6314525301
 10
-126.1724249183
 20
-37.6362402081
 10
-126.0590306236
 20
-37.6381691769
  0
LINE
  5
3CE
100
AcDbEntity
  8
SUPERFICI
100
AcDbLine
 62
7
  6
CONTINUOUS
 10
-126.759586204
 20
-39.431645088
 11
-126.7529969259
 21
-39.4388928037
  0
LINE
  5
3CF
100
AcDbEntity
  8
SUPERFICI
100
AcDbLine
 62
7
  6
CONTINUOUS
 10
-126.761756934
 20
-39.4291913662
 11
-126.7562677631
 21
-39.4352412646
  0
LINE
  5
3D0
100
AcDbEntity
  8
SUPERFICI
100
AcDbLine
 62
7
  6
CONTINUOUS
 10
-126.7639302019
 20
-39.4267183538
 11
-126.7594307637
 21
-39.4316753849
  0
LINE
  5
3D1
100
AcDbEntity
  8
SUPERFICI
100
AcDbLine
 62
7
  6
CONTINUOUS
 10
-126.7682840186
 20
-39.4217138521
 11
-126.7639302019
 21
-39.4267183538
  0
LINE
  5
3D2
100
AcDbEntity
  8
SUPERFICI
100
AcDbLine
 62
7
  6
CONTINUOUS
 10
-126.7704663011
 20
-39.4191798383
 11
-126.7654540778
 21
-39.4247885661
  0
LINE
  5
3D3
100
AcDbEntity
  8
SUPERFICI
100
AcDbLine
 62
7
  6
CONTINUOUS
 10
-126.7748427943
 20
-39.4140454454
 11
-126.7683280621
 21
-39.421457191
  0
LINE
  5
3D4
100
AcDbEntity
  8
SUPERFICI
100
AcDbLine
 62
7
  6
CONTINUOUS
 10
-126.7792411595
 20
-39.4088133424
 11
-126.7724835338
 21
-39.416587424
  0
LINE
  5
3D5
100
AcDbEntity
  8
SUPERFICI
100
AcDbLine
 62
7
  6
CONTINUOUS
 10
-126.7814489143
 20
-39.4061593014
 11
-126.7764685316
 21
-39.4118575253
  0
LINE
  5
3D6
100
AcDbEntity
  8
SUPERFICI
100
AcDbLine
 62
7
  6
CONTINUOUS
 10
-126.7858868228
 20
-39.4007668927
 11
-126.7814489143
 21
-39.4061593014
  0
LWPOLYLINE
  5
3D7
100
AcDbEntity
  8
SUPERFICI
100
AcDbPolyline
 62
7
  6
CONTINUOUS
 90
3
 70
0
 10
-126.7903548406
 20
-39.3952587566
 10
-126.7881164972
 20
-39.3980282253
 10
-126.7839845813
 20
-39.4027725329
  0
LWPOLYLINE
  5
3D8
100
AcDbEntity
  8
SUPERFICI
100
AcDbPolyline
 62
7
  6
CONTINUOUS
 90
3
 70
0
 10
-126.8491141136
 20
39.3142325359
 10
-126.8518536213
 20
39.3099989959
 10
-126.8545844748
 20
39.3057311917
  0
LWPOLYLINE
  5
3D9
100
AcDbEntity
  8
SUPERFICI
100
AcDbPolyline
 62
7
  6
CONTINUOUS
 90
3
 70
0
 10
-126.8381109924
 20
39.3307761421
 10
-126.8408635398
 20
39.3267046171
 10
-126.8436149974
 20
39.3225906787
  0
LINE
  5
3DA
100
AcDbEntity
  8
SUPERFICI
100
AcDbLine
 62
7
  6
CONTINUOUS
 10
-126.8326190309
 20
39.3387719352
 11
-126.8353624219
 21
39.33479879
  0
LINE
  5
3DB
100
AcDbEntity
  8
SUPERFICI
100
AcDbLine
 62
7
  6
CONTINUOUS
 10
-126.8253088022
 20
39.3485879019
 11
-126.8298807504
 21
39.3426967932
  0
LINE
  5
3DC
100
AcDbEntity
  8
SUPERFICI
100
AcDbLine
 62
7
  6
CONTINUOUS
 10
-126.8198647721
 20
39.3561729285
 11
-126.822739223
 21
39.3521863456
  0
LINE
  5
3DD
100
AcDbEntity
  8
SUPERFICI
100
AcDbLine
 62
7
  6
CONTINUOUS
 10
-126.8167352835
 20
39.3604675011
 11
-126.8217199263
 21
39.354159834
  0
LWPOLYLINE
  5
3DE
100
AcDbEntity
  8
SUPERFICI
100
AcDbPolyline
 62
7
  6
CONTINUOUS
 90
11
 70
0
 10
-126.8111838537
 20
39.3680272383
 10
-126.8211081132
 20
39.3545937283
 10
-126.8318393411
 20
39.3395138107
 10
-126.8424538776
 20
39.3239853799
 10
-126.852892685
 20
39.3080673147
 10
-126.8631825806
 20
39.2916897655
 10
-126.8726577993
 20
39.2759474493
 10
-126.8812014488
 20
39.2611559792
 10
-126.8890243936
 20
39.2470683294
 10
-126.8960248221
 20
39.2339802735
 10
-126.9021723525
 20
39.2220785403
  0
LINE
  5
3DF
100
AcDbEntity
  8
SUPERFICI
100
AcDbLine
 62
7
  6
CONTINUOUS
 10
-126.8089714938
 20
39.370921924
 11
-126.8136592812
 21
39.3651535137
  0
LINE
  5
3E0
100
AcDbEntity
  8
SUPERFICI
100
AcDbLine
 62
7
  6
CONTINUOUS
 10
-126.8062022718
 20
39.3745839382
 11
-126.8109970561
 21
39.3687158347
  0
LINE
  5
3E1
100
AcDbEntity
  8
SUPERFICI
100
AcDbLine
 62
7
  6
CONTINUOUS
 10
-126.8033527952
 20
39.3783163689
 11
-126.8111838537
 21
39.3680272383
  0
LINE
  5
3E2
100
AcDbEntity
  8
SUPERFICI
100
AcDbLine
 62
7
  6
CONTINUOUS
 10
-126.8004258254
 20
39.3821132443
 11
-126.805711537
 21
39.3756910471
  0
LINE
  5
3E3
100
AcDbEntity
  8
SUPERFICI
100
AcDbLine
 62
7
  6
CONTINUOUS
 10
-126.7974222149
 20
39.3859711743
 11
-126.8004258254
 21
39.3821132443
  0
LINE
  5
3E4
100
AcDbEntity
  8
SUPERFICI
100
AcDbLine
 62
7
  6
CONTINUOUS
 10
-126.7943409614
 20
39.3898891624
 11
-126.7974222149
 21
39.3859711743
  0
LWPOLYLINE
  5
3E5
100
AcDbEntity
  8
SUPERFICI
100
AcDbPolyline
 62
7
  6
CONTINUOUS
 90
3
 70
0
 10
-126.7901081454
 20
39.3952072162
 10
-126.7911798073
 20
39.3938677374
 10
-126.7943409614
 20
39.3898891624
  0
LINE
  5
3E6
100
AcDbEntity
  8
0
100
AcDbLine
 62
7
  6
CONTINUOUS
 10
-129.7286873337
 20
-25.899877
 11
-129.7025594909
 21
-25.899877
  0
LINE
  5
3E7
100
AcDbEntity
  8
SUPERFICI
100
AcDbLine
 62
7
  6
CONTINUOUS
 10
-129.7157395722
 20
-25.7053222425
 11
-129.7069220413
 21
-25.7057117297
  0
LINE
  5
3E8
100
AcDbEntity
  8
SUPERFICI
100
AcDbLine
 62
7
  6
CONTINUOUS
 10
-126.7948565979
 20
-39.3896265433
 11
-126.7903548406
 21
-39.3952587566
  0
LINE
  5
3E9
100
AcDbEntity
  8
SUPERFICI
100
AcDbLine
 62
7
  6
CONTINUOUS
 10
-126.7971209989
 20
-39.3867615001
 11
-126.7920818271
 21
-39.3927366625
  0
LINE
  5
3EA
100
AcDbEntity
  8
SUPERFICI
100
AcDbLine
 62
7
  6
CONTINUOUS
 10
-126.8016771449
 20
-39.3809303303
 11
-126.7971209989
 21
-39.3867615001
  0
LWPOLYLINE
  5
3EB
100
AcDbEntity
  8
SUPERFICI
100
AcDbPolyline
 62
7
  6
CONTINUOUS
 90
3
 70
0
 10
-126.8063868519
 20
-39.3743543171
 10
-126.8039695027
 20
-39.3779622207
 10
-126.7995326555
 20
-39.3832644883
  0
LINE
  5
3EC
100
AcDbEntity
  8
SUPERFICI
100
AcDbLine
 62
7
  6
CONTINUOUS
 10
-126.815575052
 20
-39.3625692428
 11
-126.8109036699
 21
-39.3688401915
  0
LINE
  5
3ED
100
AcDbEntity
  8
SUPERFICI
100
AcDbLine
 62
7
  6
CONTINUOUS
 10
-126.8226571062
 20
-39.3528608152
 11
-126.8179257166
 21
-39.3593741807
  0
LINE
  5
3EE
100
AcDbEntity
  8
SUPERFICI
100
AcDbLine
 62
7
  6
CONTINUOUS
 10
-126.8298216334
 20
-39.3427810831
 11
-126.8250365434
 21
-39.3495426685
  0
LINE
  5
3EF
100
AcDbEntity
  8
SUPERFICI
100
AcDbLine
 62
7
  6
CONTINUOUS
 10
-126.8370493289
 20
-39.3323349723
 11
-126.832224693
 21
-39.3393396488
  0
LINE
  5
3F0
100
AcDbEntity
  8
SUPERFICI
100
AcDbLine
 62
7
  6
CONTINUOUS
 10
-126.8418874083
 20
-39.3251789391
 11
-126.8394670525
 21
-39.3287757232
  0
LWPOLYLINE
  5
3F1
100
AcDbEntity
  8
SUPERFICI
100
AcDbPolyline
 62
7
  6
CONTINUOUS
 90
7
 70
0
 10
-126.8475975429
 20
-39.3162255429
 10
-126.8405599494
 20
-39.326803042
 10
-126.8334232826
 20
-39.3372365017
 10
-126.8262173003
 20
-39.3474885689
 10
-126.819277606
 20
-39.3571074257
 10
-126.8126787017
 20
-39.3660338853
 10
-126.8063868519
 20
-39.3743543171
  0
LINE
  5
3F2
100
AcDbEntity
  8
SUPERFICI
100
AcDbLine
 62
7
  6
CONTINUOUS
 10
-126.8491473796
 20
-39.3141814103
 11
-126.8467295557
 21
-39.3178794591
  0
LINE
  5
3F3
100
AcDbEntity
  8
SUPERFICI
100
AcDbLine
 62
7
  6
CONTINUOUS
 10
-126.8563678867
 20
-39.302917833
 11
-126.8491473796
 21
-39.3141814103
  0
LINE
  5
3F4
100
AcDbEntity
  8
SUPERFICI
100
AcDbLine
 62
7
  6
CONTINUOUS
 10
-126.8951072284
 20
39.2353389605
 11
-126.9130610564
 21
39.1997753981
  0
LINE
  5
3F5
100
AcDbEntity
  8
SUPERFICI
100
AcDbLine
 62
7
  6
CONTINUOUS
 10
-126.8933626679
 20
39.2392010049
 11
-126.899385389
 21
39.227694557
  0
LINE
  5
3F6
100
AcDbEntity
  8
SUPERFICI
100
AcDbLine
 62
7
  6
CONTINUOUS
 10
-126.8877556921
 20
39.249593851
 11
-126.8900007367
 21
39.2454681244
  0
LWPOLYLINE
  5
3F7
100
AcDbEntity
  8
SUPERFICI
100
AcDbPolyline
 62
7
  6
CONTINUOUS
 90
3
 70
0
 10
-126.8782229536
 20
39.2666126709
 10
-126.8806830726
 20
39.2622953661
 10
-126.8830914044
 20
39.258019439
  0
LINE
  5
3F8
100
AcDbEntity
  8
SUPERFICI
100
AcDbLine
 62
7
  6
CONTINUOUS
 10
-126.8706044201
 20
39.2796723792
 11
-126.8731840387
 21
39.275301541
  0
LWPOLYLINE
  5
3F9
100
AcDbEntity
  8
SUPERFICI
100
AcDbPolyline
 62
7
  6
CONTINUOUS
 90
3
 70
0
 10
-126.8600082881
 20
39.2971091369
 10
-126.8626930382
 20
39.29276719
 10
-126.8653590285
 20
39.2884053867
  0
LWPOLYLINE
  5
3FA
100
AcDbEntity
  8
SUPERFICI
100
AcDbPolyline
 62
7
  6
CONTINUOUS
 90
9
 70
0
 10
-129.7479613166
 20
25.7106910051
 10
-129.7520954121
 20
25.7068812087
 10
-129.7497362758
 20
25.7050784969
 10
-129.7453829521
 20
25.7042091628
 10
-129.7394289584
 20
25.7040398102
 10
-129.7322539096
 20
25.7043326993
 10
-129.7242350255
 20
25.7048380464
 10
-129.7157395722
 20
25.7053222425
 10
-129.7069220413
 20
25.7057117297
  0
LWPOLYLINE
  5
3FB
100
AcDbEntity
  8
SUPERFICI
100
AcDbPolyline
 62
7
  6
CONTINUOUS
 90
9
 70
0
 10
-129.7523744977
 20
-25.7114241224
 10
-129.7533517357
 20
-25.7116720807
 10
-129.7542609375
 20
-25.7119399713
 10
-129.755107023
 20
-25.7122244862
 10
-129.7558948966
 20
-25.712522281
 10
-129.7566294627
 20
-25.7128299712
 10
-129.7573157095
 20
-25.7131441667
 10
-129.7579586934
 20
-25.7134614749
 10
-129.7585634804
 20
-25.7137784747
  0
LINE
  5
3FC
100
AcDbEntity
  8
SUPERFICI
100
AcDbLine
 62
7
  6
CONTINUOUS
 10
-129.751324358
 20
-25.7111993911
 11
-129.7520287648
 21
-25.7113501351
  0
LWPOLYLINE
  5
3FD
100
AcDbEntity
  8
SUPERFICI
100
AcDbPolyline
 62
7
  6
CONTINUOUS
 90
8
 70
0
 10
-129.7479613193
 20
-25.7106910054
 10
-129.7520954121
 20
-25.7068812087
 10
-129.7497362758
 20
-25.7050784969
 10
-129.7453829521
 20
-25.7042091628
 10
-129.7394289584
 20
-25.7040398102
 10
-129.7322539096
 20
-25.7043326993
 10
-129.7242350255
 20
-25.7048380464
 10
-129.7157395722
 20
-25.7053222425
  0
LWPOLYLINE
  5
3FE
100
AcDbEntity
  8
0
100
AcDbPolyline
 62
7
  6
CONTINUOUS
 90
13
 70
0
 10
-129.7025594926
 20
-25.899877
 10
-129.6994889188
 20
-25.9027680225
 10
-129.6959451845
 20
-25.9112446574
 10
-129.6919282897
 20
-25.9254155124
 10
-129.6874570616
 20
-25.9452036323
 10
-129.682512673
 20
-25.9707145587
 10
-129.6770386423
 20
-26.0025894342
 10
-129.6710349494
 20
-26.0411111087
 10
-129.6645016143
 20
-26.0864342922
 10
-129.6573822156
 20
-26.1394845525
 10
-129.64962242
 20
-26.2007721911
 10
-129.6412765609
 20
-26.2701723771
 10
-129.6324512163
 20
-26.3477290236
  0
LINE
  5
3FF
100
AcDbEntity
  8
SUPERFICI
100
AcDbLine
 62
7
  6
CONTINUOUS
 10
-126.8612141111
 20
-39.2948785683
 11
-126.8545580229
 21
-39.3054646391
  0
LINE
  5
400
100
AcDbEntity
  8
SUPERFICI
100
AcDbLine
 62
7
  6
CONTINUOUS
 10
-126.8611333507
 20
-39.2952957079
 11
-126.8587580834
 21
-39.2991140897
  0
LINE
  5
401
100
AcDbEntity
  8
SUPERFICI
100
AcDbLine
 62
7
  6
CONTINUOUS
 10
-126.8681627286
 20
-39.2837628961
 11
-126.8658395775
 21
-39.2876137448
  0
LINE
  5
402
100
AcDbEntity
  8
SUPERFICI
100
AcDbLine
 62
7
  6
CONTINUOUS
 10
-126.8793993372
 20
-39.2645545066
 11
-126.8772102695
 21
-39.2683753104
  0
LINE
  5
403
100
AcDbEntity
  8
SUPERFICI
100
AcDbLine
 62
7
  6
CONTINUOUS
 10
-126.8916942856
 20
-39.2423246476
 11
-126.8877698508
 21
-39.2495679772
  0
LWPOLYLINE
  5
404
100
AcDbEntity
  8
SUPERFICI
100
AcDbPolyline
 62
7
  6
CONTINUOUS
 90
9
 70
0
 10
-126.9021461647
 20
-39.2221300962
 10
-126.8982461082
 20
-39.2297255929
 10
-126.8940218778
 20
-39.237773849
 10
-126.8894428096
 20
-39.2462992514
 10
-126.8845123425
 20
-39.2552599541
 10
-126.8792361476
 20
-39.2646114388
 10
-126.8735736582
 20
-39.2743898932
 10
-126.8675363088
 20
-39.2845388909
 10
-126.8612141111
 20
-39.2948785683
  0
LWPOLYLINE
  5
405
100
AcDbEntity
  8
SUPERFICI
100
AcDbPolyline
 62
7
  6
CONTINUOUS
 90
3
 70
0
 10
-126.8955841299
 20
-39.2349995912
 10
-126.9085343662
 20
-39.2094728555
 10
-126.9270855975
 20
-39.1691802044
  0
LWPOLYLINE
  5
406
100
AcDbEntity
  8
0
100
AcDbPolyline
 62
7
  6
CONTINUOUS
 90
3
 70
0
 43
0.3500000006
 10
-126.1236947937
 20
56.535714386
 10
-126.1951259766
 20
56.3214299011
 10
-126.3379883423
 20
56.0357142334
  0
LINE
  5
407
100
AcDbEntity
  8
SUPERFICI
100
AcDbLine
 62
7
  6
CONTINUOUS
 10
-126.9345491834
 20
39.1515690659
 11
-126.9372930911
 21
39.1448436571
  0
LINE
  5
408
100
AcDbEntity
  8
SUPERFICI
100
AcDbLine
 62
7
  6
CONTINUOUS
 10
-126.9525181326
 20
39.1062040866
 11
-126.9232836008
 21
39.1765837701
  0
LINE
  5
409
100
AcDbEntity
  8
SUPERFICI
100
AcDbLine
 62
7
  6
CONTINUOUS
 10
-126.927626705
 20
39.1680551963
 11
-126.9298842103
 21
39.1628034515
  0
LINE
  5
40A
100
AcDbEntity
  8
SUPERFICI
100
AcDbLine
 62
7
  6
CONTINUOUS
 10
-126.9265797712
 20
39.1703461869
 11
-126.9289700933
 21
39.1648265569
  0
LWPOLYLINE
  5
40B
100
AcDbEntity
  8
SUPERFICI
100
AcDbPolyline
 62
7
  6
CONTINUOUS
 90
3
 70
0
 10
-126.9130610564
 20
39.1997753981
 10
-126.9405524841
 20
39.1374062914
 10
-126.9530928075
 20
39.1045948439
  0
LINE
  5
40C
100
AcDbEntity
  8
SUPERFICI
100
AcDbLine
 62
7
  6
CONTINUOUS
 10
-126.9144806797
 20
39.1971022564
 11
-126.9169364344
 21
39.1918613859
  0
LWPOLYLINE
  5
40D
100
AcDbEntity
  8
SUPERFICI
100
AcDbPolyline
 62
7
  6
CONTINUOUS
 90
5
 70
0
 10
-126.9075944489
 20
39.2112381384
 10
-126.9124262592
 20
39.2012859684
 10
-126.9167152066
 20
39.192204865
 10
-126.9204722639
 20
39.1840462878
 10
-126.9237643053
 20
39.1767316196
  0
LINE
  5
40E
100
AcDbEntity
  8
SUPERFICI
100
AcDbLine
 62
7
  6
CONTINUOUS
 10
-126.9056162427
 20
39.2153874929
 11
-126.9072600792
 21
39.2120680253
  0
LINE
  5
40F
100
AcDbEntity
  8
SUPERFICI
100
AcDbLine
 62
7
  6
CONTINUOUS
 10
-130.1075171762
 20
24.5847793061
 11
-130.1156576077
 21
24.5695826011
  0
LINE
  5
410
100
AcDbEntity
  8
SUPERFICI
100
AcDbLine
 62
7
  6
CONTINUOUS
 10
-130.1133912197
 20
24.5737897343
 11
-130.1214832299
 21
24.5588500003
  0
LINE
  5
411
100
AcDbEntity
  8
SUPERFICI
100
AcDbLine
 62
7
  6
CONTINUOUS
 10
-130.4335268669
 20
24.0970815927
 11
-130.4888032707
 21
23.9965152722
  0
LWPOLYLINE
  5
412
100
AcDbEntity
  8
SUPERFICI
100
AcDbPolyline
 62
7
  6
CONTINUOUS
 90
3
 70
0
 10
-130.1216303947
 20
24.5585842716
 10
-130.1373372238
 20
24.5302231596
 10
-130.1592785094
 20
24.4919380173
  0
LINE
  5
413
100
AcDbEntity
  8
SUPERFICI
100
AcDbLine
 62
7
  6
CONTINUOUS
 10
-130.0805423561
 20
24.6398261446
 11
-130.1729966835
 21
24.4735919741
  0
LINE
  5
414
100
AcDbEntity
  8
SUPERFICI
100
AcDbLine
 62
7
  6
CONTINUOUS
 10
-130.1592785094
 20
24.4919380173
 11
-130.187789431
 21
24.4443456822
  0
LWPOLYLINE
  5
415
100
AcDbEntity
  8
SUPERFICI
100
AcDbPolyline
 62
7
  6
CONTINUOUS
 90
3
 70
0
 10
-130.1729966835
 20
24.4735919741
 10
-130.2742521662
 20
24.3158585876
 10
-130.3085787684
 20
24.2692841874
  0
LINE
  5
416
100
AcDbEntity
  8
SUPERFICI
100
AcDbLine
 62
7
  6
CONTINUOUS
 10
-130.4504938795
 20
24.0690312707
 11
-130.3849507509
 21
24.1674297575
  0
LWPOLYLINE
  5
417
100
AcDbEntity
  8
SUPERFICI
100
AcDbPolyline
 62
250
  6
CONTINUOUS
 90
9
 70
0
 10
-130.2741810569
 20
24.3106211155
 10
-130.1695209269
 20
24.4625103381
 10
-130.0726806155
 20
24.6236765692
 10
-129.9839089952
 20
24.7945174471
 10
-129.904731142
 20
24.9731402418
 10
-129.8372376389
 20
25.1550345459
 10
-129.7819837467
 20
25.3378111642
 10
-129.7387017293
 20
25.5215254126
 10
-129.7075843389
 20
25.705103639
  0
LINE
  5
418
100
AcDbEntity
  8
SUPERFICI
100
AcDbLine
 62
7
  6
CONTINUOUS
 10
-130.384853232
 20
24.1675600475
 11
-130.4335268669
 21
24.0970815927
  0
LWPOLYLINE
  5
419
100
AcDbEntity
  8
SUPERFICI
100
AcDbPolyline
 62
7
  6
CONTINUOUS
 90
3
 70
0
 10
-130.3075367249
 20
24.2685171086
 10
-130.3198661114
 20
24.2515430625
 10
-130.325171997
 20
24.2443508507
  0
LINE
  5
41A
100
AcDbEntity
  8
SUPERFICI
100
AcDbLine
 62
250
  6
CONTINUOUS
 10
-130.3701292784
 20
24.1876015761
 11
-130.2741810569
 21
24.3106211155
  0
LINE
  5
41B
100
AcDbEntity
  8
SUPERFICI
100
AcDbLine
 62
7
  6
CONTINUOUS
 10
-130.3859028079
 20
24.1686709627
 11
-130.3701292784
 21
24.1876015761
  0
LWPOLYLINE
  5
41C
100
AcDbEntity
  8
SUPERFICI
100
AcDbPolyline
 62
250
  6
CONTINUOUS
 90
4
 70
0
 10
-129.600643644
 20
-22.2182228838
 10
-129.6432403613
 20
-22.2202410288
 10
-129.6989242195
 20
-22.2224157729
 10
-129.7669514424
 20
-22.2246600381
  0
LINE
  5
41D
100
AcDbEntity
  8
SUPERFICI
100
AcDbLine
 62
250
  6
CONTINUOUS
 10
-129.7669514424
 20
-22.2246600381
 11
-129.9374019519
 21
-22.2290570806
  0
LINE
  5
41E
100
AcDbEntity
  8
SUPERFICI
100
AcDbLine
 62
250
  6
CONTINUOUS
 10
-129.9374019519
 20
-22.2290570806
 11
-130.1470572549
 21
-22.2328660149
  0
LINE
  5
41F
100
AcDbEntity
  8
SUPERFICI
100
AcDbLine
 62
7
  6
CONTINUOUS
 10
-130.3875557349
 20
-22.235697173
 11
-130.5787819244
 21
-22.2383359431
  0
LINE
  5
420
100
AcDbEntity
  8
SUPERFICI
100
AcDbLine
 62
250
  6
CONTINUOUS
 10
-130.1470572549
 20
-22.2328660149
 11
-130.388858227
 21
-22.235697173
  0
LINE
  5
421
100
AcDbEntity
  8
SUPERFICI
100
AcDbLine
 62
7
  6
CONTINUOUS
 10
-130.3859028079
 20
-24.1686709627
 11
-130.3722513553
 21
-24.1850346648
  0
LINE
  5
422
100
AcDbEntity
  8
SUPERFICI
100
AcDbLine
 62
250
  6
CONTINUOUS
 10
-130.3722513553
 20
-24.1850346648
 11
-130.2741810569
 21
-24.3106211155
  0
LWPOLYLINE
  5
423
100
AcDbEntity
  8
SUPERFICI
100
AcDbPolyline
 62
250
  6
CONTINUOUS
 90
9
 70
0
 10
-130.2741810569
 20
-24.3106211155
 10
-130.1695209269
 20
-24.4625103381
 10
-130.0726806155
 20
-24.6236765692
 10
-129.9839089952
 20
-24.7945174471
 10
-129.904731142
 20
-24.9731402418
 10
-129.8372376389
 20
-25.1550345459
 10
-129.7819837467
 20
-25.3378111642
 10
-129.7387017293
 20
-25.5215254126
 10
-129.7075843389
 20
-25.705103639
  0
LWPOLYLINE
  5
424
100
AcDbEntity
  8
SUPERFICI
100
AcDbPolyline
 62
7
  6
CONTINUOUS
 90
3
 70
0
 10
-130.1729966835
 20
-24.4735919741
 10
-130.2742521662
 20
-24.3158585876
 10
-130.3085651323
 20
-24.2692576643
  0
LINE
  5
425
100
AcDbEntity
  8
SUPERFICI
100
AcDbLine
 62
7
  6
CONTINUOUS
 10
-130.0805423561
 20
-24.6398261446
 11
-130.1729966835
 21
-24.4735919741
  0
LINE
  5
426
100
AcDbEntity
  8
SUPERFICI
100
AcDbLine
 62
7
  6
CONTINUOUS
 10
-130.1281867013
 20
-24.5466443111
 11
-130.1230792978
 21
-24.5559299774
  0
LINE
  5
427
100
AcDbEntity
  8
SUPERFICI
100
AcDbLine
 62
7
  6
CONTINUOUS
 10
-130.1230792978
 20
-24.5559299774
 11
-130.1177674791
 21
-24.5656819669
  0
LINE
  5
428
100
AcDbEntity
  8
SUPERFICI
100
AcDbLine
 62
7
  6
CONTINUOUS
 10
-130.1177674791
 20
-24.5656819669
 11
-130.1106581543
 21
-24.578887768
  0
LINE
  5
429
100
AcDbEntity
  8
SUPERFICI
100
AcDbLine
 62
7
  6
CONTINUOUS
 10
-130.1106581543
 20
-24.578887768
 11
-130.1050076381
 21
-24.5895119695
  0
LWPOLYLINE
  5
42A
100
AcDbEntity
  8
SUPERFICI
100
AcDbPolyline
 62
7
  6
CONTINUOUS
 90
3
 70
0
 10
-126.915072936
 20
-39.1957105677
 10
-126.9122035093
 20
-39.2017511117
 10
-126.909115
 20
-39.2081368693
  0
LINE
  5
42B
100
AcDbEntity
  8
SUPERFICI
100
AcDbLine
 62
7
  6
CONTINUOUS
 10
-126.9166722937
 20
-39.1924289456
 11
-126.9156070491
 21
-39.1947083617
  0
LINE
  5
42C
100
AcDbEntity
  8
SUPERFICI
100
AcDbLine
 62
7
  6
CONTINUOUS
 10
-126.9224678537
 20
-39.1796313086
 11
-126.92021039
 21
-39.1846213749
  0
LINE
  5
42D
100
AcDbEntity
  8
SUPERFICI
100
AcDbLine
 62
7
  6
CONTINUOUS
 10
-126.9251728504
 20
-39.1736707774
 11
-126.9229884835
 21
-39.1785913667
  0
LINE
  5
42E
100
AcDbEntity
  8
SUPERFICI
100
AcDbLine
 62
7
  6
CONTINUOUS
 10
-126.9295865055
 20
-39.1633880088
 11
-126.9263489044
 21
-39.1708744381
  0
LINE
  5
42F
100
AcDbEntity
  8
SUPERFICI
100
AcDbLine
 62
7
  6
CONTINUOUS
 10
-126.9322863332
 20
-39.1570116012
 11
-126.9295865055
 21
-39.1633880088
  0
LINE
  5
430
100
AcDbEntity
  8
SUPERFICI
100
AcDbLine
 62
7
  6
CONTINUOUS
 10
-126.9525181326
 20
-39.1062040866
 11
-126.9174794071
 21
-39.1905568796
  0
LINE
  5
431
100
AcDbEntity
  8
SUPERFICI
100
AcDbLine
 62
7
  6
CONTINUOUS
 10
-126.936555065
 20
-39.146666503
 11
-126.9356048985
 21
-39.1489981329
  0
LINE
  5
432
100
AcDbEntity
  8
SUPERFICI
100
AcDbLine
 62
7
  6
CONTINUOUS
 10
-126.9374948022
 20
-39.1443431771
 11
-126.937432119
 21
-39.144499106
  0
LINE
  5
433
100
AcDbEntity
  8
SUPERFICI
100
AcDbLine
 62
7
  6
CONTINUOUS
 10
-127.9483750923
 20
36.0101321968
 11
-128.0320949882
 21
35.7127641632
  0
LWPOLYLINE
  5
434
100
AcDbEntity
  8
SUPERFICI
100
AcDbPolyline
 62
250
  6
CONTINUOUS
 90
8
 70
0
 10
-127.4085508048
 20
37.6955873738
 10
-127.4788941533
 20
37.4478317861
 10
-127.5477134835
 20
37.1962803272
 10
-127.6152155008
 20
36.9411370904
 10
-127.6815630104
 20
36.6828027978
 10
-127.7470222197
 20
36.4213026728
 10
-127.8119553628
 20
36.1562706696
 10
-127.9412310158
 20
35.6160735101
  0
LWPOLYLINE
  5
435
100
AcDbEntity
  8
SUPERFICI
100
AcDbPolyline
 62
250
  6
CONTINUOUS
 90
10
 70
0
 10
-126.9692448421
 20
39.0465825811
 10
-127.0225976423
 20
38.8593675751
 10
-127.0745707092
 20
38.6729488019
 10
-127.1252711028
 20
38.4869209591
 10
-127.1748008936
 20
38.3008985562
 10
-127.2232658984
 20
38.1144832269
 10
-127.2707752088
 20
37.9272628983
 10
-127.3174299155
 20
37.7388551276
 10
-127.363323616
 20
37.5489077782
 10
-127.4085508048
 20
37.3570658158
  0
LINE
  5
436
100
AcDbEntity
  8
SUPERFICI
100
AcDbLine
 62
7
  6
CONTINUOUS
 10
-128.1268316418
 20
35.4069770162
 11
-127.8327250688
 21
36.4292196807
  0
LINE
  5
437
100
AcDbEntity
  8
SUPERFICI
100
AcDbLine
 62
7
  6
CONTINUOUS
 10
-127.8415722177
 20
36.3805241015
 11
-127.9483750923
 21
36.0101321968
  0
LINE
  5
438
100
AcDbEntity
  8
SUPERFICI
100
AcDbLine
 62
7
  6
CONTINUOUS
 10
-127.7470151191
 20
36.6996508488
 11
-127.8415722177
 21
36.3805241015
  0
LINE
  5
439
100
AcDbEntity
  8
SUPERFICI
100
AcDbLine
 62
7
  6
CONTINUOUS
 10
-127.669961239
 20
36.9536873449
 11
-127.7470151191
 21
36.6996508488
  0
LWPOLYLINE
  5
43A
100
AcDbEntity
  8
SUPERFICI
100
AcDbPolyline
 62
250
  6
CONTINUOUS
 90
10
 70
0
 10
-126.9762103685
 20
39.0111088013
 10
-126.9453477699
 20
39.112139862
 10
-126.9040949069
 20
39.2090184496
 10
-126.8527300179
 20
39.3010455405
 10
-126.7915660155
 20
39.3875251001
 10
-126.7213639792
 20
39.4673653907
 10
-126.6431509555
 20
39.539311185
 10
-126.5578385868
 20
39.6024154892
 10
-126.4665032431
 20
39.6560142787
 10
-126.4274314511
 20
39.6762539304
  0
LWPOLYLINE
  5
43B
100
AcDbEntity
  8
SUPERFICI
100
AcDbPolyline
 62
250
  6
CONTINUOUS
 90
7
 70
0
 10
-127.4085508048
 20
37.7693600701
 10
-127.4814991618
 20
37.5337454531
 10
-127.5521433928
 20
37.2989313369
 10
-127.620809642
 20
37.0645493403
 10
-127.6879075835
 20
36.829915267
 10
-127.7536509082
 20
36.595004681
 10
-127.8813702333
 20
36.1263636382
  0
LINE
  5
43C
100
AcDbEntity
  8
SUPERFICI
100
AcDbLine
 62
7
  6
CONTINUOUS
 10
-127.5867689793
 20
37.2223433582
 11
-127.669961239
 21
36.9536873449
  0
LINE
  5
43D
100
AcDbEntity
  8
SUPERFICI
100
AcDbLine
 62
7
  6
CONTINUOUS
 10
-127.500790287
 20
37.4948239257
 11
-127.5867689793
 21
37.2223433582
  0
LINE
  5
43E
100
AcDbEntity
  8
SUPERFICI
100
AcDbLine
 62
7
  6
CONTINUOUS
 10
-127.8327250688
 20
36.4292196807
 11
-127.7351331211
 21
36.7356563888
  0
LINE
  5
43F
100
AcDbEntity
  8
SUPERFICI
100
AcDbLine
 62
7
  6
CONTINUOUS
 10
-127.4160020409
 20
37.7591606625
 11
-127.500790287
 21
37.4948239257
  0
LWPOLYLINE
  5
440
100
AcDbEntity
  8
SUPERFICI
100
AcDbPolyline
 62
7
  6
CONTINUOUS
 90
3
 70
0
 10
-127.3126806374
 20
38.0686733144
 10
-127.3609888562
 20
37.9192665343
 10
-127.4085508048
 20
37.76936007
  0
LINE
  5
441
100
AcDbEntity
  8
SUPERFICI
100
AcDbLine
 62
7
  6
CONTINUOUS
 10
-127.3445440151
 20
37.9780724728
 11
-127.4160020409
 21
37.7591606625
  0
LINE
  5
442
100
AcDbEntity
  8
SUPERFICI
100
AcDbLine
 62
7
  6
CONTINUOUS
 10
-127.2635833376
 20
38.217711816
 11
-127.3445440151
 21
37.9780724728
  0
LINE
  5
443
100
AcDbEntity
  8
SUPERFICI
100
AcDbLine
 62
7
  6
CONTINUOUS
 10
-127.2136869916
 20
38.3664165254
 11
-127.2765311471
 21
38.1826960859
  0
LINE
  5
444
100
AcDbEntity
  8
SUPERFICI
100
AcDbLine
 62
7
  6
CONTINUOUS
 10
-127.2501171335
 20
38.2200932475
 11
-126.9717836372
 21
39.0474375595
  0
LINE
  5
445
100
AcDbEntity
  8
SUPERFICI
100
AcDbLine
 62
7
  6
CONTINUOUS
 10
-127.1629162217
 20
38.5150187266
 11
-127.233385013
 21
38.3105581874
  0
LWPOLYLINE
  5
446
100
AcDbEntity
  8
SUPERFICI
100
AcDbPolyline
 62
250
  6
CONTINUOUS
 90
9
 70
0
 10
-127.007150511
 20
38.9509811472
 10
-127.0610738279
 20
38.7957333818
 10
-127.113725383
 20
38.6406114501
 10
-127.1651714372
 20
38.4854209998
 10
-127.2155275216
 20
38.3298215312
 10
-127.2649542024
 20
38.1733208332
 10
-127.3135582348
 20
38.0155802549
 10
-127.36139682
 20
37.8564201923
 10
-127.4085508048
 20
37.6955873738
  0
LINE
  5
447
100
AcDbEntity
  8
SUPERFICI
100
AcDbLine
 62
7
  6
CONTINUOUS
 10
-127.1111247141
 20
38.6639451753
 11
-127.168166923
 21
38.5009089446
  0
LINE
  5
448
100
AcDbEntity
  8
SUPERFICI
100
AcDbLine
 62
7
  6
CONTINUOUS
 10
-127.0582282979
 20
38.8134286992
 11
-127.1201462426
 21
38.6387756086
  0
LINE
  5
449
100
AcDbEntity
  8
SUPERFICI
100
AcDbLine
 62
250
  6
CONTINUOUS
 10
-126.9518622565
 20
39.1066318486
 11
-127.004210462
 21
38.9635095472
  0
LINE
  5
44A
100
AcDbEntity
  8
SUPERFICI
100
AcDbLine
 62
7
  6
CONTINUOUS
 10
-130.5424975775
 20
23.8549297015
 11
-130.5031511527
 21
23.9645992453
  0
LWPOLYLINE
  5
44B
100
AcDbEntity
  8
SUPERFICI
100
AcDbPolyline
 62
7
  6
CONTINUOUS
 90
3
 70
0
 10
-126.9542944819
 20
39.1000179665
 10
-126.9626051373
 20
39.0774537022
 10
-127.0643828815
 20
38.7964107418
  0
LWPOLYLINE
  5
44C
100
AcDbEntity
  8
SUPERFICI
100
AcDbPolyline
 62
7
  6
CONTINUOUS
 90
6
 70
0
 10
-129.9497792598
 20
24.9387626079
 10
-129.9560248798
 20
24.9219117094
 10
-129.9623933948
 20
24.9050467812
 10
-129.968875251
 20
24.8881968212
 10
-129.975511442
 20
24.8712602427
 10
-129.9823220444
 20
24.8541945443
  0
LINE
  5
44D
100
AcDbEntity
  8
SUPERFICI
100
AcDbLine
 62
7
  6
CONTINUOUS
 10
-130.4888032707
 20
23.9965152722
 11
-130.5302857688
 21
23.8941890144
  0
LINE
  5
44E
100
AcDbEntity
  8
SUPERFICI
100
AcDbLine
 62
7
  6
CONTINUOUS
 10
-129.9823220444
 20
24.8541945443
 11
-129.9892912006
 21
24.8370482148
  0
LWPOLYLINE
  5
44F
100
AcDbEntity
  8
SUPERFICI
100
AcDbPolyline
 62
7
  6
CONTINUOUS
 90
5
 70
0
 10
-129.9867469958
 20
24.8432715366
 10
-130.0017601993
 20
24.8071266774
 10
-130.016414372
 20
24.7731201062
 10
-130.0306310608
 20
24.7412362847
 10
-130.0443992646
 20
24.7113234625
  0
LINE
  5
450
100
AcDbEntity
  8
SUPERFICI
100
AcDbLine
 62
7
  6
CONTINUOUS
 10
-129.9964071459
 20
24.8198568334
 11
-130.0036783526
 21
24.8026061646
  0
LINE
  5
451
100
AcDbEntity
  8
SUPERFICI
100
AcDbLine
 62
7
  6
CONTINUOUS
 10
-130.0110990377
 20
24.785316181
 11
-130.0186338129
 21
24.7680728822
  0
LINE
  5
452
100
AcDbEntity
  8
SUPERFICI
100
AcDbLine
 62
7
  6
CONTINUOUS
 10
-130.0262939194
 20
24.7508525725
 11
-130.0340677631
 21
24.7336833713
  0
LINE
  5
453
100
AcDbEntity
  8
SUPERFICI
100
AcDbLine
 62
7
  6
CONTINUOUS
 10
-130.0327685955
 20
24.7365526946
 11
-130.0379633642
 21
24.7255541235
  0
LINE
  5
454
100
AcDbEntity
  8
SUPERFICI
100
AcDbLine
 62
7
  6
CONTINUOUS
 10
-130.04188096
 20
24.7167267207
 11
-130.0575922322
 21
24.6834936046
  0
LINE
  5
455
100
AcDbEntity
  8
SUPERFICI
100
AcDbLine
 62
7
  6
CONTINUOUS
 10
-130.010558783
 20
24.786574959
 11
-130.0805423561
 21
24.6398261446
  0
LWPOLYLINE
  5
456
100
AcDbEntity
  8
SUPERFICI
100
AcDbPolyline
 62
7
  6
CONTINUOUS
 90
3
 70
0
 10
-130.0576478182
 20
24.6833780028
 10
-130.0699530609
 20
24.6581157289
 10
-130.0814151978
 20
24.6351536934
  0
LINE
  5
457
100
AcDbEntity
  8
SUPERFICI
100
AcDbLine
 62
7
  6
CONTINUOUS
 10
-130.065445914
 20
24.6672936317
 11
-130.0731545293
 21
24.6516481725
  0
LINE
  5
458
100
AcDbEntity
  8
SUPERFICI
100
AcDbLine
 62
7
  6
CONTINUOUS
 10
-130.5031511527
 20
23.9645992453
 11
-130.4504938795
 21
24.0690312707
  0
LINE
  5
459
100
AcDbEntity
  8
SUPERFICI
100
AcDbLine
 62
7
  6
CONTINUOUS
 10
-130.080745551
 20
24.6364805693
 11
-130.0919140107
 21
24.6145810944
  0
LINE
  5
45A
100
AcDbEntity
  8
SUPERFICI
100
AcDbLine
 62
7
  6
CONTINUOUS
 10
-130.0880114149
 20
24.6221782109
 11
-130.1011828077
 21
24.5967692084
  0
LINE
  5
45B
100
AcDbEntity
  8
SUPERFICI
100
AcDbLine
 62
7
  6
CONTINUOUS
 10
-130.0949475021
 20
24.6087160685
 11
-130.1015315626
 21
24.5961052571
  0
LINE
  5
45C
100
AcDbEntity
  8
SUPERFICI
100
AcDbLine
 62
7
  6
CONTINUOUS
 10
-130.1015315626
 20
24.5961052571
 11
-130.1090886112
 21
24.5818273459
  0
LINE
  5
45D
100
AcDbEntity
  8
SUPERFICI
100
AcDbLine
 62
250
  6
CONTINUOUS
 10
-130.2700811326
 20
16.5988340496
 11
-130.2955328068
 21
16.565824471
  0
LINE
  5
45E
100
AcDbEntity
  8
SUPERFICI
100
AcDbLine
 62
250
  6
CONTINUOUS
 10
-130.2955328068
 20
16.565824471
 11
-130.3204277605
 21
16.5340849234
  0
LWPOLYLINE
  5
45F
100
AcDbEntity
  8
SUPERFICI
100
AcDbPolyline
 62
250
  6
CONTINUOUS
 90
6
 70
0
 10
-130.3204277605
 20
16.5340849234
 10
-130.3443325838
 20
16.5041085527
 10
-130.355917194
 20
16.4902993778
 10
-130.367222628
 20
16.4784819449
 10
-130.3782119453
 20
16.4695474702
 10
-130.3888582269
 20
16.4642077502
  0
LWPOLYLINE
  5
460
100
AcDbEntity
  8
SUPERFICI
100
AcDbPolyline
 62
250
  6
CONTINUOUS
 90
5
 70
0
 10
-130.388858227
 20
-16.4642076141
 10
-130.3782110329
 20
-16.469547976
 10
-130.3672204117
 20
-16.4784838862
 10
-130.355913364
 20
-16.4903034889
 10
-130.344326926
 20
-16.5041153923
  0
LINE
  5
461
100
AcDbEntity
  8
SUPERFICI
100
AcDbLine
 62
250
  6
CONTINUOUS
 10
-130.344326926
 20
-16.5041153923
 11
-130.3204184372
 21
-16.5340979389
  0
LINE
  5
462
100
AcDbEntity
  8
SUPERFICI
100
AcDbLine
 62
250
  6
CONTINUOUS
 10
-130.3204184372
 20
-16.5340979389
 11
-130.295522055
 21
-16.5658428887
  0
LWPOLYLINE
  5
463
100
AcDbEntity
  8
SUPERFICI
100
AcDbPolyline
 62
250
  6
CONTINUOUS
 90
46
 70
0
 10
-130.295522055
 20
-16.5658428887
 10
-130.2700605535
 20
-16.5988710516
 10
-130.2571710117
 20
-16.6158187426
 10
-130.2441327889
 20
-16.6331239913
 10
-130.230964858
 20
-16.6507721254
 10
-130.217665117
 20
-16.668776823
 10
-130.2041741504
 20
-16.6872314202
 10
-130.1904926553
 20
-16.7061500767
 10
-130.1766432038
 20
-16.7255172821
 10
-130.1626031497
 20
-16.745381624
 10
-130.1483835289
 20
-16.765746035
 10
-130.134000938
 20
-16.7866060534
 10
-130.1194439574
 20
-16.8079990184
 10
-130.1047347177
 20
-16.8299146314
 10
-130.0898829727
 20
-16.8523615286
 10
-130.0748624528
 20
-16.8754052577
 10
-130.0596932877
 20
-16.899043424
 10
-130.0443942901
 20
-16.9232765026
 10
-130.028942355
 20
-16.9481740863
 10
-130.013364406
 20
-16.9737290664
 10
-129.9976806294
 20
-16.9999463824
 10
-129.981864319
 20
-17.0269133921
 10
-129.9659398059
 20
-17.0546364805
 10
-129.9499411635
 20
-17.083106766
 10
-129.933863335
 20
-17.1123884098
 10
-129.9177397817
 20
-17.1424810998
 10
-129.9016061158
 20
-17.1733824852
 10
-129.8854672843
 20
-17.2051534318
 10
-129.8693659458
 20
-17.2377869522
 10
-129.8533403533
 20
-17.2712872894
 10
-129.8373970129
 20
-17.305731908
 10
-129.8215855434
 20
-17.3411144906
 10
-129.8059525571
 20
-17.3774385481
 10
-129.7905106872
 20
-17.4147960004
 10
-129.7753185731
 20
-17.4531808751
 10
-129.7604329324
 20
-17.4925963584
 10
-129.7458769077
 20
-17.5331478058
 10
-129.7317194465
 20
-17.5748325276
 10
-129.7180307246
 20
-17.6176505948
 10
-129.7048517194
 20
-17.661711235
 10
-129.692265049
 20
-17.7070117138
 10
-129.6803550398
 20
-17.7535526012
 10
-129.6691836774
 20
-17.8014478992
 10
-129.6588416991
 20
-17.8507350635
 10
-129.6494400154
 20
-17.9013752764
 10
-129.6410833418
 20
-17.9533682886
  0
LINE
  5
464
100
AcDbEntity
  8
SUPERFICI
100
AcDbLine
 62
7
  6
CONTINUOUS
 10
-130.1050076381
 20
-24.5895119695
 11
-130.0986962959
 21
-24.601516
  0
LINE
  5
465
100
AcDbEntity
  8
SUPERFICI
100
AcDbLine
 62
7
  6
CONTINUOUS
 10
-130.0986962959
 20
-24.601516
 11
-130.0918059945
 21
-24.6147905809
  0
LINE
  5
466
100
AcDbEntity
  8
SUPERFICI
100
AcDbLine
 62
7
  6
CONTINUOUS
 10
-130.0918059945
 20
-24.6147905809
 11
-130.0844278209
 21
-24.6292063204
  0
LINE
  5
467
100
AcDbEntity
  8
SUPERFICI
100
AcDbLine
 62
7
  6
CONTINUOUS
 10
-130.0844278209
 20
-24.6292063204
 11
-130.0766270417
 21
-24.6446807543
  0
LINE
  5
468
100
AcDbEntity
  8
SUPERFICI
100
AcDbLine
 62
7
  6
CONTINUOUS
 10
-130.0766270417
 20
-24.6446807543
 11
-130.068492415
 21
-24.6610806778
  0
LINE
  5
469
100
AcDbEntity
  8
SUPERFICI
100
AcDbLine
 62
7
  6
CONTINUOUS
 10
-130.068492415
 20
-24.6610806778
 11
-130.0601054674
 21
-24.6782803932
  0
LINE
  5
46A
100
AcDbEntity
  8
SUPERFICI
100
AcDbLine
 62
7
  6
CONTINUOUS
 10
-130.0105657868
 20
-24.7865602726
 11
-130.0805423561
 21
-24.6398261446
  0
LINE
  5
46B
100
AcDbEntity
  8
SUPERFICI
100
AcDbLine
 62
7
  6
CONTINUOUS
 10
-130.0336776669
 20
-24.7346158333
 11
-130.0326008543
 21
-24.7369106448
  0
LINE
  5
46C
100
AcDbEntity
  8
SUPERFICI
100
AcDbLine
 62
7
  6
CONTINUOUS
 10
-130.0471820864
 20
-24.7053871465
 11
-130.0384294519
 21
-24.7241810981
  0
LINE
  5
46D
100
AcDbEntity
  8
SUPERFICI
100
AcDbLine
 62
7
  6
CONTINUOUS
 10
-130.0384294519
 20
-24.7241810981
 11
-130.0296318262
 21
-24.7434433651
  0
LINE
  5
46E
100
AcDbEntity
  8
SUPERFICI
100
AcDbLine
 62
7
  6
CONTINUOUS
 10
-130.0296318262
 20
-24.7434433651
 11
-130.0208360158
 21
-24.7630907773
  0
LINE
  5
46F
100
AcDbEntity
  8
SUPERFICI
100
AcDbLine
 62
7
  6
CONTINUOUS
 10
-130.0208360158
 20
-24.7630907773
 11
-130.0120723043
 21
-24.7830714288
  0
LINE
  5
470
100
AcDbEntity
  8
SUPERFICI
100
AcDbLine
 62
7
  6
CONTINUOUS
 10
-130.0120723043
 20
-24.7830714288
 11
-130.0033776097
 21
-24.8033135128
  0
LINE
  5
471
100
AcDbEntity
  8
SUPERFICI
100
AcDbLine
 62
7
  6
CONTINUOUS
 10
-130.0033776097
 20
-24.8033135128
 11
-129.9947786548
 21
-24.8237636368
  0
LINE
  5
472
100
AcDbEntity
  8
SUPERFICI
100
AcDbLine
 62
7
  6
CONTINUOUS
 10
-129.9947786548
 20
-24.8237636368
 11
-129.9862923216
 21
-24.8443880556
  0
LINE
  5
473
100
AcDbEntity
  8
SUPERFICI
100
AcDbLine
 62
7
  6
CONTINUOUS
 10
-129.9862923216
 20
-24.8443880556
 11
-129.977940136
 21
-24.8651385594
  0
LINE
  5
474
100
AcDbEntity
  8
SUPERFICI
100
AcDbLine
 62
7
  6
CONTINUOUS
 10
-129.977940136
 20
-24.8651385594
 11
-129.9697324739
 21
-24.885991465
  0
LINE
  5
475
100
AcDbEntity
  8
SUPERFICI
100
AcDbLine
 62
7
  6
CONTINUOUS
 10
-129.9697324739
 20
-24.885991465
 11
-129.9616562658
 21
-24.9069828615
  0
LWPOLYLINE
  5
476
100
AcDbEntity
  8
SUPERFICI
100
AcDbPolyline
 62
7
  6
CONTINUOUS
 90
4
 70
0
 10
-126.9530928075
 20
-39.1045948439
 10
-126.9405524841
 20
-39.1374062914
 10
-126.9130610564
 20
-39.1997753981
 10
-126.9057659888
 20
-39.2149313045
  0
LINE
  5
477
100
AcDbEntity
  8
SUPERFICI
100
AcDbLine
 62
7
  6
CONTINUOUS
 10
-129.9616562658
 20
-24.9069828615
 11
-129.9536653829
 21
-24.9282407332
  0
LINE
  5
478
100
AcDbEntity
  8
SUPERFICI
100
AcDbLine
 62
7
  6
CONTINUOUS
 10
-129.9536653829
 20
-24.9282407332
 11
-129.9456860413
 21
-24.9499801742
  0
LINE
  5
479
100
AcDbEntity
  8
SUPERFICI
100
AcDbLine
 62
7
  6
CONTINUOUS
 10
-127.0306266426
 20
-38.8905608746
 11
-126.9543076173
 21
-39.099967937
  0
LINE
  5
47A
100
AcDbEntity
  8
SUPERFICI
100
AcDbLine
 62
7
  6
CONTINUOUS
 10
-129.9456860413
 20
-24.9499801742
 11
-129.9376821662
 21
-24.9723307475
  0
LINE
  5
47B
100
AcDbEntity
  8
SUPERFICI
100
AcDbLine
 62
7
  6
CONTINUOUS
 10
-127.0939695405
 20
-38.7131021928
 11
-127.004210462
 21
-38.9635095472
  0
LINE
  5
47C
100
AcDbEntity
  8
SUPERFICI
100
AcDbLine
 62
250
  6
CONTINUOUS
 10
-127.004210462
 20
-38.9635095472
 11
-126.9518623242
 21
-39.1066318421
  0
LINE
  5
47D
100
AcDbEntity
  8
SUPERFICI
100
AcDbLine
 62
7
  6
CONTINUOUS
 10
-127.1447934381
 20
-38.5682586186
 11
-127.0582282979
 21
-38.8134286992
  0
LINE
  5
47E
100
AcDbEntity
  8
SUPERFICI
100
AcDbLine
 62
7
  6
CONTINUOUS
 10
-129.9376821662
 20
-24.9723307475
 11
-129.9296021178
 21
-24.9954804019
  0
LINE
  5
47F
100
AcDbEntity
  8
SUPERFICI
100
AcDbLine
 62
7
  6
CONTINUOUS
 10
-127.1900860226
 20
-38.4373306726
 11
-127.1111247141
 21
-38.6639451753
  0
LINE
  5
480
100
AcDbEntity
  8
SUPERFICI
100
AcDbLine
 62
7
  6
CONTINUOUS
 10
-127.2547717578
 20
-38.2473697219
 11
-127.1629162217
 21
-38.5150187266
  0
LWPOLYLINE
  5
481
100
AcDbEntity
  8
SUPERFICI
100
AcDbPolyline
 62
7
  6
CONTINUOUS
 90
32
 70
0
 10
-129.9296021178
 20
-24.9954804019
 10
-129.9214003601
 20
-25.0196192735
 10
-129.9172531333
 20
-25.0320840718
 10
-129.9130556118
 20
-25.044885076
 10
-129.9088134903
 20
-25.0580178004
 10
-129.904529208
 20
-25.0714878742
 10
-129.9001799689
 20
-25.0853826279
 10
-129.8957738671
 20
-25.0996941676
 10
-129.8913136698
 20
-25.1144319578
 10
-129.8867715828
 20
-25.1297099925
 10
-129.8821592701
 20
-25.145514532
 10
-129.8774797736
 20
-25.1618614415
 10
-129.8726967326
 20
-25.1789099766
 10
-129.8678276068
 20
-25.1966353248
 10
-129.8628754329
 20
-25.2150651963
 10
-129.8577891202
 20
-25.2344388861
 10
-129.8525961465
 20
-25.2547096198
 10
-129.8472989459
 20
-25.2759282139
 10
-129.8418207753
 20
-25.2984823522
 10
-129.8362054495
 20
-25.3222884874
 10
-129.8304558761
 20
-25.3474360072
 10
-129.8244559531
 20
-25.3745753714
 10
-129.8182257317
 20
-25.4038061918
 10
-129.8118277058
 20
-25.4350378975
 10
-129.8052337915
 20
-25.4686390854
 10
-129.7984084791
 20
-25.5050928847
 10
-129.7915006477
 20
-25.543924671
 10
-129.7847386442
 20
-25.5840642143
 10
-129.7780327291
 20
-25.6262324677
 10
-129.7715285842
 20
-25.6697034235
 10
-129.7656870844
 20
-25.711226959
 10
-129.7644709176
 20
-25.7202001006
  0
LINE
  5
482
100
AcDbEntity
  8
SUPERFICI
100
AcDbLine
 62
7
  6
CONTINUOUS
 10
-127.2501165694
 20
-38.2200949442
 11
-126.9717836354
 21
-39.0474375589
  0
LINE
  5
483
100
AcDbEntity
  8
SUPERFICI
100
AcDbLine
 62
7
  6
CONTINUOUS
 10
-127.3218971549
 20
-38.0466206108
 11
-127.2136869916
 21
-38.3664165254
  0
LWPOLYLINE
  5
484
100
AcDbEntity
  8
SUPERFICI
100
AcDbPolyline
 62
7
  6
CONTINUOUS
 90
4
 70
0
 10
-127.2635833376
 20
-38.217711816
 10
-127.3126806374
 20
-38.0686733144
 10
-127.3609888562
 20
-37.9192665343
 10
-127.4085508048
 20
-37.76936007
  0
LINE
  5
485
100
AcDbEntity
  8
SUPERFICI
100
AcDbLine
 62
7
  6
CONTINUOUS
 10
-127.3888826161
 20
-37.8427008298
 11
-127.3218971549
 21
-38.0466206108
  0
LINE
  5
486
100
AcDbEntity
  8
SUPERFICI
100
AcDbLine
 62
7
  6
CONTINUOUS
 10
-127.4701241849
 20
-37.5909424727
 11
-127.3888826161
 21
-37.8427008298
  0
LINE
  5
487
100
AcDbEntity
  8
SUPERFICI
100
AcDbLine
 62
7
  6
CONTINUOUS
 10
-127.8327250672
 20
-36.4292196802
 11
-127.7351331591
 21
-36.7356562638
  0
LINE
  5
488
100
AcDbEntity
  8
SUPERFICI
100
AcDbLine
 62
7
  6
CONTINUOUS
 10
-127.5658919561
 20
-37.2889414721
 11
-127.4701241849
 21
-37.5909424727
  0
LINE
  5
489
100
AcDbEntity
  8
SUPERFICI
100
AcDbLine
 62
7
  6
CONTINUOUS
 10
-127.6375832165
 20
-37.0589030189
 11
-127.5658919561
 21
-37.2889414721
  0
LWPOLYLINE
  5
48A
100
AcDbEntity
  8
SUPERFICI
100
AcDbPolyline
 62
250
  6
CONTINUOUS
 90
6
 70
0
 10
-127.4085508048
 20
-37.7693600701
 10
-127.4814991618
 20
-37.5337454531
 10
-127.5521433928
 20
-37.2989313369
 10
-127.620809642
 20
-37.0645493403
 10
-127.6879075835
 20
-36.829915267
 10
-127.7536509082
 20
-36.595004681
  0
LWPOLYLINE
  5
48B
100
AcDbEntity
  8
SUPERFICI
100
AcDbPolyline
 62
250
  6
CONTINUOUS
 90
11
 70
0
 10
-126.9762103685
 20
-39.0111088013
 10
-126.9453477699
 20
-39.112139862
 10
-126.9040949069
 20
-39.2090184496
 10
-126.8527300179
 20
-39.3010455405
 10
-126.7915660155
 20
-39.3875251001
 10
-126.7213639792
 20
-39.4673653907
 10
-126.6431509555
 20
-39.539311185
 10
-126.5578385868
 20
-39.6024154892
 10
-126.4665032431
 20
-39.6560142787
 10
-126.3705281555
 20
-39.6994169593
 10
-126.3325771796
 20
-39.7141109268
  0
LINE
  5
48C
100
AcDbEntity
  8
SUPERFICI
100
AcDbLine
 62
7
  6
CONTINUOUS
 10
-127.7064635346
 20
-36.8339989611
 11
-127.6375832165
 21
-37.0589030189
  0
LINE
  5
48D
100
AcDbEntity
  8
SUPERFICI
100
AcDbLine
 62
7
  6
CONTINUOUS
 10
-127.7921886541
 20
-36.5482259756
 11
-127.7064635346
 21
-36.8339989611
  0
LWPOLYLINE
  5
48E
100
AcDbEntity
  8
SUPERFICI
100
AcDbPolyline
 62
250
  6
CONTINUOUS
 90
9
 70
0
 10
-127.4085508048
 20
-37.6955873738
 10
-127.3612774037
 20
-37.8568148213
 10
-127.3133417045
 20
-38.0162656131
 10
-127.2646652658
 20
-38.1741977518
 10
-127.2151925192
 20
-38.3307979949
 10
-127.1648207385
 20
-38.4864044232
 10
-127.1133959798
 20
-38.6415011909
 10
-127.0608076709
 20
-38.7964265426
 10
-127.0069926572
 20
-38.9513781132
  0
LINE
  5
48F
100
AcDbEntity
  8
SUPERFICI
100
AcDbLine
 62
7
  6
CONTINUOUS
 10
-127.8937258159
 20
-36.2009564983
 11
-127.7921886541
 21
-36.5482259756
  0
LINE
  5
490
100
AcDbEntity
  8
SUPERFICI
100
AcDbLine
 62
7
  6
CONTINUOUS
 10
-128.1268316403
 20
-35.4069770158
 11
-127.8327250672
 21
-36.4292196802
  0
LINE
  5
491
100
AcDbEntity
  8
SUPERFICI
100
AcDbLine
 62
7
  6
CONTINUOUS
 10
-128.0059938722
 20
-35.8060976563
 11
-127.8937258159
 21
-36.2009564983
  0
LINE
  5
492
100
AcDbEntity
  8
SUPERFICI
100
AcDbLine
 62
7
  6
CONTINUOUS
 10
-128.0320949882
 20
-35.7127641632
 11
-128.0059938722
 21
-35.8060977243
  0
LINE
  5
493
100
AcDbEntity
  8
SUPERFICI
100
AcDbLine
 62
7
  6
CONTINUOUS
 10
-130.5586762086
 20
23.7918809939
 11
-130.5751331451
 21
23.689819014
  0
LINE
  5
494
100
AcDbEntity
  8
SUPERFICI
100
AcDbLine
 62
7
  6
CONTINUOUS
 10
-129.1138993065
 20
30.9493348147
 11
-129.1544763622
 21
30.7115398964
  0
LINE
  5
495
100
AcDbEntity
  8
SUPERFICI
100
AcDbLine
 62
7
  6
CONTINUOUS
 10
-129.0707903754
 20
31.1940102362
 11
-129.1138993065
 21
30.9493348147
  0
LINE
  5
496
100
AcDbEntity
  8
SUPERFICI
100
AcDbLine
 62
7
  6
CONTINUOUS
 10
-129.0017323178
 20
31.5699796929
 11
-129.1151804155
 21
30.9456181153
  0
LWPOLYLINE
  5
497
100
AcDbEntity
  8
SUPERFICI
100
AcDbPolyline
 62
250
  6
CONTINUOUS
 90
10
 70
0
 10
-129.0017323178
 20
31.3648610385
 10
-129.1052854681
 20
30.7970321173
 10
-129.2046728343
 20
30.210208227
 10
-129.299628878
 20
29.605497087
 10
-129.3901696718
 20
28.9819798949
 10
-129.4757009979
 20
28.3427695949
 10
-129.555192685
 20
27.6954402542
 10
-129.6282990766
 20
27.043672493
 10
-129.6951844662
 20
26.386825375
 10
-129.7064763101
 20
26.2689981454
  0
LWPOLYLINE
  5
498
100
AcDbEntity
  8
SUPERFICI
100
AcDbPolyline
 62
7
  6
CONTINUOUS
 90
26
 70
0
 10
-129.7949005062
 20
25.5245545842
 10
-129.8015000478
 20
25.4883581997
 10
-129.8080718017
 20
25.4539922174
 10
-129.8145374459
 20
25.4216530816
 10
-129.8208965257
 20
25.3911386793
 10
-129.8272496911
 20
25.3618200549
 10
-129.8336002654
 20
25.3335828988
 10
-129.8399017481
 20
25.3065374556
 10
-129.8462017382
 20
25.2803945616
 10
-129.8524991257
 20
25.2550932395
 10
-129.8587636322
 20
25.2306909627
 10
-129.8650079838
 20
25.2070777107
 10
-129.8712200568
 20
25.1842453398
 10
-129.8773842402
 20
25.1621985429
 10
-129.8835122281
 20
25.1408474318
 10
-129.8895801688
 20
25.1202301521
 10
-129.8955873527
 20
25.1003053468
 10
-129.9015862384
 20
25.0808651395
 10
-129.9075759743
 20
25.0618869592
 10
-129.9135421001
 20
25.043391712
 10
-129.9195234864
 20
25.0252382348
 10
-129.9255144868
 20
25.0074276462
 10
-129.9315103511
 20
24.9899582019
 10
-129.9375566354
 20
24.9726858019
 10
-129.9436454884
 20
24.955625329
 10
-129.9497792598
 20
24.9387626079
  0
LWPOLYLINE
  5
499
100
AcDbEntity
  8
SUPERFICI
100
AcDbPolyline
 62
250
  6
CONTINUOUS
 90
10
 70
0
 10
-129.0017323178
 20
29.591078995
 10
-129.0870847151
 20
29.1380542347
 10
-129.169251611
 20
28.6899835276
 10
-129.248440034
 20
28.2455278506
 10
-129.3249161869
 20
27.8030061479
 10
-129.3988604117
 20
27.3612303828
 10
-129.4703857753
 20
26.9194848684
 10
-129.5397201133
 20
26.4764372964
 10
-129.6071877978
 20
26.0301575486
 10
-129.6730774569
 20
25.5789396446
  0
LINE
  5
49A
100
AcDbEntity
  8
SUPERFICI
100
AcDbLine
 62
7
  6
CONTINUOUS
 10
-128.9860766045
 20
31.6525648353
 11
-129.0261984988
 21
31.4392494816
  0
LWPOLYLINE
  5
49B
100
AcDbEntity
  8
SUPERFICI
100
AcDbPolyline
 62
250
  6
CONTINUOUS
 90
3
 70
0
 10
-128.0059938722
 20
33.4191567796
 10
-128.1097851954
 20
32.875024667
 10
-128.2170550745
 20
32.3293544484
  0
LWPOLYLINE
  5
49C
100
AcDbEntity
  8
SUPERFICI
100
AcDbPolyline
 62
250
  6
CONTINUOUS
 90
6
 70
0
 10
-129.0017323178
 20
30.7588482108
 10
-128.9039904813
 20
31.2666410799
 10
-128.8016989115
 20
31.7765306188
 10
-128.695463089
 20
32.2875275028
 10
-128.5861131257
 20
32.7976695421
 10
-128.4740955435
 20
33.3068664422
  0
LINE
  5
49D
100
AcDbEntity
  8
SUPERFICI
100
AcDbLine
 62
250
  6
CONTINUOUS
 10
-129.0017323178
 20
28.4883957015
 11
-129.1582664268
 21
27.6687727173
  0
LINE
  5
49E
100
AcDbEntity
  8
SUPERFICI
100
AcDbLine
 62
250
  6
CONTINUOUS
 10
-128.900243465
 20
30.1140377349
 11
-129.0017323178
 21
29.591078995
  0
LWPOLYLINE
  5
49F
100
AcDbEntity
  8
SUPERFICI
100
AcDbPolyline
 62
250
  6
CONTINUOUS
 90
3
 70
0
 10
-129.0017323178
 20
28.041982254
 10
-129.0797420982
 20
27.6406171613
 10
-129.227931392
 20
26.8524090061
  0
LWPOLYLINE
  5
4A0
100
AcDbEntity
  8
SUPERFICI
100
AcDbPolyline
 62
250
  6
CONTINUOUS
 90
8
 70
0
 10
-129.0017323178
 20
31.3648610385
 10
-128.9077275884
 20
31.8479439139
 10
-128.8089656749
 20
32.3289630218
 10
-128.7056019892
 20
32.8080954607
 10
-128.5977203034
 20
33.2861230773
 10
-128.4856670082
 20
33.7629633904
 10
-128.3700708299
 20
34.2377859798
 10
-128.2513880088
 20
34.710918976
  0
LINE
  5
4A1
100
AcDbEntity
  8
SUPERFICI
100
AcDbLine
 62
250
  6
CONTINUOUS
 10
-128.0059938722
 20
32.9316325135
 11
-128.1112170017
 21
32.3918721202
  0
LINE
  5
4A2
100
AcDbEntity
  8
SUPERFICI
100
AcDbLine
 62
7
  6
CONTINUOUS
 10
-128.9974118937
 20
31.5928857407
 11
-128.9076845327
 21
32.0552486692
  0
LINE
  5
4A3
100
AcDbEntity
  8
SUPERFICI
100
AcDbLine
 62
250
  6
CONTINUOUS
 10
-127.3647026222
 20
36.9049622169
 11
-127.4769406473
 21
36.3254540099
  0
LINE
  5
4A4
100
AcDbEntity
  8
SUPERFICI
100
AcDbLine
 62
250
  6
CONTINUOUS
 10
-127.2288278267
 20
37.0617442076
 11
-127.3644226765
 21
36.3715419616
  0
LINE
  5
4A5
100
AcDbEntity
  8
SUPERFICI
100
AcDbLine
 62
250
  6
CONTINUOUS
 10
-128.8920575929
 20
29.0403049275
 11
-129.0017323178
 21
28.4883957015
  0
LINE
  5
4A6
100
AcDbEntity
  8
SUPERFICI
100
AcDbLine
 62
250
  6
CONTINUOUS
 10
-128.8928634485
 20
28.5876815163
 11
-129.0017323178
 21
28.041982254
  0
LINE
  5
4A7
100
AcDbEntity
  8
SUPERFICI
100
AcDbLine
 62
250
  6
CONTINUOUS
 10
-127.7468628375
 20
35.7770485239
 11
-128.0059938722
 21
34.4765392313
  0
LINE
  5
4A8
100
AcDbEntity
  8
SUPERFICI
100
AcDbLine
 62
7
  6
CONTINUOUS
 10
-128.8642635672
 20
32.2723595099
 11
-128.9074336314
 21
32.0573515082
  0
LINE
  5
4A9
100
AcDbEntity
  8
SUPERFICI
100
AcDbLine
 62
250
  6
CONTINUOUS
 10
-128.685468336
 20
31.1799718193
 11
-128.900243465
 21
30.1140377349
  0
LINE
  5
4AA
100
AcDbEntity
  8
SUPERFICI
100
AcDbLine
 62
250
  6
CONTINUOUS
 10
-127.2751107788
 20
37.3492092662
 11
-127.3647026222
 21
36.9049622169
  0
LINE
  5
4AB
100
AcDbEntity
  8
SUPERFICI
100
AcDbLine
 62
250
  6
CONTINUOUS
 10
-128.1112170017
 20
32.3918721202
 11
-128.3300177733
 21
31.3076198606
  0
LINE
  5
4AC
100
AcDbEntity
  8
SUPERFICI
100
AcDbLine
 62
250
  6
CONTINUOUS
 10
-127.0872726359
 20
37.7602524132
 11
-127.2288278267
 21
37.0617442076
  0
LINE
  5
4AD
100
AcDbEntity
  8
SUPERFICI
100
AcDbLine
 62
250
  6
CONTINUOUS
 10
-128.2170550745
 20
32.3293544484
 11
-128.4388684154
 21
31.2371064542
  0
LINE
  5
4AE
100
AcDbEntity
  8
SUPERFICI
100
AcDbLine
 62
250
  6
CONTINUOUS
 10
-128.0059938722
 20
34.4765392313
 11
-128.2334495121
 21
33.3607993687
  0
LINE
  5
4AF
100
AcDbEntity
  8
SUPERFICI
100
AcDbLine
 62
250
  6
CONTINUOUS
 10
-128.8962115722
 20
27.0741533807
 11
-129.0017323178
 21
26.5625194829
  0
LINE
  5
4B0
100
AcDbEntity
  8
SUPERFICI
100
AcDbLine
 62
7
  6
CONTINUOUS
 10
-128.8158609018
 20
32.5077296803
 11
-128.8642635672
 21
32.2723595099
  0
LINE
  5
4B1
100
AcDbEntity
  8
SUPERFICI
100
AcDbLine
 62
250
  6
CONTINUOUS
 10
-128.4388684154
 20
31.2371064542
 11
-128.8920575929
 21
29.0403049275
  0
LINE
  5
4B2
100
AcDbEntity
  8
SUPERFICI
100
AcDbLine
 62
250
  6
CONTINUOUS
 10
-128.2334495121
 20
33.3607993687
 11
-128.685468336
 21
31.1799718193
  0
LINE
  5
4B3
100
AcDbEntity
  8
SUPERFICI
100
AcDbLine
 62
250
  6
CONTINUOUS
 10
-128.3300177733
 20
31.3076198606
 11
-128.8928634485
 21
28.5876815163
  0
LINE
  5
4B4
100
AcDbEntity
  8
SUPERFICI
100
AcDbLine
 62
250
  6
CONTINUOUS
 10
-126.9884707562
 20
38.2360128906
 11
-127.0872726359
 21
37.7602524132
  0
LINE
  5
4B5
100
AcDbEntity
  8
SUPERFICI
100
AcDbLine
 62
250
  6
CONTINUOUS
 10
-127.8043834825
 20
32.1360572314
 11
-127.5398755521
 21
33.4091077536
  0
LINE
  5
4B6
100
AcDbEntity
  8
SUPERFICI
100
AcDbLine
 62
250
  6
CONTINUOUS
 10
-127.1824535147
 20
37.7931317824
 11
-127.2751107788
 21
37.3492092662
  0
LINE
  5
4B7
100
AcDbEntity
  8
SUPERFICI
100
AcDbLine
 62
7
  6
CONTINUOUS
 10
-128.7710218623
 20
32.7206628329
 11
-128.8158609018
 21
32.5077296803
  0
LINE
  5
4B8
100
AcDbEntity
  8
SUPERFICI
100
AcDbLine
 62
250
  6
CONTINUOUS
 10
-128.0059938722
 20
31.1866115992
 11
-127.8043834825
 21
32.1360572314
  0
LINE
  5
4B9
100
AcDbEntity
  8
SUPERFICI
100
AcDbLine
 62
250
  6
CONTINUOUS
 10
-128.6770952075
 20
28.1036760282
 11
-128.8962115722
 21
27.0741533807
  0
LINE
  5
4BA
100
AcDbEntity
  8
SUPERFICI
100
AcDbLine
 62
7
  6
CONTINUOUS
 10
-128.7253938874
 20
32.9325565652
 11
-128.7710218623
 21
32.7206628329
  0
LINE
  5
4BB
100
AcDbEntity
  8
SUPERFICI
100
AcDbLine
 62
250
  6
CONTINUOUS
 10
-127.0858415558
 20
38.2409233943
 11
-127.1824535147
 21
37.7931317824
  0
LINE
  5
4BC
100
AcDbEntity
  8
SUPERFICI
100
AcDbLine
 62
250
  6
CONTINUOUS
 10
-128.0059938722
 20
31.1866115992
 11
-128.6770952075
 21
28.1036760282
  0
LINE
  5
4BD
100
AcDbEntity
  8
SUPERFICI
100
AcDbLine
 62
7
  6
CONTINUOUS
 10
-128.6791857913
 20
33.1424745643
 11
-128.7253938874
 21
32.9325565652
  0
LINE
  5
4BE
100
AcDbEntity
  8
SUPERFICI
100
AcDbLine
 62
250
  6
CONTINUOUS
 10
-126.9844793251
 20
38.6962742782
 11
-127.0858415558
 21
38.2409233943
  0
LINE
  5
4BF
100
AcDbEntity
  8
SUPERFICI
100
AcDbLine
 62
7
  6
CONTINUOUS
 10
-130.5681531844
 20
23.7409535925
 11
-130.5424975775
 21
23.8549297015
  0
LINE
  5
4C0
100
AcDbEntity
  8
SUPERFICI
100
AcDbLine
 62
7
  6
CONTINUOUS
 10
-128.6323889844
 20
33.3505290199
 11
-128.6791857913
 21
33.1424745643
  0
LWPOLYLINE
  5
4C1
100
AcDbEntity
  8
SUPERFICI
100
AcDbPolyline
 62
250
  6
CONTINUOUS
 90
5
 70
0
 10
-127.4085508048
 20
37.3570658158
 10
-127.478864381
 20
37.0488191162
 10
-127.5477624282
 20
36.735212307
 10
-127.6153710914
 20
36.4175348958
 10
-127.7468628375
 20
35.7770485239
  0
LWPOLYLINE
  5
4C2
100
AcDbEntity
  8
SUPERFICI
100
AcDbPolyline
 62
7
  6
CONTINUOUS
 90
9
 70
0
 10
-126.9692437837
 20
39.0465831071
 10
-126.9668035018
 20
39.0572631195
 10
-126.9644685861
 20
39.0664787248
 10
-126.9622455451
 20
39.0745530677
 10
-126.9601154024
 20
39.0817866646
 10
-126.958098712
 20
39.0882653771
 10
-126.9562592021
 20
39.0939192341
 10
-126.9546177331
 20
39.0987867836
 10
-126.9530928075
 20
39.1045948439
  0
LINE
  5
4C3
100
AcDbEntity
  8
SUPERFICI
100
AcDbLine
 62
250
  6
CONTINUOUS
 10
-128.4740955435
 20
33.3068664422
 11
-128.2426114605
 21
34.3272585279
  0
LINE
  5
4C4
100
AcDbEntity
  8
SUPERFICI
100
AcDbLine
 62
7
  6
CONTINUOUS
 10
-128.5849229519
 20
33.5571467851
 11
-128.6323889844
 21
33.3505290199
  0
LWPOLYLINE
  5
4C5
100
AcDbEntity
  8
SUPERFICI
100
AcDbPolyline
 62
7
  6
CONTINUOUS
 90
3
 70
0
 10
-128.6160358354
 20
33.4196817858
 10
-128.3787013116
 20
34.4346539353
 10
-128.1268316418
 20
35.4069770162
  0
LINE
  5
4C6
100
AcDbEntity
  8
SUPERFICI
100
AcDbLine
 62
250
  6
CONTINUOUS
 10
-127.9412310158
 20
35.6160735101
 11
-128.2426114605
 21
34.3272585279
  0
LINE
  5
4C7
100
AcDbEntity
  8
SUPERFICI
100
AcDbLine
 62
7
  6
CONTINUOUS
 10
-128.4711209841
 20
34.0358935568
 11
-128.5204739183
 21
33.8310226192
  0
LINE
  5
4C8
100
AcDbEntity
  8
SUPERFICI
100
AcDbLine
 62
250
  6
CONTINUOUS
 10
-128.8985808793
 20
23.1631670524
 11
-129.0017323178
 21
22.7436179843
  0
LINE
  5
4C9
100
AcDbEntity
  8
SUPERFICI
100
AcDbLine
 62
7
  6
CONTINUOUS
 10
-128.4209833972
 20
34.240004389
 11
-128.4711209841
 21
34.0358935568
  0
LINE
  5
4CA
100
AcDbEntity
  8
SUPERFICI
100
AcDbLine
 62
250
  6
CONTINUOUS
 10
-127.7395978414
 20
27.651271037
 11
-127.5414461819
 21
28.4482045138
  0
LINE
  5
4CB
100
AcDbEntity
  8
SUPERFICI
100
AcDbLine
 62
7
  6
CONTINUOUS
 10
-128.3618387704
 20
34.4759311002
 11
-128.4209833972
 21
34.240004389
  0
LINE
  5
4CC
100
AcDbEntity
  8
SUPERFICI
100
AcDbLine
 62
250
  6
CONTINUOUS
 10
-127.9385805607
 20
26.8671937042
 11
-127.7395978414
 21
27.651271037
  0
LINE
  5
4CD
100
AcDbEntity
  8
SUPERFICI
100
AcDbLine
 62
250
  6
CONTINUOUS
 10
-128.6850945036
 20
24.0038790282
 11
-128.8985808793
 21
23.1631670524
  0
LINE
  5
4CE
100
AcDbEntity
  8
SUPERFICI
100
AcDbLine
 62
7
  6
CONTINUOUS
 10
-128.3023919291
 20
34.7081650253
 11
-128.3618387704
 21
34.4759311002
  0
LINE
  5
4CF
100
AcDbEntity
  8
SUPERFICI
100
AcDbLine
 62
250
  6
CONTINUOUS
 10
-127.9385805607
 20
26.8671937042
 11
-128.2356898146
 21
25.7219434524
  0
LINE
  5
4D0
100
AcDbEntity
  8
SUPERFICI
100
AcDbLine
 62
250
  6
CONTINUOUS
 10
-128.2513880088
 20
34.710918976
 11
-128.0059938722
 21
35.6573132862
  0
LINE
  5
4D1
100
AcDbEntity
  8
SUPERFICI
100
AcDbLine
 62
250
  6
CONTINUOUS
 10
-128.2356898146
 20
25.7219434524
 11
-128.6850945036
 21
24.0038790282
  0
LINE
  5
4D2
100
AcDbEntity
  8
SUPERFICI
100
AcDbLine
 62
7
  6
CONTINUOUS
 10
-128.2430834082
 20
34.9353624885
 11
-128.3023919291
 21
34.7081650253
  0
LINE
  5
4D3
100
AcDbEntity
  8
SUPERFICI
100
AcDbLine
 62
250
  6
CONTINUOUS
 10
-127.8813702333
 20
36.1263636382
 11
-128.0059938722
 21
35.6573132862
  0
LINE
  5
4D4
100
AcDbEntity
  8
SUPERFICI
100
AcDbLine
 62
7
  6
CONTINUOUS
 10
-128.1760752516
 20
35.1871290035
 11
-128.2430834082
 21
34.9353624885
  0
LINE
  5
4D5
100
AcDbEntity
  8
SUPERFICI
100
AcDbLine
 62
7
  6
CONTINUOUS
 10
-128.1105944235
 20
35.4285894072
 11
-128.1760752516
 21
35.1871290035
  0
LINE
  5
4D6
100
AcDbEntity
  8
SUPERFICI
100
AcDbLine
 62
7
  6
CONTINUOUS
 10
-130.5302857688
 20
23.8941890144
 11
-130.5586762086
 21
23.7918809939
  0
LWPOLYLINE
  5
4D7
100
AcDbEntity
  8
SUPERFICI
100
AcDbPolyline
 62
7
  6
CONTINUOUS
 90
3
 70
0
 10
-128.0320949882
 20
35.7127641632
 10
-128.0397346551
 20
35.6853416354
 10
-128.1105944235
 20
35.4285894072
  0
LWPOLYLINE
  5
4D8
100
AcDbEntity
  8
SUPERFICI
100
AcDbPolyline
 62
250
  6
CONTINUOUS
 90
3
 70
0
 10
-128.8005273996
 20
18.8827793444
 10
-128.9020340297
 20
18.5648489595
 10
-129.0017323178
 20
18.2463532548
  0
LINE
  5
4D9
100
AcDbEntity
  8
SUPERFICI
100
AcDbLine
 62
250
  6
CONTINUOUS
 10
-128.0059938722
 20
21.2966137406
 11
-127.8073246267
 21
21.9144345593
  0
LINE
  5
4DA
100
AcDbEntity
  8
SUPERFICI
100
AcDbLine
 62
250
  6
CONTINUOUS
 10
-128.5905878645
 20
19.5258047115
 11
-128.8005273996
 21
18.8827793444
  0
LINE
  5
4DB
100
AcDbEntity
  8
SUPERFICI
100
AcDbLine
 62
250
  6
CONTINUOUS
 10
-128.0059938722
 20
21.2966137406
 11
-128.2523599944
 21
20.5457145451
  0
LINE
  5
4DC
100
AcDbEntity
  8
SUPERFICI
100
AcDbLine
 62
250
  6
CONTINUOUS
 10
-128.2523599944
 20
20.5457145451
 11
-128.5905878645
 21
19.5258047115
  0
LWPOLYLINE
  5
4DD
100
AcDbEntity
  8
0
100
AcDbPolyline
 62
7
  6
CONTINUOUS
 90
13
 70
0
 43
0.3500000006
 10
-142.1633987732
 20
-1.9285708809
 10
-142.3776923218
 20
-2.2142854156
 10
-143.0205457764
 20
-2.2142854156
 10
-143.4491147461
 20
-1.9285708809
 10
-143.4491147461
 20
-1.2857140274
 10
-143.0205457764
 20
-1.0000006256
 10
-142.3776923218
 20
-1.0000006256
 10
-142.1633987732
 20
-1.2857140274
 10
-141.7348298035
 20
-0.8571427917
 10
-140.877691864
 20
-0.8571427917
 10
-140.4491138306
 20
-1.2857140274
 10
-140.4491138306
 20
-1.9285708809
 10
-140.877691864
 20
-2.3571432495
  0
LWPOLYLINE
  5
4DE
100
AcDbEntity
  8
SUPERFICI
100
AcDbPolyline
 62
250
  6
CONTINUOUS
 90
5
 70
0
 10
-128.1316260803
 20
-20.9118274989
 10
-128.6968526137
 20
-19.2022839346
 10
-128.8005273996
 20
-18.8827793444
 10
-128.9020340297
 20
-18.5648489595
 10
-129.0017323178
 20
-18.2463532548
  0
LINE
  5
4DF
100
AcDbEntity
  8
SUPERFICI
100
AcDbLine
 62
250
  6
CONTINUOUS
 10
-128.1316260803
 20
-20.9118274989
 11
-127.9391259362
 21
-21.5032772803
  0
LINE
  5
4E0
100
AcDbEntity
  8
SUPERFICI
100
AcDbLine
 62
250
  6
CONTINUOUS
 10
-127.9391259362
 20
-21.5032772803
 11
-127.8073246267
 21
-21.9144345593
  0
LINE
  5
4E1
100
AcDbEntity
  8
SUPERFICI
100
AcDbLine
 62
7
  6
CONTINUOUS
 10
-128.1025556457
 20
-35.4579444367
 11
-128.0320949882
 21
-35.7127641632
  0
LINE
  5
4E2
100
AcDbEntity
  8
SUPERFICI
100
AcDbLine
 62
250
  6
CONTINUOUS
 10
-127.7536509082
 20
-36.595004681
 11
-127.8813702333
 21
-36.1263636382
  0
LINE
  5
4E3
100
AcDbEntity
  8
SUPERFICI
100
AcDbLine
 62
7
  6
CONTINUOUS
 10
-128.1677901716
 20
-35.2179196198
 11
-128.1025556457
 21
-35.4579444367
  0
LINE
  5
4E4
100
AcDbEntity
  8
SUPERFICI
100
AcDbLine
 62
7
  6
CONTINUOUS
 10
-128.234649651
 20
-34.9673278552
 11
-128.1677901716
 21
-35.2179196198
  0
LINE
  5
4E5
100
AcDbEntity
  8
SUPERFICI
100
AcDbLine
 62
250
  6
CONTINUOUS
 10
-127.8813702333
 20
-36.1263636382
 11
-128.0059938722
 21
-35.6573132862
  0
LINE
  5
4E6
100
AcDbEntity
  8
SUPERFICI
100
AcDbLine
 62
7
  6
CONTINUOUS
 10
-128.2938993782
 20
-34.7409644624
 11
-128.234649651
 21
-34.9673278552
  0
LINE
  5
4E7
100
AcDbEntity
  8
SUPERFICI
100
AcDbLine
 62
250
  6
CONTINUOUS
 10
-128.0059938722
 20
-26.6048774461
 11
-128.6850945036
 21
-24.0038790282
  0
LINE
  5
4E8
100
AcDbEntity
  8
SUPERFICI
100
AcDbLine
 62
7
  6
CONTINUOUS
 10
-128.3533551895
 20
-34.5093638315
 11
-128.2938993782
 21
-34.7409644624
  0
LINE
  5
4E9
100
AcDbEntity
  8
SUPERFICI
100
AcDbLine
 62
250
  6
CONTINUOUS
 10
-127.8054763041
 20
-27.3899563207
 11
-128.0059938722
 21
-26.6048774461
  0
LWPOLYLINE
  5
4EA
100
AcDbEntity
  8
SUPERFICI
100
AcDbPolyline
 62
250
  6
CONTINUOUS
 90
3
 70
0
 10
-128.6850945036
 20
-24.0038790282
 10
-128.8985808793
 20
-23.1631670524
 10
-129.0017323178
 20
-22.7436179843
  0
LWPOLYLINE
  5
4EB
100
AcDbEntity
  8
SUPERFICI
100
AcDbPolyline
 62
250
  6
CONTINUOUS
 90
6
 70
0
 10
-127.7470243741
 20
-36.4212939675
 10
-127.6815666296
 20
-36.6827885141
 10
-127.6152198033
 20
-36.9411205738
 10
-127.547717275
 20
-37.1962662256
 10
-127.4788965363
 20
-37.4478232304
 10
-127.4085508048
 20
-37.6955873738
  0
LINE
  5
4EC
100
AcDbEntity
  8
SUPERFICI
100
AcDbLine
 62
7
  6
CONTINUOUS
 10
-128.4125690936
 20
-34.27388086
 11
-128.3533551895
 21
-34.5093638315
  0
LWPOLYLINE
  5
4ED
100
AcDbEntity
  8
SUPERFICI
100
AcDbPolyline
 62
250
  6
CONTINUOUS
 90
3
 70
0
 10
-127.5409818235
 20
-28.4500915033
 10
-127.6068179868
 20
-28.1834581667
 10
-127.8054763041
 20
-27.3899563207
  0
LINE
  5
4EE
100
AcDbEntity
  8
SUPERFICI
100
AcDbLine
 62
7
  6
CONTINUOUS
 10
-128.4628127458
 20
-34.0699893603
 11
-128.4125690936
 21
-34.27388086
  0
LINE
  5
4EF
100
AcDbEntity
  8
SUPERFICI
100
AcDbLine
 62
250
  6
CONTINUOUS
 10
-127.8766313001
 20
-35.8877211865
 11
-127.7470243741
 21
-36.4212939675
  0
LINE
  5
4F0
100
AcDbEntity
  8
SUPERFICI
100
AcDbLine
 62
7
  6
CONTINUOUS
 10
-128.512314568
 20
-33.8651747979
 11
-128.4628127458
 21
-34.0699893603
  0
LWPOLYLINE
  5
4F1
100
AcDbEntity
  8
SUPERFICI
100
AcDbPolyline
 62
250
  6
CONTINUOUS
 90
10
 70
0
 10
-127.4085508048
 20
-37.3570658158
 10
-127.363122811
 20
-37.5497479039
 10
-127.3170725144
 20
-37.7403119746
 10
-127.270306521
 20
-37.9291244199
 10
-127.2227313081
 20
-38.1165526022
 10
-127.174249605
 20
-38.3029791714
 10
-127.1247601736
 20
-38.4888017788
 10
-127.0741626697
 20
-38.6744144002
 10
-127.0223578458
 20
-38.8602076963
 10
-126.9692437837
 20
-39.0465831071
  0
LINE
  5
4F2
100
AcDbEntity
  8
SUPERFICI
100
AcDbLine
 62
7
  6
CONTINUOUS
 10
-128.5609155671
 20
-33.6600372923
 11
-128.512314568
 21
-33.8651747979
  0
LINE
  5
4F3
100
AcDbEntity
  8
SUPERFICI
100
AcDbLine
 62
250
  6
CONTINUOUS
 10
-128.1245397698
 20
-34.835949734
 11
-127.8766313001
 21
-35.8877211865
  0
LWPOLYLINE
  5
4F4
100
AcDbEntity
  8
SUPERFICI
100
AcDbPolyline
 62
7
  6
CONTINUOUS
 90
3
 70
0
 10
-128.6160358751
 20
-33.4196816107
 10
-128.3787013103
 20
-34.4346539349
 10
-128.1268316403
 20
-35.4069770158
  0
LWPOLYLINE
  5
4F5
100
AcDbEntity
  8
SUPERFICI
100
AcDbPolyline
 62
7
  6
CONTINUOUS
 90
9
 70
0
 10
-126.9692437837
 20
-39.0465831071
 10
-126.9668035018
 20
-39.0572631195
 10
-126.9644685861
 20
-39.0664787248
 10
-126.9622455451
 20
-39.0745530677
 10
-126.9601154024
 20
-39.0817866646
 10
-126.958098712
 20
-39.0882653771
 10
-126.9562592021
 20
-39.0939192341
 10
-126.9546177331
 20
-39.0987867836
 10
-126.9530928075
 20
-39.1045948439
  0
LINE
  5
4F6
100
AcDbEntity
  8
SUPERFICI
100
AcDbLine
 62
7
  6
CONTINUOUS
 10
-128.6636560509
 20
-33.2120124481
 11
-128.6166454727
 21
-33.419540046
  0
LINE
  5
4F7
100
AcDbEntity
  8
SUPERFICI
100
AcDbLine
 62
250
  6
CONTINUOUS
 10
-126.9844793251
 20
-38.6962742782
 11
-127.0858415558
 21
-38.2409233943
  0
LINE
  5
4F8
100
AcDbEntity
  8
SUPERFICI
100
AcDbLine
 62
7
  6
CONTINUOUS
 10
-128.7100533032
 20
-33.0027559306
 11
-128.6636560509
 21
-33.2120124481
  0
LINE
  5
4F9
100
AcDbEntity
  8
SUPERFICI
100
AcDbLine
 62
7
  6
CONTINUOUS
 10
-128.7558835687
 20
-32.7914872311
 11
-128.7100533032
 21
-33.0027559306
  0
LINE
  5
4FA
100
AcDbEntity
  8
SUPERFICI
100
AcDbLine
 62
250
  6
CONTINUOUS
 10
-127.0858415558
 20
-38.2409233943
 11
-127.1824535147
 21
-37.7931317824
  0
LWPOLYLINE
  5
4FB
100
AcDbEntity
  8
SUPERFICI
100
AcDbPolyline
 62
250
  6
CONTINUOUS
 90
4
 70
0
 10
-127.615215781
 20
-36.4182749112
 10
-127.5476479531
 20
-36.7357422175
 10
-127.4788013793
 20
-37.0491008158
 10
-127.4085508048
 20
-37.3570658157
  0
LINE
  5
4FC
100
AcDbEntity
  8
SUPERFICI
100
AcDbLine
 62
250
  6
CONTINUOUS
 10
-127.8710961336
 20
-31.8197490976
 11
-128.1167955685
 21
-30.6729229039
  0
LINE
  5
4FD
100
AcDbEntity
  8
SUPERFICI
100
AcDbLine
 62
7
  6
CONTINUOUS
 10
-128.8010456257
 20
-32.5786155799
 11
-128.7558835687
 21
-32.7914872311
  0
LINE
  5
4FE
100
AcDbEntity
  8
SUPERFICI
100
AcDbLine
 62
250
  6
CONTINUOUS
 10
-127.1824535147
 20
-37.7931317824
 11
-127.2751107788
 21
-37.3492092662
  0
LWPOLYLINE
  5
4FF
100
AcDbEntity
  8
SUPERFICI
100
AcDbPolyline
 62
250
  6
CONTINUOUS
 90
4
 70
0
 10
-129.0017323178
 20
-26.5625194829
 10
-128.896188565
 20
-27.0742635264
 10
-128.787637882
 20
-27.5885653941
 10
-128.1167955685
 20
-30.6729229039
  0
LWPOLYLINE
  5
500
100
AcDbEntity
  8
SUPERFICI
100
AcDbPolyline
 62
250
  6
CONTINUOUS
 90
3
 70
0
 10
-127.53988341
 20
-33.409069526
 10
-127.6056317312
 20
-33.0900054907
 10
-127.8710961336
 20
-31.8197490976
  0
LINE
  5
501
100
AcDbEntity
  8
SUPERFICI
100
AcDbLine
 62
7
  6
CONTINUOUS
 10
-128.8443729109
 20
-32.3697949193
 11
-128.8010456257
 21
-32.5786155799
  0
LINE
  5
502
100
AcDbEntity
  8
SUPERFICI
100
AcDbLine
 62
250
  6
CONTINUOUS
 10
-128.119101123
 20
-33.9176180505
 11
-128.685468336
 21
-31.1799718193
  0
LINE
  5
503
100
AcDbEntity
  8
SUPERFICI
100
AcDbLine
 62
250
  6
CONTINUOUS
 10
-126.9884707562
 20
-38.2360128906
 11
-127.1353292669
 21
-37.5254569257
  0
LINE
  5
504
100
AcDbEntity
  8
SUPERFICI
100
AcDbLine
 62
250
  6
CONTINUOUS
 10
-127.7466380611
 20
-35.778163441
 11
-127.615215781
 21
-36.4182749112
  0
LWPOLYLINE
  5
505
100
AcDbEntity
  8
SUPERFICI
100
AcDbPolyline
 62
250
  6
CONTINUOUS
 90
4
 70
0
 10
-128.3269815187
 20
-31.7833258576
 10
-128.2169695667
 20
-32.3297838275
 10
-128.1097395377
 20
-32.8752602149
 10
-128.0059938722
 20
-33.4191567796
  0
LINE
  5
506
100
AcDbEntity
  8
SUPERFICI
100
AcDbLine
 62
7
  6
CONTINUOUS
 10
-128.8920480676
 20
-32.1345444314
 11
-128.8443729109
 21
-32.3697949193
  0
LINE
  5
507
100
AcDbEntity
  8
SUPERFICI
100
AcDbLine
 62
250
  6
CONTINUOUS
 10
-127.2751107788
 20
-37.3492092662
 11
-127.3647026222
 21
-36.9049622169
  0
LWPOLYLINE
  5
508
100
AcDbEntity
  8
SUPERFICI
100
AcDbPolyline
 62
250
  6
CONTINUOUS
 90
3
 70
0
 10
-128.329934823
 20
-31.3080238278
 10
-128.1111830518
 20
-32.3920439726
 10
-128.0059938722
 20
-32.9316325135
  0
LWPOLYLINE
  5
509
100
AcDbEntity
  8
SUPERFICI
100
AcDbPolyline
 62
250
  6
CONTINUOUS
 90
3
 70
0
 10
-128.685468336
 20
-31.1799718193
 10
-128.900243465
 20
-30.1140377349
 10
-129.0017323178
 20
-29.591078995
  0
LWPOLYLINE
  5
50A
100
AcDbEntity
  8
SUPERFICI
100
AcDbPolyline
 62
250
  6
CONTINUOUS
 90
3
 70
0
 10
-129.0017323178
 20
-28.041982254
 10
-128.892818917
 20
-28.587901687
 10
-128.329934823
 20
-31.3080238278
  0
LWPOLYLINE
  5
50B
100
AcDbEntity
  8
SUPERFICI
100
AcDbPolyline
 62
250
  6
CONTINUOUS
 90
3
 70
0
 10
-129.0017323178
 20
-28.4883957015
 10
-128.8919819762
 20
-29.0406799311
 10
-128.3269815187
 20
-31.7833258576
  0
LINE
  5
50C
100
AcDbEntity
  8
SUPERFICI
100
AcDbLine
 62
250
  6
CONTINUOUS
 10
-127.1353292669
 20
-37.5254569257
 11
-127.2745625074
 21
-36.8313919108
  0
LINE
  5
50D
100
AcDbEntity
  8
SUPERFICI
100
AcDbLine
 62
7
  6
CONTINUOUS
 10
-128.9081075413
 20
-32.053955823
 11
-128.8920480676
 21
-32.1345444314
  0
LINE
  5
50E
100
AcDbEntity
  8
SUPERFICI
100
AcDbLine
 62
250
  6
CONTINUOUS
 10
-128.119101123
 20
-33.9176180505
 11
-127.7466380611
 21
-35.778163441
  0
LINE
  5
50F
100
AcDbEntity
  8
SUPERFICI
100
AcDbLine
 62
250
  6
CONTINUOUS
 10
-126.9771553657
 20
-39.0056415628
 11
-126.976839075
 21
-39.0072439345
  0
LWPOLYLINE
  5
510
100
AcDbEntity
  8
SUPERFICI
100
AcDbPolyline
 62
250
  6
CONTINUOUS
 90
4
 70
0
 10
-126.9719322197
 20
-39.0338858066
 10
-126.9711419313
 20
-39.0379310732
 10
-126.9702443062
 20
-39.0422250555
 10
-126.9692448421
 20
-39.0465825811
  0
LWPOLYLINE
  5
511
100
AcDbEntity
  8
SUPERFICI
100
AcDbPolyline
 62
250
  6
CONTINUOUS
 90
9
 70
0
 10
-129.0017323178
 20
-31.3648610385
 10
-128.9077275884
 20
-31.8479439139
 10
-128.8089656749
 20
-32.3289630218
 10
-128.7056019892
 20
-32.8080954607
 10
-128.5977203034
 20
-33.2861230773
 10
-128.4856670082
 20
-33.7629633904
 10
-128.3700708299
 20
-34.2377859798
 10
-128.2513880088
 20
-34.710918976
 10
-128.0059938722
 20
-35.6573132862
  0
LINE
  5
512
100
AcDbEntity
  8
SUPERFICI
100
AcDbLine
 62
250
  6
CONTINUOUS
 10
-129.0017323178
 20
-28.041982254
 11
-129.0797420982
 21
-27.6406171613
  0
LINE
  5
513
100
AcDbEntity
  8
SUPERFICI
100
AcDbLine
 62
250
  6
CONTINUOUS
 10
-127.2745625074
 20
-36.8313919108
 11
-127.3644226765
 21
-36.3715419616
  0
LINE
  5
514
100
AcDbEntity
  8
SUPERFICI
100
AcDbLine
 62
7
  6
CONTINUOUS
 10
-128.908134293
 20
-32.0529318163
 11
-128.9974118937
 21
-31.5928857407
  0
LWPOLYLINE
  5
515
100
AcDbEntity
  8
SUPERFICI
100
AcDbPolyline
 62
250
  6
CONTINUOUS
 90
8
 70
0
 10
-129.0017323178
 20
-30.7588482108
 10
-128.9039904813
 20
-31.2666410799
 10
-128.8016989115
 20
-31.7765306188
 10
-128.695463089
 20
-32.2875275028
 10
-128.5861131257
 20
-32.7976695421
 10
-128.4740955435
 20
-33.3068664422
 10
-128.3594404661
 20
-33.8168258931
 10
-128.1245397698
 20
-34.835949734
  0
LINE
  5
516
100
AcDbEntity
  8
SUPERFICI
100
AcDbLine
 62
250
  6
CONTINUOUS
 10
-127.4769406473
 20
-36.3254540099
 11
-127.3647026222
 21
-36.9049622169
  0
LWPOLYLINE
  5
517
100
AcDbEntity
  8
SUPERFICI
100
AcDbPolyline
 62
250
  6
CONTINUOUS
 90
9
 70
0
 10
-129.0017323178
 20
-28.4883957015
 10
-129.1582664268
 20
-27.6687727173
 10
-129.2324941876
 20
-27.2654263154
 10
-129.30433147
 20
-26.864482641
 10
-129.3738936218
 20
-26.4651256948
 10
-129.4411913721
 20
-26.0672252696
 10
-129.5063996163
 20
-25.6697924318
 10
-129.5698304958
 20
-25.2710210365
 10
-129.6317381909
 20
-24.8694480602
  0
LWPOLYLINE
  5
518
100
AcDbEntity
  8
SUPERFICI
100
AcDbPolyline
 62
250
  6
CONTINUOUS
 90
3
 70
0
 10
-129.0017323178
 20
-29.591078995
 10
-129.0870847151
 20
-29.1380542347
 10
-129.169251611
 20
-28.6899835276
  0
LINE
  5
519
100
AcDbEntity
  8
SUPERFICI
100
AcDbLine
 62
7
  6
CONTINUOUS
 10
-129.0201481355
 20
-31.4718268183
 11
-128.9827269605
 21
-31.6701614896
  0
LWPOLYLINE
  5
51A
100
AcDbEntity
  8
0
100
AcDbPolyline
 62
250
  6
CONTINUOUS
 90
7
 70
0
 10
-129.0017323178
 20
-31.3648610385
 10
-129.079103053
 20
-30.9445784543
 10
-129.1542701976
 20
-30.5132800775
 10
-129.2271188515
 20
-30.071395196
 10
-129.2975323821
 20
-29.6193620981
 10
-129.3653924118
 20
-29.1576281413
 10
-129.4149025537
 20
-28.799912332
  0
LINE
  5
51B
100
AcDbEntity
  8
SUPERFICI
100
AcDbLine
 62
7
  6
CONTINUOUS
 10
-129.0017251086
 20
-31.5701256558
 11
-129.1151804155
 21
-30.9456181153
  0
LINE
  5
51C
100
AcDbEntity
  8
SUPERFICI
100
AcDbLine
 62
7
  6
CONTINUOUS
 10
-129.1283358615
 20
-30.865584593
 11
-129.0871941439
 21
-31.101846108
  0
LINE
  5
51D
100
AcDbEntity
  8
SUPERFICI
100
AcDbLine
 62
7
  6
CONTINUOUS
 10
-129.1473871921
 20
-30.7536257527
 11
-129.1283358615
 21
-30.865584593
  0
LINE
  5
51E
100
AcDbEntity
  8
0
100
AcDbLine
 62
7
  6
CONTINUOUS
 10
-129.6969748316
 20
-26.1920581969
 11
-129.7288108323
 21
-25.899877
  0
LINE
  5
51F
100
AcDbEntity
  8
0
100
AcDbLine
 62
7
  6
CONTINUOUS
 10
-129.6324512163
 20
-26.3477290236
 11
-129.6131951093
 21
-26.527421681
  0
LINE
  5
520
100
AcDbEntity
  8
0
100
AcDbLine
 62
7
  6
CONTINUOUS
 10
-129.6131951093
 20
-26.527421681
 11
-129.5202545978
 21
-27.4606116877
  0
LWPOLYLINE
  5
521
100
AcDbEntity
  8
0
100
AcDbPolyline
 62
7
  6
CONTINUOUS
 90
4
 70
0
 10
-129.5202545978
 20
-27.4606116877
 10
-129.5150107749
 20
-27.5197628758
 10
-129.5110774408
 20
-27.5691547887
 10
-129.5084545953
 20
-27.6089026669
  0
LINE
  5
522
100
AcDbEntity
  8
0
100
AcDbLine
 62
7
  6
CONTINUOUS
 10
-129.7433117927
 20
-25.8680663277
 11
-129.7557533867
 21
-25.7262964239
  0
LINE
  5
523
100
AcDbEntity
  8
SUPERFICI
100
AcDbLine
 62
7
  6
CONTINUOUS
 10
-129.7526363454
 20
-25.762688859
 11
-129.7406569657
 21
-25.9028624919
  0
LINE
  5
524
100
AcDbEntity
  8
SUPERFICI
100
AcDbLine
 62
7
  6
CONTINUOUS
 10
-129.7559079892
 20
-25.7268592207
 11
-129.7419678946
 21
-25.9097118299
  0
LINE
  5
525
100
AcDbEntity
  8
SUPERFICI
100
AcDbLine
 62
7
  6
CONTINUOUS
 10
-129.7530143678
 20
-25.7575070905
 11
-129.742966303
 21
-25.9022990416
  0
LWPOLYLINE
  5
526
100
AcDbEntity
  8
SUPERFICI
100
AcDbPolyline
 62
7
  6
CONTINUOUS
 90
7
 70
0
 10
-130.5804439175
 20
-23.5888747858
 10
-130.5751331455
 20
-23.6898190103
 10
-130.5586762095
 20
-23.7918809896
 10
-130.5302857702
 20
-23.8941890101
 10
-130.4888032725
 20
-23.9965152684
 10
-130.4335268686
 20
-24.0970815899
 10
-130.384853232
 20
-24.1675600475
  0
LWPOLYLINE
  5
527
100
AcDbEntity
  8
SUPERFICI
100
AcDbPolyline
 62
7
  6
CONTINUOUS
 90
3
 70
0
 10
-130.5805000325
 20
-23.5897870066
 10
-130.5804846263
 20
-23.5902415139
 10
-130.5804439175
 20
-23.5888747858
  0
LWPOLYLINE
  5
528
100
AcDbEntity
  8
SUPERFICI
100
AcDbPolyline
 62
7
  6
CONTINUOUS
 90
7
 70
0
 10
-130.5805000325
 20
-23.5897870066
 10
-130.5797901248
 20
-23.6237293256
 10
-130.5681531844
 20
-23.7409535925
 10
-130.5424975775
 20
-23.8549297015
 10
-130.5031511527
 20
-23.9645992453
 10
-130.4504938795
 20
-24.0690312707
 10
-130.3849507509
 20
-24.1674297575
  0
LINE
  5
529
100
AcDbEntity
  8
SUPERFICI
100
AcDbLine
 62
7
  6
CONTINUOUS
 10
-130.5805000325
 20
23.5897869993
 11
-130.5797901248
 21
23.6237293256
  0
LINE
  5
52A
100
AcDbEntity
  8
SUPERFICI
100
AcDbLine
 62
7
  6
CONTINUOUS
 10
-130.5751331451
 20
23.689819014
 11
-130.5804439175
 21
23.5888747885
  0
LINE
  5
52B
100
AcDbEntity
  8
SUPERFICI
100
AcDbLine
 62
7
  6
CONTINUOUS
 10
-129.7073020316
 20
26.3538113223
 11
-129.756168454
 21
25.7268256484
  0
LINE
  5
52C
100
AcDbEntity
  8
SUPERFICI
100
AcDbLine
 62
7
  6
CONTINUOUS
 10
-129.7187996935
 20
26.2136731682
 11
-129.7341536492
 21
26.0075581069
  0
LINE
  5
52D
100
AcDbEntity
  8
SUPERFICI
100
AcDbLine
 62
7
  6
CONTINUOUS
 10
-129.7526363523
 20
25.7626887855
 11
-129.709345688
 21
26.2692433653
  0
LINE
  5
52E
100
AcDbEntity
  8
SUPERFICI
100
AcDbLine
 62
7
  6
CONTINUOUS
 10
-129.7033599813
 20
26.3751382796
 11
-129.7177529009
 21
26.2070580285
  0
LINE
  5
52F
100
AcDbEntity
  8
SUPERFICI
100
AcDbLine
 62
7
  6
CONTINUOUS
 10
-129.7064763101
 20
26.2689981454
 11
-129.7557533867
 21
25.7262964239
  0
LINE
  5
530
100
AcDbEntity
  8
SUPERFICI
100
AcDbLine
 62
7
  6
CONTINUOUS
 10
-130.5797901248
 20
23.6237293256
 11
-130.5681531844
 21
23.7409535925
  0
LWPOLYLINE
  5
531
100
AcDbEntity
  8
SUPERFICI
100
AcDbPolyline
 62
7
  6
CONTINUOUS
 90
4
 70
0
 10
-129.5036636901
 20
28.3151498925
 10
-129.5808293541
 20
27.6532810942
 10
-129.6489625268
 20
26.9975541953
 10
-129.7073020316
 20
26.3538113223
  0
LWPOLYLINE
  5
532
100
AcDbEntity
  8
SUPERFICI
100
AcDbPolyline
 62
7
  6
CONTINUOUS
 90
4
 70
0
 10
-129.493094454
 20
28.3723824021
 10
-129.5718101638
 20
27.7001614268
 10
-129.6419052035
 20
27.0340121279
 10
-129.7033599813
 20
26.3751382796
  0
LWPOLYLINE
  5
533
100
AcDbEntity
  8
SUPERFICI
100
AcDbPolyline
 62
250
  6
CONTINUOUS
 90
10
 70
0
 10
-129.755755915
 20
25.7264531299
 10
-129.685247096
 20
26.3209377195
 10
-129.6118974043
 20
26.9026576681
 10
-129.5355779692
 20
27.4729023908
 10
-129.4563881055
 20
28.0314064038
 10
-129.374019277
 20
28.5808777032
 10
-129.2876487485
 20
29.1268886027
 10
-129.1968279216
 20
29.671942377
 10
-129.101588469
 20
30.2155835451
 10
-129.0017323178
 20
30.7588482108
  0
LINE
  5
534
100
AcDbEntity
  8
SUPERFICI
100
AcDbLine
 62
7
  6
CONTINUOUS
 10
-129.4704332712
 20
28.5507635967
 11
-129.5021813937
 21
28.2941405006
  0
LINE
  5
535
100
AcDbEntity
  8
SUPERFICI
100
AcDbLine
 62
250
  6
CONTINUOUS
 10
-126.9770116225
 20
39.0060928903
 11
-126.9768814451
 21
39.0071058751
  0
LINE
  5
536
100
AcDbEntity
  8
SUPERFICI
100
AcDbLine
 62
7
  6
CONTINUOUS
 10
-129.4180550754
 20
28.97908675
 11
-129.5036636901
 21
28.3151498925
  0
LINE
  5
537
100
AcDbEntity
  8
SUPERFICI
100
AcDbLine
 62
7
  6
CONTINUOUS
 10
-129.4063753174
 20
29.0442637201
 11
-129.493094454
 21
28.3723824021
  0
LINE
  5
538
100
AcDbEntity
  8
SUPERFICI
100
AcDbLine
 62
7
  6
CONTINUOUS
 10
-129.7032024437
 20
26.091030012
 11
-129.7521619587
 21
25.7103011482
  0
LINE
  5
539
100
AcDbEntity
  8
SUPERFICI
100
AcDbLine
 62
250
  6
CONTINUOUS
 10
-126.9767537665
 20
39.0080752647
 11
-126.976628551
 21
39.0090023333
  0
LINE
  5
53A
100
AcDbEntity
  8
SUPERFICI
100
AcDbLine
 62
7
  6
CONTINUOUS
 10
-129.3833409554
 20
29.2109548222
 11
-129.4170639547
 21
28.9623511442
  0
LWPOLYLINE
  5
53B
100
AcDbEntity
  8
SUPERFICI
100
AcDbPolyline
 62
7
  6
CONTINUOUS
 90
6
 70
0
 10
-129.7644706034
 20
25.7202024275
 10
-129.7689109788
 20
25.687999178
 10
-129.775022367
 20
25.6460156328
 10
-129.7816167818
 20
25.6033833469
 10
-129.7883052126
 20
25.5626142384
 10
-129.7949005062
 20
25.5245545842
  0
LINE
  5
53C
100
AcDbEntity
  8
SUPERFICI
100
AcDbLine
 62
7
  6
CONTINUOUS
 10
-129.3131037201
 20
29.7045937713
 11
-129.4180550754
 21
28.97908675
  0
LINE
  5
53D
100
AcDbEntity
  8
SUPERFICI
100
AcDbLine
 62
250
  6
CONTINUOUS
 10
-126.9765057497
 20
39.0098884341
 11
-126.9763853367
 21
39.0107348204
  0
LINE
  5
53E
100
AcDbEntity
  8
SUPERFICI
100
AcDbLine
 62
7
  6
CONTINUOUS
 10
-129.290591406
 20
29.8550247938
 11
-129.326124335
 21
29.6147049315
  0
LINE
  5
53F
100
AcDbEntity
  8
SUPERFICI
100
AcDbLine
 62
250
  6
CONTINUOUS
 10
-126.9762673091
 20
39.0115426523
 11
-126.9761516402
 21
39.0123132116
  0
LINE
  5
540
100
AcDbEntity
  8
SUPERFICI
100
AcDbLine
 62
7
  6
CONTINUOUS
 10
-129.2142913403
 20
30.347156688
 11
-129.3243122317
 21
29.6426497646
  0
LINE
  5
541
100
AcDbEntity
  8
SUPERFICI
100
AcDbLine
 62
250
  6
CONTINUOUS
 10
-126.97603828
 20
39.0130478934
 11
-126.9759271898
 21
39.0137480488
  0
LWPOLYLINE
  5
542
100
AcDbEntity
  8
SUPERFICI
100
AcDbPolyline
 62
250
  6
CONTINUOUS
 90
45
 70
0
 10
-129.641083838
 20
17.9533650113
 10
-129.6494622274
 20
17.9012225415
 10
-129.658884557
 20
17.8504378307
 10
-129.6692471769
 20
17.8010113808
 10
-129.6804390083
 20
17.7529865362
 10
-129.6923708629
 20
17.7063217465
 10
-129.7049850026
 20
17.6608902637
 10
-129.7182007949
 20
17.6166836702
 10
-129.7319345341
 20
17.5737127669
 10
-129.7461422744
 20
17.5318794163
 10
-129.7607564159
 20
17.4911769668
 10
-129.7757058214
 20
17.4516148521
 10
-129.7909547218
 20
17.4131188626
 10
-129.8064395953
 20
17.3756978615
 10
-129.8221046924
 20
17.3393460251
 10
-129.8379378954
 20
17.3039668554
 10
-129.8538867736
 20
17.2695663249
 10
-129.8699044772
 20
17.2361414463
 10
-129.8859996097
 20
17.2035818873
 10
-129.9021401808
 20
17.1718702297
 10
-129.9182766096
 20
17.1410264153
 10
-129.9344001125
 20
17.1109957896
 10
-129.9504736878
 20
17.081781951
 10
-129.9664639977
 20
17.0533838399
 10
-129.9823742971
 20
17.0257396128
 10
-129.9981676234
 20
16.9988620906
 10
-130.0138214664
 20
16.9727408882
 10
-130.0293681295
 20
16.9472790529
 10
-130.0447895075
 20
16.9224682594
 10
-130.060056652
 20
16.8983189284
 10
-130.075192451
 20
16.8747619086
 10
-130.0901777567
 20
16.8517973411
 10
-130.1049931055
 20
16.8294269994
 10
-130.119666056
 20
16.8075839198
 10
-130.1341855198
 20
16.78626186
 10
-130.1485312303
 20
16.7654687431
 10
-130.1627209278
 20
16.7451586385
 10
-130.176743368
 20
16.7253291295
 10
-130.1905831911
 20
16.7059841315
 10
-130.2042547299
 20
16.6870870576
 10
-130.2177319501
 20
16.668658211
 10
-130.2310176249
 20
16.6506786446
 10
-130.2441729767
 20
16.6330526676
 10
-130.2572005766
 20
16.6157660736
 10
-130.2700811326
 20
16.5988340496
  0
LINE
  5
543
100
AcDbEntity
  8
SUPERFICI
100
AcDbLine
 62
7
  6
CONTINUOUS
 10
-129.1923940344
 20
30.4824050494
 11
-129.2275904666
 21
30.2633922942
  0
LINE
  5
544
100
AcDbEntity
  8
SUPERFICI
100
AcDbLine
 62
7
  6
CONTINUOUS
 10
-129.110276758
 20
30.9703129012
 11
-129.2230252198
 21
30.3007220992
  0
LWPOLYLINE
  5
545
100
AcDbEntity
  8
SUPERFICI
100
AcDbPolyline
 62
250
  6
CONTINUOUS
 90
4
 70
0
 10
-129.4180696449
 20
24.3819444517
 10
-129.4799693767
 20
24.0290135486
 10
-129.5400580734
 20
23.6773156891
 10
-129.5984589652
 20
23.3261887012
  0
LWPOLYLINE
  5
546
100
AcDbEntity
  8
SUPERFICI
100
AcDbPolyline
 62
250
  6
CONTINUOUS
 90
5
 70
0
 10
-126.9759271898
 20
39.0137480488
 10
-126.9750589296
 20
39.0185935161
 10
-126.9742973849
 20
39.0219394876
 10
-126.9736110228
 20
39.0248711972
 10
-126.973047333
 20
39.0276715916
  0
LWPOLYLINE
  5
547
100
AcDbEntity
  8
SUPERFICI
100
AcDbPolyline
 62
250
  6
CONTINUOUS
 90
7
 70
0
 10
-129.227931392
 20
26.8524090061
 10
-129.2984969052
 20
26.4631577715
 10
-129.3668942024
 20
26.0759306158
 10
-129.4331322316
 20
25.6906177572
 10
-129.4973715561
 20
25.3063216077
 10
-129.5599001617
 20
24.92139821
 10
-129.6209515542
 20
24.5345205694
  0
LWPOLYLINE
  5
548
100
AcDbEntity
  8
SUPERFICI
100
AcDbPolyline
 62
250
  6
CONTINUOUS
 90
5
 70
0
 10
-126.973047333
 20
39.0276715916
 10
-126.9719322197
 20
39.0338858066
 10
-126.9711419313
 20
39.0379310732
 10
-126.9702443062
 20
39.0422250555
 10
-126.9692448421
 20
39.0465825811
  0
LWPOLYLINE
  5
549
100
AcDbEntity
  8
SUPERFICI
100
AcDbPolyline
 62
250
  6
CONTINUOUS
 90
8
 70
0
 10
-129.1582664268
 20
27.6687727173
 10
-129.2324941876
 20
27.2654263154
 10
-129.30433147
 20
26.864482641
 10
-129.3738936218
 20
26.4651256948
 10
-129.4411913721
 20
26.0672252696
 10
-129.5063996163
 20
25.6697924318
 10
-129.5698304958
 20
25.2710210365
 10
-129.6317381909
 20
24.8694480602
  0
LINE
  5
54A
100
AcDbEntity
  8
SUPERFICI
100
AcDbLine
 62
250
  6
CONTINUOUS
 10
-129.2883708199
 20
25.0940149415
 11
-129.4180696449
 21
24.3819444517
  0
LWPOLYLINE
  5
54B
100
AcDbEntity
  8
SUPERFICI
100
AcDbPolyline
 62
250
  6
CONTINUOUS
 90
3
 70
0
 10
-128.0059938722
 20
33.4191567796
 10
-127.9396161194
 20
33.7777159415
 10
-127.6114196093
 20
35.5998407513
  0
LINE
  5
54C
100
AcDbEntity
  8
SUPERFICI
100
AcDbLine
 62
250
  6
CONTINUOUS
 10
-126.9784041984
 20
38.998642747
 11
-126.9770116225
 21
39.0060928903
  0
LINE
  5
54D
100
AcDbEntity
  8
SUPERFICI
100
AcDbLine
 62
250
  6
CONTINUOUS
 10
-127.6114196093
 20
35.5998407513
 11
-127.4769406473
 21
36.3254540099
  0
LINE
  5
54E
100
AcDbEntity
  8
SUPERFICI
100
AcDbLine
 62
250
  6
CONTINUOUS
 10
-127.4756077828
 20
35.7884173942
 11
-127.938918262
 21
33.2843816171
  0
LINE
  5
54F
100
AcDbEntity
  8
SUPERFICI
100
AcDbLine
 62
250
  6
CONTINUOUS
 10
-127.938918262
 20
33.2843816171
 11
-128.0059938722
 21
32.9316325135
  0
LINE
  5
550
100
AcDbEntity
  8
SUPERFICI
100
AcDbLine
 62
250
  6
CONTINUOUS
 10
-127.3644226765
 20
36.3715419616
 11
-127.4756077828
 21
35.7884173942
  0
LINE
  5
551
100
AcDbEntity
  8
SUPERFICI
100
AcDbLine
 62
250
  6
CONTINUOUS
 10
-129.1499126079
 20
25.8191653718
 11
-129.2883708199
 21
25.0940149415
  0
LINE
  5
552
100
AcDbEntity
  8
SUPERFICI
100
AcDbLine
 62
250
  6
CONTINUOUS
 10
-129.0017323178
 20
26.5625194829
 11
-129.1499126079
 21
25.8191653718
  0
LINE
  5
553
100
AcDbEntity
  8
SUPERFICI
100
AcDbLine
 62
250
  6
CONTINUOUS
 10
-127.4085508048
 20
34.0509258772
 11
-126.9930334268
 21
36.1167124537
  0
LINE
  5
554
100
AcDbEntity
  8
SUPERFICI
100
AcDbLine
 62
250
  6
CONTINUOUS
 10
-127.5398755521
 20
33.4091077536
 11
-127.4085508048
 21
34.0509258772
  0
LINE
  5
555
100
AcDbEntity
  8
SUPERFICI
100
AcDbLine
 62
250
  6
CONTINUOUS
 10
-127.2263478389
 20
29.749583407
 11
-126.9897201003
 21
30.7546322422
  0
LWPOLYLINE
  5
556
100
AcDbEntity
  8
SUPERFICI
100
AcDbPolyline
 62
250
  6
CONTINUOUS
 90
10
 70
0
 10
-129.0017323178
 20
22.7436179843
 10
-129.0820229955
 20
22.4080142823
 10
-129.1600080914
 20
22.0726704789
 10
-129.2355033758
 20
21.7382907875
 10
-129.308303922
 20
21.4056743148
 10
-129.3782413111
 20
21.0754551209
 10
-129.4451755686
 20
20.7481112182
 10
-129.5089217834
 20
20.4243104578
 10
-129.5692581376
 20
20.1049016659
 10
-129.6259774654
 20
19.7906610117
  0
LINE
  5
557
100
AcDbEntity
  8
SUPERFICI
100
AcDbLine
 62
250
  6
CONTINUOUS
 10
-127.4085508048
 20
28.9918400504
 11
-127.2263478389
 21
29.749583407
  0
LINE
  5
558
100
AcDbEntity
  8
SUPERFICI
100
AcDbLine
 62
250
  6
CONTINUOUS
 10
-127.5414461819
 20
28.4482045138
 11
-127.4085508048
 21
28.9918400504
  0
LINE
  5
559
100
AcDbEntity
  8
SUPERFICI
100
AcDbLine
 62
250
  6
CONTINUOUS
 10
-127.227553211
 20
23.798793712
 11
-126.9872522111
 21
24.618002201
  0
LINE
  5
55A
100
AcDbEntity
  8
SUPERFICI
100
AcDbLine
 62
250
  6
CONTINUOUS
 10
-127.3643362879
 20
23.3409982318
 11
-127.227553211
 21
23.798793712
  0
LWPOLYLINE
  5
55B
100
AcDbEntity
  8
SUPERFICI
100
AcDbPolyline
 62
250
  6
CONTINUOUS
 90
10
 70
0
 10
-129.0017323155
 20
18.2463532583
 10
-129.0910263449
 20
17.9530430355
 10
-129.177064168
 20
17.660563933
 10
-129.259377395
 20
17.3706278829
 10
-129.3371718996
 20
17.0861702554
 10
-129.410405144
 20
16.8074363157
 10
-129.4795891624
 20
16.5321939073
 10
-129.5444040851
 20
16.2609877172
 10
-129.6038942952
 20
15.9969293825
 10
-129.6574085217
 20
15.7419315048
  0
LINE
  5
55C
100
AcDbEntity
  8
SUPERFICI
100
AcDbLine
 62
250
  6
CONTINUOUS
 10
-127.543197963
 20
22.7563315726
 11
-127.3643362879
 21
23.3409982318
  0
LWPOLYLINE
  5
55D
100
AcDbEntity
  8
SUPERFICI
100
AcDbPolyline
 62
250
  6
CONTINUOUS
 90
3
 70
0
 10
-127.8073246267
 20
21.9144345593
 10
-127.7415271329
 20
22.1218184748
 10
-127.543197963
 20
22.7563315726
  0
LINE
  5
55E
100
AcDbEntity
  8
SUPERFICI
100
AcDbLine
 62
7
  6
CONTINUOUS
 10
-130.3884814745
 20
-11.9488343537
 11
-129.6760114492
 21
-11.9494069796
  0
LINE
  5
55F
100
AcDbEntity
  8
SUPERFICI
100
AcDbLine
 62
250
  6
CONTINUOUS
 10
-129.6760298582
 20
-11.9488570462
 11
-126.065512947
 21
-11.9487906887
  0
LINE
  5
560
100
AcDbEntity
  8
SUPERFICI
100
AcDbLine
 62
250
  6
CONTINUOUS
 10
-127.8073246267
 20
-21.9144345593
 11
-127.6094053897
 21
-22.5429142373
  0
LINE
  5
561
100
AcDbEntity
  8
SUPERFICI
100
AcDbLine
 62
250
  6
CONTINUOUS
 10
-127.6094053897
 20
-22.5429142373
 11
-127.4085508049
 21
-23.1952075549
  0
LWPOLYLINE
  5
562
100
AcDbEntity
  8
SUPERFICI
100
AcDbPolyline
 62
250
  6
CONTINUOUS
 90
10
 70
0
 10
-129.0017323155
 20
-18.2463532583
 10
-129.0910263449
 20
-17.9530430355
 10
-129.177064168
 20
-17.660563933
 10
-129.259377395
 20
-17.3706278829
 10
-129.3371718996
 20
-17.0861702554
 10
-129.410405144
 20
-16.8074363157
 10
-129.4795891624
 20
-16.5321939073
 10
-129.5444040851
 20
-16.2609877172
 10
-129.6038942952
 20
-15.9969293825
 10
-129.6574085217
 20
-15.7419315048
  0
LINE
  5
563
100
AcDbEntity
  8
SUPERFICI
100
AcDbLine
 62
250
  6
CONTINUOUS
 10
-127.4085508049
 20
-23.1952075549
 11
-127.2737497491
 21
-23.6431996674
  0
LINE
  5
564
100
AcDbEntity
  8
SUPERFICI
100
AcDbLine
 62
250
  6
CONTINUOUS
 10
-127.2737497491
 20
-23.6431996674
 11
-127.0364749311
 21
-24.4493307419
  0
LINE
  5
565
100
AcDbEntity
  8
SUPERFICI
100
AcDbLine
 62
250
  6
CONTINUOUS
 10
-127.0364749311
 20
-24.4493307419
 11
-126.9872522111
 21
-24.618002201
  0
LINE
  5
566
100
AcDbEntity
  8
SUPERFICI
100
AcDbLine
 62
250
  6
CONTINUOUS
 10
-127.3197654089
 20
-29.3595113317
 11
-127.5409818235
 21
-28.4500915033
  0
LINE
  5
567
100
AcDbEntity
  8
SUPERFICI
100
AcDbLine
 62
250
  6
CONTINUOUS
 10
-127.0870342738
 20
-30.3399432161
 11
-127.3197654089
 21
-29.3595113317
  0
LINE
  5
568
100
AcDbEntity
  8
SUPERFICI
100
AcDbLine
 62
250
  6
CONTINUOUS
 10
-126.9897203694
 20
-30.7554556826
 11
-127.0870342738
 21
-30.3399432161
  0
LINE
  5
569
100
AcDbEntity
  8
SUPERFICI
100
AcDbLine
 62
250
  6
CONTINUOUS
 10
-126.9920250655
 20
-36.1156530038
 11
-127.53988341
 21
-33.409069526
  0
LINE
  5
56A
100
AcDbEntity
  8
SUPERFICI
100
AcDbLine
 62
250
  6
CONTINUOUS
 10
-129.1492788946
 20
-25.8224115639
 11
-129.0017323178
 21
-26.5625194829
  0
LINE
  5
56B
100
AcDbEntity
  8
SUPERFICI
100
AcDbLine
 62
250
  6
CONTINUOUS
 10
-127.3644226765
 20
-36.3715419616
 11
-127.4756077828
 21
-35.7884173942
  0
LWPOLYLINE
  5
56C
100
AcDbEntity
  8
SUPERFICI
100
AcDbPolyline
 62
250
  6
CONTINUOUS
 90
7
 70
0
 10
-126.976598756
 20
-39.0084789961
 10
-126.9764270302
 20
-39.0093859823
 10
-126.9763137538
 20
-39.0100168367
 10
-126.9762485744
 20
-39.010424068
 10
-126.9762200969
 20
-39.0106650144
 10
-126.9762145435
 20
-39.0108083504
 10
-126.9762165425
 20
-39.0109302943
  0
LINE
  5
56D
100
AcDbEntity
  8
SUPERFICI
100
AcDbLine
 62
250
  6
CONTINUOUS
 10
-129.2873703521
 20
-25.0993761636
 11
-129.1492788946
 21
-25.8224115639
  0
LINE
  5
56E
100
AcDbEntity
  8
SUPERFICI
100
AcDbLine
 62
250
  6
CONTINUOUS
 10
-127.872116516
 20
-33.6416877196
 11
-128.0059938722
 21
-32.9316325135
  0
LWPOLYLINE
  5
56F
100
AcDbEntity
  8
SUPERFICI
100
AcDbPolyline
 62
250
  6
CONTINUOUS
 90
8
 70
0
 10
-129.0797420982
 20
-27.6406171613
 10
-129.227931392
 20
-26.8524090061
 10
-129.2984969052
 20
-26.4631577715
 10
-129.3668942024
 20
-26.0759306158
 10
-129.4331322316
 20
-25.6906177572
 10
-129.4973715561
 20
-25.3063216077
 10
-129.5599001617
 20
-24.92139821
 10
-129.6209515542
 20
-24.5345205694
  0
LINE
  5
570
100
AcDbEntity
  8
SUPERFICI
100
AcDbLine
 62
250
  6
CONTINUOUS
 10
-126.9780457809
 20
-39.0008182143
 11
-126.9771553657
 21
-39.0056415628
  0
LINE
  5
571
100
AcDbEntity
  8
SUPERFICI
100
AcDbLine
 62
250
  6
CONTINUOUS
 10
-127.6114196093
 20
-35.5998407513
 11
-127.4769406473
 21
-36.3254540099
  0
LINE
  5
572
100
AcDbEntity
  8
SUPERFICI
100
AcDbLine
 62
250
  6
CONTINUOUS
 10
-127.4756077828
 20
-35.7884173942
 11
-127.872116516
 21
-33.6416877196
  0
LINE
  5
573
100
AcDbEntity
  8
SUPERFICI
100
AcDbLine
 62
250
  6
CONTINUOUS
 10
-128.0059938722
 20
-33.4191567796
 11
-127.8734293267
 21
-34.1421644402
  0
LWPOLYLINE
  5
574
100
AcDbEntity
  8
SUPERFICI
100
AcDbPolyline
 62
250
  6
CONTINUOUS
 90
10
 70
0
 10
-129.625977466
 20
-19.7906610082
 10
-129.5692470185
 20
-20.104961845
 10
-129.5089033373
 20
-20.424406062
 10
-129.4451545712
 20
-20.7482158281
 10
-129.3782267401
 20
-21.0755251155
 10
-129.3083025405
 20
-21.4056807296
 10
-129.2355118138
 20
-21.7382528376
 10
-129.160018635
 20
-22.0726244736
 10
-129.0820308771
 20
-22.4079808728
 10
-129.0017323178
 20
-22.7436179843
  0
LWPOLYLINE
  5
575
100
AcDbEntity
  8
SUPERFICI
100
AcDbPolyline
 62
250
  6
CONTINUOUS
 90
6
 70
0
 10
-126.9759271898
 20
-39.0137480488
 10
-126.9750589296
 20
-39.0185935161
 10
-126.9742973849
 20
-39.0219394876
 10
-126.9736110228
 20
-39.0248711972
 10
-126.973047333
 20
-39.0276715916
 10
-126.9719322197
 20
-39.0338858066
  0
LINE
  5
576
100
AcDbEntity
  8
SUPERFICI
100
AcDbLine
 62
250
  6
CONTINUOUS
 10
-127.8734293267
 20
-34.1421644402
 11
-127.6114196093
 21
-35.5998407513
  0
LINE
  5
577
100
AcDbEntity
  8
SUPERFICI
100
AcDbLine
 62
250
  6
CONTINUOUS
 10
-129.169251611
 20
-28.6899835276
 11
-129.248440034
 21
-28.2455278506
  0
LINE
  5
578
100
AcDbEntity
  8
SUPERFICI
100
AcDbLine
 62
250
  6
CONTINUOUS
 10
-129.248440034
 20
-28.2455278506
 11
-129.3249161869
 21
-27.8030061479
  0
LINE
  5
579
100
AcDbEntity
  8
SUPERFICI
100
AcDbLine
 62
250
  6
CONTINUOUS
 10
-129.3249161869
 20
-27.8030061479
 11
-129.3988604117
 21
-27.3612303828
  0
LINE
  5
57A
100
AcDbEntity
  8
SUPERFICI
100
AcDbLine
 62
7
  6
CONTINUOUS
 10
-129.110276758
 20
-30.9703129012
 11
-129.2230252198
 21
-30.3007220992
  0
LWPOLYLINE
  5
57B
100
AcDbEntity
  8
SUPERFICI
100
AcDbPolyline
 62
250
  6
CONTINUOUS
 90
5
 70
0
 10
-129.5984589652
 20
-23.3261887011
 10
-129.5395895182
 20
-23.680094736
 10
-129.4791470531
 20
-24.0337627193
 10
-129.417019743
 20
-24.3878532039
 10
-129.2873703521
 20
-25.0993761636
  0
LWPOLYLINE
  5
57C
100
AcDbEntity
  8
SUPERFICI
100
AcDbPolyline
 62
250
  6
CONTINUOUS
 90
4
 70
0
 10
-129.3988604117
 20
-27.3612303828
 10
-129.4703857753
 20
-26.9194848684
 10
-129.5397201133
 20
-26.4764372964
 10
-129.6071877978
 20
-26.0301575486
  0
LWPOLYLINE
  5
57D
100
AcDbEntity
  8
0
100
AcDbPolyline
 62
250
  6
CONTINUOUS
 90
6
 70
0
 10
-129.3588666519
 20
-28.6787869078
 10
-129.2926562266
 20
-29.096005447
 10
-129.2239328879
 20
-29.5121631168
 10
-129.1526016074
 20
-29.9277161991
 10
-129.0785667991
 20
-30.3431238706
 10
-129.0017323178
 20
-30.7588482108
  0
LINE
  5
57E
100
AcDbEntity
  8
SUPERFICI
100
AcDbLine
 62
7
  6
CONTINUOUS
 10
-129.2311688854
 20
-30.2407708245
 11
-129.1913342866
 21
-30.4889032838
  0
LINE
  5
57F
100
AcDbEntity
  8
SUPERFICI
100
AcDbLine
 62
7
  6
CONTINUOUS
 10
-129.2142913403
 20
-30.347156688
 11
-129.3243122317
 21
-29.6426497646
  0
LINE
  5
580
100
AcDbEntity
  8
0
100
AcDbLine
 62
250
  6
CONTINUOUS
 10
-129.4226586363
 20
-28.2600541048
 11
-129.3588666519
 21
-28.6787869078
  0
LINE
  5
581
100
AcDbEntity
  8
SUPERFICI
100
AcDbLine
 62
250
  6
CONTINUOUS
 10
-129.6071877978
 20
-26.0301575486
 11
-129.6730774569
 21
-25.5789396446
  0
LINE
  5
582
100
AcDbEntity
  8
SUPERFICI
100
AcDbLine
 62
7
  6
CONTINUOUS
 10
-129.3337352114
 20
-29.5622279906
 11
-129.2954810414
 21
-29.8224006827
  0
LINE
  5
583
100
AcDbEntity
  8
SUPERFICI
100
AcDbLine
 62
7
  6
CONTINUOUS
 10
-129.3131037201
 20
-29.7045937713
 11
-129.4180550754
 21
-28.97908675
  0
LINE
  5
584
100
AcDbEntity
  8
0
100
AcDbLine
 62
7
  6
CONTINUOUS
 10
-129.4104593269
 20
-28.3487492733
 11
-129.3478929998
 21
-28.8
  0
LINE
  5
585
100
AcDbEntity
  8
0
100
AcDbLine
 62
7
  6
CONTINUOUS
 10
-129.3607833296
 20
-28.800007
 11
-129.4378793399
 21
-28.2362961167
  0
LINE
  5
586
100
AcDbEntity
  8
SUPERFICI
100
AcDbLine
 62
7
  6
CONTINUOUS
 10
-129.4257059102
 20
-28.8972694902
 11
-129.3904828163
 21
-29.1589972339
  0
LINE
  5
587
100
AcDbEntity
  8
0
100
AcDbLine
 62
7
  6
CONTINUOUS
 10
-129.4805120835
 20
-27.8239048292
 11
-129.4104593269
 21
-28.3487492733
  0
LINE
  5
588
100
AcDbEntity
  8
0
100
AcDbLine
 62
7
  6
CONTINUOUS
 10
-129.4378793399
 20
-28.2362961167
 11
-129.5111152163
 21
-27.678657
  0
LINE
  5
589
100
AcDbEntity
  8
0
100
AcDbLine
 62
7
  6
CONTINUOUS
 10
-129.5084545953
 20
-27.6089026669
 11
-129.4805120835
 21
-27.8239048292
  0
LINE
  5
58A
100
AcDbEntity
  8
SUPERFICI
100
AcDbLine
 62
7
  6
CONTINUOUS
 10
-129.457685998
 20
-28.6512314236
 11
-129.4063753174
 21
-29.0442637201
  0
LINE
  5
58B
100
AcDbEntity
  8
SUPERFICI
100
AcDbLine
 62
7
  6
CONTINUOUS
 10
-129.752370428
 20
-25.7086590015
 11
-129.7279265618
 21
-25.899877
  0
LWPOLYLINE
  5
58C
100
AcDbEntity
  8
0
100
AcDbPolyline
 62
7
  6
CONTINUOUS
 90
3
 70
0
 10
-129.3857470748
 20
-28.800007
 10
-129.453505967
 20
-28.2701797361
 10
-129.4859316684
 20
-28.0090264618
  0
LINE
  5
58D
100
AcDbEntity
  8
0
100
AcDbLine
 62
250
  6
CONTINUOUS
 10
-129.6708757832
 20
-26.4375158798
 11
-129.6640984882
 21
-26.4923026688
  0
LINE
  5
58E
100
AcDbEntity
  8
0
100
AcDbLine
 62
7
  6
CONTINUOUS
 10
-129.4931912875
 20
-28.1276132747
 11
-129.532791636
 21
-27.7973919194
  0
LINE
  5
58F
100
AcDbEntity
  8
0
100
AcDbLine
 62
250
  6
CONTINUOUS
 10
-129.755755915
 20
-25.7264531299
 11
-129.7257187597
 21
-25.9842207793
  0
LINE
  5
590
100
AcDbEntity
  8
0
100
AcDbLine
 62
7
  6
CONTINUOUS
 10
-129.517259423
 20
-27.7504916985
 11
-129.6354544817
 21
-26.73918958
  0
LINE
  5
591
100
AcDbEntity
  8
0
100
AcDbLine
 62
7
  6
CONTINUOUS
 10
-129.6354544817
 20
-26.73918958
 11
-129.6969748316
 21
-26.1920581969
  0
LINE
  5
592
100
AcDbEntity
  8
SUPERFICI
100
AcDbLine
 62
7
  6
CONTINUOUS
 10
-129.6396929436
 20
25.0805666496
 11
-129.6317379701
 21
24.8694495148
  0
LINE
  5
593
100
AcDbEntity
  8
SUPERFICI
100
AcDbLine
 62
7
  6
CONTINUOUS
 10
-130.5804439175
 20
23.5888747891
 11
-130.5804846263
 21
23.5902415142
  0
LINE
  5
594
100
AcDbEntity
  8
SUPERFICI
100
AcDbLine
 62
7
  6
CONTINUOUS
 10
-129.6317381909
 20
24.8694480602
 11
-129.6173778422
 21
24.4084530136
  0
LINE
  5
595
100
AcDbEntity
  8
SUPERFICI
100
AcDbLine
 62
7
  6
CONTINUOUS
 10
-129.6173778422
 20
24.4084530136
 11
-129.6106772324
 21
24.1502462099
  0
LWPOLYLINE
  5
596
100
AcDbEntity
  8
SUPERFICI
100
AcDbPolyline
 62
250
  6
CONTINUOUS
 90
4
 70
0
 10
-126.9816961609
 20
-38.9506335853
 10
-126.9812663282
 20
-38.9687079195
 10
-126.980774713
 20
-38.98239059
 10
-126.9780457809
 20
-39.0008182143
  0
LINE
  5
597
100
AcDbEntity
  8
SUPERFICI
100
AcDbLine
 62
7
  6
CONTINUOUS
 10
-129.6106772324
 20
24.1502462099
 11
-129.6053020871
 21
23.885776989
  0
LINE
  5
598
100
AcDbEntity
  8
SUPERFICI
100
AcDbLine
 62
7
  6
CONTINUOUS
 10
-129.6053020871
 20
23.885776989
 11
-129.6013717706
 21
23.6113948691
  0
LINE
  5
599
100
AcDbEntity
  8
SUPERFICI
100
AcDbLine
 62
7
  6
CONTINUOUS
 10
-130.5804439175
 20
23.5888747885
 11
-130.5803308909
 21
23.5797423058
  0
LINE
  5
59A
100
AcDbEntity
  8
SUPERFICI
100
AcDbLine
 62
7
  6
CONTINUOUS
 10
-129.6013717706
 20
23.6113948691
 11
-129.5973289452
 21
23.2183067448
  0
LINE
  5
59B
100
AcDbEntity
  8
SUPERFICI
100
AcDbLine
 62
7
  6
CONTINUOUS
 10
-129.597828482
 20
-22.4896133746
 11
-129.621528928
 21
-20.3156720508
  0
LINE
  5
59C
100
AcDbEntity
  8
SUPERFICI
100
AcDbLine
 62
7
  6
CONTINUOUS
 10
-129.6314313844
 20
-19.0537869985
 11
-129.652893798
 21
-16.4912943415
  0
LINE
  5
59D
100
AcDbEntity
  8
SUPERFICI
100
AcDbLine
 62
7
  6
CONTINUOUS
 10
-129.652893798
 20
-16.4912943415
 11
-129.6760298582
 21
-11.9488570462
  0
LINE
  5
59E
100
AcDbEntity
  8
SUPERFICI
100
AcDbLine
 62
7
  6
CONTINUOUS
 10
-129.621528928
 20
-20.3156720508
 11
-129.6314313844
 21
-19.0537869985
  0
LINE
  5
59F
100
AcDbEntity
  8
SUPERFICI
100
AcDbLine
 62
7
  6
CONTINUOUS
 10
-129.5965240281
 20
-22.7464328038
 11
-129.597828482
 21
-22.4896133746
  0
LINE
  5
5A0
100
AcDbEntity
  8
SUPERFICI
100
AcDbLine
 62
7
  6
CONTINUOUS
 10
-129.5973289452
 20
23.2183067448
 11
-129.5963949553
 21
22.989483875
  0
LINE
  5
5A1
100
AcDbEntity
  8
SUPERFICI
100
AcDbLine
 62
7
  6
CONTINUOUS
 10
-130.5803308909
 20
23.5797423058
 11
-130.5797225131
 21
-22.2383359431
  0
LINE
  5
5A2
100
AcDbEntity
  8
SUPERFICI
100
AcDbLine
 62
250
  6
CONTINUOUS
 10
-129.6761097968
 20
-11.9488613472
 11
-129.6761097971
 21
11.9488613472
  0
LINE
  5
5A3
100
AcDbEntity
  8
SUPERFICI
100
AcDbLine
 62
7
  6
CONTINUOUS
 10
-129.0017323178
 20
-31.5699796929
 11
-129.001732312
 21
-31.5701056683
  0
LINE
  5
5A4
100
AcDbEntity
  8
SUPERFICI
100
AcDbLine
 62
7
  6
CONTINUOUS
 10
-129.0017323178
 20
31.5699796929
 11
-129.001732312
 21
31.5701056683
  0
LINE
  5
5A5
100
AcDbEntity
  8
SUPERFICI
100
AcDbLine
 62
250
  6
CONTINUOUS
 10
-129.0017323134
 20
-11.9490067819
 11
-129.0017323178
 21
-31.5698789373
  0
LINE
  5
5A6
100
AcDbEntity
  8
SUPERFICI
100
AcDbLine
 62
250
  6
CONTINUOUS
 10
-129.0017323134
 20
11.9490067819
 11
-129.0017323178
 21
31.5698789373
  0
LINE
  5
5A7
100
AcDbEntity
  8
SUPERFICI
100
AcDbLine
 62
7
  6
CONTINUOUS
 10
-128.0059938722
 20
-35.8053105375
 11
-128.0059938722
 21
-35.8060976563
  0
LINE
  5
5A8
100
AcDbEntity
  8
SUPERFICI
100
AcDbLine
 62
7
  6
CONTINUOUS
 10
-128.0059938722
 20
35.8053105375
 11
-128.0059938722
 21
35.8060976563
  0
LINE
  5
5A9
100
AcDbEntity
  8
SUPERFICI
100
AcDbLine
 62
250
  6
CONTINUOUS
 10
-128.0059938723
 20
-11.9488128112
 11
-128.0059938722
 21
-35.8060977243
  0
LINE
  5
5AA
100
AcDbEntity
  8
SUPERFICI
100
AcDbLine
 62
250
  6
CONTINUOUS
 10
-128.0059938723
 20
11.9488128112
 11
-128.0059938722
 21
35.8060977243
  0
LINE
  5
5AB
100
AcDbEntity
  8
SUPERFICI
100
AcDbLine
 62
7
  6
CONTINUOUS
 10
-130.3872053
 20
-24.1686709627
 11
-130.3873212666
 21
23.9083096853
  0
LINE
  5
5AC
100
AcDbEntity
  8
SUPERFICI
100
AcDbLine
 62
7
  6
CONTINUOUS
 10
-130.3873212666
 20
23.9083096853
 11
-130.3872053
 21
24.1686709627
  0
LINE
  5
5AD
100
AcDbEntity
  8
SUPERFICI
100
AcDbLine
 62
7
  6
CONTINUOUS
 10
-129.5963949553
 20
22.989483875
 11
-129.5969895252
 21
22.6198486651
  0
LINE
  5
5AE
100
AcDbEntity
  8
SUPERFICI
100
AcDbLine
 62
7
  6
CONTINUOUS
 10
-130.5787820951
 20
-22.2383359405
 11
-130.5803308909
 21
-23.5797423158
  0
LWPOLYLINE
  5
5AF
100
AcDbEntity
  8
SUPERFICI
100
AcDbPolyline
 62
7
  6
CONTINUOUS
 90
3
 70
0
 10
-129.5973289452
 20
-23.2183067448
 10
-129.59667119
 20
-23.105928724
 10
-129.5965240281
 20
-22.7464328038
  0
LINE
  5
5B0
100
AcDbEntity
  8
SUPERFICI
100
AcDbLine
 62
7
  6
CONTINUOUS
 10
-129.6302955965
 20
19.2263441124
 11
-129.6317650371
 21
19.0008396043
  0
LINE
  5
5B1
100
AcDbEntity
  8
SUPERFICI
100
AcDbLine
 62
7
  6
CONTINUOUS
 10
-129.5969895252
 20
22.6198486651
 11
-129.5990390638
 21
22.3557527915
  0
LINE
  5
5B2
100
AcDbEntity
  8
SUPERFICI
100
AcDbLine
 62
7
  6
CONTINUOUS
 10
-129.6397341528
 20
18.0996790126
 11
-129.6760298582
 21
11.9488570462
  0
LINE
  5
5B3
100
AcDbEntity
  8
SUPERFICI
100
AcDbLine
 62
7
  6
CONTINUOUS
 10
-129.6317650371
 20
19.0008396043
 11
-129.6397341528
 21
18.0996790126
  0
LINE
  5
5B4
100
AcDbEntity
  8
SUPERFICI
100
AcDbLine
 62
7
  6
CONTINUOUS
 10
-129.5990390638
 20
22.3557527915
 11
-129.6302955965
 21
19.2263441124
  0
LINE
  5
5B5
100
AcDbEntity
  8
SUPERFICI
100
AcDbLine
 62
7
  6
CONTINUOUS
 10
-130.5803308908
 20
-23.5797422932
 11
-130.5804439175
 21
-23.5888747894
  0
LINE
  5
5B6
100
AcDbEntity
  8
SUPERFICI
100
AcDbLine
 62
7
  6
CONTINUOUS
 10
-129.6031359594
 20
-23.7503442528
 11
-129.5973289452
 21
-23.2183067448
  0
LINE
  5
5B7
100
AcDbEntity
  8
SUPERFICI
100
AcDbLine
 62
7
  6
CONTINUOUS
 10
-129.60781446
 20
-24.018727792
 11
-129.6031359594
 21
-23.7503442528
  0
LWPOLYLINE
  5
5B8
100
AcDbEntity
  8
SUPERFICI
100
AcDbPolyline
 62
250
  6
CONTINUOUS
 90
5
 70
0
 10
-126.9820924597
 20
38.9111363884
 10
-126.9815354458
 20
38.9404299802
 10
-126.9806793942
 20
38.964992298
 10
-126.9796411351
 20
38.9841493606
 10
-126.9784041984
 20
38.998642747
  0
LINE
  5
5B9
100
AcDbEntity
  8
SUPERFICI
100
AcDbLine
 62
7
  6
CONTINUOUS
 10
-129.6139028822
 20
-24.2803453273
 11
-129.60781446
 21
-24.018727792
  0
LINE
  5
5BA
100
AcDbEntity
  8
SUPERFICI
100
AcDbLine
 62
7
  6
CONTINUOUS
 10
-129.6232411631
 20
-24.610759535
 11
-129.6139028822
 21
-24.2803453273
  0
LINE
  5
5BB
100
AcDbEntity
  8
SUPERFICI
100
AcDbLine
 62
7
  6
CONTINUOUS
 10
-129.6317381909
 20
-24.8694480602
 11
-129.6232411631
 21
-24.610759535
  0
LWPOLYLINE
  5
5BC
100
AcDbEntity
  8
SUPERFICI
100
AcDbPolyline
 62
7
  6
CONTINUOUS
 90
8
 70
0
 10
-129.6730774569
 20
25.5789396446
 10
-129.6675801019
 20
25.5288087107
 10
-129.6623266456
 20
25.4718696786
 10
-129.6573226886
 20
25.408053547
 10
-129.6526105881
 20
25.3373963756
 10
-129.6481528334
 20
25.2596744787
 10
-129.6438495718
 20
25.1742456473
 10
-129.6396929436
 20
25.0805666496
  0
LINE
  5
5BD
100
AcDbEntity
  8
SUPERFICI
100
AcDbLine
 62
250
  6
CONTINUOUS
 10
-126.9823414277
 20
-38.8965916683
 11
-126.9816961609
 21
-38.9506335853
  0
LINE
  5
5BE
100
AcDbEntity
  8
SUPERFICI
100
AcDbLine
 62
250
  6
CONTINUOUS
 10
-126.9931933273
 20
-37.6478664133
 11
-126.9823414277
 21
-38.8965916683
  0
LINE
  5
5BF
100
AcDbEntity
  8
SUPERFICI
100
AcDbLine
 62
250
  6
CONTINUOUS
 10
-126.0622083092
 20
-37.0414701762
 11
-126.0521894578
 21
-39.243758473
  0
LINE
  5
5C0
100
AcDbEntity
  8
SUPERFICI
100
AcDbLine
 62
250
  6
CONTINUOUS
 10
-126.9942819906
 20
-37.3215986993
 11
-126.9931933273
 21
-37.6478664133
  0
LINE
  5
5C1
100
AcDbEntity
  8
SUPERFICI
100
AcDbLine
 62
250
  6
CONTINUOUS
 10
-126.0526028314
 20
39.5914540069
 11
-126.052098038
 21
39.3786294964
  0
LINE
  5
5C2
100
AcDbEntity
  8
SUPERFICI
100
AcDbLine
 62
250
  6
CONTINUOUS
 10
-126.981889198
 20
11.9488428838
 11
-126.9920250655
 21
36.1156530038
  0
LINE
  5
5C3
100
AcDbEntity
  8
SUPERFICI
100
AcDbLine
 62
250
  6
CONTINUOUS
 10
-127.4085508049
 20
-11.9488562179
 11
-127.4085508048
 21
-37.6955873738
  0
LINE
  5
5C4
100
AcDbEntity
  8
SUPERFICI
100
AcDbLine
 62
7
  6
CONTINUOUS
 10
-127.4085508048
 20
-37.6955873738
 11
-127.4085508049
 21
-37.7821678886
  0
LINE
  5
5C5
100
AcDbEntity
  8
SUPERFICI
100
AcDbLine
 62
250
  6
CONTINUOUS
 10
-127.4085508049
 20
11.9488562179
 11
-127.4085508048
 21
37.6955873738
  0
LINE
  5
5C6
100
AcDbEntity
  8
SUPERFICI
100
AcDbLine
 62
7
  6
CONTINUOUS
 10
-127.4085508048
 20
37.6955873738
 11
-127.4085508049
 21
37.7821678886
  0
LINE
  5
5C7
100
AcDbEntity
  8
SUPERFICI
100
AcDbLine
 62
250
  6
CONTINUOUS
 10
-126.0644190175
 20
-37.0414701762
 11
-126.0644190175
 21
37.0414701762
  0
LINE
  5
5C8
100
AcDbEntity
  8
SUPERFICI
100
AcDbLine
 62
250
  6
CONTINUOUS
 10
-126.9834698529
 20
11.9488613472
 11
-126.9848791163
 21
-24.618032395
  0
LINE
  5
5C9
100
AcDbEntity
  8
SUPERFICI
100
AcDbLine
 62
250
  6
CONTINUOUS
 10
-126.9872522111
 20
-24.618002201
 11
-126.9931268475
 21
-36.4356541779
  0
LWPOLYLINE
  5
5CA
100
AcDbEntity
  8
SUPERFICI
100
AcDbPolyline
 62
250
  6
CONTINUOUS
 90
7
 70
0
 10
-126.0521894578
 20
-39.243758473
 10
-126.0522068455
 20
-39.4952756403
 10
-126.0526049624
 20
-39.5916659081
 10
-126.053689039
 20
-39.667365075
 10
-126.055591301
 20
-39.7217770266
 10
-126.0581795227
 20
-39.7545024435
 10
-126.0614537042
 20
-39.7653068871
  0
LINE
  5
5CB
100
AcDbEntity
  8
SUPERFICI
100
AcDbLine
 62
250
  6
CONTINUOUS
 10
-126.9930334268
 20
36.1167124537
 11
-126.9940780387
 21
37.4563650462
  0
LINE
  5
5CC
100
AcDbEntity
  8
SUPERFICI
100
AcDbLine
 62
250
  6
CONTINUOUS
 10
-126.9931268475
 20
-36.4356541779
 11
-126.9942819906
 21
-37.3215986993
  0
LINE
  5
5CD
100
AcDbEntity
  8
SUPERFICI
100
AcDbLine
 62
250
  6
CONTINUOUS
 10
-126.052098038
 20
39.3786294964
 11
-126.0577116765
 21
37.8747527809
  0
LINE
  5
5CE
100
AcDbEntity
  8
SUPERFICI
100
AcDbLine
 62
250
  6
CONTINUOUS
 10
-126.0577116765
 20
37.8747527809
 11
-126.0622083092
 21
37.0414701762
  0
LINE
  5
5CF
100
AcDbEntity
  8
SUPERFICI
100
AcDbLine
 62
250
  6
CONTINUOUS
 10
-126.9940780387
 20
37.4563650462
 11
-126.9907042356
 21
37.9998913695
  0
LINE
  5
5D0
100
AcDbEntity
  8
SUPERFICI
100
AcDbLine
 62
250
  6
CONTINUOUS
 10
-126.9907042356
 20
37.9998913695
 11
-126.9820924597
 21
38.9111363884
  0
LWPOLYLINE
  5
5D1
100
AcDbEntity
  8
SUPERFICI
100
AcDbPolyline
 62
7
  6
CONTINUOUS
 90
9
 70
0
 10
-129.6730774569
 20
-25.5789396446
 10
-129.6675801019
 20
-25.5288087107
 10
-129.6623266456
 20
-25.4718696786
 10
-129.6573226886
 20
-25.408053547
 10
-129.6526105881
 20
-25.3373963756
 10
-129.6481528334
 20
-25.2596744787
 10
-129.6438495718
 20
-25.1742456473
 10
-129.6396929436
 20
-25.0805666496
 10
-129.6317379701
 20
-24.8694495148
  0
LINE
  5
5D2
100
AcDbEntity
  8
0
100
AcDbLine
 62
7
  6
CONTINUOUS
 10
-123.983480898
 20
-3.5
 11
-121.583480898
 21
-3.7099727925
  0
LINE
  5
5D3
100
AcDbEntity
  8
0
100
AcDbLine
 62
7
  6
CONTINUOUS
 10
-123.983480898
 20
-3.5
 11
-123.983480898
 21
3.5
  0
LINE
  5
5D4
100
AcDbEntity
  8
0
100
AcDbLine
 62
7
  6
CONTINUOUS
 10
-121.583480898
 20
-3.7099727925
 11
-121.583480898
 21
-39.9999840706
  0
LINE
  5
5D5
100
AcDbEntity
  8
0
100
AcDbLine
 62
7
  6
CONTINUOUS
 10
-121.583480898
 20
3.7099727925
 11
-121.583480898
 21
39.9999840702
  0
LINE
  5
5D6
100
AcDbEntity
  8
0
100
AcDbLine
 62
7
  6
CONTINUOUS
 10
-121.383480898
 20
39.0068917721
 11
-121.383480898
 21
36.8503373837
  0
LINE
  5
5D7
100
AcDbEntity
  8
RACCORDO
100
AcDbLine
 62
7
  6
CONTINUOUS
 10
-121.383480898
 20
-36.8503373825
 11
-121.383480898
 21
-4.2031338449
  0
LINE
  5
5D8
100
AcDbEntity
  8
0
100
AcDbLine
 62
7
  6
CONTINUOUS
 10
-121.383480898
 20
-36.8503373825
 11
-121.383480898
 21
-39.0068917647
  0
LINE
  5
5D9
100
AcDbEntity
  8
RACCORDO
100
AcDbLine
 62
7
  6
CONTINUOUS
 10
-121.383480898
 20
4.2031338449
 11
-121.383480898
 21
36.8503373837
  0
LWPOLYLINE
  5
5DA
100
AcDbEntity
  8
0
100
AcDbPolyline
 62
7
  6
CONTINUOUS
 90
4
 70
0
 43
0.3500000006
 10
-140.877691864
 20
-2.3571432495
 10
-141.7348298035
 20
-2.3571432495
 10
-142.1633987732
 20
-1.9285708809
 10
-142.1633987732
 20
-1.2857140274
  0
LWPOLYLINE
  5
5DB
100
AcDbEntity
  8
0
100
AcDbPolyline
 62
7
  6
CONTINUOUS
 90
13
 70
0
 43
0.3500000006
 10
-141.3062608337
 20
-0.0000003204
 10
-142.5919768066
 20
-0.0000003204
 10
-143.0205457764
 20
0.2142864304
 10
-143.4491147461
 20
0.642857666
 10
-143.4491147461
 20
0.8571421509
 10
-143.0205457764
 20
1.2857133865
 10
-142.5919768066
 20
1.5000001373
 10
-141.3062608337
 20
1.5000001373
 10
-140.877691864
 20
1.2857133865
 10
-140.4491138306
 20
0.8571421509
 10
-140.4491138306
 20
0.642857666
 10
-140.877691864
 20
0.2142864304
 10
-141.3062608337
 20
-0.0000003204
  0
LINE
  5
5DC
100
AcDbEntity
  8
SUPERFICI
100
AcDbLine
 62
250
  6
CONTINUOUS
 10
-126.9823815077
 20
0.0
 11
-130.5803799647
 21
-0.0
  0
LINE
  5
5DD
100
AcDbEntity
  8
0
100
AcDbLine
 62
7
  6
CONTINUOUS
 10
-121.583480898
 20
3.7099727925
 11
-123.983480898
 21
3.5
  0
LWPOLYLINE
  5
5DE
100
AcDbEntity
  8
SUPERFICI
100
AcDbPolyline
 62
250
  6
CONTINUOUS
 90
5
 70
0
 10
-126.0614537042
 20
39.7653068871
 10
-126.0581780402
 20
39.7544843865
 10
-126.0555889308
 20
39.7217108804
 10
-126.0536863758
 20
39.6672304742
 10
-126.0526028314
 20
39.5914540069
  0
LINE
  5
5DF
100
AcDbEntity
  8
SUPERFICI
100
AcDbLine
 62
7
  6
CONTINUOUS
 10
-129.7513121981
 20
-25.7113062299
 11
-129.7511994885
 21
-25.7111753324
  0
LWPOLYLINE
  5
5E0
100
AcDbEntity
  8
SUPERFICI
100
AcDbPolyline
 62
7
  6
CONTINUOUS
 90
9
 70
0
 10
-129.7027771466
 20
-25.704154286
 10
-129.6987633377
 20
-25.6996694262
 10
-129.6948721549
 20
-25.6921604216
 10
-129.6911004277
 20
-25.6814963227
 10
-129.6874266223
 20
-25.6676156382
 10
-129.6838107412
 20
-25.6505170432
 10
-129.6802255002
 20
-25.6301255403
 10
-129.6766562759
 20
-25.6063018746
 10
-129.6730774568
 20
-25.5789396453
  0
LINE
  5
5E1
100
AcDbEntity
  8
SUPERFICI
100
AcDbLine
 62
7
  6
CONTINUOUS
 10
-130.3884814745
 20
11.9488343537
 11
-129.6760114492
 21
11.9494069796
  0
LINE
  5
5E2
100
AcDbEntity
  8
SUPERFICI
100
AcDbLine
 62
250
  6
CONTINUOUS
 10
-126.065512947
 20
11.9487906887
 11
-129.6760298582
 21
11.9488570462
  0
LINE
  5
5E3
100
AcDbEntity
  8
SUPERFICI
100
AcDbLine
 62
7
  6
CONTINUOUS
 10
-129.7513121981
 20
25.7113062299
 11
-129.7511994889
 21
25.7111753325
  0
LWPOLYLINE
  5
5E4
100
AcDbEntity
  8
SUPERFICI
100
AcDbPolyline
 62
7
  6
CONTINUOUS
 90
5
 70
0
 10
-129.7585634804
 20
-25.7137784747
 10
-129.7620699486
 20
-25.7160354126
 10
-129.7639600187
 20
-25.7180803322
 10
-129.7644942711
 20
-25.7199187775
 10
-129.7644709176
 20
-25.7202001006
  0
LINE
  5
5E5
100
AcDbEntity
  8
SUPERFICI
100
AcDbLine
 62
7
  6
CONTINUOUS
 10
-129.7069220413
 20
-25.7057117297
 11
-129.7027771466
 21
-25.704154286
  0
LINE
  5
5E6
100
AcDbEntity
  8
SUPERFICI
100
AcDbLine
 62
250
  6
CONTINUOUS
 10
-130.1470572549
 20
22.2328660149
 11
-130.388858227
 21
22.235697173
  0
LINE
  5
5E7
100
AcDbEntity
  8
SUPERFICI
100
AcDbLine
 62
7
  6
CONTINUOUS
 10
-130.5797225131
 20
22.2383359431
 11
-130.388858227
 21
22.235697173
  0
LINE
  5
5E8
100
AcDbEntity
  8
SUPERFICI
100
AcDbLine
 62
250
  6
CONTINUOUS
 10
-129.9374019519
 20
22.2290570806
 11
-130.1470572549
 21
22.2328660149
  0
LWPOLYLINE
  5
5E9
100
AcDbEntity
  8
SUPERFICI
100
AcDbPolyline
 62
250
  6
CONTINUOUS
 90
5
 70
0
 10
-129.600643644
 20
22.2182228838
 10
-129.6432403613
 20
22.2202410288
 10
-129.6989242195
 20
22.2224157729
 10
-129.7669514424
 20
22.2246600381
 10
-129.9374019519
 20
22.2290570806
  0
LWPOLYLINE
  5
5EA
100
AcDbEntity
  8
SUPERFICI
100
AcDbPolyline
 62
7
  6
CONTINUOUS
 90
9
 70
0
 10
-129.7523744977
 20
25.7114241224
 10
-129.7533517357
 20
25.7116720807
 10
-129.7542609375
 20
25.7119399713
 10
-129.755107023
 20
25.7122244862
 10
-129.7558948966
 20
25.712522281
 10
-129.7566294627
 20
25.7128299712
 10
-129.7573157095
 20
25.7131441667
 10
-129.7579586934
 20
25.7134614749
 10
-129.7585634804
 20
25.7137784747
  0
LWPOLYLINE
  5
5EB
100
AcDbEntity
  8
SUPERFICI
100
AcDbPolyline
 62
7
  6
CONTINUOUS
 90
10
 70
0
 10
-129.7069220413
 20
25.7057117297
 10
-129.7027771466
 20
25.704154286
 10
-129.6987633377
 20
25.6996694262
 10
-129.6948721549
 20
25.6921604216
 10
-129.6911004277
 20
25.6814963227
 10
-129.6874266223
 20
25.6676156382
 10
-129.6838107412
 20
25.6505170432
 10
-129.6802255002
 20
25.6301255403
 10
-129.6766562759
 20
25.6063018746
 10
-129.6730774568
 20
25.5789396453
  0
LWPOLYLINE
  5
5EC
100
AcDbEntity
  8
0
100
AcDbPolyline
 62
7
  6
CONTINUOUS
 90
10
 70
0
 43
0.3500000006
 10
-126.1951259766
 20
56.7499988708
 10
-126.1236947937
 20
56.6071455688
 10
-126.1236947937
 20
56.535714386
 10
-126.2665571594
 20
56.392861084
 10
-126.3379883423
 20
56.392861084
 10
-126.4094104614
 20
56.4642832031
 10
-126.4094104614
 20
56.535714386
 10
-126.3379883423
 20
56.678567688
 10
-126.2665571594
 20
56.7499988708
 10
-126.1951259766
 20
56.7499988708
  0
LINE
  5
5ED
100
AcDbEntity
  8
SUPERFICI
100
AcDbLine
 62
7
  6
CONTINUOUS
 10
-129.751324358
 20
25.7111993911
 11
-129.7520287475
 21
25.7113501314
  0
LINE
  5
5EE
100
AcDbEntity
  8
0
100
AcDbLine
 62
7
  6
CONTINUOUS
 10
-121.583480898
 20
38.9964139201
 11
-121.383480898
 21
39.0068917721
  0
LINE
  5
5EF
100
AcDbEntity
  8
0
100
AcDbLine
 62
250
  6
CONTINUOUS
 10
-121.383480898
 20
36.8502844574
 11
-121.583480898
 21
36.8502844574
  0
LINE
  5
5F0
100
AcDbEntity
  8
0
100
AcDbLine
 62
250
  6
CONTINUOUS
 10
-126.0644190175
 20
37.0414701762
 11
-121.583480898
 21
37.0414701762
  0
LINE
  5
5F1
100
AcDbEntity
  8
SUPERFICI
100
AcDbLine
 62
250
  6
CONTINUOUS
 10
-126.0645058173
 20
36.1033166539
 11
-126.9928868888
 21
36.1040388741
  0
LINE
  5
5F2
100
AcDbEntity
  8
SUPERFICI
100
AcDbLine
 62
7
  6
CONTINUOUS
 10
-126.2821554304
 20
39.7296030586
 11
-126.2873413911
 21
39.7281465257
  0
LINE
  5
5F3
100
AcDbEntity
  8
SUPERFICI
100
AcDbLine
 62
7
  6
CONTINUOUS
 10
-126.2748463365
 20
39.7316052351
 11
-126.2767137901
 21
39.7310993008
  0
LWPOLYLINE
  5
5F4
100
AcDbEntity
  8
SUPERFICI
100
AcDbPolyline
 62
7
  6
CONTINUOUS
 90
3
 70
0
 10
-126.2488160948
 20
39.738312587
 10
-126.2687516198
 20
39.7332461483
 10
-126.2872435435
 20
39.7281480246
  0
LWPOLYLINE
  5
5F5
100
AcDbEntity
  8
SUPERFICI
100
AcDbPolyline
 62
7
  6
CONTINUOUS
 90
6
 70
0
 10
-126.1270797398
 20
39.7599666538
 10
-126.1542749718
 20
39.7564778509
 10
-126.1800299829
 20
39.7524685926
 10
-126.2043929207
 20
39.748035031
 10
-126.2273478102
 20
39.7432783585
 10
-126.2488160948
 20
39.738312587
  0
LWPOLYLINE
  5
5F6
100
AcDbEntity
  8
SUPERFICI
100
AcDbPolyline
 62
7
  6
CONTINUOUS
 90
3
 70
0
 10
-126.11856791
 20
39.7608894848
 10
-126.122875684
 20
39.7604177165
 10
-126.1250941087
 20
39.7601648416
  0
LINE
  5
5F7
100
AcDbEntity
  8
SUPERFICI
100
AcDbLine
 62
250
  6
CONTINUOUS
 10
-126.11856791
 20
39.7608894848
 11
-126.0937301609
 21
39.7620635322
  0
LINE
  5
5F8
100
AcDbEntity
  8
SUPERFICI
100
AcDbLine
 62
7
  6
CONTINUOUS
 10
-126.1586913083
 20
39.7560207231
 11
-126.0666544631
 21
39.7654921009
  0
LWPOLYLINE
  5
5F9
100
AcDbEntity
  8
SUPERFICI
100
AcDbPolyline
 62
7
  6
CONTINUOUS
 90
3
 70
0
 10
-126.0999831252
 20
39.7627006643
 10
-126.1048494334
 20
39.7622616156
 10
-126.10957298
 20
39.7618115546
  0
LINE
  5
5FA
100
AcDbEntity
  8
SUPERFICI
100
AcDbLine
 62
7
  6
CONTINUOUS
 10
-126.0887612991
 20
39.7635430194
 11
-126.0999831252
 21
39.7627006643
  0
LINE
  5
5FB
100
AcDbEntity
  8
SUPERFICI
100
AcDbLine
 62
7
  6
CONTINUOUS
 10
-126.0843638938
 20
39.7639408558
 11
-126.0897403897
 21
39.7635430695
  0
LWPOLYLINE
  5
5FC
100
AcDbEntity
  8
SUPERFICI
100
AcDbPolyline
 62
7
  6
CONTINUOUS
 90
3
 70
0
 10
-126.0749108068
 20
39.764539465
 10
-126.0826771474
 20
39.7640039311
 10
-126.0949860893
 20
39.7631254906
  0
LINE
  5
5FD
100
AcDbEntity
  8
SUPERFICI
100
AcDbLine
 62
7
  6
CONTINUOUS
 10
-126.0691313708
 20
39.764901497
 11
-126.0740590669
 21
39.7646176744
  0
LWPOLYLINE
  5
5FE
100
AcDbEntity
  8
SUPERFICI
100
AcDbPolyline
 62
7
  6
CONTINUOUS
 90
3
 70
0
 10
-126.0620451001
 20
39.7652966177
 10
-126.0654695035
 20
39.7651109206
 10
-126.0792227817
 20
39.7642925966
  0
LINE
  5
5FF
100
AcDbEntity
  8
0
100
AcDbLine
 62
7
  6
CONTINUOUS
 10
-121.583480898
 20
39.9999840702
 11
-126.0641378793
 21
39.7651627891
  0
LWPOLYLINE
  5
600
100
AcDbEntity
  8
0
100
AcDbPolyline
 62
7
  6
CONTINUOUS
 90
7
 70
0
 43
0.3500000006
 10
-123.6237030945
 20
56.2499987183
 10
-125.1236944885
 20
56.2499987183
 10
-123.6237030945
 20
58.3928526306
 10
-123.6237030945
 20
58.8214306641
 10
-124.0522720642
 20
59.2499996338
 10
-124.6951255188
 20
59.2499996338
 10
-125.1236944885
 20
58.6071461792
  0
ARC
  5
601
100
AcDbEntity
  8
0
100
AcDbCircle
 62
7
  6
CONTINUOUS
 10
-100.1004152256
 20
37.0414701762
 40
2.9585176137
100
AcDbArc
 50
90.0005471842
 51
179.9994525162
  0
ARC
  5
602
100
AcDbEntity
  8
0
100
AcDbCircle
 62
7
  6
CONTINUOUS
 10
100.1004152256
 20
37.0414701762
 40
2.9585176137
100
AcDbArc
 50
0.0005474838
 51
89.9994528158
  0
ARC
  5
603
100
AcDbEntity
  8
0
100
AcDbCircle
 62
7
  6
CONTINUOUS
 10
100.1004152256
 20
-37.0414701762
 40
2.9585176137
100
AcDbArc
 50
270.0005471202
 51
359.9994525162
  0
ARC
  5
604
100
AcDbEntity
  8
0
100
AcDbCircle
 62
7
  6
CONTINUOUS
 10
-100.1004152256
 20
-37.0414701762
 40
2.9585176137
100
AcDbArc
 50
180.0005474838
 51
269.9994528798
  0
ARC
  5
605
100
AcDbEntity
  8
0
100
AcDbCircle
 62
7
  6
CONTINUOUS
 10
78.33733
 20
-26.789265
 40
0.8893898871
100
AcDbArc
 50
292.842868527
 51
89.8819710244
  0
ARC
  5
606
100
AcDbEntity
  8
0
100
AcDbCircle
 62
7
  6
CONTINUOUS
 10
78.256824
 20
-26.789265
 40
0.352865
100
AcDbArc
 50
269.9035464968
 51
90.0
  0
ARC
  5
607
100
AcDbEntity
  8
0
100
AcDbCircle
 62
7
  6
CONTINUOUS
 10
-78.6384437412
 20
-22.2248821058
 40
0.3200618558
100
AcDbArc
 50
179.9997871123
 51
270.0002128828
  0
ARC
  5
608
100
AcDbEntity
  8
0
100
AcDbCircle
 62
7
  6
CONTINUOUS
 10
-78.6384437412
 20
22.2248821058
 40
0.3200618558
100
AcDbArc
 50
89.9997871172
 51
180.0002128877
  0
ARC
  5
609
100
AcDbEntity
  8
0
100
AcDbCircle
 62
7
  6
CONTINUOUS
 10
78.6384437412
 20
22.2248821058
 40
0.3200618558
100
AcDbArc
 50
359.9997871123
 51
90.0002128823
  0
ARC
  5
60A
100
AcDbEntity
  8
0
100
AcDbCircle
 62
7
  6
CONTINUOUS
 10
78.6384437412
 20
-22.2248821058
 40
0.3200618558
100
AcDbArc
 50
269.9997871177
 51
0.0002128877
  0
ARC
  5
60B
100
AcDbEntity
  8
SUPERFICI
100
AcDbCircle
 62
7
  6
CONTINUOUS
 10
-78.379696198
 20
-21.7352021496
 40
51.5848666102
100
AcDbArc
 50
199.5064842679
 51
199.6808543148
  0
ARC
  5
60C
100
AcDbEntity
  8
SUPERFICI
100
AcDbCircle
 62
7
  6
CONTINUOUS
 10
-78.379696198
 20
21.7352021496
 40
51.5848666102
100
AcDbArc
 50
160.3191456852
 51
160.4943033788
  0
ARC
  5
60D
100
AcDbEntity
  8
RACCORDO
100
AcDbCircle
 62
7
  6
CONTINUOUS
 10
-121.683480898
 20
4.2031338449
 40
0.3
100
AcDbArc
 50
289.4930080008
 51
360.0
  0
ARC
  5
60E
100
AcDbEntity
  8
RACCORDO
100
AcDbCircle
 62
7
  6
CONTINUOUS
 10
-121.683480898
 20
-4.2031338449
 40
0.3
100
AcDbArc
 50
0.0
 51
70.5069919992
  0
ENDSEC
  0
SECTION
  2
OBJECTS
  0
DICTIONARY
  5
C
100
AcDbDictionary
280
0
281
1
  3
ACAD_GROUP
350
D
  3
ACAD_MLINESTYLE
350
17
  3
ACAD_LAYOUT
350
1A
  3
ACAD_PLOTSETTINGS
350
19
  3
ACAD_PLOTSTYLENAME
350
E
  0
DICTIONARY
  5
D
102
{ACAD_REACTORS
330
C
102
}
100
AcDbDictionary
280
0
281
1
  0
ACDBDICTIONARYWDFLT
  5
E
102
{ACAD_REACTORS
330
C
102
}
100
AcDbDictionary
281
1
  3
Normal
350
F
100
AcDbDictionaryWithDefault
340
F
  0
DICTIONARY
  5
17
102
{ACAD_REACTORS
330
C
102
}
100
AcDbDictionary
280
0
281
1
  3
Standard
350
18
  0
DICTIONARY
  5
19
102
{ACAD_REACTORS
330
C
102
}
100
AcDbDictionary
281
1
  0
DICTIONARY
  5
1A
102
{ACAD_REACTORS
330
C
102
}
100
AcDbDictionary
281
1
  3
Model
350
60F
  3
Layout1
350
610
  0
ACDBPLACEHOLDER
  5
F
102
{ACAD_REACTORS
330
E
102
}
  0
MLINESTYLE
  5
18
102
{ACAD_REACTORS
330
17
102
}
100
AcDbMlineStyle
  2
STANDARD
 70
0
  3

 62
256
 51
90.0
 52
90.0
 71
2
 49
0.5
 62
256
  6
BYLAYER
 49
-0.5
 62
256
  6
BYLAYER
  0
LAYOUT
  5
60F
102
{ACAD_REACTORS
330
1A
102
}
100
AcDbPlotSettings
  1

  2
none_device
  4
ISO_A4_(297.00_x_210.00_MM)
  6

 40
0.0
 41
0.0
 42
0.0
 43
0.0
 44
297.0
 45
210.0
 46
0.0
 47
0.0
 48
0.0
 49
0.0
140
0.0
141
0.0
142
1.0
143
1.0
 70
1024
 72
1
 73
0
 74
0
  7

 75
0
147
1.0
148
0.0
149
0.0
100
AcDbLayout
  1
Model
 70
0
 71
0
 10
0.0
 20
0.0
 11
297.0
 21
210.0
 12
0.0
 22
0.0
 32
0.0
 14
0.0
 24
0.0
 34
0.0
 15
0.0
 25
0.0
 35
0.0
146
0.0
 13
0.0
 23
0.0
 33
0.0
 16
1.0
 26
0.0
 36
0.0
 17
0.0
 27
1.0
 37
0.0
 76
0
330
21A
345
0
346
0
  0
LAYOUT
  5
610
102
{ACAD_REACTORS
330
1A
102
}
100
AcDbPlotSettings
  1

  2
none_device
  4
ISO_A4_(297.00_x_210.00_MM)
  6

 40
0.0
 41
0.0
 42
0.0
 43
0.0
 44
297.0
 45
210.0
 46
0.0
 47
0.0
 48
0.0
 49
0.0
140
0.0
141
0.0
142
1.0
143
1.0
 70
0
 72
1
 73
0
 74
0
  7

 75
0
147
1.0
148
0.0
149
0.0
100
AcDbLayout
  1
Layout1
 70
0
 71
1
 10
0.0
 20
0.0
 11
297.0
 21
210.0
 12
0.0
 22
0.0
 32
0.0
 14
0.0
 24
0.0
 34
0.0
 15
0.0
 25
0.0
 35
0.0
146
0.0
 13
0.0
 23
0.0
 33
0.0
 16
1.0
 26
0.0
 36
0.0
 17
0.0
 27
1.0
 37
0.0
 76
0
330
21B
345
0
346
0
  0
ENDSEC
  0
EOF
