  0
SECTION
  2
HEADER
  9
$ACADVER
  1
AC1024
  9
$DWGCODEPAGE
  3
ANSI_1252
  9
$EXTMAX
 10
297.0
 20
210.0
 30
0.0
  9
$EXTMIN
 10
0.0
 20
0.0
 30
0.0
  9
$LIMMIN
 10
0.0
 20
0.0
  9
$LIMMAX
 10
297.0
 20
210.0
  9
$VIEWCTR
 10
148.5
 20
105.0
  9
$VIEWSIZE
 40
210.0
  9
$CLAYER
  8
0
  9
$LTSCALE
 40
16.335
  9
$CELTYPE
  6
BYLAYER
  9
$DIMSCALE
 40
1.0
  9
$DIMASZ
 40
3.0
  9
$DIMEXO
 40
0.5
  9
$DIMDLI
 40
11.286
  9
$DIMEXE
 40
1.5
  9
$DIMCEN
 40
2.673
  9
$DIMLFAC
 40
1.0
  9
$DIMBLK
  1
_FILLED
  9
$DIMALT
 70
0
  9
$DIMALTF
 40
0.0393700787
  9
$DIMTXT
 40
3.0
  9
$DIMTOL
 70
1
  9
$DIMLIM
 70
0
  9
$DIMTFAC
 40
1.0
  9
$DIMTP
 40
0.01
  9
$DIMTM
 40
0.01
  9
$DIMGAP
 40
0.625
  9
$DIMDSEP
 70
44
  9
$AUNITS
 70
0
  9
$PDMODE
 70
3
  9
$PDSIZE
 40
3.0
  9
$HANDSEED
  5
4E7
  9
$TILEMODE
 70
1
  9
$MEASUREMENT
 70
1
  9
$INSUNITS
 70
4
  0
ENDSEC
  0
SECTION
  2
CLASSES
  0
CLASS
  1
ACDBDICTIONARYWDFLT
  2
AcDbDictionaryWithDefault
  3
AutoCAD 2000
 90
0
 91
1
280
0
281
0
  0
CLASS
  1
ACDBPLACEHOLDER
  2
AcDbPlaceHolder
  3
AutoCAD 2000
 90
0
 91
1
280
0
281
0
  0
CLASS
  1
LAYOUT
  2
AcDbLayout
  3
AutoCAD 2000
 90
0
 91
0
280
0
281
0
  0
ENDSEC
  0
SECTION
  2
TABLES
  0
TABLE
  2
VPORT
  5
8
100
AcDbSymbolTable
 70
2
  0
VPORT
  5
1F4
100
AcDbSymbolTableRecord
100
AcDbViewportTableRecord
  2
*ACTIVE
 70
0
 10
0.0
 20
0.0
 11
1.0
 21
1.0
 12
148.5
 22
105.0
 13
0.0
 23
0.0
 14
1.0
 24
1.0
 15
0.0
 25
0.0
 16
0.0
 26
0.0
 36
1.0
 17
0.0
 27
0.0
 37
0.0
 40
210.0
 41
1.4142857143
 42
50.0
 43
0.0
 44
0.0
 50
0.0
 51
0.0
 71
0
 72
100
 73
1
 74
1
 75
0
 76
0
 77
0
 78
0
  0
ENDTAB
  0
TABLE
  2
LTYPE
  5
5
100
AcDbSymbolTable
 70
6
  0
LTYPE
  5
14
100
AcDbSymbolTableRecord
100
AcDbLinetypeTableRecord
  2
BYBLOCK
 70
0
  3

 72
65
 73
0
 40
0.0
  0
LTYPE
  5
15
100
AcDbSymbolTableRecord
100
AcDbLinetypeTableRecord
  2
BYLAYER
 70
0
  3

 72
65
 73
0
 40
0.0
  0
LTYPE
  5
16
100
AcDbSymbolTableRecord
100
AcDbLinetypeTableRecord
  2
CONTINUOUS
 70
64
  3
Solid line
 72
65
 73
0
 40
0.0
  0
LTYPE
  5
1F5
100
AcDbSymbolTableRecord
100
AcDbLinetypeTableRecord
  2
CENTER
 70
64
  3
____ _ ____ _ ____ _ ____ _ ____ _ ____ _ ____
 72
65
 73
4
 40
0.6
 49
0.375
 74
0
 49
-0.075
 74
0
 49
0.075
 74
0
 49
-0.075
 74
0
  0
LTYPE
  5
1F6
100
AcDbSymbolTableRecord
100
AcDbLinetypeTableRecord
  2
HIDDEN
 70
64
  3
- - - - - - - - - - - - - - - - - - - -
 72
65
 73
2
 40
0.2
 49
0.1
 74
0
 49
-0.1
 74
0
  0
LTYPE
  5
1F7
100
AcDbSymbolTableRecord
100
AcDbLinetypeTableRecord
  2
PHANTOM
 70
64
  3
_____ _ _ _____ _ _ _____ _ _ _____
 72
65
 73
6
 40
0.8
 49
0.45
 74
0
 49
-0.05
 74
0
 49
0.1
 74
0
 49
-0.05
 74
0
 49
0.1
 74
0
 49
-0.05
 74
0
  0
LTYPE
  5
1F8
100
AcDbSymbolTableRecord
100
AcDbLinetypeTableRecord
  2
DOT
 70
64
  3
. . . . . . . . . . . . . . . . . . . .
 72
65
 73
2
 40
0.2
 49
0.1
 74
0
 49
-0.1
 74
0
  0
LTYPE
  5
1F9
100
AcDbSymbolTableRecord
100
AcDbLinetypeTableRecord
  2
DASHED
 70
64
  3
- - - - - - - - - - - - - - - - - - - -
 72
65
 73
2
 40
0.2
 49
0.1
 74
0
 49
-0.1
 74
0
  0
ENDTAB
  0
TABLE
  2
LAYER
  5
2
100
AcDbSymbolTable
 70
36
  0
LAYER
  5
10
100
AcDbSymbolTableRecord
100
AcDbLayerTableRecord
  2
0
 70
0
 62
7
  6
CONTINUOUS
370
-3
390
F
  0
LAYER
  5
1FA
100
AcDbSymbolTableRecord
100
AcDbLayerTableRecord
  2
DEFAULT_1
 70
0
 62
7
  6
CENTER
370
-3
390
F
  0
LAYER
  5
1FB
100
AcDbSymbolTableRecord
100
AcDbLayerTableRecord
  2
DEFAULT_2
 70
0
 62
7
  6
HIDDEN
370
-3
390
F
  0
LAYER
  5
1FC
100
AcDbSymbolTableRecord
100
AcDbLayerTableRecord
  2
DEFAULT_3
 70
0
 62
7
  6
PHANTOM
370
-3
390
F
  0
LAYER
  5
1FD
100
AcDbSymbolTableRecord
100
AcDbLayerTableRecord
  2
ASSI
 70
0
 62
7
  6
CONTINUOUS
370
-3
390
F
  0
LAYER
  5
1FE
100
AcDbSymbolTableRecord
100
AcDbLayerTableRecord
  2
COORDINATE
 70
0
 62
7
  6
CONTINUOUS
370
-3
390
F
  0
LAYER
  5
1FF
100
AcDbSymbolTableRecord
100
AcDbLayerTableRecord
  2
COORD_ORIGINE
 70
0
 62
7
  6
CONTINUOUS
370
-3
390
F
  0
LAYER
  5
200
100
AcDbSymbolTableRecord
100
AcDbLayerTableRecord
  2
CURVE
 70
0
 62
7
  6
CONTINUOUS
370
-3
390
F
  0
LAYER
  5
201
100
AcDbSymbolTableRecord
100
AcDbLayerTableRecord
  2
DRAFT
 70
0
 62
7
  6
CONTINUOUS
370
-3
390
F
  0
LAYER
  5
202
100
AcDbSymbolTableRecord
100
AcDbLayerTableRecord
  2
IGES-SCRITTE
 70
0
 62
7
  6
CONTINUOUS
370
-3
390
F
  0
LAYER
  5
203
100
AcDbSymbolTableRecord
100
AcDbLayerTableRecord
  2
INTF_1
 70
0
 62
7
  6
CONTINUOUS
370
-3
390
F
  0
LAYER
  5
204
100
AcDbSymbolTableRecord
100
AcDbLayerTableRecord
  2
INTF_7
 70
0
 62
7
  6
CONTINUOUS
370
-3
390
F
  0
LAYER
  5
205
100
AcDbSymbolTableRecord
100
AcDbLayerTableRecord
  2
PIANI
 70
0
 62
7
  6
CONTINUOUS
370
-3
390
F
  0
LAYER
  5
206
100
AcDbSymbolTableRecord
100
AcDbLayerTableRecord
  2
PIANI_ORIGINE
 70
0
 62
7
  6
CONTINUOUS
370
-3
390
F
  0
LAYER
  5
207
100
AcDbSymbolTableRecord
100
AcDbLayerTableRecord
  2
PPP
 70
0
 62
7
  6
CONTINUOUS
370
-3
390
F
  0
LAYER
  5
208
100
AcDbSymbolTableRecord
100
AcDbLayerTableRecord
  2
PUNTI
 70
0
 62
7
  6
CONTINUOUS
370
-3
390
F
  0
LAYER
  5
209
100
AcDbSymbolTableRecord
100
AcDbLayerTableRecord
  2
RACCORDO
 70
0
 62
7
  6
CONTINUOUS
370
-3
390
F
  0
LAYER
  5
20A
100
AcDbSymbolTableRecord
100
AcDbLayerTableRecord
  2
RGB__255__255__255__
 70
0
 62
7
  6
CONTINUOUS
370
-3
390
F
  0
LAYER
  5
20B
100
AcDbSymbolTableRecord
100
AcDbLayerTableRecord
  2
RGB____0____0____0__
 70
0
 62
7
  6
CONTINUOUS
370
-3
390
F
  0
LAYER
  5
20C
100
AcDbSymbolTableRecord
100
AcDbLayerTableRecord
  2
SNAPLINE
 70
0
 62
7
  6
CONTINUOUS
370
-3
390
F
  0
LAYER
  5
20D
100
AcDbSymbolTableRecord
100
AcDbLayerTableRecord
  2
SOLIDO
 70
0
 62
7
  6
CONTINUOUS
370
-3
390
F
  0
LAYER
  5
20E
100
AcDbSymbolTableRecord
100
AcDbLayerTableRecord
  2
SUPERFICI
 70
0
 62
7
  6
CONTINUOUS
370
-3
390
F
  0
LAYER
  5
20F
100
AcDbSymbolTableRecord
100
AcDbLayerTableRecord
  2
TRASH
 70
0
 62
7
  6
CONTINUOUS
370
-3
390
F
  0
ENDTAB
  0
TABLE
  2
STYLE
  5
3
100
AcDbSymbolTable
 70
1
  0
STYLE
  5
11
100
AcDbSymbolTableRecord
100
AcDbTextStyleTableRecord
  2
STANDARD
 70
0
 40
0.0
 41
0.8
 50
0.0
 71
0
 42
0.2
  3
txt
  4

  0
STYLE
  5
210
100
AcDbSymbolTableRecord
100
AcDbTextStyleTableRecord
  2
TEXTSTYLE_1
 70
0
 40
0.0
 41
0.8
 50
0.0
 71
0
 42
0.2
  3
gdt
  4

  0
ENDTAB
  0
TABLE
  2
VIEW
  5
6
100
AcDbSymbolTable
 70
0
  0
ENDTAB
  0
TABLE
  2
UCS
  5
7
100
AcDbSymbolTable
 70
0
  0
ENDTAB
  0
TABLE
  2
APPID
  5
9
100
AcDbSymbolTable
 70
1
  0
APPID
  5
211
100
AcDbSymbolTableRecord
100
AcDbRegAppTableRecord
  2
ACAD
 70
0
  0
ENDTAB
  0
TABLE
  2
BLOCK_RECORD
  5
1
100
AcDbSymbolTable
 70
0
  0
BLOCK_RECORD
  5
212
100
AcDbSymbolTableRecord
100
AcDbBlockTableRecord
  2
*Model_Space
  0
BLOCK_RECORD
  5
213
100
AcDbSymbolTableRecord
100
AcDbBlockTableRecord
  2
*Paper_Space
  0
BLOCK_RECORD
  5
214
100
AcDbSymbolTableRecord
100
AcDbBlockTableRecord
  2
_FILLED
  0
BLOCK_RECORD
  5
215
100
AcDbSymbolTableRecord
100
AcDbBlockTableRecord
  2
*D0
  0
BLOCK_RECORD
  5
216
100
AcDbSymbolTableRecord
100
AcDbBlockTableRecord
  2
*D1
  0
BLOCK_RECORD
  5
217
100
AcDbSymbolTableRecord
100
AcDbBlockTableRecord
  2
*D2
  0
ENDTAB
  0
TABLE
  2
DIMSTYLE
  5
A
100
AcDbSymbolTable
 70
1
100
AcDbDimStyleTable
 71
0
  0
DIMSTYLE
105
218
100
AcDbSymbolTableRecord
100
AcDbDimStyleTableRecord
  2
STANDARD
 70
0
  3

  4

 40
1.0
 41
3.0
 42
0.5
 43
0.38
 44
1.5
 45
0.0
 46
0.0
 47
0.01
 48
0.01
140
3.0
141
0.09
142
0.0
143
25.4
144
1.0
145
0.0
146
1.0
147
0.625
 71
1
 72
0
 73
0
 74
0
 75
0
 76
0
 77
1
 78
8
 79
2
170
0
171
1
172
0
173
0
174
0
175
0
176
0
177
0
178
0
270
2
179
2
271
2
272
2
273
2
274
2
275
0
280
0
281
0
282
0
283
1
284
8
285
0
286
0
287
3
288
0
340
11
278
44
341
214
342
214
343
214
344
214
  0
DIMSTYLE
105
219
100
AcDbSymbolTableRecord
100
AcDbDimStyleTableRecord
  2
DIMSTYLE_1
 70
0
  3

  4

 40
1.0
 41
3.0
 42
0.5
 43
0.38
 44
1.5
 45
0.0
 46
0.0
 47
0.0
 48
0.0
140
3.0
141
0.09
142
0.0
143
25.4
144
1.0
145
0.0
146
1.0
147
0.75
 71
0
 72
0
 73
0
 74
0
 75
0
 76
0
 77
1
 78
8
 79
2
170
0
171
1
172
0
173
0
174
0
175
0
176
0
177
0
178
0
270
2
179
2
271
2
272
2
273
2
274
2
275
0
280
0
281
0
282
0
283
1
284
8
285
0
286
0
287
3
288
0
340
11
278
44
341
214
342
214
343
214
344
214
  0
DIMSTYLE
105
21A
100
AcDbSymbolTableRecord
100
AcDbDimStyleTableRecord
  2
DIMSTYLE_2
 70
0
  3

  4

 40
1.0
 41
3.0
 42
0.5
 43
0.38
 44
1.5
 45
0.0
 46
0.0
 47
0.0
 48
0.0
140
3.0
141
0.09
142
0.0
143
25.4
144
1.0
145
0.0
146
1.0
147
0.75
 71
0
 72
0
 73
0
 74
0
 75
0
 76
0
 77
1
 78
8
 79
2
170
0
171
1
172
0
173
0
174
0
175
0
176
0
177
0
178
0
270
2
179
2
271
0
272
0
273
2
274
2
275
0
280
0
281
0
282
0
283
1
284
8
285
0
286
0
287
3
288
0
340
11
278
44
341
214
342
214
343
214
344
214
  0
ENDTAB
  0
ENDSEC
  0
SECTION
  2
BLOCKS
  0
BLOCK
  5
20
100
AcDbEntity
  8
0
100
AcDbBlockBegin
  2
*Model_Space
 70
0
 10
0.0
 20
0.0
 30
0.0
  3
*Model_Space
  1

  0
ENDBLK
  5
21
100
AcDbEntity
  8
0
100
AcDbBlockEnd
  0
BLOCK
  5
1C
100
AcDbEntity
  8
0
100
AcDbBlockBegin
  2
*Paper_Space
 70
0
 10
0.0
 20
0.0
 30
0.0
  3
*Paper_Space
  1

  0
ENDBLK
  5
1D
100
AcDbEntity
  8
0
100
AcDbBlockEnd
  0
BLOCK
  5
21B
100
AcDbEntity
  8
0
100
AcDbBlockBegin
  2
_FILLED
 70
64
 10
0.0
 20
0.0
  3
_FILLED
  1

  0
SOLID
  5
21C
100
AcDbEntity
  8
0
  6
BYBLOCK
 62
0
100
AcDbTrace
 10
0.0
 20
0.0
 11
-1.0
 21
0.3166666667
 12
-1.0
 22
-0.3166666667
 13
-1.0
 23
-0.3166666667
  0
ENDBLK
  5
21D
100
AcDbEntity
  8
0
  6
BYBLOCK
 62
0
100
AcDbBlockEnd
  0
BLOCK
  5
21E
100
AcDbEntity
  8
0
100
AcDbBlockBegin
 62
7
  6
CONTINUOUS
  2
*D0
 70
65
 10
0.0
 20
0.0
  3
*D0
  1

  0
LINE
  5
21F
100
AcDbEntity
  8
0
100
AcDbLine
 62
7
  6
CONTINUOUS
 10
-103.0
 20
37.5
 11
-103.0
 21
49.5
  0
LINE
  5
220
100
AcDbEntity
  8
0
100
AcDbLine
 62
7
  6
CONTINUOUS
 10
103.0
 20
37.5
 11
103.0
 21
49.5
  0
LINE
  5
221
100
AcDbEntity
  8
0
100
AcDbLine
 62
7
  6
CONTINUOUS
 10
-103.0
 20
48.0
 11
0.0
 21
48.0
  0
LINE
  5
222
100
AcDbEntity
  8
0
100
AcDbLine
 62
7
  6
CONTINUOUS
 10
103.0
 20
48.0
 11
0.0
 21
48.0
  0
INSERT
  5
223
100
AcDbEntity
  8
0
100
AcDbBlockReference
 62
7
  6
CONTINUOUS
  2
_FILLED
 10
-103.0
 20
48.0
 41
3.0
 42
3.0
 43
3.0
 50
180.0
  0
INSERT
  5
224
100
AcDbEntity
  8
0
100
AcDbBlockReference
 62
7
  6
CONTINUOUS
  2
_FILLED
 10
103.0
 20
48.0
 41
3.0
 42
3.0
 43
3.0
  0
ENDBLK
  5
225
100
AcDbEntity
  8
0
  6
BYBLOCK
 62
0
100
AcDbBlockEnd
  0
BLOCK
  5
226
100
AcDbEntity
  8
0
100
AcDbBlockBegin
 62
7
  6
CONTINUOUS
  2
*D1
 70
65
 10
0.0
 20
0.0
  3
*D1
  1

  0
LINE
  5
227
100
AcDbEntity
  8
0
100
AcDbLine
 62
7
  6
CONTINUOUS
 10
-130.7524595431
 20
23.9999920653
 11
-130.7524595431
 21
49.5
  0
LINE
  5
228
100
AcDbEntity
  8
0
100
AcDbLine
 62
7
  6
CONTINUOUS
 10
-121.7087478087
 20
40.5
 11
-121.7087478087
 21
49.5
  0
LINE
  5
229
100
AcDbEntity
  8
0
100
AcDbLine
 62
7
  6
CONTINUOUS
 10
-130.7524595431
 20
48.0
 11
-134.7524595431
 21
48.0
  0
LINE
  5
22A
100
AcDbEntity
  8
0
100
AcDbLine
 62
7
  6
CONTINUOUS
 10
-134.7524595431
 20
48.0
 11
-126.2306036759
 21
48.0
  0
LINE
  5
22B
100
AcDbEntity
  8
0
100
AcDbLine
 62
7
  6
CONTINUOUS
 10
-121.7087478087
 20
48.0
 11
-117.7087478087
 21
48.0
  0
LINE
  5
22C
100
AcDbEntity
  8
0
100
AcDbLine
 62
7
  6
CONTINUOUS
 10
-117.7087478087
 20
48.0
 11
-126.2306036759
 21
48.0
  0
INSERT
  5
22D
100
AcDbEntity
  8
0
100
AcDbBlockReference
 62
7
  6
CONTINUOUS
  2
_FILLED
 10
-130.7524595431
 20
48.0
 41
3.0
 42
3.0
 43
3.0
  0
INSERT
  5
22E
100
AcDbEntity
  8
0
100
AcDbBlockReference
 62
7
  6
CONTINUOUS
  2
_FILLED
 10
-121.7087478087
 20
48.0
 41
3.0
 42
3.0
 43
3.0
 50
180.0
  0
ENDBLK
  5
22F
100
AcDbEntity
  8
0
  6
BYBLOCK
 62
0
100
AcDbBlockEnd
  0
BLOCK
  5
230
100
AcDbEntity
  8
0
100
AcDbBlockBegin
 62
7
  6
CONTINUOUS
  2
*D2
 70
65
 10
0.0
 20
0.0
  3
*D2
  1

  0
LINE
  5
231
100
AcDbEntity
  8
0
100
AcDbLine
 62
7
  6
CONTINUOUS
 10
-122.2087478087
 20
-40.0
 11
-140.2524595661
 21
-40.0
  0
LINE
  5
232
100
AcDbEntity
  8
0
100
AcDbLine
 62
7
  6
CONTINUOUS
 10
-122.2087478087
 20
40.0
 11
-140.2524595661
 21
40.0
  0
LINE
  5
233
100
AcDbEntity
  8
0
100
AcDbLine
 62
7
  6
CONTINUOUS
 10
-138.7524595661
 20
-40.0
 11
-138.7524595661
 21
0.0
  0
LINE
  5
234
100
AcDbEntity
  8
0
100
AcDbLine
 62
7
  6
CONTINUOUS
 10
-138.7524595661
 20
40.0
 11
-138.7524595661
 21
0.0
  0
INSERT
  5
235
100
AcDbEntity
  8
0
100
AcDbBlockReference
 62
7
  6
CONTINUOUS
  2
_FILLED
 10
-138.7524595661
 20
-40.0
 41
3.0
 42
3.0
 43
3.0
 50
270.0
  0
INSERT
  5
236
100
AcDbEntity
  8
0
100
AcDbBlockReference
 62
7
  6
CONTINUOUS
  2
_FILLED
 10
-138.7524595661
 20
40.0
 41
3.0
 42
3.0
 43
3.0
 50
90.0
  0
ENDBLK
  5
237
100
AcDbEntity
  8
0
  6
BYBLOCK
 62
0
100
AcDbBlockEnd
  0
ENDSEC
  0
SECTION
  2
ENTITIES
  0
DIMENSION
  5
238
100
AcDbEntity
  8
0
100
AcDbDimension
 62
7
  6
CONTINUOUS
  2
*D0
 10
103.0
 20
48.0
 11
-3.5357142857
 21
48.0
 70
160
 71
2
 72
2
 41
0.9
 42
206.0000000001
  3
DIMSTYLE_1
100
AcDbAlignedDimension
 13
-103.0
 23
37.0
 14
103.0
 24
37.0
100
AcDbRotatedDimension
  0
DIMENSION
  5
239
100
AcDbEntity
  8
0
100
AcDbDimension
 62
7
  6
CONTINUOUS
  2
*D1
 10
-121.7087478087
 20
48.0
 11
-127.4091751045
 21
48.0
 70
160
 71
2
 72
2
 41
0.9
 42
9.0437117344
  3
DIMSTYLE_2
100
AcDbAlignedDimension
 13
-130.7524595431
 23
23.4999920653
 14
-121.7087478087
 24
40.0
100
AcDbRotatedDimension
  0
DIMENSION
  5
23A
100
AcDbEntity
  8
0
100
AcDbDimension
 62
7
  6
CONTINUOUS
  2
*D2
 10
-138.7524595661
 20
40.0
 11
-138.7524595661
 21
-2.3571428571
 70
160
 71
2
 72
2
 41
0.9
 42
80.0
  3
DIMSTYLE_1
100
AcDbAlignedDimension
 13
-121.7087478087
 23
-40.0
 14
-121.7087478087
 24
40.0
 50
90.0
100
AcDbRotatedDimension
  0
LWPOLYLINE
  5
23B
100
AcDbEntity
  8
RACCORDO
100
AcDbPolyline
 62
250
  6
CONTINUOUS
 90
25
 70
0
 10
-101.8704772526
 20
-37.0350789699
 10
-101.8637171272
 20
-37.1533690474
 10
-101.8493641045
 20
-37.2712589383
 10
-101.8274583367
 20
-37.3881818463
 10
-101.7981015557
 20
-37.5036532687
 10
-101.7614205425
 20
-37.6171924322
 10
-101.7175565442
 20
-37.7283014241
 10
-101.6666879868
 20
-37.8365293093
 10
-101.6090285017
 20
-37.9414187759
 10
-101.5448194449
 20
-38.0424770859
 10
-101.474335927
 20
-38.1392648918
 10
-101.3978694646
 20
-38.2314204304
 10
-101.3157075177
 20
-38.3185813214
 10
-101.2281703089
 20
-38.4003823824
 10
-101.1356281465
 20
-38.47649952
 10
-101.0384404163
 20
-38.5466282086
 10
-100.9369569306
 20
-38.6104801491
 10
-100.8316318152
 20
-38.6677832622
 10
-100.7229884859
 20
-38.7182699954
 10
-100.6115003967
 20
-38.7617197845
 10
-100.4976002939
 20
-38.797985969
 10
-100.38175996
 20
-38.8269403395
 10
-100.2644469903
 20
-38.8484585262
 10
-100.1461710356
 20
-38.8624596475
 10
-100.0275004315
 20
-38.8689146623
  0
LINE
  5
23C
100
AcDbEntity
  8
RACCORDO
100
AcDbLine
 62
250
  6
CONTINUOUS
 10
-101.9027994769
 20
-36.1398997899
 11
-101.8959011161
 21
-36.2743812492
  0
LINE
  5
23D
100
AcDbEntity
  8
RACCORDO
100
AcDbLine
 62
250
  6
CONTINUOUS
 10
-101.8959011161
 20
-36.2743812492
 11
-101.8922231891
 21
-36.3576773507
  0
LINE
  5
23E
100
AcDbEntity
  8
RACCORDO
100
AcDbLine
 62
250
  6
CONTINUOUS
 10
-101.8922231891
 20
-36.3576773507
 11
-101.8863033376
 21
-36.5087365004
  0
LINE
  5
23F
100
AcDbEntity
  8
RACCORDO
100
AcDbLine
 62
250
  6
CONTINUOUS
 10
-101.8863033376
 20
-36.5087365004
 11
-101.8802939597
 21
-36.6848328203
  0
LWPOLYLINE
  5
240
100
AcDbEntity
  8
RACCORDO
100
AcDbPolyline
 62
250
  6
CONTINUOUS
 90
25
 70
0
 10
-102.7709242953
 20
-37.0
 10
-102.7652009192
 20
-37.1811023225
 10
-102.7476287996
 20
-37.3614884541
 10
-102.7182751459
 20
-37.5403821846
 10
-102.6772556244
 20
-37.7170173161
 10
-102.6247407609
 20
-37.8906274473
 10
-102.5609581125
 20
-38.0604509945
 10
-102.4861713966
 20
-38.2257693596
 10
-102.4007023167
 20
-38.3858552329
 10
-102.3049491667
 20
-38.5399698001
 10
-102.1993537867
 20
-38.6874234094
 10
-102.0843556674
 20
-38.8276206342
 10
-101.9604134431
 20
-38.9600063637
 10
-101.8280530347
 20
-39.0840128269
 10
-101.6878429338
 20
-39.1991008002
 10
-101.5403457189
 20
-39.3047975582
 10
-101.3861391999
 20
-39.4006672986
 10
-101.2259254139
 20
-39.4862519516
 10
-101.0605042694
 20
-39.5611226571
 10
-100.8906379891
 20
-39.6249537025
 10
-100.717019176
 20
-39.6775027607
 10
-100.5403819191
 20
-39.7185564657
 10
-100.3614825324
 20
-39.7479476444
 10
-100.1810966472
 20
-39.7655593804
 10
-100.0
 20
-39.7713260911
  0
LINE
  5
241
100
AcDbEntity
  8
RACCORDO
100
AcDbLine
 62
250
  6
CONTINUOUS
 10
-101.8802939597
 20
-36.6848328203
 11
-101.8741622052
 21
-36.8935030165
  0
LINE
  5
242
100
AcDbEntity
  8
RACCORDO
100
AcDbLine
 62
250
  6
CONTINUOUS
 10
-101.8741622052
 20
-36.8935030165
 11
-101.8704774427
 21
-37.0350790378
  0
LINE
  5
243
100
AcDbEntity
  8
RACCORDO
100
AcDbLine
 62
250
  6
CONTINUOUS
 10
-101.9065444677
 20
-35.887805784
 11
-101.9061244901
 21
-35.9477641817
  0
LINE
  5
244
100
AcDbEntity
  8
RACCORDO
100
AcDbLine
 62
250
  6
CONTINUOUS
 10
-101.9782359512
 20
-27.0461044527
 11
-101.9065444677
 21
-35.887805784
  0
LINE
  5
245
100
AcDbEntity
  8
RACCORDO
100
AcDbLine
 62
250
  6
CONTINUOUS
 10
-102.7709242953
 20
37.0
 11
-102.7652702117
 21
20.2653241115
  0
LINE
  5
246
100
AcDbEntity
  8
0
100
AcDbLine
 62
7
  6
CONTINUOUS
 10
-103.0
 20
-37.0000000008
 11
-103.0
 21
-3.6749773271
  0
LINE
  5
247
100
AcDbEntity
  8
0
100
AcDbLine
 62
7
  6
CONTINUOUS
 10
-103.0
 20
3.6749773271
 11
-103.0
 21
37.0000000008
  0
LINE
  5
248
100
AcDbEntity
  8
0
100
AcDbLine
 62
7
  6
CONTINUOUS
 10
-102.8951844414
 20
3.5
 11
-102.8951844414
 21
-3.5
  0
LINE
  5
249
100
AcDbEntity
  8
RACCORDO
100
AcDbLine
 62
250
  6
CONTINUOUS
 10
-102.7652702117
 20
20.2653241115
 11
-102.76981334
 21
-36.1047150195
  0
LINE
  5
24A
100
AcDbEntity
  8
RACCORDO
100
AcDbLine
 62
250
  6
CONTINUOUS
 10
-102.76981334
 20
-36.1047150195
 11
-102.7709242953
 21
-37.0
  0
LINE
  5
24B
100
AcDbEntity
  8
RACCORDO
100
AcDbLine
 62
250
  6
CONTINUOUS
 10
-101.9061530203
 20
35.943499236
 11
-101.9772265908
 21
27.2135857895
  0
LINE
  5
24C
100
AcDbEntity
  8
RACCORDO
100
AcDbLine
 62
250
  6
CONTINUOUS
 10
-101.8704774441
 20
37.0350790384
 11
-101.877957962
 21
36.7605337653
  0
LINE
  5
24D
100
AcDbEntity
  8
RACCORDO
100
AcDbLine
 62
250
  6
CONTINUOUS
 10
-101.877957962
 20
36.7605337653
 11
-101.8840637394
 21
36.5714893506
  0
LINE
  5
24E
100
AcDbEntity
  8
RACCORDO
100
AcDbLine
 62
250
  6
CONTINUOUS
 10
-101.8840637394
 20
36.5714893506
 11
-101.8900082016
 21
36.4117470216
  0
LWPOLYLINE
  5
24F
100
AcDbEntity
  8
RACCORDO
100
AcDbPolyline
 62
250
  6
CONTINUOUS
 90
5
 70
0
 10
-101.9029679711
 20
36.1360415766
 10
-101.904072961
 20
36.109249983
 10
-101.9048013388
 20
36.0824058161
 10
-101.9052742138
 20
36.0554978507
 10
-101.9058770836
 20
36.0005713719
  0
LINE
  5
250
100
AcDbEntity
  8
RACCORDO
100
AcDbLine
 62
250
  6
CONTINUOUS
 10
-101.8900082016
 20
36.4117470216
 11
-101.8948143735
 21
36.2978832665
  0
LWPOLYLINE
  5
251
100
AcDbEntity
  8
RACCORDO
100
AcDbPolyline
 62
250
  6
CONTINUOUS
 90
3
 70
0
 10
-101.8948143735
 20
36.2978832665
 10
-101.8974382796
 20
36.2433935167
 10
-101.9029679711
 20
36.1360415766
  0
LWPOLYLINE
  5
252
100
AcDbEntity
  8
RACCORDO
100
AcDbPolyline
 62
250
  6
CONTINUOUS
 90
9
 70
0
 10
-100.0191257134
 20
-39.4616238507
 10
-100.0171289872
 20
-39.5271452767
 10
-100.0149784198
 20
-39.5858906685
 10
-100.0126933261
 20
-39.637332408
 10
-100.0102942294
 20
-39.6810084745
 10
-100.0078026769
 20
-39.7165265941
 10
-100.0052410461
 20
-39.7435677631
 10
-100.0026323439
 20
-39.7618891128
 10
-100.0
 20
-39.7713260911
  0
LINE
  5
253
100
AcDbEntity
  8
RACCORDO
100
AcDbLine
 62
250
  6
CONTINUOUS
 10
-100.0225874518
 20
-39.3126623759
 11
-100.0191257134
 21
-39.4616238507
  0
LINE
  5
254
100
AcDbEntity
  8
RACCORDO
100
AcDbLine
 62
250
  6
CONTINUOUS
 10
-100.0252395505
 20
-39.1443457806
 11
-100.0225874518
 21
-39.3126623759
  0
LWPOLYLINE
  5
255
100
AcDbEntity
  8
RACCORDO
100
AcDbPolyline
 62
250
  6
CONTINUOUS
 90
3
 70
0
 10
-100.0275004716
 20
-38.8689148029
 10
-100.0269869466
 20
-38.9627073875
 10
-100.0252395505
 20
-39.1443457806
  0
LWPOLYLINE
  5
256
100
AcDbEntity
  8
RACCORDO
100
AcDbPolyline
 62
250
  6
CONTINUOUS
 90
7
 70
0
 10
-101.9061244901
 20
-35.9477641817
 10
-101.9058621287
 20
-36.0046595797
 10
-101.9056099601
 20
-36.0322509387
 10
-101.9052215228
 20
-36.0594285641
 10
-101.9047045455
 20
-36.0862650039
 10
-101.9039364552
 20
-36.1130949738
 10
-101.9027994769
 20
-36.1398997899
  0
LINE
  5
257
100
AcDbEntity
  8
RACCORDO
100
AcDbLine
 62
250
  6
CONTINUOUS
 10
-102.0167229378
 20
-16.1265710326
 11
-101.9782359512
 21
-27.0461044527
  0
LINE
  5
258
100
AcDbEntity
  8
RACCORDO
100
AcDbLine
 62
250
  6
CONTINUOUS
 10
-100.0
 20
40.0
 11
-100.0
 21
39.7713260911
  0
LINE
  5
259
100
AcDbEntity
  8
RACCORDO
100
AcDbLine
 62
250
  6
CONTINUOUS
 10
-100.0
 20
-39.7713260911
 11
-100.0
 21
-40.0
  0
LINE
  5
25A
100
AcDbEntity
  8
RACCORDO
100
AcDbLine
 62
250
  6
CONTINUOUS
 10
-102.0189615149
 20
-6.220148367
 11
-102.0167229378
 21
-16.1265710326
  0
LINE
  5
25B
100
AcDbEntity
  8
RACCORDO
100
AcDbLine
 62
250
  6
CONTINUOUS
 10
-101.9058770836
 20
36.0005713719
 11
-101.9061530203
 21
35.943499236
  0
LINE
  5
25C
100
AcDbEntity
  8
RACCORDO
100
AcDbLine
 62
250
  6
CONTINUOUS
 10
-101.9772265908
 20
27.2135857895
 11
-102.0189615149
 21
-6.220148367
  0
LINE
  5
25D
100
AcDbEntity
  8
RACCORDO
100
AcDbLine
 62
250
  6
CONTINUOUS
 10
-100.0275004315
 20
38.8689146623
 11
-100.0262309714
 21
39.0547904252
  0
LINE
  5
25E
100
AcDbEntity
  8
RACCORDO
100
AcDbLine
 62
250
  6
CONTINUOUS
 10
-100.0262309714
 20
39.0547904252
 11
-100.024021289
 21
39.2305542091
  0
LWPOLYLINE
  5
25F
100
AcDbEntity
  8
RACCORDO
100
AcDbPolyline
 62
250
  6
CONTINUOUS
 90
11
 70
0
 10
-100.024021289
 20
39.2305542091
 10
-100.0209505827
 20
39.38990585
 10
-100.0191256357
 20
39.4616133989
 10
-100.017128916
 20
39.5271334692
 10
-100.0149783565
 20
39.5858776063
 10
-100.0126932718
 20
39.637318212
 10
-100.0102941848
 20
39.6809932834
 10
-100.0078026425
 20
39.7165105621
 10
-100.0052410222
 20
39.7435510571
 10
-100.0026323307
 20
39.7618719099
 10
-99.9999999975
 20
39.7713085756
  0
LINE
  5
260
100
AcDbEntity
  8
RACCORDO
100
AcDbLine
 62
250
  6
CONTINUOUS
 10
-82.0425707249
 20
-22.1794898856
 11
-82.0500559581
 21
-20.2219540025
  0
LINE
  5
261
100
AcDbEntity
  8
RACCORDO
100
AcDbLine
 62
250
  6
CONTINUOUS
 10
-82.0500559581
 20
-20.2219540025
 11
-82.0604052616
 21
-11.4669907647
  0
LINE
  5
262
100
AcDbEntity
  8
RACCORDO
100
AcDbLine
 62
250
  6
CONTINUOUS
 10
-82.0604052616
 20
-11.4669907647
 11
-82.0625443539
 21
3.4580147385
  0
LINE
  5
263
100
AcDbEntity
  8
RACCORDO
100
AcDbLine
 62
250
  6
CONTINUOUS
 10
-82.0625443539
 20
3.4580147385
 11
-82.0595704199
 21
12.7467470786
  0
LINE
  5
264
100
AcDbEntity
  8
RACCORDO
100
AcDbLine
 62
250
  6
CONTINUOUS
 10
-82.0595704199
 20
12.7467470786
 11
-82.0502569978
 21
20.1252950132
  0
LINE
  5
265
100
AcDbEntity
  8
RACCORDO
100
AcDbLine
 62
250
  6
CONTINUOUS
 10
-80.3587978539
 20
-22.1984867914
 11
-80.3587978999
 21
22.1984975498
  0
LINE
  5
266
100
AcDbEntity
  8
RACCORDO
100
AcDbLine
 62
250
  6
CONTINUOUS
 10
-82.0502569978
 20
20.1252950132
 11
-82.0425705651
 21
22.1795107838
  0
LWPOLYLINE
  5
267
100
AcDbEntity
  8
RACCORDO
100
AcDbPolyline
 62
250
  6
CONTINUOUS
 90
76
 70
0
 10
-80.3587982095
 20
22.1984975762
 10
-80.357974749
 20
22.2632865015
 10
-80.3550231576
 20
22.3261418661
 10
-80.3501318278
 20
22.3869986044
 10
-80.3434689586
 20
22.4459041153
 10
-80.3352251039
 20
22.5027147845
 10
-80.3256427719
 20
22.5571005087
 10
-80.3149700085
 20
22.6087865447
 10
-80.3033547879
 20
22.6580270828
 10
-80.2908667767
 20
22.7052972509
 10
-80.2777184025
 20
22.7503124141
 10
-80.2639750794
 20
22.7933675124
 10
-80.249345846
 20
22.8357812096
 10
-80.2337648764
 20
22.8778274758
 10
-80.217343551
 20
22.9191998232
 10
-80.1999323552
 20
22.9603096392
 10
-80.18145342
 20
23.0013072228
 10
-80.1619773772
 20
23.0419892531
 10
-80.1415556314
 20
23.0822280564
 10
-80.1201865435
 20
23.1220208022
 10
-80.0978900762
 20
23.1613264419
 10
-80.0747693059
 20
23.1999697181
 10
-80.0508159763
 20
23.2379828234
 10
-80.0260796637
 20
23.2753037409
 10
-80.0007819402
 20
23.3116364073
 10
-79.9748975952
 20
23.3470725687
 10
-79.9485301099
 20
23.3815216657
 10
-79.9221503375
 20
23.414457413
 10
-79.8958760123
 20
23.4458632537
 10
-79.869735419
 20
23.4758263909
 10
-79.8441201121
 20
23.5040257243
 10
-79.8192866067
 20
23.530337971
 10
-79.7951471181
 20
23.5550049769
 10
-79.771581295
 20
23.5782626213
 10
-79.7486818599
 20
23.600123001
 10
-79.7264700127
 20
23.6206648791
 10
-79.704689195
 20
23.640199106
 10
-79.6833510159
 20
23.6587763549
 10
-79.6625126313
 20
23.6764043093
 10
-79.641961133
 20
23.6933045154
 10
-79.6217215433
 20
23.7094971155
 10
-79.6018122535
 20
23.7249998082
 10
-79.5819929447
 20
23.7400100302
 10
-79.5623041958
 20
23.7545143009
 10
-79.5427305027
 20
23.7685445143
 10
-79.5229302675
 20
23.7823430481
 10
-79.5028872865
 20
23.7959173596
 10
-79.4826226439
 20
23.8092513349
 10
-79.4618342061
 20
23.8225274222
 10
-79.4405383301
 20
23.8357102939
 10
-79.4187106128
 20
23.8488036743
 10
-79.395971212
 20
23.8620217007
 10
-79.3721768727
 20
23.8754029827
 10
-79.3474428613
 20
23.8888379807
 10
-79.3217675881
 20
23.9023021251
 10
-79.2952132525
 20
23.9157259628
 10
-79.2676945459
 20
23.929106178
 10
-79.2389837869
 20
23.9425054505
 10
-79.2090703656
 20
23.9558684501
 10
-79.1779348166
 20
23.9691439979
 10
-79.1453267054
 20
23.9823748451
 10
-79.1112133468
 20
23.9954931789
 10
-79.0755930681
 20
24.0084174398
 10
-79.0382539578
 20
24.0211405579
 10
-78.9990774199
 20
24.0336065194
 10
-78.9581493404
 20
24.0456706435
 10
-78.915567278
 20
24.0571815661
 10
-78.8714714413
 20
24.068019512
 10
-78.8257181849
 20
24.078103582
 10
-78.7779879032
 20
24.087318518
 10
-78.7282494515
 20
24.0955194827
 10
-78.6765593168
 20
24.102568105
 10
-78.6227383326
 20
24.1083111625
 10
-78.5667508206
 20
24.11257486
 10
-78.50870578
 20
24.1151835973
 10
-78.4486553864
 20
24.1159571728
  0
LWPOLYLINE
  5
268
100
AcDbEntity
  8
RACCORDO
100
AcDbPolyline
 62
250
  6
CONTINUOUS
 90
76
 70
0
 10
-82.0425705202
 20
22.1795107783
 10
-82.0396704759
 20
22.3052481815
 10
-82.0325455683
 20
22.4272210921
 10
-82.0215672983
 20
22.5453047991
 10
-82.0070745052
 20
22.6596281487
 10
-81.9894344453
 20
22.7699148894
 10
-81.9691080156
 20
22.875475893
 10
-81.9464050726
 20
22.9757827088
 10
-81.9218263729
 20
23.0712073025
 10
-81.896107367
 20
23.1624357265
 10
-81.870023056
 20
23.2487128367
 10
-81.8436812708
 20
23.3302417259
 10
-81.8166378314
 20
23.409008999
 10
-81.7890587333
 20
23.4855548802
 10
-81.7607218529
 20
23.5602151311
 10
-81.7302628999
 20
23.6347300304
 10
-81.6970968185
 20
23.7096924111
 10
-81.6617539952
 20
23.784356548
 10
-81.6245480562
 20
23.8581839799
 10
-81.5855667424
 20
23.9310442889
 10
-81.5447839531
 20
24.0029335726
 10
-81.5023625403
 20
24.0735887722
 10
-81.4582670916
 20
24.1430854608
 10
-81.412612022
 20
24.2112760416
 10
-81.3658472337
 20
24.2775855153
 10
-81.3179344724
 20
24.3421555596
 10
-81.2690701627
 20
24.4048229048
 10
-81.2201525113
 20
24.4646422974
 10
-81.17139499
 20
24.5215754806
 10
-81.122858322
 20
24.5757765754
 10
-81.0753041166
 20
24.6266835745
 10
-81.0292023495
 20
24.6740754231
 10
-80.9843756453
 20
24.718398305
 10
-80.9406181614
 20
24.7601117361
 10
-80.8981077807
 20
24.7992364768
 10
-80.8569034137
 20
24.8358865742
 10
-80.8165668717
 20
24.8706191478
 10
-80.7771484757
 20
24.9034906734
 10
-80.7386097052
 20
24.934651532
 10
-80.7003354435
 20
24.9647406535
 10
-80.6622370027
 20
24.9938578621
 10
-80.6243374835
 20
25.0220386135
 10
-80.5861435729
 20
25.0497814193
 10
-80.5476554856
 20
25.0771038725
 10
-80.5089358951
 20
25.1039447765
 10
-80.469525509
 20
25.1306646262
 10
-80.4294410252
 20
25.1572489218
 10
-80.388723882
 20
25.1836178392
 10
-80.3469122408
 20
25.2100044372
 10
-80.3040103915
 20
25.2364971278
 10
-80.2603287499
 20
25.2627375897
 10
-80.2159060778
 20
25.2882413069
 10
-80.1711527531
 20
25.3125380816
 10
-80.1259010681
 20
25.335944151
 10
-80.0793059225
 20
25.3591247336
 10
-80.0308739533
 20
25.3823715239
 10
-79.9804904429
 20
25.4055751948
 10
-79.9278550361
 20
25.428747309
 10
-79.8730984961
 20
25.4517168753
 10
-79.8162435703
 20
25.4743677428
 10
-79.7568134198
 20
25.4967511593
 10
-79.6947214085
 20
25.5187482706
 10
-79.6300046994
 20
25.5402306637
 10
-79.5623890208
 20
25.5611778786
 10
-79.4919614411
 20
25.5811059029
 10
-79.4184489213
 20
25.6002187436
 10
-79.3407738491
 20
25.6195017266
 10
-79.2579444858
 20
25.6393370527
 10
-79.1698129155
 20
25.6589760205
 10
-79.0768017399
 20
25.6775687068
 10
-78.9797166016
 20
25.6945451988
 10
-78.8789144548
 20
25.7095533202
 10
-78.774086816
 20
25.7220749883
 10
-78.6650502897
 20
25.7317171056
 10
-78.5518663137
 20
25.7382079996
 10
-78.4346790957
 20
25.7411652782
  0
LINE
  5
269
100
AcDbEntity
  8
0
100
AcDbLine
 62
7
  6
CONTINUOUS
 10
-102.8951844414
 20
-3.5
 11
-103.0
 21
-3.6749773271
  0
LINE
  5
26A
100
AcDbEntity
  8
0
100
AcDbLine
 62
7
  6
CONTINUOUS
 10
-103.0
 20
3.6749773271
 11
-102.8951844414
 21
3.5
  0
LWPOLYLINE
  5
26B
100
AcDbEntity
  8
RACCORDO
100
AcDbPolyline
 62
250
  6
CONTINUOUS
 90
4
 70
0
 10
-78.4486614109
 20
-24.1159571827
 10
-78.4504960468
 20
-24.0487551538
 10
-78.4518666062
 20
-23.9777883715
 10
-78.4528045152
 20
-23.9035418012
  0
LWPOLYLINE
  5
26C
100
AcDbEntity
  8
RACCORDO
100
AcDbPolyline
 62
250
  6
CONTINUOUS
 90
6
 70
0
 10
-78.4577171089
 20
-23.5015278997
 10
-78.45836735
 20
-23.418856105
 10
-78.4564697074
 20
-23.336757837
 10
-78.4536274513
 20
-23.2557804941
 10
-78.451628914
 20
-23.1764658156
 10
-78.4509509948
 20
-23.0993584738
  0
LINE
  5
26D
100
AcDbEntity
  8
RACCORDO
100
AcDbLine
 62
250
  6
CONTINUOUS
 10
-78.4486613885
 20
-24.115958896
 11
-78.4346908473
 21
-25.7411652941
  0
LINE
  5
26E
100
AcDbEntity
  8
0
100
AcDbLine
 62
7
  6
CONTINUOUS
 10
-78.75
 20
-22.2
 11
-78.75
 21
22.2
  0
LWPOLYLINE
  5
26F
100
AcDbEntity
  8
RACCORDO
100
AcDbPolyline
 62
250
  6
CONTINUOUS
 90
3
 70
0
 10
-78.4510233692
 20
23.0993581789
 10
-78.4500517845
 20
22.5034222405
 10
-78.4500679396
 20
22.4999999923
  0
LWPOLYLINE
  5
270
100
AcDbEntity
  8
RACCORDO
100
AcDbPolyline
 62
250
  6
CONTINUOUS
 90
4
 70
0
 10
-78.4528045152
 20
-23.9035418012
 10
-78.4528982566
 20
-23.7472490344
 10
-78.453406678
 20
-23.6662897748
 10
-78.4577171089
 20
-23.5015278997
  0
LINE
  5
271
100
AcDbEntity
  8
RACCORDO
100
AcDbLine
 62
250
  6
CONTINUOUS
 10
-78.4509509948
 20
-23.0993584738
 11
-78.4500039487
 21
-22.5
  0
LINE
  5
272
100
AcDbEntity
  8
RACCORDO
100
AcDbLine
 62
250
  6
CONTINUOUS
 10
-78.4528997373
 20
23.7472480276
 11
-78.4532991743
 21
23.6662898137
  0
LINE
  5
273
100
AcDbEntity
  8
RACCORDO
100
AcDbLine
 62
250
  6
CONTINUOUS
 10
-78.4486553708
 20
24.1159567814
 11
-78.434679071
 21
25.7411648348
  0
LWPOLYLINE
  5
274
100
AcDbEntity
  8
RACCORDO
100
AcDbPolyline
 62
250
  6
CONTINUOUS
 90
7
 70
0
 10
-78.4532991743
 20
23.6662898137
 10
-78.4567094045
 20
23.5015364861
 10
-78.457191095
 20
23.4188674736
 10
-78.4556261752
 20
23.3367653455
 10
-78.4532984121
 20
23.2557829071
 10
-78.4516384943
 20
23.1764658864
 10
-78.4510233692
 20
23.0993581789
  0
LWPOLYLINE
  5
275
100
AcDbEntity
  8
RACCORDO
100
AcDbPolyline
 62
250
  6
CONTINUOUS
 90
5
 70
0
 10
-78.4486553864
 20
24.1159571728
 10
-78.4504659091
 20
24.0487543608
 10
-78.4518152731
 20
23.9777870702
 10
-78.4527349032
 20
23.903540305
 10
-78.4528997373
 20
23.7472480276
  0
LINE
  5
276
100
AcDbEntity
  8
RACCORDO
100
AcDbLine
 62
250
  6
CONTINUOUS
 10
-68.0
 20
-22.5
 11
-68.0
 21
-39.7614224092
  0
LWPOLYLINE
  5
277
100
AcDbEntity
  8
RACCORDO
100
AcDbPolyline
 62
250
  6
CONTINUOUS
 90
3
 70
0
 10
-68.0002699701
 20
39.7614224071
 10
-68.0000363176
 20
22.5043290298
 10
-68.000063991
 20
22.5
  0
LWPOLYLINE
  5
278
100
AcDbEntity
  8
RACCORDO
100
AcDbPolyline
 62
250
  6
CONTINUOUS
 90
25
 70
0
 10
100.0275004315
 20
-38.8689146623
 10
100.1461710388
 20
-38.8624596452
 10
100.2644470241
 20
-38.8484585198
 10
100.3817600161
 20
-38.826940329
 10
100.4976003526
 20
-38.7979859554
 10
100.611500448
 20
-38.761719768
 10
100.7229885295
 20
-38.7182699761
 10
100.8316318564
 20
-38.6677832398
 10
100.9369569724
 20
-38.6104801234
 10
101.038440459
 20
-38.5466281798
 10
101.1356281887
 20
-38.4764994884
 10
101.2281703492
 20
-38.4003823479
 10
101.3157075557
 20
-38.3185812837
 10
101.3978695002
 20
-38.2314203893
 10
101.4743359605
 20
-38.1392648474
 10
101.5448194761
 20
-38.0424770394
 10
101.6090285302
 20
-37.9414187291
 10
101.6666880123
 20
-37.8365292628
 10
101.7175565667
 20
-37.7283013751
 10
101.7614205621
 20
-37.6171923745
 10
101.7981015725
 20
-37.503653199
 10
101.8274583504
 20
-37.3881817729
 10
101.849364114
 20
-37.2712588818
 10
101.8637171308
 20
-37.1533690282
 10
101.8704772525
 20
-37.0350789699
  0
LWPOLYLINE
  5
279
100
AcDbEntity
  8
RACCORDO
100
AcDbPolyline
 62
250
  6
CONTINUOUS
 90
25
 70
0
 10
100.0
 20
-39.7713260911
 10
100.1810966472
 20
-39.7655593804
 10
100.3614825324
 20
-39.7479476444
 10
100.5403819191
 20
-39.7185564658
 10
100.717019176
 20
-39.6775027607
 10
100.8906379891
 20
-39.6249537025
 10
101.0605042694
 20
-39.5611226571
 10
101.2259254139
 20
-39.4862519516
 10
101.3861391999
 20
-39.4006672986
 10
101.5403457189
 20
-39.3047975582
 10
101.6878429338
 20
-39.1991008002
 10
101.8280530347
 20
-39.0840128269
 10
101.9604134431
 20
-38.9600063637
 10
102.0843556674
 20
-38.8276206342
 10
102.1993537867
 20
-38.6874234094
 10
102.3049491667
 20
-38.5399698001
 10
102.4007023167
 20
-38.3858552329
 10
102.4861713966
 20
-38.2257693596
 10
102.5609581125
 20
-38.0604509945
 10
102.6247407609
 20
-37.8906274473
 10
102.6772556243
 20
-37.7170173161
 10
102.7182751458
 20
-37.5403821846
 10
102.7476287996
 20
-37.3614884541
 10
102.7652009191
 20
-37.1811023225
 10
102.7709242953
 20
-37.0
  0
LINE
  5
27A
100
AcDbEntity
  8
RACCORDO
100
AcDbLine
 62
250
  6
CONTINUOUS
 10
99.3982829667
 20
-38.8865490401
 11
99.6935213936
 21
-38.8772113158
  0
LWPOLYLINE
  5
27B
100
AcDbEntity
  8
RACCORDO
100
AcDbPolyline
 62
250
  6
CONTINUOUS
 90
11
 70
0
 10
102.3133708864
 20
-37.0287936152
 10
102.390448024
 20
-37.0267047609
 10
102.4619885475
 20
-37.0243767198
 10
102.5273516896
 20
-37.0218303437
 10
102.5859520124
 20
-37.0190884396
 10
102.6372646502
 20
-37.0161755659
 10
102.6808300111
 20
-37.0131178124
 10
102.716257893
 20
-37.0099425667
 10
102.7432309792
 20
-37.0066782686
 10
102.7615076795
 20
-37.0033541553
 10
102.7709242953
 20
-37.0
  0
LWPOLYLINE
  5
27C
100
AcDbEntity
  8
RACCORDO
100
AcDbPolyline
 62
250
  6
CONTINUOUS
 90
3
 70
0
 10
99.6935213936
 20
-38.8772113158
 10
99.9118917861
 20
-38.8715435375
 10
100.0275004441
 20
-38.8689147066
  0
LINE
  5
27D
100
AcDbEntity
  8
RACCORDO
100
AcDbLine
 62
250
  6
CONTINUOUS
 10
102.1454116028
 20
-37.0321812365
 11
102.3133708864
 21
-37.0287936152
  0
LWPOLYLINE
  5
27E
100
AcDbEntity
  8
RACCORDO
100
AcDbPolyline
 62
250
  6
CONTINUOUS
 90
3
 70
0
 10
99.2216277159
 20
-38.8903691062
 10
99.3078710927
 20
-38.8889224746
 10
99.3982829667
 20
-38.8865490401
  0
LINE
  5
27F
100
AcDbEntity
  8
RACCORDO
100
AcDbLine
 62
250
  6
CONTINUOUS
 10
88.1487292405
 20
-39.0079492994
 11
90.5404065801
 21
-38.9744197245
  0
LINE
  5
280
100
AcDbEntity
  8
RACCORDO
100
AcDbLine
 62
250
  6
CONTINUOUS
 10
90.5404065801
 20
-38.9744197245
 11
94.7932457709
 21
-38.9257350021
  0
LINE
  5
281
100
AcDbEntity
  8
RACCORDO
100
AcDbLine
 62
250
  6
CONTINUOUS
 10
94.7932457709
 20
-38.9257350021
 11
96.7059228679
 21
-38.9083605115
  0
LINE
  5
282
100
AcDbEntity
  8
RACCORDO
100
AcDbLine
 62
250
  6
CONTINUOUS
 10
96.7059228679
 20
-38.9083605115
 11
97.1107257608
 21
-38.9051680128
  0
LWPOLYLINE
  5
283
100
AcDbEntity
  8
RACCORDO
100
AcDbPolyline
 62
250
  6
CONTINUOUS
 90
3
 70
0
 10
101.8704774427
 20
-37.0350790379
 10
101.9641146672
 20
-37.0344184879
 10
102.1454116028
 20
-37.0321812365
  0
LINE
  5
284
100
AcDbEntity
  8
RACCORDO
100
AcDbLine
 62
250
  6
CONTINUOUS
 10
78.635832037
 20
-39.0910748485
 11
88.1487292405
 21
-39.0079492994
  0
LINE
  5
285
100
AcDbEntity
  8
RACCORDO
100
AcDbLine
 62
250
  6
CONTINUOUS
 10
97.1107257608
 20
-38.9051680128
 11
99.2216277159
 21
-38.8903691062
  0
LINE
  5
286
100
AcDbEntity
  8
RACCORDO
100
AcDbLine
 62
250
  6
CONTINUOUS
 10
74.939240218
 20
-39.102970498
 11
78.635832037
 21
-39.0910748485
  0
LINE
  5
287
100
AcDbEntity
  8
RACCORDO
100
AcDbLine
 62
250
  6
CONTINUOUS
 10
-100.0
 20
-39.7713260911
 11
-77.2152921138
 21
-39.7612595314
  0
LINE
  5
288
100
AcDbEntity
  8
0
100
AcDbLine
 62
7
  6
CONTINUOUS
 10
100.0
 20
-40.0
 11
-100.0
 21
-40.0
  0
LINE
  5
289
100
AcDbEntity
  8
RACCORDO
100
AcDbLine
 62
250
  6
CONTINUOUS
 10
-103.0
 20
-37.0
 11
-102.7709242953
 21
-37.0
  0
LINE
  5
28A
100
AcDbEntity
  8
RACCORDO
100
AcDbLine
 62
250
  6
CONTINUOUS
 10
102.7709242953
 20
-37.0
 11
103.0
 21
-37.0
  0
LINE
  5
28B
100
AcDbEntity
  8
RACCORDO
100
AcDbLine
 62
250
  6
CONTINUOUS
 10
-77.2152921138
 20
-39.7612595314
 11
68.000225104
 21
-39.7614224092
  0
LINE
  5
28C
100
AcDbEntity
  8
RACCORDO
100
AcDbLine
 62
250
  6
CONTINUOUS
 10
68.000225104
 20
-39.7614224092
 11
84.6980101184
 21
-39.7635446779
  0
LINE
  5
28D
100
AcDbEntity
  8
RACCORDO
100
AcDbLine
 62
250
  6
CONTINUOUS
 10
84.6980101184
 20
-39.7635446779
 11
100.0
 21
-39.7713260911
  0
LWPOLYLINE
  5
28E
100
AcDbEntity
  8
RACCORDO
100
AcDbPolyline
 62
250
  6
CONTINUOUS
 90
3
 70
0
 10
-68.0
 20
-39.0969186984
 10
70.3298290578
 20
-39.0994130674
 10
74.939240218
 20
-39.102970498
  0
LINE
  5
28F
100
AcDbEntity
  8
RACCORDO
100
AcDbLine
 62
250
  6
CONTINUOUS
 10
-76.7108418845
 20
-39.0994228469
 11
-68.0
 21
-39.0969186871
  0
LINE
  5
290
100
AcDbEntity
  8
RACCORDO
100
AcDbLine
 62
250
  6
CONTINUOUS
 10
-81.2182687703
 20
-39.0735169565
 11
-76.7108418845
 21
-39.0994228469
  0
LINE
  5
291
100
AcDbEntity
  8
RACCORDO
100
AcDbLine
 62
250
  6
CONTINUOUS
 10
-101.8704772526
 20
-37.0350789699
 11
-102.0560294608
 21
-37.0334494472
  0
LINE
  5
292
100
AcDbEntity
  8
RACCORDO
100
AcDbLine
 62
250
  6
CONTINUOUS
 10
-94.746740637
 20
-38.9262123615
 11
-91.651562327
 21
-38.9624507089
  0
LINE
  5
293
100
AcDbEntity
  8
RACCORDO
100
AcDbLine
 62
250
  6
CONTINUOUS
 10
-88.8649955312
 20
-38.9986611074
 11
-81.2182687703
 21
-39.0735169565
  0
LINE
  5
294
100
AcDbEntity
  8
RACCORDO
100
AcDbLine
 62
250
  6
CONTINUOUS
 10
-91.651562327
 20
-38.9624507089
 11
-90.0481398624
 21
-38.9808252943
  0
LINE
  5
295
100
AcDbEntity
  8
RACCORDO
100
AcDbLine
 62
250
  6
CONTINUOUS
 10
-90.0481398624
 20
-38.9808252943
 11
-88.8649955312
 21
-38.9986611074
  0
LWPOLYLINE
  5
296
100
AcDbEntity
  8
RACCORDO
100
AcDbPolyline
 62
250
  6
CONTINUOUS
 90
13
 70
0
 10
-102.0560294608
 20
-37.0334494472
 10
-102.231438695
 20
-37.0306242767
 10
-102.3133598629
 20
-37.0287932984
 10
-102.3904348179
 20
-37.0267044367
 10
-102.4619732385
 20
-37.0243763999
 10
-102.5273343911
 20
-37.0218300383
 10
-102.5859328687
 20
-37.019088158
 10
-102.6372438344
 20
-37.0161753164
 10
-102.6808077217
 20
-37.0131176021
 10
-102.7162343507
 20
-37.0099424017
 10
-102.7432064229
 20
-37.0066781539
 10
-102.7614823632
 20
-37.003354095
 10
-102.7708984832
 20
-36.9999999972
  0
LINE
  5
297
100
AcDbEntity
  8
RACCORDO
100
AcDbLine
 62
250
  6
CONTINUOUS
 10
-100.0275004716
 20
-38.8689148029
 11
-99.70842692
 21
-38.8768055654
  0
LINE
  5
298
100
AcDbEntity
  8
RACCORDO
100
AcDbLine
 62
250
  6
CONTINUOUS
 10
-99.70842692
 20
-38.8768055654
 11
-99.5245037638
 21
-38.8822515711
  0
LWPOLYLINE
  5
299
100
AcDbEntity
  8
RACCORDO
100
AcDbPolyline
 62
250
  6
CONTINUOUS
 90
6
 70
0
 10
-99.5245037638
 20
-38.8822515711
 10
-99.35515545
 20
-38.8881313131
 10
-99.3214730654
 20
-38.8891472043
 10
-99.2876495033
 20
-38.8898361566
 10
-99.253753297
 20
-38.8903072046
 10
-94.746740637
 20
-38.9262123615
  0
LWPOLYLINE
  5
29A
100
AcDbEntity
  8
0
100
AcDbPolyline
 62
7
  6
CONTINUOUS
 90
10
 70
0
 43
0.3500000006
 10
2.2499999785
 20
51.7500018768
 10
1.6071428418
 20
51.1071438904
 10
1.1785713937
 20
50.2500014191
 10
1.1785713937
 20
49.178569931
 10
1.6071428418
 20
48.7500009613
 10
2.2499999785
 20
48.7500009613
 10
2.6785713558
 20
49.178569931
 10
2.6785713558
 20
50.0357124023
 10
2.2499999785
 20
50.4642859039
 10
1.3214285903
 20
50.4642859039
  0
LINE
  5
29B
100
AcDbEntity
  8
0
100
AcDbLine
 62
7
  6
CONTINUOUS
 10
76.630144
 20
-28.800007
 11
76.050122
 21
-28.800015
  0
LINE
  5
29C
100
AcDbEntity
  8
0
100
AcDbLine
 62
7
  6
CONTINUOUS
 10
74.535039
 20
-28.800007
 11
73.955031
 21
-28.800015
  0
LINE
  5
29D
100
AcDbEntity
  8
0
100
AcDbLine
 62
7
  6
CONTINUOUS
 10
72.246627
 20
-28.800015
 11
71.666605
 21
-28.800022
  0
LINE
  5
29E
100
AcDbEntity
  8
0
100
AcDbLine
 62
7
  6
CONTINUOUS
 10
81.2
 20
-28.8
 11
80.546695
 21
-28.800007
  0
LINE
  5
29F
100
AcDbEntity
  8
0
100
AcDbLine
 62
7
  6
CONTINUOUS
 10
70.348794
 20
-28.800015
 11
69.768751
 21
-28.800022
  0
LINE
  5
2A0
100
AcDbEntity
  8
0
100
AcDbLine
 62
7
  6
CONTINUOUS
 10
75.663443
 20
-28.800015
 11
75.083421
 21
-28.800015
  0
LINE
  5
2A1
100
AcDbEntity
  8
0
100
AcDbLine
 62
7
  6
CONTINUOUS
 10
73.406656
 20
-28.800015
 11
72.826634
 21
-28.800015
  0
LINE
  5
2A2
100
AcDbEntity
  8
0
100
AcDbLine
 62
7
  6
CONTINUOUS
 10
79.459144
 20
-28.800007
 11
78.879115
 21
-28.800007
  0
LINE
  5
2A3
100
AcDbEntity
  8
0
100
AcDbLine
 62
7
  6
CONTINUOUS
 10
78.492437
 20
-28.800015
 11
77.912408
 21
-28.800007
  0
LINE
  5
2A4
100
AcDbEntity
  8
RACCORDO
100
AcDbLine
 62
250
  6
CONTINUOUS
 10
80.2914206477
 20
-22.1996832603
 11
80.5233389345
 21
-22.1962815339
  0
LWPOLYLINE
  5
2A5
100
AcDbEntity
  8
RACCORDO
100
AcDbPolyline
 62
250
  6
CONTINUOUS
 90
3
 70
0
 10
80.2914206477
 20
-22.1996832603
 10
80.2203665865
 20
-22.2005388263
 10
80.1461188093
 20
-22.201088902
  0
LINE
  5
2A6
100
AcDbEntity
  8
RACCORDO
100
AcDbLine
 62
250
  6
CONTINUOUS
 10
80.5233389345
 20
-22.1962815339
 11
82.0425705046
 21
-22.1795107785
  0
LINE
  5
2A7
100
AcDbEntity
  8
RACCORDO
100
AcDbLine
 62
250
  6
CONTINUOUS
 10
78.4346790711
 20
-25.7411648199
 11
77.0571781304
 21
-25.7503209271
  0
LINE
  5
2A8
100
AcDbEntity
  8
RACCORDO
100
AcDbLine
 62
250
  6
CONTINUOUS
 10
-79.421706602
 20
-22.2018248877
 11
-79.0708560984
 21
-22.2004210945
  0
LINE
  5
2A9
100
AcDbEntity
  8
RACCORDO
100
AcDbLine
 62
250
  6
CONTINUOUS
 10
77.0571781304
 20
-25.7503209271
 11
74.5105348916
 21
-25.756301347
  0
LINE
  5
2AA
100
AcDbEntity
  8
RACCORDO
100
AcDbLine
 62
250
  6
CONTINUOUS
 10
74.5105348916
 20
-25.756301347
 11
67.9999999999
 21
-25.7603779713
  0
LINE
  5
2AB
100
AcDbEntity
  8
0
100
AcDbLine
 62
7
  6
CONTINUOUS
 10
77.729302
 20
-28.229679
 11
76.813257
 21
-28.229679
  0
LINE
  5
2AC
100
AcDbEntity
  8
0
100
AcDbLine
 62
7
  6
CONTINUOUS
 10
76.990179
 20
-27.678657
 11
77.552373
 21
-27.678657
  0
LINE
  5
2AD
100
AcDbEntity
  8
0
100
AcDbLine
 62
7
  6
CONTINUOUS
 10
79.965441
 20
-27.678657
 11
79.45921
 21
-27.67865
  0
LINE
  5
2AE
100
AcDbEntity
  8
0
100
AcDbLine
 62
7
  6
CONTINUOUS
 10
79.451148
 20
-27.142128
 11
80.156824
 21
-27.142128
  0
LINE
  5
2AF
100
AcDbEntity
  8
0
100
AcDbLine
 62
7
  6
CONTINUOUS
 10
80.156824
 20
-26.436398
 11
79.45114
 21
-26.436398
  0
LINE
  5
2B0
100
AcDbEntity
  8
0
100
AcDbLine
 62
7
  6
CONTINUOUS
 10
68.837619
 20
-25.899884
 11
69.417648
 21
-25.899884
  0
LINE
  5
2B1
100
AcDbEntity
  8
0
100
AcDbLine
 62
7
  6
CONTINUOUS
 10
70.699905
 20
-25.899884
 11
71.279934
 21
-25.899884
  0
LINE
  5
2B2
100
AcDbEntity
  8
0
100
AcDbLine
 62
7
  6
CONTINUOUS
 10
71.666612
 20
-25.899884
 11
72.246634
 21
-25.899884
  0
LINE
  5
2B3
100
AcDbEntity
  8
0
100
AcDbLine
 62
7
  6
CONTINUOUS
 10
72.826634
 20
-25.899884
 11
73.703471
 21
-25.899884
  0
LINE
  5
2B4
100
AcDbEntity
  8
0
100
AcDbLine
 62
7
  6
CONTINUOUS
 10
74.786606
 20
-25.899884
 11
75.663443
 21
-25.899884
  0
LINE
  5
2B5
100
AcDbEntity
  8
0
100
AcDbLine
 62
7
  6
CONTINUOUS
 10
76.981247
 20
-25.899877
 11
77.561297
 21
-25.899877
  0
LINE
  5
2B6
100
AcDbEntity
  8
0
100
AcDbLine
 62
7
  6
CONTINUOUS
 10
78.879115
 20
-25.899877
 11
80.23733
 21
-25.899877
  0
LINE
  5
2B7
100
AcDbEntity
  8
0
100
AcDbLine
 62
7
  6
CONTINUOUS
 10
78.45
 20
-22.5
 11
-78.45
 21
-22.5
  0
LINE
  5
2B8
100
AcDbEntity
  8
RACCORDO
100
AcDbLine
 62
250
  6
CONTINUOUS
 10
-68.0
 20
-24.1156246414
 11
-78.4486613781
 21
-24.1159568124
  0
LINE
  5
2B9
100
AcDbEntity
  8
RACCORDO
100
AcDbLine
 62
250
  6
CONTINUOUS
 10
68.0
 20
-25.7603770104
 11
-70.6296698773
 21
-25.7590088861
  0
LWPOLYLINE
  5
2BA
100
AcDbEntity
  8
RACCORDO
100
AcDbPolyline
 62
250
  6
CONTINUOUS
 90
3
 70
0
 10
-79.0708560984
 20
-22.2004210945
 10
-78.7533945956
 20
-22.2000560599
 10
-78.7499999912
 20
-22.2000728089
  0
LINE
  5
2BB
100
AcDbEntity
  8
RACCORDO
100
AcDbLine
 62
250
  6
CONTINUOUS
 10
80.1461188093
 20
-22.201088902
 11
79.4217087337
 21
-22.2018079556
  0
LINE
  5
2BC
100
AcDbEntity
  8
RACCORDO
100
AcDbLine
 62
250
  6
CONTINUOUS
 10
78.4486553707
 20
-24.1159567792
 11
-68.0
 21
-24.1156249138
  0
LINE
  5
2BD
100
AcDbEntity
  8
RACCORDO
100
AcDbLine
 62
250
  6
CONTINUOUS
 10
-80.1461183761
 20
-22.2009296123
 11
-79.421706602
 21
-22.2018248877
  0
LINE
  5
2BE
100
AcDbEntity
  8
RACCORDO
100
AcDbLine
 62
250
  6
CONTINUOUS
 10
-70.6296698773
 20
-25.7590088861
 11
-77.4333605431
 21
-25.748438854
  0
LINE
  5
2BF
100
AcDbEntity
  8
RACCORDO
100
AcDbLine
 62
250
  6
CONTINUOUS
 10
79.4217087337
 20
-22.2018079556
 11
78.75
 21
-22.2000012271
  0
LINE
  5
2C0
100
AcDbEntity
  8
RACCORDO
100
AcDbLine
 62
250
  6
CONTINUOUS
 10
-77.4333605431
 20
-25.748438854
 11
-78.4346908115
 21
-25.7411646641
  0
LWPOLYLINE
  5
2C1
100
AcDbEntity
  8
RACCORDO
100
AcDbPolyline
 62
250
  6
CONTINUOUS
 90
73
 70
0
 10
-78.4486614109
 20
-24.1159571827
 10
-78.510190295
 20
-24.1151392891
 10
-78.569587391
 20
-24.1123997508
 10
-78.6267971409
 20
-24.1079345528
 10
-78.6816627021
 20
-24.1019389402
 10
-78.7342644915
 20
-24.0945991092
 10
-78.7849173706
 20
-24.0860604169
 10
-78.8335761525
 20
-24.0764609942
 10
-78.880258167
 20
-24.0659490818
 10
-78.9253784807
 20
-24.0546182096
 10
-78.9691260132
 20
-24.042531199
 10
-79.0113095283
 20
-24.0298136926
 10
-79.0517819005
 20
-24.0166277662
 10
-79.0904645515
 20
-24.0031153302
 10
-79.1274661536
 20
-23.9893348299
 10
-79.1629258464
 20
-23.9753197676
 10
-79.1968464197
 20
-23.9611554929
 10
-79.2292608304
 20
-23.9469143582
 10
-79.2603485005
 20
-23.9325884412
 10
-79.2901217907
 20
-23.9182418033
 10
-79.3186038768
 20
-23.9039307997
 10
-79.3459830463
 20
-23.889614335
 10
-79.372283614
 20
-23.8753395087
 10
-79.3975123859
 20
-23.8611481396
 10
-79.4218228625
 20
-23.8469734243
 10
-79.4450908171
 20
-23.8329255917
 10
-79.4674672157
 20
-23.8189650104
 10
-79.4894998885
 20
-23.8047692884
 10
-79.5112195314
 20
-23.7903220904
 10
-79.5325925439
 20
-23.7756563988
 10
-79.5540443989
 20
-23.7604836538
 10
-79.5755560736
 20
-23.7447963743
 10
-79.5971200392
 20
-23.7285849814
 10
-79.6191532049
 20
-23.711521966
 10
-79.6417068483
 20
-23.6935174685
 10
-79.664668555
 20
-23.6746047008
 10
-79.688187388
 20
-23.6546134675
 10
-79.7122244353
 20
-23.6335082501
 10
-79.7367336226
 20
-23.6112518009
 10
-79.761835046
 20
-23.5876536253
 10
-79.7875063791
 20
-23.5626326468
 10
-79.8136489683
 20
-23.5361773448
 10
-79.8402519096
 20
-23.5081894281
 10
-79.8673766706
 20
-23.4784700544
 10
-79.8948044693
 20
-23.4471162368
 10
-79.9221205642
 20
-23.4144936919
 10
-79.9493019408
 20
-23.380535428
 10
-79.9762498399
 20
-23.3452626096
 10
-80.0024976329
 20
-23.3092273037
 10
-80.0279299025
 20
-23.2725754673
 10
-80.0526195172
 20
-23.2351872745
 10
-80.0764335547
 20
-23.197254657
 10
-80.099333301
 20
-23.1588450385
 10
-80.121337349
 20
-23.1199329626
 10
-80.1424147257
 20
-23.0805809888
 10
-80.1625493843
 20
-23.0408282271
 10
-80.18174466
 20
-23.0006804579
 10
-80.2000017521
 20
-22.9601513467
 10
-80.2172511473
 20
-22.9194241594
 10
-80.2335582919
 20
-22.8783621798
 10
-80.2490925459
 20
-22.8364852061
 10
-80.2637416733
 20
-22.7940702702
 10
-80.2775507353
 20
-22.7508646229
 10
-80.2907961392
 20
-22.7055557579
 10
-80.3034207088
 20
-22.6577650877
 10
-80.3151756315
 20
-22.6078548848
 10
-80.3259285952
 20
-22.5556037154
 10
-80.3355360612
 20
-22.5007722335
 10
-80.3437614144
 20
-22.4436263467
 10
-80.3503514248
 20
-22.384721461
 10
-80.3551426365
 20
-22.3242792086
 10
-80.3580092287
 20
-22.2621795829
 10
-80.3587981584
 20
-22.1984868048
  0
LINE
  5
2C2
100
AcDbEntity
  8
RACCORDO
100
AcDbLine
 62
250
  6
CONTINUOUS
 10
-80.3587978539
 20
-22.1984867914
 11
-82.0425707249
 21
-22.1794898856
  0
LWPOLYLINE
  5
2C3
100
AcDbEntity
  8
RACCORDO
100
AcDbPolyline
 62
250
  6
CONTINUOUS
 90
4
 70
0
 10
-80.3587981584
 20
-22.1984868048
 10
-80.2914203906
 20
-22.1996103877
 10
-80.2203662088
 20
-22.2004166747
 10
-80.1461183761
 20
-22.2009296123
  0
LWPOLYLINE
  5
2C4
100
AcDbEntity
  8
RACCORDO
100
AcDbPolyline
 62
250
  6
CONTINUOUS
 90
73
 70
0
 10
-78.4346908473
 20
-25.7411652941
 10
-78.5547517495
 20
-25.7380967959
 10
-78.6705517017
 20
-25.7313233781
 10
-78.7819547302
 20
-25.7212575386
 10
-78.8888577255
 20
-25.7081724894
 10
-78.9915060219
 20
-25.6925150752
 10
-79.0903817812
 20
-25.6748927856
 10
-79.1849753274
 20
-25.6557928477
 10
-79.274501097
 20
-25.6357206419
 10
-79.3588180548
 20
-25.6153171998
 10
-79.4383697528
 20
-25.5951765605
 10
-79.5140586537
 20
-25.5749834707
 10
-79.58686473
 20
-25.5538054906
 10
-79.6569868067
 20
-25.5314593396
 10
-79.7242927251
 20
-25.5084311542
 10
-79.7889089852
 20
-25.4848099765
 10
-79.8507925375
 20
-25.4607439445
 10
-79.9100118528
 20
-25.4363619106
 10
-79.9668993758
 20
-25.4116757308
 10
-80.0214176976
 20
-25.386853487
 10
-80.0736005026
 20
-25.3619722767
 10
-80.1238661132
 20
-25.3368670881
 10
-80.1723405554
 20
-25.3115222974
 10
-80.2194774164
 20
-25.2857660717
 10
-80.2662137407
 20
-25.2591045669
 10
-80.3125307962
 20
-25.2314359421
 10
-80.3579406991
 20
-25.2031908249
 10
-80.4025933222
 20
-25.1746661481
 10
-80.4461901336
 20
-25.1462144898
 10
-80.488839178
 20
-25.1176745827
 10
-80.5313424184
 20
-25.0884863579
 10
-80.5737072165
 20
-25.058651449
 10
-80.6157659323
 20
-25.0282802503
 10
-80.657964903
 20
-24.9969554444
 10
-80.7001992621
 20
-24.964742848
 10
-80.7426084143
 20
-24.9314610473
 10
-80.7859469759
 20
-24.8962702332
 10
-80.8304359726
 20
-24.8588134638
 10
-80.8759142786
 20
-24.8191311475
 10
-80.9225338221
 20
-24.7769129642
 10
-80.9702034724
 20
-24.7320681987
 10
-81.0187398387
 20
-24.6845708683
 10
-81.0681174215
 20
-24.6341955688
 10
-81.1184719248
 20
-24.5805615882
 10
-81.1694005254
 20
-24.5238484953
 10
-81.2200959093
 20
-24.4647095987
 10
-81.2705004723
 20
-24.4030316054
 10
-81.3204362306
 20
-24.3388608505
 10
-81.3690194553
 20
-24.2731936911
 10
-81.416030615
 20
-24.2062953846
 10
-81.461591452
 20
-24.1379773631
 10
-81.505420019
 20
-24.0686294339
 10
-81.547424137
 20
-23.9984054598
 10
-81.5876637509
 20
-23.9272285305
 10
-81.6261136525
 20
-23.8551562011
 10
-81.6628047838
 20
-23.782202875
 10
-81.6976337912
 20
-23.7085366235
 10
-81.7303817939
 20
-23.6344767429
 10
-81.7605353365
 20
-23.5606914712
 10
-81.7886872434
 20
-23.4865360646
 10
-81.8162159064
 20
-23.4101992355
 10
-81.8433120341
 20
-23.3313781065
 10
-81.8697441581
 20
-23.2496651587
 10
-81.8959703213
 20
-23.1629812948
 10
-81.9219363599
 20
-23.0708345345
 10
-81.9468090541
 20
-22.974067339
 10
-81.9697005943
 20
-22.8725698366
 10
-81.9900986741
 20
-22.7660972153
 10
-82.0077122965
 20
-22.6551698911
 10
-82.0220574916
 20
-22.5408767991
 10
-82.0328237505
 20
-22.423613897
 10
-82.0397624224
 20
-22.3031074404
 10
-82.0425707152
 20
-22.1794898844
  0
LWPOLYLINE
  5
2C5
100
AcDbEntity
  8
0
100
AcDbPolyline
 62
7
  6
CONTINUOUS
 90
13
 70
0
 43
0.3500000006
 10
-1.1785713937
 20
49.6071434326
 10
-1.1785713937
 20
50.8928594055
 10
-0.9642857051
 20
51.3214283752
 10
-0.5357142924
 20
51.7500018768
 10
-0.3214285684
 20
51.7500018768
 10
0.1071428532
 20
51.3214283752
 10
0.3214285684
 20
50.8928594055
 10
0.3214285684
 20
49.6071434326
 10
0.1071428532
 20
49.178569931
 10
-0.3214285684
 20
48.7500009613
 10
-0.5357142924
 20
48.7500009613
 10
-0.9642857051
 20
49.178569931
 10
-1.1785713937
 20
49.6071434326
  0
LINE
  5
2C6
100
AcDbEntity
  8
RACCORDO
100
AcDbLine
 62
250
  6
CONTINUOUS
 10
-78.7542543753
 20
-0.0000408159
 11
-102.7649040598
 21
0.0001829647
  0
LINE
  5
2C7
100
AcDbEntity
  8
RACCORDO
100
AcDbLine
 62
250
  6
CONTINUOUS
 10
78.7542543753
 20
0.0000408159
 11
102.7649040598
 21
-0.0001829647
  0
LINE
  5
2C8
100
AcDbEntity
  8
RACCORDO
100
AcDbLine
 62
250
  6
CONTINUOUS
 10
-78.7542543753
 20
-0.0000408159
 11
-78.75
 21
-0.0000715817
  0
LINE
  5
2C9
100
AcDbEntity
  8
RACCORDO
100
AcDbLine
 62
250
  6
CONTINUOUS
 10
78.7542543753
 20
0.0000408159
 11
78.75
 21
0.0000715817
  0
LINE
  5
2CA
100
AcDbEntity
  8
RACCORDO
100
AcDbLine
 62
250
  6
CONTINUOUS
 10
-81.2490943578
 20
22.1875526645
 11
-82.0425705202
 21
22.1795107783
  0
LINE
  5
2CB
100
AcDbEntity
  8
RACCORDO
100
AcDbLine
 62
250
  6
CONTINUOUS
 10
79.4217066018
 20
22.2018248874
 11
79.0708560989
 21
22.2004210945
  0
LINE
  5
2CC
100
AcDbEntity
  8
0
100
AcDbLine
 62
7
  6
CONTINUOUS
 10
-78.45
 20
22.5
 11
78.45
 21
22.5
  0
LINE
  5
2CD
100
AcDbEntity
  8
RACCORDO
100
AcDbLine
 62
250
  6
CONTINUOUS
 10
-80.1461188436
 20
22.2011139956
 11
-79.4217112459
 21
22.2018079647
  0
LWPOLYLINE
  5
2CE
100
AcDbEntity
  8
RACCORDO
100
AcDbPolyline
 62
250
  6
CONTINUOUS
 90
3
 70
0
 10
79.0708560989
 20
22.2004210945
 10
78.7533945955
 20
22.2000560599
 10
78.7499999912
 20
22.2000728089
  0
LINE
  5
2CF
100
AcDbEntity
  8
RACCORDO
100
AcDbLine
 62
250
  6
CONTINUOUS
 10
79.662875394
 20
22.2011536816
 11
79.4217066018
 21
22.2018248874
  0
LINE
  5
2D0
100
AcDbEntity
  8
RACCORDO
100
AcDbLine
 62
250
  6
CONTINUOUS
 10
-79.4217112459
 20
22.2018079647
 11
-78.75
 21
22.2000012271
  0
LINE
  5
2D1
100
AcDbEntity
  8
RACCORDO
100
AcDbLine
 62
250
  6
CONTINUOUS
 10
81.2490945033
 20
22.1875356535
 11
82.0425707264
 21
22.1794898856
  0
LINE
  5
2D2
100
AcDbEntity
  8
RACCORDO
100
AcDbLine
 62
250
  6
CONTINUOUS
 10
-80.2914206769
 20
22.1996942211
 11
-80.5233389406
 21
22.1962815339
  0
LWPOLYLINE
  5
2D3
100
AcDbEntity
  8
RACCORDO
100
AcDbPolyline
 62
250
  6
CONTINUOUS
 90
3
 70
0
 10
-80.2914206769
 20
22.1996942211
 10
-80.2203666233
 20
22.2005580948
 10
-80.1461188436
 20
22.2011139956
  0
LINE
  5
2D4
100
AcDbEntity
  8
RACCORDO
100
AcDbLine
 62
250
  6
CONTINUOUS
 10
-80.5233389406
 20
22.1962815339
 11
-81.2490943578
 21
22.1875526645
  0
LINE
  5
2D5
100
AcDbEntity
  8
RACCORDO
100
AcDbLine
 62
250
  6
CONTINUOUS
 10
-78.434679071
 20
25.7411648348
 11
-76.9591278021
 21
25.7507516089
  0
LINE
  5
2D6
100
AcDbEntity
  8
RACCORDO
100
AcDbLine
 62
250
  6
CONTINUOUS
 10
-76.9591278021
 20
25.7507516089
 11
-74.0051853676
 21
25.7567571037
  0
LINE
  5
2D7
100
AcDbEntity
  8
RACCORDO
100
AcDbLine
 62
250
  6
CONTINUOUS
 10
-74.0051853676
 20
25.7567571037
 11
-67.9999999999
 21
25.7603779713
  0
LINE
  5
2D8
100
AcDbEntity
  8
RACCORDO
100
AcDbLine
 62
250
  6
CONTINUOUS
 10
68.0
 20
24.1156246414
 11
78.4486613781
 21
24.1159568126
  0
LINE
  5
2D9
100
AcDbEntity
  8
RACCORDO
100
AcDbLine
 62
250
  6
CONTINUOUS
 10
-68.0
 20
25.7603770104
 11
73.1220120619
 21
25.7573992013
  0
LINE
  5
2DA
100
AcDbEntity
  8
RACCORDO
100
AcDbLine
 62
250
  6
CONTINUOUS
 10
-78.4486553708
 20
24.1159567814
 11
68.0
 21
24.1156249138
  0
LINE
  5
2DB
100
AcDbEntity
  8
RACCORDO
100
AcDbLine
 62
250
  6
CONTINUOUS
 10
73.1220120619
 20
25.7573992013
 11
76.6649177929
 21
25.7519121374
  0
LINE
  5
2DC
100
AcDbEntity
  8
RACCORDO
100
AcDbLine
 62
250
  6
CONTINUOUS
 10
76.6649177929
 20
25.7519121374
 11
78.1198403919
 21
25.743866714
  0
LINE
  5
2DD
100
AcDbEntity
  8
RACCORDO
100
AcDbLine
 62
250
  6
CONTINUOUS
 10
78.1198403919
 20
25.743866714
 11
78.4346908114
 21
25.7411646655
  0
LWPOLYLINE
  5
2DE
100
AcDbEntity
  8
RACCORDO
100
AcDbPolyline
 62
250
  6
CONTINUOUS
 90
73
 70
0
 10
78.4486614109
 20
24.1159571833
 10
78.5101902969
 20
24.1151392897
 10
78.5695873946
 20
24.1123997513
 10
78.6267971461
 20
24.1079345531
 10
78.6816627083
 20
24.1019389402
 10
78.7342644985
 20
24.0945991088
 10
78.7849173791
 20
24.0860604161
 10
78.8335761631
 20
24.0764609927
 10
78.8802581804
 20
24.0659490794
 10
78.925378498
 20
24.0546182058
 10
78.9691260359
 20
24.0425311932
 10
79.0113095575
 20
24.0298136843
 10
79.0517819365
 20
24.0166277549
 10
79.0904645945
 20
24.0031153155
 10
79.1274662039
 20
23.9893348114
 10
79.1629259034
 20
23.9753197453
 10
79.1968464827
 20
23.9611554668
 10
79.2292608988
 20
23.9469143282
 10
79.260348573
 20
23.9325884078
 10
79.2901218659
 20
23.9182417672
 10
79.3186039533
 20
23.9039307614
 10
79.3459831227
 20
23.8896142951
 10
79.3722836885
 20
23.8753394683
 10
79.3975124571
 20
23.8611480996
 10
79.42182293
 20
23.8469733852
 10
79.4450908805
 20
23.8329255536
 10
79.4674672746
 20
23.818964974
 10
79.4894999429
 20
23.8047692537
 10
79.5112195813
 20
23.7903220576
 10
79.5325925892
 20
23.7756563682
 10
79.5540444401
 20
23.7604836252
 10
79.5755561113
 20
23.7447963474
 10
79.5971200737
 20
23.7285849561
 10
79.6191532367
 20
23.7115219419
 10
79.6417068779
 20
23.6935174454
 10
79.6646685831
 20
23.6746046783
 10
79.6881874149
 20
23.6546134453
 10
79.7122244617
 20
23.6335082276
 10
79.736733649
 20
23.6112517776
 10
79.7618350724
 20
23.587653601
 10
79.7875064058
 20
23.5626326213
 10
79.8136489953
 20
23.5361773181
 10
79.8402519366
 20
23.5081894003
 10
79.8673766973
 20
23.4784700257
 10
79.8948044955
 20
23.4471162074
 10
79.9221205894
 20
23.4144936623
 10
79.9493019647
 20
23.3805353987
 10
79.976249862
 20
23.3452625813
 10
80.0024976531
 20
23.3092272766
 10
80.0279299206
 20
23.2725754418
 10
80.0526195332
 20
23.2351872511
 10
80.0764335687
 20
23.1972546357
 10
80.0993333131
 20
23.1588450191
 10
80.1213373594
 20
23.1199329453
 10
80.1424147346
 20
23.0805809733
 10
80.1625493918
 20
23.0408282136
 10
80.1817446662
 20
23.0006804463
 10
80.2000017573
 20
22.9601513369
 10
80.2172511514
 20
22.9194241514
 10
80.2335582952
 20
22.8783621735
 10
80.2490925486
 20
22.836485201
 10
80.2637416756
 20
22.7940702657
 10
80.2775507374
 20
22.7508646186
 10
80.2907961413
 20
22.7055557531
 10
80.3034207112
 20
22.6577650812
 10
80.3151756343
 20
22.607854876
 10
80.325928598
 20
22.5556037046
 10
80.335536064
 20
22.500772221
 10
80.3437614169
 20
22.443626333
 10
80.3503514268
 20
22.3847214478
 10
80.3551426379
 20
22.324279198
 10
80.3580092295
 20
22.2621795768
 10
80.358798159
 20
22.1984868048
  0
LINE
  5
2DF
100
AcDbEntity
  8
RACCORDO
100
AcDbLine
 62
250
  6
CONTINUOUS
 10
80.358797854
 20
22.1984867914
 11
81.2490945033
 21
22.1875356535
  0
LWPOLYLINE
  5
2E0
100
AcDbEntity
  8
RACCORDO
100
AcDbPolyline
 62
250
  6
CONTINUOUS
 90
5
 70
0
 10
80.358798159
 20
22.1984868048
 10
80.291420393
 20
22.199611481
 10
80.2203662118
 20
22.2004185911
 10
80.1461183792
 20
22.2009320994
 10
79.662875394
 20
22.2011536816
  0
LWPOLYLINE
  5
2E1
100
AcDbEntity
  8
RACCORDO
100
AcDbPolyline
 62
250
  6
CONTINUOUS
 90
73
 70
0
 10
78.4346908473
 20
25.7411652955
 10
78.554751753
 20
25.7380967979
 10
78.6705517082
 20
25.7313233803
 10
78.7819547392
 20
25.7212575406
 10
78.888857737
 20
25.7081724907
 10
78.9915060368
 20
25.6925150752
 10
79.0903818013
 20
25.6748927841
 10
79.1849753526
 20
25.655792845
 10
79.2745011263
 20
25.6357206383
 10
79.3588180888
 20
25.615317195
 10
79.4383697948
 20
25.5951765528
 10
79.5140587067
 20
25.5749834587
 10
79.5868647954
 20
25.5538054734
 10
79.6569868853
 20
25.5314593166
 10
79.7242928172
 20
25.5084311245
 10
79.7889090896
 20
25.48480994
 10
79.8507926531
 20
25.4607439012
 10
79.9100119784
 20
25.4363618605
 10
79.9668995089
 20
25.4116756747
 10
80.0214178355
 20
25.386853426
 10
80.0736006432
 20
25.3619722116
 10
80.1238662547
 20
25.3368670194
 10
80.1723406962
 20
25.3115222252
 10
80.2194775547
 20
25.2857659966
 10
80.2662138752
 20
25.2591044903
 10
80.3125309243
 20
25.2314358667
 10
80.3579408187
 20
25.203190753
 10
80.4025934323
 20
25.1746660805
 10
80.446190234
 20
25.1462144268
 10
80.4888392689
 20
25.1176745245
 10
80.5313425007
 20
25.0884863042
 10
80.5737072909
 20
25.0586513995
 10
80.6157659996
 20
25.0282802046
 10
80.6579649642
 20
24.9969554021
 10
80.7001993184
 20
24.9647428081
 10
80.7426084671
 20
24.9314610087
 10
80.7859470265
 20
24.8962701949
 10
80.8304360225
 20
24.8588134248
 10
80.8759143286
 20
24.8191311069
 10
80.9225338723
 20
24.7769129218
 10
80.970203523
 20
24.7320681542
 10
81.0187398899
 20
24.6845708212
 10
81.0681174727
 20
24.6341955196
 10
81.1184719754
 20
24.5805615373
 10
81.169400575
 20
24.5238484431
 10
81.2200959572
 20
24.464709546
 10
81.2705005176
 20
24.4030315532
 10
81.3204362727
 20
24.3388607998
 10
81.3690194939
 20
24.2731936425
 10
81.4160306498
 20
24.206295339
 10
81.4615914827
 20
24.1379773211
 10
81.5054200459
 20
24.0686293956
 10
81.5474241605
 20
23.9984054251
 10
81.5876637712
 20
23.9272284994
 10
81.62611367
 20
23.8551561736
 10
81.6628047987
 20
23.782202851
 10
81.6976338037
 20
23.708536603
 10
81.7303818044
 20
23.6344767256
 10
81.7605353452
 20
23.5606914572
 10
81.7886872504
 20
23.4865360538
 10
81.8162159124
 20
23.4101992268
 10
81.8433120396
 20
23.3313780989
 10
81.8697441635
 20
23.249665151
 10
81.8959703271
 20
23.1629812857
 10
81.9219363663
 20
23.070834522
 10
81.9468090612
 20
22.974067322
 10
81.9697006016
 20
22.8725698158
 10
81.9900986813
 20
22.7660971914
 10
82.0077123033
 20
22.6551698648
 10
82.0220574974
 20
22.5408767736
 10
82.0328237546
 20
22.4236138766
 10
82.039762425
 20
22.3031074284
 10
82.0425707166
 20
22.1794898843
  0
LWPOLYLINE
  5
2E2
100
AcDbEntity
  8
RACCORDO
100
AcDbPolyline
 62
250
  6
CONTINUOUS
 90
3
 70
0
 10
-101.8704774441
 20
37.0350790384
 10
-101.9641146693
 20
37.0344184684
 10
-102.1454116061
 20
37.0321811878
  0
LINE
  5
2E3
100
AcDbEntity
  8
RACCORDO
100
AcDbLine
 62
250
  6
CONTINUOUS
 10
103.0
 20
37.0
 11
102.7709242953
 21
37.0
  0
LINE
  5
2E4
100
AcDbEntity
  8
RACCORDO
100
AcDbLine
 62
250
  6
CONTINUOUS
 10
-102.7709242953
 20
37.0
 11
-103.0
 21
37.0
  0
LINE
  5
2E5
100
AcDbEntity
  8
RACCORDO
100
AcDbLine
 62
250
  6
CONTINUOUS
 10
101.8704772526
 20
37.0350789699
 11
101.9641124465
 21
37.0344183381
  0
LWPOLYLINE
  5
2E6
100
AcDbEntity
  8
RACCORDO
100
AcDbPolyline
 62
250
  6
CONTINUOUS
 90
25
 70
0
 10
-100.0275004315
 20
38.8689146623
 10
-100.1461710388
 20
38.8624596452
 10
-100.2644470241
 20
38.8484585198
 10
-100.3817600161
 20
38.826940329
 10
-100.4976003526
 20
38.7979859554
 10
-100.611500448
 20
38.761719768
 10
-100.7229885295
 20
38.7182699761
 10
-100.8316318564
 20
38.6677832398
 10
-100.9369569724
 20
38.6104801234
 10
-101.038440459
 20
38.5466281798
 10
-101.1356281887
 20
38.4764994884
 10
-101.2281703492
 20
38.4003823479
 10
-101.3157075557
 20
38.3185812837
 10
-101.3978695002
 20
38.2314203893
 10
-101.4743359605
 20
38.1392648474
 10
-101.5448194761
 20
38.0424770394
 10
-101.6090285302
 20
37.9414187291
 10
-101.6666880123
 20
37.8365292628
 10
-101.7175565667
 20
37.7283013751
 10
-101.7614205621
 20
37.6171923745
 10
-101.7981015725
 20
37.503653199
 10
-101.8274583504
 20
37.3881817729
 10
-101.849364114
 20
37.2712588818
 10
-101.8637171308
 20
37.1533690282
 10
-101.8704772525
 20
37.0350789699
  0
LINE
  5
2E7
100
AcDbEntity
  8
RACCORDO
100
AcDbLine
 62
250
  6
CONTINUOUS
 10
-99.3609268006
 20
38.887946578
 11
-99.4951321409
 21
38.8832099235
  0
LWPOLYLINE
  5
2E8
100
AcDbEntity
  8
RACCORDO
100
AcDbPolyline
 62
250
  6
CONTINUOUS
 90
25
 70
0
 10
-100.0
 20
39.7713260911
 10
-100.1810966472
 20
39.7655593804
 10
-100.3614825324
 20
39.7479476444
 10
-100.5403819191
 20
39.7185564658
 10
-100.717019176
 20
39.6775027607
 10
-100.8906379891
 20
39.6249537025
 10
-101.0605042694
 20
39.5611226571
 10
-101.2259254139
 20
39.4862519516
 10
-101.3861391999
 20
39.4006672986
 10
-101.5403457189
 20
39.3047975582
 10
-101.6878429338
 20
39.1991008002
 10
-101.8280530347
 20
39.0840128269
 10
-101.9604134431
 20
38.9600063637
 10
-102.0843556674
 20
38.8276206342
 10
-102.1993537867
 20
38.6874234094
 10
-102.3049491667
 20
38.5399698001
 10
-102.4007023167
 20
38.3858552329
 10
-102.4861713966
 20
38.2257693596
 10
-102.5609581125
 20
38.0604509945
 10
-102.6247407609
 20
37.8906274473
 10
-102.6772556243
 20
37.7170173161
 10
-102.7182751458
 20
37.5403821846
 10
-102.7476287996
 20
37.3614884541
 10
-102.7652009191
 20
37.1811023225
 10
-102.7709242953
 20
37.0
  0
LINE
  5
2E9
100
AcDbEntity
  8
RACCORDO
100
AcDbLine
 62
250
  6
CONTINUOUS
 10
-99.4951321409
 20
38.8832099235
 11
-99.6737567715
 21
38.8777725805
  0
LWPOLYLINE
  5
2EA
100
AcDbEntity
  8
RACCORDO
100
AcDbPolyline
 62
250
  6
CONTINUOUS
 90
11
 70
0
 10
-102.3133708905
 20
37.0287935507
 10
-102.3904480284
 20
37.0267046932
 10
-102.4619885519
 20
37.0243766519
 10
-102.5273516941
 20
37.0218302781
 10
-102.5859520168
 20
37.0190883786
 10
-102.6372646542
 20
37.0161755117
 10
-102.6808300146
 20
37.0131177667
 10
-102.7162578959
 20
37.0099425311
 10
-102.7432309812
 20
37.0066782441
 10
-102.7615076807
 20
37.0033541428
 10
-102.7709242953
 20
37.0
  0
LINE
  5
2EB
100
AcDbEntity
  8
RACCORDO
100
AcDbLine
 62
250
  6
CONTINUOUS
 10
-99.6737567715
 20
38.8777725805
 11
-99.9292040698
 21
38.8711793885
  0
LINE
  5
2EC
100
AcDbEntity
  8
RACCORDO
100
AcDbLine
 62
250
  6
CONTINUOUS
 10
-99.9292040698
 20
38.8711793885
 11
-100.0275004716
 21
38.8689148029
  0
LWPOLYLINE
  5
2ED
100
AcDbEntity
  8
RACCORDO
100
AcDbPolyline
 62
250
  6
CONTINUOUS
 90
3
 70
0
 10
-99.2938447443
 20
38.8897140302
 10
-99.3274449151
 20
38.8889808955
 10
-99.3609268006
 20
38.887946578
  0
LINE
  5
2EE
100
AcDbEntity
  8
RACCORDO
100
AcDbLine
 62
250
  6
CONTINUOUS
 10
-102.1454116061
 20
37.0321811878
 11
-102.3133708905
 21
37.0287935507
  0
LINE
  5
2EF
100
AcDbEntity
  8
RACCORDO
100
AcDbLine
 62
250
  6
CONTINUOUS
 10
-88.3123749632
 20
39.006171213
 11
-90.3589850826
 21
38.9764498445
  0
LINE
  5
2F0
100
AcDbEntity
  8
RACCORDO
100
AcDbLine
 62
250
  6
CONTINUOUS
 10
-99.2262909758
 20
38.890640524
 11
-99.2938447443
 21
38.8897140302
  0
LINE
  5
2F1
100
AcDbEntity
  8
RACCORDO
100
AcDbLine
 62
250
  6
CONTINUOUS
 10
-90.3589850826
 20
38.9764498445
 11
-94.8829986664
 21
38.9248207014
  0
LINE
  5
2F2
100
AcDbEntity
  8
RACCORDO
100
AcDbLine
 62
250
  6
CONTINUOUS
 10
-94.8829986664
 20
38.9248207014
 11
-97.6434039534
 21
38.9011712082
  0
LINE
  5
2F3
100
AcDbEntity
  8
RACCORDO
100
AcDbLine
 62
250
  6
CONTINUOUS
 10
-78.1377954357
 20
39.0936922626
 11
-88.3123749632
 21
39.006171213
  0
LINE
  5
2F4
100
AcDbEntity
  8
RACCORDO
100
AcDbLine
 62
250
  6
CONTINUOUS
 10
-97.6434039534
 20
38.9011712082
 11
-99.2262909758
 21
38.890640524
  0
LINE
  5
2F5
100
AcDbEntity
  8
RACCORDO
100
AcDbLine
 62
250
  6
CONTINUOUS
 10
-74.330474654
 20
39.1033275365
 11
-78.1377954357
 21
39.0936922626
  0
LINE
  5
2F6
100
AcDbEntity
  8
RACCORDO
100
AcDbLine
 62
250
  6
CONTINUOUS
 10
100.0
 20
39.7713260911
 11
99.3025788554
 21
39.7706727088
  0
LINE
  5
2F7
100
AcDbEntity
  8
RACCORDO
100
AcDbLine
 62
250
  6
CONTINUOUS
 10
99.3025788554
 20
39.7706727088
 11
77.640401561
 21
39.7613195875
  0
LINE
  5
2F8
100
AcDbEntity
  8
0
100
AcDbLine
 62
7
  6
CONTINUOUS
 10
100.0
 20
40.0
 11
-100.0
 21
40.0
  0
LINE
  5
2F9
100
AcDbEntity
  8
RACCORDO
100
AcDbLine
 62
250
  6
CONTINUOUS
 10
77.640401561
 20
39.7613195875
 11
-79.0807933983
 21
39.7615992444
  0
LINE
  5
2FA
100
AcDbEntity
  8
RACCORDO
100
AcDbLine
 62
250
  6
CONTINUOUS
 10
-79.0807933983
 20
39.7615992444
 11
-93.1549933617
 21
39.7679745839
  0
LINE
  5
2FB
100
AcDbEntity
  8
RACCORDO
100
AcDbLine
 62
250
  6
CONTINUOUS
 10
68.0
 20
39.0969186984
 11
-69.5749290484
 21
39.0985289983
  0
LINE
  5
2FC
100
AcDbEntity
  8
RACCORDO
100
AcDbLine
 62
250
  6
CONTINUOUS
 10
-93.1549933617
 20
39.7679745839
 11
-99.732093174
 21
39.7709844441
  0
LINE
  5
2FD
100
AcDbEntity
  8
RACCORDO
100
AcDbLine
 62
250
  6
CONTINUOUS
 10
-99.732093174
 20
39.7709844441
 11
-100.0
 21
39.7713260911
  0
LINE
  5
2FE
100
AcDbEntity
  8
RACCORDO
100
AcDbLine
 62
250
  6
CONTINUOUS
 10
-69.5749290484
 20
39.0985289983
 11
-74.330474654
 21
39.1033275365
  0
LINE
  5
2FF
100
AcDbEntity
  8
RACCORDO
100
AcDbLine
 62
250
  6
CONTINUOUS
 10
76.6481874781
 20
39.0996345633
 11
68.0
 21
39.0969186866
  0
LINE
  5
300
100
AcDbEntity
  8
RACCORDO
100
AcDbLine
 62
250
  6
CONTINUOUS
 10
81.1359800686
 20
39.0741662178
 11
76.6481874781
 21
39.0996345633
  0
LINE
  5
301
100
AcDbEntity
  8
RACCORDO
100
AcDbLine
 62
250
  6
CONTINUOUS
 10
99.2238831146
 20
38.8903484763
 11
96.6199120416
 21
38.9090579738
  0
LINE
  5
302
100
AcDbEntity
  8
RACCORDO
100
AcDbLine
 62
250
  6
CONTINUOUS
 10
96.6199120416
 20
38.9090579738
 11
96.0519897695
 21
38.9138296875
  0
LINE
  5
303
100
AcDbEntity
  8
RACCORDO
100
AcDbLine
 62
250
  6
CONTINUOUS
 10
96.0519897695
 20
38.9138296875
 11
93.6317477224
 21
38.9383735768
  0
LINE
  5
304
100
AcDbEntity
  8
RACCORDO
100
AcDbLine
 62
250
  6
CONTINUOUS
 10
93.6317477224
 20
38.9383735768
 11
92.7769641484
 21
38.9484875192
  0
LINE
  5
305
100
AcDbEntity
  8
RACCORDO
100
AcDbLine
 62
250
  6
CONTINUOUS
 10
88.4328950252
 20
39.0045483038
 11
81.1359800686
 21
39.0741662178
  0
LINE
  5
306
100
AcDbEntity
  8
RACCORDO
100
AcDbLine
 62
250
  6
CONTINUOUS
 10
92.7769641484
 20
38.9484875192
 11
92.1575385762
 21
38.9560787634
  0
LINE
  5
307
100
AcDbEntity
  8
RACCORDO
100
AcDbLine
 62
250
  6
CONTINUOUS
 10
101.9641124465
 20
37.0344183381
 11
102.145405041
 21
37.0321809734
  0
LINE
  5
308
100
AcDbEntity
  8
RACCORDO
100
AcDbLine
 62
250
  6
CONTINUOUS
 10
92.1575385762
 20
38.9560787634
 11
88.4328950252
 21
39.0045483038
  0
LWPOLYLINE
  5
309
100
AcDbEntity
  8
RACCORDO
100
AcDbPolyline
 62
250
  6
CONTINUOUS
 90
12
 70
0
 10
102.145405041
 20
37.0321809734
 10
102.3133598629
 20
37.0287932984
 10
102.3904348179
 20
37.0267044367
 10
102.4619732385
 20
37.0243763999
 10
102.5273343911
 20
37.0218300383
 10
102.5859328687
 20
37.019088158
 10
102.6372438344
 20
37.0161753164
 10
102.6808077217
 20
37.0131176021
 10
102.7162343507
 20
37.0099424017
 10
102.7432064229
 20
37.0066781539
 10
102.7614823632
 20
37.003354095
 10
102.7708984832
 20
36.9999999972
  0
LINE
  5
30A
100
AcDbEntity
  8
RACCORDO
100
AcDbLine
 62
250
  6
CONTINUOUS
 10
100.0275004576
 20
38.8689147535
 11
99.694523582
 21
38.8771834919
  0
LWPOLYLINE
  5
30B
100
AcDbEntity
  8
RACCORDO
100
AcDbPolyline
 62
250
  6
CONTINUOUS
 90
4
 70
0
 10
99.694523582
 20
38.8771834919
 10
99.4000852664
 20
38.8864846409
 10
99.3099028607
 20
38.8888806561
 10
99.2238831146
 20
38.8903484763
  0
LWPOLYLINE
  5
30C
100
AcDbEntity
  8
0
100
AcDbPolyline
 62
7
  6
CONTINUOUS
 90
7
 70
0
 43
0.3500000006
 10
-2.0357142191
 20
48.7500009613
 10
-3.5357143936
 20
48.7500009613
 10
-2.0357142191
 20
50.8928594055
 10
-2.0357142191
 20
51.3214283752
 10
-2.464285738
 20
51.7500018768
 10
-3.1071428747
 20
51.7500018768
 10
-3.5357143936
 20
51.1071438904
  0
LINE
  5
30D
100
AcDbEntity
  8
0
100
AcDbLine
 62
7
  6
CONTINUOUS
 10
80.546695
 20
-28.800007
 11
79.965441
 21
-27.678657
  0
LINE
  5
30E
100
AcDbEntity
  8
0
100
AcDbLine
 62
7
  6
CONTINUOUS
 10
80.5825957906
 20
-27.6089026669
 11
81.2
 21
-28.8
  0
LINE
  5
30F
100
AcDbEntity
  8
0
100
AcDbLine
 62
7
  6
CONTINUOUS
 10
69.768751
 20
-28.800022
 11
68.837619
 21
-25.899884
  0
LINE
  5
310
100
AcDbEntity
  8
0
100
AcDbLine
 62
7
  6
CONTINUOUS
 10
69.417648
 20
-25.899884
 11
70.05878
 21
-27.89678
  0
LINE
  5
311
100
AcDbEntity
  8
0
100
AcDbLine
 62
7
  6
CONTINUOUS
 10
77.552373
 20
-27.678657
 11
77.271268
 21
-26.803118
  0
LINE
  5
312
100
AcDbEntity
  8
0
100
AcDbLine
 62
7
  6
CONTINUOUS
 10
77.912408
 20
-28.800007
 11
77.729302
 21
-28.229679
  0
LINE
  5
313
100
AcDbEntity
  8
0
100
AcDbLine
 62
7
  6
CONTINUOUS
 10
77.561297
 20
-25.899877
 11
78.492437
 21
-28.800015
  0
LINE
  5
314
100
AcDbEntity
  8
0
100
AcDbLine
 62
7
  6
CONTINUOUS
 10
73.955031
 20
-28.800015
 11
73.406656
 21
-26.887573
  0
LINE
  5
315
100
AcDbEntity
  8
0
100
AcDbLine
 62
7
  6
CONTINUOUS
 10
73.703471
 20
-25.899884
 11
74.245039
 21
-27.788552
  0
LINE
  5
316
100
AcDbEntity
  8
0
100
AcDbLine
 62
7
  6
CONTINUOUS
 10
71.666605
 20
-28.800022
 11
71.666612
 21
-25.899884
  0
LINE
  5
317
100
AcDbEntity
  8
0
100
AcDbLine
 62
7
  6
CONTINUOUS
 10
72.246634
 20
-25.899884
 11
72.246627
 21
-28.800015
  0
LINE
  5
318
100
AcDbEntity
  8
0
100
AcDbLine
 62
7
  6
CONTINUOUS
 10
72.826634
 20
-28.800015
 11
72.826634
 21
-25.899884
  0
LINE
  5
319
100
AcDbEntity
  8
0
100
AcDbLine
 62
7
  6
CONTINUOUS
 10
73.406656
 20
-26.887573
 11
73.406656
 21
-28.800015
  0
LINE
  5
31A
100
AcDbEntity
  8
RACCORDO
100
AcDbLine
 62
250
  6
CONTINUOUS
 10
68.0
 20
22.5
 11
68.0
 21
39.7614224092
  0
LWPOLYLINE
  5
31B
100
AcDbEntity
  8
RACCORDO
100
AcDbPolyline
 62
250
  6
CONTINUOUS
 90
3
 70
0
 10
68.0002699701
 20
-39.7614224071
 10
68.0000363176
 20
-22.5043290298
 10
68.000063991
 20
-22.5
  0
LWPOLYLINE
  5
31C
100
AcDbEntity
  8
RACCORDO
100
AcDbPolyline
 62
250
  6
CONTINUOUS
 90
4
 70
0
 10
78.4486614109
 20
24.1159571833
 10
78.450496741
 20
24.0487551731
 10
78.451867855
 20
23.9777884024
 10
78.4528061859
 20
23.9035418357
  0
LWPOLYLINE
  5
31D
100
AcDbEntity
  8
RACCORDO
100
AcDbPolyline
 62
250
  6
CONTINUOUS
 90
6
 70
0
 10
78.4577448765
 20
23.5015276132
 10
78.4584000443
 20
23.4188557275
 10
78.4564932953
 20
23.3367575849
 10
78.4536368319
 20
23.2557804118
 10
78.451628914
 20
23.1764658148
 10
78.4509492078
 20
23.0993584857
  0
LINE
  5
31E
100
AcDbEntity
  8
RACCORDO
100
AcDbLine
 62
250
  6
CONTINUOUS
 10
78.4486613885
 20
24.1159588966
 11
78.4346908473
 21
25.7411652955
  0
LINE
  5
31F
100
AcDbEntity
  8
0
100
AcDbLine
 62
7
  6
CONTINUOUS
 10
75.083421
 20
-28.800015
 11
75.083414
 21
-26.887573
  0
LINE
  5
320
100
AcDbEntity
  8
0
100
AcDbLine
 62
7
  6
CONTINUOUS
 10
75.663443
 20
-25.899884
 11
75.663443
 21
-28.800015
  0
LINE
  5
321
100
AcDbEntity
  8
0
100
AcDbLine
 62
7
  6
CONTINUOUS
 10
78.75
 20
22.2
 11
78.75
 21
-22.2
  0
LINE
  5
322
100
AcDbEntity
  8
0
100
AcDbLine
 62
7
  6
CONTINUOUS
 10
78.879115
 20
-28.800007
 11
78.879115
 21
-25.899877
  0
LINE
  5
323
100
AcDbEntity
  8
0
100
AcDbLine
 62
7
  6
CONTINUOUS
 10
79.45114
 20
-26.436398
 11
79.451148
 21
-27.142128
  0
LINE
  5
324
100
AcDbEntity
  8
0
100
AcDbLine
 62
7
  6
CONTINUOUS
 10
79.45921
 20
-27.67865
 11
79.459144
 21
-28.800007
  0
LWPOLYLINE
  5
325
100
AcDbEntity
  8
RACCORDO
100
AcDbPolyline
 62
250
  6
CONTINUOUS
 90
3
 70
0
 10
78.4510320678
 20
-23.0993581337
 10
78.4500517845
 20
-22.5034222408
 10
78.4500679396
 20
-22.4999999923
  0
LWPOLYLINE
  5
326
100
AcDbEntity
  8
RACCORDO
100
AcDbPolyline
 62
250
  6
CONTINUOUS
 90
4
 70
0
 10
78.4528061859
 20
23.9035418357
 10
78.4528975216
 20
23.7472490577
 10
78.453408912
 20
23.6662897666
 10
78.4577448765
 20
23.5015276132
  0
LINE
  5
327
100
AcDbEntity
  8
RACCORDO
100
AcDbLine
 62
250
  6
CONTINUOUS
 10
80.358797854
 20
22.1984867914
 11
80.3587978985
 21
-22.1984975499
  0
LINE
  5
328
100
AcDbEntity
  8
RACCORDO
100
AcDbLine
 62
250
  6
CONTINUOUS
 10
78.4509492078
 20
23.0993584857
 11
78.4500039487
 21
22.5
  0
LINE
  5
329
100
AcDbEntity
  8
RACCORDO
100
AcDbLine
 62
250
  6
CONTINUOUS
 10
78.4528897201
 20
-23.747247886
 11
78.4532753278
 21
-23.666289892
  0
LINE
  5
32A
100
AcDbEntity
  8
RACCORDO
100
AcDbLine
 62
250
  6
CONTINUOUS
 10
78.4486553707
 20
-24.1159567792
 11
78.4346790711
 21
-25.7411648199
  0
LWPOLYLINE
  5
32B
100
AcDbEntity
  8
RACCORDO
100
AcDbPolyline
 62
250
  6
CONTINUOUS
 90
76
 70
0
 10
80.3587982037
 20
-22.1984975759
 10
80.3579747452
 20
-22.2632864024
 10
80.3550231628
 20
-22.3261416674
 10
80.3501318488
 20
-22.3869983056
 10
80.3434690024
 20
-22.4459037136
 10
80.3352251768
 20
-22.5027142801
 10
80.3256428785
 20
-22.5570999097
 10
80.3149701513
 20
-22.6087858621
 10
80.3033549694
 20
-22.6580263247
 10
80.2908669985
 20
-22.7052964246
 10
80.2777186653
 20
-22.7503115267
 10
80.2639753833
 20
-22.793366571
 10
80.2493461912
 20
-22.8357802214
 10
80.2337652635
 20
-22.8778264455
 10
80.2173439793
 20
-22.9191987577
 10
80.1999328215
 20
-22.9603085518
 10
80.1814539198
 20
-23.0013061277
 10
80.1619779057
 20
-23.0419881629
 10
80.1415561815
 20
-23.0822269856
 10
80.1201871067
 20
-23.1220197655
 10
80.0978906434
 20
-23.1613254525
 10
80.0747698673
 20
-23.1999687886
 10
80.0508165203
 20
-23.2379819669
 10
80.0260801788
 20
-23.2753029686
 10
80.0007824154
 20
-23.3116357272
 10
79.9748980181
 20
-23.3470719899
 10
79.9485304685
 20
-23.3815211949
 10
79.9221506249
 20
-23.4144570493
 10
79.895876222
 20
-23.445862996
 10
79.8697355444
 20
-23.475826238
 10
79.8441201519
 20
-23.5040256695
 10
79.819286562
 20
-23.5303380058
 10
79.7951469888
 20
-23.5550050952
 10
79.7715810808
 20
-23.578262818
 10
79.7486815613
 20
-23.6001232704
 10
79.7264696302
 20
-23.6206652165
 10
79.7046887269
 20
-23.6401995088
 10
79.68335046
 20
-23.6587768212
 10
79.6625119863
 20
-23.6764048368
 10
79.6419603974
 20
-23.6933051015
 10
79.6217207171
 20
-23.7094977571
 10
79.6018113355
 20
-23.7250005028
 10
79.5819919301
 20
-23.7400107779
 10
79.5623030777
 20
-23.7545151033
 10
79.5427292761
 20
-23.7685453713
 10
79.5229289296
 20
-23.7823439575
 10
79.5028858351
 20
-23.7959183187
 10
79.4826210764
 20
-23.8092523415
 10
79.4618325197
 20
-23.8225284734
 10
79.4405365179
 20
-23.8357113893
 10
79.4187086721
 20
-23.8488048106
 10
79.3959691538
 20
-23.8620228673
 10
79.3721747119
 20
-23.8754041676
 10
79.3474406096
 20
-23.8888391739
 10
79.3217652613
 20
-23.9023033145
 10
79.2952108685
 20
-23.9157271361
 10
79.2676921215
 20
-23.9291073244
 10
79.2389813379
 20
-23.9425065603
 10
79.2090679077
 20
-23.9558695146
 10
79.1779323665
 20
-23.9691450089
 10
79.1453242789
 20
-23.9823757955
 10
79.1112109602
 20
-23.9954940625
 10
79.0755907381
 20
-24.0084182513
 10
79.0382517021
 20
-24.0211412927
 10
78.9990752564
 20
-24.0336071741
 10
78.9581472875
 20
-24.0456712159
 10
78.9155653546
 20
-24.0571820551
 10
78.8714696686
 20
-24.0680199169
 10
78.8257165823
 20
-24.0781039049
 10
78.7779864853
 20
-24.0873187641
 10
78.7282482298
 20
-24.095519659
 10
78.6765583056
 20
-24.1025682198
 10
78.622737549
 20
-24.1083112261
 10
78.5667502822
 20
-24.1125748851
 10
78.508705503
 20
-24.1151835985
 10
78.4486553861
 20
-24.1159571669
  0
LWPOLYLINE
  5
32C
100
AcDbEntity
  8
RACCORDO
100
AcDbPolyline
 62
250
  6
CONTINUOUS
 90
7
 70
0
 10
78.4532753278
 20
-23.666289892
 10
78.4565706761
 20
-23.5015376672
 10
78.457031946
 20
-23.4188689786
 10
78.4555120997
 20
-23.3367663491
 10
78.453253096
 20
-23.25578324
 10
78.4516384942
 20
-23.1764658939
 10
78.4510320678
 20
-23.0993581337
  0
LWPOLYLINE
  5
32D
100
AcDbEntity
  8
RACCORDO
100
AcDbPolyline
 62
250
  6
CONTINUOUS
 90
5
 70
0
 10
78.4486553861
 20
-24.1159571669
 10
78.4504584744
 20
-24.0487541583
 10
78.4518019067
 20
-23.977786746
 10
78.4527170306
 20
-23.9035399424
 10
78.4528897201
 20
-23.747247886
  0
LINE
  5
32E
100
AcDbEntity
  8
0
100
AcDbLine
 62
7
  6
CONTINUOUS
 10
74.245039
 20
-27.788552
 11
74.786606
 21
-25.899884
  0
LINE
  5
32F
100
AcDbEntity
  8
0
100
AcDbLine
 62
7
  6
CONTINUOUS
 10
75.083414
 20
-26.887573
 11
74.535039
 21
-28.800007
  0
LINE
  5
330
100
AcDbEntity
  8
0
100
AcDbLine
 62
7
  6
CONTINUOUS
 10
70.05878
 20
-27.89678
 11
70.699905
 21
-25.899884
  0
LINE
  5
331
100
AcDbEntity
  8
0
100
AcDbLine
 62
7
  6
CONTINUOUS
 10
71.279934
 20
-25.899884
 11
70.348794
 21
-28.800015
  0
LINE
  5
332
100
AcDbEntity
  8
0
100
AcDbLine
 62
7
  6
CONTINUOUS
 10
76.050122
 20
-28.800015
 11
76.981247
 21
-25.899877
  0
LINE
  5
333
100
AcDbEntity
  8
0
100
AcDbLine
 62
7
  6
CONTINUOUS
 10
77.271268
 20
-26.803118
 11
76.990179
 21
-27.678657
  0
LINE
  5
334
100
AcDbEntity
  8
0
100
AcDbLine
 62
7
  6
CONTINUOUS
 10
76.813257
 20
-28.229679
 11
76.630144
 21
-28.800007
  0
LINE
  5
335
100
AcDbEntity
  8
RACCORDO
100
AcDbLine
 62
250
  6
CONTINUOUS
 10
82.0425707264
 20
22.1794898856
 11
82.0502831169
 21
20.1123142841
  0
LINE
  5
336
100
AcDbEntity
  8
RACCORDO
100
AcDbLine
 62
250
  6
CONTINUOUS
 10
82.0502831169
 20
20.1123142841
 11
82.0600105283
 21
12.1083887943
  0
LINE
  5
337
100
AcDbEntity
  8
RACCORDO
100
AcDbLine
 62
250
  6
CONTINUOUS
 10
82.0600105283
 20
12.1083887943
 11
82.0576781132
 21
-14.8957334019
  0
LINE
  5
338
100
AcDbEntity
  8
RACCORDO
100
AcDbLine
 62
250
  6
CONTINUOUS
 10
82.0576781132
 20
-14.8957334019
 11
82.045333873
 21
-21.6588511993
  0
LINE
  5
339
100
AcDbEntity
  8
RACCORDO
100
AcDbLine
 62
250
  6
CONTINUOUS
 10
82.045333873
 20
-21.6588511993
 11
82.0425705496
 21
-22.179510784
  0
LWPOLYLINE
  5
33A
100
AcDbEntity
  8
RACCORDO
100
AcDbPolyline
 62
250
  6
CONTINUOUS
 90
76
 70
0
 10
82.0425705046
 20
-22.1795107785
 10
82.0396704611
 20
-22.3052479889
 10
82.0325455697
 20
-22.4272207059
 10
82.0215673304
 20
-22.5453042201
 10
82.0070745842
 20
-22.6596273712
 10
81.9894345864
 20
-22.7699139102
 10
81.9691082287
 20
-22.8754747235
 10
81.9464053653
 20
-22.9757813707
 10
81.921826747
 20
-23.0712058223
 10
81.8961078117
 20
-23.1624341373
 10
81.8700235511
 20
-23.2487111648
 10
81.8436818067
 20
-23.3302399833
 10
81.8166384194
 20
-23.4090071853
 10
81.7890593944
 20
-23.485552993
 10
81.7607225959
 20
-23.560213179
 10
81.7302637191
 20
-23.6347280377
 10
81.6970977039
 20
-23.709690403
 10
81.6617549384
 20
-23.7843545467
 10
81.624549044
 20
-23.8581820119
 10
81.5855677583
 20
-23.9310423828
 10
81.5447849798
 20
-24.0029317538
 10
81.5023635589
 20
-24.0735870644
 10
81.458268081
 20
-24.1430838873
 10
81.4126129602
 20
-24.2112746231
 10
81.3658481001
 20
-24.2775842663
 10
81.3179352431
 20
-24.3421544964
 10
81.269070815
 20
-24.4048220396
 10
81.2201530321
 20
-24.4646416283
 10
81.171395367
 20
-24.5215750043
 10
81.1228585428
 20
-24.5757762894
 10
81.075304179
 20
-24.6266834655
 10
81.0292022555
 20
-24.674075475
 10
80.9843753943
 20
-24.7183985065
 10
80.9406177523
 20
-24.7601120778
 10
80.8981072147
 20
-24.7992369483
 10
80.8569026927
 20
-24.8358871655
 10
80.8165659946
 20
-24.8706198521
 10
80.7771474398
 20
-24.9034914849
 10
80.7386085046
 20
-24.9346524485
 10
80.7003340656
 20
-24.9647416808
 10
80.662235433
 20
-24.9938590072
 10
80.624335711
 20
-25.0220398798
 10
80.5861415873
 20
-25.0497828086
 10
80.547653277
 20
-25.0771053861
 10
80.5089334548
 20
-25.1039464142
 10
80.4695228307
 20
-25.1306663854
 10
80.4294380999
 20
-25.1572508041
 10
80.3887207092
 20
-25.183619838
 10
80.3469088406
 20
-25.2100065236
 10
80.3040067965
 20
-25.2364992632
 10
80.2603249897
 20
-25.2627397431
 10
80.2159021791
 20
-25.2882434536
 10
80.1711487256
 20
-25.3125402071
 10
80.1258969122
 20
-25.3359462482
 10
80.079301649
 20
-25.3591267967
 10
80.0308695822
 20
-25.3823735454
 10
79.9804859999
 20
-25.4055771615
 10
79.9278505505
 20
-25.4287492041
 10
79.8730939991
 20
-25.4517186824
 10
79.8162390919
 20
-25.4743694487
 10
79.75680899
 20
-25.496752751
 10
79.6947170595
 20
-25.5187497344
 10
79.6300004649
 20
-25.5402319893
 10
79.562384932
 20
-25.5611790629
 10
79.4919575251
 20
-25.5811069449
 10
79.4184451973
 20
-25.6002196476
 10
79.3407703318
 20
-25.6195025064
 10
79.2579411893
 20
-25.6393377353
 10
79.1698098713
 20
-25.6589766187
 10
79.0767989934
 20
-25.6775692054
 10
78.9797142114
 20
-25.6945455704
 10
78.8789124729
 20
-25.7095535606
 10
78.7740852845
 20
-25.7220751175
 10
78.6650492399
 20
-25.7317171552
 10
78.551865774
 20
-25.7382079997
 10
78.4346790958
 20
-25.7411652632
  0
LINE
  5
33B
100
AcDbEntity
  8
0
100
AcDbLine
 62
7
  6
CONTINUOUS
 10
103.0
 20
3.6749773271
 11
102.8951844414
 21
3.5
  0
LINE
  5
33C
100
AcDbEntity
  8
0
100
AcDbLine
 62
7
  6
CONTINUOUS
 10
102.8951844414
 20
-3.5
 11
103.0
 21
-3.6749773271
  0
LWPOLYLINE
  5
33D
100
AcDbEntity
  8
RACCORDO
100
AcDbPolyline
 62
250
  6
CONTINUOUS
 90
25
 70
0
 10
101.8704772526
 20
37.0350789699
 10
101.8637171272
 20
37.1533690474
 10
101.8493641045
 20
37.2712589383
 10
101.8274583367
 20
37.3881818463
 10
101.7981015557
 20
37.5036532687
 10
101.7614205425
 20
37.6171924322
 10
101.7175565442
 20
37.7283014241
 10
101.6666879868
 20
37.8365293093
 10
101.6090285017
 20
37.9414187759
 10
101.5448194449
 20
38.0424770859
 10
101.474335927
 20
38.1392648918
 10
101.3978694646
 20
38.2314204304
 10
101.3157075177
 20
38.3185813214
 10
101.2281703089
 20
38.4003823824
 10
101.1356281465
 20
38.47649952
 10
101.0384404163
 20
38.5466282086
 10
100.9369569306
 20
38.6104801491
 10
100.8316318152
 20
38.6677832622
 10
100.7229884859
 20
38.7182699954
 10
100.6115003967
 20
38.7617197845
 10
100.4976002939
 20
38.797985969
 10
100.38175996
 20
38.8269403395
 10
100.2644469903
 20
38.8484585262
 10
100.1461710357
 20
38.8624596475
 10
100.0275004315
 20
38.8689146623
  0
LINE
  5
33E
100
AcDbEntity
  8
RACCORDO
100
AcDbLine
 62
250
  6
CONTINUOUS
 10
101.9028131833
 20
36.1395977769
 11
101.8959221384
 21
36.2739123132
  0
LINE
  5
33F
100
AcDbEntity
  8
RACCORDO
100
AcDbLine
 62
250
  6
CONTINUOUS
 10
101.8959221384
 20
36.2739123132
 11
101.8922465498
 21
36.3571267341
  0
LINE
  5
340
100
AcDbEntity
  8
RACCORDO
100
AcDbLine
 62
250
  6
CONTINUOUS
 10
101.8922465498
 20
36.3571267341
 11
101.8875096146
 21
36.4762661204
  0
LINE
  5
341
100
AcDbEntity
  8
RACCORDO
100
AcDbLine
 62
250
  6
CONTINUOUS
 10
101.8875096146
 20
36.4762661204
 11
101.8815357386
 21
36.6463093793
  0
LWPOLYLINE
  5
342
100
AcDbEntity
  8
RACCORDO
100
AcDbPolyline
 62
250
  6
CONTINUOUS
 90
25
 70
0
 10
102.7709242953
 20
37.0
 10
102.7652009192
 20
37.1811023225
 10
102.7476287996
 20
37.3614884541
 10
102.7182751459
 20
37.5403821846
 10
102.6772556244
 20
37.7170173161
 10
102.6247407609
 20
37.8906274473
 10
102.5609581125
 20
38.0604509945
 10
102.4861713966
 20
38.2257693596
 10
102.4007023167
 20
38.3858552329
 10
102.3049491667
 20
38.5399698001
 10
102.1993537867
 20
38.6874234094
 10
102.0843556674
 20
38.8276206342
 10
101.9604134431
 20
38.9600063637
 10
101.8280530347
 20
39.0840128269
 10
101.6878429338
 20
39.1991008002
 10
101.5403457189
 20
39.3047975582
 10
101.3861391999
 20
39.4006672986
 10
101.2259254139
 20
39.4862519516
 10
101.0605042694
 20
39.5611226571
 10
100.8906379891
 20
39.6249537025
 10
100.717019176
 20
39.6775027607
 10
100.5403819191
 20
39.7185564657
 10
100.3614825324
 20
39.7479476444
 10
100.1810966472
 20
39.7655593804
 10
100.0
 20
39.7713260911
  0
LWPOLYLINE
  5
343
100
AcDbEntity
  8
RACCORDO
100
AcDbPolyline
 62
250
  6
CONTINUOUS
 90
9
 70
0
 10
100.0191242445
 20
39.461623628
 10
100.0171275687
 20
39.5271450407
 10
100.0149771026
 20
39.5858904232
 10
100.012692155
 20
39.6373321574
 10
100.010293243
 20
39.6810082228
 10
100.007801907
 20
39.7165263455
 10
100.0052405177
 20
39.7435675219
 10
100.0026320746
 20
39.7618888833
 10
100.0
 20
39.7713258776
  0
LINE
  5
344
100
AcDbEntity
  8
RACCORDO
100
AcDbLine
 62
250
  6
CONTINUOUS
 10
101.8815357386
 20
36.6463093793
 11
101.8754145292
 21
36.8482272628
  0
LINE
  5
345
100
AcDbEntity
  8
RACCORDO
100
AcDbLine
 62
250
  6
CONTINUOUS
 10
101.8754145292
 20
36.8482272628
 11
101.8704774442
 21
37.0350790384
  0
LINE
  5
346
100
AcDbEntity
  8
RACCORDO
100
AcDbLine
 62
250
  6
CONTINUOUS
 10
100.0225860556
 20
39.3126621899
 11
100.0191242445
 21
39.461623628
  0
LINE
  5
347
100
AcDbEntity
  8
RACCORDO
100
AcDbLine
 62
250
  6
CONTINUOUS
 10
100.0252384885
 20
39.1443456432
 11
100.0225860556
 21
39.3126621899
  0
LWPOLYLINE
  5
348
100
AcDbEntity
  8
RACCORDO
100
AcDbPolyline
 62
250
  6
CONTINUOUS
 90
3
 70
0
 10
100.0275004576
 20
38.8689147535
 10
100.0269865073
 20
38.9627073073
 10
100.0252384885
 20
39.1443456432
  0
LWPOLYLINE
  5
349
100
AcDbEntity
  8
RACCORDO
100
AcDbPolyline
 62
250
  6
CONTINUOUS
 90
8
 70
0
 10
101.9872001256
 20
25.411094118
 10
101.9059843879
 20
35.9766640652
 10
101.9058611663
 20
36.0046274072
 10
101.9056099545
 20
36.0321427115
 10
101.9052239667
 20
36.059281142
 10
101.9047102495
 20
36.086094379
 10
101.903945737
 20
36.112866209
 10
101.9028131833
 20
36.1395977769
  0
LINE
  5
34A
100
AcDbEntity
  8
RACCORDO
100
AcDbLine
 62
250
  6
CONTINUOUS
 10
100.0
 20
-39.7713260911
 11
100.0
 21
-40.0
  0
LINE
  5
34B
100
AcDbEntity
  8
RACCORDO
100
AcDbLine
 62
250
  6
CONTINUOUS
 10
100.0
 20
39.7713260911
 11
100.0
 21
40.0
  0
LINE
  5
34C
100
AcDbEntity
  8
RACCORDO
100
AcDbLine
 62
250
  6
CONTINUOUS
 10
102.7709242953
 20
-37.0
 11
102.7648315796
 21
-14.822316946
  0
LINE
  5
34D
100
AcDbEntity
  8
0
100
AcDbLine
 62
7
  6
CONTINUOUS
 10
102.8951844414
 20
3.5
 11
102.8951844414
 21
-3.5
  0
LINE
  5
34E
100
AcDbEntity
  8
0
100
AcDbLine
 62
7
  6
CONTINUOUS
 10
103.0
 20
-37.0000000008
 11
103.0
 21
-3.6749773271
  0
LINE
  5
34F
100
AcDbEntity
  8
0
100
AcDbLine
 62
7
  6
CONTINUOUS
 10
103.0
 20
3.6749773271
 11
103.0
 21
37.0000000008
  0
LINE
  5
350
100
AcDbEntity
  8
RACCORDO
100
AcDbLine
 62
250
  6
CONTINUOUS
 10
102.7648315796
 20
-14.822316946
 11
102.7662159279
 21
25.6986471663
  0
LINE
  5
351
100
AcDbEntity
  8
RACCORDO
100
AcDbLine
 62
250
  6
CONTINUOUS
 10
102.0173597928
 20
1.9042259301
 11
101.9872001256
 21
25.411094118
  0
LINE
  5
352
100
AcDbEntity
  8
RACCORDO
100
AcDbLine
 62
250
  6
CONTINUOUS
 10
102.7662159279
 20
25.6986471663
 11
102.7698875037
 21
36.2331892271
  0
LINE
  5
353
100
AcDbEntity
  8
RACCORDO
100
AcDbLine
 62
250
  6
CONTINUOUS
 10
102.7698875037
 20
36.2331892271
 11
102.7709242953
 21
37.0
  0
LINE
  5
354
100
AcDbEntity
  8
RACCORDO
100
AcDbLine
 62
250
  6
CONTINUOUS
 10
101.9994729975
 20
-22.6424308814
 11
102.0173597928
 21
1.9042259301
  0
LINE
  5
355
100
AcDbEntity
  8
RACCORDO
100
AcDbLine
 62
250
  6
CONTINUOUS
 10
100.0275004315
 20
-38.8689146623
 11
100.0262309713
 21
-39.0547904253
  0
LINE
  5
356
100
AcDbEntity
  8
RACCORDO
100
AcDbLine
 62
250
  6
CONTINUOUS
 10
101.9486870969
 20
-31.1160254828
 11
101.9994729975
 21
-22.6424308814
  0
LINE
  5
357
100
AcDbEntity
  8
RACCORDO
100
AcDbLine
 62
250
  6
CONTINUOUS
 10
101.9058727122
 20
-36.0020182153
 11
101.9076805114
 21
-35.7513814117
  0
LINE
  5
358
100
AcDbEntity
  8
RACCORDO
100
AcDbLine
 62
250
  6
CONTINUOUS
 10
101.9076805114
 20
-35.7513814117
 11
101.9486870969
 21
-31.1160254828
  0
LINE
  5
359
100
AcDbEntity
  8
RACCORDO
100
AcDbLine
 62
250
  6
CONTINUOUS
 10
100.0262309713
 20
-39.0547904253
 11
100.0240212889
 21
-39.2305542091
  0
LWPOLYLINE
  5
35A
100
AcDbEntity
  8
RACCORDO
100
AcDbPolyline
 62
250
  6
CONTINUOUS
 90
11
 70
0
 10
100.0240212889
 20
-39.2305542091
 10
100.0209505826
 20
-39.3899058501
 10
100.0191256355
 20
-39.4616133989
 10
100.0171289159
 20
-39.5271334692
 10
100.0149783564
 20
-39.5858776063
 10
100.0126932717
 20
-39.637318212
 10
100.0102941847
 20
-39.6809932834
 10
100.0078026424
 20
-39.7165105621
 10
100.0052410221
 20
-39.7435510571
 10
100.0026323307
 20
-39.7618719099
 10
99.9999999975
 20
-39.7713085756
  0
LINE
  5
35B
100
AcDbEntity
  8
RACCORDO
100
AcDbLine
 62
250
  6
CONTINUOUS
 10
101.8704774427
 20
-37.0350790379
 11
101.8778697906
 21
-36.7634826543
  0
LINE
  5
35C
100
AcDbEntity
  8
RACCORDO
100
AcDbLine
 62
250
  6
CONTINUOUS
 10
101.8778697906
 20
-36.7634826543
 11
101.8839602573
 21
-36.5744674904
  0
LINE
  5
35D
100
AcDbEntity
  8
RACCORDO
100
AcDbLine
 62
250
  6
CONTINUOUS
 10
101.8839602573
 20
-36.5744674904
 11
101.8899050396
 21
-36.4143377054
  0
LWPOLYLINE
  5
35E
100
AcDbEntity
  8
RACCORDO
100
AcDbPolyline
 62
250
  6
CONTINUOUS
 90
6
 70
0
 10
101.9028927092
 20
-36.1377681339
 10
101.9040153075
 20
-36.1108825553
 10
101.9047618406
 20
-36.0839638752
 10
101.905253286
 20
-36.0570285025
 10
101.905624001
 20
-36.029737963
 10
101.9058727122
 20
-36.0020182153
  0
LINE
  5
35F
100
AcDbEntity
  8
RACCORDO
100
AcDbLine
 62
250
  6
CONTINUOUS
 10
101.8899050396
 20
-36.4143377054
 11
101.8947151803
 21
-36.3001023558
  0
LINE
  5
360
100
AcDbEntity
  8
RACCORDO
100
AcDbLine
 62
250
  6
CONTINUOUS
 10
101.8947151803
 20
-36.3001023558
 11
101.8973362908
 21
-36.2453997924
  0
LINE
  5
361
100
AcDbEntity
  8
RACCORDO
100
AcDbLine
 62
250
  6
CONTINUOUS
 10
101.8973362908
 20
-36.2453997924
 11
101.9028927092
 21
-36.1377681339
  0
LINE
  5
362
100
AcDbEntity
  8
RACCORDO
100
AcDbLine
 62
7
  6
CONTINUOUS
 10
-126.2671752612
 20
-39.7611029402
 11
-121.7087478087
 21
-40.0
  0
LINE
  5
363
100
AcDbEntity
  8
RACCORDO
100
AcDbLine
 62
7
  6
CONTINUOUS
 10
-126.3525225767
 20
-39.7529508608
 11
-126.2678871004
 21
-39.7610654695
  0
LWPOLYLINE
  5
364
100
AcDbEntity
  8
0
100
AcDbPolyline
 62
7
  6
CONTINUOUS
 90
10
 70
0
 43
0.3500000006
 10
-126.9806061401
 20
48.7500009613
 10
-126.123459137
 20
49.6071434326
 10
-125.9091746521
 20
50.4642859039
 10
-125.9091746521
 20
51.3214283752
 10
-126.3377436218
 20
51.7500018768
 10
-126.9806061401
 20
51.7500018768
 10
-127.4091751099
 20
51.3214283752
 10
-127.4091751099
 20
50.4642859039
 10
-126.9806061401
 20
50.0357124023
 10
-126.0520279541
 20
50.0357124023
  0
LINE
  5
365
100
AcDbEntity
  8
RACCORDO
100
AcDbLine
 62
250
  6
CONTINUOUS
 10
-127.0219866556
 20
-37.0350790379
 11
-127.0082631287
 21
-37.0344184879
  0
LINE
  5
366
100
AcDbEntity
  8
RACCORDO
100
AcDbLine
 62
250
  6
CONTINUOUS
 10
-127.0082631287
 20
-37.0344184879
 11
-126.9152660178
 21
-37.0306245735
  0
LINE
  5
367
100
AcDbEntity
  8
RACCORDO
100
AcDbLine
 62
250
  6
CONTINUOUS
 10
-126.9152660178
 20
-37.0306245735
 11
-126.0797726418
 21
-37.0
  0
LINE
  5
368
100
AcDbEntity
  8
RACCORDO
100
AcDbLine
 62
250
  6
CONTINUOUS
 10
-126.0797726418
 20
-37.0
 11
-121.7087478087
 21
-37.0
  0
LINE
  5
369
100
AcDbEntity
  8
0
100
AcDbLine
 62
7
  6
CONTINUOUS
 10
-129.6284053854
 20
-28.800007
 11
-129.6138978899
 21
-28.800007
  0
LINE
  5
36A
100
AcDbEntity
  8
0
100
AcDbLine
 62
7
  6
CONTINUOUS
 10
-129.5813437215
 20
-28.800007
 11
-129.5510148749
 21
-28.800007
  0
LINE
  5
36B
100
AcDbEntity
  8
0
100
AcDbLine
 62
7
  6
CONTINUOUS
 10
-129.5937463303
 20
-28.800007
 11
-129.5959971574
 21
-28.800007
  0
LINE
  5
36C
100
AcDbEntity
  8
0
100
AcDbLine
 62
7
  6
CONTINUOUS
 10
-129.5433943408
 20
-28.800007
 11
-129.481962206
 21
-28.8
  0
LINE
  5
36D
100
AcDbEntity
  8
0
100
AcDbLine
 62
7
  6
CONTINUOUS
 10
-129.6925119701
 20
-28.229679
 11
-129.7012715306
 21
-28.229679
  0
LINE
  5
36E
100
AcDbEntity
  8
0
100
AcDbLine
 62
7
  6
CONTINUOUS
 10
-129.7086202686
 20
-27.6089026669
 11
-129.6783486196
 21
-27.6089026669
  0
LINE
  5
36F
100
AcDbEntity
  8
0
100
AcDbLine
 62
7
  6
CONTINUOUS
 10
-129.7968104381
 20
-27.142128
 11
-129.7804003195
 21
-27.142128
  0
LINE
  5
370
100
AcDbEntity
  8
0
100
AcDbLine
 62
7
  6
CONTINUOUS
 10
-129.7197109986
 20
-27.678657
 11
-129.7326433268
 21
-27.67865
  0
LINE
  5
371
100
AcDbEntity
  8
0
100
AcDbLine
 62
7
  6
CONTINUOUS
 10
-129.9272020856
 20
-25.899877
 11
-129.8781917953
 21
-25.899877
  0
LWPOLYLINE
  5
372
100
AcDbEntity
  8
RACCORDO
100
AcDbPolyline
 62
250
  6
CONTINUOUS
 90
5
 70
0
 10
-130.0755598061
 20
-22.1875526645
 10
-130.0189610386
 20
-22.1854538781
 10
-129.9755802267
 20
-22.1834078142
 10
-129.9456146343
 20
-22.1814237744
 10
-129.9292005227
 20
-22.1795107785
  0
LINE
  5
373
100
AcDbEntity
  8
RACCORDO
100
AcDbLine
 62
250
  6
CONTINUOUS
 10
-130.2273227956
 20
-22.1918700434
 11
-130.0755598061
 21
-22.1875526645
  0
LWPOLYLINE
  5
374
100
AcDbEntity
  8
RACCORDO
100
AcDbPolyline
 62
250
  6
CONTINUOUS
 90
6
 70
0
 10
-130.5457842101
 20
-22.1984975759
 10
-130.5932113809
 20
-22.1996832603
 10
-130.6349306175
 20
-22.2005388263
 10
-130.6706586566
 20
-22.201088902
 10
-130.7001528964
 20
-22.2012755637
 10
-130.7396826546
 20
-22.2012003586
  0
LWPOLYLINE
  5
375
100
AcDbEntity
  8
RACCORDO
100
AcDbPolyline
 62
250
  6
CONTINUOUS
 90
3
 70
0
 10
-130.5457843488
 20
-22.1984975591
 10
-130.4281119102
 20
-22.1962815339
 10
-130.2273227956
 20
-22.1918700434
  0
LWPOLYLINE
  5
376
100
AcDbEntity
  8
RACCORDO
100
AcDbPolyline
 62
250
  6
CONTINUOUS
 90
3
 70
0
 10
-130.7396826546
 20
-22.2012003586
 10
-130.7494497582
 20
-22.2012667003
 10
-130.7524595431
 20
-22.2013383712
  0
LWPOLYLINE
  5
377
100
AcDbEntity
  8
RACCORDO
100
AcDbPolyline
 62
7
  6
CONTINUOUS
 90
10
 70
0
 10
-127.0644090299
 20
-39.2899704371
 10
-127.0146397105
 20
-39.362756441
 10
-126.9587278328
 20
-39.4307912105
 10
-126.8971367225
 20
-39.4935598162
 10
-126.8303584329
 20
-39.5506050284
 10
-126.7589071453
 20
-39.6015225502
 10
-126.6833169625
 20
-39.6459550953
 10
-126.6042071734
 20
-39.6835606547
 10
-126.522267112
 20
-39.7140484065
 10
-126.4381628578
 20
-39.7372201226
  0
LWPOLYLINE
  5
378
100
AcDbEntity
  8
0
100
AcDbPolyline
 62
7
  6
CONTINUOUS
 90
11
 70
0
 10
-129.9083036682
 20
-25.8998751129
 10
-129.9065339629
 20
-25.9017251983
 10
-129.9043431478
 20
-25.9074013989
 10
-129.9017312226
 20
-25.9170816667
 10
-129.8987185998
 20
-25.930872068
 10
-129.8952848671
 20
-25.9489408055
 10
-129.8913687877
 20
-25.9716534109
 10
-129.8869595765
 20
-25.999311293
 10
-129.8820680187
 20
-26.0320340302
 10
-129.8766652325
 20
-26.0700005544
 10
-129.8707507524
 20
-26.1132586604
  0
LWPOLYLINE
  5
379
100
AcDbEntity
  8
RACCORDO
100
AcDbPolyline
 62
7
  6
CONTINUOUS
 90
12
 70
0
 10
-127.1135886624
 20
-39.2009592768
 10
-127.0709874054
 20
-39.2792224983
 10
-127.0216401754
 20
-39.3533120709
 10
-126.9659574473
 20
-39.4226537958
 10
-126.9043973324
 20
-39.4867142828
 10
-126.8374629071
 20
-39.5450035105
 10
-126.7656983201
 20
-39.5970787918
 10
-126.6896829111
 20
-39.6425492861
 10
-126.6100242126
 20
-39.6810794255
 10
-126.5273542285
 20
-39.712389517
 10
-126.4423264783
 20
-39.7362566471
 10
-126.3556110221
 20
-39.7525166006
  0
LINE
  5
37A
100
AcDbEntity
  8
RACCORDO
100
AcDbLine
 62
7
  6
CONTINUOUS
 10
-130.2934608817
 20
24.4876666648
 11
-130.3705839169
 21
24.3580673104
  0
LINE
  5
37B
100
AcDbEntity
  8
RACCORDO
100
AcDbLine
 62
7
  6
CONTINUOUS
 10
-130.3705839169
 20
24.3580673104
 11
-130.4525220476
 21
24.2347887977
  0
LWPOLYLINE
  5
37C
100
AcDbEntity
  8
RACCORDO
100
AcDbPolyline
 62
7
  6
CONTINUOUS
 90
4
 70
0
 10
-130.447678226
 20
24.2408825314
 10
-130.4243959111
 20
24.2745556607
 10
-130.3191772033
 20
24.4403930769
 10
-130.2731077097
 20
24.5213982141
  0
LWPOLYLINE
  5
37D
100
AcDbEntity
  8
RACCORDO
100
AcDbPolyline
 62
7
  6
CONTINUOUS
 90
9
 70
0
 10
-130.5402388093
 20
24.1159571833
 10
-130.5884426091
 20
24.0487551731
 10
-130.6309339621
 20
23.9777884024
 10
-130.6674197179
 20
23.9035418357
 10
-130.6976494
 20
23.8265184703
 10
-130.7214108122
 20
23.7472490577
 10
-130.7385358057
 20
23.6662897666
 10
-130.7489077383
 20
23.584197398
 10
-130.7524595396
 20
23.5000600348
  0
LINE
  5
37E
100
AcDbEntity
  8
RACCORDO
100
AcDbLine
 62
7
  6
CONTINUOUS
 10
-130.538732458
 20
24.1179032365
 11
-130.447678226
 21
24.2408825314
  0
LINE
  5
37F
100
AcDbEntity
  8
RACCORDO
100
AcDbLine
 62
7
  6
CONTINUOUS
 10
-130.5239690394
 20
24.1370068045
 11
-130.5325842301
 21
24.1258214426
  0
LINE
  5
380
100
AcDbEntity
  8
RACCORDO
100
AcDbLine
 62
7
  6
CONTINUOUS
 10
-130.5299672377
 20
24.1292047368
 11
-130.5406307533
 21
24.115466307
  0
LWPOLYLINE
  5
381
100
AcDbEntity
  8
RACCORDO
100
AcDbPolyline
 62
7
  6
CONTINUOUS
 90
3
 70
0
 10
-130.5406359865
 20
-24.1154596149
 10
-130.5285283567
 20
-24.1310715984
 10
-130.5254290902
 20
-24.135102858
  0
LINE
  5
382
100
AcDbEntity
  8
RACCORDO
100
AcDbLine
 62
7
  6
CONTINUOUS
 10
-130.540235947
 20
-24.1159567792
 11
-130.4473785768
 21
-24.241300884
  0
LINE
  5
383
100
AcDbEntity
  8
RACCORDO
100
AcDbLine
 62
7
  6
CONTINUOUS
 10
-130.5315040857
 20
-24.1272605248
 11
-130.4376663452
 21
-24.2561829259
  0
LWPOLYLINE
  5
384
100
AcDbEntity
  8
RACCORDO
100
AcDbPolyline
 62
7
  6
CONTINUOUS
 90
9
 70
0
 10
-130.5402388188
 20
-24.1159571669
 10
-130.5884432818
 20
-24.0487541583
 10
-130.6309349
 20
-23.977786746
 10
-130.6674206166
 20
-23.9035399424
 10
-130.6976500407
 20
-23.8265167031
 10
-130.7214111149
 20
-23.747247886
 10
-130.7385358359
 20
-23.666289892
 10
-130.7489076073
 20
-23.5842012092
 10
-130.7524595421
 20
-23.5000287028
  0
LWPOLYLINE
  5
385
100
AcDbEntity
  8
RACCORDO
100
AcDbPolyline
 62
7
  6
CONTINUOUS
 90
4
 70
0
 10
-130.4473785768
 20
-24.241300884
 10
-130.4243909109
 20
-24.2745540417
 10
-130.3191721565
 20
-24.4403918622
 10
-130.2831977972
 20
-24.5031377327
  0
LINE
  5
386
100
AcDbEntity
  8
RACCORDO
100
AcDbLine
 62
7
  6
CONTINUOUS
 10
-130.4525220132
 20
-24.2347888469
 11
-130.3705838822
 21
-24.3580673654
  0
LINE
  5
387
100
AcDbEntity
  8
RACCORDO
100
AcDbLine
 62
7
  6
CONTINUOUS
 10
-130.4376663452
 20
-24.2561829259
 11
-130.3508108252
 21
-24.389909855
  0
LINE
  5
388
100
AcDbEntity
  8
RACCORDO
100
AcDbLine
 62
7
  6
CONTINUOUS
 10
-130.3705838822
 20
-24.3580673654
 11
-130.2949535518
 21
-24.4851583503
  0
LWPOLYLINE
  5
389
100
AcDbEntity
  8
RACCORDO
100
AcDbPolyline
 62
7
  6
CONTINUOUS
 90
10
 70
0
 10
-130.3508108252
 20
-24.389909855
 10
-130.2711830209
 20
-24.5280635798
 10
-130.1990080249
 20
-24.6702538283
 10
-130.1344898553
 20
-24.8160789583
 10
-130.077810891
 20
-24.965127097
 10
-130.0291313938
 20
-25.1169772209
 10
-129.9885890514
 20
-25.2712003124
 10
-129.9562985568
 20
-25.42736064
 10
-129.9323512824
 20
-25.5850170049
 10
-129.9160123257
 20
-25.7553283369
  0
LWPOLYLINE
  5
38A
100
AcDbEntity
  8
RACCORDO
100
AcDbPolyline
 62
7
  6
CONTINUOUS
 90
3
 70
0
 10
-127.1439181249
 20
-39.1323878765
 10
-127.1076226719
 20
-39.2129852832
 10
-127.0644090299
 20
-39.2899704371
  0
LINE
  5
38B
100
AcDbEntity
  8
RACCORDO
100
AcDbLine
 62
7
  6
CONTINUOUS
 10
-127.1550205597
 20
-39.1031839981
 11
-127.1550072238
 21
-39.1032158462
  0
LWPOLYLINE
  5
38C
100
AcDbEntity
  8
SUPERFICI
100
AcDbPolyline
 62
7
  6
CONTINUOUS
 90
9
 70
0
 10
-127.2585756214
 20
38.814094128
 10
-127.327875715
 20
38.6167957654
 10
-127.3954241907
 20
38.4214148341
 10
-127.4612346483
 20
38.228056004
 10
-127.5253504799
 20
38.0367338829
 10
-127.587790395
 20
37.8475325323
 10
-127.6485851384
 20
37.6604973795
 10
-127.7077607948
 20
37.475684992
 10
-127.8213239647
 20
37.113055753
  0
LINE
  5
38D
100
AcDbEntity
  8
SUPERFICI
100
AcDbLine
 62
7
  6
CONTINUOUS
 10
-127.1550103845
 20
39.1032063212
 11
-127.2585756214
 21
38.814094128
  0
LINE
  5
38E
100
AcDbEntity
  8
RACCORDO
100
AcDbLine
 62
250
  6
CONTINUOUS
 10
-130.2250358702
 20
24.6127603255
 11
-130.2217011866
 21
24.6234892463
  0
LWPOLYLINE
  5
38F
100
AcDbEntity
  8
RACCORDO
100
AcDbPolyline
 62
250
  6
CONTINUOUS
 90
7
 70
0
 10
-130.1558803359
 20
24.7653641298
 10
-130.1423754244
 20
24.7909185986
 10
-130.071550169
 20
24.9741042664
 10
-130.0128636782
 20
25.1615321507
 10
-129.9665674969
 20
25.3523988899
 10
-129.9328600617
 20
25.545886383
 10
-129.9118858511
 20
25.7411652955
  0
LWPOLYLINE
  5
390
100
AcDbEntity
  8
RACCORDO
100
AcDbPolyline
 62
250
  6
CONTINUOUS
 90
8
 70
0
 10
-130.2831977972
 20
-24.5031377327
 10
-130.2250306724
 20
-24.6127594267
 10
-130.1423699678
 20
-24.7909179334
 10
-130.0715443429
 20
-24.9741037594
 10
-130.0128573706
 20
-25.1615317338
 10
-129.9665605948
 20
-25.3523985028
 10
-129.9328524529
 20
-25.5458859735
 10
-129.9118774246
 20
-25.7411648199
  0
LINE
  5
391
100
AcDbEntity
  8
RACCORDO
100
AcDbLine
 62
7
  6
CONTINUOUS
 10
-130.2934608485
 20
-24.4876667239
 11
-130.2888784895
 21
-24.4963399472
  0
LINE
  5
392
100
AcDbEntity
  8
RACCORDO
100
AcDbLine
 62
7
  6
CONTINUOUS
 10
-127.1550133666
 20
-39.1032038547
 11
-127.1439181249
 21
-39.1323878765
  0
LWPOLYLINE
  5
393
100
AcDbEntity
  8
RACCORDO
100
AcDbPolyline
 62
7
  6
CONTINUOUS
 90
3
 70
0
 10
-127.1550115051
 20
-39.1032043393
 10
-127.1490851811
 20
-39.1191326586
 10
-127.1135886624
 20
-39.2009592768
  0
LWPOLYLINE
  5
394
100
AcDbEntity
  8
SUPERFICI
100
AcDbPolyline
 62
7
  6
CONTINUOUS
 90
6
 70
0
 10
-127.5259358942
 20
-38.034973339
 10
-127.4617606324
 20
-38.2264984028
 10
-127.3958869818
 20
-38.4200655634
 10
-127.3282713865
 20
-38.6156602177
 10
-127.258900207
 20
-38.8131773141
 10
-127.1550102081
 20
-39.1032068079
  0
LINE
  5
395
100
AcDbEntity
  8
SUPERFICI
100
AcDbLine
 62
7
  6
CONTINUOUS
 10
-127.5884316226
 20
-37.8455744654
 11
-127.5259358747
 21
-38.0349733979
  0
LINE
  5
396
100
AcDbEntity
  8
SUPERFICI
100
AcDbLine
 62
7
  6
CONTINUOUS
 10
-128.526029801
 20
34.5780439118
 11
-128.5882227578
 21
34.3250922738
  0
LINE
  5
397
100
AcDbEntity
  8
SUPERFICI
100
AcDbLine
 62
7
  6
CONTINUOUS
 10
-128.4581126014
 20
34.8478971495
 11
-128.526029801
 21
34.5780439118
  0
LINE
  5
398
100
AcDbEntity
  8
SUPERFICI
100
AcDbLine
 62
7
  6
CONTINUOUS
 10
-128.3829059122
 20
35.1393997732
 11
-128.4581126014
 21
34.8478971495
  0
LINE
  5
399
100
AcDbEntity
  8
SUPERFICI
100
AcDbLine
 62
7
  6
CONTINUOUS
 10
-128.3020824488
 20
35.4446248522
 11
-128.3829059122
 21
35.1393997732
  0
LINE
  5
39A
100
AcDbEntity
  8
SUPERFICI
100
AcDbLine
 62
7
  6
CONTINUOUS
 10
-128.2161131157
 20
35.7607051747
 11
-128.3020824488
 21
35.4446248522
  0
LINE
  5
39B
100
AcDbEntity
  8
SUPERFICI
100
AcDbLine
 62
7
  6
CONTINUOUS
 10
-128.1256561643
 20
36.084344553
 11
-128.2161131157
 21
35.7607051747
  0
LINE
  5
39C
100
AcDbEntity
  8
SUPERFICI
100
AcDbLine
 62
7
  6
CONTINUOUS
 10
-128.0299744331
 20
36.4173389352
 11
-128.1256561643
 21
36.084344553
  0
LINE
  5
39D
100
AcDbEntity
  8
SUPERFICI
100
AcDbLine
 62
7
  6
CONTINUOUS
 10
-127.9286817691
 20
36.7600734364
 11
-128.0299744331
 21
36.4173389352
  0
LINE
  5
39E
100
AcDbEntity
  8
SUPERFICI
100
AcDbLine
 62
7
  6
CONTINUOUS
 10
-127.8213239647
 20
37.113055753
 11
-127.9286817691
 21
36.7600734364
  0
LWPOLYLINE
  5
39F
100
AcDbEntity
  8
0
100
AcDbPolyline
 62
7
  6
CONTINUOUS
 90
13
 70
0
 43
0.3500000006
 10
-141.2167475281
 20
-1.9285708809
 10
-141.4310320129
 20
-2.2142854156
 10
-142.0738854675
 20
-2.2142854156
 10
-142.502463501
 20
-1.9285708809
 10
-142.502463501
 20
-1.2857140274
 10
-142.0738854675
 20
-1.0000006256
 10
-141.4310320129
 20
-1.0000006256
 10
-141.2167475281
 20
-1.2857140274
 10
-140.7881694946
 20
-0.8571427917
 10
-139.9310315552
 20
-0.8571427917
 10
-139.5024625854
 20
-1.2857140274
 10
-139.5024625854
 20
-1.9285708809
 10
-139.9310315552
 20
-2.3571432495
  0
LINE
  5
3A0
100
AcDbEntity
  8
SUPERFICI
100
AcDbLine
 62
7
  6
CONTINUOUS
 10
-127.6492788224
 20
-37.6583468607
 11
-127.5884316437
 21
-37.8455744009
  0
LINE
  5
3A1
100
AcDbEntity
  8
SUPERFICI
100
AcDbLine
 62
7
  6
CONTINUOUS
 10
-127.7661181128
 20
-37.2906750913
 11
-127.6492788224
 21
-37.6583468607
  0
LINE
  5
3A2
100
AcDbEntity
  8
SUPERFICI
100
AcDbLine
 62
7
  6
CONTINUOUS
 10
-127.8766401131
 20
-36.9324588353
 11
-127.7661181128
 21
-37.2906750913
  0
LINE
  5
3A3
100
AcDbEntity
  8
SUPERFICI
100
AcDbLine
 62
7
  6
CONTINUOUS
 10
-127.9810004313
 20
-36.5842639642
 11
-127.8766401131
 21
-36.9324588353
  0
LINE
  5
3A4
100
AcDbEntity
  8
SUPERFICI
100
AcDbLine
 62
7
  6
CONTINUOUS
 10
-128.0794959463
 20
-36.2461529003
 11
-127.9810004313
 21
-36.5842639642
  0
LINE
  5
3A5
100
AcDbEntity
  8
SUPERFICI
100
AcDbLine
 62
7
  6
CONTINUOUS
 10
-128.1725320336
 20
-35.9177387632
 11
-128.0794959463
 21
-36.2461529003
  0
LINE
  5
3A6
100
AcDbEntity
  8
SUPERFICI
100
AcDbLine
 62
7
  6
CONTINUOUS
 10
-128.2607673211
 20
-35.5975955502
 11
-128.1725320336
 21
-35.9177387632
  0
LINE
  5
3A7
100
AcDbEntity
  8
SUPERFICI
100
AcDbLine
 62
7
  6
CONTINUOUS
 10
-128.3442463277
 20
-35.2864036955
 11
-128.2607673211
 21
-35.5975955502
  0
LINE
  5
3A8
100
AcDbEntity
  8
SUPERFICI
100
AcDbLine
 62
7
  6
CONTINUOUS
 10
-128.4225105787
 20
-34.9868212842
 11
-128.3442463277
 21
-35.2864036955
  0
LINE
  5
3A9
100
AcDbEntity
  8
SUPERFICI
100
AcDbLine
 62
7
  6
CONTINUOUS
 10
-128.4940042359
 20
-34.7060962932
 11
-128.4225105787
 21
-34.9868212842
  0
LINE
  5
3AA
100
AcDbEntity
  8
SUPERFICI
100
AcDbLine
 62
7
  6
CONTINUOUS
 10
-128.5588738809
 20
-34.4451784334
 11
-128.4940042359
 21
-34.7060962932
  0
LINE
  5
3AB
100
AcDbEntity
  8
SUPERFICI
100
AcDbLine
 62
7
  6
CONTINUOUS
 10
-128.5892871122
 20
-34.3207126571
 11
-128.5588738809
 21
-34.4451784334
  0
LINE
  5
3AC
100
AcDbEntity
  8
SUPERFICI
100
AcDbLine
 62
7
  6
CONTINUOUS
 10
-129.4142073716
 20
30.1822672568
 11
-129.4542964785
 21
29.922859224
  0
LINE
  5
3AD
100
AcDbEntity
  8
SUPERFICI
100
AcDbLine
 62
7
  6
CONTINUOUS
 10
-129.3761704114
 20
30.4206583329
 11
-129.4142073716
 21
30.1822672568
  0
LINE
  5
3AE
100
AcDbEntity
  8
SUPERFICI
100
AcDbLine
 62
7
  6
CONTINUOUS
 10
-129.3322417126
 20
30.6874659821
 11
-129.3761704114
 21
30.4206583329
  0
LINE
  5
3AF
100
AcDbEntity
  8
SUPERFICI
100
AcDbLine
 62
7
  6
CONTINUOUS
 10
-129.2826012981
 20
30.9790067743
 11
-129.3322417126
 21
30.6874659821
  0
LINE
  5
3B0
100
AcDbEntity
  8
SUPERFICI
100
AcDbLine
 62
7
  6
CONTINUOUS
 10
-129.2418807256
 20
31.2109750953
 11
-129.2826012981
 21
30.9790067743
  0
LINE
  5
3B1
100
AcDbEntity
  8
SUPERFICI
100
AcDbLine
 62
7
  6
CONTINUOUS
 10
-129.1984173838
 20
31.4520234012
 11
-129.2418807256
 21
31.2109750953
  0
LINE
  5
3B2
100
AcDbEntity
  8
SUPERFICI
100
AcDbLine
 62
7
  6
CONTINUOUS
 10
-129.1521019601
 20
31.7020354251
 11
-129.1984173838
 21
31.4520234012
  0
LINE
  5
3B3
100
AcDbEntity
  8
SUPERFICI
100
AcDbLine
 62
7
  6
CONTINUOUS
 10
-129.1026199182
 20
31.9619305585
 11
-129.1521019601
 21
31.7020354251
  0
LINE
  5
3B4
100
AcDbEntity
  8
SUPERFICI
100
AcDbLine
 62
7
  6
CONTINUOUS
 10
-129.0496357848
 20
32.2325841455
 11
-129.1026199182
 21
31.9619305585
  0
LINE
  5
3B5
100
AcDbEntity
  8
SUPERFICI
100
AcDbLine
 62
7
  6
CONTINUOUS
 10
-128.9927997307
 20
32.5147823115
 11
-129.0496357848
 21
32.2325841455
  0
LINE
  5
3B6
100
AcDbEntity
  8
SUPERFICI
100
AcDbLine
 62
7
  6
CONTINUOUS
 10
-128.9319165381
 20
32.8084093112
 11
-128.9927997307
 21
32.5147823115
  0
LINE
  5
3B7
100
AcDbEntity
  8
SUPERFICI
100
AcDbLine
 62
7
  6
CONTINUOUS
 10
-128.8669960099
 20
33.1123286481
 11
-128.9319165381
 21
32.8084093112
  0
LINE
  5
3B8
100
AcDbEntity
  8
SUPERFICI
100
AcDbLine
 62
7
  6
CONTINUOUS
 10
-128.7980623626
 20
33.425435053
 11
-128.8669960099
 21
33.1123286481
  0
LINE
  5
3B9
100
AcDbEntity
  8
SUPERFICI
100
AcDbLine
 62
7
  6
CONTINUOUS
 10
-128.7498407779
 20
33.6389927697
 11
-128.7980623626
 21
33.425435053
  0
LINE
  5
3BA
100
AcDbEntity
  8
SUPERFICI
100
AcDbLine
 62
7
  6
CONTINUOUS
 10
-128.6991532027
 20
33.8589138734
 11
-128.7498407779
 21
33.6389927697
  0
LINE
  5
3BB
100
AcDbEntity
  8
SUPERFICI
100
AcDbLine
 62
7
  6
CONTINUOUS
 10
-128.6455206904
 20
34.0867994492
 11
-128.6991532027
 21
33.8589138734
  0
LINE
  5
3BC
100
AcDbEntity
  8
SUPERFICI
100
AcDbLine
 62
7
  6
CONTINUOUS
 10
-128.5882227578
 20
34.3250922738
 11
-128.6455206904
 21
34.0867994492
  0
LINE
  5
3BD
100
AcDbEntity
  8
SUPERFICI
100
AcDbLine
 62
7
  6
CONTINUOUS
 10
-128.6465776253
 20
-34.0823545943
 11
-128.5892871122
 21
-34.3207126571
  0
LINE
  5
3BE
100
AcDbEntity
  8
SUPERFICI
100
AcDbLine
 62
7
  6
CONTINUOUS
 10
-128.7002059086
 20
-33.854392261
 11
-128.6465776253
 21
-34.0823545943
  0
LINE
  5
3BF
100
AcDbEntity
  8
SUPERFICI
100
AcDbLine
 62
7
  6
CONTINUOUS
 10
-128.7508969311
 20
-33.6343615608
 11
-128.7002059086
 21
-33.854392261
  0
LINE
  5
3C0
100
AcDbEntity
  8
SUPERFICI
100
AcDbLine
 62
7
  6
CONTINUOUS
 10
-128.8225766441
 20
-33.3151720078
 11
-128.7508969311
 21
-33.6343615608
  0
LINE
  5
3C1
100
AcDbEntity
  8
SUPERFICI
100
AcDbLine
 62
7
  6
CONTINUOUS
 10
-128.8901666728
 20
-33.0049013792
 11
-128.8225766441
 21
-33.3151720078
  0
LINE
  5
3C2
100
AcDbEntity
  8
SUPERFICI
100
AcDbLine
 62
7
  6
CONTINUOUS
 10
-128.9537485191
 20
-32.7041088736
 11
-128.8901666728
 21
-33.0049013792
  0
LWPOLYLINE
  5
3C3
100
AcDbEntity
  8
RACCORDO
100
AcDbPolyline
 62
250
  6
CONTINUOUS
 90
27
 70
0
 10
-127.1550121356
 20
-39.1032025996
 10
-127.1550599855
 20
-39.102970498
 10
-127.1550470268
 20
-39.1022556644
 10
-127.1548890952
 20
-39.1011726259
 10
-127.1545783851
 20
-39.0997268564
 10
-127.1541160821
 20
-39.0979566181
 10
-127.1535043741
 20
-39.0958982595
 10
-127.1527487248
 20
-39.0935905149
 10
-127.1518615864
 20
-39.0910748485
 10
-127.1508532629
 20
-39.0883807141
 10
-127.1497362999
 20
-39.0855416154
 10
-127.1485264205
 20
-39.0825920938
 10
-127.1472350437
 20
-39.0795541643
 10
-127.1458754586
 20
-39.0764539397
 10
-127.1444607859
 20
-39.0733137299
 10
-127.1429989163
 20
-39.0701436565
 10
-127.1415003861
 20
-39.066960605
 10
-127.1399747099
 20
-39.063781136
 10
-127.1384257643
 20
-39.0606107596
 10
-127.136861429
 20
-39.0574630567
 10
-127.1352891064
 20
-39.0543488747
 10
-127.1337099145
 20
-39.0512663198
 10
-127.132129597
 20
-39.0482231878
 10
-127.130554002
 20
-39.0452279418
 10
-127.1289827718
 20
-39.0422775217
 10
-127.1274184681
 20
-39.0393744049
 10
-127.1258669307
 20
-39.0365263665
  0
LINE
  5
3C4
100
AcDbEntity
  8
SUPERFICI
100
AcDbLine
 62
7
  6
CONTINUOUS
 10
-129.0132710109
 20
-32.4140709617
 11
-128.9537485191
 21
-32.7041088736
  0
LINE
  5
3C5
100
AcDbEntity
  8
SUPERFICI
100
AcDbLine
 62
7
  6
CONTINUOUS
 10
-129.0687850184
 20
-32.1356400288
 11
-129.0132710109
 21
-32.4140709617
  0
LINE
  5
3C6
100
AcDbEntity
  8
SUPERFICI
100
AcDbLine
 62
7
  6
CONTINUOUS
 10
-129.1205517912
 20
-31.8685713292
 11
-129.0687850184
 21
-32.1356400288
  0
LINE
  5
3C7
100
AcDbEntity
  8
SUPERFICI
100
AcDbLine
 62
7
  6
CONTINUOUS
 10
-129.1689282505
 20
-31.6119894274
 11
-129.1205517912
 21
-31.8685713292
  0
LINE
  5
3C8
100
AcDbEntity
  8
SUPERFICI
100
AcDbLine
 62
7
  6
CONTINUOUS
 10
-129.2142502966
 20
-31.3649624315
 11
-129.1689282505
 21
-31.6119894274
  0
LINE
  5
3C9
100
AcDbEntity
  8
SUPERFICI
100
AcDbLine
 62
7
  6
CONTINUOUS
 10
-129.2567782074
 20
-31.1268244497
 11
-129.2142502966
 21
-31.3649624315
  0
LINE
  5
3CA
100
AcDbEntity
  8
0
100
AcDbLine
 62
7
  6
CONTINUOUS
 10
-129.5610330801
 20
-28.5245939436
 11
-129.5123520967
 21
-28.8
  0
LINE
  5
3CB
100
AcDbEntity
  8
0
100
AcDbLine
 62
7
  6
CONTINUOUS
 10
-129.481962206
 20
-28.8
 11
-129.5309613802
 21
-28.5229021329
  0
LINE
  5
3CC
100
AcDbEntity
  8
SUPERFICI
100
AcDbLine
 62
7
  6
CONTINUOUS
 10
-129.2965002538
 20
-30.8983834834
 11
-129.2567782074
 21
-31.1268244497
  0
LINE
  5
3CD
100
AcDbEntity
  8
0
100
AcDbLine
 62
7
  6
CONTINUOUS
 10
-129.6067736508
 20
-28.2552760949
 11
-129.5610330801
 21
-28.5245939436
  0
LINE
  5
3CE
100
AcDbEntity
  8
0
100
AcDbLine
 62
7
  6
CONTINUOUS
 10
-129.5309613802
 20
-28.5229021329
 11
-129.5768407229
 21
-28.2528685554
  0
LINE
  5
3CF
100
AcDbEntity
  8
0
100
AcDbLine
 62
7
  6
CONTINUOUS
 10
-129.5433943408
 20
-28.800007
 11
-129.5870793725
 21
-28.5413118281
  0
LINE
  5
3D0
100
AcDbEntity
  8
SUPERFICI
100
AcDbLine
 62
7
  6
CONTINUOUS
 10
-129.3447047523
 20
-30.6126484705
 11
-129.2965002538
 21
-30.8983834834
  0
LINE
  5
3D1
100
AcDbEntity
  8
SUPERFICI
100
AcDbLine
 62
7
  6
CONTINUOUS
 10
-129.3870906771
 20
-30.3529468228
 11
-129.3447047684
 21
-30.6126483733
  0
LWPOLYLINE
  5
3D2
100
AcDbEntity
  8
0
100
AcDbPolyline
 62
7
  6
CONTINUOUS
 90
3
 70
0
 10
-129.5768407229
 20
-28.2528685554
 10
-129.619639701
 20
-27.9899174858
 10
-129.6399465426
 20
-27.8611267372
  0
LWPOLYLINE
  5
3D3
100
AcDbEntity
  8
0
100
AcDbPolyline
 62
7
  6
CONTINUOUS
 90
3
 70
0
 10
-129.5870793725
 20
-28.5413118281
 10
-129.6281398872
 20
-28.2880224047
 10
-129.6476845095
 20
-28.1634041031
  0
LWPOLYLINE
  5
3D4
100
AcDbEntity
  8
0
100
AcDbPolyline
 62
7
  6
CONTINUOUS
 90
3
 70
0
 10
-129.6699781799
 20
-27.8627995811
 10
-129.6496047331
 20
-27.9920709946
 10
-129.6067736508
 20
-28.2552760949
  0
LINE
  5
3D5
100
AcDbEntity
  8
SUPERFICI
100
AcDbLine
 62
7
  6
CONTINUOUS
 10
-129.4235754029
 20
-30.1224276134
 11
-129.3870906771
 21
-30.3529468228
  0
LINE
  5
3D6
100
AcDbEntity
  8
SUPERFICI
100
AcDbLine
 62
7
  6
CONTINUOUS
 10
-129.4548187506
 20
-29.9194207521
 11
-129.4235754029
 21
-30.1224276134
  0
LINE
  5
3D7
100
AcDbEntity
  8
0
100
AcDbLine
 62
7
  6
CONTINUOUS
 10
-129.8478420871
 20
-26.6770531923
 11
-129.8225568425
 21
-26.9122899791
  0
LINE
  5
3D8
100
AcDbEntity
  8
0
100
AcDbLine
 62
7
  6
CONTINUOUS
 10
-129.8472678326
 20
-26.86003698
 11
-129.8171301401
 21
-27.1443831825
  0
LWPOLYLINE
  5
3D9
100
AcDbEntity
  8
0
100
AcDbPolyline
 62
7
  6
CONTINUOUS
 90
3
 70
0
 10
-129.7614368336
 20
-27.033932894
 10
-129.7383953492
 20
-27.2507841115
 10
-129.7318060845
 20
-27.3170273062
  0
LINE
  5
3DA
100
AcDbEntity
  8
0
100
AcDbLine
 62
7
  6
CONTINUOUS
 10
-129.8725390627
 20
-26.436398
 11
-129.8478420871
 21
-26.6770531923
  0
LWPOLYLINE
  5
3DB
100
AcDbEntity
  8
0
100
AcDbPolyline
 62
7
  6
CONTINUOUS
 90
3
 70
0
 10
-129.791066716
 20
-26.9806723324
 10
-129.7946030251
 20
-26.9456019673
 10
-129.8026950361
 20
-26.869627108
  0
LWPOLYLINE
  5
3DC
100
AcDbEntity
  8
0
100
AcDbPolyline
 62
7
  6
CONTINUOUS
 90
4
 70
0
 10
-129.7011732725
 20
-27.3207733769
 10
-129.7076671737
 20
-27.255411024
 10
-129.7148461895
 20
-27.1863675576
 10
-129.7305280998
 20
-27.0399722854
  0
LINE
  5
3DD
100
AcDbEntity
  8
0
100
AcDbLine
 62
7
  6
CONTINUOUS
 10
-129.8749106205
 20
-26.5802829372
 11
-129.8472678326
 21
-26.86003698
  0
LWPOLYLINE
  5
3DE
100
AcDbEntity
  8
0
100
AcDbPolyline
 62
7
  6
CONTINUOUS
 90
6
 70
0
 10
-129.7318060845
 20
-27.3170273062
 10
-129.720702222
 20
-27.4371659666
 10
-129.7163472849
 20
-27.4893190398
 10
-129.7129125257
 20
-27.5354058756
 10
-129.7103368537
 20
-27.5753350828
 10
-129.7086202686
 20
-27.6089026669
  0
LINE
  5
3DF
100
AcDbEntity
  8
0
100
AcDbLine
 62
7
  6
CONTINUOUS
 10
-129.9002297749
 20
-26.303420268
 11
-129.8749106205
 21
-26.5802829372
  0
LWPOLYLINE
  5
3E0
100
AcDbEntity
  8
0
100
AcDbPolyline
 62
7
  6
CONTINUOUS
 90
3
 70
0
 10
-129.8854498141
 20
-26.374084126
 10
-129.9141609394
 20
-26.0553954142
 10
-129.9272020856
 20
-25.899877
  0
LWPOLYLINE
  5
3E1
100
AcDbEntity
  8
0
100
AcDbPolyline
 62
7
  6
CONTINUOUS
 90
3
 70
0
 10
-129.9332294626
 20
-25.899877
 10
-129.9228807213
 20
-26.0329498222
 10
-129.9002297749
 20
-26.303420268
  0
LINE
  5
3E2
100
AcDbEntity
  8
SUPERFICI
100
AcDbLine
 62
7
  6
CONTINUOUS
 10
-129.9160129895
 20
-25.7553182877
 11
-129.9059365839
 21
-25.9000183275
  0
LWPOLYLINE
  5
3E3
100
AcDbEntity
  8
RACCORDO
100
AcDbPolyline
 62
7
  6
CONTINUOUS
 90
10
 70
0
 10
-129.9160123172
 20
25.7553283721
 10
-129.9179977075
 20
25.727701126
 10
-129.9361348818
 20
25.5558638751
 10
-129.9636154692
 20
25.388042315
 10
-129.9998923616
 20
25.2247010345
 10
-130.0444062194
 20
25.0662489391
 10
-130.0965901352
 20
24.9130407651
 10
-130.1558803359
 20
24.7653641298
 10
-130.2217011866
 20
24.6234892463
 10
-130.2934608817
 20
24.4876666648
  0
LINE
  5
3E4
100
AcDbEntity
  8
SUPERFICI
100
AcDbLine
 62
7
  6
CONTINUOUS
 10
-129.8731951731
 20
26.3319546178
 11
-129.9160129895
 21
25.7553182877
  0
LINE
  5
3E5
100
AcDbEntity
  8
SUPERFICI
100
AcDbLine
 62
7
  6
CONTINUOUS
 10
-129.8506214074
 20
26.6000934723
 11
-129.8731951731
 21
26.3319546178
  0
LINE
  5
3E6
100
AcDbEntity
  8
SUPERFICI
100
AcDbLine
 62
7
  6
CONTINUOUS
 10
-129.8303614776
 20
26.826013066
 11
-129.8506214074
 21
26.6000934723
  0
LINE
  5
3E7
100
AcDbEntity
  8
SUPERFICI
100
AcDbLine
 62
7
  6
CONTINUOUS
 10
-129.8055928845
 20
27.0874637912
 11
-129.8303614776
 21
26.826013066
  0
LINE
  5
3E8
100
AcDbEntity
  8
SUPERFICI
100
AcDbLine
 62
7
  6
CONTINUOUS
 10
-129.7749980137
 20
27.3933562003
 11
-129.8055928845
 21
27.0874637912
  0
LINE
  5
3E9
100
AcDbEntity
  8
SUPERFICI
100
AcDbLine
 62
7
  6
CONTINUOUS
 10
-129.7479350216
 20
27.6515789966
 11
-129.7749980137
 21
27.3933562003
  0
LINE
  5
3EA
100
AcDbEntity
  8
SUPERFICI
100
AcDbLine
 62
7
  6
CONTINUOUS
 10
-129.7200236879
 20
27.9063146596
 11
-129.7479350216
 21
27.6515789966
  0
LINE
  5
3EB
100
AcDbEntity
  8
SUPERFICI
100
AcDbLine
 62
7
  6
CONTINUOUS
 10
-129.6928656523
 20
28.1439903453
 11
-129.7200236879
 21
27.9063146596
  0
LINE
  5
3EC
100
AcDbEntity
  8
RACCORDO
100
AcDbLine
 62
7
  6
CONTINUOUS
 10
-129.7227155541
 20
27.8805891687
 11
-129.6386933894
 21
28.5934785421
  0
LINE
  5
3ED
100
AcDbEntity
  8
SUPERFICI
100
AcDbLine
 62
7
  6
CONTINUOUS
 10
-129.6733532595
 20
28.3091518614
 11
-129.6928656523
 21
28.1439903453
  0
LWPOLYLINE
  5
3EE
100
AcDbEntity
  8
RACCORDO
100
AcDbPolyline
 62
7
  6
CONTINUOUS
 90
3
 70
0
 10
-129.6386933894
 20
28.5934785421
 10
-129.4911420058
 20
29.6779595814
 10
-129.4878499967
 20
29.6986638254
  0
LWPOLYLINE
  5
3EF
100
AcDbEntity
  8
RACCORDO
100
AcDbPolyline
 62
250
  6
CONTINUOUS
 90
16
 70
0
 10
-127.0147497562
 20
38.8689147535
 10
-127.0011805074
 20
38.9627073073
 10
-126.9787967794
 20
39.054793292
 10
-126.9477996104
 20
39.1443456432
 10
-126.9084673996
 20
39.2305600522
 10
-126.8611534069
 20
39.3126621899
 10
-126.8062825799
 20
39.3899146612
 10
-126.7443477377
 20
39.461623628
 10
-126.6759051442
 20
39.5271450407
 10
-126.6015695122
 20
39.5858904232
 10
-126.5220084826
 20
39.6373321574
 10
-126.4379366278
 20
39.6810082228
 10
-126.3501090339
 20
39.7165263455
 10
-126.2593145189
 20
39.7435675219
 10
-126.166368548
 20
39.7618888833
 10
-126.0721059097
 20
39.7713258776
  0
LINE
  5
3F0
100
AcDbEntity
  8
SUPERFICI
100
AcDbLine
 62
7
  6
CONTINUOUS
 10
-129.4994220853
 20
29.6197321578
 11
-129.5294205993
 21
29.4109769556
  0
LINE
  5
3F1
100
AcDbEntity
  8
SUPERFICI
100
AcDbLine
 62
7
  6
CONTINUOUS
 10
-129.4542964785
 20
29.922859224
 11
-129.4994220853
 21
29.6197321578
  0
LINE
  5
3F2
100
AcDbEntity
  8
RACCORDO
100
AcDbLine
 62
250
  6
CONTINUOUS
 10
-127.1550676119
 20
39.1028640569
 11
-127.1550128887
 21
39.1032058465
  0
LINE
  5
3F3
100
AcDbEntity
  8
0
100
AcDbLine
 62
7
  6
CONTINUOUS
 10
-129.6476845095
 20
-28.1634041031
 11
-129.684929307
 21
-27.9182859273
  0
LINE
  5
3F4
100
AcDbEntity
  8
0
100
AcDbLine
 62
7
  6
CONTINUOUS
 10
-129.7086202686
 20
-27.6089026669
 11
-129.6699781799
 21
-27.8627995811
  0
LINE
  5
3F5
100
AcDbEntity
  8
0
100
AcDbLine
 62
7
  6
CONTINUOUS
 10
-129.6399465426
 20
-27.8611267372
 11
-129.6783486196
 21
-27.6089026669
  0
LINE
  5
3F6
100
AcDbEntity
  8
SUPERFICI
100
AcDbLine
 62
7
  6
CONTINUOUS
 10
-129.4940723573
 20
-29.6563298192
 11
-129.4548187506
 21
-29.9194207521
  0
LWPOLYLINE
  5
3F7
100
AcDbEntity
  8
RACCORDO
100
AcDbPolyline
 62
250
  6
CONTINUOUS
 90
16
 70
0
 10
-127.0147488137
 20
-38.8689146623
 10
-127.0011785212
 20
-38.9627058666
 10
-126.978793913
 20
-39.0547904253
 10
-126.947796032
 20
-39.1443413002
 10
-126.9084632791
 20
-39.2305542091
 10
-126.861148913
 20
-39.3126548489
 10
-126.8062778779
 20
-39.3899058501
 10
-126.7443429865
 20
-39.4616133989
 10
-126.6759004938
 20
-39.5271334692
 10
-126.6015651017
 20
-39.5858776063
 10
-126.5220044379
 20
-39.637318212
 10
-126.4379330598
 20
-39.6809932834
 10
-126.3501060367
 20
-39.7165105621
 10
-126.2593121684
 20
-39.7435510571
 10
-126.1663669011
 20
-39.7618719099
 10
-126.072105003
 20
-39.7713085756
  0
LINE
  5
3F8
100
AcDbEntity
  8
0
100
AcDbLine
 62
7
  6
CONTINUOUS
 10
-129.684929307
 20
-27.9182859273
 11
-129.7197109986
 21
-27.678657
  0
LINE
  5
3F9
100
AcDbEntity
  8
0
100
AcDbLine
 62
7
  6
CONTINUOUS
 10
-129.6436586754
 20
-28.5260883775
 11
-129.6040333431
 21
-28.800015
  0
LWPOLYLINE
  5
3FA
100
AcDbEntity
  8
0
100
AcDbPolyline
 62
7
  6
CONTINUOUS
 90
9
 70
0
 10
-129.8449917255
 20
-26.5220911087
 10
-129.8478975823
 20
-26.5017382605
 10
-129.8505009336
 20
-26.4842539315
 10
-129.8527998172
 20
-26.4696599097
 10
-129.8547961953
 20
-26.4578509399
 10
-129.8565144024
 20
-26.4485622849
 10
-129.8579625498
 20
-26.4418211864
 10
-129.8591325262
 20
-26.4377574911
 10
-129.8600243315
 20
-26.4364
  0
LINE
  5
3FB
100
AcDbEntity
  8
0
100
AcDbLine
 62
7
  6
CONTINUOUS
 10
-129.6185342213
 20
-28.5401578019
 11
-129.5813437215
 21
-28.800007
  0
LWPOLYLINE
  5
3FC
100
AcDbEntity
  8
0
100
AcDbPolyline
 62
7
  6
CONTINUOUS
 90
3
 70
0
 10
-129.5510148749
 20
-28.800007
 10
-129.5883456912
 20
-28.539311081
 10
-129.5937572761
 20
-28.5005586735
  0
LINE
  5
3FD
100
AcDbEntity
  8
SUPERFICI
100
AcDbLine
 62
7
  6
CONTINUOUS
 10
-129.5286031533
 20
-29.416747277
 11
-129.4940723573
 21
-29.6563298192
  0
LWPOLYLINE
  5
3FE
100
AcDbEntity
  8
0
100
AcDbPolyline
 62
7
  6
CONTINUOUS
 90
10
 70
0
 10
-129.8460055578
 20
-26.0737706625
 10
-129.8514521729
 20
-26.0353540803
 10
-129.8564139574
 20
-26.0020429179
 10
-129.860898526
 20
-25.9737651102
 10
-129.8648938864
 20
-25.950432037
 10
-129.8684120309
 20
-25.9317994546
 10
-129.8714965505
 20
-25.9175830899
 10
-129.8741619753
 20
-25.9076195795
 10
-129.8763937751
 20
-25.901778499
 10
-129.8781919499
 20
-25.8998751129
  0
LINE
  5
3FF
100
AcDbEntity
  8
SUPERFICI
100
AcDbLine
 62
7
  6
CONTINUOUS
 10
-129.5326559359
 20
-29.3880931855
 11
-129.5286031533
 21
-29.416747277
  0
LINE
  5
400
100
AcDbEntity
  8
0
100
AcDbLine
 62
7
  6
CONTINUOUS
 10
-129.5959971574
 20
-28.800007
 11
-129.6418430978
 21
-28.4722657443
  0
LINE
  5
401
100
AcDbEntity
  8
0
100
AcDbLine
 62
7
  6
CONTINUOUS
 10
-129.653635702
 20
-28.2863682125
 11
-129.6185342213
 21
-28.5401578019
  0
LINE
  5
402
100
AcDbEntity
  8
0
100
AcDbLine
 62
7
  6
CONTINUOUS
 10
-129.68166843
 20
-28.2512677424
 11
-129.6436586754
 21
-28.5260883775
  0
LWPOLYLINE
  5
403
100
AcDbEntity
  8
RACCORDO
100
AcDbPolyline
 62
7
  6
CONTINUOUS
 90
3
 70
0
 10
-129.608809075
 20
-28.8131236469
 10
-129.4911431754
 20
-29.6779516365
 10
-129.4878479285
 20
-29.6986762695
  0
LINE
  5
404
100
AcDbEntity
  8
0
100
AcDbLine
 62
7
  6
CONTINUOUS
 10
-129.8381826504
 20
-26.5724192955
 11
-129.8449917255
 21
-26.5220911087
  0
LINE
  5
405
100
AcDbEntity
  8
0
100
AcDbLine
 62
7
  6
CONTINUOUS
 10
-129.6418430978
 20
-28.4722657443
 11
-129.6841026361
 21
-28.1566335018
  0
LINE
  5
406
100
AcDbEntity
  8
0
100
AcDbLine
 62
7
  6
CONTINUOUS
 10
-129.6866820029
 20
-28.0386593047
 11
-129.653635702
 21
-28.2863682125
  0
LINE
  5
407
100
AcDbEntity
  8
0
100
AcDbLine
 62
7
  6
CONTINUOUS
 10
-129.8336980142
 20
-26.1656366033
 11
-129.8460055578
 21
-26.0737706625
  0
LINE
  5
408
100
AcDbEntity
  8
0
100
AcDbLine
 62
7
  6
CONTINUOUS
 10
-129.7180640752
 20
-27.9755002572
 11
-129.68166843
 21
-28.2512677424
  0
LINE
  5
409
100
AcDbEntity
  8
0
100
AcDbLine
 62
7
  6
CONTINUOUS
 10
-129.6660237782
 20
-28.5114831849
 11
-129.6284053854
 21
-28.800007
  0
LINE
  5
40A
100
AcDbEntity
  8
0
100
AcDbLine
 62
7
  6
CONTINUOUS
 10
-129.8707507524
 20
-26.1132586604
 11
-129.8573606221
 21
-26.2161911649
  0
LINE
  5
40B
100
AcDbEntity
  8
0
100
AcDbLine
 62
7
  6
CONTINUOUS
 10
-129.7178084811
 20
-27.7971153704
 11
-129.6866820029
 21
-28.0386593047
  0
LINE
  5
40C
100
AcDbEntity
  8
0
100
AcDbLine
 62
7
  6
CONTINUOUS
 10
-129.6841026361
 20
-28.1566335018
 11
-129.7233864254
 21
-27.8484860524
  0
LINE
  5
40D
100
AcDbEntity
  8
0
100
AcDbLine
 62
7
  6
CONTINUOUS
 10
-129.8301403207
 20
-26.6352901096
 11
-129.8381826504
 21
-26.5724192955
  0
LINE
  5
40E
100
AcDbEntity
  8
0
100
AcDbLine
 62
7
  6
CONTINUOUS
 10
-129.8191580947
 20
-26.2802039974
 11
-129.8336980142
 21
-26.1656366033
  0
LINE
  5
40F
100
AcDbEntity
  8
0
100
AcDbLine
 62
7
  6
CONTINUOUS
 10
-129.7326433268
 20
-27.67865
 11
-129.7178084811
 21
-27.7971153704
  0
LINE
  5
410
100
AcDbEntity
  8
0
100
AcDbLine
 62
7
  6
CONTINUOUS
 10
-129.7528582226
 20
-27.6986021907
 11
-129.7180640752
 21
-27.9755002572
  0
LINE
  5
411
100
AcDbEntity
  8
0
100
AcDbLine
 62
7
  6
CONTINUOUS
 10
-129.8573606221
 20
-26.2161911649
 11
-129.8416616419
 21
-26.3423545333
  0
LINE
  5
412
100
AcDbEntity
  8
0
100
AcDbLine
 62
7
  6
CONTINUOUS
 10
-129.6660237782
 20
-28.5114831849
 11
-129.7178964071
 21
-28.121391584
  0
LINE
  5
413
100
AcDbEntity
  8
0
100
AcDbLine
 62
7
  6
CONTINUOUS
 10
-129.821050162
 20
-26.7093511108
 11
-129.8301403207
 21
-26.6352901096
  0
LINE
  5
414
100
AcDbEntity
  8
0
100
AcDbLine
 62
7
  6
CONTINUOUS
 10
-129.7233864254
 20
-27.8484860524
 11
-129.7622116426
 21
-27.5290281984
  0
LINE
  5
415
100
AcDbEntity
  8
0
100
AcDbLine
 62
7
  6
CONTINUOUS
 10
-129.7936173225
 20
-26.4911441428
 11
-129.8191580947
 21
-26.2802039974
  0
LINE
  5
416
100
AcDbEntity
  8
0
100
AcDbLine
 62
7
  6
CONTINUOUS
 10
-129.7860202849
 20
-27.4204221223
 11
-129.7528582226
 21
-27.6986021907
  0
LINE
  5
417
100
AcDbEntity
  8
0
100
AcDbLine
 62
7
  6
CONTINUOUS
 10
-129.7063272488
 20
-28.2396953625
 11
-129.7562013256
 21
-27.7944761758
  0
LINE
  5
418
100
AcDbEntity
  8
0
100
AcDbLine
 62
7
  6
CONTINUOUS
 10
-129.8416616419
 20
-26.3423545333
 11
-129.8060377345
 21
-26.6421536633
  0
LINE
  5
419
100
AcDbEntity
  8
0
100
AcDbLine
 62
7
  6
CONTINUOUS
 10
-129.7567261621
 20
-26.8070338148
 11
-129.7936173225
 21
-26.4911441428
  0
LINE
  5
41A
100
AcDbEntity
  8
0
100
AcDbLine
 62
7
  6
CONTINUOUS
 10
-129.7622116426
 20
-27.5290281984
 11
-129.7997938085
 21
-27.20268165
  0
LINE
  5
41B
100
AcDbEntity
  8
0
100
AcDbLine
 62
7
  6
CONTINUOUS
 10
-129.7739585245
 20
-27.661234008
 11
-129.7520007059
 21
-27.8554260512
  0
LINE
  5
41C
100
AcDbEntity
  8
0
100
AcDbLine
 62
7
  6
CONTINUOUS
 10
-129.8060377345
 20
-26.6421536633
 11
-129.7614368336
 21
-27.033932894
  0
LINE
  5
41D
100
AcDbEntity
  8
0
100
AcDbLine
 62
7
  6
CONTINUOUS
 10
-129.7305280998
 20
-27.0399722854
 11
-129.7567261621
 21
-26.8070338148
  0
LINE
  5
41E
100
AcDbEntity
  8
0
100
AcDbLine
 62
7
  6
CONTINUOUS
 10
-129.8171301401
 20
-27.1443831825
 11
-129.7860202849
 21
-27.4204221223
  0
LINE
  5
41F
100
AcDbEntity
  8
0
100
AcDbLine
 62
7
  6
CONTINUOUS
 10
-129.8225568425
 20
-26.9122899791
 11
-129.7968104381
 21
-27.142128
  0
LWPOLYLINE
  5
420
100
AcDbEntity
  8
0
100
AcDbPolyline
 62
7
  6
CONTINUOUS
 90
3
 70
0
 10
-129.8026950361
 20
-26.869627108
 10
-129.8071057855
 20
-26.8296667184
 10
-129.821050162
 20
-26.7093511108
  0
LWPOLYLINE
  5
421
100
AcDbEntity
  8
0
100
AcDbPolyline
 62
7
  6
CONTINUOUS
 90
6
 70
0
 10
-129.6783486196
 20
-27.6089026669
 10
-129.6800873264
 20
-27.5752614087
 10
-129.6826521941
 20
-27.5354379466
 10
-129.6860432225
 20
-27.4897192707
 10
-129.6903074271
 20
-27.4384177747
 10
-129.7011732725
 20
-27.3207733769
  0
LWPOLYLINE
  5
422
100
AcDbEntity
  8
RACCORDO
100
AcDbPolyline
 62
250
  6
CONTINUOUS
 90
7
 70
0
 10
-129.915416753
 20
-25.6393377353
 10
-129.9127141282
 20
-25.6945455704
 10
-129.9121045713
 20
-25.7095535606
 10
-129.9117195351
 20
-25.7220751175
 10
-129.9115533216
 20
-25.7317171552
 10
-129.9115992567
 20
-25.7382079997
 10
-129.9118833815
 20
-25.7411652632
  0
LWPOLYLINE
  5
423
100
AcDbEntity
  8
RACCORDO
100
AcDbPolyline
 62
250
  6
CONTINUOUS
 90
5
 70
0
 10
-129.9181506975
 20
-25.5611790629
 10
-129.9176127274
 20
-25.5811069449
 10
-129.9170018765
 20
-25.6002196476
 10
-129.9162776398
 20
-25.6195025064
 10
-129.915416753
 20
-25.6393377353
  0
LINE
  5
424
100
AcDbEntity
  8
RACCORDO
100
AcDbLine
 62
250
  6
CONTINUOUS
 10
-130.5412612
 20
-24.0571820551
 11
-130.5405134512
 21
-24.0873187641
  0
LWPOLYLINE
  5
425
100
AcDbEntity
  8
RACCORDO
100
AcDbPolyline
 62
250
  6
CONTINUOUS
 90
6
 70
0
 10
-130.5405134512
 20
-24.0873187641
 10
-130.5401978392
 20
-24.1025682198
 10
-130.540117121
 20
-24.1083112261
 10
-130.5401001133
 20
-24.1125748851
 10
-130.5401406841
 20
-24.1151835985
 10
-130.5402388188
 20
-24.1159571669
  0
LINE
  5
426
100
AcDbEntity
  8
RACCORDO
100
AcDbLine
 62
250
  6
CONTINUOUS
 10
-129.919007327
 20
-25.5187497344
 11
-129.9181506975
 21
-25.5611790629
  0
LINE
  5
427
100
AcDbEntity
  8
RACCORDO
100
AcDbLine
 62
250
  6
CONTINUOUS
 10
-130.5419281685
 20
-24.0211412927
 11
-130.5412612
 21
-24.0571820551
  0
LINE
  5
428
100
AcDbEntity
  8
RACCORDO
100
AcDbLine
 62
250
  6
CONTINUOUS
 10
-129.9273862717
 20
-24.8358871655
 11
-129.9221316732
 21
-25.1572508041
  0
LINE
  5
429
100
AcDbEntity
  8
RACCORDO
100
AcDbLine
 62
250
  6
CONTINUOUS
 10
-129.9199021072
 20
-25.4517186824
 11
-129.919007327
 21
-25.5187497344
  0
LINE
  5
42A
100
AcDbEntity
  8
RACCORDO
100
AcDbLine
 62
250
  6
CONTINUOUS
 10
-129.9221316732
 20
-25.1572508041
 11
-129.9214791319
 21
-25.2100065236
  0
LINE
  5
42B
100
AcDbEntity
  8
RACCORDO
100
AcDbLine
 62
250
  6
CONTINUOUS
 10
-130.5423862035
 20
-23.9823757955
 11
-130.5419281685
 21
-24.0211412927
  0
LINE
  5
42C
100
AcDbEntity
  8
RACCORDO
100
AcDbLine
 62
250
  6
CONTINUOUS
 10
-129.9297085335
 20
-24.6266834655
 11
-129.9273862717
 21
-24.8358871655
  0
LINE
  5
42D
100
AcDbEntity
  8
RACCORDO
100
AcDbLine
 62
250
  6
CONTINUOUS
 10
-129.9204953414
 20
-25.3823735454
 11
-129.9199021072
 21
-25.4517186824
  0
LINE
  5
42E
100
AcDbEntity
  8
RACCORDO
100
AcDbLine
 62
250
  6
CONTINUOUS
 10
-130.5453927446
 20
-23.5550050952
 11
-130.5431837821
 21
-23.8225284734
  0
LINE
  5
42F
100
AcDbEntity
  8
RACCORDO
100
AcDbLine
 62
250
  6
CONTINUOUS
 10
-129.9214791319
 20
-25.2100065236
 11
-129.9208941229
 21
-25.2882434536
  0
LINE
  5
430
100
AcDbEntity
  8
RACCORDO
100
AcDbLine
 62
250
  6
CONTINUOUS
 10
-130.5428400203
 20
-23.9157271361
 11
-130.5423862035
 21
-23.9823757955
  0
LINE
  5
431
100
AcDbEntity
  8
RACCORDO
100
AcDbLine
 62
250
  6
CONTINUOUS
 10
-129.9319162772
 20
-24.2775842663
 11
-129.9297085335
 21
-24.6266834655
  0
LINE
  5
432
100
AcDbEntity
  8
RACCORDO
100
AcDbLine
 62
250
  6
CONTINUOUS
 10
-129.9208941229
 20
-25.2882434536
 11
-129.9204953414
 21
-25.3823735454
  0
LINE
  5
433
100
AcDbEntity
  8
RACCORDO
100
AcDbLine
 62
250
  6
CONTINUOUS
 10
-129.9321618729
 20
23.6344767256
 11
-129.9280682845
 21
22.8725698158
  0
LINE
  5
434
100
AcDbEntity
  8
RACCORDO
100
AcDbLine
 62
250
  6
CONTINUOUS
 10
-130.5431837821
 20
-23.8225284734
 11
-130.5428400203
 21
-23.9157271361
  0
LINE
  5
435
100
AcDbEntity
  8
RACCORDO
100
AcDbLine
 62
250
  6
CONTINUOUS
 10
-130.5464856413
 20
-23.2379819669
 11
-130.5453927446
 21
-23.5550050952
  0
LINE
  5
436
100
AcDbEntity
  8
RACCORDO
100
AcDbLine
 62
250
  6
CONTINUOUS
 10
-129.9412617459
 20
-17.0426961287
 11
-129.927808091
 21
-22.6596273712
  0
LINE
  5
437
100
AcDbEntity
  8
0
100
AcDbLine
 62
7
  6
CONTINUOUS
 10
-130.7524595431
 20
23.4999920653
 11
-130.7524595431
 21
-23.4999928431
  0
LINE
  5
438
100
AcDbEntity
  8
RACCORDO
100
AcDbLine
 62
250
  6
CONTINUOUS
 10
-130.5519757342
 20
-2.3629117594
 11
-130.5453455993
 21
-22.4459037136
  0
LINE
  5
439
100
AcDbEntity
  8
RACCORDO
100
AcDbLine
 62
250
  6
CONTINUOUS
 10
-130.5465530374
 20
23.1588450191
 11
-130.5453470895
 21
22.443626333
  0
LINE
  5
43A
100
AcDbEntity
  8
RACCORDO
100
AcDbLine
 62
250
  6
CONTINUOUS
 10
-129.9325621971
 20
-23.8581820119
 11
-129.9319162772
 21
-24.2775842663
  0
LINE
  5
43B
100
AcDbEntity
  8
RACCORDO
100
AcDbLine
 62
250
  6
CONTINUOUS
 10
-129.9524296614
 20
1.205851003
 11
-129.9412617459
 21
-17.0426961287
  0
LINE
  5
43C
100
AcDbEntity
  8
RACCORDO
100
AcDbLine
 62
250
  6
CONTINUOUS
 10
-129.9324831425
 20
24.0686293956
 11
-129.9321618729
 21
23.6344767256
  0
LINE
  5
43D
100
AcDbEntity
  8
RACCORDO
100
AcDbLine
 62
250
  6
CONTINUOUS
 10
-129.9280682845
 20
22.8725698158
 11
-129.9281577422
 21
22.4236138766
  0
LINE
  5
43E
100
AcDbEntity
  8
RACCORDO
100
AcDbLine
 62
250
  6
CONTINUOUS
 10
-130.5453470895
 20
22.443626333
 11
-130.5519757342
 21
-2.3629117594
  0
LINE
  5
43F
100
AcDbEntity
  8
RACCORDO
100
AcDbLine
 62
250
  6
CONTINUOUS
 10
-130.546115665
 20
-22.8357802214
 11
-130.5464856413
 21
-23.2379819669
  0
LINE
  5
440
100
AcDbEntity
  8
RACCORDO
100
AcDbLine
 62
250
  6
CONTINUOUS
 10
-129.927808091
 20
-22.6596273712
 11
-129.9284108575
 21
-22.9757813707
  0
LINE
  5
441
100
AcDbEntity
  8
RACCORDO
100
AcDbLine
 62
250
  6
CONTINUOUS
 10
-130.5453455993
 20
-22.4459037136
 11
-130.546115665
 21
-22.8357802214
  0
LINE
  5
442
100
AcDbEntity
  8
RACCORDO
100
AcDbLine
 62
250
  6
CONTINUOUS
 10
-130.5456541061
 20
23.5081894003
 11
-130.5465530374
 21
23.1588450191
  0
LINE
  5
443
100
AcDbEntity
  8
RACCORDO
100
AcDbLine
 62
250
  6
CONTINUOUS
 10
-129.9311977118
 20
-23.4090071853
 11
-129.9325621971
 21
-23.8581820119
  0
LINE
  5
444
100
AcDbEntity
  8
RACCORDO
100
AcDbLine
 62
250
  6
CONTINUOUS
 10
-129.9281577422
 20
22.4236138766
 11
-129.9524296614
 21
1.205851003
  0
LINE
  5
445
100
AcDbEntity
  8
RACCORDO
100
AcDbLine
 62
250
  6
CONTINUOUS
 10
-129.9309544632
 20
24.464709546
 11
-129.9324831425
 21
24.0686293956
  0
LINE
  5
446
100
AcDbEntity
  8
RACCORDO
100
AcDbLine
 62
250
  6
CONTINUOUS
 10
-130.5426664915
 20
23.9469143282
 11
-130.5432969693
 21
23.8047692537
  0
LINE
  5
447
100
AcDbEntity
  8
RACCORDO
100
AcDbLine
 62
250
  6
CONTINUOUS
 10
-129.9284108575
 20
-22.9757813707
 11
-129.9311977118
 21
-23.4090071853
  0
LINE
  5
448
100
AcDbEntity
  8
RACCORDO
100
AcDbLine
 62
250
  6
CONTINUOUS
 10
-129.9202811765
 20
25.4116756747
 11
-129.9210570457
 21
25.2591044903
  0
LINE
  5
449
100
AcDbEntity
  8
RACCORDO
100
AcDbLine
 62
250
  6
CONTINUOUS
 10
-130.5441513482
 20
23.7115219419
 11
-130.5456541061
 21
23.5081894003
  0
LINE
  5
44A
100
AcDbEntity
  8
RACCORDO
100
AcDbLine
 62
250
  6
CONTINUOUS
 10
-130.5432969693
 20
23.8047692537
 11
-130.5441513482
 21
23.7115219419
  0
LINE
  5
44B
100
AcDbEntity
  8
RACCORDO
100
AcDbLine
 62
250
  6
CONTINUOUS
 10
-129.9286502483
 20
24.7320681542
 11
-129.9309544632
 21
24.464709546
  0
LINE
  5
44C
100
AcDbEntity
  8
RACCORDO
100
AcDbLine
 62
250
  6
CONTINUOUS
 10
-130.5421669524
 20
24.0031153155
 11
-130.5426664915
 21
23.9469143282
  0
LINE
  5
44D
100
AcDbEntity
  8
RACCORDO
100
AcDbLine
 62
250
  6
CONTINUOUS
 10
-129.9210570457
 20
25.2591044903
 11
-129.9218978285
 21
25.1746660805
  0
LINE
  5
44E
100
AcDbEntity
  8
RACCORDO
100
AcDbLine
 62
250
  6
CONTINUOUS
 10
-129.919508142
 20
25.48480994
 11
-129.9202811765
 21
25.4116756747
  0
LINE
  5
44F
100
AcDbEntity
  8
RACCORDO
100
AcDbLine
 62
250
  6
CONTINUOUS
 10
-129.9265278264
 20
24.8962701949
 11
-129.9286502483
 21
24.7320681542
  0
LINE
  5
450
100
AcDbEntity
  8
RACCORDO
100
AcDbLine
 62
250
  6
CONTINUOUS
 10
-130.5417878107
 20
24.0298136843
 11
-130.5421669524
 21
24.0031153155
  0
LINE
  5
451
100
AcDbEntity
  8
RACCORDO
100
AcDbLine
 62
250
  6
CONTINUOUS
 10
-129.9218978285
 20
25.1746660805
 11
-129.9265278264
 21
24.8962701949
  0
LINE
  5
452
100
AcDbEntity
  8
RACCORDO
100
AcDbLine
 62
250
  6
CONTINUOUS
 10
-130.5413187583
 20
24.0546182058
 11
-130.5417878107
 21
24.0298136843
  0
LINE
  5
453
100
AcDbEntity
  8
RACCORDO
100
AcDbLine
 62
250
  6
CONTINUOUS
 10
-130.5402090943
 20
24.1019389402
 11
-130.5413187583
 21
24.0546182058
  0
LWPOLYLINE
  5
454
100
AcDbEntity
  8
RACCORDO
100
AcDbPolyline
 62
250
  6
CONTINUOUS
 90
22
 70
0
 10
-129.9160129838
 20
25.7553182685
 10
-129.9160220611
 20
25.7550707779
 10
-129.9160190041
 20
25.7548227217
 10
-129.9160048912
 20
25.7545590322
 10
-129.9159799452
 20
25.7542797511
 10
-129.9159444134
 20
25.7539852096
 10
-129.9158984685
 20
25.7536754203
 10
-129.9158423868
 20
25.753350959
 10
-129.9157764927
 20
25.7530123376
 10
-129.9157009813
 20
25.7526593125
 10
-129.9156161943
 20
25.7522923601
 10
-129.9155225223
 20
25.7519121374
 10
-129.9154201592
 20
25.7515185395
 10
-129.9153094876
 20
25.7511122011
 10
-129.9151909394
 20
25.7506939518
 10
-129.9150646958
 20
25.7502638923
 10
-129.9149311641
 20
25.7498229223
 10
-129.9147908069
 20
25.749371887
 10
-129.9146438209
 20
25.7489103693
 10
-129.9144906757
 20
25.7484388276
 10
-129.9143318636
 20
25.7479579975
 10
-129.9141675302
 20
25.7474678267
  0
LWPOLYLINE
  5
455
100
AcDbEntity
  8
RACCORDO
100
AcDbPolyline
 62
250
  6
CONTINUOUS
 90
7
 70
0
 10
-129.915576109
 20
25.6357206383
 10
-129.916434089
 20
25.615317195
 10
-129.9171669964
 20
25.5951765528
 10
-129.9177869114
 20
25.5749834587
 10
-129.9183248156
 20
25.5538054734
 10
-129.9187884497
 20
25.5314593166
 10
-129.919508142
 20
25.48480994
  0
LINE
  5
456
100
AcDbEntity
  8
RACCORDO
100
AcDbLine
 62
250
  6
CONTINUOUS
 10
-129.9128116144
 20
25.6925150752
 11
-129.915576109
 21
25.6357206383
  0
LWPOLYLINE
  5
457
100
AcDbEntity
  8
0
100
AcDbPolyline
 62
7
  6
CONTINUOUS
 90
4
 70
0
 43
0.3500000006
 10
-139.9310315552
 20
-2.3571432495
 10
-140.7881694946
 20
-2.3571432495
 10
-141.2167475281
 20
-1.9285708809
 10
-141.2167475281
 20
-1.2857140274
  0
LINE
  5
458
100
AcDbEntity
  8
0
100
AcDbLine
 62
7
  6
CONTINUOUS
 10
-123.7087478087
 20
-3.5
 11
-121.7087478087
 21
-3.6749773271
  0
LWPOLYLINE
  5
459
100
AcDbEntity
  8
RACCORDO
100
AcDbPolyline
 62
250
  6
CONTINUOUS
 90
6
 70
0
 10
-129.9118858511
 20
25.7411652955
 10
-129.9115953596
 20
25.7380967979
 10
-129.911553172
 20
25.7313233803
 10
-129.9117347141
 20
25.7212575406
 10
-129.9121539134
 20
25.7081724907
 10
-129.9128116144
 20
25.6925150752
  0
LINE
  5
45A
100
AcDbEntity
  8
RACCORDO
100
AcDbLine
 62
250
  6
CONTINUOUS
 10
-126.0797726418
 20
-37.0
 11
-126.0871878125
 21
-36.7752516777
  0
LINE
  5
45B
100
AcDbEntity
  8
RACCORDO
100
AcDbLine
 62
250
  6
CONTINUOUS
 10
-127.0183238203
 20
-37.1533690282
 11
-127.0276991432
 21
-36.8485170671
  0
LINE
  5
45C
100
AcDbEntity
  8
RACCORDO
100
AcDbLine
 62
250
  6
CONTINUOUS
 10
-126.0871878125
 20
-36.7752516777
 11
-126.0925321135
 21
-36.5844754566
  0
LINE
  5
45D
100
AcDbEntity
  8
RACCORDO
100
AcDbLine
 62
250
  6
CONTINUOUS
 10
-127.0122252075
 20
-37.3881817729
 11
-127.0183238203
 21
-37.1533690282
  0
LINE
  5
45E
100
AcDbEntity
  8
RACCORDO
100
AcDbLine
 62
250
  6
CONTINUOUS
 10
-127.0276991432
 20
-36.8485170671
 11
-127.0319981043
 21
-36.6838950863
  0
LINE
  5
45F
100
AcDbEntity
  8
RACCORDO
100
AcDbLine
 62
250
  6
CONTINUOUS
 10
-126.0925321135
 20
-36.5844754566
 11
-126.0962361122
 21
-36.4241672443
  0
LINE
  5
460
100
AcDbEntity
  8
RACCORDO
100
AcDbLine
 62
250
  6
CONTINUOUS
 10
-127.0319981043
 20
-36.6838950863
 11
-127.0350965091
 21
-36.5404036862
  0
LINE
  5
461
100
AcDbEntity
  8
RACCORDO
100
AcDbLine
 62
250
  6
CONTINUOUS
 10
-127.0075528091
 20
-37.6171923745
 11
-127.0122252075
 21
-37.3881817729
  0
LINE
  5
462
100
AcDbEntity
  8
RACCORDO
100
AcDbLine
 62
250
  6
CONTINUOUS
 10
-126.0694057157
 20
-37.5403821846
 11
-126.0797726418
 21
-37.0
  0
LINE
  5
463
100
AcDbEntity
  8
RACCORDO
100
AcDbLine
 62
250
  6
CONTINUOUS
 10
-126.0962361122
 20
-36.4241672443
 11
-126.0987951298
 21
-36.2844657099
  0
LINE
  5
464
100
AcDbEntity
  8
RACCORDO
100
AcDbLine
 62
250
  6
CONTINUOUS
 10
-127.0350965091
 20
-36.5404036862
 11
-127.0372541478
 21
-36.4143377054
  0
LWPOLYLINE
  5
465
100
AcDbEntity
  8
RACCORDO
100
AcDbPolyline
 62
250
  6
CONTINUOUS
 90
9
 70
0
 10
-127.0007894749
 20
38.6104801491
 10
-127.0015752504
 20
38.6677832622
 10
-127.0026059888
 20
38.7182699954
 10
-127.0038907033
 20
38.7617197845
 10
-127.005444714
 20
38.797985969
 10
-127.0072865898
 20
38.8269403395
 10
-127.0094351033
 20
38.8484585262
 10
-127.011913232
 20
38.8624596475
 10
-127.0147488136
 20
38.8689146623
  0
LINE
  5
466
100
AcDbEntity
  8
RACCORDO
100
AcDbLine
 62
250
  6
CONTINUOUS
 10
-127.0027797014
 20
-37.9414187291
 11
-127.0075528091
 21
-37.6171923745
  0
LINE
  5
467
100
AcDbEntity
  8
RACCORDO
100
AcDbLine
 62
250
  6
CONTINUOUS
 10
-126.0987951298
 20
-36.2844657099
 11
-126.1002281804
 21
-36.1802137925
  0
LINE
  5
468
100
AcDbEntity
  8
RACCORDO
100
AcDbLine
 62
250
  6
CONTINUOUS
 10
-126.0624177392
 20
-38.0604509945
 11
-126.0694057157
 21
-37.5403821846
  0
LINE
  5
469
100
AcDbEntity
  8
RACCORDO
100
AcDbLine
 62
250
  6
CONTINUOUS
 10
-127.0372541478
 20
-36.4143377054
 11
-127.0386902233
 21
-36.3001023558
  0
LINE
  5
46A
100
AcDbEntity
  8
RACCORDO
100
AcDbLine
 62
250
  6
CONTINUOUS
 10
-127.0003116313
 20
-38.2314203893
 11
-127.0027797014
 21
-37.9414187291
  0
LINE
  5
46B
100
AcDbEntity
  8
RACCORDO
100
AcDbLine
 62
250
  6
CONTINUOUS
 10
-126.1002281804
 20
-36.1802137925
 11
-126.149380269
 21
-29.6002843889
  0
LINE
  5
46C
100
AcDbEntity
  8
RACCORDO
100
AcDbLine
 62
250
  6
CONTINUOUS
 10
-126.057282308
 20
-38.6874234094
 11
-126.0624177392
 21
-38.0604509945
  0
LINE
  5
46D
100
AcDbEntity
  8
RACCORDO
100
AcDbLine
 62
250
  6
CONTINUOUS
 10
-127.0386902233
 20
-36.3001023558
 11
-127.0394873341
 21
-36.1914500862
  0
LINE
  5
46E
100
AcDbEntity
  8
RACCORDO
100
AcDbLine
 62
250
  6
CONTINUOUS
 10
-126.9999197006
 20
38.47649952
 11
-127.0007894749
 21
38.6104801491
  0
LINE
  5
46F
100
AcDbEntity
  8
RACCORDO
100
AcDbLine
 62
250
  6
CONTINUOUS
 10
-126.149380269
 20
-29.6002843889
 11
-126.1688682573
 21
-25.8729295372
  0
LINE
  5
470
100
AcDbEntity
  8
RACCORDO
100
AcDbLine
 62
250
  6
CONTINUOUS
 10
-127.074927321
 20
-30.3202357426
 11
-127.0908965533
 21
-26.4309276747
  0
LINE
  5
471
100
AcDbEntity
  8
RACCORDO
100
AcDbLine
 62
250
  6
CONTINUOUS
 10
-127.0394873341
 20
-36.1914500862
 11
-127.074927321
 21
-30.3202357426
  0
LINE
  5
472
100
AcDbEntity
  8
RACCORDO
100
AcDbLine
 62
250
  6
CONTINUOUS
 10
-126.1688682573
 20
-25.8729295372
 11
-126.1844384355
 21
-21.4962820024
  0
LINE
  5
473
100
AcDbEntity
  8
RACCORDO
100
AcDbLine
 62
250
  6
CONTINUOUS
 10
-127.0908965533
 20
-26.4309276747
 11
-127.1036346301
 21
-21.4989941478
  0
LINE
  5
474
100
AcDbEntity
  8
RACCORDO
100
AcDbLine
 62
250
  6
CONTINUOUS
 10
-126.9998254941
 20
-38.4003823479
 11
-127.0003116313
 21
-38.2314203893
  0
LINE
  5
475
100
AcDbEntity
  8
RACCORDO
100
AcDbLine
 62
250
  6
CONTINUOUS
 10
-126.1844384355
 20
-21.4962820024
 11
-126.1937876791
 21
-16.9807832989
  0
LINE
  5
476
100
AcDbEntity
  8
RACCORDO
100
AcDbLine
 62
250
  6
CONTINUOUS
 10
-126.056137913
 20
-39.0840128269
 11
-126.057282308
 21
-38.6874234094
  0
LINE
  5
477
100
AcDbEntity
  8
RACCORDO
100
AcDbLine
 62
250
  6
CONTINUOUS
 10
-126.0561379131
 20
39.0840128269
 11
-126.0565875282
 21
39.3047975582
  0
LINE
  5
478
100
AcDbEntity
  8
RACCORDO
100
AcDbLine
 62
250
  6
CONTINUOUS
 10
-127.1036346301
 20
-21.4989941478
 11
-127.1107584476
 21
-15.9305451883
  0
LINE
  5
479
100
AcDbEntity
  8
RACCORDO
100
AcDbLine
 62
250
  6
CONTINUOUS
 10
-126.1937876791
 20
-16.9807832989
 11
-126.1972756139
 21
-11.1382303963
  0
LINE
  5
47A
100
AcDbEntity
  8
RACCORDO
100
AcDbLine
 62
250
  6
CONTINUOUS
 10
-127.1107584476
 20
-15.9305451883
 11
-127.1119276683
 21
13.2649011197
  0
LINE
  5
47B
100
AcDbEntity
  8
RACCORDO
100
AcDbLine
 62
250
  6
CONTINUOUS
 10
-126.1972756139
 20
-11.1382303963
 11
-126.1970979761
 21
12.6436289539
  0
LINE
  5
47C
100
AcDbEntity
  8
RACCORDO
100
AcDbLine
 62
250
  6
CONTINUOUS
 10
-127.1119276683
 20
13.2649011197
 11
-127.1069295721
 21
19.5644569784
  0
LINE
  5
47D
100
AcDbEntity
  8
RACCORDO
100
AcDbLine
 62
250
  6
CONTINUOUS
 10
-126.9999562946
 20
38.3185813214
 11
-126.9999197006
 21
38.47649952
  0
LINE
  5
47E
100
AcDbEntity
  8
RACCORDO
100
AcDbLine
 62
250
  6
CONTINUOUS
 10
-126.1970979761
 20
12.6436289539
 11
-126.1911153304
 21
18.646229004
  0
LINE
  5
47F
100
AcDbEntity
  8
RACCORDO
100
AcDbLine
 62
250
  6
CONTINUOUS
 10
-127.1069295721
 20
19.5644569784
 11
-127.0949287828
 21
25.1118992992
  0
LINE
  5
480
100
AcDbEntity
  8
RACCORDO
100
AcDbLine
 62
250
  6
CONTINUOUS
 10
-126.0565875282
 20
-39.3047975582
 11
-126.056137913
 21
-39.0840128269
  0
LINE
  5
481
100
AcDbEntity
  8
RACCORDO
100
AcDbLine
 62
250
  6
CONTINUOUS
 10
-126.1911153304
 20
18.646229004
 11
-126.1756910373
 21
24.1635619813
  0
LINE
  5
482
100
AcDbEntity
  8
RACCORDO
100
AcDbLine
 62
250
  6
CONTINUOUS
 10
-127.0949287828
 20
25.1118992992
 11
-127.078961442
 21
29.4835677264
  0
LINE
  5
483
100
AcDbEntity
  8
RACCORDO
100
AcDbLine
 62
250
  6
CONTINUOUS
 10
-126.0572823079
 20
38.6874234094
 11
-126.0561379131
 21
39.0840128269
  0
LINE
  5
484
100
AcDbEntity
  8
RACCORDO
100
AcDbLine
 62
250
  6
CONTINUOUS
 10
-126.1756910373
 20
24.1635619813
 11
-126.1573537271
 21
28.2390811207
  0
LINE
  5
485
100
AcDbEntity
  8
RACCORDO
100
AcDbLine
 62
250
  6
CONTINUOUS
 10
-127.078961442
 20
29.4835677264
 11
-127.0517205325
 21
34.283048897
  0
LINE
  5
486
100
AcDbEntity
  8
RACCORDO
100
AcDbLine
 62
250
  6
CONTINUOUS
 10
-127.0008960215
 20
38.1392648918
 11
-126.9999562946
 21
38.3185813214
  0
LINE
  5
487
100
AcDbEntity
  8
RACCORDO
100
AcDbLine
 62
250
  6
CONTINUOUS
 10
-126.1573537271
 20
28.2390811207
 11
-126.129359752
 21
32.4855539243
  0
LINE
  5
488
100
AcDbEntity
  8
RACCORDO
100
AcDbLine
 62
250
  6
CONTINUOUS
 10
-126.0624177397
 20
38.0604509945
 11
-126.0572823079
 21
38.6874234094
  0
LINE
  5
489
100
AcDbEntity
  8
RACCORDO
100
AcDbLine
 62
250
  6
CONTINUOUS
 10
-127.0517205325
 20
34.283048897
 11
-127.0383782097
 21
36.3289264134
  0
LINE
  5
48A
100
AcDbEntity
  8
RACCORDO
100
AcDbLine
 62
250
  6
CONTINUOUS
 10
-126.129359752
 20
32.4855539243
 11
-126.0998969789
 21
36.2074480639
  0
LINE
  5
48B
100
AcDbEntity
  8
RACCORDO
100
AcDbLine
 62
250
  6
CONTINUOUS
 10
-127.0040974752
 20
37.8365293093
 11
-127.0008960215
 21
38.1392648918
  0
LINE
  5
48C
100
AcDbEntity
  8
RACCORDO
100
AcDbLine
 62
250
  6
CONTINUOUS
 10
-126.0694057145
 20
37.5403821846
 11
-126.0624177397
 21
38.0604509945
  0
LINE
  5
48D
100
AcDbEntity
  8
RACCORDO
100
AcDbLine
 62
250
  6
CONTINUOUS
 10
-127.0383782097
 20
36.3289264134
 11
-127.0367765987
 21
36.4453171147
  0
LINE
  5
48E
100
AcDbEntity
  8
RACCORDO
100
AcDbLine
 62
250
  6
CONTINUOUS
 10
-127.007552808
 20
37.6171924322
 11
-127.0040974752
 21
37.8365293093
  0
LINE
  5
48F
100
AcDbEntity
  8
RACCORDO
100
AcDbLine
 62
250
  6
CONTINUOUS
 10
-126.0998969789
 20
36.2074480639
 11
-126.0978661713
 21
36.3395412379
  0
LINE
  5
490
100
AcDbEntity
  8
RACCORDO
100
AcDbLine
 62
250
  6
CONTINUOUS
 10
-127.0367765987
 20
36.4453171147
 11
-127.0344116608
 21
36.5748773288
  0
LINE
  5
491
100
AcDbEntity
  8
RACCORDO
100
AcDbLine
 62
250
  6
CONTINUOUS
 10
-126.0797726418
 20
37.0
 11
-126.0694057145
 21
37.5403821846
  0
LINE
  5
492
100
AcDbEntity
  8
RACCORDO
100
AcDbLine
 62
250
  6
CONTINUOUS
 10
-127.0122252056
 20
37.3881818463
 11
-127.007552808
 21
37.6171924322
  0
LINE
  5
493
100
AcDbEntity
  8
RACCORDO
100
AcDbLine
 62
250
  6
CONTINUOUS
 10
-126.0978661713
 20
36.3395412379
 11
-126.0949054791
 21
36.4857463161
  0
LINE
  5
494
100
AcDbEntity
  8
RACCORDO
100
AcDbLine
 62
250
  6
CONTINUOUS
 10
-127.0344116608
 20
36.5748773288
 11
-127.031045785
 21
36.7229810946
  0
LINE
  5
495
100
AcDbEntity
  8
RACCORDO
100
AcDbLine
 62
250
  6
CONTINUOUS
 10
-126.0949054791
 20
36.4857463161
 11
-126.0906140846
 21
36.6568968608
  0
LINE
  5
496
100
AcDbEntity
  8
RACCORDO
100
AcDbLine
 62
250
  6
CONTINUOUS
 10
-127.0183238199
 20
37.1533690474
 11
-127.0122252056
 21
37.3881818463
  0
LINE
  5
497
100
AcDbEntity
  8
RACCORDO
100
AcDbLine
 62
250
  6
CONTINUOUS
 10
-127.031045785
 20
36.7229810946
 11
-127.0264201559
 21
36.8927876907
  0
LINE
  5
498
100
AcDbEntity
  8
RACCORDO
100
AcDbLine
 62
250
  6
CONTINUOUS
 10
-126.0906140846
 20
36.6568968608
 11
-126.0845023515
 21
36.8607261417
  0
LINE
  5
499
100
AcDbEntity
  8
RACCORDO
100
AcDbLine
 62
250
  6
CONTINUOUS
 10
-127.0264201559
 20
36.8927876907
 11
-127.0183238199
 21
37.1533690474
  0
LINE
  5
49A
100
AcDbEntity
  8
RACCORDO
100
AcDbLine
 62
250
  6
CONTINUOUS
 10
-126.0845023515
 20
36.8607261417
 11
-126.0797726418
 21
37.0
  0
LWPOLYLINE
  5
49B
100
AcDbEntity
  8
0
100
AcDbPolyline
 62
7
  6
CONTINUOUS
 90
13
 70
0
 43
0.3500000006
 10
-140.3596005249
 20
-0.0000003204
 10
-141.6453164978
 20
-0.0000003204
 10
-142.0738854675
 20
0.2142864304
 10
-142.502463501
 20
0.642857666
 10
-142.502463501
 20
0.8571421509
 10
-142.0738854675
 20
1.2857133865
 10
-141.6453164978
 20
1.5000001373
 10
-140.3596005249
 20
1.5000001373
 10
-139.9310315552
 20
1.2857133865
 10
-139.5024625854
 20
0.8571421509
 10
-139.5024625854
 20
0.642857666
 10
-139.9310315552
 20
0.2142864304
 10
-140.3596005249
 20
-0.0000003204
  0
LINE
  5
49C
100
AcDbEntity
  8
RACCORDO
100
AcDbLine
 62
250
  6
CONTINUOUS
 10
-130.7524590228
 20
0.0
 11
-126.1946455779
 21
-0.0001829647
  0
LWPOLYLINE
  5
49D
100
AcDbEntity
  8
RACCORDO
100
AcDbPolyline
 62
250
  6
CONTINUOUS
 90
5
 70
0
 10
-130.5402388093
 20
24.1159571833
 10
-130.5401392923
 20
24.1151392897
 10
-130.5400999838
 20
24.1123997513
 10
-130.5401208985
 20
24.1079345531
 10
-130.5402090943
 20
24.1019389402
  0
LWPOLYLINE
  5
49E
100
AcDbEntity
  8
RACCORDO
100
AcDbPolyline
 62
250
  6
CONTINUOUS
 90
8
 70
0
 10
-126.0580152241
 20
39.4862519516
 10
-126.0591279916
 20
39.5611226571
 10
-126.0605067844
 20
39.6249537025
 10
-126.062160395
 20
39.6775027607
 10
-126.0641418147
 20
39.7185564657
 10
-126.0664687075
 20
39.7479476444
 10
-126.0691234096
 20
39.7655593804
 10
-126.0721059209
 20
39.7713260911
  0
LINE
  5
49F
100
AcDbEntity
  8
RACCORDO
100
AcDbLine
 62
250
  6
CONTINUOUS
 10
-126.0565875282
 20
39.3047975582
 11
-126.0580152241
 21
39.4862519516
  0
LINE
  5
4A0
100
AcDbEntity
  8
0
100
AcDbLine
 62
7
  6
CONTINUOUS
 10
-123.7087478087
 20
3.5
 11
-123.7087478087
 21
-3.5
  0
LINE
  5
4A1
100
AcDbEntity
  8
0
100
AcDbLine
 62
7
  6
CONTINUOUS
 10
-121.7087478087
 20
-40.0
 11
-121.7087478087
 21
-3.6749773271
  0
LINE
  5
4A2
100
AcDbEntity
  8
0
100
AcDbLine
 62
7
  6
CONTINUOUS
 10
-121.7087478087
 20
3.6749773271
 11
-121.7087478087
 21
40.0
  0
LWPOLYLINE
  5
4A3
100
AcDbEntity
  8
RACCORDO
100
AcDbPolyline
 62
250
  6
CONTINUOUS
 90
22
 70
0
 10
-129.9141832484
 20
-25.7475143975
 10
-129.9143481462
 20
-25.7480068615
 10
-129.9145073907
 20
-25.7484897103
 10
-129.9146608276
 20
-25.7489631072
 10
-129.914807961
 20
-25.7494262986
 10
-129.9149483206
 20
-25.7498787774
 10
-129.9150817111
 20
-25.7503209271
 10
-129.9152076671
 20
-25.7507519001
 10
-129.9153257787
 20
-25.7511708011
 10
-129.9154358639
 20
-25.7515775431
 10
-129.9155374893
 20
-25.7519712979
 10
-129.9156302707
 20
-25.7523514303
 10
-129.9157140133
 20
-25.7527180544
 10
-129.9157883279
 20
-25.7530705222
 10
-129.915852873
 20
-25.7534083614
 10
-129.9159074529
 20
-25.7537318234
 10
-129.9159517466
 20
-25.7540404094
 10
-129.9159854777
 20
-25.7543335228
 10
-129.9160084736
 20
-25.7546111165
 10
-129.9160204966
 20
-25.7548728935
 10
-129.916021333
 20
-25.7551189043
 10
-129.9160130029
 20
-25.7553180732
  0
LWPOLYLINE
  5
4A4
100
AcDbEntity
  8
RACCORDO
100
AcDbPolyline
 62
250
  6
CONTINUOUS
 90
4
 70
0
 10
-129.9134747825
 20
-25.7454713479
 10
-129.9136588579
 20
-25.7459894778
 10
-129.9138384119
 20
-25.7465043653
 10
-129.914013177
 20
-25.7470131751
  0
LINE
  5
4A5
100
AcDbEntity
  8
RACCORDO
100
AcDbLine
 62
250
  6
CONTINUOUS
 10
-129.9125002477
 20
-25.7427825558
 11
-129.9127011483
 21
-25.7433399494
  0
LINE
  5
4A6
100
AcDbEntity
  8
RACCORDO
100
AcDbLine
 62
250
  6
CONTINUOUS
 10
-129.9130943535
 20
-25.7444260783
 11
-129.9132865418
 21
-25.7449517919
  0
LINE
  5
4A7
100
AcDbEntity
  8
0
100
AcDbLine
 62
7
  6
CONTINUOUS
 10
-121.7087478087
 20
3.6749773271
 11
-123.7087478087
 21
3.5
  0
LWPOLYLINE
  5
4A8
100
AcDbEntity
  8
RACCORDO
100
AcDbPolyline
 62
250
  6
CONTINUOUS
 90
4
 70
0
 10
-129.9124948583
 20
25.7427681873
 10
-129.9122922772
 20
25.7422174129
 10
-129.9120865417
 20
25.7416792421
 10
-129.9118773851
 20
25.7411646655
  0
LWPOLYLINE
  5
4A9
100
AcDbEntity
  8
RACCORDO
100
AcDbPolyline
 62
250
  6
CONTINUOUS
 90
5
 70
0
 10
-129.9139981433
 20
25.7469692884
 10
-129.913824178
 20
25.7464635774
 10
-129.9136455477
 20
25.7459520096
 10
-129.91346252
 20
25.7454372344
 10
-129.913275441
 20
25.744921061
  0
LWPOLYLINE
  5
4AA
100
AcDbEntity
  8
RACCORDO
100
AcDbPolyline
 62
250
  6
CONTINUOUS
 90
3
 70
0
 10
-129.9118774246
 20
-25.7411648199
 10
-129.9120884615
 20
-25.7416841816
 10
-129.9122959691
 20
-25.7422272519
  0
LWPOLYLINE
  5
4AB
100
AcDbEntity
  8
0
100
AcDbPolyline
 62
7
  6
CONTINUOUS
 90
9
 70
0
 10
-129.7804005579
 20
-27.14213
 10
-129.7795685915
 20
-27.1401831864
 10
-129.7792421076
 20
-27.1342387418
 10
-129.7794211062
 20
-27.1241757131
 10
-129.780107199
 20
-27.1098733918
 10
-129.7812987743
 20
-27.0913485237
 10
-129.7829909972
 20
-27.0688840377
 10
-129.7852175606
 20
-27.0427558832
 10
-129.791066716
 20
-26.9806723324
  0
LWPOLYLINE
  5
4AC
100
AcDbEntity
  8
RACCORDO
100
AcDbPolyline
 62
250
  6
CONTINUOUS
 90
11
 70
0
 10
-127.0147488137
 20
-38.8689146623
 10
-127.0119132322
 20
-38.8624596452
 10
-127.0094351027
 20
-38.8484585198
 10
-127.0072865888
 20
-38.826940329
 10
-127.0054447129
 20
-38.7979859554
 10
-127.0038907026
 20
-38.761719768
 10
-127.0026059883
 20
-38.7182699761
 10
-127.0015752501
 20
-38.6677832398
 10
-127.0007894746
 20
-38.6104801234
 10
-127.0002401707
 20
-38.5466281798
 10
-126.9998254941
 20
-38.4003823479
  0
LWPOLYLINE
  5
4AD
100
AcDbEntity
  8
RACCORDO
100
AcDbPolyline
 62
250
  6
CONTINUOUS
 90
11
 70
0
 10
-127.105076647
 20
-38.998501918
 10
-127.1038921393
 20
-38.9959896755
 10
-127.1026489057
 20
-38.9935333171
 10
-127.1013512447
 20
-38.9910795838
 10
-127.1000124273
 20
-38.9886186998
 10
-127.0986354155
 20
-38.9861523064
 10
-127.0971992937
 20
-38.9836489316
 10
-127.0956981242
 20
-38.9810957339
 10
-127.0941369265
 20
-38.978594234
 10
-127.0925185879
 20
-38.976312892
 10
-127.0908638579
 20
-38.9744197245
  0
LWPOLYLINE
  5
4AE
100
AcDbEntity
  8
RACCORDO
100
AcDbPolyline
 62
250
  6
CONTINUOUS
 90
4
 70
0
 10
-127.1078173229
 20
39.0045483038
 10
-127.1088743055
 20
39.0067852762
 10
-127.1099753832
 20
39.0089046607
 10
-127.1111372649
 20
39.0109261947
  0
LWPOLYLINE
  5
4AF
100
AcDbEntity
  8
RACCORDO
100
AcDbPolyline
 62
250
  6
CONTINUOUS
 90
9
 70
0
 10
-126.0721059209
 20
-39.7713260911
 10
-126.0691234091
 20
-39.7655593804
 10
-126.0664687068
 20
-39.7479476444
 10
-126.0641418139
 20
-39.7185564658
 10
-126.0621603944
 20
-39.6775027607
 10
-126.0605067844
 20
-39.6249537025
 10
-126.0591279919
 20
-39.5611226571
 10
-126.0580152243
 20
-39.4862519516
 10
-126.0565875282
 20
-39.3047975582
  0
LINE
  5
4B0
100
AcDbEntity
  8
RACCORDO
100
AcDbLine
 62
250
  6
CONTINUOUS
 10
-127.1243318417
 20
-39.0337370126
 11
-127.122815844
 21
-39.0310088915
  0
LINE
  5
4B1
100
AcDbEntity
  8
RACCORDO
100
AcDbLine
 62
250
  6
CONTINUOUS
 10
-127.1213230549
 20
-39.0283479056
 11
-127.119858991
 21
-39.0257622173
  0
LINE
  5
4B2
100
AcDbEntity
  8
RACCORDO
100
AcDbLine
 62
250
  6
CONTINUOUS
 10
-127.1184269345
 20
-39.0232547314
 11
-127.1170278425
 21
-39.0208245731
  0
LINE
  5
4B3
100
AcDbEntity
  8
RACCORDO
100
AcDbLine
 62
250
  6
CONTINUOUS
 10
-127.1156635044
 20
-39.0184731887
 11
-127.1143380299
 21
-39.0162024075
  0
LWPOLYLINE
  5
4B4
100
AcDbEntity
  8
RACCORDO
100
AcDbPolyline
 62
250
  6
CONTINUOUS
 90
7
 70
0
 10
-127.1130550046
 20
-39.0140153121
 10
-127.1118153722
 20
-39.0119165283
 10
-127.1106247283
 20
-39.0099213402
 10
-127.1094798564
 20
-39.0079492994
 10
-127.108366189
 20
-39.0058534249
 10
-127.1072797348
 20
-39.0035368276
 10
-127.1061977992
 20
-39.0010517412
  0
LWPOLYLINE
  5
4B5
100
AcDbEntity
  8
RACCORDO
100
AcDbPolyline
 62
250
  6
CONTINUOUS
 90
3
 70
0
 10
-127.1162368559
 20
39.0194364016
 10
-127.1204597581
 20
39.026827116
 10
-127.1219336047
 20
39.029434286
  0
LWPOLYLINE
  5
4B6
100
AcDbEntity
  8
RACCORDO
100
AcDbPolyline
 62
250
  6
CONTINUOUS
 90
3
 70
0
 10
-127.1234326051
 20
39.0321128894
 10
-127.124953744
 20
39.0348610749
 10
-127.1264915695
 20
39.0376688075
  0
LWPOLYLINE
  5
4B7
100
AcDbEntity
  8
RACCORDO
100
AcDbPolyline
 62
250
  6
CONTINUOUS
 90
25
 70
0
 10
-127.1280416933
 20
39.0405280365
 10
-127.1296017139
 20
39.0434364681
 10
-127.1311686959
 20
39.0463920764
 10
-127.1327368939
 20
39.0493874054
 10
-127.1343026659
 20
39.0524179879
 10
-127.1358652645
 20
39.0554848729
 10
-127.1374188132
 20
39.0585793439
 10
-127.1389568405
 20
39.0616915788
 10
-127.1404761877
 20
39.0648187406
 10
-127.1419692315
 20
39.0679486737
 10
-127.143428119
 20
39.0710673731
 10
-127.1448476271
 20
39.0741662178
 10
-127.1462182516
 20
39.0772282934
 10
-127.1475290881
 20
39.080236213
 10
-127.1487706233
 20
39.0831769574
 10
-127.1499300668
 20
39.0860278556
 10
-127.1509960809
 20
39.0887611194
 10
-127.1519588575
 20
39.0913504731
 10
-127.152806111
 20
39.0937621256
 10
-127.1535277586
 20
39.0959659472
 10
-127.154115119
 20
39.0979344033
 10
-127.1545601442
 20
39.0996345633
 10
-127.1548638153
 20
39.101039006
 10
-127.1550308822
 20
39.1021226723
 10
-127.1550676119
 20
39.1028640569
  0
LWPOLYLINE
  5
4B8
100
AcDbEntity
  8
RACCORDO
100
AcDbPolyline
 62
250
  6
CONTINUOUS
 90
6
 70
0
 10
-127.0787662487
 20
38.9585578734
 10
-127.0834821079
 20
38.9658705363
 10
-127.0849894232
 20
38.9680398334
 10
-127.0865125307
 20
38.9700022421
 10
-127.0880912251
 20
38.9718233163
 10
-127.0897590578
 20
38.9735875642
  0
LINE
  5
4B9
100
AcDbEntity
  8
RACCORDO
100
AcDbLine
 62
250
  6
CONTINUOUS
 10
-127.0803905831
 20
38.9610465401
 11
-127.0819563667
 21
38.9635126857
  0
LWPOLYLINE
  5
4BA
100
AcDbEntity
  8
RACCORDO
100
AcDbPolyline
 62
250
  6
CONTINUOUS
 90
4
 70
0
 10
-127.1123481869
 20
39.0129152258
 10
-127.1136059927
 20
39.0149688441
 10
-127.1149039922
 20
39.0171458305
 10
-127.1162368559
 20
39.0194364016
  0
LWPOLYLINE
  5
4BB
100
AcDbEntity
  8
RACCORDO
100
AcDbPolyline
 62
250
  6
CONTINUOUS
 90
14
 70
0
 10
-127.0277839853
 20
-38.8931215621
 10
-127.0273616387
 20
-38.8925622738
 10
-127.0269554558
 20
-38.8919595104
 10
-127.026546973
 20
-38.8914736087
 10
-127.0261213331
 20
-38.8910353337
 10
-127.0256931388
 20
-38.8903691062
 10
-127.0252989462
 20
-38.8889224746
 10
-127.0248620721
 20
-38.8865490401
 10
-127.0242311869
 20
-38.883483045
 10
-127.0232187568
 20
-38.8802902623
 10
-127.0217582012
 20
-38.8772113158
 10
-127.0198497752
 20
-38.8743048417
 10
-127.0175191883
 20
-38.8715435375
 10
-127.0147492712
 20
-38.8689147066
  0
LINE
  5
4BC
100
AcDbEntity
  8
RACCORDO
100
AcDbLine
 62
250
  6
CONTINUOUS
 10
-127.0561740376
 20
-38.9279164562
 11
-127.0544468766
 21
-38.9257350021
  0
LINE
  5
4BD
100
AcDbEntity
  8
RACCORDO
100
AcDbLine
 62
250
  6
CONTINUOUS
 10
-127.0527846777
 20
-38.9236511733
 11
-127.05120345
 21
-38.9216823935
  0
LINE
  5
4BE
100
AcDbEntity
  8
RACCORDO
100
AcDbLine
 62
250
  6
CONTINUOUS
 10
-127.0300464053
 20
-38.8958349135
 11
-127.029569637
 21
-38.8952429601
  0
LINE
  5
4BF
100
AcDbEntity
  8
RACCORDO
100
AcDbLine
 62
250
  6
CONTINUOUS
 10
-127.0497077966
 20
-38.9198316385
 11
-127.0482906908
 21
-38.9180879539
  0
LINE
  5
4C0
100
AcDbEntity
  8
RACCORDO
100
AcDbLine
 62
250
  6
CONTINUOUS
 10
-127.0469492894
 20
-38.9164457204
 11
-127.0291109108
 21
-38.894680195
  0
LWPOLYLINE
  5
4C1
100
AcDbEntity
  8
RACCORDO
100
AcDbPolyline
 62
250
  6
CONTINUOUS
 90
3
 70
0
 10
-127.0291109108
 20
-38.894680195
 10
-127.0286611319
 20
-38.8941396176
 10
-127.0282168274
 20
-38.8936376059
  0
LWPOLYLINE
  5
4C2
100
AcDbEntity
  8
RACCORDO
100
AcDbPolyline
 62
250
  6
CONTINUOUS
 90
4
 70
0
 10
-130.7001531067
 20
22.2010987018
 10
-130.7396827341
 20
22.2009965914
 10
-130.7494497422
 20
22.201016545
 10
-130.7524595431
 20
22.2010431817
  0
LINE
  5
4C3
100
AcDbEntity
  8
RACCORDO
100
AcDbLine
 62
250
  6
CONTINUOUS
 10
-130.5457824754
 20
22.1984867914
 11
-130.3217957052
 21
22.1940555805
  0
LWPOLYLINE
  5
4C4
100
AcDbEntity
  8
RACCORDO
100
AcDbPolyline
 62
250
  6
CONTINUOUS
 90
5
 70
0
 10
-130.5457842378
 20
22.1984868048
 10
-130.5932115361
 20
22.199611481
 10
-130.6349308345
 20
22.2004185911
 10
-130.6706588824
 20
22.2009320994
 10
-130.7001531067
 20
22.2010987018
  0
LWPOLYLINE
  5
4C5
100
AcDbEntity
  8
RACCORDO
100
AcDbPolyline
 62
250
  6
CONTINUOUS
 90
7
 70
0
 10
-130.3217957052
 20
22.1940555805
 10
-130.1451186235
 20
22.1896787555
 10
-130.0755596013
 20
22.1875356535
 10
-130.0189611608
 20
22.1854357963
 10
-129.9755806696
 20
22.1833887274
 10
-129.9456153899
 20
22.1814037501
 10
-129.9292015814
 20
22.1794898856
  0
LWPOLYLINE
  5
4C6
100
AcDbEntity
  8
RACCORDO
100
AcDbPolyline
 62
250
  6
CONTINUOUS
 90
12
 70
0
 10
-127.0914841179
 20
38.9754270243
 10
-127.0931963724
 20
38.9774587024
 10
-127.0948434622
 20
38.9797608991
 10
-127.0964066289
 20
38.9822629339
 10
-127.0978976961
 20
38.9848332678
 10
-127.0993330616
 20
38.9873867123
 10
-127.1007078197
 20
38.9898818748
 10
-127.1020220853
 20
38.9923359847
 10
-127.1032897254
 20
38.9948015587
 10
-127.1045032837
 20
38.9972817104
 10
-127.1056552805
 20
38.9997492348
 10
-127.1067555863
 20
39.0021907808
  0
LINE
  5
4C7
100
AcDbEntity
  8
RACCORDO
100
AcDbLine
 62
250
  6
CONTINUOUS
 10
-127.0310303829
 20
38.8970381518
 11
-127.0470493438
 21
38.9165688086
  0
LINE
  5
4C8
100
AcDbEntity
  8
RACCORDO
100
AcDbLine
 62
250
  6
CONTINUOUS
 10
-127.0482603477
 20
38.9180512258
 11
-127.0495425381
 21
38.9196281686
  0
LINE
  5
4C9
100
AcDbEntity
  8
RACCORDO
100
AcDbLine
 62
250
  6
CONTINUOUS
 10
-127.0509020684
 20
38.9213087001
 11
-127.0523362114
 21
38.9230914431
  0
LINE
  5
4CA
100
AcDbEntity
  8
RACCORDO
100
AcDbLine
 62
250
  6
CONTINUOUS
 10
-127.0538447383
 20
38.9249782243
 11
-127.0554348829
 21
38.9269805864
  0
LINE
  5
4CB
100
AcDbEntity
  8
RACCORDO
100
AcDbLine
 62
250
  6
CONTINUOUS
 10
-127.0571005715
 20
38.9290935187
 11
-127.0588199658
 21
38.9312920432
  0
LWPOLYLINE
  5
4CC
100
AcDbEntity
  8
RACCORDO
100
AcDbPolyline
 62
250
  6
CONTINUOUS
 90
11
 70
0
 10
-127.060591833
 20
38.9335772596
 10
-127.0624136885
 20
38.9359483997
 10
-127.064259536
 20
38.9383735768
 10
-127.0661251204
 20
38.9408501943
 10
-127.0680058858
 20
38.9433782745
 10
-127.0698738754
 20
38.9459267215
 10
-127.0717217646
 20
38.9484875192
 10
-127.0735490887
 20
38.9510522428
 10
-127.0753386479
 20
38.953585812
 10
-127.0770793611
 20
38.9560787634
 10
-127.0787662487
 20
38.9585578734
  0
LWPOLYLINE
  5
4CD
100
AcDbEntity
  8
RACCORDO
100
AcDbPolyline
 62
250
  6
CONTINUOUS
 90
5
 70
0
 10
-127.0281993996
 20
38.8936174502
 10
-127.0286428878
 20
38.8941172042
 10
-127.0290913737
 20
38.8946557891
 10
-127.0295484016
 20
38.8952166354
 10
-127.0300226753
 20
38.8958059568
  0
LWPOLYLINE
  5
4CE
100
AcDbEntity
  8
RACCORDO
100
AcDbPolyline
 62
250
  6
CONTINUOUS
 90
19
 70
0
 10
-127.0892134332
 20
-38.9728397557
 10
-127.0876018349
 20
-38.9712962854
 10
-127.0860658408
 20
-38.9695436196
 10
-127.0845968688
 20
-38.967524299
 10
-127.0831402291
 20
-38.9653129735
 10
-127.0816462555
 20
-38.9629893092
 10
-127.0800890215
 20
-38.9605959439
 10
-127.0784627608
 20
-38.9581434164
 10
-127.0767689743
 20
-38.9556473673
 10
-127.0750161387
 20
-38.9531204305
 10
-127.0732101992
 20
-38.9505620928
 10
-127.0713485281
 20
-38.9479622723
 10
-127.069442035
 20
-38.9453363619
 10
-127.0675179062
 20
-38.9427223683
 10
-127.0655799256
 20
-38.9401245473
 10
-127.0636352824
 20
-38.9375498006
 10
-127.0617158409
 20
-38.935036641
 10
-127.0598256355
 20
-38.9325864422
 10
-127.0579685522
 20
-38.9302013312
  0
LWPOLYLINE
  5
4CF
100
AcDbEntity
  8
RACCORDO
100
AcDbPolyline
 62
250
  6
CONTINUOUS
 90
14
 70
0
 10
-127.0147497562
 20
38.8689147535
 10
-127.0175105933
 20
38.8715454384
 10
-127.0198356393
 20
38.8742975176
 10
-127.0217422248
 20
38.8771834919
 10
-127.0232039193
 20
38.8802369388
 10
-127.0242189098
 20
38.8834129286
 10
-127.0248520062
 20
38.8864846409
 10
-127.0252895518
 20
38.8888806561
 10
-127.0256831344
 20
38.8903484763
 10
-127.0261098859
 20
38.8910221751
 10
-127.0265338322
 20
38.8914577703
 10
-127.0269405866
 20
38.8919404254
 10
-127.0273454135
 20
38.8925429267
 10
-127.0277670002
 20
38.8931024349
  0
LWPOLYLINE
  5
4D0
100
AcDbEntity
  8
RACCORDO
100
AcDbPolyline
 62
7
  6
CONTINUOUS
 90
15
 70
0
 10
-126.2684299438
 20
39.7610365801
 10
-126.3562049712
 20
39.7524322303
 10
-126.4429538838
 20
39.7361103015
 10
-126.5279970703
 20
39.7121784042
 10
-126.6106655871
 20
39.6808040517
 10
-126.6903057813
 20
39.6422139533
 10
-126.7662846154
 20
39.596692779
 10
-126.8379959067
 20
39.5445806427
 10
-126.9048644549
 20
39.4862710568
 10
-126.966350313
 20
39.4222087188
 10
-127.0219543835
 20
39.3528853892
 10
-127.0712224379
 20
39.2788360779
 10
-127.1137483877
 20
39.2006356883
 10
-127.1491780056
 20
39.1188944747
 10
-127.1550135435
 20
39.10320404
  0
LINE
  5
4D1
100
AcDbEntity
  8
RACCORDO
100
AcDbLine
 62
7
  6
CONTINUOUS
 10
-121.7087478087
 20
40.0
 11
-126.2671737158
 21
39.7611030212
  0
LINE
  5
4D2
100
AcDbEntity
  8
RACCORDO
100
AcDbLine
 62
250
  6
CONTINUOUS
 10
-121.7087478087
 20
37.0
 11
-126.0797726418
 21
37.0
  0
LINE
  5
4D3
100
AcDbEntity
  8
RACCORDO
100
AcDbLine
 62
250
  6
CONTINUOUS
 10
-126.9546572258
 20
37.0321809734
 11
-126.0797712893
 21
36.9999999972
  0
LWPOLYLINE
  5
4D4
100
AcDbEntity
  8
RACCORDO
100
AcDbPolyline
 62
250
  6
CONTINUOUS
 90
3
 70
0
 10
-127.0219847296
 20
37.0350789699
 10
-127.0082597638
 20
37.0344183381
 10
-126.9546572258
 20
37.0321809734
  0
ARC
  5
4D5
100
AcDbEntity
  8
0
100
AcDbCircle
 62
7
  6
CONTINUOUS
 10
-100.0
 20
-37.0
 40
3.0
100
AcDbArc
 50
180.0000000164
 51
269.9999999996
  0
ARC
  5
4D6
100
AcDbEntity
  8
0
100
AcDbCircle
 62
7
  6
CONTINUOUS
 10
100.0
 20
-37.0
 40
3.0
100
AcDbArc
 50
270.0000000004
 51
359.9999999836
  0
ARC
  5
4D7
100
AcDbEntity
  8
0
100
AcDbCircle
 62
7
  6
CONTINUOUS
 10
100.0
 20
37.0
 40
3.0
100
AcDbArc
 50
0.0000000164
 51
89.9999999996
  0
ARC
  5
4D8
100
AcDbEntity
  8
0
100
AcDbCircle
 62
7
  6
CONTINUOUS
 10
-100.0
 20
37.0
 40
3.0
100
AcDbArc
 50
90.0000000004
 51
179.9999999836
  0
ARC
  5
4D9
100
AcDbEntity
  8
0
100
AcDbCircle
 62
7
  6
CONTINUOUS
 10
80.23733
 20
-26.789265
 40
0.8893898871
100
AcDbArc
 50
292.842868527
 51
90.0
  0
ARC
  5
4DA
100
AcDbEntity
  8
0
100
AcDbCircle
 62
7
  6
CONTINUOUS
 10
80.156824
 20
-26.789265
 40
0.352865
100
AcDbArc
 50
270.0
 51
90.0
  0
ARC
  5
4DB
100
AcDbEntity
  8
0
100
AcDbCircle
 62
7
  6
CONTINUOUS
 10
-78.45
 20
-22.2
 40
0.3
100
AcDbArc
 50
180.0
 51
270.0
  0
ARC
  5
4DC
100
AcDbEntity
  8
0
100
AcDbCircle
 62
7
  6
CONTINUOUS
 10
-78.45
 20
22.2
 40
0.3
100
AcDbArc
 50
90.0
 51
180.0
  0
ARC
  5
4DD
100
AcDbEntity
  8
0
100
AcDbCircle
 62
7
  6
CONTINUOUS
 10
78.45
 20
22.2
 40
0.3
100
AcDbArc
 50
0.0
 51
90.0
  0
ARC
  5
4DE
100
AcDbEntity
  8
0
100
AcDbCircle
 62
7
  6
CONTINUOUS
 10
78.45
 20
-22.2
 40
0.3
100
AcDbArc
 50
270.0
 51
360.0
  0
ARC
  5
4DF
100
AcDbEntity
  8
RACCORDO
100
AcDbCircle
 62
7
  6
CONTINUOUS
 10
-132.9046162918
 20
25.9624996551
 40
3.0
100
AcDbArc
 50
322.0026583204
 51
322.3784872609
  0
ARC
  5
4E0
100
AcDbEntity
  8
RACCORDO
100
AcDbCircle
 62
7
  6
CONTINUOUS
 10
-132.9046162918
 20
25.9624996551
 40
3.0
100
AcDbArc
 50
325.2142884948
 51
326.9065888019
  0
ARC
  5
4E1
100
AcDbEntity
  8
0
100
AcDbCircle
 62
7
  6
CONTINUOUS
 10
-129.7524595431
 20
23.5
 40
1.0
100
AcDbArc
 50
141.9784831971
 51
180.0
  0
ARC
  5
4E2
100
AcDbEntity
  8
0
100
AcDbCircle
 62
7
  6
CONTINUOUS
 10
-129.7524595431
 20
-23.5
 40
1.0
100
AcDbArc
 50
180.0
 51
218.0215157264
  0
ARC
  5
4E3
100
AcDbEntity
  8
RACCORDO
100
AcDbCircle
 62
7
  6
CONTINUOUS
 10
-126.2087434735
 20
38.7627928744
 40
1.0
100
AcDbArc
 50
154.8572271829
 51
160.4806114722
  0
ARC
  5
4E4
100
AcDbEntity
  8
RACCORDO
100
AcDbCircle
 62
7
  6
CONTINUOUS
 10
-126.2087435175
 20
-38.7627928721
 40
0.9999999983
100
AcDbArc
 50
199.5193894933
 51
205.1427734805
  0
ENDSEC
  0
SECTION
  2
OBJECTS
  0
DICTIONARY
  5
C
100
AcDbDictionary
280
0
281
1
  3
ACAD_GROUP
350
D
  3
ACAD_MLINESTYLE
350
17
  3
ACAD_LAYOUT
350
1A
  3
ACAD_PLOTSETTINGS
350
19
  3
ACAD_PLOTSTYLENAME
350
E
  0
DICTIONARY
  5
D
102
{ACAD_REACTORS
330
C
102
}
100
AcDbDictionary
280
0
281
1
  0
ACDBDICTIONARYWDFLT
  5
E
102
{ACAD_REACTORS
330
C
102
}
100
AcDbDictionary
281
1
  3
Normal
350
F
100
AcDbDictionaryWithDefault
340
F
  0
DICTIONARY
  5
17
102
{ACAD_REACTORS
330
C
102
}
100
AcDbDictionary
280
0
281
1
  3
Standard
350
18
  0
DICTIONARY
  5
19
102
{ACAD_REACTORS
330
C
102
}
100
AcDbDictionary
281
1
  0
DICTIONARY
  5
1A
102
{ACAD_REACTORS
330
C
102
}
100
AcDbDictionary
281
1
  3
Model
350
4E5
  3
Layout1
350
4E6
  0
ACDBPLACEHOLDER
  5
F
102
{ACAD_REACTORS
330
E
102
}
  0
MLINESTYLE
  5
18
102
{ACAD_REACTORS
330
17
102
}
100
AcDbMlineStyle
  2
STANDARD
 70
0
  3

 62
256
 51
90.0
 52
90.0
 71
2
 49
0.5
 62
256
  6
BYLAYER
 49
-0.5
 62
256
  6
BYLAYER
  0
LAYOUT
  5
4E5
102
{ACAD_REACTORS
330
1A
102
}
100
AcDbPlotSettings
  1

  2
none_device
  4
ISO_A4_(297.00_x_210.00_MM)
  6

 40
0.0
 41
0.0
 42
0.0
 43
0.0
 44
297.0
 45
210.0
 46
0.0
 47
0.0
 48
0.0
 49
0.0
140
0.0
141
0.0
142
1.0
143
1.0
 70
1024
 72
1
 73
0
 74
0
  7

 75
0
147
1.0
148
0.0
149
0.0
100
AcDbLayout
  1
Model
 70
0
 71
0
 10
0.0
 20
0.0
 11
297.0
 21
210.0
 12
0.0
 22
0.0
 32
0.0
 14
0.0
 24
0.0
 34
0.0
 15
0.0
 25
0.0
 35
0.0
146
0.0
 13
0.0
 23
0.0
 33
0.0
 16
1.0
 26
0.0
 36
0.0
 17
0.0
 27
1.0
 37
0.0
 76
0
330
212
345
0
346
0
  0
LAYOUT
  5
4E6
102
{ACAD_REACTORS
330
1A
102
}
100
AcDbPlotSettings
  1

  2
none_device
  4
ISO_A4_(297.00_x_210.00_MM)
  6

 40
0.0
 41
0.0
 42
0.0
 43
0.0
 44
297.0
 45
210.0
 46
0.0
 47
0.0
 48
0.0
 49
0.0
140
0.0
141
0.0
142
1.0
143
1.0
 70
0
 72
1
 73
0
 74
0
  7

 75
0
147
1.0
148
0.0
149
0.0
100
AcDbLayout
  1
Layout1
 70
0
 71
1
 10
0.0
 20
0.0
 11
297.0
 21
210.0
 12
0.0
 22
0.0
 32
0.0
 14
0.0
 24
0.0
 34
0.0
 15
0.0
 25
0.0
 35
0.0
146
0.0
 13
0.0
 23
0.0
 33
0.0
 16
1.0
 26
0.0
 36
0.0
 17
0.0
 27
1.0
 37
0.0
 76
0
330
213
345
0
346
0
  0
ENDSEC
  0
EOF
