  0
SECTION
  2
HEADER
  9
$ACADVER
  1
AC1024
  9
$DWGCODEPAGE
  3
ANSI_1252
  9
$EXTMAX
 10
297.0
 20
210.0
 30
0.0
  9
$EXTMIN
 10
0.0
 20
0.0
 30
0.0
  9
$LIMMIN
 10
0.0
 20
0.0
  9
$LIMMAX
 10
297.0
 20
210.0
  9
$VIEWCTR
 10
148.5
 20
105.0
  9
$VIEWSIZE
 40
210.0
  9
$CLAYER
  8
0
  9
$LTSCALE
 40
16.335
  9
$CELTYPE
  6
BYLAYER
  9
$DIMSCALE
 40
1.0
  9
$DIMASZ
 40
3.0
  9
$DIMEXO
 40
0.5
  9
$DIMDLI
 40
11.286
  9
$DIMEXE
 40
1.5
  9
$DIMCEN
 40
2.673
  9
$DIMLFAC
 40
1.0
  9
$DIMBLK
  1
_FILLED
  9
$DIMALT
 70
0
  9
$DIMALTF
 40
0.0393700787
  9
$DIMTXT
 40
3.0
  9
$DIMTOL
 70
1
  9
$DIMLIM
 70
0
  9
$DIMTFAC
 40
1.0
  9
$DIMTP
 40
0.01
  9
$DIMTM
 40
0.01
  9
$DIMGAP
 40
0.625
  9
$DIMDSEP
 70
44
  9
$AUNITS
 70
0
  9
$PDMODE
 70
3
  9
$PDSIZE
 40
3.0
  9
$HANDSEED
  5
422
  9
$TILEMODE
 70
1
  9
$MEASUREMENT
 70
1
  9
$INSUNITS
 70
4
  0
ENDSEC
  0
SECTION
  2
CLASSES
  0
CLASS
  1
ACDBDICTIONARYWDFLT
  2
AcDbDictionaryWithDefault
  3
AutoCAD 2000
 90
0
 91
1
280
0
281
0
  0
CLASS
  1
ACDBPLACEHOLDER
  2
AcDbPlaceHolder
  3
AutoCAD 2000
 90
0
 91
1
280
0
281
0
  0
CLASS
  1
LAYOUT
  2
AcDbLayout
  3
AutoCAD 2000
 90
0
 91
0
280
0
281
0
  0
ENDSEC
  0
SECTION
  2
TABLES
  0
TABLE
  2
VPORT
  5
8
100
AcDbSymbolTable
 70
2
  0
VPORT
  5
1F4
100
AcDbSymbolTableRecord
100
AcDbViewportTableRecord
  2
*ACTIVE
 70
0
 10
0.0
 20
0.0
 11
1.0
 21
1.0
 12
148.5
 22
105.0
 13
0.0
 23
0.0
 14
1.0
 24
1.0
 15
0.0
 25
0.0
 16
0.0
 26
0.0
 36
1.0
 17
0.0
 27
0.0
 37
0.0
 40
210.0
 41
1.4142857143
 42
50.0
 43
0.0
 44
0.0
 50
0.0
 51
0.0
 71
0
 72
100
 73
1
 74
1
 75
0
 76
0
 77
0
 78
0
  0
ENDTAB
  0
TABLE
  2
LTYPE
  5
5
100
AcDbSymbolTable
 70
6
  0
LTYPE
  5
14
100
AcDbSymbolTableRecord
100
AcDbLinetypeTableRecord
  2
BYBLOCK
 70
0
  3

 72
65
 73
0
 40
0.0
  0
LTYPE
  5
15
100
AcDbSymbolTableRecord
100
AcDbLinetypeTableRecord
  2
BYLAYER
 70
0
  3

 72
65
 73
0
 40
0.0
  0
LTYPE
  5
16
100
AcDbSymbolTableRecord
100
AcDbLinetypeTableRecord
  2
CONTINUOUS
 70
64
  3
Solid line
 72
65
 73
0
 40
0.0
  0
LTYPE
  5
1F5
100
AcDbSymbolTableRecord
100
AcDbLinetypeTableRecord
  2
CENTER
 70
64
  3
____ _ ____ _ ____ _ ____ _ ____ _ ____ _ ____
 72
65
 73
4
 40
0.6
 49
0.375
 74
0
 49
-0.075
 74
0
 49
0.075
 74
0
 49
-0.075
 74
0
  0
LTYPE
  5
1F6
100
AcDbSymbolTableRecord
100
AcDbLinetypeTableRecord
  2
HIDDEN
 70
64
  3
- - - - - - - - - - - - - - - - - - - -
 72
65
 73
2
 40
0.2
 49
0.1
 74
0
 49
-0.1
 74
0
  0
LTYPE
  5
1F7
100
AcDbSymbolTableRecord
100
AcDbLinetypeTableRecord
  2
PHANTOM
 70
64
  3
_____ _ _ _____ _ _ _____ _ _ _____
 72
65
 73
6
 40
0.8
 49
0.45
 74
0
 49
-0.05
 74
0
 49
0.1
 74
0
 49
-0.05
 74
0
 49
0.1
 74
0
 49
-0.05
 74
0
  0
LTYPE
  5
1F8
100
AcDbSymbolTableRecord
100
AcDbLinetypeTableRecord
  2
DOT
 70
64
  3
. . . . . . . . . . . . . . . . . . . .
 72
65
 73
2
 40
0.2
 49
0.1
 74
0
 49
-0.1
 74
0
  0
LTYPE
  5
1F9
100
AcDbSymbolTableRecord
100
AcDbLinetypeTableRecord
  2
DASHED
 70
64
  3
- - - - - - - - - - - - - - - - - - - -
 72
65
 73
2
 40
0.2
 49
0.1
 74
0
 49
-0.1
 74
0
  0
ENDTAB
  0
TABLE
  2
LAYER
  5
2
100
AcDbSymbolTable
 70
36
  0
LAYER
  5
10
100
AcDbSymbolTableRecord
100
AcDbLayerTableRecord
  2
0
 70
0
 62
7
  6
CONTINUOUS
370
-3
390
F
  0
LAYER
  5
1FA
100
AcDbSymbolTableRecord
100
AcDbLayerTableRecord
  2
DEFAULT_1
 70
0
 62
7
  6
CENTER
370
-3
390
F
  0
LAYER
  5
1FB
100
AcDbSymbolTableRecord
100
AcDbLayerTableRecord
  2
DEFAULT_2
 70
0
 62
7
  6
HIDDEN
370
-3
390
F
  0
LAYER
  5
1FC
100
AcDbSymbolTableRecord
100
AcDbLayerTableRecord
  2
DEFAULT_3
 70
0
 62
7
  6
PHANTOM
370
-3
390
F
  0
LAYER
  5
1FD
100
AcDbSymbolTableRecord
100
AcDbLayerTableRecord
  2
ASSI
 70
0
 62
7
  6
CONTINUOUS
370
-3
390
F
  0
LAYER
  5
1FE
100
AcDbSymbolTableRecord
100
AcDbLayerTableRecord
  2
COORDINATE
 70
0
 62
7
  6
CONTINUOUS
370
-3
390
F
  0
LAYER
  5
1FF
100
AcDbSymbolTableRecord
100
AcDbLayerTableRecord
  2
COPY_PUBLISH
 70
0
 62
7
  6
CONTINUOUS
370
-3
390
F
  0
LAYER
  5
200
100
AcDbSymbolTableRecord
100
AcDbLayerTableRecord
  2
COSMETICI
 70
0
 62
7
  6
CONTINUOUS
370
-3
390
F
  0
LAYER
  5
201
100
AcDbSymbolTableRecord
100
AcDbLayerTableRecord
  2
CURVE
 70
0
 62
7
  6
CONTINUOUS
370
-3
390
F
  0
LAYER
  5
202
100
AcDbSymbolTableRecord
100
AcDbLayerTableRecord
  2
DRAFT
 70
0
 62
7
  6
CONTINUOUS
370
-3
390
F
  0
LAYER
  5
203
100
AcDbSymbolTableRecord
100
AcDbLayerTableRecord
  2
IMPORT_IGES
 70
0
 62
7
  6
CONTINUOUS
370
-3
390
F
  0
LAYER
  5
204
100
AcDbSymbolTableRecord
100
AcDbLayerTableRecord
  2
INTFCLR
 70
0
 62
7
  6
CONTINUOUS
370
-3
390
F
  0
LAYER
  5
205
100
AcDbSymbolTableRecord
100
AcDbLayerTableRecord
  2
INTFCLR_17
 70
0
 62
7
  6
CONTINUOUS
370
-3
390
F
  0
LAYER
  5
206
100
AcDbSymbolTableRecord
100
AcDbLayerTableRecord
  2
INTF_1
 70
0
 62
7
  6
CONTINUOUS
370
-3
390
F
  0
LAYER
  5
207
100
AcDbSymbolTableRecord
100
AcDbLayerTableRecord
  2
INTF_11
 70
0
 62
7
  6
CONTINUOUS
370
-3
390
F
  0
LAYER
  5
208
100
AcDbSymbolTableRecord
100
AcDbLayerTableRecord
  2
INTF_2
 70
0
 62
7
  6
CONTINUOUS
370
-3
390
F
  0
LAYER
  5
209
100
AcDbSymbolTableRecord
100
AcDbLayerTableRecord
  2
INTF_5
 70
0
 62
7
  6
CONTINUOUS
370
-3
390
F
  0
LAYER
  5
20A
100
AcDbSymbolTableRecord
100
AcDbLayerTableRecord
  2
INTF_YELLOW
 70
0
 62
7
  6
CONTINUOUS
370
-3
390
F
  0
LAYER
  5
20B
100
AcDbSymbolTableRecord
100
AcDbLayerTableRecord
  2
NONE
 70
0
 62
7
  6
CONTINUOUS
370
-3
390
F
  0
LAYER
  5
20C
100
AcDbSymbolTableRecord
100
AcDbLayerTableRecord
  2
NOTE
 70
0
 62
7
  6
CONTINUOUS
370
-3
390
F
  0
LAYER
  5
20D
100
AcDbSymbolTableRecord
100
AcDbLayerTableRecord
  2
PIANI
 70
0
 62
7
  6
CONTINUOUS
370
-3
390
F
  0
LAYER
  5
20E
100
AcDbSymbolTableRecord
100
AcDbLayerTableRecord
  2
POSIZIONE_SCRITTE
 70
0
 62
7
  6
CONTINUOUS
370
-3
390
F
  0
LAYER
  5
20F
100
AcDbSymbolTableRecord
100
AcDbLayerTableRecord
  2
PUNTI
 70
0
 62
7
  6
CONTINUOUS
370
-3
390
F
  0
LAYER
  5
210
100
AcDbSymbolTableRecord
100
AcDbLayerTableRecord
  2
RACCORDO
 70
0
 62
7
  6
CONTINUOUS
370
-3
390
F
  0
LAYER
  5
211
100
AcDbSymbolTableRecord
100
AcDbLayerTableRecord
  2
RGB____0____0____0__
 70
0
 62
7
  6
CONTINUOUS
370
-3
390
F
  0
LAYER
  5
212
100
AcDbSymbolTableRecord
100
AcDbLayerTableRecord
  2
SIMBOLI
 70
0
 62
7
  6
CONTINUOUS
370
-3
390
F
  0
LAYER
  5
213
100
AcDbSymbolTableRecord
100
AcDbLayerTableRecord
  2
SMUSSO
 70
0
 62
7
  6
CONTINUOUS
370
-3
390
F
  0
LAYER
  5
214
100
AcDbSymbolTableRecord
100
AcDbLayerTableRecord
  2
SUPERFICI
 70
0
 62
7
  6
CONTINUOUS
370
-3
390
F
  0
LAYER
  5
215
100
AcDbSymbolTableRecord
100
AcDbLayerTableRecord
  2
TRASH
 70
0
 62
7
  6
CONTINUOUS
370
-3
390
F
  0
ENDTAB
  0
TABLE
  2
STYLE
  5
3
100
AcDbSymbolTable
 70
1
  0
STYLE
  5
11
100
AcDbSymbolTableRecord
100
AcDbTextStyleTableRecord
  2
STANDARD
 70
0
 40
0.0
 41
0.8
 50
0.0
 71
0
 42
0.2
  3
txt
  4

  0
STYLE
  5
216
100
AcDbSymbolTableRecord
100
AcDbTextStyleTableRecord
  2
TEXTSTYLE_1
 70
0
 40
0.0
 41
0.8
 50
0.0
 71
0
 42
0.2
  3
gdt
  4

  0
ENDTAB
  0
TABLE
  2
VIEW
  5
6
100
AcDbSymbolTable
 70
0
  0
ENDTAB
  0
TABLE
  2
UCS
  5
7
100
AcDbSymbolTable
 70
0
  0
ENDTAB
  0
TABLE
  2
APPID
  5
9
100
AcDbSymbolTable
 70
1
  0
APPID
  5
217
100
AcDbSymbolTableRecord
100
AcDbRegAppTableRecord
  2
ACAD
 70
0
  0
ENDTAB
  0
TABLE
  2
BLOCK_RECORD
  5
1
100
AcDbSymbolTable
 70
0
  0
BLOCK_RECORD
  5
218
100
AcDbSymbolTableRecord
100
AcDbBlockTableRecord
  2
*Model_Space
  0
BLOCK_RECORD
  5
219
100
AcDbSymbolTableRecord
100
AcDbBlockTableRecord
  2
*Paper_Space
  0
BLOCK_RECORD
  5
21A
100
AcDbSymbolTableRecord
100
AcDbBlockTableRecord
  2
_FILLED
  0
BLOCK_RECORD
  5
21B
100
AcDbSymbolTableRecord
100
AcDbBlockTableRecord
  2
*D0
  0
BLOCK_RECORD
  5
21C
100
AcDbSymbolTableRecord
100
AcDbBlockTableRecord
  2
*D1
  0
BLOCK_RECORD
  5
21D
100
AcDbSymbolTableRecord
100
AcDbBlockTableRecord
  2
*D2
  0
ENDTAB
  0
TABLE
  2
DIMSTYLE
  5
A
100
AcDbSymbolTable
 70
1
100
AcDbDimStyleTable
 71
0
  0
DIMSTYLE
105
21E
100
AcDbSymbolTableRecord
100
AcDbDimStyleTableRecord
  2
STANDARD
 70
0
  3

  4

 40
1.0
 41
3.0
 42
0.5
 43
0.38
 44
1.5
 45
0.0
 46
0.0
 47
0.01
 48
0.01
140
3.0
141
0.0
142
0.0
143
25.4
144
1.0
145
0.0
146
1.0
147
0.625
 71
1
 72
0
 73
0
 74
0
 75
0
 76
0
 77
1
 78
8
 79
2
170
0
171
1
172
0
173
0
174
0
175
0
176
0
177
0
178
0
270
2
179
2
271
2
272
2
273
2
274
2
275
0
280
0
281
0
282
0
283
1
284
8
285
0
286
0
287
3
288
0
340
11
278
44
341
21A
342
21A
343
21A
344
21A
  0
DIMSTYLE
105
21F
100
AcDbSymbolTableRecord
100
AcDbDimStyleTableRecord
  2
DIMSTYLE_1
 70
0
  3

  4

 40
1.0
 41
3.0
 42
0.5
 43
0.38
 44
1.5
 45
0.0
 46
0.0
 47
0.0
 48
0.0
140
3.0
141
0.0
142
0.0
143
25.4
144
1.0
145
0.0
146
1.0
147
0.75
 71
0
 72
0
 73
0
 74
0
 75
0
 76
0
 77
1
 78
8
 79
2
170
0
171
1
172
0
173
0
174
0
175
0
176
0
177
0
178
0
270
2
179
2
271
1
272
1
273
2
274
2
275
0
280
0
281
0
282
0
283
1
284
8
285
0
286
0
287
3
288
0
340
11
278
44
341
21A
342
21A
343
21A
344
21A
  0
DIMSTYLE
105
220
100
AcDbSymbolTableRecord
100
AcDbDimStyleTableRecord
  2
DIMSTYLE_2
 70
0
  3

  4

 40
1.0
 41
3.0
 42
0.5
 43
0.38
 44
1.5
 45
0.0
 46
0.0
 47
0.0
 48
0.0
140
3.0
141
0.0
142
0.0
143
25.4
144
1.0
145
0.0
146
1.0
147
0.75
 71
0
 72
0
 73
0
 74
0
 75
0
 76
0
 77
1
 78
8
 79
2
170
0
171
1
172
0
173
0
174
0
175
0
176
0
177
0
178
0
270
2
179
2
271
2
272
2
273
2
274
2
275
0
280
0
281
0
282
0
283
1
284
8
285
0
286
0
287
3
288
0
340
11
278
44
341
21A
342
21A
343
21A
344
21A
  0
ENDTAB
  0
ENDSEC
  0
SECTION
  2
BLOCKS
  0
BLOCK
  5
20
100
AcDbEntity
  8
0
100
AcDbBlockBegin
  2
*Model_Space
 70
0
 10
0.0
 20
0.0
 30
0.0
  3
*Model_Space
  1

  0
ENDBLK
  5
21
100
AcDbEntity
  8
0
100
AcDbBlockEnd
  0
BLOCK
  5
1C
100
AcDbEntity
  8
0
100
AcDbBlockBegin
  2
*Paper_Space
 70
0
 10
0.0
 20
0.0
 30
0.0
  3
*Paper_Space
  1

  0
ENDBLK
  5
1D
100
AcDbEntity
  8
0
100
AcDbBlockEnd
  0
BLOCK
  5
221
100
AcDbEntity
  8
0
100
AcDbBlockBegin
  2
_FILLED
 70
64
 10
0.0
 20
0.0
 30
0.0
  3
_FILLED
  1

  0
SOLID
  5
222
100
AcDbEntity
  8
0
  6
BYBLOCK
 62
0
100
AcDbTrace
 10
0.0
 20
0.0
 30
0.0
 11
-1.0
 21
0.3166666667
 31
0.0
 12
-1.0
 22
-0.3166666667
 32
0.0
 13
-1.0
 23
-0.3166666667
 33
0.0
  0
ENDBLK
  5
223
100
AcDbEntity
  8
0
  6
BYBLOCK
 62
0
100
AcDbBlockEnd
  0
BLOCK
  5
224
100
AcDbEntity
  8
0
100
AcDbBlockBegin
 62
7
  6
CONTINUOUS
  2
*D0
 70
65
 10
0.0
 20
0.0
 30
0.0
  3
*D0
  1

  0
MTEXT
  5
225
100
AcDbEntity
  8
0
100
AcDbMText
 62
7
  6
CONTINUOUS
  7
STANDARD
 71
2
 72
1
 10
61.3650033508
 20
158.1158185409
 30
0.0
 11
1.0
 21
0.0
 31
0.0
 73
2
 44
0.9
  1
{\ftxt;\W0.0001;\H0.0001;\~}{\ftxt;\W2.1428571429;\H3.0; }{\ftxt;\W0.0001;\H0.0001;\~}
 40
3.0
 41
9.6428571429
  0
LINE
  5
226
100
AcDbEntity
  8
0
100
AcDbLine
 62
7
  6
CONTINUOUS
 10
66.2592332679
 20
143.6881640983
 30
0.0
 11
66.2592332679
 21
155.8658185409
 31
0.0
  0
LINE
  5
227
100
AcDbEntity
  8
0
100
AcDbLine
 62
7
  6
CONTINUOUS
 10
56.4707734336
 20
101.4960190389
 30
0.0
 11
56.4707734336
 21
155.8658185409
 31
0.0
  0
LINE
  5
228
100
AcDbEntity
  8
0
100
AcDbLine
 62
7
  6
CONTINUOUS
 10
66.2592332679
 20
154.3658185409
 30
0.0
 11
70.2592332679
 21
154.3658185409
 31
0.0
  0
LINE
  5
229
100
AcDbEntity
  8
0
100
AcDbLine
 62
7
  6
CONTINUOUS
 10
70.2592332679
 20
154.3658185409
 30
0.0
 11
61.3650033508
 21
154.3658185409
 31
0.0
  0
LINE
  5
22A
100
AcDbEntity
  8
0
100
AcDbLine
 62
7
  6
CONTINUOUS
 10
56.4707734336
 20
154.3658185409
 30
0.0
 11
52.4707734336
 21
154.3658185409
 31
0.0
  0
LINE
  5
22B
100
AcDbEntity
  8
0
100
AcDbLine
 62
7
  6
CONTINUOUS
 10
52.4707734336
 20
154.3658185409
 30
0.0
 11
61.3650033508
 21
154.3658185409
 31
0.0
  0
INSERT
  5
22C
100
AcDbEntity
  8
0
100
AcDbBlockReference
 62
7
  6
CONTINUOUS
  2
_FILLED
 10
66.2592332679
 20
154.3658185409
 30
0.0
 41
3.0
 42
3.0
 43
3.0
 50
180.0
  0
INSERT
  5
22D
100
AcDbEntity
  8
0
100
AcDbBlockReference
 62
7
  6
CONTINUOUS
  2
_FILLED
 10
56.4707734336
 20
154.3658185409
 30
0.0
 41
3.0
 42
3.0
 43
3.0
  0
ENDBLK
  5
22E
100
AcDbEntity
  8
0
  6
BYBLOCK
 62
0
100
AcDbBlockEnd
  0
BLOCK
  5
22F
100
AcDbEntity
  8
0
100
AcDbBlockBegin
 62
7
  6
CONTINUOUS
  2
*D1
 70
65
 10
0.0
 20
0.0
 30
0.0
  3
*D1
  1

  0
MTEXT
  5
230
100
AcDbEntity
  8
0
100
AcDbMText
 62
7
  6
CONTINUOUS
  7
STANDARD
 71
2
 72
1
 10
198.0790334302
 20
158.2418877308
 30
0.0
 11
1.0
 21
0.0
 31
0.0
 73
2
 44
0.9
  1
{\ftxt;\W0.0001;\H0.0001;\~}{\ftxt;\W3.6428571429;\H3.0; }{\ftxt;\W0.0001;\H0.0001;\~}
 40
3.0
 41
16.3928571429
  0
LINE
  5
231
100
AcDbEntity
  8
0
100
AcDbLine
 62
7
  6
CONTINUOUS
 10
93.8290334302
 20
143.0701918981
 30
0.0
 11
93.8290334302
 21
155.9918877308
 31
0.0
  0
LINE
  5
232
100
AcDbEntity
  8
0
100
AcDbLine
 62
7
  6
CONTINUOUS
 10
302.3290334302
 20
142.4309906192
 30
0.0
 11
302.3290334302
 21
155.9918877308
 31
0.0
  0
LINE
  5
233
100
AcDbEntity
  8
0
100
AcDbLine
 62
7
  6
CONTINUOUS
 10
93.8290334302
 20
154.4918877308
 30
0.0
 11
198.0790334302
 21
154.4918877308
 31
0.0
  0
LINE
  5
234
100
AcDbEntity
  8
0
100
AcDbLine
 62
7
  6
CONTINUOUS
 10
302.3290334302
 20
154.4918877308
 30
0.0
 11
198.0790334302
 21
154.4918877308
 31
0.0
  0
INSERT
  5
235
100
AcDbEntity
  8
0
100
AcDbBlockReference
 62
7
  6
CONTINUOUS
  2
_FILLED
 10
93.8290334302
 20
154.4918877308
 30
0.0
 41
3.0
 42
3.0
 43
3.0
 50
180.0
  0
INSERT
  5
236
100
AcDbEntity
  8
0
100
AcDbBlockReference
 62
7
  6
CONTINUOUS
  2
_FILLED
 10
302.3290334302
 20
154.4918877308
 30
0.0
 41
3.0
 42
3.0
 43
3.0
 50
0.0
  0
ENDBLK
  5
237
100
AcDbEntity
  8
0
  6
BYBLOCK
 62
0
100
AcDbBlockEnd
  0
BLOCK
  5
238
100
AcDbEntity
  8
0
100
AcDbBlockBegin
 62
7
  6
CONTINUOUS
  2
*D2
 70
65
 10
0.0
 20
0.0
 30
0.0
  3
*D2
  1

  0
MTEXT
  5
239
100
AcDbEntity
  8
0
100
AcDbMText
 62
7
  6
CONTINUOUS
  7
STANDARD
 71
2
 72
1
 10
311.0078517076
 20
100.996002907
 30
0.0
 11
0.0
 21
1.0
 31
0.0
 73
2
 44
0.9
  1
{\ftxt;\W0.0001;\H0.0001;\~}{\ftxt;\W1.5714285714;\H3.0; }{\ftxt;\W0.0001;\H0.0001;\~}
 40
3.0
 41
7.0714285714
  0
LINE
  5
23A
100
AcDbEntity
  8
0
100
AcDbLine
 62
7
  6
CONTINUOUS
 10
300.9965571992
 20
143.996002907
 30
0.0
 11
316.2578517076
 21
143.996002907
 31
0.0
  0
LINE
  5
23B
100
AcDbEntity
  8
0
100
AcDbLine
 62
7
  6
CONTINUOUS
 10
301.276288633
 20
57.996002907
 30
0.0
 11
316.2578517076
 21
57.996002907
 31
0.0
  0
LINE
  5
23C
100
AcDbEntity
  8
0
100
AcDbLine
 62
7
  6
CONTINUOUS
 10
314.7578517076
 20
143.996002907
 30
0.0
 11
314.7578517076
 21
100.996002907
 31
0.0
  0
LINE
  5
23D
100
AcDbEntity
  8
0
100
AcDbLine
 62
7
  6
CONTINUOUS
 10
314.7578517076
 20
57.996002907
 30
0.0
 11
314.7578517076
 21
100.996002907
 31
0.0
  0
INSERT
  5
23E
100
AcDbEntity
  8
0
100
AcDbBlockReference
 62
7
  6
CONTINUOUS
  2
_FILLED
 10
314.7578517076
 20
143.996002907
 30
0.0
 41
3.0
 42
3.0
 43
3.0
 50
90.0
  0
INSERT
  5
23F
100
AcDbEntity
  8
0
100
AcDbBlockReference
 62
7
  6
CONTINUOUS
  2
_FILLED
 10
314.7578517076
 20
57.996002907
 30
0.0
 41
3.0
 42
3.0
 43
3.0
 50
270.0
  0
ENDBLK
  5
240
100
AcDbEntity
  8
0
  6
BYBLOCK
 62
0
100
AcDbBlockEnd
  0
ENDSEC
  0
SECTION
  2
ENTITIES
  0
DIMENSION
  5
241
100
AcDbEntity
  8
0
100
AcDbDimension
 62
7
  6
CONTINUOUS
  2
*D0
 10
56.4707734336
 20
154.3658185409
 30
0.0
 11
60.9364298172
 21
154.3658185409
 31
0.0
 70
160
 71
2
 72
2
 41
0.9
 42
9.7884598343
  1
{\ftxt;\W0.0001;\H0.0001;\~}{\ftxt;\W2.1428571429;\H3.0; }{\ftxt;\W0.0001;\H0.0001;\~}
  3
DIMSTYLE_1
100
AcDbAlignedDimension
 13
66.2592332679
 23
143.1881640983
 33
0.0
 14
56.4707734336
 24
100.9960190389
 34
0.0
 50
180.0
100
AcDbRotatedDimension
  0
DIMENSION
  5
242
100
AcDbEntity
  8
0
100
AcDbDimension
 62
7
  6
CONTINUOUS
  2
*D1
 10
302.3290334302
 20
154.4918877308
 30
0.0
 11
197.6504636536
 21
154.4918877308
 31
0.0
 70
160
 71
2
 72
2
 41
0.9
 42
208.5
  1
{\ftxt;\W0.0001;\H0.0001;\~}{\ftxt;\W3.6428571429;\H3.0; }{\ftxt;\W0.0001;\H0.0001;\~}
  3
DIMSTYLE_2
100
AcDbAlignedDimension
 13
93.8290334302
 23
142.5701918981
 33
0.0
 14
302.3290334302
 24
141.9309906192
 34
0.0
100
AcDbRotatedDimension
  0
DIMENSION
  5
243
100
AcDbEntity
  8
0
100
AcDbDimension
 62
7
  6
CONTINUOUS
  2
*D2
 10
314.7578517076
 20
57.996002907
 30
0.0
 11
314.7578517076
 21
100.5674412036
 31
0.0
 70
160
 71
2
 72
2
 41
0.9
 42
86.0
  1
{\ftxt;\W0.0001;\H0.0001;\~}{\ftxt;\W1.5714285714;\H3.0; }{\ftxt;\W0.0001;\H0.0001;\~}
  3
DIMSTYLE_2
100
AcDbAlignedDimension
 13
300.4965571992
 23
143.996002907
 33
0.0
 14
300.776288633
 24
57.996002907
 34
0.0
 50
270.0
100
AcDbRotatedDimension
  0
LINE
  5
244
100
AcDbEntity
  8
0
100
AcDbLine
 62
7
  6
CONTINUOUS
 10
93.8290334302
 20
61.996002907
 30
0.0
 11
93.8290334302
 21
123.316002907
 31
0.0
  0
LINE
  5
245
100
AcDbEntity
  8
SUPERFICI
100
AcDbLine
 62
7
  6
CONTINUOUS
 10
93.8290334302
 20
123.316002907
 30
0.0
 11
93.8290334302
 21
139.996002907
 31
0.0
  0
LINE
  5
246
100
AcDbEntity
  8
RACCORDO
100
AcDbLine
 62
250
  6
CONTINUOUS
 10
94.5108447665
 20
78.6618545915
 30
0.0
 11
94.5133177346
 21
140.0148329371
 31
0.0
  0
LINE
  5
247
100
AcDbEntity
  8
RACCORDO
100
AcDbLine
 62
250
  6
CONTINUOUS
 10
94.513317758
 20
61.9771882305
 30
0.0
 11
94.5108447665
 21
78.6618545915
 31
0.0
  0
LINE
  5
248
100
AcDbEntity
  8
RACCORDO
100
AcDbLine
 62
250
  6
CONTINUOUS
 10
98.2527061002
 20
58.4268488598
 30
0.0
 11
98.2527061002
 21
57.996002907
 31
0.0
  0
LINE
  5
249
100
AcDbEntity
  8
RACCORDO
100
AcDbLine
 62
250
  6
CONTINUOUS
 10
98.2527061002
 20
143.5651569542
 30
0.0
 11
98.2527061002
 21
143.996002907
 31
0.0
  0
LINE
  5
24A
100
AcDbEntity
  8
RACCORDO
100
AcDbLine
 62
7
  6
CONTINUOUS
 10
119.2842699497
 20
122.8158425399
 30
0.0
 11
119.2842699497
 21
79.176163274
 31
0.0
  0
LINE
  5
24B
100
AcDbEntity
  8
RACCORDO
100
AcDbLine
 62
250
  6
CONTINUOUS
 10
130.6790334302
 20
78.3089788898
 30
0.0
 11
130.6790334302
 21
58.679530182
 31
0.0
  0
LINE
  5
24C
100
AcDbEntity
  8
RACCORDO
100
AcDbLine
 62
250
  6
CONTINUOUS
 10
130.6790334302
 20
123.6830269241
 30
0.0
 11
130.6790334302
 21
143.3124756319
 31
0.0
  0
LINE
  5
24D
100
AcDbEntity
  8
RACCORDO
100
AcDbLine
 62
250
  6
CONTINUOUS
 10
130.688515667
 20
58.4231043776
 30
0.0
 11
130.6885011773
 21
57.996002907
 31
0.0
  0
LINE
  5
24E
100
AcDbEntity
  8
RACCORDO
100
AcDbLine
 62
250
  6
CONTINUOUS
 10
130.688515667
 20
143.5689014363
 30
0.0
 11
130.6885011773
 21
143.996002907
 31
0.0
  0
LINE
  5
24F
100
AcDbEntity
  8
RACCORDO
100
AcDbLine
 62
250
  6
CONTINUOUS
 10
119.2358287597
 20
79.127722084
 30
0.0
 11
119.2842699497
 21
79.176163274
 31
0.0
  0
LINE
  5
250
100
AcDbEntity
  8
RACCORDO
100
AcDbLine
 62
250
  6
CONTINUOUS
 10
119.7361200175
 20
78.6281656466
 30
0.0
 11
119.7841937973
 21
78.6762394264
 31
0.0
  0
LINE
  5
251
100
AcDbEntity
  8
SUPERFICI
100
AcDbLine
 62
7
  6
CONTINUOUS
 10
298.3290334302
 20
57.996002907
 30
0.0
 11
265.4695656831
 21
57.996002907
 31
0.0
  0
LINE
  5
252
100
AcDbEntity
  8
0
100
AcDbLine
 62
7
  6
CONTINUOUS
 10
97.8290334302
 20
57.996002907
 30
0.0
 11
265.4695656831
 21
57.996002907
 31
0.0
  0
LINE
  5
253
100
AcDbEntity
  8
RACCORDO
100
AcDbLine
 62
250
  6
CONTINUOUS
 10
265.4782753611
 20
58.4231043783
 30
0.0
 11
130.6797914991
 21
58.4231043783
 31
0.0
  0
LINE
  5
254
100
AcDbEntity
  8
RACCORDO
100
AcDbLine
 62
250
  6
CONTINUOUS
 10
265.4790334302
 20
58.679530182
 30
0.0
 11
130.6790334302
 21
58.679530182
 31
0.0
  0
LINE
  5
255
100
AcDbEntity
  8
RACCORDO
100
AcDbLine
 62
250
  6
CONTINUOUS
 10
119.2358287597
 20
122.86428373
 30
0.0
 11
119.2842699497
 21
122.8158425399
 31
0.0
  0
LINE
  5
256
100
AcDbEntity
  8
RACCORDO
100
AcDbLine
 62
250
  6
CONTINUOUS
 10
119.7361200175
 20
123.3638401673
 30
0.0
 11
119.7841937973
 21
123.3157663875
 31
0.0
  0
LINE
  5
257
100
AcDbEntity
  8
RACCORDO
100
AcDbLine
 62
250
  6
CONTINUOUS
 10
94.2606057864
 20
62.387202907
 30
0.0
 11
93.8290334302
 21
62.387202907
 31
0.0
  0
LINE
  5
258
100
AcDbEntity
  8
RACCORDO
100
AcDbLine
 62
250
  6
CONTINUOUS
 10
301.8974610741
 20
62.387202907
 30
0.0
 11
302.3290334302
 21
62.387202907
 31
0.0
  0
LINE
  5
259
100
AcDbEntity
  8
0
100
AcDbLine
 62
7
  6
CONTINUOUS
 10
202.8639871909
 20
72.7658231263
 30
0.0
 11
202.3620830926
 21
72.7658231263
 31
0.0
  0
LINE
  5
25A
100
AcDbEntity
  8
0
100
AcDbLine
 62
7
  6
CONTINUOUS
 10
201.5630292739
 20
72.7658231263
 30
0.0
 11
201.0433359323
 21
72.7658231263
 31
0.0
  0
LINE
  5
25B
100
AcDbEntity
  8
0
100
AcDbLine
 62
7
  6
CONTINUOUS
 10
200.8901124302
 20
72.765822907
 30
0.0
 11
200.3401644302
 21
72.765822907
 31
0.0
  0
LINE
  5
25C
100
AcDbEntity
  8
0
100
AcDbLine
 62
7
  6
CONTINUOUS
 10
199.3504144302
 20
72.765822907
 30
0.0
 11
198.8342834302
 21
72.765822907
 31
0.0
  0
LINE
  5
25D
100
AcDbEntity
  8
0
100
AcDbLine
 62
7
  6
CONTINUOUS
 10
198.7523474302
 20
72.765822907
 30
0.0
 11
198.2418954302
 21
72.765822907
 31
0.0
  0
LINE
  5
25E
100
AcDbEntity
  8
0
100
AcDbLine
 62
7
  6
CONTINUOUS
 10
197.5142804302
 20
72.765822907
 30
0.0
 11
197.4410984302
 21
72.765822907
 31
0.0
  0
LINE
  5
25F
100
AcDbEntity
  8
0
100
AcDbLine
 62
7
  6
CONTINUOUS
 10
196.7163694302
 20
72.765822907
 30
0.0
 11
196.2171834302
 21
72.765822907
 31
0.0
  0
LINE
  5
260
100
AcDbEntity
  8
0
100
AcDbLine
 62
7
  6
CONTINUOUS
 10
195.9362864302
 20
72.765822907
 30
0.0
 11
195.4144934302
 21
72.765822907
 31
0.0
  0
LINE
  5
261
100
AcDbEntity
  8
0
100
AcDbLine
 62
7
  6
CONTINUOUS
 10
194.4173394302
 20
72.765822907
 30
0.0
 11
193.9575094302
 21
72.765822907
 31
0.0
  0
LINE
  5
262
100
AcDbEntity
  8
0
100
AcDbLine
 62
7
  6
CONTINUOUS
 10
200.2049924302
 20
73.264858907
 30
0.0
 11
199.4943974302
 21
73.264858907
 31
0.0
  0
LINE
  5
263
100
AcDbEntity
  8
0
100
AcDbLine
 62
7
  6
CONTINUOUS
 10
199.6011324302
 20
73.651010907
 30
0.0
 11
200.1007124302
 21
73.651010907
 31
0.0
  0
LINE
  5
264
100
AcDbEntity
  8
0
100
AcDbLine
 62
7
  6
CONTINUOUS
 10
201.8428021466
 20
73.7440815456
 30
0.0
 11
201.5630292739
 21
73.7440815456
 31
0.0
  0
LINE
  5
265
100
AcDbEntity
  8
0
100
AcDbLine
 62
7
  6
CONTINUOUS
 10
201.5457274071
 20
74.1534778297
 30
0.0
 11
201.8439268616
 21
74.1534778297
 31
0.0
  0
LINE
  5
266
100
AcDbEntity
  8
0
100
AcDbLine
 62
7
  6
CONTINUOUS
 10
193.1650444302
 20
75.265558907
 30
0.0
 11
193.7318724302
 21
75.265558907
 31
0.0
  0
LINE
  5
267
100
AcDbEntity
  8
0
100
AcDbLine
 62
7
  6
CONTINUOUS
 10
194.6994184302
 20
75.265558907
 30
0.0
 11
195.2208544302
 21
75.265558907
 31
0.0
  0
LINE
  5
268
100
AcDbEntity
  8
0
100
AcDbLine
 62
7
  6
CONTINUOUS
 10
196.4428954302
 20
75.265558907
 30
0.0
 11
196.9642564302
 21
75.265558907
 31
0.0
  0
LINE
  5
269
100
AcDbEntity
  8
0
100
AcDbLine
 62
7
  6
CONTINUOUS
 10
198.0023314302
 20
75.265558907
 30
0.0
 11
198.5185944302
 21
75.265558907
 31
0.0
  0
LINE
  5
26A
100
AcDbEntity
  8
0
100
AcDbLine
 62
7
  6
CONTINUOUS
 10
199.6183594302
 20
75.265558907
 30
0.0
 11
200.1231314302
 21
75.265558907
 31
0.0
  0
LINE
  5
26B
100
AcDbEntity
  8
0
100
AcDbLine
 62
7
  6
CONTINUOUS
 10
195.4144934302
 20
75.265708907
 30
0.0
 11
195.9362864302
 21
75.265708907
 31
0.0
  0
LINE
  5
26C
100
AcDbEntity
  8
RACCORDO
100
AcDbLine
 62
250
  6
CONTINUOUS
 10
301.6472048582
 20
78.496002907
 30
0.0
 11
276.941886422
 21
78.496002907
 31
0.0
  0
LINE
  5
26D
100
AcDbEntity
  8
RACCORDO
100
AcDbLine
 62
250
  6
CONTINUOUS
 10
94.5108620023
 20
78.496002907
 30
0.0
 11
119.2161804385
 21
78.496002907
 31
0.0
  0
LINE
  5
26E
100
AcDbEntity
  8
RACCORDO
100
AcDbLine
 62
250
  6
CONTINUOUS
 10
94.2580769322
 20
78.6760029069
 30
0.0
 11
93.8290334302
 21
78.6760029069
 31
0.0
  0
LINE
  5
26F
100
AcDbEntity
  8
RACCORDO
100
AcDbLine
 62
250
  6
CONTINUOUS
 10
301.8999899283
 20
78.6760029069
 30
0.0
 11
302.3290334302
 21
78.6760029069
 31
0.0
  0
LINE
  5
270
100
AcDbEntity
  8
RACCORDO
100
AcDbLine
 62
7
  6
CONTINUOUS
 10
119.7841937973
 20
78.6762394264
 30
0.0
 11
276.3738730632
 21
78.6762394264
 31
0.0
  0
LWPOLYLINE
  5
271
100
AcDbEntity
  8
0
100
AcDbPolyline
 62
7
  6
CONTINUOUS
 90
3
 70
0
 43
0.3500000006
 10
200.4004599609
 20
155.5275963135
 10
200.3290378418
 20
155.3133118286
 10
200.1861754761
 20
155.0276052246
  0
LINE
  5
272
100
AcDbEntity
  8
0
100
AcDbLine
 62
7
  6
CONTINUOUS
 10
197.4410984302
 20
72.765822907
 30
0.0
 11
196.8289724302
 21
74.398102907
 31
0.0
  0
LINE
  5
273
100
AcDbEntity
  8
0
100
AcDbLine
 62
7
  6
CONTINUOUS
 10
196.9642564302
 20
75.265558907
 30
0.0
 11
197.4805384302
 21
73.877697907
 31
0.0
  0
LINE
  5
274
100
AcDbEntity
  8
0
100
AcDbLine
 62
7
  6
CONTINUOUS
 10
193.9575094302
 20
72.765822907
 30
0.0
 11
193.1650444302
 21
75.265558907
 31
0.0
  0
LINE
  5
275
100
AcDbEntity
  8
0
100
AcDbLine
 62
7
  6
CONTINUOUS
 10
193.7318724302
 20
75.265558907
 30
0.0
 11
194.2083674302
 21
73.544912907
 31
0.0
  0
LINE
  5
276
100
AcDbEntity
  8
0
100
AcDbLine
 62
7
  6
CONTINUOUS
 10
198.5185944302
 20
75.265558907
 30
0.0
 11
198.7523474302
 21
72.765822907
 31
0.0
  0
LINE
  5
277
100
AcDbEntity
  8
0
100
AcDbLine
 62
7
  6
CONTINUOUS
 10
198.2418954302
 20
72.765822907
 30
0.0
 11
198.1346914302
 21
74.391298907
 31
0.0
  0
LWPOLYLINE
  5
278
100
AcDbEntity
  8
0
100
AcDbPolyline
 62
7
  6
CONTINUOUS
 90
13
 70
0
 43
0.3500000006
 10
194.9718894653
 20
156.0990276489
 10
194.9718894653
 20
157.3847526855
 10
195.1861739502
 20
157.8133216553
 10
195.6147429199
 20
158.241890625
 10
195.8290274048
 20
158.241890625
 10
196.2575963745
 20
157.8133216553
 10
196.4718989868
 20
157.3847526855
 10
196.4718989868
 20
156.0990276489
 10
196.2575963745
 20
155.6704586792
 10
195.8290274048
 20
155.2418897095
 10
195.6147429199
 20
155.2418897095
 10
195.1861739502
 20
155.6704586792
 10
194.9718894653
 20
156.0990276489
  0
LINE
  5
279
100
AcDbEntity
  8
0
100
AcDbLine
 62
7
  6
CONTINUOUS
 10
195.4144934302
 20
72.765822907
 30
0.0
 11
195.4144934302
 21
75.265708907
 31
0.0
  0
LINE
  5
27A
100
AcDbEntity
  8
0
100
AcDbLine
 62
7
  6
CONTINUOUS
 10
195.9362864302
 20
75.265708907
 30
0.0
 11
195.9362864302
 21
72.765822907
 31
0.0
  0
LWPOLYLINE
  5
27B
100
AcDbEntity
  8
0
100
AcDbPolyline
 62
7
  6
CONTINUOUS
 90
4
 70
0
 43
0.3500000006
 10
197.3290369263
 20
155.6704586792
 10
197.3290369263
 20
156.5275966187
 10
197.757605896
 20
156.9561655884
 10
198.4004593506
 20
156.9561655884
  0
LWPOLYLINE
  5
27C
100
AcDbEntity
  8
0
100
AcDbPolyline
 62
7
  6
CONTINUOUS
 90
4
 70
0
 43
0.3500000006
 10
313.5792854004
 20
98.6388632813
 10
312.7221474609
 20
98.6388632813
 10
312.2935784912
 20
99.067432251
 10
312.2935784912
 20
99.7102857056
  0
LINE
  5
27D
100
AcDbEntity
  8
0
100
AcDbLine
 62
7
  6
CONTINUOUS
 10
200.1231314302
 20
75.265558907
 30
0.0
 11
200.8901124302
 21
72.765822907
 31
0.0
  0
LINE
  5
27E
100
AcDbEntity
  8
0
100
AcDbLine
 62
7
  6
CONTINUOUS
 10
200.3401644302
 20
72.765822907
 30
0.0
 11
200.2049924302
 21
73.264858907
 31
0.0
  0
LINE
  5
27F
100
AcDbEntity
  8
0
100
AcDbLine
 62
7
  6
CONTINUOUS
 10
200.1007124302
 20
73.651010907
 30
0.0
 11
199.8609414302
 21
74.578694907
 31
0.0
  0
LINE
  5
280
100
AcDbEntity
  8
0
100
AcDbLine
 62
250
  6
CONTINUOUS
 10
198.0790334302
 20
78.307232974
 30
0.0
 11
198.0790334302
 21
58.6795281458
 31
0.0
  0
LINE
  5
281
100
AcDbEntity
  8
RACCORDO
100
AcDbLine
 62
250
  6
CONTINUOUS
 10
198.0790334302
 20
57.996002907
 30
0.0
 11
198.0790334302
 21
58.6795281458
 31
0.0
  0
LINE
  5
282
100
AcDbEntity
  8
RACCORDO
100
AcDbLine
 62
250
  6
CONTINUOUS
 10
198.0790334302
 20
78.307232974
 30
0.0
 11
198.0790334302
 21
78.6242888065
 31
0.0
  0
LINE
  5
283
100
AcDbEntity
  8
RACCORDO
100
AcDbLine
 62
250
  6
CONTINUOUS
 10
198.0790334302
 20
123.3677170075
 30
0.0
 11
198.0790334302
 21
143.996002907
 31
0.0
  0
LINE
  5
284
100
AcDbEntity
  8
0
100
AcDbLine
 62
7
  6
CONTINUOUS
 10
201.0433359323
 20
72.7658231263
 30
0.0
 11
201.0433359323
 21
75.2363534954
 31
0.0
  0
LINE
  5
285
100
AcDbEntity
  8
0
100
AcDbLine
 62
7
  6
CONTINUOUS
 10
201.5457274071
 20
74.839703982
 30
0.0
 11
201.5457274071
 21
74.1534778297
 31
0.0
  0
LINE
  5
286
100
AcDbEntity
  8
0
100
AcDbLine
 62
7
  6
CONTINUOUS
 10
201.5630292739
 20
73.7440815456
 30
0.0
 11
201.5630292739
 21
72.7658231263
 31
0.0
  0
LINE
  5
287
100
AcDbEntity
  8
0
100
AcDbLine
 62
7
  6
CONTINUOUS
 10
202.3848398275
 20
73.9474487748
 30
0.0
 11
202.3848398275
 21
73.9326775169
 31
0.0
  0
LINE
  5
288
100
AcDbEntity
  8
0
100
AcDbLine
 62
7
  6
CONTINUOUS
 10
196.8289724302
 20
74.398102907
 30
0.0
 11
196.7163694302
 21
72.765822907
 31
0.0
  0
LINE
  5
289
100
AcDbEntity
  8
0
100
AcDbLine
 62
7
  6
CONTINUOUS
 10
196.2171834302
 20
72.765822907
 30
0.0
 11
196.4428954302
 21
75.265558907
 31
0.0
  0
LINE
  5
28A
100
AcDbEntity
  8
0
100
AcDbLine
 62
7
  6
CONTINUOUS
 10
194.2083674302
 20
73.544912907
 30
0.0
 11
194.6994184302
 21
75.265558907
 31
0.0
  0
LINE
  5
28B
100
AcDbEntity
  8
0
100
AcDbLine
 62
7
  6
CONTINUOUS
 10
195.2208544302
 20
75.265558907
 30
0.0
 11
194.4173394302
 21
72.765822907
 31
0.0
  0
LINE
  5
28C
100
AcDbEntity
  8
RACCORDO
100
AcDbLine
 62
250
  6
CONTINUOUS
 10
302.3290334302
 20
100.996002907
 30
0.0
 11
276.9312911034
 21
100.9960028907
 31
0.0
  0
LINE
  5
28D
100
AcDbEntity
  8
RACCORDO
100
AcDbLine
 62
250
  6
CONTINUOUS
 10
93.8290334302
 20
100.996002907
 30
0.0
 11
119.2267757571
 21
100.9960029233
 31
0.0
  0
LINE
  5
28E
100
AcDbEntity
  8
0
100
AcDbLine
 62
7
  6
CONTINUOUS
 10
199.8609414302
 20
74.578694907
 30
0.0
 11
199.6011324302
 21
73.651010907
 31
0.0
  0
LINE
  5
28F
100
AcDbEntity
  8
0
100
AcDbLine
 62
7
  6
CONTINUOUS
 10
199.4943974302
 20
73.264858907
 30
0.0
 11
199.3504144302
 21
72.765822907
 31
0.0
  0
LINE
  5
290
100
AcDbEntity
  8
0
100
AcDbLine
 62
7
  6
CONTINUOUS
 10
198.8342834302
 20
72.765822907
 30
0.0
 11
199.6183594302
 21
75.265558907
 31
0.0
  0
LINE
  5
291
100
AcDbEntity
  8
0
100
AcDbLine
 62
7
  6
CONTINUOUS
 10
197.4805384302
 20
73.877697907
 30
0.0
 11
198.0023314302
 21
75.265558907
 31
0.0
  0
LINE
  5
292
100
AcDbEntity
  8
0
100
AcDbLine
 62
7
  6
CONTINUOUS
 10
198.1346914302
 20
74.391298907
 30
0.0
 11
197.5142804302
 21
72.765822907
 31
0.0
  0
LINE
  5
293
100
AcDbEntity
  8
RACCORDO
100
AcDbLine
 62
7
  6
CONTINUOUS
 10
276.3738730632
 20
123.3157663875
 30
0.0
 11
119.7841937973
 21
123.3157663875
 31
0.0
  0
LINE
  5
294
100
AcDbEntity
  8
RACCORDO
100
AcDbLine
 62
250
  6
CONTINUOUS
 10
94.2580769322
 20
123.316002907
 30
0.0
 11
93.8290334302
 21
123.316002907
 31
0.0
  0
LINE
  5
295
100
AcDbEntity
  8
RACCORDO
100
AcDbLine
 62
250
  6
CONTINUOUS
 10
301.8999899283
 20
123.316002907
 30
0.0
 11
302.3290334302
 21
123.316002907
 31
0.0
  0
LINE
  5
296
100
AcDbEntity
  8
RACCORDO
100
AcDbLine
 62
250
  6
CONTINUOUS
 10
301.6472048582
 20
123.496002907
 30
0.0
 11
276.941886422
 21
123.496002907
 31
0.0
  0
LINE
  5
297
100
AcDbEntity
  8
RACCORDO
100
AcDbLine
 62
250
  6
CONTINUOUS
 10
94.5108620023
 20
123.496002907
 30
0.0
 11
119.2161804385
 21
123.496002907
 31
0.0
  0
LWPOLYLINE
  5
298
100
AcDbEntity
  8
0
100
AcDbPolyline
 62
7
  6
CONTINUOUS
 90
10
 70
0
 43
0.3500000006
 10
200.3290378418
 20
155.7418807983
 10
200.4004599609
 20
155.5990365601
 10
200.4004599609
 20
155.5275963135
 10
200.2575975952
 20
155.3847520752
 10
200.1861754761
 20
155.3847520752
 10
200.1147533569
 20
155.4561741943
 10
200.1147533569
 20
155.5275963135
 10
200.1861754761
 20
155.6704586792
 10
200.2575975952
 20
155.7418807983
 10
200.3290378418
 20
155.7418807983
  0
LINE
  5
299
100
AcDbEntity
  8
RACCORDO
100
AcDbLine
 62
250
  6
CONTINUOUS
 10
276.421946843
 20
123.3638401673
 30
0.0
 11
276.3738730632
 21
123.3157663875
 31
0.0
  0
LINE
  5
29A
100
AcDbEntity
  8
RACCORDO
100
AcDbLine
 62
250
  6
CONTINUOUS
 10
276.9222381008
 20
122.86428373
 30
0.0
 11
276.8737969108
 21
122.8158425399
 31
0.0
  0
LINE
  5
29B
100
AcDbEntity
  8
RACCORDO
100
AcDbLine
 62
250
  6
CONTINUOUS
 10
94.2606057864
 20
139.604802907
 30
0.0
 11
93.8290334302
 21
139.604802907
 31
0.0
  0
LINE
  5
29C
100
AcDbEntity
  8
RACCORDO
100
AcDbLine
 62
250
  6
CONTINUOUS
 10
301.8974610741
 20
139.604802907
 30
0.0
 11
302.3290334302
 21
139.604802907
 31
0.0
  0
LINE
  5
29D
100
AcDbEntity
  8
RACCORDO
100
AcDbLine
 62
250
  6
CONTINUOUS
 10
130.6790334302
 20
143.3124756319
 30
0.0
 11
265.4790334302
 21
143.3124756319
 31
0.0
  0
LINE
  5
29E
100
AcDbEntity
  8
RACCORDO
100
AcDbLine
 62
250
  6
CONTINUOUS
 10
130.6797914994
 20
143.5689014356
 30
0.0
 11
265.4782753613
 21
143.5689014356
 31
0.0
  0
LINE
  5
29F
100
AcDbEntity
  8
SUPERFICI
100
AcDbLine
 62
7
  6
CONTINUOUS
 10
298.3290334302
 20
143.996002907
 30
0.0
 11
265.4695656831
 21
143.996002907
 31
0.0
  0
LINE
  5
2A0
100
AcDbEntity
  8
SUPERFICI
100
AcDbLine
 62
7
  6
CONTINUOUS
 10
97.8290334302
 20
143.996002907
 30
0.0
 11
130.6885011773
 21
143.996002907
 31
0.0
  0
LINE
  5
2A1
100
AcDbEntity
  8
0
100
AcDbLine
 62
7
  6
CONTINUOUS
 10
130.6885011773
 20
143.996002907
 30
0.0
 11
265.4695656831
 21
143.996002907
 31
0.0
  0
LWPOLYLINE
  5
2A2
100
AcDbEntity
  8
0
100
AcDbPolyline
 62
7
  6
CONTINUOUS
 90
13
 70
0
 43
0.3500000006
 10
197.757605896
 20
156.9561655884
 10
197.471899292
 20
157.1704682007
 10
197.471899292
 20
157.8133216553
 10
197.757605896
 20
158.241890625
 10
198.4004593506
 20
158.241890625
 10
198.686184082
 20
157.8133216553
 10
198.686184082
 20
157.1704682007
 10
198.4004593506
 20
156.9561655884
 10
198.8290283203
 20
156.5275966187
 10
198.8290283203
 20
155.6704586792
 10
198.4004593506
 20
155.2418897095
 10
197.757605896
 20
155.2418897095
 10
197.3290369263
 20
155.6704586792
  0
LINE
  5
2A3
100
AcDbEntity
  8
RACCORDO
100
AcDbLine
 62
250
  6
CONTINUOUS
 10
276.3738730632
 20
78.6762394264
 30
0.0
 11
276.421946843
 21
78.6281656466
 31
0.0
  0
LINE
  5
2A4
100
AcDbEntity
  8
RACCORDO
100
AcDbLine
 62
250
  6
CONTINUOUS
 10
276.8737969108
 20
79.176163274
 30
0.0
 11
276.9222381008
 21
79.127722084
 31
0.0
  0
LWPOLYLINE
  5
2A5
100
AcDbEntity
  8
0
100
AcDbPolyline
 62
7
  6
CONTINUOUS
 90
7
 70
0
 43
0.3500000006
 10
194.1147515259
 20
155.2418897095
 10
192.6147420044
 20
155.2418897095
 10
194.1147515259
 20
157.3847526855
 10
194.1147515259
 20
157.8133216553
 10
193.6861825562
 20
158.241890625
 10
193.0433109741
 20
158.241890625
 10
192.6147420044
 20
157.5990371704
  0
LWPOLYLINE
  5
2A6
100
AcDbEntity
  8
0
100
AcDbPolyline
 62
7
  6
CONTINUOUS
 90
8
 70
0
 43
0.3500000006
 10
201.4004602661
 20
155.2418897095
 10
202.2575982056
 20
155.2418897095
 10
202.6861853027
 20
155.6704586792
 10
202.6861853027
 20
156.5275966187
 10
202.2575982056
 20
156.9561655884
 10
201.4004602661
 20
156.9561655884
 10
201.4004602661
 20
158.241890625
 10
202.6861853027
 20
158.241890625
  0
LINE
  5
2A7
100
AcDbEntity
  8
RACCORDO
100
AcDbLine
 62
250
  6
CONTINUOUS
 10
265.4695511934
 20
143.5689014363
 30
0.0
 11
265.4695656831
 21
143.996002907
 31
0.0
  0
LINE
  5
2A8
100
AcDbEntity
  8
RACCORDO
100
AcDbLine
 62
250
  6
CONTINUOUS
 10
265.4695511934
 20
58.4231043776
 30
0.0
 11
265.4695656831
 21
57.996002907
 31
0.0
  0
LINE
  5
2A9
100
AcDbEntity
  8
RACCORDO
100
AcDbLine
 62
250
  6
CONTINUOUS
 10
265.4790334302
 20
78.3089788898
 30
0.0
 11
265.4790334302
 21
58.679530182
 31
0.0
  0
LINE
  5
2AA
100
AcDbEntity
  8
RACCORDO
100
AcDbLine
 62
250
  6
CONTINUOUS
 10
265.4790334302
 20
123.6830269241
 30
0.0
 11
265.4790334302
 21
143.3124756319
 31
0.0
  0
LINE
  5
2AB
100
AcDbEntity
  8
RACCORDO
100
AcDbLine
 62
7
  6
CONTINUOUS
 10
276.8737969108
 20
79.176163274
 30
0.0
 11
276.8737969108
 21
122.8158425399
 31
0.0
  0
LWPOLYLINE
  5
2AC
100
AcDbEntity
  8
0
100
AcDbPolyline
 62
7
  6
CONTINUOUS
 90
10
 70
0
 43
0.3500000006
 10
311.0078353271
 20
102.0674331665
 10
311.6507069092
 20
101.4245706482
 10
312.5078448486
 20
100.9960016785
 10
313.5792854004
 20
100.9960016785
 10
314.0078543701
 20
101.4245706482
 10
314.0078543701
 20
102.0674331665
 10
313.5792854004
 20
102.4960021362
 10
312.7221474609
 20
102.4960021362
 10
312.2935784912
 20
102.0674331665
 10
312.2935784912
 20
101.1388640442
  0
LWPOLYLINE
  5
2AD
100
AcDbEntity
  8
0
100
AcDbPolyline
 62
7
  6
CONTINUOUS
 90
13
 70
0
 43
0.3500000006
 10
312.2935784912
 20
99.067432251
 10
312.0792758789
 20
98.7817165833
 10
311.4364405518
 20
98.7817165833
 10
311.0078353271
 20
99.067432251
 10
311.0078353271
 20
99.7102857056
 10
311.4364405518
 20
99.9960013733
 10
312.0792758789
 20
99.9960013733
 10
312.2935784912
 20
99.7102857056
 10
312.7221474609
 20
100.138863739
 10
313.5792854004
 20
100.138863739
 10
314.0078543701
 20
99.7102857056
 10
314.0078543701
 20
99.067432251
 10
313.5792854004
 20
98.6388632813
  0
LINE
  5
2AE
100
AcDbEntity
  8
RACCORDO
100
AcDbLine
 62
250
  6
CONTINUOUS
 10
297.9053607603
 20
58.4268488598
 30
0.0
 11
297.9053607603
 21
57.996002907
 31
0.0
  0
LINE
  5
2AF
100
AcDbEntity
  8
RACCORDO
100
AcDbLine
 62
250
  6
CONTINUOUS
 10
297.9053607603
 20
143.5651569542
 30
0.0
 11
297.9053607603
 21
143.996002907
 31
0.0
  0
LINE
  5
2B0
100
AcDbEntity
  8
SUPERFICI
100
AcDbLine
 62
7
  6
CONTINUOUS
 10
302.3290334302
 20
61.996002907
 30
0.0
 11
302.3290334302
 21
139.996002907
 31
0.0
  0
LINE
  5
2B1
100
AcDbEntity
  8
RACCORDO
100
AcDbLine
 62
250
  6
CONTINUOUS
 10
301.647222094
 20
123.3301512228
 30
0.0
 11
301.6447491259
 21
61.9771728769
 31
0.0
  0
LINE
  5
2B2
100
AcDbEntity
  8
RACCORDO
100
AcDbLine
 62
250
  6
CONTINUOUS
 10
301.6447491025
 20
140.0148175835
 30
0.0
 11
301.647222094
 21
123.3301512228
 31
0.0
  0
LINE
  5
2B3
100
AcDbEntity
  8
SUPERFICI
100
AcDbLine
 62
7
  6
CONTINUOUS
 10
63.9940874014
 20
57.996002907
 30
0.0
 11
62.0828250133
 21
57.996002907
 31
0.0
  0
LINE
  5
2B4
100
AcDbEntity
  8
0
100
AcDbLine
 62
7
  6
CONTINUOUS
 10
62.0828250133
 20
57.996002907
 30
0.0
 11
61.9828390192
 21
57.996002907
 31
0.0
  0
LWPOLYLINE
  5
2B5
100
AcDbEntity
  8
0
100
AcDbPolyline
 62
7
  6
CONTINUOUS
 90
10
 70
0
 43
0.3500000006
 10
58.5792891541
 20
155.1158133545
 10
59.4364316254
 20
155.9729694214
 10
59.6507161102
 20
156.8301073608
 10
59.6507161102
 20
157.6872453003
 10
59.2221471405
 20
158.11581427
 10
58.5792891541
 20
158.11581427
 10
58.1507156525
 20
157.6872453003
 10
58.1507156525
 20
156.8301073608
 10
58.5792891541
 20
156.4015383911
 10
59.5078582764
 20
156.4015383911
  0
LINE
  5
2B6
100
AcDbEntity
  8
RACCORDO
100
AcDbLine
 62
250
  6
CONTINUOUS
 10
60.621386178
 20
58.6835697002
 30
0.0
 11
58.7883866432
 21
58.679530182
 31
0.0
  0
LINE
  5
2B7
100
AcDbEntity
  8
RACCORDO
100
AcDbLine
 62
250
  6
CONTINUOUS
 10
60.8743764541
 20
58.4268488598
 30
0.0
 11
59.0438659838
 21
58.4231043783
 31
0.0
  0
LINE
  5
2B8
100
AcDbEntity
  8
RACCORDO
100
AcDbLine
 62
7
  6
CONTINUOUS
 10
59.0438400978
 20
58.4231043776
 30
0.0
 11
58.943867543
 21
58.4231024949
 31
0.0
  0
LINE
  5
2B9
100
AcDbEntity
  8
RACCORDO
100
AcDbLine
 62
7
  6
CONTINUOUS
 10
58.7883607569
 20
58.6795301813
 30
0.0
 11
58.6883869217
 21
58.6795281458
 31
0.0
  0
LINE
  5
2BA
100
AcDbEntity
  8
RACCORDO
100
AcDbLine
 62
250
  6
CONTINUOUS
 10
59.0482579854
 20
58.4231079776
 30
0.0
 11
59.0467145929
 21
58.4231118086
 31
0.0
  0
LINE
  5
2BB
100
AcDbEntity
  8
RACCORDO
100
AcDbLine
 62
7
  6
CONTINUOUS
 10
61.9828390192
 20
57.996002907
 30
0.0
 11
58.943867543
 21
58.4231024949
 31
0.0
  0
LINE
  5
2BC
100
AcDbEntity
  8
RACCORDO
100
AcDbLine
 62
7
  6
CONTINUOUS
 10
59.0438400978
 20
58.4231043776
 30
0.0
 11
62.0828250133
 21
57.996002907
 31
0.0
  0
LINE
  5
2BD
100
AcDbEntity
  8
RACCORDO
100
AcDbLine
 62
250
  6
CONTINUOUS
 10
60.8743764541
 20
58.4268488598
 30
0.0
 11
63.9400047017
 21
57.996002907
 31
0.0
  0
LINE
  5
2BE
100
AcDbEntity
  8
RACCORDO
100
AcDbLine
 62
250
  6
CONTINUOUS
 10
60.9206980261
 20
62.3872029085
 30
0.0
 11
60.6678687008
 21
62.3564952906
 31
0.0
  0
LINE
  5
2BF
100
AcDbEntity
  8
RACCORDO
100
AcDbLine
 62
250
  6
CONTINUOUS
 10
66.1849781699
 20
61.995971276
 30
0.0
 11
64.0378886498
 21
61.9950565406
 31
0.0
  0
LINE
  5
2C0
100
AcDbEntity
  8
RACCORDO
100
AcDbLine
 62
250
  6
CONTINUOUS
 10
60.9206980263
 20
62.387202907
 30
0.0
 11
63.9914949024
 21
62.387202907
 31
0.0
  0
LINE
  5
2C1
100
AcDbEntity
  8
RACCORDO
100
AcDbLine
 62
250
  6
CONTINUOUS
 10
66.1838105348
 20
62.3235804013
 30
0.0
 11
63.9911341253
 21
62.3901320571
 31
0.0
  0
LINE
  5
2C2
100
AcDbEntity
  8
0
100
AcDbLine
 62
7
  6
CONTINUOUS
 10
57.0871805725
 20
72.7658231263
 30
0.0
 11
57.1674158373
 21
72.7658231263
 31
0.0
  0
LINE
  5
2C3
100
AcDbEntity
  8
0
100
AcDbLine
 62
250
  6
CONTINUOUS
 10
57.0343528346
 20
73.4423419891
 30
0.0
 11
57.1145736582
 21
73.4423419891
 31
0.0
  0
LINE
  5
2C4
100
AcDbEntity
  8
0
100
AcDbLine
 62
7
  6
CONTINUOUS
 10
56.9971854525
 20
73.9326775169
 30
0.0
 11
57.0773962584
 21
73.9326775169
 31
0.0
  0
LINE
  5
2C5
100
AcDbEntity
  8
0
100
AcDbLine
 62
7
  6
CONTINUOUS
 10
56.9960826144
 20
73.9474487748
 30
0.0
 11
57.0762931239
 21
73.9474487748
 31
0.0
  0
LINE
  5
2C6
100
AcDbEntity
  8
0
100
AcDbLine
 62
250
  6
CONTINUOUS
 10
56.9050567818
 20
75.2100351628
 30
0.0
 11
56.9852429402
 21
75.2100351628
 31
0.0
  0
LINE
  5
2C7
100
AcDbEntity
  8
SUPERFICI
100
AcDbLine
 62
7
  6
CONTINUOUS
 10
56.9792492208
 20
75.294888192
 30
0.0
 11
56.8990646398
 21
75.294888192
 31
0.0
  0
LINE
  5
2C8
100
AcDbEntity
  8
RACCORDO
100
AcDbLine
 62
250
  6
CONTINUOUS
 10
59.4875609877
 20
78.5103125317
 30
0.0
 11
59.233070506
 21
78.496002907
 31
0.0
  0
LINE
  5
2C9
100
AcDbEntity
  8
RACCORDO
100
AcDbLine
 62
250
  6
CONTINUOUS
 10
59.4782832231
 20
78.6760029069
 30
0.0
 11
59.2237823941
 21
78.661854592
 31
0.0
  0
LINE
  5
2CA
100
AcDbEntity
  8
RACCORDO
100
AcDbLine
 62
7
  6
CONTINUOUS
 10
56.8886081154
 20
78.3089788898
 30
0.0
 11
56.7887077974
 21
78.307232974
 31
0.0
  0
LINE
  5
2CB
100
AcDbEntity
  8
RACCORDO
100
AcDbLine
 62
250
  6
CONTINUOUS
 10
57.0109231766
 20
78.3111208512
 30
0.0
 11
56.8886081154
 21
78.3089788898
 31
0.0
  0
LINE
  5
2CC
100
AcDbEntity
  8
RACCORDO
100
AcDbLine
 62
250
  6
CONTINUOUS
 10
59.233070506
 20
78.496002907
 30
0.0
 11
57.0150218746
 21
78.496002907
 31
0.0
  0
LINE
  5
2CD
100
AcDbEntity
  8
RACCORDO
100
AcDbLine
 62
250
  6
CONTINUOUS
 10
59.4782832231
 20
78.6760029069
 30
0.0
 11
62.5310863664
 21
78.6760029069
 31
0.0
  0
LINE
  5
2CE
100
AcDbEntity
  8
RACCORDO
100
AcDbLine
 62
250
  6
CONTINUOUS
 10
66.2592332679
 20
78.5007966085
 30
0.0
 11
66.1586079024
 21
78.5008715179
 31
0.0
  0
LINE
  5
2CF
100
AcDbEntity
  8
RACCORDO
100
AcDbLine
 62
250
  6
CONTINUOUS
 10
66.1586079024
 20
78.5008715179
 30
0.0
 11
62.5310642715
 21
78.6763948717
 31
0.0
  0
LWPOLYLINE
  5
2D0
100
AcDbEntity
  8
0
100
AcDbPolyline
 62
7
  6
CONTINUOUS
 90
3
 70
0
 43
0.3500000006
 10
61.2221477509
 20
155.4015380859
 10
61.150716568
 20
155.1872536011
 10
61.0078587341
 20
154.9015288696
  0
LINE
  5
2D1
100
AcDbEntity
  8
RACCORDO
100
AcDbLine
 62
250
  6
CONTINUOUS
 10
56.9898547077
 20
79.1115592384
 30
0.0
 11
56.9897107321
 21
79.1115601971
 31
0.0
  0
LINE
  5
2D2
100
AcDbEntity
  8
0
100
AcDbLine
 62
7
  6
CONTINUOUS
 10
56.9958987125
 20
73.9496043967
 30
0.0
 11
56.9960826144
 21
73.9474487748
 31
0.0
  0
LINE
  5
2D3
100
AcDbEntity
  8
0
100
AcDbLine
 62
7
  6
CONTINUOUS
 10
57.0329119231
 20
73.4611319054
 30
0.0
 11
57.0348247704
 21
73.4362071796
 31
0.0
  0
LINE
  5
2D4
100
AcDbEntity
  8
0
100
AcDbLine
 62
7
  6
CONTINUOUS
 10
57.1059342144
 20
73.5552496815
 30
0.0
 11
57.0773962584
 21
73.9326775169
 31
0.0
  0
LINE
  5
2D5
100
AcDbEntity
  8
0
100
AcDbLine
 62
7
  6
CONTINUOUS
 10
56.8990715308
 20
75.2948471292
 30
0.0
 11
56.8992686081
 21
75.2922345574
 31
0.0
  0
LINE
  5
2D6
100
AcDbEntity
  8
0
100
AcDbLine
 62
7
  6
CONTINUOUS
 10
56.9749391676
 20
74.233701548
 30
0.0
 11
56.9989823723
 21
73.9090387816
 31
0.0
  0
LINE
  5
2D7
100
AcDbEntity
  8
0
100
AcDbLine
 62
7
  6
CONTINUOUS
 10
57.0762931239
 20
73.9474487748
 30
0.0
 11
57.0541927081
 21
74.2466663386
 31
0.0
  0
LINE
  5
2D8
100
AcDbEntity
  8
0
100
AcDbLine
 62
7
  6
CONTINUOUS
 10
57.0165496296
 20
74.7667446766
 30
0.0
 11
56.979251261
 21
75.2948587176
 31
0.0
  0
LINE
  5
2D9
100
AcDbEntity
  8
0
100
AcDbLine
 62
7
  6
CONTINUOUS
 10
56.8990650495
 20
75.2948822468
 30
0.0
 11
56.9346670144
 21
74.7904080356
 31
0.0
  0
LINE
  5
2DA
100
AcDbEntity
  8
0
100
AcDbLine
 62
7
  6
CONTINUOUS
 10
56.9953282951
 20
73.9576386886
 30
0.0
 11
56.9956472727
 21
73.9530694078
 31
0.0
  0
LINE
  5
2DB
100
AcDbEntity
  8
0
100
AcDbLine
 62
7
  6
CONTINUOUS
 10
56.8990665322
 20
75.294888192
 30
0.0
 11
56.8990715308
 21
75.2948471292
 31
0.0
  0
LINE
  5
2DC
100
AcDbEntity
  8
RACCORDO
100
AcDbLine
 62
250
  6
CONTINUOUS
 10
59.2237811221
 20
78.6618545211
 30
0.0
 11
59.2330718035
 21
78.4960029801
 31
0.0
  0
LINE
  5
2DD
100
AcDbEntity
  8
RACCORDO
100
AcDbLine
 62
250
  6
CONTINUOUS
 10
57.0150218746
 20
78.4960029066
 30
0.0
 11
57.0144808457
 21
78.5066169725
 31
0.0
  0
LINE
  5
2DE
100
AcDbEntity
  8
RACCORDO
100
AcDbLine
 62
7
  6
CONTINUOUS
 10
56.8859931789
 20
81.1793990994
 30
0.0
 11
56.9970162954
 21
78.9694732492
 31
0.0
  0
LINE
  5
2DF
100
AcDbEntity
  8
RACCORDO
100
AcDbLine
 62
7
  6
CONTINUOUS
 10
56.9970162954
 20
78.9694732492
 30
0.0
 11
57.0036547255
 21
78.8253315296
 31
0.0
  0
LINE
  5
2E0
100
AcDbEntity
  8
RACCORDO
100
AcDbLine
 62
7
  6
CONTINUOUS
 10
57.0036547255
 20
78.8253315296
 30
0.0
 11
57.0073639354
 21
78.734928935
 31
0.0
  0
LINE
  5
2E1
100
AcDbEntity
  8
RACCORDO
100
AcDbLine
 62
7
  6
CONTINUOUS
 10
57.0073639354
 20
78.734928935
 30
0.0
 11
57.0104313709
 21
78.6508311452
 31
0.0
  0
LINE
  5
2E2
100
AcDbEntity
  8
RACCORDO
100
AcDbLine
 62
7
  6
CONTINUOUS
 10
57.0104313709
 20
78.6508311452
 30
0.0
 11
57.0128132067
 21
78.5744753133
 31
0.0
  0
LINE
  5
2E3
100
AcDbEntity
  8
RACCORDO
100
AcDbLine
 62
7
  6
CONTINUOUS
 10
57.0128132067
 20
78.5744753133
 30
0.0
 11
57.0144808457
 21
78.5066169712
 31
0.0
  0
LINE
  5
2E4
100
AcDbEntity
  8
RACCORDO
100
AcDbLine
 62
7
  6
CONTINUOUS
 10
57.0152223644
 20
123.611815208
 30
0.0
 11
57.0153831167
 21
123.604000616
 31
0.0
  0
LINE
  5
2E5
100
AcDbEntity
  8
RACCORDO
100
AcDbLine
 62
7
  6
CONTINUOUS
 10
57.0144794294
 20
78.5066849907
 30
0.0
 11
57.0150540708
 21
78.4753342753
 31
0.0
  0
LINE
  5
2E6
100
AcDbEntity
  8
RACCORDO
100
AcDbLine
 62
7
  6
CONTINUOUS
 10
57.0153831167
 20
123.604000616
 30
0.0
 11
57.0155040427
 21
123.5945025003
 31
0.0
  0
LINE
  5
2E7
100
AcDbEntity
  8
RACCORDO
100
AcDbLine
 62
7
  6
CONTINUOUS
 10
57.0150540708
 20
78.4753342753
 30
0.0
 11
57.0154202332
 21
78.4468313389
 31
0.0
  0
LINE
  5
2E8
100
AcDbEntity
  8
RACCORDO
100
AcDbLine
 62
7
  6
CONTINUOUS
 10
57.0154202332
 20
78.4468313389
 30
0.0
 11
57.0155459397
 21
78.4299348495
 31
0.0
  0
LINE
  5
2E9
100
AcDbEntity
  8
RACCORDO
100
AcDbLine
 62
7
  6
CONTINUOUS
 10
57.0155040427
 20
123.5945025003
 30
0.0
 11
57.0155713767
 21
123.5834156602
 31
0.0
  0
LWPOLYLINE
  5
2EA
100
AcDbEntity
  8
RACCORDO
100
AcDbPolyline
 62
7
  6
CONTINUOUS
 90
9
 70
0
 10
56.4706289012
 20
100.9960029234
 10
56.4777016988
 20
98.3215200011
 10
56.4990927431
 20
95.6428705285
 10
56.5337695624
 20
93.0407290598
 10
56.5807021395
 20
90.5151259509
 10
56.6389739451
 20
88.0661009055
 10
56.7088550838
 20
85.6937146278
 10
56.7910662308
 20
83.398114294
 10
56.8859931789
 20
81.1793990994
  0
LINE
  5
2EB
100
AcDbEntity
  8
RACCORDO
100
AcDbLine
 62
7
  6
CONTINUOUS
 10
57.0155459397
 20
78.4299348495
 30
0.0
 11
57.0155831892
 21
78.4148951142
 31
0.0
  0
LINE
  5
2EC
100
AcDbEntity
  8
RACCORDO
100
AcDbLine
 62
7
  6
CONTINUOUS
 10
57.0155713767
 20
123.5834156602
 30
0.0
 11
57.0155769031
 21
123.5708181511
 31
0.0
  0
LINE
  5
2ED
100
AcDbEntity
  8
RACCORDO
100
AcDbLine
 62
7
  6
CONTINUOUS
 10
57.0155831892
 20
78.4148951142
 30
0.0
 11
57.0155384126
 21
78.4017719525
 31
0.0
  0
LINE
  5
2EE
100
AcDbEntity
  8
RACCORDO
100
AcDbLine
 62
7
  6
CONTINUOUS
 10
57.0155769031
 20
123.5708181511
 30
0.0
 11
57.0154600734
 21
123.5492985884
 31
0.0
  0
LWPOLYLINE
  5
2EF
100
AcDbEntity
  8
RACCORDO
100
AcDbPolyline
 62
7
  6
CONTINUOUS
 90
8
 70
0
 10
57.0155384126
 20
78.4017719525
 10
57.0154228298
 20
78.3906082616
 10
57.0153442251
 20
78.3858146839
 10
57.01525532
 20
78.3815461201
 10
57.0151588264
 20
78.3778025134
 10
57.0150605898
 20
78.374662825
 10
57.0149647736
 20
78.3721016417
 10
57.0148870772
 20
78.3703310443
  0
LINE
  5
2F0
100
AcDbEntity
  8
RACCORDO
100
AcDbLine
 62
7
  6
CONTINUOUS
 10
57.0154600734
 20
123.5492985884
 30
0.0
 11
57.0151809473
 21
123.5250126323
 31
0.0
  0
LINE
  5
2F1
100
AcDbEntity
  8
RACCORDO
100
AcDbLine
 62
7
  6
CONTINUOUS
 10
57.0151809473
 20
123.5250126323
 30
0.0
 11
57.0147352912
 21
123.498258876
 31
0.0
  0
LINE
  5
2F2
100
AcDbEntity
  8
RACCORDO
100
AcDbLine
 62
7
  6
CONTINUOUS
 10
57.0147352912
 20
123.498258876
 30
0.0
 11
57.0138811789
 21
123.4584518026
 31
0.0
  0
LINE
  5
2F3
100
AcDbEntity
  8
RACCORDO
100
AcDbLine
 62
7
  6
CONTINUOUS
 10
57.0138811789
 20
123.4584518026
 30
0.0
 11
57.0119216809
 21
123.3872746634
 31
0.0
  0
LINE
  5
2F4
100
AcDbEntity
  8
RACCORDO
100
AcDbLine
 62
7
  6
CONTINUOUS
 10
57.0119216809
 20
123.3872746634
 30
0.0
 11
57.009255895
 21
123.3076050572
 31
0.0
  0
LINE
  5
2F5
100
AcDbEntity
  8
RACCORDO
100
AcDbLine
 62
7
  6
CONTINUOUS
 10
57.009255895
 20
123.3076050572
 30
0.0
 11
57.0059218002
 21
123.220751729
 31
0.0
  0
LWPOLYLINE
  5
2F6
100
AcDbEntity
  8
RACCORDO
100
AcDbPolyline
 62
7
  6
CONTINUOUS
 90
9
 70
0
 10
56.8863030896
 20
120.8192728922
 10
56.7913279455
 20
118.6005615069
 10
56.7090717796
 20
116.3049624601
 10
56.6391546776
 20
113.932574881
 10
56.5808360125
 20
111.4835457234
 10
56.5338760313
 20
108.9579398616
 10
56.4991642529
 20
106.3557986551
 10
56.4777370314
 20
103.6771503327
 10
56.4706289012
 20
100.9960028979
  0
LINE
  5
2F7
100
AcDbEntity
  8
RACCORDO
100
AcDbLine
 62
7
  6
CONTINUOUS
 10
57.0059218002
 20
123.220751729
 30
0.0
 11
56.9997721034
 21
123.0802299378
 31
0.0
  0
LINE
  5
2F8
100
AcDbEntity
  8
RACCORDO
100
AcDbLine
 62
250
  6
CONTINUOUS
 10
57.0150218746
 20
123.4960029091
 30
0.0
 11
57.0144807914
 21
123.4853862533
 31
0.0
  0
LINE
  5
2F9
100
AcDbEntity
  8
RACCORDO
100
AcDbLine
 62
7
  6
CONTINUOUS
 10
57.0149085173
 20
78.3708196369
 30
0.0
 11
57.0147870211
 21
78.3684341452
 31
0.0
  0
LINE
  5
2FA
100
AcDbEntity
  8
RACCORDO
100
AcDbLine
 62
7
  6
CONTINUOUS
 10
56.9997721034
 20
123.0802299378
 30
0.0
 11
56.8863030896
 21
120.8192728922
 31
0.0
  0
LINE
  5
2FB
100
AcDbEntity
  8
RACCORDO
100
AcDbLine
 62
250
  6
CONTINUOUS
 10
56.9898547077
 20
122.8804465751
 30
0.0
 11
56.9867515692
 21
122.8228128104
 31
0.0
  0
LINE
  5
2FC
100
AcDbEntity
  8
RACCORDO
100
AcDbLine
 62
250
  6
CONTINUOUS
 10
59.2330718037
 20
123.4960028339
 30
0.0
 11
59.2237811223
 21
123.3301512936
 31
0.0
  0
LWPOLYLINE
  5
2FD
100
AcDbEntity
  8
RACCORDO
100
AcDbPolyline
 62
7
  6
CONTINUOUS
 90
11
 70
0
 10
57.0150218258
 20
123.621098441
 10
57.0149335528
 20
123.6219808848
 10
57.0148165566
 20
123.6232660119
 10
57.0147670764
 20
123.6238873922
 10
57.0147733458
 20
123.6237917425
 10
57.0148122233
 20
123.6231361462
 10
57.0148746433
 20
123.6219294783
 10
57.0149547389
 20
123.6201369623
 10
57.0150420924
 20
123.6178567351
 10
57.0151324017
 20
123.6150884928
 10
57.0152223644
 20
123.611815208
  0
LWPOLYLINE
  5
2FE
100
AcDbEntity
  8
0
100
AcDbPolyline
 62
7
  6
CONTINUOUS
 90
4
 70
0
 43
0.3500000006
 10
62.222148056
 20
155.5443823242
 10
62.222148056
 20
156.4015383911
 10
62.6507170258
 20
156.8301073608
 10
63.2935750122
 20
156.8301073608
  0
LINE
  5
2FF
100
AcDbEntity
  8
RACCORDO
100
AcDbLine
 62
250
  6
CONTINUOUS
 10
66.2592332679
 20
100.996002907
 30
0.0
 11
56.4707734336
 21
100.996002907
 31
0.0
  0
LINE
  5
300
100
AcDbEntity
  8
RACCORDO
100
AcDbLine
 62
7
  6
CONTINUOUS
 10
66.2587709864
 20
79.5678417075
 30
0.0
 11
66.2592332679
 21
79.551193728
 31
0.0
  0
LINE
  5
301
100
AcDbEntity
  8
RACCORDO
100
AcDbLine
 62
7
  6
CONTINUOUS
 10
66.2587709865
 20
122.567841705
 30
0.0
 11
66.2592332679
 21
122.551193728
 31
0.0
  0
LINE
  5
302
100
AcDbEntity
  8
RACCORDO
100
AcDbLine
 62
250
  6
CONTINUOUS
 10
66.1835898333
 20
62.3235793831
 30
0.0
 11
66.18514912
 21
61.9959721208
 31
0.0
  0
LINE
  5
303
100
AcDbEntity
  8
RACCORDO
100
AcDbLine
 62
7
  6
CONTINUOUS
 10
66.2592332679
 20
142.5581015799
 30
0.0
 11
66.2592332679
 21
59.4328512797
 31
0.0
  0
LINE
  5
304
100
AcDbEntity
  8
RACCORDO
100
AcDbLine
 62
250
  6
CONTINUOUS
 10
66.1849781699
 20
139.9960345379
 30
0.0
 11
66.1838105348
 21
139.6684254126
 31
0.0
  0
LINE
  5
305
100
AcDbEntity
  8
RACCORDO
100
AcDbLine
 62
7
  6
CONTINUOUS
 10
66.2587709886
 20
122.4241641463
 30
0.0
 11
66.2592332679
 21
122.4408120859
 31
0.0
  0
LINE
  5
306
100
AcDbEntity
  8
RACCORDO
100
AcDbLine
 62
7
  6
CONTINUOUS
 10
66.2587709887
 20
79.4241641483
 30
0.0
 11
66.2592332679
 21
79.4408120859
 31
0.0
  0
LINE
  5
307
100
AcDbEntity
  8
RACCORDO
100
AcDbLine
 62
250
  6
CONTINUOUS
 10
66.1586079024
 20
123.491134296
 30
0.0
 11
62.5310642715
 21
123.3156109422
 31
0.0
  0
LINE
  5
308
100
AcDbEntity
  8
RACCORDO
100
AcDbLine
 62
250
  6
CONTINUOUS
 10
56.9898547137
 20
122.8804466866
 30
0.0
 11
56.989710738
 21
122.8804457277
 31
0.0
  0
LINE
  5
309
100
AcDbEntity
  8
RACCORDO
100
AcDbLine
 62
250
  6
CONTINUOUS
 10
66.2592332679
 20
123.4912092055
 30
0.0
 11
66.1586079024
 21
123.491134296
 31
0.0
  0
LINE
  5
30A
100
AcDbEntity
  8
RACCORDO
100
AcDbLine
 62
250
  6
CONTINUOUS
 10
59.4782832231
 20
123.316002907
 30
0.0
 11
62.5310863664
 21
123.316002907
 31
0.0
  0
LINE
  5
30B
100
AcDbEntity
  8
RACCORDO
100
AcDbLine
 62
250
  6
CONTINUOUS
 10
59.233070506
 20
123.496002907
 30
0.0
 11
57.0150218746
 21
123.496002907
 31
0.0
  0
LINE
  5
30C
100
AcDbEntity
  8
RACCORDO
100
AcDbLine
 62
250
  6
CONTINUOUS
 10
56.7887077974
 20
123.6847728399
 30
0.0
 11
57.0109231766
 21
123.6808849628
 31
0.0
  0
LINE
  5
30D
100
AcDbEntity
  8
RACCORDO
100
AcDbLine
 62
250
  6
CONTINUOUS
 10
59.4782832209
 20
123.3160028674
 30
0.0
 11
59.2237823963
 21
123.3301512617
 31
0.0
  0
LINE
  5
30E
100
AcDbEntity
  8
RACCORDO
100
AcDbLine
 62
250
  6
CONTINUOUS
 10
59.4875609877
 20
123.4816932823
 30
0.0
 11
59.233070506
 21
123.496002907
 31
0.0
  0
LWPOLYLINE
  5
30F
100
AcDbEntity
  8
0
100
AcDbPolyline
 62
7
  6
CONTINUOUS
 90
10
 70
0
 43
0.3500000006
 10
61.150716568
 20
155.6158225708
 10
61.2221477509
 20
155.4729602051
 10
61.2221477509
 20
155.4015380859
 10
61.079289917
 20
155.2586757202
 10
61.0078587341
 20
155.2586757202
 10
60.9364320831
 20
155.3300978394
 10
60.9364320831
 20
155.4015380859
 10
61.0078587341
 20
155.5443823242
 10
61.079289917
 20
155.6158225708
 10
61.150716568
 20
155.6158225708
  0
LWPOLYLINE
  5
310
100
AcDbEntity
  8
SUPERFICI
100
AcDbPolyline
 62
7
  6
CONTINUOUS
 90
3
 70
0
 10
66.1839308713
 20
59.3027733071
 10
65.979008953
 20
59.1850046093
 10
64.0881546923
 20
58.0914812276
  0
LINE
  5
311
100
AcDbEntity
  8
RACCORDO
100
AcDbLine
 62
250
  6
CONTINUOUS
 10
60.8743764541
 20
143.5651569542
 30
0.0
 11
63.9400047017
 21
143.996002907
 31
0.0
  0
LINE
  5
312
100
AcDbEntity
  8
RACCORDO
100
AcDbLine
 62
7
  6
CONTINUOUS
 10
59.0438400978
 20
143.5689014363
 30
0.0
 11
62.0828250133
 21
143.996002907
 31
0.0
  0
LINE
  5
313
100
AcDbEntity
  8
RACCORDO
100
AcDbLine
 62
7
  6
CONTINUOUS
 10
61.9828390192
 20
143.996002907
 30
0.0
 11
58.943867543
 21
143.5689033191
 31
0.0
  0
LINE
  5
314
100
AcDbEntity
  8
RACCORDO
100
AcDbLine
 62
250
  6
CONTINUOUS
 10
66.1838105348
 20
139.6684254126
 30
0.0
 11
63.9911341253
 21
139.6018737569
 31
0.0
  0
LINE
  5
315
100
AcDbEntity
  8
RACCORDO
100
AcDbLine
 62
250
  6
CONTINUOUS
 10
60.9206980263
 20
139.604802907
 30
0.0
 11
63.9914949024
 21
139.604802907
 31
0.0
  0
LINE
  5
316
100
AcDbEntity
  8
RACCORDO
100
AcDbLine
 62
7
  6
CONTINUOUS
 10
58.943867543
 20
143.5689033191
 30
0.0
 11
59.0438400978
 21
143.5689014363
 31
0.0
  0
LINE
  5
317
100
AcDbEntity
  8
SUPERFICI
100
AcDbLine
 62
7
  6
CONTINUOUS
 10
63.9940874014
 20
143.996002907
 30
0.0
 11
62.0828250133
 21
143.996002907
 31
0.0
  0
LINE
  5
318
100
AcDbEntity
  8
0
100
AcDbLine
 62
7
  6
CONTINUOUS
 10
62.0828250133
 20
143.996002907
 30
0.0
 11
61.9828390192
 21
143.996002907
 31
0.0
  0
LINE
  5
319
100
AcDbEntity
  8
RACCORDO
100
AcDbLine
 62
250
  6
CONTINUOUS
 10
66.1849781699
 20
139.9960345379
 30
0.0
 11
64.0378886498
 21
139.9969492734
 31
0.0
  0
LINE
  5
31A
100
AcDbEntity
  8
RACCORDO
100
AcDbLine
 62
250
  6
CONTINUOUS
 10
59.0451530926
 20
143.5688996992
 30
0.0
 11
60.8743764541
 21
143.5651569542
 31
0.0
  0
LINE
  5
31B
100
AcDbEntity
  8
RACCORDO
100
AcDbLine
 62
250
  6
CONTINUOUS
 10
58.6883869217
 20
143.3124776682
 30
0.0
 11
60.6213861779
 21
143.3084361137
 31
0.0
  0
LINE
  5
31C
100
AcDbEntity
  8
RACCORDO
100
AcDbLine
 62
250
  6
CONTINUOUS
 10
59.1099724634
 20
143.5688466669
 30
0.0
 11
59.1195861688
 21
143.568806501
 31
0.0
  0
LINE
  5
31D
100
AcDbEntity
  8
RACCORDO
100
AcDbLine
 62
250
  6
CONTINUOUS
 10
59.1436018929
 20
143.5687496515
 30
0.0
 11
59.1739667579
 21
143.5686289545
 31
0.0
  0
LINE
  5
31E
100
AcDbEntity
  8
RACCORDO
100
AcDbLine
 62
250
  6
CONTINUOUS
 10
60.9206980263
 20
139.604802907
 30
0.0
 11
60.6678687007
 21
139.6355105219
 31
0.0
  0
LINE
  5
31F
100
AcDbEntity
  8
RACCORDO
100
AcDbLine
 62
7
  6
CONTINUOUS
 10
66.1838967127
 20
142.6892391111
 30
0.0
 11
66.1839303005
 21
142.6892328345
 31
0.0
  0
LINE
  5
320
100
AcDbEntity
  8
SUPERFICI
100
AcDbLine
 62
7
  6
CONTINUOUS
 10
66.1839308298
 20
142.6892325307
 30
0.0
 11
65.0200184155
 21
143.3602656573
 31
0.0
  0
LINE
  5
321
100
AcDbEntity
  8
SUPERFICI
100
AcDbLine
 62
7
  6
CONTINUOUS
 10
65.0200184155
 20
143.3602656573
 30
0.0
 11
64.0881546923
 21
143.9005245863
 31
0.0
  0
LWPOLYLINE
  5
322
100
AcDbEntity
  8
0
100
AcDbPolyline
 62
7
  6
CONTINUOUS
 90
13
 70
0
 43
0.3500000006
 10
62.6507170258
 20
156.8301073608
 10
62.365001358
 20
157.0443918457
 10
62.365001358
 20
157.6872453003
 10
62.6507170258
 20
158.11581427
 10
63.2935750122
 20
158.11581427
 10
63.5792906799
 20
157.6872453003
 10
63.5792906799
 20
157.0443918457
 10
63.2935750122
 20
156.8301073608
 10
63.7221439819
 20
156.4015383911
 10
63.7221439819
 20
155.5443823242
 10
63.2935750122
 20
155.1158133545
 10
62.6507170258
 20
155.1158133545
 10
62.222148056
 20
155.5443823242
  0
ARC
  5
323
100
AcDbEntity
  8
RACCORDO
100
AcDbCircle
 62
250
  6
CONTINUOUS
 10
98.1513499088
 20
-147.8650390703
 30
0.0
 40
206.5486200029
100
AcDbArc
 50
89.981104285
 51
90.0950325563
  0
ARC
  5
324
100
AcDbEntity
  8
RACCORDO
100
AcDbCircle
 62
250
  6
CONTINUOUS
 10
298.0067169516
 20
349.8570448827
 30
0.0
 40
206.5486200013
100
AcDbArc
 50
269.981104285
 51
270.0950325563
  0
ARC
  5
325
100
AcDbEntity
  8
RACCORDO
100
AcDbCircle
 62
250
  6
CONTINUOUS
 10
298.0067222816
 20
-147.8551463783
 30
0.0
 40
206.5387273132
100
AcDbArc
 50
89.9049695406
 51
90.0188980984
  0
ARC
  5
326
100
AcDbEntity
  8
RACCORDO
100
AcDbCircle
 62
250
  6
CONTINUOUS
 10
98.1513445788
 20
349.8471521056
 30
0.0
 40
206.5387272266
100
AcDbArc
 50
269.9049695406
 51
270.0188980985
  0
ARC
  5
327
100
AcDbEntity
  8
RACCORDO
100
AcDbCircle
 62
250
  6
CONTINUOUS
 10
98.1938431787
 20
348.4915543842
 30
0.0
 40
204.9264058839
100
AcDbArc
 50
269.9021218665
 51
270.016457601
  0
ARC
  5
328
100
AcDbEntity
  8
RACCORDO
100
AcDbCircle
 62
250
  6
CONTINUOUS
 10
297.9642236818
 20
-146.4995485518
 30
0.0
 40
204.9264058654
100
AcDbArc
 50
89.9021218665
 51
90.016457601
  0
ARC
  5
329
100
AcDbEntity
  8
RACCORDO
100
AcDbCircle
 62
250
  6
CONTINUOUS
 10
297.9642237195
 20
348.4915012322
 30
0.0
 40
204.9263527319
100
AcDbArc
 50
269.9835423842
 51
270.0978781483
  0
ARC
  5
32A
100
AcDbEntity
  8
RACCORDO
100
AcDbCircle
 62
250
  6
CONTINUOUS
 10
98.1938431409
 20
-146.499495353
 30
0.0
 40
204.9263526667
100
AcDbArc
 50
89.9835423842
 51
90.0978781483
  0
ARC
  5
32B
100
AcDbEntity
  8
SUPERFICI
100
AcDbCircle
 62
7
  6
CONTINUOUS
 10
298.3290334302
 20
61.996002907
 30
0.0
 40
4.0
100
AcDbArc
 50
270.0
 51
360.0
  0
ARC
  5
32C
100
AcDbEntity
  8
SUPERFICI
100
AcDbCircle
 62
7
  6
CONTINUOUS
 10
298.3290334302
 20
139.996002907
 30
0.0
 40
4.0
100
AcDbArc
 50
0.0
 51
90.0
  0
ARC
  5
32D
100
AcDbEntity
  8
0
100
AcDbCircle
 62
7
  6
CONTINUOUS
 10
97.8290334302
 20
61.996002907
 30
0.0
 40
4.0
100
AcDbArc
 50
180.0
 51
270.0
  0
ARC
  5
32E
100
AcDbEntity
  8
SUPERFICI
100
AcDbCircle
 62
7
  6
CONTINUOUS
 10
97.8290334302
 20
139.996002907
 30
0.0
 40
4.0
100
AcDbArc
 50
90.0
 51
180.0
  0
ARC
  5
32F
100
AcDbEntity
  8
RACCORDO
100
AcDbCircle
 62
250
  6
CONTINUOUS
 10
97.8342406629
 20
139.9914685232
 30
0.0
 40
3.5739144312
100
AcDbArc
 50
89.8472635858
 51
180.143209057
  0
ARC
  5
330
100
AcDbEntity
  8
RACCORDO
100
AcDbCircle
 62
250
  6
CONTINUOUS
 10
298.3238261981
 20
62.0005372908
 30
0.0
 40
3.5739144309
100
AcDbArc
 50
269.8472635775
 51
0.143209055
  0
ARC
  5
331
100
AcDbEntity
  8
RACCORDO
100
AcDbCircle
 62
250
  6
CONTINUOUS
 10
298.3238259391
 20
139.9914691268
 30
0.0
 40
3.5739142403
100
AcDbArc
 50
359.8567812777
 51
90.1527322976
  0
ARC
  5
332
100
AcDbEntity
  8
RACCORDO
100
AcDbCircle
 62
250
  6
CONTINUOUS
 10
97.8342409074
 20
62.0005366763
 30
0.0
 40
3.5739142306
100
AcDbArc
 50
179.8567811031
 51
270.1527325215
  0
ARC
  5
333
100
AcDbEntity
  8
RACCORDO
100
AcDbCircle
 62
250
  6
CONTINUOUS
 10
298.3634097653
 20
140.0272425612
 30
0.0
 40
3.2813680262
100
AcDbArc
 50
359.7830473138
 51
90.2462781491
  0
ARC
  5
334
100
AcDbEntity
  8
RACCORDO
100
AcDbCircle
 62
250
  6
CONTINUOUS
 10
97.7946570527
 20
61.9647631293
 30
0.0
 40
3.2813679202
100
AcDbArc
 50
179.7830451551
 51
270.2462789003
  0
ARC
  5
335
100
AcDbEntity
  8
RACCORDO
100
AcDbCircle
 62
250
  6
CONTINUOUS
 10
298.3634104152
 20
61.9647630707
 30
0.0
 40
3.2813675483
100
AcDbArc
 50
269.7533850838
 51
0.2166878187
  0
ARC
  5
336
100
AcDbEntity
  8
RACCORDO
100
AcDbCircle
 62
250
  6
CONTINUOUS
 10
97.7946561795
 20
140.0272427552
 30
0.0
 40
3.2813674064
100
AcDbArc
 50
89.7533804434
 51
180.2166880457
  0
ARC
  5
337
100
AcDbEntity
  8
RACCORDO
100
AcDbCircle
 62
250
  6
CONTINUOUS
 10
119.7276777425
 20
79.112536509
 30
0.0
 40
0.8010887431
100
AcDbArc
 50
180.0698967084
 51
269.9675070599
  0
ARC
  5
338
100
AcDbEntity
  8
RACCORDO
100
AcDbCircle
 62
250
  6
CONTINUOUS
 10
276.430389118
 20
122.879469305
 30
0.0
 40
0.8010887431
100
AcDbArc
 50
0.0698967084
 51
89.9675070599
  0
ARC
  5
339
100
AcDbEntity
  8
RACCORDO
100
AcDbCircle
 62
250
  6
CONTINUOUS
 10
276.4303899303
 20
79.1125361268
 30
0.0
 40
0.8010879303
100
AcDbArc
 50
270.0324698357
 51
359.9301305538
  0
ARC
  5
33A
100
AcDbEntity
  8
RACCORDO
100
AcDbCircle
 62
250
  6
CONTINUOUS
 10
119.727676485
 20
122.8794698966
 30
0.0
 40
0.8010874849
100
AcDbArc
 50
90.0324544211
 51
179.9301454947
  0
ARC
  5
33B
100
AcDbEntity
  8
RACCORDO
100
AcDbCircle
 62
250
  6
CONTINUOUS
 10
119.7359917622
 20
79.1285536394
 30
0.0
 40
0.5001636938
100
AcDbArc
 50
180.0952580934
 51
269.959879339
  0
ARC
  5
33C
100
AcDbEntity
  8
RACCORDO
100
AcDbCircle
 62
250
  6
CONTINUOUS
 10
276.4220750983
 20
122.8634521745
 30
0.0
 40
0.5001636938
100
AcDbArc
 50
0.0952580934
 51
89.959879339
  0
ARC
  5
33D
100
AcDbEntity
  8
RACCORDO
100
AcDbCircle
 62
250
  6
CONTINUOUS
 10
276.4220754584
 20
79.1285534677
 30
0.0
 40
0.5001633334
100
AcDbArc
 50
270.0401063948
 51
359.9047615059
  0
ARC
  5
33E
100
AcDbEntity
  8
RACCORDO
100
AcDbCircle
 62
250
  6
CONTINUOUS
 10
119.7359911246
 20
122.8634524768
 30
0.0
 40
0.5001630557
100
AcDbArc
 50
90.0400878847
 51
179.9047764162
  0
ARC
  5
33F
100
AcDbEntity
  8
SUPERFICI
100
AcDbCircle
 62
7
  6
CONTINUOUS
 10
32.7099100769
 20
58.5276603419
 30
0.0
 40
31.518781988
100
AcDbArc
 50
6.3176502867
 51
7.0336442435
  0
ARC
  5
340
100
AcDbEntity
  8
RACCORDO
100
AcDbCircle
 62
250
  6
CONTINUOUS
 10
46.1532316532
 20
78.2626955652
 30
0.0
 40
10.8643027865
100
AcDbArc
 50
1.2856655327
 51
1.7528982457
  0
ARC
  5
341
100
AcDbEntity
  8
RACCORDO
100
AcDbCircle
 62
250
  6
CONTINUOUS
 10
50.0087588667
 20
78.3513779619
 30
0.0
 40
7.0077555402
100
AcDbArc
 50
0.9702815255
 51
1.1825451467
  0
ARC
  5
342
100
AcDbEntity
  8
RACCORDO
100
AcDbCircle
 62
250
  6
CONTINUOUS
 10
51.8446456609
 20
78.3820585153
 30
0.0
 40
5.1716124664
100
AcDbArc
 50
0.449305836
 51
0.974850261
  0
ARC
  5
343
100
AcDbEntity
  8
RACCORDO
100
AcDbCircle
 62
250
  6
CONTINUOUS
 10
60.6303217914
 20
55.0206391059
 30
0.0
 40
3.6629414934
100
AcDbArc
 50
89.2868274421
 51
90.139771121
  0
ARC
  5
344
100
AcDbEntity
  8
RACCORDO
100
AcDbCircle
 62
250
  6
CONTINUOUS
 10
60.882075428
 20
54.781928117
 30
0.0
 40
3.6449288739
100
AcDbArc
 50
89.2664858972
 51
90.1210226741
  0
ARC
  5
345
100
AcDbEntity
  8
RACCORDO
100
AcDbCircle
 62
250
  6
CONTINUOUS
 10
57.3119885568
 20
78.3281163394
 30
0.0
 40
0.301544706
100
AcDbArc
 50
170.1086759634
 51
183.2309837167
  0
ARC
  5
346
100
AcDbEntity
  8
RACCORDO
100
AcDbCircle
 62
7
  6
CONTINUOUS
 10
58.9856194732
 20
58.7201829155
 30
0.0
 40
0.3
100
AcDbArc
 50
187.7884528795
 51
262.0
  0
ARC
  5
347
100
AcDbEntity
  8
RACCORDO
100
AcDbCircle
 62
7
  6
CONTINUOUS
 10
57.0882199639
 20
78.3243344979
 30
0.0
 40
0.3
100
AcDbArc
 50
104.8042813494
 51
183.2679220069
  0
ARC
  5
348
100
AcDbEntity
  8
RACCORDO
100
AcDbCircle
 62
7
  6
CONTINUOUS
 10
65.9592332679
 20
79.4408120859
 30
0.0
 40
0.3
100
AcDbArc
 50
350.1110628056
 51
359.9999999997
  0
ARC
  5
349
100
AcDbEntity
  8
RACCORDO
100
AcDbCircle
 62
7
  6
CONTINUOUS
 10
65.9592332679
 20
79.551193728
 30
0.0
 40
0.3
100
AcDbArc
 50
0.0000000003
 51
4.9444590002
  0
ARC
  5
34A
100
AcDbEntity
  8
RACCORDO
100
AcDbCircle
 62
250
  6
CONTINUOUS
 10
59.0856176479
 20
58.7201826914
 30
0.0
 40
0.2999981611
100
AcDbArc
 50
187.7880652004
 51
261.9964490113
  0
ARC
  5
34B
100
AcDbEntity
  8
RACCORDO
100
AcDbCircle
 62
250
  6
CONTINUOUS
 10
57.1881035267
 20
78.3260806591
 30
0.0
 40
0.2999832861
100
AcDbArc
 50
125.7665004029
 51
183.268151221
  0
ARC
  5
34C
100
AcDbEntity
  8
RACCORDO
100
AcDbCircle
 62
7
  6
CONTINUOUS
 10
66.1092332679
 20
59.4328512797
 30
0.0
 40
0.15
100
AcDbArc
 50
299.8665830049
 51
359.9999999998
  0
ARC
  5
34D
100
AcDbEntity
  8
SUPERFICI
100
AcDbCircle
 62
7
  6
CONTINUOUS
 10
32.7099100768
 20
143.4643454721
 30
0.0
 40
31.5187819882
100
AcDbArc
 50
352.9663557565
 51
353.6823497133
  0
ARC
  5
34E
100
AcDbEntity
  8
RACCORDO
100
AcDbCircle
 62
250
  6
CONTINUOUS
 10
46.2742110421
 20
123.7268458549
 30
0.0
 40
10.7433043983
100
AcDbArc
 50
358.247009946
 51
358.6041438048
  0
ARC
  5
34F
100
AcDbEntity
  8
RACCORDO
100
AcDbCircle
 62
250
  6
CONTINUOUS
 10
48.7451238415
 20
123.6666514778
 30
0.0
 40
8.2716585043
100
AcDbArc
 50
358.6040425618
 51
358.8178747237
  0
ARC
  5
350
100
AcDbEntity
  8
RACCORDO
100
AcDbCircle
 62
250
  6
CONTINUOUS
 10
50.4217259505
 20
123.6328399771
 30
0.0
 40
6.5947157275
100
AcDbArc
 50
358.8110557573
 51
359.0881295452
  0
ARC
  5
351
100
AcDbEntity
  8
RACCORDO
100
AcDbCircle
 62
250
  6
CONTINUOUS
 10
52.7263945505
 20
123.5995283063
 30
0.0
 40
4.2898101843
100
AcDbArc
 50
359.0431172798
 51
359.755047943
  0
ARC
  5
352
100
AcDbEntity
  8
RACCORDO
100
AcDbCircle
 62
250
  6
CONTINUOUS
 10
60.6303210776
 20
146.9715444875
 30
0.0
 40
3.6631192706
100
AcDbArc
 50
269.8602468244
 51
270.7131881387
  0
ARC
  5
353
100
AcDbEntity
  8
RACCORDO
100
AcDbCircle
 62
250
  6
CONTINUOUS
 10
60.8820754332
 20
147.2100767192
 30
0.0
 40
3.6449278961
100
AcDbArc
 50
269.8789772113
 51
270.7335142175
  0
ARC
  5
354
100
AcDbEntity
  8
RACCORDO
100
AcDbCircle
 62
250
  6
CONTINUOUS
 10
57.3119887666
 20
123.6638894937
 30
0.0
 40
0.3015449145
100
AcDbArc
 50
176.7690221823
 51
189.893279672
  0
ARC
  5
355
100
AcDbEntity
  8
RACCORDO
100
AcDbCircle
 62
7
  6
CONTINUOUS
 10
58.9856194732
 20
143.2718228984
 30
0.0
 40
0.3
100
AcDbArc
 50
98.0
 51
172.2115471205
  0
ARC
  5
356
100
AcDbEntity
  8
RACCORDO
100
AcDbCircle
 62
7
  6
CONTINUOUS
 10
57.0882199639
 20
123.667671316
 30
0.0
 40
0.3
100
AcDbArc
 50
176.7320779931
 51
255.194405775
  0
ARC
  5
357
100
AcDbEntity
  8
RACCORDO
100
AcDbCircle
 62
7
  6
CONTINUOUS
 10
65.9592332679
 20
122.4408120859
 30
0.0
 40
0.3
100
AcDbArc
 50
350.1110628056
 51
359.9999999997
  0
ARC
  5
358
100
AcDbEntity
  8
RACCORDO
100
AcDbCircle
 62
7
  6
CONTINUOUS
 10
65.9592332679
 20
122.551193728
 30
0.0
 40
0.3
100
AcDbArc
 50
0.0000000003
 51
9.8889282272
  0
ARC
  5
359
100
AcDbEntity
  8
RACCORDO
100
AcDbCircle
 62
250
  6
CONTINUOUS
 10
59.0856176479
 20
143.2718231226
 30
0.0
 40
0.2999981611
100
AcDbArc
 50
98.0035509889
 51
172.2119348006
  0
ARC
  5
35A
100
AcDbEntity
  8
RACCORDO
100
AcDbCircle
 62
250
  6
CONTINUOUS
 10
57.1881035267
 20
123.6659251548
 30
0.0
 40
0.2999832861
100
AcDbArc
 50
176.7318487791
 51
234.2347317569
  0
ARC
  5
35B
100
AcDbEntity
  8
RACCORDO
100
AcDbCircle
 62
7
  6
CONTINUOUS
 10
66.1092332679
 20
142.5591545342
 30
0.0
 40
0.15
100
AcDbArc
 50
0.0000000002
 51
60.1334000133
  0
ARC
  5
35C
100
AcDbEntity
  8
0
100
AcDbCircle
 62
7
  6
CONTINUOUS
 10
306.4352684494
 20
92.5771389286
 30
0.0
 40
250.1338784765
100
AcDbArc
 50
184.388720115
 51
184.5427469521
  0
ARC
  5
35D
100
AcDbEntity
  8
0
100
AcDbCircle
 62
7
  6
CONTINUOUS
 10
306.4220478631
 20
92.5751642613
 30
0.0
 40
250.0405598749
100
AcDbArc
 50
184.3884982261
 51
184.5439920179
  0
ARC
  5
35E
100
AcDbEntity
  8
0
100
AcDbCircle
 62
7
  6
CONTINUOUS
 10
306.3821798781
 20
92.558502907
 30
0.0
 40
250.0
100
AcDbArc
 50
183.2679220069
 51
183.9596916181
  0
ARC
  5
35F
100
AcDbEntity
  8
0
100
AcDbCircle
 62
7
  6
CONTINUOUS
 10
306.3821798781
 20
92.558502907
 30
0.0
 40
250.0
100
AcDbArc
 50
184.5409004507
 51
187.7884528795
  0
ARC
  5
360
100
AcDbEntity
  8
0
100
AcDbCircle
 62
7
  6
CONTINUOUS
 10
306.3825879985
 20
92.558502907
 30
0.0
 40
250.0
100
AcDbArc
 50
184.2692889841
 51
184.2726837343
  0
ARC
  5
361
100
AcDbEntity
  8
RACCORDO
100
AcDbCircle
 62
250
  6
CONTINUOUS
 10
308.8370947796
 20
92.558502907
 30
0.0
 40
250.0
100
AcDbArc
 50
183.2245915843
 51
186.9387315633
  0
ARC
  5
362
100
AcDbEntity
  8
RACCORDO
100
AcDbCircle
 62
250
  6
CONTINUOUS
 10
306.4821798781
 20
92.558502907
 30
0.0
 40
250.0
100
AcDbArc
 50
183.2675212209
 51
187.7884524085
  0
ARC
  5
363
100
AcDbEntity
  8
RACCORDO
100
AcDbCircle
 62
250
  6
CONTINUOUS
 10
308.9441699026
 20
92.5585475289
 30
0.0
 40
249.8518613856
100
AcDbArc
 50
183.2232270679
 51
186.9357893652
  0
ARC
  5
364
100
AcDbEntity
  8
SUPERFICI
100
AcDbCircle
 62
7
  6
CONTINUOUS
 10
308.940331716
 20
92.558502907
 30
0.0
 40
246.8
100
AcDbArc
 50
183.2245895917
 51
187.0219743237
  0
ARC
  5
365
100
AcDbEntity
  8
RACCORDO
100
AcDbCircle
 62
7
  6
CONTINUOUS
 10
306.3821798781
 20
109.433502907
 30
0.0
 40
250.0
100
AcDbArc
 50
172.2115471205
 51
176.7320779931
  0
ARC
  5
366
100
AcDbEntity
  8
RACCORDO
100
AcDbCircle
 62
250
  6
CONTINUOUS
 10
306.4821798781
 20
109.433502907
 30
0.0
 40
250.0
100
AcDbArc
 50
172.2115475915
 51
176.7324787791
  0
ARC
  5
367
100
AcDbEntity
  8
RACCORDO
100
AcDbCircle
 62
250
  6
CONTINUOUS
 10
308.8370816981
 20
109.433502907
 30
0.0
 40
250.0
100
AcDbArc
 50
173.0612680745
 51
176.7754082471
  0
ARC
  5
368
100
AcDbEntity
  8
RACCORDO
100
AcDbCircle
 62
250
  6
CONTINUOUS
 10
308.944391012
 20
109.4334386312
 30
0.0
 40
249.8520832503
100
AcDbArc
 50
173.0642122837
 51
176.7767712832
  0
ARC
  5
369
100
AcDbEntity
  8
SUPERFICI
100
AcDbCircle
 62
7
  6
CONTINUOUS
 10
308.940331716
 20
109.433502907
 30
0.0
 40
246.8
100
AcDbArc
 50
172.9780256763
 51
176.7754104083
  0
SPLINE
  5
36A
100
AcDbEntity
  8
0
100
AcDbSpline
 62
7
  6
CONTINUOUS
 70
0
 71
3
 72
9
 73
5
 74
0
 42
0.0000001
 43
0.0000001
 44
0.0000000001
 40
0.0
 40
0.0
 40
0.0
 40
0.0
 40
0.6439297259
 40
1.0
 40
1.0
 40
1.0
 40
1.0
 10
202.1338568182
 20
73.5239821641
 30
0.0
 10
202.1049284183
 20
73.6009661284
 30
0.0
 10
202.0190216714
 20
73.7165597964
 30
0.0
 10
201.8882726309
 20
73.7440815456
 30
0.0
 10
201.8428021466
 20
73.7440815456
 30
0.0
  0
SPLINE
  5
36B
100
AcDbEntity
  8
0
100
AcDbSpline
 62
7
  6
CONTINUOUS
 70
0
 71
3
 72
9
 73
5
 74
0
 42
0.0000001
 43
0.0000001
 44
0.0000000001
 40
0.0
 40
0.0
 40
0.0
 40
0.0
 40
0.4412849067
 40
1.0
 40
1.0
 40
1.0
 40
1.0
 10
202.3620830926
 20
72.7658231263
 30
0.0
 10
202.329901592
 20
72.8777572171
 30
0.0
 10
202.2539154063
 20
73.1303723179
 30
0.0
 10
202.1857275691
 20
73.3859441651
 30
0.0
 10
202.1338567908
 20
73.5239821538
 30
0.0
  0
SPLINE
  5
36C
100
AcDbEntity
  8
0
100
AcDbSpline
 62
7
  6
CONTINUOUS
 70
0
 71
3
 72
9
 73
5
 74
0
 42
0.0000001
 43
0.0000001
 44
0.0000000001
 40
0.0
 40
0.0
 40
0.0
 40
0.0
 40
0.8019701384
 40
1.0
 40
1.0
 40
1.0
 40
1.0
 10
202.6856219531
 20
73.4423419892
 30
0.0
 10
202.7347846298
 20
73.2618897326
 30
0.0
 10
202.7926402852
 20
73.0359567824
 30
0.0
 10
202.8518825219
 20
72.8103915917
 30
0.0
 10
202.8639871909
 20
72.7658231263
 30
0.0
  0
SPLINE
  5
36D
100
AcDbEntity
  8
0
100
AcDbSpline
 62
7
  6
CONTINUOUS
 70
0
 71
3
 72
8
 73
4
 74
0
 42
0.0000001
 43
0.0000001
 44
0.0000000001
 40
0.0
 40
0.0
 40
0.0
 40
0.0
 40
1.0
 40
1.0
 40
1.0
 40
1.0
 10
202.3848398275
 20
73.9326775169
 30
0.0
 10
202.4011151457
 20
73.9261877338
 30
0.0
 10
202.4165765266
 20
73.9182426715
 30
0.0
 10
202.4312652386
 20
73.9090387816
 30
0.0
  0
SPLINE
  5
36E
100
AcDbEntity
  8
0
100
AcDbSpline
 62
7
  6
CONTINUOUS
 70
0
 71
3
 72
9
 73
5
 74
0
 42
0.0000001
 43
0.0000001
 44
0.0000000001
 40
0.0
 40
0.0
 40
0.0
 40
0.0
 40
0.7331747918
 40
1.0
 40
1.0
 40
1.0
 40
1.0
 10
202.4312652386
 20
73.9090387816
 30
0.0
 10
202.5397574953
 20
73.841057955
 30
0.0
 10
202.630240345
 20
73.6546693141
 30
0.0
 10
202.6732414105
 20
73.4877849334
 30
0.0
 10
202.6856219527
 20
73.4423419891
 30
0.0
  0
SPLINE
  5
36F
100
AcDbEntity
  8
0
100
AcDbSpline
 62
7
  6
CONTINUOUS
 70
0
 71
3
 72
17
 73
13
 74
0
 42
0.0000001
 43
0.0000001
 44
0.0000000001
 40
0.0
 40
0.0
 40
0.0
 40
0.0
 40
0.0799595168
 40
0.1896577306
 40
0.3223977561
 40
0.3986068941
 40
0.4833867771
 40
0.5877249163
 40
0.678993766
 40
0.8312459613
 40
0.9440219048
 40
1.0
 40
1.0
 40
1.0
 40
1.0
 10
202.3310409568
 20
75.2100351628
 30
0.0
 10
202.3700865881
 20
75.1959493134
 30
0.0
 10
202.4572783463
 20
75.1478599315
 30
0.0
 10
202.5840912445
 20
75.0363588807
 30
0.0
 10
202.6739070284
 20
74.8937792065
 30
0.0
 10
202.7217270485
 20
74.7482929794
 30
0.0
 10
202.7414575743
 20
74.6113748183
 30
0.0
 10
202.7377137206
 20
74.4647802249
 30
0.0
 10
202.6978634433
 20
74.2881557908
 30
0.0
 10
202.6084081633
 20
74.1188498349
 30
0.0
 10
202.4869183181
 20
74.0088641046
 30
0.0
 10
202.4136603293
 20
73.9511675492
 30
0.0
 10
202.3848398275
 20
73.9474487748
 30
0.0
  0
SPLINE
  5
370
100
AcDbEntity
  8
0
100
AcDbSpline
 62
7
  6
CONTINUOUS
 70
0
 71
3
 72
9
 73
5
 74
0
 42
0.0000001
 43
0.0000001
 44
0.0000000001
 40
0.0
 40
0.0
 40
0.0
 40
0.0
 40
0.7042582166
 40
1.0
 40
1.0
 40
1.0
 40
1.0
 10
201.0433359323
 20
75.2363534954
 30
0.0
 10
201.3444481464
 20
75.2806522294
 30
0.0
 10
201.7787756579
 20
75.3242507881
 30
0.0
 10
202.2108368074
 20
75.253462173
 30
0.0
 10
202.3310409568
 20
75.2100351628
 30
0.0
  0
SPLINE
  5
371
100
AcDbEntity
  8
0
100
AcDbSpline
 62
7
  6
CONTINUOUS
 70
0
 71
3
 72
9
 73
5
 74
0
 42
0.0000001
 43
0.0000001
 44
0.0000000001
 40
0.0
 40
0.0
 40
0.0
 40
0.0
 40
0.7295958313
 40
1.0
 40
1.0
 40
1.0
 40
1.0
 10
201.9544918488
 20
74.8544205419
 30
0.0
 10
201.8554719367
 20
74.8659130283
 30
0.0
 10
201.7172508604
 20
74.8663560288
 30
0.0
 10
201.5821462994
 20
74.8459182994
 30
0.0
 10
201.5457274071
 20
74.839703982
 30
0.0
  0
SPLINE
  5
372
100
AcDbEntity
  8
0
100
AcDbSpline
 62
7
  6
CONTINUOUS
 70
0
 71
3
 72
9
 73
5
 74
0
 42
0.0000001
 43
0.0000001
 44
0.0000000001
 40
0.0
 40
0.0
 40
0.0
 40
0.0
 40
0.4988584794
 40
1.0
 40
1.0
 40
1.0
 40
1.0
 10
202.2492585738
 20
74.5417298195
 30
0.0
 10
202.2481136802
 20
74.6183570233
 30
0.0
 10
202.185726212
 20
74.7781677248
 30
0.0
 10
202.0309708671
 20
74.8455442055
 30
0.0
 10
201.9544918488
 20
74.8544205421
 30
0.0
  0
SPLINE
  5
373
100
AcDbEntity
  8
0
100
AcDbSpline
 62
7
  6
CONTINUOUS
 70
0
 71
3
 72
9
 73
5
 74
0
 42
0.0000001
 43
0.0000001
 44
0.0000000001
 40
0.0
 40
0.0
 40
0.0
 40
0.0
 40
0.479537635
 40
1.0
 40
1.0
 40
1.0
 40
1.0
 10
201.8439268616
 20
74.1534778297
 30
0.0
 10
201.9434183651
 20
74.1557000449
 30
0.0
 10
202.1745038165
 20
74.1977898221
 30
0.0
 10
202.2508724164
 20
74.4337146295
 30
0.0
 10
202.2492585522
 20
74.5417298191
 30
0.0
  0
SPLINE
  5
374
100
AcDbEntity
  8
RACCORDO
100
AcDbSpline
 62
250
  6
CONTINUOUS
 70
0
 71
3
 72
13
 73
9
 74
0
 42
0.0000001
 43
0.0000001
 44
0.0000000001
 40
0.0
 40
0.0
 40
0.0
 40
0.0
 40
0.0426478869
 40
0.113717092
 40
0.2116943305
 40
0.3342300122
 40
0.6399151717
 40
1.0
 40
1.0
 40
1.0
 40
1.0
 10
301.8999740491
 20
78.5103125317
 30
0.0
 10
301.896627007
 20
78.5089757505
 30
0.0
 10
301.8871043752
 20
78.5071433996
 30
0.0
 10
301.8694193993
 20
78.504747139
 30
0.0
 10
301.8448452257
 20
78.5025889188
 30
0.0
 10
301.800479444
 20
78.4997104148
 30
0.0
 10
301.7338894456
 20
78.4972167678
 30
0.0
 10
301.6776341244
 20
78.4962554696
 30
0.0
 10
301.6472048582
 20
78.496002907
 30
0.0
  0
SPLINE
  5
375
100
AcDbEntity
  8
RACCORDO
100
AcDbSpline
 62
250
  6
CONTINUOUS
 70
0
 71
3
 72
13
 73
9
 74
0
 42
0.0000001
 43
0.0000001
 44
0.0000000001
 40
0.0
 40
0.0
 40
0.0
 40
0.0
 40
0.042621481
 40
0.1136793652
 40
0.211653237
 40
0.3341909074
 40
0.6398911662
 40
1.0
 40
1.0
 40
1.0
 40
1.0
 10
301.8999899283
 20
78.6760029069
 30
0.0
 10
301.8966400191
 20
78.6746800931
 30
0.0
 10
301.887118767
 20
78.672869892
 30
0.0
 10
301.8694342952
 20
78.6705001339
 30
0.0
 10
301.8448612991
 20
78.6683667365
 30
0.0
 10
301.8004953373
 20
78.6655205213
 30
0.0
 10
301.7339059641
 20
78.6630550524
 30
0.0
 10
301.6776512232
 20
78.6621044086
 30
0.0
 10
301.647222094
 20
78.661854592
 30
0.0
  0
SPLINE
  5
376
100
AcDbEntity
  8
RACCORDO
100
AcDbSpline
 62
250
  6
CONTINUOUS
 70
0
 71
3
 72
9
 73
5
 74
0
 42
0.0000001
 43
0.0000001
 44
0.0000000001
 40
0.0
 40
0.0
 40
0.0
 40
0.0
 40
0.2500203572
 40
1.0
 40
1.0
 40
1.0
 40
1.0
 10
130.6790334302
 20
78.3089788898
 30
0.0
 10
129.7663671865
 20
78.3090261729
 30
0.0
 10
126.1159994748
 20
78.3092191861
 30
0.0
 10
122.4656316446
 20
78.3098095689
 30
0.0
 10
119.7279304692
 20
78.3111208512
 30
0.0
  0
SPLINE
  5
377
100
AcDbEntity
  8
RACCORDO
100
AcDbSpline
 62
250
  6
CONTINUOUS
 70
0
 71
3
 72
9
 73
5
 74
0
 42
0.0000001
 43
0.0000001
 44
0.0000000001
 40
0.0
 40
0.0
 40
0.0
 40
0.0
 40
0.5010437314
 40
1.0
 40
1.0
 40
1.0
 40
1.0
 10
130.6790334302
 20
58.679530182
 30
0.0
 10
125.257812788
 20
58.6795308031
 30
0.0
 10
114.4379575108
 20
58.6796254143
 30
0.0
 10
103.6181024432
 20
58.6819802651
 30
0.0
 10
98.2194680812
 20
58.6835697002
 30
0.0
  0
SPLINE
  5
378
100
AcDbEntity
  8
RACCORDO
100
AcDbSpline
 62
250
  6
CONTINUOUS
 70
0
 71
3
 72
9
 73
5
 74
0
 42
0.0000001
 43
0.0000001
 44
0.0000000001
 40
0.0
 40
0.0
 40
0.0
 40
0.0
 40
0.2498488479
 40
1.0
 40
1.0
 40
1.0
 40
1.0
 10
118.9265895954
 20
79.1115592389
 30
0.0
 10
118.9248692782
 20
80.9341596362
 30
0.0
 10
118.9193502927
 20
88.228973
 30
0.0
 10
118.9175102364
 20
95.523788773
 30
0.0
 10
118.9175102418
 20
100.996002907
 30
0.0
  0
SPLINE
  5
379
100
AcDbEntity
  8
RACCORDO
100
AcDbSpline
 62
250
  6
CONTINUOUS
 70
0
 71
3
 72
9
 73
5
 74
0
 42
0.0000001
 43
0.0000001
 44
0.0000000001
 40
0.0
 40
0.0
 40
0.0
 40
0.0
 40
0.2500203495
 40
1.0
 40
1.0
 40
1.0
 40
1.0
 10
130.6799221888
 20
78.6260325521
 30
0.0
 10
129.7678644221
 20
78.6260797457
 30
0.0
 10
126.1199303075
 20
78.6262723016
 30
0.0
 10
122.4719960756
 20
78.6268607013
 30
0.0
 10
119.7361200175
 20
78.6281656466
 30
0.0
  0
SPLINE
  5
37A
100
AcDbEntity
  8
RACCORDO
100
AcDbSpline
 62
250
  6
CONTINUOUS
 70
0
 71
3
 72
8
 73
4
 74
0
 42
0.0000001
 43
0.0000001
 44
0.0000000001
 40
0.0
 40
0.0
 40
0.0
 40
0.0
 40
1.0
 40
1.0
 40
1.0
 40
1.0
 10
198.0790334302
 20
78.6242888065
 30
0.0
 10
175.6126630089
 20
78.6242888065
 30
0.0
 10
153.14629258
 20
78.6248700524
 30
0.0
 10
130.6799221888
 20
78.6260325521
 30
0.0
  0
SPLINE
  5
37B
100
AcDbEntity
  8
RACCORDO
100
AcDbSpline
 62
250
  6
CONTINUOUS
 70
0
 71
3
 72
8
 73
4
 74
0
 42
0.0000001
 43
0.0000001
 44
0.0000000001
 40
0.0
 40
0.0
 40
0.0
 40
0.0
 40
1.0
 40
1.0
 40
1.0
 40
1.0
 10
265.4781446717
 20
78.6260325521
 30
0.0
 10
243.0117742804
 20
78.6248700524
 30
0.0
 10
220.5454038516
 20
78.6242888065
 30
0.0
 10
198.0790334302
 20
78.6242888065
 30
0.0
  0
SPLINE
  5
37C
100
AcDbEntity
  8
RACCORDO
100
AcDbSpline
 62
250
  6
CONTINUOUS
 70
0
 71
3
 72
9
 73
5
 74
0
 42
0.0000001
 43
0.0000001
 44
0.0000000001
 40
0.0
 40
0.0
 40
0.0
 40
0.0
 40
0.249962454
 40
1.0
 40
1.0
 40
1.0
 40
1.0
 10
276.421946843
 20
78.6281656466
 30
0.0
 10
275.5101003751
 20
78.6277307179
 30
0.0
 10
271.8621664519
 20
78.6263744413
 30
0.0
 10
268.2142322437
 20
78.6261741288
 30
0.0
 10
265.4781446717
 20
78.6260325521
 30
0.0
  0
SPLINE
  5
37D
100
AcDbEntity
  8
RACCORDO
100
AcDbSpline
 62
250
  6
CONTINUOUS
 70
0
 71
3
 72
9
 73
5
 74
0
 42
0.0000001
 43
0.0000001
 44
0.0000000001
 40
0.0
 40
0.0
 40
0.0
 40
0.0
 40
0.2500934175
 40
1.0
 40
1.0
 40
1.0
 40
1.0
 10
119.2267757571
 20
100.996002907
 30
0.0
 10
119.2267757575
 20
102.8190407895
 30
0.0
 10
119.2275082638
 20
110.1084683834
 30
0.0
 10
119.2306809382
 20
117.397896347
 30
0.0
 10
119.2358287597
 20
122.86428373
 30
0.0
  0
SPLINE
  5
37E
100
AcDbEntity
  8
RACCORDO
100
AcDbSpline
 62
250
  6
CONTINUOUS
 70
0
 71
3
 72
9
 73
5
 74
0
 42
0.0000001
 43
0.0000001
 44
0.0000000001
 40
0.0
 40
0.0
 40
0.0
 40
0.0
 40
0.2498488589
 40
1.0
 40
1.0
 40
1.0
 40
1.0
 10
119.2358287597
 20
79.127722084
 30
0.0
 10
119.2341136408
 20
80.9489764752
 30
0.0
 10
119.2286111677
 20
88.2384022303
 30
0.0
 10
119.2267757511
 20
95.5278303817
 30
0.0
 10
119.2267757571
 20
100.996002907
 30
0.0
  0
SPLINE
  5
37F
100
AcDbEntity
  8
RACCORDO
100
AcDbSpline
 62
250
  6
CONTINUOUS
 70
0
 71
3
 72
9
 73
5
 74
0
 42
0.0000001
 43
0.0000001
 44
0.0000000001
 40
0.0
 40
0.0
 40
0.0
 40
0.0
 40
0.2500203495
 40
1.0
 40
1.0
 40
1.0
 40
1.0
 10
265.4781446717
 20
123.3659732618
 30
0.0
 10
266.3902024383
 20
123.3659260682
 30
0.0
 10
270.038136553
 20
123.3657335124
 30
0.0
 10
273.6860707849
 20
123.3651451127
 30
0.0
 10
276.421946843
 20
123.3638401673
 30
0.0
  0
SPLINE
  5
380
100
AcDbEntity
  8
RACCORDO
100
AcDbSpline
 62
250
  6
CONTINUOUS
 70
0
 71
3
 72
8
 73
4
 74
0
 42
0.0000001
 43
0.0000001
 44
0.0000000001
 40
0.0
 40
0.0
 40
0.0
 40
0.0
 40
1.0
 40
1.0
 40
1.0
 40
1.0
 10
198.0790334302
 20
123.3677170075
 30
0.0
 10
220.5454038516
 20
123.3677170075
 30
0.0
 10
243.0117742804
 20
123.3671357616
 30
0.0
 10
265.4781446717
 20
123.3659732618
 30
0.0
  0
SPLINE
  5
381
100
AcDbEntity
  8
RACCORDO
100
AcDbSpline
 62
250
  6
CONTINUOUS
 70
0
 71
3
 72
8
 73
4
 74
0
 42
0.0000001
 43
0.0000001
 44
0.0000000001
 40
0.0
 40
0.0
 40
0.0
 40
0.0
 40
1.0
 40
1.0
 40
1.0
 40
1.0
 10
130.6799221888
 20
123.3659732618
 30
0.0
 10
153.14629258
 20
123.3671357616
 30
0.0
 10
175.6126630089
 20
123.3677170075
 30
0.0
 10
198.0790334302
 20
123.3677170075
 30
0.0
  0
SPLINE
  5
382
100
AcDbEntity
  8
RACCORDO
100
AcDbSpline
 62
250
  6
CONTINUOUS
 70
0
 71
3
 72
9
 73
5
 74
0
 42
0.0000001
 43
0.0000001
 44
0.0000000001
 40
0.0
 40
0.0
 40
0.0
 40
0.0
 40
0.249962454
 40
1.0
 40
1.0
 40
1.0
 40
1.0
 10
119.7361200175
 20
123.3638401673
 30
0.0
 10
120.6479664854
 20
123.364275096
 30
0.0
 10
124.2959004085
 20
123.3656313727
 30
0.0
 10
127.9438346167
 20
123.3658316851
 30
0.0
 10
130.6799221888
 20
123.3659732618
 30
0.0
  0
SPLINE
  5
383
100
AcDbEntity
  8
RACCORDO
100
AcDbSpline
 62
250
  6
CONTINUOUS
 70
0
 71
3
 72
9
 73
5
 74
0
 42
0.0000001
 43
0.0000001
 44
0.0000000001
 40
0.0
 40
0.0
 40
0.0
 40
0.0
 40
0.2500934175
 40
1.0
 40
1.0
 40
1.0
 40
1.0
 10
276.9312911034
 20
100.996002907
 30
0.0
 10
276.9312911029
 20
99.1729650244
 30
0.0
 10
276.9305585966
 20
91.8835374305
 30
0.0
 10
276.9273859223
 20
84.5941094669
 30
0.0
 10
276.9222381008
 20
79.127722084
 30
0.0
  0
SPLINE
  5
384
100
AcDbEntity
  8
RACCORDO
100
AcDbSpline
 62
250
  6
CONTINUOUS
 70
0
 71
3
 72
9
 73
5
 74
0
 42
0.0000001
 43
0.0000001
 44
0.0000000001
 40
0.0
 40
0.0
 40
0.0
 40
0.0
 40
0.2498488589
 40
1.0
 40
1.0
 40
1.0
 40
1.0
 10
276.9222381008
 20
122.86428373
 30
0.0
 10
276.9239532197
 20
121.0430293387
 30
0.0
 10
276.9294556927
 20
113.7536035837
 30
0.0
 10
276.9312911094
 20
106.4641754322
 30
0.0
 10
276.9312911034
 20
100.996002907
 30
0.0
  0
LINE
  5
385
100
AcDbEntity
  8
RACCORDO
100
AcDbLine
 62
250
  6
CONTINUOUS
 10
97.8290334302
 20
143.996002907
 30
0.0
 11
97.8437684521
 21
143.5654475159
 31
0.0
  0
SPLINE
  5
386
100
AcDbEntity
  8
RACCORDO
100
AcDbSpline
 62
250
  6
CONTINUOUS
 70
0
 71
3
 72
9
 73
5
 74
0
 42
0.0000001
 43
0.0000001
 44
0.0000000001
 40
0.0
 40
0.0
 40
0.0
 40
0.0
 40
0.4989566074
 40
1.0
 40
1.0
 40
1.0
 40
1.0
 10
98.2527061002
 20
143.5651569542
 30
0.0
 10
103.6459421241
 20
143.566631746
 30
0.0
 10
114.4549705491
 20
143.5688137169
 30
0.0
 10
125.2639991537
 20
143.5689007974
 30
0.0
 10
130.6797914994
 20
143.5689014356
 30
0.0
  0
SPLINE
  5
387
100
AcDbEntity
  8
RACCORDO
100
AcDbSpline
 62
250
  6
CONTINUOUS
 70
0
 71
3
 72
9
 73
5
 74
0
 42
0.0000001
 43
0.0000001
 44
0.0000000001
 40
0.0
 40
0.0
 40
0.0
 40
0.0
 40
0.498956171
 40
1.0
 40
1.0
 40
1.0
 40
1.0
 10
297.93859878
 20
58.6835697002
 30
0.0
 10
292.5399654732
 20
58.6819802641
 30
0.0
 10
281.7201104054
 20
58.6796250594
 30
0.0
 10
270.9002551279
 20
58.6795308856
 30
0.0
 10
265.4790334302
 20
58.679530182
 30
0.0
  0
LINE
  5
388
100
AcDbEntity
  8
RACCORDO
100
AcDbLine
 62
250
  6
CONTINUOUS
 10
93.8290334302
 20
139.996002907
 30
0.0
 11
94.2603049469
 21
139.9825355611
 31
0.0
  0
SPLINE
  5
389
100
AcDbEntity
  8
RACCORDO
100
AcDbSpline
 62
250
  6
CONTINUOUS
 70
0
 71
3
 72
8
 73
4
 74
0
 42
0.0000001
 43
0.0000001
 44
0.0000000001
 40
0.0
 40
0.0
 40
0.0
 40
0.0
 40
1.0
 40
1.0
 40
1.0
 40
1.0
 10
198.0790334302
 20
123.6847728399
 30
0.0
 10
220.5457001044
 20
123.6847728399
 30
0.0
 10
243.0123667862
 20
123.6841908706
 30
0.0
 10
265.4790334302
 20
123.6830269241
 30
0.0
  0
LINE
  5
38A
100
AcDbEntity
  8
RACCORDO
100
AcDbLine
 62
250
  6
CONTINUOUS
 10
94.2606057864
 20
139.604802907
 30
0.0
 11
94.2603148184
 21
139.982535262
 31
0.0
  0
SPLINE
  5
38B
100
AcDbEntity
  8
RACCORDO
100
AcDbSpline
 62
250
  6
CONTINUOUS
 70
0
 71
3
 72
9
 73
5
 74
0
 42
0.0000001
 43
0.0000001
 44
0.0000000001
 40
0.0
 40
0.0
 40
0.0
 40
0.0
 40
0.2500985809
 40
1.0
 40
1.0
 40
1.0
 40
1.0
 10
94.2574049796
 20
100.996002907
 30
0.0
 10
94.2574049227
 20
102.8567363502
 30
0.0
 10
94.2574536433
 20
110.2967363522
 30
0.0
 10
94.2575564014
 20
117.7367363703
 30
0.0
 10
94.2580769322
 20
123.316002907
 30
0.0
  0
LINE
  5
38C
100
AcDbEntity
  8
RACCORDO
100
AcDbLine
 62
250
  6
CONTINUOUS
 10
94.2580769322
 20
123.316002907
 30
0.0
 11
94.2580928114
 21
123.4816932823
 31
0.0
  0
SPLINE
  5
38D
100
AcDbEntity
  8
RACCORDO
100
AcDbSpline
 62
250
  6
CONTINUOUS
 70
0
 71
3
 72
9
 73
5
 74
0
 42
0.0000001
 43
0.0000001
 44
0.0000000001
 40
0.0
 40
0.0
 40
0.0
 40
0.0
 40
0.250506831
 40
1.0
 40
1.0
 40
1.0
 40
1.0
 10
94.2580928114
 20
123.4816932823
 30
0.0
 10
94.2582249735
 20
124.8280096586
 30
0.0
 10
94.2588291655
 20
130.2023795667
 30
0.0
 10
94.2597414537
 20
135.5767494407
 30
0.0
 10
94.2606057864
 20
139.604802907
 30
0.0
  0
SPLINE
  5
38E
100
AcDbEntity
  8
RACCORDO
100
AcDbSpline
 62
250
  6
CONTINUOUS
 70
0
 71
3
 72
9
 73
5
 74
0
 42
0.0000001
 43
0.0000001
 44
0.0000000001
 40
0.0
 40
0.0
 40
0.0
 40
0.0
 40
0.2500203572
 40
1.0
 40
1.0
 40
1.0
 40
1.0
 10
265.4790334302
 20
123.6830269241
 30
0.0
 10
266.391699674
 20
123.6829796411
 30
0.0
 10
270.0420673856
 20
123.6827866278
 30
0.0
 10
273.6924352158
 20
123.6821962451
 30
0.0
 10
276.4301363913
 20
123.6808849628
 30
0.0
  0
SPLINE
  5
38F
100
AcDbEntity
  8
RACCORDO
100
AcDbSpline
 62
250
  6
CONTINUOUS
 70
0
 71
3
 72
9
 73
5
 74
0
 42
0.0000001
 43
0.0000001
 44
0.0000000001
 40
0.0
 40
0.0
 40
0.0
 40
0.0
 40
0.5010437314
 40
1.0
 40
1.0
 40
1.0
 40
1.0
 10
265.4790334302
 20
143.3124756319
 30
0.0
 10
270.9002540724
 20
143.3124750109
 30
0.0
 10
281.7201093496
 20
143.3123803996
 30
0.0
 10
292.5399644173
 20
143.3100255488
 30
0.0
 10
297.9385987793
 20
143.3084361137
 30
0.0
  0
SPLINE
  5
390
100
AcDbEntity
  8
RACCORDO
100
AcDbSpline
 62
250
  6
CONTINUOUS
 70
0
 71
3
 72
9
 73
5
 74
0
 42
0.0000001
 43
0.0000001
 44
0.0000000001
 40
0.0
 40
0.0
 40
0.0
 40
0.0
 40
0.2498488479
 40
1.0
 40
1.0
 40
1.0
 40
1.0
 10
277.231477265
 20
122.8804465751
 30
0.0
 10
277.2331975823
 20
121.0578461778
 30
0.0
 10
277.2387165677
 20
113.7630328139
 30
0.0
 10
277.2405566241
 20
106.4682170409
 30
0.0
 10
277.2405566187
 20
100.996002907
 30
0.0
  0
LINE
  5
391
100
AcDbEntity
  8
RACCORDO
100
AcDbLine
 62
250
  6
CONTINUOUS
 10
97.8290334302
 20
57.996002907
 30
0.0
 11
97.8437684521
 21
58.426558298
 31
0.0
  0
SPLINE
  5
392
100
AcDbEntity
  8
RACCORDO
100
AcDbSpline
 62
250
  6
CONTINUOUS
 70
0
 71
3
 72
9
 73
5
 74
0
 42
0.0000001
 43
0.0000001
 44
0.0000000001
 40
0.0
 40
0.0
 40
0.0
 40
0.0
 40
0.2499624484
 40
1.0
 40
1.0
 40
1.0
 40
1.0
 10
276.4301363913
 20
78.3111208512
 30
0.0
 10
275.5176816371
 20
78.3106838111
 30
0.0
 10
271.8673141185
 20
78.309321352
 30
0.0
 10
268.2169463124
 20
78.3091207346
 30
0.0
 10
265.4790334302
 20
78.3089788898
 30
0.0
  0
SPLINE
  5
393
100
AcDbEntity
  8
RACCORDO
100
AcDbSpline
 62
250
  6
CONTINUOUS
 70
0
 71
3
 72
9
 73
5
 74
0
 42
0.0000001
 43
0.0000001
 44
0.0000000001
 40
0.0
 40
0.0
 40
0.0
 40
0.0
 40
0.5010432951
 40
1.0
 40
1.0
 40
1.0
 40
1.0
 10
130.6797914991
 20
58.4231043783
 30
0.0
 10
125.2640002069
 20
58.4231049741
 30
0.0
 10
114.4549716024
 20
58.423192418
 30
0.0
 10
103.6459431775
 20
58.4253740673
 30
0.0
 10
98.2527061002
 20
58.4268488598
 30
0.0
  0
LINE
  5
394
100
AcDbEntity
  8
RACCORDO
100
AcDbLine
 62
250
  6
CONTINUOUS
 10
93.8290334302
 20
61.996002907
 30
0.0
 11
94.2603049469
 21
62.0094702528
 31
0.0
  0
SPLINE
  5
395
100
AcDbEntity
  8
RACCORDO
100
AcDbSpline
 62
250
  6
CONTINUOUS
 70
0
 71
3
 72
8
 73
4
 74
0
 42
0.0000001
 43
0.0000001
 44
0.0000000001
 40
0.0
 40
0.0
 40
0.0
 40
0.0
 40
1.0
 40
1.0
 40
1.0
 40
1.0
 10
130.6790334302
 20
123.6830269241
 30
0.0
 10
153.1457000743
 20
123.6841908706
 30
0.0
 10
175.612366756
 20
123.6847728399
 30
0.0
 10
198.0790334302
 20
123.6847728399
 30
0.0
  0
SPLINE
  5
396
100
AcDbEntity
  8
RACCORDO
100
AcDbSpline
 62
250
  6
CONTINUOUS
 70
0
 71
3
 72
9
 73
5
 74
0
 42
0.0000001
 43
0.0000001
 44
0.0000000001
 40
0.0
 40
0.0
 40
0.0
 40
0.0
 40
0.498956171
 40
1.0
 40
1.0
 40
1.0
 40
1.0
 10
98.2194680805
 20
143.3084361137
 30
0.0
 10
103.6181013873
 20
143.3100255499
 30
0.0
 10
114.4379564551
 20
143.3123807545
 30
0.0
 10
125.2578117326
 20
143.3124749283
 30
0.0
 10
130.6790334302
 20
143.3124756319
 30
0.0
  0
SPLINE
  5
397
100
AcDbEntity
  8
RACCORDO
100
AcDbSpline
 62
250
  6
CONTINUOUS
 70
0
 71
3
 72
9
 73
5
 74
0
 42
0.0000001
 43
0.0000001
 44
0.0000000001
 40
0.0
 40
0.0
 40
0.0
 40
0.0
 40
0.2499624484
 40
1.0
 40
1.0
 40
1.0
 40
1.0
 10
119.7279304692
 20
123.6808849628
 30
0.0
 10
120.6403852234
 20
123.6813220029
 30
0.0
 10
124.290752742
 20
123.6826844619
 30
0.0
 10
127.9411205481
 20
123.6828850793
 30
0.0
 10
130.6790334302
 20
123.6830269241
 30
0.0
  0
SPLINE
  5
398
100
AcDbEntity
  8
RACCORDO
100
AcDbSpline
 62
250
  6
CONTINUOUS
 70
0
 71
3
 72
9
 73
5
 74
0
 42
0.0000001
 43
0.0000001
 44
0.0000000001
 40
0.0
 40
0.0
 40
0.0
 40
0.0
 40
0.2500934326
 40
1.0
 40
1.0
 40
1.0
 40
1.0
 10
118.9175102418
 20
100.996002907
 30
0.0
 10
118.9175102422
 20
102.8203883077
 30
0.0
 10
118.9182447915
 20
110.1152035199
 30
0.0
 10
118.9214261654
 20
117.4100191044
 30
0.0
 10
118.9265895954
 20
122.8804465751
 30
0.0
  0
SPLINE
  5
399
100
AcDbEntity
  8
RACCORDO
100
AcDbSpline
 62
250
  6
CONTINUOUS
 70
0
 71
3
 72
9
 73
5
 74
0
 42
0.0000001
 43
0.0000001
 44
0.0000000001
 40
0.0
 40
0.0
 40
0.0
 40
0.0
 40
0.2500934326
 40
1.0
 40
1.0
 40
1.0
 40
1.0
 10
277.2405566187
 20
100.996002907
 30
0.0
 10
277.2405566183
 20
99.1716175063
 30
0.0
 10
277.239822069
 20
91.8768022941
 30
0.0
 10
277.236640695
 20
84.5819867096
 30
0.0
 10
277.231477265
 20
79.1115592389
 30
0.0
  0
LINE
  5
39A
100
AcDbEntity
  8
RACCORDO
100
AcDbLine
 62
250
  6
CONTINUOUS
 10
94.2603148184
 20
62.0094705519
 30
0.0
 11
94.2606057864
 21
62.387202907
 31
0.0
  0
SPLINE
  5
39B
100
AcDbEntity
  8
RACCORDO
100
AcDbSpline
 62
250
  6
CONTINUOUS
 70
0
 71
3
 72
9
 73
5
 74
0
 42
0.0000001
 43
0.0000001
 44
0.0000000001
 40
0.0
 40
0.0
 40
0.0
 40
0.0
 40
0.2498392855
 40
1.0
 40
1.0
 40
1.0
 40
1.0
 10
94.2580769322
 20
78.6760029069
 30
0.0
 10
94.2579033552
 20
80.5348071842
 30
0.0
 10
94.2574435163
 20
87.9748071781
 30
0.0
 10
94.2574051716
 20
95.4148071872
 30
0.0
 10
94.2574049796
 20
100.996002907
 30
0.0
  0
SPLINE
  5
39C
100
AcDbEntity
  8
RACCORDO
100
AcDbSpline
 62
250
  6
CONTINUOUS
 70
0
 71
3
 72
9
 73
5
 74
0
 42
0.0000001
 43
0.0000001
 44
0.0000000001
 40
0.0
 40
0.0
 40
0.0
 40
0.0
 40
0.2494274572
 40
1.0
 40
1.0
 40
1.0
 40
1.0
 10
94.2606057864
 20
62.387202907
 30
0.0
 10
94.2603181405
 20
63.7277183048
 30
0.0
 10
94.2592453237
 20
69.10208814
 30
0.0
 10
94.2584887965
 20
74.4764580379
 30
0.0
 10
94.2580928114
 20
78.5103125316
 30
0.0
  0
LINE
  5
39D
100
AcDbEntity
  8
RACCORDO
100
AcDbLine
 62
250
  6
CONTINUOUS
 10
94.2580928114
 20
78.5103125316
 30
0.0
 11
94.2580769322
 21
78.6760029069
 31
0.0
  0
LINE
  5
39E
100
AcDbEntity
  8
RACCORDO
100
AcDbLine
 62
250
  6
CONTINUOUS
 10
298.3290334302
 20
143.996002907
 30
0.0
 11
298.3142984084
 21
143.5654475159
 31
0.0
  0
SPLINE
  5
39F
100
AcDbEntity
  8
RACCORDO
100
AcDbSpline
 62
250
  6
CONTINUOUS
 70
0
 71
3
 72
9
 73
5
 74
0
 42
0.0000001
 43
0.0000001
 44
0.0000000001
 40
0.0
 40
0.0
 40
0.0
 40
0.0
 40
0.4989566074
 40
1.0
 40
1.0
 40
1.0
 40
1.0
 10
297.9053607603
 20
58.4268488598
 30
0.0
 10
292.5121247363
 20
58.4253740679
 30
0.0
 10
281.7030963114
 20
58.4231920971
 30
0.0
 10
270.8940677067
 20
58.4231050166
 30
0.0
 10
265.4782753611
 20
58.4231043783
 30
0.0
  0
SPLINE
  5
3A0
100
AcDbEntity
  8
RACCORDO
100
AcDbSpline
 62
250
  6
CONTINUOUS
 70
0
 71
3
 72
9
 73
5
 74
0
 42
0.0000001
 43
0.0000001
 44
0.0000000001
 40
0.0
 40
0.0
 40
0.0
 40
0.0
 40
0.5010432951
 40
1.0
 40
1.0
 40
1.0
 40
1.0
 10
265.4782753613
 20
143.5689014356
 30
0.0
 10
270.8940666535
 20
143.5689008398
 30
0.0
 10
281.7030952581
 20
143.568813396
 30
0.0
 10
292.512123683
 20
143.5666317466
 30
0.0
 10
297.9053607603
 20
143.5651569542
 30
0.0
  0
LINE
  5
3A1
100
AcDbEntity
  8
RACCORDO
100
AcDbLine
 62
250
  6
CONTINUOUS
 10
302.3290334302
 20
139.996002907
 30
0.0
 11
301.8977619135
 21
139.9825355611
 31
0.0
  0
LINE
  5
3A2
100
AcDbEntity
  8
RACCORDO
100
AcDbLine
 62
250
  6
CONTINUOUS
 10
301.897752042
 20
139.982535262
 30
0.0
 11
301.8974610741
 21
139.604802907
 31
0.0
  0
SPLINE
  5
3A3
100
AcDbEntity
  8
RACCORDO
100
AcDbSpline
 62
250
  6
CONTINUOUS
 70
0
 71
3
 72
9
 73
5
 74
0
 42
0.0000001
 43
0.0000001
 44
0.0000000001
 40
0.0
 40
0.0
 40
0.0
 40
0.0
 40
0.2498392855
 40
1.0
 40
1.0
 40
1.0
 40
1.0
 10
301.8999899283
 20
123.316002907
 30
0.0
 10
301.9001635052
 20
121.4571986298
 30
0.0
 10
301.9006233441
 20
114.0171986358
 30
0.0
 10
301.9006616889
 20
106.5771986267
 30
0.0
 10
301.9006618809
 20
100.996002907
 30
0.0
  0
LINE
  5
3A4
100
AcDbEntity
  8
RACCORDO
100
AcDbLine
 62
250
  6
CONTINUOUS
 10
302.3290334302
 20
61.996002907
 30
0.0
 11
301.8977619135
 21
62.0094702528
 31
0.0
  0
SPLINE
  5
3A5
100
AcDbEntity
  8
RACCORDO
100
AcDbSpline
 62
250
  6
CONTINUOUS
 70
0
 71
3
 72
9
 73
5
 74
0
 42
0.0000001
 43
0.0000001
 44
0.0000000001
 40
0.0
 40
0.0
 40
0.0
 40
0.0
 40
0.2494274572
 40
1.0
 40
1.0
 40
1.0
 40
1.0
 10
301.8974610741
 20
139.604802907
 30
0.0
 10
301.89774872
 20
138.2642875091
 30
0.0
 10
301.8988215368
 20
132.889917674
 30
0.0
 10
301.899578064
 20
127.5155477761
 30
0.0
 10
301.8999740491
 20
123.4816932823
 30
0.0
  0
LINE
  5
3A6
100
AcDbEntity
  8
RACCORDO
100
AcDbLine
 62
250
  6
CONTINUOUS
 10
301.8999740491
 20
123.4816932823
 30
0.0
 11
301.8999899283
 21
123.316002907
 31
0.0
  0
LINE
  5
3A7
100
AcDbEntity
  8
RACCORDO
100
AcDbLine
 62
250
  6
CONTINUOUS
 10
301.8974610741
 20
62.387202907
 30
0.0
 11
301.897752042
 21
62.0094705519
 31
0.0
  0
SPLINE
  5
3A8
100
AcDbEntity
  8
RACCORDO
100
AcDbSpline
 62
250
  6
CONTINUOUS
 70
0
 71
3
 72
9
 73
5
 74
0
 42
0.0000001
 43
0.0000001
 44
0.0000000001
 40
0.0
 40
0.0
 40
0.0
 40
0.0
 40
0.2500985809
 40
1.0
 40
1.0
 40
1.0
 40
1.0
 10
301.9006618809
 20
100.996002907
 30
0.0
 10
301.9006619378
 20
99.1352694637
 30
0.0
 10
301.9006132171
 20
91.6952694617
 30
0.0
 10
301.9005104591
 20
84.2552694436
 30
0.0
 10
301.8999899283
 20
78.6760029069
 30
0.0
  0
LINE
  5
3A9
100
AcDbEntity
  8
RACCORDO
100
AcDbLine
 62
250
  6
CONTINUOUS
 10
298.3290334302
 20
57.996002907
 30
0.0
 11
298.3142984084
 21
58.426558298
 31
0.0
  0
LINE
  5
3AA
100
AcDbEntity
  8
RACCORDO
100
AcDbLine
 62
250
  6
CONTINUOUS
 10
301.8999899283
 20
78.6760029069
 30
0.0
 11
301.8999740491
 21
78.5103125316
 31
0.0
  0
SPLINE
  5
3AB
100
AcDbEntity
  8
RACCORDO
100
AcDbSpline
 62
250
  6
CONTINUOUS
 70
0
 71
3
 72
8
 73
4
 74
0
 42
0.0000001
 43
0.0000001
 44
0.0000000001
 40
0.0
 40
0.0
 40
0.0
 40
0.0
 40
1.0
 40
1.0
 40
1.0
 40
1.0
 10
265.4790334302
 20
78.3089788898
 30
0.0
 10
243.0123667862
 20
78.3078149433
 30
0.0
 10
220.5457001044
 20
78.307232974
 30
0.0
 10
198.0790334302
 20
78.307232974
 30
0.0
  0
SPLINE
  5
3AC
100
AcDbEntity
  8
RACCORDO
100
AcDbSpline
 62
250
  6
CONTINUOUS
 70
0
 71
3
 72
17
 73
13
 74
0
 42
0.0000001
 43
0.0000001
 44
0.0000000001
 40
0.0
 40
0.0
 40
0.0
 40
0.0
 40
0.1904702091
 40
0.3748322452
 40
0.5456277796
 40
0.6963896323
 40
0.8212018836
 40
0.9152793232
 40
0.949668542
 40
0.9751968041
 40
0.9917901083
 40
1.0
 40
1.0
 40
1.0
 40
1.0
 10
277.2314772649
 20
122.8804466866
 30
0.0
 10
277.2117575972
 20
122.8804610653
 30
0.0
 10
277.1729504118
 20
122.8802841797
 30
0.0
 10
277.1164652278
 20
122.8794198513
 30
0.0
 10
277.064107835
 20
122.8779900939
 30
0.0
 10
277.017922723
 20
122.8760685137
 30
0.0
 10
276.979747246
 20
122.8737328637
 30
0.0
 10
276.9535639973
 20
122.871397044
 30
0.0
 10
276.9378407968
 20
122.869247827
 30
0.0
 10
276.9299157752
 20
122.8677586385
 30
0.0
 10
276.9251616001
 20
122.8663827431
 30
0.0
 10
276.9224996707
 20
122.8650923535
 30
0.0
 10
276.9222381009
 20
122.8642836188
 30
0.0
  0
SPLINE
  5
3AD
100
AcDbEntity
  8
RACCORDO
100
AcDbSpline
 62
250
  6
CONTINUOUS
 70
0
 71
3
 72
18
 73
14
 74
0
 42
0.0000001
 43
0.0000001
 44
0.0000000001
 40
0.0
 40
0.0
 40
0.0
 40
0.0
 40
0.1887719247
 40
0.3724487868
 40
0.5433517225
 40
0.6947797937
 40
0.8205658048
 40
0.872223516
 40
0.9156584397
 40
0.9504648441
 40
0.976261289
 40
0.9928104777
 40
1.0
 40
1.0
 40
1.0
 40
1.0
 10
276.9418864194
 20
123.4960029091
 30
0.0
 10
276.9290671255
 20
123.4805863484
 30
0.0
 10
276.9038145697
 20
123.4501359852
 30
0.0
 10
276.86709247
 20
123.4056157415
 30
0.0
 10
276.8330142016
 20
123.364056073
 30
0.0
 10
276.8029663432
 20
123.3271452088
 30
0.0
 10
276.7810304381
 20
123.2999580773
 30
0.0
 10
276.7664152768
 20
123.2816113508
 30
0.0
 10
276.7578503681
 20
123.2707839497
 30
0.0
 10
276.7511210738
 20
123.262046761
 30
0.0
 10
276.7460431576
 20
123.2555480941
 30
0.0
 10
276.7431944443
 20
123.2512310141
 30
0.0
 10
276.7415224052
 20
123.2491869036
 30
0.0
 10
276.7413698033
 20
123.2484386854
 30
0.0
  0
SPLINE
  5
3AE
100
AcDbEntity
  8
RACCORDO
100
AcDbSpline
 62
250
  6
CONTINUOUS
 70
0
 71
3
 72
18
 73
14
 74
0
 42
0.0000001
 43
0.0000001
 44
0.0000000001
 40
0.0
 40
0.0
 40
0.0
 40
0.0
 40
0.1896881622
 40
0.3740473816
 40
0.5453564327
 40
0.696888987
 40
0.8224674699
 40
0.873907918
 40
0.9170548923
 40
0.9515108279
 40
0.97690922
 40
0.9930508962
 40
1.0
 40
1.0
 40
1.0
 40
1.0
 10
276.4301363913
 20
123.6808849628
 30
0.0
 10
276.4301581073
 20
123.6608154226
 30
0.0
 10
276.4300927332
 20
123.6212398726
 30
0.0
 10
276.4296796236
 20
123.5635411384
 30
0.0
 10
276.4289704833
 20
123.5098809528
 30
0.0
 10
276.4279939128
 20
123.4624499566
 30
0.0
 10
276.4269546139
 20
123.427694189
 30
0.0
 10
276.4259631732
 20
123.4044344446
 30
0.0
 10
276.4252606307
 20
123.3907691545
 30
0.0
 10
276.4244634526
 20
123.379978917
 30
0.0
 10
276.4238404609
 20
123.3717758031
 30
0.0
 10
276.4228821176
 20
123.3670675186
 30
0.0
 10
276.42256651
 20
123.3642358737
 30
0.0
 10
276.421946843
 20
123.3638401673
 30
0.0
  0
SPLINE
  5
3AF
100
AcDbEntity
  8
RACCORDO
100
AcDbSpline
 62
250
  6
CONTINUOUS
 70
0
 71
3
 72
15
 73
11
 74
0
 42
0.0000001
 43
0.0000001
 44
0.0000000001
 40
0.0
 40
0.0
 40
0.0
 40
0.0
 40
0.3744632475
 40
0.5459507574
 40
0.6976220685
 40
0.8232821941
 40
0.9178684368
 40
0.952278577
 40
0.9775825773
 40
1.0
 40
1.0
 40
1.0
 40
1.0
 10
265.4790334302
 20
123.6830269241
 30
0.0
 10
265.4790380802
 20
123.6434514617
 30
0.0
 10
265.4790104712
 20
123.5857524164
 30
0.0
 10
265.4789098498
 20
123.5120231433
 30
0.0
 10
265.4787919762
 20
123.4645908234
 30
0.0
 10
265.4786978318
 20
123.4252807161
 30
0.0
 10
265.4784904698
 20
123.3983760027
 30
0.0
 10
265.4784798933
 20
123.3820569671
 30
0.0
 10
265.4781840055
 20
123.3734000903
 30
0.0
 10
265.4785414735
 20
123.3683090008
 30
0.0
 10
265.4781446717
 20
123.3659732618
 30
0.0
  0
SPLINE
  5
3B0
100
AcDbEntity
  8
RACCORDO
100
AcDbSpline
 62
250
  6
CONTINUOUS
 70
0
 71
3
 72
15
 73
11
 74
0
 42
0.0000001
 43
0.0000001
 44
0.0000000001
 40
0.0
 40
0.0
 40
0.0
 40
0.0
 40
0.3744632475
 40
0.5459507574
 40
0.6976220685
 40
0.8232821941
 40
0.9178684368
 40
0.952278577
 40
0.9775825773
 40
1.0
 40
1.0
 40
1.0
 40
1.0
 10
130.6790334302
 20
123.6830269241
 30
0.0
 10
130.6790287803
 20
123.6434514617
 30
0.0
 10
130.6790563893
 20
123.5857524164
 30
0.0
 10
130.6791570107
 20
123.5120231433
 30
0.0
 10
130.6792748843
 20
123.4645908234
 30
0.0
 10
130.6793690286
 20
123.4252807161
 30
0.0
 10
130.6795763907
 20
123.3983760027
 30
0.0
 10
130.6795869671
 20
123.3820569671
 30
0.0
 10
130.6798828549
 20
123.3734000903
 30
0.0
 10
130.679525387
 20
123.3683090008
 30
0.0
 10
130.6799221888
 20
123.3659732618
 30
0.0
  0
SPLINE
  5
3B1
100
AcDbEntity
  8
RACCORDO
100
AcDbSpline
 62
250
  6
CONTINUOUS
 70
0
 71
3
 72
18
 73
14
 74
0
 42
0.0000001
 43
0.0000001
 44
0.0000000001
 40
0.0
 40
0.0
 40
0.0
 40
0.0
 40
0.1896881623
 40
0.3740473819
 40
0.5453564329
 40
0.6968889871
 40
0.82246747
 40
0.8739079181
 40
0.9170548924
 40
0.9515108279
 40
0.97690922
 40
0.9930508962
 40
1.0
 40
1.0
 40
1.0
 40
1.0
 10
119.7279304692
 20
123.6808849628
 30
0.0
 10
119.7279087531
 20
123.6608154226
 30
0.0
 10
119.7279741272
 20
123.6212398726
 30
0.0
 10
119.7283872368
 20
123.5635411383
 30
0.0
 10
119.7290963771
 20
123.5098809527
 30
0.0
 10
119.7300729476
 20
123.4624499565
 30
0.0
 10
119.7311122465
 20
123.427694189
 30
0.0
 10
119.7321036872
 20
123.4044344446
 30
0.0
 10
119.7328062297
 20
123.3907691544
 30
0.0
 10
119.7336034078
 20
123.379978917
 30
0.0
 10
119.7342263995
 20
123.3717758031
 30
0.0
 10
119.7351847428
 20
123.3670675186
 30
0.0
 10
119.7355003505
 20
123.3642358737
 30
0.0
 10
119.7361200175
 20
123.3638401673
 30
0.0
  0
SPLINE
  5
3B2
100
AcDbEntity
  8
RACCORDO
100
AcDbSpline
 62
250
  6
CONTINUOUS
 70
0
 71
3
 72
18
 73
14
 74
0
 42
0.0000001
 43
0.0000001
 44
0.0000000001
 40
0.0
 40
0.0
 40
0.0
 40
0.0
 40
0.1887719166
 40
0.3724487659
 40
0.5433517007
 40
0.6947797751
 40
0.820565792
 40
0.8722235055
 40
0.9156584327
 40
0.9504648404
 40
0.9762612868
 40
0.992810477
 40
1.0
 40
1.0
 40
1.0
 40
1.0
 10
119.2161804395
 20
123.4960029078
 30
0.0
 10
119.2289997328
 20
123.4805863478
 30
0.0
 10
119.2542522873
 20
123.4501359863
 30
0.0
 10
119.2909743857
 20
123.4056157446
 30
0.0
 10
119.3250526537
 20
123.3640560772
 30
0.0
 10
119.355100513
 20
123.3271452126
 30
0.0
 10
119.3770364192
 20
123.2999580806
 30
0.0
 10
119.3916515816
 20
123.2816113533
 30
0.0
 10
119.4002164911
 20
123.2707839517
 30
0.0
 10
119.4069457862
 20
123.2620467625
 30
0.0
 10
119.412023703
 20
123.2555480952
 30
0.0
 10
119.4148724168
 20
123.251231015
 30
0.0
 10
119.4165444561
 20
123.2491869045
 30
0.0
 10
119.4166970582
 20
123.2484386862
 30
0.0
  0
SPLINE
  5
3B3
100
AcDbEntity
  8
RACCORDO
100
AcDbSpline
 62
250
  6
CONTINUOUS
 70
0
 71
3
 72
17
 73
13
 74
0
 42
0.0000001
 43
0.0000001
 44
0.0000000001
 40
0.0
 40
0.0
 40
0.0
 40
0.0
 40
0.1904702357
 40
0.3748323016
 40
0.545627856
 40
0.6963897213
 40
0.8212019762
 40
0.9152794099
 40
0.9496686201
 40
0.9751968702
 40
0.991790153
 40
1.0
 40
1.0
 40
1.0
 40
1.0
 10
118.9265895954
 20
122.8804465751
 30
0.0
 10
118.9463092637
 20
122.8804609537
 30
0.0
 10
118.9851164505
 20
122.8802840704
 30
0.0
 10
119.0416016361
 20
122.8794197538
 30
0.0
 10
119.0939590299
 20
122.877990016
 30
0.0
 10
119.1401441416
 20
122.8760684623
 30
0.0
 10
119.1783196168
 20
122.8737328441
 30
0.0
 10
119.2045028651
 20
122.8713970577
 30
0.0
 10
119.2202260634
 20
122.8692478691
 30
0.0
 10
119.228151086
 20
122.8677587035
 30
0.0
 10
119.2329052526
 20
122.8663828238
 30
0.0
 10
119.235567188
 20
122.8650924591
 30
0.0
 10
119.2358287597
 20
122.86428373
 30
0.0
  0
SPLINE
  5
3B4
100
AcDbEntity
  8
RACCORDO
100
AcDbSpline
 62
250
  6
CONTINUOUS
 70
0
 71
3
 72
17
 73
13
 74
0
 42
0.0000001
 43
0.0000001
 44
0.0000000001
 40
0.0
 40
0.0
 40
0.0
 40
0.0
 40
0.1904702091
 40
0.3748322453
 40
0.5456277796
 40
0.6963896323
 40
0.8212018836
 40
0.9152793232
 40
0.949668542
 40
0.9751968041
 40
0.9917901083
 40
1.0
 40
1.0
 40
1.0
 40
1.0
 10
118.9265895955
 20
79.1115591274
 30
0.0
 10
118.9463092632
 20
79.1115447486
 30
0.0
 10
118.9851164487
 20
79.1117216342
 30
0.0
 10
119.0416016327
 20
79.1125859627
 30
0.0
 10
119.0939590255
 20
79.11401572
 30
0.0
 10
119.1401441375
 20
79.1159373003
 30
0.0
 10
119.1783196145
 20
79.1182729502
 30
0.0
 10
119.2045028632
 20
79.1206087699
 30
0.0
 10
119.2202260637
 20
79.1227579869
 30
0.0
 10
119.2281510853
 20
79.1242471754
 30
0.0
 10
119.2329052603
 20
79.1256230708
 30
0.0
 10
119.2355671897
 20
79.1269134605
 30
0.0
 10
119.2358287596
 20
79.1277221952
 30
0.0
  0
SPLINE
  5
3B5
100
AcDbEntity
  8
RACCORDO
100
AcDbSpline
 62
250
  6
CONTINUOUS
 70
0
 71
3
 72
18
 73
14
 74
0
 42
0.0000001
 43
0.0000001
 44
0.0000000001
 40
0.0
 40
0.0
 40
0.0
 40
0.0
 40
0.1887719247
 40
0.3724487868
 40
0.5433517225
 40
0.6947797937
 40
0.8205658048
 40
0.872223516
 40
0.9156584397
 40
0.9504648441
 40
0.976261289
 40
0.9928104777
 40
1.0
 40
1.0
 40
1.0
 40
1.0
 10
119.2161804411
 20
78.4960029048
 30
0.0
 10
119.2289997349
 20
78.5114194655
 30
0.0
 10
119.2542522908
 20
78.5418698287
 30
0.0
 10
119.2909743905
 20
78.5863900725
 30
0.0
 10
119.3250526589
 20
78.627949741
 30
0.0
 10
119.3551005172
 20
78.6648606052
 30
0.0
 10
119.3770364223
 20
78.6920477366
 30
0.0
 10
119.3916515836
 20
78.7103944632
 30
0.0
 10
119.4002164924
 20
78.7212218643
 30
0.0
 10
119.4069457867
 20
78.729959053
 30
0.0
 10
119.4120237029
 20
78.7364577199
 30
0.0
 10
119.4148724162
 20
78.7407747998
 30
0.0
 10
119.4165444553
 20
78.7428189103
 30
0.0
 10
119.4166970572
 20
78.7435671286
 30
0.0
  0
SPLINE
  5
3B6
100
AcDbEntity
  8
RACCORDO
100
AcDbSpline
 62
250
  6
CONTINUOUS
 70
0
 71
3
 72
18
 73
14
 74
0
 42
0.0000001
 43
0.0000001
 44
0.0000000001
 40
0.0
 40
0.0
 40
0.0
 40
0.0
 40
0.1896881622
 40
0.3740473816
 40
0.5453564327
 40
0.696888987
 40
0.8224674699
 40
0.873907918
 40
0.9170548923
 40
0.9515108279
 40
0.97690922
 40
0.9930508962
 40
1.0
 40
1.0
 40
1.0
 40
1.0
 10
119.7279304692
 20
78.3111208512
 30
0.0
 10
119.7279087531
 20
78.3311903914
 30
0.0
 10
119.7279741273
 20
78.3707659413
 30
0.0
 10
119.7283872369
 20
78.4284646756
 30
0.0
 10
119.7290963772
 20
78.4821248611
 30
0.0
 10
119.7300729476
 20
78.5295558574
 30
0.0
 10
119.7311122466
 20
78.5643116249
 30
0.0
 10
119.7321036872
 20
78.5875713693
 30
0.0
 10
119.7328062298
 20
78.6012366595
 30
0.0
 10
119.7336034078
 20
78.612026897
 30
0.0
 10
119.7342263995
 20
78.6202300108
 30
0.0
 10
119.7351847428
 20
78.6249382953
 30
0.0
 10
119.7355003505
 20
78.6277699403
 30
0.0
 10
119.7361200175
 20
78.6281656466
 30
0.0
  0
SPLINE
  5
3B7
100
AcDbEntity
  8
RACCORDO
100
AcDbSpline
 62
250
  6
CONTINUOUS
 70
0
 71
3
 72
15
 73
11
 74
0
 42
0.0000001
 43
0.0000001
 44
0.0000000001
 40
0.0
 40
0.0
 40
0.0
 40
0.0
 40
0.3744632475
 40
0.5459507574
 40
0.6976220685
 40
0.8232821941
 40
0.9178684368
 40
0.952278577
 40
0.9775825773
 40
1.0
 40
1.0
 40
1.0
 40
1.0
 10
130.6790334302
 20
78.3089788898
 30
0.0
 10
130.6790287803
 20
78.3485543522
 30
0.0
 10
130.6790563893
 20
78.4062533975
 30
0.0
 10
130.6791570107
 20
78.4799826706
 30
0.0
 10
130.6792748843
 20
78.5274149905
 30
0.0
 10
130.6793690286
 20
78.5667250978
 30
0.0
 10
130.6795763907
 20
78.5936298112
 30
0.0
 10
130.6795869671
 20
78.6099488469
 30
0.0
 10
130.6798828549
 20
78.6186057236
 30
0.0
 10
130.679525387
 20
78.6236968132
 30
0.0
 10
130.6799221888
 20
78.6260325521
 30
0.0
  0
SPLINE
  5
3B8
100
AcDbEntity
  8
RACCORDO
100
AcDbSpline
 62
250
  6
CONTINUOUS
 70
0
 71
3
 72
15
 73
11
 74
0
 42
0.0000001
 43
0.0000001
 44
0.0000000001
 40
0.0
 40
0.0
 40
0.0
 40
0.0
 40
0.3744632475
 40
0.5459507574
 40
0.6976220685
 40
0.8232821941
 40
0.9178684368
 40
0.952278577
 40
0.9775825773
 40
1.0
 40
1.0
 40
1.0
 40
1.0
 10
265.4790334302
 20
78.3089788898
 30
0.0
 10
265.4790380802
 20
78.3485543522
 30
0.0
 10
265.4790104712
 20
78.4062533975
 30
0.0
 10
265.4789098498
 20
78.4799826706
 30
0.0
 10
265.4787919762
 20
78.5274149905
 30
0.0
 10
265.4786978318
 20
78.5667250978
 30
0.0
 10
265.4784904698
 20
78.5936298112
 30
0.0
 10
265.4784798933
 20
78.6099488469
 30
0.0
 10
265.4781840055
 20
78.6186057236
 30
0.0
 10
265.4785414735
 20
78.6236968132
 30
0.0
 10
265.4781446717
 20
78.6260325521
 30
0.0
  0
SPLINE
  5
3B9
100
AcDbEntity
  8
RACCORDO
100
AcDbSpline
 62
250
  6
CONTINUOUS
 70
0
 71
3
 72
18
 73
14
 74
0
 42
0.0000001
 43
0.0000001
 44
0.0000000001
 40
0.0
 40
0.0
 40
0.0
 40
0.0
 40
0.1896881623
 40
0.3740473819
 40
0.5453564329
 40
0.6968889871
 40
0.82246747
 40
0.8739079181
 40
0.9170548924
 40
0.9515108279
 40
0.97690922
 40
0.9930508962
 40
1.0
 40
1.0
 40
1.0
 40
1.0
 10
276.4301363913
 20
78.3111208512
 30
0.0
 10
276.4301581074
 20
78.3311903914
 30
0.0
 10
276.4300927332
 20
78.3707659413
 30
0.0
 10
276.4296796236
 20
78.4284646756
 30
0.0
 10
276.4289704834
 20
78.4821248612
 30
0.0
 10
276.4279939129
 20
78.5295558574
 30
0.0
 10
276.426954614
 20
78.5643116249
 30
0.0
 10
276.4259631733
 20
78.5875713694
 30
0.0
 10
276.4252606307
 20
78.6012366595
 30
0.0
 10
276.4244634527
 20
78.612026897
 30
0.0
 10
276.423840461
 20
78.6202300108
 30
0.0
 10
276.4228821177
 20
78.6249382953
 30
0.0
 10
276.42256651
 20
78.6277699403
 30
0.0
 10
276.421946843
 20
78.6281656466
 30
0.0
  0
SPLINE
  5
3BA
100
AcDbEntity
  8
RACCORDO
100
AcDbSpline
 62
250
  6
CONTINUOUS
 70
0
 71
3
 72
18
 73
14
 74
0
 42
0.0000001
 43
0.0000001
 44
0.0000000001
 40
0.0
 40
0.0
 40
0.0
 40
0.0
 40
0.1887719153
 40
0.3724487625
 40
0.5433516971
 40
0.6947797721
 40
0.8205657899
 40
0.8722235038
 40
0.9156584315
 40
0.9504648398
 40
0.9762612865
 40
0.9928104769
 40
1.0
 40
1.0
 40
1.0
 40
1.0
 10
276.9418864215
 20
78.4960029066
 30
0.0
 10
276.9290671282
 20
78.5114194665
 30
0.0
 10
276.9038145739
 20
78.5418698276
 30
0.0
 10
276.8670924757
 20
78.586390069
 30
0.0
 10
276.8330142078
 20
78.6279497362
 30
0.0
 10
276.8029663483
 20
78.6648606008
 30
0.0
 10
276.7810304419
 20
78.6920477329
 30
0.0
 10
276.7664152793
 20
78.7103944603
 30
0.0
 10
276.7578503696
 20
78.721221862
 30
0.0
 10
276.7511210744
 20
78.7299590513
 30
0.0
 10
276.7460431575
 20
78.7364577186
 30
0.0
 10
276.7431944436
 20
78.7407747988
 30
0.0
 10
276.7415224042
 20
78.7428189093
 30
0.0
 10
276.7413698021
 20
78.7435671275
 30
0.0
  0
SPLINE
  5
3BB
100
AcDbEntity
  8
RACCORDO
100
AcDbSpline
 62
250
  6
CONTINUOUS
 70
0
 71
3
 72
17
 73
13
 74
0
 42
0.0000001
 43
0.0000001
 44
0.0000000001
 40
0.0
 40
0.0
 40
0.0
 40
0.0
 40
0.1904702343
 40
0.374832298
 40
0.5456278522
 40
0.696389718
 40
0.8212019737
 40
0.9152794083
 40
0.9496686191
 40
0.9751968695
 40
0.9917901526
 40
1.0
 40
1.0
 40
1.0
 40
1.0
 10
277.231477265
 20
79.1115592384
 30
0.0
 10
277.2117575969
 20
79.1115448597
 30
0.0
 10
277.1729504104
 20
79.111721743
 30
0.0
 10
277.1164652252
 20
79.1125860596
 30
0.0
 10
277.0641078315
 20
79.1140157974
 30
0.0
 10
277.0179227197
 20
79.1159373511
 30
0.0
 10
276.9797472443
 20
79.1182729695
 30
0.0
 10
276.9535639958
 20
79.120608756
 30
0.0
 10
276.9378407972
 20
79.1227579448
 30
0.0
 10
276.9299157746
 20
79.1242471105
 30
0.0
 10
276.9251616078
 20
79.1256229903
 30
0.0
 10
276.9224996725
 20
79.1269133552
 30
0.0
 10
276.9222381008
 20
79.1277220843
 30
0.0
  0
SPLINE
  5
3BC
100
AcDbEntity
  8
RACCORDO
100
AcDbSpline
 62
250
  6
CONTINUOUS
 70
0
 71
3
 72
8
 73
4
 74
0
 42
0.0000001
 43
0.0000001
 44
0.0000000001
 40
0.0
 40
0.0
 40
0.0
 40
0.0
 40
1.0
 40
1.0
 40
1.0
 40
1.0
 10
198.0790334302
 20
78.307232974
 30
0.0
 10
175.612366756
 20
78.307232974
 30
0.0
 10
153.1457000743
 20
78.3078149433
 30
0.0
 10
130.6790334302
 20
78.3089788898
 30
0.0
  0
SPLINE
  5
3BD
100
AcDbEntity
  8
RACCORDO
100
AcDbSpline
 62
250
  6
CONTINUOUS
 70
0
 71
3
 72
9
 73
5
 74
0
 42
0.0000001
 43
0.0000001
 44
0.0000000001
 40
0.0
 40
0.0
 40
0.0
 40
0.0
 40
0.250506831
 40
1.0
 40
1.0
 40
1.0
 40
1.0
 10
301.8999740491
 20
78.5103125316
 30
0.0
 10
301.899841887
 20
77.1639961553
 30
0.0
 10
301.899237695
 20
71.7896262472
 30
0.0
 10
301.8983254068
 20
66.4152563733
 30
0.0
 10
301.8974610741
 20
62.387202907
 30
0.0
  0
SPLINE
  5
3BE
100
AcDbEntity
  8
RACCORDO
100
AcDbSpline
 62
250
  6
CONTINUOUS
 70
0
 71
3
 72
13
 73
9
 74
0
 42
0.0000001
 43
0.0000001
 44
0.0000000001
 40
0.0
 40
0.0
 40
0.0
 40
0.0
 40
0.0426215088
 40
0.113679398
 40
0.2116532668
 40
0.3341909331
 40
0.6398911798
 40
1.0
 40
1.0
 40
1.0
 40
1.0
 10
301.8999899283
 20
123.3160028674
 30
0.0
 10
301.8966400231
 20
123.3173256982
 30
0.0
 10
301.8871187688
 20
123.319135919
 30
0.0
 10
301.869434296
 20
123.321505685
 30
0.0
 10
301.8448612979
 20
123.3236390763
 30
0.0
 10
301.8004953367
 20
123.3264852945
 30
0.0
 10
301.7339059629
 20
123.3289507502
 30
0.0
 10
301.677651223
 20
123.3299014213
 30
0.0
 10
301.647222094
 20
123.3301512617
 30
0.0
  0
SPLINE
  5
3BF
100
AcDbEntity
  8
RACCORDO
100
AcDbSpline
 62
250
  6
CONTINUOUS
 70
0
 71
3
 72
13
 73
9
 74
0
 42
0.0000001
 43
0.0000001
 44
0.0000000001
 40
0.0
 40
0.0
 40
0.0
 40
0.0
 40
0.0426478869
 40
0.113717092
 40
0.2116943305
 40
0.3342300122
 40
0.6399151717
 40
1.0
 40
1.0
 40
1.0
 40
1.0
 10
301.8999740491
 20
123.4816932823
 30
0.0
 10
301.896627007
 20
123.4830300634
 30
0.0
 10
301.8871043752
 20
123.4848624144
 30
0.0
 10
301.8694193993
 20
123.4872586749
 30
0.0
 10
301.8448452257
 20
123.4894168951
 30
0.0
 10
301.800479444
 20
123.4922953992
 30
0.0
 10
301.7338894456
 20
123.4947890461
 30
0.0
 10
301.6776341244
 20
123.4957503444
 30
0.0
 10
301.6472048582
 20
123.496002907
 30
0.0
  0
SPLINE
  5
3C0
100
AcDbEntity
  8
RACCORDO
100
AcDbSpline
 62
250
  6
CONTINUOUS
 70
0
 71
3
 72
13
 73
9
 74
0
 42
0.0000001
 43
0.0000001
 44
0.0000000001
 40
0.0
 40
0.0
 40
0.0
 40
0.0
 40
0.046608107
 40
0.1194450171
 40
0.2179714127
 40
0.3402246711
 40
0.6436092881
 40
1.0
 40
1.0
 40
1.0
 40
1.0
 10
301.8974610741
 20
139.604802907
 30
0.0
 10
301.8944302892
 20
139.6073873179
 30
0.0
 10
301.8848698749
 20
139.6116076078
 30
0.0
 10
301.8670236592
 20
139.6166630987
 30
0.0
 10
301.84231371
 20
139.6213894129
 30
0.0
 10
301.797953668
 20
139.6275319184
 30
0.0
 10
301.7312792885
 20
139.6329158318
 30
0.0
 10
301.6749250738
 20
139.6349709335
 30
0.0
 10
301.6444731633
 20
139.6355105219
 30
0.0
  0
SPLINE
  5
3C1
100
AcDbEntity
  8
RACCORDO
100
AcDbSpline
 62
250
  6
CONTINUOUS
 70
0
 71
3
 72
13
 73
9
 74
0
 42
0.0000001
 43
0.0000001
 44
0.0000000001
 40
0.0
 40
0.0
 40
0.0
 40
0.0
 40
0.0468128564
 40
0.119759221
 40
0.2183339209
 40
0.3405867132
 40
0.6438969779
 40
1.0
 40
1.0
 40
1.0
 40
1.0
 10
301.897752042
 20
139.9825352645
 30
0.0
 10
301.8947370123
 20
139.9851702744
 30
0.0
 10
301.8851867376
 20
139.9895116808
 30
0.0
 10
301.867336457
 20
139.9947278362
 30
0.0
 10
301.8426241399
 20
139.9996382026
 30
0.0
 10
301.7982591149
 20
140.006015657
 30
0.0
 10
301.7315995337
 20
140.0119535109
 30
0.0
 10
301.6752062464
 20
140.0138696769
 30
0.0
 10
301.6447482465
 20
140.0142014018
 30
0.0
  0
SPLINE
  5
3C2
100
AcDbEntity
  8
RACCORDO
100
AcDbSpline
 62
250
  6
CONTINUOUS
 70
0
 71
3
 72
13
 73
9
 74
0
 42
0.0000001
 43
0.0000001
 44
0.0000000001
 40
0.0
 40
0.0
 40
0.0
 40
0.0
 40
0.0474971247
 40
0.1208370676
 40
0.2196578939
 40
0.3420365773
 40
0.6450703543
 40
1.0
 40
1.0
 40
1.0
 40
1.0
 10
298.3142988106
 20
143.5654592312
 30
0.0
 10
298.3171368272
 20
143.5624564646
 30
0.0
 10
298.321906611
 20
143.5527858719
 30
0.0
 10
298.3275925123
 20
143.5346260426
 30
0.0
 10
298.3329495762
 20
143.5094977372
 30
0.0
 10
298.3399209616
 20
143.4644406517
 30
0.0
 10
298.3461103551
 20
143.3967719573
 30
0.0
 10
298.3485453616
 20
143.3395771893
 30
0.0
 10
298.3492175339
 20
143.3087097364
 30
0.0
  0
SPLINE
  5
3C3
100
AcDbEntity
  8
RACCORDO
100
AcDbSpline
 62
250
  6
CONTINUOUS
 70
0
 71
3
 72
13
 73
9
 74
0
 42
0.0000001
 43
0.0000001
 44
0.0000000001
 40
0.0
 40
0.0
 40
0.0
 40
0.0
 40
0.0472965013
 40
0.1205387307
 40
0.2193223548
 40
0.341706868
 40
0.6448526216
 40
1.0
 40
1.0
 40
1.0
 40
1.0
 10
297.9053607591
 20
143.5651569542
 30
0.0
 10
297.9081435114
 20
143.5621332602
 30
0.0
 10
297.9127766033
 20
143.5524440739
 30
0.0
 10
297.9182821326
 20
143.5342842151
 30
0.0
 10
297.9234345297
 20
143.5091567222
 30
0.0
 10
297.9300953831
 20
143.4641015631
 30
0.0
 10
297.9358980502
 20
143.3964530333
 30
0.0
 10
297.9380609321
 20
143.3392880626
 30
0.0
 10
297.9385987808
 20
143.3084361137
 30
0.0
  0
SPLINE
  5
3C4
100
AcDbEntity
  8
RACCORDO
100
AcDbSpline
 62
250
  6
CONTINUOUS
 70
0
 71
3
 72
9
 73
5
 74
0
 42
0.0000001
 43
0.0000001
 44
0.0000000001
 40
0.0
 40
0.0
 40
0.0
 40
0.0
 40
0.3328292808
 40
1.0
 40
1.0
 40
1.0
 40
1.0
 10
265.478275361
 20
143.5689014356
 30
0.0
 10
265.4788758807
 20
143.5404589151
 30
0.0
 10
265.4786311278
 20
143.4549733592
 30
0.0
 10
265.4790102905
 20
143.3695025988
 30
0.0
 10
265.4790334302
 20
143.3124756319
 30
0.0
  0
SPLINE
  5
3C5
100
AcDbEntity
  8
RACCORDO
100
AcDbSpline
 62
250
  6
CONTINUOUS
 70
0
 71
3
 72
9
 73
5
 74
0
 42
0.0000001
 43
0.0000001
 44
0.0000000001
 40
0.0
 40
0.0
 40
0.0
 40
0.0
 40
0.3328292798
 40
1.0
 40
1.0
 40
1.0
 40
1.0
 10
265.4695511934
 20
143.5689014363
 30
0.0
 10
265.47015164
 20
143.5404589144
 30
0.0
 10
265.4699069213
 20
143.4549733611
 30
0.0
 10
265.4702860407
 20
143.3695025995
 30
0.0
 10
265.4703091798
 20
143.3124756327
 30
0.0
  0
SPLINE
  5
3C6
100
AcDbEntity
  8
RACCORDO
100
AcDbSpline
 62
250
  6
CONTINUOUS
 70
0
 71
3
 72
9
 73
5
 74
0
 42
0.0000001
 43
0.0000001
 44
0.0000000001
 40
0.0
 40
0.0
 40
0.0
 40
0.0
 40
0.3328292798
 40
1.0
 40
1.0
 40
1.0
 40
1.0
 10
130.6885156671
 20
143.5689014363
 30
0.0
 10
130.6879152205
 20
143.5404589144
 30
0.0
 10
130.6881599391
 20
143.4549733611
 30
0.0
 10
130.6877808197
 20
143.3695025995
 30
0.0
 10
130.6877576806
 20
143.3124756327
 30
0.0
  0
SPLINE
  5
3C7
100
AcDbEntity
  8
RACCORDO
100
AcDbSpline
 62
250
  6
CONTINUOUS
 70
0
 71
3
 72
9
 73
5
 74
0
 42
0.0000001
 43
0.0000001
 44
0.0000000001
 40
0.0
 40
0.0
 40
0.0
 40
0.0
 40
0.3328292807
 40
1.0
 40
1.0
 40
1.0
 40
1.0
 10
130.6797914994
 20
143.5689014356
 30
0.0
 10
130.6791909782
 20
143.5404589152
 30
0.0
 10
130.6794357323
 20
143.4549733592
 30
0.0
 10
130.6790565693
 20
143.3695025988
 30
0.0
 10
130.6790334302
 20
143.3124756319
 30
0.0
  0
SPLINE
  5
3C8
100
AcDbEntity
  8
RACCORDO
100
AcDbSpline
 62
250
  6
CONTINUOUS
 70
0
 71
3
 72
13
 73
9
 74
0
 42
0.0000001
 43
0.0000001
 44
0.0000000001
 40
0.0
 40
0.0
 40
0.0
 40
0.0
 40
0.0472964998
 40
0.1205387288
 40
0.2193223532
 40
0.3417068667
 40
0.644852621
 40
1.0
 40
1.0
 40
1.0
 40
1.0
 10
98.2527061002
 20
143.5651569542
 30
0.0
 10
98.2499233483
 20
143.56213326
 30
0.0
 10
98.2452902571
 20
143.5524440737
 30
0.0
 10
98.2397847279
 20
143.5342842151
 30
0.0
 10
98.2346323308
 20
143.5091567222
 30
0.0
 10
98.2279714774
 20
143.4641015631
 30
0.0
 10
98.2221688099
 20
143.3964530333
 30
0.0
 10
98.2200059289
 20
143.3392880626
 30
0.0
 10
98.2194680808
 20
143.3084361137
 30
0.0
  0
SPLINE
  5
3C9
100
AcDbEntity
  8
RACCORDO
100
AcDbSpline
 62
250
  6
CONTINUOUS
 70
0
 71
3
 72
13
 73
9
 74
0
 42
0.0000001
 43
0.0000001
 44
0.0000000001
 40
0.0
 40
0.0
 40
0.0
 40
0.0
 40
0.0475491687
 40
0.1209258259
 40
0.2197674683
 40
0.3421498868
 40
0.6451985175
 40
1.0
 40
1.0
 40
1.0
 40
1.0
 10
97.8437684485
 20
143.5654475159
 30
0.0
 10
97.8409279293
 20
143.5624415847
 30
0.0
 10
97.8361542319
 20
143.5527658172
 30
0.0
 10
97.8304649129
 20
143.534599463
 30
0.0
 10
97.8251053808
 20
143.5094688755
 30
0.0
 10
97.8181824407
 20
143.4644078843
 30
0.0
 10
97.8117732628
 20
143.3967767172
 30
0.0
 10
97.8097666343
 20
143.3395663754
 30
0.0
 10
97.809460927
 20
143.3087080598
 30
0.0
  0
SPLINE
  5
3CA
100
AcDbEntity
  8
RACCORDO
100
AcDbSpline
 62
250
  6
CONTINUOUS
 70
0
 71
3
 72
13
 73
9
 74
0
 42
0.0000001
 43
0.0000001
 44
0.0000000001
 40
0.0
 40
0.0
 40
0.0
 40
0.0
 40
0.0467693802
 40
0.119684296
 40
0.2182406169
 40
0.3404896596
 40
0.6437853787
 40
1.0
 40
1.0
 40
1.0
 40
1.0
 10
94.2603049469
 20
139.9825355713
 30
0.0
 10
94.2633173628
 20
139.9851685841
 30
0.0
 10
94.2728631555
 20
139.9895070897
 30
0.0
 10
94.2907081235
 20
139.9947202669
 30
0.0
 10
94.3154185704
 20
139.9996280079
 30
0.0
 10
94.3597801862
 20
140.006049394
 30
0.0
 10
94.4264719567
 20
140.0117861279
 30
0.0
 10
94.4828517068
 20
140.014094095
 30
0.0
 10
94.5133171065
 20
140.0147599857
 30
0.0
  0
SPLINE
  5
3CB
100
AcDbEntity
  8
RACCORDO
100
AcDbSpline
 62
250
  6
CONTINUOUS
 70
0
 71
3
 72
13
 73
9
 74
0
 42
0.0000001
 43
0.0000001
 44
0.0000000001
 40
0.0
 40
0.0
 40
0.0
 40
0.0
 40
0.046608109
 40
0.1194450194
 40
0.2179714146
 40
0.3402246727
 40
0.6436092889
 40
1.0
 40
1.0
 40
1.0
 40
1.0
 10
94.2606057864
 20
139.6048029055
 30
0.0
 10
94.2636365711
 20
139.6073873168
 30
0.0
 10
94.2731969854
 20
139.6116076077
 30
0.0
 10
94.2910432012
 20
139.6166630989
 30
0.0
 10
94.3157531505
 20
139.6213894128
 30
0.0
 10
94.3601131924
 20
139.6275319185
 30
0.0
 10
94.426787572
 20
139.6329158313
 30
0.0
 10
94.4831417866
 20
139.6349709341
 30
0.0
 10
94.5135936972
 20
139.6355105234
 30
0.0
  0
SPLINE
  5
3CC
100
AcDbEntity
  8
RACCORDO
100
AcDbSpline
 62
250
  6
CONTINUOUS
 70
0
 71
3
 72
13
 73
9
 74
0
 42
0.0000001
 43
0.0000001
 44
0.0000000001
 40
0.0
 40
0.0
 40
0.0
 40
0.0
 40
0.0426478869
 40
0.113717092
 40
0.2116943305
 40
0.3342300122
 40
0.6399151717
 40
1.0
 40
1.0
 40
1.0
 40
1.0
 10
94.2580928114
 20
123.4816932823
 30
0.0
 10
94.2614398535
 20
123.4830300634
 30
0.0
 10
94.2709624852
 20
123.4848624144
 30
0.0
 10
94.2886474611
 20
123.4872586749
 30
0.0
 10
94.3132216348
 20
123.4894168951
 30
0.0
 10
94.3575874164
 20
123.4922953992
 30
0.0
 10
94.4241774149
 20
123.4947890461
 30
0.0
 10
94.480432736
 20
123.4957503444
 30
0.0
 10
94.5108620023
 20
123.496002907
 30
0.0
  0
SPLINE
  5
3CD
100
AcDbEntity
  8
RACCORDO
100
AcDbSpline
 62
250
  6
CONTINUOUS
 70
0
 71
3
 72
13
 73
9
 74
0
 42
0.0000001
 43
0.0000001
 44
0.0000000001
 40
0.0
 40
0.0
 40
0.0
 40
0.0
 40
0.042621481
 40
0.1136793652
 40
0.211653237
 40
0.3341909074
 40
0.6398911662
 40
1.0
 40
1.0
 40
1.0
 40
1.0
 10
94.2580769322
 20
123.316002907
 30
0.0
 10
94.2614268414
 20
123.3173257209
 30
0.0
 10
94.2709480935
 20
123.319135922
 30
0.0
 10
94.2886325653
 20
123.32150568
 30
0.0
 10
94.3132055614
 20
123.3236390774
 30
0.0
 10
94.3575715232
 20
123.3264852926
 30
0.0
 10
94.4241608963
 20
123.3289507615
 30
0.0
 10
94.4804156372
 20
123.3299014054
 30
0.0
 10
94.5108447665
 20
123.330151222
 30
0.0
  0
SPLINE
  5
3CE
100
AcDbEntity
  8
RACCORDO
100
AcDbSpline
 62
250
  6
CONTINUOUS
 70
0
 71
3
 72
13
 73
9
 74
0
 42
0.0000001
 43
0.0000001
 44
0.0000000001
 40
0.0
 40
0.0
 40
0.0
 40
0.0
 40
0.0426215088
 40
0.113679398
 40
0.2116532668
 40
0.3341909331
 40
0.6398911798
 40
1.0
 40
1.0
 40
1.0
 40
1.0
 10
94.2580769322
 20
78.6760029465
 30
0.0
 10
94.2614268374
 20
78.6746801157
 30
0.0
 10
94.2709480917
 20
78.672869895
 30
0.0
 10
94.2886325645
 20
78.6705001289
 30
0.0
 10
94.3132055625
 20
78.6683667376
 30
0.0
 10
94.3575715238
 20
78.6655205194
 30
0.0
 10
94.4241608976
 20
78.6630550638
 30
0.0
 10
94.4804156375
 20
78.6621043927
 30
0.0
 10
94.5108447665
 20
78.6618545522
 30
0.0
  0
SPLINE
  5
3CF
100
AcDbEntity
  8
RACCORDO
100
AcDbSpline
 62
250
  6
CONTINUOUS
 70
0
 71
3
 72
13
 73
9
 74
0
 42
0.0000001
 43
0.0000001
 44
0.0000000001
 40
0.0
 40
0.0
 40
0.0
 40
0.0
 40
0.0426478869
 40
0.113717092
 40
0.2116943305
 40
0.3342300122
 40
0.6399151717
 40
1.0
 40
1.0
 40
1.0
 40
1.0
 10
94.2580928114
 20
78.5103125317
 30
0.0
 10
94.2614398535
 20
78.5089757505
 30
0.0
 10
94.2709624852
 20
78.5071433996
 30
0.0
 10
94.2886474611
 20
78.504747139
 30
0.0
 10
94.3132216348
 20
78.5025889188
 30
0.0
 10
94.3575874164
 20
78.4997104148
 30
0.0
 10
94.4241774149
 20
78.4972167678
 30
0.0
 10
94.480432736
 20
78.4962554696
 30
0.0
 10
94.5108620023
 20
78.496002907
 30
0.0
  0
SPLINE
  5
3D0
100
AcDbEntity
  8
RACCORDO
100
AcDbSpline
 62
250
  6
CONTINUOUS
 70
0
 71
3
 72
13
 73
9
 74
0
 42
0.0000001
 43
0.0000001
 44
0.0000000001
 40
0.0
 40
0.0
 40
0.0
 40
0.0
 40
0.046608107
 40
0.1194450171
 40
0.2179714127
 40
0.3402246711
 40
0.6436092881
 40
1.0
 40
1.0
 40
1.0
 40
1.0
 10
94.2606057864
 20
62.387202907
 30
0.0
 10
94.2636365713
 20
62.3846184961
 30
0.0
 10
94.2731969856
 20
62.3803982061
 30
0.0
 10
94.2910432013
 20
62.3753427152
 30
0.0
 10
94.3157531505
 20
62.3706164011
 30
0.0
 10
94.3601131924
 20
62.3644738955
 30
0.0
 10
94.4267875719
 20
62.3590899822
 30
0.0
 10
94.4831417866
 20
62.3570348805
 30
0.0
 10
94.5135936972
 20
62.3564952921
 30
0.0
  0
SPLINE
  5
3D1
100
AcDbEntity
  8
RACCORDO
100
AcDbSpline
 62
250
  6
CONTINUOUS
 70
0
 71
3
 72
13
 73
9
 74
0
 42
0.0000001
 43
0.0000001
 44
0.0000000001
 40
0.0
 40
0.0
 40
0.0
 40
0.0
 40
0.0468128564
 40
0.119759221
 40
0.2183339209
 40
0.3405867132
 40
0.6438969779
 40
1.0
 40
1.0
 40
1.0
 40
1.0
 10
94.2603148184
 20
62.0094705494
 30
0.0
 10
94.2633298482
 20
62.0068355396
 30
0.0
 10
94.2728801229
 20
62.0024941331
 30
0.0
 10
94.2907304035
 20
61.9972779778
 30
0.0
 10
94.3154427206
 20
61.9923676114
 30
0.0
 10
94.3598077455
 20
61.9859901569
 30
0.0
 10
94.4264673268
 20
61.980052303
 30
0.0
 10
94.4828606141
 20
61.9781361371
 30
0.0
 10
94.513318614
 20
61.9778044121
 30
0.0
  0
SPLINE
  5
3D2
100
AcDbEntity
  8
RACCORDO
100
AcDbSpline
 62
250
  6
CONTINUOUS
 70
0
 71
3
 72
13
 73
9
 74
0
 42
0.0000001
 43
0.0000001
 44
0.0000000001
 40
0.0
 40
0.0
 40
0.0
 40
0.0
 40
0.0474971247
 40
0.1208370676
 40
0.2196578939
 40
0.3420365773
 40
0.6450703543
 40
1.0
 40
1.0
 40
1.0
 40
1.0
 10
97.8437680498
 20
58.4265465828
 30
0.0
 10
97.8409300333
 20
58.4295493494
 30
0.0
 10
97.8361602495
 20
58.4392199421
 30
0.0
 10
97.8304743482
 20
58.4573797714
 30
0.0
 10
97.8251172843
 20
58.4825080767
 30
0.0
 10
97.8181458989
 20
58.5275651622
 30
0.0
 10
97.8119565054
 20
58.5952338567
 30
0.0
 10
97.8095214989
 20
58.6524286247
 30
0.0
 10
97.8088493266
 20
58.6832960775
 30
0.0
  0
SPLINE
  5
3D3
100
AcDbEntity
  8
RACCORDO
100
AcDbSpline
 62
250
  6
CONTINUOUS
 70
0
 71
3
 72
13
 73
9
 74
0
 42
0.0000001
 43
0.0000001
 44
0.0000000001
 40
0.0
 40
0.0
 40
0.0
 40
0.0
 40
0.0472965013
 40
0.1205387307
 40
0.2193223548
 40
0.341706868
 40
0.6448526216
 40
1.0
 40
1.0
 40
1.0
 40
1.0
 10
98.2527061013
 20
58.4268488598
 30
0.0
 10
98.2499233491
 20
58.4298725538
 30
0.0
 10
98.2452902572
 20
58.43956174
 30
0.0
 10
98.2397847278
 20
58.4577215988
 30
0.0
 10
98.2346323308
 20
58.4828490918
 30
0.0
 10
98.2279714774
 20
58.5279042508
 30
0.0
 10
98.2221688102
 20
58.5955527807
 30
0.0
 10
98.2200059284
 20
58.6527177513
 30
0.0
 10
98.2194680797
 20
58.6835697002
 30
0.0
  0
SPLINE
  5
3D4
100
AcDbEntity
  8
RACCORDO
100
AcDbSpline
 62
250
  6
CONTINUOUS
 70
0
 71
3
 72
9
 73
5
 74
0
 42
0.0000001
 43
0.0000001
 44
0.0000000001
 40
0.0
 40
0.0
 40
0.0
 40
0.0
 40
0.3328292808
 40
1.0
 40
1.0
 40
1.0
 40
1.0
 10
130.6797914994
 20
58.4231043783
 30
0.0
 10
130.6791909798
 20
58.4515468988
 30
0.0
 10
130.6794357327
 20
58.5370324547
 30
0.0
 10
130.67905657
 20
58.6225032152
 30
0.0
 10
130.6790334302
 20
58.679530182
 30
0.0
  0
SPLINE
  5
3D5
100
AcDbEntity
  8
RACCORDO
100
AcDbSpline
 62
250
  6
CONTINUOUS
 70
0
 71
3
 72
9
 73
5
 74
0
 42
0.0000001
 43
0.0000001
 44
0.0000000001
 40
0.0
 40
0.0
 40
0.0
 40
0.0
 40
0.3328292798
 40
1.0
 40
1.0
 40
1.0
 40
1.0
 10
130.688515667
 20
58.4231043776
 30
0.0
 10
130.6879152205
 20
58.4515468995
 30
0.0
 10
130.6881599391
 20
58.5370324529
 30
0.0
 10
130.6877808197
 20
58.6225032144
 30
0.0
 10
130.6877576806
 20
58.6795301813
 30
0.0
  0
SPLINE
  5
3D6
100
AcDbEntity
  8
RACCORDO
100
AcDbSpline
 62
250
  6
CONTINUOUS
 70
0
 71
3
 72
9
 73
5
 74
0
 42
0.0000001
 43
0.0000001
 44
0.0000000001
 40
0.0
 40
0.0
 40
0.0
 40
0.0
 40
0.3328292798
 40
1.0
 40
1.0
 40
1.0
 40
1.0
 10
265.4695511934
 20
58.4231043776
 30
0.0
 10
265.47015164
 20
58.4515468995
 30
0.0
 10
265.4699069213
 20
58.5370324529
 30
0.0
 10
265.4702860407
 20
58.6225032144
 30
0.0
 10
265.4703091798
 20
58.6795301813
 30
0.0
  0
SPLINE
  5
3D7
100
AcDbEntity
  8
RACCORDO
100
AcDbSpline
 62
250
  6
CONTINUOUS
 70
0
 71
3
 72
9
 73
5
 74
0
 42
0.0000001
 43
0.0000001
 44
0.0000000001
 40
0.0
 40
0.0
 40
0.0
 40
0.0
 40
0.3328292807
 40
1.0
 40
1.0
 40
1.0
 40
1.0
 10
265.478275361
 20
58.4231043783
 30
0.0
 10
265.4788758823
 20
58.4515468988
 30
0.0
 10
265.4786311282
 20
58.5370324548
 30
0.0
 10
265.4790102912
 20
58.6225032152
 30
0.0
 10
265.4790334302
 20
58.679530182
 30
0.0
  0
SPLINE
  5
3D8
100
AcDbEntity
  8
RACCORDO
100
AcDbSpline
 62
250
  6
CONTINUOUS
 70
0
 71
3
 72
13
 73
9
 74
0
 42
0.0000001
 43
0.0000001
 44
0.0000000001
 40
0.0
 40
0.0
 40
0.0
 40
0.0
 40
0.0472964998
 40
0.1205387288
 40
0.2193223532
 40
0.3417068667
 40
0.644852621
 40
1.0
 40
1.0
 40
1.0
 40
1.0
 10
297.9053607603
 20
58.4268488598
 30
0.0
 10
297.9081435122
 20
58.4298725539
 30
0.0
 10
297.9127766034
 20
58.4395617402
 30
0.0
 10
297.9182821325
 20
58.4577215988
 30
0.0
 10
297.9234345297
 20
58.4828490918
 30
0.0
 10
297.930095383
 20
58.5279042508
 30
0.0
 10
297.9358980506
 20
58.5955527806
 30
0.0
 10
297.9380609316
 20
58.6527177513
 30
0.0
 10
297.9385987796
 20
58.6835697002
 30
0.0
  0
SPLINE
  5
3D9
100
AcDbEntity
  8
RACCORDO
100
AcDbSpline
 62
250
  6
CONTINUOUS
 70
0
 71
3
 72
13
 73
9
 74
0
 42
0.0000001
 43
0.0000001
 44
0.0000000001
 40
0.0
 40
0.0
 40
0.0
 40
0.0
 40
0.0475491687
 40
0.1209258259
 40
0.2197674683
 40
0.3421498868
 40
0.6451985175
 40
1.0
 40
1.0
 40
1.0
 40
1.0
 10
298.314298412
 20
58.426558298
 30
0.0
 10
298.3171389312
 20
58.4295642293
 30
0.0
 10
298.3219126286
 20
58.4392399967
 30
0.0
 10
298.3276019476
 20
58.4574063509
 30
0.0
 10
298.3329614796
 20
58.4825369384
 30
0.0
 10
298.3398844198
 20
58.5275979297
 30
0.0
 10
298.3462935977
 20
58.5952290967
 30
0.0
 10
298.3483002262
 20
58.6524394386
 30
0.0
 10
298.3486059335
 20
58.6832977541
 30
0.0
  0
SPLINE
  5
3DA
100
AcDbEntity
  8
RACCORDO
100
AcDbSpline
 62
250
  6
CONTINUOUS
 70
0
 71
3
 72
13
 73
9
 74
0
 42
0.0000001
 43
0.0000001
 44
0.0000000001
 40
0.0
 40
0.0
 40
0.0
 40
0.0
 40
0.0467693802
 40
0.119684296
 40
0.2182406169
 40
0.3404896596
 40
0.6437853787
 40
1.0
 40
1.0
 40
1.0
 40
1.0
 10
301.8977619135
 20
62.0094702426
 30
0.0
 10
301.8947494977
 20
62.0068372299
 30
0.0
 10
301.885203705
 20
62.0024987242
 30
0.0
 10
301.867358737
 20
61.997285547
 30
0.0
 10
301.8426482901
 20
61.992377806
 30
0.0
 10
301.7982866742
 20
61.9859564199
 30
0.0
 10
301.7315949037
 20
61.9802196861
 30
0.0
 10
301.6752151537
 20
61.977911719
 30
0.0
 10
301.644749754
 20
61.9772458282
 30
0.0
  0
SPLINE
  5
3DB
100
AcDbEntity
  8
RACCORDO
100
AcDbSpline
 62
250
  6
CONTINUOUS
 70
0
 71
3
 72
13
 73
9
 74
0
 42
0.0000001
 43
0.0000001
 44
0.0000000001
 40
0.0
 40
0.0
 40
0.0
 40
0.0
 40
0.046608109
 40
0.1194450194
 40
0.2179714146
 40
0.3402246727
 40
0.6436092889
 40
1.0
 40
1.0
 40
1.0
 40
1.0
 10
301.8974610741
 20
62.3872029085
 30
0.0
 10
301.8944302894
 20
62.3846184971
 30
0.0
 10
301.8848698751
 20
62.3803982063
 30
0.0
 10
301.8670236593
 20
62.3753427151
 30
0.0
 10
301.84231371
 20
62.3706164011
 30
0.0
 10
301.797953668
 20
62.3644738955
 30
0.0
 10
301.7312792885
 20
62.3590899826
 30
0.0
 10
301.6749250738
 20
62.3570348799
 30
0.0
 10
301.6444731633
 20
62.3564952906
 30
0.0
  0
SPLINE
  5
3DC
100
AcDbEntity
  8
SUPERFICI
100
AcDbSpline
 62
7
  6
CONTINUOUS
 70
0
 71
3
 72
9
 73
5
 74
0
 42
0.0000001
 43
0.0000001
 44
0.0000000001
 40
0.0
 40
0.0
 40
0.0
 40
0.0
 40
0.5
 40
1.0
 40
1.0
 40
1.0
 40
1.0
 10
61.9828390192
 20
100.996002907
 30
0.0
 10
61.9828390192
 20
97.268514078
 30
0.0
 10
62.0655547747
 20
89.8076321814
 30
0.0
 10
62.3226935125
 20
82.3748990611
 30
0.0
 10
62.5310863664
 20
78.6760029069
 30
0.0
  0
LINE
  5
3DD
100
AcDbEntity
  8
0
100
AcDbLine
 62
7
  6
CONTINUOUS
 10
57.1145736523
 20
73.4423420656
 30
0.0
 11
57.1116823082
 21
73.4800546658
 31
0.0
  0
LINE
  5
3DE
100
AcDbEntity
  8
0
100
AcDbLine
 62
7
  6
CONTINUOUS
 10
57.1116823082
 20
73.4800546658
 30
0.0
 11
57.1059342144
 21
73.5552496815
 31
0.0
  0
LINE
  5
3DF
100
AcDbEntity
  8
0
100
AcDbLine
 62
7
  6
CONTINUOUS
 10
57.0541927081
 20
74.2466663386
 30
0.0
 11
57.0384819664
 21
74.4620223296
 31
0.0
  0
LINE
  5
3E0
100
AcDbEntity
  8
0
100
AcDbLine
 62
7
  6
CONTINUOUS
 10
57.0384819664
 20
74.4620223296
 30
0.0
 11
57.0310149759
 21
74.5652205943
 31
0.0
  0
LINE
  5
3E1
100
AcDbEntity
  8
0
100
AcDbLine
 62
7
  6
CONTINUOUS
 10
57.0310149759
 20
74.5652205943
 30
0.0
 11
57.0255335739
 21
74.6413337419
 31
0.0
  0
LINE
  5
3E2
100
AcDbEntity
  8
0
100
AcDbLine
 62
7
  6
CONTINUOUS
 10
57.0255335739
 20
74.6413337419
 30
0.0
 11
57.0165496296
 21
74.7667446766
 31
0.0
  0
SPLINE
  5
3E3
100
AcDbEntity
  8
SUPERFICI
100
AcDbSpline
 62
7
  6
CONTINUOUS
 70
0
 71
3
 72
9
 73
5
 74
0
 42
0.0000001
 43
0.0000001
 44
0.0000000001
 40
0.0
 40
0.0
 40
0.0
 40
0.0
 40
0.5
 40
1.0
 40
1.0
 40
1.0
 40
1.0
 10
61.9828390192
 20
100.996002907
 30
0.0
 10
61.9828390192
 20
104.7234917359
 30
0.0
 10
62.0655547747
 20
112.1843736325
 30
0.0
 10
62.3226935125
 20
119.6171067528
 30
0.0
 10
62.5310863664
 20
123.316002907
 30
0.0
  0
SPLINE
  5
3E4
100
AcDbEntity
  8
SUPERFICI
100
AcDbSpline
 62
7
  6
CONTINUOUS
 70
0
 71
3
 72
12
 73
8
 74
0
 42
0.0000001
 43
0.0000001
 44
0.0000000001
 40
0.0
 40
0.0
 40
0.0
 40
0.0
 40
0.3332525195
 40
0.6134976564
 40
0.8371377886
 40
0.9262306842
 40
1.0
 40
1.0
 40
1.0
 40
1.0
 10
64.2053644184
 20
142.6863473069
 30
0.0
 10
64.20536656
 20
142.8173652003
 30
0.0
 10
64.2019883462
 20
143.0586075193
 30
0.0
 10
64.1842538505
 20
143.3873088221
 30
0.0
 10
64.1586551166
 20
143.6193300601
 30
0.0
 10
64.1300597253
 20
143.7686384888
 30
0.0
 10
64.1134244644
 20
143.8305851197
 30
0.0
 10
64.1042214835
 20
143.8580885818
 30
0.0
  0
SPLINE
  5
3E5
100
AcDbEntity
  8
SUPERFICI
100
AcDbSpline
 62
7
  6
CONTINUOUS
 70
0
 71
3
 72
11
 73
7
 74
0
 42
0.0000001
 43
0.0000001
 44
0.0000000001
 40
0.0
 40
0.0
 40
0.0
 40
0.0
 40
0.3475110566
 40
0.6197988781
 40
0.8277889689
 40
1.0
 40
1.0
 40
1.0
 40
1.0
 10
64.1042214835
 20
143.8580885818
 30
0.0
 10
64.0973786163
 20
143.8785387536
 30
0.0
 10
64.0835231777
 20
143.9145561394
 30
0.0
 10
64.0577570759
 20
143.9592741176
 30
0.0
 10
64.0286003224
 20
143.9886594784
 30
0.0
 10
64.0047738859
 20
143.996002907
 30
0.0
 10
63.9940874014
 20
143.996002907
 30
0.0
  0
SPLINE
  5
3E6
100
AcDbEntity
  8
SUPERFICI
100
AcDbSpline
 62
7
  6
CONTINUOUS
 70
0
 71
3
 72
12
 73
8
 74
0
 42
0.0000001
 43
0.0000001
 44
0.0000000001
 40
0.0
 40
0.0
 40
0.0
 40
0.0
 40
0.3332525195
 40
0.6134976564
 40
0.8371377886
 40
0.9262306842
 40
1.0
 40
1.0
 40
1.0
 40
1.0
 10
64.2053644184
 20
59.305658507
 30
0.0
 10
64.20536656
 20
59.1746406136
 30
0.0
 10
64.2019883462
 20
58.9333982946
 30
0.0
 10
64.1842538505
 20
58.6046969919
 30
0.0
 10
64.1586551166
 20
58.3726757538
 30
0.0
 10
64.1300597253
 20
58.2233673252
 30
0.0
 10
64.1134244644
 20
58.1614206943
 30
0.0
 10
64.1042214835
 20
58.1339172322
 30
0.0
  0
SPLINE
  5
3E7
100
AcDbEntity
  8
SUPERFICI
100
AcDbSpline
 62
7
  6
CONTINUOUS
 70
0
 71
3
 72
11
 73
7
 74
0
 42
0.0000001
 43
0.0000001
 44
0.0000000001
 40
0.0
 40
0.0
 40
0.0
 40
0.0
 40
0.3475110566
 40
0.6197988781
 40
0.8277889689
 40
1.0
 40
1.0
 40
1.0
 40
1.0
 10
64.1042214835
 20
58.1339172322
 30
0.0
 10
64.0973786163
 20
58.1134670604
 30
0.0
 10
64.0835231777
 20
58.0774496745
 30
0.0
 10
64.0577570759
 20
58.0327316963
 30
0.0
 10
64.0286003224
 20
58.0033463355
 30
0.0
 10
64.0047738859
 20
57.996002907
 30
0.0
 10
63.9940874014
 20
57.996002907
 30
0.0
  0
LINE
  5
3E8
100
AcDbEntity
  8
0
100
AcDbLine
 62
7
  6
CONTINUOUS
 10
56.998962313
 20
73.9090214885
 30
0.0
 11
57.0329119231
 21
73.4611319054
 31
0.0
  0
LINE
  5
3E9
100
AcDbEntity
  8
0
100
AcDbLine
 62
7
  6
CONTINUOUS
 10
56.9346670144
 20
74.7904080356
 30
0.0
 11
56.9461335944
 21
74.6302460289
 31
0.0
  0
LINE
  5
3EA
100
AcDbEntity
  8
0
100
AcDbLine
 62
7
  6
CONTINUOUS
 10
56.9461335944
 20
74.6302460289
 30
0.0
 11
56.9583859923
 21
74.4605830644
 31
0.0
  0
LINE
  5
3EB
100
AcDbEntity
  8
0
100
AcDbLine
 62
7
  6
CONTINUOUS
 10
56.9583859923
 20
74.4605830644
 30
0.0
 11
56.9749391676
 21
74.233701548
 31
0.0
  0
LINE
  5
3EC
100
AcDbEntity
  8
RACCORDO
100
AcDbLine
 62
250
  6
CONTINUOUS
 10
63.9940874014
 20
57.996002907
 30
0.0
 11
60.9287373938
 21
58.426558298
 31
0.0
  0
SPLINE
  5
3ED
100
AcDbEntity
  8
RACCORDO
100
AcDbSpline
 62
250
  6
CONTINUOUS
 70
0
 71
3
 72
14
 73
10
 74
0
 42
0.0000001
 43
0.0000001
 44
0.0000000001
 40
0.0
 40
0.0
 40
0.0
 40
0.0
 40
0.4286326764
 40
0.5995799322
 40
0.7406236093
 40
0.8512128894
 40
0.9309111651
 40
0.9798054155
 40
1.0
 40
1.0
 40
1.0
 40
1.0
 10
57.0160991144
 20
78.4226131926
 30
0.0
 10
57.0162151541
 20
78.4065882131
 30
0.0
 10
57.0162520969
 20
78.3841567585
 30
0.0
 10
57.0158064306
 20
78.3564987655
 30
0.0
 10
57.0152758462
 20
78.3406465191
 30
0.0
 10
57.0146090103
 20
78.3284351556
 30
0.0
 10
57.0136511355
 20
78.3191688298
 30
0.0
 10
57.0128302234
 20
78.3143480084
 30
0.0
 10
57.011678057
 20
78.3111353789
 30
0.0
 10
57.0109231766
 20
78.3111208512
 30
0.0
  0
LINE
  5
3EE
100
AcDbEntity
  8
RACCORDO
100
AcDbLine
 62
250
  6
CONTINUOUS
 10
60.6678687007
 20
62.3564952921
 30
0.0
 11
60.7143675082
 21
61.9771728769
 31
0.0
  0
SPLINE
  5
3EF
100
AcDbEntity
  8
RACCORDO
100
AcDbSpline
 62
250
  6
CONTINUOUS
 70
0
 71
3
 72
9
 73
5
 74
0
 42
0.0000001
 43
0.0000001
 44
0.0000000001
 40
0.0
 40
0.0
 40
0.0
 40
0.0
 40
0.5222669633
 40
1.0
 40
1.0
 40
1.0
 40
1.0
 10
60.7143675082
 20
61.9771728769
 30
0.0
 10
60.7536700751
 20
61.6596987696
 30
0.0
 10
60.8173178824
 20
61.0503375684
 30
0.0
 10
60.8557574175
 20
60.4387406394
 30
0.0
 10
60.8653970854
 20
60.146279628
 30
0.0
  0
SPLINE
  5
3F0
100
AcDbEntity
  8
RACCORDO
100
AcDbSpline
 62
250
  6
CONTINUOUS
 70
0
 71
3
 72
19
 73
15
 74
0
 42
0.0000001
 43
0.0000001
 44
0.0000000001
 40
0.0
 40
0.0
 40
0.0
 40
0.0
 40
0.2128435981
 40
0.4041046808
 40
0.5709761584
 40
0.7111064354
 40
0.7706691463
 40
0.8230836678
 40
0.8682449332
 40
0.9062356121
 40
0.9373900824
 40
0.9623324722
 40
0.9823511154
 40
1.0
 40
1.0
 40
1.0
 40
1.0
 10
60.8653970854
 20
60.146279628
 30
0.0
 10
60.8689484329
 20
60.0385341432
 30
0.0
 10
60.873351247
 20
59.833879478
 30
0.0
 10
60.8713476169
 20
59.5446392764
 30
0.0
 10
60.8605311078
 20
59.2924475927
 30
0.0
 10
60.843701188
 20
59.1074184082
 30
0.0
 10
60.8250037804
 20
58.9810698842
 30
0.0
 10
60.8097687777
 20
58.9029159758
 30
0.0
 10
60.7925856784
 20
58.8363799666
 30
0.0
 10
60.7735172146
 20
58.781622007
 30
0.0
 10
60.7526485312
 20
58.7386068653
 30
0.0
 10
60.729875594
 20
58.7071491369
 30
0.0
 10
60.7042975313
 20
58.6872534923
 30
0.0
 10
60.6848495067
 20
58.6830445911
 30
0.0
 10
60.6759140134
 20
58.6832968476
 30
0.0
  0
SPLINE
  5
3F1
100
AcDbEntity
  8
RACCORDO
100
AcDbSpline
 62
250
  6
CONTINUOUS
 70
0
 71
3
 72
9
 73
5
 74
0
 42
0.0000001
 43
0.0000001
 44
0.0000000001
 40
0.0
 40
0.0
 40
0.0
 40
0.0
 40
0.2704030142
 40
1.0
 40
1.0
 40
1.0
 40
1.0
 10
56.9898547077
 20
79.1115592389
 30
0.0
 10
56.9923654063
 20
79.0650243638
 30
0.0
 10
57.0012102007
 20
78.892907547
 30
0.0
 10
57.0086219753
 20
78.7207084789
 30
0.0
 10
57.0124504327
 20
78.5950245218
 30
0.0
  0
LINE
  5
3F2
100
AcDbEntity
  8
RACCORDO
100
AcDbLine
 62
250
  6
CONTINUOUS
 10
57.0147993953
 20
78.5064602475
 30
0.0
 11
57.0150218746
 21
78.496002907
 31
0.0
  0
SPLINE
  5
3F3
100
AcDbEntity
  8
RACCORDO
100
AcDbSpline
 62
250
  6
CONTINUOUS
 70
0
 71
3
 72
9
 73
5
 74
0
 42
0.0000001
 43
0.0000001
 44
0.0000000001
 40
0.0
 40
0.0
 40
0.0
 40
0.0
 40
0.5000052356
 40
1.0
 40
1.0
 40
1.0
 40
1.0
 10
56.470778617
 20
100.9234453175
 30
0.0
 10
56.4712968925
 20
97.2960404605
 30
0.0
 10
56.55045891
 20
90.041318458
 30
0.0
 10
56.7922066165
 20
82.7892100826
 30
0.0
 10
56.9868636161
 20
79.167107958
 30
0.0
  0
SPLINE
  5
3F4
100
AcDbEntity
  8
RACCORDO
100
AcDbSpline
 62
250
  6
CONTINUOUS
 70
0
 71
3
 72
9
 73
5
 74
0
 42
0.0000001
 43
0.0000001
 44
0.0000000001
 40
0.0
 40
0.0
 40
0.0
 40
0.0
 40
0.5000278892
 40
1.0
 40
1.0
 40
1.0
 40
1.0
 10
58.6798454605
 20
100.996002907
 30
0.0
 10
58.6798454605
 20
97.2720122765
 30
0.0
 10
58.7618845868
 20
89.8244550078
 30
0.0
 10
59.016794962
 20
82.3796723128
 30
0.0
 10
59.2238683624
 20
78.6618593802
 30
0.0
  0
LINE
  5
3F5
100
AcDbEntity
  8
RACCORDO
100
AcDbLine
 62
250
  6
CONTINUOUS
 10
63.9940874014
 20
143.996002907
 30
0.0
 11
60.9287373938
 21
143.5654475159
 31
0.0
  0
SPLINE
  5
3F6
100
AcDbEntity
  8
RACCORDO
100
AcDbSpline
 62
250
  6
CONTINUOUS
 70
0
 71
3
 72
29
 73
25
 74
0
 42
0.0000001
 43
0.0000001
 44
0.0000000001
 40
0.0
 40
0.0
 40
0.0
 40
0.0
 40
0.0003673782
 40
0.0013237516
 40
0.0028795242
 40
0.0050363259
 40
0.0077931292
 40
0.0111480314
 40
0.0196384735
 40
0.0304795488
 40
0.0436432442
 40
0.0590992799
 40
0.076814577
 40
0.0967481821
 40
0.1188550024
 40
0.1693704923
 40
0.2278745187
 40
0.293796957
 40
0.3664967926
 40
0.4452735142
 40
0.5293703762
 40
0.6179775965
 40
0.8052704194
 40
1.0
 40
1.0
 40
1.0
 40
1.0
 10
66.1839307223
 20
142.6892325574
 30
0.0
 10
66.1842164494
 20
142.6890678134
 30
0.0
 10
66.1841340719
 20
142.6875876837
 30
0.0
 10
66.1845981207
 20
142.6852823225
 30
0.0
 10
66.1847022078
 20
142.6809484947
 30
0.0
 10
66.1850007495
 20
142.6752101366
 30
0.0
 10
66.1852201663
 20
142.6677659747
 30
0.0
 10
66.1855800407
 20
142.6546730594
 30
0.0
 10
66.1859839076
 20
142.6343023255
 30
0.0
 10
66.1864418419
 20
142.6051361133
 30
0.0
 10
66.1868771479
 20
142.5697110617
 30
0.0
 10
66.1872910139
 20
142.5281155716
 30
0.0
 10
66.1876765577
 20
142.480441269
 30
0.0
 10
66.1880314931
 20
142.4267959273
 30
0.0
 10
66.1884796119
 20
142.3437037242
 30
0.0
 10
66.188926783
 20
142.2259839928
 30
0.0
 10
66.1892800208
 20
142.0689277343
 30
0.0
 10
66.1894513776
 20
141.891954861
 30
0.0
 10
66.1894333179
 20
141.6967818186
 30
0.0
 10
66.1892290465
 20
141.4852925365
 30
0.0
 10
66.1888500342
 20
141.2595224023
 30
0.0
 10
66.1881199443
 20
140.9363309113
 30
0.0
 10
66.1868292639
 20
140.5138184575
 30
0.0
 10
66.1856356347
 20
140.1708545282
 30
0.0
 10
66.1849781699
 20
139.9960345379
 30
0.0
  0
LINE
  5
3F7
100
AcDbEntity
  8
RACCORDO
100
AcDbLine
 62
250
  6
CONTINUOUS
 10
64.0372817806
 20
139.996002907
 30
0.0
 11
60.967134063
 21
139.9825355611
 31
0.0
  0
SPLINE
  5
3F8
100
AcDbEntity
  8
RACCORDO
100
AcDbSpline
 62
250
  6
CONTINUOUS
 70
0
 71
3
 72
21
 73
17
 74
0
 42
0.0000001
 43
0.0000001
 44
0.0000000001
 40
0.0
 40
0.0
 40
0.0
 40
0.0
 40
0.0058918482
 40
0.0123870213
 40
0.0201829392
 40
0.0296877899
 40
0.0545216394
 40
0.0877079195
 40
0.1293097038
 40
0.179100613
 40
0.2367648527
 40
0.3017683033
 40
0.4513467358
 40
0.6221396972
 40
0.8074306825
 40
1.0
 40
1.0
 40
1.0
 40
1.0
 10
60.9288207992
 20
143.5654592311
 30
0.0
 10
60.9359732476
 20
143.5655913996
 30
0.0
 10
60.9512286168
 20
143.5626868368
 30
0.0
 10
60.9720730335
 20
143.548971942
 30
0.0
 10
60.991136162
 20
143.5269525415
 30
0.0
 10
61.0171218644
 20
143.4826760718
 30
0.0
 10
61.0446052931
 20
143.4048544593
 30
0.0
 10
61.0709143249
 20
143.2867276572
 30
0.0
 10
61.0924708355
 20
143.1368762121
 30
0.0
 10
61.1089064225
 20
142.9566007178
 30
0.0
 10
61.1198598042
 20
142.7474501721
 30
0.0
 10
61.1273436096
 20
142.4169486405
 30
0.0
 10
61.120574752
 20
141.9489371685
 30
0.0
 10
61.0908425948
 20
141.3356188841
 30
0.0
 10
61.0399457995
 20
140.6713340135
 30
0.0
 10
60.9935548263
 20
140.2148486991
 30
0.0
 10
60.967134063
 20
139.9825355611
 30
0.0
  0
SPLINE
  5
3F9
100
AcDbEntity
  8
SUPERFICI
100
AcDbSpline
 62
7
  6
CONTINUOUS
 70
0
 71
3
 72
11
 73
7
 74
0
 42
0.0000001
 43
0.0000001
 44
0.0000000001
 40
0.0
 40
0.0
 40
0.0
 40
0.0
 40
0.2740968077
 40
0.5374510594
 40
0.7823320023
 40
1.0
 40
1.0
 40
1.0
 40
1.0
 10
64.0372817806
 20
139.996002907
 30
0.0
 10
64.0643447959
 20
140.2409025457
 30
0.0
 10
64.111757836
 20
140.7217454761
 30
0.0
 10
64.1645314708
 20
141.4230837596
 30
0.0
 10
64.1967945897
 20
142.0748814273
 30
0.0
 10
64.20536122
 20
142.4906817311
 30
0.0
 10
64.2053644184
 20
142.6863473069
 30
0.0
  0
LINE
  5
3FA
100
AcDbEntity
  8
RACCORDO
100
AcDbLine
 62
250
  6
CONTINUOUS
 10
60.9670637903
 20
139.982535262
 30
0.0
 11
60.9206980263
 21
139.604802907
 31
0.0
  0
SPLINE
  5
3FB
100
AcDbEntity
  8
RACCORDO
100
AcDbSpline
 62
250
  6
CONTINUOUS
 70
0
 71
3
 72
9
 73
5
 74
0
 42
0.0000001
 43
0.0000001
 44
0.0000000001
 40
0.0
 40
0.0
 40
0.0
 40
0.0
 40
0.4999942582
 40
1.0
 40
1.0
 40
1.0
 40
1.0
 10
59.4782832231
 20
123.316002907
 30
0.0
 10
59.2714173343
 20
119.6003760972
 30
0.0
 10
59.0167575112
 20
112.1603083444
 30
0.0
 10
58.9348148844
 20
104.7174693162
 30
0.0
 10
58.934817067
 20
100.996002907
 30
0.0
  0
LINE
  5
3FC
100
AcDbEntity
  8
RACCORDO
100
AcDbLine
 62
250
  6
CONTINUOUS
 10
64.0372817806
 20
61.996002907
 30
0.0
 11
60.967134063
 21
62.0094702528
 31
0.0
  0
LINE
  5
3FD
100
AcDbEntity
  8
RACCORDO
100
AcDbLine
 62
250
  6
CONTINUOUS
 10
59.4875609877
 20
123.4816932823
 30
0.0
 11
59.4782832231
 21
123.316002907
 31
0.0
  0
SPLINE
  5
3FE
100
AcDbEntity
  8
RACCORDO
100
AcDbSpline
 62
250
  6
CONTINUOUS
 70
0
 71
3
 72
9
 73
5
 74
0
 42
0.0000001
 43
0.0000001
 44
0.0000000001
 40
0.0
 40
0.0
 40
0.0
 40
0.0
 40
0.4999999941
 40
1.0
 40
1.0
 40
1.0
 40
1.0
 10
66.1586079024
 20
123.491134296
 30
0.0
 10
66.1561179275
 20
119.7419464372
 30
0.0
 10
66.1536145699
 20
112.2435690919
 30
0.0
 10
66.1528459811
 20
104.7451916805
 30
0.0
 10
66.1528459811
 20
100.996002907
 30
0.0
  0
SPLINE
  5
3FF
100
AcDbEntity
  8
RACCORDO
100
AcDbSpline
 62
250
  6
CONTINUOUS
 70
0
 71
3
 72
11
 73
7
 74
0
 42
0.0000001
 43
0.0000001
 44
0.0000000001
 40
0.0
 40
0.0
 40
0.0
 40
0.0
 40
0.2499999788
 40
0.4999999815
 40
0.7499999824
 40
1.0
 40
1.0
 40
1.0
 40
1.0
 10
66.1838105348
 20
139.6684254126
 30
0.0
 10
66.1792593378
 20
138.3203238221
 30
0.0
 10
66.1748012273
 20
135.6241069367
 30
0.0
 10
66.1676962064
 20
131.5797858652
 30
0.0
 10
66.1619078101
 20
127.5354613826
 30
0.0
 10
66.1595035537
 20
124.8392434807
 30
0.0
 10
66.1586079024
 20
123.491134296
 30
0.0
  0
SPLINE
  5
400
100
AcDbEntity
  8
RACCORDO
100
AcDbSpline
 62
250
  6
CONTINUOUS
 70
0
 71
3
 72
9
 73
5
 74
0
 42
0.0000001
 43
0.0000001
 44
0.0000000001
 40
0.0
 40
0.0
 40
0.0
 40
0.0
 40
0.6649431484
 40
1.0
 40
1.0
 40
1.0
 40
1.0
 10
60.9671340641
 20
62.0094702426
 30
0.0
 10
60.911084843
 20
62.0025019877
 30
0.0
 10
60.8268472879
 20
61.9916389599
 30
0.0
 10
60.7425084264
 20
61.9814359283
 30
0.0
 10
60.7143586108
 20
61.9772458282
 30
0.0
  0
SPLINE
  5
401
100
AcDbEntity
  8
RACCORDO
100
AcDbSpline
 62
250
  6
CONTINUOUS
 70
0
 71
3
 72
11
 73
7
 74
0
 42
0.0000001
 43
0.0000001
 44
0.0000000001
 40
0.0
 40
0.0
 40
0.0
 40
0.0
 40
0.2490924857
 40
0.4986962172
 40
0.7489957995
 40
1.0
 40
1.0
 40
1.0
 40
1.0
 10
60.9287373942
 20
58.426558298
 30
0.0
 10
60.8970777712
 20
58.4310808444
 30
0.0
 10
60.834714853
 20
58.4507007823
 30
0.0
 10
60.7557898487
 20
58.5084818806
 30
0.0
 10
60.6991498183
 20
58.5885066058
 30
0.0
 10
60.6801481668
 20
58.6513628631
 30
0.0
 10
60.6758229715
 20
58.6832977541
 30
0.0
  0
SPLINE
  5
402
100
AcDbEntity
  8
RACCORDO
100
AcDbSpline
 62
250
  6
CONTINUOUS
 70
0
 71
3
 72
11
 73
7
 74
0
 42
0.0000001
 43
0.0000001
 44
0.0000000001
 40
0.0
 40
0.0
 40
0.0
 40
0.0
 40
0.2491319814
 40
0.4987717922
 40
0.7490945132
 40
1.0
 40
1.0
 40
1.0
 40
1.0
 10
60.8743764541
 20
58.4268488598
 30
0.0
 10
60.8427087111
 20
58.4313777143
 30
0.0
 10
60.7803299717
 20
58.4510041625
 30
0.0
 10
60.7013823296
 20
58.5087860729
 30
0.0
 10
60.6446753238
 20
58.5887710351
 30
0.0
 10
60.6256796931
 20
58.6516394
 30
0.0
 10
60.621386178
 20
58.6835697002
 30
0.0
  0
SPLINE
  5
403
100
AcDbEntity
  8
RACCORDO
100
AcDbSpline
 62
250
  6
CONTINUOUS
 70
0
 71
3
 72
8
 73
4
 74
0
 42
0.0000001
 43
0.0000001
 44
0.0000000001
 40
0.0
 40
0.0
 40
0.0
 40
0.0
 40
1.0
 40
1.0
 40
1.0
 40
1.0
 10
59.0438659838
 20
58.4231043783
 30
0.0
 10
59.0014430608
 20
58.4290665838
 30
0.0
 10
58.959417928
 20
58.4446699527
 30
0.0
 10
58.9233823411
 20
58.4678364968
 30
0.0
  0
SPLINE
  5
404
100
AcDbEntity
  8
RACCORDO
100
AcDbSpline
 62
250
  6
CONTINUOUS
 70
0
 71
3
 72
8
 73
4
 74
0
 42
0.0000001
 43
0.0000001
 44
0.0000000001
 40
0.0
 40
0.0
 40
0.0
 40
0.0
 40
1.0
 40
1.0
 40
1.0
 40
1.0
 10
59.0438659838
 20
143.5689014356
 30
0.0
 10
59.0014430595
 20
143.5629392299
 30
0.0
 10
58.9594179253
 20
143.5473358602
 30
0.0
 10
58.9233823376
 20
143.5241693149
 30
0.0
  0
SPLINE
  5
405
100
AcDbEntity
  8
RACCORDO
100
AcDbSpline
 62
250
  6
CONTINUOUS
 70
0
 71
3
 72
11
 73
7
 74
0
 42
0.0000001
 43
0.0000001
 44
0.0000000001
 40
0.0
 40
0.0
 40
0.0
 40
0.0
 40
0.2491319811
 40
0.4987717921
 40
0.7490945132
 40
1.0
 40
1.0
 40
1.0
 40
1.0
 10
60.874376454
 20
143.5651569542
 30
0.0
 10
60.842708711
 20
143.5606280996
 30
0.0
 10
60.7803299717
 20
143.5410016514
 30
0.0
 10
60.7013823296
 20
143.4832197411
 30
0.0
 10
60.6446753238
 20
143.4032347789
 30
0.0
 10
60.6256796932
 20
143.3403664139
 30
0.0
 10
60.6213861781
 20
143.3084361137
 30
0.0
  0
SPLINE
  5
406
100
AcDbEntity
  8
RACCORDO
100
AcDbSpline
 62
250
  6
CONTINUOUS
 70
0
 71
3
 72
11
 73
7
 74
0
 42
0.0000001
 43
0.0000001
 44
0.0000000001
 40
0.0
 40
0.0
 40
0.0
 40
0.0
 40
0.249110523
 40
0.4987240826
 40
0.7490471956
 40
1.0
 40
1.0
 40
1.0
 40
1.0
 10
60.9288208008
 20
143.5654592312
 30
0.0
 10
60.8971527464
 20
143.5609447005
 30
0.0
 10
60.8347693372
 20
143.5413378313
 30
0.0
 10
60.7558242374
 20
143.4835514474
 30
0.0
 10
60.6991418738
 20
143.4035382003
 30
0.0
 10
60.6801801567
 20
143.3406496796
 30
0.0
 10
60.6759049531
 20
143.3087097364
 30
0.0
  0
SPLINE
  5
407
100
AcDbEntity
  8
RACCORDO
100
AcDbSpline
 62
250
  6
CONTINUOUS
 70
0
 71
3
 72
11
 73
7
 74
0
 42
0.0000001
 43
0.0000001
 44
0.0000000001
 40
0.0
 40
0.0
 40
0.0
 40
0.0
 40
0.359241575
 40
0.664951671
 40
0.8860737996
 40
1.0
 40
1.0
 40
1.0
 40
1.0
 10
60.9670637906
 20
139.9825352645
 30
0.0
 10
60.9367917305
 20
139.9863048701
 30
0.0
 10
60.8807642952
 20
139.993312767
 30
0.0
 10
60.8061049429
 20
140.0027241147
 30
0.0
 10
60.7521501546
 20
140.0096365767
 30
0.0
 10
60.7239378353
 20
140.0134923125
 30
0.0
 10
60.7142895402
 20
140.0142014018
 30
0.0
  0
SPLINE
  5
408
100
AcDbEntity
  8
SUPERFICI
100
AcDbSpline
 62
7
  6
CONTINUOUS
 70
0
 71
3
 72
11
 73
7
 74
0
 42
0.0000001
 43
0.0000001
 44
0.0000000001
 40
0.0
 40
0.0
 40
0.0
 40
0.0
 40
0.2740968077
 40
0.5374510594
 40
0.7823320023
 40
1.0
 40
1.0
 40
1.0
 40
1.0
 10
64.0372817806
 20
61.996002907
 30
0.0
 10
64.0643447959
 20
61.7511032683
 30
0.0
 10
64.111757836
 20
61.2702603378
 30
0.0
 10
64.1645314708
 20
60.5689220544
 30
0.0
 10
64.1967945897
 20
59.9171243866
 30
0.0
 10
64.20536122
 20
59.5013240828
 30
0.0
 10
64.2053644184
 20
59.305658507
 30
0.0
  0
SPLINE
  5
409
100
AcDbEntity
  8
SUPERFICI
100
AcDbSpline
 62
7
  6
CONTINUOUS
 70
0
 71
3
 72
10
 73
6
 74
0
 42
0.0000001
 43
0.0000001
 44
0.0000000001
 40
0.0
 40
0.0
 40
0.0
 40
0.0
 40
0.5283109174
 40
0.7768493656
 40
1.0
 40
1.0
 40
1.0
 40
1.0
 10
64.0378719786
 20
139.9969511382
 30
0.0
 10
64.0898523617
 20
140.4628102727
 30
0.0
 10
64.1512549036
 20
141.1496946534
 30
0.0
 10
64.1965564643
 20
142.0358681386
 30
0.0
 10
64.205382138
 20
142.4543944192
 30
0.0
 10
64.2053605023
 20
142.6523874702
 30
0.0
  0
SPLINE
  5
40A
100
AcDbEntity
  8
RACCORDO
100
AcDbSpline
 62
250
  6
CONTINUOUS
 70
0
 71
3
 72
21
 73
17
 74
0
 42
0.0000001
 43
0.0000001
 44
0.0000000001
 40
0.0
 40
0.0
 40
0.0
 40
0.0
 40
0.1925700367
 40
0.3778634011
 40
0.548658074
 40
0.6982356822
 40
0.7632385996
 40
0.820902358
 40
0.8706916816
 40
0.9122929935
 40
0.9454790831
 40
0.9703123639
 40
0.9798170821
 40
0.9876129418
 40
0.9941080918
 40
1.0
 40
1.0
 40
1.0
 40
1.0
 10
60.967134063
 20
62.0094702528
 30
0.0
 10
60.9935549378
 20
61.777156252
 30
0.0
 10
61.0399462654
 20
61.3206671987
 30
0.0
 10
61.0908432697
 20
60.6563764907
 30
0.0
 10
61.1205752164
 20
60.0430542431
 30
0.0
 10
61.1273439513
 20
59.5750423254
 30
0.0
 10
61.1198590939
 20
59.2445430615
 30
0.0
 10
61.1089057792
 20
59.0353956709
 30
0.0
 10
61.0924696621
 20
58.8551233286
 30
0.0
 10
61.0709134695
 20
58.7052746009
 30
0.0
 10
61.0446046358
 20
58.5871493028
 30
0.0
 10
61.0171214676
 20
58.5093287178
 30
0.0
 10
60.9911359436
 20
58.4650532337
 30
0.0
 10
60.9720730952
 20
58.4430339525
 30
0.0
 10
60.9512287389
 20
58.4293190061
 30
0.0
 10
60.9359733204
 20
58.4264144155
 30
0.0
 10
60.9288207992
 20
58.4265465828
 30
0.0
  0
LINE
  5
40B
100
AcDbEntity
  8
RACCORDO
100
AcDbLine
 62
250
  6
CONTINUOUS
 10
60.9206980263
 20
62.387202907
 30
0.0
 11
60.9670637903
 21
62.0094705519
 31
0.0
  0
SPLINE
  5
40C
100
AcDbEntity
  8
RACCORDO
100
AcDbSpline
 62
250
  6
CONTINUOUS
 70
0
 71
3
 72
9
 73
5
 74
0
 42
0.0000001
 43
0.0000001
 44
0.0000000001
 40
0.0
 40
0.0
 40
0.0
 40
0.0
 40
0.5000054033
 40
1.0
 40
1.0
 40
1.0
 40
1.0
 10
58.934817067
 20
100.996002907
 30
0.0
 10
58.934818668
 20
97.274538972
 30
0.0
 10
59.0167368918
 20
89.8316996033
 30
0.0
 10
59.2714128798
 20
82.3916320381
 30
0.0
 10
59.4782832231
 20
78.6760029069
 30
0.0
  0
LINE
  5
40D
100
AcDbEntity
  8
RACCORDO
100
AcDbLine
 62
250
  6
CONTINUOUS
 10
59.4782832231
 20
78.6760029069
 30
0.0
 11
59.4875609877
 21
78.5103125316
 31
0.0
  0
SPLINE
  5
40E
100
AcDbEntity
  8
RACCORDO
100
AcDbSpline
 62
250
  6
CONTINUOUS
 70
0
 71
3
 72
9
 73
5
 74
0
 42
0.0000001
 43
0.0000001
 44
0.0000000001
 40
0.0
 40
0.0
 40
0.0
 40
0.0
 40
0.5000000059
 40
1.0
 40
1.0
 40
1.0
 40
1.0
 10
66.1528459811
 20
100.996002907
 30
0.0
 10
66.1528459829
 20
97.2468141334
 30
0.0
 10
66.1536145591
 20
89.7484367219
 30
0.0
 10
66.1561179284
 20
82.2500593767
 30
0.0
 10
66.1586079024
 20
78.5008715179
 30
0.0
  0
SPLINE
  5
40F
100
AcDbEntity
  8
RACCORDO
100
AcDbSpline
 62
250
  6
CONTINUOUS
 70
0
 71
3
 72
21
 73
17
 74
0
 42
0.0000001
 43
0.0000001
 44
0.0000000001
 40
0.0
 40
0.0
 40
0.0
 40
0.0
 40
0.0172461888
 40
0.0369752379
 40
0.0617705569
 40
0.0928955752
 40
0.1110408288
 40
0.1309698708
 40
0.1762795167
 40
0.2288807595
 40
0.288650044
 40
0.3554930312
 40
0.4292629086
 40
0.5964392137
 40
0.7876900124
 40
1.0
 40
1.0
 40
1.0
 40
1.0
 10
60.6759165085
 20
143.3087089947
 30
0.0
 10
60.6851333437
 20
143.3089691974
 30
0.0
 10
60.7052931396
 20
143.3044203563
 30
0.0
 10
60.7315412714
 20
143.2831800632
 30
0.0
 10
60.7548207008
 20
143.2497611804
 30
0.0
 10
60.7716067339
 20
143.2137495454
 30
0.0
 10
60.7844340957
 20
143.1790404803
 30
0.0
 10
60.7977989662
 20
143.1364916228
 30
0.0
 10
60.8128311941
 20
143.0752495415
 30
0.0
 10
60.8281123451
 20
142.9923120929
 30
0.0
 10
60.8412843065
 20
142.897381091
 30
0.0
 10
60.8522307428
 20
142.7907911261
 30
0.0
 10
60.8642298981
 20
142.626654093
 30
0.0
 10
60.872494568
 20
142.3956551256
 30
0.0
 10
60.8726912437
 20
142.0904748729
 30
0.0
 10
60.8667716874
 20
141.8747670503
 30
0.0
 10
60.8623650154
 20
141.7613431473
 30
0.0
  0
SPLINE
  5
410
100
AcDbEntity
  8
RACCORDO
100
AcDbSpline
 62
250
  6
CONTINUOUS
 70
0
 71
3
 72
9
 73
5
 74
0
 42
0.0000001
 43
0.0000001
 44
0.0000000001
 40
0.0
 40
0.0
 40
0.0
 40
0.0
 40
0.4800789496
 40
1.0
 40
1.0
 40
1.0
 40
1.0
 10
60.8623650154
 20
141.7613431473
 30
0.0
 10
60.8514734465
 20
141.4810036391
 30
0.0
 10
60.8129667781
 20
140.8976544413
 30
0.0
 10
60.7516946081
 20
140.3163498842
 30
0.0
 10
60.7143656124
 20
140.0148175835
 30
0.0
  0
LINE
  5
411
100
AcDbEntity
  8
RACCORDO
100
AcDbLine
 62
250
  6
CONTINUOUS
 10
60.7143656124
 20
140.0148175835
 30
0.0
 11
60.6678687007
 21
139.6355105219
 31
0.0
  0
SPLINE
  5
412
100
AcDbEntity
  8
RACCORDO
100
AcDbSpline
 62
250
  6
CONTINUOUS
 70
0
 71
3
 72
14
 73
10
 74
0
 42
0.0000001
 43
0.0000001
 44
0.0000000001
 40
0.0
 40
0.0
 40
0.0
 40
0.0
 40
0.0205972102
 40
0.0694999341
 40
0.1490464653
 40
0.2593846414
 40
0.4001763384
 40
0.5709682315
 40
1.0
 40
1.0
 40
1.0
 40
1.0
 10
57.0109231766
 20
123.6808849628
 30
0.0
 10
57.0116122084
 20
123.6808719088
 30
0.0
 10
57.0127438188
 20
123.6780547217
 30
0.0
 10
57.0135139292
 20
123.6736919783
 30
0.0
 10
57.0144583836
 20
123.6654484988
 30
0.0
 10
57.0151211072
 20
123.6545337108
 30
0.0
 10
57.0156741513
 20
123.6403766668
 30
0.0
 10
57.0161832425
 20
123.6156249153
 30
0.0
 10
57.0162221107
 20
123.5955432036
 30
0.0
 10
57.0161655313
 20
123.5811884803
 30
0.0
  0
SPLINE
  5
413
100
AcDbEntity
  8
RACCORDO
100
AcDbSpline
 62
250
  6
CONTINUOUS
 70
0
 71
3
 72
9
 73
5
 74
0
 42
0.0000001
 43
0.0000001
 44
0.0000000001
 40
0.0
 40
0.0
 40
0.0
 40
0.0
 40
0.2216378615
 40
1.0
 40
1.0
 40
1.0
 40
1.0
 10
57.0124875286
 20
123.3982009204
 30
0.0
 10
57.0113253935
 20
123.3599302248
 30
0.0
 10
57.0053189817
 20
123.1872815413
 30
0.0
 10
56.9970989648
 20
123.0147147395
 30
0.0
 10
56.9898547077
 20
122.8804465751
 30
0.0
  0
SPLINE
  5
414
100
AcDbEntity
  8
RACCORDO
100
AcDbSpline
 62
250
  6
CONTINUOUS
 70
0
 71
3
 72
9
 73
5
 74
0
 42
0.0000001
 43
0.0000001
 44
0.0000000001
 40
0.0
 40
0.0
 40
0.0
 40
0.0
 40
0.4999721108
 40
1.0
 40
1.0
 40
1.0
 40
1.0
 10
59.2238644428
 20
123.3301466529
 30
0.0
 10
59.0167910372
 20
119.612333684
 30
0.0
 10
58.7618806564
 20
112.1675509159
 30
0.0
 10
58.6798415287
 20
104.719993574
 30
0.0
 10
58.6798415287
 20
100.996002907
 30
0.0
  0
SPLINE
  5
415
100
AcDbEntity
  8
RACCORDO
100
AcDbSpline
 62
250
  6
CONTINUOUS
 70
0
 71
3
 72
9
 73
5
 74
0
 42
0.0000001
 43
0.0000001
 44
0.0000000001
 40
0.0
 40
0.0
 40
0.0
 40
0.0
 40
0.499994796
 40
1.0
 40
1.0
 40
1.0
 40
1.0
 10
56.9867515692
 20
122.8228128104
 30
0.0
 10
56.7921545146
 20
119.2012980627
 30
0.0
 10
56.5504445718
 20
111.9503698558
 30
0.0
 10
56.4713072816
 20
104.6968276321
 30
0.0
 10
56.4707788241
 20
101.0700129957
 30
0.0
  0
SPLINE
  5
416
100
AcDbEntity
  8
RACCORDO
100
AcDbSpline
 62
250
  6
CONTINUOUS
 70
0
 71
3
 72
11
 73
7
 74
0
 42
0.0000001
 43
0.0000001
 44
0.0000000001
 40
0.0
 40
0.0
 40
0.0
 40
0.0
 40
0.2500000176
 40
0.5000000185
 40
0.7500000213
 40
1.0
 40
1.0
 40
1.0
 40
1.0
 10
66.1586079024
 20
78.5008715179
 30
0.0
 10
66.1595035543
 20
77.1527623334
 30
0.0
 10
66.1619078236
 20
74.4565444314
 30
0.0
 10
66.1676961649
 20
70.4122199485
 30
0.0
 10
66.1748013614
 20
66.3678988772
 30
0.0
 10
66.1792593043
 20
63.6716819915
 30
0.0
 10
66.1838105348
 20
62.3235804013
 30
0.0
  0
SPLINE
  5
417
100
AcDbEntity
  8
RACCORDO
100
AcDbSpline
 62
250
  6
CONTINUOUS
 70
0
 71
3
 72
29
 73
25
 74
0
 42
0.0000001
 43
0.0000001
 44
0.0000000001
 40
0.0
 40
0.0
 40
0.0
 40
0.0
 40
0.1947211754
 40
0.3820284833
 40
0.4706451001
 40
0.5547507128
 40
0.6335315729
 40
0.7062292012
 40
0.7721446793
 40
0.8306407456
 40
0.8811493826
 40
0.9032531826
 40
0.9231852549
 40
0.9408991436
 40
0.956354719
 40
0.9695180998
 40
0.9803593619
 40
0.988850347
 40
0.9922054882
 40
0.9949627983
 40
0.9971199838
 40
0.9986755118
 40
0.9996322449
 40
1.0
 40
1.0
 40
1.0
 40
1.0
 10
66.1849781699
 20
61.995971276
 30
0.0
 10
66.1856357259
 20
61.8211588347
 30
0.0
 10
66.1868292961
 20
61.4781894522
 30
0.0
 10
66.1881200207
 20
61.055663111
 30
0.0
 10
66.1888501123
 20
60.7324423291
 30
0.0
 10
66.1892291238
 20
60.506652191
 30
0.0
 10
66.1894333994
 20
60.2951533224
 30
0.0
 10
66.1894513515
 20
60.0999847978
 30
0.0
 10
66.1892798954
 20
59.9230273041
 30
0.0
 10
66.1889266999
 20
59.7659905953
 30
0.0
 10
66.1884795545
 20
59.6482868758
 30
0.0
 10
66.1880314614
 20
59.5652049139
 30
0.0
 10
66.1876765413
 20
59.511564925
 30
0.0
 10
66.1872910467
 20
59.4638936768
 30
0.0
 10
66.1868772376
 20
59.4223001461
 30
0.0
 10
66.1864418947
 20
59.3868756256
 30
0.0
 10
66.1859840962
 20
59.357709034
 30
0.0
 10
66.1855800302
 20
59.3373374448
 30
0.0
 10
66.1852202805
 20
59.3242433548
 30
0.0
 10
66.1850009126
 20
59.3167982044
 30
0.0
 10
66.1847022801
 20
59.3110591932
 30
0.0
 10
66.184598161
 20
59.3067251196
 30
0.0
 10
66.1841339273
 20
59.3044190588
 30
0.0
 10
66.1842166251
 20
59.3029383835
 30
0.0
 10
66.1839307212
 20
59.302773269
 30
0.0
  0
SPLINE
  5
418
100
AcDbEntity
  8
RACCORDO
100
AcDbSpline
 62
250
  6
CONTINUOUS
 70
0
 71
3
 72
16
 73
12
 74
0
 42
0.0000001
 43
0.0000001
 44
0.0000000001
 40
0.0
 40
0.0
 40
0.0
 40
0.0
 40
0.0043326309
 40
0.0172241302
 40
0.0385750173
 40
0.0682797811
 40
0.1523184365
 40
0.2680278187
 40
0.4133915722
 40
0.5862289273
 40
1.0
 40
1.0
 40
1.0
 40
1.0
 10
66.259233268
 20
139.6687660053
 30
0.0
 10
66.2592332679
 20
139.6686570759
 30
0.0
 10
66.2585386792
 20
139.6688617511
 30
0.0
 10
66.2578202642
 20
139.6686263727
 30
0.0
 10
66.2560715252
 20
139.6687228284
 30
0.0
 10
66.2527601107
 20
139.6686141814
 30
0.0
 10
66.2469290657
 20
139.6686266063
 30
0.0
 10
66.2382819484
 20
139.6685574449
 30
0.0
 10
66.2273617339
 20
139.6685256482
 30
0.0
 10
66.2089638973
 20
139.6684680585
 30
0.0
 10
66.19421341
 20
139.6684422195
 30
0.0
 10
66.1838105391
 20
139.6684266843
 30
0.0
  0
SPLINE
  5
419
100
AcDbEntity
  8
RACCORDO
100
AcDbSpline
 62
250
  6
CONTINUOUS
 70
0
 71
3
 72
16
 73
12
 74
0
 42
0.0000001
 43
0.0000001
 44
0.0000000001
 40
0.0
 40
0.0
 40
0.0
 40
0.0
 40
0.0043282283
 40
0.0171996403
 40
0.0385183381
 40
0.068180999
 40
0.1521139278
 40
0.2677104033
 40
0.4129908653
 40
0.5858138666
 40
1.0
 40
1.0
 40
1.0
 40
1.0
 10
66.2592332679
 20
139.9964061476
 30
0.0
 10
66.2592332679
 20
139.9962990128
 30
0.0
 10
66.2585509264
 20
139.9964938421
 30
0.0
 10
66.2578442355
 20
139.9962643779
 30
0.0
 10
66.256125407
 20
139.9963542276
 30
0.0
 10
66.2528694629
 20
139.9962448915
 30
0.0
 10
66.2471353207
 20
139.9962516149
 30
0.0
 10
66.2386294351
 20
139.9961792252
 30
0.0
 10
66.2278834581
 20
139.9961431642
 30
0.0
 10
66.2097624752
 20
139.9960805065
 30
0.0
 10
66.1952303322
 20
139.9960517623
 30
0.0
 10
66.1849781699
 20
139.9960345477
 30
0.0
  0
SPLINE
  5
41A
100
AcDbEntity
  8
RACCORDO
100
AcDbSpline
 62
250
  6
CONTINUOUS
 70
0
 71
3
 72
16
 73
12
 74
0
 42
0.0000001
 43
0.0000001
 44
0.0000000001
 40
0.0
 40
0.0
 40
0.0
 40
0.0
 40
0.0043282403
 40
0.0171996557
 40
0.0385183549
 40
0.0681810161
 40
0.1521139443
 40
0.2677104171
 40
0.4129908763
 40
0.5858138754
 40
1.0
 40
1.0
 40
1.0
 40
1.0
 10
66.2592332679
 20
61.9955995994
 30
0.0
 10
66.2592332679
 20
61.9957067345
 30
0.0
 10
66.2585509278
 20
61.9955119292
 30
0.0
 10
66.2578442348
 20
61.9957413859
 30
0.0
 10
66.2561254074
 20
61.9956515548
 30
0.0
 10
66.2528694627
 20
61.9957608998
 30
0.0
 10
66.247135321
 20
61.9957541966
 30
0.0
 10
66.2386294352
 20
61.9958266022
 30
0.0
 10
66.2278834582
 20
61.9958626807
 30
0.0
 10
66.2097624752
 20
61.9959253593
 30
0.0
 10
66.195230332
 20
61.9959541148
 30
0.0
 10
66.1849781697
 20
61.9959713361
 30
0.0
  0
SPLINE
  5
41B
100
AcDbEntity
  8
RACCORDO
100
AcDbSpline
 62
250
  6
CONTINUOUS
 70
0
 71
3
 72
16
 73
12
 74
0
 42
0.0000001
 43
0.0000001
 44
0.0000000001
 40
0.0
 40
0.0
 40
0.0
 40
0.0
 40
0.0043330394
 40
0.0172246626
 40
0.0385756102
 40
0.068280403
 40
0.1523190584
 40
0.2680283873
 40
0.4133920459
 40
0.5862292712
 40
1.0
 40
1.0
 40
1.0
 40
1.0
 10
66.259233268
 20
62.3232372567
 30
0.0
 10
66.259233268
 20
62.3233461966
 30
0.0
 10
66.2585387278
 20
62.3231424227
 30
0.0
 10
66.2578202422
 20
62.32337752
 30
0.0
 10
66.256071538
 20
62.3232817605
 30
0.0
 10
66.2527601012
 20
62.3233907405
 30
0.0
 10
66.2469290713
 20
62.323379072
 30
0.0
 10
66.2382819447
 20
62.3234488284
 30
0.0
 10
66.2273617315
 20
62.3234812746
 30
0.0
 10
66.2089638917
 20
62.3235396435
 30
0.0
 10
66.1942134027
 20
62.3235658989
 30
0.0
 10
66.1838105304
 20
62.3235816813
 30
0.0
  0
ELLIPSE
  5
41C
100
AcDbEntity
  8
RACCORDO
100
AcDbEllipse
 62
7
  6
CONTINUOUS
 10
119.7843461137
 20
122.8156902235
 30
0.0
 11
-0.3536610946
 21
0.3536610946
 31
0.0
 40
0.9996954599
 41
-0.7852458701
 42
0.7852458701
  0
ELLIPSE
  5
41D
100
AcDbEntity
  8
RACCORDO
100
AcDbEllipse
 62
7
  6
CONTINUOUS
 10
119.7843461137
 20
79.1763155905
 30
0.0
 11
-0.3536610946
 21
-0.3536610946
 31
0.0
 40
0.9996954599
 41
-0.7852458701
 42
0.7852458701
  0
ELLIPSE
  5
41E
100
AcDbEntity
  8
RACCORDO
100
AcDbEllipse
 62
7
  6
CONTINUOUS
 10
276.3737207467
 20
122.8156902235
 30
0.0
 11
0.3536610946
 21
0.3536610946
 31
0.0
 40
0.9996954599
 41
-0.7852458701
 42
0.7852458701
  0
ELLIPSE
  5
41F
100
AcDbEntity
  8
RACCORDO
100
AcDbEllipse
 62
7
  6
CONTINUOUS
 10
276.3737207467
 20
79.1763155905
 30
0.0
 11
-0.3536610946
 21
0.3536610946
 31
0.0
 40
0.9996954599
 41
2.3563467834
 42
3.9268385237
  0
ENDSEC
  0
SECTION
  2
OBJECTS
  0
DICTIONARY
  5
C
100
AcDbDictionary
280
0
281
1
  3
ACAD_GROUP
350
D
  3
ACAD_MLINESTYLE
350
17
  3
ACAD_LAYOUT
350
1A
  3
ACAD_PLOTSETTINGS
350
19
  3
ACAD_PLOTSTYLENAME
350
E
  0
DICTIONARY
  5
D
102
{ACAD_REACTORS
330
C
102
}
100
AcDbDictionary
280
0
281
1
  0
ACDBDICTIONARYWDFLT
  5
E
102
{ACAD_REACTORS
330
C
102
}
100
AcDbDictionary
281
1
  3
Normal
350
F
100
AcDbDictionaryWithDefault
340
F
  0
DICTIONARY
  5
17
102
{ACAD_REACTORS
330
C
102
}
100
AcDbDictionary
280
0
281
1
  3
Standard
350
18
  0
DICTIONARY
  5
19
102
{ACAD_REACTORS
330
C
102
}
100
AcDbDictionary
281
1
  0
DICTIONARY
  5
1A
102
{ACAD_REACTORS
330
C
102
}
100
AcDbDictionary
281
1
  3
Model
350
420
  3
Layout1
350
421
  0
ACDBPLACEHOLDER
  5
F
102
{ACAD_REACTORS
330
E
102
}
  0
MLINESTYLE
  5
18
102
{ACAD_REACTORS
330
17
102
}
100
AcDbMlineStyle
  2
STANDARD
 70
0
  3

 62
256
 51
90.0
 52
90.0
 71
2
 49
0.5
 62
256
  6
BYLAYER
 49
-0.5
 62
256
  6
BYLAYER
  0
LAYOUT
  5
420
102
{ACAD_REACTORS
330
1A
102
}
100
AcDbPlotSettings
  1

  2
none_device
  4
ISO_A4_(297.00_x_210.00_MM)
  6

 40
0.0
 41
0.0
 42
0.0
 43
0.0
 44
297.0
 45
210.0
 46
0.0
 47
0.0
 48
0.0
 49
0.0
140
0.0
141
0.0
142
1.0
143
1.0
 70
1024
 72
1
 73
0
 74
0
  7

 75
0
147
1.0
148
0.0
149
0.0
100
AcDbLayout
  1
Model
 70
0
 71
0
 10
0.0
 20
0.0
 11
297.0
 21
210.0
 12
0.0
 22
0.0
 32
0.0
 14
0.0
 24
0.0
 34
0.0
 15
0.0
 25
0.0
 35
0.0
146
0.0
 13
0.0
 23
0.0
 33
0.0
 16
1.0
 26
0.0
 36
0.0
 17
0.0
 27
1.0
 37
0.0
 76
0
330
218
345
0
346
0
  0
LAYOUT
  5
421
102
{ACAD_REACTORS
330
1A
102
}
100
AcDbPlotSettings
  1

  2
none_device
  4
ISO_A4_(297.00_x_210.00_MM)
  6

 40
0.0
 41
0.0
 42
0.0
 43
0.0
 44
297.0
 45
210.0
 46
0.0
 47
0.0
 48
0.0
 49
0.0
140
0.0
141
0.0
142
1.0
143
1.0
 70
0
 72
1
 73
0
 74
0
  7

 75
0
147
1.0
148
0.0
149
0.0
100
AcDbLayout
  1
Layout1
 70
0
 71
1
 10
0.0
 20
0.0
 11
297.0
 21
210.0
 12
0.0
 22
0.0
 32
0.0
 14
0.0
 24
0.0
 34
0.0
 15
0.0
 25
0.0
 35
0.0
146
0.0
 13
0.0
 23
0.0
 33
0.0
 16
1.0
 26
0.0
 36
0.0
 17
0.0
 27
1.0
 37
0.0
 76
0
330
219
345
0
346
0
  0
ENDSEC
  0
EOF
