  0
SECTION
  2
HEADER
  9
$ACADVER
  1
AC1015
  9
$DWGCODEPAGE
  3
ANSI_1252
  9
$EXTMAX
 10
558.8
 20
431.8
 30
0.0
  9
$EXTMIN
 10
0.0
 20
0.0
 30
0.0
  9
$LIMMIN
 10
0.0
 20
0.0
  9
$LIMMAX
 10
558.8
 20
431.8
  9
$VIEWCTR
 10
279.4
 20
215.9
  9
$VIEWSIZE
 40
431.8
  9
$CLAYER
  8
0
  9
$LTSCALE
 40
30.734
  9
$CELTYPE
  6
BYLAYER
  9
$DIMSCALE
 40
1.0
  9
$DIMASZ
 40
3.0
  9
$DIMEXO
 40
0.5
  9
$DIMDLI
 40
21.2344
  9
$DIMEXE
 40
1.5
  9
$DIMCEN
 40
5.0292
  9
$DIMLFAC
 40
1.0
  9
$DIMBLK
  1
_FILLED
  9
$DIMALT
 70
0
  9
$DIMALTF
 40
0.0393700787
  9
$DIMTXT
 40
3.0
  9
$DIMTOL
 70
1
  9
$DIMLIM
 70
0
  9
$DIMTFAC
 40
1.0
  9
$DIMTP
 40
0.01
  9
$DIMTM
 40
0.01
  9
$DIMGAP
 40
0.625
  9
$DIMDSEP
 70
44
  9
$AUNITS
 70
0
  9
$PDMODE
 70
3
  9
$PDSIZE
 40
3.0
  9
$HANDSEED
  5
522
  9
$TILEMODE
 70
1
  9
$MEASUREMENT
 70
1
  9
$INSUNITS
 70
4
  0
ENDSEC
  0
SECTION
  2
CLASSES
  0
CLASS
  1
ACDBDICTIONARYWDFLT
  2
AcDbDictionaryWithDefault
  3
AutoCAD 2000
 90
0
280
0
281
0
  0
CLASS
  1
ACDBPLACEHOLDER
  2
AcDbPlaceHolder
  3
AutoCAD 2000
 90
0
280
0
281
0
  0
CLASS
  1
LAYOUT
  2
AcDbLayout
  3
AutoCAD 2000
 90
0
280
0
281
0
  0
ENDSEC
  0
SECTION
  2
TABLES
  0
TABLE
  2
VPORT
  5
8
100
AcDbSymbolTable
 70
2
  0
VPORT
  5
1F4
100
AcDbSymbolTableRecord
100
AcDbViewportTableRecord
  2
*ACTIVE
 70
0
 10
0.0
 20
0.0
 11
1.0
 21
1.0
 12
279.4
 22
215.9
 13
0.0
 23
0.0
 14
1.0
 24
1.0
 15
0.0
 25
0.0
 16
0.0
 26
0.0
 36
1.0
 17
0.0
 27
0.0
 37
0.0
 40
431.8
 41
1.2941176471
 42
50.0
 43
0.0
 44
0.0
 50
0.0
 51
0.0
 71
0
 72
100
 73
1
 74
1
 75
0
 76
0
 77
0
 78
0
  0
ENDTAB
  0
TABLE
  2
LTYPE
  5
5
100
AcDbSymbolTable
 70
6
  0
LTYPE
  5
14
100
AcDbSymbolTableRecord
100
AcDbLinetypeTableRecord
  2
BYBLOCK
 70
0
  3

 72
65
 73
0
 40
0.0
  0
LTYPE
  5
15
100
AcDbSymbolTableRecord
100
AcDbLinetypeTableRecord
  2
BYLAYER
 70
0
  3

 72
65
 73
0
 40
0.0
  0
LTYPE
  5
16
100
AcDbSymbolTableRecord
100
AcDbLinetypeTableRecord
  2
CONTINUOUS
 70
64
  3
Solid line
 72
65
 73
0
 40
0.0
  0
LTYPE
  5
1F5
100
AcDbSymbolTableRecord
100
AcDbLinetypeTableRecord
  2
CENTER
 70
64
  3
____ _ ____ _ ____ _ ____ _ ____ _ ____ _ ____
 72
65
 73
4
 40
0.6
 49
0.375
 74
0
 49
-0.075
 74
0
 49
0.075
 74
0
 49
-0.075
 74
0
  0
LTYPE
  5
1F6
100
AcDbSymbolTableRecord
100
AcDbLinetypeTableRecord
  2
HIDDEN
 70
64
  3
- - - - - - - - - - - - - - - - - - - -
 72
65
 73
2
 40
0.2
 49
0.1
 74
0
 49
-0.1
 74
0
  0
LTYPE
  5
1F7
100
AcDbSymbolTableRecord
100
AcDbLinetypeTableRecord
  2
PHANTOM
 70
64
  3
_____ _ _ _____ _ _ _____ _ _ _____
 72
65
 73
6
 40
0.8
 49
0.45
 74
0
 49
-0.05
 74
0
 49
0.1
 74
0
 49
-0.05
 74
0
 49
0.1
 74
0
 49
-0.05
 74
0
  0
LTYPE
  5
1F8
100
AcDbSymbolTableRecord
100
AcDbLinetypeTableRecord
  2
DOT
 70
64
  3
. . . . . . . . . . . . . . . . . . . .
 72
65
 73
2
 40
0.2
 49
0.1
 74
0
 49
-0.1
 74
0
  0
LTYPE
  5
1F9
100
AcDbSymbolTableRecord
100
AcDbLinetypeTableRecord
  2
DASHED
 70
64
  3
- - - - - - - - - - - - - - - - - - - -
 72
65
 73
2
 40
0.2
 49
0.1
 74
0
 49
-0.1
 74
0
  0
ENDTAB
  0
TABLE
  2
LAYER
  5
2
100
AcDbSymbolTable
 70
36
  0
LAYER
  5
10
100
AcDbSymbolTableRecord
100
AcDbLayerTableRecord
  2
0
 70
0
 62
7
  6
CONTINUOUS
370
-3
390
F
  0
LAYER
  5
1FA
100
AcDbSymbolTableRecord
100
AcDbLayerTableRecord
  2
DEFAULT_1
 70
0
 62
7
  6
CENTER
370
-3
390
F
  0
LAYER
  5
1FB
100
AcDbSymbolTableRecord
100
AcDbLayerTableRecord
  2
DEFAULT_2
 70
0
 62
7
  6
HIDDEN
370
-3
390
F
  0
LAYER
  5
1FC
100
AcDbSymbolTableRecord
100
AcDbLayerTableRecord
  2
DEFAULT_3
 70
0
 62
7
  6
PHANTOM
370
-3
390
F
  0
LAYER
  5
1FD
100
AcDbSymbolTableRecord
100
AcDbLayerTableRecord
  2
262606150
 70
0
 62
7
  6
CONTINUOUS
370
-3
390
F
  0
LAYER
  5
1FE
100
AcDbSymbolTableRecord
100
AcDbLayerTableRecord
  2
ASSI
 70
0
 62
7
  6
CONTINUOUS
370
-3
390
F
  0
LAYER
  5
1FF
100
AcDbSymbolTableRecord
100
AcDbLayerTableRecord
  2
COORDINATE
 70
0
 62
7
  6
CONTINUOUS
370
-3
390
F
  0
LAYER
  5
200
100
AcDbSymbolTableRecord
100
AcDbLayerTableRecord
  2
COORD_ORIGINE
 70
0
 62
7
  6
CONTINUOUS
370
-3
390
F
  0
LAYER
  5
201
100
AcDbSymbolTableRecord
100
AcDbLayerTableRecord
  2
CURVE
 70
0
 62
7
  6
CONTINUOUS
370
-3
390
F
  0
LAYER
  5
202
100
AcDbSymbolTableRecord
100
AcDbLayerTableRecord
  2
DRAFT
 70
0
 62
7
  6
CONTINUOUS
370
-3
390
F
  0
LAYER
  5
203
100
AcDbSymbolTableRecord
100
AcDbLayerTableRecord
  2
FEAT_IMPORT
 70
0
 62
7
  6
CONTINUOUS
370
-3
390
F
  0
LAYER
  5
204
100
AcDbSymbolTableRecord
100
AcDbLayerTableRecord
  2
IGES-SCRITTE
 70
0
 62
7
  6
CONTINUOUS
370
-3
390
F
  0
LAYER
  5
205
100
AcDbSymbolTableRecord
100
AcDbLayerTableRecord
  2
INTF_1
 70
0
 62
7
  6
CONTINUOUS
370
-3
390
F
  0
LAYER
  5
206
100
AcDbSymbolTableRecord
100
AcDbLayerTableRecord
  2
PARTI_PRO
 70
0
 62
7
  6
CONTINUOUS
370
-3
390
F
  0
LAYER
  5
207
100
AcDbSymbolTableRecord
100
AcDbLayerTableRecord
  2
PIANI
 70
0
 62
7
  6
CONTINUOUS
370
-3
390
F
  0
LAYER
  5
208
100
AcDbSymbolTableRecord
100
AcDbLayerTableRecord
  2
PIANI_ORIGINE
 70
0
 62
7
  6
CONTINUOUS
370
-3
390
F
  0
LAYER
  5
209
100
AcDbSymbolTableRecord
100
AcDbLayerTableRecord
  2
PIANI_RIFERIMENTO
 70
0
 62
7
  6
CONTINUOUS
370
-3
390
F
  0
LAYER
  5
20A
100
AcDbSymbolTableRecord
100
AcDbLayerTableRecord
  2
PPP
 70
0
 62
7
  6
CONTINUOUS
370
-3
390
F
  0
LAYER
  5
20B
100
AcDbSymbolTableRecord
100
AcDbLayerTableRecord
  2
PUNTI
 70
0
 62
7
  6
CONTINUOUS
370
-3
390
F
  0
LAYER
  5
20C
100
AcDbSymbolTableRecord
100
AcDbLayerTableRecord
  2
RACCORDO
 70
0
 62
7
  6
CONTINUOUS
370
-3
390
F
  0
LAYER
  5
20D
100
AcDbSymbolTableRecord
100
AcDbLayerTableRecord
  2
RGB____0____0____0__
 70
0
 62
7
  6
CONTINUOUS
370
-3
390
F
  0
LAYER
  5
20E
100
AcDbSymbolTableRecord
100
AcDbLayerTableRecord
  2
SMUSSO
 70
0
 62
7
  6
CONTINUOUS
370
-3
390
F
  0
LAYER
  5
20F
100
AcDbSymbolTableRecord
100
AcDbLayerTableRecord
  2
SNAPLINE
 70
0
 62
7
  6
CONTINUOUS
370
-3
390
F
  0
LAYER
  5
210
100
AcDbSymbolTableRecord
100
AcDbLayerTableRecord
  2
SPENTI
 70
0
 62
7
  6
CONTINUOUS
370
-3
390
F
  0
LAYER
  5
211
100
AcDbSymbolTableRecord
100
AcDbLayerTableRecord
  2
SUPERFICI
 70
0
 62
7
  6
CONTINUOUS
370
-3
390
F
  0
LAYER
  5
212
100
AcDbSymbolTableRecord
100
AcDbLayerTableRecord
  2
SUP_SKEL
 70
0
 62
7
  6
CONTINUOUS
370
-3
390
F
  0
LAYER
  5
213
100
AcDbSymbolTableRecord
100
AcDbLayerTableRecord
  2
TASSELLO
 70
0
 62
7
  6
CONTINUOUS
370
-3
390
F
  0
LAYER
  5
214
100
AcDbSymbolTableRecord
100
AcDbLayerTableRecord
  2
TRASH
 70
0
 62
7
  6
CONTINUOUS
370
-3
390
F
  0
ENDTAB
  0
TABLE
  2
STYLE
  5
3
100
AcDbSymbolTable
 70
1
  0
STYLE
  5
11
100
AcDbSymbolTableRecord
100
AcDbTextStyleTableRecord
  2
STANDARD
 70
0
 40
0.0
 41
0.8
 50
0.0
 71
0
 42
0.2
  3
txt
  4

  0
STYLE
  5
215
100
AcDbSymbolTableRecord
100
AcDbTextStyleTableRecord
  2
TEXTSTYLE_1
 70
0
 40
0.0
 41
0.8
 50
0.0
 71
0
 42
0.2
  3
gdt
  4

  0
ENDTAB
  0
TABLE
  2
VIEW
  5
6
100
AcDbSymbolTable
 70
0
  0
ENDTAB
  0
TABLE
  2
UCS
  5
7
100
AcDbSymbolTable
 70
0
  0
ENDTAB
  0
TABLE
  2
APPID
  5
9
100
AcDbSymbolTable
 70
1
  0
APPID
  5
216
100
AcDbSymbolTableRecord
100
AcDbRegAppTableRecord
  2
ACAD
 70
0
  0
ENDTAB
  0
TABLE
  2
BLOCK_RECORD
  5
1
100
AcDbSymbolTable
 70
0
  0
BLOCK_RECORD
  5
217
100
AcDbSymbolTableRecord
100
AcDbBlockTableRecord
  2
*Model_Space
  0
BLOCK_RECORD
  5
218
100
AcDbSymbolTableRecord
100
AcDbBlockTableRecord
  2
*Paper_Space
  0
BLOCK_RECORD
  5
219
100
AcDbSymbolTableRecord
100
AcDbBlockTableRecord
  2
_FILLED
  0
BLOCK_RECORD
  5
21A
100
AcDbSymbolTableRecord
100
AcDbBlockTableRecord
  2
*D0
  0
BLOCK_RECORD
  5
21B
100
AcDbSymbolTableRecord
100
AcDbBlockTableRecord
  2
*D1
  0
BLOCK_RECORD
  5
21C
100
AcDbSymbolTableRecord
100
AcDbBlockTableRecord
  2
*D2
  0
ENDTAB
  0
TABLE
  2
DIMSTYLE
  5
A
100
AcDbSymbolTable
 70
1
100
AcDbDimStyleTable
 71
0
  0
DIMSTYLE
105
21D
100
AcDbSymbolTableRecord
100
AcDbDimStyleTableRecord
  2
STANDARD
 70
0
  3

  4

 40
1.0
 41
3.0
 42
0.5
 43
0.38
 44
1.5
 45
0.0
 46
0.0
 47
0.01
 48
0.01
140
3.0
141
0.09
142
0.0
143
25.4
144
1.0
145
0.0
146
1.0
147
0.625
 71
1.0
 72
0.0
 73
0
 74
0
 75
0
 76
0
 77
1
 78
8
170
0
171
2
172
0
173
0
174
0
175
0
176
0
177
0
178
0
270
2
271
2
272
2
273
2
274
2
275
0
280
0
281
0
282
0
283
1
284
8
285
0
286
0
287
3
288
0
340
11
278
44
341
219
342
219
343
219
344
219
  0
DIMSTYLE
105
21E
100
AcDbSymbolTableRecord
100
AcDbDimStyleTableRecord
  2
DIMSTYLE_1
 70
0
  3

  4

 40
1.0
 41
3.0
 42
0.5
 43
0.38
 44
1.5
 45
0.0
 46
0.0
 47
0.0
 48
0.0
140
3.0
141
0.09
142
0.0
143
25.4
144
1.0
145
0.0
146
1.0
147
0.75
 71
0.0
 72
0.0
 73
0
 74
0
 75
0
 76
0
 77
1
 78
8
170
0
171
2
172
0
173
0
174
0
175
0
176
0
177
0
178
0
270
2
271
2
272
2
273
2
274
2
275
0
280
0
281
0
282
0
283
1
284
8
285
0
286
0
287
3
288
0
340
11
278
44
341
219
342
219
343
219
344
219
  0
ENDTAB
  0
ENDSEC
  0
SECTION
  2
BLOCKS
  0
BLOCK
  5
20
100
AcDbEntity
  8
0
100
AcDbBlockBegin
  2
*Model_Space
 70
0
 10
0.0
 20
0.0
 30
0.0
  3
*Model_Space
  1

  0
ENDBLK
  5
21
100
AcDbEntity
  8
0
100
AcDbBlockEnd
  0
BLOCK
  5
1C
100
AcDbEntity
  8
0
100
AcDbBlockBegin
  2
*Paper_Space
 70
0
 10
0.0
 20
0.0
 30
0.0
  3
*Paper_Space
  1

  0
ENDBLK
  5
1D
100
AcDbEntity
  8
0
100
AcDbBlockEnd
  0
BLOCK
  5
21F
100
AcDbEntity
  8
0
100
AcDbBlockBegin
  2
_FILLED
 70
64
 10
0.0
 20
0.0
  3
_FILLED
  1

  0
SOLID
  5
220
100
AcDbEntity
  8
0
  6
BYBLOCK
 62
0
100
AcDbTrace
 10
0.0
 20
0.0
 11
-1.0
 21
0.3166666667
 12
-1.0
 22
-0.3166666667
 13
-1.0
 23
-0.3166666667
  0
ENDBLK
  5
221
100
AcDbEntity
  8
0
  6
BYBLOCK
 62
0
100
AcDbBlockEnd
  0
BLOCK
  5
222
100
AcDbEntity
  8
0
100
AcDbBlockBegin
 62
7
  6
CONTINUOUS
  2
*D0
 70
65
 10
0.0
 20
0.0
  3
*D0
  1

  0
MTEXT
  5
223
100
AcDbEntity
  8
0
100
AcDbMText
 62
7
  6
CONTINUOUS
  7
STANDARD
 71
3
 72
1
 10
-114.1350445601
 20
77.75
 30
0.0
 11
1.0
 21
0.0
 31
0.0
 44
0.9
  1
9
 40
3.0
 41
3.5357142857
  0
LINE
  5
224
100
AcDbEntity
  8
0
100
AcDbLine
 62
7
  6
CONTINUOUS
 10
-101.2768855077
 20
63.5
 11
-101.2768855077
 21
75.5
  0
LINE
  5
225
100
AcDbEntity
  8
0
100
AcDbLine
 62
7
  6
CONTINUOUS
 10
-110.2768932695
 20
48.7158923769
 11
-110.2768932695
 21
75.5
  0
LINE
  5
226
100
AcDbEntity
  8
0
100
AcDbLine
 62
7
  6
CONTINUOUS
 10
-101.2768855077
 20
74.0
 11
-97.2768855077
 21
74.0
  0
LINE
  5
227
100
AcDbEntity
  8
0
100
AcDbLine
 62
7
  6
CONTINUOUS
 10
-97.2768855077
 20
74.0
 11
-105.7768893886
 21
74.0
  0
LINE
  5
228
100
AcDbEntity
  8
0
100
AcDbLine
 62
7
  6
CONTINUOUS
 10
-110.2768932695
 20
74.0
 11
-116.4921874173
 21
74.0
  0
LINE
  5
229
100
AcDbEntity
  8
0
100
AcDbLine
 62
7
  6
CONTINUOUS
 10
-116.4921874173
 20
74.0
 11
-105.7768893886
 21
74.0
  0
INSERT
  5
22A
100
AcDbEntity
  8
0
100
AcDbBlockReference
 62
7
  6
CONTINUOUS
  2
_FILLED
 10
-101.2768855077
 20
74.0
 41
3.0
 42
3.0
 43
3.0
 50
180.0
  0
INSERT
  5
22B
100
AcDbEntity
  8
0
100
AcDbBlockReference
 62
7
  6
CONTINUOUS
  2
_FILLED
 10
-110.2768932695
 20
74.0
 41
3.0
 42
3.0
 43
3.0
  0
ENDBLK
  5
22C
100
AcDbEntity
  8
0
  6
BYBLOCK
 62
0
100
AcDbBlockEnd
  0
BLOCK
  5
22D
100
AcDbEntity
  8
0
100
AcDbBlockBegin
 62
7
  6
CONTINUOUS
  2
*D1
 70
65
 10
0.0
 20
0.0
  3
*D1
  1

  0
MTEXT
  5
22E
100
AcDbEntity
  8
0
100
AcDbMText
 62
7
  6
CONTINUOUS
  7
STANDARD
 71
2
 72
1
 10
0.0
 20
77.75
 30
0.0
 11
1.0
 21
0.0
 31
0.0
 44
0.9
  1
120
 40
3.0
 41
9.6428571429
  0
LINE
  5
22F
100
AcDbEntity
  8
0
100
AcDbLine
 62
7
  6
CONTINUOUS
 10
-60.0
 20
63.5
 11
-60.0
 21
75.5
  0
LINE
  5
230
100
AcDbEntity
  8
0
100
AcDbLine
 62
7
  6
CONTINUOUS
 10
60.0
 20
63.5
 11
60.0
 21
75.5
  0
LINE
  5
231
100
AcDbEntity
  8
0
100
AcDbLine
 62
7
  6
CONTINUOUS
 10
-60.0
 20
74.0
 11
0.0
 21
74.0
  0
LINE
  5
232
100
AcDbEntity
  8
0
100
AcDbLine
 62
7
  6
CONTINUOUS
 10
60.0
 20
74.0
 11
0.0
 21
74.0
  0
INSERT
  5
233
100
AcDbEntity
  8
0
100
AcDbBlockReference
 62
7
  6
CONTINUOUS
  2
_FILLED
 10
-60.0
 20
74.0
 41
3.0
 42
3.0
 43
3.0
 50
180.0
  0
INSERT
  5
234
100
AcDbEntity
  8
0
100
AcDbBlockReference
 62
7
  6
CONTINUOUS
  2
_FILLED
 10
60.0
 20
74.0
 41
3.0
 42
3.0
 43
3.0
  0
ENDBLK
  5
235
100
AcDbEntity
  8
0
  6
BYBLOCK
 62
0
100
AcDbBlockEnd
  0
BLOCK
  5
236
100
AcDbEntity
  8
0
100
AcDbBlockBegin
 62
7
  6
CONTINUOUS
  2
*D2
 70
65
 10
0.0
 20
0.0
  3
*D2
  1

  0
MTEXT
  5
237
100
AcDbEntity
  8
0
100
AcDbMText
 62
7
  6
CONTINUOUS
  7
STANDARD
 71
2
 72
1
 10
64.25
 20
0.0
 30
0.0
 11
0.0
 21
1.0
 31
0.0
 44
0.9
  1
132
 40
3.0
 41
9.3214285714
  0
LINE
  5
238
100
AcDbEntity
  8
0
100
AcDbLine
 62
7
  6
CONTINUOUS
 10
57.5
 20
66.0
 11
69.5
 21
66.0
  0
LINE
  5
239
100
AcDbEntity
  8
0
100
AcDbLine
 62
7
  6
CONTINUOUS
 10
57.5
 20
-66.0
 11
69.5
 21
-66.0
  0
LINE
  5
23A
100
AcDbEntity
  8
0
100
AcDbLine
 62
7
  6
CONTINUOUS
 10
68.0
 20
66.0
 11
68.0
 21
0.0
  0
LINE
  5
23B
100
AcDbEntity
  8
0
100
AcDbLine
 62
7
  6
CONTINUOUS
 10
68.0
 20
-66.0
 11
68.0
 21
0.0
  0
INSERT
  5
23C
100
AcDbEntity
  8
0
100
AcDbBlockReference
 62
7
  6
CONTINUOUS
  2
_FILLED
 10
68.0
 20
66.0
 41
3.0
 42
3.0
 43
3.0
 50
90.0
  0
INSERT
  5
23D
100
AcDbEntity
  8
0
100
AcDbBlockReference
 62
7
  6
CONTINUOUS
  2
_FILLED
 10
68.0
 20
-66.0
 41
3.0
 42
3.0
 43
3.0
 50
270.0
  0
ENDBLK
  5
23E
100
AcDbEntity
  8
0
  6
BYBLOCK
 62
0
100
AcDbBlockEnd
  0
ENDSEC
  0
SECTION
  2
ENTITIES
  0
DIMENSION
  5
23F
100
AcDbEntity
  8
0
100
AcDbDimension
 62
7
  6
CONTINUOUS
  2
*D0
 10
-110.2768932695
 20
74.0
 11
-115.7421875519
 21
74.0
 70
160
 71
3
 42
9.0000077618
  3
DIMSTYLE_1
100
AcDbAlignedDimension
 13
-101.2768855077
 23
63.0
 14
-110.2768932695
 24
48.2158923769
 50
180.0
100
AcDbRotatedDimension
  0
DIMENSION
  5
240
100
AcDbEntity
  8
0
100
AcDbDimension
 62
7
  6
CONTINUOUS
  2
*D1
 10
60.0
 20
74.0
 11
-0.4285714664
 21
74.0
 70
160
 71
2
 42
120.0
  3
DIMSTYLE_1
100
AcDbAlignedDimension
 13
-60.0
 23
63.0
 14
60.0
 24
63.0
100
AcDbRotatedDimension
  0
DIMENSION
  5
241
100
AcDbEntity
  8
0
100
AcDbDimension
 62
7
  6
CONTINUOUS
  2
*D2
 10
68.0
 20
-66.0
 11
68.0
 21
-0.4285722654
 70
160
 71
2
 42
132.0
  3
DIMSTYLE_1
100
AcDbAlignedDimension
 13
57.0
 23
66.0
 14
57.0
 24
-66.0
 50
270.0
100
AcDbRotatedDimension
  0
LWPOLYLINE
  5
242
100
AcDbEntity
  8
262606150
100
AcDbPolyline
 62
253
  6
CONTINUOUS
 90
13
 70
0
 10
-57.0
 20
65.7702770678
 10
-57.003516892
 20
65.7610052353
 10
-57.007002963
 20
65.7430565752
 10
-57.0104276548
 20
65.7165885002
 10
-57.013760947
 20
65.6818331397
 10
-57.016973621
 20
65.6390953039
 10
-57.0200375156
 20
65.5887498107
 10
-57.0229257746
 20
65.5312381984
 10
-57.0256130822
 20
65.4670648533
 10
-57.0280758847
 20
65.3967925863
 10
-57.0302925975
 20
65.3210376965
 10
-57.032243794
 20
65.240464567
 10
-57.035283725
 20
65.0677262065
  0
LWPOLYLINE
  5
243
100
AcDbEntity
  8
262606150
100
AcDbPolyline
 62
253
  6
CONTINUOUS
 90
10
 70
0
 10
-59.770563392
 20
63.0
 10
-59.7612712297
 20
63.0030096145
 10
-59.7432772525
 20
63.0059927562
 10
-59.7167397282
 20
63.0089231864
 10
-59.6818920702
 20
63.0117751303
 10
-59.6390407847
 20
63.0145235031
 10
-59.5885627743
 20
63.0171441313
 10
-59.5309020234
 20
63.0196139651
 10
-59.4665656929
 20
63.021911281
 10
-59.3961196594
 20
63.0240158728
  0
LWPOLYLINE
  5
244
100
AcDbEntity
  8
262606150
100
AcDbPolyline
 62
253
  6
CONTINUOUS
 90
11
 70
0
 10
-59.7705635986
 20
-63.0
 10
-59.7612712331
 20
-63.0030086105
 10
-59.7432770763
 20
-63.0059907885
 10
-59.7167393972
 20
-63.0089203228
 10
-59.6818916101
 20
-63.0117714648
 10
-59.6390402214
 20
-63.0145191554
 10
-59.5885621339
 20
-63.0171392454
 10
-59.5309013316
 20
-63.0196087078
 10
-59.4665649747
 20
-63.0219058403
 10
-59.3961189386
 20
-63.0240104563
 10
-59.2394245718
 20
-63.027570021
  0
LWPOLYLINE
  5
245
100
AcDbEntity
  8
262606150
100
AcDbPolyline
 62
253
  6
CONTINUOUS
 90
12
 70
0
 10
-56.9999999972
 20
-65.7702578113
 10
-57.0035177164
 20
-65.7609866636
 10
-57.0070045758
 20
-65.7430388419
 10
-57.0104299947
 20
-65.7165717494
 10
-57.0137639314
 20
-65.6818175036
 10
-57.016977147
 20
-65.639080901
 10
-57.0200414615
 20
-65.5887367435
 10
-57.0229300014
 20
-65.5312265516
 10
-57.0256174354
 20
-65.4670546923
 10
-57.0280801964
 20
-65.3967839558
 10
-57.0302966886
 20
-65.3210306197
 10
-57.0322474764
 20
-65.2404590441
  0
LINE
  5
246
100
AcDbEntity
  8
262606150
100
AcDbLine
 62
253
  6
CONTINUOUS
 10
56.6218623102
 20
-64.8984992582
 11
56.2570456819
 21
-64.9124570523
  0
LINE
  5
247
100
AcDbEntity
  8
262606150
100
AcDbLine
 62
253
  6
CONTINUOUS
 10
57.0370893742
 20
-64.8846239665
 11
56.6218623102
 21
-64.8984992582
  0
LWPOLYLINE
  5
248
100
AcDbEntity
  8
262606150
100
AcDbPolyline
 62
253
  6
CONTINUOUS
 90
6
 70
0
 10
56.2570456819
 20
-64.9124570523
 10
56.0347372902
 20
-64.9194402085
 10
55.9250175612
 20
-64.921882469
 10
55.8142882749
 20
-64.9231364091
 10
55.7026529568
 20
-64.9235861751
 10
55.2053808743
 20
-64.9270404043
  0
LINE
  5
249
100
AcDbEntity
  8
262606150
100
AcDbLine
 62
253
  6
CONTINUOUS
 10
55.2053808743
 20
-64.9270404043
 11
46.9968365904
 21
-65.0234883898
  0
LWPOLYLINE
  5
24A
100
AcDbEntity
  8
262606150
100
AcDbPolyline
 62
253
  6
CONTINUOUS
 90
3
 70
0
 10
46.9968365904
 20
-65.0234883898
 10
46.4193571546
 20
-65.0281045264
 10
44.1445478912
 20
-65.0537614556
  0
LINE
  5
24B
100
AcDbEntity
  8
262606150
100
AcDbLine
 62
253
  6
CONTINUOUS
 10
44.1445478912
 20
-65.0537614556
 11
37.9757655629
 21
-65.0829619209
  0
LINE
  5
24C
100
AcDbEntity
  8
262606150
100
AcDbLine
 62
253
  6
CONTINUOUS
 10
37.9757655629
 20
-65.0829619209
 11
33.5889852685
 21
-65.0945130402
  0
LINE
  5
24D
100
AcDbEntity
  8
262606150
100
AcDbLine
 62
253
  6
CONTINUOUS
 10
33.5889852685
 20
-65.0945130402
 11
29.1437473092
 21
-65.0988088058
  0
LINE
  5
24E
100
AcDbEntity
  8
262606150
100
AcDbLine
 62
7
  6
CONTINUOUS
 10
57.0
 20
-66.0
 11
-57.0
 21
-66.0
  0
LINE
  5
24F
100
AcDbEntity
  8
262606150
100
AcDbLine
 62
253
  6
CONTINUOUS
 10
-36.5293176287
 20
-65.7617200889
 11
-57.0
 21
-65.7702770678
  0
LINE
  5
250
100
AcDbEntity
  8
262606150
100
AcDbLine
 62
253
  6
CONTINUOUS
 10
29.1437473092
 20
-65.0988088058
 11
-28.554330412
 21
-65.0989292687
  0
LINE
  5
251
100
AcDbEntity
  8
262606150
100
AcDbLine
 62
253
  6
CONTINUOUS
 10
-28.554330412
 20
-65.0989292687
 11
-33.2130134617
 21
-65.0951420546
  0
LINE
  5
252
100
AcDbEntity
  8
262606150
100
AcDbLine
 62
253
  6
CONTINUOUS
 10
57.0
 20
-65.7702770678
 11
-36.5293176287
 21
-65.7617200889
  0
LINE
  5
253
100
AcDbEntity
  8
262606150
100
AcDbLine
 62
253
  6
CONTINUOUS
 10
-33.2130134617
 20
-65.0951420546
 11
-37.1413843946
 21
-65.0857746165
  0
LINE
  5
254
100
AcDbEntity
  8
262606150
100
AcDbLine
 62
253
  6
CONTINUOUS
 10
-37.1413843946
 20
-65.0857746165
 11
-40.9679862552
 21
-65.0704907236
  0
LINE
  5
255
100
AcDbEntity
  8
262606150
100
AcDbLine
 62
253
  6
CONTINUOUS
 10
-55.3202913628
 20
-64.9260586166
 11
-55.8037366457
 21
-64.9232504553
  0
LINE
  5
256
100
AcDbEntity
  8
262606150
100
AcDbLine
 62
253
  6
CONTINUOUS
 10
-40.9679862552
 20
-65.0704907236
 11
-44.4073264711
 21
-65.0513220698
  0
LWPOLYLINE
  5
257
100
AcDbEntity
  8
262606150
100
AcDbPolyline
 62
253
  6
CONTINUOUS
 90
3
 70
0
 10
-55.8037366457
 20
-64.9232504553
 10
-55.9156560666
 20
-64.9220363404
 10
-56.0264154559
 20
-64.919632416
  0
LINE
  5
258
100
AcDbEntity
  8
262606150
100
AcDbLine
 62
253
  6
CONTINUOUS
 10
-44.4073264711
 20
-65.0513220698
 11
-47.5187664104
 21
-65.0174938053
  0
LWPOLYLINE
  5
259
100
AcDbEntity
  8
262606150
100
AcDbPolyline
 62
253
  6
CONTINUOUS
 90
3
 70
0
 10
-47.5187664104
 20
-65.0174938053
 10
-49.4539817527
 20
-64.9925390765
 10
-55.3202913628
 20
-64.9260586166
  0
LWPOLYLINE
  5
25A
100
AcDbEntity
  8
262606150
100
AcDbPolyline
 62
253
  6
CONTINUOUS
 90
40
 70
0
 10
-57.0
 20
-65.7702770678
 10
-57.183721975
 20
-65.7643932922
 10
-57.3638693138
 20
-65.7466866416
 10
-57.5397221211
 20
-65.7177799907
 10
-57.7113587038
 20
-65.6781341962
 10
-57.8774601327
 20
-65.6285317
 10
-58.0354432997
 20
-65.5705166556
 10
-58.1843649086
 20
-65.5054867489
 10
-58.324772006
 20
-65.4342454472
 10
-58.4565936822
 20
-65.3578008777
 10
-58.5797516736
 20
-65.277175115
 10
-58.6944409279
 20
-65.1932154931
 10
-58.8010818274
 20
-65.1065521578
 10
-58.8998421769
 20
-65.017955409
 10
-58.9909593971
 20
-64.9281241341
 10
-59.0749589231
 20
-64.8374249783
 10
-59.1520859543
 20
-64.7464481721
 10
-59.2226364972
 20
-64.6557106274
 10
-59.2871693181
 20
-64.5653299016
 10
-59.3459613824
 20
-64.4757211815
 10
-59.3992993461
 20
-64.3872678498
 10
-59.4476892515
 20
-64.2999267874
 10
-59.4913931648
 20
-64.213992235
 10
-59.5306778652
 20
-64.1297311958
 10
-59.5659810048
 20
-64.0469748238
 10
-59.5975330922
 20
-63.9659268144
 10
-59.6255663841
 20
-63.8867681207
 10
-59.65044336
 20
-63.8092337863
 10
-59.6723560207
 20
-63.7334608803
 10
-59.6914958528
 20
-63.6595702428
 10
-59.7081483296
 20
-63.5872288493
 10
-59.7224654886
 20
-63.5165272752
 10
-59.7345980593
 20
-63.4475453973
 10
-59.744757229
 20
-63.37990475
 10
-59.7530564038
 20
-63.3136701069
 10
-59.759609201
 20
-63.2488894554
 10
-59.7645584635
 20
-63.1851406854
 10
-59.7679892043
 20
-63.1223073938
 10
-59.7699651791
 20
-63.060582735
 10
-59.7705635986
 20
-63.0
  0
LINE
  5
25B
100
AcDbEntity
  8
262606150
100
AcDbLine
 62
253
  6
CONTINUOUS
 10
-56.0264154559
 20
-64.919632416
 11
-56.2505595984
 21
-64.9127024842
  0
LINE
  5
25C
100
AcDbEntity
  8
262606150
100
AcDbLine
 62
253
  6
CONTINUOUS
 10
-56.6181865528
 20
-64.8986314545
 11
-57.0370893716
 21
-64.8846239591
  0
LINE
  5
25D
100
AcDbEntity
  8
262606150
100
AcDbLine
 62
253
  6
CONTINUOUS
 10
-56.2505595984
 20
-64.9127024842
 11
-56.6181865528
 21
-64.8986314545
  0
LWPOLYLINE
  5
25E
100
AcDbEntity
  8
262606150
100
AcDbPolyline
 62
253
  6
CONTINUOUS
 90
40
 70
0
 10
-57.0370894582
 20
-64.8846242233
 10
-57.1578300822
 20
-64.8770833999
 10
-57.2762596225
 20
-64.8620884144
 10
-57.3918355814
 20
-64.8400354219
 10
-57.5046118328
 20
-64.8112105469
 10
-57.613757126
 20
-64.776136704
 10
-57.7175898597
 20
-64.7358290439
 10
-57.8155119454
 20
-64.6911818321
 10
-57.9078986239
 20
-64.64269648
 10
-57.9946944936
 20
-64.5910088439
 10
-58.0758478794
 20
-64.5367602596
 10
-58.1515010535
 20
-64.4804890351
 10
-58.2219292354
 20
-64.4225881528
 10
-58.2872412554
 20
-64.3635396213
 10
-58.3475987966
 20
-64.3037863027
 10
-58.4033459708
 20
-64.2435545469
 10
-58.4546402517
 20
-64.183214703
 10
-58.5016705729
 20
-64.1230980398
 10
-58.5447949693
 20
-64.0632814304
 10
-58.58418539
 20
-64.0040332472
 10
-58.6200248565
 20
-63.9455969585
 10
-58.6526460739
 20
-63.8879373139
 10
-58.6822173655
 20
-63.8312406922
 10
-58.7089098352
 20
-63.7756749816
 10
-58.7330123229
 20
-63.7211236784
 10
-58.7546728786
 20
-63.6677163652
 10
-58.7740395661
 20
-63.6155676809
 10
-58.7913521535
 20
-63.5644997916
 10
-58.8067337646
 20
-63.5146003329
 10
-58.8203061684
 20
-63.4659463688
 10
-58.8322593013
 20
-63.4183166119
 10
-58.8426904882
 20
-63.3717691478
 10
-58.8516956222
 20
-63.3263551908
 10
-58.8594170792
 20
-63.281824675
 10
-58.865927199
 20
-63.2382198685
 10
-58.8712978374
 20
-63.1955720925
 10
-58.87562756
 20
-63.1536029413
 10
-58.8789737788
 20
-63.1122343773
 10
-58.8813747746
 20
-63.071592093
 10
-58.8828793634
 20
-63.031697377
  0
LINE
  5
25F
100
AcDbEntity
  8
262606150
100
AcDbLine
 62
253
  6
CONTINUOUS
 10
-58.8895486065
 20
-62.8005520881
 11
-58.9057571318
 21
-62.301616961
  0
LWPOLYLINE
  5
260
100
AcDbEntity
  8
262606150
100
AcDbPolyline
 62
253
  6
CONTINUOUS
 90
5
 70
0
 10
-58.9057571318
 20
-62.301616961
 10
-58.9083365513
 20
-62.212600334
 10
-58.9102048857
 20
-62.1237286272
 10
-58.9109446802
 20
-62.0343063426
 10
-58.9110984725
 20
-61.8516778647
  0
LINE
  5
261
100
AcDbEntity
  8
262606150
100
AcDbLine
 62
253
  6
CONTINUOUS
 10
-58.8828790253
 20
-63.0316972804
 11
-58.8895486065
 21
-62.8005520881
  0
LINE
  5
262
100
AcDbEntity
  8
262606150
100
AcDbLine
 62
253
  6
CONTINUOUS
 10
-58.9110984725
 20
-61.8516778647
 11
-58.9491853277
 21
-54.9886684125
  0
LINE
  5
263
100
AcDbEntity
  8
262606150
100
AcDbLine
 62
253
  6
CONTINUOUS
 10
-58.9491853277
 20
-54.9886684125
 11
-58.978928771
 21
-47.3213802078
  0
LINE
  5
264
100
AcDbEntity
  8
262606150
100
AcDbLine
 62
253
  6
CONTINUOUS
 10
-58.978928771
 20
-47.3213802078
 11
-58.9982300529
 21
-40.7003917683
  0
LINE
  5
265
100
AcDbEntity
  8
262606150
100
AcDbLine
 62
253
  6
CONTINUOUS
 10
-58.9982300529
 20
-40.7003917683
 11
-59.0101501378
 21
-34.2003709053
  0
LINE
  5
266
100
AcDbEntity
  8
262606150
100
AcDbLine
 62
253
  6
CONTINUOUS
 10
-59.0101501378
 20
-34.2003709053
 11
-59.0170478309
 21
-26.0
  0
LINE
  5
267
100
AcDbEntity
  8
262606150
100
AcDbLine
 62
7
  6
CONTINUOUS
 10
-60.0
 20
63.0
 11
-60.0
 21
26.6749773271
  0
LINE
  5
268
100
AcDbEntity
  8
262606150
100
AcDbLine
 62
7
  6
CONTINUOUS
 10
-60.0
 20
19.3250226729
 11
-60.0
 21
-19.3250226729
  0
LINE
  5
269
100
AcDbEntity
  8
262606150
100
AcDbLine
 62
7
  6
CONTINUOUS
 10
-60.0
 20
-26.6749773271
 11
-60.0
 21
-63.0
  0
LINE
  5
26A
100
AcDbEntity
  8
262606150
100
AcDbLine
 62
7
  6
CONTINUOUS
 10
-59.8951844414
 20
26.5
 11
-59.8951844414
 21
19.5
  0
LINE
  5
26B
100
AcDbEntity
  8
262606150
100
AcDbLine
 62
7
  6
CONTINUOUS
 10
-59.8951844414
 20
-26.5
 11
-59.8951844414
 21
-19.5
  0
LINE
  5
26C
100
AcDbEntity
  8
262606150
100
AcDbLine
 62
253
  6
CONTINUOUS
 10
-59.7660290013
 20
42.8684526578
 11
-59.7705635986
 21
63.0
  0
LINE
  5
26D
100
AcDbEntity
  8
262606150
100
AcDbLine
 62
253
  6
CONTINUOUS
 10
-59.017047863
 20
-26.0
 11
-59.0146805136
 21
29.8082151585
  0
LINE
  5
26E
100
AcDbEntity
  8
262606150
100
AcDbLine
 62
253
  6
CONTINUOUS
 10
-59.7705635986
 20
-63.0
 11
-59.7660290013
 21
42.8684526578
  0
LINE
  5
26F
100
AcDbEntity
  8
262606150
100
AcDbLine
 62
253
  6
CONTINUOUS
 10
-59.0146805136
 20
29.8082151585
 11
-59.0030714508
 21
38.4849318889
  0
LINE
  5
270
100
AcDbEntity
  8
262606150
100
AcDbLine
 62
253
  6
CONTINUOUS
 10
-59.0030714508
 20
38.4849318889
 11
-58.9847357326
 21
45.5601619765
  0
LINE
  5
271
100
AcDbEntity
  8
262606150
100
AcDbLine
 62
253
  6
CONTINUOUS
 10
-58.9847357326
 20
45.5601619765
 11
-58.9518140591
 21
54.3827762759
  0
LINE
  5
272
100
AcDbEntity
  8
262606150
100
AcDbLine
 62
253
  6
CONTINUOUS
 10
-58.9114040601
 20
61.8097245121
 11
-58.9105971975
 21
62.0736551599
  0
LINE
  5
273
100
AcDbEntity
  8
262606150
100
AcDbLine
 62
253
  6
CONTINUOUS
 10
-58.9518140591
 20
54.3827762759
 11
-58.9293438149
 21
58.8956811922
  0
LINE
  5
274
100
AcDbEntity
  8
262606150
100
AcDbLine
 62
253
  6
CONTINUOUS
 10
-58.9293438149
 20
58.8956811922
 11
-58.9114040601
 21
61.8097245121
  0
LWPOLYLINE
  5
275
100
AcDbEntity
  8
262606150
100
AcDbPolyline
 62
253
  6
CONTINUOUS
 90
40
 70
0
 10
-59.7705635986
 20
63.0
 10
-59.7699651791
 20
63.060582735
 10
-59.7679892043
 20
63.1223073938
 10
-59.7645584635
 20
63.1851406854
 10
-59.759609201
 20
63.2488894554
 10
-59.7530564038
 20
63.3136701069
 10
-59.744757229
 20
63.37990475
 10
-59.7345980593
 20
63.4475453973
 10
-59.7224654886
 20
63.5165272752
 10
-59.7081483296
 20
63.5872288493
 10
-59.6914958528
 20
63.6595702428
 10
-59.6723560207
 20
63.7334608803
 10
-59.65044336
 20
63.8092337863
 10
-59.6255663841
 20
63.8867681207
 10
-59.5975330922
 20
63.9659268144
 10
-59.5659810048
 20
64.0469748238
 10
-59.5306778652
 20
64.1297311958
 10
-59.4913931647
 20
64.213992235
 10
-59.4476892515
 20
64.2999267874
 10
-59.3992993461
 20
64.3872678498
 10
-59.3459613824
 20
64.4757211815
 10
-59.2871693181
 20
64.5653299016
 10
-59.2226364972
 20
64.6557106274
 10
-59.1520859543
 20
64.7464481721
 10
-59.0749589231
 20
64.8374249783
 10
-58.9909593971
 20
64.9281241341
 10
-58.8998421769
 20
65.017955409
 10
-58.8010818274
 20
65.1065521578
 10
-58.6944409279
 20
65.1932154932
 10
-58.5797516736
 20
65.2771751151
 10
-58.4565936822
 20
65.3578008778
 10
-58.324772006
 20
65.4342454471
 10
-58.1843649086
 20
65.5054867486
 10
-58.0354432996
 20
65.5705166553
 10
-57.8774601327
 20
65.6285317001
 10
-57.7113587038
 20
65.678134197
 10
-57.539722121
 20
65.7177799918
 10
-57.3638693136
 20
65.7466866426
 10
-57.1837219748
 20
65.7643932928
 10
-57.0
 20
65.7702770678
  0
LWPOLYLINE
  5
276
100
AcDbEntity
  8
262606150
100
AcDbPolyline
 62
253
  6
CONTINUOUS
 90
3
 70
0
 10
-58.9105971975
 20
62.0736551599
 10
-58.909732415
 20
62.1592895372
 10
-58.9076932103
 20
62.2447706864
  0
LINE
  5
277
100
AcDbEntity
  8
262606150
100
AcDbLine
 62
253
  6
CONTINUOUS
 10
-58.8924220671
 20
62.7068690195
 11
-58.8828790502
 21
63.0316972875
  0
LINE
  5
278
100
AcDbEntity
  8
262606150
100
AcDbLine
 62
253
  6
CONTINUOUS
 10
-58.9076932103
 20
62.2447706864
 11
-58.8924220671
 21
62.7068690195
  0
LWPOLYLINE
  5
279
100
AcDbEntity
  8
262606150
100
AcDbPolyline
 62
253
  6
CONTINUOUS
 90
40
 70
0
 10
-58.8828793634
 20
63.0316973769
 10
-58.8813747707
 20
63.0715921179
 10
-58.8789737752
 20
63.1122344047
 10
-58.8756275596
 20
63.1536029531
 10
-58.8712978403
 20
63.1955720825
 10
-58.8659272034
 20
63.2382198415
 10
-58.859417085
 20
63.2818246364
 10
-58.8516956305
 20
63.3263551428
 10
-58.8426905005
 20
63.3717690892
 10
-58.8322593187
 20
63.4183165398
 10
-58.8203061917
 20
63.4659462817
 10
-58.8067337948
 20
63.51460023
 10
-58.7913521918
 20
63.5644996729
 10
-58.7740396138
 20
63.6155675462
 10
-58.7546729373
 20
63.667716214
 10
-58.7330123943
 20
63.72112351
 10
-58.7089099211
 20
63.7756747952
 10
-58.682217468
 20
63.8312404874
 10
-58.6526461952
 20
63.8879370904
 10
-58.620024999
 20
63.9455967162
 10
-58.5841855565
 20
64.0040329863
 10
-58.544795163
 20
64.0632811509
 10
-58.5016707969
 20
64.1230977423
 10
-58.4546405088
 20
64.1832143884
 10
-58.403346263
 20
64.2435542165
 10
-58.3475991269
 20
64.3037859581
 10
-58.2872416292
 20
64.3635392645
 10
-58.2219296615
 20
64.422587786
 10
-58.1515015412
 20
64.4804886608
 10
-58.0758484278
 20
64.5367598822
 10
-57.9946950876
 20
64.5910084701
 10
-57.9078992397
 20
64.6426961171
 10
-57.8155125935
 20
64.6911814851
 10
-57.7175906076
 20
64.7358287144
 10
-57.6137580989
 20
64.7761363936
 10
-57.5046130471
 20
64.8112102641
 10
-57.3918368088
 20
64.8400351873
 10
-57.2762603903
 20
64.8620882702
 10
-57.1578301455
 20
64.8770833669
 10
-57.0370894585
 20
64.8846242233
  0
LINE
  5
27A
100
AcDbEntity
  8
262606150
100
AcDbLine
 62
7
  6
CONTINUOUS
 10
-59.8951844414
 20
19.5
 11
-60.0
 21
19.3250226729
  0
LINE
  5
27B
100
AcDbEntity
  8
262606150
100
AcDbLine
 62
253
  6
CONTINUOUS
 10
59.3961196594
 20
-63.0240158728
 11
59.2394252325
 21
-63.0275746993
  0
LINE
  5
27C
100
AcDbEntity
  8
262606150
100
AcDbLine
 62
253
  6
CONTINUOUS
 10
59.2394252325
 20
-63.0275746993
 11
59.0663195063
 21
-63.0301655157
  0
LINE
  5
27D
100
AcDbEntity
  8
262606150
100
AcDbLine
 62
253
  6
CONTINUOUS
 10
59.0663195063
 20
-63.0301655157
 11
58.8828793634
 21
-63.0316973769
  0
LINE
  5
27E
100
AcDbEntity
  8
262606150
100
AcDbLine
 62
253
  6
CONTINUOUS
 10
-60.0
 20
-63.0
 11
-59.7705635986
 21
-63.0
  0
LINE
  5
27F
100
AcDbEntity
  8
262606150
100
AcDbLine
 62
253
  6
CONTINUOUS
 10
60.0
 20
-63.0
 11
59.7705635986
 21
-63.0
  0
LINE
  5
280
100
AcDbEntity
  8
262606150
100
AcDbLine
 62
253
  6
CONTINUOUS
 10
-59.0663189795
 20
-63.0301625859
 11
-58.8828790253
 21
-63.0316972804
  0
LINE
  5
281
100
AcDbEntity
  8
262606150
100
AcDbLine
 62
253
  6
CONTINUOUS
 10
-59.2394245718
 20
-63.027570021
 11
-59.0663189795
 21
-63.0301625859
  0
LINE
  5
282
100
AcDbEntity
  8
262606150
100
AcDbLine
 62
7
  6
CONTINUOUS
 10
-59.8951844414
 20
-19.5
 11
-60.0
 21
-19.3250226729
  0
LINE
  5
283
100
AcDbEntity
  8
262606150
100
AcDbLine
 62
253
  6
CONTINUOUS
 10
-57.0322474764
 20
-65.2404590441
 11
-57.0352860024
 21
-65.0677236993
  0
LINE
  5
284
100
AcDbEntity
  8
262606150
100
AcDbLine
 62
253
  6
CONTINUOUS
 10
-57.0352860024
 20
-65.0677236993
 11
-57.0370894582
 21
-64.8846242233
  0
LINE
  5
285
100
AcDbEntity
  8
262606150
100
AcDbLine
 62
253
  6
CONTINUOUS
 10
-57.0
 20
66.0
 11
-57.0
 21
65.7702770678
  0
LINE
  5
286
100
AcDbEntity
  8
262606150
100
AcDbLine
 62
253
  6
CONTINUOUS
 10
-57.0
 20
-66.0
 11
-57.0
 21
-65.7702770678
  0
LINE
  5
287
100
AcDbEntity
  8
262606150
100
AcDbLine
 62
253
  6
CONTINUOUS
 10
-57.035283725
 20
65.0677262065
 11
-57.0370893831
 21
64.8846239936
  0
LINE
  5
288
100
AcDbEntity
  8
262606150
100
AcDbLine
 62
7
  6
CONTINUOUS
 10
31.630144
 20
-54.800007
 11
31.050122
 21
-54.800015
  0
LINE
  5
289
100
AcDbEntity
  8
262606150
100
AcDbLine
 62
7
  6
CONTINUOUS
 10
29.535039
 20
-54.800007
 11
28.955031
 21
-54.800015
  0
LINE
  5
28A
100
AcDbEntity
  8
262606150
100
AcDbLine
 62
7
  6
CONTINUOUS
 10
36.2
 20
-54.8
 11
35.546695
 21
-54.800007
  0
LINE
  5
28B
100
AcDbEntity
  8
262606150
100
AcDbLine
 62
7
  6
CONTINUOUS
 10
27.246627
 20
-54.800015
 11
26.666605
 21
-54.800022
  0
LINE
  5
28C
100
AcDbEntity
  8
262606150
100
AcDbLine
 62
7
  6
CONTINUOUS
 10
25.348794
 20
-54.800015
 11
24.768751
 21
-54.800022
  0
LINE
  5
28D
100
AcDbEntity
  8
262606150
100
AcDbLine
 62
7
  6
CONTINUOUS
 10
30.663443
 20
-54.800015
 11
30.083421
 21
-54.800015
  0
LINE
  5
28E
100
AcDbEntity
  8
262606150
100
AcDbLine
 62
7
  6
CONTINUOUS
 10
28.406656
 20
-54.800015
 11
27.826634
 21
-54.800015
  0
LINE
  5
28F
100
AcDbEntity
  8
262606150
100
AcDbLine
 62
7
  6
CONTINUOUS
 10
34.459144
 20
-54.800007
 11
33.879115
 21
-54.800007
  0
LINE
  5
290
100
AcDbEntity
  8
262606150
100
AcDbLine
 62
7
  6
CONTINUOUS
 10
33.492437
 20
-54.800015
 11
32.912408
 21
-54.800007
  0
LINE
  5
291
100
AcDbEntity
  8
262606150
100
AcDbLine
 62
7
  6
CONTINUOUS
 10
32.729302
 20
-54.229679
 11
31.813257
 21
-54.229679
  0
LINE
  5
292
100
AcDbEntity
  8
262606150
100
AcDbLine
 62
7
  6
CONTINUOUS
 10
31.990179
 20
-53.678657
 11
32.552373
 21
-53.678657
  0
LINE
  5
293
100
AcDbEntity
  8
262606150
100
AcDbLine
 62
7
  6
CONTINUOUS
 10
34.965441
 20
-53.678657
 11
34.45921
 21
-53.67865
  0
LINE
  5
294
100
AcDbEntity
  8
262606150
100
AcDbLine
 62
7
  6
CONTINUOUS
 10
34.451148
 20
-53.142128
 11
35.156824
 21
-53.142128
  0
LWPOLYLINE
  5
295
100
AcDbEntity
  8
262606150
100
AcDbPolyline
 62
253
  6
CONTINUOUS
 90
3
 70
0
 10
-34.377205284
 20
-48.2039634743
 10
-34.2939501205
 20
-48.2022226933
 10
-34.2145765473
 20
-48.2014418717
  0
LINE
  5
296
100
AcDbEntity
  8
262606150
100
AcDbLine
 62
253
  6
CONTINUOUS
 10
33.4325466063
 20
-51.6487436788
 11
32.121109336
 21
-51.6634600632
  0
LINE
  5
297
100
AcDbEntity
  8
262606150
100
AcDbLine
 62
253
  6
CONTINUOUS
 10
35.3340409773
 20
-48.1970379124
 11
37.0142892501
 21
-48.179888334
  0
LINE
  5
298
100
AcDbEntity
  8
262606150
100
AcDbLine
 62
253
  6
CONTINUOUS
 10
32.121109336
 20
-51.6634600632
 11
30.3130778763
 21
-51.6757086133
  0
LINE
  5
299
100
AcDbEntity
  8
262606150
100
AcDbLine
 62
253
  6
CONTINUOUS
 10
30.3130778763
 20
-51.6757086133
 11
27.7715164658
 21
-51.6838359544
  0
LINE
  5
29A
100
AcDbEntity
  8
262606150
100
AcDbLine
 62
253
  6
CONTINUOUS
 10
27.7715164658
 20
-51.6838359544
 11
22.9999999995
 21
-51.6905438774
  0
LINE
  5
29B
100
AcDbEntity
  8
262606150
100
AcDbLine
 62
7
  6
CONTINUOUS
 10
35.156824
 20
-52.436398
 11
34.45114
 21
-52.436398
  0
LINE
  5
29C
100
AcDbEntity
  8
262606150
100
AcDbLine
 62
7
  6
CONTINUOUS
 10
23.837619
 20
-51.899884
 11
24.417648
 21
-51.899884
  0
LINE
  5
29D
100
AcDbEntity
  8
262606150
100
AcDbLine
 62
7
  6
CONTINUOUS
 10
25.699905
 20
-51.899884
 11
26.279934
 21
-51.899884
  0
LINE
  5
29E
100
AcDbEntity
  8
262606150
100
AcDbLine
 62
7
  6
CONTINUOUS
 10
26.666612
 20
-51.899884
 11
27.246634
 21
-51.899884
  0
LINE
  5
29F
100
AcDbEntity
  8
262606150
100
AcDbLine
 62
7
  6
CONTINUOUS
 10
27.826634
 20
-51.899884
 11
28.703471
 21
-51.899884
  0
LINE
  5
2A0
100
AcDbEntity
  8
262606150
100
AcDbLine
 62
7
  6
CONTINUOUS
 10
29.786606
 20
-51.899884
 11
30.663443
 21
-51.899884
  0
LINE
  5
2A1
100
AcDbEntity
  8
262606150
100
AcDbLine
 62
7
  6
CONTINUOUS
 10
31.981247
 20
-51.899877
 11
32.561297
 21
-51.899877
  0
LINE
  5
2A2
100
AcDbEntity
  8
262606150
100
AcDbLine
 62
7
  6
CONTINUOUS
 10
33.879115
 20
-51.899877
 11
35.23733
 21
-51.899877
  0
LINE
  5
2A3
100
AcDbEntity
  8
262606150
100
AcDbLine
 62
7
  6
CONTINUOUS
 10
33.45
 20
-48.5
 11
-33.45
 21
-48.5
  0
LINE
  5
2A4
100
AcDbEntity
  8
262606150
100
AcDbLine
 62
253
  6
CONTINUOUS
 10
-23.0
 20
-50.1000641592
 11
-33.4469525872
 21
-50.0988160238
  0
LWPOLYLINE
  5
2A5
100
AcDbEntity
  8
262606150
100
AcDbPolyline
 62
253
  6
CONTINUOUS
 90
3
 70
0
 10
-34.2145765473
 20
-48.2014418717
 10
-33.7541770997
 20
-48.2001280583
 10
-33.7499999525
 20
-48.2001688814
  0
LINE
  5
2A6
100
AcDbEntity
  8
262606150
100
AcDbLine
 62
253
  6
CONTINUOUS
 10
23.0
 20
-51.6905396945
 11
-23.3115139572
 21
-51.6899477321
  0
LINE
  5
2A7
100
AcDbEntity
  8
262606150
100
AcDbLine
 62
253
  6
CONTINUOUS
 10
-23.3115139572
 20
-51.6899477321
 11
-28.1358450777
 21
-51.6830825129
  0
LINE
  5
2A8
100
AcDbEntity
  8
262606150
100
AcDbLine
 62
253
  6
CONTINUOUS
 10
33.4469092039
 20
-50.0988160342
 11
-23.0
 21
-50.100065169
  0
LINE
  5
2A9
100
AcDbEntity
  8
262606150
100
AcDbLine
 62
253
  6
CONTINUOUS
 10
-28.1358450777
 20
-51.6830825129
 11
-30.5821386218
 21
-51.6743283178
  0
LINE
  5
2AA
100
AcDbEntity
  8
262606150
100
AcDbLine
 62
253
  6
CONTINUOUS
 10
33.7541771331
 20
-48.2000331836
 11
33.75
 21
-48.2000000112
  0
LINE
  5
2AB
100
AcDbEntity
  8
262606150
100
AcDbLine
 62
253
  6
CONTINUOUS
 10
-30.5821386218
 20
-51.6743283178
 11
-32.303569676
 21
-51.6617591097
  0
LINE
  5
2AC
100
AcDbEntity
  8
262606150
100
AcDbLine
 62
253
  6
CONTINUOUS
 10
-35.3340431284
 20
-48.1969881765
 11
-37.01428988
 21
-48.179792826
  0
LINE
  5
2AD
100
AcDbEntity
  8
262606150
100
AcDbLine
 62
253
  6
CONTINUOUS
 10
-32.303569676
 20
-51.6617591097
 11
-33.4326307759
 21
-51.6487424873
  0
LWPOLYLINE
  5
2AE
100
AcDbEntity
  8
262606150
100
AcDbPolyline
 62
253
  6
CONTINUOUS
 90
46
 70
0
 10
-33.4469526299
 20
-50.0988198489
 10
-33.5178305598
 20
-50.0977283902
 10
-33.5863082838
 20
-50.0940357038
 10
-33.6522964171
 20
-50.0879972895
 10
-33.7155078946
 20
-50.079871707
 10
-33.7761045392
 20
-50.0699067821
 10
-33.8346911999
 20
-50.0582690513
 10
-33.8914796841
 20
-50.0450600245
 10
-33.9461974032
 20
-50.0304945934
 10
-33.9987428756
 20
-50.0148483831
 10
-34.0490194776
 20
-49.9983431381
 10
-34.0971392718
 20
-49.981078846
 10
-34.1433290813
 20
-49.9631300243
 10
-34.1873639223
 20
-49.9447308718
 10
-34.2295094911
 20
-49.9259049875
 10
-34.2706988442
 20
-49.9063182714
 10
-34.3109901992
 20
-49.8859936225
 10
-34.3503152301
 20
-49.8649970054
 10
-34.3893594113
 20
-49.8429405068
 10
-34.4278667923
 20
-49.8199612336
 10
-34.4660360559
 20
-49.7959260545
 10
-34.505139968
 20
-49.7698975639
 10
-34.5454495006
 20
-49.741471543
 10
-34.5864578464
 20
-49.710837831
 10
-34.6281890724
 20
-49.6778430577
 10
-34.6705456167
 20
-49.6423486334
 10
-34.7133332273
 20
-49.6042794703
 10
-34.7564134292
 20
-49.563566986
 10
-34.7995390614
 20
-49.5202082267
 10
-34.8426113528
 20
-49.4740182408
 10
-34.885673473
 20
-49.424636288
 10
-34.9284926958
 20
-49.3719531324
 10
-34.970814011
 20
-49.3158773093
 10
-35.0125663492
 20
-49.256040432
 10
-35.0534372924
 20
-49.1923314226
 10
-35.093080785
 20
-49.1246897712
 10
-35.1312843757
 20
-49.0528043694
 10
-35.1676261361
 20
-48.9766803977
 10
-35.2016867884
 20
-48.8962319774
 10
-35.2331325008
 20
-48.8110110074
 10
-35.2614190936
 20
-48.7211152769
 10
-35.2859873151
 20
-48.6265348284
 10
-35.3062764973
 20
-48.5266930559
 10
-35.3215601368
 20
-48.4215286199
 10
-35.3310703892
 20
-48.3115175238
 10
-35.3340463684
 20
-48.1969880431
  0
LWPOLYLINE
  5
2AF
100
AcDbEntity
  8
262606150
100
AcDbPolyline
 62
253
  6
CONTINUOUS
 90
4
 70
0
 10
34.3771926752
 20
-48.2037912634
 10
34.2939524732
 20
-48.2021637176
 10
34.2145813183
 20
-48.2014144588
 10
33.7541771331
 20
-48.2000331836
  0
LINE
  5
2B0
100
AcDbEntity
  8
262606150
100
AcDbLine
 62
253
  6
CONTINUOUS
 10
34.7337273106
 20
-48.2134867203
 11
34.3771926752
 21
-48.2037912634
  0
LWPOLYLINE
  5
2B1
100
AcDbEntity
  8
262606150
100
AcDbPolyline
 62
253
  6
CONTINUOUS
 90
46
 70
0
 10
-33.432630755
 20
-51.6487420359
 10
-33.5696043804
 20
-51.6445151724
 10
-33.7020188282
 20
-51.635430562
 10
-33.8298592628
 20
-51.6219751439
 10
-33.9527259258
 20
-51.6043955201
 10
-34.0701867884
 20
-51.5835889657
 10
-34.182372377
 20
-51.5609295249
 10
-34.2892669254
 20
-51.53736005
 10
-34.3908370492
 20
-51.5129386699
 10
-34.4873053908
 20
-51.4876007043
 10
-34.578701567
 20
-51.4619495268
 10
-34.6657753469
 20
-51.4359394681
 10
-34.7496137213
 20
-51.4084380355
 10
-34.8301674649
 20
-51.3792700492
 10
-34.9077244362
 20
-51.3489442554
 10
-34.9836580346
 20
-51.317205441
 10
-35.0576699514
 20
-51.2845326762
 10
-35.1300044021
 20
-51.2506216425
 10
-35.2029452898
 20
-51.213651708
 10
-35.2768785589
 20
-51.1726806287
 10
-35.3519167426
 20
-51.1279652543
 10
-35.4293522722
 20
-51.0794898322
 10
-35.5088569381
 20
-51.0275521887
 10
-35.5887625444
 20
-50.9725565509
 10
-35.6688302017
 20
-50.9142124005
 10
-35.7490384078
 20
-50.8524295283
 10
-35.829530896
 20
-50.7867666763
 10
-35.9103109635
 20
-50.7162965098
 10
-35.9911179909
 20
-50.6406555361
 10
-36.0720175213
 20
-50.5594368761
 10
-36.1531732224
 20
-50.4717440456
 10
-36.234139261
 20
-50.3773295239
 10
-36.314297332
 20
-50.2761502149
 10
-36.3933467344
 20
-50.1676298839
 10
-36.4706275594
 20
-50.0517080939
 10
-36.5454892678
 20
-49.9282888913
 10
-36.6175457267
 20
-49.796622498
 10
-36.6858003178
 20
-49.6565519619
 10
-36.7497790384
 20
-49.5078058061
 10
-36.8096320978
 20
-49.349276166
 10
-36.8645059697
 20
-49.1808031109
 10
-36.9129586174
 20
-49.0021382074
 10
-36.9537822086
 20
-48.8121636315
 10
-36.9854038695
 20
-48.6110112294
 10
-37.0061138277
 20
-48.399902752
 10
-37.0142896617
 20
-48.179792782
  0
LWPOLYLINE
  5
2B2
100
AcDbEntity
  8
262606150
100
AcDbPolyline
 62
253
  6
CONTINUOUS
 90
10
 70
0
 10
-35.3340463684
 20
-48.1969880431
 10
-35.2573450271
 20
-48.1934464748
 10
-35.1764553732
 20
-48.1929387567
 10
-35.0920655286
 20
-48.1950892901
 10
-35.0048999892
 20
-48.2011244498
 10
-34.9156380392
 20
-48.2087943692
 10
-34.8249795965
 20
-48.213321499
 10
-34.7337230874
 20
-48.2132834501
 10
-34.6426177434
 20
-48.2112312466
 10
-34.377205284
 20
-48.2039634743
  0
LWPOLYLINE
  5
2B3
100
AcDbEntity
  8
262606150
100
AcDbPolyline
 62
253
  6
CONTINUOUS
 90
8
 70
0
 10
35.3340465873
 20
-48.1970378653
 10
35.2573348599
 20
-48.1934547434
 10
35.1764398281
 20
-48.1929623335
 10
35.0920505613
 20
-48.1951774127
 10
35.0048976953
 20
-48.2013932701
 10
34.9156533235
 20
-48.2092680171
 10
34.8250009734
 20
-48.2138159616
 10
34.7337273106
 20
-48.2134867203
  0
LINE
  5
2B4
100
AcDbEntity
  8
262606150
100
AcDbLine
 62
253
  6
CONTINUOUS
 10
-37.01428988
 20
-48.179792826
 11
-37.0216878821
 21
-45.7292558571
  0
LINE
  5
2B5
100
AcDbEntity
  8
262606150
100
AcDbLine
 62
253
  6
CONTINUOUS
 10
-37.0216878821
 20
-45.7292558571
 11
-37.0291479542
 21
-36.1941295181
  0
LINE
  5
2B6
100
AcDbEntity
  8
262606150
100
AcDbLine
 62
253
  6
CONTINUOUS
 10
-37.0291479542
 20
-36.1941295181
 11
-37.0325447246
 21
-26.0000000001
  0
LINE
  5
2B7
100
AcDbEntity
  8
262606150
100
AcDbLine
 62
253
  6
CONTINUOUS
 10
-35.3252450805
 20
26.0
 11
-35.3340430493
 21
48.1970378032
  0
LINE
  5
2B8
100
AcDbEntity
  8
262606150
100
AcDbLine
 62
253
  6
CONTINUOUS
 10
-37.0325435254
 20
-26.0
 11
-37.0325435254
 21
-3.7999964334
  0
LINE
  5
2B9
100
AcDbEntity
  8
262606150
100
AcDbLine
 62
253
  6
CONTINUOUS
 10
-35.3252453864
 20
3.8
 11
-35.3252453864
 21
26.0
  0
LINE
  5
2BA
100
AcDbEntity
  8
262606150
100
AcDbLine
 62
253
  6
CONTINUOUS
 10
-37.0325435254
 20
3.8
 11
-37.0292573956
 21
35.93389615
  0
LINE
  5
2BB
100
AcDbEntity
  8
262606150
100
AcDbLine
 62
253
  6
CONTINUOUS
 10
-37.0292573956
 20
35.93389615
 11
-37.0234735549
 21
44.333450082
  0
LINE
  5
2BC
100
AcDbEntity
  8
262606150
100
AcDbLine
 62
253
  6
CONTINUOUS
 10
-35.3340431284
 20
-48.1969881765
 11
-35.3252453864
 21
-3.7999964334
  0
LINE
  5
2BD
100
AcDbEntity
  8
262606150
100
AcDbLine
 62
253
  6
CONTINUOUS
 10
-37.0234735549
 20
44.333450082
 11
-37.0183481504
 21
47.1549120333
  0
LINE
  5
2BE
100
AcDbEntity
  8
262606150
100
AcDbLine
 62
253
  6
CONTINUOUS
 10
-37.0183481504
 20
47.1549120333
 11
-37.0142892904
 21
48.1798883421
  0
LWPOLYLINE
  5
2BF
100
AcDbEntity
  8
262606150
100
AcDbPolyline
 62
253
  6
CONTINUOUS
 90
52
 70
0
 10
-35.3340465873
 20
48.1970378653
 10
-35.3315478362
 20
48.3028372505
 10
-35.3234674182
 20
48.4045165301
 10
-35.3104504364
 20
48.501815853
 10
-35.2931578048
 20
48.5942880659
 10
-35.272195664
 20
48.6820518523
 10
-35.2479909935
 20
48.7657685115
 10
-35.2209742255
 20
48.8454975596
 10
-35.1916121466
 20
48.9210911608
 10
-35.1602024847
 20
48.9929225136
 10
-35.1271036095
 20
49.0610490006
 10
-35.0926576968
 20
49.1254650636
 10
-35.0570366771
 20
49.186452094
 10
-35.0205168023
 20
49.2440702081
 10
-34.9833727139
 20
49.2983812753
 10
-34.9457026855
 20
49.3496583617
 10
-34.9077393859
 20
49.3979577433
 10
-34.8696756838
 20
49.4433799262
 10
-34.831487263
 20
49.4862420993
 10
-34.7933204456
 20
49.5266342893
 10
-34.7553396834
 20
49.5646195231
 10
-34.7174958784
 20
49.6004464304
 10
-34.679814818
 20
49.6342795312
 10
-34.6424970676
 20
49.6660925178
 10
-34.6057393702
 20
49.695842676
 10
-34.5697536519
 20
49.7235321339
 10
-34.5345381269
 20
49.7493299011
 10
-34.4999584186
 20
49.7734362006
 10
-34.4663706069
 20
49.7957165159
 10
-34.4335762623
 20
49.8164544358
 10
-34.4005478854
 20
49.8363961589
 10
-34.3670719864
 20
49.8556780003
 10
-34.3333989414
 20
49.8741605854
 10
-34.2991365557
 20
49.8920866764
 10
-34.264357344
 20
49.9094128566
 10
-34.2290025602
 20
49.9261434808
 10
-34.192450169
 20
49.9425297008
 10
-34.1546491895
 20
49.9585237542
 10
-34.1156333074
 20
49.9740468923
 10
-34.0748775242
 20
49.9892283212
 10
-34.032137006
 20
50.004053009
 10
-33.9876223565
 20
50.0183123177
 10
-33.9414887865
 20
50.0318160951
 10
-33.8938491777
 20
50.0444437688
 10
-33.844598558
 20
50.0561081745
 10
-33.7935805525
 20
50.0666629143
 10
-33.7409320268
 20
50.0759519781
 10
-33.6865620763
 20
50.0838781574
 10
-33.629981527
 20
50.0903197043
 10
-33.5710560011
 20
50.0950900694
 10
-33.5100105795
 20
50.0979886539
 10
-33.4469090489
 20
50.0988196844
  0
LWPOLYLINE
  5
2C0
100
AcDbEntity
  8
262606150
100
AcDbPolyline
 62
253
  6
CONTINUOUS
 90
37
 70
0
 10
-37.03254362
 20
-3.7999964314
 10
-37.0261569973
 20
-3.5832510955
 10
-37.006983623
 20
-3.3681495851
 10
-36.975280627
 20
-3.1554399736
 10
-36.9311695575
 20
-2.9450339827
 10
-36.875005106
 20
-2.73844169
 10
-36.8079229046
 20
-2.5386400696
 10
-36.7307672977
 20
-2.3461620915
 10
-36.6442944607
 20
-2.1613875407
 10
-36.5503274665
 20
-1.9866773425
 10
-36.4502770884
 20
-1.8225447842
 10
-36.344954367
 20
-1.6684859186
 10
-36.2356830513
 20
-1.5249712254
 10
-36.1237150677
 20
-1.3920411993
 10
-36.0097882917
 20
-1.269110056
 10
-35.8944141863
 20
-1.155598516
 10
-35.7783952005
 20
-1.051199295
 10
-35.6623991479
 20
-0.955501712
 10
-35.5465646799
 20
-0.8678267182
 10
-35.4314297433
 20
-0.7878152039
 10
-35.3174737593
 20
-0.7150811554
 10
-35.2046072062
 20
-0.6490096559
 10
-35.0931833124
 20
-0.5892866476
 10
-34.9835509935
 20
-0.5355548589
 10
-34.8755131793
 20
-0.4872426601
 10
-34.7693057913
 20
-0.4440892836
 10
-34.6652141885
 20
-0.4057987578
 10
-34.56303235
 20
-0.3718384451
 10
-34.4629643013
 20
-0.3420098851
 10
-34.3652731147
 20
-0.3160603411
 10
-34.2698224763
 20
-0.293455073
 10
-34.176868185
 20
-0.2739272171
 10
-34.086645572
 20
-0.2573501515
 10
-33.9988357553
 20
-0.2434352392
 10
-33.9133558361
 20
-0.2319619521
 10
-33.8303952649
 20
-0.22275276
 10
-33.7499991091
 20
-0.2156167712
  0
LWPOLYLINE
  5
2C1
100
AcDbEntity
  8
262606150
100
AcDbPolyline
 62
253
  6
CONTINUOUS
 90
37
 70
0
 10
-35.3252453864
 20
-3.7999964334
 10
-35.3217984904
 20
-3.686699663
 10
-35.3115408141
 20
-3.5742196528
 10
-35.2945822244
 20
-3.4629615622
 10
-35.2709482331
 20
-3.3529074126
 10
-35.2408536244
 20
-3.2448636238
 10
-35.2049448862
 20
-3.1403879229
 10
-35.1636366835
 20
-3.0397667195
 10
-35.1173315975
 20
-2.9432071216
 10
-35.0670685975
 20
-2.8519339671
 10
-35.0135831654
 20
-2.7662305357
 10
-34.9572920026
 20
-2.68584471
 10
-34.898951465
 20
-2.6110037485
 10
-34.8392254441
 20
-2.5417306867
 10
-34.7784984462
 20
-2.4777295589
 10
-34.7170800703
 20
-2.418686141
 10
-34.6553977182
 20
-2.3644327716
 10
-34.5938151687
 20
-2.3147608883
 10
-34.5324583327
 20
-2.269313608
 10
-34.471626856
 20
-2.2278898894
 10
-34.4115978896
 20
-2.1902879267
 10
-34.3523911801
 20
-2.1561880574
 10
-34.2942259357
 20
-2.125398396
 10
-34.2372945764
 20
-2.0977227334
 10
-34.1815229201
 20
-2.0728802049
 10
-34.1270793689
 20
-2.0507059577
 10
-34.074082055
 20
-2.0310170929
 10
-34.02234004
 20
-2.0135583382
 10
-33.9719741464
 20
-1.9981983063
 10
-33.9230555547
 20
-1.9847811699
 10
-33.8752854857
 20
-1.9730752135
 10
-33.8286962541
 20
-1.962968964
 10
-33.7833775606
 20
-1.9543587638
 10
-33.7390926687
 20
-1.9470781391
 10
-33.6957865131
 20
-1.9410251746
 10
-33.6535916807
 20
-1.9361392849
 10
-33.612540993
 20
-1.9323388466
  0
LWPOLYLINE
  5
2C2
100
AcDbEntity
  8
262606150
100
AcDbPolyline
 62
253
  6
CONTINUOUS
 90
52
 70
0
 10
-37.0142892501
 20
48.179888334
 10
-37.0073067702
 20
48.3831613046
 10
-36.9895931422
 20
48.5782265235
 10
-36.9624912273
 20
48.7644042401
 10
-36.927318536
 20
48.9407584224
 10
-36.8853967986
 20
49.1073412525
 10
-36.8379125252
 20
49.2651353714
 10
-36.786202005
 20
49.4141277324
 10
-36.7309897609
 20
49.55421088
 10
-36.6720569408
 20
49.68652139
 10
-36.6097340282
 20
49.8114883774
 10
-36.5447811639
 20
49.9294040488
 10
-36.4774615681
 20
50.040914713
 10
-36.408315579
 20
50.1460243633
 10
-36.3379752912
 20
50.2446472709
 10
-36.2667222485
 20
50.3372389857
 10
-36.1949670981
 20
50.4239489303
 10
-36.1230336667
 20
50.5050337865
 10
-36.0509700292
 20
50.5810959425
 10
-35.9792022082
 20
50.6521607032
 10
-35.9080728618
 20
50.718335119
 10
-35.8373433507
 20
50.7803339567
 10
-35.7667201906
 20
50.8385965098
 10
-35.6963266672
 20
50.8934300291
 10
-35.6262809448
 20
50.9454660277
 10
-35.5566701435
 20
50.9949295243
 10
-35.4875138662
 20
51.0418166054
 10
-35.4189914299
 20
51.0862296055
 10
-35.3524123874
 20
51.1278038819
 10
-35.2879437692
 20
51.1663849135
 10
-35.2243736436
 20
51.2020927823
 10
-35.1614427414
 20
51.2348208089
 10
-35.0990764178
 20
51.2651534516
 10
-35.0358942423
 20
51.2943059249
 10
-34.9717923427
 20
51.3224819947
 10
-34.9067761719
 20
51.3494860335
 10
-34.8396855567
 20
51.3756923046
 10
-34.7704466419
 20
51.4009176734
 10
-34.6992030148
 20
51.4250979554
 10
-34.6250738541
 20
51.4486500344
 10
-34.5476462219
 20
51.4713104455
 10
-34.466909067
 20
51.4930775141
 10
-34.3824183147
 20
51.5146951039
 10
-34.2937965219
 20
51.5362789453
 10
-34.2009229343
 20
51.5572348534
 10
-34.1036409289
 20
51.5771917879
 10
-34.0021876172
 20
51.5959129629
 10
-33.8966240936
 20
51.6128527912
 10
-33.78666222
 20
51.6270774189
 10
-33.6724927994
 20
51.6379655874
 10
-33.5544488111
 20
51.6453127527
 10
-33.4325465924
 20
51.6487433851
  0
LINE
  5
2C3
100
AcDbEntity
  8
262606150
100
AcDbLine
 62
7
  6
CONTINUOUS
 10
-60.0
 20
-26.6749773271
 11
-59.8951844414
 21
-26.5
  0
LINE
  5
2C4
100
AcDbEntity
  8
262606150
100
AcDbLine
 62
7
  6
CONTINUOUS
 10
-60.0
 20
26.6749773271
 11
-59.8951844414
 21
26.5
  0
LINE
  5
2C5
100
AcDbEntity
  8
262606150
100
AcDbLine
 62
253
  6
CONTINUOUS
 10
-33.6833960196
 20
-1.0172805048
 11
-33.7499999353
 21
-0.213658621
  0
LWPOLYLINE
  5
2C6
100
AcDbEntity
  8
262606150
100
AcDbPolyline
 62
253
  6
CONTINUOUS
 90
3
 70
0
 10
-33.6125408962
 20
-1.9323400858
 10
-33.625376798
 20
-1.7619369359
 10
-33.6833960196
 20
-1.0172805048
  0
LWPOLYLINE
  5
2C7
100
AcDbEntity
  8
262606150
100
AcDbPolyline
 62
253
  6
CONTINUOUS
 90
11
 70
0
 10
-33.4469090489
 20
50.0988196844
 10
-33.4433732285
 20
50.0224298097
 10
-33.4428450285
 20
49.9416417957
 10
-33.4449561966
 20
49.8571522779
 10
-33.4508745975
 20
49.7696936679
 10
-33.4584276688
 20
49.6799639433
 10
-33.4630103674
 20
49.5886882378
 10
-33.463330209
 20
49.4966761161
 10
-33.4617198957
 20
49.4047035894
 10
-33.4595898696
 20
49.313498946
 10
-33.4542851187
 20
49.1364074618
  0
LWPOLYLINE
  5
2C8
100
AcDbEntity
  8
262606150
100
AcDbPolyline
 62
253
  6
CONTINUOUS
 90
3
 70
0
 10
-33.4542851187
 20
49.1364074618
 10
-33.4523672617
 20
49.05212361
 10
-33.4515282592
 20
48.9716940798
  0
LINE
  5
2C9
100
AcDbEntity
  8
262606150
100
AcDbLine
 62
253
  6
CONTINUOUS
 10
-33.4469526777
 20
-50.0988190671
 11
-33.432630755
 21
-51.6487420359
  0
LINE
  5
2CA
100
AcDbEntity
  8
262606150
100
AcDbLine
 62
7
  6
CONTINUOUS
 10
-33.75
 20
-48.2
 11
-33.75
 21
-3.8
  0
LINE
  5
2CB
100
AcDbEntity
  8
262606150
100
AcDbLine
 62
253
  6
CONTINUOUS
 10
-33.75
 20
-0.2133163937
 11
-33.75
 21
0.2133338686
  0
LINE
  5
2CC
100
AcDbEntity
  8
262606150
100
AcDbLine
 62
7
  6
CONTINUOUS
 10
-33.75
 20
3.8
 11
-33.75
 21
48.2
  0
LINE
  5
2CD
100
AcDbEntity
  8
262606150
100
AcDbLine
 62
253
  6
CONTINUOUS
 10
-33.45
 20
0.2011356697
 11
-33.45
 21
3.5
  0
LINE
  5
2CE
100
AcDbEntity
  8
262606150
100
AcDbLine
 62
253
  6
CONTINUOUS
 10
-33.45
 20
-0.2011338864
 11
-33.4500017833
 21
-3.5
  0
LWPOLYLINE
  5
2CF
100
AcDbEntity
  8
262606150
100
AcDbPolyline
 62
253
  6
CONTINUOUS
 90
3
 70
0
 10
-33.4515282592
 20
48.9716940798
 10
-33.4501341482
 20
48.5042470839
 10
-33.4501764603
 20
48.4999999481
  0
LINE
  5
2D0
100
AcDbEntity
  8
262606150
100
AcDbLine
 62
253
  6
CONTINUOUS
 10
-33.4500349515
 20
-48.504247113
 11
-33.4500000118
 21
-48.5
  0
LINE
  5
2D1
100
AcDbEntity
  8
262606150
100
AcDbLine
 62
253
  6
CONTINUOUS
 10
-33.4469092039
 20
50.0988160342
 11
-33.4325466063
 21
51.6487436788
  0
LINE
  5
2D2
100
AcDbEntity
  8
262606150
100
AcDbLine
 62
253
  6
CONTINUOUS
 10
-33.4635219218
 20
-49.4966797161
 11
-33.4592602023
 21
-49.3134806918
  0
LWPOLYLINE
  5
2D3
100
AcDbEntity
  8
262606150
100
AcDbPolyline
 62
253
  6
CONTINUOUS
 90
5
 70
0
 10
-33.4592602023
 20
-49.3134806918
 10
-33.45413907
 20
-49.1364015601
 10
-33.4523156072
 20
-49.0521245433
 10
-33.4515032551
 20
-48.9716961267
 10
-33.4500349515
 20
-48.504247113
  0
LWPOLYLINE
  5
2D4
100
AcDbEntity
  8
262606150
100
AcDbPolyline
 62
253
  6
CONTINUOUS
 90
8
 70
0
 10
-33.4469526299
 20
-50.0988198489
 10
-33.4433809307
 20
-50.0224233979
 10
-33.4428671506
 20
-49.9416318952
 10
-33.4450363437
 20
-49.8571425874
 10
-33.4511148406
 20
-49.7696912468
 10
-33.4588494589
 20
-49.6799713255
 10
-33.4634529089
 20
-49.5886993509
 10
-33.4635219218
 20
-49.4966797161
  0
LINE
  5
2D5
100
AcDbEntity
  8
262606150
100
AcDbLine
 62
253
  6
CONTINUOUS
 10
-33.6125405968
 20
1.9323434618
 11
-33.6678551557
 21
1.2111901141
  0
LWPOLYLINE
  5
2D6
100
AcDbEntity
  8
262606150
100
AcDbPolyline
 62
253
  6
CONTINUOUS
 90
3
 70
0
 10
-33.6678551557
 20
1.2111901141
 10
-33.7327169427
 20
0.4169049075
 10
-33.75
 20
0.213661412
  0
LINE
  5
2D7
100
AcDbEntity
  8
262606150
100
AcDbLine
 62
253
  6
CONTINUOUS
 10
-23.0
 20
-65.7614232783
 11
-23.0001830606
 21
-65.7514881436
  0
LINE
  5
2D8
100
AcDbEntity
  8
262606150
100
AcDbLine
 62
253
  6
CONTINUOUS
 10
-23.0001830606
 20
-65.7514881436
 11
-23.0003728617
 21
-65.7032531692
  0
LINE
  5
2D9
100
AcDbEntity
  8
262606150
100
AcDbLine
 62
253
  6
CONTINUOUS
 10
-23.0
 20
48.5
 11
-23.0
 21
65.7614232783
  0
LINE
  5
2DA
100
AcDbEntity
  8
262606150
100
AcDbLine
 62
253
  6
CONTINUOUS
 10
-23.0
 20
-48.5
 11
-23.0
 21
-65.0968546529
  0
LINE
  5
2DB
100
AcDbEntity
  8
262606150
100
AcDbLine
 62
253
  6
CONTINUOUS
 10
-33.75
 20
-26.0
 11
-59.7649150982
 21
-26.0
  0
LWPOLYLINE
  5
2DC
100
AcDbEntity
  8
262606150
100
AcDbPolyline
 62
253
  6
CONTINUOUS
 90
4
 70
0
 10
59.7649150982
 20
-26.0
 10
59.7538650458
 20
-25.9998501882
 10
59.7318510397
 20
-25.999748872
 10
33.75
 20
-26.0
  0
LINE
  5
2DD
100
AcDbEntity
  8
262606150
100
AcDbLine
 62
253
  6
CONTINUOUS
 10
-23.0003728617
 20
-65.7032531692
 11
-23.0
 21
-65.0968546529
  0
LINE
  5
2DE
100
AcDbEntity
  8
262606150
100
AcDbLine
 62
253
  6
CONTINUOUS
 10
-33.75
 20
-3.799997325
 11
-37.0325435254
 21
-3.7999964334
  0
LINE
  5
2DF
100
AcDbEntity
  8
262606150
100
AcDbLine
 62
253
  6
CONTINUOUS
 10
37.0325435254
 20
-3.8
 11
33.75
 21
-3.7999973256
  0
LINE
  5
2E0
100
AcDbEntity
  8
262606150
100
AcDbLine
 62
7
  6
CONTINUOUS
 10
-33.45
 20
-3.5
 11
33.45
 21
-3.5
  0
LINE
  5
2E1
100
AcDbEntity
  8
262606150
100
AcDbLine
 62
253
  6
CONTINUOUS
 10
-33.45
 20
-1.9252835193
 11
33.45
 21
-1.9252839174
  0
LINE
  5
2E2
100
AcDbEntity
  8
262606150
100
AcDbLine
 62
253
  6
CONTINUOUS
 10
-33.45
 20
-0.2011338864
 11
33.45
 21
-0.2011356697
  0
LINE
  5
2E3
100
AcDbEntity
  8
262606150
100
AcDbLine
 62
253
  6
CONTINUOUS
 10
33.45
 20
0.2011338868
 11
-33.45
 21
0.2011356697
  0
LWPOLYLINE
  5
2E4
100
AcDbEntity
  8
262606150
100
AcDbPolyline
 62
253
  6
CONTINUOUS
 90
37
 70
0
 10
-33.7499990417
 20
0.2156211345
 10
-33.8327997768
 20
0.2229976329
 10
-33.9181538636
 20
0.2325569082
 10
-34.0060134453
 20
0.2444954456
 10
-34.0961773174
 20
0.2589921732
 10
-34.1887307467
 20
0.2762769629
 10
-34.2839932577
 20
0.2966529504
 10
-34.3817198293
 20
0.3202485922
 10
-34.4816217107
 20
0.3473311459
 10
-34.5838030969
 20
0.3784473064
 10
-34.6879928719
 20
0.4138555225
 10
-34.7939930324
 20
0.4537524063
 10
-34.9020193108
 20
0.4986765165
 10
-35.0117737514
 20
0.5489267548
 10
-35.12301824
 20
0.6047706289
 10
-35.2359753116
 20
0.6668007357
 10
-35.350300098
 20
0.7353937874
 10
-35.4655970974
 20
0.8108588228
 10
-35.5819080862
 20
0.8937970756
 10
-35.6987605883
 20
0.9846167765
 10
-35.8155586609
 20
1.0836537708
 10
-35.9320289563
 20
1.1914899634
 10
-36.0475279646
 20
1.3085613921
 10
-36.161193508
 20
1.4351069711
 10
-36.2722977919
 20
1.5714232722
 10
-36.3801692409
 20
1.7181036691
 10
-36.4835442904
 20
1.874983589
 10
-36.5808842645
 20
2.0410339034
 10
-36.6715037558
 20
2.2166500089
 10
-36.7541547595
 20
2.4012298728
 10
-36.8270357712
 20
2.591822941
 10
-36.8896456897
 20
2.787901905
 10
-36.9414529285
 20
2.9889466867
 10
-36.9815748022
 20
3.1916370933
 10
-37.0099895227
 20
3.3943641666
 10
-37.0269480597
 20
3.5973708187
 10
-37.0325435922
 20
3.7999999995
  0
LWPOLYLINE
  5
2E5
100
AcDbEntity
  8
262606150
100
AcDbPolyline
 62
253
  6
CONTINUOUS
 90
37
 70
0
 10
-33.6125406997
 20
1.9323421552
 10
-33.6548234627
 20
1.9362708254
 10
-33.6982348956
 20
1.9413420839
 10
-33.7427397845
 20
1.9476390967
 10
-33.7881945755
 20
1.9552219167
 10
-33.8346600786
 20
1.9641951063
 10
-33.8823948202
 20
1.9747336708
 10
-33.9313154483
 20
1.9869479643
 10
-33.9813749149
 20
2.000949974
 10
-34.0328608894
 20
2.0169731334
 10
-34.0856943608
 20
2.0351756461
 10
-34.1397513432
 20
2.0556922951
 10
-34.1952175836
 20
2.0787821206
 10
-34.2519631771
 20
2.1046283726
 10
-34.3098169285
 20
2.1334003583
 10
-34.3688589898
 20
2.1653909313
 10
-34.4288967412
 20
2.2008053049
 10
-34.4896895065
 20
2.2398328307
 10
-34.5511897175
 20
2.2827874593
 10
-34.6131231984
 20
2.3298818904
 10
-34.6751614886
 20
2.3813049037
 10
-34.7371080596
 20
2.4373625648
 10
-34.7986139054
 20
2.498274742
 10
-34.8592201137
 20
2.5641744292
 10
-34.9185007522
 20
2.6352298066
 10
-34.9761078929
 20
2.7117397114
 10
-35.0313715998
 20
2.793614813
 10
-35.083418309
 20
2.8803352178
 10
-35.1318965804
 20
2.972096494
 10
-35.1761602148
 20
3.0685680201
 10
-35.2151849721
 20
3.1682135014
 10
-35.2487001157
 20
3.2707488724
 10
-35.276457791
 20
3.3758934919
 10
-35.2979562876
 20
3.4819076996
 10
-35.3131610341
 20
3.5879365488
 10
-35.3222345178
 20
3.6940854521
 10
-35.3252453864
 20
3.8
  0
LINE
  5
2E6
100
AcDbEntity
  8
262606150
100
AcDbLine
 62
253
  6
CONTINUOUS
 10
33.45
 20
1.9252835194
 11
-33.45
 21
1.9252839174
  0
LINE
  5
2E7
100
AcDbEntity
  8
262606150
100
AcDbLine
 62
7
  6
CONTINUOUS
 10
33.45
 20
3.5
 11
-33.45
 21
3.5
  0
LINE
  5
2E8
100
AcDbEntity
  8
262606150
100
AcDbLine
 62
253
  6
CONTINUOUS
 10
-33.75
 20
3.799997325
 11
-37.0325435254
 21
3.8
  0
LINE
  5
2E9
100
AcDbEntity
  8
262606150
100
AcDbLine
 62
253
  6
CONTINUOUS
 10
37.0325435254
 20
3.7999964341
 11
33.75
 21
3.7999973256
  0
LWPOLYLINE
  5
2EA
100
AcDbEntity
  8
262606150
100
AcDbPolyline
 62
253
  6
CONTINUOUS
 90
37
 70
0
 10
33.7499990417
 20
-0.2156211345
 10
33.8327997821
 20
-0.2229976334
 10
33.9181538744
 20
-0.2325569095
 10
34.0060134616
 20
-0.244495448
 10
34.0961773393
 20
-0.2589921769
 10
34.1887307742
 20
-0.2762769684
 10
34.2839932909
 20
-0.296652958
 10
34.3817198682
 20
-0.3202486022
 10
34.4816217551
 20
-0.3473311587
 10
34.5838031467
 20
-0.3784473224
 10
34.6879929268
 20
-0.4138555422
 10
34.7939930922
 20
-0.45375243
 10
34.9020193752
 20
-0.4986765446
 10
35.0117738202
 20
-0.5489267878
 10
35.1230183129
 20
-0.6047706671
 10
35.2359753884
 20
-0.6668007798
 10
35.3503001786
 20
-0.7353938379
 10
35.4655971816
 20
-0.8108588803
 10
35.5819081735
 20
-0.8937971406
 10
35.6987606782
 20
-0.9846168495
 10
35.8155587529
 20
-1.0836538523
 10
35.9320290492
 20
-1.1914900533
 10
36.0475280576
 20
-1.3085614908
 10
36.1611935999
 20
-1.4351070784
 10
36.2722978809
 20
-1.571423387
 10
36.3801693252
 20
-1.71810379
 10
36.4835443685
 20
-1.8749837144
 10
36.5808843349
 20
-2.0410340311
 10
36.6715038173
 20
-2.2166501365
 10
36.7541548114
 20
-2.4012299976
 10
36.8270358129
 20
-2.5918230599
 10
36.8896457213
 20
-2.7879020148
 10
36.9414529507
 20
-2.9889467841
 10
36.9815748158
 20
-3.1916371735
 10
37.0099895291
 20
-3.3943642246
 10
37.0269480614
 20
-3.5973708498
 10
37.0325435922
 20
-3.7999999995
  0
LWPOLYLINE
  5
2EB
100
AcDbEntity
  8
262606150
100
AcDbPolyline
 62
253
  6
CONTINUOUS
 90
37
 70
0
 10
33.6125406996
 20
-1.9323421552
 10
33.6548234654
 20
-1.9362708257
 10
33.6982349011
 20
-1.9413420846
 10
33.7427397927
 20
-1.947639098
 10
33.7881945864
 20
-1.9552219187
 10
33.8346600922
 20
-1.9641951091
 10
33.8823948365
 20
-1.9747336746
 10
33.9313154675
 20
-1.9869479693
 10
33.9813749372
 20
-2.0009499806
 10
34.0328609146
 20
-2.0169731417
 10
34.0856943888
 20
-2.0351756562
 10
34.1397513739
 20
-2.0556923073
 10
34.1952176169
 20
-2.0787821351
 10
34.2519632128
 20
-2.1046283896
 10
34.3098169665
 20
-2.133400378
 10
34.3688590301
 20
-2.165390954
 10
34.4288967836
 20
-2.200805331
 10
34.4896895509
 20
-2.2398328604
 10
34.5511897637
 20
-2.2827874929
 10
34.6131232461
 20
-2.3298819282
 10
34.6751615374
 20
-2.3813049459
 10
34.737108109
 20
-2.4373626115
 10
34.7986139549
 20
-2.4982747933
 10
34.8592201627
 20
-2.564174485
 10
34.9185007996
 20
-2.6352298664
 10
34.9761079378
 20
-2.7117397744
 10
35.0313716415
 20
-2.7936148784
 10
35.0834183466
 20
-2.8803352845
 10
35.1318966133
 20
-2.9720965607
 10
35.1761602425
 20
-3.0685680853
 10
35.2151849944
 20
-3.1682135636
 10
35.2487001326
 20
-3.2707489298
 10
35.2764578029
 20
-3.3758935429
 10
35.2979562949
 20
-3.4819077416
 10
35.3131610376
 20
-3.5879365791
 10
35.3222345188
 20
-3.6940854684
 10
35.3252453864
 20
-3.8
  0
LINE
  5
2EC
100
AcDbEntity
  8
262606150
100
AcDbLine
 62
7
  6
CONTINUOUS
 10
35.546695
 20
-54.800007
 11
34.965441
 21
-53.678657
  0
LINE
  5
2ED
100
AcDbEntity
  8
262606150
100
AcDbLine
 62
7
  6
CONTINUOUS
 10
35.5825957907
 20
-53.6089026669
 11
36.2
 21
-54.8
  0
LINE
  5
2EE
100
AcDbEntity
  8
262606150
100
AcDbLine
 62
7
  6
CONTINUOUS
 10
24.768751
 20
-54.800022
 11
23.837619
 21
-51.899884
  0
LINE
  5
2EF
100
AcDbEntity
  8
262606150
100
AcDbLine
 62
7
  6
CONTINUOUS
 10
24.417648
 20
-51.899884
 11
25.05878
 21
-53.89678
  0
LINE
  5
2F0
100
AcDbEntity
  8
262606150
100
AcDbLine
 62
7
  6
CONTINUOUS
 10
32.552373
 20
-53.678657
 11
32.271268
 21
-52.803118
  0
LINE
  5
2F1
100
AcDbEntity
  8
262606150
100
AcDbLine
 62
7
  6
CONTINUOUS
 10
32.912408
 20
-54.800007
 11
32.729302
 21
-54.229679
  0
LINE
  5
2F2
100
AcDbEntity
  8
262606150
100
AcDbLine
 62
7
  6
CONTINUOUS
 10
32.561297
 20
-51.899877
 11
33.492437
 21
-54.800015
  0
LINE
  5
2F3
100
AcDbEntity
  8
262606150
100
AcDbLine
 62
7
  6
CONTINUOUS
 10
28.955031
 20
-54.800015
 11
28.406656
 21
-52.887573
  0
LINE
  5
2F4
100
AcDbEntity
  8
262606150
100
AcDbLine
 62
7
  6
CONTINUOUS
 10
28.703471
 20
-51.899884
 11
29.245039
 21
-53.788552
  0
LINE
  5
2F5
100
AcDbEntity
  8
262606150
100
AcDbLine
 62
253
  6
CONTINUOUS
 10
23.0
 20
65.7614232783
 11
23.0001830606
 21
65.7514881436
  0
LINE
  5
2F6
100
AcDbEntity
  8
262606150
100
AcDbLine
 62
253
  6
CONTINUOUS
 10
23.0001830606
 20
65.7514881436
 11
23.0003728617
 21
65.7032531692
  0
LINE
  5
2F7
100
AcDbEntity
  8
262606150
100
AcDbLine
 62
253
  6
CONTINUOUS
 10
23.0
 20
-48.5
 11
23.0
 21
-65.7614232783
  0
LINE
  5
2F8
100
AcDbEntity
  8
262606150
100
AcDbLine
 62
253
  6
CONTINUOUS
 10
23.0003728617
 20
65.7032531692
 11
23.0
 21
48.5
  0
LINE
  5
2F9
100
AcDbEntity
  8
262606150
100
AcDbLine
 62
7
  6
CONTINUOUS
 10
26.666605
 20
-54.800022
 11
26.666612
 21
-51.899884
  0
LINE
  5
2FA
100
AcDbEntity
  8
262606150
100
AcDbLine
 62
7
  6
CONTINUOUS
 10
27.246634
 20
-51.899884
 11
27.246627
 21
-54.800015
  0
LINE
  5
2FB
100
AcDbEntity
  8
262606150
100
AcDbLine
 62
7
  6
CONTINUOUS
 10
27.826634
 20
-54.800015
 11
27.826634
 21
-51.899884
  0
LINE
  5
2FC
100
AcDbEntity
  8
262606150
100
AcDbLine
 62
7
  6
CONTINUOUS
 10
28.406656
 20
-52.887573
 11
28.406656
 21
-54.800015
  0
LINE
  5
2FD
100
AcDbEntity
  8
262606150
100
AcDbLine
 62
7
  6
CONTINUOUS
 10
30.083421
 20
-54.800015
 11
30.083414
 21
-52.887573
  0
LINE
  5
2FE
100
AcDbEntity
  8
262606150
100
AcDbLine
 62
253
  6
CONTINUOUS
 10
33.75
 20
26.0
 11
59.7649150982
 21
26.0
  0
LWPOLYLINE
  5
2FF
100
AcDbEntity
  8
262606150
100
AcDbPolyline
 62
253
  6
CONTINUOUS
 90
4
 70
0
 10
-59.7649150982
 20
26.0
 10
-59.7538650458
 20
25.9998501882
 10
-59.7318510397
 20
25.999748872
 10
-33.75
 20
26.0
  0
LINE
  5
300
100
AcDbEntity
  8
262606150
100
AcDbLine
 62
253
  6
CONTINUOUS
 10
33.6833960197
 20
1.0172805056
 11
33.7499999353
 21
0.2136586216
  0
LWPOLYLINE
  5
301
100
AcDbEntity
  8
262606150
100
AcDbPolyline
 62
253
  6
CONTINUOUS
 90
3
 70
0
 10
33.6125408963
 20
1.9323400865
 10
33.6253767981
 20
1.7619369367
 10
33.6833960197
 20
1.0172805056
  0
LWPOLYLINE
  5
302
100
AcDbEntity
  8
262606150
100
AcDbPolyline
 62
253
  6
CONTINUOUS
 90
11
 70
0
 10
33.4469090489
 20
-50.0988196844
 10
33.4433732285
 20
-50.0224298097
 10
33.4428450285
 20
-49.9416417957
 10
33.4449561966
 20
-49.8571522779
 10
33.4508745975
 20
-49.7696936679
 10
33.4584276688
 20
-49.6799639433
 10
33.4630103674
 20
-49.5886882378
 10
33.463330209
 20
-49.4966761161
 10
33.4617198957
 20
-49.4047035894
 10
33.4595898696
 20
-49.313498946
 10
33.4542851187
 20
-49.1364074618
  0
LWPOLYLINE
  5
303
100
AcDbEntity
  8
262606150
100
AcDbPolyline
 62
253
  6
CONTINUOUS
 90
3
 70
0
 10
33.4542851187
 20
-49.1364074618
 10
33.4523672617
 20
-49.05212361
 10
33.4515282592
 20
-48.9716940798
  0
LINE
  5
304
100
AcDbEntity
  8
262606150
100
AcDbLine
 62
253
  6
CONTINUOUS
 10
33.4469526777
 20
50.0988190671
 11
33.432630755
 21
51.6487420359
  0
LWPOLYLINE
  5
305
100
AcDbEntity
  8
262606150
100
AcDbPolyline
 62
253
  6
CONTINUOUS
 90
4
 70
0
 10
33.4515282592
 20
-48.9716940798
 10
33.4501164353
 20
-48.5169526112
 10
33.4501341482
 20
-48.5042470839
 10
33.4501764603
 20
-48.4999999481
  0
LINE
  5
306
100
AcDbEntity
  8
262606150
100
AcDbLine
 62
253
  6
CONTINUOUS
 10
35.3252450805
 20
-26.0
 11
35.3340430493
 21
-48.1970378032
  0
LINE
  5
307
100
AcDbEntity
  8
262606150
100
AcDbLine
 62
7
  6
CONTINUOUS
 10
30.663443
 20
-51.899884
 11
30.663443
 21
-54.800015
  0
LINE
  5
308
100
AcDbEntity
  8
262606150
100
AcDbLine
 62
253
  6
CONTINUOUS
 10
33.4500017829
 20
3.5
 11
33.45
 21
0.2011338868
  0
LINE
  5
309
100
AcDbEntity
  8
262606150
100
AcDbLine
 62
253
  6
CONTINUOUS
 10
33.45
 20
-3.5
 11
33.45
 21
-0.2011356697
  0
LINE
  5
30A
100
AcDbEntity
  8
262606150
100
AcDbLine
 62
7
  6
CONTINUOUS
 10
33.75
 20
48.2
 11
33.75
 21
3.8
  0
LINE
  5
30B
100
AcDbEntity
  8
262606150
100
AcDbLine
 62
253
  6
CONTINUOUS
 10
33.75
 20
0.2133163943
 11
33.75
 21
-0.2133338686
  0
LINE
  5
30C
100
AcDbEntity
  8
262606150
100
AcDbLine
 62
7
  6
CONTINUOUS
 10
33.75
 20
-3.8
 11
33.75
 21
-48.2
  0
LINE
  5
30D
100
AcDbEntity
  8
262606150
100
AcDbLine
 62
7
  6
CONTINUOUS
 10
33.879115
 20
-54.800007
 11
33.879115
 21
-51.899877
  0
LINE
  5
30E
100
AcDbEntity
  8
262606150
100
AcDbLine
 62
7
  6
CONTINUOUS
 10
34.45114
 20
-52.436398
 11
34.451148
 21
-53.142128
  0
LINE
  5
30F
100
AcDbEntity
  8
262606150
100
AcDbLine
 62
253
  6
CONTINUOUS
 10
35.3252453864
 20
-3.8
 11
35.3252453864
 21
-26.0
  0
LINE
  5
310
100
AcDbEntity
  8
262606150
100
AcDbLine
 62
7
  6
CONTINUOUS
 10
34.45921
 20
-53.67865
 11
34.459144
 21
-54.800007
  0
LINE
  5
311
100
AcDbEntity
  8
262606150
100
AcDbLine
 62
253
  6
CONTINUOUS
 10
35.3340431284
 20
48.1969881765
 11
35.3252453864
 21
3.7999964341
  0
LINE
  5
312
100
AcDbEntity
  8
262606150
100
AcDbLine
 62
253
  6
CONTINUOUS
 10
33.4500349515
 20
48.504247113
 11
33.4500000118
 21
48.5
  0
LINE
  5
313
100
AcDbEntity
  8
262606150
100
AcDbLine
 62
253
  6
CONTINUOUS
 10
33.4469092039
 20
-50.0988160342
 11
33.4325466063
 21
-51.6487436788
  0
LWPOLYLINE
  5
314
100
AcDbEntity
  8
262606150
100
AcDbPolyline
 62
253
  6
CONTINUOUS
 90
52
 70
0
 10
35.3340465873
 20
-48.1970378653
 10
35.3315478376
 20
-48.3028372246
 10
35.3234674235
 20
-48.4045164812
 10
35.3104504475
 20
-48.5018157843
 10
35.2931578229
 20
-48.5942879808
 10
35.27219569
 20
-48.6820517539
 10
35.2479910277
 20
-48.7657684027
 10
35.2209742679
 20
-48.845497443
 10
35.1916121969
 20
-48.9210910389
 10
35.1602025428
 20
-48.9929223879
 10
35.127103675
 20
-49.0610488723
 10
35.0926577694
 20
-49.125464934
 10
35.0570367559
 20
-49.1864519644
 10
35.0205168868
 20
-49.2440700799
 10
34.9833728031
 20
-49.2983811496
 10
34.9457027786
 20
-49.3496582393
 10
34.907739482
 20
-49.397957625
 10
34.8696757819
 20
-49.4433798127
 10
34.8314873624
 20
-49.4862419911
 10
34.7933205452
 20
-49.5266341869
 10
34.7553397824
 20
-49.5646194268
 10
34.717495976
 20
-49.6004463404
 10
34.6798149138
 20
-49.6342794475
 10
34.6424971609
 20
-49.6660924403
 10
34.6057394597
 20
-49.6958426053
 10
34.5697537359
 20
-49.7235320709
 10
34.5345382039
 20
-49.7493298462
 10
34.4999584889
 20
-49.7734361529
 10
34.4663706716
 20
-49.795716474
 10
34.4335763217
 20
-49.8164543991
 10
34.4005479392
 20
-49.8363961272
 10
34.3670720341
 20
-49.8556779735
 10
34.3333989828
 20
-49.8741605632
 10
34.2991365909
 20
-49.8920866584
 10
34.2643573731
 20
-49.9094128425
 10
34.2290025833
 20
-49.9261434702
 10
34.1924501861
 20
-49.9425296933
 10
34.1546492005
 20
-49.9585237497
 10
34.1156333123
 20
-49.9740468905
 10
34.0748775236
 20
-49.9892283214
 10
34.0321370004
 20
-50.0040530109
 10
33.9876223466
 20
-50.0183123207
 10
33.9414887738
 20
-50.0318160986
 10
33.8938491647
 20
-50.0444437721
 10
33.8445985463
 20
-50.0561081771
 10
33.7935805416
 20
-50.0666629164
 10
33.740932015
 20
-50.0759519801
 10
33.6865620631
 20
-50.0838781592
 10
33.6299815141
 20
-50.0903197056
 10
33.5710559908
 20
-50.0950900701
 10
33.5100105735
 20
-50.0979886541
 10
33.4469090489
 20
-50.0988196844
  0
LINE
  5
315
100
AcDbEntity
  8
262606150
100
AcDbLine
 62
253
  6
CONTINUOUS
 10
33.4635219218
 20
49.4966797161
 11
33.4592602023
 21
49.3134806918
  0
LWPOLYLINE
  5
316
100
AcDbEntity
  8
262606150
100
AcDbPolyline
 62
253
  6
CONTINUOUS
 90
5
 70
0
 10
33.4592602023
 20
49.3134806918
 10
33.45413907
 20
49.1364015601
 10
33.4523156072
 20
49.0521245433
 10
33.4515032551
 20
48.9716961267
 10
33.4500349515
 20
48.504247113
  0
LWPOLYLINE
  5
317
100
AcDbEntity
  8
262606150
100
AcDbPolyline
 62
253
  6
CONTINUOUS
 90
37
 70
0
 10
35.3252453864
 20
3.7999964341
 10
35.3217984896
 20
3.6866996507
 10
35.3115408111
 20
3.5742196297
 10
35.2945822185
 20
3.4629615305
 10
35.2709482236
 20
3.352907375
 10
35.2408536113
 20
3.2448635824
 10
35.2049448694
 20
3.1403878792
 10
35.1636366631
 20
3.0397666745
 10
35.1173315739
 20
2.9432070765
 10
35.067068571
 20
2.8519339227
 10
35.0135831364
 20
2.7662304927
 10
34.9572919718
 20
2.6858446692
 10
34.8989514328
 20
2.6110037101
 10
34.8392254113
 20
2.5417306512
 10
34.7784984132
 20
2.4777295265
 10
34.7170800376
 20
2.4186861117
 10
34.6553976859
 20
2.3644327452
 10
34.5938151372
 20
2.3147608647
 10
34.5324583022
 20
2.269313587
 10
34.4716268265
 20
2.227889871
 10
34.4115978615
 20
2.1902879106
 10
34.3523911534
 20
2.1561880434
 10
34.2942259104
 20
2.1253983839
 10
34.2372945527
 20
2.0977227232
 10
34.181522898
 20
2.0728801963
 10
34.1270793486
 20
2.0507059505
 10
34.0740820366
 20
2.0310170871
 10
34.0223400235
 20
2.0135583336
 10
33.9719741319
 20
1.9981983028
 10
33.9230555422
 20
1.9847811674
 10
33.8752854751
 20
1.9730752119
 10
33.8286962453
 20
1.962968963
 10
33.7833775535
 20
1.9543587633
 10
33.7390926633
 20
1.947078139
 10
33.6957865095
 20
1.9410251749
 10
33.6535916789
 20
1.9361392855
 10
33.612540993
 20
1.9323388473
  0
LWPOLYLINE
  5
318
100
AcDbEntity
  8
262606150
100
AcDbPolyline
 62
253
  6
CONTINUOUS
 90
8
 70
0
 10
33.4469526299
 20
50.0988198489
 10
33.4433809307
 20
50.0224233979
 10
33.4428671506
 20
49.9416318952
 10
33.4450363437
 20
49.8571425874
 10
33.4511148406
 20
49.7696912468
 10
33.4588494589
 20
49.6799713255
 10
33.4634529089
 20
49.5886993509
 10
33.4635219218
 20
49.4966797161
  0
LINE
  5
319
100
AcDbEntity
  8
262606150
100
AcDbLine
 62
253
  6
CONTINUOUS
 10
33.6125405968
 20
-1.9323434618
 11
33.6678551557
 21
-1.2111901141
  0
LWPOLYLINE
  5
31A
100
AcDbEntity
  8
262606150
100
AcDbPolyline
 62
253
  6
CONTINUOUS
 90
3
 70
0
 10
33.6678551557
 20
-1.2111901141
 10
33.7327169427
 20
-0.4169049075
 10
33.75
 20
-0.213661412
  0
LINE
  5
31B
100
AcDbEntity
  8
262606150
100
AcDbLine
 62
253
  6
CONTINUOUS
 10
37.01428988
 20
48.179792826
 11
37.0219685859
 21
45.5543999764
  0
LINE
  5
31C
100
AcDbEntity
  8
262606150
100
AcDbLine
 62
253
  6
CONTINUOUS
 10
37.0219685859
 20
45.5543999764
 11
37.030758432
 21
31.6100843716
  0
LINE
  5
31D
100
AcDbEntity
  8
262606150
100
AcDbLine
 62
253
  6
CONTINUOUS
 10
37.030758432
 20
31.6100843716
 11
37.0325435254
 21
3.7999964341
  0
LINE
  5
31E
100
AcDbEntity
  8
262606150
100
AcDbLine
 62
253
  6
CONTINUOUS
 10
37.0325435254
 20
-3.8
 11
37.0298096609
 21
-34.5103988003
  0
LINE
  5
31F
100
AcDbEntity
  8
262606150
100
AcDbLine
 62
253
  6
CONTINUOUS
 10
37.0298096609
 20
-34.5103988003
 11
37.0229433165
 21
-44.8149590392
  0
LINE
  5
320
100
AcDbEntity
  8
262606150
100
AcDbLine
 62
253
  6
CONTINUOUS
 10
37.0229433165
 20
-44.8149590392
 11
37.0164741794
 21
-47.6733006621
  0
LINE
  5
321
100
AcDbEntity
  8
262606150
100
AcDbLine
 62
253
  6
CONTINUOUS
 10
37.0164741794
 20
-47.6733006621
 11
37.0142892904
 21
-48.1798883421
  0
LWPOLYLINE
  5
322
100
AcDbEntity
  8
262606150
100
AcDbPolyline
 62
253
  6
CONTINUOUS
 90
37
 70
0
 10
37.03254362
 20
3.7999964321
 10
37.0261569959
 20
3.5832510713
 10
37.0069836176
 20
3.3681495401
 10
36.9752806158
 20
3.1554399122
 10
36.9311695398
 20
2.9450339098
 10
36.8750050816
 20
2.7384416102
 10
36.8079228733
 20
2.5386399852
 10
36.7307672596
 20
2.3461620046
 10
36.6442944164
 20
2.1613874535
 10
36.5503274168
 20
1.9866772566
 10
36.4502770342
 20
1.822544701
 10
36.3449543093
 20
1.6684858395
 10
36.235682991
 20
1.5249711509
 10
36.123715006
 20
1.3920411303
 10
36.0097882297
 20
1.269109993
 10
35.8944141246
 20
1.1555984588
 10
35.7783951397
 20
1.0511992434
 10
35.6623990884
 20
0.9555016658
 10
35.5465646222
 20
0.867826677
 10
35.4314296876
 20
0.7878151676
 10
35.3174737057
 20
0.7150811234
 10
35.2046071552
 20
0.649009628
 10
35.0931832639
 20
0.5892866235
 10
34.9835509477
 20
0.5355548382
 10
34.8755131364
 20
0.4872426426
 10
34.7693057517
 20
0.444089269
 10
34.6652141524
 20
0.405798746
 10
34.5630323173
 20
0.3718384356
 10
34.4629642722
 20
0.3420098776
 10
34.3652730892
 20
0.3160603354
 10
34.2698224546
 20
0.2934550689
 10
34.176868167
 20
0.2739272143
 10
34.0866455578
 20
0.2573501498
 10
33.9988357446
 20
0.2434352384
 10
33.913355829
 20
0.231961952
 10
33.8303952614
 20
0.2227527604
 10
33.7499991091
 20
0.215616772
  0
LWPOLYLINE
  5
323
100
AcDbEntity
  8
262606150
100
AcDbPolyline
 62
253
  6
CONTINUOUS
 90
52
 70
0
 10
37.0142892501
 20
-48.179888334
 10
37.0073067736
 20
-48.3831612561
 10
36.9895931538
 20
-48.5782264309
 10
36.9624912506
 20
-48.7644041093
 10
36.9273185722
 20
-48.9407582617
 10
36.8853968482
 20
-49.1073410704
 10
36.8379125893
 20
-49.2651351723
 10
36.7862020847
 20
-49.4141275187
 10
36.7309898564
 20
-49.5542106541
 10
36.6720570514
 20
-49.686521156
 10
36.6097341526
 20
-49.8114881398
 10
36.5447813008
 20
-49.9294038116
 10
36.4774617167
 20
-50.0409144775
 10
36.4083157384
 20
-50.1460241309
 10
36.3379754599
 20
-50.2446470435
 10
36.2667224246
 20
-50.3372387652
 10
36.1949672796
 20
-50.4239487186
 10
36.1230338516
 20
-50.505033585
 10
36.0509702161
 20
-50.5810957516
 10
35.9792023955
 20
-50.6521605236
 10
35.9080730479
 20
-50.7183349512
 10
35.8373435342
 20
-50.7803338007
 10
35.7667203709
 20
-50.8385963647
 10
35.6963268439
 20
-50.8934298945
 10
35.6262811162
 20
-50.9454659034
 10
35.5566703066
 20
-50.994929411
 10
35.4875140188
 20
-51.0418165033
 10
35.418991571
 20
-51.086229515
 10
35.3524125154
 20
-51.1278038038
 10
35.2879438823
 20
-51.1663848486
 10
35.2243737421
 20
-51.2020927293
 10
35.1614428283
 20
-51.2348207649
 10
35.0990764949
 20
-51.2651534146
 10
35.0358943091
 20
-51.2943058943
 10
34.971792397
 20
-51.3224819714
 10
34.906776213
 20
-51.3494860171
 10
34.8396855863
 20
-51.3756922939
 10
34.7704466622
 20
-51.4009176665
 10
34.6992030263
 20
-51.4250979513
 10
34.6250738556
 20
-51.4486500333
 10
34.5476462134
 20
-51.4713104475
 10
34.4669090501
 20
-51.4930775186
 10
34.3824182929
 20
-51.5146951093
 10
34.2937964971
 20
-51.536278951
 10
34.2009229068
 20
-51.5572348594
 10
34.1036409
 20
-51.5771917939
 10
34.0021875897
 20
-51.5959129681
 10
33.8966240694
 20
-51.6128527947
 10
33.7866621997
 20
-51.6270774209
 10
33.6724927827
 20
-51.6379655883
 10
33.554448801
 20
-51.645312753
 10
33.4325465924
 20
-51.6487433851
  0
LINE
  5
324
100
AcDbEntity
  8
262606150
100
AcDbLine
 62
7
  6
CONTINUOUS
 10
25.05878
 20
-53.89678
 11
25.699905
 21
-51.899884
  0
LINE
  5
325
100
AcDbEntity
  8
262606150
100
AcDbLine
 62
7
  6
CONTINUOUS
 10
26.279934
 20
-51.899884
 11
25.348794
 21
-54.800015
  0
LINE
  5
326
100
AcDbEntity
  8
262606150
100
AcDbLine
 62
7
  6
CONTINUOUS
 10
60.0
 20
26.6749773271
 11
59.8951844414
 21
26.5
  0
LINE
  5
327
100
AcDbEntity
  8
262606150
100
AcDbLine
 62
7
  6
CONTINUOUS
 10
60.0
 20
-26.6749773271
 11
59.8951844414
 21
-26.5
  0
LINE
  5
328
100
AcDbEntity
  8
262606150
100
AcDbLine
 62
7
  6
CONTINUOUS
 10
29.245039
 20
-53.788552
 11
29.786606
 21
-51.899884
  0
LINE
  5
329
100
AcDbEntity
  8
262606150
100
AcDbLine
 62
7
  6
CONTINUOUS
 10
30.083414
 20
-52.887573
 11
29.535039
 21
-54.800007
  0
LINE
  5
32A
100
AcDbEntity
  8
262606150
100
AcDbLine
 62
7
  6
CONTINUOUS
 10
31.050122
 20
-54.800015
 11
31.981247
 21
-51.899877
  0
LINE
  5
32B
100
AcDbEntity
  8
262606150
100
AcDbLine
 62
7
  6
CONTINUOUS
 10
32.271268
 20
-52.803118
 11
31.990179
 21
-53.678657
  0
LINE
  5
32C
100
AcDbEntity
  8
262606150
100
AcDbLine
 62
7
  6
CONTINUOUS
 10
31.813257
 20
-54.229679
 11
31.630144
 21
-54.800007
  0
LWPOLYLINE
  5
32D
100
AcDbEntity
  8
262606150
100
AcDbPolyline
 62
253
  6
CONTINUOUS
 90
10
 70
0
 10
35.3340463684
 20
48.1969880431
 10
35.2573450271
 20
48.1934464748
 10
35.1764553732
 20
48.1929387567
 10
35.0920655286
 20
48.1950892901
 10
35.0048999892
 20
48.2011244498
 10
34.9156380392
 20
48.2087943692
 10
34.8249795965
 20
48.213321499
 10
34.7337230874
 20
48.2132834501
 10
34.6426177434
 20
48.2112312466
 10
34.377205284
 20
48.2039634743
  0
LWPOLYLINE
  5
32E
100
AcDbEntity
  8
262606150
100
AcDbPolyline
 62
253
  6
CONTINUOUS
 90
3
 70
0
 10
34.377205284
 20
48.2039634743
 10
34.2939501205
 20
48.2022226933
 10
34.2145765473
 20
48.2014418717
  0
LWPOLYLINE
  5
32F
100
AcDbEntity
  8
262606150
100
AcDbPolyline
 62
253
  6
CONTINUOUS
 90
4
 70
0
 10
34.2145765473
 20
48.2014418717
 10
33.7666738397
 20
48.2001107185
 10
33.7541770997
 20
48.2001280583
 10
33.7499999525
 20
48.2001688814
  0
LINE
  5
330
100
AcDbEntity
  8
262606150
100
AcDbLine
 62
253
  6
CONTINUOUS
 10
-33.7541771331
 20
48.2000331836
 11
-33.75
 21
48.2000000112
  0
LWPOLYLINE
  5
331
100
AcDbEntity
  8
262606150
100
AcDbPolyline
 62
253
  6
CONTINUOUS
 90
4
 70
0
 10
-34.3771926752
 20
48.2037912634
 10
-34.2939524732
 20
48.2021637176
 10
-34.2145813183
 20
48.2014144588
 10
-33.7541771331
 20
48.2000331836
  0
LINE
  5
332
100
AcDbEntity
  8
262606150
100
AcDbLine
 62
253
  6
CONTINUOUS
 10
-34.7337273106
 20
48.2134867203
 11
-34.3771926752
 21
48.2037912634
  0
LWPOLYLINE
  5
333
100
AcDbEntity
  8
262606150
100
AcDbPolyline
 62
253
  6
CONTINUOUS
 90
8
 70
0
 10
-35.3340465873
 20
48.1970378653
 10
-35.2573348599
 20
48.1934547434
 10
-35.1764398281
 20
48.1929623335
 10
-35.0920505613
 20
48.1951774127
 10
-35.0048976953
 20
48.2013932701
 10
-34.9156533234
 20
48.2092680171
 10
-34.8250009734
 20
48.2138159616
 10
-34.7337273106
 20
48.2134867203
  0
LINE
  5
334
100
AcDbEntity
  8
262606150
100
AcDbLine
 62
253
  6
CONTINUOUS
 10
-35.3340409772
 20
48.1970379124
 11
-37.0142892501
 21
48.179888334
  0
LINE
  5
335
100
AcDbEntity
  8
262606150
100
AcDbLine
 62
253
  6
CONTINUOUS
 10
-33.4325466063
 20
51.6487436788
 11
-31.5539488494
 21
51.6681212177
  0
LINE
  5
336
100
AcDbEntity
  8
262606150
100
AcDbLine
 62
253
  6
CONTINUOUS
 10
-31.5539488494
 20
51.6681212177
 11
-29.5373092337
 21
51.6790243723
  0
LINE
  5
337
100
AcDbEntity
  8
262606150
100
AcDbLine
 62
253
  6
CONTINUOUS
 10
-25.6825245963
 20
51.6868184531
 11
-22.9999999995
 21
51.6905438774
  0
LINE
  5
338
100
AcDbEntity
  8
262606150
100
AcDbLine
 62
253
  6
CONTINUOUS
 10
-29.5373092337
 20
51.6790243723
 11
-25.6825245963
 21
51.6868184531
  0
LINE
  5
339
100
AcDbEntity
  8
262606150
100
AcDbLine
 62
7
  6
CONTINUOUS
 10
-33.45
 20
48.5
 11
33.45
 21
48.5
  0
LINE
  5
33A
100
AcDbEntity
  8
262606150
100
AcDbLine
 62
253
  6
CONTINUOUS
 10
23.0
 20
50.1000641592
 11
33.4469525872
 21
50.0988160238
  0
LINE
  5
33B
100
AcDbEntity
  8
262606150
100
AcDbLine
 62
253
  6
CONTINUOUS
 10
-23.0
 20
51.6905396945
 11
23.3115139771
 21
51.6899477321
  0
LINE
  5
33C
100
AcDbEntity
  8
262606150
100
AcDbLine
 62
253
  6
CONTINUOUS
 10
-33.4469092039
 20
50.0988160342
 11
23.0
 21
50.100065169
  0
LINE
  5
33D
100
AcDbEntity
  8
262606150
100
AcDbLine
 62
253
  6
CONTINUOUS
 10
23.3115139771
 20
51.6899477321
 11
29.1693664942
 21
51.6803004053
  0
LINE
  5
33E
100
AcDbEntity
  8
262606150
100
AcDbLine
 62
253
  6
CONTINUOUS
 10
29.1693664942
 20
51.6803004053
 11
31.2752043724
 21
51.670117004
  0
LINE
  5
33F
100
AcDbEntity
  8
262606150
100
AcDbLine
 62
253
  6
CONTINUOUS
 10
31.2752043724
 20
51.670117004
 11
32.6804578272
 21
51.6578439462
  0
LINE
  5
340
100
AcDbEntity
  8
262606150
100
AcDbLine
 62
253
  6
CONTINUOUS
 10
35.3340431284
 20
48.1969881765
 11
37.01428988
 21
48.179792826
  0
LINE
  5
341
100
AcDbEntity
  8
262606150
100
AcDbLine
 62
253
  6
CONTINUOUS
 10
32.6804578272
 20
51.6578439462
 11
33.4326307759
 21
51.6487424873
  0
LWPOLYLINE
  5
342
100
AcDbEntity
  8
262606150
100
AcDbPolyline
 62
253
  6
CONTINUOUS
 90
46
 70
0
 10
33.4469526299
 20
50.0988198489
 10
33.517830577
 20
50.0977283895
 10
33.5863083151
 20
50.0940357015
 10
33.652296459
 20
50.0879972849
 10
33.7155079433
 20
50.0798716998
 10
33.7761045913
 20
50.0699067726
 10
33.8346912542
 20
50.0582690395
 10
33.8914797403
 20
50.0450600104
 10
33.94619746
 20
50.0304945774
 10
33.9987429294
 20
50.0148483663
 10
34.0490195233
 20
49.9983431224
 10
34.097139306
 20
49.9810788333
 10
34.1433291034
 20
49.9631300154
 10
34.1873639326
 20
49.9447308673
 10
34.2295094891
 20
49.9259049884
 10
34.2706988292
 20
49.9063182788
 10
34.3109901708
 20
49.8859936373
 10
34.3503151876
 20
49.8649970287
 10
34.3893593535
 20
49.8429405403
 10
34.4278667178
 20
49.8199612793
 10
34.4660359636
 20
49.7959261144
 10
34.5051398577
 20
49.7698976395
 10
34.5454493716
 20
49.7414716366
 10
34.5864576986
 20
49.7108379445
 10
34.6281889088
 20
49.6778431909
 10
34.670545441
 20
49.6423487851
 10
34.7133330422
 20
49.6042796399
 10
34.7564132369
 20
49.5635671732
 10
34.7995388638
 20
49.5202084317
 10
34.8426111521
 20
49.4740184632
 10
34.8856732722
 20
49.4246365263
 10
34.9284924977
 20
49.3719533851
 10
34.9708138184
 20
49.3158775745
 10
35.0125661647
 20
49.2560407075
 10
35.0534371184
 20
49.192331706
 10
35.0930806236
 20
49.1246900599
 10
35.1312842293
 20
49.0528046596
 10
35.1676260069
 20
48.9766806845
 10
35.2016866777
 20
48.8962322565
 10
35.2331324088
 20
48.8110112763
 10
35.2614190182
 20
48.7211155394
 10
35.2859872564
 20
48.626535082
 10
35.306276458
 20
48.5266932808
 10
35.3215601169
 20
48.4215287901
 10
35.3310703837
 20
48.3115176188
 10
35.3340463684
 20
48.1969880431
  0
LWPOLYLINE
  5
343
100
AcDbEntity
  8
262606150
100
AcDbPolyline
 62
253
  6
CONTINUOUS
 90
46
 70
0
 10
33.432630755
 20
51.6487420359
 10
33.5696044152
 20
51.6445151712
 10
33.7020188888
 20
51.6354305577
 10
33.8298593399
 20
51.6219751357
 10
33.9527260151
 20
51.6043955067
 10
34.0701868875
 20
51.5835889466
 10
34.1823724829
 20
51.5609295012
 10
34.2892670322
 20
51.5373600247
 10
34.3908371506
 20
51.5129386451
 10
34.4873054836
 20
51.4876006802
 10
34.5787016483
 20
51.4619495032
 10
34.6657754116
 20
51.435939447
 10
34.7496137651
 20
51.40843802
 10
34.8301674839
 20
51.3792700423
 10
34.9077244298
 20
51.3489442586
 10
34.9836580045
 20
51.3172054546
 10
35.0576699003
 20
51.2845326998
 10
35.1300043274
 20
51.250621679
 10
35.202945185
 20
51.213651763
 10
35.2768784154
 20
51.1726807104
 10
35.3519165586
 20
51.1279653665
 10
35.4293520515
 20
51.0794899748
 10
35.5088566851
 20
51.0275523597
 10
35.5887622616
 20
50.9725567506
 10
35.6688298936
 20
50.9142126298
 10
35.7490380795
 20
50.8524297883
 10
35.8295305503
 20
50.7867669688
 10
35.9103106033
 20
50.716296836
 10
35.9911176193
 20
50.6406558964
 10
36.0720171432
 20
50.5594372696
 10
36.1531728436
 20
50.47174447
 10
36.2341388874
 20
50.3773299766
 10
36.314296968
 20
50.2761506939
 10
36.3933463852
 20
50.1676303851
 10
36.4706272301
 20
50.0517086115
 10
36.5454889636
 20
49.9282894178
 10
36.6175454525
 20
49.7966230253
 10
36.6858000771
 20
49.6565524828
 10
36.7497788321
 20
49.5078063174
 10
36.809631924
 20
49.3492766672
 10
36.8645058231
 20
49.1808036086
 10
36.9129584991
 20
49.0021386918
 10
36.9537821268
 20
48.8121640606
 10
36.9854038268
 20
48.6110115526
 10
37.0061138144
 20
48.399902932
 10
37.0142896617
 20
48.179792782
  0
LINE
  5
344
100
AcDbEntity
  8
262606150
100
AcDbLine
 62
253
  6
CONTINUOUS
 10
57.0322474764
 20
65.2404590441
 11
57.0352860024
 21
65.0677236993
  0
LINE
  5
345
100
AcDbEntity
  8
262606150
100
AcDbLine
 62
253
  6
CONTINUOUS
 10
57.0352860024
 20
65.0677236993
 11
57.0370894582
 21
64.8846242233
  0
LINE
  5
346
100
AcDbEntity
  8
262606150
100
AcDbLine
 62
253
  6
CONTINUOUS
 10
58.9303882488
 20
58.7146203923
 11
58.9542987821
 21
53.7913082246
  0
LINE
  5
347
100
AcDbEntity
  8
262606150
100
AcDbLine
 62
253
  6
CONTINUOUS
 10
58.9542987821
 20
53.7913082246
 11
58.9831626841
 21
46.0516579921
  0
LINE
  5
348
100
AcDbEntity
  8
262606150
100
AcDbLine
 62
253
  6
CONTINUOUS
 10
58.9831626841
 20
46.0516579921
 11
59.0030839454
 21
38.478678616
  0
LINE
  5
349
100
AcDbEntity
  8
262606150
100
AcDbLine
 62
253
  6
CONTINUOUS
 10
59.0030839454
 20
38.478678616
 11
59.0159785862
 21
27.9494189707
  0
LINE
  5
34A
100
AcDbEntity
  8
262606150
100
AcDbLine
 62
253
  6
CONTINUOUS
 10
57.0
 20
66.0
 11
57.0
 21
65.7702770678
  0
LINE
  5
34B
100
AcDbEntity
  8
262606150
100
AcDbLine
 62
253
  6
CONTINUOUS
 10
57.0
 20
-66.0
 11
57.0
 21
-65.7702770678
  0
LINE
  5
34C
100
AcDbEntity
  8
262606150
100
AcDbLine
 62
253
  6
CONTINUOUS
 10
59.0159785862
 20
27.9494189707
 11
59.0170478316
 21
-26.0
  0
LINE
  5
34D
100
AcDbEntity
  8
262606150
100
AcDbLine
 62
253
  6
CONTINUOUS
 10
59.7649150982
 20
-25.999744107
 11
59.7705635986
 21
-63.0
  0
LINE
  5
34E
100
AcDbEntity
  8
262606150
100
AcDbLine
 62
7
  6
CONTINUOUS
 10
59.8951844414
 20
26.5
 11
59.8951844414
 21
19.5
  0
LINE
  5
34F
100
AcDbEntity
  8
262606150
100
AcDbLine
 62
7
  6
CONTINUOUS
 10
59.8951844414
 20
-26.5
 11
59.8951844414
 21
-19.5
  0
LINE
  5
350
100
AcDbEntity
  8
262606150
100
AcDbLine
 62
7
  6
CONTINUOUS
 10
60.0
 20
63.0
 11
60.0
 21
26.6749773271
  0
LINE
  5
351
100
AcDbEntity
  8
262606150
100
AcDbLine
 62
7
  6
CONTINUOUS
 10
60.0
 20
19.3250226729
 11
60.0
 21
-19.3250226729
  0
LINE
  5
352
100
AcDbEntity
  8
262606150
100
AcDbLine
 62
7
  6
CONTINUOUS
 10
60.0
 20
-26.6749773271
 11
60.0
 21
-63.0
  0
LINE
  5
353
100
AcDbEntity
  8
262606150
100
AcDbLine
 62
253
  6
CONTINUOUS
 10
59.0170478309
 20
-26.0
 11
59.0101428888
 21
-34.2058545806
  0
LINE
  5
354
100
AcDbEntity
  8
262606150
100
AcDbLine
 62
253
  6
CONTINUOUS
 10
58.9110882676
 20
-61.853917924
 11
58.9109296871
 21
-62.0364898921
  0
LINE
  5
355
100
AcDbEntity
  8
262606150
100
AcDbLine
 62
253
  6
CONTINUOUS
 10
59.7705635986
 20
63.0
 11
59.7649150982
 21
-25.999744107
  0
LINE
  5
356
100
AcDbEntity
  8
262606150
100
AcDbLine
 62
253
  6
CONTINUOUS
 10
59.0101428888
 20
-34.2058545806
 11
58.9982155715
 21
-40.7064935851
  0
LINE
  5
357
100
AcDbEntity
  8
262606150
100
AcDbLine
 62
253
  6
CONTINUOUS
 10
58.9982155715
 20
-40.7064935851
 11
58.9789061687
 21
-47.3279807375
  0
LINE
  5
358
100
AcDbEntity
  8
262606150
100
AcDbLine
 62
253
  6
CONTINUOUS
 10
58.9789061687
 20
-47.3279807375
 11
58.9491589066
 21
-54.9946439247
  0
LINE
  5
359
100
AcDbEntity
  8
262606150
100
AcDbLine
 62
253
  6
CONTINUOUS
 10
58.9491589066
 20
-54.9946439247
 11
58.9265710608
 21
-59.3656986275
  0
LINE
  5
35A
100
AcDbEntity
  8
262606150
100
AcDbLine
 62
253
  6
CONTINUOUS
 10
58.9265710608
 20
-59.3656986275
 11
58.9110882676
 21
-61.853917924
  0
LWPOLYLINE
  5
35B
100
AcDbEntity
  8
262606150
100
AcDbPolyline
 62
253
  6
CONTINUOUS
 90
3
 70
0
 10
58.9109296871
 20
-62.0364898921
 10
58.9101804471
 20
-62.1259429338
 10
58.9082906254
 20
-62.2149146258
  0
LINE
  5
35C
100
AcDbEntity
  8
262606150
100
AcDbLine
 62
253
  6
CONTINUOUS
 10
57.0352835154
 20
-65.0677261586
 11
57.0370893742
 21
-64.8846239665
  0
LWPOLYLINE
  5
35D
100
AcDbEntity
  8
262606150
100
AcDbPolyline
 62
253
  6
CONTINUOUS
 90
3
 70
0
 10
58.8828790571
 20
63.0316972895
 10
58.886090103
 20
62.9180910126
 10
58.9077533834
 20
62.2421598263
  0
LWPOLYLINE
  5
35E
100
AcDbEntity
  8
262606150
100
AcDbPolyline
 62
253
  6
CONTINUOUS
 90
5
 70
0
 10
58.9077533834
 20
62.2421598263
 10
58.9097709767
 20
62.1568043093
 10
58.9106218433
 20
62.0712281427
 10
58.9107382623
 20
61.9855804019
 10
58.9303882488
 20
58.7146203923
  0
LWPOLYLINE
  5
35F
100
AcDbEntity
  8
262606150
100
AcDbPolyline
 62
253
  6
CONTINUOUS
 90
40
 70
0
 10
59.7705635986
 20
-63.0
 10
59.7699651791
 20
-63.060582735
 10
59.7679892043
 20
-63.1223073938
 10
59.7645584635
 20
-63.1851406854
 10
59.759609201
 20
-63.2488894554
 10
59.7530564038
 20
-63.3136701069
 10
59.744757229
 20
-63.37990475
 10
59.7345980593
 20
-63.4475453973
 10
59.7224654886
 20
-63.5165272752
 10
59.7081483296
 20
-63.5872288493
 10
59.6914958528
 20
-63.6595702428
 10
59.6723560207
 20
-63.7334608803
 10
59.65044336
 20
-63.8092337863
 10
59.6255663841
 20
-63.8867681207
 10
59.5975330922
 20
-63.9659268144
 10
59.5659810048
 20
-64.0469748238
 10
59.5306778652
 20
-64.1297311958
 10
59.4913931647
 20
-64.213992235
 10
59.4476892515
 20
-64.2999267874
 10
59.3992993461
 20
-64.3872678498
 10
59.3459613824
 20
-64.4757211815
 10
59.2871693181
 20
-64.5653299016
 10
59.2226364972
 20
-64.6557106274
 10
59.1520859543
 20
-64.7464481721
 10
59.0749589231
 20
-64.8374249783
 10
58.9909593971
 20
-64.9281241341
 10
58.8998421769
 20
-65.017955409
 10
58.8010818274
 20
-65.1065521578
 10
58.6944409279
 20
-65.1932154932
 10
58.5797516736
 20
-65.2771751151
 10
58.4565936822
 20
-65.3578008778
 10
58.324772006
 20
-65.4342454471
 10
58.1843649086
 20
-65.5054867486
 10
58.0354432996
 20
-65.5705166553
 10
57.8774601327
 20
-65.6285317001
 10
57.7113587038
 20
-65.678134197
 10
57.539722121
 20
-65.7177799918
 10
57.3638693136
 20
-65.7466866426
 10
57.1837219748
 20
-65.7643932928
 10
57.0
 20
-65.7702770678
  0
LINE
  5
360
100
AcDbEntity
  8
262606150
100
AcDbLine
 62
253
  6
CONTINUOUS
 10
58.892813355
 20
-62.6943034514
 11
58.8828790014
 21
-63.0316972736
  0
LWPOLYLINE
  5
361
100
AcDbEntity
  8
262606150
100
AcDbPolyline
 62
253
  6
CONTINUOUS
 90
3
 70
0
 10
58.9082906254
 20
-62.2149146258
 10
58.8996509638
 20
-62.4926487407
 10
58.892813355
 20
-62.6943034514
  0
LWPOLYLINE
  5
362
100
AcDbEntity
  8
262606150
100
AcDbPolyline
 62
253
  6
CONTINUOUS
 90
40
 70
0
 10
58.8828793634
 20
-63.0316973769
 10
58.8813747707
 20
-63.0715921179
 10
58.8789737752
 20
-63.1122344047
 10
58.8756275596
 20
-63.1536029531
 10
58.8712978403
 20
-63.1955720825
 10
58.8659272034
 20
-63.2382198415
 10
58.859417085
 20
-63.2818246364
 10
58.8516956305
 20
-63.3263551428
 10
58.8426905005
 20
-63.3717690892
 10
58.8322593187
 20
-63.4183165398
 10
58.8203061917
 20
-63.4659462817
 10
58.8067337948
 20
-63.51460023
 10
58.7913521918
 20
-63.5644996729
 10
58.7740396138
 20
-63.6155675462
 10
58.7546729373
 20
-63.667716214
 10
58.7330123943
 20
-63.72112351
 10
58.7089099211
 20
-63.7756747952
 10
58.682217468
 20
-63.8312404874
 10
58.6526461952
 20
-63.8879370904
 10
58.620024999
 20
-63.9455967162
 10
58.5841855565
 20
-64.0040329863
 10
58.544795163
 20
-64.0632811509
 10
58.5016707969
 20
-64.1230977423
 10
58.4546405088
 20
-64.1832143884
 10
58.403346263
 20
-64.2435542165
 10
58.3475991269
 20
-64.3037859581
 10
58.2872416292
 20
-64.3635392645
 10
58.2219296615
 20
-64.422587786
 10
58.1515015412
 20
-64.4804886608
 10
58.0758484278
 20
-64.5367598822
 10
57.9946950876
 20
-64.5910084701
 10
57.9078992397
 20
-64.6426961171
 10
57.8155125935
 20
-64.6911814851
 10
57.7175906076
 20
-64.7358287144
 10
57.6137580989
 20
-64.7761363936
 10
57.5046130471
 20
-64.8112102641
 10
57.3918368088
 20
-64.8400351873
 10
57.2762603903
 20
-64.8620882702
 10
57.1578301455
 20
-64.8770833669
 10
57.0370894586
 20
-64.8846242233
  0
LINE
  5
363
100
AcDbEntity
  8
262606150
100
AcDbLine
 62
7
  6
CONTINUOUS
 10
59.8951844414
 20
-19.5
 11
60.0
 21
-19.3250226729
  0
LINE
  5
364
100
AcDbEntity
  8
262606150
100
AcDbLine
 62
253
  6
CONTINUOUS
 10
-59.3961196594
 20
63.0240158728
 11
-59.2394252325
 21
63.0275746993
  0
LINE
  5
365
100
AcDbEntity
  8
262606150
100
AcDbLine
 62
253
  6
CONTINUOUS
 10
-59.2394252325
 20
63.0275746993
 11
-59.0663195063
 21
63.0301655157
  0
LWPOLYLINE
  5
366
100
AcDbEntity
  8
262606150
100
AcDbPolyline
 62
253
  6
CONTINUOUS
 90
3
 70
0
 10
-46.9959089132
 20
65.0234981804
 10
-46.4185387174
 20
65.0281115222
 10
-44.1436407203
 20
65.0537690997
  0
LINE
  5
367
100
AcDbEntity
  8
262606150
100
AcDbLine
 62
253
  6
CONTINUOUS
 10
-55.5863183716
 20
64.9241126613
 11
-46.9959089132
 21
65.0234981804
  0
LINE
  5
368
100
AcDbEntity
  8
262606150
100
AcDbLine
 62
253
  6
CONTINUOUS
 10
-59.0663195063
 20
63.0301655157
 11
-58.8828793634
 21
63.0316973769
  0
LINE
  5
369
100
AcDbEntity
  8
262606150
100
AcDbLine
 62
253
  6
CONTINUOUS
 10
-44.1436407203
 20
65.0537690997
 11
-36.8016568005
 21
65.086834787
  0
LINE
  5
36A
100
AcDbEntity
  8
262606150
100
AcDbLine
 62
253
  6
CONTINUOUS
 10
-36.8016568005
 20
65.086834787
 11
-32.8941614052
 21
65.0956350443
  0
LINE
  5
36B
100
AcDbEntity
  8
262606150
100
AcDbLine
 62
253
  6
CONTINUOUS
 10
-32.8941614052
 20
65.0956350443
 11
-28.3335643543
 21
65.098949398
  0
LINE
  5
36C
100
AcDbEntity
  8
262606150
100
AcDbLine
 62
253
  6
CONTINUOUS
 10
-60.0
 20
63.0
 11
-59.7705635986
 21
63.0
  0
LINE
  5
36D
100
AcDbEntity
  8
262606150
100
AcDbLine
 62
253
  6
CONTINUOUS
 10
60.0
 20
63.0
 11
59.7705635986
 21
63.0
  0
LINE
  5
36E
100
AcDbEntity
  8
262606150
100
AcDbLine
 62
253
  6
CONTINUOUS
 10
23.0002372483
 20
65.7614232783
 11
57.0
 21
65.7702770678
  0
LINE
  5
36F
100
AcDbEntity
  8
262606150
100
AcDbLine
 62
7
  6
CONTINUOUS
 10
57.0
 20
66.0
 11
-57.0
 21
66.0
  0
LINE
  5
370
100
AcDbEntity
  8
262606150
100
AcDbLine
 62
253
  6
CONTINUOUS
 10
-28.3335643543
 20
65.098949398
 11
-23.9499822177
 21
65.0974966011
  0
LINE
  5
371
100
AcDbEntity
  8
262606150
100
AcDbLine
 62
253
  6
CONTINUOUS
 10
-23.9499822177
 20
65.0974966011
 11
28.5546937703
 21
65.0989292256
  0
LINE
  5
372
100
AcDbEntity
  8
262606150
100
AcDbLine
 62
253
  6
CONTINUOUS
 10
28.5546937703
 20
65.0989292256
 11
33.2136257647
 21
65.0951410713
  0
LINE
  5
373
100
AcDbEntity
  8
262606150
100
AcDbLine
 62
253
  6
CONTINUOUS
 10
-57.0
 20
65.7702770678
 11
23.0002372483
 21
65.7614232783
  0
LINE
  5
374
100
AcDbEntity
  8
262606150
100
AcDbLine
 62
253
  6
CONTINUOUS
 10
33.2136257647
 20
65.0951410713
 11
37.1421625193
 21
65.0857721327
  0
LINE
  5
375
100
AcDbEntity
  8
262606150
100
AcDbLine
 62
253
  6
CONTINUOUS
 10
37.1421625193
 20
65.0857721327
 11
40.9688821769
 21
65.070486462
  0
LINE
  5
376
100
AcDbEntity
  8
262606150
100
AcDbLine
 62
253
  6
CONTINUOUS
 10
55.3204711288
 20
64.9260568082
 11
55.803837747
 21
64.9232494363
  0
LINE
  5
377
100
AcDbEntity
  8
262606150
100
AcDbLine
 62
253
  6
CONTINUOUS
 10
40.9688821769
 20
65.070486462
 11
44.408204278
 21
65.0513131822
  0
LINE
  5
378
100
AcDbEntity
  8
262606150
100
AcDbLine
 62
253
  6
CONTINUOUS
 10
59.0663190503
 20
63.0301622361
 11
58.8828790571
 21
63.0316972895
  0
LWPOLYLINE
  5
379
100
AcDbEntity
  8
262606150
100
AcDbPolyline
 62
253
  6
CONTINUOUS
 90
3
 70
0
 10
55.803837747
 20
64.9232494363
 10
55.9157615519
 20
64.9220347721
 10
56.026508176
 20
64.9196303363
  0
LINE
  5
37A
100
AcDbEntity
  8
262606150
100
AcDbLine
 62
253
  6
CONTINUOUS
 10
44.408204278
 20
65.0513131822
 11
47.5197115111
 21
65.0174820815
  0
LINE
  5
37B
100
AcDbEntity
  8
262606150
100
AcDbLine
 62
253
  6
CONTINUOUS
 10
47.5197115111
 20
65.0174820815
 11
55.3204711288
 21
64.9260568082
  0
LINE
  5
37C
100
AcDbEntity
  8
262606150
100
AcDbLine
 62
253
  6
CONTINUOUS
 10
59.2394246739
 20
63.0275694495
 11
59.0663190503
 21
63.0301622361
  0
LINE
  5
37D
100
AcDbEntity
  8
262606150
100
AcDbLine
 62
7
  6
CONTINUOUS
 10
59.8951844414
 20
19.5
 11
60.0
 21
19.3250226729
  0
LINE
  5
37E
100
AcDbEntity
  8
262606150
100
AcDbLine
 62
253
  6
CONTINUOUS
 10
-56.6218206466
 20
64.8985007739
 11
-56.2569821779
 21
64.9124596863
  0
LINE
  5
37F
100
AcDbEntity
  8
262606150
100
AcDbLine
 62
253
  6
CONTINUOUS
 10
-57.0370893831
 20
64.8846239936
 11
-56.6218206466
 21
64.8985007739
  0
LWPOLYLINE
  5
380
100
AcDbEntity
  8
262606150
100
AcDbPolyline
 62
253
  6
CONTINUOUS
 90
5
 70
0
 10
-56.2569821779
 20
64.9124596863
 10
-56.0346461974
 20
64.9194422984
 10
-55.9249147486
 20
64.9218840505
 10
-55.8141901029
 20
64.9231374407
 10
-55.5863183716
 20
64.9241126613
  0
LWPOLYLINE
  5
381
100
AcDbEntity
  8
262606150
100
AcDbPolyline
 62
253
  6
CONTINUOUS
 90
40
 70
0
 10
57.0
 20
65.7702770678
 10
57.183721975
 20
65.7643932922
 10
57.3638693138
 20
65.7466866416
 10
57.5397221211
 20
65.7177799907
 10
57.7113587038
 20
65.6781341962
 10
57.8774601327
 20
65.6285317
 10
58.0354432997
 20
65.5705166556
 10
58.1843649086
 20
65.5054867489
 10
58.324772006
 20
65.4342454472
 10
58.4565936822
 20
65.3578008777
 10
58.5797516736
 20
65.277175115
 10
58.6944409279
 20
65.1932154931
 10
58.8010818274
 20
65.1065521578
 10
58.8998421769
 20
65.017955409
 10
58.9909593971
 20
64.9281241341
 10
59.0749589231
 20
64.8374249783
 10
59.1520859543
 20
64.7464481721
 10
59.2226364972
 20
64.6557106274
 10
59.2871693181
 20
64.5653299016
 10
59.3459613824
 20
64.4757211815
 10
59.3992993461
 20
64.3872678498
 10
59.4476892515
 20
64.2999267874
 10
59.4913931648
 20
64.213992235
 10
59.5306778652
 20
64.1297311958
 10
59.5659810048
 20
64.0469748238
 10
59.5975330922
 20
63.9659268144
 10
59.6255663841
 20
63.8867681207
 10
59.65044336
 20
63.8092337863
 10
59.6723560207
 20
63.7334608803
 10
59.6914958528
 20
63.6595702428
 10
59.7081483296
 20
63.5872288493
 10
59.7224654886
 20
63.5165272752
 10
59.7345980593
 20
63.4475453973
 10
59.744757229
 20
63.37990475
 10
59.7530564038
 20
63.3136701069
 10
59.759609201
 20
63.2488894554
 10
59.7645584635
 20
63.1851406854
 10
59.7679892043
 20
63.1223073938
 10
59.7699651791
 20
63.060582735
 10
59.7705635986
 20
63.0
  0
LINE
  5
382
100
AcDbEntity
  8
262606150
100
AcDbLine
 62
253
  6
CONTINUOUS
 10
56.026508176
 20
64.9196303363
 11
56.250624784
 21
64.9126998293
  0
LINE
  5
383
100
AcDbEntity
  8
262606150
100
AcDbLine
 62
253
  6
CONTINUOUS
 10
56.6182313737
 20
64.898629805
 11
57.0370893621
 21
64.8846239301
  0
LINE
  5
384
100
AcDbEntity
  8
262606150
100
AcDbLine
 62
253
  6
CONTINUOUS
 10
56.250624784
 20
64.9126998293
 11
56.6182313737
 21
64.898629805
  0
LWPOLYLINE
  5
385
100
AcDbEntity
  8
262606150
100
AcDbPolyline
 62
253
  6
CONTINUOUS
 90
40
 70
0
 10
57.0370894582
 20
64.8846242233
 10
57.1578300822
 20
64.8770833999
 10
57.2762596225
 20
64.8620884144
 10
57.3918355814
 20
64.8400354219
 10
57.5046118328
 20
64.8112105469
 10
57.613757126
 20
64.776136704
 10
57.7175898597
 20
64.7358290439
 10
57.8155119454
 20
64.6911818321
 10
57.9078986239
 20
64.64269648
 10
57.9946944936
 20
64.5910088439
 10
58.0758478794
 20
64.5367602596
 10
58.1515010535
 20
64.4804890351
 10
58.2219292354
 20
64.4225881528
 10
58.2872412554
 20
64.3635396213
 10
58.3475987966
 20
64.3037863027
 10
58.4033459708
 20
64.2435545469
 10
58.4546402517
 20
64.183214703
 10
58.5016705729
 20
64.1230980398
 10
58.5447949693
 20
64.0632814304
 10
58.58418539
 20
64.0040332472
 10
58.6200248565
 20
63.9455969585
 10
58.6526460739
 20
63.8879373139
 10
58.6822173655
 20
63.8312406922
 10
58.7089098352
 20
63.7756749816
 10
58.7330123229
 20
63.7211236784
 10
58.7546728786
 20
63.6677163652
 10
58.7740395661
 20
63.6155676809
 10
58.7913521535
 20
63.5644997916
 10
58.8067337646
 20
63.5146003329
 10
58.8203061684
 20
63.4659463688
 10
58.8322593013
 20
63.4183166119
 10
58.8426904882
 20
63.3717691478
 10
58.8516956222
 20
63.3263551908
 10
58.8594170792
 20
63.281824675
 10
58.865927199
 20
63.2382198685
 10
58.8712978374
 20
63.1955720925
 10
58.87562756
 20
63.1536029413
 10
58.8789737788
 20
63.1122343773
 10
58.8813747746
 20
63.0715920929
 10
58.8828793634
 20
63.031697377
  0
LWPOLYLINE
  5
386
100
AcDbEntity
  8
262606150
100
AcDbPolyline
 62
253
  6
CONTINUOUS
 90
13
 70
0
 10
57.0
 20
-65.7702770678
 10
57.0035168215
 20
-65.7610052173
 10
57.0070028248
 20
-65.7430565416
 10
57.0104274534
 20
-65.7165884535
 10
57.013760689
 20
-65.6818330824
 10
57.0169733146
 20
-65.6390952386
 10
57.0200371709
 20
-65.5887497399
 10
57.0229254032
 20
-65.5312381245
 10
57.0256126973
 20
-65.4670647788
 10
57.028075501
 20
-65.3967925133
 10
57.0302922308
 20
-65.3210376272
 10
57.0322434614
 20
-65.2404645033
 10
57.0352835154
 20
-65.0677261586
  0
LWPOLYLINE
  5
387
100
AcDbEntity
  8
262606150
100
AcDbPolyline
 62
253
  6
CONTINUOUS
 90
12
 70
0
 10
56.9999999972
 20
65.7702578113
 10
57.0035177164
 20
65.7609866636
 10
57.0070045758
 20
65.7430388419
 10
57.0104299947
 20
65.7165717494
 10
57.0137639314
 20
65.6818175036
 10
57.016977147
 20
65.639080901
 10
57.0200414615
 20
65.5887367435
 10
57.0229300014
 20
65.5312265516
 10
57.0256174354
 20
65.4670546923
 10
57.0280801965
 20
65.3967839558
 10
57.0302966886
 20
65.3210306197
 10
57.0322474764
 20
65.2404590441
  0
LWPOLYLINE
  5
388
100
AcDbEntity
  8
262606150
100
AcDbPolyline
 62
253
  6
CONTINUOUS
 90
10
 70
0
 10
59.770563392
 20
-63.0
 10
59.7612712297
 20
-63.0030096145
 10
59.7432772525
 20
-63.0059927562
 10
59.7167397282
 20
-63.0089231864
 10
59.6818920702
 20
-63.0117751303
 10
59.6390407847
 20
-63.0145235031
 10
59.5885627743
 20
-63.0171441314
 10
59.5309020234
 20
-63.0196139652
 10
59.4665656929
 20
-63.021911281
 10
59.3961196594
 20
-63.0240158728
  0
LWPOLYLINE
  5
389
100
AcDbEntity
  8
262606150
100
AcDbPolyline
 62
253
  6
CONTINUOUS
 90
11
 70
0
 10
59.7705635986
 20
63.0
 10
59.761271265
 20
63.0030084862
 10
59.7432771356
 20
63.005990545
 10
59.7167394793
 20
63.0089199685
 10
59.6818917102
 20
63.0117710115
 10
59.6390403349
 20
63.0145186181
 10
59.588562256
 20
63.017138642
 10
59.5309014578
 20
63.0196080591
 10
59.4665651006
 20
63.0219051698
 10
59.3961190602
 20
63.02400979
 10
59.2394246739
 20
63.0275694495
  0
LINE
  5
38A
100
AcDbEntity
  8
262606150
100
AcDbLine
 62
7
  6
CONTINUOUS
 10
-101.2768855077
 20
-66.0
 11
-105.8313230913
 21
-65.7613120404
  0
LINE
  5
38B
100
AcDbEntity
  8
262606150
100
AcDbLine
 62
253
  6
CONTINUOUS
 10
-106.5576673881
 20
-63.0301655157
 11
-106.5957777414
 21
-63.0316973769
  0
LWPOLYLINE
  5
38C
100
AcDbEntity
  8
262606150
100
AcDbPolyline
 62
253
  6
CONTINUOUS
 90
3
 70
0
 10
-105.6547928337
 20
-63.0
 10
-105.7480676821
 20
-63.0030096145
 10
-106.5576673881
 20
-63.0301655157
  0
LINE
  5
38D
100
AcDbEntity
  8
262606150
100
AcDbLine
 62
253
  6
CONTINUOUS
 10
-101.2768855077
 20
-63.0
 11
-105.6547928445
 21
-63.0
  0
LINE
  5
38E
100
AcDbEntity
  8
262606150
100
AcDbLine
 62
7
  6
CONTINUOUS
 10
-105.911939036
 20
-65.7538052112
 11
-105.8313256502
 21
-65.7613119063
  0
LWPOLYLINE
  5
38F
100
AcDbEntity
  8
262606150
100
AcDbPolyline
 62
253
  6
CONTINUOUS
 90
16
 70
0
 10
-105.6602601776
 20
-65.7702770678
 10
-105.7533828035
 20
-65.7610052173
 10
-105.8452296955
 20
-65.7430565416
 10
-105.9349953409
 20
-65.7165884535
 10
-106.0218924798
 20
-65.6818330824
 10
-106.1051590096
 20
-65.6390952386
 10
-106.1840646688
 20
-65.5887497399
 10
-106.2579174414
 20
-65.5312381245
 10
-106.326069626
 20
-65.4670647788
 10
-106.3879235162
 20
-65.3967925133
 10
-106.4429366428
 20
-65.3210376272
 10
-106.4906265313
 20
-65.2404645033
 10
-106.5305749329
 20
-65.1557797808
 10
-106.5624314932
 20
-65.0677261586
 10
-106.5859168243
 20
-64.9770758813
 10
-106.6008249555
 20
-64.8846239665
  0
LINE
  5
390
100
AcDbEntity
  8
262606150
100
AcDbLine
 62
7
  6
CONTINUOUS
 10
-105.9925114678
 20
-65.7396206921
 11
-105.911939036
 21
-65.7538052112
  0
LINE
  5
391
100
AcDbEntity
  8
262606150
100
AcDbLine
 62
7
  6
CONTINUOUS
 10
-106.0724232371
 20
-65.718661871
 11
-105.9925114678
 21
-65.7396206921
  0
LINE
  5
392
100
AcDbEntity
  8
262606150
100
AcDbLine
 62
7
  6
CONTINUOUS
 10
-106.1511974451
 20
-65.6908318492
 11
-106.0724232371
 21
-65.718661871
  0
LINE
  5
393
100
AcDbEntity
  8
262606150
100
AcDbLine
 62
7
  6
CONTINUOUS
 10
-109.3124303936
 20
-54.800007
 11
-109.287527811
 21
-54.800007
  0
LINE
  5
394
100
AcDbEntity
  8
262606150
100
AcDbLine
 62
7
  6
CONTINUOUS
 10
-109.3553865796
 20
-54.800007
 11
-109.3392674342
 21
-54.800007
  0
LINE
  5
395
100
AcDbEntity
  8
262606150
100
AcDbLine
 62
7
  6
CONTINUOUS
 10
-109.321757841
 20
-54.800007
 11
-109.323533023
 21
-54.800007
  0
LINE
  5
396
100
AcDbEntity
  8
262606150
100
AcDbLine
 62
7
  6
CONTINUOUS
 10
-109.2691562774
 20
-54.8
 11
-109.0670871023
 21
-54.8
  0
LINE
  5
397
100
AcDbEntity
  8
262606150
100
AcDbLine
 62
7
  6
CONTINUOUS
 10
-109.4175748037
 20
-54.229679
 11
-109.4280996563
 21
-54.229679
  0
LINE
  5
398
100
AcDbEntity
  8
262606150
100
AcDbLine
 62
7
  6
CONTINUOUS
 10
-109.4933402889
 20
-53.678657
 11
-109.4876145384
 21
-53.678657
  0
LINE
  5
399
100
AcDbEntity
  8
262606150
100
AcDbLine
 62
7
  6
CONTINUOUS
 10
-109.4449773492
 20
-53.6089026669
 11
-109.2433450336
 21
-53.6089026669
  0
LINE
  5
39A
100
AcDbEntity
  8
262606150
100
AcDbLine
 62
7
  6
CONTINUOUS
 10
-109.450495106
 20
-53.678657
 11
-109.4603572309
 21
-53.67865
  0
LWPOLYLINE
  5
39B
100
AcDbEntity
  8
262606150
100
AcDbPolyline
 62
253
  6
CONTINUOUS
 90
6
 70
0
 10
-109.7130808595
 20
-48.1891600071
 10
-109.6494824232
 20
-48.1872259664
 10
-109.5986437491
 20
-48.1853234178
 10
-109.5607905254
 20
-48.1834608149
 10
-109.5360907942
 20
-48.1816464333
 10
-109.524654205
 20
-48.179888334
  0
LINE
  5
39C
100
AcDbEntity
  8
262606150
100
AcDbLine
 62
253
  6
CONTINUOUS
 10
-109.8773722967
 20
-48.1930880874
 11
-109.7130808595
 21
-48.1891600071
  0
LINE
  5
39D
100
AcDbEntity
  8
262606150
100
AcDbLine
 62
253
  6
CONTINUOUS
 10
-110.0886039405
 20
-48.1970379124
 11
-109.8773722967
 21
-48.1930880874
  0
LINE
  5
39E
100
AcDbEntity
  8
262606150
100
AcDbLine
 62
7
  6
CONTINUOUS
 10
-109.6667082402
 20
-51.899877
 11
-109.4494459158
 21
-51.899877
  0
LINE
  5
39F
100
AcDbEntity
  8
262606150
100
AcDbLine
 62
253
  6
CONTINUOUS
 10
-110.2740715118
 20
-48.2138159616
 11
-110.2768932675
 21
-48.2137664105
  0
LWPOLYLINE
  5
3A0
100
AcDbEntity
  8
262606150
100
AcDbPolyline
 62
253
  6
CONTINUOUS
 90
6
 70
0
 10
-110.0886117377
 20
-48.1970378653
 10
-110.1386352971
 20
-48.1934547434
 10
-110.1814024444
 20
-48.1929623335
 10
-110.2165722454
 20
-48.1951774127
 10
-110.2438611365
 20
-48.2013932701
 10
-110.2740715118
 20
-48.2138159616
  0
LINE
  5
3A1
100
AcDbEntity
  8
262606150
100
AcDbLine
 62
7
  6
CONTINUOUS
 10
-110.0780206311
 20
50.0985408258
 11
-110.0779083155
 21
50.0986235147
  0
LINE
  5
3A2
100
AcDbEntity
  8
262606150
100
AcDbLine
 62
7
  6
CONTINUOUS
 10
-110.077896342
 20
-50.0986411154
 11
-110.0780340448
 21
-50.0985163418
  0
LINE
  5
3A3
100
AcDbEntity
  8
262606150
100
AcDbLine
 62
7
  6
CONTINUOUS
 10
-109.9880749089
 20
50.2257120695
 11
-109.9968556934
 21
50.2126588722
  0
LWPOLYLINE
  5
3A4
100
AcDbEntity
  8
262606150
100
AcDbPolyline
 62
7
  6
CONTINUOUS
 90
7
 70
0
 10
-110.0777752005
 20
50.0988198489
 10
-110.1295721316
 20
50.0224233979
 10
-110.1740824225
 20
49.9416318952
 10
-110.2109403085
 20
49.8571425874
 10
-110.239840011
 20
49.7696912468
 10
-110.2605602901
 20
49.6799713255
 10
-110.2729459141
 20
49.5886993509
  0
LINE
  5
3A5
100
AcDbEntity
  8
262606150
100
AcDbLine
 62
7
  6
CONTINUOUS
 10
-109.9968556934
 20
50.2126588722
 11
-110.0045167933
 21
50.2013904325
  0
LINE
  5
3A6
100
AcDbEntity
  8
262606150
100
AcDbLine
 62
7
  6
CONTINUOUS
 10
-110.0045167933
 20
50.2013904325
 11
-110.0130723209
 21
50.1889357176
  0
LINE
  5
3A7
100
AcDbEntity
  8
262606150
100
AcDbLine
 62
7
  6
CONTINUOUS
 10
-109.9654884407
 20
50.2608519075
 11
-110.0791882966
 21
50.0969172716
  0
LWPOLYLINE
  5
3A8
100
AcDbEntity
  8
262606150
100
AcDbPolyline
 62
7
  6
CONTINUOUS
 90
3
 70
0
 10
-110.0777741549
 20
50.0988190671
 10
-109.9707588447
 20
50.2516275507
 10
-109.8981238343
 20
50.3682744066
  0
LINE
  5
3A9
100
AcDbEntity
  8
262606150
100
AcDbLine
 62
7
  6
CONTINUOUS
 10
-110.0323244532
 20
50.1613929609
 11
-110.0430048362
 21
50.1463926925
  0
LINE
  5
3AA
100
AcDbEntity
  8
262606150
100
AcDbLine
 62
7
  6
CONTINUOUS
 10
-110.0430048362
 20
50.1463926925
 11
-110.0543227047
 21
50.1307074514
  0
LINE
  5
3AB
100
AcDbEntity
  8
262606150
100
AcDbLine
 62
7
  6
CONTINUOUS
 10
-110.0543227047
 20
50.1307074514
 11
-110.0661722961
 21
50.1145110674
  0
LINE
  5
3AC
100
AcDbEntity
  8
262606150
100
AcDbLine
 62
7
  6
CONTINUOUS
 10
-110.0661722961
 20
50.1145110674
 11
-110.0784916554
 21
50.0978561446
  0
LINE
  5
3AD
100
AcDbEntity
  8
262606150
100
AcDbLine
 62
7
  6
CONTINUOUS
 10
-110.0780617582
 20
-50.0984801767
 11
-110.0682976472
 21
-50.111624613
  0
LINE
  5
3AE
100
AcDbEntity
  8
262606150
100
AcDbLine
 62
7
  6
CONTINUOUS
 10
-110.0682976472
 20
-50.111624613
 11
-110.0567387819
 21
-50.1273817763
  0
LINE
  5
3AF
100
AcDbEntity
  8
262606150
100
AcDbLine
 62
7
  6
CONTINUOUS
 10
-110.0567387819
 20
-50.1273817763
 11
-110.0455511156
 21
-50.1428410967
  0
LWPOLYLINE
  5
3B0
100
AcDbEntity
  8
262606150
100
AcDbPolyline
 62
7
  6
CONTINUOUS
 90
9
 70
0
 10
-109.6504850203
 20
-51.8998751129
 10
-109.648966305
 20
-51.9019813375
 10
-109.6470145895
 20
-51.9083003875
 10
-109.6446298739
 20
-51.9188177407
 10
-109.6418283089
 20
-51.9334005609
 10
-109.6385937438
 20
-51.9520447256
 10
-109.6348777265
 20
-51.9751116799
 10
-109.6306851561
 20
-52.0027871895
 10
-109.6260111335
 20
-52.0350996462
  0
LINE
  5
3B1
100
AcDbEntity
  8
262606150
100
AcDbLine
 62
7
  6
CONTINUOUS
 10
-110.0455511156
 20
-50.1428410967
 11
-110.0348348832
 21
-50.1578461636
  0
LINE
  5
3B2
100
AcDbEntity
  8
262606150
100
AcDbLine
 62
7
  6
CONTINUOUS
 10
-110.0348348832
 20
-50.1578461636
 11
-110.024605869
 21
-50.1723537756
  0
LINE
  5
3B3
100
AcDbEntity
  8
262606150
100
AcDbLine
 62
7
  6
CONTINUOUS
 10
-110.0777496127
 20
-50.0988160342
 11
-109.9662331904
 21
-50.2596985574
  0
LINE
  5
3B4
100
AcDbEntity
  8
262606150
100
AcDbLine
 62
7
  6
CONTINUOUS
 10
-110.0791882966
 20
-50.0969172716
 11
-110.0671275726
 21
-50.114306655
  0
LINE
  5
3B5
100
AcDbEntity
  8
262606150
100
AcDbLine
 62
7
  6
CONTINUOUS
 10
-110.0149604312
 20
-50.1862033116
 11
-110.0060562477
 21
-50.1991383108
  0
LWPOLYLINE
  5
3B6
100
AcDbEntity
  8
262606150
100
AcDbPolyline
 62
7
  6
CONTINUOUS
 90
8
 70
0
 10
-110.0777752709
 20
-50.0988196844
 10
-110.129568186
 20
-50.0224298097
 10
-110.1740775042
 20
-49.9416417957
 10
-110.2109365106
 20
-49.8571522779
 10
-110.2398393755
 20
-49.7696936679
 10
-110.2605620914
 20
-49.6799639433
 10
-110.2729472801
 20
-49.5886882378
 10
-110.2768932742
 20
-49.4999255754
  0
LINE
  5
3B7
100
AcDbEntity
  8
262606150
100
AcDbLine
 62
7
  6
CONTINUOUS
 10
-110.0060562477
 20
-50.1991383108
 11
-109.9957624308
 21
-50.2142759882
  0
LINE
  5
3B8
100
AcDbEntity
  8
262606150
100
AcDbLine
 62
7
  6
CONTINUOUS
 10
-109.9957624308
 20
-50.2142759882
 11
-109.9914233199
 21
-50.2207174531
  0
LINE
  5
3B9
100
AcDbEntity
  8
262606150
100
AcDbLine
 62
7
  6
CONTINUOUS
 10
-109.8734489137
 20
50.4107924611
 11
-109.8365546714
 21
50.4775423721
  0
LINE
  5
3BA
100
AcDbEntity
  8
262606150
100
AcDbLine
 62
7
  6
CONTINUOUS
 10
-109.8894114669
 20
50.3831043944
 11
-109.8734489137
 21
50.4107924611
  0
LINE
  5
3BB
100
AcDbEntity
  8
262606150
100
AcDbLine
 62
7
  6
CONTINUOUS
 10
-109.8981238343
 20
50.3682744066
 11
-109.8894114669
 21
50.3831043944
  0
LINE
  5
3BC
100
AcDbEntity
  8
262606150
100
AcDbLine
 62
7
  6
CONTINUOUS
 10
-109.8593191925
 20
50.4385175892
 11
-109.9654884407
 21
50.2608519075
  0
LINE
  5
3BD
100
AcDbEntity
  8
262606150
100
AcDbLine
 62
253
  6
CONTINUOUS
 10
-105.7625726518
 20
-26.0
 11
-110.2768855094
 21
-26.0
  0
LINE
  5
3BE
100
AcDbEntity
  8
262606150
100
AcDbLine
 62
7
  6
CONTINUOUS
 10
-101.2768855077
 20
-26.6749773271
 11
-103.2768855077
 21
-26.5
  0
LINE
  5
3BF
100
AcDbEntity
  8
262606150
100
AcDbLine
 62
7
  6
CONTINUOUS
 10
-109.9707372765
 20
-50.2516256379
 11
-109.8958572613
 21
-50.3720800493
  0
LWPOLYLINE
  5
3C0
100
AcDbEntity
  8
262606150
100
AcDbPolyline
 62
7
  6
CONTINUOUS
 90
4
 70
0
 10
-110.1452901637
 20
-49.9959275416
 10
-110.1204668527
 20
-50.0370654348
 10
-110.0935670259
 20
-50.0771463319
 10
-110.0780366136
 20
-50.0985166988
  0
LINE
  5
3C1
100
AcDbEntity
  8
262606150
100
AcDbLine
 62
7
  6
CONTINUOUS
 10
-109.9662331904
 20
-50.2596985574
 11
-109.8599058114
 21
-50.4374547673
  0
LWPOLYLINE
  5
3C2
100
AcDbEntity
  8
262606150
100
AcDbPolyline
 62
7
  6
CONTINUOUS
 90
3
 70
0
 10
-109.8958572613
 20
-50.3720800493
 10
-109.8734304444
 20
-50.4107915284
 10
-109.8352923791
 20
-50.479866289
  0
LINE
  5
3C3
100
AcDbEntity
  8
262606150
100
AcDbLine
 62
7
  6
CONTINUOUS
 10
-110.0780461442
 20
-50.0985010768
 11
-110.0782010405
 21
-50.0982238874
  0
LWPOLYLINE
  5
3C4
100
AcDbEntity
  8
262606150
100
AcDbPolyline
 62
7
  6
CONTINUOUS
 90
7
 70
0
 10
-109.8599058114
 20
-50.4374547673
 10
-109.7660939789
 20
-50.6221315107
 10
-109.6852464622
 20
-50.8128490517
 10
-109.6177502313
 20
-51.0086988368
 10
-109.5639286513
 20
-51.2087478385
 10
-109.5240400372
 20
-51.4120426646
 10
-109.4982763474
 20
-51.6176140792
  0
LINE
  5
3C5
100
AcDbEntity
  8
262606150
100
AcDbLine
 62
7
  6
CONTINUOUS
 10
-106.9775508295
 20
64.3597707573
 11
-107.0534075451
 21
64.1334495033
  0
LINE
  5
3C6
100
AcDbEntity
  8
262606150
100
AcDbLine
 62
7
  6
CONTINUOUS
 10
-106.9014113726
 20
64.5831945447
 11
-106.9775508295
 21
64.3597707573
  0
LINE
  5
3C7
100
AcDbEntity
  8
262606150
100
AcDbLine
 62
7
  6
CONTINUOUS
 10
-106.8252317327
 20
64.8030963463
 11
-106.9014113726
 21
64.5831945447
  0
LINE
  5
3C8
100
AcDbEntity
  8
262606150
100
AcDbLine
 62
7
  6
CONTINUOUS
 10
-106.749249141
 20
65.018906275
 11
-106.8252317327
 21
64.8030963463
  0
LINE
  5
3C9
100
AcDbEntity
  8
262606150
100
AcDbLine
 62
7
  6
CONTINUOUS
 10
-106.7207680636
 20
65.0989169521
 11
-106.749249141
 21
65.018906275
  0
LWPOLYLINE
  5
3CA
100
AcDbEntity
  8
262606150
100
AcDbPolyline
 62
253
  6
CONTINUOUS
 90
7
 70
0
 10
-109.7862206808
 20
50.5756982723
 10
-109.709411477
 20
50.7457072572
 10
-109.6433183405
 20
50.9201619532
 10
-109.588196868
 20
51.0983877054
 10
-109.5442602264
 20
51.2796952755
 10
-109.5116783284
 20
51.4633835067
 10
-109.4905771755
 20
51.6487420359
  0
LWPOLYLINE
  5
3CB
100
AcDbEntity
  8
262606150
100
AcDbPolyline
 62
253
  6
CONTINUOUS
 90
7
 70
0
 10
-109.7862054244
 20
-50.5756981745
 10
-109.7093995356
 20
-50.7457078444
 10
-109.6433098041
 20
-50.9201630716
 10
-109.588191814
 20
-51.0983891976
 10
-109.5442587194
 20
-51.2796969811
 10
-109.5116804195
 20
-51.4633852631
 10
-109.4905829022
 20
-51.6487436788
  0
LWPOLYLINE
  5
3CC
100
AcDbEntity
  8
262606150
100
AcDbPolyline
 62
7
  6
CONTINUOUS
 90
11
 70
0
 10
-106.7207680124
 20
-65.0989170808
 10
-106.6944482513
 20
-65.1650948524
 10
-106.6554500581
 20
-65.2441565625
 10
-106.6099301601
 20
-65.3190438534
 10
-106.5583583835
 20
-65.3892480838
 10
-106.5012483413
 20
-65.4543055207
 10
-106.4391690869
 20
-65.5137904133
 10
-106.3726468168
 20
-65.5674005386
 10
-106.3021485537
 20
-65.6149176096
 10
-106.2280919853
 20
-65.6561627633
 10
-106.1511974451
 20
-65.6908318492
  0
LINE
  5
3CD
100
AcDbEntity
  8
262606150
100
AcDbLine
 62
7
  6
CONTINUOUS
 10
-106.7892395634
 20
-64.9057553221
 11
-106.7207680639
 21
-65.0989169512
  0
LINE
  5
3CE
100
AcDbEntity
  8
262606150
100
AcDbLine
 62
7
  6
CONTINUOUS
 10
-106.8722757012
 20
-64.6677224106
 11
-106.7892395634
 21
-64.9057553221
  0
LINE
  5
3CF
100
AcDbEntity
  8
262606150
100
AcDbLine
 62
7
  6
CONTINUOUS
 10
-106.9575270237
 20
-64.4188871978
 11
-106.8722757012
 21
-64.6677224106
  0
LINE
  5
3D0
100
AcDbEntity
  8
262606150
100
AcDbLine
 62
7
  6
CONTINUOUS
 10
-107.0442758398
 20
-64.160895124
 11
-106.9575270237
 21
-64.4188871978
  0
LINE
  5
3D1
100
AcDbEntity
  8
262606150
100
AcDbLine
 62
7
  6
CONTINUOUS
 10
-107.9972055443
 20
60.9313115571
 11
-108.0584461781
 21
60.6909144383
  0
LINE
  5
3D2
100
AcDbEntity
  8
262606150
100
AcDbLine
 62
7
  6
CONTINUOUS
 10
-107.932895135
 20
61.1783508135
 11
-107.9972055443
 21
60.9313115571
  0
LINE
  5
3D3
100
AcDbEntity
  8
262606150
100
AcDbLine
 62
7
  6
CONTINUOUS
 10
-107.8790289467
 20
61.3812260832
 11
-107.932895135
 21
61.1783508135
  0
LINE
  5
3D4
100
AcDbEntity
  8
262606150
100
AcDbLine
 62
7
  6
CONTINUOUS
 10
-107.8228362391
 20
61.5891310594
 11
-107.8790289467
 21
61.3812260832
  0
LINE
  5
3D5
100
AcDbEntity
  8
262606150
100
AcDbLine
 62
7
  6
CONTINUOUS
 10
-107.7641693421
 20
61.8023189805
 11
-107.8228362391
 21
61.5891310594
  0
LINE
  5
3D6
100
AcDbEntity
  8
262606150
100
AcDbLine
 62
7
  6
CONTINUOUS
 10
-107.7030835825
 20
62.0203039652
 11
-107.7641693468
 21
61.8023189638
  0
LINE
  5
3D7
100
AcDbEntity
  8
262606150
100
AcDbLine
 62
7
  6
CONTINUOUS
 10
-107.6397865612
 20
62.2421043589
 11
-107.7030835825
 21
62.0203039652
  0
LINE
  5
3D8
100
AcDbEntity
  8
262606150
100
AcDbLine
 62
7
  6
CONTINUOUS
 10
-107.5744143864
 20
62.4670535809
 11
-107.6397865612
 21
62.2421043589
  0
LINE
  5
3D9
100
AcDbEntity
  8
262606150
100
AcDbLine
 62
7
  6
CONTINUOUS
 10
-107.5071105276
 20
62.6945115965
 11
-107.5744143864
 21
62.4670535809
  0
LINE
  5
3DA
100
AcDbEntity
  8
262606150
100
AcDbLine
 62
7
  6
CONTINUOUS
 10
-107.4380361357
 20
62.9238307444
 11
-107.5071105276
 21
62.6945115965
  0
LINE
  5
3DB
100
AcDbEntity
  8
262606150
100
AcDbLine
 62
7
  6
CONTINUOUS
 10
-107.3673502271
 20
63.1544218084
 11
-107.4380361357
 21
62.9238307444
  0
LINE
  5
3DC
100
AcDbEntity
  8
262606150
100
AcDbLine
 62
7
  6
CONTINUOUS
 10
-107.2952233122
 20
63.385694969
 11
-107.3673502271
 21
63.1544218084
  0
LINE
  5
3DD
100
AcDbEntity
  8
262606150
100
AcDbLine
 62
7
  6
CONTINUOUS
 10
-107.2218632826
 20
63.6169313436
 11
-107.2952233122
 21
63.385694969
  0
LINE
  5
3DE
100
AcDbEntity
  8
262606150
100
AcDbLine
 62
7
  6
CONTINUOUS
 10
-107.1474824249
 20
63.8474251056
 11
-107.2218632826
 21
63.6169313436
  0
LWPOLYLINE
  5
3DF
100
AcDbEntity
  8
262606150
100
AcDbPolyline
 62
7
  6
CONTINUOUS
 90
3
 70
0
 10
-107.0534075451
 20
64.1334495033
 10
-107.0722998794
 20
64.0764911434
 10
-107.1474824249
 20
63.8474251056
  0
LINE
  5
3E0
100
AcDbEntity
  8
262606150
100
AcDbLine
 62
7
  6
CONTINUOUS
 10
-103.2768855077
 20
-19.5
 11
-101.2768855077
 21
-19.3250226729
  0
LINE
  5
3E1
100
AcDbEntity
  8
262606150
100
AcDbLine
 62
7
  6
CONTINUOUS
 10
-107.1318008937
 20
-63.8955237116
 11
-107.0442758398
 21
-64.160895124
  0
LINE
  5
3E2
100
AcDbEntity
  8
262606150
100
AcDbLine
 62
7
  6
CONTINUOUS
 10
-107.1975045749
 20
-63.6928470742
 11
-107.1318008937
 21
-63.8955237116
  0
LINE
  5
3E3
100
AcDbEntity
  8
262606150
100
AcDbLine
 62
7
  6
CONTINUOUS
 10
-107.2629247607
 20
-63.4879895065
 11
-107.1975045749
 21
-63.6928470742
  0
LINE
  5
3E4
100
AcDbEntity
  8
262606150
100
AcDbLine
 62
7
  6
CONTINUOUS
 10
-107.3491888696
 20
-63.2130304127
 11
-107.2629247607
 21
-63.4879895065
  0
LINE
  5
3E5
100
AcDbEntity
  8
262606150
100
AcDbLine
 62
7
  6
CONTINUOUS
 10
-107.4337267399
 20
-62.9380044723
 11
-107.3491888696
 21
-63.2130304127
  0
LINE
  5
3E6
100
AcDbEntity
  8
262606150
100
AcDbLine
 62
7
  6
CONTINUOUS
 10
-107.4956174097
 20
-62.7329506155
 11
-107.4337267399
 21
-62.9380044723
  0
LINE
  5
3E7
100
AcDbEntity
  8
262606150
100
AcDbLine
 62
7
  6
CONTINUOUS
 10
-107.575646163
 20
-62.4628522998
 11
-107.4956174097
 21
-62.7329506155
  0
LINE
  5
3E8
100
AcDbEntity
  8
262606150
100
AcDbLine
 62
7
  6
CONTINUOUS
 10
-107.6522828243
 20
-62.1986340718
 11
-107.575646163
 21
-62.4628522998
  0
LINE
  5
3E9
100
AcDbEntity
  8
262606150
100
AcDbLine
 62
7
  6
CONTINUOUS
 10
-107.7249927867
 20
-61.9425761123
 11
-107.6522828243
 21
-62.1986340718
  0
LINE
  5
3EA
100
AcDbEntity
  8
262606150
100
AcDbLine
 62
7
  6
CONTINUOUS
 10
-107.7932284069
 20
-61.6972040848
 11
-107.7249927867
 21
-61.9425761123
  0
LINE
  5
3EB
100
AcDbEntity
  8
262606150
100
AcDbLine
 62
7
  6
CONTINUOUS
 10
-107.8566193453
 20
-61.4645851619
 11
-107.7932284069
 21
-61.6972040848
  0
LINE
  5
3EC
100
AcDbEntity
  8
262606150
100
AcDbLine
 62
7
  6
CONTINUOUS
 10
-107.9156875268
 20
-61.2435506957
 11
-107.8566193453
 21
-61.4645851619
  0
LINE
  5
3ED
100
AcDbEntity
  8
262606150
100
AcDbLine
 62
7
  6
CONTINUOUS
 10
-107.9711961351
 20
-61.0318731484
 11
-107.9156875268
 21
-61.2435506957
  0
LINE
  5
3EE
100
AcDbEntity
  8
262606150
100
AcDbLine
 62
7
  6
CONTINUOUS
 10
-108.0239087589
 20
-60.8271238245
 11
-107.9711961351
 21
-61.0318731484
  0
LINE
  5
3EF
100
AcDbEntity
  8
262606150
100
AcDbLine
 62
7
  6
CONTINUOUS
 10
-108.0620321239
 20
-60.6766762509
 11
-108.0239087589
 21
-60.8271238245
  0
LWPOLYLINE
  5
3F0
100
AcDbEntity
  8
262606150
100
AcDbPolyline
 62
7
  6
CONTINUOUS
 90
7
 70
0
 10
-110.2575658849
 20
49.6958208436
 10
-110.2593593336
 20
49.6866149224
 10
-110.2610638956
 20
49.6774062695
 10
-110.2626798078
 20
49.668195749
 10
-110.2642073128
 20
49.6589842338
 10
-110.2656466613
 20
49.6497725905
 10
-110.2669981139
 20
49.6405616655
  0
LWPOLYLINE
  5
3F1
100
AcDbEntity
  8
262606150
100
AcDbPolyline
 62
7
  6
CONTINUOUS
 90
3
 70
0
 10
-108.6848337578
 20
57.8737837718
 10
-108.4453930871
 20
59.0383788219
 10
-108.4410596963
 20
59.0572461364
  0
LINE
  5
3F2
100
AcDbEntity
  8
262606150
100
AcDbLine
 62
7
  6
CONTINUOUS
 10
-108.4989346702
 20
58.7871383444
 11
-108.5512184901
 21
58.5369526038
  0
LINE
  5
3F3
100
AcDbEntity
  8
262606150
100
AcDbLine
 62
7
  6
CONTINUOUS
 10
-108.4489491142
 20
59.020836139
 11
-108.4989346702
 21
58.7871383444
  0
LINE
  5
3F4
100
AcDbEntity
  8
262606150
100
AcDbLine
 62
7
  6
CONTINUOUS
 10
-108.3952957577
 20
59.266067798
 11
-108.4489491142
 21
59.020836139
  0
LINE
  5
3F5
100
AcDbEntity
  8
262606150
100
AcDbLine
 62
7
  6
CONTINUOUS
 10
-108.3383313025
 20
59.5204378428
 11
-108.3952957577
 21
59.266067798
  0
LINE
  5
3F6
100
AcDbEntity
  8
262606150
100
AcDbLine
 62
7
  6
CONTINUOUS
 10
-108.278507159
 20
59.7813071346
 11
-108.3383313025
 21
59.5204378428
  0
LINE
  5
3F7
100
AcDbEntity
  8
262606150
100
AcDbLine
 62
7
  6
CONTINUOUS
 10
-108.226701409
 20
60.0022923796
 11
-108.278507159
 21
59.7813071346
  0
LINE
  5
3F8
100
AcDbEntity
  8
262606150
100
AcDbLine
 62
7
  6
CONTINUOUS
 10
-108.1729240622
 20
60.2270884421
 11
-108.226701409
 21
60.0022923796
  0
LINE
  5
3F9
100
AcDbEntity
  8
262606150
100
AcDbLine
 62
7
  6
CONTINUOUS
 10
-108.1169240847
 20
60.4564116328
 11
-108.1729240622
 21
60.2270884421
  0
LINE
  5
3FA
100
AcDbEntity
  8
262606150
100
AcDbLine
 62
7
  6
CONTINUOUS
 10
-108.0584461781
 20
60.6909144383
 11
-108.1169240847
 21
60.4564116328
  0
LINE
  5
3FB
100
AcDbEntity
  8
262606150
100
AcDbLine
 62
7
  6
CONTINUOUS
 10
-108.1235556687
 20
-60.4295018463
 11
-108.0620321239
 21
-60.6766762509
  0
LINE
  5
3FC
100
AcDbEntity
  8
262606150
100
AcDbLine
 62
7
  6
CONTINUOUS
 10
-108.1825962142
 20
-60.1869939812
 11
-108.1235556851
 21
-60.4295017796
  0
LINE
  5
3FD
100
AcDbEntity
  8
262606150
100
AcDbLine
 62
7
  6
CONTINUOUS
 10
-108.2390327015
 20
-59.9500931505
 11
-108.1825962142
 21
-60.1869939812
  0
LINE
  5
3FE
100
AcDbEntity
  8
262606150
100
AcDbLine
 62
7
  6
CONTINUOUS
 10
-108.2927548531
 20
-59.7197421783
 11
-108.2390327015
 21
-59.9500931505
  0
LINE
  5
3FF
100
AcDbEntity
  8
262606150
100
AcDbLine
 62
7
  6
CONTINUOUS
 10
-108.3437048754
 20
-59.4966967752
 11
-108.2927548531
 21
-59.7197421783
  0
LINE
  5
400
100
AcDbEntity
  8
262606150
100
AcDbLine
 62
7
  6
CONTINUOUS
 10
-108.4013151705
 20
-59.2388340309
 11
-108.3437048754
 21
-59.4966967752
  0
LINE
  5
401
100
AcDbEntity
  8
262606150
100
AcDbLine
 62
7
  6
CONTINUOUS
 10
-108.4548363781
 20
-58.9935795081
 11
-108.4013151705
 21
-59.2388340309
  0
LWPOLYLINE
  5
402
100
AcDbEntity
  8
262606150
100
AcDbPolyline
 62
7
  6
CONTINUOUS
 90
8
 70
0
 10
-110.25909157
 20
-49.6880190888
 10
-110.2493271409
 20
-49.7333161312
 10
-110.2374005817
 20
-49.7783684334
 10
-110.2233017688
 20
-49.8230686012
 10
-110.2070338085
 20
-49.8672872048
 10
-110.1886002977
 20
-49.9109141145
 10
-110.1680105035
 20
-49.9538379109
 10
-110.1452901637
 20
-49.9959275416
  0
LINE
  5
403
100
AcDbEntity
  8
262606150
100
AcDbLine
 62
7
  6
CONTINUOUS
 10
-108.504082826
 20
-58.7627701828
 11
-108.4548363781
 21
-58.9935795081
  0
LINE
  5
404
100
AcDbEntity
  8
262606150
100
AcDbLine
 62
7
  6
CONTINUOUS
 10
-108.5556264492
 20
-58.5155794039
 11
-108.504082826
 21
-58.7627701828
  0
LWPOLYLINE
  5
405
100
AcDbEntity
  8
262606150
100
AcDbPolyline
 62
7
  6
CONTINUOUS
 90
3
 70
0
 10
-108.6848339379
 20
-57.8737828414
 10
-108.4453932572
 20
-59.0383780401
 10
-108.4410122744
 20
-59.0574525685
  0
LINE
  5
406
100
AcDbEntity
  8
262606150
100
AcDbLine
 62
7
  6
CONTINUOUS
 10
-109.6110112659
 20
-52.5443916707
 11
-109.5754557828
 21
-52.8728366792
  0
LINE
  5
407
100
AcDbEntity
  8
262606150
100
AcDbLine
 62
7
  6
CONTINUOUS
 10
-109.5246508407
 20
-52.9805419047
 11
-109.5323012688
 21
-52.9095118005
  0
LINE
  5
408
100
AcDbEntity
  8
262606150
100
AcDbLine
 62
7
  6
CONTINUOUS
 10
-109.6015688355
 20
-52.5352058463
 11
-109.6273139641
 21
-52.2933988239
  0
LWPOLYLINE
  5
409
100
AcDbEntity
  8
262606150
100
AcDbPolyline
 62
7
  6
CONTINUOUS
 90
7
 70
0
 10
-109.4809680163
 20
-53.2339680363
 10
-109.4674907308
 20
-53.3607250532
 10
-109.4614873057
 20
-53.4191618639
 10
-109.4562118815
 20
-53.4741239031
 10
-109.4517390365
 20
-53.5248821461
 10
-109.4479941924
 20
-53.5701521089
 10
-109.4449773492
 20
-53.6089026669
  0
LINE
  5
40A
100
AcDbEntity
  8
262606150
100
AcDbLine
 62
7
  6
CONTINUOUS
 10
-109.6437497592
 20
-52.2195369481
 11
-109.6110112659
 21
-52.5443916707
  0
LINE
  5
40B
100
AcDbEntity
  8
262606150
100
AcDbLine
 62
7
  6
CONTINUOUS
 10
-109.6273139641
 20
-52.2933988239
 11
-109.6667082402
 21
-51.899877
  0
LINE
  5
40C
100
AcDbEntity
  8
262606150
100
AcDbLine
 62
7
  6
CONTINUOUS
 10
-109.6223501354
 20
-52.538538426
 11
-109.5901387883
 21
-52.8704760798
  0
LINE
  5
40D
100
AcDbEntity
  8
262606150
100
AcDbLine
 62
7
  6
CONTINUOUS
 10
-109.6733185456
 20
-51.899877
 11
-109.6437497592
 21
-52.2195369481
  0
LINE
  5
40E
100
AcDbEntity
  8
262606150
100
AcDbLine
 62
7
  6
CONTINUOUS
 10
-109.3999935343
 20
52.8170570009
 11
-109.4248780985
 21
52.5412756353
  0
LINE
  5
40F
100
AcDbEntity
  8
262606150
100
AcDbLine
 62
7
  6
CONTINUOUS
 10
-109.375496902
 20
53.0744878639
 11
-109.3999935343
 21
52.8170570009
  0
LINE
  5
410
100
AcDbEntity
  8
262606150
100
AcDbLine
 62
7
  6
CONTINUOUS
 10
-109.3475466885
 20
53.3537464255
 11
-109.375496902
 21
53.0744878639
  0
LINE
  5
411
100
AcDbEntity
  8
262606150
100
AcDbLine
 62
7
  6
CONTINUOUS
 10
-109.3220590804
 20
53.5967990469
 11
-109.3475466885
 21
53.3537464255
  0
LINE
  5
412
100
AcDbEntity
  8
262606150
100
AcDbLine
 62
7
  6
CONTINUOUS
 10
-109.2382386746
 20
54.3326727808
 11
-109.2326001195
 21
54.383811653
  0
LINE
  5
413
100
AcDbEntity
  8
262606150
100
AcDbLine
 62
7
  6
CONTINUOUS
 10
-109.2951504791
 20
53.8428841844
 11
-109.3220590804
 21
53.5967990469
  0
LINE
  5
414
100
AcDbEntity
  8
262606150
100
AcDbLine
 62
7
  6
CONTINUOUS
 10
-109.267485535
 20
54.0858392271
 11
-109.2951504791
 21
53.8428841844
  0
LINE
  5
415
100
AcDbEntity
  8
262606150
100
AcDbLine
 62
7
  6
CONTINUOUS
 10
-109.2397180238
 20
54.3204496502
 11
-109.267485535
 21
54.0858392271
  0
LINE
  5
416
100
AcDbEntity
  8
262606150
100
AcDbLine
 62
7
  6
CONTINUOUS
 10
-109.2073505425
 20
54.5832968129
 11
-109.2397180238
 21
54.3204496502
  0
LWPOLYLINE
  5
417
100
AcDbEntity
  8
262606150
100
AcDbPolyline
 62
7
  6
CONTINUOUS
 90
7
 70
0
 10
-109.4982597472
 20
51.6177978251
 10
-109.5239821614
 20
51.4124032524
 10
-109.5638059862
 20
51.2092760329
 10
-109.617540647
 20
51.0093830744
 10
-109.6849293999
 20
50.8136756501
 10
-109.7656506072
 20
50.6230848873
 10
-109.8593191925
 20
50.4385175892
  0
LWPOLYLINE
  5
418
100
AcDbEntity
  8
262606150
100
AcDbPolyline
 62
7
  6
CONTINUOUS
 90
10
 70
0
 10
-110.268261937
 20
49.631352313
 10
-110.2694384047
 20
49.6221453817
 10
-110.2705278006
 20
49.612941699
 10
-110.2715304136
 20
49.6037421008
 10
-110.2724465406
 20
49.5945474165
 10
-110.2732764868
 20
49.5853584548
 10
-110.2740205632
 20
49.5761760323
 10
-110.2746790882
 20
49.5670009592
 10
-110.2752523879
 20
49.5578340245
 10
-110.2757407943
 20
49.5486760254
  0
LINE
  5
419
100
AcDbEntity
  8
262606150
100
AcDbLine
 62
7
  6
CONTINUOUS
 10
-109.1748665497
 20
54.8366006262
 11
-109.2073505425
 21
54.5832968129
  0
LWPOLYLINE
  5
41A
100
AcDbEntity
  8
262606150
100
AcDbPolyline
 62
7
  6
CONTINUOUS
 90
4
 70
0
 10
-109.2326001195
 20
54.383811653
 10
-109.083757126
 20
55.5096423559
 10
-108.9002937698
 20
56.6848459821
 10
-108.6848337578
 20
57.8737837718
  0
LWPOLYLINE
  5
41B
100
AcDbEntity
  8
262606150
100
AcDbPolyline
 62
7
  6
CONTINUOUS
 90
3
 70
0
 10
-109.0837573248
 20
-55.5096409736
 10
-108.900293966
 20
-56.6848448187
 10
-108.6848339379
 20
-57.8737828414
  0
LINE
  5
41C
100
AcDbEntity
  8
262606150
100
AcDbLine
 62
7
  6
CONTINUOUS
 10
-109.0670871023
 20
-54.8
 11
-109.1301252997
 21
-54.3904333173
  0
LINE
  5
41D
100
AcDbEntity
  8
262606150
100
AcDbLine
 62
7
  6
CONTINUOUS
 10
-109.332047591
 20
-54.3903978426
 11
-109.2691562774
 21
-54.8
  0
LINE
  5
41E
100
AcDbEntity
  8
262606150
100
AcDbLine
 62
7
  6
CONTINUOUS
 10
-109.287527811
 20
-54.800007
 11
-109.3457647131
 21
-54.4153575814
  0
LWPOLYLINE
  5
41F
100
AcDbEntity
  8
262606150
100
AcDbPolyline
 62
7
  6
CONTINUOUS
 90
9
 70
0
 10
-109.4258072208
 20
-52.0287326845
 10
-109.4303455198
 20
-51.9977298398
 10
-109.4344143718
 20
-51.9712343663
 10
-109.4380050814
 20
-51.9492401665
 10
-109.441126344
 20
-51.9315044071
 10
-109.4438262669
 20
-51.9176919307
 10
-109.446120886
 20
-51.9077780001
 10
-109.4479941653
 20
-51.9018454176
 10
-109.449446105
 20
-51.8998751129
  0
LINE
  5
420
100
AcDbEntity
  8
262606150
100
AcDbLine
 62
7
  6
CONTINUOUS
 10
-109.1301252997
 20
-54.3904333173
 11
-109.1888374011
 21
-53.9933980149
  0
LINE
  5
421
100
AcDbEntity
  8
262606150
100
AcDbLine
 62
7
  6
CONTINUOUS
 10
-109.3906133719
 20
-53.9933602526
 11
-109.332047591
 21
-54.3903978426
  0
LINE
  5
422
100
AcDbEntity
  8
262606150
100
AcDbLine
 62
7
  6
CONTINUOUS
 10
-109.3457647131
 20
-54.4153575814
 11
-109.400048161
 21
-54.041569786
  0
LWPOLYLINE
  5
423
100
AcDbEntity
  8
262606150
100
AcDbPolyline
 62
7
  6
CONTINUOUS
 90
9
 70
0
 10
-109.579078078
 20
-52.5252624146
 10
-109.5820337356
 20
-52.5041944496
 10
-109.5846647789
 20
-52.4860769977
 10
-109.5869605866
 20
-52.4709783081
 10
-109.58893178
 20
-52.4587445039
 10
-109.5906027826
 20
-52.4490940913
 10
-109.5919817358
 20
-52.4420679774
 10
-109.5930604983
 20
-52.4378216605
 10
-109.5938390701
 20
-52.4364
  0
LINE
  5
424
100
AcDbEntity
  8
262606150
100
AcDbLine
 62
7
  6
CONTINUOUS
 10
-109.3784980995
 20
-54.457411964
 11
-109.330223224
 21
-54.800015
  0
LINE
  5
425
100
AcDbEntity
  8
262606150
100
AcDbLine
 62
7
  6
CONTINUOUS
 10
-109.1888374011
 20
-53.9933980149
 11
-109.2433450336
 21
-53.6089026669
  0
LINE
  5
426
100
AcDbEntity
  8
262606150
100
AcDbLine
 62
7
  6
CONTINUOUS
 10
-109.4449773492
 20
-53.6089026669
 11
-109.3906133719
 21
-53.9933602526
  0
LINE
  5
427
100
AcDbEntity
  8
262606150
100
AcDbLine
 62
7
  6
CONTINUOUS
 10
-109.400048161
 20
-54.041569786
 11
-109.450495106
 21
-53.678657
  0
LINE
  5
428
100
AcDbEntity
  8
262606150
100
AcDbLine
 62
7
  6
CONTINUOUS
 10
-109.4152804163
 20
-52.1045638711
 11
-109.4258072208
 21
-52.0287326845
  0
LINE
  5
429
100
AcDbEntity
  8
262606150
100
AcDbLine
 62
7
  6
CONTINUOUS
 10
-109.6260111335
 20
-52.0350996462
 11
-109.6150184805
 21
-52.1150266086
  0
LINE
  5
42A
100
AcDbEntity
  8
262606150
100
AcDbLine
 62
7
  6
CONTINUOUS
 10
-109.323533023
 20
-54.800007
 11
-109.3647070397
 21
-54.4994608129
  0
LINE
  5
42B
100
AcDbEntity
  8
262606150
100
AcDbLine
 62
7
  6
CONTINUOUS
 10
-109.3650113682
 20
-54.4171071495
 11
-109.3124303936
 21
-54.800007
  0
LINE
  5
42C
100
AcDbEntity
  8
262606150
100
AcDbLine
 62
7
  6
CONTINUOUS
 10
-109.4219881689
 20
-54.136417795
 11
-109.3784980995
 21
-54.457411964
  0
LINE
  5
42D
100
AcDbEntity
  8
262606150
100
AcDbLine
 62
7
  6
CONTINUOUS
 10
-109.572194649
 20
-52.5766249578
 11
-109.579078078
 21
-52.5252624146
  0
LINE
  5
42E
100
AcDbEntity
  8
262606150
100
AcDbLine
 62
7
  6
CONTINUOUS
 10
-109.3647070397
 20
-54.4994608129
 11
-109.404525729
 21
-54.1985719683
  0
LINE
  5
42F
100
AcDbEntity
  8
262606150
100
AcDbLine
 62
7
  6
CONTINUOUS
 10
-109.1796368377
 20
-54.8000171719
 11
-109.0837573248
 21
-55.5096409736
  0
LINE
  5
430
100
AcDbEntity
  8
262606150
100
AcDbLine
 62
7
  6
CONTINUOUS
 10
-109.4027173124
 20
-52.1997288799
 11
-109.4152804163
 21
-52.1045638711
  0
LINE
  5
431
100
AcDbEntity
  8
262606150
100
AcDbLine
 62
7
  6
CONTINUOUS
 10
-109.4142551272
 20
-54.0432951525
 11
-109.3650113682
 21
-54.4171071495
  0
LINE
  5
432
100
AcDbEntity
  8
262606150
100
AcDbLine
 62
7
  6
CONTINUOUS
 10
-109.6150184805
 20
-52.1150266086
 11
-109.6018058861
 21
-52.2161798343
  0
LINE
  5
433
100
AcDbEntity
  8
262606150
100
AcDbLine
 62
7
  6
CONTINUOUS
 10
-109.3927500581
 20
-54.5123351339
 11
-109.3553865796
 21
-54.800007
  0
LINE
  5
434
100
AcDbEntity
  8
262606150
100
AcDbLine
 62
7
  6
CONTINUOUS
 10
-109.4615207943
 20
-53.8311944086
 11
-109.4219881689
 21
-54.136417795
  0
LINE
  5
435
100
AcDbEntity
  8
262606150
100
AcDbLine
 62
7
  6
CONTINUOUS
 10
-109.5640911376
 20
-52.6398517909
 11
-109.572194649
 21
-52.5766249578
  0
LWPOLYLINE
  5
436
100
AcDbEntity
  8
262606150
100
AcDbPolyline
 62
7
  6
CONTINUOUS
 90
3
 70
0
 10
-109.404525729
 20
-54.1985719683
 10
-109.4429673396
 20
-53.897609597
 10
-109.4554796994
 20
-53.797335382
  0
LINE
  5
437
100
AcDbEntity
  8
262606150
100
AcDbLine
 62
7
  6
CONTINUOUS
 10
-109.6018058861
 20
-52.2161798343
 11
-109.5861261026
 21
-52.3403369244
  0
LINE
  5
438
100
AcDbEntity
  8
262606150
100
AcDbLine
 62
7
  6
CONTINUOUS
 10
-109.4603572309
 20
-53.67865
 11
-109.4142551272
 21
-54.0432951525
  0
LINE
  5
439
100
AcDbEntity
  8
262606150
100
AcDbLine
 62
7
  6
CONTINUOUS
 10
-109.379382336
 20
-52.384701182
 11
-109.4027173124
 21
-52.1997288799
  0
LINE
  5
43A
100
AcDbEntity
  8
262606150
100
AcDbLine
 62
7
  6
CONTINUOUS
 10
-109.4280996563
 20
-54.229679
 11
-109.3927500581
 21
-54.5123351339
  0
LINE
  5
43B
100
AcDbEntity
  8
262606150
100
AcDbLine
 62
7
  6
CONTINUOUS
 10
-109.5003402542
 20
-53.5190468325
 11
-109.4615207943
 21
-53.8311944086
  0
LINE
  5
43C
100
AcDbEntity
  8
262606150
100
AcDbLine
 62
7
  6
CONTINUOUS
 10
-109.5548539366
 20
-52.7144632528
 11
-109.5640911376
 21
-52.6398517909
  0
LINE
  5
43D
100
AcDbEntity
  8
262606150
100
AcDbLine
 62
7
  6
CONTINUOUS
 10
-109.4658091129
 20
-54.0012416102
 11
-109.4267287716
 21
-54.3200760579
  0
LINE
  5
43E
100
AcDbEntity
  8
262606150
100
AcDbLine
 62
7
  6
CONTINUOUS
 10
-109.4243449358
 20
-54.3044199146
 11
-109.4608377594
 21
-54.0027115634
  0
LINE
  5
43F
100
AcDbEntity
  8
262606150
100
AcDbLine
 62
7
  6
CONTINUOUS
 10
-109.5383553917
 20
-53.1994332987
 11
-109.5003402542
 21
-53.5190468325
  0
LINE
  5
440
100
AcDbEntity
  8
262606150
100
AcDbLine
 62
7
  6
CONTINUOUS
 10
-109.54090823
 20
-52.8326803577
 11
-109.5548539366
 21
-52.7144632528
  0
LINE
  5
441
100
AcDbEntity
  8
262606150
100
AcDbLine
 62
7
  6
CONTINUOUS
 10
-109.3032984078
 20
-53.0223179045
 11
-109.379382336
 21
-52.384701182
  0
LWPOLYLINE
  5
442
100
AcDbEntity
  8
262606150
100
AcDbPolyline
 62
7
  6
CONTINUOUS
 90
3
 70
0
 10
-109.4800920041
 20
-53.5966135686
 10
-109.528101567
 20
-53.1914391528
 10
-109.5400552475
 20
-53.0876659422
  0
LINE
  5
443
100
AcDbEntity
  8
262606150
100
AcDbLine
 62
7
  6
CONTINUOUS
 10
-109.5861261026
 20
-52.3403369244
 11
-109.5046438588
 21
-53.023912124
  0
LINE
  5
444
100
AcDbEntity
  8
262606150
100
AcDbLine
 62
7
  6
CONTINUOUS
 10
-109.5028328228
 20
-53.6847067417
 11
-109.4658091129
 21
-54.0012416102
  0
LINE
  5
445
100
AcDbEntity
  8
262606150
100
AcDbLine
 62
7
  6
CONTINUOUS
 10
-109.4608377594
 20
-54.0027115634
 11
-109.4977108459
 21
-53.6839620878
  0
LINE
  5
446
100
AcDbEntity
  8
262606150
100
AcDbLine
 62
7
  6
CONTINUOUS
 10
-109.5212622619
 20
-53.5214151295
 11
-109.5028328228
 21
-53.6847067417
  0
LINE
  5
447
100
AcDbEntity
  8
262606150
100
AcDbLine
 62
7
  6
CONTINUOUS
 10
-109.5754557828
 20
-52.8728366792
 11
-109.5383553917
 21
-53.1994332987
  0
LINE
  5
448
100
AcDbEntity
  8
262606150
100
AcDbLine
 62
7
  6
CONTINUOUS
 10
-109.5883157841
 20
-52.5887552947
 11
-109.5251318005
 21
-53.142128
  0
LINE
  5
449
100
AcDbEntity
  8
262606150
100
AcDbLine
 62
7
  6
CONTINUOUS
 10
-109.5046438588
 20
-53.023912124
 11
-109.4809680163
 21
-53.2339680363
  0
LINE
  5
44A
100
AcDbEntity
  8
262606150
100
AcDbLine
 62
7
  6
CONTINUOUS
 10
-109.2785147863
 20
-53.2420845137
 11
-109.3032984078
 21
-53.0223179045
  0
LINE
  5
44B
100
AcDbEntity
  8
262606150
100
AcDbLine
 62
7
  6
CONTINUOUS
 10
-109.5323012688
 20
-52.9095118005
 11
-109.54090823
 21
-52.8326803577
  0
LINE
  5
44C
100
AcDbEntity
  8
262606150
100
AcDbLine
 62
7
  6
CONTINUOUS
 10
-109.6052002081
 20
-52.436398
 11
-109.5883157841
 21
-52.5887552947
  0
LINE
  5
44D
100
AcDbEntity
  8
262606150
100
AcDbLine
 62
7
  6
CONTINUOUS
 10
-109.4982763474
 20
-51.6176140792
 11
-109.493518272
 21
-51.6767792604
  0
LWPOLYLINE
  5
44E
100
AcDbEntity
  8
262606150
100
AcDbPolyline
 62
7
  6
CONTINUOUS
 90
7
 70
0
 10
-109.2433450336
 20
-53.6089026669
 10
-109.245948823
 20
-53.573800398
 10
-109.2493767445
 20
-53.5321747551
 10
-109.2536287983
 20
-53.4844107559
 10
-109.2587744924
 20
-53.4308647623
 10
-109.2647443186
 20
-53.3720758782
 10
-109.2785147863
 20
-53.2420845137
  0
LINE
  5
44F
100
AcDbEntity
  8
262606150
100
AcDbLine
 62
7
  6
CONTINUOUS
 10
-109.4935181899
 20
-51.6767804212
 11
-109.477233153
 21
-51.899877
  0
LWPOLYLINE
  5
450
100
AcDbEntity
  8
262606150
100
AcDbPolyline
 62
253
  6
CONTINUOUS
 90
7
 70
0
 10
-109.4960397963
 20
-51.536278951
 10
-109.4925316076
 20
-51.5959129681
 10
-109.4916020885
 20
-51.6128527947
 10
-109.4909004793
 20
-51.6270774209
 10
-109.4904855556
 20
-51.6379655883
 10
-109.4903724518
 20
-51.645312753
 10
-109.4905793404
 20
-51.6487433851
  0
LWPOLYLINE
  5
451
100
AcDbEntity
  8
262606150
100
AcDbPolyline
 62
253
  6
CONTINUOUS
 90
4
 70
0
 10
-110.0952374618
 20
-1.9323421552
 10
-110.0950737589
 20
-1.9362708257
 10
-110.0949255489
 20
-1.9413420846
 10
-110.0947928488
 20
-1.947639098
  0
LWPOLYLINE
  5
452
100
AcDbEntity
  8
262606150
100
AcDbPolyline
 62
253
  6
CONTINUOUS
 90
6
 70
0
 10
-109.5007276448
 20
-51.4250979513
 10
-109.4999810001
 20
-51.4486500333
 10
-109.4991468584
 20
-51.4713104475
 10
-109.4982383422
 20
-51.4930775186
 10
-109.4972057618
 20
-51.5146951093
 10
-109.4960397963
 20
-51.536278951
  0
LWPOLYLINE
  5
453
100
AcDbEntity
  8
262606150
100
AcDbPolyline
 62
253
  6
CONTINUOUS
 90
6
 70
0
 10
-110.079428126
 20
-50.0318160986
 10
-110.0778869312
 20
-50.0838781592
 10
-110.0777405804
 20
-50.0903197056
 10
-110.0776777638
 20
-50.0950900701
 10
-110.0776893292
 20
-50.0979886541
 10
-110.0777752709
 20
-50.0988196844
  0
LINE
  5
454
100
AcDbEntity
  8
262606150
100
AcDbLine
 62
253
  6
CONTINUOUS
 10
-109.50259018
 20
-51.3494860171
 11
-109.5007276448
 21
-51.4250979513
  0
LINE
  5
455
100
AcDbEntity
  8
262606150
100
AcDbLine
 62
253
  6
CONTINUOUS
 10
-110.0804656248
 20
-49.9892283214
 11
-110.079428126
 21
-50.0318160986
  0
LINE
  5
456
100
AcDbEntity
  8
262606150
100
AcDbLine
 62
253
  6
CONTINUOUS
 10
-109.5036804685
 20
-51.2943058943
 11
-109.50259018
 21
-51.3494860171
  0
LINE
  5
457
100
AcDbEntity
  8
262606150
100
AcDbLine
 62
253
  6
CONTINUOUS
 10
-109.5133484191
 20
-50.7803338007
 11
-109.5062814919
 21
-51.1278038038
  0
LINE
  5
458
100
AcDbEntity
  8
262606150
100
AcDbLine
 62
253
  6
CONTINUOUS
 10
-110.081279163
 20
-49.9425296933
 11
-110.0804656248
 21
-49.9892283214
  0
LINE
  5
459
100
AcDbEntity
  8
262606150
100
AcDbLine
 62
253
  6
CONTINUOUS
 10
-109.5062814919
 20
-51.1278038038
 11
-109.5036804685
 21
-51.2943058943
  0
LINE
  5
45A
100
AcDbEntity
  8
262606150
100
AcDbLine
 62
253
  6
CONTINUOUS
 10
-109.5163132795
 20
-50.5810957516
 11
-109.5133484191
 21
-50.7803338007
  0
LINE
  5
45B
100
AcDbEntity
  8
262606150
100
AcDbLine
 62
253
  6
CONTINUOUS
 10
-110.0947928488
 20
-1.947639098
 11
-110.0945666855
 21
-1.9641951091
  0
LINE
  5
45C
100
AcDbEntity
  8
262606150
100
AcDbLine
 62
253
  6
CONTINUOUS
 10
-110.0821427355
 20
-49.8741605632
 11
-110.081279163
 21
-49.9425296933
  0
LINE
  5
45D
100
AcDbEntity
  8
262606150
100
AcDbLine
 62
7
  6
CONTINUOUS
 10
-110.2769079217
 20
49.4939592153
 11
-110.2768932742
 21
49.4925745725
  0
LINE
  5
45E
100
AcDbEntity
  8
262606150
100
AcDbLine
 62
253
  6
CONTINUOUS
 10
-110.0857687648
 20
-49.5266341869
 11
-110.0821427355
 21
-49.8741605632
  0
LINE
  5
45F
100
AcDbEntity
  8
262606150
100
AcDbLine
 62
253
  6
CONTINUOUS
 10
-109.5195542043
 20
-50.2446470435
 11
-109.5163132795
 21
-50.5810957516
  0
LINE
  5
460
100
AcDbEntity
  8
262606150
100
AcDbLine
 62
253
  6
CONTINUOUS
 10
-110.0945666855
 20
-1.9641951091
 11
-110.0944391821
 21
-1.9869479693
  0
LINE
  5
461
100
AcDbEntity
  8
262606150
100
AcDbLine
 62
253
  6
CONTINUOUS
 10
-110.0874614057
 20
-49.1864519644
 11
-110.0857687648
 21
-49.5266341869
  0
LWPOLYLINE
  5
462
100
AcDbEntity
  8
262606150
100
AcDbPolyline
 62
253
  6
CONTINUOUS
 90
3
 70
0
 10
-109.5224298585
 20
-49.5542106541
 10
-109.5221804873
 20
-49.686521156
 10
-109.5195542043
 20
-50.2446470435
  0
LINE
  5
463
100
AcDbEntity
  8
262606150
100
AcDbLine
 62
253
  6
CONTINUOUS
 10
-109.5329500685
 20
-45.0380305212
 11
-109.5228033589
 21
-48.7644041093
  0
LINE
  5
464
100
AcDbEntity
  8
262606150
100
AcDbLine
 62
253
  6
CONTINUOUS
 10
-110.0948666201
 20
-26.0
 11
-110.0874614057
 21
-49.1864519644
  0
LINE
  5
465
100
AcDbEntity
  8
262606150
100
AcDbLine
 62
7
  6
CONTINUOUS
 10
-110.2769215254
 20
49.5030473368
 11
-110.2768855094
 21
2.4999964342
  0
LINE
  5
466
100
AcDbEntity
  8
262606150
100
AcDbLine
 62
7
  6
CONTINUOUS
 10
-110.2768855094
 20
-2.5
 11
-110.2768932742
 21
-49.4999014424
  0
LINE
  5
467
100
AcDbEntity
  8
262606150
100
AcDbLine
 62
253
  6
CONTINUOUS
 10
-110.0952384973
 20
1.9323400865
 11
-110.0952386618
 21
1.9252807496
  0
LINE
  5
468
100
AcDbEntity
  8
262606150
100
AcDbLine
 62
253
  6
CONTINUOUS
 10
-110.0952383822
 20
-1.9252839174
 11
-110.0952383822
 21
-1.9323434618
  0
LINE
  5
469
100
AcDbEntity
  8
262606150
100
AcDbLine
 62
253
  6
CONTINUOUS
 10
-110.0954436325
 20
2.7662304927
 11
-110.0944182939
 21
1.9981983028
  0
LINE
  5
46A
100
AcDbEntity
  8
262606150
100
AcDbLine
 62
253
  6
CONTINUOUS
 10
-110.0948813139
 20
3.6866996507
 11
-110.0954436325
 21
2.7662304927
  0
LINE
  5
46B
100
AcDbEntity
  8
262606150
100
AcDbLine
 62
253
  6
CONTINUOUS
 10
-110.0944391821
 20
-1.9869479693
 11
-110.0944598192
 21
-2.0351756562
  0
LWPOLYLINE
  5
46C
100
AcDbEntity
  8
262606150
100
AcDbPolyline
 62
253
  6
CONTINUOUS
 90
3
 70
0
 10
-110.0944598192
 20
-2.0351756562
 10
-110.0948112247
 20
-2.133400378
 10
-110.0948664049
 20
-26.0
  0
LINE
  5
46D
100
AcDbEntity
  8
262606150
100
AcDbLine
 62
253
  6
CONTINUOUS
 10
-110.0870007656
 20
49.3158775745
 11
-110.0948813139
 21
3.6866996507
  0
LINE
  5
46E
100
AcDbEntity
  8
262606150
100
AcDbLine
 62
253
  6
CONTINUOUS
 10
-110.0944182939
 20
1.9981983028
 11
-110.094498008
 21
1.9730752119
  0
LINE
  5
46F
100
AcDbEntity
  8
262606150
100
AcDbLine
 62
253
  6
CONTINUOUS
 10
-109.5227781575
 20
48.8121640606
 11
-109.532893181
 21
45.0758750753
  0
LINE
  5
470
100
AcDbEntity
  8
262606150
100
AcDbLine
 62
253
  6
CONTINUOUS
 10
-109.519326592
 20
50.2761506939
 11
-109.522297668
 21
49.6565524828
  0
LINE
  5
471
100
AcDbEntity
  8
262606150
100
AcDbLine
 62
253
  6
CONTINUOUS
 10
-110.0854678142
 20
49.5635671732
 11
-110.0870007656
 21
49.3158775745
  0
LINE
  5
472
100
AcDbEntity
  8
262606150
100
AcDbLine
 62
253
  6
CONTINUOUS
 10
-109.5165658166
 20
50.5594372696
 11
-109.519326592
 21
50.2761506939
  0
LWPOLYLINE
  5
473
100
AcDbEntity
  8
262606150
100
AcDbPolyline
 62
253
  6
CONTINUOUS
 90
6
 70
0
 10
-110.094498008
 20
1.9730752119
 10
-110.0946837699
 20
1.9543587633
 10
-110.0948034866
 20
1.947078139
 10
-110.0949339218
 20
1.9410251749
 10
-110.0950786395
 20
1.9361392855
 10
-110.0952376244
 20
1.9323388473
  0
LINE
  5
474
100
AcDbEntity
  8
262606150
100
AcDbLine
 62
253
  6
CONTINUOUS
 10
-110.0815245326
 20
49.9259049884
 11
-110.0854678142
 21
49.5635671732
  0
LINE
  5
475
100
AcDbEntity
  8
262606150
100
AcDbLine
 62
253
  6
CONTINUOUS
 10
-109.5132676587
 20
50.7867669688
 11
-109.5165658166
 21
50.5594372696
  0
LINE
  5
476
100
AcDbEntity
  8
262606150
100
AcDbLine
 62
253
  6
CONTINUOUS
 10
-109.5032789392
 20
51.3172054546
 11
-109.5063271208
 21
51.1279653665
  0
LINE
  5
477
100
AcDbEntity
  8
262606150
100
AcDbLine
 62
253
  6
CONTINUOUS
 10
-110.0806177838
 20
49.9810788333
 11
-110.0815245326
 21
49.9259049884
  0
LINE
  5
478
100
AcDbEntity
  8
262606150
100
AcDbLine
 62
253
  6
CONTINUOUS
 10
-109.5063271208
 20
51.1279653665
 11
-109.5132676587
 21
50.7867669688
  0
LINE
  5
479
100
AcDbEntity
  8
262606150
100
AcDbLine
 62
253
  6
CONTINUOUS
 10
-110.079882132
 20
50.0148483663
 11
-110.0806177838
 21
49.9810788333
  0
LINE
  5
47A
100
AcDbEntity
  8
262606150
100
AcDbLine
 62
253
  6
CONTINUOUS
 10
-109.5019389128
 20
51.3792700423
 11
-109.5032789392
 21
51.3172054546
  0
LWPOLYLINE
  5
47B
100
AcDbEntity
  8
262606150
100
AcDbPolyline
 62
7
  6
CONTINUOUS
 90
5
 70
0
 10
-110.2761446464
 20
49.5395277524
 10
-110.2764642902
 20
49.5303899748
 10
-110.2767000778
 20
49.5212634695
 10
-110.2768523678
 20
49.5121490072
 10
-110.2769215254
 20
49.5030473368
  0
LINE
  5
47C
100
AcDbEntity
  8
262606150
100
AcDbLine
 62
7
  6
CONTINUOUS
 10
-110.2729459141
 20
49.5886993509
 11
-110.2768932742
 21
49.4999327995
  0
LWPOLYLINE
  5
47D
100
AcDbEntity
  8
262606150
100
AcDbPolyline
 62
253
  6
CONTINUOUS
 90
5
 70
0
 10
-109.4972863411
 20
51.5129386451
 10
-109.4985012896
 20
51.4876006802
 10
-109.4995125322
 20
51.4619495032
 10
-109.5003590663
 20
51.435939447
 10
-109.5019389128
 20
51.3792700423
  0
LINE
  5
47E
100
AcDbEntity
  8
262606150
100
AcDbLine
 62
253
  6
CONTINUOUS
 10
-109.4911337452
 20
51.6219751357
 11
-109.4972863411
 21
51.5129386451
  0
LWPOLYLINE
  5
47F
100
AcDbEntity
  8
262606150
100
AcDbPolyline
 62
253
  6
CONTINUOUS
 90
20
 70
0
 10
-109.4935182568
 20
51.6767795048
 10
-109.4935499211
 20
51.6762757771
 10
-109.4935796289
 20
51.6756402812
 10
-109.4935993187
 20
51.6749908122
 10
-109.4936094075
 20
51.6743283168
 10
-109.4936103237
 20
51.6736538863
 10
-109.4936024714
 20
51.6729673144
 10
-109.4935862465
 20
51.6722696413
 10
-109.4935620611
 20
51.6715620218
 10
-109.4935302642
 20
51.6708441585
 10
-109.493491241
 20
51.670117004
 10
-109.4934453814
 20
51.6693818281
 10
-109.4933929225
 20
51.6686388224
 10
-109.4933341573
 20
51.6678894998
 10
-109.4932694205
 20
51.6671352821
 10
-109.4931988861
 20
51.6663761887
 10
-109.4931228091
 20
51.6656132579
 10
-109.4930414601
 20
51.6648482966
 10
-109.4929551088
 20
51.6640808525
 10
-109.4928641701
 20
51.6633106925
  0
LWPOLYLINE
  5
480
100
AcDbEntity
  8
262606150
100
AcDbPolyline
 62
253
  6
CONTINUOUS
 90
10
 70
0
 10
-106.7207683768
 20
65.0989160606
 10
-106.7207806795
 20
65.0987344096
 10
-106.7207260834
 20
65.0983670642
 10
-106.7205981403
 20
65.0978245379
 10
-106.7203994583
 20
65.097099463
 10
-106.7201304691
 20
65.0961987343
 10
-106.7197865668
 20
65.0951410713
 10
-106.7193732689
 20
65.0939225873
 10
-106.7188957934
 20
65.0925461101
 10
-106.7183478304
 20
65.0910405233
  0
LINE
  5
481
100
AcDbEntity
  8
262606150
100
AcDbLine
 62
7
  6
CONTINUOUS
 10
-109.4763753254
 20
51.9112818314
 11
-109.4935181653
 21
51.6767807691
  0
LINE
  5
482
100
AcDbEntity
  8
262606150
100
AcDbLine
 62
7
  6
CONTINUOUS
 10
-109.4561374218
 20
52.1700938522
 11
-109.4763753254
 21
51.9112818314
  0
LINE
  5
483
100
AcDbEntity
  8
262606150
100
AcDbLine
 62
7
  6
CONTINUOUS
 10
-109.4935182565
 20
51.6767795091
 11
-109.4982597472
 21
51.6177978251
  0
LINE
  5
484
100
AcDbEntity
  8
262606150
100
AcDbLine
 62
7
  6
CONTINUOUS
 10
-109.4346844191
 20
52.4280745098
 11
-109.4561374218
 21
52.1700938522
  0
LINE
  5
485
100
AcDbEntity
  8
262606150
100
AcDbLine
 62
7
  6
CONTINUOUS
 10
-109.4248780985
 20
52.5412756353
 11
-109.4346844191
 21
52.4280745098
  0
LWPOLYLINE
  5
486
100
AcDbEntity
  8
262606150
100
AcDbPolyline
 62
253
  6
CONTINUOUS
 90
6
 70
0
 10
-110.0777752005
 20
50.0988198489
 10
-110.077687
 20
50.0977283895
 10
-110.0776914964
 20
50.0940357015
 10
-110.077788687
 20
50.0879972849
 10
-110.0779944707
 20
50.0798716998
 10
-110.079882132
 20
50.0148483663
  0
LWPOLYLINE
  5
487
100
AcDbEntity
  8
262606150
100
AcDbPolyline
 62
253
  6
CONTINUOUS
 90
4
 70
0
 10
-109.4905771755
 20
51.6487420359
 10
-109.4903627603
 20
51.6445151712
 10
-109.4905526488
 20
51.6354305577
 10
-109.4911337452
 20
51.6219751357
  0
LINE
  5
488
100
AcDbEntity
  8
262606150
100
AcDbLine
 62
7
  6
CONTINUOUS
 10
-110.2768932742
 20
49.4999327995
 11
-110.276068013
 21
49.4826460818
  0
LINE
  5
489
100
AcDbEntity
  8
262606150
100
AcDbLine
 62
253
  6
CONTINUOUS
 10
-109.5572394854
 20
0.4169017593
 11
-109.5513476437
 21
0.2444164825
  0
LINE
  5
48A
100
AcDbEntity
  8
262606150
100
AcDbLine
 62
253
  6
CONTINUOUS
 10
-105.661136413
 20
-62.7774692469
 11
-105.6547928445
 21
-63.0
  0
LINE
  5
48B
100
AcDbEntity
  8
262606150
100
AcDbLine
 62
253
  6
CONTINUOUS
 10
-106.598926333
 20
-62.9147530082
 11
-106.5914226137
 21
-63.1955720825
  0
LINE
  5
48C
100
AcDbEntity
  8
262606150
100
AcDbLine
 62
253
  6
CONTINUOUS
 10
-105.6656074772
 20
-62.5732739881
 11
-105.661136413
 21
-62.7774692469
  0
LINE
  5
48D
100
AcDbEntity
  8
262606150
100
AcDbLine
 62
253
  6
CONTINUOUS
 10
-106.6036709923
 20
-62.6943034514
 11
-106.598926333
 21
-62.9147530082
  0
LINE
  5
48E
100
AcDbEntity
  8
262606150
100
AcDbLine
 62
253
  6
CONTINUOUS
 10
-106.5914226137
 20
-63.1955720825
 11
-106.5865961998
 21
-63.4183165398
  0
LINE
  5
48F
100
AcDbEntity
  8
262606150
100
AcDbLine
 62
253
  6
CONTINUOUS
 10
-105.6547928445
 20
-63.0
 11
-105.6479157984
 21
-63.37990475
  0
LINE
  5
490
100
AcDbEntity
  8
262606150
100
AcDbLine
 62
253
  6
CONTINUOUS
 10
-106.5865961998
 20
-63.4183165398
 11
-106.5825045514
 21
-63.667716214
  0
LINE
  5
491
100
AcDbEntity
  8
262606150
100
AcDbLine
 62
253
  6
CONTINUOUS
 10
-105.6683590534
 20
-62.385516839
 11
-105.6656074772
 21
-62.5732739881
  0
LINE
  5
492
100
AcDbEntity
  8
262606150
100
AcDbLine
 62
253
  6
CONTINUOUS
 10
-106.6064526793
 20
-62.4926487407
 11
-106.6036709923
 21
-62.6943034514
  0
LINE
  5
493
100
AcDbEntity
  8
262606150
100
AcDbLine
 62
253
  6
CONTINUOUS
 10
-105.6479157984
 20
-63.37990475
 11
-105.6420991388
 21
-63.8092337863
  0
LINE
  5
494
100
AcDbEntity
  8
262606150
100
AcDbLine
 62
253
  6
CONTINUOUS
 10
-106.580274807
 20
64.5910088439
 11
-106.5788961059
 21
64.4804890351
  0
LINE
  5
495
100
AcDbEntity
  8
262606150
100
AcDbLine
 62
253
  6
CONTINUOUS
 10
-106.5825045514
 20
-63.667716214
 11
-106.5799628762
 21
-63.8879370904
  0
LINE
  5
496
100
AcDbEntity
  8
262606150
100
AcDbLine
 62
253
  6
CONTINUOUS
 10
-105.6420991388
 20
-63.8092337863
 11
-105.6376823132
 21
-64.2999267874
  0
LINE
  5
497
100
AcDbEntity
  8
262606150
100
AcDbLine
 62
253
  6
CONTINUOUS
 10
-105.6703717458
 20
-62.1209465316
 11
-105.6683590534
 21
-62.385516839
  0
LINE
  5
498
100
AcDbEntity
  8
262606150
100
AcDbLine
 62
253
  6
CONTINUOUS
 10
-106.6077807482
 20
-62.3040637265
 11
-106.6064526793
 21
-62.4926487407
  0
LINE
  5
499
100
AcDbEntity
  8
262606150
100
AcDbLine
 62
253
  6
CONTINUOUS
 10
-106.5799628762
 20
-63.8879370904
 11
-106.5783791588
 21
-64.1230977423
  0
LINE
  5
49A
100
AcDbEntity
  8
262606150
100
AcDbLine
 62
253
  6
CONTINUOUS
 10
-106.5788961059
 20
64.4804890351
 11
-106.5782121682
 21
64.3635396213
  0
LINE
  5
49B
100
AcDbEntity
  8
262606150
100
AcDbLine
 62
253
  6
CONTINUOUS
 10
-105.6376823132
 20
-64.2999267874
 11
-105.6357447833
 21
-64.7464481721
  0
LINE
  5
49C
100
AcDbEntity
  8
262606150
100
AcDbLine
 62
253
  6
CONTINUOUS
 10
-105.6365396699
 20
65.1932154931
 11
-105.6356524439
 21
64.9281241341
  0
LINE
  5
49D
100
AcDbEntity
  8
262606150
100
AcDbLine
 62
253
  6
CONTINUOUS
 10
-105.7563683203
 20
-34.2047140618
 11
-105.6703717458
 21
-62.1209465316
  0
LINE
  5
49E
100
AcDbEntity
  8
262606150
100
AcDbLine
 62
253
  6
CONTINUOUS
 10
-106.6732518815
 20
-35.0052799588
 11
-106.6077807482
 21
-62.3040637265
  0
LINE
  5
49F
100
AcDbEntity
  8
262606150
100
AcDbLine
 62
253
  6
CONTINUOUS
 10
-109.5488657447
 20
-26.0
 11
-109.5329500685
 21
-45.0380305212
  0
LINE
  5
4A0
100
AcDbEntity
  8
262606150
100
AcDbLine
 62
253
  6
CONTINUOUS
 10
-105.7625726518
 20
-25.999744107
 11
-105.7563683203
 21
-34.2047140618
  0
LINE
  5
4A1
100
AcDbEntity
  8
262606150
100
AcDbLine
 62
253
  6
CONTINUOUS
 10
-106.6782853925
 20
-26.0
 11
-106.6732518815
 21
-35.0052799588
  0
LINE
  5
4A2
100
AcDbEntity
  8
262606150
100
AcDbLine
 62
7
  6
CONTINUOUS
 10
-109.5513495378
 20
1.4627472769
 11
-109.5513129567
 21
-1.5954633882
  0
LINE
  5
4A3
100
AcDbEntity
  8
262606150
100
AcDbLine
 62
253
  6
CONTINUOUS
 10
-109.5513129567
 20
-1.5954633882
 11
-109.548865752
 21
-26.0
  0
LINE
  5
4A4
100
AcDbEntity
  8
262606150
100
AcDbLine
 62
253
  6
CONTINUOUS
 10
-109.5228033589
 20
-48.7644041093
 11
-109.5224298585
 21
-49.5542106541
  0
LINE
  5
4A5
100
AcDbEntity
  8
262606150
100
AcDbLine
 62
253
  6
CONTINUOUS
 10
-106.5783791588
 20
-64.1230977423
 11
-106.5780844532
 21
-64.3037859581
  0
LINE
  5
4A6
100
AcDbEntity
  8
262606150
100
AcDbLine
 62
253
  6
CONTINUOUS
 10
-109.5484356714
 20
26.5752647594
 11
-109.5490227941
 21
3.3681495401
  0
LINE
  5
4A7
100
AcDbEntity
  8
262606150
100
AcDbLine
 62
253
  6
CONTINUOUS
 10
-109.532893181
 20
45.0758750753
 11
-109.5484356714
 21
26.5752647594
  0
LINE
  5
4A8
100
AcDbEntity
  8
262606150
100
AcDbLine
 62
253
  6
CONTINUOUS
 10
-109.522297668
 20
49.6565524828
 11
-109.5227781575
 21
48.8121640606
  0
LINE
  5
4A9
100
AcDbEntity
  8
262606150
100
AcDbLine
 62
253
  6
CONTINUOUS
 10
-109.5490227941
 20
3.3681495401
 11
-109.5513495378
 21
1.4627472769
  0
LINE
  5
4AA
100
AcDbEntity
  8
262606150
100
AcDbLine
 62
253
  6
CONTINUOUS
 10
-105.6357447833
 20
-64.7464481721
 11
-105.6357821072
 21
-65.017955409
  0
LINE
  5
4AB
100
AcDbEntity
  8
262606150
100
AcDbLine
 62
253
  6
CONTINUOUS
 10
-106.5782121682
 20
64.3635396213
 11
-106.5781806318
 21
64.183214703
  0
LINE
  5
4AC
100
AcDbEntity
  8
262606150
100
AcDbLine
 62
253
  6
CONTINUOUS
 10
-105.6356524439
 20
64.9281241341
 11
-105.6362748392
 21
64.5653299016
  0
LINE
  5
4AD
100
AcDbEntity
  8
262606150
100
AcDbLine
 62
253
  6
CONTINUOUS
 10
-106.5780844532
 20
-64.3037859581
 11
-106.5784770771
 21
-64.422587786
  0
LINE
  5
4AE
100
AcDbEntity
  8
262606150
100
AcDbLine
 62
253
  6
CONTINUOUS
 10
-105.6357821072
 20
-65.017955409
 11
-105.6365396693
 21
-65.1932154932
  0
LINE
  5
4AF
100
AcDbEntity
  8
262606150
100
AcDbLine
 62
253
  6
CONTINUOUS
 10
-106.6071370985
 20
62.4168916919
 11
-106.6782853952
 21
-26.0
  0
LINE
  5
4B0
100
AcDbEntity
  8
262606150
100
AcDbLine
 62
253
  6
CONTINUOUS
 10
-106.5781806318
 20
64.183214703
 11
-106.579463222
 21
63.9455969585
  0
LINE
  5
4B1
100
AcDbEntity
  8
262606150
100
AcDbLine
 62
253
  6
CONTINUOUS
 10
-105.6690573052
 20
62.3190444957
 11
-105.7625726518
 21
-25.999744107
  0
LINE
  5
4B2
100
AcDbEntity
  8
262606150
100
AcDbLine
 62
253
  6
CONTINUOUS
 10
-105.6362748392
 20
64.5653299016
 11
-105.6396704456
 21
64.0469748238
  0
LWPOLYLINE
  5
4B3
100
AcDbEntity
  8
262606150
100
AcDbPolyline
 62
253
  6
CONTINUOUS
 90
12
 70
0
 10
-106.5784770771
 20
-64.422587786
 10
-106.5794879659
 20
-64.5367598822
 10
-106.5802748006
 20
-64.5910084701
 10
-106.5812806595
 20
-64.6426961171
 10
-106.5825318995
 20
-64.6911814851
 10
-106.5840580132
 20
-64.7358287144
 10
-106.5859001906
 20
-64.7761363936
 10
-106.5880920019
 20
-64.8112102641
 10
-106.5906451871
 20
-64.8400351873
 10
-106.5935834389
 20
-64.8620882702
 10
-106.5969601947
 20
-64.8770833669
 10
-106.6008272127
 20
-64.8846242233
  0
LINE
  5
4B4
100
AcDbEntity
  8
262606150
100
AcDbLine
 62
253
  6
CONTINUOUS
 10
-106.579463222
 20
63.9455969585
 11
-106.5817967982
 21
63.7211236784
  0
LINE
  5
4B5
100
AcDbEntity
  8
262606150
100
AcDbLine
 62
253
  6
CONTINUOUS
 10
-106.6050942061
 20
62.6047701835
 11
-106.6071370985
 21
62.4168916919
  0
LINE
  5
4B6
100
AcDbEntity
  8
262606150
100
AcDbLine
 62
253
  6
CONTINUOUS
 10
-105.6396704456
 20
64.0469748238
 11
-105.6448679461
 21
63.5872288493
  0
LINE
  5
4B7
100
AcDbEntity
  8
262606150
100
AcDbLine
 62
253
  6
CONTINUOUS
 10
-105.6669044917
 20
62.4944186316
 11
-105.6690573052
 21
62.3190444957
  0
LWPOLYLINE
  5
4B8
100
AcDbEntity
  8
262606150
100
AcDbPolyline
 62
7
  6
CONTINUOUS
 90
6
 70
0
 10
-110.2768238027
 20
-49.5014882921
 10
-110.2769045571
 20
-49.5065744518
 10
-110.2755856431
 20
-49.5517616349
 10
-110.2721978955
 20
-49.597129889
 10
-110.2667091268
 20
-49.64258238
 10
-110.25909157
 20
-49.6880190888
  0
LINE
  5
4B9
100
AcDbEntity
  8
262606150
100
AcDbLine
 62
253
  6
CONTINUOUS
 10
-106.5817967982
 20
63.7211236784
 11
-106.5857122222
 21
63.4659463688
  0
LINE
  5
4BA
100
AcDbEntity
  8
262606150
100
AcDbLine
 62
253
  6
CONTINUOUS
 10
-105.6448679461
 20
63.5872288493
 11
-105.6512188466
 21
63.1851406854
  0
LINE
  5
4BB
100
AcDbEntity
  8
262606150
100
AcDbLine
 62
253
  6
CONTINUOUS
 10
-106.6014047589
 20
62.8089854977
 11
-106.6050942061
 21
62.6047701835
  0
LINE
  5
4BC
100
AcDbEntity
  8
262606150
100
AcDbLine
 62
253
  6
CONTINUOUS
 10
-105.6512188466
 20
63.1851406854
 11
-105.6547928445
 21
63.0
  0
LINE
  5
4BD
100
AcDbEntity
  8
262606150
100
AcDbLine
 62
253
  6
CONTINUOUS
 10
-105.6634074135
 20
62.6825860232
 11
-105.6669044917
 21
62.4944186316
  0
LINE
  5
4BE
100
AcDbEntity
  8
262606150
100
AcDbLine
 62
253
  6
CONTINUOUS
 10
-106.5857122222
 20
63.4659463688
 11
-106.5904060172
 21
63.2382198685
  0
LINE
  5
4BF
100
AcDbEntity
  8
262606150
100
AcDbLine
 62
253
  6
CONTINUOUS
 10
-106.5957749993
 20
63.0316972895
 11
-106.6014047589
 21
62.8089854977
  0
LWPOLYLINE
  5
4C0
100
AcDbEntity
  8
262606150
100
AcDbPolyline
 62
253
  6
CONTINUOUS
 90
3
 70
0
 10
-106.5904060172
 20
63.2382198685
 10
-106.5946488753
 20
63.0715920929
 10
-106.5957777415
 20
63.031697377
  0
LWPOLYLINE
  5
4C1
100
AcDbEntity
  8
262606150
100
AcDbPolyline
 62
253
  6
CONTINUOUS
 90
3
 70
0
 10
-105.6547928445
 20
63.0
 10
-105.6580955952
 20
62.8897493472
 10
-105.6634074135
 20
62.6825860232
  0
LINE
  5
4C2
100
AcDbEntity
  8
262606150
100
AcDbLine
 62
253
  6
CONTINUOUS
 10
-109.5572394568
 20
-0.4169049075
 11
-109.5513476437
 21
-0.2444194539
  0
LWPOLYLINE
  5
4C3
100
AcDbEntity
  8
262606150
100
AcDbPolyline
 62
253
  6
CONTINUOUS
 90
9
 70
0
 10
-110.0952383822
 20
-1.9323434618
 10
-109.9837150324
 20
-1.7619403915
 10
-109.8840683643
 20
-1.5843886046
 10
-109.7967581077
 20
-1.4005151623
 10
-109.7221896768
 20
-1.2111901141
 10
-109.6607027581
 20
-1.0172841529
 10
-109.6125752202
 20
-0.8196590761
 10
-109.5780321851
 20
-0.6192176756
 10
-109.5572394568
 20
-0.4169049075
  0
LINE
  5
4C4
100
AcDbEntity
  8
262606150
100
AcDbLine
 62
253
  6
CONTINUOUS
 10
-109.548865752
 20
-3.8
 11
-110.2768855094
 21
-3.8000068437
  0
LWPOLYLINE
  5
4C5
100
AcDbEntity
  8
262606150
100
AcDbPolyline
 62
253
  6
CONTINUOUS
 90
9
 70
0
 10
-110.0952384973
 20
1.9323400865
 10
-109.9837150872
 20
1.7619369367
 10
-109.88406838
 20
1.5843850839
 10
-109.796758102
 20
1.4005115928
 10
-109.722189656
 20
1.2111864949
 10
-109.6607027346
 20
1.0172805056
 10
-109.6125752156
 20
0.8196554886
 10
-109.578032206
 20
0.6192142612
 10
-109.5572394854
 20
0.4169017593
  0
LWPOLYLINE
  5
4C6
100
AcDbEntity
  8
262606150
100
AcDbPolyline
 62
253
  6
CONTINUOUS
 90
3
 70
0
 10
-105.6391300822
 20
65.4342454472
 10
-105.6371675694
 20
65.277175115
 10
-105.6365396699
 20
65.1932154931
  0
LINE
  5
4C7
100
AcDbEntity
  8
262606150
100
AcDbLine
 62
7
  6
CONTINUOUS
 10
-103.2768855077
 20
26.5
 11
-103.2768855077
 21
19.5
  0
LINE
  5
4C8
100
AcDbEntity
  8
262606150
100
AcDbLine
 62
7
  6
CONTINUOUS
 10
-103.2768855077
 20
-26.5
 11
-103.2768855077
 21
-19.5
  0
LINE
  5
4C9
100
AcDbEntity
  8
262606150
100
AcDbLine
 62
7
  6
CONTINUOUS
 10
-101.2768855077
 20
19.3250226729
 11
-101.2768855077
 21
-19.3250226729
  0
LINE
  5
4CA
100
AcDbEntity
  8
262606150
100
AcDbLine
 62
7
  6
CONTINUOUS
 10
-101.2768855077
 20
-26.6749773271
 11
-101.2768855077
 21
-66.0
  0
LINE
  5
4CB
100
AcDbEntity
  8
262606150
100
AcDbLine
 62
7
  6
CONTINUOUS
 10
-101.2768855077
 20
26.6749773271
 11
-101.2768855077
 21
66.0
  0
LWPOLYLINE
  5
4CC
100
AcDbEntity
  8
262606150
100
AcDbPolyline
 62
253
  6
CONTINUOUS
 90
11
 70
0
 10
-105.6365396693
 20
-65.1932154932
 10
-105.6380340986
 20
-65.3578008778
 10
-105.6391300842
 20
-65.4342454471
 10
-105.6404647013
 20
-65.5054867486
 10
-105.6421357122
 20
-65.5705166553
 10
-105.6441446447
 20
-65.6285317001
 10
-105.646489971
 20
-65.678134197
 10
-105.6492648696
 20
-65.7177799918
 10
-105.6525003999
 20
-65.7466866426
 10
-105.6561655026
 20
-65.7643932928
 10
-105.6602601776
 20
-65.7702770678
  0
LWPOLYLINE
  5
4CD
100
AcDbEntity
  8
262606150
100
AcDbPolyline
 62
253
  6
CONTINUOUS
 90
22
 70
0
 10
-109.4928820852
 20
-51.6634600632
 10
-109.4929602161
 20
-51.6641243627
 10
-109.4930351518
 20
-51.6647901784
 10
-109.4931065837
 20
-51.6654569883
 10
-109.493174274
 20
-51.6661239999
 10
-109.4932380698
 20
-51.666791076
 10
-109.4932977076
 20
-51.6674570561
 10
-109.4933529418
 20
-51.6681212187
 10
-109.4934036034
 20
-51.6687836651
 10
-109.4934494141
 20
-51.6694430294
 10
-109.4934901209
 20
-51.6700980074
 10
-109.4935255106
 20
-51.670748549
 10
-109.493555239
 20
-51.6713936389
 10
-109.4935789741
 20
-51.6720324005
 10
-109.4935964179
 20
-51.6726650623
 10
-109.493607216
 20
-51.6732905658
 10
-109.4936110253
 20
-51.6739079736
 10
-109.4936074993
 20
-51.6745174458
 10
-109.4935962623
 20
-51.6751179559
 10
-109.4935769491
 20
-51.6757086133
 10
-109.4935491512
 20
-51.6762895989
 10
-109.4935182711
 20
-51.6767792731
  0
LINE
  5
4CE
100
AcDbEntity
  8
262606150
100
AcDbLine
 62
253
  6
CONTINUOUS
 10
-109.4927178052
 20
-51.6621318939
 11
-109.4928011081
 21
-51.6627961628
  0
LINE
  5
4CF
100
AcDbEntity
  8
262606150
100
AcDbLine
 62
253
  6
CONTINUOUS
 10
-109.4925458214
 20
-51.6608027092
 11
-109.492632631
 21
-51.661467242
  0
LINE
  5
4D0
100
AcDbEntity
  8
262606150
100
AcDbLine
 62
253
  6
CONTINUOUS
 10
-109.4923682848
 20
-51.6594835346
 11
-109.4924576231
 21
-51.6601408082
  0
LINE
  5
4D1
100
AcDbEntity
  8
262606150
100
AcDbLine
 62
253
  6
CONTINUOUS
 10
-109.491915102
 20
-51.6562395193
 11
-109.4920058861
 21
-51.656881715
  0
LINE
  5
4D2
100
AcDbEntity
  8
262606150
100
AcDbLine
 62
253
  6
CONTINUOUS
 10
-109.548865752
 20
3.7999964341
 11
-110.2768855094
 21
3.7999964341
  0
LWPOLYLINE
  5
4D3
100
AcDbEntity
  8
262606150
100
AcDbPolyline
 62
253
  6
CONTINUOUS
 90
5
 70
0
 10
-109.4919194176
 20
51.6562707031
 10
-109.4918072534
 20
51.6554965465
 10
-109.4916932893
 20
51.6547401855
 10
-109.4915765508
 20
51.6540107318
 10
-109.4914563861
 20
51.6533146222
  0
LINE
  5
4D4
100
AcDbEntity
  8
262606150
100
AcDbLine
 62
253
  6
CONTINUOUS
 10
-109.4921408375
 20
51.6578439462
 11
-109.4920305892
 21
51.6570554049
  0
LINE
  5
4D5
100
AcDbEntity
  8
262606150
100
AcDbLine
 62
253
  6
CONTINUOUS
 10
-109.4925689711
 20
51.6609782281
 11
-109.4924647549
 21
51.6601966974
  0
LINE
  5
4D6
100
AcDbEntity
  8
262606150
100
AcDbLine
 62
253
  6
CONTINUOUS
 10
-109.4927691698
 20
51.6625369782
 11
-109.4926705854
 21
51.6617591087
  0
LWPOLYLINE
  5
4D7
100
AcDbEntity
  8
262606150
100
AcDbPolyline
 62
253
  6
CONTINUOUS
 90
5
 70
0
 10
-109.4914496024
 20
-51.6532789843
 10
-109.4915455074
 20
-51.6538255924
 10
-109.491639671
 20
-51.654396775
 10
-109.4917324079
 20
-51.6549928292
 10
-109.4918240789
 20
-51.6556088376
  0
LWPOLYLINE
  5
4D8
100
AcDbEntity
  8
262606150
100
AcDbPolyline
 62
253
  6
CONTINUOUS
 90
5
 70
0
 10
-109.4905829022
 20
-51.6487436788
 10
-109.4906814562
 20
-51.6491429238
 10
-109.4907778336
 20
-51.6495976518
 10
-109.4908728439
 20
-51.6500944807
 10
-109.4909674355
 20
-51.6506172219
  0
LINE
  5
4D9
100
AcDbEntity
  8
262606150
100
AcDbLine
 62
253
  6
CONTINUOUS
 10
-109.4907129174
 20
51.6492879523
 11
-109.4905826478
 21
51.6487424873
  0
LINE
  5
4DA
100
AcDbEntity
  8
262606150
100
AcDbLine
 62
253
  6
CONTINUOUS
 10
-109.4908392905
 20
51.6499119057
 11
-109.4907129174
 21
51.6492879523
  0
LWPOLYLINE
  5
4DB
100
AcDbEntity
  8
262606150
100
AcDbPolyline
 62
253
  6
CONTINUOUS
 90
3
 70
0
 10
-109.4913332562
 20
51.6526426509
 10
-109.491209192
 20
51.6519720249
 10
-109.4910858932
 20
51.6512850626
  0
LWPOLYLINE
  5
4DC
100
AcDbEntity
  8
262606150
100
AcDbPolyline
 62
7
  6
CONTINUOUS
 90
9
 70
0
 10
-109.5119253838
 20
-53.14213
 10
-109.5113419894
 20
-53.140110363
 10
-109.5112662556
 20
-53.1339856698
 10
-109.5116981825
 20
-53.1236944493
 10
-109.512648873
 20
-53.1091839659
 10
-109.5141072242
 20
-53.0905266383
 10
-109.5160399274
 20
-53.068027218
 10
-109.518473873
 20
-53.0419877705
 10
-109.5246508407
 20
-52.9805419047
  0
LWPOLYLINE
  5
4DD
100
AcDbEntity
  8
262606150
100
AcDbPolyline
 62
253
  6
CONTINUOUS
 90
11
 70
0
 10
-106.7180666089
 20
-65.0902859026
 10
-106.7186347229
 20
-65.0918281066
 10
-106.7191396914
 20
-65.0932363783
 10
-106.7195755822
 20
-65.0945130402
 10
-106.7199476569
 20
-65.0956341324
 10
-106.7202526794
 20
-65.0965962697
 10
-106.7204864383
 20
-65.0974036768
 10
-106.7206522915
 20
-65.0980438389
 10
-106.7207516256
 20
-65.0985098224
 10
-106.7207833579
 20
-65.0988088058
 10
-106.7207692821
 20
-65.0989134523
  0
LINE
  5
4DE
100
AcDbEntity
  8
262606150
100
AcDbLine
 62
7
  6
CONTINUOUS
 10
-103.2768855077
 20
19.5
 11
-101.2768855077
 21
19.3250226729
  0
LWPOLYLINE
  5
4DF
100
AcDbEntity
  8
262606150
100
AcDbPolyline
 62
253
  6
CONTINUOUS
 90
3
 70
0
 10
-106.7177364045
 20
65.0894040955
 10
-106.7170696429
 20
65.087637216
 10
-106.7163412612
 20
65.0857721327
  0
LWPOLYLINE
  5
4E0
100
AcDbEntity
  8
262606150
100
AcDbPolyline
 62
253
  6
CONTINUOUS
 90
3
 70
0
 10
-106.7160144217
 20
-65.0849495192
 10
-106.7167555984
 20
-65.0868323801
 10
-106.7174419622
 20
-65.0886109031
  0
LWPOLYLINE
  5
4E1
100
AcDbEntity
  8
262606150
100
AcDbPolyline
 62
253
  6
CONTINUOUS
 90
3
 70
0
 10
-106.7134911786
 20
-65.0787594564
 10
-106.7143817854
 20
-65.0808996496
 10
-106.7152252237
 20
-65.0829619209
  0
LINE
  5
4E2
100
AcDbEntity
  8
262606150
100
AcDbLine
 62
253
  6
CONTINUOUS
 10
-106.7116000047
 20
-65.0742890621
 11
-106.7125642719
 21
-65.0765432552
  0
LINE
  5
4E3
100
AcDbEntity
  8
262606150
100
AcDbLine
 62
7
  6
CONTINUOUS
 10
-101.2768855077
 20
26.6749773271
 11
-103.2768855077
 21
26.5
  0
LINE
  5
4E4
100
AcDbEntity
  8
262606150
100
AcDbLine
 62
253
  6
CONTINUOUS
 10
-105.7625726518
 20
26.0
 11
-110.2768855094
 21
26.0
  0
LWPOLYLINE
  5
4E5
100
AcDbEntity
  8
262606150
100
AcDbPolyline
 62
253
  6
CONTINUOUS
 90
3
 70
0
 10
-106.7099445066
 20
65.070486462
 10
-106.7089001112
 20
65.0681149649
 10
-106.7078229354
 20
65.0657964522
  0
LWPOLYLINE
  5
4E6
100
AcDbEntity
  8
262606150
100
AcDbPolyline
 62
253
  6
CONTINUOUS
 90
3
 70
0
 10
-106.7129265662
 20
65.0774085465
 10
-106.7119675592
 20
65.0751326624
 10
-106.7109692689
 20
65.0728296893
  0
LWPOLYLINE
  5
4E7
100
AcDbEntity
  8
262606150
100
AcDbPolyline
 62
253
  6
CONTINUOUS
 90
3
 70
0
 10
-106.7155588116
 20
65.0838088279
 10
-106.7147307979
 20
65.0817459913
 10
-106.713850805
 20
65.0796141562
  0
LWPOLYLINE
  5
4E8
100
AcDbEntity
  8
262606150
100
AcDbPolyline
 62
253
  6
CONTINUOUS
 90
4
 70
0
 10
-106.7074169946
 20
-65.0650823117
 10
-106.7085312418
 20
-65.0673333346
 10
-106.7095942047
 20
-65.0696464728
 10
-106.7106103888
 20
-65.0719871495
  0
LWPOLYLINE
  5
4E9
100
AcDbEntity
  8
262606150
100
AcDbPolyline
 62
253
  6
CONTINUOUS
 90
13
 70
0
 10
-106.7066971085
 20
65.0636249764
 10
-106.7055868287
 20
65.0615044483
 10
-106.7045950478
 20
65.059230827
 10
-106.7037237684
 20
65.0568478134
 10
-106.7028422152
 20
65.0543177604
 10
-106.7018515938
 20
65.0513131822
 10
-106.7007168872
 20
65.0474917696
 10
-106.6993500804
 20
65.0431977187
 10
-106.697625995
 20
65.0391324648
 10
-106.6955955954
 20
65.0355180547
 10
-106.6934793714
 20
65.0321208467
 10
-106.6913881416
 20
65.0289629771
 10
-106.6894325534
 20
65.0262471436
  0
LWPOLYLINE
  5
4EA
100
AcDbEntity
  8
262606150
100
AcDbPolyline
 62
253
  6
CONTINUOUS
 90
10
 70
0
 10
-106.6008272131
 20
64.8846242233
 10
-106.5969601978
 20
64.8770833999
 10
-106.5935834593
 20
64.8620884144
 10
-106.590645218
 20
64.8400354219
 10
-106.5880920303
 20
64.8112105469
 10
-106.5859002102
 20
64.776136704
 10
-106.5840580252
 20
64.7358290439
 10
-106.582531908
 20
64.6911818321
 10
-106.5812806667
 20
64.64269648
 10
-106.580274807
 20
64.5910088439
  0
LWPOLYLINE
  5
4EB
100
AcDbEntity
  8
262606150
100
AcDbPolyline
 62
253
  6
CONTINUOUS
 90
13
 70
0
 10
-106.6859145702
 20
65.0209268786
 10
-106.6822107524
 20
65.0136901194
 10
-106.6800344505
 20
65.0097178675
 10
-106.6776067401
 20
65.0055568158
 10
-106.6750092966
 20
65.0012104923
 10
-106.6723185787
 20
64.9968651609
 10
-106.6695536255
 20
64.9925241666
 10
-106.6667368214
 20
64.9881822196
 10
-106.6639646972
 20
64.9840133459
 10
-106.6612822205
 20
64.980061678
 10
-106.6586894429
 20
64.97628231
 10
-106.6562118001
 20
64.9727166775
 10
-106.6538641112
 20
64.9693976639
  0
LINE
  5
4EC
100
AcDbEntity
  8
262606150
100
AcDbLine
 62
253
  6
CONTINUOUS
 10
-106.6876367704
 20
65.0237656411
 11
-106.6859145702
 21
65.0209268786
  0
LWPOLYLINE
  5
4ED
100
AcDbEntity
  8
262606150
100
AcDbPolyline
 62
253
  6
CONTINUOUS
 90
27
 70
0
 10
-106.6576913011
 20
-64.9748405686
 10
-106.6599027768
 20
-64.9780347871
 10
-106.6622035412
 20
-64.9814060406
 10
-106.6645805811
 20
-64.9849420902
 10
-106.6670351123
 20
-64.9886380071
 10
-106.6695763359
 20
-64.9925463394
 10
-106.6721565363
 20
-64.996615139
 10
-106.674690503
 20
-65.0006833628
 10
-106.6771452482
 20
-65.0047480184
 10
-106.6795005181
 20
-65.0088147216
 10
-106.6817011199
 20
-65.0127359885
 10
-106.6836964786
 20
-65.0165461615
 10
-106.6855209773
 20
-65.0202126756
 10
-106.6872619149
 20
-65.0234883898
 10
-106.6890731717
 20
-65.0259960317
 10
-106.6910185599
 20
-65.0281045264
 10
-106.6930783563
 20
-65.0306831508
 10
-106.6951290561
 20
-65.0341813574
 10
-106.6970833297
 20
-65.0381565266
 10
-106.6989016913
 20
-65.0421431821
 10
-106.7004054983
 20
-65.0461764314
 10
-106.7015524498
 20
-65.0502324219
 10
-106.7025119975
 20
-65.0537614556
 10
-106.7034430484
 20
-65.0564039576
 10
-106.7043685442
 20
-65.058514555
 10
-106.7053025734
 20
-65.0606129722
 10
-106.7063144448
 20
-65.0628560111
  0
LINE
  5
4EE
100
AcDbEntity
  8
262606150
100
AcDbLine
 62
253
  6
CONTINUOUS
 10
-106.653529955
 20
-64.9689157014
 11
-106.6576913011
 21
-64.9748405686
  0
LINE
  5
4EF
100
AcDbEntity
  8
262606150
100
AcDbLine
 62
253
  6
CONTINUOUS
 10
-106.6355878345
 20
-64.9436869881
 11
-106.6461208579
 21
-64.9585607579
  0
LINE
  5
4F0
100
AcDbEntity
  8
262606150
100
AcDbLine
 62
253
  6
CONTINUOUS
 10
-106.6282974467
 20
-64.9334584583
 11
-106.6342684312
 21
-64.9418284799
  0
LINE
  5
4F1
100
AcDbEntity
  8
262606150
100
AcDbLine
 62
253
  6
CONTINUOUS
 10
-106.6478563088
 20
-64.9610005434
 11
-106.653529955
 21
-64.9689157014
  0
LINE
  5
4F2
100
AcDbEntity
  8
262606150
100
AcDbLine
 62
253
  6
CONTINUOUS
 10
-106.633330938
 20
64.9405134569
 11
-106.6296321826
 21
64.9353390272
  0
LINE
  5
4F3
100
AcDbEntity
  8
262606150
100
AcDbLine
 62
253
  6
CONTINUOUS
 10
-106.6538641112
 20
64.9693976639
 11
-106.6438843695
 21
64.9554154184
  0
LINE
  5
4F4
100
AcDbEntity
  8
262606150
100
AcDbLine
 62
253
  6
CONTINUOUS
 10
-106.6421790341
 20
64.9530013353
 11
-106.6346650231
 21
64.942387148
  0
LWPOLYLINE
  5
4F5
100
AcDbEntity
  8
262606150
100
AcDbPolyline
 62
253
  6
CONTINUOUS
 90
9
 70
0
 10
-105.6602601776
 20
65.7702770678
 10
-105.6561655145
 20
65.7643932922
 10
-105.6525004185
 20
65.7466866416
 10
-105.6492648897
 20
65.7177799907
 10
-105.6464899846
 20
65.6781341962
 10
-105.6441446467
 20
65.6285317
 10
-105.6421357062
 20
65.5705166556
 10
-105.6404646955
 20
65.5054867489
 10
-105.6391300822
 20
65.4342454472
  0
LWPOLYLINE
  5
4F6
100
AcDbEntity
  8
262606150
100
AcDbPolyline
 62
253
  6
CONTINUOUS
 90
20
 70
0
 10
-106.6284999344
 20
64.9337558581
 10
-106.6274092473
 20
64.932162752
 10
-106.6263585678
 20
64.9304645095
 10
-106.6253284411
 20
64.9287573524
 10
-106.6242927903
 20
64.9272539477
 10
-106.6232431425
 20
64.9260568082
 10
-106.6222135016
 20
64.9250625265
 10
-106.621269955
 20
64.9241735296
 10
-106.6204248551
 20
64.923659918
 10
-106.6197106642
 20
64.9232494363
 10
-106.6191431323
 20
64.9220347721
 10
-106.6186731771
 20
64.9196303363
 10
-106.6181369827
 20
64.9164307444
 10
-106.6173544061
 20
64.9126998293
 10
-106.6162036848
 20
64.9083557899
 10
-106.6145626512
 20
64.9034905487
 10
-106.6122601231
 20
64.898629805
 10
-106.609208278
 20
64.8939510843
 10
-106.605409404
 20
64.8892817629
 10
-106.6008246362
 20
64.8846239301
  0
LWPOLYLINE
  5
4F7
100
AcDbEntity
  8
262606150
100
AcDbPolyline
 62
253
  6
CONTINUOUS
 90
6
 70
0
 10
-106.6231110053
 20
-64.9258962868
 10
-106.6241495653
 20
-64.9270404043
 10
-106.6251752459
 20
-64.9285180762
 10
-106.6261943228
 20
-64.9302098458
 10
-106.6272284271
 20
-64.9318893426
 10
-106.6282974467
 20
-64.9334584583
  0
LWPOLYLINE
  5
4F8
100
AcDbEntity
  8
262606150
100
AcDbPolyline
 62
253
  6
CONTINUOUS
 90
14
 70
0
 10
-106.6008249555
 20
-64.8846239665
 10
-106.6053720473
 20
-64.8892363208
 10
-106.6091463493
 20
-64.8938620985
 10
-106.6121857361
 20
-64.8984992582
 10
-106.6144884634
 20
-64.9033137502
 10
-106.6161393422
 20
-64.9081348585
 10
-106.6173038523
 20
-64.9124570523
 10
-106.6180967669
 20
-64.9162029159
 10
-106.6186357442
 20
-64.9194402085
 10
-106.6190996494
 20
-64.921882469
 10
-106.6196528862
 20
-64.9231364091
 10
-106.620346947
 20
-64.9235861751
 10
-106.6211705547
 20
-64.924112181
 10
-106.6220957064
 20
-64.9249651605
  0
LWPOLYLINE
  5
4F9
100
AcDbEntity
  8
262606150
100
AcDbPolyline
 62
253
  6
CONTINUOUS
 90
8
 70
0
 10
-110.0886118383
 20
48.1969880431
 10
-110.1386292936
 20
48.1934464748
 10
-110.1813950698
 20
48.1929387567
 10
-110.2165667018
 20
48.1950892901
 10
-110.2438605892
 20
48.2011244498
 10
-110.2630754575
 20
48.2087943692
 10
-110.2740734881
 20
48.213321499
 10
-110.2768932696
 20
48.2134943709
  0
LINE
  5
4FA
100
AcDbEntity
  8
262606150
100
AcDbLine
 62
253
  6
CONTINUOUS
 10
-110.0885867489
 20
48.1969881765
 11
-109.8773593725
 21
48.1930301378
  0
LWPOLYLINE
  5
4FB
100
AcDbEntity
  8
262606150
100
AcDbPolyline
 62
253
  6
CONTINUOUS
 90
7
 70
0
 10
-109.8773593725
 20
48.1930301378
 10
-109.7130722937
 20
48.18909264
 10
-109.6494760414
 20
48.1871534664
 10
-109.5986395393
 20
48.1852455206
 10
-109.5607884649
 20
48.1833772719
 10
-109.5360908496
 20
48.1815570137
 10
-109.5246563331
 20
48.179792826
  0
LWPOLYLINE
  5
4FC
100
AcDbEntity
  8
262606150
100
AcDbPolyline
 62
253
  6
CONTINUOUS
 90
16
 70
0
 10
-105.6602591686
 20
65.7702578113
 10
-105.7533811854
 20
65.7609866636
 10
-105.8452275352
 20
65.7430388419
 10
-105.9349927213
 20
65.7165717494
 10
-106.0218894991
 20
65.6818175036
 10
-106.1051557796
 20
65.639080901
 10
-106.184061314
 20
65.5887367435
 10
-106.257914097
 20
65.5312265516
 10
-106.3260664364
 20
65.4670546923
 10
-106.3879206328
 20
65.3967839558
 10
-106.4429342222
 20
65.3210306197
 10
-106.4906247326
 20
65.2404590441
 10
-106.5305739161
 20
65.1557758455
 10
-106.5624314162
 20
65.0677236993
 10
-106.5859178409
 20
64.977074827
 10
-106.6008272131
 20
64.8846242233
  0
LWPOLYLINE
  5
4FD
100
AcDbEntity
  8
262606150
100
AcDbPolyline
 62
7
  6
CONTINUOUS
 90
15
 70
0
 10
-105.8313256504
 20
65.7613119062
 10
-105.9119437677
 20
65.7538045765
 10
-105.9925200356
 20
65.7396188195
 10
-106.0724347181
 20
65.7186583469
 10
-106.1512107693
 20
65.6908265059
 10
-106.2281062321
 20
65.6561556022
 10
-106.3021632042
 20
65.6149086161
 10
-106.3726615228
 20
65.5673896896
 10
-106.439183369
 20
65.5137778601
 10
-106.5012616716
 20
65.4542915998
 10
-106.558370289
 20
65.3892332747
 10
-106.6099403125
 20
65.3190286905
 10
-106.6554582583
 20
65.2441416352
 10
-106.6944544314
 20
65.1650807932
 10
-106.7207680129
 20
65.0989170799
  0
LINE
  5
4FE
100
AcDbEntity
  8
262606150
100
AcDbLine
 62
7
  6
CONTINUOUS
 10
-101.2768855077
 20
66.0
 11
-105.831324592
 21
65.7613119617
  0
LINE
  5
4FF
100
AcDbEntity
  8
262606150
100
AcDbLine
 62
253
  6
CONTINUOUS
 10
-101.2768855077
 20
63.0
 11
-105.6547928445
 21
63.0
  0
LINE
  5
500
100
AcDbEntity
  8
262606150
100
AcDbLine
 62
253
  6
CONTINUOUS
 10
-105.6547928445
 20
63.0
 11
-106.5259047471
 21
63.0289932197
  0
LWPOLYLINE
  5
501
100
AcDbEntity
  8
262606150
100
AcDbPolyline
 62
253
  6
CONTINUOUS
 90
3
 70
0
 10
-106.5259047471
 20
63.0289932197
 10
-106.5810235214
 20
63.0310662365
 10
-106.5957749993
 20
63.0316972895
  0
ARC
  5
502
100
AcDbEntity
  8
262606150
100
AcDbCircle
 62
253
  6
CONTINUOUS
 10
-33.45
 20
3.8
 40
3.5988643303
100
AcDbArc
 50
265.2187308408
 51
270.0
  0
ARC
  5
503
100
AcDbEntity
  8
262606150
100
AcDbCircle
 62
253
  6
CONTINUOUS
 10
33.45
 20
3.7999964341
 40
3.5988643302
100
AcDbArc
 50
270.0
 51
274.7812507044
  0
ARC
  5
504
100
AcDbEntity
  8
262606150
100
AcDbCircle
 62
253
  6
CONTINUOUS
 10
33.45
 20
-3.8
 40
3.5988643303
100
AcDbArc
 50
85.2187308408
 51
90.0
  0
ARC
  5
505
100
AcDbEntity
  8
262606150
100
AcDbCircle
 62
253
  6
CONTINUOUS
 10
-33.45
 20
-3.7999964334
 40
3.5988643302
100
AcDbArc
 50
90.0
 51
94.7812507045
  0
ARC
  5
506
100
AcDbEntity
  8
262606150
100
AcDbCircle
 62
7
  6
CONTINUOUS
 10
-57.0
 20
-63.0
 40
3.0
100
AcDbArc
 50
180.0
 51
270.0
  0
ARC
  5
507
100
AcDbEntity
  8
262606150
100
AcDbCircle
 62
7
  6
CONTINUOUS
 10
57.0
 20
-63.0
 40
3.0
100
AcDbArc
 50
270.0
 51
360.0
  0
ARC
  5
508
100
AcDbEntity
  8
262606150
100
AcDbCircle
 62
7
  6
CONTINUOUS
 10
57.0
 20
63.0
 40
3.0
100
AcDbArc
 50
0.0
 51
90.0
  0
ARC
  5
509
100
AcDbEntity
  8
262606150
100
AcDbCircle
 62
7
  6
CONTINUOUS
 10
-57.0
 20
63.0
 40
3.0
100
AcDbArc
 50
90.0
 51
180.0
  0
ARC
  5
50A
100
AcDbEntity
  8
262606150
100
AcDbCircle
 62
253
  6
CONTINUOUS
 10
-33.45
 20
3.8
 40
1.8747160826
100
AcDbArc
 50
265.0261281436
 51
269.9999999849
  0
ARC
  5
50B
100
AcDbEntity
  8
262606150
100
AcDbCircle
 62
253
  6
CONTINUOUS
 10
33.45
 20
3.7999964341
 40
1.8747160825
100
AcDbArc
 50
270.000000013
 51
274.9738814796
  0
ARC
  5
50C
100
AcDbEntity
  8
262606150
100
AcDbCircle
 62
253
  6
CONTINUOUS
 10
33.45
 20
-3.8
 40
1.8747160826
100
AcDbArc
 50
85.0261281457
 51
89.9999999849
  0
ARC
  5
50D
100
AcDbEntity
  8
262606150
100
AcDbCircle
 62
253
  6
CONTINUOUS
 10
-33.45
 20
-3.7999964334
 40
1.8747160825
100
AcDbArc
 50
90.000000013
 51
94.9738814775
  0
ARC
  5
50E
100
AcDbEntity
  8
262606150
100
AcDbCircle
 62
7
  6
CONTINUOUS
 10
35.23733
 20
-52.789265
 40
0.8893898871
100
AcDbArc
 50
292.842868527
 51
90.0
  0
ARC
  5
50F
100
AcDbEntity
  8
262606150
100
AcDbCircle
 62
7
  6
CONTINUOUS
 10
35.156824
 20
-52.789265
 40
0.352865
100
AcDbArc
 50
270.0
 51
90.0
  0
ARC
  5
510
100
AcDbEntity
  8
262606150
100
AcDbCircle
 62
7
  6
CONTINUOUS
 10
33.45
 20
-48.2
 40
0.3
100
AcDbArc
 50
270.0
 51
360.0
  0
ARC
  5
511
100
AcDbEntity
  8
262606150
100
AcDbCircle
 62
7
  6
CONTINUOUS
 10
-33.45
 20
-48.2
 40
0.3
100
AcDbArc
 50
180.0
 51
270.0
  0
ARC
  5
512
100
AcDbEntity
  8
262606150
100
AcDbCircle
 62
7
  6
CONTINUOUS
 10
-33.45
 20
48.2
 40
0.3
100
AcDbArc
 50
90.0
 51
180.0
  0
ARC
  5
513
100
AcDbEntity
  8
262606150
100
AcDbCircle
 62
7
  6
CONTINUOUS
 10
33.45
 20
48.2
 40
0.3
100
AcDbArc
 50
0.0
 51
90.0
  0
ARC
  5
514
100
AcDbEntity
  8
262606150
100
AcDbCircle
 62
7
  6
CONTINUOUS
 10
33.45
 20
-3.8
 40
0.3
100
AcDbArc
 50
0.0
 51
90.0
  0
ARC
  5
515
100
AcDbEntity
  8
262606150
100
AcDbCircle
 62
7
  6
CONTINUOUS
 10
33.45
 20
3.8
 40
0.3
100
AcDbArc
 50
270.0
 51
360.0
  0
ARC
  5
516
100
AcDbEntity
  8
262606150
100
AcDbCircle
 62
7
  6
CONTINUOUS
 10
-33.45
 20
3.8
 40
0.3
100
AcDbArc
 50
180.0
 51
270.0
  0
ARC
  5
517
100
AcDbEntity
  8
262606150
100
AcDbCircle
 62
7
  6
CONTINUOUS
 10
-33.45
 20
-3.8
 40
0.3
100
AcDbArc
 50
90.0
 51
180.0
  0
ARC
  5
518
100
AcDbEntity
  8
262606150
100
AcDbCircle
 62
7
  6
CONTINUOUS
 10
-112.5502970007
 20
-0.2011356697
 40
3.0
100
AcDbArc
 50
324.9202482911
 51
359.4098496185
  0
ARC
  5
519
100
AcDbEntity
  8
262606150
100
AcDbCircle
 62
7
  6
CONTINUOUS
 10
-109.2768855094
 20
-2.5
 40
1.0
100
AcDbArc
 50
144.9202482911
 51
180.0
  0
ARC
  5
51A
100
AcDbEntity
  8
262606150
100
AcDbCircle
 62
7
  6
CONTINUOUS
 10
-109.2769263684
 20
-49.5
 40
1.0
100
AcDbArc
 50
179.0053427191
 51
216.7854749918
  0
ARC
  5
51B
100
AcDbEntity
  8
262606150
100
AcDbCircle
 62
7
  6
CONTINUOUS
 10
-112.5502970007
 20
0.2011356697
 40
3.0
100
AcDbArc
 50
0.5901261944
 51
35.0797424202
  0
ARC
  5
51C
100
AcDbEntity
  8
262606150
100
AcDbCircle
 62
7
  6
CONTINUOUS
 10
-109.2768855094
 20
2.4999964342
 40
1.0
100
AcDbArc
 50
180.0
 51
215.0797238427
  0
ARC
  5
51D
100
AcDbEntity
  8
262606150
100
AcDbCircle
 62
7
  6
CONTINUOUS
 10
-109.2768932742
 20
49.5
 40
1.0
100
AcDbArc
 50
143.2145150439
 51
180.9943108116
  0
ARC
  5
51E
100
AcDbEntity
  8
262606150
100
AcDbCircle
 62
7
  6
CONTINUOUS
 10
-105.7789897656
 20
-64.7626823677
 40
1.0
100
AcDbArc
 50
199.6476409641
 51
266.9397078375
  0
ARC
  5
51F
100
AcDbEntity
  8
262606150
100
AcDbCircle
 62
7
  6
CONTINUOUS
 10
-105.7789897653
 20
64.7626823678
 40
1.0
100
AcDbArc
 50
93.0602929984
 51
160.3523590256
  0
ENDSEC
  0
SECTION
  2
OBJECTS
  0
DICTIONARY
  5
C
100
AcDbDictionary
280
0
281
1
  3
ACAD_GROUP
350
D
  3
ACAD_MLINESTYLE
350
17
  3
ACAD_LAYOUT
350
1A
  3
ACAD_PLOTSETTINGS
350
19
  3
ACAD_PLOTSTYLENAME
350
E
  0
DICTIONARY
  5
D
102
{ACAD_REACTORS
330
C
102
}
100
AcDbDictionary
280
0
281
1
  0
ACDBDICTIONARYWDFLT
  5
E
102
{ACAD_REACTORS
330
C
102
}
100
AcDbDictionary
281
1
  3
Normal
350
F
100
AcDbDictionaryWithDefault
340
F
  0
DICTIONARY
  5
17
102
{ACAD_REACTORS
330
C
102
}
100
AcDbDictionary
280
0
281
1
  3
Standard
350
18
  0
DICTIONARY
  5
19
102
{ACAD_REACTORS
330
C
102
}
100
AcDbDictionary
281
1
  0
DICTIONARY
  5
1A
102
{ACAD_REACTORS
330
C
102
}
100
AcDbDictionary
281
1
  3
Model
350
520
  3
Layout1
350
521
  0
ACDBPLACEHOLDER
  5
F
102
{ACAD_REACTORS
330
E
102
}
  0
MLINESTYLE
  5
18
102
{ACAD_REACTORS
330
17
102
}
100
AcDbMlineStyle
  2
STANDARD
 70
0
  3

 62
256
 51
90.0
 52
90.0
 71
2
 49
0.5
 62
256
  6
BYLAYER
 49
-0.5
 62
256
  6
BYLAYER
  0
LAYOUT
  5
520
102
{ACAD_REACTORS
330
1A
102
}
100
AcDbPlotSettings
  1

  2
none_device
  4
ANSI_C_(22.00_x_17.00_Inches)
  6

 40
0.0
 41
0.0
 42
0.0
 43
0.0
 44
558.8
 45
431.8
 46
0.0
 47
0.0
 48
0.0
 49
0.0
140
0.0
141
0.0
142
1.0
143
1.0
 70
1024
 72
1
 73
0
 74
0
  7

 75
0
147
1.0
148
0.0
149
0.0
100
AcDbLayout
  1
Model
 70
0
 71
0
 10
0.0
 20
0.0
 11
558.8
 21
431.8
 12
0.0
 22
0.0
 32
0.0
 14
0.0
 24
0.0
 34
0.0
 15
0.0
 25
0.0
 35
0.0
146
0.0
 13
0.0
 23
0.0
 33
0.0
 16
1.0
 26
0.0
 36
0.0
 17
0.0
 27
1.0
 37
0.0
 76
0
330
217
345
0
346
0
  0
LAYOUT
  5
521
102
{ACAD_REACTORS
330
1A
102
}
100
AcDbPlotSettings
  1

  2
none_device
  4
ANSI_C_(22.00_x_17.00_Inches)
  6

 40
0.0
 41
0.0
 42
0.0
 43
0.0
 44
558.8
 45
431.8
 46
0.0
 47
0.0
 48
0.0
 49
0.0
140
0.0
141
0.0
142
1.0
143
1.0
 70
0
 72
1
 73
0
 74
0
  7

 75
0
147
1.0
148
0.0
149
0.0
100
AcDbLayout
  1
Layout1
 70
0
 71
1
 10
0.0
 20
0.0
 11
558.8
 21
431.8
 12
0.0
 22
0.0
 32
0.0
 14
0.0
 24
0.0
 34
0.0
 15
0.0
 25
0.0
 35
0.0
146
0.0
 13
0.0
 23
0.0
 33
0.0
 16
1.0
 26
0.0
 36
0.0
 17
0.0
 27
1.0
 37
0.0
 76
0
330
218
345
0
346
0
  0
ENDSEC
  0
EOF
