  0
SECTION
  2
HEADER
  9
$ACADVER
  1
AC1024
  9
$DWGCODEPAGE
  3
ANSI_1252
  9
$EXTMAX
 10
297.0
 20
210.0
 30
0.0
  9
$EXTMIN
 10
0.0
 20
0.0
 30
0.0
  9
$LIMMIN
 10
0.0
 20
0.0
  9
$LIMMAX
 10
297.0
 20
210.0
  9
$VIEWCTR
 10
148.5
 20
105.0
  9
$VIEWSIZE
 40
210.0
  9
$CLAYER
  8
0
  9
$LTSCALE
 40
16.335
  9
$CELTYPE
  6
BYLAYER
  9
$DIMSCALE
 40
1.0
  9
$DIMASZ
 40
3.0
  9
$DIMEXO
 40
0.5
  9
$DIMDLI
 40
11.286
  9
$DIMEXE
 40
1.5
  9
$DIMCEN
 40
2.673
  9
$DIMLFAC
 40
1.0
  9
$DIMBLK
  1
_FILLED
  9
$DIMALT
 70
0
  9
$DIMALTF
 40
0.0393700787
  9
$DIMTXT
 40
3.0
  9
$DIMTOL
 70
1
  9
$DIMLIM
 70
0
  9
$DIMTFAC
 40
1.0
  9
$DIMTP
 40
0.01
  9
$DIMTM
 40
0.01
  9
$DIMGAP
 40
0.625
  9
$DIMDSEP
 70
44
  9
$AUNITS
 70
0
  9
$PDMODE
 70
3
  9
$PDSIZE
 40
3.0
  9
$HANDSEED
  5
42B
  9
$TILEMODE
 70
1
  9
$MEASUREMENT
 70
1
  9
$INSUNITS
 70
4
  0
ENDSEC
  0
SECTION
  2
CLASSES
  0
CLASS
  1
ACDBDICTIONARYWDFLT
  2
AcDbDictionaryWithDefault
  3
AutoCAD 2000
 90
0
 91
1
280
0
281
0
  0
CLASS
  1
ACDBPLACEHOLDER
  2
AcDbPlaceHolder
  3
AutoCAD 2000
 90
0
 91
1
280
0
281
0
  0
CLASS
  1
LAYOUT
  2
AcDbLayout
  3
AutoCAD 2000
 90
0
 91
0
280
0
281
0
  0
ENDSEC
  0
SECTION
  2
TABLES
  0
TABLE
  2
VPORT
  5
8
100
AcDbSymbolTable
 70
2
  0
VPORT
  5
1F4
100
AcDbSymbolTableRecord
100
AcDbViewportTableRecord
  2
*ACTIVE
 70
0
 10
0.0
 20
0.0
 11
1.0
 21
1.0
 12
148.5
 22
105.0
 13
0.0
 23
0.0
 14
1.0
 24
1.0
 15
0.0
 25
0.0
 16
0.0
 26
0.0
 36
1.0
 17
0.0
 27
0.0
 37
0.0
 40
210.0
 41
1.4142857143
 42
50.0
 43
0.0
 44
0.0
 50
0.0
 51
0.0
 71
0
 72
100
 73
1
 74
1
 75
0
 76
0
 77
0
 78
0
  0
ENDTAB
  0
TABLE
  2
LTYPE
  5
5
100
AcDbSymbolTable
 70
6
  0
LTYPE
  5
14
100
AcDbSymbolTableRecord
100
AcDbLinetypeTableRecord
  2
BYBLOCK
 70
0
  3

 72
65
 73
0
 40
0.0
  0
LTYPE
  5
15
100
AcDbSymbolTableRecord
100
AcDbLinetypeTableRecord
  2
BYLAYER
 70
0
  3

 72
65
 73
0
 40
0.0
  0
LTYPE
  5
16
100
AcDbSymbolTableRecord
100
AcDbLinetypeTableRecord
  2
CONTINUOUS
 70
64
  3
Solid line
 72
65
 73
0
 40
0.0
  0
LTYPE
  5
1F5
100
AcDbSymbolTableRecord
100
AcDbLinetypeTableRecord
  2
CENTER
 70
64
  3
____ _ ____ _ ____ _ ____ _ ____ _ ____ _ ____
 72
65
 73
4
 40
0.6
 49
0.375
 74
0
 49
-0.075
 74
0
 49
0.075
 74
0
 49
-0.075
 74
0
  0
LTYPE
  5
1F6
100
AcDbSymbolTableRecord
100
AcDbLinetypeTableRecord
  2
HIDDEN
 70
64
  3
- - - - - - - - - - - - - - - - - - - -
 72
65
 73
2
 40
0.2
 49
0.1
 74
0
 49
-0.1
 74
0
  0
LTYPE
  5
1F7
100
AcDbSymbolTableRecord
100
AcDbLinetypeTableRecord
  2
PHANTOM
 70
64
  3
_____ _ _ _____ _ _ _____ _ _ _____
 72
65
 73
6
 40
0.8
 49
0.45
 74
0
 49
-0.05
 74
0
 49
0.1
 74
0
 49
-0.05
 74
0
 49
0.1
 74
0
 49
-0.05
 74
0
  0
LTYPE
  5
1F8
100
AcDbSymbolTableRecord
100
AcDbLinetypeTableRecord
  2
DOT
 70
64
  3
. . . . . . . . . . . . . . . . . . . .
 72
65
 73
2
 40
0.2
 49
0.1
 74
0
 49
-0.1
 74
0
  0
LTYPE
  5
1F9
100
AcDbSymbolTableRecord
100
AcDbLinetypeTableRecord
  2
DASHED
 70
64
  3
- - - - - - - - - - - - - - - - - - - -
 72
65
 73
2
 40
0.2
 49
0.1
 74
0
 49
-0.1
 74
0
  0
ENDTAB
  0
TABLE
  2
LAYER
  5
2
100
AcDbSymbolTable
 70
36
  0
LAYER
  5
10
100
AcDbSymbolTableRecord
100
AcDbLayerTableRecord
  2
0
 70
0
 62
7
  6
CONTINUOUS
370
-3
390
F
  0
LAYER
  5
1FA
100
AcDbSymbolTableRecord
100
AcDbLayerTableRecord
  2
DEFAULT_1
 70
0
 62
7
  6
CENTER
370
-3
390
F
  0
LAYER
  5
1FB
100
AcDbSymbolTableRecord
100
AcDbLayerTableRecord
  2
DEFAULT_2
 70
0
 62
7
  6
HIDDEN
370
-3
390
F
  0
LAYER
  5
1FC
100
AcDbSymbolTableRecord
100
AcDbLayerTableRecord
  2
DEFAULT_3
 70
0
 62
7
  6
PHANTOM
370
-3
390
F
  0
LAYER
  5
1FD
100
AcDbSymbolTableRecord
100
AcDbLayerTableRecord
  2
ASSI
 70
0
 62
7
  6
CONTINUOUS
370
-3
390
F
  0
LAYER
  5
1FE
100
AcDbSymbolTableRecord
100
AcDbLayerTableRecord
  2
COORDINATE
 70
0
 62
7
  6
CONTINUOUS
370
-3
390
F
  0
LAYER
  5
1FF
100
AcDbSymbolTableRecord
100
AcDbLayerTableRecord
  2
COPY_PUBLISH
 70
0
 62
7
  6
CONTINUOUS
370
-3
390
F
  0
LAYER
  5
200
100
AcDbSymbolTableRecord
100
AcDbLayerTableRecord
  2
COSMETICI
 70
0
 62
7
  6
CONTINUOUS
370
-3
390
F
  0
LAYER
  5
201
100
AcDbSymbolTableRecord
100
AcDbLayerTableRecord
  2
CURVE
 70
0
 62
7
  6
CONTINUOUS
370
-3
390
F
  0
LAYER
  5
202
100
AcDbSymbolTableRecord
100
AcDbLayerTableRecord
  2
DRAFT
 70
0
 62
7
  6
CONTINUOUS
370
-3
390
F
  0
LAYER
  5
203
100
AcDbSymbolTableRecord
100
AcDbLayerTableRecord
  2
IMPORT_IGES
 70
0
 62
7
  6
CONTINUOUS
370
-3
390
F
  0
LAYER
  5
204
100
AcDbSymbolTableRecord
100
AcDbLayerTableRecord
  2
INTFCLR
 70
0
 62
7
  6
CONTINUOUS
370
-3
390
F
  0
LAYER
  5
205
100
AcDbSymbolTableRecord
100
AcDbLayerTableRecord
  2
INTFCLR_17
 70
0
 62
7
  6
CONTINUOUS
370
-3
390
F
  0
LAYER
  5
206
100
AcDbSymbolTableRecord
100
AcDbLayerTableRecord
  2
INTF_11
 70
0
 62
7
  6
CONTINUOUS
370
-3
390
F
  0
LAYER
  5
207
100
AcDbSymbolTableRecord
100
AcDbLayerTableRecord
  2
INTF_2
 70
0
 62
7
  6
CONTINUOUS
370
-3
390
F
  0
LAYER
  5
208
100
AcDbSymbolTableRecord
100
AcDbLayerTableRecord
  2
INTF_5
 70
0
 62
7
  6
CONTINUOUS
370
-3
390
F
  0
LAYER
  5
209
100
AcDbSymbolTableRecord
100
AcDbLayerTableRecord
  2
INTF_YELLOW
 70
0
 62
7
  6
CONTINUOUS
370
-3
390
F
  0
LAYER
  5
20A
100
AcDbSymbolTableRecord
100
AcDbLayerTableRecord
  2
NONE
 70
0
 62
7
  6
CONTINUOUS
370
-3
390
F
  0
LAYER
  5
20B
100
AcDbSymbolTableRecord
100
AcDbLayerTableRecord
  2
NOTE
 70
0
 62
7
  6
CONTINUOUS
370
-3
390
F
  0
LAYER
  5
20C
100
AcDbSymbolTableRecord
100
AcDbLayerTableRecord
  2
PIANI
 70
0
 62
7
  6
CONTINUOUS
370
-3
390
F
  0
LAYER
  5
20D
100
AcDbSymbolTableRecord
100
AcDbLayerTableRecord
  2
POSIZIONE_SCRITTE
 70
0
 62
7
  6
CONTINUOUS
370
-3
390
F
  0
LAYER
  5
20E
100
AcDbSymbolTableRecord
100
AcDbLayerTableRecord
  2
PUNTI
 70
0
 62
7
  6
CONTINUOUS
370
-3
390
F
  0
LAYER
  5
20F
100
AcDbSymbolTableRecord
100
AcDbLayerTableRecord
  2
RACCORDO
 70
0
 62
7
  6
CONTINUOUS
370
-3
390
F
  0
LAYER
  5
210
100
AcDbSymbolTableRecord
100
AcDbLayerTableRecord
  2
SIMBOLI
 70
0
 62
7
  6
CONTINUOUS
370
-3
390
F
  0
LAYER
  5
211
100
AcDbSymbolTableRecord
100
AcDbLayerTableRecord
  2
SMUSSO
 70
0
 62
7
  6
CONTINUOUS
370
-3
390
F
  0
LAYER
  5
212
100
AcDbSymbolTableRecord
100
AcDbLayerTableRecord
  2
SNAPLINE
 70
0
 62
7
  6
CONTINUOUS
370
-3
390
F
  0
LAYER
  5
213
100
AcDbSymbolTableRecord
100
AcDbLayerTableRecord
  2
SUPERFICI
 70
0
 62
7
  6
CONTINUOUS
370
-3
390
F
  0
LAYER
  5
214
100
AcDbSymbolTableRecord
100
AcDbLayerTableRecord
  2
TRASH
 70
0
 62
7
  6
CONTINUOUS
370
-3
390
F
  0
ENDTAB
  0
TABLE
  2
STYLE
  5
3
100
AcDbSymbolTable
 70
1
  0
STYLE
  5
11
100
AcDbSymbolTableRecord
100
AcDbTextStyleTableRecord
  2
STANDARD
 70
0
 40
0.0
 41
0.8
 50
0.0
 71
0
 42
0.2
  3
txt
  4

  0
STYLE
  5
215
100
AcDbSymbolTableRecord
100
AcDbTextStyleTableRecord
  2
TEXTSTYLE_1
 70
0
 40
0.0
 41
0.8
 50
0.0
 71
0
 42
0.2
  3
gdt
  4

  0
ENDTAB
  0
TABLE
  2
VIEW
  5
6
100
AcDbSymbolTable
 70
0
  0
ENDTAB
  0
TABLE
  2
UCS
  5
7
100
AcDbSymbolTable
 70
0
  0
ENDTAB
  0
TABLE
  2
APPID
  5
9
100
AcDbSymbolTable
 70
1
  0
APPID
  5
216
100
AcDbSymbolTableRecord
100
AcDbRegAppTableRecord
  2
ACAD
 70
0
  0
ENDTAB
  0
TABLE
  2
BLOCK_RECORD
  5
1
100
AcDbSymbolTable
 70
0
  0
BLOCK_RECORD
  5
217
100
AcDbSymbolTableRecord
100
AcDbBlockTableRecord
  2
*Model_Space
  0
BLOCK_RECORD
  5
218
100
AcDbSymbolTableRecord
100
AcDbBlockTableRecord
  2
*Paper_Space
  0
BLOCK_RECORD
  5
219
100
AcDbSymbolTableRecord
100
AcDbBlockTableRecord
  2
_FILLED
  0
BLOCK_RECORD
  5
21A
100
AcDbSymbolTableRecord
100
AcDbBlockTableRecord
  2
*D0
  0
BLOCK_RECORD
  5
21B
100
AcDbSymbolTableRecord
100
AcDbBlockTableRecord
  2
*D1
  0
BLOCK_RECORD
  5
21C
100
AcDbSymbolTableRecord
100
AcDbBlockTableRecord
  2
*D2
  0
ENDTAB
  0
TABLE
  2
DIMSTYLE
  5
A
100
AcDbSymbolTable
 70
1
100
AcDbDimStyleTable
 71
0
  0
DIMSTYLE
105
21D
100
AcDbSymbolTableRecord
100
AcDbDimStyleTableRecord
  2
STANDARD
 70
0
  3

  4

 40
1.0
 41
3.0
 42
0.5
 43
0.38
 44
1.5
 45
0.0
 46
0.0
 47
0.01
 48
0.01
140
3.0
141
0.0
142
0.0
143
25.4
144
1.0
145
0.0
146
1.0
147
0.625
 71
1
 72
0
 73
0
 74
0
 75
0
 76
0
 77
1
 78
8
 79
2
170
0
171
1
172
0
173
0
174
0
175
0
176
0
177
0
178
0
270
2
179
2
271
2
272
2
273
2
274
2
275
0
280
0
281
0
282
0
283
1
284
8
285
0
286
0
287
3
288
0
340
11
278
44
341
219
342
219
343
219
344
219
  0
DIMSTYLE
105
21E
100
AcDbSymbolTableRecord
100
AcDbDimStyleTableRecord
  2
DIMSTYLE_1
 70
0
  3

  4

 40
1.0
 41
3.0
 42
0.5
 43
0.38
 44
1.5
 45
0.0
 46
0.0
 47
0.0
 48
0.0
140
3.0
141
0.0
142
0.0
143
25.4
144
1.0
145
0.0
146
1.0
147
0.75
 71
0
 72
0
 73
0
 74
0
 75
0
 76
0
 77
1
 78
8
 79
2
170
0
171
1
172
0
173
0
174
0
175
0
176
0
177
0
178
0
270
2
179
2
271
2
272
2
273
2
274
2
275
0
280
0
281
0
282
0
283
1
284
8
285
0
286
0
287
3
288
0
340
11
278
44
341
219
342
219
343
219
344
219
  0
DIMSTYLE
105
21F
100
AcDbSymbolTableRecord
100
AcDbDimStyleTableRecord
  2
DIMSTYLE_2
 70
0
  3

  4

 40
1.0
 41
3.0
 42
0.5
 43
0.38
 44
1.5
 45
0.0
 46
0.0
 47
0.0
 48
0.0
140
3.0
141
0.0
142
0.0
143
25.4
144
1.0
145
0.0
146
1.0
147
0.75
 71
0
 72
0
 73
0
 74
0
 75
0
 76
0
 77
1
 78
8
 79
2
170
0
171
1
172
0
173
0
174
0
175
0
176
0
177
0
178
0
270
2
179
2
271
1
272
1
273
2
274
2
275
0
280
0
281
0
282
0
283
1
284
8
285
0
286
0
287
3
288
0
340
11
278
44
341
219
342
219
343
219
344
219
  0
ENDTAB
  0
ENDSEC
  0
SECTION
  2
BLOCKS
  0
BLOCK
  5
20
100
AcDbEntity
  8
0
100
AcDbBlockBegin
  2
*Model_Space
 70
0
 10
0.0
 20
0.0
 30
0.0
  3
*Model_Space
  1

  0
ENDBLK
  5
21
100
AcDbEntity
  8
0
100
AcDbBlockEnd
  0
BLOCK
  5
1C
100
AcDbEntity
  8
0
100
AcDbBlockBegin
  2
*Paper_Space
 70
0
 10
0.0
 20
0.0
 30
0.0
  3
*Paper_Space
  1

  0
ENDBLK
  5
1D
100
AcDbEntity
  8
0
100
AcDbBlockEnd
  0
BLOCK
  5
220
100
AcDbEntity
  8
0
100
AcDbBlockBegin
  2
_FILLED
 70
64
 10
0.0
 20
0.0
 30
0.0
  3
_FILLED
  1

  0
SOLID
  5
221
100
AcDbEntity
  8
0
  6
BYBLOCK
 62
0
100
AcDbTrace
 10
0.0
 20
0.0
 30
0.0
 11
-1.0
 21
0.3166666667
 31
0.0
 12
-1.0
 22
-0.3166666667
 32
0.0
 13
-1.0
 23
-0.3166666667
 33
0.0
  0
ENDBLK
  5
222
100
AcDbEntity
  8
0
  6
BYBLOCK
 62
0
100
AcDbBlockEnd
  0
BLOCK
  5
223
100
AcDbEntity
  8
0
100
AcDbBlockBegin
 62
7
  6
CONTINUOUS
  2
*D0
 70
65
 10
0.0
 20
0.0
 30
0.0
  3
*D0
  1

  0
MTEXT
  5
224
100
AcDbEntity
  8
0
100
AcDbMText
 62
7
  6
CONTINUOUS
  7
STANDARD
 71
2
 72
1
 10
51.7231104651
 20
119.3486101017
 30
0.0
 11
1.0
 21
0.0
 31
0.0
 73
2
 44
0.9
  1
{\ftxt;\W0.0001;\H0.0001;\~}{\ftxt;\W1.5714285714;\H3.0; }{\ftxt;\W0.0001;\H0.0001;\~}
 40
3.0
 41
7.0714285714
  0
LINE
  5
225
100
AcDbEntity
  8
0
100
AcDbLine
 62
7
  6
CONTINUOUS
 10
31.7231104651
 20
103.7074101017
 30
0.0
 11
31.7231104651
 21
117.0986101017
 31
0.0
  0
LINE
  5
226
100
AcDbEntity
  8
0
100
AcDbLine
 62
7
  6
CONTINUOUS
 10
71.7231104651
 20
103.7074101017
 30
0.0
 11
71.7231104651
 21
117.0986101017
 31
0.0
  0
LINE
  5
227
100
AcDbEntity
  8
0
100
AcDbLine
 62
7
  6
CONTINUOUS
 10
31.7231104651
 20
115.5986101017
 30
0.0
 11
51.7231104651
 21
115.5986101017
 31
0.0
  0
LINE
  5
228
100
AcDbEntity
  8
0
100
AcDbLine
 62
7
  6
CONTINUOUS
 10
71.7231104651
 20
115.5986101017
 30
0.0
 11
51.7231104651
 21
115.5986101017
 31
0.0
  0
INSERT
  5
229
100
AcDbEntity
  8
0
100
AcDbBlockReference
 62
7
  6
CONTINUOUS
  2
_FILLED
 10
31.7231104651
 20
115.5986101017
 30
0.0
 41
3.0
 42
3.0
 43
3.0
 50
180.0
  0
INSERT
  5
22A
100
AcDbEntity
  8
0
100
AcDbBlockReference
 62
7
  6
CONTINUOUS
  2
_FILLED
 10
71.7231104651
 20
115.5986101017
 30
0.0
 41
3.0
 42
3.0
 43
3.0
  0
ENDBLK
  5
22B
100
AcDbEntity
  8
0
  6
BYBLOCK
 62
0
100
AcDbBlockEnd
  0
BLOCK
  5
22C
100
AcDbEntity
  8
0
100
AcDbBlockBegin
 62
7
  6
CONTINUOUS
  2
*D1
 70
65
 10
0.0
 20
0.0
 30
0.0
  3
*D1
  1

  0
MTEXT
  5
22D
100
AcDbEntity
  8
0
100
AcDbMText
 62
7
  6
CONTINUOUS
  7
STANDARD
 71
2
 72
1
 10
17.9731104651
 20
64.5986101017
 30
0.0
 11
0.0
 21
1.0
 31
0.0
 73
2
 44
0.9
  1
{\ftxt;\W0.0001;\H0.0001;\~}{\ftxt;\W1.5714285714;\H3.0; }{\ftxt;\W0.0001;\H0.0001;\~}
 40
3.0
 41
7.0714285714
  0
LINE
  5
22E
100
AcDbEntity
  8
0
100
AcDbLine
 62
7
  6
CONTINUOUS
 10
39.3244072018
 20
107.5986101017
 30
0.0
 11
20.2231104651
 21
107.5986101017
 31
0.0
  0
LINE
  5
22F
100
AcDbEntity
  8
0
100
AcDbLine
 62
7
  6
CONTINUOUS
 10
38.9486459945
 20
21.5986101017
 30
0.0
 11
20.2231104651
 21
21.5986101017
 31
0.0
  0
LINE
  5
230
100
AcDbEntity
  8
0
100
AcDbLine
 62
7
  6
CONTINUOUS
 10
21.7231104651
 20
107.5986101017
 30
0.0
 11
21.7231104651
 21
64.5986101017
 31
0.0
  0
LINE
  5
231
100
AcDbEntity
  8
0
100
AcDbLine
 62
7
  6
CONTINUOUS
 10
21.7231104651
 20
21.5986101017
 30
0.0
 11
21.7231104651
 21
64.5986101017
 31
0.0
  0
INSERT
  5
232
100
AcDbEntity
  8
0
100
AcDbBlockReference
 62
7
  6
CONTINUOUS
  2
_FILLED
 10
21.7231104651
 20
107.5986101017
 30
0.0
 41
3.0
 42
3.0
 43
3.0
 50
90.0
  0
INSERT
  5
233
100
AcDbEntity
  8
0
100
AcDbBlockReference
 62
7
  6
CONTINUOUS
  2
_FILLED
 10
21.7231104651
 20
21.5986101017
 30
0.0
 41
3.0
 42
3.0
 43
3.0
 50
270.0
  0
ENDBLK
  5
234
100
AcDbEntity
  8
0
  6
BYBLOCK
 62
0
100
AcDbBlockEnd
  0
BLOCK
  5
235
100
AcDbEntity
  8
0
100
AcDbBlockBegin
 62
7
  6
CONTINUOUS
  2
*D2
 70
65
 10
0.0
 20
0.0
 30
0.0
  3
*D2
  1

  0
MTEXT
  5
236
100
AcDbEntity
  8
0
100
AcDbMText
 62
7
  6
CONTINUOUS
  7
STANDARD
 71
2
 72
1
 10
114.8568897619
 20
119.3486101017
 30
0.0
 11
1.0
 21
0.0
 31
0.0
 73
2
 44
0.9
  1
{\ftxt;\W0.0001;\H0.0001;\~}{\ftxt;\W2.1428571429;\H3.0; }{\ftxt;\W0.0001;\H0.0001;\~}
 40
3.0
 41
9.6428571429
  0
LINE
  5
237
100
AcDbEntity
  8
0
100
AcDbLine
 62
7
  6
CONTINUOUS
 10
110.0530670949
 20
104.1777756608
 30
0.0
 11
110.0530670949
 21
117.0986101017
 31
0.0
  0
LINE
  5
238
100
AcDbEntity
  8
0
100
AcDbLine
 62
7
  6
CONTINUOUS
 10
119.6607124288
 20
65.0986101017
 30
0.0
 11
119.6607124288
 21
117.0986101017
 31
0.0
  0
LINE
  5
239
100
AcDbEntity
  8
0
100
AcDbLine
 62
7
  6
CONTINUOUS
 10
110.0530670949
 20
115.5986101017
 30
0.0
 11
106.0530670949
 21
115.5986101017
 31
0.0
  0
LINE
  5
23A
100
AcDbEntity
  8
0
100
AcDbLine
 62
7
  6
CONTINUOUS
 10
106.0530670949
 20
115.5986101017
 30
0.0
 11
114.8568897619
 21
115.5986101017
 31
0.0
  0
LINE
  5
23B
100
AcDbEntity
  8
0
100
AcDbLine
 62
7
  6
CONTINUOUS
 10
119.6607124288
 20
115.5986101017
 30
0.0
 11
123.6607124288
 21
115.5986101017
 31
0.0
  0
LINE
  5
23C
100
AcDbEntity
  8
0
100
AcDbLine
 62
7
  6
CONTINUOUS
 10
123.6607124288
 20
115.5986101017
 30
0.0
 11
114.8568897619
 21
115.5986101017
 31
0.0
  0
INSERT
  5
23D
100
AcDbEntity
  8
0
100
AcDbBlockReference
 62
7
  6
CONTINUOUS
  2
_FILLED
 10
110.0530670949
 20
115.5986101017
 30
0.0
 41
3.0
 42
3.0
 43
3.0
  0
INSERT
  5
23E
100
AcDbEntity
  8
0
100
AcDbBlockReference
 62
7
  6
CONTINUOUS
  2
_FILLED
 10
119.6607124288
 20
115.5986101017
 30
0.0
 41
3.0
 42
3.0
 43
3.0
 50
180.0
  0
ENDBLK
  5
23F
100
AcDbEntity
  8
0
  6
BYBLOCK
 62
0
100
AcDbBlockEnd
  0
ENDSEC
  0
SECTION
  2
ENTITIES
  0
DIMENSION
  5
240
100
AcDbEntity
  8
0
100
AcDbDimension
 62
7
  6
CONTINUOUS
  2
*D0
 10
71.7231104651
 20
115.5986101017
 30
0.0
 11
51.2945389023
 21
115.5986101017
 31
0.0
 70
160
 71
2
 72
2
 41
0.9
 42
40.0
  1
{\ftxt;\W0.0001;\H0.0001;\~}{\ftxt;\W1.5714285714;\H3.0; }{\ftxt;\W0.0001;\H0.0001;\~}
  3
DIMSTYLE_1
100
AcDbAlignedDimension
 13
31.7231104651
 23
103.2074101017
 33
0.0
 14
71.7231104651
 24
103.2074101017
 34
0.0
100
AcDbRotatedDimension
  0
DIMENSION
  5
241
100
AcDbEntity
  8
0
100
AcDbDimension
 62
7
  6
CONTINUOUS
  2
*D1
 10
21.7231104651
 20
21.5986101017
 30
0.0
 11
21.7231104651
 21
64.1700382904
 31
0.0
 70
160
 71
2
 72
2
 41
0.9
 42
86.0
  1
{\ftxt;\W0.0001;\H0.0001;\~}{\ftxt;\W1.5714285714;\H3.0; }{\ftxt;\W0.0001;\H0.0001;\~}
  3
DIMSTYLE_1
100
AcDbAlignedDimension
 13
39.8244072018
 23
107.5986101017
 33
0.0
 14
39.4486459945
 24
21.5986101017
 34
0.0
 50
270.0
100
AcDbRotatedDimension
  0
DIMENSION
  5
242
100
AcDbEntity
  8
0
100
AcDbDimension
 62
7
  6
CONTINUOUS
  2
*D2
 10
119.6607124288
 20
115.5986101017
 30
0.0
 11
114.4283182526
 21
115.5986101017
 31
0.0
 70
160
 71
2
 72
2
 41
0.9
 42
9.6076453339
  1
{\ftxt;\W0.0001;\H0.0001;\~}{\ftxt;\W2.1428571429;\H3.0; }{\ftxt;\W0.0001;\H0.0001;\~}
  3
DIMSTYLE_2
100
AcDbAlignedDimension
 13
110.0530670949
 23
103.6777756608
 33
0.0
 14
119.6607124288
 24
64.5986101017
 34
0.0
100
AcDbRotatedDimension
  0
LINE
  5
243
100
AcDbEntity
  8
SUPERFICI
100
AcDbLine
 62
7
  6
CONTINUOUS
 10
67.7231104651
 20
21.5986101017
 30
0.0
 11
62.7458408472
 21
21.5986101017
 31
0.0
  0
LINE
  5
244
100
AcDbEntity
  8
0
100
AcDbLine
 62
7
  6
CONTINUOUS
 10
35.7231104651
 20
21.5986101017
 30
0.0
 11
62.7458408472
 21
21.5986101017
 31
0.0
  0
LINE
  5
245
100
AcDbEntity
  8
RACCORDO
100
AcDbLine
 62
250
  6
CONTINUOUS
 10
31.7231104651
 20
25.5986101017
 30
0.0
 11
32.1662583567
 21
25.6049132708
 31
0.0
  0
LINE
  5
246
100
AcDbEntity
  8
RACCORDO
100
AcDbLine
 62
250
  6
CONTINUOUS
 10
32.1668665155
 20
25.9898101017
 30
0.0
 11
31.7231104651
 21
25.9898101017
 31
0.0
  0
LINE
  5
247
100
AcDbEntity
  8
RACCORDO
100
AcDbLine
 62
250
  6
CONTINUOUS
 10
71.2793544147
 20
25.9898101017
 30
0.0
 11
71.7231104651
 21
25.9898101017
 31
0.0
  0
LINE
  5
248
100
AcDbEntity
  8
RACCORDO
100
AcDbLine
 62
250
  6
CONTINUOUS
 10
71.7231104651
 20
25.5986101017
 30
0.0
 11
71.2799625736
 21
25.6049132708
 31
0.0
  0
LINE
  5
249
100
AcDbEntity
  8
0
100
AcDbLine
 62
7
  6
CONTINUOUS
 10
56.5080642258
 20
36.3684303211
 30
0.0
 11
56.0061601275
 21
36.3684303211
 31
0.0
  0
LINE
  5
24A
100
AcDbEntity
  8
0
100
AcDbLine
 62
7
  6
CONTINUOUS
 10
55.2071063087
 20
36.3684303211
 30
0.0
 11
54.6874129672
 21
36.3684303211
 31
0.0
  0
LINE
  5
24B
100
AcDbEntity
  8
0
100
AcDbLine
 62
7
  6
CONTINUOUS
 10
54.5341894651
 20
36.3684301017
 30
0.0
 11
53.9842414651
 21
36.3684301017
 31
0.0
  0
LINE
  5
24C
100
AcDbEntity
  8
0
100
AcDbLine
 62
7
  6
CONTINUOUS
 10
52.9944914651
 20
36.3684301017
 30
0.0
 11
52.4783604651
 21
36.3684301017
 31
0.0
  0
LINE
  5
24D
100
AcDbEntity
  8
0
100
AcDbLine
 62
7
  6
CONTINUOUS
 10
52.3964244651
 20
36.3684301017
 30
0.0
 11
51.8859724651
 21
36.3684301017
 31
0.0
  0
LINE
  5
24E
100
AcDbEntity
  8
0
100
AcDbLine
 62
7
  6
CONTINUOUS
 10
51.1583574651
 20
36.3684301017
 30
0.0
 11
51.0851754651
 21
36.3684301017
 31
0.0
  0
LINE
  5
24F
100
AcDbEntity
  8
0
100
AcDbLine
 62
7
  6
CONTINUOUS
 10
50.3604464651
 20
36.3684301017
 30
0.0
 11
49.8612604651
 21
36.3684301017
 31
0.0
  0
LINE
  5
250
100
AcDbEntity
  8
0
100
AcDbLine
 62
7
  6
CONTINUOUS
 10
49.5803634651
 20
36.3684301017
 30
0.0
 11
49.0585704651
 21
36.3684301017
 31
0.0
  0
LINE
  5
251
100
AcDbEntity
  8
0
100
AcDbLine
 62
7
  6
CONTINUOUS
 10
48.0614164651
 20
36.3684301017
 30
0.0
 11
47.6015864651
 21
36.3684301017
 31
0.0
  0
LINE
  5
252
100
AcDbEntity
  8
0
100
AcDbLine
 62
7
  6
CONTINUOUS
 10
53.8490694651
 20
36.8674661017
 30
0.0
 11
53.1384744651
 21
36.8674661017
 31
0.0
  0
LINE
  5
253
100
AcDbEntity
  8
0
100
AcDbLine
 62
7
  6
CONTINUOUS
 10
53.2452094651
 20
37.2536181017
 30
0.0
 11
53.7447894651
 21
37.2536181017
 31
0.0
  0
LINE
  5
254
100
AcDbEntity
  8
0
100
AcDbLine
 62
7
  6
CONTINUOUS
 10
55.4868791815
 20
37.3466887403
 30
0.0
 11
55.2071063087
 21
37.3466887403
 31
0.0
  0
LINE
  5
255
100
AcDbEntity
  8
0
100
AcDbLine
 62
7
  6
CONTINUOUS
 10
55.189804442
 20
37.7560850244
 30
0.0
 11
55.4880038965
 21
37.7560850244
 31
0.0
  0
LWPOLYLINE
  5
256
100
AcDbEntity
  8
0
100
AcDbPolyline
 62
7
  6
CONTINUOUS
 90
13
 70
0
 43
0.3500000006
 10
19.2588248749
 20
62.6700405579
 10
19.0445381241
 20
62.3843248901
 10
18.4016824036
 20
62.3843248901
 10
17.9731100349
 20
62.6700405579
 10
17.9731100349
 20
63.3128940125
 10
18.4016824036
 20
63.5986096802
 10
19.0445381241
 20
63.5986096802
 10
19.2588248749
 20
63.3128940125
 10
19.6873961105
 20
63.7414629822
 10
20.5445385818
 20
63.7414629822
 10
20.9731098175
 20
63.3128940125
 10
20.9731098175
 20
62.6700405579
 10
20.5445385818
 20
62.2414715881
  0
LINE
  5
257
100
AcDbEntity
  8
0
100
AcDbLine
 62
7
  6
CONTINUOUS
 10
46.8091214651
 20
38.8681661017
 30
0.0
 11
47.3759494651
 21
38.8681661017
 31
0.0
  0
LINE
  5
258
100
AcDbEntity
  8
0
100
AcDbLine
 62
7
  6
CONTINUOUS
 10
48.3434954651
 20
38.8681661017
 30
0.0
 11
48.8649314651
 21
38.8681661017
 31
0.0
  0
LINE
  5
259
100
AcDbEntity
  8
0
100
AcDbLine
 62
7
  6
CONTINUOUS
 10
50.0869724651
 20
38.8681661017
 30
0.0
 11
50.6083334651
 21
38.8681661017
 31
0.0
  0
LINE
  5
25A
100
AcDbEntity
  8
0
100
AcDbLine
 62
7
  6
CONTINUOUS
 10
51.6464084651
 20
38.8681661017
 30
0.0
 11
52.1626714651
 21
38.8681661017
 31
0.0
  0
LINE
  5
25B
100
AcDbEntity
  8
0
100
AcDbLine
 62
7
  6
CONTINUOUS
 10
53.2624364651
 20
38.8681661017
 30
0.0
 11
53.7672084651
 21
38.8681661017
 31
0.0
  0
LINE
  5
25C
100
AcDbEntity
  8
0
100
AcDbLine
 62
7
  6
CONTINUOUS
 10
49.0585704651
 20
38.8683161017
 30
0.0
 11
49.5803634651
 21
38.8683161017
 31
0.0
  0
LINE
  5
25D
100
AcDbEntity
  8
RACCORDO
100
AcDbLine
 62
250
  6
CONTINUOUS
 10
71.0615356297
 20
42.0986101017
 30
0.0
 11
63.041991476
 21
42.0986101017
 31
0.0
  0
LINE
  5
25E
100
AcDbEntity
  8
RACCORDO
100
AcDbLine
 62
250
  6
CONTINUOUS
 10
32.3846853005
 20
42.0986101017
 30
0.0
 11
40.4042294542
 21
42.0986101017
 31
0.0
  0
LINE
  5
25F
100
AcDbEntity
  8
RACCORDO
100
AcDbLine
 62
250
  6
CONTINUOUS
 10
32.1642900471
 20
42.2786101017
 30
0.0
 11
31.7231104651
 21
42.2786101017
 31
0.0
  0
LINE
  5
260
100
AcDbEntity
  8
RACCORDO
100
AcDbLine
 62
250
  6
CONTINUOUS
 10
71.2819308832
 20
42.2786101017
 30
0.0
 11
71.7231104651
 21
42.2786101017
 31
0.0
  0
LINE
  5
261
100
AcDbEntity
  8
RACCORDO
100
AcDbLine
 62
7
  6
CONTINUOUS
 10
40.9782708322
 20
42.2788466212
 30
0.0
 11
62.4679500981
 21
42.2788466212
 31
0.0
  0
LWPOLYLINE
  5
262
100
AcDbEntity
  8
0
100
AcDbPolyline
 62
7
  6
CONTINUOUS
 90
10
 70
0
 43
0.3500000006
 10
17.9731100349
 20
65.6700414734
 10
18.6159680214
 20
65.0271789551
 10
19.4731093597
 20
64.5986099854
 10
20.5445385818
 20
64.5986099854
 10
20.9731098175
 20
65.0271789551
 10
20.9731098175
 20
65.6700414734
 10
20.5445385818
 20
66.0986104431
 10
19.6873961105
 20
66.0986104431
 10
19.2588248749
 20
65.6700414734
 10
19.2588248749
 20
64.7414632874
  0
LINE
  5
263
100
AcDbEntity
  8
0
100
AcDbLine
 62
7
  6
CONTINUOUS
 10
31.7231104651
 20
25.5986101017
 30
0.0
 11
31.7231104651
 21
86.9186101018
 31
0.0
  0
LINE
  5
264
100
AcDbEntity
  8
SUPERFICI
100
AcDbLine
 62
7
  6
CONTINUOUS
 10
31.7231104651
 20
86.9186101018
 30
0.0
 11
31.7231104651
 21
103.5986101017
 31
0.0
  0
LINE
  5
265
100
AcDbEntity
  8
RACCORDO
100
AcDbLine
 62
250
  6
CONTINUOUS
 10
32.3846665566
 20
42.2648336717
 30
0.0
 11
32.3870685549
 21
103.6236000466
 31
0.0
  0
LINE
  5
266
100
AcDbEntity
  8
RACCORDO
100
AcDbLine
 62
250
  6
CONTINUOUS
 10
32.3870685549
 20
25.5736201569
 30
0.0
 11
32.3846665566
 21
42.2648336717
 31
0.0
  0
LINE
  5
267
100
AcDbEntity
  8
RACCORDO
100
AcDbLine
 62
250
  6
CONTINUOUS
 10
36.1999074699
 20
22.0301503479
 30
0.0
 11
36.1999074699
 21
21.5986101017
 31
0.0
  0
LINE
  5
268
100
AcDbEntity
  8
RACCORDO
100
AcDbLine
 62
250
  6
CONTINUOUS
 10
36.1999074699
 20
107.1670698556
 30
0.0
 11
36.1999074699
 21
107.5986101017
 31
0.0
  0
LINE
  5
269
100
AcDbEntity
  8
RACCORDO
100
AcDbLine
 62
250
  6
CONTINUOUS
 10
40.4731104651
 20
42.047942268
 30
0.0
 11
40.4731104651
 21
22.2833275815
 31
0.0
  0
LINE
  5
26A
100
AcDbEntity
  8
RACCORDO
100
AcDbLine
 62
250
  6
CONTINUOUS
 10
40.4731104651
 20
87.1492779355
 30
0.0
 11
40.4731104651
 21
106.9138926219
 31
0.0
  0
LINE
  5
26B
100
AcDbEntity
  8
RACCORDO
100
AcDbLine
 62
7
  6
CONTINUOUS
 10
40.4783469846
 20
86.4184497347
 30
0.0
 11
40.4783469846
 21
42.7787704688
 31
0.0
  0
LINE
  5
26C
100
AcDbEntity
  8
RACCORDO
100
AcDbLine
 62
250
  6
CONTINUOUS
 10
40.700380083
 20
22.0267724922
 30
0.0
 11
40.700380083
 21
21.5986101017
 31
0.0
  0
LINE
  5
26D
100
AcDbEntity
  8
RACCORDO
100
AcDbLine
 62
250
  6
CONTINUOUS
 10
40.700380083
 20
107.1704477113
 30
0.0
 11
40.700380083
 21
107.5986101017
 31
0.0
  0
LINE
  5
26E
100
AcDbEntity
  8
0
100
AcDbLine
 62
7
  6
CONTINUOUS
 10
47.6015864651
 20
36.3684301017
 30
0.0
 11
46.8091214651
 21
38.8681661017
 31
0.0
  0
LINE
  5
26F
100
AcDbEntity
  8
0
100
AcDbLine
 62
7
  6
CONTINUOUS
 10
47.3759494651
 20
38.8681661017
 30
0.0
 11
47.8524444651
 21
37.1475201017
 31
0.0
  0
LINE
  5
270
100
AcDbEntity
  8
RACCORDO
100
AcDbLine
 62
250
  6
CONTINUOUS
 10
62.5134724227
 20
86.963895907
 30
0.0
 11
62.4679500981
 21
86.9183735823
 31
0.0
  0
LINE
  5
271
100
AcDbEntity
  8
RACCORDO
100
AcDbLine
 62
250
  6
CONTINUOUS
 10
63.013180423
 20
86.4637562121
 30
0.0
 11
62.9678739456
 21
86.4184497347
 31
0.0
  0
LINE
  5
272
100
AcDbEntity
  8
RACCORDO
100
AcDbLine
 62
250
  6
CONTINUOUS
 10
62.4679500981
 20
42.2788466212
 30
0.0
 11
62.5134724227
 21
42.2333242965
 31
0.0
  0
LINE
  5
273
100
AcDbEntity
  8
0
100
AcDbLine
 62
7
  6
CONTINUOUS
 10
51.0851754651
 20
36.3684301017
 30
0.0
 11
50.4730494651
 21
38.0007101017
 31
0.0
  0
LINE
  5
274
100
AcDbEntity
  8
0
100
AcDbLine
 62
7
  6
CONTINUOUS
 10
50.6083334651
 20
38.8681661017
 30
0.0
 11
51.1246154651
 21
37.4803051017
 31
0.0
  0
LINE
  5
275
100
AcDbEntity
  8
RACCORDO
100
AcDbLine
 62
250
  6
CONTINUOUS
 10
62.9678739456
 20
42.7787704688
 30
0.0
 11
63.013180423
 21
42.7334639914
 31
0.0
  0
LINE
  5
276
100
AcDbEntity
  8
0
100
AcDbLine
 62
7
  6
CONTINUOUS
 10
53.7672084651
 20
38.8681661017
 30
0.0
 11
54.5341894651
 21
36.3684301017
 31
0.0
  0
LINE
  5
277
100
AcDbEntity
  8
0
100
AcDbLine
 62
7
  6
CONTINUOUS
 10
53.9842414651
 20
36.3684301017
 30
0.0
 11
53.8490694651
 21
36.8674661017
 31
0.0
  0
LINE
  5
278
100
AcDbEntity
  8
0
100
AcDbLine
 62
7
  6
CONTINUOUS
 10
53.7447894651
 20
37.2536181017
 30
0.0
 11
53.5050184651
 21
38.1813021017
 31
0.0
  0
LINE
  5
279
100
AcDbEntity
  8
0
100
AcDbLine
 62
7
  6
CONTINUOUS
 10
52.1626714651
 20
38.8681661017
 30
0.0
 11
52.3964244651
 21
36.3684301017
 31
0.0
  0
LINE
  5
27A
100
AcDbEntity
  8
0
100
AcDbLine
 62
7
  6
CONTINUOUS
 10
51.8859724651
 20
36.3684301017
 30
0.0
 11
51.7787684651
 21
37.9939061017
 31
0.0
  0
LINE
  5
27B
100
AcDbEntity
  8
0
100
AcDbLine
 62
7
  6
CONTINUOUS
 10
49.0585704651
 20
36.3684301017
 30
0.0
 11
49.0585704651
 21
38.8683161017
 31
0.0
  0
LINE
  5
27C
100
AcDbEntity
  8
0
100
AcDbLine
 62
7
  6
CONTINUOUS
 10
49.5803634651
 20
38.8683161017
 30
0.0
 11
49.5803634651
 21
36.3684301017
 31
0.0
  0
LWPOLYLINE
  5
27D
100
AcDbEntity
  8
0
100
AcDbPolyline
 62
7
  6
CONTINUOUS
 90
2
 70
0
 43
0.3500000006
 10
50.365967514
 20
116.3486121826
 10
50.365967514
 20
117.8486126404
  0
LWPOLYLINE
  5
27E
100
AcDbEntity
  8
0
100
AcDbPolyline
 62
7
  6
CONTINUOUS
 90
4
 70
0
 43
0.3500000006
 10
20.5445385818
 20
62.2414715881
 10
19.6873961105
 20
62.2414715881
 10
19.2588248749
 20
62.6700405579
 10
19.2588248749
 20
63.3128940125
  0
LWPOLYLINE
  5
27F
100
AcDbEntity
  8
0
100
AcDbPolyline
 62
7
  6
CONTINUOUS
 90
13
 70
0
 43
0.3500000006
 10
51.7231101379
 20
117.2057501221
 10
51.7231101379
 20
118.491466095
 10
51.9373946228
 20
118.9200350647
 10
52.3659681244
 20
119.3486130981
 10
52.5802526093
 20
119.3486130981
 10
53.0088261108
 20
118.9200350647
 10
53.2231105957
 20
118.491466095
 10
53.2231105957
 20
117.2057501221
 10
53.0088261108
 20
116.7771811523
 10
52.5802526093
 20
116.3486121826
 10
52.3659681244
 20
116.3486121826
 10
51.9373946228
 20
116.7771811523
 10
51.7231101379
 20
117.2057501221
  0
LINE
  5
280
100
AcDbEntity
  8
RACCORDO
100
AcDbLine
 62
250
  6
CONTINUOUS
 10
51.7231104651
 20
42.2268960012
 30
0.0
 11
51.7231104651
 21
41.9098401688
 31
0.0
  0
LINE
  5
281
100
AcDbEntity
  8
0
100
AcDbLine
 62
250
  6
CONTINUOUS
 10
51.7231104651
 20
41.9098401688
 30
0.0
 11
51.7231104651
 21
22.2821353406
 31
0.0
  0
LINE
  5
282
100
AcDbEntity
  8
RACCORDO
100
AcDbLine
 62
250
  6
CONTINUOUS
 10
51.7231104651
 20
21.5986101017
 30
0.0
 11
51.7231104651
 21
22.2821353406
 31
0.0
  0
LINE
  5
283
100
AcDbEntity
  8
RACCORDO
100
AcDbLine
 62
250
  6
CONTINUOUS
 10
51.7231104651
 20
86.9703242023
 30
0.0
 11
51.7231104651
 21
107.5986101017
 31
0.0
  0
LINE
  5
284
100
AcDbEntity
  8
0
100
AcDbLine
 62
7
  6
CONTINUOUS
 10
50.4730494651
 20
38.0007101017
 30
0.0
 11
50.3604464651
 21
36.3684301017
 31
0.0
  0
LINE
  5
285
100
AcDbEntity
  8
0
100
AcDbLine
 62
7
  6
CONTINUOUS
 10
49.8612604651
 20
36.3684301017
 30
0.0
 11
50.0869724651
 21
38.8681661017
 31
0.0
  0
LINE
  5
286
100
AcDbEntity
  8
RACCORDO
100
AcDbLine
 62
250
  6
CONTINUOUS
 10
31.7231104651
 20
64.5986101017
 30
0.0
 11
40.4239972228
 21
64.5986100774
 31
0.0
  0
LINE
  5
287
100
AcDbEntity
  8
RACCORDO
100
AcDbLine
 62
250
  6
CONTINUOUS
 10
63.0222237074
 20
64.5986101261
 30
0.0
 11
71.7231104651
 21
64.5986101017
 31
0.0
  0
LINE
  5
288
100
AcDbEntity
  8
0
100
AcDbLine
 62
7
  6
CONTINUOUS
 10
54.6874129672
 20
36.3684303211
 30
0.0
 11
54.6874129672
 21
38.8389606901
 31
0.0
  0
LINE
  5
289
100
AcDbEntity
  8
0
100
AcDbLine
 62
7
  6
CONTINUOUS
 10
55.189804442
 20
38.4423111768
 30
0.0
 11
55.189804442
 21
37.7560850244
 31
0.0
  0
LINE
  5
28A
100
AcDbEntity
  8
0
100
AcDbLine
 62
7
  6
CONTINUOUS
 10
55.2071063087
 20
37.3466887403
 30
0.0
 11
55.2071063087
 21
36.3684303211
 31
0.0
  0
LINE
  5
28B
100
AcDbEntity
  8
0
100
AcDbLine
 62
7
  6
CONTINUOUS
 10
56.0289168623
 20
37.5500559696
 30
0.0
 11
56.0289168623
 21
37.5352847117
 31
0.0
  0
LINE
  5
28C
100
AcDbEntity
  8
0
100
AcDbLine
 62
7
  6
CONTINUOUS
 10
47.8524444651
 20
37.1475201017
 30
0.0
 11
48.3434954651
 21
38.8681661017
 31
0.0
  0
LINE
  5
28D
100
AcDbEntity
  8
0
100
AcDbLine
 62
7
  6
CONTINUOUS
 10
48.8649314651
 20
38.8681661017
 30
0.0
 11
48.0614164651
 21
36.3684301017
 31
0.0
  0
LINE
  5
28E
100
AcDbEntity
  8
0
100
AcDbLine
 62
7
  6
CONTINUOUS
 10
53.5050184651
 20
38.1813021017
 30
0.0
 11
53.2452094651
 21
37.2536181017
 31
0.0
  0
LINE
  5
28F
100
AcDbEntity
  8
0
100
AcDbLine
 62
7
  6
CONTINUOUS
 10
53.1384744651
 20
36.8674661017
 30
0.0
 11
52.9944914651
 21
36.3684301017
 31
0.0
  0
LINE
  5
290
100
AcDbEntity
  8
0
100
AcDbLine
 62
7
  6
CONTINUOUS
 10
52.4783604651
 20
36.3684301017
 30
0.0
 11
53.2624364651
 21
38.8681661017
 31
0.0
  0
LINE
  5
291
100
AcDbEntity
  8
0
100
AcDbLine
 62
7
  6
CONTINUOUS
 10
51.1246154651
 20
37.4803051017
 30
0.0
 11
51.6464084651
 21
38.8681661017
 31
0.0
  0
LINE
  5
292
100
AcDbEntity
  8
0
100
AcDbLine
 62
7
  6
CONTINUOUS
 10
51.7787684651
 20
37.9939061017
 30
0.0
 11
51.1583574651
 21
36.3684301017
 31
0.0
  0
LINE
  5
293
100
AcDbEntity
  8
RACCORDO
100
AcDbLine
 62
250
  6
CONTINUOUS
 10
40.4330405072
 20
42.7334639914
 30
0.0
 11
40.4783469846
 21
42.7787704688
 31
0.0
  0
LINE
  5
294
100
AcDbEntity
  8
RACCORDO
100
AcDbLine
 62
250
  6
CONTINUOUS
 10
40.9327485075
 20
42.2333242965
 30
0.0
 11
40.9782708322
 21
42.2788466212
 31
0.0
  0
LINE
  5
295
100
AcDbEntity
  8
RACCORDO
100
AcDbLine
 62
250
  6
CONTINUOUS
 10
40.4330405072
 20
86.4637562121
 30
0.0
 11
40.4783469846
 21
86.4184497347
 31
0.0
  0
LINE
  5
296
100
AcDbEntity
  8
RACCORDO
100
AcDbLine
 62
250
  6
CONTINUOUS
 10
40.9327485075
 20
86.963895907
 30
0.0
 11
40.9782708322
 21
86.9183735823
 31
0.0
  0
LINE
  5
297
100
AcDbEntity
  8
RACCORDO
100
AcDbLine
 62
250
  6
CONTINUOUS
 10
62.7458408472
 20
22.0267724922
 30
0.0
 11
62.7458408472
 21
21.5986101017
 31
0.0
  0
LINE
  5
298
100
AcDbEntity
  8
RACCORDO
100
AcDbLine
 62
250
  6
CONTINUOUS
 10
62.7458408472
 20
107.1704477113
 30
0.0
 11
62.7458408472
 21
107.5986101017
 31
0.0
  0
LINE
  5
299
100
AcDbEntity
  8
RACCORDO
100
AcDbLine
 62
7
  6
CONTINUOUS
 10
62.9678739456
 20
42.7787704688
 30
0.0
 11
62.9678739456
 21
86.4184497347
 31
0.0
  0
LINE
  5
29A
100
AcDbEntity
  8
RACCORDO
100
AcDbLine
 62
250
  6
CONTINUOUS
 10
62.9731104651
 20
42.047942268
 30
0.0
 11
62.9731104651
 21
22.2833275815
 31
0.0
  0
LINE
  5
29B
100
AcDbEntity
  8
RACCORDO
100
AcDbLine
 62
250
  6
CONTINUOUS
 10
62.9731104651
 20
87.1492779355
 30
0.0
 11
62.9731104651
 21
106.9138926219
 31
0.0
  0
LINE
  5
29C
100
AcDbEntity
  8
RACCORDO
100
AcDbLine
 62
250
  6
CONTINUOUS
 10
67.2463134603
 20
22.0301503479
 30
0.0
 11
67.2463134603
 21
21.5986101017
 31
0.0
  0
LINE
  5
29D
100
AcDbEntity
  8
RACCORDO
100
AcDbLine
 62
250
  6
CONTINUOUS
 10
67.2463134603
 20
107.1670698556
 30
0.0
 11
67.2463134603
 21
107.5986101017
 31
0.0
  0
LINE
  5
29E
100
AcDbEntity
  8
SUPERFICI
100
AcDbLine
 62
7
  6
CONTINUOUS
 10
71.7231104651
 20
25.5986101017
 30
0.0
 11
71.7231104651
 21
103.5986101017
 31
0.0
  0
LINE
  5
29F
100
AcDbEntity
  8
RACCORDO
100
AcDbLine
 62
250
  6
CONTINUOUS
 10
71.0615543736
 20
86.9323865318
 30
0.0
 11
71.0591523753
 21
25.5736201569
 31
0.0
  0
LINE
  5
2A0
100
AcDbEntity
  8
RACCORDO
100
AcDbLine
 62
250
  6
CONTINUOUS
 10
71.0591523753
 20
103.6236000466
 30
0.0
 11
71.0615543736
 21
86.9323865318
 31
0.0
  0
LINE
  5
2A1
100
AcDbEntity
  8
RACCORDO
100
AcDbLine
 62
7
  6
CONTINUOUS
 10
62.4679500981
 20
86.9183735823
 30
0.0
 11
40.9782708322
 21
86.9183735823
 31
0.0
  0
LINE
  5
2A2
100
AcDbEntity
  8
RACCORDO
100
AcDbLine
 62
250
  6
CONTINUOUS
 10
32.1642900471
 20
86.9186101018
 30
0.0
 11
31.7231104651
 21
86.9186101018
 31
0.0
  0
LINE
  5
2A3
100
AcDbEntity
  8
RACCORDO
100
AcDbLine
 62
250
  6
CONTINUOUS
 10
71.2819308832
 20
86.9186101018
 30
0.0
 11
71.7231104651
 21
86.9186101018
 31
0.0
  0
LINE
  5
2A4
100
AcDbEntity
  8
RACCORDO
100
AcDbLine
 62
250
  6
CONTINUOUS
 10
71.0615356297
 20
87.0986101017
 30
0.0
 11
63.041991476
 21
87.0986101017
 31
0.0
  0
LINE
  5
2A5
100
AcDbEntity
  8
RACCORDO
100
AcDbLine
 62
250
  6
CONTINUOUS
 10
32.3846853005
 20
87.0986101017
 30
0.0
 11
40.4042294542
 21
87.0986101017
 31
0.0
  0
LINE
  5
2A6
100
AcDbEntity
  8
RACCORDO
100
AcDbLine
 62
250
  6
CONTINUOUS
 10
71.7231104651
 20
103.5986101017
 30
0.0
 11
71.2799625736
 21
103.5923069327
 31
0.0
  0
LINE
  5
2A7
100
AcDbEntity
  8
RACCORDO
100
AcDbLine
 62
250
  6
CONTINUOUS
 10
32.1668665155
 20
103.2074101017
 30
0.0
 11
31.7231104651
 21
103.2074101017
 31
0.0
  0
LINE
  5
2A8
100
AcDbEntity
  8
RACCORDO
100
AcDbLine
 62
250
  6
CONTINUOUS
 10
71.2793544147
 20
103.2074101017
 30
0.0
 11
71.7231104651
 21
103.2074101017
 31
0.0
  0
LINE
  5
2A9
100
AcDbEntity
  8
RACCORDO
100
AcDbLine
 62
250
  6
CONTINUOUS
 10
31.7231104651
 20
103.5986101017
 30
0.0
 11
32.1662583567
 21
103.5923069327
 31
0.0
  0
LINE
  5
2AA
100
AcDbEntity
  8
SUPERFICI
100
AcDbLine
 62
7
  6
CONTINUOUS
 10
67.7231104651
 20
107.5986101017
 30
0.0
 11
62.7458408472
 21
107.5986101017
 31
0.0
  0
LINE
  5
2AB
100
AcDbEntity
  8
SUPERFICI
100
AcDbLine
 62
7
  6
CONTINUOUS
 10
35.7231104651
 20
107.5986101017
 30
0.0
 11
40.700380083
 21
107.5986101017
 31
0.0
  0
LINE
  5
2AC
100
AcDbEntity
  8
0
100
AcDbLine
 62
7
  6
CONTINUOUS
 10
40.700380083
 20
107.5986101017
 30
0.0
 11
62.7458408472
 21
107.5986101017
 31
0.0
  0
LWPOLYLINE
  5
2AD
100
AcDbEntity
  8
0
100
AcDbPolyline
 62
7
  6
CONTINUOUS
 90
3
 70
0
 43
0.3500000006
 10
50.8659676666
 20
116.9914656372
 10
49.3659672089
 20
116.9914656372
 10
50.0088251953
 20
119.3486130981
  0
LINE
  5
2AE
100
AcDbEntity
  8
SUPERFICI
100
AcDbLine
 62
7
  6
CONTINUOUS
 10
110.1488621816
 20
106.2857296764
 30
0.0
 11
113.2858867266
 21
107.507186481
 31
0.0
  0
LINE
  5
2AF
100
AcDbEntity
  8
RACCORDO
100
AcDbLine
 62
7
  6
CONTINUOUS
 10
114.3294613436
 20
21.5986101017
 30
0.0
 11
117.3684328199
 21
22.0257096897
 31
0.0
  0
LINE
  5
2B0
100
AcDbEntity
  8
RACCORDO
100
AcDbLine
 62
250
  6
CONTINUOUS
 10
116.9840757994
 20
22.0267724922
 30
0.0
 11
113.9375420901
 21
21.5986101017
 31
0.0
  0
LINE
  5
2B1
100
AcDbEntity
  8
RACCORDO
100
AcDbLine
 62
250
  6
CONTINUOUS
 10
116.5500116361
 20
22.0301503479
 30
0.0
 11
113.4794432344
 21
21.5986101017
 31
0.0
  0
LINE
  5
2B2
100
AcDbEntity
  8
RACCORDO
100
AcDbLine
 62
250
  6
CONTINUOUS
 10
117.3684328199
 20
22.0257096897
 30
0.0
 11
117.3666286847
 21
22.025686247
 31
0.0
  0
LINE
  5
2B3
100
AcDbEntity
  8
0
100
AcDbLine
 62
7
  6
CONTINUOUS
 10
113.4081938341
 20
21.5986101017
 30
0.0
 11
114.3294613436
 21
21.5986101017
 31
0.0
  0
LINE
  5
2B4
100
AcDbEntity
  8
RACCORDO
100
AcDbLine
 62
250
  6
CONTINUOUS
 10
117.6239134411
 20
22.2821353406
 30
0.0
 11
117.2240765101
 21
22.2833275815
 31
0.0
  0
LINE
  5
2B5
100
AcDbEntity
  8
RACCORDO
100
AcDbLine
 62
250
  6
CONTINUOUS
 10
117.3684328199
 20
22.0257096897
 30
0.0
 11
116.5500116361
 21
22.0301503479
 31
0.0
  0
LINE
  5
2B6
100
AcDbEntity
  8
RACCORDO
100
AcDbLine
 62
250
  6
CONTINUOUS
 10
116.79762328
 20
22.0276916308
 30
0.0
 11
116.6975496709
 21
22.0285082426
 31
0.0
  0
LINE
  5
2B7
100
AcDbEntity
  8
RACCORDO
100
AcDbLine
 62
250
  6
CONTINUOUS
 10
116.6112993273
 20
22.0294094556
 30
0.0
 11
116.5500116361
 21
22.0301503479
 31
0.0
  0
LWPOLYLINE
  5
2B8
100
AcDbEntity
  8
0
100
AcDbPolyline
 62
7
  6
CONTINUOUS
 90
10
 70
0
 43
0.3500000006
 10
112.0711753235
 20
116.3486121826
 10
112.9283223267
 20
117.2057501221
 10
113.1426068115
 20
118.0628971252
 10
113.1426068115
 20
118.9200350647
 10
112.7140287781
 20
119.3486130981
 10
112.0711753235
 20
119.3486130981
 10
111.6426063538
 20
118.9200350647
 10
111.6426063538
 20
118.0628971252
 10
112.0711753235
 20
117.6343281555
 10
112.9997444458
 20
117.6343281555
  0
LWPOLYLINE
  5
2B9
100
AcDbEntity
  8
0
100
AcDbPolyline
 62
7
  6
CONTINUOUS
 90
10
 70
0
 43
0.3500000006
 10
116.7854611816
 20
119.3486130981
 10
116.1426077271
 20
118.7057505798
 10
115.7140296936
 20
117.8486126404
 10
115.7140296936
 20
116.7771811523
 10
116.1426077271
 20
116.3486121826
 10
116.7854611816
 20
116.3486121826
 10
117.2140301514
 20
116.7771811523
 10
117.2140301514
 20
117.6343281555
 10
116.7854611816
 20
118.0628971252
 10
115.8568920593
 20
118.0628971252
  0
LINE
  5
2BA
100
AcDbEntity
  8
RACCORDO
100
AcDbLine
 62
250
  6
CONTINUOUS
 10
113.0770451929
 20
25.5986101017
 30
0.0
 11
116.2308796626
 21
25.6049132708
 31
0.0
  0
LINE
  5
2BB
100
AcDbEntity
  8
RACCORDO
100
AcDbLine
 62
250
  6
CONTINUOUS
 10
110.1438367073
 20
25.5986406129
 30
0.0
 11
113.076737747
 21
25.5996264189
 31
0.0
  0
LINE
  5
2BC
100
AcDbEntity
  8
SUPERFICI
100
AcDbLine
 62
7
  6
CONTINUOUS
 10
110.1488622068
 20
22.9114905174
 30
0.0
 11
111.9497802668
 21
22.2115316953
 31
0.0
  0
LINE
  5
2BD
100
AcDbEntity
  8
SUPERFICI
100
AcDbLine
 62
7
  6
CONTINUOUS
 10
111.9497802668
 20
22.2115316953
 30
0.0
 11
113.2858867266
 21
21.6900337225
 31
0.0
  0
LINE
  5
2BE
100
AcDbEntity
  8
RACCORDO
100
AcDbLine
 62
250
  6
CONTINUOUS
 10
110.1445610115
 20
25.9254569723
 30
0.0
 11
113.1211784893
 21
25.9928387261
 31
0.0
  0
LINE
  5
2BF
100
AcDbEntity
  8
RACCORDO
100
AcDbLine
 62
250
  6
CONTINUOUS
 10
116.2782938255
 20
25.9898101017
 30
0.0
 11
113.1208054604
 21
25.9898101017
 31
0.0
  0
LINE
  5
2C0
100
AcDbEntity
  8
RACCORDO
100
AcDbLine
 62
250
  6
CONTINUOUS
 10
116.2782938255
 20
25.9898101017
 30
0.0
 11
116.5245706572
 21
25.9599008616
 31
0.0
  0
LINE
  5
2C1
100
AcDbEntity
  8
0
100
AcDbLine
 62
7
  6
CONTINUOUS
 10
119.2032166904
 20
36.3684301017
 30
0.0
 11
119.0917600216
 21
36.3684301017
 31
0.0
  0
LINE
  5
2C2
100
AcDbEntity
  8
0
100
AcDbLine
 62
7
  6
CONTINUOUS
 10
119.4114774395
 20
38.8681661017
 30
0.0
 11
119.3970163859
 21
38.8681661017
 31
0.0
  0
LINE
  5
2C3
100
AcDbEntity
  8
0
100
AcDbLine
 62
7
  6
CONTINUOUS
 10
119.3846589662
 20
38.8681661017
 30
0.0
 11
119.385714788
 21
38.8681661017
 31
0.0
  0
LINE
  5
2C4
100
AcDbEntity
  8
0
100
AcDbLine
 62
7
  6
CONTINUOUS
 10
119.255072078
 20
38.8681661017
 30
0.0
 11
119.3754496898
 21
38.8681661017
 31
0.0
  0
LINE
  5
2C5
100
AcDbEntity
  8
SUPERFICI
100
AcDbLine
 62
7
  6
CONTINUOUS
 10
119.3716253483
 20
38.8974953867
 30
0.0
 11
119.3307016123
 21
38.8974953867
 31
0.0
  0
LINE
  5
2C6
100
AcDbEntity
  8
RACCORDO
100
AcDbLine
 62
250
  6
CONTINUOUS
 10
110.161687793
 20
42.1029377257
 30
0.0
 11
114.5812360538
 21
42.279002558
 31
0.0
  0
LINE
  5
2C7
100
AcDbEntity
  8
RACCORDO
100
AcDbLine
 62
250
  6
CONTINUOUS
 10
110.0530670949
 20
42.1028819124
 30
0.0
 11
110.161687793
 21
42.1029377257
 31
0.0
  0
LINE
  5
2C8
100
AcDbEntity
  8
RACCORDO
100
AcDbLine
 62
250
  6
CONTINUOUS
 10
117.958894826
 20
42.0986101017
 30
0.0
 11
119.1293796011
 21
42.0986101017
 31
0.0
  0
LINE
  5
2C9
100
AcDbEntity
  8
RACCORDO
100
AcDbLine
 62
250
  6
CONTINUOUS
 10
117.7203698359
 20
42.2786101017
 30
0.0
 11
114.5812139964
 21
42.2786101017
 31
0.0
  0
LINE
  5
2CA
100
AcDbEntity
  8
RACCORDO
100
AcDbLine
 62
7
  6
CONTINUOUS
 10
119.2293161209
 20
42.2268960012
 30
0.0
 11
119.1288946889
 21
42.2286488638
 31
0.0
  0
LINE
  5
2CB
100
AcDbEntity
  8
RACCORDO
100
AcDbLine
 62
250
  6
CONTINUOUS
 10
119.1546201176
 20
41.9163159628
 30
0.0
 11
119.5235925654
 21
41.9098401688
 31
0.0
  0
LINE
  5
2CC
100
AcDbEntity
  8
RACCORDO
100
AcDbLine
 62
250
  6
CONTINUOUS
 10
119.1430029035
 20
42.7173176903
 30
0.0
 11
119.1421921825
 21
42.7173406808
 31
0.0
  0
LINE
  5
2CD
100
AcDbEntity
  8
RACCORDO
100
AcDbLine
 62
250
  6
CONTINUOUS
 10
117.7203698381
 20
42.2786101402
 30
0.0
 11
117.9682012619
 21
42.2648336332
 31
0.0
  0
LINE
  5
2CE
100
AcDbEntity
  8
RACCORDO
100
AcDbLine
 62
250
  6
CONTINUOUS
 10
117.7110730385
 20
42.1125439536
 30
0.0
 11
117.958894826
 21
42.0986101017
 31
0.0
  0
LWPOLYLINE
  5
2CF
100
AcDbEntity
  8
0
100
AcDbPolyline
 62
7
  6
CONTINUOUS
 90
3
 70
0
 43
0.3500000006
 10
114.7140293884
 20
116.6343278503
 10
114.6426072693
 20
116.4200343018
 10
114.4997449036
 20
116.1343276978
  0
LINE
  5
2D0
100
AcDbEntity
  8
RACCORDO
100
AcDbLine
 62
250
  6
CONTINUOUS
 10
110.1449044705
 20
103.271764645
 30
0.0
 11
110.1435742792
 21
103.5985785368
 31
0.0
  0
LINE
  5
2D1
100
AcDbEntity
  8
RACCORDO
100
AcDbLine
 62
7
  6
CONTINUOUS
 10
110.0530670949
 20
23.0524378703
 30
0.0
 11
110.0530670949
 21
106.1450683325
 31
0.0
  0
LINE
  5
2D2
100
AcDbEntity
  8
RACCORDO
100
AcDbLine
 62
250
  6
CONTINUOUS
 10
110.1438367073
 20
25.5986406129
 30
0.0
 11
110.1445610115
 21
25.9254569723
 31
0.0
  0
LWPOLYLINE
  5
2D3
100
AcDbEntity
  8
RACCORDO
100
AcDbPolyline
 62
7
  6
CONTINUOUS
 90
14
 70
0
 10
119.1356404117
 20
42.0267503269
 10
119.1363586004
 20
42.0238293817
 10
119.1370959007
 20
42.0204963104
 10
119.1373878034
 20
42.0189847387
 10
119.1373239513
 20
42.0193633851
 10
119.1370758271
 20
42.02102143
 10
119.13669843
 20
42.0238421323
 10
119.1362052135
 20
42.0279664015
 10
119.135646294
 20
42.0331995771
 10
119.135046539
 20
42.0394950293
 10
119.134414129
 20
42.0469602706
 10
119.1337600226
 20
42.0556866063
 10
119.1330994532
 20
42.0657029655
 10
119.1324426676
 20
42.0770918578
  0
LWPOLYLINE
  5
2D4
100
AcDbEntity
  8
RACCORDO
100
AcDbPolyline
 62
7
  6
CONTINUOUS
 90
4
 70
0
 10
119.1324426676
 20
42.0770918578
 10
119.1317128819
 20
42.0918474221
 10
119.1310991815
 20
42.1065745542
 10
119.1305446987
 20
42.1224761804
  0
LWPOLYLINE
  5
2D5
100
AcDbEntity
  8
RACCORDO
100
AcDbPolyline
 62
7
  6
CONTINUOUS
 90
3
 70
0
 10
119.1304753905
 20
87.0725275537
 10
119.1310838334
 20
87.0902431219
 10
119.1316967761
 20
87.1050166907
  0
LWPOLYLINE
  5
2D6
100
AcDbEntity
  8
RACCORDO
100
AcDbPolyline
 62
7
  6
CONTINUOUS
 90
7
 70
0
 10
119.1316967761
 20
87.1050166907
 10
119.1323761658
 20
87.1188844975
 10
119.1330163506
 20
87.130164643
 10
119.1336744199
 20
87.1403165606
 10
119.1343425203
 20
87.1493681925
 10
119.1350079657
 20
87.1573063794
 10
119.1356448669
 20
87.1640151761
  0
LWPOLYLINE
  5
2D7
100
AcDbEntity
  8
RACCORDO
100
AcDbPolyline
 62
7
  6
CONTINUOUS
 90
4
 70
0
 10
119.1353952568
 20
87.1614740344
 10
119.136089948
 20
87.1682230936
 10
119.1367019012
 20
87.1734052749
 10
119.1367357385
 20
87.1736527995
  0
LINE
  5
2D8
100
AcDbEntity
  8
RACCORDO
100
AcDbLine
 62
7
  6
CONTINUOUS
 10
119.1367715655
 20
87.1739482252
 30
0.0
 11
119.1368372487
 21
87.1744510221
 31
0.0
  0
LINE
  5
2D9
100
AcDbEntity
  8
RACCORDO
100
AcDbLine
 62
250
  6
CONTINUOUS
 10
110.0530670949
 20
64.5986101017
 30
0.0
 11
119.6607124288
 21
64.5986101017
 31
0.0
  0
LINE
  5
2DA
100
AcDbEntity
  8
RACCORDO
100
AcDbLine
 62
250
  6
CONTINUOUS
 10
117.9682012641
 20
86.9323865317
 30
0.0
 11
117.958894826
 21
87.0986101017
 31
0.0
  0
LINE
  5
2DB
100
AcDbEntity
  8
RACCORDO
100
AcDbLine
 62
7
  6
CONTINUOUS
 10
119.2464495096
 20
84.4154771198
 30
0.0
 11
119.1416948891
 21
86.5046472517
 31
0.0
  0
LWPOLYLINE
  5
2DC
100
AcDbEntity
  8
RACCORDO
100
AcDbPolyline
 62
7
  6
CONTINUOUS
 90
11
 70
0
 10
119.1416948891
 20
86.5046472517
 10
119.138706494
 20
86.5656789712
 10
119.136112754
 20
86.6257495777
 10
119.1339118234
 20
86.6844589388
 10
119.1321002169
 20
86.741506937
 10
119.1306904801
 20
86.7965799653
 10
119.1296784203
 20
86.8493286503
 10
119.1290597755
 20
86.8994366951
 10
119.128830321
 20
86.9466016256
 10
119.1289713402
 20
86.990564784
 10
119.1294778309
 20
87.0310506026
  0
LINE
  5
2DD
100
AcDbEntity
  8
RACCORDO
100
AcDbLine
 62
7
  6
CONTINUOUS
 10
119.341428195
 20
82.1939713815
 30
0.0
 11
119.2462975486
 21
84.4190304354
 31
0.0
  0
LINE
  5
2DE
100
AcDbEntity
  8
RACCORDO
100
AcDbLine
 62
250
  6
CONTINUOUS
 10
119.1304759982
 20
87.0725472867
 30
0.0
 11
119.1293796014
 21
87.0986101104
 31
0.0
  0
LINE
  5
2DF
100
AcDbEntity
  8
RACCORDO
100
AcDbLine
 62
7
  6
CONTINUOUS
 10
119.4235508197
 20
79.8986982926
 30
0.0
 11
119.3411700473
 21
82.2006200508
 31
0.0
  0
LWPOLYLINE
  5
2E0
100
AcDbEntity
  8
RACCORDO
100
AcDbPolyline
 62
7
  6
CONTINUOUS
 90
3
 70
0
 10
119.1305446987
 20
42.1224761804
 10
119.1301779538
 20
42.1349093166
 10
119.1293732628
 20
42.1722541771
  0
LWPOLYLINE
  5
2E1
100
AcDbEntity
  8
RACCORDO
100
AcDbPolyline
 62
7
  6
CONTINUOUS
 90
3
 70
0
 10
119.5515205683
 20
75.0846388449
 10
119.4932007558
 20
77.5333082327
 10
119.4232968673
 20
79.9053445096
  0
LINE
  5
2E2
100
AcDbEntity
  8
RACCORDO
100
AcDbLine
 62
7
  6
CONTINUOUS
 10
119.5984523099
 20
72.5527258768
 30
0.0
 11
119.5515205683
 21
75.0846388449
 31
0.0
  0
LINE
  5
2E3
100
AcDbEntity
  8
RACCORDO
100
AcDbLine
 62
7
  6
CONTINUOUS
 10
119.6330233734
 20
69.9561618424
 30
0.0
 11
119.5983068414
 21
72.5594051975
 31
0.0
  0
LWPOLYLINE
  5
2E4
100
AcDbEntity
  8
RACCORDO
100
AcDbPolyline
 62
7
  6
CONTINUOUS
 90
3
 70
0
 10
119.1293732628
 20
42.1722541771
 10
119.1289228123
 20
42.2133177831
 10
119.128841202
 20
42.2578065509
  0
LINE
  5
2E5
100
AcDbEntity
  8
RACCORDO
100
AcDbLine
 62
7
  6
CONTINUOUS
 10
119.6544425732
 20
67.2751009748
 30
0.0
 11
119.6330115703
 21
69.9576376757
 31
0.0
  0
LINE
  5
2E6
100
AcDbEntity
  8
RACCORDO
100
AcDbLine
 62
7
  6
CONTINUOUS
 10
119.6615271407
 20
64.5986100943
 30
0.0
 11
119.6544312789
 21
67.2793678852
 31
0.0
  0
LINE
  5
2E7
100
AcDbEntity
  8
RACCORDO
100
AcDbLine
 62
7
  6
CONTINUOUS
 10
119.6544617716
 20
61.9245254249
 30
0.0
 11
119.6615271407
 21
64.5986101263
 31
0.0
  0
LINE
  5
2E8
100
AcDbEntity
  8
RACCORDO
100
AcDbLine
 62
7
  6
CONTINUOUS
 10
119.128830323
 20
42.2506334304
 30
0.0
 11
119.1291297821
 21
42.305445874
 31
0.0
  0
LINE
  5
2E9
100
AcDbEntity
  8
RACCORDO
100
AcDbLine
 62
7
  6
CONTINUOUS
 10
119.6330233734
 20
59.2410583611
 30
0.0
 11
119.6544617716
 21
61.9245254249
 31
0.0
  0
LINE
  5
2EA
100
AcDbEntity
  8
RACCORDO
100
AcDbLine
 62
7
  6
CONTINUOUS
 10
119.1290598909
 20
42.2978007015
 30
0.0
 11
119.1298089471
 21
42.3559662178
 31
0.0
  0
LWPOLYLINE
  5
2EB
100
AcDbEntity
  8
RACCORDO
100
AcDbPolyline
 62
7
  6
CONTINUOUS
 90
3
 70
0
 10
119.5515205683
 20
54.1125813586
 10
119.5984523099
 20
56.6444943267
 10
119.6330926568
 20
59.246262104
  0
LINE
  5
2EC
100
AcDbEntity
  8
RACCORDO
100
AcDbLine
 62
7
  6
CONTINUOUS
 10
119.1296787544
 20
42.347910002
 30
0.0
 11
119.1308845772
 21
42.4090539991
 31
0.0
  0
LINE
  5
2ED
100
AcDbEntity
  8
RACCORDO
100
AcDbLine
 62
7
  6
CONTINUOUS
 10
119.4932007558
 20
51.6639119708
 30
0.0
 11
119.551575103
 21
54.1192499746
 31
0.0
  0
LINE
  5
2EE
100
AcDbEntity
  8
RACCORDO
100
AcDbLine
 62
7
  6
CONTINUOUS
 10
119.1294778309
 20
87.0310506026
 30
0.0
 11
119.1304759982
 21
87.0725472867
 31
0.0
  0
LINE
  5
2EF
100
AcDbEntity
  8
RACCORDO
100
AcDbLine
 62
7
  6
CONTINUOUS
 10
119.1306908328
 20
42.4006595104
 30
0.0
 11
119.1323541531
 21
42.4643963698
 31
0.0
  0
LINE
  5
2F0
100
AcDbEntity
  8
RACCORDO
100
AcDbLine
 62
7
  6
CONTINUOUS
 10
119.1321008284
 20
42.4557323894
 30
0.0
 11
119.1342232731
 21
42.5216476863
 31
0.0
  0
LWPOLYLINE
  5
2F1
100
AcDbEntity
  8
RACCORDO
100
AcDbPolyline
 62
7
  6
CONTINUOUS
 90
3
 70
0
 10
119.341428195
 20
47.003248822
 10
119.4235508197
 20
49.2985219109
 10
119.4933536145
 20
51.670571173
  0
LINE
  5
2F2
100
AcDbEntity
  8
RACCORDO
100
AcDbLine
 62
7
  6
CONTINUOUS
 10
119.1339125214
 20
42.5127790508
 30
0.0
 11
119.1364830309
 21
42.5804866596
 31
0.0
  0
LINE
  5
2F3
100
AcDbEntity
  8
RACCORDO
100
AcDbLine
 62
250
  6
CONTINUOUS
 10
119.1304760832
 20
42.1246701488
 30
0.0
 11
119.1293796011
 21
42.0986101017
 31
0.0
  0
LINE
  5
2F4
100
AcDbEntity
  8
RACCORDO
100
AcDbLine
 62
7
  6
CONTINUOUS
 10
119.2464495096
 20
44.7817430837
 30
0.0
 11
119.341428195
 21
47.003248822
 31
0.0
  0
LINE
  5
2F5
100
AcDbEntity
  8
RACCORDO
100
AcDbLine
 62
7
  6
CONTINUOUS
 10
119.1361130982
 20
42.5714864239
 30
0.0
 11
119.1391310441
 21
42.6406093614
 31
0.0
  0
LINE
  5
2F6
100
AcDbEntity
  8
RACCORDO
100
AcDbLine
 62
7
  6
CONTINUOUS
 10
119.138706839
 20
42.63155433
 30
0.0
 11
119.2466052237
 21
44.7848505812
 31
0.0
  0
LINE
  5
2F7
100
AcDbEntity
  8
RACCORDO
100
AcDbLine
 62
250
  6
CONTINUOUS
 10
117.958894826
 20
42.0986101017
 30
0.0
 11
117.9682012641
 21
42.2648336717
 31
0.0
  0
LINE
  5
2F8
100
AcDbEntity
  8
0
100
AcDbLine
 62
7
  6
CONTINUOUS
 10
119.3518543628
 20
38.8681661017
 30
0.0
 11
119.3514844459
 21
38.8621739473
 31
0.0
  0
LINE
  5
2F9
100
AcDbEntity
  8
0
100
AcDbLine
 62
7
  6
CONTINUOUS
 10
119.2260867129
 20
37.1483954309
 30
0.0
 11
119.229667476
 21
37.2015348883
 31
0.0
  0
LINE
  5
2FA
100
AcDbEntity
  8
0
100
AcDbLine
 62
7
  6
CONTINUOUS
 10
119.3886373219
 20
38.8616406578
 30
0.0
 11
119.3891001455
 21
38.8683161023
 31
0.0
  0
LINE
  5
2FB
100
AcDbEntity
  8
0
100
AcDbLine
 62
7
  6
CONTINUOUS
 10
119.3970163806
 20
38.8683161021
 30
0.0
 11
119.3965153813
 21
38.8610901519
 31
0.0
  0
LINE
  5
2FC
100
AcDbEntity
  8
0
100
AcDbLine
 62
7
  6
CONTINUOUS
 10
119.4110898952
 20
38.8625911407
 30
0.0
 11
119.4114774395
 21
38.8681661017
 31
0.0
  0
LINE
  5
2FD
100
AcDbEntity
  8
0
100
AcDbLine
 62
7
  6
CONTINUOUS
 10
119.4025920177
 20
38.8616816637
 30
0.0
 11
119.4030476474
 21
38.8681661017
 31
0.0
  0
LINE
  5
2FE
100
AcDbEntity
  8
0
100
AcDbLine
 62
7
  6
CONTINUOUS
 10
119.2832838999
 20
37.1442470174
 30
0.0
 11
119.3321649718
 21
37.8193216067
 31
0.0
  0
LINE
  5
2FF
100
AcDbEntity
  8
0
100
AcDbLine
 62
7
  6
CONTINUOUS
 10
119.385714788
 20
38.8681661017
 30
0.0
 11
119.3852027331
 21
38.861350903
 31
0.0
  0
LINE
  5
300
100
AcDbEntity
  8
0
100
AcDbLine
 62
7
  6
CONTINUOUS
 10
119.2637058749
 20
37.145625714
 30
0.0
 11
119.2679642917
 21
37.2015474666
 31
0.0
  0
LINE
  5
301
100
AcDbEntity
  8
0
100
AcDbLine
 62
7
  6
CONTINUOUS
 10
119.2758805194
 20
37.2015473944
 30
0.0
 11
119.2715761335
 21
37.1450228764
 31
0.0
  0
LINE
  5
302
100
AcDbEntity
  8
0
100
AcDbLine
 62
7
  6
CONTINUOUS
 10
119.275906069
 20
37.1446533579
 30
0.0
 11
119.2802932158
 21
37.201502816
 31
0.0
  0
LINE
  5
303
100
AcDbEntity
  8
0
100
AcDbLine
 62
7
  6
CONTINUOUS
 10
119.2540188396
 20
37.2015465688
 30
0.0
 11
119.2494591073
 21
37.1466440457
 31
0.0
  0
LINE
  5
304
100
AcDbEntity
  8
RACCORDO
100
AcDbLine
 62
250
  6
CONTINUOUS
 10
117.7110730385
 20
87.0846762498
 30
0.0
 11
117.958894826
 21
87.0986101017
 31
0.0
  0
LINE
  5
305
100
AcDbEntity
  8
RACCORDO
100
AcDbLine
 62
250
  6
CONTINUOUS
 10
117.7203698359
 20
86.9186101018
 30
0.0
 11
117.9682012641
 21
86.9323865316
 31
0.0
  0
LINE
  5
306
100
AcDbEntity
  8
RACCORDO
100
AcDbLine
 62
250
  6
CONTINUOUS
 10
119.1430028985
 20
86.479902602
 30
0.0
 11
119.1421921779
 21
86.4798796086
 31
0.0
  0
LINE
  5
307
100
AcDbEntity
  8
RACCORDO
100
AcDbLine
 62
7
  6
CONTINUOUS
 10
119.2293161209
 20
86.9703242023
 30
0.0
 11
119.1289007929
 21
86.9685714462
 31
0.0
  0
LINE
  5
308
100
AcDbEntity
  8
RACCORDO
100
AcDbLine
 62
250
  6
CONTINUOUS
 10
119.5235925654
 20
87.2873800347
 30
0.0
 11
119.1546201176
 21
87.2809042407
 31
0.0
  0
LINE
  5
309
100
AcDbEntity
  8
RACCORDO
100
AcDbLine
 62
250
  6
CONTINUOUS
 10
117.7203698359
 20
86.9186101018
 30
0.0
 11
114.5812139964
 21
86.9186101018
 31
0.0
  0
LINE
  5
30A
100
AcDbEntity
  8
RACCORDO
100
AcDbLine
 62
250
  6
CONTINUOUS
 10
117.958894826
 20
87.0986101017
 30
0.0
 11
119.1293796011
 21
87.0986101017
 31
0.0
  0
LINE
  5
30B
100
AcDbEntity
  8
RACCORDO
100
AcDbLine
 62
250
  6
CONTINUOUS
 10
110.0530670949
 20
87.0943382911
 30
0.0
 11
110.161687793
 21
87.0942824778
 31
0.0
  0
LINE
  5
30C
100
AcDbEntity
  8
RACCORDO
100
AcDbLine
 62
250
  6
CONTINUOUS
 10
110.161687793
 20
87.0942824778
 30
0.0
 11
114.5812360538
 21
86.9182176455
 31
0.0
  0
LWPOLYLINE
  5
30D
100
AcDbEntity
  8
0
100
AcDbPolyline
 62
7
  6
CONTINUOUS
 90
10
 70
0
 43
0.3500000006
 10
114.6426072693
 20
116.8486123352
 10
114.7140293884
 20
116.7057499695
 10
114.7140293884
 20
116.6343278503
 10
114.5711760864
 20
116.4914654846
 10
114.4997449036
 20
116.4914654846
 10
114.4283227844
 20
116.5628966675
 10
114.4283227844
 20
116.6343278503
 10
114.4997449036
 20
116.7771811523
 10
114.5711760864
 20
116.8486123352
 10
114.6426072693
 20
116.8486123352
  0
LINE
  5
30E
100
AcDbEntity
  8
RACCORDO
100
AcDbLine
 62
250
  6
CONTINUOUS
 10
116.2782938256
 20
103.2074101006
 30
0.0
 11
116.524570657
 21
103.237319343
 31
0.0
  0
LINE
  5
30F
100
AcDbEntity
  8
RACCORDO
100
AcDbLine
 62
250
  6
CONTINUOUS
 10
117.3485338527
 20
107.1714558599
 30
0.0
 11
117.3587363733
 21
107.1715634157
 31
0.0
  0
LINE
  5
310
100
AcDbEntity
  8
RACCORDO
100
AcDbLine
 62
250
  6
CONTINUOUS
 10
116.5500116361
 20
107.1670698556
 30
0.0
 11
116.737823417
 21
107.169062539
 31
0.0
  0
LINE
  5
311
100
AcDbEntity
  8
RACCORDO
100
AcDbLine
 62
250
  6
CONTINUOUS
 10
116.5500116361
 20
107.1670698556
 30
0.0
 11
116.9693303982
 21
107.1704052838
 31
0.0
  0
LINE
  5
312
100
AcDbEntity
  8
RACCORDO
100
AcDbLine
 62
250
  6
CONTINUOUS
 10
117.2240765101
 20
106.9138926219
 30
0.0
 11
117.6239134411
 21
106.9150848629
 31
0.0
  0
LINE
  5
313
100
AcDbEntity
  8
RACCORDO
100
AcDbLine
 62
250
  6
CONTINUOUS
 10
116.9693303982
 20
107.1704052838
 30
0.0
 11
117.3684328199
 21
107.1715105138
 31
0.0
  0
LINE
  5
314
100
AcDbEntity
  8
RACCORDO
100
AcDbLine
 62
250
  6
CONTINUOUS
 10
116.2782938255
 20
103.2074101017
 30
0.0
 11
113.1208054604
 21
103.2074101017
 31
0.0
  0
LINE
  5
315
100
AcDbEntity
  8
SUPERFICI
100
AcDbLine
 62
7
  6
CONTINUOUS
 10
113.4081938341
 20
107.5986101017
 30
0.0
 11
113.9375420901
 21
107.5986101017
 31
0.0
  0
LINE
  5
316
100
AcDbEntity
  8
0
100
AcDbLine
 62
7
  6
CONTINUOUS
 10
113.9375420901
 20
107.5986101017
 30
0.0
 11
114.3294613436
 21
107.5986101017
 31
0.0
  0
LINE
  5
317
100
AcDbEntity
  8
RACCORDO
100
AcDbLine
 62
250
  6
CONTINUOUS
 10
110.1438367073
 20
103.5985795906
 30
0.0
 11
113.076737747
 21
103.5975937846
 31
0.0
  0
LINE
  5
318
100
AcDbEntity
  8
RACCORDO
100
AcDbLine
 62
250
  6
CONTINUOUS
 10
113.0770451929
 20
103.5986101017
 30
0.0
 11
116.2308796626
 21
103.5923069327
 31
0.0
  0
LINE
  5
319
100
AcDbEntity
  8
RACCORDO
100
AcDbLine
 62
250
  6
CONTINUOUS
 10
110.1445610115
 20
103.2717632312
 30
0.0
 11
113.1211784893
 21
103.2043814774
 31
0.0
  0
LINE
  5
31A
100
AcDbEntity
  8
RACCORDO
100
AcDbLine
 62
250
  6
CONTINUOUS
 10
117.3653722745
 20
107.1716023547
 30
0.0
 11
117.3684328199
 21
107.1715105138
 31
0.0
  0
LINE
  5
31B
100
AcDbEntity
  8
RACCORDO
100
AcDbLine
 62
250
  6
CONTINUOUS
 10
116.5500116361
 20
107.1670698556
 30
0.0
 11
113.4794432344
 21
107.5986101017
 31
0.0
  0
LINE
  5
31C
100
AcDbEntity
  8
RACCORDO
100
AcDbLine
 62
250
  6
CONTINUOUS
 10
116.9840757994
 20
107.1704477113
 30
0.0
 11
113.9375420901
 21
107.5986101017
 31
0.0
  0
LINE
  5
31D
100
AcDbEntity
  8
RACCORDO
100
AcDbLine
 62
7
  6
CONTINUOUS
 10
114.3294613436
 20
107.5986101017
 30
0.0
 11
117.3684328199
 21
107.1715105138
 31
0.0
  0
ARC
  5
31E
100
AcDbEntity
  8
RACCORDO
100
AcDbCircle
 62
250
  6
CONTINUOUS
 10
35.7622381992
 20
-185.6087318849
 30
0.0
 40
207.8960167634
100
AcDbArc
 50
89.8888880661
 51
90.0166287571
  0
ARC
  5
31F
100
AcDbEntity
  8
RACCORDO
100
AcDbCircle
 62
250
  6
CONTINUOUS
 10
35.8357402528
 20
-178.9833438431
 30
0.0
 40
201.0138240636
100
AcDbArc
 50
89.8961998953
 51
90.0270041553
  0
ARC
  5
320
100
AcDbEntity
  8
RACCORDO
100
AcDbCircle
 62
250
  6
CONTINUOUS
 10
-77.6460117453
 20
25.9692781209
 30
0.0
 40
109.8128801802
100
AcDbArc
 50
359.8098893148
 51
0.0107127311
  0
ARC
  5
321
100
AcDbEntity
  8
0
100
AcDbCircle
 62
7
  6
CONTINUOUS
 10
35.7230559868
 20
25.5985590243
 30
0.0
 40
3.9999437151
100
AcDbArc
 50
179.9992683601
 51
270.0007803541
  0
ARC
  5
322
100
AcDbEntity
  8
RACCORDO
100
AcDbCircle
 62
250
  6
CONTINUOUS
 10
35.7357450222
 20
25.6004102647
 30
0.0
 40
3.5697628498
100
AcDbArc
 50
179.9277198279
 51
270.0843309789
  0
ARC
  5
323
100
AcDbEntity
  8
RACCORDO
100
AcDbCircle
 62
250
  6
CONTINUOUS
 10
40.9128209508
 20
42.7184330733
 30
0.0
 40
0.8017766687
100
AcDbArc
 50
180.0780636559
 51
269.9255938078
  0
ARC
  5
324
100
AcDbEntity
  8
RACCORDO
100
AcDbCircle
 62
250
  6
CONTINUOUS
 10
40.9337109176
 20
42.7334201673
 30
0.0
 40
0.5000967968
100
AcDbArc
 50
180.0961517656
 51
269.8897372005
  0
ARC
  5
325
100
AcDbEntity
  8
RACCORDO
100
AcDbCircle
 62
250
  6
CONTINUOUS
 10
35.7622358865
 20
314.8021625347
 30
0.0
 40
207.8922272212
100
AcDbArc
 50
269.9833732455
 51
270.1111145964
  0
ARC
  5
326
100
AcDbEntity
  8
RACCORDO
100
AcDbCircle
 62
250
  6
CONTINUOUS
 10
35.8357402395
 20
308.1805838785
 30
0.0
 40
201.0138438954
100
AcDbArc
 50
269.9729958511
 51
270.1038000983
  0
ARC
  5
327
100
AcDbEntity
  8
RACCORDO
100
AcDbCircle
 62
250
  6
CONTINUOUS
 10
-77.6460125945
 20
103.2279420813
 30
0.0
 40
109.8128810295
100
AcDbArc
 50
359.9892872697
 51
0.1901106844
  0
ARC
  5
328
100
AcDbEntity
  8
SUPERFICI
100
AcDbCircle
 62
7
  6
CONTINUOUS
 10
35.7230559868
 20
103.5986611791
 30
0.0
 40
3.9999437151
100
AcDbArc
 50
89.9992196462
 51
180.0007316398
  0
ARC
  5
329
100
AcDbEntity
  8
RACCORDO
100
AcDbCircle
 62
250
  6
CONTINUOUS
 10
35.7357441942
 20
103.5968092151
 30
0.0
 40
3.5697628362
100
AcDbArc
 50
89.9156557496
 51
180.0722685706
  0
ARC
  5
32A
100
AcDbEntity
  8
RACCORDO
100
AcDbCircle
 62
250
  6
CONTINUOUS
 10
40.9128209385
 20
86.478787136
 30
0.0
 40
0.8017766564
100
AcDbArc
 50
90.0742861941
 51
179.921936761
  0
ARC
  5
32B
100
AcDbEntity
  8
RACCORDO
100
AcDbCircle
 62
250
  6
CONTINUOUS
 10
40.9337096665
 20
86.4638042004
 30
0.0
 40
0.5000926302
100
AcDbArc
 50
90.110120374
 51
179.9038486358
  0
ARC
  5
32C
100
AcDbEntity
  8
RACCORDO
100
AcDbCircle
 62
250
  6
CONTINUOUS
 10
67.6839850438
 20
-185.6049423156
 30
0.0
 40
207.8922272056
100
AcDbArc
 50
89.9833732455
 51
90.1111145964
  0
ARC
  5
32D
100
AcDbEntity
  8
RACCORDO
100
AcDbCircle
 62
250
  6
CONTINUOUS
 10
67.6104806907
 20
-178.9833636629
 30
0.0
 40
201.0138438834
100
AcDbArc
 50
89.9729958511
 51
90.1038000983
  0
ARC
  5
32E
100
AcDbEntity
  8
RACCORDO
100
AcDbCircle
 62
250
  6
CONTINUOUS
 10
181.0922335233
 20
25.9692781222
 30
0.0
 40
109.812881028
100
AcDbArc
 50
179.9892872697
 51
180.1901106844
  0
ARC
  5
32F
100
AcDbEntity
  8
SUPERFICI
100
AcDbCircle
 62
7
  6
CONTINUOUS
 10
67.7231648097
 20
25.5985588734
 30
0.0
 40
3.9999437051
100
AcDbArc
 50
269.9992215616
 51
0.0007338021
  0
ARC
  5
330
100
AcDbEntity
  8
RACCORDO
100
AcDbCircle
 62
250
  6
CONTINUOUS
 10
67.710476046
 20
25.6004112629
 30
0.0
 40
3.5697633858
100
AcDbArc
 50
269.9156668295
 51
0.0722641521
  0
ARC
  5
331
100
AcDbEntity
  8
RACCORDO
100
AcDbCircle
 62
250
  6
CONTINUOUS
 10
62.533399279
 20
42.7184334052
 30
0.0
 40
0.8017773696
100
AcDbArc
 50
270.0743138573
 51
359.921912694
  0
ARC
  5
332
100
AcDbEntity
  8
RACCORDO
100
AcDbCircle
 62
250
  6
CONTINUOUS
 10
62.512510976
 20
42.7334169609
 30
0.0
 40
0.5000935885
100
AcDbArc
 50
270.1101531329
 51
359.9038229838
  0
ARC
  5
333
100
AcDbEntity
  8
RACCORDO
100
AcDbCircle
 62
250
  6
CONTINUOUS
 10
67.683982731
 20
314.805952094
 30
0.0
 40
207.8960167689
100
AcDbArc
 50
269.8888880661
 51
270.0166287571
  0
ARC
  5
334
100
AcDbEntity
  8
RACCORDO
100
AcDbCircle
 62
250
  6
CONTINUOUS
 10
67.6104806774
 20
308.1805640316
 30
0.0
 40
201.0138240486
100
AcDbArc
 50
269.8961998952
 51
270.0270041553
  0
ARC
  5
335
100
AcDbEntity
  8
RACCORDO
100
AcDbCircle
 62
250
  6
CONTINUOUS
 10
181.0922326893
 20
103.2279420826
 30
0.0
 40
109.812880194
100
AcDbArc
 50
179.8098893148
 51
180.0107127311
  0
ARC
  5
336
100
AcDbEntity
  8
SUPERFICI
100
AcDbCircle
 62
7
  6
CONTINUOUS
 10
67.7231649435
 20
103.5986611794
 30
0.0
 40
3.9999437153
100
AcDbArc
 50
359.9992683567
 51
90.0007803556
  0
ARC
  5
337
100
AcDbEntity
  8
RACCORDO
100
AcDbCircle
 62
250
  6
CONTINUOUS
 10
67.7104759083
 20
103.5968099389
 30
0.0
 40
3.5697628495
100
AcDbArc
 50
359.9277198284
 51
90.0843309837
  0
ARC
  5
338
100
AcDbEntity
  8
RACCORDO
100
AcDbCircle
 62
250
  6
CONTINUOUS
 10
62.5333999794
 20
86.4787871302
 30
0.0
 40
0.8017766687
100
AcDbArc
 50
0.0780636559
 51
89.9255938077
  0
ARC
  5
339
100
AcDbEntity
  8
RACCORDO
100
AcDbCircle
 62
250
  6
CONTINUOUS
 10
62.5125100126
 20
86.4638000362
 30
0.0
 40
0.5000967968
100
AcDbArc
 50
0.0961517655
 51
89.8897372005
  0
ARC
  5
33A
100
AcDbEntity
  8
0
100
AcDbCircle
 62
7
  6
CONTINUOUS
 10
-130.1070764752
 20
56.1638316565
 30
0.0
 40
250.1028337792
100
AcDbArc
 50
355.4603452422
 51
355.6387921338
  0
ARC
  5
33B
100
AcDbEntity
  8
0
100
AcDbCircle
 62
7
  6
CONTINUOUS
 10
-130.1149911483
 20
56.1638312208
 30
0.0
 40
250.1028321905
100
AcDbArc
 50
355.4603453133
 51
355.6389307106
  0
ARC
  5
33C
100
AcDbEntity
  8
0
100
AcDbCircle
 62
7
  6
CONTINUOUS
 10
-130.0803719152
 20
56.161814847
 30
0.0
 40
250.076053172
100
AcDbArc
 50
355.6517756297
 51
356.0330030885
  0
ARC
  5
33D
100
AcDbEntity
  8
0
100
AcDbCircle
 62
7
  6
CONTINUOUS
 10
-130.0882857538
 20
56.1618143741
 30
0.0
 40
250.0760507485
100
AcDbArc
 50
355.6517757127
 51
356.0331295899
  0
ARC
  5
33E
100
AcDbEntity
  8
0
100
AcDbCircle
 62
7
  6
CONTINUOUS
 10
-130.0698795153
 20
56.1611101017
 30
0.0
 40
250.0
100
AcDbArc
 50
356.0348343719
 51
356.7320779931
  0
ARC
  5
33F
100
AcDbEntity
  8
0
100
AcDbCircle
 62
7
  6
CONTINUOUS
 10
-130.0698795153
 20
56.1611101017
 30
0.0
 40
250.0
100
AcDbArc
 50
352.2115471205
 51
355.4590980873
  0
ARC
  5
340
100
AcDbEntity
  8
RACCORDO
100
AcDbCircle
 62
250
  6
CONTINUOUS
 10
-130.4698795153
 20
56.1611101017
 30
0.0
 40
250.0
100
AcDbArc
 50
352.211822906
 51
356.763779715
  0
ARC
  5
341
100
AcDbEntity
  8
RACCORDO
100
AcDbCircle
 62
250
  6
CONTINUOUS
 10
-131.6449616291
 20
56.1611101017
 30
0.0
 40
250.0
100
AcDbArc
 50
353.0614585482
 51
356.7754062523
  0
ARC
  5
342
100
AcDbEntity
  8
RACCORDO
100
AcDbCircle
 62
250
  6
CONTINUOUS
 10
-131.803842256
 20
56.1611590626
 30
0.0
 40
249.9100969166
100
AcDbArc
 50
353.0658337897
 51
356.7774375361
  0
ARC
  5
343
100
AcDbEntity
  8
0
100
AcDbCircle
 62
7
  6
CONTINUOUS
 10
-127.0029619341
 20
56.1789160671
 30
0.0
 40
247.0133275388
100
AcDbArc
 50
355.3999341909
 51
355.5805416818
  0
ARC
  5
344
100
AcDbEntity
  8
0
100
AcDbCircle
 62
7
  6
CONTINUOUS
 10
-126.9659028404
 20
56.1760790683
 30
0.0
 40
246.9761600157
100
AcDbArc
 50
355.5937630578
 51
355.9799508141
  0
ARC
  5
345
100
AcDbEntity
  8
0
100
AcDbCircle
 62
7
  6
CONTINUOUS
 10
-131.8280313532
 20
56.1611101017
 30
0.0
 40
246.8
100
AcDbArc
 50
352.9780256763
 51
356.7754104083
  0
ARC
  5
346
100
AcDbEntity
  8
0
100
AcDbCircle
 62
7
  6
CONTINUOUS
 10
-103.1460278154
 20
52.6007935072
 30
0.0
 40
222.9212700257
100
AcDbArc
 50
356.0249732111
 51
356.4666266326
  0
ARC
  5
347
100
AcDbEntity
  8
0
100
AcDbCircle
 62
7
  6
CONTINUOUS
 10
-102.1056393043
 20
55.5695624698
 30
0.0
 40
222.1099039275
100
AcDbArc
 50
355.2423588609
 51
355.6876142163
  0
ARC
  5
348
100
AcDbEntity
  8
0
100
AcDbCircle
 62
7
  6
CONTINUOUS
 10
-95.9879961551
 20
51.6771429913
 30
0.0
 40
215.7039312817
100
AcDbArc
 50
355.9302427402
 51
356.1379163595
  0
ARC
  5
349
100
AcDbEntity
  8
0
100
AcDbCircle
 62
7
  6
CONTINUOUS
 10
-95.6764977246
 20
55.0242165587
 30
0.0
 40
215.6682047013
100
AcDbArc
 50
355.0375839252
 51
355.2450748646
  0
ARC
  5
34A
100
AcDbEntity
  8
0
100
AcDbCircle
 62
7
  6
CONTINUOUS
 10
-95.9236209067
 20
51.6728459701
 30
0.0
 40
215.6394127851
100
AcDbArc
 50
356.1520546789
 51
356.5957709982
  0
ARC
  5
34B
100
AcDbEntity
  8
0
100
AcDbCircle
 62
7
  6
CONTINUOUS
 10
-95.9427321868
 20
51.6722064115
 30
0.0
 40
215.5783811254
100
AcDbArc
 50
355.9291839158
 51
356.594976383
  0
ARC
  5
34C
100
AcDbEntity
  8
0
100
AcDbCircle
 62
7
  6
CONTINUOUS
 10
-95.5609024854
 20
55.0146929617
 30
0.0
 40
215.5522178227
100
AcDbArc
 50
355.2596944354
 51
355.7022627674
  0
ARC
  5
34D
100
AcDbEntity
  8
0
100
AcDbCircle
 62
7
  6
CONTINUOUS
 10
-85.5604776421
 20
52.5399521967
 30
0.0
 40
205.423513496
100
AcDbArc
 50
355.9252203305
 51
356.1821076177
  0
ARC
  5
34E
100
AcDbEntity
  8
0
100
AcDbCircle
 62
7
  6
CONTINUOUS
 10
-85.0723813424
 20
52.280724777
 30
0.0
 40
204.9154725139
100
AcDbArc
 50
355.5463290563
 51
355.7638781673
  0
ARC
  5
34F
100
AcDbEntity
  8
0
100
AcDbCircle
 62
7
  6
CONTINUOUS
 10
-84.8518893192
 20
53.0647950613
 30
0.0
 40
204.7561165722
100
AcDbArc
 50
355.7789892716
 51
356.0226817583
  0
ARC
  5
350
100
AcDbEntity
  8
RACCORDO
100
AcDbCircle
 62
250
  6
CONTINUOUS
 10
-39.1239871255
 20
44.8907803138
 30
0.0
 40
156.7955730774
100
AcDbArc
 50
352.9232001386
 51
353.065415514
  0
ARC
  5
351
100
AcDbEntity
  8
RACCORDO
100
AcDbCircle
 62
250
  6
CONTINUOUS
 10
-38.2312658261
 20
44.8278333302
 30
0.0
 40
155.6537026315
100
AcDbArc
 50
352.9059749215
 51
353.0487255205
  0
ARC
  5
352
100
AcDbEntity
  8
RACCORDO
100
AcDbCircle
 62
250
  6
CONTINUOUS
 10
-151.8179675619
 20
71.879164279
 30
0.0
 40
271.3532551018
100
AcDbArc
 50
2.9031885845
 51
3.0844058067
  0
ARC
  5
353
100
AcDbEntity
  8
RACCORDO
100
AcDbCircle
 62
7
  6
CONTINUOUS
 10
-130.0698795153
 20
73.0361101017
 30
0.0
 40
250.0
100
AcDbArc
 50
3.2679220069
 51
7.7884528795
  0
ARC
  5
354
100
AcDbEntity
  8
RACCORDO
100
AcDbCircle
 62
250
  6
CONTINUOUS
 10
-130.4698795153
 20
73.0361101017
 30
0.0
 40
250.0
100
AcDbArc
 50
3.236220285
 51
7.788177094
  0
ARC
  5
355
100
AcDbEntity
  8
RACCORDO
100
AcDbCircle
 62
250
  6
CONTINUOUS
 10
-131.6449867813
 20
73.0361101017
 30
0.0
 40
250.0
100
AcDbArc
 50
3.2245934235
 51
6.9385407554
  0
ARC
  5
356
100
AcDbEntity
  8
RACCORDO
100
AcDbCircle
 62
250
  6
CONTINUOUS
 10
-131.8036740253
 20
73.0360760911
 30
0.0
 40
249.9099281115
100
AcDbArc
 50
3.2225612099
 51
6.9341674643
  0
ARC
  5
357
100
AcDbEntity
  8
SUPERFICI
100
AcDbCircle
 62
7
  6
CONTINUOUS
 10
-131.8280313532
 20
73.0361101017
 30
0.0
 40
246.8
100
AcDbArc
 50
3.2245895917
 51
7.0219743237
  0
ARC
  5
358
100
AcDbEntity
  8
RACCORDO
100
AcDbCircle
 62
250
  6
CONTINUOUS
 10
-39.1240082615
 20
84.3064372924
 30
0.0
 40
156.7955943723
100
AcDbArc
 50
6.9345844957
 51
7.0767998518
  0
ARC
  5
359
100
AcDbEntity
  8
RACCORDO
100
AcDbCircle
 62
250
  6
CONTINUOUS
 10
-38.2312773285
 20
84.3693854564
 30
0.0
 40
155.6537142208
100
AcDbArc
 50
6.9512744848
 51
7.0940250732
  0
ARC
  5
35A
100
AcDbEntity
  8
RACCORDO
100
AcDbCircle
 62
250
  6
CONTINUOUS
 10
117.3598651938
 20
63.2158015236
 30
0.0
 40
40.9326991729
100
AcDbArc
 50
269.2201388727
 51
269.8099286657
  0
ARC
  5
35B
100
AcDbEntity
  8
0
100
AcDbCircle
 62
7
  6
CONTINUOUS
 10
130.4840694076
 20
23.8494796427
 30
0.0
 40
17.4946834603
100
AcDbArc
 50
172.9727281433
 51
174.2619416897
  0
ARC
  5
35C
100
AcDbEntity
  8
RACCORDO
100
AcDbCircle
 62
250
  6
CONTINUOUS
 10
123.5775679127
 20
42.2220433709
 30
0.0
 40
4.4499616061
100
AcDbArc
 50
180.4720936759
 51
181.0482989004
  0
ARC
  5
35D
100
AcDbEntity
  8
RACCORDO
100
AcDbCircle
 62
250
  6
CONTINUOUS
 10
116.7450536049
 20
18.0481812421
 30
0.0
 40
4.239105254
100
AcDbArc
 50
89.2202656463
 51
90.1267533859
  0
ARC
  5
35E
100
AcDbEntity
  8
RACCORDO
100
AcDbCircle
 62
250
  6
CONTINUOUS
 10
116.4976509851
 20
17.8945416375
 30
0.0
 40
4.1359401644
100
AcDbArc
 50
89.2746209231
 51
90.1948129858
  0
ARC
  5
35F
100
AcDbEntity
  8
RACCORDO
100
AcDbCircle
 62
250
  6
CONTINUOUS
 10
122.8373075813
 20
42.2094334492
 30
0.0
 40
3.7095945899
100
AcDbArc
 50
181.0627469559
 51
181.3179175379
  0
ARC
  5
360
100
AcDbEntity
  8
RACCORDO
100
AcDbCircle
 62
250
  6
CONTINUOUS
 10
122.363734785
 20
42.1982822488
 30
0.0
 40
3.2358906027
100
AcDbArc
 50
181.31338313
 51
181.7651081211
  0
ARC
  5
361
100
AcDbEntity
  8
RACCORDO
100
AcDbCircle
 62
250
  6
CONTINUOUS
 10
121.861437031
 20
42.1827376505
 30
0.0
 40
2.733352382
100
AcDbArc
 50
181.7637370362
 51
182.2542882832
  0
ARC
  5
362
100
AcDbEntity
  8
RACCORDO
100
AcDbCircle
 62
250
  6
CONTINUOUS
 10
121.3905084497
 20
42.1641250762
 30
0.0
 40
2.2620561378
100
AcDbArc
 50
182.2524042711
 51
182.8101745065
  0
ARC
  5
363
100
AcDbEntity
  8
RACCORDO
100
AcDbCircle
 62
250
  6
CONTINUOUS
 10
121.1207875421
 20
42.1511834977
 30
0.0
 40
1.9920251176
100
AcDbArc
 50
182.8187350552
 51
182.9708149907
  0
ARC
  5
364
100
AcDbEntity
  8
RACCORDO
100
AcDbCircle
 62
250
  6
CONTINUOUS
 10
119.9873916382
 20
42.0723065187
 30
0.0
 40
0.8557981328
100
AcDbArc
 50
184.974776487
 51
186.3793453146
  0
ARC
  5
365
100
AcDbEntity
  8
RACCORDO
100
AcDbCircle
 62
250
  6
CONTINUOUS
 10
118.8543534631
 20
41.9334547179
 30
0.0
 40
0.3007247803
100
AcDbArc
 50
356.7867781418
 51
21.1081422883
  0
ARC
  5
366
100
AcDbEntity
  8
RACCORDO
100
AcDbCircle
 62
7
  6
CONTINUOUS
 10
117.3266808896
 20
22.3227901103
 30
0.0
 40
0.3
100
AcDbArc
 50
278.0000000001
 51
352.2115471205
  0
ARC
  5
367
100
AcDbEntity
  8
RACCORDO
100
AcDbCircle
 62
7
  6
CONTINUOUS
 10
119.2240803989
 20
41.9269416927
 30
0.0
 40
0.3
100
AcDbArc
 50
356.7320779931
 51
89.0
  0
ARC
  5
368
100
AcDbEntity
  8
RACCORDO
100
AcDbCircle
 62
250
  6
CONTINUOUS
 10
116.9418892485
 20
22.3234189604
 30
0.0
 40
0.2996455656
100
AcDbArc
 50
278.0938485334
 51
352.3025711612
  0
ARC
  5
369
100
AcDbEntity
  8
RACCORDO
100
AcDbCircle
 62
250
  6
CONTINUOUS
 10
116.9271266783
 20
22.3234452485
 30
0.0
 40
0.2996325563
100
AcDbArc
 50
278.0975333443
 51
352.3059736979
  0
ARC
  5
36A
100
AcDbEntity
  8
RACCORDO
100
AcDbCircle
 62
250
  6
CONTINUOUS
 10
118.9230249403
 20
42.0693800329
 30
0.0
 40
0.209514295
100
AcDbArc
 50
354.1271443411
 51
2.9921661109
  0
ARC
  5
36B
100
AcDbEntity
  8
RACCORDO
100
AcDbCircle
 62
7
  6
CONTINUOUS
 10
110.2051557426
 20
23.051816161
 30
0.0
 40
0.1521119303
100
AcDbArc
 50
187.1944535942
 51
195.2520257575
  0
ARC
  5
36C
100
AcDbEntity
  8
RACCORDO
100
AcDbCircle
 62
7
  6
CONTINUOUS
 10
110.2025620942
 20
23.0499192099
 30
0.0
 40
0.148473664
100
AcDbArc
 50
180.024674775
 51
248.8032452958
  0
ARC
  5
36D
100
AcDbEntity
  8
RACCORDO
100
AcDbCircle
 62
250
  6
CONTINUOUS
 10
117.3646546781
 20
65.4155840538
 30
0.0
 40
41.4985466762
100
AcDbArc
 50
90.1940923663
 51
90.7758400954
  0
ARC
  5
36E
100
AcDbEntity
  8
SUPERFICI
100
AcDbCircle
 62
7
  6
CONTINUOUS
 10
130.4840694076
 20
105.3477405608
 30
0.0
 40
17.4946834603
100
AcDbArc
 50
185.7380583103
 51
187.0272718567
  0
ARC
  5
36F
100
AcDbEntity
  8
SUPERFICI
100
AcDbCircle
 62
7
  6
CONTINUOUS
 10
130.1626373779
 20
105.329520161
 30
0.0
 40
17.173453408
100
AcDbArc
 50
185.7880640243
 51
187.1083190747
  0
ARC
  5
370
100
AcDbEntity
  8
RACCORDO
100
AcDbCircle
 62
250
  6
CONTINUOUS
 10
123.6656618265
 20
86.9730864496
 30
0.0
 40
4.5380782912
100
AcDbArc
 50
178.9033114916
 51
179.9676562397
  0
ARC
  5
371
100
AcDbEntity
  8
RACCORDO
100
AcDbCircle
 62
250
  6
CONTINUOUS
 10
116.7454137077
 20
111.0857169687
 30
0.0
 40
4.1757842545
100
AcDbArc
 50
269.866396162
 51
270.7866174527
  0
ARC
  5
372
100
AcDbEntity
  8
RACCORDO
100
AcDbCircle
 62
250
  6
CONTINUOUS
 10
116.497963771
 20
111.2351236132
 30
0.0
 40
4.0683867018
100
AcDbArc
 50
269.7975471886
 51
270.7330189025
  0
ARC
  5
373
100
AcDbEntity
  8
RACCORDO
100
AcDbCircle
 62
250
  6
CONTINUOUS
 10
122.4375258397
 20
86.9967219911
 30
0.0
 40
3.3097149006
100
AcDbArc
 50
178.2358960358
 51
178.9054773372
  0
ARC
  5
374
100
AcDbEntity
  8
RACCORDO
100
AcDbCircle
 62
250
  6
CONTINUOUS
 10
122.0511077389
 20
87.0082886914
 30
0.0
 40
2.9231238886
100
AcDbArc
 50
178.1116010452
 51
178.2293396935
  0
ARC
  5
375
100
AcDbEntity
  8
RACCORDO
100
AcDbCircle
 62
250
  6
CONTINUOUS
 10
121.4264229307
 20
87.0309124659
 30
0.0
 40
2.2980337178
100
AcDbArc
 50
177.0475436954
 51
178.1621234777
  0
ARC
  5
376
100
AcDbEntity
  8
RACCORDO
100
AcDbCircle
 62
250
  6
CONTINUOUS
 10
120.7652323098
 20
87.0653420811
 30
0.0
 40
1.6359474057
100
AcDbArc
 50
176.1590571918
 51
177.0590236237
  0
ARC
  5
377
100
AcDbEntity
  8
RACCORDO
100
AcDbCircle
 62
250
  6
CONTINUOUS
 10
120.282669297
 20
87.0987831512
 30
0.0
 40
1.1522286556
100
AcDbArc
 50
174.8751990597
 51
176.2107999735
  0
ARC
  5
378
100
AcDbEntity
  8
RACCORDO
100
AcDbCircle
 62
250
  6
CONTINUOUS
 10
118.8543251976
 20
87.2637750971
 30
0.0
 40
0.3007541997
100
AcDbArc
 50
338.7267621547
 51
3.2132194114
  0
ARC
  5
379
100
AcDbEntity
  8
RACCORDO
100
AcDbCircle
 62
7
  6
CONTINUOUS
 10
117.3266808896
 20
106.8744300932
 30
0.0
 40
0.3
100
AcDbArc
 50
7.7884528795
 51
82.0
  0
ARC
  5
37A
100
AcDbEntity
  8
RACCORDO
100
AcDbCircle
 62
7
  6
CONTINUOUS
 10
119.2240803989
 20
87.2702785108
 30
0.0
 40
0.3
100
AcDbArc
 50
271.0
 51
3.2679220069
  0
ARC
  5
37B
100
AcDbEntity
  8
RACCORDO
100
AcDbCircle
 62
250
  6
CONTINUOUS
 10
116.9418892485
 20
106.873801243
 30
0.0
 40
0.2996455656
100
AcDbArc
 50
7.6974288386
 51
81.9061514669
  0
ARC
  5
37C
100
AcDbEntity
  8
RACCORDO
100
AcDbCircle
 62
250
  6
CONTINUOUS
 10
116.9271266796
 20
106.8737749577
 30
0.0
 40
0.2996325535
100
AcDbArc
 50
7.6940258528
 51
81.9024665738
  0
ARC
  5
37D
100
AcDbEntity
  8
RACCORDO
100
AcDbCircle
 62
250
  6
CONTINUOUS
 10
118.9230249485
 20
87.1278401601
 30
0.0
 40
0.2095142871
100
AcDbArc
 50
357.0070243401
 51
5.8728573219
  0
ARC
  5
37E
100
AcDbEntity
  8
RACCORDO
100
AcDbCircle
 62
7
  6
CONTINUOUS
 10
110.205155736
 20
106.1454040446
 30
0.0
 40
0.1521119235
100
AcDbArc
 50
164.7479980811
 51
172.8055551327
  0
ARC
  5
37F
100
AcDbEntity
  8
RACCORDO
100
AcDbCircle
 62
7
  6
CONTINUOUS
 10
110.2025620938
 20
106.1473009935
 30
0.0
 40
0.1484736639
100
AcDbArc
 50
111.1967545591
 51
179.9753252675
  0
SPLINE
  5
380
100
AcDbEntity
  8
0
100
AcDbSpline
 62
7
  6
CONTINUOUS
 70
0
 71
3
 72
9
 73
5
 74
0
 42
0.0000001
 43
0.0000001
 44
0.0000000001
 40
0.0
 40
0.0
 40
0.0
 40
0.0
 40
0.6439297259
 40
1.0
 40
1.0
 40
1.0
 40
1.0
 10
55.7779338531
 20
37.1265893589
 30
0.0
 10
55.7490054531
 20
37.2035733232
 30
0.0
 10
55.6630987063
 20
37.3191669912
 30
0.0
 10
55.5323496658
 20
37.3466887403
 30
0.0
 10
55.4868791815
 20
37.3466887403
 30
0.0
  0
SPLINE
  5
381
100
AcDbEntity
  8
0
100
AcDbSpline
 62
7
  6
CONTINUOUS
 70
0
 71
3
 72
9
 73
5
 74
0
 42
0.0000001
 43
0.0000001
 44
0.0000000001
 40
0.0
 40
0.0
 40
0.0
 40
0.0
 40
0.4412849067
 40
1.0
 40
1.0
 40
1.0
 40
1.0
 10
56.0061601275
 20
36.3684303211
 30
0.0
 10
55.9739786269
 20
36.4803644118
 30
0.0
 10
55.8979924412
 20
36.7329795127
 30
0.0
 10
55.829804604
 20
36.9885513599
 30
0.0
 10
55.7779338257
 20
37.1265893485
 30
0.0
  0
SPLINE
  5
382
100
AcDbEntity
  8
0
100
AcDbSpline
 62
7
  6
CONTINUOUS
 70
0
 71
3
 72
9
 73
5
 74
0
 42
0.0000001
 43
0.0000001
 44
0.0000000001
 40
0.0
 40
0.0
 40
0.0
 40
0.0
 40
0.8019701384
 40
1.0
 40
1.0
 40
1.0
 40
1.0
 10
56.3296989879
 20
37.0449491839
 30
0.0
 10
56.3788616646
 20
36.8644969274
 30
0.0
 10
56.4367173201
 20
36.6385639772
 30
0.0
 10
56.4959595568
 20
36.4129987864
 30
0.0
 10
56.5080642258
 20
36.3684303211
 30
0.0
  0
SPLINE
  5
383
100
AcDbEntity
  8
0
100
AcDbSpline
 62
7
  6
CONTINUOUS
 70
0
 71
3
 72
8
 73
4
 74
0
 42
0.0000001
 43
0.0000001
 44
0.0000000001
 40
0.0
 40
0.0
 40
0.0
 40
0.0
 40
1.0
 40
1.0
 40
1.0
 40
1.0
 10
56.0289168623
 20
37.5352847117
 30
0.0
 10
56.0467304299
 20
37.5281815516
 30
0.0
 10
56.063568932
 20
37.5193350232
 30
0.0
 10
56.0794864791
 20
37.5090027111
 30
0.0
  0
SPLINE
  5
384
100
AcDbEntity
  8
0
100
AcDbSpline
 62
7
  6
CONTINUOUS
 70
0
 71
3
 72
9
 73
5
 74
0
 42
0.0000001
 43
0.0000001
 44
0.0000000001
 40
0.0
 40
0.0
 40
0.0
 40
0.0
 40
0.7306477621
 40
1.0
 40
1.0
 40
1.0
 40
1.0
 10
56.0794864791
 20
37.5090027111
 30
0.0
 10
56.1855281488
 20
37.4401695158
 30
0.0
 10
56.2747208106
 20
37.2557108201
 30
0.0
 10
56.3173184454
 20
37.0903921282
 30
0.0
 10
56.3296989876
 20
37.0449491838
 30
0.0
  0
SPLINE
  5
385
100
AcDbEntity
  8
0
100
AcDbSpline
 62
7
  6
CONTINUOUS
 70
0
 71
3
 72
17
 73
13
 74
0
 42
0.0000001
 43
0.0000001
 44
0.0000000001
 40
0.0
 40
0.0
 40
0.0
 40
0.0
 40
0.0799595168
 40
0.1896577306
 40
0.3223977561
 40
0.3986068941
 40
0.483386777
 40
0.5877249163
 40
0.678993766
 40
0.8312459613
 40
0.9440219048
 40
1.0
 40
1.0
 40
1.0
 40
1.0
 10
55.9751179917
 20
38.8126423576
 30
0.0
 10
56.014163623
 20
38.7985565081
 30
0.0
 10
56.1013553812
 20
38.7504671262
 30
0.0
 10
56.2281682794
 20
38.6389660755
 30
0.0
 10
56.3179840633
 20
38.4963864013
 30
0.0
 10
56.3658040834
 20
38.3509001741
 30
0.0
 10
56.3855346092
 20
38.2139820131
 30
0.0
 10
56.3817907555
 20
38.0673874197
 30
0.0
 10
56.3419404782
 20
37.8907629855
 30
0.0
 10
56.2524851982
 20
37.7214570297
 30
0.0
 10
56.130995353
 20
37.6114712994
 30
0.0
 10
56.0577373641
 20
37.553774744
 30
0.0
 10
56.0289168623
 20
37.5500559696
 30
0.0
  0
SPLINE
  5
386
100
AcDbEntity
  8
0
100
AcDbSpline
 62
7
  6
CONTINUOUS
 70
0
 71
3
 72
9
 73
5
 74
0
 42
0.0000001
 43
0.0000001
 44
0.0000000001
 40
0.0
 40
0.0
 40
0.0
 40
0.0
 40
0.7042582166
 40
1.0
 40
1.0
 40
1.0
 40
1.0
 10
54.6874129672
 20
38.8389606901
 30
0.0
 10
54.9885251812
 20
38.8832594241
 30
0.0
 10
55.4228526928
 20
38.9268579829
 30
0.0
 10
55.8549138423
 20
38.8560693678
 30
0.0
 10
55.9751179917
 20
38.8126423576
 30
0.0
  0
SPLINE
  5
387
100
AcDbEntity
  8
0
100
AcDbSpline
 62
7
  6
CONTINUOUS
 70
0
 71
3
 72
9
 73
5
 74
0
 42
0.0000001
 43
0.0000001
 44
0.0000000001
 40
0.0
 40
0.0
 40
0.0
 40
0.0
 40
0.7295958313
 40
1.0
 40
1.0
 40
1.0
 40
1.0
 10
55.5985688837
 20
38.4570277367
 30
0.0
 10
55.4995489715
 20
38.468520223
 30
0.0
 10
55.3613278953
 20
38.4689632235
 30
0.0
 10
55.2262233343
 20
38.4485254941
 30
0.0
 10
55.189804442
 20
38.4423111768
 30
0.0
  0
SPLINE
  5
388
100
AcDbEntity
  8
0
100
AcDbSpline
 62
7
  6
CONTINUOUS
 70
0
 71
3
 72
9
 73
5
 74
0
 42
0.0000001
 43
0.0000001
 44
0.0000000001
 40
0.0
 40
0.0
 40
0.0
 40
0.0
 40
0.4988584794
 40
1.0
 40
1.0
 40
1.0
 40
1.0
 10
55.8933356087
 20
38.1443370142
 30
0.0
 10
55.8921907151
 20
38.2209642181
 30
0.0
 10
55.8298032469
 20
38.3807749196
 30
0.0
 10
55.675047902
 20
38.4481514002
 30
0.0
 10
55.5985688837
 20
38.4570277369
 30
0.0
  0
SPLINE
  5
389
100
AcDbEntity
  8
0
100
AcDbSpline
 62
7
  6
CONTINUOUS
 70
0
 71
3
 72
9
 73
5
 74
0
 42
0.0000001
 43
0.0000001
 44
0.0000000001
 40
0.0
 40
0.0
 40
0.0
 40
0.0
 40
0.479537635
 40
1.0
 40
1.0
 40
1.0
 40
1.0
 10
55.4880038965
 20
37.7560850244
 30
0.0
 10
55.5874954
 20
37.7583072396
 30
0.0
 10
55.8185808514
 20
37.8003970169
 30
0.0
 10
55.8949494512
 20
38.0363218243
 30
0.0
 10
55.8933355871
 20
38.1443370139
 30
0.0
  0
LINE
  5
38A
100
AcDbEntity
  8
RACCORDO
100
AcDbLine
 62
250
  6
CONTINUOUS
 10
62.9550342787
 20
22.0268149197
 30
0.0
 11
62.7458408472
 21
22.0267724922
 31
0.0
  0
SPLINE
  5
38B
100
AcDbEntity
  8
RACCORDO
100
AcDbSpline
 62
250
  6
CONTINUOUS
 70
0
 71
3
 72
13
 73
9
 74
0
 42
0.0000001
 43
0.0000001
 44
0.0000000001
 40
0.0
 40
0.0
 40
0.0
 40
0.0
 40
0.0433702294
 40
0.1140613527
 40
0.2109153568
 40
0.3318523138
 40
0.635713958
 40
1.0
 40
1.0
 40
1.0
 40
1.0
 10
71.2819308832
 20
86.9186100632
 30
0.0
 10
71.2789575702
 20
86.9197839122
 30
0.0
 10
71.2706528116
 20
86.9214698393
 30
0.0
 10
71.2552918792
 20
86.9236516331
 30
0.0
 10
71.2341029962
 20
86.9256558784
 30
0.0
 10
71.1957565921
 20
86.9283738242
 30
0.0
 10
71.1376352699
 20
86.9308709067
 30
0.0
 10
71.0884015308
 20
86.9319944434
 30
0.0
 10
71.0615543736
 20
86.9323865703
 30
0.0
  0
SPLINE
  5
38C
100
AcDbEntity
  8
RACCORDO
100
AcDbSpline
 62
250
  6
CONTINUOUS
 70
0
 71
3
 72
13
 73
9
 74
0
 42
0.0000001
 43
0.0000001
 44
0.0000000001
 40
0.0
 40
0.0
 40
0.0
 40
0.0
 40
0.0433984677
 40
0.114102174
 40
0.2109602195
 40
0.3318953894
 40
0.6357409506
 40
1.0
 40
1.0
 40
1.0
 40
1.0
 10
71.2819146678
 20
87.0846762498
 30
0.0
 10
71.278943759
 20
87.085862556
 30
0.0
 10
71.2706380366
 20
87.0875689152
 30
0.0
 10
71.2552764008
 20
87.0897752914
 30
0.0
 10
71.234086385
 20
87.0918028386
 30
0.0
 10
71.1957399095
 20
87.0945517265
 30
0.0
 10
71.1376177132
 20
87.0970774006
 30
0.0
 10
71.0883830933
 20
87.0982135991
 30
0.0
 10
71.0615356297
 20
87.0986101017
 30
0.0
  0
SPLINE
  5
38D
100
AcDbEntity
  8
RACCORDO
100
AcDbSpline
 62
250
  6
CONTINUOUS
 70
0
 71
3
 72
13
 73
9
 74
0
 42
0.0000001
 43
0.0000001
 44
0.0000000001
 40
0.0
 40
0.0
 40
0.0
 40
0.0
 40
0.0476070724
 40
0.1202638097
 40
0.2177751215
 40
0.3384636325
 40
0.6398739524
 40
1.0
 40
1.0
 40
1.0
 40
1.0
 10
71.2793544147
 20
103.2074101017
 30
0.0
 10
71.2766472306
 20
103.2097180241
 30
0.0
 10
71.2683310094
 20
103.2135990598
 30
0.0
 10
71.2528014846
 20
103.2182875829
 30
0.0
 10
71.2314716026
 20
103.2227164849
 30
0.0
 10
71.1930962737
 20
103.2285912597
 30
0.0
 10
71.1348467079
 20
103.2340390299
 30
0.0
 10
71.0854667366
 20
103.2364715259
 30
0.0
 10
71.0585696945
 20
103.2373193419
 30
0.0
  0
SPLINE
  5
38E
100
AcDbEntity
  8
RACCORDO
100
AcDbSpline
 62
250
  6
CONTINUOUS
 70
0
 71
3
 72
13
 73
9
 74
0
 42
0.0000001
 43
0.0000001
 44
0.0000000001
 40
0.0
 40
0.0
 40
0.0
 40
0.0
 40
0.0478090054
 40
0.1205655223
 40
0.218114876
 40
0.338797288
 40
0.6400934605
 40
1.0
 40
1.0
 40
1.0
 40
1.0
 10
71.2799569874
 20
103.5923068548
 30
0.0
 10
71.2772661436
 20
103.594663168
 30
0.0
 10
71.268963582
 20
103.5986589659
 30
0.0
 10
71.2534332202
 20
103.6034987367
 30
0.0
 10
71.232102096
 20
103.6080957338
 30
0.0
 10
71.1937262151
 20
103.6142245119
 30
0.0
 10
71.1354621309
 20
103.6199877851
 30
0.0
 10
71.086060119
 20
103.6226414948
 30
0.0
 10
71.0591516781
 20
103.6235997207
 30
0.0
  0
SPLINE
  5
38F
100
AcDbEntity
  8
RACCORDO
100
AcDbSpline
 62
250
  6
CONTINUOUS
 70
0
 71
3
 72
13
 73
9
 74
0
 42
0.0000001
 43
0.0000001
 44
0.0000000001
 40
0.0
 40
0.0
 40
0.0
 40
0.0
 40
0.0489537416
 40
0.1229959832
 40
0.2221108971
 40
0.3443238478
 40
0.6465239666
 40
1.0
 40
1.0
 40
1.0
 40
1.0
 10
67.705221281
 20
107.1667784836
 30
0.0
 10
67.7083346587
 20
107.1638463414
 30
0.0
 10
67.7137425515
 20
107.1542191102
 30
0.0
 10
67.7201526517
 20
107.1359766525
 30
0.0
 10
67.7261761963
 20
107.1108070087
 30
0.0
 10
67.7339855715
 20
107.0657460241
 30
0.0
 10
67.7408815402
 20
106.9980529053
 30
0.0
 10
67.7435594696
 20
106.9408177157
 30
0.0
 10
67.7442789405
 20
106.9099453514
 30
0.0
  0
SPLINE
  5
390
100
AcDbEntity
  8
RACCORDO
100
AcDbSpline
 62
250
  6
CONTINUOUS
 70
0
 71
3
 72
13
 73
9
 74
0
 42
0.0000001
 43
0.0000001
 44
0.0000000001
 40
0.0
 40
0.0
 40
0.0
 40
0.0
 40
0.0478235303
 40
0.1213198395
 40
0.2202472174
 40
0.3425235943
 40
0.6453918662
 40
1.0
 40
1.0
 40
1.0
 40
1.0
 10
67.2463134595
 20
107.1670698556
 30
0.0
 10
67.2491983189
 20
107.1640716655
 30
0.0
 10
67.2540577695
 20
107.1543899248
 30
0.0
 10
67.259821704
 20
107.1361966275
 30
0.0
 10
67.2651920758
 20
107.1110511047
 30
0.0
 10
67.2721220675
 20
107.0659944162
 30
0.0
 10
67.2781077146
 20
106.9983448615
 30
0.0
 10
67.2802969453
 20
106.9411732892
 30
0.0
 10
67.2808166669
 20
106.9103262489
 30
0.0
  0
SPLINE
  5
391
100
AcDbEntity
  8
RACCORDO
100
AcDbSpline
 62
250
  6
CONTINUOUS
 70
0
 71
3
 72
13
 73
9
 74
0
 42
0.0000001
 43
0.0000001
 44
0.0000000001
 40
0.0
 40
0.0
 40
0.0
 40
0.0
 40
0.0432546498
 40
0.1146741202
 40
0.2129527761
 40
0.3355546024
 40
0.641106699
 40
1.0
 40
1.0
 40
1.0
 40
1.0
 10
62.9550342979
 20
107.1704052838
 30
0.0
 10
62.9567055574
 20
107.1670866254
 30
0.0
 10
62.9590732802
 20
107.1573910005
 30
0.0
 10
62.9621139284
 20
107.1394146873
 30
0.0
 10
62.9648624176
 20
107.1144155208
 30
0.0
 10
62.9685074267
 20
107.0693531522
 30
0.0
 10
62.9716395767
 20
107.0017881586
 30
0.0
 10
62.9728183984
 20
106.9447214103
 30
0.0
 10
62.9731104459
 20
106.913892622
 30
0.0
  0
SPLINE
  5
392
100
AcDbEntity
  8
RACCORDO
100
AcDbSpline
 62
250
  6
CONTINUOUS
 70
0
 71
3
 72
13
 73
9
 74
0
 42
0.0000001
 43
0.0000001
 44
0.0000000001
 40
0.0
 40
0.0
 40
0.0
 40
0.0
 40
0.0431880183
 40
0.1145785339
 40
0.2128485637
 40
0.3354554173
 40
0.6410459279
 40
1.0
 40
1.0
 40
1.0
 40
1.0
 10
62.7458408472
 20
107.1704477113
 30
0.0
 10
62.7474845437
 20
107.1671224434
 30
0.0
 10
62.7498045522
 20
107.1574292568
 30
0.0
 10
62.7527905788
 20
107.1394548231
 30
0.0
 10
62.755487212
 20
107.1144583855
 30
0.0
 10
62.7590658105
 20
107.0693956282
 30
0.0
 10
62.7621405577
 20
107.0018320558
 30
0.0
 10
62.7632986204
 20
106.9447667193
 30
0.0
 10
62.7635858224
 20
106.913938213
 30
0.0
  0
SPLINE
  5
393
100
AcDbEntity
  8
RACCORDO
100
AcDbSpline
 62
250
  6
CONTINUOUS
 70
0
 71
3
 72
13
 73
9
 74
0
 42
0.0000001
 43
0.0000001
 44
0.0000000001
 40
0.0
 40
0.0
 40
0.0
 40
0.0
 40
0.0431880183
 40
0.1145785339
 40
0.2128485637
 40
0.3354554173
 40
0.6410459279
 40
1.0
 40
1.0
 40
1.0
 40
1.0
 10
40.700380083
 20
107.1704477113
 30
0.0
 10
40.6987363865
 20
107.1671224434
 30
0.0
 10
40.6964163781
 20
107.1574292568
 30
0.0
 10
40.6934303514
 20
107.1394548231
 30
0.0
 10
40.6907337183
 20
107.1144583855
 30
0.0
 10
40.6871551197
 20
107.0693956282
 30
0.0
 10
40.6840803726
 20
107.0018320558
 30
0.0
 10
40.6829223098
 20
106.9447667193
 30
0.0
 10
40.6826351078
 20
106.913938213
 30
0.0
  0
SPLINE
  5
394
100
AcDbEntity
  8
RACCORDO
100
AcDbSpline
 62
250
  6
CONTINUOUS
 70
0
 71
3
 72
13
 73
9
 74
0
 42
0.0000001
 43
0.0000001
 44
0.0000000001
 40
0.0
 40
0.0
 40
0.0
 40
0.0
 40
0.0432546631
 40
0.1146741367
 40
0.2129527913
 40
0.3355546146
 40
0.6411067049
 40
1.0
 40
1.0
 40
1.0
 40
1.0
 10
40.4911866515
 20
107.1704052838
 30
0.0
 10
40.4895153859
 20
107.1670866272
 30
0.0
 10
40.4871476545
 20
107.1573910015
 30
0.0
 10
40.4841070004
 20
107.139414688
 30
0.0
 10
40.4813585107
 20
107.1144155208
 30
0.0
 10
40.4777135047
 20
107.0693531521
 30
0.0
 10
40.4745813569
 20
107.0017881584
 30
0.0
 10
40.4734025218
 20
106.9447214103
 30
0.0
 10
40.4731104651
 20
106.9138926219
 30
0.0
  0
SPLINE
  5
395
100
AcDbEntity
  8
RACCORDO
100
AcDbSpline
 62
250
  6
CONTINUOUS
 70
0
 71
3
 72
13
 73
9
 74
0
 42
0.0000001
 43
0.0000001
 44
0.0000000001
 40
0.0
 40
0.0
 40
0.0
 40
0.0
 40
0.0478235728
 40
0.1213199019
 40
0.2202472865
 40
0.342523661
 40
0.6453919077
 40
1.0
 40
1.0
 40
1.0
 40
1.0
 10
36.1999075479
 20
107.1670698557
 30
0.0
 10
36.1970226799
 20
107.164071668
 30
0.0
 10
36.1921632094
 20
107.1543899288
 30
0.0
 10
36.1863992524
 20
107.1361966295
 30
0.0
 10
36.1810288579
 20
107.1110511059
 30
0.0
 10
36.1740988359
 20
107.0659944179
 30
0.0
 10
36.1681131587
 20
106.9983448627
 30
0.0
 10
36.1659239134
 20
106.9411732893
 30
0.0
 10
36.1654041857
 20
106.9103262488
 30
0.0
  0
SPLINE
  5
396
100
AcDbEntity
  8
RACCORDO
100
AcDbSpline
 62
250
  6
CONTINUOUS
 70
0
 71
3
 72
13
 73
9
 74
0
 42
0.0000001
 43
0.0000001
 44
0.0000000001
 40
0.0
 40
0.0
 40
0.0
 40
0.0
 40
0.0489256757
 40
0.1229520645
 40
0.2220580247
 40
0.3442675617
 40
0.6464793318
 40
1.0
 40
1.0
 40
1.0
 40
1.0
 10
35.7410001397
 20
107.1667623091
 30
0.0
 10
35.7379011937
 20
107.1638217338
 30
0.0
 10
35.7325332106
 20
107.154183864
 30
0.0
 10
35.7261867996
 20
107.1359349923
 30
0.0
 10
35.7202435351
 20
107.1107628462
 30
0.0
 10
35.712568766
 20
107.0657032445
 30
0.0
 10
35.7058616253
 20
106.9980226787
 30
0.0
 10
35.7033342132
 20
106.9408059254
 30
0.0
 10
35.7026936925
 20
106.9099441261
 30
0.0
  0
SPLINE
  5
397
100
AcDbEntity
  8
RACCORDO
100
AcDbSpline
 62
250
  6
CONTINUOUS
 70
0
 71
3
 72
13
 73
9
 74
0
 42
0.0000001
 43
0.0000001
 44
0.0000000001
 40
0.0
 40
0.0
 40
0.0
 40
0.0
 40
0.0478085758
 40
0.1205647562
 40
0.2181139153
 40
0.3387962794
 40
0.6400927632
 40
1.0
 40
1.0
 40
1.0
 40
1.0
 10
32.1662610734
 20
103.5923067085
 30
0.0
 10
32.1689518868
 20
103.5946630631
 30
0.0
 10
32.1772544661
 20
103.5986589309
 30
0.0
 10
32.1927848972
 20
103.6034987809
 30
0.0
 10
32.2141161889
 20
103.6080958626
 30
0.0
 10
32.2524924552
 20
103.6142247664
 30
0.0
 10
32.3107571997
 20
103.619988172
 30
0.0
 10
32.3601597879
 20
103.6226419569
 30
0.0
 10
32.3870685544
 20
103.6236002176
 30
0.0
  0
SPLINE
  5
398
100
AcDbEntity
  8
RACCORDO
100
AcDbSpline
 62
250
  6
CONTINUOUS
 70
0
 71
3
 72
13
 73
9
 74
0
 42
0.0000001
 43
0.0000001
 44
0.0000000001
 40
0.0
 40
0.0
 40
0.0
 40
0.0
 40
0.0476070738
 40
0.1202638115
 40
0.2177751231
 40
0.3384636338
 40
0.639873953
 40
1.0
 40
1.0
 40
1.0
 40
1.0
 10
32.1668665155
 20
103.2074101006
 30
0.0
 10
32.1695736996
 20
103.2097180232
 30
0.0
 10
32.1778899207
 20
103.2135990595
 30
0.0
 10
32.1934194456
 20
103.218287583
 30
0.0
 10
32.2147493276
 20
103.222716485
 30
0.0
 10
32.2531246565
 20
103.2285912597
 30
0.0
 10
32.3113742223
 20
103.2340390297
 30
0.0
 10
32.3607541936
 20
103.2364715264
 30
0.0
 10
32.3876512358
 20
103.237319343
 30
0.0
  0
SPLINE
  5
399
100
AcDbEntity
  8
RACCORDO
100
AcDbSpline
 62
250
  6
CONTINUOUS
 70
0
 71
3
 72
13
 73
9
 74
0
 42
0.0000001
 43
0.0000001
 44
0.0000000001
 40
0.0
 40
0.0
 40
0.0
 40
0.0
 40
0.0433984677
 40
0.114102174
 40
0.2109602195
 40
0.3318953894
 40
0.6357409506
 40
1.0
 40
1.0
 40
1.0
 40
1.0
 10
32.1643062624
 20
87.0846762498
 30
0.0
 10
32.1672771712
 20
87.085862556
 30
0.0
 10
32.1755828936
 20
87.0875689152
 30
0.0
 10
32.1909445295
 20
87.0897752914
 30
0.0
 10
32.2121345452
 20
87.0918028386
 30
0.0
 10
32.2504810207
 20
87.0945517265
 30
0.0
 10
32.308603217
 20
87.0970774006
 30
0.0
 10
32.3578378369
 20
87.098213599
 30
0.0
 10
32.3846853005
 20
87.0986101017
 30
0.0
  0
SPLINE
  5
39A
100
AcDbEntity
  8
RACCORDO
100
AcDbSpline
 62
250
  6
CONTINUOUS
 70
0
 71
3
 72
13
 73
9
 74
0
 42
0.0000001
 43
0.0000001
 44
0.0000000001
 40
0.0
 40
0.0
 40
0.0
 40
0.0
 40
0.0433702029
 40
0.1140613183
 40
0.2109153234
 40
0.3318522852
 40
0.6357139435
 40
1.0
 40
1.0
 40
1.0
 40
1.0
 10
32.1642900471
 20
86.9186101018
 30
0.0
 10
32.1672633628
 20
86.9197839378
 30
0.0
 10
32.1755681201
 20
86.9214698484
 30
0.0
 10
32.1909290517
 20
86.9236516301
 30
0.0
 10
32.2121179333
 20
86.9256558746
 30
0.0
 10
32.250464337
 20
86.9283738266
 30
0.0
 10
32.3085856592
 20
86.9308709133
 30
0.0
 10
32.3578193992
 20
86.931994423
 30
0.0
 10
32.3846665566
 20
86.9323865316
 30
0.0
  0
SPLINE
  5
39B
100
AcDbEntity
  8
RACCORDO
100
AcDbSpline
 62
250
  6
CONTINUOUS
 70
0
 71
3
 72
13
 73
9
 74
0
 42
0.0000001
 43
0.0000001
 44
0.0000000001
 40
0.0
 40
0.0
 40
0.0
 40
0.0
 40
0.0433702294
 40
0.1140613527
 40
0.2109153568
 40
0.3318523138
 40
0.635713958
 40
1.0
 40
1.0
 40
1.0
 40
1.0
 10
32.1642900471
 20
42.2786101402
 30
0.0
 10
32.16726336
 20
42.2774362913
 30
0.0
 10
32.1755681187
 20
42.2757503642
 30
0.0
 10
32.190929051
 20
42.2735685703
 30
0.0
 10
32.2121179341
 20
42.2715643251
 30
0.0
 10
32.2504643381
 20
42.2688463793
 30
0.0
 10
32.3085856603
 20
42.2663492968
 30
0.0
 10
32.3578193995
 20
42.2652257601
 30
0.0
 10
32.3846665566
 20
42.2648336332
 30
0.0
  0
SPLINE
  5
39C
100
AcDbEntity
  8
RACCORDO
100
AcDbSpline
 62
250
  6
CONTINUOUS
 70
0
 71
3
 72
13
 73
9
 74
0
 42
0.0000001
 43
0.0000001
 44
0.0000000001
 40
0.0
 40
0.0
 40
0.0
 40
0.0
 40
0.0433984677
 40
0.114102174
 40
0.2109602195
 40
0.3318953894
 40
0.6357409506
 40
1.0
 40
1.0
 40
1.0
 40
1.0
 10
32.1643062624
 20
42.1125439536
 30
0.0
 10
32.1672771712
 20
42.1113576475
 30
0.0
 10
32.1755828936
 20
42.1096512883
 30
0.0
 10
32.1909445295
 20
42.1074449121
 30
0.0
 10
32.2121345452
 20
42.1054173649
 30
0.0
 10
32.2504810207
 20
42.1026684769
 30
0.0
 10
32.308603217
 20
42.1001428029
 30
0.0
 10
32.3578378369
 20
42.0990066044
 30
0.0
 10
32.3846853005
 20
42.0986101017
 30
0.0
  0
SPLINE
  5
39D
100
AcDbEntity
  8
RACCORDO
100
AcDbSpline
 62
250
  6
CONTINUOUS
 70
0
 71
3
 72
9
 73
5
 74
0
 42
0.0000001
 43
0.0000001
 44
0.0000000001
 40
0.0
 40
0.0
 40
0.0
 40
0.0
 40
0.2497451975
 40
1.0
 40
1.0
 40
1.0
 40
1.0
 10
62.5339138899
 20
87.2809042407
 30
0.0
 10
61.6339322667
 20
87.2819836954
 30
0.0
 10
58.0303323188
 20
87.2857635968
 30
0.0
 10
54.4267301042
 20
87.2873800362
 30
0.0
 10
51.7231104651
 20
87.2873800347
 30
0.0
  0
SPLINE
  5
39E
100
AcDbEntity
  8
RACCORDO
100
AcDbSpline
 62
250
  6
CONTINUOUS
 70
0
 71
3
 72
9
 73
5
 74
0
 42
0.0000001
 43
0.0000001
 44
0.0000000001
 40
0.0
 40
0.0
 40
0.0
 40
0.0
 40
0.250189843
 40
1.0
 40
1.0
 40
1.0
 40
1.0
 10
51.7231104651
 20
106.9150848629
 30
0.0
 10
52.6438487366
 20
106.9150848639
 30
0.0
 10
56.3240072125
 20
106.9149900462
 30
0.0
 10
60.0041656789
 20
106.9145134695
 30
0.0
 10
62.7635858239
 20
106.913938213
 30
0.0
  0
LINE
  5
39F
100
AcDbEntity
  8
RACCORDO
100
AcDbLine
 62
250
  6
CONTINUOUS
 10
62.7635858239
 20
106.913938213
 30
0.0
 11
62.9731104651
 21
106.9138926219
 31
0.0
  0
SPLINE
  5
3A0
100
AcDbEntity
  8
RACCORDO
100
AcDbSpline
 62
250
  6
CONTINUOUS
 70
0
 71
3
 72
9
 73
5
 74
0
 42
0.0000001
 43
0.0000001
 44
0.0000000001
 40
0.0
 40
0.0
 40
0.0
 40
0.0
 40
0.2505265855
 40
1.0
 40
1.0
 40
1.0
 40
1.0
 10
62.9731104651
 20
106.9138926219
 30
0.0
 10
63.332842236
 20
106.9138096471
 30
0.0
 10
64.76874469
 20
106.9133421651
 30
0.0
 10
66.2046477093
 20
106.9123394459
 30
0.0
 10
67.2808166654
 20
106.9103262489
 30
0.0
  0
SPLINE
  5
3A1
100
AcDbEntity
  8
RACCORDO
100
AcDbSpline
 62
250
  6
CONTINUOUS
 70
0
 71
3
 72
17
 73
13
 74
0
 42
0.0000001
 43
0.0000001
 44
0.0000000001
 40
0.0
 40
0.0
 40
0.0
 40
0.0
 40
0.1242329797
 40
0.1864935509
 40
0.2488097964
 40
0.3735153447
 40
0.4985725797
 40
0.6239501221
 40
0.6867908433
 40
0.7496393304
 40
0.87505104
 40
1.0
 40
1.0
 40
1.0
 40
1.0
 10
67.7443196762
 20
106.9099440807
 30
0.0
 10
67.9588987492
 20
106.9105664161
 30
0.0
 10
68.2822573471
 20
106.8800680803
 30
0.0
 10
68.7001306409
 20
106.7777241159
 30
0.0
 10
69.1072969014
 20
106.6358281439
 30
0.0
 10
69.5879252357
 20
106.3837163754
 30
0.0
 10
70.0963108326
 20
105.9755277339
 30
0.0
 10
70.4449487531
 20
105.5566333938
 30
0.0
 10
70.6709762754
 20
105.1858442686
 30
0.0
 10
70.8585883657
 20
104.7940756113
 30
0.0
 10
71.0178644617
 20
104.2731502022
 30
0.0
 10
71.0598604452
 20
103.8394155291
 30
0.0
 10
71.0591523753
 20
103.6236000466
 30
0.0
  0
SPLINE
  5
3A2
100
AcDbEntity
  8
RACCORDO
100
AcDbSpline
 62
250
  6
CONTINUOUS
 70
0
 71
3
 72
9
 73
5
 74
0
 42
0.0000001
 43
0.0000001
 44
0.0000000001
 40
0.0
 40
0.0
 40
0.0
 40
0.0
 40
0.2500932426
 40
1.0
 40
1.0
 40
1.0
 40
1.0
 10
63.3442724353
 20
64.5986101017
 30
0.0
 10
63.3442724331
 20
66.4227294978
 30
0.0
 10
63.3435366587
 20
73.7164866305
 30
0.0
 10
63.3403524942
 20
81.0102441409
 30
0.0
 10
63.335175904
 20
86.4798795247
 30
0.0
  0
SPLINE
  5
3A3
100
AcDbEntity
  8
RACCORDO
100
AcDbSpline
 62
250
  6
CONTINUOUS
 70
0
 71
3
 72
9
 73
5
 74
0
 42
0.0000001
 43
0.0000001
 44
0.0000000001
 40
0.0
 40
0.0
 40
0.0
 40
0.0
 40
0.2501897556
 40
1.0
 40
1.0
 40
1.0
 40
1.0
 10
51.7231104651
 20
22.0257096897
 30
0.0
 10
50.8038523867
 20
22.0257096882
 30
0.0
 10
47.1296089063
 20
22.0257975172
 30
0.0
 10
43.455365434
 20
22.0262391894
 30
0.0
 10
40.700380083
 20
22.0267724922
 30
0.0
  0
LINE
  5
3A4
100
AcDbEntity
  8
RACCORDO
100
AcDbLine
 62
250
  6
CONTINUOUS
 10
35.7231104651
 20
21.5986101017
 30
0.0
 11
35.741000145
 21
22.0304578944
 31
0.0
  0
LINE
  5
3A5
100
AcDbEntity
  8
RACCORDO
100
AcDbLine
 62
250
  6
CONTINUOUS
 10
40.700380083
 20
22.0267724922
 30
0.0
 11
40.4911866515
 21
22.0268149197
 31
0.0
  0
SPLINE
  5
3A6
100
AcDbEntity
  8
RACCORDO
100
AcDbSpline
 62
250
  6
CONTINUOUS
 70
0
 71
3
 72
9
 73
5
 74
0
 42
0.0000001
 43
0.0000001
 44
0.0000000001
 40
0.0
 40
0.0
 40
0.0
 40
0.0
 40
0.2505247584
 40
1.0
 40
1.0
 40
1.0
 40
1.0
 10
40.4911866515
 20
22.0268149197
 30
0.0
 10
40.1328293115
 20
22.0268922978
 30
0.0
 10
38.7024025791
 20
22.027327728
 30
0.0
 10
37.2719753285
 20
22.0282566308
 30
0.0
 10
36.1999074699
 20
22.0301503479
 30
0.0
  0
SPLINE
  5
3A7
100
AcDbEntity
  8
RACCORDO
100
AcDbSpline
 62
250
  6
CONTINUOUS
 70
0
 71
3
 72
9
 73
5
 74
0
 42
0.0000001
 43
0.0000001
 44
0.0000000001
 40
0.0
 40
0.0
 40
0.0
 40
0.0
 40
0.2498393538
 40
1.0
 40
1.0
 40
1.0
 40
1.0
 10
32.1642900471
 20
42.2786101017
 30
0.0
 10
32.1641132005
 20
44.1374148871
 30
0.0
 10
32.1636446685
 20
51.5774148808
 30
0.0
 10
32.1636056145
 20
59.0174148902
 30
0.0
 10
32.1636054239
 20
64.5986101017
 30
0.0
  0
SPLINE
  5
3A8
100
AcDbEntity
  8
RACCORDO
100
AcDbSpline
 62
250
  6
CONTINUOUS
 70
0
 71
3
 72
9
 73
5
 74
0
 42
0.0000001
 43
0.0000001
 44
0.0000000001
 40
0.0
 40
0.0
 40
0.0
 40
0.0
 40
0.2494277351
 40
1.0
 40
1.0
 40
1.0
 40
1.0
 10
32.1668665155
 20
25.9898101017
 30
0.0
 10
32.1665734661
 20
27.3302957498
 30
0.0
 10
32.1654804873
 20
32.7045403259
 30
0.0
 10
32.1647097129
 20
38.0787849671
 30
0.0
 10
32.1643062624
 20
42.1125439536
 30
0.0
  0
SPLINE
  5
3A9
100
AcDbEntity
  8
RACCORDO
100
AcDbSpline
 62
250
  6
CONTINUOUS
 70
0
 71
3
 72
9
 73
5
 74
0
 42
0.0000001
 43
0.0000001
 44
0.0000000001
 40
0.0
 40
0.0
 40
0.0
 40
0.0
 40
0.2500985451
 40
1.0
 40
1.0
 40
1.0
 40
1.0
 10
71.2826155064
 20
64.5986101017
 30
0.0
 10
71.2826155633
 20
62.7378769255
 30
0.0
 10
71.2825659301
 20
55.2978769234
 30
0.0
 10
71.2824612271
 20
47.8578769045
 30
0.0
 10
71.2819308832
 20
42.2786101017
 30
0.0
  0
LINE
  5
3AA
100
AcDbEntity
  8
RACCORDO
100
AcDbLine
 62
250
  6
CONTINUOUS
 10
32.1643062624
 20
42.1125439536
 30
0.0
 11
32.1642900471
 21
42.2786101017
 31
0.0
  0
SPLINE
  5
3AB
100
AcDbEntity
  8
RACCORDO
100
AcDbSpline
 62
250
  6
CONTINUOUS
 70
0
 71
3
 72
13
 73
9
 74
0
 42
0.0000001
 43
0.0000001
 44
0.0000000001
 40
0.0
 40
0.0
 40
0.0
 40
0.0
 40
0.0476070724
 40
0.1202638097
 40
0.2177751215
 40
0.3384636325
 40
0.6398739524
 40
1.0
 40
1.0
 40
1.0
 40
1.0
 10
32.1668665155
 20
25.9898101017
 30
0.0
 10
32.1695736997
 20
25.9875021794
 30
0.0
 10
32.1778899209
 20
25.9836211437
 30
0.0
 10
32.1934194456
 20
25.9789326206
 30
0.0
 10
32.2147493276
 20
25.9745037186
 30
0.0
 10
32.2531246565
 20
25.9686289438
 30
0.0
 10
32.3113742223
 20
25.9631811736
 30
0.0
 10
32.3607541936
 20
25.9607486776
 30
0.0
 10
32.3876512358
 20
25.9599008616
 30
0.0
  0
SPLINE
  5
3AC
100
AcDbEntity
  8
RACCORDO
100
AcDbSpline
 62
250
  6
CONTINUOUS
 70
0
 71
3
 72
13
 73
9
 74
0
 42
0.0000001
 43
0.0000001
 44
0.0000000001
 40
0.0
 40
0.0
 40
0.0
 40
0.0
 40
0.0478090054
 40
0.1205655223
 40
0.218114876
 40
0.338797288
 40
0.6400934605
 40
1.0
 40
1.0
 40
1.0
 40
1.0
 10
32.1662639428
 20
25.6049133487
 30
0.0
 10
32.1689547867
 20
25.6025570355
 30
0.0
 10
32.1772573482
 20
25.5985612376
 30
0.0
 10
32.19278771
 20
25.5937214668
 30
0.0
 10
32.2141188342
 20
25.5891244697
 30
0.0
 10
32.2524947151
 20
25.5829956916
 30
0.0
 10
32.3107587994
 20
25.5772324184
 30
0.0
 10
32.3601608112
 20
25.5745787087
 30
0.0
 10
32.3870692521
 20
25.5736204828
 30
0.0
  0
SPLINE
  5
3AD
100
AcDbEntity
  8
RACCORDO
100
AcDbSpline
 62
250
  6
CONTINUOUS
 70
0
 71
3
 72
13
 73
9
 74
0
 42
0.0000001
 43
0.0000001
 44
0.0000000001
 40
0.0
 40
0.0
 40
0.0
 40
0.0
 40
0.0489537416
 40
0.1229959832
 40
0.2221108971
 40
0.3443238478
 40
0.6465239666
 40
1.0
 40
1.0
 40
1.0
 40
1.0
 10
35.7409996492
 20
22.0304417199
 30
0.0
 10
35.7378862716
 20
22.033373862
 30
0.0
 10
35.7324783787
 20
22.0430010933
 30
0.0
 10
35.7260682785
 20
22.0612435509
 30
0.0
 10
35.7200447339
 20
22.0864131948
 30
0.0
 10
35.7122353587
 20
22.1314741794
 30
0.0
 10
35.70533939
 20
22.1991672982
 30
0.0
 10
35.7026614607
 20
22.2564024878
 30
0.0
 10
35.7019419898
 20
22.2872748521
 30
0.0
  0
SPLINE
  5
3AE
100
AcDbEntity
  8
RACCORDO
100
AcDbSpline
 62
250
  6
CONTINUOUS
 70
0
 71
3
 72
13
 73
9
 74
0
 42
0.0000001
 43
0.0000001
 44
0.0000000001
 40
0.0
 40
0.0
 40
0.0
 40
0.0
 40
0.0478235303
 40
0.1213198395
 40
0.2202472174
 40
0.3425235943
 40
0.6453918662
 40
1.0
 40
1.0
 40
1.0
 40
1.0
 10
36.1999074708
 20
22.0301503479
 30
0.0
 10
36.1970226113
 20
22.033148538
 30
0.0
 10
36.1921631607
 20
22.0428302787
 30
0.0
 10
36.1863992262
 20
22.061023576
 30
0.0
 10
36.1810288545
 20
22.0861690988
 30
0.0
 10
36.1740988627
 20
22.1312257873
 30
0.0
 10
36.1681132156
 20
22.198875342
 30
0.0
 10
36.165923985
 20
22.2560469143
 30
0.0
 10
36.1654042633
 20
22.2868939546
 30
0.0
  0
SPLINE
  5
3AF
100
AcDbEntity
  8
RACCORDO
100
AcDbSpline
 62
250
  6
CONTINUOUS
 70
0
 71
3
 72
13
 73
9
 74
0
 42
0.0000001
 43
0.0000001
 44
0.0000000001
 40
0.0
 40
0.0
 40
0.0
 40
0.0
 40
0.0432546498
 40
0.1146741202
 40
0.2129527761
 40
0.3355546024
 40
0.641106699
 40
1.0
 40
1.0
 40
1.0
 40
1.0
 10
40.4911866323
 20
22.0268149197
 30
0.0
 10
40.4895153729
 20
22.0301335781
 30
0.0
 10
40.48714765
 20
22.039829203
 30
0.0
 10
40.4841070018
 20
22.0578055162
 30
0.0
 10
40.4813585126
 20
22.0828046827
 30
0.0
 10
40.4777135036
 20
22.1278670513
 30
0.0
 10
40.4745813536
 20
22.1954320449
 30
0.0
 10
40.4734025318
 20
22.2524987932
 30
0.0
 10
40.4731104843
 20
22.2833275815
 30
0.0
  0
SPLINE
  5
3B0
100
AcDbEntity
  8
RACCORDO
100
AcDbSpline
 62
250
  6
CONTINUOUS
 70
0
 71
3
 72
13
 73
9
 74
0
 42
0.0000001
 43
0.0000001
 44
0.0000000001
 40
0.0
 40
0.0
 40
0.0
 40
0.0
 40
0.0431880183
 40
0.1145785339
 40
0.2128485637
 40
0.3354554173
 40
0.6410459279
 40
1.0
 40
1.0
 40
1.0
 40
1.0
 10
40.700380083
 20
22.0267724922
 30
0.0
 10
40.6987363865
 20
22.0300977601
 30
0.0
 10
40.6964163781
 20
22.0397909467
 30
0.0
 10
40.6934303514
 20
22.0577653804
 30
0.0
 10
40.6907337183
 20
22.082761818
 30
0.0
 10
40.6871551197
 20
22.1278245752
 30
0.0
 10
40.6840803726
 20
22.1953881477
 30
0.0
 10
40.6829223098
 20
22.2524534842
 30
0.0
 10
40.6826351078
 20
22.2832819904
 30
0.0
  0
SPLINE
  5
3B1
100
AcDbEntity
  8
RACCORDO
100
AcDbSpline
 62
250
  6
CONTINUOUS
 70
0
 71
3
 72
13
 73
9
 74
0
 42
0.0000001
 43
0.0000001
 44
0.0000000001
 40
0.0
 40
0.0
 40
0.0
 40
0.0
 40
0.0431880183
 40
0.1145785339
 40
0.2128485637
 40
0.3354554173
 40
0.6410459279
 40
1.0
 40
1.0
 40
1.0
 40
1.0
 10
62.7458408472
 20
22.0267724922
 30
0.0
 10
62.7474845437
 20
22.0300977601
 30
0.0
 10
62.7498045522
 20
22.0397909467
 30
0.0
 10
62.7527905788
 20
22.0577653804
 30
0.0
 10
62.755487212
 20
22.082761818
 30
0.0
 10
62.7590658105
 20
22.1278245752
 30
0.0
 10
62.7621405577
 20
22.1953881477
 30
0.0
 10
62.7632986204
 20
22.2524534842
 30
0.0
 10
62.7635858224
 20
22.2832819904
 30
0.0
  0
SPLINE
  5
3B2
100
AcDbEntity
  8
RACCORDO
100
AcDbSpline
 62
250
  6
CONTINUOUS
 70
0
 71
3
 72
13
 73
9
 74
0
 42
0.0000001
 43
0.0000001
 44
0.0000000001
 40
0.0
 40
0.0
 40
0.0
 40
0.0
 40
0.0432546631
 40
0.1146741367
 40
0.2129527913
 40
0.3355546146
 40
0.6411067049
 40
1.0
 40
1.0
 40
1.0
 40
1.0
 10
62.9550342787
 20
22.0268149197
 30
0.0
 10
62.9567055443
 20
22.0301335763
 30
0.0
 10
62.9590732758
 20
22.0398292019
 30
0.0
 10
62.9621139298
 20
22.0578055155
 30
0.0
 10
62.9648624195
 20
22.0828046827
 30
0.0
 10
62.9685074255
 20
22.1278670514
 30
0.0
 10
62.9716395733
 20
22.1954320451
 30
0.0
 10
62.9728184084
 20
22.2524987931
 30
0.0
 10
62.9731104651
 20
22.2833275815
 30
0.0
  0
SPLINE
  5
3B3
100
AcDbEntity
  8
RACCORDO
100
AcDbSpline
 62
250
  6
CONTINUOUS
 70
0
 71
3
 72
13
 73
9
 74
0
 42
0.0000001
 43
0.0000001
 44
0.0000000001
 40
0.0
 40
0.0
 40
0.0
 40
0.0
 40
0.0478235728
 40
0.1213199019
 40
0.2202472865
 40
0.342523661
 40
0.6453919077
 40
1.0
 40
1.0
 40
1.0
 40
1.0
 10
67.2463133823
 20
22.0301503478
 30
0.0
 10
67.2491982504
 20
22.0331485355
 30
0.0
 10
67.2540577209
 20
22.0428302747
 30
0.0
 10
67.2598216778
 20
22.061023574
 30
0.0
 10
67.2651920723
 20
22.0861690975
 30
0.0
 10
67.2721220944
 20
22.1312257856
 30
0.0
 10
67.2781077715
 20
22.1988753407
 30
0.0
 10
67.2802970168
 20
22.2560469142
 30
0.0
 10
67.2808167445
 20
22.2868939547
 30
0.0
  0
SPLINE
  5
3B4
100
AcDbEntity
  8
RACCORDO
100
AcDbSpline
 62
250
  6
CONTINUOUS
 70
0
 71
3
 72
13
 73
9
 74
0
 42
0.0000001
 43
0.0000001
 44
0.0000000001
 40
0.0
 40
0.0
 40
0.0
 40
0.0
 40
0.0489256757
 40
0.1229520645
 40
0.2220580247
 40
0.3442675617
 40
0.6464793318
 40
1.0
 40
1.0
 40
1.0
 40
1.0
 10
67.7052207905
 20
22.0304578944
 30
0.0
 10
67.7083197365
 20
22.0333984697
 30
0.0
 10
67.7136877196
 20
22.0430363395
 30
0.0
 10
67.7200341307
 20
22.0612852112
 30
0.0
 10
67.7259773951
 20
22.0864573573
 30
0.0
 10
67.7336521642
 20
22.131516959
 30
0.0
 10
67.7403593049
 20
22.1991975248
 30
0.0
 10
67.742886717
 20
22.2564142781
 30
0.0
 10
67.7435272377
 20
22.2872760774
 30
0.0
  0
SPLINE
  5
3B5
100
AcDbEntity
  8
RACCORDO
100
AcDbSpline
 62
250
  6
CONTINUOUS
 70
0
 71
3
 72
13
 73
9
 74
0
 42
0.0000001
 43
0.0000001
 44
0.0000000001
 40
0.0
 40
0.0
 40
0.0
 40
0.0
 40
0.0478085758
 40
0.1205647562
 40
0.2181139153
 40
0.3387962794
 40
0.6400927632
 40
1.0
 40
1.0
 40
1.0
 40
1.0
 10
71.2799598568
 20
25.604913495
 30
0.0
 10
71.2772690435
 20
25.6025571404
 30
0.0
 10
71.2689664642
 20
25.5985612726
 30
0.0
 10
71.2534360331
 20
25.5937214226
 30
0.0
 10
71.2321047413
 20
25.5891243409
 30
0.0
 10
71.193728475
 20
25.5829954371
 30
0.0
 10
71.1354637305
 20
25.5772320315
 30
0.0
 10
71.0860611424
 20
25.5745782466
 30
0.0
 10
71.0591523759
 20
25.5736199858
 30
0.0
  0
SPLINE
  5
3B6
100
AcDbEntity
  8
RACCORDO
100
AcDbSpline
 62
250
  6
CONTINUOUS
 70
0
 71
3
 72
13
 73
9
 74
0
 42
0.0000001
 43
0.0000001
 44
0.0000000001
 40
0.0
 40
0.0
 40
0.0
 40
0.0
 40
0.0476070738
 40
0.1202638115
 40
0.2177751231
 40
0.3384636338
 40
0.639873953
 40
1.0
 40
1.0
 40
1.0
 40
1.0
 10
71.2793544147
 20
25.9898101029
 30
0.0
 10
71.2766472307
 20
25.9875021803
 30
0.0
 10
71.2683310095
 20
25.983621144
 30
0.0
 10
71.2528014847
 20
25.9789326205
 30
0.0
 10
71.2314716026
 20
25.9745037185
 30
0.0
 10
71.1930962737
 20
25.9686289438
 30
0.0
 10
71.1348467079
 20
25.9631811738
 30
0.0
 10
71.0854667366
 20
25.960748677
 30
0.0
 10
71.0585696945
 20
25.9599008604
 30
0.0
  0
SPLINE
  5
3B7
100
AcDbEntity
  8
RACCORDO
100
AcDbSpline
 62
250
  6
CONTINUOUS
 70
0
 71
3
 72
13
 73
9
 74
0
 42
0.0000001
 43
0.0000001
 44
0.0000000001
 40
0.0
 40
0.0
 40
0.0
 40
0.0
 40
0.0433984677
 40
0.114102174
 40
0.2109602195
 40
0.3318953894
 40
0.6357409506
 40
1.0
 40
1.0
 40
1.0
 40
1.0
 10
71.2819146678
 20
42.1125439536
 30
0.0
 10
71.278943759
 20
42.1113576475
 30
0.0
 10
71.2706380366
 20
42.1096512883
 30
0.0
 10
71.2552764008
 20
42.1074449121
 30
0.0
 10
71.234086385
 20
42.1054173649
 30
0.0
 10
71.1957399095
 20
42.102668477
 30
0.0
 10
71.1376177132
 20
42.1001428029
 30
0.0
 10
71.0883830933
 20
42.0990066044
 30
0.0
 10
71.0615356297
 20
42.0986101017
 30
0.0
  0
SPLINE
  5
3B8
100
AcDbEntity
  8
RACCORDO
100
AcDbSpline
 62
250
  6
CONTINUOUS
 70
0
 71
3
 72
13
 73
9
 74
0
 42
0.0000001
 43
0.0000001
 44
0.0000000001
 40
0.0
 40
0.0
 40
0.0
 40
0.0
 40
0.0433702029
 40
0.1140613183
 40
0.2109153234
 40
0.3318522852
 40
0.6357139435
 40
1.0
 40
1.0
 40
1.0
 40
1.0
 10
71.2819308832
 20
42.2786101017
 30
0.0
 10
71.2789575674
 20
42.2774362657
 30
0.0
 10
71.2706528101
 20
42.2757503551
 30
0.0
 10
71.2552918785
 20
42.2735685734
 30
0.0
 10
71.2341029969
 20
42.2715643289
 30
0.0
 10
71.1957565932
 20
42.2688463769
 30
0.0
 10
71.1376352711
 20
42.2663492902
 30
0.0
 10
71.088401531
 20
42.2652257805
 30
0.0
 10
71.0615543736
 20
42.2648336719
 30
0.0
  0
SPLINE
  5
3B9
100
AcDbEntity
  8
RACCORDO
100
AcDbSpline
 62
250
  6
CONTINUOUS
 70
0
 71
3
 72
18
 73
14
 74
0
 42
0.0000001
 43
0.0000001
 44
0.0000000001
 40
0.0
 40
0.0
 40
0.0
 40
0.0
 40
0.0073367874
 40
0.0240355386
 40
0.0500016925
 40
0.0850401937
 40
0.1287607876
 40
0.1806872465
 40
0.3070616141
 40
0.4588007338
 40
0.6296813841
 40
0.8128276797
 40
1.0
 40
1.0
 40
1.0
 40
1.0
 10
62.8302904465
 20
42.3472470035
 30
0.0
 10
62.8310718169
 20
42.3470804394
 30
0.0
 10
62.8329625418
 20
42.3449751227
 30
0.0
 10
62.8368800631
 20
42.3414312969
 30
0.0
 10
62.8426230035
 20
42.3350894231
 30
0.0
 10
62.8502849647
 20
42.3266961093
 30
0.0
 10
62.8597076365
 20
42.3160115322
 30
0.0
 10
62.8755937961
 20
42.2977956985
 30
0.0
 10
62.8989720612
 20
42.2704932671
 30
0.0
 10
62.9305317975
 20
42.2331529262
 30
0.0
 10
62.9658610548
 20
42.1909021202
 30
0.0
 10
63.0034687085
 20
42.1455286543
 30
0.0
 10
63.029078938
 20
42.1143798174
 30
0.0
 10
63.041991466
 20
42.0986100935
 30
0.0
  0
SPLINE
  5
3BA
100
AcDbEntity
  8
RACCORDO
100
AcDbSpline
 62
250
  6
CONTINUOUS
 70
0
 71
3
 72
18
 73
14
 74
0
 42
0.0000001
 43
0.0000001
 44
0.0000000001
 40
0.0
 40
0.0
 40
0.0
 40
0.0
 40
0.0075480756
 40
0.0243075904
 40
0.0502852274
 40
0.0853083445
 40
0.1289966922
 40
0.180880082
 40
0.3071523216
 40
0.4587939199
 40
0.6296093924
 40
0.8127492591
 40
1.0
 40
1.0
 40
1.0
 40
1.0
 10
62.7873345537
 20
42.3156064794
 30
0.0
 10
62.7881487636
 20
42.3155056875
 30
0.0
 10
62.7900647655
 20
42.3132678824
 30
0.0
 10
62.7936998891
 20
42.3095093705
 30
0.0
 10
62.7989661537
 20
42.3027276971
 30
0.0
 10
62.8058555285
 20
42.2937413829
 30
0.0
 10
62.8142641567
 20
42.2822783663
 30
0.0
 10
62.8283425029
 20
42.2627135038
 30
0.0
 10
62.8489080153
 20
42.2333440823
 30
0.0
 10
62.8765034592
 20
42.1931298986
 30
0.0
 10
62.9072511144
 20
42.1475802495
 30
0.0
 10
62.9398556963
 20
42.098617188
 30
0.0
 10
62.9619769159
 20
42.0649799942
 30
0.0
 10
62.9731104651
 20
42.047942268
 30
0.0
  0
SPLINE
  5
3BB
100
AcDbEntity
  8
RACCORDO
100
AcDbSpline
 62
250
  6
CONTINUOUS
 70
0
 71
3
 72
17
 73
13
 74
0
 42
0.0000001
 43
0.0000001
 44
0.0000000001
 40
0.0
 40
0.0
 40
0.0
 40
0.0
 40
0.0090814592
 40
0.0261707472
 40
0.0520540971
 40
0.0867656428
 40
0.1813977249
 40
0.3066444564
 40
0.4574672339
 40
0.6279332351
 40
0.8114374235
 40
1.0
 40
1.0
 40
1.0
 40
1.0
 10
62.5134724174
 20
42.2333242965
 30
0.0
 10
62.514408395
 20
42.2330853069
 30
0.0
 10
62.5161677754
 20
42.2304644818
 30
0.0
 10
62.5179101838
 20
42.225418594
 30
0.0
 10
62.5198582892
 20
42.2172736672
 30
0.0
 10
62.5226022328
 20
42.2010428269
 30
0.0
 10
62.5256040567
 20
42.1740731512
 30
0.0
 10
62.5285696275
 20
42.1347684642
 30
0.0
 10
62.5310009075
 20
42.0873213694
 30
0.0
 10
62.5327743951
 20
42.0336551274
 30
0.0
 10
62.5338029092
 20
41.9759517307
 30
0.0
 10
62.5339679488
 20
41.9363735508
 30
0.0
 10
62.5339139011
 20
41.9163159628
 30
0.0
  0
SPLINE
  5
3BC
100
AcDbEntity
  8
RACCORDO
100
AcDbSpline
 62
250
  6
CONTINUOUS
 70
0
 71
3
 72
9
 73
5
 74
0
 42
0.0000001
 43
0.0000001
 44
0.0000000001
 40
0.0
 40
0.0
 40
0.0
 40
0.0
 40
0.2501817529
 40
1.0
 40
1.0
 40
1.0
 40
1.0
 10
51.7231104651
 20
41.9098401688
 30
0.0
 10
52.6246659074
 20
41.9098401694
 30
0.0
 10
56.2282677962
 20
41.910379665
 30
0.0
 10
59.8318693663
 20
41.91307508
 30
0.0
 10
62.5339138899
 20
41.9163159628
 30
0.0
  0
LINE
  5
3BD
100
AcDbEntity
  8
RACCORDO
100
AcDbLine
 62
250
  6
CONTINUOUS
 10
62.9731104651
 20
22.2833275815
 30
0.0
 11
62.7635858211
 21
22.2832819904
 31
0.0
  0
SPLINE
  5
3BE
100
AcDbEntity
  8
RACCORDO
100
AcDbSpline
 62
250
  6
CONTINUOUS
 70
0
 71
3
 72
9
 73
5
 74
0
 42
0.0000001
 43
0.0000001
 44
0.0000000001
 40
0.0
 40
0.0
 40
0.0
 40
0.0
 40
0.2497338739
 40
1.0
 40
1.0
 40
1.0
 40
1.0
 10
62.7635858211
 20
22.2832819904
 30
0.0
 10
61.8445256085
 20
22.2830904006
 30
0.0
 10
58.1643671933
 20
22.282419955
 30
0.0
 10
54.4842087081
 20
22.2821353124
 30
0.0
 10
51.7231104651
 20
22.2821353406
 30
0.0
  0
SPLINE
  5
3BF
100
AcDbEntity
  8
RACCORDO
100
AcDbSpline
 62
250
  6
CONTINUOUS
 70
0
 71
3
 72
17
 73
13
 74
0
 42
0.0000001
 43
0.0000001
 44
0.0000000001
 40
0.0
 40
0.0
 40
0.0
 40
0.0
 40
0.009081456
 40
0.0261707472
 40
0.0520541019
 40
0.0867656543
 40
0.181397758
 40
0.3066445041
 40
0.4574672954
 40
0.6279332908
 40
0.8114374414
 40
1.0
 40
1.0
 40
1.0
 40
1.0
 10
40.9327485075
 20
42.2333242965
 30
0.0
 10
40.9318125303
 20
42.2330853067
 30
0.0
 10
40.9300531523
 20
42.2304644795
 30
0.0
 10
40.9283107451
 20
42.2254185916
 30
0.0
 10
40.9263626405
 20
42.2172736628
 30
0.0
 10
40.9236186967
 20
42.2010428192
 30
0.0
 10
40.9206168724
 20
42.1740731391
 30
0.0
 10
40.9176513018
 20
42.1347684472
 30
0.0
 10
40.9152200219
 20
42.0873213504
 30
0.0
 10
40.9134465336
 20
42.0336551121
 30
0.0
 10
40.9124180224
 20
41.9759517224
 30
0.0
 10
40.9122529888
 20
41.9363735487
 30
0.0
 10
40.9123070403
 20
41.9163159628
 30
0.0
  0
SPLINE
  5
3C0
100
AcDbEntity
  8
RACCORDO
100
AcDbSpline
 62
250
  6
CONTINUOUS
 70
0
 71
3
 72
18
 73
14
 74
0
 42
0.0000001
 43
0.0000001
 44
0.0000000001
 40
0.0
 40
0.0
 40
0.0
 40
0.0
 40
0.0075480719
 40
0.0243075825
 40
0.0502852156
 40
0.0853083284
 40
0.1289966686
 40
0.1808800523
 40
0.3071522834
 40
0.4587938741
 40
0.6296093522
 40
0.8127492454
 40
1.0
 40
1.0
 40
1.0
 40
1.0
 10
40.6588863726
 20
42.315606482
 30
0.0
 10
40.6580721632
 20
42.3155056891
 30
0.0
 10
40.6561561636
 20
42.3132678842
 30
0.0
 10
40.6525210411
 20
42.3095093722
 30
0.0
 10
40.6472547784
 20
42.3027276995
 30
0.0
 10
40.6403654047
 20
42.2937413864
 30
0.0
 10
40.6319567776
 20
42.2822783716
 30
0.0
 10
40.6178784324
 20
42.2627135113
 30
0.0
 10
40.5973129216
 20
42.2333440919
 30
0.0
 10
40.5697174782
 20
42.1931299094
 30
0.0
 10
40.5389698206
 20
42.1475802589
 30
0.0
 10
40.5063652383
 20
42.098617192
 30
0.0
 10
40.4842440204
 20
42.0649799919
 30
0.0
 10
40.4731104732
 20
42.0479422627
 30
0.0
  0
SPLINE
  5
3C1
100
AcDbEntity
  8
RACCORDO
100
AcDbSpline
 62
250
  6
CONTINUOUS
 70
0
 71
3
 72
18
 73
14
 74
0
 42
0.0000001
 43
0.0000001
 44
0.0000000001
 40
0.0
 40
0.0
 40
0.0
 40
0.0
 40
0.0073367243
 40
0.0240354224
 40
0.0500015327
 40
0.0850400021
 40
0.1287605799
 40
0.1806870313
 40
0.3070614084
 40
0.4588005727
 40
0.6296812758
 40
0.8128276116
 40
1.0
 40
1.0
 40
1.0
 40
1.0
 10
40.6159304971
 20
42.3472470003
 30
0.0
 10
40.6151491302
 20
42.3470804525
 30
0.0
 10
40.6132584106
 20
42.3449751298
 30
0.0
 10
40.6093408993
 20
42.3414313346
 30
0.0
 10
40.6035979652
 20
42.3350894651
 30
0.0
 10
40.595936008
 20
42.3266961643
 30
0.0
 10
40.5865133377
 20
42.316011592
 30
0.0
 10
40.5706271759
 20
42.2977957621
 30
0.0
 10
40.5472489042
 20
42.2704933279
 30
0.0
 10
40.5156891576
 20
42.2331529789
 30
0.0
 10
40.4803598891
 20
42.1909021608
 30
0.0
 10
40.4427522233
 20
42.14552868
 30
0.0
 10
40.4171419866
 20
42.1143798324
 30
0.0
 10
40.4042294542
 20
42.0986101017
 30
0.0
  0
SPLINE
  5
3C2
100
AcDbEntity
  8
RACCORDO
100
AcDbSpline
 62
250
  6
CONTINUOUS
 70
0
 71
3
 72
18
 73
14
 74
0
 42
0.0000001
 43
0.0000001
 44
0.0000000001
 40
0.0
 40
0.0
 40
0.0
 40
0.0
 40
0.0081960741
 40
0.024922039
 40
0.0506769899
 40
0.085406564
 40
0.1287812692
 40
0.1803596273
 40
0.306120073
 40
0.4574775928
 40
0.6283258778
 40
0.8118863679
 40
1.0
 40
1.0
 40
1.0
 40
1.0
 10
40.4330404979
 20
42.7334639599
 30
0.0
 10
40.432768381
 20
42.7326235275
 30
0.0
 10
40.4299505203
 20
42.7313140485
 30
0.0
 10
40.4249743847
 20
42.7298995383
 30
0.0
 10
40.4166325376
 20
42.7283763489
 30
0.0
 10
40.4055974524
 20
42.726904582
 30
0.0
 10
40.3916690289
 20
42.7254664868
 30
0.0
 10
40.3679695332
 20
42.7235185527
 30
0.0
 10
40.3325913439
 20
42.7214555914
 30
0.0
 10
40.2843480598
 20
42.7195363857
 30
0.0
 10
40.2298504886
 20
42.7181567752
 30
0.0
 10
40.1713807651
 20
42.7173780735
 30
0.0
 10
40.1313201646
 20
42.7172793114
 30
0.0
 10
40.1110450263
 20
42.7173406808
 30
0.0
  0
SPLINE
  5
3C3
100
AcDbEntity
  8
RACCORDO
100
AcDbSpline
 62
250
  6
CONTINUOUS
 70
0
 71
3
 72
18
 73
14
 74
0
 42
0.0000001
 43
0.0000001
 44
0.0000000001
 40
0.0
 40
0.0
 40
0.0
 40
0.0
 40
0.0081959959
 40
0.024921861
 40
0.0506767218
 40
0.0854062243
 40
0.1287808849
 40
0.180359216
 40
0.3061196582
 40
0.4574772458
 40
0.6283256307
 40
0.8118862224
 40
1.0
 40
1.0
 40
1.0
 40
1.0
 10
40.4330405071
 20
86.4637561285
 30
0.0
 10
40.4327684207
 20
86.464596562
 30
0.0
 10
40.4299505797
 20
86.465906081
 30
0.0
 10
40.4249744847
 20
86.4673205919
 30
0.0
 10
40.4166326641
 20
86.4688438091
 30
0.0
 10
40.4055976036
 20
86.4703155915
 30
0.0
 10
40.3916691944
 20
86.4717537063
 30
0.0
 10
40.3679697051
 20
86.4737016653
 30
0.0
 10
40.3325915069
 20
86.475764653
 30
0.0
 10
40.2843481979
 20
86.4776838822
 30
0.0
 10
40.2298505886
 20
86.4790635086
 30
0.0
 10
40.1713808179
 20
86.4798422185
 30
0.0
 10
40.1313201838
 20
86.4799409798
 30
0.0
 10
40.1110450264
 20
86.4798796086
 30
0.0
  0
SPLINE
  5
3C4
100
AcDbEntity
  8
RACCORDO
100
AcDbSpline
 62
250
  6
CONTINUOUS
 70
0
 71
3
 72
18
 73
14
 74
0
 42
0.0000001
 43
0.0000001
 44
0.0000000001
 40
0.0
 40
0.0
 40
0.0
 40
0.0
 40
0.0073367876
 40
0.024035539
 40
0.0500016929
 40
0.0850401941
 40
0.1287607877
 40
0.1806872464
 40
0.3070616136
 40
0.4588007326
 40
0.6296813829
 40
0.8128276794
 40
1.0
 40
1.0
 40
1.0
 40
1.0
 10
40.6159304834
 20
86.8499731998
 30
0.0
 10
40.615149113
 20
86.8501397641
 30
0.0
 10
40.6132583883
 20
86.8522450807
 30
0.0
 10
40.609340867
 20
86.8557889067
 30
0.0
 10
40.6035979267
 20
86.8621307805
 30
0.0
 10
40.5959359655
 20
86.8705240945
 30
0.0
 10
40.5865132939
 20
86.8812086716
 30
0.0
 10
40.5706271345
 20
86.8994245053
 30
0.0
 10
40.5472488695
 20
86.9267269367
 30
0.0
 10
40.5156891334
 20
86.9640672775
 30
0.0
 10
40.4803598762
 20
87.0063180835
 30
0.0
 10
40.4427522224
 20
87.0516915496
 30
0.0
 10
40.4171419927
 20
87.0828403865
 30
0.0
 10
40.4042294647
 20
87.0986101104
 30
0.0
  0
SPLINE
  5
3C5
100
AcDbEntity
  8
RACCORDO
100
AcDbSpline
 62
250
  6
CONTINUOUS
 70
0
 71
3
 72
18
 73
14
 74
0
 42
0.0000001
 43
0.0000001
 44
0.0000000001
 40
0.0
 40
0.0
 40
0.0
 40
0.0
 40
0.0075480757
 40
0.0243075906
 40
0.0502852277
 40
0.0853083451
 40
0.128996693
 40
0.180880083
 40
0.3071523229
 40
0.4587939215
 40
0.6296093938
 40
0.8127492595
 40
1.0
 40
1.0
 40
1.0
 40
1.0
 10
40.6588863765
 20
86.8816137241
 30
0.0
 10
40.6580721666
 20
86.881714516
 30
0.0
 10
40.6561561647
 20
86.8839523211
 30
0.0
 10
40.652521041
 20
86.887710833
 30
0.0
 10
40.6472547764
 20
86.8944925064
 30
0.0
 10
40.6403654015
 20
86.9034788207
 30
0.0
 10
40.6319567733
 20
86.9149418373
 30
0.0
 10
40.617878427
 20
86.9345066999
 30
0.0
 10
40.5973129146
 20
86.9638761214
 30
0.0
 10
40.5697174707
 20
87.0040903052
 30
0.0
 10
40.5389698155
 20
87.0496399543
 30
0.0
 10
40.5063652338
 20
87.0986030156
 30
0.0
 10
40.4842440143
 20
87.1322402094
 30
0.0
 10
40.4731104651
 20
87.1492779355
 30
0.0
  0
SPLINE
  5
3C6
100
AcDbEntity
  8
RACCORDO
100
AcDbSpline
 62
250
  6
CONTINUOUS
 70
0
 71
3
 72
17
 73
13
 74
0
 42
0.0000001
 43
0.0000001
 44
0.0000000001
 40
0.0
 40
0.0
 40
0.0
 40
0.0
 40
0.0090814591
 40
0.0261707467
 40
0.0520540963
 40
0.0867656415
 40
0.181397722
 40
0.3066444527
 40
0.4574672292
 40
0.6279332309
 40
0.8114374221
 40
1.0
 40
1.0
 40
1.0
 40
1.0
 10
40.9327485129
 20
86.963895907
 30
0.0
 10
40.9318125353
 20
86.9641348966
 30
0.0
 10
40.9300531549
 20
86.9667557215
 30
0.0
 10
40.9283107465
 20
86.9718016093
 30
0.0
 10
40.9263626411
 20
86.9799465359
 30
0.0
 10
40.9236186975
 20
86.9961773761
 30
0.0
 10
40.9206168736
 20
87.0231470515
 30
0.0
 10
40.9176513028
 20
87.0624517381
 30
0.0
 10
40.9152200228
 20
87.1098988327
 30
0.0
 10
40.9134465351
 20
87.163565075
 30
0.0
 10
40.9124180211
 20
87.2212684722
 30
0.0
 10
40.9122529817
 20
87.2608466525
 30
0.0
 10
40.9123070296
 20
87.2809042407
 30
0.0
  0
SPLINE
  5
3C7
100
AcDbEntity
  8
RACCORDO
100
AcDbSpline
 62
250
  6
CONTINUOUS
 70
0
 71
3
 72
17
 73
13
 74
0
 42
0.0000001
 43
0.0000001
 44
0.0000000001
 40
0.0
 40
0.0
 40
0.0
 40
0.0
 40
0.009081456
 40
0.0261707472
 40
0.0520541019
 40
0.0867656543
 40
0.181397758
 40
0.3066445041
 40
0.4574672954
 40
0.6279332908
 40
0.8114374414
 40
1.0
 40
1.0
 40
1.0
 40
1.0
 10
62.5134724227
 20
86.963895907
 30
0.0
 10
62.5144084
 20
86.9641348968
 30
0.0
 10
62.5161677779
 20
86.966755724
 30
0.0
 10
62.5179101851
 20
86.9718016119
 30
0.0
 10
62.5198582898
 20
86.9799465407
 30
0.0
 10
62.5226022336
 20
86.9961773843
 30
0.0
 10
62.5256040579
 20
87.0231470644
 30
0.0
 10
62.5285696284
 20
87.0624517563
 30
0.0
 10
62.5310009083
 20
87.109898853
 30
0.0
 10
62.5327743966
 20
87.1635650914
 30
0.0
 10
62.5338029078
 20
87.2212684811
 30
0.0
 10
62.5339679414
 20
87.2608466548
 30
0.0
 10
62.5339138899
 20
87.2809042407
 30
0.0
  0
SPLINE
  5
3C8
100
AcDbEntity
  8
RACCORDO
100
AcDbSpline
 62
250
  6
CONTINUOUS
 70
0
 71
3
 72
18
 73
14
 74
0
 42
0.0000001
 43
0.0000001
 44
0.0000000001
 40
0.0
 40
0.0
 40
0.0
 40
0.0
 40
0.0075480719
 40
0.0243075825
 40
0.0502852156
 40
0.0853083284
 40
0.1289966686
 40
0.1808800523
 40
0.3071522834
 40
0.4587938741
 40
0.6296093522
 40
0.8127492454
 40
1.0
 40
1.0
 40
1.0
 40
1.0
 10
62.7873345577
 20
86.8816137215
 30
0.0
 10
62.788148767
 20
86.8817145144
 30
0.0
 10
62.7900647666
 20
86.8839523193
 30
0.0
 10
62.7936998892
 20
86.8877108313
 30
0.0
 10
62.7989661519
 20
86.894492504
 30
0.0
 10
62.8058555255
 20
86.9034788171
 30
0.0
 10
62.8142641527
 20
86.9149418319
 30
0.0
 10
62.8283424978
 20
86.9345066921
 30
0.0
 10
62.8489080086
 20
86.9638761116
 30
0.0
 10
62.876503452
 20
87.0040902941
 30
0.0
 10
62.9072511096
 20
87.0496399446
 30
0.0
 10
62.9398556919
 20
87.0986030115
 30
0.0
 10
62.9619769098
 20
87.1322402116
 30
0.0
 10
62.973110457
 20
87.1492779408
 30
0.0
  0
SPLINE
  5
3C9
100
AcDbEntity
  8
RACCORDO
100
AcDbSpline
 62
250
  6
CONTINUOUS
 70
0
 71
3
 72
18
 73
14
 74
0
 42
0.0000001
 43
0.0000001
 44
0.0000000001
 40
0.0
 40
0.0
 40
0.0
 40
0.0
 40
0.0073367243
 40
0.0240354224
 40
0.0500015327
 40
0.0850400021
 40
0.1287605799
 40
0.1806870313
 40
0.3070614084
 40
0.4588005727
 40
0.6296812758
 40
0.8128276116
 40
1.0
 40
1.0
 40
1.0
 40
1.0
 10
62.8302904331
 20
86.8499732032
 30
0.0
 10
62.8310718
 20
86.850139751
 30
0.0
 10
62.8329625197
 20
86.8522450737
 30
0.0
 10
62.8368800309
 20
86.8557888689
 30
0.0
 10
62.8426229651
 20
86.8621307384
 30
0.0
 10
62.8502849222
 20
86.8705240392
 30
0.0
 10
62.8597075926
 20
86.8812086115
 30
0.0
 10
62.8755937544
 20
86.8994244414
 30
0.0
 10
62.898972026
 20
86.9267268756
 30
0.0
 10
62.9305317726
 20
86.9640672246
 30
0.0
 10
62.9658610411
 20
87.0063180427
 30
0.0
 10
63.003468707
 20
87.0516915235
 30
0.0
 10
63.0290789437
 20
87.0828403711
 30
0.0
 10
63.041991476
 20
87.0986101017
 30
0.0
  0
SPLINE
  5
3CA
100
AcDbEntity
  8
RACCORDO
100
AcDbSpline
 62
250
  6
CONTINUOUS
 70
0
 71
3
 72
18
 73
14
 74
0
 42
0.0000001
 43
0.0000001
 44
0.0000000001
 40
0.0
 40
0.0
 40
0.0
 40
0.0
 40
0.0081960741
 40
0.024922039
 40
0.0506769899
 40
0.085406564
 40
0.1287812692
 40
0.1803596273
 40
0.306120073
 40
0.4574775928
 40
0.6283258778
 40
0.8118863679
 40
1.0
 40
1.0
 40
1.0
 40
1.0
 10
63.0131804323
 20
86.4637562436
 30
0.0
 10
63.0134525492
 20
86.4645966759
 30
0.0
 10
63.0162704099
 20
86.465906155
 30
0.0
 10
63.0212465456
 20
86.4673206652
 30
0.0
 10
63.0295883926
 20
86.4688438546
 30
0.0
 10
63.0406234778
 20
86.4703156215
 30
0.0
 10
63.0545519013
 20
86.4717537167
 30
0.0
 10
63.078251397
 20
86.4737016508
 30
0.0
 10
63.1136295863
 20
86.475764612
 30
0.0
 10
63.1618728704
 20
86.4776838178
 30
0.0
 10
63.2163704417
 20
86.4790634283
 30
0.0
 10
63.2748401651
 20
86.47984213
 30
0.0
 10
63.3149007657
 20
86.4799408921
 30
0.0
 10
63.335175904
 20
86.4798795227
 30
0.0
  0
SPLINE
  5
3CB
100
AcDbEntity
  8
RACCORDO
100
AcDbSpline
 62
250
  6
CONTINUOUS
 70
0
 71
3
 72
18
 73
14
 74
0
 42
0.0000001
 43
0.0000001
 44
0.0000000001
 40
0.0
 40
0.0
 40
0.0
 40
0.0
 40
0.0081959959
 40
0.024921861
 40
0.0506767218
 40
0.0854062243
 40
0.1287808849
 40
0.180359216
 40
0.3061196582
 40
0.4574772458
 40
0.6283256307
 40
0.8118862224
 40
1.0
 40
1.0
 40
1.0
 40
1.0
 10
63.0131804231
 20
42.733464075
 30
0.0
 10
63.0134525096
 20
42.7326236415
 30
0.0
 10
63.0162703505
 20
42.7313141225
 30
0.0
 10
63.0212464456
 20
42.7298996115
 30
0.0
 10
63.0295882662
 20
42.7283763944
 30
0.0
 10
63.0406233266
 20
42.726904612
 30
0.0
 10
63.0545517358
 20
42.7254664972
 30
0.0
 10
63.0782512251
 20
42.7235185382
 30
0.0
 10
63.1136294233
 20
42.7214555505
 30
0.0
 10
63.1618727324
 20
42.7195363213
 30
0.0
 10
63.2163703417
 20
42.7181566949
 30
0.0
 10
63.2748401124
 20
42.717377985
 30
0.0
 10
63.3149007464
 20
42.7172792237
 30
0.0
 10
63.3351759039
 20
42.7173405949
 30
0.0
  0
SPLINE
  5
3CC
100
AcDbEntity
  8
RACCORDO
100
AcDbSpline
 62
250
  6
CONTINUOUS
 70
0
 71
3
 72
9
 73
5
 74
0
 42
0.0000001
 43
0.0000001
 44
0.0000000001
 40
0.0
 40
0.0
 40
0.0
 40
0.0
 40
0.250189843
 40
1.0
 40
1.0
 40
1.0
 40
1.0
 10
51.7231104651
 20
22.2821353406
 30
0.0
 10
50.8023721936
 20
22.2821353396
 30
0.0
 10
47.1222137177
 20
22.2822301573
 30
0.0
 10
43.4420552513
 20
22.282706734
 30
0.0
 10
40.6826351062
 20
22.2832819904
 30
0.0
  0
LINE
  5
3CD
100
AcDbEntity
  8
RACCORDO
100
AcDbLine
 62
250
  6
CONTINUOUS
 10
40.6826351062
 20
22.2832819904
 30
0.0
 11
40.4731104651
 21
22.2833275815
 31
0.0
  0
SPLINE
  5
3CE
100
AcDbEntity
  8
RACCORDO
100
AcDbSpline
 62
250
  6
CONTINUOUS
 70
0
 71
3
 72
9
 73
5
 74
0
 42
0.0000001
 43
0.0000001
 44
0.0000000001
 40
0.0
 40
0.0
 40
0.0
 40
0.0
 40
0.2497451975
 40
1.0
 40
1.0
 40
1.0
 40
1.0
 10
40.9123070403
 20
41.9163159628
 30
0.0
 10
41.8122886635
 20
41.9152365081
 30
0.0
 10
45.4158886114
 20
41.9114566067
 30
0.0
 10
49.019490826
 20
41.9098401673
 30
0.0
 10
51.7231104651
 20
41.9098401688
 30
0.0
  0
LINE
  5
3CF
100
AcDbEntity
  8
RACCORDO
100
AcDbLine
 62
250
  6
CONTINUOUS
 10
67.7231104651
 20
21.5986101017
 30
0.0
 11
67.7052207852
 21
22.0304578944
 31
0.0
  0
SPLINE
  5
3D0
100
AcDbEntity
  8
RACCORDO
100
AcDbSpline
 62
250
  6
CONTINUOUS
 70
0
 71
3
 72
9
 73
5
 74
0
 42
0.0000001
 43
0.0000001
 44
0.0000000001
 40
0.0
 40
0.0
 40
0.0
 40
0.0
 40
0.2505265855
 40
1.0
 40
1.0
 40
1.0
 40
1.0
 10
40.4731104651
 20
22.2833275815
 30
0.0
 10
40.1133786943
 20
22.2834105563
 30
0.0
 10
38.6774762402
 20
22.2838780384
 30
0.0
 10
37.2415732209
 20
22.2848807576
 30
0.0
 10
36.1654042648
 20
22.2868939546
 30
0.0
  0
SPLINE
  5
3D1
100
AcDbEntity
  8
RACCORDO
100
AcDbSpline
 62
250
  6
CONTINUOUS
 70
0
 71
3
 72
17
 73
13
 74
0
 42
0.0000001
 43
0.0000001
 44
0.0000000001
 40
0.0
 40
0.0
 40
0.0
 40
0.0
 40
0.1242329797
 40
0.1864935509
 40
0.2488097964
 40
0.3735153447
 40
0.4985725797
 40
0.6239501221
 40
0.6867908433
 40
0.7496393304
 40
0.87505104
 40
1.0
 40
1.0
 40
1.0
 40
1.0
 10
35.701901254
 20
22.2872761227
 30
0.0
 10
35.487322181
 20
22.2866537874
 30
0.0
 10
35.1639635832
 20
22.3171521232
 30
0.0
 10
34.7460902893
 20
22.4194960876
 30
0.0
 10
34.3389240288
 20
22.5613920596
 30
0.0
 10
33.8582956945
 20
22.8135038281
 30
0.0
 10
33.3499100976
 20
23.2216924696
 30
0.0
 10
33.0012721771
 20
23.6405868097
 30
0.0
 10
32.7752446548
 20
24.0113759349
 30
0.0
 10
32.5876325645
 20
24.4031445922
 30
0.0
 10
32.4283564686
 20
24.9240700012
 30
0.0
 10
32.386360485
 20
25.3578046744
 30
0.0
 10
32.3870685549
 20
25.5736201569
 30
0.0
  0
SPLINE
  5
3D2
100
AcDbEntity
  8
RACCORDO
100
AcDbSpline
 62
250
  6
CONTINUOUS
 70
0
 71
3
 72
9
 73
5
 74
0
 42
0.0000001
 43
0.0000001
 44
0.0000000001
 40
0.0
 40
0.0
 40
0.0
 40
0.0
 40
0.2500932426
 40
1.0
 40
1.0
 40
1.0
 40
1.0
 10
40.1019484949
 20
64.5986101017
 30
0.0
 10
40.1019484971
 20
62.7744907057
 30
0.0
 10
40.1026842716
 20
55.480733573
 30
0.0
 10
40.105868436
 20
48.1869760626
 30
0.0
 10
40.1110450263
 20
42.7173406788
 30
0.0
  0
SPLINE
  5
3D3
100
AcDbEntity
  8
RACCORDO
100
AcDbSpline
 62
250
  6
CONTINUOUS
 70
0
 71
3
 72
9
 73
5
 74
0
 42
0.0000001
 43
0.0000001
 44
0.0000000001
 40
0.0
 40
0.0
 40
0.0
 40
0.0
 40
0.2497339966
 40
1.0
 40
1.0
 40
1.0
 40
1.0
 10
40.700380083
 20
107.1704477113
 30
0.0
 10
41.6179635748
 20
107.1706253307
 30
0.0
 10
45.2922070039
 20
107.1712468512
 30
0.0
 10
48.9664504931
 20
107.1715105333
 30
0.0
 10
51.7231104651
 20
107.1715105138
 30
0.0
  0
LINE
  5
3D4
100
AcDbEntity
  8
RACCORDO
100
AcDbLine
 62
250
  6
CONTINUOUS
 10
35.7231104651
 20
107.5986101017
 30
0.0
 11
35.741000145
 21
107.1667623091
 31
0.0
  0
SPLINE
  5
3D5
100
AcDbEntity
  8
RACCORDO
100
AcDbSpline
 62
250
  6
CONTINUOUS
 70
0
 71
3
 72
9
 73
5
 74
0
 42
0.0000001
 43
0.0000001
 44
0.0000000001
 40
0.0
 40
0.0
 40
0.0
 40
0.0
 40
0.2492859812
 40
1.0
 40
1.0
 40
1.0
 40
1.0
 10
36.1999074699
 20
107.1670698556
 30
0.0
 10
36.5564922917
 20
107.1676998301
 30
0.0
 10
37.9869180346
 20
107.1696279237
 30
0.0
 10
39.4173451347
 20
107.1701731802
 30
0.0
 10
40.4911866515
 20
107.1704052838
 30
0.0
  0
LINE
  5
3D6
100
AcDbEntity
  8
RACCORDO
100
AcDbLine
 62
250
  6
CONTINUOUS
 10
71.2819308832
 20
42.2786101017
 30
0.0
 11
71.2819146678
 21
42.1125439536
 31
0.0
  0
LINE
  5
3D7
100
AcDbEntity
  8
RACCORDO
100
AcDbLine
 62
250
  6
CONTINUOUS
 10
40.4911866515
 20
107.1704052838
 30
0.0
 11
40.700380083
 21
107.1704477113
 31
0.0
  0
SPLINE
  5
3D8
100
AcDbEntity
  8
RACCORDO
100
AcDbSpline
 62
250
  6
CONTINUOUS
 70
0
 71
3
 72
9
 73
5
 74
0
 42
0.0000001
 43
0.0000001
 44
0.0000000001
 40
0.0
 40
0.0
 40
0.0
 40
0.0
 40
0.2500985451
 40
1.0
 40
1.0
 40
1.0
 40
1.0
 10
32.1636054239
 20
64.5986101017
 30
0.0
 10
32.1636053669
 20
66.459343278
 30
0.0
 10
32.1636550001
 20
73.8993432801
 30
0.0
 10
32.1637597032
 20
81.3393432989
 30
0.0
 10
32.1642900471
 20
86.9186101018
 30
0.0
  0
LINE
  5
3D9
100
AcDbEntity
  8
RACCORDO
100
AcDbLine
 62
250
  6
CONTINUOUS
 10
32.1642900471
 20
86.9186101018
 30
0.0
 11
32.1643062624
 21
87.0846762498
 31
0.0
  0
SPLINE
  5
3DA
100
AcDbEntity
  8
RACCORDO
100
AcDbSpline
 62
250
  6
CONTINUOUS
 70
0
 71
3
 72
9
 73
5
 74
0
 42
0.0000001
 43
0.0000001
 44
0.0000000001
 40
0.0
 40
0.0
 40
0.0
 40
0.0
 40
0.2505065868
 40
1.0
 40
1.0
 40
1.0
 40
1.0
 10
32.1643062624
 20
87.0846762498
 30
0.0
 10
32.164440916
 20
88.4309599364
 30
0.0
 10
32.1650564931
 20
93.8052045882
 30
0.0
 10
32.1659859469
 20
99.1794492045
 30
0.0
 10
32.1668665155
 20
103.2074101017
 30
0.0
  0
SPLINE
  5
3DB
100
AcDbEntity
  8
RACCORDO
100
AcDbSpline
 62
250
  6
CONTINUOUS
 70
0
 71
3
 72
17
 73
13
 74
0
 42
0.0000001
 43
0.0000001
 44
0.0000000001
 40
0.0
 40
0.0
 40
0.0
 40
0.0
 40
0.1249432068
 40
0.2503521572
 40
0.3132005013
 40
0.3760413095
 40
0.5014189969
 40
0.6264764014
 40
0.75118239
 40
0.8135001267
 40
0.8757618557
 40
1.0
 40
1.0
 40
1.0
 40
1.0
 10
71.0591523753
 20
25.5736201569
 30
0.0
 10
71.0598604522
 20
25.357814347
 30
0.0
 10
71.0178728307
 20
24.9240933471
 30
0.0
 10
70.8586016651
 20
24.4031812354
 30
0.0
 10
70.6709965985
 20
24.0114142133
 30
0.0
 10
70.4449742095
 20
23.6406210904
 30
0.0
 10
70.0963402276
 20
23.2217217059
 30
0.0
 10
69.5879584209
 20
22.8135248145
 30
0.0
 10
69.1073288387
 20
22.5614064504
 30
0.0
 10
68.7001588379
 20
22.4195027461
 30
0.0
 10
68.2822711832
 20
22.3171586868
 30
0.0
 10
67.9589018787
 20
22.2866535953
 30
0.0
 10
67.7443136229
 20
22.2872761366
 30
0.0
  0
SPLINE
  5
3DC
100
AcDbEntity
  8
RACCORDO
100
AcDbSpline
 62
250
  6
CONTINUOUS
 70
0
 71
3
 72
9
 73
5
 74
0
 42
0.0000001
 43
0.0000001
 44
0.0000000001
 40
0.0
 40
0.0
 40
0.0
 40
0.0
 40
0.2492838323
 40
1.0
 40
1.0
 40
1.0
 40
1.0
 10
67.2808166668
 20
22.2868939546
 30
0.0
 10
66.9228699742
 20
22.2862241823
 30
0.0
 10
65.4869686481
 20
22.2841666339
 30
0.0
 10
64.0510657822
 20
22.2835766633
 30
0.0
 10
62.9731104651
 20
22.2833275815
 30
0.0
  0
SPLINE
  5
3DD
100
AcDbEntity
  8
RACCORDO
100
AcDbSpline
 62
250
  6
CONTINUOUS
 70
0
 71
3
 72
9
 73
5
 74
0
 42
0.0000001
 43
0.0000001
 44
0.0000000001
 40
0.0
 40
0.0
 40
0.0
 40
0.0
 40
0.2498500564
 40
1.0
 40
1.0
 40
1.0
 40
1.0
 10
63.335175904
 20
42.7173406788
 30
0.0
 10
63.3369009073
 20
44.5396855264
 30
0.0
 10
63.3424300067
 20
51.8334408049
 30
0.0
 10
63.3442732245
 20
59.1271985011
 30
0.0
 10
63.3442724353
 20
64.5986101017
 30
0.0
  0
SPLINE
  5
3DE
100
AcDbEntity
  8
RACCORDO
100
AcDbSpline
 62
250
  6
CONTINUOUS
 70
0
 71
3
 72
9
 73
5
 74
0
 42
0.0000001
 43
0.0000001
 44
0.0000000001
 40
0.0
 40
0.0
 40
0.0
 40
0.0
 40
0.2501897556
 40
1.0
 40
1.0
 40
1.0
 40
1.0
 10
51.7231104651
 20
107.1715105138
 30
0.0
 10
52.6423685435
 20
107.1715105153
 30
0.0
 10
56.316612024
 20
107.1714226863
 30
0.0
 10
59.9908554962
 20
107.1709810141
 30
0.0
 10
62.7458408472
 20
107.1704477113
 30
0.0
  0
LINE
  5
3DF
100
AcDbEntity
  8
RACCORDO
100
AcDbLine
 62
250
  6
CONTINUOUS
 10
67.7231104651
 20
107.5986101017
 30
0.0
 11
67.7052207852
 21
107.1667623091
 31
0.0
  0
SPLINE
  5
3E0
100
AcDbEntity
  8
RACCORDO
100
AcDbSpline
 62
250
  6
CONTINUOUS
 70
0
 71
3
 72
9
 73
5
 74
0
 42
0.0000001
 43
0.0000001
 44
0.0000000001
 40
0.0
 40
0.0
 40
0.0
 40
0.0
 40
0.2497339966
 40
1.0
 40
1.0
 40
1.0
 40
1.0
 10
62.7458408472
 20
22.0267724922
 30
0.0
 10
61.8282573554
 20
22.0265948728
 30
0.0
 10
58.1540139264
 20
22.0259733523
 30
0.0
 10
54.4797704371
 20
22.0257096702
 30
0.0
 10
51.7231104651
 20
22.0257096897
 30
0.0
  0
LINE
  5
3E1
100
AcDbEntity
  8
RACCORDO
100
AcDbLine
 62
250
  6
CONTINUOUS
 10
62.7458408472
 20
107.1704477113
 30
0.0
 11
62.9550342787
 21
107.1704052838
 31
0.0
  0
SPLINE
  5
3E2
100
AcDbEntity
  8
RACCORDO
100
AcDbSpline
 62
250
  6
CONTINUOUS
 70
0
 71
3
 72
9
 73
5
 74
0
 42
0.0000001
 43
0.0000001
 44
0.0000000001
 40
0.0
 40
0.0
 40
0.0
 40
0.0
 40
0.2505065868
 40
1.0
 40
1.0
 40
1.0
 40
1.0
 10
71.2819146678
 20
42.1125439536
 30
0.0
 10
71.2817800142
 20
40.7662602671
 30
0.0
 10
71.2811644371
 20
35.3920156153
 30
0.0
 10
71.2802349833
 20
30.017770999
 30
0.0
 10
71.2793544147
 20
25.9898101017
 30
0.0
  0
SPLINE
  5
3E3
100
AcDbEntity
  8
RACCORDO
100
AcDbSpline
 62
250
  6
CONTINUOUS
 70
0
 71
3
 72
9
 73
5
 74
0
 42
0.0000001
 43
0.0000001
 44
0.0000000001
 40
0.0
 40
0.0
 40
0.0
 40
0.0
 40
0.2505247584
 40
1.0
 40
1.0
 40
1.0
 40
1.0
 10
62.9550342787
 20
107.1704052838
 30
0.0
 10
63.3133916188
 20
107.1703279057
 30
0.0
 10
64.7438183511
 20
107.1698924755
 30
0.0
 10
66.1742456017
 20
107.1689635727
 30
0.0
 10
67.2463134603
 20
107.1670698556
 30
0.0
  0
LINE
  5
3E4
100
AcDbEntity
  8
RACCORDO
100
AcDbLine
 62
250
  6
CONTINUOUS
 10
40.4731104651
 20
106.9138926219
 30
0.0
 11
40.682635109
 21
106.913938213
 31
0.0
  0
SPLINE
  5
3E5
100
AcDbEntity
  8
RACCORDO
100
AcDbSpline
 62
250
  6
CONTINUOUS
 70
0
 71
3
 72
9
 73
5
 74
0
 42
0.0000001
 43
0.0000001
 44
0.0000000001
 40
0.0
 40
0.0
 40
0.0
 40
0.0
 40
0.2497338739
 40
1.0
 40
1.0
 40
1.0
 40
1.0
 10
40.682635109
 20
106.913938213
 30
0.0
 10
41.6016953216
 20
106.9141298029
 30
0.0
 10
45.2818537369
 20
106.9148002485
 30
0.0
 10
48.962012222
 20
106.9150848911
 30
0.0
 10
51.7231104651
 20
106.9150848629
 30
0.0
  0
SPLINE
  5
3E6
100
AcDbEntity
  8
RACCORDO
100
AcDbSpline
 62
250
  6
CONTINUOUS
 70
0
 71
3
 72
9
 73
5
 74
0
 42
0.0000001
 43
0.0000001
 44
0.0000000001
 40
0.0
 40
0.0
 40
0.0
 40
0.0
 40
0.2501817529
 40
1.0
 40
1.0
 40
1.0
 40
1.0
 10
51.7231104651
 20
87.2873800347
 30
0.0
 10
50.8215550228
 20
87.2873800341
 30
0.0
 10
47.2179531341
 20
87.2868405385
 30
0.0
 10
43.6143515639
 20
87.2841451235
 30
0.0
 10
40.9123070403
 20
87.2809042407
 30
0.0
  0
SPLINE
  5
3E7
100
AcDbEntity
  8
RACCORDO
100
AcDbSpline
 62
250
  6
CONTINUOUS
 70
0
 71
3
 72
17
 73
13
 74
0
 42
0.0000001
 43
0.0000001
 44
0.0000000001
 40
0.0
 40
0.0
 40
0.0
 40
0.0
 40
0.1249432068
 40
0.2503521572
 40
0.3132005013
 40
0.3760413095
 40
0.5014189969
 40
0.6264764014
 40
0.75118239
 40
0.8135001267
 40
0.8757618557
 40
1.0
 40
1.0
 40
1.0
 40
1.0
 10
32.3870685549
 20
103.6236000466
 30
0.0
 10
32.3863604781
 20
103.8394058564
 30
0.0
 10
32.4283480995
 20
104.2731268564
 30
0.0
 10
32.5876192652
 20
104.794038968
 30
0.0
 10
32.7752243317
 20
105.1858059902
 30
0.0
 10
33.0012467207
 20
105.5565991131
 30
0.0
 10
33.3498807026
 20
105.9754984976
 30
0.0
 10
33.8582625093
 20
106.383695389
 30
0.0
 10
34.3388920915
 20
106.6358137531
 30
0.0
 10
34.7460620923
 20
106.7777174573
 30
0.0
 10
35.163949747
 20
106.8800615167
 30
0.0
 10
35.4873190515
 20
106.9105666082
 30
0.0
 10
35.7019073073
 20
106.9099440669
 30
0.0
  0
SPLINE
  5
3E8
100
AcDbEntity
  8
RACCORDO
100
AcDbSpline
 62
250
  6
CONTINUOUS
 70
0
 71
3
 72
9
 73
5
 74
0
 42
0.0000001
 43
0.0000001
 44
0.0000000001
 40
0.0
 40
0.0
 40
0.0
 40
0.0
 40
0.2492838323
 40
1.0
 40
1.0
 40
1.0
 40
1.0
 10
36.1654042635
 20
106.9103262489
 30
0.0
 10
36.5233509561
 20
106.9109960212
 30
0.0
 10
37.9592522821
 20
106.9130535696
 30
0.0
 10
39.395155148
 20
106.9136435402
 30
0.0
 10
40.4731104651
 20
106.9138926219
 30
0.0
  0
SPLINE
  5
3E9
100
AcDbEntity
  8
RACCORDO
100
AcDbSpline
 62
250
  6
CONTINUOUS
 70
0
 71
3
 72
9
 73
5
 74
0
 42
0.0000001
 43
0.0000001
 44
0.0000000001
 40
0.0
 40
0.0
 40
0.0
 40
0.0
 40
0.2498500564
 40
1.0
 40
1.0
 40
1.0
 40
1.0
 10
40.1110450263
 20
86.4798795247
 30
0.0
 10
40.1093200229
 20
84.6575346771
 30
0.0
 10
40.1037909236
 20
77.3637793986
 30
0.0
 10
40.1019477057
 20
70.0700217024
 30
0.0
 10
40.1019484949
 20
64.5986101017
 30
0.0
  0
SPLINE
  5
3EA
100
AcDbEntity
  8
RACCORDO
100
AcDbSpline
 62
250
  6
CONTINUOUS
 70
0
 71
3
 72
9
 73
5
 74
0
 42
0.0000001
 43
0.0000001
 44
0.0000000001
 40
0.0
 40
0.0
 40
0.0
 40
0.0
 40
0.2492859812
 40
1.0
 40
1.0
 40
1.0
 40
1.0
 10
67.2463134603
 20
22.0301503479
 30
0.0
 10
66.8897286385
 20
22.0295203733
 30
0.0
 10
65.4593028957
 20
22.0275922798
 30
0.0
 10
64.0288757955
 20
22.0270470233
 30
0.0
 10
62.9550342787
 20
22.0268149197
 30
0.0
  0
SPLINE
  5
3EB
100
AcDbEntity
  8
RACCORDO
100
AcDbSpline
 62
250
  6
CONTINUOUS
 70
0
 71
3
 72
9
 73
5
 74
0
 42
0.0000001
 43
0.0000001
 44
0.0000000001
 40
0.0
 40
0.0
 40
0.0
 40
0.0
 40
0.2498393538
 40
1.0
 40
1.0
 40
1.0
 40
1.0
 10
71.2819308832
 20
86.9186101018
 30
0.0
 10
71.2821077297
 20
85.0598053164
 30
0.0
 10
71.2825762617
 20
77.6198053227
 30
0.0
 10
71.2826153157
 20
70.1798053133
 30
0.0
 10
71.2826155064
 20
64.5986101017
 30
0.0
  0
SPLINE
  5
3EC
100
AcDbEntity
  8
RACCORDO
100
AcDbSpline
 62
250
  6
CONTINUOUS
 70
0
 71
3
 72
9
 73
5
 74
0
 42
0.0000001
 43
0.0000001
 44
0.0000000001
 40
0.0
 40
0.0
 40
0.0
 40
0.0
 40
0.2494277351
 40
1.0
 40
1.0
 40
1.0
 40
1.0
 10
71.2793544147
 20
103.2074101017
 30
0.0
 10
71.2796474641
 20
101.8669244537
 30
0.0
 10
71.2807404429
 20
96.4926798776
 30
0.0
 10
71.2815112173
 20
91.1184352364
 30
0.0
 10
71.2819146678
 20
87.0846762498
 30
0.0
  0
LINE
  5
3ED
100
AcDbEntity
  8
RACCORDO
100
AcDbLine
 62
250
  6
CONTINUOUS
 10
71.2819146678
 20
87.0846762498
 30
0.0
 11
71.2819308832
 21
86.9186101018
 31
0.0
  0
SPLINE
  5
3EE
100
AcDbEntity
  8
RACCORDO
100
AcDbSpline
 62
250
  6
CONTINUOUS
 70
0
 71
3
 72
9
 73
5
 74
0
 42
0.0000001
 43
0.0000001
 44
0.0000000001
 40
0.0
 40
0.0
 40
0.0
 40
0.0
 40
0.2497451946
 40
1.0
 40
1.0
 40
1.0
 40
1.0
 10
40.9327485075
 20
42.2333242965
 30
0.0
 10
41.8310284068
 20
42.2322527576
 30
0.0
 10
45.4278145475
 20
42.2285005729
 30
0.0
 10
49.0246029261
 20
42.2268960035
 30
0.0
 10
51.7231104651
 20
42.2268960012
 30
0.0
  0
SPLINE
  5
3EF
100
AcDbEntity
  8
RACCORDO
100
AcDbSpline
 62
250
  6
CONTINUOUS
 70
0
 71
3
 72
9
 73
5
 74
0
 42
0.0000001
 43
0.0000001
 44
0.0000000001
 40
0.0
 40
0.0
 40
0.0
 40
0.0
 40
0.2501817548
 40
1.0
 40
1.0
 40
1.0
 40
1.0
 10
51.7231104651
 20
42.2268960012
 30
0.0
 10
52.6229612179
 20
42.2268960016
 30
0.0
 10
56.2197492747
 20
42.2274315388
 30
0.0
 10
59.816537017
 20
42.2301071805
 30
0.0
 10
62.5134724227
 20
42.2333242965
 30
0.0
  0
SPLINE
  5
3F0
100
AcDbEntity
  8
RACCORDO
100
AcDbSpline
 62
250
  6
CONTINUOUS
 70
0
 71
3
 72
9
 73
5
 74
0
 42
0.0000001
 43
0.0000001
 44
0.0000000001
 40
0.0
 40
0.0
 40
0.0
 40
0.0
 40
0.2498500638
 40
1.0
 40
1.0
 40
1.0
 40
1.0
 10
40.4330405072
 20
86.4637562121
 30
0.0
 10
40.4313275488
 20
84.6427541056
 30
0.0
 10
40.4258311511
 20
77.3543732524
 30
0.0
 10
40.423997924
 20
70.0659900078
 30
0.0
 10
40.4239972228
 20
64.5986101017
 30
0.0
  0
SPLINE
  5
3F1
100
AcDbEntity
  8
RACCORDO
100
AcDbSpline
 62
250
  6
CONTINUOUS
 70
0
 71
3
 72
9
 73
5
 74
0
 42
0.0000001
 43
0.0000001
 44
0.0000000001
 40
0.0
 40
0.0
 40
0.0
 40
0.0
 40
0.2500932286
 40
1.0
 40
1.0
 40
1.0
 40
1.0
 10
40.4239972228
 20
64.5986101017
 30
0.0
 10
40.4239972209
 20
62.7758349203
 30
0.0
 10
40.4247289805
 20
55.4874522319
 30
0.0
 10
40.4278983977
 20
48.1990691747
 30
0.0
 10
40.4330405072
 20
42.7334639914
 30
0.0
  0
SPLINE
  5
3F2
100
AcDbEntity
  8
RACCORDO
100
AcDbSpline
 62
250
  6
CONTINUOUS
 70
0
 71
3
 72
9
 73
5
 74
0
 42
0.0000001
 43
0.0000001
 44
0.0000000001
 40
0.0
 40
0.0
 40
0.0
 40
0.0
 40
0.2497451946
 40
1.0
 40
1.0
 40
1.0
 40
1.0
 10
62.5134724227
 20
86.963895907
 30
0.0
 10
61.6151925235
 20
86.9649674458
 30
0.0
 10
58.0184063827
 20
86.9687196305
 30
0.0
 10
54.4216180042
 20
86.9703242
 30
0.0
 10
51.7231104651
 20
86.9703242023
 30
0.0
  0
SPLINE
  5
3F3
100
AcDbEntity
  8
RACCORDO
100
AcDbSpline
 62
250
  6
CONTINUOUS
 70
0
 71
3
 72
9
 73
5
 74
0
 42
0.0000001
 43
0.0000001
 44
0.0000000001
 40
0.0
 40
0.0
 40
0.0
 40
0.0
 40
0.2501817548
 40
1.0
 40
1.0
 40
1.0
 40
1.0
 10
51.7231104651
 20
86.9703242023
 30
0.0
 10
50.8232597124
 20
86.9703242019
 30
0.0
 10
47.2264716555
 20
86.9697886647
 30
0.0
 10
43.6296839132
 20
86.967113023
 30
0.0
 10
40.9327485075
 20
86.963895907
 30
0.0
  0
SPLINE
  5
3F4
100
AcDbEntity
  8
RACCORDO
100
AcDbSpline
 62
250
  6
CONTINUOUS
 70
0
 71
3
 72
9
 73
5
 74
0
 42
0.0000001
 43
0.0000001
 44
0.0000000001
 40
0.0
 40
0.0
 40
0.0
 40
0.0
 40
0.2498500638
 40
1.0
 40
1.0
 40
1.0
 40
1.0
 10
63.013180423
 20
42.7334639914
 30
0.0
 10
63.0148933814
 20
44.5544660979
 30
0.0
 10
63.0203897792
 20
51.8428469511
 30
0.0
 10
63.0222230062
 20
59.1312301957
 30
0.0
 10
63.0222237074
 20
64.5986101017
 30
0.0
  0
SPLINE
  5
3F5
100
AcDbEntity
  8
RACCORDO
100
AcDbSpline
 62
250
  6
CONTINUOUS
 70
0
 71
3
 72
9
 73
5
 74
0
 42
0.0000001
 43
0.0000001
 44
0.0000000001
 40
0.0
 40
0.0
 40
0.0
 40
0.0
 40
0.2500932286
 40
1.0
 40
1.0
 40
1.0
 40
1.0
 10
63.0222237074
 20
64.5986101017
 30
0.0
 10
63.0222237094
 20
66.4213852832
 30
0.0
 10
63.0214919497
 20
73.7097679716
 30
0.0
 10
63.0183225325
 20
80.9981510288
 30
0.0
 10
63.013180423
 20
86.4637562121
 30
0.0
  0
SPLINE
  5
3F6
100
AcDbEntity
  8
0
100
AcDbSpline
 62
7
  6
CONTINUOUS
 70
0
 71
3
 72
9
 73
5
 74
0
 42
0.0000001
 43
0.0000001
 44
0.0000000001
 40
0.0
 40
0.0
 40
0.0
 40
0.0
 40
0.5
 40
1.0
 40
1.0
 40
1.0
 40
1.0
 10
115.1294613436
 20
64.5986101017
 30
0.0
 10
115.1294613436
 20
60.8711212728
 30
0.0
 10
115.0467455881
 20
53.4102393762
 30
0.0
 10
114.7896068503
 20
45.9775062559
 30
0.0
 10
114.5812139964
 20
42.2786101017
 30
0.0
  0
SPLINE
  5
3F7
100
AcDbEntity
  8
0
100
AcDbSpline
 62
7
  6
CONTINUOUS
 70
0
 71
3
 72
9
 73
5
 74
0
 42
0.0000001
 43
0.0000001
 44
0.0000000001
 40
0.0
 40
0.0
 40
0.0
 40
0.0
 40
0.5
 40
1.0
 40
1.0
 40
1.0
 40
1.0
 10
115.1294613436
 20
64.5986101017
 30
0.0
 10
115.1294613436
 20
68.3260989307
 30
0.0
 10
115.0467455881
 20
75.7869808273
 30
0.0
 10
114.7896068503
 20
83.2197139476
 30
0.0
 10
114.5812139964
 20
86.9186101018
 30
0.0
  0
SPLINE
  5
3F8
100
AcDbEntity
  8
SUPERFICI
100
AcDbSpline
 62
7
  6
CONTINUOUS
 70
0
 71
3
 72
13
 73
9
 74
0
 42
0.0000001
 43
0.0000001
 44
0.0000000001
 40
0.0
 40
0.0
 40
0.0
 40
0.0
 40
0.3434076026
 40
0.6321884882
 40
0.7527363539
 40
0.8546352657
 40
0.9369766833
 40
1.0
 40
1.0
 40
1.0
 40
1.0
 10
112.9880143191
 20
105.3138692301
 30
0.0
 10
112.9880251997
 20
105.5681447014
 30
0.0
 10
113.000031207
 20
106.0363218338
 30
0.0
 10
113.0485202573
 20
106.5922202212
 30
0.0
 10
113.1085144727
 20
106.9661095928
 30
0.0
 10
113.1573232384
 20
107.1866909349
 30
0.0
 10
113.211636832
 20
107.3616702826
 30
0.0
 10
113.2563121555
 20
107.4604030252
 30
0.0
 10
113.280973325
 20
107.500019872
 30
0.0
  0
SPLINE
  5
3F9
100
AcDbEntity
  8
SUPERFICI
100
AcDbSpline
 62
7
  6
CONTINUOUS
 70
0
 71
3
 72
11
 73
7
 74
0
 42
0.0000001
 43
0.0000001
 44
0.0000000001
 40
0.0
 40
0.0
 40
0.0
 40
0.0
 40
0.3168113689
 40
0.580390295
 40
0.8018511372
 40
1.0
 40
1.0
 40
1.0
 40
1.0
 10
113.280973325
 20
107.500019872
 30
0.0
 10
113.2903155964
 20
107.5150277301
 30
0.0
 10
113.3089362522
 20
107.5416710008
 30
0.0
 10
113.3405555529
 20
107.5737397606
 30
0.0
 10
113.3735551833
 20
107.593866895
 30
0.0
 10
113.3971371359
 20
107.5986101017
 30
0.0
 10
113.4081938341
 20
107.5986101017
 30
0.0
  0
SPLINE
  5
3FA
100
AcDbEntity
  8
0
100
AcDbSpline
 62
7
  6
CONTINUOUS
 70
0
 71
3
 72
13
 73
9
 74
0
 42
0.0000001
 43
0.0000001
 44
0.0000000001
 40
0.0
 40
0.0
 40
0.0
 40
0.0
 40
0.3434076026
 40
0.6321884882
 40
0.7527363539
 40
0.8546352657
 40
0.9369766833
 40
1.0
 40
1.0
 40
1.0
 40
1.0
 10
112.9880143191
 20
23.8833509734
 30
0.0
 10
112.9880251997
 20
23.6290755021
 30
0.0
 10
113.000031207
 20
23.1608983697
 30
0.0
 10
113.0485202573
 20
22.6049999823
 30
0.0
 10
113.1085144727
 20
22.2311106107
 30
0.0
 10
113.1573232384
 20
22.0105292686
 30
0.0
 10
113.211636832
 20
21.8355499209
 30
0.0
 10
113.2563121555
 20
21.7368171782
 30
0.0
 10
113.280973325
 20
21.6972003315
 30
0.0
  0
SPLINE
  5
3FB
100
AcDbEntity
  8
0
100
AcDbSpline
 62
7
  6
CONTINUOUS
 70
0
 71
3
 72
11
 73
7
 74
0
 42
0.0000001
 43
0.0000001
 44
0.0000000001
 40
0.0
 40
0.0
 40
0.0
 40
0.0
 40
0.3168113689
 40
0.580390295
 40
0.8018511372
 40
1.0
 40
1.0
 40
1.0
 40
1.0
 10
113.280973325
 20
21.6972003315
 30
0.0
 10
113.2903155964
 20
21.6821924734
 30
0.0
 10
113.3089362522
 20
21.6555492026
 30
0.0
 10
113.3405555529
 20
21.6234804429
 30
0.0
 10
113.3735551833
 20
21.6033533085
 30
0.0
 10
113.3971371359
 20
21.5986101017
 30
0.0
 10
113.4081938341
 20
21.5986101017
 30
0.0
  0
SPLINE
  5
3FC
100
AcDbEntity
  8
0
100
AcDbSpline
 62
7
  6
CONTINUOUS
 70
0
 71
3
 72
11
 73
7
 74
0
 42
0.0000001
 43
0.0000001
 44
0.0000000001
 40
0.0
 40
0.0
 40
0.0
 40
0.0
 40
0.37133306
 40
0.6677550053
 40
0.8786644473
 40
1.0
 40
1.0
 40
1.0
 40
1.0
 10
119.3794981411
 20
38.868192801
 30
0.0
 10
119.3791104904
 20
38.8719228915
 30
0.0
 10
119.3783219803
 20
38.87859791
 30
0.0
 10
119.3768058346
 20
38.8874323087
 30
0.0
 10
119.3751733482
 20
38.8933952698
 30
0.0
 10
119.3735400689
 20
38.8966874508
 30
0.0
 10
119.3724622757
 20
38.8972705097
 30
0.0
  0
SPLINE
  5
3FD
100
AcDbEntity
  8
RACCORDO
100
AcDbSpline
 62
7
  6
CONTINUOUS
 70
0
 71
3
 72
9
 73
5
 74
0
 42
0.0000001
 43
0.0000001
 44
0.0000000001
 40
0.0
 40
0.0
 40
0.0
 40
0.0
 40
0.5000010327
 40
1.0
 40
1.0
 40
1.0
 40
1.0
 10
110.0542414127
 20
23.0327661115
 30
0.0
 10
110.0572402288
 20
23.0089786701
 30
0.0
 10
110.0749580205
 20
22.9621001138
 30
0.0
 10
110.11279629
 20
22.9292412649
 30
0.0
 10
110.1340713417
 20
22.918186732
 30
0.0
  0
SPLINE
  5
3FE
100
AcDbEntity
  8
RACCORDO
100
AcDbSpline
 62
7
  6
CONTINUOUS
 70
0
 71
3
 72
9
 73
5
 74
0
 42
0.0000001
 43
0.0000001
 44
0.0000000001
 40
0.0
 40
0.0
 40
0.0
 40
0.0
 40
0.5000010405
 40
1.0
 40
1.0
 40
1.0
 40
1.0
 10
110.0542414133
 20
106.1644540959
 30
0.0
 10
110.0572402311
 20
106.1882415448
 30
0.0
 10
110.0749580331
 20
106.2351201147
 30
0.0
 10
110.1127963233
 20
106.2679789648
 30
0.0
 10
110.1340713847
 20
106.2790334938
 30
0.0
  0
SPLINE
  5
3FF
100
AcDbEntity
  8
SUPERFICI
100
AcDbSpline
 62
7
  6
CONTINUOUS
 70
0
 71
3
 72
9
 73
5
 74
0
 42
0.0000001
 43
0.0000001
 44
0.0000000001
 40
0.0
 40
0.0
 40
0.0
 40
0.0
 40
0.5133632236
 40
1.0
 40
1.0
 40
1.0
 40
1.0
 10
113.0770451929
 20
103.5986101017
 30
0.0
 10
113.047678061
 20
103.8911403674
 30
0.0
 10
113.004331857
 20
104.4624309402
 30
0.0
 10
112.9880023936
 20
105.035174684
 30
0.0
 10
112.9880143191
 20
105.3138692301
 30
0.0
  0
SPLINE
  5
400
100
AcDbEntity
  8
RACCORDO
100
AcDbSpline
 62
250
  6
CONTINUOUS
 70
0
 71
3
 72
21
 73
17
 74
0
 42
0.0000001
 43
0.0000001
 44
0.0000000001
 40
0.0
 40
0.0
 40
0.0
 40
0.0
 40
0.1912723081
 40
0.3752064405
 40
0.544570832
 40
0.6930381598
 40
0.7576368862
 40
0.8151343813
 40
0.8651204828
 40
0.9071616223
 40
0.9411161585
 40
0.967146899
 40
0.9773752795
 40
0.9859751629
 40
0.9933198087
 40
1.0
 40
1.0
 40
1.0
 40
1.0
 10
116.2308796626
 20
103.5923069327
 30
0.0
 10
116.20439224
 20
103.8243134275
 30
0.0
 10
116.1625901878
 20
104.2806516097
 30
0.0
 10
116.1320145607
 20
104.9450279688
 30
0.0
 10
116.1337448153
 20
105.5578396406
 30
0.0
 10
116.1595268011
 20
106.0243278144
 30
0.0
 10
116.1947462605
 20
106.352826511
 30
0.0
 10
116.2251909206
 20
106.5607591036
 30
0.0
 10
116.259766138
 20
106.7400666463
 30
0.0
 10
116.2979085472
 20
106.8892360289
 30
0.0
 10
116.3388682573
 20
107.0069717176
 30
0.0
 10
116.3770265564
 20
107.084354126
 30
0.0
 10
116.4100775111
 20
107.1282520463
 30
0.0
 10
116.4335823543
 20
107.1502251912
 30
0.0
 10
116.4580452211
 20
107.1638225502
 30
0.0
 10
116.475318003
 20
107.1668563212
 30
0.0
 10
116.483473101
 20
107.1667784838
 30
0.0
  0
SPLINE
  5
401
100
AcDbEntity
  8
RACCORDO
100
AcDbSpline
 62
250
  6
CONTINUOUS
 70
0
 71
3
 72
9
 73
5
 74
0
 42
0.0000001
 43
0.0000001
 44
0.0000000001
 40
0.0
 40
0.0
 40
0.0
 40
0.0
 40
0.5000053986
 40
1.0
 40
1.0
 40
1.0
 40
1.0
 10
118.2637458359
 20
64.5986101017
 30
0.0
 10
118.2637442344
 20
68.3200735036
 30
0.0
 10
118.1818338936
 20
75.7629120064
 30
0.0
 10
117.927193797
 20
83.2029788521
 30
0.0
 10
117.7203698359
 20
86.9186101018
 30
0.0
  0
LINE
  5
402
100
AcDbEntity
  8
RACCORDO
100
AcDbLine
 62
250
  6
CONTINUOUS
 10
117.7203698359
 20
86.9186101018
 30
0.0
 11
117.7110730385
 21
87.0846762498
 31
0.0
  0
SPLINE
  5
403
100
AcDbEntity
  8
RACCORDO
100
AcDbSpline
 62
250
  6
CONTINUOUS
 70
0
 71
3
 72
8
 73
4
 74
0
 42
0.0000001
 43
0.0000001
 44
0.0000000001
 40
0.0
 40
0.0
 40
0.0
 40
0.0
 40
1.0
 40
1.0
 40
1.0
 40
1.0
 10
110.1658680411
 20
64.5986101017
 30
0.0
 10
110.1658680369
 20
72.0971676899
 30
0.0
 10
110.1652492629
 20
79.5957257354
 30
0.0
 10
110.161687793
 20
87.0942824778
 30
0.0
  0
SPLINE
  5
404
100
AcDbEntity
  8
RACCORDO
100
AcDbSpline
 62
250
  6
CONTINUOUS
 70
0
 71
3
 72
11
 73
7
 74
0
 42
0.0000001
 43
0.0000001
 44
0.0000000001
 40
0.0
 40
0.0
 40
0.0
 40
0.0
 40
0.2500000164
 40
0.5000000194
 40
0.7500000196
 40
1.0
 40
1.0
 40
1.0
 40
1.0
 10
110.161687793
 20
87.0942824778
 30
0.0
 10
110.1610472966
 20
88.4424066277
 30
0.0
 10
110.1593374342
 20
91.1386546688
 30
0.0
 10
110.1553038424
 20
95.1830255423
 30
0.0
 10
110.1505021957
 20
99.2273949445
 30
0.0
 10
110.147517429
 20
101.9236423648
 30
0.0
 10
110.1445610115
 20
103.2717632312
 30
0.0
  0
SPLINE
  5
405
100
AcDbEntity
  8
RACCORDO
100
AcDbSpline
 62
250
  6
CONTINUOUS
 70
0
 71
3
 72
29
 73
25
 74
0
 42
0.0000001
 43
0.0000001
 44
0.0000000001
 40
0.0
 40
0.0
 40
0.0
 40
0.0
 40
0.1949407746
 40
0.3824111017
 40
0.4711005581
 40
0.5552654941
 40
0.6340890425
 40
0.7068060437
 40
0.7727104604
 40
0.8311716016
 40
0.8816280967
 40
0.9037033528
 40
0.9236090316
 40
0.9413038949
 40
0.956745716
 40
0.9698909611
 40
0.9806965716
 40
0.9891246845
 40
0.9924380152
 40
0.9951488596
 40
0.9972568645
 40
0.9987634244
 40
0.9996745906
 40
1.0
 40
1.0
 40
1.0
 40
1.0
 10
110.1438367073
 20
103.5985795906
 30
0.0
 10
110.1434490884
 20
103.773194386
 30
0.0
 10
110.1428981627
 20
104.1157328813
 30
0.0
 10
110.1423694276
 20
104.5377137499
 30
0.0
 10
110.1423167519
 20
104.8604691562
 30
0.0
 10
110.1424573839
 20
105.085905808
 30
0.0
 10
110.1427271112
 20
105.2970352441
 30
0.0
 10
110.143131614
 20
105.4918078695
 30
0.0
 10
110.1436976837
 20
105.668340694
 30
0.0
 10
110.1443544281
 20
105.8249335274
 30
0.0
 10
110.1449561472
 20
105.9422668865
 30
0.0
 10
110.1454727443
 20
106.0250647269
 30
0.0
 10
110.1458559283
 20
106.0785169866
 30
0.0
 10
110.146246406
 20
106.1260274742
 30
0.0
 10
110.1466393462
 20
106.1674813671
 30
0.0
 10
110.1470231488
 20
106.2027664101
 30
0.0
 10
110.1474007638
 20
106.2317621531
 30
0.0
 10
110.1477060535
 20
106.251967044
 30
0.0
 10
110.1479777036
 20
106.2648929726
 30
0.0
 10
110.1481173781
 20
106.27221083
 30
0.0
 10
110.1483708205
 20
106.2777823831
 30
0.0
 10
110.1483409683
 20
106.2820413544
 30
0.0
 10
110.1488331289
 20
106.2841238282
 30
0.0
 10
110.1485907364
 20
106.2856236824
 30
0.0
 10
110.1488622607
 20
106.2857296799
 30
0.0
  0
SPLINE
  5
406
100
AcDbEntity
  8
SUPERFICI
100
AcDbSpline
 62
7
  6
CONTINUOUS
 70
0
 71
3
 72
9
 73
5
 74
0
 42
0.0000001
 43
0.0000001
 44
0.0000000001
 40
0.0
 40
0.0
 40
0.0
 40
0.0
 40
0.5049314255
 40
1.0
 40
1.0
 40
1.0
 40
1.0
 10
113.076735036
 20
103.5975935103
 30
0.0
 10
113.047955059
 20
103.8818677647
 30
0.0
 10
113.0046190086
 20
104.4463058593
 30
0.0
 10
112.9879884058
 20
105.0122290024
 30
0.0
 10
112.9879934338
 20
105.2923752604
 30
0.0
  0
SPLINE
  5
407
100
AcDbEntity
  8
RACCORDO
100
AcDbSpline
 62
250
  6
CONTINUOUS
 70
0
 71
3
 72
12
 73
8
 74
0
 42
0.0000001
 43
0.0000001
 44
0.0000000001
 40
0.0
 40
0.0
 40
0.0
 40
0.0
 40
0.0930308779
 40
0.1750414014
 40
0.2842998698
 40
0.5865475073
 40
1.0
 40
1.0
 40
1.0
 40
1.0
 10
119.1546201176
 20
87.2809042407
 30
0.0
 10
119.152033822
 20
87.2808584479
 30
0.0
 10
119.148468847
 20
87.2759337644
 30
0.0
 10
119.1457430654
 20
87.2689330591
 30
0.0
 10
119.1419406495
 20
87.2555272224
 30
0.0
 10
119.1382390004
 20
87.2329856799
 30
0.0
 10
119.1360782682
 20
87.2131560427
 30
0.0
 10
119.1350466829
 20
87.2017064747
 30
0.0
  0
SPLINE
  5
408
100
AcDbEntity
  8
RACCORDO
100
AcDbSpline
 62
250
  6
CONTINUOUS
 70
0
 71
3
 72
21
 73
17
 74
0
 42
0.0000001
 43
0.0000001
 44
0.0000000001
 40
0.0
 40
0.0
 40
0.0
 40
0.0
 40
0.1914992751
 40
0.3755004269
 40
0.5446071036
 40
0.6924972399
 40
0.7567287111
 40
0.8138632074
 40
0.8635341095
 40
0.9053562966
 40
0.9392589809
 40
0.9655011153
 40
0.9759732023
 40
0.9849289609
 40
0.9927493115
 40
1.0
 40
1.0
 40
1.0
 40
1.0
 10
116.4771023955
 20
103.6236000466
 30
0.0
 10
116.4505096857
 20
103.8378071294
 30
0.0
 10
116.4086310523
 20
104.2591835285
 30
0.0
 10
116.3784866647
 20
104.872579526
 30
0.0
 10
116.3810839966
 20
105.4375430383
 30
0.0
 10
116.4077933118
 20
105.8667713849
 30
0.0
 10
116.443921619
 20
106.1681827395
 30
0.0
 10
116.474883968
 20
106.3585374444
 30
0.0
 10
116.5099974956
 20
106.5224208659
 30
0.0
 10
116.5487142999
 20
106.6585397444
 30
0.0
 10
116.5901880485
 20
106.7658554241
 30
0.0
 10
116.6287667132
 20
106.8361439729
 30
0.0
 10
116.6619917294
 20
106.8757064772
 30
0.0
 10
116.6857424679
 20
106.8955209659
 30
0.0
 10
116.7103564445
 20
106.9075799619
 30
0.0
 10
116.7275052764
 20
106.9101003443
 30
0.0
 10
116.7356765106
 20
106.9099440669
 30
0.0
  0
SPLINE
  5
409
100
AcDbEntity
  8
RACCORDO
100
AcDbSpline
 62
250
  6
CONTINUOUS
 70
0
 71
3
 72
9
 73
5
 74
0
 42
0.0000001
 43
0.0000001
 44
0.0000000001
 40
0.0
 40
0.0
 40
0.0
 40
0.0
 40
0.4705870183
 40
1.0
 40
1.0
 40
1.0
 40
1.0
 10
119.1275842584
 20
86.9756482178
 30
0.0
 10
119.1274766629
 20
86.8978402662
 30
0.0
 10
119.1304584209
 20
86.7324945854
 30
0.0
 10
119.1374802171
 20
86.5672870674
 30
0.0
 10
119.1421921824
 20
86.4798795247
 30
0.0
  0
SPLINE
  5
40A
100
AcDbEntity
  8
RACCORDO
100
AcDbSpline
 62
250
  6
CONTINUOUS
 70
0
 71
3
 72
10
 73
6
 74
0
 42
0.0000001
 43
0.0000001
 44
0.0000000001
 40
0.0
 40
0.0
 40
0.0
 40
0.0
 40
0.2500016662
 40
0.5000029774
 40
1.0
 40
1.0
 40
1.0
 40
1.0
 10
119.1870165114
 20
85.6228050543
 30
0.0
 10
119.272498815
 20
83.9375280462
 30
0.0
 10
119.4123874947
 20
80.5653533506
 30
0.0
 10
119.5965398497
 20
73.8180363127
 30
0.0
 10
119.6549126928
 20
68.7556212322
 30
0.0
 10
119.6601093651
 20
65.3807806729
 30
0.0
  0
SPLINE
  5
40B
100
AcDbEntity
  8
RACCORDO
100
AcDbSpline
 62
250
  6
CONTINUOUS
 70
0
 71
3
 72
9
 73
5
 74
0
 42
0.0000001
 43
0.0000001
 44
0.0000000001
 40
0.0
 40
0.0
 40
0.0
 40
0.0
 40
0.5000278873
 40
1.0
 40
1.0
 40
1.0
 40
1.0
 10
118.5120378175
 20
64.5986101017
 30
0.0
 10
118.5120378175
 20
68.3225379081
 30
0.0
 10
118.4300011767
 20
75.7699695696
 30
0.0
 10
118.1751004073
 20
83.2146267796
 30
0.0
 10
117.9680358748
 20
86.9323773202
 30
0.0
  0
LINE
  5
40C
100
AcDbEntity
  8
RACCORDO
100
AcDbLine
 62
250
  6
CONTINUOUS
 10
113.4081938341
 20
21.5986101017
 30
0.0
 11
116.4835882862
 21
22.0304578944
 31
0.0
  0
SPLINE
  5
40D
100
AcDbEntity
  8
RACCORDO
100
AcDbSpline
 62
250
  6
CONTINUOUS
 70
0
 71
3
 72
21
 73
17
 74
0
 42
0.0000001
 43
0.0000001
 44
0.0000000001
 40
0.0
 40
0.0
 40
0.0
 40
0.0
 40
0.0066798203
 40
0.014023873
 40
0.0226234186
 40
0.0328505798
 40
0.058880733
 40
0.0928335617
 40
0.1348733983
 40
0.1848584557
 40
0.2423548444
 40
0.3069526233
 40
0.4554182475
 40
0.6247815497
 40
0.8087192605
 40
1.0
 40
1.0
 40
1.0
 40
1.0
 10
116.483473101
 20
22.0304417197
 30
0.0
 10
116.475318456
 20
22.0303638874
 30
0.0
 10
116.458046815
 20
22.0333964976
 30
0.0
 10
116.4335846606
 20
22.0469925387
 30
0.0
 10
116.4100841344
 20
22.0689661731
 30
0.0
 10
116.3770274974
 20
22.1128561325
 30
0.0
 10
116.3388750799
 20
22.1902380598
 30
0.0
 10
116.2979128859
 20
22.3079672737
 30
0.0
 10
116.2597711543
 20
22.4571321677
 30
0.0
 10
116.2251954072
 20
22.6364351408
 30
0.0
 10
116.1947497713
 20
22.8443638267
 30
0.0
 10
116.1595295781
 20
23.1728578116
 30
0.0
 10
116.1337459345
 20
23.63934132
 30
0.0
 10
116.1320135602
 20
24.2521539417
 30
0.0
 10
116.1625881757
 20
24.9165437098
 30
0.0
 10
116.2043913034
 20
25.3728965254
 30
0.0
 10
116.2308796626
 20
25.6049132708
 30
0.0
  0
SPLINE
  5
40E
100
AcDbEntity
  8
0
100
AcDbSpline
 62
7
  6
CONTINUOUS
 70
0
 71
3
 72
9
 73
5
 74
0
 42
0.0000001
 43
0.0000001
 44
0.0000000001
 40
0.0
 40
0.0
 40
0.0
 40
0.0
 40
0.5133632236
 40
1.0
 40
1.0
 40
1.0
 40
1.0
 10
113.0770451929
 20
25.5986101017
 30
0.0
 10
113.047678061
 20
25.3060798361
 30
0.0
 10
113.004331857
 20
24.7347892633
 30
0.0
 10
112.9880023936
 20
24.1620455195
 30
0.0
 10
112.9880143191
 20
23.8833509734
 30
0.0
  0
SPLINE
  5
40F
100
AcDbEntity
  8
RACCORDO
100
AcDbSpline
 62
250
  6
CONTINUOUS
 70
0
 71
3
 72
9
 73
5
 74
0
 42
0.0000001
 43
0.0000001
 44
0.0000000001
 40
0.0
 40
0.0
 40
0.0
 40
0.0
 40
0.4999942631
 40
1.0
 40
1.0
 40
1.0
 40
1.0
 10
117.7203698359
 20
42.2786101017
 30
0.0
 10
117.92718934
 20
45.9942390312
 30
0.0
 10
118.1818131869
 20
53.4343060668
 30
0.0
 10
118.2637480123
 20
60.8771442271
 30
0.0
 10
118.2637458359
 20
64.5986101017
 30
0.0
  0
LINE
  5
410
100
AcDbEntity
  8
RACCORDO
100
AcDbLine
 62
250
  6
CONTINUOUS
 10
117.7110730385
 20
42.1125439536
 30
0.0
 11
117.7203698359
 21
42.2786101017
 31
0.0
  0
SPLINE
  5
411
100
AcDbEntity
  8
RACCORDO
100
AcDbSpline
 62
250
  6
CONTINUOUS
 70
0
 71
3
 72
8
 73
4
 74
0
 42
0.0000001
 43
0.0000001
 44
0.0000000001
 40
0.0
 40
0.0
 40
0.0
 40
0.0
 40
1.0
 40
1.0
 40
1.0
 40
1.0
 10
110.161687793
 20
42.1029377257
 30
0.0
 10
110.1652492634
 20
49.6014944681
 30
0.0
 10
110.1658680347
 20
57.1000525136
 30
0.0
 10
110.1658680411
 20
64.5986101017
 30
0.0
  0
SPLINE
  5
412
100
AcDbEntity
  8
RACCORDO
100
AcDbSpline
 62
250
  6
CONTINUOUS
 70
0
 71
3
 72
11
 73
7
 74
0
 42
0.0000001
 43
0.0000001
 44
0.0000000001
 40
0.0
 40
0.0
 40
0.0
 40
0.0
 40
0.2499999805
 40
0.4999999806
 40
0.7499999837
 40
1.0
 40
1.0
 40
1.0
 40
1.0
 10
110.1445610115
 20
25.9254569723
 30
0.0
 10
110.1475173982
 20
27.2735778392
 30
0.0
 10
110.1505021875
 20
29.9698252598
 30
0.0
 10
110.1553038433
 20
34.014194662
 30
0.0
 10
110.1593374324
 20
38.0585655352
 30
0.0
 10
110.1610472966
 20
40.754813576
 30
0.0
 10
110.161687793
 20
42.1029377257
 30
0.0
  0
SPLINE
  5
413
100
AcDbEntity
  8
RACCORDO
100
AcDbSpline
 62
250
  6
CONTINUOUS
 70
0
 71
3
 72
29
 73
25
 74
0
 42
0.0000001
 43
0.0000001
 44
0.0000000001
 40
0.0
 40
0.0
 40
0.0
 40
0.0
 40
0.0003249917
 40
0.0012357312
 40
0.0027427369
 40
0.0048506385
 40
0.0075609738
 40
0.0108745802
 40
0.0193026569
 40
0.0301092475
 40
0.0432556657
 40
0.0586994018
 40
0.0763970478
 40
0.0963061292
 40
0.1183853152
 40
0.1688533327
 40
0.2273262734
 40
0.293242344
 40
0.3659644844
 40
0.4447879886
 40
0.528947518
 40
0.6176295396
 40
0.8050874305
 40
1.0
 40
1.0
 40
1.0
 40
1.0
 10
110.1488622604
 20
22.9114905153
 30
0.0
 10
110.1485909696
 20
22.9115960814
 30
0.0
 10
110.1488329393
 20
22.9130954518
 30
0.0
 10
110.1483409248
 20
22.9151770395
 30
0.0
 10
110.1483708784
 20
22.9194363529
 30
0.0
 10
110.1481174556
 20
22.9250075908
 30
0.0
 10
110.1479777912
 20
22.9323252067
 30
0.0
 10
110.1477059894
 20
22.9452508592
 30
0.0
 10
110.14740087
 20
22.9654568671
 30
0.0
 10
110.1470230801
 20
22.9944544948
 30
0.0
 10
110.1466393096
 20
23.0297431863
 30
0.0
 10
110.1462461693
 20
23.0712023355
 30
0.0
 10
110.1458559118
 20
23.1187200819
 30
0.0
 10
110.1454731111
 20
23.1721814052
 30
0.0
 10
110.1449548627
 20
23.2549961259
 30
0.0
 10
110.1443564031
 20
23.3723539135
 30
0.0
 10
110.1436940921
 20
23.5289780551
 30
0.0
 10
110.1431355585
 20
23.7055365168
 30
0.0
 10
110.1427219849
 20
23.9003241263
 30
0.0
 10
110.1424607248
 20
24.1114532989
 30
0.0
 10
110.1423153705
 20
24.3368784058
 30
0.0
 10
110.1423704147
 20
24.6596111754
 30
0.0
 10
110.1428979975
 20
25.0815489841
 30
0.0
 10
110.1434490752
 20
25.42405108
 30
0.0
 10
110.1438367073
 20
25.5986406129
 30
0.0
  0
SPLINE
  5
414
100
AcDbEntity
  8
RACCORDO
100
AcDbSpline
 62
250
  6
CONTINUOUS
 70
0
 71
3
 72
11
 73
7
 74
0
 42
0.0000001
 43
0.0000001
 44
0.0000000001
 40
0.0
 40
0.0
 40
0.0
 40
0.0
 40
0.2490150976
 40
0.4986466406
 40
0.749031019
 40
1.0
 40
1.0
 40
1.0
 40
1.0
 10
116.5500116363
 20
22.0301503479
 30
0.0
 10
116.5816465144
 20
22.0346888176
 30
0.0
 10
116.6439652937
 20
22.0543396991
 30
0.0
 10
116.7228408455
 20
22.1121240162
 30
0.0
 10
116.7794708376
 20
22.1921205131
 30
0.0
 10
116.798450377
 20
22.2549715431
 30
0.0
 10
116.8027415181
 20
22.2868939546
 30
0.0
  0
SPLINE
  5
415
100
AcDbEntity
  8
RACCORDO
100
AcDbSpline
 62
250
  6
CONTINUOUS
 70
0
 71
3
 72
11
 73
7
 74
0
 42
0.0000001
 43
0.0000001
 44
0.0000000001
 40
0.0
 40
0.0
 40
0.0
 40
0.0
 40
0.2488334215
 40
0.4983725769
 40
0.7488172088
 40
1.0
 40
1.0
 40
1.0
 40
1.0
 10
116.4834731223
 20
22.0304417199
 30
0.0
 10
116.5150639898
 20
22.0349686894
 30
0.0
 10
116.5773069719
 20
22.0546148642
 30
0.0
 10
116.6560497868
 20
22.1124300426
 30
0.0
 10
116.7125391187
 20
22.1924751683
 30
0.0
 10
116.7314271623
 20
22.2553421255
 30
0.0
 10
116.7356815822
 20
22.2872748521
 30
0.0
  0
SPLINE
  5
416
100
AcDbEntity
  8
RACCORDO
100
AcDbSpline
 62
250
  6
CONTINUOUS
 70
0
 71
3
 72
9
 73
5
 74
0
 42
0.0000001
 43
0.0000001
 44
0.0000000001
 40
0.0
 40
0.0
 40
0.0
 40
0.0
 40
0.634377918
 40
1.0
 40
1.0
 40
1.0
 40
1.0
 10
116.2308799905
 20
25.6049133487
 30
0.0
 10
116.2829615356
 20
25.5984232668
 30
0.0
 10
116.3650412519
 20
25.5880495811
 30
0.0
 10
116.4471295366
 20
25.5777194327
 30
0.0
 10
116.4770997624
 20
25.5736204828
 30
0.0
  0
SPLINE
  5
417
100
AcDbEntity
  8
RACCORDO
100
AcDbSpline
 62
250
  6
CONTINUOUS
 70
0
 71
3
 72
9
 73
5
 74
0
 42
0.0000001
 43
0.0000001
 44
0.0000000001
 40
0.0
 40
0.0
 40
0.0
 40
0.0
 40
0.6343778466
 40
1.0
 40
1.0
 40
1.0
 40
1.0
 10
116.2308793022
 20
103.5923067085
 30
0.0
 10
116.2829615434
 20
103.5987968939
 30
0.0
 10
116.365042361
 20
103.6091707821
 30
0.0
 10
116.4471317512
 20
103.6195011122
 30
0.0
 10
116.4771023743
 20
103.6236002176
 30
0.0
  0
SPLINE
  5
418
100
AcDbEntity
  8
RACCORDO
100
AcDbSpline
 62
250
  6
CONTINUOUS
 70
0
 71
3
 72
11
 73
7
 74
0
 42
0.0000001
 43
0.0000001
 44
0.0000000001
 40
0.0
 40
0.0
 40
0.0
 40
0.0
 40
0.2488302194
 40
0.498380964
 40
0.7488324128
 40
1.0
 40
1.0
 40
1.0
 40
1.0
 10
116.4835882854
 20
107.1667623091
 30
0.0
 10
116.5151732985
 20
107.1622241477
 30
0.0
 10
116.5774024587
 20
107.1425613967
 30
0.0
 10
116.6561305667
 20
107.0847465084
 30
0.0
 10
116.7126236151
 20
107.0047204829
 30
0.0
 10
116.7315296948
 20
106.9418695064
 30
0.0
 10
116.7357954678
 20
106.9099441261
 30
0.0
  0
SPLINE
  5
419
100
AcDbEntity
  8
RACCORDO
100
AcDbSpline
 62
250
  6
CONTINUOUS
 70
0
 71
3
 72
11
 73
7
 74
0
 42
0.0000001
 43
0.0000001
 44
0.0000000001
 40
0.0
 40
0.0
 40
0.0
 40
0.0
 40
0.2490150909
 40
0.4986466309
 40
0.7490310117
 40
1.0
 40
1.0
 40
1.0
 40
1.0
 10
116.5500116469
 20
107.1670698557
 30
0.0
 10
116.581646523
 20
107.162531386
 30
0.0
 10
116.6439652983
 20
107.1428805042
 30
0.0
 10
116.7228408438
 20
107.0850961865
 30
0.0
 10
116.7794708304
 20
107.0050996894
 30
0.0
 10
116.7984503671
 20
106.9422486601
 30
0.0
 10
116.8027415074
 20
106.9103262488
 30
0.0
  0
SPLINE
  5
41A
100
AcDbEntity
  8
RACCORDO
100
AcDbSpline
 62
250
  6
CONTINUOUS
 70
0
 71
3
 72
9
 73
5
 74
0
 42
0.0000001
 43
0.0000001
 44
0.0000000001
 40
0.0
 40
0.0
 40
0.0
 40
0.0
 40
0.2701081984
 40
1.0
 40
1.0
 40
1.0
 40
1.0
 10
119.1314395792
 20
42.047942268
 30
0.0
 10
119.1316728129
 20
42.0434497731
 30
0.0
 10
119.1325952885
 20
42.0268208641
 30
0.0
 10
119.1337582631
 20
42.0102039589
 30
0.0
 10
119.1348173223
 20
41.9980941213
 30
0.0
  0
SPLINE
  5
41B
100
AcDbEntity
  8
RACCORDO
100
AcDbSpline
 62
250
  6
CONTINUOUS
 70
0
 71
3
 72
11
 73
7
 74
0
 42
0.0000001
 43
0.0000001
 44
0.0000000001
 40
0.0
 40
0.0
 40
0.0
 40
0.0
 40
0.4094102999
 40
0.709188732
 40
0.9005915189
 40
1.0
 40
1.0
 40
1.0
 40
1.0
 10
119.1368925747
 20
41.9772182068
 30
0.0
 10
119.1378915176
 20
41.9683928016
 30
0.0
 10
119.1397918791
 20
41.9531897589
 30
0.0
 10
119.1440379889
 20
41.9338374452
 30
0.0
 10
119.1475513364
 20
41.9220111553
 30
0.0
 10
119.1524638925
 20
41.9163545751
 30
0.0
 10
119.1546201176
 20
41.9163159628
 30
0.0
  0
SPLINE
  5
41C
100
AcDbEntity
  8
RACCORDO
100
AcDbSpline
 62
250
  6
CONTINUOUS
 70
0
 71
3
 72
21
 73
17
 74
0
 42
0.0000001
 43
0.0000001
 44
0.0000000001
 40
0.0
 40
0.0
 40
0.0
 40
0.0
 40
0.0072503291
 40
0.0150699842
 40
0.024025603
 40
0.0344965943
 40
0.0607382504
 40
0.0946392742
 40
0.1364602176
 40
0.1861301277
 40
0.2432635069
 40
0.307494009
 40
0.4553823206
 40
0.624487696
 40
0.8084923028
 40
1.0
 40
1.0
 40
1.0
 40
1.0
 10
116.7356755929
 20
22.2872761227
 30
0.0
 10
116.7275047648
 20
22.2871198981
 30
0.0
 10
116.7103570714
 20
22.289639269
 30
0.0
 10
116.6857441162
 20
22.3016979227
 30
0.0
 10
116.6619969834
 20
22.32151287
 30
0.0
 10
116.6287658278
 20
22.3610674188
 30
0.0
 10
116.5901947332
 20
22.4313574669
 30
0.0
 10
116.5487179867
 20
22.5386667112
 30
0.0
 10
116.5100022103
 20
22.6747818302
 30
0.0
 10
116.4748880548
 20
22.8386609981
 30
0.0
 10
116.4439250339
 20
23.0290121095
 30
0.0
 10
116.4077959674
 20
23.3304188357
 30
0.0
 10
116.3810852349
 20
23.7596423704
 30
0.0
 10
116.3784854578
 20
24.3246061334
 30
0.0
 10
116.4086304205
 20
24.9380138913
 30
0.0
 10
116.4505085292
 20
25.3594037036
 30
0.0
 10
116.4771023955
 20
25.5736201569
 30
0.0
  0
SPLINE
  5
41D
100
AcDbEntity
  8
RACCORDO
100
AcDbSpline
 62
250
  6
CONTINUOUS
 70
0
 71
3
 72
9
 73
5
 74
0
 42
0.0000001
 43
0.0000001
 44
0.0000000001
 40
0.0
 40
0.0
 40
0.0
 40
0.0
 40
0.4999721127
 40
1.0
 40
1.0
 40
1.0
 40
1.0
 10
117.9680434125
 20
42.2648424634
 30
0.0
 10
118.1751079548
 20
45.9825930736
 30
0.0
 10
118.430008735
 20
53.4272504237
 30
0.0
 10
118.5120453785
 20
60.8746822252
 30
0.0
 10
118.5120453785
 20
64.5986101017
 30
0.0
  0
SPLINE
  5
41E
100
AcDbEntity
  8
RACCORDO
100
AcDbSpline
 62
250
  6
CONTINUOUS
 70
0
 71
3
 72
9
 73
5
 74
0
 42
0.0000001
 43
0.0000001
 44
0.0000000001
 40
0.0
 40
0.0
 40
0.0
 40
0.0
 40
0.5000047516
 40
1.0
 40
1.0
 40
1.0
 40
1.0
 10
119.6605360945
 20
64.1753514839
 30
0.0
 10
119.657599552
 20
60.6524053582
 30
0.0
 10
119.578026551
 20
53.6066342758
 30
0.0
 10
119.3449586245
 20
46.5633970236
 30
0.0
 10
119.1596714508
 20
43.0453926292
 30
0.0
  0
SPLINE
  5
41F
100
AcDbEntity
  8
RACCORDO
100
AcDbSpline
 62
250
  6
CONTINUOUS
 70
0
 71
3
 72
9
 73
5
 74
0
 42
0.0000001
 43
0.0000001
 44
0.0000000001
 40
0.0
 40
0.0
 40
0.0
 40
0.0
 40
0.5349132495
 40
1.0
 40
1.0
 40
1.0
 40
1.0
 10
119.1421921824
 20
42.7173406788
 30
0.0
 10
119.1370841412
 20
42.6225816965
 30
0.0
 10
119.1297184479
 20
42.4453128081
 30
0.0
 10
119.1270702497
 20
42.2678840226
 30
0.0
 10
119.1277573616
 20
42.185377931
 30
0.0
  0
LINE
  5
420
100
AcDbEntity
  8
RACCORDO
100
AcDbLine
 62
250
  6
CONTINUOUS
 10
113.4081938341
 20
107.5986101017
 30
0.0
 11
116.4835882862
 21
107.1667623091
 31
0.0
  0
LINE
  5
421
100
AcDbEntity
  8
RACCORDO
100
AcDbLine
 62
250
  6
CONTINUOUS
 10
110.0530670949
 20
25.5984013531
 30
0.0
 11
110.1438367073
 21
25.5986406129
 31
0.0
  0
LINE
  5
422
100
AcDbEntity
  8
RACCORDO
100
AcDbLine
 62
250
  6
CONTINUOUS
 10
110.0530670949
 20
25.9252187926
 30
0.0
 11
110.1445610095
 21
25.925456059
 31
0.0
  0
LINE
  5
423
100
AcDbEntity
  8
RACCORDO
100
AcDbLine
 62
250
  6
CONTINUOUS
 10
110.0530670949
 20
103.2720032397
 30
0.0
 11
110.1445610136
 21
103.2717623157
 31
0.0
  0
LINE
  5
424
100
AcDbEntity
  8
RACCORDO
100
AcDbLine
 62
250
  6
CONTINUOUS
 10
110.0530670949
 20
103.5988189303
 30
0.0
 11
110.1438367075
 21
103.5985795064
 31
0.0
  0
ELLIPSE
  5
425
100
AcDbEntity
  8
RACCORDO
100
AcDbEllipse
 62
7
  6
CONTINUOUS
 10
40.9784231486
 20
86.4182974182
 30
0.0
 11
-0.3536610946
 21
0.3536610946
 31
0.0
 40
0.9996954599
 41
-0.7852458701
 42
0.7852458701
  0
ELLIPSE
  5
426
100
AcDbEntity
  8
RACCORDO
100
AcDbEllipse
 62
7
  6
CONTINUOUS
 10
40.9784231486
 20
42.7789227852
 30
0.0
 11
-0.3536610946
 21
-0.3536610946
 31
0.0
 40
0.9996954599
 41
-0.7852458701
 42
0.7852458701
  0
ELLIPSE
  5
427
100
AcDbEntity
  8
RACCORDO
100
AcDbEllipse
 62
7
  6
CONTINUOUS
 10
62.4677977816
 20
86.4182974182
 30
0.0
 11
0.3536610946
 21
0.3536610946
 31
0.0
 40
0.9996954599
 41
-0.7852458701
 42
0.7852458701
  0
ELLIPSE
  5
428
100
AcDbEntity
  8
RACCORDO
100
AcDbEllipse
 62
7
  6
CONTINUOUS
 10
62.4677977816
 20
42.7789227852
 30
0.0
 11
-0.3536610946
 21
0.3536610946
 31
0.0
 40
0.9996954599
 41
2.3563467834
 42
3.9268385237
  0
ENDSEC
  0
SECTION
  2
OBJECTS
  0
DICTIONARY
  5
C
100
AcDbDictionary
280
0
281
1
  3
ACAD_GROUP
350
D
  3
ACAD_MLINESTYLE
350
17
  3
ACAD_LAYOUT
350
1A
  3
ACAD_PLOTSETTINGS
350
19
  3
ACAD_PLOTSTYLENAME
350
E
  0
DICTIONARY
  5
D
102
{ACAD_REACTORS
330
C
102
}
100
AcDbDictionary
280
0
281
1
  0
ACDBDICTIONARYWDFLT
  5
E
102
{ACAD_REACTORS
330
C
102
}
100
AcDbDictionary
281
1
  3
Normal
350
F
100
AcDbDictionaryWithDefault
340
F
  0
DICTIONARY
  5
17
102
{ACAD_REACTORS
330
C
102
}
100
AcDbDictionary
280
0
281
1
  3
Standard
350
18
  0
DICTIONARY
  5
19
102
{ACAD_REACTORS
330
C
102
}
100
AcDbDictionary
281
1
  0
DICTIONARY
  5
1A
102
{ACAD_REACTORS
330
C
102
}
100
AcDbDictionary
281
1
  3
Model
350
429
  3
Layout1
350
42A
  0
ACDBPLACEHOLDER
  5
F
102
{ACAD_REACTORS
330
E
102
}
  0
MLINESTYLE
  5
18
102
{ACAD_REACTORS
330
17
102
}
100
AcDbMlineStyle
  2
STANDARD
 70
0
  3

 62
256
 51
90.0
 52
90.0
 71
2
 49
0.5
 62
256
  6
BYLAYER
 49
-0.5
 62
256
  6
BYLAYER
  0
LAYOUT
  5
429
102
{ACAD_REACTORS
330
1A
102
}
100
AcDbPlotSettings
  1

  2
none_device
  4
ISO_A4_(297.00_x_210.00_MM)
  6

 40
0.0
 41
0.0
 42
0.0
 43
0.0
 44
297.0
 45
210.0
 46
0.0
 47
0.0
 48
0.0
 49
0.0
140
0.0
141
0.0
142
1.0
143
1.0
 70
1024
 72
1
 73
0
 74
0
  7

 75
0
147
1.0
148
0.0
149
0.0
100
AcDbLayout
  1
Model
 70
0
 71
0
 10
0.0
 20
0.0
 11
297.0
 21
210.0
 12
0.0
 22
0.0
 32
0.0
 14
0.0
 24
0.0
 34
0.0
 15
0.0
 25
0.0
 35
0.0
146
0.0
 13
0.0
 23
0.0
 33
0.0
 16
1.0
 26
0.0
 36
0.0
 17
0.0
 27
1.0
 37
0.0
 76
0
330
217
345
0
346
0
  0
LAYOUT
  5
42A
102
{ACAD_REACTORS
330
1A
102
}
100
AcDbPlotSettings
  1

  2
none_device
  4
ISO_A4_(297.00_x_210.00_MM)
  6

 40
0.0
 41
0.0
 42
0.0
 43
0.0
 44
297.0
 45
210.0
 46
0.0
 47
0.0
 48
0.0
 49
0.0
140
0.0
141
0.0
142
1.0
143
1.0
 70
0
 72
1
 73
0
 74
0
  7

 75
0
147
1.0
148
0.0
149
0.0
100
AcDbLayout
  1
Layout1
 70
0
 71
1
 10
0.0
 20
0.0
 11
297.0
 21
210.0
 12
0.0
 22
0.0
 32
0.0
 14
0.0
 24
0.0
 34
0.0
 15
0.0
 25
0.0
 35
0.0
146
0.0
 13
0.0
 23
0.0
 33
0.0
 16
1.0
 26
0.0
 36
0.0
 17
0.0
 27
1.0
 37
0.0
 76
0
330
218
345
0
346
0
  0
ENDSEC
  0
EOF
