  0
SECTION
  2
HEADER
  9
$ACADVER
  1
AC1015
  9
$DWGCODEPAGE
  3
ANSI_1252
  9
$EXTMAX
 10
297.0
 20
210.0
 30
0.0
  9
$EXTMIN
 10
0.0
 20
0.0
 30
0.0
  9
$LIMMIN
 10
0.0
 20
0.0
  9
$LIMMAX
 10
297.0
 20
210.0
  9
$VIEWCTR
 10
148.5
 20
105.0
  9
$VIEWSIZE
 40
210.0
  9
$CLAYER
  8
0
  9
$LTSCALE
 40
16.335
  9
$CELTYPE
  6
BYLAYER
  9
$DIMSCALE
 40
1.0
  9
$DIMASZ
 40
3.0
  9
$DIMEXO
 40
1.85625
  9
$DIMDLI
 40
11.286
  9
$DIMEXE
 40
5.346
  9
$DIMCEN
 40
2.673
  9
$DIMLFAC
 40
1.0
  9
$DIMBLK
  1
_FILLED
  9
$DIMTXT
 40
3.0
  9
$DIMTOL
 70
1
  9
$DIMLIM
 70
0
  9
$DIMTFAC
 40
1.0
  9
$DIMTP
 40
0.01
  9
$DIMTM
 40
0.01
  9
$PDMODE
 70
3
  9
$PDSIZE
 40
3.0
  9
$HANDSEED
  5
4F5
  9
$TILEMODE
 70
1
  9
$MEASUREMENT
 70
1
  9
$INSUNITS
 70
4
  0
ENDSEC
  0
SECTION
  2
CLASSES
  0
CLASS
  1
ACDBDICTIONARYWDFLT
  2
AcDbDictionaryWithDefault
  3
AutoCAD 2000
 90
0
280
0
281
0
  0
CLASS
  1
ACDBPLACEHOLDER
  2
AcDbPlaceHolder
  3
AutoCAD 2000
 90
0
280
0
281
0
  0
CLASS
  1
LAYOUT
  2
AcDbLayout
  3
AutoCAD 2000
 90
0
280
0
281
0
  0
ENDSEC
  0
SECTION
  2
TABLES
  0
TABLE
  2
VPORT
  5
8
100
AcDbSymbolTable
 70
2
  0
VPORT
  5
1F4
100
AcDbSymbolTableRecord
100
AcDbViewportTableRecord
  2
*ACTIVE
 70
0
 10
0.0
 20
0.0
 11
1.0
 21
1.0
 12
148.5
 22
105.0
 13
0.0
 23
0.0
 14
1.0
 24
1.0
 15
0.0
 25
0.0
 16
0.0
 26
0.0
 36
1.0
 17
0.0
 27
0.0
 37
0.0
 40
210.0
 41
1.4142857143
 42
50.0
 43
0.0
 44
0.0
 50
0.0
 51
0.0
 71
0
 72
100
 73
1
 74
1
 75
0
 76
0
 77
0
 78
0
  0
ENDTAB
  0
TABLE
  2
LTYPE
  5
5
100
AcDbSymbolTable
 70
6
  0
LTYPE
  5
14
100
AcDbSymbolTableRecord
100
AcDbLinetypeTableRecord
  2
BYBLOCK
 70
0
  3

 72
65
 73
0
 40
0.0
  0
LTYPE
  5
15
100
AcDbSymbolTableRecord
100
AcDbLinetypeTableRecord
  2
BYLAYER
 70
0
  3

 72
65
 73
0
 40
0.0
  0
LTYPE
  5
16
100
AcDbSymbolTableRecord
100
AcDbLinetypeTableRecord
  2
CONTINUOUS
 70
64
  3
Solid line
 72
65
 73
0
 40
0.0
  0
LTYPE
  5
1F5
100
AcDbSymbolTableRecord
100
AcDbLinetypeTableRecord
  2
CENTER
 70
64
  3
____ _ ____ _ ____ _ ____ _ ____ _ ____ _ ____
 72
65
 73
4
 40
0.6
 49
0.375
 74
0
 49
-0.075
 74
0
 49
0.075
 74
0
 49
-0.075
 74
0
  0
LTYPE
  5
1F6
100
AcDbSymbolTableRecord
100
AcDbLinetypeTableRecord
  2
HIDDEN
 70
64
  3
- - - - - - - - - - - - - - - - - - - -
 72
65
 73
2
 40
0.2
 49
0.1
 74
0
 49
-0.1
 74
0
  0
LTYPE
  5
1F7
100
AcDbSymbolTableRecord
100
AcDbLinetypeTableRecord
  2
PHANTOM
 70
64
  3
_____ _ _ _____ _ _ _____ _ _ _____
 72
65
 73
6
 40
0.8
 49
0.45
 74
0
 49
-0.05
 74
0
 49
0.1
 74
0
 49
-0.05
 74
0
 49
0.1
 74
0
 49
-0.05
 74
0
  0
LTYPE
  5
1F8
100
AcDbSymbolTableRecord
100
AcDbLinetypeTableRecord
  2
DOT
 70
64
  3
. . . . . . . . . . . . . . . . . . . .
 72
65
 73
2
 40
0.2
 49
0.1
 74
0
 49
-0.1
 74
0
  0
LTYPE
  5
1F9
100
AcDbSymbolTableRecord
100
AcDbLinetypeTableRecord
  2
DASHED
 70
64
  3
- - - - - - - - - - - - - - - - - - - -
 72
65
 73
2
 40
0.2
 49
0.1
 74
0
 49
-0.1
 74
0
  0
ENDTAB
  0
TABLE
  2
LAYER
  5
2
100
AcDbSymbolTable
 70
36
  0
LAYER
  5
10
100
AcDbSymbolTableRecord
100
AcDbLayerTableRecord
  2
0
 70
0
 62
7
  6
CONTINUOUS
370
-3
390
F
  0
LAYER
  5
1FA
100
AcDbSymbolTableRecord
100
AcDbLayerTableRecord
  2
DEFAULT_1
 70
0
 62
7
  6
CENTER
370
-3
390
F
  0
LAYER
  5
1FB
100
AcDbSymbolTableRecord
100
AcDbLayerTableRecord
  2
DEFAULT_2
 70
0
 62
7
  6
HIDDEN
370
-3
390
F
  0
LAYER
  5
1FC
100
AcDbSymbolTableRecord
100
AcDbLayerTableRecord
  2
DEFAULT_3
 70
0
 62
7
  6
PHANTOM
370
-3
390
F
  0
LAYER
  5
1FD
100
AcDbSymbolTableRecord
100
AcDbLayerTableRecord
  2
ASSI
 70
0
 62
7
  6
CONTINUOUS
370
-3
390
F
  0
LAYER
  5
1FE
100
AcDbSymbolTableRecord
100
AcDbLayerTableRecord
  2
COORDINATE
 70
0
 62
7
  6
CONTINUOUS
370
-3
390
F
  0
LAYER
  5
1FF
100
AcDbSymbolTableRecord
100
AcDbLayerTableRecord
  2
COPY_PUBLISH
 70
0
 62
7
  6
CONTINUOUS
370
-3
390
F
  0
LAYER
  5
200
100
AcDbSymbolTableRecord
100
AcDbLayerTableRecord
  2
COSMETICI
 70
0
 62
7
  6
CONTINUOUS
370
-3
390
F
  0
LAYER
  5
201
100
AcDbSymbolTableRecord
100
AcDbLayerTableRecord
  2
CURVE
 70
0
 62
7
  6
CONTINUOUS
370
-3
390
F
  0
LAYER
  5
202
100
AcDbSymbolTableRecord
100
AcDbLayerTableRecord
  2
DRAFT
 70
0
 62
7
  6
CONTINUOUS
370
-3
390
F
  0
LAYER
  5
203
100
AcDbSymbolTableRecord
100
AcDbLayerTableRecord
  2
IMPORT_IGES
 70
0
 62
7
  6
CONTINUOUS
370
-3
390
F
  0
LAYER
  5
204
100
AcDbSymbolTableRecord
100
AcDbLayerTableRecord
  2
NOTE
 70
0
 62
7
  6
CONTINUOUS
370
-3
390
F
  0
LAYER
  5
205
100
AcDbSymbolTableRecord
100
AcDbLayerTableRecord
  2
PIANI
 70
0
 62
7
  6
CONTINUOUS
370
-3
390
F
  0
LAYER
  5
206
100
AcDbSymbolTableRecord
100
AcDbLayerTableRecord
  2
PUNTI
 70
0
 62
7
  6
CONTINUOUS
370
-3
390
F
  0
LAYER
  5
207
100
AcDbSymbolTableRecord
100
AcDbLayerTableRecord
  2
RACCORDO
 70
0
 62
7
  6
CONTINUOUS
370
-3
390
F
  0
LAYER
  5
208
100
AcDbSymbolTableRecord
100
AcDbLayerTableRecord
  2
SIMBOLI
 70
0
 62
7
  6
CONTINUOUS
370
-3
390
F
  0
LAYER
  5
209
100
AcDbSymbolTableRecord
100
AcDbLayerTableRecord
  2
SMUSSO
 70
0
 62
7
  6
CONTINUOUS
370
-3
390
F
  0
LAYER
  5
20A
100
AcDbSymbolTableRecord
100
AcDbLayerTableRecord
  2
SNAPLINE
 70
0
 62
7
  6
CONTINUOUS
370
-3
390
F
  0
LAYER
  5
20B
100
AcDbSymbolTableRecord
100
AcDbLayerTableRecord
  2
SUPERFICI
 70
0
 62
7
  6
CONTINUOUS
370
-3
390
F
  0
LAYER
  5
20C
100
AcDbSymbolTableRecord
100
AcDbLayerTableRecord
  2
TRASH
 70
0
 62
7
  6
CONTINUOUS
370
-3
390
F
  0
ENDTAB
  0
TABLE
  2
STYLE
  5
3
100
AcDbSymbolTable
 70
1
  0
STYLE
  5
11
100
AcDbSymbolTableRecord
100
AcDbTextStyleTableRecord
  2
STANDARD
 70
0
 40
0.0
 41
0.8
 50
0.0
 71
0
 42
0.2
  3
txt
  4

  0
STYLE
  5
20D
100
AcDbSymbolTableRecord
100
AcDbTextStyleTableRecord
  2
TEXTSTYLE_1
 70
0
 40
0.0
 41
0.8
 50
0.0
 71
0
 42
0.2
  3
gdt
  4

  0
ENDTAB
  0
TABLE
  2
VIEW
  5
6
100
AcDbSymbolTable
 70
0
  0
ENDTAB
  0
TABLE
  2
UCS
  5
7
100
AcDbSymbolTable
 70
0
  0
ENDTAB
  0
TABLE
  2
APPID
  5
9
100
AcDbSymbolTable
 70
1
  0
APPID
  5
20E
100
AcDbSymbolTableRecord
100
AcDbRegAppTableRecord
  2
ACAD
 70
0
  0
ENDTAB
  0
TABLE
  2
BLOCK_RECORD
  5
1
100
AcDbSymbolTable
 70
0
  0
BLOCK_RECORD
  5
20F
100
AcDbSymbolTableRecord
100
AcDbBlockTableRecord
  2
*Model_Space
  0
BLOCK_RECORD
  5
210
100
AcDbSymbolTableRecord
100
AcDbBlockTableRecord
  2
*Paper_Space
  0
BLOCK_RECORD
  5
211
100
AcDbSymbolTableRecord
100
AcDbBlockTableRecord
  2
_FILLED
  0
BLOCK_RECORD
  5
212
100
AcDbSymbolTableRecord
100
AcDbBlockTableRecord
  2
*D0
  0
BLOCK_RECORD
  5
213
100
AcDbSymbolTableRecord
100
AcDbBlockTableRecord
  2
*D1
  0
BLOCK_RECORD
  5
214
100
AcDbSymbolTableRecord
100
AcDbBlockTableRecord
  2
*D2
  0
ENDTAB
  0
TABLE
  2
DIMSTYLE
  5
A
100
AcDbSymbolTable
 70
1
100
AcDbDimStyleTable
 71
0
  0
DIMSTYLE
105
215
100
AcDbSymbolTableRecord
100
AcDbDimStyleTableRecord
  2
STANDARD
 70
0
  3

  4

 40
1.0
 41
3.0
 42
0.0625
 43
0.38
 44
0.18
 45
0.0
 46
0.0
 47
0.01
 48
0.01
140
3.0
141
0.09
142
0.0
143
25.4
144
1.0
145
0.0
146
1.0
147
0.09
 71
1.0
 72
0.0
 73
0
 74
0
 75
0
 76
0
 77
1
 78
8
170
0
171
2
172
0
173
0
174
0
175
0
176
0
177
0
178
0
270
2
271
2
272
2
273
2
274
2
275
0
280
0
281
0
282
0
283
1
284
8
285
0
286
0
287
3
288
0
340
11
341
211
342
211
343
211
344
211
  0
DIMSTYLE
105
216
100
AcDbSymbolTableRecord
100
AcDbDimStyleTableRecord
  2
DIMSTYLE_1
 70
0
  3

  4

 40
1.0
 41
3.0
 42
0.0625
 43
0.38
 44
0.18
 45
0.0
 46
0.0
 47
0.0
 48
0.0
140
3.0
141
0.09
142
0.0
143
25.4
144
1.0
145
0.0
146
1.0
147
0.09
 71
0.0
 72
0.0
 73
0
 74
0
 75
0
 76
0
 77
1
 78
8
170
0
171
2
172
0
173
0
174
0
175
0
176
0
177
0
178
0
270
2
271
2
272
2
273
2
274
2
275
0
280
0
281
0
282
0
283
1
284
8
285
0
286
0
287
3
288
0
340
11
341
211
342
211
343
211
344
211
  0
ENDTAB
  0
ENDSEC
  0
SECTION
  2
BLOCKS
  0
BLOCK
  5
20
100
AcDbEntity
  8
0
100
AcDbBlockBegin
  2
*Model_Space
 70
0
 10
0.0
 20
0.0
 30
0.0
  3
*Model_Space
  1

  0
ENDBLK
  5
21
100
AcDbEntity
  8
0
100
AcDbBlockEnd
  0
BLOCK
  5
1C
100
AcDbEntity
  8
0
100
AcDbBlockBegin
  2
*Paper_Space
 70
0
 10
0.0
 20
0.0
 30
0.0
  3
*Paper_Space
  1

  0
ENDBLK
  5
1D
100
AcDbEntity
  8
0
100
AcDbBlockEnd
  0
BLOCK
  5
217
100
AcDbEntity
  8
0
100
AcDbBlockBegin
  2
_FILLED
 70
64
 10
0.0
 20
0.0
  3
_FILLED
  1

  0
SOLID
  5
218
100
AcDbEntity
  8
0
  6
BYBLOCK
 62
0
100
AcDbTrace
 10
0.0
 20
0.0
 11
-1.0
 21
0.3166666667
 12
-1.0
 22
-0.3166666667
 13
-1.0
 23
-0.3166666667
  0
ENDBLK
  5
219
100
AcDbEntity
  8
0
  6
BYBLOCK
 62
0
100
AcDbBlockEnd
  0
BLOCK
  5
21A
100
AcDbEntity
  8
0
100
AcDbBlockBegin
 62
7
  6
CONTINUOUS
  2
*D0
 70
65
 10
0.0
 20
0.0
  3
*D0
  1

  0
LINE
  5
21B
100
AcDbEntity
  8
0
100
AcDbLine
 62
7
  6
CONTINUOUS
 10
-40.0
 20
144.0
 11
-40.0
 21
156.0
  0
LINE
  5
21C
100
AcDbEntity
  8
0
100
AcDbLine
 62
7
  6
CONTINUOUS
 10
40.0
 20
144.0
 11
40.0
 21
156.0
  0
LINE
  5
21D
100
AcDbEntity
  8
0
100
AcDbLine
 62
7
  6
CONTINUOUS
 10
-40.0
 20
154.5
 11
0.0
 21
154.5
  0
LINE
  5
21E
100
AcDbEntity
  8
0
100
AcDbLine
 62
7
  6
CONTINUOUS
 10
40.0
 20
154.5
 11
0.0
 21
154.5
  0
INSERT
  5
21F
100
AcDbEntity
  8
0
100
AcDbBlockReference
 62
7
  6
CONTINUOUS
  2
_FILLED
 10
-40.0
 20
154.5
 41
3.0
 42
3.0
 43
3.0
 50
180.0
  0
INSERT
  5
220
100
AcDbEntity
  8
0
100
AcDbBlockReference
 62
7
  6
CONTINUOUS
  2
_FILLED
 10
40.0
 20
154.5
 41
3.0
 42
3.0
 43
3.0
  0
ENDBLK
  5
221
100
AcDbEntity
  8
0
  6
BYBLOCK
 62
0
100
AcDbBlockEnd
  0
BLOCK
  5
222
100
AcDbEntity
  8
0
100
AcDbBlockBegin
 62
7
  6
CONTINUOUS
  2
*D1
 70
65
 10
0.0
 20
0.0
  3
*D1
  1

  0
LINE
  5
223
100
AcDbEntity
  8
0
100
AcDbLine
 62
7
  6
CONTINUOUS
 10
37.5
 20
146.5
 11
49.5
 21
146.5
  0
LINE
  5
224
100
AcDbEntity
  8
0
100
AcDbLine
 62
7
  6
CONTINUOUS
 10
37.5
 20
-146.5
 11
49.5
 21
-146.5
  0
LINE
  5
225
100
AcDbEntity
  8
0
100
AcDbLine
 62
7
  6
CONTINUOUS
 10
48.0
 20
146.5
 11
48.0
 21
0.0
  0
LINE
  5
226
100
AcDbEntity
  8
0
100
AcDbLine
 62
7
  6
CONTINUOUS
 10
48.0
 20
-146.5
 11
48.0
 21
0.0
  0
INSERT
  5
227
100
AcDbEntity
  8
0
100
AcDbBlockReference
 62
7
  6
CONTINUOUS
  2
_FILLED
 10
48.0
 20
146.5
 41
3.0
 42
3.0
 43
3.0
 50
90.0
  0
INSERT
  5
228
100
AcDbEntity
  8
0
100
AcDbBlockReference
 62
7
  6
CONTINUOUS
  2
_FILLED
 10
48.0
 20
-146.5
 41
3.0
 42
3.0
 43
3.0
 50
270.0
  0
ENDBLK
  5
229
100
AcDbEntity
  8
0
  6
BYBLOCK
 62
0
100
AcDbBlockEnd
  0
BLOCK
  5
22A
100
AcDbEntity
  8
0
100
AcDbBlockBegin
 62
7
  6
CONTINUOUS
  2
*D2
 70
65
 10
0.0
 20
0.0
  3
*D2
  1

  0
LINE
  5
22B
100
AcDbEntity
  8
0
100
AcDbLine
 62
7
  6
CONTINUOUS
 10
-76.9358147089
 20
129.2500000163
 11
-76.9358147089
 21
156.0
  0
LINE
  5
22C
100
AcDbEntity
  8
0
100
AcDbLine
 62
7
  6
CONTINUOUS
 10
-67.9358147089
 20
144.0
 11
-67.9358147089
 21
156.0
  0
LINE
  5
22D
100
AcDbEntity
  8
0
100
AcDbLine
 62
7
  6
CONTINUOUS
 10
-76.9358147089
 20
154.5
 11
-72.4358147089
 21
154.5
  0
LINE
  5
22E
100
AcDbEntity
  8
0
100
AcDbLine
 62
7
  6
CONTINUOUS
 10
-67.9358147089
 20
154.5
 11
-72.4358147089
 21
154.5
  0
INSERT
  5
22F
100
AcDbEntity
  8
0
100
AcDbBlockReference
 62
7
  6
CONTINUOUS
  2
_FILLED
 10
-76.9358147089
 20
154.5
 41
3.0
 42
3.0
 43
3.0
 50
180.0
  0
INSERT
  5
230
100
AcDbEntity
  8
0
100
AcDbBlockReference
 62
7
  6
CONTINUOUS
  2
_FILLED
 10
-67.9358147089
 20
154.5
 41
3.0
 42
3.0
 43
3.0
  0
ENDBLK
  5
231
100
AcDbEntity
  8
0
  6
BYBLOCK
 62
0
100
AcDbBlockEnd
  0
ENDSEC
  0
SECTION
  2
ENTITIES
  0
DIMENSION
  5
232
100
AcDbEntity
  8
0
100
AcDbDimension
 62
7
  6
CONTINUOUS
  2
*D0
 10
40.0
 20
154.5
 11
-2.3571428571
 21
155.25
 70
160
 71
2
 42
80.0
  3
DIMSTYLE_1
100
AcDbAlignedDimension
 13
-40.0
 23
144.0
 14
40.0
 24
144.0
100
AcDbRotatedDimension
  0
DIMENSION
  5
233
100
AcDbEntity
  8
0
100
AcDbDimension
 62
7
  6
CONTINUOUS
  2
*D1
 10
48.0
 20
-146.5
 11
47.25
 21
-3.4285714286
 70
160
 71
2
 42
293.0
  3
DIMSTYLE_1
100
AcDbAlignedDimension
 13
37.5
 23
146.5
 14
37.5
 24
-146.5
 50
270.0
100
AcDbRotatedDimension
  0
DIMENSION
  5
234
100
AcDbEntity
  8
0
100
AcDbDimension
 62
7
  6
CONTINUOUS
  2
*D2
 10
-67.9358147089
 20
154.5
 11
-73.6143861375
 21
155.25
 70
160
 71
2
 42
9.0
  3
DIMSTYLE_1
100
AcDbAlignedDimension
 13
-76.9358147089
 23
129.2500000163
 14
-67.9358147089
 24
144.0
100
AcDbRotatedDimension
  0
LINE
  5
235
100
AcDbEntity
  8
RACCORDO
100
AcDbLine
 62
7
  6
CONTINUOUS
 10
37.0
 20
-146.5
 11
3.9040601206
 21
-146.5
  0
LINE
  5
236
100
AcDbEntity
  8
RACCORDO
100
AcDbLine
 62
7
  6
CONTINUOUS
 10
-3.9040601206
 20
-146.5
 11
-37.0
 21
-146.5
  0
LINE
  5
237
100
AcDbEntity
  8
RACCORDO
100
AcDbLine
 62
7
  6
CONTINUOUS
 10
3.2709172065
 20
-146.3951844414
 11
-3.2709172065
 21
-146.3951844414
  0
LINE
  5
238
100
AcDbEntity
  8
RACCORDO
100
AcDbLine
 62
253
  6
CONTINUOUS
 10
11.7500262635
 20
-146.2614222832
 11
-11.7500262635
 21
-146.2614222832
  0
LINE
  5
239
100
AcDbEntity
  8
RACCORDO
100
AcDbLine
 62
253
  6
CONTINUOUS
 10
11.7500131317
 20
-145.596928824
 11
-11.7499868572
 21
-145.596928824
  0
LINE
  5
23A
100
AcDbEntity
  8
RACCORDO
100
AcDbLine
 62
253
  6
CONTINUOUS
 10
-40.0
 20
-143.5
 11
-39.7686319911
 21
-143.5
  0
LINE
  5
23B
100
AcDbEntity
  8
RACCORDO
100
AcDbLine
 62
253
  6
CONTINUOUS
 10
39.7686319911
 20
-143.5
 11
40.0
 21
-143.5
  0
LINE
  5
23C
100
AcDbEntity
  8
RACCORDO
100
AcDbLine
 62
253
  6
CONTINUOUS
 10
-11.7499305477
 20
-132.3449826202
 11
11.7499305477
 21
-132.3449826202
  0
LINE
  5
23D
100
AcDbEntity
  8
RACCORDO
100
AcDbLine
 62
253
  6
CONTINUOUS
 10
-11.7498610955
 20
-130.7413437619
 11
11.7498610955
 21
-130.7413437619
  0
LINE
  5
23E
100
AcDbEntity
  8
RACCORDO
100
AcDbLine
 62
7
  6
CONTINUOUS
 10
3.655011446
 20
146.4880399649
 11
3.519965881
 21
146.4071444765
  0
LINE
  5
23F
100
AcDbEntity
  8
0
100
AcDbLine
 62
253
  6
CONTINUOUS
 10
-22.25
 20
-129.138520641
 11
22.25
 21
-129.138520641
  0
LINE
  5
240
100
AcDbEntity
  8
0
100
AcDbLine
 62
7
  6
CONTINUOUS
 10
-22.25
 20
-129.05
 11
22.25
 21
-129.05
  0
LINE
  5
241
100
AcDbEntity
  8
RACCORDO
100
AcDbLine
 62
253
  6
CONTINUOUS
 10
22.638520641
 20
-128.75
 11
24.2478154976
 21
-128.7499996203
  0
LINE
  5
242
100
AcDbEntity
  8
0
100
AcDbLine
 62
253
  6
CONTINUOUS
 10
22.55
 20
-128.75
 11
22.638520641
 21
-128.75
  0
LINE
  5
243
100
AcDbEntity
  8
0
100
AcDbLine
 62
253
  6
CONTINUOUS
 10
-22.55
 20
-128.75
 11
-22.638520641
 21
-128.75
  0
LINE
  5
244
100
AcDbEntity
  8
RACCORDO
100
AcDbLine
 62
253
  6
CONTINUOUS
 10
-22.638520641
 20
-128.75
 11
-24.247815498
 21
-128.7499998304
  0
LINE
  5
245
100
AcDbEntity
  8
RACCORDO
100
AcDbLine
 62
7
  6
CONTINUOUS
 10
3.655011446
 20
-146.4880399649
 11
3.519965881
 21
-146.4071444765
  0
LINE
  5
246
100
AcDbEntity
  8
RACCORDO
100
AcDbLine
 62
253
  6
CONTINUOUS
 10
-39.7614201801
 20
-106.5000027205
 11
-24.2410616084
 21
-106.4999792115
  0
LINE
  5
247
100
AcDbEntity
  8
RACCORDO
100
AcDbLine
 62
253
  6
CONTINUOUS
 10
39.7614201801
 20
-106.5000027203
 11
24.2410616084
 21
-106.4999792103
  0
LINE
  5
248
100
AcDbEntity
  8
RACCORDO
100
AcDbLine
 62
253
  6
CONTINUOUS
 10
-25.8437574053
 20
-84.25
 11
-22.638520641
 21
-84.25
  0
LINE
  5
249
100
AcDbEntity
  8
RACCORDO
100
AcDbLine
 62
253
  6
CONTINUOUS
 10
25.8437574053
 20
-84.25
 11
22.638520641
 21
-84.25
  0
LINE
  5
24A
100
AcDbEntity
  8
0
100
AcDbLine
 62
253
  6
CONTINUOUS
 10
22.55
 20
-84.25
 11
22.638520641
 21
-84.25
  0
LINE
  5
24B
100
AcDbEntity
  8
0
100
AcDbLine
 62
253
  6
CONTINUOUS
 10
-22.55
 20
-84.25
 11
-22.638520641
 21
-84.25
  0
LINE
  5
24C
100
AcDbEntity
  8
0
100
AcDbLine
 62
7
  6
CONTINUOUS
 10
22.25
 20
-83.95
 11
-22.25
 21
-83.95
  0
LINE
  5
24D
100
AcDbEntity
  8
0
100
AcDbLine
 62
253
  6
CONTINUOUS
 10
22.25
 20
-83.861479359
 11
-22.25
 21
-83.861479359
  0
LINE
  5
24E
100
AcDbEntity
  8
RACCORDO
100
AcDbLine
 62
253
  6
CONTINUOUS
 10
22.25
 20
-82.2948306055
 11
-22.25
 21
-82.2948306055
  0
LINE
  5
24F
100
AcDbEntity
  8
RACCORDO
100
AcDbLine
 62
253
  6
CONTINUOUS
 10
22.25
 20
-80.5930568263
 11
-22.25
 21
-80.5930568263
  0
LINE
  5
250
100
AcDbEntity
  8
RACCORDO
100
AcDbLine
 62
253
  6
CONTINUOUS
 10
-22.25
 20
-61.4069431737
 11
22.25
 21
-61.4069431737
  0
LINE
  5
251
100
AcDbEntity
  8
RACCORDO
100
AcDbLine
 62
253
  6
CONTINUOUS
 10
-22.25
 20
-59.7051693945
 11
22.25
 21
-59.7051693945
  0
LINE
  5
252
100
AcDbEntity
  8
RACCORDO
100
AcDbLine
 62
253
  6
CONTINUOUS
 10
-23.4974067317
 20
80.8123831189
 11
-22.9169207993
 21
82.4120924919
  0
LINE
  5
253
100
AcDbEntity
  8
0
100
AcDbLine
 62
253
  6
CONTINUOUS
 10
-22.25
 20
-58.138520641
 11
22.25
 21
-58.138520641
  0
LINE
  5
254
100
AcDbEntity
  8
0
100
AcDbLine
 62
7
  6
CONTINUOUS
 10
-22.25
 20
-58.05
 11
22.25
 21
-58.05
  0
LINE
  5
255
100
AcDbEntity
  8
0
100
AcDbLine
 62
253
  6
CONTINUOUS
 10
22.55
 20
-57.75
 11
22.638520641
 21
-57.75
  0
LINE
  5
256
100
AcDbEntity
  8
0
100
AcDbLine
 62
253
  6
CONTINUOUS
 10
-22.55
 20
-57.75
 11
-22.638520641
 21
-57.75
  0
LINE
  5
257
100
AcDbEntity
  8
RACCORDO
100
AcDbLine
 62
253
  6
CONTINUOUS
 10
-22.638520641
 20
-57.75
 11
-25.8437574053
 21
-57.75
  0
LINE
  5
258
100
AcDbEntity
  8
RACCORDO
100
AcDbLine
 62
253
  6
CONTINUOUS
 10
22.638520641
 20
-57.75
 11
25.8437574053
 21
-57.75
  0
LINE
  5
259
100
AcDbEntity
  8
RACCORDO
100
AcDbLine
 62
253
  6
CONTINUOUS
 10
-23.4974067317
 20
-80.8123831189
 11
-22.9169207993
 21
-82.4120924919
  0
LINE
  5
25A
100
AcDbEntity
  8
0
100
AcDbLine
 62
7
  6
CONTINUOUS
 10
-40.0
 20
-143.5
 11
-40.0
 21
143.5
  0
LINE
  5
25B
100
AcDbEntity
  8
RACCORDO
100
AcDbLine
 62
253
  6
CONTINUOUS
 10
-39.7614201801
 20
-106.5000027205
 11
-39.7614201801
 21
106.5000027202
  0
LINE
  5
25C
100
AcDbEntity
  8
RACCORDO
100
AcDbLine
 62
253
  6
CONTINUOUS
 10
-39.0969798993
 20
-106.5000013603
 11
-39.0969798993
 21
106.4999986399
  0
LINE
  5
25D
100
AcDbEntity
  8
RACCORDO
100
AcDbLine
 62
253
  6
CONTINUOUS
 10
-37.0
 20
146.5
 11
-37.0
 21
146.2694281234
  0
LINE
  5
25E
100
AcDbEntity
  8
RACCORDO
100
AcDbLine
 62
253
  6
CONTINUOUS
 10
-37.0
 20
-146.2694281234
 11
-37.0
 21
-146.5
  0
LINE
  5
25F
100
AcDbEntity
  8
RACCORDO
100
AcDbLine
 62
253
  6
CONTINUOUS
 10
-25.843757405
 20
106.4999896077
 11
-25.8437574053
 21
84.25
  0
LINE
  5
260
100
AcDbEntity
  8
RACCORDO
100
AcDbLine
 62
253
  6
CONTINUOUS
 10
-25.8437574053
 20
57.75
 11
-25.8437574053
 21
13.25
  0
LINE
  5
261
100
AcDbEntity
  8
RACCORDO
100
AcDbLine
 62
253
  6
CONTINUOUS
 10
-25.8437574053
 20
-13.25
 11
-25.8437574053
 21
-57.75
  0
LINE
  5
262
100
AcDbEntity
  8
RACCORDO
100
AcDbLine
 62
253
  6
CONTINUOUS
 10
-25.8437574053
 20
-84.25
 11
-25.843757405
 21
-106.4999896058
  0
LINE
  5
263
100
AcDbEntity
  8
RACCORDO
100
AcDbLine
 62
253
  6
CONTINUOUS
 10
-24.2410616084
 20
106.4999792135
 11
-24.2410616085
 21
84.2499916101
  0
LINE
  5
264
100
AcDbEntity
  8
RACCORDO
100
AcDbLine
 62
253
  6
CONTINUOUS
 10
-24.2410616085
 20
57.7500123799
 11
-24.2410616085
 21
13.2499916101
  0
LINE
  5
265
100
AcDbEntity
  8
RACCORDO
100
AcDbLine
 62
253
  6
CONTINUOUS
 10
-24.2410616085
 20
-13.2499876201
 11
-24.2410616085
 21
-57.7500083899
  0
LINE
  5
266
100
AcDbEntity
  8
RACCORDO
100
AcDbLine
 62
253
  6
CONTINUOUS
 10
-24.2410616085
 20
-84.2499876201
 11
-24.2410616084
 21
-106.4999792115
  0
LINE
  5
267
100
AcDbEntity
  8
RACCORDO
100
AcDbLine
 62
253
  6
CONTINUOUS
 10
-23.4974034479
 20
61.1876178615
 11
-23.4974018076
 21
80.8123816488
  0
LINE
  5
268
100
AcDbEntity
  8
RACCORDO
100
AcDbLine
 62
253
  6
CONTINUOUS
 10
-23.4974034479
 20
-9.8123821385
 11
-23.4974018076
 21
9.8123816488
  0
LINE
  5
269
100
AcDbEntity
  8
RACCORDO
100
AcDbLine
 62
253
  6
CONTINUOUS
 10
-23.4974034479
 20
-80.8123821385
 11
-23.4974018076
 21
-61.1876183512
  0
LINE
  5
26A
100
AcDbEntity
  8
0
100
AcDbLine
 62
253
  6
CONTINUOUS
 10
-22.638520641
 20
128.75
 11
-22.638520641
 21
84.25
  0
LINE
  5
26B
100
AcDbEntity
  8
0
100
AcDbLine
 62
253
  6
CONTINUOUS
 10
-22.638520641
 20
57.75
 11
-22.638520641
 21
13.25
  0
LINE
  5
26C
100
AcDbEntity
  8
0
100
AcDbLine
 62
253
  6
CONTINUOUS
 10
-22.638520641
 20
-13.25
 11
-22.638520641
 21
-57.75
  0
LINE
  5
26D
100
AcDbEntity
  8
0
100
AcDbLine
 62
253
  6
CONTINUOUS
 10
-22.638520641
 20
-84.25
 11
-22.638520641
 21
-128.75
  0
LINE
  5
26E
100
AcDbEntity
  8
0
100
AcDbLine
 62
7
  6
CONTINUOUS
 10
-22.55
 20
128.75
 11
-22.55
 21
84.25
  0
LINE
  5
26F
100
AcDbEntity
  8
0
100
AcDbLine
 62
7
  6
CONTINUOUS
 10
-22.55
 20
57.75
 11
-22.55
 21
13.25
  0
LINE
  5
270
100
AcDbEntity
  8
0
100
AcDbLine
 62
7
  6
CONTINUOUS
 10
-22.55
 20
-13.25
 11
-22.55
 21
-57.75
  0
LINE
  5
271
100
AcDbEntity
  8
0
100
AcDbLine
 62
7
  6
CONTINUOUS
 10
-22.55
 20
-84.25
 11
-22.55
 21
-128.75
  0
LINE
  5
272
100
AcDbEntity
  8
RACCORDO
100
AcDbLine
 62
253
  6
CONTINUOUS
 10
-22.25
 20
129.138520641
 11
-22.2499998976
 21
130.7456995725
  0
LINE
  5
273
100
AcDbEntity
  8
RACCORDO
100
AcDbLine
 62
253
  6
CONTINUOUS
 10
-22.25
 20
-129.138520641
 11
-22.2499999297
 21
-130.7456995725
  0
LINE
  5
274
100
AcDbEntity
  8
0
100
AcDbLine
 62
253
  6
CONTINUOUS
 10
-22.25
 20
83.95
 11
-22.25
 21
83.861479359
  0
LINE
  5
275
100
AcDbEntity
  8
0
100
AcDbLine
 62
253
  6
CONTINUOUS
 10
-22.25
 20
-83.95
 11
-22.25
 21
-83.861479359
  0
LINE
  5
276
100
AcDbEntity
  8
0
100
AcDbLine
 62
253
  6
CONTINUOUS
 10
-22.25
 20
12.95
 11
-22.25
 21
12.861479359
  0
LINE
  5
277
100
AcDbEntity
  8
0
100
AcDbLine
 62
253
  6
CONTINUOUS
 10
-22.25
 20
-12.95
 11
-22.25
 21
-12.861479359
  0
LINE
  5
278
100
AcDbEntity
  8
RACCORDO
100
AcDbLine
 62
253
  6
CONTINUOUS
 10
-22.25
 20
-12.861479359
 11
-22.25
 21
-9.5930568263
  0
LINE
  5
279
100
AcDbEntity
  8
RACCORDO
100
AcDbLine
 62
253
  6
CONTINUOUS
 10
-22.25
 20
9.5930568263
 11
-22.25
 21
12.861479359
  0
LINE
  5
27A
100
AcDbEntity
  8
RACCORDO
100
AcDbLine
 62
253
  6
CONTINUOUS
 10
-22.25
 20
-58.138520641
 11
-22.25
 21
-61.4069431737
  0
LINE
  5
27B
100
AcDbEntity
  8
0
100
AcDbLine
 62
253
  6
CONTINUOUS
 10
-22.25
 20
-58.05
 11
-22.25
 21
-58.138520641
  0
LINE
  5
27C
100
AcDbEntity
  8
RACCORDO
100
AcDbLine
 62
253
  6
CONTINUOUS
 10
-22.25
 20
-80.5930568263
 11
-22.25
 21
-83.861479359
  0
LINE
  5
27D
100
AcDbEntity
  8
0
100
AcDbLine
 62
253
  6
CONTINUOUS
 10
-22.25
 20
58.05
 11
-22.25
 21
58.138520641
  0
LINE
  5
27E
100
AcDbEntity
  8
RACCORDO
100
AcDbLine
 62
253
  6
CONTINUOUS
 10
-22.25
 20
58.138520641
 11
-22.25
 21
61.4069431737
  0
LINE
  5
27F
100
AcDbEntity
  8
RACCORDO
100
AcDbLine
 62
253
  6
CONTINUOUS
 10
-22.25
 20
80.5930568263
 11
-22.25
 21
83.861479359
  0
LINE
  5
280
100
AcDbEntity
  8
0
100
AcDbLine
 62
253
  6
CONTINUOUS
 10
-22.25
 20
-129.05
 11
-22.25
 21
-129.138520641
  0
LINE
  5
281
100
AcDbEntity
  8
0
100
AcDbLine
 62
253
  6
CONTINUOUS
 10
-22.25
 20
129.05
 11
-22.25
 21
129.138520641
  0
LINE
  5
282
100
AcDbEntity
  8
RACCORDO
100
AcDbLine
 62
253
  6
CONTINUOUS
 10
-23.4974067317
 20
9.8123831189
 11
-22.9169207993
 21
11.4120924919
  0
LINE
  5
283
100
AcDbEntity
  8
RACCORDO
100
AcDbLine
 62
253
  6
CONTINUOUS
 10
-23.4974067317
 20
-9.8123831189
 11
-22.9169207993
 21
-11.4120924919
  0
LINE
  5
284
100
AcDbEntity
  8
RACCORDO
100
AcDbLine
 62
253
  6
CONTINUOUS
 10
-11.7500262635
 20
146.2614222832
 11
-11.7498610955
 21
130.7413437619
  0
LINE
  5
285
100
AcDbEntity
  8
RACCORDO
100
AcDbLine
 62
253
  6
CONTINUOUS
 10
-11.7500262635
 20
-146.2614222832
 11
-11.7498610955
 21
-130.7413437619
  0
LINE
  5
286
100
AcDbEntity
  8
RACCORDO
100
AcDbLine
 62
253
  6
CONTINUOUS
 10
-25.8437574053
 20
-13.25
 11
-22.638520641
 21
-13.25
  0
LINE
  5
287
100
AcDbEntity
  8
RACCORDO
100
AcDbLine
 62
253
  6
CONTINUOUS
 10
25.8437574053
 20
-13.25
 11
22.638520641
 21
-13.25
  0
LINE
  5
288
100
AcDbEntity
  8
0
100
AcDbLine
 62
253
  6
CONTINUOUS
 10
22.55
 20
-13.25
 11
22.638520641
 21
-13.25
  0
LINE
  5
289
100
AcDbEntity
  8
0
100
AcDbLine
 62
253
  6
CONTINUOUS
 10
-22.55
 20
-13.25
 11
-22.638520641
 21
-13.25
  0
LINE
  5
28A
100
AcDbEntity
  8
0
100
AcDbLine
 62
7
  6
CONTINUOUS
 10
22.25
 20
-12.95
 11
-22.25
 21
-12.95
  0
LINE
  5
28B
100
AcDbEntity
  8
0
100
AcDbLine
 62
253
  6
CONTINUOUS
 10
22.25
 20
-12.861479359
 11
-22.25
 21
-12.861479359
  0
LINE
  5
28C
100
AcDbEntity
  8
RACCORDO
100
AcDbLine
 62
253
  6
CONTINUOUS
 10
22.25
 20
-11.2948306055
 11
-22.25
 21
-11.2948306055
  0
LINE
  5
28D
100
AcDbEntity
  8
RACCORDO
100
AcDbLine
 62
253
  6
CONTINUOUS
 10
22.25
 20
-9.5930568263
 11
-22.25
 21
-9.5930568263
  0
LWPOLYLINE
  5
28E
100
AcDbEntity
  8
0
100
AcDbPolyline
 62
7
  6
CONTINUOUS
 90
4
 70
0
 43
0.3500000006
 10
-2.3571427875
 20
155.6785797729
 10
-2.3571427875
 20
156.5357177124
 10
-1.9285714102
 20
156.9642866821
 10
-1.2857142735
 20
156.9642866821
  0
LWPOLYLINE
  5
28F
100
AcDbEntity
  8
0
100
AcDbPolyline
 62
7
  6
CONTINUOUS
 90
13
 70
0
 43
0.3500000006
 10
0.0
 20
156.1071487427
 10
0.0
 20
157.3928556519
 10
0.2142857063
 20
157.8214246216
 10
0.6428571367
 20
158.2499935913
 10
0.8571428254
 20
158.2499935913
 10
1.2857142735
 20
157.8214246216
 10
1.5000000329
 20
157.3928556519
 10
1.5000000329
 20
156.1071487427
 10
1.2857142735
 20
155.6785797729
 10
0.8571428254
 20
155.2499926758
 10
0.6428571367
 20
155.2499926758
 10
0.2142857063
 20
155.6785797729
 10
0.0
 20
156.1071487427
  0
LINE
  5
290
100
AcDbEntity
  8
RACCORDO
100
AcDbLine
 62
253
  6
CONTINUOUS
 10
-23.4974067317
 20
-61.1876168811
 11
-22.9169207993
 21
-59.5879075081
  0
LINE
  5
291
100
AcDbEntity
  8
RACCORDO
100
AcDbLine
 62
253
  6
CONTINUOUS
 10
23.4974067317
 20
61.1876168811
 11
22.9169207993
 21
59.5879075081
  0
LINE
  5
292
100
AcDbEntity
  8
RACCORDO
100
AcDbLine
 62
253
  6
CONTINUOUS
 10
-23.4974067317
 20
61.1876168811
 11
-22.9169207993
 21
59.5879075081
  0
LINE
  5
293
100
AcDbEntity
  8
RACCORDO
100
AcDbLine
 62
253
  6
CONTINUOUS
 10
23.4974067317
 20
-61.1876168811
 11
22.9169207993
 21
-59.5879075081
  0
LINE
  5
294
100
AcDbEntity
  8
RACCORDO
100
AcDbLine
 62
253
  6
CONTINUOUS
 10
-22.25
 20
9.5930568263
 11
22.25
 21
9.5930568263
  0
LINE
  5
295
100
AcDbEntity
  8
RACCORDO
100
AcDbLine
 62
253
  6
CONTINUOUS
 10
-22.25
 20
11.2948306055
 11
22.25
 21
11.2948306055
  0
LINE
  5
296
100
AcDbEntity
  8
RACCORDO
100
AcDbLine
 62
253
  6
CONTINUOUS
 10
11.7499305477
 20
132.3449826202
 11
11.7498610955
 21
130.7413437619
  0
LINE
  5
297
100
AcDbEntity
  8
RACCORDO
100
AcDbLine
 62
253
  6
CONTINUOUS
 10
11.7499305477
 20
-132.3449826202
 11
11.7498610955
 21
-130.7413437619
  0
LINE
  5
298
100
AcDbEntity
  8
RACCORDO
100
AcDbLine
 62
253
  6
CONTINUOUS
 10
11.75
 20
-132.3449826657
 11
11.7500262635
 21
-146.2614222832
  0
LINE
  5
299
100
AcDbEntity
  8
RACCORDO
100
AcDbLine
 62
253
  6
CONTINUOUS
 10
11.7500262635
 20
146.2614222832
 11
11.75
 21
132.3449826658
  0
LINE
  5
29A
100
AcDbEntity
  8
0
100
AcDbLine
 62
253
  6
CONTINUOUS
 10
-22.25
 20
12.861479359
 11
22.25
 21
12.861479359
  0
LINE
  5
29B
100
AcDbEntity
  8
0
100
AcDbLine
 62
7
  6
CONTINUOUS
 10
-22.25
 20
12.95
 11
22.25
 21
12.95
  0
LINE
  5
29C
100
AcDbEntity
  8
0
100
AcDbLine
 62
253
  6
CONTINUOUS
 10
22.55
 20
13.25
 11
22.638520641
 21
13.25
  0
LINE
  5
29D
100
AcDbEntity
  8
0
100
AcDbLine
 62
253
  6
CONTINUOUS
 10
-22.55
 20
13.25
 11
-22.638520641
 21
13.25
  0
LINE
  5
29E
100
AcDbEntity
  8
RACCORDO
100
AcDbLine
 62
253
  6
CONTINUOUS
 10
-22.638520641
 20
13.25
 11
-25.8437574053
 21
13.25
  0
LINE
  5
29F
100
AcDbEntity
  8
RACCORDO
100
AcDbLine
 62
253
  6
CONTINUOUS
 10
22.638520641
 20
13.25
 11
25.8437574053
 21
13.25
  0
LINE
  5
2A0
100
AcDbEntity
  8
0
100
AcDbLine
 62
253
  6
CONTINUOUS
 10
22.25
 20
83.95
 11
22.25
 21
83.861479359
  0
LINE
  5
2A1
100
AcDbEntity
  8
0
100
AcDbLine
 62
253
  6
CONTINUOUS
 10
22.25
 20
-83.95
 11
22.25
 21
-83.861479359
  0
LINE
  5
2A2
100
AcDbEntity
  8
0
100
AcDbLine
 62
253
  6
CONTINUOUS
 10
22.25
 20
12.95
 11
22.25
 21
12.861479359
  0
LINE
  5
2A3
100
AcDbEntity
  8
0
100
AcDbLine
 62
253
  6
CONTINUOUS
 10
22.25
 20
-12.95
 11
22.25
 21
-12.861479359
  0
LINE
  5
2A4
100
AcDbEntity
  8
RACCORDO
100
AcDbLine
 62
253
  6
CONTINUOUS
 10
22.25
 20
-12.861479359
 11
22.25
 21
-9.5930568263
  0
LINE
  5
2A5
100
AcDbEntity
  8
RACCORDO
100
AcDbLine
 62
253
  6
CONTINUOUS
 10
22.25
 20
9.5930568263
 11
22.25
 21
12.861479359
  0
LINE
  5
2A6
100
AcDbEntity
  8
RACCORDO
100
AcDbLine
 62
253
  6
CONTINUOUS
 10
22.25
 20
-58.138520641
 11
22.25
 21
-61.4069431737
  0
LINE
  5
2A7
100
AcDbEntity
  8
0
100
AcDbLine
 62
253
  6
CONTINUOUS
 10
22.25
 20
-58.05
 11
22.25
 21
-58.138520641
  0
LINE
  5
2A8
100
AcDbEntity
  8
RACCORDO
100
AcDbLine
 62
253
  6
CONTINUOUS
 10
22.25
 20
-80.5930568263
 11
22.25
 21
-83.861479359
  0
LINE
  5
2A9
100
AcDbEntity
  8
0
100
AcDbLine
 62
253
  6
CONTINUOUS
 10
22.25
 20
58.05
 11
22.25
 21
58.138520641
  0
LINE
  5
2AA
100
AcDbEntity
  8
RACCORDO
100
AcDbLine
 62
253
  6
CONTINUOUS
 10
22.25
 20
58.138520641
 11
22.25
 21
61.4069431737
  0
LINE
  5
2AB
100
AcDbEntity
  8
RACCORDO
100
AcDbLine
 62
253
  6
CONTINUOUS
 10
22.25
 20
80.5930568263
 11
22.25
 21
83.861479359
  0
LINE
  5
2AC
100
AcDbEntity
  8
0
100
AcDbLine
 62
253
  6
CONTINUOUS
 10
22.25
 20
-129.05
 11
22.25
 21
-129.138520641
  0
LINE
  5
2AD
100
AcDbEntity
  8
0
100
AcDbLine
 62
253
  6
CONTINUOUS
 10
22.25
 20
129.05
 11
22.25
 21
129.138520641
  0
LINE
  5
2AE
100
AcDbEntity
  8
RACCORDO
100
AcDbLine
 62
253
  6
CONTINUOUS
 10
22.25
 20
129.138520641
 11
22.2499999297
 21
130.7456995725
  0
LINE
  5
2AF
100
AcDbEntity
  8
RACCORDO
100
AcDbLine
 62
253
  6
CONTINUOUS
 10
22.25
 20
-129.138520641
 11
22.2499998976
 21
-130.7456995725
  0
LINE
  5
2B0
100
AcDbEntity
  8
0
100
AcDbLine
 62
7
  6
CONTINUOUS
 10
22.55
 20
-128.75
 11
22.55
 21
-84.25
  0
LINE
  5
2B1
100
AcDbEntity
  8
0
100
AcDbLine
 62
7
  6
CONTINUOUS
 10
22.55
 20
-57.75
 11
22.55
 21
-13.25
  0
LINE
  5
2B2
100
AcDbEntity
  8
0
100
AcDbLine
 62
7
  6
CONTINUOUS
 10
22.55
 20
13.25
 11
22.55
 21
57.75
  0
LINE
  5
2B3
100
AcDbEntity
  8
0
100
AcDbLine
 62
7
  6
CONTINUOUS
 10
22.55
 20
84.25
 11
22.55
 21
128.75
  0
LINE
  5
2B4
100
AcDbEntity
  8
0
100
AcDbLine
 62
253
  6
CONTINUOUS
 10
22.638520641
 20
-128.75
 11
22.638520641
 21
-84.25
  0
LINE
  5
2B5
100
AcDbEntity
  8
0
100
AcDbLine
 62
253
  6
CONTINUOUS
 10
22.638520641
 20
-57.75
 11
22.638520641
 21
-13.25
  0
LINE
  5
2B6
100
AcDbEntity
  8
0
100
AcDbLine
 62
253
  6
CONTINUOUS
 10
22.638520641
 20
13.25
 11
22.638520641
 21
57.75
  0
LINE
  5
2B7
100
AcDbEntity
  8
0
100
AcDbLine
 62
253
  6
CONTINUOUS
 10
22.638520641
 20
84.25
 11
22.638520641
 21
128.75
  0
LINE
  5
2B8
100
AcDbEntity
  8
RACCORDO
100
AcDbLine
 62
253
  6
CONTINUOUS
 10
23.4974033547
 20
80.8123821107
 11
23.4974016707
 21
61.1876183925
  0
LINE
  5
2B9
100
AcDbEntity
  8
RACCORDO
100
AcDbLine
 62
253
  6
CONTINUOUS
 10
23.4974033547
 20
9.8123821107
 11
23.4974016707
 21
-9.8123816075
  0
LINE
  5
2BA
100
AcDbEntity
  8
RACCORDO
100
AcDbLine
 62
253
  6
CONTINUOUS
 10
23.4974033547
 20
-61.1876178893
 11
23.4974016707
 21
-80.8123816075
  0
LINE
  5
2BB
100
AcDbEntity
  8
RACCORDO
100
AcDbLine
 62
253
  6
CONTINUOUS
 10
24.2410616084
 20
-106.4999792103
 11
24.2410616085
 21
-84.2499916125
  0
LINE
  5
2BC
100
AcDbEntity
  8
RACCORDO
100
AcDbLine
 62
253
  6
CONTINUOUS
 10
24.2410616085
 20
-57.7500124384
 11
24.2410616085
 21
-13.2499916125
  0
LINE
  5
2BD
100
AcDbEntity
  8
RACCORDO
100
AcDbLine
 62
253
  6
CONTINUOUS
 10
24.2410616085
 20
13.2499875616
 11
24.2410616085
 21
57.7500083875
  0
LINE
  5
2BE
100
AcDbEntity
  8
RACCORDO
100
AcDbLine
 62
253
  6
CONTINUOUS
 10
24.2410616085
 20
84.2499875616
 11
24.2410616084
 21
106.4999792112
  0
LINE
  5
2BF
100
AcDbEntity
  8
RACCORDO
100
AcDbLine
 62
253
  6
CONTINUOUS
 10
25.843757405
 20
-106.4999896046
 11
25.8437574053
 21
-84.25
  0
LINE
  5
2C0
100
AcDbEntity
  8
RACCORDO
100
AcDbLine
 62
253
  6
CONTINUOUS
 10
25.8437574053
 20
-57.75
 11
25.8437574053
 21
-13.25
  0
LINE
  5
2C1
100
AcDbEntity
  8
RACCORDO
100
AcDbLine
 62
253
  6
CONTINUOUS
 10
25.8437574053
 20
13.25
 11
25.8437574053
 21
57.75
  0
LINE
  5
2C2
100
AcDbEntity
  8
RACCORDO
100
AcDbLine
 62
253
  6
CONTINUOUS
 10
25.8437574053
 20
84.25
 11
25.843757405
 21
106.4999896054
  0
LINE
  5
2C3
100
AcDbEntity
  8
RACCORDO
100
AcDbLine
 62
253
  6
CONTINUOUS
 10
23.4974067317
 20
-9.8123831189
 11
22.9169207993
 21
-11.4120924919
  0
LINE
  5
2C4
100
AcDbEntity
  8
RACCORDO
100
AcDbLine
 62
253
  6
CONTINUOUS
 10
23.4974067317
 20
9.8123831189
 11
22.9169207993
 21
11.4120924919
  0
LINE
  5
2C5
100
AcDbEntity
  8
RACCORDO
100
AcDbLine
 62
253
  6
CONTINUOUS
 10
37.0
 20
-146.2694281234
 11
37.0
 21
-146.5
  0
LINE
  5
2C6
100
AcDbEntity
  8
RACCORDO
100
AcDbLine
 62
253
  6
CONTINUOUS
 10
37.0
 20
146.2694281234
 11
37.0
 21
146.5
  0
LINE
  5
2C7
100
AcDbEntity
  8
RACCORDO
100
AcDbLine
 62
253
  6
CONTINUOUS
 10
39.0969798993
 20
106.5000013601
 11
39.0969798993
 21
-106.4999986399
  0
LINE
  5
2C8
100
AcDbEntity
  8
RACCORDO
100
AcDbLine
 62
253
  6
CONTINUOUS
 10
39.7614201801
 20
106.5000027202
 11
39.7614201801
 21
-106.5000027203
  0
LINE
  5
2C9
100
AcDbEntity
  8
0
100
AcDbLine
 62
7
  6
CONTINUOUS
 10
40.0
 20
143.5
 11
40.0
 21
-143.5
  0
LWPOLYLINE
  5
2CA
100
AcDbEntity
  8
0
100
AcDbPolyline
 62
7
  6
CONTINUOUS
 90
10
 70
0
 43
0.3500000006
 10
47.250000824
 20
-0.642856041
 10
46.3928583527
 20
0.2142864304
 10
45.5357158813
 20
0.4285709152
 10
44.67857341
 20
0.4285709152
 10
44.2499999084
 20
-0.0000003204
 10
44.2499999084
 20
-0.642856041
 10
44.67857341
 20
-1.0714295425
 10
45.5357158813
 20
-1.0714295425
 10
45.9642848511
 20
-0.642856041
 10
45.9642848511
 20
0.2857153473
  0
LWPOLYLINE
  5
2CB
100
AcDbEntity
  8
0
100
AcDbPolyline
 62
7
  6
CONTINUOUS
 90
5
 70
0
 43
0.3500000006
 10
45.5357158813
 20
2.1428581238
 10
45.3214268646
 20
2.5000004425
 10
44.67857341
 20
2.5000004425
 10
44.2499999084
 20
2.1428581238
 10
44.2499999084
 20
1.2857133865
  0
LWPOLYLINE
  5
2CC
100
AcDbEntity
  8
0
100
AcDbPolyline
 62
7
  6
CONTINUOUS
 90
7
 70
0
 43
0.3500000006
 10
47.250000824
 20
-1.9285708809
 10
47.250000824
 20
-3.4285713387
 10
45.1071423798
 20
-1.9285708809
 10
44.67857341
 20
-1.9285708809
 10
44.2499999084
 20
-2.3571432495
 10
44.2499999084
 20
-3.000000103
 10
44.8928578949
 20
-3.4285713387
  0
LWPOLYLINE
  5
2CD
100
AcDbEntity
  8
0
100
AcDbPolyline
 62
7
  6
CONTINUOUS
 90
6
 70
0
 43
0.3500000006
 10
47.250000824
 20
1.2857133865
 10
47.250000824
 20
2.3571426086
 10
47.0357163391
 20
2.5714293594
 10
45.9642848511
 20
2.5714293594
 10
45.5357158813
 20
2.1428581238
 10
45.5357158813
 20
1.7142846222
  0
LINE
  5
2CE
100
AcDbEntity
  8
RACCORDO
100
AcDbLine
 62
253
  6
CONTINUOUS
 10
23.4974067317
 20
-80.8123831189
 11
22.9169207993
 21
-82.4120924919
  0
LINE
  5
2CF
100
AcDbEntity
  8
RACCORDO
100
AcDbLine
 62
253
  6
CONTINUOUS
 10
23.4974067317
 20
80.8123831189
 11
22.9169207993
 21
82.4120924919
  0
LINE
  5
2D0
100
AcDbEntity
  8
RACCORDO
100
AcDbLine
 62
253
  6
CONTINUOUS
 10
-25.8437574053
 20
57.75
 11
-22.638520641
 21
57.75
  0
LINE
  5
2D1
100
AcDbEntity
  8
RACCORDO
100
AcDbLine
 62
253
  6
CONTINUOUS
 10
25.8437574053
 20
57.75
 11
22.638520641
 21
57.75
  0
LINE
  5
2D2
100
AcDbEntity
  8
0
100
AcDbLine
 62
253
  6
CONTINUOUS
 10
22.55
 20
57.75
 11
22.638520641
 21
57.75
  0
LINE
  5
2D3
100
AcDbEntity
  8
0
100
AcDbLine
 62
253
  6
CONTINUOUS
 10
-22.55
 20
57.75
 11
-22.638520641
 21
57.75
  0
LINE
  5
2D4
100
AcDbEntity
  8
0
100
AcDbLine
 62
7
  6
CONTINUOUS
 10
22.25
 20
58.05
 11
-22.25
 21
58.05
  0
LINE
  5
2D5
100
AcDbEntity
  8
0
100
AcDbLine
 62
253
  6
CONTINUOUS
 10
22.25
 20
58.138520641
 11
-22.25
 21
58.138520641
  0
LINE
  5
2D6
100
AcDbEntity
  8
RACCORDO
100
AcDbLine
 62
253
  6
CONTINUOUS
 10
22.25
 20
59.7051693945
 11
-22.25
 21
59.7051693945
  0
LINE
  5
2D7
100
AcDbEntity
  8
RACCORDO
100
AcDbLine
 62
253
  6
CONTINUOUS
 10
22.25
 20
61.4069431737
 11
-22.25
 21
61.4069431737
  0
LINE
  5
2D8
100
AcDbEntity
  8
RACCORDO
100
AcDbLine
 62
253
  6
CONTINUOUS
 10
-22.25
 20
80.5930568263
 11
22.25
 21
80.5930568263
  0
LINE
  5
2D9
100
AcDbEntity
  8
RACCORDO
100
AcDbLine
 62
253
  6
CONTINUOUS
 10
-22.25
 20
82.2948306055
 11
22.25
 21
82.2948306055
  0
LINE
  5
2DA
100
AcDbEntity
  8
0
100
AcDbLine
 62
253
  6
CONTINUOUS
 10
-22.25
 20
83.861479359
 11
22.25
 21
83.861479359
  0
LINE
  5
2DB
100
AcDbEntity
  8
0
100
AcDbLine
 62
7
  6
CONTINUOUS
 10
-22.25
 20
83.95
 11
22.25
 21
83.95
  0
LINE
  5
2DC
100
AcDbEntity
  8
0
100
AcDbLine
 62
253
  6
CONTINUOUS
 10
22.55
 20
84.25
 11
22.638520641
 21
84.25
  0
LINE
  5
2DD
100
AcDbEntity
  8
0
100
AcDbLine
 62
253
  6
CONTINUOUS
 10
-22.55
 20
84.25
 11
-22.638520641
 21
84.25
  0
LINE
  5
2DE
100
AcDbEntity
  8
RACCORDO
100
AcDbLine
 62
253
  6
CONTINUOUS
 10
-22.638520641
 20
84.25
 11
-25.8437574053
 21
84.25
  0
LINE
  5
2DF
100
AcDbEntity
  8
RACCORDO
100
AcDbLine
 62
253
  6
CONTINUOUS
 10
22.638520641
 20
84.25
 11
25.8437574053
 21
84.25
  0
LINE
  5
2E0
100
AcDbEntity
  8
RACCORDO
100
AcDbLine
 62
253
  6
CONTINUOUS
 10
39.7614201801
 20
106.5000027202
 11
24.2410616084
 21
106.4999792112
  0
LINE
  5
2E1
100
AcDbEntity
  8
RACCORDO
100
AcDbLine
 62
253
  6
CONTINUOUS
 10
-24.2410616084
 20
106.4999792135
 11
-39.7614201801
 21
106.5000027203
  0
LINE
  5
2E2
100
AcDbEntity
  8
RACCORDO
100
AcDbLine
 62
7
  6
CONTINUOUS
 10
-3.519965881
 20
-146.4071444765
 11
-3.655011446
 21
-146.4880399649
  0
LINE
  5
2E3
100
AcDbEntity
  8
0
100
AcDbLine
 62
253
  6
CONTINUOUS
 10
22.55
 20
128.75
 11
22.638520641
 21
128.75
  0
LINE
  5
2E4
100
AcDbEntity
  8
0
100
AcDbLine
 62
253
  6
CONTINUOUS
 10
-22.55
 20
128.75
 11
-22.638520641
 21
128.75
  0
LINE
  5
2E5
100
AcDbEntity
  8
RACCORDO
100
AcDbLine
 62
253
  6
CONTINUOUS
 10
22.638520641
 20
128.75
 11
24.247815498
 21
128.7499998304
  0
LINE
  5
2E6
100
AcDbEntity
  8
RACCORDO
100
AcDbLine
 62
253
  6
CONTINUOUS
 10
-22.638520641
 20
128.75
 11
-24.2478154976
 21
128.7499996203
  0
LINE
  5
2E7
100
AcDbEntity
  8
0
100
AcDbLine
 62
7
  6
CONTINUOUS
 10
22.25
 20
129.05
 11
-22.25
 21
129.05
  0
LINE
  5
2E8
100
AcDbEntity
  8
0
100
AcDbLine
 62
253
  6
CONTINUOUS
 10
22.25
 20
129.138520641
 11
-22.25
 21
129.138520641
  0
LINE
  5
2E9
100
AcDbEntity
  8
RACCORDO
100
AcDbLine
 62
253
  6
CONTINUOUS
 10
11.7498610955
 20
130.7413437619
 11
-11.7498610955
 21
130.7413437619
  0
LINE
  5
2EA
100
AcDbEntity
  8
RACCORDO
100
AcDbLine
 62
253
  6
CONTINUOUS
 10
11.7499305477
 20
132.3449826202
 11
-11.7499305477
 21
132.3449826202
  0
LINE
  5
2EB
100
AcDbEntity
  8
RACCORDO
100
AcDbLine
 62
7
  6
CONTINUOUS
 10
-3.519965881
 20
146.4071444765
 11
-3.655011446
 21
146.4880399649
  0
LWPOLYLINE
  5
2EC
100
AcDbEntity
  8
0
100
AcDbPolyline
 62
7
  6
CONTINUOUS
 90
13
 70
0
 43
0.3500000006
 10
-1.9285714102
 20
156.9642866821
 10
-2.2142856617
 20
157.178571167
 10
-2.2142856617
 20
157.8214246216
 10
-1.9285714102
 20
158.2499935913
 10
-1.2857142735
 20
158.2499935913
 10
-1.0000000219
 20
157.8214246216
 10
-1.0000000219
 20
157.178571167
 10
-1.2857142735
 20
156.9642866821
 10
-0.8571428254
 20
156.5357177124
 10
-0.8571428254
 20
155.6785797729
 10
-1.2857142735
 20
155.2499926758
 10
-1.9285714102
 20
155.2499926758
 10
-2.3571427875
 20
155.6785797729
  0
LINE
  5
2ED
100
AcDbEntity
  8
RACCORDO
100
AcDbLine
 62
253
  6
CONTINUOUS
 10
40.0
 20
143.5
 11
39.7686319911
 21
143.5
  0
LINE
  5
2EE
100
AcDbEntity
  8
RACCORDO
100
AcDbLine
 62
253
  6
CONTINUOUS
 10
-39.7686319911
 20
143.5
 11
-40.0
 21
143.5
  0
LINE
  5
2EF
100
AcDbEntity
  8
RACCORDO
100
AcDbLine
 62
253
  6
CONTINUOUS
 10
-11.7500131317
 20
145.596928824
 11
11.7499868572
 21
145.596928824
  0
LINE
  5
2F0
100
AcDbEntity
  8
RACCORDO
100
AcDbLine
 62
253
  6
CONTINUOUS
 10
-11.7500262635
 20
146.2614222832
 11
11.7500262635
 21
146.2614222832
  0
LINE
  5
2F1
100
AcDbEntity
  8
RACCORDO
100
AcDbLine
 62
7
  6
CONTINUOUS
 10
3.2709172065
 20
146.3951844414
 11
-3.2709172065
 21
146.3951844414
  0
LINE
  5
2F2
100
AcDbEntity
  8
RACCORDO
100
AcDbLine
 62
7
  6
CONTINUOUS
 10
-37.0
 20
146.5
 11
-3.9040601206
 21
146.5
  0
LINE
  5
2F3
100
AcDbEntity
  8
RACCORDO
100
AcDbLine
 62
7
  6
CONTINUOUS
 10
3.9040601206
 20
146.5
 11
37.0
 21
146.5
  0
LINE
  5
2F4
100
AcDbEntity
  8
RACCORDO
100
AcDbLine
 62
7
  6
CONTINUOUS
 10
-72.496520489
 20
-146.2609835381
 11
-67.9358147089
 21
-146.5
  0
LINE
  5
2F5
100
AcDbEntity
  8
SUPERFICI
100
AcDbLine
 62
7
  6
CONTINUOUS
 10
-67.9358147089
 20
-146.5
 11
-72.3353882024
 21
-146.2694281234
  0
LINE
  5
2F6
100
AcDbEntity
  8
RACCORDO
100
AcDbLine
 62
7
  6
CONTINUOUS
 10
-72.5498258247
 20
-146.256758326
 11
-72.5180331372
 21
-146.259278358
  0
LINE
  5
2F7
100
AcDbEntity
  8
RACCORDO
100
AcDbLine
 62
253
  6
CONTINUOUS
 10
-72.3505793113
 20
-143.5
 11
-67.9358147089
 21
-143.5
  0
LINE
  5
2F8
100
AcDbEntity
  8
RACCORDO
100
AcDbLine
 62
253
  6
CONTINUOUS
 10
-76.9358147089
 20
-128.75
 11
-76.7282899923
 21
-128.7499996203
  0
LWPOLYLINE
  5
2F9
100
AcDbEntity
  8
0
100
AcDbPolyline
 62
7
  6
CONTINUOUS
 90
10
 70
0
 43
0.3500000006
 10
-73.1858149567
 20
155.2499926758
 10
-72.3286724854
 20
156.1071487427
 10
-72.1143880005
 20
156.9642866821
 10
-72.1143880005
 20
157.8214246216
 10
-72.5429569702
 20
158.2499935913
 10
-73.1858149567
 20
158.2499935913
 10
-73.6143839264
 20
157.8214246216
 10
-73.6143839264
 20
156.9642866821
 10
-73.1858149567
 20
156.5357177124
 10
-72.2572413025
 20
156.5357177124
  0
LINE
  5
2FA
100
AcDbEntity
  8
RACCORDO
100
AcDbLine
 62
253
  6
CONTINUOUS
 10
-76.7334423841
 20
-106.4999792103
 11
-72.4881888637
 21
-106.5000027203
  0
LINE
  5
2FB
100
AcDbEntity
  8
RACCORDO
100
AcDbLine
 62
7
  6
CONTINUOUS
 10
-76.6432394229
 20
130.8669056387
 11
-76.653916192
 21
130.8512742545
  0
LINE
  5
2FC
100
AcDbEntity
  8
RACCORDO
100
AcDbLine
 62
7
  6
CONTINUOUS
 10
-76.6516378162
 20
130.8545922233
 11
-76.6609846038
 21
130.841040983
  0
LINE
  5
2FD
100
AcDbEntity
  8
RACCORDO
100
AcDbLine
 62
7
  6
CONTINUOUS
 10
-76.6597062854
 20
130.8428849817
 11
-76.6676102512
 21
130.8315304185
  0
LINE
  5
2FE
100
AcDbEntity
  8
RACCORDO
100
AcDbLine
 62
7
  6
CONTINUOUS
 10
-76.6676102512
 20
130.8315304185
 11
-76.6783532551
 21
130.8162742466
  0
LINE
  5
2FF
100
AcDbEntity
  8
RACCORDO
100
AcDbLine
 62
7
  6
CONTINUOUS
 10
-76.6753486937
 20
130.8205207824
 11
-76.6866025934
 21
130.8046946782
  0
LINE
  5
300
100
AcDbEntity
  8
RACCORDO
100
AcDbLine
 62
7
  6
CONTINUOUS
 10
-76.685131841
 20
130.8067506667
 11
-76.6950771224
 21
130.7929186904
  0
LINE
  5
301
100
AcDbEntity
  8
RACCORDO
100
AcDbLine
 62
7
  6
CONTINUOUS
 10
-76.6938095079
 20
130.794672525
 11
-76.7040429277
 21
130.7805894835
  0
LINE
  5
302
100
AcDbEntity
  8
RACCORDO
100
AcDbLine
 62
7
  6
CONTINUOUS
 10
-76.7040429277
 20
130.7805894835
 11
-76.7133865026
 21
130.767879444
  0
LINE
  5
303
100
AcDbEntity
  8
RACCORDO
100
AcDbLine
 62
7
  6
CONTINUOUS
 10
-76.7133865026
 20
130.767879444
 11
-76.7222693306
 21
130.7559246777
  0
LINE
  5
304
100
AcDbEntity
  8
RACCORDO
100
AcDbLine
 62
7
  6
CONTINUOUS
 10
-76.7222693306
 20
130.7559246777
 11
-76.732643093
 21
130.7421186285
  0
LINE
  5
305
100
AcDbEntity
  8
RACCORDO
100
AcDbLine
 62
7
  6
CONTINUOUS
 10
-76.7321167567
 20
130.7428151132
 11
-76.7321347459
 21
130.742791301
  0
LINE
  5
306
100
AcDbEntity
  8
RACCORDO
100
AcDbLine
 62
7
  6
CONTINUOUS
 10
-76.7308669797
 20
130.7444706513
 11
-76.7319739051
 21
130.7430042224
  0
LINE
  5
307
100
AcDbEntity
  8
RACCORDO
100
AcDbLine
 62
7
  6
CONTINUOUS
 10
-76.7332857752
 20
130.741268811
 11
-76.7343304975
 21
130.7398890057
  0
LINE
  5
308
100
AcDbEntity
  8
RACCORDO
100
AcDbLine
 62
7
  6
CONTINUOUS
 10
-76.7289146662
 20
130.7470067784
 11
-76.7297121504
 21
130.7459633062
  0
LINE
  5
309
100
AcDbEntity
  8
RACCORDO
100
AcDbLine
 62
253
  6
CONTINUOUS
 10
-76.9358147089
 20
-84.25
 11
-76.1334584685
 21
-84.25
  0
LINE
  5
30A
100
AcDbEntity
  8
RACCORDO
100
AcDbLine
 62
7
  6
CONTINUOUS
 10
-76.7343317925
 20
-130.7398872967
 11
-76.7332857752
 21
-130.741268811
  0
LINE
  5
30B
100
AcDbEntity
  8
RACCORDO
100
AcDbLine
 62
7
  6
CONTINUOUS
 10
-76.7318501278
 20
-130.7431681136
 11
-76.7240540264
 21
-130.7535376781
  0
LINE
  5
30C
100
AcDbEntity
  8
RACCORDO
100
AcDbLine
 62
7
  6
CONTINUOUS
 10
-76.7240540264
 20
-130.7535376781
 11
-76.7161522579
 21
-130.7641439051
  0
LINE
  5
30D
100
AcDbEntity
  8
RACCORDO
100
AcDbLine
 62
7
  6
CONTINUOUS
 10
-76.7161522579
 20
-130.7641439051
 11
-76.7072903349
 21
-130.7761561487
  0
LINE
  5
30E
100
AcDbEntity
  8
RACCORDO
100
AcDbLine
 62
7
  6
CONTINUOUS
 10
-76.7072903349
 20
-130.7761561487
 11
-76.6973034248
 21
-130.7898449172
  0
LINE
  5
30F
100
AcDbEntity
  8
RACCORDO
100
AcDbLine
 62
7
  6
CONTINUOUS
 10
-76.6973034248
 20
-130.7898449172
 11
-76.6866025932
 21
-130.8046946785
  0
LINE
  5
310
100
AcDbEntity
  8
RACCORDO
100
AcDbLine
 62
7
  6
CONTINUOUS
 10
-76.6866025932
 20
-130.8046946785
 11
-76.6753486935
 21
-130.8205207827
  0
LINE
  5
311
100
AcDbEntity
  8
RACCORDO
100
AcDbLine
 62
7
  6
CONTINUOUS
 10
-76.6753486935
 20
-130.8205207827
 11
-76.667610251
 21
-130.8315304188
  0
LINE
  5
312
100
AcDbEntity
  8
RACCORDO
100
AcDbLine
 62
7
  6
CONTINUOUS
 10
-76.667610251
 20
-130.8315304188
 11
-76.6597062852
 21
-130.842884982
  0
LINE
  5
313
100
AcDbEntity
  8
RACCORDO
100
AcDbLine
 62
7
  6
CONTINUOUS
 10
-76.6597062852
 20
-130.842884982
 11
-76.6516378159
 21
-130.8545922236
  0
LINE
  5
314
100
AcDbEntity
  8
RACCORDO
100
AcDbLine
 62
7
  6
CONTINUOUS
 10
-76.6516378159
 20
-130.8545922236
 11
-76.643412981
 21
-130.8666498684
  0
LINE
  5
315
100
AcDbEntity
  8
RACCORDO
100
AcDbLine
 62
7
  6
CONTINUOUS
 10
-76.5005958898
 20
131.0992287056
 11
-76.5099118081
 21
131.0825104298
  0
LINE
  5
316
100
AcDbEntity
  8
RACCORDO
100
AcDbLine
 62
7
  6
CONTINUOUS
 10
-76.5055010447
 20
131.0903947386
 11
-76.5152823074
 21
131.0729852978
  0
LINE
  5
317
100
AcDbEntity
  8
RACCORDO
100
AcDbLine
 62
7
  6
CONTINUOUS
 10
-76.5134917038
 20
131.0761520565
 11
-76.520156915
 21
131.0644092348
  0
LINE
  5
318
100
AcDbEntity
  8
RACCORDO
100
AcDbLine
 62
7
  6
CONTINUOUS
 10
-76.5206646597
 20
131.0635196281
 11
-76.529867442
 21
131.0475180314
  0
LINE
  5
319
100
AcDbEntity
  8
RACCORDO
100
AcDbLine
 62
7
  6
CONTINUOUS
 10
-76.5278537629
 20
131.0509999037
 11
-76.5347018756
 21
131.0392022738
  0
LINE
  5
31A
100
AcDbEntity
  8
RACCORDO
100
AcDbLine
 62
7
  6
CONTINUOUS
 10
-76.5350567428
 20
131.0385942039
 11
-76.544320779
 21
131.0228367498
  0
LINE
  5
31B
100
AcDbEntity
  8
RACCORDO
100
AcDbLine
 62
7
  6
CONTINUOUS
 10
-76.542271275
 20
131.0263038808
 11
-76.5491037623
 21
131.0147863302
  0
LINE
  5
31C
100
AcDbEntity
  8
RACCORDO
100
AcDbLine
 62
7
  6
CONTINUOUS
 10
-76.5494953654
 20
131.0141296717
 11
-76.5586085637
 21
130.9989561055
  0
LINE
  5
31D
100
AcDbEntity
  8
RACCORDO
100
AcDbLine
 62
7
  6
CONTINUOUS
 10
-76.5567266704
 20
131.0020728597
 11
-76.5633289004
 21
130.991175615
  0
LINE
  5
31E
100
AcDbEntity
  8
RACCORDO
100
AcDbLine
 62
7
  6
CONTINUOUS
 10
-76.5633289004
 20
130.991175615
 11
-76.5726970532
 21
130.9758898705
  0
LINE
  5
31F
100
AcDbEntity
  8
RACCORDO
100
AcDbLine
 62
7
  6
CONTINUOUS
 10
-76.5712018109
 20
130.9783158543
 11
-76.5819629032
 21
130.9609698652
  0
LINE
  5
320
100
AcDbEntity
  8
RACCORDO
100
AcDbLine
 62
7
  6
CONTINUOUS
 10
-76.5784412282
 20
130.9666175313
 11
-76.5856786812
 21
130.9550409059
  0
LINE
  5
321
100
AcDbEntity
  8
RACCORDO
100
AcDbLine
 62
7
  6
CONTINUOUS
 10
-76.5856786812
 20
130.9550409059
 11
-76.5956524221
 21
130.9392769891
  0
LINE
  5
322
100
AcDbEntity
  8
RACCORDO
100
AcDbLine
 62
7
  6
CONTINUOUS
 10
-76.5929121069
 20
130.9435865727
 11
-76.6001569903
 21
130.9322277674
  0
LINE
  5
323
100
AcDbEntity
  8
RACCORDO
100
AcDbLine
 62
7
  6
CONTINUOUS
 10
-76.6001390837
 20
130.9322556603
 11
-76.6090739757
 21
130.9183999294
  0
LINE
  5
324
100
AcDbEntity
  8
RACCORDO
100
AcDbLine
 62
7
  6
CONTINUOUS
 10
-76.6073571766
 20
130.9210492708
 11
-76.6178634232
 21
130.9049307999
  0
LINE
  5
325
100
AcDbEntity
  8
RACCORDO
100
AcDbLine
 62
7
  6
CONTINUOUS
 10
-76.6145642949
 20
130.9099679356
 11
-76.6253489912
 21
130.8935827695
  0
LINE
  5
326
100
AcDbEntity
  8
RACCORDO
100
AcDbLine
 62
7
  6
CONTINUOUS
 10
-76.6222086026
 20
130.8983299661
 11
-76.6325175448
 21
130.8828192001
  0
LWPOLYLINE
  5
327
100
AcDbEntity
  8
RACCORDO
100
AcDbPolyline
 62
7
  6
CONTINUOUS
 90
3
 70
0
 10
-76.6307966133
 20
130.8853940505
 10
-76.6392437744
 20
130.8728104221
 10
-76.6434129813
 20
130.866649868
  0
LINE
  5
328
100
AcDbEntity
  8
RACCORDO
100
AcDbLine
 62
7
  6
CONTINUOUS
 10
-76.643412981
 20
-130.8666498684
 11
-76.6350380628
 21
-130.8790584456
  0
LINE
  5
329
100
AcDbEntity
  8
RACCORDO
100
AcDbLine
 62
7
  6
CONTINUOUS
 10
-76.6350380628
 20
-130.8790584456
 11
-76.6265198808
 21
-130.8918178289
  0
LINE
  5
32A
100
AcDbEntity
  8
RACCORDO
100
AcDbLine
 62
7
  6
CONTINUOUS
 10
-76.6265198808
 20
-130.8918178289
 11
-76.6178634229
 21
-130.9049308003
  0
LINE
  5
32B
100
AcDbEntity
  8
RACCORDO
100
AcDbLine
 62
7
  6
CONTINUOUS
 10
-76.6178634229
 20
-130.9049308003
 11
-76.6090739755
 21
-130.9183999297
  0
LINE
  5
32C
100
AcDbEntity
  8
RACCORDO
100
AcDbLine
 62
7
  6
CONTINUOUS
 10
-76.6090739755
 20
-130.9183999297
 11
-76.6001569901
 21
-130.9322277678
  0
LINE
  5
32D
100
AcDbEntity
  8
RACCORDO
100
AcDbLine
 62
7
  6
CONTINUOUS
 10
-76.6001569901
 20
-130.9322277678
 11
-76.5911180629
 21
-130.9464168741
  0
LINE
  5
32E
100
AcDbEntity
  8
RACCORDO
100
AcDbLine
 62
7
  6
CONTINUOUS
 10
-76.5911180629
 20
-130.9464168741
 11
-76.581962903
 21
-130.9609698656
  0
LINE
  5
32F
100
AcDbEntity
  8
RACCORDO
100
AcDbLine
 62
7
  6
CONTINUOUS
 10
-76.581962903
 20
-130.9609698656
 11
-76.572697053
 21
-130.9758898709
  0
LINE
  5
330
100
AcDbEntity
  8
RACCORDO
100
AcDbLine
 62
7
  6
CONTINUOUS
 10
-76.572697053
 20
-130.9758898709
 11
-76.5633289002
 21
-130.9911756154
  0
LINE
  5
331
100
AcDbEntity
  8
RACCORDO
100
AcDbLine
 62
7
  6
CONTINUOUS
 10
-76.5633289002
 20
-130.9911756154
 11
-76.5538666092
 21
-131.0068262236
  0
LINE
  5
332
100
AcDbEntity
  8
RACCORDO
100
AcDbLine
 62
7
  6
CONTINUOUS
 10
-76.5538666092
 20
-131.0068262236
 11
-76.5443207788
 21
-131.0228367502
  0
LINE
  5
333
100
AcDbEntity
  8
RACCORDO
100
AcDbLine
 62
7
  6
CONTINUOUS
 10
-76.5443207788
 20
-131.0228367502
 11
-76.5347018754
 21
-131.0392022742
  0
LINE
  5
334
100
AcDbEntity
  8
RACCORDO
100
AcDbLine
 62
7
  6
CONTINUOUS
 10
-76.5347018754
 20
-131.0392022742
 11
-76.5250188171
 21
-131.0559203503
  0
LINE
  5
335
100
AcDbEntity
  8
RACCORDO
100
AcDbLine
 62
7
  6
CONTINUOUS
 10
-76.5250188171
 20
-131.0559203503
 11
-76.5152823071
 21
-131.0729852981
  0
LWPOLYLINE
  5
336
100
AcDbEntity
  8
RACCORDO
100
AcDbPolyline
 62
7
  6
CONTINUOUS
 90
3
 70
0
 10
-76.5152823071
 20
-131.0729852981
 10
-76.5055010445
 20
-131.090394739
 10
-76.5005958896
 20
-131.0992287059
  0
LINE
  5
337
100
AcDbEntity
  8
RACCORDO
100
AcDbLine
 62
7
  6
CONTINUOUS
 10
-76.3869823926
 20
131.3269609305
 11
-76.3967911791
 21
131.305247674
  0
LINE
  5
338
100
AcDbEntity
  8
RACCORDO
100
AcDbLine
 62
7
  6
CONTINUOUS
 10
-76.3956954931
 20
131.3076503436
 11
-76.4017103536
 21
131.2945284013
  0
LINE
  5
339
100
AcDbEntity
  8
RACCORDO
100
AcDbLine
 62
7
  6
CONTINUOUS
 10
-76.4023322668
 20
131.2931809314
 11
-76.4115717878
 21
131.2733673722
  0
LINE
  5
33A
100
AcDbEntity
  8
RACCORDO
100
AcDbLine
 62
7
  6
CONTINUOUS
 10
-76.4090138268
 20
131.2788150515
 11
-76.4165121902
 21
131.2629251402
  0
LINE
  5
33B
100
AcDbEntity
  8
RACCORDO
100
AcDbLine
 62
7
  6
CONTINUOUS
 10
-76.4157385046
 20
131.2645534479
 11
-76.422504758
 21
131.250396565
  0
LINE
  5
33C
100
AcDbEntity
  8
RACCORDO
100
AcDbLine
 62
7
  6
CONTINUOUS
 10
-76.4214578139
 20
131.2525747961
 11
-76.4313610169
 21
131.2321489484
  0
LINE
  5
33D
100
AcDbEntity
  8
RACCORDO
100
AcDbLine
 62
7
  6
CONTINUOUS
 10
-76.4293109047
 20
131.236345112
 11
-76.4363169045
 21
131.2220727335
  0
LINE
  5
33E
100
AcDbEntity
  8
RACCORDO
100
AcDbLine
 62
7
  6
CONTINUOUS
 10
-76.4361552538
 20
131.22239978
 11
-76.4430362456
 21
131.2085609628
  0
LINE
  5
33F
100
AcDbEntity
  8
RACCORDO
100
AcDbLine
 62
7
  6
CONTINUOUS
 10
-76.4412744898
 20
131.2120872756
 11
-76.4511913279
 21
131.1923874632
  0
LINE
  5
340
100
AcDbEntity
  8
RACCORDO
100
AcDbLine
 62
7
  6
CONTINUOUS
 10
-76.4499521775
 20
131.1948293174
 11
-76.456148919
 21
131.1826724597
  0
LINE
  5
341
100
AcDbEntity
  8
RACCORDO
100
AcDbLine
 62
7
  6
CONTINUOUS
 10
-76.4569013387
 20
131.1812054826
 11
-76.466058269
 21
131.1635107893
  0
LINE
  5
342
100
AcDbEntity
  8
RACCORDO
100
AcDbLine
 62
7
  6
CONTINUOUS
 10
-76.4638821556
 20
131.1676898024
 11
-76.4710084194
 21
131.1540634572
  0
LINE
  5
343
100
AcDbEntity
  8
RACCORDO
100
AcDbLine
 62
7
  6
CONTINUOUS
 10
-76.4708929075
 20
131.1542828822
 11
-76.4808956241
 21
131.1354342925
  0
LINE
  5
344
100
AcDbEntity
  8
RACCORDO
100
AcDbLine
 62
7
  6
CONTINUOUS
 10
-76.4779318673
 20
131.1409853095
 11
-76.4858311224
 21
131.1262517808
  0
LINE
  5
345
100
AcDbEntity
  8
RACCORDO
100
AcDbLine
 62
7
  6
CONTINUOUS
 10
-76.4849974495
 20
131.1277973796
 11
-76.492087919
 21
131.1147196472
  0
LINE
  5
346
100
AcDbEntity
  8
RACCORDO
100
AcDbLine
 62
7
  6
CONTINUOUS
 10
-76.4907601537
 20
131.117156937
 11
-76.5005958898
 21
131.0992287056
  0
LINE
  5
347
100
AcDbEntity
  8
RACCORDO
100
AcDbLine
 62
7
  6
CONTINUOUS
 10
-76.4992015346
 20
131.1017526498
 11
-76.5027665619
 21
131.0953106864
  0
LINE
  5
348
100
AcDbEntity
  8
RACCORDO
100
AcDbLine
 62
253
  6
CONTINUOUS
 10
-76.9358147089
 20
-57.75
 11
-76.1334584685
 21
-57.75
  0
LINE
  5
349
100
AcDbEntity
  8
RACCORDO
100
AcDbLine
 62
7
  6
CONTINUOUS
 10
-76.5005958896
 20
-131.0992287059
 11
-76.4907601535
 21
-131.1171569374
  0
LINE
  5
34A
100
AcDbEntity
  8
RACCORDO
100
AcDbLine
 62
7
  6
CONTINUOUS
 10
-76.4907601535
 20
-131.1171569374
 11
-76.4808956239
 21
-131.1354342928
  0
LINE
  5
34B
100
AcDbEntity
  8
RACCORDO
100
AcDbLine
 62
7
  6
CONTINUOUS
 10
-76.4808956239
 20
-131.1354342928
 11
-76.4710084192
 21
-131.1540634576
  0
LINE
  5
34C
100
AcDbEntity
  8
RACCORDO
100
AcDbLine
 62
7
  6
CONTINUOUS
 10
-76.4710084192
 20
-131.1540634576
 11
-76.4611048255
 21
-131.173047032
  0
LINE
  5
34D
100
AcDbEntity
  8
RACCORDO
100
AcDbLine
 62
7
  6
CONTINUOUS
 10
-76.4611048255
 20
-131.173047032
 11
-76.4511913277
 21
-131.1923874636
  0
LWPOLYLINE
  5
34E
100
AcDbEntity
  8
RACCORDO
100
AcDbPolyline
 62
7
  6
CONTINUOUS
 90
20
 70
0
 10
-73.3486524694
 20
-145.6888963967
 10
-73.3243113888
 20
-145.7370932569
 10
-73.297405891
 20
-145.7839035535
 10
-73.2680148098
 20
-145.829191079
 10
-73.236224219
 20
-145.8728240726
 10
-73.2021302231
 20
-145.9146720802
 10
-73.1658329936
 20
-145.9546140795
 10
-73.1274392815
 20
-145.992534414
 10
-73.0870657713
 20
-146.0283201679
 10
-73.044832123
 20
-146.061868163
 10
-73.0008617943
 20
-146.0930830876
 10
-72.9552858752
 20
-146.1218746647
 10
-72.9082396781
 20
-146.148160492
 10
-72.8598595864
 20
-146.1718673489
 10
-72.8102844305
 20
-146.1929296869
 10
-72.7596455207
 20
-146.2112926549
 10
-72.7081032154
 20
-146.2268990199
 10
-72.65584586
 20
-146.239697138
 10
-72.603039587
 20
-146.2496559591
 10
-72.5498258247
 20
-146.256758326
  0
LINE
  5
34F
100
AcDbEntity
  8
RACCORDO
100
AcDbLine
 62
7
  6
CONTINUOUS
 10
-76.4511913277
 20
-131.1923874636
 11
-76.4412744896
 21
-131.2120872759
  0
LINE
  5
350
100
AcDbEntity
  8
RACCORDO
100
AcDbLine
 62
7
  6
CONTINUOUS
 10
-76.4412744896
 20
-131.2120872759
 11
-76.4313610167
 21
-131.2321489487
  0
LINE
  5
351
100
AcDbEntity
  8
RACCORDO
100
AcDbLine
 62
7
  6
CONTINUOUS
 10
-76.4313610167
 20
-131.2321489487
 11
-76.4214578137
 21
-131.2525747964
  0
LINE
  5
352
100
AcDbEntity
  8
RACCORDO
100
AcDbLine
 62
7
  6
CONTINUOUS
 10
-76.4214578137
 20
-131.2525747964
 11
-76.4115717876
 21
-131.2733673726
  0
LINE
  5
353
100
AcDbEntity
  8
RACCORDO
100
AcDbLine
 62
7
  6
CONTINUOUS
 10
-76.4115717876
 20
-131.2733673726
 11
-76.4017103534
 21
-131.2945284017
  0
LWPOLYLINE
  5
354
100
AcDbEntity
  8
RACCORDO
100
AcDbPolyline
 62
7
  6
CONTINUOUS
 90
3
 70
0
 10
-76.4017103534
 20
-131.2945284017
 10
-76.3918815614
 20
-131.3160584131
 10
-76.3869823925
 20
-131.3269609309
  0
LWPOLYLINE
  5
355
100
AcDbEntity
  8
SUPERFICI
100
AcDbPolyline
 62
7
  6
CONTINUOUS
 90
19
 70
0
 10
-73.4650987217
 20
145.3801465264
 10
-73.5385982283
 20
145.1735556254
 10
-73.6106740464
 20
144.9674539443
 10
-73.6813587125
 20
144.7618353476
 10
-73.750664282
 20
144.55675049
 10
-73.8186118125
 20
144.352222536
 10
-73.8852455191
 20
144.1482013477
 10
-73.950575251
 20
143.9447377315
 10
-74.0146217371
 20
143.7418478233
 10
-74.0774425023
 20
143.5394259285
 10
-74.1390444794
 20
143.3375230674
 10
-74.1994474639
 20
143.1361475503
 10
-74.258723848
 20
142.9351254078
 10
-74.3168793305
 20
142.7344998463
 10
-74.373929554
 20
142.534279359
 10
-74.4299560257
 20
142.3342333175
 10
-74.4849672447
 20
142.1343800587
 10
-74.5389693962
 20
141.9347457764
 10
-74.6441981563
 20
141.5353613687
  0
LINE
  5
356
100
AcDbEntity
  8
RACCORDO
100
AcDbLine
 62
7
  6
CONTINUOUS
 10
-76.2968895376
 20
131.5526422683
 11
-76.3025961673
 21
131.5366191751
  0
LINE
  5
357
100
AcDbEntity
  8
SUPERFICI
100
AcDbLine
 62
7
  6
CONTINUOUS
 10
-73.3833653298
 20
145.6057781526
 11
-73.4650987209
 21
145.3801465286
  0
LINE
  5
358
100
AcDbEntity
  8
RACCORDO
100
AcDbLine
 62
7
  6
CONTINUOUS
 10
-76.3019145402
 20
131.5385182755
 11
-76.3083723247
 21
131.520686727
  0
LINE
  5
359
100
AcDbEntity
  8
RACCORDO
100
AcDbLine
 62
7
  6
CONTINUOUS
 10
-76.3064269258
 20
131.5260216989
 11
-76.3142165144
 21
131.5048459529
  0
LINE
  5
35A
100
AcDbEntity
  8
RACCORDO
100
AcDbLine
 62
7
  6
CONTINUOUS
 10
-76.3109703639
 20
131.5136110111
 11
-76.3171636433
 21
131.4969602781
  0
LINE
  5
35B
100
AcDbEntity
  8
RACCORDO
100
AcDbLine
 62
7
  6
CONTINUOUS
 10
-76.3155438269
 20
131.5012863203
 11
-76.3247763432
 21
131.4768963401
  0
LINE
  5
35C
100
AcDbEntity
  8
RACCORDO
100
AcDbLine
 62
7
  6
CONTINUOUS
 10
-76.3231071153
 20
131.4812587209
 11
-76.329433492
 21
131.4648308565
  0
LINE
  5
35D
100
AcDbEntity
  8
RACCORDO
100
AcDbLine
 62
7
  6
CONTINUOUS
 10
-76.329114876
 20
131.4656511845
 11
-76.3351854964
 21
131.4501383445
  0
LINE
  5
35E
100
AcDbEntity
  8
RACCORDO
100
AcDbLine
 62
7
  6
CONTINUOUS
 10
-76.3341160263
 20
131.4528531376
 11
-76.3435534518
 21
131.429160466
  0
LINE
  5
35F
100
AcDbEntity
  8
RACCORDO
100
AcDbLine
 62
7
  6
CONTINUOUS
 10
-76.3413174244
 20
131.4347211507
 11
-76.3483058184
 21
131.4174468094
  0
LINE
  5
360
100
AcDbEntity
  8
RACCORDO
100
AcDbLine
 62
7
  6
CONTINUOUS
 10
-76.3475090941
 20
131.4194005341
 11
-76.3537590465
 21
131.4041771191
  0
LINE
  5
361
100
AcDbEntity
  8
RACCORDO
100
AcDbLine
 62
7
  6
CONTINUOUS
 10
-76.3530791441
 20
131.4058219276
 11
-76.3626842467
 21
131.3828394052
  0
LINE
  5
362
100
AcDbEntity
  8
RACCORDO
100
AcDbLine
 62
7
  6
CONTINUOUS
 10
-76.360065695
 20
131.3890518018
 11
-76.3675134877
 21
131.3714829636
  0
LINE
  5
363
100
AcDbEntity
  8
RACCORDO
100
AcDbLine
 62
7
  6
CONTINUOUS
 10
-76.3664274409
 20
131.3740254597
 11
-76.3723592607
 21
131.3602161709
  0
LINE
  5
364
100
AcDbEntity
  8
RACCORDO
100
AcDbLine
 62
7
  6
CONTINUOUS
 10
-76.3728427974
 20
131.3590986656
 11
-76.3820946564
 21
131.3379553495
  0
LINE
  5
365
100
AcDbEntity
  8
RACCORDO
100
AcDbLine
 62
7
  6
CONTINUOUS
 10
-76.3793101471
 20
131.3442722619
 11
-76.3869823926
 21
131.3269609305
  0
LINE
  5
366
100
AcDbEntity
  8
RACCORDO
100
AcDbLine
 62
7
  6
CONTINUOUS
 10
-76.3858278609
 20
131.3295470727
 11
-76.3891051644
 21
131.3222225258
  0
LINE
  5
367
100
AcDbEntity
  8
RACCORDO
100
AcDbLine
 62
7
  6
CONTINUOUS
 10
-76.3869823925
 20
-131.3269609309
 11
-76.3772199658
 21
-131.3490403641
  0
LINE
  5
368
100
AcDbEntity
  8
RACCORDO
100
AcDbLine
 62
7
  6
CONTINUOUS
 10
-76.3772199658
 20
-131.3490403641
 11
-76.3675134875
 21
-131.371482964
  0
LINE
  5
369
100
AcDbEntity
  8
RACCORDO
100
AcDbLine
 62
7
  6
CONTINUOUS
 10
-76.3675134875
 20
-131.371482964
 11
-76.3578724815
 21
-131.3942856705
  0
LINE
  5
36A
100
AcDbEntity
  8
RACCORDO
100
AcDbLine
 62
7
  6
CONTINUOUS
 10
-76.3578724815
 20
-131.3942856705
 11
-76.3483058183
 21
-131.4174468098
  0
LINE
  5
36B
100
AcDbEntity
  8
RACCORDO
100
AcDbLine
 62
7
  6
CONTINUOUS
 10
-76.3483058183
 20
-131.4174468098
 11
-76.3388229984
 21
-131.4409630426
  0
LINE
  5
36C
100
AcDbEntity
  8
RACCORDO
100
AcDbLine
 62
7
  6
CONTINUOUS
 10
-76.3388229984
 20
-131.4409630426
 11
-76.3294334919
 21
-131.4648308569
  0
LWPOLYLINE
  5
36D
100
AcDbEntity
  8
RACCORDO
100
AcDbPolyline
 62
7
  6
CONTINUOUS
 90
59
 70
0
 10
-76.3294334919
 20
-131.4648308569
 10
-76.3201461044
 20
-131.4890482181
 10
-76.3155438268
 20
-131.5012863206
 10
-76.3109703638
 20
-131.5136110114
 10
-76.3064269256
 20
-131.5260216992
 10
-76.3019145401
 20
-131.5385182758
 10
-76.2974341056
 20
-131.5511009995
 10
-76.2929866374
 20
-131.563769816
 10
-76.288573115
 20
-131.5765247799
 10
-76.2841945215
 20
-131.5893659465
 10
-76.2798518841
 20
-131.602293251
 10
-76.2755461984
 20
-131.6153067306
 10
-76.271278466
 20
-131.6284064153
 10
-76.2670497296
 20
-131.641592218
 10
-76.2628610017
 20
-131.6548641536
 10
-76.2587133008
 20
-131.6682222293
 10
-76.2546076849
 20
-131.6816663346
 10
-76.2505451829
 20
-131.6951964611
 10
-76.2465268298
 20
-131.7088125924
 10
-76.2425536983
 20
-131.7225145934
 10
-76.2386268335
 20
-131.7363024312
 10
-76.2347472864
 20
-131.7501760649
 10
-76.2309161439
 20
-131.7641353336
 10
-76.2271344669
 20
-131.778180179
 10
-76.2234033217
 20
-131.7923105342
 10
-76.2197238091
 20
-131.8065262119
 10
-76.216097005
 20
-131.8208271272
 10
-76.2125239909
 20
-131.8352131862
 10
-76.2090058807
 20
-131.8496841739
 10
-76.2055437648
 20
-131.8642399777
 10
-76.2021387393
 20
-131.8788804757
 10
-76.1987919305
 20
-131.8936054242
 10
-76.1955044431
 20
-131.9084146818
 10
-76.1922773866
 20
-131.9233080976
 10
-76.1891118995
 20
-131.9382853979
 10
-76.1860090997
 20
-131.9533464116
 10
-76.1829701101
 20
-131.9684909575
 10
-76.1799960802
 20
-131.983718731
 10
-76.1770881406
 20
-131.9990295303
 10
-76.1742474267
 20
-132.0144231427
 10
-76.1714750984
 20
-132.0298992317
 10
-76.1687722984
 20
-132.0454575634
 10
-76.1661401737
 20
-132.0610978928
 10
-76.1635798938
 20
-132.0768198504
 10
-76.1610926126
 20
-132.0926231692
 10
-76.1586794881
 20
-132.1085075706
 10
-76.1563416985
 20
-132.1244726513
 10
-76.1540804081
 20
-132.1405181097
 10
-76.1518967848
 20
-132.1566436331
 10
-76.1497920149
 20
-132.1728487827
 10
-76.147767272
 20
-132.189133222
 10
-76.1458237332
 20
-132.2054966026
 10
-76.1439625919
 20
-132.2219384493
 10
-76.14218503
 20
-132.2384583895
 10
-76.1404922328
 20
-132.2550560381
 10
-76.1388853997
 20
-132.2717308828
 10
-76.1373657201
 20
-132.2884825135
 10
-76.1359343866
 20
-132.3053105074
 10
-76.1345926033
 20
-132.322214314
  0
LINE
  5
36E
100
AcDbEntity
  8
SUPERFICI
100
AcDbLine
 62
7
  6
CONTINUOUS
 10
-73.4371849471
 20
-145.4576832264
 11
-73.3833653301
 21
-145.6057781518
  0
LINE
  5
36F
100
AcDbEntity
  8
RACCORDO
100
AcDbLine
 62
7
  6
CONTINUOUS
 10
-76.227361182
 20
131.7773300615
 11
-76.2319937807
 21
131.7601816474
  0
LINE
  5
370
100
AcDbEntity
  8
RACCORDO
100
AcDbLine
 62
7
  6
CONTINUOUS
 10
-76.230916144
 20
131.7641353333
 11
-76.2367142158
 21
131.7431096549
  0
LINE
  5
371
100
AcDbEntity
  8
RACCORDO
100
AcDbLine
 62
7
  6
CONTINUOUS
 10
-76.2347472865
 20
131.7501760646
 11
-76.2391069553
 21
131.7346027663
  0
LINE
  5
372
100
AcDbEntity
  8
RACCORDO
100
AcDbLine
 62
7
  6
CONTINUOUS
 10
-76.2386268336
 20
131.736302431
 11
-76.2439567398
 21
131.7176477193
  0
LINE
  5
373
100
AcDbEntity
  8
RACCORDO
100
AcDbLine
 62
7
  6
CONTINUOUS
 10
-76.2425536984
 20
131.7225145931
 11
-76.2488911564
 21
131.7007720544
  0
LINE
  5
374
100
AcDbEntity
  8
RACCORDO
100
AcDbLine
 62
7
  6
CONTINUOUS
 10
-76.2465268299
 20
131.7088125921
 11
-76.2513896812
 21
131.6923643895
  0
LINE
  5
375
100
AcDbEntity
  8
RACCORDO
100
AcDbLine
 62
7
  6
CONTINUOUS
 10
-76.250545183
 20
131.6951964608
 11
-76.256448603
 21
131.6756098851
  0
LINE
  5
376
100
AcDbEntity
  8
RACCORDO
100
AcDbLine
 62
7
  6
CONTINUOUS
 10
-76.254607685
 20
131.6816663343
 11
-76.2615888455
 21
131.6589376214
  0
LINE
  5
377
100
AcDbEntity
  8
RACCORDO
100
AcDbLine
 62
7
  6
CONTINUOUS
 10
-76.2587133009
 20
131.668222229
 11
-76.2641890863
 21
131.65063253
  0
LINE
  5
378
100
AcDbEntity
  8
RACCORDO
100
AcDbLine
 62
7
  6
CONTINUOUS
 10
-76.2628610018
 20
131.6548641533
 11
-76.2694488379
 21
131.6340854888
  0
LINE
  5
379
100
AcDbEntity
  8
RACCORDO
100
AcDbLine
 62
7
  6
CONTINUOUS
 10
-76.2670497297
 20
131.6415922177
 11
-76.272108071
 21
131.6258436034
  0
LINE
  5
37A
100
AcDbEntity
  8
RACCORDO
100
AcDbLine
 62
7
  6
CONTINUOUS
 10
-76.2712784661
 20
131.6284064151
 11
-76.2774842651
 21
131.6094241474
  0
LINE
  5
37B
100
AcDbEntity
  8
RACCORDO
100
AcDbLine
 62
7
  6
CONTINUOUS
 10
-76.2755461985
 20
131.6153067303
 11
-76.282936392
 21
131.5930909342
  0
LINE
  5
37C
100
AcDbEntity
  8
RACCORDO
100
AcDbLine
 62
7
  6
CONTINUOUS
 10
-76.2798518842
 20
131.6022932507
 11
-76.2856904647
 21
131.5849570706
  0
LINE
  5
37D
100
AcDbEntity
  8
RACCORDO
100
AcDbLine
 62
7
  6
CONTINUOUS
 10
-76.2841945216
 20
131.5893659462
 11
-76.2912538136
 21
131.5687552546
  0
LINE
  5
37E
100
AcDbEntity
  8
RACCORDO
100
AcDbLine
 62
7
  6
CONTINUOUS
 10
-76.2885731151
 20
131.5765247796
 11
-76.2940627009
 21
131.5606876461
  0
LINE
  5
37F
100
AcDbEntity
  8
RACCORDO
100
AcDbLine
 62
7
  6
CONTINUOUS
 10
-76.2929866375
 20
131.5637698157
 11
-76.2974341057
 21
131.5511009992
  0
LWPOLYLINE
  5
380
100
AcDbEntity
  8
SUPERFICI
100
AcDbPolyline
 62
7
  6
CONTINUOUS
 90
8
 70
0
 10
-73.8687618907
 20
-144.19899595
 10
-73.8102423219
 20
-144.3776046316
 10
-73.7507038822
 20
-144.5566322998
 10
-73.6901381347
 20
-144.7360488052
 10
-73.628516489
 20
-144.9158823166
 10
-73.5658242152
 20
-145.0961177659
 10
-73.5020534455
 20
-145.2767195029
 10
-73.4371849471
 20
-145.4576832264
  0
LINE
  5
381
100
AcDbEntity
  8
SUPERFICI
100
AcDbLine
 62
7
  6
CONTINUOUS
 10
-73.982816159
 20
-143.8430346452
 11
-73.8687618907
 21
-144.19899595
  0
LINE
  5
382
100
AcDbEntity
  8
SUPERFICI
100
AcDbLine
 62
7
  6
CONTINUOUS
 10
-74.0930105449
 20
-143.4887247536
 11
-73.982816159
 21
-143.8430346452
  0
LINE
  5
383
100
AcDbEntity
  8
SUPERFICI
100
AcDbLine
 62
7
  6
CONTINUOUS
 10
-74.1995279051
 20
-143.135877066
 11
-74.0930105449
 21
-143.4887247536
  0
LINE
  5
384
100
AcDbEntity
  8
SUPERFICI
100
AcDbLine
 62
7
  6
CONTINUOUS
 10
-74.3025128803
 20
-142.7843822973
 11
-74.1995279051
 21
-143.135877066
  0
LINE
  5
385
100
AcDbEntity
  8
SUPERFICI
100
AcDbLine
 62
7
  6
CONTINUOUS
 10
-74.40215139
 20
-142.4339435667
 11
-74.3025128803
 21
-142.7843822973
  0
LINE
  5
386
100
AcDbEntity
  8
SUPERFICI
100
AcDbLine
 62
7
  6
CONTINUOUS
 10
-74.4986476511
 20
-142.0841351967
 11
-74.40215139
 21
-142.4339435667
  0
LWPOLYLINE
  5
387
100
AcDbEntity
  8
SUPERFICI
100
AcDbPolyline
 62
7
  6
CONTINUOUS
 90
3
 70
0
 10
-74.6378301185
 20
-141.5599367901
 10
-74.5921343124
 20
-141.7347277665
 10
-74.4986476511
 20
-142.0841351967
  0
LINE
  5
388
100
AcDbEntity
  8
SUPERFICI
100
AcDbLine
 62
7
  6
CONTINUOUS
 10
-75.3442130802
 20
138.4152533526
 11
-75.412975868
 21
138.0482072292
  0
LINE
  5
389
100
AcDbEntity
  8
RACCORDO
100
AcDbLine
 62
7
  6
CONTINUOUS
 10
-76.1773471989
 20
131.99764706
 11
-76.1807834104
 21
131.9796457571
  0
LINE
  5
38A
100
AcDbEntity
  8
SUPERFICI
100
AcDbLine
 62
7
  6
CONTINUOUS
 10
-75.2712274237
 20
138.789532769
 11
-75.3442130802
 21
138.4152533526
  0
LINE
  5
38B
100
AcDbEntity
  8
RACCORDO
100
AcDbLine
 62
7
  6
CONTINUOUS
 10
-76.1799960802
 20
131.9837187309
 11
-76.1843216121
 21
131.9617052591
  0
LINE
  5
38C
100
AcDbEntity
  8
SUPERFICI
100
AcDbLine
 62
7
  6
CONTINUOUS
 10
-75.1940125673
 20
139.1701359321
 11
-75.2712274237
 21
138.789532769
  0
LINE
  5
38D
100
AcDbEntity
  8
RACCORDO
100
AcDbLine
 62
7
  6
CONTINUOUS
 10
-76.1829701102
 20
131.9684909573
 11
-76.1879607606
 21
131.9438270069
  0
LINE
  5
38E
100
AcDbEntity
  8
RACCORDO
100
AcDbLine
 62
7
  6
CONTINUOUS
 10
-76.1860090998
 20
131.9533464114
 11
-76.1898178937
 21
131.9349114977
  0
LINE
  5
38F
100
AcDbEntity
  8
SUPERFICI
100
AcDbLine
 62
7
  6
CONTINUOUS
 10
-75.1125982403
 20
139.5560761876
 11
-75.194012562
 21
139.1701359575
  0
LINE
  5
390
100
AcDbEntity
  8
RACCORDO
100
AcDbLine
 62
7
  6
CONTINUOUS
 10
-76.1891118996
 20
131.9382853977
 11
-76.1936065316
 21
131.9171289422
  0
LINE
  5
391
100
AcDbEntity
  8
RACCORDO
100
AcDbLine
 62
7
  6
CONTINUOUS
 10
-76.1922773867
 20
131.9233080974
 11
-76.1974935142
 21
131.8994117169
  0
LINE
  5
392
100
AcDbEntity
  8
SUPERFICI
100
AcDbLine
 62
7
  6
CONTINUOUS
 10
-75.0269763708
 20
139.9466391136
 11
-75.1125982403
 21
139.5560761876
  0
LINE
  5
393
100
AcDbEntity
  8
RACCORDO
100
AcDbLine
 62
7
  6
CONTINUOUS
 10
-76.1955044431
 20
131.9084146816
 11
-76.1994735246
 21
131.8905780959
  0
LINE
  5
394
100
AcDbEntity
  8
SUPERFICI
100
AcDbLine
 62
7
  6
CONTINUOUS
 10
-74.9372236932
 20
140.3408084974
 11
-75.0269763708
 21
139.9466391136
  0
LINE
  5
395
100
AcDbEntity
  8
RACCORDO
100
AcDbLine
 62
7
  6
CONTINUOUS
 10
-76.1987919306
 20
131.893605424
 11
-76.2035059371
 21
131.8729614347
  0
LINE
  5
396
100
AcDbEntity
  8
RACCORDO
100
AcDbLine
 62
7
  6
CONTINUOUS
 10
-76.2021387394
 20
131.8788804755
 11
-76.2076339048
 21
131.8554134062
  0
LINE
  5
397
100
AcDbEntity
  8
SUPERFICI
100
AcDbLine
 62
7
  6
CONTINUOUS
 10
-74.8434475807
 20
140.737548694
 11
-74.9372236932
 21
140.3408084974
  0
LINE
  5
398
100
AcDbEntity
  8
RACCORDO
100
AcDbLine
 62
7
  6
CONTINUOUS
 10
-76.2055437649
 20
131.8642399775
 11
-76.2097333537
 21
131.8466655726
  0
LINE
  5
399
100
AcDbEntity
  8
RACCORDO
100
AcDbLine
 62
7
  6
CONTINUOUS
 10
-76.2090058807
 20
131.8496841737
 11
-76.2140025085
 21
131.8292228417
  0
LINE
  5
39A
100
AcDbEntity
  8
RACCORDO
100
AcDbLine
 62
7
  6
CONTINUOUS
 10
-76.212523991
 20
131.835213186
 11
-76.218364305
 21
131.8118519542
  0
LINE
  5
39B
100
AcDbEntity
  8
RACCORDO
100
AcDbLine
 62
7
  6
CONTINUOUS
 10
-76.2160970051
 20
131.820827127
 11
-76.2205796087
 21
131.8031936943
  0
LWPOLYLINE
  5
39C
100
AcDbEntity
  8
SUPERFICI
100
AcDbPolyline
 62
7
  6
CONTINUOUS
 90
3
 70
0
 10
-74.6441981563
 20
141.5353613687
 10
-74.6954324257
 20
141.3356497376
 10
-74.8434475807
 20
140.737548694
  0
LINE
  5
39D
100
AcDbEntity
  8
RACCORDO
100
AcDbLine
 62
7
  6
CONTINUOUS
 10
-76.2197238091
 20
131.8065262117
 11
-76.2250781727
 21
131.7859326992
  0
LINE
  5
39E
100
AcDbEntity
  8
RACCORDO
100
AcDbLine
 62
7
  6
CONTINUOUS
 10
-76.2234033218
 20
131.792310534
 11
-76.2271344669
 21
131.7781801788
  0
LINE
  5
39F
100
AcDbEntity
  8
SUPERFICI
100
AcDbLine
 62
7
  6
CONTINUOUS
 10
-74.7270768362
 20
-141.2104854871
 11
-74.6378301185
 21
-141.5599367901
  0
LINE
  5
3A0
100
AcDbEntity
  8
SUPERFICI
100
AcDbLine
 62
7
  6
CONTINUOUS
 10
-74.8134537572
 20
-140.861418276
 11
-74.7270768362
 21
-141.2104854871
  0
LINE
  5
3A1
100
AcDbEntity
  8
SUPERFICI
100
AcDbLine
 62
7
  6
CONTINUOUS
 10
-74.896828812
 20
-140.5135146227
 11
-74.8134537572
 21
-140.861418276
  0
LINE
  5
3A2
100
AcDbEntity
  8
SUPERFICI
100
AcDbLine
 62
7
  6
CONTINUOUS
 10
-74.9771535184
 20
-140.1672765296
 11
-74.896828812
 21
-140.5135146227
  0
LINE
  5
3A3
100
AcDbEntity
  8
SUPERFICI
100
AcDbLine
 62
7
  6
CONTINUOUS
 10
-75.0543461938
 20
-139.8234050375
 11
-74.9771535184
 21
-140.1672765296
  0
LINE
  5
3A4
100
AcDbEntity
  8
SUPERFICI
100
AcDbLine
 62
7
  6
CONTINUOUS
 10
-75.1283431936
 20
-139.4825924911
 11
-75.0543461938
 21
-139.8234050375
  0
LINE
  5
3A5
100
AcDbEntity
  8
SUPERFICI
100
AcDbLine
 62
7
  6
CONTINUOUS
 10
-75.1991379576
 20
-139.1453287026
 11
-75.1283431936
 21
-139.4825924911
  0
LINE
  5
3A6
100
AcDbEntity
  8
SUPERFICI
100
AcDbLine
 62
7
  6
CONTINUOUS
 10
-75.2666952572
 20
-138.8122925036
 11
-75.1991379576
 21
-139.1453287026
  0
LINE
  5
3A7
100
AcDbEntity
  8
SUPERFICI
100
AcDbLine
 62
7
  6
CONTINUOUS
 10
-75.3309979344
 20
-138.4841409198
 11
-75.2666952572
 21
-138.8122925036
  0
LINE
  5
3A8
100
AcDbEntity
  8
SUPERFICI
100
AcDbLine
 62
7
  6
CONTINUOUS
 10
-75.3920788077
 20
-138.1613303814
 11
-75.3309979344
 21
-138.4841409198
  0
LINE
  5
3A9
100
AcDbEntity
  8
SUPERFICI
100
AcDbLine
 62
7
  6
CONTINUOUS
 10
-75.9191971483
 20
134.6591543365
 11
-75.9480715442
 21
134.4036808572
  0
LINE
  5
3AA
100
AcDbEntity
  8
RACCORDO
100
AcDbLine
 62
7
  6
CONTINUOUS
 10
-76.1439625919
 20
132.2219384492
 11
-76.146551403
 21
132.1992784783
  0
LINE
  5
3AB
100
AcDbEntity
  8
SUPERFICI
100
AcDbLine
 62
7
  6
CONTINUOUS
 10
-75.888127299
 20
134.9221000655
 11
-75.9191971483
 21
134.6591543365
  0
LINE
  5
3AC
100
AcDbEntity
  8
RACCORDO
100
AcDbLine
 62
7
  6
CONTINUOUS
 10
-76.1458237333
 20
132.2054966025
 11
-76.1488043568
 21
132.1807002797
  0
LINE
  5
3AD
100
AcDbEntity
  8
RACCORDO
100
AcDbLine
 62
7
  6
CONTINUOUS
 10
-76.147767272
 20
132.1891332219
 11
-76.1497920149
 21
132.1728487826
  0
LINE
  5
3AE
100
AcDbEntity
  8
SUPERFICI
100
AcDbLine
 62
7
  6
CONTINUOUS
 10
-75.8547142627
 20
135.192752738
 11
-75.888127299
 21
134.9221000655
  0
LINE
  5
3AF
100
AcDbEntity
  8
SUPERFICI
100
AcDbLine
 62
7
  6
CONTINUOUS
 10
-75.8188468449
 20
135.4710013171
 11
-75.8547142627
 21
135.192752738
  0
LINE
  5
3B0
100
AcDbEntity
  8
RACCORDO
100
AcDbLine
 62
7
  6
CONTINUOUS
 10
-76.1499728058
 20
132.1714281136
 11
-76.1523931893
 21
132.1529183613
  0
LINE
  5
3B1
100
AcDbEntity
  8
SUPERFICI
100
AcDbLine
 62
7
  6
CONTINUOUS
 10
-75.7803569574
 20
135.7571366539
 11
-75.8188468449
 21
135.4710013171
  0
LINE
  5
3B2
100
AcDbEntity
  8
RACCORDO
100
AcDbLine
 62
7
  6
CONTINUOUS
 10
-76.1518967848
 20
132.156643633
 11
-76.1549241921
 21
132.1344561756
  0
LINE
  5
3B3
100
AcDbEntity
  8
SUPERFICI
100
AcDbLine
 62
7
  6
CONTINUOUS
 10
-75.7389782613
 20
136.0520576095
 11
-75.7803569574
 21
135.7571366539
  0
LINE
  5
3B4
100
AcDbEntity
  8
RACCORDO
100
AcDbLine
 62
7
  6
CONTINUOUS
 10
-76.1540804081
 20
132.1405181096
 11
-76.1575650269
 21
132.1160428041
  0
LINE
  5
3B5
100
AcDbEntity
  8
SUPERFICI
100
AcDbLine
 62
7
  6
CONTINUOUS
 10
-75.6943725818
 20
136.3569653413
 11
-75.7389782613
 21
136.0520576095
  0
LINE
  5
3B6
100
AcDbEntity
  8
RACCORDO
100
AcDbLine
 62
7
  6
CONTINUOUS
 10
-76.1563416985
 20
132.1244726511
 11
-76.1589263572
 21
132.1068549651
  0
LINE
  5
3B7
100
AcDbEntity
  8
SUPERFICI
100
AcDbLine
 62
7
  6
CONTINUOUS
 10
-75.6462443463
 20
136.6725530348
 11
-75.6943725818
 21
136.3569653413
  0
LINE
  5
3B8
100
AcDbEntity
  8
RACCORDO
100
AcDbLine
 62
7
  6
CONTINUOUS
 10
-76.1586794881
 20
132.1085075705
 11
-76.1617303397
 21
132.0885176713
  0
LINE
  5
3B9
100
AcDbEntity
  8
SUPERFICI
100
AcDbLine
 62
7
  6
CONTINUOUS
 10
-75.5941839379
 20
137.0000546536
 11
-75.6462443463
 21
136.6725530348
  0
LINE
  5
3BA
100
AcDbEntity
  8
RACCORDO
100
AcDbLine
 62
7
  6
CONTINUOUS
 10
-76.1610926127
 20
132.092623169
 11
-76.164642002
 21
132.0702328807
  0
LINE
  5
3BB
100
AcDbEntity
  8
RACCORDO
100
AcDbLine
 62
7
  6
CONTINUOUS
 10
-76.1635798938
 20
132.0768198503
 11
-76.1676604326
 21
132.0520021101
  0
LINE
  5
3BC
100
AcDbEntity
  8
SUPERFICI
100
AcDbLine
 62
7
  6
CONTINUOUS
 10
-75.5380049444
 20
137.3391276718
 11
-75.5941839379
 21
137.0000546536
  0
LINE
  5
3BD
100
AcDbEntity
  8
RACCORDO
100
AcDbLine
 62
7
  6
CONTINUOUS
 10
-76.1661401737
 20
132.0610978927
 11
-76.1692094242
 21
132.04290728
  0
LINE
  5
3BE
100
AcDbEntity
  8
SUPERFICI
100
AcDbLine
 62
7
  6
CONTINUOUS
 10
-75.477570161
 20
137.689136275
 11
-75.5380049444
 21
137.3391276718
  0
LINE
  5
3BF
100
AcDbEntity
  8
RACCORDO
100
AcDbLine
 62
7
  6
CONTINUOUS
 10
-76.1687722984
 20
132.0454575632
 11
-76.1723863073
 21
132.0247600111
  0
LINE
  5
3C0
100
AcDbEntity
  8
SUPERFICI
100
AcDbLine
 62
7
  6
CONTINUOUS
 10
-75.412975868
 20
138.0482072292
 11
-75.4775701662
 21
137.6891362454
  0
LINE
  5
3C1
100
AcDbEntity
  8
RACCORDO
100
AcDbLine
 62
7
  6
CONTINUOUS
 10
-76.1714750985
 20
132.0298992316
 11
-76.1756676626
 21
132.0066700401
  0
LINE
  5
3C2
100
AcDbEntity
  8
RACCORDO
100
AcDbLine
 62
7
  6
CONTINUOUS
 10
-76.1742474268
 20
132.0144231425
 11
-76.1770881407
 21
131.9990295301
  0
LINE
  5
3C3
100
AcDbEntity
  8
SUPERFICI
100
AcDbLine
 62
7
  6
CONTINUOUS
 10
-75.4499525954
 20
-137.8444566435
 11
-75.3920788077
 21
-138.1613303814
  0
LINE
  5
3C4
100
AcDbEntity
  8
SUPERFICI
100
AcDbLine
 62
7
  6
CONTINUOUS
 10
-75.5046175107
 20
-137.5342697754
 11
-75.4499525954
 21
-137.8444566435
  0
LINE
  5
3C5
100
AcDbEntity
  8
SUPERFICI
100
AcDbLine
 62
7
  6
CONTINUOUS
 10
-75.5561106872
 20
-137.231369872
 11
-75.5046175107
 21
-137.5342697754
  0
LINE
  5
3C6
100
AcDbEntity
  8
SUPERFICI
100
AcDbLine
 62
7
  6
CONTINUOUS
 10
-75.6043803159
 20
-136.9369676034
 11
-75.5561106872
 21
-137.231369872
  0
LINE
  5
3C7
100
AcDbEntity
  8
SUPERFICI
100
AcDbLine
 62
7
  6
CONTINUOUS
 10
-75.6495652911
 20
-136.6511902429
 11
-75.6043803159
 21
-136.9369676034
  0
LINE
  5
3C8
100
AcDbEntity
  8
SUPERFICI
100
AcDbLine
 62
7
  6
CONTINUOUS
 10
-75.6918588101
 20
-136.3737787769
 11
-75.6495652911
 21
-136.6511902429
  0
LINE
  5
3C9
100
AcDbEntity
  8
SUPERFICI
100
AcDbLine
 62
7
  6
CONTINUOUS
 10
-75.7315621399
 20
-136.1036440264
 11
-75.6918588101
 21
-136.3737787769
  0
LINE
  5
3CA
100
AcDbEntity
  8
SUPERFICI
100
AcDbLine
 62
7
  6
CONTINUOUS
 10
-75.7689566284
 20
-135.8396361568
 11
-75.7315621399
 21
-136.1036440264
  0
LINE
  5
3CB
100
AcDbEntity
  8
SUPERFICI
100
AcDbLine
 62
7
  6
CONTINUOUS
 10
-75.8042464231
 20
-135.5809745774
 11
-75.7689566284
 21
-135.8396361568
  0
LINE
  5
3CC
100
AcDbEntity
  8
SUPERFICI
100
AcDbLine
 62
7
  6
CONTINUOUS
 10
-75.8376707582
 20
-135.3264608042
 11
-75.8042464231
 21
-135.5809745774
  0
LINE
  5
3CD
100
AcDbEntity
  8
SUPERFICI
100
AcDbLine
 62
7
  6
CONTINUOUS
 10
-75.8694876824
 20
-135.0745335784
 11
-75.8376707582
 21
-135.3264608042
  0
LINE
  5
3CE
100
AcDbEntity
  8
SUPERFICI
100
AcDbLine
 62
7
  6
CONTINUOUS
 10
-75.8998056006
 20
-134.8246194243
 11
-75.8694876824
 21
-135.0745335784
  0
LWPOLYLINE
  5
3CF
100
AcDbEntity
  8
SUPERFICI
100
AcDbPolyline
 62
7
  6
CONTINUOUS
 90
3
 70
0
 10
-75.9425941749
 20
-134.4530347949
 10
-75.9287107257
 20
-134.5762346761
 10
-75.8998056006
 20
-134.8246194243
  0
LINE
  5
3D0
100
AcDbEntity
  8
SUPERFICI
100
AcDbLine
 62
7
  6
CONTINUOUS
 10
-75.9819269849
 20
-134.0883458691
 11
-75.9560952444
 21
-134.3305844436
  0
LINE
  5
3D1
100
AcDbEntity
  8
SUPERFICI
100
AcDbLine
 62
7
  6
CONTINUOUS
 10
-76.0061357794
 20
-133.850655776
 11
-75.9819269849
 21
-134.0883458691
  0
LINE
  5
3D2
100
AcDbEntity
  8
SUPERFICI
100
AcDbLine
 62
7
  6
CONTINUOUS
 10
-76.0286940948
 20
-133.61842208
 11
-76.0061357794
 21
-133.850655776
  0
LINE
  5
3D3
100
AcDbEntity
  8
SUPERFICI
100
AcDbLine
 62
7
  6
CONTINUOUS
 10
-76.0496154484
 20
-133.3922796715
 11
-76.0286940948
 21
-133.61842208
  0
LINE
  5
3D4
100
AcDbEntity
  8
SUPERFICI
100
AcDbLine
 62
7
  6
CONTINUOUS
 10
-76.0689285261
 20
-133.1728093431
 11
-76.0496154484
 21
-133.3922796715
  0
LINE
  5
3D5
100
AcDbEntity
  8
SUPERFICI
100
AcDbLine
 62
7
  6
CONTINUOUS
 10
-76.0945976161
 20
-132.8620351046
 11
-76.0689285261
 21
-133.1728093431
  0
LINE
  5
3D6
100
AcDbEntity
  8
SUPERFICI
100
AcDbLine
 62
7
  6
CONTINUOUS
 10
-76.1160687775
 20
-132.5815242322
 11
-76.0945976161
 21
-132.8620351046
  0
LINE
  5
3D7
100
AcDbEntity
  8
RACCORDO
100
AcDbLine
 62
7
  6
CONTINUOUS
 10
-76.1345926033
 20
-132.322214314
 11
-76.1329548145
 21
-132.3447264638
  0
LINE
  5
3D8
100
AcDbEntity
  8
SUPERFICI
100
AcDbLine
 62
7
  6
CONTINUOUS
 10
-76.1329535782
 20
-132.3447313421
 11
-76.1160687775
 21
-132.5815242322
  0
LINE
  5
3D9
100
AcDbEntity
  8
SUPERFICI
100
AcDbLine
 62
7
  6
CONTINUOUS
 10
-76.1197726269
 20
132.5308990073
 11
-76.1329536269
 21
132.3447306353
  0
LINE
  5
3DA
100
AcDbEntity
  8
RACCORDO
100
AcDbLine
 62
7
  6
CONTINUOUS
 10
-76.1329545987
 20
132.3447273575
 11
-76.1345926033
 21
132.322214314
  0
LINE
  5
3DB
100
AcDbEntity
  8
SUPERFICI
100
AcDbLine
 62
7
  6
CONTINUOUS
 10
-76.0980528459
 20
132.8182823983
 11
-76.1197726269
 21
132.5308990073
  0
LINE
  5
3DC
100
AcDbEntity
  8
RACCORDO
100
AcDbLine
 62
7
  6
CONTINUOUS
 10
-76.1339722476
 20
132.3304675172
 11
-76.1359343866
 21
132.3053105073
  0
LINE
  5
3DD
100
AcDbEntity
  8
SUPERFICI
100
AcDbLine
 62
7
  6
CONTINUOUS
 10
-76.0727465828
 20
133.1280552693
 11
-76.0980528459
 21
132.8182823983
  0
LINE
  5
3DE
100
AcDbEntity
  8
RACCORDO
100
AcDbLine
 62
7
  6
CONTINUOUS
 10
-76.1354226008
 20
132.3116144437
 11
-76.1373657201
 21
132.2884825134
  0
LINE
  5
3DF
100
AcDbEntity
  8
SUPERFICI
100
AcDbLine
 62
7
  6
CONTINUOUS
 10
-76.0539214682
 20
133.3442962038
 11
-76.0727465828
 21
133.1280552693
  0
LINE
  5
3E0
100
AcDbEntity
  8
RACCORDO
100
AcDbLine
 62
7
  6
CONTINUOUS
 10
-76.1369895765
 20
132.2927960779
 11
-76.1388853997
 21
132.2717308827
  0
LINE
  5
3E1
100
AcDbEntity
  8
SUPERFICI
100
AcDbLine
 62
7
  6
CONTINUOUS
 10
-76.0335058103
 20
133.5673875306
 11
-76.0539214682
 21
133.3442962038
  0
LINE
  5
3E2
100
AcDbEntity
  8
RACCORDO
100
AcDbLine
 62
7
  6
CONTINUOUS
 10
-76.1386725503
 20
132.2740140577
 11
-76.1404922328
 21
132.255056038
  0
LINE
  5
3E3
100
AcDbEntity
  8
SUPERFICI
100
AcDbLine
 62
7
  6
CONTINUOUS
 10
-76.0114227877
 20
133.7972159253
 11
-76.0335058103
 21
133.5673875306
  0
LINE
  5
3E4
100
AcDbEntity
  8
SUPERFICI
100
AcDbLine
 62
7
  6
CONTINUOUS
 10
-75.9875293624
 20
134.0343140608
 11
-76.0114227877
 21
133.7972159253
  0
LINE
  5
3E5
100
AcDbEntity
  8
RACCORDO
100
AcDbLine
 62
7
  6
CONTINUOUS
 10
-76.1404709016
 20
132.2552697021
 11
-76.1423839584
 21
132.2365646323
  0
LWPOLYLINE
  5
3E6
100
AcDbEntity
  8
SUPERFICI
100
AcDbPolyline
 62
7
  6
CONTINUOUS
 90
3
 70
0
 10
-75.9480715442
 20
134.4036808572
 10
-75.9617238262
 20
134.2787224346
 10
-75.9875293624
 20
134.0343140608
  0
LINE
  5
3E7
100
AcDbEntity
  8
RACCORDO
100
AcDbLine
 62
7
  6
CONTINUOUS
 10
-76.14218503
 20
132.2384583894
 11
-76.1444110217
 21
132.2179004602
  0
LINE
  5
3E8
100
AcDbEntity
  8
RACCORDO
100
AcDbLine
 62
253
  6
CONTINUOUS
 10
-76.9358147089
 20
-13.25
 11
-76.1334584685
 21
-13.25
  0
LINE
  5
3E9
100
AcDbEntity
  8
SUPERFICI
100
AcDbLine
 62
7
  6
CONTINUOUS
 10
-75.9560952444
 20
-134.3305844436
 11
-75.9425941785
 21
-134.4530347621
  0
LINE
  5
3EA
100
AcDbEntity
  8
0
100
AcDbLine
 62
7
  6
CONTINUOUS
 10
-76.9358147089
 20
-130.137911468
 11
-76.9358147089
 21
-82.862088532
  0
LINE
  5
3EB
100
AcDbEntity
  8
0
100
AcDbLine
 62
7
  6
CONTINUOUS
 10
-76.9358147089
 20
-59.137911468
 11
-76.9358147089
 21
-11.862088532
  0
LINE
  5
3EC
100
AcDbEntity
  8
0
100
AcDbLine
 62
7
  6
CONTINUOUS
 10
-76.9358147089
 20
11.862088532
 11
-76.9358147089
 21
59.137911468
  0
LINE
  5
3ED
100
AcDbEntity
  8
0
100
AcDbLine
 62
7
  6
CONTINUOUS
 10
-76.9358147089
 20
82.862088532
 11
-76.9358147089
 21
130.137911468
  0
LINE
  5
3EE
100
AcDbEntity
  8
RACCORDO
100
AcDbLine
 62
253
  6
CONTINUOUS
 10
-76.7593548992
 20
-82.4120924918
 11
-76.7593548992
 21
-82.2948306055
  0
LINE
  5
3EF
100
AcDbEntity
  8
RACCORDO
100
AcDbLine
 62
253
  6
CONTINUOUS
 10
-76.7593548992
 20
-59.7051693945
 11
-76.7593548992
 21
-59.5879075082
  0
LINE
  5
3F0
100
AcDbEntity
  8
RACCORDO
100
AcDbLine
 62
253
  6
CONTINUOUS
 10
-76.7593548992
 20
-11.4120924918
 11
-76.7593548992
 21
-11.2948306055
  0
LINE
  5
3F1
100
AcDbEntity
  8
RACCORDO
100
AcDbLine
 62
253
  6
CONTINUOUS
 10
-76.7593548992
 20
11.2948306055
 11
-76.7593548992
 21
11.4120924918
  0
LINE
  5
3F2
100
AcDbEntity
  8
RACCORDO
100
AcDbLine
 62
253
  6
CONTINUOUS
 10
-76.7593548992
 20
59.5879075082
 11
-76.7593548992
 21
59.7051693945
  0
LINE
  5
3F3
100
AcDbEntity
  8
RACCORDO
100
AcDbLine
 62
253
  6
CONTINUOUS
 10
-76.7593548992
 20
82.2948306055
 11
-76.7593548992
 21
82.4120924918
  0
LINE
  5
3F4
100
AcDbEntity
  8
RACCORDO
100
AcDbLine
 62
253
  6
CONTINUOUS
 10
-76.7334423841
 20
-106.4999792103
 11
-76.733442384
 21
-84.2499916125
  0
LINE
  5
3F5
100
AcDbEntity
  8
RACCORDO
100
AcDbLine
 62
253
  6
CONTINUOUS
 10
-76.733442384
 20
-57.7500124384
 11
-76.733442384
 21
-13.2499916125
  0
LINE
  5
3F6
100
AcDbEntity
  8
RACCORDO
100
AcDbLine
 62
253
  6
CONTINUOUS
 10
-76.733442384
 20
13.2499875616
 11
-76.733442384
 21
57.7500083875
  0
LINE
  5
3F7
100
AcDbEntity
  8
RACCORDO
100
AcDbLine
 62
253
  6
CONTINUOUS
 10
-76.733442384
 20
84.2499875616
 11
-76.7334423841
 21
106.4999792112
  0
LINE
  5
3F8
100
AcDbEntity
  8
RACCORDO
100
AcDbLine
 62
7
  6
CONTINUOUS
 10
-76.2299754698
 20
80.8123821107
 11
-76.2299754698
 21
61.1876183925
  0
LINE
  5
3F9
100
AcDbEntity
  8
RACCORDO
100
AcDbLine
 62
7
  6
CONTINUOUS
 10
-76.2299754698
 20
9.8123821107
 11
-76.2299754698
 21
-9.8123816075
  0
LINE
  5
3FA
100
AcDbEntity
  8
RACCORDO
100
AcDbLine
 62
7
  6
CONTINUOUS
 10
-76.2299754698
 20
-61.1876178893
 11
-76.2299754698
 21
-80.8123816075
  0
LINE
  5
3FB
100
AcDbEntity
  8
RACCORDO
100
AcDbLine
 62
253
  6
CONTINUOUS
 10
-76.1334584685
 20
-106.4999896046
 11
-76.1334584685
 21
-84.25
  0
LINE
  5
3FC
100
AcDbEntity
  8
RACCORDO
100
AcDbLine
 62
253
  6
CONTINUOUS
 10
-76.1334584685
 20
-57.75
 11
-76.1334584685
 21
-13.25
  0
LINE
  5
3FD
100
AcDbEntity
  8
RACCORDO
100
AcDbLine
 62
253
  6
CONTINUOUS
 10
-76.1334584685
 20
13.25
 11
-76.1334584685
 21
57.75
  0
LINE
  5
3FE
100
AcDbEntity
  8
RACCORDO
100
AcDbLine
 62
253
  6
CONTINUOUS
 10
-76.1334584685
 20
84.25
 11
-76.1334584685
 21
106.4999896054
  0
LINE
  5
3FF
100
AcDbEntity
  8
RACCORDO
100
AcDbLine
 62
253
  6
CONTINUOUS
 10
-73.3783588982
 20
106.5000013601
 11
-73.3783588982
 21
-106.4999986399
  0
LINE
  5
400
100
AcDbEntity
  8
RACCORDO
100
AcDbLine
 62
253
  6
CONTINUOUS
 10
-72.4881888637
 20
106.5000027202
 11
-72.4881888637
 21
-106.5000027203
  0
LINE
  5
401
100
AcDbEntity
  8
SUPERFICI
100
AcDbLine
 62
7
  6
CONTINUOUS
 10
-67.9358147089
 20
146.5
 11
-67.9358147089
 21
143.5
  0
LINE
  5
402
100
AcDbEntity
  8
0
100
AcDbLine
 62
7
  6
CONTINUOUS
 10
-67.9358147089
 20
143.5
 11
-67.9358147089
 21
-143.5
  0
LINE
  5
403
100
AcDbEntity
  8
SUPERFICI
100
AcDbLine
 62
7
  6
CONTINUOUS
 10
-67.9358147089
 20
-143.5
 11
-67.9358147089
 21
-146.5
  0
LINE
  5
404
100
AcDbEntity
  8
RACCORDO
100
AcDbLine
 62
253
  6
CONTINUOUS
 10
-76.9358147089
 20
13.25
 11
-76.1334584685
 21
13.25
  0
LINE
  5
405
100
AcDbEntity
  8
RACCORDO
100
AcDbLine
 62
253
  6
CONTINUOUS
 10
-76.9358147089
 20
57.75
 11
-76.1334584685
 21
57.75
  0
LINE
  5
406
100
AcDbEntity
  8
RACCORDO
100
AcDbLine
 62
253
  6
CONTINUOUS
 10
-76.9358147089
 20
84.25
 11
-76.1334584685
 21
84.25
  0
LINE
  5
407
100
AcDbEntity
  8
RACCORDO
100
AcDbLine
 62
253
  6
CONTINUOUS
 10
-72.4881888637
 20
106.5000027202
 11
-76.7334423841
 21
106.4999792112
  0
LWPOLYLINE
  5
408
100
AcDbEntity
  8
RACCORDO
100
AcDbPolyline
 62
7
  6
CONTINUOUS
 90
23
 70
0
 10
-72.4965208463
 20
146.2609835194
 10
-72.549825663
 20
146.2567583432
 10
-72.6030393385
 20
146.2496559991
 10
-72.6558455471
 20
146.2396972058
 10
-72.7081028656
 20
146.2268991157
 10
-72.7596451558
 20
146.2112927763
 10
-72.8102840568
 20
146.1929298341
 10
-72.859859205
 20
146.1718675234
 10
-72.9082392952
 20
146.1481606927
 10
-72.9552854978
 20
146.1218748893
 10
-73.0008614295
 20
146.0930833323
 10
-73.0448317767
 20
146.0618684234
 10
-73.0870654481
 20
146.0283204395
 10
-73.1274389855
 20
145.9925346913
 10
-73.1658327281
 20
145.9546143566
 10
-73.2021299891
 20
145.9146723525
 10
-73.236224017
 20
145.8728243352
 10
-73.2680146397
 20
145.8291913266
 10
-73.2974057513
 20
145.7839037827
 10
-73.3243112774
 20
145.7370934641
 10
-73.3486523839
 20
145.6888965786
 10
-73.3703559276
 20
145.6394577398
 10
-73.3833653877
 20
145.6057779591
  0
LINE
  5
409
100
AcDbEntity
  8
RACCORDO
100
AcDbLine
 62
7
  6
CONTINUOUS
 10
-72.4965203953
 20
146.260983543
 11
-67.9358147089
 21
146.5
  0
LINE
  5
40A
100
AcDbEntity
  8
SUPERFICI
100
AcDbLine
 62
7
  6
CONTINUOUS
 10
-72.3353882024
 20
146.2694281234
 11
-67.9358147089
 21
146.5
  0
LINE
  5
40B
100
AcDbEntity
  8
RACCORDO
100
AcDbLine
 62
253
  6
CONTINUOUS
 10
-76.9358147089
 20
128.75
 11
-76.728289992
 21
128.7499998304
  0
LINE
  5
40C
100
AcDbEntity
  8
RACCORDO
100
AcDbLine
 62
253
  6
CONTINUOUS
 10
-67.9358147089
 20
143.5
 11
-72.3505793113
 21
143.5
  0
ARC
  5
40D
100
AcDbEntity
  8
RACCORDO
100
AcDbCircle
 62
253
  6
CONTINUOUS
 10
-383.2710549877
 20
-135.772463181
 40
361.0560489685
100
AcDbArc
 50
0.5471468609
 51
0.7977200347
  0
ARC
  5
40E
100
AcDbEntity
  8
RACCORDO
100
AcDbCircle
 62
253
  6
CONTINUOUS
 10
-29.2480621233
 20
-422.8378317735
 40
294.1303372036
100
AcDbArc
 50
89.0259188084
 51
89.3322695591
  0
ARC
  5
40F
100
AcDbEntity
  8
RACCORDO
100
AcDbCircle
 62
253
  6
CONTINUOUS
 10
-22.25
 20
-57.75
 40
3.6569431737
100
AcDbArc
 50
250.0557839296
 51
270.0
  0
ARC
  5
410
100
AcDbEntity
  8
RACCORDO
100
AcDbCircle
 62
253
  6
CONTINUOUS
 10
-22.25
 20
-13.25
 40
3.6569431737
100
AcDbArc
 50
90.0
 51
109.9442428468
  0
ARC
  5
411
100
AcDbEntity
  8
RACCORDO
100
AcDbCircle
 62
253
  6
CONTINUOUS
 10
-22.25
 20
-84.25
 40
3.6569431737
100
AcDbArc
 50
90.0
 51
109.9442428469
  0
ARC
  5
412
100
AcDbEntity
  8
SUPERFICI
100
AcDbCircle
 62
7
  6
CONTINUOUS
 10
-37.0
 20
-143.5
 40
3.0
100
AcDbArc
 50
179.9999999996
 51
270.0000000004
  0
ARC
  5
413
100
AcDbEntity
  8
RACCORDO
100
AcDbCircle
 62
253
  6
CONTINUOUS
 10
-37.0031540341
 20
-143.503881374
 40
2.765536366
100
AcDbArc
 50
179.9195848942
 51
270.0653443168
  0
ARC
  5
414
100
AcDbEntity
  8
RACCORDO
100
AcDbCircle
 62
253
  6
CONTINUOUS
 10
-22.25
 20
-57.75
 40
1.9551693945
100
AcDbArc
 50
250.0557035504
 51
270.0
  0
ARC
  5
415
100
AcDbEntity
  8
RACCORDO
100
AcDbCircle
 62
253
  6
CONTINUOUS
 10
-22.25
 20
-13.25
 40
1.9551693945
100
AcDbArc
 50
90.0
 51
109.9442964496
  0
ARC
  5
416
100
AcDbEntity
  8
RACCORDO
100
AcDbCircle
 62
253
  6
CONTINUOUS
 10
-22.25
 20
-84.25
 40
1.9551693945
100
AcDbArc
 50
90.0
 51
109.9442964496
  0
ARC
  5
417
100
AcDbEntity
  8
0
100
AcDbCircle
 62
253
  6
CONTINUOUS
 10
-22.25
 20
-57.75
 40
0.388520641
100
AcDbArc
 50
180.0
 51
270.0
  0
ARC
  5
418
100
AcDbEntity
  8
0
100
AcDbCircle
 62
253
  6
CONTINUOUS
 10
-22.25
 20
-13.25
 40
0.388520641
100
AcDbArc
 50
90.0
 51
180.0
  0
ARC
  5
419
100
AcDbEntity
  8
0
100
AcDbCircle
 62
253
  6
CONTINUOUS
 10
-22.25
 20
-128.75
 40
0.388520641
100
AcDbArc
 50
180.0
 51
270.0
  0
ARC
  5
41A
100
AcDbEntity
  8
0
100
AcDbCircle
 62
253
  6
CONTINUOUS
 10
-22.25
 20
-84.25
 40
0.388520641
100
AcDbArc
 50
90.0
 51
180.0
  0
ARC
  5
41B
100
AcDbEntity
  8
0
100
AcDbCircle
 62
7
  6
CONTINUOUS
 10
-22.25
 20
-57.75
 40
0.3
100
AcDbArc
 50
180.0
 51
270.0
  0
ARC
  5
41C
100
AcDbEntity
  8
0
100
AcDbCircle
 62
7
  6
CONTINUOUS
 10
-22.25
 20
-13.25
 40
0.3
100
AcDbArc
 50
90.0
 51
180.0
  0
ARC
  5
41D
100
AcDbEntity
  8
0
100
AcDbCircle
 62
7
  6
CONTINUOUS
 10
-22.25
 20
-128.75
 40
0.3
100
AcDbArc
 50
180.0
 51
270.0
  0
ARC
  5
41E
100
AcDbEntity
  8
0
100
AcDbCircle
 62
7
  6
CONTINUOUS
 10
-22.25
 20
-84.25
 40
0.3
100
AcDbArc
 50
90.0
 51
180.0
  0
ARC
  5
41F
100
AcDbEntity
  8
RACCORDO
100
AcDbCircle
 62
253
  6
CONTINUOUS
 10
-383.2490394726
 20
135.7722052112
 40
361.0340319958
100
AcDbArc
 50
359.2022722564
 51
359.4528607091
  0
ARC
  5
420
100
AcDbEntity
  8
RACCORDO
100
AcDbCircle
 62
253
  6
CONTINUOUS
 10
-29.2488345519
 20
422.8917115207
 40
294.1842222963
100
AcDbArc
 50
270.6677585833
 51
270.9740532193
  0
ARC
  5
421
100
AcDbEntity
  8
RACCORDO
100
AcDbCircle
 62
253
  6
CONTINUOUS
 10
-22.25
 20
13.25
 40
3.6569431737
100
AcDbArc
 50
250.0557839296
 51
270.0
  0
ARC
  5
422
100
AcDbEntity
  8
RACCORDO
100
AcDbCircle
 62
253
  6
CONTINUOUS
 10
-22.25
 20
57.75
 40
3.6569431737
100
AcDbArc
 50
90.0
 51
109.9442428469
  0
ARC
  5
423
100
AcDbEntity
  8
RACCORDO
100
AcDbCircle
 62
253
  6
CONTINUOUS
 10
-22.25
 20
84.25
 40
3.6569431737
100
AcDbArc
 50
250.0557839296
 51
270.0
  0
ARC
  5
424
100
AcDbEntity
  8
SUPERFICI
100
AcDbCircle
 62
7
  6
CONTINUOUS
 10
-37.0
 20
143.5
 40
3.0
100
AcDbArc
 50
89.9999999996
 51
180.0000000004
  0
ARC
  5
425
100
AcDbEntity
  8
RACCORDO
100
AcDbCircle
 62
253
  6
CONTINUOUS
 10
-37.0031540341
 20
143.503881374
 40
2.765536366
100
AcDbArc
 50
89.9346556823
 51
180.0804151062
  0
ARC
  5
426
100
AcDbEntity
  8
RACCORDO
100
AcDbCircle
 62
253
  6
CONTINUOUS
 10
-22.25
 20
84.25
 40
1.9551693945
100
AcDbArc
 50
250.0557035504
 51
270.0
  0
ARC
  5
427
100
AcDbEntity
  8
RACCORDO
100
AcDbCircle
 62
253
  6
CONTINUOUS
 10
-22.25
 20
13.25
 40
1.9551693945
100
AcDbArc
 50
250.0557035504
 51
270.0
  0
ARC
  5
428
100
AcDbEntity
  8
RACCORDO
100
AcDbCircle
 62
253
  6
CONTINUOUS
 10
-22.25
 20
57.75
 40
1.9551693945
100
AcDbArc
 50
90.0
 51
109.9442964496
  0
ARC
  5
429
100
AcDbEntity
  8
0
100
AcDbCircle
 62
253
  6
CONTINUOUS
 10
-22.25
 20
84.25
 40
0.388520641
100
AcDbArc
 50
180.0
 51
270.0
  0
ARC
  5
42A
100
AcDbEntity
  8
0
100
AcDbCircle
 62
253
  6
CONTINUOUS
 10
-22.25
 20
128.75
 40
0.388520641
100
AcDbArc
 50
90.0
 51
180.0
  0
ARC
  5
42B
100
AcDbEntity
  8
0
100
AcDbCircle
 62
253
  6
CONTINUOUS
 10
-22.25
 20
13.25
 40
0.388520641
100
AcDbArc
 50
180.0
 51
270.0
  0
ARC
  5
42C
100
AcDbEntity
  8
0
100
AcDbCircle
 62
253
  6
CONTINUOUS
 10
-22.25
 20
57.75
 40
0.388520641
100
AcDbArc
 50
90.0
 51
180.0
  0
ARC
  5
42D
100
AcDbEntity
  8
0
100
AcDbCircle
 62
7
  6
CONTINUOUS
 10
-22.25
 20
84.25
 40
0.3
100
AcDbArc
 50
180.0
 51
270.0000000001
  0
ARC
  5
42E
100
AcDbEntity
  8
0
100
AcDbCircle
 62
7
  6
CONTINUOUS
 10
-22.25
 20
128.75
 40
0.3
100
AcDbArc
 50
90.0000000001
 51
180.0
  0
ARC
  5
42F
100
AcDbEntity
  8
0
100
AcDbCircle
 62
7
  6
CONTINUOUS
 10
-22.25
 20
13.25
 40
0.3
100
AcDbArc
 50
180.0
 51
270.0
  0
ARC
  5
430
100
AcDbEntity
  8
0
100
AcDbCircle
 62
7
  6
CONTINUOUS
 10
-22.25
 20
57.75
 40
0.3
100
AcDbArc
 50
90.0
 51
180.0
  0
ARC
  5
431
100
AcDbEntity
  8
RACCORDO
100
AcDbCircle
 62
253
  6
CONTINUOUS
 10
383.2490394775
 20
-135.7722052113
 40
361.0340320006
100
AcDbArc
 50
179.2022722564
 51
179.4528607091
  0
ARC
  5
432
100
AcDbEntity
  8
RACCORDO
100
AcDbCircle
 62
253
  6
CONTINUOUS
 10
29.2488345518
 20
-422.8917115163
 40
294.1842222919
100
AcDbArc
 50
90.6677585833
 51
90.9740532193
  0
ARC
  5
433
100
AcDbEntity
  8
RACCORDO
100
AcDbCircle
 62
253
  6
CONTINUOUS
 10
22.25
 20
-57.75
 40
3.6569431737
100
AcDbArc
 50
270.0
 51
289.9442413244
  0
ARC
  5
434
100
AcDbEntity
  8
RACCORDO
100
AcDbCircle
 62
253
  6
CONTINUOUS
 10
22.25
 20
-13.25
 40
3.6569431737
100
AcDbArc
 50
70.0557861668
 51
90.0
  0
ARC
  5
435
100
AcDbEntity
  8
RACCORDO
100
AcDbCircle
 62
253
  6
CONTINUOUS
 10
22.25
 20
-84.25
 40
3.6569431737
100
AcDbArc
 50
70.0557861668
 51
90.0
  0
ARC
  5
436
100
AcDbEntity
  8
SUPERFICI
100
AcDbCircle
 62
7
  6
CONTINUOUS
 10
37.0
 20
-143.5
 40
3.0
100
AcDbArc
 50
269.9999999996
 51
360.0
  0
ARC
  5
437
100
AcDbEntity
  8
RACCORDO
100
AcDbCircle
 62
253
  6
CONTINUOUS
 10
37.0031537007
 20
-143.5038810405
 40
2.765536366
100
AcDbArc
 50
269.9346625987
 51
0.0804081872
  0
ARC
  5
438
100
AcDbEntity
  8
RACCORDO
100
AcDbCircle
 62
253
  6
CONTINUOUS
 10
22.25
 20
-13.25
 40
1.9551693945
100
AcDbArc
 50
70.0557035504
 51
90.0
  0
ARC
  5
439
100
AcDbEntity
  8
RACCORDO
100
AcDbCircle
 62
253
  6
CONTINUOUS
 10
22.25
 20
-57.75
 40
1.9551693945
100
AcDbArc
 50
270.0
 51
289.9442964496
  0
ARC
  5
43A
100
AcDbEntity
  8
RACCORDO
100
AcDbCircle
 62
253
  6
CONTINUOUS
 10
22.25
 20
-84.25
 40
1.9551693945
100
AcDbArc
 50
70.0557035504
 51
90.0
  0
ARC
  5
43B
100
AcDbEntity
  8
0
100
AcDbCircle
 62
253
  6
CONTINUOUS
 10
22.25
 20
-13.25
 40
0.388520641
100
AcDbArc
 50
0.0
 51
90.0
  0
ARC
  5
43C
100
AcDbEntity
  8
0
100
AcDbCircle
 62
253
  6
CONTINUOUS
 10
22.25
 20
-57.75
 40
0.388520641
100
AcDbArc
 50
270.0
 51
360.0
  0
ARC
  5
43D
100
AcDbEntity
  8
0
100
AcDbCircle
 62
253
  6
CONTINUOUS
 10
22.25
 20
-84.25
 40
0.388520641
100
AcDbArc
 50
0.0
 51
90.0
  0
ARC
  5
43E
100
AcDbEntity
  8
0
100
AcDbCircle
 62
253
  6
CONTINUOUS
 10
22.25
 20
-128.75
 40
0.388520641
100
AcDbArc
 50
270.0
 51
360.0
  0
ARC
  5
43F
100
AcDbEntity
  8
0
100
AcDbCircle
 62
7
  6
CONTINUOUS
 10
22.25
 20
-13.25
 40
0.3
100
AcDbArc
 50
0.0
 51
90.0
  0
ARC
  5
440
100
AcDbEntity
  8
0
100
AcDbCircle
 62
7
  6
CONTINUOUS
 10
22.25
 20
-57.75
 40
0.3
100
AcDbArc
 50
270.0
 51
360.0
  0
ARC
  5
441
100
AcDbEntity
  8
0
100
AcDbCircle
 62
7
  6
CONTINUOUS
 10
22.25
 20
-84.25
 40
0.3
100
AcDbArc
 50
0.0
 51
90.0
  0
ARC
  5
442
100
AcDbEntity
  8
0
100
AcDbCircle
 62
7
  6
CONTINUOUS
 10
22.25
 20
-128.75
 40
0.3
100
AcDbArc
 50
270.0
 51
360.0
  0
ARC
  5
443
100
AcDbEntity
  8
RACCORDO
100
AcDbCircle
 62
253
  6
CONTINUOUS
 10
383.2710549885
 20
135.772463181
 40
361.0560489692
100
AcDbArc
 50
180.5471468609
 51
180.7977200347
  0
ARC
  5
444
100
AcDbEntity
  8
RACCORDO
100
AcDbCircle
 62
253
  6
CONTINUOUS
 10
29.2480621234
 20
422.8378317811
 40
294.1303372113
100
AcDbArc
 50
269.0259188084
 51
269.332269559
  0
ARC
  5
445
100
AcDbEntity
  8
RACCORDO
100
AcDbCircle
 62
253
  6
CONTINUOUS
 10
22.25
 20
13.25
 40
3.6569431737
100
AcDbArc
 50
270.0
 51
289.9442413244
  0
ARC
  5
446
100
AcDbEntity
  8
RACCORDO
100
AcDbCircle
 62
253
  6
CONTINUOUS
 10
22.25
 20
57.75
 40
3.6569431737
100
AcDbArc
 50
70.0557861668
 51
90.0
  0
ARC
  5
447
100
AcDbEntity
  8
RACCORDO
100
AcDbCircle
 62
253
  6
CONTINUOUS
 10
22.25
 20
84.25
 40
3.6569431737
100
AcDbArc
 50
270.0
 51
289.9442413244
  0
ARC
  5
448
100
AcDbEntity
  8
SUPERFICI
100
AcDbCircle
 62
7
  6
CONTINUOUS
 10
37.0
 20
143.5
 40
3.0
100
AcDbArc
 50
0.0
 51
90.0000000004
  0
ARC
  5
449
100
AcDbEntity
  8
RACCORDO
100
AcDbCircle
 62
253
  6
CONTINUOUS
 10
37.0031537007
 20
143.5038810406
 40
2.765536366
100
AcDbArc
 50
359.9195918113
 51
90.0653374011
  0
ARC
  5
44A
100
AcDbEntity
  8
RACCORDO
100
AcDbCircle
 62
253
  6
CONTINUOUS
 10
22.25
 20
84.25
 40
1.9551693945
100
AcDbArc
 50
270.0
 51
289.9442964496
  0
ARC
  5
44B
100
AcDbEntity
  8
RACCORDO
100
AcDbCircle
 62
253
  6
CONTINUOUS
 10
22.25
 20
57.75
 40
1.9551693945
100
AcDbArc
 50
70.0557035504
 51
90.0
  0
ARC
  5
44C
100
AcDbEntity
  8
RACCORDO
100
AcDbCircle
 62
253
  6
CONTINUOUS
 10
22.25
 20
13.25
 40
1.9551693945
100
AcDbArc
 50
270.0
 51
289.9442964496
  0
ARC
  5
44D
100
AcDbEntity
  8
0
100
AcDbCircle
 62
253
  6
CONTINUOUS
 10
22.25
 20
128.75
 40
0.388520641
100
AcDbArc
 50
0.0
 51
90.0
  0
ARC
  5
44E
100
AcDbEntity
  8
0
100
AcDbCircle
 62
253
  6
CONTINUOUS
 10
22.25
 20
84.25
 40
0.388520641
100
AcDbArc
 50
270.0
 51
360.0
  0
ARC
  5
44F
100
AcDbEntity
  8
0
100
AcDbCircle
 62
253
  6
CONTINUOUS
 10
22.25
 20
57.75
 40
0.388520641
100
AcDbArc
 50
0.0
 51
90.0
  0
ARC
  5
450
100
AcDbEntity
  8
0
100
AcDbCircle
 62
253
  6
CONTINUOUS
 10
22.25
 20
13.25
 40
0.388520641
100
AcDbArc
 50
270.0
 51
360.0
  0
ARC
  5
451
100
AcDbEntity
  8
0
100
AcDbCircle
 62
7
  6
CONTINUOUS
 10
22.25
 20
128.75
 40
0.3
100
AcDbArc
 50
0.0
 51
90.0
  0
ARC
  5
452
100
AcDbEntity
  8
0
100
AcDbCircle
 62
7
  6
CONTINUOUS
 10
22.25
 20
84.25
 40
0.3
100
AcDbArc
 50
270.0
 51
360.0
  0
ARC
  5
453
100
AcDbEntity
  8
0
100
AcDbCircle
 62
7
  6
CONTINUOUS
 10
22.25
 20
57.75
 40
0.3
100
AcDbArc
 50
0.0
 51
90.0
  0
ARC
  5
454
100
AcDbEntity
  8
0
100
AcDbCircle
 62
7
  6
CONTINUOUS
 10
22.25
 20
13.25
 40
0.3
100
AcDbArc
 50
270.0
 51
360.0
  0
ARC
  5
455
100
AcDbEntity
  8
RACCORDO
100
AcDbCircle
 62
7
  6
CONTINUOUS
 10
-79.2299754698
 20
-80.5930568263
 40
3.0
100
AcDbArc
 50
325.4407668808
 51
360.0
  0
ARC
  5
456
100
AcDbEntity
  8
RACCORDO
100
AcDbCircle
 62
7
  6
CONTINUOUS
 10
-79.2299754698
 20
-61.4069431737
 40
3.0
100
AcDbArc
 50
0.0
 51
34.5592331192
  0
ARC
  5
457
100
AcDbEntity
  8
RACCORDO
100
AcDbCircle
 62
7
  6
CONTINUOUS
 10
-79.2299754698
 20
-9.5930568263
 40
3.0
100
AcDbArc
 50
325.4407668808
 51
360.0
  0
ARC
  5
458
100
AcDbEntity
  8
RACCORDO
100
AcDbCircle
 62
7
  6
CONTINUOUS
 10
-79.1254716893
 20
-132.5516406043
 40
2.9999999981
100
AcDbArc
 50
37.0116003311
 51
37.1161141895
  0
ARC
  5
459
100
AcDbEntity
  8
RACCORDO
100
AcDbCircle
 62
253
  6
CONTINUOUS
 10
-79.1119475177
 20
-132.5688534595
 40
2.9996623091
100
AcDbArc
 50
4.6704845831
 51
37.4296151418
  0
ARC
  5
45A
100
AcDbEntity
  8
0
100
AcDbCircle
 62
7
  6
CONTINUOUS
 10
-75.9358147089
 20
-11.862088532
 40
1.0
100
AcDbArc
 50
145.4407668808
 51
180.0
  0
ARC
  5
45B
100
AcDbEntity
  8
RACCORDO
100
AcDbCircle
 62
7
  6
CONTINUOUS
 10
-75.9358147089
 20
-11.862088532
 40
1.0
100
AcDbArc
 50
145.4407668808
 51
180.0
  0
ARC
  5
45C
100
AcDbEntity
  8
0
100
AcDbCircle
 62
7
  6
CONTINUOUS
 10
-75.9358147089
 20
-59.137911468
 40
1.0
100
AcDbArc
 50
180.0
 51
214.5592331192
  0
ARC
  5
45D
100
AcDbEntity
  8
RACCORDO
100
AcDbCircle
 62
7
  6
CONTINUOUS
 10
-75.9358147089
 20
-59.137911468
 40
1.0
100
AcDbArc
 50
180.0
 51
214.5592331192
  0
ARC
  5
45E
100
AcDbEntity
  8
0
100
AcDbCircle
 62
7
  6
CONTINUOUS
 10
-75.9358147089
 20
-82.862088532
 40
1.0
100
AcDbArc
 50
145.4407668808
 51
180.0
  0
ARC
  5
45F
100
AcDbEntity
  8
RACCORDO
100
AcDbCircle
 62
7
  6
CONTINUOUS
 10
-75.9358147089
 20
-82.862088532
 40
1.0
100
AcDbArc
 50
145.4407668808
 51
180.0
  0
ARC
  5
460
100
AcDbEntity
  8
0
100
AcDbCircle
 62
7
  6
CONTINUOUS
 10
-75.9358147089
 20
-130.137911468
 40
1.0
100
AcDbArc
 50
180.0
 51
217.429739794
  0
ARC
  5
461
100
AcDbEntity
  8
RACCORDO
100
AcDbCircle
 62
7
  6
CONTINUOUS
 10
-75.9358147089
 20
-130.137911468
 40
1.0
100
AcDbArc
 50
180.0
 51
217.4297397834
  0
ARC
  5
462
100
AcDbEntity
  8
RACCORDO
100
AcDbCircle
 62
7
  6
CONTINUOUS
 10
-79.2299754698
 20
9.5930568263
 40
3.0
100
AcDbArc
 50
0.0
 51
34.5592331192
  0
ARC
  5
463
100
AcDbEntity
  8
RACCORDO
100
AcDbCircle
 62
7
  6
CONTINUOUS
 10
-79.2299754698
 20
61.4069431737
 40
3.0
100
AcDbArc
 50
325.4407668808
 51
360.0
  0
ARC
  5
464
100
AcDbEntity
  8
RACCORDO
100
AcDbCircle
 62
7
  6
CONTINUOUS
 10
-79.2299754698
 20
80.5930568263
 40
3.0
100
AcDbArc
 50
0.0
 51
34.5592331192
  0
ARC
  5
465
100
AcDbEntity
  8
RACCORDO
100
AcDbCircle
 62
7
  6
CONTINUOUS
 10
-79.1254716704
 20
132.5516406302
 40
3.0
100
AcDbArc
 50
322.8838851989
 51
322.9883990585
  0
ARC
  5
466
100
AcDbEntity
  8
RACCORDO
100
AcDbCircle
 62
253
  6
CONTINUOUS
 10
-79.1119478228
 20
132.5688530676
 40
2.9996622938
100
AcDbArc
 50
322.5703943437
 51
355.329523352
  0
ARC
  5
467
100
AcDbEntity
  8
0
100
AcDbCircle
 62
7
  6
CONTINUOUS
 10
-75.9358147089
 20
130.137911468
 40
1.0
100
AcDbArc
 50
142.570260206
 51
180.0
  0
ARC
  5
468
100
AcDbEntity
  8
RACCORDO
100
AcDbCircle
 62
7
  6
CONTINUOUS
 10
-75.9358147089
 20
130.137911468
 40
1.0
100
AcDbArc
 50
142.5702602133
 51
180.0
  0
ARC
  5
469
100
AcDbEntity
  8
0
100
AcDbCircle
 62
7
  6
CONTINUOUS
 10
-75.9358147089
 20
82.862088532
 40
1.0
100
AcDbArc
 50
180.0
 51
214.5592331192
  0
ARC
  5
46A
100
AcDbEntity
  8
RACCORDO
100
AcDbCircle
 62
7
  6
CONTINUOUS
 10
-75.9358147089
 20
82.862088532
 40
1.0
100
AcDbArc
 50
180.0
 51
214.5592331192
  0
ARC
  5
46B
100
AcDbEntity
  8
0
100
AcDbCircle
 62
7
  6
CONTINUOUS
 10
-75.9358147089
 20
59.137911468
 40
1.0
100
AcDbArc
 50
145.4407668808
 51
180.0
  0
ARC
  5
46C
100
AcDbEntity
  8
RACCORDO
100
AcDbCircle
 62
7
  6
CONTINUOUS
 10
-75.9358147089
 20
59.137911468
 40
1.0
100
AcDbArc
 50
145.4407668808
 51
180.0
  0
ARC
  5
46D
100
AcDbEntity
  8
0
100
AcDbCircle
 62
7
  6
CONTINUOUS
 10
-75.9358147089
 20
11.862088532
 40
1.0
100
AcDbArc
 50
180.0
 51
214.5592331192
  0
ARC
  5
46E
100
AcDbEntity
  8
RACCORDO
100
AcDbCircle
 62
7
  6
CONTINUOUS
 10
-75.9358147089
 20
11.862088532
 40
1.0
100
AcDbArc
 50
180.0
 51
214.5592331192
  0
ARC
  5
46F
100
AcDbEntity
  8
RACCORDO
100
AcDbCircle
 62
7
  6
CONTINUOUS
 10
-72.4441849101
 20
-145.2623539836
 40
1.0
100
AcDbArc
 50
200.0856192692
 51
266.9561674188
  0
ARC
  5
470
100
AcDbEntity
  8
RACCORDO
100
AcDbCircle
 62
7
  6
CONTINUOUS
 10
-72.4358127786
 20
-145.2627927484
 40
1.0
100
AcDbArc
 50
263.786667238
 51
267.0000000138
  0
ARC
  5
471
100
AcDbEntity
  8
RACCORDO
100
AcDbCircle
 62
253
  6
CONTINUOUS
 10
-72.2828073624
 20
-145.2713296334
 40
0.9994979021
100
AcDbArc
 50
187.8065071125
 51
266.9843879391
  0
ARC
  5
472
100
AcDbEntity
  8
RACCORDO
100
AcDbCircle
 62
7
  6
CONTINUOUS
 10
-72.435812773
 20
145.2627927487
 40
1.0
100
AcDbArc
 50
93.0000003088
 51
96.213333072
  0
ARC
  5
473
100
AcDbEntity
  8
RACCORDO
100
AcDbCircle
 62
253
  6
CONTINUOUS
 10
-72.2828078651
 20
145.2713278799
 40
0.9994974921
100
AcDbArc
 50
93.0155780331
 51
172.1933893994
  0
SPLINE
  5
474
100
AcDbEntity
  8
RACCORDO
100
AcDbSpline
 62
253
  6
CONTINUOUS
 70
0
 71
3
 72
14
 73
10
 74
8
 42
0.0000001
 43
0.0000001
 44
0.0000000001
 12
25.2499762462
 22
-0.0000747007
 32
0.0
 13
25.2499291758
 23
0.0487550617
 33
0.0
 40
0.0
 40
0.0
 40
0.0
 40
0.0
 40
0.2500094775
 40
0.5000179882
 40
0.625018447
 40
0.7500167096
 40
0.8750105102
 40
0.9375078921
 40
1.0
 40
1.0
 40
1.0
 40
1.0
 10
11.7500262635
 20
146.2614222832
 30
0.0
 10
13.8542707196
 20
146.2614160579
 30
0.0
 10
18.0627514343
 20
146.2607946263
 30
0.0
 10
23.3233185738
 20
146.261105804
 30
0.0
 10
27.5317083826
 20
146.2631110351
 30
0.0
 10
30.6878920315
 20
146.2647125171
 30
0.0
 10
33.3180085184
 20
146.2666053327
 30
0.0
 10
35.4220316758
 20
146.2682239344
 30
0.0
 10
36.4740262339
 20
146.2684125212
 30
0.0
 10
37.0
 20
146.2694281234
 30
0.0
 11
11.7500262635
 21
146.2614222832
 31
0.0
 11
18.0627596187
 21
146.2610122198
 31
0.0
 11
24.375468531
 21
146.26175349
 31
0.0
 11
27.5317268487
 21
146.2631273128
 31
0.0
 11
30.6879295532
 21
146.2648241935
 31
0.0
 11
33.8440192858
 21
146.2670186872
 31
0.0
 11
35.4220763458
 21
146.2680687804
 31
0.0
 11
37.0
 21
146.2694281234
 31
0.0
  0
SPLINE
  5
475
100
AcDbEntity
  8
RACCORDO
100
AcDbSpline
 62
253
  6
CONTINUOUS
 70
0
 71
3
 72
14
 73
10
 74
8
 42
0.0000001
 43
0.0000001
 44
0.0000000001
 12
25.249929176
 22
-0.0487549623
 32
0.0
 13
25.2499762462
 23
0.0000746891
 33
0.0
 40
0.0
 40
0.0
 40
0.0
 40
0.0
 40
0.0624921084
 40
0.1249894903
 40
0.2499832908
 40
0.3749815533
 40
0.4999820121
 40
0.7499905227
 40
1.0
 40
1.0
 40
1.0
 40
1.0
 10
-37.0
 20
146.2694281234
 30
0.0
 10
-36.4740262295
 20
146.2684125233
 30
0.0
 10
-35.4220316671
 20
146.2682239328
 30
0.0
 10
-33.3180085062
 20
146.2666053353
 30
0.0
 10
-30.6878920208
 20
146.2647125161
 30
0.0
 10
-27.5317083737
 20
146.2631110353
 30
0.0
 10
-23.323318567
 20
146.2611058039
 30
0.0
 10
-18.0627514304
 20
146.2607946258
 30
0.0
 10
-13.8542707182
 20
146.2614160588
 30
0.0
 10
-11.7500262635
 20
146.2614222832
 30
0.0
 11
-37.0
 21
146.2694281234
 31
0.0
 11
-35.4220763325
 21
146.2680687803
 31
0.0
 11
-33.8440192732
 21
146.2670186882
 31
0.0
 11
-30.6879295427
 21
146.2648241934
 31
0.0
 11
-27.5317268398
 21
146.2631273128
 31
0.0
 11
-24.3754685239
 21
146.26175349
 31
0.0
 11
-18.0627596143
 21
146.2610122197
 31
0.0
 11
-11.7500262635
 21
146.2614222832
 31
0.0
  0
SPLINE
  5
476
100
AcDbEntity
  8
RACCORDO
100
AcDbSpline
 62
253
  6
CONTINUOUS
 70
0
 71
3
 72
15
 73
11
 74
9
 42
0.0000001
 43
0.0000001
 44
0.0000000001
 12
0.1019127222
 22
36.9998592377
 32
0.0
 13
-0.0000113984
 23
36.9999995921
 33
0.0
 40
0.0
 40
0.0
 40
0.0
 40
0.0
 40
0.0624812795
 40
0.1249787586
 40
0.1874783367
 40
0.2499793988
 40
0.3749825944
 40
0.4999859561
 40
0.7499929197
 40
1.0
 40
1.0
 40
1.0
 40
1.0
 10
-39.7686319911
 20
-143.5
 30
0.0
 10
-39.7665094454
 20
-142.7294004851
 30
0.0
 10
-39.7661960487
 20
-141.1879936137
 30
0.0
 10
-39.7644192574
 20
-138.8757623151
 30
0.0
 10
-39.7634887839
 20
-136.5632854603
 30
0.0
 10
-39.7627687298
 20
-133.4799050086
 30
0.0
 10
-39.7624227023
 20
-129.6256443811
 30
0.0
 10
-39.761830653
 20
-123.4588110708
 30
0.0
 10
-39.7614767129
 20
-115.7502631473
 30
0.0
 10
-39.7614192302
 20
-109.583423343
 30
0.0
 10
-39.7614201801
 20
-106.5000027205
 30
0.0
 11
-39.7686319911
 21
-143.5
 31
0.0
 11
-39.7659783792
 21
-141.1881942086
 31
0.0
 11
-39.7645603549
 21
-138.8757879418
 31
0.0
 11
-39.7635538652
 21
-136.5633037938
 31
0.0
 11
-39.7629856828
 21
-134.2507645918
 31
0.0
 11
-39.762417902
 21
-129.6256464434
 31
0.0
 11
-39.762004407
 21
-125.0005221277
 31
0.0
 11
-39.7615331303
 21
-115.7502645874
 31
0.0
 11
-39.7614201801
 21
-106.5000027205
 31
0.0
  0
SPLINE
  5
477
100
AcDbEntity
  8
RACCORDO
100
AcDbSpline
 62
253
  6
CONTINUOUS
 70
0
 71
3
 72
15
 73
11
 74
9
 42
0.0000001
 43
0.0000001
 44
0.0000000001
 12
0.0000113985
 22
36.9999995924
 32
0.0
 13
-0.101912645
 23
36.9998592382
 33
0.0
 40
0.0
 40
0.0
 40
0.0
 40
0.0
 40
0.2500070804
 40
0.5000140441
 40
0.625017406
 40
0.7500206015
 40
0.8125216637
 40
0.875021242
 40
0.9375187211
 40
1.0
 40
1.0
 40
1.0
 40
1.0
 10
-39.7614201801
 20
106.5000027202
 30
0.0
 10
-39.7614192302
 20
109.5834233443
 30
0.0
 10
-39.7614767119
 20
115.7502631517
 30
0.0
 10
-39.7618306557
 20
123.4588110791
 30
0.0
 10
-39.7624226971
 20
129.6256443926
 30
0.0
 10
-39.7627687339
 20
133.4799050226
 30
0.0
 10
-39.7634887837
 20
136.5632854769
 30
0.0
 10
-39.7644192579
 20
138.875762334
 30
0.0
 10
-39.7661960474
 20
141.1879936271
 30
0.0
 10
-39.766509447
 20
142.729400492
 30
0.0
 10
-39.7686319911
 20
143.5
 30
0.0
 11
-39.7614201801
 21
106.5000027202
 31
0.0
 11
-39.7615331303
 21
115.7502645917
 31
0.0
 11
-39.7620044068
 21
125.0005221368
 31
0.0
 11
-39.7624178996
 21
129.6256464549
 31
0.0
 11
-39.7629856848
 21
134.2507646058
 31
0.0
 11
-39.7635538656
 21
136.5633038102
 31
0.0
 11
-39.764560355
 21
138.8757879611
 31
0.0
 11
-39.7659783789
 21
141.1881942296
 31
0.0
 11
-39.7686319911
 21
143.5
 31
0.0
  0
SPLINE
  5
478
100
AcDbEntity
  8
RACCORDO
100
AcDbSpline
 62
253
  6
CONTINUOUS
 70
0
 71
3
 72
18
 73
14
 74
12
 42
0.0000001
 43
0.0000001
 44
0.0000000001
 12
-0.6077965903
 22
-0.6112079913
 32
0.0
 13
-0.8619251255
 23
-0.0087739274
 33
0.0
 40
0.0
 40
0.0
 40
0.0
 40
0.0
 40
0.0108578142
 40
0.0296179789
 40
0.0565200661
 40
0.0914701916
 40
0.1342711558
 40
0.1846230357
 40
0.3065080613
 40
0.4535995296
 40
0.6215870551
 40
0.805527776
 40
1.0
 40
1.0
 40
1.0
 40
1.0
 10
39.7686300204
 20
-143.4999999999
 30
0.0
 10
39.7664302396
 20
-143.5022121275
 30
0.0
 10
39.7582390727
 20
-143.5055671489
 30
0.0
 10
39.7427411062
 20
-143.5097903594
 30
0.0
 10
39.7198529665
 20
-143.5139847101
 30
0.0
 10
39.6901130872
 20
-143.5181924684
 30
0.0
 10
39.6535172996
 20
-143.5222903619
 30
0.0
 10
39.5919943192
 20
-143.5279415972
 30
0.0
 10
39.5004427738
 20
-143.534196157
 30
0.0
 10
39.3750461886
 20
-143.5404441348
 30
0.0
 10
39.2317532128
 20
-143.5455712246
 30
0.0
 10
39.0748043709
 20
-143.5494176337
 30
0.0
 10
38.9660872532
 20
-143.5510126224
 30
0.0
 10
38.9102137545
 20
-143.5515813841
 30
0.0
 11
39.7686300204
 21
-143.4999999999
 31
0.0
 11
39.7604339365
 21
-143.5045185291
 31
0.0
 11
39.7448986857
 21
-143.5090071105
 31
0.0
 11
39.7221351398
 21
-143.5134276064
 31
0.0
 11
39.6923205511
 21
-143.5177477086
 31
0.0
 11
39.6556659844
 21
-143.5219365458
 31
0.0
 11
39.6124513747
 21
-143.5259631639
 31
0.0
 11
39.5076544448
 21
-143.5334103845
 31
0.0
 11
39.3810306527
 21
-143.5398690098
 31
0.0
 11
39.2363267398
 21
-143.5451479313
 31
0.0
 11
39.0778244339
 21
-143.5490909471
 31
0.0
 11
38.9102137545
 21
-143.5515813841
 31
0.0
  0
SPLINE
  5
479
100
AcDbEntity
  8
RACCORDO
100
AcDbSpline
 62
253
  6
CONTINUOUS
 70
0
 71
3
 72
18
 73
14
 74
12
 42
0.0000001
 43
0.0000001
 44
0.0000000001
 12
-0.6077985924
 22
0.6112087277
 32
0.0
 13
-0.8619270608
 23
0.0087738036
 33
0.0
 40
0.0
 40
0.0
 40
0.0
 40
0.0
 40
0.0108578323
 40
0.0296180203
 40
0.0565201344
 40
0.0914702888
 40
0.1342712825
 40
0.1846231905
 40
0.3065082605
 40
0.4535997458
 40
0.6215872488
 40
0.805527899
 40
1.0
 40
1.0
 40
1.0
 40
1.0
 10
39.7686319911
 20
143.5
 30
0.0
 10
39.7664321994
 20
143.502212134
 30
0.0
 10
39.7582410031
 20
143.5055671652
 30
0.0
 10
39.7427429815
 20
143.5097903876
 30
0.0
 10
39.719854768
 20
143.513984749
 30
0.0
 10
39.690114797
 20
143.5181925165
 30
0.0
 10
39.6535189021
 20
143.5222904177
 30
0.0
 10
39.5919957538
 20
143.5279416609
 30
0.0
 10
39.5004439766
 20
143.5341962249
 30
0.0
 10
39.375047098
 20
143.5404442001
 30
0.0
 10
39.2317538218
 20
143.5455712798
 30
0.0
 10
39.0748046894
 20
143.5494176717
 30
0.0
 10
38.9660873831
 20
143.5510126454
 30
0.0
 10
38.9102137943
 20
143.5515813988
 30
0.0
 11
39.7686319911
 21
143.5
 31
0.0
 11
39.760435873
 21
143.5045185429
 31
0.0
 11
39.7449005672
 21
143.509007137
 31
0.0
 11
39.7221369469
 21
143.5134276441
 31
0.0
 11
39.692322266
 21
143.517747756
 31
0.0
 11
39.6556675914
 21
143.521936601
 31
0.0
 11
39.6124528601
 21
143.5259632252
 31
0.0
 11
39.5076556559
 21
143.5334104518
 31
0.0
 11
39.3810315642
 21
143.539869075
 31
0.0
 11
39.2363273454
 21
143.5451479865
 31
0.0
 11
39.0778247442
 21
143.5490909851
 31
0.0
 11
38.9102137943
 21
143.5515813988
 31
0.0
  0
SPLINE
  5
47A
100
AcDbEntity
  8
RACCORDO
100
AcDbSpline
 62
253
  6
CONTINUOUS
 70
0
 71
3
 72
18
 73
14
 74
12
 42
0.0000001
 43
0.0000001
 44
0.0000000001
 12
0.4978803819
 22
-0.7062545437
 32
0.0
 13
0.0060432733
 23
-0.8640855478
 33
0.0
 40
0.0
 40
0.0
 40
0.0
 40
0.0
 40
0.0102133783
 40
0.0286484168
 40
0.0553727399
 40
0.090235794
 40
0.1330144865
 40
0.1833936408
 40
0.3054431963
 40
0.4527924526
 40
0.6210773355
 40
0.8053037809
 40
1.0
 40
1.0
 40
1.0
 40
1.0
 10
36.9999999999
 20
146.2694258893
 30
0.0
 10
37.0016950135
 20
146.2670214743
 30
0.0
 10
37.0038850883
 20
146.2588135269
 30
0.0
 10
37.0069356196
 20
146.2433096248
 30
0.0
 10
37.0098286143
 20
146.2203563741
 30
0.0
 10
37.0128052173
 20
146.1904730637
 30
0.0
 10
37.0156783389
 20
146.1536967999
 30
0.0
 10
37.0196547734
 20
146.0918410758
 30
0.0
 10
37.0240463972
 20
145.999829778
 30
0.0
 10
37.0284322085
 20
145.8738371304
 30
0.0
 10
37.0320246564
 20
145.7299018077
 30
0.0
 10
37.0347125345
 20
145.5723083712
 30
0.0
 10
37.0358203659
 20
145.4631697977
 30
0.0
 10
37.0362125668
 20
145.4070917346
 30
0.0
 11
36.9999999999
 21
146.2694258893
 31
0.0
 11
37.0031788106
 21
146.2611928035
 31
0.0
 11
37.0063364323
 21
146.2455790522
 31
0.0
 11
37.0094458826
 21
146.2226966891
 31
0.0
 11
37.0124843067
 21
146.1927249093
 31
0.0
 11
37.0154298679
 21
146.1558770998
 31
0.0
 11
37.0182606764
 21
146.1124362728
 31
0.0
 11
37.0234936498
 21
146.007102343
 31
0.0
 11
37.0280275053
 21
145.8798576135
 31
0.0
 11
37.0317273259
 21
145.7344885969
 31
0.0
 11
37.0344830139
 21
145.5753211477
 31
0.0
 11
37.0362125668
 21
145.4070917346
 31
0.0
  0
SPLINE
  5
47B
100
AcDbEntity
  8
RACCORDO
100
AcDbSpline
 62
253
  6
CONTINUOUS
 70
0
 71
3
 72
18
 73
14
 74
12
 42
0.0000001
 43
0.0000001
 44
0.0000000001
 12
-0.4978810011
 22
-0.7062567996
 32
0.0
 13
-0.0060430545
 23
-0.8640877501
 33
0.0
 40
0.0
 40
0.0
 40
0.0
 40
0.0
 40
0.0102134012
 40
0.0286484682
 40
0.0553728237
 40
0.0902359127
 40
0.1330146404
 40
0.183393828
 40
0.3054434359
 40
0.4527927113
 40
0.6210775659
 40
0.8053039265
 40
1.0
 40
1.0
 40
1.0
 40
1.0
 10
-37.0
 20
146.2694281234
 30
0.0
 10
-37.0016950195
 20
146.2670236954
 30
0.0
 10
-37.0038851045
 20
146.2588157138
 30
0.0
 10
-37.0069356479
 20
146.2433117478
 30
0.0
 10
-37.0098286543
 20
146.2203584117
 30
0.0
 10
-37.0128052681
 20
146.1904749958
 30
0.0
 10
-37.0156783993
 20
146.1536986086
 30
0.0
 10
-37.0196548449
 20
146.0918426921
 30
0.0
 10
-37.0240464769
 20
145.9998311296
 30
0.0
 10
-37.028432289
 20
145.8738381483
 30
0.0
 10
-37.0320247269
 20
145.7299024857
 30
0.0
 10
-37.0347125826
 20
145.5723087218
 30
0.0
 10
-37.0358203905
 20
145.4631699364
 30
0.0
 10
-37.0362125768
 20
145.4070917724
 30
0.0
 11
-37.0
 21
146.2694281234
 31
0.0
 11
-37.0031788241
 21
146.2611949975
 31
0.0
 11
-37.0063364587
 21
146.2455811824
 31
0.0
 11
-37.0094459213
 21
146.2226987332
 31
0.0
 11
-37.0124843565
 21
146.1927268472
 31
0.0
 11
-37.0154299275
 21
146.1558789135
 31
0.0
 11
-37.0182607443
 21
146.112437947
 31
0.0
 11
-37.0234937282
 21
146.0071037036
 31
0.0
 11
-37.0280275849
 21
145.8798586332
 31
0.0
 11
-37.0317273955
 21
145.7344892703
 31
0.0
 11
-37.0344830607
 21
145.5753214885
 31
0.0
 11
-37.0362125768
 21
145.4070917724
 31
0.0
  0
SPLINE
  5
47C
100
AcDbEntity
  8
RACCORDO
100
AcDbSpline
 62
253
  6
CONTINUOUS
 70
0
 71
3
 72
18
 73
14
 74
12
 42
0.0000001
 43
0.0000001
 44
0.0000000001
 12
0.6077965903
 22
0.6112079913
 32
0.0
 13
0.8619251255
 23
0.0087739274
 33
0.0
 40
0.0
 40
0.0
 40
0.0
 40
0.0
 40
0.0108578142
 40
0.0296179789
 40
0.0565200661
 40
0.0914701916
 40
0.1342711558
 40
0.1846230357
 40
0.3065080613
 40
0.4535995296
 40
0.6215870551
 40
0.805527776
 40
1.0
 40
1.0
 40
1.0
 40
1.0
 10
-39.7686300204
 20
143.4999999999
 30
0.0
 10
-39.7664302396
 20
143.5022121275
 30
0.0
 10
-39.7582390727
 20
143.5055671489
 30
0.0
 10
-39.7427411062
 20
143.5097903594
 30
0.0
 10
-39.7198529665
 20
143.5139847101
 30
0.0
 10
-39.6901130872
 20
143.5181924684
 30
0.0
 10
-39.6535172996
 20
143.5222903619
 30
0.0
 10
-39.5919943192
 20
143.5279415972
 30
0.0
 10
-39.5004427738
 20
143.534196157
 30
0.0
 10
-39.3750461886
 20
143.5404441348
 30
0.0
 10
-39.2317532128
 20
143.5455712246
 30
0.0
 10
-39.0748043709
 20
143.5494176337
 30
0.0
 10
-38.9660872532
 20
143.5510126224
 30
0.0
 10
-38.9102137545
 20
143.5515813841
 30
0.0
 11
-39.7686300204
 21
143.4999999999
 31
0.0
 11
-39.7604339365
 21
143.5045185291
 31
0.0
 11
-39.7448986857
 21
143.5090071105
 31
0.0
 11
-39.7221351398
 21
143.5134276064
 31
0.0
 11
-39.6923205511
 21
143.5177477086
 31
0.0
 11
-39.6556659844
 21
143.5219365458
 31
0.0
 11
-39.6124513747
 21
143.5259631639
 31
0.0
 11
-39.5076544448
 21
143.5334103845
 31
0.0
 11
-39.3810306527
 21
143.5398690098
 31
0.0
 11
-39.2363267398
 21
143.5451479313
 31
0.0
 11
-39.0778244339
 21
143.5490909471
 31
0.0
 11
-38.9102137545
 21
143.5515813841
 31
0.0
  0
SPLINE
  5
47D
100
AcDbEntity
  8
RACCORDO
100
AcDbSpline
 62
253
  6
CONTINUOUS
 70
0
 71
3
 72
18
 73
14
 74
12
 42
0.0000001
 43
0.0000001
 44
0.0000000001
 12
0.6077985869
 22
-0.6112087331
 32
0.0
 13
0.8619270608
 23
-0.008773803
 33
0.0
 40
0.0
 40
0.0
 40
0.0
 40
0.0
 40
0.0108578323
 40
0.0296180202
 40
0.0565201343
 40
0.0914702887
 40
0.1342712824
 40
0.1846231903
 40
0.3065082604
 40
0.4535997457
 40
0.6215872486
 40
0.8055278989
 40
1.0
 40
1.0
 40
1.0
 40
1.0
 10
-39.7686319911
 20
-143.5
 30
0.0
 10
-39.7664321994
 20
-143.502212134
 30
0.0
 10
-39.7582410032
 20
-143.5055671652
 30
0.0
 10
-39.7427429816
 20
-143.5097903877
 30
0.0
 10
-39.7198547681
 20
-143.5139847491
 30
0.0
 10
-39.6901147971
 20
-143.5181925167
 30
0.0
 10
-39.6535189023
 20
-143.5222904178
 30
0.0
 10
-39.591995754
 20
-143.5279416611
 30
0.0
 10
-39.5004439768
 20
-143.5341962251
 30
0.0
 10
-39.3750470982
 20
-143.5404442003
 30
0.0
 10
-39.231753822
 20
-143.5455712799
 30
0.0
 10
-39.0748046895
 20
-143.5494176718
 30
0.0
 10
-38.9660873832
 20
-143.5510126455
 30
0.0
 10
-38.9102137944
 20
-143.5515813988
 30
0.0
 11
-39.7686319911
 21
-143.5
 31
0.0
 11
-39.760435873
 21
-143.504518543
 31
0.0
 11
-39.7449005673
 21
-143.509007137
 31
0.0
 11
-39.722136947
 21
-143.5134276442
 31
0.0
 11
-39.6923222662
 21
-143.5177477561
 31
0.0
 11
-39.6556675916
 21
-143.5219366011
 31
0.0
 11
-39.6124528603
 21
-143.5259632253
 31
0.0
 11
-39.5076556561
 21
-143.533410452
 31
0.0
 11
-39.3810315644
 21
-143.5398690752
 31
0.0
 11
-39.2363273456
 21
-143.5451479867
 31
0.0
 11
-39.0778247443
 21
-143.5490909852
 31
0.0
 11
-38.9102137944
 21
-143.5515813988
 31
0.0
  0
SPLINE
  5
47E
100
AcDbEntity
  8
RACCORDO
100
AcDbSpline
 62
253
  6
CONTINUOUS
 70
0
 71
3
 72
18
 73
14
 74
12
 42
0.0000001
 43
0.0000001
 44
0.0000000001
 12
-0.4978803819
 22
0.7062545437
 32
0.0
 13
-0.0060432733
 23
0.8640855478
 33
0.0
 40
0.0
 40
0.0
 40
0.0
 40
0.0
 40
0.0102133783
 40
0.0286484168
 40
0.0553727399
 40
0.090235794
 40
0.1330144865
 40
0.1833936408
 40
0.3054431963
 40
0.4527924526
 40
0.6210773355
 40
0.8053037809
 40
1.0
 40
1.0
 40
1.0
 40
1.0
 10
-36.9999999999
 20
-146.2694258893
 30
0.0
 10
-37.0016950135
 20
-146.2670214743
 30
0.0
 10
-37.0038850883
 20
-146.2588135269
 30
0.0
 10
-37.0069356196
 20
-146.2433096248
 30
0.0
 10
-37.0098286143
 20
-146.2203563741
 30
0.0
 10
-37.0128052173
 20
-146.1904730637
 30
0.0
 10
-37.0156783389
 20
-146.1536967999
 30
0.0
 10
-37.0196547734
 20
-146.0918410758
 30
0.0
 10
-37.0240463972
 20
-145.999829778
 30
0.0
 10
-37.0284322085
 20
-145.8738371304
 30
0.0
 10
-37.0320246564
 20
-145.7299018077
 30
0.0
 10
-37.0347125345
 20
-145.5723083712
 30
0.0
 10
-37.0358203659
 20
-145.4631697977
 30
0.0
 10
-37.0362125668
 20
-145.4070917346
 30
0.0
 11
-36.9999999999
 21
-146.2694258893
 31
0.0
 11
-37.0031788106
 21
-146.2611928035
 31
0.0
 11
-37.0063364323
 21
-146.2455790522
 31
0.0
 11
-37.0094458826
 21
-146.2226966891
 31
0.0
 11
-37.0124843067
 21
-146.1927249093
 31
0.0
 11
-37.0154298679
 21
-146.1558770998
 31
0.0
 11
-37.0182606764
 21
-146.1124362728
 31
0.0
 11
-37.0234936498
 21
-146.007102343
 31
0.0
 11
-37.0280275053
 21
-145.8798576135
 31
0.0
 11
-37.0317273259
 21
-145.7344885969
 31
0.0
 11
-37.0344830139
 21
-145.5753211477
 31
0.0
 11
-37.0362125668
 21
-145.4070917346
 31
0.0
  0
SPLINE
  5
47F
100
AcDbEntity
  8
RACCORDO
100
AcDbSpline
 62
253
  6
CONTINUOUS
 70
0
 71
3
 72
18
 73
14
 74
12
 42
0.0000001
 43
0.0000001
 44
0.0000000001
 12
0.4978811289
 22
0.7062567104
 32
0.0
 13
0.0060430353
 23
0.8640877509
 33
0.0
 40
0.0
 40
0.0
 40
0.0
 40
0.0
 40
0.0102134015
 40
0.0286484687
 40
0.0553728242
 40
0.0902359132
 40
0.1330146408
 40
0.1833938284
 40
0.3054434362
 40
0.4527927114
 40
0.621077566
 40
0.8053039266
 40
1.0
 40
1.0
 40
1.0
 40
1.0
 10
37.0
 20
-146.2694281234
 30
0.0
 10
37.00169502
 20
-146.2670236956
 30
0.0
 10
37.003885106
 20
-146.258815714
 30
0.0
 10
37.0069356502
 20
-146.2433117481
 30
0.0
 10
37.0098286576
 20
-146.220358412
 30
0.0
 10
37.0128052723
 20
-146.1904749962
 30
0.0
 10
37.0156784043
 20
-146.1536986091
 30
0.0
 10
37.0196548509
 20
-146.0918426926
 30
0.0
 10
37.0240464835
 20
-145.9998311302
 30
0.0
 10
37.0284322955
 20
-145.8738381489
 30
0.0
 10
37.0320247323
 20
-145.7299024862
 30
0.0
 10
37.034712586
 20
-145.5723087222
 30
0.0
 10
37.0358203918
 20
-145.4631699367
 30
0.0
 10
37.0362125769
 20
-145.4070917727
 30
0.0
 11
37.0
 21
-146.2694281234
 31
0.0
 11
37.0031788252
 21
-146.2611949976
 31
0.0
 11
37.0063364609
 21
-146.2455811826
 31
0.0
 11
37.0094459245
 21
-146.2226987335
 31
0.0
 11
37.0124843606
 21
-146.1927268476
 31
0.0
 11
37.0154299325
 21
-146.155878914
 31
0.0
 11
37.0182607499
 21
-146.1124379475
 31
0.0
 11
37.0234937346
 21
-146.0071037042
 31
0.0
 11
37.0280275912
 21
-145.8798586338
 31
0.0
 11
37.0317274009
 21
-145.7344892708
 31
0.0
 11
37.034483064
 21
-145.5753214889
 31
0.0
 11
37.0362125769
 21
-145.4070917727
 31
0.0
  0
SPLINE
  5
480
100
AcDbEntity
  8
RACCORDO
100
AcDbSpline
 62
253
  6
CONTINUOUS
 70
0
 71
3
 72
11
 73
7
 74
5
 42
0.0000001
 43
0.0000001
 44
0.0000000001
 12
-0.0000072449
 22
-2.4049274147
 32
0.0
 13
2.2606908791
 23
-0.8203368939
 33
0.0
 40
0.0
 40
0.0
 40
0.0
 40
0.0
 40
0.2499653476
 40
0.4999258849
 40
0.7499047043
 40
1.0
 40
1.0
 40
1.0
 40
1.0
 10
-24.2410615923
 20
84.2499916101
 30
0.0
 10
-24.241062196
 20
84.0496087711
 30
0.0
 10
-24.176520976
 20
83.6460076454
 30
0.0
 10
-23.8969644656
 20
83.1029511483
 30
0.0
 10
-23.4653000177
 20
82.6713791096
 30
0.0
 10
-23.1053835172
 20
82.4804799579
 30
0.0
 10
-22.9169207993
 20
82.4120924918
 30
0.0
 11
-24.2410615923
 21
84.2499916101
 31
0.0
 11
-24.1460633086
 21
83.6563967435
 31
0.0
 11
-23.8716341297
 21
83.1215563403
 31
0.0
 11
-23.4473477393
 21
82.6956460767
 31
0.0
 11
-22.9169207993
 21
82.4120924918
 31
0.0
  0
SPLINE
  5
481
100
AcDbEntity
  8
RACCORDO
100
AcDbSpline
 62
253
  6
CONTINUOUS
 70
0
 71
3
 72
13
 73
9
 74
7
 42
0.0000001
 43
0.0000001
 44
0.0000000001
 12
0.0613299757
 22
-22.2499385578
 32
0.0
 13
-0.0001126003
 23
-22.2500230826
 33
0.0
 40
0.0
 40
0.0
 40
0.0
 40
0.0
 40
0.1249999271
 40
0.2499999315
 40
0.3749999392
 40
0.4999999501
 40
0.7499999747
 40
1.0
 40
1.0
 40
1.0
 40
1.0
 10
-24.2478154976
 20
128.7499996203
 30
0.0
 10
-24.2452600834
 20
127.8229193876
 30
0.0
 10
-24.2444561079
 20
125.9687490843
 30
0.0
 10
-24.2430010174
 20
123.1874979882
 30
0.0
 10
-24.2419800231
 20
120.4062448501
 30
0.0
 10
-24.2411856181
 20
116.6979075087
 30
0.0
 10
-24.24091849
 20
112.0624855274
 30
0.0
 10
-24.2410522251
 20
108.3541479915
 30
0.0
 10
-24.2410616084
 20
106.4999792135
 30
0.0
 11
-24.2478154976
 21
128.7499996203
 31
0.0
 11
-24.244414587
 21
125.968750436
 31
0.0
 11
-24.2430733668
 21
123.1874977757
 31
0.0
 11
-24.2420508882
 21
120.4062449069
 31
0.0
 11
-24.2414326112
 21
117.6249918494
 31
0.0
 11
-24.2410053494
 21
112.0624855475
 31
0.0
 11
-24.2410616084
 21
106.4999792135
 31
0.0
  0
SPLINE
  5
482
100
AcDbEntity
  8
RACCORDO
100
AcDbSpline
 62
253
  6
CONTINUOUS
 70
0
 71
3
 72
17
 73
13
 74
11
 42
0.0000001
 43
0.0000001
 44
0.0000000001
 12
-3.1292923396
 22
0.0135731865
 32
0.0
 13
0.0165293118
 23
-3.1292781212
 33
0.0
 40
0.0
 40
0.0
 40
0.0
 40
0.0
 40
0.1249433173
 40
0.2499116134
 40
0.3124681973
 40
0.3750220623
 40
0.4999916672
 40
0.6249687981
 40
0.7499455318
 40
0.8124988167
 40
0.8750524851
 40
1.0
 40
1.0
 40
1.0
 40
1.0
 10
-22.2499998976
 20
130.7456995723
 30
0.0
 10
-22.3803279528
 20
130.7462648652
 30
0.0
 10
-22.6418107176
 20
130.7199848371
 30
0.0
 10
-22.9552824304
 20
130.623430376
 30
0.0
 10
-23.1915167179
 20
130.5119046321
 30
0.0
 10
-23.4151106602
 20
130.3767623978
 30
0.0
 10
-23.6677144618
 20
130.1672114122
 30
0.0
 10
-23.9173395411
 20
129.8632137593
 30
0.0
 10
-24.0736405312
 20
129.5747369922
 30
0.0
 10
-24.1644363687
 20
129.3297690185
 30
0.0
 10
-24.2293010884
 20
129.0767744299
 30
0.0
 10
-24.2485039288
 20
128.8803314618
 30
0.0
 10
-24.2478154966
 20
128.7499996203
 30
0.0
 11
-22.2499998976
 21
130.7456995723
 31
0.0
 11
-22.6390929851
 21
130.707253987
 31
0.0
 11
-23.013016708
 21
130.5927390367
 31
0.0
 11
-23.1899381299
 21
130.5089496403
 31
0.0
 11
-23.3575159048
 21
130.40777548
 31
0.0
 11
-23.6588028215
 21
130.1584523534
 31
0.0
 11
-23.9069884938
 21
129.8561972941
 31
0.0
 11
-24.0934436481
 21
129.5124128384
 31
0.0
 11
-24.1611941197
 21
129.3287618539
 31
0.0
 11
-24.2098397982
 21
129.1391520481
 31
0.0
 11
-24.2478154966
 21
128.7499996203
 31
0.0
  0
SPLINE
  5
483
100
AcDbEntity
  8
RACCORDO
100
AcDbSpline
 62
253
  6
CONTINUOUS
 70
0
 71
3
 72
10
 73
6
 74
4
 42
0.0000001
 43
0.0000001
 44
0.0000000001
 12
-10.5001409645
 22
-0.0003565917
 32
0.0
 13
-10.5001138533
 23
0.023863546
 33
0.0
 40
0.0
 40
0.0
 40
0.0
 40
0.0
 40
0.5000000698
 40
0.7500000846
 40
1.0
 40
1.0
 40
1.0
 40
1.0
 10
-11.7498610955
 20
130.7413437619
 30
0.0
 10
-13.499884834
 20
130.74128433
 30
0.0
 10
-16.1249206383
 20
130.7409102962
 30
0.0
 10
-19.6249669217
 20
130.7423362217
 30
0.0
 10
-21.374990706
 20
130.7437109443
 30
0.0
 10
-22.2499998976
 20
130.7456995725
 30
0.0
 11
-11.7498610955
 21
130.7413437619
 31
0.0
 11
-16.9999323133
 21
130.7414271641
 31
0.0
 11
-19.6249674915
 21
130.7425016619
 31
0.0
 11
-22.2499998976
 21
130.7456995725
 31
0.0
  0
SPLINE
  5
484
100
AcDbEntity
  8
RACCORDO
100
AcDbSpline
 62
253
  6
CONTINUOUS
 70
0
 71
3
 72
10
 73
6
 74
4
 42
0.0000001
 43
0.0000001
 44
0.0000000001
 12
-10.5001139496
 22
-0.0238353246
 32
0.0
 13
-10.5001409967
 23
0.0003558082
 33
0.0
 40
0.0
 40
0.0
 40
0.0
 40
0.0
 40
0.2499999154
 40
0.4999999302
 40
1.0
 40
1.0
 40
1.0
 40
1.0
 10
22.2499999297
 20
130.7456995725
 30
0.0
 10
21.3749907299
 20
130.7437132962
 30
0.0
 10
19.6249669479
 20
130.7423351081
 30
0.0
 10
16.1249206498
 20
130.7409108846
 30
0.0
 10
13.4998848392
 20
130.7412844605
 30
0.0
 10
11.7498610955
 20
130.7413437619
 30
0.0
 11
22.2499999297
 21
130.7456995725
 31
0.0
 11
19.624967515
 21
130.7425016274
 31
0.0
 11
16.999932329
 21
130.7414271343
 31
0.0
 11
11.7498610955
 21
130.7413437619
 31
0.0
  0
SPLINE
  5
485
100
AcDbEntity
  8
RACCORDO
100
AcDbSpline
 62
253
  6
CONTINUOUS
 70
0
 71
3
 72
17
 73
13
 74
11
 42
0.0000001
 43
0.0000001
 44
0.0000000001
 12
0.0165291279
 22
3.1292778963
 32
0.0
 13
-3.1292921162
 23
-0.0135725928
 33
0.0
 40
0.0
 40
0.0
 40
0.0
 40
0.0
 40
0.1249469825
 40
0.1875004373
 40
0.2500535046
 40
0.3750292362
 40
0.5000058877
 40
0.6249751115
 40
0.6875296168
 40
0.7500882895
 40
0.87505765
 40
1.0
 40
1.0
 40
1.0
 40
1.0
 10
24.2478154975
 20
128.7499998304
 30
0.0
 10
24.2485039191
 20
128.8803311073
 30
0.0
 10
24.2293012192
 20
129.0767732684
 30
0.0
 10
24.1644370056
 20
129.3297669305
 30
0.0
 10
24.0736418811
 20
129.5747335455
 30
0.0
 10
23.9173425502
 20
129.8632091187
 30
0.0
 10
23.6677196539
 20
130.1672059516
 30
0.0
 10
23.415117065
 20
130.3767580393
 30
0.0
 10
23.1915212869
 20
130.511901927
 30
0.0
 10
22.9552839396
 20
130.6234304701
 30
0.0
 10
22.6418097427
 20
130.7199849387
 30
0.0
 10
22.3803269666
 20
130.7462648362
 30
0.0
 10
22.2499999297
 20
130.7456995724
 30
0.0
 11
24.2478154975
 21
128.7499998304
 31
0.0
 11
24.2098400992
 21
129.1391505853
 31
0.0
 11
24.1611947586
 21
129.3287597728
 31
0.0
 11
24.0934447043
 21
129.5124101708
 31
0.0
 11
23.9069918643
 21
129.8561922821
 31
0.0
 11
23.6588081666
 21
130.158446985
 31
0.0
 11
23.3575232073
 21
130.4077705623
 31
0.0
 11
23.1899440286
 21
130.5089462469
 31
0.0
 11
23.0130169946
 21
130.5927390314
 31
0.0
 11
22.6390900079
 21
130.7072546027
 31
0.0
 11
22.2499999297
 21
130.7456995724
 31
0.0
  0
SPLINE
  5
486
100
AcDbEntity
  8
RACCORDO
100
AcDbSpline
 62
253
  6
CONTINUOUS
 70
0
 71
3
 72
13
 73
9
 74
7
 42
0.0000001
 43
0.0000001
 44
0.0000000001
 12
-0.0001126473
 22
22.2500232953
 32
0.0
 13
0.0613520654
 23
22.2499387096
 33
0.0
 40
0.0
 40
0.0
 40
0.0
 40
0.0
 40
0.2500000253
 40
0.50000005
 40
0.6250000608
 40
0.7500000685
 40
0.8750000729
 40
1.0
 40
1.0
 40
1.0
 40
1.0
 10
24.2410616084
 20
106.4999792112
 30
0.0
 10
24.2410522212
 20
108.3541480071
 30
0.0
 10
24.2409184962
 20
112.0624855785
 30
0.0
 10
24.2411856108
 20
116.6979076043
 30
0.0
 10
24.2419801224
 20
120.4062449812
 30
0.0
 10
24.2430005327
 20
123.1874981466
 30
0.0
 10
24.2444560841
 20
125.9687492678
 30
0.0
 10
24.2452591634
 20
127.8229195918
 30
0.0
 10
24.247815498
 20
128.7499998304
 30
0.0
 11
24.2410616084
 21
106.4999792112
 31
0.0
 11
24.2410053504
 21
112.0624855986
 31
0.0
 11
24.2414326404
 21
117.6249919538
 31
0.0
 11
24.2420508769
 21
120.406245038
 31
0.0
 11
24.2430730563
 21
123.1874979337
 31
0.0
 11
24.2444142623
 21
125.9687506209
 31
0.0
 11
24.247815498
 21
128.7499998304
 31
0.0
  0
SPLINE
  5
487
100
AcDbEntity
  8
RACCORDO
100
AcDbSpline
 62
253
  6
CONTINUOUS
 70
0
 71
3
 72
32
 73
28
 74
26
 42
0.0000001
 43
0.0000001
 44
0.0000000001
 12
25.2877291734
 22
0.001569417
 32
0.0
 13
25.2749981109
 23
-0.8023214467
 33
0.0
 40
0.0
 40
0.0
 40
0.0
 40
0.0
 40
0.1250025623
 40
0.2500051053
 40
0.375007626
 40
0.5000098087
 40
0.5625105517
 40
0.6250108518
 40
0.6875107928
 40
0.7500105591
 40
0.7812600844
 40
0.8125090129
 40
0.828133464
 40
0.8437580674
 40
0.8750072646
 40
0.9062563549
 40
0.9218809067
 40
0.9375054828
 40
0.9531300881
 40
0.9609424063
 40
0.9687547263
 40
0.9726608899
 40
0.9765670673
 40
0.9804732451
 40
0.9843792993
 40
0.9921904507
 40
1.0
 40
1.0
 40
1.0
 40
1.0
 10
11.75
 20
145.5969288132
 30
0.0
 10
12.8036769803
 20
145.5969942069
 30
0.0
 10
14.9110284989
 20
145.6010677672
 30
0.0
 10
18.0720529146
 20
145.6072146899
 30
0.0
 10
21.2330867783
 20
145.6046520528
 30
0.0
 10
23.8672438058
 20
145.5900623632
 30
0.0
 10
25.9744883795
 20
145.5700634148
 30
0.0
 10
27.5548776103
 20
145.552009798
 30
0.0
 10
29.1352414781
 20
145.5327395318
 30
0.0
 10
30.4522291171
 20
145.5181260353
 30
0.0
 10
31.5057196116
 20
145.5002957975
 30
0.0
 10
32.1641298632
 20
145.4882753317
 30
0.0
 10
32.6909053291
 20
145.482082217
 30
0.0
 10
33.2176678972
 20
145.4747938249
 30
0.0
 10
33.8761089206
 20
145.4647914048
 30
0.0
 10
34.5345577736
 20
145.4553571097
 30
0.0
 10
35.0613202279
 20
145.4480799952
 30
0.0
 10
35.4563946593
 20
145.4427787545
 30
0.0
 10
35.7856260818
 20
145.4385007125
 30
0.0
 10
36.0490118136
 20
145.4351693314
 30
0.0
 10
36.2136298651
 20
145.4330585442
 30
0.0
 10
36.3453224126
 20
145.431592995
 30
0.0
 10
36.4441031442
 20
145.4303425215
 30
0.0
 10
36.5427821671
 20
145.4257220091
 30
0.0
 10
36.6743304148
 20
145.4195959273
 30
0.0
 10
36.838825644
 20
145.4137219494
 30
0.0
 10
36.9704171283
 20
145.4091803611
 30
0.0
 10
37.0362125766
 20
145.4070917715
 30
0.0
 11
11.75
 21
145.5969288132
 31
0.0
 11
14.9110282293
 21
145.6010738646
 31
0.0
 11
18.0720552106
 21
145.6057630964
 31
0.0
 11
21.2330830535
 21
145.6021612077
 31
0.0
 11
24.3940543276
 21
145.5843686413
 31
0.0
 11
25.974486763
 21
145.5695542875
 31
0.0
 11
27.5548777816
 21
145.5518069713
 31
0.0
 11
29.1352478036
 21
145.5330285112
 31
0.0
 11
30.715600041
 21
145.5131567533
 31
0.0
 11
31.5057220358
 21
145.5001203672
 31
0.0
 11
32.2958277531
 21
145.487012321
 31
0.0
 11
32.6909021502
 21
145.4819453274
 31
0.0
 11
33.0859761396
 21
145.476556465
 31
0.0
 11
33.8761114752
 21
145.4649050152
 31
0.0
 11
34.6662485693
 21
145.4535603592
 31
0.0
 11
35.0613203572
 21
145.4481060985
 31
0.0
 11
35.456394867
 21
145.4428066907
 31
0.0
 11
35.8514723323
 21
145.4376754579
 31
0.0
 11
36.0490121504
 21
145.4351635973
 31
0.0
 11
36.2465527566
 21
145.432710748
 31
0.0
 11
36.3453241495
 21
145.4315677782
 31
0.0
 11
36.4440863436
 21
145.4297808406
 31
0.0
 11
36.542781459
 21
145.4257262287
 31
0.0
 11
36.6414550411
 21
145.4212460289
 31
0.0
 11
36.8388394459
 21
145.4137608212
 31
0.0
 11
37.0362125766
 21
145.4070917715
 31
0.0
  0
SPLINE
  5
488
100
AcDbEntity
  8
RACCORDO
100
AcDbSpline
 62
253
  6
CONTINUOUS
 70
0
 71
3
 72
11
 73
7
 74
5
 42
0.0000001
 43
0.0000001
 44
0.0000000001
 12
2.2606871441
 22
0.8203355575
 32
0.0
 13
-0.0000086877
 23
2.4049234479
 33
0.0
 40
0.0
 40
0.0
 40
0.0
 40
0.0
 40
0.2500996623
 40
0.5000706955
 40
0.7500274428
 40
1.0
 40
1.0
 40
1.0
 40
1.0
 10
22.9169207993
 20
82.4120924918
 30
0.0
 10
23.1053864964
 20
82.4804810405
 30
0.0
 10
23.4652997054
 20
82.671379585
 30
0.0
 10
23.8969589928
 20
83.102946141
 30
0.0
 10
24.1765173204
 20
83.6459959744
 30
0.0
 10
24.2410623074
 20
84.0495992735
 30
0.0
 10
24.2410615835
 20
84.2499875616
 30
0.0
 11
22.9169207993
 21
82.4120924918
 31
0.0
 11
23.4473554594
 21
82.6956518059
 31
0.0
 11
23.8716280915
 21
83.1215479445
 31
0.0
 11
24.1460569415
 21
83.6563771574
 31
0.0
 11
24.2410615835
 21
84.2499875616
 31
0.0
  0
SPLINE
  5
489
100
AcDbEntity
  8
RACCORDO
100
AcDbSpline
 62
253
  6
CONTINUOUS
 70
0
 71
3
 72
15
 73
11
 74
9
 42
0.0000001
 43
0.0000001
 44
0.0000000001
 12
2.8948008647
 22
-0.0920044129
 32
0.0
 13
0.1049741465
 23
-2.8943595642
 33
0.0
 40
0.0
 40
0.0
 40
0.0
 40
0.0
 40
0.1249859816
 40
0.2499963169
 40
0.3750222343
 40
0.5000523847
 40
0.6250785267
 40
0.7500911813
 40
0.8750727084
 40
1.0
 40
1.0
 40
1.0
 40
1.0
 10
37.0362125766
 20
145.4070917715
 30
0.0
 10
37.1568157525
 20
145.4032586842
 30
0.0
 10
37.3979261781
 20
145.3727006956
 30
0.0
 10
37.7442243155
 20
145.2603500141
 30
0.0
 10
38.0638345764
 20
145.0856823439
 30
0.0
 10
38.3455138861
 20
144.8548001947
 30
0.0
 10
38.5795126478
 20
144.5757192413
 30
0.0
 10
38.7576284271
 20
144.2580531365
 30
0.0
 10
38.8734148588
 20
143.9129704494
 30
0.0
 10
38.9058424137
 20
143.6721095651
 30
0.0
 10
38.9102137923
 20
143.551581398
 30
0.0
 11
37.0362125766
 21
145.4070917715
 31
0.0
 11
37.3953376676
 21
145.3616216015
 31
0.0
 11
37.7397558479
 21
145.2499723498
 31
0.0
 11
38.0575070813
 21
145.0763167322
 31
0.0
 11
38.3375712154
 21
144.8467626432
 31
0.0
 11
38.5702103435
 21
144.5692709724
 31
0.0
 11
38.7472582931
 21
144.2534413888
 31
0.0
 11
38.8622388998
 21
143.910208979
 31
0.0
 11
38.9102137923
 21
143.551581398
 31
0.0
  0
SPLINE
  5
48A
100
AcDbEntity
  8
RACCORDO
100
AcDbSpline
 62
253
  6
CONTINUOUS
 70
0
 71
3
 72
35
 73
31
 74
29
 42
0.0000001
 43
0.0000001
 44
0.0000000001
 12
1.3415039371
 22
-37.0294633029
 32
0.0
 13
-0.0002268402
 23
-37.0537553463
 33
0.0
 40
0.0
 40
0.0
 40
0.0
 40
0.0
 40
0.0078056957
 40
0.0156146592
 40
0.0195202719
 40
0.0234264166
 40
0.025379577
 40
0.0273326299
 40
0.0292857001
 40
0.0312387399
 40
0.035144851
 40
0.0390509927
 40
0.0468632654
 40
0.0546755439
 40
0.062487837
 40
0.0781124653
 40
0.0937371635
 40
0.109361945
 40
0.1249868146
 40
0.1562367885
 40
0.1874870007
 40
0.2187373628
 40
0.2499878058
 40
0.3124887645
 40
0.3749897527
 40
0.4374907527
 40
0.4999917629
 40
0.624993804
 40
0.7499958637
 40
1.0
 40
1.0
 40
1.0
 40
1.0
 10
38.9102137923
 20
143.551581398
 30
0.0
 10
38.9137042495
 20
143.4552344911
 30
0.0
 10
38.9212835294
 20
143.2625216014
 30
0.0
 10
38.9329711052
 20
143.0216977806
 30
0.0
 10
38.9448353587
 20
142.8291231602
 30
0.0
 10
38.9537814657
 20
142.7088441296
 30
0.0
 10
38.9615367321
 20
142.6126629818
 30
0.0
 10
38.9651316601
 20
142.540358803
 30
0.0
 10
38.9654795771
 20
142.4679824133
 30
0.0
 10
38.9663711336
 20
142.3714985003
 30
0.0
 10
38.9680868925
 20
142.2508951717
 30
0.0
 10
38.9713689842
 20
142.0579411985
 30
0.0
 10
38.9747172431
 20
141.8167353243
 30
0.0
 10
38.9790589071
 20
141.5272936741
 30
0.0
 10
38.9848766647
 20
141.141370736
 30
0.0
 10
38.9921019526
 20
140.6589649669
 30
0.0
 10
39.0007357327
 20
140.0800754276
 30
0.0
 10
39.0091842178
 20
139.5011801641
 30
0.0
 10
39.020017933
 20
138.7293075449
 30
0.0
 10
39.0322076183
 20
137.7644415205
 30
0.0
 10
39.0441160332
 20
136.6065649839
 30
0.0
 10
39.0532462202
 20
135.4486575648
 30
0.0
 10
39.0620954357
 20
133.904753488
 30
0.0
 10
39.0678852698
 20
131.9748477481
 30
0.0
 10
39.073743809
 20
129.6589595592
 30
0.0
 10
39.0789993456
 20
127.3430685984
 30
0.0
 10
39.0849099088
 20
124.255211266
 30
0.0
 10
39.0905320424
 20
120.3953857861
 30
0.0
 10
39.0960797829
 20
114.2196603955
 30
0.0
 10
39.0969988031
 20
109.5878640339
 30
0.0
 10
39.0969798994
 20
106.5
 30
0.0
 11
38.9102137923
 21
143.551581398
 31
0.0
 11
38.9217242199
 21
143.2625801906
 31
0.0
 11
38.9361451341
 21
142.9735883476
 31
0.0
 11
38.945140797
 21
142.8291505864
 31
0.0
 11
38.9557700138
 21
142.6848040809
 31
0.0
 11
38.9611665601
 21
142.612633633
 31
0.0
 11
38.9645904961
 21
142.5403467347
 31
0.0
 11
38.9655330381
 21
142.4679842856
 31
0.0
 11
38.9661883294
 21
142.3956197942
 31
0.0
 11
38.9681539949
 21
142.250897057
 31
0.0
 11
38.9704981704
 21
142.1061788224
 31
0.0
 11
38.9747712005
 21
141.8167363224
 31
0.0
 11
38.9790625117
 21
141.5272938772
 31
0.0
 11
38.98341909
 21
141.237851865
 31
0.0
 11
38.9920958405
 21
140.6589657311
 31
0.0
 11
39.0007048277
 21
140.0800759999
 31
0.0
 11
39.0091303249
 21
139.5011804789
 31
0.0
 11
39.0172193012
 21
138.9222768941
 31
0.0
 11
39.0317543721
 21
137.7644392369
 31
0.0
 11
39.0436529692
 21
136.6065626527
 31
0.0
 11
39.0528306631
 21
135.4486557538
 31
0.0
 11
39.0595316806
 21
134.2907288739
 31
0.0
 11
39.0677037247
 21
131.9748480581
 31
0.0
 11
39.073643308
 21
129.6589593478
 31
0.0
 11
39.0788622428
 21
127.3430684672
 31
0.0
 11
39.0833145295
 21
125.0271756076
 31
0.0
 11
39.0901010829
 21
120.3953855304
 31
0.0
 11
39.0943326492
 21
115.7635917236
 31
0.0
 11
39.0969798994
 21
106.5
 31
0.0
  0
SPLINE
  5
48B
100
AcDbEntity
  8
RACCORDO
100
AcDbSpline
 62
253
  6
CONTINUOUS
 70
0
 71
3
 72
11
 73
7
 74
5
 42
0.0000001
 43
0.0000001
 44
0.0000000001
 12
-0.0000072449
 22
-2.4049274147
 32
0.0
 13
2.2606908791
 23
-0.8203368939
 33
0.0
 40
0.0
 40
0.0
 40
0.0
 40
0.0
 40
0.2499653476
 40
0.4999258849
 40
0.7499047043
 40
1.0
 40
1.0
 40
1.0
 40
1.0
 10
-24.2410615923
 20
13.2499916101
 30
0.0
 10
-24.241062196
 20
13.0496087711
 30
0.0
 10
-24.176520976
 20
12.6460076454
 30
0.0
 10
-23.8969644656
 20
12.1029511483
 30
0.0
 10
-23.4653000177
 20
11.6713791096
 30
0.0
 10
-23.1053835172
 20
11.4804799579
 30
0.0
 10
-22.9169207993
 20
11.4120924918
 30
0.0
 11
-24.2410615923
 21
13.2499916101
 31
0.0
 11
-24.1460633086
 21
12.6563967435
 31
0.0
 11
-23.8716341297
 21
12.1215563403
 31
0.0
 11
-23.4473477393
 21
11.6956460767
 31
0.0
 11
-22.9169207993
 21
11.4120924918
 31
0.0
  0
SPLINE
  5
48C
100
AcDbEntity
  8
RACCORDO
100
AcDbSpline
 62
253
  6
CONTINUOUS
 70
0
 71
3
 72
15
 73
11
 74
9
 42
0.0000001
 43
0.0000001
 44
0.0000000001
 12
-0.0002339668
 22
22.2274909392
 32
0.0
 13
-0.030102031
 23
22.2274705573
 33
0.0
 40
0.0
 40
0.0
 40
0.0
 40
0.0
 40
0.2500002329
 40
0.5000004566
 40
0.6250005546
 40
0.7500006203
 40
0.8125006411
 40
0.875000662
 40
0.93750062
 40
1.0
 40
1.0
 40
1.0
 40
1.0
 10
25.8437574089
 20
106.4999999997
 30
0.0
 10
25.8437379116
 20
108.3522926367
 30
0.0
 10
25.8442807779
 20
112.0568778223
 30
0.0
 10
25.8424053231
 20
116.6876092888
 30
0.0
 10
25.8384444631
 20
120.3921920571
 30
0.0
 10
25.8344263779
 20
122.7075537497
 30
0.0
 10
25.8300890522
 20
124.5598405748
 30
0.0
 10
25.8255483984
 20
125.9490513668
 30
0.0
 10
25.8219830021
 20
127.3382605878
 30
0.0
 10
25.8209440283
 20
128.2644007203
 30
0.0
 10
25.8203169089
 20
128.7274684296
 30
0.0
 11
25.8437574089
 21
106.4999999997
 31
0.0
 11
25.8437699703
 21
112.0568779111
 31
0.0
 11
25.8412100665
 21
117.613755029
 31
0.0
 11
25.8381359531
 21
120.3921918742
 31
0.0
 11
25.8332484747
 21
123.1706254034
 31
0.0
 11
25.829874442
 21
124.5598399533
 31
0.0
 11
25.8257109379
 21
125.9490523621
 31
0.0
 11
25.8223174824
 21
127.3382654683
 31
0.0
 11
25.8203169089
 21
128.7274684296
 31
0.0
  0
SPLINE
  5
48D
100
AcDbEntity
  8
RACCORDO
100
AcDbSpline
 62
253
  6
CONTINUOUS
 70
0
 71
3
 72
11
 73
7
 74
5
 42
0.0000001
 43
0.0000001
 44
0.0000000001
 12
-2.2606871683
 22
-0.8203356589
 32
0.0
 13
0.0000086312
 23
-2.4049235053
 33
0.0
 40
0.0
 40
0.0
 40
0.0
 40
0.0
 40
0.2500996573
 40
0.5000706898
 40
0.7500274391
 40
1.0
 40
1.0
 40
1.0
 40
1.0
 10
-22.9169207993
 20
59.5879075082
 30
0.0
 10
-23.1053864946
 20
59.5195189524
 30
0.0
 10
-23.4652997103
 20
59.3286204124
 30
0.0
 10
-23.8969590035
 20
58.8970538452
 30
0.0
 10
-24.1765173397
 20
58.3540039915
 30
0.0
 10
-24.2410623028
 20
57.9504006757
 30
0.0
 10
-24.2410615836
 20
57.7500123799
 30
0.0
 11
-22.9169207993
 21
59.5879075082
 31
0.0
 11
-23.4473554603
 21
59.304348191
 31
0.0
 11
-23.8716281007
 21
58.8784520428
 31
0.0
 11
-24.1460569527
 21
58.3436228094
 31
0.0
 11
-24.2410615836
 21
57.7500123799
 31
0.0
  0
SPLINE
  5
48E
100
AcDbEntity
  8
RACCORDO
100
AcDbSpline
 62
253
  6
CONTINUOUS
 70
0
 71
3
 72
34
 73
30
 74
28
 42
0.0000001
 43
0.0000001
 44
0.0000000001
 12
-0.007631282
 22
5.6496378226
 32
0.0
 13
-5.6494666018
 23
0.0446416525
 33
0.0
 40
0.0
 40
0.0
 40
0.0
 40
0.0
 40
0.0624925593
 40
0.1249823358
 40
0.1562365037
 40
0.1874889616
 40
0.2031158237
 40
0.2187420315
 40
0.2343684491
 40
0.2499956954
 40
0.2656235414
 40
0.2812511162
 40
0.3125047021
 40
0.343759205
 40
0.3750144993
 40
0.4375035314
 40
0.4999926063
 40
0.5624807788
 40
0.5937350143
 40
0.6249889101
 40
0.6562439316
 40
0.6874998523
 40
0.7499898547
 40
0.7812458369
 40
0.8125014822
 40
0.8437569181
 40
0.8750121153
 40
0.9375090727
 40
1.0
 40
1.0
 40
1.0
 40
1.0
 10
25.8203169089
 20
128.7274684296
 30
0.0
 10
25.8201579428
 20
128.8451552052
 30
0.0
 10
25.8081133439
 20
129.080667698
 30
0.0
 10
25.7633022226
 20
129.3720197729
 30
0.0
 10
25.709382716
 20
129.6012409475
 30
0.0
 10
25.6685909708
 20
129.7426956201
 30
0.0
 10
25.6310407704
 20
129.8542802038
 30
0.0
 10
25.5998962279
 20
129.936899924
 30
0.0
 10
25.5676346502
 20
130.0190805706
 30
0.0
 10
25.5371109488
 20
130.1019266542
 30
0.0
 10
25.5058073067
 20
130.1844873752
 30
0.0
 10
25.4609199442
 20
130.2933278975
 30
0.0
 10
25.3992059092
 20
130.4269916316
 30
0.0
 10
25.3166260937
 20
130.5831683825
 30
0.0
 10
25.1953621071
 20
130.785042198
 30
0.0
 10
25.0234918325
 20
131.0246248073
 30
0.0
 10
24.7874712238
 20
131.2880463989
 30
0.0
 10
24.5685959237
 20
131.4855324852
 30
0.0
 10
24.3821308195
 20
131.629345994
 30
0.0
 10
24.2366959633
 20
131.729636374
 30
0.0
 10
24.0864408537
 20
131.8225124064
 30
0.0
 10
23.8808500858
 20
131.9373267018
 30
0.0
 10
23.6661870045
 20
132.0352011063
 30
0.0
 10
23.4452686016
 20
132.1166904249
 30
0.0
 10
23.2767315402
 20
132.1696307804
 30
0.0
 10
23.1058068747
 20
132.2143000841
 30
0.0
 10
22.8753450849
 20
132.2624789341
 30
0.0
 10
22.5847099749
 20
132.3105889489
 30
0.0
 10
22.3491489602
 20
132.3236757902
 30
0.0
 10
22.2314688246
 20
132.3246056896
 30
0.0
 11
25.8203169089
 21
128.7274684296
 31
0.0
 11
25.8021622286
 21
129.0800620048
 31
0.0
 11
25.7483219116
 21
129.4289773825
 31
0.0
 11
25.7079644201
 21
129.6008784143
 31
0.0
 11
25.6587940807
 21
129.7704589493
 31
0.0
 11
25.6305434074
 21
129.8541031427
 31
0.0
 11
25.5997102435
 21
129.9368262648
 31
0.0
 11
25.5679250328
 21
130.0191895373
 31
0.0
 11
25.5369814797
 21
130.1018776952
 31
0.0
 11
25.5054133591
 21
130.1843330583
 31
0.0
 11
25.471767187
 21
130.2659608583
 31
0.0
 11
25.3977862757
 21
130.4262866374
 31
0.0
 11
25.315229805
 21
130.5823756803
 31
0.0
 11
25.2243082619
 21
130.7337500912
 31
0.0
 11
25.0185266158
 21
131.02061533
 31
0.0
 11
24.7830344266
 21
131.2836388087
 31
0.0
 11
24.5210560963
 21
131.520285542
 31
0.0
 11
24.3812032668
 21
131.628081705
 31
0.0
 11
24.2358948109
 21
131.7283992087
 31
0.0
 11
24.0857821017
 21
131.8213861403
 31
0.0
 11
23.931465006
 21
131.90722566
 31
0.0
 11
23.610464834
 21
132.0541967837
 31
0.0
 11
23.4447979554
 21
132.1153261309
 31
0.0
 11
23.2763329906
 21
132.1682524496
 31
0.0
 11
23.1054829061
 21
132.2128783442
 31
0.0
 11
22.9327692407
 21
132.2496306947
 31
0.0
 11
22.5839323924
 21
132.3042404069
 31
0.0
 11
22.2314688246
 21
132.3246056896
 31
0.0
  0
SPLINE
  5
48F
100
AcDbEntity
  8
RACCORDO
100
AcDbSpline
 62
253
  6
CONTINUOUS
 70
0
 71
3
 72
13
 73
9
 74
7
 42
0.0000001
 43
0.0000001
 44
0.0000000001
 12
-10.481182247
 22
0.0827352072
 32
0.0
 13
-10.481508642
 23
0.0017312275
 33
0.0
 40
0.0
 40
0.0
 40
0.0
 40
0.0
 40
0.1249991904
 40
0.2499992586
 40
0.3749992546
 40
0.4999993841
 40
0.7499996971
 40
1.0
 40
1.0
 40
1.0
 40
1.0
 10
22.2314688246
 20
132.3246056896
 30
0.0
 10
21.7947557261
 20
132.3280529676
 30
0.0
 10
20.9213099522
 20
132.3327686507
 30
0.0
 10
19.6111331831
 20
132.3376146355
 30
0.0
 10
18.3009485616
 20
132.3412513191
 30
0.0
 10
16.5540307764
 20
132.3439858646
 30
0.0
 10
14.3703803642
 20
132.3450993877
 30
0.0
 10
12.6234601117
 20
132.3448383967
 30
0.0
 10
11.75
 20
132.3449826658
 30
0.0
 11
22.2314688246
 21
132.3246056896
 31
0.0
 11
20.9213118811
 21
132.3323973793
 31
0.0
 11
19.611132169
 21
132.3374130842
 31
0.0
 11
18.3009484875
 21
132.3409870222
 31
0.0
 11
16.9907603144
 21
132.3431485839
 31
0.0
 11
14.3703803653
 21
132.3448114353
 31
0.0
 11
11.75
 21
132.3449826658
 31
0.0
  0
SPLINE
  5
490
100
AcDbEntity
  8
RACCORDO
100
AcDbSpline
 62
253
  6
CONTINUOUS
 70
0
 71
3
 72
11
 73
7
 74
5
 42
0.0000001
 43
0.0000001
 44
0.0000000001
 12
0.0000072445
 22
2.4049274167
 32
0.0
 13
-2.2606908948
 23
0.8203368564
 33
0.0
 40
0.0
 40
0.0
 40
0.0
 40
0.0
 40
0.2499653452
 40
0.4999258802
 40
0.7499046995
 40
1.0
 40
1.0
 40
1.0
 40
1.0
 10
24.2410615924
 20
57.7500083875
 30
0.0
 10
24.241062196
 20
57.9503912248
 30
0.0
 10
24.176520977
 20
58.3539923468
 30
0.0
 10
23.8969644714
 20
58.8970488426
 30
0.0
 10
23.4653000246
 20
59.3286208847
 30
0.0
 10
23.1053835222
 20
59.5195200439
 30
0.0
 10
22.9169207993
 20
59.5879075082
 30
0.0
 11
24.2410615924
 21
57.7500083875
 31
0.0
 11
24.1460633103
 21
58.3436032491
 31
0.0
 11
23.8716341365
 21
58.8784436492
 31
0.0
 11
23.4473477491
 21
59.3043539161
 31
0.0
 11
22.9169207993
 21
59.5879075082
 31
0.0
  0
SPLINE
  5
491
100
AcDbEntity
  8
RACCORDO
100
AcDbSpline
 62
253
  6
CONTINUOUS
 70
0
 71
3
 72
11
 73
7
 74
5
 42
0.0000001
 43
0.0000001
 44
0.0000000001
 12
2.2606871441
 22
0.8203355575
 32
0.0
 13
-0.0000086877
 23
2.4049234479
 33
0.0
 40
0.0
 40
0.0
 40
0.0
 40
0.0
 40
0.2500996623
 40
0.5000706955
 40
0.7500274428
 40
1.0
 40
1.0
 40
1.0
 40
1.0
 10
22.9169207993
 20
11.4120924918
 30
0.0
 10
23.1053864964
 20
11.4804810405
 30
0.0
 10
23.4652997054
 20
11.671379585
 30
0.0
 10
23.8969589928
 20
12.102946141
 30
0.0
 10
24.1765173204
 20
12.6459959744
 30
0.0
 10
24.2410623074
 20
13.0495992735
 30
0.0
 10
24.2410615835
 20
13.2499875616
 30
0.0
 11
22.9169207993
 21
11.4120924918
 31
0.0
 11
23.4473554594
 21
11.6956518059
 31
0.0
 11
23.8716280915
 21
12.1215479445
 31
0.0
 11
24.1460569415
 21
12.6563771574
 31
0.0
 11
24.2410615835
 21
13.2499875616
 31
0.0
  0
SPLINE
  5
492
100
AcDbEntity
  8
RACCORDO
100
AcDbSpline
 62
253
  6
CONTINUOUS
 70
0
 71
3
 72
11
 73
7
 74
5
 42
0.0000001
 43
0.0000001
 44
0.0000000001
 12
-0.0000072449
 22
-2.4049274147
 32
0.0
 13
2.2606908791
 23
-0.8203368939
 33
0.0
 40
0.0
 40
0.0
 40
0.0
 40
0.0
 40
0.2499653476
 40
0.4999258849
 40
0.7499047043
 40
1.0
 40
1.0
 40
1.0
 40
1.0
 10
-24.2410615923
 20
-57.7500083899
 30
0.0
 10
-24.241062196
 20
-57.9503912289
 30
0.0
 10
-24.176520976
 20
-58.3539923546
 30
0.0
 10
-23.8969644656
 20
-58.8970488517
 30
0.0
 10
-23.4653000177
 20
-59.3286208904
 30
0.0
 10
-23.1053835172
 20
-59.5195200421
 30
0.0
 10
-22.9169207993
 20
-59.5879075082
 30
0.0
 11
-24.2410615923
 21
-57.7500083899
 31
0.0
 11
-24.1460633086
 21
-58.3436032565
 31
0.0
 11
-23.8716341297
 21
-58.8784436597
 31
0.0
 11
-23.4473477393
 21
-59.3043539233
 31
0.0
 11
-22.9169207993
 21
-59.5879075082
 31
0.0
  0
SPLINE
  5
493
100
AcDbEntity
  8
RACCORDO
100
AcDbSpline
 62
253
  6
CONTINUOUS
 70
0
 71
3
 72
35
 73
31
 74
29
 42
0.0000001
 43
0.0000001
 44
0.0000000001
 12
-0.0002268391
 22
37.0537555562
 32
0.0
 13
1.3415007135
 23
37.0294636297
 33
0.0
 40
0.0
 40
0.0
 40
0.0
 40
0.0
 40
0.2500041369
 40
0.3750061969
 40
0.5000082383
 40
0.5625092486
 40
0.6250102487
 40
0.6875112371
 40
0.7500121961
 40
0.7812626392
 40
0.8125130013
 40
0.8437632137
 40
0.8750131877
 40
0.8906380574
 40
0.9062628389
 40
0.9218875371
 40
0.9375121655
 40
0.9453244586
 40
0.9531367371
 40
0.9609490098
 40
0.9648551516
 40
0.9687612626
 40
0.9707143088
 40
0.9726673589
 40
0.9746204266
 40
0.9765735822
 40
0.9804797297
 40
0.9843853423
 40
0.992194305
 40
1.0
 40
1.0
 40
1.0
 40
1.0
 10
-39.0969798994
 20
106.5
 30
0.0
 10
-39.096998803
 20
109.5878640587
 30
0.0
 10
-39.0960797758
 20
114.2196604576
 30
0.0
 10
-39.090532053
 20
120.3953858981
 30
0.0
 10
-39.0849098798
 20
124.2552114089
 30
0.0
 10
-39.0789994081
 20
127.3430687665
 30
0.0
 10
-39.0737436143
 20
129.6589597449
 30
0.0
 10
-39.0678864875
 20
131.9748479576
 30
0.0
 10
-39.0620947992
 20
133.9047537069
 30
0.0
 10
-39.0532463401
 20
135.4486578016
 30
0.0
 10
-39.0441159277
 20
136.6065652298
 30
0.0
 10
-39.0322075765
 20
137.7644417779
 30
0.0
 10
-39.020017897
 20
138.7293078115
 30
0.0
 10
-39.0091841471
 20
139.5011804371
 30
0.0
 10
-39.0007354407
 20
140.0800757018
 30
0.0
 10
-38.9921023425
 20
140.6589652557
 30
0.0
 10
-38.9848758873
 20
141.1413710115
 30
0.0
 10
-38.9790605741
 20
141.5272939878
 30
0.0
 10
-38.9747135444
 20
141.816735565
 30
0.0
 10
-38.9713790374
 20
142.0579416341
 30
0.0
 10
-38.9680689229
 20
142.2508952187
 30
0.0
 10
-38.9664032132
 20
142.3714992732
 30
0.0
 10
-38.9654351337
 20
142.4679820524
 30
0.0
 10
-38.9651747768
 20
142.5403600273
 30
0.0
 10
-38.9615095933
 20
142.6126613662
 30
0.0
 10
-38.9537891787
 20
142.7088444495
 30
0.0
 10
-38.944832843
 20
142.829123087
 30
0.0
 10
-38.9329729673
 20
143.0216978979
 30
0.0
 10
-38.9212828934
 20
143.2625216012
 30
0.0
 10
-38.9137042408
 20
143.455234498
 30
0.0
 10
-38.9102137923
 20
143.551581398
 30
0.0
 11
-39.0969798994
 21
106.5
 31
0.0
 11
-39.0943326488
 21
115.7635917982
 31
0.0
 11
-39.0901010833
 21
120.3953856423
 31
0.0
 11
-39.0833145336
 21
125.0271757568
 31
0.0
 11
-39.078862251
 21
127.3430686351
 31
0.0
 11
-39.0736433915
 21
129.6589595346
 31
0.0
 11
-39.0677043362
 21
131.9748482644
 31
0.0
 11
-39.0595314199
 21
134.2907290984
 31
0.0
 11
-39.0528306508
 21
135.4486559895
 31
0.0
 11
-39.0436529119
 21
136.6065628989
 31
0.0
 11
-39.0317543208
 21
137.764439494
 31
0.0
 11
-39.0172192532
 21
138.922277163
 31
0.0
 11
-39.0091302218
 21
139.5011807512
 31
0.0
 11
-39.0007046862
 21
140.0800762765
 31
0.0
 11
-38.9920958832
 21
140.6589660148
 31
0.0
 11
-38.9834192052
 21
141.2378521543
 31
0.0
 11
-38.9790629789
 21
141.5272941734
 31
0.0
 11
-38.9747711465
 21
141.8167366142
 31
0.0
 11
-38.9704979659
 21
142.1061791144
 31
0.0
 11
-38.9681495382
 21
142.2508972858
 31
0.0
 11
-38.9661915651
 21
142.3956201215
 31
0.0
 11
-38.9655127511
 21
142.4679846351
 31
0.0
 11
-38.9646073218
 21
142.5403468118
 31
0.0
 11
-38.9611554733
 21
142.6126329367
 31
0.0
 11
-38.955765431
 21
142.6848036874
 31
0.0
 11
-38.9451408723
 21
142.8291506448
 31
0.0
 11
-38.9361453696
 21
142.9735884122
 31
0.0
 11
-38.9217242402
 21
143.262580213
 31
0.0
 11
-38.9102137923
 21
143.551581398
 31
0.0
  0
SPLINE
  5
494
100
AcDbEntity
  8
RACCORDO
100
AcDbSpline
 62
253
  6
CONTINUOUS
 70
0
 71
3
 72
15
 73
11
 74
9
 42
0.0000001
 43
0.0000001
 44
0.0000000001
 12
0.1049741279
 22
2.8943595649
 32
0.0
 13
2.8948008644
 23
0.0920044232
 33
0.0
 40
0.0
 40
0.0
 40
0.0
 40
0.0
 40
0.1249272916
 40
0.2499088187
 40
0.3749214733
 40
0.4999476153
 40
0.6249777657
 40
0.7500036831
 40
0.8750140184
 40
1.0
 40
1.0
 40
1.0
 40
1.0
 10
-38.9102137923
 20
143.551581398
 30
0.0
 10
-38.9058424145
 20
143.6721095651
 30
0.0
 10
-38.8734148584
 20
143.9129704494
 30
0.0
 10
-38.7576284273
 20
144.2580531366
 30
0.0
 10
-38.5795126477
 20
144.5757192412
 30
0.0
 10
-38.3455138861
 20
144.8548001947
 30
0.0
 10
-38.0638345764
 20
145.085682344
 30
0.0
 10
-37.7442243154
 20
145.2603500139
 30
0.0
 10
-37.3979261781
 20
145.3727006958
 30
0.0
 10
-37.1568157524
 20
145.4032586838
 30
0.0
 10
-37.0362125766
 20
145.4070917715
 30
0.0
 11
-38.9102137923
 21
143.551581398
 31
0.0
 11
-38.8622388998
 21
143.9102089789
 31
0.0
 11
-38.7472582932
 21
144.2534413889
 31
0.0
 11
-38.5702103434
 21
144.5692709724
 31
0.0
 11
-38.3375712154
 21
144.8467626432
 31
0.0
 11
-38.0575070814
 21
145.0763167322
 31
0.0
 11
-37.7397558479
 21
145.2499723498
 31
0.0
 11
-37.3953376676
 21
145.3616216015
 31
0.0
 11
-37.0362125766
 21
145.4070917715
 31
0.0
  0
SPLINE
  5
495
100
AcDbEntity
  8
RACCORDO
100
AcDbSpline
 62
253
  6
CONTINUOUS
 70
0
 71
3
 72
11
 73
7
 74
5
 42
0.0000001
 43
0.0000001
 44
0.0000000001
 12
-2.2606871683
 22
-0.8203356589
 32
0.0
 13
0.0000086312
 23
-2.4049235053
 33
0.0
 40
0.0
 40
0.0
 40
0.0
 40
0.0
 40
0.2500996573
 40
0.5000706898
 40
0.7500274391
 40
1.0
 40
1.0
 40
1.0
 40
1.0
 10
-22.9169207993
 20
-11.4120924918
 30
0.0
 10
-23.1053864946
 20
-11.4804810476
 30
0.0
 10
-23.4652997103
 20
-11.6713795876
 30
0.0
 10
-23.8969590035
 20
-12.1029461548
 30
0.0
 10
-24.1765173397
 20
-12.6459960085
 30
0.0
 10
-24.2410623028
 20
-13.0495993243
 30
0.0
 10
-24.2410615836
 20
-13.2499876201
 30
0.0
 11
-22.9169207993
 21
-11.4120924918
 31
0.0
 11
-23.4473554603
 21
-11.695651809
 31
0.0
 11
-23.8716281007
 21
-12.1215479572
 31
0.0
 11
-24.1460569527
 21
-12.6563771906
 31
0.0
 11
-24.2410615836
 21
-13.2499876201
 31
0.0
  0
SPLINE
  5
496
100
AcDbEntity
  8
RACCORDO
100
AcDbSpline
 62
253
  6
CONTINUOUS
 70
0
 71
3
 72
32
 73
28
 74
26
 42
0.0000001
 43
0.0000001
 44
0.0000000001
 12
25.2749976684
 22
0.8023282345
 32
0.0
 13
25.2877289465
 23
-0.0015693606
 33
0.0
 40
0.0
 40
0.0
 40
0.0
 40
0.0
 40
0.00780955
 40
0.0156207015
 40
0.0195267549
 40
0.0234329221
 40
0.0273390964
 40
0.0312452598
 40
0.0390575806
 40
0.0468698989
 40
0.0624945043
 40
0.0781190807
 40
0.0937436327
 40
0.1249927234
 40
0.1562419212
 40
0.1718665245
 40
0.1874909754
 40
0.2187399053
 40
0.2499894309
 40
0.3124891981
 40
0.3749891399
 40
0.4374894408
 40
0.4999901847
 40
0.6249923691
 40
0.7499948915
 40
0.8749974361
 40
1.0
 40
1.0
 40
1.0
 40
1.0
 10
-37.0362125766
 20
145.4070917715
 30
0.0
 10
-36.9704171235
 20
145.409180379
 30
0.0
 10
-36.8388256209
 20
145.4137215599
 30
0.0
 10
-36.6743304232
 20
145.4195965894
 30
0.0
 10
-36.5427826832
 20
145.4257330318
 30
0.0
 10
-36.4441026306
 20
145.4303237731
 30
0.0
 10
-36.3453225205
 20
145.4315927898
 30
0.0
 10
-36.2136298591
 20
145.433054702
 30
0.0
 10
-36.049011922
 20
145.4351714674
 30
0.0
 10
-35.7856261231
 20
145.4384994326
 30
0.0
 10
-35.4563947302
 20
145.4427792365
 30
0.0
 10
-35.0613202863
 20
145.4480798454
 30
0.0
 10
-34.5345578322
 20
145.4553570864
 30
0.0
 10
-33.8761089812
 20
145.4647918898
 30
0.0
 10
-33.2176679335
 20
145.4747925346
 30
0.0
 10
-32.6909054253
 20
145.4820853897
 30
0.0
 10
-32.1641295871
 20
145.4882506024
 30
0.0
 10
-31.5057198469
 20
145.5003050797
 30
0.0
 10
-30.4522291132
 20
145.5181205416
 30
0.0
 10
-29.1352415812
 20
145.5327413911
 30
0.0
 10
-27.5548776704
 20
145.5520092984
 30
0.0
 10
-25.9744884424
 20
145.5700635496
 30
0.0
 10
-23.8672438562
 20
145.5900622861
 30
0.0
 10
-21.2330868186
 20
145.6046520779
 30
0.0
 10
-18.0720529403
 20
145.6072146907
 30
0.0
 10
-14.9110285115
 20
145.6010677597
 30
0.0
 10
-12.8036769843
 20
145.5969942046
 30
0.0
 10
-11.75
 20
145.5969288132
 30
0.0
 11
-37.0362125766
 21
145.4070917715
 31
0.0
 11
-36.838839427
 21
145.413760744
 31
0.0
 11
-36.6414551772
 21
145.4212500758
 31
0.0
 11
-36.5427816492
 21
145.4257309987
 31
0.0
 11
-36.4440861679
 21
145.4297701431
 31
0.0
 11
-36.3453241825
 21
145.4315640273
 31
0.0
 11
-36.2465528118
 21
145.4327085164
 31
0.0
 11
-36.0490122214
 21
145.4351641108
 31
0.0
 11
-35.8514723964
 21
145.4376754341
 31
0.0
 11
-35.4563949298
 21
145.442806715
 31
0.0
 11
-35.0613204177
 21
145.4481060698
 31
0.0
 11
-34.6662486282
 21
145.4535603276
 31
0.0
 11
-33.8761115315
 21
145.4649050435
 31
0.0
 11
-33.085976193
 21
145.4765567808
 31
0.0
 11
-32.6909021911
 21
145.4819444544
 31
0.0
 11
-32.2958276465
 21
145.4869991596
 31
0.0
 11
-31.5057221309
 21
145.5001210002
 31
0.0
 11
-30.7156001217
 21
145.5131566751
 31
0.0
 11
-29.135247878
 21
145.5330285068
 31
0.0
 11
-27.5548778493
 21
145.5518069706
 31
0.0
 11
-25.9744868239
 21
145.56955429
 31
0.0
 11
-24.3940543816
 21
145.5843686416
 31
0.0
 11
-21.2330830934
 21
145.6021612084
 31
0.0
 11
-18.0720552362
 21
145.6057630998
 31
0.0
 11
-14.9110282414
 21
145.6010738598
 31
0.0
 11
-11.75
 21
145.5969288132
 31
0.0
  0
SPLINE
  5
497
100
AcDbEntity
  8
RACCORDO
100
AcDbSpline
 62
253
  6
CONTINUOUS
 70
0
 71
3
 72
11
 73
7
 74
5
 42
0.0000001
 43
0.0000001
 44
0.0000000001
 12
0.0000072445
 22
2.4049274167
 32
0.0
 13
-2.2606908948
 23
0.8203368564
 33
0.0
 40
0.0
 40
0.0
 40
0.0
 40
0.0
 40
0.2499653452
 40
0.4999258802
 40
0.7499046995
 40
1.0
 40
1.0
 40
1.0
 40
1.0
 10
24.2410615924
 20
-13.2499916125
 30
0.0
 10
24.241062196
 20
-13.0496087752
 30
0.0
 10
24.176520977
 20
-12.6460076532
 30
0.0
 10
23.8969644714
 20
-12.1029511574
 30
0.0
 10
23.4653000246
 20
-11.6713791153
 30
0.0
 10
23.1053835222
 20
-11.4804799561
 30
0.0
 10
22.9169207993
 20
-11.4120924918
 30
0.0
 11
24.2410615924
 21
-13.2499916125
 31
0.0
 11
24.1460633103
 21
-12.6563967509
 31
0.0
 11
23.8716341365
 21
-12.1215563508
 31
0.0
 11
23.4473477491
 21
-11.6956460839
 31
0.0
 11
22.9169207993
 21
-11.4120924918
 31
0.0
  0
SPLINE
  5
498
100
AcDbEntity
  8
RACCORDO
100
AcDbSpline
 62
253
  6
CONTINUOUS
 70
0
 71
3
 72
11
 73
7
 74
5
 42
0.0000001
 43
0.0000001
 44
0.0000000001
 12
2.2606871441
 22
0.8203355575
 32
0.0
 13
-0.0000086877
 23
2.4049234479
 33
0.0
 40
0.0
 40
0.0
 40
0.0
 40
0.0
 40
0.2500996623
 40
0.5000706955
 40
0.7500274428
 40
1.0
 40
1.0
 40
1.0
 40
1.0
 10
22.9169207993
 20
-59.5879075082
 30
0.0
 10
23.1053864964
 20
-59.5195189595
 30
0.0
 10
23.4652997054
 20
-59.328620415
 30
0.0
 10
23.8969589928
 20
-58.897053859
 30
0.0
 10
24.1765173204
 20
-58.3540040256
 30
0.0
 10
24.2410623074
 20
-57.9504007265
 30
0.0
 10
24.2410615835
 20
-57.7500124384
 30
0.0
 11
22.9169207993
 21
-59.5879075082
 31
0.0
 11
23.4473554594
 21
-59.3043481941
 31
0.0
 11
23.8716280915
 21
-58.8784520555
 31
0.0
 11
24.1460569415
 21
-58.3436228426
 31
0.0
 11
24.2410615835
 21
-57.7500124384
 31
0.0
  0
SPLINE
  5
499
100
AcDbEntity
  8
RACCORDO
100
AcDbSpline
 62
253
  6
CONTINUOUS
 70
0
 71
3
 72
17
 73
13
 74
11
 42
0.0000001
 43
0.0000001
 44
0.0000000001
 12
-0.0165291279
 22
-3.1292778963
 32
0.0
 13
3.1292921162
 23
0.0135725928
 33
0.0
 40
0.0
 40
0.0
 40
0.0
 40
0.0
 40
0.1249469825
 40
0.1875004373
 40
0.2500535046
 40
0.3750292362
 40
0.5000058877
 40
0.6249751115
 40
0.6875296168
 40
0.7500882895
 40
0.87505765
 40
1.0
 40
1.0
 40
1.0
 40
1.0
 10
-24.2478154975
 20
-128.7499998304
 30
0.0
 10
-24.2485039191
 20
-128.8803311073
 30
0.0
 10
-24.2293012192
 20
-129.0767732684
 30
0.0
 10
-24.1644370056
 20
-129.3297669305
 30
0.0
 10
-24.0736418811
 20
-129.5747335455
 30
0.0
 10
-23.9173425502
 20
-129.8632091187
 30
0.0
 10
-23.6677196539
 20
-130.1672059516
 30
0.0
 10
-23.415117065
 20
-130.3767580393
 30
0.0
 10
-23.1915212869
 20
-130.511901927
 30
0.0
 10
-22.9552839396
 20
-130.6234304701
 30
0.0
 10
-22.6418097427
 20
-130.7199849387
 30
0.0
 10
-22.3803269666
 20
-130.7462648362
 30
0.0
 10
-22.2499999297
 20
-130.7456995724
 30
0.0
 11
-24.2478154975
 21
-128.7499998304
 31
0.0
 11
-24.2098400992
 21
-129.1391505853
 31
0.0
 11
-24.1611947586
 21
-129.3287597728
 31
0.0
 11
-24.0934447043
 21
-129.5124101708
 31
0.0
 11
-23.9069918643
 21
-129.8561922821
 31
0.0
 11
-23.6588081666
 21
-130.158446985
 31
0.0
 11
-23.3575232073
 21
-130.4077705623
 31
0.0
 11
-23.1899440286
 21
-130.5089462469
 31
0.0
 11
-23.0130169946
 21
-130.5927390314
 31
0.0
 11
-22.6390900079
 21
-130.7072546027
 31
0.0
 11
-22.2499999297
 21
-130.7456995724
 31
0.0
  0
SPLINE
  5
49A
100
AcDbEntity
  8
RACCORDO
100
AcDbSpline
 62
253
  6
CONTINUOUS
 70
0
 71
3
 72
13
 73
9
 74
7
 42
0.0000001
 43
0.0000001
 44
0.0000000001
 12
0.0001126473
 22
-22.250023295
 32
0.0
 13
-0.0613520654
 23
-22.2499387092
 33
0.0
 40
0.0
 40
0.0
 40
0.0
 40
0.0
 40
0.2500000253
 40
0.50000005
 40
0.6250000608
 40
0.7500000685
 40
0.8750000729
 40
1.0
 40
1.0
 40
1.0
 40
1.0
 10
-24.2410616084
 20
-106.4999792115
 30
0.0
 10
-24.2410522212
 20
-108.3541480074
 30
0.0
 10
-24.2409184962
 20
-112.0624855787
 30
0.0
 10
-24.2411856108
 20
-116.6979076045
 30
0.0
 10
-24.2419801224
 20
-120.4062449813
 30
0.0
 10
-24.2430005327
 20
-123.1874981466
 30
0.0
 10
-24.2444560841
 20
-125.9687492679
 30
0.0
 10
-24.2452591634
 20
-127.8229195918
 30
0.0
 10
-24.247815498
 20
-128.7499998304
 30
0.0
 11
-24.2410616084
 21
-106.4999792115
 31
0.0
 11
-24.2410053504
 21
-112.0624855989
 31
0.0
 11
-24.2414326404
 21
-117.624991954
 31
0.0
 11
-24.2420508769
 21
-120.4062450381
 31
0.0
 11
-24.2430730563
 21
-123.1874979338
 31
0.0
 11
-24.2444142623
 21
-125.9687506209
 31
0.0
 11
-24.247815498
 21
-128.7499998304
 31
0.0
  0
SPLINE
  5
49B
100
AcDbEntity
  8
RACCORDO
100
AcDbSpline
 62
253
  6
CONTINUOUS
 70
0
 71
3
 72
11
 73
7
 74
5
 42
0.0000001
 43
0.0000001
 44
0.0000000001
 12
-2.2606871683
 22
-0.8203356589
 32
0.0
 13
0.0000086312
 23
-2.4049235053
 33
0.0
 40
0.0
 40
0.0
 40
0.0
 40
0.0
 40
0.2500996573
 40
0.5000706898
 40
0.7500274391
 40
1.0
 40
1.0
 40
1.0
 40
1.0
 10
-22.9169207993
 20
-82.4120924918
 30
0.0
 10
-23.1053864946
 20
-82.4804810476
 30
0.0
 10
-23.4652997103
 20
-82.6713795876
 30
0.0
 10
-23.8969590035
 20
-83.1029461548
 30
0.0
 10
-24.1765173397
 20
-83.6459960085
 30
0.0
 10
-24.2410623028
 20
-84.0495993243
 30
0.0
 10
-24.2410615836
 20
-84.2499876201
 30
0.0
 11
-22.9169207993
 21
-82.4120924918
 31
0.0
 11
-23.4473554603
 21
-82.695651809
 31
0.0
 11
-23.8716281007
 21
-83.1215479572
 31
0.0
 11
-24.1460569527
 21
-83.6563771906
 31
0.0
 11
-24.2410615836
 21
-84.2499876201
 31
0.0
  0
SPLINE
  5
49C
100
AcDbEntity
  8
RACCORDO
100
AcDbSpline
 62
253
  6
CONTINUOUS
 70
0
 71
3
 72
11
 73
7
 74
5
 42
0.0000001
 43
0.0000001
 44
0.0000000001
 12
0.0000072445
 22
2.4049274167
 32
0.0
 13
-2.2606908948
 23
0.8203368564
 33
0.0
 40
0.0
 40
0.0
 40
0.0
 40
0.0
 40
0.2499653452
 40
0.4999258802
 40
0.7499046995
 40
1.0
 40
1.0
 40
1.0
 40
1.0
 10
24.2410615924
 20
-84.2499916125
 30
0.0
 10
24.241062196
 20
-84.0496087752
 30
0.0
 10
24.176520977
 20
-83.6460076532
 30
0.0
 10
23.8969644714
 20
-83.1029511574
 30
0.0
 10
23.4653000246
 20
-82.6713791153
 30
0.0
 10
23.1053835222
 20
-82.4804799561
 30
0.0
 10
22.9169207993
 20
-82.4120924918
 30
0.0
 11
24.2410615924
 21
-84.2499916125
 31
0.0
 11
24.1460633103
 21
-83.6563967509
 31
0.0
 11
23.8716341365
 21
-83.1215563508
 31
0.0
 11
23.4473477491
 21
-82.6956460839
 31
0.0
 11
22.9169207993
 21
-82.4120924918
 31
0.0
  0
SPLINE
  5
49D
100
AcDbEntity
  8
RACCORDO
100
AcDbSpline
 62
253
  6
CONTINUOUS
 70
0
 71
3
 72
13
 73
9
 74
7
 42
0.0000001
 43
0.0000001
 44
0.0000000001
 12
-0.0613299757
 22
22.2499385609
 32
0.0
 13
0.0001126003
 23
22.2500230858
 33
0.0
 40
0.0
 40
0.0
 40
0.0
 40
0.0
 40
0.1249999271
 40
0.2499999315
 40
0.3749999392
 40
0.4999999501
 40
0.7499999747
 40
1.0
 40
1.0
 40
1.0
 40
1.0
 10
24.2478154976
 20
-128.7499996203
 30
0.0
 10
24.2452600834
 20
-127.8229193875
 30
0.0
 10
24.2444561079
 20
-125.9687490839
 30
0.0
 10
24.2430010174
 20
-123.1874979874
 30
0.0
 10
24.2419800231
 20
-120.4062448489
 30
0.0
 10
24.2411856181
 20
-116.697907507
 30
0.0
 10
24.24091849
 20
-112.062485525
 30
0.0
 10
24.2410522251
 20
-108.3541479886
 30
0.0
 10
24.2410616084
 20
-106.4999792103
 30
0.0
 11
24.2478154976
 21
-128.7499996203
 31
0.0
 11
24.244414587
 21
-125.9687504356
 31
0.0
 11
24.2430733668
 21
-123.1874977749
 31
0.0
 11
24.2420508882
 21
-120.4062449057
 31
0.0
 11
24.2414326112
 21
-117.6249918478
 31
0.0
 11
24.2410053494
 21
-112.0624855451
 31
0.0
 11
24.2410616084
 21
-106.4999792103
 31
0.0
  0
SPLINE
  5
49E
100
AcDbEntity
  8
RACCORDO
100
AcDbSpline
 62
253
  6
CONTINUOUS
 70
0
 71
3
 72
17
 73
13
 74
11
 42
0.0000001
 43
0.0000001
 44
0.0000000001
 12
3.1292923396
 22
-0.0135731865
 32
0.0
 13
-0.0165293118
 23
3.1292781212
 33
0.0
 40
0.0
 40
0.0
 40
0.0
 40
0.0
 40
0.1249433173
 40
0.2499116134
 40
0.3124681973
 40
0.3750220623
 40
0.4999916672
 40
0.6249687981
 40
0.7499455318
 40
0.8124988167
 40
0.8750524851
 40
1.0
 40
1.0
 40
1.0
 40
1.0
 10
22.2499998976
 20
-130.7456995723
 30
0.0
 10
22.3803279528
 20
-130.7462648652
 30
0.0
 10
22.6418107176
 20
-130.7199848371
 30
0.0
 10
22.9552824304
 20
-130.623430376
 30
0.0
 10
23.1915167179
 20
-130.5119046321
 30
0.0
 10
23.4151106602
 20
-130.3767623978
 30
0.0
 10
23.6677144618
 20
-130.1672114122
 30
0.0
 10
23.9173395411
 20
-129.8632137593
 30
0.0
 10
24.0736405312
 20
-129.5747369922
 30
0.0
 10
24.1644363687
 20
-129.3297690185
 30
0.0
 10
24.2293010884
 20
-129.0767744299
 30
0.0
 10
24.2485039288
 20
-128.8803314618
 30
0.0
 10
24.2478154966
 20
-128.7499996203
 30
0.0
 11
22.2499998976
 21
-130.7456995723
 31
0.0
 11
22.6390929851
 21
-130.707253987
 31
0.0
 11
23.013016708
 21
-130.5927390367
 31
0.0
 11
23.1899381299
 21
-130.5089496403
 31
0.0
 11
23.3575159048
 21
-130.40777548
 31
0.0
 11
23.6588028215
 21
-130.1584523534
 31
0.0
 11
23.9069884938
 21
-129.8561972941
 31
0.0
 11
24.0934436481
 21
-129.5124128384
 31
0.0
 11
24.1611941197
 21
-129.3287618539
 31
0.0
 11
24.2098397982
 21
-129.1391520481
 31
0.0
 11
24.2478154966
 21
-128.7499996203
 31
0.0
  0
SPLINE
  5
49F
100
AcDbEntity
  8
RACCORDO
100
AcDbSpline
 62
253
  6
CONTINUOUS
 70
0
 71
3
 72
10
 73
6
 74
4
 42
0.0000001
 43
0.0000001
 44
0.0000000001
 12
10.5001409645
 22
0.0003565917
 32
0.0
 13
10.5001138533
 23
-0.023863546
 33
0.0
 40
0.0
 40
0.0
 40
0.0
 40
0.0
 40
0.5000000698
 40
0.7500000846
 40
1.0
 40
1.0
 40
1.0
 40
1.0
 10
11.7498610955
 20
-130.7413437619
 30
0.0
 10
13.499884834
 20
-130.74128433
 30
0.0
 10
16.1249206382
 20
-130.7409102962
 30
0.0
 10
19.6249669217
 20
-130.7423362217
 30
0.0
 10
21.374990706
 20
-130.7437109443
 30
0.0
 10
22.2499998976
 20
-130.7456995725
 30
0.0
 11
11.7498610955
 21
-130.7413437619
 31
0.0
 11
16.9999323133
 21
-130.7414271641
 31
0.0
 11
19.6249674915
 21
-130.7425016619
 31
0.0
 11
22.2499998976
 21
-130.7456995725
 31
0.0
  0
SPLINE
  5
4A0
100
AcDbEntity
  8
RACCORDO
100
AcDbSpline
 62
253
  6
CONTINUOUS
 70
0
 71
3
 72
10
 73
6
 74
4
 42
0.0000001
 43
0.0000001
 44
0.0000000001
 12
10.5001139496
 22
0.0238353246
 32
0.0
 13
10.5001409967
 23
-0.0003558082
 33
0.0
 40
0.0
 40
0.0
 40
0.0
 40
0.0
 40
0.2499999154
 40
0.4999999302
 40
1.0
 40
1.0
 40
1.0
 40
1.0
 10
-22.2499999297
 20
-130.7456995725
 30
0.0
 10
-21.3749907299
 20
-130.7437132962
 30
0.0
 10
-19.6249669479
 20
-130.7423351081
 30
0.0
 10
-16.1249206498
 20
-130.7409108846
 30
0.0
 10
-13.4998848392
 20
-130.7412844605
 30
0.0
 10
-11.7498610955
 20
-130.7413437619
 30
0.0
 11
-22.2499999297
 21
-130.7456995725
 31
0.0
 11
-19.624967515
 21
-130.7425016274
 31
0.0
 11
-16.999932329
 21
-130.7414271343
 31
0.0
 11
-11.7498610955
 21
-130.7413437619
 31
0.0
  0
SPLINE
  5
4A1
100
AcDbEntity
  8
RACCORDO
100
AcDbSpline
 62
253
  6
CONTINUOUS
 70
0
 71
3
 72
13
 73
9
 74
7
 42
0.0000001
 43
0.0000001
 44
0.0000000001
 12
-10.4815086369
 22
-0.0017345925
 32
0.0
 13
-10.4811828987
 23
-0.0826520227
 33
0.0
 40
0.0
 40
0.0
 40
0.0
 40
0.0
 40
0.2500003031
 40
0.5000006161
 40
0.625000746
 40
0.7500007423
 40
0.8750008093
 40
1.0
 40
1.0
 40
1.0
 40
1.0
 10
-11.75
 20
132.3449826657
 30
0.0
 10
-12.623460112
 20
132.3448381161
 30
0.0
 10
-14.3703803649
 20
132.3450998779
 30
0.0
 10
-16.5540307769
 20
132.3439851353
 30
0.0
 10
-18.3009485663
 20
132.3412523557
 30
0.0
 10
-19.6111331877
 20
132.3376161789
 30
0.0
 10
-20.9213099375
 20
132.3327647328
 30
0.0
 10
-21.7947556979
 20
132.3280495016
 30
0.0
 10
-22.2314688246
 20
132.3246056896
 30
0.0
 11
-11.75
 21
132.3449826657
 31
0.0
 11
-14.3703803664
 21
132.3448114889
 31
0.0
 11
-16.9907603143
 21
132.3431485245
 31
0.0
 11
-18.3009484922
 21
132.3409879226
 31
0.0
 11
-19.611132176
 21
132.3374136328
 31
0.0
 11
-20.9213118615
 21
132.3323944846
 31
0.0
 11
-22.2314688246
 21
132.3246056896
 31
0.0
  0
SPLINE
  5
4A2
100
AcDbEntity
  8
RACCORDO
100
AcDbSpline
 62
253
  6
CONTINUOUS
 70
0
 71
3
 72
34
 73
30
 74
28
 42
0.0000001
 43
0.0000001
 44
0.0000000001
 12
-5.6494661508
 22
-0.0446402476
 32
0.0
 13
-0.0076402328
 23
-5.6496373483
 33
0.0
 40
0.0
 40
0.0
 40
0.0
 40
0.0
 40
0.0624915568
 40
0.124988905
 40
0.1562442339
 40
0.187499757
 40
0.2187550888
 40
0.2500102806
 40
0.312497514
 40
0.3437528135
 40
0.3750077303
 40
0.4062617209
 40
0.4375160779
 40
0.5000044573
 40
0.5624936044
 40
0.6249831238
 40
0.6562388259
 40
0.6874937241
 40
0.7187477066
 40
0.7343754871
 40
0.7500032849
 40
0.7656305752
 40
0.7812571025
 40
0.7968832902
 40
0.8125101973
 40
0.8437627632
 40
0.8750170723
 40
0.9375071524
 40
1.0
 40
1.0
 40
1.0
 40
1.0
 10
-22.2314688246
 20
132.3246056896
 30
0.0
 10
-22.3491501362
 20
132.3236758101
 30
0.0
 10
-22.5847129969
 20
132.3105878446
 30
0.0
 10
-22.8753502479
 20
132.2624777341
 30
0.0
 10
-23.1058130849
 20
132.2142985206
 30
0.0
 10
-23.2767377975
 20
132.1696298449
 30
0.0
 10
-23.4452723383
 20
132.116688654
 30
0.0
 10
-23.6661871259
 20
132.0352084284
 30
0.0
 10
-23.8808232221
 20
131.9372973775
 30
0.0
 10
-24.0864300666
 20
131.8225263505
 30
0.0
 10
-24.2366809235
 20
131.7296447892
 30
0.0
 10
-24.3821172459
 20
131.6293566056
 30
0.0
 10
-24.5685832833
 20
131.4855428321
 30
0.0
 10
-24.7874600177
 20
131.2880575077
 30
0.0
 10
-25.0234836377
 20
131.0246362563
 30
0.0
 10
-25.1953532868
 20
130.7850517513
 30
0.0
 10
-25.3166245776
 20
130.5831785638
 30
0.0
 10
-25.399192492
 20
130.4269948921
 30
0.0
 10
-25.4609705162
 20
130.2933568313
 30
0.0
 10
-25.5057856082
 20
130.1844852606
 30
0.0
 10
-25.537105758
 20
130.1019309173
 30
0.0
 10
-25.5676346466
 20
130.0190864941
 30
0.0
 10
-25.5998584067
 20
129.9368911419
 30
0.0
 10
-25.6310462731
 20
129.8542874229
 30
0.0
 10
-25.6685851189
 20
129.742698222
 30
0.0
 10
-25.7093834907
 20
129.6012454361
 30
0.0
 10
-25.7633013193
 20
129.3720224689
 30
0.0
 10
-25.8081135062
 20
129.0806694228
 30
0.0
 10
-25.8201577556
 20
128.8451557381
 30
0.0
 10
-25.8203169089
 20
128.7274684296
 30
0.0
 11
-22.2314688246
 21
132.3246056896
 31
0.0
 11
-22.5839358736
 21
132.3042395077
 31
0.0
 11
-22.9327748557
 21
132.2496293324
 31
0.0
 11
-23.105489243
 21
132.2128768698
 31
0.0
 11
-23.2763398224
 21
132.1682509785
 31
0.0
 11
-23.4448030697
 21
132.1153251501
 31
0.0
 11
-23.6104657317
 21
132.0541973162
 31
0.0
 11
-23.9314435363
 21
131.9072149903
 31
0.0
 11
-24.085767215
 21
131.8213945566
 31
0.0
 11
-24.2358802124
 21
131.7284092412
 31
0.0
 11
-24.3811894715
 21
131.6280919837
 31
0.0
 11
-24.5210432822
 21
131.5202959926
 31
0.0
 11
-24.7830235562
 21
131.2836497105
 31
0.0
 11
-25.0185172301
 21
131.0206270524
 31
0.0
 11
-25.2243016259
 21
130.7337604333
 31
0.0
 11
-25.3152253661
 21
130.5823846715
 31
0.0
 11
-25.3977876396
 21
130.4262961875
 31
0.0
 11
-25.4717894556
 21
130.2659776047
 31
0.0
 11
-25.5054036471
 21
130.1843353812
 31
0.0
 11
-25.5369743526
 21
130.1018813065
 31
0.0
 11
-25.5679178149
 21
130.0191928572
 31
0.0
 11
-25.5996860334
 21
129.9368223726
 31
0.0
 11
-25.6305402333
 21
129.8541072231
 31
0.0
 11
-25.6587924329
 21
129.7704632847
 31
0.0
 11
-25.7079636391
 21
129.6008823807
 31
0.0
 11
-25.7483216275
 21
129.428980661
 31
0.0
 11
-25.802162093
 21
129.0800635996
 31
0.0
 11
-25.8203169089
 21
128.7274684296
 31
0.0
  0
SPLINE
  5
4A3
100
AcDbEntity
  8
RACCORDO
100
AcDbSpline
 62
253
  6
CONTINUOUS
 70
0
 71
3
 72
15
 73
11
 74
9
 42
0.0000001
 43
0.0000001
 44
0.0000000001
 12
-0.030158351
 22
-22.2274704756
 32
0.0
 13
-0.0002337831
 23
-22.2274909339
 33
0.0
 40
0.0
 40
0.0
 40
0.0
 40
0.0
 40
0.06249938
 40
0.1249993381
 40
0.187499359
 40
0.2499993798
 40
0.3749994455
 40
0.4999995435
 40
0.7499997671
 40
1.0
 40
1.0
 40
1.0
 40
1.0
 10
-25.8203169089
 20
128.7274684296
 30
0.0
 10
-25.8209452016
 20
128.2644007219
 30
0.0
 10
-25.8219854659
 20
127.3382605907
 30
0.0
 10
-25.825550024
 20
125.9490513686
 30
0.0
 10
-25.8300842924
 20
124.559840558
 30
0.0
 10
-25.8344311545
 20
122.7075537576
 30
0.0
 10
-25.838443001
 20
120.3921920512
 30
0.0
 10
-25.8424059732
 20
116.6876092893
 30
0.0
 10
-25.8442805299
 20
112.0568778219
 30
0.0
 10
-25.8437379269
 20
108.3522926383
 30
0.0
 10
-25.8437574089
 20
106.5000000019
 30
0.0
 11
-25.8203169089
 21
128.7274684296
 31
0.0
 11
-25.8223194838
 21
127.3382654711
 31
0.0
 11
-25.825711639
 21
125.9490523601
 31
0.0
 11
-25.8298719384
 21
124.5598399424
 31
0.0
 11
-25.8332496565
 21
123.1706254026
 31
0.0
 11
-25.8381360028
 21
120.3921918716
 31
0.0
 11
-25.8412099527
 21
117.6137550273
 31
0.0
 11
-25.8437699678
 21
112.0568779114
 31
0.0
 11
-25.8437574089
 21
106.5000000019
 31
0.0
  0
SPLINE
  5
4A4
100
AcDbEntity
  8
RACCORDO
100
AcDbSpline
 62
253
  6
CONTINUOUS
 70
0
 71
3
 72
14
 73
10
 74
8
 42
0.0000001
 43
0.0000001
 44
0.0000000001
 12
-25.2499762462
 22
0.0000747005
 32
0.0
 13
-25.2499291758
 23
-0.0487550988
 33
0.0
 40
0.0
 40
0.0
 40
0.0
 40
0.0
 40
0.2500094775
 40
0.5000179882
 40
0.625018447
 40
0.7500167096
 40
0.8750105102
 40
0.9375078921
 40
1.0
 40
1.0
 40
1.0
 40
1.0
 10
-11.7500262635
 20
-146.2614222832
 30
0.0
 10
-13.8542707197
 20
-146.2614160579
 30
0.0
 10
-18.0627514343
 20
-146.2607946263
 30
0.0
 10
-23.3233185738
 20
-146.2611058039
 30
0.0
 10
-27.5317083828
 20
-146.2631110354
 30
0.0
 10
-30.6878920317
 20
-146.2647125157
 30
0.0
 10
-33.3180085185
 20
-146.2666053327
 30
0.0
 10
-35.4220316758
 20
-146.2682239347
 30
0.0
 10
-36.474026234
 20
-146.2684125205
 30
0.0
 10
-37.0
 20
-146.2694281234
 30
0.0
 11
-11.7500262635
 21
-146.2614222832
 31
0.0
 11
-18.0627596187
 21
-146.2610122198
 31
0.0
 11
-24.3754685311
 21
-146.2617534901
 31
0.0
 11
-27.5317268488
 21
-146.2631273128
 31
0.0
 11
-30.6879295535
 21
-146.2648241927
 31
0.0
 11
-33.8440192859
 21
-146.2670186872
 31
0.0
 11
-35.4220763459
 21
-146.2680687804
 31
0.0
 11
-37.0
 21
-146.2694281234
 31
0.0
  0
SPLINE
  5
4A5
100
AcDbEntity
  8
RACCORDO
100
AcDbSpline
 62
253
  6
CONTINUOUS
 70
0
 71
3
 72
14
 73
10
 74
8
 42
0.0000001
 43
0.0000001
 44
0.0000000001
 12
-25.249929176
 22
0.0487549646
 32
0.0
 13
-25.2499762462
 23
-0.0000746893
 33
0.0
 40
0.0
 40
0.0
 40
0.0
 40
0.0
 40
0.0624921084
 40
0.1249894903
 40
0.2499832908
 40
0.3749815533
 40
0.4999820121
 40
0.7499905227
 40
1.0
 40
1.0
 40
1.0
 40
1.0
 10
37.0
 20
-146.2694281234
 30
0.0
 10
36.4740262295
 20
-146.2684125232
 30
0.0
 10
35.4220316671
 20
-146.2682239328
 30
0.0
 10
33.3180085061
 20
-146.2666053351
 30
0.0
 10
30.6878920207
 20
-146.2647125177
 30
0.0
 10
27.5317083737
 20
-146.2631110349
 30
0.0
 10
23.3233185669
 20
-146.261105804
 30
0.0
 10
18.0627514304
 20
-146.2607946257
 30
0.0
 10
13.8542707182
 20
-146.2614160588
 30
0.0
 10
11.7500262635
 20
-146.2614222832
 30
0.0
 11
37.0
 21
-146.2694281234
 31
0.0
 11
35.4220763325
 21
-146.2680687803
 31
0.0
 11
33.8440192731
 21
-146.2670186881
 31
0.0
 11
30.6879295425
 21
-146.2648241943
 31
0.0
 11
27.5317268398
 21
-146.2631273128
 31
0.0
 11
24.3754685238
 21
-146.2617534899
 31
0.0
 11
18.0627596143
 21
-146.2610122197
 31
0.0
 11
11.7500262635
 21
-146.2614222832
 31
0.0
  0
SPLINE
  5
4A6
100
AcDbEntity
  8
RACCORDO
100
AcDbSpline
 62
253
  6
CONTINUOUS
 70
0
 71
3
 72
15
 73
11
 74
9
 42
0.0000001
 43
0.0000001
 44
0.0000000001
 12
-0.1019126545
 22
-36.9998592382
 32
0.0
 13
0.0000113984
 23
-36.9999995924
 33
0.0
 40
0.0
 40
0.0
 40
0.0
 40
0.0
 40
0.0624812795
 40
0.1249787586
 40
0.1874783367
 40
0.2499793988
 40
0.3749825944
 40
0.4999859561
 40
0.7499929197
 40
1.0
 40
1.0
 40
1.0
 40
1.0
 10
39.7686319911
 20
143.5
 30
0.0
 10
39.7665094468
 20
142.7294004851
 30
0.0
 10
39.766196048
 20
141.1879936137
 30
0.0
 10
39.7644192577
 20
138.8757623151
 30
0.0
 10
39.7634887839
 20
136.5632854603
 30
0.0
 10
39.7627687302
 20
133.4799050085
 30
0.0
 10
39.7624227022
 20
129.625644381
 30
0.0
 10
39.7618306531
 20
123.4588110706
 30
0.0
 10
39.7614767128
 20
115.7502631471
 30
0.0
 10
39.7614192302
 20
109.5834233428
 30
0.0
 10
39.7614201801
 20
106.5000027202
 30
0.0
 11
39.7686319911
 21
143.5
 31
0.0
 11
39.7659783792
 21
141.1881942086
 31
0.0
 11
39.7645603549
 21
138.8757879417
 31
0.0
 11
39.7635538652
 21
136.5633037937
 31
0.0
 11
39.762985683
 21
134.2507645918
 31
0.0
 11
39.762417902
 21
129.6256464433
 31
0.0
 11
39.762004407
 21
125.0005221276
 31
0.0
 11
39.7615331303
 21
115.7502645872
 31
0.0
 11
39.7614201801
 21
106.5000027202
 31
0.0
  0
SPLINE
  5
4A7
100
AcDbEntity
  8
RACCORDO
100
AcDbSpline
 62
253
  6
CONTINUOUS
 70
0
 71
3
 72
15
 73
11
 74
9
 42
0.0000001
 43
0.0000001
 44
0.0000000001
 12
-0.0000113985
 22
-36.9999995924
 32
0.0
 13
0.1019127025
 23
-36.9998592381
 33
0.0
 40
0.0
 40
0.0
 40
0.0
 40
0.0
 40
0.2500070804
 40
0.5000140441
 40
0.625017406
 40
0.7500206015
 40
0.8125216637
 40
0.875021242
 40
0.9375187211
 40
1.0
 40
1.0
 40
1.0
 40
1.0
 10
39.7614201801
 20
-106.5000027203
 30
0.0
 10
39.7614192302
 20
-109.5834233443
 30
0.0
 10
39.761476712
 20
-115.7502631517
 30
0.0
 10
39.7618306556
 20
-123.4588110791
 30
0.0
 10
39.7624226973
 20
-129.6256443926
 30
0.0
 10
39.7627687333
 20
-133.4799050226
 30
0.0
 10
39.7634887839
 20
-136.5632854769
 30
0.0
 10
39.7644192574
 20
-138.875762334
 30
0.0
 10
39.766196048
 20
-141.1879936271
 30
0.0
 10
39.7665094458
 20
-142.729400492
 30
0.0
 10
39.7686319911
 20
-143.5
 30
0.0
 11
39.7614201801
 21
-106.5000027203
 31
0.0
 11
39.7615331303
 21
-115.7502645918
 31
0.0
 11
39.7620044068
 21
-125.0005221368
 31
0.0
 11
39.7624178996
 21
-129.6256464549
 31
0.0
 11
39.7629856845
 21
-134.2507646058
 31
0.0
 11
39.7635538656
 21
-136.5633038102
 31
0.0
 11
39.7645603547
 21
-138.8757879612
 31
0.0
 11
39.7659783789
 21
-141.1881942296
 31
0.0
 11
39.7686319911
 21
-143.5
 31
0.0
  0
SPLINE
  5
4A8
100
AcDbEntity
  8
RACCORDO
100
AcDbSpline
 62
253
  6
CONTINUOUS
 70
0
 71
3
 72
32
 73
28
 74
26
 42
0.0000001
 43
0.0000001
 44
0.0000000001
 12
-25.2749975386
 22
-0.8023322817
 32
0.0
 13
-25.2877289452
 23
0.00156936
 33
0.0
 40
0.0
 40
0.0
 40
0.0
 40
0.0
 40
0.00780955
 40
0.0156207015
 40
0.0195267549
 40
0.0234329221
 40
0.0273390963
 40
0.0312452597
 40
0.0390575805
 40
0.0468698988
 40
0.0624945042
 40
0.0781190806
 40
0.0937436326
 40
0.1249927233
 40
0.1562419211
 40
0.1718665245
 40
0.1874909753
 40
0.2187399052
 40
0.2499894308
 40
0.3124891981
 40
0.3749891399
 40
0.4374894408
 40
0.4999901846
 40
0.6249923691
 40
0.7499948914
 40
0.8749974361
 40
1.0
 40
1.0
 40
1.0
 40
1.0
 10
37.0362125766
 20
-145.4070917715
 30
0.0
 10
36.9704171238
 20
-145.4091803895
 30
0.0
 10
36.8388256202
 20
-145.4137215429
 30
0.0
 10
36.6743304249
 20
-145.4195966271
 30
0.0
 10
36.5427826852
 20
-145.4257330662
 30
0.0
 10
36.4441026288
 20
-145.4303236825
 30
0.0
 10
36.3453225221
 20
-145.4315928157
 30
0.0
 10
36.21362986
 20
-145.4330546835
 30
0.0
 10
36.0490119234
 20
-145.4351714743
 30
0.0
 10
35.7856261242
 20
-145.4384994282
 30
0.0
 10
35.4563947314
 20
-145.4427792377
 30
0.0
 10
35.0613202874
 20
-145.4480798447
 30
0.0
 10
34.5345578334
 20
-145.4553570867
 30
0.0
 10
33.8761089824
 20
-145.4647918902
 30
0.0
 10
33.2176679346
 20
-145.474792531
 30
0.0
 10
32.6909054267
 20
-145.4820854126
 30
0.0
 10
32.1641295879
 20
-145.4882505896
 30
0.0
 10
31.5057198478
 20
-145.5003050855
 30
0.0
 10
30.4522291138
 20
-145.5181205412
 30
0.0
 10
29.1352415817
 20
-145.532741391
 30
0.0
 10
27.5548776709
 20
-145.5520092993
 30
0.0
 10
25.9744884428
 20
-145.570063546
 30
0.0
 10
23.8672438566
 20
-145.5900622875
 30
0.0
 10
21.2330868189
 20
-145.6046520772
 30
0.0
 10
18.0720529405
 20
-145.6072146909
 30
0.0
 10
14.9110285116
 20
-145.6010677596
 30
0.0
 10
12.8036769843
 20
-145.5969942046
 30
0.0
 10
11.75
 20
-145.5969288132
 30
0.0
 11
37.0362125766
 21
-145.4070917715
 31
0.0
 11
36.838839427
 21
-145.4137607449
 31
0.0
 11
36.6414551785
 21
-145.4212501088
 31
0.0
 11
36.5427816502
 21
-145.4257310127
 31
0.0
 11
36.4440861676
 21
-145.4297700927
 31
0.0
 11
36.3453241837
 21
-145.4315640282
 31
0.0
 11
36.246552813
 21
-145.4327085144
 31
0.0
 11
36.0490122226
 21
-145.4351641111
 31
0.0
 11
35.8514723976
 21
-145.4376754338
 31
0.0
 11
35.4563949309
 21
-145.4428067147
 31
0.0
 11
35.0613204189
 21
-145.4481060695
 31
0.0
 11
34.6662486293
 21
-145.4535603276
 31
0.0
 11
33.8761115326
 21
-145.4649050431
 31
0.0
 11
33.0859761942
 21
-145.4765567863
 31
0.0
 11
32.6909021923
 21
-145.4819444696
 31
0.0
 11
32.2958276477
 21
-145.48699916
 31
0.0
 11
31.5057221315
 21
-145.5001210015
 31
0.0
 11
30.7156001224
 21
-145.5131566768
 31
0.0
 11
29.1352478786
 21
-145.5330285068
 31
0.0
 11
27.5548778498
 21
-145.5518069706
 31
0.0
 11
25.9744868243
 21
-145.5695542878
 31
0.0
 11
24.394054382
 21
-145.5843686412
 31
0.0
 11
21.2330830937
 21
-145.6021612082
 31
0.0
 11
18.0720552364
 21
-145.6057630999
 31
0.0
 11
14.9110282415
 21
-145.6010738598
 31
0.0
 11
11.75
 21
-145.5969288132
 31
0.0
  0
SPLINE
  5
4A9
100
AcDbEntity
  8
RACCORDO
100
AcDbSpline
 62
253
  6
CONTINUOUS
 70
0
 71
3
 72
13
 73
9
 74
7
 42
0.0000001
 43
0.0000001
 44
0.0000000001
 12
10.4815086369
 22
0.0017345925
 32
0.0
 13
10.4811828987
 23
0.0826520228
 33
0.0
 40
0.0
 40
0.0
 40
0.0
 40
0.0
 40
0.2500003031
 40
0.5000006161
 40
0.625000746
 40
0.7500007423
 40
0.8750008093
 40
1.0
 40
1.0
 40
1.0
 40
1.0
 10
11.75
 20
-132.3449826657
 30
0.0
 10
12.623460112
 20
-132.3448381161
 30
0.0
 10
14.3703803649
 20
-132.3450998779
 30
0.0
 10
16.5540307769
 20
-132.3439851353
 30
0.0
 10
18.3009485663
 20
-132.3412523557
 30
0.0
 10
19.6111331877
 20
-132.3376161789
 30
0.0
 10
20.9213099375
 20
-132.3327647328
 30
0.0
 10
21.7947556979
 20
-132.3280495016
 30
0.0
 10
22.2314688246
 20
-132.3246056896
 30
0.0
 11
11.75
 21
-132.3449826657
 31
0.0
 11
14.3703803664
 21
-132.3448114889
 31
0.0
 11
16.9907603143
 21
-132.3431485245
 31
0.0
 11
18.3009484922
 21
-132.3409879226
 31
0.0
 11
19.611132176
 21
-132.3374136328
 31
0.0
 11
20.9213118615
 21
-132.3323944846
 31
0.0
 11
22.2314688246
 21
-132.3246056896
 31
0.0
  0
SPLINE
  5
4AA
100
AcDbEntity
  8
RACCORDO
100
AcDbSpline
 62
253
  6
CONTINUOUS
 70
0
 71
3
 72
34
 73
30
 74
28
 42
0.0000001
 43
0.0000001
 44
0.0000000001
 12
5.6494661508
 22
0.0446402476
 32
0.0
 13
0.0076402328
 23
5.6496373483
 33
0.0
 40
0.0
 40
0.0
 40
0.0
 40
0.0
 40
0.0624915568
 40
0.124988905
 40
0.1562442339
 40
0.187499757
 40
0.2187550888
 40
0.2500102806
 40
0.312497514
 40
0.3437528135
 40
0.3750077303
 40
0.4062617209
 40
0.4375160779
 40
0.5000044573
 40
0.5624936044
 40
0.6249831238
 40
0.6562388259
 40
0.6874937241
 40
0.7187477066
 40
0.7343754871
 40
0.7500032849
 40
0.7656305752
 40
0.7812571025
 40
0.7968832902
 40
0.8125101973
 40
0.8437627632
 40
0.8750170723
 40
0.9375071524
 40
1.0
 40
1.0
 40
1.0
 40
1.0
 10
22.2314688246
 20
-132.3246056896
 30
0.0
 10
22.3491501362
 20
-132.3236758101
 30
0.0
 10
22.5847129969
 20
-132.3105878446
 30
0.0
 10
22.8753502479
 20
-132.2624777341
 30
0.0
 10
23.1058130849
 20
-132.2142985206
 30
0.0
 10
23.2767377975
 20
-132.1696298449
 30
0.0
 10
23.4452723383
 20
-132.116688654
 30
0.0
 10
23.6661871259
 20
-132.0352084284
 30
0.0
 10
23.8808232221
 20
-131.9372973775
 30
0.0
 10
24.0864300666
 20
-131.8225263505
 30
0.0
 10
24.2366809235
 20
-131.7296447892
 30
0.0
 10
24.3821172459
 20
-131.6293566056
 30
0.0
 10
24.5685832833
 20
-131.4855428321
 30
0.0
 10
24.7874600177
 20
-131.2880575077
 30
0.0
 10
25.0234836377
 20
-131.0246362563
 30
0.0
 10
25.1953532868
 20
-130.7850517513
 30
0.0
 10
25.3166245776
 20
-130.5831785638
 30
0.0
 10
25.399192492
 20
-130.4269948921
 30
0.0
 10
25.4609705162
 20
-130.2933568313
 30
0.0
 10
25.5057856082
 20
-130.1844852606
 30
0.0
 10
25.537105758
 20
-130.1019309173
 30
0.0
 10
25.5676346466
 20
-130.0190864941
 30
0.0
 10
25.5998584067
 20
-129.9368911419
 30
0.0
 10
25.6310462731
 20
-129.8542874229
 30
0.0
 10
25.6685851189
 20
-129.742698222
 30
0.0
 10
25.7093834907
 20
-129.6012454361
 30
0.0
 10
25.7633013193
 20
-129.3720224689
 30
0.0
 10
25.8081135062
 20
-129.0806694228
 30
0.0
 10
25.8201577556
 20
-128.8451557381
 30
0.0
 10
25.8203169089
 20
-128.7274684296
 30
0.0
 11
22.2314688246
 21
-132.3246056896
 31
0.0
 11
22.5839358736
 21
-132.3042395077
 31
0.0
 11
22.9327748557
 21
-132.2496293324
 31
0.0
 11
23.105489243
 21
-132.2128768698
 31
0.0
 11
23.2763398224
 21
-132.1682509785
 31
0.0
 11
23.4448030697
 21
-132.1153251501
 31
0.0
 11
23.6104657317
 21
-132.0541973162
 31
0.0
 11
23.9314435363
 21
-131.9072149903
 31
0.0
 11
24.085767215
 21
-131.8213945566
 31
0.0
 11
24.2358802124
 21
-131.7284092412
 31
0.0
 11
24.3811894715
 21
-131.6280919837
 31
0.0
 11
24.5210432822
 21
-131.5202959926
 31
0.0
 11
24.7830235562
 21
-131.2836497105
 31
0.0
 11
25.0185172301
 21
-131.0206270524
 31
0.0
 11
25.2243016259
 21
-130.7337604333
 31
0.0
 11
25.3152253661
 21
-130.5823846715
 31
0.0
 11
25.3977876396
 21
-130.4262961875
 31
0.0
 11
25.4717894556
 21
-130.2659776047
 31
0.0
 11
25.5054036471
 21
-130.1843353812
 31
0.0
 11
25.5369743526
 21
-130.1018813065
 31
0.0
 11
25.5679178149
 21
-130.0191928572
 31
0.0
 11
25.5996860334
 21
-129.9368223726
 31
0.0
 11
25.6305402333
 21
-129.8541072231
 31
0.0
 11
25.6587924329
 21
-129.7704632847
 31
0.0
 11
25.7079636391
 21
-129.6008823807
 31
0.0
 11
25.7483216275
 21
-129.428980661
 31
0.0
 11
25.802162093
 21
-129.0800635996
 31
0.0
 11
25.8203169089
 21
-128.7274684296
 31
0.0
  0
SPLINE
  5
4AB
100
AcDbEntity
  8
RACCORDO
100
AcDbSpline
 62
253
  6
CONTINUOUS
 70
0
 71
3
 72
15
 73
11
 74
9
 42
0.0000001
 43
0.0000001
 44
0.0000000001
 12
0.030158351
 22
22.2274704787
 32
0.0
 13
0.0002337831
 23
22.227490937
 33
0.0
 40
0.0
 40
0.0
 40
0.0
 40
0.0
 40
0.06249938
 40
0.1249993381
 40
0.187499359
 40
0.2499993798
 40
0.3749994455
 40
0.4999995435
 40
0.7499997671
 40
1.0
 40
1.0
 40
1.0
 40
1.0
 10
25.8203169089
 20
-128.7274684296
 30
0.0
 10
25.8209452016
 20
-128.2644007218
 30
0.0
 10
25.8219854659
 20
-127.3382605905
 30
0.0
 10
25.825550024
 20
-125.9490513682
 30
0.0
 10
25.8300842924
 20
-124.5598405574
 30
0.0
 10
25.8344311545
 20
-122.7075537568
 30
0.0
 10
25.838443001
 20
-120.39219205
 30
0.0
 10
25.8424059732
 20
-116.6876092877
 30
0.0
 10
25.8442805299
 20
-112.0568778196
 30
0.0
 10
25.8437379269
 20
-108.3522926355
 30
0.0
 10
25.8437574089
 20
-106.4999999988
 30
0.0
 11
25.8203169089
 21
-128.7274684296
 31
0.0
 11
25.8223194838
 21
-127.3382654709
 31
0.0
 11
25.825711639
 21
-125.9490523597
 31
0.0
 11
25.8298719384
 21
-124.5598399418
 31
0.0
 11
25.8332496565
 21
-123.1706254018
 31
0.0
 11
25.8381360028
 21
-120.3921918705
 31
0.0
 11
25.8412099527
 21
-117.6137550257
 31
0.0
 11
25.8437699678
 21
-112.0568779091
 31
0.0
 11
25.8437574089
 21
-106.4999999988
 31
0.0
  0
SPLINE
  5
4AC
100
AcDbEntity
  8
RACCORDO
100
AcDbSpline
 62
253
  6
CONTINUOUS
 70
0
 71
3
 72
35
 73
31
 74
29
 42
0.0000001
 43
0.0000001
 44
0.0000000001
 12
0.0002268391
 22
-37.0537555594
 32
0.0
 13
-1.3415024218
 23
-37.029463571
 33
0.0
 40
0.0
 40
0.0
 40
0.0
 40
0.0
 40
0.2500041369
 40
0.3750061969
 40
0.5000082383
 40
0.5625092486
 40
0.6250102487
 40
0.6875112371
 40
0.7500121961
 40
0.7812626391
 40
0.8125130013
 40
0.8437632137
 40
0.8750131877
 40
0.8906380573
 40
0.9062628389
 40
0.9218875371
 40
0.9375121655
 40
0.9453244586
 40
0.9531367371
 40
0.9609490097
 40
0.9648551516
 40
0.9687612625
 40
0.9707143087
 40
0.9726673588
 40
0.9746204267
 40
0.9765735822
 40
0.9804797297
 40
0.9843853423
 40
0.992194305
 40
1.0
 40
1.0
 40
1.0
 40
1.0
 10
39.0969798994
 20
-106.5
 30
0.0
 10
39.096998803
 20
-109.5878640589
 30
0.0
 10
39.0960797757
 20
-114.2196604581
 30
0.0
 10
39.0905320531
 20
-120.3953858989
 30
0.0
 10
39.0849098795
 20
-124.2552114099
 30
0.0
 10
39.0789994081
 20
-127.3430687677
 30
0.0
 10
39.0737436163
 20
-129.6589597463
 30
0.0
 10
39.0678864785
 20
-131.974847959
 30
0.0
 10
39.0620947984
 20
-133.9047537085
 30
0.0
 10
39.0532463399
 20
-135.4486578033
 30
0.0
 10
39.044115927
 20
-136.6065652315
 30
0.0
 10
39.032207577
 20
-137.7644417797
 30
0.0
 10
39.0200178964
 20
-138.7293078133
 30
0.0
 10
39.0091841472
 20
-139.501180439
 30
0.0
 10
39.000735441
 20
-140.0800757037
 30
0.0
 10
38.9921023422
 20
-140.6589652576
 30
0.0
 10
38.9848758878
 20
-141.1413710135
 30
0.0
 10
38.9790605732
 20
-141.5272939898
 30
0.0
 10
38.9747135495
 20
-141.8167355671
 30
0.0
 10
38.9713790185
 20
-142.0579416357
 30
0.0
 10
38.9680689622
 20
-142.2508952216
 30
0.0
 10
38.9664031472
 20
-142.3714992737
 30
0.0
 10
38.9654352412
 20
-142.4679820568
 30
0.0
 10
38.9651745285
 20
-142.5403600211
 30
0.0
 10
38.9615100221
 20
-142.6126613945
 30
0.0
 10
38.9537887729
 20
-142.7088444215
 30
0.0
 10
38.9448329757
 20
-142.8291230962
 30
0.0
 10
38.9329728873
 20
-143.0216978924
 30
0.0
 10
38.9212829178
 20
-143.262521603
 30
0.0
 10
38.9137042453
 20
-143.4552344982
 30
0.0
 10
38.9102137923
 20
-143.551581398
 30
0.0
 11
39.0969798994
 21
-106.5
 31
0.0
 11
39.0943326488
 21
-115.7635917987
 31
0.0
 11
39.0901010833
 21
-120.3953856431
 31
0.0
 11
39.0833145335
 21
-125.0271757579
 31
0.0
 11
39.0788622513
 21
-127.3430686363
 31
0.0
 11
39.0736433914
 21
-129.6589595359
 31
0.0
 11
39.0677043306
 21
-131.9748482658
 31
0.0
 11
39.0595314187
 21
-134.2907291
 31
0.0
 11
39.0528306505
 21
-135.4486559912
 31
0.0
 11
39.0436529115
 21
-136.6065629006
 31
0.0
 11
39.0317543209
 21
-137.7644394958
 31
0.0
 11
39.0172192529
 21
-138.9222771649
 31
0.0
 11
39.0091302217
 21
-139.5011807531
 31
0.0
 11
39.0007046864
 21
-140.0800762784
 31
0.0
 11
38.9920958832
 21
-140.6589660167
 31
0.0
 11
38.9834192052
 21
-141.2378521563
 31
0.0
 11
38.9790629792
 21
-141.5272941754
 31
0.0
 11
38.9747711458
 21
-141.8167366162
 31
0.0
 11
38.9704979679
 21
-142.1061791164
 31
0.0
 11
38.9681495492
 21
-142.250897288
 31
0.0
 11
38.966191564
 21
-142.3956201235
 31
0.0
 11
38.9655127776
 21
-142.4679846374
 31
0.0
 11
38.9646072457
 21
-142.540346812
 31
0.0
 11
38.9611556848
 21
-142.6126329533
 31
0.0
 11
38.9557653393
 21
-142.6848036806
 31
0.0
 11
38.9451408707
 21
-142.8291506447
 31
0.0
 11
38.9361453674
 21
-142.973588412
 31
0.0
 11
38.9217242388
 21
-143.2625802129
 31
0.0
 11
38.9102137923
 21
-143.551581398
 31
0.0
  0
SPLINE
  5
4AD
100
AcDbEntity
  8
RACCORDO
100
AcDbSpline
 62
253
  6
CONTINUOUS
 70
0
 71
3
 72
15
 73
11
 74
9
 42
0.0000001
 43
0.0000001
 44
0.0000000001
 12
-0.1049741279
 22
-2.8943595649
 32
0.0
 13
-2.8948008644
 23
-0.0920044232
 33
0.0
 40
0.0
 40
0.0
 40
0.0
 40
0.0
 40
0.1249272916
 40
0.2499088187
 40
0.3749214733
 40
0.4999476153
 40
0.6249777657
 40
0.7500036831
 40
0.8750140184
 40
1.0
 40
1.0
 40
1.0
 40
1.0
 10
38.9102137923
 20
-143.551581398
 30
0.0
 10
38.9058424145
 20
-143.6721095651
 30
0.0
 10
38.8734148584
 20
-143.9129704494
 30
0.0
 10
38.7576284273
 20
-144.2580531366
 30
0.0
 10
38.5795126477
 20
-144.5757192412
 30
0.0
 10
38.3455138861
 20
-144.8548001947
 30
0.0
 10
38.0638345764
 20
-145.085682344
 30
0.0
 10
37.7442243154
 20
-145.2603500139
 30
0.0
 10
37.3979261781
 20
-145.3727006958
 30
0.0
 10
37.1568157524
 20
-145.4032586838
 30
0.0
 10
37.0362125766
 20
-145.4070917715
 30
0.0
 11
38.9102137923
 21
-143.551581398
 31
0.0
 11
38.8622388998
 21
-143.9102089789
 31
0.0
 11
38.7472582932
 21
-144.2534413889
 31
0.0
 11
38.5702103434
 21
-144.5692709724
 31
0.0
 11
38.3375712154
 21
-144.8467626432
 31
0.0
 11
38.0575070814
 21
-145.0763167322
 31
0.0
 11
37.7397558479
 21
-145.2499723498
 31
0.0
 11
37.3953376676
 21
-145.3616216015
 31
0.0
 11
37.0362125766
 21
-145.4070917715
 31
0.0
  0
SPLINE
  5
4AE
100
AcDbEntity
  8
RACCORDO
100
AcDbSpline
 62
253
  6
CONTINUOUS
 70
0
 71
3
 72
32
 73
28
 74
26
 42
0.0000001
 43
0.0000001
 44
0.0000000001
 12
-25.2877291729
 22
-0.0015694175
 32
0.0
 13
-25.2749982506
 23
0.8023170299
 33
0.0
 40
0.0
 40
0.0
 40
0.0
 40
0.0
 40
0.1250025623
 40
0.2500051053
 40
0.375007626
 40
0.5000098087
 40
0.5625105517
 40
0.6250108518
 40
0.6875107928
 40
0.7500105591
 40
0.7812600844
 40
0.8125090129
 40
0.828133464
 40
0.8437580674
 40
0.8750072646
 40
0.9062563548
 40
0.9218809067
 40
0.9375054828
 40
0.953130088
 40
0.9609424063
 40
0.9687547263
 40
0.9726608898
 40
0.9765670673
 40
0.9804732451
 40
0.9843792993
 40
0.9921904507
 40
1.0
 40
1.0
 40
1.0
 40
1.0
 10
-11.75
 20
-145.5969288132
 30
0.0
 10
-12.8036769803
 20
-145.5969942069
 30
0.0
 10
-14.9110284989
 20
-145.6010677673
 30
0.0
 10
-18.0720529145
 20
-145.6072146896
 30
0.0
 10
-21.2330867782
 20
-145.6046520534
 30
0.0
 10
-23.8672438057
 20
-145.5900623619
 30
0.0
 10
-25.9744883793
 20
-145.5700634181
 30
0.0
 10
-27.5548776101
 20
-145.5520097984
 30
0.0
 10
-29.1352414778
 20
-145.532739527
 30
0.0
 10
-30.4522291171
 20
-145.5181260503
 30
0.0
 10
-31.5057196107
 20
-145.500295768
 30
0.0
 10
-32.1641298636
 20
-145.488275406
 30
0.0
 10
-32.6909053281
 20
-145.4820821892
 30
0.0
 10
-33.2176678965
 20
-145.474793825
 30
0.0
 10
-33.8761089199
 20
-145.464791406
 30
0.0
 10
-34.5345577729
 20
-145.455357109
 30
0.0
 10
-35.0613202272
 20
-145.4480799965
 30
0.0
 10
-35.4563946585
 20
-145.4427787521
 30
0.0
 10
-35.7856260812
 20
-145.4385007193
 30
0.0
 10
-36.0490118127
 20
-145.4351693248
 30
0.0
 10
-36.2136298648
 20
-145.4330585707
 30
0.0
 10
-36.345322412
 20
-145.4315930063
 30
0.0
 10
-36.4441031442
 20
-145.4303425288
 30
0.0
 10
-36.5427821625
 20
-145.4257219097
 30
0.0
 10
-36.6743304171
 20
-145.4195959805
 30
0.0
 10
-36.8388256431
 20
-145.4137219295
 30
0.0
 10
-36.970417128
 20
-145.4091803497
 30
0.0
 10
-37.0362125766
 20
-145.4070917715
 30
0.0
 11
-11.75
 21
-145.5969288132
 31
0.0
 11
-14.9110282293
 21
-145.6010738646
 31
0.0
 11
-18.0720552105
 21
-145.6057630963
 31
0.0
 11
-21.2330830534
 21
-145.6021612079
 31
0.0
 11
-24.3940543274
 21
-145.5843686417
 31
0.0
 11
-25.9744867628
 21
-145.5695542897
 31
0.0
 11
-27.5548777814
 21
-145.5518069713
 31
0.0
 11
-29.1352478034
 21
-145.5330285112
 31
0.0
 11
-30.7156000407
 21
-145.5131567521
 31
0.0
 11
-31.5057220355
 21
-145.500120364
 31
0.0
 11
-32.2958277527
 21
-145.4870123544
 31
0.0
 11
-32.6909021494
 21
-145.4819453159
 31
0.0
 11
-33.0859761388
 21
-145.4765564559
 31
0.0
 11
-33.8761114745
 21
-145.4649050158
 31
0.0
 11
-34.6662485686
 21
-145.4535603593
 31
0.0
 11
-35.0613203565
 21
-145.448106099
 31
0.0
 11
-35.4563948662
 21
-145.4428066908
 31
0.0
 11
-35.8514723317
 21
-145.4376754596
 31
0.0
 11
-36.0490121497
 21
-145.435163599
 31
0.0
 11
-36.246552756
 21
-145.4327107672
 31
0.0
 11
-36.3453241491
 21
-145.4315677907
 31
0.0
 11
-36.444086343
 21
-145.4297808308
 31
0.0
 11
-36.5427814558
 21
-145.4257261661
 31
0.0
 11
-36.641455041
 21
-145.4212460264
 31
0.0
 11
-36.8388394458
 21
-145.413760818
 31
0.0
 11
-37.0362125766
 21
-145.4070917715
 31
0.0
  0
SPLINE
  5
4AF
100
AcDbEntity
  8
RACCORDO
100
AcDbSpline
 62
253
  6
CONTINUOUS
 70
0
 71
3
 72
15
 73
11
 74
9
 42
0.0000001
 43
0.0000001
 44
0.0000000001
 12
-2.8948008647
 22
0.0920044129
 32
0.0
 13
-0.1049741465
 23
2.8943595642
 33
0.0
 40
0.0
 40
0.0
 40
0.0
 40
0.0
 40
0.1249859816
 40
0.2499963169
 40
0.3750222343
 40
0.5000523847
 40
0.6250785267
 40
0.7500911813
 40
0.8750727084
 40
1.0
 40
1.0
 40
1.0
 40
1.0
 10
-37.0362125766
 20
-145.4070917715
 30
0.0
 10
-37.1568157524
 20
-145.4032586842
 30
0.0
 10
-37.3979261781
 20
-145.3727006956
 30
0.0
 10
-37.7442243155
 20
-145.2603500141
 30
0.0
 10
-38.0638345764
 20
-145.0856823439
 30
0.0
 10
-38.3455138861
 20
-144.8548001947
 30
0.0
 10
-38.5795126478
 20
-144.5757192413
 30
0.0
 10
-38.7576284271
 20
-144.2580531365
 30
0.0
 10
-38.8734148588
 20
-143.9129704494
 30
0.0
 10
-38.9058424137
 20
-143.6721095651
 30
0.0
 10
-38.9102137923
 20
-143.551581398
 30
0.0
 11
-37.0362125766
 21
-145.4070917715
 31
0.0
 11
-37.3953376676
 21
-145.3616216015
 31
0.0
 11
-37.7397558479
 21
-145.2499723498
 31
0.0
 11
-38.0575070813
 21
-145.0763167322
 31
0.0
 11
-38.3375712154
 21
-144.8467626432
 31
0.0
 11
-38.5702103435
 21
-144.5692709724
 31
0.0
 11
-38.7472582931
 21
-144.2534413888
 31
0.0
 11
-38.8622388998
 21
-143.910208979
 31
0.0
 11
-38.9102137923
 21
-143.551581398
 31
0.0
  0
SPLINE
  5
4B0
100
AcDbEntity
  8
RACCORDO
100
AcDbSpline
 62
253
  6
CONTINUOUS
 70
0
 71
3
 72
35
 73
31
 74
29
 42
0.0000001
 43
0.0000001
 44
0.0000000001
 12
-1.3415054096
 22
37.0294632508
 32
0.0
 13
0.0002268402
 23
37.0537553475
 33
0.0
 40
0.0
 40
0.0
 40
0.0
 40
0.0
 40
0.0078056957
 40
0.0156146592
 40
0.019520272
 40
0.0234264166
 40
0.0253795771
 40
0.0273326299
 40
0.0292857001
 40
0.0312387399
 40
0.035144851
 40
0.0390509927
 40
0.0468632654
 40
0.0546755439
 40
0.062487837
 40
0.0781124653
 40
0.0937371635
 40
0.109361945
 40
0.1249868146
 40
0.1562367885
 40
0.1874870007
 40
0.2187373628
 40
0.2499878058
 40
0.3124887645
 40
0.3749897528
 40
0.4374907527
 40
0.4999917629
 40
0.624993804
 40
0.7499958637
 40
1.0
 40
1.0
 40
1.0
 40
1.0
 10
-38.9102137923
 20
-143.551581398
 30
0.0
 10
-38.9137042533
 20
-143.4552344912
 30
0.0
 10
-38.9212835175
 20
-143.2625216007
 30
0.0
 10
-38.9329711233
 20
-143.0216977818
 30
0.0
 10
-38.9448353181
 20
-142.8291231574
 30
0.0
 10
-38.9537814827
 20
-142.7088441307
 30
0.0
 10
-38.9615367605
 20
-142.6126629839
 30
0.0
 10
-38.9651316801
 20
-142.5403588041
 30
0.0
 10
-38.9654795562
 20
-142.4679824141
 30
0.0
 10
-38.9663711339
 20
-142.3714985012
 30
0.0
 10
-38.9680868983
 20
-142.2508951728
 30
0.0
 10
-38.9713689826
 20
-142.0579411994
 30
0.0
 10
-38.9747172428
 20
-141.8167353252
 30
0.0
 10
-38.979058908
 20
-141.527293675
 30
0.0
 10
-38.9848766644
 20
-141.1413707369
 30
0.0
 10
-38.9921019528
 20
-140.6589649678
 30
0.0
 10
-39.0007357327
 20
-140.0800754285
 30
0.0
 10
-39.0091842177
 20
-139.501180165
 30
0.0
 10
-39.0200179316
 20
-138.7293075458
 30
0.0
 10
-39.032207619
 20
-137.7644415213
 30
0.0
 10
-39.0441160326
 20
-136.6065649847
 30
0.0
 10
-39.0532462197
 20
-135.4486575656
 30
0.0
 10
-39.0620954357
 20
-133.9047534888
 30
0.0
 10
-39.0678852594
 20
-131.9748477488
 30
0.0
 10
-39.0737438112
 20
-129.6589595599
 30
0.0
 10
-39.0789993456
 20
-127.343068599
 30
0.0
 10
-39.0849099085
 20
-124.2552112666
 30
0.0
 10
-39.0905320425
 20
-120.3953857866
 30
0.0
 10
-39.0960797828
 20
-114.2196603958
 30
0.0
 10
-39.0969988031
 20
-109.5878640341
 30
0.0
 10
-39.0969798994
 20
-106.5000000002
 30
0.0
 11
-38.9102137923
 21
-143.551581398
 31
0.0
 11
-38.9217242179
 21
-143.2625801905
 31
0.0
 11
-38.9361451307
 21
-142.9735883474
 31
0.0
 11
-38.9451407752
 21
-142.8291505849
 31
0.0
 11
-38.9557700307
 21
-142.6848040822
 31
0.0
 11
-38.9611665857
 21
-142.6126336344
 31
0.0
 11
-38.9645905106
 21
-142.5403467362
 31
0.0
 11
-38.9655330267
 21
-142.4679842863
 31
0.0
 11
-38.9661883231
 21
-142.3956197952
 31
0.0
 11
-38.9681539987
 21
-142.250897058
 31
0.0
 11
-38.9704981713
 21
-142.1061788233
 31
0.0
 11
-38.9747712002
 21
-141.8167363233
 31
0.0
 11
-38.9790625122
 21
-141.5272938781
 31
0.0
 11
-38.9834190901
 21
-141.2378518659
 31
0.0
 11
-38.9920958405
 21
-140.6589657321
 31
0.0
 11
-39.0007048277
 21
-140.0800760008
 31
0.0
 11
-39.0091303247
 21
-139.5011804797
 31
0.0
 11
-39.0172193003
 21
-138.922276895
 31
0.0
 11
-39.0317543722
 21
-137.7644392378
 31
0.0
 11
-39.0436529689
 21
-136.6065626535
 31
0.0
 11
-39.0528306626
 21
-135.4486557546
 31
0.0
 11
-39.0595316798
 21
-134.2907288747
 31
0.0
 11
-39.0677037185
 21
-131.9748480588
 31
0.0
 11
-39.0736433077
 21
-129.6589593485
 31
0.0
 11
-39.0788622431
 21
-127.3430684679
 31
0.0
 11
-39.0833145293
 21
-125.0271756082
 31
0.0
 11
-39.0901010829
 21
-120.3953855309
 31
0.0
 11
-39.0943326492
 21
-115.763591724
 31
0.0
 11
-39.0969798994
 21
-106.5000000002
 31
0.0
  0
SPLINE
  5
4B1
100
AcDbEntity
  8
RACCORDO
100
AcDbSpline
 62
253
  6
CONTINUOUS
 70
0
 71
3
 72
15
 73
11
 74
9
 42
0.0000001
 43
0.0000001
 44
0.0000000001
 12
0.0002339668
 22
-22.2274909388
 32
0.0
 13
0.030102031
 23
-22.2274705569
 33
0.0
 40
0.0
 40
0.0
 40
0.0
 40
0.0
 40
0.2500002329
 40
0.5000004566
 40
0.6250005546
 40
0.7500006203
 40
0.8125006411
 40
0.875000662
 40
0.93750062
 40
1.0
 40
1.0
 40
1.0
 40
1.0
 10
-25.8437574089
 20
-106.5
 30
0.0
 10
-25.8437379116
 20
-108.352292637
 30
0.0
 10
-25.8442807779
 20
-112.0568778226
 30
0.0
 10
-25.8424053231
 20
-116.687609289
 30
0.0
 10
-25.8384444631
 20
-120.3921920572
 30
0.0
 10
-25.8344263779
 20
-122.7075537498
 30
0.0
 10
-25.8300890522
 20
-124.5598405749
 30
0.0
 10
-25.8255483984
 20
-125.9490513669
 30
0.0
 10
-25.8219830021
 20
-127.3382605878
 30
0.0
 10
-25.8209440283
 20
-128.2644007203
 30
0.0
 10
-25.8203169089
 20
-128.7274684296
 30
0.0
 11
-25.8437574089
 21
-106.5
 31
0.0
 11
-25.8437699703
 21
-112.0568779114
 31
0.0
 11
-25.8412100665
 21
-117.6137550292
 31
0.0
 11
-25.8381359531
 21
-120.3921918743
 31
0.0
 11
-25.8332484747
 21
-123.1706254035
 31
0.0
 11
-25.829874442
 21
-124.5598399533
 31
0.0
 11
-25.8257109379
 21
-125.9490523621
 31
0.0
 11
-25.8223174824
 21
-127.3382654683
 31
0.0
 11
-25.8203169089
 21
-128.7274684296
 31
0.0
  0
SPLINE
  5
4B2
100
AcDbEntity
  8
RACCORDO
100
AcDbSpline
 62
253
  6
CONTINUOUS
 70
0
 71
3
 72
34
 73
30
 74
28
 42
0.0000001
 43
0.0000001
 44
0.0000000001
 12
0.007631282
 22
-5.6496378226
 32
0.0
 13
5.6494666018
 23
-0.0446416525
 33
0.0
 40
0.0
 40
0.0
 40
0.0
 40
0.0
 40
0.0624925593
 40
0.1249823358
 40
0.1562365037
 40
0.1874889616
 40
0.2031158237
 40
0.2187420315
 40
0.2343684491
 40
0.2499956954
 40
0.2656235414
 40
0.2812511162
 40
0.3125047021
 40
0.343759205
 40
0.3750144993
 40
0.4375035314
 40
0.4999926063
 40
0.5624807788
 40
0.5937350143
 40
0.6249889101
 40
0.6562439316
 40
0.6874998523
 40
0.7499898547
 40
0.7812458369
 40
0.8125014822
 40
0.8437569181
 40
0.8750121153
 40
0.9375090727
 40
1.0
 40
1.0
 40
1.0
 40
1.0
 10
-25.8203169089
 20
-128.7274684296
 30
0.0
 10
-25.8201579428
 20
-128.8451552052
 30
0.0
 10
-25.8081133439
 20
-129.080667698
 30
0.0
 10
-25.7633022226
 20
-129.3720197729
 30
0.0
 10
-25.709382716
 20
-129.6012409475
 30
0.0
 10
-25.6685909708
 20
-129.7426956201
 30
0.0
 10
-25.6310407704
 20
-129.8542802038
 30
0.0
 10
-25.5998962279
 20
-129.936899924
 30
0.0
 10
-25.5676346502
 20
-130.0190805706
 30
0.0
 10
-25.5371109488
 20
-130.1019266542
 30
0.0
 10
-25.5058073067
 20
-130.1844873752
 30
0.0
 10
-25.4609199442
 20
-130.2933278975
 30
0.0
 10
-25.3992059092
 20
-130.4269916316
 30
0.0
 10
-25.3166260937
 20
-130.5831683825
 30
0.0
 10
-25.1953621071
 20
-130.785042198
 30
0.0
 10
-25.0234918325
 20
-131.0246248073
 30
0.0
 10
-24.7874712238
 20
-131.2880463989
 30
0.0
 10
-24.5685959237
 20
-131.4855324852
 30
0.0
 10
-24.3821308195
 20
-131.629345994
 30
0.0
 10
-24.2366959633
 20
-131.729636374
 30
0.0
 10
-24.0864408537
 20
-131.8225124064
 30
0.0
 10
-23.8808500858
 20
-131.9373267018
 30
0.0
 10
-23.6661870045
 20
-132.0352011063
 30
0.0
 10
-23.4452686016
 20
-132.1166904249
 30
0.0
 10
-23.2767315402
 20
-132.1696307804
 30
0.0
 10
-23.1058068747
 20
-132.2143000841
 30
0.0
 10
-22.8753450849
 20
-132.2624789341
 30
0.0
 10
-22.5847099749
 20
-132.3105889489
 30
0.0
 10
-22.3491489602
 20
-132.3236757902
 30
0.0
 10
-22.2314688246
 20
-132.3246056896
 30
0.0
 11
-25.8203169089
 21
-128.7274684296
 31
0.0
 11
-25.8021622286
 21
-129.0800620048
 31
0.0
 11
-25.7483219116
 21
-129.4289773825
 31
0.0
 11
-25.7079644201
 21
-129.6008784143
 31
0.0
 11
-25.6587940807
 21
-129.7704589493
 31
0.0
 11
-25.6305434074
 21
-129.8541031427
 31
0.0
 11
-25.5997102435
 21
-129.9368262648
 31
0.0
 11
-25.5679250328
 21
-130.0191895372
 31
0.0
 11
-25.5369814797
 21
-130.1018776952
 31
0.0
 11
-25.5054133591
 21
-130.1843330583
 31
0.0
 11
-25.471767187
 21
-130.2659608583
 31
0.0
 11
-25.3977862757
 21
-130.4262866374
 31
0.0
 11
-25.315229805
 21
-130.5823756803
 31
0.0
 11
-25.2243082619
 21
-130.7337500912
 31
0.0
 11
-25.0185266158
 21
-131.02061533
 31
0.0
 11
-24.7830344266
 21
-131.2836388087
 31
0.0
 11
-24.5210560963
 21
-131.520285542
 31
0.0
 11
-24.3812032668
 21
-131.628081705
 31
0.0
 11
-24.2358948109
 21
-131.7283992087
 31
0.0
 11
-24.0857821017
 21
-131.8213861403
 31
0.0
 11
-23.931465006
 21
-131.90722566
 31
0.0
 11
-23.610464834
 21
-132.0541967837
 31
0.0
 11
-23.4447979554
 21
-132.1153261309
 31
0.0
 11
-23.2763329906
 21
-132.1682524496
 31
0.0
 11
-23.1054829061
 21
-132.2128783442
 31
0.0
 11
-22.9327692407
 21
-132.2496306947
 31
0.0
 11
-22.5839323924
 21
-132.3042404069
 31
0.0
 11
-22.2314688246
 21
-132.3246056896
 31
0.0
  0
SPLINE
  5
4B3
100
AcDbEntity
  8
RACCORDO
100
AcDbSpline
 62
253
  6
CONTINUOUS
 70
0
 71
3
 72
13
 73
9
 74
7
 42
0.0000001
 43
0.0000001
 44
0.0000000001
 12
10.481182247
 22
-0.0827352072
 32
0.0
 13
10.481508642
 23
-0.0017312275
 33
0.0
 40
0.0
 40
0.0
 40
0.0
 40
0.0
 40
0.1249991904
 40
0.2499992586
 40
0.3749992546
 40
0.4999993841
 40
0.7499996971
 40
1.0
 40
1.0
 40
1.0
 40
1.0
 10
-22.2314688246
 20
-132.3246056896
 30
0.0
 10
-21.7947557261
 20
-132.3280529676
 30
0.0
 10
-20.9213099522
 20
-132.3327686507
 30
0.0
 10
-19.6111331831
 20
-132.3376146355
 30
0.0
 10
-18.3009485616
 20
-132.3412513191
 30
0.0
 10
-16.5540307764
 20
-132.3439858646
 30
0.0
 10
-14.3703803642
 20
-132.3450993877
 30
0.0
 10
-12.6234601117
 20
-132.3448383967
 30
0.0
 10
-11.75
 20
-132.3449826658
 30
0.0
 11
-22.2314688246
 21
-132.3246056896
 31
0.0
 11
-20.9213118811
 21
-132.3323973793
 31
0.0
 11
-19.611132169
 21
-132.3374130842
 31
0.0
 11
-18.3009484875
 21
-132.3409870222
 31
0.0
 11
-16.9907603144
 21
-132.3431485839
 31
0.0
 11
-14.3703803653
 21
-132.3448114353
 31
0.0
 11
-11.75
 21
-132.3449826658
 31
0.0
  0
SPLINE
  5
4B4
100
AcDbEntity
  8
RACCORDO
100
AcDbSpline
 62
253
  6
CONTINUOUS
 70
0
 71
3
 72
18
 73
14
 74
12
 42
0.0000001
 43
0.0000001
 44
0.0000000001
 12
0.000084661
 22
4.4105204788
 32
0.0
 13
-4.0843852538
 23
1.6644782966
 33
0.0
 40
0.0
 40
0.0
 40
0.0
 40
0.0
 40
0.1250150409
 40
0.2500117018
 40
0.3749860363
 40
0.4999363345
 40
0.6248716676
 40
0.6873790639
 40
0.7498881225
 40
0.8124049508
 40
0.8749312263
 40
0.9374625818
 40
1.0
 40
1.0
 40
1.0
 40
1.0
 10
25.8437574053
 20
-84.25
 30
0.0
 10
25.8437609333
 20
-84.0662062007
 30
0.0
 10
25.8159312932
 20
-83.6980360403
 30
0.0
 10
25.6914835201
 20
-83.1589183423
 30
0.0
 10
25.486838727
 20
-82.6447265057
 30
0.0
 10
25.2057219835
 20
-82.1683076013
 30
0.0
 10
24.9154984761
 20
-81.8100733086
 30
0.0
 10
24.6542299299
 20
-81.5512721781
 30
0.0
 10
24.4443533602
 20
-81.3721004006
 30
0.0
 10
24.2229742621
 20
-81.2074249018
 30
0.0
 10
23.9917356061
 20
-81.0568038313
 30
0.0
 10
23.7502279284
 20
-80.9230775204
 30
0.0
 10
23.5825439735
 20
-80.8470783338
 30
0.0
 10
23.4974016707
 20
-80.812380942
 30
0.0
 11
25.8437574053
 21
-84.25
 31
0.0
 11
25.8021415915
 21
-83.7001913332
 31
0.0
 11
25.6781027157
 21
-83.1630261684
 31
0.0
 11
25.4740713322
 21
-82.6509766717
 31
0.0
 11
25.1945202572
 21
-82.1760473809
 31
0.0
 11
24.8478210342
 21
-81.747755962
 31
0.0
 11
24.6519230723
 21
-81.5537738799
 31
0.0
 11
24.442448863
 21
-81.3745264041
 31
0.0
 11
24.2213468733
 21
-81.2097783874
 31
0.0
 11
23.9900348124
 21
-81.0596261011
 31
0.0
 11
23.7485679264
 21
-80.9263704088
 31
0.0
 11
23.4974016707
 21
-80.812380942
 31
0.0
  0
SPLINE
  5
4B5
100
AcDbEntity
  8
RACCORDO
100
AcDbSpline
 62
253
  6
CONTINUOUS
 70
0
 71
3
 72
18
 73
14
 74
12
 42
0.0000001
 43
0.0000001
 44
0.0000000001
 12
4.084380713
 22
1.664480828
 32
0.0
 13
-0.0001075402
 23
4.4105172286
 33
0.0
 40
0.0
 40
0.0
 40
0.0
 40
0.0
 40
0.0625387559
 40
0.1250712173
 40
0.1875980694
 40
0.2501157504
 40
0.3126249101
 40
0.3751304612
 40
0.500059094
 40
0.625005247
 40
0.749981045
 40
0.8749804551
 40
1.0
 40
1.0
 40
1.0
 40
1.0
 10
23.4974033547
 20
-61.1876183416
 30
0.0
 10
23.5825473842
 20
-61.1529201548
 30
0.0
 10
23.7502379213
 20
-61.0769251714
 30
0.0
 10
23.991730214
 20
-60.9431634339
 30
0.0
 10
24.2229908769
 20
-60.792570922
 30
0.0
 10
24.4443668412
 20
-60.627886276
 30
0.0
 10
24.6542397873
 20
-60.4487132993
 30
0.0
 10
24.9155021347
 20
-60.1899237435
 30
0.0
 10
25.2057103317
 20
-59.8317018414
 30
0.0
 10
25.4868288619
 20
-59.3553008553
 30
0.0
 10
25.6914750625
 20
-58.8411095565
 30
0.0
 10
25.8159311472
 20
-58.3019811673
 30
0.0
 10
25.8437618868
 20
-57.9338002855
 30
0.0
 10
25.8437574053
 20
-57.75
 30
0.0
 11
23.4974033547
 21
-61.1876183416
 31
0.0
 11
23.7485741524
 21
-61.0736250973
 31
0.0
 11
23.9900364236
 21
-60.9403513696
 31
0.0
 11
24.2213591662
 21
-60.7902112429
 31
0.0
 11
24.4424635789
 21
-60.6254605235
 31
0.0
 11
24.6519358345
 21
-60.4462103908
 31
0.0
 11
24.8478286899
 21
-60.2522350068
 31
0.0
 11
25.1945091202
 21
-59.8239669185
 31
0.0
 11
25.4740567276
 21
-59.3490572725
 31
0.0
 11
25.6780941429
 21
-58.8370036681
 31
0.0
 11
25.8021398264
 21
-58.2998280476
 31
0.0
 11
25.8437574053
 21
-57.75
 31
0.0
  0
SPLINE
  5
4B6
100
AcDbEntity
  8
RACCORDO
100
AcDbSpline
 62
253
  6
CONTINUOUS
 70
0
 71
3
 72
18
 73
14
 74
12
 42
0.0000001
 43
0.0000001
 44
0.0000000001
 12
0.000084661
 22
4.4105204788
 32
0.0
 13
-4.0843852538
 23
1.6644782966
 33
0.0
 40
0.0
 40
0.0
 40
0.0
 40
0.0
 40
0.1250150409
 40
0.2500117018
 40
0.3749860363
 40
0.4999363345
 40
0.6248716676
 40
0.6873790639
 40
0.7498881225
 40
0.8124049508
 40
0.8749312263
 40
0.9374625818
 40
1.0
 40
1.0
 40
1.0
 40
1.0
 10
25.8437574053
 20
-13.25
 30
0.0
 10
25.8437609333
 20
-13.0662062007
 30
0.0
 10
25.8159312932
 20
-12.6980360403
 30
0.0
 10
25.6914835201
 20
-12.1589183423
 30
0.0
 10
25.486838727
 20
-11.6447265057
 30
0.0
 10
25.2057219835
 20
-11.1683076013
 30
0.0
 10
24.9154984761
 20
-10.8100733086
 30
0.0
 10
24.6542299299
 20
-10.5512721781
 30
0.0
 10
24.4443533602
 20
-10.3721004006
 30
0.0
 10
24.2229742621
 20
-10.2074249018
 30
0.0
 10
23.9917356061
 20
-10.0568038313
 30
0.0
 10
23.7502279284
 20
-9.9230775204
 30
0.0
 10
23.5825439735
 20
-9.8470783338
 30
0.0
 10
23.4974016707
 20
-9.812380942
 30
0.0
 11
25.8437574053
 21
-13.25
 31
0.0
 11
25.8021415915
 21
-12.7001913332
 31
0.0
 11
25.6781027157
 21
-12.1630261684
 31
0.0
 11
25.4740713322
 21
-11.6509766717
 31
0.0
 11
25.1945202572
 21
-11.1760473809
 31
0.0
 11
24.8478210342
 21
-10.747755962
 31
0.0
 11
24.6519230723
 21
-10.5537738799
 31
0.0
 11
24.442448863
 21
-10.3745264041
 31
0.0
 11
24.2213468733
 21
-10.2097783874
 31
0.0
 11
23.9900348124
 21
-10.0596261011
 31
0.0
 11
23.7485679264
 21
-9.9263704088
 31
0.0
 11
23.4974016707
 21
-9.812380942
 31
0.0
  0
SPLINE
  5
4B7
100
AcDbEntity
  8
RACCORDO
100
AcDbSpline
 62
253
  6
CONTINUOUS
 70
0
 71
3
 72
18
 73
14
 74
12
 42
0.0000001
 43
0.0000001
 44
0.0000000001
 12
4.084380713
 22
1.664480828
 32
0.0
 13
-0.0001075402
 23
4.4105172286
 33
0.0
 40
0.0
 40
0.0
 40
0.0
 40
0.0
 40
0.0625387559
 40
0.1250712173
 40
0.1875980694
 40
0.2501157504
 40
0.3126249101
 40
0.3751304612
 40
0.500059094
 40
0.625005247
 40
0.749981045
 40
0.8749804551
 40
1.0
 40
1.0
 40
1.0
 40
1.0
 10
23.4974033547
 20
9.8123816584
 30
0.0
 10
23.5825473842
 20
9.8470798452
 30
0.0
 10
23.7502379213
 20
9.9230748286
 30
0.0
 10
23.991730214
 20
10.0568365661
 30
0.0
 10
24.2229908769
 20
10.207429078
 30
0.0
 10
24.4443668412
 20
10.372113724
 30
0.0
 10
24.6542397873
 20
10.5512867007
 30
0.0
 10
24.9155021347
 20
10.8100762565
 30
0.0
 10
25.2057103317
 20
11.1682981586
 30
0.0
 10
25.4868288619
 20
11.6446991447
 30
0.0
 10
25.6914750625
 20
12.1588904435
 30
0.0
 10
25.8159311472
 20
12.6980188327
 30
0.0
 10
25.8437618868
 20
13.0661997145
 30
0.0
 10
25.8437574053
 20
13.25
 30
0.0
 11
23.4974033547
 21
9.8123816584
 31
0.0
 11
23.7485741524
 21
9.9263749027
 31
0.0
 11
23.9900364236
 21
10.0596486304
 31
0.0
 11
24.2213591662
 21
10.2097887571
 31
0.0
 11
24.4424635789
 21
10.3745394765
 31
0.0
 11
24.6519358345
 21
10.5537896092
 31
0.0
 11
24.8478286899
 21
10.7477649932
 31
0.0
 11
25.1945091202
 21
11.1760330815
 31
0.0
 11
25.4740567276
 21
11.6509427275
 31
0.0
 11
25.6780941429
 21
12.1629963319
 31
0.0
 11
25.8021398264
 21
12.7001719524
 31
0.0
 11
25.8437574053
 21
13.25
 31
0.0
  0
SPLINE
  5
4B8
100
AcDbEntity
  8
RACCORDO
100
AcDbSpline
 62
253
  6
CONTINUOUS
 70
0
 71
3
 72
18
 73
14
 74
12
 42
0.0000001
 43
0.0000001
 44
0.0000000001
 12
0.000084661
 22
4.4105204788
 32
0.0
 13
-4.0843852538
 23
1.6644782966
 33
0.0
 40
0.0
 40
0.0
 40
0.0
 40
0.0
 40
0.1250150409
 40
0.2500117018
 40
0.3749860363
 40
0.4999363345
 40
0.6248716676
 40
0.6873790639
 40
0.7498881225
 40
0.8124049508
 40
0.8749312263
 40
0.9374625818
 40
1.0
 40
1.0
 40
1.0
 40
1.0
 10
25.8437574053
 20
57.75
 30
0.0
 10
25.8437609333
 20
57.9337937993
 30
0.0
 10
25.8159312932
 20
58.3019639597
 30
0.0
 10
25.6914835201
 20
58.8410816577
 30
0.0
 10
25.486838727
 20
59.3552734943
 30
0.0
 10
25.2057219835
 20
59.8316923987
 30
0.0
 10
24.9154984761
 20
60.1899266914
 30
0.0
 10
24.6542299299
 20
60.4487278219
 30
0.0
 10
24.4443533602
 20
60.6278995994
 30
0.0
 10
24.2229742621
 20
60.7925750982
 30
0.0
 10
23.9917356061
 20
60.9431961687
 30
0.0
 10
23.7502279284
 20
61.0769224796
 30
0.0
 10
23.5825439735
 20
61.1529216662
 30
0.0
 10
23.4974016707
 20
61.187619058
 30
0.0
 11
25.8437574053
 21
57.75
 31
0.0
 11
25.8021415915
 21
58.2998086668
 31
0.0
 11
25.6781027157
 21
58.8369738316
 31
0.0
 11
25.4740713322
 21
59.3490233283
 31
0.0
 11
25.1945202572
 21
59.8239526191
 31
0.0
 11
24.8478210342
 21
60.252244038
 31
0.0
 11
24.6519230723
 21
60.4462261201
 31
0.0
 11
24.442448863
 21
60.6254735959
 31
0.0
 11
24.2213468733
 21
60.7902216126
 31
0.0
 11
23.9900348124
 21
60.9403738989
 31
0.0
 11
23.7485679264
 21
61.0736295912
 31
0.0
 11
23.4974016707
 21
61.187619058
 31
0.0
  0
SPLINE
  5
4B9
100
AcDbEntity
  8
RACCORDO
100
AcDbSpline
 62
253
  6
CONTINUOUS
 70
0
 71
3
 72
18
 73
14
 74
12
 42
0.0000001
 43
0.0000001
 44
0.0000000001
 12
4.084380713
 22
1.664480828
 32
0.0
 13
-0.0001075402
 23
4.4105172286
 33
0.0
 40
0.0
 40
0.0
 40
0.0
 40
0.0
 40
0.0625387559
 40
0.1250712173
 40
0.1875980694
 40
0.2501157504
 40
0.3126249101
 40
0.3751304612
 40
0.500059094
 40
0.625005247
 40
0.749981045
 40
0.8749804551
 40
1.0
 40
1.0
 40
1.0
 40
1.0
 10
23.4974033547
 20
80.8123816584
 30
0.0
 10
23.5825473842
 20
80.8470798452
 30
0.0
 10
23.7502379213
 20
80.9230748286
 30
0.0
 10
23.991730214
 20
81.0568365661
 30
0.0
 10
24.2229908769
 20
81.207429078
 30
0.0
 10
24.4443668412
 20
81.372113724
 30
0.0
 10
24.6542397873
 20
81.5512867007
 30
0.0
 10
24.9155021347
 20
81.8100762565
 30
0.0
 10
25.2057103317
 20
82.1682981586
 30
0.0
 10
25.4868288619
 20
82.6446991447
 30
0.0
 10
25.6914750625
 20
83.1588904435
 30
0.0
 10
25.8159311472
 20
83.6980188327
 30
0.0
 10
25.8437618868
 20
84.0661997145
 30
0.0
 10
25.8437574053
 20
84.25
 30
0.0
 11
23.4974033547
 21
80.8123816584
 31
0.0
 11
23.7485741524
 21
80.9263749027
 31
0.0
 11
23.9900364236
 21
81.0596486304
 31
0.0
 11
24.2213591662
 21
81.2097887571
 31
0.0
 11
24.4424635789
 21
81.3745394765
 31
0.0
 11
24.6519358345
 21
81.5537896092
 31
0.0
 11
24.8478286899
 21
81.7477649932
 31
0.0
 11
25.1945091202
 21
82.1760330815
 31
0.0
 11
25.4740567276
 21
82.6509427275
 31
0.0
 11
25.6780941429
 21
83.1629963319
 31
0.0
 11
25.8021398264
 21
83.7001719524
 31
0.0
 11
25.8437574053
 21
84.25
 31
0.0
  0
SPLINE
  5
4BA
100
AcDbEntity
  8
RACCORDO
100
AcDbSpline
 62
253
  6
CONTINUOUS
 70
0
 71
3
 72
18
 73
14
 74
12
 42
0.0000001
 43
0.0000001
 44
0.0000000001
 12
-0.0000846857
 22
-4.4105203203
 32
0.0
 13
4.0843854274
 23
-1.6644774505
 33
0.0
 40
0.0
 40
0.0
 40
0.0
 40
0.0
 40
0.1250150427
 40
0.2500117045
 40
0.3749860424
 40
0.4999363407
 40
0.6248716743
 40
0.6873790699
 40
0.749888129
 40
0.812404957
 40
0.8749312317
 40
0.9374625849
 40
1.0
 40
1.0
 40
1.0
 40
1.0
 10
-25.8437574053
 20
84.25
 30
0.0
 10
-25.8437609343
 20
84.0662062047
 30
0.0
 10
-25.8159313126
 20
83.6980360513
 30
0.0
 10
-25.6914835228
 20
83.1589183685
 30
0.0
 10
-25.4868387612
 20
82.6447265345
 30
0.0
 10
-25.2057220111
 20
82.1683076479
 30
0.0
 10
-24.9154985051
 20
81.8100733773
 30
0.0
 10
-24.654229979
 20
81.551272246
 30
0.0
 10
-24.4443534721
 20
81.3721004154
 30
0.0
 10
-24.2229743953
 20
81.2074248896
 30
0.0
 10
-23.991735547
 20
81.0568041547
 30
0.0
 10
-23.7502280665
 20
80.9230775429
 30
0.0
 10
-23.5825441099
 20
80.8470783734
 30
0.0
 10
-23.4974018076
 20
80.8123810009
 30
0.0
 11
-25.8437574053
 21
84.25
 31
0.0
 11
-25.8021416035
 21
83.7001913442
 31
0.0
 11
-25.6781027273
 21
83.1630261956
 31
0.0
 11
-25.4740713578
 21
82.6509766986
 31
0.0
 11
-25.1945202859
 21
82.1760474285
 31
0.0
 11
-24.8478210688
 21
81.7477560278
 31
0.0
 11
-24.6519231307
 21
81.5537739402
 31
0.0
 11
-24.4424489668
 21
81.3745264223
 31
0.0
 11
-24.2213469697
 21
81.2097784346
 31
0.0
 11
-23.9900348159
 21
81.059626317
 31
0.0
 11
-23.7485680298
 21
80.926370485
 31
0.0
 11
-23.4974018076
 21
80.8123810009
 31
0.0
  0
SPLINE
  5
4BB
100
AcDbEntity
  8
RACCORDO
100
AcDbSpline
 62
253
  6
CONTINUOUS
 70
0
 71
3
 72
18
 73
14
 74
12
 42
0.0000001
 43
0.0000001
 44
0.0000000001
 12
-4.0843807036
 22
-1.6644805687
 32
0.0
 13
0.0001068624
 23
-4.410517122
 33
0.0
 40
0.0
 40
0.0
 40
0.0
 40
0.0
 40
0.062538752
 40
0.1250712112
 40
0.1875980628
 40
0.2501157441
 40
0.3126249033
 40
0.3751304541
 40
0.500059087
 40
0.6250052419
 40
0.7499810404
 40
0.8749804521
 40
1.0
 40
1.0
 40
1.0
 40
1.0
 10
-23.4974034479
 20
61.1876183012
 30
0.0
 10
-23.582547472
 20
61.152920122
 30
0.0
 10
-23.7502379678
 20
61.0769250748
 30
0.0
 10
-23.9917302181
 20
60.9431633055
 30
0.0
 10
-24.2229909441
 20
60.7925709097
 30
0.0
 10
-24.4443668941
 20
60.6278862519
 30
0.0
 10
-24.6542398046
 20
60.4487132474
 30
0.0
 10
-24.9155021703
 20
60.1899237249
 30
0.0
 10
-25.2057103483
 20
59.8317018158
 30
0.0
 10
-25.486828879
 20
59.3553008421
 30
0.0
 10
-25.6914750697
 20
58.841109549
 30
0.0
 10
-25.8159311768
 20
58.3019811664
 30
0.0
 10
-25.8437618586
 20
57.9338002855
 30
0.0
 10
-25.8437574053
 20
57.75
 30
0.0
 11
-23.4974034479
 21
61.1876183012
 31
0.0
 11
-23.7485741994
 21
61.0736250128
 31
0.0
 11
-23.9900364422
 21
60.9403512677
 31
0.0
 11
-24.2213592192
 21
60.7902112102
 31
0.0
 11
-24.4424636292
 21
60.625460496
 31
0.0
 11
-24.6519358598
 21
60.4462103479
 31
0.0
 11
-24.8478287174
 21
60.2522349774
 31
0.0
 11
-25.194509139
 21
59.8239668987
 31
0.0
 11
-25.4740567437
 21
59.3490572566
 31
0.0
 11
-25.6780941549
 21
58.8370036627
 31
0.0
 11
-25.8021398374
 21
58.2998280484
 31
0.0
 11
-25.8437574053
 21
57.75
 31
0.0
  0
SPLINE
  5
4BC
100
AcDbEntity
  8
RACCORDO
100
AcDbSpline
 62
253
  6
CONTINUOUS
 70
0
 71
3
 72
18
 73
14
 74
12
 42
0.0000001
 43
0.0000001
 44
0.0000000001
 12
-0.0000846857
 22
-4.4105203203
 32
0.0
 13
4.0843854274
 23
-1.6644774505
 33
0.0
 40
0.0
 40
0.0
 40
0.0
 40
0.0
 40
0.1250150427
 40
0.2500117045
 40
0.3749860424
 40
0.4999363407
 40
0.6248716743
 40
0.6873790699
 40
0.749888129
 40
0.812404957
 40
0.8749312317
 40
0.9374625849
 40
1.0
 40
1.0
 40
1.0
 40
1.0
 10
-25.8437574053
 20
13.25
 30
0.0
 10
-25.8437609343
 20
13.0662062047
 30
0.0
 10
-25.8159313126
 20
12.6980360513
 30
0.0
 10
-25.6914835227
 20
12.1589183685
 30
0.0
 10
-25.4868387612
 20
11.6447265345
 30
0.0
 10
-25.2057220111
 20
11.1683076479
 30
0.0
 10
-24.9154985051
 20
10.8100733773
 30
0.0
 10
-24.654229979
 20
10.551272246
 30
0.0
 10
-24.4443534721
 20
10.3721004154
 30
0.0
 10
-24.2229743953
 20
10.2074248896
 30
0.0
 10
-23.991735547
 20
10.0568041547
 30
0.0
 10
-23.7502280665
 20
9.9230775429
 30
0.0
 10
-23.5825441099
 20
9.8470783734
 30
0.0
 10
-23.4974018076
 20
9.8123810009
 30
0.0
 11
-25.8437574053
 21
13.25
 31
0.0
 11
-25.8021416035
 21
12.7001913442
 31
0.0
 11
-25.6781027273
 21
12.1630261956
 31
0.0
 11
-25.4740713578
 21
11.6509766986
 31
0.0
 11
-25.1945202859
 21
11.1760474285
 31
0.0
 11
-24.8478210688
 21
10.7477560278
 31
0.0
 11
-24.6519231307
 21
10.5537739402
 31
0.0
 11
-24.4424489668
 21
10.3745264223
 31
0.0
 11
-24.2213469697
 21
10.2097784346
 31
0.0
 11
-23.9900348159
 21
10.059626317
 31
0.0
 11
-23.7485680298
 21
9.926370485
 31
0.0
 11
-23.4974018076
 21
9.8123810009
 31
0.0
  0
SPLINE
  5
4BD
100
AcDbEntity
  8
RACCORDO
100
AcDbSpline
 62
253
  6
CONTINUOUS
 70
0
 71
3
 72
18
 73
14
 74
12
 42
0.0000001
 43
0.0000001
 44
0.0000000001
 12
-4.0843807036
 22
-1.6644805687
 32
0.0
 13
0.0001068624
 23
-4.410517122
 33
0.0
 40
0.0
 40
0.0
 40
0.0
 40
0.0
 40
0.062538752
 40
0.1250712112
 40
0.1875980628
 40
0.2501157441
 40
0.3126249033
 40
0.3751304541
 40
0.500059087
 40
0.6250052419
 40
0.7499810404
 40
0.8749804521
 40
1.0
 40
1.0
 40
1.0
 40
1.0
 10
-23.4974034479
 20
-9.8123816988
 30
0.0
 10
-23.582547472
 20
-9.847079878
 30
0.0
 10
-23.7502379678
 20
-9.9230749252
 30
0.0
 10
-23.9917302181
 20
-10.0568366945
 30
0.0
 10
-24.2229909441
 20
-10.2074290903
 30
0.0
 10
-24.4443668941
 20
-10.3721137481
 30
0.0
 10
-24.6542398046
 20
-10.5512867526
 30
0.0
 10
-24.9155021703
 20
-10.8100762751
 30
0.0
 10
-25.2057103483
 20
-11.1682981842
 30
0.0
 10
-25.486828879
 20
-11.6446991579
 30
0.0
 10
-25.6914750697
 20
-12.158890451
 30
0.0
 10
-25.8159311768
 20
-12.6980188336
 30
0.0
 10
-25.8437618586
 20
-13.0661997145
 30
0.0
 10
-25.8437574053
 20
-13.25
 30
0.0
 11
-23.4974034479
 21
-9.8123816988
 31
0.0
 11
-23.7485741994
 21
-9.9263749872
 31
0.0
 11
-23.9900364422
 21
-10.0596487323
 31
0.0
 11
-24.2213592192
 21
-10.2097887898
 31
0.0
 11
-24.4424636292
 21
-10.374539504
 31
0.0
 11
-24.6519358598
 21
-10.5537896521
 31
0.0
 11
-24.8478287174
 21
-10.7477650226
 31
0.0
 11
-25.194509139
 21
-11.1760331013
 31
0.0
 11
-25.4740567437
 21
-11.6509427434
 31
0.0
 11
-25.6780941549
 21
-12.1629963373
 31
0.0
 11
-25.8021398374
 21
-12.7001719516
 31
0.0
 11
-25.8437574053
 21
-13.25
 31
0.0
  0
SPLINE
  5
4BE
100
AcDbEntity
  8
RACCORDO
100
AcDbSpline
 62
253
  6
CONTINUOUS
 70
0
 71
3
 72
18
 73
14
 74
12
 42
0.0000001
 43
0.0000001
 44
0.0000000001
 12
-0.0000846857
 22
-4.4105203203
 32
0.0
 13
4.0843854274
 23
-1.6644774505
 33
0.0
 40
0.0
 40
0.0
 40
0.0
 40
0.0
 40
0.1250150427
 40
0.2500117045
 40
0.3749860424
 40
0.4999363407
 40
0.6248716743
 40
0.6873790699
 40
0.749888129
 40
0.812404957
 40
0.8749312317
 40
0.9374625849
 40
1.0
 40
1.0
 40
1.0
 40
1.0
 10
-25.8437574053
 20
-57.75
 30
0.0
 10
-25.8437609343
 20
-57.9337937953
 30
0.0
 10
-25.8159313126
 20
-58.3019639487
 30
0.0
 10
-25.6914835227
 20
-58.8410816315
 30
0.0
 10
-25.4868387612
 20
-59.3552734655
 30
0.0
 10
-25.2057220111
 20
-59.8316923521
 30
0.0
 10
-24.9154985051
 20
-60.1899266227
 30
0.0
 10
-24.654229979
 20
-60.448727754
 30
0.0
 10
-24.4443534721
 20
-60.6278995846
 30
0.0
 10
-24.2229743953
 20
-60.7925751104
 30
0.0
 10
-23.991735547
 20
-60.9431958453
 30
0.0
 10
-23.7502280665
 20
-61.0769224571
 30
0.0
 10
-23.5825441099
 20
-61.1529216266
 30
0.0
 10
-23.4974018076
 20
-61.1876189991
 30
0.0
 11
-25.8437574053
 21
-57.75
 31
0.0
 11
-25.8021416035
 21
-58.2998086558
 31
0.0
 11
-25.6781027273
 21
-58.8369738044
 31
0.0
 11
-25.4740713578
 21
-59.3490233014
 31
0.0
 11
-25.1945202859
 21
-59.8239525715
 31
0.0
 11
-24.8478210688
 21
-60.2522439722
 31
0.0
 11
-24.6519231307
 21
-60.4462260598
 31
0.0
 11
-24.4424489668
 21
-60.6254735777
 31
0.0
 11
-24.2213469697
 21
-60.7902215654
 31
0.0
 11
-23.9900348159
 21
-60.940373683
 31
0.0
 11
-23.7485680298
 21
-61.073629515
 31
0.0
 11
-23.4974018076
 21
-61.1876189991
 31
0.0
  0
SPLINE
  5
4BF
100
AcDbEntity
  8
RACCORDO
100
AcDbSpline
 62
253
  6
CONTINUOUS
 70
0
 71
3
 72
18
 73
14
 74
12
 42
0.0000001
 43
0.0000001
 44
0.0000000001
 12
-4.0843807036
 22
-1.6644805687
 32
0.0
 13
0.0001068624
 23
-4.410517122
 33
0.0
 40
0.0
 40
0.0
 40
0.0
 40
0.0
 40
0.062538752
 40
0.1250712112
 40
0.1875980628
 40
0.2501157441
 40
0.3126249033
 40
0.3751304541
 40
0.500059087
 40
0.6250052419
 40
0.7499810404
 40
0.8749804521
 40
1.0
 40
1.0
 40
1.0
 40
1.0
 10
-23.4974034479
 20
-80.8123816988
 30
0.0
 10
-23.582547472
 20
-80.847079878
 30
0.0
 10
-23.7502379678
 20
-80.9230749252
 30
0.0
 10
-23.9917302181
 20
-81.0568366945
 30
0.0
 10
-24.2229909441
 20
-81.2074290903
 30
0.0
 10
-24.4443668941
 20
-81.3721137481
 30
0.0
 10
-24.6542398046
 20
-81.5512867526
 30
0.0
 10
-24.9155021703
 20
-81.8100762751
 30
0.0
 10
-25.2057103483
 20
-82.1682981842
 30
0.0
 10
-25.486828879
 20
-82.6446991579
 30
0.0
 10
-25.6914750697
 20
-83.158890451
 30
0.0
 10
-25.8159311768
 20
-83.6980188336
 30
0.0
 10
-25.8437618586
 20
-84.0661997145
 30
0.0
 10
-25.8437574053
 20
-84.25
 30
0.0
 11
-23.4974034479
 21
-80.8123816988
 31
0.0
 11
-23.7485741994
 21
-80.9263749872
 31
0.0
 11
-23.9900364422
 21
-81.0596487323
 31
0.0
 11
-24.2213592192
 21
-81.2097887898
 31
0.0
 11
-24.4424636292
 21
-81.374539504
 31
0.0
 11
-24.6519358598
 21
-81.5537896521
 31
0.0
 11
-24.8478287174
 21
-81.7477650226
 31
0.0
 11
-25.194509139
 21
-82.1760331013
 31
0.0
 11
-25.4740567437
 21
-82.6509427434
 31
0.0
 11
-25.6780941549
 21
-83.1629963373
 31
0.0
 11
-25.8021398374
 21
-83.7001719516
 31
0.0
 11
-25.8437574053
 21
-84.25
 31
0.0
  0
SPLINE
  5
4C0
100
AcDbEntity
  8
RACCORDO
100
AcDbSpline
 62
7
  6
CONTINUOUS
 70
0
 71
3
 72
11
 73
7
 74
5
 42
0.0000001
 43
0.0000001
 44
0.0000000001
 12
-0.0131684573
 22
0.0187105774
 32
0.0
 13
0.0015400316
 23
0.0228281029
 33
0.0
 40
0.0
 40
0.0
 40
0.0
 40
0.0
 40
0.5234513998
 40
0.8063883835
 40
0.9480342457
 40
1.0
 40
1.0
 40
1.0
 40
1.0
 10
-76.1222456941
 20
132.3246056896
 30
0.0
 10
-76.1245433766
 20
132.3278703823
 30
0.0
 10
-76.1279495813
 20
132.3329998655
 30
0.0
 10
-76.1310265325
 20
132.3396079537
 30
0.0
 10
-76.1323840729
 20
132.3429084718
 30
0.0
 10
-76.1329811699
 20
132.3443304781
 30
0.0
 10
-76.1329544936
 20
132.3447259047
 30
0.0
 11
-76.1222456941
 21
132.3246056896
 31
0.0
 11
-76.1286330668
 21
132.3347368068
 31
0.0
 11
-76.1314102711
 21
132.3405844196
 31
0.0
 11
-76.1326639277
 21
132.34357298
 31
0.0
 11
-76.1329544936
 21
132.3447259047
 31
0.0
  0
SPLINE
  5
4C1
100
AcDbEntity
  8
RACCORDO
100
AcDbSpline
 62
253
  6
CONTINUOUS
 70
0
 71
3
 72
23
 73
19
 74
17
 42
0.0000001
 43
0.0000001
 44
0.0000000001
 12
2.7681879116
 22
0.1428483183
 32
0.0
 13
-0.0930749828
 23
-2.7703081062
 33
0.0
 40
0.0
 40
0.0
 40
0.0
 40
0.0
 40
0.0015894246
 40
0.0052817304
 40
0.0113056382
 40
0.0196890148
 40
0.0304230768
 40
0.0434898639
 40
0.076496808
 40
0.1184044214
 40
0.1688114236
 40
0.2272323321
 40
0.2931042755
 40
0.3657921712
 40
0.4445939386
 40
0.6174429978
 40
0.8049867981
 40
1.0
 40
1.0
 40
1.0
 40
1.0
 10
-72.3353882024
 20
146.2694281234
 30
0.0
 10
-72.3339215938
 20
146.2695038056
 30
0.0
 10
-72.3309728004
 20
146.2639008919
 30
0.0
 10
-72.3291952392
 20
146.2546682678
 30
0.0
 10
-72.3265976254
 20
146.2375655436
 30
0.0
 10
-72.3246392477
 20
146.2146565255
 30
0.0
 10
-72.3226931108
 20
146.1848893055
 30
0.0
 10
-72.3202928378
 20
146.1324975639
 30
0.0
 10
-72.3180196601
 20
146.0512055776
 30
0.0
 10
-72.3162083012
 20
145.9354389786
 30
0.0
 10
-72.3151458192
 20
145.7961643816
 30
0.0
 10
-72.3148174557
 20
145.6347504476
 30
0.0
 10
-72.3152229831
 20
145.4527482202
 30
0.0
 10
-72.31638121
 20
145.2519185404
 30
0.0
 10
-72.3190450876
 20
144.9522549027
 30
0.0
 10
-72.3245042457
 20
144.5464918695
 30
0.0
 10
-72.3346570938
 20
144.0334174751
 30
0.0
 10
-72.3445290279
 20
143.680082218
 30
0.0
 10
-72.3505793113
 20
143.5
 30
0.0
 11
-72.3353882024
 21
146.2694281234
 31
0.0
 11
-72.3323386749
 21
146.2662484379
 31
0.0
 11
-72.329581069
 21
146.2563923448
 31
0.0
 11
-72.3271015354
 21
146.2398799766
 31
0.0
 11
-72.3248864166
 21
146.2167481552
 31
0.0
 11
-72.322922352
 21
146.1870596139
 31
0.0
 11
-72.3211961927
 21
146.1508813195
 31
0.0
 11
-72.3184151715
 21
146.0594325981
 31
0.0
 11
-72.3164720266
 21
145.9432863449
 31
0.0
 11
-72.3153229914
 21
145.8035693519
 31
0.0
 11
-72.3149396038
 21
145.6416345721
 31
0.0
 11
-72.3153113491
 21
145.4590464075
 31
0.0
 11
-72.3164492415
 21
145.2575681361
 31
0.0
 11
-72.3183767032
 21
145.0391482907
 31
0.0
 11
-72.3248065694
 21
144.5600761086
 31
0.0
 11
-72.3352124169
 21
144.0403330076
 31
0.0
 11
-72.3505793113
 21
143.5
 31
0.0
  0
SPLINE
  5
4C2
100
AcDbEntity
  8
RACCORDO
100
AcDbSpline
 62
253
  6
CONTINUOUS
 70
0
 71
3
 72
13
 73
9
 74
7
 42
0.0000001
 43
0.0000001
 44
0.0000000001
 12
-0.0471836673
 22
22.2499719464
 32
0.0
 13
0.0000851427
 23
22.2500219754
 33
0.0
 40
0.0
 40
0.0
 40
0.0
 40
0.0
 40
0.1249998948
 40
0.2499998993
 40
0.3749999097
 40
0.4999999254
 40
0.7499999622
 40
1.0
 40
1.0
 40
1.0
 40
1.0
 10
-76.7282899923
 20
-128.7499996203
 30
0.0
 10
-76.7302559768
 20
-127.8229182364
 30
0.0
 10
-76.7308621359
 20
-125.9687491573
 30
0.0
 10
-76.731973409
 20
-123.1874978727
 30
0.0
 10
-76.732747063
 20
-120.4062448452
 30
0.0
 10
-76.7333488588
 20
-116.6979074761
 30
0.0
 10
-76.7335505117
 20
-112.0624855287
 30
0.0
 10
-76.7334494793
 20
-108.3541479886
 30
0.0
 10
-76.7334423841
 20
-106.4999792103
 30
0.0
 11
-76.7282899923
 21
-128.7499996203
 31
0.0
 11
-76.730895808
 21
-125.9687504356
 31
0.0
 11
-76.7319171391
 21
-123.1874977749
 31
0.0
 11
-76.7326933451
 21
-120.4062449057
 31
0.0
 11
-76.7331617037
 21
-117.6249918478
 31
0.0
 11
-76.733484923
 21
-112.0624855451
 31
0.0
 11
-76.7334423841
 21
-106.4999792103
 31
0.0
  0
SPLINE
  5
4C3
100
AcDbEntity
  8
RACCORDO
100
AcDbSpline
 62
253
  6
CONTINUOUS
 70
0
 71
3
 72
11
 73
7
 74
5
 42
0.0000001
 43
0.0000001
 44
0.0000000001
 12
0.0000012621
 22
1.8381217606
 32
0.0
 13
-0.0000016938
 23
1.8381217606
 33
0.0
 40
0.0
 40
0.0
 40
0.0
 40
0.0
 40
0.3229402305
 40
0.6139459732
 40
0.8457153538
 40
1.0
 40
1.0
 40
1.0
 40
1.0
 10
-76.7334423962
 20
-84.2499916125
 30
0.0
 10
-76.7334422604
 20
-84.0521237908
 30
0.0
 10
-76.7354745224
 20
-83.6759533776
 30
0.0
 10
-76.7435418347
 20
-83.1578251512
 30
0.0
 10
-76.7532564302
 20
-82.743117564
 30
0.0
 10
-76.759354812
 20
-82.5066238137
 30
0.0
 10
-76.7593548992
 20
-82.4120924918
 30
0.0
 11
-76.7334423962
 21
-84.2499916125
 31
0.0
 11
-76.7366383237
 21
-83.6563967509
 31
0.0
 11
-76.7448859302
 21
-83.1215563508
 31
0.0
 11
-76.7545697467
 21
-82.6956460839
 31
0.0
 11
-76.7593548992
 21
-82.4120924918
 31
0.0
  0
SPLINE
  5
4C4
100
AcDbEntity
  8
RACCORDO
100
AcDbSpline
 62
253
  6
CONTINUOUS
 70
0
 71
3
 72
11
 73
7
 74
5
 42
0.0000001
 43
0.0000001
 44
0.0000000001
 12
0.0000020091
 22
1.8381177103
 32
0.0
 13
-0.0000006764
 23
1.8381177103
 33
0.0
 40
0.0
 40
0.0
 40
0.0
 40
0.0
 40
0.1542880998
 40
0.3860503035
 40
0.6770506019
 40
1.0
 40
1.0
 40
1.0
 40
1.0
 10
-76.7593548992
 20
-59.5879075082
 30
0.0
 10
-76.7593547958
 20
-59.4933742786
 30
0.0
 10
-76.7532564698
 20
-59.2568833305
 30
0.0
 10
-76.7435419898
 20
-58.8421822731
 30
0.0
 10
-76.7354745098
 20
-58.3240573075
 30
0.0
 10
-76.7334423301
 20
-57.9478854411
 30
0.0
 10
-76.7334424029
 20
-57.7500124384
 30
0.0
 11
-76.7593548992
 21
-59.5879075082
 31
0.0
 11
-76.7545696229
 21
-59.3043481941
 31
0.0
 11
-76.7448860709
 21
-58.8784520555
 31
0.0
 11
-76.7366384747
 21
-58.3436228426
 31
0.0
 11
-76.7334424029
 21
-57.7500124384
 31
0.0
  0
SPLINE
  5
4C5
100
AcDbEntity
  8
RACCORDO
100
AcDbSpline
 62
253
  6
CONTINUOUS
 70
0
 71
3
 72
11
 73
7
 74
5
 42
0.0000001
 43
0.0000001
 44
0.0000000001
 12
0.0000012621
 22
1.8381217606
 32
0.0
 13
-0.0000016938
 23
1.8381217606
 33
0.0
 40
0.0
 40
0.0
 40
0.0
 40
0.0
 40
0.3229402305
 40
0.6139459732
 40
0.8457153538
 40
1.0
 40
1.0
 40
1.0
 40
1.0
 10
-76.7334423962
 20
-13.2499916125
 30
0.0
 10
-76.7334422604
 20
-13.0521237908
 30
0.0
 10
-76.7354745224
 20
-12.6759533776
 30
0.0
 10
-76.7435418347
 20
-12.1578251512
 30
0.0
 10
-76.7532564302
 20
-11.743117564
 30
0.0
 10
-76.759354812
 20
-11.5066238137
 30
0.0
 10
-76.7593548992
 20
-11.4120924918
 30
0.0
 11
-76.7334423962
 21
-13.2499916125
 31
0.0
 11
-76.7366383237
 21
-12.6563967509
 31
0.0
 11
-76.7448859302
 21
-12.1215563508
 31
0.0
 11
-76.7545697467
 21
-11.6956460839
 31
0.0
 11
-76.7593548992
 21
-11.4120924918
 31
0.0
  0
SPLINE
  5
4C6
100
AcDbEntity
  8
RACCORDO
100
AcDbSpline
 62
253
  6
CONTINUOUS
 70
0
 71
3
 72
23
 73
19
 74
17
 42
0.0000001
 43
0.0000001
 44
0.0000000001
 12
0.0930749598
 22
-2.7703081071
 32
0.0
 13
-2.7681879077
 23
0.1428483942
 33
0.0
 40
0.0
 40
0.0
 40
0.0
 40
0.0
 40
0.1950132019
 40
0.3825570022
 40
0.5554060614
 40
0.6342078288
 40
0.7068957245
 40
0.7727676679
 40
0.8311885764
 40
0.8815955786
 40
0.9235031919
 40
0.9565101361
 40
0.9695769232
 40
0.9803109852
 40
0.9886943617
 40
0.9947182695
 40
0.9984105754
 40
1.0
 40
1.0
 40
1.0
 40
1.0
 10
-72.3505793113
 20
-143.5
 30
0.0
 10
-72.3445290294
 20
-143.6800822181
 30
0.0
 10
-72.3346570927
 20
-144.0334174751
 30
0.0
 10
-72.3245042458
 20
-144.5464918695
 30
0.0
 10
-72.3190450876
 20
-144.9522549027
 30
0.0
 10
-72.31638121
 20
-145.2519185404
 30
0.0
 10
-72.3152229831
 20
-145.4527482201
 30
0.0
 10
-72.3148174557
 20
-145.6347504476
 30
0.0
 10
-72.3151458192
 20
-145.7961643816
 30
0.0
 10
-72.3162083012
 20
-145.9354389786
 30
0.0
 10
-72.3180196602
 20
-146.0512055776
 30
0.0
 10
-72.3202928377
 20
-146.1324975639
 30
0.0
 10
-72.3226931107
 20
-146.1848893055
 30
0.0
 10
-72.3246392479
 20
-146.2146565254
 30
0.0
 10
-72.3265976256
 20
-146.2375655436
 30
0.0
 10
-72.3291952394
 20
-146.2546682677
 30
0.0
 10
-72.3309728001
 20
-146.2639008921
 30
0.0
 10
-72.3339215938
 20
-146.2695038057
 30
0.0
 10
-72.3353882024
 20
-146.2694281234
 30
0.0
 11
-72.3505793113
 21
-143.5
 31
0.0
 11
-72.3352124166
 21
-144.0403330076
 31
0.0
 11
-72.3248065694
 21
-144.5600761086
 31
0.0
 11
-72.3183767032
 21
-145.0391482907
 31
0.0
 11
-72.3164492415
 21
-145.2575681361
 31
0.0
 11
-72.3153113492
 21
-145.4590464075
 31
0.0
 11
-72.3149396038
 21
-145.6416345721
 31
0.0
 11
-72.3153229914
 21
-145.8035693519
 31
0.0
 11
-72.3164720266
 21
-145.9432863449
 31
0.0
 11
-72.3184151715
 21
-146.0594325981
 31
0.0
 11
-72.3211961926
 21
-146.1508813195
 31
0.0
 11
-72.3229223519
 21
-146.1870596139
 31
0.0
 11
-72.3248864168
 21
-146.2167481552
 31
0.0
 11
-72.3271015357
 21
-146.2398799766
 31
0.0
 11
-72.329581069
 21
-146.2563923448
 31
0.0
 11
-72.3323386747
 21
-146.266248438
 31
0.0
 11
-72.3353882024
 21
-146.2694281234
 31
0.0
  0
SPLINE
  5
4C7
100
AcDbEntity
  8
RACCORDO
100
AcDbSpline
 62
253
  6
CONTINUOUS
 70
0
 71
3
 72
11
 73
7
 74
5
 42
0.0000001
 43
0.0000001
 44
0.0000000001
 12
0.0000020091
 22
1.8381177103
 32
0.0
 13
-0.0000006764
 23
1.8381177103
 33
0.0
 40
0.0
 40
0.0
 40
0.0
 40
0.0
 40
0.1542880998
 40
0.3860503035
 40
0.6770506019
 40
1.0
 40
1.0
 40
1.0
 40
1.0
 10
-76.7593548992
 20
11.4120924918
 30
0.0
 10
-76.7593547958
 20
11.5066257214
 30
0.0
 10
-76.7532564698
 20
11.7431166695
 30
0.0
 10
-76.7435419898
 20
12.1578177269
 30
0.0
 10
-76.7354745098
 20
12.6759426925
 30
0.0
 10
-76.7334423301
 20
13.0521145589
 30
0.0
 10
-76.7334424029
 20
13.2499875616
 30
0.0
 11
-76.7593548992
 21
11.4120924918
 31
0.0
 11
-76.7545696229
 21
11.6956518059
 31
0.0
 11
-76.7448860709
 21
12.1215479445
 31
0.0
 11
-76.7366384747
 21
12.6563771574
 31
0.0
 11
-76.7334424029
 21
13.2499875616
 31
0.0
  0
SPLINE
  5
4C8
100
AcDbEntity
  8
RACCORDO
100
AcDbSpline
 62
253
  6
CONTINUOUS
 70
0
 71
3
 72
28
 73
24
 74
22
 42
0.0000001
 43
0.0000001
 44
0.0000000001
 12
-1.9419910138
 22
-36.9500415764
 32
0.0
 13
0.0002175001
 23
-37.0010391955
 33
0.0
 40
0.0
 40
0.0
 40
0.0
 40
0.0
 40
0.0078124545
 40
0.0156249022
 40
0.0234373173
 40
0.0273435647
 40
0.0312498148
 40
0.0468748153
 40
0.0624998159
 40
0.0781248166
 40
0.0937498175
 40
0.1249998173
 40
0.1562498173
 40
0.187499819
 40
0.24999981
 40
0.3124998235
 40
0.3749998394
 40
0.4374998554
 40
0.4999998714
 40
0.624999903
 40
0.7499999349
 40
0.8749999673
 40
1.0
 40
1.0
 40
1.0
 40
1.0
 10
-72.3505793113
 20
143.5
 30
0.0
 10
-72.3556365502
 20
143.4037764933
 30
0.0
 10
-72.3649642892
 20
143.2112867565
 30
0.0
 10
-72.3761378207
 20
142.9224296919
 30
0.0
 10
-72.3822955579
 20
142.6816056198
 30
0.0
 10
-72.3845575247
 20
142.4889052303
 30
0.0
 10
-72.3882717067
 20
142.1998588043
 30
0.0
 10
-72.3938524045
 20
141.7662885413
 30
0.0
 10
-72.4012370052
 20
141.1881945279
 30
0.0
 10
-72.4084790396
 20
140.6100985881
 30
0.0
 10
-72.4178333942
 20
139.8393003504
 30
0.0
 10
-72.4286399861
 20
138.8757917669
 30
0.0
 10
-72.4393925301
 20
137.7195584982
 30
0.0
 10
-72.4506709039
 20
136.1778888372
 30
0.0
 10
-72.4591350927
 20
134.2507663373
 30
0.0
 10
-72.4643852981
 20
131.9382070391
 30
0.0
 10
-72.4692537358
 20
129.6256466497
 30
0.0
 10
-72.4735069264
 20
127.3130849845
 30
0.0
 10
-72.4783494257
 20
124.2296680414
 30
0.0
 10
-72.4829377748
 20
120.3753947062
 30
0.0
 10
-72.486324713
 20
115.7502647324
 30
0.0
 10
-72.4879652472
 20
111.1251338434
 30
0.0
 10
-72.4881979262
 20
108.0417130896
 30
0.0
 10
-72.4881888637
 20
106.5000027202
 30
0.0
 11
-72.3505793113
 21
143.5
 31
0.0
 11
-72.3644946163
 21
143.2112661876
 31
0.0
 11
-72.3755071256
 21
142.9224073522
 31
0.0
 11
-72.3826390191
 21
142.633427865
 31
0.0
 11
-72.3845842921
 21
142.4889057424
 31
0.0
 11
-72.3864148249
 21
142.3443820219
 31
0.0
 11
-72.3938430162
 21
141.766288488
 31
0.0
 11
-72.4012132441
 21
141.1881942086
 31
0.0
 11
-72.4084413282
 21
140.6100981311
 31
0.0
 11
-72.4154357156
 21
140.031999174
 31
0.0
 11
-72.4282707583
 21
138.8757879417
 31
0.0
 11
-72.4390102361
 21
137.7195553416
 31
0.0
 11
-72.4474757259
 21
136.5633037937
 31
0.0
 11
-72.4583172882
 21
134.2507645918
 31
0.0
 11
-72.46432167
 21
131.9382069389
 31
0.0
 11
-72.4691511946
 21
129.6256464433
 31
0.0
 11
-72.4734033737
 21
127.3130848116
 31
0.0
 11
-72.4770411492
 21
125.0005221276
 31
0.0
 11
-72.4825845947
 21
120.3753943843
 31
0.0
 11
-72.4860336457
 21
115.7502645872
 31
0.0
 11
-72.4877499946
 21
111.1251338077
 31
0.0
 11
-72.4881888637
 21
106.5000027202
 31
0.0
  0
SPLINE
  5
4C9
100
AcDbEntity
  8
RACCORDO
100
AcDbSpline
 62
253
  6
CONTINUOUS
 70
0
 71
3
 72
11
 73
7
 74
5
 42
0.0000001
 43
0.0000001
 44
0.0000000001
 12
0.0000012621
 22
1.8381217606
 32
0.0
 13
-0.0000016938
 23
1.8381217606
 33
0.0
 40
0.0
 40
0.0
 40
0.0
 40
0.0
 40
0.3229402305
 40
0.6139459732
 40
0.8457153538
 40
1.0
 40
1.0
 40
1.0
 40
1.0
 10
-76.7334423962
 20
57.7500083875
 30
0.0
 10
-76.7334422604
 20
57.9478762092
 30
0.0
 10
-76.7354745224
 20
58.3240466224
 30
0.0
 10
-76.7435418347
 20
58.8421748488
 30
0.0
 10
-76.7532564302
 20
59.256882436
 30
0.0
 10
-76.759354812
 20
59.4933761863
 30
0.0
 10
-76.7593548992
 20
59.5879075082
 30
0.0
 11
-76.7334423962
 21
57.7500083875
 31
0.0
 11
-76.7366383237
 21
58.3436032491
 31
0.0
 11
-76.7448859302
 21
58.8784436492
 31
0.0
 11
-76.7545697467
 21
59.3043539161
 31
0.0
 11
-76.7593548992
 21
59.5879075082
 31
0.0
  0
SPLINE
  5
4CA
100
AcDbEntity
  8
RACCORDO
100
AcDbSpline
 62
253
  6
CONTINUOUS
 70
0
 71
3
 72
28
 73
24
 74
22
 42
0.0000001
 43
0.0000001
 44
0.0000000001
 12
-0.0002175029
 22
-37.0010391924
 32
0.0
 13
1.9419919257
 23
-36.9500415254
 33
0.0
 40
0.0
 40
0.0
 40
0.0
 40
0.0
 40
0.1250000327
 40
0.2500000652
 40
0.3750000973
 40
0.5000001288
 40
0.562500145
 40
0.625000161
 40
0.6875001769
 40
0.7500001904
 40
0.8125001815
 40
0.8437501832
 40
0.8750001833
 40
0.9062501832
 40
0.921875184
 40
0.9375001847
 40
0.9531251853
 40
0.9687501858
 40
0.9726564359
 40
0.9765626833
 40
0.9843750984
 40
0.9921875457
 40
1.0
 40
1.0
 40
1.0
 40
1.0
 10
-72.4881888637
 20
-106.5000027203
 30
0.0
 10
-72.4881979263
 20
-108.0417130904
 30
0.0
 10
-72.4879652465
 20
-111.1251338457
 30
0.0
 10
-72.4863247136
 20
-115.750264737
 30
0.0
 10
-72.4829377713
 20
-120.3753947131
 30
0.0
 10
-72.4783494373
 20
-124.2296680502
 30
0.0
 10
-72.4735069192
 20
-127.3130849948
 30
0.0
 10
-72.469253799
 20
-129.6256466613
 30
0.0
 10
-72.4643853275
 20
-131.9382070519
 30
0.0
 10
-72.459135038
 20
-134.2507663515
 30
0.0
 10
-72.450670908
 20
-136.1778888534
 30
0.0
 10
-72.4393925151
 20
-137.7195585161
 30
0.0
 10
-72.4286400001
 20
-138.8757917862
 30
0.0
 10
-72.41783338
 20
-139.8393003703
 30
0.0
 10
-72.4084790506
 20
-140.6100986088
 30
0.0
 10
-72.4012369886
 20
-141.1881945485
 30
0.0
 10
-72.3938524901
 20
-141.7662885636
 30
0.0
 10
-72.3882715231
 20
-142.1998588231
 30
0.0
 10
-72.3845575845
 20
-142.4889052523
 30
0.0
 10
-72.3822950947
 20
-142.681605633
 30
0.0
 10
-72.3761379662
 20
-142.922429713
 30
0.0
 10
-72.3649642355
 20
-143.2112867656
 30
0.0
 10
-72.3556365524
 20
-143.403776497
 30
0.0
 10
-72.3505793113
 20
-143.5
 30
0.0
 11
-72.4881888637
 21
-106.5000027203
 31
0.0
 11
-72.4877499943
 21
-111.12513381
 31
0.0
 11
-72.4860336454
 21
-115.7502645918
 31
0.0
 11
-72.4825845948
 21
-120.3753943912
 31
0.0
 11
-72.4770411535
 21
-125.0005221368
 31
0.0
 11
-72.4734033806
 21
-127.313084822
 31
0.0
 11
-72.4691512404
 21
-129.6256464549
 31
0.0
 11
-72.464321691
 21
-131.9382069516
 31
0.0
 11
-72.4583172593
 21
-134.2507646058
 31
0.0
 11
-72.4474757197
 21
-136.5633038102
 31
0.0
 11
-72.4390102283
 21
-137.7195553595
 31
0.0
 11
-72.4282707619
 21
-138.8757879612
 31
0.0
 11
-72.4154357117
 21
-140.0319991942
 31
0.0
 11
-72.4084413314
 21
-140.6100981517
 31
0.0
 11
-72.4012132491
 21
-141.1881942296
 31
0.0
 11
-72.3938430249
 21
-141.7662885093
 31
0.0
 11
-72.3864147771
 21
-142.3443820428
 31
0.0
 11
-72.3845842662
 21
-142.4889057635
 31
0.0
 11
-72.3826387707
 21
-142.6334278822
 31
0.0
 11
-72.375507116
 21
-142.9224073726
 31
0.0
 11
-72.3644946097
 21
-143.211266198
 31
0.0
 11
-72.3505793113
 21
-143.5
 31
0.0
  0
SPLINE
  5
4CB
100
AcDbEntity
  8
RACCORDO
100
AcDbSpline
 62
253
  6
CONTINUOUS
 70
0
 71
3
 72
31
 73
27
 74
25
 42
0.0000001
 43
0.0000001
 44
0.0000000001
 12
-0.163018764
 22
-0.160671996
 32
0.0
 13
0.0785903646
 23
-0.2149747946
 33
0.0
 40
0.0
 40
0.0
 40
0.0
 40
0.0
 40
0.0527698483
 40
0.0787586265
 40
0.1072014963
 40
0.1214626548
 40
0.1303920834
 40
0.1495763047
 40
0.1887507412
 40
0.2294665274
 40
0.3142710627
 40
0.3570472855
 40
0.3975649524
 40
0.4402330742
 40
0.4649875395
 40
0.4889105101
 40
0.5345598803
 40
0.5757991016
 40
0.6424177773
 40
0.7088158168
 40
0.8328264785
 40
0.9258768433
 40
0.9577413523
 40
0.9801428617
 40
0.9938367518
 40
1.0
 40
1.0
 40
1.0
 40
1.0
 10
-73.2730587197
 20
-145.4070917715
 30
0.0
 10
-73.2759262115
 20
-145.4099179838
 30
0.0
 10
-73.2796382535
 20
-145.4147365288
 30
0.0
 10
-73.2831505359
 20
-145.422247076
 30
0.0
 10
-73.2836854616
 20
-145.4274519427
 30
0.0
 10
-73.2847341892
 20
-145.4313754748
 30
0.0
 10
-73.2870075038
 20
-145.4337387976
 30
0.0
 10
-73.2898102639
 20
-145.4380373995
 30
0.0
 10
-73.2944613413
 20
-145.4440075737
 30
0.0
 10
-73.3017804644
 20
-145.4542184735
 30
0.0
 10
-73.3092252213
 20
-145.4646890909
 30
0.0
 10
-73.3160867139
 20
-145.4755247484
 30
0.0
 10
-73.3215021605
 20
-145.4834724906
 30
0.0
 10
-73.3271558319
 20
-145.4895502944
 30
0.0
 10
-73.3304459686
 20
-145.4957243489
 30
0.0
 10
-73.3340676732
 20
-145.5019362678
 30
0.0
 10
-73.3380567186
 20
-145.5094024267
 30
0.0
 10
-73.3425981858
 20
-145.5202214073
 30
0.0
 10
-73.3497937197
 20
-145.5314517629
 30
0.0
 10
-73.3593040911
 20
-145.5485946089
 30
0.0
 10
-73.3693126263
 20
-145.5677735544
 30
0.0
 10
-73.3769109162
 20
-145.5852235041
 30
0.0
 10
-73.3808360569
 20
-145.5957247947
 30
0.0
 10
-73.3825033647
 20
-145.6006875302
 30
0.0
 10
-73.3832038938
 20
-145.6037542121
 30
0.0
 10
-73.3835268596
 20
-145.6053362923
 30
0.0
 10
-73.3833654023
 20
-145.6057779399
 30
0.0
 11
-73.2730587197
 21
-145.4070917715
 31
0.0
 11
-73.2803924705
 21
-145.4166889568
 31
0.0
 11
-73.2827602143
 21
-145.4221459959
 31
0.0
 11
-73.2840331518
 21
-145.4285306232
 31
0.0
 11
-73.2851348444
 21
-145.431603327
 31
0.0
 11
-73.2864233382
 21
-145.4331898745
 31
0.0
 11
-73.2890109832
 21
-145.4367374986
 31
0.0
 11
-73.2943408678
 21
-145.4439481066
 31
0.0
 11
-73.2998184348
 21
-145.4514878753
 31
0.0
 11
-73.3108917288
 21
-145.4674304415
 31
0.0
 11
-73.3162266715
 21
-145.4756403741
 31
0.0
 11
-73.3215949225
 21
-145.4832028184
 31
0.0
 11
-73.3276523723
 21
-145.4908636277
 31
0.0
 11
-73.3305058375
 21
-145.4957587108
 31
0.0
 11
-73.3332137654
 21
-145.5005179879
 31
0.0
 11
-73.3380616549
 21
-145.5097739546
 31
0.0
 11
-73.3420319538
 21
-145.5183376009
 31
0.0
 11
-73.3496596459
 21
-145.5315410226
 31
0.0
 11
-73.3571331484
 21
-145.5447743598
 31
0.0
 11
-73.3700668308
 21
-145.5700412626
 31
0.0
 11
-73.3785096316
 21
-145.5895946868
 31
0.0
 11
-73.3810487014
 21
-145.5964319207
 31
0.0
 11
-73.3826063768
 21
-145.6013170719
 31
0.0
 11
-73.3833257775
 21
-145.604367791
 31
0.0
 11
-73.3833654023
 21
-145.6057779399
 31
0.0
  0
SPLINE
  5
4CC
100
AcDbEntity
  8
RACCORDO
100
AcDbSpline
 62
253
  6
CONTINUOUS
 70
0
 71
3
 72
30
 73
26
 74
24
 42
0.0000001
 43
0.0000001
 44
0.0000000001
 12
2.0681000785
 22
2.943471325
 32
0.0
 13
-0.0266989649
 23
3.5972695952
 33
0.0
 40
0.0
 40
0.0
 40
0.0
 40
0.0
 40
0.0005155099
 40
0.0016324226
 40
0.0033523747
 40
0.0056769399
 40
0.0122486354
 40
0.020864981
 40
0.0310847195
 40
0.0434914617
 40
0.0582045066
 40
0.0751970852
 40
0.0944577867
 40
0.1160553911
 40
0.1657616335
 40
0.223617466
 40
0.2894022995
 40
0.3625177856
 40
0.4422614361
 40
0.5277325094
 40
0.6179193933
 40
0.7100610617
 40
0.8049917426
 40
0.9019844545
 40
1.0
 40
1.0
 40
1.0
 40
1.0
 10
-76.1222456941
 20
-132.3246056896
 30
0.0
 10
-76.1218903188
 20
-132.3240998934
 30
0.0
 10
-76.121814074
 20
-132.3220077441
 30
0.0
 10
-76.1214667973
 20
-132.3181070681
 30
0.0
 10
-76.1214647764
 20
-132.311859187
 30
0.0
 10
-76.1215166313
 20
-132.2991626463
 30
0.0
 10
-76.1221450238
 20
-132.2781454641
 30
0.0
 10
-76.1233558642
 20
-132.2477137818
 30
0.0
 10
-76.1242355018
 20
-132.210254582
 30
0.0
 10
-76.1249330584
 20
-132.165486731
 30
0.0
 10
-76.1254124751
 20
-132.1125918806
 30
0.0
 10
-76.1256969019
 20
-132.0514777125
 30
0.0
 10
-76.1257825681
 20
-131.9821073205
 30
0.0
 10
-76.1255172158
 20
-131.8735088864
 30
0.0
 10
-76.1271731746
 20
-131.7186352051
 30
0.0
 10
-76.1300765546
 20
-131.5107920577
 30
0.0
 10
-76.1315992084
 20
-131.2748597837
 30
0.0
 10
-76.1322029366
 20
-131.0126792757
 30
0.0
 10
-76.1315672093
 20
-130.7268912797
 30
0.0
 10
-76.1294436904
 20
-130.4206408239
 30
0.0
 10
-76.1262516396
 20
-130.0995282634
 30
0.0
 10
-76.1192357591
 20
-129.7671294856
 30
0.0
 10
-76.1160631684
 20
-129.4265095751
 30
0.0
 10
-76.1149993313
 20
-129.0788372289
 30
0.0
 10
-76.1159750216
 20
-128.8449978769
 30
0.0
 10
-76.1168473261
 20
-128.7274684296
 30
0.0
 11
-76.1222456941
 21
-132.3246056896
 31
0.0
 11
-76.1218329029
 21
-132.322797736
 31
0.0
 11
-76.1215746484
 21
-132.3187880975
 31
0.0
 11
-76.1214688721
 21
-132.3126016999
 31
0.0
 11
-76.1215147143
 21
-132.3042395077
 31
0.0
 11
-76.1221051364
 21
-132.28060607
 31
0.0
 11
-76.1232025887
 21
-132.2496293324
 31
0.0
 11
-76.1241301981
 21
-132.2128768698
 31
0.0
 11
-76.124845626
 21
-132.1682509785
 31
0.0
 11
-76.1253516006
 21
-132.1153251501
 31
0.0
 11
-76.1256515898
 21
-132.0541973162
 31
0.0
 11
-76.1257390596
 21
-131.9849095274
 31
0.0
 11
-76.1257026137
 21
-131.9072149903
 31
0.0
 11
-76.1271589136
 21
-131.7284092412
 31
0.0
 11
-76.1296998216
 21
-131.5202959926
 31
0.0
 11
-76.1313873952
 21
-131.2836497105
 31
0.0
 11
-76.1319947805
 21
-131.0206270524
 31
0.0
 11
-76.1313651356
 21
-130.7337604333
 31
0.0
 11
-76.1293329691
 21
-130.4262961875
 31
0.0
 11
-76.1256778414
 21
-130.1018813065
 31
0.0
 11
-76.1199478754
 21
-129.7704632847
 31
0.0
 11
-76.1164383335
 21
-129.428980661
 31
0.0
 11
-76.1154214631
 21
-129.0800635996
 31
0.0
 11
-76.1168473261
 21
-128.7274684296
 31
0.0
  0
SPLINE
  5
4CD
100
AcDbEntity
  8
RACCORDO
100
AcDbSpline
 62
253
  6
CONTINUOUS
 70
0
 71
3
 72
11
 73
7
 74
5
 42
0.0000001
 43
0.0000001
 44
0.0000000001
 12
0.0000020091
 22
1.8381177103
 32
0.0
 13
-0.0000006764
 23
1.8381177103
 33
0.0
 40
0.0
 40
0.0
 40
0.0
 40
0.0
 40
0.1542880998
 40
0.3860503035
 40
0.6770506019
 40
1.0
 40
1.0
 40
1.0
 40
1.0
 10
-76.7593548992
 20
82.4120924918
 30
0.0
 10
-76.7593547958
 20
82.5066257214
 30
0.0
 10
-76.7532564698
 20
82.7431166695
 30
0.0
 10
-76.7435419898
 20
83.1578177269
 30
0.0
 10
-76.7354745098
 20
83.6759426925
 30
0.0
 10
-76.7334423301
 20
84.0521145589
 30
0.0
 10
-76.7334424029
 20
84.2499875616
 30
0.0
 11
-76.7593548992
 21
82.4120924918
 31
0.0
 11
-76.7545696229
 21
82.6956518059
 31
0.0
 11
-76.7448860709
 21
83.1215479445
 31
0.0
 11
-76.7366384747
 21
83.6563771574
 31
0.0
 11
-76.7334424029
 21
84.2499875616
 31
0.0
  0
SPLINE
  5
4CE
100
AcDbEntity
  8
RACCORDO
100
AcDbSpline
 62
253
  6
CONTINUOUS
 70
0
 71
3
 72
13
 73
9
 74
7
 42
0.0000001
 43
0.0000001
 44
0.0000000001
 12
-0.0000851777
 22
22.2500221848
 32
0.0
 13
0.047188861
 23
22.2499721448
 33
0.0
 40
0.0
 40
0.0
 40
0.0
 40
0.0
 40
0.2500000378
 40
0.5000000746
 40
0.6250000903
 40
0.7500001007
 40
0.8750001053
 40
1.0
 40
1.0
 40
1.0
 40
1.0
 10
-76.7334423841
 20
106.4999792112
 30
0.0
 10
-76.7334494822
 20
108.354148007
 30
0.0
 10
-76.7335505101
 20
112.0624855822
 30
0.0
 10
-76.7333488558
 20
116.6979075734
 30
0.0
 10
-76.7327470022
 20
120.4062449776
 30
0.0
 10
-76.7319737207
 20
123.1874980316
 30
0.0
 10
-76.7308623638
 20
125.968749342
 30
0.0
 10
-76.7302561929
 20
127.8229184386
 30
0.0
 10
-76.728289992
 20
128.7499998304
 30
0.0
 11
-76.7334423841
 21
106.4999792112
 31
0.0
 11
-76.7334849223
 21
112.0624855986
 31
0.0
 11
-76.7331616816
 21
117.6249919538
 31
0.0
 11
-76.7326933536
 21
120.406245038
 31
0.0
 11
-76.7319173747
 21
123.1874979337
 31
0.0
 11
-76.7308960469
 21
125.9687506209
 31
0.0
 11
-76.728289992
 21
128.7499998304
 31
0.0
  0
SPLINE
  5
4CF
100
AcDbEntity
  8
RACCORDO
100
AcDbSpline
 62
253
  6
CONTINUOUS
 70
0
 71
3
 72
15
 73
11
 74
9
 42
0.0000001
 43
0.0000001
 44
0.0000000001
 12
-0.1649069037
 22
22.2268767649
 32
0.0
 13
0.0003250949
 23
22.2274884975
 33
0.0
 40
0.0
 40
0.0
 40
0.0
 40
0.0
 40
0.062499985
 40
0.1249998561
 40
0.2499995232
 40
0.3749994573
 40
0.4999995101
 40
0.6249996145
 40
0.7499997396
 40
1.0
 40
1.0
 40
1.0
 40
1.0
 10
-76.1168473261
 20
-128.7274684296
 30
0.0
 10
-76.1202828858
 20
-128.2644086083
 30
0.0
 10
-76.1238226591
 20
-127.3382665341
 30
0.0
 10
-76.1262930942
 20
-125.4859820299
 30
0.0
 10
-76.1287866919
 20
-123.1706233706
 30
0.0
 10
-76.1313444446
 20
-120.3921911683
 30
0.0
 10
-76.1327332856
 20
-117.6137546668
 30
0.0
 10
-76.1334530213
 20
-114.8353166055
 30
0.0
 10
-76.1337333974
 20
-111.1307315488
 30
0.0
 10
-76.1334855596
 20
-108.3522926361
 30
0.0
 10
-76.1334584683
 20
-106.4999999988
 30
0.0
 11
-76.1168473261
 21
-128.7274684296
 31
0.0
 11
-76.1232465226
 21
-127.3382654709
 31
0.0
 11
-76.1256358565
 21
-125.9490523597
 31
0.0
 11
-76.1287142622
 21
-123.1706254018
 31
0.0
 11
-76.1311496249
 21
-120.3921918705
 31
0.0
 11
-76.1326217678
 21
-117.6137550257
 31
0.0
 11
-76.1333681123
 21
-114.8353167419
 31
0.0
 11
-76.1336124011
 21
-112.0568779091
 31
0.0
 11
-76.1334584683
 21
-106.4999999988
 31
0.0
  0
SPLINE
  5
4D0
100
AcDbEntity
  8
RACCORDO
100
AcDbSpline
 62
253
  6
CONTINUOUS
 70
0
 71
3
 72
27
 73
23
 74
21
 42
0.0000001
 43
0.0000001
 44
0.0000000001
 12
0.0081131225
 22
1.9957353853
 32
0.0
 13
-1.2129973556
 23
-1.5848226925
 33
0.0
 40
0.0
 40
0.0
 40
0.0
 40
0.0
 40
0.1949895786
 40
0.2899970919
 40
0.3820210184
 40
0.5542807621
 40
0.6329815439
 40
0.7057299476
 40
0.7718344629
 40
0.8306586876
 40
0.8813548101
 40
0.9233404091
 40
0.941069143
 40
0.9565663455
 40
0.9697957488
 40
0.9807219319
 40
0.9892892174
 40
0.9953704302
 40
0.997468803
 40
0.9989386033
 40
0.9997795431
 40
1.0
 40
1.0
 40
1.0
 40
1.0
 10
-76.7282899923
 20
128.7499998304
 30
0.0
 10
-76.7277626675
 20
128.8797156977
 30
0.0
 10
-76.727665024
 20
129.0726382562
 30
0.0
 10
-76.7288129062
 20
129.3267762062
 30
0.0
 10
-76.7311452417
 20
129.5657839003
 30
0.0
 10
-76.7324511238
 20
129.7939519908
 30
0.0
 10
-76.7328417392
 20
130.0092994248
 30
0.0
 10
-76.7327179087
 20
130.1540272093
 30
0.0
 10
-76.732303545
 20
130.285531699
 30
0.0
 10
-76.7314576533
 20
130.4023633222
 30
0.0
 10
-76.7308593359
 20
130.5031509452
 30
0.0
 10
-76.7309361086
 20
130.5766031393
 30
0.0
 10
-76.7307489614
 20
130.6266352963
 30
0.0
 10
-76.7305753703
 20
130.6575441832
 30
0.0
 10
-76.7303400626
 20
130.6839077149
 30
0.0
 10
-76.7300738956
 20
130.7057156986
 30
0.0
 10
-76.7297426214
 20
130.7226212874
 30
0.0
 10
-76.7296239039
 20
130.7339780253
 30
0.0
 10
-76.729602288
 20
130.7401106524
 30
0.0
 10
-76.7296800341
 20
130.743499025
 30
0.0
 10
-76.7296870834
 20
130.744428387
 30
0.0
 10
-76.7298248219
 20
130.7458160341
 30
0.0
 10
-76.7299139598
 20
130.7456995724
 30
0.0
 11
-76.7282899923
 21
128.7499998304
 31
0.0
 11
-76.7280694526
 21
129.1391505853
 31
0.0
 11
-76.7289901461
 21
129.3287597728
 31
0.0
 11
-76.7305383859
 21
129.5124101708
 31
0.0
 11
-76.7324998333
 21
129.8561922821
 31
0.0
 11
-76.7327762936
 21
130.0132592716
 31
0.0
 11
-76.7326559271
 21
130.158446985
 31
0.0
 11
-76.7321931324
 21
130.2903743836
 31
0.0
 11
-76.7314459079
 21
130.4077705623
 31
0.0
 11
-76.7309537298
 21
130.5089462469
 31
0.0
 11
-76.7308589937
 21
130.5927390314
 31
0.0
 11
-76.7307315987
 21
130.6281209559
 31
0.0
 11
-76.7305485246
 21
130.659048985
 31
0.0
 11
-76.7303104566
 21
130.6854505182
 31
0.0
 11
-76.7300251945
 21
130.7072546027
 31
0.0
 11
-76.7297398025
 21
130.7243503968
 31
0.0
 11
-76.729617592
 21
130.7364863732
 31
0.0
 11
-76.7296254036
 21
130.7406741975
 31
0.0
 11
-76.7296772413
 21
130.7436070962
 31
0.0
 11
-76.7297734188
 21
130.7452826453
 31
0.0
 11
-76.7299139598
 21
130.7456995724
 31
0.0
  0
SPLINE
  5
4D1
100
AcDbEntity
  8
RACCORDO
100
AcDbSpline
 62
253
  6
CONTINUOUS
 70
0
 71
3
 72
27
 73
23
 74
21
 42
0.0000001
 43
0.0000001
 44
0.0000000001
 12
-0.0001333884
 22
-37.0521732226
 32
0.0
 13
1.7406219144
 23
-37.0112655267
 33
0.0
 40
0.0
 40
0.0
 40
0.0
 40
0.0
 40
0.1250074093
 40
0.250014806
 40
0.375022163
 40
0.5000294373
 40
0.5625330268
 40
0.625036573
 40
0.6875400723
 40
0.750043378
 40
0.8125455603
 40
0.8437957548
 40
0.8750451368
 40
0.9062938064
 40
0.9219180051
 40
0.9375421765
 40
0.9531663593
 40
0.9609784709
 40
0.9687905567
 40
0.9843901059
 40
0.9921932622
 40
1.0
 40
1.0
 40
1.0
 40
1.0
 10
-73.3783588981
 20
-106.5
 30
0.0
 10
-73.3783644563
 20
-108.0439320614
 30
0.0
 10
-73.3782350568
 20
-111.131796034
 30
0.0
 10
-73.3773342394
 20
-115.7635913536
 30
0.0
 10
-73.3754530981
 20
-120.3953847276
 30
0.0
 10
-73.3728636367
 20
-124.2552103345
 30
0.0
 10
-73.3700734241
 20
-127.3430681638
 30
0.0
 10
-73.3676103107
 20
-129.6589590346
 30
0.0
 10
-73.3647026628
 20
-131.9748459278
 30
0.0
 10
-73.361703237
 20
-134.2907156622
 30
0.0
 10
-73.3571874675
 20
-136.2205826033
 30
0.0
 10
-73.3504922137
 20
-137.7644309147
 30
0.0
 10
-73.3437444048
 20
-138.9222704785
 30
0.0
 10
-73.3365252246
 20
-139.8871103134
 30
0.0
 10
-73.3299539722
 20
-140.6589660063
 30
0.0
 10
-73.3247707677
 20
-141.2378530172
 30
0.0
 10
-73.3201491919
 20
-141.7202553243
 30
0.0
 10
-73.3166173979
 20
-142.1061805662
 30
0.0
 10
-73.3122665392
 20
-142.4917874464
 30
0.0
 10
-73.3120066994
 20
-142.8773586376
 30
0.0
 10
-73.2996528692
 20
-143.2626452911
 30
0.0
 10
-73.2915499749
 20
-143.4552689823
 30
0.0
 10
-73.2870204486
 20
-143.551581398
 30
0.0
 11
-73.3783588981
 21
-106.5
 31
0.0
 11
-73.3781172704
 21
-111.1317961779
 31
0.0
 11
-73.3771708519
 21
-115.7635917987
 31
0.0
 11
-73.3752487287
 21
-120.3953856431
 31
0.0
 11
-73.3721061956
 21
-125.0271757579
 31
0.0
 11
-73.3700116809
 21
-127.3430686363
 31
0.0
 11
-73.3675362202
 21
-129.6589595359
 31
0.0
 11
-73.3646873598
 21
-131.9748482658
 31
0.0
 11
-73.3612999534
 21
-134.2907291
 31
0.0
 11
-73.3552566848
 21
-136.6065629006
 31
0.0
 11
-73.3502044037
 21
-137.7644394958
 31
0.0
 11
-73.3434251252
 21
-138.9222771649
 31
0.0
 11
-73.3348160584
 21
-140.0800762784
 31
0.0
 11
-73.3299115044
 21
-140.6589660167
 31
0.0
 11
-73.3247103214
 21
-141.2378521563
 31
0.0
 11
-73.3192800351
 21
-141.8167366162
 31
0.0
 11
-73.3165145824
 21
-142.1061791164
 31
0.0
 11
-73.3136932191
 21
-142.3956201235
 31
0.0
 11
-73.3079123739
 21
-142.973588412
 31
0.0
 11
-73.2991735246
 21
-143.2625802129
 31
0.0
 11
-73.2870204486
 21
-143.551581398
 31
0.0
  0
SPLINE
  5
4D2
100
AcDbEntity
  8
RACCORDO
100
AcDbSpline
 62
253
  6
CONTINUOUS
 70
0
 71
3
 72
21
 73
17
 74
15
 42
0.0000001
 43
0.0000001
 44
0.0000000001
 12
0.0872600028
 22
-1.8554676718
 32
0.0
 13
-1.3221316438
 23
-1.3047384817
 33
0.0
 40
0.0
 40
0.0
 40
0.0
 40
0.0
 40
0.1932184212
 40
0.3780680261
 40
0.5481240374
 40
0.697519668
 40
0.7628266285
 40
0.8211012615
 40
0.8718394828
 40
0.9146024965
 40
0.9490211287
 40
0.9747972872
 40
0.9843810986
 40
0.9917469556
 40
0.9969154675
 40
1.0
 40
1.0
 40
1.0
 40
1.0
 10
-73.2870204486
 20
-143.551581398
 30
0.0
 10
-73.2814003686
 20
-143.6710849094
 30
0.0
 10
-73.2723614136
 20
-143.9050093865
 30
0.0
 10
-73.2631719849
 20
-144.2442730649
 30
0.0
 10
-73.2574762367
 20
-144.5564740782
 30
0.0
 10
-73.2550186229
 20
-144.7946968532
 30
0.0
 10
-73.2545151965
 20
-144.963716645
 30
0.0
 10
-73.2548127706
 20
-145.0716516339
 30
0.0
 10
-73.255771638
 20
-145.1656216624
 30
0.0
 10
-73.2573947747
 20
-145.244816433
 30
0.0
 10
-73.2597257409
 20
-145.3085135465
 30
0.0
 10
-73.2623937501
 20
-145.3516715888
 30
0.0
 10
-73.2652401773
 20
-145.3779498138
 30
0.0
 10
-73.2673514691
 20
-145.3915423602
 30
0.0
 10
-73.2696527353
 20
-145.4008372039
 30
0.0
 10
-73.2716993337
 20
-145.4057502688
 30
0.0
 10
-73.2730587197
 20
-145.4070917715
 30
0.0
 11
-73.2870204486
 21
-143.551581398
 31
0.0
 11
-73.2728666887
 21
-143.9102089789
 31
0.0
 11
-73.2634506905
 21
-144.2534413889
 31
0.0
 11
-73.2576871008
 21
-144.5692709724
 31
0.0
 11
-73.2549537955
 21
-144.8467626432
 31
0.0
 11
-73.2546247873
 21
-144.9680710774
 31
0.0
 11
-73.2549692634
 21
-145.0763167322
 31
0.0
 11
-73.2559974364
 21
-145.1705583031
 31
0.0
 11
-73.257736432
 21
-145.2499723498
 31
0.0
 11
-73.2602283251
 21
-145.3138570112
 31
0.0
 11
-73.2635462293
 21
-145.3616216015
 31
0.0
 11
-73.2655441907
 21
-145.3793112348
 31
0.0
 11
-73.267785798
 21
-145.3928085754
 31
0.0
 11
-73.2702855461
 21
-145.4020780356
 31
0.0
 11
-73.2730587197
 21
-145.4070917715
 31
0.0
  0
SPLINE
  5
4D3
100
AcDbEntity
  8
RACCORDO
100
AcDbSpline
 62
253
  6
CONTINUOUS
 70
0
 71
3
 72
11
 73
7
 74
5
 42
0.0000001
 43
0.0000001
 44
0.0000000001
 12
-0.0
 22
-1.7117522195
 32
0.0
 13
-1.0117452633
 23
-1.3807487763
 33
0.0
 40
0.0
 40
0.0
 40
0.0
 40
0.0
 40
0.2482857044
 40
0.4972991966
 40
0.7476966922
 40
1.0
 40
1.0
 40
1.0
 40
1.0
 10
-76.2299754698
 20
-80.8123831189
 30
0.0
 10
-76.2299754698
 20
-80.9540509874
 30
0.0
 10
-76.2528334775
 20
-81.23832093
 30
0.0
 10
-76.3548686857
 20
-81.6543623076
 30
0.0
 10
-76.522209471
 20
-82.0511594316
 30
0.0
 10
-76.674266007
 20
-82.2959699973
 30
0.0
 10
-76.7593548992
 20
-82.4120924919
 30
0.0
 11
-76.2299754698
 21
-80.8123831189
 31
0.0
 11
-76.2640187276
 21
-81.236021079
 31
0.0
 11
-76.3653758721
 21
-81.6500443618
 31
0.0
 11
-76.5317465514
 21
-82.0450564993
 31
0.0
 11
-76.7593548992
 21
-82.4120924919
 31
0.0
  0
SPLINE
  5
4D4
100
AcDbEntity
  8
RACCORDO
100
AcDbSpline
 62
253
  6
CONTINUOUS
 70
0
 71
3
 72
12
 73
8
 74
6
 42
0.0000001
 43
0.0000001
 44
0.0000000001
 12
-0.606300443
 22
-0.082928149
 32
0.0
 13
-0.6117862812
 23
-0.013958915
 33
0.0
 40
0.0
 40
0.0
 40
0.0
 40
0.0
 40
0.0424986543
 40
0.1095213397
 40
0.3157423668
 40
0.6145808101
 40
1.0
 40
1.0
 40
1.0
 40
1.0
 10
-76.1168470282
 20
-128.7274684274
 30
0.0
 10
-76.1254360125
 20
-128.7286432056
 30
0.0
 10
-76.1477136392
 20
-128.7305209597
 30
0.0
 10
-76.2119855188
 20
-128.734534732
 30
0.0
 10
-76.3286071701
 20
-128.7391557421
 30
0.0
 10
-76.5101541716
 20
-128.7447937083
 30
0.0
 10
-76.6496919107
 20
-128.7482066554
 30
0.0
 10
-76.7282899683
 20
-128.75
 30
0.0
 11
-76.1168470282
 21
-128.7274684274
 31
0.0
 11
-76.1427276873
 21
-128.7300273887
 31
0.0
 11
-76.1836554633
 21
-128.7326890261
 31
0.0
 11
-76.309728442
 21
-128.7382605934
 31
0.0
 11
-76.4925089811
 21
-128.7440701777
 31
0.0
 11
-76.7282899683
 21
-128.75
 31
0.0
  0
SPLINE
  5
4D5
100
AcDbEntity
  8
RACCORDO
100
AcDbSpline
 62
253
  6
CONTINUOUS
 70
0
 71
3
 72
11
 73
7
 74
5
 42
0.0000001
 43
0.0000001
 44
0.0000000001
 12
-0.0
 22
1.7117522182
 32
0.0
 13
-1.0117452447
 23
1.3807487883
 33
0.0
 40
0.0
 40
0.0
 40
0.0
 40
0.0
 40
0.2482856998
 40
0.4972991907
 40
0.7476966879
 40
1.0
 40
1.0
 40
1.0
 40
1.0
 10
-76.2299754698
 20
-61.1876168811
 30
0.0
 10
-76.2299754698
 20
-61.0459490153
 30
0.0
 10
-76.2528334779
 20
-60.7616790763
 30
0.0
 10
-76.3548686865
 20
-60.3456377017
 30
0.0
 10
-76.522209472
 20
-59.9488405755
 30
0.0
 10
-76.6742660071
 20
-59.7040300056
 30
0.0
 10
-76.7593548992
 20
-59.5879075081
 30
0.0
 11
-76.2299754698
 21
-61.1876168811
 31
0.0
 11
-76.2640187276
 21
-60.7639789291
 31
0.0
 11
-76.365375872
 21
-60.3499556491
 31
0.0
 11
-76.5317465514
 21
-59.9549435088
 31
0.0
 11
-76.7593548992
 21
-59.5879075081
 31
0.0
  0
SPLINE
  5
4D6
100
AcDbEntity
  8
RACCORDO
100
AcDbSpline
 62
253
  6
CONTINUOUS
 70
0
 71
3
 72
11
 73
7
 74
5
 42
0.0000001
 43
0.0000001
 44
0.0000000001
 12
-0.0
 22
-1.7117522195
 32
0.0
 13
-1.0117452633
 23
-1.3807487763
 33
0.0
 40
0.0
 40
0.0
 40
0.0
 40
0.0
 40
0.2482857044
 40
0.4972991966
 40
0.7476966922
 40
1.0
 40
1.0
 40
1.0
 40
1.0
 10
-76.2299754698
 20
-9.8123831189
 30
0.0
 10
-76.2299754698
 20
-9.9540509874
 30
0.0
 10
-76.2528334775
 20
-10.23832093
 30
0.0
 10
-76.3548686857
 20
-10.6543623076
 30
0.0
 10
-76.522209471
 20
-11.0511594316
 30
0.0
 10
-76.674266007
 20
-11.2959699973
 30
0.0
 10
-76.7593548992
 20
-11.4120924919
 30
0.0
 11
-76.2299754698
 21
-9.8123831189
 31
0.0
 11
-76.2640187276
 21
-10.236021079
 31
0.0
 11
-76.3653758721
 21
-10.6500443618
 31
0.0
 11
-76.5317465514
 21
-11.0450564993
 31
0.0
 11
-76.7593548992
 21
-11.4120924919
 31
0.0
  0
SPLINE
  5
4D7
100
AcDbEntity
  8
RACCORDO
100
AcDbSpline
 62
253
  6
CONTINUOUS
 70
0
 71
3
 72
11
 73
7
 74
5
 42
0.0000001
 43
0.0000001
 44
0.0000000001
 12
-0.0
 22
1.7117522182
 32
0.0
 13
-1.0117452447
 23
1.3807487883
 33
0.0
 40
0.0
 40
0.0
 40
0.0
 40
0.0
 40
0.2482856998
 40
0.4972991907
 40
0.7476966879
 40
1.0
 40
1.0
 40
1.0
 40
1.0
 10
-76.2299754698
 20
9.8123831189
 30
0.0
 10
-76.2299754698
 20
9.9540509847
 30
0.0
 10
-76.2528334779
 20
10.2383209237
 30
0.0
 10
-76.3548686865
 20
10.6543622983
 30
0.0
 10
-76.522209472
 20
11.0511594245
 30
0.0
 10
-76.6742660071
 20
11.2959699944
 30
0.0
 10
-76.7593548992
 20
11.4120924919
 30
0.0
 11
-76.2299754698
 21
9.8123831189
 31
0.0
 11
-76.2640187276
 21
10.2360210709
 31
0.0
 11
-76.365375872
 21
10.6500443509
 31
0.0
 11
-76.5317465514
 21
11.0450564912
 31
0.0
 11
-76.7593548992
 21
11.4120924919
 31
0.0
  0
SPLINE
  5
4D8
100
AcDbEntity
  8
RACCORDO
100
AcDbSpline
 62
253
  6
CONTINUOUS
 70
0
 71
3
 72
21
 73
17
 74
15
 42
0.0000001
 43
0.0000001
 44
0.0000000001
 12
1.3221317242
 22
-1.3047384002
 32
0.0
 13
-0.0872600003
 23
-1.8554676719
 33
0.0
 40
0.0
 40
0.0
 40
0.0
 40
0.0
 40
0.0030845324
 40
0.0082530443
 40
0.0156189014
 40
0.0252027128
 40
0.0509788713
 40
0.0853975035
 40
0.1281605172
 40
0.1788987385
 40
0.2371733715
 40
0.302480332
 40
0.4518759626
 40
0.6219319739
 40
0.8067815788
 40
1.0
 40
1.0
 40
1.0
 40
1.0
 10
-73.2730587197
 20
145.4070917715
 30
0.0
 10
-73.2716993336
 20
145.4057502689
 30
0.0
 10
-73.2696527353
 20
145.400837204
 30
0.0
 10
-73.267351469
 20
145.3915423604
 30
0.0
 10
-73.2652401773
 20
145.3779498138
 30
0.0
 10
-73.2623937501
 20
145.3516715888
 30
0.0
 10
-73.259725741
 20
145.3085135465
 30
0.0
 10
-73.2573947747
 20
145.2448164329
 30
0.0
 10
-73.255771638
 20
145.1656216625
 30
0.0
 10
-73.2548127706
 20
145.0716516339
 30
0.0
 10
-73.2545151965
 20
144.963716645
 30
0.0
 10
-73.2550186229
 20
144.7946968532
 30
0.0
 10
-73.2574762367
 20
144.5564740781
 30
0.0
 10
-73.2631719849
 20
144.2442730648
 30
0.0
 10
-73.2723614135
 20
143.9050093865
 30
0.0
 10
-73.2814003688
 20
143.6710849094
 30
0.0
 10
-73.2870204486
 20
143.551581398
 30
0.0
 11
-73.2730587197
 21
145.4070917715
 31
0.0
 11
-73.2702855461
 21
145.4020780358
 31
0.0
 11
-73.2677857979
 21
145.3928085756
 31
0.0
 11
-73.2655441907
 21
145.3793112349
 31
0.0
 11
-73.2635462293
 21
145.3616216015
 31
0.0
 11
-73.2602283251
 21
145.3138570111
 31
0.0
 11
-73.257736432
 21
145.2499723498
 31
0.0
 11
-73.2559974364
 21
145.1705583031
 31
0.0
 11
-73.2549692634
 21
145.0763167322
 31
0.0
 11
-73.2546247873
 21
144.9680710774
 31
0.0
 11
-73.2549537955
 21
144.8467626432
 31
0.0
 11
-73.2576871008
 21
144.5692709724
 31
0.0
 11
-73.2634506905
 21
144.2534413888
 31
0.0
 11
-73.2728666887
 21
143.910208979
 31
0.0
 11
-73.2870204486
 21
143.551581398
 31
0.0
  0
SPLINE
  5
4D9
100
AcDbEntity
  8
RACCORDO
100
AcDbSpline
 62
253
  6
CONTINUOUS
 70
0
 71
3
 72
11
 73
7
 74
5
 42
0.0000001
 43
0.0000001
 44
0.0000000001
 12
-0.0
 22
-1.7117522195
 32
0.0
 13
-1.0117452633
 23
-1.3807487763
 33
0.0
 40
0.0
 40
0.0
 40
0.0
 40
0.0
 40
0.2482857044
 40
0.4972991966
 40
0.7476966922
 40
1.0
 40
1.0
 40
1.0
 40
1.0
 10
-76.2299754698
 20
61.1876168811
 30
0.0
 10
-76.2299754698
 20
61.0459490126
 30
0.0
 10
-76.2528334775
 20
60.76167907
 30
0.0
 10
-76.3548686857
 20
60.3456376924
 30
0.0
 10
-76.522209471
 20
59.9488405684
 30
0.0
 10
-76.674266007
 20
59.7040300027
 30
0.0
 10
-76.7593548992
 20
59.5879075081
 30
0.0
 11
-76.2299754698
 21
61.1876168811
 31
0.0
 11
-76.2640187276
 21
60.763978921
 31
0.0
 11
-76.3653758721
 21
60.3499556382
 31
0.0
 11
-76.5317465514
 21
59.9549435007
 31
0.0
 11
-76.7593548992
 21
59.5879075081
 31
0.0
  0
SPLINE
  5
4DA
100
AcDbEntity
  8
RACCORDO
100
AcDbSpline
 62
253
  6
CONTINUOUS
 70
0
 71
3
 72
11
 73
7
 74
5
 42
0.0000001
 43
0.0000001
 44
0.0000000001
 12
-0.0
 22
1.7117522182
 32
0.0
 13
-1.0117452447
 23
1.3807487883
 33
0.0
 40
0.0
 40
0.0
 40
0.0
 40
0.0
 40
0.2482856998
 40
0.4972991907
 40
0.7476966879
 40
1.0
 40
1.0
 40
1.0
 40
1.0
 10
-76.2299754698
 20
80.8123831189
 30
0.0
 10
-76.2299754698
 20
80.9540509847
 30
0.0
 10
-76.2528334779
 20
81.2383209237
 30
0.0
 10
-76.3548686865
 20
81.6543622983
 30
0.0
 10
-76.522209472
 20
82.0511594245
 30
0.0
 10
-76.6742660071
 20
82.2959699944
 30
0.0
 10
-76.7593548992
 20
82.4120924919
 30
0.0
 11
-76.2299754698
 21
80.8123831189
 31
0.0
 11
-76.2640187276
 21
81.2360210709
 31
0.0
 11
-76.365375872
 21
81.6500443509
 31
0.0
 11
-76.5317465514
 21
82.0450564912
 31
0.0
 11
-76.7593548992
 21
82.4120924919
 31
0.0
  0
SPLINE
  5
4DB
100
AcDbEntity
  8
RACCORDO
100
AcDbSpline
 62
253
  6
CONTINUOUS
 70
0
 71
3
 72
27
 73
23
 74
21
 42
0.0000001
 43
0.0000001
 44
0.0000000001
 12
-1.7406211872
 22
-37.0112655617
 32
0.0
 13
0.0001333849
 23
-37.0521732234
 33
0.0
 40
0.0
 40
0.0
 40
0.0
 40
0.0
 40
0.0078067385
 40
0.0156098959
 40
0.0312094524
 40
0.0390215371
 40
0.0468336486
 40
0.0624578314
 40
0.0780820027
 40
0.0937062011
 40
0.1249548705
 40
0.1562042522
 40
0.1874544464
 40
0.2499566281
 40
0.3124599333
 40
0.3749634321
 40
0.4374669778
 40
0.4999705668
 40
0.6249778401
 40
0.749985196
 40
0.8749925917
 40
1.0
 40
1.0
 40
1.0
 40
1.0
 10
-73.2870204486
 20
143.551581398
 30
0.0
 10
-73.2915499734
 20
143.4552689747
 30
0.0
 10
-73.2996529089
 20
143.2626452622
 30
0.0
 10
-73.3120065754
 20
142.8773584962
 30
0.0
 10
-73.3122677478
 20
142.491787227
 30
0.0
 10
-73.3166171263
 20
142.106180256
 30
0.0
 10
-73.3201493361
 20
141.7202550327
 30
0.0
 10
-73.3247707553
 20
141.2378527268
 30
0.0
 10
-73.329954006
 20
140.6589657215
 30
0.0
 10
-73.3365251578
 20
139.8871100349
 30
0.0
 10
-73.3437442612
 20
138.9222702085
 30
0.0
 10
-73.3504922572
 20
137.764430656
 30
0.0
 10
-73.357187461
 20
136.2205823589
 30
0.0
 10
-73.3617029366
 20
134.2907154344
 30
0.0
 10
-73.3647031831
 20
131.9748457212
 30
0.0
 10
-73.3676101597
 20
129.658958846
 30
0.0
 10
-73.3700734629
 20
127.3430679947
 30
0.0
 10
-73.3728636094
 20
124.2552101905
 30
0.0
 10
-73.3754531077
 20
120.3953846149
 30
0.0
 10
-73.377334237
 20
115.7635912784
 30
0.0
 10
-73.3782350577
 20
111.1317959965
 30
0.0
 10
-73.3783644562
 20
108.0439320488
 30
0.0
 10
-73.3783588981
 20
106.5
 30
0.0
 11
-73.2870204486
 21
143.551581398
 31
0.0
 11
-73.2991735331
 21
143.2625801906
 31
0.0
 11
-73.3079124144
 21
142.9735883476
 31
0.0
 11
-73.3136938244
 21
142.3956197942
 31
0.0
 11
-73.316514548
 21
142.1061788224
 31
0.0
 11
-73.3192800302
 21
141.8167363224
 31
0.0
 11
-73.3247103481
 21
141.237851865
 31
0.0
 11
-73.3299115179
 21
140.6589657311
 31
0.0
 11
-73.33481602
 21
140.0800759999
 31
0.0
 11
-73.3434250281
 21
138.9222768941
 31
0.0
 11
-73.3502044098
 21
137.7644392369
 31
0.0
 11
-73.3552566754
 21
136.6065626527
 31
0.0
 11
-73.3612998485
 21
134.2907288739
 31
0.0
 11
-73.3646876315
 21
131.9748480581
 31
0.0
 11
-73.3675362127
 21
129.6589593478
 31
0.0
 11
-73.3700116798
 21
127.3430684672
 31
0.0
 11
-73.3721061928
 21
125.0271756076
 31
0.0
 11
-73.3752487289
 21
120.3953855304
 31
0.0
 11
-73.377170852
 21
115.7635917236
 31
0.0
 11
-73.3781172705
 21
111.1317961403
 31
0.0
 11
-73.3783588981
 21
106.5
 31
0.0
  0
SPLINE
  5
4DC
100
AcDbEntity
  8
RACCORDO
100
AcDbSpline
 62
253
  6
CONTINUOUS
 70
0
 71
3
 72
12
 73
8
 74
6
 42
0.0000001
 43
0.0000001
 44
0.0000000001
 12
-0.606300667
 22
0.0829244306
 32
0.0
 13
-0.6117859938
 23
0.0139591466
 33
0.0
 40
0.0
 40
0.0
 40
0.0
 40
0.0
 40
0.0424986057
 40
0.1095212615
 40
0.3157422703
 40
0.6145807411
 40
1.0
 40
1.0
 40
1.0
 40
1.0
 10
-76.1168473284
 20
128.7274684296
 30
0.0
 10
-76.125436306
 20
128.7286431538
 30
0.0
 10
-76.1477139092
 20
128.7305208486
 30
0.0
 10
-76.2119857453
 20
128.734534545
 30
0.0
 10
-76.3286073356
 20
128.7391555741
 30
0.0
 10
-76.510154268
 20
128.7447936137
 30
0.0
 10
-76.6496919606
 20
128.7482066254
 30
0.0
 10
-76.7282899953
 20
128.75
 30
0.0
 11
-76.1168473284
 21
128.7274684296
 31
0.0
 11
-76.142727955
 21
128.7300272952
 31
0.0
 11
-76.1836556977
 21
128.7326888764
 31
0.0
 11
-76.3097286077
 21
128.738260426
 31
0.0
 11
-76.4925090771
 21
128.7440700773
 31
0.0
 11
-76.7282899953
 21
128.75
 31
0.0
  0
SPLINE
  5
4DD
100
AcDbEntity
  8
RACCORDO
100
AcDbSpline
 62
253
  6
CONTINUOUS
 70
0
 71
3
 72
11
 73
7
 74
5
 42
0.0000001
 43
0.0000001
 44
0.0000000001
 12
-0.9365636298
 22
0.0493585958
 32
0.0
 13
-0.935438177
 23
0.0674026752
 33
0.0
 40
0.0
 40
0.0
 40
0.0
 40
0.0
 40
0.356294297
 40
0.6641835794
 40
0.8874966863
 40
1.0
 40
1.0
 40
1.0
 40
1.0
 10
-72.3505793113
 20
143.5
 30
0.0
 10
-72.4618100714
 20
143.5058620621
 30
0.0
 10
-72.6691530332
 20
143.5169126466
 30
0.0
 10
-72.9462049003
 20
143.531816841
 30
0.0
 10
-73.1471115145
 20
143.543251961
 30
0.0
 10
-73.2519404978
 20
143.549053724
 30
0.0
 10
-73.2870204627
 20
143.5515813988
 30
0.0
 11
-72.3505793113
 21
143.5
 31
0.0
 11
-72.6842630372
 21
143.517747756
 31
0.0
 11
-72.97259602
 21
143.5334104518
 31
0.0
 11
-73.18170404
 21
143.5451479865
 31
0.0
 11
-73.2870204627
 21
143.5515813988
 31
0.0
  0
SPLINE
  5
4DE
100
AcDbEntity
  8
RACCORDO
100
AcDbSpline
 62
253
  6
CONTINUOUS
 70
0
 71
3
 72
11
 73
7
 74
5
 42
0.0000001
 43
0.0000001
 44
0.0000000001
 12
-0.9365634573
 22
-0.0493584932
 32
0.0
 13
-0.9354379726
 23
-0.0674030407
 33
0.0
 40
0.0
 40
0.0
 40
0.0
 40
0.0
 40
0.3562939528
 40
0.6641830871
 40
0.8874963124
 40
1.0
 40
1.0
 40
1.0
 40
1.0
 10
-72.3505792081
 20
-143.4999999999
 30
0.0
 10
-72.4618098401
 20
-143.5058620441
 30
0.0
 10
-72.6691526099
 20
-143.5169126016
 30
0.0
 10
-72.9462043085
 20
-143.5318167754
 30
0.0
 10
-73.1471109915
 20
-143.5432519066
 30
0.0
 10
-73.2519401084
 20
-143.5490536872
 30
0.0
 10
-73.2870201822
 20
-143.5515813841
 30
0.0
 11
-72.3505792081
 21
-143.4999999999
 31
0.0
 11
-72.6842625498
 21
-143.5177477086
 31
0.0
 11
-72.9725953398
 21
-143.5334103845
 31
0.0
 11
-73.1817034306
 21
-143.5451479313
 31
0.0
 11
-73.2870201822
 21
-143.5515813841
 31
0.0
  0
SPLINE
  5
4DF
100
AcDbEntity
  8
RACCORDO
100
AcDbSpline
 62
253
  6
CONTINUOUS
 70
0
 71
3
 72
15
 73
11
 74
9
 42
0.0000001
 43
0.0000001
 44
0.0000000001
 12
-0.0003251795
 22
22.2274884971
 32
0.0
 13
0.1649219635
 23
22.2268766529
 33
0.0
 40
0.0
 40
0.0
 40
0.0
 40
0.0
 40
0.2500002604
 40
0.3750003856
 40
0.5000004901
 40
0.6250005428
 40
0.7500004769
 40
0.875000144
 40
0.9375000149
 40
1.0
 40
1.0
 40
1.0
 40
1.0
 10
-76.1334584683
 20
106.4999999997
 30
0.0
 10
-76.1334855666
 20
108.3522926373
 30
0.0
 10
-76.1337333932
 20
111.1307315506
 30
0.0
 10
-76.1334530247
 20
114.835316608
 30
0.0
 10
-76.1327332856
 20
117.6137546699
 30
0.0
 10
-76.1313443908
 20
120.3921911711
 30
0.0
 10
-76.1287868577
 20
123.1706233731
 30
0.0
 10
-76.1262931651
 20
125.4859820306
 30
0.0
 10
-76.1238227586
 20
127.3382665336
 30
0.0
 10
-76.1202831995
 20
128.2644086096
 30
0.0
 10
-76.1168473261
 20
128.7274684296
 30
0.0
 11
-76.1334584683
 21
106.4999999997
 31
0.0
 11
-76.1336124008
 21
112.0568779111
 31
0.0
 11
-76.1333681142
 21
114.8353167444
 31
0.0
 11
-76.1326217594
 21
117.613755029
 31
0.0
 11
-76.1311496167
 21
120.3921918742
 31
0.0
 11
-76.1287143724
 21
123.1706254034
 31
0.0
 11
-76.1256359432
 21
125.9490523621
 31
0.0
 11
-76.123246672
 21
127.3382654683
 31
0.0
 11
-76.1168473261
 21
128.7274684296
 31
0.0
  0
SPLINE
  5
4E0
100
AcDbEntity
  8
RACCORDO
100
AcDbSpline
 62
253
  6
CONTINUOUS
 70
0
 71
3
 72
30
 73
26
 74
24
 42
0.0000001
 43
0.0000001
 44
0.0000000001
 12
0.0266995908
 22
3.5972696191
 32
0.0
 13
-2.0680562877
 23
2.9435021271
 33
0.0
 40
0.0
 40
0.0
 40
0.0
 40
0.0
 40
0.0980151014
 40
0.1950073445
 40
0.2899377306
 40
0.382079597
 40
0.4722648326
 40
0.5577356842
 40
0.6374789504
 40
0.710594664
 40
0.7763796223
 40
0.8342355705
 40
0.8839475716
 40
0.9055492857
 40
0.9248027634
 40
0.9417957626
 40
0.9565089435
 40
0.9689156868
 40
0.9791353927
 40
0.98775191
 40
0.9943233075
 40
0.9966476107
 40
0.9983676136
 40
0.999484586
 40
1.0
 40
1.0
 40
1.0
 40
1.0
 10
-76.1168473261
 20
128.7274684296
 30
0.0
 10
-76.1159750051
 20
128.8449973451
 30
0.0
 10
-76.1149993573
 20
129.0788356043
 30
0.0
 10
-76.1160631181
 20
129.4265065062
 30
0.0
 10
-76.1192359723
 20
129.7671257368
 30
0.0
 10
-76.1262503846
 20
130.0995224461
 30
0.0
 10
-76.1294446638
 20
130.4206329786
 30
0.0
 10
-76.1315669137
 20
130.7268807448
 30
0.0
 10
-76.1322029476
 20
131.0126682861
 30
0.0
 10
-76.1315993945
 20
131.2748487595
 30
0.0
 10
-76.130076175
 20
131.5107815939
 30
0.0
 10
-76.1271747125
 20
131.7186319454
 30
0.0
 10
-76.1255135317
 20
131.873517577
 30
0.0
 10
-76.1257829535
 20
131.9821191837
 30
0.0
 10
-76.1256967951
 20
132.0514863467
 30
0.0
 10
-76.125412411
 20
132.1125925193
 30
0.0
 10
-76.1249331549
 20
132.1654880421
 30
0.0
 10
-76.1242353012
 20
132.2102560118
 30
0.0
 10
-76.1233562398
 20
132.2477153958
 30
0.0
 10
-76.1221446533
 20
132.2781468653
 30
0.0
 10
-76.121516532
 20
132.2991635825
 30
0.0
 10
-76.1214648054
 20
132.3118595273
 30
0.0
 10
-76.1214668596
 20
132.3181072079
 30
0.0
 10
-76.1218139447
 20
132.3220079373
 30
0.0
 10
-76.1218903924
 20
132.3240999822
 30
0.0
 10
-76.1222456941
 20
132.3246056896
 30
0.0
 11
-76.1168473261
 21
128.7274684296
 31
0.0
 11
-76.1154214655
 21
129.0800620048
 31
0.0
 11
-76.1164383386
 21
129.4289773825
 31
0.0
 11
-76.1199477888
 21
129.7704589493
 31
0.0
 11
-76.1256772456
 21
130.1018776952
 31
0.0
 11
-76.1293333541
 21
130.4262866374
 31
0.0
 11
-76.1313650873
 21
130.7337500912
 31
0.0
 11
-76.13199478
 21
131.02061533
 31
0.0
 11
-76.1313874454
 21
131.2836388087
 31
0.0
 11
-76.1296999262
 21
131.520285542
 31
0.0
 11
-76.1271590452
 21
131.7283992087
 31
0.0
 11
-76.1257007715
 21
131.90722566
 31
0.0
 11
-76.1257389504
 21
131.9849349809
 31
0.0
 11
-76.1256515874
 21
132.0541967837
 31
0.0
 11
-76.1253515671
 21
132.1153261309
 31
0.0
 11
-76.1248456356
 21
132.1682524496
 31
0.0
 11
-76.1241301595
 21
132.2128783442
 31
0.0
 11
-76.1232027338
 21
132.2496306947
 31
0.0
 11
-76.1221049024
 21
132.2806080372
 31
0.0
 11
-76.1215146607
 21
132.3042404069
 31
0.0
 11
-76.1214689014
 21
132.3126016575
 31
0.0
 11
-76.1215746499
 21
132.3187882384
 31
0.0
 11
-76.1218328893
 21
132.3227980929
 31
0.0
 11
-76.1222456941
 21
132.3246056896
 31
0.0
  0
SPLINE
  5
4E1
100
AcDbEntity
  8
RACCORDO
100
AcDbSpline
 62
253
  6
CONTINUOUS
 70
0
 71
3
 72
31
 73
27
 74
25
 42
0.0000001
 43
0.0000001
 44
0.0000000001
 12
-0.0785906349
 22
-0.214977381
 32
0.0
 13
0.1630219055
 23
-0.1606724014
 33
0.0
 40
0.0
 40
0.0
 40
0.0
 40
0.0
 40
0.0061632046
 40
0.0198569788
 40
0.0422582849
 40
0.0741224721
 40
0.1671718629
 40
0.2911811423
 40
0.3575784671
 40
0.4241914435
 40
0.4654365314
 40
0.5110864509
 40
0.5349976196
 40
0.5597892083
 40
0.6024325319
 40
0.6429470713
 40
0.6857266398
 40
0.7705306554
 40
0.8112459402
 40
0.8504215108
 40
0.8695984552
 40
0.8785202135
 40
0.8928018872
 40
0.9212544814
 40
0.9472322206
 40
1.0
 40
1.0
 40
1.0
 40
1.0
 10
-73.3833654039
 20
145.6057779329
 30
0.0
 10
-73.3835268607
 20
145.6053362831
 30
0.0
 10
-73.3832038897
 20
145.6037541992
 30
0.0
 10
-73.3825033593
 20
145.6006875097
 30
0.0
 10
-73.3808360465
 20
145.595724767
 30
0.0
 10
-73.3769108981
 20
145.5852234699
 30
0.0
 10
-73.3693126601
 20
145.5677734871
 30
0.0
 10
-73.3593038548
 20
145.5485946781
 30
0.0
 10
-73.3497942759
 20
145.5314518458
 30
0.0
 10
-73.3425970746
 20
145.5202222402
 30
0.0
 10
-73.3380564005
 20
145.5094028321
 30
0.0
 10
-73.334071453
 20
145.5019346025
 30
0.0
 10
-73.3304395082
 20
145.4957263035
 30
0.0
 10
-73.3271693235
 20
145.4895401339
 30
0.0
 10
-73.3214971371
 20
145.483474383
 30
0.0
 10
-73.3160873613
 20
145.4755248121
 30
0.0
 10
-73.3092250026
 20
145.4646896649
 30
0.0
 10
-73.3017806467
 20
145.4542183606
 30
0.0
 10
-73.2944610867
 20
145.4440075831
 30
0.0
 10
-73.2898109085
 20
145.438037314
 30
0.0
 10
-73.2870083809
 20
145.4337397015
 30
0.0
 10
-73.2847309844
 20
145.4313789144
 30
0.0
 10
-73.2836877059
 20
145.4274507339
 30
0.0
 10
-73.2831515571
 20
145.4222453047
 30
0.0
 10
-73.2796371735
 20
145.4147357179
 30
0.0
 10
-73.2759261543
 20
145.4099178801
 30
0.0
 10
-73.2730587197
 20
145.4070917715
 30
0.0
 11
-73.3833654039
 21
145.6057779329
 31
0.0
 11
-73.3833257756
 21
145.6043677785
 31
0.0
 11
-73.3826063711
 21
145.6013170521
 31
0.0
 11
-73.381048691
 21
145.596431892
 31
0.0
 11
-73.378509618
 21
145.5895946521
 31
0.0
 11
-73.3700668092
 21
145.5700412185
 31
0.0
 11
-73.3571331264
 21
145.54477432
 31
0.0
 11
-73.349659627
 21
145.5315409767
 31
0.0
 11
-73.3420316082
 21
145.5183390564
 31
0.0
 11
-73.3380617156
 21
145.509773627
 31
0.0
 11
-73.3332138616
 21
145.5005173697
 31
0.0
 11
-73.3305050168
 21
145.4957616537
 31
0.0
 11
-73.3276557965
 21
145.4908541983
 31
0.0
 11
-73.3215949629
 21
145.4832031685
 31
0.0
 11
-73.3162266825
 21
145.4756414976
 31
0.0
 11
-73.3108916832
 21
145.4674305598
 31
0.0
 11
-73.2998184282
 21
145.451487851
 31
0.0
 11
-73.294340861
 21
145.4439480974
 31
0.0
 11
-73.2890110842
 21
145.436736964
 31
0.0
 11
-73.2864230807
 21
145.4331916036
 31
0.0
 11
-73.2851340685
 21
145.4316077112
 31
0.0
 11
-73.2840330653
 21
145.4285297345
 31
0.0
 11
-73.2827606978
 21
145.4221426508
 31
0.0
 11
-73.2803925423
 21
145.4166884735
 31
0.0
 11
-73.2730587197
 21
145.4070917715
 31
0.0
  0
SPLINE
  5
4E2
100
AcDbEntity
  8
RACCORDO
100
AcDbSpline
 62
253
  6
CONTINUOUS
 70
0
 71
3
 72
13
 73
9
 74
7
 42
0.0000001
 43
0.0000001
 44
0.0000000001
 12
0.0000186599
 22
3.4393192043
 32
0.0
 13
-0.0000008759
 23
3.4393192043
 33
0.0
 40
0.0
 40
0.0
 40
0.0
 40
0.0
 40
0.3160600239
 40
0.6031591704
 40
0.7278031061
 40
0.8364472646
 40
0.9280962461
 40
1.0
 40
1.0
 40
1.0
 40
1.0
 10
-76.1334584685
 20
-84.25
 30
0.0
 10
-76.1334565027
 20
-83.88765623
 30
0.0
 10
-76.1405087986
 20
-83.1961483898
 30
0.0
 10
-76.1656713948
 20
-82.3620940337
 30
0.0
 10
-76.1915935773
 20
-81.7660615189
 30
0.0
 10
-76.2099100427
 20
-81.3939880727
 30
0.0
 10
-76.2249291362
 20
-81.0823002927
 30
0.0
 10
-76.2299754488
 20
-80.8948142626
 30
0.0
 10
-76.2299754698
 20
-80.812380942
 30
0.0
 11
-76.1334584685
 21
-84.25
 31
0.0
 11
-76.1446369348
 21
-83.1630261684
 31
0.0
 11
-76.1743388577
 21
-82.1760473809
 31
0.0
 11
-76.1928271841
 21
-81.747755962
 31
0.0
 11
-76.2107978048
 21
-81.3745264041
 31
0.0
 11
-76.2247694764
 21
-81.0596261011
 31
0.0
 11
-76.2299754698
 21
-80.812380942
 31
0.0
  0
SPLINE
  5
4E3
100
AcDbEntity
  8
RACCORDO
100
AcDbSpline
 62
253
  6
CONTINUOUS
 70
0
 71
3
 72
11
 73
7
 74
5
 42
0.0000001
 43
0.0000001
 44
0.0000000001
 12
-0.0014146276
 22
0.0228335716
 32
0.0
 13
0.013179368
 23
0.0186996637
 33
0.0
 40
0.0
 40
0.0
 40
0.0
 40
0.0
 40
0.0522103105
 40
0.1940237006
 40
0.4770072619
 40
1.0
 40
1.0
 40
1.0
 40
1.0
 10
-76.1329546725
 20
-132.3447230737
 30
0.0
 10
-76.1329792919
 20
-132.3443256911
 30
0.0
 10
-76.1323824255
 20
-132.3429019898
 30
0.0
 10
-76.131020366
 20
-132.3395982497
 30
0.0
 10
-76.1279474198
 20
-132.3329928399
 30
0.0
 10
-76.1245432654
 20
-132.3278656191
 30
0.0
 10
-76.1222456941
 20
-132.3246056896
 30
0.0
 11
-76.1329546725
 21
-132.3447230737
 31
0.0
 11
-76.1326611699
 21
-132.3435652621
 31
0.0
 11
-76.1314051552
 21
-132.3405739406
 31
0.0
 11
-76.1286280722
 21
-132.3347259175
 31
0.0
 11
-76.1222456941
 21
-132.3246056896
 31
0.0
  0
SPLINE
  5
4E4
100
AcDbEntity
  8
RACCORDO
100
AcDbSpline
 62
253
  6
CONTINUOUS
 70
0
 71
3
 72
13
 73
9
 74
7
 42
0.0000001
 43
0.0000001
 44
0.0000000001
 12
0.0000005844
 22
3.4393185115
 32
0.0
 13
-0.0000225631
 23
3.4393185115
 33
0.0
 40
0.0
 40
0.0
 40
0.0
 40
0.0
 40
0.0719101074
 40
0.1635563694
 40
0.272199376
 40
0.3968365467
 40
0.683931236
 40
1.0
 40
1.0
 40
1.0
 40
1.0
 10
-76.2299754698
 20
-61.1876183416
 30
0.0
 10
-76.2299754558
 20
-61.1051777537
 30
0.0
 10
-76.2249306095
 20
-60.9176875529
 30
0.0
 10
-76.2099089629
 20
-60.605997086
 30
0.0
 10
-76.1915936145
 20
-60.2339358775
 30
0.0
 10
-76.1656719444
 20
-59.6379176577
 30
0.0
 10
-76.1405091433
 20
-58.8038663318
 30
0.0
 10
-76.1334560914
 20
-58.112353717
 30
0.0
 10
-76.1334584685
 20
-57.75
 30
0.0
 11
-76.2299754698
 21
-61.1876183416
 31
0.0
 11
-76.2247697747
 21
-60.9403513696
 31
0.0
 11
-76.2107974034
 21
-60.6254605235
 31
0.0
 11
-76.192826793
 21
-60.2522350068
 31
0.0
 11
-76.1743395005
 21
-59.8239669185
 31
0.0
 11
-76.1446375227
 21
-58.8370036681
 31
0.0
 11
-76.1334584685
 21
-57.75
 31
0.0
  0
SPLINE
  5
4E5
100
AcDbEntity
  8
RACCORDO
100
AcDbSpline
 62
253
  6
CONTINUOUS
 70
0
 71
3
 72
13
 73
9
 74
7
 42
0.0000001
 43
0.0000001
 44
0.0000000001
 12
0.0000186599
 22
3.4393192043
 32
0.0
 13
-0.0000008759
 23
3.4393192043
 33
0.0
 40
0.0
 40
0.0
 40
0.0
 40
0.0
 40
0.3160600239
 40
0.6031591704
 40
0.7278031061
 40
0.8364472646
 40
0.9280962461
 40
1.0
 40
1.0
 40
1.0
 40
1.0
 10
-76.1334584685
 20
-13.25
 30
0.0
 10
-76.1334565027
 20
-12.88765623
 30
0.0
 10
-76.1405087986
 20
-12.1961483898
 30
0.0
 10
-76.1656713948
 20
-11.3620940337
 30
0.0
 10
-76.1915935773
 20
-10.7660615189
 30
0.0
 10
-76.2099100427
 20
-10.3939880727
 30
0.0
 10
-76.2249291362
 20
-10.0823002927
 30
0.0
 10
-76.2299754488
 20
-9.8948142626
 30
0.0
 10
-76.2299754698
 20
-9.812380942
 30
0.0
 11
-76.1334584685
 21
-13.25
 31
0.0
 11
-76.1446369348
 21
-12.1630261684
 31
0.0
 11
-76.1743388577
 21
-11.1760473809
 31
0.0
 11
-76.1928271841
 21
-10.747755962
 31
0.0
 11
-76.2107978048
 21
-10.3745264041
 31
0.0
 11
-76.2247694764
 21
-10.0596261011
 31
0.0
 11
-76.2299754698
 21
-9.812380942
 31
0.0
  0
SPLINE
  5
4E6
100
AcDbEntity
  8
RACCORDO
100
AcDbSpline
 62
253
  6
CONTINUOUS
 70
0
 71
3
 72
13
 73
9
 74
7
 42
0.0000001
 43
0.0000001
 44
0.0000000001
 12
0.0000005844
 22
3.4393185115
 32
0.0
 13
-0.0000225631
 23
3.4393185115
 33
0.0
 40
0.0
 40
0.0
 40
0.0
 40
0.0
 40
0.0719101074
 40
0.1635563694
 40
0.272199376
 40
0.3968365467
 40
0.683931236
 40
1.0
 40
1.0
 40
1.0
 40
1.0
 10
-76.2299754698
 20
9.8123816584
 30
0.0
 10
-76.2299754558
 20
9.8948222463
 30
0.0
 10
-76.2249306095
 20
10.0823124471
 30
0.0
 10
-76.2099089629
 20
10.394002914
 30
0.0
 10
-76.1915936145
 20
10.7660641225
 30
0.0
 10
-76.1656719444
 20
11.3620823423
 30
0.0
 10
-76.1405091433
 20
12.1961336682
 30
0.0
 10
-76.1334560914
 20
12.887646283
 30
0.0
 10
-76.1334584685
 20
13.25
 30
0.0
 11
-76.2299754698
 21
9.8123816584
 31
0.0
 11
-76.2247697747
 21
10.0596486304
 31
0.0
 11
-76.2107974034
 21
10.3745394765
 31
0.0
 11
-76.192826793
 21
10.7477649932
 31
0.0
 11
-76.1743395005
 21
11.1760330815
 31
0.0
 11
-76.1446375227
 21
12.1629963319
 31
0.0
 11
-76.1334584685
 21
13.25
 31
0.0
  0
SPLINE
  5
4E7
100
AcDbEntity
  8
RACCORDO
100
AcDbSpline
 62
253
  6
CONTINUOUS
 70
0
 71
3
 72
13
 73
9
 74
7
 42
0.0000001
 43
0.0000001
 44
0.0000000001
 12
0.0000186599
 22
3.4393192043
 32
0.0
 13
-0.0000008759
 23
3.4393192043
 33
0.0
 40
0.0
 40
0.0
 40
0.0
 40
0.0
 40
0.3160600239
 40
0.6031591704
 40
0.7278031061
 40
0.8364472646
 40
0.9280962461
 40
1.0
 40
1.0
 40
1.0
 40
1.0
 10
-76.1334584685
 20
57.75
 30
0.0
 10
-76.1334565027
 20
58.11234377
 30
0.0
 10
-76.1405087986
 20
58.8038516102
 30
0.0
 10
-76.1656713948
 20
59.6379059663
 30
0.0
 10
-76.1915935773
 20
60.2339384811
 30
0.0
 10
-76.2099100427
 20
60.6060119273
 30
0.0
 10
-76.2249291362
 20
60.9176997073
 30
0.0
 10
-76.2299754488
 20
61.1051857374
 30
0.0
 10
-76.2299754698
 20
61.187619058
 30
0.0
 11
-76.1334584685
 21
57.75
 31
0.0
 11
-76.1446369348
 21
58.8369738316
 31
0.0
 11
-76.1743388577
 21
59.8239526191
 31
0.0
 11
-76.1928271841
 21
60.252244038
 31
0.0
 11
-76.2107978048
 21
60.6254735959
 31
0.0
 11
-76.2247694764
 21
60.9403738989
 31
0.0
 11
-76.2299754698
 21
61.187619058
 31
0.0
  0
SPLINE
  5
4E8
100
AcDbEntity
  8
RACCORDO
100
AcDbSpline
 62
253
  6
CONTINUOUS
 70
0
 71
3
 72
13
 73
9
 74
7
 42
0.0000001
 43
0.0000001
 44
0.0000000001
 12
0.0000005844
 22
3.4393185116
 32
0.0
 13
-0.0000225631
 23
3.4393185115
 33
0.0
 40
0.0
 40
0.0
 40
0.0
 40
0.0
 40
0.0719101074
 40
0.1635563694
 40
0.272199376
 40
0.3968365467
 40
0.683931236
 40
1.0
 40
1.0
 40
1.0
 40
1.0
 10
-76.2299754698
 20
80.8123816584
 30
0.0
 10
-76.2299754558
 20
80.8948222463
 30
0.0
 10
-76.2249306095
 20
81.0823124471
 30
0.0
 10
-76.2099089629
 20
81.394002914
 30
0.0
 10
-76.1915936145
 20
81.7660641225
 30
0.0
 10
-76.1656719444
 20
82.3620823423
 30
0.0
 10
-76.1405091433
 20
83.1961336682
 30
0.0
 10
-76.1334560914
 20
83.887646283
 30
0.0
 10
-76.1334584685
 20
84.25
 30
0.0
 11
-76.2299754698
 21
80.8123816584
 31
0.0
 11
-76.2247697747
 21
81.0596486304
 31
0.0
 11
-76.2107974034
 21
81.3745394765
 31
0.0
 11
-76.192826793
 21
81.7477649932
 31
0.0
 11
-76.1743395005
 21
82.1760330815
 31
0.0
 11
-76.1446375227
 21
83.1629963319
 31
0.0
 11
-76.1334584685
 21
84.25
 31
0.0
  0
SPLINE
  5
4E9
100
AcDbEntity
  8
RACCORDO
100
AcDbSpline
 62
253
  6
CONTINUOUS
 70
0
 71
3
 72
13
 73
9
 74
7
 42
0.0000001
 43
0.0000001
 44
0.0000000001
 12
0.0323535411
 22
-0.0422704044
 32
0.0
 13
-0.0006535818
 23
0.0532269813
 33
0.0
 40
0.0
 40
0.0
 40
0.0
 40
0.0
 40
0.0120147801
 40
0.056313743
 40
0.133157443
 40
0.2424953849
 40
0.5586836401
 40
1.0
 40
1.0
 40
1.0
 40
1.0
 10
-76.7299139595
 20
-130.7456995727
 30
0.0
 10
-76.729784386
 20
-130.7458688626
 30
0.0
 10
-76.7297072332
 20
-130.7438649932
 30
0.0
 10
-76.7296252068
 20
-130.7425916161
 30
0.0
 10
-76.7296089407
 20
-130.7378502809
 30
0.0
 10
-76.7296465285
 20
-130.7293450311
 30
0.0
 10
-76.7299306852
 20
-130.713652167
 30
0.0
 10
-76.7301322957
 20
-130.7003256756
 30
0.0
 10
-76.7302284411
 20
-130.6924956964
 30
0.0
 11
-76.7299139595
 21
-130.7456995727
 31
0.0
 11
-76.7297533971
 21
-130.7450804968
 31
0.0
 11
-76.7296540903
 21
-130.742724511
 31
0.0
 11
-76.7296158453
 21
-130.7386342232
 31
0.0
 11
-76.7296381591
 21
-130.7328140987
 31
0.0
 11
-76.7298815301
 21
-130.7159848432
 31
0.0
 11
-76.7302284411
 21
-130.6924956964
 31
0.0
  0
SPLINE
  5
4EA
100
AcDbEntity
  8
RACCORDO
100
AcDbSpline
 62
253
  6
CONTINUOUS
 70
0
 71
3
 72
15
 73
11
 74
9
 42
0.0000001
 43
0.0000001
 44
0.0000000001
 12
-0.0238506425
 22
1.9423700023
 32
0.0
 13
-0.0078968759
 23
1.942500378
 33
0.0
 40
0.0
 40
0.0
 40
0.0
 40
0.0
 40
0.1333932916
 40
0.1828432586
 40
0.2379368028
 40
0.3633822811
 40
0.5062352154
 40
0.6626222051
 40
0.8287707156
 40
1.0
 40
1.0
 40
1.0
 40
1.0
 10
-76.7302284411
 20
-130.6924956964
 30
0.0
 10
-76.7312889464
 20
-130.6061293204
 30
0.0
 10
-76.7306731309
 20
-130.4877300378
 30
0.0
 10
-76.7320327779
 20
-130.3336703742
 30
0.0
 10
-76.7326842867
 20
-130.1847523178
 30
0.0
 10
-76.7329198303
 20
-129.975354077
 30
0.0
 10
-76.7321500507
 20
-129.7003673378
 30
0.0
 10
-76.7293402402
 20
-129.3990382172
 30
0.0
 10
-76.7275395066
 20
-129.0793263445
 30
0.0
 10
-76.7278392676
 20
-128.8608706035
 30
0.0
 10
-76.728289993
 20
-128.7499996203
 30
0.0
 11
-76.7302284411
 21
-130.6924956964
 31
0.0
 11
-76.7312742745
 21
-130.4333791464
 31
0.0
 11
-76.7319331288
 21
-130.3373240326
 31
0.0
 11
-76.7324496144
 21
-130.2303051642
 31
0.0
 11
-76.7327581171
 21
-129.9866254568
 31
0.0
 11
-76.7318864563
 21
-129.7091326541
 31
0.0
 11
-76.729580449
 21
-129.4053571097
 31
0.0
 11
-76.7279291408
 21
-129.0826151226
 31
0.0
 11
-76.728289993
 21
-128.7499996203
 31
0.0
  0
ELLIPSE
  5
4EB
100
AcDbEntity
  8
RACCORDO
100
AcDbEllipse
 62
7
  6
CONTINUOUS
 10
-3.2709172065
 20
-146.4082863863
 30
0.0
 11
0.25
 21
-0.0
 31
0.0
 40
0.0524077793
 41
1.5707963268
 42
3.054326191
  0
ELLIPSE
  5
4EC
100
AcDbEntity
  8
RACCORDO
100
AcDbEllipse
 62
7
  6
CONTINUOUS
 10
3.2709172065
 20
-146.4082863863
 30
0.0
 11
0.25
 21
-0.0
 31
0.0
 40
0.0524077793
 41
0.0872664626
 42
1.5707963268
  0
ELLIPSE
  5
4ED
100
AcDbEntity
  8
RACCORDO
100
AcDbEllipse
 62
7
  6
CONTINUOUS
 10
-3.2709172065
 20
146.4082863863
 30
0.0
 11
0.25
 21
-0.0
 31
0.0
 40
0.0524077793
 41
-3.054326191
 42
-1.5707963268
  0
ELLIPSE
  5
4EE
100
AcDbEntity
  8
RACCORDO
100
AcDbEllipse
 62
7
  6
CONTINUOUS
 10
3.2709172065
 20
146.4082863863
 30
0.0
 11
0.25
 21
-0.0
 31
0.0
 40
0.0524077793
 41
-1.5707963268
 42
-0.0872664626
  0
ELLIPSE
  5
4EF
100
AcDbEntity
  8
RACCORDO
100
AcDbEllipse
 62
7
  6
CONTINUOUS
 10
3.9040601206
 20
-146.4868980552
 30
0.0
 11
0.25
 21
-0.0
 31
0.0
 40
0.0524077793
 41
-3.054326191
 42
-1.5707963268
  0
ELLIPSE
  5
4F0
100
AcDbEntity
  8
RACCORDO
100
AcDbEllipse
 62
7
  6
CONTINUOUS
 10
-3.9040601206
 20
-146.4868980552
 30
0.0
 11
0.25
 21
-0.0
 31
0.0
 40
0.0524077793
 41
-1.5707963268
 42
-0.0872664626
  0
ELLIPSE
  5
4F1
100
AcDbEntity
  8
RACCORDO
100
AcDbEllipse
 62
7
  6
CONTINUOUS
 10
3.9040601206
 20
146.4868980552
 30
0.0
 11
0.25
 21
-0.0
 31
0.0
 40
0.0524077793
 41
1.5707963268
 42
3.054326191
  0
ELLIPSE
  5
4F2
100
AcDbEntity
  8
RACCORDO
100
AcDbEllipse
 62
7
  6
CONTINUOUS
 10
-3.9040601206
 20
146.4868980552
 30
0.0
 11
0.25
 21
-0.0
 31
0.0
 40
0.0524077793
 41
0.0872664626
 42
1.5707963268
  0
ENDSEC
  0
SECTION
  2
OBJECTS
  0
DICTIONARY
  5
C
100
AcDbDictionary
280
0
281
1
  3
ACAD_GROUP
350
D
  3
ACAD_MLINESTYLE
350
17
  3
ACAD_LAYOUT
350
1A
  3
ACAD_PLOTSETTINGS
350
19
  3
ACAD_PLOTSTYLENAME
350
E
  0
DICTIONARY
  5
D
102
{ACAD_REACTORS
330
C
102
}
100
AcDbDictionary
280
0
281
1
  0
ACDBDICTIONARYWDFLT
  5
E
102
{ACAD_REACTORS
330
C
102
}
100
AcDbDictionary
281
1
  3
Normal
350
F
100
AcDbDictionaryWithDefault
340
F
  0
DICTIONARY
  5
17
102
{ACAD_REACTORS
330
C
102
}
100
AcDbDictionary
280
0
281
1
  3
Standard
350
18
  0
DICTIONARY
  5
19
102
{ACAD_REACTORS
330
C
102
}
100
AcDbDictionary
281
1
  0
DICTIONARY
  5
1A
102
{ACAD_REACTORS
330
C
102
}
100
AcDbDictionary
281
1
  3
Model
350
4F3
  3
Layout1
350
4F4
  0
ACDBPLACEHOLDER
  5
F
102
{ACAD_REACTORS
330
E
102
}
  0
MLINESTYLE
  5
18
102
{ACAD_REACTORS
330
17
102
}
100
AcDbMlineStyle
  2
STANDARD
 70
0
  3

 62
256
 51
90.0
 52
90.0
 71
2
 49
0.5
 62
256
  6
BYLAYER
 49
-0.5
 62
256
  6
BYLAYER
  0
LAYOUT
  5
4F3
102
{ACAD_REACTORS
330
1A
102
}
100
AcDbPlotSettings
  1

  2
none_device
  4
ISO_A4_(297.00_x_210.00_MM)
  6

 40
0.0
 41
0.0
 42
0.0
 43
0.0
 44
297.0
 45
210.0
 46
0.0
 47
0.0
 48
0.0
 49
0.0
140
0.0
141
0.0
142
1.0
143
1.0
 70
1024
 72
1
 73
0
 74
0
  7

 75
0
147
1.0
148
0.0
149
0.0
100
AcDbLayout
  1
Model
 70
0
 71
0
 10
0.0
 20
0.0
 11
297.0
 21
210.0
 12
0.0
 22
0.0
 32
0.0
 14
0.0
 24
0.0
 34
0.0
 15
0.0
 25
0.0
 35
0.0
146
0.0
 13
0.0
 23
0.0
 33
0.0
 16
1.0
 26
0.0
 36
0.0
 17
0.0
 27
1.0
 37
0.0
 76
0
330
20F
345
0
346
0
  0
LAYOUT
  5
4F4
102
{ACAD_REACTORS
330
1A
102
}
100
AcDbPlotSettings
  1

  2
none_device
  4
ISO_A4_(297.00_x_210.00_MM)
  6

 40
0.0
 41
0.0
 42
0.0
 43
0.0
 44
297.0
 45
210.0
 46
0.0
 47
0.0
 48
0.0
 49
0.0
140
0.0
141
0.0
142
1.0
143
1.0
 70
0
 72
1
 73
0
 74
0
  7

 75
0
147
1.0
148
0.0
149
0.0
100
AcDbLayout
  1
Layout1
 70
0
 71
1
 10
0.0
 20
0.0
 11
297.0
 21
210.0
 12
0.0
 22
0.0
 32
0.0
 14
0.0
 24
0.0
 34
0.0
 15
0.0
 25
0.0
 35
0.0
146
0.0
 13
0.0
 23
0.0
 33
0.0
 16
1.0
 26
0.0
 36
0.0
 17
0.0
 27
1.0
 37
0.0
 76
0
330
210
345
0
346
0
  0
ENDSEC
  0
EOF
