  0
SECTION
  2
HEADER
  9
$ACADVER
  1
AC1015
  9
$DWGCODEPAGE
  3
ANSI_1252
  9
$EXTMAX
 10
297.0
 20
210.0
 30
0.0
  9
$EXTMIN
 10
0.0
 20
0.0
 30
0.0
  9
$LIMMIN
 10
0.0
 20
0.0
  9
$LIMMAX
 10
297.0
 20
210.0
  9
$VIEWCTR
 10
148.5
 20
105.0
  9
$VIEWSIZE
 40
210.0
  9
$CLAYER
  8
0
  9
$LTSCALE
 40
16.335
  9
$CELTYPE
  6
BYLAYER
  9
$DIMSCALE
 40
1.0
  9
$DIMASZ
 40
3.0
  9
$DIMEXO
 40
1.85625
  9
$DIMDLI
 40
11.286
  9
$DIMEXE
 40
5.346
  9
$DIMCEN
 40
2.673
  9
$DIMLFAC
 40
1.0
  9
$DIMBLK
  1
_FILLED
  9
$DIMTXT
 40
3.0
  9
$DIMTOL
 70
1
  9
$DIMLIM
 70
0
  9
$DIMTFAC
 40
1.0
  9
$DIMTP
 40
0.01
  9
$DIMTM
 40
0.01
  9
$PDMODE
 70
3
  9
$PDSIZE
 40
3.0
  9
$HANDSEED
  5
53B
  9
$TILEMODE
 70
1
  9
$MEASUREMENT
 70
1
  9
$INSUNITS
 70
4
  0
ENDSEC
  0
SECTION
  2
CLASSES
  0
CLASS
  1
ACDBDICTIONARYWDFLT
  2
AcDbDictionaryWithDefault
  3
AutoCAD 2000
 90
0
280
0
281
0
  0
CLASS
  1
ACDBPLACEHOLDER
  2
AcDbPlaceHolder
  3
AutoCAD 2000
 90
0
280
0
281
0
  0
CLASS
  1
LAYOUT
  2
AcDbLayout
  3
AutoCAD 2000
 90
0
280
0
281
0
  0
ENDSEC
  0
SECTION
  2
TABLES
  0
TABLE
  2
VPORT
  5
8
100
AcDbSymbolTable
 70
2
  0
VPORT
  5
1F4
100
AcDbSymbolTableRecord
100
AcDbViewportTableRecord
  2
*ACTIVE
 70
0
 10
0.0
 20
0.0
 11
1.0
 21
1.0
 12
148.5
 22
105.0
 13
0.0
 23
0.0
 14
1.0
 24
1.0
 15
0.0
 25
0.0
 16
0.0
 26
0.0
 36
1.0
 17
0.0
 27
0.0
 37
0.0
 40
210.0
 41
1.4142857143
 42
50.0
 43
0.0
 44
0.0
 50
0.0
 51
0.0
 71
0
 72
100
 73
1
 74
1
 75
0
 76
0
 77
0
 78
0
  0
ENDTAB
  0
TABLE
  2
LTYPE
  5
5
100
AcDbSymbolTable
 70
6
  0
LTYPE
  5
14
100
AcDbSymbolTableRecord
100
AcDbLinetypeTableRecord
  2
BYBLOCK
 70
0
  3

 72
65
 73
0
 40
0.0
  0
LTYPE
  5
15
100
AcDbSymbolTableRecord
100
AcDbLinetypeTableRecord
  2
BYLAYER
 70
0
  3

 72
65
 73
0
 40
0.0
  0
LTYPE
  5
16
100
AcDbSymbolTableRecord
100
AcDbLinetypeTableRecord
  2
CONTINUOUS
 70
64
  3
Solid line
 72
65
 73
0
 40
0.0
  0
LTYPE
  5
1F5
100
AcDbSymbolTableRecord
100
AcDbLinetypeTableRecord
  2
CENTER
 70
64
  3
____ _ ____ _ ____ _ ____ _ ____ _ ____ _ ____
 72
65
 73
4
 40
0.6
 49
0.375
 74
0
 49
-0.075
 74
0
 49
0.075
 74
0
 49
-0.075
 74
0
  0
LTYPE
  5
1F6
100
AcDbSymbolTableRecord
100
AcDbLinetypeTableRecord
  2
HIDDEN
 70
64
  3
- - - - - - - - - - - - - - - - - - - -
 72
65
 73
2
 40
0.2
 49
0.1
 74
0
 49
-0.1
 74
0
  0
LTYPE
  5
1F7
100
AcDbSymbolTableRecord
100
AcDbLinetypeTableRecord
  2
PHANTOM
 70
64
  3
_____ _ _ _____ _ _ _____ _ _ _____
 72
65
 73
6
 40
0.8
 49
0.45
 74
0
 49
-0.05
 74
0
 49
0.1
 74
0
 49
-0.05
 74
0
 49
0.1
 74
0
 49
-0.05
 74
0
  0
LTYPE
  5
1F8
100
AcDbSymbolTableRecord
100
AcDbLinetypeTableRecord
  2
DOT
 70
64
  3
. . . . . . . . . . . . . . . . . . . .
 72
65
 73
2
 40
0.2
 49
0.1
 74
0
 49
-0.1
 74
0
  0
LTYPE
  5
1F9
100
AcDbSymbolTableRecord
100
AcDbLinetypeTableRecord
  2
DASHED
 70
64
  3
- - - - - - - - - - - - - - - - - - - -
 72
65
 73
2
 40
0.2
 49
0.1
 74
0
 49
-0.1
 74
0
  0
ENDTAB
  0
TABLE
  2
LAYER
  5
2
100
AcDbSymbolTable
 70
36
  0
LAYER
  5
10
100
AcDbSymbolTableRecord
100
AcDbLayerTableRecord
  2
0
 70
0
 62
7
  6
CONTINUOUS
370
-3
390
F
  0
LAYER
  5
1FA
100
AcDbSymbolTableRecord
100
AcDbLayerTableRecord
  2
DEFAULT_1
 70
0
 62
7
  6
CENTER
370
-3
390
F
  0
LAYER
  5
1FB
100
AcDbSymbolTableRecord
100
AcDbLayerTableRecord
  2
DEFAULT_2
 70
0
 62
7
  6
HIDDEN
370
-3
390
F
  0
LAYER
  5
1FC
100
AcDbSymbolTableRecord
100
AcDbLayerTableRecord
  2
DEFAULT_3
 70
0
 62
7
  6
PHANTOM
370
-3
390
F
  0
LAYER
  5
1FD
100
AcDbSymbolTableRecord
100
AcDbLayerTableRecord
  2
ASSI
 70
0
 62
7
  6
CONTINUOUS
370
-3
390
F
  0
LAYER
  5
1FE
100
AcDbSymbolTableRecord
100
AcDbLayerTableRecord
  2
COORDINATE
 70
0
 62
7
  6
CONTINUOUS
370
-3
390
F
  0
LAYER
  5
1FF
100
AcDbSymbolTableRecord
100
AcDbLayerTableRecord
  2
COPY_PUBLISH
 70
0
 62
7
  6
CONTINUOUS
370
-3
390
F
  0
LAYER
  5
200
100
AcDbSymbolTableRecord
100
AcDbLayerTableRecord
  2
COSMETICI
 70
0
 62
7
  6
CONTINUOUS
370
-3
390
F
  0
LAYER
  5
201
100
AcDbSymbolTableRecord
100
AcDbLayerTableRecord
  2
CURVE
 70
0
 62
7
  6
CONTINUOUS
370
-3
390
F
  0
LAYER
  5
202
100
AcDbSymbolTableRecord
100
AcDbLayerTableRecord
  2
DRAFT
 70
0
 62
7
  6
CONTINUOUS
370
-3
390
F
  0
LAYER
  5
203
100
AcDbSymbolTableRecord
100
AcDbLayerTableRecord
  2
IMPORT_IGES
 70
0
 62
7
  6
CONTINUOUS
370
-3
390
F
  0
LAYER
  5
204
100
AcDbSymbolTableRecord
100
AcDbLayerTableRecord
  2
NOTE
 70
0
 62
7
  6
CONTINUOUS
370
-3
390
F
  0
LAYER
  5
205
100
AcDbSymbolTableRecord
100
AcDbLayerTableRecord
  2
PIANI
 70
0
 62
7
  6
CONTINUOUS
370
-3
390
F
  0
LAYER
  5
206
100
AcDbSymbolTableRecord
100
AcDbLayerTableRecord
  2
PUNTI
 70
0
 62
7
  6
CONTINUOUS
370
-3
390
F
  0
LAYER
  5
207
100
AcDbSymbolTableRecord
100
AcDbLayerTableRecord
  2
RACCORDO
 70
0
 62
7
  6
CONTINUOUS
370
-3
390
F
  0
LAYER
  5
208
100
AcDbSymbolTableRecord
100
AcDbLayerTableRecord
  2
SIMBOLI
 70
0
 62
7
  6
CONTINUOUS
370
-3
390
F
  0
LAYER
  5
209
100
AcDbSymbolTableRecord
100
AcDbLayerTableRecord
  2
SMUSSO
 70
0
 62
7
  6
CONTINUOUS
370
-3
390
F
  0
LAYER
  5
20A
100
AcDbSymbolTableRecord
100
AcDbLayerTableRecord
  2
SNAPLINE
 70
0
 62
7
  6
CONTINUOUS
370
-3
390
F
  0
LAYER
  5
20B
100
AcDbSymbolTableRecord
100
AcDbLayerTableRecord
  2
SUPERFICI
 70
0
 62
7
  6
CONTINUOUS
370
-3
390
F
  0
LAYER
  5
20C
100
AcDbSymbolTableRecord
100
AcDbLayerTableRecord
  2
TRASH
 70
0
 62
7
  6
CONTINUOUS
370
-3
390
F
  0
LAYER
  5
20D
100
AcDbSymbolTableRecord
100
AcDbLayerTableRecord
  2
XSEC_DATUMS
 70
0
 62
7
  6
CONTINUOUS
370
-3
390
F
  0
ENDTAB
  0
TABLE
  2
STYLE
  5
3
100
AcDbSymbolTable
 70
1
  0
STYLE
  5
11
100
AcDbSymbolTableRecord
100
AcDbTextStyleTableRecord
  2
STANDARD
 70
0
 40
0.0
 41
0.8
 50
0.0
 71
0
 42
0.2
  3
txt
  4

  0
STYLE
  5
20E
100
AcDbSymbolTableRecord
100
AcDbTextStyleTableRecord
  2
TEXTSTYLE_1
 70
0
 40
0.0
 41
0.8
 50
0.0
 71
0
 42
0.2
  3
gdt
  4

  0
ENDTAB
  0
TABLE
  2
VIEW
  5
6
100
AcDbSymbolTable
 70
0
  0
ENDTAB
  0
TABLE
  2
UCS
  5
7
100
AcDbSymbolTable
 70
0
  0
ENDTAB
  0
TABLE
  2
APPID
  5
9
100
AcDbSymbolTable
 70
1
  0
APPID
  5
20F
100
AcDbSymbolTableRecord
100
AcDbRegAppTableRecord
  2
ACAD
 70
0
  0
ENDTAB
  0
TABLE
  2
BLOCK_RECORD
  5
1
100
AcDbSymbolTable
 70
0
  0
BLOCK_RECORD
  5
210
100
AcDbSymbolTableRecord
100
AcDbBlockTableRecord
  2
*Model_Space
  0
BLOCK_RECORD
  5
211
100
AcDbSymbolTableRecord
100
AcDbBlockTableRecord
  2
*Paper_Space
  0
BLOCK_RECORD
  5
212
100
AcDbSymbolTableRecord
100
AcDbBlockTableRecord
  2
_FILLED
  0
BLOCK_RECORD
  5
213
100
AcDbSymbolTableRecord
100
AcDbBlockTableRecord
  2
*D0
  0
BLOCK_RECORD
  5
214
100
AcDbSymbolTableRecord
100
AcDbBlockTableRecord
  2
*D1
  0
BLOCK_RECORD
  5
215
100
AcDbSymbolTableRecord
100
AcDbBlockTableRecord
  2
*D2
  0
ENDTAB
  0
TABLE
  2
DIMSTYLE
  5
A
100
AcDbSymbolTable
 70
1
100
AcDbDimStyleTable
 71
0
  0
DIMSTYLE
105
216
100
AcDbSymbolTableRecord
100
AcDbDimStyleTableRecord
  2
STANDARD
 70
0
  3

  4

 40
1.0
 41
3.0
 42
0.0625
 43
0.38
 44
0.18
 45
0.0
 46
0.0
 47
0.01
 48
0.01
140
3.0
141
0.09
142
0.0
143
25.4
144
1.0
145
0.0
146
1.0
147
0.09
 71
1.0
 72
0.0
 73
0
 74
0
 75
0
 76
0
 77
1
 78
8
170
0
171
2
172
0
173
0
174
0
175
0
176
0
177
0
178
0
270
2
271
2
272
2
273
2
274
2
275
0
280
0
281
0
282
0
283
1
284
8
285
0
286
0
287
3
288
0
340
11
341
212
342
212
343
212
344
212
  0
DIMSTYLE
105
217
100
AcDbSymbolTableRecord
100
AcDbDimStyleTableRecord
  2
DIMSTYLE_1
 70
0
  3

  4

 40
1.0
 41
3.0
 42
0.0625
 43
0.38
 44
0.18
 45
0.0
 46
0.0
 47
0.0
 48
0.0
140
3.0
141
0.09
142
0.0
143
25.4
144
1.0
145
0.0
146
1.0
147
0.09
 71
0.0
 72
0.0
 73
0
 74
0
 75
0
 76
0
 77
1
 78
8
170
0
171
2
172
0
173
0
174
0
175
0
176
0
177
0
178
0
270
2
271
2
272
2
273
2
274
2
275
0
280
0
281
0
282
0
283
1
284
8
285
0
286
0
287
3
288
0
340
11
341
212
342
212
343
212
344
212
  0
ENDTAB
  0
ENDSEC
  0
SECTION
  2
BLOCKS
  0
BLOCK
  5
20
100
AcDbEntity
  8
0
100
AcDbBlockBegin
  2
*Model_Space
 70
0
 10
0.0
 20
0.0
 30
0.0
  3
*Model_Space
  1

  0
ENDBLK
  5
21
100
AcDbEntity
  8
0
100
AcDbBlockEnd
  0
BLOCK
  5
1C
100
AcDbEntity
  8
0
100
AcDbBlockBegin
  2
*Paper_Space
 70
0
 10
0.0
 20
0.0
 30
0.0
  3
*Paper_Space
  1

  0
ENDBLK
  5
1D
100
AcDbEntity
  8
0
100
AcDbBlockEnd
  0
BLOCK
  5
218
100
AcDbEntity
  8
0
100
AcDbBlockBegin
  2
_FILLED
 70
64
 10
0.0
 20
0.0
  3
_FILLED
  1

  0
SOLID
  5
219
100
AcDbEntity
  8
0
  6
BYBLOCK
 62
0
100
AcDbTrace
 10
0.0
 20
0.0
 11
-1.0
 21
0.3166666667
 12
-1.0
 22
-0.3166666667
 13
-1.0
 23
-0.3166666667
  0
ENDBLK
  5
21A
100
AcDbEntity
  8
0
  6
BYBLOCK
 62
0
100
AcDbBlockEnd
  0
BLOCK
  5
21B
100
AcDbEntity
  8
0
100
AcDbBlockBegin
 62
7
  6
CONTINUOUS
  2
*D0
 70
65
 10
0.0
 20
0.0
  3
*D0
  1

  0
LINE
  5
21C
100
AcDbEntity
  8
0
100
AcDbLine
 62
7
  6
CONTINUOUS
 10
-40.0
 20
144.0
 11
-40.0
 21
156.0
  0
LINE
  5
21D
100
AcDbEntity
  8
0
100
AcDbLine
 62
7
  6
CONTINUOUS
 10
40.0
 20
144.0
 11
40.0
 21
156.0
  0
LINE
  5
21E
100
AcDbEntity
  8
0
100
AcDbLine
 62
7
  6
CONTINUOUS
 10
-40.0
 20
154.5
 11
0.0
 21
154.5
  0
LINE
  5
21F
100
AcDbEntity
  8
0
100
AcDbLine
 62
7
  6
CONTINUOUS
 10
40.0
 20
154.5
 11
0.0
 21
154.5
  0
INSERT
  5
220
100
AcDbEntity
  8
0
100
AcDbBlockReference
 62
7
  6
CONTINUOUS
  2
_FILLED
 10
-40.0
 20
154.5
 41
3.0
 42
3.0
 43
3.0
 50
180.0
  0
INSERT
  5
221
100
AcDbEntity
  8
0
100
AcDbBlockReference
 62
7
  6
CONTINUOUS
  2
_FILLED
 10
40.0
 20
154.5
 41
3.0
 42
3.0
 43
3.0
  0
ENDBLK
  5
222
100
AcDbEntity
  8
0
  6
BYBLOCK
 62
0
100
AcDbBlockEnd
  0
BLOCK
  5
223
100
AcDbEntity
  8
0
100
AcDbBlockBegin
 62
7
  6
CONTINUOUS
  2
*D1
 70
65
 10
0.0
 20
0.0
  3
*D1
  1

  0
LINE
  5
224
100
AcDbEntity
  8
0
100
AcDbLine
 62
7
  6
CONTINUOUS
 10
37.5
 20
146.5
 11
49.5
 21
146.5
  0
LINE
  5
225
100
AcDbEntity
  8
0
100
AcDbLine
 62
7
  6
CONTINUOUS
 10
37.5
 20
-146.5
 11
49.5
 21
-146.5
  0
LINE
  5
226
100
AcDbEntity
  8
0
100
AcDbLine
 62
7
  6
CONTINUOUS
 10
48.0
 20
146.5
 11
48.0
 21
0.0
  0
LINE
  5
227
100
AcDbEntity
  8
0
100
AcDbLine
 62
7
  6
CONTINUOUS
 10
48.0
 20
-146.5
 11
48.0
 21
0.0
  0
INSERT
  5
228
100
AcDbEntity
  8
0
100
AcDbBlockReference
 62
7
  6
CONTINUOUS
  2
_FILLED
 10
48.0
 20
146.5
 41
3.0
 42
3.0
 43
3.0
 50
90.0
  0
INSERT
  5
229
100
AcDbEntity
  8
0
100
AcDbBlockReference
 62
7
  6
CONTINUOUS
  2
_FILLED
 10
48.0
 20
-146.5
 41
3.0
 42
3.0
 43
3.0
 50
270.0
  0
ENDBLK
  5
22A
100
AcDbEntity
  8
0
  6
BYBLOCK
 62
0
100
AcDbBlockEnd
  0
BLOCK
  5
22B
100
AcDbEntity
  8
0
100
AcDbBlockBegin
 62
7
  6
CONTINUOUS
  2
*D2
 70
65
 10
0.0
 20
0.0
  3
*D2
  1

  0
LINE
  5
22C
100
AcDbEntity
  8
0
100
AcDbLine
 62
7
  6
CONTINUOUS
 10
-80.7655504434
 20
129.2500000155
 11
-80.7655504434
 21
156.0
  0
LINE
  5
22D
100
AcDbEntity
  8
0
100
AcDbLine
 62
7
  6
CONTINUOUS
 10
-71.4655504434
 20
144.0
 11
-71.4655504434
 21
156.0
  0
LINE
  5
22E
100
AcDbEntity
  8
0
100
AcDbLine
 62
7
  6
CONTINUOUS
 10
-80.7655504434
 20
154.5
 11
-84.7655504434
 21
154.5
  0
LINE
  5
22F
100
AcDbEntity
  8
0
100
AcDbLine
 62
7
  6
CONTINUOUS
 10
-84.7655504434
 20
154.5
 11
-76.1155504434
 21
154.5
  0
LINE
  5
230
100
AcDbEntity
  8
0
100
AcDbLine
 62
7
  6
CONTINUOUS
 10
-71.4655504434
 20
154.5
 11
-67.4655504434
 21
154.5
  0
LINE
  5
231
100
AcDbEntity
  8
0
100
AcDbLine
 62
7
  6
CONTINUOUS
 10
-67.4655504434
 20
154.5
 11
-76.1155504434
 21
154.5
  0
INSERT
  5
232
100
AcDbEntity
  8
0
100
AcDbBlockReference
 62
7
  6
CONTINUOUS
  2
_FILLED
 10
-80.7655504434
 20
154.5
 41
3.0
 42
3.0
 43
3.0
  0
INSERT
  5
233
100
AcDbEntity
  8
0
100
AcDbBlockReference
 62
7
  6
CONTINUOUS
  2
_FILLED
 10
-71.4655504434
 20
154.5
 41
3.0
 42
3.0
 43
3.0
 50
180.0
  0
ENDBLK
  5
234
100
AcDbEntity
  8
0
  6
BYBLOCK
 62
0
100
AcDbBlockEnd
  0
ENDSEC
  0
SECTION
  2
ENTITIES
  0
DIMENSION
  5
235
100
AcDbEntity
  8
0
100
AcDbDimension
 62
7
  6
CONTINUOUS
  2
*D0
 10
40.0
 20
154.5
 11
-2.3571428571
 21
155.25
 70
160
 71
2
 42
80.0
  3
DIMSTYLE_1
100
AcDbAlignedDimension
 13
-40.0
 23
144.0
 14
40.0
 24
144.0
100
AcDbRotatedDimension
  0
DIMENSION
  5
236
100
AcDbEntity
  8
0
100
AcDbDimension
 62
7
  6
CONTINUOUS
  2
*D1
 10
48.0
 20
-146.5
 11
47.25
 21
-3.4285714286
 70
160
 71
2
 42
293.0
  3
DIMSTYLE_1
100
AcDbAlignedDimension
 13
37.5
 23
146.5
 14
37.5
 24
-146.5
 50
270.0
100
AcDbRotatedDimension
  0
DIMENSION
  5
237
100
AcDbEntity
  8
0
100
AcDbDimension
 62
7
  6
CONTINUOUS
  2
*D2
 10
-71.4655504434
 20
154.5
 11
-79.2226933005
 21
155.25
 70
160
 71
2
 42
9.3
  3
DIMSTYLE_1
100
AcDbAlignedDimension
 13
-80.7655504434
 23
129.2500000155
 14
-71.4655504434
 24
144.0
100
AcDbRotatedDimension
  0
LINE
  5
238
100
AcDbEntity
  8
RACCORDO
100
AcDbLine
 62
253
  6
CONTINUOUS
 10
-40.0
 20
-143.5
 11
-39.7359526178
 21
-143.4999469243
  0
LINE
  5
239
100
AcDbEntity
  8
RACCORDO
100
AcDbLine
 62
7
  6
CONTINUOUS
 10
37.0
 20
-146.5
 11
4.1331429141
 21
-146.5
  0
LINE
  5
23A
100
AcDbEntity
  8
RACCORDO
100
AcDbLine
 62
7
  6
CONTINUOUS
 10
-4.1331429141
 20
-146.5
 11
-37.0
 21
-146.5
  0
LINE
  5
23B
100
AcDbEntity
  8
RACCORDO
100
AcDbLine
 62
7
  6
CONTINUOUS
 10
3.041834413
 20
-146.3881826404
 11
-3.041834413
 21
-146.3881826404
  0
LINE
  5
23C
100
AcDbEntity
  8
RACCORDO
100
AcDbLine
 62
253
  6
CONTINUOUS
 10
-11.7500274807
 20
-146.2278567606
 11
11.7500274807
 21
-146.2278567606
  0
LINE
  5
23D
100
AcDbEntity
  8
RACCORDO
100
AcDbLine
 62
253
  6
CONTINUOUS
 10
-11.7500137403
 20
-145.5628707566
 11
11.7500137403
 21
-145.5628707566
  0
LINE
  5
23E
100
AcDbEntity
  8
RACCORDO
100
AcDbLine
 62
253
  6
CONTINUOUS
 10
40.0
 20
-143.5
 11
39.735952773
 21
-143.5000000636
  0
LINE
  5
23F
100
AcDbEntity
  8
RACCORDO
100
AcDbLine
 62
253
  6
CONTINUOUS
 10
-11.7499306751
 20
-132.3576119267
 11
11.7499306751
 21
-132.3576119267
  0
LINE
  5
240
100
AcDbEntity
  8
RACCORDO
100
AcDbLine
 62
253
  6
CONTINUOUS
 10
-11.7498613503
 20
-130.7537950195
 11
11.7498613503
 21
-130.7537950195
  0
LINE
  5
241
100
AcDbEntity
  8
RACCORDO
100
AcDbLine
 62
7
  6
CONTINUOUS
 10
3.635045565
 20
146.4744820414
 11
3.539931762
 21
146.413700599
  0
LINE
  5
242
100
AcDbEntity
  8
0
100
AcDbLine
 62
253
  6
CONTINUOUS
 10
-22.25
 20
-129.1538626693
 11
22.25
 21
-129.1538626693
  0
LINE
  5
243
100
AcDbEntity
  8
0
100
AcDbLine
 62
7
  6
CONTINUOUS
 10
-22.25
 20
-129.05
 11
22.25
 21
-129.05
  0
LINE
  5
244
100
AcDbEntity
  8
RACCORDO
100
AcDbLine
 62
253
  6
CONTINUOUS
 10
22.6538626693
 20
-128.75
 11
24.2603442861
 21
-128.7499997667
  0
LINE
  5
245
100
AcDbEntity
  8
0
100
AcDbLine
 62
253
  6
CONTINUOUS
 10
22.55
 20
-128.75
 11
22.6538626693
 21
-128.75
  0
LINE
  5
246
100
AcDbEntity
  8
0
100
AcDbLine
 62
253
  6
CONTINUOUS
 10
-22.55
 20
-128.75
 11
-22.6538626693
 21
-128.75
  0
LINE
  5
247
100
AcDbEntity
  8
RACCORDO
100
AcDbLine
 62
253
  6
CONTINUOUS
 10
-22.6538626693
 20
-128.75
 11
-24.2603442863
 21
-128.7499998388
  0
LINE
  5
248
100
AcDbEntity
  8
RACCORDO
100
AcDbLine
 62
7
  6
CONTINUOUS
 10
3.635045565
 20
-146.4744820414
 11
3.539931762
 21
-146.413700599
  0
LINE
  5
249
100
AcDbEntity
  8
RACCORDO
100
AcDbLine
 62
253
  6
CONTINUOUS
 10
-39.7278543933
 20
-106.500002842
 11
-24.2535132686
 21
-106.4999791556
  0
LINE
  5
24A
100
AcDbEntity
  8
RACCORDO
100
AcDbLine
 62
253
  6
CONTINUOUS
 10
39.7278543933
 20
-106.500002842
 11
24.2535132686
 21
-106.4999791561
  0
LINE
  5
24B
100
AcDbEntity
  8
RACCORDO
100
AcDbLine
 62
253
  6
CONTINUOUS
 10
-25.8563908662
 20
-84.25
 11
-22.6538626693
 21
-84.25
  0
LINE
  5
24C
100
AcDbEntity
  8
RACCORDO
100
AcDbLine
 62
253
  6
CONTINUOUS
 10
25.8563908662
 20
-84.25
 11
22.6538626693
 21
-84.25
  0
LINE
  5
24D
100
AcDbEntity
  8
0
100
AcDbLine
 62
253
  6
CONTINUOUS
 10
22.55
 20
-84.25
 11
22.6538626693
 21
-84.25
  0
LINE
  5
24E
100
AcDbEntity
  8
0
100
AcDbLine
 62
253
  6
CONTINUOUS
 10
-22.55
 20
-84.25
 11
-22.6538626693
 21
-84.25
  0
LINE
  5
24F
100
AcDbEntity
  8
0
100
AcDbLine
 62
7
  6
CONTINUOUS
 10
22.25
 20
-83.95
 11
-22.25
 21
-83.95
  0
LINE
  5
250
100
AcDbEntity
  8
0
100
AcDbLine
 62
253
  6
CONTINUOUS
 10
22.25
 20
-83.8461373307
 11
-22.25
 21
-83.8461373307
  0
LINE
  5
251
100
AcDbEntity
  8
RACCORDO
100
AcDbLine
 62
253
  6
CONTINUOUS
 10
22.25
 20
-82.2826847062
 11
-22.25
 21
-82.2826847062
  0
LINE
  5
252
100
AcDbEntity
  8
RACCORDO
100
AcDbLine
 62
253
  6
CONTINUOUS
 10
22.25
 20
-80.5809109269
 11
-22.25
 21
-80.5809109269
  0
LINE
  5
253
100
AcDbEntity
  8
RACCORDO
100
AcDbLine
 62
253
  6
CONTINUOUS
 10
-22.25
 20
-61.4190890731
 11
22.25
 21
-61.4190890731
  0
LINE
  5
254
100
AcDbEntity
  8
RACCORDO
100
AcDbLine
 62
253
  6
CONTINUOUS
 10
-22.25
 20
-59.7173152938
 11
22.25
 21
-59.7173152938
  0
LINE
  5
255
100
AcDbEntity
  8
RACCORDO
100
AcDbLine
 62
253
  6
CONTINUOUS
 10
-23.4974067317
 20
80.7994651035
 11
-22.9188423999
 21
82.3998704614
  0
LINE
  5
256
100
AcDbEntity
  8
0
100
AcDbLine
 62
253
  6
CONTINUOUS
 10
-22.25
 20
-58.1538626693
 11
22.25
 21
-58.1538626693
  0
LINE
  5
257
100
AcDbEntity
  8
0
100
AcDbLine
 62
7
  6
CONTINUOUS
 10
-22.25
 20
-58.05
 11
22.25
 21
-58.05
  0
LINE
  5
258
100
AcDbEntity
  8
0
100
AcDbLine
 62
253
  6
CONTINUOUS
 10
22.55
 20
-57.75
 11
22.6538626693
 21
-57.75
  0
LINE
  5
259
100
AcDbEntity
  8
0
100
AcDbLine
 62
253
  6
CONTINUOUS
 10
-22.55
 20
-57.75
 11
-22.6538626693
 21
-57.75
  0
LINE
  5
25A
100
AcDbEntity
  8
RACCORDO
100
AcDbLine
 62
253
  6
CONTINUOUS
 10
-22.6538626693
 20
-57.75
 11
-25.8563908662
 21
-57.75
  0
LINE
  5
25B
100
AcDbEntity
  8
RACCORDO
100
AcDbLine
 62
253
  6
CONTINUOUS
 10
22.6538626693
 20
-57.75
 11
25.8563908662
 21
-57.75
  0
LINE
  5
25C
100
AcDbEntity
  8
RACCORDO
100
AcDbLine
 62
253
  6
CONTINUOUS
 10
-23.4974067317
 20
-80.7994651035
 11
-22.9188423999
 21
-82.3998704614
  0
LINE
  5
25D
100
AcDbEntity
  8
0
100
AcDbLine
 62
7
  6
CONTINUOUS
 10
-40.0
 20
-143.5
 11
-40.0
 21
143.5
  0
LINE
  5
25E
100
AcDbEntity
  8
RACCORDO
100
AcDbLine
 62
253
  6
CONTINUOUS
 10
-39.7278543933
 20
106.5000028372
 11
-39.7278543933
 21
-106.500002842
  0
LINE
  5
25F
100
AcDbEntity
  8
RACCORDO
100
AcDbLine
 62
253
  6
CONTINUOUS
 10
-37.0
 20
146.5
 11
-36.9999470202
 21
146.2368092605
  0
LINE
  5
260
100
AcDbEntity
  8
RACCORDO
100
AcDbLine
 62
253
  6
CONTINUOUS
 10
-39.062921579
 20
106.500001417
 11
-39.062921579
 21
-106.5000014217
  0
LINE
  5
261
100
AcDbEntity
  8
RACCORDO
100
AcDbLine
 62
253
  6
CONTINUOUS
 10
-37.0
 20
-146.5
 11
-37.0
 21
-146.2368093679
  0
LINE
  5
262
100
AcDbEntity
  8
RACCORDO
100
AcDbLine
 62
253
  6
CONTINUOUS
 10
-25.856390866
 20
106.4999895775
 11
-25.8563908662
 21
84.25
  0
LINE
  5
263
100
AcDbEntity
  8
RACCORDO
100
AcDbLine
 62
253
  6
CONTINUOUS
 10
-25.8563908662
 20
57.75
 11
-25.8563908662
 21
13.25
  0
LINE
  5
264
100
AcDbEntity
  8
RACCORDO
100
AcDbLine
 62
253
  6
CONTINUOUS
 10
-25.8563908662
 20
-13.25
 11
-25.8563908662
 21
-57.75
  0
LINE
  5
265
100
AcDbEntity
  8
RACCORDO
100
AcDbLine
 62
253
  6
CONTINUOUS
 10
-25.8563908662
 20
-84.25
 11
-25.856390866
 21
-106.4999895779
  0
LINE
  5
266
100
AcDbEntity
  8
RACCORDO
100
AcDbLine
 62
253
  6
CONTINUOUS
 10
-24.2535132686
 20
106.4999791552
 11
-24.2535132687
 21
84.2499924171
  0
LINE
  5
267
100
AcDbEntity
  8
RACCORDO
100
AcDbLine
 62
253
  6
CONTINUOUS
 10
-24.2535132687
 20
57.7500131611
 11
-24.2535132687
 21
13.2499924171
  0
LINE
  5
268
100
AcDbEntity
  8
RACCORDO
100
AcDbLine
 62
253
  6
CONTINUOUS
 10
-24.2535132687
 20
-13.2499868389
 11
-24.2535132687
 21
-57.7500075829
  0
LINE
  5
269
100
AcDbEntity
  8
RACCORDO
100
AcDbLine
 62
253
  6
CONTINUOUS
 10
-24.2535132687
 20
-84.2499868389
 11
-24.2535132686
 21
-106.4999791557
  0
LINE
  5
26A
100
AcDbEntity
  8
RACCORDO
100
AcDbLine
 62
253
  6
CONTINUOUS
 10
-23.4974036697
 20
61.2005358073
 11
-23.497401906
 21
80.7994636681
  0
LINE
  5
26B
100
AcDbEntity
  8
RACCORDO
100
AcDbLine
 62
253
  6
CONTINUOUS
 10
-23.4974036697
 20
-9.7994641927
 11
-23.497401906
 21
9.7994636681
  0
LINE
  5
26C
100
AcDbEntity
  8
RACCORDO
100
AcDbLine
 62
253
  6
CONTINUOUS
 10
-23.4974036697
 20
-80.7994641927
 11
-23.497401906
 21
-61.2005363319
  0
LINE
  5
26D
100
AcDbEntity
  8
0
100
AcDbLine
 62
253
  6
CONTINUOUS
 10
-22.6538626693
 20
128.75
 11
-22.6538626693
 21
84.25
  0
LINE
  5
26E
100
AcDbEntity
  8
0
100
AcDbLine
 62
253
  6
CONTINUOUS
 10
-22.6538626693
 20
57.75
 11
-22.6538626693
 21
13.25
  0
LINE
  5
26F
100
AcDbEntity
  8
0
100
AcDbLine
 62
253
  6
CONTINUOUS
 10
-22.6538626693
 20
-13.25
 11
-22.6538626693
 21
-57.75
  0
LINE
  5
270
100
AcDbEntity
  8
0
100
AcDbLine
 62
253
  6
CONTINUOUS
 10
-22.6538626693
 20
-84.25
 11
-22.6538626693
 21
-128.75
  0
LINE
  5
271
100
AcDbEntity
  8
0
100
AcDbLine
 62
7
  6
CONTINUOUS
 10
-22.55
 20
128.75
 11
-22.55
 21
84.25
  0
LINE
  5
272
100
AcDbEntity
  8
0
100
AcDbLine
 62
7
  6
CONTINUOUS
 10
-22.55
 20
57.75
 11
-22.55
 21
13.25
  0
LINE
  5
273
100
AcDbEntity
  8
0
100
AcDbLine
 62
7
  6
CONTINUOUS
 10
-22.55
 20
-13.25
 11
-22.55
 21
-57.75
  0
LINE
  5
274
100
AcDbEntity
  8
0
100
AcDbLine
 62
7
  6
CONTINUOUS
 10
-22.55
 20
-84.25
 11
-22.55
 21
-128.75
  0
LINE
  5
275
100
AcDbEntity
  8
RACCORDO
100
AcDbLine
 62
253
  6
CONTINUOUS
 10
-22.25
 20
129.1538626693
 11
-22.2499996334
 21
130.7582091924
  0
LINE
  5
276
100
AcDbEntity
  8
0
100
AcDbLine
 62
253
  6
CONTINUOUS
 10
-22.25
 20
83.95
 11
-22.25
 21
83.8461373307
  0
LINE
  5
277
100
AcDbEntity
  8
0
100
AcDbLine
 62
253
  6
CONTINUOUS
 10
-22.25
 20
-83.95
 11
-22.25
 21
-83.8461373307
  0
LINE
  5
278
100
AcDbEntity
  8
0
100
AcDbLine
 62
253
  6
CONTINUOUS
 10
-22.25
 20
12.95
 11
-22.25
 21
12.8461373307
  0
LINE
  5
279
100
AcDbEntity
  8
0
100
AcDbLine
 62
253
  6
CONTINUOUS
 10
-22.25
 20
-12.95
 11
-22.25
 21
-12.8461373307
  0
LINE
  5
27A
100
AcDbEntity
  8
RACCORDO
100
AcDbLine
 62
253
  6
CONTINUOUS
 10
-22.25
 20
-12.8461373307
 11
-22.25
 21
-9.5809109269
  0
LINE
  5
27B
100
AcDbEntity
  8
RACCORDO
100
AcDbLine
 62
253
  6
CONTINUOUS
 10
-22.25
 20
9.5809109269
 11
-22.25
 21
12.8461373307
  0
LINE
  5
27C
100
AcDbEntity
  8
RACCORDO
100
AcDbLine
 62
253
  6
CONTINUOUS
 10
-22.25
 20
-58.1538626693
 11
-22.25
 21
-61.4190890731
  0
LINE
  5
27D
100
AcDbEntity
  8
0
100
AcDbLine
 62
253
  6
CONTINUOUS
 10
-22.25
 20
-58.05
 11
-22.25
 21
-58.1538626693
  0
LINE
  5
27E
100
AcDbEntity
  8
RACCORDO
100
AcDbLine
 62
253
  6
CONTINUOUS
 10
-22.25
 20
-80.5809109269
 11
-22.25
 21
-83.8461373307
  0
LINE
  5
27F
100
AcDbEntity
  8
0
100
AcDbLine
 62
253
  6
CONTINUOUS
 10
-22.25
 20
58.05
 11
-22.25
 21
58.1538626693
  0
LINE
  5
280
100
AcDbEntity
  8
RACCORDO
100
AcDbLine
 62
253
  6
CONTINUOUS
 10
-22.25
 20
58.1538626693
 11
-22.25
 21
61.4190890731
  0
LINE
  5
281
100
AcDbEntity
  8
RACCORDO
100
AcDbLine
 62
253
  6
CONTINUOUS
 10
-22.25
 20
80.5809109269
 11
-22.25
 21
83.8461373307
  0
LINE
  5
282
100
AcDbEntity
  8
0
100
AcDbLine
 62
253
  6
CONTINUOUS
 10
-22.25
 20
-129.05
 11
-22.25
 21
-129.1538626693
  0
LINE
  5
283
100
AcDbEntity
  8
0
100
AcDbLine
 62
253
  6
CONTINUOUS
 10
-22.25
 20
129.05
 11
-22.25
 21
129.1538626693
  0
LINE
  5
284
100
AcDbEntity
  8
RACCORDO
100
AcDbLine
 62
253
  6
CONTINUOUS
 10
-22.25
 20
-129.1538626693
 11
-22.2500003789
 21
-130.7582091935
  0
LINE
  5
285
100
AcDbEntity
  8
RACCORDO
100
AcDbLine
 62
253
  6
CONTINUOUS
 10
-23.4974067317
 20
9.7994651035
 11
-22.9188423999
 21
11.3998704614
  0
LINE
  5
286
100
AcDbEntity
  8
RACCORDO
100
AcDbLine
 62
253
  6
CONTINUOUS
 10
-23.4974067317
 20
-9.7994651035
 11
-22.9188423999
 21
-11.3998704614
  0
LINE
  5
287
100
AcDbEntity
  8
RACCORDO
100
AcDbLine
 62
253
  6
CONTINUOUS
 10
-11.7500274807
 20
146.2278567606
 11
-11.7498613503
 21
130.7537950195
  0
LINE
  5
288
100
AcDbEntity
  8
RACCORDO
100
AcDbLine
 62
253
  6
CONTINUOUS
 10
-11.7500274807
 20
-146.2278567606
 11
-11.7498613503
 21
-130.7537950195
  0
LINE
  5
289
100
AcDbEntity
  8
RACCORDO
100
AcDbLine
 62
253
  6
CONTINUOUS
 10
-25.8563908662
 20
-13.25
 11
-22.6538626693
 21
-13.25
  0
LINE
  5
28A
100
AcDbEntity
  8
RACCORDO
100
AcDbLine
 62
253
  6
CONTINUOUS
 10
25.8563908662
 20
-13.25
 11
22.6538626693
 21
-13.25
  0
LINE
  5
28B
100
AcDbEntity
  8
0
100
AcDbLine
 62
253
  6
CONTINUOUS
 10
22.55
 20
-13.25
 11
22.6538626693
 21
-13.25
  0
LINE
  5
28C
100
AcDbEntity
  8
0
100
AcDbLine
 62
253
  6
CONTINUOUS
 10
-22.55
 20
-13.25
 11
-22.6538626693
 21
-13.25
  0
LINE
  5
28D
100
AcDbEntity
  8
0
100
AcDbLine
 62
7
  6
CONTINUOUS
 10
22.25
 20
-12.95
 11
-22.25
 21
-12.95
  0
LINE
  5
28E
100
AcDbEntity
  8
0
100
AcDbLine
 62
253
  6
CONTINUOUS
 10
22.25
 20
-12.8461373307
 11
-22.25
 21
-12.8461373307
  0
LINE
  5
28F
100
AcDbEntity
  8
RACCORDO
100
AcDbLine
 62
253
  6
CONTINUOUS
 10
22.25
 20
-11.2826847062
 11
-22.25
 21
-11.2826847062
  0
LINE
  5
290
100
AcDbEntity
  8
RACCORDO
100
AcDbLine
 62
253
  6
CONTINUOUS
 10
22.25
 20
-9.5809109269
 11
-22.25
 21
-9.5809109269
  0
LWPOLYLINE
  5
291
100
AcDbEntity
  8
0
100
AcDbPolyline
 62
7
  6
CONTINUOUS
 90
4
 70
0
 43
0.3500000006
 10
-2.3571427875
 20
155.6785797729
 10
-2.3571427875
 20
156.5357177124
 10
-1.9285714102
 20
156.9642866821
 10
-1.2857142735
 20
156.9642866821
  0
LWPOLYLINE
  5
292
100
AcDbEntity
  8
0
100
AcDbPolyline
 62
7
  6
CONTINUOUS
 90
13
 70
0
 43
0.3500000006
 10
0.0
 20
156.1071487427
 10
0.0
 20
157.3928556519
 10
0.2142857063
 20
157.8214246216
 10
0.6428571367
 20
158.2499935913
 10
0.8571428254
 20
158.2499935913
 10
1.2857142735
 20
157.8214246216
 10
1.5000000329
 20
157.3928556519
 10
1.5000000329
 20
156.1071487427
 10
1.2857142735
 20
155.6785797729
 10
0.8571428254
 20
155.2499926758
 10
0.6428571367
 20
155.2499926758
 10
0.2142857063
 20
155.6785797729
 10
0.0
 20
156.1071487427
  0
LINE
  5
293
100
AcDbEntity
  8
RACCORDO
100
AcDbLine
 62
253
  6
CONTINUOUS
 10
-23.4974067317
 20
-61.2005348965
 11
-22.9188423999
 21
-59.6001295386
  0
LINE
  5
294
100
AcDbEntity
  8
RACCORDO
100
AcDbLine
 62
253
  6
CONTINUOUS
 10
23.4974067317
 20
61.2005348965
 11
22.9188423999
 21
59.6001295386
  0
LINE
  5
295
100
AcDbEntity
  8
RACCORDO
100
AcDbLine
 62
253
  6
CONTINUOUS
 10
-23.4974067317
 20
61.2005348965
 11
-22.9188423999
 21
59.6001295386
  0
LINE
  5
296
100
AcDbEntity
  8
RACCORDO
100
AcDbLine
 62
253
  6
CONTINUOUS
 10
23.4974067317
 20
-61.2005348965
 11
22.9188423999
 21
-59.6001295386
  0
LINE
  5
297
100
AcDbEntity
  8
RACCORDO
100
AcDbLine
 62
253
  6
CONTINUOUS
 10
-22.25
 20
9.5809109269
 11
22.25
 21
9.5809109269
  0
LINE
  5
298
100
AcDbEntity
  8
RACCORDO
100
AcDbLine
 62
253
  6
CONTINUOUS
 10
-22.25
 20
11.2826847062
 11
22.25
 21
11.2826847062
  0
LINE
  5
299
100
AcDbEntity
  8
RACCORDO
100
AcDbLine
 62
253
  6
CONTINUOUS
 10
11.7499306751
 20
132.3576119267
 11
11.7498613503
 21
130.7537950195
  0
LINE
  5
29A
100
AcDbEntity
  8
RACCORDO
100
AcDbLine
 62
253
  6
CONTINUOUS
 10
11.7499306751
 20
-132.3576119267
 11
11.7498613503
 21
-130.7537950195
  0
LINE
  5
29B
100
AcDbEntity
  8
RACCORDO
100
AcDbLine
 62
253
  6
CONTINUOUS
 10
11.75
 20
-132.3576119724
 11
11.7500274807
 21
-146.2278567606
  0
LINE
  5
29C
100
AcDbEntity
  8
RACCORDO
100
AcDbLine
 62
253
  6
CONTINUOUS
 10
11.75
 20
132.3576119725
 11
11.7500274807
 21
146.2278567606
  0
LINE
  5
29D
100
AcDbEntity
  8
0
100
AcDbLine
 62
253
  6
CONTINUOUS
 10
-22.25
 20
12.8461373307
 11
22.25
 21
12.8461373307
  0
LINE
  5
29E
100
AcDbEntity
  8
0
100
AcDbLine
 62
7
  6
CONTINUOUS
 10
-22.25
 20
12.95
 11
22.25
 21
12.95
  0
LINE
  5
29F
100
AcDbEntity
  8
0
100
AcDbLine
 62
253
  6
CONTINUOUS
 10
22.55
 20
13.25
 11
22.6538626693
 21
13.25
  0
LINE
  5
2A0
100
AcDbEntity
  8
0
100
AcDbLine
 62
253
  6
CONTINUOUS
 10
-22.55
 20
13.25
 11
-22.6538626693
 21
13.25
  0
LINE
  5
2A1
100
AcDbEntity
  8
RACCORDO
100
AcDbLine
 62
253
  6
CONTINUOUS
 10
-22.6538626693
 20
13.25
 11
-25.8563908662
 21
13.25
  0
LINE
  5
2A2
100
AcDbEntity
  8
RACCORDO
100
AcDbLine
 62
253
  6
CONTINUOUS
 10
22.6538626693
 20
13.25
 11
25.8563908662
 21
13.25
  0
LINE
  5
2A3
100
AcDbEntity
  8
RACCORDO
100
AcDbLine
 62
253
  6
CONTINUOUS
 10
22.25
 20
129.1538626693
 11
22.2500003789
 21
130.7582091935
  0
LINE
  5
2A4
100
AcDbEntity
  8
0
100
AcDbLine
 62
253
  6
CONTINUOUS
 10
22.25
 20
83.95
 11
22.25
 21
83.8461373307
  0
LINE
  5
2A5
100
AcDbEntity
  8
0
100
AcDbLine
 62
253
  6
CONTINUOUS
 10
22.25
 20
-83.95
 11
22.25
 21
-83.8461373307
  0
LINE
  5
2A6
100
AcDbEntity
  8
0
100
AcDbLine
 62
253
  6
CONTINUOUS
 10
22.25
 20
12.95
 11
22.25
 21
12.8461373307
  0
LINE
  5
2A7
100
AcDbEntity
  8
0
100
AcDbLine
 62
253
  6
CONTINUOUS
 10
22.25
 20
-12.95
 11
22.25
 21
-12.8461373307
  0
LINE
  5
2A8
100
AcDbEntity
  8
RACCORDO
100
AcDbLine
 62
253
  6
CONTINUOUS
 10
22.25
 20
-12.8461373307
 11
22.25
 21
-9.5809109269
  0
LINE
  5
2A9
100
AcDbEntity
  8
RACCORDO
100
AcDbLine
 62
253
  6
CONTINUOUS
 10
22.25
 20
9.5809109269
 11
22.25
 21
12.8461373307
  0
LINE
  5
2AA
100
AcDbEntity
  8
RACCORDO
100
AcDbLine
 62
253
  6
CONTINUOUS
 10
22.25
 20
-58.1538626693
 11
22.25
 21
-61.4190890731
  0
LINE
  5
2AB
100
AcDbEntity
  8
0
100
AcDbLine
 62
253
  6
CONTINUOUS
 10
22.25
 20
-58.05
 11
22.25
 21
-58.1538626693
  0
LINE
  5
2AC
100
AcDbEntity
  8
RACCORDO
100
AcDbLine
 62
253
  6
CONTINUOUS
 10
22.25
 20
-80.5809109269
 11
22.25
 21
-83.8461373307
  0
LINE
  5
2AD
100
AcDbEntity
  8
0
100
AcDbLine
 62
253
  6
CONTINUOUS
 10
22.25
 20
58.05
 11
22.25
 21
58.1538626693
  0
LINE
  5
2AE
100
AcDbEntity
  8
RACCORDO
100
AcDbLine
 62
253
  6
CONTINUOUS
 10
22.25
 20
58.1538626693
 11
22.25
 21
61.4190890731
  0
LINE
  5
2AF
100
AcDbEntity
  8
RACCORDO
100
AcDbLine
 62
253
  6
CONTINUOUS
 10
22.25
 20
80.5809109269
 11
22.25
 21
83.8461373307
  0
LINE
  5
2B0
100
AcDbEntity
  8
0
100
AcDbLine
 62
253
  6
CONTINUOUS
 10
22.25
 20
-129.05
 11
22.25
 21
-129.1538626693
  0
LINE
  5
2B1
100
AcDbEntity
  8
0
100
AcDbLine
 62
253
  6
CONTINUOUS
 10
22.25
 20
129.05
 11
22.25
 21
129.1538626693
  0
LINE
  5
2B2
100
AcDbEntity
  8
RACCORDO
100
AcDbLine
 62
253
  6
CONTINUOUS
 10
22.25
 20
-129.1538626693
 11
22.2499996334
 21
-130.7582091924
  0
LINE
  5
2B3
100
AcDbEntity
  8
0
100
AcDbLine
 62
7
  6
CONTINUOUS
 10
22.55
 20
-128.75
 11
22.55
 21
-84.25
  0
LINE
  5
2B4
100
AcDbEntity
  8
0
100
AcDbLine
 62
7
  6
CONTINUOUS
 10
22.55
 20
-57.75
 11
22.55
 21
-13.25
  0
LINE
  5
2B5
100
AcDbEntity
  8
0
100
AcDbLine
 62
7
  6
CONTINUOUS
 10
22.55
 20
13.25
 11
22.55
 21
57.75
  0
LINE
  5
2B6
100
AcDbEntity
  8
0
100
AcDbLine
 62
7
  6
CONTINUOUS
 10
22.55
 20
84.25
 11
22.55
 21
128.75
  0
LINE
  5
2B7
100
AcDbEntity
  8
0
100
AcDbLine
 62
253
  6
CONTINUOUS
 10
22.6538626693
 20
-128.75
 11
22.6538626693
 21
-84.25
  0
LINE
  5
2B8
100
AcDbEntity
  8
0
100
AcDbLine
 62
253
  6
CONTINUOUS
 10
22.6538626693
 20
-57.75
 11
22.6538626693
 21
-13.25
  0
LINE
  5
2B9
100
AcDbEntity
  8
0
100
AcDbLine
 62
253
  6
CONTINUOUS
 10
22.6538626693
 20
13.25
 11
22.6538626693
 21
57.75
  0
LINE
  5
2BA
100
AcDbEntity
  8
0
100
AcDbLine
 62
253
  6
CONTINUOUS
 10
22.6538626693
 20
84.25
 11
22.6538626693
 21
128.75
  0
LINE
  5
2BB
100
AcDbEntity
  8
RACCORDO
100
AcDbLine
 62
253
  6
CONTINUOUS
 10
23.4974017607
 20
61.2005363751
 11
23.4974036031
 21
80.7994641729
  0
LINE
  5
2BC
100
AcDbEntity
  8
RACCORDO
100
AcDbLine
 62
253
  6
CONTINUOUS
 10
23.4974017607
 20
-9.7994636249
 11
23.4974036031
 21
9.7994641729
  0
LINE
  5
2BD
100
AcDbEntity
  8
RACCORDO
100
AcDbLine
 62
253
  6
CONTINUOUS
 10
23.4974017607
 20
-80.7994636249
 11
23.4974036031
 21
-61.2005358271
  0
LINE
  5
2BE
100
AcDbEntity
  8
RACCORDO
100
AcDbLine
 62
253
  6
CONTINUOUS
 10
24.2535132686
 20
-106.4999791562
 11
24.2535132687
 21
-84.2499924231
  0
LINE
  5
2BF
100
AcDbEntity
  8
RACCORDO
100
AcDbLine
 62
253
  6
CONTINUOUS
 10
24.2535132687
 20
-57.7500132116
 11
24.2535132687
 21
-13.2499924231
  0
LINE
  5
2C0
100
AcDbEntity
  8
RACCORDO
100
AcDbLine
 62
253
  6
CONTINUOUS
 10
24.2535132687
 20
13.2499867884
 11
24.2535132687
 21
57.7500075769
  0
LINE
  5
2C1
100
AcDbEntity
  8
RACCORDO
100
AcDbLine
 62
253
  6
CONTINUOUS
 10
24.2535132687
 20
84.2499867884
 11
24.2535132686
 21
106.4999791549
  0
LINE
  5
2C2
100
AcDbEntity
  8
RACCORDO
100
AcDbLine
 62
253
  6
CONTINUOUS
 10
25.856390866
 20
-106.4999895784
 11
25.8563908662
 21
-84.25
  0
LINE
  5
2C3
100
AcDbEntity
  8
RACCORDO
100
AcDbLine
 62
253
  6
CONTINUOUS
 10
25.8563908662
 20
-57.75
 11
25.8563908662
 21
-13.25
  0
LINE
  5
2C4
100
AcDbEntity
  8
RACCORDO
100
AcDbLine
 62
253
  6
CONTINUOUS
 10
25.8563908662
 20
13.25
 11
25.8563908662
 21
57.75
  0
LINE
  5
2C5
100
AcDbEntity
  8
RACCORDO
100
AcDbLine
 62
253
  6
CONTINUOUS
 10
25.8563908662
 20
84.25
 11
25.856390866
 21
106.4999895772
  0
LINE
  5
2C6
100
AcDbEntity
  8
RACCORDO
100
AcDbLine
 62
253
  6
CONTINUOUS
 10
23.4974067317
 20
-9.7994651035
 11
22.9188423999
 21
-11.3998704614
  0
LINE
  5
2C7
100
AcDbEntity
  8
RACCORDO
100
AcDbLine
 62
253
  6
CONTINUOUS
 10
23.4974067317
 20
9.7994651035
 11
22.9188423999
 21
11.3998704614
  0
LINE
  5
2C8
100
AcDbEntity
  8
RACCORDO
100
AcDbLine
 62
253
  6
CONTINUOUS
 10
37.0
 20
-146.5
 11
36.9999470202
 21
-146.2368092605
  0
LINE
  5
2C9
100
AcDbEntity
  8
RACCORDO
100
AcDbLine
 62
253
  6
CONTINUOUS
 10
37.0
 20
146.5
 11
37.0
 21
146.2368093679
  0
LINE
  5
2CA
100
AcDbEntity
  8
RACCORDO
100
AcDbLine
 62
253
  6
CONTINUOUS
 10
39.062921579
 20
-106.5000014217
 11
39.062921579
 21
106.5000014187
  0
LINE
  5
2CB
100
AcDbEntity
  8
RACCORDO
100
AcDbLine
 62
253
  6
CONTINUOUS
 10
39.7278543933
 20
-106.5000028419
 11
39.7278543933
 21
106.500002839
  0
LINE
  5
2CC
100
AcDbEntity
  8
0
100
AcDbLine
 62
7
  6
CONTINUOUS
 10
40.0
 20
-143.5
 11
40.0
 21
143.5
  0
LWPOLYLINE
  5
2CD
100
AcDbEntity
  8
0
100
AcDbPolyline
 62
7
  6
CONTINUOUS
 90
10
 70
0
 43
0.3500000006
 10
47.250000824
 20
-0.642856041
 10
46.3928583527
 20
0.2142864304
 10
45.5357158813
 20
0.4285709152
 10
44.67857341
 20
0.4285709152
 10
44.2499999084
 20
-0.0000003204
 10
44.2499999084
 20
-0.642856041
 10
44.67857341
 20
-1.0714295425
 10
45.5357158813
 20
-1.0714295425
 10
45.9642848511
 20
-0.642856041
 10
45.9642848511
 20
0.2857153473
  0
LWPOLYLINE
  5
2CE
100
AcDbEntity
  8
0
100
AcDbPolyline
 62
7
  6
CONTINUOUS
 90
5
 70
0
 43
0.3500000006
 10
45.5357158813
 20
2.1428581238
 10
45.3214268646
 20
2.5000004425
 10
44.67857341
 20
2.5000004425
 10
44.2499999084
 20
2.1428581238
 10
44.2499999084
 20
1.2857133865
  0
LWPOLYLINE
  5
2CF
100
AcDbEntity
  8
0
100
AcDbPolyline
 62
7
  6
CONTINUOUS
 90
7
 70
0
 43
0.3500000006
 10
47.250000824
 20
-1.9285708809
 10
47.250000824
 20
-3.4285713387
 10
45.1071423798
 20
-1.9285708809
 10
44.67857341
 20
-1.9285708809
 10
44.2499999084
 20
-2.3571432495
 10
44.2499999084
 20
-3.000000103
 10
44.8928578949
 20
-3.4285713387
  0
LWPOLYLINE
  5
2D0
100
AcDbEntity
  8
0
100
AcDbPolyline
 62
7
  6
CONTINUOUS
 90
6
 70
0
 43
0.3500000006
 10
47.250000824
 20
1.2857133865
 10
47.250000824
 20
2.3571426086
 10
47.0357163391
 20
2.5714293594
 10
45.9642848511
 20
2.5714293594
 10
45.5357158813
 20
2.1428581238
 10
45.5357158813
 20
1.7142846222
  0
LINE
  5
2D1
100
AcDbEntity
  8
RACCORDO
100
AcDbLine
 62
253
  6
CONTINUOUS
 10
23.4974067317
 20
-80.7994651035
 11
22.9188423999
 21
-82.3998704614
  0
LINE
  5
2D2
100
AcDbEntity
  8
RACCORDO
100
AcDbLine
 62
253
  6
CONTINUOUS
 10
23.4974067317
 20
80.7994651035
 11
22.9188423999
 21
82.3998704614
  0
LINE
  5
2D3
100
AcDbEntity
  8
RACCORDO
100
AcDbLine
 62
253
  6
CONTINUOUS
 10
-25.8563908662
 20
57.75
 11
-22.6538626693
 21
57.75
  0
LINE
  5
2D4
100
AcDbEntity
  8
RACCORDO
100
AcDbLine
 62
253
  6
CONTINUOUS
 10
25.8563908662
 20
57.75
 11
22.6538626693
 21
57.75
  0
LINE
  5
2D5
100
AcDbEntity
  8
0
100
AcDbLine
 62
253
  6
CONTINUOUS
 10
22.55
 20
57.75
 11
22.6538626693
 21
57.75
  0
LINE
  5
2D6
100
AcDbEntity
  8
0
100
AcDbLine
 62
253
  6
CONTINUOUS
 10
-22.55
 20
57.75
 11
-22.6538626693
 21
57.75
  0
LINE
  5
2D7
100
AcDbEntity
  8
0
100
AcDbLine
 62
7
  6
CONTINUOUS
 10
22.25
 20
58.05
 11
-22.25
 21
58.05
  0
LINE
  5
2D8
100
AcDbEntity
  8
0
100
AcDbLine
 62
253
  6
CONTINUOUS
 10
22.25
 20
58.1538626693
 11
-22.25
 21
58.1538626693
  0
LINE
  5
2D9
100
AcDbEntity
  8
RACCORDO
100
AcDbLine
 62
253
  6
CONTINUOUS
 10
22.25
 20
59.7173152938
 11
-22.25
 21
59.7173152938
  0
LINE
  5
2DA
100
AcDbEntity
  8
RACCORDO
100
AcDbLine
 62
253
  6
CONTINUOUS
 10
22.25
 20
61.4190890731
 11
-22.25
 21
61.4190890731
  0
LINE
  5
2DB
100
AcDbEntity
  8
RACCORDO
100
AcDbLine
 62
253
  6
CONTINUOUS
 10
-22.25
 20
80.5809109269
 11
22.25
 21
80.5809109269
  0
LINE
  5
2DC
100
AcDbEntity
  8
RACCORDO
100
AcDbLine
 62
253
  6
CONTINUOUS
 10
-22.25
 20
82.2826847062
 11
22.25
 21
82.2826847062
  0
LINE
  5
2DD
100
AcDbEntity
  8
0
100
AcDbLine
 62
253
  6
CONTINUOUS
 10
-22.25
 20
83.8461373307
 11
22.25
 21
83.8461373307
  0
LINE
  5
2DE
100
AcDbEntity
  8
0
100
AcDbLine
 62
7
  6
CONTINUOUS
 10
-22.25
 20
83.95
 11
22.25
 21
83.95
  0
LINE
  5
2DF
100
AcDbEntity
  8
0
100
AcDbLine
 62
253
  6
CONTINUOUS
 10
22.55
 20
84.25
 11
22.6538626693
 21
84.25
  0
LINE
  5
2E0
100
AcDbEntity
  8
0
100
AcDbLine
 62
253
  6
CONTINUOUS
 10
-22.55
 20
84.25
 11
-22.6538626693
 21
84.25
  0
LINE
  5
2E1
100
AcDbEntity
  8
RACCORDO
100
AcDbLine
 62
253
  6
CONTINUOUS
 10
-22.6538626693
 20
84.25
 11
-25.8563908662
 21
84.25
  0
LINE
  5
2E2
100
AcDbEntity
  8
RACCORDO
100
AcDbLine
 62
253
  6
CONTINUOUS
 10
22.6538626693
 20
84.25
 11
25.8563908662
 21
84.25
  0
LINE
  5
2E3
100
AcDbEntity
  8
RACCORDO
100
AcDbLine
 62
253
  6
CONTINUOUS
 10
24.2535132686
 20
106.4999791549
 11
27.8966103766
 21
106.4999999976
  0
LINE
  5
2E4
100
AcDbEntity
  8
0
100
AcDbLine
 62
253
  6
CONTINUOUS
 10
27.8966103766
 20
106.4999999976
 11
27.9661177566
 21
106.4999999976
  0
LINE
  5
2E5
100
AcDbEntity
  8
RACCORDO
100
AcDbLine
 62
253
  6
CONTINUOUS
 10
-24.2535132686
 20
106.4999791552
 11
-27.8966103769
 21
106.4999999989
  0
LINE
  5
2E6
100
AcDbEntity
  8
RACCORDO
100
AcDbLine
 62
253
  6
CONTINUOUS
 10
27.9661177566
 20
106.4999999976
 11
39.7278543933
 21
106.500002839
  0
LINE
  5
2E7
100
AcDbEntity
  8
0
100
AcDbLine
 62
253
  6
CONTINUOUS
 10
-27.8966103769
 20
106.4999999989
 11
-27.9664415554
 21
106.499999999
  0
LINE
  5
2E8
100
AcDbEntity
  8
RACCORDO
100
AcDbLine
 62
253
  6
CONTINUOUS
 10
-27.9664415554
 20
106.499999999
 11
-39.7278543933
 21
106.5000028373
  0
LINE
  5
2E9
100
AcDbEntity
  8
RACCORDO
100
AcDbLine
 62
7
  6
CONTINUOUS
 10
-3.539931762
 20
-146.413700599
 11
-3.635045565
 21
-146.4744820414
  0
LINE
  5
2EA
100
AcDbEntity
  8
RACCORDO
100
AcDbLine
 62
7
  6
CONTINUOUS
 10
-3.539931762
 20
146.413700599
 11
-3.635045565
 21
146.4744820414
  0
LINE
  5
2EB
100
AcDbEntity
  8
0
100
AcDbLine
 62
253
  6
CONTINUOUS
 10
22.55
 20
128.75
 11
22.6538626693
 21
128.75
  0
LINE
  5
2EC
100
AcDbEntity
  8
0
100
AcDbLine
 62
253
  6
CONTINUOUS
 10
-22.55
 20
128.75
 11
-22.6538626693
 21
128.75
  0
LINE
  5
2ED
100
AcDbEntity
  8
RACCORDO
100
AcDbLine
 62
253
  6
CONTINUOUS
 10
22.6538626693
 20
128.75
 11
24.2603442863
 21
128.7499998388
  0
LINE
  5
2EE
100
AcDbEntity
  8
RACCORDO
100
AcDbLine
 62
253
  6
CONTINUOUS
 10
-22.6538626693
 20
128.75
 11
-24.2603442861
 21
128.7499997667
  0
LINE
  5
2EF
100
AcDbEntity
  8
0
100
AcDbLine
 62
7
  6
CONTINUOUS
 10
22.25
 20
129.05
 11
-22.25
 21
129.05
  0
LINE
  5
2F0
100
AcDbEntity
  8
0
100
AcDbLine
 62
253
  6
CONTINUOUS
 10
22.25
 20
129.1538626693
 11
-22.25
 21
129.1538626693
  0
LINE
  5
2F1
100
AcDbEntity
  8
RACCORDO
100
AcDbLine
 62
253
  6
CONTINUOUS
 10
11.7498613503
 20
130.7537950195
 11
-11.7498613503
 21
130.7537950195
  0
LINE
  5
2F2
100
AcDbEntity
  8
RACCORDO
100
AcDbLine
 62
253
  6
CONTINUOUS
 10
11.7499306751
 20
132.3576119267
 11
-11.7499306751
 21
132.3576119267
  0
LWPOLYLINE
  5
2F3
100
AcDbEntity
  8
0
100
AcDbPolyline
 62
7
  6
CONTINUOUS
 90
13
 70
0
 43
0.3500000006
 10
-1.9285714102
 20
156.9642866821
 10
-2.2142856617
 20
157.178571167
 10
-2.2142856617
 20
157.8214246216
 10
-1.9285714102
 20
158.2499935913
 10
-1.2857142735
 20
158.2499935913
 10
-1.0000000219
 20
157.8214246216
 10
-1.0000000219
 20
157.178571167
 10
-1.2857142735
 20
156.9642866821
 10
-0.8571428254
 20
156.5357177124
 10
-0.8571428254
 20
155.6785797729
 10
-1.2857142735
 20
155.2499926758
 10
-1.9285714102
 20
155.2499926758
 10
-2.3571427875
 20
155.6785797729
  0
LINE
  5
2F4
100
AcDbEntity
  8
RACCORDO
100
AcDbLine
 62
253
  6
CONTINUOUS
 10
40.0
 20
143.5
 11
39.7359526178
 21
143.4999469243
  0
LINE
  5
2F5
100
AcDbEntity
  8
RACCORDO
100
AcDbLine
 62
253
  6
CONTINUOUS
 10
-40.0
 20
143.5
 11
-39.735952773
 21
143.5000000636
  0
LINE
  5
2F6
100
AcDbEntity
  8
RACCORDO
100
AcDbLine
 62
253
  6
CONTINUOUS
 10
11.7500137403
 20
145.5628707566
 11
-11.7500137403
 21
145.5628707566
  0
LINE
  5
2F7
100
AcDbEntity
  8
RACCORDO
100
AcDbLine
 62
253
  6
CONTINUOUS
 10
11.7500274807
 20
146.2278567606
 11
-11.7500274807
 21
146.2278567606
  0
LINE
  5
2F8
100
AcDbEntity
  8
RACCORDO
100
AcDbLine
 62
7
  6
CONTINUOUS
 10
3.041834413
 20
146.3881826404
 11
-3.041834413
 21
146.3881826404
  0
LINE
  5
2F9
100
AcDbEntity
  8
RACCORDO
100
AcDbLine
 62
7
  6
CONTINUOUS
 10
-37.0
 20
146.5
 11
-4.1331429141
 21
146.5
  0
LINE
  5
2FA
100
AcDbEntity
  8
RACCORDO
100
AcDbLine
 62
7
  6
CONTINUOUS
 10
4.1331429141
 20
146.5
 11
37.0
 21
146.5
  0
LINE
  5
2FB
100
AcDbEntity
  8
RACCORDO
100
AcDbLine
 62
7
  6
CONTINUOUS
 10
-71.4655504434
 20
-146.5
 11
-76.3419468271
 21
-146.227367116
  0
LINE
  5
2FC
100
AcDbEntity
  8
SUPERFICI
100
AcDbLine
 62
7
  6
CONTINUOUS
 10
-71.4655504434
 20
-146.5
 11
-76.1730597779
 21
-146.2368093679
  0
LINE
  5
2FD
100
AcDbEntity
  8
RACCORDO
100
AcDbLine
 62
253
  6
CONTINUOUS
 10
-71.4655504434
 20
-143.5
 11
-76.1883811009
 21
-143.5000000636
  0
LWPOLYLINE
  5
2FE
100
AcDbEntity
  8
0
100
AcDbPolyline
 62
7
  6
CONTINUOUS
 90
5
 70
0
 43
0.3500000006
 10
-74.2941221924
 20
156.9642866821
 10
-73.9369798737
 20
157.178571167
 10
-73.9369798737
 20
157.8214246216
 10
-74.2941221924
 20
158.2499935913
 10
-75.1512646637
 20
158.2499935913
  0
LINE
  5
2FF
100
AcDbEntity
  8
RACCORDO
100
AcDbLine
 62
253
  6
CONTINUOUS
 10
-80.7655504434
 20
-128.75
 11
-80.5577309006
 21
-128.7499997667
  0
LWPOLYLINE
  5
300
100
AcDbEntity
  8
0
100
AcDbPolyline
 62
7
  6
CONTINUOUS
 90
10
 70
0
 43
0.3500000006
 10
-78.7941235657
 20
155.2499926758
 10
-77.9369765625
 20
156.1071487427
 10
-77.7226920776
 20
156.9642866821
 10
-77.7226920776
 20
157.8214246216
 10
-78.1512610474
 20
158.2499935913
 10
-78.7941235657
 20
158.2499935913
 10
-79.2226925354
 20
157.8214246216
 10
-79.2226925354
 20
156.9642866821
 10
-78.7941235657
 20
156.5357177124
 10
-77.8655544434
 20
156.5357177124
  0
LINE
  5
301
100
AcDbEntity
  8
RACCORDO
100
AcDbLine
 62
253
  6
CONTINUOUS
 10
-80.5629468161
 20
-106.4999791561
 11
-76.3332312325
 21
-106.500002842
  0
LINE
  5
302
100
AcDbEntity
  8
RACCORDO
100
AcDbLine
 62
7
  6
CONTINUOUS
 10
-80.4679412704
 20
130.8863466024
 11
-80.4783131653
 21
130.8710789831
  0
LINE
  5
303
100
AcDbEntity
  8
RACCORDO
100
AcDbLine
 62
7
  6
CONTINUOUS
 10
-80.4763111205
 20
130.8740103094
 11
-80.4864583298
 21
130.8592291701
  0
LINE
  5
304
100
AcDbEntity
  8
RACCORDO
100
AcDbLine
 62
7
  6
CONTINUOUS
 10
-80.4864583298
 20
130.8592291701
 11
-80.4965045298
 21
130.8447792937
  0
LINE
  5
305
100
AcDbEntity
  8
RACCORDO
100
AcDbLine
 62
7
  6
CONTINUOUS
 10
-80.4965045298
 20
130.8447792937
 11
-80.5064021749
 21
130.8307177783
  0
LINE
  5
306
100
AcDbEntity
  8
RACCORDO
100
AcDbLine
 62
7
  6
CONTINUOUS
 10
-80.5064021749
 20
130.8307177783
 11
-80.5161073094
 21
130.8170940638
  0
LINE
  5
307
100
AcDbEntity
  8
RACCORDO
100
AcDbLine
 62
7
  6
CONTINUOUS
 10
-80.5161073094
 20
130.8170940638
 11
-80.5255861059
 21
130.8039414742
  0
LINE
  5
308
100
AcDbEntity
  8
RACCORDO
100
AcDbLine
 62
7
  6
CONTINUOUS
 10
-80.5255861059
 20
130.8039414742
 11
-80.5348174915
 21
130.7912746534
  0
LINE
  5
309
100
AcDbEntity
  8
RACCORDO
100
AcDbLine
 62
7
  6
CONTINUOUS
 10
-80.5348174915
 20
130.7912746534
 11
-80.5434188317
 21
130.7795962084
  0
LINE
  5
30A
100
AcDbEntity
  8
RACCORDO
100
AcDbLine
 62
7
  6
CONTINUOUS
 10
-80.5434188317
 20
130.7795962084
 11
-80.5519429626
 21
130.7681381261
  0
LINE
  5
30B
100
AcDbEntity
  8
RACCORDO
100
AcDbLine
 62
7
  6
CONTINUOUS
 10
-80.5519429626
 20
130.7681381261
 11
-80.561335219
 21
130.7556436767
  0
LINE
  5
30C
100
AcDbEntity
  8
RACCORDO
100
AcDbLine
 62
7
  6
CONTINUOUS
 10
-80.5606467917
 20
130.756554892
 11
-80.5607177807
 21
130.756460896
  0
LINE
  5
30D
100
AcDbEntity
  8
RACCORDO
100
AcDbLine
 62
7
  6
CONTINUOUS
 10
-80.5627872752
 20
130.7537241675
 11
-80.5637647712
 21
130.7524341459
  0
LINE
  5
30E
100
AcDbEntity
  8
RACCORDO
100
AcDbLine
 62
7
  6
CONTINUOUS
 10
-80.5583959193
 20
130.7594837247
 11
-80.559170728
 21
130.7584709003
  0
LINE
  5
30F
100
AcDbEntity
  8
RACCORDO
100
AcDbLine
 62
253
  6
CONTINUOUS
 10
-80.7655504434
 20
-84.25
 11
-79.9623198932
 21
-84.25
  0
LINE
  5
310
100
AcDbEntity
  8
RACCORDO
100
AcDbLine
 62
7
  6
CONTINUOUS
 10
-80.5637650041
 20
-130.7524338387
 11
-80.5553634564
 21
-130.7635721618
  0
LINE
  5
311
100
AcDbEntity
  8
RACCORDO
100
AcDbLine
 62
7
  6
CONTINUOUS
 10
-80.5553634564
 20
-130.7635721618
 11
-80.5480690178
 21
-130.7733313481
  0
LINE
  5
312
100
AcDbEntity
  8
RACCORDO
100
AcDbLine
 62
7
  6
CONTINUOUS
 10
-80.5480690178
 20
-130.7733313481
 11
-80.5404588199
 21
-130.7836018322
  0
LINE
  5
313
100
AcDbEntity
  8
RACCORDO
100
AcDbLine
 62
7
  6
CONTINUOUS
 10
-80.5404588199
 20
-130.7836018322
 11
-80.5313471573
 21
-130.7960201774
  0
LINE
  5
314
100
AcDbEntity
  8
RACCORDO
100
AcDbLine
 62
7
  6
CONTINUOUS
 10
-80.5313471573
 20
-130.7960201774
 11
-80.5218653549
 21
-130.8090864745
  0
LINE
  5
315
100
AcDbEntity
  8
RACCORDO
100
AcDbLine
 62
7
  6
CONTINUOUS
 10
-80.5218653549
 20
-130.8090864745
 11
-80.5121361524
 21
-130.8226492275
  0
LINE
  5
316
100
AcDbEntity
  8
RACCORDO
100
AcDbLine
 62
7
  6
CONTINUOUS
 10
-80.5121361524
 20
-130.8226492275
 11
-80.5021790064
 21
-130.8366966895
  0
LINE
  5
317
100
AcDbEntity
  8
RACCORDO
100
AcDbLine
 62
7
  6
CONTINUOUS
 10
-80.5021790064
 20
-130.8366966895
 11
-80.4920368227
 21
-130.8511830863
  0
LINE
  5
318
100
AcDbEntity
  8
RACCORDO
100
AcDbLine
 62
7
  6
CONTINUOUS
 10
-80.4920368227
 20
-130.8511830863
 11
-80.4817604678
 21
-130.8660489021
  0
LWPOLYLINE
  5
319
100
AcDbEntity
  8
RACCORDO
100
AcDbPolyline
 62
7
  6
CONTINUOUS
 90
3
 70
0
 10
-80.4817604678
 20
-130.8660489021
 10
-80.4714034137
 20
-130.8812277606
 10
-80.4679412703
 20
-130.8863466026
  0
LINE
  5
31A
100
AcDbEntity
  8
RACCORDO
100
AcDbLine
 62
7
  6
CONTINUOUS
 10
-80.328195691
 20
131.1147892764
 11
-80.3351158563
 21
131.1023221567
  0
LINE
  5
31B
100
AcDbEntity
  8
RACCORDO
100
AcDbLine
 62
7
  6
CONTINUOUS
 10
-80.3351158563
 20
131.1023221567
 11
-80.3420547494
 21
131.0899597357
  0
LINE
  5
31C
100
AcDbEntity
  8
RACCORDO
100
AcDbLine
 62
7
  6
CONTINUOUS
 10
-80.3420547494
 20
131.0899597357
 11
-80.3490108409
 21
131.0777023441
  0
LINE
  5
31D
100
AcDbEntity
  8
RACCORDO
100
AcDbLine
 62
7
  6
CONTINUOUS
 10
-80.3490108409
 20
131.0777023441
 11
-80.3559823441
 21
131.0655507425
  0
LINE
  5
31E
100
AcDbEntity
  8
RACCORDO
100
AcDbLine
 62
7
  6
CONTINUOUS
 10
-80.3560323048
 20
131.0654640631
 11
-80.3629671113
 21
131.0535062755
  0
LINE
  5
31F
100
AcDbEntity
  8
RACCORDO
100
AcDbLine
 62
7
  6
CONTINUOUS
 10
-80.3628988365
 20
131.0536233216
 11
-80.3699633342
 21
131.0415696528
  0
LINE
  5
320
100
AcDbEntity
  8
RACCORDO
100
AcDbLine
 62
7
  6
CONTINUOUS
 10
-80.3663364446
 20
131.0477418605
 11
-80.3732187376
 21
131.0360580737
  0
LINE
  5
321
100
AcDbEntity
  8
RACCORDO
100
AcDbLine
 62
7
  6
CONTINUOUS
 10
-80.3732187376
 20
131.0360580737
 11
-80.3801092081
 21
131.0244800104
  0
LINE
  5
322
100
AcDbEntity
  8
RACCORDO
100
AcDbLine
 62
7
  6
CONTINUOUS
 10
-80.3801092081
 20
131.0244800104
 11
-80.3870057977
 21
131.0130088193
  0
LINE
  5
323
100
AcDbEntity
  8
RACCORDO
100
AcDbLine
 62
7
  6
CONTINUOUS
 10
-80.3870057977
 20
131.0130088193
 11
-80.393906433
 21
131.0016456254
  0
LINE
  5
324
100
AcDbEntity
  8
RACCORDO
100
AcDbLine
 62
7
  6
CONTINUOUS
 10
-80.393906433
 20
131.0016456254
 11
-80.4008093344
 21
130.9903910302
  0
LINE
  5
325
100
AcDbEntity
  8
RACCORDO
100
AcDbLine
 62
7
  6
CONTINUOUS
 10
-80.4008093344
 20
130.9903910302
 11
-80.4111633274
 21
130.9737151564
  0
LINE
  5
326
100
AcDbEntity
  8
RACCORDO
100
AcDbLine
 62
7
  6
CONTINUOUS
 10
-80.4085537476
 20
130.9778952363
 11
-80.418062891
 21
130.9627364405
  0
LINE
  5
327
100
AcDbEntity
  8
RACCORDO
100
AcDbLine
 62
7
  6
CONTINUOUS
 10
-80.415573484
 20
130.9666855426
 11
-80.4249574884
 21
130.9518697722
  0
LINE
  5
328
100
AcDbEntity
  8
RACCORDO
100
AcDbLine
 62
7
  6
CONTINUOUS
 10
-80.4225891163
 20
130.955591031
 11
-80.4330999663
 21
130.9391675679
  0
LINE
  5
329
100
AcDbEntity
  8
RACCORDO
100
AcDbLine
 62
7
  6
CONTINUOUS
 10
-80.4318452997
 20
130.9411156665
 11
-80.4421595813
 21
130.9251977565
  0
LINE
  5
32A
100
AcDbEntity
  8
RACCORDO
100
AcDbLine
 62
7
  6
CONTINUOUS
 10
-80.4400957612
 20
130.9283652652
 11
-80.4505668158
 21
130.9123840819
  0
LINE
  5
32B
100
AcDbEntity
  8
RACCORDO
100
AcDbLine
 62
7
  6
CONTINUOUS
 10
-80.4490212267
 20
130.9147290452
 11
-80.4592864528
 21
130.8992431937
  0
LINE
  5
32C
100
AcDbEntity
  8
RACCORDO
100
AcDbLine
 62
7
  6
CONTINUOUS
 10
-80.4575290664
 20
130.9018796424
 11
-80.4679412704
 21
130.8863466024
  0
LINE
  5
32D
100
AcDbEntity
  8
RACCORDO
100
AcDbLine
 62
7
  6
CONTINUOUS
 10
-80.4661094287
 20
130.8890642062
 11
-80.4695142681
 21
130.8840180529
  0
LINE
  5
32E
100
AcDbEntity
  8
RACCORDO
100
AcDbLine
 62
7
  6
CONTINUOUS
 10
-80.4679412703
 20
-130.8863466026
 11
-80.4575290663
 21
-130.9018796425
  0
LINE
  5
32F
100
AcDbEntity
  8
RACCORDO
100
AcDbLine
 62
7
  6
CONTINUOUS
 10
-80.4575290663
 20
-130.9018796425
 11
-80.4470797597
 21
-130.9176814958
  0
LINE
  5
330
100
AcDbEntity
  8
RACCORDO
100
AcDbLine
 62
7
  6
CONTINUOUS
 10
-80.4470797597
 20
-130.9176814958
 11
-80.4365991343
 21
-130.9337517588
  0
LINE
  5
331
100
AcDbEntity
  8
RACCORDO
100
AcDbLine
 62
7
  6
CONTINUOUS
 10
-80.4365991343
 20
-130.9337517588
 11
-80.4260946351
 21
-130.9500873965
  0
LINE
  5
332
100
AcDbEntity
  8
RACCORDO
100
AcDbLine
 62
7
  6
CONTINUOUS
 10
-80.4260946351
 20
-130.9500873965
 11
-80.4190820134
 21
-130.9611237258
  0
LINE
  5
333
100
AcDbEntity
  8
RACCORDO
100
AcDbLine
 62
7
  6
CONTINUOUS
 10
-80.4190820134
 20
-130.9611237258
 11
-80.4120640102
 21
-130.9722760264
  0
LINE
  5
334
100
AcDbEntity
  8
RACCORDO
100
AcDbLine
 62
7
  6
CONTINUOUS
 10
-80.4120640102
 20
-130.9722760264
 11
-80.4050428524
 21
-130.9835432325
  0
LINE
  5
335
100
AcDbEntity
  8
RACCORDO
100
AcDbLine
 62
7
  6
CONTINUOUS
 10
-80.4050428524
 20
-130.9835432325
 11
-80.3980207548
 21
-130.9949242538
  0
LINE
  5
336
100
AcDbEntity
  8
RACCORDO
100
AcDbLine
 62
7
  6
CONTINUOUS
 10
-80.3980207548
 20
-130.9949242538
 11
-80.3909995997
 21
-131.0064184997
  0
LINE
  5
337
100
AcDbEntity
  8
RACCORDO
100
AcDbLine
 62
7
  6
CONTINUOUS
 10
-80.3909995997
 20
-131.0064184997
 11
-80.3839815802
 21
-131.0180248367
  0
LINE
  5
338
100
AcDbEntity
  8
RACCORDO
100
AcDbLine
 62
7
  6
CONTINUOUS
 10
-80.3839815802
 20
-131.0180248367
 11
-80.3769688748
 21
-131.0297421057
  0
LINE
  5
339
100
AcDbEntity
  8
RACCORDO
100
AcDbLine
 62
7
  6
CONTINUOUS
 10
-80.3769688748
 20
-131.0297421057
 11
-80.3699633341
 21
-131.041569653
  0
LINE
  5
33A
100
AcDbEntity
  8
RACCORDO
100
AcDbLine
 62
7
  6
CONTINUOUS
 10
-80.3699633341
 20
-131.041569653
 11
-80.3629671112
 21
-131.0535062757
  0
LINE
  5
33B
100
AcDbEntity
  8
RACCORDO
100
AcDbLine
 62
7
  6
CONTINUOUS
 10
-80.3629671112
 20
-131.0535062757
 11
-80.355982344
 21
-131.0655507427
  0
LINE
  5
33C
100
AcDbEntity
  8
RACCORDO
100
AcDbLine
 62
7
  6
CONTINUOUS
 10
-80.355982344
 20
-131.0655507427
 11
-80.3490108408
 21
-131.0777023443
  0
LINE
  5
33D
100
AcDbEntity
  8
RACCORDO
100
AcDbLine
 62
7
  6
CONTINUOUS
 10
-80.3490108408
 20
-131.0777023443
 11
-80.3420547493
 21
-131.0899597358
  0
LINE
  5
33E
100
AcDbEntity
  8
RACCORDO
100
AcDbLine
 62
7
  6
CONTINUOUS
 10
-80.3420547493
 20
-131.0899597358
 11
-80.3351158562
 21
-131.1023221569
  0
LINE
  5
33F
100
AcDbEntity
  8
RACCORDO
100
AcDbLine
 62
7
  6
CONTINUOUS
 10
-80.3351158562
 20
-131.1023221569
 11
-80.3281956909
 21
-131.1147892765
  0
LINE
  5
340
100
AcDbEntity
  8
RACCORDO
100
AcDbLine
 62
7
  6
CONTINUOUS
 10
-80.2140906511
 20
131.3441463962
 11
-80.2212727815
 21
131.3281437661
  0
LINE
  5
341
100
AcDbEntity
  8
RACCORDO
100
AcDbLine
 62
7
  6
CONTINUOUS
 10
-80.220344726
 20
131.3301974318
 11
-80.2276854752
 21
131.3140633
  0
LINE
  5
342
100
AcDbEntity
  8
RACCORDO
100
AcDbLine
 62
7
  6
CONTINUOUS
 10
-80.2266419497
 20
131.3163413801
 11
-80.2341411332
 21
131.3000797084
  0
LINE
  5
343
100
AcDbEntity
  8
RACCORDO
100
AcDbLine
 62
7
  6
CONTINUOUS
 10
-80.2329808939
 20
131.3025789073
 11
-80.2406382424
 21
131.2861936755
  0
LINE
  5
344
100
AcDbEntity
  8
RACCORDO
100
AcDbLine
 62
7
  6
CONTINUOUS
 10
-80.2393602361
 20
131.2889104214
 11
-80.2471754034
 21
131.2724056138
  0
LINE
  5
345
100
AcDbEntity
  8
RACCORDO
100
AcDbLine
 62
7
  6
CONTINUOUS
 10
-80.2457785356
 20
131.2753365601
 11
-80.2537510903
 21
131.2587161773
  0
LINE
  5
346
100
AcDbEntity
  8
RACCORDO
100
AcDbLine
 62
7
  6
CONTINUOUS
 10
-80.252234344
 20
131.2618579457
 11
-80.2603637698
 21
131.2451260034
  0
LINE
  5
347
100
AcDbEntity
  8
RACCORDO
100
AcDbLine
 62
7
  6
CONTINUOUS
 10
-80.2587263234
 20
131.2484749445
 11
-80.2670120267
 21
131.2316354601
  0
LINE
  5
348
100
AcDbEntity
  8
RACCORDO
100
AcDbLine
 62
7
  6
CONTINUOUS
 10
-80.2652530148
 20
131.2351881507
 11
-80.2736943166
 21
131.2182451548
  0
LINE
  5
349
100
AcDbEntity
  8
RACCORDO
100
AcDbLine
 62
7
  6
CONTINUOUS
 10
-80.2718129521
 20
131.2219981434
 11
-80.2804090882
 21
131.204955679
  0
LINE
  5
34A
100
AcDbEntity
  8
RACCORDO
100
AcDbLine
 62
7
  6
CONTINUOUS
 10
-80.2784047844
 20
131.2089052474
 11
-80.2871549131
 21
131.1917673565
  0
LINE
  5
34B
100
AcDbEntity
  8
RACCORDO
100
AcDbLine
 62
7
  6
CONTINUOUS
 10
-80.2850270365
 20
131.195910014
 11
-80.2939302309
 21
131.1786807489
  0
LINE
  5
34C
100
AcDbEntity
  8
RACCORDO
100
AcDbLine
 62
7
  6
CONTINUOUS
 10
-80.2916782272
 20
131.1830129798
 11
-80.3007334749
 21
131.1656964025
  0
LINE
  5
34D
100
AcDbEntity
  8
RACCORDO
100
AcDbLine
 62
7
  6
CONTINUOUS
 10
-80.2983569945
 20
131.1702144287
 11
-80.307563206
 21
131.1528145976
  0
LINE
  5
34E
100
AcDbEntity
  8
RACCORDO
100
AcDbLine
 62
7
  6
CONTINUOUS
 10
-80.3050618494
 20
131.1575148697
 11
-80.3144178501
 21
131.1400358512
  0
LINE
  5
34F
100
AcDbEntity
  8
RACCORDO
100
AcDbLine
 62
7
  6
CONTINUOUS
 10
-80.3117912978
 20
131.1449147975
 11
-80.3212958276
 21
131.1273606647
  0
LINE
  5
350
100
AcDbEntity
  8
RACCORDO
100
AcDbLine
 62
7
  6
CONTINUOUS
 10
-80.3185439689
 20
131.1324144562
 11
-80.328195691
 21
131.1147892764
  0
LINE
  5
351
100
AcDbEntity
  8
RACCORDO
100
AcDbLine
 62
7
  6
CONTINUOUS
 10
-80.3253183622
 20
131.1200143133
 11
-80.3287132265
 21
131.1138519734
  0
LINE
  5
352
100
AcDbEntity
  8
RACCORDO
100
AcDbLine
 62
253
  6
CONTINUOUS
 10
-80.7655504434
 20
-57.75
 11
-79.9623198932
 21
-57.75
  0
LINE
  5
353
100
AcDbEntity
  8
RACCORDO
100
AcDbLine
 62
7
  6
CONTINUOUS
 10
-80.3281956909
 20
-131.1147892765
 11
-80.3212958275
 21
-131.1273606648
  0
LINE
  5
354
100
AcDbEntity
  8
RACCORDO
100
AcDbLine
 62
7
  6
CONTINUOUS
 10
-80.3212958275
 20
-131.1273606648
 11
-80.31441785
 21
-131.1400358513
  0
LINE
  5
355
100
AcDbEntity
  8
RACCORDO
100
AcDbLine
 62
7
  6
CONTINUOUS
 10
-80.31441785
 20
-131.1400358513
 11
-80.307563206
 21
-131.1528145978
  0
LINE
  5
356
100
AcDbEntity
  8
RACCORDO
100
AcDbLine
 62
7
  6
CONTINUOUS
 10
-80.307563206
 20
-131.1528145978
 11
-80.3007334748
 21
-131.1656964027
  0
LINE
  5
357
100
AcDbEntity
  8
RACCORDO
100
AcDbLine
 62
7
  6
CONTINUOUS
 10
-80.3007334748
 20
-131.1656964027
 11
-80.2939302308
 21
-131.1786807491
  0
LINE
  5
358
100
AcDbEntity
  8
RACCORDO
100
AcDbLine
 62
7
  6
CONTINUOUS
 10
-80.2939302308
 20
-131.1786807491
 11
-80.287154913
 21
-131.1917673566
  0
LINE
  5
359
100
AcDbEntity
  8
RACCORDO
100
AcDbLine
 62
7
  6
CONTINUOUS
 10
-80.287154913
 20
-131.1917673566
 11
-80.2804090881
 21
-131.2049556792
  0
LINE
  5
35A
100
AcDbEntity
  8
RACCORDO
100
AcDbLine
 62
7
  6
CONTINUOUS
 10
-80.2804090881
 20
-131.2049556792
 11
-80.2736943165
 21
-131.218245155
  0
LINE
  5
35B
100
AcDbEntity
  8
RACCORDO
100
AcDbLine
 62
7
  6
CONTINUOUS
 10
-80.2736943165
 20
-131.218245155
 11
-80.2670120266
 21
-131.2316354603
  0
LINE
  5
35C
100
AcDbEntity
  8
RACCORDO
100
AcDbLine
 62
7
  6
CONTINUOUS
 10
-80.2670120266
 20
-131.2316354603
 11
-80.2603637697
 21
-131.2451260036
  0
LINE
  5
35D
100
AcDbEntity
  8
RACCORDO
100
AcDbLine
 62
7
  6
CONTINUOUS
 10
-80.2603637697
 20
-131.2451260036
 11
-80.2537510902
 21
-131.2587161774
  0
LINE
  5
35E
100
AcDbEntity
  8
RACCORDO
100
AcDbLine
 62
7
  6
CONTINUOUS
 10
-80.2537510902
 20
-131.2587161774
 11
-80.2471754033
 21
-131.272405614
  0
LINE
  5
35F
100
AcDbEntity
  8
RACCORDO
100
AcDbLine
 62
7
  6
CONTINUOUS
 10
-80.2471754033
 20
-131.272405614
 11
-80.2406382423
 21
-131.2861936756
  0
LINE
  5
360
100
AcDbEntity
  8
RACCORDO
100
AcDbLine
 62
7
  6
CONTINUOUS
 10
-80.2406382423
 20
-131.2861936756
 11
-80.2341411331
 21
-131.3000797085
  0
LINE
  5
361
100
AcDbEntity
  8
RACCORDO
100
AcDbLine
 62
7
  6
CONTINUOUS
 10
-80.2341411331
 20
-131.3000797085
 11
-80.2276854751
 21
-131.3140633002
  0
LINE
  5
362
100
AcDbEntity
  8
RACCORDO
100
AcDbLine
 62
7
  6
CONTINUOUS
 10
-80.2276854751
 20
-131.3140633002
 11
-80.2212727814
 21
-131.3281437663
  0
LINE
  5
363
100
AcDbEntity
  8
RACCORDO
100
AcDbLine
 62
7
  6
CONTINUOUS
 10
-80.2212727814
 20
-131.3281437663
 11
-80.2149045566
 21
-131.3423204062
  0
LWPOLYLINE
  5
364
100
AcDbEntity
  8
0
100
AcDbPolyline
 62
7
  6
CONTINUOUS
 90
3
 70
0
 43
0.3500000006
 10
-76.151260437
 20
155.5357174072
 10
-76.2226916199
 20
155.3214329224
 10
-76.3655539856
 20
155.0357081909
  0
LWPOLYLINE
  5
365
100
AcDbEntity
  8
SUPERFICI
100
AcDbPolyline
 62
7
  6
CONTINUOUS
 90
19
 70
0
 10
-77.2983349185
 20
145.3703877486
 10
-77.3716359273
 20
145.1641905421
 10
-77.4435160298
 20
144.958491579
 10
-77.5140083658
 20
144.7532828491
 10
-77.5831250333
 20
144.5486147344
 10
-77.6508870545
 20
144.344510348
 10
-77.7173390905
 20
144.140917974
 10
-77.7824909472
 20
143.9378883471
 10
-77.8463633688
 20
143.7354373321
 10
-77.9090143781
 20
143.5334573318
 10
-77.9704509141
 20
143.3319990707
 10
-78.0306926983
 20
143.1310708076
 10
-78.0898124699
 20
142.9304970245
 10
-78.1478159153
 20
142.7303206516
 10
-78.2047185986
 20
142.5305501233
 10
-78.2606022573
 20
142.3309535872
 10
-78.3154752983
 20
142.1315493739
 10
-78.3693438993
 20
141.9323633704
 10
-78.474320372
 20
141.5338681327
  0
LINE
  5
366
100
AcDbEntity
  8
RACCORDO
100
AcDbLine
 62
7
  6
CONTINUOUS
 10
-80.1256847966
 20
131.5660568111
 11
-80.1318255596
 21
131.5488252478
  0
LINE
  5
367
100
AcDbEntity
  8
SUPERFICI
100
AcDbLine
 62
7
  6
CONTINUOUS
 10
-77.2256233549
 20
145.5714837174
 11
-77.2983348944
 21
145.3703878156
  0
LINE
  5
368
100
AcDbEntity
  8
RACCORDO
100
AcDbLine
 62
7
  6
CONTINUOUS
 10
-80.1312162315
 20
131.5505205472
 11
-80.1368130943
 21
131.5350693785
  0
LINE
  5
369
100
AcDbEntity
  8
RACCORDO
100
AcDbLine
 62
7
  6
CONTINUOUS
 10
-80.1368130943
 20
131.5350693785
 11
-80.1424740254
 21
131.5197042406
  0
LINE
  5
36A
100
AcDbEntity
  8
RACCORDO
100
AcDbLine
 62
7
  6
CONTINUOUS
 10
-80.1424740254
 20
131.5197042406
 11
-80.1481976525
 21
131.5044260525
  0
LINE
  5
36B
100
AcDbEntity
  8
RACCORDO
100
AcDbLine
 62
7
  6
CONTINUOUS
 10
-80.1481976525
 20
131.5044260525
 11
-80.1539826916
 21
131.489235453
  0
LINE
  5
36C
100
AcDbEntity
  8
RACCORDO
100
AcDbLine
 62
7
  6
CONTINUOUS
 10
-77.2134504507
 20
145.6031858069
 11
-77.2256231951
 21
145.5714841013
  0
LINE
  5
36D
100
AcDbEntity
  8
RACCORDO
100
AcDbLine
 62
7
  6
CONTINUOUS
 10
-80.1539826916
 20
131.489235453
 11
-80.1598277491
 21
131.4741333309
  0
LINE
  5
36E
100
AcDbEntity
  8
RACCORDO
100
AcDbLine
 62
7
  6
CONTINUOUS
 10
-80.1598277491
 20
131.4741333309
 11
-80.1657760582
 21
131.4590077432
  0
LINE
  5
36F
100
AcDbEntity
  8
RACCORDO
100
AcDbLine
 62
7
  6
CONTINUOUS
 10
-80.1627723393
 20
131.4666157388
 11
-80.1686990481
 21
131.4516621312
  0
LINE
  5
370
100
AcDbEntity
  8
RACCORDO
100
AcDbLine
 62
7
  6
CONTINUOUS
 10
-80.1687048501
 20
131.4516478001
 11
-80.1745858998
 21
131.4370364299
  0
LINE
  5
371
100
AcDbEntity
  8
RACCORDO
100
AcDbLine
 62
7
  6
CONTINUOUS
 10
-80.1745858998
 20
131.4370364299
 11
-80.1805260983
 21
131.4224987923
  0
LINE
  5
372
100
AcDbEntity
  8
RACCORDO
100
AcDbLine
 62
7
  6
CONTINUOUS
 10
-80.1805260983
 20
131.4224987923
 11
-80.1865182752
 21
131.4080499945
  0
LINE
  5
373
100
AcDbEntity
  8
RACCORDO
100
AcDbLine
 62
7
  6
CONTINUOUS
 10
-80.1865182752
 20
131.4080499945
 11
-80.1925611568
 21
131.3936905504
  0
LINE
  5
374
100
AcDbEntity
  8
RACCORDO
100
AcDbLine
 62
7
  6
CONTINUOUS
 10
-80.1925611568
 20
131.3936905504
 11
-80.1986533586
 21
131.3794212074
  0
LINE
  5
375
100
AcDbEntity
  8
RACCORDO
100
AcDbLine
 62
7
  6
CONTINUOUS
 10
-80.1986533586
 20
131.3794212074
 11
-80.2047934864
 21
131.3652426979
  0
LINE
  5
376
100
AcDbEntity
  8
RACCORDO
100
AcDbLine
 62
7
  6
CONTINUOUS
 10
-80.2047934864
 20
131.3652426979
 11
-80.2117375232
 21
131.3494447135
  0
LINE
  5
377
100
AcDbEntity
  8
RACCORDO
100
AcDbLine
 62
7
  6
CONTINUOUS
 10
-80.2109802453
 20
131.351155493
 11
-80.2149045567
 21
131.342320406
  0
LINE
  5
378
100
AcDbEntity
  8
RACCORDO
100
AcDbLine
 62
7
  6
CONTINUOUS
 10
-80.2149045566
 20
-131.3423204062
 11
-80.208582182
 21
-131.3565927624
  0
LINE
  5
379
100
AcDbEntity
  8
RACCORDO
100
AcDbLine
 62
7
  6
CONTINUOUS
 10
-80.208582182
 20
-131.3565927624
 11
-80.2023071478
 21
-131.3709601034
  0
LINE
  5
37A
100
AcDbEntity
  8
RACCORDO
100
AcDbLine
 62
7
  6
CONTINUOUS
 10
-80.2023071478
 20
-131.3709601034
 11
-80.1960809346
 21
-131.3854216817
  0
LINE
  5
37B
100
AcDbEntity
  8
RACCORDO
100
AcDbLine
 62
7
  6
CONTINUOUS
 10
-80.1960809346
 20
-131.3854216817
 11
-80.1899049034
 21
-131.3999769941
  0
LINE
  5
37C
100
AcDbEntity
  8
RACCORDO
100
AcDbLine
 62
7
  6
CONTINUOUS
 10
-80.1899049034
 20
-131.3999769941
 11
-80.1837805186
 21
-131.4146252621
  0
LINE
  5
37D
100
AcDbEntity
  8
RACCORDO
100
AcDbLine
 62
7
  6
CONTINUOUS
 10
-80.1837805186
 20
-131.4146252621
 11
-80.1777092347
 21
-131.4293656909
  0
LINE
  5
37E
100
AcDbEntity
  8
RACCORDO
100
AcDbLine
 62
7
  6
CONTINUOUS
 10
-80.1777092347
 20
-131.4293656909
 11
-80.1716923893
 21
-131.4441977319
  0
LINE
  5
37F
100
AcDbEntity
  8
RACCORDO
100
AcDbLine
 62
7
  6
CONTINUOUS
 10
-80.1716923893
 20
-131.4441977319
 11
-80.165731419
 21
-131.4591205593
  0
LINE
  5
380
100
AcDbEntity
  8
RACCORDO
100
AcDbLine
 62
7
  6
CONTINUOUS
 10
-80.165731419
 20
-131.4591205593
 11
-80.159827749
 21
-131.474133331
  0
LINE
  5
381
100
AcDbEntity
  8
RACCORDO
100
AcDbLine
 62
7
  6
CONTINUOUS
 10
-80.159827749
 20
-131.474133331
 11
-80.1539826915
 21
-131.4892354531
  0
LWPOLYLINE
  5
382
100
AcDbEntity
  8
RACCORDO
100
AcDbPolyline
 62
7
  6
CONTINUOUS
 90
23
 70
0
 10
-77.2256232092
 20
-145.5714840797
 10
-77.2147868634
 20
-145.5998573298
 10
-77.1933513226
 20
-145.6495722578
 10
-77.1692559114
 20
-145.6980556473
 10
-77.1425732944
 20
-145.7451615096
 10
-77.1133820619
 20
-145.7907520207
 10
-77.0817681543
 20
-145.834693801
 10
-77.0478274589
 20
-145.8768549681
 10
-77.0116602085
 20
-145.9171128665
 10
-76.9733733031
 20
-145.9553502444
 10
-76.9330834428
 20
-145.99145278
 10
-76.8909106027
 20
-146.0253157218
 10
-76.8469787093
 20
-146.0568421925
 10
-76.8014192076
 20
-146.0859405094
 10
-76.754367966
 20
-146.1125268111
 10
-76.7059621637
 20
-146.1365264065
 10
-76.6563414712
 20
-146.1578723788
 10
-76.6056385468
 20
-146.1765084858
 10
-76.5540143059
 20
-146.1923763896
 10
-76.5016568393
 20
-146.2054234221
 10
-76.4487329654
 20
-146.2156172844
 10
-76.3953857672
 20
-146.2229395688
 10
-76.3419479371
 20
-146.2273670539
  0
LINE
  5
383
100
AcDbEntity
  8
RACCORDO
100
AcDbLine
 62
7
  6
CONTINUOUS
 10
-80.1539826915
 20
-131.4892354531
 11
-80.1481976524
 21
-131.5044260526
  0
LINE
  5
384
100
AcDbEntity
  8
RACCORDO
100
AcDbLine
 62
7
  6
CONTINUOUS
 10
-80.1481976524
 20
-131.5044260526
 11
-80.1424740254
 21
-131.5197042407
  0
LINE
  5
385
100
AcDbEntity
  8
RACCORDO
100
AcDbLine
 62
7
  6
CONTINUOUS
 10
-80.1424740254
 20
-131.5197042407
 11
-80.1368130942
 21
-131.5350693786
  0
LINE
  5
386
100
AcDbEntity
  8
RACCORDO
100
AcDbLine
 62
7
  6
CONTINUOUS
 10
-80.1368130942
 20
-131.5350693786
 11
-80.1312162314
 21
-131.5505205473
  0
LINE
  5
387
100
AcDbEntity
  8
RACCORDO
100
AcDbLine
 62
7
  6
CONTINUOUS
 10
-80.1312162314
 20
-131.5505205473
 11
-80.1256847965
 21
-131.5660568113
  0
LINE
  5
388
100
AcDbEntity
  8
RACCORDO
100
AcDbLine
 62
7
  6
CONTINUOUS
 10
-80.0552611122
 20
131.7941216063
 11
-80.0603091872
 21
131.7753682031
  0
LINE
  5
389
100
AcDbEntity
  8
RACCORDO
100
AcDbLine
 62
7
  6
CONTINUOUS
 10
-80.0596572028
 20
131.7777630033
 11
-80.0648752219
 21
131.7588083243
  0
LINE
  5
38A
100
AcDbEntity
  8
RACCORDO
100
AcDbLine
 62
7
  6
CONTINUOUS
 10
-80.0641333522
 20
131.761473528
 11
-80.0695227521
 21
131.7423213565
  0
LINE
  5
38B
100
AcDbEntity
  8
RACCORDO
100
AcDbLine
 62
7
  6
CONTINUOUS
 10
-80.0686884536
 20
131.7452542673
 11
-80.0742506708
 21
131.7259081564
  0
LINE
  5
38C
100
AcDbEntity
  8
RACCORDO
100
AcDbLine
 62
7
  6
CONTINUOUS
 10
-80.0733213847
 20
131.7291062947
 11
-80.07905778
 21
131.709569839
  0
LINE
  5
38D
100
AcDbEntity
  8
RACCORDO
100
AcDbLine
 62
7
  6
CONTINUOUS
 10
-80.0780310834
 20
131.7130304124
 11
-80.0839428649
 21
131.6933075045
  0
LINE
  5
38E
100
AcDbEntity
  8
RACCORDO
100
AcDbLine
 62
7
  6
CONTINUOUS
 10
-80.0828164005
 20
131.6970276675
 11
-80.0889047786
 21
131.6771219676
  0
LINE
  5
38F
100
AcDbEntity
  8
RACCORDO
100
AcDbLine
 62
7
  6
CONTINUOUS
 10
-80.0876761716
 20
131.6810990932
 11
-80.0939422788
 21
131.6610142998
  0
LINE
  5
390
100
AcDbEntity
  8
RACCORDO
100
AcDbLine
 62
7
  6
CONTINUOUS
 10
-80.0926092979
 20
131.6652454524
 11
-80.0990541078
 21
131.6449855576
  0
LINE
  5
391
100
AcDbEntity
  8
RACCORDO
100
AcDbLine
 62
7
  6
CONTINUOUS
 10
-80.0976145897
 20
131.6494677513
 11
-80.1026908429
 21
131.6337669818
  0
LINE
  5
392
100
AcDbEntity
  8
RACCORDO
100
AcDbLine
 62
7
  6
CONTINUOUS
 10
-80.1016375475
 20
131.6370009579
 11
-80.1078369239
 21
131.6181438667
  0
LINE
  5
393
100
AcDbEntity
  8
RACCORDO
100
AcDbLine
 62
7
  6
CONTINUOUS
 10
-80.1068585786
 20
131.6210922486
 11
-80.1130516048
 21
131.6025993703
  0
LINE
  5
394
100
AcDbEntity
  8
RACCORDO
100
AcDbLine
 62
7
  6
CONTINUOUS
 10
-80.1121508664
 20
131.6052646368
 11
-80.1183336441
 21
131.5871344427
  0
LINE
  5
395
100
AcDbEntity
  8
RACCORDO
100
AcDbLine
 62
7
  6
CONTINUOUS
 10
-80.1175131073
 20
131.5895191269
 11
-80.1236818757
 21
131.5717497655
  0
LINE
  5
396
100
AcDbEntity
  8
RACCORDO
100
AcDbLine
 62
7
  6
CONTINUOUS
 10
-80.1229439832
 20
131.5738567074
 11
-80.1263804023
 21
131.564087857
  0
LINE
  5
397
100
AcDbEntity
  8
RACCORDO
100
AcDbLine
 62
7
  6
CONTINUOUS
 10
-80.1256847965
 20
-131.5660568113
 11
-80.120220043
 21
-131.5816774865
  0
LINE
  5
398
100
AcDbEntity
  8
RACCORDO
100
AcDbLine
 62
7
  6
CONTINUOUS
 10
-80.120220043
 20
-131.5816774865
 11
-80.1148233076
 21
-131.5973816074
  0
LINE
  5
399
100
AcDbEntity
  8
RACCORDO
100
AcDbLine
 62
7
  6
CONTINUOUS
 10
-80.1148233076
 20
-131.5973816074
 11
-80.1094959133
 21
-131.6131681922
  0
LINE
  5
39A
100
AcDbEntity
  8
RACCORDO
100
AcDbLine
 62
7
  6
CONTINUOUS
 10
-80.1094959133
 20
-131.6131681922
 11
-80.1042390805
 21
-131.6290365128
  0
LWPOLYLINE
  5
39B
100
AcDbEntity
  8
SUPERFICI
100
AcDbPolyline
 62
7
  6
CONTINUOUS
 90
8
 70
0
 10
-77.7011049623
 20
-144.1909757298
 10
-77.6427276808
 20
-144.3692717918
 10
-77.5833336265
 20
-144.5479917354
 10
-77.5229143926
 20
-144.7271053821
 10
-77.4614410894
 20
-144.9066418748
 10
-77.3988990149
 20
-145.086586112
 10
-77.3352802422
 20
-145.2669026481
 10
-77.2256233466
 20
-145.5714837403
  0
LINE
  5
39C
100
AcDbEntity
  8
RACCORDO
100
AcDbLine
 62
7
  6
CONTINUOUS
 10
-80.1042390805
 20
-131.6290365128
 11
-80.0990541078
 21
-131.6449855577
  0
LINE
  5
39D
100
AcDbEntity
  8
SUPERFICI
100
AcDbLine
 62
7
  6
CONTINUOUS
 10
-77.8148814651
 20
-143.8356523831
 11
-77.7011049623
 21
-144.1909757298
  0
LINE
  5
39E
100
AcDbEntity
  8
RACCORDO
100
AcDbLine
 62
7
  6
CONTINUOUS
 10
-80.0990541078
 20
-131.6449855577
 11
-80.0939422788
 21
-131.6610143
  0
LINE
  5
39F
100
AcDbEntity
  8
RACCORDO
100
AcDbLine
 62
7
  6
CONTINUOUS
 10
-80.0939422788
 20
-131.6610143
 11
-80.0889047786
 21
-131.6771219677
  0
LINE
  5
3A0
100
AcDbEntity
  8
SUPERFICI
100
AcDbLine
 62
7
  6
CONTINUOUS
 10
-77.9248081817
 20
-143.4819933871
 11
-77.8148814651
 21
-143.8356523831
  0
LINE
  5
3A1
100
AcDbEntity
  8
RACCORDO
100
AcDbLine
 62
7
  6
CONTINUOUS
 10
-80.0889047786
 20
-131.6771219677
 11
-80.0839428649
 21
-131.6933075046
  0
LINE
  5
3A2
100
AcDbEntity
  8
SUPERFICI
100
AcDbLine
 62
7
  6
CONTINUOUS
 10
-78.031068916
 20
-143.1298051738
 11
-77.9248081817
 21
-143.4819933871
  0
LINE
  5
3A3
100
AcDbEntity
  8
RACCORDO
100
AcDbLine
 62
7
  6
CONTINUOUS
 10
-80.0839428649
 20
-131.6933075046
 11
-80.0790577799
 21
-131.7095698391
  0
LINE
  5
3A4
100
AcDbEntity
  8
RACCORDO
100
AcDbLine
 62
7
  6
CONTINUOUS
 10
-80.0790577799
 20
-131.7095698391
 11
-80.0742506708
 21
-131.7259081565
  0
LINE
  5
3A5
100
AcDbEntity
  8
SUPERFICI
100
AcDbLine
 62
7
  6
CONTINUOUS
 10
-78.13380878
 20
-142.7789754673
 11
-78.031068916
 21
-143.1298051738
  0
LINE
  5
3A6
100
AcDbEntity
  8
RACCORDO
100
AcDbLine
 62
7
  6
CONTINUOUS
 10
-80.0742506708
 20
-131.7259081565
 11
-80.069522752
 21
-131.7423213566
  0
LINE
  5
3A7
100
AcDbEntity
  8
SUPERFICI
100
AcDbLine
 62
7
  6
CONTINUOUS
 10
-78.2332143402
 20
-142.4292035225
 11
-78.13380878
 21
-142.7789754673
  0
LINE
  5
3A8
100
AcDbEntity
  8
RACCORDO
100
AcDbLine
 62
7
  6
CONTINUOUS
 10
-80.069522752
 20
-131.7423213566
 11
-80.0648752219
 21
-131.7588083244
  0
LINE
  5
3A9
100
AcDbEntity
  8
RACCORDO
100
AcDbLine
 62
7
  6
CONTINUOUS
 10
-80.0648752219
 20
-131.7588083244
 11
-80.0603091872
 21
-131.7753682032
  0
LINE
  5
3AA
100
AcDbEntity
  8
SUPERFICI
100
AcDbLine
 62
7
  6
CONTINUOUS
 10
-78.3294902211
 20
-142.0800604014
 11
-78.2332143402
 21
-142.4292035225
  0
LINE
  5
3AB
100
AcDbEntity
  8
RACCORDO
100
AcDbLine
 62
7
  6
CONTINUOUS
 10
-80.0603091872
 20
-131.7753682032
 11
-80.055825817
 21
-131.79199985
  0
LINE
  5
3AC
100
AcDbEntity
  8
SUPERFICI
100
AcDbLine
 62
7
  6
CONTINUOUS
 10
-78.4227692556
 20
-141.7313142028
 11
-78.3294902211
 21
-142.0800604014
  0
LINE
  5
3AD
100
AcDbEntity
  8
SUPERFICI
100
AcDbLine
 62
7
  6
CONTINUOUS
 10
-78.4683661771
 20
-141.5568511481
 11
-78.4227692286
 21
-141.7313143054
  0
LINE
  5
3AE
100
AcDbEntity
  8
SUPERFICI
100
AcDbLine
 62
7
  6
CONTINUOUS
 10
-79.1730066696
 20
138.4201815311
 11
-79.2416765073
 21
138.0538442291
  0
LINE
  5
3AF
100
AcDbEntity
  8
RACCORDO
100
AcDbLine
 62
7
  6
CONTINUOUS
 10
-80.0055559651
 20
132.0142383571
 11
-80.0088679046
 21
131.9967756676
  0
LINE
  5
3B0
100
AcDbEntity
  8
SUPERFICI
100
AcDbLine
 62
7
  6
CONTINUOUS
 10
-79.1001275548
 20
138.7937331029
 11
-79.1730066696
 21
138.4201815311
  0
LINE
  5
3B1
100
AcDbEntity
  8
RACCORDO
100
AcDbLine
 62
7
  6
CONTINUOUS
 10
-80.0088679046
 20
131.9967756676
 11
-80.0122759148
 21
131.9793697706
  0
LINE
  5
3B2
100
AcDbEntity
  8
RACCORDO
100
AcDbLine
 62
7
  6
CONTINUOUS
 10
-80.0122759148
 20
131.9793697706
 11
-80.0157790518
 21
131.9620219785
  0
LINE
  5
3B3
100
AcDbEntity
  8
SUPERFICI
100
AcDbLine
 62
7
  6
CONTINUOUS
 10
-79.0230341832
 20
139.1735873416
 11
-79.1001275548
 21
138.7937331029
  0
LINE
  5
3B4
100
AcDbEntity
  8
RACCORDO
100
AcDbLine
 62
7
  6
CONTINUOUS
 10
-80.0157790518
 20
131.9620219785
 11
-80.0193763512
 21
131.9447335917
  0
LINE
  5
3B5
100
AcDbEntity
  8
SUPERFICI
100
AcDbLine
 62
7
  6
CONTINUOUS
 10
-78.9417574039
 20
139.5587569694
 11
-79.0230341832
 21
139.1735873416
  0
LINE
  5
3B6
100
AcDbEntity
  8
RACCORDO
100
AcDbLine
 62
7
  6
CONTINUOUS
 10
-80.0193763512
 20
131.9447335917
 11
-80.0230987664
 21
131.9273583991
  0
LINE
  5
3B7
100
AcDbEntity
  8
RACCORDO
100
AcDbLine
 62
7
  6
CONTINUOUS
 10
-80.0212100385
 20
131.9361119224
 11
-80.0249469801
 21
131.9189133979
  0
LINE
  5
3B8
100
AcDbEntity
  8
SUPERFICI
100
AcDbLine
 62
7
  6
CONTINUOUS
 10
-78.8562901302
 20
139.9485276081
 11
-78.9417574039
 21
139.5587569694
  0
LINE
  5
3B9
100
AcDbEntity
  8
RACCORDO
100
AcDbLine
 62
7
  6
CONTINUOUS
 10
-80.0249467997
 20
131.9189147432
 11
-80.0287753235
 21
131.9017797515
  0
LINE
  5
3BA
100
AcDbEntity
  8
RACCORDO
100
AcDbLine
 62
7
  6
CONTINUOUS
 10
-80.0268173374
 20
131.910483535
 11
-80.0306240827
 21
131.893669428
  0
LINE
  5
3BB
100
AcDbEntity
  8
SUPERFICI
100
AcDbLine
 62
7
  6
CONTINUOUS
 10
-78.766710142
 20
140.3418829616
 11
-78.8562901302
 21
139.9485276081
  0
LINE
  5
3BC
100
AcDbEntity
  8
RACCORDO
100
AcDbLine
 62
7
  6
CONTINUOUS
 10
-80.0306240827
 20
131.893669428
 11
-80.0345180181
 21
131.8769172649
  0
LINE
  5
3BD
100
AcDbEntity
  8
SUPERFICI
100
AcDbLine
 62
7
  6
CONTINUOUS
 10
-78.6731257485
 20
140.7377877963
 11
-78.766710142
 21
140.3418829616
  0
LINE
  5
3BE
100
AcDbEntity
  8
RACCORDO
100
AcDbLine
 62
7
  6
CONTINUOUS
 10
-80.0345180181
 20
131.8769172649
 11
-80.0384982048
 21
131.8602279595
  0
LINE
  5
3BF
100
AcDbEntity
  8
RACCORDO
100
AcDbLine
 62
7
  6
CONTINUOUS
 10
-80.0384982048
 20
131.8602279595
 11
-80.0425636277
 21
131.8436026747
  0
LINE
  5
3C0
100
AcDbEntity
  8
RACCORDO
100
AcDbLine
 62
7
  6
CONTINUOUS
 10
-80.0425636277
 20
131.8436026747
 11
-80.0467132545
 21
131.8270425612
  0
LINE
  5
3C1
100
AcDbEntity
  8
SUPERFICI
100
AcDbLine
 62
7
  6
CONTINUOUS
 10
-78.474320372
 20
141.5338681327
 11
-78.6731257485
 21
140.7377877963
  0
LINE
  5
3C2
100
AcDbEntity
  8
RACCORDO
100
AcDbLine
 62
7
  6
CONTINUOUS
 10
-80.0467132545
 20
131.8270425612
 11
-80.0514262631
 21
131.8087021072
  0
LINE
  5
3C3
100
AcDbEntity
  8
RACCORDO
100
AcDbLine
 62
7
  6
CONTINUOUS
 10
-80.0509461033
 20
131.8105484964
 11
-80.055825817
 21
131.7919998499
  0
LINE
  5
3C4
100
AcDbEntity
  8
RACCORDO
100
AcDbLine
 62
7
  6
CONTINUOUS
 10
-80.055825817
 20
-131.79199985
 11
-80.0514262631
 21
-131.8087021073
  0
LINE
  5
3C5
100
AcDbEntity
  8
RACCORDO
100
AcDbLine
 62
7
  6
CONTINUOUS
 10
-80.0514262631
 20
-131.8087021073
 11
-80.0471115899
 21
-131.8254740779
  0
LINE
  5
3C6
100
AcDbEntity
  8
SUPERFICI
100
AcDbLine
 62
7
  6
CONTINUOUS
 10
-78.5574250286
 20
-141.2080490071
 11
-78.4683661771
 21
-141.5568511481
  0
LINE
  5
3C7
100
AcDbEntity
  8
RACCORDO
100
AcDbLine
 62
7
  6
CONTINUOUS
 10
-80.0471115899
 20
-131.8254740779
 11
-80.0428829186
 21
-131.8423145772
  0
LINE
  5
3C8
100
AcDbEntity
  8
SUPERFICI
100
AcDbLine
 62
7
  6
CONTINUOUS
 10
-78.6436274956
 20
-140.8596195213
 11
-78.5574250608
 21
-141.2080488791
  0
LINE
  5
3C9
100
AcDbEntity
  8
RACCORDO
100
AcDbLine
 62
7
  6
CONTINUOUS
 10
-80.0428829186
 20
-131.8423145772
 11
-80.0387413523
 21
-131.8592224067
  0
LINE
  5
3CA
100
AcDbEntity
  8
SUPERFICI
100
AcDbLine
 62
7
  6
CONTINUOUS
 10
-78.7268409223
 20
-140.5123424528
 11
-78.6436274956
 21
-140.8596195213
  0
LINE
  5
3CB
100
AcDbEntity
  8
RACCORDO
100
AcDbLine
 62
7
  6
CONTINUOUS
 10
-80.0387413523
 20
-131.8592224067
 11
-80.0346879106
 21
-131.8761966296
  0
LINE
  5
3CC
100
AcDbEntity
  8
RACCORDO
100
AcDbLine
 62
7
  6
CONTINUOUS
 10
-80.0346879106
 20
-131.8761966296
 11
-80.0307236646
 21
-131.8932360211
  0
LINE
  5
3CD
100
AcDbEntity
  8
SUPERFICI
100
AcDbLine
 62
7
  6
CONTINUOUS
 10
-78.8070164187
 20
-140.166719278
 11
-78.7268408845
 21
-140.5123426132
  0
LINE
  5
3CE
100
AcDbEntity
  8
RACCORDO
100
AcDbLine
 62
7
  6
CONTINUOUS
 10
-80.0307236646
 20
-131.8932360211
 11
-80.0268496665
 21
-131.9103393433
  0
LINE
  5
3CF
100
AcDbEntity
  8
SUPERFICI
100
AcDbLine
 62
7
  6
CONTINUOUS
 10
-78.8840718024
 20
-139.8234509036
 11
-78.8070164187
 21
-140.166719278
  0
LINE
  5
3D0
100
AcDbEntity
  8
RACCORDO
100
AcDbLine
 62
7
  6
CONTINUOUS
 10
-80.0268496665
 20
-131.9103393433
 11
-80.0230668891
 21
-131.9275056213
  0
LINE
  5
3D1
100
AcDbEntity
  8
SUPERFICI
100
AcDbLine
 62
7
  6
CONTINUOUS
 10
-78.9579428735
 20
-139.4832297804
 11
-78.8840718024
 21
-139.8234509036
  0
LINE
  5
3D2
100
AcDbEntity
  8
RACCORDO
100
AcDbLine
 62
7
  6
CONTINUOUS
 10
-80.0230668891
 20
-131.9275056213
 11
-80.0193763512
 21
-131.9447335918
  0
LINE
  5
3D3
100
AcDbEntity
  8
SUPERFICI
100
AcDbLine
 62
7
  6
CONTINUOUS
 10
-79.0286225531
 20
-139.1465456947
 11
-78.9579428296
 21
-139.4832299859
  0
LINE
  5
3D4
100
AcDbEntity
  8
RACCORDO
100
AcDbLine
 62
7
  6
CONTINUOUS
 10
-80.0193763512
 20
-131.9447335918
 11
-80.0157790517
 21
-131.9620219786
  0
LINE
  5
3D5
100
AcDbEntity
  8
SUPERFICI
100
AcDbLine
 62
7
  6
CONTINUOUS
 10
-79.0960750258
 20
-138.8140778053
 11
-79.0286225531
 21
-139.1465456947
  0
LINE
  5
3D6
100
AcDbEntity
  8
RACCORDO
100
AcDbLine
 62
7
  6
CONTINUOUS
 10
-80.0157790517
 20
-131.9620219786
 11
-80.0122759148
 21
-131.9793697706
  0
LINE
  5
3D7
100
AcDbEntity
  8
SUPERFICI
100
AcDbLine
 62
7
  6
CONTINUOUS
 10
-79.1602824588
 20
-138.4864839758
 11
-79.0960749794
 21
-138.8140780384
  0
LINE
  5
3D8
100
AcDbEntity
  8
RACCORDO
100
AcDbLine
 62
7
  6
CONTINUOUS
 10
-80.0122759148
 20
-131.9793697706
 11
-80.0088679046
 21
-131.9967756676
  0
LINE
  5
3D9
100
AcDbEntity
  8
RACCORDO
100
AcDbLine
 62
7
  6
CONTINUOUS
 10
-80.0088679046
 20
-131.9967756676
 11
-80.0055559651
 21
-132.0142383571
  0
LINE
  5
3DA
100
AcDbEntity
  8
SUPERFICI
100
AcDbLine
 62
7
  6
CONTINUOUS
 10
-79.2212772102
 20
-138.1642205053
 11
-79.1602825062
 21
-138.4864837297
  0
LINE
  5
3DB
100
AcDbEntity
  8
SUPERFICI
100
AcDbLine
 62
7
  6
CONTINUOUS
 10
-79.2505685293
 20
-138.0053030854
 11
-79.2212772583
 21
-138.1642202468
  0
LINE
  5
3DC
100
AcDbEntity
  8
SUPERFICI
100
AcDbLine
 62
7
  6
CONTINUOUS
 10
-79.7623544837
 20
134.5418239637
 11
-79.7901980168
 21
134.290389234
  0
LINE
  5
3DD
100
AcDbEntity
  8
RACCORDO
100
AcDbLine
 62
7
  6
CONTINUOUS
 10
-79.9722410641
 20
132.2401745551
 11
-79.9746500917
 21
132.2187411063
  0
LINE
  5
3DE
100
AcDbEntity
  8
SUPERFICI
100
AcDbLine
 62
7
  6
CONTINUOUS
 10
-79.7323807633
 20
134.8006776363
 11
-79.7623544837
 21
134.5418239637
  0
LINE
  5
3DF
100
AcDbEntity
  8
RACCORDO
100
AcDbLine
 62
7
  6
CONTINUOUS
 10
-79.974226925
 20
132.222406617
 11
-79.9767969232
 21
132.2007153717
  0
LINE
  5
3E0
100
AcDbEntity
  8
SUPERFICI
100
AcDbLine
 62
7
  6
CONTINUOUS
 10
-79.7001378767
 20
135.067142183
 11
-79.7323807633
 21
134.8006776363
  0
LINE
  5
3E1
100
AcDbEntity
  8
RACCORDO
100
AcDbLine
 62
7
  6
CONTINUOUS
 10
-79.9763153783
 20
132.2046778146
 11
-79.9785057665
 21
132.1869895183
  0
LINE
  5
3E2
100
AcDbEntity
  8
SUPERFICI
100
AcDbLine
 62
7
  6
CONTINUOUS
 10
-79.6654970993
 20
135.3412687984
 11
-79.7001378767
 21
135.067142183
  0
LINE
  5
3E3
100
AcDbEntity
  8
RACCORDO
100
AcDbLine
 62
7
  6
CONTINUOUS
 10
-79.9779098808
 20
132.1917182478
 11
-79.9802144658
 21
132.1737561381
  0
LINE
  5
3E4
100
AcDbEntity
  8
SUPERFICI
100
AcDbLine
 62
7
  6
CONTINUOUS
 10
-79.6283596039
 20
135.6228483086
 11
-79.6654970993
 21
135.3412687984
  0
LINE
  5
3E5
100
AcDbEntity
  8
RACCORDO
100
AcDbLine
 62
7
  6
CONTINUOUS
 10
-79.9796389945
 20
132.178160836
 11
-79.9819810481
 21
132.1605355499
  0
LINE
  5
3E6
100
AcDbEntity
  8
SUPERFICI
100
AcDbLine
 62
7
  6
CONTINUOUS
 10
-79.5884510893
 20
135.9129246197
 11
-79.6283596039
 21
135.6228483086
  0
LINE
  5
3E7
100
AcDbEntity
  8
RACCORDO
100
AcDbLine
 62
7
  6
CONTINUOUS
 10
-79.9814059026
 20
132.1647915797
 11
-79.9838666336
 21
132.1468960983
  0
LINE
  5
3E8
100
AcDbEntity
  8
RACCORDO
100
AcDbLine
 62
7
  6
CONTINUOUS
 10
-79.9831897239
 20
132.1517390838
 11
-79.9856818824
 21
132.1341796439
  0
LINE
  5
3E9
100
AcDbEntity
  8
SUPERFICI
100
AcDbLine
 62
7
  6
CONTINUOUS
 10
-79.5455242383
 20
136.2121581408
 11
-79.5884510893
 21
135.9129246197
  0
LINE
  5
3EA
100
AcDbEntity
  8
RACCORDO
100
AcDbLine
 62
7
  6
CONTINUOUS
 10
-79.9851357287
 20
132.1379655992
 11
-79.9882732257
 21
132.1166655733
  0
LINE
  5
3EB
100
AcDbEntity
  8
SUPERFICI
100
AcDbLine
 62
7
  6
CONTINUOUS
 10
-79.4992304495
 20
136.5217287625
 11
-79.5455242383
 21
136.2121581408
  0
LINE
  5
3EC
100
AcDbEntity
  8
RACCORDO
100
AcDbLine
 62
7
  6
CONTINUOUS
 10
-79.9877509301
 20
132.1201397181
 11
-79.9909630014
 21
132.0991981987
  0
LINE
  5
3ED
100
AcDbEntity
  8
SUPERFICI
100
AcDbLine
 62
7
  6
CONTINUOUS
 10
-79.449198062
 20
136.8427280872
 11
-79.4992304495
 21
136.5217287625
  0
LINE
  5
3EE
100
AcDbEntity
  8
RACCORDO
100
AcDbLine
 62
7
  6
CONTINUOUS
 10
-79.9904681332
 20
132.1023619652
 11
-79.9937504366
 21
132.0817788367
  0
LINE
  5
3EF
100
AcDbEntity
  8
SUPERFICI
100
AcDbLine
 62
7
  6
CONTINUOUS
 10
-79.395159721
 20
137.1753890338
 11
-79.449198062
 21
136.8427280872
  0
LINE
  5
3F0
100
AcDbEntity
  8
RACCORDO
100
AcDbLine
 62
7
  6
CONTINUOUS
 10
-79.9932865722
 20
132.0846334503
 11
-79.9966347831
 21
132.0644085294
  0
LINE
  5
3F1
100
AcDbEntity
  8
SUPERFICI
100
AcDbLine
 62
7
  6
CONTINUOUS
 10
-79.3368837443
 20
137.5196363043
 11
-79.395159721
 21
137.1753890338
  0
LINE
  5
3F2
100
AcDbEntity
  8
RACCORDO
100
AcDbLine
 62
7
  6
CONTINUOUS
 10
-79.9962054193
 20
132.0669555527
 11
-79.9996152323
 21
132.0470885742
  0
LINE
  5
3F3
100
AcDbEntity
  8
RACCORDO
100
AcDbLine
 62
7
  6
CONTINUOUS
 10
-79.9992238252
 20
132.0493296407
 11
-80.002690956
 21
132.0298202579
  0
LWPOLYLINE
  5
3F4
100
AcDbEntity
  8
SUPERFICI
100
AcDbPolyline
 62
7
  6
CONTINUOUS
 90
3
 70
0
 10
-79.2416765073
 20
138.0538442291
 10
-79.2744666416
 20
137.8735156006
 10
-79.3368837443
 20
137.5196363043
  0
LINE
  5
3F5
100
AcDbEntity
  8
RACCORDO
100
AcDbLine
 62
7
  6
CONTINUOUS
 10
-80.0023409693
 20
132.0317567932
 11
-80.0055559651
 21
132.0142383571
  0
LINE
  5
3F6
100
AcDbEntity
  8
RACCORDO
100
AcDbLine
 62
7
  6
CONTINUOUS
 10
-80.0055559651
 20
-132.0142383571
 11
-80.0023409693
 21
-132.0317567933
  0
LINE
  5
3F7
100
AcDbEntity
  8
SUPERFICI
100
AcDbLine
 62
7
  6
CONTINUOUS
 10
-79.3067660384
 20
-137.6921991658
 11
-79.2505685293
 21
-138.0053030854
  0
LINE
  5
3F8
100
AcDbEntity
  8
RACCORDO
100
AcDbLine
 62
7
  6
CONTINUOUS
 10
-80.0023409693
 20
-132.0317567933
 11
-79.9992238251
 21
-132.0493296408
  0
LINE
  5
3F9
100
AcDbEntity
  8
SUPERFICI
100
AcDbLine
 62
7
  6
CONTINUOUS
 10
-79.3597918002
 20
-137.3859991622
 11
-79.3067660384
 21
-137.6921991658
  0
LINE
  5
3FA
100
AcDbEntity
  8
RACCORDO
100
AcDbLine
 62
7
  6
CONTINUOUS
 10
-79.9992238251
 20
-132.0493296408
 11
-79.9962054193
 21
-132.0669555527
  0
LINE
  5
3FB
100
AcDbEntity
  8
SUPERFICI
100
AcDbLine
 62
7
  6
CONTINUOUS
 10
-79.4095940852
 20
-137.0878632603
 11
-79.3597918002
 21
-137.3859991622
  0
LINE
  5
3FC
100
AcDbEntity
  8
RACCORDO
100
AcDbLine
 62
7
  6
CONTINUOUS
 10
-79.9962054193
 20
-132.0669555527
 11
-79.9932865722
 21
-132.0846334504
  0
LINE
  5
3FD
100
AcDbEntity
  8
SUPERFICI
100
AcDbLine
 62
7
  6
CONTINUOUS
 10
-79.4562616828
 20
-136.7982026894
 11
-79.4095940852
 21
-137.0878632603
  0
LINE
  5
3FE
100
AcDbEntity
  8
RACCORDO
100
AcDbLine
 62
7
  6
CONTINUOUS
 10
-79.9932865722
 20
-132.0846334504
 11
-79.9904681332
 21
-132.1023619653
  0
LINE
  5
3FF
100
AcDbEntity
  8
SUPERFICI
100
AcDbLine
 62
7
  6
CONTINUOUS
 10
-79.4998959261
 20
-136.5173678037
 11
-79.4562616828
 21
-136.7982026894
  0
LINE
  5
400
100
AcDbEntity
  8
RACCORDO
100
AcDbLine
 62
7
  6
CONTINUOUS
 10
-79.9904681332
 20
-132.1023619653
 11
-79.9877509301
 21
-132.1201397181
  0
LINE
  5
401
100
AcDbEntity
  8
SUPERFICI
100
AcDbLine
 62
7
  6
CONTINUOUS
 10
-79.5408322853
 20
-136.2441274802
 11
-79.4998959261
 21
-136.5173678037
  0
LINE
  5
402
100
AcDbEntity
  8
RACCORDO
100
AcDbLine
 62
7
  6
CONTINUOUS
 10
-79.9877509301
 20
-132.1201397181
 11
-79.9851357287
 21
-132.1379655992
  0
LINE
  5
403
100
AcDbEntity
  8
SUPERFICI
100
AcDbLine
 62
7
  6
CONTINUOUS
 10
-79.5792985537
 20
-135.9777825228
 11
-79.5408322356
 21
-136.2441278182
  0
LINE
  5
404
100
AcDbEntity
  8
RACCORDO
100
AcDbLine
 62
7
  6
CONTINUOUS
 10
-79.9851357287
 20
-132.1379655992
 11
-79.9826233183
 21
-132.1558382091
  0
LINE
  5
405
100
AcDbEntity
  8
SUPERFICI
100
AcDbLine
 62
7
  6
CONTINUOUS
 10
-79.6155622996
 20
-135.7172028929
 11
-79.5792986037
 21
-135.9777821702
  0
LINE
  5
406
100
AcDbEntity
  8
RACCORDO
100
AcDbLine
 62
7
  6
CONTINUOUS
 10
-79.9826233183
 20
-132.1558382091
 11
-79.9802144658
 21
-132.1737561382
  0
LINE
  5
407
100
AcDbEntity
  8
SUPERFICI
100
AcDbLine
 62
7
  6
CONTINUOUS
 10
-79.6498767645
 20
-135.4611649792
 11
-79.6155622493
 21
-135.7172032608
  0
LINE
  5
408
100
AcDbEntity
  8
SUPERFICI
100
AcDbLine
 62
7
  6
CONTINUOUS
 10
-79.6824236124
 20
-135.2087970335
 11
-79.6498768149
 21
-135.4611645956
  0
LINE
  5
409
100
AcDbEntity
  8
RACCORDO
100
AcDbLine
 62
7
  6
CONTINUOUS
 10
-79.9802144658
 20
-132.1737561382
 11
-79.9779098808
 21
-132.1917182479
  0
LINE
  5
40A
100
AcDbEntity
  8
SUPERFICI
100
AcDbLine
 62
7
  6
CONTINUOUS
 10
-79.7134612378
 20
-134.9584399482
 11
-79.6824236124
 21
-135.2087970335
  0
LINE
  5
40B
100
AcDbEntity
  8
RACCORDO
100
AcDbLine
 62
7
  6
CONTINUOUS
 10
-79.9779098808
 20
-132.1917182479
 11
-79.9757102906
 21
-132.2097231098
  0
LINE
  5
40C
100
AcDbEntity
  8
SUPERFICI
100
AcDbLine
 62
7
  6
CONTINUOUS
 10
-79.7430438871
 20
-134.7098965983
 11
-79.7134612378
 21
-134.9584399482
  0
LWPOLYLINE
  5
40D
100
AcDbEntity
  8
RACCORDO
100
AcDbPolyline
 62
7
  6
CONTINUOUS
 90
3
 70
0
 10
-79.9757102906
 20
-132.2097231098
 10
-79.9736163998
 20
-132.2277692862
 10
-79.9726092883
 20
-132.236807574
  0
LWPOLYLINE
  5
40E
100
AcDbEntity
  8
SUPERFICI
100
AcDbPolyline
 62
7
  6
CONTINUOUS
 90
3
 70
0
 10
-79.7846679618
 20
-134.3412396566
 10
-79.7711768192
 20
-134.4633696885
 10
-79.7430439377
 20
-134.7098961644
  0
LINE
  5
40F
100
AcDbEntity
  8
SUPERFICI
100
AcDbLine
 62
7
  6
CONTINUOUS
 10
-79.8104851429
 20
-134.0996319878
 11
-79.7846679618
 21
-134.3412396566
  0
LINE
  5
410
100
AcDbEntity
  8
RACCORDO
100
AcDbLine
 62
7
  6
CONTINUOUS
 10
-79.9726092883
 20
-132.236807574
 11
-79.970675186
 21
-132.2549133238
  0
LINE
  5
411
100
AcDbEntity
  8
SUPERFICI
100
AcDbLine
 62
7
  6
CONTINUOUS
 10
-79.8346891441
 20
-133.8625282416
 11
-79.8104851429
 21
-134.0996319878
  0
LINE
  5
412
100
AcDbEntity
  8
RACCORDO
100
AcDbLine
 62
7
  6
CONTINUOUS
 10
-79.970675186
 20
-132.2549133238
 11
-79.9688484069
 21
-132.2730571782
  0
LINE
  5
413
100
AcDbEntity
  8
SUPERFICI
100
AcDbLine
 62
7
  6
CONTINUOUS
 10
-79.8572527908
 20
-133.6308219593
 11
-79.8346891441
 21
-133.8625282416
  0
LINE
  5
414
100
AcDbEntity
  8
RACCORDO
100
AcDbLine
 62
7
  6
CONTINUOUS
 10
-79.9688484069
 20
-132.2730571782
 11
-79.9671295827
 21
-132.2912376696
  0
LINE
  5
415
100
AcDbEntity
  8
SUPERFICI
100
AcDbLine
 62
7
  6
CONTINUOUS
 10
-79.8781892888
 20
-133.4051386868
 11
-79.8572527908
 21
-133.6308219593
  0
LINE
  5
416
100
AcDbEntity
  8
SUPERFICI
100
AcDbLine
 62
7
  6
CONTINUOUS
 10
-79.8975265242
 20
-133.1860538501
 11
-79.8781892888
 21
-133.4051386868
  0
LINE
  5
417
100
AcDbEntity
  8
RACCORDO
100
AcDbLine
 62
7
  6
CONTINUOUS
 10
-79.9671295827
 20
-132.2912376696
 11
-79.9655193214
 21
-132.3094533229
  0
LINE
  5
418
100
AcDbEntity
  8
SUPERFICI
100
AcDbLine
 62
7
  6
CONTINUOUS
 10
-79.9232498353
 20
-132.8756540102
 11
-79.8975265242
 21
-133.1860538501
  0
LINE
  5
419
100
AcDbEntity
  8
RACCORDO
100
AcDbLine
 62
7
  6
CONTINUOUS
 10
-79.9655193214
 20
-132.3094533229
 11
-79.9640181854
 21
-132.3277029369
  0
LINE
  5
41A
100
AcDbEntity
  8
SUPERFICI
100
AcDbLine
 62
7
  6
CONTINUOUS
 10
-79.9448022157
 20
-132.5951034556
 11
-79.9232498353
 21
-132.8756540102
  0
LINE
  5
41B
100
AcDbEntity
  8
RACCORDO
100
AcDbLine
 62
7
  6
CONTINUOUS
 10
-79.9640181854
 20
-132.3277029369
 11
-79.9626267406
 21
-132.3459850215
  0
LINE
  5
41C
100
AcDbEntity
  8
SUPERFICI
100
AcDbLine
 62
7
  6
CONTINUOUS
 10
-79.9618164844
 20
-132.3573640311
 11
-79.9448022157
 21
-132.5951034556
  0
LINE
  5
41D
100
AcDbEntity
  8
RACCORDO
100
AcDbLine
 62
7
  6
CONTINUOUS
 10
-79.9626267406
 20
-132.3459850215
 11
-79.9618177534
 21
-132.357358927
  0
LINE
  5
41E
100
AcDbEntity
  8
SUPERFICI
100
AcDbLine
 62
7
  6
CONTINUOUS
 10
-79.9485380641
 20
132.5442297826
 11
-79.9618165334
 21
132.3573633232
  0
LINE
  5
41F
100
AcDbEntity
  8
RACCORDO
100
AcDbLine
 62
7
  6
CONTINUOUS
 10
-79.9618175432
 20
132.357359813
 11
-79.9633087212
 21
132.3368399609
  0
LINE
  5
420
100
AcDbEntity
  8
SUPERFICI
100
AcDbLine
 62
7
  6
CONTINUOUS
 10
-79.9267291972
 20
132.8317500353
 11
-79.9485380641
 21
132.5442297826
  0
LINE
  5
421
100
AcDbEntity
  8
RACCORDO
100
AcDbLine
 62
7
  6
CONTINUOUS
 10
-79.9631797036
 20
132.3385395338
 11
-79.9647550725
 21
132.3185740307
  0
LINE
  5
422
100
AcDbEntity
  8
SUPERFICI
100
AcDbLine
 62
7
  6
CONTINUOUS
 10
-79.9013578642
 20
133.1412855534
 11
-79.9267291972
 21
132.8317500353
  0
LINE
  5
423
100
AcDbEntity
  8
RACCORDO
100
AcDbLine
 62
7
  6
CONTINUOUS
 10
-79.9645906244
 20
132.320579692
 11
-79.9663108461
 21
132.3003411759
  0
LINE
  5
424
100
AcDbEntity
  8
SUPERFICI
100
AcDbLine
 62
7
  6
CONTINUOUS
 10
-79.8824995096
 20
133.3572480441
 11
-79.9013578642
 21
133.1412855534
  0
LINE
  5
425
100
AcDbEntity
  8
SUPERFICI
100
AcDbLine
 62
7
  6
CONTINUOUS
 10
-79.8620542342
 20
133.5800324704
 11
-79.8824995096
 21
133.3572480441
  0
LINE
  5
426
100
AcDbEntity
  8
RACCORDO
100
AcDbLine
 62
7
  6
CONTINUOUS
 10
-79.9661073481
 20
132.3026517114
 11
-79.9679754669
 21
132.2821428834
  0
LINE
  5
427
100
AcDbEntity
  8
SUPERFICI
100
AcDbLine
 62
7
  6
CONTINUOUS
 10
-79.8399438859
 20
133.8095446179
 11
-79.8620542342
 21
133.5800324704
  0
LINE
  5
428
100
AcDbEntity
  8
RACCORDO
100
AcDbLine
 62
7
  6
CONTINUOUS
 10
-79.9677293299
 20
132.2847570039
 11
-79.9697483357
 21
132.2639806323
  0
LINE
  5
429
100
AcDbEntity
  8
SUPERFICI
100
AcDbLine
 62
7
  6
CONTINUOUS
 10
-79.8160256425
 20
134.0463164787
 11
-79.8399438859
 21
133.8095446179
  0
LINE
  5
42A
100
AcDbEntity
  8
RACCORDO
100
AcDbLine
 62
7
  6
CONTINUOUS
 10
-79.9694560031
 20
132.2668969743
 11
-79.9716288603
 21
132.245855612
  0
LINE
  5
42B
100
AcDbEntity
  8
SUPERFICI
100
AcDbLine
 62
7
  6
CONTINUOUS
 10
-79.7901980168
 20
134.290389234
 11
-79.8160256425
 21
134.0463164787
  0
LINE
  5
42C
100
AcDbEntity
  8
RACCORDO
100
AcDbLine
 62
7
  6
CONTINUOUS
 10
-79.971286807
 20
132.2490727529
 11
-79.9726092883
 21
132.236807574
  0
LINE
  5
42D
100
AcDbEntity
  8
RACCORDO
100
AcDbLine
 62
253
  6
CONTINUOUS
 10
-80.7655504434
 20
-13.25
 11
-79.9623198932
 21
-13.25
  0
LINE
  5
42E
100
AcDbEntity
  8
0
100
AcDbLine
 62
7
  6
CONTINUOUS
 10
-80.7655504434
 20
-130.1500573674
 11
-80.7655504434
 21
-82.8499426326
  0
LINE
  5
42F
100
AcDbEntity
  8
0
100
AcDbLine
 62
7
  6
CONTINUOUS
 10
-80.7655504434
 20
-59.1500573674
 11
-80.7655504434
 21
-11.8499426326
  0
LINE
  5
430
100
AcDbEntity
  8
0
100
AcDbLine
 62
7
  6
CONTINUOUS
 10
-80.7655504434
 20
11.8499426326
 11
-80.7655504434
 21
59.1500573674
  0
LINE
  5
431
100
AcDbEntity
  8
0
100
AcDbLine
 62
7
  6
CONTINUOUS
 10
-80.7655504434
 20
82.8499426326
 11
-80.7655504434
 21
130.1500573674
  0
LINE
  5
432
100
AcDbEntity
  8
RACCORDO
100
AcDbLine
 62
253
  6
CONTINUOUS
 10
-80.5890906336
 20
-82.3998704614
 11
-80.5890906336
 21
-82.2826847062
  0
LINE
  5
433
100
AcDbEntity
  8
RACCORDO
100
AcDbLine
 62
253
  6
CONTINUOUS
 10
-80.5890906336
 20
-59.7173152938
 11
-80.5890906336
 21
-59.6001295386
  0
LINE
  5
434
100
AcDbEntity
  8
RACCORDO
100
AcDbLine
 62
253
  6
CONTINUOUS
 10
-80.5890906336
 20
-11.3998704614
 11
-80.5890906336
 21
-11.2826847062
  0
LINE
  5
435
100
AcDbEntity
  8
RACCORDO
100
AcDbLine
 62
253
  6
CONTINUOUS
 10
-80.5890906336
 20
11.2826847062
 11
-80.5890906336
 21
11.3998704614
  0
LINE
  5
436
100
AcDbEntity
  8
RACCORDO
100
AcDbLine
 62
253
  6
CONTINUOUS
 10
-80.5890906336
 20
59.6001295386
 11
-80.5890906336
 21
59.7173152938
  0
LINE
  5
437
100
AcDbEntity
  8
RACCORDO
100
AcDbLine
 62
253
  6
CONTINUOUS
 10
-80.5890906336
 20
82.2826847062
 11
-80.5890906336
 21
82.3998704614
  0
LINE
  5
438
100
AcDbEntity
  8
RACCORDO
100
AcDbLine
 62
253
  6
CONTINUOUS
 10
-80.5629468161
 20
-106.4999791562
 11
-80.5629468161
 21
-84.2499924231
  0
LINE
  5
439
100
AcDbEntity
  8
RACCORDO
100
AcDbLine
 62
253
  6
CONTINUOUS
 10
-80.5629468161
 20
-57.7500132116
 11
-80.5629468161
 21
-13.2499924231
  0
LINE
  5
43A
100
AcDbEntity
  8
RACCORDO
100
AcDbLine
 62
253
  6
CONTINUOUS
 10
-80.5629468161
 20
13.2499867884
 11
-80.5629468161
 21
57.7500075769
  0
LINE
  5
43B
100
AcDbEntity
  8
RACCORDO
100
AcDbLine
 62
253
  6
CONTINUOUS
 10
-80.5629468161
 20
84.2499867884
 11
-80.5629468161
 21
106.4999791549
  0
LINE
  5
43C
100
AcDbEntity
  8
RACCORDO
100
AcDbLine
 62
7
  6
CONTINUOUS
 10
-80.0597112043
 20
-80.7994636249
 11
-80.0597112043
 21
-61.2005358271
  0
LINE
  5
43D
100
AcDbEntity
  8
RACCORDO
100
AcDbLine
 62
7
  6
CONTINUOUS
 10
-80.0597112043
 20
-9.7994636249
 11
-80.0597112043
 21
9.7994641729
  0
LINE
  5
43E
100
AcDbEntity
  8
RACCORDO
100
AcDbLine
 62
7
  6
CONTINUOUS
 10
-80.0597112043
 20
61.2005363751
 11
-80.0597112043
 21
80.7994641729
  0
LINE
  5
43F
100
AcDbEntity
  8
RACCORDO
100
AcDbLine
 62
253
  6
CONTINUOUS
 10
-79.9623198932
 20
-106.4999895784
 11
-79.9623198932
 21
-84.25
  0
LINE
  5
440
100
AcDbEntity
  8
RACCORDO
100
AcDbLine
 62
253
  6
CONTINUOUS
 10
-79.9623198932
 20
-57.75
 11
-79.9623198932
 21
-13.25
  0
LINE
  5
441
100
AcDbEntity
  8
RACCORDO
100
AcDbLine
 62
253
  6
CONTINUOUS
 10
-79.9623198932
 20
13.25
 11
-79.9623198932
 21
57.75
  0
LINE
  5
442
100
AcDbEntity
  8
RACCORDO
100
AcDbLine
 62
253
  6
CONTINUOUS
 10
-79.9623198932
 20
84.25
 11
-79.9623198932
 21
106.4999895772
  0
LINE
  5
443
100
AcDbEntity
  8
RACCORDO
100
AcDbLine
 62
253
  6
CONTINUOUS
 10
-77.2201570146
 20
-106.5000014217
 11
-77.2201570146
 21
106.5000014187
  0
LINE
  5
444
100
AcDbEntity
  8
RACCORDO
100
AcDbLine
 62
253
  6
CONTINUOUS
 10
-76.3332312325
 20
-106.5000028419
 11
-76.3332312325
 21
106.500002839
  0
LINE
  5
445
100
AcDbEntity
  8
SUPERFICI
100
AcDbLine
 62
7
  6
CONTINUOUS
 10
-71.4655504434
 20
-146.5
 11
-71.4655504434
 21
-143.5
  0
LINE
  5
446
100
AcDbEntity
  8
0
100
AcDbLine
 62
7
  6
CONTINUOUS
 10
-71.4655504434
 20
-143.5
 11
-71.4655504434
 21
143.5
  0
LINE
  5
447
100
AcDbEntity
  8
SUPERFICI
100
AcDbLine
 62
7
  6
CONTINUOUS
 10
-71.4655504434
 20
143.5
 11
-71.4655504434
 21
146.5
  0
LINE
  5
448
100
AcDbEntity
  8
RACCORDO
100
AcDbLine
 62
253
  6
CONTINUOUS
 10
-80.7655504434
 20
13.25
 11
-79.9623198932
 21
13.25
  0
LINE
  5
449
100
AcDbEntity
  8
RACCORDO
100
AcDbLine
 62
253
  6
CONTINUOUS
 10
-80.7655504434
 20
57.75
 11
-79.9623198932
 21
57.75
  0
LWPOLYLINE
  5
44A
100
AcDbEntity
  8
0
100
AcDbPolyline
 62
7
  6
CONTINUOUS
 90
10
 70
0
 43
0.3500000006
 10
-76.2226916199
 20
155.7500018921
 10
-76.151260437
 20
155.6071395264
 10
-76.151260437
 20
155.5357174072
 10
-76.2941228027
 20
155.3928550415
 10
-76.3655539856
 20
155.3928550415
 10
-76.4369761047
 20
155.4642771606
 10
-76.4369761047
 20
155.5357174072
 10
-76.3655539856
 20
155.6785797729
 10
-76.2941228027
 20
155.7500018921
 10
-76.2226916199
 20
155.7500018921
  0
LINE
  5
44B
100
AcDbEntity
  8
RACCORDO
100
AcDbLine
 62
253
  6
CONTINUOUS
 10
-80.7655504434
 20
84.25
 11
-79.9623198932
 21
84.25
  0
LINE
  5
44C
100
AcDbEntity
  8
0
100
AcDbLine
 62
253
  6
CONTINUOUS
 10
-79.7784122653
 20
106.4999999976
 11
-79.7706492946
 21
106.4999999976
  0
LINE
  5
44D
100
AcDbEntity
  8
RACCORDO
100
AcDbLine
 62
253
  6
CONTINUOUS
 10
-79.7706492946
 20
106.4999999976
 11
-76.3332312325
 21
106.500002839
  0
LINE
  5
44E
100
AcDbEntity
  8
RACCORDO
100
AcDbLine
 62
253
  6
CONTINUOUS
 10
-79.7784122653
 20
106.4999999976
 11
-80.5629468161
 21
106.4999791549
  0
LWPOLYLINE
  5
44F
100
AcDbEntity
  8
RACCORDO
100
AcDbPolyline
 62
7
  6
CONTINUOUS
 90
22
 70
0
 10
-76.3419477496
 20
146.2273670644
 10
-76.3928001567
 20
146.2232203666
 10
-76.4440850318
 20
146.2163720255
 10
-76.4954766404
 20
146.2067670201
 10
-76.5469565533
 20
146.194311007
 10
-76.5982193527
 20
146.1789778751
 10
-76.6486948184
 20
146.1608834629
 10
-76.6980912876
 20
146.1401260299
 10
-76.7464062034
 20
146.1167002148
 10
-76.7935219542
 20
146.0906395803
 10
-76.8393053447
 20
146.0619887741
 10
-76.8835941115
 20
146.0308192909
 10
-76.9262294937
 20
145.9972153531
 10
-76.9670806648
 20
145.9612522747
 10
-77.0060041876
 20
145.9230271711
 10
-77.0428358074
 20
145.8826777246
 10
-77.0774552847
 20
145.8403170528
 10
-77.1097502601
 20
145.796062789
 10
-77.1395891488
 20
145.7500802122
 10
-77.1668779423
 20
145.7025050031
 10
-77.191530353
 20
145.6534775364
 10
-77.2142537246
 20
145.6010938257
  0
LINE
  5
450
100
AcDbEntity
  8
RACCORDO
100
AcDbLine
 62
7
  6
CONTINUOUS
 10
-71.4655504434
 20
146.5
 11
-76.3419468271
 21
146.227367116
  0
LINE
  5
451
100
AcDbEntity
  8
RACCORDO
100
AcDbLine
 62
253
  6
CONTINUOUS
 10
-80.7655504434
 20
128.75
 11
-80.5577309005
 21
128.7499998388
  0
LINE
  5
452
100
AcDbEntity
  8
RACCORDO
100
AcDbLine
 62
253
  6
CONTINUOUS
 10
-71.4655504434
 20
143.5
 11
-76.188383876
 21
143.4999469243
  0
LWPOLYLINE
  5
453
100
AcDbEntity
  8
0
100
AcDbPolyline
 62
7
  6
CONTINUOUS
 90
6
 70
0
 43
0.3500000006
 10
-75.1512646637
 20
155.2499926758
 10
-74.0798377075
 20
155.2499926758
 10
-73.8655486908
 20
155.4642771606
 10
-73.8655486908
 20
156.5357177124
 10
-74.2941221924
 20
156.9642866821
 10
-74.7226911621
 20
156.9642866821
  0
ARC
  5
454
100
AcDbEntity
  8
RACCORDO
100
AcDbCircle
 62
253
  6
CONTINUOUS
 10
-378.7207261394
 20
-135.7814203561
 40
356.5061167002
100
AcDbArc
 50
0.5535293686
 51
0.8073306716
  0
ARC
  5
455
100
AcDbEntity
  8
RACCORDO
100
AcDbCircle
 62
253
  6
CONTINUOUS
 10
-29.2568178547
 20
-420.55092562
 40
291.843699505
100
AcDbArc
 50
89.0190268452
 51
89.327810119
  0
ARC
  5
456
100
AcDbEntity
  8
RACCORDO
100
AcDbCircle
 62
253
  6
CONTINUOUS
 10
-22.25
 20
-13.25
 40
3.6690890731
100
AcDbArc
 50
90.0
 51
109.8754368696
  0
ARC
  5
457
100
AcDbEntity
  8
RACCORDO
100
AcDbCircle
 62
253
  6
CONTINUOUS
 10
-22.25
 20
-57.75
 40
3.6690890731
100
AcDbArc
 50
250.1245918173
 51
270.0
  0
ARC
  5
458
100
AcDbEntity
  8
RACCORDO
100
AcDbCircle
 62
253
  6
CONTINUOUS
 10
-22.25
 20
-84.25
 40
3.6690890731
100
AcDbArc
 50
90.0
 51
109.8754368696
  0
ARC
  5
459
100
AcDbEntity
  8
SUPERFICI
100
AcDbCircle
 62
7
  6
CONTINUOUS
 10
-37.0
 20
-143.5
 40
3.0
100
AcDbArc
 50
180.0
 51
270.0
  0
ARC
  5
45A
100
AcDbEntity
  8
RACCORDO
100
AcDbCircle
 62
253
  6
CONTINUOUS
 10
-37.0034132063
 20
-143.5041976505
 40
2.732601226
100
AcDbArc
 50
179.9108710137
 51
270.0715660461
  0
ARC
  5
45B
100
AcDbEntity
  8
RACCORDO
100
AcDbCircle
 62
253
  6
CONTINUOUS
 10
-22.25
 20
-57.75
 40
1.9673152938
100
AcDbArc
 50
250.1245133275
 51
270.0
  0
ARC
  5
45C
100
AcDbEntity
  8
RACCORDO
100
AcDbCircle
 62
253
  6
CONTINUOUS
 10
-22.25
 20
-13.25
 40
1.9673152938
100
AcDbArc
 50
90.0
 51
109.8754866725
  0
ARC
  5
45D
100
AcDbEntity
  8
RACCORDO
100
AcDbCircle
 62
253
  6
CONTINUOUS
 10
-22.25
 20
-84.25
 40
1.9673152938
100
AcDbArc
 50
90.0
 51
109.8754866725
  0
ARC
  5
45E
100
AcDbEntity
  8
0
100
AcDbCircle
 62
253
  6
CONTINUOUS
 10
-22.25
 20
-57.75
 40
0.4038626693
100
AcDbArc
 50
180.0
 51
270.0
  0
ARC
  5
45F
100
AcDbEntity
  8
0
100
AcDbCircle
 62
253
  6
CONTINUOUS
 10
-22.25
 20
-13.25
 40
0.4038626693
100
AcDbArc
 50
90.0
 51
180.0
  0
ARC
  5
460
100
AcDbEntity
  8
0
100
AcDbCircle
 62
253
  6
CONTINUOUS
 10
-22.25
 20
-128.75
 40
0.4038626693
100
AcDbArc
 50
180.0
 51
270.0
  0
ARC
  5
461
100
AcDbEntity
  8
0
100
AcDbCircle
 62
253
  6
CONTINUOUS
 10
-22.25
 20
-84.25
 40
0.4038626693
100
AcDbArc
 50
90.0
 51
180.0
  0
ARC
  5
462
100
AcDbEntity
  8
0
100
AcDbCircle
 62
7
  6
CONTINUOUS
 10
-22.25
 20
-57.75
 40
0.3
100
AcDbArc
 50
180.0
 51
270.0
  0
ARC
  5
463
100
AcDbEntity
  8
0
100
AcDbCircle
 62
7
  6
CONTINUOUS
 10
-22.25
 20
-13.25
 40
0.3
100
AcDbArc
 50
90.0
 51
180.0
  0
ARC
  5
464
100
AcDbEntity
  8
0
100
AcDbCircle
 62
7
  6
CONTINUOUS
 10
-22.25
 20
-128.75
 40
0.3
100
AcDbArc
 50
180.0
 51
270.0
  0
ARC
  5
465
100
AcDbEntity
  8
0
100
AcDbCircle
 62
7
  6
CONTINUOUS
 10
-22.25
 20
-84.25
 40
0.3
100
AcDbArc
 50
90.0
 51
180.0
  0
ARC
  5
466
100
AcDbEntity
  8
RACCORDO
100
AcDbCircle
 62
253
  6
CONTINUOUS
 10
-378.6848940052
 20
135.7809952545
 40
356.4702821335
100
AcDbArc
 50
359.192656497
 51
359.4464833116
  0
ARC
  5
467
100
AcDbEntity
  8
RACCORDO
100
AcDbCircle
 62
253
  6
CONTINUOUS
 10
-29.2575545599
 20
420.6019516509
 40
291.8947306704
100
AcDbArc
 50
270.672216982
 51
270.9809462697
  0
ARC
  5
468
100
AcDbEntity
  8
RACCORDO
100
AcDbCircle
 62
253
  6
CONTINUOUS
 10
-22.25
 20
84.25
 40
3.6690890731
100
AcDbArc
 50
250.1245918173
 51
270.0
  0
ARC
  5
469
100
AcDbEntity
  8
RACCORDO
100
AcDbCircle
 62
253
  6
CONTINUOUS
 10
-22.25
 20
57.75
 40
3.6690890731
100
AcDbArc
 50
90.0
 51
109.8754368696
  0
ARC
  5
46A
100
AcDbEntity
  8
RACCORDO
100
AcDbCircle
 62
253
  6
CONTINUOUS
 10
-22.25
 20
13.25
 40
3.6690890731
100
AcDbArc
 50
250.1245918173
 51
270.0
  0
ARC
  5
46B
100
AcDbEntity
  8
SUPERFICI
100
AcDbCircle
 62
7
  6
CONTINUOUS
 10
-37.0
 20
143.5
 40
3.0
100
AcDbArc
 50
90.0
 51
180.0
  0
ARC
  5
46C
100
AcDbEntity
  8
RACCORDO
100
AcDbCircle
 62
253
  6
CONTINUOUS
 10
-37.0034131134
 20
143.5041976982
 40
2.7326012544
100
AcDbArc
 50
89.9273250523
 51
180.0880157611
  0
ARC
  5
46D
100
AcDbEntity
  8
RACCORDO
100
AcDbCircle
 62
253
  6
CONTINUOUS
 10
-22.25
 20
84.25
 40
1.9673152938
100
AcDbArc
 50
250.1245133275
 51
270.0
  0
ARC
  5
46E
100
AcDbEntity
  8
RACCORDO
100
AcDbCircle
 62
253
  6
CONTINUOUS
 10
-22.25
 20
13.25
 40
1.9673152938
100
AcDbArc
 50
250.1245133275
 51
270.0
  0
ARC
  5
46F
100
AcDbEntity
  8
RACCORDO
100
AcDbCircle
 62
253
  6
CONTINUOUS
 10
-22.25
 20
57.75
 40
1.9673152938
100
AcDbArc
 50
90.0
 51
109.8754866725
  0
ARC
  5
470
100
AcDbEntity
  8
0
100
AcDbCircle
 62
253
  6
CONTINUOUS
 10
-22.25
 20
84.25
 40
0.4038626693
100
AcDbArc
 50
180.0
 51
270.0
  0
ARC
  5
471
100
AcDbEntity
  8
0
100
AcDbCircle
 62
253
  6
CONTINUOUS
 10
-22.25
 20
128.75
 40
0.4038626693
100
AcDbArc
 50
90.0
 51
180.0
  0
ARC
  5
472
100
AcDbEntity
  8
0
100
AcDbCircle
 62
253
  6
CONTINUOUS
 10
-22.25
 20
13.25
 40
0.4038626693
100
AcDbArc
 50
180.0
 51
270.0
  0
ARC
  5
473
100
AcDbEntity
  8
0
100
AcDbCircle
 62
253
  6
CONTINUOUS
 10
-22.25
 20
57.75
 40
0.4038626693
100
AcDbArc
 50
90.0
 51
180.0
  0
ARC
  5
474
100
AcDbEntity
  8
0
100
AcDbCircle
 62
7
  6
CONTINUOUS
 10
-22.25
 20
84.25
 40
0.3
100
AcDbArc
 50
180.0
 51
270.0
  0
ARC
  5
475
100
AcDbEntity
  8
0
100
AcDbCircle
 62
7
  6
CONTINUOUS
 10
-22.25
 20
128.75
 40
0.3
100
AcDbArc
 50
90.0
 51
180.0
  0
ARC
  5
476
100
AcDbEntity
  8
0
100
AcDbCircle
 62
7
  6
CONTINUOUS
 10
-22.25
 20
13.25
 40
0.3
100
AcDbArc
 50
180.0
 51
270.0
  0
ARC
  5
477
100
AcDbEntity
  8
0
100
AcDbCircle
 62
7
  6
CONTINUOUS
 10
-22.25
 20
57.75
 40
0.3
100
AcDbArc
 50
90.0
 51
180.0
  0
ARC
  5
478
100
AcDbEntity
  8
RACCORDO
100
AcDbCircle
 62
253
  6
CONTINUOUS
 10
378.6848940004
 20
-135.7809952544
 40
356.4702821287
100
AcDbArc
 50
179.192656497
 51
179.4464833116
  0
ARC
  5
479
100
AcDbEntity
  8
RACCORDO
100
AcDbCircle
 62
253
  6
CONTINUOUS
 10
29.2575545598
 20
-420.6019516422
 40
291.8947306617
100
AcDbArc
 50
90.672216982
 51
90.9809462697
  0
ARC
  5
47A
100
AcDbEntity
  8
RACCORDO
100
AcDbCircle
 62
253
  6
CONTINUOUS
 10
22.25
 20
-13.25
 40
3.6690890731
100
AcDbArc
 50
70.1245941799
 51
90.0
  0
ARC
  5
47B
100
AcDbEntity
  8
RACCORDO
100
AcDbCircle
 62
253
  6
CONTINUOUS
 10
22.25
 20
-57.75
 40
3.6690890731
100
AcDbArc
 50
270.0
 51
289.875435787
  0
ARC
  5
47C
100
AcDbEntity
  8
RACCORDO
100
AcDbCircle
 62
253
  6
CONTINUOUS
 10
22.25
 20
-84.25
 40
3.6690890731
100
AcDbArc
 50
70.1245941799
 51
90.0
  0
ARC
  5
47D
100
AcDbEntity
  8
SUPERFICI
100
AcDbCircle
 62
7
  6
CONTINUOUS
 10
37.0
 20
-143.5
 40
3.0
100
AcDbArc
 50
270.0
 51
360.0
  0
ARC
  5
47E
100
AcDbEntity
  8
RACCORDO
100
AcDbCircle
 62
253
  6
CONTINUOUS
 10
37.0034127935
 20
-143.5041973784
 40
2.7326012544
100
AcDbArc
 50
269.9273317671
 51
0.0880090438
  0
ARC
  5
47F
100
AcDbEntity
  8
RACCORDO
100
AcDbCircle
 62
253
  6
CONTINUOUS
 10
22.25
 20
-57.75
 40
1.9673152938
100
AcDbArc
 50
270.0
 51
289.8754866725
  0
ARC
  5
480
100
AcDbEntity
  8
RACCORDO
100
AcDbCircle
 62
253
  6
CONTINUOUS
 10
22.25
 20
-13.25
 40
1.9673152938
100
AcDbArc
 50
70.1245133275
 51
90.0
  0
ARC
  5
481
100
AcDbEntity
  8
RACCORDO
100
AcDbCircle
 62
253
  6
CONTINUOUS
 10
22.25
 20
-84.25
 40
1.9673152938
100
AcDbArc
 50
70.1245133275
 51
90.0
  0
ARC
  5
482
100
AcDbEntity
  8
0
100
AcDbCircle
 62
253
  6
CONTINUOUS
 10
22.25
 20
-57.75
 40
0.4038626693
100
AcDbArc
 50
270.0
 51
360.0
  0
ARC
  5
483
100
AcDbEntity
  8
0
100
AcDbCircle
 62
253
  6
CONTINUOUS
 10
22.25
 20
-13.25
 40
0.4038626693
100
AcDbArc
 50
0.0
 51
90.0
  0
ARC
  5
484
100
AcDbEntity
  8
0
100
AcDbCircle
 62
253
  6
CONTINUOUS
 10
22.25
 20
-128.75
 40
0.4038626693
100
AcDbArc
 50
270.0
 51
360.0
  0
ARC
  5
485
100
AcDbEntity
  8
0
100
AcDbCircle
 62
253
  6
CONTINUOUS
 10
22.25
 20
-84.25
 40
0.4038626693
100
AcDbArc
 50
0.0
 51
90.0
  0
ARC
  5
486
100
AcDbEntity
  8
0
100
AcDbCircle
 62
7
  6
CONTINUOUS
 10
22.25
 20
-57.75
 40
0.3
100
AcDbArc
 50
270.0
 51
360.0
  0
ARC
  5
487
100
AcDbEntity
  8
0
100
AcDbCircle
 62
7
  6
CONTINUOUS
 10
22.25
 20
-13.25
 40
0.3
100
AcDbArc
 50
0.0
 51
90.0
  0
ARC
  5
488
100
AcDbEntity
  8
0
100
AcDbCircle
 62
7
  6
CONTINUOUS
 10
22.25
 20
-128.75
 40
0.3
100
AcDbArc
 50
270.0
 51
360.0
  0
ARC
  5
489
100
AcDbEntity
  8
0
100
AcDbCircle
 62
7
  6
CONTINUOUS
 10
22.25
 20
-84.25
 40
0.3
100
AcDbArc
 50
0.0
 51
90.0
  0
ARC
  5
48A
100
AcDbEntity
  8
RACCORDO
100
AcDbCircle
 62
253
  6
CONTINUOUS
 10
378.7207261416
 20
135.7814203561
 40
356.5061167023
100
AcDbArc
 50
180.5535293686
 51
180.8073306716
  0
ARC
  5
48B
100
AcDbEntity
  8
RACCORDO
100
AcDbCircle
 62
253
  6
CONTINUOUS
 10
29.2568178546
 20
420.5509256168
 40
291.8436995019
100
AcDbArc
 50
269.0190268452
 51
269.327810119
  0
ARC
  5
48C
100
AcDbEntity
  8
RACCORDO
100
AcDbCircle
 62
253
  6
CONTINUOUS
 10
22.25
 20
84.25
 40
3.6690890731
100
AcDbArc
 50
270.0
 51
289.875435787
  0
ARC
  5
48D
100
AcDbEntity
  8
RACCORDO
100
AcDbCircle
 62
253
  6
CONTINUOUS
 10
22.25
 20
57.75
 40
3.6690890731
100
AcDbArc
 50
70.1245941799
 51
90.0
  0
ARC
  5
48E
100
AcDbEntity
  8
RACCORDO
100
AcDbCircle
 62
253
  6
CONTINUOUS
 10
22.25
 20
13.25
 40
3.6690890731
100
AcDbArc
 50
270.0
 51
289.875435787
  0
ARC
  5
48F
100
AcDbEntity
  8
SUPERFICI
100
AcDbCircle
 62
7
  6
CONTINUOUS
 10
37.0
 20
143.5
 40
3.0
100
AcDbArc
 50
0.0
 51
90.0
  0
ARC
  5
490
100
AcDbEntity
  8
RACCORDO
100
AcDbCircle
 62
253
  6
CONTINUOUS
 10
37.0034128864
 20
143.5041973306
 40
2.732601226
100
AcDbArc
 50
359.9108777324
 51
90.07155933
  0
ARC
  5
491
100
AcDbEntity
  8
RACCORDO
100
AcDbCircle
 62
253
  6
CONTINUOUS
 10
22.25
 20
84.25
 40
1.9673152938
100
AcDbArc
 50
270.0
 51
289.8754866725
  0
ARC
  5
492
100
AcDbEntity
  8
RACCORDO
100
AcDbCircle
 62
253
  6
CONTINUOUS
 10
22.25
 20
13.25
 40
1.9673152938
100
AcDbArc
 50
270.0
 51
289.8754866725
  0
ARC
  5
493
100
AcDbEntity
  8
RACCORDO
100
AcDbCircle
 62
253
  6
CONTINUOUS
 10
22.25
 20
57.75
 40
1.9673152938
100
AcDbArc
 50
70.1245133275
 51
90.0
  0
ARC
  5
494
100
AcDbEntity
  8
0
100
AcDbCircle
 62
253
  6
CONTINUOUS
 10
22.25
 20
84.25
 40
0.4038626693
100
AcDbArc
 50
270.0
 51
360.0
  0
ARC
  5
495
100
AcDbEntity
  8
0
100
AcDbCircle
 62
253
  6
CONTINUOUS
 10
22.25
 20
128.75
 40
0.4038626693
100
AcDbArc
 50
0.0
 51
90.0
  0
ARC
  5
496
100
AcDbEntity
  8
0
100
AcDbCircle
 62
253
  6
CONTINUOUS
 10
22.25
 20
13.25
 40
0.4038626693
100
AcDbArc
 50
270.0
 51
360.0
  0
ARC
  5
497
100
AcDbEntity
  8
0
100
AcDbCircle
 62
253
  6
CONTINUOUS
 10
22.25
 20
57.75
 40
0.4038626693
100
AcDbArc
 50
0.0
 51
90.0
  0
ARC
  5
498
100
AcDbEntity
  8
0
100
AcDbCircle
 62
7
  6
CONTINUOUS
 10
22.25
 20
84.25
 40
0.3
100
AcDbArc
 50
270.0
 51
360.0
  0
ARC
  5
499
100
AcDbEntity
  8
0
100
AcDbCircle
 62
7
  6
CONTINUOUS
 10
22.25
 20
128.75
 40
0.3
100
AcDbArc
 50
0.0
 51
90.0
  0
ARC
  5
49A
100
AcDbEntity
  8
0
100
AcDbCircle
 62
7
  6
CONTINUOUS
 10
22.25
 20
13.25
 40
0.3
100
AcDbArc
 50
270.0
 51
360.0
  0
ARC
  5
49B
100
AcDbEntity
  8
0
100
AcDbCircle
 62
7
  6
CONTINUOUS
 10
22.25
 20
57.75
 40
0.3
100
AcDbArc
 50
0.0
 51
90.0
  0
ARC
  5
49C
100
AcDbEntity
  8
RACCORDO
100
AcDbCircle
 62
7
  6
CONTINUOUS
 10
-83.0597112043
 20
-80.5809109269
 40
3.0
100
AcDbArc
 50
325.4407668808
 51
360.0
  0
ARC
  5
49D
100
AcDbEntity
  8
RACCORDO
100
AcDbCircle
 62
7
  6
CONTINUOUS
 10
-83.0597112043
 20
-61.4190890731
 40
3.0
100
AcDbArc
 50
0.0
 51
34.5592331192
  0
ARC
  5
49E
100
AcDbEntity
  8
RACCORDO
100
AcDbCircle
 62
7
  6
CONTINUOUS
 10
-83.0597112043
 20
-9.5809109269
 40
3.0
100
AcDbArc
 50
325.4407668808
 51
360.0
  0
ARC
  5
49F
100
AcDbEntity
  8
RACCORDO
100
AcDbCircle
 62
7
  6
CONTINUOUS
 10
-82.9542827546
 20
-132.5650079349
 40
2.9999999981
100
AcDbArc
 50
37.0321099063
 51
37.1380579186
  0
ARC
  5
4A0
100
AcDbEntity
  8
RACCORDO
100
AcDbCircle
 62
253
  6
CONTINUOUS
 10
-82.9405630713
 20
-132.5824491599
 40
2.999654364
100
AcDbArc
 50
4.6877641015
 51
37.4558597985
  0
ARC
  5
4A1
100
AcDbEntity
  8
0
100
AcDbCircle
 62
7
  6
CONTINUOUS
 10
-79.7655504434
 20
-59.1500573674
 40
1.0
100
AcDbArc
 50
180.0
 51
214.5592331192
  0
ARC
  5
4A2
100
AcDbEntity
  8
RACCORDO
100
AcDbCircle
 62
7
  6
CONTINUOUS
 10
-79.7655504434
 20
-59.1500573674
 40
1.0
100
AcDbArc
 50
180.0
 51
214.5592331192
  0
ARC
  5
4A3
100
AcDbEntity
  8
0
100
AcDbCircle
 62
7
  6
CONTINUOUS
 10
-79.7655504434
 20
-11.8499426326
 40
1.0
100
AcDbArc
 50
145.4407668808
 51
180.0
  0
ARC
  5
4A4
100
AcDbEntity
  8
RACCORDO
100
AcDbCircle
 62
7
  6
CONTINUOUS
 10
-79.7655504434
 20
-11.8499426326
 40
1.0
100
AcDbArc
 50
145.4407668808
 51
180.0
  0
ARC
  5
4A5
100
AcDbEntity
  8
0
100
AcDbCircle
 62
7
  6
CONTINUOUS
 10
-79.7655504434
 20
-130.1500573674
 40
1.0
100
AcDbArc
 50
180.0
 51
217.4559875559
  0
ARC
  5
4A6
100
AcDbEntity
  8
RACCORDO
100
AcDbCircle
 62
7
  6
CONTINUOUS
 10
-79.7655504434
 20
-130.1500573674
 40
1.0
100
AcDbArc
 50
180.0
 51
217.4559875175
  0
ARC
  5
4A7
100
AcDbEntity
  8
0
100
AcDbCircle
 62
7
  6
CONTINUOUS
 10
-79.7655504434
 20
-82.8499426326
 40
1.0
100
AcDbArc
 50
145.4407668808
 51
180.0
  0
ARC
  5
4A8
100
AcDbEntity
  8
RACCORDO
100
AcDbCircle
 62
7
  6
CONTINUOUS
 10
-79.7655504434
 20
-82.8499426326
 40
1.0
100
AcDbArc
 50
145.4407668808
 51
180.0
  0
ARC
  5
4A9
100
AcDbEntity
  8
RACCORDO
100
AcDbCircle
 62
7
  6
CONTINUOUS
 10
-83.0597112043
 20
9.5809109269
 40
3.0
100
AcDbArc
 50
0.0
 51
34.5592331192
  0
ARC
  5
4AA
100
AcDbEntity
  8
RACCORDO
100
AcDbCircle
 62
7
  6
CONTINUOUS
 10
-83.0597112043
 20
61.4190890731
 40
3.0
100
AcDbArc
 50
325.4407668808
 51
360.0
  0
ARC
  5
4AB
100
AcDbEntity
  8
RACCORDO
100
AcDbCircle
 62
7
  6
CONTINUOUS
 10
-82.9542827346
 20
132.5650079621
 40
3.0
100
AcDbArc
 50
322.8619414375
 51
322.9678894759
  0
ARC
  5
4AC
100
AcDbEntity
  8
RACCORDO
100
AcDbCircle
 62
7
  6
CONTINUOUS
 10
-83.0597112043
 20
80.5809109269
 40
3.0
100
AcDbArc
 50
0.0
 51
34.5592331192
  0
ARC
  5
4AD
100
AcDbEntity
  8
RACCORDO
100
AcDbCircle
 62
253
  6
CONTINUOUS
 10
-82.9405633814
 20
132.5824487318
 40
2.9996543293
100
AcDbArc
 50
322.544150296
 51
355.312244534
  0
ARC
  5
4AE
100
AcDbEntity
  8
0
100
AcDbCircle
 62
7
  6
CONTINUOUS
 10
-79.7655504434
 20
82.8499426326
 40
1.0
100
AcDbArc
 50
180.0
 51
214.5592331192
  0
ARC
  5
4AF
100
AcDbEntity
  8
RACCORDO
100
AcDbCircle
 62
7
  6
CONTINUOUS
 10
-79.7655504434
 20
82.8499426326
 40
1.0
100
AcDbArc
 50
180.0
 51
214.5592331192
  0
ARC
  5
4B0
100
AcDbEntity
  8
0
100
AcDbCircle
 62
7
  6
CONTINUOUS
 10
-79.7655504434
 20
130.1500573674
 40
1.0
100
AcDbArc
 50
142.5440123431
 51
180.0
  0
ARC
  5
4B1
100
AcDbEntity
  8
RACCORDO
100
AcDbCircle
 62
7
  6
CONTINUOUS
 10
-79.7655504434
 20
130.1500573674
 40
1.0
100
AcDbArc
 50
142.5440124044
 51
180.0
  0
ARC
  5
4B2
100
AcDbEntity
  8
0
100
AcDbCircle
 62
7
  6
CONTINUOUS
 10
-79.7655504434
 20
11.8499426326
 40
1.0
100
AcDbArc
 50
180.0
 51
214.5592331192
  0
ARC
  5
4B3
100
AcDbEntity
  8
RACCORDO
100
AcDbCircle
 62
7
  6
CONTINUOUS
 10
-79.7655504434
 20
11.8499426326
 40
1.0
100
AcDbArc
 50
180.0
 51
214.5592331192
  0
ARC
  5
4B4
100
AcDbEntity
  8
0
100
AcDbCircle
 62
7
  6
CONTINUOUS
 10
-79.7655504434
 20
59.1500573674
 40
1.0
100
AcDbArc
 50
145.4407668808
 51
180.0
  0
ARC
  5
4B5
100
AcDbEntity
  8
RACCORDO
100
AcDbCircle
 62
7
  6
CONTINUOUS
 10
-79.7655504434
 20
59.1500573674
 40
1.0
100
AcDbArc
 50
145.4407668808
 51
180.0
  0
ARC
  5
4B6
100
AcDbEntity
  8
RACCORDO
100
AcDbCircle
 62
7
  6
CONTINUOUS
 10
-76.2773673872
 20
-145.2294159964
 40
1.0
100
AcDbArc
 50
263.5942191466
 51
266.8000000949
  0
ARC
  5
4B7
100
AcDbEntity
  8
RACCORDO
100
AcDbCircle
 62
253
  6
CONTINUOUS
 10
-76.1169812892
 20
-145.2389356603
 40
0.9994623733
100
AcDbArc
 50
187.7548908742
 51
266.7834760869
  0
ARC
  5
4B8
100
AcDbEntity
  8
RACCORDO
100
AcDbCircle
 62
7
  6
CONTINUOUS
 10
-76.2773673857
 20
145.2294159964
 40
1.0
100
AcDbArc
 50
93.1999999869
 51
96.4057809364
  0
ARC
  5
4B9
100
AcDbEntity
  8
RACCORDO
100
AcDbCircle
 62
253
  6
CONTINUOUS
 10
-76.1169809541
 20
145.2389375202
 40
0.9994627592
100
AcDbArc
 50
93.2165490408
 51
172.2452173565
  0
SPLINE
  5
4BA
100
AcDbEntity
  8
RACCORDO
100
AcDbSpline
 62
253
  6
CONTINUOUS
 70
0
 71
3
 72
18
 73
14
 74
12
 42
0.0000001
 43
0.0000001
 44
0.0000000001
 12
-0.0063267331
 22
-0.8648357528
 32
0.0
 13
-0.4873578683
 23
-0.7144670846
 33
0.0
 40
0.0
 40
0.0
 40
0.0
 40
0.0
 40
0.1942055209
 40
0.3780301333
 40
0.5460352348
 40
0.6932547008
 40
0.8153459207
 40
0.8658150132
 40
0.9087312254
 40
0.9437801634
 40
0.9707391124
 40
0.9894577473
 40
1.0
 40
1.0
 40
1.0
 40
1.0
 10
37.0373529036
 20
-145.3738009839
 30
0.0
 10
37.0369433414
 20
-145.4297862765
 30
0.0
 10
37.035791848
 20
-145.5387621455
 30
0.0
 10
37.0330103182
 20
-145.6961532629
 30
0.0
 10
37.0292995245
 20
-145.8399770145
 30
0.0
 10
37.0247742185
 20
-145.9659687048
 30
0.0
 10
37.0202457302
 20
-146.0580539806
 30
0.0
 10
37.0161498715
 20
-146.120034504
 30
0.0
 10
37.0131868962
 20
-146.1569539365
 30
0.0
 10
37.0101227765
 20
-146.1870205678
 30
0.0
 10
37.0071283123
 20
-146.2101763031
 30
0.0
 10
37.003998286
 20
-146.2259459797
 30
0.0
 10
37.0017126165
 20
-146.2342965418
 30
0.0
 10
36.9999999999
 20
-146.2368072393
 30
0.0
 11
37.0373529036
 21
-145.3738009839
 31
0.0
 11
37.0355558988
 21
-145.5417517426
 31
0.0
 11
37.0327048262
 21
-145.700708527
 31
0.0
 11
37.0288842063
 21
-145.8459589938
 31
0.0
 11
37.0242073023
 21
-145.9731971327
 31
0.0
 11
37.0188127628
 21
-146.0786509202
 31
0.0
 11
37.0158955213
 21
-146.1222019681
 31
0.0
 11
37.0128605108
 21
-146.1591941416
 31
0.0
 11
37.0097302009
 21
-146.1893444632
 31
0.0
 11
37.0065270034
 21
-146.2124390681
 31
0.0
 11
37.0032743734
 21
-146.2282979269
 31
0.0
 11
36.9999999999
 21
-146.2368072393
 31
0.0
  0
SPLINE
  5
4BB
100
AcDbEntity
  8
RACCORDO
100
AcDbSpline
 62
253
  6
CONTINUOUS
 70
0
 71
3
 72
18
 73
14
 74
12
 42
0.0000001
 43
0.0000001
 44
0.0000000001
 12
0.863450462
 22
0.0091008779
 32
0.0
 13
0.6206524503
 23
0.6003499499
 33
0.0
 40
0.0
 40
0.0
 40
0.0
 40
0.0
 40
0.1939439158
 40
0.3774654529
 40
0.5451709102
 40
0.6921403291
 40
0.8140802954
 40
0.8645296857
 40
0.9074759009
 40
0.94261955
 40
0.9697636092
 40
0.9888137139
 40
1.0
 40
1.0
 40
1.0
 40
1.0
 10
38.8761261126
 20
-143.552896823
 30
0.0
 10
38.9319464339
 20
-143.5523084697
 30
0.0
 10
39.040582986
 20
-143.5506637309
 30
0.0
 10
39.1974537863
 20
-143.5467099711
 30
0.0
 10
39.340759242
 20
-143.5414466059
 30
0.0
 10
39.4662703735
 20
-143.5350373335
 30
0.0
 10
39.5579827688
 20
-143.5286248051
 30
0.0
 10
39.6196898848
 20
-143.5228354104
 30
0.0
 10
39.6564644777
 20
-143.5186342898
 30
0.0
 10
39.6864168168
 20
-143.5143218587
 30
0.0
 10
39.7095277099
 20
-143.5100157898
 30
0.0
 10
39.7253048104
 20
-143.5056848475
 30
0.0
 10
39.733638505
 20
-143.5022385621
 30
0.0
 10
39.7359527703
 20
-143.5
 30
0.0
 11
38.8761261126
 21
-143.552896823
 31
0.0
 11
39.0435767034
 21
-143.5503298311
 31
0.0
 11
39.2019954438
 21
-143.5462776218
 31
0.0
 11
39.3467074583
 21
-143.5408597746
 31
0.0
 11
39.4734423514
 21
-143.5342361686
 31
0.0
 11
39.5784602257
 21
-143.5266022643
 31
0.0
 11
39.6218273049
 21
-143.5224756789
 31
0.0
 11
39.6586620444
 21
-143.5181833358
 31
0.0
 11
39.6886839626
 21
-143.5137568686
 31
0.0
 11
39.711681083
 21
-143.509227823
 31
0.0
 11
39.7274749603
 21
-143.5046292111
 31
0.0
 11
39.7359527703
 21
-143.5
 31
0.0
  0
SPLINE
  5
4BC
100
AcDbEntity
  8
RACCORDO
100
AcDbSpline
 62
253
  6
CONTINUOUS
 70
0
 71
3
 72
32
 73
28
 74
26
 42
0.0000001
 43
0.0000001
 44
0.0000000001
 12
25.2766883485
 22
-0.7843417957
 32
0.0
 13
25.2888545327
 23
0.0015315486
 33
0.0
 40
0.0
 40
0.0
 40
0.0
 40
0.0
 40
0.0078092699
 40
0.0156202072
 40
0.0195261754
 40
0.0234323854
 40
0.0273385484
 40
0.0312447114
 40
0.0390570134
 40
0.0468693176
 40
0.0624938895
 40
0.0781184279
 40
0.0937429376
 40
0.1249919342
 40
0.1562410385
 40
0.171865603
 40
0.1874900037
 40
0.2187387784
 40
0.2499882082
 40
0.3124879177
 40
0.374987808
 40
0.4374880975
 40
0.4999889005
 40
0.6249913619
 40
0.7499942249
 40
0.8749970999
 40
1.0
 40
1.0
 40
1.0
 40
1.0
 10
-37.0373529125
 20
-145.3738010161
 30
0.0
 10
-36.9715554185
 20
-145.3758427284
 30
0.0
 10
-36.8399563189
 20
-145.3802336301
 30
0.0
 10
-36.6754642822
 20
-145.3861919742
 30
0.0
 10
-36.5438857312
 20
-145.3917457964
 30
0.0
 10
-36.4452298116
 20
-145.3968926536
 30
0.0
 10
-36.3464508507
 20
-145.3986564289
 30
0.0
 10
-36.2147524211
 20
-145.4001018902
 30
0.0
 10
-36.050126048
 20
-145.4021064789
 30
0.0
 10
-35.7867294301
 20
-145.4054626727
 30
0.0
 10
-35.4574830439
 20
-145.4096594316
 30
0.0
 10
-35.0623913913
 20
-145.4149173088
 30
0.0
 10
-34.5356057529
 20
-145.4221064397
 30
0.0
 10
-33.8771281678
 20
-145.4314476811
 30
0.0
 10
-33.2186579757
 20
-145.4413274269
 30
0.0
 10
-32.6918736616
 20
-145.4486336237
 30
0.0
 10
-32.1650740076
 20
-145.454593032
 30
0.0
 10
-31.5066333656
 20
-145.4664254848
 30
0.0
 10
-30.4530982349
 20
-145.4842235995
 30
0.0
 10
-29.1360538049
 20
-145.4988529998
 30
0.0
 10
-27.555617075
 20
-145.5178257329
 30
0.0
 10
-25.9751556182
 20
-145.5357099451
 30
0.0
 10
-23.8678134312
 20
-145.555588751
 30
0.0
 10
-21.2335339793
 20
-145.5702050951
 30
0.0
 10
-18.072351654
 20
-145.5729817605
 30
0.0
 10
-14.9111776368
 20
-145.5670016408
 30
0.0
 10
-12.8037267192
 20
-145.5629345587
 30
0.0
 10
-11.75
 20
-145.5628707427
 30
0.0
 11
-37.0373529125
 21
-145.3738010161
 31
0.0
 11
-36.8399732773
 21
-145.3803270288
 31
0.0
 11
-36.6425792482
 21
-145.3876456909
 31
0.0
 11
-36.5438938428
 21
-145.3919092215
 31
0.0
 11
-36.4452091826
 21
-145.3963288051
 31
0.0
 11
-36.3464516156
 21
-145.3985431505
 31
0.0
 11
-36.2476766451
 21
-145.3997537108
 31
0.0
 11
-36.0501267088
 21
-145.4021250858
 31
0.0
 11
-35.8525782842
 21
-145.4046237287
 31
0.0
 11
-35.4574833219
 21
-145.4096963978
 31
0.0
 11
-35.0623914314
 21
-145.4149396422
 31
0.0
 11
-34.6673022867
 21
-145.4203328145
 31
0.0
 11
-33.8771306458
 21
-145.4315553674
 31
0.0
 11
-33.0869609848
 21
-145.4431041792
 31
0.0
 11
-32.6918700158
 21
-145.4484652968
 31
0.0
 11
-32.2967775774
 21
-145.4533953937
 31
0.0
 11
-31.5066369629
 21
-145.466283631
 31
0.0
 11
-30.7164813225
 21
-145.4792660691
 31
0.0
 11
-29.1360595744
 21
-145.4990892072
 31
0.0
 11
-27.5556178548
 21
-145.5176442557
 31
0.0
 11
-25.975154779
 21
-145.5352140248
 31
0.0
 11
-24.3946496347
 21
-145.5499368428
 31
0.0
 11
-21.2335307233
 21
-145.5677445877
 31
0.0
 11
-18.0723537551
 21
-145.5715222959
 31
0.0
 11
-14.9111774905
 21
-145.5669815573
 31
0.0
 11
-11.75
 21
-145.5628707427
 31
0.0
  0
SPLINE
  5
4BD
100
AcDbEntity
  8
RACCORDO
100
AcDbSpline
 62
253
  6
CONTINUOUS
 70
0
 71
3
 72
15
 73
11
 74
9
 42
0.0000001
 43
0.0000001
 44
0.0000000001
 12
0.099683639
 22
-2.8407122026
 32
0.0
 13
2.8410901204
 23
-0.0882585612
 33
0.0
 40
0.0
 40
0.0
 40
0.0
 40
0.0
 40
0.1249222652
 40
0.2499024839
 40
0.3749159537
 40
0.4999442331
 40
0.6249766446
 40
0.7500046708
 40
0.8750159422
 40
1.0
 40
1.0
 40
1.0
 40
1.0
 10
-38.876126114
 20
-143.5528968235
 30
0.0
 10
-38.871975212
 20
-143.6711862246
 30
0.0
 10
-38.8403653736
 20
-143.9076067216
 30
0.0
 10
-38.7268344777
 20
-144.2463182772
 30
0.0
 10
-38.5520510002
 20
-144.5581017632
 30
0.0
 10
-38.3223900709
 20
-144.831998727
 30
0.0
 10
-38.0459338067
 20
-145.0585897766
 30
0.0
 10
-37.7322495022
 20
-145.2300046365
 30
0.0
 10
-37.3923675706
 20
-145.3402298394
 30
0.0
 10
-37.1557165698
 20
-145.3701240451
 30
0.0
 10
-37.0373529125
 20
-145.3738010161
 30
0.0
 11
-38.876126114
 21
-143.5528968235
 31
0.0
 11
-38.8293615971
 21
-143.9048905613
 31
0.0
 11
-38.7166447027
 21
-144.2417858381
 31
0.0
 11
-38.5429170787
 21
-144.5517687418
 31
0.0
 11
-38.3145950735
 21
-144.8241098307
 31
0.0
 11
-38.0397232806
 21
-145.0493973196
 31
0.0
 11
-37.7278614774
 21
-145.2198153668
 31
0.0
 11
-37.3898220106
 21
-145.3293396372
 31
0.0
 11
-37.0373529125
 21
-145.3738010161
 31
0.0
  0
SPLINE
  5
4BE
100
AcDbEntity
  8
RACCORDO
100
AcDbSpline
 62
253
  6
CONTINUOUS
 70
0
 71
3
 72
15
 73
11
 74
9
 42
0.0000001
 43
0.0000001
 44
0.0000000001
 12
0.1115213317
 22
-36.9998320731
 32
0.0
 13
-0.0000126987
 23
-37.0000001412
 33
0.0
 40
0.0
 40
0.0
 40
0.0
 40
0.0
 40
0.0624794655
 40
0.1249766995
 40
0.1874762094
 40
0.2499773612
 40
0.3749808695
 40
0.4999845636
 40
0.7499922173
 40
1.0
 40
1.0
 40
1.0
 40
1.0
 10
-39.735952773
 20
143.5000000636
 30
0.0
 10
-39.7336301752
 20
142.7294234867
 30
0.0
 10
-39.7331847772
 20
141.1880416896
 30
0.0
 10
-39.7312387779
 20
138.8758368655
 30
0.0
 10
-39.7301793156
 20
136.5633627484
 30
0.0
 10
-39.7293679999
 20
133.4799781608
 30
0.0
 10
-39.7289795531
 20
129.6257084088
 30
0.0
 10
-39.7283155042
 20
123.4588585501
 30
0.0
 10
-39.7279178859
 20
115.7502892387
 30
0.0
 10
-39.7278533351
 20
109.5834321695
 30
0.0
 10
-39.7278543933
 20
106.5000028372
 30
0.0
 11
-39.735952773
 21
143.5000000636
 31
0.0
 11
-39.7329719367
 21
141.1882617539
 31
0.0
 11
-39.7313865876
 21
138.8758646298
 31
0.0
 11
-39.7302544895
 21
136.5633830321
 31
0.0
 11
-39.7296125463
 21
134.2508404964
 31
0.0
 11
-39.7289742368
 21
129.6257107143
 31
0.0
 11
-39.7285103463
 21
125.0005740371
 31
0.0
 11
-39.727981272
 21
115.7502908331
 31
0.0
 11
-39.7278543933
 21
106.5000028372
 31
0.0
  0
SPLINE
  5
4BF
100
AcDbEntity
  8
RACCORDO
100
AcDbSpline
 62
253
  6
CONTINUOUS
 70
0
 71
3
 72
35
 73
31
 74
29
 42
0.0000001
 43
0.0000001
 44
0.0000000001
 12
0.0002202935
 22
37.0550500705
 32
0.0
 13
-1.2979707042
 23
37.0323103226
 33
0.0
 40
0.0
 40
0.0
 40
0.0
 40
0.0
 40
0.2500047365
 40
0.3750070944
 40
0.50000943
 40
0.5625105854
 40
0.6250117286
 40
0.6875128581
 40
0.7187634164
 40
0.7500139618
 40
0.8125148354
 40
0.843765066
 40
0.8750150212
 40
0.8906398649
 40
0.9062646105
 40
0.9218892646
 40
0.9375138439
 40
0.9453261108
 40
0.9531383626
 40
0.9570444851
 40
0.9609506118
 40
0.9648567386
 40
0.9687628303
 40
0.9726686925
 40
0.9746218611
 40
0.9765749883
 40
0.9804810013
 40
0.9843864004
 40
0.9921948547
 40
1.0
 40
1.0
 40
1.0
 40
1.0
 10
39.0629215791
 20
106.4999999984
 30
0.0
 10
39.0629399373
 20
109.5879793419
 30
0.0
 10
39.0620302092
 20
114.2199486327
 30
0.0
 10
39.0565329815
 20
120.3959045977
 30
0.0
 10
39.0509613917
 20
124.255874108
 30
0.0
 10
39.0451033325
 20
127.3438466788
 30
0.0
 10
39.0398876895
 20
129.6598238288
 30
0.0
 10
39.0350535146
 20
131.5898032468
 30
0.0
 10
39.030605612
 20
133.1337850022
 30
0.0
 10
39.0245094164
 20
134.6777580007
 30
0.0
 10
39.0140963562
 20
136.2217094345
 30
0.0
 10
38.9981344379
 20
137.7656017522
 30
0.0
 10
38.9859150034
 20
138.7305007902
 30
0.0
 10
38.9751052956
 20
139.5023997161
 30
0.0
 10
38.9666919144
 20
140.0813144111
 30
0.0
 10
38.9581159769
 20
140.6602234544
 30
0.0
 10
38.9509484017
 20
141.1426454477
 30
0.0
 10
38.945168957
 20
141.5285812389
 30
0.0
 10
38.9416217731
 20
141.7697912085
 30
0.0
 10
38.938867009
 20
141.9627609614
 30
0.0
 10
38.9367041794
 20
142.1074848882
 30
0.0
 10
38.9342577602
 20
142.2522117272
 30
0.0
 10
38.932266883
 20
142.3969134154
 30
0.0
 10
38.9322784149
 20
142.5176104145
 30
0.0
 10
38.9251309061
 20
142.6138671354
 30
0.0
 10
38.9177840331
 20
142.7100750416
 30
0.0
 10
38.909194839
 20
142.8303835296
 30
0.0
 10
38.8980625313
 20
143.0229964488
 30
0.0
 10
38.8868038566
 20
143.2638319294
 30
0.0
 10
38.879503064
 20
143.4565493027
 30
0.0
 10
38.876126114
 20
143.5528968235
 30
0.0
 11
39.0629215791
 21
106.4999999984
 31
0.0
 11
39.0602988806
 21
115.763937658
 31
0.0
 11
39.0561058166
 21
120.3959043901
 31
0.0
 11
39.0493801441
 21
125.0278673128
 31
0.0
 11
39.0449663156
 21
127.3438465462
 31
0.0
 11
39.0397901278
 21
129.659823754
 31
0.0
 11
39.0338931582
 21
131.9757987292
 31
0.0
 11
39.0303995733
 21
133.1337844613
 31
0.0
 11
39.0256737148
 21
134.2917653442
 31
0.0
 11
39.009643422
 21
136.6076828652
 31
0.0
 11
38.9976857343
 21
137.7655999833
 31
0.0
 11
38.9831263519
 21
138.9234771078
 31
0.0
 11
38.9750542495
 21
139.5024001981
 31
0.0
 11
38.9666647971
 21
140.0813151428
 31
0.0
 11
38.9581117656
 21
140.6602243048
 31
0.0
 11
38.9494997499
 21
141.2391298175
 31
0.0
 11
38.9451819463
 21
141.5285815579
 31
0.0
 11
38.9409399964
 21
141.8180338561
 31
0.0
 11
38.9388508837
 21
141.9627603457
 31
0.0
 11
38.9366569134
 21
142.1074854351
 31
0.0
 11
38.9343336696
 21
142.252208513
 31
0.0
 11
38.9326009786
 21
142.3969385656
 31
0.0
 11
38.9298953719
 21
142.5416451943
 31
0.0
 11
38.9251059636
 21
142.6138613101
 31
0.0
 11
38.9196601508
 21
142.6860293592
 31
0.0
 11
38.9095203388
 21
142.8304112487
 31
0.0
 11
38.9010211906
 21
142.974876213
 31
0.0
 11
38.8872284348
 21
143.2638899455
 31
0.0
 11
38.876126114
 21
143.5528968235
 31
0.0
  0
SPLINE
  5
4C0
100
AcDbEntity
  8
RACCORDO
100
AcDbSpline
 62
253
  6
CONTINUOUS
 70
0
 71
3
 72
15
 73
11
 74
9
 42
0.0000001
 43
0.0000001
 44
0.0000000001
 12
-0.0002439346
 22
22.227332737
 32
0.0
 13
-0.0264833947
 23
22.2273169611
 33
0.0
 40
0.0
 40
0.0
 40
0.0
 40
0.0
 40
0.2500002378
 40
0.5000004662
 40
0.6250005661
 40
0.7500006327
 40
0.8125006535
 40
0.8750006742
 40
0.9375006308
 40
1.0
 40
1.0
 40
1.0
 40
1.0
 10
25.8563908699
 20
106.4999999995
 30
0.0
 10
25.856370542
 20
108.3522794892
 30
0.0
 10
25.8569125347
 20
112.056838381
 30
0.0
 10
25.8550230214
 20
116.6875369658
 30
0.0
 10
25.8510598366
 20
120.3920934228
 30
0.0
 10
25.8470383997
 20
122.7074386429
 30
0.0
 10
25.8427125936
 20
124.5597123262
 30
0.0
 10
25.8381341266
 20
125.9489131022
 30
0.0
 10
25.834572688
 20
127.3381123656
 30
0.0
 10
25.8335592608
 20
128.2642458615
 30
0.0
 10
25.833007529
 20
128.7273102911
 30
0.0
 11
25.8563908699
 21
106.4999999995
 31
0.0
 11
25.8563991338
 21
112.0568384689
 31
0.0
 11
25.8538279271
 21
117.6136761359
 31
0.0
 11
25.8507509469
 21
120.3920932445
 31
0.0
 11
25.8458645598
 21
123.17050702
 31
0.0
 11
25.8424902412
 21
124.5597116823
 31
0.0
 11
25.8383036279
 21
125.9489141299
 31
0.0
 11
25.8349128952
 21
127.338117323
 31
0.0
 11
25.833007529
 21
128.7273102911
 31
0.0
  0
SPLINE
  5
4C1
100
AcDbEntity
  8
RACCORDO
100
AcDbSpline
 62
253
  6
CONTINUOUS
 70
0
 71
3
 72
34
 73
30
 74
28
 42
0.0000001
 43
0.0000001
 44
0.0000000001
 12
-0.006728221
 22
5.6697078698
 32
0.0
 13
-5.6695385589
 23
0.0443297538
 33
0.0
 40
0.0
 40
0.0
 40
0.0
 40
0.0
 40
0.0624925968
 40
0.1249822844
 40
0.1562363117
 40
0.1874889655
 40
0.2031159721
 40
0.2187421338
 40
0.2343686657
 40
0.2499957932
 40
0.2656235947
 40
0.2812514031
 40
0.3125051864
 40
0.3437600623
 40
0.3750158174
 40
0.4375055102
 40
0.4999952329
 40
0.5624840017
 40
0.5937383672
 40
0.6249923722
 40
0.6562472179
 40
0.6875023952
 40
0.749989602
 40
0.781244862
 40
0.8125002424
 40
0.8437557132
 40
0.8750110342
 40
0.937507938
 40
1.0
 40
1.0
 40
1.0
 40
1.0
 10
25.833007529
 20
128.7273102911
 30
0.0
 10
25.8328673744
 20
128.8454152138
 30
0.0
 10
25.8208100088
 20
129.0817644786
 30
0.0
 10
25.7759247619
 20
129.3741651386
 30
0.0
 10
25.7218271556
 20
129.6042038886
 30
0.0
 10
25.6809215118
 20
129.7461700458
 30
0.0
 10
25.6432900474
 20
129.8581677036
 30
0.0
 10
25.612131501
 20
129.941119482
 30
0.0
 10
25.5794421777
 20
130.0234691992
 30
0.0
 10
25.5485306304
 20
130.1065060207
 30
0.0
 10
25.5170659429
 20
130.1893401134
 30
0.0
 10
25.4720225995
 20
130.2985694567
 30
0.0
 10
25.4100656438
 20
130.4326988383
 30
0.0
 10
25.3272022382
 20
130.5894369769
 30
0.0
 10
25.2055248571
 20
130.7920416389
 30
0.0
 10
25.0330780671
 20
131.0325032737
 30
0.0
 10
24.796251649
 20
131.2968951431
 30
0.0
 10
24.576621389
 20
131.4951115959
 30
0.0
 10
24.3895114136
 20
131.639461084
 30
0.0
 10
24.2435772448
 20
131.7401327597
 30
0.0
 10
24.0927995719
 20
131.8333554002
 30
0.0
 10
23.8864566571
 20
131.948524853
 30
0.0
 10
23.67103187
 20
132.0467257182
 30
0.0
 10
23.4493297453
 20
132.1284868454
 30
0.0
 10
23.2801960057
 20
132.181614963
 30
0.0
 10
23.1086694907
 20
132.2264597275
 30
0.0
 10
22.8774095872
 20
132.2749050316
 30
0.0
 10
22.5857500395
 20
132.3232693372
 30
0.0
 10
22.3493466181
 20
132.3363769838
 30
0.0
 10
22.231246233
 20
132.337300403
 30
0.0
 11
25.833007529
 21
128.7273102911
 31
0.0
 11
25.8148472285
 21
129.0811596024
 31
0.0
 11
25.7608900284
 21
129.4313253686
 31
0.0
 11
25.7204085255
 21
129.6038407562
 31
0.0
 11
25.6711051443
 21
129.7740369022
 31
0.0
 11
25.6428003872
 21
129.8579946972
 31
0.0
 11
25.6118766412
 21
129.9410184519
 31
0.0
 11
25.5797390622
 21
130.0235821835
 31
0.0
 11
25.5484390296
 21
130.1064706639
 31
0.0
 11
25.5166795556
 21
130.1891882865
 31
0.0
 11
25.4829055536
 21
130.2711040546
 31
0.0
 11
25.4086474911
 21
130.4319939581
 31
0.0
 11
25.3258016276
 21
130.5886419044
 31
0.0
 11
25.2345701338
 21
130.7405649031
 31
0.0
 11
25.0280937866
 21
131.0284797906
 31
0.0
 11
24.7917980387
 21
131.2924720328
 31
0.0
 11
24.528916606
 21
131.5299948831
 31
0.0
 11
24.3885810876
 21
131.6381934647
 31
0.0
 11
24.2427715415
 21
131.7388902491
 31
0.0
 11
24.0921324216
 21
131.8322166184
 31
0.0
 11
23.9372567716
 21
131.9183337183
 31
0.0
 11
23.6151140948
 21
132.065783957
 31
0.0
 11
23.4488590101
 21
132.1271193871
 31
0.0
 11
23.2797973922
 21
132.1802343496
 31
0.0
 11
23.1083462727
 21
132.2250419995
 31
0.0
 11
22.9350311685
 21
132.2619850005
 31
0.0
 11
22.5849689794
 21
132.3168748912
 31
0.0
 11
22.231246233
 21
132.337300403
 31
0.0
  0
SPLINE
  5
4C2
100
AcDbEntity
  8
RACCORDO
100
AcDbSpline
 62
253
  6
CONTINUOUS
 70
0
 71
3
 72
13
 73
9
 74
7
 42
0.0000001
 43
0.0000001
 44
0.0000000001
 12
-10.4809662421
 22
0.0818502359
 32
0.0
 13
-10.4812856942
 23
0.0017393018
 33
0.0
 40
0.0
 40
0.0
 40
0.0
 40
0.0
 40
0.1249991699
 40
0.2499992297
 40
0.3749992292
 40
0.4999993639
 40
0.7499996866
 40
1.0
 40
1.0
 40
1.0
 40
1.0
 10
22.231246233
 20
132.337300403
 30
0.0
 10
21.7945422062
 20
132.3407108069
 30
0.0
 10
20.9211150567
 20
132.3453998725
 30
0.0
 10
19.6109662498
 20
132.3502522641
 30
0.0
 10
18.3008094813
 20
132.3538827139
 30
0.0
 10
16.5539287883
 20
132.3566153817
 30
0.0
 10
14.3703247355
 20
132.3577309605
 30
0.0
 10
12.6234415696
 20
132.3574670305
 30
0.0
 10
11.75
 20
132.3576119725
 30
0.0
 11
22.231246233
 21
132.337300403
 31
0.0
 11
20.9211170422
 21
132.3450363231
 31
0.0
 11
19.6109652742
 21
132.3500486058
 31
0.0
 11
18.3008094153
 21
132.3536192212
 31
0.0
 11
16.990649053
 21
132.3557788639
 31
0.0
 11
14.3703247394
 21
132.3574418622
 31
0.0
 11
11.75
 21
132.3576119725
 31
0.0
  0
SPLINE
  5
4C3
100
AcDbEntity
  8
RACCORDO
100
AcDbSpline
 62
253
  6
CONTINUOUS
 70
0
 71
3
 72
32
 73
28
 74
26
 42
0.0000001
 43
0.0000001
 44
0.0000000001
 12
-25.2766883485
 22
0.7843417957
 32
0.0
 13
-25.2888545327
 23
-0.0015315486
 33
0.0
 40
0.0
 40
0.0
 40
0.0
 40
0.0
 40
0.0078092699
 40
0.0156202072
 40
0.0195261754
 40
0.0234323854
 40
0.0273385484
 40
0.0312447114
 40
0.0390570134
 40
0.0468693176
 40
0.0624938895
 40
0.0781184279
 40
0.0937429376
 40
0.1249919342
 40
0.1562410385
 40
0.171865603
 40
0.1874900037
 40
0.2187387784
 40
0.2499882082
 40
0.3124879177
 40
0.374987808
 40
0.4374880975
 40
0.4999889005
 40
0.6249913619
 40
0.7499942249
 40
0.8749970999
 40
1.0
 40
1.0
 40
1.0
 40
1.0
 10
37.0373529125
 20
145.3738010161
 30
0.0
 10
36.9715554185
 20
145.3758427284
 30
0.0
 10
36.8399563189
 20
145.3802336301
 30
0.0
 10
36.6754642822
 20
145.3861919742
 30
0.0
 10
36.5438857312
 20
145.3917457964
 30
0.0
 10
36.4452298116
 20
145.3968926536
 30
0.0
 10
36.3464508507
 20
145.3986564289
 30
0.0
 10
36.2147524211
 20
145.4001018902
 30
0.0
 10
36.050126048
 20
145.4021064789
 30
0.0
 10
35.7867294301
 20
145.4054626727
 30
0.0
 10
35.4574830439
 20
145.4096594316
 30
0.0
 10
35.0623913914
 20
145.4149173088
 30
0.0
 10
34.5356057529
 20
145.4221064397
 30
0.0
 10
33.8771281678
 20
145.4314476811
 30
0.0
 10
33.2186579757
 20
145.4413274269
 30
0.0
 10
32.6918736616
 20
145.4486336237
 30
0.0
 10
32.1650740076
 20
145.454593032
 30
0.0
 10
31.5066333656
 20
145.4664254848
 30
0.0
 10
30.4530982349
 20
145.4842235995
 30
0.0
 10
29.1360538049
 20
145.4988529998
 30
0.0
 10
27.555617075
 20
145.5178257329
 30
0.0
 10
25.9751556182
 20
145.5357099451
 30
0.0
 10
23.8678134312
 20
145.555588751
 30
0.0
 10
21.2335339793
 20
145.5702050951
 30
0.0
 10
18.072351654
 20
145.5729817605
 30
0.0
 10
14.9111776368
 20
145.5670016408
 30
0.0
 10
12.8037267192
 20
145.5629345587
 30
0.0
 10
11.75
 20
145.5628707427
 30
0.0
 11
37.0373529125
 21
145.3738010161
 31
0.0
 11
36.8399732773
 21
145.3803270288
 31
0.0
 11
36.6425792482
 21
145.3876456909
 31
0.0
 11
36.5438938428
 21
145.3919092215
 31
0.0
 11
36.4452091826
 21
145.3963288051
 31
0.0
 11
36.3464516156
 21
145.3985431505
 31
0.0
 11
36.2476766451
 21
145.3997537108
 31
0.0
 11
36.0501267088
 21
145.4021250858
 31
0.0
 11
35.8525782842
 21
145.4046237287
 31
0.0
 11
35.4574833219
 21
145.4096963978
 31
0.0
 11
35.0623914314
 21
145.4149396422
 31
0.0
 11
34.6673022867
 21
145.4203328145
 31
0.0
 11
33.8771306458
 21
145.4315553674
 31
0.0
 11
33.0869609848
 21
145.4431041792
 31
0.0
 11
32.6918700158
 21
145.4484652968
 31
0.0
 11
32.2967775774
 21
145.4533953937
 31
0.0
 11
31.5066369629
 21
145.466283631
 31
0.0
 11
30.7164813225
 21
145.4792660691
 31
0.0
 11
29.1360595744
 21
145.4990892072
 31
0.0
 11
27.5556178548
 21
145.5176442557
 31
0.0
 11
25.975154779
 21
145.5352140248
 31
0.0
 11
24.3946496347
 21
145.5499368428
 31
0.0
 11
21.2335307233
 21
145.5677445877
 31
0.0
 11
18.0723537552
 21
145.5715222959
 31
0.0
 11
14.9111774905
 21
145.5669815573
 31
0.0
 11
11.75
 21
145.5628707427
 31
0.0
  0
SPLINE
  5
4C4
100
AcDbEntity
  8
RACCORDO
100
AcDbSpline
 62
253
  6
CONTINUOUS
 70
0
 71
3
 72
15
 73
11
 74
9
 42
0.0000001
 43
0.0000001
 44
0.0000000001
 12
-0.099683639
 22
2.8407122026
 32
0.0
 13
-2.8410901204
 23
0.0882585612
 33
0.0
 40
0.0
 40
0.0
 40
0.0
 40
0.0
 40
0.1249222652
 40
0.2499024839
 40
0.3749159537
 40
0.4999442331
 40
0.6249766446
 40
0.7500046708
 40
0.8750159422
 40
1.0
 40
1.0
 40
1.0
 40
1.0
 10
38.876126114
 20
143.5528968235
 30
0.0
 10
38.871975212
 20
143.6711862246
 30
0.0
 10
38.8403653736
 20
143.9076067216
 30
0.0
 10
38.7268344777
 20
144.2463182772
 30
0.0
 10
38.5520510002
 20
144.5581017632
 30
0.0
 10
38.3223900709
 20
144.831998727
 30
0.0
 10
38.0459338067
 20
145.0585897766
 30
0.0
 10
37.7322495022
 20
145.2300046365
 30
0.0
 10
37.3923675706
 20
145.3402298394
 30
0.0
 10
37.1557165698
 20
145.3701240451
 30
0.0
 10
37.0373529125
 20
145.3738010161
 30
0.0
 11
38.876126114
 21
143.5528968235
 31
0.0
 11
38.8293615971
 21
143.9048905613
 31
0.0
 11
38.7166447027
 21
144.2417858381
 31
0.0
 11
38.5429170787
 21
144.5517687418
 31
0.0
 11
38.3145950735
 21
144.8241098307
 31
0.0
 11
38.0397232806
 21
145.0493973196
 31
0.0
 11
37.7278614774
 21
145.2198153668
 31
0.0
 11
37.3898220106
 21
145.3293396372
 31
0.0
 11
37.0373529125
 21
145.3738010161
 31
0.0
  0
SPLINE
  5
4C5
100
AcDbEntity
  8
RACCORDO
100
AcDbSpline
 62
253
  6
CONTINUOUS
 70
0
 71
3
 72
15
 73
11
 74
9
 42
0.0000001
 43
0.0000001
 44
0.0000000001
 12
-2.8410894735
 22
-0.0882788112
 32
0.0
 13
-0.0996598524
 23
-2.8407130195
 33
0.0
 40
0.0
 40
0.0
 40
0.0
 40
0.0
 40
0.1249840702
 40
0.2499953357
 40
0.3750233692
 40
0.5000558319
 40
0.6250840815
 40
0.7500975423
 40
0.8750777562
 40
1.0
 40
1.0
 40
1.0
 40
1.0
 10
-37.0373529125
 20
145.3738010161
 30
0.0
 10
-37.1557165546
 20
145.3701232011
 30
0.0
 10
-37.3923676911
 20
145.3402308882
 30
0.0
 10
-37.7322495164
 20
145.2300047235
 30
0.0
 10
-38.0459338887
 20
145.0585900814
 30
0.0
 10
-38.3223900541
 20
144.8319987712
 30
0.0
 10
-38.5520506993
 20
144.5581016331
 30
0.0
 10
-38.7268343308
 20
144.246318176
 30
0.0
 10
-38.8403642922
 20
143.9076065711
 30
0.0
 10
-38.8719762032
 20
143.6711862383
 30
0.0
 10
-38.876126114
 20
143.5528968235
 30
0.0
 11
-37.0373529125
 21
145.3738010161
 31
0.0
 11
-37.3898220958
 21
145.3293400489
 31
0.0
 11
-37.7278615039
 21
145.2198156586
 31
0.0
 11
-38.0397233026
 21
145.0493975647
 31
0.0
 11
-38.314595082
 21
144.8241098332
 31
0.0
 11
-38.5429168456
 21
144.5517686552
 31
0.0
 11
-38.7166443716
 21
144.2417857285
 31
0.0
 11
-38.8293611935
 21
143.9048904441
 31
0.0
 11
-38.876126114
 21
143.5528968235
 31
0.0
  0
SPLINE
  5
4C6
100
AcDbEntity
  8
RACCORDO
100
AcDbSpline
 62
253
  6
CONTINUOUS
 70
0
 71
3
 72
32
 73
28
 74
26
 42
0.0000001
 43
0.0000001
 44
0.0000000001
 12
-25.2888547027
 22
0.0015315837
 32
0.0
 13
-25.2766871615
 23
-0.7843855312
 33
0.0
 40
0.0
 40
0.0
 40
0.0
 40
0.0
 40
0.1250028995
 40
0.2500057735
 40
0.3750086359
 40
0.5000110966
 40
0.5625118991
 40
0.6250121883
 40
0.6875120781
 40
0.7500117894
 40
0.7812612197
 40
0.8125100022
 40
0.8281344015
 40
0.8437589655
 40
0.87500807
 40
0.9062570665
 40
0.921881576
 40
0.9375061144
 40
0.9531306861
 40
0.9609429903
 40
0.9687552931
 40
0.9726614576
 40
0.9765676206
 40
0.9804738231
 40
0.9843797925
 40
0.9921907308
 40
1.0
 40
1.0
 40
1.0
 40
1.0
 10
-11.75
 20
145.5628707426
 30
0.0
 10
-12.8037267208
 20
145.5629345601
 30
0.0
 10
-14.9111776401
 20
145.5670016269
 30
0.0
 10
-18.0723516588
 20
145.5729817363
 30
0.0
 10
-21.2335339899
 20
145.5702053218
 30
0.0
 10
-23.8678134328
 20
145.5555879995
 30
0.0
 10
-25.9751556468
 20
145.5357115527
 30
0.0
 10
-27.5556170608
 20
145.5178238372
 30
0.0
 10
-29.1360539064
 20
145.4988586419
 30
0.0
 10
-30.4530982162
 20
145.4842193596
 30
0.0
 10
-31.506633737
 20
145.4664414654
 30
0.0
 10
-32.1650735993
 20
145.4545522937
 30
0.0
 10
-32.6918739357
 20
145.4486419954
 30
0.0
 10
-33.2186580731
 20
145.4413228881
 30
0.0
 10
-33.8771283429
 20
145.4314491538
 30
0.0
 10
-34.5356059107
 20
145.4221062909
 30
0.0
 10
-35.062391552
 20
145.4149172487
 30
0.0
 10
-35.4574831927
 20
145.4096588991
 30
0.0
 10
-35.7867296292
 20
145.4054645941
 30
0.0
 10
-36.0501261488
 20
145.4021031699
 30
0.0
 10
-36.2147527861
 20
145.4001099993
 30
0.0
 10
-36.3464506819
 20
145.3986367173
 30
0.0
 10
-36.4452307599
 20
145.3969151844
 30
0.0
 10
-36.5438845439
 20
145.3917173162
 30
0.0
 10
-36.675465138
 20
145.386212848
 30
0.0
 10
-36.8399560093
 20
145.3802261602
 30
0.0
 10
-36.9715554273
 20
145.375842842
 30
0.0
 10
-37.0373529125
 20
145.3738010161
 30
0.0
 11
-11.75
 21
145.5628707426
 31
0.0
 11
-14.9111774953
 21
145.5669815456
 31
0.0
 11
-18.0723537595
 21
145.5715223153
 31
0.0
 11
-21.2335307309
 21
145.567744577
 31
0.0
 11
-24.3946496464
 21
145.549936943
 31
0.0
 11
-25.975154797
 21
145.5352147537
 31
0.0
 11
-27.555617866
 21
145.5176442003
 31
0.0
 11
-29.1360596099
 21
145.4990916169
 31
0.0
 11
-30.7164814259
 21
145.4792692285
 31
0.0
 11
-31.5066370672
 21
145.4662857412
 31
0.0
 11
-32.2967775142
 21
145.4533748058
 31
0.0
 11
-32.6918701823
 21
145.4484659159
 31
0.0
 11
-33.0869611352
 21
145.4431043448
 31
0.0
 11
-33.8771308054
 21
145.4315553135
 31
0.0
 11
-34.6673024468
 21
145.4203328034
 31
0.0
 11
-35.0623915898
 21
145.4149394923
 31
0.0
 11
-35.4574834827
 21
145.4096964348
 31
0.0
 11
-35.8525784449
 21
145.404623743
 31
0.0
 11
-36.0501268647
 21
145.4021247144
 31
0.0
 11
-36.2476768035
 21
145.3997517853
 31
0.0
 11
-36.346451723
 21
145.3985339564
 31
0.0
 11
-36.4452096527
 21
145.3963357915
 31
0.0
 11
-36.5438931899
 21
145.3918954163
 31
0.0
 11
-36.642579332
 21
145.3876482259
 31
0.0
 11
-36.839973296
 21
145.3803271219
 31
0.0
 11
-37.0373529125
 21
145.3738010161
 31
0.0
  0
SPLINE
  5
4C7
100
AcDbEntity
  8
RACCORDO
100
AcDbSpline
 62
253
  6
CONTINUOUS
 70
0
 71
3
 72
13
 73
9
 74
7
 42
0.0000001
 43
0.0000001
 44
0.0000000001
 12
-10.4812856894
 22
-0.0017427595
 32
0.0
 13
-10.4809668556
 23
-0.0817710886
 33
0.0
 40
0.0
 40
0.0
 40
0.0
 40
0.0
 40
0.2500003136
 40
0.5000006363
 40
0.6250007713
 40
0.7500007712
 40
0.8750008298
 40
1.0
 40
1.0
 40
1.0
 40
1.0
 10
-11.75
 20
132.3576119724
 30
0.0
 10
-12.6234415699
 20
132.3574667423
 30
0.0
 10
-14.3703247361
 20
132.3577314492
 30
0.0
 10
-16.5539287884
 20
132.3566146555
 30
0.0
 10
-18.3008094855
 20
132.3538838118
 30
0.0
 10
-19.6109662535
 20
132.3502536098
 30
0.0
 10
-20.9211150427
 20
132.3453961618
 30
0.0
 10
-21.7945421799
 20
132.3407075091
 30
0.0
 10
-22.231246233
 20
132.337300403
 30
0.0
 11
-11.75
 21
132.3576119724
 31
0.0
 11
-14.3703247403
 21
132.3574419137
 31
0.0
 11
-16.9906490528
 21
132.3557788268
 31
0.0
 11
-18.3008094194
 21
132.3536201324
 31
0.0
 11
-19.6109652799
 21
132.3500490675
 31
0.0
 11
-20.9211170241
 21
132.3450335584
 31
0.0
 11
-22.231246233
 21
132.337300403
 31
0.0
  0
SPLINE
  5
4C8
100
AcDbEntity
  8
RACCORDO
100
AcDbSpline
 62
253
  6
CONTINUOUS
 70
0
 71
3
 72
34
 73
30
 74
28
 42
0.0000001
 43
0.0000001
 44
0.0000000001
 12
-5.6695390467
 22
-0.0443211421
 32
0.0
 13
-0.0067267275
 23
-5.669708292
 33
0.0
 40
0.0
 40
0.0
 40
0.0
 40
0.0
 40
0.0624912124
 40
0.1249880797
 40
0.156243339
 40
0.1874987555
 40
0.2187540578
 40
0.2500091926
 40
0.3124962402
 40
0.3437513384
 40
0.3750060945
 40
0.4062600228
 40
0.4375143111
 40
0.5000026654
 40
0.5624923726
 40
0.6249823919
 40
0.6562383156
 40
0.6874933489
 40
0.7187473013
 40
0.7343751446
 40
0.7500028078
 40
0.7656299665
 40
0.7812564442
 40
0.7968825597
 40
0.8125095864
 40
0.843762248
 40
0.8750165799
 40
0.93750691
 40
1.0
 40
1.0
 40
1.0
 40
1.0
 10
-22.231246233
 20
132.337300403
 30
0.0
 10
-22.3493450227
 20
132.3363771757
 30
0.0
 10
-22.5857466592
 20
132.3232687453
 30
0.0
 10
-22.8774049421
 20
132.2749075982
 30
0.0
 10
-23.1086642728
 20
132.226460869
 30
0.0
 10
-23.2801906414
 20
132.1816169922
 30
0.0
 10
-23.4493238252
 20
132.128488654
 30
0.0
 10
-23.6710255218
 20
132.0467283314
 30
0.0
 10
-23.8864497171
 20
131.948527731
 30
0.0
 10
-24.0927922966
 20
131.8333589847
 30
0.0
 10
-24.2435713533
 20
131.740139556
 30
0.0
 10
-24.3895071931
 20
131.6394708571
 30
0.0
 10
-24.5766114804
 20
131.4951156615
 30
0.0
 10
-24.796243723
 20
131.2969036128
 30
0.0
 10
-25.0330725487
 20
131.0325130774
 30
0.0
 10
-25.2055157859
 20
130.7920491391
 30
0.0
 10
-25.3272031971
 20
130.5894473758
 30
0.0
 10
-25.4100392205
 20
130.4326967354
 30
0.0
 10
-25.4720897332
 20
130.2986064907
 30
0.0
 10
-25.5170032854
 20
130.189323725
 30
0.0
 10
-25.5485345048
 20
130.1065160362
 30
0.0
 10
-25.5794482929
 20
130.0234801335
 30
0.0
 10
-25.6121032983
 20
129.9411174359
 30
0.0
 10
-25.6433032449
 20
129.8581812344
 30
0.0
 10
-25.6809085318
 20
129.7461743054
 30
0.0
 10
-25.7218283088
 20
129.604212421
 30
0.0
 10
-25.7759219118
 20
129.3741702367
 30
0.0
 10
-25.8208108889
 20
129.0817678562
 30
0.0
 10
-25.8328674044
 20
128.8454161546
 30
0.0
 10
-25.833007529
 20
128.7273102911
 30
0.0
 11
-22.231246233
 21
132.337300403
 31
0.0
 11
-22.5849642048
 21
132.3168753052
 31
0.0
 11
-22.9350264402
 21
132.261986874
 31
0.0
 11
-23.1083411131
 21
132.2250434648
 31
0.0
 11
-23.2797920217
 21
132.1802361758
 31
0.0
 11
-23.448853218
 21
132.1271213034
 31
0.0
 11
-23.615107741
 21
132.0657863639
 31
0.0
 11
-23.9372497667
 21
131.9183368103
 31
0.0
 11
-24.0921254361
 21
131.83222064
 31
0.0
 11
-24.2427656769
 21
131.7388970201
 31
0.0
 11
-24.3885759239
 21
131.6382019921
 31
0.0
 11
-24.5289089936
 21
131.5300009304
 31
0.0
 11
-24.7917894797
 21
131.292480498
 31
0.0
 11
-25.0280866117
 21
131.0284895775
 31
0.0
 11
-25.2345646119
 21
130.7405735655
 31
0.0
 11
-25.3257967782
 21
130.5886498404
 31
0.0
 11
-25.4086443416
 21
130.4320017685
 31
0.0
 11
-25.4829232878
 21
130.2711204351
 31
0.0
 11
-25.516644347
 21
130.1891826371
 31
0.0
 11
-25.5484320865
 21
130.1064767056
 31
0.0
 11
-25.579739132
 21
130.0235906776
 31
0.0
 11
-25.6118610542
 21
129.9410211764
 31
0.0
 11
-25.6428033632
 21
129.8580046106
 31
0.0
 11
-25.6711018236
 21
129.7740445657
 31
0.0
 11
-25.7204061856
 21
129.6038486446
 31
0.0
 11
-25.7608887108
 21
129.4313317095
 31
0.0
 11
-25.8148471798
 21
129.0811624262
 31
0.0
 11
-25.833007529
 21
128.7273102911
 31
0.0
  0
SPLINE
  5
4C9
100
AcDbEntity
  8
RACCORDO
100
AcDbSpline
 62
253
  6
CONTINUOUS
 70
0
 71
3
 72
15
 73
11
 74
9
 42
0.0000001
 43
0.0000001
 44
0.0000000001
 12
-0.0265447184
 22
-22.227316884
 32
0.0
 13
-0.0002437259
 23
-22.2273327331
 33
0.0
 40
0.0
 40
0.0
 40
0.0
 40
0.0
 40
0.0624993699
 40
0.1249993265
 40
0.1874993471
 40
0.249999368
 40
0.3749994345
 40
0.4999995342
 40
0.7499997624
 40
1.0
 40
1.0
 40
1.0
 40
1.0
 10
-25.833007529
 20
128.7273102911
 30
0.0
 10
-25.8335605384
 20
128.2642458581
 30
0.0
 10
-25.8345838011
 20
127.3381123748
 30
0.0
 10
-25.8381257181
 20
125.9489130613
 30
0.0
 10
-25.8427121092
 20
124.559712307
 30
0.0
 10
-25.8470403164
 20
122.7074386308
 30
0.0
 10
-25.8510596895
 20
120.3920934085
 30
0.0
 10
-25.8550229207
 20
116.687536956
 30
0.0
 10
-25.8569125575
 20
112.0568383755
 30
0.0
 10
-25.8563705593
 20
108.3522794876
 30
0.0
 10
-25.8563908699
 20
106.4999999998
 30
0.0
 11
-25.833007529
 21
128.7273102911
 31
0.0
 11
-25.8349182958
 21
127.3381173156
 31
0.0
 11
-25.8382997936
 21
125.9489140986
 31
0.0
 11
-25.8424887362
 21
124.559711661
 31
0.0
 11
-25.8458655385
 21
123.1705070053
 31
0.0
 11
-25.8507512183
 21
120.3920932311
 31
0.0
 11
-25.8538278192
 21
117.6136761247
 31
0.0
 11
-25.8563991306
 21
112.0568384636
 31
0.0
 11
-25.8563908699
 21
106.4999999998
 31
0.0
  0
SPLINE
  5
4CA
100
AcDbEntity
  8
RACCORDO
100
AcDbSpline
 62
253
  6
CONTINUOUS
 70
0
 71
3
 72
35
 73
31
 74
29
 42
0.0000001
 43
0.0000001
 44
0.0000000001
 12
-1.297942243
 22
-37.0323112939
 32
0.0
 13
0.0002202991
 23
-37.0550500443
 33
0.0
 40
0.0
 40
0.0
 40
0.0
 40
0.0
 40
0.0078051456
 40
0.0156136003
 40
0.0195189996
 40
0.0234250149
 40
0.0253781381
 40
0.027331345
 40
0.0312371891
 40
0.0351432795
 40
0.0390494065
 40
0.0429555331
 40
0.0468616556
 40
0.0546739071
 40
0.062486174
 40
0.0781107529
 40
0.0937354068
 40
0.1093601521
 40
0.1249849954
 40
0.1562349501
 40
0.1874851801
 40
0.2499860524
 40
0.2812365973
 40
0.312487155
 40
0.3749882833
 40
0.4374894253
 40
0.4999905795
 40
0.6249929127
 40
0.7499952682
 40
1.0
 40
1.0
 40
1.0
 40
1.0
 10
-38.876126114
 20
143.5528968235
 30
0.0
 10
-38.8795029901
 20
143.4565492957
 30
0.0
 10
-38.8868074691
 20
143.2638321848
 30
0.0
 10
-38.8980526825
 20
143.0229956889
 30
0.0
 10
-38.9092126119
 20
142.8303847766
 30
0.0
 10
-38.9177255457
 20
142.7100707607
 30
0.0
 10
-38.9251968223
 20
142.6138715217
 30
0.0
 10
-38.9322197509
 20
142.5176063718
 30
0.0
 10
-38.9323039599
 20
142.3969138023
 30
0.0
 10
-38.9342501666
 20
142.2522106873
 30
0.0
 10
-38.9367076704
 20
142.1074842943
 30
0.0
 10
-38.9388681862
 20
141.9627602614
 30
0.0
 10
-38.9416212527
 20
141.7697905113
 30
0.0
 10
-38.9451691736
 20
141.5285805463
 30
0.0
 10
-38.9509482985
 20
141.1426447627
 30
0.0
 10
-38.9581160299
 20
140.660222779
 30
0.0
 10
-38.9666919127
 20
140.0813137471
 30
0.0
 10
-38.97510531
 20
139.5023990635
 30
0.0
 10
-38.9859150183
 20
138.7305001529
 30
0.0
 10
-38.9981344417
 20
137.7656011338
 30
0.0
 10
-39.0140963582
 20
136.2217088467
 30
0.0
 10
-39.0245094877
 20
134.6777574436
 30
0.0
 10
-39.0306055075
 20
133.1337844748
 30
0.0
 10
-39.0350536837
 20
131.5898027508
 30
0.0
 10
-39.0398876399
 20
129.6598233701
 30
0.0
 10
-39.0451033407
 20
127.3438462661
 30
0.0
 10
-39.0509613924
 20
124.2558737561
 30
0.0
 10
-39.0565329823
 20
120.395904322
 30
0.0
 10
-39.0620302088
 20
114.2199484787
 30
0.0
 10
-39.0629399377
 20
109.5879792793
 30
0.0
 10
-39.0629215791
 20
106.4999999967
 30
0.0
 11
-38.876126114
 21
143.5528968235
 31
0.0
 11
-38.8872284345
 21
143.2638899324
 31
0.0
 11
-38.9010214438
 21
142.974876199
 31
0.0
 11
-38.9095194076
 21
142.8304111567
 31
0.0
 11
-38.9196482078
 21
142.6860284093
 31
0.0
 11
-38.9251407182
 21
142.6138640485
 31
0.0
 11
-38.929884649
 21
142.5416435108
 31
0.0
 11
-38.9326114604
 21
142.3969379497
 31
0.0
 11
-38.934335368
 21
142.2522078402
 31
0.0
 11
-38.9366581713
 21
142.1074847497
 31
0.0
 11
-38.9388522343
 21
141.9627596616
 31
0.0
 11
-38.940940091
 21
141.8180331586
 31
0.0
 11
-38.9451819756
 21
141.5285808656
 31
0.0
 11
-38.9494997638
 21
141.2391291306
 31
0.0
 11
-38.9581117782
 21
140.6602236294
 31
0.0
 11
-38.9666648072
 21
140.0813144787
 31
0.0
 11
-38.9750542612
 21
139.5023995455
 31
0.0
 11
-38.9831263659
 21
138.9234764667
 31
0.0
 11
-38.9976857401
 21
137.7655993649
 31
0.0
 11
-39.0096434303
 21
136.6076822697
 31
0.0
 11
-39.0256737217
 21
134.2917647945
 31
0.0
 11
-39.030399525
 21
133.1337839342
 31
0.0
 11
-39.0338932215
 21
131.9757982252
 31
0.0
 11
-39.0397901316
 21
129.6598232955
 31
0.0
 11
-39.0449663132
 21
127.3438461334
 31
0.0
 11
-39.0493801473
 21
125.0278669456
 31
0.0
 11
-39.0561058172
 21
120.3959041143
 31
0.0
 11
-39.0602988807
 21
115.7639374736
 31
0.0
 11
-39.0629215791
 21
106.4999999967
 31
0.0
  0
SPLINE
  5
4CB
100
AcDbEntity
  8
RACCORDO
100
AcDbSpline
 62
253
  6
CONTINUOUS
 70
0
 71
3
 72
15
 73
11
 74
9
 42
0.0000001
 43
0.0000001
 44
0.0000000001
 12
0.0000127081
 22
-36.9999469969
 32
0.0
 13
-0.1115213283
 23
-36.9997789286
 33
0.0
 40
0.0
 40
0.0
 40
0.0
 40
0.0
 40
0.2500077824
 40
0.5000154357
 40
0.6250191296
 40
0.7500226378
 40
0.8125237895
 40
0.8750232994
 40
0.9375205333
 40
1.0
 40
1.0
 40
1.0
 40
1.0
 10
-39.7278543933
 20
-106.500002842
 30
0.0
 10
-39.7278533343
 20
-109.5834277412
 30
0.0
 10
-39.7279178865
 20
-115.7502759443
 30
0.0
 10
-39.7283155014
 20
-123.458834173
 30
0.0
 10
-39.7289795502
 20
-129.6256751657
 30
0.0
 10
-39.7293679895
 20
-133.4799393767
 30
0.0
 10
-39.7301793043
 20
-136.5633195322
 30
0.0
 10
-39.7312387316
 20
-138.8757903259
 30
0.0
 10
-39.7331847939
 20
-141.1879918422
 30
0.0
 10
-39.7336300201
 20
-142.7293714396
 30
0.0
 10
-39.7359526178
 20
-143.4999469243
 30
0.0
 11
-39.7278543933
 21
-106.500002842
 31
0.0
 11
-39.7279812715
 21
-115.7502775387
 31
0.0
 11
-39.7285103437
 21
-125.0005474435
 31
0.0
 11
-39.7289742324
 21
-129.625677471
 31
0.0
 11
-39.7296125362
 21
-134.2508006039
 31
0.0
 11
-39.7302544725
 21
-136.5633398154
 31
0.0
 11
-39.7313865577
 21
-138.8758180904
 31
0.0
 11
-39.7329718999
 21
-141.1882118909
 31
0.0
 11
-39.7359526178
 21
-143.4999469243
 31
0.0
  0
SPLINE
  5
4CC
100
AcDbEntity
  8
RACCORDO
100
AcDbSpline
 62
253
  6
CONTINUOUS
 70
0
 71
3
 72
32
 73
28
 74
26
 42
0.0000001
 43
0.0000001
 44
0.0000000001
 12
25.2888547027
 22
-0.0015315837
 32
0.0
 13
25.2766871615
 23
0.7843855311
 33
0.0
 40
0.0
 40
0.0
 40
0.0
 40
0.0
 40
0.1250028995
 40
0.2500057735
 40
0.3750086359
 40
0.5000110966
 40
0.5625118991
 40
0.6250121883
 40
0.6875120781
 40
0.7500117894
 40
0.7812612197
 40
0.8125100022
 40
0.8281344015
 40
0.8437589655
 40
0.87500807
 40
0.9062570665
 40
0.921881576
 40
0.9375061144
 40
0.9531306861
 40
0.9609429903
 40
0.9687552931
 40
0.9726614576
 40
0.9765676206
 40
0.9804738231
 40
0.9843797925
 40
0.9921907308
 40
1.0
 40
1.0
 40
1.0
 40
1.0
 10
11.75
 20
-145.5628707426
 30
0.0
 10
12.8037267208
 20
-145.5629345601
 30
0.0
 10
14.9111776401
 20
-145.5670016269
 30
0.0
 10
18.0723516588
 20
-145.5729817363
 30
0.0
 10
21.2335339899
 20
-145.5702053218
 30
0.0
 10
23.8678134328
 20
-145.5555879995
 30
0.0
 10
25.9751556468
 20
-145.5357115527
 30
0.0
 10
27.5556170608
 20
-145.5178238372
 30
0.0
 10
29.1360539064
 20
-145.4988586419
 30
0.0
 10
30.4530982162
 20
-145.4842193596
 30
0.0
 10
31.506633737
 20
-145.4664414654
 30
0.0
 10
32.1650735993
 20
-145.4545522937
 30
0.0
 10
32.6918739357
 20
-145.4486419954
 30
0.0
 10
33.2186580731
 20
-145.4413228881
 30
0.0
 10
33.8771283429
 20
-145.4314491538
 30
0.0
 10
34.5356059107
 20
-145.4221062909
 30
0.0
 10
35.062391552
 20
-145.4149172487
 30
0.0
 10
35.4574831927
 20
-145.4096588991
 30
0.0
 10
35.7867296292
 20
-145.4054645941
 30
0.0
 10
36.0501261488
 20
-145.4021031699
 30
0.0
 10
36.2147527861
 20
-145.4001099993
 30
0.0
 10
36.3464506819
 20
-145.3986367173
 30
0.0
 10
36.4452307599
 20
-145.3969151844
 30
0.0
 10
36.5438845439
 20
-145.3917173162
 30
0.0
 10
36.675465138
 20
-145.386212848
 30
0.0
 10
36.8399560093
 20
-145.3802261602
 30
0.0
 10
36.9715554273
 20
-145.375842842
 30
0.0
 10
37.0373529125
 20
-145.3738010161
 30
0.0
 11
11.75
 21
-145.5628707426
 31
0.0
 11
14.9111774953
 21
-145.5669815456
 31
0.0
 11
18.0723537595
 21
-145.5715223153
 31
0.0
 11
21.2335307309
 21
-145.567744577
 31
0.0
 11
24.3946496464
 21
-145.549936943
 31
0.0
 11
25.975154797
 21
-145.5352147537
 31
0.0
 11
27.555617866
 21
-145.5176442003
 31
0.0
 11
29.1360596099
 21
-145.4990916169
 31
0.0
 11
30.7164814259
 21
-145.4792692285
 31
0.0
 11
31.5066370672
 21
-145.4662857412
 31
0.0
 11
32.2967775142
 21
-145.4533748058
 31
0.0
 11
32.6918701823
 21
-145.4484659159
 31
0.0
 11
33.0869611352
 21
-145.4431043448
 31
0.0
 11
33.8771308054
 21
-145.4315553135
 31
0.0
 11
34.6673024468
 21
-145.4203328034
 31
0.0
 11
35.0623915898
 21
-145.4149394923
 31
0.0
 11
35.4574834827
 21
-145.4096964348
 31
0.0
 11
35.8525784449
 21
-145.404623743
 31
0.0
 11
36.0501268647
 21
-145.4021247144
 31
0.0
 11
36.2476768035
 21
-145.3997517853
 31
0.0
 11
36.346451723
 21
-145.3985339564
 31
0.0
 11
36.4452096527
 21
-145.3963357915
 31
0.0
 11
36.5438931899
 21
-145.3918954163
 31
0.0
 11
36.642579332
 21
-145.3876482259
 31
0.0
 11
36.839973296
 21
-145.3803271219
 31
0.0
 11
37.0373529125
 21
-145.3738010161
 31
0.0
  0
SPLINE
  5
4CD
100
AcDbEntity
  8
RACCORDO
100
AcDbSpline
 62
253
  6
CONTINUOUS
 70
0
 71
3
 72
14
 73
10
 74
8
 42
0.0000001
 43
0.0000001
 44
0.0000000001
 12
-25.2499186109
 22
-0.0536696695
 32
0.0
 13
-25.2499756491
 23
0.0000836386
 33
0.0
 40
0.0
 40
0.0
 40
0.0
 40
0.0
 40
0.0624913219
 40
0.1249885153
 40
0.2499817878
 40
0.3749798701
 40
0.4999803287
 40
0.7499896216
 40
1.0
 40
1.0
 40
1.0
 40
1.0
 10
37.0
 20
146.2368093679
 30
0.0
 10
36.4740330695
 20
146.2356914051
 30
0.0
 10
35.4220466292
 20
146.2354490149
 30
0.0
 10
33.3180363513
 20
146.2336692254
 30
0.0
 10
30.6879276184
 20
146.2315517409
 30
0.0
 10
27.5317501144
 20
146.2297645915
 30
0.0
 10
23.323355456
 20
146.2275137868
 30
0.0
 10
18.0627742362
 20
146.2271501086
 30
0.0
 10
13.8542794699
 20
146.2278497905
 30
0.0
 10
11.7500274807
 20
146.2278567606
 30
0.0
 11
37.0
 21
146.2368093679
 31
0.0
 11
35.4220963782
 21
146.2352871696
 31
0.0
 11
33.8440441965
 21
146.2341213328
 31
0.0
 11
30.6879680568
 21
146.231677412
 31
0.0
 11
27.5317700926
 21
146.229781121
 31
0.0
 11
24.3755119329
 21
146.2282398356
 31
0.0
 11
18.0627834317
 21
146.2273977648
 31
0.0
 11
11.7500274807
 21
146.2278567606
 31
0.0
  0
SPLINE
  5
4CE
100
AcDbEntity
  8
RACCORDO
100
AcDbSpline
 62
253
  6
CONTINUOUS
 70
0
 71
3
 72
14
 73
10
 74
8
 42
0.0000001
 43
0.0000001
 44
0.0000000001
 12
-25.2499226692
 22
-0.000083663
 32
0.0
 13
-25.2498656325
 23
0.0536688558
 33
0.0
 40
0.0
 40
0.0
 40
0.0
 40
0.0
 40
0.2500103783
 40
0.5000196711
 40
0.6250201296
 40
0.7500182116
 40
0.8750114842
 40
0.9375086775
 40
1.0
 40
1.0
 40
1.0
 40
1.0
 10
-11.7500274807
 20
146.2278567606
 30
0.0
 10
-13.8542750534
 20
146.2278497884
 30
0.0
 10
-18.0627609875
 20
146.2271501124
 30
0.0
 10
-23.3233311668
 20
146.2275137802
 30
0.0
 10
-27.5317169912
 20
146.2297645612
 30
0.0
 10
-30.6878878706
 20
146.2315517705
 30
0.0
 10
-33.3179910827
 20
146.2336691681
 30
0.0
 10
-35.4219969511
 20
146.2354490054
 30
0.0
 10
-36.4739811883
 20
146.2356913146
 30
0.0
 10
-36.9999470202
 20
146.2368092605
 30
0.0
 11
-11.7500274807
 21
146.2278567606
 31
0.0
 11
-18.0627701823
 21
146.2273977651
 31
0.0
 11
-24.3754854362
 21
146.2282398218
 31
0.0
 11
-27.5317369712
 21
146.2297811036
 31
0.0
 11
-30.6879283054
 21
146.2316774142
 31
0.0
 11
-33.8439978258
 21
146.2341212972
 31
0.0
 11
-35.4220466945
 21
146.2352871339
 31
0.0
 11
-36.9999470202
 21
146.2368092605
 31
0.0
  0
SPLINE
  5
4CF
100
AcDbEntity
  8
RACCORDO
100
AcDbSpline
 62
253
  6
CONTINUOUS
 70
0
 71
3
 72
18
 73
14
 74
12
 42
0.0000001
 43
0.0000001
 44
0.0000000001
 12
-0.0000764974
 22
-4.4300488558
 32
0.0
 13
4.1046548826
 23
-1.666475672
 33
0.0
 40
0.0
 40
0.0
 40
0.0
 40
0.0
 40
0.125015423
 40
0.2500122841
 40
0.3749866034
 40
0.4999362984
 40
0.6248713091
 40
0.6873786039
 40
0.7498875647
 40
0.8124044073
 40
0.8749307626
 40
0.9374623205
 40
1.0
 40
1.0
 40
1.0
 40
1.0
 10
-25.8563908662
 20
84.25
 30
0.0
 10
-25.856394054
 20
84.0653918561
 30
0.0
 10
-25.8284119814
 20
83.6955891061
 30
0.0
 10
-25.7032766652
 20
83.1541111073
 30
0.0
 10
-25.4975223475
 20
82.6377184583
 30
0.0
 10
-25.2148432757
 20
82.1593686425
 30
0.0
 10
-24.9229845225
 20
81.7998275133
 30
0.0
 10
-24.6602900013
 20
81.5401540404
 30
0.0
 10
-24.4492875415
 20
81.3604177643
 30
0.0
 10
-24.2266988245
 20
81.1953200785
 30
0.0
 10
-23.9942322164
 20
81.0443471418
 30
0.0
 10
-23.7514934976
 20
80.9103199468
 30
0.0
 10
-23.5829671031
 20
80.8342022087
 30
0.0
 10
-23.497401906
 20
80.7994630349
 30
0.0
 11
-25.8563908662
 21
84.25
 31
0.0
 11
-25.8145457076
 21
83.6977586725
 31
0.0
 11
-25.6898252759
 21
83.1582447804
 31
0.0
 11
-25.4846789327
 21
82.6440125187
 31
0.0
 11
-25.2035750387
 21
82.1671690819
 31
0.0
 11
-24.8549412395
 21
81.7373068671
 31
0.0
 11
-24.6579738601
 21
81.5426707849
 31
0.0
 11
-24.4473693225
 21
81.362867645
 31
0.0
 11
-24.2250686057
 21
81.1976854086
 31
0.0
 11
-23.9925311712
 21
81.0471780481
 31
0.0
 11
-23.7498282189
 21
80.9136334116
 31
0.0
 11
-23.497401906
 21
80.7994630349
 31
0.0
  0
SPLINE
  5
4D0
100
AcDbEntity
  8
RACCORDO
100
AcDbSpline
 62
253
  6
CONTINUOUS
 70
0
 71
3
 72
18
 73
14
 74
12
 42
0.0000001
 43
0.0000001
 44
0.0000000001
 12
-4.1046492794
 22
-1.6664789877
 32
0.0
 13
0.00011871
 23
-4.4300449105
 33
0.0
 40
0.0
 40
0.0
 40
0.0
 40
0.0
 40
0.0625390216
 40
0.1250716535
 40
0.1875985873
 40
0.2501162638
 40
0.3126253369
 40
0.3751308131
 40
0.5000591201
 40
0.6250047049
 40
0.7499804667
 40
0.874980066
 40
1.0
 40
1.0
 40
1.0
 40
1.0
 10
-23.4974036697
 20
61.2005362162
 30
0.0
 10
-23.5829705863
 20
61.1657962278
 30
0.0
 10
-23.7515040722
 20
61.0896836239
 30
0.0
 10
-23.99422424
 20
60.9556155992
 30
0.0
 10
-24.2267166214
 20
60.8046772623
 30
0.0
 10
-24.4492981438
 20
60.6395649343
 30
0.0
 10
-24.6603006049
 20
60.4598319591
 30
0.0
 10
-24.922988133
 20
60.2001690727
 30
0.0
 10
-25.2148313019
 20
59.8406403972
 30
0.0
 10
-25.4975121448
 20
59.3623086414
 30
0.0
 10
-25.7032682928
 20
58.8459167366
 30
0.0
 10
-25.8284113057
 20
58.3044280783
 30
0.0
 10
-25.8563958133
 20
57.9346146408
 30
0.0
 10
-25.8563908662
 20
57.75
 30
0.0
 11
-23.4974036697
 21
61.2005362162
 31
0.0
 11
-23.7498344183
 21
61.0863618174
 31
0.0
 11
-23.9925313195
 21
60.9527968279
 31
0.0
 11
-24.2250807921
 21
60.8023038046
 31
0.0
 11
-24.4473824085
 21
60.6371169988
 31
0.0
 11
-24.6579866633
 21
60.4573131411
 31
0.0
 11
-24.8549491478
 21
60.2626839183
 31
0.0
 11
-25.2035635915
 21
59.8328448773
 31
0.0
 11
-25.4846640747
 21
59.3560211381
 31
0.0
 11
-25.6898166074
 21
58.8417849965
 31
0.0
 11
-25.8145438413
 21
58.302260733
 31
0.0
 11
-25.8563908662
 21
57.75
 31
0.0
  0
SPLINE
  5
4D1
100
AcDbEntity
  8
RACCORDO
100
AcDbSpline
 62
253
  6
CONTINUOUS
 70
0
 71
3
 72
18
 73
14
 74
12
 42
0.0000001
 43
0.0000001
 44
0.0000000001
 12
-0.0000764974
 22
-4.4300488558
 32
0.0
 13
4.1046548826
 23
-1.666475672
 33
0.0
 40
0.0
 40
0.0
 40
0.0
 40
0.0
 40
0.125015423
 40
0.2500122841
 40
0.3749866034
 40
0.4999362984
 40
0.6248713091
 40
0.6873786039
 40
0.7498875647
 40
0.8124044073
 40
0.8749307626
 40
0.9374623205
 40
1.0
 40
1.0
 40
1.0
 40
1.0
 10
-25.8563908662
 20
13.25
 30
0.0
 10
-25.856394054
 20
13.0653918561
 30
0.0
 10
-25.8284119814
 20
12.6955891061
 30
0.0
 10
-25.7032766652
 20
12.1541111073
 30
0.0
 10
-25.4975223475
 20
11.6377184583
 30
0.0
 10
-25.2148432757
 20
11.1593686425
 30
0.0
 10
-24.9229845225
 20
10.7998275133
 30
0.0
 10
-24.6602900013
 20
10.5401540404
 30
0.0
 10
-24.4492875415
 20
10.3604177643
 30
0.0
 10
-24.2266988245
 20
10.1953200785
 30
0.0
 10
-23.9942322164
 20
10.0443471418
 30
0.0
 10
-23.7514934976
 20
9.9103199468
 30
0.0
 10
-23.5829671031
 20
9.8342022087
 30
0.0
 10
-23.497401906
 20
9.7994630349
 30
0.0
 11
-25.8563908662
 21
13.25
 31
0.0
 11
-25.8145457076
 21
12.6977586725
 31
0.0
 11
-25.6898252759
 21
12.1582447804
 31
0.0
 11
-25.4846789327
 21
11.6440125187
 31
0.0
 11
-25.2035750387
 21
11.1671690819
 31
0.0
 11
-24.8549412395
 21
10.7373068671
 31
0.0
 11
-24.6579738601
 21
10.5426707849
 31
0.0
 11
-24.4473693225
 21
10.362867645
 31
0.0
 11
-24.2250686057
 21
10.1976854086
 31
0.0
 11
-23.9925311712
 21
10.0471780481
 31
0.0
 11
-23.7498282189
 21
9.9136334116
 31
0.0
 11
-23.497401906
 21
9.7994630349
 31
0.0
  0
SPLINE
  5
4D2
100
AcDbEntity
  8
RACCORDO
100
AcDbSpline
 62
253
  6
CONTINUOUS
 70
0
 71
3
 72
18
 73
14
 74
12
 42
0.0000001
 43
0.0000001
 44
0.0000000001
 12
-4.1046492794
 22
-1.6664789877
 32
0.0
 13
0.00011871
 23
-4.4300449105
 33
0.0
 40
0.0
 40
0.0
 40
0.0
 40
0.0
 40
0.0625390216
 40
0.1250716535
 40
0.1875985873
 40
0.2501162638
 40
0.3126253369
 40
0.3751308131
 40
0.5000591201
 40
0.6250047049
 40
0.7499804667
 40
0.874980066
 40
1.0
 40
1.0
 40
1.0
 40
1.0
 10
-23.4974036697
 20
-9.7994637838
 30
0.0
 10
-23.5829705863
 20
-9.8342037722
 30
0.0
 10
-23.7515040722
 20
-9.9103163761
 30
0.0
 10
-23.99422424
 20
-10.0443844008
 30
0.0
 10
-24.2267166214
 20
-10.1953227377
 30
0.0
 10
-24.4492981438
 20
-10.3604350657
 30
0.0
 10
-24.6603006049
 20
-10.5401680409
 30
0.0
 10
-24.922988133
 20
-10.7998309273
 30
0.0
 10
-25.2148313019
 20
-11.1593596028
 30
0.0
 10
-25.4975121448
 20
-11.6376913586
 30
0.0
 10
-25.7032682928
 20
-12.1540832634
 30
0.0
 10
-25.8284113057
 20
-12.6955719217
 30
0.0
 10
-25.8563958133
 20
-13.0653853592
 30
0.0
 10
-25.8563908662
 20
-13.25
 30
0.0
 11
-23.4974036697
 21
-9.7994637838
 31
0.0
 11
-23.7498344183
 21
-9.9136381826
 31
0.0
 11
-23.9925313195
 21
-10.0472031721
 31
0.0
 11
-24.2250807921
 21
-10.1976961954
 31
0.0
 11
-24.4473824085
 21
-10.3628830012
 31
0.0
 11
-24.6579866633
 21
-10.5426868589
 31
0.0
 11
-24.8549491478
 21
-10.7373160817
 31
0.0
 11
-25.2035635915
 21
-11.1671551227
 31
0.0
 11
-25.4846640747
 21
-11.6439788619
 31
0.0
 11
-25.6898166074
 21
-12.1582150035
 31
0.0
 11
-25.8145438413
 21
-12.697739267
 31
0.0
 11
-25.8563908662
 21
-13.25
 31
0.0
  0
SPLINE
  5
4D3
100
AcDbEntity
  8
RACCORDO
100
AcDbSpline
 62
253
  6
CONTINUOUS
 70
0
 71
3
 72
18
 73
14
 74
12
 42
0.0000001
 43
0.0000001
 44
0.0000000001
 12
-0.0000764974
 22
-4.4300488558
 32
0.0
 13
4.1046548826
 23
-1.666475672
 33
0.0
 40
0.0
 40
0.0
 40
0.0
 40
0.0
 40
0.125015423
 40
0.2500122841
 40
0.3749866034
 40
0.4999362984
 40
0.6248713091
 40
0.6873786039
 40
0.7498875647
 40
0.8124044073
 40
0.8749307626
 40
0.9374623205
 40
1.0
 40
1.0
 40
1.0
 40
1.0
 10
-25.8563908662
 20
-57.75
 30
0.0
 10
-25.856394054
 20
-57.9346081439
 30
0.0
 10
-25.8284119814
 20
-58.3044108939
 30
0.0
 10
-25.7032766652
 20
-58.8458888927
 30
0.0
 10
-25.4975223475
 20
-59.3622815417
 30
0.0
 10
-25.2148432757
 20
-59.8406313575
 30
0.0
 10
-24.9229845225
 20
-60.2001724867
 30
0.0
 10
-24.6602900013
 20
-60.4598459596
 30
0.0
 10
-24.4492875415
 20
-60.6395822357
 30
0.0
 10
-24.2266988245
 20
-60.8046799215
 30
0.0
 10
-23.9942322164
 20
-60.9556528582
 30
0.0
 10
-23.7514934976
 20
-61.0896800532
 30
0.0
 10
-23.5829671031
 20
-61.1657977913
 30
0.0
 10
-23.497401906
 20
-61.2005369651
 30
0.0
 11
-25.8563908662
 21
-57.75
 31
0.0
 11
-25.8145457076
 21
-58.3022413275
 31
0.0
 11
-25.6898252759
 21
-58.8417552196
 31
0.0
 11
-25.4846789327
 21
-59.3559874813
 31
0.0
 11
-25.2035750387
 21
-59.8328309181
 31
0.0
 11
-24.8549412395
 21
-60.2626931329
 31
0.0
 11
-24.6579738601
 21
-60.4573292151
 31
0.0
 11
-24.4473693225
 21
-60.637132355
 31
0.0
 11
-24.2250686057
 21
-60.8023145914
 31
0.0
 11
-23.9925311712
 21
-60.9528219519
 31
0.0
 11
-23.7498282189
 21
-61.0863665884
 31
0.0
 11
-23.497401906
 21
-61.2005369651
 31
0.0
  0
SPLINE
  5
4D4
100
AcDbEntity
  8
RACCORDO
100
AcDbSpline
 62
253
  6
CONTINUOUS
 70
0
 71
3
 72
18
 73
14
 74
12
 42
0.0000001
 43
0.0000001
 44
0.0000000001
 12
-4.1046492794
 22
-1.6664789877
 32
0.0
 13
0.00011871
 23
-4.4300449105
 33
0.0
 40
0.0
 40
0.0
 40
0.0
 40
0.0
 40
0.0625390216
 40
0.1250716535
 40
0.1875985873
 40
0.2501162638
 40
0.3126253369
 40
0.3751308131
 40
0.5000591201
 40
0.6250047049
 40
0.7499804667
 40
0.874980066
 40
1.0
 40
1.0
 40
1.0
 40
1.0
 10
-23.4974036697
 20
-80.7994637838
 30
0.0
 10
-23.5829705863
 20
-80.8342037722
 30
0.0
 10
-23.7515040722
 20
-80.9103163761
 30
0.0
 10
-23.99422424
 20
-81.0443844008
 30
0.0
 10
-24.2267166214
 20
-81.1953227377
 30
0.0
 10
-24.4492981438
 20
-81.3604350657
 30
0.0
 10
-24.6603006049
 20
-81.5401680409
 30
0.0
 10
-24.922988133
 20
-81.7998309273
 30
0.0
 10
-25.2148313019
 20
-82.1593596028
 30
0.0
 10
-25.4975121448
 20
-82.6376913586
 30
0.0
 10
-25.7032682928
 20
-83.1540832634
 30
0.0
 10
-25.8284113057
 20
-83.6955719217
 30
0.0
 10
-25.8563958133
 20
-84.0653853592
 30
0.0
 10
-25.8563908662
 20
-84.25
 30
0.0
 11
-23.4974036697
 21
-80.7994637838
 31
0.0
 11
-23.7498344183
 21
-80.9136381826
 31
0.0
 11
-23.9925313195
 21
-81.0472031721
 31
0.0
 11
-24.2250807921
 21
-81.1976961954
 31
0.0
 11
-24.4473824085
 21
-81.3628830012
 31
0.0
 11
-24.6579866633
 21
-81.5426868589
 31
0.0
 11
-24.8549491478
 21
-81.7373160817
 31
0.0
 11
-25.2035635915
 21
-82.1671551227
 31
0.0
 11
-25.4846640747
 21
-82.6439788619
 31
0.0
 11
-25.6898166074
 21
-83.1582150035
 31
0.0
 11
-25.8145438413
 21
-83.697739267
 31
0.0
 11
-25.8563908662
 21
-84.25
 31
0.0
  0
SPLINE
  5
4D5
100
AcDbEntity
  8
RACCORDO
100
AcDbSpline
 62
253
  6
CONTINUOUS
 70
0
 71
3
 72
18
 73
14
 74
12
 42
0.0000001
 43
0.0000001
 44
0.0000000001
 12
0.0000764316
 22
4.4300490249
 32
0.0
 13
-4.1046547399
 23
1.6664764731
 33
0.0
 40
0.0
 40
0.0
 40
0.0
 40
0.0
 40
0.1250154212
 40
0.2500122814
 40
0.3749865974
 40
0.4999362923
 40
0.6248713025
 40
0.6873785979
 40
0.7498875581
 40
0.8124044012
 40
0.8749307574
 40
0.9374623176
 40
1.0
 40
1.0
 40
1.0
 40
1.0
 10
25.8563908662
 20
-84.25
 30
0.0
 10
25.8563940513
 20
-84.0653918517
 30
0.0
 10
25.8284119642
 20
-83.6955890935
 30
0.0
 10
25.7032766621
 20
-83.1541110785
 30
0.0
 10
25.4975223165
 20
-82.6377184238
 30
0.0
 10
25.2148432434
 20
-82.1593685932
 30
0.0
 10
24.9229844889
 20
-81.7998274407
 30
0.0
 10
24.6602899444
 20
-81.5401539714
 30
0.0
 10
24.4492874322
 20
-81.3604177353
 30
0.0
 10
24.2266986866
 20
-81.195320084
 30
0.0
 10
23.9942322689
 20
-81.0443468128
 30
0.0
 10
23.7514933527
 20
-80.9103199185
 30
0.0
 10
23.5829669589
 20
-80.8342021647
 30
0.0
 10
23.4974017607
 20
-80.7994629726
 30
0.0
 11
25.8563908662
 21
-84.25
 31
0.0
 11
25.8145456965
 21
-83.69775866
 31
0.0
 11
25.6898252649
 21
-83.1582447504
 31
0.0
 11
25.4846789083
 21
-82.6440124869
 31
0.0
 11
25.2035750065
 21
-82.1671690307
 31
0.0
 11
24.8549411991
 21
-81.7373067982
 31
0.0
 11
24.6579737963
 21
-81.5426707211
 31
0.0
 11
24.4473692185
 21
-81.3628676161
 31
0.0
 11
24.2250685055
 21
-81.1976853534
 31
0.0
 11
23.9925311612
 21
-81.0471778262
 31
0.0
 11
23.7498281083
 21
-80.9136333299
 31
0.0
 11
23.4974017607
 21
-80.7994629726
 31
0.0
  0
SPLINE
  5
4D6
100
AcDbEntity
  8
RACCORDO
100
AcDbSpline
 62
253
  6
CONTINUOUS
 70
0
 71
3
 72
18
 73
14
 74
12
 42
0.0000001
 43
0.0000001
 44
0.0000000001
 12
4.1046492929
 22
1.6664791645
 32
0.0
 13
-0.0001192939
 23
4.4300449895
 33
0.0
 40
0.0
 40
0.0
 40
0.0
 40
0.0
 40
0.0625390255
 40
0.1250716598
 40
0.1875985942
 40
0.2501162704
 40
0.312625344
 40
0.3751308205
 40
0.5000591272
 40
0.6250047102
 40
0.7499804712
 40
0.8749800689
 40
1.0
 40
1.0
 40
1.0
 40
1.0
 10
23.4974036031
 20
-61.200536245
 30
0.0
 10
23.5829705254
 20
-61.1657962506
 30
0.0
 10
23.7515040489
 20
-61.0896837064
 30
0.0
 10
23.9942242736
 20
-60.9556157413
 30
0.0
 10
24.2267165714
 20
-60.8046772579
 30
0.0
 10
24.4492981088
 20
-60.6395649464
 30
0.0
 10
24.6603006008
 20
-60.4598319961
 30
0.0
 10
24.9229881096
 20
-60.2001690792
 30
0.0
 10
25.2148312935
 20
-59.8406404107
 30
0.0
 10
25.4975121307
 20
-59.3623086442
 30
0.0
 10
25.7032682872
 20
-58.8459167374
 30
0.0
 10
25.8284112769
 20
-58.3044280757
 30
0.0
 10
25.8563958376
 20
-57.9346146398
 30
0.0
 10
25.8563908662
 20
-57.75
 30
0.0
 11
23.4974036031
 21
-61.200536245
 31
0.0
 11
23.7498343976
 21
-61.0863618936
 31
0.0
 11
23.9925313327
 21
-60.9527969337
 31
0.0
 11
24.2250807601
 21
-60.8023038264
 31
0.0
 11
24.4473823752
 21
-60.637117013
 31
0.0
 11
24.6579866518
 21
-60.4573131699
 31
0.0
 11
24.8549491326
 21
-60.2626839346
 31
0.0
 11
25.2035635807
 21
-59.8328448854
 31
0.0
 11
25.4846640624
 21
-59.3560211435
 31
0.0
 11
25.6898165969
 21
-58.8417849957
 31
0.0
 11
25.81454383
 21
-58.302260729
 31
0.0
 11
25.8563908662
 21
-57.75
 31
0.0
  0
SPLINE
  5
4D7
100
AcDbEntity
  8
RACCORDO
100
AcDbSpline
 62
253
  6
CONTINUOUS
 70
0
 71
3
 72
18
 73
14
 74
12
 42
0.0000001
 43
0.0000001
 44
0.0000000001
 12
0.0000764316
 22
4.4300490249
 32
0.0
 13
-4.1046547399
 23
1.6664764731
 33
0.0
 40
0.0
 40
0.0
 40
0.0
 40
0.0
 40
0.1250154212
 40
0.2500122814
 40
0.3749865974
 40
0.4999362923
 40
0.6248713025
 40
0.6873785979
 40
0.7498875581
 40
0.8124044012
 40
0.8749307574
 40
0.9374623176
 40
1.0
 40
1.0
 40
1.0
 40
1.0
 10
25.8563908662
 20
-13.25
 30
0.0
 10
25.8563940513
 20
-13.0653918517
 30
0.0
 10
25.8284119642
 20
-12.6955890935
 30
0.0
 10
25.7032766621
 20
-12.1541110785
 30
0.0
 10
25.4975223165
 20
-11.6377184238
 30
0.0
 10
25.2148432434
 20
-11.1593685932
 30
0.0
 10
24.9229844889
 20
-10.7998274407
 30
0.0
 10
24.6602899444
 20
-10.5401539714
 30
0.0
 10
24.4492874322
 20
-10.3604177353
 30
0.0
 10
24.2266986866
 20
-10.195320084
 30
0.0
 10
23.9942322689
 20
-10.0443468128
 30
0.0
 10
23.7514933527
 20
-9.9103199185
 30
0.0
 10
23.5829669589
 20
-9.8342021647
 30
0.0
 10
23.4974017607
 20
-9.7994629726
 30
0.0
 11
25.8563908662
 21
-13.25
 31
0.0
 11
25.8145456965
 21
-12.69775866
 31
0.0
 11
25.6898252649
 21
-12.1582447504
 31
0.0
 11
25.4846789083
 21
-11.6440124869
 31
0.0
 11
25.2035750065
 21
-11.1671690307
 31
0.0
 11
24.8549411991
 21
-10.7373067982
 31
0.0
 11
24.6579737963
 21
-10.5426707211
 31
0.0
 11
24.4473692185
 21
-10.3628676161
 31
0.0
 11
24.2250685055
 21
-10.1976853534
 31
0.0
 11
23.9925311612
 21
-10.0471778262
 31
0.0
 11
23.7498281083
 21
-9.9136333299
 31
0.0
 11
23.4974017607
 21
-9.7994629726
 31
0.0
  0
SPLINE
  5
4D8
100
AcDbEntity
  8
RACCORDO
100
AcDbSpline
 62
253
  6
CONTINUOUS
 70
0
 71
3
 72
18
 73
14
 74
12
 42
0.0000001
 43
0.0000001
 44
0.0000000001
 12
4.1046492929
 22
1.6664791645
 32
0.0
 13
-0.0001192939
 23
4.4300449895
 33
0.0
 40
0.0
 40
0.0
 40
0.0
 40
0.0
 40
0.0625390255
 40
0.1250716598
 40
0.1875985942
 40
0.2501162704
 40
0.312625344
 40
0.3751308205
 40
0.5000591272
 40
0.6250047102
 40
0.7499804712
 40
0.8749800689
 40
1.0
 40
1.0
 40
1.0
 40
1.0
 10
23.4974036031
 20
9.799463755
 30
0.0
 10
23.5829705254
 20
9.8342037494
 30
0.0
 10
23.7515040489
 20
9.9103162936
 30
0.0
 10
23.9942242736
 20
10.0443842587
 30
0.0
 10
24.2267165714
 20
10.1953227421
 30
0.0
 10
24.4492981088
 20
10.3604350536
 30
0.0
 10
24.6603006008
 20
10.5401680039
 30
0.0
 10
24.9229881096
 20
10.7998309208
 30
0.0
 10
25.2148312935
 20
11.1593595893
 30
0.0
 10
25.4975121307
 20
11.6376913558
 30
0.0
 10
25.7032682872
 20
12.1540832626
 30
0.0
 10
25.8284112769
 20
12.6955719243
 30
0.0
 10
25.8563958376
 20
13.0653853602
 30
0.0
 10
25.8563908662
 20
13.25
 30
0.0
 11
23.4974036031
 21
9.799463755
 31
0.0
 11
23.7498343976
 21
9.9136381064
 31
0.0
 11
23.9925313327
 21
10.0472030663
 31
0.0
 11
24.2250807601
 21
10.1976961736
 31
0.0
 11
24.4473823752
 21
10.362882987
 31
0.0
 11
24.6579866518
 21
10.5426868301
 31
0.0
 11
24.8549491326
 21
10.7373160654
 31
0.0
 11
25.2035635807
 21
11.1671551146
 31
0.0
 11
25.4846640624
 21
11.6439788565
 31
0.0
 11
25.6898165969
 21
12.1582150043
 31
0.0
 11
25.81454383
 21
12.697739271
 31
0.0
 11
25.8563908662
 21
13.25
 31
0.0
  0
SPLINE
  5
4D9
100
AcDbEntity
  8
RACCORDO
100
AcDbSpline
 62
253
  6
CONTINUOUS
 70
0
 71
3
 72
18
 73
14
 74
12
 42
0.0000001
 43
0.0000001
 44
0.0000000001
 12
0.0000764316
 22
4.4300490249
 32
0.0
 13
-4.1046547399
 23
1.6664764731
 33
0.0
 40
0.0
 40
0.0
 40
0.0
 40
0.0
 40
0.1250154212
 40
0.2500122814
 40
0.3749865974
 40
0.4999362923
 40
0.6248713025
 40
0.6873785979
 40
0.7498875581
 40
0.8124044012
 40
0.8749307574
 40
0.9374623176
 40
1.0
 40
1.0
 40
1.0
 40
1.0
 10
25.8563908662
 20
57.75
 30
0.0
 10
25.8563940513
 20
57.9346081483
 30
0.0
 10
25.8284119642
 20
58.3044109065
 30
0.0
 10
25.7032766621
 20
58.8458889215
 30
0.0
 10
25.4975223165
 20
59.3622815762
 30
0.0
 10
25.2148432434
 20
59.8406314068
 30
0.0
 10
24.9229844889
 20
60.2001725593
 30
0.0
 10
24.6602899444
 20
60.4598460286
 30
0.0
 10
24.4492874322
 20
60.6395822647
 30
0.0
 10
24.2266986866
 20
60.804679916
 30
0.0
 10
23.9942322689
 20
60.9556531872
 30
0.0
 10
23.7514933527
 20
61.0896800815
 30
0.0
 10
23.5829669589
 20
61.1657978353
 30
0.0
 10
23.4974017607
 20
61.2005370274
 30
0.0
 11
25.8563908662
 21
57.75
 31
0.0
 11
25.8145456965
 21
58.30224134
 31
0.0
 11
25.6898252649
 21
58.8417552496
 31
0.0
 11
25.4846789083
 21
59.3559875131
 31
0.0
 11
25.2035750065
 21
59.8328309693
 31
0.0
 11
24.8549411991
 21
60.2626932018
 31
0.0
 11
24.6579737963
 21
60.4573292789
 31
0.0
 11
24.4473692185
 21
60.6371323839
 31
0.0
 11
24.2250685055
 21
60.8023146466
 31
0.0
 11
23.9925311612
 21
60.9528221738
 31
0.0
 11
23.7498281083
 21
61.0863666701
 31
0.0
 11
23.4974017607
 21
61.2005370274
 31
0.0
  0
SPLINE
  5
4DA
100
AcDbEntity
  8
RACCORDO
100
AcDbSpline
 62
253
  6
CONTINUOUS
 70
0
 71
3
 72
18
 73
14
 74
12
 42
0.0000001
 43
0.0000001
 44
0.0000000001
 12
4.1046492929
 22
1.6664791645
 32
0.0
 13
-0.0001192939
 23
4.4300449895
 33
0.0
 40
0.0
 40
0.0
 40
0.0
 40
0.0
 40
0.0625390255
 40
0.1250716598
 40
0.1875985942
 40
0.2501162704
 40
0.312625344
 40
0.3751308205
 40
0.5000591272
 40
0.6250047102
 40
0.7499804712
 40
0.8749800689
 40
1.0
 40
1.0
 40
1.0
 40
1.0
 10
23.4974036031
 20
80.799463755
 30
0.0
 10
23.5829705254
 20
80.8342037494
 30
0.0
 10
23.7515040489
 20
80.9103162936
 30
0.0
 10
23.9942242736
 20
81.0443842587
 30
0.0
 10
24.2267165714
 20
81.1953227421
 30
0.0
 10
24.4492981088
 20
81.3604350536
 30
0.0
 10
24.6603006008
 20
81.5401680039
 30
0.0
 10
24.9229881096
 20
81.7998309208
 30
0.0
 10
25.2148312935
 20
82.1593595893
 30
0.0
 10
25.4975121307
 20
82.6376913558
 30
0.0
 10
25.7032682872
 20
83.1540832626
 30
0.0
 10
25.8284112769
 20
83.6955719243
 30
0.0
 10
25.8563958376
 20
84.0653853602
 30
0.0
 10
25.8563908662
 20
84.25
 30
0.0
 11
23.4974036031
 21
80.799463755
 31
0.0
 11
23.7498343976
 21
80.9136381064
 31
0.0
 11
23.9925313327
 21
81.0472030663
 31
0.0
 11
24.2250807601
 21
81.1976961736
 31
0.0
 11
24.4473823752
 21
81.362882987
 31
0.0
 11
24.6579866518
 21
81.5426868301
 31
0.0
 11
24.8549491326
 21
81.7373160654
 31
0.0
 11
25.2035635807
 21
82.1671551146
 31
0.0
 11
25.4846640624
 21
82.6439788565
 31
0.0
 11
25.6898165969
 21
83.1582150043
 31
0.0
 11
25.81454383
 21
83.697739271
 31
0.0
 11
25.8563908662
 21
84.25
 31
0.0
  0
SPLINE
  5
4DB
100
AcDbEntity
  8
RACCORDO
100
AcDbSpline
 62
253
  6
CONTINUOUS
 70
0
 71
3
 72
18
 73
14
 74
12
 42
0.0000001
 43
0.0000001
 44
0.0000000001
 12
0.863448363
 22
-0.0091010531
 32
0.0
 13
0.6206500388
 23
-0.6003494266
 33
0.0
 40
0.0
 40
0.0
 40
0.0
 40
0.0
 40
0.1939440548
 40
0.3774656735
 40
0.5451711587
 40
0.6921405605
 40
0.8140804774
 40
0.8645298359
 40
0.9074760172
 40
0.9426196325
 40
0.9697636599
 40
0.9888137363
 40
1.0
 40
1.0
 40
1.0
 40
1.0
 10
38.8761260756
 20
143.5528968088
 30
0.0
 10
38.9319463011
 20
143.5523084438
 30
0.0
 10
39.0405826526
 20
143.5506636853
 30
0.0
 10
39.1974531427
 20
143.5467099053
 30
0.0
 10
39.3407582761
 20
143.5414465298
 30
0.0
 10
39.4662690909
 20
143.5350372565
 30
0.0
 10
39.5579812344
 20
143.5286247344
 30
0.0
 10
39.6196881669
 20
143.5228353496
 30
0.0
 10
39.6564626416
 20
143.518634238
 30
0.0
 10
39.6864148788
 20
143.5143218174
 30
0.0
 10
39.7095256889
 20
143.5100157602
 30
0.0
 10
39.7253027263
 20
143.5056848309
 30
0.0
 10
39.7336363869
 20
143.5022385556
 30
0.0
 10
39.7359506386
 20
143.4999999999
 30
0.0
 11
38.8761260756
 21
143.5528968088
 31
0.0
 11
39.0435763792
 21
143.5503297861
 31
0.0
 11
39.2019948045
 21
143.5462775563
 31
0.0
 11
39.3467064908
 21
143.5408596988
 31
0.0
 11
39.4734410605
 21
143.5342360923
 31
0.0
 11
39.5784586363
 21
143.5266021967
 31
0.0
 11
39.6218255823
 21
143.5224756187
 31
0.0
 11
39.6586602028
 21
143.5181832849
 31
0.0
 11
39.6886820186
 21
143.5137568285
 31
0.0
 11
39.7116790553
 21
143.5092277951
 31
0.0
 11
39.7274728696
 21
143.5046291968
 31
0.0
 11
39.7359506386
 21
143.4999999999
 31
0.0
  0
SPLINE
  5
4DC
100
AcDbEntity
  8
RACCORDO
100
AcDbSpline
 62
253
  6
CONTINUOUS
 70
0
 71
3
 72
18
 73
14
 74
12
 42
0.0000001
 43
0.0000001
 44
0.0000000001
 12
-0.0063266748
 22
0.8648378461
 32
0.0
 13
-0.4873573509
 23
0.714469971
 33
0.0
 40
0.0
 40
0.0
 40
0.0
 40
0.0
 40
0.1942053808
 40
0.3780299114
 40
0.5460349856
 40
0.6932544701
 40
0.8153457408
 40
0.8658148657
 40
0.9087311123
 40
0.9437800843
 40
0.9707390648
 40
0.9894577269
 40
1.0
 40
1.0
 40
1.0
 40
1.0
 10
37.0373529125
 20
145.373801016
 30
0.0
 10
37.0369433544
 20
145.4297864037
 30
0.0
 10
37.0357918669
 20
145.5387624726
 30
0.0
 10
37.0330103419
 20
145.6961538992
 30
0.0
 10
37.0292995493
 20
145.8399779729
 30
0.0
 10
37.0247742417
 20
145.9659699806
 30
0.0
 10
37.0202457503
 20
146.0580555089
 30
0.0
 10
37.0161498882
 20
146.1200362167
 30
0.0
 10
37.01318691
 20
146.156955768
 30
0.0
 10
37.0101227871
 20
146.1870225017
 30
0.0
 10
37.0071283196
 20
146.2101783199
 30
0.0
 10
37.0039982897
 20
146.2259480598
 30
0.0
 10
37.0017126181
 20
146.2342986554
 30
0.0
 10
37.0
 20
146.2368093679
 30
0.0
 11
37.0373529125
 21
145.373801016
 31
0.0
 11
37.0355559174
 21
145.54175206
 31
0.0
 11
37.0327048499
 21
145.7007091586
 31
0.0
 11
37.0288842313
 21
145.8459599536
 31
0.0
 11
37.0242073256
 21
145.9731984167
 31
0.0
 11
37.0188127821
 21
146.0786525038
 31
0.0
 11
37.015895538
 21
146.1222036856
 31
0.0
 11
37.0128605245
 21
146.1591959787
 31
0.0
 11
37.0097302114
 21
146.1893464033
 31
0.0
 11
37.0065270105
 21
146.2124410923
 31
0.0
 11
37.003274377
 21
146.2283000144
 31
0.0
 11
37.0
 21
146.2368093679
 31
0.0
  0
SPLINE
  5
4DD
100
AcDbEntity
  8
RACCORDO
100
AcDbSpline
 62
253
  6
CONTINUOUS
 70
0
 71
3
 72
11
 73
7
 74
5
 42
0.0000001
 43
0.0000001
 44
0.0000000001
 12
2.2779927308
 22
0.8235205735
 32
0.0
 13
-0.0000097027
 23
2.4222793019
 33
0.0
 40
0.0
 40
0.0
 40
0.0
 40
0.0
 40
0.2500999389
 40
0.5000707841
 40
0.7500274695
 40
1.0
 40
1.0
 40
1.0
 40
1.0
 10
22.9188423999
 20
82.3998704614
 30
0.0
 10
23.1087510141
 20
82.4685246098
 30
0.0
 10
23.4714827298
 20
82.6604112416
 30
0.0
 10
23.9066031143
 20
83.0947747024
 30
0.0
 10
24.188436746
 20
83.641631304
 30
0.0
 10
24.2535140505
 20
84.0481523595
 30
0.0
 10
24.2535132421
 20
84.2499867884
 30
0.0
 11
22.9188423999
 21
82.3998704614
 31
0.0
 11
23.4534117398
 21
82.6849032412
 31
0.0
 11
23.8810747078
 21
83.1135449007
 31
0.0
 11
24.157730182
 21
83.6521073393
 31
0.0
 11
24.2535132421
 21
84.2499867884
 31
0.0
  0
SPLINE
  5
4DE
100
AcDbEntity
  8
RACCORDO
100
AcDbSpline
 62
253
  6
CONTINUOUS
 70
0
 71
3
 72
11
 73
7
 74
5
 42
0.0000001
 43
0.0000001
 44
0.0000000001
 12
-0.0000065978
 22
-2.4222848311
 32
0.0
 13
2.2779979359
 23
-0.8235224389
 33
0.0
 40
0.0
 40
0.0
 40
0.0
 40
0.0
 40
0.2499653528
 40
0.4999258379
 40
0.7499044261
 40
1.0
 40
1.0
 40
1.0
 40
1.0
 10
-24.2535132541
 20
84.2499924171
 30
0.0
 10
-24.2535138038
 20
84.0481633229
 30
0.0
 10
-24.1884409641
 20
83.6416441109
 30
0.0
 10
-23.9066090655
 20
83.0947802975
 30
0.0
 10
-23.4714833585
 20
82.6604109587
 30
0.0
 10
-23.1087481336
 20
82.4685235671
 30
0.0
 10
-22.9188423999
 20
82.3998704614
 30
0.0
 11
-24.2535132541
 21
84.2499924171
 31
0.0
 11
-24.1577369409
 21
83.6521280954
 31
0.0
 11
-23.881081199
 21
83.1135538933
 31
0.0
 11
-23.4534042712
 21
82.684897715
 31
0.0
 11
-22.9188423999
 21
82.3998704614
 31
0.0
  0
SPLINE
  5
4DF
100
AcDbEntity
  8
RACCORDO
100
AcDbSpline
 62
253
  6
CONTINUOUS
 70
0
 71
3
 72
13
 73
9
 74
7
 42
0.0000001
 43
0.0000001
 44
0.0000000001
 12
0.0617174603
 22
-22.2499377427
 32
0.0
 13
-0.0001128445
 23
-22.2500233391
 33
0.0
 40
0.0
 40
0.0
 40
0.0
 40
0.0
 40
0.1249999262
 40
0.2499999305
 40
0.3749999383
 40
0.4999999493
 40
0.7499999743
 40
1.0
 40
1.0
 40
1.0
 40
1.0
 10
-24.2603442861
 20
128.7499997667
 30
0.0
 10
-24.2577727268
 20
127.8229195748
 30
0.0
 10
-24.2569581928
 20
125.9687492389
 30
0.0
 10
-24.2554798779
 20
123.1874981388
 30
0.0
 10
-24.2544458612
 20
120.4062449695
 30
0.0
 10
-24.25364008
 20
116.6979075842
 30
0.0
 10
-24.2533685324
 20
112.0624855418
 30
0.0
 10
-24.2535038649
 20
108.3541479576
 30
0.0
 10
-24.2535132686
 20
106.4999791552
 30
0.0
 11
-24.2603442861
 21
128.7499997667
 31
0.0
 11
-24.2569154408
 21
125.9687506051
 31
0.0
 11
-24.2555539277
 21
123.187497924
 31
0.0
 11
-24.2545174747
 21
120.4062450271
 31
0.0
 11
-24.2538905706
 21
117.6249919362
 31
0.0
 11
-24.253456675
 21
112.0624855623
 31
0.0
 11
-24.2535132686
 21
106.4999791552
 31
0.0
  0
SPLINE
  5
4E0
100
AcDbEntity
  8
RACCORDO
100
AcDbSpline
 62
253
  6
CONTINUOUS
 70
0
 71
3
 72
14
 73
10
 74
8
 42
0.0000001
 43
0.0000001
 44
0.0000000001
 12
25.2499186109
 22
0.0536696695
 32
0.0
 13
25.2499756491
 23
-0.0000836386
 33
0.0
 40
0.0
 40
0.0
 40
0.0
 40
0.0
 40
0.0624913219
 40
0.1249885153
 40
0.2499817878
 40
0.3749798701
 40
0.4999803287
 40
0.7499896216
 40
1.0
 40
1.0
 40
1.0
 40
1.0
 10
-37.0
 20
-146.2368093679
 30
0.0
 10
-36.4740330695
 20
-146.2356914051
 30
0.0
 10
-35.4220466292
 20
-146.2354490149
 30
0.0
 10
-33.3180363513
 20
-146.2336692254
 30
0.0
 10
-30.6879276184
 20
-146.2315517409
 30
0.0
 10
-27.5317501144
 20
-146.2297645915
 30
0.0
 10
-23.323355456
 20
-146.2275137868
 30
0.0
 10
-18.0627742362
 20
-146.2271501086
 30
0.0
 10
-13.8542794699
 20
-146.2278497905
 30
0.0
 10
-11.7500274807
 20
-146.2278567606
 30
0.0
 11
-37.0
 21
-146.2368093679
 31
0.0
 11
-35.4220963782
 21
-146.2352871696
 31
0.0
 11
-33.8440441965
 21
-146.2341213328
 31
0.0
 11
-30.6879680568
 21
-146.231677412
 31
0.0
 11
-27.5317700926
 21
-146.229781121
 31
0.0
 11
-24.3755119329
 21
-146.2282398356
 31
0.0
 11
-18.0627834317
 21
-146.2273977648
 31
0.0
 11
-11.7500274807
 21
-146.2278567606
 31
0.0
  0
SPLINE
  5
4E1
100
AcDbEntity
  8
RACCORDO
100
AcDbSpline
 62
253
  6
CONTINUOUS
 70
0
 71
3
 72
17
 73
13
 74
11
 42
0.0000001
 43
0.0000001
 44
0.0000000001
 12
-3.1489182664
 22
0.0137768999
 32
0.0
 13
0.0166948264
 23
-3.1489041481
 33
0.0
 40
0.0
 40
0.0
 40
0.0
 40
0.0
 40
0.1249430858
 40
0.2499109871
 40
0.3124672958
 40
0.3750208138
 40
0.4999902481
 40
0.6249682429
 40
0.7499453559
 40
0.812498465
 40
0.8750521058
 40
1.0
 40
1.0
 40
1.0
 40
1.0
 10
-22.2499996334
 20
130.7582091915
 30
0.0
 10
-22.3811448218
 20
130.7587829677
 30
0.0
 10
-22.644270075
 20
130.7323568228
 30
0.0
 10
-22.9597026233
 20
130.63517805
 30
0.0
 10
-23.1974142489
 20
130.5229471718
 30
0.0
 10
-23.4224068396
 20
130.386952912
 30
0.0
 10
-23.6765935109
 20
130.1760851245
 30
0.0
 10
-23.9277861953
 20
129.8701850983
 30
0.0
 10
-24.0851095314
 20
129.5799193919
 30
0.0
 10
-24.1764655413
 20
129.3334101548
 30
0.0
 10
-24.2417203355
 20
129.07882461
 30
0.0
 10
-24.2610396134
 20
128.8811494141
 30
0.0
 10
-24.2603442856
 20
128.7499997667
 30
0.0
 11
-22.2499996334
 21
130.7582091915
 31
0.0
 11
-22.6415338206
 21
130.7195376618
 31
0.0
 11
-23.0177980756
 21
130.6042935205
 31
0.0
 11
-23.1958258765
 21
130.5199737825
 31
0.0
 11
-23.3644515953
 21
130.4181620891
 31
0.0
 11
-23.6676257396
 21
130.1672731907
 31
0.0
 11
-23.9173785486
 21
129.8631275802
 31
0.0
 11
-24.105031187
 21
129.5172008256
 31
0.0
 11
-24.1732019852
 21
129.3323969053
 31
0.0
 11
-24.2221420325
 21
129.1415952333
 31
0.0
 11
-24.2603442856
 21
128.7499997667
 31
0.0
  0
SPLINE
  5
4E2
100
AcDbEntity
  8
RACCORDO
100
AcDbSpline
 62
253
  6
CONTINUOUS
 70
0
 71
3
 72
10
 73
6
 74
4
 42
0.0000001
 43
0.0000001
 44
0.0000000001
 12
-10.5001135752
 22
-0.0241085138
 32
0.0
 13
-10.5001412461
 23
0.00035508
 33
0.0
 40
0.0
 40
0.0
 40
0.0
 40
0.0
 40
0.249999913
 40
0.4999999283
 40
1.0
 40
1.0
 40
1.0
 40
1.0
 10
22.2500003789
 20
130.7582091935
 30
0.0
 10
21.3749912189
 20
130.7562001514
 30
0.0
 10
19.6249673947
 20
130.7548028438
 30
0.0
 10
16.1249210296
 20
130.7533585893
 30
0.0
 10
13.4998851421
 20
130.7537358395
 30
0.0
 10
11.7498613503
 20
130.7537950195
 30
0.0
 11
22.2500003789
 21
130.7582091935
 31
0.0
 11
19.624967976
 21
130.7549716391
 31
0.0
 11
16.9999327281
 21
130.7538819242
 31
0.0
 11
11.7498613503
 21
130.7537950195
 31
0.0
  0
SPLINE
  5
4E3
100
AcDbEntity
  8
RACCORDO
100
AcDbSpline
 62
253
  6
CONTINUOUS
 70
0
 71
3
 72
10
 73
6
 74
4
 42
0.0000001
 43
0.0000001
 44
0.0000000001
 12
-10.5001405005
 22
-0.0003559042
 32
0.0
 13
-10.5001127677
 23
0.0241355208
 33
0.0
 40
0.0
 40
0.0
 40
0.0
 40
0.0
 40
0.5000000717
 40
0.7500000871
 40
1.0
 40
1.0
 40
1.0
 40
1.0
 10
-11.7498613503
 20
130.7537950195
 30
0.0
 10
-13.499885018
 20
130.7537357021
 30
0.0
 10
-16.1249207207
 20
130.7533580353
 30
0.0
 10
-19.6249668335
 20
130.7548039027
 30
0.0
 10
-21.3749905409
 20
130.7561978997
 30
0.0
 10
-22.2499996334
 20
130.7582091924
 30
0.0
 11
-11.7498613503
 21
130.7537950195
 31
0.0
 11
-16.9999323557
 21
130.7538819542
 31
0.0
 11
-19.6249674175
 21
130.7549716687
 31
0.0
 11
-22.2499996334
 21
130.7582091924
 31
0.0
  0
SPLINE
  5
4E4
100
AcDbEntity
  8
RACCORDO
100
AcDbSpline
 62
253
  6
CONTINUOUS
 70
0
 71
3
 72
14
 73
10
 74
8
 42
0.0000001
 43
0.0000001
 44
0.0000000001
 12
25.2499226692
 22
0.000083663
 32
0.0
 13
25.2498656325
 23
-0.0536688558
 33
0.0
 40
0.0
 40
0.0
 40
0.0
 40
0.0
 40
0.2500103783
 40
0.5000196711
 40
0.6250201296
 40
0.7500182116
 40
0.8750114842
 40
0.9375086775
 40
1.0
 40
1.0
 40
1.0
 40
1.0
 10
11.7500274807
 20
-146.2278567606
 30
0.0
 10
13.8542750534
 20
-146.2278497884
 30
0.0
 10
18.0627609875
 20
-146.2271501124
 30
0.0
 10
23.3233311668
 20
-146.2275137802
 30
0.0
 10
27.5317169912
 20
-146.2297645612
 30
0.0
 10
30.6878878706
 20
-146.2315517705
 30
0.0
 10
33.3179910827
 20
-146.2336691681
 30
0.0
 10
35.4219969511
 20
-146.2354490054
 30
0.0
 10
36.4739811883
 20
-146.2356913146
 30
0.0
 10
36.9999470202
 20
-146.2368092605
 30
0.0
 11
11.7500274807
 21
-146.2278567606
 31
0.0
 11
18.0627701823
 21
-146.2273977651
 31
0.0
 11
24.3754854362
 21
-146.2282398218
 31
0.0
 11
27.5317369712
 21
-146.2297811036
 31
0.0
 11
30.6879283054
 21
-146.2316774142
 31
0.0
 11
33.8439978258
 21
-146.2341212972
 31
0.0
 11
35.4220466945
 21
-146.2352871339
 31
0.0
 11
36.9999470202
 21
-146.2368092605
 31
0.0
  0
SPLINE
  5
4E5
100
AcDbEntity
  8
RACCORDO
100
AcDbSpline
 62
253
  6
CONTINUOUS
 70
0
 71
3
 72
17
 73
13
 74
11
 42
0.0000001
 43
0.0000001
 44
0.0000000001
 12
0.01669442
 22
3.1489033849
 32
0.0
 13
-3.1489175035
 23
-0.0137763199
 33
0.0
 40
0.0
 40
0.0
 40
0.0
 40
0.0
 40
0.1249468007
 40
0.1875002125
 40
0.2500534048
 40
0.3750301786
 40
0.5000078965
 40
0.6249778706
 40
0.687531562
 40
0.7500879948
 40
0.8750561569
 40
1.0
 40
1.0
 40
1.0
 40
1.0
 10
24.2603442859
 20
128.7499998388
 30
0.0
 10
24.2610395906
 20
128.8811483066
 30
0.0
 10
24.2417206351
 20
129.0788220375
 30
0.0
 10
24.1764667407
 20
129.333406407
 30
0.0
 10
24.0851113141
 20
129.5799152455
 30
0.0
 10
23.9277890782
 20
129.8701808202
 30
0.0
 10
23.6765971844
 20
130.1760811872
 30
0.0
 10
23.4224111952
 20
130.3869504805
 30
0.0
 10
23.1974178787
 20
130.5229451386
 30
0.0
 10
22.9597060738
 20
130.6351768209
 30
0.0
 10
22.6442725942
 20
130.7323564813
 30
0.0
 10
22.3811463304
 20
130.7587829498
 30
0.0
 10
22.2500003789
 20
130.7582091943
 30
0.0
 11
24.2603442859
 21
128.7499998388
 31
0.0
 11
24.2221427298
 21
129.1415918174
 31
0.0
 11
24.1732032648
 21
129.332392845
 31
0.0
 11
24.1050327241
 21
129.5171970885
 31
0.0
 11
23.9173814506
 21
129.8631232598
 31
0.0
 11
23.6676300936
 21
130.1672688104
 31
0.0
 11
23.364455558
 21
130.4181597523
 31
0.0
 11
23.1958294975
 21
130.5199718431
 31
0.0
 11
23.0178015516
 21
130.6042920758
 31
0.0
 11
22.6415368116
 21
130.7195371123
 31
0.0
 11
22.2500003789
 21
130.7582091943
 31
0.0
  0
SPLINE
  5
4E6
100
AcDbEntity
  8
RACCORDO
100
AcDbSpline
 62
253
  6
CONTINUOUS
 70
0
 71
3
 72
13
 73
9
 74
7
 42
0.0000001
 43
0.0000001
 44
0.0000000001
 12
10.4812856894
 22
0.0017427595
 32
0.0
 13
10.4809668556
 23
0.0817710886
 33
0.0
 40
0.0
 40
0.0
 40
0.0
 40
0.0
 40
0.2500003136
 40
0.5000006363
 40
0.6250007713
 40
0.7500007712
 40
0.8750008298
 40
1.0
 40
1.0
 40
1.0
 40
1.0
 10
11.75
 20
-132.3576119724
 30
0.0
 10
12.6234415699
 20
-132.3574667423
 30
0.0
 10
14.3703247361
 20
-132.3577314492
 30
0.0
 10
16.5539287884
 20
-132.3566146555
 30
0.0
 10
18.3008094855
 20
-132.3538838118
 30
0.0
 10
19.6109662535
 20
-132.3502536098
 30
0.0
 10
20.9211150427
 20
-132.3453961618
 30
0.0
 10
21.7945421799
 20
-132.3407075091
 30
0.0
 10
22.231246233
 20
-132.337300403
 30
0.0
 11
11.75
 21
-132.3576119724
 31
0.0
 11
14.3703247403
 21
-132.3574419137
 31
0.0
 11
16.9906490528
 21
-132.3557788268
 31
0.0
 11
18.3008094194
 21
-132.3536201324
 31
0.0
 11
19.6109652799
 21
-132.3500490675
 31
0.0
 11
20.9211170241
 21
-132.3450335584
 31
0.0
 11
22.231246233
 21
-132.337300403
 31
0.0
  0
SPLINE
  5
4E7
100
AcDbEntity
  8
RACCORDO
100
AcDbSpline
 62
253
  6
CONTINUOUS
 70
0
 71
3
 72
13
 73
9
 74
7
 42
0.0000001
 43
0.0000001
 44
0.0000000001
 12
-0.0001128986
 22
22.2500234119
 32
0.0
 13
0.0617399559
 23
22.2499377532
 33
0.0
 40
0.0
 40
0.0
 40
0.0
 40
0.0
 40
0.2500000258
 40
0.5000000508
 40
0.6250000618
 40
0.7500000696
 40
0.875000074
 40
1.0
 40
1.0
 40
1.0
 40
1.0
 10
24.2535132686
 20
106.4999791549
 30
0.0
 10
24.2535038604
 20
108.3541479637
 30
0.0
 10
24.2533685275
 20
112.0624855606
 30
0.0
 10
24.2536401032
 20
116.6979076189
 30
0.0
 10
24.2544459271
 20
120.4062450169
 30
0.0
 10
24.255479348
 20
123.1874981963
 30
0.0
 10
24.2569578175
 20
125.9687493037
 30
0.0
 10
24.2577717896
 20
127.8229196476
 30
0.0
 10
24.2603442863
 20
128.7499998388
 30
0.0
 11
24.2535132686
 21
106.4999791549
 31
0.0
 11
24.2534566759
 21
112.0624855811
 31
0.0
 11
24.2538906061
 21
117.624991974
 31
0.0
 11
24.2545174359
 21
120.4062450745
 31
0.0
 11
24.2555535229
 21
123.1874979812
 31
0.0
 11
24.2569148993
 21
125.968750672
 31
0.0
 11
24.2603442863
 21
128.7499998388
 31
0.0
  0
SPLINE
  5
4E8
100
AcDbEntity
  8
RACCORDO
100
AcDbSpline
 62
253
  6
CONTINUOUS
 70
0
 71
3
 72
34
 73
30
 74
28
 42
0.0000001
 43
0.0000001
 44
0.0000000001
 12
5.6695390467
 22
0.0443211421
 32
0.0
 13
0.0067267275
 23
5.669708292
 33
0.0
 40
0.0
 40
0.0
 40
0.0
 40
0.0
 40
0.0624912124
 40
0.1249880797
 40
0.156243339
 40
0.1874987555
 40
0.2187540578
 40
0.2500091926
 40
0.3124962402
 40
0.3437513384
 40
0.3750060945
 40
0.4062600228
 40
0.4375143111
 40
0.5000026654
 40
0.5624923726
 40
0.6249823919
 40
0.6562383156
 40
0.6874933489
 40
0.7187473013
 40
0.7343751446
 40
0.7500028078
 40
0.7656299665
 40
0.7812564442
 40
0.7968825597
 40
0.8125095864
 40
0.843762248
 40
0.8750165799
 40
0.93750691
 40
1.0
 40
1.0
 40
1.0
 40
1.0
 10
22.231246233
 20
-132.337300403
 30
0.0
 10
22.3493450227
 20
-132.3363771757
 30
0.0
 10
22.5857466592
 20
-132.3232687453
 30
0.0
 10
22.8774049421
 20
-132.2749075982
 30
0.0
 10
23.1086642728
 20
-132.226460869
 30
0.0
 10
23.2801906414
 20
-132.1816169922
 30
0.0
 10
23.4493238252
 20
-132.128488654
 30
0.0
 10
23.6710255218
 20
-132.0467283314
 30
0.0
 10
23.8864497172
 20
-131.948527731
 30
0.0
 10
24.0927922966
 20
-131.8333589847
 30
0.0
 10
24.2435713533
 20
-131.740139556
 30
0.0
 10
24.3895071931
 20
-131.6394708571
 30
0.0
 10
24.5766114804
 20
-131.4951156615
 30
0.0
 10
24.796243723
 20
-131.2969036128
 30
0.0
 10
25.0330725487
 20
-131.0325130774
 30
0.0
 10
25.205515786
 20
-130.7920491391
 30
0.0
 10
25.3272031971
 20
-130.5894473758
 30
0.0
 10
25.4100392205
 20
-130.4326967354
 30
0.0
 10
25.4720897332
 20
-130.2986064907
 30
0.0
 10
25.5170032854
 20
-130.189323725
 30
0.0
 10
25.5485345048
 20
-130.1065160362
 30
0.0
 10
25.5794482929
 20
-130.0234801335
 30
0.0
 10
25.6121032983
 20
-129.9411174359
 30
0.0
 10
25.6433032449
 20
-129.8581812344
 30
0.0
 10
25.6809085318
 20
-129.7461743054
 30
0.0
 10
25.7218283088
 20
-129.604212421
 30
0.0
 10
25.7759219118
 20
-129.3741702367
 30
0.0
 10
25.8208108889
 20
-129.0817678562
 30
0.0
 10
25.8328674044
 20
-128.8454161546
 30
0.0
 10
25.833007529
 20
-128.7273102911
 30
0.0
 11
22.231246233
 21
-132.337300403
 31
0.0
 11
22.5849642048
 21
-132.3168753052
 31
0.0
 11
22.9350264402
 21
-132.261986874
 31
0.0
 11
23.1083411131
 21
-132.2250434648
 31
0.0
 11
23.2797920217
 21
-132.1802361758
 31
0.0
 11
23.448853218
 21
-132.1271213034
 31
0.0
 11
23.615107741
 21
-132.0657863639
 31
0.0
 11
23.9372497667
 21
-131.9183368103
 31
0.0
 11
24.0921254361
 21
-131.83222064
 31
0.0
 11
24.2427656769
 21
-131.7388970201
 31
0.0
 11
24.3885759239
 21
-131.6382019921
 31
0.0
 11
24.5289089936
 21
-131.5300009304
 31
0.0
 11
24.7917894797
 21
-131.292480498
 31
0.0
 11
25.0280866117
 21
-131.0284895775
 31
0.0
 11
25.2345646119
 21
-130.7405735655
 31
0.0
 11
25.3257967782
 21
-130.5886498404
 31
0.0
 11
25.4086443416
 21
-130.4320017685
 31
0.0
 11
25.4829232878
 21
-130.2711204351
 31
0.0
 11
25.516644347
 21
-130.1891826371
 31
0.0
 11
25.5484320865
 21
-130.1064767056
 31
0.0
 11
25.579739132
 21
-130.0235906776
 31
0.0
 11
25.6118610542
 21
-129.9410211764
 31
0.0
 11
25.6428033632
 21
-129.8580046106
 31
0.0
 11
25.6711018236
 21
-129.7740445657
 31
0.0
 11
25.7204061856
 21
-129.6038486446
 31
0.0
 11
25.7608887108
 21
-129.4313317095
 31
0.0
 11
25.8148471798
 21
-129.0811624262
 31
0.0
 11
25.833007529
 21
-128.7273102911
 31
0.0
  0
SPLINE
  5
4E9
100
AcDbEntity
  8
RACCORDO
100
AcDbSpline
 62
253
  6
CONTINUOUS
 70
0
 71
3
 72
11
 73
7
 74
5
 42
0.0000001
 43
0.0000001
 44
0.0000000001
 12
2.2779927308
 22
0.8235205735
 32
0.0
 13
-0.0000097027
 23
2.4222793019
 33
0.0
 40
0.0
 40
0.0
 40
0.0
 40
0.0
 40
0.2500999389
 40
0.5000707841
 40
0.7500274695
 40
1.0
 40
1.0
 40
1.0
 40
1.0
 10
22.9188423999
 20
11.3998704614
 30
0.0
 10
23.1087510141
 20
11.4685246098
 30
0.0
 10
23.4714827298
 20
11.6604112416
 30
0.0
 10
23.9066031143
 20
12.0947747024
 30
0.0
 10
24.188436746
 20
12.641631304
 30
0.0
 10
24.2535140505
 20
13.0481523595
 30
0.0
 10
24.2535132421
 20
13.2499867884
 30
0.0
 11
22.9188423999
 21
11.3998704614
 31
0.0
 11
23.4534117398
 21
11.6849032412
 31
0.0
 11
23.8810747078
 21
12.1135449007
 31
0.0
 11
24.157730182
 21
12.6521073393
 31
0.0
 11
24.2535132421
 21
13.2499867884
 31
0.0
  0
SPLINE
  5
4EA
100
AcDbEntity
  8
RACCORDO
100
AcDbSpline
 62
253
  6
CONTINUOUS
 70
0
 71
3
 72
15
 73
11
 74
9
 42
0.0000001
 43
0.0000001
 44
0.0000000001
 12
0.0265447184
 22
22.2273168831
 32
0.0
 13
0.0002437259
 23
22.2273327321
 33
0.0
 40
0.0
 40
0.0
 40
0.0
 40
0.0
 40
0.0624993699
 40
0.1249993265
 40
0.1874993471
 40
0.249999368
 40
0.3749994345
 40
0.4999995342
 40
0.7499997624
 40
1.0
 40
1.0
 40
1.0
 40
1.0
 10
25.833007529
 20
-128.7273102911
 30
0.0
 10
25.8335605384
 20
-128.2642458581
 30
0.0
 10
25.8345838011
 20
-127.3381123749
 30
0.0
 10
25.8381257181
 20
-125.9489130614
 30
0.0
 10
25.8427121092
 20
-124.5597123071
 30
0.0
 10
25.8470403164
 20
-122.7074386311
 30
0.0
 10
25.8510596895
 20
-120.3920934089
 30
0.0
 10
25.8550229207
 20
-116.6875369565
 30
0.0
 10
25.8569125575
 20
-112.0568383762
 30
0.0
 10
25.8563705593
 20
-108.3522794885
 30
0.0
 10
25.8563908699
 20
-106.5000000007
 30
0.0
 11
25.833007529
 21
-128.7273102911
 31
0.0
 11
25.8349182958
 21
-127.3381173156
 31
0.0
 11
25.8382997936
 21
-125.9489140987
 31
0.0
 11
25.8424887362
 21
-124.5597116612
 31
0.0
 11
25.8458655385
 21
-123.1705070056
 31
0.0
 11
25.8507512183
 21
-120.3920932314
 31
0.0
 11
25.8538278192
 21
-117.6136761252
 31
0.0
 11
25.8563991306
 21
-112.0568384643
 31
0.0
 11
25.8563908699
 21
-106.5000000007
 31
0.0
  0
SPLINE
  5
4EB
100
AcDbEntity
  8
RACCORDO
100
AcDbSpline
 62
253
  6
CONTINUOUS
 70
0
 71
3
 72
11
 73
7
 74
5
 42
0.0000001
 43
0.0000001
 44
0.0000000001
 12
-0.0000065978
 22
-2.4222848311
 32
0.0
 13
2.2779979359
 23
-0.8235224389
 33
0.0
 40
0.0
 40
0.0
 40
0.0
 40
0.0
 40
0.2499653528
 40
0.4999258379
 40
0.7499044261
 40
1.0
 40
1.0
 40
1.0
 40
1.0
 10
-24.2535132541
 20
13.2499924171
 30
0.0
 10
-24.2535138038
 20
13.0481633229
 30
0.0
 10
-24.1884409641
 20
12.6416441109
 30
0.0
 10
-23.9066090655
 20
12.0947802975
 30
0.0
 10
-23.4714833585
 20
11.6604109587
 30
0.0
 10
-23.1087481336
 20
11.4685235671
 30
0.0
 10
-22.9188423999
 20
11.3998704614
 30
0.0
 11
-24.2535132541
 21
13.2499924171
 31
0.0
 11
-24.1577369409
 21
12.6521280954
 31
0.0
 11
-23.881081199
 21
12.1135538933
 31
0.0
 11
-23.4534042712
 21
11.684897715
 31
0.0
 11
-22.9188423999
 21
11.3998704614
 31
0.0
  0
SPLINE
  5
4EC
100
AcDbEntity
  8
RACCORDO
100
AcDbSpline
 62
253
  6
CONTINUOUS
 70
0
 71
3
 72
11
 73
7
 74
5
 42
0.0000001
 43
0.0000001
 44
0.0000000001
 12
-2.2779927458
 22
-0.8235206777
 32
0.0
 13
0.0000096537
 23
-2.4222793514
 33
0.0
 40
0.0
 40
0.0
 40
0.0
 40
0.0
 40
0.250099934
 40
0.5000707785
 40
0.7500274659
 40
1.0
 40
1.0
 40
1.0
 40
1.0
 10
-22.9188423999
 20
59.6001295386
 30
0.0
 10
-23.1087510116
 20
59.5314753829
 30
0.0
 10
-23.4714827333
 20
59.3395887574
 30
0.0
 10
-23.9066031226
 20
58.9052252867
 30
0.0
 10
-24.1884367628
 20
58.3583686676
 30
0.0
 10
-24.2535140465
 20
57.951847597
 30
0.0
 10
-24.2535132422
 20
57.7500131611
 30
0.0
 11
-22.9188423999
 21
59.6001295386
 31
0.0
 11
-23.4534117394
 21
59.3150967571
 31
0.0
 11
-23.8810747148
 21
58.8864550898
 31
0.0
 11
-24.1577301916
 21
58.347892633
 31
0.0
 11
-24.2535132422
 21
57.7500131611
 31
0.0
  0
SPLINE
  5
4ED
100
AcDbEntity
  8
RACCORDO
100
AcDbSpline
 62
253
  6
CONTINUOUS
 70
0
 71
3
 72
15
 73
11
 74
9
 42
0.0000001
 43
0.0000001
 44
0.0000000001
 12
-0.1115213316
 22
36.9998320685
 32
0.0
 13
0.0000126987
 23
37.0000001365
 33
0.0
 40
0.0
 40
0.0
 40
0.0
 40
0.0
 40
0.0624794655
 40
0.1249766995
 40
0.1874762094
 40
0.2499773612
 40
0.3749808695
 40
0.4999845636
 40
0.7499922173
 40
1.0
 40
1.0
 40
1.0
 40
1.0
 10
39.735952773
 20
-143.5000000636
 30
0.0
 10
39.7336301752
 20
-142.7294234868
 30
0.0
 10
39.7331847772
 20
-141.1880416899
 30
0.0
 10
39.7312387779
 20
-138.8758368661
 30
0.0
 10
39.7301793156
 20
-136.5633627493
 30
0.0
 10
39.7293679999
 20
-133.4799781621
 30
0.0
 10
39.7289795531
 20
-129.6257084105
 30
0.0
 10
39.7283155042
 20
-123.4588585527
 30
0.0
 10
39.7279178859
 20
-115.7502892422
 30
0.0
 10
39.7278533351
 20
-109.5834321738
 30
0.0
 10
39.7278543933
 20
-106.5000028419
 30
0.0
 11
39.735952773
 21
-143.5000000636
 31
0.0
 11
39.7329719367
 21
-141.1882617542
 31
0.0
 11
39.7313865876
 21
-138.8758646304
 31
0.0
 11
39.7302544895
 21
-136.5633830329
 31
0.0
 11
39.7296125463
 21
-134.2508404976
 31
0.0
 11
39.7289742368
 21
-129.625710716
 31
0.0
 11
39.7285103463
 21
-125.0005740394
 31
0.0
 11
39.727981272
 21
-115.7502908366
 31
0.0
 11
39.7278543933
 21
-106.5000028419
 31
0.0
  0
SPLINE
  5
4EE
100
AcDbEntity
  8
RACCORDO
100
AcDbSpline
 62
253
  6
CONTINUOUS
 70
0
 71
3
 72
11
 73
7
 74
5
 42
0.0000001
 43
0.0000001
 44
0.0000000001
 12
0.000006594
 22
2.4222848368
 32
0.0
 13
-2.2779979564
 23
0.8235223988
 33
0.0
 40
0.0
 40
0.0
 40
0.0
 40
0.0
 40
0.2499653505
 40
0.4999258333
 40
0.7499044214
 40
1.0
 40
1.0
 40
1.0
 40
1.0
 10
24.2535132541
 20
57.7500075769
 30
0.0
 10
24.2535138035
 20
57.9518366697
 30
0.0
 10
24.1884409664
 20
58.3583558788
 30
0.0
 10
23.9066090724
 20
58.9052196922
 30
0.0
 10
23.4714833661
 20
59.3395890352
 30
0.0
 10
23.1087481388
 20
59.531476435
 30
0.0
 10
22.9188423999
 20
59.6001295386
 30
0.0
 11
24.2535132541
 21
57.7500075769
 31
0.0
 11
24.1577369435
 21
58.3478718947
 31
0.0
 11
23.8810812069
 21
58.886446095
 31
0.0
 11
23.4534042816
 21
59.3151022775
 31
0.0
 11
22.9188423999
 21
59.6001295386
 31
0.0
  0
SPLINE
  5
4EF
100
AcDbEntity
  8
RACCORDO
100
AcDbSpline
 62
253
  6
CONTINUOUS
 70
0
 71
3
 72
15
 73
11
 74
9
 42
0.0000001
 43
0.0000001
 44
0.0000000001
 12
-0.0000127081
 22
36.9999469999
 32
0.0
 13
0.1115213283
 23
36.9997789316
 33
0.0
 40
0.0
 40
0.0
 40
0.0
 40
0.0
 40
0.2500077824
 40
0.5000154357
 40
0.6250191296
 40
0.7500226378
 40
0.8125237895
 40
0.8750232994
 40
0.9375205333
 40
1.0
 40
1.0
 40
1.0
 40
1.0
 10
39.7278543933
 20
106.500002839
 30
0.0
 10
39.7278533343
 20
109.5834277385
 30
0.0
 10
39.7279178865
 20
115.750275942
 30
0.0
 10
39.7283155014
 20
123.4588341714
 30
0.0
 10
39.7289795502
 20
129.6256751645
 30
0.0
 10
39.7293679895
 20
133.4799393759
 30
0.0
 10
39.7301793043
 20
136.5633195316
 30
0.0
 10
39.7312387316
 20
138.8757903255
 30
0.0
 10
39.7331847939
 20
141.187991842
 30
0.0
 10
39.7336300201
 20
142.7293714395
 30
0.0
 10
39.7359526178
 20
143.4999469243
 30
0.0
 11
39.7278543933
 21
106.500002839
 31
0.0
 11
39.7279812715
 21
115.7502775364
 31
0.0
 11
39.7285103437
 21
125.000547442
 31
0.0
 11
39.7289742324
 21
129.6256774699
 31
0.0
 11
39.7296125362
 21
134.2508006031
 31
0.0
 11
39.7302544725
 21
136.5633398148
 31
0.0
 11
39.7313865577
 21
138.87581809
 31
0.0
 11
39.7329718999
 21
141.1882118907
 31
0.0
 11
39.7359526178
 21
143.4999469243
 31
0.0
  0
SPLINE
  5
4F0
100
AcDbEntity
  8
RACCORDO
100
AcDbSpline
 62
253
  6
CONTINUOUS
 70
0
 71
3
 72
11
 73
7
 74
5
 42
0.0000001
 43
0.0000001
 44
0.0000000001
 12
2.2779927308
 22
0.8235205735
 32
0.0
 13
-0.0000097027
 23
2.4222793019
 33
0.0
 40
0.0
 40
0.0
 40
0.0
 40
0.0
 40
0.2500999389
 40
0.5000707841
 40
0.7500274695
 40
1.0
 40
1.0
 40
1.0
 40
1.0
 10
22.9188423999
 20
-59.6001295386
 30
0.0
 10
23.1087510141
 20
-59.5314753902
 30
0.0
 10
23.4714827298
 20
-59.3395887584
 30
0.0
 10
23.9066031143
 20
-58.9052252976
 30
0.0
 10
24.188436746
 20
-58.358368696
 30
0.0
 10
24.2535140505
 20
-57.9518476405
 30
0.0
 10
24.2535132421
 20
-57.7500132116
 30
0.0
 11
22.9188423999
 21
-59.6001295386
 31
0.0
 11
23.4534117398
 21
-59.3150967588
 31
0.0
 11
23.8810747078
 21
-58.8864550993
 31
0.0
 11
24.157730182
 21
-58.3478926607
 31
0.0
 11
24.2535132421
 21
-57.7500132116
 31
0.0
  0
SPLINE
  5
4F1
100
AcDbEntity
  8
RACCORDO
100
AcDbSpline
 62
253
  6
CONTINUOUS
 70
0
 71
3
 72
35
 73
31
 74
29
 42
0.0000001
 43
0.0000001
 44
0.0000000001
 12
1.2979422429
 22
37.0323112891
 32
0.0
 13
-0.0002202991
 23
37.0550500395
 33
0.0
 40
0.0
 40
0.0
 40
0.0
 40
0.0
 40
0.0078051456
 40
0.0156136003
 40
0.0195189996
 40
0.0234250149
 40
0.0253781381
 40
0.027331345
 40
0.0312371891
 40
0.0351432795
 40
0.0390494065
 40
0.0429555331
 40
0.0468616556
 40
0.0546739071
 40
0.062486174
 40
0.0781107529
 40
0.0937354068
 40
0.1093601521
 40
0.1249849954
 40
0.1562349501
 40
0.1874851801
 40
0.2499860524
 40
0.2812365973
 40
0.312487155
 40
0.3749882833
 40
0.4374894253
 40
0.4999905795
 40
0.6249929127
 40
0.7499952682
 40
1.0
 40
1.0
 40
1.0
 40
1.0
 10
38.876126114
 20
-143.5528968235
 30
0.0
 10
38.8795029901
 20
-143.4565492957
 30
0.0
 10
38.8868074691
 20
-143.2638321849
 30
0.0
 10
38.8980526825
 20
-143.0229956889
 30
0.0
 10
38.9092126118
 20
-142.8303847767
 30
0.0
 10
38.9177255457
 20
-142.7100707608
 30
0.0
 10
38.9251968223
 20
-142.6138715219
 30
0.0
 10
38.9322197509
 20
-142.5176063719
 30
0.0
 10
38.9323039599
 20
-142.3969138025
 30
0.0
 10
38.9342501666
 20
-142.2522106875
 30
0.0
 10
38.9367076704
 20
-142.1074842945
 30
0.0
 10
38.9388681862
 20
-141.9627602616
 30
0.0
 10
38.9416212527
 20
-141.7697905115
 30
0.0
 10
38.9451691736
 20
-141.5285805465
 30
0.0
 10
38.9509482985
 20
-141.142644763
 30
0.0
 10
38.9581160299
 20
-140.6602227794
 30
0.0
 10
38.9666919127
 20
-140.0813137475
 30
0.0
 10
38.97510531
 20
-139.5023990641
 30
0.0
 10
38.9859150183
 20
-138.7305001535
 30
0.0
 10
38.9981344417
 20
-137.7656011345
 30
0.0
 10
39.0140963582
 20
-136.2217088476
 30
0.0
 10
39.0245094877
 20
-134.6777574448
 30
0.0
 10
39.0306055075
 20
-133.1337844762
 30
0.0
 10
39.0350536837
 20
-131.5898027523
 30
0.0
 10
39.0398876399
 20
-129.6598233719
 30
0.0
 10
39.0451033407
 20
-127.3438462682
 30
0.0
 10
39.0509613924
 20
-124.2558737586
 30
0.0
 10
39.0565329823
 20
-120.395904325
 30
0.0
 10
39.0620302088
 20
-114.2199484825
 30
0.0
 10
39.0629399377
 20
-109.5879792837
 30
0.0
 10
39.0629215791
 20
-106.5000000015
 30
0.0
 11
38.876126114
 21
-143.5528968235
 31
0.0
 11
38.8872284345
 21
-143.2638899325
 31
0.0
 11
38.9010214438
 21
-142.9748761991
 31
0.0
 11
38.9095194076
 21
-142.8304111568
 31
0.0
 11
38.9196482078
 21
-142.6860284094
 31
0.0
 11
38.9251407182
 21
-142.6138640486
 31
0.0
 11
38.929884649
 21
-142.541643511
 31
0.0
 11
38.9326114604
 21
-142.3969379498
 31
0.0
 11
38.934335368
 21
-142.2522078404
 31
0.0
 11
38.9366581713
 21
-142.1074847499
 31
0.0
 11
38.9388522343
 21
-141.9627596618
 31
0.0
 11
38.940940091
 21
-141.8180331588
 31
0.0
 11
38.9451819756
 21
-141.5285808658
 31
0.0
 11
38.9494997638
 21
-141.2391291309
 31
0.0
 11
38.9581117782
 21
-140.6602236297
 31
0.0
 11
38.9666648072
 21
-140.0813144792
 31
0.0
 11
38.9750542612
 21
-139.5023995461
 31
0.0
 11
38.9831263659
 21
-138.9234764673
 31
0.0
 11
38.9976857401
 21
-137.7655993657
 31
0.0
 11
39.0096434303
 21
-136.6076822706
 31
0.0
 11
39.0256737217
 21
-134.2917647957
 31
0.0
 11
39.030399525
 21
-133.1337839356
 31
0.0
 11
39.0338932215
 21
-131.9757982267
 31
0.0
 11
39.0397901316
 21
-129.6598232973
 31
0.0
 11
39.0449663132
 21
-127.3438461355
 31
0.0
 11
39.0493801473
 21
-125.027866948
 31
0.0
 11
39.0561058172
 21
-120.3959041173
 31
0.0
 11
39.0602988807
 21
-115.7639374772
 31
0.0
 11
39.0629215791
 21
-106.5000000015
 31
0.0
  0
SPLINE
  5
4F2
100
AcDbEntity
  8
RACCORDO
100
AcDbSpline
 62
253
  6
CONTINUOUS
 70
0
 71
3
 72
15
 73
11
 74
9
 42
0.0000001
 43
0.0000001
 44
0.0000000001
 12
2.8410894735
 22
0.0882788112
 32
0.0
 13
0.0996598524
 23
2.8407130195
 33
0.0
 40
0.0
 40
0.0
 40
0.0
 40
0.0
 40
0.1249840702
 40
0.2499953357
 40
0.3750233692
 40
0.5000558319
 40
0.6250840815
 40
0.7500975423
 40
0.8750777562
 40
1.0
 40
1.0
 40
1.0
 40
1.0
 10
37.0373529125
 20
-145.3738010161
 30
0.0
 10
37.1557165546
 20
-145.3701232011
 30
0.0
 10
37.3923676911
 20
-145.3402308882
 30
0.0
 10
37.7322495164
 20
-145.2300047235
 30
0.0
 10
38.0459338887
 20
-145.0585900814
 30
0.0
 10
38.3223900541
 20
-144.8319987712
 30
0.0
 10
38.5520506993
 20
-144.5581016331
 30
0.0
 10
38.7268343308
 20
-144.246318176
 30
0.0
 10
38.8403642922
 20
-143.9076065711
 30
0.0
 10
38.8719762032
 20
-143.6711862383
 30
0.0
 10
38.876126114
 20
-143.5528968235
 30
0.0
 11
37.0373529125
 21
-145.3738010161
 31
0.0
 11
37.3898220958
 21
-145.3293400489
 31
0.0
 11
37.7278615039
 21
-145.2198156586
 31
0.0
 11
38.0397233026
 21
-145.0493975647
 31
0.0
 11
38.314595082
 21
-144.8241098332
 31
0.0
 11
38.5429168456
 21
-144.5517686552
 31
0.0
 11
38.7166443716
 21
-144.2417857285
 31
0.0
 11
38.8293611935
 21
-143.9048904441
 31
0.0
 11
38.876126114
 21
-143.5528968235
 31
0.0
  0
SPLINE
  5
4F3
100
AcDbEntity
  8
RACCORDO
100
AcDbSpline
 62
253
  6
CONTINUOUS
 70
0
 71
3
 72
11
 73
7
 74
5
 42
0.0000001
 43
0.0000001
 44
0.0000000001
 12
-0.0000065978
 22
-2.4222848311
 32
0.0
 13
2.2779979359
 23
-0.8235224389
 33
0.0
 40
0.0
 40
0.0
 40
0.0
 40
0.0
 40
0.2499653528
 40
0.4999258379
 40
0.7499044261
 40
1.0
 40
1.0
 40
1.0
 40
1.0
 10
-24.2535132541
 20
-57.7500075829
 30
0.0
 10
-24.2535138038
 20
-57.9518366771
 30
0.0
 10
-24.1884409641
 20
-58.3583558891
 30
0.0
 10
-23.9066090655
 20
-58.9052197025
 30
0.0
 10
-23.4714833585
 20
-59.3395890413
 30
0.0
 10
-23.1087481336
 20
-59.5314764329
 30
0.0
 10
-22.9188423999
 20
-59.6001295386
 30
0.0
 11
-24.2535132541
 21
-57.7500075829
 31
0.0
 11
-24.1577369409
 21
-58.3478719046
 31
0.0
 11
-23.881081199
 21
-58.8864461067
 31
0.0
 11
-23.4534042712
 21
-59.315102285
 31
0.0
 11
-22.9188423999
 21
-59.6001295386
 31
0.0
  0
SPLINE
  5
4F4
100
AcDbEntity
  8
RACCORDO
100
AcDbSpline
 62
253
  6
CONTINUOUS
 70
0
 71
3
 72
35
 73
31
 74
29
 42
0.0000001
 43
0.0000001
 44
0.0000000001
 12
-0.0002202935
 22
-37.0550500674
 32
0.0
 13
1.2979707041
 23
-37.0323103195
 33
0.0
 40
0.0
 40
0.0
 40
0.0
 40
0.0
 40
0.2500047365
 40
0.3750070944
 40
0.50000943
 40
0.5625105854
 40
0.6250117286
 40
0.6875128581
 40
0.7187634164
 40
0.7500139618
 40
0.8125148354
 40
0.843765066
 40
0.8750150212
 40
0.8906398649
 40
0.9062646105
 40
0.9218892646
 40
0.9375138439
 40
0.9453261108
 40
0.9531383626
 40
0.9570444851
 40
0.9609506118
 40
0.9648567386
 40
0.9687628303
 40
0.9726686925
 40
0.9746218611
 40
0.9765749883
 40
0.9804810013
 40
0.9843864004
 40
0.9921948547
 40
1.0
 40
1.0
 40
1.0
 40
1.0
 10
-39.0629215791
 20
-106.5000000015
 30
0.0
 10
-39.0629399373
 20
-109.5879793448
 30
0.0
 10
-39.0620302092
 20
-114.2199486351
 30
0.0
 10
-39.0565329815
 20
-120.3959045997
 30
0.0
 10
-39.0509613917
 20
-124.2558741097
 30
0.0
 10
-39.0451033325
 20
-127.3438466802
 30
0.0
 10
-39.0398876895
 20
-129.6598238299
 30
0.0
 10
-39.0350535146
 20
-131.5898032478
 30
0.0
 10
-39.030605612
 20
-133.133785003
 30
0.0
 10
-39.0245094164
 20
-134.6777580015
 30
0.0
 10
-39.0140963562
 20
-136.2217094351
 30
0.0
 10
-38.9981344379
 20
-137.7656017527
 30
0.0
 10
-38.9859150033
 20
-138.7305007906
 30
0.0
 10
-38.9751052956
 20
-139.5023997165
 30
0.0
 10
-38.9666919144
 20
-140.0813144114
 30
0.0
 10
-38.9581159769
 20
-140.6602234547
 30
0.0
 10
-38.9509484017
 20
-141.1426454479
 30
0.0
 10
-38.945168957
 20
-141.5285812391
 30
0.0
 10
-38.9416217731
 20
-141.7697912087
 30
0.0
 10
-38.938867009
 20
-141.9627609615
 30
0.0
 10
-38.9367041793
 20
-142.1074848884
 30
0.0
 10
-38.9342577602
 20
-142.2522117274
 30
0.0
 10
-38.932266883
 20
-142.3969134155
 30
0.0
 10
-38.9322784149
 20
-142.5176104146
 30
0.0
 10
-38.9251309061
 20
-142.6138671355
 30
0.0
 10
-38.9177840331
 20
-142.7100750416
 30
0.0
 10
-38.909194839
 20
-142.8303835297
 30
0.0
 10
-38.8980625313
 20
-143.0229964489
 30
0.0
 10
-38.8868038566
 20
-143.2638319295
 30
0.0
 10
-38.879503064
 20
-143.4565493027
 30
0.0
 10
-38.876126114
 20
-143.5528968235
 30
0.0
 11
-39.0629215791
 21
-106.5000000015
 31
0.0
 11
-39.0602988806
 21
-115.7639376603
 31
0.0
 11
-39.0561058166
 21
-120.395904392
 31
0.0
 11
-39.0493801441
 21
-125.0278673143
 31
0.0
 11
-39.0449663156
 21
-127.3438465476
 31
0.0
 11
-39.0397901278
 21
-129.6598237551
 31
0.0
 11
-39.0338931582
 21
-131.9757987301
 31
0.0
 11
-39.0303995733
 21
-133.1337844622
 31
0.0
 11
-39.0256737148
 21
-134.291765345
 31
0.0
 11
-39.009643422
 21
-136.6076828658
 31
0.0
 11
-38.9976857343
 21
-137.7655999838
 31
0.0
 11
-38.9831263519
 21
-138.9234771082
 31
0.0
 11
-38.9750542495
 21
-139.5024001985
 31
0.0
 11
-38.9666647971
 21
-140.0813151431
 31
0.0
 11
-38.9581117656
 21
-140.660224305
 31
0.0
 11
-38.9494997499
 21
-141.2391298177
 31
0.0
 11
-38.9451819463
 21
-141.5285815581
 31
0.0
 11
-38.9409399964
 21
-141.8180338562
 31
0.0
 11
-38.9388508837
 21
-141.9627603459
 31
0.0
 11
-38.9366569134
 21
-142.1074854352
 31
0.0
 11
-38.9343336696
 21
-142.2522085131
 31
0.0
 11
-38.9326009786
 21
-142.3969385657
 31
0.0
 11
-38.9298953719
 21
-142.5416451944
 31
0.0
 11
-38.9251059636
 21
-142.6138613102
 31
0.0
 11
-38.9196601508
 21
-142.6860293593
 31
0.0
 11
-38.9095203388
 21
-142.8304112488
 31
0.0
 11
-38.9010211906
 21
-142.9748762131
 31
0.0
 11
-38.8872284348
 21
-143.2638899456
 31
0.0
 11
-38.876126114
 21
-143.5528968235
 31
0.0
  0
SPLINE
  5
4F5
100
AcDbEntity
  8
RACCORDO
100
AcDbSpline
 62
253
  6
CONTINUOUS
 70
0
 71
3
 72
11
 73
7
 74
5
 42
0.0000001
 43
0.0000001
 44
0.0000000001
 12
-2.2779927458
 22
-0.8235206777
 32
0.0
 13
0.0000096537
 23
-2.4222793514
 33
0.0
 40
0.0
 40
0.0
 40
0.0
 40
0.0
 40
0.250099934
 40
0.5000707785
 40
0.7500274659
 40
1.0
 40
1.0
 40
1.0
 40
1.0
 10
-22.9188423999
 20
-11.3998704614
 30
0.0
 10
-23.1087510116
 20
-11.4685246171
 30
0.0
 10
-23.4714827333
 20
-11.6604112426
 30
0.0
 10
-23.9066031226
 20
-12.0947747133
 30
0.0
 10
-24.1884367628
 20
-12.6416313324
 30
0.0
 10
-24.2535140465
 20
-13.048152403
 30
0.0
 10
-24.2535132422
 20
-13.2499868389
 30
0.0
 11
-22.9188423999
 21
-11.3998704614
 31
0.0
 11
-23.4534117394
 21
-11.6849032429
 31
0.0
 11
-23.8810747148
 21
-12.1135449102
 31
0.0
 11
-24.1577301916
 21
-12.652107367
 31
0.0
 11
-24.2535132422
 21
-13.2499868389
 31
0.0
  0
SPLINE
  5
4F6
100
AcDbEntity
  8
RACCORDO
100
AcDbSpline
 62
253
  6
CONTINUOUS
 70
0
 71
3
 72
15
 73
11
 74
9
 42
0.0000001
 43
0.0000001
 44
0.0000000001
 12
0.0002439346
 22
-22.2273327363
 32
0.0
 13
0.0264833947
 23
-22.2273169604
 33
0.0
 40
0.0
 40
0.0
 40
0.0
 40
0.0
 40
0.2500002378
 40
0.5000004662
 40
0.6250005661
 40
0.7500006327
 40
0.8125006535
 40
0.8750006742
 40
0.9375006308
 40
1.0
 40
1.0
 40
1.0
 40
1.0
 10
-25.8563908699
 20
-106.5000000002
 30
0.0
 10
-25.856370542
 20
-108.3522794898
 30
0.0
 10
-25.8569125347
 20
-112.0568383815
 30
0.0
 10
-25.8550230214
 20
-116.6875369662
 30
0.0
 10
-25.8510598366
 20
-120.3920934231
 30
0.0
 10
-25.8470383997
 20
-122.7074386431
 30
0.0
 10
-25.8427125936
 20
-124.5597123263
 30
0.0
 10
-25.8381341266
 20
-125.9489131023
 30
0.0
 10
-25.834572688
 20
-127.3381123657
 30
0.0
 10
-25.8335592608
 20
-128.2642458615
 30
0.0
 10
-25.833007529
 20
-128.7273102911
 30
0.0
 11
-25.8563908699
 21
-106.5000000002
 31
0.0
 11
-25.8563991338
 21
-112.0568384695
 31
0.0
 11
-25.8538279271
 21
-117.6136761362
 31
0.0
 11
-25.8507509469
 21
-120.3920932448
 31
0.0
 11
-25.8458645598
 21
-123.1705070202
 31
0.0
 11
-25.8424902412
 21
-124.5597116824
 31
0.0
 11
-25.8383036279
 21
-125.94891413
 31
0.0
 11
-25.8349128952
 21
-127.338117323
 31
0.0
 11
-25.833007529
 21
-128.7273102911
 31
0.0
  0
SPLINE
  5
4F7
100
AcDbEntity
  8
RACCORDO
100
AcDbSpline
 62
253
  6
CONTINUOUS
 70
0
 71
3
 72
34
 73
30
 74
28
 42
0.0000001
 43
0.0000001
 44
0.0000000001
 12
0.006728221
 22
-5.6697078698
 32
0.0
 13
5.6695385589
 23
-0.0443297538
 33
0.0
 40
0.0
 40
0.0
 40
0.0
 40
0.0
 40
0.0624925968
 40
0.1249822844
 40
0.1562363117
 40
0.1874889655
 40
0.2031159721
 40
0.2187421338
 40
0.2343686657
 40
0.2499957932
 40
0.2656235947
 40
0.2812514031
 40
0.3125051864
 40
0.3437600623
 40
0.3750158174
 40
0.4375055102
 40
0.4999952329
 40
0.5624840017
 40
0.5937383672
 40
0.6249923722
 40
0.6562472179
 40
0.6875023952
 40
0.749989602
 40
0.781244862
 40
0.8125002424
 40
0.8437557132
 40
0.8750110342
 40
0.937507938
 40
1.0
 40
1.0
 40
1.0
 40
1.0
 10
-25.833007529
 20
-128.7273102911
 30
0.0
 10
-25.8328673744
 20
-128.8454152138
 30
0.0
 10
-25.8208100088
 20
-129.0817644786
 30
0.0
 10
-25.7759247619
 20
-129.3741651386
 30
0.0
 10
-25.7218271556
 20
-129.6042038886
 30
0.0
 10
-25.6809215118
 20
-129.7461700458
 30
0.0
 10
-25.6432900474
 20
-129.8581677036
 30
0.0
 10
-25.612131501
 20
-129.941119482
 30
0.0
 10
-25.5794421777
 20
-130.0234691992
 30
0.0
 10
-25.5485306304
 20
-130.1065060207
 30
0.0
 10
-25.5170659429
 20
-130.1893401134
 30
0.0
 10
-25.4720225995
 20
-130.2985694567
 30
0.0
 10
-25.4100656438
 20
-130.4326988383
 30
0.0
 10
-25.3272022382
 20
-130.5894369769
 30
0.0
 10
-25.2055248571
 20
-130.7920416389
 30
0.0
 10
-25.0330780671
 20
-131.0325032737
 30
0.0
 10
-24.796251649
 20
-131.2968951431
 30
0.0
 10
-24.576621389
 20
-131.4951115959
 30
0.0
 10
-24.3895114136
 20
-131.639461084
 30
0.0
 10
-24.2435772448
 20
-131.7401327597
 30
0.0
 10
-24.0927995719
 20
-131.8333554002
 30
0.0
 10
-23.8864566571
 20
-131.948524853
 30
0.0
 10
-23.67103187
 20
-132.0467257182
 30
0.0
 10
-23.4493297453
 20
-132.1284868454
 30
0.0
 10
-23.2801960057
 20
-132.181614963
 30
0.0
 10
-23.1086694907
 20
-132.2264597275
 30
0.0
 10
-22.8774095872
 20
-132.2749050316
 30
0.0
 10
-22.5857500395
 20
-132.3232693372
 30
0.0
 10
-22.3493466181
 20
-132.3363769838
 30
0.0
 10
-22.231246233
 20
-132.337300403
 30
0.0
 11
-25.833007529
 21
-128.7273102911
 31
0.0
 11
-25.8148472285
 21
-129.0811596024
 31
0.0
 11
-25.7608900284
 21
-129.4313253686
 31
0.0
 11
-25.7204085255
 21
-129.6038407562
 31
0.0
 11
-25.6711051443
 21
-129.7740369022
 31
0.0
 11
-25.6428003872
 21
-129.8579946972
 31
0.0
 11
-25.6118766412
 21
-129.9410184519
 31
0.0
 11
-25.5797390622
 21
-130.0235821835
 31
0.0
 11
-25.5484390296
 21
-130.1064706639
 31
0.0
 11
-25.5166795556
 21
-130.1891882865
 31
0.0
 11
-25.4829055536
 21
-130.2711040546
 31
0.0
 11
-25.4086474911
 21
-130.4319939581
 31
0.0
 11
-25.3258016276
 21
-130.5886419044
 31
0.0
 11
-25.2345701338
 21
-130.7405649031
 31
0.0
 11
-25.0280937866
 21
-131.0284797906
 31
0.0
 11
-24.7917980387
 21
-131.2924720328
 31
0.0
 11
-24.528916606
 21
-131.5299948831
 31
0.0
 11
-24.3885810876
 21
-131.6381934647
 31
0.0
 11
-24.2427715415
 21
-131.7388902491
 31
0.0
 11
-24.0921324216
 21
-131.8322166184
 31
0.0
 11
-23.9372567716
 21
-131.9183337183
 31
0.0
 11
-23.6151140948
 21
-132.065783957
 31
0.0
 11
-23.4488590101
 21
-132.1271193871
 31
0.0
 11
-23.2797973922
 21
-132.1802343496
 31
0.0
 11
-23.1083462727
 21
-132.2250419995
 31
0.0
 11
-22.9350311685
 21
-132.2619850005
 31
0.0
 11
-22.5849689794
 21
-132.3168748912
 31
0.0
 11
-22.231246233
 21
-132.337300403
 31
0.0
  0
SPLINE
  5
4F8
100
AcDbEntity
  8
RACCORDO
100
AcDbSpline
 62
253
  6
CONTINUOUS
 70
0
 71
3
 72
11
 73
7
 74
5
 42
0.0000001
 43
0.0000001
 44
0.0000000001
 12
0.000006594
 22
2.4222848368
 32
0.0
 13
-2.2779979564
 23
0.8235223988
 33
0.0
 40
0.0
 40
0.0
 40
0.0
 40
0.0
 40
0.2499653505
 40
0.4999258333
 40
0.7499044214
 40
1.0
 40
1.0
 40
1.0
 40
1.0
 10
24.2535132541
 20
-13.2499924231
 30
0.0
 10
24.2535138035
 20
-13.0481633303
 30
0.0
 10
24.1884409664
 20
-12.6416441212
 30
0.0
 10
23.9066090724
 20
-12.0947803078
 30
0.0
 10
23.4714833661
 20
-11.6604109648
 30
0.0
 10
23.1087481388
 20
-11.468523565
 30
0.0
 10
22.9188423999
 20
-11.3998704614
 30
0.0
 11
24.2535132541
 21
-13.2499924231
 31
0.0
 11
24.1577369435
 21
-12.6521281053
 31
0.0
 11
23.8810812069
 21
-12.113553905
 31
0.0
 11
23.4534042816
 21
-11.6848977225
 31
0.0
 11
22.9188423999
 21
-11.3998704614
 31
0.0
  0
SPLINE
  5
4F9
100
AcDbEntity
  8
RACCORDO
100
AcDbSpline
 62
253
  6
CONTINUOUS
 70
0
 71
3
 72
13
 73
9
 74
7
 42
0.0000001
 43
0.0000001
 44
0.0000000001
 12
10.4809662421
 22
-0.0818502359
 32
0.0
 13
10.4812856942
 23
-0.0017393018
 33
0.0
 40
0.0
 40
0.0
 40
0.0
 40
0.0
 40
0.1249991699
 40
0.2499992297
 40
0.3749992292
 40
0.4999993639
 40
0.7499996866
 40
1.0
 40
1.0
 40
1.0
 40
1.0
 10
-22.231246233
 20
-132.337300403
 30
0.0
 10
-21.7945422062
 20
-132.3407108069
 30
0.0
 10
-20.9211150567
 20
-132.3453998725
 30
0.0
 10
-19.6109662498
 20
-132.3502522641
 30
0.0
 10
-18.3008094813
 20
-132.3538827139
 30
0.0
 10
-16.5539287883
 20
-132.3566153817
 30
0.0
 10
-14.3703247355
 20
-132.3577309605
 30
0.0
 10
-12.6234415696
 20
-132.3574670305
 30
0.0
 10
-11.75
 20
-132.3576119725
 30
0.0
 11
-22.231246233
 21
-132.337300403
 31
0.0
 11
-20.9211170422
 21
-132.3450363231
 31
0.0
 11
-19.6109652742
 21
-132.3500486058
 31
0.0
 11
-18.3008094153
 21
-132.3536192212
 31
0.0
 11
-16.990649053
 21
-132.3557788639
 31
0.0
 11
-14.3703247394
 21
-132.3574418622
 31
0.0
 11
-11.75
 21
-132.3576119725
 31
0.0
  0
SPLINE
  5
4FA
100
AcDbEntity
  8
RACCORDO
100
AcDbSpline
 62
253
  6
CONTINUOUS
 70
0
 71
3
 72
17
 73
13
 74
11
 42
0.0000001
 43
0.0000001
 44
0.0000000001
 12
3.1489182664
 22
-0.0137768999
 32
0.0
 13
-0.0166948264
 23
3.1489041481
 33
0.0
 40
0.0
 40
0.0
 40
0.0
 40
0.0
 40
0.1249430858
 40
0.2499109871
 40
0.3124672958
 40
0.3750208138
 40
0.4999902481
 40
0.6249682429
 40
0.7499453559
 40
0.812498465
 40
0.8750521058
 40
1.0
 40
1.0
 40
1.0
 40
1.0
 10
22.2499996334
 20
-130.7582091915
 30
0.0
 10
22.3811448218
 20
-130.7587829677
 30
0.0
 10
22.644270075
 20
-130.7323568228
 30
0.0
 10
22.9597026233
 20
-130.63517805
 30
0.0
 10
23.1974142489
 20
-130.5229471718
 30
0.0
 10
23.4224068396
 20
-130.386952912
 30
0.0
 10
23.6765935109
 20
-130.1760851245
 30
0.0
 10
23.9277861953
 20
-129.8701850983
 30
0.0
 10
24.0851095314
 20
-129.5799193919
 30
0.0
 10
24.1764655413
 20
-129.3334101548
 30
0.0
 10
24.2417203355
 20
-129.07882461
 30
0.0
 10
24.2610396134
 20
-128.8811494141
 30
0.0
 10
24.2603442856
 20
-128.7499997667
 30
0.0
 11
22.2499996334
 21
-130.7582091915
 31
0.0
 11
22.6415338206
 21
-130.7195376618
 31
0.0
 11
23.0177980756
 21
-130.6042935205
 31
0.0
 11
23.1958258765
 21
-130.5199737825
 31
0.0
 11
23.3644515953
 21
-130.4181620891
 31
0.0
 11
23.6676257396
 21
-130.1672731907
 31
0.0
 11
23.9173785486
 21
-129.8631275802
 31
0.0
 11
24.105031187
 21
-129.5172008256
 31
0.0
 11
24.1732019852
 21
-129.3323969053
 31
0.0
 11
24.2221420325
 21
-129.1415952333
 31
0.0
 11
24.2603442856
 21
-128.7499997667
 31
0.0
  0
SPLINE
  5
4FB
100
AcDbEntity
  8
RACCORDO
100
AcDbSpline
 62
253
  6
CONTINUOUS
 70
0
 71
3
 72
18
 73
14
 74
12
 42
0.0000001
 43
0.0000001
 44
0.0000000001
 12
0.0063267331
 22
0.8648357528
 32
0.0
 13
0.4873578683
 23
0.7144670846
 33
0.0
 40
0.0
 40
0.0
 40
0.0
 40
0.0
 40
0.1942055209
 40
0.3780301333
 40
0.5460352348
 40
0.6932547008
 40
0.8153459207
 40
0.8658150132
 40
0.9087312254
 40
0.9437801634
 40
0.9707391124
 40
0.9894577473
 40
1.0
 40
1.0
 40
1.0
 40
1.0
 10
-37.0373529036
 20
145.3738009839
 30
0.0
 10
-37.0369433414
 20
145.4297862765
 30
0.0
 10
-37.035791848
 20
145.5387621455
 30
0.0
 10
-37.0330103182
 20
145.6961532629
 30
0.0
 10
-37.0292995245
 20
145.8399770145
 30
0.0
 10
-37.0247742185
 20
145.9659687048
 30
0.0
 10
-37.0202457302
 20
146.0580539806
 30
0.0
 10
-37.0161498715
 20
146.120034504
 30
0.0
 10
-37.0131868962
 20
146.1569539365
 30
0.0
 10
-37.0101227765
 20
146.1870205678
 30
0.0
 10
-37.0071283123
 20
146.2101763031
 30
0.0
 10
-37.003998286
 20
146.2259459797
 30
0.0
 10
-37.0017126165
 20
146.2342965418
 30
0.0
 10
-36.9999999999
 20
146.2368072393
 30
0.0
 11
-37.0373529036
 21
145.3738009839
 31
0.0
 11
-37.0355558988
 21
145.5417517426
 31
0.0
 11
-37.0327048262
 21
145.700708527
 31
0.0
 11
-37.0288842063
 21
145.8459589938
 31
0.0
 11
-37.0242073023
 21
145.9731971327
 31
0.0
 11
-37.0188127628
 21
146.0786509202
 31
0.0
 11
-37.0158955213
 21
146.1222019681
 31
0.0
 11
-37.0128605108
 21
146.1591941416
 31
0.0
 11
-37.0097302009
 21
146.1893444632
 31
0.0
 11
-37.0065270034
 21
146.2124390681
 31
0.0
 11
-37.0032743734
 21
146.2282979269
 31
0.0
 11
-36.9999999999
 21
146.2368072393
 31
0.0
  0
SPLINE
  5
4FC
100
AcDbEntity
  8
RACCORDO
100
AcDbSpline
 62
253
  6
CONTINUOUS
 70
0
 71
3
 72
10
 73
6
 74
4
 42
0.0000001
 43
0.0000001
 44
0.0000000001
 12
10.5001135752
 22
0.0241085138
 32
0.0
 13
10.5001412461
 23
-0.00035508
 33
0.0
 40
0.0
 40
0.0
 40
0.0
 40
0.0
 40
0.249999913
 40
0.4999999283
 40
1.0
 40
1.0
 40
1.0
 40
1.0
 10
-22.2500003789
 20
-130.7582091935
 30
0.0
 10
-21.3749912189
 20
-130.7562001514
 30
0.0
 10
-19.6249673947
 20
-130.7548028438
 30
0.0
 10
-16.1249210296
 20
-130.7533585893
 30
0.0
 10
-13.4998851421
 20
-130.7537358395
 30
0.0
 10
-11.7498613503
 20
-130.7537950195
 30
0.0
 11
-22.2500003789
 21
-130.7582091935
 31
0.0
 11
-19.624967976
 21
-130.7549716391
 31
0.0
 11
-16.9999327281
 21
-130.7538819242
 31
0.0
 11
-11.7498613503
 21
-130.7537950195
 31
0.0
  0
SPLINE
  5
4FD
100
AcDbEntity
  8
RACCORDO
100
AcDbSpline
 62
253
  6
CONTINUOUS
 70
0
 71
3
 72
10
 73
6
 74
4
 42
0.0000001
 43
0.0000001
 44
0.0000000001
 12
10.5001405005
 22
0.0003559042
 32
0.0
 13
10.5001127677
 23
-0.0241355208
 33
0.0
 40
0.0
 40
0.0
 40
0.0
 40
0.0
 40
0.5000000717
 40
0.7500000871
 40
1.0
 40
1.0
 40
1.0
 40
1.0
 10
11.7498613503
 20
-130.7537950195
 30
0.0
 10
13.499885018
 20
-130.7537357021
 30
0.0
 10
16.1249207207
 20
-130.7533580353
 30
0.0
 10
19.6249668335
 20
-130.7548039027
 30
0.0
 10
21.3749905409
 20
-130.7561978997
 30
0.0
 10
22.2499996334
 20
-130.7582091924
 30
0.0
 11
11.7498613503
 21
-130.7537950195
 31
0.0
 11
16.9999323557
 21
-130.7538819542
 31
0.0
 11
19.6249674175
 21
-130.7549716687
 31
0.0
 11
22.2499996334
 21
-130.7582091924
 31
0.0
  0
SPLINE
  5
4FE
100
AcDbEntity
  8
RACCORDO
100
AcDbSpline
 62
253
  6
CONTINUOUS
 70
0
 71
3
 72
18
 73
14
 74
12
 42
0.0000001
 43
0.0000001
 44
0.0000000001
 12
-0.863450462
 22
-0.0091008779
 32
0.0
 13
-0.6206524503
 23
-0.6003499499
 33
0.0
 40
0.0
 40
0.0
 40
0.0
 40
0.0
 40
0.1939439158
 40
0.3774654529
 40
0.5451709102
 40
0.6921403291
 40
0.8140802954
 40
0.8645296857
 40
0.9074759009
 40
0.94261955
 40
0.9697636092
 40
0.9888137139
 40
1.0
 40
1.0
 40
1.0
 40
1.0
 10
-38.8761261126
 20
143.552896823
 30
0.0
 10
-38.9319464339
 20
143.5523084697
 30
0.0
 10
-39.040582986
 20
143.5506637309
 30
0.0
 10
-39.1974537863
 20
143.5467099711
 30
0.0
 10
-39.340759242
 20
143.5414466059
 30
0.0
 10
-39.4662703735
 20
143.5350373335
 30
0.0
 10
-39.5579827688
 20
143.5286248051
 30
0.0
 10
-39.6196898848
 20
143.5228354104
 30
0.0
 10
-39.6564644777
 20
143.5186342898
 30
0.0
 10
-39.6864168168
 20
143.5143218587
 30
0.0
 10
-39.7095277099
 20
143.5100157898
 30
0.0
 10
-39.7253048104
 20
143.5056848475
 30
0.0
 10
-39.733638505
 20
143.5022385621
 30
0.0
 10
-39.7359527703
 20
143.5
 30
0.0
 11
-38.8761261126
 21
143.552896823
 31
0.0
 11
-39.0435767034
 21
143.5503298311
 31
0.0
 11
-39.2019954438
 21
143.5462776218
 31
0.0
 11
-39.3467074583
 21
143.5408597746
 31
0.0
 11
-39.4734423514
 21
143.5342361686
 31
0.0
 11
-39.5784602257
 21
143.5266022643
 31
0.0
 11
-39.6218273049
 21
143.5224756789
 31
0.0
 11
-39.6586620444
 21
143.5181833358
 31
0.0
 11
-39.6886839626
 21
143.5137568686
 31
0.0
 11
-39.711681083
 21
143.509227823
 31
0.0
 11
-39.7274749603
 21
143.5046292111
 31
0.0
 11
-39.7359527703
 21
143.5
 31
0.0
  0
SPLINE
  5
4FF
100
AcDbEntity
  8
RACCORDO
100
AcDbSpline
 62
253
  6
CONTINUOUS
 70
0
 71
3
 72
17
 73
13
 74
11
 42
0.0000001
 43
0.0000001
 44
0.0000000001
 12
-0.01669442
 22
-3.1489033849
 32
0.0
 13
3.1489175035
 23
0.0137763199
 33
0.0
 40
0.0
 40
0.0
 40
0.0
 40
0.0
 40
0.1249468007
 40
0.1875002125
 40
0.2500534048
 40
0.3750301786
 40
0.5000078965
 40
0.6249778706
 40
0.687531562
 40
0.7500879948
 40
0.8750561569
 40
1.0
 40
1.0
 40
1.0
 40
1.0
 10
-24.2603442859
 20
-128.7499998388
 30
0.0
 10
-24.2610395906
 20
-128.8811483066
 30
0.0
 10
-24.2417206351
 20
-129.0788220375
 30
0.0
 10
-24.1764667407
 20
-129.333406407
 30
0.0
 10
-24.0851113141
 20
-129.5799152455
 30
0.0
 10
-23.9277890782
 20
-129.8701808202
 30
0.0
 10
-23.6765971844
 20
-130.1760811872
 30
0.0
 10
-23.4224111952
 20
-130.3869504805
 30
0.0
 10
-23.1974178787
 20
-130.5229451386
 30
0.0
 10
-22.9597060738
 20
-130.6351768209
 30
0.0
 10
-22.6442725942
 20
-130.7323564813
 30
0.0
 10
-22.3811463304
 20
-130.7587829498
 30
0.0
 10
-22.2500003789
 20
-130.7582091943
 30
0.0
 11
-24.2603442859
 21
-128.7499998388
 31
0.0
 11
-24.2221427298
 21
-129.1415918174
 31
0.0
 11
-24.1732032648
 21
-129.332392845
 31
0.0
 11
-24.1050327241
 21
-129.5171970885
 31
0.0
 11
-23.9173814506
 21
-129.8631232598
 31
0.0
 11
-23.6676300936
 21
-130.1672688104
 31
0.0
 11
-23.364455558
 21
-130.4181597523
 31
0.0
 11
-23.1958294975
 21
-130.5199718431
 31
0.0
 11
-23.0178015516
 21
-130.6042920758
 31
0.0
 11
-22.6415368116
 21
-130.7195371123
 31
0.0
 11
-22.2500003789
 21
-130.7582091943
 31
0.0
  0
SPLINE
  5
500
100
AcDbEntity
  8
RACCORDO
100
AcDbSpline
 62
253
  6
CONTINUOUS
 70
0
 71
3
 72
13
 73
9
 74
7
 42
0.0000001
 43
0.0000001
 44
0.0000000001
 12
0.0001128986
 22
-22.2500234111
 32
0.0
 13
-0.0617399559
 23
-22.2499377524
 33
0.0
 40
0.0
 40
0.0
 40
0.0
 40
0.0
 40
0.2500000258
 40
0.5000000508
 40
0.6250000618
 40
0.7500000696
 40
0.875000074
 40
1.0
 40
1.0
 40
1.0
 40
1.0
 10
-24.2535132686
 20
-106.4999791557
 30
0.0
 10
-24.2535038604
 20
-108.3541479644
 30
0.0
 10
-24.2533685275
 20
-112.0624855612
 30
0.0
 10
-24.2536401032
 20
-116.6979076193
 30
0.0
 10
-24.2544459271
 20
-120.4062450172
 30
0.0
 10
-24.255479348
 20
-123.1874981965
 30
0.0
 10
-24.2569578175
 20
-125.9687493038
 30
0.0
 10
-24.2577717896
 20
-127.8229196476
 30
0.0
 10
-24.2603442863
 20
-128.7499998388
 30
0.0
 11
-24.2535132686
 21
-106.4999791557
 31
0.0
 11
-24.2534566759
 21
-112.0624855817
 31
0.0
 11
-24.2538906061
 21
-117.6249919744
 31
0.0
 11
-24.2545174359
 21
-120.4062450748
 31
0.0
 11
-24.2555535229
 21
-123.1874979814
 31
0.0
 11
-24.2569148993
 21
-125.9687506721
 31
0.0
 11
-24.2603442863
 21
-128.7499998388
 31
0.0
  0
SPLINE
  5
501
100
AcDbEntity
  8
RACCORDO
100
AcDbSpline
 62
253
  6
CONTINUOUS
 70
0
 71
3
 72
11
 73
7
 74
5
 42
0.0000001
 43
0.0000001
 44
0.0000000001
 12
-2.2779927458
 22
-0.8235206777
 32
0.0
 13
0.0000096537
 23
-2.4222793514
 33
0.0
 40
0.0
 40
0.0
 40
0.0
 40
0.0
 40
0.250099934
 40
0.5000707785
 40
0.7500274659
 40
1.0
 40
1.0
 40
1.0
 40
1.0
 10
-22.9188423999
 20
-82.3998704614
 30
0.0
 10
-23.1087510116
 20
-82.4685246171
 30
0.0
 10
-23.4714827333
 20
-82.6604112426
 30
0.0
 10
-23.9066031226
 20
-83.0947747133
 30
0.0
 10
-24.1884367628
 20
-83.6416313324
 30
0.0
 10
-24.2535140465
 20
-84.048152403
 30
0.0
 10
-24.2535132422
 20
-84.2499868389
 30
0.0
 11
-22.9188423999
 21
-82.3998704614
 31
0.0
 11
-23.4534117394
 21
-82.6849032429
 31
0.0
 11
-23.8810747148
 21
-83.1135449102
 31
0.0
 11
-24.1577301916
 21
-83.652107367
 31
0.0
 11
-24.2535132422
 21
-84.2499868389
 31
0.0
  0
SPLINE
  5
502
100
AcDbEntity
  8
RACCORDO
100
AcDbSpline
 62
253
  6
CONTINUOUS
 70
0
 71
3
 72
18
 73
14
 74
12
 42
0.0000001
 43
0.0000001
 44
0.0000000001
 12
-0.863448363
 22
0.0091010531
 32
0.0
 13
-0.6206500388
 23
0.6003494267
 33
0.0
 40
0.0
 40
0.0
 40
0.0
 40
0.0
 40
0.1939440548
 40
0.3774656735
 40
0.5451711587
 40
0.6921405605
 40
0.8140804774
 40
0.8645298359
 40
0.9074760172
 40
0.9426196325
 40
0.9697636599
 40
0.9888137363
 40
1.0
 40
1.0
 40
1.0
 40
1.0
 10
-38.8761260756
 20
-143.5528968088
 30
0.0
 10
-38.9319463011
 20
-143.5523084438
 30
0.0
 10
-39.0405826526
 20
-143.5506636853
 30
0.0
 10
-39.1974531427
 20
-143.5467099053
 30
0.0
 10
-39.3407582761
 20
-143.5414465298
 30
0.0
 10
-39.4662690909
 20
-143.5350372565
 30
0.0
 10
-39.5579812344
 20
-143.5286247344
 30
0.0
 10
-39.6196881669
 20
-143.5228353496
 30
0.0
 10
-39.6564626416
 20
-143.518634238
 30
0.0
 10
-39.6864148788
 20
-143.5143218174
 30
0.0
 10
-39.7095256889
 20
-143.5100157602
 30
0.0
 10
-39.7253027263
 20
-143.5056848309
 30
0.0
 10
-39.7336363869
 20
-143.5022385556
 30
0.0
 10
-39.7359506386
 20
-143.4999999999
 30
0.0
 11
-38.8761260756
 21
-143.5528968088
 31
0.0
 11
-39.0435763792
 21
-143.5503297861
 31
0.0
 11
-39.2019948045
 21
-143.5462775563
 31
0.0
 11
-39.3467064908
 21
-143.5408596988
 31
0.0
 11
-39.4734410605
 21
-143.5342360923
 31
0.0
 11
-39.5784586363
 21
-143.5266021967
 31
0.0
 11
-39.6218255823
 21
-143.5224756187
 31
0.0
 11
-39.6586602028
 21
-143.5181832849
 31
0.0
 11
-39.6886820186
 21
-143.5137568285
 31
0.0
 11
-39.7116790553
 21
-143.5092277951
 31
0.0
 11
-39.7274728696
 21
-143.5046291968
 31
0.0
 11
-39.7359506386
 21
-143.4999999999
 31
0.0
  0
SPLINE
  5
503
100
AcDbEntity
  8
RACCORDO
100
AcDbSpline
 62
253
  6
CONTINUOUS
 70
0
 71
3
 72
18
 73
14
 74
12
 42
0.0000001
 43
0.0000001
 44
0.0000000001
 12
0.0063266748
 22
-0.8648378461
 32
0.0
 13
0.4873573509
 23
-0.714469971
 33
0.0
 40
0.0
 40
0.0
 40
0.0
 40
0.0
 40
0.1942053808
 40
0.3780299114
 40
0.5460349856
 40
0.6932544701
 40
0.8153457408
 40
0.8658148657
 40
0.9087311123
 40
0.9437800843
 40
0.9707390648
 40
0.9894577269
 40
1.0
 40
1.0
 40
1.0
 40
1.0
 10
-37.0373529125
 20
-145.373801016
 30
0.0
 10
-37.0369433544
 20
-145.4297864037
 30
0.0
 10
-37.0357918669
 20
-145.5387624726
 30
0.0
 10
-37.0330103419
 20
-145.6961538992
 30
0.0
 10
-37.0292995493
 20
-145.8399779729
 30
0.0
 10
-37.0247742417
 20
-145.9659699806
 30
0.0
 10
-37.0202457503
 20
-146.0580555089
 30
0.0
 10
-37.0161498882
 20
-146.1200362167
 30
0.0
 10
-37.01318691
 20
-146.156955768
 30
0.0
 10
-37.0101227871
 20
-146.1870225017
 30
0.0
 10
-37.0071283196
 20
-146.2101783199
 30
0.0
 10
-37.0039982897
 20
-146.2259480598
 30
0.0
 10
-37.0017126181
 20
-146.2342986554
 30
0.0
 10
-37.0
 20
-146.2368093679
 30
0.0
 11
-37.0373529125
 21
-145.373801016
 31
0.0
 11
-37.0355559174
 21
-145.54175206
 31
0.0
 11
-37.0327048499
 21
-145.7007091586
 31
0.0
 11
-37.0288842313
 21
-145.8459599536
 31
0.0
 11
-37.0242073256
 21
-145.9731984167
 31
0.0
 11
-37.0188127821
 21
-146.0786525038
 31
0.0
 11
-37.015895538
 21
-146.1222036856
 31
0.0
 11
-37.0128605245
 21
-146.1591959787
 31
0.0
 11
-37.0097302114
 21
-146.1893464033
 31
0.0
 11
-37.0065270105
 21
-146.2124410923
 31
0.0
 11
-37.003274377
 21
-146.2283000144
 31
0.0
 11
-37.0
 21
-146.2368093679
 31
0.0
  0
SPLINE
  5
504
100
AcDbEntity
  8
RACCORDO
100
AcDbSpline
 62
253
  6
CONTINUOUS
 70
0
 71
3
 72
11
 73
7
 74
5
 42
0.0000001
 43
0.0000001
 44
0.0000000001
 12
0.000006594
 22
2.4222848368
 32
0.0
 13
-2.2779979564
 23
0.8235223988
 33
0.0
 40
0.0
 40
0.0
 40
0.0
 40
0.0
 40
0.2499653505
 40
0.4999258333
 40
0.7499044214
 40
1.0
 40
1.0
 40
1.0
 40
1.0
 10
24.2535132541
 20
-84.2499924231
 30
0.0
 10
24.2535138035
 20
-84.0481633303
 30
0.0
 10
24.1884409664
 20
-83.6416441212
 30
0.0
 10
23.9066090724
 20
-83.0947803078
 30
0.0
 10
23.4714833661
 20
-82.6604109648
 30
0.0
 10
23.1087481388
 20
-82.468523565
 30
0.0
 10
22.9188423999
 20
-82.3998704614
 30
0.0
 11
24.2535132541
 21
-84.2499924231
 31
0.0
 11
24.1577369435
 21
-83.6521281053
 31
0.0
 11
23.8810812069
 21
-83.113553905
 31
0.0
 11
23.4534042816
 21
-82.6848977225
 31
0.0
 11
22.9188423999
 21
-82.3998704614
 31
0.0
  0
SPLINE
  5
505
100
AcDbEntity
  8
RACCORDO
100
AcDbSpline
 62
253
  6
CONTINUOUS
 70
0
 71
3
 72
13
 73
9
 74
7
 42
0.0000001
 43
0.0000001
 44
0.0000000001
 12
-0.0617174603
 22
22.2499377417
 32
0.0
 13
0.0001128445
 23
22.250023338
 33
0.0
 40
0.0
 40
0.0
 40
0.0
 40
0.0
 40
0.1249999262
 40
0.2499999305
 40
0.3749999383
 40
0.4999999493
 40
0.7499999743
 40
1.0
 40
1.0
 40
1.0
 40
1.0
 10
24.2603442861
 20
-128.7499997667
 30
0.0
 10
24.2577727268
 20
-127.8229195748
 30
0.0
 10
24.2569581928
 20
-125.968749239
 30
0.0
 10
24.2554798779
 20
-123.1874981391
 30
0.0
 10
24.2544458612
 20
-120.4062449699
 30
0.0
 10
24.25364008
 20
-116.6979075848
 30
0.0
 10
24.2533685324
 20
-112.0624855426
 30
0.0
 10
24.2535038649
 20
-108.3541479586
 30
0.0
 10
24.2535132686
 20
-106.4999791562
 30
0.0
 11
24.2603442861
 21
-128.7499997667
 31
0.0
 11
24.2569154408
 21
-125.9687506052
 31
0.0
 11
24.2555539277
 21
-123.1874979242
 31
0.0
 11
24.2545174747
 21
-120.4062450275
 31
0.0
 11
24.2538905706
 21
-117.6249919367
 31
0.0
 11
24.253456675
 21
-112.0624855631
 31
0.0
 11
24.2535132686
 21
-106.4999791562
 31
0.0
  0
SPLINE
  5
506
100
AcDbEntity
  8
RACCORDO
100
AcDbSpline
 62
7
  6
CONTINUOUS
 70
0
 71
3
 72
11
 73
7
 74
5
 42
0.0000001
 43
0.0000001
 44
0.0000000001
 12
-0.0134033687
 22
0.0185758639
 32
0.0
 13
0.0015466782
 23
0.0228543387
 33
0.0
 40
0.0
 40
0.0
 40
0.0
 40
0.0
 40
0.5232032708
 40
0.8065543098
 40
0.9481680253
 40
1.0
 40
1.0
 40
1.0
 40
1.0
 10
-79.9509429663
 20
132.337300403
 30
0.0
 10
-79.9532805284
 20
132.340540054
 30
0.0
 10
-79.9567356028
 20
132.34564825
 30
0.0
 10
-79.9598564753
 20
132.3522480495
 30
0.0
 10
-79.9612362519
 20
132.3555436282
 30
0.0
 10
-79.96184415
 20
132.3569637403
 30
0.0
 10
-79.9618174276
 20
132.3573586021
 30
0.0
 11
-79.9509429663
 21
132.337300403
 31
0.0
 11
-79.9574262959
 21
132.3473801971
 31
0.0
 11
-79.9602478769
 21
132.3532254294
 31
0.0
 11
-79.9615218416
 21
132.3562086897
 31
0.0
 11
-79.9618174276
 21
132.3573586021
 31
0.0
  0
SPLINE
  5
507
100
AcDbEntity
  8
RACCORDO
100
AcDbSpline
 62
253
  6
CONTINUOUS
 70
0
 71
3
 72
30
 73
26
 74
24
 42
0.0000001
 43
0.0000001
 44
0.0000000001
 12
2.1100757154
 22
2.9293892199
 32
0.0
 13
-0.0270371183
 23
3.6101259978
 33
0.0
 40
0.0
 40
0.0
 40
0.0
 40
0.0
 40
0.0005139467
 40
0.0016300784
 40
0.003349505
 40
0.0056737106
 40
0.0122379958
 40
0.0208847044
 40
0.0311210422
 40
0.0435339067
 40
0.058246945
 40
0.0752363824
 40
0.0944907656
 40
0.1160785835
 40
0.1657834525
 40
0.2236501498
 40
0.2894428355
 40
0.3625661039
 40
0.4423164174
 40
0.5277899354
 40
0.6179633674
 40
0.7100579826
 40
0.8049912708
 40
0.9019853617
 40
1.0
 40
1.0
 40
1.0
 40
1.0
 10
-79.9509429663
 20
-132.337300403
 30
0.0
 10
-79.9505814775
 20
-132.336798553
 30
0.0
 10
-79.9505015047
 20
-132.3346971848
 30
0.0
 10
-79.95014644
 20
-132.3307904339
 30
0.0
 10
-79.9501396445
 20
-132.3245201189
 30
0.0
 10
-79.9501841181
 20
-132.3117893577
 30
0.0
 10
-79.9508018737
 20
-132.2906685244
 30
0.0
 10
-79.9520241568
 20
-132.2600811445
 30
0.0
 10
-79.9529243423
 20
-132.2224244405
 30
0.0
 10
-79.9536375038
 20
-132.1774694585
 30
0.0
 10
-79.9541299883
 20
-132.1243820475
 30
0.0
 10
-79.9544255887
 20
-132.0630608717
 30
0.0
 10
-79.9545207496
 20
-131.9934656852
 30
0.0
 10
-79.9542581183
 20
-131.8845000885
 30
0.0
 10
-79.9559358816
 20
-131.7290733041
 30
0.0
 10
-79.9588752912
 20
-131.5204667206
 30
0.0
 10
-79.9604121808
 20
-131.2836592419
 30
0.0
 10
-79.9610149414
 20
-131.0205147282
 30
0.0
 10
-79.9603531573
 20
-130.7336849151
 30
0.0
 10
-79.9581859863
 20
-130.4263451943
 30
0.0
 10
-79.9548911363
 20
-130.1041557241
 30
0.0
 10
-79.9478091457
 20
-129.7706393317
 30
0.0
 10
-79.944663986
 20
-129.4288531665
 30
0.0
 10
-79.9436128523
 20
-129.0799344227
 30
0.0
 10
-79.9446066962
 20
-128.845258689
 30
0.0
 10
-79.9454900407
 20
-128.7273102911
 30
0.0
 11
-79.9509429663
 21
-132.337300403
 31
0.0
 11
-79.9505218209
 21
-132.3354933654
 31
0.0
 11
-79.9502563851
 21
-132.3314726284
 31
0.0
 11
-79.9501444692
 21
-132.3252661167
 31
0.0
 11
-79.9501852041
 21
-132.3168753052
 31
0.0
 11
-79.9507647778
 21
-132.2931838322
 31
0.0
 11
-79.9518715134
 21
-132.261986874
 31
0.0
 11
-79.9528169734
 21
-132.2250434648
 31
0.0
 11
-79.953548588
 21
-132.1802361758
 31
0.0
 11
-79.9540679584
 21
-132.1271213034
 31
0.0
 11
-79.9543793558
 21
-132.0657863639
 31
0.0
 11
-79.9544756454
 21
-131.9962737319
 31
0.0
 11
-79.9544435455
 21
-131.9183368103
 31
0.0
 11
-79.9559209294
 21
-131.7388970201
 31
0.0
 11
-79.9584932685
 21
-131.5300009304
 31
0.0
 11
-79.9601974575
 21
-131.292480498
 31
0.0
 11
-79.9608031446
 21
-131.0284895775
 31
0.0
 11
-79.9601492888
 21
-130.7405735655
 31
0.0
 11
-79.9580669566
 21
-130.4320017685
 31
0.0
 11
-79.9543240288
 21
-130.1064767056
 31
0.0
 11
-79.9485380658
 21
-129.7740445657
 31
0.0
 11
-79.9450365574
 21
-129.4313317095
 31
0.0
 11
-79.9440373167
 21
-129.0811624262
 31
0.0
 11
-79.9454900407
 21
-128.7273102911
 31
0.0
  0
SPLINE
  5
508
100
AcDbEntity
  8
RACCORDO
100
AcDbSpline
 62
253
  6
CONTINUOUS
 70
0
 71
3
 72
15
 73
11
 74
9
 42
0.0000001
 43
0.0000001
 44
0.0000000001
 12
-0.1663800977
 22
22.226708067
 32
0.0
 13
0.0003266744
 23
22.2273307828
 33
0.0
 40
0.0
 40
0.0
 40
0.0
 40
0.0
 40
0.0624999911
 40
0.1249998629
 40
0.249999526
 40
0.3749994597
 40
0.4999995119
 40
0.6249996158
 40
0.7499997404
 40
1.0
 40
1.0
 40
1.0
 40
1.0
 10
-79.9454900407
 20
-128.7273102911
 30
0.0
 10
-79.9489562922
 20
-128.264253939
 30
0.0
 10
-79.9525241951
 20
-127.3381184162
 30
0.0
 10
-79.9550334646
 20
-125.4858471151
 30
0.0
 10
-79.9575732887
 20
-123.1705049478
 30
0.0
 10
-79.9601689824
 20
-120.392092535
 30
0.0
 10
-79.9615804853
 20
-117.6136757675
 30
0.0
 10
-79.9623121948
 20
-114.8352574351
 30
0.0
 10
-79.9625984872
 20
-111.1306986779
 30
0.0
 10
-79.9623471158
 20
-108.3522794891
 30
0.0
 10
-79.9623198929
 20
-106.5000000007
 30
0.0
 11
-79.9454900407
 21
-128.7273102911
 31
0.0
 11
-79.9519458806
 21
-127.3381173156
 31
0.0
 11
-79.9543663639
 21
-125.9489140987
 31
0.0
 11
-79.9574979371
 21
-123.1705070056
 31
0.0
 11
-79.9599716162
 21
-120.3920932314
 31
0.0
 11
-79.9614671862
 21
-117.6136761252
 31
0.0
 11
-79.9622260297
 21
-114.8352575717
 31
0.0
 11
-79.9624751262
 21
-112.0568384643
 31
0.0
 11
-79.9623198929
 21
-106.5000000007
 31
0.0
  0
SPLINE
  5
509
100
AcDbEntity
  8
RACCORDO
100
AcDbSpline
 62
253
  6
CONTINUOUS
 70
0
 71
3
 72
11
 73
7
 74
5
 42
0.0000001
 43
0.0000001
 44
0.0000000001
 12
-0.0014252898
 22
0.0228597556
 32
0.0
 13
0.013413755
 23
0.0185653186
 33
0.0
 40
0.0
 40
0.0
 40
0.0
 40
0.0
 40
0.052064143
 40
0.1938344068
 40
0.4772340897
 40
1.0
 40
1.0
 40
1.0
 40
1.0
 10
-79.9618175946
 20
-132.3573559423
 30
0.0
 10
-79.9618423301
 20
-132.3569592177
 30
0.0
 10
-79.9612347159
 20
-132.355537537
 30
0.0
 10
-79.9598504716
 20
-132.3522389007
 30
0.0
 10
-79.9567336346
 20
-132.3456415641
 30
0.0
 10
-79.9532803843
 20
-132.3405355083
 30
0.0
 10
-79.9509429663
 20
-132.337300403
 30
0.0
 11
-79.9618175946
 21
-132.3573559423
 31
0.0
 11
-79.9615191929
 21
-132.3562013964
 31
0.0
 11
-79.9602429591
 21
-132.3532155867
 31
0.0
 11
-79.9574214963
 21
-132.3473698373
 31
0.0
 11
-79.9509429663
 21
-132.337300403
 31
0.0
  0
SPLINE
  5
50A
100
AcDbEntity
  8
RACCORDO
100
AcDbSpline
 62
253
  6
CONTINUOUS
 70
0
 71
3
 72
13
 73
9
 74
7
 42
0.0000001
 43
0.0000001
 44
0.0000000001
 12
0.0000168749
 22
3.4522622007
 32
0.0
 13
-0.0000008668
 23
3.4522622007
 33
0.0
 40
0.0
 40
0.0
 40
0.0
 40
0.0
 40
0.316260309
 40
0.6034715274
 40
0.7281047917
 40
0.8366938587
 40
0.9282294682
 40
1.0
 40
1.0
 40
1.0
 40
1.0
 10
-79.9623198932
 20
-84.25
 30
0.0
 10
-79.9623181142
 20
-83.8860621632
 30
0.0
 10
-79.9694365798
 20
-83.1915925058
 30
0.0
 10
-79.9948050882
 20
-82.3540548155
 30
0.0
 10
-80.0209628625
 20
-81.7557319129
 30
0.0
 10
-80.0394355076
 20
-81.3824688714
 30
0.0
 10
-80.0546079706
 20
-81.0699606381
 30
0.0
 10
-80.0597111835
 20
-80.8820532039
 30
0.0
 10
-80.0597112043
 20
-80.7994629726
 30
0.0
 11
-79.9623198932
 21
-84.25
 31
0.0
 11
-79.9735989253
 21
-83.1582447504
 31
0.0
 11
-80.0035580815
 21
-82.1671690307
 31
0.0
 11
-80.0222101684
 21
-81.7373067982
 31
0.0
 11
-80.040341974
 21
-81.3628676161
 31
0.0
 11
-80.0544511571
 21
-81.0471778262
 31
0.0
 11
-80.0597112043
 21
-80.7994629726
 31
0.0
  0
SPLINE
  5
50B
100
AcDbEntity
  8
RACCORDO
100
AcDbSpline
 62
253
  6
CONTINUOUS
 70
0
 71
3
 72
29
 73
25
 74
23
 42
0.0000001
 43
0.0000001
 44
0.0000000001
 12
-1.7978071002
 22
37.0099362321
 32
0.0
 13
0.000145281
 23
37.0535759442
 33
0.0
 40
0.0
 40
0.0
 40
0.0
 40
0.0
 40
0.0078071708
 40
0.0156111693
 40
0.0234076781
 40
0.0273043522
 40
0.0312098209
 40
0.0351160215
 40
0.0390219981
 40
0.0468341017
 40
0.0624583116
 40
0.0937067123
 40
0.1249553857
 40
0.1562047425
 40
0.1874549035
 40
0.249957022
 40
0.3124602886
 40
0.374963757
 40
0.437467272
 40
0.4999708297
 40
0.6249780387
 40
0.749985329
 40
0.8749926583
 40
1.0
 40
1.0
 40
1.0
 40
1.0
 10
-77.1214923855
 20
-143.5528968235
 30
0.0
 10
-77.1261709813
 20
-143.4565825251
 30
0.0
 10
-77.1346793043
 20
-143.2639494579
 30
0.0
 10
-77.1442061959
 20
-142.9749896662
 30
0.0
 10
-77.1487316373
 20
-142.7341986861
 30
0.0
 10
-77.1485754921
 20
-142.5415332247
 30
0.0
 10
-77.1501814169
 20
-142.3969285776
 30
0.0
 10
-77.1517911903
 20
-142.2522110324
 30
0.0
 10
-77.1536776836
 20
-142.0592415983
 30
0.0
 10
-77.1571347177
 20
-141.7215495098
 30
0.0
 10
-77.1638780147
 20
-141.0461616983
 30
0.0
 10
-77.1729745936
 20
-140.0813134697
 30
0.0
 10
-77.1823159303
 20
-138.9234704578
 30
0.0
 10
-77.1896319611
 20
-137.7655911081
 30
0.0
 10
-77.1969425339
 20
-136.2216885815
 30
0.0
 10
-77.2019316525
 20
-134.2917511726
 30
0.0
 10
-77.2052026699
 20
-131.975795793
 30
0.0
 10
-77.208370068
 20
-129.6598228136
 30
0.0
 10
-77.2110626333
 20
-127.3438456818
 30
0.0
 10
-77.2141158445
 20
-124.2558727837
 30
0.0
 10
-77.2169580417
 20
-120.3959032409
 30
0.0
 10
-77.2190277901
 20
-115.7639370504
 30
0.0
 10
-77.2200205928
 20
-111.1319688848
 30
0.0
 10
-77.2201630683
 20
-108.043989678
 30
0.0
 10
-77.2201570146
 20
-106.5000000015
 30
0.0
 11
-77.1214923855
 21
-143.5528968235
 31
0.0
 11
-77.1341421645
 21
-143.2638899325
 31
0.0
 11
-77.1435264915
 21
-142.9748761991
 31
0.0
 11
-77.1483781998
 21
-142.6860284094
 31
0.0
 11
-77.1488619954
 21
-142.541643511
 31
0.0
 11
-77.1501817452
 21
-142.3969379498
 31
0.0
 11
-77.1517587222
 21
-142.2522078404
 31
0.0
 11
-77.1532134672
 21
-142.1074847499
 31
0.0
 11
-77.1561388579
 21
-141.8180331588
 31
0.0
 11
-77.1619155778
 21
-141.2391291309
 31
0.0
 11
-77.1727121228
 21
-140.0813144792
 31
0.0
 11
-77.1819782935
 21
-138.9234764673
 31
0.0
 11
-77.1893263562
 21
-137.7655993657
 31
0.0
 11
-77.1948381937
 21
-136.6076822706
 31
0.0
 11
-77.2014789602
 21
-134.2917647957
 31
0.0
 11
-77.2051853925
 21
-131.9757982267
 31
0.0
 11
-77.2082909277
 21
-129.6598232973
 31
0.0
 11
-77.2109955229
 21
-127.3438461355
 31
0.0
 11
-77.2132875862
 21
-125.027866948
 31
0.0
 11
-77.2167345596
 21
-120.3959041173
 31
0.0
 11
-77.2188482989
 21
-115.7639374772
 31
0.0
 11
-77.2198907445
 21
-111.1319690236
 31
0.0
 11
-77.2201570146
 21
-106.5000000015
 31
0.0
  0
SPLINE
  5
50C
100
AcDbEntity
  8
RACCORDO
100
AcDbSpline
 62
253
  6
CONTINUOUS
 70
0
 71
3
 72
13
 73
9
 74
7
 42
0.0000001
 43
0.0000001
 44
0.0000000001
 12
0.0000005454
 22
3.4522614438
 32
0.0
 13
-0.000025335
 23
3.4522614437
 33
0.0
 40
0.0
 40
0.0
 40
0.0
 40
0.0
 40
0.0717776288
 40
0.1633104105
 40
0.2718977362
 40
0.3965243053
 40
0.6837310039
 40
1.0
 40
1.0
 40
1.0
 40
1.0
 10
-80.0597112043
 20
-61.200536245
 30
0.0
 10
-80.0597111912
 20
-61.1179378649
 30
0.0
 10
-80.0546094587
 20
-60.9300255162
 30
0.0
 10
-80.0394345813
 20
-60.6175145318
 30
0.0
 10
-80.0209627652
 20
-60.2442645184
 30
0.0
 10
-79.9948057279
 20
-59.6459566344
 30
0.0
 10
-79.969437098
 20
-58.80842206
 30
0.0
 10
-79.9623172223
 20
-58.1139477537
 30
0.0
 10
-79.9623198932
 20
-57.75
 30
0.0
 11
-80.0597112043
 21
-61.200536245
 31
0.0
 11
-80.0544514313
 21
-60.9527969337
 31
0.0
 11
-80.040341627
 21
-60.637117013
 31
0.0
 11
-80.0222097604
 21
-60.2626839346
 31
0.0
 11
-80.00355874
 21
-59.8328448854
 31
0.0
 11
-79.9735995222
 21
-58.8417849957
 31
0.0
 11
-79.9623198932
 21
-57.75
 31
0.0
  0
SPLINE
  5
50D
100
AcDbEntity
  8
RACCORDO
100
AcDbSpline
 62
253
  6
CONTINUOUS
 70
0
 71
3
 72
13
 73
9
 74
7
 42
0.0000001
 43
0.0000001
 44
0.0000000001
 12
0.0000168749
 22
3.4522622007
 32
0.0
 13
-0.0000008668
 23
3.4522622007
 33
0.0
 40
0.0
 40
0.0
 40
0.0
 40
0.0
 40
0.316260309
 40
0.6034715274
 40
0.7281047917
 40
0.8366938587
 40
0.9282294682
 40
1.0
 40
1.0
 40
1.0
 40
1.0
 10
-79.9623198932
 20
-13.25
 30
0.0
 10
-79.9623181142
 20
-12.8860621632
 30
0.0
 10
-79.9694365798
 20
-12.1915925058
 30
0.0
 10
-79.9948050882
 20
-11.3540548155
 30
0.0
 10
-80.0209628625
 20
-10.7557319129
 30
0.0
 10
-80.0394355076
 20
-10.3824688714
 30
0.0
 10
-80.0546079706
 20
-10.0699606381
 30
0.0
 10
-80.0597111835
 20
-9.8820532039
 30
0.0
 10
-80.0597112043
 20
-9.7994629726
 30
0.0
 11
-79.9623198932
 21
-13.25
 31
0.0
 11
-79.9735989253
 21
-12.1582447504
 31
0.0
 11
-80.0035580815
 21
-11.1671690307
 31
0.0
 11
-80.0222101684
 21
-10.7373067982
 31
0.0
 11
-80.040341974
 21
-10.3628676161
 31
0.0
 11
-80.0544511571
 21
-10.0471778262
 31
0.0
 11
-80.0597112043
 21
-9.7994629726
 31
0.0
  0
SPLINE
  5
50E
100
AcDbEntity
  8
RACCORDO
100
AcDbSpline
 62
253
  6
CONTINUOUS
 70
0
 71
3
 72
23
 73
19
 74
17
 42
0.0000001
 43
0.0000001
 44
0.0000000001
 12
2.7352563467
 22
-0.1496306833
 32
0.0
 13
-0.0937372421
 23
2.7377417616
 33
0.0
 40
0.0
 40
0.0
 40
0.0
 40
0.0
 40
0.001605191
 40
0.0052997348
 40
0.011322639
 40
0.0197040033
 40
0.0304357255
 40
0.0435001057
 40
0.0765024797
 40
0.1184064119
 40
0.1688105833
 40
0.2272295818
 40
0.2931005899
 40
0.365788427
 40
0.4445906276
 40
0.617441688
 40
0.8049874269
 40
1.0
 40
1.0
 40
1.0
 40
1.0
 10
-76.1730596227
 20
-146.2368093751
 30
0.0
 10
-76.1715960864
 20
-146.236889437
 30
0.0
 10
-76.1685813197
 20
-146.2314147553
 30
0.0
 10
-76.1667849056
 20
-146.2222383988
 30
0.0
 10
-76.1641415231
 20
-146.205373463
 30
0.0
 10
-76.1621534397
 20
-146.1827309522
 30
0.0
 10
-76.160173483
 20
-146.1533273744
 30
0.0
 10
-76.1577310006
 20
-146.1015599214
 30
0.0
 10
-76.1554145768
 20
-146.0212346673
 30
0.0
 10
-76.153567705
 20
-145.9068368221
 30
0.0
 10
-76.152483415
 20
-145.7692045693
 30
0.0
 10
-76.152147721
 20
-145.6096897683
 30
0.0
 10
-76.1525605434
 20
-145.4298258297
 30
0.0
 10
-76.1537405939
 20
-145.2313533782
 30
0.0
 10
-76.1564542779
 20
-144.9352045398
 30
0.0
 10
-76.162009412
 20
-144.5342007893
 30
0.0
 10
-76.172313422
 20
-144.0271490809
 30
0.0
 10
-76.1822877887
 20
-143.6779647521
 30
0.0
 10
-76.1883811023
 20
-143.5000000636
 30
0.0
 11
-76.1730596227
 21
-146.2368093751
 31
0.0
 11
-76.1699692829
 21
-146.2336812869
 31
0.0
 11
-76.1671720202
 21
-146.2239549028
 31
0.0
 11
-76.1646546126
 21
-146.2076492693
 31
0.0
 11
-76.1624038785
 21
-146.1848003993
 31
0.0
 11
-76.1604066987
 21
-146.1554704177
 31
0.0
 11
-76.158650152
 21
-146.1197256933
 31
0.0
 11
-76.1558175416
 21
-146.0293651588
 31
0.0
 11
-76.1538365032
 21
-145.9145928844
 31
0.0
 11
-76.1526641541
 21
-145.7765233953
 31
0.0
 11
-76.1522723512
 21
-145.6164940236
 31
0.0
 11
-76.1526506367
 21
-145.4360509364
 31
0.0
 11
-76.1538098598
 21
-145.2369371734
 31
0.0
 11
-76.1557730456
 21
-145.0210796059
 31
0.0
 11
-76.1623129811
 21
-144.547625908
 31
0.0
 11
-76.1728663694
 21
-144.0339816386
 31
0.0
 11
-76.1883811023
 21
-143.5000000636
 31
0.0
  0
SPLINE
  5
50F
100
AcDbEntity
  8
RACCORDO
100
AcDbSpline
 62
253
  6
CONTINUOUS
 70
0
 71
3
 72
13
 73
9
 74
7
 42
0.0000001
 43
0.0000001
 44
0.0000000001
 12
0.0000005454
 22
3.4522614438
 32
0.0
 13
-0.000025335
 23
3.4522614437
 33
0.0
 40
0.0
 40
0.0
 40
0.0
 40
0.0
 40
0.0717776288
 40
0.1633104105
 40
0.2718977362
 40
0.3965243053
 40
0.6837310039
 40
1.0
 40
1.0
 40
1.0
 40
1.0
 10
-80.0597112043
 20
9.799463755
 30
0.0
 10
-80.0597111912
 20
9.8820621351
 30
0.0
 10
-80.0546094587
 20
10.0699744838
 30
0.0
 10
-80.0394345813
 20
10.3824854682
 30
0.0
 10
-80.0209627652
 20
10.7557354816
 30
0.0
 10
-79.9948057279
 20
11.3540433656
 30
0.0
 10
-79.969437098
 20
12.19157794
 30
0.0
 10
-79.9623172223
 20
12.8860522463
 30
0.0
 10
-79.9623198932
 20
13.25
 30
0.0
 11
-80.0597112043
 21
9.799463755
 31
0.0
 11
-80.0544514313
 21
10.0472030663
 31
0.0
 11
-80.040341627
 21
10.362882987
 31
0.0
 11
-80.0222097604
 21
10.7373160654
 31
0.0
 11
-80.00355874
 21
11.1671551146
 31
0.0
 11
-79.9735995222
 21
12.1582150043
 31
0.0
 11
-79.9623198932
 21
13.25
 31
0.0
  0
SPLINE
  5
510
100
AcDbEntity
  8
RACCORDO
100
AcDbSpline
 62
253
  6
CONTINUOUS
 70
0
 71
3
 72
13
 73
9
 74
7
 42
0.0000001
 43
0.0000001
 44
0.0000000001
 12
0.0000168749
 22
3.4522622007
 32
0.0
 13
-0.0000008668
 23
3.4522622007
 33
0.0
 40
0.0
 40
0.0
 40
0.0
 40
0.0
 40
0.316260309
 40
0.6034715274
 40
0.7281047917
 40
0.8366938587
 40
0.9282294682
 40
1.0
 40
1.0
 40
1.0
 40
1.0
 10
-79.9623198932
 20
57.75
 30
0.0
 10
-79.9623181142
 20
58.1139378368
 30
0.0
 10
-79.9694365798
 20
58.8084074942
 30
0.0
 10
-79.9948050882
 20
59.6459451845
 30
0.0
 10
-80.0209628625
 20
60.2442680871
 30
0.0
 10
-80.0394355076
 20
60.6175311286
 30
0.0
 10
-80.0546079706
 20
60.9300393619
 30
0.0
 10
-80.0597111835
 20
61.1179467961
 30
0.0
 10
-80.0597112043
 20
61.2005370274
 30
0.0
 11
-79.9623198932
 21
57.75
 31
0.0
 11
-79.9735989253
 21
58.8417552496
 31
0.0
 11
-80.0035580815
 21
59.8328309693
 31
0.0
 11
-80.0222101684
 21
60.2626932018
 31
0.0
 11
-80.040341974
 21
60.6371323839
 31
0.0
 11
-80.0544511571
 21
60.9528221738
 31
0.0
 11
-80.0597112043
 21
61.2005370274
 31
0.0
  0
SPLINE
  5
511
100
AcDbEntity
  8
RACCORDO
100
AcDbSpline
 62
253
  6
CONTINUOUS
 70
0
 71
3
 72
27
 73
23
 74
21
 42
0.0000001
 43
0.0000001
 44
0.0000000001
 12
-1.9918986419
 22
36.9474889762
 32
0.0
 13
0.0002273037
 23
37.0011432498
 33
0.0
 40
0.0
 40
0.0
 40
0.0
 40
0.0
 40
0.0078124515
 40
0.0156248998
 40
0.0234373223
 40
0.0312498102
 40
0.0468748102
 40
0.0624998102
 40
0.0781248103
 40
0.0937498106
 40
0.1249998095
 40
0.1562498087
 40
0.1874998099
 40
0.2499997987
 40
0.3124998127
 40
0.3749998295
 40
0.4374998464
 40
0.4999998635
 40
0.6249998969
 40
0.7499999309
 40
0.8749999653
 40
1.0
 40
1.0
 40
1.0
 40
1.0
 10
-76.1883811009
 20
-143.5000000636
 30
0.0
 10
-76.1935683047
 20
-143.4037832423
 30
0.0
 10
-76.2031749035
 20
-143.2113068914
 30
0.0
 10
-76.2148702867
 20
-142.9224699936
 30
0.0
 10
-76.2229441109
 20
-142.6334995168
 30
0.0
 10
-76.2272104263
 20
-142.2480892569
 30
0.0
 10
-76.234121409
 20
-141.7663556677
 30
0.0
 10
-76.2416904085
 20
-141.1882614808
 30
0.0
 10
-76.2493005443
 20
-140.6101689212
 30
0.0
 10
-76.2590828295
 20
-139.839373765
 30
0.0
 10
-76.270436369
 20
-138.875868819
 30
0.0
 10
-76.2817622597
 20
-137.7196377181
 30
0.0
 10
-76.2936739526
 20
-136.1779684421
 30
0.0
 10
-76.3026586281
 20
-134.2508424961
 30
0.0
 10
-76.3081946551
 20
-131.9382773281
 30
0.0
 10
-76.3133079385
 20
-129.6257109431
 30
0.0
 10
-76.3177817799
 20
-127.3131431502
 30
0.0
 10
-76.3228742612
 20
-124.2297178891
 30
0.0
 10
-76.3277025733
 20
-120.3754339306
 30
0.0
 10
-76.3312681476
 20
-115.7502909975
 30
0.0
 10
-76.3329958906
 20
-111.1251470497
 30
0.0
 10
-76.3332407035
 20
-108.0417175723
 30
0.0
 10
-76.3332312325
 20
-106.5000028419
 30
0.0
 11
-76.1883811009
 21
-143.5000000636
 31
0.0
 11
-76.2027224884
 21
-143.2112864013
 31
0.0
 11
-76.2142667027
 21
-142.9224474871
 31
0.0
 11
-76.2221317453
 21
-142.6334859396
 31
0.0
 11
-76.2262490475
 21
-142.344444277
 31
0.0
 11
-76.2340007119
 21
-141.7663533857
 31
0.0
 11
-76.2416972646
 21
-141.1882617542
 31
0.0
 11
-76.249254974
 21
-140.6101682867
 31
0.0
 11
-76.2565789706
 21
-140.0320718048
 31
0.0
 11
-76.2700533095
 21
-138.8758646304
 31
0.0
 11
-76.2813635727
 21
-137.7196342518
 31
0.0
 11
-76.2903023674
 21
-136.5633830329
 31
0.0
 11
-76.301784363
 21
-134.2508404976
 31
0.0
 11
-76.3081241976
 21
-131.9382772187
 31
0.0
 11
-76.3132013648
 21
-129.625710716
 31
0.0
 11
-76.3176726998
 21
-127.3131429591
 31
0.0
 11
-76.3214986549
 21
-125.0005740394
 31
0.0
 11
-76.3273311733
 21
-120.3754335746
 31
0.0
 11
-76.3309618424
 21
-115.7502908366
 31
0.0
 11
-76.3327691366
 21
-111.1251470101
 31
0.0
 11
-76.3332312325
 21
-106.5000028419
 31
0.0
  0
SPLINE
  5
512
100
AcDbEntity
  8
RACCORDO
100
AcDbSpline
 62
253
  6
CONTINUOUS
 70
0
 71
3
 72
13
 73
9
 74
7
 42
0.0000001
 43
0.0000001
 44
0.0000000001
 12
0.0000005454
 22
3.4522614438
 32
0.0
 13
-0.000025335
 23
3.4522614437
 33
0.0
 40
0.0
 40
0.0
 40
0.0
 40
0.0
 40
0.0717776288
 40
0.1633104105
 40
0.2718977362
 40
0.3965243053
 40
0.6837310039
 40
1.0
 40
1.0
 40
1.0
 40
1.0
 10
-80.0597112043
 20
80.799463755
 30
0.0
 10
-80.0597111912
 20
80.8820621351
 30
0.0
 10
-80.0546094587
 20
81.0699744838
 30
0.0
 10
-80.0394345813
 20
81.3824854682
 30
0.0
 10
-80.0209627652
 20
81.7557354816
 30
0.0
 10
-79.9948057279
 20
82.3540433656
 30
0.0
 10
-79.969437098
 20
83.19157794
 30
0.0
 10
-79.9623172223
 20
83.8860522463
 30
0.0
 10
-79.9623198932
 20
84.25
 30
0.0
 11
-80.0597112043
 21
80.799463755
 31
0.0
 11
-80.0544514313
 21
81.0472030663
 31
0.0
 11
-80.040341627
 21
81.362882987
 31
0.0
 11
-80.0222097604
 21
81.7373160654
 31
0.0
 11
-80.00355874
 21
82.1671551146
 31
0.0
 11
-79.9735995222
 21
83.1582150043
 31
0.0
 11
-79.9623198932
 21
84.25
 31
0.0
  0
SPLINE
  5
513
100
AcDbEntity
  8
RACCORDO
100
AcDbSpline
 62
253
  6
CONTINUOUS
 70
0
 71
3
 72
27
 73
23
 74
21
 42
0.0000001
 43
0.0000001
 44
0.0000000001
 12
-0.0002273082
 22
37.0010900422
 32
0.0
 13
1.991883246
 23
36.9474365213
 33
0.0
 40
0.0
 40
0.0
 40
0.0
 40
0.0
 40
0.1250000348
 40
0.2500000693
 40
0.3750001033
 40
0.5000001368
 40
0.5625001539
 40
0.6250001708
 40
0.6875001877
 40
0.7500002017
 40
0.8125001905
 40
0.8437501917
 40
0.8750001909
 40
0.9062501898
 40
0.9218751901
 40
0.9375001903
 40
0.9531251903
 40
0.9687501902
 40
0.9765626782
 40
0.9843751006
 40
0.9921875488
 40
1.0
 40
1.0
 40
1.0
 40
1.0
 10
-76.3332312325
 20
106.500002839
 30
0.0
 10
-76.3332407037
 20
108.0417153532
 30
0.0
 10
-76.3329958909
 20
111.1251403982
 30
0.0
 10
-76.3312681559
 20
115.7502776973
 30
0.0
 10
-76.3277025862
 20
120.3754139818
 30
0.0
 10
-76.3228743163
 20
124.2296923997
 30
0.0
 10
-76.3177818167
 20
127.3131132284
 30
0.0
 10
-76.3133079887
 20
129.625677697
 30
0.0
 10
-76.3081948859
 20
131.9382407581
 30
0.0
 10
-76.3026587632
 20
134.2508026015
 30
0.0
 10
-76.2936742401
 20
136.1779257779
 30
0.0
 10
-76.2817626259
 20
137.7195928383
 30
0.0
 10
-76.2704369333
 20
138.8758222788
 30
0.0
 10
-76.259083414
 20
139.83932584
 30
0.0
 10
-76.2493011769
 20
140.6101198885
 30
0.0
 10
-76.2416910795
 20
141.1882116177
 30
0.0
 10
-76.2341220334
 20
141.7663049722
 30
0.0
 10
-76.22721125
 20
142.2480378727
 30
0.0
 10
-76.2229450373
 20
142.6334475751
 30
0.0
 10
-76.2148721599
 20
142.9224176576
 30
0.0
 10
-76.2031772877
 20
143.2112541562
 30
0.0
 10
-76.1935710395
 20
143.4037302425
 30
0.0
 10
-76.188383876
 20
143.4999469243
 30
0.0
 11
-76.3332312325
 21
106.500002839
 31
0.0
 11
-76.3327691383
 21
111.1251403586
 31
0.0
 11
-76.3309618501
 21
115.7502775364
 31
0.0
 11
-76.3273311938
 21
120.3754136258
 31
0.0
 11
-76.3214987011
 21
125.000547442
 31
0.0
 11
-76.3176727412
 21
127.3131130373
 31
0.0
 11
-76.3132014429
 21
129.6256774699
 31
0.0
 11
-76.3081243824
 21
131.9382406486
 31
0.0
 11
-76.3017845446
 21
134.2508006031
 31
0.0
 11
-76.290302671
 21
136.5633398148
 31
0.0
 11
-76.2813639621
 21
137.7195893722
 31
0.0
 11
-76.2700538448
 21
138.87581809
 31
0.0
 11
-76.2565795698
 21
140.032023603
 31
0.0
 11
-76.249255607
 21
140.6101192541
 31
0.0
 11
-76.2416979214
 21
141.1882118907
 31
0.0
 11
-76.2340013839
 21
141.7663026913
 31
0.0
 11
-76.2262498921
 21
142.3443927538
 31
0.0
 11
-76.2221328166
 21
142.6334340024
 31
0.0
 11
-76.2142685032
 21
142.9223951521
 31
0.0
 11
-76.202724875
 21
143.2112336678
 31
0.0
 11
-76.188383876
 21
143.4999469243
 31
0.0
  0
SPLINE
  5
514
100
AcDbEntity
  8
RACCORDO
100
AcDbSpline
 62
253
  6
CONTINUOUS
 70
0
 71
3
 72
31
 73
27
 74
25
 42
0.0000001
 43
0.0000001
 44
0.0000000001
 12
-0.0794406534
 22
0.2180605275
 32
0.0
 13
0.1702151127
 23
0.1577593943
 33
0.0
 40
0.0
 40
0.0
 40
0.0
 40
0.0
 40
0.0061953622
 40
0.0198527433
 40
0.0421648563
 40
0.0738967709
 40
0.1665758024
 40
0.290204391
 40
0.3564539701
 40
0.4230979235
 40
0.464468462
 40
0.5100991475
 40
0.5340153931
 40
0.5585769871
 40
0.6010312451
 40
0.6416457205
 40
0.6844104748
 40
0.7691613901
 40
0.8098574726
 40
0.8490191643
 40
0.8681372879
 40
0.8772246761
 40
0.8939758308
 40
0.9220228029
 40
0.9475290327
 40
1.0
 40
1.0
 40
1.0
 40
1.0
 10
-77.2256232807
 20
-145.5714838758
 30
0.0
 10
-77.2257873353
 20
-145.5710335545
 30
0.0
 10
-77.2254304201
 20
-145.5694288886
 30
0.0
 10
-77.2246257059
 20
-145.5663546962
 30
0.0
 10
-77.2227722909
 20
-145.5613988757
 30
0.0
 10
-77.2184211806
 20
-145.550948569
 30
0.0
 10
-77.2100725645
 20
-145.5336247116
 30
0.0
 10
-77.1992214645
 20
-145.5146420591
 30
0.0
 10
-77.188952364
 20
-145.4976709257
 30
0.0
 10
-77.1812577163
 20
-145.4865435859
 30
0.0
 10
-77.1763644753
 20
-145.4756841142
 30
0.0
 10
-77.1720540842
 20
-145.4682516205
 30
0.0
 10
-77.1682120595
 20
-145.4620760657
 30
0.0
 10
-77.1646306593
 20
-145.4559903368
 30
0.0
 10
-77.1586583474
 20
-145.4500912792
 30
0.0
 10
-77.1529755666
 20
-145.4421732524
 30
0.0
 10
-77.1456643373
 20
-145.4314190799
 30
0.0
 10
-77.1378053008
 20
-145.4210358853
 30
0.0
 10
-77.130071596
 20
-145.4109271568
 30
0.0
 10
-77.1252083684
 20
-145.4049917936
 30
0.0
 10
-77.1221989917
 20
-145.4007610234
 30
0.0
 10
-77.1197094019
 20
-145.3982346948
 30
0.0
 10
-77.1190153349
 20
-145.3939394778
 30
0.0
 10
-77.1179786793
 20
-145.3886463566
 30
0.0
 10
-77.1142107963
 20
-145.3812537719
 30
0.0
 10
-77.1102976199
 20
-145.3765602788
 30
0.0
 10
-77.1073205026
 20
-145.3738010161
 30
0.0
 11
-77.2256232807
 21
-145.5714838758
 31
0.0
 11
-77.2255624333
 21
-145.5700473431
 31
0.0
 11
-77.2247478852
 21
-145.5669841874
 31
0.0
 11
-77.2230091777
 21
-145.5621066221
 31
0.0
 11
-77.2201961838
 21
-145.5553006912
 31
0.0
 11
-77.2109258656
 21
-145.5358920117
 31
0.0
 11
-77.1968868163
 21
-145.5108695948
 31
0.0
 11
-77.1888319809
 21
-145.4977731508
 31
0.0
 11
-77.1806478317
 21
-145.4846491356
 31
0.0
 11
-77.1763621773
 21
-145.4760574079
 31
0.0
 11
-77.1711514273
 21
-145.4668380958
 31
0.0
 11
-77.168255397
 21
-145.4621030234
 31
0.0
 11
-77.1651904055
 21
-145.4572969042
 31
0.0
 11
-77.1587803488
 21
-145.4498143457
 31
0.0
 11
-77.1531058245
 21
-145.4422880079
 31
0.0
 11
-77.1474437238
 21
-145.4341367318
 31
0.0
 11
-77.1357320515
 21
-145.4183346243
 31
0.0
 11
-77.1299548533
 21
-145.4108628531
 31
0.0
 11
-77.1243409948
 21
-145.4037152523
 31
0.0
 11
-77.1216121681
 21
-145.4002166925
 31
0.0
 11
-77.1202696244
 21
-145.3985902028
 31
0.0
 11
-77.1191491487
 21
-145.3948675621
 31
0.0
 11
-77.1176357954
 21
-145.3885367842
 31
0.0
 11
-77.1150468789
 21
-145.3832134508
 31
0.0
 11
-77.1073205026
 21
-145.3738010161
 31
0.0
  0
SPLINE
  5
515
100
AcDbEntity
  8
RACCORDO
100
AcDbSpline
 62
253
  6
CONTINUOUS
 70
0
 71
3
 72
29
 73
25
 74
23
 42
0.0000001
 43
0.0000001
 44
0.0000000001
 12
-0.0001452778
 22
37.0535759238
 32
0.0
 13
1.7977959599
 23
37.0099367529
 33
0.0
 40
0.0
 40
0.0
 40
0.0
 40
0.0
 40
0.1250073443
 40
0.2500146761
 40
0.3750219689
 40
0.5000291805
 40
0.5625327395
 40
0.6250362558
 40
0.6875397254
 40
0.7500429933
 40
0.8125451131
 40
0.8437952747
 40
0.8750446322
 40
0.9062933061
 40
0.9375417075
 40
0.9531659177
 40
0.9609780209
 40
0.9648839972
 40
0.9687901958
 40
0.9726956943
 40
0.9765923486
 40
0.9843888311
 40
0.9921928295
 40
1.0
 40
1.0
 40
1.0
 40
1.0
 10
-77.2201570146
 20
106.4999999984
 30
0.0
 10
-77.2201630682
 20
108.0439897056
 30
0.0
 10
-77.2200205929
 20
111.1319689737
 30
0.0
 10
-77.2190277901
 20
115.7639372312
 30
0.0
 10
-77.2169580414
 20
120.3959035137
 30
0.0
 10
-77.2141158452
 20
124.2558731331
 30
0.0
 10
-77.2110626326
 20
127.3438460925
 30
0.0
 10
-77.2083700586
 20
129.6598232702
 30
0.0
 10
-77.2052027024
 20
131.9757962957
 30
0.0
 10
-77.2019316427
 20
134.2917517211
 30
0.0
 10
-77.1969425397
 20
136.2216891685
 30
0.0
 10
-77.1896319481
 20
137.7655917256
 30
0.0
 10
-77.1823159592
 20
138.9234710988
 30
0.0
 10
-77.1729744725
 20
140.0813141321
 30
0.0
 10
-77.1638783461
 20
141.0461623842
 30
0.0
 10
-77.1571342422
 20
141.7215501938
 30
0.0
 10
-77.1536784001
 20
142.0592422887
 30
0.0
 10
-77.1517906211
 20
142.2522116757
 30
0.0
 10
-77.1501852622
 20
142.3969296048
 30
0.0
 10
-77.148572067
 20
142.5415342833
 30
0.0
 10
-77.148729326
 20
142.734199554
 30
0.0
 10
-77.1442070433
 20
142.9749900209
 30
0.0
 10
-77.1346790678
 20
143.2639494623
 30
0.0
 10
-77.1261709521
 20
143.4565825281
 30
0.0
 10
-77.1214923855
 20
143.5528968235
 30
0.0
 11
-77.2201570146
 21
106.4999999984
 31
0.0
 11
-77.2198907445
 21
111.1319691124
 31
0.0
 11
-77.2188482988
 21
115.763937658
 31
0.0
 11
-77.2167345595
 21
120.3959043901
 31
0.0
 11
-77.2132875863
 21
125.0278673128
 31
0.0
 11
-77.2109955209
 21
127.3438465462
 31
0.0
 11
-77.2082909267
 21
129.659823754
 31
0.0
 11
-77.2051854109
 21
131.9757987292
 31
0.0
 11
-77.2014789606
 21
134.2917653442
 31
0.0
 11
-77.1948381922
 21
136.6076828652
 31
0.0
 11
-77.1893263526
 21
137.7655999833
 31
0.0
 11
-77.1819782904
 21
138.9234771078
 31
0.0
 11
-77.1727121173
 21
140.0813151428
 31
0.0
 11
-77.1619155716
 21
141.2391298175
 31
0.0
 11
-77.1561388748
 21
141.8180338561
 31
0.0
 11
-77.1532136983
 21
142.1074854351
 31
0.0
 11
-77.1517590499
 21
142.252208513
 31
0.0
 11
-77.1501836459
 21
142.3969385656
 31
0.0
 11
-77.1488599154
 21
142.5416451943
 31
0.0
 11
-77.1483757289
 21
142.6860293592
 31
0.0
 11
-77.143526536
 21
142.974876213
 31
0.0
 11
-77.1341421622
 21
143.2638899455
 31
0.0
 11
-77.1214923855
 21
143.5528968235
 31
0.0
  0
SPLINE
  5
516
100
AcDbEntity
  8
RACCORDO
100
AcDbSpline
 62
253
  6
CONTINUOUS
 70
0
 71
3
 72
11
 73
7
 74
5
 42
0.0000001
 43
0.0000001
 44
0.0000000001
 12
0.9319600895
 22
0.0703643838
 32
0.0
 13
0.9332489164
 23
0.0504699413
 33
0.0
 40
0.0
 40
0.0
 40
0.0
 40
0.0
 40
0.1121002066
 40
0.335217962
 40
0.6432133527
 40
1.0
 40
1.0
 40
1.0
 40
1.0
 10
-77.1214923756
 20
-143.552896823
 30
0.0
 10
-77.0866680694
 20
-143.5502675356
 30
0.0
 10
-76.9823963057
 20
-143.5443334722
 30
0.0
 10
-76.7823610827
 20
-143.5325852969
 30
0.0
 10
-76.5061656696
 20
-143.5173209133
 30
0.0
 10
-76.2993713548
 20
-143.5060023337
 30
0.0
 10
-76.1883811041
 20
-143.5
 30
0.0
 11
-77.1214923756
 21
-143.552896823
 31
0.0
 11
-77.0169314113
 21
-143.5462776218
 31
0.0
 11
-76.8087506968
 21
-143.5342361686
 31
0.0
 11
-76.5213422731
 21
-143.5181833358
 31
0.0
 11
-76.1883811041
 21
-143.5
 31
0.0
  0
SPLINE
  5
517
100
AcDbEntity
  8
RACCORDO
100
AcDbSpline
 62
253
  6
CONTINUOUS
 70
0
 71
3
 72
23
 73
19
 74
17
 42
0.0000001
 43
0.0000001
 44
0.0000000001
 12
0.0937233919
 22
2.7377958015
 32
0.0
 13
-2.7352395484
 23
-0.150912352
 33
0.0
 40
0.0
 40
0.0
 40
0.0
 40
0.0
 40
0.1950115787
 40
0.3825568556
 40
0.5554079069
 40
0.6342102392
 40
0.7068982402
 40
0.7727694068
 40
0.831188572
 40
0.8815929199
 40
0.9234970408
 40
0.9564995849
 40
0.9695639961
 40
0.9802957216
 40
0.9886771459
 40
0.9947002324
 40
0.9983949038
 40
1.0
 40
1.0
 40
1.0
 40
1.0
 10
-76.1883827273
 20
143.4999469243
 30
0.0
 10
-76.1822903451
 20
143.6779142181
 30
0.0
 10
-76.1723137699
 20
144.0271039737
 30
0.0
 10
-76.1620100591
 20
144.5341642726
 30
0.0
 10
-76.1564544798
 20
144.9351755421
 30
0.0
 10
-76.153740679
 20
145.2313304297
 30
0.0
 10
-76.1525606436
 20
145.4298071747
 30
0.0
 10
-76.1521476557
 20
145.6096750745
 30
0.0
 10
-76.1524834204
 20
145.769193451
 30
0.0
 10
-76.1535677733
 20
145.9068288791
 30
0.0
 10
-76.1554143885
 20
146.0212294502
 30
0.0
 10
-76.157730959
 20
146.1015566373
 30
0.0
 10
-76.1601735135
 20
146.1533252732
 30
0.0
 10
-76.1621535869
 20
146.1827295383
 30
0.0
 10
-76.1641414119
 20
146.2053726518
 30
0.0
 10
-76.1667851667
 20
146.2222384532
 30
0.0
 10
-76.168580334
 20
146.2314149415
 30
0.0
 10
-76.1715963371
 20
146.2368901109
 30
0.0
 10
-76.1730597779
 20
146.2368093679
 30
0.0
 11
-76.1883827273
 21
143.4999469243
 31
0.0
 11
-76.1728673149
 21
144.0339361985
 31
0.0
 11
-76.162313494
 21
144.5475892355
 31
0.0
 11
-76.1557732324
 21
145.0210521583
 31
0.0
 11
-76.153809961
 21
145.2369143047
 31
0.0
 11
-76.1526507027
 21
145.4360324078
 31
0.0
 11
-76.1522723231
 21
145.6164794556
 31
0.0
 11
-76.152664163
 21
145.7765124109
 31
0.0
 11
-76.1538365065
 21
145.9145850824
 31
0.0
 11
-76.1558174217
 21
146.0293601192
 31
0.0
 11
-76.1586501369
 21
146.1197228845
 31
0.0
 11
-76.1604067501
 21
146.1554683909
 31
0.0
 11
-76.1624039427
 21
146.1847989566
 31
0.0
 11
-76.1646546046
 21
146.2076484498
 31
0.0
 11
-76.1671718436
 21
146.2239549405
 31
0.0
 11
-76.1699690457
 21
146.2336819119
 31
0.0
 11
-76.1730597779
 21
146.2368093679
 31
0.0
  0
SPLINE
  5
518
100
AcDbEntity
  8
RACCORDO
100
AcDbSpline
 62
253
  6
CONTINUOUS
 70
0
 71
3
 72
11
 73
7
 74
5
 42
0.0000001
 43
0.0000001
 44
0.0000000001
 12
0.9319598916
 22
-0.0703650759
 32
0.0
 13
0.9332487763
 23
-0.0504698415
 33
0.0
 40
0.0
 40
0.0
 40
0.0
 40
0.0
 40
0.112100611
 40
0.3352184976
 40
0.6432137295
 40
1.0
 40
1.0
 40
1.0
 40
1.0
 10
-77.1214921114
 20
143.5528968088
 30
0.0
 10
-77.086667687
 20
143.5502674862
 30
0.0
 10
-76.9823957725
 20
143.5443334112
 30
0.0
 10
-76.7823604644
 20
143.5325852214
 30
0.0
 10
-76.5061652187
 20
143.5173208667
 30
0.0
 10
-76.2993711017
 20
143.5060023154
 30
0.0
 10
-76.1883809849
 20
143.4999999999
 30
0.0
 11
-77.1214921114
 21
143.5528968088
 31
0.0
 11
-77.016930788
 21
143.5462775563
 31
0.0
 11
-76.8087499838
 21
143.5342360923
 31
0.0
 11
-76.5213417521
 21
143.5181832849
 31
0.0
 11
-76.1883809849
 21
143.4999999999
 31
0.0
  0
SPLINE
  5
519
100
AcDbEntity
  8
RACCORDO
100
AcDbSpline
 62
253
  6
CONTINUOUS
 70
0
 71
3
 72
13
 73
9
 74
7
 42
0.0000001
 43
0.0000001
 44
0.0000000001
 12
-0.0475288912
 22
22.2499714453
 32
0.0
 13
0.0000853955
 23
22.2500222091
 33
0.0
 40
0.0
 40
0.0
 40
0.0
 40
0.0
 40
0.1249998934
 40
0.2499998978
 40
0.3749999083
 40
0.4999999242
 40
0.7499999616
 40
1.0
 40
1.0
 40
1.0
 40
1.0
 10
-80.5577309006
 20
-128.7499997667
 30
0.0
 10
-80.5597112694
 20
-127.8229184136
 30
0.0
 10
-80.5603259987
 20
-125.968749312
 30
0.0
 10
-80.5614560047
 20
-123.1874980228
 30
0.0
 10
-80.5622401876
 20
-120.4062449658
 30
0.0
 10
-80.5628511015
 20
-116.6979075533
 30
0.0
 10
-80.5630562522
 20
-112.0624855463
 30
0.0
 10
-80.5629539324
 20
-108.3541479585
 30
0.0
 10
-80.5629468161
 20
-106.4999791562
 30
0.0
 11
-80.5577309006
 21
-128.7499997667
 31
0.0
 11
-80.5603606504
 21
-125.9687506052
 31
0.0
 11
-80.5613983674
 21
-123.1874979242
 31
0.0
 11
-80.5621858547
 21
-120.4062450275
 31
0.0
 11
-80.5626611402
 21
-117.6249919367
 31
0.0
 11
-80.5629896421
 21
-112.0624855631
 31
0.0
 11
-80.5629468161
 21
-106.4999791562
 31
0.0
  0
SPLINE
  5
51A
100
AcDbEntity
  8
RACCORDO
100
AcDbSpline
 62
253
  6
CONTINUOUS
 70
0
 71
3
 72
11
 73
7
 74
5
 42
0.0000001
 43
0.0000001
 44
0.0000000001
 12
0.0000011667
 22
1.8503471345
 32
0.0
 13
-0.0000017409
 23
1.8503471345
 33
0.0
 40
0.0
 40
0.0
 40
0.0
 40
0.0
 40
0.3231139748
 40
0.6142152691
 40
0.8459379869
 40
1.0
 40
1.0
 40
1.0
 40
1.0
 10
-80.5629468271
 20
-84.2499924231
 30
0.0
 10
-80.5629467015
 20
-84.0507014173
 30
0.0
 10
-80.564997791
 20
-83.6718629969
 30
0.0
 10
-80.5731348621
 20
-83.1501515345
 30
0.0
 10
-80.58292453
 20
-82.7327932988
 30
0.0
 10
-80.5890905442
 20
-82.4948931962
 30
0.0
 10
-80.5890906336
 20
-82.3998704614
 30
0.0
 11
-80.5629468271
 21
-84.2499924231
 31
0.0
 11
-80.5661720869
 21
-83.6521281053
 31
0.0
 11
-80.5744911147
 21
-83.113553905
 31
0.0
 11
-80.5842593162
 21
-82.6848977225
 31
0.0
 11
-80.5890906336
 21
-82.3998704614
 31
0.0
  0
SPLINE
  5
51B
100
AcDbEntity
  8
RACCORDO
100
AcDbSpline
 62
253
  6
CONTINUOUS
 70
0
 71
3
 72
12
 73
8
 74
6
 42
0.0000001
 43
0.0000001
 44
0.0000000001
 12
-0.6070657325
 22
-0.0832683493
 32
0.0
 13
-0.6125884827
 23
-0.0140631567
 33
0.0
 40
0.0
 40
0.0
 40
0.0
 40
0.0
 40
0.0425737005
 40
0.1096506005
 40
0.3159162784
 40
0.6147123592
 40
1.0
 40
1.0
 40
1.0
 40
1.0
 10
-79.945489675
 20
-128.7273102883
 30
0.0
 10
-79.9541046866
 20
-128.7284919689
 30
0.0
 10
-79.9764371674
 20
-128.7303834575
 30
0.0
 10
-80.0408278017
 20
-128.734424215
 30
0.0
 10
-80.1576132463
 20
-128.7390788709
 30
0.0
 10
-80.3393714818
 20
-128.7447562926
 30
0.0
 10
-80.4790566189
 20
-128.7481938798
 30
0.0
 10
-80.557730876
 20
-128.75
 30
0.0
 11
-79.945489675
 21
-128.7273102883
 31
0.0
 11
-79.9714491318
 21
-128.7298870577
 31
0.0
 11
-80.0124630125
 21
-128.7325672838
 31
0.0
 11
-80.1387276887
 21
-128.7381779182
 31
0.0
 11
-80.3217214546
 21
-128.7440283824
 31
0.0
 11
-80.557730876
 21
-128.75
 31
0.0
  0
SPLINE
  5
51C
100
AcDbEntity
  8
RACCORDO
100
AcDbSpline
 62
253
  6
CONTINUOUS
 70
0
 71
3
 72
11
 73
7
 74
5
 42
0.0000001
 43
0.0000001
 44
0.0000000001
 12
-0.0
 22
-1.7124050106
 32
0.0
 13
-1.0118446481
 23
-1.3814851894
 33
0.0
 40
0.0
 40
0.0
 40
0.0
 40
0.0
 40
0.2482983423
 40
0.4973190821
 40
0.7477136175
 40
1.0
 40
1.0
 40
1.0
 40
1.0
 10
-80.0597112043
 20
-80.7994651035
 30
0.0
 10
-80.0597112043
 20
-80.941194212
 30
0.0
 10
-80.0825686192
 20
-81.2255835012
 30
0.0
 10
-80.1846017563
 20
-81.6418021756
 30
0.0
 10
-80.3519397554
 20
-82.0387696496
 30
0.0
 10
-80.5039990916
 20
-82.2836938278
 30
0.0
 10
-80.5890906336
 20
-82.3998704614
 30
0.0
 11
-80.0597112043
 21
-80.7994651035
 31
0.0
 11
-80.0937544621
 21
-81.2232873756
 31
0.0
 11
-80.1951116065
 21
-81.6374907873
 31
0.0
 11
-80.3614822859
 21
-82.0326747826
 31
0.0
 11
-80.5890906336
 21
-82.3998704614
 31
0.0
  0
SPLINE
  5
51D
100
AcDbEntity
  8
RACCORDO
100
AcDbSpline
 62
253
  6
CONTINUOUS
 70
0
 71
3
 72
11
 73
7
 74
5
 42
0.0000001
 43
0.0000001
 44
0.0000000001
 12
-0.0
 22
1.7124050091
 32
0.0
 13
-1.0118446267
 23
1.3814852032
 33
0.0
 40
0.0
 40
0.0
 40
0.0
 40
0.0
 40
0.2482983372
 40
0.4973190754
 40
0.7477136127
 40
1.0
 40
1.0
 40
1.0
 40
1.0
 10
-80.0597112043
 20
-61.2005348965
 30
0.0
 10
-80.0597112043
 20
-61.0588057911
 30
0.0
 10
-80.0825686197
 20
-60.774416506
 30
0.0
 10
-80.1846017572
 20
-60.358197835
 30
0.0
 10
-80.3519397566
 20
-59.9612303585
 30
0.0
 10
-80.5039990918
 20
-59.7163061756
 30
0.0
 10
-80.5890906336
 20
-59.6001295386
 30
0.0
 11
-80.0597112043
 21
-61.2005348965
 31
0.0
 11
-80.093754462
 21
-60.7767126336
 31
0.0
 11
-80.1951116064
 21
-60.3625092251
 31
0.0
 11
-80.3614822858
 21
-59.9673252266
 31
0.0
 11
-80.5890906336
 21
-59.6001295386
 31
0.0
  0
SPLINE
  5
51E
100
AcDbEntity
  8
RACCORDO
100
AcDbSpline
 62
253
  6
CONTINUOUS
 70
0
 71
3
 72
15
 73
11
 74
9
 42
0.0000001
 43
0.0000001
 44
0.0000000001
 12
-0.0003267705
 22
22.227330786
 32
0.0
 13
0.1663964788
 23
22.2267079476
 33
0.0
 40
0.0
 40
0.0
 40
0.0
 40
0.0
 40
0.2500002598
 40
0.3750003845
 40
0.5000004885
 40
0.6250005409
 40
0.7500004746
 40
0.8750001384
 40
0.9375000091
 40
1.0
 40
1.0
 40
1.0
 40
1.0
 10
-79.9623198929
 20
106.4999999995
 30
0.0
 10
-79.9623471238
 20
108.3522794898
 30
0.0
 10
-79.9625984777
 20
111.1306986815
 30
0.0
 10
-79.9623122079
 20
114.8352574427
 30
0.0
 10
-79.9615804499
 20
117.6136757779
 30
0.0
 10
-79.9601689772
 20
120.3920925476
 30
0.0
 10
-79.9575737723
 20
123.1705049677
 30
0.0
 10
-79.9550335011
 20
125.4858471322
 30
0.0
 10
-79.9525249893
 20
127.3381184304
 30
0.0
 10
-79.9489566335
 20
128.2642539431
 30
0.0
 10
-79.9454900407
 20
128.7273102911
 30
0.0
 11
-79.9623198929
 21
106.4999999995
 31
0.0
 11
-79.9624751262
 21
112.0568384689
 31
0.0
 11
-79.9622260319
 21
114.8352575792
 31
0.0
 11
-79.9614671639
 21
117.6136761359
 31
0.0
 11
-79.9599716875
 21
120.3920932445
 31
0.0
 11
-79.9574982499
 21
123.17050702
 31
0.0
 11
-79.9543666828
 21
125.9489141299
 31
0.0
 11
-79.9519464669
 21
127.338117323
 31
0.0
 11
-79.9454900407
 21
128.7273102911
 31
0.0
  0
SPLINE
  5
51F
100
AcDbEntity
  8
RACCORDO
100
AcDbSpline
 62
253
  6
CONTINUOUS
 70
0
 71
3
 72
11
 73
7
 74
5
 42
0.0000001
 43
0.0000001
 44
0.0000000001
 12
-0.0
 22
-1.7124050106
 32
0.0
 13
-1.0118446481
 23
-1.3814851894
 33
0.0
 40
0.0
 40
0.0
 40
0.0
 40
0.0
 40
0.2482983423
 40
0.4973190821
 40
0.7477136175
 40
1.0
 40
1.0
 40
1.0
 40
1.0
 10
-80.0597112043
 20
-9.7994651035
 30
0.0
 10
-80.0597112043
 20
-9.941194212
 30
0.0
 10
-80.0825686192
 20
-10.2255835012
 30
0.0
 10
-80.1846017563
 20
-10.6418021756
 30
0.0
 10
-80.3519397554
 20
-11.0387696496
 30
0.0
 10
-80.5039990916
 20
-11.2836938278
 30
0.0
 10
-80.5890906336
 20
-11.3998704614
 30
0.0
 11
-80.0597112043
 21
-9.7994651035
 31
0.0
 11
-80.0937544621
 21
-10.2232873756
 31
0.0
 11
-80.1951116065
 21
-10.6374907873
 31
0.0
 11
-80.3614822859
 21
-11.0326747826
 31
0.0
 11
-80.5890906336
 21
-11.3998704614
 31
0.0
  0
SPLINE
  5
520
100
AcDbEntity
  8
RACCORDO
100
AcDbSpline
 62
253
  6
CONTINUOUS
 70
0
 71
3
 72
30
 73
26
 74
24
 42
0.0000001
 43
0.0000001
 44
0.0000000001
 12
0.0270364001
 22
3.6101259593
 32
0.0
 13
-2.1097431175
 23
2.9296287115
 33
0.0
 40
0.0
 40
0.0
 40
0.0
 40
0.0
 40
0.0980138573
 40
0.1950069751
 40
0.2899398978
 40
0.3820349625
 40
0.4722079068
 40
0.5576811898
 40
0.6374311929
 40
0.7105548282
 40
0.7763481843
 40
0.8342146826
 40
0.8839205708
 40
0.9055083132
 40
0.9247629622
 40
0.9417525358
 40
0.9564655992
 40
0.9688785637
 40
0.9791147861
 40
0.9877612248
 40
0.9943261874
 40
0.9966503566
 40
0.9983700884
 40
0.9994856902
 40
1.0
 40
1.0
 40
1.0
 40
1.0
 10
-79.9454900407
 20
128.7273102911
 30
0.0
 10
-79.9446067267
 20
128.845257748
 30
0.0
 10
-79.943612877
 20
129.0799313676
 30
0.0
 10
-79.9446639613
 20
129.4288475566
 30
0.0
 10
-79.9478090324
 20
129.770632648
 30
0.0
 10
-79.9548905875
 20
130.1041485572
 30
0.0
 10
-79.9581861755
 20
130.426337686
 30
0.0
 10
-79.9603530466
 20
130.7336761625
 30
0.0
 10
-79.9610149871
 20
131.0205057566
 30
0.0
 10
-79.9604121664
 20
131.2836511415
 30
0.0
 10
-79.9588754795
 20
131.5204596284
 30
0.0
 10
-79.9559355867
 20
131.7290679978
 30
0.0
 10
-79.9542581379
 20
131.8844956797
 30
0.0
 10
-79.9545207909
 20
131.9934627303
 30
0.0
 10
-79.9544255827
 20
132.0630583089
 30
0.0
 10
-79.9541299873
 20
132.124379997
 30
0.0
 10
-79.9536375772
 20
132.1774677246
 30
0.0
 10
-79.9529241984
 20
132.2224227099
 30
0.0
 10
-79.9520246832
 20
132.2600790935
 30
0.0
 10
-79.9508020957
 20
132.2906667991
 30
0.0
 10
-79.9501839146
 20
132.3117881018
 30
0.0
 10
-79.9501398755
 20
132.324519967
 30
0.0
 10
-79.9501459279
 20
132.3307900265
 30
0.0
 10
-79.9505020823
 20
132.334696867
 30
0.0
 10
-79.9505812791
 20
132.3367981575
 30
0.0
 10
-79.9509429663
 20
132.337300403
 30
0.0
 11
-79.9454900407
 21
128.7273102911
 31
0.0
 11
-79.944037334
 21
129.0811596024
 31
0.0
 11
-79.9450365189
 21
129.4313253686
 31
0.0
 11
-79.9485378765
 21
129.7740369022
 31
0.0
 11
-79.9543236951
 21
130.1064706639
 31
0.0
 11
-79.958066976
 21
130.4319939581
 31
0.0
 11
-79.9601492524
 21
130.7405649031
 31
0.0
 11
-79.9608031562
 21
131.0284797906
 31
0.0
 11
-79.9601974926
 21
131.2924720328
 31
0.0
 11
-79.9584933235
 21
131.5299948831
 31
0.0
 11
-79.9559207922
 21
131.7388902491
 31
0.0
 11
-79.9544435568
 21
131.9183337183
 31
0.0
 11
-79.9544756753
 21
131.9962703662
 31
0.0
 11
-79.9543793568
 21
132.065783957
 31
0.0
 11
-79.9540679712
 21
132.1271193871
 31
0.0
 11
-79.953548606
 21
132.1802343496
 31
0.0
 11
-79.9528169951
 21
132.2250419995
 31
0.0
 11
-79.9518718885
 21
132.2619850005
 31
0.0
 11
-79.9507649565
 21
132.2931809761
 31
0.0
 11
-79.9501852104
 21
132.3168748912
 31
0.0
 11
-79.9501444784
 21
132.325265571
 31
0.0
 11
-79.9502563195
 21
132.331473186
 31
0.0
 11
-79.950521929
 21
132.3354919945
 31
0.0
 11
-79.9509429663
 21
132.337300403
 31
0.0
  0
SPLINE
  5
521
100
AcDbEntity
  8
RACCORDO
100
AcDbSpline
 62
253
  6
CONTINUOUS
 70
0
 71
3
 72
11
 73
7
 74
5
 42
0.0000001
 43
0.0000001
 44
0.0000000001
 12
-0.0
 22
1.7124050091
 32
0.0
 13
-1.0118446267
 23
1.3814852032
 33
0.0
 40
0.0
 40
0.0
 40
0.0
 40
0.0
 40
0.2482983372
 40
0.4973190754
 40
0.7477136127
 40
1.0
 40
1.0
 40
1.0
 40
1.0
 10
-80.0597112043
 20
9.7994651035
 30
0.0
 10
-80.0597112043
 20
9.9411942089
 30
0.0
 10
-80.0825686197
 20
10.225583494
 30
0.0
 10
-80.1846017572
 20
10.641802165
 30
0.0
 10
-80.3519397566
 20
11.0387696415
 30
0.0
 10
-80.5039990918
 20
11.2836938244
 30
0.0
 10
-80.5890906336
 20
11.3998704614
 30
0.0
 11
-80.0597112043
 21
9.7994651035
 31
0.0
 11
-80.093754462
 21
10.2232873664
 31
0.0
 11
-80.1951116064
 21
10.6374907749
 31
0.0
 11
-80.3614822858
 21
11.0326747734
 31
0.0
 11
-80.5890906336
 21
11.3998704614
 31
0.0
  0
SPLINE
  5
522
100
AcDbEntity
  8
RACCORDO
100
AcDbSpline
 62
253
  6
CONTINUOUS
 70
0
 71
3
 72
11
 73
7
 74
5
 42
0.0000001
 43
0.0000001
 44
0.0000000001
 12
-0.0
 22
-1.7124050106
 32
0.0
 13
-1.0118446481
 23
-1.3814851894
 33
0.0
 40
0.0
 40
0.0
 40
0.0
 40
0.0
 40
0.2482983423
 40
0.4973190821
 40
0.7477136175
 40
1.0
 40
1.0
 40
1.0
 40
1.0
 10
-80.0597112043
 20
61.2005348965
 30
0.0
 10
-80.0597112043
 20
61.058805788
 30
0.0
 10
-80.0825686192
 20
60.7744164988
 30
0.0
 10
-80.1846017563
 20
60.3581978244
 30
0.0
 10
-80.3519397554
 20
59.9612303504
 30
0.0
 10
-80.5039990916
 20
59.7163061722
 30
0.0
 10
-80.5890906336
 20
59.6001295386
 30
0.0
 11
-80.0597112043
 21
61.2005348965
 31
0.0
 11
-80.0937544621
 21
60.7767126244
 31
0.0
 11
-80.1951116065
 21
60.3625092127
 31
0.0
 11
-80.3614822859
 21
59.9673252174
 31
0.0
 11
-80.5890906336
 21
59.6001295386
 31
0.0
  0
SPLINE
  5
523
100
AcDbEntity
  8
RACCORDO
100
AcDbSpline
 62
253
  6
CONTINUOUS
 70
0
 71
3
 72
13
 73
9
 74
7
 42
0.0000001
 43
0.0000001
 44
0.0000000001
 12
0.0322922952
 22
-0.0421484248
 32
0.0
 13
-0.000661453
 23
0.0530927916
 33
0.0
 40
0.0
 40
0.0
 40
0.0
 40
0.0
 40
0.0119704222
 40
0.0562189993
 40
0.133019281
 40
0.2423212919
 40
0.5584597799
 40
1.0
 40
1.0
 40
1.0
 40
1.0
 10
-80.5593711768
 20
-130.7582091932
 30
0.0
 10
-80.559242326
 20
-130.7583773714
 30
0.0
 10
-80.5591567219
 20
-130.7563848289
 30
0.0
 10
-80.5590799848
 20
-130.7551137983
 30
0.0
 10
-80.5590568583
 20
-130.7503882566
 30
0.0
 10
-80.5590932507
 20
-130.7419058948
 30
0.0
 10
-80.5593675604
 20
-130.7262504804
 30
0.0
 10
-80.559574422
 20
-130.7129544363
 30
0.0
 10
-80.5596717747
 20
-130.7051402353
 30
0.0
 11
-80.5593711768
 21
-130.7582091932
 31
0.0
 11
-80.5592082822
 21
-130.7575948292
 31
0.0
 11
-80.5591064705
 21
-130.7552475734
 31
0.0
 11
-80.5590655998
 21
-130.7511699205
 31
0.0
 11
-80.5590851134
 21
-130.745366354
 31
0.0
 11
-80.5593221621
 21
-130.7285820505
 31
0.0
 11
-80.5596717747
 21
-130.7051402353
 31
0.0
  0
SPLINE
  5
524
100
AcDbEntity
  8
RACCORDO
100
AcDbSpline
 62
253
  6
CONTINUOUS
 70
0
 71
3
 72
15
 73
11
 74
9
 42
0.0000001
 43
0.0000001
 44
0.0000000001
 12
-0.0243563564
 22
1.9550094822
 32
0.0
 13
-0.0079857572
 23
1.9551448885
 33
0.0
 40
0.0
 40
0.0
 40
0.0
 40
0.0
 40
0.1331968178
 40
0.1826226653
 40
0.2377021503
 40
0.363145149
 40
0.5060243225
 40
0.6624619255
 40
0.8286865527
 40
1.0
 40
1.0
 40
1.0
 40
1.0
 10
-80.5596717747
 20
-130.7051402353
 30
0.0
 10
-80.5607531711
 20
-130.618339888
 30
0.0
 10
-80.560134383
 20
-130.4993135036
 30
0.0
 10
-80.5615079787
 20
-130.3444039879
 30
0.0
 10
-80.5621689149
 20
-130.1945430668
 30
0.0
 10
-80.5624055682
 20
-129.9837754213
 30
0.0
 10
-80.5616194677
 20
-129.7069501968
 30
0.0
 10
-80.5587593084
 20
-129.4035601458
 30
0.0
 10
-80.5569730502
 20
-129.0816294961
 30
0.0
 10
-80.5572748785
 20
-128.8616473036
 30
0.0
 10
-80.5577309011
 20
-128.7499997667
 30
0.0
 11
-80.5596717747
 21
-130.7051402353
 31
0.0
 11
-80.5607410908
 21
-130.4447211809
 31
0.0
 11
-80.561407416
 21
-130.3480879791
 31
0.0
 11
-80.5619306645
 21
-130.2403999783
 31
0.0
 11
-80.562241359
 21
-129.9951388917
 31
0.0
 11
-80.5613517603
 21
-129.7157884921
 31
0.0
 11
-80.5590111494
 21
-129.409936717
 31
0.0
 11
-80.557360661
 21
-129.0849449668
 31
0.0
 11
-80.5577309011
 21
-128.7499997667
 31
0.0
  0
SPLINE
  5
525
100
AcDbEntity
  8
RACCORDO
100
AcDbSpline
 62
253
  6
CONTINUOUS
 70
0
 71
3
 72
21
 73
17
 74
15
 42
0.0000001
 43
0.0000001
 44
0.0000000001
 12
1.3362443677
 22
1.2401344711
 32
0.0
 13
-0.0884513958
 23
1.8208950731
 33
0.0
 40
0.0
 40
0.0
 40
0.0
 40
0.0
 40
0.0030867353
 40
0.0082456545
 40
0.0156006249
 40
0.0251749307
 40
0.0509376321
 40
0.0853487123
 40
0.1281075209
 40
0.1788432708
 40
0.2371161447
 40
0.3024217646
 40
0.4518179666
 40
0.6218848108
 40
0.8067584097
 40
1.0
 40
1.0
 40
1.0
 40
1.0
 10
-77.1073205026
 20
-145.3738010161
 30
0.0
 10
-77.1059456251
 20
-145.3725250272
 30
0.0
 10
-77.1038391143
 20
-145.3677355813
 30
0.0
 10
-77.1014958365
 20
-145.3586495559
 30
0.0
 10
-77.0993336262
 20
-145.3453393286
 30
0.0
 10
-77.0964244014
 20
-145.3195828722
 30
0.0
 10
-77.0936913135
 20
-145.2772497043
 30
0.0
 10
-77.0913028733
 20
-145.2147542069
 30
0.0
 10
-77.0896378946
 20
-145.1370390663
 30
0.0
 10
-77.088653753
 20
-145.0448187153
 30
0.0
 10
-77.0883475409
 20
-144.9388903738
 30
0.0
 10
-77.0888625358
 20
-144.7730092052
 30
0.0
 10
-77.0913808149
 20
-144.5392026485
 30
0.0
 10
-77.0972114465
 20
-144.2327789371
 30
0.0
 10
-77.106596142
 20
-143.8997866301
 30
0.0
 10
-77.1157948894
 20
-143.6701877101
 30
0.0
 10
-77.1214923855
 20
-143.5528968235
 30
0.0
 11
-77.1073205026
 21
-145.3738010161
 31
0.0
 11
-77.1044901283
 21
-145.3689373852
 31
0.0
 11
-77.1019369539
 21
-145.3598856478
 31
0.0
 11
-77.0996459245
 21
-145.3466744052
 31
0.0
 11
-77.0976026753
 21
-145.3293400489
 31
0.0
 11
-77.0942064741
 21
-145.282496512
 31
0.0
 11
-77.0916528815
 21
-145.2198156586
 31
0.0
 11
-77.0898694815
 21
-145.1418849535
 31
0.0
 11
-77.0888142711
 21
-145.0493975647
 31
0.0
 11
-77.088460006
 21
-144.9431642526
 31
0.0
 11
-77.0887964227
 21
-144.8241098332
 31
0.0
 11
-77.0915959743
 21
-144.5517686552
 31
0.0
 11
-77.0974932211
 21
-144.2417857285
 31
0.0
 11
-77.1071044443
 21
-143.9048904441
 31
0.0
 11
-77.1214923855
 21
-143.5528968235
 31
0.0
  0
SPLINE
  5
526
100
AcDbEntity
  8
RACCORDO
100
AcDbSpline
 62
253
  6
CONTINUOUS
 70
0
 71
3
 72
11
 73
7
 74
5
 42
0.0000001
 43
0.0000001
 44
0.0000000001
 12
-0.0
 22
1.7124050091
 32
0.0
 13
-1.0118446267
 23
1.3814852032
 33
0.0
 40
0.0
 40
0.0
 40
0.0
 40
0.0
 40
0.2482983372
 40
0.4973190754
 40
0.7477136127
 40
1.0
 40
1.0
 40
1.0
 40
1.0
 10
-80.0597112043
 20
80.7994651035
 30
0.0
 10
-80.0597112043
 20
80.9411942089
 30
0.0
 10
-80.0825686197
 20
81.225583494
 30
0.0
 10
-80.1846017572
 20
81.641802165
 30
0.0
 10
-80.3519397566
 20
82.0387696415
 30
0.0
 10
-80.5039990918
 20
82.2836938244
 30
0.0
 10
-80.5890906336
 20
82.3998704614
 30
0.0
 11
-80.0597112043
 21
80.7994651035
 31
0.0
 11
-80.093754462
 21
81.2232873664
 31
0.0
 11
-80.1951116064
 21
81.6374907749
 31
0.0
 11
-80.3614822858
 21
82.0326747734
 31
0.0
 11
-80.5890906336
 21
82.3998704614
 31
0.0
  0
SPLINE
  5
527
100
AcDbEntity
  8
RACCORDO
100
AcDbSpline
 62
253
  6
CONTINUOUS
 70
0
 71
3
 72
11
 73
7
 74
5
 42
0.0000001
 43
0.0000001
 44
0.0000000001
 12
0.0000011667
 22
1.8503471345
 32
0.0
 13
-0.0000017409
 23
1.8503471345
 33
0.0
 40
0.0
 40
0.0
 40
0.0
 40
0.0
 40
0.3231139748
 40
0.6142152691
 40
0.8459379869
 40
1.0
 40
1.0
 40
1.0
 40
1.0
 10
-80.5629468271
 20
-13.2499924231
 30
0.0
 10
-80.5629467015
 20
-13.0507014173
 30
0.0
 10
-80.564997791
 20
-12.6718629969
 30
0.0
 10
-80.5731348621
 20
-12.1501515345
 30
0.0
 10
-80.58292453
 20
-11.7327932988
 30
0.0
 10
-80.5890905442
 20
-11.4948931962
 30
0.0
 10
-80.5890906336
 20
-11.3998704614
 30
0.0
 11
-80.5629468271
 21
-13.2499924231
 31
0.0
 11
-80.5661720869
 21
-12.6521281053
 31
0.0
 11
-80.5744911147
 21
-12.113553905
 31
0.0
 11
-80.5842593162
 21
-11.6848977225
 31
0.0
 11
-80.5890906336
 21
-11.3998704614
 31
0.0
  0
SPLINE
  5
528
100
AcDbEntity
  8
RACCORDO
100
AcDbSpline
 62
253
  6
CONTINUOUS
 70
0
 71
3
 72
12
 73
8
 74
6
 42
0.0000001
 43
0.0000001
 44
0.0000000001
 12
-0.6070658612
 22
0.0832648292
 32
0.0
 13
-0.6125881265
 23
0.0140633876
 33
0.0
 40
0.0
 40
0.0
 40
0.0
 40
0.0
 40
0.042573644
 40
0.1096505086
 40
0.3159161632
 40
0.614712276
 40
1.0
 40
1.0
 40
1.0
 40
1.0
 10
-79.9454900442
 20
128.7273102911
 30
0.0
 10
-79.9541050461
 20
128.7284919201
 30
0.0
 10
-79.976437498
 20
128.7303833515
 30
0.0
 10
-80.0408280774
 20
128.7344240354
 30
0.0
 10
-80.1576134468
 20
128.7390787077
 30
0.0
 10
-80.3393715957
 20
128.7447561995
 30
0.0
 10
-80.4790566744
 20
128.7481938498
 30
0.0
 10
-80.5577309028
 20
128.75
 30
0.0
 11
-79.9454900442
 21
128.7273102911
 31
0.0
 11
-79.9714494603
 21
128.7298869685
 31
0.0
 11
-80.0124632992
 21
128.7325671401
 31
0.0
 11
-80.1387278895
 21
128.7381777561
 31
0.0
 11
-80.3217215681
 21
128.744028284
 31
0.0
 11
-80.5577309028
 21
128.75
 31
0.0
  0
SPLINE
  5
529
100
AcDbEntity
  8
RACCORDO
100
AcDbSpline
 62
253
  6
CONTINUOUS
 70
0
 71
3
 72
11
 73
7
 74
5
 42
0.0000001
 43
0.0000001
 44
0.0000000001
 12
0.0000020519
 22
1.8503415003
 32
0.0
 13
-0.0000009899
 23
1.8503415003
 33
0.0
 40
0.0
 40
0.0
 40
0.0
 40
0.0
 40
0.1540654654
 40
0.3857810385
 40
0.6768768635
 40
1.0
 40
1.0
 40
1.0
 40
1.0
 10
-80.5890906336
 20
82.3998704614
 30
0.0
 10
-80.5890905282
 20
82.4948950362
 30
0.0
 10
-80.5829245684
 20
82.732792137
 30
0.0
 10
-80.5731350408
 20
83.1501434526
 30
0.0
 10
-80.5649978078
 20
83.6718511936
 30
0.0
 10
-80.5629467296
 20
84.0506907387
 30
0.0
 10
-80.5629468362
 20
84.2499867884
 30
0.0
 11
-80.5890906336
 21
82.3998704614
 31
0.0
 11
-80.5842591927
 21
82.6849032412
 31
0.0
 11
-80.5744912734
 21
83.1135449007
 31
0.0
 11
-80.5661722512
 21
83.6521073393
 31
0.0
 11
-80.5629468362
 21
84.2499867884
 31
0.0
  0
SPLINE
  5
52A
100
AcDbEntity
  8
RACCORDO
100
AcDbSpline
 62
253
  6
CONTINUOUS
 70
0
 71
3
 72
30
 73
26
 74
24
 42
0.0000001
 43
0.0000001
 44
0.0000000001
 12
-0.1702266288
 22
0.1577588532
 32
0.0
 13
0.0794363758
 23
0.2180706838
 33
0.0
 40
0.0
 40
0.0
 40
0.0
 40
0.0
 40
0.0524689247
 40
0.0779629328
 40
0.1060288521
 40
0.1228109108
 40
0.1318760758
 40
0.1509873258
 40
0.1901475164
 40
0.2308423009
 40
0.3155908647
 40
0.3583617436
 40
0.3989510271
 40
0.4413128056
 40
0.4899065972
 40
0.5355521225
 40
0.5769716115
 40
0.6435554674
 40
0.7098047943
 40
0.8334273501
 40
0.9261059519
 40
0.9578365503
 40
0.9801478859
 40
0.9938048414
 40
1.0
 40
1.0
 40
1.0
 40
1.0
 10
-77.1073205026
 20
145.3738010161
 30
0.0
 10
-77.1102977054
 20
145.3765601619
 30
0.0
 10
-77.1142095689
 20
145.3812533077
 30
0.0
 10
-77.1179797542
 20
145.3886456256
 30
0.0
 10
-77.1190201506
 20
145.3939396272
 30
0.0
 10
-77.119702136
 20
145.3982435775
 30
0.0
 10
-77.1222027543
 20
145.4007613817
 30
0.0
 10
-77.1252069808
 20
145.4049935219
 30
0.0
 10
-77.1300723172
 20
145.4109265702
 30
0.0
 10
-77.1378043125
 20
145.4210366892
 30
0.0
 10
-77.1456688258
 20
145.4314165805
 30
0.0
 10
-77.1529681842
 20
145.4421780987
 30
0.0
 10
-77.1586743442
 20
145.4500681381
 30
0.0
 10
-77.1658887079
 20
145.4573423483
 30
0.0
 10
-77.1709723805
 20
145.4666921665
 30
0.0
 10
-77.176397483
 20
145.4756657148
 30
0.0
 10
-77.1812245669
 20
145.4865704082
 30
0.0
 10
-77.1889670759
 20
145.4976661036
 30
0.0
 10
-77.1992145139
 20
145.5146459588
 30
0.0
 10
-77.2100747281
 20
145.5336230637
 30
0.0
 10
-77.2184209308
 20
145.550948463
 30
0.0
 10
-77.2227722869
 20
145.561398853
 30
0.0
 10
-77.2246256911
 20
145.5663546608
 30
0.0
 10
-77.2254304218
 20
145.5694288658
 30
0.0
 10
-77.2257873206
 20
145.5710335255
 30
0.0
 10
-77.2256232802
 20
145.571483853
 30
0.0
 11
-77.1073205026
 21
145.3738010161
 31
0.0
 11
-77.1150468831
 21
145.3832133824
 31
0.0
 11
-77.1176362896
 21
145.3885335522
 31
0.0
 11
-77.119149444
 21
145.3948691317
 31
0.0
 11
-77.1202679738
 21
145.3985999874
 31
0.0
 11
-77.1216118868
 21
145.4002187432
 31
0.0
 11
-77.1243409934
 21
145.403715257
 31
0.0
 11
-77.1299548535
 21
145.4108628159
 31
0.0
 11
-77.135732044
 21
145.4183346278
 31
0.0
 11
-77.1474437094
 21
145.4341369134
 31
0.0
 11
-77.1531060692
 21
145.4422901608
 31
0.0
 11
-77.1587817057
 21
145.4498087465
 31
0.0
 11
-77.165199131
 21
145.4572571301
 31
0.0
 11
-77.171151643
 21
145.4668363775
 31
0.0
 11
-77.1763612941
 21
145.4760606896
 31
0.0
 11
-77.180640752
 21
145.484668568
 31
0.0
 11
-77.1888325922
 21
145.4977719723
 31
0.0
 11
-77.1968868276
 21
145.5108693448
 31
0.0
 11
-77.2109259066
 21
145.5358912848
 31
0.0
 11
-77.2201961836
 21
145.5553007033
 31
0.0
 11
-77.2230091555
 21
145.5621065901
 31
0.0
 11
-77.2247478747
 21
145.566984151
 31
0.0
 11
-77.2255624267
 21
145.5700473177
 31
0.0
 11
-77.2256232802
 21
145.571483853
 31
0.0
  0
SPLINE
  5
52B
100
AcDbEntity
  8
RACCORDO
100
AcDbSpline
 62
253
  6
CONTINUOUS
 70
0
 71
3
 72
21
 73
17
 74
15
 42
0.0000001
 43
0.0000001
 44
0.0000000001
 12
0.0884495483
 22
1.8208951889
 32
0.0
 13
-1.3364010228
 23
1.2399656922
 33
0.0
 40
0.0
 40
0.0
 40
0.0
 40
0.0
 40
0.1932416531
 40
0.378115245
 40
0.5481820739
 40
0.6975782248
 40
0.7628837969
 40
0.8211565838
 40
0.871892291
 40
0.9146511153
 40
0.9490621109
 40
0.9748248306
 40
0.9843992367
 40
0.9917543673
 40
0.9969133867
 40
1.0
 40
1.0
 40
1.0
 40
1.0
 10
-77.1214923855
 20
143.5528968235
 30
0.0
 10
-77.1157950066
 20
143.6701877556
 30
0.0
 10
-77.1065960044
 20
143.8997867012
 30
0.0
 10
-77.0972114222
 20
144.2327790426
 30
0.0
 10
-77.0913807702
 20
144.5392027127
 30
0.0
 10
-77.088862538
 20
144.7730092042
 30
0.0
 10
-77.088347547
 20
144.938890262
 30
0.0
 10
-77.088653781
 20
145.0448184974
 30
0.0
 10
-77.089637938
 20
145.1370387793
 30
0.0
 10
-77.0913028941
 20
145.2147538563
 30
0.0
 10
-77.0936913761
 20
145.2772493158
 30
0.0
 10
-77.0964244832
 20
145.3195825182
 30
0.0
 10
-77.0993336761
 20
145.3453391253
 30
0.0
 10
-77.1014958367
 20
145.3586496253
 30
0.0
 10
-77.1038390397
 20
145.3677356598
 30
0.0
 10
-77.1059455182
 20
145.3725252512
 30
0.0
 10
-77.1073205026
 20
145.3738010161
 30
0.0
 11
-77.1214923855
 21
143.5528968235
 31
0.0
 11
-77.1071043865
 21
143.9048905613
 31
0.0
 11
-77.0974931756
 21
144.2417858381
 31
0.0
 11
-77.091595943
 21
144.5517687418
 31
0.0
 11
-77.0887964238
 21
144.8241098307
 31
0.0
 11
-77.088460016
 21
144.9431641647
 31
0.0
 11
-77.0888142991
 21
145.0493973196
 31
0.0
 11
-77.0898695177
 21
145.1418846319
 31
0.0
 11
-77.0916529165
 21
145.2198153668
 31
0.0
 11
-77.0942065335
 21
145.2824960657
 31
0.0
 11
-77.0976027297
 21
145.3293396372
 31
0.0
 11
-77.0996459541
 21
145.3466741806
 31
0.0
 11
-77.1019369468
 21
145.3598857261
 31
0.0
 11
-77.1044900978
 21
145.3689376601
 31
0.0
 11
-77.1073205026
 21
145.3738010161
 31
0.0
  0
SPLINE
  5
52C
100
AcDbEntity
  8
RACCORDO
100
AcDbSpline
 62
253
  6
CONTINUOUS
 70
0
 71
3
 72
27
 73
23
 74
21
 42
0.0000001
 43
0.0000001
 44
0.0000000001
 12
0.0082024224
 22
2.0082459955
 32
0.0
 13
-1.2213120557
 23
-1.5942133234
 33
0.0
 40
0.0
 40
0.0
 40
0.0
 40
0.0
 40
0.1949904452
 40
0.2899995473
 40
0.3820247545
 40
0.5542790849
 40
0.6329783049
 40
0.7057263275
 40
0.7718315454
 40
0.8306572783
 40
0.8813544861
 40
0.9233411694
 40
0.9410712219
 40
0.9565699663
 40
0.9698010696
 40
0.9807285044
 40
0.9892950577
 40
0.9953738748
 40
0.9974712867
 40
0.9989401375
 40
0.9997801719
 40
1.0
 40
1.0
 40
1.0
 40
1.0
 10
-80.5577309008
 20
128.7499998388
 30
0.0
 10
-80.5571977695
 20
128.8805294323
 30
0.0
 10
-80.5570963638
 20
129.0746630005
 30
0.0
 10
-80.5582395124
 20
129.330396638
 30
0.0
 10
-80.560580522
 20
129.5709009581
 30
0.0
 10
-80.5619254719
 20
129.8004953616
 30
0.0
 10
-80.5623258957
 20
130.0171878354
 30
0.0
 10
-80.5622041148
 20
130.1628220534
 30
0.0
 10
-80.5617866797
 20
130.2951521404
 30
0.0
 10
-80.5609318616
 20
130.412718334
 30
0.0
 10
-80.5603261055
 20
130.5141402077
 30
0.0
 10
-80.5604000818
 20
130.5880551932
 30
0.0
 10
-80.5602074485
 20
130.6384036193
 30
0.0
 10
-80.560030184
 20
130.669509294
 30
0.0
 10
-80.5597906113
 20
130.6960411075
 30
0.0
 10
-80.5595204639
 20
130.7179871661
 30
0.0
 10
-80.5591868
 20
130.7349977231
 30
0.0
 10
-80.5590727567
 20
130.7464224151
 30
0.0
 10
-80.5590514883
 20
130.7525913918
 30
0.0
 10
-80.5591340379
 20
130.7559977212
 30
0.0
 10
-80.5591378843
 20
130.7569338826
 30
0.0
 10
-80.559281683
 20
130.758326012
 30
0.0
 10
-80.5593711759
 20
130.7582091943
 30
0.0
 11
-80.5577309008
 21
128.7499998388
 31
0.0
 11
-80.5574995681
 21
129.1415918174
 31
0.0
 11
-80.5584184861
 21
129.332392845
 31
0.0
 11
-80.5599746424
 21
129.5171970885
 31
0.0
 11
-80.5619749505
 21
129.8631232598
 31
0.0
 11
-80.562259776
 21
130.021171715
 31
0.0
 11
-80.5621412468
 21
130.1672688104
 31
0.0
 11
-80.5616749237
 21
130.300024638
 31
0.0
 11
-80.5609197573
 21
130.4181597523
 31
0.0
 11
-80.5604207309
 21
130.5199718431
 31
0.0
 11
-80.5603209498
 21
130.6042920758
 31
0.0
 11
-80.5601898674
 21
130.6398984386
 31
0.0
 11
-80.5600029233
 21
130.6710234281
 31
0.0
 11
-80.5597606513
 21
130.6975938555
 31
0.0
 11
-80.5594716183
 21
130.7195371123
 31
0.0
 11
-80.5591855893
 21
130.7367386242
 31
0.0
 11
-80.5590664557
 21
130.7489459049
 31
0.0
 11
-80.5590759321
 21
130.7531580483
 31
0.0
 11
-80.5591297335
 21
130.7561073961
 31
0.0
 11
-80.5592281487
 21
130.7577915327
 31
0.0
 11
-80.5593711759
 21
130.7582091943
 31
0.0
  0
SPLINE
  5
52D
100
AcDbEntity
  8
RACCORDO
100
AcDbSpline
 62
253
  6
CONTINUOUS
 70
0
 71
3
 72
13
 73
9
 74
7
 42
0.0000001
 43
0.0000001
 44
0.0000000001
 12
-0.0000854358
 22
22.2500222828
 32
0.0
 13
0.0475345626
 23
22.2499715069
 33
0.0
 40
0.0
 40
0.0
 40
0.0
 40
0.0
 40
0.2500000385
 40
0.5000000758
 40
0.6250000918
 40
0.7500001023
 40
0.8750001067
 40
1.0
 40
1.0
 40
1.0
 40
1.0
 10
-80.5629468161
 20
106.4999791549
 30
0.0
 10
-80.5629539358
 20
108.3541479637
 30
0.0
 10
-80.5630562589
 20
112.0624855643
 30
0.0
 10
-80.5628510757
 20
116.6979075874
 30
0.0
 10
-80.562240152
 20
120.4062450129
 30
0.0
 10
-80.5614563518
 20
123.1874980798
 30
0.0
 10
-80.5603264928
 20
125.9687493774
 30
0.0
 10
-80.5597115056
 20
127.8229184843
 30
0.0
 10
-80.5577309005
 20
128.7499998388
 30
0.0
 11
-80.5629468161
 21
106.4999791549
 31
0.0
 11
-80.5629896415
 21
112.0624855811
 31
0.0
 11
-80.5626611133
 21
117.624991974
 31
0.0
 11
-80.5621858841
 21
120.4062450745
 31
0.0
 11
-80.5613986752
 21
123.1874979812
 31
0.0
 11
-80.5603610555
 21
125.968750672
 31
0.0
 11
-80.5577309005
 21
128.7499998388
 31
0.0
  0
SPLINE
  5
52E
100
AcDbEntity
  8
RACCORDO
100
AcDbSpline
 62
253
  6
CONTINUOUS
 70
0
 71
3
 72
11
 73
7
 74
5
 42
0.0000001
 43
0.0000001
 44
0.0000000001
 12
0.0000020519
 22
1.8503415003
 32
0.0
 13
-0.0000009899
 23
1.8503415003
 33
0.0
 40
0.0
 40
0.0
 40
0.0
 40
0.0
 40
0.1540654654
 40
0.3857810385
 40
0.6768768635
 40
1.0
 40
1.0
 40
1.0
 40
1.0
 10
-80.5890906336
 20
-59.6001295386
 30
0.0
 10
-80.5890905282
 20
-59.5051049638
 30
0.0
 10
-80.5829245684
 20
-59.267207863
 30
0.0
 10
-80.5731350408
 20
-58.8498565474
 30
0.0
 10
-80.5649978078
 20
-58.3281488064
 30
0.0
 10
-80.5629467296
 20
-57.9493092613
 30
0.0
 10
-80.5629468362
 20
-57.7500132116
 30
0.0
 11
-80.5890906336
 21
-59.6001295386
 31
0.0
 11
-80.5842591927
 21
-59.3150967588
 31
0.0
 11
-80.5744912734
 21
-58.8864550993
 31
0.0
 11
-80.5661722512
 21
-58.3478926607
 31
0.0
 11
-80.5629468362
 21
-57.7500132116
 31
0.0
  0
SPLINE
  5
52F
100
AcDbEntity
  8
RACCORDO
100
AcDbSpline
 62
253
  6
CONTINUOUS
 70
0
 71
3
 72
11
 73
7
 74
5
 42
0.0000001
 43
0.0000001
 44
0.0000000001
 12
0.0000020519
 22
1.8503415003
 32
0.0
 13
-0.0000009899
 23
1.8503415003
 33
0.0
 40
0.0
 40
0.0
 40
0.0
 40
0.0
 40
0.1540654654
 40
0.3857810385
 40
0.6768768635
 40
1.0
 40
1.0
 40
1.0
 40
1.0
 10
-80.5890906336
 20
11.3998704614
 30
0.0
 10
-80.5890905282
 20
11.4948950362
 30
0.0
 10
-80.5829245684
 20
11.732792137
 30
0.0
 10
-80.5731350408
 20
12.1501434526
 30
0.0
 10
-80.5649978078
 20
12.6718511936
 30
0.0
 10
-80.5629467296
 20
13.0506907387
 30
0.0
 10
-80.5629468362
 20
13.2499867884
 30
0.0
 11
-80.5890906336
 21
11.3998704614
 31
0.0
 11
-80.5842591927
 21
11.6849032412
 31
0.0
 11
-80.5744912734
 21
12.1135449007
 31
0.0
 11
-80.5661722512
 21
12.6521073393
 31
0.0
 11
-80.5629468362
 21
13.2499867884
 31
0.0
  0
SPLINE
  5
530
100
AcDbEntity
  8
RACCORDO
100
AcDbSpline
 62
253
  6
CONTINUOUS
 70
0
 71
3
 72
11
 73
7
 74
5
 42
0.0000001
 43
0.0000001
 44
0.0000000001
 12
0.0000011667
 22
1.8503471345
 32
0.0
 13
-0.0000017409
 23
1.8503471345
 33
0.0
 40
0.0
 40
0.0
 40
0.0
 40
0.0
 40
0.3231139748
 40
0.6142152691
 40
0.8459379869
 40
1.0
 40
1.0
 40
1.0
 40
1.0
 10
-80.5629468271
 20
57.7500075769
 30
0.0
 10
-80.5629467015
 20
57.9492985827
 30
0.0
 10
-80.564997791
 20
58.3281370031
 30
0.0
 10
-80.5731348621
 20
58.8498484655
 30
0.0
 10
-80.58292453
 20
59.2672067012
 30
0.0
 10
-80.5890905442
 20
59.5051068038
 30
0.0
 10
-80.5890906336
 20
59.6001295386
 30
0.0
 11
-80.5629468271
 21
57.7500075769
 31
0.0
 11
-80.5661720869
 21
58.3478718947
 31
0.0
 11
-80.5744911147
 21
58.886446095
 31
0.0
 11
-80.5842593162
 21
59.3151022775
 31
0.0
 11
-80.5890906336
 21
59.6001295386
 31
0.0
  0
ELLIPSE
  5
531
100
AcDbEntity
  8
RACCORDO
100
AcDbEllipse
 62
7
  6
CONTINUOUS
 10
-4.1331429141
 20
-146.4720456601
 30
0.0
 11
0.5
 21
-0.0
 31
0.0
 40
0.0559086798
 41
-1.5707963268
 42
-0.0872664626
  0
ELLIPSE
  5
532
100
AcDbEntity
  8
RACCORDO
100
AcDbEllipse
 62
7
  6
CONTINUOUS
 10
4.1331429141
 20
-146.4720456601
 30
0.0
 11
0.5
 21
0.0
 31
0.0
 40
0.0559086798
 41
-3.054326191
 42
-1.5707963268
  0
ELLIPSE
  5
533
100
AcDbEntity
  8
RACCORDO
100
AcDbEllipse
 62
7
  6
CONTINUOUS
 10
3.041834413
 20
-146.4161369803
 30
0.0
 11
0.5
 21
0.0
 31
0.0
 40
0.0559086798
 41
0.0872664626
 42
1.5707963268
  0
ELLIPSE
  5
534
100
AcDbEntity
  8
RACCORDO
100
AcDbEllipse
 62
7
  6
CONTINUOUS
 10
-3.041834413
 20
-146.4161369803
 30
0.0
 11
0.5
 21
-0.0
 31
0.0
 40
0.0559086798
 41
1.5707963268
 42
3.054326191
  0
ELLIPSE
  5
535
100
AcDbEntity
  8
RACCORDO
100
AcDbEllipse
 62
7
  6
CONTINUOUS
 10
3.041834413
 20
146.4161369803
 30
0.0
 11
0.5
 21
-0.0
 31
0.0
 40
0.0559086798
 41
-1.5707963268
 42
-0.0872664626
  0
ELLIPSE
  5
536
100
AcDbEntity
  8
RACCORDO
100
AcDbEllipse
 62
7
  6
CONTINUOUS
 10
-3.041834413
 20
146.4161369803
 30
0.0
 11
0.5
 21
0.0
 31
0.0
 40
0.0559086798
 41
-3.054326191
 42
-1.5707963268
  0
ELLIPSE
  5
537
100
AcDbEntity
  8
RACCORDO
100
AcDbEllipse
 62
7
  6
CONTINUOUS
 10
-4.1331429141
 20
146.4720456601
 30
0.0
 11
0.5
 21
0.0
 31
0.0
 40
0.0559086798
 41
0.0872664626
 42
1.5707963268
  0
ELLIPSE
  5
538
100
AcDbEntity
  8
RACCORDO
100
AcDbEllipse
 62
7
  6
CONTINUOUS
 10
4.1331429141
 20
146.4720456601
 30
0.0
 11
0.5
 21
0.0
 31
0.0
 40
0.0559086798
 41
1.5707963268
 42
3.054326191
  0
ENDSEC
  0
SECTION
  2
OBJECTS
  0
DICTIONARY
  5
C
100
AcDbDictionary
280
0
281
1
  3
ACAD_GROUP
350
D
  3
ACAD_MLINESTYLE
350
17
  3
ACAD_LAYOUT
350
1A
  3
ACAD_PLOTSETTINGS
350
19
  3
ACAD_PLOTSTYLENAME
350
E
  0
DICTIONARY
  5
D
102
{ACAD_REACTORS
330
C
102
}
100
AcDbDictionary
280
0
281
1
  0
ACDBDICTIONARYWDFLT
  5
E
102
{ACAD_REACTORS
330
C
102
}
100
AcDbDictionary
281
1
  3
Normal
350
F
100
AcDbDictionaryWithDefault
340
F
  0
DICTIONARY
  5
17
102
{ACAD_REACTORS
330
C
102
}
100
AcDbDictionary
280
0
281
1
  3
Standard
350
18
  0
DICTIONARY
  5
19
102
{ACAD_REACTORS
330
C
102
}
100
AcDbDictionary
281
1
  0
DICTIONARY
  5
1A
102
{ACAD_REACTORS
330
C
102
}
100
AcDbDictionary
281
1
  3
Model
350
539
  3
Layout1
350
53A
  0
ACDBPLACEHOLDER
  5
F
102
{ACAD_REACTORS
330
E
102
}
  0
MLINESTYLE
  5
18
102
{ACAD_REACTORS
330
17
102
}
100
AcDbMlineStyle
  2
STANDARD
 70
0
  3

 62
256
 51
90.0
 52
90.0
 71
2
 49
0.5
 62
256
  6
BYLAYER
 49
-0.5
 62
256
  6
BYLAYER
  0
LAYOUT
  5
539
102
{ACAD_REACTORS
330
1A
102
}
100
AcDbPlotSettings
  1

  2
none_device
  4
ISO_A4_(297.00_x_210.00_MM)
  6

 40
0.0
 41
0.0
 42
0.0
 43
0.0
 44
297.0
 45
210.0
 46
0.0
 47
0.0
 48
0.0
 49
0.0
140
0.0
141
0.0
142
1.0
143
1.0
 70
1024
 72
1
 73
0
 74
0
  7

 75
0
147
1.0
148
0.0
149
0.0
100
AcDbLayout
  1
Model
 70
0
 71
0
 10
0.0
 20
0.0
 11
297.0
 21
210.0
 12
0.0
 22
0.0
 32
0.0
 14
0.0
 24
0.0
 34
0.0
 15
0.0
 25
0.0
 35
0.0
146
0.0
 13
0.0
 23
0.0
 33
0.0
 16
1.0
 26
0.0
 36
0.0
 17
0.0
 27
1.0
 37
0.0
 76
0
330
210
345
0
346
0
  0
LAYOUT
  5
53A
102
{ACAD_REACTORS
330
1A
102
}
100
AcDbPlotSettings
  1

  2
none_device
  4
ISO_A4_(297.00_x_210.00_MM)
  6

 40
0.0
 41
0.0
 42
0.0
 43
0.0
 44
297.0
 45
210.0
 46
0.0
 47
0.0
 48
0.0
 49
0.0
140
0.0
141
0.0
142
1.0
143
1.0
 70
0
 72
1
 73
0
 74
0
  7

 75
0
147
1.0
148
0.0
149
0.0
100
AcDbLayout
  1
Layout1
 70
0
 71
1
 10
0.0
 20
0.0
 11
297.0
 21
210.0
 12
0.0
 22
0.0
 32
0.0
 14
0.0
 24
0.0
 34
0.0
 15
0.0
 25
0.0
 35
0.0
146
0.0
 13
0.0
 23
0.0
 33
0.0
 16
1.0
 26
0.0
 36
0.0
 17
0.0
 27
1.0
 37
0.0
 76
0
330
211
345
0
346
0
  0
ENDSEC
  0
EOF
