  0
SECTION
  2
HEADER
  9
$ACADVER
  1
AC1015
  9
$DWGCODEPAGE
  3
ANSI_1252
  9
$EXTMAX
 10
297.0
 20
210.0
 30
0.0
  9
$EXTMIN
 10
0.0
 20
0.0
 30
0.0
  9
$LIMMIN
 10
0.0
 20
0.0
  9
$LIMMAX
 10
297.0
 20
210.0
  9
$VIEWCTR
 10
148.5
 20
105.0
  9
$VIEWSIZE
 40
210.0
  9
$CLAYER
  8
0
  9
$LTSCALE
 40
16.335
  9
$CELTYPE
  6
BYLAYER
  9
$DIMSCALE
 40
1.0
  9
$DIMASZ
 40
3.0
  9
$DIMEXO
 40
0.5
  9
$DIMDLI
 40
11.286
  9
$DIMEXE
 40
1.5
  9
$DIMCEN
 40
2.673
  9
$DIMLFAC
 40
1.0
  9
$DIMBLK
  1
_FILLED
  9
$DIMALT
 70
0
  9
$DIMALTF
 40
0.0393700787
  9
$DIMTXT
 40
3.0
  9
$DIMTOL
 70
1
  9
$DIMLIM
 70
0
  9
$DIMTFAC
 40
1.0
  9
$DIMTP
 40
0.01
  9
$DIMTM
 40
0.01
  9
$DIMGAP
 40
0.625
  9
$DIMDSEP
 70
44
  9
$AUNITS
 70
0
  9
$PDMODE
 70
3
  9
$PDSIZE
 40
3.0
  9
$HANDSEED
  5
522
  9
$TILEMODE
 70
1
  9
$MEASUREMENT
 70
1
  9
$INSUNITS
 70
4
  0
ENDSEC
  0
SECTION
  2
CLASSES
  0
CLASS
  1
ACDBDICTIONARYWDFLT
  2
AcDbDictionaryWithDefault
  3
AutoCAD 2000
 90
0
280
0
281
0
  0
CLASS
  1
ACDBPLACEHOLDER
  2
AcDbPlaceHolder
  3
AutoCAD 2000
 90
0
280
0
281
0
  0
CLASS
  1
LAYOUT
  2
AcDbLayout
  3
AutoCAD 2000
 90
0
280
0
281
0
  0
ENDSEC
  0
SECTION
  2
TABLES
  0
TABLE
  2
VPORT
  5
8
100
AcDbSymbolTable
 70
2
  0
VPORT
  5
1F4
100
AcDbSymbolTableRecord
100
AcDbViewportTableRecord
  2
*ACTIVE
 70
0
 10
0.0
 20
0.0
 11
1.0
 21
1.0
 12
148.5
 22
105.0
 13
0.0
 23
0.0
 14
1.0
 24
1.0
 15
0.0
 25
0.0
 16
0.0
 26
0.0
 36
1.0
 17
0.0
 27
0.0
 37
0.0
 40
210.0
 41
1.4142857143
 42
50.0
 43
0.0
 44
0.0
 50
0.0
 51
0.0
 71
0
 72
100
 73
1
 74
1
 75
0
 76
0
 77
0
 78
0
  0
ENDTAB
  0
TABLE
  2
LTYPE
  5
5
100
AcDbSymbolTable
 70
6
  0
LTYPE
  5
14
100
AcDbSymbolTableRecord
100
AcDbLinetypeTableRecord
  2
BYBLOCK
 70
0
  3

 72
65
 73
0
 40
0.0
  0
LTYPE
  5
15
100
AcDbSymbolTableRecord
100
AcDbLinetypeTableRecord
  2
BYLAYER
 70
0
  3

 72
65
 73
0
 40
0.0
  0
LTYPE
  5
16
100
AcDbSymbolTableRecord
100
AcDbLinetypeTableRecord
  2
CONTINUOUS
 70
64
  3
Solid line
 72
65
 73
0
 40
0.0
  0
LTYPE
  5
1F5
100
AcDbSymbolTableRecord
100
AcDbLinetypeTableRecord
  2
CENTER
 70
64
  3
____ _ ____ _ ____ _ ____ _ ____ _ ____ _ ____
 72
65
 73
4
 40
0.6
 49
0.375
 74
0
 49
-0.075
 74
0
 49
0.075
 74
0
 49
-0.075
 74
0
  0
LTYPE
  5
1F6
100
AcDbSymbolTableRecord
100
AcDbLinetypeTableRecord
  2
HIDDEN
 70
64
  3
- - - - - - - - - - - - - - - - - - - -
 72
65
 73
2
 40
0.2
 49
0.1
 74
0
 49
-0.1
 74
0
  0
LTYPE
  5
1F7
100
AcDbSymbolTableRecord
100
AcDbLinetypeTableRecord
  2
PHANTOM
 70
64
  3
_____ _ _ _____ _ _ _____ _ _ _____
 72
65
 73
6
 40
0.8
 49
0.45
 74
0
 49
-0.05
 74
0
 49
0.1
 74
0
 49
-0.05
 74
0
 49
0.1
 74
0
 49
-0.05
 74
0
  0
LTYPE
  5
1F8
100
AcDbSymbolTableRecord
100
AcDbLinetypeTableRecord
  2
DOT
 70
64
  3
. . . . . . . . . . . . . . . . . . . .
 72
65
 73
2
 40
0.2
 49
0.1
 74
0
 49
-0.1
 74
0
  0
LTYPE
  5
1F9
100
AcDbSymbolTableRecord
100
AcDbLinetypeTableRecord
  2
DASHED
 70
64
  3
- - - - - - - - - - - - - - - - - - - -
 72
65
 73
2
 40
0.2
 49
0.1
 74
0
 49
-0.1
 74
0
  0
ENDTAB
  0
TABLE
  2
LAYER
  5
2
100
AcDbSymbolTable
 70
36
  0
LAYER
  5
10
100
AcDbSymbolTableRecord
100
AcDbLayerTableRecord
  2
0
 70
0
 62
7
  6
CONTINUOUS
370
-3
390
F
  0
LAYER
  5
1FA
100
AcDbSymbolTableRecord
100
AcDbLayerTableRecord
  2
DEFAULT_1
 70
0
 62
7
  6
CENTER
370
-3
390
F
  0
LAYER
  5
1FB
100
AcDbSymbolTableRecord
100
AcDbLayerTableRecord
  2
DEFAULT_2
 70
0
 62
7
  6
HIDDEN
370
-3
390
F
  0
LAYER
  5
1FC
100
AcDbSymbolTableRecord
100
AcDbLayerTableRecord
  2
DEFAULT_3
 70
0
 62
7
  6
PHANTOM
370
-3
390
F
  0
LAYER
  5
1FD
100
AcDbSymbolTableRecord
100
AcDbLayerTableRecord
  2
ALTRI_PIANI
 70
0
 62
7
  6
CONTINUOUS
370
-3
390
F
  0
LAYER
  5
1FE
100
AcDbSymbolTableRecord
100
AcDbLayerTableRecord
  2
ASSI
 70
0
 62
7
  6
CONTINUOUS
370
-3
390
F
  0
LAYER
  5
1FF
100
AcDbSymbolTableRecord
100
AcDbLayerTableRecord
  2
COORDINATE
 70
0
 62
7
  6
CONTINUOUS
370
-3
390
F
  0
LAYER
  5
200
100
AcDbSymbolTableRecord
100
AcDbLayerTableRecord
  2
COORD_ORIGINE
 70
0
 62
7
  6
CONTINUOUS
370
-3
390
F
  0
LAYER
  5
201
100
AcDbSymbolTableRecord
100
AcDbLayerTableRecord
  2
COPY_PUBLISH
 70
0
 62
7
  6
CONTINUOUS
370
-3
390
F
  0
LAYER
  5
202
100
AcDbSymbolTableRecord
100
AcDbLayerTableRecord
  2
COSMETIC
 70
0
 62
7
  6
CONTINUOUS
370
-3
390
F
  0
LAYER
  5
203
100
AcDbSymbolTableRecord
100
AcDbLayerTableRecord
  2
COSMETICI
 70
0
 62
7
  6
CONTINUOUS
370
-3
390
F
  0
LAYER
  5
204
100
AcDbSymbolTableRecord
100
AcDbLayerTableRecord
  2
CURVE
 70
0
 62
7
  6
CONTINUOUS
370
-3
390
F
  0
LAYER
  5
205
100
AcDbSymbolTableRecord
100
AcDbLayerTableRecord
  2
DRAFT
 70
0
 62
7
  6
CONTINUOUS
370
-3
390
F
  0
LAYER
  5
206
100
AcDbSymbolTableRecord
100
AcDbLayerTableRecord
  2
IMPORT_IGES
 70
0
 62
7
  6
CONTINUOUS
370
-3
390
F
  0
LAYER
  5
207
100
AcDbSymbolTableRecord
100
AcDbLayerTableRecord
  2
INTF_RED
 70
0
 62
7
  6
CONTINUOUS
370
-3
390
F
  0
LAYER
  5
208
100
AcDbSymbolTableRecord
100
AcDbLayerTableRecord
  2
NOTE
 70
0
 62
7
  6
CONTINUOUS
370
-3
390
F
  0
LAYER
  5
209
100
AcDbSymbolTableRecord
100
AcDbLayerTableRecord
  2
PIANI
 70
0
 62
7
  6
CONTINUOUS
370
-3
390
F
  0
LAYER
  5
20A
100
AcDbSymbolTableRecord
100
AcDbLayerTableRecord
  2
PIANI_ORIGINE
 70
0
 62
7
  6
CONTINUOUS
370
-3
390
F
  0
LAYER
  5
20B
100
AcDbSymbolTableRecord
100
AcDbLayerTableRecord
  2
PUNTI
 70
0
 62
7
  6
CONTINUOUS
370
-3
390
F
  0
LAYER
  5
20C
100
AcDbSymbolTableRecord
100
AcDbLayerTableRecord
  2
RACCORDO
 70
0
 62
7
  6
CONTINUOUS
370
-3
390
F
  0
LAYER
  5
20D
100
AcDbSymbolTableRecord
100
AcDbLayerTableRecord
  2
SIMBOLI
 70
0
 62
7
  6
CONTINUOUS
370
-3
390
F
  0
LAYER
  5
20E
100
AcDbSymbolTableRecord
100
AcDbLayerTableRecord
  2
SNAPLINE
 70
0
 62
7
  6
CONTINUOUS
370
-3
390
F
  0
LAYER
  5
20F
100
AcDbSymbolTableRecord
100
AcDbLayerTableRecord
  2
SUPERFICI
 70
0
 62
7
  6
CONTINUOUS
370
-3
390
F
  0
LAYER
  5
210
100
AcDbSymbolTableRecord
100
AcDbLayerTableRecord
  2
TRASH
 70
0
 62
7
  6
CONTINUOUS
370
-3
390
F
  0
ENDTAB
  0
TABLE
  2
STYLE
  5
3
100
AcDbSymbolTable
 70
1
  0
STYLE
  5
11
100
AcDbSymbolTableRecord
100
AcDbTextStyleTableRecord
  2
STANDARD
 70
0
 40
0.0
 41
0.8
 50
0.0
 71
0
 42
0.2
  3
txt
  4

  0
STYLE
  5
211
100
AcDbSymbolTableRecord
100
AcDbTextStyleTableRecord
  2
TEXTSTYLE_1
 70
0
 40
0.0
 41
0.8
 50
0.0
 71
0
 42
0.2
  3
gdt
  4

  0
ENDTAB
  0
TABLE
  2
VIEW
  5
6
100
AcDbSymbolTable
 70
0
  0
ENDTAB
  0
TABLE
  2
UCS
  5
7
100
AcDbSymbolTable
 70
0
  0
ENDTAB
  0
TABLE
  2
APPID
  5
9
100
AcDbSymbolTable
 70
1
  0
APPID
  5
212
100
AcDbSymbolTableRecord
100
AcDbRegAppTableRecord
  2
ACAD
 70
0
  0
ENDTAB
  0
TABLE
  2
BLOCK_RECORD
  5
1
100
AcDbSymbolTable
 70
0
  0
BLOCK_RECORD
  5
213
100
AcDbSymbolTableRecord
100
AcDbBlockTableRecord
  2
*Model_Space
  0
BLOCK_RECORD
  5
214
100
AcDbSymbolTableRecord
100
AcDbBlockTableRecord
  2
*Paper_Space
  0
BLOCK_RECORD
  5
215
100
AcDbSymbolTableRecord
100
AcDbBlockTableRecord
  2
_FILLED
  0
BLOCK_RECORD
  5
216
100
AcDbSymbolTableRecord
100
AcDbBlockTableRecord
  2
*D0
  0
BLOCK_RECORD
  5
217
100
AcDbSymbolTableRecord
100
AcDbBlockTableRecord
  2
*D1
  0
BLOCK_RECORD
  5
218
100
AcDbSymbolTableRecord
100
AcDbBlockTableRecord
  2
*D2
  0
ENDTAB
  0
TABLE
  2
DIMSTYLE
  5
A
100
AcDbSymbolTable
 70
1
100
AcDbDimStyleTable
 71
0
  0
DIMSTYLE
105
219
100
AcDbSymbolTableRecord
100
AcDbDimStyleTableRecord
  2
STANDARD
 70
0
  3

  4

 40
1.0
 41
3.0
 42
0.5
 43
0.38
 44
1.5
 45
0.0
 46
0.0
 47
0.01
 48
0.01
140
3.0
141
0.09
142
0.0
143
25.4
144
1.0
145
0.0
146
1.0
147
0.625
 71
1.0
 72
0.0
 73
0
 74
0
 75
0
 76
0
 77
1
 78
8
170
0
171
2
172
0
173
0
174
0
175
0
176
0
177
0
178
0
270
2
271
2
272
2
273
2
274
2
275
0
280
0
281
0
282
0
283
1
284
8
285
0
286
0
287
3
288
0
340
11
278
44
341
215
342
215
343
215
344
215
  0
DIMSTYLE
105
21A
100
AcDbSymbolTableRecord
100
AcDbDimStyleTableRecord
  2
DIMSTYLE_1
 70
0
  3

  4

 40
1.0
 41
3.0
 42
0.5
 43
0.38
 44
1.5
 45
0.0
 46
0.0
 47
0.0
 48
0.0
140
3.0
141
0.09
142
0.0
143
25.4
144
1.0
145
0.0
146
1.0
147
0.75
 71
0.0
 72
0.0
 73
0
 74
0
 75
0
 76
0
 77
1
 78
8
170
0
171
2
172
0
173
0
174
0
175
0
176
0
177
0
178
0
270
2
271
2
272
2
273
2
274
2
275
0
280
0
281
0
282
0
283
1
284
8
285
0
286
0
287
3
288
0
340
11
278
44
341
215
342
215
343
215
344
215
  0
ENDTAB
  0
ENDSEC
  0
SECTION
  2
BLOCKS
  0
BLOCK
  5
20
100
AcDbEntity
  8
0
100
AcDbBlockBegin
  2
*Model_Space
 70
0
 10
0.0
 20
0.0
 30
0.0
  3
*Model_Space
  1

  0
ENDBLK
  5
21
100
AcDbEntity
  8
0
100
AcDbBlockEnd
  0
BLOCK
  5
1C
100
AcDbEntity
  8
0
100
AcDbBlockBegin
  2
*Paper_Space
 70
0
 10
0.0
 20
0.0
 30
0.0
  3
*Paper_Space
  1

  0
ENDBLK
  5
1D
100
AcDbEntity
  8
0
100
AcDbBlockEnd
  0
BLOCK
  5
21B
100
AcDbEntity
  8
0
100
AcDbBlockBegin
  2
_FILLED
 70
64
 10
0.0
 20
0.0
  3
_FILLED
  1

  0
SOLID
  5
21C
100
AcDbEntity
  8
0
  6
BYBLOCK
 62
0
100
AcDbTrace
 10
0.0
 20
0.0
 11
-1.0
 21
0.3166666667
 12
-1.0
 22
-0.3166666667
 13
-1.0
 23
-0.3166666667
  0
ENDBLK
  5
21D
100
AcDbEntity
  8
0
  6
BYBLOCK
 62
0
100
AcDbBlockEnd
  0
BLOCK
  5
21E
100
AcDbEntity
  8
0
100
AcDbBlockBegin
 62
7
  6
CONTINUOUS
  2
*D0
 70
65
 10
0.0
 20
0.0
  3
*D0
  1

  0
MTEXT
  5
21F
100
AcDbEntity
  8
0
100
AcDbMText
 62
7
  6
CONTINUOUS
  7
STANDARD
 71
2
 72
1
 10
-0.0
 20
87.7500855421
 30
0.0
 11
1.0
 21
0.0
 31
0.0
 44
0.9
  1
206
 40
3.0
 41
10.6071428571
  0
LINE
  5
220
100
AcDbEntity
  8
0
100
AcDbLine
 62
7
  6
CONTINUOUS
 10
-102.9997888374
 20
73.534134394
 11
-102.9997888374
 21
85.5000855421
  0
LINE
  5
221
100
AcDbEntity
  8
0
100
AcDbLine
 62
7
  6
CONTINUOUS
 10
102.9997888374
 20
73.534134394
 11
102.9997888374
 21
85.5000855421
  0
LINE
  5
222
100
AcDbEntity
  8
0
100
AcDbLine
 62
7
  6
CONTINUOUS
 10
-102.9997888374
 20
84.0000855421
 11
-0.0
 21
84.0000855421
  0
LINE
  5
223
100
AcDbEntity
  8
0
100
AcDbLine
 62
7
  6
CONTINUOUS
 10
102.9997888374
 20
84.0000855421
 11
-0.0
 21
84.0000855421
  0
INSERT
  5
224
100
AcDbEntity
  8
0
100
AcDbBlockReference
 62
7
  6
CONTINUOUS
  2
_FILLED
 10
-102.9997888374
 20
84.0000855421
 41
3.0
 42
3.0
 43
3.0
 50
180.0
  0
INSERT
  5
225
100
AcDbEntity
  8
0
100
AcDbBlockReference
 62
7
  6
CONTINUOUS
  2
_FILLED
 10
102.9997888374
 20
84.0000855421
 41
3.0
 42
3.0
 43
3.0
 50
0.0
  0
ENDBLK
  5
226
100
AcDbEntity
  8
0
  6
BYBLOCK
 62
0
100
AcDbBlockEnd
  0
BLOCK
  5
227
100
AcDbEntity
  8
0
100
AcDbBlockBegin
 62
7
  6
CONTINUOUS
  2
*D1
 70
65
 10
0.0
 20
0.0
  3
*D1
  1

  0
MTEXT
  5
228
100
AcDbEntity
  8
0
100
AcDbMText
 62
7
  6
CONTINUOUS
  7
STANDARD
 71
2
 72
1
 10
107.2497888374
 20
-0.0
 30
0.0
 11
0.0
 21
1.0
 31
0.0
 44
0.9
  1
152
 40
3.0
 41
9.3214285714
  0
LINE
  5
229
100
AcDbEntity
  8
0
100
AcDbLine
 62
7
  6
CONTINUOUS
 10
100.5353625741
 20
75.9999711318
 11
112.4997888375
 21
75.9999711318
  0
LINE
  5
22A
100
AcDbEntity
  8
0
100
AcDbLine
 62
7
  6
CONTINUOUS
 10
100.5353625741
 20
-75.9999711318
 11
112.4997888374
 21
-75.9999711318
  0
LINE
  5
22B
100
AcDbEntity
  8
0
100
AcDbLine
 62
7
  6
CONTINUOUS
 10
110.9997888375
 20
75.9999711318
 11
110.9997888374
 21
-0.0
  0
LINE
  5
22C
100
AcDbEntity
  8
0
100
AcDbLine
 62
7
  6
CONTINUOUS
 10
110.9997888374
 20
-75.9999711318
 11
110.9997888374
 21
-0.0
  0
INSERT
  5
22D
100
AcDbEntity
  8
0
100
AcDbBlockReference
 62
7
  6
CONTINUOUS
  2
_FILLED
 10
110.9997888375
 20
75.9999711318
 41
3.0
 42
3.0
 43
3.0
 50
90.0
  0
INSERT
  5
22E
100
AcDbEntity
  8
0
100
AcDbBlockReference
 62
7
  6
CONTINUOUS
  2
_FILLED
 10
110.9997888374
 20
-75.9999711318
 41
3.0
 42
3.0
 43
3.0
 50
270.0
  0
ENDBLK
  5
22F
100
AcDbEntity
  8
0
  6
BYBLOCK
 62
0
100
AcDbBlockEnd
  0
BLOCK
  5
230
100
AcDbEntity
  8
0
100
AcDbBlockBegin
 62
7
  6
CONTINUOUS
  2
*D2
 70
65
 10
0.0
 20
0.0
  3
*D2
  1

  0
MTEXT
  5
231
100
AcDbEntity
  8
0
100
AcDbMText
 62
7
  6
CONTINUOUS
  7
STANDARD
 71
2
 72
1
 10
-136.5570165786
 20
87.7500855421
 30
0.0
 11
1.0
 21
0.0
 31
0.0
 44
0.9
  1
11
 40
3.0
 41
5.1428571429
  0
LINE
  5
232
100
AcDbEntity
  8
0
100
AcDbLine
 62
7
  6
CONTINUOUS
 10
-131.0569765513
 20
73.534134394
 11
-131.0569765513
 21
85.5000855421
  0
LINE
  5
233
100
AcDbEntity
  8
0
100
AcDbLine
 62
7
  6
CONTINUOUS
 10
-142.0570566059
 20
58.1996736781
 11
-142.0570566059
 21
85.5000855421
  0
LINE
  5
234
100
AcDbEntity
  8
0
100
AcDbLine
 62
7
  6
CONTINUOUS
 10
-131.0569765513
 20
84.0000855421
 11
-136.5570165786
 21
84.0000855421
  0
LINE
  5
235
100
AcDbEntity
  8
0
100
AcDbLine
 62
7
  6
CONTINUOUS
 10
-142.0570566059
 20
84.0000855421
 11
-136.5570165786
 21
84.0000855421
  0
INSERT
  5
236
100
AcDbEntity
  8
0
100
AcDbBlockReference
 62
7
  6
CONTINUOUS
  2
_FILLED
 10
-131.0569765513
 20
84.0000855421
 41
3.0
 42
3.0
 43
3.0
  0
INSERT
  5
237
100
AcDbEntity
  8
0
100
AcDbBlockReference
 62
7
  6
CONTINUOUS
  2
_FILLED
 10
-142.0570566059
 20
84.0000855421
 41
3.0
 42
3.0
 43
3.0
 50
180.0
  0
ENDBLK
  5
238
100
AcDbEntity
  8
0
  6
BYBLOCK
 62
0
100
AcDbBlockEnd
  0
ENDSEC
  0
SECTION
  2
ENTITIES
  0
DIMENSION
  5
239
100
AcDbEntity
  8
0
100
AcDbDimension
 62
7
  6
CONTINUOUS
  2
*D0
 10
102.9997888374
 20
84.0000855421
 11
-0.4285715189
 21
84.0000855421
 70
160
 71
2
 42
205.9995776749
  3
DIMSTYLE_1
100
AcDbAlignedDimension
 13
-102.9997888374
 23
73.034134394
 14
102.9997888374
 24
73.034134394
100
AcDbRotatedDimension
  0
DIMENSION
  5
23A
100
AcDbEntity
  8
0
100
AcDbDimension
 62
7
  6
CONTINUOUS
  2
*D1
 10
110.9997888374
 20
-75.9999711318
 11
110.9997888374
 21
-0.4285731131
 70
160
 71
2
 42
151.9999422635
  3
DIMSTYLE_1
100
AcDbAlignedDimension
 13
100.0353625741
 23
75.9999711318
 14
100.0353625741
 24
-75.9999711318
 50
270.0
100
AcDbRotatedDimension
  0
DIMENSION
  5
23B
100
AcDbEntity
  8
0
100
AcDbDimension
 62
7
  6
CONTINUOUS
  2
*D2
 10
-142.0570566059
 20
84.0000855421
 11
-136.9855851746
 21
84.0000855421
 70
160
 71
2
 42
11.0000800546
  3
DIMSTYLE_1
100
AcDbAlignedDimension
 13
-131.0569765513
 23
73.034134394
 14
-142.0570566059
 24
57.6996736781
 50
180.0
100
AcDbRotatedDimension
  0
LWPOLYLINE
  5
23C
100
AcDbEntity
  8
0
100
AcDbPolyline
 62
253
  6
CONTINUOUS
 90
10
 70
0
 10
-99.6979117518
 20
-75.6597647411
 10
-99.7038316754
 20
-75.6424670293
 10
-99.7093464048
 20
-75.6073485232
 10
-99.714534985
 20
-75.5560143311
 10
-99.7195515849
 20
-75.4861901571
 10
-99.7242239393
 20
-75.3984825128
 10
-99.7281830866
 20
-75.2999684032
 10
-99.731378026
 20
-75.1947563873
 10
-99.733946783
 20
-75.080164971
 10
-99.7358549705
 20
-74.9546587472
  0
LWPOLYLINE
  5
23D
100
AcDbEntity
  8
0
100
AcDbPolyline
 62
253
  6
CONTINUOUS
 90
10
 70
0
 10
-87.4486522157
 20
73.0691744206
 10
-88.0609483169
 20
71.9752979631
 10
-88.6707709652
 20
70.8744685437
 10
-89.2779981562
 20
69.7667728348
 10
-89.8829216226
 20
68.651131513
 10
-90.484894617
 20
67.5290360543
 10
-91.0823593727
 20
66.4045147633
 10
-91.6746306239
 20
65.279137811
 10
-92.2618692114
 20
64.1520360098
 10
-92.8437698971
 20
63.0236634427
  0
LWPOLYLINE
  5
23E
100
AcDbEntity
  8
0
100
AcDbPolyline
 62
253
  6
CONTINUOUS
 90
10
 70
0
 10
-87.4486522157
 20
-73.0691744206
 10
-88.0609483169
 20
-71.9752979631
 10
-88.6707709652
 20
-70.8744685437
 10
-89.2779981562
 20
-69.7667728348
 10
-89.8829216226
 20
-68.651131513
 10
-90.484894617
 20
-67.5290360543
 10
-91.0823593727
 20
-66.4045147633
 10
-91.6746306239
 20
-65.279137811
 10
-92.2618692114
 20
-64.1520360098
 10
-92.8437698971
 20
-63.0236634427
  0
LWPOLYLINE
  5
23F
100
AcDbEntity
  8
0
100
AcDbPolyline
 62
253
  6
CONTINUOUS
 90
13
 70
0
 10
-101.8993300949
 20
-72.7511739642
 10
-101.8738475115
 20
-73.0284773604
 10
-101.8142235567
 20
-73.2952754554
 10
-101.7197522472
 20
-73.5537676621
 10
-101.5829495163
 20
-73.8184931119
 10
-101.4080397723
 20
-74.0807306351
 10
-101.211139675
 20
-74.3092823897
 10
-100.9877546116
 20
-74.4998749169
 10
-100.7373320794
 20
-74.6645886051
 10
-100.4840462117
 20
-74.79435958
 10
-100.2368615305
 20
-74.8848139461
 10
-99.9873619348
 20
-74.9387743718
 10
-99.735969964
 20
-74.9547083581
  0
LWPOLYLINE
  5
240
100
AcDbEntity
  8
0
100
AcDbPolyline
 62
253
  6
CONTINUOUS
 90
7
 70
0
 10
-101.8995789362
 20
-69.8653196824
 10
-101.8860455761
 20
-70.1679681203
 10
-101.8765745684
 20
-70.4764109384
 10
-101.8713282073
 20
-70.7898400975
 10
-101.8721340184
 20
-71.1063498573
 10
-101.8775637599
 20
-71.4261683638
 10
-101.8926669124
 20
-72.4157196039
  0
LINE
  5
241
100
AcDbEntity
  8
0
100
AcDbLine
 62
253
  6
CONTINUOUS
 10
-101.8997530667
 20
-69.8654710919
 11
-101.9071735731
 21
-57.6996747145
  0
LINE
  5
242
100
AcDbEntity
  8
0
100
AcDbLine
 62
7
  6
CONTINUOUS
 10
-102.9997888374
 20
73.034134394
 11
-102.9997888374
 21
39.1741058175
  0
LINE
  5
243
100
AcDbEntity
  8
0
100
AcDbLine
 62
7
  6
CONTINUOUS
 10
-102.9997888374
 20
31.8258941825
 11
-102.9997888374
 21
-31.8258941825
  0
LINE
  5
244
100
AcDbEntity
  8
0
100
AcDbLine
 62
7
  6
CONTINUOUS
 10
-102.9997888374
 20
-39.1741058175
 11
-102.9997888374
 21
-73.034134394
  0
LINE
  5
245
100
AcDbEntity
  8
0
100
AcDbLine
 62
7
  6
CONTINUOUS
 10
-102.8954782022
 20
39.0
 11
-102.8954782022
 21
32.0
  0
LINE
  5
246
100
AcDbEntity
  8
0
100
AcDbLine
 62
7
  6
CONTINUOUS
 10
-102.8954782022
 20
-32.0
 11
-102.8954782022
 21
-39.0
  0
LINE
  5
247
100
AcDbEntity
  8
0
100
AcDbLine
 62
7
  6
CONTINUOUS
 10
-101.9071735731
 20
-57.6996747145
 11
-101.907743558
 21
57.6985516588
  0
LINE
  5
248
100
AcDbEntity
  8
0
100
AcDbLine
 62
7
  6
CONTINUOUS
 10
-102.6568790924
 20
69.8670019088
 11
-102.6568790924
 21
-69.8670019087
  0
LINE
  5
249
100
AcDbEntity
  8
0
100
AcDbLine
 62
253
  6
CONTINUOUS
 10
-102.6568790924
 20
69.8670019088
 11
-102.658091566
 21
72.085227399
  0
LINE
  5
24A
100
AcDbEntity
  8
0
100
AcDbLine
 62
253
  6
CONTINUOUS
 10
-101.8997530667
 20
69.8654710919
 11
-101.907743558
 21
57.6985516588
  0
LINE
  5
24B
100
AcDbEntity
  8
0
100
AcDbLine
 62
253
  6
CONTINUOUS
 10
-102.658091566
 20
72.085227399
 11
-102.657741476
 21
72.6891445459
  0
LINE
  5
24C
100
AcDbEntity
  8
0
100
AcDbLine
 62
253
  6
CONTINUOUS
 10
-102.6568790924
 20
-69.8670019087
 11
-102.657741476
 21
-72.6891445459
  0
LWPOLYLINE
  5
24D
100
AcDbEntity
  8
0
100
AcDbPolyline
 62
253
  6
CONTINUOUS
 90
5
 70
0
 10
-101.8995789362
 20
69.8653196824
 10
-101.8860455761
 20
70.1679681203
 10
-101.8765745684
 20
70.4764109384
 10
-101.8713282073
 20
70.7898400975
 10
-101.8721340184
 20
71.1063498573
  0
LWPOLYLINE
  5
24E
100
AcDbEntity
  8
0
100
AcDbPolyline
 62
7
  6
CONTINUOUS
 90
16
 70
0
 10
-102.9997888374
 20
73.034134394
 10
-102.9826620749
 20
73.3442256584
 10
-102.9347328621
 20
73.6464060852
 10
-102.8560011992
 20
73.9406756744
 10
-102.7451876771
 20
74.2307909618
 10
-102.6035717049
 20
74.5129954116
 10
-102.4349915095
 20
74.776019417
 10
-102.23795402
 20
75.018766224
 10
-102.0139523073
 20
75.2423325865
 10
-101.7713038117
 20
75.438739159
 10
-101.5092662983
 20
75.6064703511
 10
-101.2285820019
 20
75.7470417532
 10
-100.9397950669
 20
75.8570207898
 10
-100.646420208
 20
75.9352632692
 10
-100.3449427104
 20
75.9829133832
 10
-100.0353625741
 20
75.9999711318
  0
LWPOLYLINE
  5
24F
100
AcDbEntity
  8
0
100
AcDbPolyline
 62
253
  6
CONTINUOUS
 90
13
 70
0
 10
-101.8993300949
 20
72.7511739642
 10
-101.8738475115
 20
73.0284773604
 10
-101.8142235567
 20
73.2952754554
 10
-101.7197522472
 20
73.5537676621
 10
-101.5829495163
 20
73.8184931119
 10
-101.4080397723
 20
74.0807306351
 10
-101.211139675
 20
74.3092823897
 10
-100.9877546116
 20
74.4998749169
 10
-100.7373320794
 20
74.6645886051
 10
-100.4840462117
 20
74.79435958
 10
-100.2368615305
 20
74.8848139461
 10
-99.9873619348
 20
74.9387743718
 10
-99.735969964
 20
74.9547083581
  0
LWPOLYLINE
  5
250
100
AcDbEntity
  8
0
100
AcDbPolyline
 62
253
  6
CONTINUOUS
 90
10
 70
0
 10
-84.5790074281
 20
68.7210408351
 10
-84.9467547564
 20
67.9304182492
 10
-85.3130478494
 20
67.1384504584
 10
-85.6778904674
 20
66.3451463983
 10
-86.0410483002
 20
65.5510370366
 10
-86.402764451
 20
64.7556123005
 10
-86.7637530028
 20
63.9573057885
 10
-87.1242480442
 20
63.1555860064
 10
-87.484010103
 20
62.3509716559
 10
-87.8430371285
 20
61.5434578646
  0
LINE
  5
251
100
AcDbEntity
  8
RACCORDO
100
AcDbLine
 62
253
  6
CONTINUOUS
 10
-78.6919546758
 20
70.6226855489
 11
-78.6886384075
 21
70.6297304757
  0
LINE
  5
252
100
AcDbEntity
  8
0
100
AcDbLine
 62
7
  6
CONTINUOUS
 10
-102.8954782022
 20
32.0
 11
-102.9997888374
 21
31.8258941825
  0
LWPOLYLINE
  5
253
100
AcDbEntity
  8
RACCORDO
100
AcDbPolyline
 62
7
  6
CONTINUOUS
 90
4
 70
0
 10
-78.6444647434
 20
70.7517835154
 10
-78.6644721455
 20
70.7235835795
 10
-78.6794047333
 20
70.6921362567
 10
-78.6886748956
 20
70.658487574
  0
LWPOLYLINE
  5
254
100
AcDbEntity
  8
RACCORDO
100
AcDbPolyline
 62
253
  6
CONTINUOUS
 90
7
 70
0
 10
-78.6886384075
 20
70.6297304757
 10
-78.6792669697
 20
70.6383872676
 10
-78.6640252027
 20
70.6474613225
 10
-78.6432594616
 20
70.6550574897
 10
-78.6179566346
 20
70.6606565865
 10
-78.5896033744
 20
70.6654665048
 10
-78.5590129581
 20
70.6696710603
  0
LINE
  5
255
100
AcDbEntity
  8
0
100
AcDbLine
 62
7
  6
CONTINUOUS
 10
-102.9997888374
 20
-31.8258941825
 11
-102.8954782022
 21
-32.0
  0
LWPOLYLINE
  5
256
100
AcDbEntity
  8
0
100
AcDbPolyline
 62
253
  6
CONTINUOUS
 90
10
 70
0
 10
-87.8429903395
 20
-61.5435634031
 10
-87.4856799132
 20
-62.3471958171
 10
-87.1262722891
 20
-63.1509885774
 10
-86.7651485302
 20
-63.9540873893
 10
-86.4028209055
 20
-64.7553486698
 10
-86.0395355554
 20
-65.5542198981
 10
-85.675238402
 20
-66.3508172016
 10
-85.3101068099
 20
-67.1447562804
 10
-84.9445837279
 20
-67.9350746739
 10
-84.5789807693
 20
-68.721097982
  0
LINE
  5
257
100
AcDbEntity
  8
0
100
AcDbLine
 62
253
  6
CONTINUOUS
 10
-93.0800528646
 20
-57.6996737314
 11
-92.8444949579
 21
-63.0208783203
  0
LINE
  5
258
100
AcDbEntity
  8
0
100
AcDbLine
 62
253
  6
CONTINUOUS
 10
-101.8721340184
 20
71.1063498573
 11
-101.8993300949
 21
72.7511739642
  0
LWPOLYLINE
  5
259
100
AcDbEntity
  8
0
100
AcDbPolyline
 62
253
  6
CONTINUOUS
 90
10
 70
0
 10
-99.73585499
 20
74.9546570925
 10
-99.7338130659
 20
75.0878467825
 10
-99.7310741702
 20
75.2063477031
 10
-99.7277260395
 20
75.3126650443
 10
-99.7237041765
 20
75.409496579
 10
-99.7190648844
 20
75.4939105662
 10
-99.7141080889
 20
75.5608527696
 10
-99.7089931886
 20
75.610335191
 10
-99.7036096986
 20
75.64374249
 10
-99.6979117432
 20
75.6597647515
  0
LINE
  5
25A
100
AcDbEntity
  8
0
100
AcDbLine
 62
253
  6
CONTINUOUS
 10
-101.8926669124
 20
-72.4157196039
 11
-101.8993300949
 21
-72.7511739642
  0
LINE
  5
25B
100
AcDbEntity
  8
0
100
AcDbLine
 62
253
  6
CONTINUOUS
 10
-93.0800361452
 20
57.6996713496
 11
-92.8443744641
 21
63.0238907478
  0
LWPOLYLINE
  5
25C
100
AcDbEntity
  8
0
100
AcDbPolyline
 62
253
  6
CONTINUOUS
 90
10
 70
0
 10
-81.5055314624
 20
59.7918461813
 10
-81.6371051782
 20
59.5932563026
 10
-81.7549471119
 20
59.3805311018
 10
-81.8588732562
 20
59.1562972669
 10
-81.9494069467
 20
58.9234612124
 10
-82.0256765393
 20
58.6840483905
 10
-82.0853937572
 20
58.4395117472
 10
-82.1276675546
 20
58.1921355195
 10
-82.1530261276
 20
57.9447270953
 10
-82.1612990037
 20
57.6996718922
  0
LINE
  5
25D
100
AcDbEntity
  8
0
100
AcDbLine
 62
253
  6
CONTINUOUS
 10
-81.4938892595
 20
59.8084981743
 11
-81.5055314624
 21
59.7918461813
  0
LWPOLYLINE
  5
25E
100
AcDbEntity
  8
RACCORDO
100
AcDbPolyline
 62
253
  6
CONTINUOUS
 90
5
 70
0
 10
-78.6919546758
 20
62.8534273947
 10
-78.6886384102
 20
62.8581235031
 10
-78.6792669779
 20
62.8609220241
 10
-78.6640252162
 20
62.8626039124
 10
-78.6179566588
 20
62.8674909039
  0
LINE
  5
25F
100
AcDbEntity
  8
0
100
AcDbLine
 62
253
  6
CONTINUOUS
 10
-81.4821783878
 20
59.8250583179
 11
-81.4938892595
 21
59.8084981743
  0
LINE
  5
260
100
AcDbEntity
  8
0
100
AcDbLine
 62
253
  6
CONTINUOUS
 10
-81.4703994588
 20
59.8415251379
 11
-81.4821783878
 21
59.8250583179
  0
LWPOLYLINE
  5
261
100
AcDbEntity
  8
0
100
AcDbPolyline
 62
253
  6
CONTINUOUS
 90
3
 70
0
 10
-81.4526073726
 20
59.8660471851
 10
-81.4585546118
 20
59.8578971667
 10
-81.4703994588
 20
59.8415251379
  0
LINE
  5
262
100
AcDbEntity
  8
0
100
AcDbLine
 62
253
  6
CONTINUOUS
 10
-81.4526073726
 20
-59.8660471851
 11
-81.4644860008
 21
-59.8497221298
  0
LINE
  5
263
100
AcDbEntity
  8
0
100
AcDbLine
 62
253
  6
CONTINUOUS
 10
-81.4644860008
 20
-59.8497221298
 11
-81.4762983498
 21
-59.8333018903
  0
LINE
  5
264
100
AcDbEntity
  8
0
100
AcDbLine
 62
253
  6
CONTINUOUS
 10
-81.4762983498
 20
-59.8333018903
 11
-81.4880437065
 21
-59.8167880646
  0
LWPOLYLINE
  5
265
100
AcDbEntity
  8
0
100
AcDbPolyline
 62
253
  6
CONTINUOUS
 90
3
 70
0
 10
-81.4880437065
 20
-59.8167880646
 10
-81.4997195164
 20
-59.800182734
 10
-81.5055314624
 20
-59.7918461813
  0
LWPOLYLINE
  5
266
100
AcDbEntity
  8
0
100
AcDbPolyline
 62
253
  6
CONTINUOUS
 90
10
 70
0
 10
-81.5055314624
 20
-59.7918461813
 10
-81.6371051782
 20
-59.5932563026
 10
-81.7549471119
 20
-59.3805311018
 10
-81.8588732562
 20
-59.1562972669
 10
-81.9494069467
 20
-58.9234612124
 10
-82.0256765393
 20
-58.6840483905
 10
-82.0853937572
 20
-58.4395117472
 10
-82.1276675546
 20
-58.1921355195
 10
-82.1530261276
 20
-57.9447270953
 10
-82.1612990037
 20
-57.6996718922
  0
LWPOLYLINE
  5
267
100
AcDbEntity
  8
0
100
AcDbPolyline
 62
253
  6
CONTINUOUS
 90
13
 70
0
 10
-80.4371820769
 20
-57.6997376237
 10
-80.41688451
 20
-57.9635438514
 10
-80.3629150931
 20
-58.217791865
 10
-80.2779657587
 20
-58.4586140484
 10
-80.1663007424
 20
-58.6817630238
 10
-80.0301780507
 20
-58.8858163175
 10
-79.8686394585
 20
-59.0705373934
 10
-79.6837988451
 20
-59.2317972887
 10
-79.4797988652
 20
-59.3675614229
 10
-79.2568512225
 20
-59.4788743146
 10
-79.0163628909
 20
-59.5635313281
 10
-78.762587646
 20
-59.6173040398
 10
-78.499372316
 20
-59.6375473846
  0
LINE
  5
268
100
AcDbEntity
  8
0
100
AcDbLine
 62
253
  6
CONTINUOUS
 10
-89.5999543341
 20
75.6527124555
 11
-89.5999577977
 21
74.9898481032
  0
LINE
  5
269
100
AcDbEntity
  8
0
100
AcDbLine
 62
253
  6
CONTINUOUS
 10
-89.5999543417
 20
-75.6526490899
 11
-89.5999455116
 21
-74.9897847376
  0
LINE
  5
26A
100
AcDbEntity
  8
RACCORDO
100
AcDbLine
 62
7
  6
CONTINUOUS
 10
-78.6886748956
 20
70.658487574
 11
-78.6914554748
 21
70.636607116
  0
LWPOLYLINE
  5
26B
100
AcDbEntity
  8
0
100
AcDbPolyline
 62
7
  6
CONTINUOUS
 90
10
 70
0
 10
-78.7984421116
 20
57.6996695953
 10
-78.7909018445
 20
57.7481952411
 10
-78.7760041544
 20
57.7940095704
 10
-78.7537490412
 20
57.8371125831
 10
-78.722892817
 20
57.8789852271
 10
-78.6846791697
 20
57.9181465545
 10
-78.6428391634
 20
57.9501537217
 10
-78.5986164861
 20
57.973525781
 10
-78.5507674497
 20
57.9897436802
 10
-78.4992920544
 20
57.9988074192
  0
LINE
  5
26C
100
AcDbEntity
  8
RACCORDO
100
AcDbLine
 62
253
  6
CONTINUOUS
 10
-78.3816903487
 20
62.4774500429
 11
-78.3800150159
 21
62.478098981
  0
LWPOLYLINE
  5
26D
100
AcDbEntity
  8
0
100
AcDbPolyline
 62
253
  6
CONTINUOUS
 90
10
 70
0
 10
-79.4506077842
 20
61.2358916203
 10
-79.7245271697
 20
61.138485962
 10
-79.9801578931
 20
61.0407245855
 10
-80.2234198613
 20
60.9305606807
 10
-80.454241479
 20
60.8011617348
 10
-80.6731798171
 20
60.6505980752
 10
-80.8837089239
 20
60.4798652166
 10
-81.0859220484
 20
60.290559662
 10
-81.2760682192
 20
60.0849037146
 10
-81.4519405669
 20
59.8657579648
  0
LWPOLYLINE
  5
26E
100
AcDbEntity
  8
0
100
AcDbPolyline
 62
253
  6
CONTINUOUS
 90
10
 70
0
 10
-79.4506077842
 20
-61.2358916203
 10
-79.7245271697
 20
-61.138485962
 10
-79.9801578931
 20
-61.0407245855
 10
-80.2234198613
 20
-60.9305606807
 10
-80.454241479
 20
-60.8011617348
 10
-80.6731798171
 20
-60.6505980752
 10
-80.8837089239
 20
-60.4798652166
 10
-81.0859220484
 20
-60.290559662
 10
-81.2760682192
 20
-60.0849037146
 10
-81.4519405669
 20
-59.8657579648
  0
LWPOLYLINE
  5
26F
100
AcDbEntity
  8
RACCORDO
100
AcDbPolyline
 62
7
  6
CONTINUOUS
 90
6
 70
0
 10
-78.6919480636
 20
-8.4435733939
 10
-78.6888541024
 20
-8.4770267616
 10
-78.6796536694
 20
-8.5110052254
 10
-78.6646382532
 20
-8.5428449601
 10
-78.6441984871
 20
-8.571646861
 10
-78.6190112228
 20
-8.5964049485
  0
LWPOLYLINE
  5
270
100
AcDbEntity
  8
RACCORDO
100
AcDbPolyline
 62
7
  6
CONTINUOUS
 90
9
 70
0
 10
-78.7
 20
-8.4500076154
 10
-78.6969757045
 20
-8.4847479387
 10
-78.6879641024
 20
-8.5184305282
 10
-78.6732387406
 20
-8.5500323301
 10
-78.6532461907
 20
-8.5785938172
 10
-78.6285938172
 20
-8.6032461907
 10
-78.6000323301
 20
-8.6232387406
 10
-78.5684305282
 20
-8.6379641024
 10
-78.5347479387
 20
-8.6469757045
  0
LWPOLYLINE
  5
271
100
AcDbEntity
  8
0
100
AcDbPolyline
 62
253
  6
CONTINUOUS
 90
10
 70
0
 10
-80.43725428
 20
13.2999277187
 10
-80.4186546675
 20
13.0332783826
 10
-80.3659059749
 20
12.7813926948
 10
-80.2813117218
 20
12.5421352055
 10
-80.1627990459
 20
12.3112688805
 10
-80.0111506386
 20
12.0948195157
 10
-79.8347290156
 20
11.9039086661
 10
-79.6378190056
 20
11.7404719247
 10
-79.416547097
 20
11.6017811266
 10
-79.1683586469
 20
11.4902504346
  0
LINE
  5
272
100
AcDbEntity
  8
RACCORDO
100
AcDbLine
 62
253
  6
CONTINUOUS
 10
-78.6919546758
 20
-8.4419622912
 11
-78.6919480636
 21
-8.4435733939
  0
LINE
  5
273
100
AcDbEntity
  8
0
100
AcDbLine
 62
253
  6
CONTINUOUS
 10
-78.5019605313
 20
-11.3709804442
 11
-78.5043989553
 21
-9.5999217089
  0
LINE
  5
274
100
AcDbEntity
  8
0
100
AcDbLine
 62
253
  6
CONTINUOUS
 10
-82.1602751451
 20
-57.6985730532
 11
-82.1608105082
 21
-13.2999284734
  0
LINE
  5
275
100
AcDbEntity
  8
0
100
AcDbLine
 62
253
  6
CONTINUOUS
 10
-82.1602751451
 20
57.6985730542
 11
-82.1602147886
 21
13.2988278529
  0
LINE
  5
276
100
AcDbEntity
  8
0
100
AcDbLine
 62
253
  6
CONTINUOUS
 10
-80.4370388124
 20
-13.2999277192
 11
-80.4370388131
 21
-57.6996736781
  0
LINE
  5
277
100
AcDbEntity
  8
0
100
AcDbLine
 62
253
  6
CONTINUOUS
 10
-80.4370388124
 20
13.2999277192
 11
-80.4370388131
 21
57.6996736781
  0
LINE
  5
278
100
AcDbEntity
  8
0
100
AcDbLine
 62
7
  6
CONTINUOUS
 10
-79.7831219328
 20
-9.8298638273
 11
-79.7831219328
 21
9.8298638273
  0
LINE
  5
279
100
AcDbEntity
  8
0
100
AcDbLine
 62
253
  6
CONTINUOUS
 10
-78.8442142585
 20
-57.6996736071
 11
-78.8442142585
 21
-13.2999284063
  0
LINE
  5
27A
100
AcDbEntity
  8
0
100
AcDbLine
 62
253
  6
CONTINUOUS
 10
-78.8442142585
 20
13.2999284734
 11
-78.8442142585
 21
57.6996735892
  0
LINE
  5
27B
100
AcDbEntity
  8
0
100
AcDbLine
 62
7
  6
CONTINUOUS
 10
-78.75
 20
-8.732303777
 11
-78.75
 21
-0.2649696792
  0
LINE
  5
27C
100
AcDbEntity
  8
ASSI
100
AcDbLine
 62
7
  6
CONTINUOUS
 10
-78.75
 20
62.3548003756
 11
-78.75
 21
71.1233414656
  0
LINE
  5
27D
100
AcDbEntity
  8
RACCORDO
100
AcDbLine
 62
7
  6
CONTINUOUS
 10
-78.7
 20
-8.4510956209
 11
-78.7
 21
-0.5489043791
  0
LINE
  5
27E
100
AcDbEntity
  8
RACCORDO
100
AcDbLine
 62
7
  6
CONTINUOUS
 10
-78.7
 20
62.6877654456
 11
-78.7
 21
70.4750245833
  0
LINE
  5
27F
100
AcDbEntity
  8
0
100
AcDbLine
 62
253
  6
CONTINUOUS
 10
-78.5019614828
 20
-11.3733142503
 11
-78.5019614828
 21
-12.9523240867
  0
LINE
  5
280
100
AcDbEntity
  8
0
100
AcDbLine
 62
253
  6
CONTINUOUS
 10
-78.5019614828
 20
11.3733142502
 11
-78.5019614828
 21
12.9523240866
  0
LINE
  5
281
100
AcDbEntity
  8
ASSI
100
AcDbLine
 62
253
  6
CONTINUOUS
 10
-78.4993087826
 20
71.1234535394
 11
-78.4993083704
 21
74.9868711879
  0
LINE
  5
282
100
AcDbEntity
  8
0
100
AcDbLine
 62
253
  6
CONTINUOUS
 10
-78.4993083704
 20
-59.635206738
 11
-78.4993083704
 21
-58.0446348209
  0
LINE
  5
283
100
AcDbEntity
  8
0
100
AcDbLine
 62
253
  6
CONTINUOUS
 10
-78.4993083704
 20
58.0446348209
 11
-78.4993083704
 21
59.635206738
  0
LINE
  5
284
100
AcDbEntity
  8
0
100
AcDbLine
 62
253
  6
CONTINUOUS
 10
-78.4993083704
 20
-59.6375753926
 11
-78.4993083704
 21
-74.9868711879
  0
LINE
  5
285
100
AcDbEntity
  8
0
100
AcDbLine
 62
253
  6
CONTINUOUS
 10
-78.4993083704
 20
59.6375753926
 11
-78.4993089858
 21
61.9167724737
  0
LINE
  5
286
100
AcDbEntity
  8
ASSI
100
AcDbLine
 62
253
  6
CONTINUOUS
 10
-78.4993089858
 20
61.9167724737
 11
-78.4993111077
 21
62.3543671878
  0
LINE
  5
287
100
AcDbEntity
  8
RACCORDO
100
AcDbLine
 62
253
  6
CONTINUOUS
 10
-78.3800150159
 20
62.477444994
 11
-78.3800150159
 21
62.478098981
  0
LINE
  5
288
100
AcDbEntity
  8
RACCORDO
100
AcDbLine
 62
253
  6
CONTINUOUS
 10
-78.6919548121
 20
62.8534246062
 11
-78.6919547885
 21
70.6226834649
  0
LINE
  5
289
100
AcDbEntity
  8
RACCORDO
100
AcDbLine
 62
253
  6
CONTINUOUS
 10
-78.6919548121
 20
-8.4419624275
 11
-78.6919547885
 21
-0.5580375961
  0
LINE
  5
28A
100
AcDbEntity
  8
RACCORDO
100
AcDbLine
 62
253
  6
CONTINUOUS
 10
-78.4919622912
 20
62.6563437658
 11
-78.4919622912
 21
70.8223889643
  0
LINE
  5
28B
100
AcDbEntity
  8
RACCORDO
100
AcDbLine
 62
253
  6
CONTINUOUS
 10
-78.4919622912
 20
-8.6419546758
 11
-78.4919622912
 21
-0.3580453242
  0
LINE
  5
28C
100
AcDbEntity
  8
0
100
AcDbLine
 62
253
  6
CONTINUOUS
 10
-78.5043989553
 20
9.5999217089
 11
-78.5019605313
 21
11.3709804442
  0
LINE
  5
28D
100
AcDbEntity
  8
RACCORDO
100
AcDbLine
 62
253
  6
CONTINUOUS
 10
-78.7
 20
62.6888376268
 11
-78.6919548121
 21
62.8534246062
  0
LINE
  5
28E
100
AcDbEntity
  8
RACCORDO
100
AcDbLine
 62
253
  6
CONTINUOUS
 10
-78.5000076154
 20
62.4917539981
 11
-78.4919622912
 21
62.6563437658
  0
LINE
  5
28F
100
AcDbEntity
  8
RACCORDO
100
AcDbLine
 62
7
  6
CONTINUOUS
 10
-78.6919547885
 20
70.6226834649
 11
-78.7
 21
70.4739524021
  0
LWPOLYLINE
  5
290
100
AcDbEntity
  8
0
100
AcDbPolyline
 62
253
  6
CONTINUOUS
 90
10
 70
0
 10
-82.1608105082
 20
-13.2999284734
 10
-82.125518415
 20
-12.7934975087
 10
-82.0283099089
 20
-12.3106639937
 10
-81.8691800363
 20
-11.8514279285
 10
-81.6418462396
 20
-11.4069640031
 10
-81.3525743991
 20
-10.9860975276
 10
-81.0201842339
 20
-10.615304431
 10
-80.6509491655
 20
-10.3034100233
 10
-80.238593625
 20
-10.0415889947
 10
-79.7831219492
 20
-9.8298413451
  0
LWPOLYLINE
  5
291
100
AcDbEntity
  8
0
100
AcDbPolyline
 62
253
  6
CONTINUOUS
 90
10
 70
0
 10
-80.43725428
 20
-13.2999277187
 10
-80.4186546675
 20
-13.0332783826
 10
-80.3659059749
 20
-12.7813926948
 10
-80.2813117218
 20
-12.5421352055
 10
-80.1627990459
 20
-12.3112688805
 10
-80.0111506386
 20
-12.0948195157
 10
-79.8347290156
 20
-11.9039086661
 10
-79.6378190056
 20
-11.7404719247
 10
-79.416547097
 20
-11.6017811266
 10
-79.1683586469
 20
-11.4902504346
  0
LWPOLYLINE
  5
292
100
AcDbEntity
  8
RACCORDO
100
AcDbPolyline
 62
7
  6
CONTINUOUS
 90
9
 70
0
 10
-78.7
 20
-0.5499923846
 10
-78.6969757045
 20
-0.5152520613
 10
-78.6879641024
 20
-0.4815694718
 10
-78.6732387406
 20
-0.4499676699
 10
-78.6532461907
 20
-0.4214061828
 10
-78.6285938172
 20
-0.3967538093
 10
-78.6000323301
 20
-0.3767612594
 10
-78.5684305282
 20
-0.3620358976
 10
-78.5347479387
 20
-0.3530242955
  0
LWPOLYLINE
  5
293
100
AcDbEntity
  8
RACCORDO
100
AcDbPolyline
 62
7
  6
CONTINUOUS
 90
6
 70
0
 10
-78.6919546758
 20
-0.5580377088
 10
-78.6888541024
 20
-0.5229732384
 10
-78.6796536694
 20
-0.4889947746
 10
-78.6646382532
 20
-0.4571550399
 10
-78.6441984871
 20
-0.428353139
 10
-78.6190112228
 20
-0.4035950515
  0
LWPOLYLINE
  5
294
100
AcDbEntity
  8
0
100
AcDbPolyline
 62
7
  6
CONTINUOUS
 90
13
 70
0
 10
-78.7984421116
 20
-13.2999234783
 10
-78.7947125018
 20
-13.2652270768
 10
-78.7866165072
 20
-13.2313772877
 10
-78.7741541279
 20
-13.1983741111
 10
-78.7569993613
 20
-13.1657699921
 10
-78.7354782099
 20
-13.1340124856
 10
-78.7105686809
 20
-13.1044442563
 10
-78.6822213995
 20
-13.076681504
 10
-78.6504857406
 20
-13.0511080288
 10
-78.6164878365
 20
-13.0302178963
 10
-78.5806030646
 20
-13.0148424616
 10
-78.5424560475
 20
-13.0041503694
 10
-78.5020467852
 20
-12.9981416199
  0
LINE
  5
295
100
AcDbEntity
  8
0
100
AcDbLine
 62
253
  6
CONTINUOUS
 10
-79.1683542417
 20
11.490258766
 11
-79.783018115
 21
9.830121745
  0
LWPOLYLINE
  5
296
100
AcDbEntity
  8
0
100
AcDbPolyline
 62
7
  6
CONTINUOUS
 90
10
 70
0
 10
79.4507954942
 20
-61.2360040165
 10
79.4054284922
 20
-61.2478927644
 10
79.359744505
 20
-61.2592219026
 10
79.3137966263
 20
-61.2699842626
 10
79.2676674737
 20
-61.2801718381
 10
79.2213780471
 20
-61.2897788815
 10
79.1748860965
 20
-61.2988020974
 10
79.1282085859
 20
-61.3072363871
 10
79.0814233347
 20
-61.3150746424
 10
79.034576729
 20
-61.3223109818
  0
LWPOLYLINE
  5
297
100
AcDbEntity
  8
0
100
AcDbPolyline
 62
253
  6
CONTINUOUS
 90
13
 70
0
 10
99.6979116617
 20
-75.6596981615
 10
100.0807493206
 20
-75.6344160935
 10
100.4582229571
 20
-75.5591596388
 10
100.8245699462
 20
-75.4352605677
 10
101.174135303
 20
-75.2639890097
 10
101.4997935123
 20
-75.0478116961
 10
101.7936582935
 20
-74.7904004103
 10
102.0498432112
 20
-74.4951655323
 10
102.2647586068
 20
-74.1679668911
 10
102.4349316253
 20
-73.8170796601
 10
102.5582274286
 20
-73.4497570756
 10
102.6330941777
 20
-73.0717277054
 10
102.6577237062
 20
-72.6891558637
  0
LINE
  5
298
100
AcDbEntity
  8
0
100
AcDbLine
 62
253
  6
CONTINUOUS
 10
91.5944008531
 20
-74.9764499508
 11
90.0986963404
 21
-74.9891951707
  0
LINE
  5
299
100
AcDbEntity
  8
0
100
AcDbLine
 62
7
  6
CONTINUOUS
 10
-100.0353625741
 20
-75.9999711318
 11
100.0353625741
 21
-75.9999711318
  0
LINE
  5
29A
100
AcDbEntity
  8
0
100
AcDbLine
 62
253
  6
CONTINUOUS
 10
-91.5944008531
 20
-74.9764499508
 11
-90.0986963404
 21
-74.9891951707
  0
LWPOLYLINE
  5
29B
100
AcDbEntity
  8
0
100
AcDbPolyline
 62
7
  6
CONTINUOUS
 90
16
 70
0
 10
-100.0353625741
 20
-75.9999711318
 10
-100.3449427104
 20
-75.9829133832
 10
-100.646420208
 20
-75.9352632692
 10
-100.9397950669
 20
-75.8570207898
 10
-101.2285820019
 20
-75.7470417532
 10
-101.5092662983
 20
-75.6064703511
 10
-101.7713038117
 20
-75.438739159
 10
-102.0139523073
 20
-75.2423325865
 10
-102.23795402
 20
-75.018766224
 10
-102.4349915095
 20
-74.776019417
 10
-102.6035717049
 20
-74.5129954116
 10
-102.7451876771
 20
-74.2307909618
 10
-102.8560011992
 20
-73.9406756744
 10
-102.9347328621
 20
-73.6464060852
 10
-102.9826620749
 20
-73.3442256584
 10
-102.9997888374
 20
-73.034134394
  0
LWPOLYLINE
  5
29C
100
AcDbEntity
  8
0
100
AcDbPolyline
 62
253
  6
CONTINUOUS
 90
13
 70
0
 10
-99.6979116617
 20
-75.6596981615
 10
-100.0807493206
 20
-75.6344160935
 10
-100.4582229571
 20
-75.5591596388
 10
-100.8245699462
 20
-75.4352605677
 10
-101.174135303
 20
-75.2639890097
 10
-101.4997935123
 20
-75.0478116961
 10
-101.7936582935
 20
-74.7904004103
 10
-102.0498432112
 20
-74.4951655323
 10
-102.2647586068
 20
-74.1679668911
 10
-102.4349316253
 20
-73.8170796601
 10
-102.5582274286
 20
-73.4497570756
 10
-102.6330941777
 20
-73.0717277054
 10
-102.6577237062
 20
-72.6891558637
  0
LWPOLYLINE
  5
29D
100
AcDbEntity
  8
0
100
AcDbPolyline
 62
7
  6
CONTINUOUS
 90
10
 70
0
 10
-79.4507954808
 20
-61.2360040065
 10
-79.4054373883
 20
-61.2478908872
 10
-79.3597602629
 20
-61.2592186368
 10
-79.3138171149
 20
-61.2699800975
 10
-79.2676904931
 20
-61.2801673174
 10
-79.2214013132
 20
-61.2897745136
 10
-79.1749072367
 20
-61.2987982652
 10
-79.1282251678
 20
-61.3072334353
 10
-79.0814328847
 20
-61.3150729662
 10
-79.034576729
 20
-61.3223109818
  0
LINE
  5
29E
100
AcDbEntity
  8
0
100
AcDbLine
 62
253
  6
CONTINUOUS
 10
-79.1683542417
 20
-11.490258766
 11
-79.783018115
 21
-9.830121745
  0
LWPOLYLINE
  5
29F
100
AcDbEntity
  8
RACCORDO
100
AcDbPolyline
 62
253
  6
CONTINUOUS
 90
10
 70
0
 10
-78.6919546758
 20
62.8534273945
 10
-78.6888541024
 20
62.8189203152
 10
-78.6796536694
 20
62.7854727909
 10
-78.6646382532
 20
62.754121094
 10
-78.6441984871
 20
62.7257504985
 10
-78.6190112228
 20
62.7013518644
 10
-78.5901619158
 20
62.6818527445
 10
-78.5587421576
 20
62.6677425457
 10
-78.5256723537
 20
62.6592119211
 10
-78.4919622912
 20
62.6563437658
  0
LWPOLYLINE
  5
2A0
100
AcDbEntity
  8
RACCORDO
100
AcDbPolyline
 62
7
  6
CONTINUOUS
 90
6
 70
0
 10
-78.7
 20
62.6888376268
 10
-78.6969757045
 20
62.6543383539
 10
-78.6879641024
 20
62.6209487978
 10
-78.6732387406
 20
62.5896760211
 10
-78.6532461907
 20
62.5614648347
 10
-78.6285938172
 20
62.5371710135
  0
LINE
  5
2A1
100
AcDbEntity
  8
0
100
AcDbLine
 62
7
  6
CONTINUOUS
 10
-102.8954782022
 20
-39.0
 11
-102.9997888374
 21
-39.1741058175
  0
LWPOLYLINE
  5
2A2
100
AcDbEntity
  8
0
100
AcDbPolyline
 62
7
  6
CONTINUOUS
 90
10
 70
0
 10
79.034576729
 20
-61.3223109818
 10
78.9754903052
 20
-61.3305532287
 10
78.9161694757
 20
-61.3378437018
 10
78.8566974535
 20
-61.3441721508
 10
78.7972253485
 20
-61.3495188984
 10
78.7377660035
 20
-61.3538837095
 10
78.6781902049
 20
-61.3572862274
 10
78.6185039219
 20
-61.3597271614
 10
78.558852115
 20
-61.3611878189
 10
78.4993099131
 20
-61.3616592927
  0
LINE
  5
2A3
100
AcDbEntity
  8
0
100
AcDbLine
 62
253
  6
CONTINUOUS
 10
78.4993136185
 20
-68.8468441063
 11
84.5789803834
 21
-68.7210972417
  0
LWPOLYLINE
  5
2A4
100
AcDbEntity
  8
0
100
AcDbPolyline
 62
253
  6
CONTINUOUS
 90
10
 70
0
 10
101.898963415
 20
-72.7497372541
 10
102.0372659053
 20
-72.7469642717
 10
102.1620776835
 20
-72.7430169931
 10
102.2754698902
 20
-72.7379961011
 10
102.3799573693
 20
-72.731742003
 10
102.4722773896
 20
-72.7243458347
 10
102.5463649618
 20
-72.7163173266
 10
102.601487319
 20
-72.7078938884
 10
102.6392463892
 20
-72.698870678
 10
102.6576733701
 20
-72.6891300959
  0
LWPOLYLINE
  5
2A5
100
AcDbEntity
  8
0
100
AcDbPolyline
 62
253
  6
CONTINUOUS
 90
7
 70
0
 10
99.735969964
 20
-74.9547083581
 10
99.1105372637
 20
-74.9559679269
 10
98.4800706559
 20
-74.9648431874
 10
97.8473855998
 20
-74.9762790933
 10
97.2109761007
 20
-74.9816353706
 10
96.577499564
 20
-74.9803296316
 10
95.3850998968
 20
-74.9807624225
  0
LINE
  5
2A6
100
AcDbEntity
  8
0
100
AcDbLine
 62
253
  6
CONTINUOUS
 10
-94.1623471233
 20
-75.6538377043
 11
-99.6979116601
 21
-75.6597648514
  0
LINE
  5
2A7
100
AcDbEntity
  8
0
100
AcDbLine
 62
253
  6
CONTINUOUS
 10
-90.7516672601
 20
-75.6528393268
 11
-94.1623471233
 21
-75.6538377043
  0
LINE
  5
2A8
100
AcDbEntity
  8
0
100
AcDbLine
 62
253
  6
CONTINUOUS
 10
-78.4993083704
 20
-75.6526530151
 11
-90.7516672601
 21
-75.6528393268
  0
LINE
  5
2A9
100
AcDbEntity
  8
0
100
AcDbLine
 62
7
  6
CONTINUOUS
 10
78.4993145163
 20
-74.9888414946
 11
-78.4993069352
 21
-74.9904626694
  0
LINE
  5
2AA
100
AcDbEntity
  8
0
100
AcDbLine
 62
253
  6
CONTINUOUS
 10
-101.8997530667
 20
-69.8654710919
 11
-102.656188263
 21
-69.8655091915
  0
LWPOLYLINE
  5
2AB
100
AcDbEntity
  8
0
100
AcDbPolyline
 62
253
  6
CONTINUOUS
 90
4
 70
0
 10
-97.2109761007
 20
-74.9816353706
 10
-95.9629426434
 20
-74.9803975924
 10
-95.3850998968
 20
-74.9807624225
 10
-94.8338851911
 20
-74.9776961436
  0
LINE
  5
2AC
100
AcDbEntity
  8
0
100
AcDbLine
 62
253
  6
CONTINUOUS
 10
78.4993145163
 20
-74.9888414946
 11
90.0986963404
 21
-74.9891951707
  0
LINE
  5
2AD
100
AcDbEntity
  8
0
100
AcDbLine
 62
253
  6
CONTINUOUS
 10
101.8997530667
 20
-69.8654710919
 11
102.656188263
 21
-69.8655091915
  0
LINE
  5
2AE
100
AcDbEntity
  8
0
100
AcDbLine
 62
253
  6
CONTINUOUS
 10
91.8914582169
 20
-75.653114401
 11
-78.4993083704
 21
-75.6526530151
  0
LINE
  5
2AF
100
AcDbEntity
  8
0
100
AcDbLine
 62
253
  6
CONTINUOUS
 10
92.6014787655
 20
-74.9756654107
 11
91.5944008531
 21
-74.9764499508
  0
LINE
  5
2B0
100
AcDbEntity
  8
0
100
AcDbLine
 62
253
  6
CONTINUOUS
 10
-90.0986963404
 20
-74.9891951707
 11
-78.4993069352
 21
-74.9904626694
  0
LINE
  5
2B1
100
AcDbEntity
  8
0
100
AcDbLine
 62
253
  6
CONTINUOUS
 10
99.6979116602
 20
-75.6597648514
 11
91.8914582169
 21
-75.653114401
  0
LINE
  5
2B2
100
AcDbEntity
  8
0
100
AcDbLine
 62
253
  6
CONTINUOUS
 10
-94.8338851911
 20
-74.9776961436
 11
-92.0865665644
 21
-74.9755127676
  0
LINE
  5
2B3
100
AcDbEntity
  8
0
100
AcDbLine
 62
253
  6
CONTINUOUS
 10
-92.0865665644
 20
-74.9755127676
 11
-91.5944008531
 21
-74.9764499508
  0
LWPOLYLINE
  5
2B4
100
AcDbEntity
  8
0
100
AcDbPolyline
 62
253
  6
CONTINUOUS
 90
5
 70
0
 10
-99.735969964
 20
-74.9547083581
 10
-99.1105372637
 20
-74.9559679269
 10
-98.4800706559
 20
-74.9648431874
 10
-97.8473855998
 20
-74.9762790933
 10
-97.2109761007
 20
-74.9816353706
  0
LINE
  5
2B5
100
AcDbEntity
  8
0
100
AcDbLine
 62
253
  6
CONTINUOUS
 10
93.7160931825
 20
-74.9783344201
 11
92.6014787655
 21
-74.9756654107
  0
LWPOLYLINE
  5
2B6
100
AcDbEntity
  8
0
100
AcDbPolyline
 62
253
  6
CONTINUOUS
 90
3
 70
0
 10
95.3850998968
 20
-74.9807624225
 10
94.8338851911
 20
-74.9776961436
 10
93.7160931825
 20
-74.9783344201
  0
LWPOLYLINE
  5
2B7
100
AcDbEntity
  8
0
100
AcDbPolyline
 62
253
  6
CONTINUOUS
 90
10
 70
0
 10
-101.898963415
 20
-72.7497372541
 10
-102.0372659053
 20
-72.7469642717
 10
-102.1620776835
 20
-72.7430169931
 10
-102.2754698902
 20
-72.7379961011
 10
-102.3799573693
 20
-72.731742003
 10
-102.4722773896
 20
-72.7243458347
 10
-102.5463649618
 20
-72.7163173266
 10
-102.601487319
 20
-72.7078938884
 10
-102.6392463892
 20
-72.698870678
 10
-102.6576733701
 20
-72.6891300959
  0
LINE
  5
2B8
100
AcDbEntity
  8
0
100
AcDbLine
 62
253
  6
CONTINUOUS
 10
-84.5789803723
 20
-68.7210973291
 11
-78.4993081767
 21
-68.8468442618
  0
LWPOLYLINE
  5
2B9
100
AcDbEntity
  8
0
100
AcDbPolyline
 62
7
  6
CONTINUOUS
 90
10
 70
0
 10
-79.034576729
 20
-61.3223109818
 10
-78.9754954307
 20
-61.3305526985
 10
-78.9161784517
 20
-61.3378427967
 10
-78.8567089738
 20
-61.3441710303
 10
-78.7972380131
 20
-61.3495177646
 10
-78.7377784524
 20
-61.3538827281
 10
-78.6782012633
 20
-61.3572854471
 10
-78.6185124779
 20
-61.3597265917
 10
-78.5588569851
 20
-61.3611875094
 10
-78.4993099131
 20
-61.3616592931
  0
LWPOLYLINE
  5
2BA
100
AcDbEntity
  8
0
100
AcDbPolyline
 62
7
  6
CONTINUOUS
 90
10
 70
0
 10
-78.4993042874
 20
-57.9988074192
 10
-78.5478299333
 20
-57.9912671522
 10
-78.5936442626
 20
-57.976369462
 10
-78.6367472754
 20
-57.9541143489
 10
-78.6786199194
 20
-57.9232581246
 10
-78.7177812469
 20
-57.8850444772
 10
-78.7497884142
 20
-57.8432044709
 10
-78.7731604735
 20
-57.7989817935
 10
-78.7893783726
 20
-57.7511327572
 10
-78.7984421116
 20
-57.6996573618
  0
LINE
  5
2BB
100
AcDbEntity
  8
0
100
AcDbLine
 62
7
  6
CONTINUOUS
 10
-102.9997888374
 20
39.1741058175
 11
-102.8954782022
 21
39.0
  0
LINE
  5
2BC
100
AcDbEntity
  8
0
100
AcDbLine
 62
7
  6
CONTINUOUS
 10
73.031313
 20
-64.950073
 11
73.611334
 21
-64.950065
  0
LINE
  5
2BD
100
AcDbEntity
  8
0
100
AcDbLine
 62
7
  6
CONTINUOUS
 10
70.936222
 20
-64.950073
 11
71.516229
 21
-64.950065
  0
LINE
  5
2BE
100
AcDbEntity
  8
0
100
AcDbLine
 62
7
  6
CONTINUOUS
 10
68.647796
 20
-64.95008
 11
69.227817
 21
-64.950073
  0
LINE
  5
2BF
100
AcDbEntity
  8
0
100
AcDbLine
 62
7
  6
CONTINUOUS
 10
77.527886
 20
-64.950065
 11
78.181191
 21
-64.950058
  0
LINE
  5
2C0
100
AcDbEntity
  8
0
100
AcDbLine
 62
7
  6
CONTINUOUS
 10
66.749941
 20
-64.95008
 11
67.329985
 21
-64.950073
  0
LINE
  5
2C1
100
AcDbEntity
  8
0
100
AcDbLine
 62
7
  6
CONTINUOUS
 10
69.807825
 20
-64.950073
 11
70.387846
 21
-64.950073
  0
LINE
  5
2C2
100
AcDbEntity
  8
0
100
AcDbLine
 62
7
  6
CONTINUOUS
 10
72.064612
 20
-64.950073
 11
72.644634
 21
-64.950073
  0
LINE
  5
2C3
100
AcDbEntity
  8
0
100
AcDbLine
 62
7
  6
CONTINUOUS
 10
75.860306
 20
-64.950065
 11
76.440335
 21
-64.950065
  0
LINE
  5
2C4
100
AcDbEntity
  8
0
100
AcDbLine
 62
7
  6
CONTINUOUS
 10
74.893598
 20
-64.950065
 11
75.473627
 21
-64.950073
  0
LINE
  5
2C5
100
AcDbEntity
  8
0
100
AcDbLine
 62
7
  6
CONTINUOUS
 10
73.794448
 20
-64.379737
 11
74.710492
 21
-64.379737
  0
LINE
  5
2C6
100
AcDbEntity
  8
0
100
AcDbLine
 62
7
  6
CONTINUOUS
 10
73.971369
 20
-63.828715
 11
74.533563
 21
-63.828715
  0
LINE
  5
2C7
100
AcDbEntity
  8
0
100
AcDbLine
 62
7
  6
CONTINUOUS
 10
76.4404
 20
-63.828708
 11
76.946632
 21
-63.828715
  0
LINE
  5
2C8
100
AcDbEntity
  8
0
100
AcDbLine
 62
7
  6
CONTINUOUS
 10
76.432338
 20
-63.292186
 11
77.138015
 21
-63.292186
  0
LINE
  5
2C9
100
AcDbEntity
  8
0
100
AcDbLine
 62
7
  6
CONTINUOUS
 10
76.432331
 20
-62.586456
 11
77.138015
 21
-62.586456
  0
LINE
  5
2CA
100
AcDbEntity
  8
0
100
AcDbLine
 62
7
  6
CONTINUOUS
 10
65.818809
 20
-62.049942
 11
66.398838
 21
-62.049942
  0
LINE
  5
2CB
100
AcDbEntity
  8
0
100
AcDbLine
 62
7
  6
CONTINUOUS
 10
67.681095
 20
-62.049942
 11
68.261124
 21
-62.049942
  0
LINE
  5
2CC
100
AcDbEntity
  8
0
100
AcDbLine
 62
7
  6
CONTINUOUS
 10
68.647803
 20
-62.049942
 11
69.227825
 21
-62.049942
  0
LINE
  5
2CD
100
AcDbEntity
  8
0
100
AcDbLine
 62
7
  6
CONTINUOUS
 10
69.807825
 20
-62.049942
 11
70.684661
 21
-62.049942
  0
LINE
  5
2CE
100
AcDbEntity
  8
0
100
AcDbLine
 62
7
  6
CONTINUOUS
 10
71.767797
 20
-62.049942
 11
72.644634
 21
-62.049942
  0
LINE
  5
2CF
100
AcDbEntity
  8
0
100
AcDbLine
 62
7
  6
CONTINUOUS
 10
73.962437
 20
-62.049935
 11
74.542488
 21
-62.049935
  0
LINE
  5
2D0
100
AcDbEntity
  8
0
100
AcDbLine
 62
7
  6
CONTINUOUS
 10
75.860306
 20
-62.049935
 11
77.218521
 21
-62.049935
  0
LINE
  5
2D1
100
AcDbEntity
  8
0
100
AcDbLine
 62
7
  6
CONTINUOUS
 10
78.4993083703
 20
-61.3616731739
 11
-78.4993083703
 21
-61.3616731739
  0
LINE
  5
2D2
100
AcDbEntity
  8
0
100
AcDbLine
 62
253
  6
CONTINUOUS
 10
-78.4993083704
 20
-59.635206738
 11
78.4993083704
 21
-59.635206738
  0
LINE
  5
2D3
100
AcDbEntity
  8
RACCORDO
100
AcDbLine
 62
7
  6
CONTINUOUS
 10
-58.0
 20
62.4917539981
 11
-58.0
 21
62.4040193037
  0
LINE
  5
2D4
100
AcDbEntity
  8
RACCORDO
100
AcDbLine
 62
7
  6
CONTINUOUS
 10
-58.0
 20
-8.65
 11
-58.0
 21
-8.7161293966
  0
LINE
  5
2D5
100
AcDbEntity
  8
RACCORDO
100
AcDbLine
 62
7
  6
CONTINUOUS
 10
-55.0
 20
62.4917539981
 11
-55.0
 21
62.4040193037
  0
LINE
  5
2D6
100
AcDbEntity
  8
RACCORDO
100
AcDbLine
 62
7
  6
CONTINUOUS
 10
-55.0
 20
-8.65
 11
-55.0
 21
-8.7161293966
  0
LINE
  5
2D7
100
AcDbEntity
  8
0
100
AcDbLine
 62
7
  6
CONTINUOUS
 10
78.4993083704
 20
-58.0445795661
 11
-78.4993082995
 21
-58.0445795661
  0
LINE
  5
2D8
100
AcDbEntity
  8
0
100
AcDbLine
 62
7
  6
CONTINUOUS
 10
-78.4993083718
 20
-57.9988074192
 11
78.4993083704
 21
-57.9988074192
  0
LINE
  5
2D9
100
AcDbEntity
  8
0
100
AcDbLine
 62
253
  6
CONTINUOUS
 10
78.8442179733
 20
-57.6996736781
 11
82.1612938277
 21
-57.6996736781
  0
LINE
  5
2DA
100
AcDbEntity
  8
0
100
AcDbLine
 62
7
  6
CONTINUOUS
 10
-101.9111395367
 20
-57.6985730532
 11
-82.1602751451
 21
-57.6985730532
  0
LINE
  5
2DB
100
AcDbEntity
  8
0
100
AcDbLine
 62
7
  6
CONTINUOUS
 10
101.9111395367
 20
-57.6985730542
 11
82.1602751451
 21
-57.6985730542
  0
LINE
  5
2DC
100
AcDbEntity
  8
0
100
AcDbLine
 62
253
  6
CONTINUOUS
 10
-82.161375335
 20
-57.6997140846
 11
-78.8442179733
 21
-57.6996736781
  0
LINE
  5
2DD
100
AcDbEntity
  8
RACCORDO
100
AcDbLine
 62
7
  6
CONTINUOUS
 10
-78.6190112228
 20
-8.5964049485
 11
-78.5901619158
 21
-8.6161781975
  0
LINE
  5
2DE
100
AcDbEntity
  8
RACCORDO
100
AcDbLine
 62
253
  6
CONTINUOUS
 10
-78.6919547885
 20
-0.5580375961
 11
-78.7
 21
-0.5499923846
  0
LINE
  5
2DF
100
AcDbEntity
  8
0
100
AcDbLine
 62
253
  6
CONTINUOUS
 10
-84.5789803834
 20
-68.7210972417
 11
-84.1496384648
 21
-67.9016617651
  0
LWPOLYLINE
  5
2E0
100
AcDbEntity
  8
0
100
AcDbPolyline
 62
253
  6
CONTINUOUS
 90
25
 70
0
 10
-84.1496384648
 20
-67.9016617651
 10
-83.7355733199
 20
-67.1243759297
 10
-83.5343581279
 20
-66.7519793349
 10
-83.3359807382
 20
-66.3896935434
 10
-83.1405439188
 20
-66.0375748
 10
-82.948173495
 20
-65.6957607828
 10
-82.7580996281
 20
-65.3636717676
 10
-82.570811069
 20
-65.0412392051
 10
-82.3861633394
 20
-64.7286396936
 10
-82.2027206008
 20
-64.4256876887
 10
-82.0215059279
 20
-64.1321749306
 10
-81.842201646
 20
-63.8484551399
 10
-81.6621651838
 20
-63.5751457244
 10
-81.4829112616
 20
-63.3120907394
 10
-81.3046779407
 20
-63.0593755103
 10
-81.1243145182
 20
-62.817854211
 10
-80.9445149106
 20
-62.5866577173
 10
-80.7655110892
 20
-62.3663102548
 10
-80.5827471495
 20
-62.1594989345
 10
-80.4006569877
 20
-61.964796961
 10
-80.2194916337
 20
-61.7828624104
 10
-80.0319047411
 20
-61.6190350344
 10
-79.838326405
 20
-61.4745705835
 10
-79.6442656269
 20
-61.3470165668
 10
-79.4507954808
 20
-61.2360040065
  0
LINE
  5
2E1
100
AcDbEntity
  8
RACCORDO
100
AcDbLine
 62
253
  6
CONTINUOUS
 10
-78.7
 20
-8.4500076154
 11
-78.6919548121
 21
-8.4419624275
  0
LWPOLYLINE
  5
2E2
100
AcDbEntity
  8
RACCORDO
100
AcDbPolyline
 62
7
  6
CONTINUOUS
 90
5
 70
0
 10
-78.6190112228
 20
-0.4035950515
 10
-78.5901619158
 20
-0.3838218025
 10
-78.5587421576
 20
-0.3695291254
 10
-78.5256723537
 20
-0.3609093915
 10
-78.5193084542
 20
-0.359925831
  0
LWPOLYLINE
  5
2E3
100
AcDbEntity
  8
0
100
AcDbPolyline
 62
253
  6
CONTINUOUS
 90
24
 70
0
 10
-83.7355733201
 20
67.12437593
 10
-83.5343581282
 20
66.7519793355
 10
-83.3359807386
 20
66.3896935442
 10
-83.1405439194
 20
66.0375748013
 10
-82.9481734959
 20
65.6957607844
 10
-82.7580996293
 20
65.3636717697
 10
-82.5708110705
 20
65.0412392076
 10
-82.3861633413
 20
64.7286396966
 10
-82.202720603
 20
64.4256876923
 10
-82.0215059305
 20
64.1321749348
 10
-81.8422016491
 20
63.8484551446
 10
-81.6621651873
 20
63.5751457297
 10
-81.4829112657
 20
63.3120907453
 10
-81.3046779454
 20
63.0593755168
 10
-81.1243145235
 20
62.817854218
 10
-80.9445149166
 20
62.5866577249
 10
-80.7655110959
 20
62.3663102629
 10
-80.5827471571
 20
62.1594989431
 10
-80.4006569963
 20
61.9647969697
 10
-80.2194916433
 20
61.782862419
 10
-80.0319047517
 20
61.6190350431
 10
-79.8383264166
 20
61.4745705926
 10
-79.6442656394
 20
61.3470165762
 10
-79.4507954942
 20
61.2360040165
  0
LINE
  5
2E4
100
AcDbEntity
  8
0
100
AcDbLine
 62
253
  6
CONTINUOUS
 10
-84.1496384648
 20
67.9016617651
 11
-83.7355733201
 21
67.12437593
  0
LINE
  5
2E5
100
AcDbEntity
  8
0
100
AcDbLine
 62
253
  6
CONTINUOUS
 10
-84.5789803834
 20
68.7210972417
 11
-84.1496384648
 21
67.9016617651
  0
LWPOLYLINE
  5
2E6
100
AcDbEntity
  8
0
100
AcDbPolyline
 62
253
  6
CONTINUOUS
 90
8
 70
0
 10
-86.5117452636
 20
-61.2089889538
 10
-85.8279449455
 20
-61.0338649036
 10
-85.1340291219
 20
-60.8424720213
 10
-84.4286465168
 20
-60.6428645195
 10
-83.7076097153
 20
-60.4537743204
 10
-82.9701004403
 20
-60.2718525804
 10
-82.2182348712
 20
-60.0794056621
 10
-81.4526073726
 20
-59.8660471851
  0
LINE
  5
2E7
100
AcDbEntity
  8
0
100
AcDbLine
 62
253
  6
CONTINUOUS
 10
-87.8431334211
 20
-61.5435077666
 11
-86.5117452636
 21
-61.2089889538
  0
LWPOLYLINE
  5
2E8
100
AcDbEntity
  8
0
100
AcDbPolyline
 62
253
  6
CONTINUOUS
 90
9
 70
0
 10
87.843133421
 20
-61.5435077666
 10
86.5117452636
 20
-61.2089889538
 10
85.8279449455
 20
-61.0338649036
 10
85.1340291219
 20
-60.8424720213
 10
84.4286465169
 20
-60.6428645195
 10
83.7076097154
 20
-60.4537743204
 10
82.9701004404
 20
-60.2718525804
 10
82.2182348712
 20
-60.0794056621
 10
81.4526073726
 20
-59.8660471851
  0
LWPOLYLINE
  5
2E9
100
AcDbEntity
  8
RACCORDO
100
AcDbPolyline
 62
253
  6
CONTINUOUS
 90
6
 70
0
 10
-78.6919546758
 20
-8.4419622909
 10
-78.6886384102
 20
-8.4431540701
 10
-78.6792669779
 20
-8.4461264637
 10
-78.6640252162
 20
-8.449877115
 10
-78.6432594811
 20
-8.4526327331
 10
-78.5896033931
 20
-8.4556699374
  0
LWPOLYLINE
  5
2EA
100
AcDbEntity
  8
RACCORDO
100
AcDbPolyline
 62
7
  6
CONTINUOUS
 90
4
 70
0
 10
-78.5901619158
 20
-8.6161781975
 10
-78.5587421576
 20
-8.6304708746
 10
-78.5256723537
 20
-8.6390906085
 10
-78.5193084542
 20
-8.640074169
  0
LWPOLYLINE
  5
2EB
100
AcDbEntity
  8
RACCORDO
100
AcDbPolyline
 62
253
  6
CONTINUOUS
 90
5
 70
0
 10
-78.6919546758
 20
-0.5580377091
 10
-78.6886384075
 20
-0.5568460067
 10
-78.6792669697
 20
-0.5538736693
 10
-78.6640252027
 20
-0.5501230541
 10
-78.6432594616
 20
-0.5473674523
  0
LWPOLYLINE
  5
2EC
100
AcDbEntity
  8
0
100
AcDbPolyline
 62
253
  6
CONTINUOUS
 90
10
 70
0
 10
92.8444949574
 20
63.0208783203
 10
92.3220752559
 20
62.8334396831
 10
91.7911345769
 20
62.654303626
 10
91.2516349277
 20
62.4823558697
 10
90.7032070138
 20
62.316126179
 10
90.146124527
 20
62.1547540456
 10
89.5813502363
 20
61.9979411033
 10
89.0093254719
 20
61.844769228
 10
88.4298685002
 20
61.6937071649
 10
87.843133421
 20
61.5435077666
  0
LWPOLYLINE
  5
2ED
100
AcDbEntity
  8
0
100
AcDbPolyline
 62
253
  6
CONTINUOUS
 90
10
 70
0
 10
92.8444949574
 20
-63.0208783203
 10
92.3220752559
 20
-62.8334396831
 10
91.7911345769
 20
-62.654303626
 10
91.2516349277
 20
-62.4823558697
 10
90.7032070138
 20
-62.316126179
 10
90.146124527
 20
-62.1547540456
 10
89.5813502363
 20
-61.9979411033
 10
89.0093254719
 20
-61.844769228
 10
88.4298685002
 20
-61.6937071649
 10
87.843133421
 20
-61.5435077666
  0
LWPOLYLINE
  5
2EE
100
AcDbEntity
  8
0
100
AcDbPolyline
 62
253
  6
CONTINUOUS
 90
10
 70
0
 10
-79.7831219492
 20
9.8298413451
 10
-80.2398298221
 20
10.0425218273
 10
-80.6530349283
 20
10.3051580536
 10
-81.022732935
 20
10.6177500238
 10
-81.3551181955
 20
10.9893179091
 10
-81.6439986416
 20
11.4108415383
 10
-81.8707984076
 20
11.8552603987
 10
-82.0293328853
 20
12.313554319
 10
-82.1258033688
 20
12.7947434704
 10
-82.1602147886
 20
13.2988278529
  0
LWPOLYLINE
  5
2EF
100
AcDbEntity
  8
0
100
AcDbPolyline
 62
253
  6
CONTINUOUS
 90
10
 70
0
 10
-87.448723871
 20
-73.0691914201
 10
-87.0980546735
 20
-72.6548304465
 10
-86.7581436335
 20
-72.2226909445
 10
-86.4277800539
 20
-71.7726568762
 10
-86.1050882183
 20
-71.3034896675
 10
-85.7891632693
 20
-70.8161956069
 10
-85.4801000539
 20
-70.314050201
 10
-85.176822742
 20
-69.798100044
 10
-84.8770557391
 20
-69.2671401499
 10
-84.5789803723
 20
-68.7210973291
  0
LINE
  5
2F0
100
AcDbEntity
  8
0
100
AcDbLine
 62
253
  6
CONTINUOUS
 10
-102.657741476
 20
-72.6891445459
 11
-102.9997888374
 21
-73.0348136178
  0
LINE
  5
2F1
100
AcDbEntity
  8
0
100
AcDbLine
 62
253
  6
CONTINUOUS
 10
-99.6979116601
 20
-75.6597648514
 11
-100.0346313234
 21
-75.9999711318
  0
LWPOLYLINE
  5
2F2
100
AcDbEntity
  8
0
100
AcDbPolyline
 62
253
  6
CONTINUOUS
 90
10
 70
0
 10
92.8443744641
 20
63.0238907478
 10
94.1539604057
 20
63.5845428292
 10
95.3846831277
 20
64.1850857529
 10
96.5373309561
 20
64.8339285476
 10
97.6117409822
 20
65.5447641841
 10
98.6095976908
 20
66.3174851118
 10
99.5341965736
 20
67.1349068647
 10
100.3868105403
 20
67.9902517335
 10
101.1669015964
 20
68.8904331877
 10
101.8747692567
 20
69.834674327
  0
LWPOLYLINE
  5
2F3
100
AcDbEntity
  8
0
100
AcDbPolyline
 62
253
  6
CONTINUOUS
 90
10
 70
0
 10
92.8443744641
 20
-63.0238907478
 10
94.1539604057
 20
-63.5845428292
 10
95.3846831277
 20
-64.1850857529
 10
96.5373309561
 20
-64.8339285476
 10
97.6117409822
 20
-65.5447641841
 10
98.6095976908
 20
-66.3174851118
 10
99.5341965736
 20
-67.1349068647
 10
100.3868105403
 20
-67.9902517335
 10
101.1669015964
 20
-68.8904331877
 10
101.8747692567
 20
-69.834674327
  0
LINE
  5
2F4
100
AcDbEntity
  8
0
100
AcDbLine
 62
253
  6
CONTINUOUS
 10
-102.9997888374
 20
73.0348136178
 11
-102.657741476
 21
72.6891445459
  0
LINE
  5
2F5
100
AcDbEntity
  8
0
100
AcDbLine
 62
253
  6
CONTINUOUS
 10
-99.6979116602
 20
75.6597648514
 11
-100.0346313235
 21
75.9999711318
  0
LWPOLYLINE
  5
2F6
100
AcDbEntity
  8
0
100
AcDbPolyline
 62
253
  6
CONTINUOUS
 90
10
 70
0
 10
-87.448723871
 20
73.0691914201
 10
-87.0980546735
 20
72.6548304465
 10
-86.7581436335
 20
72.2226909445
 10
-86.4277800539
 20
71.7726568762
 10
-86.1050882183
 20
71.3034896675
 10
-85.7891632693
 20
70.8161956069
 10
-85.4801000539
 20
70.314050201
 10
-85.176822742
 20
69.798100044
 10
-84.8770557391
 20
69.2671401499
 10
-84.5789803723
 20
68.7210973291
  0
LINE
  5
2F7
100
AcDbEntity
  8
RACCORDO
100
AcDbLine
 62
7
  6
CONTINUOUS
 10
-12.8
 20
62.4917539981
 11
-12.8
 21
62.4040193037
  0
LINE
  5
2F8
100
AcDbEntity
  8
RACCORDO
100
AcDbLine
 62
7
  6
CONTINUOUS
 10
-12.8
 20
-8.65
 11
-12.8
 21
-8.7161293966
  0
LINE
  5
2F9
100
AcDbEntity
  8
RACCORDO
100
AcDbLine
 62
7
  6
CONTINUOUS
 10
-9.8
 20
62.4917539981
 11
-9.8
 21
62.4040193037
  0
LINE
  5
2FA
100
AcDbEntity
  8
RACCORDO
100
AcDbLine
 62
7
  6
CONTINUOUS
 10
-9.8
 20
-8.65
 11
-9.8
 21
-8.7161293966
  0
LWPOLYLINE
  5
2FB
100
AcDbEntity
  8
0
100
AcDbPolyline
 62
253
  6
CONTINUOUS
 90
10
 70
0
 10
89.580784039
 20
74.975808499
 10
89.3346420864
 20
74.8038265273
 10
89.0906385039
 20
74.6218915418
 10
88.8487870737
 20
74.4299757152
 10
88.6087685186
 20
74.2279723561
 10
88.3708721708
 20
74.0159273503
 10
88.1359561144
 20
73.7940388684
 10
87.9042077988
 20
73.5623492895
 10
87.6751838624
 20
73.3207457696
 10
87.448723871
 20
73.0691914201
  0
LINE
  5
2FC
100
AcDbEntity
  8
RACCORDO
100
AcDbLine
 62
253
  6
CONTINUOUS
 10
78.5010956209
 20
62.4917539981
 11
78.4893711179
 21
62.4843517781
  0
LINE
  5
2FD
100
AcDbEntity
  8
RACCORDO
100
AcDbLine
 62
7
  6
CONTINUOUS
 10
78.6083071054
 20
62.522480897
 11
78.5961415724
 21
62.5148002345
  0
LWPOLYLINE
  5
2FE
100
AcDbEntity
  8
RACCORDO
100
AcDbPolyline
 62
7
  6
CONTINUOUS
 90
4
 70
0
 10
78.6083071514
 20
62.5224827082
 10
78.6000323301
 20
62.517534349
 10
78.5684305282
 20
62.5031537598
 10
78.5347479387
 20
62.4944700828
  0
LINE
  5
2FF
100
AcDbEntity
  8
RACCORDO
100
AcDbLine
 62
7
  6
CONTINUOUS
 10
78.5347479387
 20
-8.6469757045
 11
78.5000076154
 21
-8.65
  0
LINE
  5
300
100
AcDbEntity
  8
RACCORDO
100
AcDbLine
 62
253
  6
CONTINUOUS
 10
78.5193084542
 20
-8.640074169
 11
78.4919622912
 21
-8.6419546758
  0
LWPOLYLINE
  5
301
100
AcDbEntity
  8
RACCORDO
100
AcDbPolyline
 62
253
  6
CONTINUOUS
 90
5
 70
0
 10
78.6432594811
 20
-8.4526327331
 10
78.5896033931
 20
-8.4556699374
 10
78.5590129624
 20
-8.4575616394
 10
78.5264141696
 20
-8.4584834967
 10
78.4919622912
 20
-8.4577934653
  0
LINE
  5
302
100
AcDbEntity
  8
0
100
AcDbLine
 62
253
  6
CONTINUOUS
 10
78.8442179729
 20
-13.2999284734
 11
82.1611891551
 21
-13.2999284856
  0
LINE
  5
303
100
AcDbEntity
  8
0
100
AcDbLine
 62
253
  6
CONTINUOUS
 10
-78.8442179729
 20
-13.2999284734
 11
-82.1611891551
 21
-13.2999284857
  0
LINE
  5
304
100
AcDbEntity
  8
0
100
AcDbLine
 62
7
  6
CONTINUOUS
 10
-78.5019609139
 20
-12.952369473
 11
78.5019614828
 21
-12.952369473
  0
LINE
  5
305
100
AcDbEntity
  8
0
100
AcDbLine
 62
7
  6
CONTINUOUS
 10
78.5019614828
 20
-11.3709804442
 11
-78.5019605313
 21
-11.3709804442
  0
LINE
  5
306
100
AcDbEntity
  8
0
100
AcDbLine
 62
253
  6
CONTINUOUS
 10
-78.5058830091
 20
-9.5999217089
 11
78.5058830091
 21
-9.5999217089
  0
LINE
  5
307
100
AcDbEntity
  8
0
100
AcDbLine
 62
7
  6
CONTINUOUS
 10
-78.75
 20
-8.732303777
 11
78.75
 21
-8.732303777
  0
LINE
  5
308
100
AcDbEntity
  8
RACCORDO
100
AcDbLine
 62
7
  6
CONTINUOUS
 10
78.4919622912
 20
-8.6419546758
 11
-78.4919622912
 21
-8.6419546758
  0
LINE
  5
309
100
AcDbEntity
  8
RACCORDO
100
AcDbLine
 62
253
  6
CONTINUOUS
 10
78.4919621522
 20
-8.457793465
 11
-78.4919621414
 21
-8.457793465
  0
LWPOLYLINE
  5
30A
100
AcDbEntity
  8
RACCORDO
100
AcDbPolyline
 62
253
  6
CONTINUOUS
 90
4
 70
0
 10
-78.5896033931
 20
-8.4556699374
 10
-78.5590129624
 20
-8.4575616395
 10
-78.5264141696
 20
-8.4584834968
 10
-78.4919622912
 20
-8.4577934653
  0
LINE
  5
30B
100
AcDbEntity
  8
RACCORDO
100
AcDbLine
 62
253
  6
CONTINUOUS
 10
-78.5193084542
 20
-8.640074169
 11
-78.4919622912
 21
-8.6419546758
  0
LINE
  5
30C
100
AcDbEntity
  8
RACCORDO
100
AcDbLine
 62
7
  6
CONTINUOUS
 10
-78.5347479387
 20
-8.6469757045
 11
-78.5000076154
 21
-8.65
  0
LWPOLYLINE
  5
30D
100
AcDbEntity
  8
0
100
AcDbPolyline
 62
253
  6
CONTINUOUS
 90
10
 70
0
 10
89.580784039
 20
-74.975808499
 10
89.3346420864
 20
-74.8038265273
 10
89.0906385039
 20
-74.6218915418
 10
88.8487870737
 20
-74.4299757152
 10
88.6087685186
 20
-74.2279723561
 10
88.3708721708
 20
-74.0159273503
 10
88.1359561144
 20
-73.7940388684
 10
87.9042077988
 20
-73.5623492895
 10
87.6751838624
 20
-73.3207457696
 10
87.448723871
 20
-73.0691914201
  0
LINE
  5
30E
100
AcDbEntity
  8
RACCORDO
100
AcDbLine
 62
7
  6
CONTINUOUS
 10
78.6285938172
 20
62.5371710135
 11
78.6083071514
 21
62.5224827082
  0
LWPOLYLINE
  5
30F
100
AcDbEntity
  8
0
100
AcDbPolyline
 62
253
  6
CONTINUOUS
 90
10
 70
0
 10
-78.5019609139
 20
-12.9523696084
 10
-78.5630583555
 20
-12.9583855577
 10
-78.6194619971
 20
-12.9740023531
 10
-78.6718026908
 20
-12.998595198
 10
-78.7219701242
 20
-13.0336440701
 10
-78.7666468326
 20
-13.0790830637
 10
-78.8008349959
 20
-13.1298074466
 10
-78.824518563
 20
-13.1824815899
 10
-78.8391787626
 20
-13.2389900091
 10
-78.8442141193
 20
-13.2999284063
  0
LINE
  5
310
100
AcDbEntity
  8
RACCORDO
100
AcDbLine
 62
253
  6
CONTINUOUS
 10
78.4919621534
 20
-0.542206535
 11
-78.491962164
 21
-0.542206535
  0
LINE
  5
311
100
AcDbEntity
  8
RACCORDO
100
AcDbLine
 62
7
  6
CONTINUOUS
 10
78.4919622912
 20
-0.3580453242
 11
-78.4919622912
 21
-0.3580453242
  0
LINE
  5
312
100
AcDbEntity
  8
0
100
AcDbLine
 62
7
  6
CONTINUOUS
 10
-78.75
 20
-0.2649696792
 11
78.75
 21
-0.2649696792
  0
LWPOLYLINE
  5
313
100
AcDbEntity
  8
0
100
AcDbPolyline
 62
253
  6
CONTINUOUS
 90
10
 70
0
 10
78.5019603445
 20
-12.9523697438
 10
78.5629172855
 20
-12.9582748853
 10
78.6191773235
 20
-12.9738589219
 10
78.6714751265
 20
-12.9983942372
 10
78.7215637606
 20
-13.0335127584
 10
78.7663225037
 20
-13.0789370864
 10
78.8007084568
 20
-13.1295572177
 10
78.8244777487
 20
-13.1822465173
 10
78.8392300511
 20
-13.2387888339
 10
78.84421398
 20
-13.2999283391
  0
LWPOLYLINE
  5
314
100
AcDbEntity
  8
0
100
AcDbPolyline
 62
7
  6
CONTINUOUS
 90
13
 70
0
 10
78.5020328177
 20
-12.9981416199
 10
78.5423577949
 20
-13.0040938699
 10
78.5804632288
 20
-13.0147607927
 10
78.6163491194
 20
-13.0301423882
 10
78.6504114456
 20
-13.0510761791
 10
78.6822542285
 20
-13.0767246428
 10
78.7106895322
 20
-13.1045752112
 10
78.7356519821
 20
-13.1342708281
 10
78.7572069529
 20
-13.1661685498
 10
78.7743626325
 20
-13.1988269771
 10
78.7867884167
 20
-13.2317656437
 10
78.7948149098
 20
-13.2654650159
 10
78.7984421116
 20
-13.2999250938
  0
LWPOLYLINE
  5
315
100
AcDbEntity
  8
0
100
AcDbPolyline
 62
253
  6
CONTINUOUS
 90
10
 70
0
 10
78.5019603445
 20
12.952369604
 10
78.5629173102
 20
12.9582747478
 10
78.619177371
 20
12.9738587905
 10
78.6714751953
 20
12.9983941156
 10
78.7215638499
 20
13.0335126509
 10
78.7663226113
 20
13.0789369973
 10
78.8007085785
 20
13.1295571491
 10
78.8244778802
 20
13.1822464699
 10
78.8392301886
 20
13.2387888094
 10
78.8442141197
 20
13.2999283391
  0
LINE
  5
316
100
AcDbEntity
  8
RACCORDO
100
AcDbLine
 62
7
  6
CONTINUOUS
 10
-78.5347479387
 20
-0.3530242955
 11
-78.5000076154
 21
-0.35
  0
LINE
  5
317
100
AcDbEntity
  8
RACCORDO
100
AcDbLine
 62
253
  6
CONTINUOUS
 10
-78.5193084542
 20
-0.359925831
 11
-78.4919622912
 21
-0.3580453242
  0
LWPOLYLINE
  5
318
100
AcDbEntity
  8
RACCORDO
100
AcDbPolyline
 62
253
  6
CONTINUOUS
 90
5
 70
0
 10
-78.6432594616
 20
-0.5473674523
 10
-78.5896033744
 20
-0.5443302302
 10
-78.5590129581
 20
-0.5424384924
 10
-78.5264141759
 20
-0.5415165787
 10
-78.4919622912
 20
-0.5422065347
  0
LINE
  5
319
100
AcDbEntity
  8
0
100
AcDbLine
 62
253
  6
CONTINUOUS
 10
78.5058830091
 20
9.5999217089
 11
-78.5058830091
 21
9.5999217089
  0
LINE
  5
31A
100
AcDbEntity
  8
RACCORDO
100
AcDbLine
 62
7
  6
CONTINUOUS
 10
78.5347479387
 20
-0.3530242955
 11
78.5000076154
 21
-0.35
  0
LINE
  5
31B
100
AcDbEntity
  8
RACCORDO
100
AcDbLine
 62
7
  6
CONTINUOUS
 10
78.5270164583
 20
-0.3611440622
 11
78.4919622912
 21
-0.3580453242
  0
LWPOLYLINE
  5
31C
100
AcDbEntity
  8
0
100
AcDbPolyline
 62
253
  6
CONTINUOUS
 90
10
 70
0
 10
-78.5019614828
 20
12.9523697526
 10
-78.5630587417
 20
12.9583857779
 10
-78.6194622484
 20
12.9740026115
 10
-78.6718028341
 20
12.9985954751
 10
-78.7219701719
 20
13.0336443436
 10
-78.7666468014
 20
13.0790833103
 10
-78.8008349155
 20
13.1298076535
 10
-78.8245184543
 20
13.1824817563
 10
-78.8391786355
 20
13.2389901281
 10
-78.8442139789
 20
13.2999284734
  0
LWPOLYLINE
  5
31D
100
AcDbEntity
  8
0
100
AcDbPolyline
 62
7
  6
CONTINUOUS
 90
13
 70
0
 10
-78.5020328177
 20
12.9981416199
 10
-78.5423577949
 20
13.0040938699
 10
-78.5804632288
 20
13.0147607927
 10
-78.6163491194
 20
13.0301423882
 10
-78.6504114456
 20
13.0510761791
 10
-78.6822542284
 20
13.0767246428
 10
-78.7106895322
 20
13.1045752112
 10
-78.7356519821
 20
13.1342708281
 10
-78.7572069529
 20
13.1661685498
 10
-78.7743626325
 20
13.1988269771
 10
-78.7867884167
 20
13.2317656437
 10
-78.7948149098
 20
13.2654650159
 10
-78.7984421116
 20
13.2999250938
  0
LINE
  5
31E
100
AcDbEntity
  8
RACCORDO
100
AcDbLine
 62
7
  6
CONTINUOUS
 10
-78.6285938172
 20
62.5371710135
 11
-78.6083071514
 21
62.5224827082
  0
LINE
  5
31F
100
AcDbEntity
  8
RACCORDO
100
AcDbLine
 62
7
  6
CONTINUOUS
 10
9.8
 20
62.4917539981
 11
9.8
 21
62.4040193037
  0
LINE
  5
320
100
AcDbEntity
  8
RACCORDO
100
AcDbLine
 62
7
  6
CONTINUOUS
 10
9.8
 20
-8.65
 11
9.8
 21
-8.7161293966
  0
LINE
  5
321
100
AcDbEntity
  8
RACCORDO
100
AcDbLine
 62
7
  6
CONTINUOUS
 10
12.8
 20
62.4917539981
 11
12.8
 21
62.4040193037
  0
LINE
  5
322
100
AcDbEntity
  8
RACCORDO
100
AcDbLine
 62
7
  6
CONTINUOUS
 10
12.8
 20
-8.65
 11
12.8
 21
-8.7161293966
  0
LINE
  5
323
100
AcDbEntity
  8
0
100
AcDbLine
 62
253
  6
CONTINUOUS
 10
100.0346313234
 20
75.9999711318
 11
99.6979116601
 21
75.6597648514
  0
LWPOLYLINE
  5
324
100
AcDbEntity
  8
0
100
AcDbPolyline
 62
253
  6
CONTINUOUS
 90
10
 70
0
 10
-89.580784039
 20
-74.975808499
 10
-89.3346420864
 20
-74.8038265273
 10
-89.0906385039
 20
-74.6218915418
 10
-88.8487870737
 20
-74.4299757152
 10
-88.6087685186
 20
-74.2279723561
 10
-88.3708721708
 20
-74.0159273503
 10
-88.1359561144
 20
-73.7940388684
 10
-87.9042077988
 20
-73.5623492895
 10
-87.6751838624
 20
-73.3207457696
 10
-87.448723871
 20
-73.0691914201
  0
LINE
  5
325
100
AcDbEntity
  8
0
100
AcDbLine
 62
7
  6
CONTINUOUS
 10
-78.5019614828
 20
11.3733142502
 11
78.5019614828
 21
11.3733142502
  0
LINE
  5
326
100
AcDbEntity
  8
0
100
AcDbLine
 62
7
  6
CONTINUOUS
 10
78.5019609136
 20
12.952369473
 11
-78.5019614828
 21
12.952369473
  0
LINE
  5
327
100
AcDbEntity
  8
0
100
AcDbLine
 62
7
  6
CONTINUOUS
 10
78.5019614938
 20
12.9981416199
 11
-78.5019614828
 21
12.9981416199
  0
LINE
  5
328
100
AcDbEntity
  8
0
100
AcDbLine
 62
253
  6
CONTINUOUS
 10
78.8442179729
 20
13.2999284734
 11
82.1611891551
 21
13.2999284856
  0
LINE
  5
329
100
AcDbEntity
  8
0
100
AcDbLine
 62
253
  6
CONTINUOUS
 10
-78.8442179729
 20
13.2999284734
 11
-82.1611891551
 21
13.2999284857
  0
LWPOLYLINE
  5
32A
100
AcDbEntity
  8
RACCORDO
100
AcDbPolyline
 62
7
  6
CONTINUOUS
 90
4
 70
0
 10
-78.6083071514
 20
62.5224827082
 10
-78.6000323301
 20
62.517534349
 10
-78.5684305282
 20
62.5031537598
 10
-78.5347479387
 20
62.4944700828
  0
LINE
  5
32B
100
AcDbEntity
  8
RACCORDO
100
AcDbLine
 62
7
  6
CONTINUOUS
 10
-78.5961415724
 20
62.5148002345
 11
-78.6083071054
 21
62.522480897
  0
LINE
  5
32C
100
AcDbEntity
  8
RACCORDO
100
AcDbLine
 62
253
  6
CONTINUOUS
 10
-78.4893711179
 20
62.4843517781
 11
-78.5010956209
 21
62.4917539981
  0
LWPOLYLINE
  5
32D
100
AcDbEntity
  8
0
100
AcDbPolyline
 62
253
  6
CONTINUOUS
 90
10
 70
0
 10
-89.580784039
 20
74.975808499
 10
-89.3346420864
 20
74.8038265273
 10
-89.0906385039
 20
74.6218915418
 10
-88.8487870737
 20
74.4299757152
 10
-88.6087685186
 20
74.2279723561
 10
-88.3708721708
 20
74.0159273503
 10
-88.1359561144
 20
73.7940388684
 10
-87.9042077988
 20
73.5623492895
 10
-87.6751838624
 20
73.3207457696
 10
-87.448723871
 20
73.0691914201
  0
LINE
  5
32E
100
AcDbEntity
  8
0
100
AcDbLine
 62
253
  6
CONTINUOUS
 10
100.0346313235
 20
-75.9999711318
 11
99.6979116602
 21
-75.6597648514
  0
LWPOLYLINE
  5
32F
100
AcDbEntity
  8
0
100
AcDbPolyline
 62
253
  6
CONTINUOUS
 90
10
 70
0
 10
87.448723871
 20
73.0691914201
 10
87.0980546735
 20
72.6548304465
 10
86.7581436335
 20
72.2226909445
 10
86.4277800539
 20
71.7726568762
 10
86.1050882183
 20
71.3034896675
 10
85.7891632693
 20
70.8161956069
 10
85.4801000539
 20
70.314050201
 10
85.176822742
 20
69.798100044
 10
84.8770557391
 20
69.2671401499
 10
84.5789803723
 20
68.7210973291
  0
LINE
  5
330
100
AcDbEntity
  8
0
100
AcDbLine
 62
253
  6
CONTINUOUS
 10
102.9997888374
 20
73.0348136178
 11
102.657741476
 21
72.6891445459
  0
LWPOLYLINE
  5
331
100
AcDbEntity
  8
0
100
AcDbPolyline
 62
253
  6
CONTINUOUS
 90
10
 70
0
 10
-92.8443744641
 20
-63.0238907478
 10
-94.1539604057
 20
-63.5845428292
 10
-95.3846831277
 20
-64.1850857529
 10
-96.5373309561
 20
-64.8339285476
 10
-97.6117409822
 20
-65.5447641841
 10
-98.6095976908
 20
-66.3174851118
 10
-99.5341965736
 20
-67.1349068647
 10
-100.3868105403
 20
-67.9902517335
 10
-101.1669015964
 20
-68.8904331877
 10
-101.8747692567
 20
-69.834674327
  0
LWPOLYLINE
  5
332
100
AcDbEntity
  8
0
100
AcDbPolyline
 62
253
  6
CONTINUOUS
 90
10
 70
0
 10
-92.8443744641
 20
63.0238907478
 10
-94.1539604057
 20
63.5845428292
 10
-95.3846831277
 20
64.1850857529
 10
-96.5373309561
 20
64.8339285476
 10
-97.6117409822
 20
65.5447641841
 10
-98.6095976908
 20
66.3174851118
 10
-99.5341965736
 20
67.1349068647
 10
-100.3868105403
 20
67.9902517335
 10
-101.1669015964
 20
68.8904331877
 10
-101.8747692567
 20
69.834674327
  0
LWPOLYLINE
  5
333
100
AcDbEntity
  8
0
100
AcDbPolyline
 62
253
  6
CONTINUOUS
 90
10
 70
0
 10
79.7831219492
 20
-9.8298413451
 10
80.2398298221
 20
-10.0425218273
 10
80.6530349283
 20
-10.3051580536
 10
81.022732935
 20
-10.6177500238
 10
81.3551181955
 20
-10.9893179091
 10
81.6439986416
 20
-11.4108415383
 10
81.8707984076
 20
-11.8552603987
 10
82.0293328853
 20
-12.313554319
 10
82.1258033688
 20
-12.7947434704
 10
82.1602147886
 20
-13.2988278529
  0
LWPOLYLINE
  5
334
100
AcDbEntity
  8
RACCORDO
100
AcDbPolyline
 62
253
  6
CONTINUOUS
 90
5
 70
0
 10
-78.5700201879
 20
62.5009510271
 10
-78.5697478274
 20
62.5008148057
 10
-78.5504260608
 20
62.4935636556
 10
-78.530444629
 20
62.4883691564
 10
-78.5100194202
 20
62.4852874318
  0
LWPOLYLINE
  5
335
100
AcDbEntity
  8
RACCORDO
100
AcDbPolyline
 62
7
  6
CONTINUOUS
 90
11
 70
0
 10
-78.5904558842
 20
62.5113439022
 10
-78.5719669545
 20
62.5017346451
 10
-78.5545201073
 20
62.4947118905
 10
-78.5377199967
 20
62.4895760056
 10
-78.5222828692
 20
62.4860853983
 10
-78.508395035
 20
62.4837937924
 10
-78.4952304499
 20
62.4821976335
 10
-78.4819484682
 20
62.4809887758
 10
-78.4683881604
 20
62.4800396882
 10
-78.4540779047
 20
62.4792561797
 10
-78.4384208376
 20
62.478592004
  0
LINE
  5
336
100
AcDbEntity
  8
0
100
AcDbLine
 62
253
  6
CONTINUOUS
 10
102.657741476
 20
-72.6891445459
 11
102.9997888374
 21
-73.0348136178
  0
LWPOLYLINE
  5
337
100
AcDbEntity
  8
0
100
AcDbPolyline
 62
253
  6
CONTINUOUS
 90
10
 70
0
 10
87.448723871
 20
-73.0691914201
 10
87.0980546735
 20
-72.6548304465
 10
86.7581436335
 20
-72.2226909445
 10
86.4277800539
 20
-71.7726568762
 10
86.1050882183
 20
-71.3034896675
 10
85.7891632693
 20
-70.8161956069
 10
85.4801000539
 20
-70.314050201
 10
85.176822742
 20
-69.798100044
 10
84.8770557391
 20
-69.2671401499
 10
84.5789803723
 20
-68.7210973291
  0
LWPOLYLINE
  5
338
100
AcDbEntity
  8
RACCORDO
100
AcDbPolyline
 62
253
  6
CONTINUOUS
 90
5
 70
0
 10
78.6919546758
 20
-8.4419622909
 10
78.6886384102
 20
-8.4431540701
 10
78.6792669779
 20
-8.4461264636
 10
78.6640252162
 20
-8.449877115
 10
78.6432594811
 20
-8.4526327331
  0
LWPOLYLINE
  5
339
100
AcDbEntity
  8
0
100
AcDbPolyline
 62
253
  6
CONTINUOUS
 90
10
 70
0
 10
-92.8444949579
 20
-63.0208783203
 10
-92.3220752563
 20
-62.8334396831
 10
-91.7911345772
 20
-62.6543036261
 10
-91.251634928
 20
-62.4823558697
 10
-90.703207014
 20
-62.316126179
 10
-90.1461245273
 20
-62.1547540456
 10
-89.5813502365
 20
-61.9979411033
 10
-89.0093254721
 20
-61.844769228
 10
-88.4298685003
 20
-61.6937071649
 10
-87.8431334211
 20
-61.5435077666
  0
LWPOLYLINE
  5
33A
100
AcDbEntity
  8
0
100
AcDbPolyline
 62
253
  6
CONTINUOUS
 90
10
 70
0
 10
-92.8444949579
 20
63.0208783203
 10
-92.3220752563
 20
62.8334396831
 10
-91.7911345772
 20
62.6543036261
 10
-91.251634928
 20
62.4823558697
 10
-90.703207014
 20
62.316126179
 10
-90.1461245273
 20
62.1547540456
 10
-89.5813502365
 20
61.9979411033
 10
-89.0093254721
 20
61.844769228
 10
-88.4298685003
 20
61.6937071649
 10
-87.8431334211
 20
61.5435077666
  0
LWPOLYLINE
  5
33B
100
AcDbEntity
  8
RACCORDO
100
AcDbPolyline
 62
7
  6
CONTINUOUS
 90
3
 70
0
 10
78.5928176498
 20
-0.3853457928
 10
78.5609855086
 20
-0.3703390776
 10
78.5270164583
 20
-0.3611440622
  0
LINE
  5
33C
100
AcDbEntity
  8
0
100
AcDbLine
 62
253
  6
CONTINUOUS
 10
84.5789803834
 20
68.7210972417
 11
84.1496384648
 21
67.9016617651
  0
LWPOLYLINE
  5
33D
100
AcDbEntity
  8
0
100
AcDbPolyline
 62
253
  6
CONTINUOUS
 90
25
 70
0
 10
84.1496384648
 20
67.9016617651
 10
83.7355733199
 20
67.1243759297
 10
83.5343581279
 20
66.7519793349
 10
83.3359807382
 20
66.3896935434
 10
83.1405439188
 20
66.0375748
 10
82.948173495
 20
65.6957607828
 10
82.7580996281
 20
65.3636717676
 10
82.570811069
 20
65.0412392051
 10
82.3861633394
 20
64.7286396936
 10
82.2027206008
 20
64.4256876887
 10
82.0215059279
 20
64.1321749306
 10
81.842201646
 20
63.8484551399
 10
81.6621651838
 20
63.5751457244
 10
81.4829112616
 20
63.3120907394
 10
81.3046779407
 20
63.0593755103
 10
81.1243145182
 20
62.817854211
 10
80.9445149106
 20
62.5866577173
 10
80.7655110892
 20
62.3663102548
 10
80.5827471495
 20
62.1594989345
 10
80.4006569877
 20
61.964796961
 10
80.2194916337
 20
61.7828624104
 10
80.0319047411
 20
61.6190350344
 10
79.838326405
 20
61.4745705835
 10
79.6442656269
 20
61.3470165668
 10
79.4507954808
 20
61.2360040065
  0
LWPOLYLINE
  5
33E
100
AcDbEntity
  8
RACCORDO
100
AcDbPolyline
 62
253
  6
CONTINUOUS
 90
5
 70
0
 10
78.530444629
 20
62.4883691564
 10
78.5504260608
 20
62.4935636556
 10
78.5697478274
 20
62.5008148057
 10
78.5882011674
 20
62.5100442619
 10
78.5904465031
 20
62.5113380219
  0
LWPOLYLINE
  5
33F
100
AcDbEntity
  8
0
100
AcDbPolyline
 62
253
  6
CONTINUOUS
 90
8
 70
0
 10
86.5117452636
 20
61.2089889538
 10
85.8279449455
 20
61.0338649036
 10
85.1340291219
 20
60.8424720213
 10
84.4286465169
 20
60.6428645195
 10
83.7076097154
 20
60.4537743204
 10
82.9701004404
 20
60.2718525804
 10
82.2182348712
 20
60.0794056621
 10
81.4526073726
 20
59.8660471851
  0
LINE
  5
340
100
AcDbEntity
  8
0
100
AcDbLine
 62
253
  6
CONTINUOUS
 10
87.843133421
 20
61.5435077666
 11
86.5117452636
 21
61.2089889538
  0
LWPOLYLINE
  5
341
100
AcDbEntity
  8
0
100
AcDbPolyline
 62
253
  6
CONTINUOUS
 90
9
 70
0
 10
-87.8431334211
 20
61.5435077666
 10
-86.5117452636
 20
61.2089889538
 10
-85.8279449455
 20
61.0338649036
 10
-85.1340291219
 20
60.8424720213
 10
-84.4286465168
 20
60.6428645195
 10
-83.7076097153
 20
60.4537743204
 10
-82.9701004403
 20
60.2718525804
 10
-82.2182348712
 20
60.0794056621
 10
-81.4526073726
 20
59.8660471851
  0
LWPOLYLINE
  5
342
100
AcDbEntity
  8
ASSI
100
AcDbPolyline
 62
7
  6
CONTINUOUS
 90
3
 70
0
 10
-59.2706113343
 20
62.4080132244
 10
-59.2647179299
 20
62.4060685401
 10
-59.2590571833
 20
62.4047628024
  0
LWPOLYLINE
  5
343
100
AcDbEntity
  8
0
100
AcDbPolyline
 62
253
  6
CONTINUOUS
 90
24
 70
0
 10
83.7355733201
 20
-67.12437593
 10
83.5343581282
 20
-66.7519793355
 10
83.3359807386
 20
-66.3896935442
 10
83.1405439194
 20
-66.0375748013
 10
82.9481734959
 20
-65.6957607844
 10
82.7580996293
 20
-65.3636717697
 10
82.5708110705
 20
-65.0412392076
 10
82.3861633413
 20
-64.7286396966
 10
82.202720603
 20
-64.4256876923
 10
82.0215059305
 20
-64.1321749348
 10
81.8422016491
 20
-63.8484551446
 10
81.6621651873
 20
-63.5751457297
 10
81.4829112657
 20
-63.3120907453
 10
81.3046779454
 20
-63.0593755168
 10
81.1243145235
 20
-62.817854218
 10
80.9445149166
 20
-62.5866577249
 10
80.7655110959
 20
-62.3663102629
 10
80.5827471571
 20
-62.1594989431
 10
80.4006569963
 20
-61.9647969697
 10
80.2194916433
 20
-61.782862419
 10
80.0319047517
 20
-61.6190350431
 10
79.8383264166
 20
-61.4745705926
 10
79.6442656394
 20
-61.3470165762
 10
79.4507954942
 20
-61.2360040165
  0
LINE
  5
344
100
AcDbEntity
  8
0
100
AcDbLine
 62
253
  6
CONTINUOUS
 10
84.1496384648
 20
-67.9016617651
 11
83.7355733201
 21
-67.12437593
  0
LINE
  5
345
100
AcDbEntity
  8
0
100
AcDbLine
 62
253
  6
CONTINUOUS
 10
84.5789803834
 20
-68.7210972417
 11
84.1496384648
 21
-67.9016617651
  0
LINE
  5
346
100
AcDbEntity
  8
0
100
AcDbLine
 62
7
  6
CONTINUOUS
 10
76.946632
 20
-63.828715
 11
77.527886
 21
-64.950065
  0
LINE
  5
347
100
AcDbEntity
  8
0
100
AcDbLine
 62
7
  6
CONTINUOUS
 10
77.5637867907
 20
-63.7589606669
 11
78.181191
 21
-64.950058
  0
LINE
  5
348
100
AcDbEntity
  8
0
100
AcDbLine
 62
7
  6
CONTINUOUS
 10
65.818809
 20
-62.049942
 11
66.749941
 21
-64.95008
  0
LWPOLYLINE
  5
349
100
AcDbEntity
  8
RACCORDO
100
AcDbPolyline
 62
7
  6
CONTINUOUS
 90
5
 70
0
 10
78.6190112228
 20
-8.5964049485
 10
78.5901619158
 20
-8.6161781975
 10
78.5587421576
 20
-8.6304708746
 10
78.5256723537
 20
-8.6390906085
 10
78.5193084542
 20
-8.640074169
  0
LWPOLYLINE
  5
34A
100
AcDbEntity
  8
RACCORDO
100
AcDbPolyline
 62
253
  6
CONTINUOUS
 90
10
 70
0
 10
78.6919546758
 20
-0.5580377091
 10
78.6886493455
 20
-0.555318212
 10
78.6794336238
 20
-0.5526799077
 10
78.6645844421
 20
-0.5502002465
 10
78.6445480155
 20
-0.5479524633
 10
78.6199264336
 20
-0.5460034463
 10
78.5914595681
 20
-0.5444117629
 10
78.5600028396
 20
-0.5432258998
 10
78.5265015127
 20
-0.5424827701
 10
78.4919622912
 20
-0.5422065347
  0
LINE
  5
34B
100
AcDbEntity
  8
RACCORDO
100
AcDbLine
 62
253
  6
CONTINUOUS
 10
78.6919547951
 20
-8.4419624105
 11
78.7
 21
-8.4500076154
  0
LINE
  5
34C
100
AcDbEntity
  8
0
100
AcDbLine
 62
7
  6
CONTINUOUS
 10
66.398838
 20
-62.049942
 11
67.03997
 21
-64.046839
  0
LINE
  5
34D
100
AcDbEntity
  8
0
100
AcDbLine
 62
7
  6
CONTINUOUS
 10
74.252459
 20
-62.953176
 11
74.533563
 21
-63.828715
  0
LINE
  5
34E
100
AcDbEntity
  8
0
100
AcDbLine
 62
7
  6
CONTINUOUS
 10
74.710492
 20
-64.379737
 11
74.893598
 21
-64.950065
  0
LINE
  5
34F
100
AcDbEntity
  8
0
100
AcDbLine
 62
7
  6
CONTINUOUS
 10
74.542488
 20
-62.049935
 11
75.473627
 21
-64.950073
  0
LINE
  5
350
100
AcDbEntity
  8
0
100
AcDbLine
 62
7
  6
CONTINUOUS
 10
70.387846
 20
-63.037631
 11
70.936222
 21
-64.950073
  0
LINE
  5
351
100
AcDbEntity
  8
0
100
AcDbLine
 62
7
  6
CONTINUOUS
 10
70.684661
 20
-62.049942
 11
71.226229
 21
-63.938611
  0
LINE
  5
352
100
AcDbEntity
  8
RACCORDO
100
AcDbLine
 62
7
  6
CONTINUOUS
 10
55.0
 20
62.4917539981
 11
55.0
 21
62.4040193037
  0
LINE
  5
353
100
AcDbEntity
  8
RACCORDO
100
AcDbLine
 62
7
  6
CONTINUOUS
 10
55.0
 20
-8.65
 11
55.0
 21
-8.7161293966
  0
LINE
  5
354
100
AcDbEntity
  8
RACCORDO
100
AcDbLine
 62
7
  6
CONTINUOUS
 10
58.0
 20
62.4917539981
 11
58.0
 21
62.4040193037
  0
LINE
  5
355
100
AcDbEntity
  8
RACCORDO
100
AcDbLine
 62
7
  6
CONTINUOUS
 10
58.0
 20
-8.65
 11
58.0
 21
-8.7161293966
  0
LINE
  5
356
100
AcDbEntity
  8
RACCORDO
100
AcDbLine
 62
253
  6
CONTINUOUS
 10
78.7
 20
-0.5499923846
 11
78.6919548057
 21
-0.5580375789
  0
LINE
  5
357
100
AcDbEntity
  8
RACCORDO
100
AcDbLine
 62
7
  6
CONTINUOUS
 10
78.5347479387
 20
62.4944700828
 11
78.5000076154
 21
62.4917539981
  0
LWPOLYLINE
  5
358
100
AcDbEntity
  8
RACCORDO
100
AcDbPolyline
 62
253
  6
CONTINUOUS
 90
5
 70
0
 10
78.4589846455
 20
62.4804009278
 10
78.4703034885
 20
62.481249827
 10
78.478957554
 20
62.4821844238
 10
78.4853134305
 20
62.4832184075
 10
78.4893711179
 20
62.4843517781
  0
LINE
  5
359
100
AcDbEntity
  8
RACCORDO
100
AcDbLine
 62
253
  6
CONTINUOUS
 10
78.4453676134
 20
62.4796514155
 11
78.4541943376
 21
62.4792618211
  0
LWPOLYLINE
  5
35A
100
AcDbEntity
  8
RACCORDO
100
AcDbPolyline
 62
253
  6
CONTINUOUS
 90
3
 70
0
 10
78.4893711179
 20
62.4843517781
 10
78.5100194202
 20
62.4852874318
 10
78.530444629
 20
62.4883691564
  0
LINE
  5
35B
100
AcDbEntity
  8
RACCORDO
100
AcDbLine
 62
253
  6
CONTINUOUS
 10
78.4305521578
 20
62.4790423578
 11
78.4386114683
 21
62.4785990527
  0
LINE
  5
35C
100
AcDbEntity
  8
0
100
AcDbLine
 62
7
  6
CONTINUOUS
 10
82.1602751451
 20
57.6985730532
 11
101.9111395367
 21
57.6985730532
  0
LINE
  5
35D
100
AcDbEntity
  8
0
100
AcDbLine
 62
7
  6
CONTINUOUS
 10
-82.1602751451
 20
57.6985730542
 11
-101.9111395367
 21
57.6985730542
  0
LINE
  5
35E
100
AcDbEntity
  8
0
100
AcDbLine
 62
253
  6
CONTINUOUS
 10
-82.161375335
 20
57.6997140846
 11
-78.8442179733
 21
57.6996736781
  0
LINE
  5
35F
100
AcDbEntity
  8
0
100
AcDbLine
 62
253
  6
CONTINUOUS
 10
78.8442179733
 20
57.6996736781
 11
82.1612938277
 21
57.6996736781
  0
LINE
  5
360
100
AcDbEntity
  8
0
100
AcDbLine
 62
7
  6
CONTINUOUS
 10
-78.4993083722
 20
57.9988074192
 11
78.4993083704
 21
57.9988074192
  0
LINE
  5
361
100
AcDbEntity
  8
0
100
AcDbLine
 62
7
  6
CONTINUOUS
 10
-78.4993082815
 20
58.0445795661
 11
78.4993083704
 21
58.0445795661
  0
LINE
  5
362
100
AcDbEntity
  8
0
100
AcDbLine
 62
253
  6
CONTINUOUS
 10
-78.4993083704
 20
59.635206738
 11
78.4993083704
 21
59.635206738
  0
LWPOLYLINE
  5
363
100
AcDbEntity
  8
RACCORDO
100
AcDbPolyline
 62
7
  6
CONTINUOUS
 90
5
 70
0
 10
-78.4384208376
 20
62.478592004
 10
-78.4214206566
 20
62.4780546017
 10
-78.4031643017
 20
62.4776622156
 10
-78.3835777646
 20
62.4774407339
 10
-78.3815328337
 20
62.4774294947
  0
LINE
  5
364
100
AcDbEntity
  8
RACCORDO
100
AcDbLine
 62
253
  6
CONTINUOUS
 10
-78.4305521578
 20
62.4790423578
 11
-78.4384208376
 21
62.478592004
  0
LINE
  5
365
100
AcDbEntity
  8
RACCORDO
100
AcDbLine
 62
253
  6
CONTINUOUS
 10
-78.5100194202
 20
62.4852874318
 11
-78.4893711179
 21
62.4843517781
  0
LINE
  5
366
100
AcDbEntity
  8
RACCORDO
100
AcDbLine
 62
253
  6
CONTINUOUS
 10
-78.4453676134
 20
62.4796514155
 11
-78.4540779047
 21
62.4792561797
  0
LWPOLYLINE
  5
367
100
AcDbEntity
  8
RACCORDO
100
AcDbPolyline
 62
253
  6
CONTINUOUS
 90
5
 70
0
 10
-78.4589846455
 20
62.4804009278
 10
-78.4703034885
 20
62.481249827
 10
-78.478957554
 20
62.4821844238
 10
-78.4853134305
 20
62.4832184075
 10
-78.4893711179
 20
62.4843517781
  0
LINE
  5
368
100
AcDbEntity
  8
RACCORDO
100
AcDbLine
 62
7
  6
CONTINUOUS
 10
-78.5347479387
 20
62.4944700828
 11
-78.5000076154
 21
62.4917539981
  0
LWPOLYLINE
  5
369
100
AcDbEntity
  8
ASSI
100
AcDbPolyline
 62
7
  6
CONTINUOUS
 90
4
 70
0
 10
-53.7410194537
 20
62.4040193023
 10
-53.7353882071
 20
62.4035056969
 10
-53.7297249648
 20
62.4048114454
 10
-53.7238345685
 20
62.4080754685
  0
LINE
  5
36A
100
AcDbEntity
  8
ASSI
100
AcDbLine
 62
7
  6
CONTINUOUS
 10
-59.2590571833
 20
62.4047628024
 11
-59.2534263635
 21
62.4040193023
  0
LINE
  5
36B
100
AcDbEntity
  8
ASSI
100
AcDbLine
 62
7
  6
CONTINUOUS
 10
-14.0603054842
 20
62.4047628031
 11
-14.0546746671
 21
62.4040193037
  0
LWPOLYLINE
  5
36C
100
AcDbEntity
  8
ASSI
100
AcDbPolyline
 62
7
  6
CONTINUOUS
 90
3
 70
0
 10
-14.0718596318
 20
62.4080132244
 10
-14.0659662287
 20
62.4060685405
 10
-14.0603054842
 20
62.4047628031
  0
LINE
  5
36D
100
AcDbEntity
  8
0
100
AcDbLine
 62
7
  6
CONTINUOUS
 10
68.647803
 20
-62.049942
 11
68.647796
 21
-64.95008
  0
LINE
  5
36E
100
AcDbEntity
  8
0
100
AcDbLine
 62
7
  6
CONTINUOUS
 10
69.227825
 20
-62.049942
 11
69.227817
 21
-64.950073
  0
LINE
  5
36F
100
AcDbEntity
  8
0
100
AcDbLine
 62
7
  6
CONTINUOUS
 10
102.9997888374
 20
39.1741058175
 11
102.8954782022
 21
39.0
  0
LWPOLYLINE
  5
370
100
AcDbEntity
  8
0
100
AcDbPolyline
 62
253
  6
CONTINUOUS
 90
13
 70
0
 10
-78.499372316
 20
59.6375473845
 10
-78.7630984246
 20
59.6172380871
 10
-79.0172968142
 20
59.5632790038
 10
-79.2581033989
 20
59.478348944
 10
-79.4812901008
 20
59.3666911978
 10
-79.6854098688
 20
59.2305546327
 10
-79.8701692901
 20
59.0690079345
 10
-80.0314197718
 20
58.8842072069
 10
-80.167169042
 20
58.6802754945
 10
-80.2784891502
 20
58.4573665983
 10
-80.3631661432
 20
58.2168623236
 10
-80.4169499992
 20
57.9630358952
 10
-80.4371820769
 20
57.6997376237
  0
LWPOLYLINE
  5
371
100
AcDbEntity
  8
RACCORDO
100
AcDbPolyline
 62
253
  6
CONTINUOUS
 90
3
 70
0
 10
-78.6179566588
 20
62.8674909039
 10
-78.5896033931
 20
62.869191956
 10
-78.5264141696
 20
62.870210469
  0
LINE
  5
372
100
AcDbEntity
  8
RACCORDO
100
AcDbLine
 62
253
  6
CONTINUOUS
 10
-78.5264141696
 20
62.870210469
 11
-78.4919622912
 21
62.8714097921
  0
LWPOLYLINE
  5
373
100
AcDbEntity
  8
RACCORDO
100
AcDbPolyline
 62
253
  6
CONTINUOUS
 90
3
 70
0
 10
78.3980591533
 20
62.4782729852
 10
78.4149048673
 20
62.4785874442
 10
78.421615835
 20
62.4780597942
  0
LWPOLYLINE
  5
374
100
AcDbEntity
  8
RACCORDO
100
AcDbPolyline
 62
7
  6
CONTINUOUS
 90
15
 70
0
 10
78.3815327339
 20
62.4774294942
 10
78.3836962522
 20
62.4774414549
 10
78.4033246756
 20
62.4776648742
 10
78.421615835
 20
62.4780597942
 10
78.4386114683
 20
62.4785990527
 10
78.4541943376
 20
62.4792618211
 10
78.4684048024
 20
62.4800407406
 10
78.4819120426
 20
62.4809858881
 10
78.4952141082
 20
62.4821959509
 10
78.508431049
 20
62.4837988575
 10
78.5223732982
 20
62.4861027654
 10
78.5378800369
 20
62.489618054
 10
78.5547541742
 20
62.4947942317
 10
78.5722204685
 20
62.5018505699
 10
78.5904460101
 20
62.5113381252
  0
LINE
  5
375
100
AcDbEntity
  8
0
100
AcDbLine
 62
7
  6
CONTINUOUS
 10
78.4993083703
 20
61.3616731739
 11
-78.4993083703
 21
61.3616731739
  0
LINE
  5
376
100
AcDbEntity
  8
ASSI
100
AcDbLine
 62
7
  6
CONTINUOUS
 10
-59.2534263696
 20
62.4040193037
 11
-53.7410194476
 21
62.4040193037
  0
LINE
  5
377
100
AcDbEntity
  8
ASSI
100
AcDbLine
 62
7
  6
CONTINUOUS
 10
-14.0546746671
 20
62.4040193037
 11
-8.5422677451
 21
62.4040193037
  0
LINE
  5
378
100
AcDbEntity
  8
ASSI
100
AcDbLine
 62
7
  6
CONTINUOUS
 10
8.5422677451
 20
62.4040193037
 11
14.0546746671
 21
62.4040193037
  0
LINE
  5
379
100
AcDbEntity
  8
ASSI
100
AcDbLine
 62
7
  6
CONTINUOUS
 10
53.7410194476
 20
62.4040193037
 11
59.2534263696
 21
62.4040193037
  0
LINE
  5
37A
100
AcDbEntity
  8
ASSI
100
AcDbLine
 62
7
  6
CONTINUOUS
 10
78.75
 20
62.4079369549
 11
59.2706113695
 21
62.4079369549
  0
LINE
  5
37B
100
AcDbEntity
  8
ASSI
100
AcDbLine
 62
7
  6
CONTINUOUS
 10
53.7238344476
 20
62.4079369549
 11
14.071859667
 21
62.4079369549
  0
LINE
  5
37C
100
AcDbEntity
  8
ASSI
100
AcDbLine
 62
7
  6
CONTINUOUS
 10
8.5250827451
 20
62.4079369549
 11
-8.5250827451
 21
62.4079369549
  0
LINE
  5
37D
100
AcDbEntity
  8
ASSI
100
AcDbLine
 62
7
  6
CONTINUOUS
 10
-14.071859667
 20
62.4079369549
 11
-53.7238344476
 21
62.4079369549
  0
LINE
  5
37E
100
AcDbEntity
  8
ASSI
100
AcDbLine
 62
7
  6
CONTINUOUS
 10
-59.2706113695
 20
62.4079369549
 11
-78.75
 21
62.4079369549
  0
LINE
  5
37F
100
AcDbEntity
  8
ASSI
100
AcDbLine
 62
7
  6
CONTINUOUS
 10
-59.2877047969
 20
62.4508561931
 11
-58.0
 21
62.4508561931
  0
LINE
  5
380
100
AcDbEntity
  8
ASSI
100
AcDbLine
 62
7
  6
CONTINUOUS
 10
-55.0
 20
62.4508561931
 11
-53.7066848479
 21
62.4508561931
  0
LINE
  5
381
100
AcDbEntity
  8
ASSI
100
AcDbLine
 62
7
  6
CONTINUOUS
 10
-14.0889530944
 20
62.4508561931
 11
-12.8
 21
62.4508561931
  0
LINE
  5
382
100
AcDbEntity
  8
ASSI
100
AcDbLine
 62
7
  6
CONTINUOUS
 10
-9.8
 20
62.4508561931
 11
-8.5079331454
 21
62.4508561931
  0
LINE
  5
383
100
AcDbEntity
  8
ASSI
100
AcDbLine
 62
7
  6
CONTINUOUS
 10
8.5079893177
 20
62.4508561931
 11
9.8
 21
62.4508561931
  0
LINE
  5
384
100
AcDbEntity
  8
ASSI
100
AcDbLine
 62
7
  6
CONTINUOUS
 10
12.8
 20
62.4508561931
 11
14.0890092667
 21
62.4508561931
  0
LINE
  5
385
100
AcDbEntity
  8
ASSI
100
AcDbLine
 62
7
  6
CONTINUOUS
 10
53.7067410202
 20
62.4508561931
 11
55.0
 21
62.4508561931
  0
LINE
  5
386
100
AcDbEntity
  8
ASSI
100
AcDbLine
 62
7
  6
CONTINUOUS
 10
58.0
 20
62.4508561931
 11
59.2877609692
 21
62.4508561931
  0
LINE
  5
387
100
AcDbEntity
  8
RACCORDO
100
AcDbLine
 62
7
  6
CONTINUOUS
 10
78.3800150159
 20
62.477444994
 11
58.0
 21
62.477444994
  0
LINE
  5
388
100
AcDbEntity
  8
RACCORDO
100
AcDbLine
 62
7
  6
CONTINUOUS
 10
55.0
 20
62.477444994
 11
12.8
 21
62.477444994
  0
LINE
  5
389
100
AcDbEntity
  8
RACCORDO
100
AcDbLine
 62
7
  6
CONTINUOUS
 10
9.8
 20
62.477444994
 11
-9.8
 21
62.477444994
  0
LINE
  5
38A
100
AcDbEntity
  8
RACCORDO
100
AcDbLine
 62
7
  6
CONTINUOUS
 10
-12.8
 20
62.477444994
 11
-55.0
 21
62.477444994
  0
LINE
  5
38B
100
AcDbEntity
  8
RACCORDO
100
AcDbLine
 62
7
  6
CONTINUOUS
 10
-58.0
 20
62.477444994
 11
-78.3800150159
 21
62.477444994
  0
LINE
  5
38C
100
AcDbEntity
  8
RACCORDO
100
AcDbLine
 62
7
  6
CONTINUOUS
 10
-78.5010956209
 20
62.4917539981
 11
-58.0
 21
62.4917539981
  0
LINE
  5
38D
100
AcDbEntity
  8
DRAFT
100
AcDbLine
 62
7
  6
CONTINUOUS
 10
-58.0
 20
62.4917539981
 11
58.0
 21
62.4917539981
  0
LINE
  5
38E
100
AcDbEntity
  8
RACCORDO
100
AcDbLine
 62
7
  6
CONTINUOUS
 10
58.0
 20
62.4917539981
 11
78.5010956209
 21
62.4917539981
  0
LINE
  5
38F
100
AcDbEntity
  8
RACCORDO
100
AcDbLine
 62
253
  6
CONTINUOUS
 10
78.4919622912
 20
62.6563437658
 11
-78.4919622912
 21
62.6563437658
  0
LINE
  5
390
100
AcDbEntity
  8
RACCORDO
100
AcDbLine
 62
253
  6
CONTINUOUS
 10
78.4919621522
 20
62.8714097924
 11
-78.4919621414
 21
62.8714097924
  0
LINE
  5
391
100
AcDbEntity
  8
ASSI
100
AcDbLine
 62
7
  6
CONTINUOUS
 10
78.75
 20
62.3548003756
 11
-78.75
 21
62.3548003756
  0
LWPOLYLINE
  5
392
100
AcDbEntity
  8
RACCORDO
100
AcDbPolyline
 62
253
  6
CONTINUOUS
 90
3
 70
0
 10
78.5896033931
 20
62.869191956
 10
78.5264141696
 20
62.870210469
 10
78.4919622912
 20
62.8714097921
  0
LWPOLYLINE
  5
393
100
AcDbEntity
  8
RACCORDO
100
AcDbPolyline
 62
253
  6
CONTINUOUS
 90
3
 70
0
 10
-78.3980591533
 20
62.4782729852
 10
-78.4149048673
 20
62.4785874442
 10
-78.4214206566
 20
62.4780546017
  0
LWPOLYLINE
  5
394
100
AcDbEntity
  8
ASSI
100
AcDbPolyline
 62
7
  6
CONTINUOUS
 90
4
 70
0
 10
-8.5422677451
 20
62.4040193037
 10
-8.5366365012
 20
62.4035056977
 10
-8.5309732609
 20
62.4048114457
 10
-8.525082866
 20
62.4080754685
  0
LWPOLYLINE
  5
395
100
AcDbEntity
  8
ASSI
100
AcDbPolyline
 62
7
  6
CONTINUOUS
 90
4
 70
0
 10
14.0546746671
 20
62.4040193037
 10
14.0603053486
 20
62.4035056954
 10
14.0659682514
 20
62.4048114419
 10
14.0718595455
 20
62.4080761897
  0
LWPOLYLINE
  5
396
100
AcDbEntity
  8
ASSI
100
AcDbPolyline
 62
7
  6
CONTINUOUS
 90
4
 70
0
 10
59.2534263696
 20
62.4040193037
 10
59.2590570511
 20
62.4035056954
 10
59.2647199539
 20
62.4048114419
 10
59.270611248
 20
62.4080761897
  0
LINE
  5
397
100
AcDbEntity
  8
ASSI
100
AcDbLine
 62
7
  6
CONTINUOUS
 10
8.5366365374
 20
62.4047628048
 11
8.5422677451
 21
62.4040193037
  0
LINE
  5
398
100
AcDbEntity
  8
ASSI
100
AcDbLine
 62
7
  6
CONTINUOUS
 10
53.7353882399
 20
62.4047628048
 11
53.7410194476
 21
62.4040193037
  0
LWPOLYLINE
  5
399
100
AcDbEntity
  8
ASSI
100
AcDbPolyline
 62
7
  6
CONTINUOUS
 90
3
 70
0
 10
8.5250827803
 20
62.4080129603
 10
8.5309755584
 20
62.4060685432
 10
8.5366365374
 20
62.4047628048
  0
LINE
  5
39A
100
AcDbEntity
  8
0
100
AcDbLine
 62
7
  6
CONTINUOUS
 10
102.8954782022
 20
-39.0
 11
102.9997888374
 21
-39.1741058175
  0
LINE
  5
39B
100
AcDbEntity
  8
0
100
AcDbLine
 62
7
  6
CONTINUOUS
 10
69.807825
 20
-62.049942
 11
69.807825
 21
-64.950073
  0
LINE
  5
39C
100
AcDbEntity
  8
0
100
AcDbLine
 62
7
  6
CONTINUOUS
 10
70.387846
 20
-63.037631
 11
70.387846
 21
-64.950073
  0
LINE
  5
39D
100
AcDbEntity
  8
0
100
AcDbLine
 62
7
  6
CONTINUOUS
 10
72.064605
 20
-63.037631
 11
72.064612
 21
-64.950073
  0
LINE
  5
39E
100
AcDbEntity
  8
0
100
AcDbLine
 62
7
  6
CONTINUOUS
 10
72.644634
 20
-62.049942
 11
72.644634
 21
-64.950073
  0
LINE
  5
39F
100
AcDbEntity
  8
0
100
AcDbLine
 62
7
  6
CONTINUOUS
 10
75.860306
 20
-62.049935
 11
75.860306
 21
-64.950065
  0
LINE
  5
3A0
100
AcDbEntity
  8
0
100
AcDbLine
 62
7
  6
CONTINUOUS
 10
76.432331
 20
-62.586456
 11
76.432338
 21
-63.292186
  0
LINE
  5
3A1
100
AcDbEntity
  8
0
100
AcDbLine
 62
7
  6
CONTINUOUS
 10
76.4404
 20
-63.828708
 11
76.440335
 21
-64.950065
  0
LWPOLYLINE
  5
3A2
100
AcDbEntity
  8
RACCORDO
100
AcDbPolyline
 62
7
  6
CONTINUOUS
 90
6
 70
0
 10
78.7
 20
62.6888376268
 10
78.6969757045
 20
62.6543383539
 10
78.6879641024
 20
62.6209487978
 10
78.6732387406
 20
62.5896760211
 10
78.6532461907
 20
62.5614648347
 10
78.6285938172
 20
62.5371710135
  0
LWPOLYLINE
  5
3A3
100
AcDbEntity
  8
RACCORDO
100
AcDbPolyline
 62
253
  6
CONTINUOUS
 90
10
 70
0
 10
78.6919546758
 20
62.8534273945
 10
78.6888541024
 20
62.8189203152
 10
78.6796536694
 20
62.7854727909
 10
78.6646382532
 20
62.754121094
 10
78.6441984871
 20
62.7257504985
 10
78.6190112228
 20
62.7013518644
 10
78.5901619158
 20
62.6818527445
 10
78.5587421576
 20
62.6677425457
 10
78.5256723537
 20
62.6592119211
 10
78.4919622912
 20
62.6563437658
  0
LWPOLYLINE
  5
3A4
100
AcDbEntity
  8
0
100
AcDbPolyline
 62
7
  6
CONTINUOUS
 90
13
 70
0
 10
78.7984421116
 20
13.2999234783
 10
78.7947125018
 20
13.2652270768
 10
78.7866165072
 20
13.2313772878
 10
78.7741541279
 20
13.1983741112
 10
78.7569993613
 20
13.1657699922
 10
78.7354782099
 20
13.1340124857
 10
78.710568681
 20
13.1044442563
 10
78.6822213995
 20
13.076681504
 10
78.6504857406
 20
13.0511080288
 10
78.6164878365
 20
13.0302178963
 10
78.5806030646
 20
13.0148424616
 10
78.5424560475
 20
13.0041503694
 10
78.5020467852
 20
12.9981416199
  0
LWPOLYLINE
  5
3A5
100
AcDbEntity
  8
0
100
AcDbPolyline
 62
7
  6
CONTINUOUS
 90
10
 70
0
 10
-79.034576729
 20
61.3223109818
 10
-78.9754903052
 20
61.3305532287
 10
-78.9161694757
 20
61.3378437018
 10
-78.8566974535
 20
61.3441721508
 10
-78.7972253485
 20
61.3495188984
 10
-78.7377660035
 20
61.3538837095
 10
-78.6781902049
 20
61.3572862274
 10
-78.6185039219
 20
61.3597271614
 10
-78.558852115
 20
61.3611878189
 10
-78.4993099131
 20
61.3616592927
  0
LWPOLYLINE
  5
3A6
100
AcDbEntity
  8
RACCORDO
100
AcDbPolyline
 62
7
  6
CONTINUOUS
 90
6
 70
0
 10
-78.4919622912
 20
70.8223889643
 10
-78.527629969
 20
70.8191810837
 10
-78.5612316861
 20
70.8100091141
 10
-78.5922618786
 20
70.7954207324
 10
-78.6201679616
 20
70.7758923451
 10
-78.6444647434
 20
70.7517835154
  0
LWPOLYLINE
  5
3A7
100
AcDbEntity
  8
RACCORDO
100
AcDbPolyline
 62
253
  6
CONTINUOUS
 90
3
 70
0
 10
-78.5590129581
 20
70.6696710603
 10
-78.5264141759
 20
70.6720303815
 10
-78.4919622912
 20
70.6718697872
  0
LINE
  5
3A8
100
AcDbEntity
  8
ASSI
100
AcDbLine
 62
253
  6
CONTINUOUS
 10
-78.7499999984
 20
68.8416594239
 11
-84.5789803834
 21
68.7210972417
  0
LWPOLYLINE
  5
3A9
100
AcDbEntity
  8
0
100
AcDbPolyline
 62
253
  6
CONTINUOUS
 90
10
 70
0
 10
-101.898963415
 20
72.7497372541
 10
-102.0372659053
 20
72.7469642717
 10
-102.1620776835
 20
72.7430169931
 10
-102.2754698902
 20
72.7379961011
 10
-102.3799573693
 20
72.731742003
 10
-102.4722773896
 20
72.7243458347
 10
-102.5463649618
 20
72.7163173266
 10
-102.601487319
 20
72.7078938884
 10
-102.6392463892
 20
72.698870678
 10
-102.6576733701
 20
72.6891300959
  0
LINE
  5
3AA
100
AcDbEntity
  8
0
100
AcDbLine
 62
253
  6
CONTINUOUS
 10
-91.5944008531
 20
74.9764499508
 11
-90.0986963404
 21
74.9891951707
  0
LWPOLYLINE
  5
3AB
100
AcDbEntity
  8
0
100
AcDbPolyline
 62
253
  6
CONTINUOUS
 90
7
 70
0
 10
-99.735969964
 20
74.9547083581
 10
-99.1105372637
 20
74.9559679269
 10
-98.4800706559
 20
74.9648431874
 10
-97.8473855998
 20
74.9762790933
 10
-97.2109761007
 20
74.9816353706
 10
-96.577499564
 20
74.9803296316
 10
-95.3850998968
 20
74.9807624225
  0
LINE
  5
3AC
100
AcDbEntity
  8
0
100
AcDbLine
 62
253
  6
CONTINUOUS
 10
99.6979116601
 20
75.6597648514
 11
96.3955961246
 21
75.6550714199
  0
LINE
  5
3AD
100
AcDbEntity
  8
0
100
AcDbLine
 62
253
  6
CONTINUOUS
 10
96.3955961246
 20
75.6550714199
 11
94.1568555849
 21
75.6538356381
  0
LINE
  5
3AE
100
AcDbEntity
  8
0
100
AcDbLine
 62
7
  6
CONTINUOUS
 10
72.5291865531
 20
74.9887880906
 11
78.4993069352
 21
74.9904626694
  0
LINE
  5
3AF
100
AcDbEntity
  8
0
100
AcDbLine
 62
253
  6
CONTINUOUS
 10
94.1568555849
 20
75.6538356381
 11
90.7490973442
 21
75.6528389789
  0
LINE
  5
3B0
100
AcDbEntity
  8
0
100
AcDbLine
 62
253
  6
CONTINUOUS
 10
101.8997530667
 20
69.8654710919
 11
102.656188263
 21
69.8655091915
  0
LINE
  5
3B1
100
AcDbEntity
  8
ASSI
100
AcDbLine
 62
7
  6
CONTINUOUS
 10
-78.75
 20
70.5383319784
 11
-78.6919547885
 21
70.5383319784
  0
LINE
  5
3B2
100
AcDbEntity
  8
ASSI
100
AcDbLine
 62
7
  6
CONTINUOUS
 10
78.69174008
 20
70.5383319784
 11
78.75
 21
70.5383319784
  0
LINE
  5
3B3
100
AcDbEntity
  8
RACCORDO
100
AcDbLine
 62
253
  6
CONTINUOUS
 10
78.4919621534
 20
70.671869787
 11
-78.491962164
 21
70.671869787
  0
LINE
  5
3B4
100
AcDbEntity
  8
RACCORDO
100
AcDbLine
 62
7
  6
CONTINUOUS
 10
78.4919622912
 20
70.8223889643
 11
-78.4919622912
 21
70.8223889643
  0
LINE
  5
3B5
100
AcDbEntity
  8
ASSI
100
AcDbLine
 62
7
  6
CONTINUOUS
 10
-78.75
 20
71.1233414656
 11
78.4993087827
 21
71.1233968902
  0
LINE
  5
3B6
100
AcDbEntity
  8
0
100
AcDbLine
 62
7
  6
CONTINUOUS
 10
-78.4993145163
 20
74.9888414946
 11
72.5291865531
 21
74.9887880906
  0
LINE
  5
3B7
100
AcDbEntity
  8
0
100
AcDbLine
 62
7
  6
CONTINUOUS
 10
100.0353625741
 20
75.9999711318
 11
-100.0353625741
 21
75.9999711318
  0
LINE
  5
3B8
100
AcDbEntity
  8
0
100
AcDbLine
 62
253
  6
CONTINUOUS
 10
-101.8997530667
 20
69.8654710919
 11
-102.656188263
 21
69.8655091915
  0
LINE
  5
3B9
100
AcDbEntity
  8
ASSI
100
AcDbLine
 62
7
  6
CONTINUOUS
 10
78.4993087827
 20
71.1233968902
 11
78.75
 21
71.1233414656
  0
LINE
  5
3BA
100
AcDbEntity
  8
0
100
AcDbLine
 62
253
  6
CONTINUOUS
 10
-78.4993145163
 20
74.9888414946
 11
-90.0986963404
 21
74.9891951707
  0
LWPOLYLINE
  5
3BB
100
AcDbEntity
  8
0
100
AcDbPolyline
 62
253
  6
CONTINUOUS
 90
4
 70
0
 10
97.2109761007
 20
74.9816353706
 10
95.9629426434
 20
74.9803975924
 10
95.3850998968
 20
74.9807624225
 10
94.8338851911
 20
74.9776961436
  0
LINE
  5
3BC
100
AcDbEntity
  8
0
100
AcDbLine
 62
253
  6
CONTINUOUS
 10
-92.6014787655
 20
74.9756654107
 11
-91.5944008531
 21
74.9764499508
  0
LINE
  5
3BD
100
AcDbEntity
  8
0
100
AcDbLine
 62
253
  6
CONTINUOUS
 10
90.7490973442
 20
75.6528389789
 11
-95.2847048904
 21
75.6542843894
  0
LINE
  5
3BE
100
AcDbEntity
  8
0
100
AcDbLine
 62
253
  6
CONTINUOUS
 10
90.0986963404
 20
74.9891951707
 11
78.4993069352
 21
74.9904626694
  0
LWPOLYLINE
  5
3BF
100
AcDbEntity
  8
0
100
AcDbPolyline
 62
253
  6
CONTINUOUS
 90
3
 70
0
 10
-95.2847048904
 20
75.6542843894
 10
-98.6060240894
 20
75.6578578754
 10
-99.6979116602
 20
75.6597648514
  0
LINE
  5
3C0
100
AcDbEntity
  8
0
100
AcDbLine
 62
253
  6
CONTINUOUS
 10
92.0865665644
 20
74.9755127676
 11
91.5944008531
 21
74.9764499508
  0
LINE
  5
3C1
100
AcDbEntity
  8
0
100
AcDbLine
 62
253
  6
CONTINUOUS
 10
94.8338851911
 20
74.9776961436
 11
92.0865665644
 21
74.9755127676
  0
LWPOLYLINE
  5
3C2
100
AcDbEntity
  8
0
100
AcDbPolyline
 62
253
  6
CONTINUOUS
 90
5
 70
0
 10
99.735969964
 20
74.9547083581
 10
99.1105372637
 20
74.9559679269
 10
98.4800706559
 20
74.9648431874
 10
97.8473855998
 20
74.9762790933
 10
97.2109761007
 20
74.9816353706
  0
LINE
  5
3C3
100
AcDbEntity
  8
0
100
AcDbLine
 62
253
  6
CONTINUOUS
 10
-93.7160931825
 20
74.9783344201
 11
-92.6014787655
 21
74.9756654107
  0
LWPOLYLINE
  5
3C4
100
AcDbEntity
  8
0
100
AcDbPolyline
 62
253
  6
CONTINUOUS
 90
3
 70
0
 10
-95.3850998968
 20
74.9807624225
 10
-94.8338851911
 20
74.9776961436
 10
-93.7160931825
 20
74.9783344201
  0
LINE
  5
3C5
100
AcDbEntity
  8
0
100
AcDbLine
 62
253
  6
CONTINUOUS
 10
91.5944008531
 20
74.9764499508
 11
90.0986963404
 21
74.9891951707
  0
LWPOLYLINE
  5
3C6
100
AcDbEntity
  8
0
100
AcDbPolyline
 62
253
  6
CONTINUOUS
 90
10
 70
0
 10
101.898963415
 20
72.7497372541
 10
102.0372659053
 20
72.7469642717
 10
102.1620776835
 20
72.7430169931
 10
102.2754698902
 20
72.7379961011
 10
102.3799573693
 20
72.731742003
 10
102.4722773896
 20
72.7243458347
 10
102.5463649618
 20
72.7163173266
 10
102.601487319
 20
72.7078938884
 10
102.6392463892
 20
72.698870678
 10
102.6576733701
 20
72.6891300959
  0
LINE
  5
3C7
100
AcDbEntity
  8
ASSI
100
AcDbLine
 62
253
  6
CONTINUOUS
 10
84.5789803723
 20
68.7210973291
 11
78.7499999992
 21
68.8416594829
  0
LWPOLYLINE
  5
3C8
100
AcDbEntity
  8
RACCORDO
100
AcDbPolyline
 62
253
  6
CONTINUOUS
 90
3
 70
0
 10
78.5600028396
 20
70.6688453939
 10
78.5265015127
 20
70.6710890463
 10
78.4919622912
 20
70.6718697872
  0
LWPOLYLINE
  5
3C9
100
AcDbEntity
  8
RACCORDO
100
AcDbPolyline
 62
253
  6
CONTINUOUS
 90
3
 70
0
 10
78.6640252162
 20
62.8626039124
 10
78.6179566588
 20
62.867490904
 10
78.5896033931
 20
62.869191956
  0
LWPOLYLINE
  5
3CA
100
AcDbEntity
  8
0
100
AcDbPolyline
 62
7
  6
CONTINUOUS
 90
10
 70
0
 10
79.034576729
 20
61.3223109818
 10
78.9754954307
 20
61.3305526985
 10
78.9161784517
 20
61.3378427967
 10
78.8567089738
 20
61.3441710303
 10
78.7972380131
 20
61.3495177646
 10
78.7377784524
 20
61.3538827281
 10
78.6782012633
 20
61.3572854471
 10
78.6185124779
 20
61.3597265917
 10
78.5588569851
 20
61.3611875094
 10
78.4993099131
 20
61.3616592931
  0
LWPOLYLINE
  5
3CB
100
AcDbEntity
  8
0
100
AcDbPolyline
 62
7
  6
CONTINUOUS
 90
10
 70
0
 10
78.4992776978
 20
57.9988074192
 10
78.5485459671
 20
57.9908002558
 10
78.5948076
 20
57.9756224927
 10
78.6380625965
 20
57.95327413
 10
78.6796447011
 20
57.9226000462
 10
78.7182201692
 20
57.8847553627
 10
78.7497877676
 20
57.8432054436
 10
78.7730137519
 20
57.7991054103
 10
78.7892318666
 20
57.7513001414
 10
78.7984421116
 20
57.6997896368
  0
LWPOLYLINE
  5
3CC
100
AcDbEntity
  8
ASSI
100
AcDbPolyline
 62
7
  6
CONTINUOUS
 90
3
 70
0
 10
53.7238344828
 20
62.4080129603
 10
53.7297272609
 20
62.4060685432
 10
53.7353882399
 20
62.4047628048
  0
LWPOLYLINE
  5
3CD
100
AcDbEntity
  8
RACCORDO
100
AcDbPolyline
 62
7
  6
CONTINUOUS
 90
9
 70
0
 10
78.7
 20
-0.5499923846
 10
78.6969757045
 20
-0.5152520613
 10
78.6879641024
 20
-0.4815694718
 10
78.6732387406
 20
-0.4499676699
 10
78.6532461907
 20
-0.4214061828
 10
78.6285938172
 20
-0.3967538093
 10
78.6000323301
 20
-0.3767612594
 10
78.5684305282
 20
-0.3620358976
 10
78.5347479387
 20
-0.3530242955
  0
LWPOLYLINE
  5
3CE
100
AcDbEntity
  8
RACCORDO
100
AcDbPolyline
 62
7
  6
CONTINUOUS
 90
7
 70
0
 10
78.6919546758
 20
-0.5580377088
 10
78.6890852074
 20
-0.5242960909
 10
78.6804530563
 20
-0.491207575
 10
78.6661467835
 20
-0.4597823787
 10
78.6463666427
 20
-0.4309422278
 10
78.6216119033
 20
-0.40577174
 10
78.5928176498
 20
-0.3853457928
  0
LWPOLYLINE
  5
3CF
100
AcDbEntity
  8
0
100
AcDbPolyline
 62
253
  6
CONTINUOUS
 90
13
 70
0
 10
80.4371820714
 20
57.6997376301
 10
80.4167651226
 20
57.9643354682
 10
80.3625401462
 20
58.2190703695
 10
80.2773161888
 20
58.4600725845
 10
80.1654914312
 20
58.6830744466
 10
80.0294038917
 20
58.8867568519
 10
79.8680619696
 20
59.071071714
 10
79.6836690628
 20
59.2318938624
 10
79.4803067389
 20
59.3673024425
 10
79.2577852627
 20
59.4785369132
 10
79.0173105125
 20
59.5633230382
 10
78.7632250142
 20
59.6172509817
 10
78.4993723225
 20
59.637547379
  0
LWPOLYLINE
  5
3D0
100
AcDbEntity
  8
0
100
AcDbPolyline
 62
253
  6
CONTINUOUS
 90
10
 70
0
 10
80.43725428
 20
-13.2999277187
 10
80.4186546675
 20
-13.0332783826
 10
80.3659059749
 20
-12.7813926948
 10
80.2813117218
 20
-12.5421352055
 10
80.1627990459
 20
-12.3112688805
 10
80.0111506386
 20
-12.0948195157
 10
79.8347290156
 20
-11.9039086661
 10
79.6378190057
 20
-11.7404719247
 10
79.416547097
 20
-11.6017811266
 10
79.1683586469
 20
-11.4902504346
  0
LINE
  5
3D1
100
AcDbEntity
  8
RACCORDO
100
AcDbLine
 62
7
  6
CONTINUOUS
 10
78.7
 20
70.4739524021
 11
78.6919548057
 21
70.6226831477
  0
LINE
  5
3D2
100
AcDbEntity
  8
RACCORDO
100
AcDbLine
 62
253
  6
CONTINUOUS
 10
78.4919622912
 20
62.6563437658
 11
78.5000076154
 21
62.4917539981
  0
LINE
  5
3D3
100
AcDbEntity
  8
RACCORDO
100
AcDbLine
 62
253
  6
CONTINUOUS
 10
78.6919547951
 20
62.8534249535
 11
78.7
 21
62.6888376268
  0
LINE
  5
3D4
100
AcDbEntity
  8
RACCORDO
100
AcDbLine
 62
253
  6
CONTINUOUS
 10
78.6919546758
 20
70.6226855491
 11
78.69174008
 21
70.6318114859
  0
LINE
  5
3D5
100
AcDbEntity
  8
RACCORDO
100
AcDbLine
 62
253
  6
CONTINUOUS
 10
78.3800150159
 20
62.477444994
 11
78.3800150159
 21
62.478098981
  0
LINE
  5
3D6
100
AcDbEntity
  8
RACCORDO
100
AcDbLine
 62
253
  6
CONTINUOUS
 10
78.4919622912
 20
62.6563437658
 11
78.4906155546
 21
67.2317700467
  0
LINE
  5
3D7
100
AcDbEntity
  8
ASSI
100
AcDbLine
 62
253
  6
CONTINUOUS
 10
78.4993089858
 20
61.9167724737
 11
78.4993111077
 21
62.3543671878
  0
LINE
  5
3D8
100
AcDbEntity
  8
0
100
AcDbLine
 62
253
  6
CONTINUOUS
 10
78.4993083704
 20
59.635206738
 11
78.4993083704
 21
58.0446348209
  0
LINE
  5
3D9
100
AcDbEntity
  8
0
100
AcDbLine
 62
253
  6
CONTINUOUS
 10
78.4993083704
 20
-58.0446348209
 11
78.4993083704
 21
-59.635206738
  0
LINE
  5
3DA
100
AcDbEntity
  8
ASSI
100
AcDbLine
 62
253
  6
CONTINUOUS
 10
78.4993087827
 20
71.1234535394
 11
78.4993083704
 21
74.9868711879
  0
LINE
  5
3DB
100
AcDbEntity
  8
0
100
AcDbLine
 62
253
  6
CONTINUOUS
 10
78.4993083704
 20
-59.6375753926
 11
78.4993083704
 21
-74.9868711879
  0
LINE
  5
3DC
100
AcDbEntity
  8
0
100
AcDbLine
 62
253
  6
CONTINUOUS
 10
78.5019614828
 20
11.3709804442
 11
78.5019614828
 21
9.5999217089
  0
LINE
  5
3DD
100
AcDbEntity
  8
0
100
AcDbLine
 62
253
  6
CONTINUOUS
 10
78.5019614828
 20
-9.5999217089
 11
78.5019614828
 21
-11.3709804442
  0
LINE
  5
3DE
100
AcDbEntity
  8
0
100
AcDbLine
 62
253
  6
CONTINUOUS
 10
78.5019614828
 20
-11.3733142503
 11
78.5019614828
 21
-12.9523240867
  0
LINE
  5
3DF
100
AcDbEntity
  8
0
100
AcDbLine
 62
253
  6
CONTINUOUS
 10
78.5019614828
 20
11.3733142502
 11
78.5019614828
 21
12.9523240866
  0
LINE
  5
3E0
100
AcDbEntity
  8
0
100
AcDbLine
 62
253
  6
CONTINUOUS
 10
78.4993209992
 20
59.6376141239
 11
78.4993089858
 21
61.9167724737
  0
LINE
  5
3E1
100
AcDbEntity
  8
RACCORDO
100
AcDbLine
 62
7
  6
CONTINUOUS
 10
78.7
 20
-8.4510956209
 11
78.7
 21
-0.5489043791
  0
LINE
  5
3E2
100
AcDbEntity
  8
RACCORDO
100
AcDbLine
 62
7
  6
CONTINUOUS
 10
78.7
 20
62.6877654456
 11
78.7
 21
70.4750245833
  0
LINE
  5
3E3
100
AcDbEntity
  8
ASSI
100
AcDbLine
 62
7
  6
CONTINUOUS
 10
78.75
 20
71.1233414656
 11
78.75
 21
62.3548003756
  0
LINE
  5
3E4
100
AcDbEntity
  8
0
100
AcDbLine
 62
7
  6
CONTINUOUS
 10
78.75
 20
-8.732303777
 11
78.75
 21
-0.2649696792
  0
LINE
  5
3E5
100
AcDbEntity
  8
0
100
AcDbLine
 62
7
  6
CONTINUOUS
 10
78.7984421116
 20
-13.2999284734
 11
78.7984421116
 21
-57.6996736781
  0
LINE
  5
3E6
100
AcDbEntity
  8
0
100
AcDbLine
 62
7
  6
CONTINUOUS
 10
78.7984421116
 20
13.2999284747
 11
78.7984421116
 21
57.6996736781
  0
LINE
  5
3E7
100
AcDbEntity
  8
0
100
AcDbLine
 62
253
  6
CONTINUOUS
 10
78.8442142585
 20
57.6996736781
 11
78.8442142585
 21
13.2999284063
  0
LINE
  5
3E8
100
AcDbEntity
  8
0
100
AcDbLine
 62
253
  6
CONTINUOUS
 10
78.8442142585
 20
-13.2999284734
 11
78.8442142585
 21
-57.6996736781
  0
LINE
  5
3E9
100
AcDbEntity
  8
0
100
AcDbLine
 62
7
  6
CONTINUOUS
 10
79.7831219328
 20
9.8298638273
 11
79.7831219328
 21
-9.8298638273
  0
LINE
  5
3EA
100
AcDbEntity
  8
0
100
AcDbLine
 62
253
  6
CONTINUOUS
 10
80.4370388124
 20
-13.2999277192
 11
80.4370388131
 21
-57.6996736781
  0
LINE
  5
3EB
100
AcDbEntity
  8
0
100
AcDbLine
 62
253
  6
CONTINUOUS
 10
80.4370388124
 20
13.2999277192
 11
80.4370388131
 21
57.6996736781
  0
LINE
  5
3EC
100
AcDbEntity
  8
0
100
AcDbLine
 62
253
  6
CONTINUOUS
 10
82.1602751451
 20
-57.6985730542
 11
82.1602147886
 21
-13.2988278529
  0
LINE
  5
3ED
100
AcDbEntity
  8
0
100
AcDbLine
 62
253
  6
CONTINUOUS
 10
82.1602751451
 20
57.6985730532
 11
82.1608105082
 21
13.2999284734
  0
LINE
  5
3EE
100
AcDbEntity
  8
RACCORDO
100
AcDbLine
 62
253
  6
CONTINUOUS
 10
78.4919622912
 20
70.8223889643
 11
78.4906155546
 21
67.2317700467
  0
LINE
  5
3EF
100
AcDbEntity
  8
RACCORDO
100
AcDbLine
 62
253
  6
CONTINUOUS
 10
78.4919622912
 20
-0.3580453242
 11
78.4919622912
 21
-8.6419546758
  0
LINE
  5
3F0
100
AcDbEntity
  8
RACCORDO
100
AcDbLine
 62
253
  6
CONTINUOUS
 10
78.6919548057
 20
70.6226831477
 11
78.6919547951
 21
62.8534249535
  0
LINE
  5
3F1
100
AcDbEntity
  8
RACCORDO
100
AcDbLine
 62
253
  6
CONTINUOUS
 10
78.6919548057
 20
-0.5580375789
 11
78.6919547951
 21
-8.4419624105
  0
LWPOLYLINE
  5
3F2
100
AcDbEntity
  8
0
100
AcDbPolyline
 62
253
  6
CONTINUOUS
 90
10
 70
0
 10
80.43725428
 20
13.2999277187
 10
80.4186546675
 20
13.0332783826
 10
80.3659059749
 20
12.7813926948
 10
80.2813117218
 20
12.5421352055
 10
80.1627990459
 20
12.3112688805
 10
80.0111506386
 20
12.0948195157
 10
79.8347290156
 20
11.9039086661
 10
79.6378190057
 20
11.7404719247
 10
79.416547097
 20
11.6017811266
 10
79.1683586469
 20
11.4902504346
  0
LWPOLYLINE
  5
3F3
100
AcDbEntity
  8
0
100
AcDbPolyline
 62
253
  6
CONTINUOUS
 90
10
 70
0
 10
82.1608105082
 20
13.2999284734
 10
82.125518415
 20
12.7934975087
 10
82.0283099089
 20
12.3106639937
 10
81.8691800363
 20
11.8514279285
 10
81.6418462396
 20
11.4069640031
 10
81.3525743991
 20
10.9860975276
 10
81.0201842339
 20
10.615304431
 10
80.6509491655
 20
10.3034100233
 10
80.238593625
 20
10.0415889947
 10
79.7831219492
 20
9.8298413451
  0
LWPOLYLINE
  5
3F4
100
AcDbEntity
  8
0
100
AcDbPolyline
 62
253
  6
CONTINUOUS
 90
13
 70
0
 10
80.4371820771
 20
-57.6997376237
 10
80.4168022653
 20
-57.9643156929
 10
80.3626074033
 20
-58.2190409761
 10
80.2774046266
 20
-58.4600395389
 10
80.1655962643
 20
-58.6830243287
 10
80.0295198829
 20
-58.8866887646
 10
79.8681598769
 20
-59.0710222722
 10
79.6836621226
 20
-59.231923085
 10
79.4801358646
 20
-59.3674060004
 10
79.2575077684
 20
-59.478646446
 10
79.0170409644
 20
-59.563386555
 10
78.7630481346
 20
-59.6172669692
 10
78.499372316
 20
-59.6375473847
  0
LWPOLYLINE
  5
3F5
100
AcDbEntity
  8
RACCORDO
100
AcDbPolyline
 62
7
  6
CONTINUOUS
 90
9
 70
0
 10
78.7
 20
-8.4500076154
 10
78.6969757045
 20
-8.4847479387
 10
78.6879641024
 20
-8.5184305282
 10
78.6732387406
 20
-8.5500323301
 10
78.6532461907
 20
-8.5785938172
 10
78.6285938172
 20
-8.6032461907
 10
78.6000323301
 20
-8.6232387406
 10
78.5684305282
 20
-8.6379641024
 10
78.5347479387
 20
-8.6469757045
  0
LWPOLYLINE
  5
3F6
100
AcDbEntity
  8
RACCORDO
100
AcDbPolyline
 62
7
  6
CONTINUOUS
 90
6
 70
0
 10
78.6919546758
 20
-8.4419622912
 10
78.6888541024
 20
-8.4770267616
 10
78.6796536694
 20
-8.5110052254
 10
78.6646382532
 20
-8.5428449601
 10
78.6441984871
 20
-8.571646861
 10
78.6190112228
 20
-8.5964049485
  0
LINE
  5
3F7
100
AcDbEntity
  8
0
100
AcDbLine
 62
7
  6
CONTINUOUS
 10
71.767797
 20
-62.049942
 11
71.226229
 21
-63.938611
  0
LINE
  5
3F8
100
AcDbEntity
  8
0
100
AcDbLine
 62
7
  6
CONTINUOUS
 10
67.681095
 20
-62.049942
 11
67.03997
 21
-64.046839
  0
LINE
  5
3F9
100
AcDbEntity
  8
0
100
AcDbLine
 62
7
  6
CONTINUOUS
 10
68.261124
 20
-62.049942
 11
67.329985
 21
-64.950073
  0
LINE
  5
3FA
100
AcDbEntity
  8
0
100
AcDbLine
 62
253
  6
CONTINUOUS
 10
79.7830254349
 20
-9.8301244552
 11
79.1683580567
 21
-11.4902601783
  0
LWPOLYLINE
  5
3FB
100
AcDbEntity
  8
0
100
AcDbPolyline
 62
253
  6
CONTINUOUS
 90
10
 70
0
 10
79.4506077842
 20
-61.2358916203
 10
79.7245271697
 20
-61.138485962
 10
79.9801578931
 20
-61.0407245855
 10
80.2234198613
 20
-60.9305606807
 10
80.454241479
 20
-60.8011617348
 10
80.6731798171
 20
-60.6505980752
 10
80.8837089239
 20
-60.4798652166
 10
81.0859220484
 20
-60.290559662
 10
81.2760682192
 20
-60.0849037146
 10
81.4519405669
 20
-59.8657579648
  0
LWPOLYLINE
  5
3FC
100
AcDbEntity
  8
0
100
AcDbPolyline
 62
7
  6
CONTINUOUS
 90
10
 70
0
 10
-79.4507954942
 20
61.2360040165
 10
-79.4054284922
 20
61.2478927644
 10
-79.359744505
 20
61.2592219026
 10
-79.3137966263
 20
61.2699842626
 10
-79.2676674737
 20
61.2801718381
 10
-79.2213780471
 20
61.2897788815
 10
-79.1748860965
 20
61.2988020974
 10
-79.1282085859
 20
61.3072363871
 10
-79.0814233347
 20
61.3150746424
 10
-79.034576729
 20
61.3223109818
  0
LWPOLYLINE
  5
3FD
100
AcDbEntity
  8
0
100
AcDbPolyline
 62
253
  6
CONTINUOUS
 90
13
 70
0
 10
-99.6979116617
 20
75.6596981615
 10
-100.0807493206
 20
75.6344160935
 10
-100.4582229571
 20
75.5591596388
 10
-100.8245699462
 20
75.4352605677
 10
-101.174135303
 20
75.2639890097
 10
-101.4997935123
 20
75.0478116961
 10
-101.7936582935
 20
74.7904004103
 10
-102.0498432112
 20
74.4951655323
 10
-102.2647586068
 20
74.1679668911
 10
-102.4349316253
 20
73.8170796601
 10
-102.5582274286
 20
73.4497570756
 10
-102.6330941777
 20
73.0717277054
 10
-102.6577237062
 20
72.6891558637
  0
LWPOLYLINE
  5
3FE
100
AcDbEntity
  8
0
100
AcDbPolyline
 62
7
  6
CONTINUOUS
 90
16
 70
0
 10
100.0353625741
 20
75.9999711318
 10
100.3449427104
 20
75.9829133832
 10
100.646420208
 20
75.9352632692
 10
100.9397950669
 20
75.8570207898
 10
101.2285820019
 20
75.7470417532
 10
101.5092662983
 20
75.6064703511
 10
101.7713038117
 20
75.438739159
 10
102.0139523073
 20
75.2423325865
 10
102.23795402
 20
75.018766224
 10
102.4349915095
 20
74.776019417
 10
102.6035717049
 20
74.5129954116
 10
102.7451876771
 20
74.2307909618
 10
102.8560011992
 20
73.9406756744
 10
102.9347328621
 20
73.6464060852
 10
102.9826620749
 20
73.3442256584
 10
102.9997888374
 20
73.034134394
  0
LWPOLYLINE
  5
3FF
100
AcDbEntity
  8
0
100
AcDbPolyline
 62
253
  6
CONTINUOUS
 90
13
 70
0
 10
99.6979116617
 20
75.6596981615
 10
100.0807493206
 20
75.6344160935
 10
100.4582229571
 20
75.5591596388
 10
100.8245699462
 20
75.4352605677
 10
101.174135303
 20
75.2639890097
 10
101.4997935123
 20
75.0478116961
 10
101.7936582935
 20
74.7904004103
 10
102.0498432112
 20
74.4951655323
 10
102.2647586068
 20
74.1679668911
 10
102.4349316253
 20
73.8170796601
 10
102.5582274286
 20
73.4497570756
 10
102.6330941777
 20
73.0717277054
 10
102.6577237062
 20
72.6891558637
  0
LWPOLYLINE
  5
400
100
AcDbEntity
  8
0
100
AcDbPolyline
 62
7
  6
CONTINUOUS
 90
10
 70
0
 10
79.4507954808
 20
61.2360040065
 10
79.4054373883
 20
61.2478908872
 10
79.3597602629
 20
61.2592186368
 10
79.3138171149
 20
61.2699800975
 10
79.2676904931
 20
61.2801673174
 10
79.2214013132
 20
61.2897745136
 10
79.1749072367
 20
61.2987982652
 10
79.1282251678
 20
61.3072334353
 10
79.0814328847
 20
61.3150729662
 10
79.034576729
 20
61.3223109818
  0
LWPOLYLINE
  5
401
100
AcDbEntity
  8
0
100
AcDbPolyline
 62
253
  6
CONTINUOUS
 90
10
 70
0
 10
79.4506077842
 20
61.2358916203
 10
79.7245271697
 20
61.138485962
 10
79.9801578931
 20
61.0407245855
 10
80.2234198613
 20
60.9305606807
 10
80.454241479
 20
60.8011617348
 10
80.6731798171
 20
60.6505980752
 10
80.8837089239
 20
60.4798652166
 10
81.0859220484
 20
60.290559662
 10
81.2760682192
 20
60.0849037146
 10
81.4519405669
 20
59.8657579648
  0
LINE
  5
402
100
AcDbEntity
  8
0
100
AcDbLine
 62
253
  6
CONTINUOUS
 10
79.7830254349
 20
9.8301244552
 11
79.1683580567
 21
11.4902601783
  0
LINE
  5
403
100
AcDbEntity
  8
0
100
AcDbLine
 62
253
  6
CONTINUOUS
 10
89.5999543417
 20
75.6526490899
 11
89.5999455116
 21
74.9897847376
  0
LINE
  5
404
100
AcDbEntity
  8
0
100
AcDbLine
 62
253
  6
CONTINUOUS
 10
89.5999543341
 20
-75.6527124555
 11
89.5999577977
 21
-74.9898481032
  0
LWPOLYLINE
  5
405
100
AcDbEntity
  8
0
100
AcDbPolyline
 62
7
  6
CONTINUOUS
 90
10
 70
0
 10
78.7984421116
 20
-57.699669594
 10
78.7909018448
 20
-57.7481952398
 10
78.7760041549
 20
-57.7940095692
 10
78.7537490419
 20
-57.837112582
 10
78.7228928176
 20
-57.8789852263
 10
78.6846791702
 20
-57.918146554
 10
78.6428391636
 20
-57.9501537216
 10
78.5986164859
 20
-57.973525781
 10
78.5507674491
 20
-57.9897436802
 10
78.4992920531
 20
-57.9988074192
  0
LINE
  5
406
100
AcDbEntity
  8
0
100
AcDbLine
 62
7
  6
CONTINUOUS
 10
72.064605
 20
-63.037631
 11
71.516229
 21
-64.950065
  0
LINE
  5
407
100
AcDbEntity
  8
0
100
AcDbLine
 62
7
  6
CONTINUOUS
 10
73.962437
 20
-62.049935
 11
73.031313
 21
-64.950073
  0
LINE
  5
408
100
AcDbEntity
  8
0
100
AcDbLine
 62
7
  6
CONTINUOUS
 10
74.252459
 20
-62.953176
 11
73.971369
 21
-63.828715
  0
LINE
  5
409
100
AcDbEntity
  8
0
100
AcDbLine
 62
7
  6
CONTINUOUS
 10
73.794448
 20
-64.379737
 11
73.611334
 21
-64.950065
  0
LINE
  5
40A
100
AcDbEntity
  8
RACCORDO
100
AcDbLine
 62
253
  6
CONTINUOUS
 10
78.3800150159
 20
62.478098981
 11
78.3816902614
 21
62.4774500411
  0
LWPOLYLINE
  5
40B
100
AcDbEntity
  8
RACCORDO
100
AcDbPolyline
 62
7
  6
CONTINUOUS
 90
6
 70
0
 10
78.69174008
 20
70.6318114859
 10
78.6882104814
 20
70.6609157553
 10
78.6795141524
 20
70.6918349571
 10
78.66604035
 20
70.7208614449
 10
78.6485161122
 20
70.7468503762
 10
78.6273206204
 20
70.7696238825
  0
LINE
  5
40C
100
AcDbEntity
  8
0
100
AcDbLine
 62
253
  6
CONTINUOUS
 10
93.0800528634
 20
57.6996737313
 11
92.8444949574
 21
63.0208783203
  0
LINE
  5
40D
100
AcDbEntity
  8
0
100
AcDbLine
 62
253
  6
CONTINUOUS
 10
101.8721340184
 20
-71.1063498573
 11
101.8993300949
 21
-72.7511739642
  0
LINE
  5
40E
100
AcDbEntity
  8
0
100
AcDbLine
 62
253
  6
CONTINUOUS
 10
101.8997530667
 20
69.8654710919
 11
101.9071735731
 21
57.6996747145
  0
LINE
  5
40F
100
AcDbEntity
  8
0
100
AcDbLine
 62
7
  6
CONTINUOUS
 10
101.9111395367
 20
-57.6985730542
 11
101.9071989208
 21
-0.0
  0
LINE
  5
410
100
AcDbEntity
  8
0
100
AcDbLine
 62
7
  6
CONTINUOUS
 10
101.9111980635
 20
13.2988278519
 11
101.9111395367
 21
57.6985730532
  0
LINE
  5
411
100
AcDbEntity
  8
0
100
AcDbLine
 62
7
  6
CONTINUOUS
 10
102.8954782022
 20
39.0
 11
102.8954782022
 21
32.0
  0
LINE
  5
412
100
AcDbEntity
  8
0
100
AcDbLine
 62
7
  6
CONTINUOUS
 10
102.8954782022
 20
-32.0
 11
102.8954782022
 21
-39.0
  0
LINE
  5
413
100
AcDbEntity
  8
0
100
AcDbLine
 62
7
  6
CONTINUOUS
 10
102.9997888374
 20
-73.034134394
 11
102.9997888374
 21
-39.1741058175
  0
LINE
  5
414
100
AcDbEntity
  8
0
100
AcDbLine
 62
7
  6
CONTINUOUS
 10
102.9997888374
 20
-31.8258941825
 11
102.9997888374
 21
31.8258941825
  0
LINE
  5
415
100
AcDbEntity
  8
0
100
AcDbLine
 62
7
  6
CONTINUOUS
 10
102.9997888374
 20
39.1741058175
 11
102.9997888374
 21
73.034134394
  0
LINE
  5
416
100
AcDbEntity
  8
0
100
AcDbLine
 62
7
  6
CONTINUOUS
 10
102.6568790924
 20
69.8670019087
 11
102.6568790924
 21
-69.8670019088
  0
LINE
  5
417
100
AcDbEntity
  8
0
100
AcDbLine
 62
7
  6
CONTINUOUS
 10
101.9071989208
 20
-0.0
 11
101.9111980635
 21
13.2988278519
  0
LINE
  5
418
100
AcDbEntity
  8
0
100
AcDbLine
 62
253
  6
CONTINUOUS
 10
102.6579240589
 20
70.8364538788
 11
102.6567245715
 21
72.0854311931
  0
LINE
  5
419
100
AcDbEntity
  8
0
100
AcDbLine
 62
253
  6
CONTINUOUS
 10
101.8997530667
 20
-69.8654710919
 11
101.907743558
 21
-57.6985516588
  0
LINE
  5
41A
100
AcDbEntity
  8
0
100
AcDbLine
 62
253
  6
CONTINUOUS
 10
102.6568790924
 20
-69.8670019088
 11
102.65809265
 21
-72.0852268514
  0
LINE
  5
41B
100
AcDbEntity
  8
0
100
AcDbLine
 62
253
  6
CONTINUOUS
 10
102.65809265
 20
-72.0852268514
 11
102.657741476
 21
-72.6891445459
  0
LINE
  5
41C
100
AcDbEntity
  8
0
100
AcDbLine
 62
253
  6
CONTINUOUS
 10
102.6568790924
 20
69.8670019087
 11
102.6579240589
 21
70.8364538788
  0
LINE
  5
41D
100
AcDbEntity
  8
0
100
AcDbLine
 62
253
  6
CONTINUOUS
 10
102.6567245715
 20
72.0854311931
 11
102.657741476
 21
72.6891445459
  0
LWPOLYLINE
  5
41E
100
AcDbEntity
  8
0
100
AcDbPolyline
 62
253
  6
CONTINUOUS
 90
10
 70
0
 10
99.73585499
 20
-74.9546570925
 10
99.7338130659
 20
-75.0878467825
 10
99.7310741702
 20
-75.2063477031
 10
99.7277260395
 20
-75.3126650443
 10
99.7237041765
 20
-75.409496579
 10
99.7190648844
 20
-75.4939105662
 10
99.7141080889
 20
-75.5608527696
 10
99.7089931886
 20
-75.610335191
 10
99.7036096986
 20
-75.64374249
 10
99.6979117432
 20
-75.6597647515
  0
LINE
  5
41F
100
AcDbEntity
  8
0
100
AcDbLine
 62
253
  6
CONTINUOUS
 10
101.8926669124
 20
72.4157196039
 11
101.8993300949
 21
72.7511739642
  0
LINE
  5
420
100
AcDbEntity
  8
0
100
AcDbLine
 62
253
  6
CONTINUOUS
 10
93.0800528634
 20
-57.6996737313
 11
92.8444949574
 21
-63.0208783203
  0
LWPOLYLINE
  5
421
100
AcDbEntity
  8
0
100
AcDbPolyline
 62
253
  6
CONTINUOUS
 90
10
 70
0
 10
81.5055314624
 20
-59.7918461813
 10
81.6371051782
 20
-59.5932563026
 10
81.7549471119
 20
-59.3805311018
 10
81.8588732563
 20
-59.1562972669
 10
81.9494069468
 20
-58.9234612124
 10
82.0256765394
 20
-58.6840483905
 10
82.0853937573
 20
-58.4395117472
 10
82.1276675547
 20
-58.1921355195
 10
82.1530261277
 20
-57.9447270953
 10
82.1612990038
 20
-57.6996718922
  0
LINE
  5
422
100
AcDbEntity
  8
0
100
AcDbLine
 62
253
  6
CONTINUOUS
 10
81.4938892595
 20
-59.8084981743
 11
81.5055314624
 21
-59.7918461813
  0
LINE
  5
423
100
AcDbEntity
  8
0
100
AcDbLine
 62
253
  6
CONTINUOUS
 10
81.4821783878
 20
-59.8250583179
 11
81.4938892595
 21
-59.8084981743
  0
LINE
  5
424
100
AcDbEntity
  8
0
100
AcDbLine
 62
253
  6
CONTINUOUS
 10
81.4703994589
 20
-59.8415251379
 11
81.4821783878
 21
-59.8250583179
  0
LWPOLYLINE
  5
425
100
AcDbEntity
  8
0
100
AcDbPolyline
 62
253
  6
CONTINUOUS
 90
3
 70
0
 10
81.4526073726
 20
-59.8660471851
 10
81.4585546118
 20
-59.8578971667
 10
81.4703994589
 20
-59.8415251379
  0
LINE
  5
426
100
AcDbEntity
  8
0
100
AcDbLine
 62
253
  6
CONTINUOUS
 10
81.4526073726
 20
59.8660471851
 11
81.4644860008
 21
59.8497221298
  0
LINE
  5
427
100
AcDbEntity
  8
0
100
AcDbLine
 62
253
  6
CONTINUOUS
 10
81.4644860008
 20
59.8497221298
 11
81.4762983498
 21
59.8333018903
  0
LINE
  5
428
100
AcDbEntity
  8
0
100
AcDbLine
 62
253
  6
CONTINUOUS
 10
81.4762983498
 20
59.8333018903
 11
81.4880437065
 21
59.8167880646
  0
LWPOLYLINE
  5
429
100
AcDbEntity
  8
RACCORDO
100
AcDbPolyline
 62
253
  6
CONTINUOUS
 90
4
 70
0
 10
78.6919546758
 20
62.8534273947
 10
78.6886384102
 20
62.8581235031
 10
78.6792669779
 20
62.8609220241
 10
78.6640252162
 20
62.8626039124
  0
LWPOLYLINE
  5
42A
100
AcDbEntity
  8
0
100
AcDbPolyline
 62
253
  6
CONTINUOUS
 90
3
 70
0
 10
81.4880437065
 20
59.8167880646
 10
81.4997195164
 20
59.800182734
 10
81.5055314624
 20
59.7918461813
  0
LWPOLYLINE
  5
42B
100
AcDbEntity
  8
0
100
AcDbPolyline
 62
253
  6
CONTINUOUS
 90
10
 70
0
 10
81.5055314624
 20
59.7918461813
 10
81.6371051782
 20
59.5932563026
 10
81.7549471119
 20
59.3805311018
 10
81.8588732563
 20
59.1562972669
 10
81.9494069468
 20
58.9234612124
 10
82.0256765394
 20
58.6840483905
 10
82.0853937573
 20
58.4395117472
 10
82.1276675547
 20
58.1921355195
 10
82.1530261277
 20
57.9447270953
 10
82.1612990038
 20
57.6996718922
  0
LINE
  5
42C
100
AcDbEntity
  8
RACCORDO
100
AcDbLine
 62
253
  6
CONTINUOUS
 10
78.6919546758
 20
70.6226855488
 11
78.6886493455
 21
70.6312119392
  0
LWPOLYLINE
  5
42D
100
AcDbEntity
  8
0
100
AcDbPolyline
 62
253
  6
CONTINUOUS
 90
13
 70
0
 10
101.8993300949
 20
72.7511739642
 10
101.8738475115
 20
73.0284773604
 10
101.8142235567
 20
73.2952754554
 10
101.7197522472
 20
73.5537676621
 10
101.5829495163
 20
73.8184931119
 10
101.4080397723
 20
74.0807306351
 10
101.211139675
 20
74.3092823897
 10
100.9877546116
 20
74.4998749169
 10
100.7373320794
 20
74.6645886051
 10
100.4840462117
 20
74.79435958
 10
100.2368615305
 20
74.8848139461
 10
99.9873619348
 20
74.9387743718
 10
99.735969964
 20
74.9547083581
  0
LWPOLYLINE
  5
42E
100
AcDbEntity
  8
0
100
AcDbPolyline
 62
253
  6
CONTINUOUS
 90
7
 70
0
 10
101.8995789362
 20
69.8653196824
 10
101.8860455761
 20
70.1679681203
 10
101.8765745684
 20
70.4764109384
 10
101.8713282073
 20
70.7898400975
 10
101.8721340184
 20
71.1063498573
 10
101.8775637599
 20
71.4261683638
 10
101.8926669124
 20
72.4157196039
  0
LWPOLYLINE
  5
42F
100
AcDbEntity
  8
0
100
AcDbPolyline
 62
253
  6
CONTINUOUS
 90
5
 70
0
 10
101.8995789362
 20
-69.8653196824
 10
101.8860455761
 20
-70.1679681203
 10
101.8765745684
 20
-70.4764109384
 10
101.8713282073
 20
-70.7898400975
 10
101.8721340184
 20
-71.1063498573
  0
LWPOLYLINE
  5
430
100
AcDbEntity
  8
0
100
AcDbPolyline
 62
7
  6
CONTINUOUS
 90
16
 70
0
 10
102.9997888374
 20
-73.034134394
 10
102.9826620749
 20
-73.3442256584
 10
102.9347328621
 20
-73.6464060852
 10
102.8560011992
 20
-73.9406756744
 10
102.7451876771
 20
-74.2307909618
 10
102.6035717049
 20
-74.5129954116
 10
102.4349915095
 20
-74.776019417
 10
102.23795402
 20
-75.018766224
 10
102.0139523073
 20
-75.2423325865
 10
101.7713038117
 20
-75.438739159
 10
101.5092662983
 20
-75.6064703511
 10
101.2285820019
 20
-75.7470417532
 10
100.9397950669
 20
-75.8570207898
 10
100.646420208
 20
-75.9352632692
 10
100.3449427104
 20
-75.9829133832
 10
100.0353625741
 20
-75.9999711318
  0
LWPOLYLINE
  5
431
100
AcDbEntity
  8
0
100
AcDbPolyline
 62
253
  6
CONTINUOUS
 90
13
 70
0
 10
101.8993300949
 20
-72.7511739642
 10
101.8738475115
 20
-73.0284773604
 10
101.8142235567
 20
-73.2952754554
 10
101.7197522472
 20
-73.5537676621
 10
101.5829495163
 20
-73.8184931119
 10
101.4080397723
 20
-74.0807306351
 10
101.211139675
 20
-74.3092823897
 10
100.9877546116
 20
-74.4998749169
 10
100.7373320794
 20
-74.6645886051
 10
100.4840462117
 20
-74.79435958
 10
100.2368615305
 20
-74.8848139461
 10
99.9873619348
 20
-74.9387743718
 10
99.735969964
 20
-74.9547083581
  0
LWPOLYLINE
  5
432
100
AcDbEntity
  8
0
100
AcDbPolyline
 62
253
  6
CONTINUOUS
 90
10
 70
0
 10
87.8429903395
 20
-61.5435634031
 10
87.4856799132
 20
-62.3471958171
 10
87.1262722891
 20
-63.1509885774
 10
86.7651485302
 20
-63.9540873893
 10
86.4028209055
 20
-64.7553486698
 10
86.0395355554
 20
-65.5542198981
 10
85.675238402
 20
-66.3508172016
 10
85.3101068099
 20
-67.1447562804
 10
84.9445837279
 20
-67.9350746739
 10
84.5789807693
 20
-68.721097982
  0
LWPOLYLINE
  5
433
100
AcDbEntity
  8
0
100
AcDbPolyline
 62
253
  6
CONTINUOUS
 90
10
 70
0
 10
87.4486522157
 20
-73.0691744206
 10
88.0609483169
 20
-71.9752979631
 10
88.6707709652
 20
-70.8744685437
 10
89.2779981562
 20
-69.7667728348
 10
89.8829216226
 20
-68.651131513
 10
90.484894617
 20
-67.5290360543
 10
91.0823593727
 20
-66.4045147633
 10
91.6746306239
 20
-65.279137811
 10
92.2618692114
 20
-64.1520360098
 10
92.8437698971
 20
-63.0236634427
  0
LINE
  5
434
100
AcDbEntity
  8
0
100
AcDbLine
 62
7
  6
CONTINUOUS
 10
102.9997888374
 20
-31.8258941825
 11
102.8954782022
 21
-32.0
  0
LWPOLYLINE
  5
435
100
AcDbEntity
  8
RACCORDO
100
AcDbPolyline
 62
7
  6
CONTINUOUS
 90
6
 70
0
 10
78.6273206204
 20
70.7696238825
 10
78.6020058432
 20
70.7893932057
 10
78.5729916782
 20
70.8052392498
 10
78.541166927
 20
70.8162412037
 10
78.5065987984
 20
70.8218526769
 10
78.4919622912
 20
70.8223886984
  0
LWPOLYLINE
  5
436
100
AcDbEntity
  8
RACCORDO
100
AcDbPolyline
 62
253
  6
CONTINUOUS
 90
7
 70
0
 10
78.6886493455
 20
70.6312119392
 10
78.6794336238
 20
70.6394737142
 10
78.6645844421
 20
70.6472243884
 10
78.6445480155
 20
70.6542322989
 10
78.6199264336
 20
70.6602874983
 10
78.5914595681
 20
70.6652080297
 10
78.5600028396
 20
70.6688453939
  0
LINE
  5
437
100
AcDbEntity
  8
0
100
AcDbLine
 62
7
  6
CONTINUOUS
 10
102.8954782022
 20
32.0
 11
102.9997888374
 21
31.8258941825
  0
LWPOLYLINE
  5
438
100
AcDbEntity
  8
0
100
AcDbPolyline
 62
253
  6
CONTINUOUS
 90
10
 70
0
 10
87.4486522157
 20
73.0691744206
 10
88.0609483169
 20
71.9752979631
 10
88.6707709652
 20
70.8744685437
 10
89.2779981562
 20
69.7667728348
 10
89.8829216226
 20
68.651131513
 10
90.484894617
 20
67.5290360543
 10
91.0823593727
 20
66.4045147633
 10
91.6746306239
 20
65.279137811
 10
92.2618692114
 20
64.1520360098
 10
92.8437698971
 20
63.0236634427
  0
LWPOLYLINE
  5
439
100
AcDbEntity
  8
0
100
AcDbPolyline
 62
253
  6
CONTINUOUS
 90
10
 70
0
 10
87.8429903395
 20
61.5435634031
 10
87.4856799132
 20
62.3471958171
 10
87.1262722891
 20
63.1509885774
 10
86.7651485302
 20
63.9540873893
 10
86.4028209055
 20
64.7553486698
 10
86.0395355554
 20
65.5542198981
 10
85.675238402
 20
66.3508172016
 10
85.3101068099
 20
67.1447562804
 10
84.9445837279
 20
67.9350746739
 10
84.5789807693
 20
68.721097982
  0
LWPOLYLINE
  5
43A
100
AcDbEntity
  8
0
100
AcDbPolyline
 62
253
  6
CONTINUOUS
 90
10
 70
0
 10
99.6979117518
 20
75.6597647411
 10
99.7038316754
 20
75.6424670293
 10
99.7093464048
 20
75.6073485232
 10
99.714534985
 20
75.5560143311
 10
99.7195515849
 20
75.4861901571
 10
99.7242239393
 20
75.3984825128
 10
99.7281830866
 20
75.2999684032
 10
99.731378026
 20
75.1947563873
 10
99.733946783
 20
75.080164971
 10
99.7358549705
 20
74.9546587472
  0
LINE
  5
43B
100
AcDbEntity
  8
0
100
AcDbLine
 62
7
  6
CONTINUOUS
 10
-131.0569765513
 20
-75.9999711318
 11
-137.6131546228
 21
-75.6526490898
  0
LINE
  5
43C
100
AcDbEntity
  8
0
100
AcDbLine
 62
253
  6
CONTINUOUS
 10
-138.4188104669
 20
-72.7497372541
 11
-138.3863545662
 21
-72.7469642717
  0
LINE
  5
43D
100
AcDbEntity
  8
0
100
AcDbLine
 62
253
  6
CONTINUOUS
 10
-138.3863545662
 20
-72.7469642717
 11
-138.2688181525
 21
-72.7379961011
  0
LINE
  5
43E
100
AcDbEntity
  8
0
100
AcDbLine
 62
253
  6
CONTINUOUS
 10
-138.2688181525
 20
-72.7379961011
 11
-137.5823409626
 21
-72.6891300959
  0
LWPOLYLINE
  5
43F
100
AcDbEntity
  8
0
100
AcDbPolyline
 62
253
  6
CONTINUOUS
 90
11
 70
0
 10
-138.305934558
 20
-74.9547083581
 10
-138.3312532845
 20
-74.9559679269
 10
-138.3521819725
 20
-74.9648431874
 10
-138.3700705057
 20
-74.9762790933
 10
-138.3875350829
 20
-74.9816353706
 10
-138.4050036249
 20
-74.9803296316
 10
-138.4201814819
 20
-74.9803975924
 10
-138.433187418
 20
-74.9807624225
 10
-138.445616681
 20
-74.9776961436
 10
-138.4563574153
 20
-74.9772513171
 10
-138.4659164312
 20
-74.9783344201
  0
LINE
  5
440
100
AcDbEntity
  8
0
100
AcDbLine
 62
253
  6
CONTINUOUS
 10
-137.5825571009
 20
-72.6891445459
 11
-131.0569765513
 21
-73.0348136178
  0
LWPOLYLINE
  5
441
100
AcDbEntity
  8
0
100
AcDbPolyline
 62
253
  6
CONTINUOUS
 90
8
 70
0
 10
-138.4659164312
 20
-74.9783344201
 10
-138.4831177672
 20
-74.9756654107
 10
-138.4893052793
 20
-74.9755127676
 10
-138.4939686811
 20
-74.9764499508
 10
-138.4967116983
 20
-74.9802142511
 10
-138.4979705022
 20
-74.9853908226
 10
-138.4985148217
 20
-74.9891951707
 10
-138.4989235958
 20
-74.989882318
  0
LINE
  5
442
100
AcDbEntity
  8
0
100
AcDbLine
 62
253
  6
CONTINUOUS
 10
-138.5271812556
 20
-69.8654710919
 11
-137.613716259
 21
-69.8655091915
  0
LINE
  5
443
100
AcDbEntity
  8
0
100
AcDbLine
 62
7
  6
CONTINUOUS
 10
-140.9136469944
 20
-64.950058
 11
-140.9640905132
 21
-64.950058
  0
LINE
  5
444
100
AcDbEntity
  8
0
100
AcDbLine
 62
7
  6
CONTINUOUS
 10
-141.058230632
 20
-63.7589606669
 11
-141.1085278471
 21
-63.7589606669
  0
LINE
  5
445
100
AcDbEntity
  8
0
100
AcDbLine
 62
7
  6
CONTINUOUS
 10
-141.2153721287
 20
-62.049935
 11
-141.2655113622
 21
-62.049935
  0
LINE
  5
446
100
AcDbEntity
  8
0
100
AcDbLine
 62
253
  6
CONTINUOUS
 10
-141.2555949999
 20
-57.6996736781
 11
-142.0570565946
 21
-57.699673678
  0
LINE
  5
447
100
AcDbEntity
  8
0
100
AcDbLine
 62
7
  6
CONTINUOUS
 10
-141.255385453
 20
-57.6985730542
 11
-138.5244371641
 21
-57.6985730542
  0
LWPOLYLINE
  5
448
100
AcDbEntity
  8
0
100
AcDbPolyline
 62
253
  6
CONTINUOUS
 90
5
 70
0
 10
-138.064469815
 20
75.3984825128
 10
-138.1494527603
 20
75.2999684032
 10
-138.2166698113
 20
75.1947563873
 10
-138.2691235662
 20
75.080164971
 10
-138.3059492398
 20
74.9546587472
  0
LINE
  5
449
100
AcDbEntity
  8
0
100
AcDbLine
 62
7
  6
CONTINUOUS
 10
-133.0470151513
 20
-39.0
 11
-131.0569765513
 21
-39.1741058175
  0
LWPOLYLINE
  5
44A
100
AcDbEntity
  8
0
100
AcDbPolyline
 62
7
  6
CONTINUOUS
 90
9
 70
0
 10
-141.8570724585
 20
-59.6375753926
 10
-141.7404021827
 20
-59.8046131006
 10
-141.6351245585
 20
-59.9802952594
 10
-141.5417509097
 20
-60.1638234277
 10
-141.4605417323
 20
-60.3550516635
 10
-141.3923883761
 20
-60.5524753083
 10
-141.3383359073
 20
-60.7530657527
 10
-141.2986101016
 20
-60.9550889357
 10
-141.2730949189
 20
-61.1582696092
  0
LINE
  5
44B
100
AcDbEntity
  8
0
100
AcDbLine
 62
7
  6
CONTINUOUS
 10
-131.0569765513
 20
-31.8258941825
 11
-133.0470151513
 21
-32.0
  0
LINE
  5
44C
100
AcDbEntity
  8
0
100
AcDbLine
 62
7
  6
CONTINUOUS
 10
-138.9038753207
 20
73.7940388684
 11
-138.9785055595
 21
73.5623492895
  0
LINE
  5
44D
100
AcDbEntity
  8
0
100
AcDbLine
 62
7
  6
CONTINUOUS
 10
-138.8312435567
 20
74.0159273503
 11
-138.9038753207
 21
73.7940388684
  0
LINE
  5
44E
100
AcDbEntity
  8
0
100
AcDbLine
 62
7
  6
CONTINUOUS
 10
-138.6922552354
 20
74.4311920065
 11
-138.8312435567
 21
74.0159273503
  0
LWPOLYLINE
  5
44F
100
AcDbEntity
  8
0
100
AcDbPolyline
 62
7
  6
CONTINUOUS
 90
3
 70
0
 10
-138.5039008507
 20
74.975808499
 10
-138.564127171
 20
74.8038265273
 10
-138.6922552354
 20
74.4311920065
  0
LWPOLYLINE
  5
450
100
AcDbEntity
  8
0
100
AcDbPolyline
 62
253
  6
CONTINUOUS
 90
4
 70
0
 10
-140.894314693
 20
61.5435077666
 10
-140.9534198392
 20
61.3782465043
 10
-141.0090529621
 20
61.2089889538
 10
-141.0609566137
 20
61.0338649036
  0
LWPOLYLINE
  5
451
100
AcDbEntity
  8
0
100
AcDbPolyline
 62
253
  6
CONTINUOUS
 90
10
 70
0
 10
-140.2978982451
 20
63.0238907478
 10
-140.0960503922
 20
63.5845428292
 10
-139.8889678374
 20
64.1850857529
 10
-139.6797023992
 20
64.8339285476
 10
-139.4712697861
 20
65.5447641841
 10
-139.2661962052
 20
66.3174851118
 10
-139.0664324773
 20
67.1349068647
 10
-138.8740098015
 20
67.9902517335
 10
-138.6911266594
 20
68.8904331877
 10
-138.5196368699
 20
69.834674327
  0
LINE
  5
452
100
AcDbEntity
  8
0
100
AcDbLine
 62
253
  6
CONTINUOUS
 10
-140.2979143741
 20
63.0208783203
 11
-140.3730440933
 21
62.8334396831
  0
LWPOLYLINE
  5
453
100
AcDbEntity
  8
0
100
AcDbPolyline
 62
253
  6
CONTINUOUS
 90
4
 70
0
 10
-140.7170717022
 20
61.9979411033
 10
-140.7788422406
 20
61.844769228
 10
-140.8379690384
 20
61.6937071649
 10
-140.894314693
 20
61.5435077666
  0
LWPOLYLINE
  5
454
100
AcDbEntity
  8
0
100
AcDbPolyline
 62
253
  6
CONTINUOUS
 90
3
 70
0
 10
-140.3730440933
 20
62.8334396831
 10
-140.5171602245
 20
62.4823558697
 10
-140.7170717022
 20
61.9979411033
  0
LWPOLYLINE
  5
455
100
AcDbEntity
  8
0
100
AcDbPolyline
 62
7
  6
CONTINUOUS
 90
5
 70
0
 10
-141.4605273583
 20
60.3550890493
 10
-141.5417355294
 20
60.1638564244
 10
-141.6351107914
 20
59.9803201511
 10
-141.7403933162
 20
59.8046267919
 10
-141.8570724585
 20
59.6375753926
  0
LWPOLYLINE
  5
456
100
AcDbEntity
  8
0
100
AcDbPolyline
 62
7
  6
CONTINUOUS
 90
6
 70
0
 10
-141.540000139
 20
60.1638703425
 10
-141.4585108144
 20
60.3537139701
 10
-141.3903257017
 20
60.5489193356
 10
-141.3356469378
 20
60.7486488951
 10
-141.2948088526
 20
60.9514827383
 10
-141.2681093169
 20
61.156066474
  0
LWPOLYLINE
  5
457
100
AcDbEntity
  8
0
100
AcDbPolyline
 62
253
  6
CONTINUOUS
 90
5
 70
0
 10
-140.446148612
 20
-62.654303626
 10
-140.7170717022
 20
-61.9979411033
 10
-140.7788422406
 20
-61.844769228
 10
-140.8379690384
 20
-61.6937071649
 10
-140.894314693
 20
-61.5435077666
  0
LWPOLYLINE
  5
458
100
AcDbEntity
  8
0
100
AcDbPolyline
 62
253
  6
CONTINUOUS
 90
3
 70
0
 10
-140.2979143741
 20
-63.0208783203
 10
-140.3730440933
 20
-62.8334396831
 10
-140.446148612
 20
-62.654303626
  0
LWPOLYLINE
  5
459
100
AcDbEntity
  8
0
100
AcDbPolyline
 62
253
  6
CONTINUOUS
 90
10
 70
0
 10
-140.2978982451
 20
-63.0238907478
 10
-140.0960503922
 20
-63.5845428292
 10
-139.8889678374
 20
-64.1850857529
 10
-139.6797023992
 20
-64.8339285476
 10
-139.4712697861
 20
-65.5447641841
 10
-139.2661962052
 20
-66.3174851118
 10
-139.0664324773
 20
-67.1349068647
 10
-138.8740098015
 20
-67.9902517335
 10
-138.6911266594
 20
-68.8904331877
 10
-138.5196368699
 20
-69.834674327
  0
LWPOLYLINE
  5
45A
100
AcDbEntity
  8
0
100
AcDbPolyline
 62
253
  6
CONTINUOUS
 90
4
 70
0
 10
-140.894314693
 20
-61.5435077666
 10
-140.9534198392
 20
-61.3782465043
 10
-141.0090529621
 20
-61.2089889538
 10
-141.0609566137
 20
-61.0338649036
  0
LINE
  5
45B
100
AcDbEntity
  8
0
100
AcDbLine
 62
7
  6
CONTINUOUS
 10
-138.5039008507
 20
-74.975808499
 11
-138.6270881165
 21
-74.6218915418
  0
LINE
  5
45C
100
AcDbEntity
  8
0
100
AcDbLine
 62
7
  6
CONTINUOUS
 10
-138.6270881165
 20
-74.6218915418
 11
-138.7607714537
 21
-74.2279723561
  0
LWPOLYLINE
  5
45D
100
AcDbEntity
  8
0
100
AcDbPolyline
 62
7
  6
CONTINUOUS
 90
3
 70
0
 10
-138.7607714537
 20
-74.2279723561
 10
-138.8312435567
 20
-74.0159273503
 10
-138.9038753207
 20
-73.7940388684
  0
LWPOLYLINE
  5
45E
100
AcDbEntity
  8
0
100
AcDbPolyline
 62
7
  6
CONTINUOUS
 90
4
 70
0
 10
-138.9038753207
 20
-73.7940388684
 10
-138.9785055595
 20
-73.5623492895
 10
-139.0550170817
 20
-73.3207457696
 10
-139.1332611659
 20
-73.0691914201
  0
LWPOLYLINE
  5
45F
100
AcDbEntity
  8
0
100
AcDbPolyline
 62
253
  6
CONTINUOUS
 90
9
 70
0
 10
-139.445986014
 20
71.9752979631
 10
-139.7125585133
 20
70.8744685437
 10
-139.9331814558
 20
69.7667728348
 10
-140.1083133961
 20
68.651131513
 10
-140.2379413046
 20
67.5290360543
 10
-140.3216785092
 20
66.4045147633
 10
-140.3594912369
 20
65.279137811
 10
-140.3515630054
 20
64.1520360098
 10
-140.2979942776
 20
63.0236634427
  0
LINE
  5
460
100
AcDbEntity
  8
0
100
AcDbLine
 62
7
  6
CONTINUOUS
 10
-139.8969012207
 20
70.314050201
 11
-139.978192893
 21
69.9768384298
  0
LINE
  5
461
100
AcDbEntity
  8
ASSI
100
AcDbLine
 62
7
  6
CONTINUOUS
 10
-139.8838850823
 20
70.365374039
 11
-139.9763519392
 21
69.985419007
  0
LINE
  5
462
100
AcDbEntity
  8
ASSI
100
AcDbLine
 62
7
  6
CONTINUOUS
 10
-139.7884203301
 20
70.7446815251
 11
-139.8838850823
 21
70.365374039
  0
LINE
  5
463
100
AcDbEntity
  8
0
100
AcDbLine
 62
7
  6
CONTINUOUS
 10
-139.7703250115
 20
70.8161956069
 11
-139.9083428158
 21
70.2651679156
  0
LINE
  5
464
100
AcDbEntity
  8
0
100
AcDbLine
 62
7
  6
CONTINUOUS
 10
-139.7266621161
 20
70.9840805495
 11
-139.8221003817
 21
70.6118473848
  0
LINE
  5
465
100
AcDbEntity
  8
ASSI
100
AcDbLine
 62
7
  6
CONTINUOUS
 10
-139.7613981216
 20
70.8486014189
 11
-139.7884203301
 21
70.7446815251
  0
LINE
  5
466
100
AcDbEntity
  8
0
100
AcDbLine
 62
7
  6
CONTINUOUS
 10
-139.6253944009
 20
71.3662569931
 11
-139.7703250115
 21
70.8161956069
  0
LINE
  5
467
100
AcDbEntity
  8
0
100
AcDbLine
 62
7
  6
CONTINUOUS
 10
-141.3383279289
 20
60.7531000412
 11
-141.3923767825
 21
60.5525130895
  0
LINE
  5
468
100
AcDbEntity
  8
0
100
AcDbLine
 62
7
  6
CONTINUOUS
 10
-139.543877196
 20
71.6642531436
 11
-139.6421625411
 21
71.3034896675
  0
LINE
  5
469
100
AcDbEntity
  8
0
100
AcDbLine
 62
253
  6
CONTINUOUS
 10
-139.13320213
 20
73.0691744206
 11
-139.445986014
 21
71.9752979631
  0
LWPOLYLINE
  5
46A
100
AcDbEntity
  8
0
100
AcDbPolyline
 62
7
  6
CONTINUOUS
 90
4
 70
0
 10
-139.3098274479
 20
72.483598893
 10
-139.3859956171
 20
72.2226909445
 10
-139.5137761869
 20
71.7726568762
 10
-139.543877196
 20
71.6642531436
  0
LWPOLYLINE
  5
46B
100
AcDbEntity
  8
0
100
AcDbPolyline
 62
7
  6
CONTINUOUS
 90
3
 70
0
 10
-139.1332611659
 20
73.0691914201
 10
-139.2590029519
 20
72.6548304465
 10
-139.3098274479
 20
72.483598893
  0
LINE
  5
46C
100
AcDbEntity
  8
0
100
AcDbLine
 62
7
  6
CONTINUOUS
 10
-139.0550170817
 20
73.3207457696
 11
-139.1332611659
 21
73.0691914201
  0
LINE
  5
46D
100
AcDbEntity
  8
0
100
AcDbLine
 62
7
  6
CONTINUOUS
 10
-138.9785055595
 20
73.5623492895
 11
-139.0550170817
 21
73.3207457696
  0
LINE
  5
46E
100
AcDbEntity
  8
0
100
AcDbLine
 62
7
  6
CONTINUOUS
 10
-141.3923767825
 20
60.5525130895
 11
-141.4605273583
 21
60.3550890493
  0
LWPOLYLINE
  5
46F
100
AcDbEntity
  8
0
100
AcDbPolyline
 62
7
  6
CONTINUOUS
 90
3
 70
0
 10
-139.1332611659
 20
-73.0691914201
 10
-139.2590029519
 20
-72.6548304465
 10
-139.3098274476
 20
-72.4835988943
  0
LWPOLYLINE
  5
470
100
AcDbEntity
  8
0
100
AcDbPolyline
 62
253
  6
CONTINUOUS
 90
10
 70
0
 10
-138.3059495969
 20
-74.9546570925
 10
-138.2664840255
 20
-75.0878467825
 10
-138.2103610853
 20
-75.2063477031
 10
-138.1397124077
 20
-75.3126650443
 10
-138.053211464
 20
-75.409496579
 10
-137.9519857027
 20
-75.4939105662
 10
-137.8426006219
 20
-75.5608527696
 10
-137.7286884597
 20
-75.610335191
 10
-137.6078053777
 20
-75.64374249
 10
-137.4788367875
 20
-75.6597647515
  0
LWPOLYLINE
  5
471
100
AcDbEntity
  8
0
100
AcDbPolyline
 62
7
  6
CONTINUOUS
 90
4
 70
0
 10
-139.3098274476
 20
-72.4835988943
 10
-139.3859956171
 20
-72.2226909445
 10
-139.5137761869
 20
-71.7726568762
 10
-139.543877196
 20
-71.6642531436
  0
LINE
  5
472
100
AcDbEntity
  8
0
100
AcDbLine
 62
253
  6
CONTINUOUS
 10
-139.13320213
 20
-73.0691744206
 11
-139.445986014
 21
-71.9752979631
  0
LINE
  5
473
100
AcDbEntity
  8
0
100
AcDbLine
 62
7
  6
CONTINUOUS
 10
-139.543877196
 20
-71.6642531436
 11
-139.6421625411
 21
-71.3034896675
  0
LINE
  5
474
100
AcDbEntity
  8
0
100
AcDbLine
 62
7
  6
CONTINUOUS
 10
-139.6253944009
 20
-71.3662569931
 11
-139.7703250115
 21
-70.8161956069
  0
LINE
  5
475
100
AcDbEntity
  8
0
100
AcDbLine
 62
7
  6
CONTINUOUS
 10
-139.7266621161
 20
-70.9840805495
 11
-139.8969012207
 21
-70.314050201
  0
LINE
  5
476
100
AcDbEntity
  8
0
100
AcDbLine
 62
7
  6
CONTINUOUS
 10
-139.9083428158
 20
-70.2651679156
 11
-139.8221003817
 21
-70.6118473848
  0
LINE
  5
477
100
AcDbEntity
  8
0
100
AcDbLine
 62
7
  6
CONTINUOUS
 10
-139.978192893
 20
-69.9768384298
 11
-139.8969012207
 21
-70.314050201
  0
LWPOLYLINE
  5
478
100
AcDbEntity
  8
0
100
AcDbPolyline
 62
253
  6
CONTINUOUS
 90
9
 70
0
 10
-139.445986014
 20
-71.9752979631
 10
-139.7125585133
 20
-70.8744685437
 10
-139.9331814558
 20
-69.7667728348
 10
-140.1083133961
 20
-68.651131513
 10
-140.2379413046
 20
-67.5290360543
 10
-140.3216785092
 20
-66.4045147633
 10
-140.3594912369
 20
-65.279137811
 10
-140.3515630054
 20
-64.1520360098
 10
-140.2979942776
 20
-63.0236634427
  0
LWPOLYLINE
  5
479
100
AcDbEntity
  8
0
100
AcDbPolyline
 62
7
  6
CONTINUOUS
 90
15
 70
0
 10
-140.4283186397
 20
67.9016617651
 10
-140.5032746006
 20
67.5075624036
 10
-140.5730365818
 20
67.1243759297
 10
-140.6379100643
 20
66.7519793349
 10
-140.6982724475
 20
66.3896935434
 10
-140.7543536708
 20
66.0375748
 10
-140.8063617903
 20
65.6957607828
 10
-140.8545998049
 20
65.3636717676
 10
-140.8992766439
 20
65.0412392051
 10
-140.9405598333
 20
64.7286396936
 10
-140.9786602068
 20
64.4256876887
 10
-141.0137793659
 20
64.1321749306
 10
-141.0460425276
 20
63.8484551399
 10
-141.0755461658
 20
63.5751457244
 10
-141.1024722531
 20
63.3120907394
  0
LINE
  5
47A
100
AcDbEntity
  8
0
100
AcDbLine
 62
7
  6
CONTINUOUS
 10
-141.2986057721
 20
60.9551158343
 11
-141.3383279289
 21
60.7531000412
  0
LWPOLYLINE
  5
47B
100
AcDbEntity
  8
0
100
AcDbPolyline
 62
7
  6
CONTINUOUS
 90
3
 70
0
 10
-140.2619206056
 20
68.7210972417
 10
-140.3479562252
 20
68.3062375834
 10
-140.4283186397
 20
67.9016617651
  0
LINE
  5
47C
100
AcDbEntity
  8
ASSI
100
AcDbLine
 62
7
  6
CONTINUOUS
 10
-140.0658209008
 20
69.6048164292
 11
-140.0903366814
 21
69.4967265812
  0
LINE
  5
47D
100
AcDbEntity
  8
ASSI
100
AcDbLine
 62
7
  6
CONTINUOUS
 10
-139.9763519392
 20
69.985419007
 11
-140.0658209008
 21
69.6048164292
  0
LWPOLYLINE
  5
47E
100
AcDbEntity
  8
0
100
AcDbPolyline
 62
7
  6
CONTINUOUS
 90
4
 70
0
 10
-139.9762446758
 20
69.9874789205
 10
-140.0211859804
 20
69.798100044
 10
-140.1430157147
 20
69.2671401499
 10
-140.2619210167
 20
68.7210973291
  0
LWPOLYLINE
  5
47F
100
AcDbEntity
  8
0
100
AcDbPolyline
 62
253
  6
CONTINUOUS
 90
5
 70
0
 10
-141.0609566137
 20
61.0338649036
 10
-141.1088227475
 20
60.8424720213
 10
-141.1524340518
 20
60.6428645195
 10
-141.191513537
 20
60.4537743204
 10
-141.2255268589
 20
60.2718525804
  0
LWPOLYLINE
  5
480
100
AcDbEntity
  8
0
100
AcDbPolyline
 62
253
  6
CONTINUOUS
 90
5
 70
0
 10
-141.0609566137
 20
-61.0338649036
 10
-141.1088227475
 20
-60.8424720213
 10
-141.1524340518
 20
-60.6428645195
 10
-141.191513537
 20
-60.4537743204
 10
-141.2255268589
 20
-60.2718525804
  0
LWPOLYLINE
  5
481
100
AcDbEntity
  8
0
100
AcDbPolyline
 62
7
  6
CONTINUOUS
 90
4
 70
0
 10
-139.9762446758
 20
-69.9874789205
 10
-140.0211859804
 20
-69.798100044
 10
-140.1430157147
 20
-69.2671401499
 10
-140.2619210167
 20
-68.7210973291
  0
LWPOLYLINE
  5
482
100
AcDbEntity
  8
0
100
AcDbPolyline
 62
7
  6
CONTINUOUS
 90
8
 70
0
 10
-140.2619206056
 20
-68.7210972417
 10
-140.3479562252
 20
-68.3062375834
 10
-140.4283186397
 20
-67.9016617651
 10
-140.5032746006
 20
-67.5075624037
 10
-140.5730365817
 20
-67.12437593
 10
-140.6379100642
 20
-66.7519793355
 10
-140.6982724474
 20
-66.3896935442
 10
-140.7543536706
 20
-66.0375748013
  0
LINE
  5
483
100
AcDbEntity
  8
0
100
AcDbLine
 62
253
  6
CONTINUOUS
 10
-141.8587647268
 20
-59.6172669692
 11
-141.8570935244
 21
-59.6375473847
  0
LINE
  5
484
100
AcDbEntity
  8
0
100
AcDbLine
 62
253
  6
CONTINUOUS
 10
-141.8587585424
 20
59.6172509817
 11
-141.8570935286
 21
59.637547379
  0
LWPOLYLINE
  5
485
100
AcDbEntity
  8
0
100
AcDbPolyline
 62
7
  6
CONTINUOUS
 90
7
 70
0
 10
-141.1024722531
 20
63.3120907394
 10
-141.1269693028
 20
63.0593755103
 10
-141.1491104692
 20
62.817854211
 10
-141.1691303922
 20
62.5866577173
 10
-141.1871291818
 20
62.3663102548
 10
-141.2030468256
 20
62.1594989345
 10
-141.2295969655
 20
61.7828624104
  0
LWPOLYLINE
  5
486
100
AcDbEntity
  8
0
100
AcDbPolyline
 62
253
  6
CONTINUOUS
 90
3
 70
0
 10
-141.2255268589
 20
60.2718525804
 10
-141.2537583771
 20
60.0794056621
 10
-141.2755354467
 20
59.8660471851
  0
LINE
  5
487
100
AcDbEntity
  8
0
100
AcDbLine
 62
253
  6
CONTINUOUS
 10
-142.057054049
 20
-13.2999284734
 11
-141.255468845
 21
-13.2999284856
  0
LWPOLYLINE
  5
488
100
AcDbEntity
  8
0
100
AcDbPolyline
 62
7
  6
CONTINUOUS
 90
3
 70
0
 10
-140.7543536708
 20
-66.0375748
 10
-140.8063617903
 20
-65.6957607828
 10
-140.8545998049
 20
-65.3636717676
  0
LWPOLYLINE
  5
489
100
AcDbEntity
  8
0
100
AcDbPolyline
 62
253
  6
CONTINUOUS
 90
3
 70
0
 10
-141.2255268589
 20
-60.2718525804
 10
-141.2537583771
 20
-60.0794056621
 10
-141.2755354467
 20
-59.8660471851
  0
LWPOLYLINE
  5
48A
100
AcDbEntity
  8
0
100
AcDbPolyline
 62
7
  6
CONTINUOUS
 90
13
 70
0
 10
-140.8545998046
 20
-65.3636717697
 10
-140.8992766436
 20
-65.0412392076
 10
-140.9405598329
 20
-64.7286396966
 10
-140.9786602063
 20
-64.4256876923
 10
-141.0137793654
 20
-64.1321749348
 10
-141.046042527
 20
-63.8484551446
 10
-141.0755461652
 20
-63.5751457297
 10
-141.1024722525
 20
-63.3120907453
 10
-141.1269693022
 20
-63.0593755168
 10
-141.1491104685
 20
-62.817854218
 10
-141.1691303915
 20
-62.5866577249
 10
-141.1871291811
 20
-62.3663102629
 10
-141.2030468249
 20
-62.1594989431
  0
LINE
  5
48B
100
AcDbEntity
  8
0
100
AcDbLine
 62
7
  6
CONTINUOUS
 10
-141.2730949189
 20
-61.1582696092
 11
-141.2650659679
 21
-61.2718343795
  0
LINE
  5
48C
100
AcDbEntity
  8
0
100
AcDbLine
 62
7
  6
CONTINUOUS
 10
-141.2030468249
 20
-62.1594989431
 11
-141.2295969649
 21
-61.782862419
  0
LINE
  5
48D
100
AcDbEntity
  8
0
100
AcDbLine
 62
7
  6
CONTINUOUS
 10
-141.2295969649
 20
-61.782862419
 11
-141.248989166
 21
-61.4745705926
  0
LINE
  5
48E
100
AcDbEntity
  8
0
100
AcDbLine
 62
253
  6
CONTINUOUS
 10
-138.4186531446
 20
-72.7511739642
 11
-138.4021531137
 21
-73.0284773604
  0
LINE
  5
48F
100
AcDbEntity
  8
0
100
AcDbLine
 62
7
  6
CONTINUOUS
 10
-141.248989166
 20
-61.4745705926
 11
-141.2626723591
 21
-61.2360040165
  0
LWPOLYLINE
  5
490
100
AcDbEntity
  8
0
100
AcDbPolyline
 62
253
  6
CONTINUOUS
 90
4
 70
0
 10
-138.3629268427
 20
-73.8184931119
 10
-138.3483686507
 20
-74.0807306351
 10
-138.3340131464
 20
-74.3092823897
 10
-138.3018389637
 20
-74.79435958
  0
LINE
  5
491
100
AcDbEntity
  8
0
100
AcDbLine
 62
7
  6
CONTINUOUS
 10
-141.2626723591
 20
-61.2360040165
 11
-141.2620300081
 21
-61.2478927644
  0
LWPOLYLINE
  5
492
100
AcDbEntity
  8
0
100
AcDbPolyline
 62
253
  6
CONTINUOUS
 90
4
 70
0
 10
-138.3018389637
 20
-74.79435958
 10
-138.2971872013
 20
-74.8848139461
 10
-138.2980903747
 20
-74.9387743718
 10
-138.305934558
 20
-74.9547083581
  0
LINE
  5
493
100
AcDbEntity
  8
0
100
AcDbLine
 62
7
  6
CONTINUOUS
 10
-141.2650659679
 20
-61.2718343795
 11
-141.2650543614
 21
-61.2720619134
  0
LWPOLYLINE
  5
494
100
AcDbEntity
  8
0
100
AcDbPolyline
 62
7
  6
CONTINUOUS
 90
3
 70
0
 10
-141.2626388221
 20
-61.2358916203
 10
-141.2673573116
 20
-61.138485962
 10
-141.2711584408
 20
-61.0407245855
  0
LINE
  5
495
100
AcDbEntity
  8
0
100
AcDbLine
 62
253
  6
CONTINUOUS
 10
-138.4021531137
 20
-73.0284773604
 11
-138.3629268427
 21
-73.8184931119
  0
LINE
  5
496
100
AcDbEntity
  8
0
100
AcDbLine
 62
7
  6
CONTINUOUS
 10
-141.2618793233
 20
-61.3616645276
 11
-141.2650543614
 21
-61.2720619132
  0
LINE
  5
497
100
AcDbEntity
  8
0
100
AcDbLine
 62
7
  6
CONTINUOUS
 10
-141.2711584408
 20
-61.0407245855
 11
-141.2748446972
 21
-60.9178535743
  0
LINE
  5
498
100
AcDbEntity
  8
0
100
AcDbLine
 62
7
  6
CONTINUOUS
 10
-141.2748446972
 20
-60.9178535743
 11
-141.2774610529
 21
-60.8011617348
  0
LINE
  5
499
100
AcDbEntity
  8
0
100
AcDbLine
 62
7
  6
CONTINUOUS
 10
-141.2774610529
 20
-60.8011617348
 11
-141.2795331001
 21
-60.6701393658
  0
LWPOLYLINE
  5
49A
100
AcDbEntity
  8
0
100
AcDbPolyline
 62
253
  6
CONTINUOUS
 90
3
 70
0
 10
-141.2795331001
 20
-60.6701393658
 10
-141.2797683724
 20
-60.6505980752
 10
-141.2810427804
 20
-60.4798652166
  0
LINE
  5
49B
100
AcDbEntity
  8
0
100
AcDbLine
 62
253
  6
CONTINUOUS
 10
-141.2676114315
 20
-11.4108415383
 11
-141.2587665077
 21
-12.313554319
  0
LWPOLYLINE
  5
49C
100
AcDbEntity
  8
0
100
AcDbPolyline
 62
253
  6
CONTINUOUS
 90
4
 70
0
 10
-141.8580519904
 20
59.2318938624
 10
-141.8601298632
 20
59.4785369132
 10
-141.8597691784
 20
59.5633230382
 10
-141.8587585424
 20
59.6172509817
  0
LWPOLYLINE
  5
49D
100
AcDbEntity
  8
0
100
AcDbPolyline
 62
253
  6
CONTINUOUS
 90
3
 70
0
 10
-141.2871244052
 20
-9.8298413451
 10
-141.2858941267
 20
-10.0425218273
 10
-141.2676114315
 20
-11.4108415383
  0
LINE
  5
49E
100
AcDbEntity
  8
0
100
AcDbLine
 62
253
  6
CONTINUOUS
 10
-141.8573138189
 20
59.071071714
 11
-141.8580519904
 21
59.2318938624
  0
LWPOLYLINE
  5
49F
100
AcDbEntity
  8
0
100
AcDbPolyline
 62
253
  6
CONTINUOUS
 90
3
 70
0
 10
-141.8601358606
 20
-59.478646446
 10
-141.8597773508
 20
-59.563386555
 10
-141.8587647268
 20
-59.6172669692
  0
LINE
  5
4A0
100
AcDbEntity
  8
0
100
AcDbLine
 62
253
  6
CONTINUOUS
 10
-141.8570935286
 20
57.6997376301
 11
-141.8597902848
 21
58.2190703695
  0
LINE
  5
4A1
100
AcDbEntity
  8
0
100
AcDbLine
 62
253
  6
CONTINUOUS
 10
-141.8601027443
 20
-58.4600395389
 11
-141.857288135
 21
-59.0710222722
  0
LINE
  5
4A2
100
AcDbEntity
  8
0
100
AcDbLine
 62
253
  6
CONTINUOUS
 10
-141.857437607
 20
-13.0332783826
 11
-141.8652265168
 21
-11.4902504346
  0
LINE
  5
4A3
100
AcDbEntity
  8
0
100
AcDbLine
 62
253
  6
CONTINUOUS
 10
-141.2587665077
 20
-12.313554319
 11
-141.2553870554
 21
-13.2988278529
  0
LINE
  5
4A4
100
AcDbEntity
  8
0
100
AcDbLine
 62
253
  6
CONTINUOUS
 10
-141.8597902848
 20
58.2190703695
 11
-141.8601535885
 21
58.4600725845
  0
LINE
  5
4A5
100
AcDbEntity
  8
0
100
AcDbLine
 62
253
  6
CONTINUOUS
 10
-141.2578145651
 20
58.4395117472
 11
-141.2557529892
 21
57.6996718922
  0
LWPOLYLINE
  5
4A6
100
AcDbEntity
  8
0
100
AcDbPolyline
 62
253
  6
CONTINUOUS
 90
3
 70
0
 10
-141.2810427804
 20
60.4798652166
 10
-141.2809246102
 20
60.290559662
 10
-141.2791639247
 20
60.0849037146
  0
LINE
  5
4A7
100
AcDbEntity
  8
0
100
AcDbLine
 62
7
  6
CONTINUOUS
 10
-142.0569149128
 20
59.0394473192
 11
-142.0569000056
 21
11.9553511622
  0
LINE
  5
4A8
100
AcDbEntity
  8
0
100
AcDbLine
 62
253
  6
CONTINUOUS
 10
-141.8652336158
 20
11.3703803704
 11
-141.8652336142
 21
11.4902601783
  0
LINE
  5
4A9
100
AcDbEntity
  8
0
100
AcDbLine
 62
253
  6
CONTINUOUS
 10
-141.8652336142
 20
-11.4902601783
 11
-141.8652336158
 21
-11.3703803704
  0
LINE
  5
4AA
100
AcDbEntity
  8
0
100
AcDbLine
 62
253
  6
CONTINUOUS
 10
-141.857437607
 20
-13.0332783826
 11
-141.8572013372
 21
-57.6996736781
  0
LINE
  5
4AB
100
AcDbEntity
  8
0
100
AcDbLine
 62
7
  6
CONTINUOUS
 10
-141.2870366398
 20
9.8298638273
 11
-141.2870366398
 21
-9.8298638273
  0
LWPOLYLINE
  5
4AC
100
AcDbEntity
  8
0
100
AcDbPolyline
 62
253
  6
CONTINUOUS
 90
3
 70
0
 10
-141.2810427804
 20
-60.4798652166
 10
-141.2809246102
 20
-60.290559662
 10
-141.2791639247
 20
-60.0849037146
  0
LINE
  5
4AD
100
AcDbEntity
  8
0
100
AcDbLine
 62
7
  6
CONTINUOUS
 10
-142.0569000056
 20
-11.9553511976
 11
-142.0569149128
 21
-59.0394473192
  0
LINE
  5
4AE
100
AcDbEntity
  8
0
100
AcDbLine
 62
253
  6
CONTINUOUS
 10
-141.255385453
 20
57.6985730532
 11
-141.2563014729
 21
12.7934975087
  0
LINE
  5
4AF
100
AcDbEntity
  8
0
100
AcDbLine
 62
253
  6
CONTINUOUS
 10
-141.8572013372
 20
57.6996736781
 11
-141.8580739953
 21
12.7813926948
  0
LINE
  5
4B0
100
AcDbEntity
  8
0
100
AcDbLine
 62
253
  6
CONTINUOUS
 10
-141.8587462722
 20
-57.9643156929
 11
-141.8601027443
 21
-58.4600395389
  0
LWPOLYLINE
  5
4B1
100
AcDbEntity
  8
0
100
AcDbPolyline
 62
253
  6
CONTINUOUS
 90
3
 70
0
 10
-141.857288135
 20
-59.0710222722
 10
-141.8580378397
 20
-59.231923085
 10
-141.8601358606
 20
-59.478646446
  0
LWPOLYLINE
  5
4B2
100
AcDbEntity
  8
0
100
AcDbPolyline
 62
253
  6
CONTINUOUS
 90
3
 70
0
 10
-141.2578145651
 20
-58.4395117472
 10
-141.2566440545
 20
-58.1921355195
 10
-141.2553870554
 20
-13.2988278529
  0
LINE
  5
4B3
100
AcDbEntity
  8
0
100
AcDbLine
 62
253
  6
CONTINUOUS
 10
-141.2859005809
 20
10.0415889947
 11
-141.2871244052
 21
9.8298413451
  0
LINE
  5
4B4
100
AcDbEntity
  8
0
100
AcDbLine
 62
253
  6
CONTINUOUS
 10
-141.8570935244
 20
-57.6997376237
 11
-141.8587462722
 21
-57.9643156929
  0
LINE
  5
4B5
100
AcDbEntity
  8
0
100
AcDbLine
 62
253
  6
CONTINUOUS
 10
-141.8601535885
 20
58.4600725845
 11
-141.8573138189
 21
59.071071714
  0
LINE
  5
4B6
100
AcDbEntity
  8
0
100
AcDbLine
 62
253
  6
CONTINUOUS
 10
-141.8580739953
 20
12.7813926948
 11
-141.8652265168
 21
11.4902504346
  0
LINE
  5
4B7
100
AcDbEntity
  8
0
100
AcDbLine
 62
253
  6
CONTINUOUS
 10
-141.2563014729
 20
12.7934975087
 11
-141.2626428972
 21
11.8514279285
  0
LWPOLYLINE
  5
4B8
100
AcDbEntity
  8
0
100
AcDbPolyline
 62
253
  6
CONTINUOUS
 90
3
 70
0
 10
-141.2795331
 20
60.6701393718
 10
-141.2797683724
 20
60.6505980752
 10
-141.2810427804
 20
60.4798652166
  0
LINE
  5
4B9
100
AcDbEntity
  8
0
100
AcDbLine
 62
253
  6
CONTINUOUS
 10
-141.2626428972
 20
11.8514279285
 11
-141.2859005809
 21
10.0415889947
  0
LINE
  5
4BA
100
AcDbEntity
  8
0
100
AcDbLine
 62
7
  6
CONTINUOUS
 10
-141.2774610529
 20
60.8011617348
 11
-141.2795331
 21
60.6701393718
  0
LINE
  5
4BB
100
AcDbEntity
  8
0
100
AcDbLine
 62
7
  6
CONTINUOUS
 10
-141.2618793233
 20
61.3616645276
 11
-141.2650543614
 21
61.2720619131
  0
LWPOLYLINE
  5
4BC
100
AcDbEntity
  8
0
100
AcDbPolyline
 62
7
  6
CONTINUOUS
 90
5
 70
0
 10
-141.2626388221
 20
61.2358916203
 10
-141.2673573116
 20
61.138485962
 10
-141.2711584408
 20
61.0407245855
 10
-141.2745119857
 20
60.9305606807
 10
-141.2774610529
 20
60.8011617348
  0
LINE
  5
4BD
100
AcDbEntity
  8
0
100
AcDbLine
 62
7
  6
CONTINUOUS
 10
-141.2650543614
 20
61.2720619131
 11
-141.2650659631
 21
61.2718344737
  0
LWPOLYLINE
  5
4BE
100
AcDbEntity
  8
0
100
AcDbPolyline
 62
253
  6
CONTINUOUS
 90
4
 70
0
 10
-137.4861136656
 20
75.4352605677
 10
-137.5067158428
 20
75.0478116961
 10
-137.5183822086
 20
74.7904004103
 10
-137.5408486404
 20
74.1679668911
  0
LINE
  5
4BF
100
AcDbEntity
  8
0
100
AcDbLine
 62
253
  6
CONTINUOUS
 10
-138.3629268427
 20
73.8184931119
 11
-138.3483686507
 21
74.0807306351
  0
LINE
  5
4C0
100
AcDbEntity
  8
0
100
AcDbLine
 62
7
  6
CONTINUOUS
 10
-141.2489891666
 20
61.4745705835
 11
-141.2626723597
 21
61.2360040065
  0
LWPOLYLINE
  5
4C1
100
AcDbEntity
  8
0
100
AcDbPolyline
 62
253
  6
CONTINUOUS
 90
3
 70
0
 10
-138.4186531446
 20
72.7511739642
 10
-138.4021531137
 20
73.0284773604
 10
-138.3629268427
 20
73.8184931119
  0
LINE
  5
4C2
100
AcDbEntity
  8
0
100
AcDbLine
 62
253
  6
CONTINUOUS
 10
-138.3483686507
 20
74.0807306351
 11
-138.321780074
 21
74.4998749169
  0
LINE
  5
4C3
100
AcDbEntity
  8
0
100
AcDbLine
 62
7
  6
CONTINUOUS
 10
-141.2295969655
 20
61.7828624104
 11
-141.2489891666
 21
61.4745705835
  0
LWPOLYLINE
  5
4C4
100
AcDbEntity
  8
0
100
AcDbPolyline
 62
253
  6
CONTINUOUS
 90
5
 70
0
 10
-138.321780074
 20
74.4998749169
 10
-138.3018389637
 20
74.79435958
 10
-138.2971872013
 20
74.8848139461
 10
-138.2980903747
 20
74.9387743718
 10
-138.305934558
 20
74.9547083581
  0
LWPOLYLINE
  5
4C5
100
AcDbEntity
  8
0
100
AcDbPolyline
 62
7
  6
CONTINUOUS
 90
3
 70
0
 10
-141.2650659631
 20
61.2718344737
 10
-141.2730935233
 20
61.1582850576
 10
-141.2986057721
 20
60.9551158343
  0
LINE
  5
4C6
100
AcDbEntity
  8
0
100
AcDbLine
 62
7
  6
CONTINUOUS
 10
-141.2681093169
 20
61.156066474
 11
-141.2636603489
 21
61.2148038355
  0
LWPOLYLINE
  5
4C7
100
AcDbEntity
  8
RACCORDO
100
AcDbPolyline
 62
253
  6
CONTINUOUS
 90
7
 70
0
 10
-141.2870366398
 20
-8.45066938
 10
-141.3075001181
 20
-8.4526327331
 10
-141.3319832904
 20
-8.4540925699
 10
-141.3511407414
 20
-8.4556699374
 10
-141.364912861
 20
-8.4575616394
 10
-141.3734504592
 20
-8.4584834967
 10
-141.3765065376
 20
-8.4577934653
  0
LINE
  5
4C8
100
AcDbEntity
  8
0
100
AcDbLine
 62
253
  6
CONTINUOUS
 10
-137.5067158428
 20
-75.0478116961
 11
-137.5183822086
 21
-74.7904004103
  0
LWPOLYLINE
  5
4C9
100
AcDbEntity
  8
0
100
AcDbPolyline
 62
253
  6
CONTINUOUS
 90
4
 70
0
 10
-141.2870366526
 20
9.8301244552
 10
-141.2945271508
 20
10.0285475154
 10
-141.3168926758
 20
10.2257867021
 10
-141.3539781094
 20
10.4208659612
  0
LINE
  5
4CA
100
AcDbEntity
  8
0
100
AcDbLine
 62
253
  6
CONTINUOUS
 10
-137.5183822086
 20
-74.7904004103
 11
-137.5408486404
 21
-74.1679668911
  0
LINE
  5
4CB
100
AcDbEntity
  8
0
100
AcDbLine
 62
253
  6
CONTINUOUS
 10
-137.5408486404
 20
-74.1679668911
 11
-137.5823406262
 21
-72.6891558637
  0
LWPOLYLINE
  5
4CC
100
AcDbEntity
  8
0
100
AcDbPolyline
 62
253
  6
CONTINUOUS
 90
10
 70
0
 10
-140.8943309887
 20
61.5435634031
 10
-140.9097093881
 20
62.3471958171
 10
-140.9036519089
 20
63.1509885774
 10
-140.8761551889
 20
63.9540873893
 10
-140.8272376655
 20
64.7553486698
 10
-140.7568938326
 20
65.5542198981
 10
-140.6651000351
 20
66.3508172016
 10
-140.5519176777
 20
67.1447562804
 10
-140.4174872943
 20
67.9350746739
 10
-140.2619204487
 20
68.721097982
  0
LINE
  5
4CD
100
AcDbEntity
  8
0
100
AcDbLine
 62
253
  6
CONTINUOUS
 10
-141.2791639247
 20
60.0849037146
 11
-141.2671747405
 21
59.3805311018
  0
LWPOLYLINE
  5
4CE
100
AcDbEntity
  8
0
100
AcDbPolyline
 62
253
  6
CONTINUOUS
 90
3
 70
0
 10
-141.2671747405
 20
59.3805311018
 10
-141.2594950044
 20
58.6840483905
 10
-141.2578145651
 20
58.4395117472
  0
LWPOLYLINE
  5
4CF
100
AcDbEntity
  8
0
100
AcDbPolyline
 62
253
  6
CONTINUOUS
 90
10
 70
0
 10
-138.5135004559
 20
69.8653196824
 10
-138.5154250434
 20
70.1679681203
 10
-138.5142170378
 20
70.4764109384
 10
-138.5098047327
 20
70.7898400975
 10
-138.5018223754
 20
71.1063498573
 10
-138.4905819721
 20
71.4261683638
 10
-138.4768207032
 20
71.751453601
 10
-138.4605266927
 20
72.0820570914
 10
-138.4412011679
 20
72.4157196039
 10
-138.4186531446
 20
72.7511739642
  0
LINE
  5
4D0
100
AcDbEntity
  8
0
100
AcDbLine
 62
7
  6
CONTINUOUS
 10
-137.6128837877
 20
-57.6996736781
 11
-137.5990096577
 21
-69.8670019088
  0
LINE
  5
4D1
100
AcDbEntity
  8
0
100
AcDbLine
 62
253
  6
CONTINUOUS
 10
-138.5271812556
 20
69.8654710919
 11
-138.5253359372
 21
57.6996747145
  0
LINE
  5
4D2
100
AcDbEntity
  8
0
100
AcDbLine
 62
253
  6
CONTINUOUS
 10
-140.297917638
 20
-57.6996737313
 11
-140.2979143741
 21
-63.0208783203
  0
LINE
  5
4D3
100
AcDbEntity
  8
0
100
AcDbLine
 62
253
  6
CONTINUOUS
 10
-140.297917638
 20
57.6996737313
 11
-140.2979143741
 21
63.0208783203
  0
LINE
  5
4D4
100
AcDbEntity
  8
0
100
AcDbLine
 62
7
  6
CONTINUOUS
 10
-137.6129169673
 20
57.6996736781
 11
-137.6128837877
 21
-57.6996736781
  0
LINE
  5
4D5
100
AcDbEntity
  8
0
100
AcDbLine
 62
7
  6
CONTINUOUS
 10
-138.5244371641
 20
-57.6985730542
 11
-138.5244371641
 21
57.6985730532
  0
LINE
  5
4D6
100
AcDbEntity
  8
0
100
AcDbLine
 62
253
  6
CONTINUOUS
 10
-138.5271812556
 20
-69.8654710919
 11
-138.5251916848
 21
-57.6985516588
  0
LINE
  5
4D7
100
AcDbEntity
  8
0
100
AcDbLine
 62
7
  6
CONTINUOUS
 10
-137.5990096577
 20
69.8670019087
 11
-137.6129169673
 21
57.6996736781
  0
LWPOLYLINE
  5
4D8
100
AcDbEntity
  8
0
100
AcDbPolyline
 62
253
  6
CONTINUOUS
 90
10
 70
0
 10
-138.5135004559
 20
-69.8653196824
 10
-138.5154250434
 20
-70.1679681203
 10
-138.5142170378
 20
-70.4764109384
 10
-138.5098047327
 20
-70.7898400975
 10
-138.5018223754
 20
-71.1063498573
 10
-138.4905819721
 20
-71.4261683638
 10
-138.4768207032
 20
-71.751453601
 10
-138.4605266927
 20
-72.0820570914
 10
-138.4412011679
 20
-72.4157196039
 10
-138.4186531446
 20
-72.7511739642
  0
LINE
  5
4D9
100
AcDbEntity
  8
0
100
AcDbLine
 62
253
  6
CONTINUOUS
 10
-141.2642321395
 20
-59.1562972669
 11
-141.2578145651
 21
-58.4395117472
  0
LWPOLYLINE
  5
4DA
100
AcDbEntity
  8
0
100
AcDbPolyline
 62
253
  6
CONTINUOUS
 90
10
 70
0
 10
-137.5990096577
 20
-69.8670019088
 10
-137.6032605605
 20
-70.1933333306
 10
-137.6043767984
 20
-70.5165436005
 10
-137.6023583713
 20
-70.8366327185
 10
-137.5950520475
 20
-71.153692488
 10
-137.5846110587
 20
-71.4676311055
 10
-137.5774951001
 20
-71.7781731611
 10
-137.5758574035
 20
-72.0852268514
 10
-137.5775447371
 20
-72.3888839797
 10
-137.5825571009
 20
-72.6891445459
  0
LINE
  5
4DB
100
AcDbEntity
  8
0
100
AcDbLine
 62
253
  6
CONTINUOUS
 10
-141.2704747666
 20
-59.5932563026
 11
-141.2642321395
 21
-59.1562972669
  0
LWPOLYLINE
  5
4DC
100
AcDbEntity
  8
0
100
AcDbPolyline
 62
253
  6
CONTINUOUS
 90
10
 70
0
 10
-140.8943309887
 20
-61.5435634031
 10
-140.9097093881
 20
-62.3471958171
 10
-140.9036519089
 20
-63.1509885774
 10
-140.8761551889
 20
-63.9540873893
 10
-140.8272376655
 20
-64.7553486698
 10
-140.7568938326
 20
-65.5542198981
 10
-140.6651000351
 20
-66.3508172016
 10
-140.5519176777
 20
-67.1447562804
 10
-140.4174872943
 20
-67.9350746739
 10
-140.2619204487
 20
-68.721097982
  0
LINE
  5
4DD
100
AcDbEntity
  8
0
100
AcDbLine
 62
253
  6
CONTINUOUS
 10
-141.2791639247
 20
-60.0849037146
 11
-141.2704747666
 21
-59.5932563026
  0
LINE
  5
4DE
100
AcDbEntity
  8
0
100
AcDbLine
 62
253
  6
CONTINUOUS
 10
-137.5408486404
 20
74.1679668911
 11
-137.5823406262
 21
72.6891558637
  0
LWPOLYLINE
  5
4DF
100
AcDbEntity
  8
0
100
AcDbPolyline
 62
253
  6
CONTINUOUS
 90
10
 70
0
 10
-137.5990096577
 20
69.8670019087
 10
-137.5873855499
 20
70.1932109163
 10
-137.5807402586
 20
70.516361573
 10
-137.5790737838
 20
70.8364538788
 10
-137.5857591986
 20
71.1536225669
 10
-137.5974234299
 20
71.4677329041
 10
-137.6039472578
 20
71.7783806906
 10
-137.6019576089
 20
72.0854311931
 10
-137.5948275567
 20
72.3890191449
 10
-137.5825571009
 20
72.6891445459
  0
LWPOLYLINE
  5
4E0
100
AcDbEntity
  8
0
100
AcDbPolyline
 62
253
  6
CONTINUOUS
 90
4
 70
0
 10
-141.2870366526
 20
-9.8301244552
 10
-141.2945271508
 20
-10.0285475154
 10
-141.3168926758
 20
-10.2257867021
 10
-141.3539781094
 20
-10.4208659612
  0
LWPOLYLINE
  5
4E1
100
AcDbEntity
  8
0
100
AcDbPolyline
 62
253
  6
CONTINUOUS
 90
4
 70
0
 10
-141.3539781094
 20
-10.4208659612
 10
-141.4056050163
 20
-10.6129833725
 10
-141.4714497804
 20
-10.8010327837
 10
-141.5509279263
 20
-10.9836445564
  0
LWPOLYLINE
  5
4E2
100
AcDbEntity
  8
0
100
AcDbPolyline
 62
253
  6
CONTINUOUS
 90
3
 70
0
 10
-141.5509279263
 20
-10.9836445564
 10
-141.643422186
 20
-11.1598304983
 10
-141.7484043249
 20
-11.3289509634
  0
LWPOLYLINE
  5
4E3
100
AcDbEntity
  8
RACCORDO
100
AcDbPolyline
 62
253
  6
CONTINUOUS
 90
3
 70
0
 10
-141.2870366398
 20
-0.5494667057
 10
-141.3735140407
 20
-0.5424827701
 10
-141.3765065377
 20
-0.5422065347
  0
LWPOLYLINE
  5
4E4
100
AcDbEntity
  8
0
100
AcDbPolyline
 62
253
  6
CONTINUOUS
 90
3
 70
0
 10
-141.5509279263
 20
10.9836445564
 10
-141.643422186
 20
11.1598304983
 10
-141.7484043249
 20
11.3289509634
  0
LWPOLYLINE
  5
4E5
100
AcDbEntity
  8
0
100
AcDbPolyline
 62
253
  6
CONTINUOUS
 90
4
 70
0
 10
-141.3539781094
 20
10.4208659612
 10
-141.4056050163
 20
10.6129833725
 10
-141.4714497804
 20
10.8010327837
 10
-141.5509279263
 20
10.9836445564
  0
LWPOLYLINE
  5
4E6
100
AcDbEntity
  8
0
100
AcDbPolyline
 62
253
  6
CONTINUOUS
 90
4
 70
0
 10
-137.4788313656
 20
75.6596981615
 10
-137.4780961319
 20
75.6344160935
 10
-137.4806006975
 20
75.5591596388
 10
-137.4861136656
 20
75.4352605677
  0
LINE
  5
4E7
100
AcDbEntity
  8
0
100
AcDbLine
 62
7
  6
CONTINUOUS
 10
-133.0470151513
 20
39.0
 11
-133.0470151513
 21
32.0
  0
LINE
  5
4E8
100
AcDbEntity
  8
0
100
AcDbLine
 62
7
  6
CONTINUOUS
 10
-133.0470151513
 20
-32.0
 11
-133.0470151513
 21
-39.0
  0
LINE
  5
4E9
100
AcDbEntity
  8
0
100
AcDbLine
 62
7
  6
CONTINUOUS
 10
-131.0569765513
 20
-31.8258941825
 11
-131.0569765513
 21
31.8258941825
  0
LINE
  5
4EA
100
AcDbEntity
  8
0
100
AcDbLine
 62
7
  6
CONTINUOUS
 10
-131.0569765513
 20
-39.1741058175
 11
-131.0569765513
 21
-75.9999711318
  0
LINE
  5
4EB
100
AcDbEntity
  8
0
100
AcDbLine
 62
7
  6
CONTINUOUS
 10
-131.0569765513
 20
39.1741058175
 11
-131.0569765513
 21
75.9999711318
  0
LWPOLYLINE
  5
4EC
100
AcDbEntity
  8
0
100
AcDbPolyline
 62
253
  6
CONTINUOUS
 90
5
 70
0
 10
-137.4788313656
 20
-75.6596981615
 10
-137.4780961319
 20
-75.6344160935
 10
-137.4806006975
 20
-75.5591596388
 10
-137.4861136656
 20
-75.4352605677
 10
-137.5067158428
 20
-75.0478116961
  0
LINE
  5
4ED
100
AcDbEntity
  8
0
100
AcDbLine
 62
253
  6
CONTINUOUS
 10
-141.7484043249
 20
-11.3289509634
 11
-141.8652336142
 21
-11.4902601783
  0
LINE
  5
4EE
100
AcDbEntity
  8
0
100
AcDbLine
 62
253
  6
CONTINUOUS
 10
-141.7484043249
 20
11.3289509634
 11
-141.8652336142
 21
11.4902601783
  0
LINE
  5
4EF
100
AcDbEntity
  8
0
100
AcDbLine
 62
253
  6
CONTINUOUS
 10
-142.057054049
 20
13.2999284734
 11
-141.255468845
 21
13.2999284856
  0
LINE
  5
4F0
100
AcDbEntity
  8
0
100
AcDbLine
 62
7
  6
CONTINUOUS
 10
-133.0470151513
 20
32.0
 11
-131.0569765513
 21
31.8258941825
  0
LINE
  5
4F1
100
AcDbEntity
  8
0
100
AcDbLine
 62
7
  6
CONTINUOUS
 10
-131.0569765513
 20
39.1741058175
 11
-133.0470151513
 21
39.0
  0
LINE
  5
4F2
100
AcDbEntity
  8
0
100
AcDbLine
 62
7
  6
CONTINUOUS
 10
-138.5244371641
 20
57.6985730532
 11
-141.255385453
 21
57.6985730532
  0
LINE
  5
4F3
100
AcDbEntity
  8
0
100
AcDbLine
 62
253
  6
CONTINUOUS
 10
-142.0570565943
 20
57.699673678
 11
-141.2555949999
 21
57.6996736781
  0
LWPOLYLINE
  5
4F4
100
AcDbEntity
  8
RACCORDO
100
AcDbPolyline
 62
253
  6
CONTINUOUS
 90
3
 70
0
 10
-141.1443148651
 20
62.8701658419
 10
-141.1450200281
 20
62.870210469
 10
-141.1479143991
 20
62.8714097921
  0
LWPOLYLINE
  5
4F5
100
AcDbEntity
  8
0
100
AcDbPolyline
 62
253
  6
CONTINUOUS
 90
6
 70
0
 10
-137.4788369828
 20
75.6597647411
 10
-137.6127951401
 20
75.6424670293
 10
-137.7365776148
 20
75.6073485232
 10
-137.852070338
 20
75.5560143311
 10
-137.9626652749
 20
75.4861901571
 10
-138.064469815
 20
75.3984825128
  0
LINE
  5
4F6
100
AcDbEntity
  8
0
100
AcDbLine
 62
7
  6
CONTINUOUS
 10
-137.5913569877
 20
75.6538038478
 11
-137.6119546831
 21
75.6524572857
  0
LINE
  5
4F7
100
AcDbEntity
  8
0
100
AcDbLine
 62
253
  6
CONTINUOUS
 10
-131.0569765513
 20
73.0348136178
 11
-137.5825571009
 21
72.6891445459
  0
LINE
  5
4F8
100
AcDbEntity
  8
0
100
AcDbLine
 62
7
  6
CONTINUOUS
 10
-131.0569765513
 20
75.9999711318
 11
-137.6131546228
 21
75.6526490898
  0
LWPOLYLINE
  5
4F9
100
AcDbEntity
  8
0
100
AcDbPolyline
 62
253
  6
CONTINUOUS
 90
7
 70
0
 10
-138.4831177672
 20
74.9756654107
 10
-138.4893052793
 20
74.9755127676
 10
-138.4939686811
 20
74.9764499508
 10
-138.4967116983
 20
74.9802142511
 10
-138.4979705022
 20
74.9853908226
 10
-138.4985148217
 20
74.9891951707
 10
-138.4989235958
 20
74.989882318
  0
LINE
  5
4FA
100
AcDbEntity
  8
0
100
AcDbLine
 62
253
  6
CONTINUOUS
 10
-138.5271812556
 20
69.8654710919
 11
-137.613716259
 21
69.8655091915
  0
LWPOLYLINE
  5
4FB
100
AcDbEntity
  8
0
100
AcDbPolyline
 62
253
  6
CONTINUOUS
 90
12
 70
0
 10
-138.305934558
 20
74.9547083581
 10
-138.3312532845
 20
74.9559679269
 10
-138.3521819725
 20
74.9648431874
 10
-138.3700705057
 20
74.9762790933
 10
-138.3875350829
 20
74.9816353706
 10
-138.4050036249
 20
74.9803296316
 10
-138.4201814819
 20
74.9803975924
 10
-138.433187418
 20
74.9807624225
 10
-138.445616681
 20
74.9776961436
 10
-138.4563574153
 20
74.9772513171
 10
-138.4659164312
 20
74.9783344201
 10
-138.4831177672
 20
74.9756654107
  0
LINE
  5
4FC
100
AcDbEntity
  8
0
100
AcDbLine
 62
253
  6
CONTINUOUS
 10
-138.2688181525
 20
72.7379961011
 11
-137.5823409626
 21
72.6891300959
  0
LWPOLYLINE
  5
4FD
100
AcDbEntity
  8
0
100
AcDbPolyline
 62
253
  6
CONTINUOUS
 90
3
 70
0
 10
-138.4188104669
 20
72.7497372541
 10
-138.3863545662
 20
72.7469642717
 10
-138.2688181525
 20
72.7379961011
  0
ARC
  5
4FE
100
AcDbEntity
  8
0
100
AcDbCircle
 62
253
  6
CONTINUOUS
 10
-78.4993083705
 20
-13.297275361
 40
3.6971475394
100
AcDbArc
 50
90.1018833151
 51
110.31713636
  0
ARC
  5
4FF
100
AcDbEntity
  8
0
100
AcDbCircle
 62
253
  6
CONTINUOUS
 10
-78.4993083704
 20
13.297275361
 40
3.6971475395
100
AcDbArc
 50
249.6828636403
 51
269.8981166848
  0
ARC
  5
500
100
AcDbEntity
  8
0
100
AcDbCircle
 62
253
  6
CONTINUOUS
 10
78.4993083704
 20
-13.2972753611
 40
3.697147425
100
AcDbArc
 50
69.6828636403
 51
89.8981166847
  0
ARC
  5
501
100
AcDbEntity
  8
0
100
AcDbCircle
 62
253
  6
CONTINUOUS
 10
78.4993083704
 20
13.2972753611
 40
3.697147425
100
AcDbArc
 50
270.1018833153
 51
290.3171363597
  0
ARC
  5
502
100
AcDbEntity
  8
0
100
AcDbCircle
 62
253
  6
CONTINUOUS
 10
-78.4993083704
 20
-13.2972753612
 40
1.9268892535
100
AcDbArc
 50
90.0788857732
 51
110.3170153949
  0
ARC
  5
503
100
AcDbEntity
  8
0
100
AcDbCircle
 62
253
  6
CONTINUOUS
 10
-78.4993083704
 20
13.2972753612
 40
1.9268892471
100
AcDbArc
 50
249.6829846053
 51
269.9211142269
  0
ARC
  5
504
100
AcDbEntity
  8
0
100
AcDbCircle
 62
253
  6
CONTINUOUS
 10
78.4993083704
 20
13.2972753611
 40
1.9268892046
100
AcDbArc
 50
270.0788945371
 51
290.3171363593
  0
ARC
  5
505
100
AcDbEntity
  8
0
100
AcDbCircle
 62
253
  6
CONTINUOUS
 10
78.4993083704
 20
-13.2972753611
 40
1.9268892045
100
AcDbArc
 50
69.6828636407
 51
89.9211054629
  0
ARC
  5
506
100
AcDbEntity
  8
0
100
AcDbCircle
 62
7
  6
CONTINUOUS
 10
77.218521
 20
-62.939323
 40
0.8893898871
100
AcDbArc
 50
292.842868527
 51
89.9995689956
  0
ARC
  5
507
100
AcDbEntity
  8
0
100
AcDbCircle
 62
7
  6
CONTINUOUS
 10
77.138015
 20
-62.939323
 40
0.352865
100
AcDbArc
 50
270.0010122403
 51
90.0009746536
  0
ARC
  5
508
100
AcDbEntity
  8
0
100
AcDbCircle
 62
7
  6
CONTINUOUS
 10
78.4993083704
 20
57.6996736781
 40
0.344905674
100
AcDbArc
 50
0.0018908268
 51
89.9981091736
  0
ARC
  5
509
100
AcDbEntity
  8
0
100
AcDbCircle
 62
7
  6
CONTINUOUS
 10
78.4993083704
 20
-57.6996736781
 40
0.3449056458
100
AcDbArc
 50
270.0018906358
 51
359.9981093643
  0
ARC
  5
50A
100
AcDbEntity
  8
0
100
AcDbCircle
 62
7
  6
CONTINUOUS
 10
-78.4993083704
 20
-57.6996736781
 40
0.3449055622
100
AcDbArc
 50
180.0018906353
 51
269.9981093646
  0
ARC
  5
50B
100
AcDbEntity
  8
0
100
AcDbCircle
 62
7
  6
CONTINUOUS
 10
-78.4993083704
 20
57.6996736781
 40
0.344905506
100
AcDbArc
 50
90.0018906357
 51
179.9981093642
  0
ARC
  5
50C
100
AcDbEntity
  8
0
100
AcDbCircle
 62
7
  6
CONTINUOUS
 10
-144.2870198293
 20
-9.5999217089
 40
2.9999831895
100
AcDbArc
 50
323.8177092841
 51
347.9753074698
  0
ARC
  5
50D
100
AcDbEntity
  8
0
100
AcDbCircle
 62
7
  6
CONTINUOUS
 10
-141.0618956128
 20
-59.0394473192
 40
0.9950193
100
AcDbArc
 50
155.2498023884
 51
216.9482851192
  0
ARC
  5
50E
100
AcDbEntity
  8
0
100
AcDbCircle
 62
7
  6
CONTINUOUS
 10
-137.5593198842
 20
-74.6590864783
 40
0.9950193
100
AcDbArc
 50
199.4155613381
 51
266.96751648
  0
ARC
  5
50F
100
AcDbEntity
  8
0
100
AcDbCircle
 62
7
  6
CONTINUOUS
 10
-141.0619587833
 20
-11.957584882
 40
0.9949437297
100
AcDbArc
 50
179.9981484249
 51
206.4193874968
  0
ARC
  5
510
100
AcDbEntity
  8
0
100
AcDbCircle
 62
7
  6
CONTINUOUS
 10
-141.0619587833
 20
-11.957584882
 40
0.9949437297
100
AcDbArc
 50
144.0386149579
 51
179.8713688117
  0
ARC
  5
511
100
AcDbEntity
  8
RACCORDO
100
AcDbCircle
 62
7
  6
CONTINUOUS
 10
-141.1771340874
 20
-0.5580377088
 40
0.2
100
AcDbArc
 50
123.4591368992
 51
175.459953263
  0
ARC
  5
512
100
AcDbEntity
  8
RACCORDO
100
AcDbCircle
 62
7
  6
CONTINUOUS
 10
-141.1771340874
 20
-8.4419622912
 40
0.2
100
AcDbArc
 50
184.540046737
 51
236.5379381118
  0
ARC
  5
513
100
AcDbEntity
  8
0
100
AcDbCircle
 62
7
  6
CONTINUOUS
 10
-144.2870198293
 20
9.5999217089
 40
2.9999831895
100
AcDbArc
 50
4.0440883706
 51
36.1822907159
  0
ARC
  5
514
100
AcDbEntity
  8
0
100
AcDbCircle
 62
7
  6
CONTINUOUS
 10
-141.0618956128
 20
59.0394473192
 40
0.9950193
100
AcDbArc
 50
143.0517152886
 51
207.2996648511
  0
ARC
  5
515
100
AcDbEntity
  8
0
100
AcDbCircle
 62
7
  6
CONTINUOUS
 10
-137.5605159955
 20
74.6590231128
 40
0.9950193
100
AcDbArc
 50
93.0324835218
 51
160.5844386637
  0
ARC
  5
516
100
AcDbEntity
  8
0
100
AcDbCircle
 62
7
  6
CONTINUOUS
 10
-141.0619587833
 20
11.9575848818
 40
0.9949437297
100
AcDbArc
 50
153.5808412787
 51
180.0018515679
  0
ARC
  5
517
100
AcDbEntity
  8
0
100
AcDbCircle
 62
7
  6
CONTINUOUS
 10
-141.0619587833
 20
11.9575848818
 40
0.9949437297
100
AcDbArc
 50
180.1286332183
 51
215.961385038
  0
ARC
  5
518
100
AcDbEntity
  8
RACCORDO
100
AcDbCircle
 62
7
  6
CONTINUOUS
 10
-140.9487514537
 20
62.8531308097
 40
0.2
100
AcDbArc
 50
174.7561394819
 51
186.6010127207
  0
ARC
  5
519
100
AcDbEntity
  8
0
100
AcDbCircle
 62
7
  6
CONTINUOUS
 10
-91.2581257389
 20
-58.3182032293
 40
50.1464299013
100
AcDbArc
 50
184.2677079439
 51
187.5996184208
  0
ARC
  5
51A
100
AcDbEntity
  8
0
100
AcDbCircle
 62
7
  6
CONTINUOUS
 10
-91.2581257389
 20
-58.3182032293
 40
50.0964299013
100
AcDbArc
 50
183.4829912727
 51
199.4346598633
  0
ARC
  5
51B
100
AcDbEntity
  8
RACCORDO
100
AcDbCircle
 62
7
  6
CONTINUOUS
 10
-91.5333939654
 20
-4.5
 40
50.0
100
AcDbArc
 50
175.459953263
 51
184.540046737
  0
ARC
  5
51C
100
AcDbEntity
  8
ASSI
100
AcDbCircle
 62
7
  6
CONTINUOUS
 10
-91.2581257389
 20
58.3182032293
 40
50.0964299013
100
AcDbArc
 50
160.5653401367
 51
165.1901459818
  0
ARC
  5
51D
100
AcDbEntity
  8
ASSI
100
AcDbCircle
 62
7
  6
CONTINUOUS
 10
-91.2581257389
 20
58.3182032293
 40
50.0964299013
100
AcDbArc
 50
175.378790843
 51
175.8807332342
  0
ARC
  5
51E
100
AcDbEntity
  8
0
100
AcDbCircle
 62
7
  6
CONTINUOUS
 10
-91.2581257389
 20
58.3182032293
 40
50.0964299013
100
AcDbArc
 50
175.8807332342
 51
176.5170087273
  0
ARC
  5
51F
100
AcDbEntity
  8
RACCORDO
100
AcDbCircle
 62
7
  6
CONTINUOUS
 10
-91.3571780671
 20
58.3016641182
 40
50.0
100
AcDbArc
 50
169.7718712479
 51
174.756139482
  0
ENDSEC
  0
SECTION
  2
OBJECTS
  0
DICTIONARY
  5
C
100
AcDbDictionary
280
0
281
1
  3
ACAD_GROUP
350
D
  3
ACAD_MLINESTYLE
350
17
  3
ACAD_LAYOUT
350
1A
  3
ACAD_PLOTSETTINGS
350
19
  3
ACAD_PLOTSTYLENAME
350
E
  0
DICTIONARY
  5
D
102
{ACAD_REACTORS
330
C
102
}
100
AcDbDictionary
280
0
281
1
  0
ACDBDICTIONARYWDFLT
  5
E
102
{ACAD_REACTORS
330
C
102
}
100
AcDbDictionary
281
1
  3
Normal
350
F
100
AcDbDictionaryWithDefault
340
F
  0
DICTIONARY
  5
17
102
{ACAD_REACTORS
330
C
102
}
100
AcDbDictionary
280
0
281
1
  3
Standard
350
18
  0
DICTIONARY
  5
19
102
{ACAD_REACTORS
330
C
102
}
100
AcDbDictionary
281
1
  0
DICTIONARY
  5
1A
102
{ACAD_REACTORS
330
C
102
}
100
AcDbDictionary
281
1
  3
Model
350
520
  3
Layout1
350
521
  0
ACDBPLACEHOLDER
  5
F
102
{ACAD_REACTORS
330
E
102
}
  0
MLINESTYLE
  5
18
102
{ACAD_REACTORS
330
17
102
}
100
AcDbMlineStyle
  2
STANDARD
 70
0
  3

 62
256
 51
90.0
 52
90.0
 71
2
 49
0.5
 62
256
  6
BYLAYER
 49
-0.5
 62
256
  6
BYLAYER
  0
LAYOUT
  5
520
102
{ACAD_REACTORS
330
1A
102
}
100
AcDbPlotSettings
  1

  2
none_device
  4
ISO_A4_(297.00_x_210.00_MM)
  6

 40
0.0
 41
0.0
 42
0.0
 43
0.0
 44
297.0
 45
210.0
 46
0.0
 47
0.0
 48
0.0
 49
0.0
140
0.0
141
0.0
142
1.0
143
1.0
 70
1024
 72
1
 73
0
 74
0
  7

 75
0
147
1.0
148
0.0
149
0.0
100
AcDbLayout
  1
Model
 70
0
 71
0
 10
0.0
 20
0.0
 11
297.0
 21
210.0
 12
0.0
 22
0.0
 32
0.0
 14
0.0
 24
0.0
 34
0.0
 15
0.0
 25
0.0
 35
0.0
146
0.0
 13
0.0
 23
0.0
 33
0.0
 16
1.0
 26
0.0
 36
0.0
 17
0.0
 27
1.0
 37
0.0
 76
0
330
213
345
0
346
0
  0
LAYOUT
  5
521
102
{ACAD_REACTORS
330
1A
102
}
100
AcDbPlotSettings
  1

  2
none_device
  4
ISO_A4_(297.00_x_210.00_MM)
  6

 40
0.0
 41
0.0
 42
0.0
 43
0.0
 44
297.0
 45
210.0
 46
0.0
 47
0.0
 48
0.0
 49
0.0
140
0.0
141
0.0
142
1.0
143
1.0
 70
0
 72
1
 73
0
 74
0
  7

 75
0
147
1.0
148
0.0
149
0.0
100
AcDbLayout
  1
Layout1
 70
0
 71
1
 10
0.0
 20
0.0
 11
297.0
 21
210.0
 12
0.0
 22
0.0
 32
0.0
 14
0.0
 24
0.0
 34
0.0
 15
0.0
 25
0.0
 35
0.0
146
0.0
 13
0.0
 23
0.0
 33
0.0
 16
1.0
 26
0.0
 36
0.0
 17
0.0
 27
1.0
 37
0.0
 76
0
330
214
345
0
346
0
  0
ENDSEC
  0
EOF
