  0
SECTION
  2
HEADER
  9
$ACADVER
  1
AC1021
  9
$DWGCODEPAGE
  3
ANSI_1252
  9
$EXTMAX
 10
297.0
 20
210.0
 30
0.0
  9
$EXTMIN
 10
0.0
 20
0.0
 30
0.0
  9
$LIMMIN
 10
0.0
 20
0.0
  9
$LIMMAX
 10
297.0
 20
210.0
  9
$VIEWCTR
 10
148.5
 20
105.0
  9
$VIEWSIZE
 40
210.0
  9
$CLAYER
  8
0
  9
$LTSCALE
 40
16.335
  9
$CELTYPE
  6
BYLAYER
  9
$DIMSCALE
 40
1.0
  9
$DIMASZ
 40
3.0
  9
$DIMEXO
 40
0.5
  9
$DIMDLI
 40
11.286
  9
$DIMEXE
 40
1.5
  9
$DIMCEN
 40
2.673
  9
$DIMLFAC
 40
1.0
  9
$DIMBLK
  1
_FILLED
  9
$DIMALT
 70
0
  9
$DIMALTF
 40
25.4
  9
$DIMTXT
 40
3.0
  9
$DIMTOL
 70
1
  9
$DIMLIM
 70
0
  9
$DIMTFAC
 40
1.0
  9
$DIMTP
 40
0.01
  9
$DIMTM
 40
0.01
  9
$DIMGAP
 40
0.625
  9
$DIMDSEP
 70
44
  9
$AUNITS
 70
0
  9
$PDMODE
 70
3
  9
$PDSIZE
 40
3.0
  9
$HANDSEED
  5
37F
  9
$TILEMODE
 70
1
  9
$MEASUREMENT
 70
1
  9
$INSUNITS
 70
4
  0
ENDSEC
  0
SECTION
  2
CLASSES
  0
CLASS
  1
ACDBDICTIONARYWDFLT
  2
AcDbDictionaryWithDefault
  3
AutoCAD 2000
 90
0
 91
1
280
0
281
0
  0
CLASS
  1
ACDBPLACEHOLDER
  2
AcDbPlaceHolder
  3
AutoCAD 2000
 90
0
 91
1
280
0
281
0
  0
CLASS
  1
LAYOUT
  2
AcDbLayout
  3
AutoCAD 2000
 90
0
 91
0
280
0
281
0
  0
ENDSEC
  0
SECTION
  2
TABLES
  0
TABLE
  2
VPORT
  5
8
100
AcDbSymbolTable
 70
2
  0
VPORT
  5
1F4
100
AcDbSymbolTableRecord
100
AcDbViewportTableRecord
  2
*ACTIVE
 70
0
 10
0.0
 20
0.0
 11
1.0
 21
1.0
 12
148.5
 22
105.0
 13
0.0
 23
0.0
 14
1.0
 24
1.0
 15
0.0
 25
0.0
 16
0.0
 26
0.0
 36
1.0
 17
0.0
 27
0.0
 37
0.0
 40
210.0
 41
1.4142857143
 42
50.0
 43
0.0
 44
0.0
 50
0.0
 51
0.0
 71
0
 72
100
 73
1
 74
1
 75
0
 76
0
 77
0
 78
0
  0
ENDTAB
  0
TABLE
  2
LTYPE
  5
5
100
AcDbSymbolTable
 70
6
  0
LTYPE
  5
14
100
AcDbSymbolTableRecord
100
AcDbLinetypeTableRecord
  2
BYBLOCK
 70
0
  3

 72
65
 73
0
 40
0.0
  0
LTYPE
  5
15
100
AcDbSymbolTableRecord
100
AcDbLinetypeTableRecord
  2
BYLAYER
 70
0
  3

 72
65
 73
0
 40
0.0
  0
LTYPE
  5
16
100
AcDbSymbolTableRecord
100
AcDbLinetypeTableRecord
  2
CONTINUOUS
 70
64
  3
Solid line
 72
65
 73
0
 40
0.0
  0
LTYPE
  5
1F5
100
AcDbSymbolTableRecord
100
AcDbLinetypeTableRecord
  2
CENTER
 70
64
  3
____ _ ____ _ ____ _ ____ _ ____ _ ____ _ ____
 72
65
 73
4
 40
0.6
 49
0.375
 74
0
 49
-0.075
 74
0
 49
0.075
 74
0
 49
-0.075
 74
0
  0
LTYPE
  5
1F6
100
AcDbSymbolTableRecord
100
AcDbLinetypeTableRecord
  2
HIDDEN
 70
64
  3
- - - - - - - - - - - - - - - - - - - -
 72
65
 73
2
 40
0.2
 49
0.1
 74
0
 49
-0.1
 74
0
  0
LTYPE
  5
1F7
100
AcDbSymbolTableRecord
100
AcDbLinetypeTableRecord
  2
PHANTOM
 70
64
  3
_____ _ _ _____ _ _ _____ _ _ _____
 72
65
 73
6
 40
0.8
 49
0.45
 74
0
 49
-0.05
 74
0
 49
0.1
 74
0
 49
-0.05
 74
0
 49
0.1
 74
0
 49
-0.05
 74
0
  0
LTYPE
  5
1F8
100
AcDbSymbolTableRecord
100
AcDbLinetypeTableRecord
  2
DOT
 70
64
  3
. . . . . . . . . . . . . . . . . . . .
 72
65
 73
2
 40
0.2
 49
0.1
 74
0
 49
-0.1
 74
0
  0
LTYPE
  5
1F9
100
AcDbSymbolTableRecord
100
AcDbLinetypeTableRecord
  2
DASHED
 70
64
  3
- - - - - - - - - - - - - - - - - - - -
 72
65
 73
2
 40
0.2
 49
0.1
 74
0
 49
-0.1
 74
0
  0
ENDTAB
  0
TABLE
  2
LAYER
  5
2
100
AcDbSymbolTable
 70
36
  0
LAYER
  5
10
100
AcDbSymbolTableRecord
100
AcDbLayerTableRecord
  2
0
 70
0
 62
7
  6
CONTINUOUS
370
-3
390
F
  0
LAYER
  5
1FA
100
AcDbSymbolTableRecord
100
AcDbLayerTableRecord
  2
DEFAULT_1
 70
0
 62
7
  6
CENTER
370
-3
390
F
  0
LAYER
  5
1FB
100
AcDbSymbolTableRecord
100
AcDbLayerTableRecord
  2
DEFAULT_2
 70
0
 62
7
  6
HIDDEN
370
-3
390
F
  0
LAYER
  5
1FC
100
AcDbSymbolTableRecord
100
AcDbLayerTableRecord
  2
DEFAULT_3
 70
0
 62
7
  6
PHANTOM
370
-3
390
F
  0
LAYER
  5
1FD
100
AcDbSymbolTableRecord
100
AcDbLayerTableRecord
  2
ASSI
 70
0
 62
7
  6
CONTINUOUS
370
-3
390
F
  0
LAYER
  5
1FE
100
AcDbSymbolTableRecord
100
AcDbLayerTableRecord
  2
COORDINATE
 70
0
 62
7
  6
CONTINUOUS
370
-3
390
F
  0
LAYER
  5
1FF
100
AcDbSymbolTableRecord
100
AcDbLayerTableRecord
  2
COORD_ORIGINE
 70
0
 62
7
  6
CONTINUOUS
370
-3
390
F
  0
LAYER
  5
200
100
AcDbSymbolTableRecord
100
AcDbLayerTableRecord
  2
COPY_PUBLISH
 70
0
 62
7
  6
CONTINUOUS
370
-3
390
F
  0
LAYER
  5
201
100
AcDbSymbolTableRecord
100
AcDbLayerTableRecord
  2
COSMETIC
 70
0
 62
7
  6
CONTINUOUS
370
-3
390
F
  0
LAYER
  5
202
100
AcDbSymbolTableRecord
100
AcDbLayerTableRecord
  2
COSMETICI
 70
0
 62
7
  6
CONTINUOUS
370
-3
390
F
  0
LAYER
  5
203
100
AcDbSymbolTableRecord
100
AcDbLayerTableRecord
  2
CURVE
 70
0
 62
7
  6
CONTINUOUS
370
-3
390
F
  0
LAYER
  5
204
100
AcDbSymbolTableRecord
100
AcDbLayerTableRecord
  2
DRAFT
 70
0
 62
7
  6
CONTINUOUS
370
-3
390
F
  0
LAYER
  5
205
100
AcDbSymbolTableRecord
100
AcDbLayerTableRecord
  2
IGES
 70
0
 62
7
  6
CONTINUOUS
370
-3
390
F
  0
LAYER
  5
206
100
AcDbSymbolTableRecord
100
AcDbLayerTableRecord
  2
IMPORT_IGES
 70
0
 62
7
  6
CONTINUOUS
370
-3
390
F
  0
LAYER
  5
207
100
AcDbSymbolTableRecord
100
AcDbLayerTableRecord
  2
NOTE
 70
0
 62
7
  6
CONTINUOUS
370
-3
390
F
  0
LAYER
  5
208
100
AcDbSymbolTableRecord
100
AcDbLayerTableRecord
  2
PIANI
 70
0
 62
7
  6
CONTINUOUS
370
-3
390
F
  0
LAYER
  5
209
100
AcDbSymbolTableRecord
100
AcDbLayerTableRecord
  2
PIANI_ORIGINE
 70
0
 62
7
  6
CONTINUOUS
370
-3
390
F
  0
LAYER
  5
20A
100
AcDbSymbolTableRecord
100
AcDbLayerTableRecord
  2
PIANI_RIFERIMENTO
 70
0
 62
7
  6
CONTINUOUS
370
-3
390
F
  0
LAYER
  5
20B
100
AcDbSymbolTableRecord
100
AcDbLayerTableRecord
  2
PUNTI
 70
0
 62
7
  6
CONTINUOUS
370
-3
390
F
  0
LAYER
  5
20C
100
AcDbSymbolTableRecord
100
AcDbLayerTableRecord
  2
RACCORDO
 70
0
 62
7
  6
CONTINUOUS
370
-3
390
F
  0
LAYER
  5
20D
100
AcDbSymbolTableRecord
100
AcDbLayerTableRecord
  2
SIMBOLI
 70
0
 62
7
  6
CONTINUOUS
370
-3
390
F
  0
LAYER
  5
20E
100
AcDbSymbolTableRecord
100
AcDbLayerTableRecord
  2
SMUSSO
 70
0
 62
7
  6
CONTINUOUS
370
-3
390
F
  0
LAYER
  5
20F
100
AcDbSymbolTableRecord
100
AcDbLayerTableRecord
  2
SNAPLINE
 70
0
 62
7
  6
CONTINUOUS
370
-3
390
F
  0
LAYER
  5
210
100
AcDbSymbolTableRecord
100
AcDbLayerTableRecord
  2
SUPERFICI
 70
0
 62
7
  6
CONTINUOUS
370
-3
390
F
  0
LAYER
  5
211
100
AcDbSymbolTableRecord
100
AcDbLayerTableRecord
  2
TRASH
 70
0
 62
7
  6
CONTINUOUS
370
-3
390
F
  0
LAYER
  5
212
100
AcDbSymbolTableRecord
100
AcDbLayerTableRecord
  2
XSEC_DATUMS
 70
0
 62
7
  6
CONTINUOUS
370
-3
390
F
  0
ENDTAB
  0
TABLE
  2
STYLE
  5
3
100
AcDbSymbolTable
 70
1
  0
STYLE
  5
11
100
AcDbSymbolTableRecord
100
AcDbTextStyleTableRecord
  2
STANDARD
 70
0
 40
0.0
 41
0.8
 50
0.0
 71
0
 42
0.2
  3
txt
  4

  0
STYLE
  5
213
100
AcDbSymbolTableRecord
100
AcDbTextStyleTableRecord
  2
TEXTSTYLE_1
 70
0
 40
0.0
 41
0.8
 50
0.0
 71
0
 42
0.2
  3
gdt
  4

  0
ENDTAB
  0
TABLE
  2
VIEW
  5
6
100
AcDbSymbolTable
 70
0
  0
ENDTAB
  0
TABLE
  2
UCS
  5
7
100
AcDbSymbolTable
 70
0
  0
ENDTAB
  0
TABLE
  2
APPID
  5
9
100
AcDbSymbolTable
 70
1
  0
APPID
  5
214
100
AcDbSymbolTableRecord
100
AcDbRegAppTableRecord
  2
ACAD
 70
0
  0
ENDTAB
  0
TABLE
  2
BLOCK_RECORD
  5
1
100
AcDbSymbolTable
 70
0
  0
BLOCK_RECORD
  5
215
100
AcDbSymbolTableRecord
100
AcDbBlockTableRecord
  2
*Model_Space
  0
BLOCK_RECORD
  5
216
100
AcDbSymbolTableRecord
100
AcDbBlockTableRecord
  2
*Paper_Space
  0
BLOCK_RECORD
  5
217
100
AcDbSymbolTableRecord
100
AcDbBlockTableRecord
  2
_FILLED
  0
BLOCK_RECORD
  5
218
100
AcDbSymbolTableRecord
100
AcDbBlockTableRecord
  2
*D0
  0
BLOCK_RECORD
  5
219
100
AcDbSymbolTableRecord
100
AcDbBlockTableRecord
  2
*D1
  0
BLOCK_RECORD
  5
21A
100
AcDbSymbolTableRecord
100
AcDbBlockTableRecord
  2
*D2
  0
ENDTAB
  0
TABLE
  2
DIMSTYLE
  5
A
100
AcDbSymbolTable
 70
1
100
AcDbDimStyleTable
 71
0
  0
DIMSTYLE
105
21B
100
AcDbSymbolTableRecord
100
AcDbDimStyleTableRecord
  2
STANDARD
 70
0
  3

  4

 40
1.0
 41
3.0
 42
0.5
 43
0.38
 44
1.5
 45
0.0
 46
0.0
 47
0.01
 48
0.01
140
3.0
141
0.09
142
0.0
143
25.4
144
1.0
145
0.0
146
1.0
147
0.625
 71
1.0
 72
0.0
 73
0
 74
0
 75
0
 76
0
 77
1
 78
8
170
0
171
1
172
0
173
0
174
0
175
0
176
0
177
0
178
0
270
2
271
2
272
2
273
2
274
2
275
0
280
0
281
0
282
0
283
1
284
8
285
0
286
0
287
3
288
0
340
11
278
44
341
217
342
217
343
217
344
217
  0
DIMSTYLE
105
21C
100
AcDbSymbolTableRecord
100
AcDbDimStyleTableRecord
  2
DIMSTYLE_1
 70
0
  3

  4

 40
1.0
 41
3.0
 42
0.5
 43
0.38
 44
1.5
 45
0.0
 46
0.0
 47
0.0
 48
0.0
140
3.0
141
0.09
142
0.0
143
25.4
144
1.0
145
0.0
146
1.0
147
0.75
 71
0.0
 72
0.0
 73
0
 74
0
 75
0
 76
0
 77
1
 78
8
170
0
171
1
172
0
173
0
174
0
175
0
176
0
177
0
178
0
270
2
271
1
272
1
273
2
274
2
275
0
280
0
281
0
282
0
283
1
284
8
285
0
286
0
287
3
288
0
340
11
278
44
341
217
342
217
343
217
344
217
  0
DIMSTYLE
105
21D
100
AcDbSymbolTableRecord
100
AcDbDimStyleTableRecord
  2
DIMSTYLE_2
 70
0
  3

  4

 40
1.0
 41
3.0
 42
0.5
 43
0.38
 44
1.5
 45
0.0
 46
0.0
 47
0.0
 48
0.0
140
3.0
141
0.09
142
0.0
143
25.4
144
1.0
145
0.0
146
1.0
147
0.75
 71
0.0
 72
0.0
 73
0
 74
0
 75
0
 76
0
 77
1
 78
8
170
0
171
1
172
0
173
0
174
0
175
0
176
0
177
0
178
0
270
2
271
2
272
2
273
2
274
2
275
0
280
0
281
0
282
0
283
1
284
8
285
0
286
0
287
3
288
0
340
11
278
44
341
217
342
217
343
217
344
217
  0
ENDTAB
  0
ENDSEC
  0
SECTION
  2
BLOCKS
  0
BLOCK
  5
20
100
AcDbEntity
  8
0
100
AcDbBlockBegin
  2
*Model_Space
 70
0
 10
0.0
 20
0.0
 30
0.0
  3
*Model_Space
  1

  0
ENDBLK
  5
21
100
AcDbEntity
  8
0
100
AcDbBlockEnd
  0
BLOCK
  5
1C
100
AcDbEntity
  8
0
100
AcDbBlockBegin
  2
*Paper_Space
 70
0
 10
0.0
 20
0.0
 30
0.0
  3
*Paper_Space
  1

  0
ENDBLK
  5
1D
100
AcDbEntity
  8
0
100
AcDbBlockEnd
  0
BLOCK
  5
21E
100
AcDbEntity
  8
0
100
AcDbBlockBegin
  2
_FILLED
 70
64
 10
0.0
 20
0.0
  3
_FILLED
  1

  0
SOLID
  5
21F
100
AcDbEntity
  8
0
  6
BYBLOCK
 62
0
100
AcDbTrace
 10
0.0
 20
0.0
 11
-1.0
 21
0.3166666667
 12
-1.0
 22
-0.3166666667
 13
-1.0
 23
-0.3166666667
  0
ENDBLK
  5
220
100
AcDbEntity
  8
0
  6
BYBLOCK
 62
0
100
AcDbBlockEnd
  0
BLOCK
  5
221
100
AcDbEntity
  8
0
100
AcDbBlockBegin
 62
7
  6
CONTINUOUS
  2
*D0
 70
65
 10
0.0
 20
0.0
  3
*D0
  1

  0
MTEXT
  5
222
100
AcDbEntity
  8
0
100
AcDbMText
 62
7
  6
CONTINUOUS
  7
STANDARD
 71
2
 72
1
 10
15.1519605838
 20
0.0130922693
 30
0.0
 11
0.0
 21
1.0
 31
0.0
 44
0.9
  1
44,4
 40
3.0
 41
13.1785714286
  0
LINE
  5
223
100
AcDbEntity
  8
0
100
AcDbLine
 62
7
  6
CONTINUOUS
 10
10.8862659911
 20
22.2245735569
 11
20.4019605838
 21
22.2245735569
  0
LINE
  5
224
100
AcDbEntity
  8
0
100
AcDbLine
 62
7
  6
CONTINUOUS
 10
10.8862659911
 20
-22.1983890182
 11
20.4019605838
 21
-22.1983890182
  0
LINE
  5
225
100
AcDbEntity
  8
0
100
AcDbLine
 62
7
  6
CONTINUOUS
 10
18.9019605838
 20
22.2245735569
 11
18.9019605838
 21
0.0130922693
  0
LINE
  5
226
100
AcDbEntity
  8
0
100
AcDbLine
 62
7
  6
CONTINUOUS
 10
18.9019605838
 20
-22.1983890182
 11
18.9019605838
 21
0.0130922693
  0
INSERT
  5
227
100
AcDbEntity
  8
0
100
AcDbBlockReference
 62
7
  6
CONTINUOUS
  2
_FILLED
 10
18.9019605838
 20
22.2245735569
 41
3.0
 42
3.0
 43
3.0
 50
90.0
  0
INSERT
  5
228
100
AcDbEntity
  8
0
100
AcDbBlockReference
 62
7
  6
CONTINUOUS
  2
_FILLED
 10
18.9019605838
 20
-22.1983890182
 41
3.0
 42
3.0
 43
3.0
 50
270.0
  0
ENDBLK
  5
229
100
AcDbEntity
  8
0
  6
BYBLOCK
 62
0
100
AcDbBlockEnd
  0
BLOCK
  5
22A
100
AcDbEntity
  8
0
100
AcDbBlockBegin
 62
7
  6
CONTINUOUS
  2
*D1
 70
65
 10
0.0
 20
0.0
  3
*D1
  1

  0
MTEXT
  5
22B
100
AcDbEntity
  8
0
100
AcDbMText
 62
7
  6
CONTINUOUS
  7
STANDARD
 71
2
 72
1
 10
-0.2314962006
 20
33.9745691842
 30
0.0
 11
0.999998834
 21
-0.0015271185
 31
0.0
 44
0.9
  1
22,3
 40
3.0
 41
12.8571428571
  0
LINE
  5
22C
100
AcDbEntity
  8
0
100
AcDbLine
 62
7
  6
CONTINUOUS
 10
-11.3862828163
 20
22.226627246
 11
-11.3717523402
 21
31.7415790719
  0
LINE
  5
22D
100
AcDbEntity
  8
0
100
AcDbLine
 62
7
  6
CONTINUOUS
 10
10.8874093737
 20
22.226627246
 11
10.9018879055
 21
31.7075645437
  0
LINE
  5
22E
100
AcDbEntity
  8
0
100
AcDbLine
 62
7
  6
CONTINUOUS
 10
-11.3740430179
 20
30.241580821
 11
-0.2372228951
 21
30.2245735569
  0
LINE
  5
22F
100
AcDbEntity
  8
0
100
AcDbLine
 62
7
  6
CONTINUOUS
 10
10.8995972277
 20
30.2075662928
 11
-0.2372228951
 21
30.2245735569
  0
INSERT
  5
230
100
AcDbEntity
  8
0
100
AcDbBlockReference
 62
7
  6
CONTINUOUS
  2
_FILLED
 10
-11.3740430179
 20
30.241580821
 41
3.0
 42
3.0
 43
3.0
 50
179.9125025199
  0
INSERT
  5
231
100
AcDbEntity
  8
0
100
AcDbBlockReference
 62
7
  6
CONTINUOUS
  2
_FILLED
 10
10.8995972277
 20
30.2075662928
 41
3.0
 42
3.0
 43
3.0
 50
359.9125025199
  0
ENDBLK
  5
232
100
AcDbEntity
  8
0
  6
BYBLOCK
 62
0
100
AcDbBlockEnd
  0
BLOCK
  5
233
100
AcDbEntity
  8
0
100
AcDbBlockBegin
 62
7
  6
CONTINUOUS
  2
*D2
 70
65
 10
0.0
 20
0.0
  3
*D2
  1

  0
MTEXT
  5
234
100
AcDbEntity
  8
0
100
AcDbMText
 62
7
  6
CONTINUOUS
  7
STANDARD
 71
1
 72
1
 10
-24.4203430393
 20
33.9745735569
 30
0.0
 11
1.0
 21
0.0
 31
0.0
 44
0.9
  1
6,7
 40
3.0
 41
9.6428571429
  0
LINE
  5
235
100
AcDbEntity
  8
0
100
AcDbLine
 62
7
  6
CONTINUOUS
 10
-30.2011481496
 20
13.6130922693
 11
-30.2011481496
 21
31.7245735569
  0
LINE
  5
236
100
AcDbEntity
  8
0
100
AcDbLine
 62
7
  6
CONTINUOUS
 10
-36.9010207879
 20
0.8699661722
 11
-36.9010207879
 21
31.7245735569
  0
LINE
  5
237
100
AcDbEntity
  8
0
100
AcDbLine
 62
7
  6
CONTINUOUS
 10
-30.2011481496
 20
30.2245735569
 11
-17.9917716107
 21
30.2245735569
  0
LINE
  5
238
100
AcDbEntity
  8
0
100
AcDbLine
 62
7
  6
CONTINUOUS
 10
-17.9917716107
 20
30.2245735569
 11
-33.5510844687
 21
30.2245735569
  0
LINE
  5
239
100
AcDbEntity
  8
0
100
AcDbLine
 62
7
  6
CONTINUOUS
 10
-36.9010207879
 20
30.2245735569
 11
-40.9010207879
 21
30.2245735569
  0
LINE
  5
23A
100
AcDbEntity
  8
0
100
AcDbLine
 62
7
  6
CONTINUOUS
 10
-40.9010207879
 20
30.2245735569
 11
-33.5510844687
 21
30.2245735569
  0
INSERT
  5
23B
100
AcDbEntity
  8
0
100
AcDbBlockReference
 62
7
  6
CONTINUOUS
  2
_FILLED
 10
-30.2011481496
 20
30.2245735569
 41
3.0
 42
3.0
 43
3.0
 50
180.0
  0
INSERT
  5
23C
100
AcDbEntity
  8
0
100
AcDbBlockReference
 62
7
  6
CONTINUOUS
  2
_FILLED
 10
-36.9010207879
 20
30.2245735569
 41
3.0
 42
3.0
 43
3.0
  0
ENDBLK
  5
23D
100
AcDbEntity
  8
0
  6
BYBLOCK
 62
0
100
AcDbBlockEnd
  0
ENDSEC
  0
SECTION
  2
ENTITIES
  0
DIMENSION
  5
23E
100
AcDbEntity
  8
0
100
AcDbDimension
 62
7
  6
CONTINUOUS
  2
*D0
 10
18.9019605838
 20
-22.1983890182
 11
18.9019605838
 21
-0.4154787914
 70
160
 71
2
 42
44.4229625751
  3
DIMSTYLE_1
100
AcDbAlignedDimension
 13
10.3862659911
 23
22.2245735569
 14
10.3862659911
 24
-22.1983890182
 50
270.0
100
AcDbRotatedDimension
  0
DIMENSION
  5
23F
100
AcDbEntity
  8
0
100
AcDbDimension
 62
7
  6
CONTINUOUS
  2
*D1
 10
10.8995972277
 20
30.2075662928
 11
-0.6657938919
 21
30.2252280363
 70
160
 71
2
 42
22.2736662178
  3
DIMSTYLE_1
100
AcDbAlignedDimension
 13
-11.3870463755
 23
21.7266278291
 14
10.8866458144
 24
21.7266278291
 50
359.9125025199
100
AcDbRotatedDimension
  0
DIMENSION
  5
240
100
AcDbEntity
  8
0
100
AcDbDimension
 62
7
  6
CONTINUOUS
  2
*D2
 10
-36.9010207879
 20
30.2245735569
 11
-21.6346294384
 21
30.2245735569
 70
160
 71
1
 42
6.6998726383
  3
DIMSTYLE_2
100
AcDbAlignedDimension
 13
-30.2011481496
 23
13.1130922693
 14
-36.9010207879
 24
0.3699661722
 50
180.0
100
AcDbRotatedDimension
  0
LWPOLYLINE
  5
241
100
AcDbEntity
  8
RACCORDO
100
AcDbPolyline
 62
253
  6
CONTINUOUS
 90
15
 70
0
 10
-11.2992025664
 20
20.5549981258
 10
-11.2978740935
 20
20.5561806477
 10
-11.2948957741
 20
20.5573592567
 10
-11.2902774634
 20
20.5585300526
 10
-11.2840344433
 20
20.5596891613
 10
-11.2761873719
 20
20.5608327474
 10
-11.266762215
 20
20.5619570268
 10
-11.2557901605
 20
20.5630582792
 10
-11.2433075146
 20
20.5641328606
 10
-11.2293555825
 20
20.5651772152
 10
-11.2139805307
 20
20.5661878872
 10
-11.1972332353
 20
20.5671615324
 10
-11.1791691128
 20
20.568094929
 10
-11.1598479373
 20
20.5689849883
 10
-11.1393336422
 20
20.5698287652
  0
LINE
  5
242
100
AcDbEntity
  8
RACCORDO
100
AcDbLine
 62
7
  6
CONTINUOUS
 10
3.1440098452
 20
-22.1983890182
 11
3.4920646925
 21
-22.1667950577
  0
LINE
  5
243
100
AcDbEntity
  8
RACCORDO
100
AcDbLine
 62
7
  6
CONTINUOUS
 10
-8.0559901548
 20
-22.1983890182
 11
-7.7079353075
 21
-22.1667950577
  0
LINE
  5
244
100
AcDbEntity
  8
RACCORDO
100
AcDbLine
 62
7
  6
CONTINUOUS
 10
-10.8866665522
 20
-22.1983890182
 11
-8.0559901548
 21
-22.1983890182
  0
LINE
  5
245
100
AcDbEntity
  8
DRAFT
100
AcDbLine
 62
7
  6
CONTINUOUS
 10
-3.6444104063
 20
-22.1983890182
 11
3.1440098452
 21
-22.1983890182
  0
LINE
  5
246
100
AcDbEntity
  8
RACCORDO
100
AcDbLine
 62
7
  6
CONTINUOUS
 10
7.5555895937
 20
-22.1983890182
 11
10.3862659911
 21
-22.1983890182
  0
LINE
  5
247
100
AcDbEntity
  8
RACCORDO
100
AcDbLine
 62
7
  6
CONTINUOUS
 10
-7.5347302267
 20
-22.1615542798
 11
-4.1656703344
 21
-22.1615542798
  0
LINE
  5
248
100
AcDbEntity
  8
RACCORDO
100
AcDbLine
 62
7
  6
CONTINUOUS
 10
3.6652697733
 20
-22.1615542798
 11
7.0343296656
 21
-22.1615542798
  0
LINE
  5
249
100
AcDbEntity
  8
RACCORDO
100
AcDbLine
 62
253
  6
CONTINUOUS
 10
10.3154052306
 20
-21.9856338603
 11
-10.8158057918
 21
-21.9856338603
  0
LINE
  5
24A
100
AcDbEntity
  8
RACCORDO
100
AcDbLine
 62
7
  6
CONTINUOUS
 10
-3.6444104063
 20
-22.1983890182
 11
-3.9924652536
 21
-22.1667950577
  0
LINE
  5
24B
100
AcDbEntity
  8
RACCORDO
100
AcDbLine
 62
7
  6
CONTINUOUS
 10
7.5555895937
 20
-22.1983890182
 11
7.2075347464
 21
-22.1667950577
  0
LWPOLYLINE
  5
24C
100
AcDbEntity
  8
RACCORDO
100
AcDbPolyline
 62
253
  6
CONTINUOUS
 90
17
 70
0
 10
-11.2992025664
 20
-20.5288135872
 10
-11.297874112
 20
-20.5299961097
 10
-11.2948958096
 20
-20.5311747192
 10
-11.2902775143
 20
-20.5323455158
 10
-11.2840345081
 20
-20.5335046253
 10
-11.276187449
 20
-20.5346482121
 10
-11.2667623028
 20
-20.5357724923
 10
-11.2557902572
 20
-20.5368737455
 10
-11.2433076188
 20
-20.5379483276
 10
-11.2293556924
 20
-20.538992683
 10
-11.2139806449
 20
-20.5400033559
 10
-11.197233352
 20
-20.5409770019
 10
-11.1791692306
 20
-20.5419103992
 10
-11.1598480547
 20
-20.5428004594
 10
-11.1393337577
 20
-20.543644237
 10
-11.1176942215
 20
-20.5444389402
 10
-11.0713293377
 20
-20.5458707755
  0
LINE
  5
24D
100
AcDbEntity
  8
RACCORDO
100
AcDbLine
 62
253
  6
CONTINUOUS
 10
10.6389330811
 20
-20.5436442266
 11
10.594600382
 21
-20.5451819273
  0
LINE
  5
24E
100
AcDbEntity
  8
RACCORDO
100
AcDbLine
 62
253
  6
CONTINUOUS
 10
10.594600382
 20
-20.5451819273
 11
10.5463567547
 21
-20.5465031564
  0
LINE
  5
24F
100
AcDbEntity
  8
RACCORDO
100
AcDbLine
 62
253
  6
CONTINUOUS
 10
10.5463567547
 20
-20.5465031564
 11
10.4948402215
 21
-20.5475904407
  0
LINE
  5
250
100
AcDbEntity
  8
RACCORDO
100
AcDbLine
 62
253
  6
CONTINUOUS
 10
10.4948402215
 20
-20.5475904407
 11
10.4407320888
 21
-20.5484294007
  0
LINE
  5
251
100
AcDbEntity
  8
RACCORDO
100
AcDbLine
 62
253
  6
CONTINUOUS
 10
10.4407320888
 20
-20.5484294007
 11
10.3847479371
 21
-20.5490089413
  0
LINE
  5
252
100
AcDbEntity
  8
RACCORDO
100
AcDbLine
 62
253
  6
CONTINUOUS
 10
10.3847479371
 20
-20.5490089413
 11
10.3276281571
 21
-20.549321398
  0
LINE
  5
253
100
AcDbEntity
  8
RACCORDO
100
AcDbLine
 62
253
  6
CONTINUOUS
 10
10.3276281571
 20
-20.549321398
 11
-10.7992786943
 21
-20.5493555616
  0
LINE
  5
254
100
AcDbEntity
  8
RACCORDO
100
AcDbLine
 62
253
  6
CONTINUOUS
 10
-10.8566836086
 20
-20.5491989134
 11
-10.7992787188
 21
-20.5493760555
  0
LINE
  5
255
100
AcDbEntity
  8
RACCORDO
100
AcDbLine
 62
253
  6
CONTINUOUS
 10
-10.9133293178
 20
-20.548752175
 11
-10.8566836086
 21
-20.5491989134
  0
LINE
  5
256
100
AcDbEntity
  8
RACCORDO
100
AcDbLine
 62
253
  6
CONTINUOUS
 10
-10.9684667058
 20
-20.5480417485
 11
-10.9133293178
 21
-20.548752175
  0
LINE
  5
257
100
AcDbEntity
  8
RACCORDO
100
AcDbLine
 62
253
  6
CONTINUOUS
 10
-11.0213665797
 20
-20.5470770291
 11
-10.9684667058
 21
-20.5480417485
  0
LINE
  5
258
100
AcDbEntity
  8
RACCORDO
100
AcDbLine
 62
253
  6
CONTINUOUS
 10
-11.0713293377
 20
-20.5458707755
 11
-11.0213665797
 21
-20.5470770291
  0
LWPOLYLINE
  5
259
100
AcDbEntity
  8
RACCORDO
100
AcDbPolyline
 62
253
  6
CONTINUOUS
 90
28
 70
0
 10
-11.315729337
 20
-21.4863181853
 10
-11.3148579936
 20
-21.5153338969
 10
-11.3122999783
 20
-21.5442515436
 10
-11.3080639362
 20
-21.5729733908
 10
-11.302164184
 20
-21.6014023659
 10
-11.2946206613
 20
-21.6294423862
 10
-11.2854588632
 20
-21.6569986832
 10
-11.274709754
 20
-21.6839781238
 10
-11.262409663
 20
-21.710289524
 10
-11.2486001613
 20
-21.7358439577
 10
-11.2333279213
 20
-21.7605550575
 10
-11.2166445594
 20
-21.7843393058
 10
-11.1986064611
 20
-21.8071163177
 10
-11.1792745904
 20
-21.8288091125
 10
-11.1587142843
 20
-21.8493443739
 10
-11.1369950314
 20
-21.8686526977
 10
-11.1141902373
 20
-21.8866688264
 10
-11.0903769764
 20
-21.90333187
 10
-11.0656357318
 20
-21.9185855113
 10
-11.0400501225
 20
-21.9323781968
 10
-11.0137066216
 20
-21.9446633104
 10
-10.9866942637
 20
-21.9553993315
 10
-10.9591043438
 20
-21.9645499748
 10
-10.9310301089
 20
-21.9720843135
 10
-10.9025664432
 20
-21.9779768832
 10
-10.8738095469
 20
-21.9822077685
 10
-10.8448566111
 20
-21.9847626699
 10
-10.8158054894
 20
-21.9856329526
  0
LWPOLYLINE
  5
25A
100
AcDbEntity
  8
RACCORDO
100
AcDbPolyline
 62
253
  6
CONTINUOUS
 90
28
 70
0
 10
-11.315729337
 20
21.5125027239
 10
-11.3148579931
 20
21.5415184449
 10
-11.3122999762
 20
21.5704361
 10
-11.3080639317
 20
21.5991579547
 10
-11.3021641765
 20
21.6275869363
 10
-11.2946206502
 20
21.655626962
 10
-11.285458848
 20
21.6831832634
 10
-11.2747097346
 20
21.7101627072
 10
-11.2624096394
 20
21.7364741096
 10
-11.2486001334
 20
21.7620285445
 10
-11.2333278896
 20
21.7867396444
 10
-11.2166445241
 20
21.8105238919
 10
-11.1986064226
 20
21.8333009021
 10
-11.1792745495
 20
21.8549936946
 10
-11.1587142416
 20
21.8755289529
 10
-11.1369949876
 20
21.8948372731
 10
-11.1141901932
 20
21.9128533979
 10
-11.0903769329
 20
21.9295164373
 10
-11.0656356897
 20
21.9447700743
 10
-11.0400500826
 20
21.9585627555
 10
-11.0137065848
 20
21.970847865
 10
-10.9866942306
 20
21.9815838822
 10
-10.959104315
 20
21.9907345221
 10
-10.9310300852
 20
21.9982688578
 10
-10.902566425
 20
22.0041614251
 10
-10.8738095345
 20
22.0083923086
 10
-10.8448566047
 20
22.010947209
 10
-10.8158054894
 20
22.0118174913
  0
LWPOLYLINE
  5
25B
100
AcDbEntity
  8
RACCORDO
100
AcDbPolyline
 62
253
  6
CONTINUOUS
 90
9
 70
0
 10
-11.3101577253
 20
21.4422880554
 10
-11.3108288571
 20
21.4567655366
 10
-11.3115086103
 20
21.4696350772
 10
-11.3121970363
 20
21.4808883918
 10
-11.3128940836
 20
21.4905337657
 10
-11.3135961933
 20
21.4985227325
 10
-11.3143021789
 20
21.5048391368
 10
-11.3150132268
 20
21.5094991339
 10
-11.315729337
 20
21.5125027239
  0
LWPOLYLINE
  5
25C
100
AcDbEntity
  8
RACCORDO
100
AcDbPolyline
 62
253
  6
CONTINUOUS
 90
22
 70
0
 10
-11.2918287531
 20
0.367251061
 10
-11.2912674287
 20
0.3523070341
 10
-11.2895911454
 20
0.3374465657
 10
-11.2868092763
 20
0.3227527457
 10
-11.282937376
 20
0.3083077319
 10
-11.277997094
 20
0.2941922914
 10
-11.2720160536
 20
0.2804853489
 10
-11.2650276973
 20
0.2672635444
 10
-11.2570710998
 20
0.2546008051
 10
-11.2481907497
 20
0.2425679328
 10
-11.2384363007
 20
0.2312322069
 10
-11.2278622934
 20
0.2206570087
 10
-11.2165278515
 20
0.2109014674
 10
-11.2044963498
 20
0.2020201289
 10
-11.1918350609
 20
0.1940626509
 10
-11.1786147787
 20
0.1870735257
 10
-11.1649094223
 20
0.181091831
 10
-11.150795623
 20
0.1761510116
 10
-11.1363522957
 20
0.1722786923
 10
-11.1216601978
 20
0.1694965237
 10
-11.1068014774
 20
0.1678200608
 10
-11.0918592141
 20
0.1672586764
  0
LINE
  5
25D
100
AcDbEntity
  8
RACCORDO
100
AcDbLine
 62
253
  6
CONTINUOUS
 10
-11.3088516103
 20
21.4087216598
 11
-11.3101577253
 21
21.4422880554
  0
LINE
  5
25E
100
AcDbEntity
  8
RACCORDO
100
AcDbLine
 62
253
  6
CONTINUOUS
 10
-10.8102337171
 20
21.9065083513
 11
-10.8115845759
 21
21.9475100974
  0
LINE
  5
25F
100
AcDbEntity
  8
RACCORDO
100
AcDbLine
 62
253
  6
CONTINUOUS
 10
-11.3075968612
 20
21.3691052735
 11
-11.3088516103
 21
21.4087216598
  0
LINE
  5
260
100
AcDbEntity
  8
RACCORDO
100
AcDbLine
 62
253
  6
CONTINUOUS
 10
-11.3064031314
 20
21.3237202242
 11
-11.3075968612
 21
21.3691052735
  0
LINE
  5
261
100
AcDbEntity
  8
RACCORDO
100
AcDbLine
 62
253
  6
CONTINUOUS
 10
-10.8089276403
 20
21.8561306789
 11
-10.8102337171
 21
21.9065083513
  0
LINE
  5
262
100
AcDbEntity
  8
RACCORDO
100
AcDbLine
 62
253
  6
CONTINUOUS
 10
-11.3047446254
 20
21.2455460372
 11
-11.3064031314
 21
21.3237202242
  0
LINE
  5
263
100
AcDbEntity
  8
RACCORDO
100
AcDbLine
 62
253
  6
CONTINUOUS
 10
-10.8070684997
 20
21.7637449214
 11
-10.8089276403
 21
21.8561306789
  0
LINE
  5
264
100
AcDbEntity
  8
RACCORDO
100
AcDbLine
 62
253
  6
CONTINUOUS
 10
-11.3028176362
 20
21.1243335487
 11
-11.3047446254
 21
21.2455460372
  0
LINE
  5
265
100
AcDbEntity
  8
RACCORDO
100
AcDbLine
 62
253
  6
CONTINUOUS
 10
-10.8048208204
 20
21.6114145171
 11
-10.8070684997
 21
21.7637449214
  0
LINE
  5
266
100
AcDbEntity
  8
RACCORDO
100
AcDbLine
 62
253
  6
CONTINUOUS
 10
-11.3009364514
 20
20.9501252933
 11
-11.3028176362
 21
21.1243335487
  0
LINE
  5
267
100
AcDbEntity
  8
RACCORDO
100
AcDbLine
 62
253
  6
CONTINUOUS
 10
-10.8020666948
 20
21.329094893
 11
-10.8048208204
 21
21.6114145171
  0
LINE
  5
268
100
AcDbEntity
  8
RACCORDO
100
AcDbLine
 62
253
  6
CONTINUOUS
 10
-11.2995541046
 20
20.7176415037
 11
-11.3009364514
 21
20.9501252933
  0
LINE
  5
269
100
AcDbEntity
  8
RACCORDO
100
AcDbLine
 62
253
  6
CONTINUOUS
 10
-10.7997908388
 20
20.8795828257
 11
-10.8020666948
 21
21.329094893
  0
LINE
  5
26A
100
AcDbEntity
  8
RACCORDO
100
AcDbLine
 62
7
  6
CONTINUOUS
 10
-11.4002002805
 20
-13.0869077307
 11
-11.3870463755
 21
-21.7004432904
  0
LINE
  5
26B
100
AcDbEntity
  8
RACCORDO
100
AcDbLine
 62
253
  6
CONTINUOUS
 10
-11.2980439579
 20
18.8733816298
 11
-11.2995541046
 21
20.7176415037
  0
LINE
  5
26C
100
AcDbEntity
  8
RACCORDO
100
AcDbLine
 62
253
  6
CONTINUOUS
 10
-10.7970606662
 20
17.2092394887
 11
-10.7997908388
 21
20.8795828257
  0
LINE
  5
26D
100
AcDbEntity
  8
RACCORDO
100
AcDbLine
 62
253
  6
CONTINUOUS
 10
-11.2943988288
 20
12.1455332168
 11
-11.2980439579
 21
18.8733816298
  0
LINE
  5
26E
100
AcDbEntity
  8
RACCORDO
100
AcDbLine
 62
253
  6
CONTINUOUS
 10
-10.7944754
 20
12.1586722514
 11
-10.7970606662
 21
17.2092394887
  0
LINE
  5
26F
100
AcDbEntity
  8
RACCORDO
100
AcDbLine
 62
253
  6
CONTINUOUS
 10
-11.2927037076
 20
7.0983134329
 11
-11.2943988288
 21
12.1455332168
  0
LINE
  5
270
100
AcDbEntity
  8
RACCORDO
100
AcDbLine
 62
253
  6
CONTINUOUS
 10
-10.7927814927
 20
7.1069931472
 11
-10.7944754
 21
12.1586722514
  0
LINE
  5
271
100
AcDbEntity
  8
RACCORDO
100
AcDbLine
 62
7
  6
CONTINUOUS
 10
-11.4002002805
 20
-0.2868848854
 11
-11.4002002805
 21
-13.0869077307
  0
LINE
  5
272
100
AcDbEntity
  8
RACCORDO
100
AcDbLine
 62
7
  6
CONTINUOUS
 10
-11.4002002805
 20
0.313069424
 11
-11.4002002805
 21
13.1130922693
  0
LINE
  5
273
100
AcDbEntity
  8
RACCORDO
100
AcDbLine
 62
253
  6
CONTINUOUS
 10
-11.2918290432
 20
0.367250916
 11
-11.2927037076
 21
7.0983134329
  0
LINE
  5
274
100
AcDbEntity
  8
RACCORDO
100
AcDbLine
 62
253
  6
CONTINUOUS
 10
-10.7919049349
 20
0.16983103
 11
-10.7927814927
 21
7.1069931472
  0
LINE
  5
275
100
AcDbEntity
  8
RACCORDO
100
AcDbLine
 62
253
  6
CONTINUOUS
 10
-11.2927037076
 20
-7.0721288942
 11
-11.2918290432
 21
-0.3410663774
  0
LINE
  5
276
100
AcDbEntity
  8
RACCORDO
100
AcDbLine
 62
253
  6
CONTINUOUS
 10
-10.7924130539
 20
-5.3966919218
 11
-10.7919049349
 21
-0.1436464914
  0
LINE
  5
277
100
AcDbEntity
  8
RACCORDO
100
AcDbLine
 62
253
  6
CONTINUOUS
 10
-10.7944754
 20
-12.1324877128
 11
-10.7924130539
 21
-5.3966919218
  0
LINE
  5
278
100
AcDbEntity
  8
RACCORDO
100
AcDbLine
 62
253
  6
CONTINUOUS
 10
-11.2951617152
 20
-13.8015194183
 11
-11.2927037076
 21
-7.0721288942
  0
LWPOLYLINE
  5
279
100
AcDbEntity
  8
RACCORDO
100
AcDbPolyline
 62
253
  6
CONTINUOUS
 90
3
 70
0
 10
-11.2980439579
 20
-18.8471970912
 10
-11.2969842798
 20
-17.1654436248
 10
-11.2951617152
 20
-13.8015194183
  0
LWPOLYLINE
  5
27A
100
AcDbEntity
  8
RACCORDO
100
AcDbPolyline
 62
253
  6
CONTINUOUS
 90
3
 70
0
 10
-10.7981202332
 20
-18.8662940211
 10
-10.7970606662
 20
-17.1830549502
 10
-10.7944754
 20
-12.1324877128
  0
LINE
  5
27B
100
AcDbEntity
  8
RACCORDO
100
AcDbLine
 62
7
  6
CONTINUOUS
 10
-11.4002002805
 20
13.1130922693
 11
-11.3870463755
 21
21.7266278291
  0
LINE
  5
27C
100
AcDbEntity
  8
RACCORDO
100
AcDbLine
 62
253
  6
CONTINUOUS
 10
-11.2999032563
 20
-20.7710552479
 11
-11.2980439579
 21
-18.8471970912
  0
LINE
  5
27D
100
AcDbEntity
  8
RACCORDO
100
AcDbLine
 62
253
  6
CONTINUOUS
 10
-10.8007136333
 20
-21.0862006576
 11
-10.7981202332
 21
-18.8662940211
  0
LINE
  5
27E
100
AcDbEntity
  8
RACCORDO
100
AcDbLine
 62
253
  6
CONTINUOUS
 10
-10.8033424901
 20
-21.4513615489
 11
-10.8007136333
 21
-21.0862006576
  0
LINE
  5
27F
100
AcDbEntity
  8
RACCORDO
100
AcDbLine
 62
253
  6
CONTINUOUS
 10
-11.3016137416
 20
-20.9962632847
 11
-11.2999032563
 21
-20.7710552479
  0
LINE
  5
280
100
AcDbEntity
  8
RACCORDO
100
AcDbLine
 62
253
  6
CONTINUOUS
 10
-11.3032662502
 20
-21.1301103338
 11
-11.3016137416
 21
-20.9962632847
  0
LINE
  5
281
100
AcDbEntity
  8
RACCORDO
100
AcDbLine
 62
253
  6
CONTINUOUS
 10
-10.8059082108
 20
-21.6653604468
 11
-10.8033424901
 21
-21.4513615489
  0
LINE
  5
282
100
AcDbEntity
  8
RACCORDO
100
AcDbLine
 62
253
  6
CONTINUOUS
 10
-10.8076729494
 20
-21.7705329686
 11
-10.8059082108
 21
-21.6653604468
  0
LINE
  5
283
100
AcDbEntity
  8
RACCORDO
100
AcDbLine
 62
253
  6
CONTINUOUS
 10
-11.3052792503
 20
-21.246742691
 11
-11.3032662502
 21
-21.1301103338
  0
LINE
  5
284
100
AcDbEntity
  8
RACCORDO
100
AcDbLine
 62
253
  6
CONTINUOUS
 10
-10.8089276403
 20
-21.8299461408
 11
-10.8076729494
 21
-21.7705329686
  0
LINE
  5
285
100
AcDbEntity
  8
RACCORDO
100
AcDbLine
 62
253
  6
CONTINUOUS
 10
-11.3069923878
 20
-21.3209474894
 11
-11.3052792503
 21
-21.246742691
  0
LINE
  5
286
100
AcDbEntity
  8
RACCORDO
100
AcDbLine
 62
253
  6
CONTINUOUS
 10
-10.8102337171
 20
-21.8803238132
 11
-10.8089276403
 21
-21.8299461408
  0
LINE
  5
287
100
AcDbEntity
  8
RACCORDO
100
AcDbLine
 62
253
  6
CONTINUOUS
 10
-11.3082166272
 20
-21.3634482071
 11
-11.3069923878
 21
-21.3209474894
  0
LWPOLYLINE
  5
288
100
AcDbEntity
  8
RACCORDO
100
AcDbPolyline
 62
253
  6
CONTINUOUS
 90
22
 70
0
 10
-11.2918287531
 20
-0.3410665224
 10
-11.2912674304
 20
-0.326122519
 10
-11.2895911522
 20
-0.3112620723
 10
-11.2868092911
 20
-0.2965682718
 10
-11.2829374014
 20
-0.2821232754
 10
-11.2779971321
 20
-0.2680078497
 10
-11.2720161058
 20
-0.2543009185
 10
-11.2650277643
 20
-0.2410791217
 10
-11.2570711817
 20
-0.2284163867
 10
-11.2481908459
 20
-0.2163835148
 10
-11.2384364096
 20
-0.2050477857
 10
-11.2278624131
 20
-0.1944725811
 10
-11.2165279789
 20
-0.1847170304
 10
-11.2044964816
 20
-0.1758356801
 10
-11.191835193
 20
-0.1678781885
 10
-11.1786149066
 20
-0.1608890487
 10
-11.1649095412
 20
-0.154907339
 10
-11.1507957279
 20
-0.1499665053
 10
-11.1363523816
 20
-0.1460941733
 10
-11.1216602596
 20
-0.1433119943
 10
-11.1068015105
 20
-0.1416355246
 10
-11.0918592141
 20
-0.1410741378
  0
LWPOLYLINE
  5
289
100
AcDbEntity
  8
RACCORDO
100
AcDbPolyline
 62
253
  6
CONTINUOUS
 90
7
 70
0
 10
-10.8115845759
 20
21.9475100974
 10
-10.8122729409
 20
21.9644050586
 10
-10.812969917
 20
21.9788572776
 10
-10.8136720276
 20
21.9908428059
 10
-10.8143781138
 20
22.0003415152
 10
-10.8150893346
 20
22.0073373084
 10
-10.8158056898
 20
22.0118183989
  0
LWPOLYLINE
  5
28A
100
AcDbEntity
  8
RACCORDO
100
AcDbPolyline
 62
253
  6
CONTINUOUS
 90
8
 70
0
 10
-10.8158056898
 20
-21.9856338602
 10
-10.8150893346
 20
-21.9811527699
 10
-10.8143781139
 20
-21.9741569767
 10
-10.8136720276
 20
-21.9646582675
 10
-10.812969917
 20
-21.9526727393
 10
-10.812272941
 20
-21.9382205203
 10
-10.8115845759
 20
-21.9213255592
 10
-10.8102337171
 20
-21.8803238132
  0
LWPOLYLINE
  5
28B
100
AcDbEntity
  8
RACCORDO
100
AcDbPolyline
 62
253
  6
CONTINUOUS
 90
11
 70
0
 10
-11.315729337
 20
-21.4863181853
 10
-11.3150132268
 20
-21.4833145953
 10
-11.3143021789
 20
-21.4786545982
 10
-11.3135961933
 20
-21.472338194
 10
-11.3128940836
 20
-21.4643492273
 10
-11.3121970363
 20
-21.4547038534
 10
-11.3115086103
 20
-21.4434505388
 10
-11.3108288571
 20
-21.4305809983
 10
-11.3101577253
 20
-21.4161035171
 10
-11.3094986193
 20
-21.4000914179
 10
-11.3082166272
 20
-21.3634482071
  0
LINE
  5
28C
100
AcDbEntity
  8
RACCORDO
100
AcDbLine
 62
253
  6
CONTINUOUS
 10
-11.4002002805
 20
0.313069424
 11
-11.2918290432
 21
0.367250916
  0
LINE
  5
28D
100
AcDbEntity
  8
RACCORDO
100
AcDbLine
 62
253
  6
CONTINUOUS
 10
-11.2002002794
 20
0.1130922693
 11
-11.0918592141
 21
0.1672586764
  0
LINE
  5
28E
100
AcDbEntity
  8
RACCORDO
100
AcDbLine
 62
253
  6
CONTINUOUS
 10
-11.2918290432
 20
-0.3410663774
 11
-11.4002002805
 21
-0.2868848854
  0
LINE
  5
28F
100
AcDbEntity
  8
RACCORDO
100
AcDbLine
 62
253
  6
CONTINUOUS
 10
-11.0918592141
 20
-0.1410741378
 11
-11.2002002794
 21
-0.0869077307
  0
LINE
  5
290
100
AcDbEntity
  8
RACCORDO
100
AcDbLine
 62
253
  6
CONTINUOUS
 10
-11.3870463755
 20
-21.7004432904
 11
-11.315729337
 21
-21.4863181853
  0
LINE
  5
291
100
AcDbEntity
  8
RACCORDO
100
AcDbLine
 62
253
  6
CONTINUOUS
 10
-11.315729337
 20
21.5125027239
 11
-11.3870463755
 21
21.7266278291
  0
LWPOLYLINE
  5
292
100
AcDbEntity
  8
RACCORDO
100
AcDbPolyline
 62
253
  6
CONTINUOUS
 90
76
 70
0
 10
-1.6708080483
 20
4.5139924494
 10
-1.6696355775
 20
4.572489428
 10
-1.6660076156
 20
4.6309302749
 10
-1.6599241625
 20
4.6893149894
 10
-1.6513827606
 20
4.747785893
 10
-1.6403858676
 20
4.8062006628
 10
-1.6269408564
 20
4.8641323321
 10
-1.6110157879
 20
4.9215776353
 10
-1.5926426012
 20
4.9785398397
 10
-1.5719244866
 20
5.0346017815
 10
-1.5488357478
 20
5.0897457959
 10
-1.5234020812
 20
5.1439895523
 10
-1.4958037662
 20
5.1969688909
 10
-1.4660438247
 20
5.2486397803
 10
-1.4341192348
 20
5.2990462591
 10
-1.4002012108
 20
5.3479562735
 10
-1.3642923452
 20
5.3953564008
 10
-1.3263900454
 20
5.4412600721
 10
-1.2866577482
 20
5.4854755161
 10
-1.2450760649
 20
5.5280119108
 10
-1.2016643841
 20
5.5688600871
 10
-1.1566443085
 20
5.6078007541
 10
-1.1099983212
 20
5.6448285569
 10
-1.0617439392
 20
5.6799488596
 10
-1.0121553153
 20
5.712958451
 10
-0.9612307451
 20
5.7438397728
 10
-0.9089719331
 20
5.7726103922
 10
-0.8556581459
 20
5.7991197866
 10
-0.8012877459
 20
5.8233546779
 10
-0.7458623707
 20
5.8453283522
 10
-0.6896662006
 20
5.8649301325
 10
-0.632694119
 20
5.8821489836
 10
-0.5749512424
 20
5.8969959469
 10
-0.516737101
 20
5.9093934608
 10
-0.4580469489
 20
5.9193291615
 10
-0.398885532
 20
5.9268154167
 10
-0.3395666174
 20
5.9318117613
 10
-0.2800898918
 20
5.9343047149
 10
-0.2204556686
 20
5.9343077592
 10
-0.1609786554
 20
5.9318208717
 10
-0.1016591345
 20
5.9268305612
 10
-0.0424968237
 20
5.9193503176
 10
0.016194416
 20
5.9094205896
 10
0.0744098659
 20
5.8970289804
 10
0.1321542447
 20
5.882187883
 10
0.1891278475
 20
5.8649749304
 10
0.245325454
 20
5.8453791089
 10
0.3007522846
 20
5.8234114262
 10
0.355124296
 20
5.7991825465
 10
0.4084397141
 20
5.7726793231
 10
0.460700313
 20
5.7439148949
 10
0.5116273717
 20
5.7130393557
 10
0.5612193956
 20
5.6800350821
 10
0.6094778792
 20
5.6449196885
 10
0.656128586
 20
5.6078961246
 10
0.7011543755
 20
5.5689585383
 10
0.7445723882
 20
5.5281127725
 10
0.7861598089
 20
5.4855793203
 10
0.8258969029
 20
5.4413673936
 10
0.863803405
 20
5.3954677716
 10
0.899715704
 20
5.3480732983
 10
0.9336357647
 20
5.2991716706
 10
0.9655616224
 20
5.2487751834
 10
0.9953237714
 20
5.1971135785
 10
1.022925608
 20
5.14414327
 10
1.0483637359
 20
5.0899078366
 10
1.0714584604
 20
5.0347677693
 10
1.092184809
 20
4.9787043562
 10
1.1105677542
 20
4.9217363043
 10
1.1265025199
 20
4.8642802355
 10
1.139957229
 20
4.8063319217
 10
1.1509637586
 20
4.7478955892
 10
1.1595129637
 20
4.6894005443
 10
1.165601796
 20
4.63098989
 10
1.1692333039
 20
4.5725205248
 10
1.1704074872
 20
4.5139924494
  0
LINE
  5
293
100
AcDbEntity
  8
RACCORDO
100
AcDbLine
 62
253
  6
CONTINUOUS
 10
-10.8866665522
 20
-22.1983890182
 11
-10.8158057918
 21
-21.9856338603
  0
LWPOLYLINE
  5
294
100
AcDbEntity
  8
RACCORDO
100
AcDbPolyline
 62
253
  6
CONTINUOUS
 90
7
 70
0
 10
10.591458653
 20
-0.1410741378
 10
10.5907771461
 20
-0.1412100514
 10
10.5893048445
 20
-0.1413447857
 10
10.5870417481
 20
-0.1414783404
 10
10.5839776853
 20
-0.141611072
 10
10.5801228279
 20
-0.1417426241
 10
10.5755076906
 20
-0.1418719278
  0
LWPOLYLINE
  5
295
100
AcDbEntity
  8
RACCORDO
100
AcDbPolyline
 62
253
  6
CONTINUOUS
 90
5
 70
0
 10
10.7914284819
 20
-0.3410664311
 10
10.7903074448
 20
-0.3412097613
 10
10.7878492089
 20
-0.3413519206
 10
10.7840606225
 20
-0.3414928598
 10
10.7789523575
 20
-0.3416328436
  0
LINE
  5
296
100
AcDbEntity
  8
RACCORDO
100
AcDbLine
 62
253
  6
CONTINUOUS
 10
-10.8158057917
 20
22.011818399
 11
-10.8866665522
 21
22.2245735569
  0
LWPOLYLINE
  5
297
100
AcDbEntity
  8
RACCORDO
100
AcDbPolyline
 62
253
  6
CONTINUOUS
 90
76
 70
0
 10
-1.6708080483
 20
-4.4878079107
 10
-1.6696535177
 20
-4.429299616
 10
-1.6660425749
 20
-4.3708468128
 10
-1.6599752199
 20
-4.3124495018
 10
-1.6514490282
 20
-4.2539652927
 10
-1.6404664244
 20
-4.1955365777
 10
-1.6270346819
 20
-4.137590533
 10
-1.611121839
 20
-4.0801304217
 10
-1.5927598574
 20
-4.0231529851
 10
-1.5720518952
 20
-3.9670756191
 10
-1.5489722417
 20
-3.9119160129
 10
-1.5235466077
 20
-3.8576564836
 10
-1.4959552842
 20
-3.8046613704
 10
-1.4662013055
 20
-3.752974755
 10
-1.4342816374
 20
-3.702552563
 10
-1.4003674681
 20
-3.6536269017
 10
-1.3644613901
 20
-3.6062111877
 10
-1.326560811
 20
-3.5602920116
 10
-1.2868291419
 20
-3.5160612426
 10
-1.2452469739
 20
-3.4735096828
 10
-1.2018337158
 20
-3.4326465369
 10
-1.1568110053
 20
-3.3936912786
 10
-1.1101613121
 20
-3.356649269
 10
-1.0619021664
 20
-3.3215151532
 10
-1.0123077969
 20
-3.2884923319
 10
-0.9613764826
 20
-3.257598374
 10
-0.9091099445
 20
-3.228815716
 10
-0.8557875732
 20
-3.2022950595
 10
-0.8014077111
 20
-3.1780496942
 10
-0.745972016
 20
-3.1560663349
 10
-0.6897648518
 20
-3.1364558206
 10
-0.6327810827
 20
-3.119229203
 10
-0.5750258446
 20
-3.1043754337
 10
-0.5167989093
 20
-3.091972201
 10
-0.4580955166
 20
-3.0820318904
 10
-0.3989204269
 20
-3.0745421184
 10
-0.3395876924
 20
-3.0695434198
 10
-0.280096997
 20
-3.0670492988
 10
-0.220448657
 20
-3.0670462518
 10
-0.1609576738
 20
-3.0695343014
 10
-0.1016243326
 20
-3.0745269606
 10
-0.0424483482
 20
-3.0820107156
 10
0.0162561331
 20
-3.0919450482
 10
0.0744843783
 20
-3.1043423711
 10
0.1322411205
 20
-3.1191902695
 10
0.1892264128
 20
-3.1364109836
 10
0.2454350154
 20
-3.1560155342
 10
0.3008721682
 20
-3.1779928971
 10
0.3552536438
 20
-3.2022322458
 10
0.4085776482
 20
-3.2287467262
 10
0.4608459754
 20
-3.2575231878
 10
0.5117797807
 20
-3.2884113584
 10
0.561377553
 20
-3.3214288572
 10
0.6096408034
 20
-3.3565580594
 10
0.6562952202
 20
-3.3935958268
 10
0.7013236498
 20
-3.4325480024
 10
0.7447432457
 20
-3.4734087367
 10
0.7863311572
 20
-3.5159573535
 10
0.8260676296
 20
-3.5601846054
 10
0.8639724177
 20
-3.6060997329
 10
0.8998819349
 20
-3.6535097918
 10
0.9337981455
 20
-3.7024270621
 10
0.9657190852
 20
-3.7528392566
 10
0.9954752752
 20
-3.8045165812
 10
1.0230701245
 20
-3.8575026565
 10
1.0485002239
 20
-3.9117538545
 10
1.0715858677
 20
-3.966909509
 10
1.092302069
 20
-4.0229883463
 10
1.1106738147
 20
-4.0799716338
 10
1.1265963591
 20
-4.1374425183
 10
1.1400378024
 20
-4.1954052202
 10
1.1510300443
 20
-4.2538555147
 10
1.1595640385
 20
-4.3123638835
 10
1.1656367692
 20
-4.3707871537
 10
1.1692512522
 20
-4.4292684964
 10
1.1704074872
 20
-4.4878079107
  0
LWPOLYLINE
  5
298
100
AcDbEntity
  8
RACCORDO
100
AcDbPolyline
 62
253
  6
CONTINUOUS
 90
76
 70
0
 10
-1.5708232788
 20
-4.4869077307
 10
-1.5697184324
 20
-4.4326760567
 10
-1.5663685759
 20
-4.3783073982
 10
-1.5607511729
 20
-4.3238960095
 10
-1.5528420336
 20
-4.2695046765
 10
-1.5426293851
 20
-4.2152655783
 10
-1.5301279573
 20
-4.161377508
 10
-1.5153437387
 20
-4.1079372191
 10
-1.4982877113
 20
-4.055044641
 10
-1.4790137747
 20
-4.0028973073
 10
-1.457556672
 20
-3.9515953547
 10
-1.4339496345
 20
-3.9012237281
 10
-1.4082725692
 20
-3.8519465908
 10
-1.3805968763
 20
-3.8038786789
 10
-1.350962164
 20
-3.7570681576
 10
-1.319412496
 20
-3.7115726918
 10
-1.2860138683
 20
-3.6674778513
 10
-1.2508228447
 20
-3.6248492572
 10
-1.2138657071
 20
-3.5837168524
 10
-1.1751922388
 20
-3.5441413428
 10
-1.1348807669
 20
-3.5062079462
 10
-1.0929993803
 20
-3.4699841247
 10
-1.0496128782
 20
-3.4355300535
 10
-1.0048027285
 20
-3.4029144131
 10
-0.9586679476
 20
-3.3722104443
 10
-0.9112966267
 20
-3.3434754136
 10
-0.8627663619
 20
-3.3167550618
 10
-0.8131657318
 20
-3.2920971716
 10
-0.7625859102
 20
-3.2695456213
 10
-0.7111129829
 20
-3.249137374
 10
-0.6588302046
 20
-3.2309048345
 10
-0.6058281494
 20
-3.2148796243
 10
-0.5522013424
 20
-3.2010903579
 10
-0.4980403589
 20
-3.1895605096
 10
-0.4434382049
 20
-3.1803104451
 10
-0.388492941
 20
-3.1733573382
 10
-0.333303848
 20
-3.168714
 10
-0.2779685211
 20
-3.1663886847
 10
-0.2225837591
 20
-3.1663855026
 10
-0.1672480848
 20
-3.1687044646
 10
-0.112058269
 20
-3.1733414845
 10
-0.0571119394
 20
-3.1802883288
 10
-0.002508467
 20
-3.1895321911
 10
0.0516541257
 20
-3.2010559174
 10
0.1052827868
 20
-3.2148391453
 10
0.1582867318
 20
-3.2308583426
 10
0.2105713405
 20
-3.2490848416
 10
0.2620461478
 20
-3.2694870335
 10
0.3126280012
 20
-3.2920325417
 10
0.3622306621
 20
-3.3166843179
 10
0.4107631265
 20
-3.3433985518
 10
0.4581373592
 20
-3.3721278015
 10
0.5042758777
 20
-3.4028264963
 10
0.5490903889
 20
-3.4354373421
 10
0.5924818937
 20
-3.4698872152
 10
0.6343692796
 20
-3.5061078746
 10
0.6746872354
 20
-3.5440388622
 10
0.7133665114
 20
-3.5836116048
 10
0.7503287016
 20
-3.6247406227
 10
0.7855242707
 20
-3.6673652912
 10
0.8189265018
 20
-3.7114548628
 10
0.8504783683
 20
-3.756942605
 10
0.8801148071
 20
-3.8037437664
 10
0.9077932371
 20
-3.8518029028
 10
0.9334738781
 20
-3.9010717227
 10
0.9570853661
 20
-3.9514357658
 10
0.9785489181
 20
-4.0027340382
 10
0.997831166
 20
-4.0548828055
 10
1.0148964336
 20
-4.1077811222
 10
1.0296903305
 20
-4.161231715
 10
1.0422014493
 20
-4.215135267
 10
1.0524231032
 20
-4.2693945323
 10
1.0603398281
 20
-4.3238092214
 10
1.0659630053
 20
-4.3782465806
 10
1.0693165674
 20
-4.4326442117
 10
1.0704227177
 20
-4.4869077307
  0
LWPOLYLINE
  5
299
100
AcDbEntity
  8
RACCORDO
100
AcDbPolyline
 62
253
  6
CONTINUOUS
 90
76
 70
0
 10
-1.5708232788
 20
4.5130922693
 10
-1.5697004627
 20
4.5673134354
 10
-1.5663334962
 20
4.6216708045
 10
-1.5606998537
 20
4.6760701644
 10
-1.5527753138
 20
4.7304487494
 10
-1.5425481541
 20
4.7846744365
 10
-1.5300332254
 20
4.8385485446
 10
-1.5152365083
 20
4.8919743796
 10
-1.4981689752
 20
4.9448520596
 10
-1.4788846185
 20
4.9969841772
 10
-1.4574181492
 20
5.0482706822
 10
-1.4338027713
 20
5.098626665
 10
-1.4081184713
 20
5.1478880391
 10
-1.380436594
 20
5.195940182
 10
-1.3507967137
 20
5.2427349423
 10
-1.319243011
 20
5.2882146112
 10
-1.2858414521
 20
5.3322936858
 10
-1.2506485528
 20
5.3749066151
 10
-1.2136907032
 20
5.4160234466
 10
-1.1750176655
 20
5.4555835297
 10
-1.1347077094
 20
5.4935017369
 10
-1.0928289833
 20
5.5297106736
 10
-1.0494462374
 20
5.5641502408
 10
-1.0046408831
 20
5.5967518261
 10
-0.9585119781
 20
5.6274422638
 10
-0.9111475519
 20
5.6561643642
 10
-0.8626251279
 20
5.6828724489
 10
-0.8130333018
 20
5.7075188058
 10
-0.7624631764
 20
5.7300596234
 10
-0.7110007483
 20
5.7504579972
 10
-0.6587292535
 20
5.7686815896
 10
-0.6057391832
 20
5.7846988342
 10
-0.552124961
 20
5.7984811622
 10
-0.4979771076
 20
5.8100051548
 10
-0.443388534
 20
5.8192504861
 10
-0.3884571913
 20
5.8262000081
 10
-0.3332822782
 20
5.8308409414
 10
-0.2779612824
 20
5.8331650515
 10
-0.2225908942
 20
5.8331682305
 10
-0.1672695513
 20
5.8308504678
 10
-0.1120939161
 20
5.8262158468
 10
-0.0571615086
 20
5.8192725816
 10
-0.0025716181
 20
5.8100334467
 10
0.0515778425
 20
5.7985155705
 10
0.1051939166
 20
5.7847392755
 10
0.1581858741
 20
5.7687280384
 10
0.2104591966
 20
5.7505104813
 10
0.2619235021
 20
5.7301181576
 10
0.3124956565
 20
5.707583377
 10
0.3620895105
 20
5.6829431289
 10
0.4106141313
 20
5.6562411568
 10
0.4579814661
 20
5.6275248327
 10
0.5041141052
 20
5.5968396643
 10
0.5489238171
 20
5.5642428693
 10
0.5923115609
 20
5.5298074969
 10
0.6341962805
 20
5.4936017204
 10
0.6745127143
 20
5.4556859213
 10
0.7131915531
 20
5.4161286048
 10
0.7501544484
 20
5.3750151602
 10
0.7853518863
 20
5.3324061571
 10
0.8187570426
 20
5.2883323505
 10
0.8503129391
 20
5.2428604014
 10
0.8799545415
 20
5.1960749954
 10
0.9076391513
 20
5.1480316221
 10
0.9333270228
 20
5.0987785586
 10
0.9569468468
 20
5.0484301521
 10
0.97841976
 20
4.9971473234
 10
0.9977124225
 20
4.945013773
 10
1.0147891906
 20
4.8921303582
 10
1.0295955815
 20
4.8386942272
 10
1.0421201982
 20
4.7848046501
 10
1.0523563622
 20
4.7305588121
 10
1.0602884889
 20
4.6761568891
 10
1.0659279093
 20
4.6217315786
 10
1.0692985881
 20
4.5673452581
 10
1.0704227177
 20
4.5130922693
  0
LINE
  5
29A
100
AcDbEntity
  8
DRAFT
100
AcDbLine
 62
7
  6
CONTINUOUS
 10
8.26226571
 20
-0.0869077307
 11
7.9997997195
 21
-0.113088334
  0
LINE
  5
29B
100
AcDbEntity
  8
RACCORDO
100
AcDbLine
 62
253
  6
CONTINUOUS
 10
10.5755076906
 20
-0.1418719278
 11
10.5639840213
 21
-0.14212375
  0
LINE
  5
29C
100
AcDbEntity
  8
RACCORDO
100
AcDbLine
 62
253
  6
CONTINUOUS
 10
10.7789523575
 20
-0.3416328436
 11
10.7648345132
 21
-0.3419078674
  0
LINE
  5
29D
100
AcDbEntity
  8
RACCORDO
100
AcDbLine
 62
253
  6
CONTINUOUS
 10
10.5639840213
 20
-0.14212375
 11
10.5412813435
 21
-0.1424785047
  0
LINE
  5
29E
100
AcDbEntity
  8
RACCORDO
100
AcDbLine
 62
253
  6
CONTINUOUS
 10
10.7648345132
 20
-0.3419078674
 11
10.7342051293
 21
-0.3423016771
  0
LINE
  5
29F
100
AcDbEntity
  8
RACCORDO
100
AcDbLine
 62
253
  6
CONTINUOUS
 10
10.5412813435
 20
-0.1424785047
 11
10.4904271284
 21
-0.1429881517
  0
LINE
  5
2A0
100
AcDbEntity
  8
RACCORDO
100
AcDbLine
 62
253
  6
CONTINUOUS
 10
10.7342051293
 20
-0.3423016771
 11
10.6419578831
 21
-0.3429880365
  0
LINE
  5
2A1
100
AcDbEntity
  8
RACCORDO
100
AcDbLine
 62
253
  6
CONTINUOUS
 10
10.4904271284
 20
-0.1429881517
 11
10.3831873379
 21
-0.1435212342
  0
LINE
  5
2A2
100
AcDbEntity
  8
RACCORDO
100
AcDbLine
 62
253
  6
CONTINUOUS
 10
10.6419578831
 20
-0.3429880365
 11
10.4443340335
 21
-0.3436486993
  0
LINE
  5
2A3
100
AcDbEntity
  8
RACCORDO
100
AcDbLine
 62
253
  6
CONTINUOUS
 10
-10.9665336024
 20
0.1693417707
 11
-10.8382925903
 21
0.1697995442
  0
LINE
  5
2A4
100
AcDbEntity
  8
RACCORDO
100
AcDbLine
 62
253
  6
CONTINUOUS
 10
10.4443340335
 20
-0.3436486993
 11
-10.791888462
 21
-0.3437816264
  0
LINE
  5
2A5
100
AcDbEntity
  8
RACCORDO
100
AcDbLine
 62
253
  6
CONTINUOUS
 10
10.3831873379
 20
-0.1435212342
 11
-10.7919049349
 21
-0.1436464914
  0
LINE
  5
2A6
100
AcDbEntity
  8
DRAFT
100
AcDbLine
 62
7
  6
CONTINUOUS
 10
-8.5002002805
 20
-0.113088334
 11
7.9997997195
 21
-0.113088334
  0
LINE
  5
2A7
100
AcDbEntity
  8
RACCORDO
100
AcDbLine
 62
7
  6
CONTINUOUS
 10
-11.2002002794
 20
-0.0869077307
 11
-8.7626662711
 21
-0.0869077307
  0
LINE
  5
2A8
100
AcDbEntity
  8
RACCORDO
100
AcDbLine
 62
7
  6
CONTINUOUS
 10
8.26226571
 20
-0.0869077307
 11
10.6997997183
 21
-0.0869077307
  0
LINE
  5
2A9
100
AcDbEntity
  8
RACCORDO
100
AcDbLine
 62
7
  6
CONTINUOUS
 10
10.6997997183
 20
0.1130922693
 11
8.26226571
 21
0.1130922693
  0
LINE
  5
2AA
100
AcDbEntity
  8
RACCORDO
100
AcDbLine
 62
7
  6
CONTINUOUS
 10
-8.7626662711
 20
0.1130922693
 11
-11.2002002794
 21
0.1130922693
  0
LINE
  5
2AB
100
AcDbEntity
  8
DRAFT
100
AcDbLine
 62
7
  6
CONTINUOUS
 10
7.9997997195
 20
0.1392728727
 11
-8.5002002805
 21
0.1392728727
  0
LINE
  5
2AC
100
AcDbEntity
  8
RACCORDO
100
AcDbLine
 62
253
  6
CONTINUOUS
 10
-10.8382925903
 20
0.1697995442
 11
10.2915043738
 21
0.16983103
  0
LINE
  5
2AD
100
AcDbEntity
  8
RACCORDO
100
AcDbLine
 62
253
  6
CONTINUOUS
 10
-10.791888462
 20
-0.3437816335
 11
-11.0393732518
 21
-0.3434184635
  0
LINE
  5
2AE
100
AcDbEntity
  8
RACCORDO
100
AcDbLine
 62
253
  6
CONTINUOUS
 10
-10.7919049349
 20
-0.1436464914
 11
-10.926684356
 21
-0.1433674042
  0
LINE
  5
2AF
100
AcDbEntity
  8
RACCORDO
100
AcDbLine
 62
253
  6
CONTINUOUS
 10
10.2915043738
 20
0.16983103
 11
10.4262837949
 21
0.1695519428
  0
LINE
  5
2B0
100
AcDbEntity
  8
RACCORDO
100
AcDbLine
 62
253
  6
CONTINUOUS
 10
10.4262837949
 20
0.1695519428
 11
10.4661330407
 21
0.1693417707
  0
LINE
  5
2B1
100
AcDbEntity
  8
RACCORDO
100
AcDbLine
 62
253
  6
CONTINUOUS
 10
-11.0393732518
 20
-0.3434184635
 11
-11.193316224
 21
-0.3426646336
  0
LINE
  5
2B2
100
AcDbEntity
  8
RACCORDO
100
AcDbLine
 62
253
  6
CONTINUOUS
 10
-10.926684356
 20
-0.1433674042
 11
-11.0129612795
 21
-0.1427983373
  0
LINE
  5
2B3
100
AcDbEntity
  8
RACCORDO
100
AcDbLine
 62
253
  6
CONTINUOUS
 10
-11.193316224
 20
-0.3426646336
 11
-11.2460422622
 21
-0.3421734639
  0
LINE
  5
2B4
100
AcDbEntity
  8
RACCORDO
100
AcDbLine
 62
253
  6
CONTINUOUS
 10
-11.0129612795
 20
-0.1427983373
 11
-11.0499622558
 21
-0.1423635208
  0
LINE
  5
2B5
100
AcDbEntity
  8
RACCORDO
100
AcDbLine
 62
253
  6
CONTINUOUS
 10
-11.2460422622
 20
-0.3421734639
 11
-11.2652350739
 21
-0.3419078674
  0
LINE
  5
2B6
100
AcDbEntity
  8
RACCORDO
100
AcDbLine
 62
253
  6
CONTINUOUS
 10
-11.0499622558
 20
-0.1423635208
 11
-11.0643845821
 21
-0.14212375
  0
LWPOLYLINE
  5
2B7
100
AcDbEntity
  8
RACCORDO
100
AcDbPolyline
 62
253
  6
CONTINUOUS
 90
6
 70
0
 10
-11.2652350739
 20
-0.3419078674
 10
-11.2793529182
 20
-0.3416328436
 10
-11.2844611833
 20
-0.3414928598
 10
-11.2882497698
 20
-0.3413519206
 10
-11.2907080059
 20
-0.3412097613
 10
-11.2918290429
 20
-0.3410664311
  0
LWPOLYLINE
  5
2B8
100
AcDbEntity
  8
RACCORDO
100
AcDbPolyline
 62
253
  6
CONTINUOUS
 90
8
 70
0
 10
-11.0643845821
 20
-0.14212375
 10
-11.0759082515
 20
-0.1418719278
 10
-11.0805233887
 20
-0.1417426241
 10
-11.0843782463
 20
-0.141611072
 10
-11.0874423091
 20
-0.1414783404
 10
-11.0897054055
 20
-0.1413447857
 10
-11.0911777072
 20
-0.1412100515
 10
-11.0918592141
 20
-0.1410741378
  0
LINE
  5
2B9
100
AcDbEntity
  8
DRAFT
100
AcDbLine
 62
7
  6
CONTINUOUS
 10
-8.7626662711
 20
-0.0869077307
 11
-8.5002002805
 21
-0.113088334
  0
LWPOLYLINE
  5
2BA
100
AcDbEntity
  8
RACCORDO
100
AcDbPolyline
 62
253
  6
CONTINUOUS
 90
76
 70
0
 10
1.1704074872
 20
4.5139924494
 10
1.1692529566
 20
4.4554841547
 10
1.1656420138
 20
4.3970313514
 10
1.1595746588
 20
4.3386340405
 10
1.1510484671
 20
4.2801498314
 10
1.1400658633
 20
4.2217211163
 10
1.1266341208
 20
4.1637750716
 10
1.1107212779
 20
4.1063149603
 10
1.0923592963
 20
4.0493375237
 10
1.0716513341
 20
3.9932601577
 10
1.0485716806
 20
3.9381005516
 10
1.0231460466
 20
3.8838410222
 10
0.9955547231
 20
3.8308459091
 10
0.9658007444
 20
3.7791592936
 10
0.9338810763
 20
3.7287371017
 10
0.899966907
 20
3.6798114404
 10
0.864060829
 20
3.6323957264
 10
0.8261602499
 20
3.5864765503
 10
0.7864285808
 20
3.5422457813
 10
0.7448464128
 20
3.4996942215
 10
0.7014331547
 20
3.4588310756
 10
0.6564104442
 20
3.4198758173
 10
0.609760751
 20
3.3828338076
 10
0.5615016053
 20
3.3476996919
 10
0.5119072358
 20
3.3146768705
 10
0.4609759215
 20
3.2837829126
 10
0.4087093834
 20
3.2550002547
 10
0.3553870121
 20
3.2284795982
 10
0.30100715
 20
3.2042342329
 10
0.2455714549
 20
3.1822508736
 10
0.1893642907
 20
3.1626403592
 10
0.1323805216
 20
3.1454137416
 10
0.0746252835
 20
3.1305599723
 10
0.0163983482
 20
3.1181567397
 10
-0.0423050445
 20
3.1082164291
 10
-0.1014801342
 20
3.1007266571
 10
-0.1608128687
 20
3.0957279585
 10
-0.2203035641
 20
3.0932338375
 10
-0.2799519041
 20
3.0932307905
 10
-0.3394428873
 20
3.09571884
 10
-0.3987762285
 20
3.1007114992
 10
-0.4579522129
 20
3.1081952543
 10
-0.5166566942
 20
3.1181295869
 10
-0.5748849394
 20
3.1305269098
 10
-0.6326416816
 20
3.1453748081
 10
-0.6896269739
 20
3.1625955223
 10
-0.7458355765
 20
3.1822000728
 10
-0.8012727293
 20
3.2041774358
 10
-0.8556542049
 20
3.2284167844
 10
-0.9089782093
 20
3.2549312649
 10
-0.9612465365
 20
3.2837077264
 10
-1.0121803418
 20
3.314595897
 10
-1.0617781141
 20
3.3476133958
 10
-1.1100413645
 20
3.3827425981
 10
-1.1566957813
 20
3.4197803655
 10
-1.2017242109
 20
3.458732541
 10
-1.2451438068
 20
3.4995932754
 10
-1.2867317183
 20
3.5421418922
 10
-1.3264681907
 20
3.5863691441
 10
-1.3643729788
 20
3.6322842715
 10
-1.400282496
 20
3.6796943305
 10
-1.4341987066
 20
3.7286116008
 10
-1.4661196463
 20
3.7790237953
 10
-1.4958758363
 20
3.8307011198
 10
-1.5234706856
 20
3.8836871951
 10
-1.548900785
 20
3.9379383932
 10
-1.5719864288
 20
3.9930940476
 10
-1.5927026301
 20
4.0491728849
 10
-1.6110743758
 20
4.1061561724
 10
-1.6269969202
 20
4.1636270569
 10
-1.6404383635
 20
4.2215897588
 10
-1.6514306054
 20
4.2800400534
 10
-1.6599645996
 20
4.3385484222
 10
-1.6660373303
 20
4.3969716923
 10
-1.6696518133
 20
4.4554530351
 10
-1.6708080483
 20
4.5139924494
  0
LWPOLYLINE
  5
2BB
100
AcDbEntity
  8
RACCORDO
100
AcDbPolyline
 62
253
  6
CONTINUOUS
 90
76
 70
0
 10
1.1704074872
 20
-4.4878079107
 10
1.1692350164
 20
-4.5463048894
 10
1.1656070545
 20
-4.6047457363
 10
1.1595236014
 20
-4.6631304507
 10
1.1509821995
 20
-4.7216013544
 10
1.1399853065
 20
-4.7800161241
 10
1.1265402953
 20
-4.8379477934
 10
1.1106152268
 20
-4.8953930966
 10
1.0922420401
 20
-4.9523553011
 10
1.0715239255
 20
-5.0084172429
 10
1.0484351867
 20
-5.0635612572
 10
1.0230015201
 20
-5.1178050137
 10
0.9954032051
 20
-5.1707843522
 10
0.9656432636
 20
-5.2224552417
 10
0.9337186737
 20
-5.2728617204
 10
0.8998006497
 20
-5.3217717349
 10
0.8638917841
 20
-5.3691718622
 10
0.8259894843
 20
-5.4150755334
 10
0.7862571871
 20
-5.4592909774
 10
0.7446755038
 20
-5.5018273721
 10
0.701263823
 20
-5.5426755484
 10
0.6562437474
 20
-5.5816162155
 10
0.6095977601
 20
-5.6186440182
 10
0.5613433781
 20
-5.6537643209
 10
0.5117547542
 20
-5.6867739123
 10
0.460830184
 20
-5.7176552341
 10
0.408571372
 20
-5.7464258535
 10
0.3552575848
 20
-5.7729352479
 10
0.3008871848
 20
-5.7971701393
 10
0.2454618096
 20
-5.8191438135
 10
0.1892656396
 20
-5.8387455939
 10
0.1322935579
 20
-5.8559644449
 10
0.0745506813
 20
-5.8708114082
 10
0.0163365399
 20
-5.8832089221
 10
-0.0423536122
 20
-5.8931446229
 10
-0.1015150291
 20
-5.9006308781
 10
-0.1608339437
 20
-5.9056272227
 10
-0.2203106693
 20
-5.9081201763
 10
-0.2799448925
 20
-5.9081232206
 10
-0.3394219057
 20
-5.9056363331
 10
-0.3987414266
 20
-5.9006460226
 10
-0.4579037374
 20
-5.8931657789
 10
-0.5165949771
 20
-5.883236051
 10
-0.574810427
 20
-5.8708444418
 10
-0.6325548058
 20
-5.8560033444
 10
-0.6895284086
 20
-5.8387903918
 10
-0.7457260151
 20
-5.8191945703
 10
-0.8011528457
 20
-5.7972268875
 10
-0.8555248571
 20
-5.7729980079
 10
-0.9088402752
 20
-5.7464947844
 10
-0.9611008741
 20
-5.7177303563
 10
-1.0120279328
 20
-5.686854817
 10
-1.0616199566
 20
-5.6538505435
 10
-1.1098784403
 20
-5.6187351498
 10
-1.1565291471
 20
-5.5817115859
 10
-1.2015549366
 20
-5.5427739997
 10
-1.2449729493
 20
-5.5019282339
 10
-1.28656037
 20
-5.4593947816
 10
-1.326297464
 20
-5.415182855
 10
-1.3642039661
 20
-5.3692832329
 10
-1.4001162651
 20
-5.3218887596
 10
-1.4340363258
 20
-5.272987132
 10
-1.4659621835
 20
-5.2225906448
 10
-1.4957243325
 20
-5.1709290398
 10
-1.5233261691
 20
-5.1179587313
 10
-1.548764297
 20
-5.063723298
 10
-1.5718590215
 20
-5.0085832306
 10
-1.5925853701
 20
-4.9525198175
 10
-1.6109683153
 20
-4.8955517656
 10
-1.626903081
 20
-4.8380956968
 10
-1.6403577901
 20
-4.780147383
 10
-1.6513643197
 20
-4.7217110505
 10
-1.6599135248
 20
-4.6632160056
 10
-1.6660023571
 20
-4.6048053513
 10
-1.669633865
 20
-4.5463359862
 10
-1.6708080483
 20
-4.4878079107
  0
LWPOLYLINE
  5
2BC
100
AcDbEntity
  8
RACCORDO
100
AcDbPolyline
 62
253
  6
CONTINUOUS
 90
76
 70
0
 10
1.0704227177
 20
4.5130922693
 10
1.0693178713
 20
4.4588605954
 10
1.0659680148
 20
4.4044919369
 10
1.0603506119
 20
4.3500805482
 10
1.0524414725
 20
4.2956892152
 10
1.042228824
 20
4.241450117
 10
1.0297273962
 20
4.1875620466
 10
1.0149431776
 20
4.1341217578
 10
0.9978871502
 20
4.0812291797
 10
0.9786132136
 20
4.029081846
 10
0.9571561109
 20
3.9777798934
 10
0.9335490734
 20
3.9274082668
 10
0.9078720081
 20
3.8781311295
 10
0.8801963152
 20
3.8300632176
 10
0.8505616029
 20
3.7832526963
 10
0.8190119349
 20
3.7377572305
 10
0.7856133072
 20
3.6936623899
 10
0.7504222836
 20
3.6510337958
 10
0.713465146
 20
3.6099013911
 10
0.6747916777
 20
3.5703258814
 10
0.6344802058
 20
3.5323924848
 10
0.5925988192
 20
3.4961686634
 10
0.5492123171
 20
3.4617145922
 10
0.5044021674
 20
3.4290989517
 10
0.4582673865
 20
3.398394983
 10
0.4108960656
 20
3.3696599522
 10
0.3623658008
 20
3.3429396005
 10
0.3127651707
 20
3.3182817102
 10
0.2621853491
 20
3.29573016
 10
0.2107124218
 20
3.2753219127
 10
0.1584296435
 20
3.2570893731
 10
0.1054275883
 20
3.2410641629
 10
0.0518007813
 20
3.2272748965
 10
-0.0023602022
 20
3.2157450483
 10
-0.0569623562
 20
3.2064949837
 10
-0.11190762
 20
3.1995418768
 10
-0.1670967131
 20
3.1948985387
 10
-0.22243204
 20
3.1925732233
 10
-0.277816802
 20
3.1925700413
 10
-0.3331524763
 20
3.1948890033
 10
-0.3883422921
 20
3.1995260231
 10
-0.4432886217
 20
3.2064728674
 10
-0.4978920941
 20
3.2157167298
 10
-0.5520546868
 20
3.2272404561
 10
-0.6056833479
 20
3.241023684
 10
-0.6586872929
 20
3.2570428812
 10
-0.7109719016
 20
3.2752693802
 10
-0.7624467089
 20
3.2956715722
 10
-0.8130285623
 20
3.3182170803
 10
-0.8626312232
 20
3.3428688566
 10
-0.9111636876
 20
3.3695830905
 10
-0.9585379203
 20
3.3983123401
 10
-1.0046764388
 20
3.429011035
 10
-1.04949095
 20
3.4616218808
 10
-1.0928824548
 20
3.4960717539
 10
-1.1347698407
 20
3.5322924133
 10
-1.1750877965
 20
3.5702234009
 10
-1.2137670725
 20
3.6097961434
 10
-1.2507292627
 20
3.6509251614
 10
-1.2859248318
 20
3.6935498299
 10
-1.3193270629
 20
3.7376394015
 10
-1.3508789294
 20
3.7831271437
 10
-1.3805153682
 20
3.8299283051
 10
-1.4081937982
 20
3.8779874415
 10
-1.4338744392
 20
3.9272562614
 10
-1.4574859272
 20
3.9776203044
 10
-1.4789494792
 20
4.0289185769
 10
-1.4982317271
 20
4.0810673441
 10
-1.5152969947
 20
4.1339656608
 10
-1.5300908916
 20
4.1874162537
 10
-1.5426020104
 20
4.2413198057
 10
-1.5528236643
 20
4.2955790709
 10
-1.5607403892
 20
4.3499937601
 10
-1.5663635664
 20
4.4044311193
 10
-1.5697171285
 20
4.4588287504
 10
-1.5708232788
 20
4.5130922693
  0
LWPOLYLINE
  5
2BD
100
AcDbEntity
  8
RACCORDO
100
AcDbPolyline
 62
253
  6
CONTINUOUS
 90
76
 70
0
 10
1.0704227177
 20
-4.4869077307
 10
1.0692999017
 20
-4.5411288968
 10
1.0659329351
 20
-4.5954862659
 10
1.0602992926
 20
-4.6498856257
 10
1.0523747527
 20
-4.7042642108
 10
1.042147593
 20
-4.7584898979
 10
1.0296326643
 20
-4.8123640059
 10
1.0148359472
 20
-4.8657898409
 10
0.9977684141
 20
-4.9186675209
 10
0.9784840574
 20
-4.9707996385
 10
0.9570175881
 20
-5.0220861436
 10
0.9334022102
 20
-5.0724421263
 10
0.9077179102
 20
-5.1217035004
 10
0.8800360329
 20
-5.1697556433
 10
0.8503961526
 20
-5.2165504037
 10
0.8188424499
 20
-5.2620300726
 10
0.785440891
 20
-5.3061091471
 10
0.7502479917
 20
-5.3487220764
 10
0.7132901421
 20
-5.3898389079
 10
0.6746171044
 20
-5.4293989911
 10
0.6343071483
 20
-5.4673171983
 10
0.5924284222
 20
-5.503526135
 10
0.5490456764
 20
-5.5379657022
 10
0.504240322
 20
-5.5705672875
 10
0.458111417
 20
-5.6012577252
 10
0.4107469908
 20
-5.6299798255
 10
0.3622245668
 20
-5.6566879103
 10
0.3126327407
 20
-5.6813342671
 10
0.2620626153
 20
-5.7038750847
 10
0.2106001872
 20
-5.7242734585
 10
0.1583286924
 20
-5.7424970509
 10
0.1053386221
 20
-5.7585142956
 10
0.0517243999
 20
-5.7722966236
 10
-0.0024234535
 20
-5.7838206162
 10
-0.0570120271
 20
-5.7930659474
 10
-0.1119433698
 20
-5.8000154694
 10
-0.1671182829
 20
-5.8046564027
 10
-0.2224392787
 20
-5.8069805128
 10
-0.2778096669
 20
-5.8069836919
 10
-0.3331310098
 20
-5.8046659291
 10
-0.388306645
 20
-5.8000313082
 10
-0.4432390524
 20
-5.7930880429
 10
-0.497828943
 20
-5.7838489081
 10
-0.5519784036
 20
-5.7723310318
 10
-0.6055944777
 20
-5.7585547369
 10
-0.6585864352
 20
-5.7425434998
 10
-0.7108597577
 20
-5.7243259426
 10
-0.7623240632
 20
-5.703933619
 10
-0.8128962176
 20
-5.6813988383
 10
-0.8624900716
 20
-5.6567585902
 10
-0.9110146924
 20
-5.6300566182
 10
-0.9583820272
 20
-5.601340294
 10
-1.0045146663
 20
-5.5706551256
 10
-1.0493243782
 20
-5.5380583306
 10
-1.092712122
 20
-5.5036229582
 10
-1.1345968416
 20
-5.4674171817
 10
-1.1749132754
 20
-5.4295013827
 10
-1.2135921142
 20
-5.3899440661
 10
-1.2505550095
 20
-5.3488306216
 10
-1.2857524474
 20
-5.3062216185
 10
-1.3191576037
 20
-5.2621478119
 10
-1.3507135002
 20
-5.2166758627
 10
-1.3803551026
 20
-5.1698904568
 10
-1.4080397124
 20
-5.1218470835
 10
-1.4337275839
 20
-5.0725940199
 10
-1.4573474079
 20
-5.0222456135
 10
-1.4788203211
 20
-4.9709627848
 10
-1.4981129836
 20
-4.9188292343
 10
-1.5151897517
 20
-4.8659458196
 10
-1.5299961426
 20
-4.8125096885
 10
-1.5425207593
 20
-4.7586201114
 10
-1.5527569233
 20
-4.7043742735
 10
-1.56068905
 20
-4.6499723505
 10
-1.5663284704
 20
-4.5955470399
 10
-1.5696991492
 20
-4.5411607195
 10
-1.5708232788
 20
-4.4869077307
  0
LWPOLYLINE
  5
2BE
100
AcDbEntity
  8
RACCORDO
100
AcDbPolyline
 62
253
  6
CONTINUOUS
 90
5
 70
0
 10
-11.291829043
 20
0.3672509698
 10
-11.2907080059
 20
0.3673942999
 10
-11.28824977
 20
0.3675364593
 10
-11.2844611836
 20
0.3676773985
 10
-11.2793529186
 20
0.3678173822
  0
LINE
  5
2BF
100
AcDbEntity
  8
DRAFT
100
AcDbLine
 62
7
  6
CONTINUOUS
 10
-8.7626662711
 20
0.1130922693
 11
-8.5002002805
 21
0.1392728727
  0
LINE
  5
2C0
100
AcDbEntity
  8
RACCORDO
100
AcDbLine
 62
253
  6
CONTINUOUS
 10
-11.0759082517
 20
0.1680564665
 11
-11.0643845824
 21
0.1683082887
  0
LINE
  5
2C1
100
AcDbEntity
  8
RACCORDO
100
AcDbLine
 62
253
  6
CONTINUOUS
 10
-11.2793529186
 20
0.3678173822
 11
-11.2652350743
 21
0.3680924061
  0
LINE
  5
2C2
100
AcDbEntity
  8
RACCORDO
100
AcDbLine
 62
253
  6
CONTINUOUS
 10
-11.0643845824
 20
0.1683082887
 11
-11.0416819046
 21
0.1686630433
  0
LINE
  5
2C3
100
AcDbEntity
  8
RACCORDO
100
AcDbLine
 62
253
  6
CONTINUOUS
 10
-11.2652350743
 20
0.3680924061
 11
-11.2346056904
 21
0.3684862158
  0
LINE
  5
2C4
100
AcDbEntity
  8
RACCORDO
100
AcDbLine
 62
253
  6
CONTINUOUS
 10
-11.0416819046
 20
0.1686630433
 11
-10.9908276895
 21
0.1691726903
  0
LINE
  5
2C5
100
AcDbEntity
  8
RACCORDO
100
AcDbLine
 62
253
  6
CONTINUOUS
 10
-10.9908276895
 20
0.1691726903
 11
-10.9665336024
 21
0.1693417707
  0
LINE
  5
2C6
100
AcDbEntity
  8
RACCORDO
100
AcDbLine
 62
253
  6
CONTINUOUS
 10
-11.2346056904
 20
0.3684862158
 11
-11.1423584442
 21
0.3691725752
  0
LINE
  5
2C7
100
AcDbEntity
  8
RACCORDO
100
AcDbLine
 62
253
  6
CONTINUOUS
 10
-11.1423584442
 20
0.3691725752
 11
-10.9447345946
 21
0.3698332379
  0
LINE
  5
2C8
100
AcDbEntity
  8
RACCORDO
100
AcDbLine
 62
253
  6
CONTINUOUS
 10
-10.9447345946
 20
0.3698332379
 11
10.291487901
 21
0.3699661651
  0
LINE
  5
2C9
100
AcDbEntity
  8
RACCORDO
100
AcDbLine
 62
253
  6
CONTINUOUS
 10
10.291487901
 20
0.3699661722
 11
10.5389726907
 21
0.3696030022
  0
LINE
  5
2CA
100
AcDbEntity
  8
RACCORDO
100
AcDbLine
 62
253
  6
CONTINUOUS
 10
10.5389726907
 20
0.3696030022
 11
10.6929156629
 21
0.3688491722
  0
LINE
  5
2CB
100
AcDbEntity
  8
RACCORDO
100
AcDbLine
 62
253
  6
CONTINUOUS
 10
10.4661330407
 20
0.1693417707
 11
10.5227808549
 21
0.1688804516
  0
LINE
  5
2CC
100
AcDbEntity
  8
RACCORDO
100
AcDbLine
 62
253
  6
CONTINUOUS
 10
10.6929156629
 20
0.3688491722
 11
10.7456417011
 21
0.3683580025
  0
LINE
  5
2CD
100
AcDbEntity
  8
RACCORDO
100
AcDbLine
 62
253
  6
CONTINUOUS
 10
10.5227808549
 20
0.1688804516
 11
10.5495616947
 21
0.1685480594
  0
LINE
  5
2CE
100
AcDbEntity
  8
RACCORDO
100
AcDbLine
 62
253
  6
CONTINUOUS
 10
10.7456417011
 20
0.3683580025
 11
10.7648345128
 21
0.3680924061
  0
LINE
  5
2CF
100
AcDbEntity
  8
RACCORDO
100
AcDbLine
 62
253
  6
CONTINUOUS
 10
10.5495616947
 20
0.1685480594
 11
10.563984021
 21
0.1683082887
  0
LWPOLYLINE
  5
2D0
100
AcDbEntity
  8
RACCORDO
100
AcDbPolyline
 62
253
  6
CONTINUOUS
 90
6
 70
0
 10
10.7648345128
 20
0.3680924061
 10
10.7789523571
 20
0.3678173823
 10
10.7840606222
 20
0.3676773985
 10
10.7878492087
 20
0.3675364593
 10
10.7903074448
 20
0.3673942999
 10
10.7914284819
 20
0.3672509698
  0
LWPOLYLINE
  5
2D1
100
AcDbEntity
  8
RACCORDO
100
AcDbPolyline
 62
253
  6
CONTINUOUS
 90
8
 70
0
 10
10.563984021
 20
0.1683082887
 10
10.5755076904
 20
0.1680564665
 10
10.5801228276
 20
0.1679271628
 10
10.5839776852
 20
0.1677956106
 10
10.587041748
 20
0.167662879
 10
10.5893048444
 20
0.1675293243
 10
10.5907771461
 20
0.1673945901
 10
10.591458653
 20
0.1672586764
  0
LINE
  5
2D2
100
AcDbEntity
  8
DRAFT
100
AcDbLine
 62
7
  6
CONTINUOUS
 10
8.26226571
 20
0.1130922693
 11
7.9997997195
 21
0.1392728727
  0
LINE
  5
2D3
100
AcDbEntity
  8
RACCORDO
100
AcDbLine
 62
253
  6
CONTINUOUS
 10
10.3862659911
 20
22.2245735569
 11
10.3154052307
 21
22.011818399
  0
LWPOLYLINE
  5
2D4
100
AcDbEntity
  8
RACCORDO
100
AcDbPolyline
 62
253
  6
CONTINUOUS
 90
7
 70
0
 10
-11.0918592141
 20
0.1672586764
 10
-11.0911777072
 20
0.1673945901
 10
-11.0897054056
 20
0.1675293243
 10
-11.0874423092
 20
0.167662879
 10
-11.0843782464
 20
0.1677956106
 10
-11.0805233889
 20
0.1679271628
 10
-11.0759082517
 20
0.1680564665
  0
LINE
  5
2D5
100
AcDbEntity
  8
RACCORDO
100
AcDbLine
 62
253
  6
CONTINUOUS
 10
10.3154052306
 20
-21.9856338603
 11
10.3862659911
 21
-22.1983890182
  0
LINE
  5
2D6
100
AcDbEntity
  8
RACCORDO
100
AcDbLine
 62
253
  6
CONTINUOUS
 10
10.8866458144
 20
21.7266278291
 11
10.8153287759
 21
21.5125027239
  0
LINE
  5
2D7
100
AcDbEntity
  8
RACCORDO
100
AcDbLine
 62
253
  6
CONTINUOUS
 10
10.6997997183
 20
-0.0869077307
 11
10.591458653
 21
-0.1410741378
  0
LINE
  5
2D8
100
AcDbEntity
  8
RACCORDO
100
AcDbLine
 62
253
  6
CONTINUOUS
 10
10.591458653
 20
0.1672586764
 11
10.6997997183
 21
0.1130922693
  0
LINE
  5
2D9
100
AcDbEntity
  8
RACCORDO
100
AcDbLine
 62
253
  6
CONTINUOUS
 10
10.8153287759
 20
-21.4863181853
 11
10.8866458144
 21
-21.7004432904
  0
LWPOLYLINE
  5
2DA
100
AcDbEntity
  8
RACCORDO
100
AcDbPolyline
 62
253
  6
CONTINUOUS
 90
11
 70
0
 10
10.8153287759
 20
21.5125027239
 10
10.8146126657
 20
21.5094991339
 10
10.8139016178
 20
21.5048391369
 10
10.8131956322
 20
21.4985227327
 10
10.8124935225
 20
21.4905337659
 10
10.8117964752
 20
21.480888392
 10
10.8111080492
 20
21.4696350775
 10
10.810428296
 20
21.4567655369
 10
10.8097571642
 20
21.4422880557
 10
10.8090980582
 20
21.4262759566
 10
10.8078160661
 20
21.3896327458
  0
LINE
  5
2DB
100
AcDbEntity
  8
RACCORDO
100
AcDbLine
 62
253
  6
CONTINUOUS
 10
10.8997997195
 20
-0.2868848854
 11
10.7914284821
 21
-0.3410663774
  0
LINE
  5
2DC
100
AcDbEntity
  8
RACCORDO
100
AcDbLine
 62
253
  6
CONTINUOUS
 10
10.7914284821
 20
0.367250916
 11
10.8997997195
 21
0.313069424
  0
LWPOLYLINE
  5
2DD
100
AcDbEntity
  8
RACCORDO
100
AcDbPolyline
 62
253
  6
CONTINUOUS
 90
8
 70
0
 10
10.3154051287
 20
22.0118183989
 10
10.3146887735
 20
22.0073373085
 10
10.3139775528
 20
22.0003415153
 10
10.3132714665
 20
21.9908428062
 10
10.3125693559
 20
21.9788572779
 10
10.3118723799
 20
21.964405059
 10
10.3111840149
 20
21.9475100978
 10
10.309833156
 20
21.9065083518
  0
LWPOLYLINE
  5
2DE
100
AcDbEntity
  8
RACCORDO
100
AcDbPolyline
 62
253
  6
CONTINUOUS
 90
9
 70
0
 10
10.8097571642
 20
-21.4161035168
 10
10.810428296
 20
-21.430580998
 10
10.8111080492
 20
-21.4434505386
 10
10.8117964752
 20
-21.4547038531
 10
10.8124935225
 20
-21.4643492271
 10
10.8131956322
 20
-21.4723381939
 10
10.8139016178
 20
-21.4786545981
 10
10.8146126657
 20
-21.4833145952
 10
10.8153287759
 20
-21.4863181853
  0
LWPOLYLINE
  5
2DF
100
AcDbEntity
  8
RACCORDO
100
AcDbPolyline
 62
253
  6
CONTINUOUS
 90
7
 70
0
 10
10.3111840148
 20
-21.9213255588
 10
10.3118723798
 20
-21.93822052
 10
10.3125693559
 20
-21.952672739
 10
10.3132714665
 20
-21.9646582673
 10
10.3139775528
 20
-21.9741569765
 10
10.3146887735
 20
-21.9811527698
 10
10.3154051287
 20
-21.9856338602
  0
LINE
  5
2E0
100
AcDbEntity
  8
RACCORDO
100
AcDbLine
 62
253
  6
CONTINUOUS
 10
10.309833156
 20
-21.8803238126
 11
10.3111840148
 21
-21.9213255588
  0
LINE
  5
2E1
100
AcDbEntity
  8
RACCORDO
100
AcDbLine
 62
253
  6
CONTINUOUS
 10
10.3085270792
 20
-21.8299461402
 11
10.309833156
 21
-21.8803238126
  0
LINE
  5
2E2
100
AcDbEntity
  8
RACCORDO
100
AcDbLine
 62
253
  6
CONTINUOUS
 10
10.3066679386
 20
-21.7375603828
 11
10.3085270792
 21
-21.8299461402
  0
LINE
  5
2E3
100
AcDbEntity
  8
RACCORDO
100
AcDbLine
 62
253
  6
CONTINUOUS
 10
10.3085270792
 20
21.8561306795
 11
10.3066679386
 21
21.7637449221
  0
LINE
  5
2E4
100
AcDbEntity
  8
RACCORDO
100
AcDbLine
 62
253
  6
CONTINUOUS
 10
10.309833156
 20
21.9065083518
 11
10.3085270792
 21
21.8561306795
  0
LWPOLYLINE
  5
2E5
100
AcDbEntity
  8
RACCORDO
100
AcDbPolyline
 62
253
  6
CONTINUOUS
 90
22
 70
0
 10
10.791428192
 20
-0.3410665224
 10
10.7908668676
 20
-0.3261224954
 10
10.7891905843
 20
-0.311262027
 10
10.7864087152
 20
-0.296568207
 10
10.7825368149
 20
-0.2821231932
 10
10.7775965329
 20
-0.2680077527
 10
10.7716154925
 20
-0.2543008103
 10
10.7646271362
 20
-0.2410790058
 10
10.7566705387
 20
-0.2284162665
 10
10.7477901886
 20
-0.2163833942
 10
10.7380357396
 20
-0.2050476683
 10
10.7274617323
 20
-0.1944724701
 10
10.7161272904
 20
-0.1847169288
 10
10.7040957887
 20
-0.1758355903
 10
10.6914344998
 20
-0.1678781123
 10
10.6782142176
 20
-0.1608889871
 10
10.6645088612
 20
-0.1549072924
 10
10.6503950619
 20
-0.1499664729
 10
10.6359517346
 20
-0.1460941537
 10
10.6212596367
 20
-0.143311985
 10
10.6064009163
 20
-0.1416355221
 10
10.591458653
 20
-0.1410741378
  0
LINE
  5
2E6
100
AcDbEntity
  8
RACCORDO
100
AcDbLine
 62
253
  6
CONTINUOUS
 10
10.8084510492
 20
-21.3825371211
 11
10.8097571642
 21
-21.4161035168
  0
LINE
  5
2E7
100
AcDbEntity
  8
RACCORDO
100
AcDbLine
 62
253
  6
CONTINUOUS
 10
10.8071963001
 20
-21.3429207348
 11
10.8084510492
 21
-21.3825371211
  0
LWPOLYLINE
  5
2E8
100
AcDbEntity
  8
RACCORDO
100
AcDbPolyline
 62
253
  6
CONTINUOUS
 90
28
 70
0
 10
10.8153287759
 20
21.5125027239
 10
10.8144574325
 20
21.5415184356
 10
10.8118994172
 20
21.5704360822
 10
10.8076633751
 20
21.5991579294
 10
10.8017636229
 20
21.6275869046
 10
10.7942201002
 20
21.6556269248
 10
10.7850583021
 20
21.6831832219
 10
10.7743091929
 20
21.7101626624
 10
10.7620091019
 20
21.7364740626
 10
10.7481996002
 20
21.7620284964
 10
10.7329273602
 20
21.7867395962
 10
10.7162439983
 20
21.8105238445
 10
10.6982059
 20
21.8333008564
 10
10.6788740293
 20
21.8549936512
 10
10.6583137232
 20
21.8755289126
 10
10.6365944703
 20
21.8948372364
 10
10.6137896762
 20
21.9128533651
 10
10.5899764154
 20
21.9295164087
 10
10.5652351707
 20
21.94477005
 10
10.5396495614
 20
21.9585627354
 10
10.5133060605
 20
21.970847849
 10
10.4862937026
 20
21.9815838701
 10
10.4587037827
 20
21.9907345135
 10
10.4306295478
 20
21.9982688522
 10
10.4021658821
 20
22.0041614219
 10
10.3734089858
 20
22.0083923071
 10
10.34445605
 20
22.0109472086
 10
10.3154049283
 20
22.0118174913
  0
LINE
  5
2E9
100
AcDbEntity
  8
RACCORDO
100
AcDbLine
 62
253
  6
CONTINUOUS
 10
10.8060025704
 20
-21.2975356856
 11
10.8071963001
 21
-21.3429207348
  0
LINE
  5
2EA
100
AcDbEntity
  8
RACCORDO
100
AcDbLine
 62
253
  6
CONTINUOUS
 10
10.8043440643
 20
-21.2193614986
 11
10.8060025704
 21
-21.2975356856
  0
LINE
  5
2EB
100
AcDbEntity
  8
RACCORDO
100
AcDbLine
 62
253
  6
CONTINUOUS
 10
10.8024170751
 20
-21.0981490101
 11
10.8043440643
 21
-21.2193614986
  0
LINE
  5
2EC
100
AcDbEntity
  8
RACCORDO
100
AcDbLine
 62
253
  6
CONTINUOUS
 10
10.3044202593
 20
-21.5852299784
 11
10.3066679386
 21
-21.7375603828
  0
LINE
  5
2ED
100
AcDbEntity
  8
RACCORDO
100
AcDbLine
 62
253
  6
CONTINUOUS
 10
10.8005358903
 20
-20.9239407546
 11
10.8024170751
 21
-21.0981490101
  0
LINE
  5
2EE
100
AcDbEntity
  8
RACCORDO
100
AcDbLine
 62
253
  6
CONTINUOUS
 10
10.3016661337
 20
-21.3029103543
 11
10.3044202593
 21
-21.5852299784
  0
LINE
  5
2EF
100
AcDbEntity
  8
RACCORDO
100
AcDbLine
 62
253
  6
CONTINUOUS
 10
10.7991535435
 20
-20.691456965
 11
10.8005358903
 21
-20.9239407546
  0
LINE
  5
2F0
100
AcDbEntity
  8
RACCORDO
100
AcDbLine
 62
253
  6
CONTINUOUS
 10
10.2993902777
 20
-20.853398287
 11
10.3016661337
 21
-21.3029103543
  0
LINE
  5
2F1
100
AcDbEntity
  8
RACCORDO
100
AcDbLine
 62
7
  6
CONTINUOUS
 10
10.8997997195
 20
13.1130922693
 11
10.8866458144
 21
21.7266278291
  0
LWPOLYLINE
  5
2F2
100
AcDbEntity
  8
RACCORDO
100
AcDbPolyline
 62
253
  6
CONTINUOUS
 90
3
 70
0
 10
10.2966601051
 20
-17.1830549501
 10
10.2977196721
 20
-18.8662940208
 10
10.2993902777
 20
-20.853398287
  0
LWPOLYLINE
  5
2F3
100
AcDbEntity
  8
RACCORDO
100
AcDbPolyline
 62
253
  6
CONTINUOUS
 90
3
 70
0
 10
10.7965837187
 20
-17.1654436248
 10
10.7976433968
 20
-18.8471970912
 10
10.7991535435
 20
-20.691456965
  0
LINE
  5
2F4
100
AcDbEntity
  8
RACCORDO
100
AcDbLine
 62
253
  6
CONTINUOUS
 10
10.2934108945
 20
-10.4487056501
 11
10.2966601051
 21
-17.1830549501
  0
LINE
  5
2F5
100
AcDbEntity
  8
RACCORDO
100
AcDbLine
 62
253
  6
CONTINUOUS
 10
10.7933343097
 20
-10.4370600555
 11
10.7965837187
 21
-17.1654436248
  0
LINE
  5
2F6
100
AcDbEntity
  8
RACCORDO
100
AcDbLine
 62
253
  6
CONTINUOUS
 10
10.2917405389
 20
-3.7124626321
 11
10.2934108945
 21
-10.4487056501
  0
LINE
  5
2F7
100
AcDbEntity
  8
RACCORDO
100
AcDbLine
 62
253
  6
CONTINUOUS
 10
10.7916678549
 20
-3.7067911713
 11
10.7933343097
 21
-10.4370600555
  0
LINE
  5
2F8
100
AcDbEntity
  8
RACCORDO
100
AcDbLine
 62
253
  6
CONTINUOUS
 10
10.2917405389
 20
-3.7124626321
 11
10.2915043738
 21
-0.1436464914
  0
LINE
  5
2F9
100
AcDbEntity
  8
RACCORDO
100
AcDbLine
 62
253
  6
CONTINUOUS
 10
10.7914284821
 20
-0.3410663774
 11
10.7916678549
 21
-3.7067911713
  0
LINE
  5
2FA
100
AcDbEntity
  8
RACCORDO
100
AcDbLine
 62
7
  6
CONTINUOUS
 10
10.8997997195
 20
-0.2868848854
 11
10.8997997195
 21
-13.0869077307
  0
LINE
  5
2FB
100
AcDbEntity
  8
RACCORDO
100
AcDbLine
 62
7
  6
CONTINUOUS
 10
10.8997997195
 20
0.313069424
 11
10.8997997195
 21
13.1130922693
  0
LINE
  5
2FC
100
AcDbEntity
  8
RACCORDO
100
AcDbLine
 62
253
  6
CONTINUOUS
 10
10.2917405388
 20
3.7386471708
 11
10.2915043738
 21
0.16983103
  0
LINE
  5
2FD
100
AcDbEntity
  8
RACCORDO
100
AcDbLine
 62
253
  6
CONTINUOUS
 10
10.7916678549
 20
3.73297571
 11
10.7914284821
 21
0.367250916
  0
LINE
  5
2FE
100
AcDbEntity
  8
RACCORDO
100
AcDbLine
 62
253
  6
CONTINUOUS
 10
10.2928464604
 20
8.7909911098
 11
10.2917405388
 21
3.7386471708
  0
LINE
  5
2FF
100
AcDbEntity
  8
RACCORDO
100
AcDbLine
 62
253
  6
CONTINUOUS
 10
10.7927692639
 20
8.7808379548
 11
10.7916678549
 21
3.73297571
  0
LINE
  5
300
100
AcDbEntity
  8
RACCORDO
100
AcDbLine
 62
253
  6
CONTINUOUS
 10
10.2966601051
 20
17.2092394888
 11
10.2928464604
 21
8.7909911098
  0
LINE
  5
301
100
AcDbEntity
  8
RACCORDO
100
AcDbLine
 62
253
  6
CONTINUOUS
 10
10.7965837187
 20
17.1916281635
 11
10.7927692639
 21
8.7808379548
  0
LINE
  5
302
100
AcDbEntity
  8
RACCORDO
100
AcDbLine
 62
7
  6
CONTINUOUS
 10
10.8997997195
 20
-13.0869077307
 11
10.8866458144
 21
-21.7004432904
  0
LINE
  5
303
100
AcDbEntity
  8
RACCORDO
100
AcDbLine
 62
253
  6
CONTINUOUS
 10
10.3003130722
 20
21.1123851962
 11
10.2966601051
 21
17.2092394888
  0
LINE
  5
304
100
AcDbEntity
  8
RACCORDO
100
AcDbLine
 62
253
  6
CONTINUOUS
 10
10.7995026952
 20
20.7972397866
 11
10.7965837187
 21
17.1916281635
  0
LINE
  5
305
100
AcDbEntity
  8
RACCORDO
100
AcDbLine
 62
253
  6
CONTINUOUS
 10
10.302941929
 20
21.4775460876
 11
10.3003130722
 21
21.1123851962
  0
LINE
  5
306
100
AcDbEntity
  8
RACCORDO
100
AcDbLine
 62
253
  6
CONTINUOUS
 10
10.8012131805
 20
21.0224478234
 11
10.7995026952
 21
20.7972397866
  0
LINE
  5
307
100
AcDbEntity
  8
RACCORDO
100
AcDbLine
 62
253
  6
CONTINUOUS
 10
10.3055076497
 20
21.6915449854
 11
10.302941929
 21
21.4775460876
  0
LINE
  5
308
100
AcDbEntity
  8
RACCORDO
100
AcDbLine
 62
253
  6
CONTINUOUS
 10
10.8028656891
 20
21.1562948724
 11
10.8012131805
 21
21.0224478234
  0
LINE
  5
309
100
AcDbEntity
  8
RACCORDO
100
AcDbLine
 62
253
  6
CONTINUOUS
 10
10.3066679386
 20
21.7637449221
 11
10.3055076497
 21
21.6915449854
  0
LINE
  5
30A
100
AcDbEntity
  8
RACCORDO
100
AcDbLine
 62
253
  6
CONTINUOUS
 10
10.8048786892
 20
21.2729272296
 11
10.8028656891
 21
21.1562948724
  0
LINE
  5
30B
100
AcDbEntity
  8
RACCORDO
100
AcDbLine
 62
253
  6
CONTINUOUS
 10
10.8065918267
 20
21.3471320281
 11
10.8048786892
 21
21.2729272296
  0
LWPOLYLINE
  5
30C
100
AcDbEntity
  8
RACCORDO
100
AcDbPolyline
 62
253
  6
CONTINUOUS
 90
28
 70
0
 10
10.8153287759
 20
-21.4863181853
 10
10.814457432
 20
-21.5153339062
 10
10.8118994151
 20
-21.5442515613
 10
10.8076633706
 20
-21.572973416
 10
10.8017636154
 20
-21.6014023976
 10
10.7942200891
 20
-21.6294424233
 10
10.7850582869
 20
-21.6569987248
 10
10.7743091735
 20
-21.6839781686
 10
10.7620090783
 20
-21.7102895709
 10
10.7481995723
 20
-21.7358440059
 10
10.7329273285
 20
-21.7605551058
 10
10.716243963
 20
-21.7843393532
 10
10.6982058615
 20
-21.8071163635
 10
10.6788739884
 20
-21.8288091559
 10
10.6583136805
 20
-21.8493444143
 10
10.6365944265
 20
-21.8686527345
 10
10.6137896321
 20
-21.8866688593
 10
10.5899763718
 20
-21.9033318987
 10
10.5652351286
 20
-21.9185855357
 10
10.5396495215
 20
-21.9323782168
 10
10.5133060237
 20
-21.9446633263
 10
10.4862936695
 20
-21.9553993436
 10
10.4587037539
 20
-21.9645499835
 10
10.4306295241
 20
-21.9720843192
 10
10.4021658639
 20
-21.9779768865
 10
10.3734089734
 20
-21.98220777
 10
10.3444560436
 20
-21.9847626703
 10
10.3154049283
 20
-21.9856329526
  0
LINE
  5
30D
100
AcDbEntity
  8
RACCORDO
100
AcDbLine
 62
253
  6
CONTINUOUS
 10
10.8078160661
 20
21.3896327458
 11
10.8065918267
 21
21.3471320281
  0
LWPOLYLINE
  5
30E
100
AcDbEntity
  8
RACCORDO
100
AcDbPolyline
 62
253
  6
CONTINUOUS
 90
22
 70
0
 10
10.791428192
 20
0.367251061
 10
10.7908668693
 20
0.3523070576
 10
10.7891905911
 20
0.3374466109
 10
10.78640873
 20
0.3227528105
 10
10.7825368403
 20
0.3083078141
 10
10.777596571
 20
0.2941923883
 10
10.7716155447
 20
0.2804854571
 10
10.7646272032
 20
0.2672636604
 10
10.7566706206
 20
0.2546009253
 10
10.7477902848
 20
0.2425680534
 10
10.7380358485
 20
0.2312323243
 10
10.727461852
 20
0.2206571198
 10
10.7161274178
 20
0.2109015691
 10
10.7040959205
 20
0.2020202187
 10
10.6914346319
 20
0.1940627272
 10
10.6782143455
 20
0.1870735873
 10
10.6645089801
 20
0.1810918777
 10
10.6503951668
 20
0.176151044
 10
10.6359518205
 20
0.1722787119
 10
10.6212596985
 20
0.169496533
 10
10.6064009494
 20
0.1678200633
 10
10.591458653
 20
0.1672586764
  0
LINE
  5
30F
100
AcDbEntity
  8
RACCORDO
100
AcDbLine
 62
7
  6
CONTINUOUS
 10
7.5555895937
 20
22.2245735569
 11
7.2075347464
 21
22.1929795963
  0
LINE
  5
310
100
AcDbEntity
  8
RACCORDO
100
AcDbLine
 62
253
  6
CONTINUOUS
 10
-11.1393336422
 20
20.5698287652
 11
-11.0950009431
 21
20.571366466
  0
LINE
  5
311
100
AcDbEntity
  8
RACCORDO
100
AcDbLine
 62
253
  6
CONTINUOUS
 10
-11.0950009431
 20
20.571366466
 11
-11.0467573158
 21
20.5726876951
  0
LINE
  5
312
100
AcDbEntity
  8
RACCORDO
100
AcDbLine
 62
253
  6
CONTINUOUS
 10
-11.0467573158
 20
20.5726876951
 11
-10.9952407826
 21
20.5737749793
  0
LINE
  5
313
100
AcDbEntity
  8
RACCORDO
100
AcDbLine
 62
253
  6
CONTINUOUS
 10
-10.9952407826
 20
20.5737749793
 11
-10.9411326499
 21
20.5746139394
  0
LINE
  5
314
100
AcDbEntity
  8
RACCORDO
100
AcDbLine
 62
253
  6
CONTINUOUS
 10
-10.9411326499
 20
20.5746139394
 11
-10.8851484982
 21
20.5751934799
  0
LINE
  5
315
100
AcDbEntity
  8
RACCORDO
100
AcDbLine
 62
253
  6
CONTINUOUS
 10
-10.8851484982
 20
20.5751934799
 11
-10.8280287182
 21
20.5755059366
  0
LINE
  5
316
100
AcDbEntity
  8
RACCORDO
100
AcDbLine
 62
253
  6
CONTINUOUS
 10
-10.8280287182
 20
20.5755059366
 11
10.2988781333
 21
20.5755401002
  0
LINE
  5
317
100
AcDbEntity
  8
RACCORDO
100
AcDbLine
 62
253
  6
CONTINUOUS
 10
10.3562830475
 20
20.5753834521
 11
10.2988781577
 21
20.5755605941
  0
LINE
  5
318
100
AcDbEntity
  8
RACCORDO
100
AcDbLine
 62
253
  6
CONTINUOUS
 10
10.4129287567
 20
20.5749367137
 11
10.3562830475
 21
20.5753834521
  0
LINE
  5
319
100
AcDbEntity
  8
RACCORDO
100
AcDbLine
 62
253
  6
CONTINUOUS
 10
10.4680661447
 20
20.5742262871
 11
10.4129287567
 21
20.5749367137
  0
LINE
  5
31A
100
AcDbEntity
  8
RACCORDO
100
AcDbLine
 62
253
  6
CONTINUOUS
 10
10.5209660186
 20
20.5732615678
 11
10.4680661447
 21
20.5742262871
  0
LINE
  5
31B
100
AcDbEntity
  8
RACCORDO
100
AcDbLine
 62
253
  6
CONTINUOUS
 10
10.5709287766
 20
20.5720553141
 11
10.5209660186
 21
20.5732615678
  0
LINE
  5
31C
100
AcDbEntity
  8
RACCORDO
100
AcDbLine
 62
7
  6
CONTINUOUS
 10
-8.0559901548
 20
22.2245735569
 11
-7.7079353075
 21
22.1929795963
  0
LWPOLYLINE
  5
31D
100
AcDbEntity
  8
RACCORDO
100
AcDbPolyline
 62
253
  6
CONTINUOUS
 90
15
 70
0
 10
10.7988020053
 20
-20.5288135872
 10
10.7974735324
 20
-20.5299961091
 10
10.794495213
 20
-20.531174718
 10
10.7898769023
 20
-20.5323455139
 10
10.7836338822
 20
-20.5335046227
 10
10.7757868108
 20
-20.5346482088
 10
10.7663616539
 20
-20.5357724882
 10
10.7553895994
 20
-20.5368737406
 10
10.7429069535
 20
-20.5379483219
 10
10.7289550214
 20
-20.5389926765
 10
10.7135799696
 20
-20.5400033486
 10
10.6968326742
 20
-20.5409769938
 10
10.6787685517
 20
-20.5419103903
 10
10.6594473762
 20
-20.5428004497
 10
10.6389330811
 20
-20.5436442266
  0
LINE
  5
31E
100
AcDbEntity
  8
RACCORDO
100
AcDbLine
 62
7
  6
CONTINUOUS
 10
-3.6444104063
 20
22.2245735569
 11
-3.9924652536
 21
22.1929795963
  0
LINE
  5
31F
100
AcDbEntity
  8
RACCORDO
100
AcDbLine
 62
253
  6
CONTINUOUS
 10
-10.8158057917
 20
22.011818399
 11
10.3154052307
 21
22.011818399
  0
LINE
  5
320
100
AcDbEntity
  8
RACCORDO
100
AcDbLine
 62
7
  6
CONTINUOUS
 10
7.0343296656
 20
22.1877388184
 11
3.6652697733
 21
22.1877388184
  0
LINE
  5
321
100
AcDbEntity
  8
RACCORDO
100
AcDbLine
 62
7
  6
CONTINUOUS
 10
-4.1656703344
 20
22.1877388184
 11
-7.5347302267
 21
22.1877388184
  0
LINE
  5
322
100
AcDbEntity
  8
RACCORDO
100
AcDbLine
 62
7
  6
CONTINUOUS
 10
10.3862659911
 20
22.2245735569
 11
7.5555895937
 21
22.2245735569
  0
LINE
  5
323
100
AcDbEntity
  8
DRAFT
100
AcDbLine
 62
7
  6
CONTINUOUS
 10
3.1440098452
 20
22.2245735569
 11
-3.6444104063
 21
22.2245735569
  0
LINE
  5
324
100
AcDbEntity
  8
RACCORDO
100
AcDbLine
 62
7
  6
CONTINUOUS
 10
-8.0559901548
 20
22.2245735569
 11
-10.8866665522
 21
22.2245735569
  0
LINE
  5
325
100
AcDbEntity
  8
RACCORDO
100
AcDbLine
 62
7
  6
CONTINUOUS
 10
3.1440098452
 20
22.2245735569
 11
3.4920646925
 21
22.1929795963
  0
LWPOLYLINE
  5
326
100
AcDbEntity
  8
RACCORDO
100
AcDbPolyline
 62
253
  6
CONTINUOUS
 90
17
 70
0
 10
10.7988020053
 20
20.5549981258
 10
10.7974735509
 20
20.5561806483
 10
10.7944952485
 20
20.5573592579
 10
10.7898769532
 20
20.5585300545
 10
10.783633947
 20
20.5596891639
 10
10.7757868879
 20
20.5608327508
 10
10.7663617417
 20
20.5619570309
 10
10.7553896961
 20
20.5630582841
 10
10.7429070577
 20
20.5641328663
 10
10.7289551313
 20
20.5651772217
 10
10.7135800838
 20
20.5661878945
 10
10.6968327909
 20
20.5671615405
 10
10.6787686695
 20
20.5680949379
 10
10.6594474936
 20
20.568984998
 10
10.6389331966
 20
20.5698287757
 10
10.6172936604
 20
20.5706234789
 10
10.5709287766
 20
20.5720553141
  0
LINE
  5
327
100
AcDbEntity
  8
RACCORDO
100
AcDbLine
 62
7
  6
CONTINUOUS
 10
-35.0579097194
 20
-21.9856338603
 11
-30.9982994702
 21
-22.1983890182
  0
LINE
  5
328
100
AcDbEntity
  8
RACCORDO
100
AcDbLine
 62
253
  6
CONTINUOUS
 10
-35.0404852636
 20
-21.4863181853
 11
-30.9547348639
 21
-21.7004432904
  0
LINE
  5
329
100
AcDbEntity
  8
RACCORDO
100
AcDbLine
 62
253
  6
CONTINUOUS
 10
-36.4773280166
 20
-20.549321398
 11
-36.4781537147
 21
-20.5493760387
  0
LINE
  5
32A
100
AcDbEntity
  8
RACCORDO
100
AcDbLine
 62
253
  6
CONTINUOUS
 10
-36.4707337267
 20
-20.5490089413
 11
-36.4773280166
 21
-20.549321398
  0
LINE
  5
32B
100
AcDbEntity
  8
RACCORDO
100
AcDbLine
 62
253
  6
CONTINUOUS
 10
-35.9873033193
 20
-20.5288135872
 11
-36.4707337267
 21
-20.5490089413
  0
LINE
  5
32C
100
AcDbEntity
  8
RACCORDO
100
AcDbLine
 62
253
  6
CONTINUOUS
 10
-30.6011481496
 20
-17.9203993319
 11
-30.6240238704
 21
-17.9203993378
  0
LWPOLYLINE
  5
32D
100
AcDbEntity
  8
RACCORDO
100
AcDbPolyline
 62
253
  6
CONTINUOUS
 90
5
 70
0
 10
-30.6292558135
 20
18.0733693491
 10
-30.629621679
 20
18.0729378709
 10
-30.630917611
 20
18.0720737683
 10
-30.6331382805
 20
18.0707805943
 10
-30.6348096263
 20
18.06986563
  0
LWPOLYLINE
  5
32E
100
AcDbEntity
  8
RACCORDO
100
AcDbPolyline
 62
253
  6
CONTINUOUS
 90
5
 70
0
 10
-30.6292558135
 20
-18.0471848104
 10
-30.6296216764
 20
-18.0467533357
 10
-30.6309175992
 20
-18.0458892395
 10
-30.6331382535
 20
-18.0445960747
 10
-30.6348096267
 20
-18.0436810955
  0
LWPOLYLINE
  5
32F
100
AcDbEntity
  8
RACCORDO
100
AcDbPolyline
 62
253
  6
CONTINUOUS
 90
37
 70
0
 10
-35.9873033193
 20
-20.5288135872
 10
-35.9847613058
 20
-20.5698624812
 10
-35.980559931
 20
-20.6106412616
 10
-35.9746991949
 20
-20.6511499284
 10
-35.9671637057
 20
-20.691456965
 10
-35.9579688551
 20
-20.7314938881
 10
-35.9471608187
 20
-20.7710552472
 10
-35.9347313166
 20
-20.8101378324
 10
-35.9206886285
 20
-20.8487448537
 10
-35.9051037696
 20
-20.8866804915
 10
-35.8879691134
 20
-20.9239407546
 10
-35.8692922863
 20
-20.9605296341
 10
-35.8491671826
 20
-20.9962632841
 10
-35.8275865523
 20
-21.0311374579
 10
-35.8045576455
 20
-21.0651564021
 10
-35.7801961056
 20
-21.0981490101
 10
-35.7544950273
 20
-21.1301103332
 10
-35.727461316
 20
-21.16104532
 10
-35.6992313316
 20
-21.1907977096
 10
-35.6697989685
 20
-21.2193614986
 10
-35.6391703323
 20
-21.2467426904
 10
-35.6075000991
 20
-21.272803035
 10
-35.5747832226
 20
-21.2975356856
 10
-35.541024749
 20
-21.3209474889
 10
-35.5063944929
 20
-21.3429207348
 10
-35.4708881187
 20
-21.3634482067
 10
-35.4345099618
 20
-21.3825371211
 10
-35.3974428431
 20
-21.4000914176
 10
-35.3596826873
 20
-21.4161035168
 10
-35.3212335695
 20
-21.430580998
 10
-35.282290536
 20
-21.4434505386
 10
-35.2428506368
 20
-21.4547038531
 10
-35.2029168218
 20
-21.4643492271
 10
-35.1626929873
 20
-21.4723381939
 10
-35.1222470989
 20
-21.4786545981
 10
-35.0815111909
 20
-21.4833145952
 10
-35.0404852636
 20
-21.4863181853
  0
LWPOLYLINE
  5
330
100
AcDbEntity
  8
RACCORDO
100
AcDbPolyline
 62
253
  6
CONTINUOUS
 90
8
 70
0
 10
-36.409514794
 20
0.1940627272
 10
-36.4093450263
 20
0.1870735873
 10
-36.4091579998
 20
0.1810918777
 10
-36.4089547603
 20
0.176151044
 10
-36.4087364441
 20
0.1722787119
 10
-36.4085042719
 20
0.169496533
 10
-36.4082595418
 20
0.1678200633
 10
-36.4080036222
 20
0.1672586764
  0
LINE
  5
331
100
AcDbEntity
  8
RACCORDO
100
AcDbLine
 62
253
  6
CONTINUOUS
 10
-36.4097988578
 20
0.2109015691
 11
-36.409514794
 21
0.1940627272
  0
LINE
  5
332
100
AcDbEntity
  8
RACCORDO
100
AcDbLine
 62
253
  6
CONTINUOUS
 10
-36.4100038471
 20
0.2312323243
 11
-36.4097988578
 21
0.2109015691
  0
LINE
  5
333
100
AcDbEntity
  8
RACCORDO
100
AcDbLine
 62
253
  6
CONTINUOUS
 10
-36.4097487964
 20
-0.3410665224
 11
-36.410107988
 21
-0.2821231932
  0
LWPOLYLINE
  5
334
100
AcDbEntity
  8
RACCORDO
100
AcDbPolyline
 62
253
  6
CONTINUOUS
 90
13
 70
0
 10
-36.4097321777
 20
-0.3410663774
 10
-36.4057105078
 20
-2.0239779703
 10
-36.39601852
 20
-3.7067911713
 10
-36.3806562143
 20
-5.3895059803
 10
-36.3596226881
 20
-7.0721288942
 10
-36.332918844
 20
-8.7546534161
 10
-36.3005473898
 20
-10.4370600555
 10
-36.2625092632
 20
-12.1193486782
 10
-36.2188035265
 20
-13.8015194183
 10
-36.1694300743
 20
-15.4835531881
 10
-36.1143888714
 20
-17.1654436248
 10
-36.0536799531
 20
-18.8471970912
 10
-35.9873033193
 20
-20.5288135872
  0
LINE
  5
335
100
AcDbEntity
  8
RACCORDO
100
AcDbLine
 62
253
  6
CONTINUOUS
 10
-36.4101535602
 20
0.2672636604
 11
-36.4100038471
 21
0.2312323243
  0
LINE
  5
336
100
AcDbEntity
  8
RACCORDO
100
AcDbLine
 62
253
  6
CONTINUOUS
 10
-36.410107988
 20
-0.2821231932
 11
-36.410153561
 21
-0.2410790058
  0
LINE
  5
337
100
AcDbEntity
  8
RACCORDO
100
AcDbLine
 62
253
  6
CONTINUOUS
 10
-36.4101079871
 20
0.3083078141
 11
-36.4101535602
 21
0.2672636604
  0
LINE
  5
338
100
AcDbEntity
  8
RACCORDO
100
AcDbLine
 62
253
  6
CONTINUOUS
 10
-36.410153561
 20
-0.2410790058
 11
-36.4100038473
 21
-0.2050476683
  0
LINE
  5
339
100
AcDbEntity
  8
RACCORDO
100
AcDbLine
 62
253
  6
CONTINUOUS
 10
-36.4097487964
 20
0.367251061
 11
-36.4101079871
 21
0.3083078141
  0
LINE
  5
33A
100
AcDbEntity
  8
RACCORDO
100
AcDbLine
 62
253
  6
CONTINUOUS
 10
-36.4100038473
 20
-0.2050476683
 11
-36.4097988575
 21
-0.1847169288
  0
LWPOLYLINE
  5
33B
100
AcDbEntity
  8
RACCORDO
100
AcDbPolyline
 62
253
  6
CONTINUOUS
 90
9
 70
0
 10
-36.4097988575
 20
-0.1847169288
 10
-36.4095147933
 20
-0.1678781123
 10
-36.4093450255
 20
-0.1608889871
 10
-36.409157999
 20
-0.1549072924
 10
-36.4089547595
 20
-0.1499664729
 10
-36.4087364433
 20
-0.1460941537
 10
-36.4085042713
 20
-0.143311985
 10
-36.4082595414
 20
-0.1416355221
 10
-36.4080036222
 20
-0.1410741378
  0
LWPOLYLINE
  5
33C
100
AcDbEntity
  8
RACCORDO
100
AcDbPolyline
 62
253
  6
CONTINUOUS
 90
13
 70
0
 10
-35.9873033193
 20
20.5549981258
 10
-36.0536799531
 20
18.8733816298
 10
-36.1143888714
 20
17.1916281635
 10
-36.1694300743
 20
15.5097377267
 10
-36.2188035265
 20
13.827703957
 10
-36.2625092632
 20
12.1455332168
 10
-36.3005473898
 20
10.4632445942
 10
-36.332918844
 20
8.7808379548
 10
-36.3596226881
 20
7.0983134329
 10
-36.3806562143
 20
5.415690519
 10
-36.39601852
 20
3.73297571
 10
-36.4057105078
 20
2.050162509
 10
-36.4097321777
 20
0.367250916
  0
LWPOLYLINE
  5
33D
100
AcDbEntity
  8
RACCORDO
100
AcDbPolyline
 62
253
  6
CONTINUOUS
 90
10
 70
0
 10
-35.0584064853
 20
21.9295164087
 10
-35.0590502802
 20
21.9585627354
 10
-35.0592342881
 20
21.970847849
 10
-35.0593254366
 20
21.9815838701
 10
-35.0593234176
 20
21.9907345135
 10
-35.0592282379
 20
21.9982688522
 10
-35.0590402192
 20
22.0041614219
 10
-35.0587599969
 20
22.0083923071
 10
-35.0583885182
 20
22.0109472086
 10
-35.0579270385
 20
22.0118174913
  0
LWPOLYLINE
  5
33E
100
AcDbEntity
  8
RACCORDO
100
AcDbPolyline
 62
253
  6
CONTINUOUS
 90
9
 70
0
 10
-35.0590502799
 20
-21.9323782168
 10
-35.0592342878
 20
-21.9446633263
 10
-35.0593254362
 20
-21.9553993436
 10
-35.0593234172
 20
-21.9645499835
 10
-35.0592282375
 20
-21.9720843192
 10
-35.0590402188
 20
-21.9779768865
 10
-35.0587599966
 20
-21.98220777
 10
-35.058388518
 20
-21.9847626703
 10
-35.0579270385
 20
-21.9856329526
  0
LINE
  5
33F
100
AcDbEntity
  8
RACCORDO
100
AcDbLine
 62
253
  6
CONTINUOUS
 10
-35.0584064854
 20
-21.9033318987
 11
-35.0590502799
 21
-21.9323782168
  0
LINE
  5
340
100
AcDbEntity
  8
RACCORDO
100
AcDbLine
 62
253
  6
CONTINUOUS
 10
-35.0404852636
 20
21.5125027239
 11
-35.0476176322
 21
21.6556269248
  0
LINE
  5
341
100
AcDbEntity
  8
RACCORDO
100
AcDbLine
 62
253
  6
CONTINUOUS
 10
-35.0476176322
 20
21.6556269248
 11
-35.0523906116
 21
21.7620284964
  0
LINE
  5
342
100
AcDbEntity
  8
RACCORDO
100
AcDbLine
 62
253
  6
CONTINUOUS
 10
-35.0523906116
 20
21.7620284964
 11
-35.0552531946
 21
21.8333008564
  0
LINE
  5
343
100
AcDbEntity
  8
RACCORDO
100
AcDbLine
 62
253
  6
CONTINUOUS
 10
-35.0552531946
 20
21.8333008564
 11
-35.0574027481
 21
21.8948372364
  0
LINE
  5
344
100
AcDbEntity
  8
RACCORDO
100
AcDbLine
 62
253
  6
CONTINUOUS
 10
-35.0574027481
 20
21.8948372364
 11
-35.0584064853
 21
21.9295164087
  0
LINE
  5
345
100
AcDbEntity
  8
RACCORDO
100
AcDbLine
 62
253
  6
CONTINUOUS
 10
-35.0574027485
 20
-21.8686527345
 11
-35.0584064854
 21
-21.9033318987
  0
LINE
  5
346
100
AcDbEntity
  8
RACCORDO
100
AcDbLine
 62
253
  6
CONTINUOUS
 10
-35.0552531956
 20
-21.8071163635
 11
-35.0574027485
 21
-21.8686527345
  0
LINE
  5
347
100
AcDbEntity
  8
RACCORDO
100
AcDbLine
 62
253
  6
CONTINUOUS
 10
-35.0523906131
 20
-21.7358440059
 11
-35.0552531956
 21
-21.8071163635
  0
LINE
  5
348
100
AcDbEntity
  8
RACCORDO
100
AcDbLine
 62
253
  6
CONTINUOUS
 10
-35.0476176335
 20
-21.6294424233
 11
-35.0523906131
 21
-21.7358440059
  0
LINE
  5
349
100
AcDbEntity
  8
RACCORDO
100
AcDbLine
 62
253
  6
CONTINUOUS
 10
-35.0404852636
 20
-21.4863181853
 11
-35.0476176335
 21
-21.6294424233
  0
LINE
  5
34A
100
AcDbEntity
  8
RACCORDO
100
AcDbLine
 62
253
  6
CONTINUOUS
 10
-30.2011481496
 20
-0.2868848854
 11
-36.4097321777
 21
-0.3410663774
  0
LINE
  5
34B
100
AcDbEntity
  8
RACCORDO
100
AcDbLine
 62
7
  6
CONTINUOUS
 10
-30.2011481496
 20
-0.0869077307
 11
-36.7027661474
 21
-0.1436464914
  0
LINE
  5
34C
100
AcDbEntity
  8
RACCORDO
100
AcDbLine
 62
253
  6
CONTINUOUS
 10
-36.4097321776
 20
-0.3410664311
 11
-36.9010207879
 21
-0.3437816335
  0
LINE
  5
34D
100
AcDbEntity
  8
RACCORDO
100
AcDbLine
 62
7
  6
CONTINUOUS
 10
-36.7027661474
 20
0.16983103
 11
-30.2011481496
 21
0.1130922693
  0
LINE
  5
34E
100
AcDbEntity
  8
RACCORDO
100
AcDbLine
 62
7
  6
CONTINUOUS
 10
-30.6011481496
 20
17.9465838705
 11
-30.6011481496
 21
17.6851131904
  0
LINE
  5
34F
100
AcDbEntity
  8
RACCORDO
100
AcDbLine
 62
7
  6
CONTINUOUS
 10
-30.6011481496
 20
-17.6589286518
 11
-30.6011481496
 21
-17.9203993319
  0
LINE
  5
350
100
AcDbEntity
  8
RACCORDO
100
AcDbLine
 62
7
  6
CONTINUOUS
 10
-30.2011481496
 20
-0.0869077307
 11
-30.2011481496
 21
-13.0869077307
  0
LINE
  5
351
100
AcDbEntity
  8
RACCORDO
100
AcDbLine
 62
7
  6
CONTINUOUS
 10
-30.2011481496
 20
0.1130922693
 11
-30.2011481496
 21
13.1130922693
  0
LINE
  5
352
100
AcDbEntity
  8
RACCORDO
100
AcDbLine
 62
253
  6
CONTINUOUS
 10
-36.9010207879
 20
0.3699661722
 11
-36.4097321777
 21
0.3672509698
  0
LINE
  5
353
100
AcDbEntity
  8
RACCORDO
100
AcDbLine
 62
253
  6
CONTINUOUS
 10
-36.4097321777
 20
0.367250916
 11
-30.2011481496
 21
0.313069424
  0
LINE
  5
354
100
AcDbEntity
  8
RACCORDO
100
AcDbLine
 62
7
  6
CONTINUOUS
 10
-30.2011481496
 20
13.1130922693
 11
-30.9982994702
 21
22.2245735569
  0
LINE
  5
355
100
AcDbEntity
  8
RACCORDO
100
AcDbLine
 62
7
  6
CONTINUOUS
 10
-30.2011481496
 20
-13.0869077307
 11
-30.9982994702
 21
-22.1983890182
  0
LINE
  5
356
100
AcDbEntity
  8
RACCORDO
100
AcDbLine
 62
7
  6
CONTINUOUS
 10
-30.6292558135
 20
-18.0471848104
 11
-30.6364696159
 21
-18.0626548597
  0
LINE
  5
357
100
AcDbEntity
  8
RACCORDO
100
AcDbLine
 62
7
  6
CONTINUOUS
 10
-30.6364696159
 20
18.0888393984
 11
-30.6292558135
 21
18.0733693491
  0
LINE
  5
358
100
AcDbEntity
  8
RACCORDO
100
AcDbLine
 62
253
  6
CONTINUOUS
 10
-30.6011481496
 20
17.9465838705
 11
-30.6240238699
 21
17.9465838705
  0
LWPOLYLINE
  5
359
100
AcDbEntity
  8
RACCORDO
100
AcDbPolyline
 62
253
  6
CONTINUOUS
 90
37
 70
0
 10
-35.0404852636
 20
21.5125027239
 10
-35.0815111905
 20
21.5094991339
 10
-35.1222470981
 20
21.5048391369
 10
-35.1626929864
 20
21.4985227327
 10
-35.2029168208
 20
21.4905337659
 10
-35.2428506358
 20
21.480888392
 10
-35.2822905352
 20
21.4696350775
 10
-35.3212335687
 20
21.4567655369
 10
-35.3596826864
 20
21.4422880557
 10
-35.3974428423
 20
21.4262759566
 10
-35.434509961
 20
21.4087216602
 10
-35.4708881179
 20
21.3896327458
 10
-35.5063944921
 20
21.3691052739
 10
-35.5410247483
 20
21.3471320281
 10
-35.5747832219
 20
21.3237202247
 10
-35.6075000984
 20
21.2989875741
 10
-35.6391703317
 20
21.2729272296
 10
-35.6697989679
 20
21.2455460378
 10
-35.699231331
 20
21.2169822489
 10
-35.7274613155
 20
21.1872298592
 10
-35.7544950268
 20
21.1562948724
 10
-35.7801961051
 20
21.1243335494
 10
-35.804557645
 20
21.0913409414
 10
-35.8275865519
 20
21.0573219972
 10
-35.8491671822
 20
21.0224478234
 10
-35.869292286
 20
20.9867141735
 10
-35.8879691131
 20
20.9501252939
 10
-35.9051037693
 20
20.9128650309
 10
-35.9206886283
 20
20.8749293931
 10
-35.9347313163
 20
20.8363223718
 10
-35.9471608185
 20
20.7972397866
 10
-35.957968855
 20
20.7576784274
 10
-35.9671637055
 20
20.7176415044
 10
-35.9746991948
 20
20.6773344677
 10
-35.9805599309
 20
20.6368258008
 10
-35.9847613057
 20
20.5960470201
 10
-35.9873033193
 20
20.5549981258
  0
LINE
  5
35A
100
AcDbEntity
  8
RACCORDO
100
AcDbLine
 62
253
  6
CONTINUOUS
 10
-30.9547348639
 20
21.7266278291
 11
-35.0404852636
 21
21.5125027239
  0
LINE
  5
35B
100
AcDbEntity
  8
RACCORDO
100
AcDbLine
 62
7
  6
CONTINUOUS
 10
-30.9982994702
 20
22.2245735569
 11
-35.0579097187
 21
22.011818399
  0
LWPOLYLINE
  5
35C
100
AcDbEntity
  8
RACCORDO
100
AcDbPolyline
 62
253
  6
CONTINUOUS
 90
4
 70
0
 10
-35.9873033193
 20
20.5549981258
 10
-36.4748523591
 20
20.5753834521
 10
-36.4773284224
 20
20.5755059532
 10
-36.4781541218
 20
20.5755605941
  0
CIRCLE
  5
35D
100
AcDbEntity
  8
DRAFT
100
AcDbCircle
 62
7
  6
CONTINUOUS
 10
-0.2502002805
 20
4.5130922693
 40
1.3
  0
CIRCLE
  5
35E
100
AcDbEntity
  8
DRAFT
100
AcDbCircle
 62
7
  6
CONTINUOUS
 10
-0.2502002805
 20
-4.4869077307
 40
1.3
  0
CIRCLE
  5
35F
100
AcDbEntity
  8
DRAFT
100
AcDbCircle
 62
7
  6
CONTINUOUS
 10
-0.2502002805
 20
-4.4869077307
 40
1.225
  0
CIRCLE
  5
360
100
AcDbEntity
  8
DRAFT
100
AcDbCircle
 62
7
  6
CONTINUOUS
 10
-0.2502002805
 20
4.5130922693
 40
1.225
  0
CIRCLE
  5
361
100
AcDbEntity
  8
RACCORDO
100
AcDbCircle
 62
253
  6
CONTINUOUS
 10
-0.2502002805
 20
-4.4869077307
 40
1.2068524201
  0
CIRCLE
  5
362
100
AcDbEntity
  8
RACCORDO
100
AcDbCircle
 62
253
  6
CONTINUOUS
 10
-0.2502002805
 20
4.5130922693
 40
1.2068524201
  0
CIRCLE
  5
363
100
AcDbEntity
  8
RACCORDO
100
AcDbCircle
 62
253
  6
CONTINUOUS
 10
-0.2502002805
 20
-4.4869077307
 40
1.1180464865
  0
CIRCLE
  5
364
100
AcDbEntity
  8
RACCORDO
100
AcDbCircle
 62
253
  6
CONTINUOUS
 10
-0.2502002805
 20
4.5130922693
 40
1.1180464865
  0
ARC
  5
365
100
AcDbEntity
  8
RACCORDO
100
AcDbCircle
 62
7
  6
CONTINUOUS
 10
-34.9794231041
 20
-20.4876886505
 40
1.5
100
AcDbArc
 50
182.356166499
 51
267.000662446
  0
ARC
  5
366
100
AcDbEntity
  8
RACCORDO
100
AcDbCircle
 62
7
  6
CONTINUOUS
 10
-30.9011481496
 20
-17.9203993319
 40
0.3
100
AcDbArc
 50
335.0
 51
360.0
  0
ARC
  5
367
100
AcDbEntity
  8
RACCORDO
100
AcDbCircle
 62
7
  6
CONTINUOUS
 10
-36.7010203297
 20
-0.3436388715
 40
0.2
100
AcDbArc
 50
90.5001462853
 51
180.0408961681
  0
ARC
  5
368
100
AcDbEntity
  8
RACCORDO
100
AcDbCircle
 62
7
  6
CONTINUOUS
 10
-34.9794231041
 20
20.5138731892
 40
1.5
100
AcDbArc
 50
92.999337554
 51
177.643833501
  0
ARC
  5
369
100
AcDbEntity
  8
RACCORDO
100
AcDbCircle
 62
7
  6
CONTINUOUS
 10
-30.9011481496
 20
17.9465838705
 40
0.3
100
AcDbArc
 50
0.0
 51
25.0
  0
ARC
  5
36A
100
AcDbEntity
  8
RACCORDO
100
AcDbCircle
 62
7
  6
CONTINUOUS
 10
-36.7010203297
 20
0.3698234102
 40
0.2
100
AcDbArc
 50
179.9591038319
 51
269.4998537147
  0
ARC
  5
36B
100
AcDbEntity
  8
RACCORDO
100
AcDbCircle
 62
7
  6
CONTINUOUS
 10
463.0988518504
 20
0.0130922693
 40
500.0
100
AcDbArc
 50
177.6430523596
 51
179.9591052604
  0
ARC
  5
36C
100
AcDbEntity
  8
RACCORDO
100
AcDbCircle
 62
7
  6
CONTINUOUS
 10
463.0988518504
 20
0.0130922693
 40
500.0
100
AcDbArc
 50
180.0408947396
 51
182.3569476404
  0
ELLIPSE
  5
36D
100
AcDbEntity
  8
RACCORDO
100
AcDbEllipse
 62
7
  6
CONTINUOUS
 10
7.0343296656
 20
22.1982203743
 30
0.0
 11
0.2
 21
-0.0
 31
0.0
 40
0.0524077793
 41
-1.5707963268
 42
-0.5235987756
  0
ELLIPSE
  5
36E
100
AcDbEntity
  8
RACCORDO
100
AcDbEllipse
 62
7
  6
CONTINUOUS
 10
3.6652697733
 20
22.1982203743
 30
0.0
 11
0.2
 21
0.0
 31
0.0
 40
0.0524077793
 41
-2.617993878
 42
-1.5707963268
  0
ELLIPSE
  5
36F
100
AcDbEntity
  8
RACCORDO
100
AcDbEllipse
 62
7
  6
CONTINUOUS
 10
-4.1656703344
 20
22.1982203743
 30
0.0
 11
0.2
 21
0.0
 31
0.0
 40
0.0524077793
 41
-1.5707963268
 42
-0.5235987756
  0
ELLIPSE
  5
370
100
AcDbEntity
  8
RACCORDO
100
AcDbEllipse
 62
7
  6
CONTINUOUS
 10
-7.5347302267
 20
22.1982203743
 30
0.0
 11
0.2
 21
0.0
 31
0.0
 40
0.0524077793
 41
-2.617993878
 42
-1.5707963268
  0
ELLIPSE
  5
371
100
AcDbEntity
  8
RACCORDO
100
AcDbEllipse
 62
7
  6
CONTINUOUS
 10
-11.2001698149
 20
0.313099885
 30
0.0
 11
0.1789222233
 21
0.0894542984
 31
0.0
 40
0.9998096356
 41
2.6780516535
 42
4.2486956813
  0
ELLIPSE
  5
372
100
AcDbEntity
  8
RACCORDO
100
AcDbEllipse
 62
7
  6
CONTINUOUS
 10
10.6997692538
 20
0.313099885
 30
0.0
 11
0.1789222233
 21
-0.0894542984
 31
0.0
 40
0.9998096356
 41
-1.1071030277
 42
0.4635410001
  0
ELLIPSE
  5
373
100
AcDbEntity
  8
RACCORDO
100
AcDbEllipse
 62
7
  6
CONTINUOUS
 10
-10.8869709067
 20
21.7261725954
 30
0.0
 11
0.498078285
 21
0.0448076117
 31
0.0
 40
0.9965957691
 41
1.4807720384
 42
3.0506549766
  0
ELLIPSE
  5
374
100
AcDbEntity
  8
RACCORDO
100
AcDbEllipse
 62
7
  6
CONTINUOUS
 10
10.3865703456
 20
21.7261725954
 30
0.0
 11
0.498078285
 21
-0.0448076117
 31
0.0
 40
0.9965957691
 41
0.0909376769
 42
1.6608206152
  0
ELLIPSE
  5
375
100
AcDbEntity
  8
RACCORDO
100
AcDbEllipse
 62
7
  6
CONTINUOUS
 10
-7.5347302267
 20
-22.1720358356
 30
0.0
 11
0.2
 21
0.0
 31
0.0
 40
0.0524077793
 41
1.5707963268
 42
2.617993878
  0
ELLIPSE
  5
376
100
AcDbEntity
  8
RACCORDO
100
AcDbEllipse
 62
7
  6
CONTINUOUS
 10
-4.1656703344
 20
-22.1720358356
 30
0.0
 11
0.2
 21
-0.0
 31
0.0
 40
0.0524077793
 41
0.5235987756
 42
1.5707963268
  0
ELLIPSE
  5
377
100
AcDbEntity
  8
RACCORDO
100
AcDbEllipse
 62
7
  6
CONTINUOUS
 10
3.6652697733
 20
-22.1720358356
 30
0.0
 11
0.2
 21
0.0
 31
0.0
 40
0.0524077793
 41
1.5707963268
 42
2.617993878
  0
ELLIPSE
  5
378
100
AcDbEntity
  8
RACCORDO
100
AcDbEllipse
 62
7
  6
CONTINUOUS
 10
7.0343296656
 20
-22.1720358356
 30
0.0
 11
0.2
 21
0.0
 31
0.0
 40
0.0524077793
 41
0.5235987756
 42
1.5707963268
  0
ELLIPSE
  5
379
100
AcDbEntity
  8
RACCORDO
100
AcDbEllipse
 62
7
  6
CONTINUOUS
 10
10.6997692538
 20
-0.2869153464
 30
0.0
 11
0.1789222233
 21
0.0894542984
 31
0.0
 40
0.9998096356
 41
-0.4635410001
 42
1.1071030277
  0
ELLIPSE
  5
37A
100
AcDbEntity
  8
RACCORDO
100
AcDbEllipse
 62
7
  6
CONTINUOUS
 10
-11.2001698149
 20
-0.2869153464
 30
0.0
 11
0.1789222233
 21
-0.0894542984
 31
0.0
 40
0.9998096356
 41
2.0344896259
 42
3.6051336537
  0
ELLIPSE
  5
37B
100
AcDbEntity
  8
RACCORDO
100
AcDbEllipse
 62
7
  6
CONTINUOUS
 10
10.3865703456
 20
-21.6999880568
 30
0.0
 11
0.498078285
 21
0.0448076117
 31
0.0
 40
0.9965957691
 41
-1.6608206152
 42
-0.0909376769
  0
ELLIPSE
  5
37C
100
AcDbEntity
  8
RACCORDO
100
AcDbEllipse
 62
7
  6
CONTINUOUS
 10
-10.8869709067
 20
-21.6999880568
 30
0.0
 11
0.498078285
 21
-0.0448076117
 31
0.0
 40
0.9965957691
 41
-3.0506549766
 42
-1.4807720384
  0
ENDSEC
  0
SECTION
  2
OBJECTS
  0
DICTIONARY
  5
C
100
AcDbDictionary
280
0
281
1
  3
ACAD_GROUP
350
D
  3
ACAD_MLINESTYLE
350
17
  3
ACAD_LAYOUT
350
1A
  3
ACAD_PLOTSETTINGS
350
19
  3
ACAD_PLOTSTYLENAME
350
E
  0
DICTIONARY
  5
D
102
{ACAD_REACTORS
330
C
102
}
100
AcDbDictionary
280
0
281
1
  0
ACDBDICTIONARYWDFLT
  5
E
102
{ACAD_REACTORS
330
C
102
}
100
AcDbDictionary
281
1
  3
Normal
350
F
100
AcDbDictionaryWithDefault
340
F
  0
DICTIONARY
  5
17
102
{ACAD_REACTORS
330
C
102
}
100
AcDbDictionary
280
0
281
1
  3
Standard
350
18
  0
DICTIONARY
  5
19
102
{ACAD_REACTORS
330
C
102
}
100
AcDbDictionary
281
1
  0
DICTIONARY
  5
1A
102
{ACAD_REACTORS
330
C
102
}
100
AcDbDictionary
281
1
  3
Model
350
37D
  3
Layout1
350
37E
  0
ACDBPLACEHOLDER
  5
F
102
{ACAD_REACTORS
330
E
102
}
  0
MLINESTYLE
  5
18
102
{ACAD_REACTORS
330
17
102
}
100
AcDbMlineStyle
  2
STANDARD
 70
0
  3

 62
256
 51
90.0
 52
90.0
 71
2
 49
0.5
 62
256
  6
BYLAYER
 49
-0.5
 62
256
  6
BYLAYER
  0
LAYOUT
  5
37D
102
{ACAD_REACTORS
330
1A
102
}
100
AcDbPlotSettings
  1

  2
none_device
  4
ISO_A4_(297.00_x_210.00_MM)
  6

 40
0.0
 41
0.0
 42
0.0
 43
0.0
 44
297.0
 45
210.0
 46
0.0
 47
0.0
 48
0.0
 49
0.0
140
0.0
141
0.0
142
1.0
143
1.0
 70
1024
 72
1
 73
0
 74
0
  7

 75
0
147
1.0
148
0.0
149
0.0
100
AcDbLayout
  1
Model
 70
0
 71
0
 10
0.0
 20
0.0
 11
297.0
 21
210.0
 12
0.0
 22
0.0
 32
0.0
 14
0.0
 24
0.0
 34
0.0
 15
0.0
 25
0.0
 35
0.0
146
0.0
 13
0.0
 23
0.0
 33
0.0
 16
1.0
 26
0.0
 36
0.0
 17
0.0
 27
1.0
 37
0.0
 76
0
330
215
345
0
346
0
  0
LAYOUT
  5
37E
102
{ACAD_REACTORS
330
1A
102
}
100
AcDbPlotSettings
  1

  2
none_device
  4
ISO_A4_(297.00_x_210.00_MM)
  6

 40
0.0
 41
0.0
 42
0.0
 43
0.0
 44
297.0
 45
210.0
 46
0.0
 47
0.0
 48
0.0
 49
0.0
140
0.0
141
0.0
142
1.0
143
1.0
 70
0
 72
1
 73
0
 74
0
  7

 75
0
147
1.0
148
0.0
149
0.0
100
AcDbLayout
  1
Layout1
 70
0
 71
1
 10
0.0
 20
0.0
 11
297.0
 21
210.0
 12
0.0
 22
0.0
 32
0.0
 14
0.0
 24
0.0
 34
0.0
 15
0.0
 25
0.0
 35
0.0
146
0.0
 13
0.0
 23
0.0
 33
0.0
 16
1.0
 26
0.0
 36
0.0
 17
0.0
 27
1.0
 37
0.0
 76
0
330
216
345
0
346
0
  0
ENDSEC
  0
EOF
