  0
SECTION
  2
HEADER
  9
$ACADVER
  1
AC1021
  9
$DWGCODEPAGE
  3
ANSI_1252
  9
$EXTMAX
 10
297.0
 20
210.0
 30
0.0
  9
$EXTMIN
 10
0.0
 20
0.0
 30
0.0
  9
$LIMMIN
 10
0.0
 20
0.0
  9
$LIMMAX
 10
297.0
 20
210.0
  9
$VIEWCTR
 10
148.5
 20
105.0
  9
$VIEWSIZE
 40
210.0
  9
$CLAYER
  8
0
  9
$LTSCALE
 40
16.335
  9
$CELTYPE
  6
BYLAYER
  9
$DIMSCALE
 40
1.0
  9
$DIMASZ
 40
3.0
  9
$DIMEXO
 40
0.5
  9
$DIMDLI
 40
11.286
  9
$DIMEXE
 40
1.5
  9
$DIMCEN
 40
2.673
  9
$DIMLFAC
 40
1.0
  9
$DIMBLK
  1
_FILLED
  9
$DIMALT
 70
0
  9
$DIMALTF
 40
25.4
  9
$DIMTXT
 40
3.0
  9
$DIMTOL
 70
1
  9
$DIMLIM
 70
0
  9
$DIMTFAC
 40
1.0
  9
$DIMTP
 40
0.01
  9
$DIMTM
 40
0.01
  9
$DIMGAP
 40
0.625
  9
$DIMDSEP
 70
44
  9
$AUNITS
 70
0
  9
$PDMODE
 70
3
  9
$PDSIZE
 40
3.0
  9
$HANDSEED
  5
394
  9
$TILEMODE
 70
1
  9
$MEASUREMENT
 70
1
  9
$INSUNITS
 70
4
  0
ENDSEC
  0
SECTION
  2
CLASSES
  0
CLASS
  1
ACDBDICTIONARYWDFLT
  2
AcDbDictionaryWithDefault
  3
AutoCAD 2000
 90
0
 91
1
280
0
281
0
  0
CLASS
  1
ACDBPLACEHOLDER
  2
AcDbPlaceHolder
  3
AutoCAD 2000
 90
0
 91
1
280
0
281
0
  0
CLASS
  1
LAYOUT
  2
AcDbLayout
  3
AutoCAD 2000
 90
0
 91
0
280
0
281
0
  0
ENDSEC
  0
SECTION
  2
TABLES
  0
TABLE
  2
VPORT
  5
8
100
AcDbSymbolTable
 70
2
  0
VPORT
  5
1F4
100
AcDbSymbolTableRecord
100
AcDbViewportTableRecord
  2
*ACTIVE
 70
0
 10
0.0
 20
0.0
 11
1.0
 21
1.0
 12
148.5
 22
105.0
 13
0.0
 23
0.0
 14
1.0
 24
1.0
 15
0.0
 25
0.0
 16
0.0
 26
0.0
 36
1.0
 17
0.0
 27
0.0
 37
0.0
 40
210.0
 41
1.4142857143
 42
50.0
 43
0.0
 44
0.0
 50
0.0
 51
0.0
 71
0
 72
100
 73
1
 74
1
 75
0
 76
0
 77
0
 78
0
  0
ENDTAB
  0
TABLE
  2
LTYPE
  5
5
100
AcDbSymbolTable
 70
6
  0
LTYPE
  5
14
100
AcDbSymbolTableRecord
100
AcDbLinetypeTableRecord
  2
BYBLOCK
 70
0
  3

 72
65
 73
0
 40
0.0
  0
LTYPE
  5
15
100
AcDbSymbolTableRecord
100
AcDbLinetypeTableRecord
  2
BYLAYER
 70
0
  3

 72
65
 73
0
 40
0.0
  0
LTYPE
  5
16
100
AcDbSymbolTableRecord
100
AcDbLinetypeTableRecord
  2
CONTINUOUS
 70
64
  3
Solid line
 72
65
 73
0
 40
0.0
  0
LTYPE
  5
1F5
100
AcDbSymbolTableRecord
100
AcDbLinetypeTableRecord
  2
CENTER
 70
64
  3
____ _ ____ _ ____ _ ____ _ ____ _ ____ _ ____
 72
65
 73
4
 40
0.6
 49
0.375
 74
0
 49
-0.075
 74
0
 49
0.075
 74
0
 49
-0.075
 74
0
  0
LTYPE
  5
1F6
100
AcDbSymbolTableRecord
100
AcDbLinetypeTableRecord
  2
HIDDEN
 70
64
  3
- - - - - - - - - - - - - - - - - - - -
 72
65
 73
2
 40
0.2
 49
0.1
 74
0
 49
-0.1
 74
0
  0
LTYPE
  5
1F7
100
AcDbSymbolTableRecord
100
AcDbLinetypeTableRecord
  2
PHANTOM
 70
64
  3
_____ _ _ _____ _ _ _____ _ _ _____
 72
65
 73
6
 40
0.8
 49
0.45
 74
0
 49
-0.05
 74
0
 49
0.1
 74
0
 49
-0.05
 74
0
 49
0.1
 74
0
 49
-0.05
 74
0
  0
LTYPE
  5
1F8
100
AcDbSymbolTableRecord
100
AcDbLinetypeTableRecord
  2
DOT
 70
64
  3
. . . . . . . . . . . . . . . . . . . .
 72
65
 73
2
 40
0.2
 49
0.1
 74
0
 49
-0.1
 74
0
  0
LTYPE
  5
1F9
100
AcDbSymbolTableRecord
100
AcDbLinetypeTableRecord
  2
DASHED
 70
64
  3
- - - - - - - - - - - - - - - - - - - -
 72
65
 73
2
 40
0.2
 49
0.1
 74
0
 49
-0.1
 74
0
  0
ENDTAB
  0
TABLE
  2
LAYER
  5
2
100
AcDbSymbolTable
 70
36
  0
LAYER
  5
10
100
AcDbSymbolTableRecord
100
AcDbLayerTableRecord
  2
0
 70
0
 62
7
  6
CONTINUOUS
370
-3
390
F
  0
LAYER
  5
1FA
100
AcDbSymbolTableRecord
100
AcDbLayerTableRecord
  2
DEFAULT_1
 70
0
 62
7
  6
CENTER
370
-3
390
F
  0
LAYER
  5
1FB
100
AcDbSymbolTableRecord
100
AcDbLayerTableRecord
  2
DEFAULT_2
 70
0
 62
7
  6
HIDDEN
370
-3
390
F
  0
LAYER
  5
1FC
100
AcDbSymbolTableRecord
100
AcDbLayerTableRecord
  2
DEFAULT_3
 70
0
 62
7
  6
PHANTOM
370
-3
390
F
  0
LAYER
  5
1FD
100
AcDbSymbolTableRecord
100
AcDbLayerTableRecord
  2
ASSI
 70
0
 62
7
  6
CONTINUOUS
370
-3
390
F
  0
LAYER
  5
1FE
100
AcDbSymbolTableRecord
100
AcDbLayerTableRecord
  2
COORDINATE
 70
0
 62
7
  6
CONTINUOUS
370
-3
390
F
  0
LAYER
  5
1FF
100
AcDbSymbolTableRecord
100
AcDbLayerTableRecord
  2
COORD_ORIGINE
 70
0
 62
7
  6
CONTINUOUS
370
-3
390
F
  0
LAYER
  5
200
100
AcDbSymbolTableRecord
100
AcDbLayerTableRecord
  2
COPY_PUBLISH
 70
0
 62
7
  6
CONTINUOUS
370
-3
390
F
  0
LAYER
  5
201
100
AcDbSymbolTableRecord
100
AcDbLayerTableRecord
  2
COSMETIC
 70
0
 62
7
  6
CONTINUOUS
370
-3
390
F
  0
LAYER
  5
202
100
AcDbSymbolTableRecord
100
AcDbLayerTableRecord
  2
COSMETICI
 70
0
 62
7
  6
CONTINUOUS
370
-3
390
F
  0
LAYER
  5
203
100
AcDbSymbolTableRecord
100
AcDbLayerTableRecord
  2
CURVE
 70
0
 62
7
  6
CONTINUOUS
370
-3
390
F
  0
LAYER
  5
204
100
AcDbSymbolTableRecord
100
AcDbLayerTableRecord
  2
DRAFT
 70
0
 62
7
  6
CONTINUOUS
370
-3
390
F
  0
LAYER
  5
205
100
AcDbSymbolTableRecord
100
AcDbLayerTableRecord
  2
IGES
 70
0
 62
7
  6
CONTINUOUS
370
-3
390
F
  0
LAYER
  5
206
100
AcDbSymbolTableRecord
100
AcDbLayerTableRecord
  2
IMPORT_IGES
 70
0
 62
7
  6
CONTINUOUS
370
-3
390
F
  0
LAYER
  5
207
100
AcDbSymbolTableRecord
100
AcDbLayerTableRecord
  2
LIVELLO_1
 70
0
 62
7
  6
CONTINUOUS
370
-3
390
F
  0
LAYER
  5
208
100
AcDbSymbolTableRecord
100
AcDbLayerTableRecord
  2
NOTE
 70
0
 62
7
  6
CONTINUOUS
370
-3
390
F
  0
LAYER
  5
209
100
AcDbSymbolTableRecord
100
AcDbLayerTableRecord
  2
PIANI
 70
0
 62
7
  6
CONTINUOUS
370
-3
390
F
  0
LAYER
  5
20A
100
AcDbSymbolTableRecord
100
AcDbLayerTableRecord
  2
PIANI_ORIGINE
 70
0
 62
7
  6
CONTINUOUS
370
-3
390
F
  0
LAYER
  5
20B
100
AcDbSymbolTableRecord
100
AcDbLayerTableRecord
  2
PIANI_RIFERIMENTO
 70
0
 62
7
  6
CONTINUOUS
370
-3
390
F
  0
LAYER
  5
20C
100
AcDbSymbolTableRecord
100
AcDbLayerTableRecord
  2
PUNTI
 70
0
 62
7
  6
CONTINUOUS
370
-3
390
F
  0
LAYER
  5
20D
100
AcDbSymbolTableRecord
100
AcDbLayerTableRecord
  2
RACCORDO
 70
0
 62
7
  6
CONTINUOUS
370
-3
390
F
  0
LAYER
  5
20E
100
AcDbSymbolTableRecord
100
AcDbLayerTableRecord
  2
SIMBOLI
 70
0
 62
7
  6
CONTINUOUS
370
-3
390
F
  0
LAYER
  5
20F
100
AcDbSymbolTableRecord
100
AcDbLayerTableRecord
  2
SMUSSO
 70
0
 62
7
  6
CONTINUOUS
370
-3
390
F
  0
LAYER
  5
210
100
AcDbSymbolTableRecord
100
AcDbLayerTableRecord
  2
SNAPLINE
 70
0
 62
7
  6
CONTINUOUS
370
-3
390
F
  0
LAYER
  5
211
100
AcDbSymbolTableRecord
100
AcDbLayerTableRecord
  2
SUPERFICI
 70
0
 62
7
  6
CONTINUOUS
370
-3
390
F
  0
LAYER
  5
212
100
AcDbSymbolTableRecord
100
AcDbLayerTableRecord
  2
TRASH
 70
0
 62
7
  6
CONTINUOUS
370
-3
390
F
  0
LAYER
  5
213
100
AcDbSymbolTableRecord
100
AcDbLayerTableRecord
  2
WHITE
 70
0
 62
7
  6
CONTINUOUS
370
-3
390
F
  0
LAYER
  5
214
100
AcDbSymbolTableRecord
100
AcDbLayerTableRecord
  2
XSEC_DATUMS
 70
0
 62
7
  6
CONTINUOUS
370
-3
390
F
  0
ENDTAB
  0
TABLE
  2
STYLE
  5
3
100
AcDbSymbolTable
 70
1
  0
STYLE
  5
11
100
AcDbSymbolTableRecord
100
AcDbTextStyleTableRecord
  2
STANDARD
 70
0
 40
0.0
 41
0.8
 50
0.0
 71
0
 42
0.2
  3
txt
  4

  0
STYLE
  5
215
100
AcDbSymbolTableRecord
100
AcDbTextStyleTableRecord
  2
TEXTSTYLE_1
 70
0
 40
0.0
 41
0.8
 50
0.0
 71
0
 42
0.2
  3
gdt
  4

  0
ENDTAB
  0
TABLE
  2
VIEW
  5
6
100
AcDbSymbolTable
 70
0
  0
ENDTAB
  0
TABLE
  2
UCS
  5
7
100
AcDbSymbolTable
 70
0
  0
ENDTAB
  0
TABLE
  2
APPID
  5
9
100
AcDbSymbolTable
 70
1
  0
APPID
  5
216
100
AcDbSymbolTableRecord
100
AcDbRegAppTableRecord
  2
ACAD
 70
0
  0
ENDTAB
  0
TABLE
  2
BLOCK_RECORD
  5
1
100
AcDbSymbolTable
 70
0
  0
BLOCK_RECORD
  5
217
100
AcDbSymbolTableRecord
100
AcDbBlockTableRecord
  2
*Model_Space
  0
BLOCK_RECORD
  5
218
100
AcDbSymbolTableRecord
100
AcDbBlockTableRecord
  2
*Paper_Space
  0
BLOCK_RECORD
  5
219
100
AcDbSymbolTableRecord
100
AcDbBlockTableRecord
  2
_FILLED
  0
BLOCK_RECORD
  5
21A
100
AcDbSymbolTableRecord
100
AcDbBlockTableRecord
  2
*D0
  0
BLOCK_RECORD
  5
21B
100
AcDbSymbolTableRecord
100
AcDbBlockTableRecord
  2
*D1
  0
BLOCK_RECORD
  5
21C
100
AcDbSymbolTableRecord
100
AcDbBlockTableRecord
  2
*D2
  0
ENDTAB
  0
TABLE
  2
DIMSTYLE
  5
A
100
AcDbSymbolTable
 70
1
100
AcDbDimStyleTable
 71
0
  0
DIMSTYLE
105
21D
100
AcDbSymbolTableRecord
100
AcDbDimStyleTableRecord
  2
STANDARD
 70
0
  3

  4

 40
1.0
 41
3.0
 42
0.5
 43
0.38
 44
1.5
 45
0.0
 46
0.0
 47
0.01
 48
0.01
140
3.0
141
0.09
142
0.0
143
25.4
144
1.0
145
0.0
146
1.0
147
0.625
 71
1.0
 72
0.0
 73
0
 74
0
 75
0
 76
0
 77
1
 78
8
170
0
171
1
172
0
173
0
174
0
175
0
176
0
177
0
178
0
270
2
271
2
272
2
273
2
274
2
275
0
280
0
281
0
282
0
283
1
284
8
285
0
286
0
287
3
288
0
340
11
278
44
341
219
342
219
343
219
344
219
  0
DIMSTYLE
105
21E
100
AcDbSymbolTableRecord
100
AcDbDimStyleTableRecord
  2
DIMSTYLE_1
 70
0
  3

  4

 40
1.0
 41
3.0
 42
0.5
 43
0.38
 44
1.5
 45
0.0
 46
0.0
 47
0.0
 48
0.0
140
3.0
141
0.09
142
0.0
143
25.4
144
1.0
145
0.0
146
1.0
147
0.75
 71
0.0
 72
0.0
 73
0
 74
0
 75
0
 76
0
 77
1
 78
8
170
0
171
1
172
0
173
0
174
0
175
0
176
0
177
0
178
0
270
2
271
1
272
1
273
2
274
2
275
0
280
0
281
0
282
0
283
1
284
8
285
0
286
0
287
3
288
0
340
11
278
44
341
219
342
219
343
219
344
219
  0
DIMSTYLE
105
21F
100
AcDbSymbolTableRecord
100
AcDbDimStyleTableRecord
  2
DIMSTYLE_2
 70
0
  3

  4

 40
1.0
 41
3.0
 42
0.5
 43
0.38
 44
1.5
 45
0.0
 46
0.0
 47
0.0
 48
0.0
140
3.0
141
0.09
142
0.0
143
25.4
144
1.0
145
0.0
146
1.0
147
0.75
 71
0.0
 72
0.0
 73
0
 74
0
 75
0
 76
0
 77
1
 78
8
170
0
171
1
172
0
173
0
174
0
175
0
176
0
177
0
178
0
270
2
271
2
272
2
273
2
274
2
275
0
280
0
281
0
282
0
283
1
284
8
285
0
286
0
287
3
288
0
340
11
278
44
341
219
342
219
343
219
344
219
  0
ENDTAB
  0
ENDSEC
  0
SECTION
  2
BLOCKS
  0
BLOCK
  5
20
100
AcDbEntity
  8
0
100
AcDbBlockBegin
  2
*Model_Space
 70
0
 10
0.0
 20
0.0
 30
0.0
  3
*Model_Space
  1

  0
ENDBLK
  5
21
100
AcDbEntity
  8
0
100
AcDbBlockEnd
  0
BLOCK
  5
1C
100
AcDbEntity
  8
0
100
AcDbBlockBegin
  2
*Paper_Space
 70
0
 10
0.0
 20
0.0
 30
0.0
  3
*Paper_Space
  1

  0
ENDBLK
  5
1D
100
AcDbEntity
  8
0
100
AcDbBlockEnd
  0
BLOCK
  5
220
100
AcDbEntity
  8
0
100
AcDbBlockBegin
  2
_FILLED
 70
64
 10
0.0
 20
0.0
  3
_FILLED
  1

  0
SOLID
  5
221
100
AcDbEntity
  8
0
  6
BYBLOCK
 62
0
100
AcDbTrace
 10
0.0
 20
0.0
 11
-1.0
 21
0.3166666667
 12
-1.0
 22
-0.3166666667
 13
-1.0
 23
-0.3166666667
  0
ENDBLK
  5
222
100
AcDbEntity
  8
0
  6
BYBLOCK
 62
0
100
AcDbBlockEnd
  0
BLOCK
  5
223
100
AcDbEntity
  8
0
100
AcDbBlockBegin
 62
7
  6
CONTINUOUS
  2
*D0
 70
65
 10
0.0
 20
0.0
  3
*D0
  1

  0
MTEXT
  5
224
100
AcDbEntity
  8
0
100
AcDbMText
 62
7
  6
CONTINUOUS
  7
STANDARD
 71
2
 72
1
 10
-0.1897406741
 20
33.9061948982
 30
0.0
 11
0.999998834
 21
0.0015271185
 31
0.0
 44
0.9
  1
22,3
 40
3.0
 41
12.8571428571
  0
LINE
  5
225
100
AcDbEntity
  8
0
100
AcDbLine
 62
7
  6
CONTINUOUS
 10
10.9652707926
 20
22.1582529601
 11
10.950740316
 21
31.6732051293
  0
LINE
  5
226
100
AcDbEntity
  8
0
100
AcDbLine
 62
7
  6
CONTINUOUS
 10
-11.3084213973
 20
22.1582529601
 11
-11.3228999297
 21
31.6391906011
  0
LINE
  5
227
100
AcDbEntity
  8
0
100
AcDbLine
 62
7
  6
CONTINUOUS
 10
10.9530309938
 20
30.1732068784
 11
-0.1837891291
 21
30.1561996143
  0
LINE
  5
228
100
AcDbEntity
  8
0
100
AcDbLine
 62
7
  6
CONTINUOUS
 10
-11.3206092519
 20
30.1391923502
 11
-0.1837891291
 21
30.1561996143
  0
INSERT
  5
229
100
AcDbEntity
  8
0
100
AcDbBlockReference
 62
7
  6
CONTINUOUS
  2
_FILLED
 10
10.9530309938
 20
30.1732068784
 41
3.0
 42
3.0
 43
3.0
 50
0.0874974801
  0
INSERT
  5
22A
100
AcDbEntity
  8
0
100
AcDbBlockReference
 62
7
  6
CONTINUOUS
  2
_FILLED
 10
-11.3206092519
 20
30.1391923502
 41
3.0
 42
3.0
 43
3.0
 50
180.0874974801
  0
ENDBLK
  5
22B
100
AcDbEntity
  8
0
  6
BYBLOCK
 62
0
100
AcDbBlockEnd
  0
BLOCK
  5
22C
100
AcDbEntity
  8
0
100
AcDbBlockBegin
 62
7
  6
CONTINUOUS
  2
*D1
 70
65
 10
0.0
 20
0.0
  3
*D1
  1

  0
MTEXT
  5
22D
100
AcDbEntity
  8
0
100
AcDbMText
 62
7
  6
CONTINUOUS
  7
STANDARD
 71
2
 72
1
 10
15.2291882569
 20
-0.0552820166
 30
0.0
 11
0.0
 21
1.0
 31
0.0
 44
0.9
  1
44,4
 40
3.0
 41
13.1785714286
  0
LINE
  5
22E
100
AcDbEntity
  8
0
100
AcDbLine
 62
7
  6
CONTINUOUS
 10
10.9656545286
 20
22.1561992709
 11
20.4791882569
 21
22.1561992709
  0
LINE
  5
22F
100
AcDbEntity
  8
0
100
AcDbLine
 62
7
  6
CONTINUOUS
 10
10.9656545286
 20
-22.2667633042
 11
20.4791882569
 21
-22.2667633042
  0
LINE
  5
230
100
AcDbEntity
  8
0
100
AcDbLine
 62
7
  6
CONTINUOUS
 10
18.9791882569
 20
22.1561992709
 11
18.9791882569
 21
-0.0552820166
  0
LINE
  5
231
100
AcDbEntity
  8
0
100
AcDbLine
 62
7
  6
CONTINUOUS
 10
18.9791882569
 20
-22.2667633042
 11
18.9791882569
 21
-0.0552820166
  0
INSERT
  5
232
100
AcDbEntity
  8
0
100
AcDbBlockReference
 62
7
  6
CONTINUOUS
  2
_FILLED
 10
18.9791882569
 20
22.1561992709
 41
3.0
 42
3.0
 43
3.0
 50
90.0
  0
INSERT
  5
233
100
AcDbEntity
  8
0
100
AcDbBlockReference
 62
7
  6
CONTINUOUS
  2
_FILLED
 10
18.9791882569
 20
-22.2667633042
 41
3.0
 42
3.0
 43
3.0
 50
270.0
  0
ENDBLK
  5
234
100
AcDbEntity
  8
0
  6
BYBLOCK
 62
0
100
AcDbBlockEnd
  0
BLOCK
  5
235
100
AcDbEntity
  8
0
100
AcDbBlockBegin
 62
7
  6
CONTINUOUS
  2
*D2
 70
65
 10
0.0
 20
0.0
  3
*D2
  1

  0
MTEXT
  5
236
100
AcDbEntity
  8
0
100
AcDbMText
 62
7
  6
CONTINUOUS
  7
STANDARD
 71
1
 72
1
 10
-25.3463479734
 20
33.9061992709
 30
0.0
 11
1.0
 21
0.0
 31
0.0
 44
0.9
  1
6,7
 40
3.0
 41
9.6428571429
  0
LINE
  5
237
100
AcDbEntity
  8
0
100
AcDbLine
 62
7
  6
CONTINUOUS
 10
-29.9169851483
 20
13.5447179834
 11
-29.9169851483
 21
31.6561992709
  0
LINE
  5
238
100
AcDbEntity
  8
0
100
AcDbLine
 62
7
  6
CONTINUOUS
 10
-36.6168577866
 20
0.8015918862
 11
-36.6168577866
 21
31.6561992709
  0
LINE
  5
239
100
AcDbEntity
  8
0
100
AcDbLine
 62
7
  6
CONTINUOUS
 10
-29.9169851483
 20
30.1561992709
 11
-18.9177765449
 21
30.1561992709
  0
LINE
  5
23A
100
AcDbEntity
  8
0
100
AcDbLine
 62
7
  6
CONTINUOUS
 10
-18.9177765449
 20
30.1561992709
 11
-33.2669214674
 21
30.1561992709
  0
LINE
  5
23B
100
AcDbEntity
  8
0
100
AcDbLine
 62
7
  6
CONTINUOUS
 10
-36.6168577866
 20
30.1561992709
 11
-40.6168577866
 21
30.1561992709
  0
LINE
  5
23C
100
AcDbEntity
  8
0
100
AcDbLine
 62
7
  6
CONTINUOUS
 10
-40.6168577866
 20
30.1561992709
 11
-33.2669214674
 21
30.1561992709
  0
INSERT
  5
23D
100
AcDbEntity
  8
0
100
AcDbBlockReference
 62
7
  6
CONTINUOUS
  2
_FILLED
 10
-29.9169851483
 20
30.1561992709
 41
3.0
 42
3.0
 43
3.0
 50
180.0
  0
INSERT
  5
23E
100
AcDbEntity
  8
0
100
AcDbBlockReference
 62
7
  6
CONTINUOUS
  2
_FILLED
 10
-36.6168577866
 20
30.1561992709
 41
3.0
 42
3.0
 43
3.0
  0
ENDBLK
  5
23F
100
AcDbEntity
  8
0
  6
BYBLOCK
 62
0
100
AcDbBlockEnd
  0
ENDSEC
  0
SECTION
  2
ENTITIES
  0
DIMENSION
  5
240
100
AcDbEntity
  8
0
100
AcDbDimension
 62
7
  6
CONTINUOUS
  2
*D0
 10
-11.3206092519
 20
30.1391923502
 11
-0.6125849306
 21
30.1555447915
 70
160
 71
2
 42
22.2736662178
  3
DIMSTYLE_1
100
AcDbAlignedDimension
 13
10.9660343519
 23
21.6582535431
 14
-11.3076578381
 24
21.6582535431
 50
180.0874974801
100
AcDbRotatedDimension
  0
DIMENSION
  5
241
100
AcDbEntity
  8
0
100
AcDbDimension
 62
7
  6
CONTINUOUS
  2
*D1
 10
18.9791882569
 20
-22.2667633042
 11
18.9791882569
 21
-0.4838533182
 70
160
 71
2
 42
44.4229625751
  3
DIMSTYLE_1
100
AcDbAlignedDimension
 13
10.4656545286
 23
22.1561992709
 14
10.4656545286
 24
-22.2667633042
 50
270.0
100
AcDbRotatedDimension
  0
DIMENSION
  5
242
100
AcDbEntity
  8
0
100
AcDbDimension
 62
7
  6
CONTINUOUS
  2
*D2
 10
-36.6168577866
 20
30.1561992709
 11
-22.5606340942
 21
30.1561992709
 70
160
 71
1
 42
6.6998726383
  3
DIMSTYLE_2
100
AcDbAlignedDimension
 13
-29.9169851483
 23
13.0447179834
 14
-36.6168577866
 24
0.3015918862
 50
180.0
100
AcDbRotatedDimension
  0
LWPOLYLINE
  5
243
100
AcDbEntity
  8
ASSI
100
AcDbPolyline
 62
253
  6
CONTINUOUS
 90
15
 70
0
 10
-11.2198140289
 20
20.4866238399
 10
-11.2184855561
 20
20.4878063618
 10
-11.2155072367
 20
20.4889849707
 10
-11.210888926
 20
20.4901557666
 10
-11.2046459058
 20
20.4913148754
 10
-11.1967988344
 20
20.4924584615
 10
-11.1873736776
 20
20.4935827408
 10
-11.176401623
 20
20.4946839932
 10
-11.1639189772
 20
20.4957585746
 10
-11.149967045
 20
20.4968029292
 10
-11.1345919933
 20
20.4978136013
 10
-11.1178446979
 20
20.4987872465
 10
-11.0997805754
 20
20.499720643
 10
-11.0804593998
 20
20.5006107024
 10
-11.0599451047
 20
20.5014544793
  0
LINE
  5
244
100
AcDbEntity
  8
ASSI
100
AcDbLine
 62
7
  6
CONTINUOUS
 10
3.2233983826
 20
-22.2667633042
 11
3.57145323
 21
-22.2351693436
  0
LINE
  5
245
100
AcDbEntity
  8
ASSI
100
AcDbLine
 62
7
  6
CONTINUOUS
 10
-7.9766016174
 20
-22.2667633042
 11
-7.62854677
 21
-22.2351693436
  0
LINE
  5
246
100
AcDbEntity
  8
ASSI
100
AcDbLine
 62
7
  6
CONTINUOUS
 10
-10.8072780148
 20
-22.2667633042
 11
-7.9766016174
 21
-22.2667633042
  0
LINE
  5
247
100
AcDbEntity
  8
ASSI
100
AcDbLine
 62
7
  6
CONTINUOUS
 10
-3.5650218688
 20
-22.2667633042
 11
3.2233983826
 21
-22.2667633042
  0
LINE
  5
248
100
AcDbEntity
  8
ASSI
100
AcDbLine
 62
7
  6
CONTINUOUS
 10
7.6349781312
 20
-22.2667633042
 11
10.4656545286
 21
-22.2667633042
  0
LINE
  5
249
100
AcDbEntity
  8
ASSI
100
AcDbLine
 62
7
  6
CONTINUOUS
 10
-7.4553416893
 20
-22.2299285657
 11
-4.0862817969
 21
-22.2299285657
  0
LINE
  5
24A
100
AcDbEntity
  8
ASSI
100
AcDbLine
 62
7
  6
CONTINUOUS
 10
3.7446583107
 20
-22.2299285657
 11
7.1137182031
 21
-22.2299285657
  0
LINE
  5
24B
100
AcDbEntity
  8
ASSI
100
AcDbLine
 62
253
  6
CONTINUOUS
 10
10.3947937681
 20
-22.0540081463
 11
-10.7364172543
 21
-22.0540081463
  0
LINE
  5
24C
100
AcDbEntity
  8
ASSI
100
AcDbLine
 62
7
  6
CONTINUOUS
 10
-3.5650218688
 20
-22.2667633042
 11
-3.9130767162
 21
-22.2351693436
  0
LINE
  5
24D
100
AcDbEntity
  8
ASSI
100
AcDbLine
 62
7
  6
CONTINUOUS
 10
7.6349781312
 20
-22.2667633042
 11
7.2869232838
 21
-22.2351693436
  0
LWPOLYLINE
  5
24E
100
AcDbEntity
  8
ASSI
100
AcDbPolyline
 62
253
  6
CONTINUOUS
 90
17
 70
0
 10
-11.2198140289
 20
-20.5971878731
 10
-11.2184855746
 20
-20.5983703956
 10
-11.2155072722
 20
-20.5995490052
 10
-11.2108889769
 20
-20.6007198018
 10
-11.2046459707
 20
-20.6018789113
 10
-11.1967989115
 20
-20.6030224981
 10
-11.1873737653
 20
-20.6041467782
 10
-11.1764017198
 20
-20.6052480314
 10
-11.1639190814
 20
-20.6063226136
 10
-11.149967155
 20
-20.607366969
 10
-11.1345921074
 20
-20.6083776418
 10
-11.1178448146
 20
-20.6093512878
 10
-11.0997806932
 20
-20.6102846852
 10
-11.0804595172
 20
-20.6111747453
 10
-11.0599452203
 20
-20.612018523
 10
-11.038305684
 20
-20.6128132262
 10
-10.9919408002
 20
-20.6142450615
  0
LINE
  5
24F
100
AcDbEntity
  8
ASSI
100
AcDbLine
 62
253
  6
CONTINUOUS
 10
10.7183216185
 20
-20.6120185125
 11
10.6739889194
 21
-20.6135562133
  0
LINE
  5
250
100
AcDbEntity
  8
ASSI
100
AcDbLine
 62
253
  6
CONTINUOUS
 10
10.6739889194
 20
-20.6135562133
 11
10.6257452922
 21
-20.6148774424
  0
LINE
  5
251
100
AcDbEntity
  8
ASSI
100
AcDbLine
 62
253
  6
CONTINUOUS
 10
10.6257452922
 20
-20.6148774424
 11
10.5742287589
 21
-20.6159647267
  0
LINE
  5
252
100
AcDbEntity
  8
ASSI
100
AcDbLine
 62
253
  6
CONTINUOUS
 10
10.5742287589
 20
-20.6159647267
 11
10.5201206263
 21
-20.6168036867
  0
LINE
  5
253
100
AcDbEntity
  8
ASSI
100
AcDbLine
 62
253
  6
CONTINUOUS
 10
10.5201206263
 20
-20.6168036867
 11
10.4641364746
 21
-20.6173832273
  0
LINE
  5
254
100
AcDbEntity
  8
ASSI
100
AcDbLine
 62
253
  6
CONTINUOUS
 10
10.4641364746
 20
-20.6173832273
 11
10.4070166946
 21
-20.6176956839
  0
LINE
  5
255
100
AcDbEntity
  8
ASSI
100
AcDbLine
 62
253
  6
CONTINUOUS
 10
10.4070166946
 20
-20.6176956839
 11
-10.7198901569
 21
-20.6177298475
  0
LINE
  5
256
100
AcDbEntity
  8
ASSI
100
AcDbLine
 62
253
  6
CONTINUOUS
 10
-10.7772950712
 20
-20.6175731994
 11
-10.7198901814
 21
-20.6177503414
  0
LINE
  5
257
100
AcDbEntity
  8
ASSI
100
AcDbLine
 62
253
  6
CONTINUOUS
 10
-10.8339407803
 20
-20.617126461
 11
-10.7772950712
 21
-20.6175731994
  0
LINE
  5
258
100
AcDbEntity
  8
ASSI
100
AcDbLine
 62
253
  6
CONTINUOUS
 10
-10.8890781683
 20
-20.6164160344
 11
-10.8339407803
 21
-20.617126461
  0
LINE
  5
259
100
AcDbEntity
  8
ASSI
100
AcDbLine
 62
253
  6
CONTINUOUS
 10
-10.9419780422
 20
-20.6154513151
 11
-10.8890781683
 21
-20.6164160344
  0
LINE
  5
25A
100
AcDbEntity
  8
ASSI
100
AcDbLine
 62
253
  6
CONTINUOUS
 10
-10.9919408002
 20
-20.6142450615
 11
-10.9419780422
 21
-20.6154513151
  0
LINE
  5
25B
100
AcDbEntity
  8
CURVE
100
AcDbLine
 62
253
  6
CONTINUOUS
 10
1.8578945535
 20
-14.543414439
 11
1.5618094652
 21
-14.543414439
  0
LINE
  5
25C
100
AcDbEntity
  8
CURVE
100
AcDbLine
 62
253
  6
CONTINUOUS
 10
-0.4348434435
 20
-14.543414439
 11
-0.730893312
 21
-14.543414439
  0
LINE
  5
25D
100
AcDbEntity
  8
CURVE
100
AcDbLine
 62
253
  6
CONTINUOUS
 10
3.2172884078
 20
-13.163453606
 11
1.8578945535
 21
-13.163453606
  0
LINE
  5
25E
100
AcDbEntity
  8
CURVE
100
AcDbLine
 62
253
  6
CONTINUOUS
 10
0.9245856885
 20
-13.163453606
 11
-0.4348434435
 21
-13.163453606
  0
LWPOLYLINE
  5
25F
100
AcDbEntity
  8
ASSI
100
AcDbPolyline
 62
253
  6
CONTINUOUS
 90
28
 70
0
 10
-11.2363407996
 20
-21.5546924712
 10
-11.2354694562
 20
-21.5837081829
 10
-11.2329114408
 20
-21.6126258295
 10
-11.2286753987
 20
-21.6413476768
 10
-11.2227756466
 20
-21.6697766519
 10
-11.2152321239
 20
-21.6978166721
 10
-11.2060703257
 20
-21.7253729692
 10
-11.1953212166
 20
-21.7523524098
 10
-11.1830211256
 20
-21.7786638099
 10
-11.1692116238
 20
-21.8042182437
 10
-11.1539393839
 20
-21.8289293435
 10
-11.137256022
 20
-21.8527135918
 10
-11.1192179236
 20
-21.8754906037
 10
-11.099886053
 20
-21.8971833985
 10
-11.0793257469
 20
-21.9177186599
 10
-11.057606494
 20
-21.9370269837
 10
-11.0348016999
 20
-21.9550431124
 10
-11.010988439
 20
-21.971706156
 10
-10.9862471943
 20
-21.9869597973
 10
-10.9606615851
 20
-22.0007524827
 10
-10.9343180842
 20
-22.0130375964
 10
-10.9073057263
 20
-22.0237736174
 10
-10.8797158063
 20
-22.0329242608
 10
-10.8516415715
 20
-22.0404585995
 10
-10.8231779058
 20
-22.0463511692
 10
-10.7944210095
 20
-22.0505820544
 10
-10.7654680736
 20
-22.0531369559
 10
-10.736416952
 20
-22.0540072386
  0
LWPOLYLINE
  5
260
100
AcDbEntity
  8
ASSI
100
AcDbPolyline
 62
253
  6
CONTINUOUS
 90
28
 70
0
 10
-11.2363407996
 20
21.444128438
 10
-11.2354694557
 20
21.4731441589
 10
-11.2329114387
 20
21.502061814
 10
-11.2286753943
 20
21.5307836687
 10
-11.222775639
 20
21.5592126503
 10
-11.2152321127
 20
21.587252676
 10
-11.2060703106
 20
21.6148089775
 10
-11.1953211972
 20
21.6417884213
 10
-11.1830211019
 20
21.6680998236
 10
-11.169211596
 20
21.6936542586
 10
-11.1539393521
 20
21.7183653584
 10
-11.1372559866
 20
21.7421496059
 10
-11.1192178852
 20
21.7649266162
 10
-11.099886012
 20
21.7866194086
 10
-11.0793257041
 20
21.807154667
 10
-11.0576064501
 20
21.8264629872
 10
-11.0348016558
 20
21.844479112
 10
-11.0109883955
 20
21.8611421513
 10
-10.9862471522
 20
21.8763957884
 10
-10.9606615452
 20
21.8901884695
 10
-10.9343180473
 20
21.902473579
 10
-10.9073056931
 20
21.9132095963
 10
-10.8797157776
 20
21.9223602362
 10
-10.8516415478
 20
21.9298945718
 10
-10.8231778876
 20
21.9357871391
 10
-10.794420997
 20
21.9400180226
 10
-10.7654680673
 20
21.942572923
 10
-10.736416952
 20
21.9434432053
  0
LINE
  5
261
100
AcDbEntity
  8
CURVE
100
AcDbLine
 62
253
  6
CONTINUOUS
 10
-0.4348434435
 20
-12.8920969394
 11
0.9245856885
 21
-12.8920969394
  0
LINE
  5
262
100
AcDbEntity
  8
CURVE
100
AcDbLine
 62
253
  6
CONTINUOUS
 10
1.8578945535
 20
-12.8920969394
 11
3.2172884078
 21
-12.8920969394
  0
LINE
  5
263
100
AcDbEntity
  8
CURVE
100
AcDbLine
 62
253
  6
CONTINUOUS
 10
3.3201584051
 20
-11.8987099952
 11
1.8578945535
 21
-11.8987099952
  0
LINE
  5
264
100
AcDbEntity
  8
CURVE
100
AcDbLine
 62
253
  6
CONTINUOUS
 10
1.0274204081
 20
-11.8987099952
 11
-0.4348434435
 21
-11.8987099952
  0
LINE
  5
265
100
AcDbEntity
  8
CURVE
100
AcDbLine
 62
253
  6
CONTINUOUS
 10
-0.730893312
 20
-11.6274944397
 11
1.0274204081
 21
-11.6274944397
  0
LINE
  5
266
100
AcDbEntity
  8
CURVE
100
AcDbLine
 62
253
  6
CONTINUOUS
 10
1.5618094652
 20
-11.6274944397
 11
3.3201584051
 21
-11.6274944397
  0
LWPOLYLINE
  5
267
100
AcDbEntity
  8
ASSI
100
AcDbPolyline
 62
253
  6
CONTINUOUS
 90
9
 70
0
 10
-11.2307691878
 20
21.3739137694
 10
-11.2314403197
 20
21.3883912507
 10
-11.2321200728
 20
21.4012607913
 10
-11.2328084988
 20
21.4125141058
 10
-11.2335055462
 20
21.4221594797
 10
-11.2342076558
 20
21.4301484466
 10
-11.2349136414
 20
21.4364648508
 10
-11.2356246893
 20
21.4411248479
 10
-11.2363407996
 20
21.444128438
  0
LWPOLYLINE
  5
268
100
AcDbEntity
  8
ASSI
100
AcDbPolyline
 62
253
  6
CONTINUOUS
 90
22
 70
0
 10
-11.2124402157
 20
0.2988767751
 10
-11.2118788912
 20
0.2839327481
 10
-11.2102026079
 20
0.2690722797
 10
-11.2074207389
 20
0.2543784597
 10
-11.2035488386
 20
0.2399334459
 10
-11.1986085566
 20
0.2258180054
 10
-11.1926275162
 20
0.2121110629
 10
-11.1856391599
 20
0.1988892585
 10
-11.1776825623
 20
0.1862265192
 10
-11.1688022123
 20
0.1741936469
 10
-11.1590477633
 20
0.162857921
 10
-11.148473756
 20
0.1522827228
 10
-11.137139314
 20
0.1425271815
 10
-11.1251078124
 20
0.133645843
 10
-11.1124465235
 20
0.1256883649
 10
-11.0992262412
 20
0.1186992398
 10
-11.0855208849
 20
0.1127175451
 10
-11.0714070855
 20
0.1077767256
 10
-11.0569637582
 20
0.1039044063
 10
-11.0422716604
 20
0.1011222377
 10
-11.02741294
 20
0.0994457748
 10
-11.0124706767
 20
0.0988843905
  0
LINE
  5
269
100
AcDbEntity
  8
ASSI
100
AcDbLine
 62
253
  6
CONTINUOUS
 10
-11.2294630729
 20
21.3403473738
 11
-11.2307691878
 21
21.3739137694
  0
LINE
  5
26A
100
AcDbEntity
  8
ASSI
100
AcDbLine
 62
253
  6
CONTINUOUS
 10
-10.7308451797
 20
21.8381340653
 11
-10.7321960385
 21
21.8791358114
  0
LINE
  5
26B
100
AcDbEntity
  8
ASSI
100
AcDbLine
 62
253
  6
CONTINUOUS
 10
-11.2282083237
 20
21.3007309875
 11
-11.2294630729
 21
21.3403473738
  0
LINE
  5
26C
100
AcDbEntity
  8
ASSI
100
AcDbLine
 62
253
  6
CONTINUOUS
 10
-11.227014594
 20
21.2553459383
 11
-11.2282083237
 21
21.3007309875
  0
LINE
  5
26D
100
AcDbEntity
  8
ASSI
100
AcDbLine
 62
253
  6
CONTINUOUS
 10
-10.7295391028
 20
21.7877563929
 11
-10.7308451797
 21
21.8381340653
  0
LINE
  5
26E
100
AcDbEntity
  8
ASSI
100
AcDbLine
 62
253
  6
CONTINUOUS
 10
-11.225356088
 20
21.1771717513
 11
-11.227014594
 21
21.2553459383
  0
LINE
  5
26F
100
AcDbEntity
  8
ASSI
100
AcDbLine
 62
253
  6
CONTINUOUS
 10
-10.7276799623
 20
21.6953706354
 11
-10.7295391028
 21
21.7877563929
  0
LINE
  5
270
100
AcDbEntity
  8
ASSI
100
AcDbLine
 62
253
  6
CONTINUOUS
 10
-11.2234290988
 20
21.0559592628
 11
-11.225356088
 21
21.1771717513
  0
LINE
  5
271
100
AcDbEntity
  8
ASSI
100
AcDbLine
 62
253
  6
CONTINUOUS
 10
-10.725432283
 20
21.5430402311
 11
-10.7276799623
 21
21.6953706354
  0
LINE
  5
272
100
AcDbEntity
  8
ASSI
100
AcDbLine
 62
253
  6
CONTINUOUS
 10
-11.2215479139
 20
20.8817510073
 11
-11.2234290988
 21
21.0559592628
  0
LINE
  5
273
100
AcDbEntity
  8
ASSI
100
AcDbLine
 62
253
  6
CONTINUOUS
 10
-10.7226781574
 20
21.260720607
 11
-10.725432283
 21
21.5430402311
  0
LINE
  5
274
100
AcDbEntity
  8
ASSI
100
AcDbLine
 62
253
  6
CONTINUOUS
 10
-11.2201655672
 20
20.6492672177
 11
-11.2215479139
 21
20.8817510073
  0
LINE
  5
275
100
AcDbEntity
  8
ASSI
100
AcDbLine
 62
253
  6
CONTINUOUS
 10
-10.7204023013
 20
20.8112085397
 11
-10.7226781574
 21
21.260720607
  0
LINE
  5
276
100
AcDbEntity
  8
ASSI
100
AcDbLine
 62
7
  6
CONTINUOUS
 10
-11.3208117431
 20
-13.1552820166
 11
-11.3076578381
 21
-21.7688175764
  0
LINE
  5
277
100
AcDbEntity
  8
ASSI
100
AcDbLine
 62
7
  6
CONTINUOUS
 10
-11.3208117431
 20
-0.3552591713
 11
-11.3208117431
 21
-13.1552820166
  0
LINE
  5
278
100
AcDbEntity
  8
ASSI
100
AcDbLine
 62
7
  6
CONTINUOUS
 10
-11.3208117431
 20
0.2446951381
 11
-11.3208117431
 21
13.0447179834
  0
LINE
  5
279
100
AcDbEntity
  8
ASSI
100
AcDbLine
 62
253
  6
CONTINUOUS
 10
-11.2124405058
 20
0.2988766301
 11
-11.2201655672
 21
20.6492672177
  0
LINE
  5
27A
100
AcDbEntity
  8
ASSI
100
AcDbLine
 62
253
  6
CONTINUOUS
 10
-10.7125163974
 20
0.1014567441
 11
-10.7204023013
 21
20.8112085397
  0
LINE
  5
27B
100
AcDbEntity
  8
ASSI
100
AcDbLine
 62
7
  6
CONTINUOUS
 10
-11.3208117431
 20
13.0447179834
 11
-11.3076578381
 21
21.6582535431
  0
LINE
  5
27C
100
AcDbEntity
  8
ASSI
100
AcDbLine
 62
253
  6
CONTINUOUS
 10
-11.2203260639
 20
-20.7998681747
 11
-11.2124405058
 21
-0.4094406633
  0
LINE
  5
27D
100
AcDbEntity
  8
ASSI
100
AcDbLine
 62
253
  6
CONTINUOUS
 10
-10.7210530547
 20
-21.0976435428
 11
-10.7125163974
 21
-0.2120207773
  0
LINE
  5
27E
100
AcDbEntity
  8
ASSI
100
AcDbLine
 62
253
  6
CONTINUOUS
 10
-10.7235053488
 20
-21.4717652706
 11
-10.7210530547
 21
-21.0976435428
  0
LINE
  5
27F
100
AcDbEntity
  8
ASSI
100
AcDbLine
 62
253
  6
CONTINUOUS
 10
-11.2218739192
 20
-21.0289039208
 11
-11.2203260639
 21
-20.7998681747
  0
LINE
  5
280
100
AcDbEntity
  8
ASSI
100
AcDbLine
 62
253
  6
CONTINUOUS
 10
-10.7259668881
 20
-21.6946282705
 11
-10.7235053488
 21
-21.4717652706
  0
LINE
  5
281
100
AcDbEntity
  8
ASSI
100
AcDbLine
 62
253
  6
CONTINUOUS
 10
-11.2238777128
 20
-21.1984846197
 11
-11.2218739192
 21
-21.0289039208
  0
LINE
  5
282
100
AcDbEntity
  8
ASSI
100
AcDbLine
 62
253
  6
CONTINUOUS
 10
-10.7282844119
 20
-21.8389072545
 11
-10.7259668881
 21
-21.6946282705
  0
LINE
  5
283
100
AcDbEntity
  8
ASSI
100
AcDbLine
 62
253
  6
CONTINUOUS
 10
-11.2258907128
 20
-21.3151169769
 11
-11.2238777128
 21
-21.1984846197
  0
LINE
  5
284
100
AcDbEntity
  8
ASSI
100
AcDbLine
 62
253
  6
CONTINUOUS
 10
-10.7295391028
 20
-21.8983204268
 11
-10.7282844119
 21
-21.8389072545
  0
LINE
  5
285
100
AcDbEntity
  8
ASSI
100
AcDbLine
 62
253
  6
CONTINUOUS
 10
-11.2276038504
 20
-21.3893217754
 11
-11.2258907128
 21
-21.3151169769
  0
LINE
  5
286
100
AcDbEntity
  8
ASSI
100
AcDbLine
 62
253
  6
CONTINUOUS
 10
-10.7308451797
 20
-21.9486980991
 11
-10.7295391028
 21
-21.8983204268
  0
LINE
  5
287
100
AcDbEntity
  8
ASSI
100
AcDbLine
 62
253
  6
CONTINUOUS
 10
-11.2288280898
 20
-21.4318224931
 11
-11.2276038504
 21
-21.3893217754
  0
LWPOLYLINE
  5
288
100
AcDbEntity
  8
ASSI
100
AcDbPolyline
 62
253
  6
CONTINUOUS
 90
22
 70
0
 10
-11.2124402157
 20
-0.4094408084
 10
-11.211878893
 20
-0.3944968049
 10
-11.2102026148
 20
-0.3796363582
 10
-11.2074207537
 20
-0.3649425578
 10
-11.203548864
 20
-0.3504975614
 10
-11.1986085946
 20
-0.3363821356
 10
-11.1926275683
 20
-0.3226752045
 10
-11.1856392268
 20
-0.3094534077
 10
-11.1776826443
 20
-0.2967906726
 10
-11.1688023085
 20
-0.2847578007
 10
-11.1590478722
 20
-0.2734220716
 10
-11.1484738757
 20
-0.2628468671
 10
-11.1371394415
 20
-0.2530913164
 10
-11.1251079441
 20
-0.244209966
 10
-11.1124466556
 20
-0.2362524745
 10
-11.0992263691
 20
-0.2292633346
 10
-11.0855210037
 20
-0.223281625
 10
-11.0714071904
 20
-0.2183407913
 10
-11.0569638441
 20
-0.2144684592
 10
-11.0422717222
 20
-0.2116862803
 10
-11.027412973
 20
-0.2100098106
 10
-11.0124706767
 20
-0.2094484237
  0
LWPOLYLINE
  5
289
100
AcDbEntity
  8
ASSI
100
AcDbPolyline
 62
253
  6
CONTINUOUS
 90
7
 70
0
 10
-10.7321960385
 20
21.8791358114
 10
-10.7328844035
 20
21.8960307727
 10
-10.7335813796
 20
21.9104829916
 10
-10.7342834902
 20
21.92246852
 10
-10.7349895764
 20
21.9319672292
 10
-10.7357007971
 20
21.9389630224
 10
-10.7364171524
 20
21.9434441129
  0
LWPOLYLINE
  5
28A
100
AcDbEntity
  8
ASSI
100
AcDbPolyline
 62
253
  6
CONTINUOUS
 90
8
 70
0
 10
-10.7364171524
 20
-22.0540081462
 10
-10.7357007971
 20
-22.0495270558
 10
-10.7349895764
 20
-22.0425312626
 10
-10.7342834902
 20
-22.0330325535
 10
-10.7335813796
 20
-22.0210470252
 10
-10.7328844035
 20
-22.0065948063
 10
-10.7321960385
 20
-21.9896998451
 10
-10.7308451797
 20
-21.9486980991
  0
LWPOLYLINE
  5
28B
100
AcDbEntity
  8
ASSI
100
AcDbPolyline
 62
253
  6
CONTINUOUS
 90
11
 70
0
 10
-11.2363407996
 20
-21.5546924712
 10
-11.2356246894
 20
-21.5516888813
 10
-11.2349136414
 20
-21.5470288842
 10
-11.2342076558
 20
-21.54071248
 10
-11.2335055462
 20
-21.5327235132
 10
-11.2328084989
 20
-21.5230781393
 10
-11.2321200729
 20
-21.5118248248
 10
-11.2314403197
 20
-21.4989552843
 10
-11.2307691878
 20
-21.4844778031
 10
-11.2301100819
 20
-21.4684657039
 10
-11.2288280898
 20
-21.4318224931
  0
LINE
  5
28C
100
AcDbEntity
  8
ASSI
100
AcDbLine
 62
253
  6
CONTINUOUS
 10
-11.3208117431
 20
0.2446951381
 11
-11.2124405058
 21
0.2988766301
  0
LINE
  5
28D
100
AcDbEntity
  8
ASSI
100
AcDbLine
 62
253
  6
CONTINUOUS
 10
-11.1208117419
 20
0.0447179834
 11
-11.0124706767
 21
0.0988843905
  0
LINE
  5
28E
100
AcDbEntity
  8
ASSI
100
AcDbLine
 62
253
  6
CONTINUOUS
 10
-11.2124405058
 20
-0.4094406633
 11
-11.3208117431
 21
-0.3552591713
  0
LINE
  5
28F
100
AcDbEntity
  8
ASSI
100
AcDbLine
 62
253
  6
CONTINUOUS
 10
-11.0124706767
 20
-0.2094484237
 11
-11.1208117419
 21
-0.1552820166
  0
LWPOLYLINE
  5
290
100
AcDbEntity
  8
CURVE
100
AcDbPolyline
 62
253
  6
CONTINUOUS
 90
89
 70
0
 10
-4.0472877934
 20
-13.0853670494
 10
-4.0466359064
 20
-13.1287544697
 10
-4.0447040633
 20
-13.1718276763
 10
-4.0415354382
 20
-13.2146810888
 10
-4.0371606673
 20
-13.2573891516
 10
-4.0315602344
 20
-13.29994641
 10
-4.0247020856
 20
-13.3423274345
 10
-4.0165582203
 20
-13.3845003852
 10
-4.007116852
 20
-13.4264077812
 10
-3.9963702481
 20
-13.4679857315
 10
-3.9843117519
 20
-13.5091775021
 10
-3.970939012
 20
-13.5499549887
 10
-3.9562507532
 20
-13.5902972441
 10
-3.9402460895
 20
-13.6301761002
 10
-3.9229256928
 20
-13.669534505
 10
-3.904290624
 20
-13.7083081856
 10
-3.8843419443
 20
-13.7464328691
 10
-3.8630807146
 20
-13.7838442825
 10
-3.840507996
 20
-13.8204781528
 10
-3.8166257523
 20
-13.8562736772
 10
-3.7914395575
 20
-13.8911839336
 10
-3.7649558883
 20
-13.9251654697
 10
-3.7371812215
 20
-13.9581748334
 10
-3.7081220337
 20
-13.9901685728
 10
-3.6777848017
 20
-14.0211032356
 10
-3.6461886443
 20
-14.0509316371
 10
-3.6134032483
 20
-14.0795916621
 10
-3.5795109426
 20
-14.1070174627
 10
-3.5445941064
 20
-14.1331437688
 10
-3.5087353195
 20
-14.1579076227
 10
-3.4720172119
 20
-14.1812466442
 10
-3.434508201
 20
-14.2030987831
 10
-3.3962198544
 20
-14.2234033069
 10
-3.357149527
 20
-14.2420998127
 10
-3.317308521
 20
-14.2591404894
 10
-3.276763927
 20
-14.2745278923
 10
-3.2355967829
 20
-14.2882771684
 10
-3.1938881022
 20
-14.3004139998
 10
-3.1517188011
 20
-14.3110062081
 10
-3.1091697714
 20
-14.3201321499
 10
-3.0663242046
 20
-14.3278623395
 10
-3.0232744906
 20
-14.3342359221
 10
-2.9801153191
 20
-14.3392842002
 10
-2.9369263855
 20
-14.3430169763
 10
-2.8937274088
 20
-14.3453580513
 10
-2.8505231139
 20
-14.3462097259
 10
-2.80731867
 20
-14.3455064889
 10
-2.7641210244
 20
-14.3433115818
 10
-2.7209375687
 20
-14.3397204341
 10
-2.6777895336
 20
-14.3348087215
 10
-2.6347535056
 20
-14.3285731044
 10
-2.5919199102
 20
-14.3209904893
 10
-2.5493775546
 20
-14.3120282654
 10
-2.5072087733
 20
-14.3016157524
 10
-2.4654942822
 20
-14.2896727528
 10
-2.4243145666
 20
-14.2761291984
 10
-2.3837491865
 20
-14.2609555385
 10
-2.3438774711
 20
-14.2441323518
 10
-2.3047644595
 20
-14.2256524394
 10
-2.2664180317
 20
-14.2055574915
 10
-2.2288317778
 20
-14.1839014207
 10
-2.1920145917
 20
-14.1607399777
 10
-2.1560365822
 20
-14.1361362663
 10
-2.1209831619
 20
-14.1101552286
 10
-2.0869404395
 20
-14.0828624676
 10
-2.0539973078
 20
-14.0543262304
 10
-2.0222433553
 20
-14.024615425
 10
-1.9917532047
 20
-13.9937934673
 10
-1.9625416142
 20
-13.9619018042
 10
-1.9346083761
 20
-13.9289763904
 10
-1.9079532825
 20
-13.8950531806
 10
-1.8825761256
 20
-13.8601681295
 10
-1.8584766976
 20
-13.8243571918
 10
-1.8356571703
 20
-13.7876616037
 10
-1.8141292333
 20
-13.7501437271
 10
-1.7939069561
 20
-13.7118712056
 10
-1.775004408
 20
-13.6729116825
 10
-1.7574356583
 20
-13.6333328014
 10
-1.7412147763
 20
-13.5932022057
 10
-1.7235414153
 20
-13.5444070411
 10
-1.70780977
 20
-13.4949991319
 10
-1.6940003667
 20
-13.4450627959
 10
-1.6820937317
 20
-13.3946823508
 10
-1.6720703913
 20
-13.3439421144
 10
-1.6639080905
 20
-13.2929076786
 10
-1.6575734491
 20
-13.2415697313
 10
-1.6530303058
 20
-13.1899002344
 10
-1.650242499
 20
-13.1378711498
 10
-1.6491738673
 20
-13.0854544393
  0
LWPOLYLINE
  5
291
100
AcDbEntity
  8
CURVE
100
AcDbPolyline
 62
253
  6
CONTINUOUS
 90
93
 70
0
 10
-3.6650126856
 20
12.9521331807
 10
-3.6641226598
 20
13.0060823851
 10
-3.6614915792
 20
13.0599295836
 10
-3.6571681245
 20
13.1137386158
 10
-3.6512009764
 20
13.1675733209
 10
-3.6436200898
 20
13.2214549935
 10
-3.634380516
 20
13.2752347492
 10
-3.623418581
 20
13.3287211589
 10
-3.6106706104
 20
13.3817227934
 10
-3.5960903315
 20
13.4340639433
 10
-3.579701078
 20
13.4856317787
 10
-3.5615435854
 20
13.5363291892
 10
-3.5416585888
 20
13.5860590647
 10
-3.5200780489
 20
13.6347558043
 10
-3.4967988276
 20
13.6824798438
 10
-3.4718090121
 20
13.7293231284
 10
-3.4450966895
 20
13.7753776033
 10
-3.4166210241
 20
13.8207324912
 10
-3.3862254885
 20
13.8654661248
 10
-3.3537246324
 20
13.9096541145
 10
-3.3189330054
 20
13.9533720707
 10
-3.2893197637
 20
13.9880459458
 10
-3.2579910151
 20
14.0224288474
 10
-3.2248160341
 20
14.0564822327
 10
-3.1896640954
 20
14.0901675588
 10
-3.1524044736
 20
14.1234462832
 10
-3.1196649442
 20
14.1508280562
 10
-3.0853823312
 20
14.1778058446
 10
-3.0495680013
 20
14.2042847919
 10
-3.0121955676
 20
14.2301854911
 10
-2.9730876286
 20
14.2554903325
 10
-2.9320290292
 20
14.2801971559
 10
-2.8888760912
 20
14.3042599291
 10
-2.8437710433
 20
14.3274571312
 10
-2.7969275913
 20
14.3495233693
 10
-2.748513656
 20
14.3702237122
 10
-2.6985140184
 20
14.3894450759
 10
-2.6468676749
 20
14.4071048382
 10
-2.5935702318
 20
14.4231181292
 10
-2.5388437371
 20
14.437391088
 10
-2.4829668489
 20
14.4498276061
 10
-2.4262113801
 20
14.4603506861
 10
-2.3688217621
 20
14.4689597755
 10
-2.3110355808
 20
14.4756734329
 10
-2.2530622953
 20
14.4804911448
 10
-2.194998857
 20
14.4833361089
 10
-2.1369140901
 20
14.4841124507
 10
-2.0788760479
 20
14.4827581794
 10
-2.0209496995
 20
14.4793468388
 10
-1.9631992431
 20
14.4739858565
 10
-1.905719903
 20
14.4667618424
 10
-1.8487310078
 20
14.4576781368
 10
-1.7924829124
 20
14.4467172624
 10
-1.7372216788
 20
14.4338783974
 10
-1.6831761977
 20
14.4192273415
 10
-1.6305710671
 20
14.4028465498
 10
-1.5796005389
 20
14.3848328558
 10
-1.5303374805
 20
14.3653406068
 10
-1.4828244133
 20
14.3445385283
 10
-1.4371038585
 20
14.322595346
 10
-1.3932183376
 20
14.2996797857
 10
-1.3512103717
 20
14.2759605728
 10
-1.3111003687
 20
14.2515863074
 10
-1.2728202817
 20
14.2266250865
 10
-1.2362799503
 20
14.2011248816
 10
-1.2013892143
 20
14.1751336641
 10
-1.1680579132
 20
14.1486994054
 10
-1.1361958866
 20
14.1218700769
 10
-1.0997852763
 20
14.0892141852
 10
-1.0652727444
 20
14.0561008711
 10
-1.0325704448
 20
14.0225725338
 10
-1.0015905315
 20
13.9886715727
 10
-0.9722451583
 20
13.954440387
 10
-0.9377256699
 20
13.9112205572
 10
-0.9054362192
 20
13.867447439
 10
-0.8751901344
 20
13.8230174711
 10
-0.8468007436
 20
13.7778270922
 10
-0.8201104673
 20
13.7317797903
 10
-0.7950780965
 20
13.6848072512
 10
-0.7716915144
 20
13.6368482097
 10
-0.7499386044
 20
13.5878414008
 10
-0.7298215803
 20
13.5377575614
 10
-0.7113999775
 20
13.4866954361
 10
-0.694747662
 20
13.4347857712
 10
-0.6799384998
 20
13.3821593133
 10
-0.6670248749
 20
13.3289534688
 10
-0.6559732443
 20
13.275332285
 10
-0.646728583
 20
13.2214664691
 10
-0.6392358663
 20
13.1675267284
 10
-0.6334363357
 20
13.1136459167
 10
-0.6292562992
 20
13.0598054732
 10
-0.626618331
 20
13.0059489837
 10
-0.6254450057
 20
12.9520200342
  0
LWPOLYLINE
  5
292
100
AcDbEntity
  8
CURVE
100
AcDbPolyline
 62
253
  6
CONTINUOUS
 90
91
 70
0
 10
-4.3680321993
 20
-13.0853995626
 10
-4.3671374792
 20
-13.0316209819
 10
-4.3645247384
 20
-12.9782512765
 10
-4.3602964848
 20
-12.9251549374
 10
-4.3545303122
 20
-12.8722231565
 10
-4.3472041574
 20
-12.8194539302
 10
-4.3382710427
 20
-12.7668719561
 10
-4.3276821264
 20
-12.7145169129
 10
-4.3153811098
 20
-12.6624884051
 10
-4.3013098301
 20
-12.6109010185
 10
-4.2854175087
 20
-12.5598580713
 10
-4.267682905
 20
-12.5094178129
 10
-4.2480921626
 20
-12.459627225
 10
-4.2266450312
 20
-12.4105375463
 10
-4.2033956854
 20
-12.3622170425
 10
-4.1784119055
 20
-12.3147382358
 10
-4.1517557602
 20
-12.268175774
 10
-4.1234664702
 20
-12.2226128067
 10
-4.0935775444
 20
-12.1781346086
 10
-4.0621197563
 20
-12.1348201314
 10
-4.0291129387
 20
-12.0927230335
 10
-3.994574189
 20
-12.0518906502
 10
-3.9585206047
 20
-12.0123703167
 10
-3.9209692832
 20
-11.9742093682
 10
-3.8819373222
 20
-11.9374551401
 10
-3.8414557358
 20
-11.9021553521
 10
-3.7996112058
 20
-11.8683592634
 10
-3.7565043309
 20
-11.8361165178
 10
-3.7122357096
 20
-11.8054767589
 10
-3.6669059406
 20
-11.7764896306
 10
-3.6206156225
 20
-11.7492047767
 10
-3.5734540984
 20
-11.7236667157
 10
-3.5254656892
 20
-11.699899466
 10
-3.4766834602
 20
-11.6779219207
 10
-3.4271404768
 20
-11.657752973
 10
-3.3768698045
 20
-11.6394115161
 10
-3.3259045086
 20
-11.622916443
 10
-3.2742897698
 20
-11.6082753343
 10
-3.2221192296
 20
-11.5954505196
 10
-3.1694986451
 20
-11.5843930159
 10
-3.1165333451
 20
-11.5750557649
 10
-3.0633269465
 20
-11.5673994071
 10
-3.009982638
 20
-11.5613865077
 10
-2.9565882687
 20
-11.5569984092
 10
-2.9031703276
 20
-11.5542915641
 10
-2.849739964
 20
-11.553341202
 10
-2.7963084974
 20
-11.5541975375
 10
-2.7428879277
 20
-11.5568107239
 10
-2.6894904252
 20
-11.5611058995
 10
-2.636143033
 20
-11.5670264594
 10
-2.5829322867
 20
-11.5745888266
 10
-2.5299595947
 20
-11.5838276813
 10
-2.4773271286
 20
-11.5947803768
 10
-2.4251401114
 20
-11.6074949609
 10
-2.373504529
 20
-11.6220221545
 10
-2.3225140952
 20
-11.6384014124
 10
-2.2722134345
 20
-11.6566271244
 10
-2.2226348995
 20
-11.6766824142
 10
-2.1738108425
 20
-11.6985504052
 10
-2.125773616
 20
-11.7222142212
 10
-2.0785555722
 20
-11.7476569855
 10
-2.0322004244
 20
-11.7748559429
 10
-1.9867973283
 20
-11.8037648223
 10
-1.9424468005
 20
-11.8343314737
 10
-1.8992493575
 20
-11.8665037469
 10
-1.8573055158
 20
-11.900229492
 10
-1.8167157919
 20
-11.9354565589
 10
-1.7775672123
 20
-11.9721350355
 10
-1.739892843
 20
-12.0102239614
 10
-1.7037122602
 20
-12.0496846142
 10
-1.6690450397
 20
-12.0904782713
 10
-1.6359107577
 20
-12.1325662103
 10
-1.6043289902
 20
-12.1759097087
 10
-1.5743229826
 20
-12.2204606231
 10
-1.5459306581
 20
-12.266133126
 10
-1.5191936093
 20
-12.3128319693
 10
-1.4941534287
 20
-12.3604619045
 10
-1.4708517089
 20
-12.4089276833
 10
-1.4493300426
 20
-12.4581340574
 10
-1.4296226706
 20
-12.5079973134
 10
-1.4117344275
 20
-12.5584798779
 10
-1.3956627962
 20
-12.6095557122
 10
-1.3814022466
 20
-12.6611864643
 10
-1.3689351966
 20
-12.7132845276
 10
-1.358241051
 20
-12.7657499821
 10
-1.3492905763
 20
-12.8184914683
 10
-1.3420199867
 20
-12.8714518682
 10
-1.336356858
 20
-12.9245826247
 10
-1.3322340081
 20
-12.9778701056
 10
-1.3296052233
 20
-13.0314403792
 10
-1.3284295318
 20
-13.0854544393
  0
LINE
  5
293
100
AcDbEntity
  8
ASSI
100
AcDbLine
 62
253
  6
CONTINUOUS
 10
-11.3076578381
 20
-21.7688175764
 11
-11.2363407996
 21
-21.5546924712
  0
LINE
  5
294
100
AcDbEntity
  8
ASSI
100
AcDbLine
 62
253
  6
CONTINUOUS
 10
-11.2363407996
 20
21.444128438
 11
-11.3076578381
 21
21.6582535431
  0
LWPOLYLINE
  5
295
100
AcDbEntity
  8
CURVE
100
AcDbPolyline
 62
253
  6
CONTINUOUS
 90
89
 70
0
 10
-1.6491738673
 20
-13.0854544393
 10
-1.6502332666
 20
-13.0333019427
 10
-1.6529948923
 20
-12.9815348591
 10
-1.6574937351
 20
-12.9301246301
 10
-1.6637647856
 20
-12.8790426974
 10
-1.6718430345
 20
-12.8282605026
 10
-1.6817605453
 20
-12.7777685646
 10
-1.6935376731
 20
-12.7276337108
 10
-1.7071918457
 20
-12.677941846
 10
-1.7227404911
 20
-12.6287788748
 10
-1.740201037
 20
-12.5802307021
 10
-1.7562216483
 20
-12.5403068974
 10
-1.7735747761
 20
-12.5009277599
 10
-1.7922531255
 20
-12.4621513573
 10
-1.8122494015
 20
-12.4240357573
 10
-1.8335563093
 20
-12.3866390277
 10
-1.8561665539
 20
-12.3500192362
 10
-1.8800735617
 20
-12.3142322522
 10
-1.9052736445
 20
-12.2793251511
 10
-1.9317638354
 20
-12.2453428095
 10
-1.9595411676
 20
-12.2123301045
 10
-1.9886026741
 20
-12.1803319129
 10
-2.018945388
 20
-12.1493931116
 10
-2.0505528389
 20
-12.1195622373
 10
-2.0833545408
 20
-12.090902467
 10
-2.1172665045
 20
-12.0634806376
 10
-2.1522050045
 20
-12.037363111
 10
-2.1880873722
 20
-12.0126143493
 10
-2.2248312027
 20
-11.9892983398
 10
-2.2623678908
 20
-11.967477613
 10
-2.3006840283
 20
-11.9472088729
 10
-2.3397800063
 20
-11.928547367
 10
-2.3796427532
 20
-11.9115366554
 10
-2.4202053459
 20
-11.8961735494
 10
-2.4613873986
 20
-11.8824431734
 10
-2.5031085747
 20
-11.8703205929
 10
-2.5452887349
 20
-11.8597406402
 10
-2.5878477896
 20
-11.8506280888
 10
-2.6307031665
 20
-11.8429151299
 10
-2.673762365
 20
-11.8365636241
 10
-2.7169304019
 20
-11.8315428497
 10
-2.7601273551
 20
-11.8278421186
 10
-2.803333547
 20
-11.825530878
 10
-2.8465443608
 20
-11.8246986087
 10
-2.8897548063
 20
-11.8254053509
 10
-2.9329583987
 20
-11.8275933802
 10
-2.9761482793
 20
-11.8311755315
 10
-3.0193034685
 20
-11.8360833163
 10
-3.0623465019
 20
-11.8423229529
 10
-3.105185794
 20
-11.8499193366
 10
-3.1477316425
 20
-11.8589059797
 10
-3.1899018785
 20
-11.8693508646
 10
-3.2316162163
 20
-11.8813305906
 10
-3.272794768
 20
-11.894911747
 10
-3.3133592364
 20
-11.9101208807
 10
-3.3532317219
 20
-11.9269745285
 10
-3.3923479328
 20
-11.9454781718
 10
-3.4306980092
 20
-11.9655930725
 10
-3.4682856989
 20
-11.9872694374
 10
-3.5050997193
 20
-12.0104549714
 10
-3.5410686658
 20
-12.0350873725
 10
-3.5761061031
 20
-12.0611018366
 10
-3.6101259754
 20
-12.0884319875
 10
-3.6430437457
 20
-12.1170051584
 10
-3.674775256
 20
-12.1467471102
 10
-3.7052497077
 20
-12.1775904642
 10
-3.7344497369
 20
-12.2094952833
 10
-3.762371339
 20
-12.2424284909
 10
-3.7890105091
 20
-12.2763570104
 10
-3.8143632424
 20
-12.3112477652
 10
-3.8384255341
 20
-12.3470676787
 10
-3.8611927179
 20
-12.3837767246
 10
-3.8826574821
 20
-12.4213070778
 10
-3.9028118533
 20
-12.4595839634
 10
-3.9216478582
 20
-12.4985326066
 10
-3.9391575237
 20
-12.5380782326
 10
-3.9553328763
 20
-12.5781460666
 10
-3.970168542
 20
-12.6186711761
 10
-3.9836695427
 20
-12.6596279985
 10
-3.9958434996
 20
-12.7010008132
 10
-4.0066975235
 20
-12.7427655061
 10
-4.0162366849
 20
-12.7848643868
 10
-4.0244655441
 20
-12.8272313711
 10
-4.0313935726
 20
-12.8698071256
 10
-4.037049888
 20
-12.9125593208
 10
-4.041468519
 20
-12.955462378
 10
-4.044670502
 20
-12.998510945
 10
-4.0466249024
 20
-13.0417805755
 10
-4.0472877934
 20
-13.0853670494
  0
LWPOLYLINE
  5
296
100
AcDbEntity
  8
CURVE
100
AcDbPolyline
 62
253
  6
CONTINUOUS
 90
89
 70
0
 10
-3.3443024087
 20
12.9521074168
 10
-3.3436505534
 20
12.9087203539
 10
-3.3417187123
 20
12.8656474767
 10
-3.3385499191
 20
12.822794311
 10
-3.3341747042
 20
12.7800863614
 10
-3.3285735844
 20
12.737529048
 10
-3.3217145726
 20
12.6951477697
 10
-3.3135696666
 20
12.6529743675
 10
-3.3041268019
 20
12.6110664509
 10
-3.2933778984
 20
12.5694880714
 10
-3.2813160786
 20
12.5282960854
 10
-3.2679392754
 20
12.4875185683
 10
-3.2532466246
 20
12.4471764004
 10
-3.2372376226
 20
12.4072976643
 10
-3.2199132095
 20
12.3679392512
 10
-3.2012746862
 20
12.3291652548
 10
-3.1813233539
 20
12.2910397687
 10
-3.1600605133
 20
12.2536268866
 10
-3.1374874655
 20
12.216990702
 10
-3.1136062865
 20
12.1811919285
 10
-3.0884221516
 20
12.1462777592
 10
-3.0619410113
 20
12.1122920072
 10
-3.0341688159
 20
12.0792784855
 10
-3.005111516
 20
12.0472810073
 10
-2.9747750618
 20
12.0163433856
 10
-2.9431781966
 20
11.9865131012
 10
-2.9103908354
 20
11.9578523058
 10
-2.8764956858
 20
11.930426819
 10
-2.8415754664
 20
11.9043019075
 10
-2.8057129386
 20
11.8795406279
 10
-2.7689908746
 20
11.8562054838
 10
-2.7314778164
 20
11.8343585953
 10
-2.693185385
 20
11.814060548
 10
-2.654110971
 20
11.7953715437
 10
-2.6142659915
 20
11.7783390796
 10
-2.5737179686
 20
11.7629598348
 10
-2.5325484511
 20
11.7492177839
 10
-2.490838822
 20
11.7370864965
 10
-2.4486698021
 20
11.7264979233
 10
-2.4061219465
 20
11.7173736102
 10
-2.3632781113
 20
11.7096429651
 10
-2.3202303564
 20
11.7032668441
 10
-2.2770730425
 20
11.6982139656
 10
-2.23388561
 20
11.6944746503
 10
-2.190687819
 20
11.692125629
 10
-2.1474845091
 20
11.6912652354
 10
-2.1042809255
 20
11.6919596264
 10
-2.0610839356
 20
11.6941462543
 10
-2.017900812
 20
11.6977303949
 10
-1.9747527257
 20
11.70263695
 10
-1.9317164414
 20
11.7088693262
 10
-1.8888826222
 20
11.7164505558
 10
-1.8463403131
 20
11.7254131861
 10
-1.8041720869
 20
11.7358278234
 10
-1.7624588982
 20
11.7477745886
 10
-1.7212813809
 20
11.7613233748
 10
-1.6807188854
 20
11.7765031623
 10
-1.6408504412
 20
11.7933327037
 10
-1.6017406805
 20
11.8118184598
 10
-1.5633966475
 20
11.8319177262
 10
-1.5258109895
 20
11.8535755073
 10
-1.4889918822
 20
11.8767352428
 10
-1.4530096162
 20
11.901334115
 10
-1.4179500108
 20
11.9273077418
 10
-1.3838998232
 20
11.9545913462
 10
-1.3509495623
 20
11.983118571
 10
-1.3191906749
 20
12.012822664
 10
-1.2886992265
 20
12.0436418667
 10
-1.2594897581
 20
12.075534395
 10
-1.2315614294
 20
12.1084634586
 10
-1.2049134002
 20
12.1423922669
 10
-1.1795448301
 20
12.1772840296
 10
-1.155454879
 20
12.2131019563
 10
-1.1326451044
 20
12.249804094
 10
-1.1111266559
 20
12.2873278401
 10
-1.0909130807
 20
12.3256054293
 10
-1.0720179264
 20
12.3645690966
 10
-1.0544547402
 20
12.4041510766
 10
-1.0382370696
 20
12.4442836044
 10
-1.0205640561
 20
12.4930794899
 10
-1.0048297189
 20
12.5424867399
 10
-0.9910156836
 20
12.5924215121
 10
-0.9791035758
 20
12.6427999642
 10
-0.9690750214
 20
12.6935382538
 10
-0.9609085485
 20
12.7445711568
 10
-0.9545702959
 20
12.7959079207
 10
-0.9500233052
 20
12.8475764111
 10
-0.9472306179
 20
12.8996044937
 10
-0.9461552753
 20
12.9520200342
  0
LWPOLYLINE
  5
297
100
AcDbEntity
  8
ASSI
100
AcDbPolyline
 62
253
  6
CONTINUOUS
 90
76
 70
0
 10
-1.5914195109
 20
4.4456181634
 10
-1.5902470401
 20
4.5041151421
 10
-1.5866190782
 20
4.5625559889
 10
-1.5805356251
 20
4.6209407034
 10
-1.5719942232
 20
4.6794116071
 10
-1.5609973302
 20
4.7378263768
 10
-1.5475523189
 20
4.7957580461
 10
-1.5316272504
 20
4.8532033493
 10
-1.5132540637
 20
4.9101655537
 10
-1.4925359492
 20
4.9662274955
 10
-1.4694472104
 20
5.0213715099
 10
-1.4440135437
 20
5.0756152663
 10
-1.4164152287
 20
5.1285946049
 10
-1.3866552872
 20
5.1802654944
 10
-1.3547306974
 20
5.2306719731
 10
-1.3208126734
 20
5.2795819876
 10
-1.2849038077
 20
5.3269821148
 10
-1.247001508
 20
5.3728857861
 10
-1.2072692108
 20
5.4171012301
 10
-1.1656875274
 20
5.4596376248
 10
-1.1222758467
 20
5.5004858011
 10
-1.077255771
 20
5.5394264681
 10
-1.0306097838
 20
5.5764542709
 10
-0.9823554017
 20
5.6115745736
 10
-0.9327667778
 20
5.644584165
 10
-0.8818422076
 20
5.6754654868
 10
-0.8295833956
 20
5.7042361062
 10
-0.7762696085
 20
5.7307455006
 10
-0.7218992084
 20
5.754980392
 10
-0.6664738333
 20
5.7769540662
 10
-0.6102776632
 20
5.7965558465
 10
-0.5533055816
 20
5.8137746976
 10
-0.495562705
 20
5.8286216609
 10
-0.4373485635
 20
5.8410191748
 10
-0.3786584115
 20
5.8509548756
 10
-0.3194969945
 20
5.8584411308
 10
-0.26017808
 20
5.8634374754
 10
-0.2007013544
 20
5.8659304289
 10
-0.1410671312
 20
5.8659334732
 10
-0.081590118
 20
5.8634465858
 10
-0.0222705971
 20
5.8584562753
 10
0.0368917137
 20
5.8509760316
 10
0.0955829535
 20
5.8410463037
 10
0.1537984033
 20
5.8286546945
 10
0.2115427821
 20
5.8138135971
 10
0.268516385
 20
5.7966006445
 10
0.3247139915
 20
5.777004823
 10
0.3801408221
 20
5.7550371402
 10
0.4345128335
 20
5.7308082606
 10
0.4878282516
 20
5.7043050371
 10
0.5400888505
 20
5.675540609
 10
0.5910159092
 20
5.6446650697
 10
0.640607933
 20
5.6116607962
 10
0.6888664166
 20
5.5765454025
 10
0.7355171235
 20
5.5395218386
 10
0.780542913
 20
5.5005842523
 10
0.8239609256
 20
5.4597384866
 10
0.8655483463
 20
5.4172050343
 10
0.9052854403
 20
5.3729931077
 10
0.9431919424
 20
5.3270934856
 10
0.9791042414
 20
5.2796990123
 10
1.0130243022
 20
5.2307973847
 10
1.0449501598
 20
5.1804008974
 10
1.0747123088
 20
5.1287392925
 10
1.1023141454
 20
5.075768984
 10
1.1277522733
 20
5.0215335507
 10
1.1508469979
 20
4.9663934833
 10
1.1715733464
 20
4.9103300702
 10
1.1899562916
 20
4.8533620183
 10
1.2058910573
 20
4.7959059495
 10
1.2193457664
 20
4.7379576357
 10
1.230352296
 20
4.6795213032
 10
1.2389015011
 20
4.6210262583
 10
1.2449903335
 20
4.562615604
 10
1.2486218413
 20
4.5041462389
 10
1.2497960247
 20
4.4456181634
  0
LINE
  5
298
100
AcDbEntity
  8
ASSI
100
AcDbLine
 62
253
  6
CONTINUOUS
 10
-10.8072780148
 20
-22.2667633042
 11
-10.7364172543
 21
-22.0540081463
  0
LWPOLYLINE
  5
299
100
AcDbEntity
  8
ASSI
100
AcDbPolyline
 62
253
  6
CONTINUOUS
 90
7
 70
0
 10
10.6708471905
 20
-0.2094484237
 10
10.6701656836
 20
-0.2095843374
 10
10.6686933819
 20
-0.2097190716
 10
10.6664302855
 20
-0.2098526264
 10
10.6633662228
 20
-0.2099853579
 10
10.6595113653
 20
-0.2101169101
 10
10.654896228
 20
-0.2102462138
  0
LWPOLYLINE
  5
29A
100
AcDbEntity
  8
ASSI
100
AcDbPolyline
 62
253
  6
CONTINUOUS
 90
5
 70
0
 10
10.8708170193
 20
-0.4094407171
 10
10.8696959823
 20
-0.4095840472
 10
10.8672377463
 20
-0.4097262066
 10
10.8634491599
 20
-0.4098671458
 10
10.8583408949
 20
-0.4100071296
  0
LINE
  5
29B
100
AcDbEntity
  8
ASSI
100
AcDbLine
 62
253
  6
CONTINUOUS
 10
-10.7364172543
 20
21.943444113
 11
-10.8072780148
 21
22.1561992709
  0
LWPOLYLINE
  5
29C
100
AcDbEntity
  8
CURVE
100
AcDbPolyline
 62
253
  6
CONTINUOUS
 90
89
 70
0
 10
-0.9461552753
 20
12.9520200342
 10
-0.9472215118
 20
13.004175346
 10
-0.9499883856
 20
13.0559447198
 10
-0.9544916008
 20
13.1073565407
 10
-0.9607668616
 20
13.1584391941
 10
-0.9688498723
 20
13.2092210651
 10
-0.9787731063
 20
13.2597115781
 10
-0.9905561143
 20
13.3098443142
 10
-1.0042152162
 20
13.3595338937
 10
-1.0197667321
 20
13.408694937
 10
-1.0372269819
 20
13.4572420644
 10
-1.0532443116
 20
13.4971659919
 10
-1.0705916495
 20
13.5365461808
 10
-1.089262161
 20
13.5753245146
 10
-1.1092490112
 20
13.6134428764
 10
-1.1305453655
 20
13.6508431498
 10
-1.1531443891
 20
13.6874672181
 10
-1.1770400194
 20
13.7232590401
 10
-1.2022292825
 20
13.7581708766
 10
-1.2287099766
 20
13.7921570639
 10
-1.2564799
 20
13.8251719382
 10
-1.2855368507
 20
13.8571698358
 10
-1.3158786271
 20
13.8881050929
 10
-1.3474890869
 20
13.9179288527
 10
-1.3802963254
 20
13.9465794856
 10
-1.4142144978
 20
13.973992169
 10
-1.4491582517
 20
14.0001023268
 10
-1.4850442053
 20
14.0248463692
 10
-1.5217894696
 20
14.048160953
 10
-1.5593251984
 20
14.0699839002
 10
-1.5976387173
 20
14.0902576944
 10
-1.6367313946
 20
14.1089259841
 10
-1.6765910273
 20
14.1259441675
 10
-1.7171511265
 20
14.1413146391
 10
-1.7583316322
 20
14.1550515431
 10
-1.8000524325
 20
14.1671791813
 10
-1.8422332101
 20
14.1777624883
 10
-1.884793596
 20
14.1868765564
 10
-1.9276507445
 20
14.1945890804
 10
-1.9707119028
 20
14.2009381641
 10
-2.0138818411
 20
14.2059545135
 10
-2.057080445
 20
14.2096489089
 10
-2.10028806
 20
14.2119524271
 10
-2.1435001467
 20
14.212776219
 10
-2.1867117561
 20
14.2120608827
 10
-2.2299163008
 20
14.209864804
 10
-2.273106784
 20
14.2062758158
 10
-2.3162621597
 20
14.2013629682
 10
-2.3593051851
 20
14.1951201793
 10
-2.4021445686
 20
14.1875225847
 10
-2.444690898
 20
14.1785366917
 10
-2.4868622788
 20
14.1680944959
 10
-2.5285786963
 20
14.1561193646
 10
-2.5697604104
 20
14.1425445389
 10
-2.6103287793
 20
14.1273427535
 10
-2.6502054361
 20
14.1104966166
 10
-2.6893256948
 20
14.0919999043
 10
-2.7276795938
 20
14.0718910643
 10
-2.7652708528
 20
14.0502197123
 10
-2.8020881473
 20
14.0270380142
 10
-2.8380599781
 20
14.0024083372
 10
-2.873099802
 20
13.9763955985
 10
-2.9071214118
 20
13.9490662703
 10
-2.9400399432
 20
13.9204930429
 10
-2.9717708676
 20
13.8907501614
 10
-3.0022431713
 20
13.8599050627
 10
-3.0314398988
 20
13.8279979516
 10
-3.059357609
 20
13.7950622251
 10
-3.0859928612
 20
13.7611312799
 10
-3.1113422143
 20
13.7262385127
 10
-3.1354022275
 20
13.6904173205
 10
-3.1581686687
 20
13.6537079557
 10
-3.1796341417
 20
13.6161780935
 10
-3.1997904592
 20
13.577902265
 10
-3.2186294338
 20
13.5389550009
 10
-3.2361428782
 20
13.4994108323
 10
-3.252322605
 20
13.4593442901
 10
-3.2671629781
 20
13.4188200917
 10
-3.2806685655
 20
13.3778637005
 10
-3.2928464867
 20
13.3364907664
 10
-3.3037034896
 20
13.2947253712
 10
-3.3132448366
 20
13.2526253245
 10
-3.321475419
 20
13.210256868
 10
-3.3284049685
 20
13.1676794587
 10
-3.3340625792
 20
13.1249254145
 10
-3.3384821859
 20
13.082020269
 10
-3.3416847634
 20
13.038969328
 10
-3.3436394461
 20
12.9956969877
 10
-3.3443024087
 20
12.9521074168
  0
LINE
  5
29D
100
AcDbEntity
  8
CURVE
100
AcDbLine
 62
253
  6
CONTINUOUS
 10
-0.730893312
 20
-14.543414439
 11
-0.730893312
 21
-11.6274943732
  0
LINE
  5
29E
100
AcDbEntity
  8
CURVE
100
AcDbLine
 62
253
  6
CONTINUOUS
 10
-0.4348434435
 20
-11.8987099952
 11
-0.4348434435
 21
-12.892096905
  0
LINE
  5
29F
100
AcDbEntity
  8
CURVE
100
AcDbLine
 62
253
  6
CONTINUOUS
 10
-0.4348434435
 20
-13.163453606
 11
-0.4348434435
 21
-14.5434144034
  0
LINE
  5
2A0
100
AcDbEntity
  8
CURVE
100
AcDbLine
 62
253
  6
CONTINUOUS
 10
-0.0279090786
 20
11.4940600345
 11
-0.0279090786
 21
14.4099800842
  0
LWPOLYLINE
  5
2A1
100
AcDbEntity
  8
ASSI
100
AcDbPolyline
 62
253
  6
CONTINUOUS
 90
76
 70
0
 10
-1.5914195109
 20
-4.5561821967
 10
-1.5902649802
 20
-4.497673902
 10
-1.5866540374
 20
-4.4392210987
 10
-1.5805866824
 20
-4.3808237878
 10
-1.5720604908
 20
-4.3223395787
 10
-1.561077887
 20
-4.2639108636
 10
-1.5476461444
 20
-4.2059648189
 10
-1.5317333015
 20
-4.1485047076
 10
-1.5133713199
 20
-4.091527271
 10
-1.4926633578
 20
-4.035449905
 10
-1.4695837043
 20
-3.9802902989
 10
-1.4441580702
 20
-3.9260307695
 10
-1.4165667468
 20
-3.8730356564
 10
-1.3868127681
 20
-3.8213490409
 10
-1.3548930999
 20
-3.770926849
 10
-1.3209789307
 20
-3.7220011877
 10
-1.2850728527
 20
-3.6745854737
 10
-1.2471722736
 20
-3.6286662976
 10
-1.2074406045
 20
-3.5844355286
 10
-1.1658584364
 20
-3.5418839688
 10
-1.1224451784
 20
-3.5010208229
 10
-1.0774224679
 20
-3.4620655646
 10
-1.0307727747
 20
-3.4250235549
 10
-0.982513629
 20
-3.3898894392
 10
-0.9329192594
 20
-3.3568666178
 10
-0.8819879452
 20
-3.3259726599
 10
-0.829721407
 20
-3.297190002
 10
-0.7763990358
 20
-3.2706693455
 10
-0.7220191737
 20
-3.2464239802
 10
-0.6665834785
 20
-3.2244406209
 10
-0.6103763143
 20
-3.2048301065
 10
-0.5533925452
 20
-3.1876034889
 10
-0.4956373071
 20
-3.1727497197
 10
-0.4374103718
 20
-3.160346487
 10
-0.3787069792
 20
-3.1504061764
 10
-0.3195318894
 20
-3.1429164044
 10
-0.260199155
 20
-3.1379177058
 10
-0.2007084596
 20
-3.1354235848
 10
-0.1410601196
 20
-3.1354205378
 10
-0.0815691364
 20
-3.1379085873
 10
-0.0222357952
 20
-3.1429012466
 10
0.0369401892
 20
-3.1503850016
 10
0.0956446706
 20
-3.1603193342
 10
0.1538729158
 20
-3.1727166571
 10
0.2116296579
 20
-3.1875645554
 10
0.2686149503
 20
-3.2047852696
 10
0.3248235529
 20
-3.2243898201
 10
0.3802607057
 20
-3.2463671831
 10
0.4346421813
 20
-3.2706065318
 10
0.4879661856
 20
-3.2971210122
 10
0.5402345128
 20
-3.3258974738
 10
0.5911683181
 20
-3.3567856443
 10
0.6407660905
 20
-3.3898031432
 10
0.6890293409
 20
-3.4249323454
 10
0.7356837577
 20
-3.4619701128
 10
0.7807121872
 20
-3.5009222883
 10
0.8241317831
 20
-3.5417830227
 10
0.8657196947
 20
-3.5843316395
 10
0.9054561671
 20
-3.6285588914
 10
0.9433609551
 20
-3.6744740189
 10
0.9792704724
 20
-3.7218840778
 10
1.0131866829
 20
-3.7708013481
 10
1.0451076227
 20
-3.8212135426
 10
1.0748638127
 20
-3.8728908671
 10
1.1024586619
 20
-3.9258769425
 10
1.1278887614
 20
-3.9801281405
 10
1.1509744051
 20
-4.035283795
 10
1.1716906065
 20
-4.0913626323
 10
1.1900623522
 20
-4.1483459197
 10
1.2059848965
 20
-4.2058168042
 10
1.2194263398
 20
-4.2637795061
 10
1.2304185818
 20
-4.3222298007
 10
1.2389525759
 20
-4.3807381695
 10
1.2450253067
 20
-4.4391614397
 10
1.2486397896
 20
-4.4976427824
 10
1.2497960247
 20
-4.5561821967
  0
LWPOLYLINE
  5
2A2
100
AcDbEntity
  8
ASSI
100
AcDbPolyline
 62
253
  6
CONTINUOUS
 90
76
 70
0
 10
-1.4914347414
 20
-4.5552820166
 10
-1.490329895
 20
-4.5010503427
 10
-1.4869800385
 20
-4.4466816842
 10
-1.4813626355
 20
-4.3922702955
 10
-1.4734534962
 20
-4.3378789625
 10
-1.4632408476
 20
-4.2836398643
 10
-1.4507394198
 20
-4.2297517939
 10
-1.4359552012
 20
-4.1763115051
 10
-1.4188991738
 20
-4.123418927
 10
-1.3996252373
 20
-4.0712715933
 10
-1.3781681345
 20
-4.0199696407
 10
-1.354561097
 20
-3.9695980141
 10
-1.3288840318
 20
-3.9203208768
 10
-1.3012083388
 20
-3.8722529649
 10
-1.2715736265
 20
-3.8254424436
 10
-1.2400239585
 20
-3.7799469778
 10
-1.2066253308
 20
-3.7358521373
 10
-1.1714343073
 20
-3.6932235431
 10
-1.1344771696
 20
-3.6520911384
 10
-1.0958037013
 20
-3.6125156287
 10
-1.0554922295
 20
-3.5745822322
 10
-1.0136108429
 20
-3.5383584107
 10
-0.9702243407
 20
-3.5039043395
 10
-0.925414191
 20
-3.471288699
 10
-0.8792794101
 20
-3.4405847303
 10
-0.8319080892
 20
-3.4118496995
 10
-0.7833778244
 20
-3.3851293478
 10
-0.7337771944
 20
-3.3604714575
 10
-0.6831973727
 20
-3.3379199073
 10
-0.6317244455
 20
-3.31751166
 10
-0.5794416671
 20
-3.2992791204
 10
-0.5264396119
 20
-3.2832539103
 10
-0.4728128049
 20
-3.2694646438
 10
-0.4186518214
 20
-3.2579347956
 10
-0.3640496674
 20
-3.248684731
 10
-0.3091044036
 20
-3.2417316241
 10
-0.2539153106
 20
-3.237088286
 10
-0.1985799836
 20
-3.2347629706
 10
-0.1431952216
 20
-3.2347597886
 10
-0.0878595473
 20
-3.2370787506
 10
-0.0326697316
 20
-3.2417157705
 10
0.022276598
 20
-3.2486626147
 10
0.0768800704
 20
-3.2579064771
 10
0.1310426631
 20
-3.2694302034
 10
0.1846713243
 20
-3.2832134313
 10
0.2376752692
 20
-3.2992326286
 10
0.2899598779
 20
-3.3174591275
 10
0.3414346853
 20
-3.3378613195
 10
0.3920165387
 20
-3.3604068276
 10
0.4416191995
 20
-3.3850586039
 10
0.490151664
 20
-3.4117728378
 10
0.5375258967
 20
-3.4405020874
 10
0.5836644152
 20
-3.4712007823
 10
0.6284789263
 20
-3.5038116281
 10
0.6718704311
 20
-3.5382615012
 10
0.713757817
 20
-3.5744821606
 10
0.7540757729
 20
-3.6124131482
 10
0.7927550488
 20
-3.6519858907
 10
0.8297172391
 20
-3.6931149087
 10
0.8649128081
 20
-3.7357395772
 10
0.8983150392
 20
-3.7798291488
 10
0.9298669057
 20
-3.825316891
 10
0.9595033446
 20
-3.8721180524
 10
0.9871817745
 20
-3.9201771888
 10
1.0128624155
 20
-3.9694460087
 10
1.0364739036
 20
-4.0198100517
 10
1.0579374556
 20
-4.0711083242
 10
1.0772197035
 20
-4.1232570914
 10
1.0942849711
 20
-4.1761554082
 10
1.1090788679
 20
-4.229606001
 10
1.1215899868
 20
-4.283509553
 10
1.1318116406
 20
-4.3377688182
 10
1.1397283655
 20
-4.3921835074
 10
1.1453515427
 20
-4.4466208666
 10
1.1487051049
 20
-4.5010184977
 10
1.1498112552
 20
-4.5552820166
  0
LWPOLYLINE
  5
2A3
100
AcDbEntity
  8
ASSI
100
AcDbPolyline
 62
253
  6
CONTINUOUS
 90
76
 70
0
 10
-1.4914347414
 20
4.4447179834
 10
-1.4903119253
 20
4.4989391495
 10
-1.4869449587
 20
4.5532965186
 10
-1.4813113162
 20
4.6076958784
 10
-1.4733867763
 20
4.6620744635
 10
-1.4631596166
 20
4.7163001505
 10
-1.4506446879
 20
4.7701742586
 10
-1.4358479709
 20
4.8236000936
 10
-1.4187804378
 20
4.8764777736
 10
-1.399496081
 20
4.9286098912
 10
-1.3780296118
 20
4.9798963963
 10
-1.3544142338
 20
5.030252379
 10
-1.3287299338
 20
5.0795137531
 10
-1.3010480565
 20
5.127565896
 10
-1.2714081763
 20
5.1743606564
 10
-1.2398544735
 20
5.2198403253
 10
-1.2064529147
 20
5.2639193998
 10
-1.1712600154
 20
5.3065323291
 10
-1.1343021658
 20
5.3476491606
 10
-1.0956291281
 20
5.3872092438
 10
-1.0553191719
 20
5.425127451
 10
-1.0134404459
 20
5.4613363877
 10
-0.9700577
 20
5.4957759548
 10
-0.9252523457
 20
5.5283775402
 10
-0.8791234407
 20
5.5590679779
 10
-0.8317590144
 20
5.5877900782
 10
-0.7832365905
 20
5.614498163
 10
-0.7336447644
 20
5.6391445198
 10
-0.683074639
 20
5.6616853374
 10
-0.6316122108
 20
5.6820837112
 10
-0.579340716
 20
5.7003073036
 10
-0.5263506458
 20
5.7163245483
 10
-0.4727364235
 20
5.7301068763
 10
-0.4185885702
 20
5.7416308689
 10
-0.3639999965
 20
5.7508762001
 10
-0.3090686539
 20
5.7578257221
 10
-0.2538937408
 20
5.7624666554
 10
-0.1985727449
 20
5.7647907655
 10
-0.1432023567
 20
5.7647939446
 10
-0.0878810138
 20
5.7624761818
 10
-0.0327053787
 20
5.7578415608
 10
0.0222270288
 20
5.7508982956
 10
0.0768169193
 20
5.7416591608
 10
0.1309663799
 20
5.7301412845
 10
0.1845824541
 20
5.7163649896
 10
0.2375744116
 20
5.7003537525
 10
0.2898477341
 20
5.6821361953
 10
0.3413120396
 20
5.6617438717
 10
0.3918841939
 20
5.639209091
 10
0.441478048
 20
5.6145688429
 10
0.4900026687
 20
5.5878668708
 10
0.5373700035
 20
5.5591505467
 10
0.5835026426
 20
5.5284653783
 10
0.6283123546
 20
5.4958685833
 10
0.6717000984
 20
5.4614332109
 10
0.713584818
 20
5.4252274344
 10
0.7539012517
 20
5.3873116353
 10
0.7925800906
 20
5.3477543188
 10
0.8295429859
 20
5.3066408743
 10
0.8647404237
 20
5.2640318712
 10
0.89814558
 20
5.2199580645
 10
0.9297014765
 20
5.1744861154
 10
0.9593430789
 20
5.1277007094
 10
0.9870276888
 20
5.0796573362
 10
1.0127155603
 20
5.0304042726
 10
1.0363353842
 20
4.9800558662
 10
1.0578082974
 20
4.9287730375
 10
1.0771009599
 20
4.876639487
 10
1.0941777281
 20
4.8237560722
 10
1.108984119
 20
4.7703199412
 10
1.1215087357
 20
4.7164303641
 10
1.1317448997
 20
4.6621845262
 10
1.1396770264
 20
4.6077826032
 10
1.1453164468
 20
4.5533572926
 10
1.1486871255
 20
4.4989709722
 10
1.1498112552
 20
4.4447179834
  0
LWPOLYLINE
  5
2A4
100
AcDbEntity
  8
CURVE
100
AcDbPolyline
 62
253
  6
CONTINUOUS
 90
91
 70
0
 10
-1.3284295318
 20
-13.0854544393
 10
-1.3296007801
 20
-13.1393370934
 10
-1.3322181855
 20
-13.1927787102
 10
-1.3363224019
 20
-13.2459389057
 10
-1.3419592316
 20
-13.2989427267
 10
-1.3491950706
 20
-13.351776942
 10
-1.3581014636
 20
-13.4043937514
 10
-1.3687416309
 20
-13.4567367946
 10
-1.381145495
 20
-13.5087154729
 10
-1.3953346541
 20
-13.5602306278
 10
-1.411326863
 20
-13.6111946005
 10
-1.4291245029
 20
-13.6615657309
 10
-1.4487261116
 20
-13.7113138584
 10
-1.4701244138
 20
-13.7603991153
 10
-1.493288882
 20
-13.8087428047
 10
-1.5181831755
 20
-13.8562565224
 10
-1.5447709537
 20
-13.9028518644
 10
-1.5730158761
 20
-13.9484404263
 10
-1.6028816019
 20
-13.9929338042
 10
-1.6343342965
 20
-14.0362510196
 10
-1.6673501481
 20
-14.0783407974
 10
-1.701907851
 20
-14.119159288
 10
-1.7379860995
 20
-14.1586626422
 10
-1.7755635876
 20
-14.1968070105
 10
-1.8146190097
 20
-14.2335485435
 10
-1.8551182741
 20
-14.2688420416
 10
-1.8969761455
 20
-14.3026369046
 10
-1.940094603
 20
-14.3348811823
 10
-1.9843756254
 20
-14.3655229243
 10
-2.0297211918
 20
-14.3945101804
 10
-2.0760332809
 20
-14.4217910001
 10
-2.1232242353
 20
-14.4473191651
 10
-2.1712478507
 20
-14.4710713846
 10
-2.2200682865
 20
-14.4930300998
 10
-2.2696497019
 20
-14.5131777517
 10
-2.3199562562
 20
-14.5314967815
 10
-2.3709521087
 20
-14.5479696302
 10
-2.4225900741
 20
-14.5625902364
 10
-2.4747775882
 20
-14.5753985273
 10
-2.5274107423
 20
-14.5864459274
 10
-2.5803859905
 20
-14.5957815806
 10
-2.6336012383
 20
-14.6034455076
 10
-2.6869547541
 20
-14.6094754484
 10
-2.74035975
 20
-14.6138880021
 10
-2.7937892148
 20
-14.6166152055
 10
-2.8472310812
 20
-14.6175679543
 10
-2.9006732249
 20
-14.61668657
 10
-2.9541032947
 20
-14.6140290753
 10
-3.0075088825
 20
-14.6096829186
 10
-3.0608628369
 20
-14.603715163
 10
-3.1140790342
 20
-14.5961113312
 10
-3.1670566075
 20
-14.586836561
 10
-3.2196937488
 20
-14.575853344
 10
-3.2718848851
 20
-14.5631135875
 10
-3.3235235023
 20
-14.5485665528
 10
-3.3745155411
 20
-14.5321725268
 10
-3.4248167611
 20
-14.5139358994
 10
-3.4743953767
 20
-14.493872086
 10
-3.5232196023
 20
-14.4719965021
 10
-3.5712576523
 20
-14.4483245631
 10
-3.6184777411
 20
-14.4228716847
 10
-3.664836257
 20
-14.3956593909
 10
-3.7102422841
 20
-14.3667336412
 10
-3.7545930807
 20
-14.3361465036
 10
-3.7977859047
 20
-14.303950046
 10
-3.8397180143
 20
-14.2701963367
 10
-3.8802866676
 20
-14.2349374436
 10
-3.9194037862
 20
-14.1982238266
 10
-3.9570399459
 20
-14.1600995128
 10
-3.9931803857
 20
-14.1206069211
 10
-4.0278103451
 20
-14.0797884703
 10
-4.0609150631
 20
-14.0376865794
 10
-4.0924797791
 20
-13.9943436673
 10
-4.1224855709
 20
-13.9498102689
 10
-4.1508968711
 20
-13.9041693835
 10
-4.1776739507
 20
-13.8575121262
 10
-4.2027719663
 20
-13.8099278916
 10
-4.2261256151
 20
-13.7614991912
 10
-4.2476644799
 20
-13.7123068155
 10
-4.2673327084
 20
-13.6624249634
 10
-4.2851327092
 20
-13.6119014663
 10
-4.3010814559
 20
-13.5607775638
 10
-4.3152027517
 20
-13.5091066428
 10
-4.3275477178
 20
-13.4569906795
 10
-4.3381743049
 20
-13.4045437976
 10
-4.3471386849
 20
-13.3518654335
 10
-4.3544899146
 20
-13.2989962759
 10
-4.3602752722
 20
-13.2459623264
 10
-4.364516973
 20
-13.1927624687
 10
-4.3671369815
 20
-13.1392871157
 10
-4.3680321993
 20
-13.0853995626
  0
LWPOLYLINE
  5
2A5
100
AcDbEntity
  8
CURVE
100
AcDbPolyline
 62
253
  6
CONTINUOUS
 90
91
 70
0
 10
-0.6254450057
 20
12.9520200342
 10
-0.6266225056
 20
12.8981388507
 10
-0.6292454463
 20
12.8446982094
 10
-0.633354519
 20
12.7915386837
 10
-0.6389955547
 20
12.7385353701
 10
-0.6462349438
 20
12.6857014567
 10
-0.6551442164
 20
12.6330846546
 10
-0.6657865768
 20
12.5807412433
 10
-0.6781919254
 20
12.5287617757
 10
-0.6923818366
 20
12.477245373
 10
-0.7083741632
 20
12.4262797071
 10
-0.7261718707
 20
12.3759066514
 10
-0.7457742032
 20
12.3261566297
 10
-0.7671744375
 20
12.2770697293
 10
-0.790341982
 20
12.2287246908
 10
-0.8152402779
 20
12.1812099181
 10
-0.8418327667
 20
12.1346138151
 10
-0.8700828896
 20
12.0890247856
 10
-0.899954088
 20
12.0445312337
 10
-0.9314123102
 20
12.0012141035
 10
-0.964433533
 20
11.959124501
 10
-0.99899624
 20
11.9183060727
 10
-1.035078915
 20
11.8788024647
 10
-1.0726600418
 20
11.8406573236
 10
-1.1117181041
 20
11.8039142956
 10
-1.1522188819
 20
11.7686184618
 10
-1.1940773409
 20
11.7348206423
 10
-1.2371957429
 20
11.7025730919
 10
-1.2814763499
 20
11.6719280654
 10
-1.3268214238
 20
11.6429378177
 10
-1.3731332264
 20
11.6156546034
 10
-1.4203243152
 20
11.590124862
 10
-1.4683484301
 20
11.5663717699
 10
-1.5171696064
 20
11.5444126883
 10
-1.5667518795
 20
11.5242649782
 10
-1.6170592847
 20
11.5059460008
 10
-1.6680558575
 20
11.4894731171
 10
-1.7196943254
 20
11.4748522809
 10
-1.7718821854
 20
11.4620438174
 10
-1.8245156267
 20
11.4509966444
 10
-1.8774911708
 20
11.441662004
 10
-1.9307066681
 20
11.4340004345
 10
-1.9840603014
 20
11.4279747983
 10
-2.0374652121
 20
11.4235688554
 10
-2.0908943763
 20
11.4208499567
 10
-2.144335729
 20
11.4199063508
 10
-2.1977771518
 20
11.4207968494
 10
-2.2512063129
 20
11.4234625175
 10
-2.304610827
 20
11.4278149835
 10
-2.3579635796
 20
11.4337865309
 10
-2.411178539
 20
11.4413920646
 10
-2.4641549442
 20
11.4506671446
 10
-2.5167911119
 20
11.4616499187
 10
-2.5689816701
 20
11.474388886
 10
-2.6206203244
 20
11.4889351335
 10
-2.6716131278
 20
11.5053287431
 10
-2.7219155216
 20
11.5235657773
 10
-2.7714952941
 20
11.5436312942
 10
-2.8203202338
 20
11.5655103513
 10
-2.8683581293
 20
11.5891880065
 10
-2.9155767687
 20
11.6146493175
 10
-2.9619321467
 20
11.6418730649
 10
-3.0073330814
 20
11.6708129198
 10
-3.0516765971
 20
11.7014162757
 10
-3.094859718
 20
11.7336305267
 10
-3.1367794683
 20
11.7674030663
 10
-3.1773328723
 20
11.8026812883
 10
-3.2164322133
 20
11.8394139466
 10
-3.2540508109
 20
11.8775552355
 10
-3.2901772439
 20
11.9170607093
 10
-3.3248000909
 20
11.9578859224
 10
-3.3579079306
 20
11.9999864291
 10
-3.3894893419
 20
12.0433177838
 10
-3.4195255894
 20
12.0878293715
 10
-3.4479686828
 20
12.1334458992
 10
-3.4747633174
 20
12.1800859046
 10
-3.4998540086
 20
12.2276666852
 10
-3.5231845491
 20
12.2761005785
 10
-3.5446985515
 20
12.325298682
 10
-3.5643512634
 20
12.3751804597
 10
-3.5821444736
 20
12.4256988417
 10
-3.598091606
 20
12.4768151249
 10
-3.6122132713
 20
12.5284780811
 10
-3.6245588274
 20
12.5805863819
 10
-3.6351848191
 20
12.6330261739
 10
-3.6441463492
 20
12.6856981772
 10
-3.6514927537
 20
12.7385614073
 10
-3.6572719266
 20
12.791589453
 10
-3.6615068615
 20
12.8447831185
 10
-3.6641209506
 20
12.898252068
 10
-3.6650126856
 20
12.9521331807
  0
LINE
  5
2A6
100
AcDbEntity
  8
ASSI
100
AcDbLine
 62
7
  6
CONTINUOUS
 10
8.3416542475
 20
-0.1552820166
 11
8.0791882569
 21
-0.18146262
  0
LINE
  5
2A7
100
AcDbEntity
  8
ASSI
100
AcDbLine
 62
253
  6
CONTINUOUS
 10
10.654896228
 20
-0.2102462138
 11
10.6433725588
 21
-0.210498036
  0
LINE
  5
2A8
100
AcDbEntity
  8
ASSI
100
AcDbLine
 62
253
  6
CONTINUOUS
 10
10.8583408949
 20
-0.4100071296
 11
10.8442230507
 21
-0.4102821534
  0
LINE
  5
2A9
100
AcDbEntity
  8
ASSI
100
AcDbLine
 62
253
  6
CONTINUOUS
 10
10.6433725588
 20
-0.210498036
 11
10.6206698809
 21
-0.2108527906
  0
LINE
  5
2AA
100
AcDbEntity
  8
ASSI
100
AcDbLine
 62
253
  6
CONTINUOUS
 10
10.8442230507
 20
-0.4102821534
 11
10.8135936667
 21
-0.4106759631
  0
LINE
  5
2AB
100
AcDbEntity
  8
ASSI
100
AcDbLine
 62
253
  6
CONTINUOUS
 10
10.6206698809
 20
-0.2108527906
 11
10.5698156659
 21
-0.2113624376
  0
LINE
  5
2AC
100
AcDbEntity
  8
ASSI
100
AcDbLine
 62
253
  6
CONTINUOUS
 10
10.8135936667
 20
-0.4106759631
 11
10.7213464205
 21
-0.4113623225
  0
LINE
  5
2AD
100
AcDbEntity
  8
ASSI
100
AcDbLine
 62
253
  6
CONTINUOUS
 10
10.5698156659
 20
-0.2113624376
 11
10.4625758754
 21
-0.2118955202
  0
LINE
  5
2AE
100
AcDbEntity
  8
ASSI
100
AcDbLine
 62
253
  6
CONTINUOUS
 10
-10.887145065
 20
0.1009674847
 11
-10.7589040528
 21
0.1014252583
  0
LINE
  5
2AF
100
AcDbEntity
  8
ASSI
100
AcDbLine
 62
253
  6
CONTINUOUS
 10
10.7213464205
 20
-0.4113623225
 11
10.4482379652
 21
-0.412122288
  0
LINE
  5
2B0
100
AcDbEntity
  8
ASSI
100
AcDbLine
 62
253
  6
CONTINUOUS
 10
10.4625758754
 20
-0.2118955202
 11
10.3708929112
 21
-0.2120207773
  0
LINE
  5
2B1
100
AcDbEntity
  8
ASSI
100
AcDbLine
 62
253
  6
CONTINUOUS
 10
-10.7589040528
 20
0.1014252583
 11
-10.7125163974
 21
0.1014567441
  0
LINE
  5
2B2
100
AcDbEntity
  8
ASSI
100
AcDbLine
 62
253
  6
CONTINUOUS
 10
10.4482379652
 20
-0.412122288
 11
-10.7124999246
 21
-0.4121559124
  0
LINE
  5
2B3
100
AcDbEntity
  8
ASSI
100
AcDbLine
 62
7
  6
CONTINUOUS
 10
10.3708929112
 20
-0.2120207773
 11
-10.7125163974
 21
-0.2120207773
  0
LINE
  5
2B4
100
AcDbEntity
  8
ASSI
100
AcDbLine
 62
7
  6
CONTINUOUS
 10
-8.4208117431
 20
-0.18146262
 11
8.0791882569
 21
-0.18146262
  0
LINE
  5
2B5
100
AcDbEntity
  8
ASSI
100
AcDbLine
 62
7
  6
CONTINUOUS
 10
-11.1208117419
 20
-0.1552820166
 11
-8.6832777337
 21
-0.1552820166
  0
LINE
  5
2B6
100
AcDbEntity
  8
ASSI
100
AcDbLine
 62
7
  6
CONTINUOUS
 10
8.3416542475
 20
-0.1552820166
 11
10.7791882557
 21
-0.1552820166
  0
LINE
  5
2B7
100
AcDbEntity
  8
ASSI
100
AcDbLine
 62
7
  6
CONTINUOUS
 10
10.7791882557
 20
0.0447179834
 11
8.3416542475
 21
0.0447179834
  0
LINE
  5
2B8
100
AcDbEntity
  8
ASSI
100
AcDbLine
 62
7
  6
CONTINUOUS
 10
-8.6832777337
 20
0.0447179834
 11
-11.1208117419
 21
0.0447179834
  0
LINE
  5
2B9
100
AcDbEntity
  8
ASSI
100
AcDbLine
 62
7
  6
CONTINUOUS
 10
8.0791882569
 20
0.0708985867
 11
-8.4208117431
 21
0.0708985867
  0
LINE
  5
2BA
100
AcDbEntity
  8
ASSI
100
AcDbLine
 62
7
  6
CONTINUOUS
 10
-10.7125163974
 20
0.1014567441
 11
10.3708929112
 21
0.1014567441
  0
LINE
  5
2BB
100
AcDbEntity
  8
ASSI
100
AcDbLine
 62
253
  6
CONTINUOUS
 10
-10.7124999246
 20
-0.4121559195
 11
-11.0242244972
 21
-0.4115520944
  0
LINE
  5
2BC
100
AcDbEntity
  8
ASSI
100
AcDbLine
 62
253
  6
CONTINUOUS
 10
-10.7125163974
 20
-0.2120207773
 11
-10.8472958186
 21
-0.2117416902
  0
LINE
  5
2BD
100
AcDbEntity
  8
ASSI
100
AcDbLine
 62
253
  6
CONTINUOUS
 10
10.3708929112
 20
0.1014567441
 11
10.5056723324
 21
0.1011776569
  0
LINE
  5
2BE
100
AcDbEntity
  8
ASSI
100
AcDbLine
 62
253
  6
CONTINUOUS
 10
10.5056723324
 20
0.1011776569
 11
10.5455215781
 21
0.1009674847
  0
LINE
  5
2BF
100
AcDbEntity
  8
ASSI
100
AcDbLine
 62
253
  6
CONTINUOUS
 10
-11.0242244972
 20
-0.4115520944
 11
-11.1425944468
 21
-0.4108007153
  0
LINE
  5
2C0
100
AcDbEntity
  8
ASSI
100
AcDbLine
 62
253
  6
CONTINUOUS
 10
-10.8472958186
 20
-0.2117416902
 11
-10.9335727421
 21
-0.2111726233
  0
LINE
  5
2C1
100
AcDbEntity
  8
ASSI
100
AcDbLine
 62
253
  6
CONTINUOUS
 10
-11.1425944468
 20
-0.4108007153
 11
-11.1768729248
 21
-0.4104161531
  0
LINE
  5
2C2
100
AcDbEntity
  8
ASSI
100
AcDbLine
 62
253
  6
CONTINUOUS
 10
-10.9335727421
 20
-0.2111726233
 11
-10.9705737184
 21
-0.2107378068
  0
LWPOLYLINE
  5
2C3
100
AcDbEntity
  8
ASSI
100
AcDbPolyline
 62
253
  6
CONTINUOUS
 90
7
 70
0
 10
-11.1768729248
 20
-0.4104161531
 10
-11.1935502405
 20
-0.4101457954
 10
-11.1999643808
 20
-0.4100071296
 10
-11.2050726459
 20
-0.4098671458
 10
-11.2088612324
 20
-0.4097262066
 10
-11.2113194684
 20
-0.4095840472
 10
-11.2124405055
 20
-0.4094407171
  0
LINE
  5
2C4
100
AcDbEntity
  8
ASSI
100
AcDbLine
 62
253
  6
CONTINUOUS
 10
-10.9705737184
 20
-0.2107378068
 11
-10.9849960446
 21
-0.210498036
  0
LWPOLYLINE
  5
2C5
100
AcDbEntity
  8
ASSI
100
AcDbPolyline
 62
253
  6
CONTINUOUS
 90
8
 70
0
 10
-10.9849960446
 20
-0.210498036
 10
-10.996519714
 20
-0.2102462138
 10
-11.0011348513
 20
-0.2101169101
 10
-11.0049897088
 20
-0.209985358
 10
-11.0080537716
 20
-0.2098526264
 10
-11.010316868
 20
-0.2097190716
 10
-11.0117891697
 20
-0.2095843374
 10
-11.0124706767
 20
-0.2094484237
  0
LINE
  5
2C6
100
AcDbEntity
  8
ASSI
100
AcDbLine
 62
7
  6
CONTINUOUS
 10
-8.6832777337
 20
-0.1552820166
 11
-8.4208117431
 21
-0.18146262
  0
LINE
  5
2C7
100
AcDbEntity
  8
CURVE
100
AcDbLine
 62
253
  6
CONTINUOUS
 10
0.2681058048
 20
13.9904214228
 11
0.2681058048
 21
11.4940601215
  0
LINE
  5
2C8
100
AcDbEntity
  8
CURVE
100
AcDbLine
 62
253
  6
CONTINUOUS
 10
0.9245856885
 20
-12.8920969394
 11
0.9245856885
 21
-13.1634536098
  0
LINE
  5
2C9
100
AcDbEntity
  8
CURVE
100
AcDbLine
 62
253
  6
CONTINUOUS
 10
1.0274204081
 20
-11.6274944397
 11
1.0274204081
 21
-11.8987099826
  0
LINE
  5
2CA
100
AcDbEntity
  8
CURVE
100
AcDbLine
 62
253
  6
CONTINUOUS
 10
1.5618094652
 20
-14.543414439
 11
1.5618094652
 21
-11.6274943732
  0
LWPOLYLINE
  5
2CB
100
AcDbEntity
  8
ASSI
100
AcDbPolyline
 62
253
  6
CONTINUOUS
 90
76
 70
0
 10
1.2497960247
 20
4.4456181634
 10
1.248641494
 20
4.3871098687
 10
1.2450305512
 20
4.3286570654
 10
1.2389631962
 20
4.2702597545
 10
1.2304370046
 20
4.2117755454
 10
1.2194544008
 20
4.1533468304
 10
1.2060226582
 20
4.0954007856
 10
1.1901098153
 20
4.0379406744
 10
1.1717478337
 20
3.9809632378
 10
1.1510398716
 20
3.9248858718
 10
1.1279602181
 20
3.8697262656
 10
1.102534584
 20
3.8154667363
 10
1.0749432606
 20
3.7624716231
 10
1.0451892819
 20
3.7107850077
 10
1.0132696137
 20
3.6603628157
 10
0.9793554445
 20
3.6114371544
 10
0.9434493665
 20
3.5640214404
 10
0.9055487874
 20
3.5181022643
 10
0.8658171183
 20
3.4738714953
 10
0.8242349502
 20
3.4313199355
 10
0.7808216922
 20
3.3904567896
 10
0.7357989817
 20
3.3515015313
 10
0.6891492885
 20
3.3144595217
 10
0.6408901428
 20
3.2793254059
 10
0.5912957732
 20
3.2463025845
 10
0.540364459
 20
3.2154086266
 10
0.4880979208
 20
3.1866259687
 10
0.4347755496
 20
3.1601053122
 10
0.3803956875
 20
3.1358599469
 10
0.3249599923
 20
3.1138765876
 10
0.2687528281
 20
3.0942660732
 10
0.211769059
 20
3.0770394557
 10
0.1540138209
 20
3.0621856864
 10
0.0957868856
 20
3.0497824537
 10
0.037083493
 20
3.0398421431
 10
-0.0220915968
 20
3.0323523711
 10
-0.0814243312
 20
3.0273536725
 10
-0.1409150266
 20
3.0248595515
 10
-0.2005633666
 20
3.0248565045
 10
-0.2600543498
 20
3.0273445541
 10
-0.319387691
 20
3.0323372133
 10
-0.3785636754
 20
3.0398209683
 10
-0.4372681568
 20
3.0497553009
 10
-0.495496402
 20
3.0621526238
 10
-0.5532531441
 20
3.0770005222
 10
-0.6102384365
 20
3.0942212363
 10
-0.6664470391
 20
3.1138257869
 10
-0.7218841919
 20
3.1358031498
 10
-0.7762656675
 20
3.1600424985
 10
-0.8295896718
 20
3.1865569789
 10
-0.881857999
 20
3.2153334405
 10
-0.9327918043
 20
3.246221611
 10
-0.9823895767
 20
3.2792391099
 10
-1.0306528271
 20
3.3143683121
 10
-1.0773072439
 20
3.3514060795
 10
-1.1223356734
 20
3.3903582551
 10
-1.1657552693
 20
3.4312189894
 10
-1.2073431809
 20
3.4737676062
 10
-1.2470796533
 20
3.5179948581
 10
-1.2849844413
 20
3.5639099856
 10
-1.3208939586
 20
3.6113200445
 10
-1.3548101691
 20
3.6602373148
 10
-1.3867311089
 20
3.7106495093
 10
-1.4164872989
 20
3.7623268338
 10
-1.4440821481
 20
3.8153129092
 10
-1.4695122476
 20
3.8695641072
 10
-1.4925978913
 20
3.9247197617
 10
-1.5133140927
 20
3.980798599
 10
-1.5316858384
 20
4.0377818865
 10
-1.5476083827
 20
4.095252771
 10
-1.561049826
 20
4.1532154729
 10
-1.572042068
 20
4.2116657674
 10
-1.5805760621
 20
4.2701741362
 10
-1.5866487929
 20
4.3285974064
 10
-1.5902632758
 20
4.3870787491
 10
-1.5914195109
 20
4.4456181634
  0
LWPOLYLINE
  5
2CC
100
AcDbEntity
  8
ASSI
100
AcDbPolyline
 62
253
  6
CONTINUOUS
 90
76
 70
0
 10
1.2497960247
 20
-4.5561821967
 10
1.2486235539
 20
-4.6146791753
 10
1.2449955919
 20
-4.6731200222
 10
1.2389121389
 20
-4.7315047367
 10
1.230370737
 20
-4.7899756404
 10
1.2193738439
 20
-4.8483904101
 10
1.2059288327
 20
-4.9063220794
 10
1.1900037642
 20
-4.9637673826
 10
1.1716305775
 20
-5.020729587
 10
1.150912463
 20
-5.0767915288
 10
1.1278237242
 20
-5.1319355432
 10
1.1023900575
 20
-5.1861792996
 10
1.0747917425
 20
-5.2391586382
 10
1.045031801
 20
-5.2908295276
 10
1.0131072112
 20
-5.3412360064
 10
0.9791891872
 20
-5.3901460208
 10
0.9432803215
 20
-5.4375461481
 10
0.9053780218
 20
-5.4834498194
 10
0.8656457246
 20
-5.5276652634
 10
0.8240640412
 20
-5.5702016581
 10
0.7806523604
 20
-5.6110498344
 10
0.7356322848
 20
-5.6499905014
 10
0.6889862976
 20
-5.6870183042
 10
0.6407319155
 20
-5.7221386069
 10
0.5911432916
 20
-5.7551481983
 10
0.5402187214
 20
-5.7860295201
 10
0.4879599094
 20
-5.8148001395
 10
0.4346461223
 20
-5.8413095339
 10
0.3802757222
 20
-5.8655444253
 10
0.3248503471
 20
-5.8875180995
 10
0.268654177
 20
-5.9071198798
 10
0.2116820954
 20
-5.9243387309
 10
0.1539392188
 20
-5.9391856942
 10
0.0957250773
 20
-5.9515832081
 10
0.0370349253
 20
-5.9615189088
 10
-0.0221264917
 20
-5.969005164
 10
-0.0814454062
 20
-5.9740015086
 10
-0.1409221318
 20
-5.9764944622
 10
-0.2005563551
 20
-5.9764975065
 10
-0.2600333682
 20
-5.9740106191
 10
-0.3193528891
 20
-5.9690203085
 10
-0.3785152
 20
-5.9615400649
 10
-0.4372064397
 20
-5.9516103369
 10
-0.4954218896
 20
-5.9392187278
 10
-0.5531662683
 20
-5.9243776303
 10
-0.6101398712
 20
-5.9071646777
 10
-0.6663374777
 20
-5.8875688563
 10
-0.7217643083
 20
-5.8656011735
 10
-0.7761363197
 20
-5.8413722938
 10
-0.8294517378
 20
-5.8148690704
 10
-0.8817123367
 20
-5.7861046423
 10
-0.9326393954
 20
-5.755229103
 10
-0.9822314192
 20
-5.7222248294
 10
-1.0304899028
 20
-5.6871094358
 10
-1.0771406097
 20
-5.6500858719
 10
-1.1221663992
 20
-5.6111482856
 10
-1.1655844118
 20
-5.5703025198
 10
-1.2071718325
 20
-5.5277690676
 10
-1.2469089266
 20
-5.483557141
 10
-1.2848154286
 20
-5.4376575189
 10
-1.3207277276
 20
-5.3902630456
 10
-1.3546477884
 20
-5.341361418
 10
-1.386573646
 20
-5.2909649307
 10
-1.416335795
 20
-5.2393033258
 10
-1.4439376316
 20
-5.1863330173
 10
-1.4693757595
 20
-5.132097584
 10
-1.4924704841
 20
-5.0769575166
 10
-1.5131968326
 20
-5.0208941035
 10
-1.5315797778
 20
-4.9639260516
 10
-1.5475145435
 20
-4.9064699828
 10
-1.5609692526
 20
-4.848521669
 10
-1.5719757822
 20
-4.7900853365
 10
-1.5805249874
 20
-4.7315902916
 10
-1.5866138197
 20
-4.6731796373
 10
-1.5902453275
 20
-4.6147102721
 10
-1.5914195109
 20
-4.5561821967
  0
LWPOLYLINE
  5
2CD
100
AcDbEntity
  8
ASSI
100
AcDbPolyline
 62
253
  6
CONTINUOUS
 90
76
 70
0
 10
1.1498112552
 20
4.4447179834
 10
1.1487064088
 20
4.3904863094
 10
1.1453565523
 20
4.3361176509
 10
1.1397391493
 20
4.2817062622
 10
1.13183001
 20
4.2273149292
 10
1.1216173614
 20
4.173075831
 10
1.1091159336
 20
4.1191877606
 10
1.094331715
 20
4.0657474718
 10
1.0772756876
 20
4.0128548937
 10
1.0580017511
 20
3.96070756
 10
1.0365446483
 20
3.9094056074
 10
1.0129376108
 20
3.8590339808
 10
0.9872605456
 20
3.8097568435
 10
0.9595848526
 20
3.7616889316
 10
0.9299501403
 20
3.7148784103
 10
0.8984004723
 20
3.6693829445
 10
0.8650018446
 20
3.625288104
 10
0.8298108211
 20
3.5826595099
 10
0.7928536834
 20
3.5415271051
 10
0.7541802151
 20
3.5019515954
 10
0.7138687432
 20
3.4640181989
 10
0.6719873567
 20
3.4277943774
 10
0.6286008545
 20
3.3933403062
 10
0.5837907048
 20
3.3607246658
 10
0.5376559239
 20
3.330020697
 10
0.490284603
 20
3.3012856663
 10
0.4417543382
 20
3.2745653145
 10
0.3921537082
 20
3.2499074243
 10
0.3415738865
 20
3.227355874
 10
0.2901009593
 20
3.2069476267
 10
0.2378181809
 20
3.1887150872
 10
0.1848161257
 20
3.172689877
 10
0.1311893187
 20
3.1589006105
 10
0.0770283352
 20
3.1473707623
 10
0.0224261812
 20
3.1381206978
 10
-0.0325190826
 20
3.1311675909
 10
-0.0877081757
 20
3.1265242527
 10
-0.1430435026
 20
3.1241989374
 10
-0.1984282646
 20
3.1241957553
 10
-0.2537639389
 20
3.1265147173
 10
-0.3089537546
 20
3.1311517372
 10
-0.3639000842
 20
3.1380985815
 10
-0.4185035566
 20
3.1473424438
 10
-0.4726661493
 20
3.1588661701
 10
-0.5262948105
 20
3.172649398
 10
-0.5792987555
 20
3.1886685953
 10
-0.6315833641
 20
3.2068950942
 10
-0.6830581715
 20
3.2272972862
 10
-0.7336400249
 20
3.2498427944
 10
-0.7832426857
 20
3.2744945706
 10
-0.8317751502
 20
3.3012088045
 10
-0.8791493829
 20
3.3299380542
 10
-0.9252879014
 20
3.360636749
 10
-0.9701024125
 20
3.3932475948
 10
-1.0134939173
 20
3.4276974679
 10
-1.0553813032
 20
3.4639181273
 10
-1.0956992591
 20
3.5018491149
 10
-1.134378535
 20
3.5414218575
 10
-1.1713407253
 20
3.5825508754
 10
-1.2065362943
 20
3.6251755439
 10
-1.2399385254
 20
3.6692651155
 10
-1.271490392
 20
3.7147528577
 10
-1.3011268308
 20
3.7615540191
 10
-1.3288052607
 20
3.8096131555
 10
-1.3544859017
 20
3.8588819754
 10
-1.3780973898
 20
3.9092460185
 10
-1.3995609418
 20
3.9605442909
 10
-1.4188431897
 20
4.0126930582
 10
-1.4359084573
 20
4.0655913749
 10
-1.4507023541
 20
4.1190419677
 10
-1.463213473
 20
4.1729455197
 10
-1.4734351268
 20
4.2272047849
 10
-1.4813518517
 20
4.2816194741
 10
-1.4869750289
 20
4.3360568333
 10
-1.4903285911
 20
4.3904544644
 10
-1.4914347414
 20
4.4447179834
  0
LWPOLYLINE
  5
2CE
100
AcDbEntity
  8
ASSI
100
AcDbPolyline
 62
253
  6
CONTINUOUS
 90
76
 70
0
 10
1.1498112552
 20
-4.5552820166
 10
1.1486884391
 20
-4.6095031827
 10
1.1453214725
 20
-4.6638605519
 10
1.13968783
 20
-4.7182599117
 10
1.1317632901
 20
-4.7726384967
 10
1.1215361304
 20
-4.8268641838
 10
1.1090212017
 20
-4.8807382919
 10
1.0942244847
 20
-4.9341641269
 10
1.0771569516
 20
-4.9870418069
 10
1.0578725948
 20
-5.0391739245
 10
1.0364061256
 20
-5.0904604295
 10
1.0127907476
 20
-5.1408164123
 10
0.9871064476
 20
-5.1900777864
 10
0.9594245703
 20
-5.2381299293
 10
0.9297846901
 20
-5.2849246897
 10
0.8982309873
 20
-5.3304043586
 10
0.8648294285
 20
-5.3744834331
 10
0.8296365292
 20
-5.4170963624
 10
0.7926786796
 20
-5.4582131939
 10
0.7540056419
 20
-5.497773277
 10
0.7136956857
 20
-5.5356914843
 10
0.6718169597
 20
-5.571900421
 10
0.6284342138
 20
-5.6063399881
 10
0.5836288595
 20
-5.6389415735
 10
0.5374999545
 20
-5.6696320111
 10
0.4901355282
 20
-5.6983541115
 10
0.4416131043
 20
-5.7250621962
 10
0.3920212782
 20
-5.7497085531
 10
0.3414511528
 20
-5.7722493707
 10
0.2899887246
 20
-5.7926477445
 10
0.2377172298
 20
-5.8108713369
 10
0.1847271596
 20
-5.8268885816
 10
0.1311129373
 20
-5.8406709096
 10
0.076965084
 20
-5.8521949022
 10
0.0223765103
 20
-5.8614402334
 10
-0.0325548323
 20
-5.8683897554
 10
-0.0877297454
 20
-5.8730306887
 10
-0.1430507413
 20
-5.8753547988
 10
-0.1984211295
 20
-5.8753579778
 10
-0.2537424724
 20
-5.8730402151
 10
-0.3089181075
 20
-5.8684055941
 10
-0.363850515
 20
-5.8614623289
 10
-0.4184404055
 20
-5.852223194
 10
-0.4725898662
 20
-5.8407053178
 10
-0.5262059403
 20
-5.8269290228
 10
-0.5791978978
 20
-5.8109177857
 10
-0.6314712203
 20
-5.7927002286
 10
-0.6829355258
 20
-5.7723079049
 10
-0.7335076801
 20
-5.7497731243
 10
-0.7831015342
 20
-5.7251328762
 10
-0.8316261549
 20
-5.6984309041
 10
-0.8789934897
 20
-5.66971458
 10
-0.9251261288
 20
-5.6390294116
 10
-0.9699358408
 20
-5.6064326166
 10
-1.0133235846
 20
-5.5719972442
 10
-1.0552083042
 20
-5.5357914677
 10
-1.0955247379
 20
-5.4978756686
 10
-1.1342035768
 20
-5.4583183521
 10
-1.1711664721
 20
-5.4172049075
 10
-1.2063639099
 20
-5.3745959045
 10
-1.2397690662
 20
-5.3305220978
 10
-1.2713249627
 20
-5.2850501487
 10
-1.3009665652
 20
-5.2382647427
 10
-1.328651175
 20
-5.1902213695
 10
-1.3543390465
 20
-5.1409683059
 10
-1.3779588704
 20
-5.0906198994
 10
-1.3994317836
 20
-5.0393370708
 10
-1.4187244461
 20
-4.9872035203
 10
-1.4358012143
 20
-4.9343201055
 10
-1.4506076052
 20
-4.8808839745
 10
-1.4631322219
 20
-4.8269943974
 10
-1.4733683859
 20
-4.7727485594
 10
-1.4813005126
 20
-4.7183466364
 10
-1.486939933
 20
-4.6639213259
 10
-1.4903106117
 20
-4.6095350054
 10
-1.4914347414
 20
-4.5552820166
  0
LWPOLYLINE
  5
2CF
100
AcDbEntity
  8
ASSI
100
AcDbPolyline
 62
253
  6
CONTINUOUS
 90
5
 70
0
 10
-11.2124405055
 20
0.2988766838
 10
-11.2113194685
 20
0.2990200139
 10
-11.2088612325
 20
0.2991621733
 10
-11.2050726461
 20
0.2993031125
 10
-11.1999643811
 20
0.2994430963
  0
LINE
  5
2D0
100
AcDbEntity
  8
ASSI
100
AcDbLine
 62
7
  6
CONTINUOUS
 10
-8.6832777337
 20
0.0447179834
 11
-8.4208117431
 21
0.0708985867
  0
LINE
  5
2D1
100
AcDbEntity
  8
ASSI
100
AcDbLine
 62
253
  6
CONTINUOUS
 10
-10.9965197143
 20
0.0996821805
 11
-10.984996045
 21
0.0999340027
  0
LINE
  5
2D2
100
AcDbEntity
  8
ASSI
100
AcDbLine
 62
253
  6
CONTINUOUS
 10
-11.1999643811
 20
0.2994430963
 11
-11.1858465369
 21
0.2997181201
  0
LINE
  5
2D3
100
AcDbEntity
  8
ASSI
100
AcDbLine
 62
253
  6
CONTINUOUS
 10
-10.984996045
 20
0.0999340027
 11
-10.9622933671
 21
0.1002887574
  0
LINE
  5
2D4
100
AcDbEntity
  8
ASSI
100
AcDbLine
 62
253
  6
CONTINUOUS
 10
-11.1858465369
 20
0.2997181201
 11
-11.1552171529
 21
0.3001119298
  0
LINE
  5
2D5
100
AcDbEntity
  8
ASSI
100
AcDbLine
 62
253
  6
CONTINUOUS
 10
-10.9622933671
 20
0.1002887574
 11
-10.9114391521
 21
0.1007984044
  0
LINE
  5
2D6
100
AcDbEntity
  8
ASSI
100
AcDbLine
 62
253
  6
CONTINUOUS
 10
-10.9114391521
 20
0.1007984044
 11
-10.887145065
 21
0.1009674847
  0
LINE
  5
2D7
100
AcDbEntity
  8
ASSI
100
AcDbLine
 62
253
  6
CONTINUOUS
 10
-11.1552171529
 20
0.3001119298
 11
-11.0629699067
 21
0.3007982892
  0
LINE
  5
2D8
100
AcDbEntity
  8
ASSI
100
AcDbLine
 62
253
  6
CONTINUOUS
 10
-11.0629699067
 20
0.3007982892
 11
-10.7898614514
 21
0.3015582547
  0
LINE
  5
2D9
100
AcDbEntity
  8
ASSI
100
AcDbLine
 62
253
  6
CONTINUOUS
 10
-10.7898614514
 20
0.3015582547
 11
10.3708764384
 21
0.3015918791
  0
LINE
  5
2DA
100
AcDbEntity
  8
ASSI
100
AcDbLine
 62
253
  6
CONTINUOUS
 10
10.3708764384
 20
0.3015918862
 11
10.682601011
 21
0.3009880612
  0
LINE
  5
2DB
100
AcDbEntity
  8
ASSI
100
AcDbLine
 62
253
  6
CONTINUOUS
 10
10.682601011
 20
0.3009880612
 11
10.8009709606
 21
0.3002366821
  0
LINE
  5
2DC
100
AcDbEntity
  8
ASSI
100
AcDbLine
 62
253
  6
CONTINUOUS
 10
10.5455215781
 20
0.1009674847
 11
10.6021693923
 21
0.1005061656
  0
LINE
  5
2DD
100
AcDbEntity
  8
ASSI
100
AcDbLine
 62
253
  6
CONTINUOUS
 10
10.8009709606
 20
0.3002366821
 11
10.8352494386
 21
0.2998521198
  0
LINE
  5
2DE
100
AcDbEntity
  8
ASSI
100
AcDbLine
 62
253
  6
CONTINUOUS
 10
10.6021693923
 20
0.1005061656
 11
10.6289502322
 21
0.1001737735
  0
LINE
  5
2DF
100
AcDbEntity
  8
ASSI
100
AcDbLine
 62
253
  6
CONTINUOUS
 10
10.6289502322
 20
0.1001737735
 11
10.6433725584
 21
0.0999340027
  0
LWPOLYLINE
  5
2E0
100
AcDbEntity
  8
ASSI
100
AcDbPolyline
 62
253
  6
CONTINUOUS
 90
7
 70
0
 10
10.8352494386
 20
0.2998521198
 10
10.8519267543
 20
0.2995817621
 10
10.8583408946
 20
0.2994430963
 10
10.8634491597
 20
0.2993031125
 10
10.8672377462
 20
0.2991621733
 10
10.8696959822
 20
0.2990200139
 10
10.8708170193
 20
0.2988766838
  0
LWPOLYLINE
  5
2E1
100
AcDbEntity
  8
ASSI
100
AcDbPolyline
 62
253
  6
CONTINUOUS
 90
8
 70
0
 10
10.6433725584
 20
0.0999340027
 10
10.6548962278
 20
0.0996821805
 10
10.6595113651
 20
0.0995528768
 10
10.6633662226
 20
0.0994213247
 10
10.6664302854
 20
0.0992885931
 10
10.6686933818
 20
0.0991550383
 10
10.6701656835
 20
0.0990203041
 10
10.6708471905
 20
0.0988843905
  0
LINE
  5
2E2
100
AcDbEntity
  8
ASSI
100
AcDbLine
 62
7
  6
CONTINUOUS
 10
8.3416542475
 20
0.0447179834
 11
8.0791882569
 21
0.0708985867
  0
LINE
  5
2E3
100
AcDbEntity
  8
CURVE
100
AcDbLine
 62
253
  6
CONTINUOUS
 10
1.8578945535
 20
-11.8987099952
 11
1.8578945535
 21
-12.892096905
  0
LINE
  5
2E4
100
AcDbEntity
  8
CURVE
100
AcDbLine
 62
253
  6
CONTINUOUS
 10
1.8578945535
 20
-13.163453606
 11
1.8578945535
 21
-14.5434144034
  0
LINE
  5
2E5
100
AcDbEntity
  8
CURVE
100
AcDbLine
 62
253
  6
CONTINUOUS
 10
2.0892504806
 20
11.9384542011
 11
2.0892504806
 21
14.4099800045
  0
LINE
  5
2E6
100
AcDbEntity
  8
CURVE
100
AcDbLine
 62
253
  6
CONTINUOUS
 10
2.3853015841
 20
14.4099800338
 11
2.3853015841
 21
11.494059984
  0
LINE
  5
2E7
100
AcDbEntity
  8
CURVE
100
AcDbLine
 62
253
  6
CONTINUOUS
 10
3.2172884078
 20
-12.8920969394
 11
3.2172884078
 21
-13.1634536098
  0
LINE
  5
2E8
100
AcDbEntity
  8
CURVE
100
AcDbLine
 62
253
  6
CONTINUOUS
 10
3.3201584051
 20
-11.6274944397
 11
3.3201584051
 21
-11.8987099826
  0
LINE
  5
2E9
100
AcDbEntity
  8
ASSI
100
AcDbLine
 62
253
  6
CONTINUOUS
 10
10.4656545286
 20
22.1561992709
 11
10.3947937681
 21
21.943444113
  0
LWPOLYLINE
  5
2EA
100
AcDbEntity
  8
ASSI
100
AcDbPolyline
 62
253
  6
CONTINUOUS
 90
7
 70
0
 10
-11.0124706767
 20
0.0988843905
 10
-11.0117891698
 20
0.0990203041
 10
-11.0103168681
 20
0.0991550383
 10
-11.0080537717
 20
0.0992885931
 10
-11.004989709
 20
0.0994213247
 10
-11.0011348515
 20
0.0995528768
 10
-10.9965197143
 20
0.0996821805
  0
LINE
  5
2EB
100
AcDbEntity
  8
ASSI
100
AcDbLine
 62
253
  6
CONTINUOUS
 10
10.3947937681
 20
-22.0540081463
 11
10.4656545286
 21
-22.2667633042
  0
LINE
  5
2EC
100
AcDbEntity
  8
ASSI
100
AcDbLine
 62
253
  6
CONTINUOUS
 10
10.9660343519
 20
21.6582535431
 11
10.8947173134
 21
21.444128438
  0
LINE
  5
2ED
100
AcDbEntity
  8
ASSI
100
AcDbLine
 62
253
  6
CONTINUOUS
 10
10.7791882557
 20
-0.1552820166
 11
10.6708471905
 21
-0.2094484237
  0
LINE
  5
2EE
100
AcDbEntity
  8
ASSI
100
AcDbLine
 62
253
  6
CONTINUOUS
 10
10.6708471905
 20
0.0988843905
 11
10.7791882557
 21
0.0447179834
  0
LINE
  5
2EF
100
AcDbEntity
  8
ASSI
100
AcDbLine
 62
253
  6
CONTINUOUS
 10
10.8947173134
 20
-21.5546924712
 11
10.9660343519
 21
-21.7688175764
  0
LWPOLYLINE
  5
2F0
100
AcDbEntity
  8
ASSI
100
AcDbPolyline
 62
253
  6
CONTINUOUS
 90
11
 70
0
 10
10.8947173134
 20
21.444128438
 10
10.8940012031
 20
21.441124848
 10
10.8932901552
 20
21.4364648509
 10
10.8925841696
 20
21.4301484467
 10
10.89188206
 20
21.4221594799
 10
10.8911850127
 20
21.4125141061
 10
10.8904965866
 20
21.4012607915
 10
10.8898168335
 20
21.388391251
 10
10.8891457016
 20
21.3739137698
 10
10.8884865956
 20
21.3579016706
 10
10.8872046036
 20
21.3212584598
  0
LINE
  5
2F1
100
AcDbEntity
  8
ASSI
100
AcDbLine
 62
253
  6
CONTINUOUS
 10
10.9791882569
 20
-0.3552591713
 11
10.8708170196
 21
-0.4094406633
  0
LINE
  5
2F2
100
AcDbEntity
  8
ASSI
100
AcDbLine
 62
253
  6
CONTINUOUS
 10
10.8708170196
 20
0.2988766301
 11
10.9791882569
 21
0.2446951381
  0
LWPOLYLINE
  5
2F3
100
AcDbEntity
  8
ASSI
100
AcDbPolyline
 62
253
  6
CONTINUOUS
 90
8
 70
0
 10
10.3947936662
 20
21.9434441129
 10
10.3940773109
 20
21.9389630225
 10
10.3933660902
 20
21.9319672294
 10
10.392660004
 20
21.9224685202
 10
10.3919578934
 20
21.910482992
 10
10.3912609173
 20
21.896030773
 10
10.3905725523
 20
21.8791358119
 10
10.3892216935
 20
21.8381340658
  0
LINE
  5
2F4
100
AcDbEntity
  8
CURVE
100
AcDbLine
 62
253
  6
CONTINUOUS
 10
2.0152377047
 20
11.4940600345
 11
0.2764313601
 21
13.9904214228
  0
LWPOLYLINE
  5
2F5
100
AcDbEntity
  8
ASSI
100
AcDbPolyline
 62
253
  6
CONTINUOUS
 90
9
 70
0
 10
10.8891457016
 20
-21.4844778027
 10
10.8898168335
 20
-21.4989552839
 10
10.8904965866
 20
-21.5118248245
 10
10.8911850126
 20
-21.5230781391
 10
10.89188206
 20
-21.532723513
 10
10.8925841696
 20
-21.5407124798
 10
10.8932901552
 20
-21.5470288841
 10
10.8940012031
 20
-21.5516888812
 10
10.8947173134
 20
-21.5546924712
  0
LWPOLYLINE
  5
2F6
100
AcDbEntity
  8
ASSI
100
AcDbPolyline
 62
253
  6
CONTINUOUS
 90
7
 70
0
 10
10.3905725523
 20
-21.9896998447
 10
10.3912609173
 20
-22.0065948059
 10
10.3919578934
 20
-22.0210470249
 10
10.392660004
 20
-22.0330325533
 10
10.3933660902
 20
-22.0425312625
 10
10.3940773109
 20
-22.0495270557
 10
10.3947936662
 20
-22.0540081462
  0
LINE
  5
2F7
100
AcDbEntity
  8
ASSI
100
AcDbLine
 62
253
  6
CONTINUOUS
 10
10.3892216935
 20
-21.9486980986
 11
10.3905725523
 21
-21.9896998447
  0
LINE
  5
2F8
100
AcDbEntity
  8
ASSI
100
AcDbLine
 62
253
  6
CONTINUOUS
 10
10.3879156166
 20
-21.8983204262
 11
10.3892216935
 21
-21.9486980986
  0
LINE
  5
2F9
100
AcDbEntity
  8
ASSI
100
AcDbLine
 62
253
  6
CONTINUOUS
 10
10.386056476
 20
-21.8059346687
 11
10.3879156166
 21
-21.8983204262
  0
LINE
  5
2FA
100
AcDbEntity
  8
ASSI
100
AcDbLine
 62
253
  6
CONTINUOUS
 10
10.3879156166
 20
21.7877563935
 11
10.3860564761
 21
21.6953706362
  0
LINE
  5
2FB
100
AcDbEntity
  8
ASSI
100
AcDbLine
 62
253
  6
CONTINUOUS
 10
10.3892216935
 20
21.8381340658
 11
10.3879156166
 21
21.7877563935
  0
LINE
  5
2FC
100
AcDbEntity
  8
CURVE
100
AcDbLine
 62
253
  6
CONTINUOUS
 10
0.3421185807
 20
14.4099800338
 11
2.0812424252
 21
11.9384542011
  0
LWPOLYLINE
  5
2FD
100
AcDbEntity
  8
ASSI
100
AcDbPolyline
 62
253
  6
CONTINUOUS
 90
22
 70
0
 10
10.8708167295
 20
-0.4094408084
 10
10.870255405
 20
-0.3944967814
 10
10.8685791217
 20
-0.379636313
 10
10.8657972527
 20
-0.364942493
 10
10.8619253524
 20
-0.3504974792
 10
10.8569850704
 20
-0.3363820387
 10
10.85100403
 20
-0.3226750962
 10
10.8440156737
 20
-0.3094532917
 10
10.8360590761
 20
-0.2967905524
 10
10.8271787261
 20
-0.2847576801
 10
10.8174242771
 20
-0.2734219542
 10
10.8068502698
 20
-0.262846756
 10
10.7955158278
 20
-0.2530912148
 10
10.7834843262
 20
-0.2442098762
 10
10.7708230373
 20
-0.2362523982
 10
10.757602755
 20
-0.229263273
 10
10.7438973986
 20
-0.2232815783
 10
10.7297835993
 20
-0.2183407589
 10
10.715340272
 20
-0.2144684396
 10
10.7006481742
 20
-0.211686271
 10
10.6857894537
 20
-0.2100098081
 10
10.6708471905
 20
-0.2094484237
  0
LINE
  5
2FE
100
AcDbEntity
  8
ASSI
100
AcDbLine
 62
253
  6
CONTINUOUS
 10
10.8878395867
 20
-21.4509114071
 11
10.8891457016
 21
-21.4844778027
  0
LINE
  5
2FF
100
AcDbEntity
  8
ASSI
100
AcDbLine
 62
253
  6
CONTINUOUS
 10
10.8865848375
 20
-21.4112950208
 11
10.8878395867
 21
-21.4509114071
  0
LWPOLYLINE
  5
300
100
AcDbEntity
  8
ASSI
100
AcDbPolyline
 62
253
  6
CONTINUOUS
 90
28
 70
0
 10
10.8947173134
 20
21.444128438
 10
10.89384597
 20
21.4731441496
 10
10.8912879546
 20
21.5020617963
 10
10.8870519125
 20
21.5307836435
 10
10.8811521604
 20
21.5592126186
 10
10.8736086377
 20
21.5872526388
 10
10.8644468395
 20
21.6148089359
 10
10.8536977304
 20
21.6417883765
 10
10.8413976393
 20
21.6680997766
 10
10.8275881376
 20
21.6936542104
 10
10.8123158977
 20
21.7183653102
 10
10.7956325358
 20
21.7421495585
 10
10.7775944374
 20
21.7649265704
 10
10.7582625668
 20
21.7866193652
 10
10.7377022607
 20
21.8071546266
 10
10.7159830078
 20
21.8264629504
 10
10.6931782137
 20
21.8444790791
 10
10.6693649528
 20
21.8611421227
 10
10.6446237081
 20
21.876395764
 10
10.6190380989
 20
21.8901884494
 10
10.592694598
 20
21.9024735631
 10
10.5656822401
 20
21.9132095842
 10
10.5380923201
 20
21.9223602275
 10
10.5100180853
 20
21.9298945662
 10
10.4815544196
 20
21.9357871359
 10
10.4527975233
 20
21.9400180212
 10
10.4238445874
 20
21.9425729226
 10
10.3947934658
 20
21.9434432053
  0
LINE
  5
301
100
AcDbEntity
  8
ASSI
100
AcDbLine
 62
253
  6
CONTINUOUS
 10
10.8853911078
 20
-21.3659099716
 11
10.8865848375
 21
-21.4112950208
  0
LINE
  5
302
100
AcDbEntity
  8
ASSI
100
AcDbLine
 62
253
  6
CONTINUOUS
 10
10.8837326018
 20
-21.2877357845
 11
10.8853911078
 21
-21.3659099716
  0
LINE
  5
303
100
AcDbEntity
  8
ASSI
100
AcDbLine
 62
253
  6
CONTINUOUS
 10
10.8818056126
 20
-21.1665232961
 11
10.8837326018
 21
-21.2877357845
  0
LINE
  5
304
100
AcDbEntity
  8
ASSI
100
AcDbLine
 62
253
  6
CONTINUOUS
 10
10.3838087968
 20
-21.6536042644
 11
10.386056476
 21
-21.8059346687
  0
LINE
  5
305
100
AcDbEntity
  8
ASSI
100
AcDbLine
 62
253
  6
CONTINUOUS
 10
10.8799244277
 20
-20.9923150406
 11
10.8818056126
 21
-21.1665232961
  0
LINE
  5
306
100
AcDbEntity
  8
ASSI
100
AcDbLine
 62
253
  6
CONTINUOUS
 10
10.3810546712
 20
-21.3712846403
 11
10.3838087968
 21
-21.6536042644
  0
LINE
  5
307
100
AcDbEntity
  8
ASSI
100
AcDbLine
 62
253
  6
CONTINUOUS
 10
10.878542081
 20
-20.759831251
 11
10.8799244277
 21
-20.9923150406
  0
LINE
  5
308
100
AcDbEntity
  8
ASSI
100
AcDbLine
 62
253
  6
CONTINUOUS
 10
10.3787788151
 20
-20.921772573
 11
10.3810546712
 21
-21.3712846403
  0
LINE
  5
309
100
AcDbEntity
  8
ASSI
100
AcDbLine
 62
7
  6
CONTINUOUS
 10
10.9791882569
 20
13.0447179834
 11
10.9660343519
 21
21.6582535431
  0
LINE
  5
30A
100
AcDbEntity
  8
ASSI
100
AcDbLine
 62
253
  6
CONTINUOUS
 10
10.3734633763
 20
-12.2008619987
 11
10.3787788151
 21
-20.921772573
  0
LINE
  5
30B
100
AcDbEntity
  8
ASSI
100
AcDbLine
 62
253
  6
CONTINUOUS
 10
10.8733868051
 20
-12.1877229641
 11
10.878542081
 21
-20.759831251
  0
LINE
  5
30C
100
AcDbEntity
  8
ASSI
100
AcDbLine
 62
253
  6
CONTINUOUS
 10
10.3734633763
 20
-12.2008619987
 11
10.3708929112
 21
-0.2120207773
  0
LINE
  5
30D
100
AcDbEntity
  8
ASSI
100
AcDbLine
 62
253
  6
CONTINUOUS
 10
10.8708170196
 20
-0.4094406633
 11
10.8733868051
 21
-12.1877229641
  0
LINE
  5
30E
100
AcDbEntity
  8
ASSI
100
AcDbLine
 62
7
  6
CONTINUOUS
 10
10.9791882569
 20
-0.3552591713
 11
10.9791882569
 21
-13.1552820166
  0
LINE
  5
30F
100
AcDbEntity
  8
ASSI
100
AcDbLine
 62
7
  6
CONTINUOUS
 10
10.9791882569
 20
0.2446951381
 11
10.9791882569
 21
13.0447179834
  0
LINE
  5
310
100
AcDbEntity
  8
ASSI
100
AcDbLine
 62
7
  6
CONTINUOUS
 10
10.9791882569
 20
-13.1552820166
 11
10.9660343519
 21
-21.7688175764
  0
LINE
  5
311
100
AcDbEntity
  8
ASSI
100
AcDbLine
 62
253
  6
CONTINUOUS
 10
10.3797016096
 20
21.0440109103
 11
10.3708929112
 21
0.1014567441
  0
LINE
  5
312
100
AcDbEntity
  8
ASSI
100
AcDbLine
 62
253
  6
CONTINUOUS
 10
10.8788912327
 20
20.7288655006
 11
10.8708170196
 21
0.2988766301
  0
LINE
  5
313
100
AcDbEntity
  8
ASSI
100
AcDbLine
 62
253
  6
CONTINUOUS
 10
10.3823304665
 20
21.4091718016
 11
10.3797016096
 21
21.0440109103
  0
LINE
  5
314
100
AcDbEntity
  8
ASSI
100
AcDbLine
 62
253
  6
CONTINUOUS
 10
10.880601718
 20
20.9540735374
 11
10.8788912327
 21
20.7288655006
  0
LINE
  5
315
100
AcDbEntity
  8
ASSI
100
AcDbLine
 62
253
  6
CONTINUOUS
 10
10.3848961872
 20
21.6231706994
 11
10.3823304665
 21
21.4091718016
  0
LINE
  5
316
100
AcDbEntity
  8
ASSI
100
AcDbLine
 62
253
  6
CONTINUOUS
 10
10.8822542266
 20
21.0879205865
 11
10.880601718
 21
20.9540735374
  0
LINE
  5
317
100
AcDbEntity
  8
ASSI
100
AcDbLine
 62
253
  6
CONTINUOUS
 10
10.3860564761
 20
21.6953706362
 11
10.3848961872
 21
21.6231706994
  0
LINE
  5
318
100
AcDbEntity
  8
ASSI
100
AcDbLine
 62
253
  6
CONTINUOUS
 10
10.8842672266
 20
21.2045529436
 11
10.8822542266
 21
21.0879205865
  0
LINE
  5
319
100
AcDbEntity
  8
ASSI
100
AcDbLine
 62
253
  6
CONTINUOUS
 10
10.8859803642
 20
21.2787577421
 11
10.8842672266
 21
21.2045529436
  0
LWPOLYLINE
  5
31A
100
AcDbEntity
  8
ASSI
100
AcDbPolyline
 62
253
  6
CONTINUOUS
 90
28
 70
0
 10
10.8947173134
 20
-21.5546924712
 10
10.8938459694
 20
-21.5837081922
 10
10.8912879525
 20
-21.6126258473
 10
10.8870519081
 20
-21.641347702
 10
10.8811521528
 20
-21.6697766836
 10
10.8736086265
 20
-21.6978167093
 10
10.8644468244
 20
-21.7253730108
 10
10.853697711
 20
-21.7523524546
 10
10.8413976157
 20
-21.7786638569
 10
10.8275881098
 20
-21.8042182918
 10
10.8123158659
 20
-21.8289293917
 10
10.7956325004
 20
-21.8527136392
 10
10.777594399
 20
-21.8754906495
 10
10.7582625258
 20
-21.8971834419
 10
10.7377022179
 20
-21.9177187002
 10
10.7159829639
 20
-21.9370270205
 10
10.6931781696
 20
-21.9550431453
 10
10.6693649093
 20
-21.9717061846
 10
10.644623666
 20
-21.9869598216
 10
10.619038059
 20
-22.0007525028
 10
10.5926945611
 20
-22.0130376123
 10
10.5656822069
 20
-22.0237736295
 10
10.5380922914
 20
-22.0329242694
 10
10.5100180616
 20
-22.0404586051
 10
10.4815544014
 20
-22.0463511724
 10
10.4527975108
 20
-22.0505820559
 10
10.4238445811
 20
-22.0531369563
 10
10.3947934658
 20
-22.0540072386
  0
LINE
  5
31B
100
AcDbEntity
  8
ASSI
100
AcDbLine
 62
253
  6
CONTINUOUS
 10
10.8872046036
 20
21.3212584598
 11
10.8859803642
 21
21.2787577421
  0
LWPOLYLINE
  5
31C
100
AcDbEntity
  8
ASSI
100
AcDbPolyline
 62
253
  6
CONTINUOUS
 90
22
 70
0
 10
10.8708167295
 20
0.2988767751
 10
10.8702554068
 20
0.2839327716
 10
10.8685791286
 20
0.2690723249
 10
10.8657972675
 20
0.2543785245
 10
10.8619253778
 20
0.2399335281
 10
10.8569851084
 20
0.2258181024
 10
10.8510040821
 20
0.2121111712
 10
10.8440157406
 20
0.1988893744
 10
10.8360591581
 20
0.1862266393
 10
10.8271788223
 20
0.1741937674
 10
10.817424386
 20
0.1628580384
 10
10.8068503895
 20
0.1522828338
 10
10.7955159553
 20
0.1425272831
 10
10.7834844579
 20
0.1336459328
 10
10.7708231694
 20
0.1256884412
 10
10.7576028829
 20
0.1186993014
 10
10.7438975175
 20
0.1127175917
 10
10.7297837042
 20
0.107776758
 10
10.7153403579
 20
0.1039044259
 10
10.700648236
 20
0.101122247
 10
10.6857894868
 20
0.0994457773
 10
10.6708471905
 20
0.0988843905
  0
LINE
  5
31D
100
AcDbEntity
  8
CURVE
100
AcDbLine
 62
253
  6
CONTINUOUS
 10
2.3853015841
 20
11.4940600345
 11
2.0152377047
 21
11.4940600345
  0
LINE
  5
31E
100
AcDbEntity
  8
CURVE
100
AcDbLine
 62
253
  6
CONTINUOUS
 10
0.2681058048
 20
11.4940600345
 11
-0.0279090786
 21
11.4940600345
  0
LINE
  5
31F
100
AcDbEntity
  8
CURVE
100
AcDbLine
 62
253
  6
CONTINUOUS
 10
-0.0279090786
 20
14.4099800338
 11
0.3421185807
 21
14.4099800338
  0
LINE
  5
320
100
AcDbEntity
  8
CURVE
100
AcDbLine
 62
253
  6
CONTINUOUS
 10
2.0892504806
 20
14.4099800338
 11
2.3853015841
 21
14.4099800338
  0
LINE
  5
321
100
AcDbEntity
  8
ASSI
100
AcDbLine
 62
7
  6
CONTINUOUS
 10
7.6349781312
 20
22.1561992709
 11
7.2869232838
 21
22.1246053104
  0
LINE
  5
322
100
AcDbEntity
  8
ASSI
100
AcDbLine
 62
253
  6
CONTINUOUS
 10
-11.0599451047
 20
20.5014544793
 11
-11.0156124056
 21
20.50299218
  0
LINE
  5
323
100
AcDbEntity
  8
ASSI
100
AcDbLine
 62
253
  6
CONTINUOUS
 10
-11.0156124056
 20
20.50299218
 11
-10.9673687784
 21
20.5043134091
  0
LINE
  5
324
100
AcDbEntity
  8
ASSI
100
AcDbLine
 62
253
  6
CONTINUOUS
 10
-10.9673687784
 20
20.5043134091
 11
-10.9158522452
 21
20.5054006934
  0
LINE
  5
325
100
AcDbEntity
  8
ASSI
100
AcDbLine
 62
253
  6
CONTINUOUS
 10
-10.9158522452
 20
20.5054006934
 11
-10.8617441125
 21
20.5062396534
  0
LINE
  5
326
100
AcDbEntity
  8
ASSI
100
AcDbLine
 62
253
  6
CONTINUOUS
 10
-10.8617441125
 20
20.5062396534
 11
-10.8057599608
 21
20.506819194
  0
LINE
  5
327
100
AcDbEntity
  8
ASSI
100
AcDbLine
 62
253
  6
CONTINUOUS
 10
-10.8057599608
 20
20.506819194
 11
-10.7486401808
 21
20.5071316506
  0
LINE
  5
328
100
AcDbEntity
  8
ASSI
100
AcDbLine
 62
253
  6
CONTINUOUS
 10
-10.7486401808
 20
20.5071316506
 11
10.3782666707
 21
20.5071658143
  0
LINE
  5
329
100
AcDbEntity
  8
ASSI
100
AcDbLine
 62
253
  6
CONTINUOUS
 10
10.435671585
 20
20.5070091661
 11
10.3782666951
 21
20.5071863082
  0
LINE
  5
32A
100
AcDbEntity
  8
ASSI
100
AcDbLine
 62
253
  6
CONTINUOUS
 10
10.4923172941
 20
20.5065624277
 11
10.435671585
 21
20.5070091661
  0
LINE
  5
32B
100
AcDbEntity
  8
ASSI
100
AcDbLine
 62
253
  6
CONTINUOUS
 10
10.5474546821
 20
20.5058520012
 11
10.4923172941
 21
20.5065624277
  0
LINE
  5
32C
100
AcDbEntity
  8
ASSI
100
AcDbLine
 62
253
  6
CONTINUOUS
 10
10.600354556
 20
20.5048872818
 11
10.5474546821
 21
20.5058520012
  0
LINE
  5
32D
100
AcDbEntity
  8
ASSI
100
AcDbLine
 62
253
  6
CONTINUOUS
 10
10.650317314
 20
20.5036810282
 11
10.600354556
 21
20.5048872818
  0
LINE
  5
32E
100
AcDbEntity
  8
ASSI
100
AcDbLine
 62
7
  6
CONTINUOUS
 10
-7.9766016174
 20
22.1561992709
 11
-7.62854677
 21
22.1246053104
  0
LWPOLYLINE
  5
32F
100
AcDbEntity
  8
ASSI
100
AcDbPolyline
 62
253
  6
CONTINUOUS
 90
15
 70
0
 10
10.8781905427
 20
-20.5971878731
 10
10.8768620699
 20
-20.5983703951
 10
10.8738837505
 20
-20.599549004
 10
10.8692654397
 20
-20.6007197999
 10
10.8630224196
 20
-20.6018789086
 10
10.8551753482
 20
-20.6030224948
 10
10.8457501914
 20
-20.6041467741
 10
10.8347781368
 20
-20.6052480265
 10
10.822295491
 20
-20.6063226079
 10
10.8083435588
 20
-20.6073669625
 10
10.7929685071
 20
-20.6083776345
 10
10.7762212117
 20
-20.6093512797
 10
10.7581570892
 20
-20.6102846763
 10
10.7388359136
 20
-20.6111747356
 10
10.7183216185
 20
-20.6120185125
  0
LINE
  5
330
100
AcDbEntity
  8
ASSI
100
AcDbLine
 62
7
  6
CONTINUOUS
 10
-3.5650218688
 20
22.1561992709
 11
-3.9130767162
 21
22.1246053104
  0
LINE
  5
331
100
AcDbEntity
  8
ASSI
100
AcDbLine
 62
253
  6
CONTINUOUS
 10
-10.7364172543
 20
21.943444113
 11
10.3947937681
 21
21.943444113
  0
LINE
  5
332
100
AcDbEntity
  8
ASSI
100
AcDbLine
 62
7
  6
CONTINUOUS
 10
7.1137182031
 20
22.1193645324
 11
3.7446583107
 21
22.1193645324
  0
LINE
  5
333
100
AcDbEntity
  8
ASSI
100
AcDbLine
 62
7
  6
CONTINUOUS
 10
-4.0862817969
 20
22.1193645324
 11
-7.4553416893
 21
22.1193645324
  0
LINE
  5
334
100
AcDbEntity
  8
ASSI
100
AcDbLine
 62
7
  6
CONTINUOUS
 10
10.4656545286
 20
22.1561992709
 11
7.6349781312
 21
22.1561992709
  0
LINE
  5
335
100
AcDbEntity
  8
ASSI
100
AcDbLine
 62
7
  6
CONTINUOUS
 10
3.2233983826
 20
22.1561992709
 11
-3.5650218688
 21
22.1561992709
  0
LINE
  5
336
100
AcDbEntity
  8
ASSI
100
AcDbLine
 62
7
  6
CONTINUOUS
 10
-7.9766016174
 20
22.1561992709
 11
-10.8072780148
 21
22.1561992709
  0
LINE
  5
337
100
AcDbEntity
  8
ASSI
100
AcDbLine
 62
7
  6
CONTINUOUS
 10
3.2233983826
 20
22.1561992709
 11
3.57145323
 21
22.1246053104
  0
LWPOLYLINE
  5
338
100
AcDbEntity
  8
ASSI
100
AcDbPolyline
 62
253
  6
CONTINUOUS
 90
17
 70
0
 10
10.8781905427
 20
20.4866238399
 10
10.8768620884
 20
20.4878063624
 10
10.873883786
 20
20.4889849719
 10
10.8692654907
 20
20.4901557685
 10
10.8630224844
 20
20.491314878
 10
10.8551754253
 20
20.4924584648
 10
10.8457502791
 20
20.493582745
 10
10.8347782336
 20
20.4946839981
 10
10.8222955952
 20
20.4957585803
 10
10.8083436688
 20
20.4968029357
 10
10.7929686212
 20
20.4978136086
 10
10.7762213284
 20
20.4987872546
 10
10.758157207
 20
20.4997206519
 10
10.738836031
 20
20.500610712
 10
10.7183217341
 20
20.5014544897
 10
10.6966821978
 20
20.5022491929
 10
10.650317314
 20
20.5036810282
  0
LINE
  5
339
100
AcDbEntity
  8
ASSI
100
AcDbLine
 62
7
  6
CONTINUOUS
 10
-34.7737467181
 20
-22.0540081463
 11
-30.7141364689
 21
-22.2667633042
  0
LINE
  5
33A
100
AcDbEntity
  8
ASSI
100
AcDbLine
 62
253
  6
CONTINUOUS
 10
-34.7563222623
 20
-21.5546924712
 11
-30.6705718626
 21
-21.7688175764
  0
LINE
  5
33B
100
AcDbEntity
  8
ASSI
100
AcDbLine
 62
253
  6
CONTINUOUS
 10
-36.1931650153
 20
-20.6176956839
 11
-36.1939907134
 21
-20.6177503247
  0
LINE
  5
33C
100
AcDbEntity
  8
ASSI
100
AcDbLine
 62
253
  6
CONTINUOUS
 10
-36.1865707254
 20
-20.6173832273
 11
-36.1931650153
 21
-20.6176956839
  0
LINE
  5
33D
100
AcDbEntity
  8
ASSI
100
AcDbLine
 62
253
  6
CONTINUOUS
 10
-35.703140318
 20
-20.5971878731
 11
-36.1865707254
 21
-20.6173832273
  0
LINE
  5
33E
100
AcDbEntity
  8
ASSI
100
AcDbLine
 62
253
  6
CONTINUOUS
 10
-30.3169851483
 20
-17.9887736178
 11
-30.3398608692
 21
-17.9887736237
  0
LWPOLYLINE
  5
33F
100
AcDbEntity
  8
ASSI
100
AcDbPolyline
 62
253
  6
CONTINUOUS
 90
37
 70
0
 10
-35.703140318
 20
-20.5971878731
 10
-35.7005983045
 20
-20.6382367671
 10
-35.6963969297
 20
-20.6790155475
 10
-35.6905361936
 20
-20.7195242144
 10
-35.6830007044
 20
-20.759831251
 10
-35.6738058539
 20
-20.799868174
 10
-35.6629978174
 20
-20.8394295332
 10
-35.6505683153
 20
-20.8785121184
 10
-35.6365256272
 20
-20.9171191397
 10
-35.6209407683
 20
-20.9550547775
 10
-35.6038061121
 20
-20.9923150406
 10
-35.585129285
 20
-21.0289039201
 10
-35.5650041813
 20
-21.06463757
 10
-35.5434235511
 20
-21.0995117439
 10
-35.5203946442
 20
-21.1335306881
 10
-35.4960331043
 20
-21.1665232961
 10
-35.470332026
 20
-21.1984846191
 10
-35.4432983147
 20
-21.2294196059
 10
-35.4150683303
 20
-21.2591719956
 10
-35.3856359673
 20
-21.2877357845
 10
-35.3550073311
 20
-21.3151169764
 10
-35.3233370978
 20
-21.3411773209
 10
-35.2906202213
 20
-21.3659099716
 10
-35.2568617477
 20
-21.3893217749
 10
-35.2222314916
 20
-21.4112950208
 10
-35.1867251174
 20
-21.4318224927
 10
-35.1503469606
 20
-21.4509114071
 10
-35.1132798418
 20
-21.4684657035
 10
-35.075519686
 20
-21.4844778027
 10
-35.0370705682
 20
-21.4989552839
 10
-34.9981275347
 20
-21.5118248245
 10
-34.9586876355
 20
-21.5230781391
 10
-34.9187538205
 20
-21.532723513
 10
-34.8785299861
 20
-21.5407124798
 10
-34.8380840976
 20
-21.5470288841
 10
-34.7973481897
 20
-21.5516888812
 10
-34.7563222623
 20
-21.5546924712
  0
LINE
  5
340
100
AcDbEntity
  8
CURVE
100
AcDbLine
 62
253
  6
CONTINUOUS
 10
-36.404879988
 20
-14.6175679543
 11
-36.4257066069
 21
-13.8843077127
  0
LWPOLYLINE
  5
341
100
AcDbEntity
  8
ASSI
100
AcDbPolyline
 62
253
  6
CONTINUOUS
 90
8
 70
0
 10
-36.1253517927
 20
0.1256884412
 10
-36.125182025
 20
0.1186993014
 10
-36.1249949986
 20
0.1127175917
 10
-36.124791759
 20
0.107776758
 10
-36.1245734428
 20
0.1039044259
 10
-36.1243412706
 20
0.101122247
 10
-36.1240965405
 20
0.0994457773
 10
-36.1238406209
 20
0.0988843905
  0
LINE
  5
342
100
AcDbEntity
  8
CURVE
100
AcDbLine
 62
253
  6
CONTINUOUS
 10
-36.469459596
 20
-12.2003936102
 11
-36.4847404413
 21
-11.5542915641
  0
LINE
  5
343
100
AcDbEntity
  8
ASSI
100
AcDbLine
 62
253
  6
CONTINUOUS
 10
-36.1256358565
 20
0.1425272831
 11
-36.1253517927
 21
0.1256884412
  0
LINE
  5
344
100
AcDbEntity
  8
ASSI
100
AcDbLine
 62
253
  6
CONTINUOUS
 10
-36.1258408458
 20
0.1628580384
 11
-36.1256358565
 21
0.1425272831
  0
LINE
  5
345
100
AcDbEntity
  8
ASSI
100
AcDbLine
 62
253
  6
CONTINUOUS
 10
-36.1255857951
 20
-0.4094408084
 11
-36.1259449868
 21
-0.3504974792
  0
LWPOLYLINE
  5
346
100
AcDbEntity
  8
ASSI
100
AcDbPolyline
 62
253
  6
CONTINUOUS
 90
13
 70
0
 10
-36.1255691764
 20
-0.4094406633
 10
-36.1215475065
 20
-2.0923522563
 10
-36.1118555187
 20
-3.7751654573
 10
-36.096493213
 20
-5.4578802663
 10
-36.0754596868
 20
-7.1405031802
 10
-36.0487558427
 20
-8.8230277021
 10
-36.0163843885
 20
-10.5054343415
 10
-35.9783462619
 20
-12.1877229641
 10
-35.9346405252
 20
-13.8698937043
 10
-35.885267073
 20
-15.551927474
 10
-35.8302258702
 20
-17.2338179108
 10
-35.7695169518
 20
-18.9155713772
 10
-35.703140318
 20
-20.5971878731
  0
LINE
  5
347
100
AcDbEntity
  8
ASSI
100
AcDbLine
 62
253
  6
CONTINUOUS
 10
-36.1259905589
 20
0.1988893744
 11
-36.1258408458
 21
0.1628580384
  0
LINE
  5
348
100
AcDbEntity
  8
ASSI
100
AcDbLine
 62
253
  6
CONTINUOUS
 10
-36.1259449868
 20
-0.3504974792
 11
-36.1259905597
 21
-0.3094532917
  0
LINE
  5
349
100
AcDbEntity
  8
ASSI
100
AcDbLine
 62
253
  6
CONTINUOUS
 10
-36.1259449858
 20
0.2399335281
 11
-36.1259905589
 21
0.1988893744
  0
LINE
  5
34A
100
AcDbEntity
  8
ASSI
100
AcDbLine
 62
253
  6
CONTINUOUS
 10
-36.1259905597
 20
-0.3094532917
 11
-36.125840846
 21
-0.2734219542
  0
LINE
  5
34B
100
AcDbEntity
  8
ASSI
100
AcDbLine
 62
253
  6
CONTINUOUS
 10
-36.1255857951
 20
0.2988767751
 11
-36.1259449858
 21
0.2399335281
  0
LINE
  5
34C
100
AcDbEntity
  8
ASSI
100
AcDbLine
 62
253
  6
CONTINUOUS
 10
-36.125840846
 20
-0.2734219542
 11
-36.1256358563
 21
-0.2530912148
  0
LWPOLYLINE
  5
34D
100
AcDbEntity
  8
ASSI
100
AcDbPolyline
 62
253
  6
CONTINUOUS
 90
9
 70
0
 10
-36.1256358563
 20
-0.2530912148
 10
-36.125351792
 20
-0.2362523982
 10
-36.1251820242
 20
-0.229263273
 10
-36.1249949977
 20
-0.2232815783
 10
-36.1247917582
 20
-0.2183407589
 10
-36.124573442
 20
-0.2144684396
 10
-36.12434127
 20
-0.211686271
 10
-36.1240965401
 20
-0.2100098081
 10
-36.1238406209
 20
-0.2094484237
  0
LINE
  5
34E
100
AcDbEntity
  8
CURVE
100
AcDbLine
 62
253
  6
CONTINUOUS
 10
-36.4852661956
 20
11.4208499567
 11
-36.4535467761
 21
12.7279747308
  0
LINE
  5
34F
100
AcDbEntity
  8
CURVE
100
AcDbLine
 62
253
  6
CONTINUOUS
 10
-36.4543570625
 20
12.6962523972
 11
-36.4159538175
 21
14.1218446471
  0
LINE
  5
350
100
AcDbEntity
  8
CURVE
100
AcDbLine
 62
253
  6
CONTINUOUS
 10
-36.4055576404
 20
14.4837278727
 11
-36.4168783108
 21
14.0892141852
  0
LWPOLYLINE
  5
351
100
AcDbEntity
  8
ASSI
100
AcDbPolyline
 62
253
  6
CONTINUOUS
 90
13
 70
0
 10
-35.703140318
 20
20.4866238399
 10
-35.7695169518
 20
18.8050073439
 10
-35.8302258702
 20
17.1232538775
 10
-35.885267073
 20
15.4413634408
 10
-35.9346405252
 20
13.759329671
 10
-35.9783462619
 20
12.0771589309
 10
-36.0163843885
 20
10.3948703082
 10
-36.0487558427
 20
8.7124636688
 10
-36.0754596868
 20
7.0299391469
 10
-36.096493213
 20
5.347316233
 10
-36.1118555187
 20
3.664601424
 10
-36.1215475065
 20
1.981788223
 10
-36.1255691764
 20
0.2988766301
  0
LWPOLYLINE
  5
352
100
AcDbEntity
  8
ASSI
100
AcDbPolyline
 62
253
  6
CONTINUOUS
 90
10
 70
0
 10
-34.774243484
 20
21.8611421227
 10
-34.7748872789
 20
21.8901884494
 10
-34.7750712868
 20
21.9024735631
 10
-34.7751624354
 20
21.9132095842
 10
-34.7751604163
 20
21.9223602275
 10
-34.7750652366
 20
21.9298945662
 10
-34.7748772179
 20
21.9357871359
 10
-34.7745969957
 20
21.9400180212
 10
-34.7742255169
 20
21.9425729226
 10
-34.7737640372
 20
21.9434432053
  0
LWPOLYLINE
  5
353
100
AcDbEntity
  8
ASSI
100
AcDbPolyline
 62
253
  6
CONTINUOUS
 90
9
 70
0
 10
-34.7748872787
 20
-22.0007525028
 10
-34.7750712865
 20
-22.0130376123
 10
-34.7751624349
 20
-22.0237736295
 10
-34.7751604159
 20
-22.0329242694
 10
-34.7750652362
 20
-22.0404586051
 10
-34.7748772175
 20
-22.0463511724
 10
-34.7745969953
 20
-22.0505820559
 10
-34.7742255167
 20
-22.0531369563
 10
-34.7737640372
 20
-22.0540072386
  0
LINE
  5
354
100
AcDbEntity
  8
ASSI
100
AcDbLine
 62
253
  6
CONTINUOUS
 10
-34.7742434841
 20
-21.9717061846
 11
-34.7748872787
 21
-22.0007525028
  0
LINE
  5
355
100
AcDbEntity
  8
ASSI
100
AcDbLine
 62
253
  6
CONTINUOUS
 10
-34.7563222623
 20
21.444128438
 11
-34.7634546309
 21
21.5872526388
  0
LINE
  5
356
100
AcDbEntity
  8
ASSI
100
AcDbLine
 62
253
  6
CONTINUOUS
 10
-34.7634546309
 20
21.5872526388
 11
-34.7682276104
 21
21.6936542104
  0
LINE
  5
357
100
AcDbEntity
  8
ASSI
100
AcDbLine
 62
253
  6
CONTINUOUS
 10
-34.7682276104
 20
21.6936542104
 11
-34.7710901933
 21
21.7649265704
  0
LINE
  5
358
100
AcDbEntity
  8
ASSI
100
AcDbLine
 62
253
  6
CONTINUOUS
 10
-34.7710901933
 20
21.7649265704
 11
-34.7732397468
 21
21.8264629504
  0
LINE
  5
359
100
AcDbEntity
  8
ASSI
100
AcDbLine
 62
253
  6
CONTINUOUS
 10
-34.7732397468
 20
21.8264629504
 11
-34.774243484
 21
21.8611421227
  0
LINE
  5
35A
100
AcDbEntity
  8
ASSI
100
AcDbLine
 62
253
  6
CONTINUOUS
 10
-34.7732397473
 20
-21.9370270205
 11
-34.7742434841
 21
-21.9717061846
  0
LINE
  5
35B
100
AcDbEntity
  8
ASSI
100
AcDbLine
 62
253
  6
CONTINUOUS
 10
-34.7710901943
 20
-21.8754906495
 11
-34.7732397473
 21
-21.9370270205
  0
LINE
  5
35C
100
AcDbEntity
  8
ASSI
100
AcDbLine
 62
253
  6
CONTINUOUS
 10
-34.7682276118
 20
-21.8042182918
 11
-34.7710901943
 21
-21.8754906495
  0
LINE
  5
35D
100
AcDbEntity
  8
ASSI
100
AcDbLine
 62
253
  6
CONTINUOUS
 10
-34.7634546323
 20
-21.6978167093
 11
-34.7682276118
 21
-21.8042182918
  0
LINE
  5
35E
100
AcDbEntity
  8
ASSI
100
AcDbLine
 62
253
  6
CONTINUOUS
 10
-34.7563222623
 20
-21.5546924712
 11
-34.7634546323
 21
-21.6978167093
  0
LINE
  5
35F
100
AcDbEntity
  8
ASSI
100
AcDbLine
 62
253
  6
CONTINUOUS
 10
-29.9169851483
 20
-0.3552591713
 11
-36.1255691764
 21
-0.4094406633
  0
LINE
  5
360
100
AcDbEntity
  8
ASSI
100
AcDbLine
 62
7
  6
CONTINUOUS
 10
-29.9169851483
 20
-0.1552820166
 11
-36.4186031461
 21
-0.2120207773
  0
LINE
  5
361
100
AcDbEntity
  8
ASSI
100
AcDbLine
 62
253
  6
CONTINUOUS
 10
-36.1255691763
 20
-0.4094407171
 11
-36.6168577866
 21
-0.4121559195
  0
LINE
  5
362
100
AcDbEntity
  8
ASSI
100
AcDbLine
 62
7
  6
CONTINUOUS
 10
-36.4186031461
 20
0.1014567441
 11
-29.9169851483
 21
0.0447179834
  0
LINE
  5
363
100
AcDbEntity
  8
ASSI
100
AcDbLine
 62
7
  6
CONTINUOUS
 10
-30.3169851483
 20
17.8782095846
 11
-30.3169851483
 21
17.6167389045
  0
LINE
  5
364
100
AcDbEntity
  8
ASSI
100
AcDbLine
 62
7
  6
CONTINUOUS
 10
-30.3169851483
 20
-17.7273029377
 11
-30.3169851483
 21
-17.9887736178
  0
LINE
  5
365
100
AcDbEntity
  8
ASSI
100
AcDbLine
 62
7
  6
CONTINUOUS
 10
-29.9169851483
 20
-0.1552820166
 11
-29.9169851483
 21
-13.1552820166
  0
LINE
  5
366
100
AcDbEntity
  8
ASSI
100
AcDbLine
 62
7
  6
CONTINUOUS
 10
-29.9169851483
 20
0.0447179834
 11
-29.9169851483
 21
13.0447179834
  0
LINE
  5
367
100
AcDbEntity
  8
ASSI
100
AcDbLine
 62
253
  6
CONTINUOUS
 10
-36.6168577866
 20
0.3015918862
 11
-36.1255691764
 21
0.2988766838
  0
LINE
  5
368
100
AcDbEntity
  8
ASSI
100
AcDbLine
 62
253
  6
CONTINUOUS
 10
-36.1255691764
 20
0.2988766301
 11
-29.9169851483
 21
0.2446951381
  0
LINE
  5
369
100
AcDbEntity
  8
ASSI
100
AcDbLine
 62
7
  6
CONTINUOUS
 10
-29.9169851483
 20
13.0447179834
 11
-30.7141364689
 21
22.1561992709
  0
LINE
  5
36A
100
AcDbEntity
  8
ASSI
100
AcDbLine
 62
7
  6
CONTINUOUS
 10
-29.9169851483
 20
-13.1552820166
 11
-30.7141364689
 21
-22.2667633042
  0
LINE
  5
36B
100
AcDbEntity
  8
ASSI
100
AcDbLine
 62
253
  6
CONTINUOUS
 10
-30.3169851483
 20
17.8782095846
 11
-30.3398608686
 21
17.8782095845
  0
LWPOLYLINE
  5
36C
100
AcDbEntity
  8
ASSI
100
AcDbPolyline
 62
253
  6
CONTINUOUS
 90
37
 70
0
 10
-34.7563222623
 20
21.444128438
 10
-34.7973481892
 20
21.441124848
 10
-34.8380840969
 20
21.4364648509
 10
-34.8785299851
 20
21.4301484467
 10
-34.9187538195
 20
21.4221594799
 10
-34.9586876346
 20
21.4125141061
 10
-34.9981275339
 20
21.4012607915
 10
-35.0370705674
 20
21.388391251
 10
-35.0755196851
 20
21.3739137698
 10
-35.113279841
 20
21.3579016706
 10
-35.1503469598
 20
21.3403473742
 10
-35.1867251166
 20
21.3212584598
 10
-35.2222314908
 20
21.300730988
 10
-35.256861747
 20
21.2787577421
 10
-35.2906202206
 20
21.2553459388
 10
-35.3233370971
 20
21.2306132882
 10
-35.3550073304
 20
21.2045529436
 10
-35.3856359666
 20
21.1771717518
 10
-35.4150683297
 20
21.1486079629
 10
-35.4432983142
 20
21.1188555732
 10
-35.4703320255
 20
21.0879205865
 10
-35.4960331038
 20
21.0559592634
 10
-35.5203946437
 20
21.0229666555
 10
-35.5434235506
 20
20.9889477113
 10
-35.5650041809
 20
20.9540735374
 10
-35.5851292847
 20
20.9183398875
 10
-35.6038061118
 20
20.881751008
 10
-35.620940768
 20
20.8444907449
 10
-35.636525627
 20
20.8065551071
 10
-35.6505683151
 20
20.7679480858
 10
-35.6629978172
 20
20.7288655006
 10
-35.6738058537
 20
20.6893041415
 10
-35.6830007042
 20
20.6492672185
 10
-35.6905361935
 20
20.6089601818
 10
-35.6963969296
 20
20.5684515148
 10
-35.7005983044
 20
20.5276727342
 10
-35.703140318
 20
20.4866238399
  0
LINE
  5
36D
100
AcDbEntity
  8
ASSI
100
AcDbLine
 62
253
  6
CONTINUOUS
 10
-30.6705718626
 20
21.6582535431
 11
-34.7563222623
 21
21.444128438
  0
LINE
  5
36E
100
AcDbEntity
  8
ASSI
100
AcDbLine
 62
7
  6
CONTINUOUS
 10
-30.7141364689
 20
22.1561992709
 11
-34.7737467174
 21
21.943444113
  0
LWPOLYLINE
  5
36F
100
AcDbEntity
  8
ASSI
100
AcDbPolyline
 62
253
  6
CONTINUOUS
 90
4
 70
0
 10
-35.703140318
 20
20.4866238399
 10
-36.1906893578
 20
20.5070091661
 10
-36.1931654212
 20
20.5071316672
 10
-36.1939911205
 20
20.5071863082
  0
CIRCLE
  5
370
100
AcDbEntity
  8
ASSI
100
AcDbCircle
 62
7
  6
CONTINUOUS
 10
-0.1708117431
 20
4.4447179834
 40
1.3
  0
CIRCLE
  5
371
100
AcDbEntity
  8
ASSI
100
AcDbCircle
 62
7
  6
CONTINUOUS
 10
-0.1708117431
 20
-4.5552820166
 40
1.3
  0
CIRCLE
  5
372
100
AcDbEntity
  8
DRAFT
100
AcDbCircle
 62
7
  6
CONTINUOUS
 10
-0.1708117431
 20
-4.5552820166
 40
1.225
  0
CIRCLE
  5
373
100
AcDbEntity
  8
DRAFT
100
AcDbCircle
 62
7
  6
CONTINUOUS
 10
-0.1708117431
 20
4.4447179834
 40
1.225
  0
CIRCLE
  5
374
100
AcDbEntity
  8
RACCORDO
100
AcDbCircle
 62
253
  6
CONTINUOUS
 10
-0.1708117431
 20
-4.5552820166
 40
1.2068524201
  0
CIRCLE
  5
375
100
AcDbEntity
  8
RACCORDO
100
AcDbCircle
 62
253
  6
CONTINUOUS
 10
-0.1708117431
 20
4.4447179834
 40
1.2068524201
  0
CIRCLE
  5
376
100
AcDbEntity
  8
RACCORDO
100
AcDbCircle
 62
253
  6
CONTINUOUS
 10
-0.1708117431
 20
-4.5552820166
 40
1.1180464865
  0
CIRCLE
  5
377
100
AcDbEntity
  8
RACCORDO
100
AcDbCircle
 62
253
  6
CONTINUOUS
 10
-0.1708117431
 20
4.4447179834
 40
1.1180464865
  0
ARC
  5
378
100
AcDbEntity
  8
ASSI
100
AcDbCircle
 62
7
  6
CONTINUOUS
 10
-34.6952601028
 20
-20.5560629365
 40
1.5
100
AcDbArc
 50
182.356166499
 51
267.000662446
  0
ARC
  5
379
100
AcDbEntity
  8
ASSI
100
AcDbCircle
 62
7
  6
CONTINUOUS
 10
-30.6169851483
 20
-17.9887736178
 40
0.3
100
AcDbArc
 50
335.0
 51
360.0
  0
ARC
  5
37A
100
AcDbEntity
  8
ASSI
100
AcDbCircle
 62
7
  6
CONTINUOUS
 10
-36.4168573284
 20
-0.4120131575
 40
0.2
100
AcDbArc
 50
90.5001462853
 51
180.0408961681
  0
ARC
  5
37B
100
AcDbEntity
  8
ASSI
100
AcDbCircle
 62
7
  6
CONTINUOUS
 10
-34.6952601028
 20
20.4454989032
 40
1.5
100
AcDbArc
 50
92.999337554
 51
177.643833501
  0
ARC
  5
37C
100
AcDbEntity
  8
ASSI
100
AcDbCircle
 62
7
  6
CONTINUOUS
 10
-30.6169851483
 20
17.8782095846
 40
0.3
100
AcDbArc
 50
0.0
 51
25.0
  0
ARC
  5
37D
100
AcDbEntity
  8
ASSI
100
AcDbCircle
 62
7
  6
CONTINUOUS
 10
-36.4168573284
 20
0.3014491242
 40
0.2
100
AcDbArc
 50
179.9591038319
 51
269.4998537147
  0
ARC
  5
37E
100
AcDbEntity
  8
ASSI
100
AcDbCircle
 62
7
  6
CONTINUOUS
 10
463.3830148517
 20
-0.0552820166
 40
500.0
100
AcDbArc
 50
177.6430523596
 51
179.9591052604
  0
ARC
  5
37F
100
AcDbEntity
  8
CURVE
100
AcDbCircle
 62
253
  6
CONTINUOUS
 10
463.3830148517
 20
-0.0552820166
 40
500.0
100
AcDbArc
 50
178.3421717549
 51
178.6764251721
  0
ARC
  5
380
100
AcDbEntity
  8
ASSI
100
AcDbCircle
 62
7
  6
CONTINUOUS
 10
463.3830148517
 20
-0.0552820166
 40
500.0
100
AcDbArc
 50
180.0408947396
 51
182.3569476404
  0
ELLIPSE
  5
381
100
AcDbEntity
  8
ASSI
100
AcDbEllipse
 62
7
  6
CONTINUOUS
 10
7.1137182031
 20
22.1298460883
 30
0.0
 11
0.2
 21
-0.0
 31
0.0
 40
0.0524077793
 41
-1.5707963268
 42
-0.5235987756
  0
ELLIPSE
  5
382
100
AcDbEntity
  8
ASSI
100
AcDbEllipse
 62
7
  6
CONTINUOUS
 10
3.7446583107
 20
22.1298460883
 30
0.0
 11
0.2
 21
-0.0
 31
0.0
 40
0.0524077793
 41
-2.617993878
 42
-1.5707963268
  0
ELLIPSE
  5
383
100
AcDbEntity
  8
ASSI
100
AcDbEllipse
 62
7
  6
CONTINUOUS
 10
-4.0862817969
 20
22.1298460883
 30
0.0
 11
0.2
 21
-0.0
 31
0.0
 40
0.0524077793
 41
-1.5707963268
 42
-0.5235987756
  0
ELLIPSE
  5
384
100
AcDbEntity
  8
ASSI
100
AcDbEllipse
 62
7
  6
CONTINUOUS
 10
-7.4553416893
 20
22.1298460883
 30
0.0
 11
0.2
 21
-0.0
 31
0.0
 40
0.0524077793
 41
-2.617993878
 42
-1.5707963268
  0
ELLIPSE
  5
385
100
AcDbEntity
  8
ASSI
100
AcDbEllipse
 62
7
  6
CONTINUOUS
 10
-11.1207812775
 20
0.244725599
 30
0.0
 11
0.1789222233
 21
0.0894542984
 31
0.0
 40
0.9998096356
 41
2.6780516535
 42
4.2486956813
  0
ELLIPSE
  5
386
100
AcDbEntity
  8
ASSI
100
AcDbEllipse
 62
7
  6
CONTINUOUS
 10
10.7791577913
 20
0.244725599
 30
0.0
 11
0.1789222233
 21
-0.0894542984
 31
0.0
 40
0.9998096356
 41
-1.1071030277
 42
0.4635410001
  0
ELLIPSE
  5
387
100
AcDbEntity
  8
ASSI
100
AcDbEllipse
 62
7
  6
CONTINUOUS
 10
-10.8075823692
 20
21.6577983095
 30
0.0
 11
0.498078285
 21
0.0448076117
 31
0.0
 40
0.9965957691
 41
1.4807720384
 42
3.0506549766
  0
ELLIPSE
  5
388
100
AcDbEntity
  8
ASSI
100
AcDbEllipse
 62
7
  6
CONTINUOUS
 10
10.465958883
 20
21.6577983095
 30
0.0
 11
0.498078285
 21
-0.0448076117
 31
0.0
 40
0.9965957691
 41
0.0909376769
 42
1.6608206152
  0
ELLIPSE
  5
389
100
AcDbEntity
  8
ASSI
100
AcDbEllipse
 62
7
  6
CONTINUOUS
 10
-7.4553416893
 20
-22.2404101216
 30
0.0
 11
0.2
 21
-0.0
 31
0.0
 40
0.0524077793
 41
1.5707963268
 42
2.617993878
  0
ELLIPSE
  5
38A
100
AcDbEntity
  8
ASSI
100
AcDbEllipse
 62
7
  6
CONTINUOUS
 10
-4.0862817969
 20
-22.2404101216
 30
0.0
 11
0.2
 21
0.0
 31
0.0
 40
0.0524077793
 41
0.5235987756
 42
1.5707963268
  0
ELLIPSE
  5
38B
100
AcDbEntity
  8
ASSI
100
AcDbEllipse
 62
7
  6
CONTINUOUS
 10
3.7446583107
 20
-22.2404101216
 30
0.0
 11
0.2
 21
-0.0
 31
0.0
 40
0.0524077793
 41
1.5707963268
 42
2.617993878
  0
ELLIPSE
  5
38C
100
AcDbEntity
  8
ASSI
100
AcDbEllipse
 62
7
  6
CONTINUOUS
 10
7.1137182031
 20
-22.2404101216
 30
0.0
 11
0.2
 21
0.0
 31
0.0
 40
0.0524077793
 41
0.5235987756
 42
1.5707963268
  0
ELLIPSE
  5
38D
100
AcDbEntity
  8
ASSI
100
AcDbEllipse
 62
7
  6
CONTINUOUS
 10
10.7791577913
 20
-0.3552896323
 30
0.0
 11
0.1789222233
 21
0.0894542984
 31
0.0
 40
0.9998096356
 41
-0.4635410001
 42
1.1071030277
  0
ELLIPSE
  5
38E
100
AcDbEntity
  8
ASSI
100
AcDbEllipse
 62
7
  6
CONTINUOUS
 10
-11.1207812775
 20
-0.3552896323
 30
0.0
 11
0.1789222233
 21
-0.0894542984
 31
0.0
 40
0.9998096356
 41
2.0344896259
 42
3.6051336537
  0
ELLIPSE
  5
38F
100
AcDbEntity
  8
ASSI
100
AcDbEllipse
 62
7
  6
CONTINUOUS
 10
10.465958883
 20
-21.7683623427
 30
0.0
 11
0.498078285
 21
0.0448076117
 31
0.0
 40
0.9965957691
 41
-1.6608206152
 42
-0.0909376769
  0
ELLIPSE
  5
390
100
AcDbEntity
  8
ASSI
100
AcDbEllipse
 62
7
  6
CONTINUOUS
 10
-10.8075823692
 20
-21.7683623427
 30
0.0
 11
0.498078285
 21
-0.0448076117
 31
0.0
 40
0.9965957691
 41
-3.0506549766
 42
-1.4807720384
  0
ELLIPSE
  5
391
100
AcDbEntity
  8
CURVE
100
AcDbEllipse
 62
253
  6
CONTINUOUS
 10
463.3830148517
 20
-0.0552820166
 30
0.0
 11
500.0
 21
0.0
 31
0.0
 40
1.0
 41
3.1126580923
 42
3.1184919149
  0
ENDSEC
  0
SECTION
  2
OBJECTS
  0
DICTIONARY
  5
C
100
AcDbDictionary
280
0
281
1
  3
ACAD_GROUP
350
D
  3
ACAD_MLINESTYLE
350
17
  3
ACAD_LAYOUT
350
1A
  3
ACAD_PLOTSETTINGS
350
19
  3
ACAD_PLOTSTYLENAME
350
E
  0
DICTIONARY
  5
D
102
{ACAD_REACTORS
330
C
102
}
100
AcDbDictionary
280
0
281
1
  0
ACDBDICTIONARYWDFLT
  5
E
102
{ACAD_REACTORS
330
C
102
}
100
AcDbDictionary
281
1
  3
Normal
350
F
100
AcDbDictionaryWithDefault
340
F
  0
DICTIONARY
  5
17
102
{ACAD_REACTORS
330
C
102
}
100
AcDbDictionary
280
0
281
1
  3
Standard
350
18
  0
DICTIONARY
  5
19
102
{ACAD_REACTORS
330
C
102
}
100
AcDbDictionary
281
1
  0
DICTIONARY
  5
1A
102
{ACAD_REACTORS
330
C
102
}
100
AcDbDictionary
281
1
  3
Model
350
392
  3
Layout1
350
393
  0
ACDBPLACEHOLDER
  5
F
102
{ACAD_REACTORS
330
E
102
}
  0
MLINESTYLE
  5
18
102
{ACAD_REACTORS
330
17
102
}
100
AcDbMlineStyle
  2
STANDARD
 70
0
  3

 62
256
 51
90.0
 52
90.0
 71
2
 49
0.5
 62
256
  6
BYLAYER
 49
-0.5
 62
256
  6
BYLAYER
  0
LAYOUT
  5
392
102
{ACAD_REACTORS
330
1A
102
}
100
AcDbPlotSettings
  1

  2
none_device
  4
ISO_A4_(297.00_x_210.00_MM)
  6

 40
0.0
 41
0.0
 42
0.0
 43
0.0
 44
297.0
 45
210.0
 46
0.0
 47
0.0
 48
0.0
 49
0.0
140
0.0
141
0.0
142
1.0
143
1.0
 70
1024
 72
1
 73
0
 74
0
  7

 75
0
147
1.0
148
0.0
149
0.0
100
AcDbLayout
  1
Model
 70
0
 71
0
 10
0.0
 20
0.0
 11
297.0
 21
210.0
 12
0.0
 22
0.0
 32
0.0
 14
0.0
 24
0.0
 34
0.0
 15
0.0
 25
0.0
 35
0.0
146
0.0
 13
0.0
 23
0.0
 33
0.0
 16
1.0
 26
0.0
 36
0.0
 17
0.0
 27
1.0
 37
0.0
 76
0
330
217
345
0
346
0
  0
LAYOUT
  5
393
102
{ACAD_REACTORS
330
1A
102
}
100
AcDbPlotSettings
  1

  2
none_device
  4
ISO_A4_(297.00_x_210.00_MM)
  6

 40
0.0
 41
0.0
 42
0.0
 43
0.0
 44
297.0
 45
210.0
 46
0.0
 47
0.0
 48
0.0
 49
0.0
140
0.0
141
0.0
142
1.0
143
1.0
 70
0
 72
1
 73
0
 74
0
  7

 75
0
147
1.0
148
0.0
149
0.0
100
AcDbLayout
  1
Layout1
 70
0
 71
1
 10
0.0
 20
0.0
 11
297.0
 21
210.0
 12
0.0
 22
0.0
 32
0.0
 14
0.0
 24
0.0
 34
0.0
 15
0.0
 25
0.0
 35
0.0
146
0.0
 13
0.0
 23
0.0
 33
0.0
 16
1.0
 26
0.0
 36
0.0
 17
0.0
 27
1.0
 37
0.0
 76
0
330
218
345
0
346
0
  0
ENDSEC
  0
EOF
