  0
SECTION
  2
HEADER
  9
$ACADVER
  1
AC1021
  9
$DWGCODEPAGE
  3
ANSI_1252
  9
$EXTMAX
 10
297.0
 20
210.0
 30
0.0
  9
$EXTMIN
 10
0.0
 20
0.0
 30
0.0
  9
$LIMMIN
 10
0.0
 20
0.0
  9
$LIMMAX
 10
297.0
 20
210.0
  9
$VIEWCTR
 10
148.5
 20
105.0
  9
$VIEWSIZE
 40
210.0
  9
$CLAYER
  8
0
  9
$LTSCALE
 40
16.335
  9
$CELTYPE
  6
BYLAYER
  9
$DIMSCALE
 40
1.0
  9
$DIMASZ
 40
3.0
  9
$DIMEXO
 40
0.5
  9
$DIMDLI
 40
11.286
  9
$DIMEXE
 40
1.5
  9
$DIMCEN
 40
2.673
  9
$DIMLFAC
 40
1.0
  9
$DIMBLK
  1
_FILLED
  9
$DIMALT
 70
0
  9
$DIMALTF
 40
25.4
  9
$DIMTXT
 40
3.0
  9
$DIMTOL
 70
1
  9
$DIMLIM
 70
0
  9
$DIMTFAC
 40
1.0
  9
$DIMTP
 40
0.01
  9
$DIMTM
 40
0.01
  9
$DIMGAP
 40
0.625
  9
$DIMDSEP
 70
44
  9
$AUNITS
 70
0
  9
$PDMODE
 70
3
  9
$PDSIZE
 40
3.0
  9
$HANDSEED
  5
37C
  9
$TILEMODE
 70
1
  9
$MEASUREMENT
 70
1
  9
$INSUNITS
 70
4
  0
ENDSEC
  0
SECTION
  2
CLASSES
  0
CLASS
  1
ACDBDICTIONARYWDFLT
  2
AcDbDictionaryWithDefault
  3
AutoCAD 2000
 90
0
 91
1
280
0
281
0
  0
CLASS
  1
ACDBPLACEHOLDER
  2
AcDbPlaceHolder
  3
AutoCAD 2000
 90
0
 91
1
280
0
281
0
  0
CLASS
  1
LAYOUT
  2
AcDbLayout
  3
AutoCAD 2000
 90
0
 91
0
280
0
281
0
  0
ENDSEC
  0
SECTION
  2
TABLES
  0
TABLE
  2
VPORT
  5
8
100
AcDbSymbolTable
 70
2
  0
VPORT
  5
1F4
100
AcDbSymbolTableRecord
100
AcDbViewportTableRecord
  2
*ACTIVE
 70
0
 10
0.0
 20
0.0
 11
1.0
 21
1.0
 12
148.5
 22
105.0
 13
0.0
 23
0.0
 14
1.0
 24
1.0
 15
0.0
 25
0.0
 16
0.0
 26
0.0
 36
1.0
 17
0.0
 27
0.0
 37
0.0
 40
210.0
 41
1.4142857143
 42
50.0
 43
0.0
 44
0.0
 50
0.0
 51
0.0
 71
0
 72
100
 73
1
 74
1
 75
0
 76
0
 77
0
 78
0
  0
ENDTAB
  0
TABLE
  2
LTYPE
  5
5
100
AcDbSymbolTable
 70
6
  0
LTYPE
  5
14
100
AcDbSymbolTableRecord
100
AcDbLinetypeTableRecord
  2
BYBLOCK
 70
0
  3

 72
65
 73
0
 40
0.0
  0
LTYPE
  5
15
100
AcDbSymbolTableRecord
100
AcDbLinetypeTableRecord
  2
BYLAYER
 70
0
  3

 72
65
 73
0
 40
0.0
  0
LTYPE
  5
16
100
AcDbSymbolTableRecord
100
AcDbLinetypeTableRecord
  2
CONTINUOUS
 70
64
  3
Solid line
 72
65
 73
0
 40
0.0
  0
LTYPE
  5
1F5
100
AcDbSymbolTableRecord
100
AcDbLinetypeTableRecord
  2
CENTER
 70
64
  3
____ _ ____ _ ____ _ ____ _ ____ _ ____ _ ____
 72
65
 73
4
 40
0.6
 49
0.375
 74
0
 49
-0.075
 74
0
 49
0.075
 74
0
 49
-0.075
 74
0
  0
LTYPE
  5
1F6
100
AcDbSymbolTableRecord
100
AcDbLinetypeTableRecord
  2
HIDDEN
 70
64
  3
- - - - - - - - - - - - - - - - - - - -
 72
65
 73
2
 40
0.2
 49
0.1
 74
0
 49
-0.1
 74
0
  0
LTYPE
  5
1F7
100
AcDbSymbolTableRecord
100
AcDbLinetypeTableRecord
  2
PHANTOM
 70
64
  3
_____ _ _ _____ _ _ _____ _ _ _____
 72
65
 73
6
 40
0.8
 49
0.45
 74
0
 49
-0.05
 74
0
 49
0.1
 74
0
 49
-0.05
 74
0
 49
0.1
 74
0
 49
-0.05
 74
0
  0
LTYPE
  5
1F8
100
AcDbSymbolTableRecord
100
AcDbLinetypeTableRecord
  2
DOT
 70
64
  3
. . . . . . . . . . . . . . . . . . . .
 72
65
 73
2
 40
0.2
 49
0.1
 74
0
 49
-0.1
 74
0
  0
LTYPE
  5
1F9
100
AcDbSymbolTableRecord
100
AcDbLinetypeTableRecord
  2
DASHED
 70
64
  3
- - - - - - - - - - - - - - - - - - - -
 72
65
 73
2
 40
0.2
 49
0.1
 74
0
 49
-0.1
 74
0
  0
ENDTAB
  0
TABLE
  2
LAYER
  5
2
100
AcDbSymbolTable
 70
36
  0
LAYER
  5
10
100
AcDbSymbolTableRecord
100
AcDbLayerTableRecord
  2
0
 70
0
 62
7
  6
CONTINUOUS
370
-3
390
F
  0
LAYER
  5
1FA
100
AcDbSymbolTableRecord
100
AcDbLayerTableRecord
  2
DEFAULT_1
 70
0
 62
7
  6
CENTER
370
-3
390
F
  0
LAYER
  5
1FB
100
AcDbSymbolTableRecord
100
AcDbLayerTableRecord
  2
DEFAULT_2
 70
0
 62
7
  6
HIDDEN
370
-3
390
F
  0
LAYER
  5
1FC
100
AcDbSymbolTableRecord
100
AcDbLayerTableRecord
  2
DEFAULT_3
 70
0
 62
7
  6
PHANTOM
370
-3
390
F
  0
LAYER
  5
1FD
100
AcDbSymbolTableRecord
100
AcDbLayerTableRecord
  2
ASSI
 70
0
 62
7
  6
CONTINUOUS
370
-3
390
F
  0
LAYER
  5
1FE
100
AcDbSymbolTableRecord
100
AcDbLayerTableRecord
  2
COORDINATE
 70
0
 62
7
  6
CONTINUOUS
370
-3
390
F
  0
LAYER
  5
1FF
100
AcDbSymbolTableRecord
100
AcDbLayerTableRecord
  2
COORD_ORIGINE
 70
0
 62
7
  6
CONTINUOUS
370
-3
390
F
  0
LAYER
  5
200
100
AcDbSymbolTableRecord
100
AcDbLayerTableRecord
  2
COPY_PUBLISH
 70
0
 62
7
  6
CONTINUOUS
370
-3
390
F
  0
LAYER
  5
201
100
AcDbSymbolTableRecord
100
AcDbLayerTableRecord
  2
COSMETIC
 70
0
 62
7
  6
CONTINUOUS
370
-3
390
F
  0
LAYER
  5
202
100
AcDbSymbolTableRecord
100
AcDbLayerTableRecord
  2
COSMETICI
 70
0
 62
7
  6
CONTINUOUS
370
-3
390
F
  0
LAYER
  5
203
100
AcDbSymbolTableRecord
100
AcDbLayerTableRecord
  2
CURVE
 70
0
 62
7
  6
CONTINUOUS
370
-3
390
F
  0
LAYER
  5
204
100
AcDbSymbolTableRecord
100
AcDbLayerTableRecord
  2
DRAFT
 70
0
 62
7
  6
CONTINUOUS
370
-3
390
F
  0
LAYER
  5
205
100
AcDbSymbolTableRecord
100
AcDbLayerTableRecord
  2
IGES
 70
0
 62
7
  6
CONTINUOUS
370
-3
390
F
  0
LAYER
  5
206
100
AcDbSymbolTableRecord
100
AcDbLayerTableRecord
  2
IMPORT_IGES
 70
0
 62
7
  6
CONTINUOUS
370
-3
390
F
  0
LAYER
  5
207
100
AcDbSymbolTableRecord
100
AcDbLayerTableRecord
  2
LIVELLO_1
 70
0
 62
7
  6
CONTINUOUS
370
-3
390
F
  0
LAYER
  5
208
100
AcDbSymbolTableRecord
100
AcDbLayerTableRecord
  2
NOTE
 70
0
 62
7
  6
CONTINUOUS
370
-3
390
F
  0
LAYER
  5
209
100
AcDbSymbolTableRecord
100
AcDbLayerTableRecord
  2
PIANI
 70
0
 62
7
  6
CONTINUOUS
370
-3
390
F
  0
LAYER
  5
20A
100
AcDbSymbolTableRecord
100
AcDbLayerTableRecord
  2
PIANI_ORIGINE
 70
0
 62
7
  6
CONTINUOUS
370
-3
390
F
  0
LAYER
  5
20B
100
AcDbSymbolTableRecord
100
AcDbLayerTableRecord
  2
PIANI_RIFERIMENTO
 70
0
 62
7
  6
CONTINUOUS
370
-3
390
F
  0
LAYER
  5
20C
100
AcDbSymbolTableRecord
100
AcDbLayerTableRecord
  2
PUNTI
 70
0
 62
7
  6
CONTINUOUS
370
-3
390
F
  0
LAYER
  5
20D
100
AcDbSymbolTableRecord
100
AcDbLayerTableRecord
  2
RACCORDO
 70
0
 62
7
  6
CONTINUOUS
370
-3
390
F
  0
LAYER
  5
20E
100
AcDbSymbolTableRecord
100
AcDbLayerTableRecord
  2
SIMBOLI
 70
0
 62
7
  6
CONTINUOUS
370
-3
390
F
  0
LAYER
  5
20F
100
AcDbSymbolTableRecord
100
AcDbLayerTableRecord
  2
SMUSSO
 70
0
 62
7
  6
CONTINUOUS
370
-3
390
F
  0
LAYER
  5
210
100
AcDbSymbolTableRecord
100
AcDbLayerTableRecord
  2
SNAPLINE
 70
0
 62
7
  6
CONTINUOUS
370
-3
390
F
  0
LAYER
  5
211
100
AcDbSymbolTableRecord
100
AcDbLayerTableRecord
  2
SUPERFICI
 70
0
 62
7
  6
CONTINUOUS
370
-3
390
F
  0
LAYER
  5
212
100
AcDbSymbolTableRecord
100
AcDbLayerTableRecord
  2
TRASH
 70
0
 62
7
  6
CONTINUOUS
370
-3
390
F
  0
LAYER
  5
213
100
AcDbSymbolTableRecord
100
AcDbLayerTableRecord
  2
WHITE
 70
0
 62
7
  6
CONTINUOUS
370
-3
390
F
  0
LAYER
  5
214
100
AcDbSymbolTableRecord
100
AcDbLayerTableRecord
  2
XSEC_DATUMS
 70
0
 62
7
  6
CONTINUOUS
370
-3
390
F
  0
ENDTAB
  0
TABLE
  2
STYLE
  5
3
100
AcDbSymbolTable
 70
1
  0
STYLE
  5
11
100
AcDbSymbolTableRecord
100
AcDbTextStyleTableRecord
  2
STANDARD
 70
0
 40
0.0
 41
0.8
 50
0.0
 71
0
 42
0.2
  3
txt
  4

  0
STYLE
  5
215
100
AcDbSymbolTableRecord
100
AcDbTextStyleTableRecord
  2
TEXTSTYLE_1
 70
0
 40
0.0
 41
0.8
 50
0.0
 71
0
 42
0.2
  3
gdt
  4

  0
ENDTAB
  0
TABLE
  2
VIEW
  5
6
100
AcDbSymbolTable
 70
0
  0
ENDTAB
  0
TABLE
  2
UCS
  5
7
100
AcDbSymbolTable
 70
0
  0
ENDTAB
  0
TABLE
  2
APPID
  5
9
100
AcDbSymbolTable
 70
1
  0
APPID
  5
216
100
AcDbSymbolTableRecord
100
AcDbRegAppTableRecord
  2
ACAD
 70
0
  0
ENDTAB
  0
TABLE
  2
BLOCK_RECORD
  5
1
100
AcDbSymbolTable
 70
0
  0
BLOCK_RECORD
  5
217
100
AcDbSymbolTableRecord
100
AcDbBlockTableRecord
  2
*Model_Space
  0
BLOCK_RECORD
  5
218
100
AcDbSymbolTableRecord
100
AcDbBlockTableRecord
  2
*Paper_Space
  0
BLOCK_RECORD
  5
219
100
AcDbSymbolTableRecord
100
AcDbBlockTableRecord
  2
_FILLED
  0
BLOCK_RECORD
  5
21A
100
AcDbSymbolTableRecord
100
AcDbBlockTableRecord
  2
*D0
  0
BLOCK_RECORD
  5
21B
100
AcDbSymbolTableRecord
100
AcDbBlockTableRecord
  2
*D1
  0
BLOCK_RECORD
  5
21C
100
AcDbSymbolTableRecord
100
AcDbBlockTableRecord
  2
*D2
  0
ENDTAB
  0
TABLE
  2
DIMSTYLE
  5
A
100
AcDbSymbolTable
 70
1
100
AcDbDimStyleTable
 71
0
  0
DIMSTYLE
105
21D
100
AcDbSymbolTableRecord
100
AcDbDimStyleTableRecord
  2
STANDARD
 70
0
  3

  4

 40
1.0
 41
3.0
 42
0.5
 43
0.38
 44
1.5
 45
0.0
 46
0.0
 47
0.01
 48
0.01
140
3.0
141
0.09
142
0.0
143
25.4
144
1.0
145
0.0
146
1.0
147
0.625
 71
1.0
 72
0.0
 73
0
 74
0
 75
0
 76
0
 77
1
 78
8
170
0
171
1
172
0
173
0
174
0
175
0
176
0
177
0
178
0
270
2
271
2
272
2
273
2
274
2
275
0
280
0
281
0
282
0
283
1
284
8
285
0
286
0
287
3
288
0
340
11
278
44
341
219
342
219
343
219
344
219
  0
DIMSTYLE
105
21E
100
AcDbSymbolTableRecord
100
AcDbDimStyleTableRecord
  2
DIMSTYLE_1
 70
0
  3

  4

 40
1.0
 41
3.0
 42
0.5
 43
0.38
 44
1.5
 45
0.0
 46
0.0
 47
0.0
 48
0.0
140
3.0
141
0.09
142
0.0
143
25.4
144
1.0
145
0.0
146
1.0
147
0.75
 71
0.0
 72
0.0
 73
0
 74
0
 75
0
 76
0
 77
1
 78
8
170
0
171
1
172
0
173
0
174
0
175
0
176
0
177
0
178
0
270
2
271
2
272
2
273
2
274
2
275
0
280
0
281
0
282
0
283
1
284
8
285
0
286
0
287
3
288
0
340
11
278
44
341
219
342
219
343
219
344
219
  0
DIMSTYLE
105
21F
100
AcDbSymbolTableRecord
100
AcDbDimStyleTableRecord
  2
DIMSTYLE_2
 70
0
  3

  4

 40
1.0
 41
3.0
 42
0.5
 43
0.38
 44
1.5
 45
0.0
 46
0.0
 47
0.0
 48
0.0
140
3.0
141
0.09
142
0.0
143
25.4
144
1.0
145
0.0
146
1.0
147
0.75
 71
0.0
 72
0.0
 73
0
 74
0
 75
0
 76
0
 77
1
 78
8
170
0
171
1
172
0
173
0
174
0
175
0
176
0
177
0
178
0
270
2
271
1
272
1
273
2
274
2
275
0
280
0
281
0
282
0
283
1
284
8
285
0
286
0
287
3
288
0
340
11
278
44
341
219
342
219
343
219
344
219
  0
ENDTAB
  0
ENDSEC
  0
SECTION
  2
BLOCKS
  0
BLOCK
  5
20
100
AcDbEntity
  8
0
100
AcDbBlockBegin
  2
*Model_Space
 70
0
 10
0.0
 20
0.0
 30
0.0
  3
*Model_Space
  1

  0
ENDBLK
  5
21
100
AcDbEntity
  8
0
100
AcDbBlockEnd
  0
BLOCK
  5
1C
100
AcDbEntity
  8
0
100
AcDbBlockBegin
  2
*Paper_Space
 70
0
 10
0.0
 20
0.0
 30
0.0
  3
*Paper_Space
  1

  0
ENDBLK
  5
1D
100
AcDbEntity
  8
0
100
AcDbBlockEnd
  0
BLOCK
  5
220
100
AcDbEntity
  8
0
100
AcDbBlockBegin
  2
_FILLED
 70
64
 10
0.0
 20
0.0
  3
_FILLED
  1

  0
SOLID
  5
221
100
AcDbEntity
  8
0
  6
BYBLOCK
 62
0
100
AcDbTrace
 10
0.0
 20
0.0
 11
-1.0
 21
0.3166666667
 12
-1.0
 22
-0.3166666667
 13
-1.0
 23
-0.3166666667
  0
ENDBLK
  5
222
100
AcDbEntity
  8
0
  6
BYBLOCK
 62
0
100
AcDbBlockEnd
  0
BLOCK
  5
223
100
AcDbEntity
  8
0
100
AcDbBlockBegin
 62
7
  6
CONTINUOUS
  2
*D0
 70
65
 10
0.0
 20
0.0
  3
*D0
  1

  0
MTEXT
  5
224
100
AcDbEntity
  8
0
100
AcDbMText
 62
7
  6
CONTINUOUS
  7
STANDARD
 71
2
 72
1
 10
-0.0131298441
 20
33.8981830831
 30
0.0
 11
1.0
 21
0.0
 31
0.0
 44
0.9
  1
22,3
 40
3.0
 41
12.8571428571
  0
LINE
  5
225
100
AcDbEntity
  8
0
100
AcDbLine
 62
7
  6
CONTINUOUS
 10
-11.1631298441
 20
13.5367017955
 11
-11.1631298441
 21
31.6481830831
  0
LINE
  5
226
100
AcDbEntity
  8
0
100
AcDbLine
 62
7
  6
CONTINUOUS
 10
11.1368701559
 20
13.5367017955
 11
11.1368701559
 21
31.6481830831
  0
LINE
  5
227
100
AcDbEntity
  8
0
100
AcDbLine
 62
7
  6
CONTINUOUS
 10
-11.1631298441
 20
30.1481830831
 11
-0.0131298441
 21
30.1481830831
  0
LINE
  5
228
100
AcDbEntity
  8
0
100
AcDbLine
 62
7
  6
CONTINUOUS
 10
11.1368701559
 20
30.1481830831
 11
-0.0131298441
 21
30.1481830831
  0
INSERT
  5
229
100
AcDbEntity
  8
0
100
AcDbBlockReference
 62
7
  6
CONTINUOUS
  2
_FILLED
 10
-11.1631298441
 20
30.1481830831
 41
3.0
 42
3.0
 43
3.0
 50
180.0
  0
INSERT
  5
22A
100
AcDbEntity
  8
0
100
AcDbBlockReference
 62
7
  6
CONTINUOUS
  2
_FILLED
 10
11.1368701559
 20
30.1481830831
 41
3.0
 42
3.0
 43
3.0
  0
ENDBLK
  5
22B
100
AcDbEntity
  8
0
  6
BYBLOCK
 62
0
100
AcDbBlockEnd
  0
BLOCK
  5
22C
100
AcDbEntity
  8
0
100
AcDbBlockBegin
 62
7
  6
CONTINUOUS
  2
*D1
 70
65
 10
0.0
 20
0.0
  3
*D1
  1

  0
MTEXT
  5
22D
100
AcDbEntity
  8
0
100
AcDbMText
 62
7
  6
CONTINUOUS
  7
STANDARD
 71
2
 72
1
 10
15.3868701559
 20
-0.0632982045
 30
0.0
 11
0.0
 21
1.0
 31
0.0
 44
0.9
  1
44,4
 40
3.0
 41
13.1785714286
  0
LINE
  5
22E
100
AcDbEntity
  8
0
100
AcDbLine
 62
7
  6
CONTINUOUS
 10
11.1233364275
 20
22.1481830831
 11
20.6368701559
 21
22.1481830831
  0
LINE
  5
22F
100
AcDbEntity
  8
0
100
AcDbLine
 62
7
  6
CONTINUOUS
 10
11.1233364275
 20
-22.274779492
 11
20.6368701559
 21
-22.274779492
  0
LINE
  5
230
100
AcDbEntity
  8
0
100
AcDbLine
 62
7
  6
CONTINUOUS
 10
19.1368701559
 20
22.1481830831
 11
19.1368701559
 21
-0.0632982045
  0
LINE
  5
231
100
AcDbEntity
  8
0
100
AcDbLine
 62
7
  6
CONTINUOUS
 10
19.1368701559
 20
-22.274779492
 11
19.1368701559
 21
-0.0632982045
  0
INSERT
  5
232
100
AcDbEntity
  8
0
100
AcDbBlockReference
 62
7
  6
CONTINUOUS
  2
_FILLED
 10
19.1368701559
 20
22.1481830831
 41
3.0
 42
3.0
 43
3.0
 50
90.0
  0
INSERT
  5
233
100
AcDbEntity
  8
0
100
AcDbBlockReference
 62
7
  6
CONTINUOUS
  2
_FILLED
 10
19.1368701559
 20
-22.274779492
 41
3.0
 42
3.0
 43
3.0
 50
270.0
  0
ENDBLK
  5
234
100
AcDbEntity
  8
0
  6
BYBLOCK
 62
0
100
AcDbBlockEnd
  0
BLOCK
  5
235
100
AcDbEntity
  8
0
100
AcDbBlockBegin
 62
7
  6
CONTINUOUS
  2
*D2
 70
65
 10
0.0
 20
0.0
  3
*D2
  1

  0
MTEXT
  5
236
100
AcDbEntity
  8
0
100
AcDbMText
 62
7
  6
CONTINUOUS
  7
STANDARD
 71
1
 72
1
 10
-26.3412370965
 20
33.8981830831
 30
0.0
 11
1.0
 21
0.0
 31
0.0
 44
0.9
  1
6,7
 40
3.0
 41
9.6428571429
  0
LINE
  5
237
100
AcDbEntity
  8
0
100
AcDbLine
 62
7
  6
CONTINUOUS
 10
-32.4021736733
 20
13.5367017955
 11
-32.4021736733
 21
31.6481830831
  0
LINE
  5
238
100
AcDbEntity
  8
0
100
AcDbLine
 62
7
  6
CONTINUOUS
 10
-39.1020463115
 20
0.7935756984
 11
-39.1020463115
 21
31.6481830831
  0
LINE
  5
239
100
AcDbEntity
  8
0
100
AcDbLine
 62
7
  6
CONTINUOUS
 10
-32.4021736733
 20
30.1481830831
 11
-19.9126656679
 21
30.1481830831
  0
LINE
  5
23A
100
AcDbEntity
  8
0
100
AcDbLine
 62
7
  6
CONTINUOUS
 10
-19.9126656679
 20
30.1481830831
 11
-35.7521099924
 21
30.1481830831
  0
LINE
  5
23B
100
AcDbEntity
  8
0
100
AcDbLine
 62
7
  6
CONTINUOUS
 10
-39.1020463115
 20
30.1481830831
 11
-43.1020463115
 21
30.1481830831
  0
LINE
  5
23C
100
AcDbEntity
  8
0
100
AcDbLine
 62
7
  6
CONTINUOUS
 10
-43.1020463115
 20
30.1481830831
 11
-35.7521099924
 21
30.1481830831
  0
INSERT
  5
23D
100
AcDbEntity
  8
0
100
AcDbBlockReference
 62
7
  6
CONTINUOUS
  2
_FILLED
 10
-32.4021736733
 20
30.1481830831
 41
3.0
 42
3.0
 43
3.0
 50
180.0
  0
INSERT
  5
23E
100
AcDbEntity
  8
0
100
AcDbBlockReference
 62
7
  6
CONTINUOUS
  2
_FILLED
 10
-39.1020463115
 20
30.1481830831
 41
3.0
 42
3.0
 43
3.0
  0
ENDBLK
  5
23F
100
AcDbEntity
  8
0
  6
BYBLOCK
 62
0
100
AcDbBlockEnd
  0
ENDSEC
  0
SECTION
  2
ENTITIES
  0
DIMENSION
  5
240
100
AcDbEntity
  8
0
100
AcDbDimension
 62
7
  6
CONTINUOUS
  2
*D0
 10
11.1368701559
 20
30.1481830831
 11
-0.4417011681
 21
30.1481830831
 70
160
 71
2
 42
22.3
  3
DIMSTYLE_1
100
AcDbAlignedDimension
 13
-11.1631298441
 23
13.0367017955
 14
11.1368701559
 24
13.0367017955
100
AcDbRotatedDimension
  0
DIMENSION
  5
241
100
AcDbEntity
  8
0
100
AcDbDimension
 62
7
  6
CONTINUOUS
  2
*D1
 10
19.1368701559
 20
-22.274779492
 11
19.1368701559
 21
-0.4918698559
 70
160
 71
2
 42
44.4229625751
  3
DIMSTYLE_2
100
AcDbAlignedDimension
 13
10.6233364275
 23
22.1481830831
 14
10.6233364275
 24
-22.274779492
 50
270.0
100
AcDbRotatedDimension
  0
DIMENSION
  5
242
100
AcDbEntity
  8
0
100
AcDbDimension
 62
7
  6
CONTINUOUS
  2
*D2
 10
-39.1020463115
 20
30.1481830831
 11
-23.5555224609
 21
30.1481830831
 70
160
 71
1
 42
6.6998726383
  3
DIMSTYLE_1
100
AcDbAlignedDimension
 13
-32.4021736733
 23
13.0367017955
 14
-39.1020463115
 24
0.2935756984
 50
180.0
100
AcDbRotatedDimension
  0
LWPOLYLINE
  5
243
100
AcDbEntity
  8
ASSI
100
AcDbPolyline
 62
253
  6
CONTINUOUS
 90
15
 70
0
 10
-11.06213213
 20
20.478607652
 10
-11.0608036571
 20
20.4797901739
 10
-11.0578253377
 20
20.4809687828
 10
-11.053207027
 20
20.4821395788
 10
-11.0469640069
 20
20.4832986875
 10
-11.0391169355
 20
20.4844422736
 10
-11.0296917786
 20
20.485566553
 10
-11.0187197241
 20
20.4866678054
 10
-11.0062370782
 20
20.4877423868
 10
-10.9922851461
 20
20.4887867414
 10
-10.9769100943
 20
20.4897974134
 10
-10.9601627989
 20
20.4907710586
 10
-10.9420986764
 20
20.4917044552
 10
-10.9227775009
 20
20.4925945145
 10
-10.9022632058
 20
20.4934382914
  0
LINE
  5
244
100
AcDbEntity
  8
ASSI
100
AcDbLine
 62
7
  6
CONTINUOUS
 10
3.3810802816
 20
-22.274779492
 11
3.7291351289
 21
-22.2431855315
  0
LINE
  5
245
100
AcDbEntity
  8
ASSI
100
AcDbLine
 62
7
  6
CONTINUOUS
 10
-7.8189197184
 20
-22.274779492
 11
-7.4708648711
 21
-22.2431855315
  0
LINE
  5
246
100
AcDbEntity
  8
ASSI
100
AcDbLine
 62
7
  6
CONTINUOUS
 10
-10.6495961158
 20
-22.274779492
 11
-7.8189197184
 21
-22.274779492
  0
LINE
  5
247
100
AcDbEntity
  8
ASSI
100
AcDbLine
 62
7
  6
CONTINUOUS
 10
-3.4073399699
 20
-22.274779492
 11
3.3810802816
 21
-22.274779492
  0
LINE
  5
248
100
AcDbEntity
  8
ASSI
100
AcDbLine
 62
7
  6
CONTINUOUS
 10
7.7926600301
 20
-22.274779492
 11
10.6233364275
 21
-22.274779492
  0
LINE
  5
249
100
AcDbEntity
  8
ASSI
100
AcDbLine
 62
7
  6
CONTINUOUS
 10
-7.2976597903
 20
-22.2379447536
 11
-3.928599898
 21
-22.2379447536
  0
LINE
  5
24A
100
AcDbEntity
  8
ASSI
100
AcDbLine
 62
7
  6
CONTINUOUS
 10
3.9023402097
 20
-22.2379447536
 11
7.271400102
 21
-22.2379447536
  0
LINE
  5
24B
100
AcDbEntity
  8
ASSI
100
AcDbLine
 62
253
  6
CONTINUOUS
 10
10.5524756671
 20
-22.0620243341
 11
-10.5787353553
 21
-22.0620243342
  0
LINE
  5
24C
100
AcDbEntity
  8
ASSI
100
AcDbLine
 62
7
  6
CONTINUOUS
 10
-3.4073399699
 20
-22.274779492
 11
-3.7553948172
 21
-22.2431855315
  0
LINE
  5
24D
100
AcDbEntity
  8
ASSI
100
AcDbLine
 62
7
  6
CONTINUOUS
 10
7.7926600301
 20
-22.274779492
 11
7.4446051828
 21
-22.2431855315
  0
LWPOLYLINE
  5
24E
100
AcDbEntity
  8
ASSI
100
AcDbPolyline
 62
253
  6
CONTINUOUS
 90
17
 70
0
 10
-11.06213213
 20
-20.605204061
 10
-11.0608036756
 20
-20.6063865835
 10
-11.0578253732
 20
-20.607565193
 10
-11.0532070779
 20
-20.6087359896
 10
-11.0469640717
 20
-20.6098950991
 10
-11.0391170125
 20
-20.611038686
 10
-11.0296918664
 20
-20.6121629661
 10
-11.0187198208
 20
-20.6132642193
 10
-11.0062371824
 20
-20.6143388015
 10
-10.992285256
 20
-20.6153831568
 10
-10.9769102084
 20
-20.6163938297
 10
-10.9601629156
 20
-20.6173674757
 10
-10.9420987942
 20
-20.6183008731
 10
-10.9227776183
 20
-20.6191909332
 10
-10.9022633213
 20
-20.6200347108
 10
-10.8806237851
 20
-20.620829414
 10
-10.8342589013
 20
-20.6222612493
  0
LINE
  5
24F
100
AcDbEntity
  8
ASSI
100
AcDbLine
 62
253
  6
CONTINUOUS
 10
10.8760035175
 20
-20.6200347004
 11
10.8316708184
 21
-20.6215724011
  0
LINE
  5
250
100
AcDbEntity
  8
ASSI
100
AcDbLine
 62
253
  6
CONTINUOUS
 10
10.8316708184
 20
-20.6215724011
 11
10.7834271911
 21
-20.6228936303
  0
LINE
  5
251
100
AcDbEntity
  8
ASSI
100
AcDbLine
 62
253
  6
CONTINUOUS
 10
10.7834271911
 20
-20.6228936303
 11
10.7319106579
 21
-20.6239809145
  0
LINE
  5
252
100
AcDbEntity
  8
ASSI
100
AcDbLine
 62
253
  6
CONTINUOUS
 10
10.7319106579
 20
-20.6239809145
 11
10.6778025253
 21
-20.6248198745
  0
LINE
  5
253
100
AcDbEntity
  8
ASSI
100
AcDbLine
 62
253
  6
CONTINUOUS
 10
10.6778025253
 20
-20.6248198745
 11
10.6218183735
 21
-20.6253994151
  0
LINE
  5
254
100
AcDbEntity
  8
ASSI
100
AcDbLine
 62
253
  6
CONTINUOUS
 10
10.6218183735
 20
-20.6253994151
 11
10.5646985935
 21
-20.6257118718
  0
LINE
  5
255
100
AcDbEntity
  8
ASSI
100
AcDbLine
 62
253
  6
CONTINUOUS
 10
10.5646985935
 20
-20.6257118718
 11
-10.5622082579
 21
-20.6257460354
  0
LINE
  5
256
100
AcDbEntity
  8
ASSI
100
AcDbLine
 62
253
  6
CONTINUOUS
 10
-10.6196131722
 20
-20.6255893872
 11
-10.5622082824
 21
-20.6257665293
  0
LINE
  5
257
100
AcDbEntity
  8
ASSI
100
AcDbLine
 62
253
  6
CONTINUOUS
 10
-10.6762588814
 20
-20.6251426488
 11
-10.6196131722
 21
-20.6255893872
  0
LINE
  5
258
100
AcDbEntity
  8
ASSI
100
AcDbLine
 62
253
  6
CONTINUOUS
 10
-10.7313962694
 20
-20.6244322223
 11
-10.6762588814
 21
-20.6251426488
  0
LINE
  5
259
100
AcDbEntity
  8
ASSI
100
AcDbLine
 62
253
  6
CONTINUOUS
 10
-10.7842961432
 20
-20.623467503
 11
-10.7313962694
 21
-20.6244322223
  0
LINE
  5
25A
100
AcDbEntity
  8
ASSI
100
AcDbLine
 62
253
  6
CONTINUOUS
 10
-10.8342589013
 20
-20.6222612493
 11
-10.7842961432
 21
-20.623467503
  0
LWPOLYLINE
  5
25B
100
AcDbEntity
  8
ASSI
100
AcDbPolyline
 62
253
  6
CONTINUOUS
 90
28
 70
0
 10
-11.0786589006
 20
-21.5627086591
 10
-11.0777875572
 20
-21.5917243708
 10
-11.0752295419
 20
-21.6206420174
 10
-11.0709934998
 20
-21.6493638646
 10
-11.0650937476
 20
-21.6777928397
 10
-11.0575502249
 20
-21.70583286
 10
-11.0483884268
 20
-21.7333891571
 10
-11.0376393176
 20
-21.7603685976
 10
-11.0253392266
 20
-21.7866799978
 10
-11.0115297249
 20
-21.8122344316
 10
-10.9962574849
 20
-21.8369455313
 10
-10.979574123
 20
-21.8607297796
 10
-10.9615360247
 20
-21.8835067915
 10
-10.942204154
 20
-21.9051995863
 10
-10.9216438479
 20
-21.9257348478
 10
-10.899924595
 20
-21.9450431715
 10
-10.8771198009
 20
-21.9630593003
 10
-10.85330654
 20
-21.9797223438
 10
-10.8285652954
 20
-21.9949759851
 10
-10.8029796861
 20
-22.0087686706
 10
-10.7766361852
 20
-22.0210537842
 10
-10.7496238273
 20
-22.0317898053
 10
-10.7220339074
 20
-22.0409404486
 10
-10.6939596725
 20
-22.0484747873
 10
-10.6654960068
 20
-22.054367357
 10
-10.6367391105
 20
-22.0585982423
 10
-10.6077861747
 20
-22.0611531438
 10
-10.578735053
 20
-22.0620234265
  0
LWPOLYLINE
  5
25C
100
AcDbEntity
  8
ASSI
100
AcDbPolyline
 62
253
  6
CONTINUOUS
 90
28
 70
0
 10
-11.0786589006
 20
21.4361122501
 10
-11.0777875567
 20
21.4651279711
 10
-11.0752295398
 20
21.4940456261
 10
-11.0709934953
 20
21.5227674808
 10
-11.0650937401
 20
21.5511964625
 10
-11.0575502137
 20
21.5792364882
 10
-11.0483884116
 20
21.6067927896
 10
-11.0376392982
 20
21.6337722334
 10
-11.025339203
 20
21.6600836358
 10
-11.011529697
 20
21.6856380707
 10
-10.9962574531
 20
21.7103491706
 10
-10.9795740877
 20
21.7341334181
 10
-10.9615359862
 20
21.7569104283
 10
-10.9422041131
 20
21.7786032208
 10
-10.9216438052
 20
21.7991384791
 10
-10.8999245512
 20
21.8184467993
 10
-10.8771197568
 20
21.8364629241
 10
-10.8533064965
 20
21.8531259635
 10
-10.8285652533
 20
21.8683796005
 10
-10.8029796462
 20
21.8821722817
 10
-10.7766361484
 20
21.8944573912
 10
-10.7496237942
 20
21.9051934084
 10
-10.7220338786
 20
21.9143440483
 10
-10.6939596488
 20
21.921878384
 10
-10.6654959886
 20
21.9277709513
 10
-10.6367390981
 20
21.9320018348
 10
-10.6077861683
 20
21.9345567352
 10
-10.578735053
 20
21.9354270175
  0
LWPOLYLINE
  5
25D
100
AcDbEntity
  8
CURVE
100
AcDbPolyline
 62
253
  6
CONTINUOUS
 90
79
 70
0
 10
-2.9184947285
 20
11.988546983
 10
-2.9217325554
 20
11.9864357956
 10
-2.9248243218
 20
11.9842754402
 10
-2.9278055774
 20
11.9820459693
 10
-2.9307118724
 20
11.9797274354
 10
-2.9345134156
 20
11.9764742169
 10
-2.9382190296
 20
11.973046997
 10
-2.9418028488
 20
11.9694655707
 10
-2.9443981178
 20
11.9666881224
 10
-2.9469167689
 20
11.9638308883
 10
-2.9493633803
 20
11.9608913291
 10
-2.9517350776
 20
11.9578734659
 10
-2.9547750765
 20
11.9537333218
 10
-2.9576769867
 20
11.9494516219
 10
-2.9604443221
 20
11.9450159529
 10
-2.9630779478
 20
11.9404165341
 10
-2.9655681314
 20
11.9356541158
 10
-2.9679024916
 20
11.9307320808
 10
-2.970068854
 20
11.9256565607
 10
-2.9720558721
 20
11.920444681
 10
-2.9738524069
 20
11.9151163157
 10
-2.9754486788
 20
11.9096932485
 10
-2.9768403474
 20
11.9042049014
 10
-2.9780244319
 20
11.898682606
 10
-2.9789989782
 20
11.8931485589
 10
-2.9797661391
 20
11.8875884167
 10
-2.9803290938
 20
11.881978701
 10
-2.9806899395
 20
11.8763028306
 10
-2.980846444
 20
11.8705718147
 10
-2.9807952934
 20
11.8648035597
 10
-2.9805331732
 20
11.8590159721
 10
-2.9800567695
 20
11.8532269585
 10
-2.9793627678
 20
11.8474544254
 10
-2.9784493261
 20
11.8417159374
 10
-2.9773204895
 20
11.8360276922
 10
-2.9759817754
 20
11.8304055456
 10
-2.9744387009
 20
11.8248653534
 10
-2.9726967834
 20
11.8194229713
 10
-2.9707615401
 20
11.8140942551
 10
-2.9686356905
 20
11.8088892866
 10
-2.9663107637
 20
11.8037950509
 10
-2.963775491
 20
11.7987927589
 10
-2.9617306962
 20
11.7950936403
 10
-2.9595653572
 20
11.7914491352
 10
-2.9572835879
 20
11.7878727075
 10
-2.9548895023
 20
11.784377821
 10
-2.9523877456
 20
11.7809771998
 10
-2.9497850871
 20
11.7776806084
 10
-2.9470888275
 20
11.7744970714
 10
-2.9443062675
 20
11.7714356134
 10
-2.9414443205
 20
11.768503115
 10
-2.9385083519
 20
11.7656978805
 10
-2.9355033397
 20
11.7630160704
 10
-2.9324342622
 20
11.760453845
 10
-2.9282482906
 20
11.7572159165
 10
-2.9239521829
 20
11.7541685836
 10
-2.9195408466
 20
11.7512966727
 10
-2.9150130236
 20
11.7485876459
 10
-2.9103827922
 20
11.7460395075
 10
-2.9056680646
 20
11.7436528972
 10
-2.900885396
 20
11.7414282946
 10
-2.8960459117
 20
11.7393655378
 10
-2.8911593796
 20
11.7374643046
 10
-2.8862355677
 20
11.7357242729
 10
-2.8812842439
 20
11.7341451205
 10
-2.8763151762
 20
11.7327265252
 10
-2.8713356063
 20
11.7314688788
 10
-2.8663426713
 20
11.7303754287
 10
-2.8613309824
 20
11.7294501363
 10
-2.8562960707
 20
11.7286976804
 10
-2.8512371489
 20
11.7281256095
 10
-2.8461543501
 20
11.7277421896
 10
-2.8410520333
 20
11.7275550508
 10
-2.8359514624
 20
11.7275692801
 10
-2.8308781275
 20
11.7277893286
 10
-2.827099827
 20
11.728093531
 10
-2.8233228982
 20
11.7285264065
 10
-2.8195190544
 20
11.7290983511
 10
-2.8156600089
 20
11.7298197609
  0
LINE
  5
25E
100
AcDbEntity
  8
CURVE
100
AcDbLine
 62
253
  6
CONTINUOUS
 10
-2.5121792663
 20
-12.1354986698
 11
2.4638569956
 21
-12.1354986698
  0
LINE
  5
25F
100
AcDbEntity
  8
CURVE
100
AcDbLine
 62
253
  6
CONTINUOUS
 10
2.7894003207
 20
-11.8564161699
 11
-2.8383245638
 21
-11.8564161699
  0
LWPOLYLINE
  5
260
100
AcDbEntity
  8
CURVE
100
AcDbPolyline
 62
253
  6
CONTINUOUS
 90
78
 70
0
 10
-2.8383245638
 20
-11.8564161699
 10
-2.8421190346
 20
-11.8557093773
 10
-2.8458387679
 20
-11.8551392317
 10
-2.8495248619
 20
-11.8546953407
 10
-2.8532184147
 20
-11.8543673119
 10
-2.8582039829
 20
-11.8540969754
 10
-2.863242463
 20
-11.8540181094
 10
-2.8683004438
 20
-11.8541346824
 10
-2.8720902826
 20
-11.8543522512
 10
-2.8758801311
 20
-11.8546806308
 10
-2.8796752789
 20
-11.8551185798
 10
-2.8834708364
 20
-11.8556653142
 10
-2.8885241383
 20
-11.8565637795
 10
-2.8935759552
 20
-11.8576613924
 10
-2.8986372907
 20
-11.8589650944
 10
-2.9037153378
 20
-11.8604817927
 10
-2.9088020476
 20
-11.8622182582
 10
-2.9138855607
 20
-11.8641812276
 10
-2.9189523461
 20
-11.8663752062
 10
-2.9239821862
 20
-11.8687957727
 10
-2.9289531917
 20
-11.8714362745
 10
-2.9338431772
 20
-11.8742876485
 10
-2.9386287713
 20
-11.8773311894
 10
-2.9432863066
 20
-11.8805457814
 10
-2.9477992559
 20
-11.8839164494
 10
-2.9521796526
 20
-11.8874527821
 10
-2.9564466709
 20
-11.8911705088
 10
-2.9606137575
 20
-11.8950808189
 10
-2.9646714507
 20
-11.8991767422
 10
-2.9686045616
 20
-11.9034467685
 10
-2.9723979015
 20
-11.9078793876
 10
-2.9760362816
 20
-11.9124630894
 10
-2.979504513
 20
-11.9171863637
 10
-2.9827888151
 20
-11.9220369756
 10
-2.9858810398
 20
-11.9269997917
 10
-2.988774447
 20
-11.9320589538
 10
-2.9914622969
 20
-11.9371986037
 10
-2.9939378493
 20
-11.9424028833
 10
-2.9961943644
 20
-11.9476559342
 10
-2.9982268895
 20
-11.9529483582
 10
-3.0000376208
 20
-11.9582965951
 10
-3.0016305419
 20
-11.9637235448
 10
-3.0026832747
 20
-11.9678553397
 10
-3.0036089114
 20
-11.9720308624
 10
-3.0044006333
 20
-11.9762366838
 10
-3.0050516219
 20
-11.9804593748
 10
-3.0055560416
 20
-11.9846856917
 10
-3.0059119898
 20
-11.9889031324
 10
-3.006118547
 20
-11.9930993803
 10
-3.0061747935
 20
-11.9972621189
 10
-3.0060811692
 20
-12.0013809114
 10
-3.0058435511
 20
-12.0054528413
 10
-3.0054691755
 20
-12.0094768715
 10
-3.0049652786
 20
-12.0134519655
 10
-3.004102858
 20
-12.0186773026
 10
-3.0030306685
 20
-12.0238301032
 10
-3.0017563365
 20
-12.0289266719
 10
-3.0002884156
 20
-12.0339787576
 10
-2.9986391679
 20
-12.0389798862
 10
-2.9968217825
 20
-12.0439190282
 10
-2.9944357459
 20
-12.049750118
 10
-2.9918385583
 20
-12.0554658354
 10
-2.989042195
 20
-12.0610559515
 10
-2.986058631
 20
-12.0665102375
 10
-2.9828998415
 20
-12.0718184646
 10
-2.9801399999
 20
-12.0761239271
 10
-2.9772598981
 20
-12.0803202909
 10
-2.9742526441
 20
-12.0844069901
 10
-2.9711115012
 20
-12.0883824999
 10
-2.9678303518
 20
-12.092241458
 10
-2.9644032334
 20
-12.0959775429
 10
-2.9608276868
 20
-12.0995819837
 10
-2.9571152662
 20
-12.1030362119
 10
-2.9532810291
 20
-12.1063192094
 10
-2.9503288663
 20
-12.1086597681
 10
-2.9472893983
 20
-12.1109032657
 10
-2.9441353718
 20
-12.1130607808
 10
-2.9408395332
 20
-12.115143392
  0
LWPOLYLINE
  5
261
100
AcDbEntity
  8
ASSI
100
AcDbPolyline
 62
253
  6
CONTINUOUS
 90
9
 70
0
 10
-11.0730872888
 20
21.3658975816
 10
-11.0737584207
 20
21.3803750628
 10
-11.0744381739
 20
21.3932446034
 10
-11.0751265999
 20
21.404497918
 10
-11.0758236472
 20
21.4141432919
 10
-11.0765257569
 20
21.4221322587
 10
-11.0772317425
 20
21.4284486629
 10
-11.0779427904
 20
21.4331086601
 10
-11.0786589006
 20
21.4361122501
  0
LWPOLYLINE
  5
262
100
AcDbEntity
  8
ASSI
100
AcDbPolyline
 62
253
  6
CONTINUOUS
 90
22
 70
0
 10
-11.0547583167
 20
0.2908605872
 10
-11.0541969923
 20
0.2759165603
 10
-11.052520709
 20
0.2610560919
 10
-11.0497388399
 20
0.2463622719
 10
-11.0458669396
 20
0.2319172581
 10
-11.0409266576
 20
0.2178018176
 10
-11.0349456172
 20
0.2040948751
 10
-11.0279572609
 20
0.1908730706
 10
-11.0200006634
 20
0.1782103313
 10
-11.0111203133
 20
0.166177459
 10
-11.0013658643
 20
0.1548417331
 10
-10.990791857
 20
0.1442665349
 10
-10.9794574151
 20
0.1345109936
 10
-10.9674259134
 20
0.1256296551
 10
-10.9547646245
 20
0.1176721771
 10
-10.9415443423
 20
0.1106830519
 10
-10.9278389859
 20
0.1047013572
 10
-10.9137251865
 20
0.0997605378
 10
-10.8992818593
 20
0.0958882185
 10
-10.8845897614
 20
0.0931060499
 10
-10.869731041
 20
0.091429587
 10
-10.8547887777
 20
0.0908682026
  0
LINE
  5
263
100
AcDbEntity
  8
ASSI
100
AcDbLine
 62
253
  6
CONTINUOUS
 10
-11.0717811739
 20
21.3323311859
 11
-11.0730872888
 21
21.3658975816
  0
LINE
  5
264
100
AcDbEntity
  8
ASSI
100
AcDbLine
 62
253
  6
CONTINUOUS
 10
-10.5731632807
 20
21.8301178775
 11
-10.5745141395
 21
21.8711196236
  0
LINE
  5
265
100
AcDbEntity
  8
ASSI
100
AcDbLine
 62
253
  6
CONTINUOUS
 10
-11.0705264248
 20
21.2927147997
 11
-11.0717811739
 21
21.3323311859
  0
LINE
  5
266
100
AcDbEntity
  8
ASSI
100
AcDbLine
 62
253
  6
CONTINUOUS
 10
-11.069332695
 20
21.2473297504
 11
-11.0705264248
 21
21.2927147997
  0
LINE
  5
267
100
AcDbEntity
  8
ASSI
100
AcDbLine
 62
253
  6
CONTINUOUS
 10
-10.5718572038
 20
21.7797402051
 11
-10.5731632807
 21
21.8301178775
  0
LINE
  5
268
100
AcDbEntity
  8
ASSI
100
AcDbLine
 62
253
  6
CONTINUOUS
 10
-11.067674189
 20
21.1691555634
 11
-11.069332695
 21
21.2473297504
  0
LINE
  5
269
100
AcDbEntity
  8
ASSI
100
AcDbLine
 62
253
  6
CONTINUOUS
 10
-10.5699980633
 20
21.6873544476
 11
-10.5718572038
 21
21.7797402051
  0
LINE
  5
26A
100
AcDbEntity
  8
ASSI
100
AcDbLine
 62
253
  6
CONTINUOUS
 10
-11.0657471998
 20
21.0479430749
 11
-11.067674189
 21
21.1691555634
  0
LINE
  5
26B
100
AcDbEntity
  8
ASSI
100
AcDbLine
 62
253
  6
CONTINUOUS
 10
-10.567750384
 20
21.5350240432
 11
-10.5699980633
 21
21.6873544476
  0
LINE
  5
26C
100
AcDbEntity
  8
ASSI
100
AcDbLine
 62
253
  6
CONTINUOUS
 10
-11.063866015
 20
20.8737348195
 11
-11.0657471998
 21
21.0479430749
  0
LINE
  5
26D
100
AcDbEntity
  8
ASSI
100
AcDbLine
 62
253
  6
CONTINUOUS
 10
-10.5649962584
 20
21.2527044191
 11
-10.567750384
 21
21.5350240432
  0
LINE
  5
26E
100
AcDbEntity
  8
ASSI
100
AcDbLine
 62
253
  6
CONTINUOUS
 10
-11.0624836682
 20
20.6412510299
 11
-11.063866015
 21
20.8737348195
  0
LINE
  5
26F
100
AcDbEntity
  8
ASSI
100
AcDbLine
 62
253
  6
CONTINUOUS
 10
-10.5627204024
 20
20.8031923518
 11
-10.5649962584
 21
21.2527044191
  0
LINE
  5
270
100
AcDbEntity
  8
ASSI
100
AcDbLine
 62
7
  6
CONTINUOUS
 10
-11.1631298441
 20
-13.1632982045
 11
-11.1499759391
 21
-21.7768337642
  0
LINE
  5
271
100
AcDbEntity
  8
ASSI
100
AcDbLine
 62
7
  6
CONTINUOUS
 10
-11.1631298441
 20
-0.3632753592
 11
-11.1631298441
 21
-13.1632982045
  0
LINE
  5
272
100
AcDbEntity
  8
ASSI
100
AcDbLine
 62
7
  6
CONTINUOUS
 10
-11.1631298441
 20
0.2366789502
 11
-11.1631298441
 21
13.0367017955
  0
LINE
  5
273
100
AcDbEntity
  8
ASSI
100
AcDbLine
 62
253
  6
CONTINUOUS
 10
-11.0547586068
 20
0.2908604422
 11
-11.0624836682
 21
20.6412510299
  0
LINE
  5
274
100
AcDbEntity
  8
ASSI
100
AcDbLine
 62
253
  6
CONTINUOUS
 10
-10.5548344984
 20
0.0934405562
 11
-10.5627204024
 21
20.8031923518
  0
LINE
  5
275
100
AcDbEntity
  8
ASSI
100
AcDbLine
 62
7
  6
CONTINUOUS
 10
-11.1631298441
 20
13.0367017955
 11
-11.1499759391
 21
21.6502373553
  0
LINE
  5
276
100
AcDbEntity
  8
ASSI
100
AcDbLine
 62
253
  6
CONTINUOUS
 10
-11.0626441649
 20
-20.8078843626
 11
-11.0547586068
 21
-0.4174568512
  0
LINE
  5
277
100
AcDbEntity
  8
ASSI
100
AcDbLine
 62
253
  6
CONTINUOUS
 10
-10.5633711557
 20
-21.1056597307
 11
-10.5548344984
 21
-0.2200369652
  0
LINE
  5
278
100
AcDbEntity
  8
ASSI
100
AcDbLine
 62
253
  6
CONTINUOUS
 10
-10.5658234498
 20
-21.4797814584
 11
-10.5633711557
 21
-21.1056597307
  0
LINE
  5
279
100
AcDbEntity
  8
ASSI
100
AcDbLine
 62
253
  6
CONTINUOUS
 10
-11.0641920202
 20
-21.0369201086
 11
-11.0626441649
 21
-20.8078843626
  0
LINE
  5
27A
100
AcDbEntity
  8
ASSI
100
AcDbLine
 62
253
  6
CONTINUOUS
 10
-10.5682849891
 20
-21.7026444584
 11
-10.5658234498
 21
-21.4797814584
  0
LINE
  5
27B
100
AcDbEntity
  8
ASSI
100
AcDbLine
 62
253
  6
CONTINUOUS
 10
-11.0661958138
 20
-21.2065008076
 11
-11.0641920202
 21
-21.0369201086
  0
LINE
  5
27C
100
AcDbEntity
  8
ASSI
100
AcDbLine
 62
253
  6
CONTINUOUS
 10
-10.570602513
 20
-21.8469234424
 11
-10.5682849891
 21
-21.7026444584
  0
LINE
  5
27D
100
AcDbEntity
  8
ASSI
100
AcDbLine
 62
253
  6
CONTINUOUS
 10
-11.0682088139
 20
-21.3231331648
 11
-11.0661958138
 21
-21.2065008076
  0
LINE
  5
27E
100
AcDbEntity
  8
ASSI
100
AcDbLine
 62
253
  6
CONTINUOUS
 10
-10.5718572039
 20
-21.9063366146
 11
-10.570602513
 21
-21.8469234424
  0
LINE
  5
27F
100
AcDbEntity
  8
ASSI
100
AcDbLine
 62
253
  6
CONTINUOUS
 10
-11.0699219514
 20
-21.3973379632
 11
-11.0682088139
 21
-21.3231331648
  0
LINE
  5
280
100
AcDbEntity
  8
ASSI
100
AcDbLine
 62
253
  6
CONTINUOUS
 10
-10.5731632807
 20
-21.956714287
 11
-10.5718572039
 21
-21.9063366146
  0
LINE
  5
281
100
AcDbEntity
  8
ASSI
100
AcDbLine
 62
253
  6
CONTINUOUS
 10
-11.0711461908
 20
-21.4398386809
 11
-11.0699219514
 21
-21.3973379632
  0
LWPOLYLINE
  5
282
100
AcDbEntity
  8
ASSI
100
AcDbPolyline
 62
253
  6
CONTINUOUS
 90
22
 70
0
 10
-11.0547583167
 20
-0.4174569962
 10
-11.054196994
 20
-0.4025129928
 10
-11.0525207158
 20
-0.3876525461
 10
-11.0497388547
 20
-0.3729587456
 10
-11.045866965
 20
-0.3585137492
 10
-11.0409266957
 20
-0.3443983235
 10
-11.0349456694
 20
-0.3306913923
 10
-11.0279573279
 20
-0.3174695955
 10
-11.0200007453
 20
-0.3048068605
 10
-11.0111204095
 20
-0.2927739886
 10
-11.0013659732
 20
-0.2814382595
 10
-10.9907919767
 20
-0.2708630549
 10
-10.9794575425
 20
-0.2611075042
 10
-10.9674260452
 20
-0.2522261539
 10
-10.9547647566
 20
-0.2442686623
 10
-10.9415444702
 20
-0.2372795225
 10
-10.9278391048
 20
-0.2312978129
 10
-10.9137252915
 20
-0.2263569791
 10
-10.8992819451
 20
-0.2224846471
 10
-10.8845898232
 20
-0.2197024682
 10
-10.8697310741
 20
-0.2180259984
 10
-10.8547887777
 20
-0.2174646116
  0
LINE
  5
283
100
AcDbEntity
  8
CURVE
100
AcDbLine
 62
253
  6
CONTINUOUS
 10
-0.1243536886
 20
14.6228444824
 11
-2.9184947285
 21
11.988546983
  0
LINE
  5
284
100
AcDbEntity
  8
CURVE
100
AcDbLine
 62
253
  6
CONTINUOUS
 10
-2.4901166838
 20
12.0089022608
 11
-0.0061025805
 21
14.350817538
  0
LINE
  5
285
100
AcDbEntity
  8
CURVE
100
AcDbLine
 62
253
  6
CONTINUOUS
 10
-0.0201571077
 20
-14.477413947
 11
-2.5121792663
 21
-12.1354986698
  0
LINE
  5
286
100
AcDbEntity
  8
CURVE
100
AcDbLine
 62
253
  6
CONTINUOUS
 10
-2.9408395332
 20
-12.115143392
 11
-0.137737938
 21
-14.7497583914
  0
LWPOLYLINE
  5
287
100
AcDbEntity
  8
ASSI
100
AcDbPolyline
 62
253
  6
CONTINUOUS
 90
7
 70
0
 10
-10.5745141395
 20
21.8711196236
 10
-10.5752025045
 20
21.8880145848
 10
-10.5758994806
 20
21.9024668038
 10
-10.5766015912
 20
21.9144523321
 10
-10.5773076774
 20
21.9239510413
 10
-10.5780188982
 20
21.9309468346
 10
-10.5787352534
 20
21.935427925
  0
LWPOLYLINE
  5
288
100
AcDbEntity
  8
CURVE
100
AcDbPolyline
 62
253
  6
CONTINUOUS
 90
60
 70
0
 10
-0.137737938
 20
-14.7497583914
 10
-0.1351396061
 20
-14.7533016316
 10
-0.1324640679
 20
-14.7567241611
 10
-0.1297063603
 20
-14.7600373737
 10
-0.1268615197
 20
-14.7632526631
 10
-0.1239245828
 20
-14.7663814228
 10
-0.1208905863
 20
-14.7694350466
 10
-0.1171160597
 20
-14.7730120093
 10
-0.1131943015
 20
-14.7764913794
 10
-0.1091249932
 20
-14.779867353
 10
-0.1049078162
 20
-14.7831341264
 10
-0.1005424522
 20
-14.7862858957
 10
-0.0967923959
 20
-14.7888197709
 10
-0.0929460785
 20
-14.7912630218
 10
-0.0890103679
 20
-14.7936089187
 10
-0.0849921317
 20
-14.7958507314
 10
-0.0808982377
 20
-14.7979817302
 10
-0.0767355538
 20
-14.7999951851
 10
-0.0725098968
 20
-14.8018847881
 10
-0.06822288
 20
-14.8036459183
 10
-0.0638750658
 20
-14.8052743767
 10
-0.0594670166
 20
-14.8067659644
 10
-0.0549992946
 20
-14.8081164825
 10
-0.0504724624
 20
-14.8093217318
 10
-0.0458883942
 20
-14.8103770097
 10
-0.0412542125
 20
-14.8112755981
 10
-0.0365783517
 20
-14.812010275
 10
-0.0318692462
 20
-14.8125738185
 10
-0.0271353304
 20
-14.8129590067
 10
-0.0223850386
 20
-14.8131586176
 10
-0.0176262014
 20
-14.8131671845
 10
-0.0128642333
 20
-14.8129862609
 10
-0.008103945
 20
-14.8126191557
 10
-0.0033501471
 20
-14.8120691776
 10
0.0013923496
 20
-14.8113396353
 10
0.0061187345
 20
-14.8104338375
 10
0.0108239017
 20
-14.8093552482
 10
0.0155015639
 20
-14.8081079514
 10
0.0201451386
 20
-14.8066961864
 10
0.0247480433
 20
-14.8051241926
 10
0.0293036954
 20
-14.803396209
 10
0.0338055123
 20
-14.8015164751
 10
0.0382462578
 20
-14.7994901657
 10
0.0426160808
 20
-14.7973261978
 10
0.0469044762
 20
-14.7950344243
 10
0.0511009393
 20
-14.7926246978
 10
0.055194965
 20
-14.790106871
 10
0.0591760484
 20
-14.7874907966
 10
0.063035816
 20
-14.7847851666
 10
0.0667744192
 20
-14.7819940297
 10
0.070394141
 20
-14.7791202738
 10
0.0738972641
 20
-14.7761667868
 10
0.0772860714
 20
-14.7731364567
 10
0.0805628457
 20
-14.7700321713
 10
0.0837303113
 20
-14.7668541602
 10
0.0867929586
 20
-14.7635920187
 10
0.0897557194
 20
-14.7602326841
 10
0.0926235254
 20
-14.7567630933
 10
0.0954013085
 20
-14.7531701834
 10
0.0980940004
 20
-14.7494408914
  0
LWPOLYLINE
  5
289
100
AcDbEntity
  8
ASSI
100
AcDbPolyline
 62
253
  6
CONTINUOUS
 90
8
 70
0
 10
-10.5787352534
 20
-22.0620243341
 10
-10.5780188982
 20
-22.0575432437
 10
-10.5773076775
 20
-22.0505474505
 10
-10.5766015912
 20
-22.0410487414
 10
-10.5758994806
 20
-22.0290632131
 10
-10.5752025045
 20
-22.0146109941
 10
-10.5745141395
 20
-21.997716033
 10
-10.5731632807
 20
-21.956714287
  0
LWPOLYLINE
  5
28A
100
AcDbEntity
  8
ASSI
100
AcDbPolyline
 62
253
  6
CONTINUOUS
 90
11
 70
0
 10
-11.0786589006
 20
-21.5627086591
 10
-11.0779427904
 20
-21.5597050691
 10
-11.0772317425
 20
-21.555045072
 10
-11.0765257569
 20
-21.5487286679
 10
-11.0758236472
 20
-21.5407397011
 10
-11.0751265999
 20
-21.5310943272
 10
-11.0744381739
 20
-21.5198410127
 10
-11.0737584207
 20
-21.5069714721
 10
-11.0730872889
 20
-21.4924939909
 10
-11.0724281829
 20
-21.4764818917
 10
-11.0711461908
 20
-21.4398386809
  0
LINE
  5
28B
100
AcDbEntity
  8
ASSI
100
AcDbLine
 62
253
  6
CONTINUOUS
 10
-11.1631298441
 20
0.2366789502
 11
-11.0547586068
 21
0.2908604422
  0
LINE
  5
28C
100
AcDbEntity
  8
ASSI
100
AcDbLine
 62
253
  6
CONTINUOUS
 10
-10.963129843
 20
0.0367017955
 11
-10.8547887777
 21
0.0908682026
  0
LINE
  5
28D
100
AcDbEntity
  8
ASSI
100
AcDbLine
 62
253
  6
CONTINUOUS
 10
-11.0547586068
 20
-0.4174568512
 11
-11.1631298441
 21
-0.3632753592
  0
LINE
  5
28E
100
AcDbEntity
  8
ASSI
100
AcDbLine
 62
253
  6
CONTINUOUS
 10
-10.8547887777
 20
-0.2174646116
 11
-10.963129843
 21
-0.1632982045
  0
LINE
  5
28F
100
AcDbEntity
  8
ASSI
100
AcDbLine
 62
253
  6
CONTINUOUS
 10
-11.1499759391
 20
-21.7768337642
 11
-11.0786589006
 21
-21.5627086591
  0
LINE
  5
290
100
AcDbEntity
  8
ASSI
100
AcDbLine
 62
253
  6
CONTINUOUS
 10
-11.0786589006
 20
21.4361122501
 11
-11.1499759391
 21
21.6502373553
  0
LWPOLYLINE
  5
291
100
AcDbEntity
  8
ASSI
100
AcDbPolyline
 62
253
  6
CONTINUOUS
 90
76
 70
0
 10
-1.4337376119
 20
4.4376019755
 10
-1.4325651411
 20
4.4960989542
 10
-1.4289371792
 20
4.5545398011
 10
-1.4228537261
 20
4.6129245155
 10
-1.4143123242
 20
4.6713954192
 10
-1.4033154312
 20
4.729810189
 10
-1.38987042
 20
4.7877418583
 10
-1.3739453515
 20
4.8451871614
 10
-1.3555721648
 20
4.9021493659
 10
-1.3348540502
 20
4.9582113077
 10
-1.3117653114
 20
5.0133553221
 10
-1.2863316448
 20
5.0675990785
 10
-1.2587333298
 20
5.120578417
 10
-1.2289733883
 20
5.1722493065
 10
-1.1970487984
 20
5.2226557853
 10
-1.1631307744
 20
5.2715657997
 10
-1.1272219088
 20
5.318965927
 10
-1.089319609
 20
5.3648695983
 10
-1.0495873118
 20
5.4090850423
 10
-1.0080056285
 20
5.451621437
 10
-0.9645939477
 20
5.4924696133
 10
-0.9195738721
 20
5.5314102803
 10
-0.8729278848
 20
5.568438083
 10
-0.8246735028
 20
5.6035583858
 10
-0.7750848789
 20
5.6365679772
 10
-0.7241603087
 20
5.6674492989
 10
-0.6719014967
 20
5.6962199184
 10
-0.6185877095
 20
5.7227293128
 10
-0.5642173095
 20
5.7469642041
 10
-0.5087919343
 20
5.7689378783
 10
-0.4525957642
 20
5.7885396587
 10
-0.3956236826
 20
5.8057585098
 10
-0.337880806
 20
5.8206054731
 10
-0.2796666646
 20
5.833002987
 10
-0.2209765125
 20
5.8429386877
 10
-0.1618150956
 20
5.8504249429
 10
-0.102496181
 20
5.8554212875
 10
-0.0430194554
 20
5.8579142411
 10
0.0166147678
 20
5.8579172854
 10
0.076091781
 20
5.8554303979
 10
0.1354113019
 20
5.8504400874
 10
0.1945736127
 20
5.8429598438
 10
0.2532648524
 20
5.8330301158
 10
0.3114803023
 20
5.8206385066
 10
0.3692246811
 20
5.8057974092
 10
0.4261982839
 20
5.7885844566
 10
0.4823958904
 20
5.7689886351
 10
0.537822721
 20
5.7470209523
 10
0.5921947325
 20
5.7227920727
 10
0.6455101505
 20
5.6962888493
 10
0.6977707494
 20
5.6675244211
 10
0.7486978082
 20
5.6366488819
 10
0.798289832
 20
5.6036446083
 10
0.8465483156
 20
5.5685292146
 10
0.8931990224
 20
5.5315056507
 10
0.9382248119
 20
5.4925680645
 10
0.9816428246
 20
5.4517222987
 10
1.0232302453
 20
5.4091888464
 10
1.0629673393
 20
5.3649769198
 10
1.1008738414
 20
5.3190772978
 10
1.1367861404
 20
5.2716828245
 10
1.1707062011
 20
5.2227811968
 10
1.2026320588
 20
5.1723847096
 10
1.2323942078
 20
5.1207231047
 10
1.2599960444
 20
5.0677527962
 10
1.2854341723
 20
5.0135173628
 10
1.3085288969
 20
4.9583772955
 10
1.3292552454
 20
4.9023138823
 10
1.3476381906
 20
4.8453458305
 10
1.3635729563
 20
4.7878897617
 10
1.3770276654
 20
4.7299414479
 10
1.388034195
 20
4.6715051154
 10
1.3965834001
 20
4.6130100704
 10
1.4026722324
 20
4.5545994162
 10
1.4063037403
 20
4.496130051
 10
1.4074779236
 20
4.4376019755
  0
LINE
  5
292
100
AcDbEntity
  8
ASSI
100
AcDbLine
 62
253
  6
CONTINUOUS
 10
-10.6495961158
 20
-22.274779492
 11
-10.5787353553
 21
-22.0620243342
  0
LWPOLYLINE
  5
293
100
AcDbEntity
  8
ASSI
100
AcDbPolyline
 62
253
  6
CONTINUOUS
 90
7
 70
0
 10
10.8285290894
 20
-0.2174646116
 10
10.8278475825
 20
-0.2176005253
 10
10.8263752809
 20
-0.2177352595
 10
10.8241121845
 20
-0.2178688142
 10
10.8210481217
 20
-0.2180015458
 10
10.8171932643
 20
-0.2181330979
 10
10.812578127
 20
-0.2182624016
  0
LWPOLYLINE
  5
294
100
AcDbEntity
  8
ASSI
100
AcDbPolyline
 62
253
  6
CONTINUOUS
 90
5
 70
0
 10
11.0284989183
 20
-0.4174569049
 10
11.0273778812
 20
-0.4176002351
 10
11.0249196453
 20
-0.4177423944
 10
11.0211310589
 20
-0.4178833336
 10
11.0160227939
 20
-0.4180233174
  0
LINE
  5
295
100
AcDbEntity
  8
ASSI
100
AcDbLine
 62
253
  6
CONTINUOUS
 10
-10.5787353553
 20
21.9354279251
 11
-10.6495961158
 21
22.1481830831
  0
LWPOLYLINE
  5
296
100
AcDbEntity
  8
ASSI
100
AcDbPolyline
 62
253
  6
CONTINUOUS
 90
76
 70
0
 10
-1.4337376119
 20
-4.5641983845
 10
-1.4325830813
 20
-4.5056900898
 10
-1.4289721384
 20
-4.4472372866
 10
-1.4229047835
 20
-4.3888399757
 10
-1.4143785918
 20
-4.3303557666
 10
-1.403395988
 20
-4.2719270515
 10
-1.3899642455
 20
-4.2139810068
 10
-1.3740514026
 20
-4.1565208955
 10
-1.3556894209
 20
-4.0995434589
 10
-1.3349814588
 20
-4.0434660929
 10
-1.3119018053
 20
-3.9883064867
 10
-1.2864761713
 20
-3.9340469574
 10
-1.2588848478
 20
-3.8810518443
 10
-1.2291308691
 20
-3.8293652288
 10
-1.197211201
 20
-3.7789430368
 10
-1.1632970317
 20
-3.7300173756
 10
-1.1273909537
 20
-3.6826016615
 10
-1.0894903746
 20
-3.6366824854
 10
-1.0497587055
 20
-3.5924517164
 10
-1.0081765375
 20
-3.5499001566
 10
-0.9647632794
 20
-3.5090370107
 10
-0.9197405689
 20
-3.4700817525
 10
-0.8730908757
 20
-3.4330397428
 10
-0.82483173
 20
-3.3979056271
 10
-0.7752373605
 20
-3.3648828057
 10
-0.7243060462
 20
-3.3339888478
 10
-0.672039508
 20
-3.3052061898
 10
-0.6187171368
 20
-3.2786855333
 10
-0.5643372747
 20
-3.254440168
 10
-0.5089015796
 20
-3.2324568087
 10
-0.4526944154
 20
-3.2128462944
 10
-0.3957106463
 20
-3.1956196768
 10
-0.3379554082
 20
-3.1807659075
 10
-0.2797284729
 20
-3.1683626748
 10
-0.2210250802
 20
-3.1584223642
 10
-0.1618499904
 20
-3.1509325923
 10
-0.102517256
 20
-3.1459338936
 10
-0.0430265606
 20
-3.1434397726
 10
0.0166217794
 20
-3.1434367256
 10
0.0761127626
 20
-3.1459247752
 10
0.1354461038
 20
-3.1509174344
 10
0.1946220882
 20
-3.1584011895
 10
0.2533265696
 20
-3.1683355221
 10
0.3115548147
 20
-3.1807328449
 10
0.3693115569
 20
-3.1955807433
 10
0.4262968492
 20
-3.2128014575
 10
0.4825054518
 20
-3.232406008
 10
0.5379426046
 20
-3.254383371
 10
0.5923240803
 20
-3.2786227196
 10
0.6456480846
 20
-3.3051372001
 10
0.6979164118
 20
-3.3339136616
 10
0.7488502171
 20
-3.3648018322
 10
0.7984479894
 20
-3.397819331
 10
0.8467112398
 20
-3.4329485332
 10
0.8933656566
 20
-3.4699863006
 10
0.9383940862
 20
-3.5089384762
 10
0.9818136821
 20
-3.5497992105
 10
1.0234015936
 20
-3.5923478273
 10
1.063138066
 20
-3.6365750792
 10
1.1010428541
 20
-3.6824902067
 10
1.1369523713
 20
-3.7299002656
 10
1.1708685819
 20
-3.7788175359
 10
1.2027895217
 20
-3.8292297305
 10
1.2325457116
 20
-3.880907055
 10
1.2601405609
 20
-3.9338931303
 10
1.2855706603
 20
-3.9881443284
 10
1.3086563041
 20
-4.0432999828
 10
1.3293725055
 20
-4.0993788201
 10
1.3477442511
 20
-4.1563621076
 10
1.3636667955
 20
-4.2138329921
 10
1.3771082388
 20
-4.271795694
 10
1.3881004808
 20
-4.3302459886
 10
1.3966344749
 20
-4.3887543574
 10
1.4027072056
 20
-4.4471776275
 10
1.4063216886
 20
-4.5056589702
 10
1.4074779236
 20
-4.5641983845
  0
LWPOLYLINE
  5
297
100
AcDbEntity
  8
ASSI
100
AcDbPolyline
 62
253
  6
CONTINUOUS
 90
76
 70
0
 10
-1.3337528424
 20
-4.5632982045
 10
-1.332647996
 20
-4.5090665306
 10
-1.3292981395
 20
-4.454697872
 10
-1.3236807365
 20
-4.4002864833
 10
-1.3157715972
 20
-4.3458951503
 10
-1.3055589487
 20
-4.2916560521
 10
-1.2930575208
 20
-4.2377679818
 10
-1.2782733023
 20
-4.184327693
 10
-1.2612172749
 20
-4.1314351148
 10
-1.2419433383
 20
-4.0792877811
 10
-1.2204862356
 20
-4.0279858286
 10
-1.1968791981
 20
-3.9776142019
 10
-1.1712021328
 20
-3.9283370646
 10
-1.1435264399
 20
-3.8802691528
 10
-1.1138917276
 20
-3.8334586314
 10
-1.0823420596
 20
-3.7879631656
 10
-1.0489434319
 20
-3.7438683251
 10
-1.0137524083
 20
-3.701239731
 10
-0.9767952706
 20
-3.6601073263
 10
-0.9381218024
 20
-3.6205318166
 10
-0.8978103305
 20
-3.58259842
 10
-0.8559289439
 20
-3.5463745986
 10
-0.8125424418
 20
-3.5119205273
 10
-0.7677322921
 20
-3.4793048869
 10
-0.7215975112
 20
-3.4486009181
 10
-0.6742261903
 20
-3.4198658874
 10
-0.6256959255
 20
-3.3931455356
 10
-0.5760952954
 20
-3.3684876454
 10
-0.5255154738
 20
-3.3459360952
 10
-0.4740425465
 20
-3.3255278478
 10
-0.4217597682
 20
-3.3072953083
 10
-0.368757713
 20
-3.2912700981
 10
-0.315130906
 20
-3.2774808317
 10
-0.2609699225
 20
-3.2659509834
 10
-0.2063677684
 20
-3.2567009189
 10
-0.1514225046
 20
-3.249747812
 10
-0.0962334116
 20
-3.2451044738
 10
-0.0408980847
 20
-3.2427791585
 10
0.0144866773
 20
-3.2427759764
 10
0.0698223516
 20
-3.2450949384
 10
0.1250121674
 20
-3.2497319583
 10
0.179958497
 20
-3.2566788026
 10
0.2345619694
 20
-3.2659226649
 10
0.2887245621
 20
-3.2774463912
 10
0.3423532232
 20
-3.2912296191
 10
0.3953571682
 20
-3.3072488164
 10
0.4476417769
 20
-3.3254753154
 10
0.4991165842
 20
-3.3458775074
 10
0.5496984376
 20
-3.3684230155
 10
0.5993010985
 20
-3.3930747918
 10
0.6478335629
 20
-3.4197890256
 10
0.6952077956
 20
-3.4485182753
 10
0.7413463141
 20
-3.4792169701
 10
0.7861608253
 20
-3.511827816
 10
0.8295523301
 20
-3.5462776891
 10
0.871439716
 20
-3.5824983484
 10
0.9117576718
 20
-3.620429336
 10
0.9504369478
 20
-3.6600020786
 10
0.987399138
 20
-3.7011310966
 10
1.0225947071
 20
-3.743755765
 10
1.0559969382
 20
-3.7878453367
 10
1.0875488047
 20
-3.8333330788
 10
1.1171852435
 20
-3.8801342402
 10
1.1448636735
 20
-3.9281933767
 10
1.1705443145
 20
-3.9774621965
 10
1.1941558025
 20
-4.0278262396
 10
1.2156193546
 20
-4.079124512
 10
1.2349016024
 20
-4.1312732793
 10
1.2519668701
 20
-4.184171596
 10
1.2667607669
 20
-4.2376221889
 10
1.2792718857
 20
-4.2915257408
 10
1.2894935396
 20
-4.3457850061
 10
1.2974102645
 20
-4.4001996953
 10
1.3030334417
 20
-4.4546370544
 10
1.3063870038
 20
-4.5090346855
 10
1.3074931541
 20
-4.5632982045
  0
LWPOLYLINE
  5
298
100
AcDbEntity
  8
ASSI
100
AcDbPolyline
 62
253
  6
CONTINUOUS
 90
76
 70
0
 10
-1.3337528424
 20
4.4367017955
 10
-1.3326300263
 20
4.4909229616
 10
-1.3292630598
 20
4.5452803307
 10
-1.3236294172
 20
4.5996796906
 10
-1.3157048774
 20
4.6540582756
 10
-1.3054777176
 20
4.7082839627
 10
-1.292962789
 20
4.7621580707
 10
-1.2781660719
 20
4.8155839057
 10
-1.2610985388
 20
4.8684615858
 10
-1.2418141821
 20
4.9205937033
 10
-1.2203477128
 20
4.9718802084
 10
-1.1967323349
 20
5.0222361912
 10
-1.1710480349
 20
5.0714975652
 10
-1.1433661576
 20
5.1195497082
 10
-1.1137262773
 20
5.1663444685
 10
-1.0821725746
 20
5.2118241374
 10
-1.0487710157
 20
5.255903212
 10
-1.0135781164
 20
5.2985161413
 10
-0.9766202668
 20
5.3396329728
 10
-0.9379472291
 20
5.3791930559
 10
-0.897637273
 20
5.4171112631
 10
-0.8557585469
 20
5.4533201998
 10
-0.812375801
 20
5.487759767
 10
-0.7675704467
 20
5.5203613523
 10
-0.7214415417
 20
5.55105179
 10
-0.6740771155
 20
5.5797738904
 10
-0.6255546915
 20
5.6064819751
 10
-0.5759628654
 20
5.631128332
 10
-0.52539274
 20
5.6536691496
 10
-0.4739303119
 20
5.6740675234
 10
-0.4216588171
 20
5.6922911158
 10
-0.3686687468
 20
5.7083083604
 10
-0.3150545245
 20
5.7220906884
 10
-0.2609066712
 20
5.733614681
 10
-0.2063180976
 20
5.7428600123
 10
-0.1513867549
 20
5.7498095342
 10
-0.0962118418
 20
5.7544504676
 10
-0.040890846
 20
5.7567745777
 10
0.0144795422
 20
5.7567777567
 10
0.0698008852
 20
5.754459994
 10
0.1249765203
 20
5.749825373
 10
0.1799089278
 20
5.7428821078
 10
0.2344988183
 20
5.7336429729
 10
0.2886482789
 20
5.7221250966
 10
0.342264353
 20
5.7083488017
 10
0.3952563105
 20
5.6923375646
 10
0.447529633
 20
5.6741200075
 10
0.4989939385
 20
5.6537276838
 10
0.5495660929
 20
5.6311929032
 10
0.5991599469
 20
5.6065526551
 10
0.6476845677
 20
5.579850683
 10
0.6950519025
 20
5.5511343588
 10
0.7411845416
 20
5.5204491905
 10
0.7859942535
 20
5.4878523955
 10
0.8293819973
 20
5.4534170231
 10
0.8712667169
 20
5.4172112465
 10
0.9115831507
 20
5.3792954475
 10
0.9502619896
 20
5.3397381309
 10
0.9872248848
 20
5.2986246864
 10
1.0224223227
 20
5.2560156833
 10
1.055827479
 20
5.2119418767
 10
1.0873833755
 20
5.1664699276
 10
1.1170249779
 20
5.1196845216
 10
1.1447095878
 20
5.0716411483
 10
1.1703974592
 20
5.0223880847
 10
1.1940172832
 20
4.9720396783
 10
1.2154901964
 20
4.9207568496
 10
1.2347828589
 20
4.8686232991
 10
1.2518596271
 20
4.8157398844
 10
1.2666660179
 20
4.7623037534
 10
1.2791906346
 20
4.7084141763
 10
1.2894267987
 20
4.6541683383
 10
1.2973589253
 20
4.5997664153
 10
1.3029983457
 20
4.5453411047
 10
1.3063690245
 20
4.4909547843
 10
1.3074931541
 20
4.4367017955
  0
LINE
  5
299
100
AcDbEntity
  8
ASSI
100
AcDbLine
 62
7
  6
CONTINUOUS
 10
8.4993361464
 20
-0.1632982045
 11
8.2368701559
 21
-0.1894788079
  0
LINE
  5
29A
100
AcDbEntity
  8
ASSI
100
AcDbLine
 62
253
  6
CONTINUOUS
 10
10.812578127
 20
-0.2182624016
 11
10.8010544577
 21
-0.2185142238
  0
LINE
  5
29B
100
AcDbEntity
  8
ASSI
100
AcDbLine
 62
253
  6
CONTINUOUS
 10
11.0160227939
 20
-0.4180233174
 11
11.0019049496
 21
-0.4182983412
  0
LINE
  5
29C
100
AcDbEntity
  8
ASSI
100
AcDbLine
 62
253
  6
CONTINUOUS
 10
10.8010544577
 20
-0.2185142238
 11
10.7783517799
 21
-0.2188689785
  0
LINE
  5
29D
100
AcDbEntity
  8
ASSI
100
AcDbLine
 62
253
  6
CONTINUOUS
 10
11.0019049496
 20
-0.4182983412
 11
10.9712755657
 21
-0.4186921509
  0
LINE
  5
29E
100
AcDbEntity
  8
ASSI
100
AcDbLine
 62
253
  6
CONTINUOUS
 10
10.7783517799
 20
-0.2188689785
 11
10.7274975648
 21
-0.2193786255
  0
LINE
  5
29F
100
AcDbEntity
  8
ASSI
100
AcDbLine
 62
253
  6
CONTINUOUS
 10
10.9712755657
 20
-0.4186921509
 11
10.8790283195
 21
-0.4193785103
  0
LINE
  5
2A0
100
AcDbEntity
  8
ASSI
100
AcDbLine
 62
253
  6
CONTINUOUS
 10
10.7274975648
 20
-0.2193786255
 11
10.6202577743
 21
-0.2199117081
  0
LINE
  5
2A1
100
AcDbEntity
  8
ASSI
100
AcDbLine
 62
253
  6
CONTINUOUS
 10
-10.729463166
 20
0.0929512969
 11
-10.6012221539
 21
0.0934090704
  0
LINE
  5
2A2
100
AcDbEntity
  8
ASSI
100
AcDbLine
 62
253
  6
CONTINUOUS
 10
10.8790283195
 20
-0.4193785103
 11
10.6059198641
 21
-0.4201384758
  0
LINE
  5
2A3
100
AcDbEntity
  8
ASSI
100
AcDbLine
 62
253
  6
CONTINUOUS
 10
10.6202577743
 20
-0.2199117081
 11
10.5285748102
 21
-0.2200369652
  0
LINE
  5
2A4
100
AcDbEntity
  8
ASSI
100
AcDbLine
 62
253
  6
CONTINUOUS
 10
-10.6012221539
 20
0.0934090704
 11
-10.5548344984
 21
0.0934405562
  0
LINE
  5
2A5
100
AcDbEntity
  8
ASSI
100
AcDbLine
 62
253
  6
CONTINUOUS
 10
10.6059198641
 20
-0.4201384758
 11
-10.5548180256
 21
-0.4201721002
  0
LINE
  5
2A6
100
AcDbEntity
  8
ASSI
100
AcDbLine
 62
7
  6
CONTINUOUS
 10
10.5285748102
 20
-0.2200369652
 11
-10.5548344984
 21
-0.2200369652
  0
LINE
  5
2A7
100
AcDbEntity
  8
ASSI
100
AcDbLine
 62
7
  6
CONTINUOUS
 10
-8.2631298441
 20
-0.1894788079
 11
8.2368701559
 21
-0.1894788079
  0
LINE
  5
2A8
100
AcDbEntity
  8
ASSI
100
AcDbLine
 62
7
  6
CONTINUOUS
 10
-10.963129843
 20
-0.1632982045
 11
-8.5255958347
 21
-0.1632982045
  0
LINE
  5
2A9
100
AcDbEntity
  8
ASSI
100
AcDbLine
 62
7
  6
CONTINUOUS
 10
8.4993361464
 20
-0.1632982045
 11
10.9368701547
 21
-0.1632982045
  0
LINE
  5
2AA
100
AcDbEntity
  8
ASSI
100
AcDbLine
 62
7
  6
CONTINUOUS
 10
10.9368701547
 20
0.0367017955
 11
8.4993361464
 21
0.0367017955
  0
LINE
  5
2AB
100
AcDbEntity
  8
ASSI
100
AcDbLine
 62
7
  6
CONTINUOUS
 10
-8.5255958347
 20
0.0367017955
 11
-10.963129843
 21
0.0367017955
  0
LINE
  5
2AC
100
AcDbEntity
  8
ASSI
100
AcDbLine
 62
7
  6
CONTINUOUS
 10
8.2368701559
 20
0.0628823989
 11
-8.2631298441
 21
0.0628823989
  0
LINE
  5
2AD
100
AcDbEntity
  8
ASSI
100
AcDbLine
 62
7
  6
CONTINUOUS
 10
-10.5548344984
 20
0.0934405562
 11
10.5285748102
 21
0.0934405562
  0
LINE
  5
2AE
100
AcDbEntity
  8
ASSI
100
AcDbLine
 62
253
  6
CONTINUOUS
 10
-10.5548180256
 20
-0.4201721074
 11
-10.8665425982
 21
-0.4195682823
  0
LINE
  5
2AF
100
AcDbEntity
  8
ASSI
100
AcDbLine
 62
253
  6
CONTINUOUS
 10
-10.5548344984
 20
-0.2200369652
 11
-10.6896139196
 21
-0.219757878
  0
LINE
  5
2B0
100
AcDbEntity
  8
ASSI
100
AcDbLine
 62
253
  6
CONTINUOUS
 10
10.5285748102
 20
0.0934405562
 11
10.6633542313
 21
0.093161469
  0
LINE
  5
2B1
100
AcDbEntity
  8
ASSI
100
AcDbLine
 62
253
  6
CONTINUOUS
 10
10.6633542313
 20
0.093161469
 11
10.7032034771
 21
0.0929512969
  0
LINE
  5
2B2
100
AcDbEntity
  8
ASSI
100
AcDbLine
 62
253
  6
CONTINUOUS
 10
-10.8665425982
 20
-0.4195682823
 11
-10.9849125479
 21
-0.4188169032
  0
LINE
  5
2B3
100
AcDbEntity
  8
ASSI
100
AcDbLine
 62
253
  6
CONTINUOUS
 10
-10.6896139196
 20
-0.219757878
 11
-10.7758908431
 21
-0.2191888111
  0
LINE
  5
2B4
100
AcDbEntity
  8
ASSI
100
AcDbLine
 62
253
  6
CONTINUOUS
 10
-10.9849125479
 20
-0.4188169032
 11
-11.0191910259
 21
-0.418432341
  0
LINE
  5
2B5
100
AcDbEntity
  8
ASSI
100
AcDbLine
 62
253
  6
CONTINUOUS
 10
-10.7758908431
 20
-0.2191888111
 11
-10.8128918194
 21
-0.2187539946
  0
LWPOLYLINE
  5
2B6
100
AcDbEntity
  8
ASSI
100
AcDbPolyline
 62
253
  6
CONTINUOUS
 90
7
 70
0
 10
-11.0191910259
 20
-0.418432341
 10
-11.0358683416
 20
-0.4181619832
 10
-11.0422824818
 20
-0.4180233174
 10
-11.0473907469
 20
-0.4178833336
 10
-11.0511793334
 20
-0.4177423944
 10
-11.0536375695
 20
-0.4176002351
 10
-11.0547586065
 20
-0.4174569049
  0
LINE
  5
2B7
100
AcDbEntity
  8
ASSI
100
AcDbLine
 62
253
  6
CONTINUOUS
 10
-10.8128918194
 20
-0.2187539946
 11
-10.8273141457
 21
-0.2185142238
  0
LWPOLYLINE
  5
2B8
100
AcDbEntity
  8
ASSI
100
AcDbPolyline
 62
253
  6
CONTINUOUS
 90
8
 70
0
 10
-10.8273141457
 20
-0.2185142238
 10
-10.838837815
 20
-0.2182624016
 10
-10.8434529523
 20
-0.2181330979
 10
-10.8473078099
 20
-0.2180015458
 10
-10.8503718727
 20
-0.2178688142
 10
-10.8526349691
 20
-0.2177352595
 10
-10.8541072708
 20
-0.2176005253
 10
-10.8547887777
 20
-0.2174646116
  0
LINE
  5
2B9
100
AcDbEntity
  8
ASSI
100
AcDbLine
 62
7
  6
CONTINUOUS
 10
-8.5255958347
 20
-0.1632982045
 11
-8.2631298441
 21
-0.1894788079
  0
LWPOLYLINE
  5
2BA
100
AcDbEntity
  8
ASSI
100
AcDbPolyline
 62
253
  6
CONTINUOUS
 90
76
 70
0
 10
1.4074779236
 20
4.4376019755
 10
1.406323393
 20
4.3790936809
 10
1.4027124502
 20
4.3206408776
 10
1.3966450952
 20
4.2622435667
 10
1.3881189035
 20
4.2037593576
 10
1.3771362997
 20
4.1453306425
 10
1.3637045572
 20
4.0873845978
 10
1.3477917143
 20
4.0299244865
 10
1.3294297327
 20
3.9729470499
 10
1.3087217706
 20
3.9168696839
 10
1.285642117
 20
3.8617100778
 10
1.260216483
 20
3.8074505484
 10
1.2326251595
 20
3.7544554353
 10
1.2028711808
 20
3.7027688198
 10
1.1709515127
 20
3.6523466279
 10
1.1370373434
 20
3.6034209666
 10
1.1011312655
 20
3.5560052525
 10
1.0632306864
 20
3.5100860764
 10
1.0234990172
 20
3.4658553075
 10
0.9819168492
 20
3.4233037476
 10
0.9385035911
 20
3.3824406018
 10
0.8934808806
 20
3.3434853435
 10
0.8468311874
 20
3.3064433338
 10
0.7985720417
 20
3.2713092181
 10
0.7489776722
 20
3.2382863967
 10
0.6980463579
 20
3.2073924388
 10
0.6457798198
 20
3.1786097809
 10
0.5924574485
 20
3.1520891243
 10
0.5380775864
 20
3.127843759
 10
0.4826418913
 20
3.1058603998
 10
0.4264347271
 20
3.0862498854
 10
0.369450958
 20
3.0690232678
 10
0.3116957199
 20
3.0541694985
 10
0.2534687846
 20
3.0417662658
 10
0.194765392
 20
3.0318259552
 10
0.1355903022
 20
3.0243361833
 10
0.0762575677
 20
3.0193374847
 10
0.0167668724
 20
3.0168433636
 10
-0.0428814677
 20
3.0168403167
 10
-0.1023724508
 20
3.0193283662
 10
-0.1617057921
 20
3.0243210254
 10
-0.2208817765
 20
3.0318047805
 10
-0.2795862578
 20
3.0417391131
 10
-0.337814503
 20
3.054136436
 10
-0.3955712452
 20
3.0689843343
 10
-0.4525565375
 20
3.0862050485
 10
-0.5087651401
 20
3.105809599
 10
-0.5642022929
 20
3.127786962
 10
-0.6185837685
 20
3.1520263106
 10
-0.6719077729
 20
3.1785407911
 10
-0.7241761001
 20
3.2073172526
 10
-0.7751099054
 20
3.2382054232
 10
-0.8247076777
 20
3.271222922
 10
-0.8729709281
 20
3.3063521243
 10
-0.9196253449
 20
3.3433898917
 10
-0.9646537745
 20
3.3823420672
 10
-1.0080733704
 20
3.4232028016
 10
-1.0496612819
 20
3.4657514184
 10
-1.0893977543
 20
3.5099786703
 10
-1.1273025424
 20
3.5558937977
 10
-1.1632120596
 20
3.6033038567
 10
-1.1971282702
 20
3.652221127
 10
-1.2290492099
 20
3.7026333215
 10
-1.2588053999
 20
3.754310646
 10
-1.2864002491
 20
3.8072967213
 10
-1.3118303486
 20
3.8615479194
 10
-1.3349159924
 20
3.9167035738
 10
-1.3556321937
 20
3.9727824111
 10
-1.3740039394
 20
4.0297656986
 10
-1.3899264838
 20
4.0872365831
 10
-1.4033679271
 20
4.145199285
 10
-1.414360169
 20
4.2036495796
 10
-1.4228941632
 20
4.2621579484
 10
-1.4289668939
 20
4.3205812185
 10
-1.4325813768
 20
4.3790625612
 10
-1.4337376119
 20
4.4376019755
  0
LWPOLYLINE
  5
2BB
100
AcDbEntity
  8
ASSI
100
AcDbPolyline
 62
253
  6
CONTINUOUS
 90
76
 70
0
 10
1.4074779236
 20
-4.5641983845
 10
1.4063054528
 20
-4.6226953632
 10
1.4026774909
 20
-4.6811362101
 10
1.3965940378
 20
-4.7395209245
 10
1.3880526359
 20
-4.7979918282
 10
1.3770557429
 20
-4.8564065979
 10
1.3636107317
 20
-4.9143382672
 10
1.3476856632
 20
-4.9717835704
 10
1.3293124765
 20
-5.0287457749
 10
1.3085943619
 20
-5.0848077167
 10
1.2855056231
 20
-5.139951731
 10
1.2600719565
 20
-5.1941954875
 10
1.2324736415
 20
-5.247174826
 10
1.2027137
 20
-5.2988457155
 10
1.1707891101
 20
-5.3492521943
 10
1.1368710861
 20
-5.3981622087
 10
1.1009622205
 20
-5.445562336
 10
1.0630599207
 20
-5.4914660073
 10
1.0233276235
 20
-5.5356814513
 10
0.9817459402
 20
-5.5782178459
 10
0.9383342594
 20
-5.6190660223
 10
0.8933141838
 20
-5.6580066893
 10
0.8466681966
 20
-5.695034492
 10
0.7984138145
 20
-5.7301547948
 10
0.7488251906
 20
-5.7631643861
 10
0.6979006204
 20
-5.7940457079
 10
0.6456418084
 20
-5.8228163273
 10
0.5923280213
 20
-5.8493257217
 10
0.5379576212
 20
-5.8735606131
 10
0.482532246
 20
-5.8955342873
 10
0.426336076
 20
-5.9151360677
 10
0.3693639943
 20
-5.9323549187
 10
0.3116211178
 20
-5.947201882
 10
0.2534069763
 20
-5.9595993959
 10
0.1947168242
 20
-5.9695350967
 10
0.1355554073
 20
-5.9770213519
 10
0.0762364927
 20
-5.9820176965
 10
0.0167597671
 20
-5.9845106501
 10
-0.0428744561
 20
-5.9845136944
 10
-0.1023514692
 20
-5.9820268069
 10
-0.1616709901
 20
-5.9770364964
 10
-0.220833301
 20
-5.9695562528
 10
-0.2795245407
 20
-5.9596265248
 10
-0.3377399906
 20
-5.9472349156
 10
-0.3954843694
 20
-5.9323938182
 10
-0.4524579722
 20
-5.9151808656
 10
-0.5086555787
 20
-5.8955850441
 10
-0.5640824093
 20
-5.8736173613
 10
-0.6184544207
 20
-5.8493884817
 10
-0.6717698388
 20
-5.8228852582
 10
-0.7240304377
 20
-5.7941208301
 10
-0.7749574964
 20
-5.7632452908
 10
-0.8245495202
 20
-5.7302410173
 10
-0.8728080039
 20
-5.6951256236
 10
-0.9194587107
 20
-5.6581020597
 10
-0.9644845002
 20
-5.6191644735
 10
-1.0079025129
 20
-5.5783187077
 10
-1.0494899336
 20
-5.5357852554
 10
-1.0892270276
 20
-5.4915733288
 10
-1.1271335297
 20
-5.4456737068
 10
-1.1630458286
 20
-5.3982792334
 10
-1.1969658894
 20
-5.3493776058
 10
-1.2288917471
 20
-5.2989811186
 10
-1.2586538961
 20
-5.2473195137
 10
-1.2862557327
 20
-5.1943492052
 10
-1.3116938605
 20
-5.1401137718
 10
-1.3347885851
 20
-5.0849737045
 10
-1.3555149336
 20
-5.0289102913
 10
-1.3738978789
 20
-4.9719422394
 10
-1.3898326446
 20
-4.9144861706
 10
-1.4032873537
 20
-4.8565378568
 10
-1.4142938833
 20
-4.7981015243
 10
-1.4228430884
 20
-4.7396064794
 10
-1.4289319207
 20
-4.6811958252
 10
-1.4325634286
 20
-4.62272646
 10
-1.4337376119
 20
-4.5641983845
  0
LWPOLYLINE
  5
2BC
100
AcDbEntity
  8
ASSI
100
AcDbPolyline
 62
253
  6
CONTINUOUS
 90
76
 70
0
 10
1.3074931541
 20
4.4367017955
 10
1.3063883077
 20
4.3824701216
 10
1.3030384513
 20
4.3281014631
 10
1.2974210483
 20
4.2736900743
 10
1.2895119089
 20
4.2192987414
 10
1.2792992604
 20
4.1650596431
 10
1.2667978326
 20
4.1111715728
 10
1.252013614
 20
4.057731284
 10
1.2349575866
 20
4.0048387059
 10
1.21568365
 20
3.9526913722
 10
1.1942265473
 20
3.9013894196
 10
1.1706195098
 20
3.8510177929
 10
1.1449424445
 20
3.8017406557
 10
1.1172667516
 20
3.7536727438
 10
1.0876320393
 20
3.7068622225
 10
1.0560823713
 20
3.6613667567
 10
1.0226837436
 20
3.6172719161
 10
0.9874927201
 20
3.574643322
 10
0.9505355824
 20
3.5335109173
 10
0.9118621141
 20
3.4939354076
 10
0.8715506422
 20
3.456002011
 10
0.8296692556
 20
3.4197781896
 10
0.7862827535
 20
3.3853241184
 10
0.7414726038
 20
3.3527084779
 10
0.6953378229
 20
3.3220045092
 10
0.647966502
 20
3.2932694784
 10
0.5994362372
 20
3.2665491267
 10
0.5498356071
 20
3.2418912364
 10
0.4992557855
 20
3.2193396862
 10
0.4477828582
 20
3.1989314389
 10
0.3955000799
 20
3.1806988993
 10
0.3424980247
 20
3.1646736891
 10
0.2888712177
 20
3.1508844227
 10
0.2347102342
 20
3.1393545745
 10
0.1801080802
 20
3.1301045099
 10
0.1251628164
 20
3.123151403
 10
0.0699737233
 20
3.1185080648
 10
0.0146383964
 20
3.1161827495
 10
-0.0407463656
 20
3.1161795675
 10
-0.0960820399
 20
3.1184985295
 10
-0.1512718557
 20
3.1231355493
 10
-0.2062181853
 20
3.1300823936
 10
-0.2608216576
 20
3.139326256
 10
-0.3149842504
 20
3.1508499823
 10
-0.3686129115
 20
3.1646332101
 10
-0.4216168565
 20
3.1806524074
 10
-0.4739014651
 20
3.1988789064
 10
-0.5253762725
 20
3.2192810984
 10
-0.5759581259
 20
3.2418266065
 10
-0.6255607868
 20
3.2664783828
 10
-0.6740932512
 20
3.2931926167
 10
-0.7214674839
 20
3.3219218663
 10
-0.7676060024
 20
3.3526205612
 10
-0.8124205136
 20
3.385231407
 10
-0.8558120184
 20
3.4196812801
 10
-0.8976994043
 20
3.4559019395
 10
-0.9380173601
 20
3.493832927
 10
-0.9766966361
 20
3.5334056696
 10
-1.0136588263
 20
3.5745346876
 10
-1.0488543954
 20
3.6171593561
 10
-1.0822566265
 20
3.6612489277
 10
-1.113808493
 20
3.7067366699
 10
-1.1434449318
 20
3.7535378313
 10
-1.1711233618
 20
3.8015969677
 10
-1.1968040028
 20
3.8508657875
 10
-1.2204154908
 20
3.9012298306
 10
-1.2418790428
 20
3.952528103
 10
-1.2611612907
 20
4.0046768703
 10
-1.2782265583
 20
4.057575187
 10
-1.2930204552
 20
4.1110257799
 10
-1.305531574
 20
4.1649293319
 10
-1.3157532279
 20
4.2191885971
 10
-1.3236699528
 20
4.2736032863
 10
-1.3292931299
 20
4.3280406455
 10
-1.3326466921
 20
4.3824382765
 10
-1.3337528424
 20
4.4367017955
  0
LWPOLYLINE
  5
2BD
100
AcDbEntity
  8
ASSI
100
AcDbPolyline
 62
253
  6
CONTINUOUS
 90
76
 70
0
 10
1.3074931541
 20
-4.5632982045
 10
1.3063703381
 20
-4.6175193706
 10
1.3030033715
 20
-4.6718767397
 10
1.297369729
 20
-4.7262760995
 10
1.2894451891
 20
-4.7806546846
 10
1.2792180294
 20
-4.8348803717
 10
1.2667031007
 20
-4.8887544797
 10
1.2519063836
 20
-4.9421803147
 10
1.2348388505
 20
-4.9950579948
 10
1.2155544938
 20
-5.0471901123
 10
1.1940880245
 20
-5.0984766174
 10
1.1704726466
 20
-5.1488326001
 10
1.1447883466
 20
-5.1980939742
 10
1.1171064693
 20
-5.2461461171
 10
1.087466589
 20
-5.2929408775
 10
1.0559128863
 20
-5.3384205464
 10
1.0225113275
 20
-5.382499621
 10
0.9873184281
 20
-5.4251125503
 10
0.9503605785
 20
-5.4662293817
 10
0.9116875408
 20
-5.5057894649
 10
0.8713775847
 20
-5.5437076721
 10
0.8294988586
 20
-5.5799166088
 10
0.7861161128
 20
-5.614356176
 10
0.7413107584
 20
-5.6469577613
 10
0.6951818534
 20
-5.677648199
 10
0.6478174272
 20
-5.7063702993
 10
0.5992950032
 20
-5.7330783841
 10
0.5497031771
 20
-5.7577247409
 10
0.4991330517
 20
-5.7802655585
 10
0.4476706236
 20
-5.8006639324
 10
0.3953991288
 20
-5.8188875248
 10
0.3424090586
 20
-5.8349047694
 10
0.2887948363
 20
-5.8486870974
 10
0.2346469829
 20
-5.86021109
 10
0.1800584093
 20
-5.8694564213
 10
0.1251270666
 20
-5.8764059432
 10
0.0699521535
 20
-5.8810468766
 10
0.0146311577
 20
-5.8833709867
 10
-0.0407392305
 20
-5.8833741657
 10
-0.0960605734
 20
-5.881056403
 10
-0.1512362086
 20
-5.876421782
 10
-0.206168616
 20
-5.8694785167
 10
-0.2607585066
 20
-5.8602393819
 10
-0.3149079672
 20
-5.8487215056
 10
-0.3685240413
 20
-5.8349452107
 10
-0.4215159988
 20
-5.8189339736
 10
-0.4737893213
 20
-5.8007164164
 10
-0.5252536268
 20
-5.7803240928
 10
-0.5758257811
 20
-5.7577893122
 10
-0.6254196352
 20
-5.733149064
 10
-0.673944256
 20
-5.706447092
 10
-0.7213115908
 20
-5.6777307678
 10
-0.7674442298
 20
-5.6470455994
 10
-0.8122539418
 20
-5.6144488044
 10
-0.8556416856
 20
-5.5800134321
 10
-0.8975264052
 20
-5.5438076555
 10
-0.937842839
 20
-5.5058918565
 10
-0.9765216778
 20
-5.4663345399
 10
-1.0134845731
 20
-5.4252210954
 10
-1.048682011
 20
-5.3826120923
 10
-1.0820871673
 20
-5.3385382857
 10
-1.1136430638
 20
-5.2930663366
 10
-1.1432846662
 20
-5.2462809306
 10
-1.170969276
 20
-5.1982375573
 10
-1.1966571475
 20
-5.1489844937
 10
-1.2202769715
 20
-5.0986360873
 10
-1.2417498847
 20
-5.0473532586
 10
-1.2610425472
 20
-4.9952197081
 10
-1.2781193153
 20
-4.9423362934
 10
-1.2929257062
 20
-4.8889001623
 10
-1.3054503229
 20
-4.8350105853
 10
-1.3156864869
 20
-4.7807647473
 10
-1.3236186136
 20
-4.7263628243
 10
-1.329258034
 20
-4.6719375137
 10
-1.3326287128
 20
-4.6175511933
 10
-1.3337528424
 20
-4.5632982045
  0
LWPOLYLINE
  5
2BE
100
AcDbEntity
  8
ASSI
100
AcDbPolyline
 62
253
  6
CONTINUOUS
 90
5
 70
0
 10
-11.0547586065
 20
0.2908604959
 10
-11.0536375695
 20
0.2910038261
 10
-11.0511793335
 20
0.2911459854
 10
-11.0473907472
 20
0.2912869247
 10
-11.0422824822
 20
0.2914269084
  0
LINE
  5
2BF
100
AcDbEntity
  8
ASSI
100
AcDbLine
 62
7
  6
CONTINUOUS
 10
-8.5255958347
 20
0.0367017955
 11
-8.2631298441
 21
0.0628823989
  0
LINE
  5
2C0
100
AcDbEntity
  8
ASSI
100
AcDbLine
 62
253
  6
CONTINUOUS
 10
-10.8388378153
 20
0.0916659926
 11
-10.827314146
 21
0.0919178149
  0
LINE
  5
2C1
100
AcDbEntity
  8
ASSI
100
AcDbLine
 62
253
  6
CONTINUOUS
 10
-11.0422824822
 20
0.2914269084
 11
-11.0281646379
 21
0.2917019322
  0
LINE
  5
2C2
100
AcDbEntity
  8
ASSI
100
AcDbLine
 62
253
  6
CONTINUOUS
 10
-10.827314146
 20
0.0919178149
 11
-10.8046114682
 21
0.0922725695
  0
LINE
  5
2C3
100
AcDbEntity
  8
ASSI
100
AcDbLine
 62
253
  6
CONTINUOUS
 10
-11.0281646379
 20
0.2917019322
 11
-10.997535254
 21
0.292095742
  0
LINE
  5
2C4
100
AcDbEntity
  8
ASSI
100
AcDbLine
 62
253
  6
CONTINUOUS
 10
-10.8046114682
 20
0.0922725695
 11
-10.7537572531
 21
0.0927822165
  0
LINE
  5
2C5
100
AcDbEntity
  8
ASSI
100
AcDbLine
 62
253
  6
CONTINUOUS
 10
-10.7537572531
 20
0.0927822165
 11
-10.729463166
 21
0.0929512969
  0
LINE
  5
2C6
100
AcDbEntity
  8
ASSI
100
AcDbLine
 62
253
  6
CONTINUOUS
 10
-10.997535254
 20
0.292095742
 11
-10.9052880078
 21
0.2927821014
  0
LINE
  5
2C7
100
AcDbEntity
  8
ASSI
100
AcDbLine
 62
253
  6
CONTINUOUS
 10
-10.9052880078
 20
0.2927821014
 11
-10.6321795524
 21
0.2935420669
  0
LINE
  5
2C8
100
AcDbEntity
  8
ASSI
100
AcDbLine
 62
253
  6
CONTINUOUS
 10
-10.6321795524
 20
0.2935420669
 11
10.5285583374
 21
0.2935756913
  0
LINE
  5
2C9
100
AcDbEntity
  8
ASSI
100
AcDbLine
 62
253
  6
CONTINUOUS
 10
10.5285583374
 20
0.2935756984
 11
10.84028291
 21
0.2929718733
  0
LINE
  5
2CA
100
AcDbEntity
  8
ASSI
100
AcDbLine
 62
253
  6
CONTINUOUS
 10
10.84028291
 20
0.2929718733
 11
10.9586528596
 21
0.2922204942
  0
LINE
  5
2CB
100
AcDbEntity
  8
ASSI
100
AcDbLine
 62
253
  6
CONTINUOUS
 10
10.7032034771
 20
0.0929512969
 11
10.7598512913
 21
0.0924899778
  0
LINE
  5
2CC
100
AcDbEntity
  8
ASSI
100
AcDbLine
 62
253
  6
CONTINUOUS
 10
10.9586528596
 20
0.2922204942
 11
10.9929313376
 21
0.291835932
  0
LINE
  5
2CD
100
AcDbEntity
  8
ASSI
100
AcDbLine
 62
253
  6
CONTINUOUS
 10
10.7598512913
 20
0.0924899778
 11
10.7866321312
 21
0.0921575856
  0
LINE
  5
2CE
100
AcDbEntity
  8
ASSI
100
AcDbLine
 62
253
  6
CONTINUOUS
 10
10.7866321312
 20
0.0921575856
 11
10.8010544574
 21
0.0919178149
  0
LWPOLYLINE
  5
2CF
100
AcDbEntity
  8
ASSI
100
AcDbPolyline
 62
253
  6
CONTINUOUS
 90
7
 70
0
 10
10.9929313376
 20
0.291835932
 10
11.0096086533
 20
0.2915655742
 10
11.0160227935
 20
0.2914269084
 10
11.0211310586
 20
0.2912869247
 10
11.0249196451
 20
0.2911459854
 10
11.0273778812
 20
0.2910038261
 10
11.0284989183
 20
0.2908604959
  0
LWPOLYLINE
  5
2D0
100
AcDbEntity
  8
ASSI
100
AcDbPolyline
 62
253
  6
CONTINUOUS
 90
8
 70
0
 10
10.8010544574
 20
0.0919178149
 10
10.8125781268
 20
0.0916659927
 10
10.8171932641
 20
0.091536689
 10
10.8210481216
 20
0.0914051368
 10
10.8241121844
 20
0.0912724052
 10
10.8263752808
 20
0.0911388505
 10
10.8278475825
 20
0.0910041163
 10
10.8285290894
 20
0.0908682026
  0
LINE
  5
2D1
100
AcDbEntity
  8
ASSI
100
AcDbLine
 62
7
  6
CONTINUOUS
 10
8.4993361464
 20
0.0367017955
 11
8.2368701559
 21
0.0628823989
  0
LINE
  5
2D2
100
AcDbEntity
  8
ASSI
100
AcDbLine
 62
253
  6
CONTINUOUS
 10
10.6233364275
 20
22.1481830831
 11
10.5524756671
 21
21.9354279252
  0
LWPOLYLINE
  5
2D3
100
AcDbEntity
  8
ASSI
100
AcDbPolyline
 62
253
  6
CONTINUOUS
 90
7
 70
0
 10
-10.8547887777
 20
0.0908682026
 10
-10.8541072708
 20
0.0910041163
 10
-10.8526349692
 20
0.0911388505
 10
-10.8503718728
 20
0.0912724052
 10
-10.84730781
 20
0.0914051368
 10
-10.8434529525
 20
0.091536689
 10
-10.8388378153
 20
0.0916659926
  0
LINE
  5
2D4
100
AcDbEntity
  8
ASSI
100
AcDbLine
 62
253
  6
CONTINUOUS
 10
10.5524756671
 20
-22.0620243341
 11
10.6233364275
 21
-22.274779492
  0
LINE
  5
2D5
100
AcDbEntity
  8
ASSI
100
AcDbLine
 62
253
  6
CONTINUOUS
 10
11.1237162508
 20
21.6502373553
 11
11.0523992123
 21
21.4361122501
  0
LINE
  5
2D6
100
AcDbEntity
  8
ASSI
100
AcDbLine
 62
253
  6
CONTINUOUS
 10
10.9368701547
 20
-0.1632982045
 11
10.8285290894
 21
-0.2174646116
  0
LINE
  5
2D7
100
AcDbEntity
  8
ASSI
100
AcDbLine
 62
253
  6
CONTINUOUS
 10
10.8285290894
 20
0.0908682026
 11
10.9368701547
 21
0.0367017955
  0
LINE
  5
2D8
100
AcDbEntity
  8
ASSI
100
AcDbLine
 62
253
  6
CONTINUOUS
 10
11.0523992123
 20
-21.5627086591
 11
11.1237162508
 21
-21.7768337642
  0
LWPOLYLINE
  5
2D9
100
AcDbEntity
  8
ASSI
100
AcDbPolyline
 62
253
  6
CONTINUOUS
 90
11
 70
0
 10
11.0523992123
 20
21.4361122501
 10
11.0516831021
 20
21.4331086601
 10
11.0509720542
 20
21.4284486631
 10
11.0502660686
 20
21.4221322589
 10
11.0495639589
 20
21.4141432921
 10
11.0488669116
 20
21.4044979182
 10
11.0481784856
 20
21.3932446037
 10
11.0474987324
 20
21.3803750631
 10
11.0468276006
 20
21.3658975819
 10
11.0461684946
 20
21.3498854828
 10
11.0448865026
 20
21.313242272
  0
LINE
  5
2DA
100
AcDbEntity
  8
ASSI
100
AcDbLine
 62
253
  6
CONTINUOUS
 10
11.1368701559
 20
-0.3632753592
 11
11.0284989185
 21
-0.4174568512
  0
LINE
  5
2DB
100
AcDbEntity
  8
ASSI
100
AcDbLine
 62
253
  6
CONTINUOUS
 10
11.0284989185
 20
0.2908604422
 11
11.1368701559
 21
0.2366789502
  0
LWPOLYLINE
  5
2DC
100
AcDbEntity
  8
ASSI
100
AcDbPolyline
 62
253
  6
CONTINUOUS
 90
8
 70
0
 10
10.5524755651
 20
21.9354279251
 10
10.5517592099
 20
21.9309468347
 10
10.5510479892
 20
21.9239510415
 10
10.5503419029
 20
21.9144523324
 10
10.5496397924
 20
21.9024668041
 10
10.5489428163
 20
21.8880145852
 10
10.5482544513
 20
21.871119624
 10
10.5469035925
 20
21.830117878
  0
LWPOLYLINE
  5
2DD
100
AcDbEntity
  8
ASSI
100
AcDbPolyline
 62
253
  6
CONTINUOUS
 90
9
 70
0
 10
11.0468276006
 20
-21.4924939906
 10
11.0474987324
 20
-21.5069714718
 10
11.0481784856
 20
-21.5198410124
 10
11.0488669116
 20
-21.5310943269
 10
11.0495639589
 20
-21.5407397009
 10
11.0502660686
 20
-21.5487286677
 10
11.0509720542
 20
-21.5550450719
 10
11.0516831021
 20
-21.5597050691
 10
11.0523992123
 20
-21.5627086591
  0
LWPOLYLINE
  5
2DE
100
AcDbEntity
  8
ASSI
100
AcDbPolyline
 62
253
  6
CONTINUOUS
 90
7
 70
0
 10
10.5482544512
 20
-21.9977160326
 10
10.5489428162
 20
-22.0146109938
 10
10.5496397923
 20
-22.0290632128
 10
10.5503419029
 20
-22.0410487411
 10
10.5510479892
 20
-22.0505474503
 10
10.5517592099
 20
-22.0575432436
 10
10.5524755651
 20
-22.062024334
  0
LINE
  5
2DF
100
AcDbEntity
  8
ASSI
100
AcDbLine
 62
253
  6
CONTINUOUS
 10
10.5469035924
 20
-21.9567142865
 11
10.5482544512
 21
-21.9977160326
  0
LINE
  5
2E0
100
AcDbEntity
  8
ASSI
100
AcDbLine
 62
253
  6
CONTINUOUS
 10
10.5455975156
 20
-21.906336614
 11
10.5469035924
 21
-21.9567142865
  0
LINE
  5
2E1
100
AcDbEntity
  8
ASSI
100
AcDbLine
 62
253
  6
CONTINUOUS
 10
10.543738375
 20
-21.8139508566
 11
10.5455975156
 21
-21.906336614
  0
LINE
  5
2E2
100
AcDbEntity
  8
ASSI
100
AcDbLine
 62
253
  6
CONTINUOUS
 10
10.5455975156
 20
21.7797402057
 11
10.543738375
 21
21.6873544483
  0
LINE
  5
2E3
100
AcDbEntity
  8
ASSI
100
AcDbLine
 62
253
  6
CONTINUOUS
 10
10.5469035925
 20
21.830117878
 11
10.5455975156
 21
21.7797402057
  0
LWPOLYLINE
  5
2E4
100
AcDbEntity
  8
CURVE
100
AcDbPolyline
 62
253
  6
CONTINUOUS
 90
60
 70
0
 10
0.1114782498
 20
14.6231619824
 10
0.1088799178
 20
14.6267052226
 10
0.1062043797
 20
14.6301277521
 10
0.103446672
 20
14.6334409648
 10
0.1006018314
 20
14.6366562541
 10
0.0976648945
 20
14.6397850138
 10
0.094630898
 20
14.6428386376
 10
0.0908563714
 20
14.6464156003
 10
0.0869346132
 20
14.6498949704
 10
0.0828653049
 20
14.653270944
 10
0.0786481279
 20
14.6565377174
 10
0.0742827639
 20
14.6596894868
 10
0.0705327076
 20
14.6622233619
 10
0.0666863903
 20
14.6646666129
 10
0.0627506796
 20
14.6670125097
 10
0.0587324434
 20
14.6692543224
 10
0.0546385494
 20
14.6713853212
 10
0.0504758655
 20
14.6733987762
 10
0.0462502085
 20
14.6752883791
 10
0.0419631918
 20
14.6770495093
 10
0.0376153775
 20
14.6786779677
 10
0.0332073283
 20
14.6801695554
 10
0.0287396063
 20
14.6815200735
 10
0.0242127741
 20
14.6827253229
 10
0.0196287059
 20
14.6837806008
 10
0.0149945243
 20
14.6846791891
 10
0.0103186635
 20
14.685413866
 10
0.0056095579
 20
14.6859774095
 10
0.0008756421
 20
14.6863625977
 10
-0.0038746497
 20
14.6865622086
 10
-0.0086334869
 20
14.6865707755
 10
-0.013395455
 20
14.686389852
 10
-0.0181557433
 20
14.6860227467
 10
-0.0229095412
 20
14.6854727686
 10
-0.0276520379
 20
14.6847432263
 10
-0.0323784228
 20
14.6838374285
 10
-0.03708359
 20
14.6827588392
 10
-0.0417612522
 20
14.6815115424
 10
-0.0464048269
 20
14.6800997774
 10
-0.0510077316
 20
14.6785277836
 10
-0.0555633836
 20
14.6767998001
 10
-0.0600652006
 20
14.6749200662
 10
-0.0645059461
 20
14.6728937567
 10
-0.068875769
 20
14.6707297889
 10
-0.0731641645
 20
14.6684380153
 10
-0.0773606275
 20
14.6660282888
 10
-0.0814546532
 20
14.663510462
 10
-0.0854357367
 20
14.6608943876
 10
-0.0892955043
 20
14.6581887576
 10
-0.0930341075
 20
14.6553976207
 10
-0.0966538293
 20
14.6525238648
 10
-0.1001569524
 20
14.6495703779
 10
-0.1035457596
 20
14.6465400477
 10
-0.1068225339
 20
14.6434357624
 10
-0.1099899996
 20
14.6402577512
 10
-0.1130526469
 20
14.6369956098
 10
-0.1160154077
 20
14.6336362751
 10
-0.1188832137
 20
14.6301666843
 10
-0.1216609967
 20
14.6265737744
 10
-0.1243536886
 20
14.6228444824
  0
LWPOLYLINE
  5
2E5
100
AcDbEntity
  8
ASSI
100
AcDbPolyline
 62
253
  6
CONTINUOUS
 90
22
 70
0
 10
11.0284986285
 20
-0.4174569962
 10
11.027937304
 20
-0.4025129693
 10
11.0262610207
 20
-0.3876525008
 10
11.0234791516
 20
-0.3729586808
 10
11.0196072513
 20
-0.358513667
 10
11.0146669693
 20
-0.3443982265
 10
11.0086859289
 20
-0.3306912841
 10
11.0016975726
 20
-0.3174694796
 10
10.9937409751
 20
-0.3048067403
 10
10.984860625
 20
-0.292773868
 10
10.975106176
 20
-0.2814381421
 10
10.9645321687
 20
-0.2708629439
 10
10.9531977268
 20
-0.2611074026
 10
10.9411662252
 20
-0.2522260641
 10
10.9285049362
 20
-0.2442685861
 10
10.915284654
 20
-0.2372794609
 10
10.9015792976
 20
-0.2312977662
 10
10.8874654983
 20
-0.2263569468
 10
10.873022171
 20
-0.2224846275
 10
10.8583300731
 20
-0.2197024588
 10
10.8434713527
 20
-0.218025996
 10
10.8285290894
 20
-0.2174646116
  0
LINE
  5
2E6
100
AcDbEntity
  8
ASSI
100
AcDbLine
 62
253
  6
CONTINUOUS
 10
11.0455214856
 20
-21.4589275949
 11
11.0468276006
 21
-21.4924939906
  0
LINE
  5
2E7
100
AcDbEntity
  8
ASSI
100
AcDbLine
 62
253
  6
CONTINUOUS
 10
11.0442667365
 20
-21.4193112086
 11
11.0455214856
 21
-21.4589275949
  0
LWPOLYLINE
  5
2E8
100
AcDbEntity
  8
ASSI
100
AcDbPolyline
 62
253
  6
CONTINUOUS
 90
28
 70
0
 10
11.0523992123
 20
21.4361122501
 10
11.051527869
 20
21.4651279618
 10
11.0489698536
 20
21.4940456084
 10
11.0447338115
 20
21.5227674556
 10
11.0388340593
 20
21.5511964308
 10
11.0312905366
 20
21.579236451
 10
11.0221287385
 20
21.6067927481
 10
11.0113796293
 20
21.6337721886
 10
10.9990795383
 20
21.6600835888
 10
10.9852700366
 20
21.6856380226
 10
10.9699977966
 20
21.7103491223
 10
10.9533144347
 20
21.7341333706
 10
10.9352763364
 20
21.7569103825
 10
10.9159444657
 20
21.7786031774
 10
10.8953841596
 20
21.7991384388
 10
10.8736649067
 20
21.8184467625
 10
10.8508601126
 20
21.8364628913
 10
10.8270468518
 20
21.8531259349
 10
10.8023056071
 20
21.8683795761
 10
10.7767199979
 20
21.8821722616
 10
10.750376497
 20
21.8944573752
 10
10.723364139
 20
21.9051933963
 10
10.6957742191
 20
21.9143440397
 10
10.6676999842
 20
21.9218783783
 10
10.6392363186
 20
21.9277709481
 10
10.6104794222
 20
21.9320018333
 10
10.5815264864
 20
21.9345567348
 10
10.5524753647
 20
21.9354270175
  0
LINE
  5
2E9
100
AcDbEntity
  8
ASSI
100
AcDbLine
 62
253
  6
CONTINUOUS
 10
11.0430730068
 20
-21.3739261594
 11
11.0442667365
 21
-21.4193112086
  0
LINE
  5
2EA
100
AcDbEntity
  8
ASSI
100
AcDbLine
 62
253
  6
CONTINUOUS
 10
11.0414145007
 20
-21.2957519724
 11
11.0430730068
 21
-21.3739261594
  0
LINE
  5
2EB
100
AcDbEntity
  8
ASSI
100
AcDbLine
 62
253
  6
CONTINUOUS
 10
11.0394875116
 20
-21.1745394839
 11
11.0414145007
 21
-21.2957519724
  0
LINE
  5
2EC
100
AcDbEntity
  8
ASSI
100
AcDbLine
 62
253
  6
CONTINUOUS
 10
10.5414906958
 20
-21.6616204522
 11
10.543738375
 21
-21.8139508566
  0
LINE
  5
2ED
100
AcDbEntity
  8
ASSI
100
AcDbLine
 62
253
  6
CONTINUOUS
 10
11.0376063267
 20
-21.0003312284
 11
11.0394875116
 21
-21.1745394839
  0
LINE
  5
2EE
100
AcDbEntity
  8
ASSI
100
AcDbLine
 62
253
  6
CONTINUOUS
 10
10.5387365702
 20
-21.3793008281
 11
10.5414906958
 21
-21.6616204522
  0
LINE
  5
2EF
100
AcDbEntity
  8
ASSI
100
AcDbLine
 62
253
  6
CONTINUOUS
 10
11.03622398
 20
-20.7678474388
 11
11.0376063267
 21
-21.0003312284
  0
LINE
  5
2F0
100
AcDbEntity
  8
ASSI
100
AcDbLine
 62
253
  6
CONTINUOUS
 10
10.5364607141
 20
-20.9297887608
 11
10.5387365702
 21
-21.3793008281
  0
LINE
  5
2F1
100
AcDbEntity
  8
ASSI
100
AcDbLine
 62
7
  6
CONTINUOUS
 10
11.1368701559
 20
13.0367017955
 11
11.1237162508
 21
21.6502373553
  0
LINE
  5
2F2
100
AcDbEntity
  8
ASSI
100
AcDbLine
 62
253
  6
CONTINUOUS
 10
10.5311452753
 20
-12.2088781866
 11
10.5364607141
 21
-20.9297887608
  0
LINE
  5
2F3
100
AcDbEntity
  8
ASSI
100
AcDbLine
 62
253
  6
CONTINUOUS
 10
11.0310687041
 20
-12.195739152
 11
11.03622398
 21
-20.7678474388
  0
LINE
  5
2F4
100
AcDbEntity
  8
ASSI
100
AcDbLine
 62
253
  6
CONTINUOUS
 10
10.5311452753
 20
-12.2088781866
 11
10.5285748102
 21
-0.2200369652
  0
LINE
  5
2F5
100
AcDbEntity
  8
ASSI
100
AcDbLine
 62
253
  6
CONTINUOUS
 10
11.0284989185
 20
-0.4174568512
 11
11.0310687041
 21
-12.195739152
  0
LINE
  5
2F6
100
AcDbEntity
  8
ASSI
100
AcDbLine
 62
7
  6
CONTINUOUS
 10
11.1368701559
 20
-0.3632753592
 11
11.1368701559
 21
-13.1632982045
  0
LINE
  5
2F7
100
AcDbEntity
  8
ASSI
100
AcDbLine
 62
7
  6
CONTINUOUS
 10
11.1368701559
 20
0.2366789502
 11
11.1368701559
 21
13.0367017955
  0
LINE
  5
2F8
100
AcDbEntity
  8
ASSI
100
AcDbLine
 62
7
  6
CONTINUOUS
 10
11.1368701559
 20
-13.1632982045
 11
11.1237162508
 21
-21.7768337642
  0
LINE
  5
2F9
100
AcDbEntity
  8
ASSI
100
AcDbLine
 62
253
  6
CONTINUOUS
 10
10.5373835086
 20
21.0359947224
 11
10.5285748102
 21
0.0934405562
  0
LINE
  5
2FA
100
AcDbEntity
  8
ASSI
100
AcDbLine
 62
253
  6
CONTINUOUS
 10
11.0365731316
 20
20.7208493128
 11
11.0284989185
 21
0.2908604422
  0
LINE
  5
2FB
100
AcDbEntity
  8
ASSI
100
AcDbLine
 62
253
  6
CONTINUOUS
 10
10.5400123654
 20
21.4011556138
 11
10.5373835086
 21
21.0359947224
  0
LINE
  5
2FC
100
AcDbEntity
  8
ASSI
100
AcDbLine
 62
253
  6
CONTINUOUS
 10
11.0382836169
 20
20.9460573496
 11
11.0365731316
 21
20.7208493128
  0
LINE
  5
2FD
100
AcDbEntity
  8
ASSI
100
AcDbLine
 62
253
  6
CONTINUOUS
 10
10.5425780861
 20
21.6151545116
 11
10.5400123654
 21
21.4011556138
  0
LINE
  5
2FE
100
AcDbEntity
  8
ASSI
100
AcDbLine
 62
253
  6
CONTINUOUS
 10
11.0399361255
 20
21.0799043986
 11
11.0382836169
 21
20.9460573496
  0
LINE
  5
2FF
100
AcDbEntity
  8
ASSI
100
AcDbLine
 62
253
  6
CONTINUOUS
 10
10.543738375
 20
21.6873544483
 11
10.5425780861
 21
21.6151545116
  0
LINE
  5
300
100
AcDbEntity
  8
ASSI
100
AcDbLine
 62
253
  6
CONTINUOUS
 10
11.0419491256
 20
21.1965367558
 11
11.0399361255
 21
21.0799043986
  0
LINE
  5
301
100
AcDbEntity
  8
ASSI
100
AcDbLine
 62
253
  6
CONTINUOUS
 10
11.0436622631
 20
21.2707415542
 11
11.0419491256
 21
21.1965367558
  0
LWPOLYLINE
  5
302
100
AcDbEntity
  8
ASSI
100
AcDbPolyline
 62
253
  6
CONTINUOUS
 90
28
 70
0
 10
11.0523992123
 20
-21.5627086591
 10
11.0515278684
 20
-21.59172438
 10
11.0489698515
 20
-21.6206420351
 10
11.044733807
 20
-21.6493638898
 10
11.0388340518
 20
-21.6777928714
 10
11.0312905255
 20
-21.7058328971
 10
11.0221287233
 20
-21.7333891986
 10
11.01137961
 20
-21.7603686424
 10
10.9990795147
 20
-21.7866800448
 10
10.9852700088
 20
-21.8122344797
 10
10.9699977649
 20
-21.8369455796
 10
10.9533143994
 20
-21.8607298271
 10
10.9352762979
 20
-21.8835068373
 10
10.9159444248
 20
-21.9051996297
 10
10.8953841169
 20
-21.9257348881
 10
10.8736648629
 20
-21.9450432083
 10
10.8508600685
 20
-21.9630593331
 10
10.8270468082
 20
-21.9797223725
 10
10.802305565
 20
-21.9949760095
 10
10.7767199579
 20
-22.0087686907
 10
10.7503764601
 20
-22.0210538002
 10
10.7233641059
 20
-22.0317898174
 10
10.6957741904
 20
-22.0409404573
 10
10.6676999605
 20
-22.048474793
 10
10.6392363003
 20
-22.0543673603
 10
10.6104794098
 20
-22.0585982438
 10
10.58152648
 20
-22.0611531441
 10
10.5524753647
 20
-22.0620234265
  0
LINE
  5
303
100
AcDbEntity
  8
ASSI
100
AcDbLine
 62
253
  6
CONTINUOUS
 10
11.0448865026
 20
21.313242272
 11
11.0436622631
 21
21.2707415542
  0
LWPOLYLINE
  5
304
100
AcDbEntity
  8
ASSI
100
AcDbPolyline
 62
253
  6
CONTINUOUS
 90
22
 70
0
 10
11.0284986285
 20
0.2908605872
 10
11.0279373057
 20
0.2759165838
 10
11.0262610275
 20
0.2610561371
 10
11.0234791664
 20
0.2463623367
 10
11.0196072767
 20
0.2319173403
 10
11.0146670074
 20
0.2178019145
 10
11.0086859811
 20
0.2040949833
 10
11.0016976396
 20
0.1908731865
 10
10.9937410571
 20
0.1782104515
 10
10.9848607212
 20
0.1661775796
 10
10.975106285
 20
0.1548418505
 10
10.9645322884
 20
0.1442666459
 10
10.9531978542
 20
0.1345110953
 10
10.9411663569
 20
0.1256297449
 10
10.9285050683
 20
0.1176722534
 10
10.9152847819
 20
0.1106831135
 10
10.9015794165
 20
0.1047014039
 10
10.8874656032
 20
0.0997605701
 10
10.8730222569
 20
0.0958882381
 10
10.8583301349
 20
0.0931060592
 10
10.8434713858
 20
0.0914295895
 10
10.8285290894
 20
0.0908682026
  0
LINE
  5
305
100
AcDbEntity
  8
CURVE
100
AcDbLine
 62
253
  6
CONTINUOUS
 10
2.4638569956
 20
-12.1354986698
 11
-0.0201571077
 21
-14.477413947
  0
LINE
  5
306
100
AcDbEntity
  8
CURVE
100
AcDbLine
 62
253
  6
CONTINUOUS
 10
0.0980940004
 20
-14.7494408914
 11
2.8922350403
 21
-12.115143392
  0
LWPOLYLINE
  5
307
100
AcDbEntity
  8
CURVE
100
AcDbPolyline
 62
253
  6
CONTINUOUS
 90
79
 70
0
 10
2.8922350403
 20
-12.115143392
 10
2.8954728672
 20
-12.1130322046
 10
2.8985646335
 20
-12.1108718492
 10
2.9015458892
 20
-12.1086423782
 10
2.9044521841
 20
-12.1063238443
 10
2.9082537273
 20
-12.1030706259
 10
2.9119593413
 20
-12.099643406
 10
2.9155431605
 20
-12.0960619797
 10
2.9181384295
 20
-12.0932845314
 10
2.9206570807
 20
-12.0904272973
 10
2.9231036921
 20
-12.0874877381
 10
2.9254753893
 20
-12.0844698749
 10
2.9285153882
 20
-12.0803297308
 10
2.9314172984
 20
-12.0760480309
 10
2.9341846338
 20
-12.0716123619
 10
2.9368182595
 20
-12.0670129431
 10
2.9393084432
 20
-12.0622505248
 10
2.9416428034
 20
-12.0573284898
 10
2.9438091657
 20
-12.0522529697
 10
2.9457961839
 20
-12.04704109
 10
2.9475927186
 20
-12.0417127247
 10
2.9491889905
 20
-12.0362896575
 10
2.9505806591
 20
-12.0308013104
 10
2.9517647436
 20
-12.025279015
 10
2.9527392899
 20
-12.0197449679
 10
2.9535064508
 20
-12.0141848257
 10
2.9540694056
 20
-12.00857511
 10
2.9544302512
 20
-12.0028992396
 10
2.9545867558
 20
-11.9971682237
 10
2.9545356051
 20
-11.9913999687
 10
2.954273485
 20
-11.9856123811
 10
2.9537970812
 20
-11.9798233675
 10
2.9531030796
 20
-11.9740508344
 10
2.9521896378
 20
-11.9683123464
 10
2.9510608012
 20
-11.9626241012
 10
2.9497220871
 20
-11.9570019546
 10
2.9481790127
 20
-11.9514617624
 10
2.9464370951
 20
-11.9460193803
 10
2.9445018518
 20
-11.9406906641
 10
2.9423760022
 20
-11.9354856956
 10
2.9400510754
 20
-11.9303914598
 10
2.9375158027
 20
-11.9253891678
 10
2.9354710079
 20
-11.9216900493
 10
2.9333056689
 20
-11.9180455442
 10
2.9310238996
 20
-11.9144691164
 10
2.9286298141
 20
-11.91097423
 10
2.9261280573
 20
-11.9075736088
 10
2.9235253988
 20
-11.9042770174
 10
2.9208291393
 20
-11.9010934804
 10
2.9180465792
 20
-11.8980320224
 10
2.9151846322
 20
-11.8950995239
 10
2.9122486636
 20
-11.8922942895
 10
2.9092436514
 20
-11.8896124794
 10
2.9061745739
 20
-11.8870502539
 10
2.9019886023
 20
-11.8838123255
 10
2.8976924946
 20
-11.8807649926
 10
2.8932811583
 20
-11.8778930817
 10
2.8887533353
 20
-11.8751840549
 10
2.8841231039
 20
-11.8726359164
 10
2.8794083763
 20
-11.8702493062
 10
2.8746257077
 20
-11.8680247036
 10
2.8697862234
 20
-11.8659619468
 10
2.8648996913
 20
-11.8640607136
 10
2.8599758794
 20
-11.8623206819
 10
2.8550245556
 20
-11.8607415295
 10
2.8500554879
 20
-11.8593229342
 10
2.845075918
 20
-11.8580652878
 10
2.8400829831
 20
-11.8569718377
 10
2.8350712941
 20
-11.8560465453
 10
2.8300363824
 20
-11.8552940894
 10
2.8249774606
 20
-11.8547220185
 10
2.8198946618
 20
-11.8543385986
 10
2.814792345
 20
-11.8541514598
 10
2.8096917741
 20
-11.8541656891
 10
2.8046184392
 20
-11.8543857375
 10
2.8008401387
 20
-11.85468994
 10
2.7970632099
 20
-11.8551228155
 10
2.7932593661
 20
-11.8556947601
 10
2.7894003207
 20
-11.8564161699
  0
LINE
  5
308
100
AcDbEntity
  8
CURVE
100
AcDbLine
 62
253
  6
CONTINUOUS
 10
-2.8156600089
 20
11.7298197609
 11
2.8120648756
 21
11.7298197609
  0
LINE
  5
309
100
AcDbEntity
  8
CURVE
100
AcDbLine
 62
253
  6
CONTINUOUS
 10
-0.0061025805
 20
14.350817538
 11
2.4859195781
 21
12.0089022608
  0
LINE
  5
30A
100
AcDbEntity
  8
CURVE
100
AcDbLine
 62
253
  6
CONTINUOUS
 10
2.914579845
 20
11.988546983
 11
0.1114782498
 21
14.6231619824
  0
LINE
  5
30B
100
AcDbEntity
  8
CURVE
100
AcDbLine
 62
253
  6
CONTINUOUS
 10
2.4859195781
 20
12.0089022608
 11
-2.4901166838
 21
12.0089022608
  0
LWPOLYLINE
  5
30C
100
AcDbEntity
  8
CURVE
100
AcDbPolyline
 62
253
  6
CONTINUOUS
 90
78
 70
0
 10
2.8120648756
 20
11.7298197609
 10
2.8158593463
 20
11.7291129684
 10
2.8195790796
 20
11.7285428227
 10
2.8232651737
 20
11.7280989317
 10
2.8269587264
 20
11.7277709029
 10
2.8319442946
 20
11.7275005664
 10
2.8369827748
 20
11.7274217005
 10
2.8420407555
 20
11.7275382735
 10
2.8458305943
 20
11.7277558422
 10
2.8496204429
 20
11.7280842218
 10
2.8534155907
 20
11.7285221708
 10
2.8572111481
 20
11.7290689052
 10
2.86226445
 20
11.7299673705
 10
2.8673162669
 20
11.7310649834
 10
2.8723776024
 20
11.7323686854
 10
2.8774556495
 20
11.7338853837
 10
2.8825423593
 20
11.7356218492
 10
2.8876258724
 20
11.7375848187
 10
2.8926926578
 20
11.7397787972
 10
2.8977224979
 20
11.7421993637
 10
2.9026935035
 20
11.7448398655
 10
2.9075834889
 20
11.7476912395
 10
2.912369083
 20
11.7507347804
 10
2.9170266184
 20
11.7539493724
 10
2.9215395676
 20
11.7573200405
 10
2.9259199644
 20
11.7608563732
 10
2.9301869826
 20
11.7645740998
 10
2.9343540692
 20
11.7684844099
 10
2.9384117624
 20
11.7725803332
 10
2.9423448733
 20
11.7768503595
 10
2.9461382132
 20
11.7812829786
 10
2.9497765933
 20
11.7858666804
 10
2.9532448248
 20
11.7905899547
 10
2.9565291269
 20
11.7954405666
 10
2.9596213515
 20
11.8004033828
 10
2.9625147587
 20
11.8054625448
 10
2.9652026086
 20
11.8106021947
 10
2.967678161
 20
11.8158064743
 10
2.9699346762
 20
11.8210595253
 10
2.9719672012
 20
11.8263519492
 10
2.9737779325
 20
11.8317001861
 10
2.9753708537
 20
11.8371271359
 10
2.9764235864
 20
11.8412589307
 10
2.9773492231
 20
11.8454344534
 10
2.978140945
 20
11.8496402748
 10
2.9787919336
 20
11.8538629658
 10
2.9792963533
 20
11.8580892827
 10
2.9796523015
 20
11.8623067234
 10
2.9798588587
 20
11.8665029713
 10
2.9799151052
 20
11.8706657099
 10
2.979821481
 20
11.8747845025
 10
2.9795838628
 20
11.8788564323
 10
2.9792094872
 20
11.8828804626
 10
2.9787055903
 20
11.8868555565
 10
2.9778431697
 20
11.8920808936
 10
2.9767709802
 20
11.8972336942
 10
2.9754966482
 20
11.9023302629
 10
2.9740287273
 20
11.9073823486
 10
2.9723794796
 20
11.9123834773
 10
2.9705620942
 20
11.9173226192
 10
2.9681760576
 20
11.923153709
 10
2.96557887
 20
11.9288694264
 10
2.9627825067
 20
11.9344595425
 10
2.9597989428
 20
11.9399138285
 10
2.9566401532
 20
11.9452220556
 10
2.9538803116
 20
11.9495275182
 10
2.9510002098
 20
11.9537238819
 10
2.9479929559
 20
11.9578105811
 10
2.9448518129
 20
11.9617860909
 10
2.9415706635
 20
11.965645049
 10
2.9381435451
 20
11.9693811339
 10
2.9345679985
 20
11.9729855747
 10
2.9308555779
 20
11.9764398029
 10
2.9270213408
 20
11.9797228004
 10
2.9240691781
 20
11.9820633592
 10
2.9210297101
 20
11.9843068567
 10
2.9178756835
 20
11.9864643718
 10
2.914579845
 20
11.988546983
  0
LINE
  5
30D
100
AcDbEntity
  8
ASSI
100
AcDbLine
 62
7
  6
CONTINUOUS
 10
7.7926600301
 20
22.1481830831
 11
7.4446051828
 21
22.1165891225
  0
LINE
  5
30E
100
AcDbEntity
  8
ASSI
100
AcDbLine
 62
253
  6
CONTINUOUS
 10
-10.9022632058
 20
20.4934382914
 11
-10.8579305067
 21
20.4949759922
  0
LINE
  5
30F
100
AcDbEntity
  8
ASSI
100
AcDbLine
 62
253
  6
CONTINUOUS
 10
-10.8579305067
 20
20.4949759922
 11
-10.8096868794
 21
20.4962972213
  0
LINE
  5
310
100
AcDbEntity
  8
ASSI
100
AcDbLine
 62
253
  6
CONTINUOUS
 10
-10.8096868794
 20
20.4962972213
 11
-10.7581703462
 21
20.4973845055
  0
LINE
  5
311
100
AcDbEntity
  8
ASSI
100
AcDbLine
 62
253
  6
CONTINUOUS
 10
-10.7581703462
 20
20.4973845055
 11
-10.7040622135
 21
20.4982234656
  0
LINE
  5
312
100
AcDbEntity
  8
ASSI
100
AcDbLine
 62
253
  6
CONTINUOUS
 10
-10.7040622135
 20
20.4982234656
 11
-10.6480780618
 21
20.4988030061
  0
LINE
  5
313
100
AcDbEntity
  8
ASSI
100
AcDbLine
 62
253
  6
CONTINUOUS
 10
-10.6480780618
 20
20.4988030061
 11
-10.5909582818
 21
20.4991154628
  0
LINE
  5
314
100
AcDbEntity
  8
ASSI
100
AcDbLine
 62
253
  6
CONTINUOUS
 10
-10.5909582818
 20
20.4991154628
 11
10.5359485697
 21
20.4991496264
  0
LINE
  5
315
100
AcDbEntity
  8
ASSI
100
AcDbLine
 62
253
  6
CONTINUOUS
 10
10.5933534839
 20
20.4989929782
 11
10.5359485941
 21
20.4991701203
  0
LINE
  5
316
100
AcDbEntity
  8
ASSI
100
AcDbLine
 62
253
  6
CONTINUOUS
 10
10.6499991931
 20
20.4985462399
 11
10.5933534839
 21
20.4989929782
  0
LINE
  5
317
100
AcDbEntity
  8
ASSI
100
AcDbLine
 62
253
  6
CONTINUOUS
 10
10.7051365811
 20
20.4978358133
 11
10.6499991931
 21
20.4985462399
  0
LINE
  5
318
100
AcDbEntity
  8
ASSI
100
AcDbLine
 62
253
  6
CONTINUOUS
 10
10.758036455
 20
20.496871094
 11
10.7051365811
 21
20.4978358133
  0
LINE
  5
319
100
AcDbEntity
  8
ASSI
100
AcDbLine
 62
253
  6
CONTINUOUS
 10
10.807999213
 20
20.4956648403
 11
10.758036455
 21
20.496871094
  0
LINE
  5
31A
100
AcDbEntity
  8
ASSI
100
AcDbLine
 62
7
  6
CONTINUOUS
 10
-7.8189197184
 20
22.1481830831
 11
-7.4708648711
 21
22.1165891225
  0
LWPOLYLINE
  5
31B
100
AcDbEntity
  8
ASSI
100
AcDbPolyline
 62
253
  6
CONTINUOUS
 90
15
 70
0
 10
11.0358724417
 20
-20.605204061
 10
11.0345439688
 20
-20.6063865829
 10
11.0315656494
 20
-20.6075651918
 10
11.0269473387
 20
-20.6087359877
 10
11.0207043186
 20
-20.6098950965
 10
11.0128572472
 20
-20.6110386826
 10
11.0034320903
 20
-20.612162962
 10
10.9924600358
 20
-20.6132642144
 10
10.97997739
 20
-20.6143387957
 10
10.9660254578
 20
-20.6153831503
 10
10.9506504061
 20
-20.6163938224
 10
10.9339031106
 20
-20.6173674676
 10
10.9158389882
 20
-20.6183008641
 10
10.8965178126
 20
-20.6191909235
 10
10.8760035175
 20
-20.6200347004
  0
LINE
  5
31C
100
AcDbEntity
  8
ASSI
100
AcDbLine
 62
7
  6
CONTINUOUS
 10
-3.4073399699
 20
22.1481830831
 11
-3.7553948172
 21
22.1165891225
  0
LINE
  5
31D
100
AcDbEntity
  8
ASSI
100
AcDbLine
 62
253
  6
CONTINUOUS
 10
-10.5787353553
 20
21.9354279251
 11
10.5524756671
 21
21.9354279252
  0
LINE
  5
31E
100
AcDbEntity
  8
ASSI
100
AcDbLine
 62
7
  6
CONTINUOUS
 10
7.271400102
 20
22.1113483446
 11
3.9023402097
 21
22.1113483446
  0
LINE
  5
31F
100
AcDbEntity
  8
ASSI
100
AcDbLine
 62
7
  6
CONTINUOUS
 10
-3.928599898
 20
22.1113483446
 11
-7.2976597903
 21
22.1113483446
  0
LINE
  5
320
100
AcDbEntity
  8
ASSI
100
AcDbLine
 62
7
  6
CONTINUOUS
 10
10.6233364275
 20
22.1481830831
 11
7.7926600301
 21
22.1481830831
  0
LINE
  5
321
100
AcDbEntity
  8
ASSI
100
AcDbLine
 62
7
  6
CONTINUOUS
 10
3.3810802816
 20
22.1481830831
 11
-3.4073399699
 21
22.1481830831
  0
LINE
  5
322
100
AcDbEntity
  8
ASSI
100
AcDbLine
 62
7
  6
CONTINUOUS
 10
-7.8189197184
 20
22.1481830831
 11
-10.6495961158
 21
22.1481830831
  0
LINE
  5
323
100
AcDbEntity
  8
ASSI
100
AcDbLine
 62
7
  6
CONTINUOUS
 10
3.3810802816
 20
22.1481830831
 11
3.7291351289
 21
22.1165891225
  0
LWPOLYLINE
  5
324
100
AcDbEntity
  8
ASSI
100
AcDbPolyline
 62
253
  6
CONTINUOUS
 90
17
 70
0
 10
11.0358724417
 20
20.478607652
 10
11.0345439873
 20
20.4797901745
 10
11.0315656849
 20
20.4809687841
 10
11.0269473896
 20
20.4821395807
 10
11.0207043834
 20
20.4832986901
 10
11.0128573243
 20
20.484442277
 10
11.0034321781
 20
20.4855665571
 10
10.9924601326
 20
20.4866678103
 10
10.9799774941
 20
20.4877423925
 10
10.9660255677
 20
20.4887867479
 10
10.9506505202
 20
20.4897974207
 10
10.9339032274
 20
20.4907710667
 10
10.915839106
 20
20.4917044641
 10
10.89651793
 20
20.4925945242
 10
10.876003633
 20
20.4934383019
 10
10.8543640968
 20
20.494233005
 10
10.807999213
 20
20.4956648403
  0
LINE
  5
325
100
AcDbEntity
  8
ASSI
100
AcDbLine
 62
7
  6
CONTINUOUS
 10
-37.2589352431
 20
-22.0620243341
 11
-33.1993249939
 21
-22.274779492
  0
LINE
  5
326
100
AcDbEntity
  8
ASSI
100
AcDbLine
 62
253
  6
CONTINUOUS
 10
-37.2415107873
 20
-21.5627086591
 11
-33.1557603876
 21
-21.7768337642
  0
LINE
  5
327
100
AcDbEntity
  8
ASSI
100
AcDbLine
 62
253
  6
CONTINUOUS
 10
-38.6783535403
 20
-20.6257118718
 11
-38.6791792384
 21
-20.6257665125
  0
LINE
  5
328
100
AcDbEntity
  8
ASSI
100
AcDbLine
 62
253
  6
CONTINUOUS
 10
-38.6717592504
 20
-20.6253994151
 11
-38.6783535403
 21
-20.6257118718
  0
LINE
  5
329
100
AcDbEntity
  8
ASSI
100
AcDbLine
 62
253
  6
CONTINUOUS
 10
-38.188328843
 20
-20.605204061
 11
-38.6717592504
 21
-20.6253994151
  0
LINE
  5
32A
100
AcDbEntity
  8
ASSI
100
AcDbLine
 62
253
  6
CONTINUOUS
 10
-32.8021736733
 20
-17.9967898057
 11
-32.8250493941
 21
-17.9967898116
  0
LWPOLYLINE
  5
32B
100
AcDbEntity
  8
ASSI
100
AcDbPolyline
 62
253
  6
CONTINUOUS
 90
37
 70
0
 10
-38.188328843
 20
-20.605204061
 10
-38.1857868295
 20
-20.646252955
 10
-38.1815854547
 20
-20.6870317354
 10
-38.1757247186
 20
-20.7275404022
 10
-38.1681892293
 20
-20.7678474388
 10
-38.1589943788
 20
-20.8078843619
 10
-38.1481863424
 20
-20.8474457211
 10
-38.1357568403
 20
-20.8865283062
 10
-38.1217141522
 20
-20.9251353276
 10
-38.1061292933
 20
-20.9630709654
 10
-38.0889946371
 20
-21.0003312284
 10
-38.07031781
 20
-21.036920108
 10
-38.0501927063
 20
-21.0726537579
 10
-38.028612076
 20
-21.1075279317
 10
-38.0055831691
 20
-21.141546876
 10
-37.9812216293
 20
-21.1745394839
 10
-37.955520551
 20
-21.206500807
 10
-37.9284868397
 20
-21.2374357938
 10
-37.9002568553
 20
-21.2671881834
 10
-37.8708244922
 20
-21.2957519724
 10
-37.840195856
 20
-21.3231331642
 10
-37.8085256228
 20
-21.3491935088
 10
-37.7758087463
 20
-21.3739261594
 10
-37.7420502727
 20
-21.3973379627
 10
-37.7074200165
 20
-21.4193112086
 10
-37.6719136423
 20
-21.4398386805
 10
-37.6355354855
 20
-21.4589275949
 10
-37.5984683668
 20
-21.4764818914
 10
-37.560708211
 20
-21.4924939906
 10
-37.5222590932
 20
-21.5069714718
 10
-37.4833160597
 20
-21.5198410124
 10
-37.4438761605
 20
-21.5310943269
 10
-37.4039423455
 20
-21.5407397009
 10
-37.363718511
 20
-21.5487286677
 10
-37.3232726226
 20
-21.5550450719
 10
-37.2825367146
 20
-21.5597050691
 10
-37.2415107873
 20
-21.5627086591
  0
LWPOLYLINE
  5
32C
100
AcDbEntity
  8
ASSI
100
AcDbPolyline
 62
253
  6
CONTINUOUS
 90
8
 70
0
 10
-38.6105403176
 20
0.1176722534
 10
-38.61037055
 20
0.1106831135
 10
-38.6101835235
 20
0.1047014039
 10
-38.609980284
 20
0.0997605701
 10
-38.6097619678
 20
0.0958882381
 10
-38.6095297956
 20
0.0931060592
 10
-38.6092850655
 20
0.0914295895
 10
-38.6090291459
 20
0.0908682026
  0
LINE
  5
32D
100
AcDbEntity
  8
ASSI
100
AcDbLine
 62
253
  6
CONTINUOUS
 10
-38.6108243815
 20
0.1345110953
 11
-38.6105403176
 21
0.1176722534
  0
LINE
  5
32E
100
AcDbEntity
  8
ASSI
100
AcDbLine
 62
253
  6
CONTINUOUS
 10
-38.6110293707
 20
0.1548418505
 11
-38.6108243815
 21
0.1345110953
  0
LINE
  5
32F
100
AcDbEntity
  8
ASSI
100
AcDbLine
 62
253
  6
CONTINUOUS
 10
-38.61077432
 20
-0.4174569962
 11
-38.6111335117
 21
-0.358513667
  0
LWPOLYLINE
  5
330
100
AcDbEntity
  8
ASSI
100
AcDbPolyline
 62
253
  6
CONTINUOUS
 90
13
 70
0
 10
-38.6107577014
 20
-0.4174568512
 10
-38.6067360314
 20
-2.1003684442
 10
-38.5970440436
 20
-3.7831816451
 10
-38.5816817379
 20
-5.4658964542
 10
-38.5606482118
 20
-7.148519368
 10
-38.5339443677
 20
-8.8310438899
 10
-38.5015729135
 20
-10.5134505293
 10
-38.4635347869
 20
-12.195739152
 10
-38.4198290502
 20
-13.8779098921
 10
-38.370455598
 20
-15.5599436619
 10
-38.3154143951
 20
-17.2418340986
 10
-38.2547054768
 20
-18.923587565
 10
-38.188328843
 20
-20.605204061
  0
LINE
  5
331
100
AcDbEntity
  8
ASSI
100
AcDbLine
 62
253
  6
CONTINUOUS
 10
-38.6111790839
 20
0.1908731865
 11
-38.6110293707
 21
0.1548418505
  0
LINE
  5
332
100
AcDbEntity
  8
ASSI
100
AcDbLine
 62
253
  6
CONTINUOUS
 10
-38.6111335117
 20
-0.358513667
 11
-38.6111790847
 21
-0.3174694796
  0
LINE
  5
333
100
AcDbEntity
  8
ASSI
100
AcDbLine
 62
253
  6
CONTINUOUS
 10
-38.6111335108
 20
0.2319173403
 11
-38.6111790839
 21
0.1908731865
  0
LINE
  5
334
100
AcDbEntity
  8
ASSI
100
AcDbLine
 62
253
  6
CONTINUOUS
 10
-38.6111790847
 20
-0.3174694796
 11
-38.611029371
 21
-0.2814381421
  0
LINE
  5
335
100
AcDbEntity
  8
ASSI
100
AcDbLine
 62
253
  6
CONTINUOUS
 10
-38.61077432
 20
0.2908605872
 11
-38.6111335108
 21
0.2319173403
  0
LINE
  5
336
100
AcDbEntity
  8
ASSI
100
AcDbLine
 62
253
  6
CONTINUOUS
 10
-38.611029371
 20
-0.2814381421
 11
-38.6108243812
 21
-0.2611074026
  0
LWPOLYLINE
  5
337
100
AcDbEntity
  8
ASSI
100
AcDbPolyline
 62
253
  6
CONTINUOUS
 90
9
 70
0
 10
-38.6108243812
 20
-0.2611074026
 10
-38.610540317
 20
-0.2442685861
 10
-38.6103705492
 20
-0.2372794609
 10
-38.6101835227
 20
-0.2312977662
 10
-38.6099802831
 20
-0.2263569468
 10
-38.609761967
 20
-0.2224846275
 10
-38.6095297949
 20
-0.2197024588
 10
-38.6092850651
 20
-0.218025996
 10
-38.6090291459
 20
-0.2174646116
  0
LINE
  5
338
100
AcDbEntity
  8
CURVE
100
AcDbLine
 62
253
  6
CONTINUOUS
 10
-38.956905598
 20
11.988546983
 11
-38.9631301197
 21
11.7275550508
  0
LINE
  5
339
100
AcDbEntity
  8
CURVE
100
AcDbLine
 62
253
  6
CONTINUOUS
 10
-38.8864443471
 20
14.6228444824
 11
-38.8845676863
 21
14.6865707755
  0
LWPOLYLINE
  5
33A
100
AcDbEntity
  8
ASSI
100
AcDbPolyline
 62
253
  6
CONTINUOUS
 90
13
 70
0
 10
-38.188328843
 20
20.478607652
 10
-38.2547054768
 20
18.796991156
 10
-38.3154143951
 20
17.1152376897
 10
-38.370455598
 20
15.4333472529
 10
-38.4198290502
 20
13.7513134832
 10
-38.4635347869
 20
12.069142743
 10
-38.5015729135
 20
10.3868541204
 10
-38.5339443677
 20
8.704447481
 10
-38.5606482118
 20
7.0219229591
 10
-38.5816817379
 20
5.3393000452
 10
-38.5970440437
 20
3.6565852362
 10
-38.6067360315
 20
1.9737720352
 10
-38.6107577014
 20
0.2908604422
  0
LWPOLYLINE
  5
33B
100
AcDbEntity
  8
ASSI
100
AcDbPolyline
 62
253
  6
CONTINUOUS
 90
10
 70
0
 10
-37.259432009
 20
21.8531259349
 10
-37.2600758039
 20
21.8821722616
 10
-37.2602598118
 20
21.8944573752
 10
-37.2603509603
 20
21.9051933963
 10
-37.2603489413
 20
21.9143440397
 10
-37.2602537616
 20
21.9218783783
 10
-37.2600657429
 20
21.9277709481
 10
-37.2597855206
 20
21.9320018333
 10
-37.2594140419
 20
21.9345567348
 10
-37.2589525621
 20
21.9354270175
  0
LWPOLYLINE
  5
33C
100
AcDbEntity
  8
ASSI
100
AcDbPolyline
 62
253
  6
CONTINUOUS
 90
9
 70
0
 10
-37.2600758036
 20
-22.0087686907
 10
-37.2602598115
 20
-22.0210538002
 10
-37.2603509599
 20
-22.0317898174
 10
-37.2603489409
 20
-22.0409404573
 10
-37.2602537612
 20
-22.048474793
 10
-37.2600657425
 20
-22.0543673603
 10
-37.2597855203
 20
-22.0585982438
 10
-37.2594140417
 20
-22.0611531441
 10
-37.2589525622
 20
-22.0620234265
  0
LINE
  5
33D
100
AcDbEntity
  8
ASSI
100
AcDbLine
 62
253
  6
CONTINUOUS
 10
-37.259432009
 20
-21.9797223725
 11
-37.2600758036
 21
-22.0087686907
  0
LINE
  5
33E
100
AcDbEntity
  8
ASSI
100
AcDbLine
 62
253
  6
CONTINUOUS
 10
-37.2415107873
 20
21.4361122501
 11
-37.2486431559
 21
21.579236451
  0
LINE
  5
33F
100
AcDbEntity
  8
ASSI
100
AcDbLine
 62
253
  6
CONTINUOUS
 10
-37.2486431559
 20
21.579236451
 11
-37.2534161353
 21
21.6856380226
  0
LINE
  5
340
100
AcDbEntity
  8
ASSI
100
AcDbLine
 62
253
  6
CONTINUOUS
 10
-37.2534161353
 20
21.6856380226
 11
-37.2562787182
 21
21.7569103825
  0
LINE
  5
341
100
AcDbEntity
  8
ASSI
100
AcDbLine
 62
253
  6
CONTINUOUS
 10
-37.2562787182
 20
21.7569103825
 11
-37.2584282718
 21
21.8184467625
  0
LINE
  5
342
100
AcDbEntity
  8
ASSI
100
AcDbLine
 62
253
  6
CONTINUOUS
 10
-37.2584282718
 20
21.8184467625
 11
-37.259432009
 21
21.8531259349
  0
LINE
  5
343
100
AcDbEntity
  8
ASSI
100
AcDbLine
 62
253
  6
CONTINUOUS
 10
-37.2584282722
 20
-21.9450432083
 11
-37.259432009
 21
-21.9797223725
  0
LINE
  5
344
100
AcDbEntity
  8
ASSI
100
AcDbLine
 62
253
  6
CONTINUOUS
 10
-37.2562787193
 20
-21.8835068373
 11
-37.2584282722
 21
-21.9450432083
  0
LINE
  5
345
100
AcDbEntity
  8
ASSI
100
AcDbLine
 62
253
  6
CONTINUOUS
 10
-37.2534161368
 20
-21.8122344797
 11
-37.2562787193
 21
-21.8835068373
  0
LINE
  5
346
100
AcDbEntity
  8
ASSI
100
AcDbLine
 62
253
  6
CONTINUOUS
 10
-37.2486431572
 20
-21.7058328971
 11
-37.2534161368
 21
-21.8122344797
  0
LINE
  5
347
100
AcDbEntity
  8
ASSI
100
AcDbLine
 62
253
  6
CONTINUOUS
 10
-37.2415107873
 20
-21.5627086591
 11
-37.2486431572
 21
-21.7058328971
  0
LINE
  5
348
100
AcDbEntity
  8
ASSI
100
AcDbLine
 62
253
  6
CONTINUOUS
 10
-32.4021736733
 20
-0.3632753592
 11
-38.6107577014
 21
-0.4174568512
  0
LINE
  5
349
100
AcDbEntity
  8
ASSI
100
AcDbLine
 62
7
  6
CONTINUOUS
 10
-32.4021736733
 20
-0.1632982045
 11
-38.9037916711
 21
-0.2200369652
  0
LINE
  5
34A
100
AcDbEntity
  8
ASSI
100
AcDbLine
 62
253
  6
CONTINUOUS
 10
-38.6107577013
 20
-0.4174569049
 11
-39.1020463115
 21
-0.4201721074
  0
LINE
  5
34B
100
AcDbEntity
  8
ASSI
100
AcDbLine
 62
7
  6
CONTINUOUS
 10
-38.9037916711
 20
0.0934405562
 11
-32.4021736733
 21
0.0367017955
  0
LINE
  5
34C
100
AcDbEntity
  8
ASSI
100
AcDbLine
 62
7
  6
CONTINUOUS
 10
-32.8021736733
 20
17.8701933967
 11
-32.8021736733
 21
17.6087227166
  0
LINE
  5
34D
100
AcDbEntity
  8
ASSI
100
AcDbLine
 62
7
  6
CONTINUOUS
 10
-32.8021736733
 20
-17.7353191256
 11
-32.8021736733
 21
-17.9967898057
  0
LINE
  5
34E
100
AcDbEntity
  8
ASSI
100
AcDbLine
 62
7
  6
CONTINUOUS
 10
-32.4021736733
 20
-0.1632982045
 11
-32.4021736733
 21
-13.1632982045
  0
LINE
  5
34F
100
AcDbEntity
  8
ASSI
100
AcDbLine
 62
7
  6
CONTINUOUS
 10
-32.4021736733
 20
0.0367017955
 11
-32.4021736733
 21
13.0367017955
  0
LINE
  5
350
100
AcDbEntity
  8
ASSI
100
AcDbLine
 62
253
  6
CONTINUOUS
 10
-39.1020463115
 20
0.2935756984
 11
-38.6107577013
 21
0.2908604959
  0
LINE
  5
351
100
AcDbEntity
  8
ASSI
100
AcDbLine
 62
253
  6
CONTINUOUS
 10
-38.6107577014
 20
0.2908604422
 11
-32.4021736733
 21
0.2366789502
  0
LINE
  5
352
100
AcDbEntity
  8
ASSI
100
AcDbLine
 62
7
  6
CONTINUOUS
 10
-32.4021736733
 20
13.0367017955
 11
-33.1993249939
 21
22.1481830831
  0
LINE
  5
353
100
AcDbEntity
  8
ASSI
100
AcDbLine
 62
7
  6
CONTINUOUS
 10
-32.4021736733
 20
-13.1632982045
 11
-33.1993249939
 21
-22.274779492
  0
LINE
  5
354
100
AcDbEntity
  8
ASSI
100
AcDbLine
 62
253
  6
CONTINUOUS
 10
-32.8021736733
 20
17.8701933967
 11
-32.8250493936
 21
17.8701933967
  0
LWPOLYLINE
  5
355
100
AcDbEntity
  8
ASSI
100
AcDbPolyline
 62
253
  6
CONTINUOUS
 90
37
 70
0
 10
-37.2415107873
 20
21.4361122501
 10
-37.2825367142
 20
21.4331086601
 10
-37.3232726218
 20
21.4284486631
 10
-37.3637185101
 20
21.4221322589
 10
-37.4039423445
 20
21.4141432921
 10
-37.4438761595
 20
21.4044979182
 10
-37.4833160588
 20
21.3932446037
 10
-37.5222590924
 20
21.3803750631
 10
-37.5607082101
 20
21.3658975819
 10
-37.598468366
 20
21.3498854828
 10
-37.6355354847
 20
21.3323311863
 10
-37.6719136416
 20
21.313242272
 10
-37.7074200158
 20
21.2927148001
 10
-37.742050272
 20
21.2707415542
 10
-37.7758087456
 20
21.2473297509
 10
-37.8085256221
 20
21.2225971003
 10
-37.8401958554
 20
21.1965367558
 10
-37.8708244916
 20
21.169155564
 10
-37.9002568547
 20
21.140591775
 10
-37.9284868392
 20
21.1108393854
 10
-37.9555205505
 20
21.0799043986
 10
-37.9812216288
 20
21.0479430756
 10
-38.0055831687
 20
21.0149504676
 10
-38.0286120756
 20
20.9809315234
 10
-38.0501927059
 20
20.9460573496
 10
-38.0703178096
 20
20.9103236997
 10
-38.0889946368
 20
20.8737348201
 10
-38.106129293
 20
20.8364745571
 10
-38.121714152
 20
20.7985389193
 10
-38.13575684
 20
20.7599318979
 10
-38.1481863422
 20
20.7208493128
 10
-38.1589943787
 20
20.6812879536
 10
-38.1681892292
 20
20.6412510306
 10
-38.1757247185
 20
20.6009439939
 10
-38.1815854546
 20
20.560435327
 10
-38.1857868294
 20
20.5196565463
 10
-38.188328843
 20
20.478607652
  0
LINE
  5
356
100
AcDbEntity
  8
ASSI
100
AcDbLine
 62
253
  6
CONTINUOUS
 10
-33.1557603876
 20
21.6502373553
 11
-37.2415107873
 21
21.4361122501
  0
LINE
  5
357
100
AcDbEntity
  8
ASSI
100
AcDbLine
 62
7
  6
CONTINUOUS
 10
-33.1993249939
 20
22.1481830831
 11
-37.2589352424
 21
21.9354279252
  0
LWPOLYLINE
  5
358
100
AcDbEntity
  8
ASSI
100
AcDbPolyline
 62
253
  6
CONTINUOUS
 90
4
 70
0
 10
-38.188328843
 20
20.478607652
 10
-38.6758778828
 20
20.4989929782
 10
-38.6783539461
 20
20.4991154794
 10
-38.6791796455
 20
20.4991701203
  0
CIRCLE
  5
359
100
AcDbEntity
  8
ASSI
100
AcDbCircle
 62
7
  6
CONTINUOUS
 10
-0.0131298441
 20
4.4367017955
 40
1.3
  0
CIRCLE
  5
35A
100
AcDbEntity
  8
ASSI
100
AcDbCircle
 62
7
  6
CONTINUOUS
 10
-0.0131298441
 20
-4.5632982045
 40
1.3
  0
CIRCLE
  5
35B
100
AcDbEntity
  8
DRAFT
100
AcDbCircle
 62
7
  6
CONTINUOUS
 10
-0.0131298441
 20
-4.5632982045
 40
1.225
  0
CIRCLE
  5
35C
100
AcDbEntity
  8
DRAFT
100
AcDbCircle
 62
7
  6
CONTINUOUS
 10
-0.0131298441
 20
4.4367017955
 40
1.225
  0
CIRCLE
  5
35D
100
AcDbEntity
  8
RACCORDO
100
AcDbCircle
 62
253
  6
CONTINUOUS
 10
-0.0131298441
 20
-4.5632982045
 40
1.2068524201
  0
CIRCLE
  5
35E
100
AcDbEntity
  8
RACCORDO
100
AcDbCircle
 62
253
  6
CONTINUOUS
 10
-0.0131298441
 20
4.4367017955
 40
1.2068524201
  0
CIRCLE
  5
35F
100
AcDbEntity
  8
RACCORDO
100
AcDbCircle
 62
253
  6
CONTINUOUS
 10
-0.0131298441
 20
-4.5632982045
 40
1.1180464865
  0
CIRCLE
  5
360
100
AcDbEntity
  8
RACCORDO
100
AcDbCircle
 62
253
  6
CONTINUOUS
 10
-0.0131298441
 20
4.4367017955
 40
1.1180464865
  0
ARC
  5
361
100
AcDbEntity
  8
ASSI
100
AcDbCircle
 62
7
  6
CONTINUOUS
 10
-37.1804486278
 20
-20.5640791243
 40
1.5
100
AcDbArc
 50
182.356166499
 51
267.000662446
  0
ARC
  5
362
100
AcDbEntity
  8
ASSI
100
AcDbCircle
 62
7
  6
CONTINUOUS
 10
-33.1021736733
 20
-17.9967898057
 40
0.3
100
AcDbArc
 50
335.0
 51
360.0
  0
ARC
  5
363
100
AcDbEntity
  8
ASSI
100
AcDbCircle
 62
7
  6
CONTINUOUS
 10
-38.9020458534
 20
-0.4200293453
 40
0.2
100
AcDbArc
 50
90.5001462853
 51
180.0408961681
  0
ARC
  5
364
100
AcDbEntity
  8
ASSI
100
AcDbCircle
 62
7
  6
CONTINUOUS
 10
-37.1804486278
 20
20.4374827154
 40
1.5
100
AcDbArc
 50
92.999337554
 51
177.643833501
  0
ARC
  5
365
100
AcDbEntity
  8
ASSI
100
AcDbCircle
 62
7
  6
CONTINUOUS
 10
-33.1021736733
 20
17.8701933967
 40
0.3
100
AcDbArc
 50
0.0
 51
25.0
  0
ARC
  5
366
100
AcDbEntity
  8
ASSI
100
AcDbCircle
 62
7
  6
CONTINUOUS
 10
-38.9020458534
 20
0.2934329364
 40
0.2
100
AcDbArc
 50
179.9591038319
 51
269.4998537147
  0
ARC
  5
367
100
AcDbEntity
  8
ASSI
100
AcDbCircle
 62
7
  6
CONTINUOUS
 10
460.8978263267
 20
-0.0632982045
 40
500.0
100
AcDbArc
 50
177.6430523596
 51
179.9591052604
  0
ARC
  5
368
100
AcDbEntity
  8
ASSI
100
AcDbCircle
 62
7
  6
CONTINUOUS
 10
460.8978263267
 20
-0.0632982045
 40
500.0
100
AcDbArc
 50
180.0408947396
 51
182.3569476404
  0
ELLIPSE
  5
369
100
AcDbEntity
  8
ASSI
100
AcDbEllipse
 62
7
  6
CONTINUOUS
 10
7.271400102
 20
22.1218299005
 30
0.0
 11
0.2
 21
0.0
 31
0.0
 40
0.0524077793
 41
-1.5707963268
 42
-0.5235987756
  0
ELLIPSE
  5
36A
100
AcDbEntity
  8
ASSI
100
AcDbEllipse
 62
7
  6
CONTINUOUS
 10
3.9023402097
 20
22.1218299005
 30
0.0
 11
0.2
 21
0.0
 31
0.0
 40
0.0524077793
 41
-2.617993878
 42
-1.5707963268
  0
ELLIPSE
  5
36B
100
AcDbEntity
  8
ASSI
100
AcDbEllipse
 62
7
  6
CONTINUOUS
 10
-3.928599898
 20
22.1218299005
 30
0.0
 11
0.2
 21
0.0
 31
0.0
 40
0.0524077793
 41
-1.5707963268
 42
-0.5235987756
  0
ELLIPSE
  5
36C
100
AcDbEntity
  8
ASSI
100
AcDbEllipse
 62
7
  6
CONTINUOUS
 10
-7.2976597903
 20
22.1218299005
 30
0.0
 11
0.2
 21
-0.0
 31
0.0
 40
0.0524077793
 41
-2.617993878
 42
-1.5707963268
  0
ELLIPSE
  5
36D
100
AcDbEntity
  8
ASSI
100
AcDbEllipse
 62
7
  6
CONTINUOUS
 10
-10.9630993785
 20
0.2367094112
 30
0.0
 11
0.1789222233
 21
0.0894542984
 31
0.0
 40
0.9998096356
 41
2.6780516535
 42
4.2486956813
  0
ELLIPSE
  5
36E
100
AcDbEntity
  8
ASSI
100
AcDbEllipse
 62
7
  6
CONTINUOUS
 10
10.9368396903
 20
0.2367094112
 30
0.0
 11
0.1789222233
 21
-0.0894542984
 31
0.0
 40
0.9998096356
 41
-1.1071030277
 42
0.4635410001
  0
ELLIPSE
  5
36F
100
AcDbEntity
  8
ASSI
100
AcDbEllipse
 62
7
  6
CONTINUOUS
 10
-10.6499004703
 20
21.6497821216
 30
0.0
 11
0.498078285
 21
0.0448076117
 31
0.0
 40
0.9965957691
 41
1.4807720384
 42
3.0506549766
  0
ELLIPSE
  5
370
100
AcDbEntity
  8
ASSI
100
AcDbEllipse
 62
7
  6
CONTINUOUS
 10
10.623640782
 20
21.6497821216
 30
0.0
 11
0.498078285
 21
-0.0448076117
 31
0.0
 40
0.9965957691
 41
0.0909376769
 42
1.6608206152
  0
ELLIPSE
  5
371
100
AcDbEntity
  8
ASSI
100
AcDbEllipse
 62
7
  6
CONTINUOUS
 10
-7.2976597903
 20
-22.2484263094
 30
0.0
 11
0.2
 21
-0.0
 31
0.0
 40
0.0524077793
 41
1.5707963268
 42
2.617993878
  0
ELLIPSE
  5
372
100
AcDbEntity
  8
ASSI
100
AcDbEllipse
 62
7
  6
CONTINUOUS
 10
-3.928599898
 20
-22.2484263094
 30
0.0
 11
0.2
 21
0.0
 31
0.0
 40
0.0524077793
 41
0.5235987756
 42
1.5707963268
  0
ELLIPSE
  5
373
100
AcDbEntity
  8
ASSI
100
AcDbEllipse
 62
7
  6
CONTINUOUS
 10
3.9023402097
 20
-22.2484263094
 30
0.0
 11
0.2
 21
-0.0
 31
0.0
 40
0.0524077793
 41
1.5707963268
 42
2.617993878
  0
ELLIPSE
  5
374
100
AcDbEntity
  8
ASSI
100
AcDbEllipse
 62
7
  6
CONTINUOUS
 10
7.271400102
 20
-22.2484263094
 30
0.0
 11
0.2
 21
0.0
 31
0.0
 40
0.0524077793
 41
0.5235987756
 42
1.5707963268
  0
ELLIPSE
  5
375
100
AcDbEntity
  8
ASSI
100
AcDbEllipse
 62
7
  6
CONTINUOUS
 10
10.9368396903
 20
-0.3633058202
 30
0.0
 11
0.1789222233
 21
0.0894542984
 31
0.0
 40
0.9998096356
 41
-0.4635410001
 42
1.1071030277
  0
ELLIPSE
  5
376
100
AcDbEntity
  8
ASSI
100
AcDbEllipse
 62
7
  6
CONTINUOUS
 10
-10.9630993785
 20
-0.3633058202
 30
0.0
 11
0.1789222233
 21
-0.0894542984
 31
0.0
 40
0.9998096356
 41
2.0344896259
 42
3.6051336537
  0
ELLIPSE
  5
377
100
AcDbEntity
  8
ASSI
100
AcDbEllipse
 62
7
  6
CONTINUOUS
 10
10.623640782
 20
-21.7763785306
 30
0.0
 11
0.498078285
 21
0.0448076117
 31
0.0
 40
0.9965957691
 41
-1.6608206152
 42
-0.0909376769
  0
ELLIPSE
  5
378
100
AcDbEntity
  8
ASSI
100
AcDbEllipse
 62
7
  6
CONTINUOUS
 10
-10.6499004703
 20
-21.7763785306
 30
0.0
 11
0.498078285
 21
-0.0448076117
 31
0.0
 40
0.9965957691
 41
-3.0506549766
 42
-1.4807720384
  0
ELLIPSE
  5
379
100
AcDbEntity
  8
CURVE
100
AcDbEllipse
 62
253
  6
CONTINUOUS
 10
460.8978263267
 20
-0.0632982045
 30
0.0
 11
-0.0
 21
500.0
 31
0.0
 40
1.0
 41
1.5414191811
 42
1.5466903018
  0
ENDSEC
  0
SECTION
  2
OBJECTS
  0
DICTIONARY
  5
C
100
AcDbDictionary
280
0
281
1
  3
ACAD_GROUP
350
D
  3
ACAD_MLINESTYLE
350
17
  3
ACAD_LAYOUT
350
1A
  3
ACAD_PLOTSETTINGS
350
19
  3
ACAD_PLOTSTYLENAME
350
E
  0
DICTIONARY
  5
D
102
{ACAD_REACTORS
330
C
102
}
100
AcDbDictionary
280
0
281
1
  0
ACDBDICTIONARYWDFLT
  5
E
102
{ACAD_REACTORS
330
C
102
}
100
AcDbDictionary
281
1
  3
Normal
350
F
100
AcDbDictionaryWithDefault
340
F
  0
DICTIONARY
  5
17
102
{ACAD_REACTORS
330
C
102
}
100
AcDbDictionary
280
0
281
1
  3
Standard
350
18
  0
DICTIONARY
  5
19
102
{ACAD_REACTORS
330
C
102
}
100
AcDbDictionary
281
1
  0
DICTIONARY
  5
1A
102
{ACAD_REACTORS
330
C
102
}
100
AcDbDictionary
281
1
  3
Model
350
37A
  3
Layout1
350
37B
  0
ACDBPLACEHOLDER
  5
F
102
{ACAD_REACTORS
330
E
102
}
  0
MLINESTYLE
  5
18
102
{ACAD_REACTORS
330
17
102
}
100
AcDbMlineStyle
  2
STANDARD
 70
0
  3

 62
256
 51
90.0
 52
90.0
 71
2
 49
0.5
 62
256
  6
BYLAYER
 49
-0.5
 62
256
  6
BYLAYER
  0
LAYOUT
  5
37A
102
{ACAD_REACTORS
330
1A
102
}
100
AcDbPlotSettings
  1

  2
none_device
  4
ISO_A4_(297.00_x_210.00_MM)
  6

 40
0.0
 41
0.0
 42
0.0
 43
0.0
 44
297.0
 45
210.0
 46
0.0
 47
0.0
 48
0.0
 49
0.0
140
0.0
141
0.0
142
1.0
143
1.0
 70
1024
 72
1
 73
0
 74
0
  7

 75
0
147
1.0
148
0.0
149
0.0
100
AcDbLayout
  1
Model
 70
0
 71
0
 10
0.0
 20
0.0
 11
297.0
 21
210.0
 12
0.0
 22
0.0
 32
0.0
 14
0.0
 24
0.0
 34
0.0
 15
0.0
 25
0.0
 35
0.0
146
0.0
 13
0.0
 23
0.0
 33
0.0
 16
1.0
 26
0.0
 36
0.0
 17
0.0
 27
1.0
 37
0.0
 76
0
330
217
345
0
346
0
  0
LAYOUT
  5
37B
102
{ACAD_REACTORS
330
1A
102
}
100
AcDbPlotSettings
  1

  2
none_device
  4
ISO_A4_(297.00_x_210.00_MM)
  6

 40
0.0
 41
0.0
 42
0.0
 43
0.0
 44
297.0
 45
210.0
 46
0.0
 47
0.0
 48
0.0
 49
0.0
140
0.0
141
0.0
142
1.0
143
1.0
 70
0
 72
1
 73
0
 74
0
  7

 75
0
147
1.0
148
0.0
149
0.0
100
AcDbLayout
  1
Layout1
 70
0
 71
1
 10
0.0
 20
0.0
 11
297.0
 21
210.0
 12
0.0
 22
0.0
 32
0.0
 14
0.0
 24
0.0
 34
0.0
 15
0.0
 25
0.0
 35
0.0
146
0.0
 13
0.0
 23
0.0
 33
0.0
 16
1.0
 26
0.0
 36
0.0
 17
0.0
 27
1.0
 37
0.0
 76
0
330
218
345
0
346
0
  0
ENDSEC
  0
EOF
