  0
SECTION
  2
HEADER
  9
$ACADVER
  1
AC1021
  9
$DWGCODEPAGE
  3
ANSI_1252
  9
$EXTMAX
 10
297.0
 20
210.0
 30
0.0
  9
$EXTMIN
 10
0.0
 20
0.0
 30
0.0
  9
$LIMMIN
 10
0.0
 20
0.0
  9
$LIMMAX
 10
297.0
 20
210.0
  9
$VIEWCTR
 10
148.5
 20
105.0
  9
$VIEWSIZE
 40
210.0
  9
$CLAYER
  8
0
  9
$LTSCALE
 40
16.335
  9
$CELTYPE
  6
BYLAYER
  9
$DIMSCALE
 40
1.0
  9
$DIMASZ
 40
3.0
  9
$DIMEXO
 40
0.5
  9
$DIMDLI
 40
11.286
  9
$DIMEXE
 40
1.5
  9
$DIMCEN
 40
2.673
  9
$DIMLFAC
 40
1.0
  9
$DIMBLK
  1
_FILLED
  9
$DIMALT
 70
0
  9
$DIMALTF
 40
25.4
  9
$DIMTXT
 40
3.0
  9
$DIMTOL
 70
1
  9
$DIMLIM
 70
0
  9
$DIMTFAC
 40
1.0
  9
$DIMTP
 40
0.01
  9
$DIMTM
 40
0.01
  9
$DIMGAP
 40
0.625
  9
$DIMDSEP
 70
44
  9
$AUNITS
 70
0
  9
$PDMODE
 70
3
  9
$PDSIZE
 40
3.0
  9
$HANDSEED
  5
3BB
  9
$TILEMODE
 70
1
  9
$MEASUREMENT
 70
1
  9
$INSUNITS
 70
4
  0
ENDSEC
  0
SECTION
  2
CLASSES
  0
CLASS
  1
ACDBDICTIONARYWDFLT
  2
AcDbDictionaryWithDefault
  3
AutoCAD 2000
 90
0
 91
1
280
0
281
0
  0
CLASS
  1
ACDBPLACEHOLDER
  2
AcDbPlaceHolder
  3
AutoCAD 2000
 90
0
 91
1
280
0
281
0
  0
CLASS
  1
LAYOUT
  2
AcDbLayout
  3
AutoCAD 2000
 90
0
 91
0
280
0
281
0
  0
ENDSEC
  0
SECTION
  2
TABLES
  0
TABLE
  2
VPORT
  5
8
100
AcDbSymbolTable
 70
2
  0
VPORT
  5
1F4
100
AcDbSymbolTableRecord
100
AcDbViewportTableRecord
  2
*ACTIVE
 70
0
 10
0.0
 20
0.0
 11
1.0
 21
1.0
 12
148.5
 22
105.0
 13
0.0
 23
0.0
 14
1.0
 24
1.0
 15
0.0
 25
0.0
 16
0.0
 26
0.0
 36
1.0
 17
0.0
 27
0.0
 37
0.0
 40
210.0
 41
1.4142857143
 42
50.0
 43
0.0
 44
0.0
 50
0.0
 51
0.0
 71
0
 72
100
 73
1
 74
1
 75
0
 76
0
 77
0
 78
0
  0
ENDTAB
  0
TABLE
  2
LTYPE
  5
5
100
AcDbSymbolTable
 70
6
  0
LTYPE
  5
14
100
AcDbSymbolTableRecord
100
AcDbLinetypeTableRecord
  2
BYBLOCK
 70
0
  3

 72
65
 73
0
 40
0.0
  0
LTYPE
  5
15
100
AcDbSymbolTableRecord
100
AcDbLinetypeTableRecord
  2
BYLAYER
 70
0
  3

 72
65
 73
0
 40
0.0
  0
LTYPE
  5
16
100
AcDbSymbolTableRecord
100
AcDbLinetypeTableRecord
  2
CONTINUOUS
 70
64
  3
Solid line
 72
65
 73
0
 40
0.0
  0
LTYPE
  5
1F5
100
AcDbSymbolTableRecord
100
AcDbLinetypeTableRecord
  2
CENTER
 70
64
  3
____ _ ____ _ ____ _ ____ _ ____ _ ____ _ ____
 72
65
 73
4
 40
0.6
 49
0.375
 74
0
 49
-0.075
 74
0
 49
0.075
 74
0
 49
-0.075
 74
0
  0
LTYPE
  5
1F6
100
AcDbSymbolTableRecord
100
AcDbLinetypeTableRecord
  2
HIDDEN
 70
64
  3
- - - - - - - - - - - - - - - - - - - -
 72
65
 73
2
 40
0.2
 49
0.1
 74
0
 49
-0.1
 74
0
  0
LTYPE
  5
1F7
100
AcDbSymbolTableRecord
100
AcDbLinetypeTableRecord
  2
PHANTOM
 70
64
  3
_____ _ _ _____ _ _ _____ _ _ _____
 72
65
 73
6
 40
0.8
 49
0.45
 74
0
 49
-0.05
 74
0
 49
0.1
 74
0
 49
-0.05
 74
0
 49
0.1
 74
0
 49
-0.05
 74
0
  0
LTYPE
  5
1F8
100
AcDbSymbolTableRecord
100
AcDbLinetypeTableRecord
  2
DOT
 70
64
  3
. . . . . . . . . . . . . . . . . . . .
 72
65
 73
2
 40
0.2
 49
0.1
 74
0
 49
-0.1
 74
0
  0
LTYPE
  5
1F9
100
AcDbSymbolTableRecord
100
AcDbLinetypeTableRecord
  2
DASHED
 70
64
  3
- - - - - - - - - - - - - - - - - - - -
 72
65
 73
2
 40
0.2
 49
0.1
 74
0
 49
-0.1
 74
0
  0
ENDTAB
  0
TABLE
  2
LAYER
  5
2
100
AcDbSymbolTable
 70
36
  0
LAYER
  5
10
100
AcDbSymbolTableRecord
100
AcDbLayerTableRecord
  2
0
 70
0
 62
7
  6
CONTINUOUS
370
-3
390
F
  0
LAYER
  5
1FA
100
AcDbSymbolTableRecord
100
AcDbLayerTableRecord
  2
DEFAULT_1
 70
0
 62
7
  6
CENTER
370
-3
390
F
  0
LAYER
  5
1FB
100
AcDbSymbolTableRecord
100
AcDbLayerTableRecord
  2
DEFAULT_2
 70
0
 62
7
  6
HIDDEN
370
-3
390
F
  0
LAYER
  5
1FC
100
AcDbSymbolTableRecord
100
AcDbLayerTableRecord
  2
DEFAULT_3
 70
0
 62
7
  6
PHANTOM
370
-3
390
F
  0
LAYER
  5
1FD
100
AcDbSymbolTableRecord
100
AcDbLayerTableRecord
  2
ASSI
 70
0
 62
7
  6
CONTINUOUS
370
-3
390
F
  0
LAYER
  5
1FE
100
AcDbSymbolTableRecord
100
AcDbLayerTableRecord
  2
COORDINATE
 70
0
 62
7
  6
CONTINUOUS
370
-3
390
F
  0
LAYER
  5
1FF
100
AcDbSymbolTableRecord
100
AcDbLayerTableRecord
  2
COORD_ORIGINE
 70
0
 62
7
  6
CONTINUOUS
370
-3
390
F
  0
LAYER
  5
200
100
AcDbSymbolTableRecord
100
AcDbLayerTableRecord
  2
COPY_PUBLISH
 70
0
 62
7
  6
CONTINUOUS
370
-3
390
F
  0
LAYER
  5
201
100
AcDbSymbolTableRecord
100
AcDbLayerTableRecord
  2
COSMETIC
 70
0
 62
7
  6
CONTINUOUS
370
-3
390
F
  0
LAYER
  5
202
100
AcDbSymbolTableRecord
100
AcDbLayerTableRecord
  2
COSMETICI
 70
0
 62
7
  6
CONTINUOUS
370
-3
390
F
  0
LAYER
  5
203
100
AcDbSymbolTableRecord
100
AcDbLayerTableRecord
  2
CURVE
 70
0
 62
7
  6
CONTINUOUS
370
-3
390
F
  0
LAYER
  5
204
100
AcDbSymbolTableRecord
100
AcDbLayerTableRecord
  2
DRAFT
 70
0
 62
7
  6
CONTINUOUS
370
-3
390
F
  0
LAYER
  5
205
100
AcDbSymbolTableRecord
100
AcDbLayerTableRecord
  2
IGES
 70
0
 62
7
  6
CONTINUOUS
370
-3
390
F
  0
LAYER
  5
206
100
AcDbSymbolTableRecord
100
AcDbLayerTableRecord
  2
IMPORT_IGES
 70
0
 62
7
  6
CONTINUOUS
370
-3
390
F
  0
LAYER
  5
207
100
AcDbSymbolTableRecord
100
AcDbLayerTableRecord
  2
LIVELLO_1
 70
0
 62
7
  6
CONTINUOUS
370
-3
390
F
  0
LAYER
  5
208
100
AcDbSymbolTableRecord
100
AcDbLayerTableRecord
  2
NOTE
 70
0
 62
7
  6
CONTINUOUS
370
-3
390
F
  0
LAYER
  5
209
100
AcDbSymbolTableRecord
100
AcDbLayerTableRecord
  2
PIANI
 70
0
 62
7
  6
CONTINUOUS
370
-3
390
F
  0
LAYER
  5
20A
100
AcDbSymbolTableRecord
100
AcDbLayerTableRecord
  2
PIANI_ORIGINE
 70
0
 62
7
  6
CONTINUOUS
370
-3
390
F
  0
LAYER
  5
20B
100
AcDbSymbolTableRecord
100
AcDbLayerTableRecord
  2
PIANI_RIFERIMENTO
 70
0
 62
7
  6
CONTINUOUS
370
-3
390
F
  0
LAYER
  5
20C
100
AcDbSymbolTableRecord
100
AcDbLayerTableRecord
  2
PUNTI
 70
0
 62
7
  6
CONTINUOUS
370
-3
390
F
  0
LAYER
  5
20D
100
AcDbSymbolTableRecord
100
AcDbLayerTableRecord
  2
RACCORDO
 70
0
 62
7
  6
CONTINUOUS
370
-3
390
F
  0
LAYER
  5
20E
100
AcDbSymbolTableRecord
100
AcDbLayerTableRecord
  2
SIMBOLI
 70
0
 62
7
  6
CONTINUOUS
370
-3
390
F
  0
LAYER
  5
20F
100
AcDbSymbolTableRecord
100
AcDbLayerTableRecord
  2
SMUSSO
 70
0
 62
7
  6
CONTINUOUS
370
-3
390
F
  0
LAYER
  5
210
100
AcDbSymbolTableRecord
100
AcDbLayerTableRecord
  2
SNAPLINE
 70
0
 62
7
  6
CONTINUOUS
370
-3
390
F
  0
LAYER
  5
211
100
AcDbSymbolTableRecord
100
AcDbLayerTableRecord
  2
SUPERFICI
 70
0
 62
7
  6
CONTINUOUS
370
-3
390
F
  0
LAYER
  5
212
100
AcDbSymbolTableRecord
100
AcDbLayerTableRecord
  2
TRASH
 70
0
 62
7
  6
CONTINUOUS
370
-3
390
F
  0
LAYER
  5
213
100
AcDbSymbolTableRecord
100
AcDbLayerTableRecord
  2
WHITE
 70
0
 62
7
  6
CONTINUOUS
370
-3
390
F
  0
LAYER
  5
214
100
AcDbSymbolTableRecord
100
AcDbLayerTableRecord
  2
XSEC_DATUMS
 70
0
 62
7
  6
CONTINUOUS
370
-3
390
F
  0
ENDTAB
  0
TABLE
  2
STYLE
  5
3
100
AcDbSymbolTable
 70
1
  0
STYLE
  5
11
100
AcDbSymbolTableRecord
100
AcDbTextStyleTableRecord
  2
STANDARD
 70
0
 40
0.0
 41
0.8
 50
0.0
 71
0
 42
0.2
  3
txt
  4

  0
STYLE
  5
215
100
AcDbSymbolTableRecord
100
AcDbTextStyleTableRecord
  2
TEXTSTYLE_1
 70
0
 40
0.0
 41
0.8
 50
0.0
 71
0
 42
0.2
  3
gdt
  4

  0
ENDTAB
  0
TABLE
  2
VIEW
  5
6
100
AcDbSymbolTable
 70
0
  0
ENDTAB
  0
TABLE
  2
UCS
  5
7
100
AcDbSymbolTable
 70
0
  0
ENDTAB
  0
TABLE
  2
APPID
  5
9
100
AcDbSymbolTable
 70
1
  0
APPID
  5
216
100
AcDbSymbolTableRecord
100
AcDbRegAppTableRecord
  2
ACAD
 70
0
  0
ENDTAB
  0
TABLE
  2
BLOCK_RECORD
  5
1
100
AcDbSymbolTable
 70
0
  0
BLOCK_RECORD
  5
217
100
AcDbSymbolTableRecord
100
AcDbBlockTableRecord
  2
*Model_Space
  0
BLOCK_RECORD
  5
218
100
AcDbSymbolTableRecord
100
AcDbBlockTableRecord
  2
*Paper_Space
  0
BLOCK_RECORD
  5
219
100
AcDbSymbolTableRecord
100
AcDbBlockTableRecord
  2
_FILLED
  0
BLOCK_RECORD
  5
21A
100
AcDbSymbolTableRecord
100
AcDbBlockTableRecord
  2
*D0
  0
BLOCK_RECORD
  5
21B
100
AcDbSymbolTableRecord
100
AcDbBlockTableRecord
  2
*D1
  0
BLOCK_RECORD
  5
21C
100
AcDbSymbolTableRecord
100
AcDbBlockTableRecord
  2
*D2
  0
ENDTAB
  0
TABLE
  2
DIMSTYLE
  5
A
100
AcDbSymbolTable
 70
1
100
AcDbDimStyleTable
 71
0
  0
DIMSTYLE
105
21D
100
AcDbSymbolTableRecord
100
AcDbDimStyleTableRecord
  2
STANDARD
 70
0
  3

  4

 40
1.0
 41
3.0
 42
0.5
 43
0.38
 44
1.5
 45
0.0
 46
0.0
 47
0.01
 48
0.01
140
3.0
141
0.09
142
0.0
143
25.4
144
1.0
145
0.0
146
1.0
147
0.625
 71
1.0
 72
0.0
 73
0
 74
0
 75
0
 76
0
 77
1
 78
8
170
0
171
1
172
0
173
0
174
0
175
0
176
0
177
0
178
0
270
2
271
2
272
2
273
2
274
2
275
0
280
0
281
0
282
0
283
1
284
8
285
0
286
0
287
3
288
0
340
11
278
44
341
219
342
219
343
219
344
219
  0
DIMSTYLE
105
21E
100
AcDbSymbolTableRecord
100
AcDbDimStyleTableRecord
  2
DIMSTYLE_1
 70
0
  3

  4

 40
1.0
 41
3.0
 42
0.5
 43
0.38
 44
1.5
 45
0.0
 46
0.0
 47
0.0
 48
0.0
140
3.0
141
0.09
142
0.0
143
25.4
144
1.0
145
0.0
146
1.0
147
0.75
 71
0.0
 72
0.0
 73
0
 74
0
 75
0
 76
0
 77
1
 78
8
170
0
171
1
172
0
173
0
174
0
175
0
176
0
177
0
178
0
270
2
271
2
272
2
273
2
274
2
275
0
280
0
281
0
282
0
283
1
284
8
285
0
286
0
287
3
288
0
340
11
278
44
341
219
342
219
343
219
344
219
  0
DIMSTYLE
105
21F
100
AcDbSymbolTableRecord
100
AcDbDimStyleTableRecord
  2
DIMSTYLE_2
 70
0
  3

  4

 40
1.0
 41
3.0
 42
0.5
 43
0.38
 44
1.5
 45
0.0
 46
0.0
 47
0.0
 48
0.0
140
3.0
141
0.09
142
0.0
143
25.4
144
1.0
145
0.0
146
1.0
147
0.75
 71
0.0
 72
0.0
 73
0
 74
0
 75
0
 76
0
 77
1
 78
8
170
0
171
1
172
0
173
0
174
0
175
0
176
0
177
0
178
0
270
2
271
1
272
1
273
2
274
2
275
0
280
0
281
0
282
0
283
1
284
8
285
0
286
0
287
3
288
0
340
11
278
44
341
219
342
219
343
219
344
219
  0
ENDTAB
  0
ENDSEC
  0
SECTION
  2
BLOCKS
  0
BLOCK
  5
20
100
AcDbEntity
  8
0
100
AcDbBlockBegin
  2
*Model_Space
 70
0
 10
0.0
 20
0.0
 30
0.0
  3
*Model_Space
  1

  0
ENDBLK
  5
21
100
AcDbEntity
  8
0
100
AcDbBlockEnd
  0
BLOCK
  5
1C
100
AcDbEntity
  8
0
100
AcDbBlockBegin
  2
*Paper_Space
 70
0
 10
0.0
 20
0.0
 30
0.0
  3
*Paper_Space
  1

  0
ENDBLK
  5
1D
100
AcDbEntity
  8
0
100
AcDbBlockEnd
  0
BLOCK
  5
220
100
AcDbEntity
  8
0
100
AcDbBlockBegin
  2
_FILLED
 70
64
 10
0.0
 20
0.0
  3
_FILLED
  1

  0
SOLID
  5
221
100
AcDbEntity
  8
0
  6
BYBLOCK
 62
0
100
AcDbTrace
 10
0.0
 20
0.0
 11
-1.0
 21
0.3166666667
 12
-1.0
 22
-0.3166666667
 13
-1.0
 23
-0.3166666667
  0
ENDBLK
  5
222
100
AcDbEntity
  8
0
  6
BYBLOCK
 62
0
100
AcDbBlockEnd
  0
BLOCK
  5
223
100
AcDbEntity
  8
0
100
AcDbBlockBegin
 62
7
  6
CONTINUOUS
  2
*D0
 70
65
 10
0.0
 20
0.0
  3
*D0
  1

  0
MTEXT
  5
224
100
AcDbEntity
  8
0
100
AcDbMText
 62
7
  6
CONTINUOUS
  7
STANDARD
 71
2
 72
1
 10
-0.019266828
 20
33.9480275949
 30
0.0
 11
1.0
 21
0.0
 31
0.0
 44
0.9
  1
22,3
 40
3.0
 41
12.8571428571
  0
LINE
  5
225
100
AcDbEntity
  8
0
100
AcDbLine
 62
7
  6
CONTINUOUS
 10
-11.169266828
 20
13.5865463073
 11
-11.169266828
 21
31.6980275949
  0
LINE
  5
226
100
AcDbEntity
  8
0
100
AcDbLine
 62
7
  6
CONTINUOUS
 10
11.130733172
 20
13.5865463073
 11
11.130733172
 21
31.6980275949
  0
LINE
  5
227
100
AcDbEntity
  8
0
100
AcDbLine
 62
7
  6
CONTINUOUS
 10
-11.169266828
 20
30.1980275949
 11
-0.019266828
 21
30.1980275949
  0
LINE
  5
228
100
AcDbEntity
  8
0
100
AcDbLine
 62
7
  6
CONTINUOUS
 10
11.130733172
 20
30.1980275949
 11
-0.019266828
 21
30.1980275949
  0
INSERT
  5
229
100
AcDbEntity
  8
0
100
AcDbBlockReference
 62
7
  6
CONTINUOUS
  2
_FILLED
 10
-11.169266828
 20
30.1980275949
 41
3.0
 42
3.0
 43
3.0
 50
180.0
  0
INSERT
  5
22A
100
AcDbEntity
  8
0
100
AcDbBlockReference
 62
7
  6
CONTINUOUS
  2
_FILLED
 10
11.130733172
 20
30.1980275949
 41
3.0
 42
3.0
 43
3.0
  0
ENDBLK
  5
22B
100
AcDbEntity
  8
0
  6
BYBLOCK
 62
0
100
AcDbBlockEnd
  0
BLOCK
  5
22C
100
AcDbEntity
  8
0
100
AcDbBlockBegin
 62
7
  6
CONTINUOUS
  2
*D1
 70
65
 10
0.0
 20
0.0
  3
*D1
  1

  0
MTEXT
  5
22D
100
AcDbEntity
  8
0
100
AcDbMText
 62
7
  6
CONTINUOUS
  7
STANDARD
 71
2
 72
1
 10
15.380733172
 20
-0.0134536927
 30
0.0
 11
0.0
 21
1.0
 31
0.0
 44
0.9
  1
44,4
 40
3.0
 41
13.1785714286
  0
LINE
  5
22E
100
AcDbEntity
  8
0
100
AcDbLine
 62
7
  6
CONTINUOUS
 10
11.1171994436
 20
22.1980275949
 11
20.630733172
 21
22.1980275949
  0
LINE
  5
22F
100
AcDbEntity
  8
0
100
AcDbLine
 62
7
  6
CONTINUOUS
 10
11.1171994436
 20
-22.2249349802
 11
20.630733172
 21
-22.2249349802
  0
LINE
  5
230
100
AcDbEntity
  8
0
100
AcDbLine
 62
7
  6
CONTINUOUS
 10
19.130733172
 20
22.1980275949
 11
19.130733172
 21
-0.0134536927
  0
LINE
  5
231
100
AcDbEntity
  8
0
100
AcDbLine
 62
7
  6
CONTINUOUS
 10
19.130733172
 20
-22.2249349802
 11
19.130733172
 21
-0.0134536927
  0
INSERT
  5
232
100
AcDbEntity
  8
0
100
AcDbBlockReference
 62
7
  6
CONTINUOUS
  2
_FILLED
 10
19.130733172
 20
22.1980275949
 41
3.0
 42
3.0
 43
3.0
 50
90.0
  0
INSERT
  5
233
100
AcDbEntity
  8
0
100
AcDbBlockReference
 62
7
  6
CONTINUOUS
  2
_FILLED
 10
19.130733172
 20
-22.2249349802
 41
3.0
 42
3.0
 43
3.0
 50
270.0
  0
ENDBLK
  5
234
100
AcDbEntity
  8
0
  6
BYBLOCK
 62
0
100
AcDbBlockEnd
  0
BLOCK
  5
235
100
AcDbEntity
  8
0
100
AcDbBlockBegin
 62
7
  6
CONTINUOUS
  2
*D2
 70
65
 10
0.0
 20
0.0
  3
*D2
  1

  0
MTEXT
  5
236
100
AcDbEntity
  8
0
100
AcDbMText
 62
7
  6
CONTINUOUS
  7
STANDARD
 71
1
 72
1
 10
-27.0140666571
 20
33.9480275949
 30
0.0
 11
1.0
 21
0.0
 31
0.0
 44
0.9
  1
6,7
 40
3.0
 41
9.6428571429
  0
LINE
  5
237
100
AcDbEntity
  8
0
100
AcDbLine
 62
7
  6
CONTINUOUS
 10
-31.992339347
 20
13.5865463073
 11
-31.992339347
 21
31.6980275949
  0
LINE
  5
238
100
AcDbEntity
  8
0
100
AcDbLine
 62
7
  6
CONTINUOUS
 10
-38.6922119853
 20
0.8434202102
 11
-38.6922119853
 21
31.6980275949
  0
LINE
  5
239
100
AcDbEntity
  8
0
100
AcDbLine
 62
7
  6
CONTINUOUS
 10
-31.992339347
 20
30.1980275949
 11
-20.5854952285
 21
30.1980275949
  0
LINE
  5
23A
100
AcDbEntity
  8
0
100
AcDbLine
 62
7
  6
CONTINUOUS
 10
-20.5854952285
 20
30.1980275949
 11
-35.3422756662
 21
30.1980275949
  0
LINE
  5
23B
100
AcDbEntity
  8
0
100
AcDbLine
 62
7
  6
CONTINUOUS
 10
-38.6922119853
 20
30.1980275949
 11
-42.6922119853
 21
30.1980275949
  0
LINE
  5
23C
100
AcDbEntity
  8
0
100
AcDbLine
 62
7
  6
CONTINUOUS
 10
-42.6922119853
 20
30.1980275949
 11
-35.3422756662
 21
30.1980275949
  0
INSERT
  5
23D
100
AcDbEntity
  8
0
100
AcDbBlockReference
 62
7
  6
CONTINUOUS
  2
_FILLED
 10
-31.992339347
 20
30.1980275949
 41
3.0
 42
3.0
 43
3.0
 50
180.0
  0
INSERT
  5
23E
100
AcDbEntity
  8
0
100
AcDbBlockReference
 62
7
  6
CONTINUOUS
  2
_FILLED
 10
-38.6922119853
 20
30.1980275949
 41
3.0
 42
3.0
 43
3.0
  0
ENDBLK
  5
23F
100
AcDbEntity
  8
0
  6
BYBLOCK
 62
0
100
AcDbBlockEnd
  0
ENDSEC
  0
SECTION
  2
ENTITIES
  0
DIMENSION
  5
240
100
AcDbEntity
  8
0
100
AcDbDimension
 62
7
  6
CONTINUOUS
  2
*D0
 10
11.130733172
 20
30.1980275949
 11
-0.4478381567
 21
30.1980275949
 70
160
 71
2
 42
22.3
  3
DIMSTYLE_1
100
AcDbAlignedDimension
 13
-11.169266828
 23
13.0865463073
 14
11.130733172
 24
13.0865463073
100
AcDbRotatedDimension
  0
DIMENSION
  5
241
100
AcDbEntity
  8
0
100
AcDbDimension
 62
7
  6
CONTINUOUS
  2
*D1
 10
19.130733172
 20
-22.2249349802
 11
19.130733172
 21
-0.4420250656
 70
160
 71
2
 42
44.4229625751
  3
DIMSTYLE_2
100
AcDbAlignedDimension
 13
10.6171994436
 23
22.1980275949
 14
10.6171994436
 24
-22.2249349802
 50
270.0
100
AcDbRotatedDimension
  0
DIMENSION
  5
242
100
AcDbEntity
  8
0
100
AcDbDimension
 62
7
  6
CONTINUOUS
  2
*D2
 10
-38.6922119853
 20
30.1980275949
 11
-24.2283519058
 21
30.1980275949
 70
160
 71
1
 42
6.6998726383
  3
DIMSTYLE_1
100
AcDbAlignedDimension
 13
-31.992339347
 23
13.0865463073
 14
-38.6922119853
 24
0.3434202102
 50
180.0
100
AcDbRotatedDimension
  0
LWPOLYLINE
  5
243
100
AcDbEntity
  8
ASSI
100
AcDbPolyline
 62
253
  6
CONTINUOUS
 90
15
 70
0
 10
-11.0682691139
 20
20.5284521638
 10
-11.066940641
 20
20.5296346858
 10
-11.0639623216
 20
20.5308132947
 10
-11.0593440109
 20
20.5319840906
 10
-11.0531009908
 20
20.5331431993
 10
-11.0452539193
 20
20.5342867855
 10
-11.0358287625
 20
20.5354110648
 10
-11.024856708
 20
20.5365123172
 10
-11.0123740621
 20
20.5375868986
 10
-10.99842213
 20
20.5386312532
 10
-10.9830470782
 20
20.5396419252
 10
-10.9662997828
 20
20.5406155704
 10
-10.9482356603
 20
20.541548967
 10
-10.9289144848
 20
20.5424390263
 10
-10.9084001897
 20
20.5432828032
  0
LINE
  5
244
100
AcDbEntity
  8
ASSI
100
AcDbLine
 62
7
  6
CONTINUOUS
 10
3.3749432977
 20
-22.2249349802
 11
3.722998145
 21
-22.1933410197
  0
LINE
  5
245
100
AcDbEntity
  8
ASSI
100
AcDbLine
 62
7
  6
CONTINUOUS
 10
-7.8250567023
 20
-22.2249349802
 11
-7.477001855
 21
-22.1933410197
  0
LINE
  5
246
100
AcDbEntity
  8
ASSI
100
AcDbLine
 62
7
  6
CONTINUOUS
 10
-10.6557330997
 20
-22.2249349802
 11
-7.8250567023
 21
-22.2249349802
  0
LINE
  5
247
100
AcDbEntity
  8
ASSI
100
AcDbLine
 62
7
  6
CONTINUOUS
 10
-3.4134769538
 20
-22.2249349802
 11
3.3749432977
 21
-22.2249349802
  0
LINE
  5
248
100
AcDbEntity
  8
ASSI
100
AcDbLine
 62
7
  6
CONTINUOUS
 10
7.7865230462
 20
-22.2249349802
 11
10.6171994436
 21
-22.2249349802
  0
LINE
  5
249
100
AcDbEntity
  8
ASSI
100
AcDbLine
 62
7
  6
CONTINUOUS
 10
-7.3037967742
 20
-22.1881002417
 11
-3.9347368819
 21
-22.1881002417
  0
LINE
  5
24A
100
AcDbEntity
  8
ASSI
100
AcDbLine
 62
7
  6
CONTINUOUS
 10
3.8962032258
 20
-22.1881002417
 11
7.2652631181
 21
-22.1881002417
  0
LINE
  5
24B
100
AcDbEntity
  8
ASSI
100
AcDbLine
 62
253
  6
CONTINUOUS
 10
10.5463386832
 20
-22.0121798223
 11
-10.5848723392
 21
-22.0121798223
  0
LINE
  5
24C
100
AcDbEntity
  8
ASSI
100
AcDbLine
 62
7
  6
CONTINUOUS
 10
-3.4134769538
 20
-22.2249349802
 11
-3.7615318011
 21
-22.1933410197
  0
LINE
  5
24D
100
AcDbEntity
  8
ASSI
100
AcDbLine
 62
7
  6
CONTINUOUS
 10
7.7865230462
 20
-22.2249349802
 11
7.4384681989
 21
-22.1933410197
  0
LWPOLYLINE
  5
24E
100
AcDbEntity
  8
ASSI
100
AcDbPolyline
 62
253
  6
CONTINUOUS
 90
17
 70
0
 10
-11.0682691139
 20
-20.5553595492
 10
-11.0669406595
 20
-20.5565420717
 10
-11.0639623571
 20
-20.5577206812
 10
-11.0593440618
 20
-20.5588914778
 10
-11.0531010556
 20
-20.5600505873
 10
-11.0452539964
 20
-20.5611941741
 10
-11.0358288502
 20
-20.5623184543
 10
-11.0248568047
 20
-20.5634197074
 10
-11.0123741663
 20
-20.5644942896
 10
-10.9984222399
 20
-20.565538645
 10
-10.9830471923
 20
-20.5665493179
 10
-10.9662998995
 20
-20.5675229639
 10
-10.9482357781
 20
-20.5684563612
 10
-10.9289146021
 20
-20.5693464213
 10
-10.9084003052
 20
-20.570190199
 10
-10.886760769
 20
-20.5709849022
 10
-10.8403958852
 20
-20.5724167375
  0
LINE
  5
24F
100
AcDbEntity
  8
ASSI
100
AcDbLine
 62
253
  6
CONTINUOUS
 10
10.8698665336
 20
-20.5701901886
 11
10.8255338345
 21
-20.5717278893
  0
LINE
  5
250
100
AcDbEntity
  8
ASSI
100
AcDbLine
 62
253
  6
CONTINUOUS
 10
10.8255338345
 20
-20.5717278893
 11
10.7772902072
 21
-20.5730491184
  0
LINE
  5
251
100
AcDbEntity
  8
ASSI
100
AcDbLine
 62
253
  6
CONTINUOUS
 10
10.7772902072
 20
-20.5730491184
 11
10.725773674
 21
-20.5741364027
  0
LINE
  5
252
100
AcDbEntity
  8
ASSI
100
AcDbLine
 62
253
  6
CONTINUOUS
 10
10.725773674
 20
-20.5741364027
 11
10.6716655414
 21
-20.5749753627
  0
LINE
  5
253
100
AcDbEntity
  8
ASSI
100
AcDbLine
 62
253
  6
CONTINUOUS
 10
10.6716655414
 20
-20.5749753627
 11
10.6156813897
 21
-20.5755549033
  0
LINE
  5
254
100
AcDbEntity
  8
ASSI
100
AcDbLine
 62
253
  6
CONTINUOUS
 10
10.6156813897
 20
-20.5755549033
 11
10.5585616097
 21
-20.5758673599
  0
LINE
  5
255
100
AcDbEntity
  8
ASSI
100
AcDbLine
 62
253
  6
CONTINUOUS
 10
10.5585616097
 20
-20.5758673599
 11
-10.5683452418
 21
-20.5759015236
  0
LINE
  5
256
100
AcDbEntity
  8
ASSI
100
AcDbLine
 62
253
  6
CONTINUOUS
 10
-10.6257501561
 20
-20.5757448754
 11
-10.5683452663
 21
-20.5759220175
  0
LINE
  5
257
100
AcDbEntity
  8
ASSI
100
AcDbLine
 62
253
  6
CONTINUOUS
 10
-10.6823958653
 20
-20.575298137
 11
-10.6257501561
 21
-20.5757448754
  0
LINE
  5
258
100
AcDbEntity
  8
ASSI
100
AcDbLine
 62
253
  6
CONTINUOUS
 10
-10.7375332533
 20
-20.5745877105
 11
-10.6823958653
 21
-20.575298137
  0
LINE
  5
259
100
AcDbEntity
  8
ASSI
100
AcDbLine
 62
253
  6
CONTINUOUS
 10
-10.7904331271
 20
-20.5736229911
 11
-10.7375332533
 21
-20.5745877105
  0
LINE
  5
25A
100
AcDbEntity
  8
ASSI
100
AcDbLine
 62
253
  6
CONTINUOUS
 10
-10.8403958852
 20
-20.5724167375
 11
-10.7904331271
 21
-20.5736229911
  0
LWPOLYLINE
  5
25B
100
AcDbEntity
  8
CURVE
100
AcDbPolyline
 62
253
  6
CONTINUOUS
 90
54
 70
0
 10
-0.021408442
 20
-14.8624623397
 10
-0.0176856643
 20
-14.8624088306
 10
-0.0140107217
 20
-14.8622496247
 10
-0.0103761074
 20
-14.8619867036
 10
-0.0067743143
 20
-14.8616220491
 10
-0.0031978355
 20
-14.861157643
 10
0.0003608357
 20
-14.8605954669
 10
0.0039092065
 20
-14.8599375026
 10
0.0080437182
 20
-14.8590504792
 10
0.0121728453
 20
-14.8580330623
 10
0.0162950053
 20
-14.8568825391
 10
0.0204086161
 20
-14.8555961971
 10
0.0245120954
 20
-14.8541713238
 10
0.0286038608
 20
-14.8526052065
 10
0.0326807293
 20
-14.8508960133
 10
0.0367331151
 20
-14.8490454349
 10
0.0407498314
 20
-14.8470560427
 10
0.0447196917
 20
-14.8449304082
 10
0.0486315093
 20
-14.8426711026
 10
0.0524740975
 20
-14.8402806974
 10
0.0557047884
 20
-14.8381292218
 10
0.0588730995
 20
-14.835883968
 10
0.0619757325
 20
-14.8335455866
 10
0.0650093887
 20
-14.8311147283
 10
0.0679707696
 20
-14.8285920437
 10
0.0708565767
 20
-14.8259781836
 10
0.0736635113
 20
-14.8232737985
 10
0.0763884926
 20
-14.8204800826
 10
0.0790293094
 20
-14.8176004033
 10
0.0815839683
 20
-14.8146386714
 10
0.0840504756
 20
-14.811598798
 10
0.0864268379
 20
-14.8084846937
 10
0.0887110616
 20
-14.8053002695
 10
0.0909011532
 20
-14.8020494362
 10
0.0929951638
 20
-14.7987367337
 10
0.0949913232
 20
-14.7953692175
 10
0.096887906
 20
-14.7919545719
 10
0.0986831866
 20
-14.7885004814
 10
0.1003754395
 20
-14.7850146304
 10
0.1019629392
 20
-14.7815047034
 10
0.1034439602
 20
-14.7779783848
 10
0.1050358968
 20
-14.7738520327
 10
0.1064835632
 20
-14.769714942
 10
0.1077899675
 20
-14.7655682254
 10
0.1089581176
 20
-14.7614129956
 10
0.1099910214
 20
-14.7572503656
 10
0.1108916867
 20
-14.753081448
 10
0.1115600482
 20
-14.7495025491
 10
0.1121313598
 20
-14.7459122684
 10
0.1126035168
 20
-14.7423030259
 10
0.1129744141
 20
-14.7386672418
 10
0.1132419468
 20
-14.734997336
 10
0.1134040101
 20
-14.7312857286
 10
0.113458499
 20
-14.7275248397
  0
LWPOLYLINE
  5
25C
100
AcDbEntity
  8
CURVE
100
AcDbPolyline
 62
253
  6
CONTINUOUS
 90
73
 70
0
 10
1.4623042979
 20
-14.005670951
 10
1.4669025027
 20
-14.0055803152
 10
1.4714302156
 20
-14.005311928
 10
1.4759009772
 20
-14.0048710689
 10
1.4803283282
 20
-14.004263018
 10
1.4847258092
 20
-14.003493055
 10
1.4891069608
 20
-14.0025664597
 10
1.4934825909
 20
-14.0014874126
 10
1.4978525771
 20
-14.0002556964
 10
1.5022140638
 20
-13.9988699946
 10
1.5065641958
 20
-13.9973289903
 10
1.5109001178
 20
-13.9956313672
 10
1.5152189743
 20
-13.9937758084
 10
1.5195166265
 20
-13.9917619071
 10
1.5237838013
 20
-13.9895928958
 10
1.528009942
 20
-13.9872729166
 10
1.5321844919
 20
-13.9848061118
 10
1.5362968942
 20
-13.9821966234
 10
1.5403365923
 20
-13.9794485938
 10
1.5442940157
 20
-13.976565266
 10
1.548163538
 20
-13.9735462872
 10
1.5519405192
 20
-13.9703904056
 10
1.5556203192
 20
-13.9670963693
 10
1.5591982979
 20
-13.9636629263
 10
1.5626698152
 20
-13.960088825
 10
1.5660289923
 20
-13.9563740432
 10
1.5692649957
 20
-13.9525234786
 10
1.5723657532
 20
-13.9485432588
 10
1.5753191926
 20
-13.9444395113
 10
1.5781132416
 20
-13.9402183637
 10
1.5807358281
 20
-13.9358859434
 10
1.5831767362
 20
-13.9314485455
 10
1.5854331757
 20
-13.9269131342
 10
1.5875042128
 20
-13.9222868416
 10
1.5893889136
 20
-13.9175767992
 10
1.5910863442
 20
-13.912790139
 10
1.5925955709
 20
-13.9079339927
 10
1.5939156088
 20
-13.9030157149
 10
1.5950452695
 20
-13.8980435509
 10
1.5959833139
 20
-13.8930259688
 10
1.5967285026
 20
-13.8879714365
 10
1.5972795962
 20
-13.8828884222
 10
1.5976353557
 20
-13.877785394
 10
1.5977947917
 20
-13.8726709835
 10
1.5977579157
 20
-13.8675544776
 10
1.5975249894
 20
-13.8624453267
 10
1.5970962744
 20
-13.8573529813
 10
1.5964720321
 20
-13.8522868918
 10
1.5956525242
 20
-13.8472565089
 10
1.5946385717
 20
-13.8422706184
 10
1.5934332323
 20
-13.8373353488
 10
1.5920401234
 20
-13.832456164
 10
1.5904628621
 20
-13.8276385278
 10
1.5887050657
 20
-13.8228879042
 10
1.5867703514
 20
-13.8182097571
 10
1.5846635849
 20
-13.8136104161
 10
1.5823946251
 20
-13.8090996734
 10
1.5799745796
 20
-13.8046881869
 10
1.5774145558
 20
-13.8003866146
 10
1.5747256613
 20
-13.7962056143
 10
1.5719190035
 20
-13.7921558441
 10
1.5690044638
 20
-13.7882458763
 10
1.5659870187
 20
-13.7844759412
 10
1.5628704189
 20
-13.7808441837
 10
1.5596584148
 20
-13.7773487487
 10
1.556354757
 20
-13.7739877809
 10
1.5529631959
 20
-13.7707594252
 10
1.5494841164
 20
-13.7676614979
 10
1.5459044403
 20
-13.7646905009
 10
1.5422077237
 20
-13.7618426077
 10
1.5383775228
 20
-13.7591139916
 10
1.5343973936
 20
-13.756500826
 10
1.5302508923
 20
-13.7539992844
  0
LWPOLYLINE
  5
25D
100
AcDbEntity
  8
CURVE
100
AcDbPolyline
 62
253
  6
CONTINUOUS
 90
29
 70
0
 10
-1.5048389597
 20
-14.005670951
 10
-1.5022487613
 20
-14.0056446431
 10
-1.4996734503
 20
-14.0055663117
 10
-1.4971129909
 20
-14.0054368445
 10
-1.494567347
 20
-14.0052571297
 10
-1.4920364829
 20
-14.0050280552
 10
-1.4895203625
 20
-14.0047505089
 10
-1.4870189499
 20
-14.0044253789
 10
-1.4845322092
 20
-14.0040535532
 10
-1.4820601045
 20
-14.0036359197
 10
-1.4796025998
 20
-14.0031733664
 10
-1.4771596593
 20
-14.0026667813
 10
-1.474731247
 20
-14.0021170523
 10
-1.4723173269
 20
-14.0015250676
 10
-1.4699178632
 20
-14.0008917149
 10
-1.4675328412
 20
-14.000217662
 10
-1.4651623318
 20
-13.9995026943
 10
-1.4628064271
 20
-13.998746377
 10
-1.4604652193
 20
-13.9979482754
 10
-1.4581388004
 20
-13.9971079545
 10
-1.4558272627
 20
-13.9962249795
 10
-1.4535306983
 20
-13.9952989155
 10
-1.4512491993
 20
-13.9943293278
 10
-1.4489828578
 20
-13.9933157815
 10
-1.4467317661
 20
-13.9922578417
 10
-1.4444960163
 20
-13.9911550736
 10
-1.4422757004
 20
-13.9900070423
 10
-1.4400709107
 20
-13.9888133131
 10
-1.4378817392
 20
-13.987573451
  0
LWPOLYLINE
  5
25E
100
AcDbEntity
  8
ASSI
100
AcDbPolyline
 62
253
  6
CONTINUOUS
 90
28
 70
0
 10
-11.0847958845
 20
-21.5128641473
 10
-11.0839245411
 20
-21.5418798589
 10
-11.0813665257
 20
-21.5707975056
 10
-11.0771304837
 20
-21.5995193528
 10
-11.0712307315
 20
-21.6279483279
 10
-11.0636872088
 20
-21.6559883481
 10
-11.0545254106
 20
-21.6835446452
 10
-11.0437763015
 20
-21.7105240858
 10
-11.0314762105
 20
-21.7368354859
 10
-11.0176667087
 20
-21.7623899197
 10
-11.0023944688
 20
-21.7871010195
 10
-10.9857111069
 20
-21.8108852678
 10
-10.9676730085
 20
-21.8336622797
 10
-10.9483411379
 20
-21.8553550745
 10
-10.9277808318
 20
-21.8758903359
 10
-10.9060615789
 20
-21.8951986597
 10
-10.8832567848
 20
-21.9132147884
 10
-10.8594435239
 20
-21.929877832
 10
-10.8347022793
 20
-21.9451314733
 10
-10.80911667
 20
-21.9589241587
 10
-10.7827731691
 20
-21.9712092724
 10
-10.7557608112
 20
-21.9819452935
 10
-10.7281708913
 20
-21.9910959368
 10
-10.7000966564
 20
-21.9986302755
 10
-10.6716329907
 20
-22.0045228452
 10
-10.6428760944
 20
-22.0087537305
 10
-10.6139231586
 20
-22.0113086319
 10
-10.5848720369
 20
-22.0121789146
  0
LWPOLYLINE
  5
25F
100
AcDbEntity
  8
ASSI
100
AcDbPolyline
 62
253
  6
CONTINUOUS
 90
28
 70
0
 10
-11.0847958845
 20
21.4859567619
 10
-11.0839245406
 20
21.5149724829
 10
-11.0813665237
 20
21.543890138
 10
-11.0771304792
 20
21.5726119927
 10
-11.071230724
 20
21.6010409743
 10
-11.0636871976
 20
21.629081
 10
-11.0545253955
 20
21.6566373015
 10
-11.0437762821
 20
21.6836167453
 10
-11.0314761869
 20
21.7099281476
 10
-11.0176666809
 20
21.7354825825
 10
-11.002394437
 20
21.7601936824
 10
-10.9857110716
 20
21.7839779299
 10
-10.9676729701
 20
21.8067549402
 10
-10.948341097
 20
21.8284477326
 10
-10.9277807891
 20
21.8489829909
 10
-10.9060615351
 20
21.8682913112
 10
-10.8832567407
 20
21.886307436
 10
-10.8594434804
 20
21.9029704753
 10
-10.8347022371
 20
21.9182241123
 10
-10.8091166301
 20
21.9320167935
 10
-10.7827731322
 20
21.944301903
 10
-10.755760778
 20
21.9550379202
 10
-10.7281708625
 20
21.9641885601
 10
-10.7000966327
 20
21.9717228958
 10
-10.6716329725
 20
21.9776154631
 10
-10.6428760819
 20
21.9818463466
 10
-10.6139231522
 20
21.984401247
 10
-10.5848720369
 20
21.9852715293
  0
LWPOLYLINE
  5
260
100
AcDbEntity
  8
CURVE
100
AcDbPolyline
 62
253
  6
CONTINUOUS
 90
54
 70
0
 10
-0.021408442
 20
-11.9055142848
 10
-0.01768037
 20
-11.9054606948
 10
-0.0140003512
 20
-11.9053012581
 10
-0.0103608948
 20
-11.9050379746
 10
-0.0067545104
 20
-11.9046728439
 10
-0.0031737071
 20
-11.9042078659
 10
0.0003890056
 20
-11.9036450404
 10
0.0039411184
 20
-11.9029863672
 10
0.0080796036
 20
-11.9020984633
 10
0.0122122965
 20
-11.9010801236
 10
0.0163376367
 20
-11.89992865
 10
0.0204540638
 20
-11.8986413442
 10
0.0245600175
 20
-11.8972155079
 10
0.0286539374
 20
-11.8956484427
 10
0.0327326569
 20
-11.8939383316
 10
0.0367865835
 20
-11.8920868813
 10
0.0408045181
 20
-11.8900966797
 10
0.044775262
 20
-11.8879703147
 10
0.0486876163
 20
-11.8857103741
 10
0.0525303819
 20
-11.8833194459
 10
0.0557609299
 20
-11.8811676339
 10
0.0589288194
 20
-11.87892221
 10
0.0620307462
 20
-11.8765838972
 10
0.0650634057
 20
-11.874153418
 10
0.0680234937
 20
-11.8716314953
 10
0.0709077058
 20
-11.8690188517
 10
0.0737127376
 20
-11.86631621
 10
0.0764355136
 20
-11.863524821
 10
0.079073874
 20
-11.8606480471
 10
0.0816258879
 20
-11.8576897788
 10
0.0840896243
 20
-11.8546539067
 10
0.0864631523
 20
-11.8515443212
 10
0.088744541
 20
-11.8483649129
 10
0.0909318595
 20
-11.8451195722
 10
0.0930232108
 20
-11.8418128174
 10
0.0950168344
 20
-11.8384516778
 10
0.0969110037
 20
-11.8350438107
 10
0.0987039921
 20
-11.8315968729
 10
0.1003940731
 20
-11.8281185218
 10
0.1019795201
 20
-11.8246164144
 10
0.1034586065
 20
-11.8210982078
 10
0.1050484338
 20
-11.816981661
 10
0.1064941476
 20
-11.8128547415
 10
0.1077987529
 20
-11.8087185671
 10
0.1089652547
 20
-11.8045742556
 10
0.1099966582
 20
-11.8004229249
 10
0.1108959683
 20
-11.7962656929
 10
0.1115632842
 20
-11.7926971238
 10
0.1121336698
 20
-11.7891174786
 10
0.1126050353
 20
-11.7855191956
 10
0.1129752909
 20
-11.7818947131
 10
0.1132423466
 20
-11.7782364693
 10
0.1134041126
 20
-11.7745369027
 10
0.113458499
 20
-11.7707884515
  0
LWPOLYLINE
  5
261
100
AcDbEntity
  8
CURVE
100
AcDbPolyline
 62
253
  6
CONTINUOUS
 90
75
 70
0
 10
-1.0982963293
 20
-12.5272498402
 10
-1.0945375928
 20
-12.5271972874
 10
-1.0908703284
 20
-12.5270408847
 10
-1.0872584366
 20
-12.5267825151
 10
-1.0836658181
 20
-12.5264240618
 10
-1.0788623766
 20
-12.5257934023
 10
-1.074058231
 20
-12.5249908837
 10
-1.0692825903
 20
-12.5240192258
 10
-1.0657339547
 20
-12.5231809363
 10
-1.0622110115
 20
-12.5222490776
 10
-1.0587091855
 20
-12.5212239995
 10
-1.0552326879
 20
-12.5201072838
 10
-1.050643781
 20
-12.5184771878
 10
-1.0461021727
 20
-12.5166808552
 10
-1.041598742
 20
-12.5147116011
 10
-1.0371272283
 20
-12.5125629051
 10
-1.0326928143
 20
-12.5102289057
 10
-1.0283035433
 20
-12.5077039059
 10
-1.0239706828
 20
-12.5049861114
 10
-1.0197183968
 20
-12.5020893381
 10
-1.0155740734
 20
-12.4990313048
 10
-1.0115610411
 20
-12.4958274093
 10
-1.00768639
 20
-12.4924837675
 10
-1.0039531505
 20
-12.4890041743
 10
-1.000364353
 20
-12.4853924248
 10
-0.9969230279
 20
-12.4816523142
 10
-0.9936322058
 20
-12.4777876374
 10
-0.9904950827
 20
-12.4738024982
 10
-0.9875155184
 20
-12.4697022343
 10
-0.9846975381
 20
-12.4654924921
 10
-0.9820451672
 20
-12.461178918
 10
-0.979562431
 20
-12.4567671582
 10
-0.9772533549
 20
-12.4522628593
 10
-0.97512134
 20
-12.44767248
 10
-0.97316729
 20
-12.44300573
 10
-0.9713914845
 20
-12.4382731312
 10
-0.969794203
 20
-12.4334852058
 10
-0.9683757249
 20
-12.4286524758
 10
-0.9671363299
 20
-12.4237854634
 10
-0.966076176
 20
-12.4188937253
 10
-0.9651949362
 20
-12.4139829576
 10
-0.9644921619
 20
-12.4090578908
 10
-0.9639674048
 20
-12.4041232557
 10
-0.9636202164
 20
-12.399183783
 10
-0.9634501482
 20
-12.3942442033
 10
-0.9634569721
 20
-12.3893096971
 10
-0.9636413412
 20
-12.3843872436
 10
-0.964004129
 20
-12.3794842718
 10
-0.9645462087
 20
-12.3746082105
 10
-0.9652684538
 20
-12.3697664887
 10
-0.9661717378
 20
-12.3649665354
 10
-0.9672561067
 20
-12.3602153013
 10
-0.9685182974
 20
-12.3555178248
 10
-0.9699542196
 20
-12.350878666
 10
-0.9715597827
 20
-12.3463023851
 10
-0.9733308964
 20
-12.3417935423
 10
-0.9752634703
 20
-12.3373566977
 10
-0.9773526609
 20
-12.3329969528
 10
-0.9795906127
 20
-12.3287215741
 10
-0.9819687174
 20
-12.3245383695
 10
-0.9844783663
 20
-12.3204551467
 10
-0.987110951
 20
-12.3164797136
 10
-0.9898578629
 20
-12.3126198779
 10
-0.9927112923
 20
-12.3088821236
 10
-0.9956666239
 20
-12.3052676387
 10
-0.9987200409
 20
-12.3017762876
 10
-1.0018677267
 20
-12.2984079342
 10
-1.0051058647
 20
-12.2951624429
 10
-1.0084306382
 20
-12.2920396779
 10
-1.011841404
 20
-12.2890389562
 10
-1.0153502129
 20
-12.2861574067
 10
-1.0189722888
 20
-12.2833916108
 10
-1.022722856
 20
-12.2807381504
 10
-1.0266171386
 20
-12.2781936071
 10
-1.0306703607
 20
-12.2757545625
  0
LWPOLYLINE
  5
262
100
AcDbEntity
  8
CURVE
100
AcDbPolyline
 62
253
  6
CONTINUOUS
 90
29
 70
0
 10
1.0557279194
 20
-12.5272498402
 10
1.058329052
 20
-12.5272236582
 10
1.0609153636
 20
-12.5271457094
 10
1.0634868803
 20
-12.5270168891
 10
1.0660436282
 20
-12.5268380927
 10
1.0685856334
 20
-12.5266102158
 10
1.0711129222
 20
-12.5263341537
 10
1.0736255207
 20
-12.5260108019
 10
1.076123455
 20
-12.5256410558
 10
1.0786067512
 20
-12.5252258108
 10
1.0810754357
 20
-12.5247659625
 10
1.0835295344
 20
-12.5242624062
 10
1.0859690735
 20
-12.5237160374
 10
1.0883940792
 20
-12.5231277515
 10
1.0908045777
 20
-12.522498444
 10
1.0932005803
 20
-12.5218287956
 10
1.0955820399
 20
-12.5211186289
 10
1.0979488945
 20
-12.5203675517
 10
1.100301082
 20
-12.5195751718
 10
1.1026385406
 20
-12.5187410971
 10
1.1049612083
 20
-12.5178649354
 10
1.107269023
 20
-12.5169462946
 10
1.1095619229
 20
-12.5159847824
 10
1.1118398459
 20
-12.5149800068
 10
1.1141027302
 20
-12.5139315756
 10
1.1163505136
 20
-12.5128390966
 10
1.1185831344
 20
-12.5117021776
 10
1.1208005305
 20
-12.5105204266
 10
1.1230026399
 20
-12.5092934514
  0
LWPOLYLINE
  5
263
100
AcDbEntity
  8
CURVE
100
AcDbPolyline
 62
253
  6
CONTINUOUS
 90
29
 70
0
 10
-1.1658900795
 20
-12.5091523402
 10
-1.1636091537
 20
-12.5104186981
 10
-1.1613166394
 20
-12.5116354704
 10
-1.1590127819
 20
-12.5128032467
 10
-1.1566978262
 20
-12.5139226164
 10
-1.1543720172
 20
-12.5149941692
 10
-1.1520356
 20
-12.5160184946
 10
-1.1496888196
 20
-12.5169961822
 10
-1.1473319212
 20
-12.5179278216
 10
-1.1449651496
 20
-12.5188140024
 10
-1.14258875
 20
-12.519655314
 10
-1.1402029674
 20
-12.5204523462
 10
-1.1378080467
 20
-12.5212056884
 10
-1.1354042332
 20
-12.5219159302
 10
-1.1329917717
 20
-12.5225836611
 10
-1.1305708526
 20
-12.523209271
 10
-1.1281414474
 20
-12.5237923496
 10
-1.1257034726
 20
-12.5243322871
 10
-1.1232568449
 20
-12.5248284735
 10
-1.120801481
 20
-12.5252802989
 10
-1.1183372977
 20
-12.5256871533
 10
-1.1158642115
 20
-12.5260484268
 10
-1.1133821391
 20
-12.5263635095
 10
-1.1108909973
 20
-12.5266317913
 10
-1.1083907026
 20
-12.5268526624
 10
-1.1058811718
 20
-12.5270255127
 10
-1.1033623216
 20
-12.5271497325
 10
-1.1008340685
 20
-12.5272247116
 10
-1.0982963293
 20
-12.5272498402
  0
LWPOLYLINE
  5
264
100
AcDbEntity
  8
CURVE
100
AcDbPolyline
 62
253
  6
CONTINUOUS
 90
29
 70
0
 10
1.3949942997
 20
-13.987573451
 10
1.3972665441
 20
-13.988840723
 10
1.3995503304
 20
-13.9900582587
 10
1.4018454049
 20
-13.9912266579
 10
1.404151514
 20
-13.9923465206
 10
1.4064684039
 20
-13.9934184467
 10
1.4087958209
 20
-13.9944430361
 10
1.4111335114
 20
-13.9954208887
 10
1.4134812216
 20
-13.9963526043
 10
1.4158386978
 20
-13.9972387831
 10
1.4182056863
 20
-13.9980800247
 10
1.4205819335
 20
-13.9988769293
 10
1.4229671856
 20
-13.9996300966
 10
1.4253611889
 20
-14.0003401266
 10
1.4277636898
 20
-14.0010076192
 10
1.4301744911
 20
-14.0016329735
 10
1.4325936224
 20
-14.0022157852
 10
1.4350211698
 20
-14.0027554492
 10
1.4374572196
 20
-14.0032513605
 10
1.4399018578
 20
-14.0037029139
 10
1.4423551706
 20
-14.0041095044
 10
1.4448172441
 20
-14.0044705269
 10
1.4472881646
 20
-14.0047853762
 10
1.4497680182
 20
-14.0050534472
 10
1.452256891
 20
-14.005274135
 10
1.4547548693
 20
-14.0054468343
 10
1.457262039
 20
-14.0055709402
 10
1.4597784865
 20
-14.0056458474
 10
1.4623042979
 20
-14.005670951
  0
LINE
  5
265
100
AcDbEntity
  8
CURVE
100
AcDbLine
 62
253
  6
CONTINUOUS
 10
-1.5727824403
 20
-12.2741317848
 11
-1.1658900795
 21
-12.5091523402
  0
LINE
  5
266
100
AcDbEntity
  8
CURVE
100
AcDbLine
 62
253
  6
CONTINUOUS
 10
0.9881356989
 20
-13.7525881733
 11
1.3949942997
 21
-13.987573451
  0
LWPOLYLINE
  5
267
100
AcDbEntity
  8
ASSI
100
AcDbPolyline
 62
253
  6
CONTINUOUS
 90
9
 70
0
 10
-11.0792242727
 20
21.4157420934
 10
-11.0798954046
 20
21.4302195746
 10
-11.0805751578
 20
21.4430891152
 10
-11.0812635838
 20
21.4543424298
 10
-11.0819606311
 20
21.4639878037
 10
-11.0826627407
 20
21.4719767705
 10
-11.0833687264
 20
21.4782931748
 10
-11.0840797743
 20
21.4829531719
 10
-11.0847958845
 20
21.4859567619
  0
LWPOLYLINE
  5
268
100
AcDbEntity
  8
ASSI
100
AcDbPolyline
 62
253
  6
CONTINUOUS
 90
22
 70
0
 10
-11.0608953006
 20
0.3407050991
 10
-11.0603339761
 20
0.3257610721
 10
-11.0586576929
 20
0.3109006037
 10
-11.0558758238
 20
0.2962067837
 10
-11.0520039235
 20
0.2817617699
 10
-11.0470636415
 20
0.2676463294
 10
-11.0410826011
 20
0.2539393869
 10
-11.0340942448
 20
0.2407175824
 10
-11.0261376473
 20
0.2280548431
 10
-11.0172572972
 20
0.2160219708
 10
-11.0075028482
 20
0.2046862449
 10
-10.9969288409
 20
0.1941110467
 10
-10.985594399
 20
0.1843555055
 10
-10.9735628973
 20
0.1754741669
 10
-10.9609016084
 20
0.1675166889
 10
-10.9476813262
 20
0.1605275637
 10
-10.9339759698
 20
0.154545869
 10
-10.9198621704
 20
0.1496050496
 10
-10.9054188432
 20
0.1457327303
 10
-10.8907267453
 20
0.1429505617
 10
-10.8758680249
 20
0.1412740988
 10
-10.8609257616
 20
0.1407127144
  0
LINE
  5
269
100
AcDbEntity
  8
ASSI
100
AcDbLine
 62
253
  6
CONTINUOUS
 10
-11.0779181578
 20
21.3821756978
 11
-11.0792242727
 21
21.4157420934
  0
LINE
  5
26A
100
AcDbEntity
  8
ASSI
100
AcDbLine
 62
253
  6
CONTINUOUS
 10
-10.5793002646
 20
21.8799623893
 11
-10.5806511234
 21
21.9209641354
  0
LINE
  5
26B
100
AcDbEntity
  8
ASSI
100
AcDbLine
 62
253
  6
CONTINUOUS
 10
-11.0766634086
 20
21.3425593115
 11
-11.0779181578
 21
21.3821756978
  0
LINE
  5
26C
100
AcDbEntity
  8
ASSI
100
AcDbLine
 62
253
  6
CONTINUOUS
 10
-11.0754696789
 20
21.2971742623
 11
-11.0766634086
 21
21.3425593115
  0
LINE
  5
26D
100
AcDbEntity
  8
ASSI
100
AcDbLine
 62
253
  6
CONTINUOUS
 10
-10.5779941877
 20
21.8295847169
 11
-10.5793002646
 21
21.8799623893
  0
LINE
  5
26E
100
AcDbEntity
  8
ASSI
100
AcDbLine
 62
253
  6
CONTINUOUS
 10
-11.0738111729
 20
21.2190000752
 11
-11.0754696789
 21
21.2971742623
  0
LINE
  5
26F
100
AcDbEntity
  8
ASSI
100
AcDbLine
 62
253
  6
CONTINUOUS
 10
-10.5761350472
 20
21.7371989594
 11
-10.5779941877
 21
21.8295847169
  0
LINE
  5
270
100
AcDbEntity
  8
ASSI
100
AcDbLine
 62
253
  6
CONTINUOUS
 10
-11.0718841837
 20
21.0977875868
 11
-11.0738111729
 21
21.2190000752
  0
LINE
  5
271
100
AcDbEntity
  8
ASSI
100
AcDbLine
 62
253
  6
CONTINUOUS
 10
-10.5738873679
 20
21.5848685551
 11
-10.5761350472
 21
21.7371989594
  0
LINE
  5
272
100
AcDbEntity
  8
ASSI
100
AcDbLine
 62
253
  6
CONTINUOUS
 10
-11.0700029989
 20
20.9235793313
 11
-11.0718841837
 21
21.0977875868
  0
LINE
  5
273
100
AcDbEntity
  8
ASSI
100
AcDbLine
 62
253
  6
CONTINUOUS
 10
-10.5711332423
 20
21.302548931
 11
-10.5738873679
 21
21.5848685551
  0
LINE
  5
274
100
AcDbEntity
  8
ASSI
100
AcDbLine
 62
253
  6
CONTINUOUS
 10
-11.0686206521
 20
20.6910955417
 11
-11.0700029989
 21
20.9235793313
  0
LINE
  5
275
100
AcDbEntity
  8
ASSI
100
AcDbLine
 62
253
  6
CONTINUOUS
 10
-10.5688573863
 20
20.8530368637
 11
-10.5711332423
 21
21.302548931
  0
LINE
  5
276
100
AcDbEntity
  8
ASSI
100
AcDbLine
 62
7
  6
CONTINUOUS
 10
-11.169266828
 20
-13.1134536927
 11
-11.156112923
 21
-21.7269892524
  0
LINE
  5
277
100
AcDbEntity
  8
ASSI
100
AcDbLine
 62
7
  6
CONTINUOUS
 10
-11.169266828
 20
-0.3134308474
 11
-11.169266828
 21
-13.1134536927
  0
LINE
  5
278
100
AcDbEntity
  8
ASSI
100
AcDbLine
 62
7
  6
CONTINUOUS
 10
-11.169266828
 20
0.286523462
 11
-11.169266828
 21
13.0865463073
  0
LINE
  5
279
100
AcDbEntity
  8
ASSI
100
AcDbLine
 62
253
  6
CONTINUOUS
 10
-11.0608955907
 20
0.340704954
 11
-11.0686206521
 21
20.6910955417
  0
LINE
  5
27A
100
AcDbEntity
  8
ASSI
100
AcDbLine
 62
253
  6
CONTINUOUS
 10
-10.5609714823
 20
0.143285068
 11
-10.5688573863
 21
20.8530368637
  0
LINE
  5
27B
100
AcDbEntity
  8
ASSI
100
AcDbLine
 62
7
  6
CONTINUOUS
 10
-11.169266828
 20
13.0865463073
 11
-11.156112923
 21
21.7000818671
  0
LINE
  5
27C
100
AcDbEntity
  8
ASSI
100
AcDbLine
 62
253
  6
CONTINUOUS
 10
-11.0687811488
 20
-20.7580398508
 11
-11.0608955907
 21
-0.3676123394
  0
LINE
  5
27D
100
AcDbEntity
  8
ASSI
100
AcDbLine
 62
253
  6
CONTINUOUS
 10
-10.5695081396
 20
-21.0558152188
 11
-10.5609714823
 21
-0.1701924534
  0
LINE
  5
27E
100
AcDbEntity
  8
ASSI
100
AcDbLine
 62
253
  6
CONTINUOUS
 10
-10.5719604337
 20
-21.4299369466
 11
-10.5695081396
 21
-21.0558152188
  0
LINE
  5
27F
100
AcDbEntity
  8
ASSI
100
AcDbLine
 62
253
  6
CONTINUOUS
 10
-11.0703290041
 20
-20.9870755968
 11
-11.0687811488
 21
-20.7580398508
  0
LINE
  5
280
100
AcDbEntity
  8
ASSI
100
AcDbLine
 62
253
  6
CONTINUOUS
 10
-10.574421973
 20
-21.6527999466
 11
-10.5719604337
 21
-21.4299369466
  0
LINE
  5
281
100
AcDbEntity
  8
ASSI
100
AcDbLine
 62
253
  6
CONTINUOUS
 10
-11.0723327977
 20
-21.1566562958
 11
-11.0703290041
 21
-20.9870755968
  0
LINE
  5
282
100
AcDbEntity
  8
ASSI
100
AcDbLine
 62
253
  6
CONTINUOUS
 10
-10.5767394969
 20
-21.7970789306
 11
-10.574421973
 21
-21.6527999466
  0
LINE
  5
283
100
AcDbEntity
  8
ASSI
100
AcDbLine
 62
253
  6
CONTINUOUS
 10
-11.0743457978
 20
-21.2732886529
 11
-11.0723327977
 21
-21.1566562958
  0
LINE
  5
284
100
AcDbEntity
  8
ASSI
100
AcDbLine
 62
253
  6
CONTINUOUS
 10
-10.5779941878
 20
-21.8564921028
 11
-10.5767394969
 21
-21.7970789306
  0
LINE
  5
285
100
AcDbEntity
  8
ASSI
100
AcDbLine
 62
253
  6
CONTINUOUS
 10
-11.0760589353
 20
-21.3474934514
 11
-11.0743457978
 21
-21.2732886529
  0
LINE
  5
286
100
AcDbEntity
  8
ASSI
100
AcDbLine
 62
253
  6
CONTINUOUS
 10
-10.5793002646
 20
-21.9068697751
 11
-10.5779941878
 21
-21.8564921028
  0
LINE
  5
287
100
AcDbEntity
  8
ASSI
100
AcDbLine
 62
253
  6
CONTINUOUS
 10
-11.0772831747
 20
-21.3899941691
 11
-11.0760589353
 21
-21.3474934514
  0
LWPOLYLINE
  5
288
100
AcDbEntity
  8
ASSI
100
AcDbPolyline
 62
253
  6
CONTINUOUS
 90
22
 70
0
 10
-11.0608953006
 20
-0.3676124844
 10
-11.0603339779
 20
-0.3526684809
 10
-11.0586576997
 20
-0.3378080342
 10
-11.0558758386
 20
-0.3231142338
 10
-11.0520039489
 20
-0.3086692374
 10
-11.0470636796
 20
-0.2945538117
 10
-11.0410826532
 20
-0.2808468805
 10
-11.0340943118
 20
-0.2676250837
 10
-11.0261377292
 20
-0.2549623486
 10
-11.0172573934
 20
-0.2429294767
 10
-11.0075029571
 20
-0.2315937477
 10
-10.9969289606
 20
-0.2210185431
 10
-10.9855945264
 20
-0.2112629924
 10
-10.9735630291
 20
-0.2023816421
 10
-10.9609017405
 20
-0.1944241505
 10
-10.9476814541
 20
-0.1874350107
 10
-10.9339760886
 20
-0.181453301
 10
-10.9198622753
 20
-0.1765124673
 10
-10.905418929
 20
-0.1726401352
 10
-10.8907268071
 20
-0.1698579563
 10
-10.8758680579
 20
-0.1681814866
 10
-10.8609257616
 20
-0.1676200998
  0
LWPOLYLINE
  5
289
100
AcDbEntity
  8
CURVE
100
AcDbPolyline
 62
253
  6
CONTINUOUS
 90
84
 70
0
 10
-1.4378817392
 20
-12.0405576181
 10
-1.4425140681
 20
-12.0380005931
 10
-1.4471416181
 20
-12.0356762092
 10
-1.4517762659
 20
-12.0335705051
 10
-1.4564298882
 20
-12.0316695194
 10
-1.4611143616
 20
-12.0299592907
 10
-1.4658415628
 20
-12.0284258578
 10
-1.4706207774
 20
-12.0270584504
 10
-1.4754509267
 20
-12.0258590633
 10
-1.4803283411
 20
-12.0248328824
 10
-1.4852493508
 20
-12.0239850936
 10
-1.4902102861
 20
-12.0233208828
 10
-1.4952074774
 20
-12.0228454359
 10
-1.5002360429
 20
-12.0225630174
 10
-1.5052862539
 20
-12.0224742061
 10
-1.5103471695
 20
-12.0225786594
 10
-1.5154078489
 20
-12.0228760344
 10
-1.5204573513
 20
-12.0233659887
 10
-1.525484736
 20
-12.0240481795
 10
-1.5304800056
 20
-12.0249218636
 10
-1.535436937
 20
-12.0259846949
 10
-1.5403502508
 20
-12.0272339269
 10
-1.5452146673
 20
-12.0286668131
 10
-1.550024907
 20
-12.0302806068
 10
-1.5547756903
 20
-12.0320725613
 10
-1.5594614231
 20
-12.0340398481
 10
-1.5640752525
 20
-12.0361793098
 10
-1.5686100112
 20
-12.0384877069
 10
-1.5730585318
 20
-12.0409617999
 10
-1.577413647
 20
-12.0435983494
 10
-1.5816681893
 20
-12.046394116
 10
-1.5858153372
 20
-12.0493458802
 10
-1.5898496525
 20
-12.0524505035
 10
-1.5937660429
 20
-12.0557048672
 10
-1.597559416
 20
-12.0591058528
 10
-1.6012246796
 20
-12.0626503418
 10
-1.6047567413
 20
-12.0663352156
 10
-1.6081501639
 20
-12.070156946
 10
-1.6113981307
 20
-12.0741103668
 10
-1.6144934803
 20
-12.0781899021
 10
-1.617429051
 20
-12.0823899758
 10
-1.6201976814
 20
-12.086705012
 10
-1.62279221
 20
-12.0911294349
 10
-1.6252065468
 20
-12.095656915
 10
-1.6274388881
 20
-12.1002781083
 10
-1.6294885017
 20
-12.1049829176
 10
-1.6313546556
 20
-12.1097612454
 10
-1.6330366175
 20
-12.1146029944
 10
-1.6345336553
 20
-12.1194980671
 10
-1.635845191
 20
-12.1244370606
 10
-1.6369712628
 20
-12.1294133504
 10
-1.6379120629
 20
-12.1344210062
 10
-1.6386677835
 20
-12.1394540978
 10
-1.639238617
 20
-12.144506695
 10
-1.6396247556
 20
-12.1495728678
 10
-1.6398260731
 20
-12.1546464911
 10
-1.6398411692
 20
-12.1597206605
 10
-1.6396683252
 20
-12.164788277
 10
-1.6393058224
 20
-12.1698422414
 10
-1.638751942
 20
-12.1748754545
 10
-1.6380049654
 20
-12.1798808172
 10
-1.6370639393
 20
-12.1848512617
 10
-1.6359309731
 20
-12.1897798451
 10
-1.6346089418
 20
-12.194659656
 10
-1.6331007203
 20
-12.1994837829
 10
-1.6314091836
 20
-12.2042453144
 10
-1.6295372065
 20
-12.2089373389
 10
-1.6274888756
 20
-12.2135525201
 10
-1.6252731227
 20
-12.218081822
 10
-1.6229000912
 20
-12.2225157835
 10
-1.6203799247
 20
-12.2268449438
 10
-1.6177227665
 20
-12.2310598419
 10
-1.6149387601
 20
-12.2351510168
 10
-1.6114430028
 20
-12.2398866714
 10
-1.6077859679
 20
-12.2444314741
 10
-1.6039744325
 20
-12.2487863584
 10
-1.6000151738
 20
-12.2529522575
 10
-1.5959149692
 20
-12.2569301047
 10
-1.5923918612
 20
-12.2601024656
 10
-1.5887585436
 20
-12.2631482163
 10
-1.5849979795
 20
-12.2660706903
 10
-1.5810931322
 20
-12.2688732208
 10
-1.5770269648
 20
-12.2715591412
 10
-1.5727824403
 20
-12.2741317848
  0
LWPOLYLINE
  5
28A
100
AcDbEntity
  8
CURVE
100
AcDbPolyline
 62
253
  6
CONTINUOUS
 90
85
 70
0
 10
1.1230026399
 20
-13.5191903956
 10
1.1196432247
 20
-13.5173065826
 10
1.1163202055
 20
-13.5155611982
 10
1.1129996561
 20
-13.513933748
 10
1.1096476503
 20
-13.5124037382
 10
1.1050886257
 20
-13.5104906039
 10
1.1004402662
 20
-13.5087300455
 10
1.0957294723
 20
-13.5071378458
 10
1.0921685121
 20
-13.5060621561
 10
1.088580464
 20
-13.5050875864
 10
1.0849605362
 20
-13.5042125195
 10
1.0813131701
 20
-13.5034387064
 10
1.0764139134
 20
-13.5025688608
 10
1.0714633579
 20
-13.5018892808
 10
1.0664469847
 20
-13.5014056149
 10
1.06135395
 20
-13.5011243326
 10
1.0561881121
 20
-13.5010551857
 10
1.0509570045
 20
-13.5012087472
 10
1.0456711456
 20
-13.5015933017
 10
1.0403529918
 20
-13.5022079819
 10
1.0350279843
 20
-13.5030496325
 10
1.0297221823
 20
-13.5041132082
 10
1.0244641171
 20
-13.5053861036
 10
1.0192829382
 20
-13.5068538233
 10
1.0142004315
 20
-13.5085044458
 10
1.0092089291
 20
-13.5103363459
 10
1.0042933996
 20
-13.5123504726
 10
0.9994429946
 20
-13.5145466867
 10
0.9946635985
 20
-13.5169204968
 10
0.9899652788
 20
-13.5194663237
 10
0.985358103
 20
-13.5221785881
 10
0.9808521385
 20
-13.5250517105
 10
0.9764574528
 20
-13.5280801118
 10
0.9721835841
 20
-13.5312584679
 10
0.9680379535
 20
-13.5345824756
 10
0.9640274526
 20
-13.5380480873
 10
0.9601589731
 20
-13.541651255
 10
0.9564394068
 20
-13.5453879312
 10
0.9528756453
 20
-13.5492540678
 10
0.9494744751
 20
-13.5532453661
 10
0.9462422617
 20
-13.5573565227
 10
0.9431852652
 20
-13.5615819829
 10
0.9403097457
 20
-13.5659161922
 10
0.9376219635
 20
-13.5703535961
 10
0.9351281787
 20
-13.5748886401
 10
0.9328334491
 20
-13.579515176
 10
0.930738023
 20
-13.5842246816
 10
0.9288409461
 20
-13.5890080408
 10
0.9271412644
 20
-13.593856138
 10
0.9256380238
 20
-13.5987598571
 10
0.92433027
 20
-13.6037100823
 10
0.923217113
 20
-13.6086980338
 10
0.9222979182
 20
-13.6137162761
 10
0.9215721153
 20
-13.6187577098
 10
0.9210391337
 20
-13.6238152355
 10
0.9206984031
 20
-13.6288817538
 10
0.9205493529
 20
-13.6339501653
 10
0.9205912679
 20
-13.6390130228
 10
0.9208228538
 20
-13.6440614884
 10
0.9212426715
 20
-13.649086376
 10
0.9218492819
 20
-13.6540784999
 10
0.9226412459
 20
-13.6590286743
 10
0.9236171243
 20
-13.6639277132
 10
0.9247749316
 20
-13.6687673077
 10
0.926110496
 20
-13.6735426562
 10
0.9276190993
 20
-13.6782498337
 10
0.9292960232
 20
-13.6828849154
 10
0.9311365494
 20
-13.6874439765
 10
0.9331359597
 20
-13.6919230921
 10
0.9357367596
 20
-13.6971854669
 10
0.9385419478
 20
-13.7023112286
 10
0.9415339139
 20
-13.7072845372
 10
0.9446950475
 20
-13.7120895528
 10
0.9480077381
 20
-13.7167104355
 10
0.9514562567
 20
-13.7211345458
 10
0.9550324003
 20
-13.7253620455
 10
0.9587298472
 20
-13.7293962968
 10
0.9625422757
 20
-13.7332406618
 10
0.9664633641
 20
-13.7368985028
 10
0.9698124287
 20
-13.739807019
 10
0.9732471879
 20
-13.7425925254
 10
0.9767822682
 20
-13.745259208
 10
0.9804322958
 20
-13.7478112529
 10
0.9842118973
 20
-13.750252846
 10
0.9881356989
 20
-13.7525881733
  0
LINE
  5
28B
100
AcDbEntity
  8
CURVE
100
AcDbLine
 62
253
  6
CONTINUOUS
 10
1.5302508923
 20
-13.7539992844
 11
1.1230026399
 21
-13.5191903956
  0
LINE
  5
28C
100
AcDbEntity
  8
CURVE
100
AcDbLine
 62
253
  6
CONTINUOUS
 10
-1.0306703607
 20
-12.2757545625
 11
-1.4378817392
 21
-12.0405576181
  0
LWPOLYLINE
  5
28D
100
AcDbEntity
  8
ASSI
100
AcDbPolyline
 62
253
  6
CONTINUOUS
 90
7
 70
0
 10
-10.5806511234
 20
21.9209641354
 10
-10.5813394884
 20
21.9378590966
 10
-10.5820364645
 20
21.9523113156
 10
-10.5827385751
 20
21.964296844
 10
-10.5834446613
 20
21.9737955532
 10
-10.5841558821
 20
21.9807913464
 10
-10.5848722373
 20
21.9852724369
  0
LWPOLYLINE
  5
28E
100
AcDbEntity
  8
CURVE
100
AcDbPolyline
 62
253
  6
CONTINUOUS
 90
84
 70
0
 10
1.8333470414
 20
14.59748378
 10
1.8367196635
 20
14.6009951605
 10
1.8399007807
 20
14.604569577
 10
1.8429060047
 20
14.6082161526
 10
1.8457509469
 20
14.6119440105
 10
1.8484512191
 20
14.6157622739
 10
1.8510224328
 20
14.6196800661
 10
1.8534768125
 20
14.6237052146
 10
1.8558130338
 20
14.6278403643
 10
1.8580263853
 20
14.6320868646
 10
1.8601121554
 20
14.6364460648
 10
1.8620656327
 20
14.6409193141
 10
1.8638821055
 20
14.6455079619
 10
1.8655560887
 20
14.6502108229
 10
1.8670790014
 20
14.6550165737
 10
1.8684414892
 20
14.6599113563
 10
1.8696341975
 20
14.6648813129
 10
1.870647772
 20
14.6699125853
 10
1.871472858
 20
14.6749913158
 10
1.8721014024
 20
14.6801045999
 10
1.8725305577
 20
14.6852433485
 10
1.8727587775
 20
14.6903994261
 10
1.8727845155
 20
14.6955646971
 10
1.8726062256
 20
14.700731026
 10
1.8722223615
 20
14.7058902772
 10
1.8716321753
 20
14.7110344676
 10
1.8708381125
 20
14.7161562229
 10
1.8698434173
 20
14.7212483212
 10
1.8686513334
 20
14.7263035406
 10
1.867265105
 20
14.7313146593
 10
1.8656879759
 20
14.7362744552
 10
1.8639230442
 20
14.7411756713
 10
1.8619728237
 20
14.7460109098
 10
1.8598396824
 20
14.750772738
 10
1.8575259881
 20
14.7554537228
 10
1.8550341088
 20
14.7600464313
 10
1.8523664124
 20
14.7645434308
 10
1.8495255186
 20
14.7689371628
 10
1.8465150552
 20
14.7732195677
 10
1.8433389014
 20
14.7773824602
 10
1.8400009369
 20
14.7814176551
 10
1.836505041
 20
14.7853169674
 10
1.8328550933
 20
14.7890722118
 10
1.829055524
 20
14.7926760357
 10
1.8251129664
 20
14.7961244165
 10
1.8210346046
 20
14.7994141643
 10
1.8168276227
 20
14.8025420889
 10
1.8124992046
 20
14.8055050004
 10
1.8080565345
 20
14.8082997087
 10
1.8035070302
 20
14.8109229397
 10
1.7988590445
 20
14.8133710835
 10
1.7941211643
 20
14.8156404458
 10
1.7893019761
 20
14.8177273325
 10
1.7844100666
 20
14.8196280497
 10
1.7794540225
 20
14.821338903
 10
1.7744425872
 20
14.8228563658
 10
1.769385131
 20
14.8241775802
 10
1.7642911811
 20
14.8252998557
 10
1.7591702645
 20
14.8262205019
 10
1.7540319083
 20
14.8269368282
 10
1.7488856396
 20
14.8274461441
 10
1.7437404535
 20
14.8277467302
 10
1.7386032173
 20
14.8278407509
 10
1.7334802662
 20
14.8277313418
 10
1.7283779356
 20
14.8274216386
 10
1.7233025608
 20
14.8269147766
 10
1.718260477
 20
14.8262138916
 10
1.7132592283
 20
14.8253232012
 10
1.7083111946
 20
14.8242512514
 10
1.7034299641
 20
14.8230076703
 10
1.6986291256
 20
14.8216020862
 10
1.6939222675
 20
14.8200441271
 10
1.6893229783
 20
14.8183434213
 10
1.6839605092
 20
14.8161263769
 10
1.6787693137
 20
14.8137263112
 10
1.6737461987
 20
14.8111518934
 10
1.668887971
 20
14.808411793
 10
1.6641914374
 20
14.8055146794
 10
1.6603975703
 20
14.8029834386
 10
1.656704114
 20
14.8003344389
 10
1.6531014094
 20
14.7975529378
 10
1.6495797971
 20
14.7946241929
 10
1.6461296181
 20
14.7915334619
 10
1.6427412129
 20
14.7882660022
  0
LWPOLYLINE
  5
28F
100
AcDbEntity
  8
CURVE
100
AcDbPolyline
 62
253
  6
CONTINUOUS
 90
84
 70
0
 10
-0.9358173324
 20
11.8286368363
 10
-0.9324314037
 20
11.8321581638
 10
-0.9292398343
 20
11.8357415272
 10
-0.9262270657
 20
11.8393954773
 10
-0.9233775393
 20
11.8431285649
 10
-0.9206756965
 20
11.8469493408
 10
-0.9181059788
 20
11.8508663558
 10
-0.9151805929
 20
11.8557032503
 10
-0.9124308376
 20
11.8606902268
 10
-0.9098644873
 20
11.8658264698
 10
-0.9074893169
 20
11.8711111637
 10
-0.9053131009
 20
11.8765434931
 10
-0.9036576964
 20
11.8811807794
 10
-0.9021534775
 20
11.88590849
 10
-0.9008080679
 20
11.8907150909
 10
-0.8996290915
 20
11.895589048
 10
-0.8986241718
 20
11.9005188274
 10
-0.8978009328
 20
11.9054928949
 10
-0.8971661864
 20
11.9105007366
 10
-0.8967234984
 20
11.9155359192
 10
-0.8964756226
 20
11.9205930293
 10
-0.896425313
 20
11.9256666535
 10
-0.8965753237
 20
11.9307513787
 10
-0.8969284086
 20
11.9358417914
 10
-0.8974863693
 20
11.9409318406
 10
-0.8982471988
 20
11.9460129247
 10
-0.8992079374
 20
11.9510758044
 10
-0.9003656258
 20
11.9561112404
 10
-0.9017173043
 20
11.9611099933
 10
-0.9032600136
 20
11.9660628237
 10
-0.9049912051
 20
11.9709611405
 10
-0.9069099741
 20
11.9757989447
 10
-0.9090158271
 20
11.9805708853
 10
-0.9113082702
 20
11.9852716114
 10
-0.9137868099
 20
11.9898957721
 10
-0.9164509524
 20
11.9944380166
 10
-0.9192995157
 20
11.9988919251
 10
-0.9223285642
 20
12.0032468033
 10
-0.925533474
 20
12.007490888
 10
-0.9289096212
 20
12.0116124161
 10
-0.9324523818
 20
12.0155996245
 10
-0.9361571318
 20
12.01944075
 10
-0.9400180555
 20
12.0231252202
 10
-0.9440245689
 20
12.0266472254
 10
-0.9481648962
 20
12.0300021468
 10
-0.9524272617
 20
12.0331853655
 10
-0.9567998894
 20
12.0361922625
 10
-0.9612710037
 20
12.039018219
 10
-0.9658298742
 20
12.0416593086
 10
-0.9704699526
 20
12.0441143752
 10
-0.9751857361
 20
12.0463829554
 10
-0.9799717219
 20
12.0484645856
 10
-0.9848224073
 20
12.0503588024
 10
-0.9897322893
 20
12.0520651423
 10
-0.9946955198
 20
12.0535826912
 10
-0.9997048677
 20
12.0549087333
 10
-1.0047527567
 20
12.0560401019
 10
-1.0098316105
 20
12.0569736306
 10
-1.0149338526
 20
12.0577061529
 10
-1.0200519066
 20
12.0582345023
 10
-1.0251781586
 20
12.0585564528
 10
-1.0303048451
 20
12.0586735407
 10
-1.0354241648
 20
12.0585882427
 10
-1.0405283169
 20
12.0583030356
 10
-1.0456095001
 20
12.0578203962
 10
-1.0506599135
 20
12.0571428013
 10
-1.0556708028
 20
12.0562738792
 10
-1.060629602
 20
12.0552218642
 10
-1.0655227918
 20
12.0539961422
 10
-1.0703368531
 20
12.0526060991
 10
-1.0750582666
 20
12.0510611209
 10
-1.0796735133
 20
12.0493705932
 10
-1.0841715785
 20
12.0475431353
 10
-1.0885514664
 20
12.0455842988
 10
-1.0928146858
 20
12.0434988683
 10
-1.0969627454
 20
12.0412916287
 10
-1.1009971541
 20
12.0389673647
 10
-1.1049194206
 20
12.0365308611
 10
-1.1087323311
 20
12.0339835639
 10
-1.1124437813
 20
12.0313135633
 10
-1.1160629441
 20
12.0285056109
 10
-1.1195989926
 20
12.0255444583
 10
-1.1230610998
 20
12.022414857
 10
-1.1264584387
 20
12.0191015584
  0
LWPOLYLINE
  5
290
100
AcDbEntity
  8
CURVE
100
AcDbPolyline
 62
253
  6
CONTINUOUS
 90
68
 70
0
 10
-1.801533977
 20
11.3445198919
 10
-1.8044836987
 20
11.3414596716
 10
-1.8072938267
 20
11.3383410477
 10
-1.8099745189
 20
11.3351579093
 10
-1.8125359334
 20
11.3319041454
 10
-1.8149882284
 20
11.3285736452
 10
-1.8173415619
 20
11.3251602977
 10
-1.8200454712
 20
11.320947883
 10
-1.8226164716
 20
11.316606198
 10
-1.8250495311
 20
11.3121340724
 10
-1.8273396179
 20
11.3075303355
 10
-1.8294816999
 20
11.3027938171
 10
-1.8314699102
 20
11.2979261685
 10
-1.833295041
 20
11.2929403295
 10
-1.8349470496
 20
11.2878520616
 10
-1.8364158931
 20
11.2826771264
 10
-1.8376915287
 20
11.2774312856
 10
-1.838600157
 20
11.2730162943
 10
-1.839364428
 20
11.2685681435
 10
-1.8399811304
 20
11.2640919679
 10
-1.8404470533
 20
11.2595929026
 10
-1.8407589856
 20
11.2550760823
 10
-1.8409137161
 20
11.2505466421
 10
-1.8409087684
 20
11.2460098027
 10
-1.8407446047
 20
11.2414711286
 10
-1.8404224218
 20
11.2369362702
 10
-1.8399434166
 20
11.2324108779
 10
-1.8393087857
 20
11.2279006019
 10
-1.8385197261
 20
11.2234110929
 10
-1.8375773727
 20
11.2189476728
 10
-1.8364826129
 20
11.2145143516
 10
-1.8352362725
 20
11.2101148106
 10
-1.8338391771
 20
11.2057527315
 10
-1.8322921523
 20
11.2014317958
 10
-1.8305960238
 20
11.1971556851
 10
-1.8287519165
 20
11.1929287708
 10
-1.8267621522
 20
11.1887581842
 10
-1.8246293518
 20
11.1846517463
 10
-1.8223561366
 20
11.1806172783
 10
-1.8199451275
 20
11.1766626014
 10
-1.8173989456
 20
11.1727955367
 10
-1.8147206762
 20
11.1690235613
 10
-1.8119152617
 20
11.1653527764
 10
-1.8089881088
 20
11.1617889392
 10
-1.8059446242
 20
11.1583378069
 10
-1.8027902146
 20
11.1550051367
 10
-1.7995302866
 20
11.1517966857
 10
-1.7961702354
 20
11.1487172048
 10
-1.7927154091
 20
11.1457674192
 10
-1.7891711444
 20
11.1429470477
 10
-1.7855427781
 20
11.140255809
 10
-1.7818356467
 20
11.137693422
 10
-1.7780550869
 20
11.1352596055
 10
-1.7734307428
 20
11.1325090651
 10
-1.768728003
 20
11.1299471091
 10
-1.7639665238
 20
11.127577585
 10
-1.7591659617
 20
11.1254043407
 10
-1.7543459729
 20
11.1234312238
 10
-1.7495233146
 20
11.1216604882
 10
-1.7447031457
 20
11.1200880121
 10
-1.7398877263
 20
11.1187080799
 10
-1.735079316
 20
11.1175149758
 10
-1.7302801746
 20
11.1165029843
 10
-1.7254888374
 20
11.1156679604
 10
-1.7206889419
 20
11.1150120418
 10
-1.715860401
 20
11.1145389371
 10
-1.7109831277
 20
11.1142523547
 10
-1.706037035
 20
11.1141560031
  0
LWPOLYLINE
  5
291
100
AcDbEntity
  8
CURVE
100
AcDbPolyline
 62
253
  6
CONTINUOUS
 90
68
 70
0
 10
0.9679478968
 20
14.1136843357
 10
0.9649878972
 20
14.1106131143
 10
0.9621683693
 20
14.1074830568
 10
0.9594791995
 20
14.1042881928
 10
0.9569102739
 20
14.1010225519
 10
0.954451479
 20
14.0976801639
 10
0.9520927009
 20
14.0942550583
 10
0.9493836777
 20
14.0900288697
 10
0.9468090081
 20
14.0856738431
 10
0.9443735851
 20
14.081188851
 10
0.9420823017
 20
14.0765727659
 10
0.9399400509
 20
14.0718244603
 10
0.9379525576
 20
14.0669456179
 10
0.9361288746
 20
14.0619491675
 10
0.9344788865
 20
14.056850849
 10
0.9330124777
 20
14.0516664023
 10
0.9317395331
 20
14.0464115673
 10
0.9308332195
 20
14.0419894675
 10
0.930071184
 20
14.0375345817
 10
0.9294564904
 20
14.0330520743
 10
0.9289922026
 20
14.0285471096
 10
0.9286813842
 20
14.0240248518
 10
0.9285270991
 20
14.0194904653
 10
0.9285316996
 20
14.014949193
 10
0.9286946928
 20
14.0104065922
 10
0.9290148743
 20
14.0058682988
 10
0.9294910397
 20
14.0013399487
 10
0.9301219845
 20
13.9968271778
 10
0.9309065044
 20
13.992335622
 10
0.9318434814
 20
13.9878705862
 10
0.9329321427
 20
13.9834360519
 10
0.934171802
 20
13.9790356693
 10
0.9355617731
 20
13.9746730889
 10
0.9371013695
 20
13.970351961
 10
0.9387899049
 20
13.966075936
 10
0.9406263878
 20
13.961849387
 10
0.9426086061
 20
13.9576795778
 10
0.9447340426
 20
13.953574495
 10
0.9470001799
 20
13.9495421249
 10
0.9494045007
 20
13.9455904543
 10
0.9519444879
 20
13.9417274695
 10
0.9546171335
 20
13.9379607961
 10
0.9574174676
 20
13.9342966155
 10
0.9603400296
 20
13.9307407482
 10
0.9633793589
 20
13.9272990146
 10
0.966529995
 20
13.9239772351
 10
0.9697864773
 20
13.9207812303
 10
0.9731433537
 20
13.9177157614
 10
0.9765952063
 20
13.9147813541
 10
0.9801366253
 20
13.9119774749
 10
0.9837622013
 20
13.9093035903
 10
0.9874665247
 20
13.9067591668
 10
0.9912441858
 20
13.904343671
 10
0.9958648318
 20
13.9016152633
 10
1.0005635272
 20
13.8990753445
 10
1.0053205047
 20
13.8967275156
 10
1.0101159972
 20
13.8945753779
 10
1.0149302374
 20
13.8926225325
 10
1.019746356
 20
13.8908709989
 10
1.0245590758
 20
13.8893164696
 10
1.0293660174
 20
13.8879530554
 10
1.0341648016
 20
13.886774867
 10
1.0389530491
 20
13.8857760153
 10
1.0437321755
 20
13.884952178
 10
1.0485187767
 20
13.8843053009
 10
1.0533332437
 20
13.8838388967
 10
1.0581959674
 20
13.8835564782
 10
1.0631273388
 20
13.883461558
  0
LINE
  5
292
100
AcDbEntity
  8
CURVE
100
AcDbLine
 62
253
  6
CONTINUOUS
 10
1.6427412129
 20
14.7882660022
 11
0.9679478968
 21
14.1136843357
  0
LINE
  5
293
100
AcDbEntity
  8
CURVE
100
AcDbLine
 62
253
  6
CONTINUOUS
 10
-1.610857593
 20
11.1537376698
 11
-0.9358173324
 21
11.8286368363
  0
LINE
  5
294
100
AcDbEntity
  8
CURVE
100
AcDbLine
 62
253
  6
CONTINUOUS
 10
1.1586242808
 20
13.9228668357
 11
1.8333470414
 21
14.59748378
  0
LINE
  5
295
100
AcDbEntity
  8
CURVE
100
AcDbLine
 62
253
  6
CONTINUOUS
 10
-1.1264584387
 20
12.0191015584
 11
-1.801533977
 21
11.3445198919
  0
LWPOLYLINE
  5
296
100
AcDbEntity
  8
ASSI
100
AcDbPolyline
 62
253
  6
CONTINUOUS
 90
8
 70
0
 10
-10.5848722373
 20
-22.0121798222
 10
-10.5841558821
 20
-22.0076987318
 10
-10.5834446613
 20
-22.0007029387
 10
-10.5827385751
 20
-21.9912042295
 10
-10.5820364645
 20
-21.9792187013
 10
-10.5813394884
 20
-21.9647664823
 10
-10.5806511234
 20
-21.9478715212
 10
-10.5793002646
 20
-21.9068697751
  0
LWPOLYLINE
  5
297
100
AcDbEntity
  8
ASSI
100
AcDbPolyline
 62
253
  6
CONTINUOUS
 90
11
 70
0
 10
-11.0847958845
 20
-21.5128641473
 10
-11.0840797743
 20
-21.5098605573
 10
-11.0833687264
 20
-21.5052005602
 10
-11.0826627408
 20
-21.498884156
 10
-11.0819606311
 20
-21.4908951892
 10
-11.0812635838
 20
-21.4812498154
 10
-11.0805751578
 20
-21.4699965008
 10
-11.0798954046
 20
-21.4571269603
 10
-11.0792242728
 20
-21.4426494791
 10
-11.0785651668
 20
-21.4266373799
 10
-11.0772831747
 20
-21.3899941691
  0
LINE
  5
298
100
AcDbEntity
  8
ASSI
100
AcDbLine
 62
253
  6
CONTINUOUS
 10
-11.169266828
 20
0.286523462
 11
-11.0608955907
 21
0.340704954
  0
LINE
  5
299
100
AcDbEntity
  8
ASSI
100
AcDbLine
 62
253
  6
CONTINUOUS
 10
-10.9692668269
 20
0.0865463073
 11
-10.8609257616
 21
0.1407127144
  0
LINE
  5
29A
100
AcDbEntity
  8
ASSI
100
AcDbLine
 62
253
  6
CONTINUOUS
 10
-11.0608955907
 20
-0.3676123394
 11
-11.169266828
 21
-0.3134308474
  0
LINE
  5
29B
100
AcDbEntity
  8
ASSI
100
AcDbLine
 62
253
  6
CONTINUOUS
 10
-10.8609257616
 20
-0.1676200998
 11
-10.9692668269
 21
-0.1134536927
  0
LINE
  5
29C
100
AcDbEntity
  8
ASSI
100
AcDbLine
 62
253
  6
CONTINUOUS
 10
-11.156112923
 20
-21.7269892524
 11
-11.0847958845
 21
-21.5128641473
  0
LINE
  5
29D
100
AcDbEntity
  8
ASSI
100
AcDbLine
 62
253
  6
CONTINUOUS
 10
-11.0847958845
 20
21.4859567619
 11
-11.156112923
 21
21.7000818671
  0
LWPOLYLINE
  5
29E
100
AcDbEntity
  8
ASSI
100
AcDbPolyline
 62
253
  6
CONTINUOUS
 90
76
 70
0
 10
-1.4398745958
 20
4.4874464874
 10
-1.438702125
 20
4.545943466
 10
-1.4350741631
 20
4.6043843129
 10
-1.42899071
 20
4.6627690274
 10
-1.4204493081
 20
4.7212399311
 10
-1.4094524151
 20
4.7796547008
 10
-1.3960074039
 20
4.8375863701
 10
-1.3800823354
 20
4.8950316733
 10
-1.3617091487
 20
4.9519938777
 10
-1.3409910341
 20
5.0080558195
 10
-1.3179022953
 20
5.0631998339
 10
-1.2924686287
 20
5.1174435903
 10
-1.2648703137
 20
5.1704229289
 10
-1.2351103721
 20
5.2220938183
 10
-1.2031857823
 20
5.2725002971
 10
-1.1692677583
 20
5.3214103115
 10
-1.1333588927
 20
5.3688104388
 10
-1.0954565929
 20
5.4147141101
 10
-1.0557242957
 20
5.4589295541
 10
-1.0141426124
 20
5.5014659488
 10
-0.9707309316
 20
5.5423141251
 10
-0.925710856
 20
5.5812547921
 10
-0.8790648687
 20
5.6182825949
 10
-0.8308104866
 20
5.6534028976
 10
-0.7812218628
 20
5.686412489
 10
-0.7302972926
 20
5.7172938108
 10
-0.6780384805
 20
5.7460644302
 10
-0.6247246934
 20
5.7725738246
 10
-0.5703542934
 20
5.796808716
 10
-0.5149289182
 20
5.8187823902
 10
-0.4587327481
 20
5.8383841705
 10
-0.4017606665
 20
5.8556030216
 10
-0.3440177899
 20
5.8704499849
 10
-0.2858036485
 20
5.8828474988
 10
-0.2271134964
 20
5.8927831995
 10
-0.1679520795
 20
5.9002694547
 10
-0.1086331649
 20
5.9052657993
 10
-0.0491564393
 20
5.9077587529
 10
0.0104777839
 20
5.9077617972
 10
0.0699547971
 20
5.9052749098
 10
0.129274318
 20
5.9002845992
 10
0.1884366288
 20
5.8928043556
 10
0.2471278686
 20
5.8828746276
 10
0.3053433184
 20
5.8704830185
 10
0.3630876972
 20
5.855641921
 10
0.4200613001
 20
5.8384289684
 10
0.4762589066
 20
5.818833147
 10
0.5316857372
 20
5.7968654642
 10
0.5860577486
 20
5.7726365845
 10
0.6393731667
 20
5.7461333611
 10
0.6916337655
 20
5.717368933
 10
0.7425608243
 20
5.6864933937
 10
0.7921528481
 20
5.6534891201
 10
0.8404113317
 20
5.6183737265
 10
0.8870620385
 20
5.5813501626
 10
0.932087828
 20
5.5424125763
 10
0.9755058407
 20
5.5015668105
 10
1.0170932614
 20
5.4590333583
 10
1.0568303554
 20
5.4148214317
 10
1.0947368575
 20
5.3689218096
 10
1.1306491565
 20
5.3215273363
 10
1.1645692172
 20
5.2726257087
 10
1.1964950749
 20
5.2222292214
 10
1.2262572239
 20
5.1705676165
 10
1.2538590605
 20
5.117597308
 10
1.2792971884
 20
5.0633618747
 10
1.302391913
 20
5.0082218073
 10
1.3231182615
 20
4.9521583942
 10
1.3415012067
 20
4.8951903423
 10
1.3574359724
 20
4.8377342735
 10
1.3708906815
 20
4.7797859597
 10
1.3818972111
 20
4.7213496272
 10
1.3904464162
 20
4.6628545823
 10
1.3965352485
 20
4.604443928
 10
1.4001667564
 20
4.5459745628
 10
1.4013409398
 20
4.4874464874
  0
LINE
  5
29F
100
AcDbEntity
  8
ASSI
100
AcDbLine
 62
253
  6
CONTINUOUS
 10
-10.6557330997
 20
-22.2249349802
 11
-10.5848723392
 21
-22.0121798223
  0
LWPOLYLINE
  5
2A0
100
AcDbEntity
  8
ASSI
100
AcDbPolyline
 62
253
  6
CONTINUOUS
 90
7
 70
0
 10
10.8223921055
 20
-0.1676200998
 10
10.8217105986
 20
-0.1677560134
 10
10.820238297
 20
-0.1678907476
 10
10.8179752006
 20
-0.1680243024
 10
10.8149111379
 20
-0.168157034
 10
10.8110562804
 20
-0.1682885861
 10
10.8064411431
 20
-0.1684178898
  0
LWPOLYLINE
  5
2A1
100
AcDbEntity
  8
ASSI
100
AcDbPolyline
 62
253
  6
CONTINUOUS
 90
5
 70
0
 10
11.0223619344
 20
-0.3676123931
 10
11.0212408973
 20
-0.3677557232
 10
11.0187826614
 20
-0.3678978826
 10
11.014994075
 20
-0.3680388218
 10
11.00988581
 20
-0.3681788056
  0
LINE
  5
2A2
100
AcDbEntity
  8
ASSI
100
AcDbLine
 62
253
  6
CONTINUOUS
 10
-10.5848723392
 20
21.985272437
 11
-10.6557330997
 21
22.1980275949
  0
LWPOLYLINE
  5
2A3
100
AcDbEntity
  8
CURVE
100
AcDbPolyline
 62
253
  6
CONTINUOUS
 90
85
 70
0
 10
0.113458499
 20
-14.2575190065
 10
0.1133661037
 20
-14.2526377477
 10
0.1130922537
 20
-14.2478498366
 10
0.1126419528
 20
-14.2431383205
 10
0.1120202046
 20
-14.2384862464
 10
0.111232013
 20
-14.2338766614
 10
0.1102823816
 20
-14.2292926126
 10
0.1091750175
 20
-14.2247205588
 10
0.1079084406
 20
-14.2201606053
 10
0.1064798743
 20
-14.2156162691
 10
0.1048865417
 20
-14.2110910671
 10
0.1031256662
 20
-14.2065885164
 10
0.1011944709
 20
-14.202112134
 10
0.0990911037
 20
-14.1976670879
 10
0.0968174105
 20
-14.1932651509
 10
0.0943761618
 20
-14.188919747
 10
0.091770128
 20
-14.1846443002
 10
0.0890020796
 20
-14.1804522343
 10
0.086074787
 20
-14.1763569733
 10
0.0829908655
 20
-14.1723706643
 10
0.0797523095
 20
-14.1685003472
 10
0.0763609581
 20
-14.164751785
 10
0.0728186504
 20
-14.1611307406
 10
0.0691272257
 20
-14.1576429772
 10
0.0652885231
 20
-14.1542942576
 10
0.0613055019
 20
-14.1510901224
 10
0.0571856031
 20
-14.1480352227
 10
0.0529373877
 20
-14.145133987
 10
0.0485694166
 20
-14.1423908437
 10
0.0440902511
 20
-14.1398102214
 10
0.0395084521
 20
-14.1373965486
 10
0.0348318579
 20
-14.1351540825
 10
0.0300654153
 20
-14.1330863951
 10
0.0252133485
 20
-14.1311968871
 10
0.0202798814
 20
-14.1294889589
 10
0.0152692382
 20
-14.1279660114
 10
0.0101856428
 20
-14.126631445
 10
0.0050345092
 20
-14.1254889287
 10
-0.00017399
 20
-14.1245432041
 10
-0.005428492
 20
-14.1237992812
 10
-0.0107176345
 20
-14.1232621698
 10
-0.0160300549
 20
-14.1229368799
 10
-0.0213543905
 20
-14.1228284215
 10
-0.0266792932
 20
-14.1229401769
 10
-0.031993472
 20
-14.123269019
 10
-0.0372856503
 20
-14.1238101929
 10
-0.0425445516
 20
-14.1245589439
 10
-0.0477588992
 20
-14.1255105174
 10
-0.0529174165
 20
-14.1266601585
 10
-0.0580099355
 20
-14.1280033078
 10
-0.0630307219
 20
-14.1295361871
 10
-0.0679751503
 20
-14.1312552132
 10
-0.0728385948
 20
-14.1331568032
 10
-0.07761643
 20
-14.135237374
 10
-0.0823040301
 20
-14.1374933426
 10
-0.0868962945
 20
-14.1399212652
 10
-0.0913862219
 20
-14.1425182553
 10
-0.0957663363
 20
-14.1452815655
 10
-0.1000291613
 20
-14.1482084484
 10
-0.1041672208
 20
-14.1512961567
 10
-0.1081730386
 20
-14.1545419432
 10
-0.1120396776
 20
-14.1579422636
 10
-0.1157623578
 20
-14.161490386
 10
-0.1193368382
 20
-14.1651787818
 10
-0.1227588779
 20
-14.1689999222
 10
-0.126024236
 20
-14.1729462784
 10
-0.1291286717
 20
-14.1770103217
 10
-0.1320681867
 20
-14.1811829488
 10
-0.1348397539
 20
-14.1854487576
 10
-0.1374405889
 20
-14.1897907716
 10
-0.1398679074
 20
-14.1941920139
 10
-0.1421189248
 20
-14.198635508
 10
-0.1441908568
 20
-14.2031042771
 10
-0.1460822134
 20
-14.2075838293
 10
-0.1477966824
 20
-14.2120696102
 10
-0.1493392462
 20
-14.2165595503
 10
-0.1507148868
 20
-14.2210515799
 10
-0.1519285866
 20
-14.2255436294
 10
-0.1529853279
 20
-14.2300336291
 10
-0.1538886322
 20
-14.2345227703
 10
-0.1546361789
 20
-14.2390252869
 10
-0.1552241864
 20
-14.2435586739
 10
-0.1556488735
 20
-14.2481404263
 10
-0.1559064588
 20
-14.2527880388
 10
-0.1559931608
 20
-14.2575190065
  0
LWPOLYLINE
  5
2A4
100
AcDbEntity
  8
CURVE
100
AcDbPolyline
 62
253
  6
CONTINUOUS
 90
85
 70
0
 10
0.113458499
 20
-11.3006062294
 10
0.1133675349
 20
-11.2957613449
 10
0.1130976484
 20
-11.2910068905
 10
0.1126533479
 20
-11.2863251544
 10
0.112039142
 20
-11.2816984249
 10
0.1112595391
 20
-11.2771089901
 10
0.1103190479
 20
-11.2725391385
 10
0.1092206871
 20
-11.2679745128
 10
0.1079615165
 20
-11.263414175
 10
0.1065371063
 20
-11.2588605417
 10
0.1049430268
 20
-11.2543160296
 10
0.103174848
 20
-11.2497830551
 10
0.10122814
 20
-11.2452640351
 10
0.0990997231
 20
-11.2407637502
 10
0.0967914167
 20
-11.2362964384
 10
0.0943062903
 20
-11.2318787017
 10
0.0916474136
 20
-11.2275271423
 10
0.0888178558
 20
-11.2232583622
 10
0.0858206866
 20
-11.2190889636
 10
0.0826592191
 20
-11.2150339386
 10
0.0793377412
 20
-11.21110184
 10
0.0758607842
 20
-11.2072996108
 10
0.0722328797
 20
-11.2036341939
 10
0.068458559
 20
-11.2001125322
 10
0.0645423538
 20
-11.1967415686
 10
0.0604892918
 20
-11.193527551
 10
0.0563063861
 20
-11.1904739477
 10
0.0520011463
 20
-11.1875835317
 10
0.0475810818
 20
-11.1848590763
 10
0.0430537021
 20
-11.1823033546
 10
0.0384265168
 20
-11.1799191399
 10
0.0337069481
 20
-11.1777093245
 10
0.0289020705
 20
-11.1756772779
 10
0.024018871
 20
-11.1738264889
 10
0.0190643369
 20
-11.1721604462
 10
0.0140454552
 20
-11.1706826386
 10
0.0089692133
 20
-11.1693965548
 10
0.0038428818
 20
-11.1683056005
 10
-0.001325134
 20
-11.1674128497
 10
-0.0065261455
 20
-11.1667212931
 10
-0.0117514637
 20
-11.1662339218
 10
-0.0169923999
 20
-11.1659537266
 10
-0.0222402654
 20
-11.1658836984
 10
-0.0274866219
 20
-11.166025897
 10
-0.0327240339
 20
-11.1663786578
 10
-0.0379453162
 20
-11.1669393853
 10
-0.0431432839
 20
-11.1677054838
 10
-0.0483107519
 20
-11.1686743576
 10
-0.0534405351
 20
-11.1698434112
 10
-0.0585251366
 20
-11.1712099113
 10
-0.0635558116
 20
-11.1727705741
 10
-0.0685235033
 20
-11.1745219785
 10
-0.073419155
 20
-11.1764607029
 10
-0.0782337099
 20
-11.1785833262
 10
-0.0829581113
 20
-11.1808864271
 10
-0.0875833175
 20
-11.1833662573
 10
-0.0921003475
 20
-11.186017762
 10
-0.0965002353
 20
-11.1888355594
 10
-0.1007740149
 20
-11.1918142675
 10
-0.1049127204
 20
-11.1949485047
 10
-0.1089073859
 20
-11.1982328892
 10
-0.1127502691
 20
-11.2016618395
 10
-0.1164385232
 20
-11.2052289758
 10
-0.1199705249
 20
-11.2089277188
 10
-0.1233446512
 20
-11.2127514889
 10
-0.1265592789
 20
-11.2166937068
 10
-0.1296127849
 20
-11.2207477929
 10
-0.1325033603
 20
-11.2249055399
 10
-0.1352284536
 20
-11.2291522278
 10
-0.1377853279
 20
-11.2334715087
 10
-0.1401712458
 20
-11.2378470347
 10
-0.1423834703
 20
-11.242262458
 10
-0.1444192642
 20
-11.2467014305
 10
-0.1462771652
 20
-11.2511499458
 10
-0.1479608102
 20
-11.2556033622
 10
-0.1494751109
 20
-11.2600593796
 10
-0.150824979
 20
-11.2645156977
 10
-0.1520153261
 20
-11.2689700165
 10
-0.153051064
 20
-11.2734200357
 10
-0.1539357127
 20
-11.2778667198
 10
-0.1546672259
 20
-11.2823240922
 10
-0.1552421653
 20
-11.2868094412
 10
-0.155657093
 20
-11.291340055
 10
-0.1559085709
 20
-11.2959332216
 10
-0.1559931608
 20
-11.3006062294
  0
LWPOLYLINE
  5
2A5
100
AcDbEntity
  8
CURVE
100
AcDbPolyline
 62
253
  6
CONTINUOUS
 90
54
 70
0
 10
-0.1188192977
 20
10.5356710033
 10
-0.1187654816
 20
10.5319524262
 10
-0.1186053809
 20
10.5282815028
 10
-0.1183410171
 20
10.5246508036
 10
-0.1179744116
 20
10.5210528991
 10
-0.1175075857
 20
10.5174803598
 10
-0.116942561
 20
10.5139257561
 10
-0.1162813589
 20
10.5103816586
 10
-0.1153901167
 20
10.5062524652
 10
-0.1143680541
 20
10.5021289818
 10
-0.1132125072
 20
10.4980127308
 10
-0.1119208123
 20
10.4939052346
 10
-0.1104903058
 20
10.4898080155
 10
-0.1089183239
 20
10.4857225958
 10
-0.1072030896
 20
10.4816521048
 10
-0.1053463723
 20
10.4776060985
 10
-0.1033508285
 20
10.4735957402
 10
-0.1012191143
 20
10.4696321927
 10
-0.098953886
 20
10.4657266193
 10
-0.0965577998
 20
10.4618901828
 10
-0.0944017142
 20
10.4586646711
 10
-0.0921521595
 20
10.4555014244
 10
-0.0898098555
 20
10.4524037117
 10
-0.0873755222
 20
10.4493748021
 10
-0.0848498794
 20
10.4464179646
 10
-0.0822336468
 20
10.4435364682
 10
-0.0795275445
 20
10.4407335819
 10
-0.0767328197
 20
10.4380123638
 10
-0.0738528301
 20
10.4353750277
 10
-0.0708914606
 20
10.4328235763
 10
-0.0678525965
 20
10.4303600126
 10
-0.0647401227
 20
10.4279863393
 10
-0.0615579243
 20
10.4257045591
 10
-0.0583098865
 20
10.423516675
 10
-0.0550005267
 20
10.4214246479
 10
-0.0516368918
 20
10.4194302725
 10
-0.0482266611
 20
10.4175353013
 10
-0.044777514
 20
10.4157414872
 10
-0.0412971297
 20
10.4140505828
 10
-0.0377931876
 20
10.4124643411
 10
-0.0342733669
 20
10.4109845146
 10
-0.0301552271
 20
10.4093939196
 10
-0.0260269702
 20
10.4079475397
 10
-0.0218896389
 20
10.406642361
 10
-0.0177442763
 20
10.4054753699
 10
-0.0135919252
 20
10.4044435527
 10
-0.0094336285
 20
10.4035438956
 10
-0.0058640731
 20
10.4028763296
 10
-0.002283416
 20
10.4023057354
 10
0.0013158424
 20
10.4018342018
 10
0.0049412019
 20
10.4014638175
 10
0.0086001621
 20
10.4011966712
 10
0.0123002228
 20
10.4010348517
 10
0.0160488836
 20
10.4009804477
  0
LWPOLYLINE
  5
2A6
100
AcDbEntity
  8
CURVE
100
AcDbPolyline
 62
253
  6
CONTINUOUS
 90
54
 70
0
 10
-0.1188192977
 20
14.4519982245
 10
-0.1187654341
 20
14.4482789866
 10
-0.1186051953
 20
14.4446074115
 10
-0.1183406091
 20
14.4409760795
 10
-0.1179737034
 20
14.4373775708
 10
-0.1175065062
 20
14.4338044659
 10
-0.1169410453
 20
14.4302493449
 10
-0.1162793487
 20
14.4267047882
 10
-0.1153874637
 20
14.4225751411
 10
-0.1143646929
 20
14.4184512868
 10
-0.1132083778
 20
14.4143347378
 10
-0.11191586
 20
14.4102270066
 10
-0.110484481
 20
14.406129606
 10
-0.1089115824
 20
14.4020440484
 10
-0.107195393
 20
14.3979734552
 10
-0.1053376909
 20
14.3939273819
 10
-0.1033411414
 20
14.3899169929
 10
-0.1012084099
 20
14.3859534524
 10
-0.0989421617
 20
14.3820479247
 10
-0.0965450622
 20
14.3782115741
 10
-0.0943881214
 20
14.3749861684
 10
-0.0921377363
 20
14.3718230561
 10
-0.0897946402
 20
14.3687255046
 10
-0.0873595662
 20
14.3656967808
 10
-0.0848332476
 20
14.3627401521
 10
-0.0822164176
 20
14.3598588856
 10
-0.0795098093
 20
14.3570562485
 10
-0.0767146807
 20
14.3543352962
 10
-0.0738343884
 20
14.3516982376
 10
-0.070872814
 20
14.3491470696
 10
-0.0678338389
 20
14.3466837892
 10
-0.0647213446
 20
14.3443103937
 10
-0.0615392124
 20
14.3420288799
 10
-0.0582913238
 20
14.3398412449
 10
-0.0549821931
 20
14.3377494456
 10
-0.0516188651
 20
14.3357552778
 10
-0.0482090175
 20
14.333860497
 10
-0.0447603281
 20
14.3320668588
 10
-0.0412804745
 20
14.3303761187
 10
-0.0377771344
 20
14.3287900324
 10
-0.0342579855
 20
14.3273103554
 10
-0.0301407147
 20
14.3257199302
 10
-0.0260134129
 20
14.3242737147
 10
-0.0218771162
 20
14.3229686943
 10
-0.0177328609
 20
14.3218018545
 10
-0.0135816833
 20
14.3207701805
 10
-0.0094246196
 20
14.3198706577
 10
-0.0058561655
 20
14.3192031988
 10
-0.0022766573
 20
14.3186327019
 10
0.0013213962
 20
14.3181612535
 10
0.0049454859
 20
14.3177909397
 10
0.0086031031
 20
14.3175238468
 10
0.0123017386
 20
14.3173620612
 10
0.0160488836
 20
14.317307669
  0
LWPOLYLINE
  5
2A7
100
AcDbEntity
  8
CURVE
100
AcDbPolyline
 62
253
  6
CONTINUOUS
 90
54
 70
0
 10
-0.1559931608
 20
-14.7275248397
 10
-0.1559394382
 20
-14.7312623111
 10
-0.1557796193
 20
-14.7349513797
 10
-0.1555157279
 20
-14.7385995232
 10
-0.1551497876
 20
-14.7422142193
 10
-0.154683822
 20
-14.7458029456
 10
-0.1541198548
 20
-14.7493731799
 10
-0.1534599096
 20
-14.7529324
 10
-0.152570385
 20
-14.7570786434
 10
-0.1515502946
 20
-14.7612185363
 10
-0.1503969546
 20
-14.7653505417
 10
-0.1491076816
 20
-14.7694731229
 10
-0.1476797918
 20
-14.7735847429
 10
-0.1461106016
 20
-14.7776838648
 10
-0.1443983077
 20
-14.7817673379
 10
-0.1425446276
 20
-14.785825556
 10
-0.1405521589
 20
-14.7898472989
 10
-0.1384234993
 20
-14.7938213466
 10
-0.1361612467
 20
-14.7977364789
 10
-0.1337679988
 20
-14.8015814757
 10
-0.1316142137
 20
-14.8048134854
 10
-0.1293669083
 20
-14.8079824094
 10
-0.1270268955
 20
-14.8110849333
 10
-0.1245949878
 20
-14.8141177429
 10
-0.1220719981
 20
-14.817077524
 10
-0.119458739
 20
-14.8199609621
 10
-0.1167560232
 20
-14.8227647431
 10
-0.1139651732
 20
-14.8254857978
 10
-0.1110895502
 20
-14.8281220378
 10
-0.108133025
 20
-14.8306716195
 10
-0.1050994686
 20
-14.8331326999
 10
-0.1019927517
 20
-14.8355034354
 10
-0.0988167454
 20
-14.8377819827
 10
-0.0955753205
 20
-14.8399664986
 10
-0.0922729731
 20
-14.842055159
 10
-0.0889167007
 20
-14.8440462178
 10
-0.0855141259
 20
-14.8459379482
 10
-0.0820728715
 20
-14.8477286232
 10
-0.0786005601
 20
-14.8494165162
 10
-0.0751048145
 20
-14.8509999003
 10
-0.0715932573
 20
-14.8524770487
 10
-0.0674847979
 20
-14.8540647714
 10
-0.0633663288
 20
-14.8555085442
 10
-0.0592389861
 20
-14.8568113662
 10
-0.055103906
 20
-14.8579762365
 10
-0.0509622247
 20
-14.8590061542
 10
-0.0468150784
 20
-14.8599041183
 10
-0.0432555153
 20
-14.8605703906
 10
-0.0396852199
 20
-14.8611398476
 10
-0.0360966403
 20
-14.8616104161
 10
-0.0324822247
 20
-14.8619800228
 10
-0.028834421
 20
-14.8622465944
 10
-0.0251456774
 20
-14.8624080578
 10
-0.021408442
 20
-14.8624623397
  0
LWPOLYLINE
  5
2A8
100
AcDbEntity
  8
CURVE
100
AcDbPolyline
 62
253
  6
CONTINUOUS
 90
54
 70
0
 10
-0.1559931608
 20
-11.7707884515
 10
-0.1559394851
 20
-11.7745154602
 10
-0.1557798021
 20
-11.7781943682
 10
-0.155516128
 20
-11.7818326384
 10
-0.1551504791
 20
-11.7854377335
 10
-0.1546848717
 20
-11.7890171164
 10
-0.1541213219
 20
-11.7925782497
 10
-0.153461846
 20
-11.7961285965
 10
-0.1525729274
 20
-11.8002647591
 10
-0.1515535086
 20
-11.8043948584
 10
-0.1504009113
 20
-11.8085173553
 10
-0.149112457
 20
-11.8126307104
 10
-0.1476854674
 20
-11.8167333845
 10
-0.146117264
 20
-11.8208238386
 10
-0.1444060491
 20
-11.8248989251
 10
-0.1425535482
 20
-11.8289490634
 10
-0.1405623673
 20
-11.8329630647
 10
-0.1384351126
 20
-11.8369297401
 10
-0.1361743901
 20
-11.8408379008
 10
-0.133782806
 20
-11.8446763579
 10
-0.1316305518
 20
-11.8479031293
 10
-0.1293848385
 20
-11.8510671734
 10
-0.1270464356
 20
-11.8541651941
 10
-0.1246161126
 20
-11.8571938953
 10
-0.122094639
 20
-11.8601499808
 10
-0.1194827841
 20
-11.8630301546
 10
-0.1167813175
 20
-11.8658311204
 10
-0.1139915266
 20
-11.8685498151
 10
-0.11111677
 20
-11.8711841064
 10
-0.1081609246
 20
-11.8737320949
 10
-0.1051278669
 20
-11.8761918813
 10
-0.1020214736
 20
-11.8785615663
 10
-0.0988456214
 20
-11.8808392505
 10
-0.095604187
 20
-11.8830230345
 10
-0.0923016734
 20
-11.8851110467
 10
-0.0889450894
 20
-11.8871015267
 10
-0.0855420701
 20
-11.888992742
 10
-0.0821002506
 20
-11.8907829598
 10
-0.0786272663
 20
-11.8924704476
 10
-0.0751307521
 20
-11.8940534728
 10
-0.0716183433
 20
-11.8955303027
 10
-0.0675087943
 20
-11.8971176986
 10
-0.0633891126
 20
-11.8985611914
 10
-0.0592604079
 20
-11.8998637795
 10
-0.0551237896
 20
-11.9010284615
 10
-0.0509803672
 20
-11.9020582362
 10
-0.0468312502
 20
-11.902956102
 10
-0.0432698005
 20
-11.9036223243
 10
-0.039697448
 20
-11.9041917572
 10
-0.0361066583
 20
-11.9046623208
 10
-0.0324898971
 20
-11.9050319352
 10
-0.0288396301
 20
-11.9052985206
 10
-0.0251483232
 20
-11.9054599971
 10
-0.021408442
 20
-11.9055142848
  0
LINE
  5
2A9
100
AcDbEntity
  8
CURVE
100
AcDbLine
 62
253
  6
CONTINUOUS
 10
-0.1559931608
 20
-11.3006062294
 11
-0.1559931608
 21
-11.7707884493
  0
LINE
  5
2AA
100
AcDbEntity
  8
CURVE
100
AcDbLine
 62
253
  6
CONTINUOUS
 10
-0.1559931608
 20
-14.2575190065
 11
-0.1559931608
 21
-14.7275248252
  0
LINE
  5
2AB
100
AcDbEntity
  8
CURVE
100
AcDbLine
 62
253
  6
CONTINUOUS
 10
-0.1188192977
 20
15.4064737798
 11
-0.1188192977
 21
14.4519982422
  0
LINE
  5
2AC
100
AcDbEntity
  8
CURVE
100
AcDbLine
 62
253
  6
CONTINUOUS
 10
-0.1188192977
 20
11.4903229475
 11
-0.1188192977
 21
10.5356709785
  0
LINE
  5
2AD
100
AcDbEntity
  8
CURVE
100
AcDbLine
 62
253
  6
CONTINUOUS
 10
0.113458499
 20
-14.7275248397
 11
0.113458499
 21
-14.2575190209
  0
LINE
  5
2AE
100
AcDbEntity
  8
CURVE
100
AcDbLine
 62
253
  6
CONTINUOUS
 10
0.113458499
 20
-11.7707884515
 11
0.113458499
 21
-11.3006062316
  0
LINE
  5
2AF
100
AcDbEntity
  8
CURVE
100
AcDbLine
 62
253
  6
CONTINUOUS
 10
0.1506323621
 20
10.5356710033
 11
0.1506323621
 21
11.4903229724
  0
LINE
  5
2B0
100
AcDbEntity
  8
CURVE
100
AcDbLine
 62
253
  6
CONTINUOUS
 10
0.1506323621
 20
14.4519982245
 11
0.1506323621
 21
15.4064737621
  0
LWPOLYLINE
  5
2B1
100
AcDbEntity
  8
CURVE
100
AcDbPolyline
 62
253
  6
CONTINUOUS
 90
88
 70
0
 10
-0.5180578479
 20
-13.0139067824
 10
-0.5177512872
 20
-12.9962639157
 10
-0.5168382234
 20
-12.9788868997
 10
-0.5153285843
 20
-12.96173252
 10
-0.5132322975
 20
-12.944757562
 10
-0.5105592908
 20
-12.9279188112
 10
-0.507317024
 20
-12.9111816897
 10
-0.5035030851
 20
-12.8945461658
 10
-0.4991125943
 20
-12.8780208445
 10
-0.4941406719
 20
-12.8616143305
 10
-0.4885824379
 20
-12.8453352289
 10
-0.4824358362
 20
-12.8291964851
 10
-0.4757101049
 20
-12.8132284067
 10
-0.4684173059
 20
-12.7974656418
 10
-0.4605695009
 20
-12.7819428386
 10
-0.4521787518
 20
-12.7666946452
 10
-0.4432573335
 20
-12.751752761
 10
-0.4338183731
 20
-12.7371370908
 10
-0.4238752112
 20
-12.7228645904
 10
-0.4134411879
 20
-12.7089522158
 10
-0.4025296437
 20
-12.6954169229
 10
-0.3911540253
 20
-12.6822752061
 10
-0.3793282055
 20
-12.6695417131
 10
-0.3670661633
 20
-12.65723063
 10
-0.3543818778
 20
-12.645356143
 10
-0.3412893282
 20
-12.6339324382
 10
-0.3278033093
 20
-12.6229735149
 10
-0.3139418785
 20
-12.6124926255
 10
-0.2997239091
 20
-12.6025028357
 10
-0.2851682743
 20
-12.5930172111
 10
-0.2702938474
 20
-12.5840488172
 10
-0.253415569
 20
-12.5747051901
 10
-0.2361917068
 20
-12.5660265816
 10
-0.2186469473
 20
-12.5580233232
 10
-0.200805977
 20
-12.5507057465
 10
-0.1826934822
 20
-12.5440841833
 10
-0.1643341496
 20
-12.5381689651
 10
-0.1457526655
 20
-12.5329704235
 10
-0.1269737166
 20
-12.5284988901
 10
-0.1080219891
 20
-12.5247646966
 10
-0.0889236437
 20
-12.5217763541
 10
-0.0697107369
 20
-12.5195350924
 10
-0.0504167993
 20
-12.5180403207
 10
-0.0310753615
 20
-12.5172914484
 10
-0.011719954
 20
-12.5172878846
 10
0.0076158925
 20
-12.5180290388
 10
0.0268986474
 20
-12.51951432
 10
0.0460947802
 20
-12.5217431378
 10
0.0651707602
 20
-12.5247149012
 10
0.0840949187
 20
-12.5284276366
 10
0.1028430339
 20
-12.5328738376
 10
0.121392746
 20
-12.5380446151
 10
0.139721695
 20
-12.5439310798
 10
0.1578075211
 20
-12.5505243422
 10
0.1756278643
 20
-12.5578155132
 10
0.1931603646
 20
-12.5657957035
 10
0.2103826623
 20
-12.5744560237
 10
0.2272723974
 20
-12.5837875845
 10
0.2421694372
 20
-12.5927514072
 10
0.2567572879
 20
-12.6022383786
 10
0.2710142476
 20
-12.6122351432
 10
0.2849186145
 20
-12.6227283451
 10
0.2984486867
 20
-12.6337046286
 10
0.3115838451
 20
-12.6451501042
 10
0.3243078017
 20
-12.6570487477
 10
0.3366053514
 20
-12.6693840011
 10
0.3484612889
 20
-12.6821393066
 10
0.3598604091
 20
-12.695298106
 10
0.3707881065
 20
-12.7088440106
 10
0.3812321739
 20
-12.7227613074
 10
0.391181004
 20
-12.7370344526
 10
0.4006229893
 20
-12.7516479024
 10
0.4095465225
 20
-12.7665861128
 10
0.4179399108
 20
-12.7818304545
 10
0.4257911207
 20
-12.7973499552
 10
0.4330880331
 20
-12.8131105574
 10
0.4398185292
 20
-12.8290782034
 10
0.44597049
 20
-12.8452188354
 10
0.4515345839
 20
-12.8615025646
 10
0.4565126289
 20
-12.8779161779
 10
0.4609092302
 20
-12.8944506307
 10
0.4647289933
 20
-12.9110968788
 10
0.4679765234
 20
-12.9278458777
 10
0.4706539942
 20
-12.9446973127
 10
0.4727538524
 20
-12.9616857874
 10
0.4742661133
 20
-12.9788546351
 10
0.4751807921
 20
-12.996247189
 10
0.4754879039
 20
-13.0139067824
  0
LWPOLYLINE
  5
2B2
100
AcDbEntity
  8
ASSI
100
AcDbPolyline
 62
253
  6
CONTINUOUS
 90
76
 70
0
 10
-1.4398745958
 20
-4.5143538727
 10
-1.4387200652
 20
-4.455845578
 10
-1.4351091223
 20
-4.3973927747
 10
-1.4290417673
 20
-4.3389954638
 10
-1.4205155757
 20
-4.2805112547
 10
-1.4095329719
 20
-4.2220825397
 10
-1.3961012294
 20
-4.1641364949
 10
-1.3801883865
 20
-4.1066763837
 10
-1.3618264048
 20
-4.0496989471
 10
-1.3411184427
 20
-3.9936215811
 10
-1.3180387892
 20
-3.9384619749
 10
-1.2926131552
 20
-3.8842024456
 10
-1.2650218317
 20
-3.8312073324
 10
-1.235267853
 20
-3.779520717
 10
-1.2033481849
 20
-3.729098525
 10
-1.1694340156
 20
-3.6801728637
 10
-1.1335279376
 20
-3.6327571497
 10
-1.0956273585
 20
-3.5868379736
 10
-1.0558956894
 20
-3.5426072046
 10
-1.0143135214
 20
-3.5000556448
 10
-0.9709002633
 20
-3.4591924989
 10
-0.9258775528
 20
-3.4202372406
 10
-0.8792278596
 20
-3.383195231
 10
-0.8309687139
 20
-3.3480611152
 10
-0.7813743443
 20
-3.3150382938
 10
-0.7304430301
 20
-3.2841443359
 10
-0.6781764919
 20
-3.255361678
 10
-0.6248541207
 20
-3.2288410215
 10
-0.5704742586
 20
-3.2045956562
 10
-0.5150385635
 20
-3.1826122969
 10
-0.4588313993
 20
-3.1630017825
 10
-0.4018476302
 20
-3.145775165
 10
-0.344092392
 20
-3.1309213957
 10
-0.2858654568
 20
-3.118518163
 10
-0.2271620641
 20
-3.1085778524
 10
-0.1679869743
 20
-3.1010880804
 10
-0.1086542399
 20
-3.0960893818
 10
-0.0491635445
 20
-3.0935952608
 10
0.0104847955
 20
-3.0935922138
 10
0.0699757787
 20
-3.0960802634
 10
0.1293091199
 20
-3.1010729226
 10
0.1884851043
 20
-3.1085566776
 10
0.2471895857
 20
-3.1184910102
 10
0.3054178309
 20
-3.1308883331
 10
0.363174573
 20
-3.1457362315
 10
0.4201598653
 20
-3.1629569456
 10
0.476368468
 20
-3.1825614962
 10
0.5318056207
 20
-3.2045388591
 10
0.5861870964
 20
-3.2287782078
 10
0.6395111007
 20
-3.2552926882
 10
0.6917794279
 20
-3.2840691498
 10
0.7427132332
 20
-3.3149573203
 10
0.7923110055
 20
-3.3479748192
 10
0.840574256
 20
-3.3831040214
 10
0.8872286728
 20
-3.4201417888
 10
0.9322571023
 20
-3.4590939644
 10
0.9756766982
 20
-3.4999546987
 10
1.0172646097
 20
-3.5425033155
 10
1.0570010821
 20
-3.5867305674
 10
1.0949058702
 20
-3.6326456949
 10
1.1308153874
 20
-3.6800557538
 10
1.164731598
 20
-3.7289730241
 10
1.1966525378
 20
-3.7793852186
 10
1.2264087278
 20
-3.8310625431
 10
1.254003577
 20
-3.8840486185
 10
1.2794336764
 20
-3.9382998165
 10
1.3025193202
 20
-3.993455471
 10
1.3232355216
 20
-4.0495343083
 10
1.3416072673
 20
-4.1065175958
 10
1.3575298116
 20
-4.1639884803
 10
1.3709712549
 20
-4.2219511822
 10
1.3819634969
 20
-4.2804014767
 10
1.390497491
 20
-4.3389098455
 10
1.3965702217
 20
-4.3973331157
 10
1.4001847047
 20
-4.4558144584
 10
1.4013409398
 20
-4.5143538727
  0
LWPOLYLINE
  5
2B3
100
AcDbEntity
  8
ASSI
100
AcDbPolyline
 62
253
  6
CONTINUOUS
 90
76
 70
0
 10
-1.3398898263
 20
-4.5134536927
 10
-1.3387849799
 20
-4.4592220187
 10
-1.3354351234
 20
-4.4048533602
 10
-1.3298177204
 20
-4.3504419715
 10
-1.3219085811
 20
-4.2960506385
 10
-1.3116959326
 20
-4.2418115403
 10
-1.2991945047
 20
-4.1879234699
 10
-1.2844102862
 20
-4.1344831811
 10
-1.2673542588
 20
-4.081590603
 10
-1.2480803222
 20
-4.0294432693
 10
-1.2266232194
 20
-3.9781413167
 10
-1.2030161819
 20
-3.9277696901
 10
-1.1773391167
 20
-3.8784925528
 10
-1.1496634238
 20
-3.8304246409
 10
-1.1200287115
 20
-3.7836141196
 10
-1.0884790435
 20
-3.7381186538
 10
-1.0550804158
 20
-3.6940238133
 10
-1.0198893922
 20
-3.6513952192
 10
-0.9829322545
 20
-3.6102628144
 10
-0.9442587863
 20
-3.5706873047
 10
-0.9039473144
 20
-3.5327539082
 10
-0.8620659278
 20
-3.4965300867
 10
-0.8186794257
 20
-3.4620760155
 10
-0.773869276
 20
-3.4294603751
 10
-0.7277344951
 20
-3.3987564063
 10
-0.6803631742
 20
-3.3700213756
 10
-0.6318329094
 20
-3.3433010238
 10
-0.5822322793
 20
-3.3186431336
 10
-0.5316524576
 20
-3.2960915833
 10
-0.4801795304
 20
-3.275683336
 10
-0.4278967521
 20
-3.2574507965
 10
-0.3748946969
 20
-3.2414255863
 10
-0.3212678899
 20
-3.2276363198
 10
-0.2671069064
 20
-3.2161064716
 10
-0.2125047523
 20
-3.2068564071
 10
-0.1575594885
 20
-3.1999033002
 10
-0.1023703955
 20
-3.195259962
 10
-0.0470350686
 20
-3.1929346467
 10
0.0083496934
 20
-3.1929314646
 10
0.0636853677
 20
-3.1952504266
 10
0.1188751835
 20
-3.1998874465
 10
0.1738215131
 20
-3.2068342908
 10
0.2284249855
 20
-3.2160781531
 10
0.2825875782
 20
-3.2276018794
 10
0.3362162393
 20
-3.2413851073
 10
0.3892201843
 20
-3.2574043046
 10
0.441504793
 20
-3.2756308035
 10
0.4929796003
 20
-3.2960329955
 10
0.5435614538
 20
-3.3185785037
 10
0.5931641146
 20
-3.3432302799
 10
0.641696579
 20
-3.3699445138
 10
0.6890708117
 20
-3.3986737635
 10
0.7352093302
 20
-3.4293724583
 10
0.7800238414
 20
-3.4619833041
 10
0.8234153462
 20
-3.4964331772
 10
0.8653027321
 20
-3.5326538366
 10
0.9056206879
 20
-3.5705848242
 10
0.9442999639
 20
-3.6101575668
 10
0.9812621541
 20
-3.6512865847
 10
1.0164577232
 20
-3.6939112532
 10
1.0498599543
 20
-3.7380008248
 10
1.0814118208
 20
-3.783488567
 10
1.1110482596
 20
-3.8302897284
 10
1.1387266896
 20
-3.8783488648
 10
1.1644073306
 20
-3.9276176847
 10
1.1880188187
 20
-3.9779817278
 10
1.2094823707
 20
-4.0292800002
 10
1.2287646185
 20
-4.0814287675
 10
1.2458298862
 20
-4.1343270842
 10
1.260623783
 20
-4.187777677
 10
1.2731349018
 20
-4.241681229
 10
1.2833565557
 20
-4.2959404942
 10
1.2912732806
 20
-4.3503551834
 10
1.2968964578
 20
-4.4047925426
 10
1.30025002
 20
-4.4591901737
 10
1.3013561702
 20
-4.5134536927
  0
LWPOLYLINE
  5
2B4
100
AcDbEntity
  8
ASSI
100
AcDbPolyline
 62
253
  6
CONTINUOUS
 90
76
 70
0
 10
-1.3398898263
 20
4.4865463073
 10
-1.3387670102
 20
4.5407674734
 10
-1.3354000437
 20
4.5951248426
 10
-1.3297664011
 20
4.6495242024
 10
-1.3218418613
 20
4.7039027874
 10
-1.3116147015
 20
4.7581284745
 10
-1.2990997729
 20
4.8120025826
 10
-1.2843030558
 20
4.8654284176
 10
-1.2672355227
 20
4.9183060976
 10
-1.247951166
 20
4.9704382152
 10
-1.2264846967
 20
5.0217247202
 10
-1.2028693188
 20
5.072080703
 10
-1.1771850188
 20
5.1213420771
 10
-1.1495031415
 20
5.16939422
 10
-1.1198632612
 20
5.2161889804
 10
-1.0883095585
 20
5.2616686493
 10
-1.0549079996
 20
5.3057477238
 10
-1.0197151003
 20
5.3483606531
 10
-0.9827572507
 20
5.3894774846
 10
-0.944084213
 20
5.4290375677
 10
-0.9037742569
 20
5.466955775
 10
-0.8618955308
 20
5.5031647117
 10
-0.8185127849
 20
5.5376042788
 10
-0.7737074306
 20
5.5702058642
 10
-0.7275785256
 20
5.6008963018
 10
-0.6802140994
 20
5.6296184022
 10
-0.6316916754
 20
5.6563264869
 10
-0.5820998493
 20
5.6809728438
 10
-0.5315297239
 20
5.7035136614
 10
-0.4800672958
 20
5.7239120352
 10
-0.427795801
 20
5.7421356276
 10
-0.3748057307
 20
5.7581528723
 10
-0.3211915084
 20
5.7719352003
 10
-0.2670436551
 20
5.7834591929
 10
-0.2124550815
 20
5.7927045241
 10
-0.1575237388
 20
5.7996540461
 10
-0.1023488257
 20
5.8042949794
 10
-0.0470278299
 20
5.8066190895
 10
0.0083425583
 20
5.8066222685
 10
0.0636639013
 20
5.8043045058
 10
0.1188395364
 20
5.7996698848
 10
0.1737719439
 20
5.7927266196
 10
0.2283618344
 20
5.7834874847
 10
0.282511295
 20
5.7719696085
 10
0.3361273691
 20
5.7581933135
 10
0.3891193267
 20
5.7421820764
 10
0.4413926492
 20
5.7239645193
 10
0.4928569546
 20
5.7035721956
 10
0.543429109
 20
5.681037415
 10
0.5930229631
 20
5.6563971669
 10
0.6415475838
 20
5.6296951948
 10
0.6889149186
 20
5.6009788707
 10
0.7350475577
 20
5.5702937023
 10
0.7798572697
 20
5.5376969073
 10
0.8232450135
 20
5.5032615349
 10
0.865129733
 20
5.4670557584
 10
0.9054461668
 20
5.4291399593
 10
0.9441250057
 20
5.3895826428
 10
0.9810879009
 20
5.3484691982
 10
1.0162853388
 20
5.3058601952
 10
1.0496904951
 20
5.2617863885
 10
1.0812463916
 20
5.2163144394
 10
1.110887994
 20
5.1695290334
 10
1.1385726039
 20
5.1214856602
 10
1.1642604753
 20
5.0722325966
 10
1.1878802993
 20
5.0218841901
 10
1.2093532125
 20
4.9706013615
 10
1.228645875
 20
4.918467811
 10
1.2457226432
 20
4.8655843962
 10
1.260529034
 20
4.8121482652
 10
1.2730536507
 20
4.7582586881
 10
1.2832898148
 20
4.7040128501
 10
1.2912219414
 20
4.6496109271
 10
1.2968613618
 20
4.5951856166
 10
1.3002320406
 20
4.5407992961
 10
1.3013561702
 20
4.4865463073
  0
LINE
  5
2B5
100
AcDbEntity
  8
ASSI
100
AcDbLine
 62
7
  6
CONTINUOUS
 10
8.4931991625
 20
-0.1134536927
 11
8.230733172
 21
-0.139634296
  0
LINE
  5
2B6
100
AcDbEntity
  8
ASSI
100
AcDbLine
 62
253
  6
CONTINUOUS
 10
10.8064411431
 20
-0.1684178898
 11
10.7949174738
 21
-0.168669712
  0
LINE
  5
2B7
100
AcDbEntity
  8
ASSI
100
AcDbLine
 62
253
  6
CONTINUOUS
 10
11.00988581
 20
-0.3681788056
 11
10.9957679657
 21
-0.3684538294
  0
LINE
  5
2B8
100
AcDbEntity
  8
ASSI
100
AcDbLine
 62
253
  6
CONTINUOUS
 10
10.7949174738
 20
-0.168669712
 11
10.772214796
 21
-0.1690244667
  0
LINE
  5
2B9
100
AcDbEntity
  8
ASSI
100
AcDbLine
 62
253
  6
CONTINUOUS
 10
10.9957679657
 20
-0.3684538294
 11
10.9651385818
 21
-0.3688476391
  0
LINE
  5
2BA
100
AcDbEntity
  8
ASSI
100
AcDbLine
 62
253
  6
CONTINUOUS
 10
10.772214796
 20
-0.1690244667
 11
10.7213605809
 21
-0.1695341137
  0
LINE
  5
2BB
100
AcDbEntity
  8
ASSI
100
AcDbLine
 62
253
  6
CONTINUOUS
 10
10.9651385818
 20
-0.3688476391
 11
10.8728913356
 21
-0.3695339985
  0
LINE
  5
2BC
100
AcDbEntity
  8
ASSI
100
AcDbLine
 62
253
  6
CONTINUOUS
 10
10.7213605809
 20
-0.1695341137
 11
10.6141207904
 21
-0.1700671962
  0
LINE
  5
2BD
100
AcDbEntity
  8
ASSI
100
AcDbLine
 62
253
  6
CONTINUOUS
 10
-10.7356001499
 20
0.1427958087
 11
-10.6073591378
 21
0.1432535822
  0
LINE
  5
2BE
100
AcDbEntity
  8
ASSI
100
AcDbLine
 62
253
  6
CONTINUOUS
 10
10.8728913356
 20
-0.3695339985
 11
10.5997828802
 21
-0.370293964
  0
LINE
  5
2BF
100
AcDbEntity
  8
ASSI
100
AcDbLine
 62
253
  6
CONTINUOUS
 10
10.6141207904
 20
-0.1700671962
 11
10.5224378263
 21
-0.1701924534
  0
LINE
  5
2C0
100
AcDbEntity
  8
ASSI
100
AcDbLine
 62
253
  6
CONTINUOUS
 10
-10.6073591378
 20
0.1432535822
 11
-10.5609714823
 21
0.143285068
  0
LINE
  5
2C1
100
AcDbEntity
  8
ASSI
100
AcDbLine
 62
253
  6
CONTINUOUS
 10
10.5997828802
 20
-0.370293964
 11
-10.5609550095
 21
-0.3703275884
  0
LINE
  5
2C2
100
AcDbEntity
  8
ASSI
100
AcDbLine
 62
7
  6
CONTINUOUS
 10
10.5224378263
 20
-0.1701924534
 11
-10.5609714823
 21
-0.1701924534
  0
LINE
  5
2C3
100
AcDbEntity
  8
ASSI
100
AcDbLine
 62
7
  6
CONTINUOUS
 10
-8.269266828
 20
-0.139634296
 11
8.230733172
 21
-0.139634296
  0
LINE
  5
2C4
100
AcDbEntity
  8
ASSI
100
AcDbLine
 62
7
  6
CONTINUOUS
 10
-10.9692668269
 20
-0.1134536927
 11
-8.5317328186
 21
-0.1134536927
  0
LINE
  5
2C5
100
AcDbEntity
  8
ASSI
100
AcDbLine
 62
7
  6
CONTINUOUS
 10
8.4931991625
 20
-0.1134536927
 11
10.9307331708
 21
-0.1134536927
  0
LINE
  5
2C6
100
AcDbEntity
  8
ASSI
100
AcDbLine
 62
7
  6
CONTINUOUS
 10
10.9307331708
 20
0.0865463073
 11
8.4931991625
 21
0.0865463073
  0
LINE
  5
2C7
100
AcDbEntity
  8
ASSI
100
AcDbLine
 62
7
  6
CONTINUOUS
 10
-8.5317328186
 20
0.0865463073
 11
-10.9692668269
 21
0.0865463073
  0
LINE
  5
2C8
100
AcDbEntity
  8
ASSI
100
AcDbLine
 62
7
  6
CONTINUOUS
 10
8.230733172
 20
0.1127269107
 11
-8.269266828
 21
0.1127269107
  0
LINE
  5
2C9
100
AcDbEntity
  8
ASSI
100
AcDbLine
 62
7
  6
CONTINUOUS
 10
-10.5609714823
 20
0.143285068
 11
10.5224378263
 21
0.143285068
  0
LINE
  5
2CA
100
AcDbEntity
  8
ASSI
100
AcDbLine
 62
253
  6
CONTINUOUS
 10
-10.5609550095
 20
-0.3703275955
 11
-10.8726795821
 21
-0.3697237705
  0
LINE
  5
2CB
100
AcDbEntity
  8
ASSI
100
AcDbLine
 62
253
  6
CONTINUOUS
 10
-10.5609714823
 20
-0.1701924534
 11
-10.6957509035
 21
-0.1699133662
  0
LINE
  5
2CC
100
AcDbEntity
  8
ASSI
100
AcDbLine
 62
253
  6
CONTINUOUS
 10
10.5224378263
 20
0.143285068
 11
10.6572172474
 21
0.1430059809
  0
LINE
  5
2CD
100
AcDbEntity
  8
ASSI
100
AcDbLine
 62
253
  6
CONTINUOUS
 10
10.6572172474
 20
0.1430059809
 11
10.6970664932
 21
0.1427958087
  0
LINE
  5
2CE
100
AcDbEntity
  8
ASSI
100
AcDbLine
 62
253
  6
CONTINUOUS
 10
-10.8726795821
 20
-0.3697237705
 11
-10.9910495318
 21
-0.3689723913
  0
LINE
  5
2CF
100
AcDbEntity
  8
ASSI
100
AcDbLine
 62
253
  6
CONTINUOUS
 10
-10.6957509035
 20
-0.1699133662
 11
-10.782027827
 21
-0.1693442993
  0
LINE
  5
2D0
100
AcDbEntity
  8
ASSI
100
AcDbLine
 62
253
  6
CONTINUOUS
 10
-10.9910495318
 20
-0.3689723913
 11
-11.0253280097
 21
-0.3685878291
  0
LINE
  5
2D1
100
AcDbEntity
  8
ASSI
100
AcDbLine
 62
253
  6
CONTINUOUS
 10
-10.782027827
 20
-0.1693442993
 11
-10.8190288033
 21
-0.1689094828
  0
LWPOLYLINE
  5
2D2
100
AcDbEntity
  8
ASSI
100
AcDbPolyline
 62
253
  6
CONTINUOUS
 90
7
 70
0
 10
-11.0253280097
 20
-0.3685878291
 10
-11.0420053255
 20
-0.3683174714
 10
-11.0484194657
 20
-0.3681788056
 10
-11.0535277308
 20
-0.3680388218
 10
-11.0573163173
 20
-0.3678978826
 10
-11.0597745534
 20
-0.3677557232
 10
-11.0608955904
 20
-0.3676123931
  0
LINE
  5
2D3
100
AcDbEntity
  8
ASSI
100
AcDbLine
 62
253
  6
CONTINUOUS
 10
-10.8190288033
 20
-0.1689094828
 11
-10.8334511296
 21
-0.168669712
  0
LWPOLYLINE
  5
2D4
100
AcDbEntity
  8
ASSI
100
AcDbPolyline
 62
253
  6
CONTINUOUS
 90
8
 70
0
 10
-10.8334511296
 20
-0.168669712
 10
-10.8449747989
 20
-0.1684178898
 10
-10.8495899362
 20
-0.1682885861
 10
-10.8534447938
 20
-0.168157034
 10
-10.8565088566
 20
-0.1680243024
 10
-10.858771953
 20
-0.1678907476
 10
-10.8602442546
 20
-0.1677560134
 10
-10.8609257616
 20
-0.1676200998
  0
LINE
  5
2D5
100
AcDbEntity
  8
ASSI
100
AcDbLine
 62
7
  6
CONTINUOUS
 10
-8.5317328186
 20
-0.1134536927
 11
-8.269266828
 21
-0.139634296
  0
LWPOLYLINE
  5
2D6
100
AcDbEntity
  8
CURVE
100
AcDbPolyline
 62
253
  6
CONTINUOUS
 90
85
 70
0
 10
0.1506323621
 20
11.4903229475
 10
0.1505401418
 20
11.4952030718
 10
0.150266796
 20
11.49998995
 10
0.1498172974
 20
11.5047005325
 10
0.1491966187
 20
11.5093517697
 10
0.1484097326
 20
11.5139606118
 10
0.1474616118
 20
11.5185440092
 10
0.1463559334
 20
11.5231155024
 10
0.1450911922
 20
11.5276749927
 10
0.1436645874
 20
11.5322189717
 10
0.1420733182
 20
11.5367439308
 10
0.1403145837
 20
11.5412463616
 10
0.1383855832
 20
11.5457227555
 10
0.1362844411
 20
11.5501679491
 10
0.1340129833
 20
11.5545701586
 10
0.1315739608
 20
11.5589159451
 10
0.1289701245
 20
11.5631918698
 10
0.1262042256
 20
11.5673844939
 10
0.1232790151
 20
11.5714803785
 10
0.1201970945
 20
11.5754673636
 10
0.1169604667
 20
11.5793384041
 10
0.1135709854
 20
11.5830877336
 10
0.1100305038
 20
11.5867095858
 10
0.1063408755
 20
11.5901981943
 10
0.102503954
 20
11.5935477929
 10
0.0985227124
 20
11.5967528363
 10
0.0944046031
 20
11.5998086644
 10
0.090158198
 20
11.6027108383
 10
0.0857920692
 20
11.6054549188
 10
0.0813147886
 20
11.608036467
 10
0.0767349284
 20
11.6104510439
 10
0.0720603245
 20
11.6126943763
 10
0.0672958691
 20
11.6147628539
 10
0.0624457182
 20
11.6166530323
 10
0.0575140279
 20
11.618361467
 10
0.0525049543
 20
11.6198847135
 10
0.0474226536
 20
11.6212193275
 10
0.0422724975
 20
11.6223615893
 10
0.03706472
 20
11.6233066799
 10
0.0318107709
 20
11.6240495048
 10
0.0265221
 20
11.6245849698
 10
0.021210157
 20
11.6249079808
 10
0.0158863916
 20
11.6250134433
 10
0.0105622386
 20
11.6248979309
 10
0.0052490722
 20
11.6245646873
 10
-0.0000417483
 20
11.6240186242
 10
-0.0052988635
 20
11.623264653
 10
-0.0105109144
 20
11.6223076853
 10
-0.0156665414
 20
11.6211526325
 10
-0.0207555384
 20
11.619804192
 10
-0.02577231
 20
11.6182662036
 10
-0.0307124142
 20
11.6165422931
 10
-0.0355714085
 20
11.614636086
 10
-0.0403448507
 20
11.6125512081
 10
-0.0450282985
 20
11.6102912849
 10
-0.0496168108
 20
11.6078598158
 10
-0.0541034515
 20
11.605259795
 10
-0.0584807853
 20
11.6024940905
 10
-0.0627413772
 20
11.5995655703
 10
-0.0668777921
 20
11.5964771021
 10
-0.070882595
 20
11.5932315541
 10
-0.074748892
 20
11.5898325572
 10
-0.0784719544
 20
11.5862867953
 10
-0.0820475949
 20
11.5826017155
 10
-0.0854716259
 20
11.5787847647
 10
-0.0887398601
 20
11.5748433901
 10
-0.0918481101
 20
11.5707850385
 10
-0.0947924011
 20
11.5666187033
 10
-0.0975696101
 20
11.5623595631
 10
-0.1001768267
 20
11.5580243429
 10
-0.1026111403
 20
11.5536297675
 10
-0.1048696406
 20
11.5491925618
 10
-0.1069494173
 20
11.5447294507
 10
-0.108848848
 20
11.5402547176
 10
-0.1105714632
 20
11.5357728798
 10
-0.1121220813
 20
11.531286013
 10
-0.113505521
 20
11.5267961931
 10
-0.1147266008
 20
11.5223054958
 10
-0.1157901392
 20
11.5178159967
 10
-0.1166995032
 20
11.5133265428
 10
-0.1174522534
 20
11.5088230648
 10
-0.1180444989
 20
11.5042882645
 10
-0.1184723487
 20
11.4997048436
 10
-0.118731912
 20
11.495055504
 10
-0.1188192977
 20
11.4903229475
  0
LWPOLYLINE
  5
2D7
100
AcDbEntity
  8
CURVE
100
AcDbPolyline
 62
253
  6
CONTINUOUS
 90
85
 70
0
 10
0.1506323621
 20
15.4064737798
 10
0.1505405544
 20
15.41135314
 10
0.1502684015
 20
15.4161395662
 10
0.1498208087
 20
15.4208500103
 10
0.1492026812
 20
15.4255014241
 10
0.1484189244
 20
15.4301107596
 10
0.1474744434
 20
15.4346949685
 10
0.1463728509
 20
15.4392675951
 10
0.1451125884
 20
15.443828553
 10
0.1436908047
 20
15.448374348
 10
0.1421046488
 20
15.4529014862
 10
0.1403512694
 20
15.4574064733
 10
0.1384278153
 20
15.4618858154
 10
0.1363323613
 20
15.4663343559
 10
0.1340666852
 20
15.4707402881
 10
0.1316334907
 20
15.475090143
 10
0.1290354817
 20
15.4793704515
 10
0.1262753616
 20
15.4835677445
 10
0.1233558344
 20
15.4876685529
 10
0.1202794558
 20
15.4916606865
 10
0.1170481901
 20
15.4955370701
 10
0.1136638539
 20
15.4992919077
 10
0.1101282635
 20
15.502919403
 10
0.1064432354
 20
15.5064137599
 10
0.1026105861
 20
15.5097691821
 10
0.098633259
 20
15.5129800988
 10
0.0945187058
 20
15.5160418399
 10
0.0902755053
 20
15.518949961
 10
0.0859122361
 20
15.5217000174
 10
0.081437477
 20
15.5242875644
 10
0.0768598067
 20
15.5267081575
 10
0.0721870679
 20
15.5289575175
 10
0.0674241591
 20
15.531032028
 10
0.0625752429
 20
15.5329282377
 10
0.0576444819
 20
15.5346426957
 10
0.0526360386
 20
15.5361719508
 10
0.0475540755
 20
15.5375125522
 10
0.0424039687
 20
15.5386607688
 10
0.0371959481
 20
15.5396117505
 10
0.0319414572
 20
15.5403603673
 10
0.0266519393
 20
15.5409014893
 10
0.021338838
 20
15.5412299864
 10
0.0160135966
 20
15.5413407287
 10
0.01068764
 20
15.541230252
 10
0.0053723182
 20
15.5409017555
 10
0.0000789627
 20
15.5403601042
 10
-0.005181095
 20
15.539610163
 10
-0.0103965234
 20
15.5386567971
 10
-0.015555991
 20
15.5375048714
 10
-0.0206493019
 20
15.5361590458
 10
-0.0256708022
 20
15.5346231605
 10
-0.0306159735
 20
15.5329008504
 10
-0.0354802975
 20
15.5309957505
 10
-0.0402592558
 20
15.5289114959
 10
-0.0449483301
 20
15.5266517215
 10
-0.0495425152
 20
15.5242199229
 10
-0.0540348593
 20
15.5216190381
 10
-0.058417924
 20
15.5188518653
 10
-0.0626842707
 20
15.5159212031
 10
-0.0668264609
 20
15.5128298499
 10
-0.0708370561
 20
15.5095806042
 10
-0.0747091429
 20
15.5061770472
 10
-0.0784379089
 20
15.5026258918
 10
-0.0820190668
 20
15.4989346335
 10
-0.0854483293
 20
15.4951107682
 10
-0.0887214093
 20
15.4911617915
 10
-0.0918340193
 20
15.487095199
 10
-0.0947821056
 20
15.4829200489
 10
-0.0975625479
 20
15.4786516493
 10
-0.1001724594
 20
15.4743068705
 10
-0.1026089533
 20
15.4699025831
 10
-0.1048691428
 20
15.4654556576
 10
-0.1069501409
 20
15.4609829645
 10
-0.1088503576
 20
15.4564989039
 10
-0.1105733885
 20
15.4520079947
 10
-0.112124126
 20
15.4475122857
 10
-0.1135074627
 20
15.4430138254
 10
-0.1147282907
 20
15.4385146625
 10
-0.1157915025
 20
15.4340168455
 10
-0.1167005299
 20
15.4295191863
 10
-0.1174529616
 20
15.4250075494
 10
-0.118044926
 20
15.4204645625
 10
-0.1184725514
 20
15.4158728535
 10
-0.1187319658
 20
15.41121505
 10
-0.1188192977
 20
15.4064737798
  0
LWPOLYLINE
  5
2D8
100
AcDbEntity
  8
CURVE
100
AcDbPolyline
 62
253
  6
CONTINUOUS
 90
88
 70
0
 10
0.4754879039
 20
-13.0139067824
 10
0.4751813352
 20
-13.0315498672
 10
0.4742682489
 20
-13.048927088
 10
0.4727585743
 20
-13.0660816596
 10
0.4706622408
 20
-13.083056797
 10
0.4679891777
 20
-13.0998957153
 10
0.4647468459
 20
-13.1166329937
 10
0.4609328313
 20
-13.1332686687
 10
0.4565422512
 20
-13.1497941411
 10
0.451570223
 20
-13.1662008117
 10
0.4460118642
 20
-13.1824800813
 10
0.4398651164
 20
-13.1986190079
 10
0.4331392195
 20
-13.2145872781
 10
0.4258462379
 20
-13.2303502355
 10
0.4179982357
 20
-13.2458732239
 10
0.4096072775
 20
-13.2611215868
 10
0.4006856409
 20
-13.2760636178
 10
0.3912464585
 20
-13.2906794089
 10
0.381303076
 20
-13.3049520017
 10
0.3708688395
 20
-13.3188644382
 10
0.3599570948
 20
-13.3323997599
 10
0.3485812932
 20
-13.3455414714
 10
0.3367553078
 20
-13.358274928
 10
0.3244931167
 20
-13.370585948
 10
0.3118086984
 20
-13.3824603493
 10
0.2987160312
 20
-13.3938839503
 10
0.2852299101
 20
-13.404842755
 10
0.2713683963
 20
-13.4153235122
 10
0.257150368
 20
-13.4253131567
 10
0.2425947031
 20
-13.4347986232
 10
0.2277202797
 20
-13.4437668466
 10
0.2108420489
 20
-13.453110271
 10
0.193618279
 20
-13.461788667
 10
0.1760736538
 20
-13.4697917076
 10
0.1582328571
 20
-13.4771090662
 10
0.1401205726
 20
-13.4837304159
 10
0.1217614841
 20
-13.4896454299
 10
0.1031802753
 20
-13.4948437813
 10
0.0844016302
 20
-13.4993151435
 10
0.0654502323
 20
-13.5030491896
 10
0.0463522392
 20
-13.5060374124
 10
0.0271397027
 20
-13.508278583
 10
0.0078461484
 20
-13.5097732923
 10
-0.0114948982
 20
-13.510522131
 10
-0.0308499116
 20
-13.5105256899
 10
-0.0501853661
 20
-13.5097845598
 10
-0.0694677363
 20
-13.5082993314
 10
-0.0886634967
 20
-13.5060705957
 10
-0.1077391216
 20
-13.5030989432
 10
-0.126662947
 20
-13.4993863471
 10
-0.1454107547
 20
-13.4949403093
 10
-0.1639601877
 20
-13.489769714
 10
-0.1822888894
 20
-13.4838834453
 10
-0.2003745027
 20
-13.4772903874
 10
-0.2181946711
 20
-13.4699994245
 10
-0.2357270375
 20
-13.4620194407
 10
-0.2529492452
 20
-13.4533593203
 10
-0.2698389374
 20
-13.4440279473
 10
-0.2847359801
 20
-13.4350642801
 10
-0.2993238687
 20
-13.42557745
 10
-0.3135808958
 20
-13.4155808128
 10
-0.327485354
 20
-13.4050877239
 10
-0.3410155357
 20
-13.3941115389
 10
-0.3541508174
 20
-13.3826661465
 10
-0.3668749105
 20
-13.3707675681
 10
-0.3791726103
 20
-13.3584323579
 10
-0.3910287121
 20
-13.3456770706
 10
-0.4024280112
 20
-13.3325182604
 10
-0.4133559015
 20
-13.3189723138
 10
-0.423800172
 20
-13.3050549449
 10
-0.4337492101
 20
-13.2907816995
 10
-0.4431914034
 20
-13.2761681238
 10
-0.4521151394
 20
-13.2612297637
 10
-0.4605087208
 20
-13.245985252
 10
-0.4683601111
 20
-13.2304655682
 10
-0.475657189
 20
-13.2147047785
 10
-0.4823878332
 20
-13.1987369492
 10
-0.4885399224
 20
-13.1825961466
 10
-0.4941041235
 20
-13.1663122656
 10
-0.4990822567
 20
-13.1498985159
 10
-0.5034789307
 20
-13.1333639362
 10
-0.5072987539
 20
-13.116717565
 10
-0.5105463349
 20
-13.0999684407
 10
-0.5132238497
 20
-13.0831168732
 10
-0.5153237446
 20
-13.0661282574
 10
-0.5168360334
 20
-13.0489592595
 10
-0.5177507299
 20
-13.0315665457
 10
-0.5180578479
 20
-13.0139067824
  0
LWPOLYLINE
  5
2D9
100
AcDbEntity
  8
ASSI
100
AcDbPolyline
 62
253
  6
CONTINUOUS
 90
76
 70
0
 10
1.4013409398
 20
4.4874464874
 10
1.4001864091
 20
4.4289381927
 10
1.3965754663
 20
4.3704853894
 10
1.3905081113
 20
4.3120880785
 10
1.3819819196
 20
4.2536038694
 10
1.3709993158
 20
4.1951751543
 10
1.3575675733
 20
4.1372291096
 10
1.3416547304
 20
4.0797689983
 10
1.3232927488
 20
4.0227915617
 10
1.3025847867
 20
3.9667141957
 10
1.2795051331
 20
3.9115545896
 10
1.2540794991
 20
3.8572950602
 10
1.2264881756
 20
3.8042999471
 10
1.1967341969
 20
3.7526133316
 10
1.1648145288
 20
3.7021911397
 10
1.1309003595
 20
3.6532654784
 10
1.0949942816
 20
3.6058497644
 10
1.0570937025
 20
3.5599305883
 10
1.0173620333
 20
3.5156998193
 10
0.9757798653
 20
3.4731482595
 10
0.9323666072
 20
3.4322851136
 10
0.8873438968
 20
3.3933298553
 10
0.8406942035
 20
3.3562878456
 10
0.7924350579
 20
3.3211537299
 10
0.7428406883
 20
3.2881309085
 10
0.691909374
 20
3.2572369506
 10
0.6396428359
 20
3.2284542927
 10
0.5863204646
 20
3.2019336362
 10
0.5319406026
 20
3.1776882709
 10
0.4765049074
 20
3.1557049116
 10
0.4202977432
 20
3.1360943972
 10
0.3633139741
 20
3.1188677796
 10
0.305558736
 20
3.1040140104
 10
0.2473318007
 20
3.0916107777
 10
0.1886284081
 20
3.0816704671
 10
0.1294533183
 20
3.0741806951
 10
0.0701205838
 20
3.0691819965
 10
0.0106298885
 20
3.0666878755
 10
-0.0490184516
 20
3.0666848285
 10
-0.1085094347
 20
3.069172878
 10
-0.167842776
 20
3.0741655373
 10
-0.2270187604
 20
3.0816492923
 10
-0.2857232417
 20
3.0915836249
 10
-0.3439514869
 20
3.1039809478
 10
-0.4017082291
 20
3.1188288461
 10
-0.4586935214
 20
3.1360495603
 10
-0.514902124
 20
3.1556541108
 10
-0.5703392768
 20
3.1776314738
 10
-0.6247207524
 20
3.2018708225
 10
-0.6780447568
 20
3.2283853029
 10
-0.730313084
 20
3.2571617645
 10
-0.7812468893
 20
3.288049935
 10
-0.8308446616
 20
3.3210674339
 10
-0.879107912
 20
3.3561966361
 10
-0.9257623288
 20
3.3932344035
 10
-0.9707907583
 20
3.432186579
 10
-1.0142103543
 20
3.4730473134
 10
-1.0557982658
 20
3.5155959302
 10
-1.0955347382
 20
3.5598231821
 10
-1.1334395263
 20
3.6057383096
 10
-1.1693490435
 20
3.6531483685
 10
-1.2032652541
 20
3.7020656388
 10
-1.2351861938
 20
3.7524778333
 10
-1.2649423838
 20
3.8041551578
 10
-1.292537233
 20
3.8571412332
 10
-1.3179673325
 20
3.9113924312
 10
-1.3410529763
 20
3.9665480857
 10
-1.3617691776
 20
4.022626923
 10
-1.3801409233
 20
4.0796102104
 10
-1.3960634677
 20
4.1370810949
 10
-1.409504911
 20
4.1950437968
 10
-1.4204971529
 20
4.2534940914
 10
-1.429031147
 20
4.3120024602
 10
-1.4351038778
 20
4.3704257304
 10
-1.4387183607
 20
4.4289070731
 10
-1.4398745958
 20
4.4874464874
  0
LWPOLYLINE
  5
2DA
100
AcDbEntity
  8
ASSI
100
AcDbPolyline
 62
253
  6
CONTINUOUS
 90
76
 70
0
 10
1.4013409398
 20
-4.5143538727
 10
1.400168469
 20
-4.5728508514
 10
1.396540507
 20
-4.6312916982
 10
1.3904570539
 20
-4.6896764127
 10
1.381915652
 20
-4.7481473164
 10
1.370918759
 20
-4.8065620861
 10
1.3574737478
 20
-4.8644937554
 10
1.3415486793
 20
-4.9219390586
 10
1.3231754926
 20
-4.978901263
 10
1.3024573781
 20
-5.0349632048
 10
1.2793686393
 20
-5.0901072192
 10
1.2539349726
 20
-5.1443509756
 10
1.2263366576
 20
-5.1973303142
 10
1.1965767161
 20
-5.2490012037
 10
1.1646521262
 20
-5.2994076824
 10
1.1307341022
 20
-5.3483176969
 10
1.0948252366
 20
-5.3957178241
 10
1.0569229369
 20
-5.4416214954
 10
1.0171906396
 20
-5.4858369394
 10
0.9756089563
 20
-5.5283733341
 10
0.9321972755
 20
-5.5692215104
 10
0.8871771999
 20
-5.6081621774
 10
0.8405312127
 20
-5.6451899802
 10
0.7922768306
 20
-5.6803102829
 10
0.7426882067
 20
-5.7133198743
 10
0.6917636365
 20
-5.7442011961
 10
0.6395048245
 20
-5.7729718155
 10
0.5861910374
 20
-5.7994812099
 10
0.5318206373
 20
-5.8237161013
 10
0.4763952622
 20
-5.8456897755
 10
0.4201990921
 20
-5.8652915558
 10
0.3632270104
 20
-5.8825104069
 10
0.3054841339
 20
-5.8973573702
 10
0.2472699924
 20
-5.9097548841
 10
0.1885798403
 20
-5.9196905849
 10
0.1294184234
 20
-5.9271768401
 10
0.0700995089
 20
-5.9321731847
 10
0.0106227832
 20
-5.9346661382
 10
-0.04901144
 20
-5.9346691825
 10
-0.1084884531
 20
-5.9321822951
 10
-0.167807974
 20
-5.9271919846
 10
-0.2269702849
 20
-5.9197117409
 10
-0.2856615246
 20
-5.909782013
 10
-0.3438769745
 20
-5.8973904038
 10
-0.4016213532
 20
-5.8825493064
 10
-0.4585949561
 20
-5.8653363538
 10
-0.5147925626
 20
-5.8457405323
 10
-0.5702193932
 20
-5.8237728495
 10
-0.6245914046
 20
-5.7995439699
 10
-0.6779068227
 20
-5.7730407464
 10
-0.7301674216
 20
-5.7442763183
 10
-0.7810944803
 20
-5.713400779
 10
-0.8306865041
 20
-5.6803965055
 10
-0.8789449878
 20
-5.6452811118
 10
-0.9255956946
 20
-5.6082575479
 10
-0.9706214841
 20
-5.5693199616
 10
-1.0140394968
 20
-5.5284741959
 10
-1.0556269174
 20
-5.4859407436
 10
-1.0953640115
 20
-5.441728817
 10
-1.1332705135
 20
-5.3958291949
 10
-1.1691828125
 20
-5.3484347216
 10
-1.2031028733
 20
-5.299533094
 10
-1.235028731
 20
-5.2491366067
 10
-1.2647908799
 20
-5.1974750018
 10
-1.2923927165
 20
-5.1445046933
 10
-1.3178308444
 20
-5.09026926
 10
-1.340925569
 20
-5.0351291926
 10
-1.3616519175
 20
-4.9790657795
 10
-1.3800348628
 20
-4.9220977276
 10
-1.3959696285
 20
-4.8646416588
 10
-1.4094243376
 20
-4.806693345
 10
-1.4204308672
 20
-4.7482570125
 10
-1.4289800723
 20
-4.6897619676
 10
-1.4350689046
 20
-4.6313513133
 10
-1.4387004124
 20
-4.5728819482
 10
-1.4398745958
 20
-4.5143538727
  0
LWPOLYLINE
  5
2DB
100
AcDbEntity
  8
ASSI
100
AcDbPolyline
 62
253
  6
CONTINUOUS
 90
76
 70
0
 10
1.3013561702
 20
4.4865463073
 10
1.3002513238
 20
4.4323146334
 10
1.2969014674
 20
4.3779459749
 10
1.2912840644
 20
4.3235345862
 10
1.283374925
 20
4.2691432532
 10
1.2731622765
 20
4.214904155
 10
1.2606608487
 20
4.1610160846
 10
1.2458766301
 20
4.1075757958
 10
1.2288206027
 20
4.0546832177
 10
1.2095466661
 20
4.002535884
 10
1.1880895634
 20
3.9512339314
 10
1.1644825259
 20
3.9008623048
 10
1.1388054606
 20
3.8515851675
 10
1.1111297677
 20
3.8035172556
 10
1.0814950554
 20
3.7567067343
 10
1.0499453874
 20
3.7112112685
 10
1.0165467597
 20
3.667116428
 10
0.9813557362
 20
3.6244878338
 10
0.9443985985
 20
3.5833554291
 10
0.9057251302
 20
3.5437799194
 10
0.8654136583
 20
3.5058465229
 10
0.8235322717
 20
3.4696227014
 10
0.7801457696
 20
3.4351686302
 10
0.7353356199
 20
3.4025529897
 10
0.689200839
 20
3.371849021
 10
0.6418295181
 20
3.3431139902
 10
0.5932992533
 20
3.3163936385
 10
0.5436986232
 20
3.2917357482
 10
0.4931188016
 20
3.269184198
 10
0.4416458744
 20
3.2487759507
 10
0.389363096
 20
3.2305434111
 10
0.3363610408
 20
3.214518201
 10
0.2827342338
 20
3.2007289345
 10
0.2285732503
 20
3.1891990863
 10
0.1739710963
 20
3.1799490217
 10
0.1190258325
 20
3.1729959148
 10
0.0638367394
 20
3.1683525767
 10
0.0085014125
 20
3.1660272613
 10
-0.0468833495
 20
3.1660240793
 10
-0.1022190238
 20
3.1683430413
 10
-0.1574088395
 20
3.1729800612
 10
-0.2123551692
 20
3.1799269054
 10
-0.2669586415
 20
3.1891707678
 10
-0.3211212342
 20
3.2006944941
 10
-0.3747498954
 20
3.214477722
 10
-0.4277538404
 20
3.2304969193
 10
-0.480038449
 20
3.2487234182
 10
-0.5315132564
 20
3.2691256102
 10
-0.5820951098
 20
3.2916711183
 10
-0.6316977707
 20
3.3163228946
 10
-0.6802302351
 20
3.3430371285
 10
-0.7276044678
 20
3.3717663781
 10
-0.7737429863
 20
3.402465073
 10
-0.8185574975
 20
3.4350759188
 10
-0.8619490023
 20
3.4695257919
 10
-0.9038363882
 20
3.5057464513
 10
-0.944154344
 20
3.5436774389
 10
-0.9828336199
 20
3.5832501814
 10
-1.0197958102
 20
3.6243791994
 10
-1.0549913792
 20
3.6670038679
 10
-1.0883936104
 20
3.7110934395
 10
-1.1199454769
 20
3.7565811817
 10
-1.1495819157
 20
3.8033823431
 10
-1.1772603457
 20
3.8514414795
 10
-1.2029409867
 20
3.9007102994
 10
-1.2265524747
 20
3.9510743424
 10
-1.2480160267
 20
4.0023726149
 10
-1.2672982746
 20
4.0545213821
 10
-1.2843635422
 20
4.1074196989
 10
-1.2991574391
 20
4.1608702917
 10
-1.3116685579
 20
4.2147738437
 10
-1.3218902118
 20
4.2690331089
 10
-1.3298069367
 20
4.3234477981
 10
-1.3354301138
 20
4.3778851573
 10
-1.338783676
 20
4.4322827884
 10
-1.3398898263
 20
4.4865463073
  0
LWPOLYLINE
  5
2DC
100
AcDbEntity
  8
ASSI
100
AcDbPolyline
 62
253
  6
CONTINUOUS
 90
76
 70
0
 10
1.3013561702
 20
-4.5134536927
 10
1.3002333542
 20
-4.5676748588
 10
1.2968663876
 20
-4.6220322279
 10
1.2912327451
 20
-4.6764315877
 10
1.2833082052
 20
-4.7308101728
 10
1.2730810455
 20
-4.7850358598
 10
1.2605661168
 20
-4.8389099679
 10
1.2457693998
 20
-4.8923358029
 10
1.2287018666
 20
-4.9452134829
 10
1.2094175099
 20
-4.9973456005
 10
1.1879510407
 20
-5.0486321056
 10
1.1643356627
 20
-5.0989880883
 10
1.1386513627
 20
-5.1482494624
 10
1.1109694854
 20
-5.1963016053
 10
1.0813296051
 20
-5.2430963657
 10
1.0497759024
 20
-5.2885760346
 10
1.0163743436
 20
-5.3326551091
 10
0.9811814443
 20
-5.3752680384
 10
0.9442235946
 20
-5.4163848699
 10
0.905550557
 20
-5.4559449531
 10
0.8652406008
 20
-5.4938631603
 10
0.8233618747
 20
-5.530072097
 10
0.7799791289
 20
-5.5645116641
 10
0.7351737745
 20
-5.5971132495
 10
0.6890448695
 20
-5.6278036872
 10
0.6416804433
 20
-5.6565257875
 10
0.5931580193
 20
-5.6832338723
 10
0.5435661933
 20
-5.7078802291
 10
0.4929960678
 20
-5.7304210467
 10
0.4415336397
 20
-5.7508194205
 10
0.3892621449
 20
-5.7690430129
 10
0.3362720747
 20
-5.7850602576
 10
0.2826578524
 20
-5.7988425856
 10
0.228509999
 20
-5.8103665782
 10
0.1739214254
 20
-5.8196119094
 10
0.1189900827
 20
-5.8265614314
 10
0.0638151697
 20
-5.8312023647
 10
0.0084941738
 20
-5.8335264748
 10
-0.0468762144
 20
-5.8335296539
 10
-0.1021975573
 20
-5.8312118911
 10
-0.1573731924
 20
-5.8265772701
 10
-0.2123055999
 20
-5.8196340049
 10
-0.2668954905
 20
-5.8103948701
 10
-0.3210449511
 20
-5.7988769938
 10
-0.3746610252
 20
-5.7851006989
 10
-0.4276529827
 20
-5.7690894618
 10
-0.4799263052
 20
-5.7508719046
 10
-0.5313906107
 20
-5.730479581
 10
-0.581962765
 20
-5.7079448003
 10
-0.6315566191
 20
-5.6833045522
 10
-0.6800812399
 20
-5.6566025801
 10
-0.7274485746
 20
-5.627886256
 10
-0.7735812137
 20
-5.5972010876
 10
-0.8183909257
 20
-5.5646042926
 10
-0.8617786695
 20
-5.5301689202
 10
-0.9036633891
 20
-5.4939631437
 10
-0.9439798228
 20
-5.4560473446
 10
-0.9826586617
 20
-5.4164900281
 10
-1.019621557
 20
-5.3753765836
 10
-1.0548189949
 20
-5.3327675805
 10
-1.0882241511
 20
-5.2886937738
 10
-1.1197800476
 20
-5.2432218247
 10
-1.1494216501
 20
-5.1964364187
 10
-1.1771062599
 20
-5.1483930455
 10
-1.2027941314
 20
-5.0991399819
 10
-1.2264139554
 20
-5.0487915755
 10
-1.2478868686
 20
-4.9975087468
 10
-1.2671795311
 20
-4.9453751963
 10
-1.2842562992
 20
-4.8924917815
 10
-1.2990626901
 20
-4.8390556505
 10
-1.3115873068
 20
-4.7851660734
 10
-1.3218234708
 20
-4.7309202355
 10
-1.3297555975
 20
-4.6765183125
 10
-1.3353950179
 20
-4.6220930019
 10
-1.3387656967
 20
-4.5677066815
 10
-1.3398898263
 20
-4.5134536927
  0
LWPOLYLINE
  5
2DD
100
AcDbEntity
  8
ASSI
100
AcDbPolyline
 62
253
  6
CONTINUOUS
 90
5
 70
0
 10
-11.0608955904
 20
0.3407050078
 10
-11.0597745534
 20
0.3408483379
 10
-11.0573163174
 20
0.3409904973
 10
-11.0535277311
 20
0.3411314365
 10
-11.048419466
 20
0.3412714203
  0
LINE
  5
2DE
100
AcDbEntity
  8
ASSI
100
AcDbLine
 62
7
  6
CONTINUOUS
 10
-8.5317328186
 20
0.0865463073
 11
-8.269266828
 21
0.1127269107
  0
LINE
  5
2DF
100
AcDbEntity
  8
ASSI
100
AcDbLine
 62
253
  6
CONTINUOUS
 10
-10.8449747992
 20
0.1415105045
 11
-10.8334511299
 21
0.1417623267
  0
LINE
  5
2E0
100
AcDbEntity
  8
ASSI
100
AcDbLine
 62
253
  6
CONTINUOUS
 10
-11.048419466
 20
0.3412714203
 11
-11.0343016218
 21
0.3415464441
  0
LINE
  5
2E1
100
AcDbEntity
  8
ASSI
100
AcDbLine
 62
253
  6
CONTINUOUS
 10
-10.8334511299
 20
0.1417623267
 11
-10.8107484521
 21
0.1421170813
  0
LINE
  5
2E2
100
AcDbEntity
  8
ASSI
100
AcDbLine
 62
253
  6
CONTINUOUS
 10
-11.0343016218
 20
0.3415464441
 11
-11.0036722379
 21
0.3419402538
  0
LINE
  5
2E3
100
AcDbEntity
  8
ASSI
100
AcDbLine
 62
253
  6
CONTINUOUS
 10
-10.8107484521
 20
0.1421170813
 11
-10.759894237
 21
0.1426267283
  0
LINE
  5
2E4
100
AcDbEntity
  8
ASSI
100
AcDbLine
 62
253
  6
CONTINUOUS
 10
-10.759894237
 20
0.1426267283
 11
-10.7356001499
 21
0.1427958087
  0
LINE
  5
2E5
100
AcDbEntity
  8
ASSI
100
AcDbLine
 62
253
  6
CONTINUOUS
 10
-11.0036722379
 20
0.3419402538
 11
-10.9114249916
 21
0.3426266132
  0
LINE
  5
2E6
100
AcDbEntity
  8
ASSI
100
AcDbLine
 62
253
  6
CONTINUOUS
 10
-10.9114249916
 20
0.3426266132
 11
-10.6383165363
 21
0.3433865787
  0
LINE
  5
2E7
100
AcDbEntity
  8
ASSI
100
AcDbLine
 62
253
  6
CONTINUOUS
 10
-10.6383165363
 20
0.3433865787
 11
10.5224213535
 21
0.3434202031
  0
LINE
  5
2E8
100
AcDbEntity
  8
ASSI
100
AcDbLine
 62
253
  6
CONTINUOUS
 10
10.5224213535
 20
0.3434202102
 11
10.8341459261
 21
0.3428163851
  0
LINE
  5
2E9
100
AcDbEntity
  8
ASSI
100
AcDbLine
 62
253
  6
CONTINUOUS
 10
10.8341459261
 20
0.3428163851
 11
10.9525158757
 21
0.342065006
  0
LINE
  5
2EA
100
AcDbEntity
  8
ASSI
100
AcDbLine
 62
253
  6
CONTINUOUS
 10
10.6970664932
 20
0.1427958087
 11
10.7537143074
 21
0.1423344896
  0
LINE
  5
2EB
100
AcDbEntity
  8
ASSI
100
AcDbLine
 62
253
  6
CONTINUOUS
 10
10.9525158757
 20
0.342065006
 11
10.9867943537
 21
0.3416804438
  0
LINE
  5
2EC
100
AcDbEntity
  8
ASSI
100
AcDbLine
 62
253
  6
CONTINUOUS
 10
10.7537143074
 20
0.1423344896
 11
10.7804951473
 21
0.1420020975
  0
LINE
  5
2ED
100
AcDbEntity
  8
ASSI
100
AcDbLine
 62
253
  6
CONTINUOUS
 10
10.7804951473
 20
0.1420020975
 11
10.7949174735
 21
0.1417623267
  0
LWPOLYLINE
  5
2EE
100
AcDbEntity
  8
ASSI
100
AcDbPolyline
 62
253
  6
CONTINUOUS
 90
7
 70
0
 10
10.9867943537
 20
0.3416804438
 10
11.0034716694
 20
0.3414100861
 10
11.0098858096
 20
0.3412714203
 10
11.0149940747
 20
0.3411314365
 10
11.0187826612
 20
0.3409904973
 10
11.0212408973
 20
0.3408483379
 10
11.0223619344
 20
0.3407050078
  0
LWPOLYLINE
  5
2EF
100
AcDbEntity
  8
ASSI
100
AcDbPolyline
 62
253
  6
CONTINUOUS
 90
8
 70
0
 10
10.7949174735
 20
0.1417623267
 10
10.8064411429
 20
0.1415105045
 10
10.8110562802
 20
0.1413812008
 10
10.8149111377
 20
0.1412496487
 10
10.8179752005
 20
0.1411169171
 10
10.8202382969
 20
0.1409833623
 10
10.8217105986
 20
0.1408486281
 10
10.8223921055
 20
0.1407127144
  0
LINE
  5
2F0
100
AcDbEntity
  8
ASSI
100
AcDbLine
 62
7
  6
CONTINUOUS
 10
8.4931991625
 20
0.0865463073
 11
8.230733172
 21
0.1127269107
  0
LINE
  5
2F1
100
AcDbEntity
  8
ASSI
100
AcDbLine
 62
253
  6
CONTINUOUS
 10
10.6171994436
 20
22.1980275949
 11
10.5463386832
 21
21.985272437
  0
LWPOLYLINE
  5
2F2
100
AcDbEntity
  8
ASSI
100
AcDbPolyline
 62
253
  6
CONTINUOUS
 90
7
 70
0
 10
-10.8609257616
 20
0.1407127144
 10
-10.8602442547
 20
0.1408486281
 10
-10.858771953
 20
0.1409833623
 10
-10.8565088567
 20
0.1411169171
 10
-10.8534447939
 20
0.1412496487
 10
-10.8495899364
 20
0.1413812008
 10
-10.8449747992
 20
0.1415105045
  0
LINE
  5
2F3
100
AcDbEntity
  8
ASSI
100
AcDbLine
 62
253
  6
CONTINUOUS
 10
10.5463386832
 20
-22.0121798223
 11
10.6171994436
 21
-22.2249349802
  0
LINE
  5
2F4
100
AcDbEntity
  8
ASSI
100
AcDbLine
 62
253
  6
CONTINUOUS
 10
11.1175792669
 20
21.7000818671
 11
11.0462622284
 21
21.4859567619
  0
LINE
  5
2F5
100
AcDbEntity
  8
ASSI
100
AcDbLine
 62
253
  6
CONTINUOUS
 10
10.9307331708
 20
-0.1134536927
 11
10.8223921055
 21
-0.1676200998
  0
LINE
  5
2F6
100
AcDbEntity
  8
ASSI
100
AcDbLine
 62
253
  6
CONTINUOUS
 10
10.8223921055
 20
0.1407127144
 11
10.9307331708
 21
0.0865463073
  0
LINE
  5
2F7
100
AcDbEntity
  8
ASSI
100
AcDbLine
 62
253
  6
CONTINUOUS
 10
11.0462622284
 20
-21.5128641473
 11
11.1175792669
 21
-21.7269892524
  0
LWPOLYLINE
  5
2F8
100
AcDbEntity
  8
ASSI
100
AcDbPolyline
 62
253
  6
CONTINUOUS
 90
11
 70
0
 10
11.0462622284
 20
21.4859567619
 10
11.0455461182
 20
21.482953172
 10
11.0448350703
 20
21.4782931749
 10
11.0441290847
 20
21.4719767707
 10
11.0434269751
 20
21.4639878039
 10
11.0427299277
 20
21.45434243
 10
11.0420415017
 20
21.4430891155
 10
11.0413617485
 20
21.430219575
 10
11.0406906167
 20
21.4157420938
 10
11.0400315107
 20
21.3997299946
 10
11.0387495187
 20
21.3630867838
  0
LINE
  5
2F9
100
AcDbEntity
  8
ASSI
100
AcDbLine
 62
253
  6
CONTINUOUS
 10
11.130733172
 20
-0.3134308474
 11
11.0223619346
 21
-0.3676123394
  0
LINE
  5
2FA
100
AcDbEntity
  8
ASSI
100
AcDbLine
 62
253
  6
CONTINUOUS
 10
11.0223619346
 20
0.340704954
 11
11.130733172
 21
0.286523462
  0
LWPOLYLINE
  5
2FB
100
AcDbEntity
  8
ASSI
100
AcDbPolyline
 62
253
  6
CONTINUOUS
 90
8
 70
0
 10
10.5463385812
 20
21.9852724369
 10
10.545622226
 20
21.9807913465
 10
10.5449110053
 20
21.9737955533
 10
10.5442049191
 20
21.9642968442
 10
10.5435028085
 20
21.9523113159
 10
10.5428058324
 20
21.937859097
 10
10.5421174674
 20
21.9209641358
 10
10.5407666086
 20
21.8799623898
  0
LWPOLYLINE
  5
2FC
100
AcDbEntity
  8
ASSI
100
AcDbPolyline
 62
253
  6
CONTINUOUS
 90
9
 70
0
 10
11.0406906167
 20
-21.4426494787
 10
11.0413617485
 20
-21.45712696
 10
11.0420415017
 20
-21.4699965006
 10
11.0427299277
 20
-21.4812498151
 10
11.043426975
 20
-21.490895189
 10
11.0441290847
 20
-21.4988841559
 10
11.0448350703
 20
-21.5052005601
 10
11.0455461182
 20
-21.5098605572
 10
11.0462622284
 20
-21.5128641473
  0
LWPOLYLINE
  5
2FD
100
AcDbEntity
  8
ASSI
100
AcDbPolyline
 62
253
  6
CONTINUOUS
 90
7
 70
0
 10
10.5421174674
 20
-21.9478715207
 10
10.5428058324
 20
-21.964766482
 10
10.5435028084
 20
-21.9792187009
 10
10.544204919
 20
-21.9912042293
 10
10.5449110053
 20
-22.0007029385
 10
10.545622226
 20
-22.0076987317
 10
10.5463385812
 20
-22.0121798222
  0
LINE
  5
2FE
100
AcDbEntity
  8
ASSI
100
AcDbLine
 62
253
  6
CONTINUOUS
 10
10.5407666085
 20
-21.9068697746
 11
10.5421174674
 21
-21.9478715207
  0
LINE
  5
2FF
100
AcDbEntity
  8
ASSI
100
AcDbLine
 62
253
  6
CONTINUOUS
 10
10.5394605317
 20
-21.8564921022
 11
10.5407666085
 21
-21.9068697746
  0
LINE
  5
300
100
AcDbEntity
  8
ASSI
100
AcDbLine
 62
253
  6
CONTINUOUS
 10
10.5376013911
 20
-21.7641063447
 11
10.5394605317
 21
-21.8564921022
  0
LINE
  5
301
100
AcDbEntity
  8
ASSI
100
AcDbLine
 62
253
  6
CONTINUOUS
 10
10.5394605317
 20
21.8295847175
 11
10.5376013911
 21
21.7371989601
  0
LINE
  5
302
100
AcDbEntity
  8
ASSI
100
AcDbLine
 62
253
  6
CONTINUOUS
 10
10.5407666086
 20
21.8799623898
 11
10.5394605317
 21
21.8295847175
  0
LWPOLYLINE
  5
303
100
AcDbEntity
  8
CURVE
100
AcDbPolyline
 62
253
  6
CONTINUOUS
 90
84
 70
0
 10
-1.6105753708
 20
14.7885835022
 10
-1.6140991332
 20
14.7919585102
 10
-1.6176856623
 20
14.7951415985
 10
-1.6213440882
 20
14.7981483557
 10
-1.6250835407
 20
14.8009943701
 10
-1.6289131499
 20
14.8036952303
 10
-1.6328420456
 20
14.8062665245
 10
-1.6368780653
 20
14.8087204589
 10
-1.641023876
 20
14.8110557096
 10
-1.6452808521
 20
14.8132675704
 10
-1.6496503683
 20
14.8153513352
 10
-1.6541337989
 20
14.8173022977
 10
-1.6587325185
 20
14.8191157517
 10
-1.6634453554
 20
14.8207862151
 10
-1.6682609531
 20
14.822305102
 10
-1.6731654091
 20
14.8236630503
 10
-1.6781448209
 20
14.8248506981
 10
-1.6831852857
 20
14.8258586835
 10
-1.6882729011
 20
14.8266776446
 10
-1.6933947166
 20
14.8272995413
 10
-1.6985415897
 20
14.8277216218
 10
-1.7037053301
 20
14.8279424559
 10
-1.7088777475
 20
14.8279606136
 10
-1.7140506517
 20
14.8277746649
 10
-1.7192158522
 20
14.8273831799
 10
-1.724365319
 20
14.8267855098
 10
-1.7294916632
 20
14.8259841314
 10
-1.7345876559
 20
14.8249823027
 10
-1.7396460685
 20
14.8237832821
 10
-1.7446596721
 20
14.8223903274
 10
-1.749621238
 20
14.8208066969
 10
-1.7545234927
 20
14.8190355047
 10
-1.7593589835
 20
14.8170792887
 10
-1.7641202129
 20
14.8149404431
 10
-1.7687996835
 20
14.8126213618
 10
-1.7733898978
 20
14.8101244388
 10
-1.7778833583
 20
14.8074520682
 10
-1.7822724568
 20
14.804606884
 10
-1.7865491411
 20
14.8015924802
 10
-1.7907052487
 20
14.7984126907
 10
-1.7947326167
 20
14.7950713496
 10
-1.7986230822
 20
14.7915722909
 10
-1.8023684825
 20
14.7879193485
 10
-1.8059614985
 20
14.7841169436
 10
-1.8093981856
 20
14.7801718463
 10
-1.8126754431
 20
14.7760914137
 10
-1.8157901703
 20
14.7718830029
 10
-1.8187392662
 20
14.7675539713
 10
-1.8215196302
 20
14.7631116758
 10
-1.8241281063
 20
14.7585636581
 10
-1.8265613183
 20
14.7539181966
 10
-1.8288158351
 20
14.7491837543
 10
-1.8308882254
 20
14.7443687939
 10
-1.832775058
 20
14.7394817783
 10
-1.8344729016
 20
14.7345311703
 10
-1.8359784741
 20
14.729525598
 10
-1.83728909
 20
14.7244743501
 10
-1.838402213
 20
14.7193868808
 10
-1.8393153066
 20
14.7142726441
 10
-1.8400258345
 20
14.7091410939
 10
-1.8405312603
 20
14.7040016843
 10
-1.8408299766
 20
14.6988633449
 10
-1.8409240923
 20
14.6937329081
 10
-1.8408166453
 20
14.6886166818
 10
-1.8405106734
 20
14.6835209738
 10
-1.8400092146
 20
14.6784520921
 10
-1.8393153067
 20
14.6734163446
 10
-1.8384330415
 20
14.6684212358
 10
-1.8373707266
 20
14.6634790569
 10
-1.8361377235
 20
14.6586032959
 10
-1.8347433937
 20
14.6538074404
 10
-1.8331970986
 20
14.6491049784
 10
-1.8315081997
 20
14.6445093977
 10
-1.8293051747
 20
14.6391503841
 10
-1.8269187149
 20
14.6339616645
 10
-1.8243572547
 20
14.6289402012
 10
-1.821629228
 20
14.6240829564
 10
-1.8187430692
 20
14.6193868926
 10
-1.8162199786
 20
14.6155931632
 10
-1.8135783255
 20
14.6118998426
 10
-1.8108035043
 20
14.608297518
 10
-1.8078809096
 20
14.6047767765
 10
-1.8047959356
 20
14.6013282051
 10
-1.801533977
 20
14.5979423911
  0
LWPOLYLINE
  5
304
100
AcDbEntity
  8
CURVE
100
AcDbPolyline
 62
253
  6
CONTINUOUS
 90
37
 70
0
 10
1.6423884351
 20
11.1537376698
 10
1.6444820288
 20
11.1517073112
 10
1.6466104325
 20
11.1497388742
 10
1.6487755444
 20
11.1478287029
 10
1.6509792628
 20
11.1459731413
 10
1.6532234862
 20
11.1441685334
 10
1.6555101126
 20
11.1424112234
 10
1.6578406458
 20
11.140698251
 10
1.6602150099
 20
11.1390294401
 10
1.6626327348
 20
11.1374053102
 10
1.6650933499
 20
11.1358263809
 10
1.6675963848
 20
11.1342931718
 10
1.6701413691
 20
11.1328062024
 10
1.6727274482
 20
11.1313661792
 10
1.6753522304
 20
11.1299745562
 10
1.6780129395
 20
11.1286329742
 10
1.6807067997
 20
11.1273430741
 10
1.683431035
 20
11.1261064967
 10
1.6861828692
 20
11.1249248828
 10
1.6889594905
 20
11.1237997724
 10
1.6917579426
 20
11.1227323021
 10
1.6945752332
 20
11.1217235076
 10
1.6974083702
 20
11.1207744244
 10
1.7002543612
 20
11.1198860882
 10
1.7031102141
 20
11.1190595348
 10
1.7059733203
 20
11.118295667
 10
1.7088426061
 20
11.1175948561
 10
1.7117173813
 20
11.1169573407
 10
1.7145969559
 20
11.1163833594
 10
1.7174806397
 20
11.1158731508
 10
1.7203677427
 20
11.1154269534
 10
1.7232583241
 20
11.115045231
 10
1.7261554406
 20
11.114729348
 10
1.7290628981
 20
11.1144808941
 10
1.7319845027
 20
11.1143014589
 10
1.7349240604
 20
11.114192632
 10
1.7378853771
 20
11.1141560031
  0
LWPOLYLINE
  5
305
100
AcDbEntity
  8
CURVE
100
AcDbPolyline
 62
253
  6
CONTINUOUS
 90
84
 70
0
 10
1.158271503
 20
12.0191015584
 10
1.1547927972
 20
12.0224915224
 10
1.1512486409
 20
12.025687341
 10
1.1476300856
 20
12.0287050153
 10
1.1439281831
 20
12.0315605461
 10
1.140133985
 20
12.0342699346
 10
1.1362385429
 20
12.0368491817
 10
1.1322341986
 20
12.0393108385
 10
1.1281184541
 20
12.0416536567
 10
1.1238901016
 20
12.043872938
 10
1.1195479331
 20
12.0459639839
 10
1.1150907407
 20
12.0479220963
 10
1.1105173166
 20
12.0497425769
 10
1.1058289713
 20
12.0514199584
 10
1.1010370892
 20
12.0529456984
 10
1.0961555729
 20
12.0543104857
 10
1.0911983253
 20
12.0555050089
 10
1.086179249
 20
12.0565199567
 10
1.081112247
 20
12.0573460179
 10
1.0760102596
 20
12.0579751618
 10
1.070882379
 20
12.0584044808
 10
1.0657367347
 20
12.0586323477
 10
1.0605814567
 20
12.0586571355
 10
1.0554246746
 20
12.0584772172
 10
1.0502745182
 20
12.0580909657
 10
1.0451389643
 20
12.0574975772
 10
1.040025378
 20
12.0566995403
 10
1.0349409713
 20
12.055700167
 10
1.0298929562
 20
12.0545027692
 10
1.0248885448
 20
12.0531106588
 10
1.0199349493
 20
12.0515271475
 10
1.0150394086
 20
12.0497554141
 10
1.0102092702
 20
12.0477981032
 10
1.0054519087
 20
12.0456577263
 10
1.0007746984
 20
12.043336795
 10
0.9961850139
 20
12.0408378205
 10
0.9916902298
 20
12.0381633144
 10
0.9872978501
 20
12.0353160309
 10
0.9830158981
 20
12.0322996957
 10
0.9788525268
 20
12.0291182771
 10
0.9748158892
 20
12.0257757437
 10
0.9709141381
 20
12.0222760637
 10
0.9671554266
 20
12.0186232056
 10
0.9635471009
 20
12.0148216519
 10
0.9600932809
 20
12.0108779402
 10
0.9567972796
 20
12.0067991222
 10
0.9536624103
 20
12.0025922498
 10
0.9506919859
 20
11.9982643746
 10
0.9478893197
 20
11.9938225482
 10
0.9452578011
 20
11.9892740775
 10
0.9428011247
 20
11.984627289
 10
0.9405230615
 20
11.9798907644
 10
0.9384273824
 20
11.9750730852
 10
0.9365178586
 20
11.9701828331
 10
0.9347982608
 20
11.9652285898
 10
0.9332721813
 20
11.9602190968
 10
0.9319424972
 20
11.9551637361
 10
0.9308119066
 20
11.9500720494
 10
0.9298831078
 20
11.9449535787
 10
0.9291587991
 20
11.9398178659
 10
0.9286416787
 20
11.9346744527
 10
0.9283334685
 20
11.9295323401
 10
0.9282319849
 20
11.9243983639
 10
0.928334068
 20
11.9192788193
 10
0.9286365578
 20
11.9141800012
 10
0.9291362943
 20
11.9091082044
 10
0.9298301177
 20
11.9040697241
 10
0.930713785
 20
11.899072077
 10
0.9317787223
 20
11.8941276679
 10
0.9330152724
 20
11.8892501236
 10
0.9344137785
 20
11.8844530706
 10
0.9359645837
 20
11.8797501358
 10
0.9376580308
 20
11.8751549457
 10
0.9398661841
 20
11.8697976711
 10
0.9422571063
 20
11.8646119821
 10
0.9448220678
 20
11.8595946892
 10
0.947552339
 20
11.854742603
 10
0.9504391904
 20
11.8500525342
 10
0.9529615163
 20
11.8462642909
 10
0.9556012917
 20
11.8425766107
 10
0.9583732919
 20
11.8389797593
 10
0.9612922926
 20
11.8354640026
 10
0.964373069
 20
11.8320196063
 10
0.9676303968
 20
11.8286368363
  0
LWPOLYLINE
  5
306
100
AcDbEntity
  8
CURVE
100
AcDbPolyline
 62
253
  6
CONTINUOUS
 90
37
 70
0
 10
-1.1264584387
 20
13.9228668357
 10
-1.124376972
 20
13.9208272889
 10
-1.1222594849
 20
13.9188514799
 10
-1.1201042379
 20
13.9169356739
 10
-1.1179094913
 20
13.9150761364
 10
-1.1156735053
 20
13.9132691325
 10
-1.1133945404
 20
13.9115109276
 10
-1.1110712445
 20
13.9097984843
 10
-1.1087038168
 20
13.9081315554
 10
-1.106292844
 20
13.9065105906
 10
-1.1038389131
 20
13.9049360402
 10
-1.101342611
 20
13.9034083542
 10
-1.0988045243
 20
13.9019279824
 10
-1.0962256007
 20
13.900495549
 10
-1.0936082306
 20
13.8991123735
 10
-1.0909551651
 20
13.8977799497
 10
-1.0882691553
 20
13.8964997711
 10
-1.0855529523
 20
13.8952733313
 10
-1.0828093073
 20
13.8941021239
 10
-1.0800410071
 20
13.8929875508
 10
-1.0772509814
 20
13.8919306461
 10
-1.0744421956
 20
13.8909323522
 10
-1.0716176153
 20
13.8899936114
 10
-1.0687802058
 20
13.8891153661
 10
-1.0659329326
 20
13.8882985586
 10
-1.0630783989
 20
13.887544005
 10
-1.0602177584
 20
13.8868520156
 10
-1.0573518029
 20
13.8862227743
 10
-1.0544813238
 20
13.8856564652
 10
-1.0516071127
 20
13.8851532723
 10
-1.0487299613
 20
13.8847133794
 10
-1.0458498711
 20
13.8843371925
 10
-1.0429636837
 20
13.8840260051
 10
-1.0400674509
 20
13.8837813326
 10
-1.0371572243
 20
13.8836046903
 10
-1.0342290557
 20
13.8834975937
 10
-1.0312789967
 20
13.883461558
  0
LINE
  5
307
100
AcDbEntity
  8
CURVE
100
AcDbLine
 62
253
  6
CONTINUOUS
 10
1.8333470414
 20
11.3443787808
 11
1.158271503
 21
12.0191015584
  0
LINE
  5
308
100
AcDbEntity
  8
CURVE
100
AcDbLine
 62
253
  6
CONTINUOUS
 10
-1.801533977
 20
14.5979423911
 11
-1.1264584387
 21
13.9228668357
  0
LINE
  5
309
100
AcDbEntity
  8
CURVE
100
AcDbLine
 62
253
  6
CONTINUOUS
 10
0.9676303968
 20
11.8286368363
 11
1.6423884351
 21
11.1537376698
  0
LINE
  5
30A
100
AcDbEntity
  8
CURVE
100
AcDbLine
 62
253
  6
CONTINUOUS
 10
-0.9358173324
 20
14.1136843357
 11
-1.6105753708
 21
14.7885835022
  0
LWPOLYLINE
  5
30B
100
AcDbEntity
  8
ASSI
100
AcDbPolyline
 62
253
  6
CONTINUOUS
 90
22
 70
0
 10
11.0223616446
 20
-0.3676124844
 10
11.0218003201
 20
-0.3526684574
 10
11.0201240368
 20
-0.337807989
 10
11.0173421677
 20
-0.323114169
 10
11.0134702675
 20
-0.3086691552
 10
11.0085299854
 20
-0.2945537147
 10
11.002548945
 20
-0.2808467722
 10
10.9955605887
 20
-0.2676249677
 10
10.9876039912
 20
-0.2549622285
 10
10.9787236412
 20
-0.2429293562
 10
10.9689691921
 20
-0.2315936303
 10
10.9583951849
 20
-0.2210184321
 10
10.9470607429
 20
-0.2112628908
 10
10.9350292413
 20
-0.2023815523
 10
10.9223679523
 20
-0.1944240742
 10
10.9091476701
 20
-0.1874349491
 10
10.8954423137
 20
-0.1814532544
 10
10.8813285144
 20
-0.1765124349
 10
10.8668851871
 20
-0.1726401156
 10
10.8521930892
 20
-0.169857947
 10
10.8373343688
 20
-0.1681814841
 10
10.8223921055
 20
-0.1676200998
  0
LINE
  5
30C
100
AcDbEntity
  8
ASSI
100
AcDbLine
 62
253
  6
CONTINUOUS
 10
11.0393845017
 20
-21.4090830831
 11
11.0406906167
 21
-21.4426494787
  0
LINE
  5
30D
100
AcDbEntity
  8
ASSI
100
AcDbLine
 62
253
  6
CONTINUOUS
 10
11.0381297526
 20
-21.3694666968
 11
11.0393845017
 21
-21.4090830831
  0
LWPOLYLINE
  5
30E
100
AcDbEntity
  8
ASSI
100
AcDbPolyline
 62
253
  6
CONTINUOUS
 90
28
 70
0
 10
11.0462622284
 20
21.4859567619
 10
11.0453908851
 20
21.5149724736
 10
11.0428328697
 20
21.5438901202
 10
11.0385968276
 20
21.5726119675
 10
11.0326970754
 20
21.6010409426
 10
11.0251535527
 20
21.6290809628
 10
11.0159917546
 20
21.6566372599
 10
11.0052426454
 20
21.6836167005
 10
10.9929425544
 20
21.7099281006
 10
10.9791330527
 20
21.7354825344
 10
10.9638608127
 20
21.7601936342
 10
10.9471774508
 20
21.7839778825
 10
10.9291393525
 20
21.8067548944
 10
10.9098074818
 20
21.8284476892
 10
10.8892471757
 20
21.8489829506
 10
10.8675279228
 20
21.8682912744
 10
10.8447231287
 20
21.8863074031
 10
10.8209098679
 20
21.9029704467
 10
10.7961686232
 20
21.918224088
 10
10.770583014
 20
21.9320167734
 10
10.7442395131
 20
21.9443018871
 10
10.7172271551
 20
21.9550379081
 10
10.6896372352
 20
21.9641885515
 10
10.6615630003
 20
21.9717228902
 10
10.6330993347
 20
21.9776154599
 10
10.6043424383
 20
21.9818463451
 10
10.5753895025
 20
21.9844012466
 10
10.5463383809
 20
21.9852715293
  0
LINE
  5
30F
100
AcDbEntity
  8
ASSI
100
AcDbLine
 62
253
  6
CONTINUOUS
 10
11.0369360229
 20
-21.3240816476
 11
11.0381297526
 21
-21.3694666968
  0
LINE
  5
310
100
AcDbEntity
  8
ASSI
100
AcDbLine
 62
253
  6
CONTINUOUS
 10
11.0352775169
 20
-21.2459074606
 11
11.0369360229
 21
-21.3240816476
  0
LINE
  5
311
100
AcDbEntity
  8
ASSI
100
AcDbLine
 62
253
  6
CONTINUOUS
 10
11.0333505277
 20
-21.1246949721
 11
11.0352775169
 21
-21.2459074606
  0
LINE
  5
312
100
AcDbEntity
  8
ASSI
100
AcDbLine
 62
253
  6
CONTINUOUS
 10
10.5353537119
 20
-21.6117759404
 11
10.5376013911
 21
-21.7641063447
  0
LINE
  5
313
100
AcDbEntity
  8
ASSI
100
AcDbLine
 62
253
  6
CONTINUOUS
 10
11.0314693428
 20
-20.9504867166
 11
11.0333505277
 21
-21.1246949721
  0
LINE
  5
314
100
AcDbEntity
  8
ASSI
100
AcDbLine
 62
253
  6
CONTINUOUS
 10
10.5325995863
 20
-21.3294563163
 11
10.5353537119
 21
-21.6117759404
  0
LINE
  5
315
100
AcDbEntity
  8
ASSI
100
AcDbLine
 62
253
  6
CONTINUOUS
 10
11.0300869961
 20
-20.718002927
 11
11.0314693428
 21
-20.9504867166
  0
LINE
  5
316
100
AcDbEntity
  8
ASSI
100
AcDbLine
 62
253
  6
CONTINUOUS
 10
10.5303237302
 20
-20.879944249
 11
10.5325995863
 21
-21.3294563163
  0
LINE
  5
317
100
AcDbEntity
  8
ASSI
100
AcDbLine
 62
7
  6
CONTINUOUS
 10
11.130733172
 20
13.0865463073
 11
11.1175792669
 21
21.7000818671
  0
LINE
  5
318
100
AcDbEntity
  8
ASSI
100
AcDbLine
 62
253
  6
CONTINUOUS
 10
10.5250082914
 20
-12.1590336748
 11
10.5303237302
 21
-20.879944249
  0
LINE
  5
319
100
AcDbEntity
  8
ASSI
100
AcDbLine
 62
253
  6
CONTINUOUS
 10
11.0249317202
 20
-12.1458946402
 11
11.0300869961
 21
-20.718002927
  0
LINE
  5
31A
100
AcDbEntity
  8
ASSI
100
AcDbLine
 62
253
  6
CONTINUOUS
 10
10.5250082914
 20
-12.1590336748
 11
10.5224378263
 21
-0.1701924534
  0
LINE
  5
31B
100
AcDbEntity
  8
ASSI
100
AcDbLine
 62
253
  6
CONTINUOUS
 10
11.0223619346
 20
-0.3676123394
 11
11.0249317202
 21
-12.1458946402
  0
LINE
  5
31C
100
AcDbEntity
  8
ASSI
100
AcDbLine
 62
7
  6
CONTINUOUS
 10
11.130733172
 20
-0.3134308474
 11
11.130733172
 21
-13.1134536927
  0
LINE
  5
31D
100
AcDbEntity
  8
ASSI
100
AcDbLine
 62
7
  6
CONTINUOUS
 10
11.130733172
 20
0.286523462
 11
11.130733172
 21
13.0865463073
  0
LINE
  5
31E
100
AcDbEntity
  8
ASSI
100
AcDbLine
 62
7
  6
CONTINUOUS
 10
11.130733172
 20
-13.1134536927
 11
11.1175792669
 21
-21.7269892524
  0
LINE
  5
31F
100
AcDbEntity
  8
ASSI
100
AcDbLine
 62
253
  6
CONTINUOUS
 10
10.5312465247
 20
21.0858392342
 11
10.5224378263
 21
0.143285068
  0
LINE
  5
320
100
AcDbEntity
  8
ASSI
100
AcDbLine
 62
253
  6
CONTINUOUS
 10
11.0304361478
 20
20.7706938246
 11
11.0223619346
 21
0.340704954
  0
LINE
  5
321
100
AcDbEntity
  8
ASSI
100
AcDbLine
 62
253
  6
CONTINUOUS
 10
10.5338753815
 20
21.4510001256
 11
10.5312465247
 21
21.0858392342
  0
LINE
  5
322
100
AcDbEntity
  8
ASSI
100
AcDbLine
 62
253
  6
CONTINUOUS
 10
11.032146633
 20
20.9959018614
 11
11.0304361478
 21
20.7706938246
  0
LINE
  5
323
100
AcDbEntity
  8
ASSI
100
AcDbLine
 62
253
  6
CONTINUOUS
 10
10.5364411023
 20
21.6649990234
 11
10.5338753815
 21
21.4510001256
  0
LINE
  5
324
100
AcDbEntity
  8
ASSI
100
AcDbLine
 62
253
  6
CONTINUOUS
 10
11.0337991417
 20
21.1297489104
 11
11.032146633
 21
20.9959018614
  0
LINE
  5
325
100
AcDbEntity
  8
ASSI
100
AcDbLine
 62
253
  6
CONTINUOUS
 10
10.5376013911
 20
21.7371989601
 11
10.5364411023
 21
21.6649990234
  0
LINE
  5
326
100
AcDbEntity
  8
ASSI
100
AcDbLine
 62
253
  6
CONTINUOUS
 10
11.0358121417
 20
21.2463812676
 11
11.0337991417
 21
21.1297489104
  0
LINE
  5
327
100
AcDbEntity
  8
ASSI
100
AcDbLine
 62
253
  6
CONTINUOUS
 10
11.0375252792
 20
21.3205860661
 11
11.0358121417
 21
21.2463812676
  0
LWPOLYLINE
  5
328
100
AcDbEntity
  8
ASSI
100
AcDbPolyline
 62
253
  6
CONTINUOUS
 90
28
 70
0
 10
11.0462622284
 20
-21.5128641473
 10
11.0453908845
 20
-21.5418798682
 10
11.0428328676
 20
-21.5707975233
 10
11.0385968231
 20
-21.599519378
 10
11.0326970679
 20
-21.6279483596
 10
11.0251535416
 20
-21.6559883853
 10
11.0159917394
 20
-21.6835446868
 10
11.0052426261
 20
-21.7105241306
 10
10.9929425308
 20
-21.7368355329
 10
10.9791330249
 20
-21.7623899679
 10
10.963860781
 20
-21.7871010677
 10
10.9471774155
 20
-21.8108853152
 10
10.929139314
 20
-21.8336623255
 10
10.9098074409
 20
-21.8553551179
 10
10.889247133
 20
-21.8758903762
 10
10.867527879
 20
-21.8951986965
 10
10.8447230846
 20
-21.9132148213
 10
10.8209098244
 20
-21.9298778606
 10
10.7961685811
 20
-21.9451314977
 10
10.770582974
 20
-21.9589241788
 10
10.7442394762
 20
-21.9712092883
 10
10.717227122
 20
-21.9819453056
 10
10.6896372065
 20
-21.9910959455
 10
10.6615629766
 20
-21.9986302811
 10
10.6330993164
 20
-22.0045228484
 10
10.6043424259
 20
-22.0087537319
 10
10.5753894961
 20
-22.0113086323
 10
10.5463383809
 20
-22.0121789146
  0
LINE
  5
329
100
AcDbEntity
  8
ASSI
100
AcDbLine
 62
253
  6
CONTINUOUS
 10
11.0387495187
 20
21.3630867838
 11
11.0375252792
 21
21.3205860661
  0
LWPOLYLINE
  5
32A
100
AcDbEntity
  8
ASSI
100
AcDbPolyline
 62
253
  6
CONTINUOUS
 90
22
 70
0
 10
11.0223616446
 20
0.3407050991
 10
11.0218003219
 20
0.3257610956
 10
11.0201240436
 20
0.3109006489
 10
11.0173421825
 20
0.2962068485
 10
11.0134702928
 20
0.2817618521
 10
11.0085300235
 20
0.2676464263
 10
11.0025489972
 20
0.2539394952
 10
10.9955606557
 20
0.2407176984
 10
10.9876040732
 20
0.2280549633
 10
10.9787237373
 20
0.2160220914
 10
10.9689693011
 20
0.2046863623
 10
10.9583953045
 20
0.1941111578
 10
10.9470608703
 20
0.1843556071
 10
10.935029373
 20
0.1754742567
 10
10.9223680844
 20
0.1675167652
 10
10.909147798
 20
0.1605276253
 10
10.8954424326
 20
0.1545459157
 10
10.8813286193
 20
0.149605082
 10
10.866885273
 20
0.1457327499
 10
10.852193151
 20
0.142950571
 10
10.8373344019
 20
0.1412741013
 10
10.8223921055
 20
0.1407127144
  0
LWPOLYLINE
  5
32B
100
AcDbEntity
  8
CURVE
100
AcDbPolyline
 62
253
  6
CONTINUOUS
 90
73
 70
0
 10
0.9881356989
 20
-12.2755781736
 10
0.9840556614
 20
-12.2780433966
 10
0.9801356801
 20
-12.2806150034
 10
0.9763596764
 20
-12.2832973491
 10
0.9727115717
 20
-12.2860947889
 10
0.9691752874
 20
-12.2890116779
 10
0.9657347449
 20
-12.2920523714
 10
0.9623772268
 20
-12.2952207583
 10
0.9591034604
 20
-12.2985188615
 10
0.9559175344
 20
-12.3019482381
 10
0.9528235371
 20
-12.3055104447
 10
0.9498255572
 20
-12.3092070381
 10
0.9469276832
 20
-12.3130395752
 10
0.9441351008
 20
-12.3170077693
 10
0.9414573844
 20
-12.3211039602
 10
0.9389052057
 20
-12.3253186443
 10
0.9364892364
 20
-12.329642318
 10
0.9342201481
 20
-12.3340654777
 10
0.9321086125
 20
-12.3385786197
 10
0.930164189
 20
-12.3431731462
 10
0.9283919886
 20
-12.3478440825
 10
0.9267960101
 20
-12.3525873595
 10
0.9253802525
 20
-12.3573989084
 10
0.9241487144
 20
-12.3622746602
 10
0.9231053948
 20
-12.3672105458
 10
0.9222535902
 20
-12.3722014799
 10
0.9215937888
 20
-12.3772383113
 10
0.9211257763
 20
-12.3823108721
 10
0.9208493386
 20
-12.3874089947
 10
0.9207642617
 20
-12.3925225114
 10
0.9208703312
 20
-12.3976412545
 10
0.9211669635
 20
-12.4027551172
 10
0.9216520959
 20
-12.4078542359
 10
0.9223232959
 20
-12.4129288082
 10
0.9231781313
 20
-12.4179690315
 10
0.9242141697
 20
-12.4229651031
 10
0.9254289787
 20
-12.4279072206
 10
0.9268203709
 20
-12.4327862585
 10
0.9283871378
 20
-12.4375958008
 10
0.9301283157
 20
-12.4423301087
 10
0.9320429412
 20
-12.4469834431
 10
0.9341300506
 20
-12.4515500654
 10
0.9363886804
 20
-12.4560242365
 10
0.9388170458
 20
-12.4604003183
 10
0.9414100784
 20
-12.4646730751
 10
0.9441618885
 20
-12.4688373718
 10
0.9470665865
 20
-12.4728880732
 10
0.9501182829
 20
-12.4768200443
 10
0.9533110879
 20
-12.4806281501
 10
0.9566392871
 20
-12.4843076066
 10
0.960097867
 20
-12.4878550354
 10
0.9636819888
 20
-12.4912674092
 10
0.9673868141
 20
-12.4945417009
 10
0.9712075044
 20
-12.497674883
 10
0.9751392211
 20
-12.5006639285
 10
0.9791759628
 20
-12.5035056609
 10
0.9833070765
 20
-12.5061963076
 10
0.9875207465
 20
-12.5087319469
 10
0.9918051568
 20
-12.5111086569
 10
0.9961484918
 20
-12.513322516
 10
1.0005389355
 20
-12.5153696024
 10
1.0049661003
 20
-12.5172471684
 10
1.0094253112
 20
-12.5189571624
 10
1.0139133213
 20
-12.5205027071
 10
1.0184268837
 20
-12.5218869249
 10
1.0229627516
 20
-12.5231129383
 10
1.027517678
 20
-12.5241838699
 10
1.0320914824
 20
-12.5251015562
 10
1.0366962481
 20
-12.5258626902
 10
1.041347125
 20
-12.5264626786
 10
1.0460592627
 20
-12.5268969285
 10
1.0508478109
 20
-12.5271608467
 10
1.0557279194
 20
-12.5272498402
  0
LWPOLYLINE
  5
32C
100
AcDbEntity
  8
CURVE
100
AcDbPolyline
 62
253
  6
CONTINUOUS
 90
73
 70
0
 10
-1.5727824403
 20
-13.7539992844
 10
-1.5768630464
 20
-13.7564574405
 10
-1.5807826443
 20
-13.7590223439
 10
-1.5845576771
 20
-13.7616985243
 10
-1.5882045881
 20
-13.7644905114
 10
-1.5917398208
 20
-13.7674028351
 10
-1.5951798182
 20
-13.7704400251
 10
-1.5985375758
 20
-13.7736061281
 10
-1.6018122977
 20
-13.7769032579
 10
-1.60499974
 20
-13.7803330451
 10
-1.608095659
 20
-13.7838971203
 10
-1.6110958108
 20
-13.7875971141
 10
-1.6139959517
 20
-13.7914346573
 10
-1.6167907214
 20
-13.7954095003
 10
-1.6194702945
 20
-13.7995138734
 10
-1.6220237292
 20
-13.8037381269
 10
-1.6244400837
 20
-13.808072611
 10
-1.6267084161
 20
-13.8125076759
 10
-1.6288177848
 20
-13.8170336718
 10
-1.6307583797
 20
-13.8216419113
 10
-1.6325249191
 20
-13.8263275558
 10
-1.6341132531
 20
-13.8310867288
 10
-1.6355192317
 20
-13.8359155541
 10
-1.636738705
 20
-13.8408101553
 10
-1.6377675231
 20
-13.8457666561
 10
-1.6386022719
 20
-13.8507800678
 10
-1.6392424804
 20
-13.855840952
 10
-1.6396884133
 20
-13.860938758
 10
-1.6399403354
 20
-13.8660629352
 10
-1.6399985115
 20
-13.8712029329
 10
-1.6398632064
 20
-13.8763482003
 10
-1.6395351075
 20
-13.8814882676
 10
-1.6390165933
 20
-13.8866129886
 10
-1.6383104648
 20
-13.8917122978
 10
-1.6374195233
 20
-13.8967761297
 10
-1.6363465699
 20
-13.9017944189
 10
-1.6350944057
 20
-13.9067571001
 10
-1.6336655882
 20
-13.9116548539
 10
-1.6320617008
 20
-13.9164813463
 10
-1.6302840831
 20
-13.921230989
 10
-1.6283340748
 20
-13.9258981942
 10
-1.6262130157
 20
-13.9304773738
 10
-1.6239222454
 20
-13.9349629398
 10
-1.6214638806
 20
-13.9393493365
 10
-1.6188431455
 20
-13.9436311373
 10
-1.6160660416
 20
-13.9478029479
 10
-1.61313857
 20
-13.9518593739
 10
-1.6100667321
 20
-13.9557950212
 10
-1.6068565291
 20
-13.9596044955
 10
-1.6035137191
 20
-13.9632827637
 10
-1.6000430869
 20
-13.9668262387
 10
-1.5964491739
 20
-13.9702316948
 10
-1.5927365218
 20
-13.973495906
 10
-1.5889096721
 20
-13.9766156465
 10
-1.5849731663
 20
-13.9795876906
 10
-1.5809328411
 20
-13.9824087453
 10
-1.5767997145
 20
-13.9850752491
 10
-1.5725860994
 20
-13.9875835732
 10
-1.5683043091
 20
-13.989930089
 10
-1.5639666565
 20
-13.9921111679
 10
-1.5595854547
 20
-13.9941231812
 10
-1.5551715305
 20
-13.9959637697
 10
-1.5507297657
 20
-13.9976356528
 10
-1.5462635554
 20
-13.9991428191
 10
-1.5417762951
 20
-14.0004892576
 10
-1.5372713801
 20
-14.0016789569
 10
-1.5327522057
 20
-14.002715906
 10
-1.5282189781
 20
-14.0036027867
 10
-1.5236591458
 20
-14.0043370541
 10
-1.5190569685
 20
-14.0049148561
 10
-1.5143967054
 20
-14.0053323409
 10
-1.509662616
 20
-14.0055856564
 10
-1.5048389597
 20
-14.005670951
  0
LWPOLYLINE
  5
32D
100
AcDbEntity
  8
CURVE
100
AcDbPolyline
 62
253
  6
CONTINUOUS
 90
86
 70
0
 10
-1.0306703607
 20
-13.7525881733
 10
-1.0265484905
 20
-13.7501073409
 10
-1.022589998
 20
-13.7475159769
 10
-1.0187783806
 20
-13.7448097283
 10
-1.0150971358
 20
-13.7419842423
 10
-1.0115297611
 20
-13.739035166
 10
-1.008059754
 20
-13.7359581463
 10
-1.0040069621
 20
-13.7320914076
 10
-1.0000776606
 20
-13.7280308333
 10
-0.9962788946
 20
-13.7237730943
 10
-0.9926177088
 20
-13.7193148616
 10
-0.9891011481
 20
-13.7146528061
 10
-0.9862874303
 20
-13.7106116861
 10
-0.9835902527
 20
-13.7064369412
 10
-0.981020829
 20
-13.7021388017
 10
-0.978590373
 20
-13.697727498
 10
-0.9763100984
 20
-13.6932132608
 10
-0.974191219
 20
-13.6886063204
 10
-0.9722437615
 20
-13.6839159885
 10
-0.970473004
 20
-13.6791479016
 10
-0.9688830378
 20
-13.6743067773
 10
-0.967477954
 20
-13.6693973332
 10
-0.9662618435
 20
-13.6644242871
 10
-0.9652387977
 20
-13.6593923565
 10
-0.9644123546
 20
-13.6543071894
 10
-0.9637838407
 20
-13.6491781551
 10
-0.9633540297
 20
-13.6440155535
 10
-0.9631236952
 20
-13.638829684
 10
-0.9630936107
 20
-13.6336308465
 10
-0.9632645498
 20
-13.6284293406
 10
-0.9636371729
 20
-13.6232350783
 10
-0.9642116873
 20
-13.6180564206
 10
-0.9649881869
 20
-13.612901341
 10
-0.9659667658
 20
-13.6077778128
 10
-0.967147518
 20
-13.6026938094
 10
-0.9685305375
 20
-13.5976573041
 10
-0.9701158239
 20
-13.5926765167
 10
-0.9719029989
 20
-13.5877606524
 10
-0.9738915897
 20
-13.5829191626
 10
-0.9760811235
 20
-13.5781614989
 10
-0.9784711276
 20
-13.5734971129
 10
-0.9810611292
 20
-13.568935456
 10
-0.9838488842
 20
-13.5644853547
 10
-0.9868250625
 20
-13.5601531349
 10
-0.9899785628
 20
-13.5559444975
 10
-0.9932982836
 20
-13.5518651432
 10
-0.9967731236
 20
-13.547920773
 10
-1.0003919812
 20
-13.5441170877
 10
-1.0041447132
 20
-13.5404590207
 10
-1.0080250079
 20
-13.5369484364
 10
-1.0120275116
 20
-13.5335864317
 10
-1.0161468706
 20
-13.5303741033
 10
-1.0203777314
 20
-13.5273125483
 10
-1.0247147403
 20
-13.5244028635
 10
-1.0291513159
 20
-13.5216467943
 10
-1.033675966
 20
-13.5190486797
 10
-1.0382759708
 20
-13.5166135075
 10
-1.0429386103
 20
-13.514346265
 10
-1.0476511646
 20
-13.5122519399
 10
-1.0524009139
 20
-13.5103355196
 10
-1.0571795538
 20
-13.5086005139
 10
-1.0619964421
 20
-13.5070445206
 10
-1.0668653523
 20
-13.5056636596
 10
-1.0717944282
 20
-13.5044562007
 10
-1.0767692955
 20
-13.5034290143
 10
-1.0817699501
 20
-13.5025911206
 10
-1.0867770403
 20
-13.5019503485
 10
-1.0917738224
 20
-13.5015097616
 10
-1.096744205
 20
-13.5012712325
 10
-1.1016738426
 20
-13.5012349627
 10
-1.1065553741
 20
-13.5013944702
 10
-1.1113831848
 20
-13.5017416026
 10
-1.1161539892
 20
-13.502268945
 10
-1.1208738205
 20
-13.5029720347
 10
-1.1255510416
 20
-13.5038471468
 10
-1.1290346331
 20
-13.5046140482
 10
-1.1324941367
 20
-13.505473556
 10
-1.1359264624
 20
-13.5064243287
 10
-1.1393354546
 20
-13.5074679026
 10
-1.1438480764
 20
-13.5090045597
 10
-1.148306079
 20
-13.5106973653
 10
-1.1526864081
 20
-13.5125334771
 10
-1.1559131646
 20
-13.5140006424
 10
-1.159111644
 20
-13.5155583489
 10
-1.162310229
 20
-13.5172237519
 10
-1.1655373017
 20
-13.5190140067
  0
LWPOLYLINE
  5
32E
100
AcDbEntity
  8
CURVE
100
AcDbPolyline
 62
253
  6
CONTINUOUS
 90
88
 70
0
 10
1.5302508923
 20
-12.2741317848
 10
1.5334401084
 20
-12.2722181
 10
1.5364987662
 20
-12.2702569049
 10
1.5394578147
 20
-12.268233191
 10
1.5423482032
 20
-12.2661319498
 10
1.5461331481
 20
-12.2631923212
 10
1.549830846
 20
-12.2601039985
 10
1.5534210913
 20
-12.2568827959
 10
1.5568874246
 20
-12.253542455
 10
1.5602283716
 20
-12.2500884264
 10
1.5634462042
 20
-12.2465240883
 10
1.5665433309
 20
-12.2428506939
 10
1.5695227066
 20
-12.2390609965
 10
1.5723874227
 20
-12.2351456246
 10
1.5751382864
 20
-12.2310985325
 10
1.5777669676
 20
-12.2269269776
 10
1.580262852
 20
-12.2226415431
 10
1.5826153252
 20
-12.2182528123
 10
1.5848137728
 20
-12.2137713685
 10
1.5868475804
 20
-12.2092077949
 10
1.5887074474
 20
-12.2045715317
 10
1.5903893273
 20
-12.1998674473
 10
1.5918904873
 20
-12.1950992668
 10
1.5932081946
 20
-12.1902707155
 10
1.5943397165
 20
-12.1853855187
 10
1.59528232
 20
-12.1804474016
 10
1.5960338374
 20
-12.1754609788
 10
1.5965943608
 20
-12.1704344227
 10
1.5969645472
 20
-12.1653767948
 10
1.5971450537
 20
-12.1602971567
 10
1.5971365375
 20
-12.15520457
 10
1.5969396554
 20
-12.1501080963
 10
1.5965550192
 20
-12.1450163944
 10
1.5959830578
 20
-12.1399365107
 10
1.5952241548
 20
-12.1348750891
 10
1.5942786938
 20
-12.129838773
 10
1.5931470583
 20
-12.1248342062
 10
1.5918296318
 20
-12.1198680324
 10
1.5903268629
 20
-12.1149473323
 10
1.5886394599
 20
-12.110080935
 10
1.5867681961
 20
-12.1052781071
 10
1.5847138449
 20
-12.1005481147
 10
1.5824771795
 20
-12.0959002243
 10
1.5800589732
 20
-12.0913437021
 10
1.5774606781
 20
-12.0868870772
 10
1.5746864607
 20
-12.0825359293
 10
1.5717411664
 20
-12.0782951006
 10
1.5686296403
 20
-12.0741694336
 10
1.5653567277
 20
-12.0701637705
 10
1.561927274
 20
-12.0662829538
 10
1.5583462299
 20
-12.0625320216
 10
1.5546189684
 20
-12.058916796
 10
1.5507509679
 20
-12.0554432949
 10
1.546747707
 20
-12.0521175362
 10
1.5426146642
 20
-12.0489455378
 10
1.5383573178
 20
-12.0459333175
 10
1.533982266
 20
-12.0430866338
 10
1.5295005844
 20
-12.040410207
 10
1.5249244682
 20
-12.0379084976
 10
1.5202661128
 20
-12.0355859666
 10
1.5155377133
 20
-12.0334470745
 10
1.5107514651
 20
-12.0314962821
 10
1.5059148606
 20
-12.0297365018
 10
1.5010165819
 20
-12.0281644521
 10
1.4960406086
 20
-12.0267753032
 10
1.4909780244
 20
-12.0255666553
 10
1.4858483315
 20
-12.0245458282
 10
1.4806781363
 20
-12.0237225719
 10
1.4754933036
 20
-12.0231048358
 10
1.4703167311
 20
-12.0226933676
 10
1.4651705751
 20
-12.0224871148
 10
1.4600745426
 20
-12.0224836104
 10
1.4550385452
 20
-12.0226747303
 10
1.4500700452
 20
-12.0230509362
 10
1.4451731901
 20
-12.0236037769
 10
1.4403388658
 20
-12.0243291508
 10
1.4355546432
 20
-12.0252240433
 10
1.4319938574
 20
-12.0260045178
 10
1.4284608911
 20
-12.02687661
 10
1.4249601859
 20
-12.027839136
 10
1.4214874348
 20
-12.0288943397
 10
1.4168964537
 20
-12.0304472471
 10
1.4123707951
 20
-12.032156443
 10
1.4079376306
 20
-12.0340079424
 10
1.4046824502
 20
-12.0354859349
 10
1.4014619337
 20
-12.0370565696
 10
1.3982434329
 20
-12.0387403097
 10
1.3949942997
 20
-12.0405576181
  0
LINE
  5
32F
100
AcDbEntity
  8
CURVE
100
AcDbLine
 62
253
  6
CONTINUOUS
 10
1.3949942997
 20
-12.0405576181
 11
0.9881356989
 21
-12.2755781736
  0
LINE
  5
330
100
AcDbEntity
  8
CURVE
100
AcDbLine
 62
253
  6
CONTINUOUS
 10
1.1230026399
 20
-12.5092934514
 11
1.5302508923
 21
-12.2741317848
  0
LINE
  5
331
100
AcDbEntity
  8
CURVE
100
AcDbLine
 62
253
  6
CONTINUOUS
 10
-1.4378817392
 20
-13.987573451
 11
-1.0306703607
 21
-13.7525881733
  0
LINE
  5
332
100
AcDbEntity
  8
CURVE
100
AcDbLine
 62
253
  6
CONTINUOUS
 10
-1.1655373017
 20
-13.5190140067
 11
-1.5727824403
 21
-13.7539992844
  0
LWPOLYLINE
  5
333
100
AcDbEntity
  8
CURVE
100
AcDbPolyline
 62
253
  6
CONTINUOUS
 90
69
 70
0
 10
1.7378853771
 20
11.1141560031
 10
1.7421059556
 20
11.114225616
 10
1.7462704128
 20
11.1144326533
 10
1.7503903419
 20
11.1147744128
 10
1.7544773362
 20
11.1152481922
 10
1.7585429891
 20
11.1158512893
 10
1.762598894
 20
11.1165810021
 10
1.7674656395
 20
11.1176215356
 10
1.7723322974
 20
11.1188451369
 10
1.7771961231
 20
11.1202564386
 10
1.7820543717
 20
11.1218600731
 10
1.7869042986
 20
11.1236606729
 10
1.7917405506
 20
11.12566147
 10
1.7965473408
 20
11.1278600936
 10
1.8013062741
 20
11.1302527722
 10
1.805998955
 20
11.1328357345
 10
1.8106069884
 20
11.1356052089
 10
1.8143698584
 20
11.1380530308
 10
1.8180551747
 20
11.14062661
 10
1.8216569408
 20
11.1433248007
 10
1.8251691605
 20
11.146146457
 10
1.8285858376
 20
11.1490904328
 10
1.8319009756
 20
11.1521555823
 10
1.8351090461
 20
11.1553401542
 10
1.8382063913
 20
11.1586399754
 10
1.841189821
 20
11.1620502676
 10
1.8440561451
 20
11.1655662524
 10
1.8468021736
 20
11.1691831515
 10
1.8494247163
 20
11.1728961863
 10
1.851920781
 20
11.1767007875
 10
1.8542881662
 20
11.1805932204
 10
1.8565248684
 20
11.1845699595
 10
1.858628884
 20
11.188627479
 10
1.8605982093
 20
11.1927622534
 10
1.8624308409
 20
11.196970757
 10
1.8641245531
 20
11.201248872
 10
1.8656762326
 20
11.2055901125
 10
1.867082544
 20
11.2099874002
 10
1.868340152
 20
11.2144336571
 10
1.8694457213
 20
11.2189218051
 10
1.8703959165
 20
11.2234447661
 10
1.871187851
 20
11.2279954597
 10
1.8718204326
 20
11.2325667968
 10
1.8722930178
 20
11.237151686
 10
1.8726049633
 20
11.2417430359
 10
1.8727556254
 20
11.2463337551
 10
1.8727443608
 20
11.2509167522
 10
1.8725712234
 20
11.2554853766
 10
1.8722390578
 20
11.2600347405
 10
1.871751406
 20
11.2645603968
 10
1.87111181
 20
11.2690578983
 10
1.8703238118
 20
11.273522798
 10
1.8693909534
 20
11.2779506488
 10
1.8680861643
 20
11.2832073145
 10
1.8665892133
 20
11.2883870065
 10
1.8649114366
 20
11.2934725056
 10
1.8630641705
 20
11.2984465923
 10
1.8610587513
 20
11.3032920473
 10
1.85890553
 20
11.3079949668
 10
1.8566109175
 20
11.3125547087
 10
1.8541803394
 20
11.3169739467
 10
1.8516192214
 20
11.3212553543
 10
1.8489329893
 20
11.3254016051
 10
1.846600637
 20
11.3287563302
 10
1.8441753082
 20
11.3320255919
 10
1.8416471437
 20
11.3352159289
 10
1.839006284
 20
11.3383338802
 10
1.8362428696
 20
11.3413859846
 10
1.8333470414
 20
11.3443787808
  0
LWPOLYLINE
  5
334
100
AcDbEntity
  8
CURVE
100
AcDbPolyline
 62
253
  6
CONTINUOUS
 90
54
 70
0
 10
0.0160488836
 20
10.4009804477
 10
0.0197643026
 20
10.401033985
 10
0.0234320145
 20
10.401193268
 10
0.0270594872
 20
10.4014563036
 10
0.0306541887
 20
10.4018210984
 10
0.0342235868
 20
10.4022856593
 10
0.0377751493
 20
10.402847993
 10
0.0413163442
 20
10.4035061064
 10
0.0454423614
 20
10.4043932767
 10
0.0495628724
 20
10.4054107904
 10
0.0536763177
 20
10.406561337
 10
0.0577811381
 20
10.407847606
 10
0.0618757741
 20
10.4092722873
 10
0.0659586663
 20
10.4108380702
 10
0.0700266554
 20
10.4125467632
 10
0.0740701819
 20
10.4143966498
 10
0.0780780864
 20
10.4163851322
 10
0.0820392093
 20
10.4185096127
 10
0.0859423912
 20
10.4207674936
 10
0.0897764727
 20
10.423156177
 10
0.092999995
 20
10.4253059187
 10
0.0961612685
 20
10.4275491738
 10
0.0992570109
 20
10.4298852647
 10
0.1022839398
 20
10.4323135134
 10
0.1052387729
 20
10.4348332421
 10
0.1081182279
 20
10.4374437731
 10
0.1109190224
 20
10.4401444284
 10
0.1136380894
 20
10.4429339941
 10
0.116273223
 20
10.4458091112
 10
0.1188224328
 20
10.4487658849
 10
0.121283728
 20
10.4518004199
 10
0.1236551183
 20
10.4549088213
 10
0.125934613
 20
10.458087194
 10
0.1281202216
 20
10.4613316429
 10
0.1302099964
 20
10.4646376442
 10
0.1322021617
 20
10.4679981589
 10
0.1340949845
 20
10.4714055193
 10
0.1358867318
 20
10.4748520576
 10
0.1375756708
 20
10.478330106
 10
0.1391600684
 20
10.4818319969
 10
0.1406381919
 20
10.4853500623
 10
0.1422269979
 20
10.4894665335
 10
0.1436717979
 20
10.4935934959
 10
0.1449755957
 20
10.4977298623
 10
0.1461413948
 20
10.501874545
 10
0.1471721991
 20
10.5060264566
 10
0.1480710121
 20
10.5101845097
 10
0.1487379815
 20
10.5137539895
 10
0.1493080891
 20
10.517334721
 10
0.1497792396
 20
10.5209342428
 10
0.1501493376
 20
10.5245600933
 10
0.1504162876
 20
10.5282198112
 10
0.1505779942
 20
10.531920935
 10
0.1506323621
 20
10.5356710033
  0
LWPOLYLINE
  5
335
100
AcDbEntity
  8
CURVE
100
AcDbPolyline
 62
253
  6
CONTINUOUS
 90
37
 70
0
 10
-1.706037035
 20
11.1141560031
 10
-1.7031286238
 20
11.1141913321
 10
-1.7002394763
 20
11.1142964282
 10
-1.6973656774
 20
11.1144699547
 10
-1.6945033116
 20
11.1147105755
 10
-1.6916484637
 20
11.1150169539
 10
-1.6887972184
 20
11.1153877535
 10
-1.685946432
 20
11.1158218565
 10
-1.6830960478
 20
11.1163190193
 10
-1.6802467804
 20
11.1168792169
 10
-1.6773993448
 20
11.1175024242
 10
-1.6745544557
 20
11.1181886163
 10
-1.671712828
 20
11.1189377682
 10
-1.6688755715
 20
11.1197497169
 10
-1.6660453757
 20
11.1206237481
 10
-1.6632253253
 20
11.1215590096
 10
-1.6604185048
 20
11.122554649
 10
-1.6576279988
 20
11.1236098141
 10
-1.6548568919
 20
11.1247236526
 10
-1.652108225
 20
11.1258952182
 10
-1.6493848646
 20
11.1271231875
 10
-1.6466896333
 20
11.1284061432
 10
-1.6440253541
 20
11.1297426678
 10
-1.6413948495
 20
11.1311313439
 10
-1.6388009425
 20
11.1325707541
 10
-1.6362460999
 20
11.134059654
 10
-1.6337313658
 20
11.1355974913
 10
-1.6312574283
 20
11.1371838868
 10
-1.6288249756
 20
11.1388184614
 10
-1.6264346958
 20
11.1405008356
 10
-1.6240872772
 20
11.1422306305
 10
-1.62178302
 20
11.1440081781
 10
-1.6195206726
 20
11.1458366566
 10
-1.6172985956
 20
11.1477199554
 10
-1.6151151497
 20
11.1496619643
 10
-1.6129686953
 20
11.1516665725
 10
-1.610857593
 20
11.1537376698
  0
LWPOLYLINE
  5
336
100
AcDbEntity
  8
CURVE
100
AcDbPolyline
 62
253
  6
CONTINUOUS
 90
85
 70
0
 10
-1.4647723189
 20
12.8360996138
 10
-1.4598911807
 20
12.8361923279
 10
-1.4551036433
 20
12.8364671016
 10
-1.4503927236
 20
12.8369188824
 10
-1.4457414384
 20
12.8375426179
 10
-1.4411328045
 20
12.8383332554
 10
-1.4365498387
 20
12.8392857424
 10
-1.4319789805
 20
12.8403963241
 10
-1.4274203596
 20
12.8416664365
 10
-1.4228775283
 20
12.8430988133
 10
-1.418354039
 20
12.8446961881
 10
-1.4138534441
 20
12.8464612948
 10
-1.4093792958
 20
12.8483968669
 10
-1.4049367861
 20
12.8505047149
 10
-1.4005376643
 20
12.8527829562
 10
-1.3961953193
 20
12.8552287849
 10
-1.39192314
 20
12.8578393951
 10
-1.3877345155
 20
12.8606119809
 10
-1.3836428344
 20
12.8635437363
 10
-1.3796602109
 20
12.8666320238
 10
-1.3757936588
 20
12.8698748788
 10
-1.3720489171
 20
12.8732705049
 10
-1.3684317249
 20
12.8768171058
 10
-1.364947821
 20
12.8805128851
 10
-1.3616029446
 20
12.8843560466
 10
-1.3584026228
 20
12.8883436606
 10
-1.3553515359
 20
12.8924682642
 10
-1.3524541522
 20
12.8967212615
 10
-1.3497149403
 20
12.9010940563
 10
-1.3471383685
 20
12.9055780526
 10
-1.3447289054
 20
12.9101646541
 10
-1.34249084
 20
12.9148459949
 10
-1.3404277439
 20
12.9196171288
 10
-1.3385430093
 20
12.9244738398
 10
-1.3368400286
 20
12.9294119119
 10
-1.3353221939
 20
12.9344271289
 10
-1.3339928975
 20
12.9395152748
 10
-1.3328557937
 20
12.9446709353
 10
-1.3319155852
 20
12.9498839028
 10
-1.3311772367
 20
12.9551427716
 10
-1.3306457128
 20
12.9604361358
 10
-1.3303259783
 20
12.9657525897
 10
-1.3302229979
 20
12.9710807275
 10
-1.3303401061
 20
12.976409154
 10
-1.3306741167
 20
12.9817265167
 10
-1.3312202132
 20
12.9870214735
 10
-1.3319735791
 20
12.9922826826
 10
-1.332929398
 20
12.9974988021
 10
-1.3340828535
 20
13.0026584899
 10
-1.3354293387
 20
13.007751539
 10
-1.3369650849
 20
13.0127722812
 10
-1.3386865332
 20
13.0177161832
 10
-1.3405901245
 20
13.0225787118
 10
-1.3426722997
 20
13.0273553334
 10
-1.3449294998
 20
13.0320415149
 10
-1.3473582832
 20
13.036632229
 10
-1.3499556776
 20
13.0411204726
 10
-1.3527188284
 20
13.0454987487
 10
-1.3556448807
 20
13.0497595603
 10
-1.3587309799
 20
13.0538954105
 10
-1.3619742711
 20
13.0578988022
 10
-1.3653711295
 20
13.0617628063
 10
-1.3689148494
 20
13.0654827644
 10
-1.3725979551
 20
13.0690545861
 10
-1.3764129709
 20
13.0724741809
 10
-1.380352421
 20
13.0757374582
 10
-1.3844088297
 20
13.0788403277
 10
-1.3885731674
 20
13.0817789077
 10
-1.3928301886
 20
13.0845501515
 10
-1.3971630942
 20
13.0871512215
 10
-1.4015550849
 20
13.08957928
 10
-1.4059893614
 20
13.0918314893
 10
-1.4104491244
 20
13.0939050116
 10
-1.4149200225
 20
13.0957982965
 10
-1.4193974954
 20
13.0975149422
 10
-1.4238794308
 20
13.0990598342
 10
-1.428363716
 20
13.1004378581
 10
-1.4328482387
 20
13.1016538993
 10
-1.4373308864
 20
13.1027128434
 10
-1.4418128023
 20
13.1036181249
 10
-1.4463081521
 20
13.1043673751
 10
-1.4508343573
 20
13.1049567743
 10
-1.4554088393
 20
13.1053825029
 10
-1.4600490193
 20
13.1056407411
 10
-1.4647723189
 20
13.1057276693
  0
LWPOLYLINE
  5
337
100
AcDbEntity
  8
CURVE
100
AcDbPolyline
 62
253
  6
CONTINUOUS
 90
85
 70
0
 10
-2.4195653501
 20
13.1057276693
 10
-2.424448159
 20
13.1056348494
 10
-2.429237275
 20
13.1053597686
 10
-2.4339496798
 20
13.1049074957
 10
-2.4386023547
 20
13.1042830993
 10
-2.4432122812
 20
13.103491648
 10
-2.4477964408
 20
13.1025382104
 10
-2.4523683932
 20
13.1014265561
 10
-2.4569280103
 20
13.1001552575
 10
-2.4614717427
 20
13.0987215882
 10
-2.4659960405
 20
13.0971228216
 10
-2.470497354
 20
13.0953562309
 10
-2.4749721336
 20
13.0934190897
 10
-2.4794151891
 20
13.0913095954
 10
-2.4838147689
 20
13.0890296411
 10
-2.4881574809
 20
13.0865820443
 10
-2.4924299331
 20
13.0839696222
 10
-2.4966187333
 20
13.0811951922
 10
-2.5007104895
 20
13.0782615714
 10
-2.5046930852
 20
13.0751714113
 10
-2.5085595066
 20
13.0719267003
 10
-2.5123040154
 20
13.0685292607
 10
-2.5159208733
 20
13.0649809148
 10
-2.5194043421
 20
13.0612834852
 10
-2.5227486834
 20
13.0574387942
 10
-2.5259483733
 20
13.0534497917
 10
-2.5289987455
 20
13.0493239381
 10
-2.5318953479
 20
13.045069821
 10
-2.5346337286
 20
13.0406960284
 10
-2.5372094354
 20
13.0362111478
 10
-2.5396180165
 20
13.0316237673
 10
-2.5418551971
 20
13.0269417469
 10
-2.5439174129
 20
13.0221700361
 10
-2.5458012767
 20
13.0173128571
 10
-2.5475034016
 20
13.0123744316
 10
-2.5490204004
 20
13.0073589818
 10
-2.5503488861
 20
13.0022707296
 10
-2.5514852092
 20
12.9971150926
 10
-2.5524246702
 20
12.9919022711
 10
-2.5531623071
 20
12.9866436612
 10
-2.5536931579
 20
12.9813506589
 10
-2.5540122607
 20
12.9760346602
 10
-2.5541146535
 20
12.9707070611
 10
-2.5539970029
 20
12.9653792474
 10
-2.5536624905
 20
12.9600625639
 10
-2.5531159263
 20
12.9547683453
 10
-2.5523621205
 20
12.9495079263
 10
-2.5514058832
 20
12.9442926413
 10
-2.5502520246
 20
12.9391338252
 10
-2.5489051467
 20
12.934041679
 10
-2.5473690196
 20
12.9290218707
 10
-2.5456472054
 20
12.9240789345
 10
-2.543743266
 20
12.9192174049
 10
-2.5416607635
 20
12.9144418162
 10
-2.53940326
 20
12.9097567029
 10
-2.5369741995
 20
12.9051670927
 10
-2.5343765548
 20
12.9006799873
 10
-2.5316131804
 20
12.8963028819
 10
-2.5286869311
 20
12.8920432714
 10
-2.5256006616
 20
12.887908651
 10
-2.5223572267
 20
12.8839065159
 10
-2.5189602515
 20
12.8800437925
 10
-2.5154164431
 20
12.876325133
 10
-2.5117332791
 20
12.8727546211
 10
-2.5079182372
 20
12.8693363404
 10
-2.5039787949
 20
12.8660743747
 10
-2.4999224298
 20
12.8629728074
 10
-2.4957581729
 20
12.8600355133
 10
-2.4915012686
 20
12.8572655307
 10
-2.4871685147
 20
12.8546656891
 10
-2.4827767089
 20
12.8522388178
 10
-2.4783426491
 20
12.8499877463
 10
-2.473883133
 20
12.8479153039
 10
-2.469412511
 20
12.8460230338
 10
-2.4649353438
 20
12.8443073343
 10
-2.4604537448
 20
12.8427633177
 10
-2.4559698273
 20
12.841386096
 10
-2.4514857047
 20
12.8401707814
 10
-2.4470034903
 20
12.839112486
 10
-2.4425220415
 20
12.838207772
 10
-2.4380271922
 20
12.837459002
 10
-2.4335015205
 20
12.8368699886
 10
-2.4289276042
 20
12.8364445444
 10
-2.4242880214
 20
12.8361864819
 10
-2.4195653501
 20
12.8360996138
  0
LWPOLYLINE
  5
338
100
AcDbEntity
  8
CURVE
100
AcDbPolyline
 62
253
  6
CONTINUOUS
 90
85
 70
0
 10
2.4513784145
 20
12.8360996138
 10
2.4562576775
 20
12.8361921379
 10
2.4610434773
 20
12.8364663619
 10
2.4657528087
 20
12.8369172641
 10
2.4704026665
 20
12.8375398223
 10
2.4750100454
 20
12.8383290147
 10
2.4795919403
 20
12.8392798193
 10
2.4841619209
 20
12.84038851
 10
2.4887198566
 20
12.8416565442
 10
2.4932621917
 20
12.8430866752
 10
2.4977853706
 20
12.8446816565
 10
2.5022858376
 20
12.8464442412
 10
2.5067600371
 20
12.8483771828
 10
2.5112027733
 20
12.8504823116
 10
2.5156022902
 20
12.8527577665
 10
2.5199451916
 20
12.8552007636
 10
2.5242180814
 20
12.8578085187
 10
2.5284075635
 20
12.8605782479
 10
2.5325002418
 20
12.8635071671
 10
2.5364839946
 20
12.8665926634
 10
2.5403517983
 20
12.8698328081
 10
2.5440979037
 20
12.8732258436
 10
2.5477165618
 20
12.8767700122
 10
2.5512020234
 20
12.8804635562
 10
2.5545485394
 20
12.8843047181
 10
2.557750572
 20
12.8882905981
 10
2.5608034286
 20
12.8924137283
 10
2.5637026282
 20
12.8966654987
 10
2.5664436895
 20
12.9010372991
 10
2.5690221314
 20
12.9055205196
 10
2.5714334728
 20
12.9101065502
 10
2.573673415
 20
12.9147875112
 10
2.5757383892
 20
12.9195584449
 10
2.5776250092
 20
12.9244151238
 10
2.5793298889
 20
12.9293533207
 10
2.5808496419
 20
12.9343688082
 10
2.582180882
 20
12.9394573588
 10
2.5833199598
 20
12.9446135493
 10
2.5842621732
 20
12.9498271717
 10
2.5850025569
 20
12.9550868223
 10
2.5855361455
 20
12.9603810972
 10
2.5858579737
 20
12.9656985926
 10
2.5859630762
 20
12.9710279047
 10
2.5858481125
 20
12.9763576415
 10
2.5855162413
 20
12.9816764594
 10
2.5849722461
 20
12.9869730265
 10
2.5842209104
 20
12.9922360111
 10
2.5832670177
 20
12.9974540813
 10
2.5821153515
 20
13.0026159053
 10
2.5807704905
 20
13.0077112778
 10
2.5792361938
 20
13.0127344999
 10
2.5775160154
 20
13.0176809987
 10
2.5756135096
 20
13.0225462017
 10
2.5735322305
 20
13.0273255363
 10
2.5712757324
 20
13.0320144299
 10
2.5688474491
 20
13.0366078207
 10
2.5662503341
 20
13.0410986904
 10
2.5634872202
 20
13.0454795315
 10
2.5605609406
 20
13.0497428365
 10
2.5574743283
 20
13.0538810979
 10
2.5542302164
 20
13.0578868083
 10
2.5508322151
 20
13.061753026
 10
2.5472870428
 20
13.0654750729
 10
2.5436021954
 20
13.0690488366
 10
2.5397851684
 20
13.0724702049
 10
2.5358434576
 20
13.0757350654
 10
2.5317845586
 20
13.0788393059
 10
2.5276175277
 20
13.0817790283
 10
2.5233576628
 20
13.0845511922
 10
2.5190218224
 20
13.0871529714
 10
2.5146268652
 20
13.0895815399
 10
2.5101896495
 20
13.0918340715
 10
2.505727034
 20
13.09390774
 10
2.5012534188
 20
13.0958010099
 10
2.496773371
 20
13.0975175077
 10
2.4922889993
 20
13.0990621505
 10
2.4878024127
 20
13.1004398553
 10
2.4833157197
 20
13.1016555394
 10
2.4788310293
 20
13.1027141196
 10
2.4743471881
 20
13.103619059
 10
2.4698499942
 20
13.1043680036
 10
2.4653219838
 20
13.1049571451
 10
2.460745693
 20
13.1053826753
 10
2.4561036579
 20
13.1056407861
 10
2.4513784145
 20
13.1057276693
  0
LWPOLYLINE
  5
339
100
AcDbEntity
  8
CURVE
100
AcDbPolyline
 62
253
  6
CONTINUOUS
 90
85
 70
0
 10
1.4969381611
 20
13.1057276693
 10
1.4920585566
 20
13.1056357096
 10
1.4872720322
 20
13.1053631144
 10
1.4825615777
 20
13.1049148097
 10
1.477910183
 20
13.1042957216
 10
1.473300838
 20
13.1035107759
 10
1.4687165327
 20
13.1025648988
 10
1.464143682
 20
13.1014617244
 10
1.4595824019
 20
13.100199719
 10
1.4550362333
 20
13.0987760574
 10
1.4505087174
 20
13.097187914
 10
1.4460033951
 20
13.0954324635
 10
1.4415238076
 20
13.0935068804
 10
1.4370751461
 20
13.0914092635
 10
1.4326692036
 20
13.0891414077
 10
1.4283194232
 20
13.0867060324
 10
1.4240392482
 20
13.0841058567
 10
1.4198421218
 20
13.0813435998
 10
1.4157414871
 20
13.0784219808
 10
1.4117495127
 20
13.0753435521
 10
1.4078732678
 20
13.0721101975
 10
1.4041185467
 20
13.0687236341
 10
1.4004911441
 20
13.0651855788
 10
1.3969968542
 20
13.0614977488
 10
1.3936414716
 20
13.0576618609
 10
1.3904305718
 20
13.0536807823
 10
1.3873688541
 20
13.0495619808
 10
1.3844607989
 20
13.0453140742
 10
1.3817108867
 20
13.0409456803
 10
1.3791235977
 20
13.0364654171
 10
1.3767034126
 20
13.0318819024
 10
1.3744546301
 20
13.027203025
 10
1.3723808234
 20
13.0224337572
 10
1.3704853844
 20
13.0175783421
 10
1.3687717048
 20
13.0126410228
 10
1.3672431763
 20
13.0076260426
 10
1.3659031907
 20
13.0025376445
 10
1.364755411
 20
12.9973812626
 10
1.3638045858
 20
12.9921670937
 10
1.3630557351
 20
12.9869065257
 10
1.3625138786
 20
12.9816109463
 10
1.3621840363
 20
12.9762917433
 10
1.3620712281
 20
12.9709603044
 10
1.3621788526
 20
12.9656280004
 10
1.3625038229
 20
12.9603061347
 10
1.3630414313
 20
12.9550059934
 10
1.3637869696
 20
12.949738863
 10
1.3647357298
 20
12.9445160297
 10
1.365883004
 20
12.9393487798
 10
1.3672242735
 20
12.9342473002
 10
1.3687557774
 20
12.9292173799
 10
1.3704739442
 20
12.9242637085
 10
1.3723752021
 20
12.9193909757
 10
1.3744559797
 20
12.9146038711
 10
1.3767127054
 20
12.9099070841
 10
1.3791419486
 20
12.9053057754
 10
1.3817408425
 20
12.9008069889
 10
1.3845066614
 20
12.8964182394
 10
1.3874366794
 20
12.892147042
 10
1.3905281708
 20
12.8880009113
 10
1.3937784097
 20
12.8839873623
 10
1.3971838625
 20
12.880113367
 10
1.4007377635
 20
12.876383726
 10
1.4044325394
 20
12.8728026972
 10
1.4082606165
 20
12.8693745382
 10
1.4122144215
 20
12.866103507
 10
1.4162863808
 20
12.8629938611
 10
1.4204673358
 20
12.8600496119
 10
1.4247417875
 20
12.8572737843
 10
1.4290926517
 20
12.8546691566
 10
1.4335028441
 20
12.8522385072
 10
1.4379552805
 20
12.8499846143
 10
1.4424328768
 20
12.8479102565
 10
1.44692105
 20
12.8460169097
 10
1.4514152218
 20
12.8443008413
 10
1.4559133152
 20
12.8427570161
 10
1.460413253
 20
12.8413803993
 10
1.4649129583
 20
12.8401659559
 10
1.4694103539
 20
12.8391086508
 10
1.4739066419
 20
12.8382049159
 10
1.4784161397
 20
12.8374570507
 10
1.4829564439
 20
12.8368688216
 10
1.4875451512
 20
12.8364439949
 10
1.492199858
 20
12.8361863368
 10
1.4969381611
 20
12.8360996138
  0
LINE
  5
33A
100
AcDbEntity
  8
CURVE
100
AcDbLine
 62
253
  6
CONTINUOUS
 10
-2.4195653501
 20
12.8360996138
 11
-1.4647723189
 21
12.8360996138
  0
LINE
  5
33B
100
AcDbEntity
  8
CURVE
100
AcDbLine
 62
253
  6
CONTINUOUS
 10
1.4969381611
 20
12.8360996138
 11
2.4513784145
 21
12.8360996138
  0
LINE
  5
33C
100
AcDbEntity
  8
CURVE
100
AcDbLine
 62
253
  6
CONTINUOUS
 10
2.4513784145
 20
13.1057276693
 11
1.4969381611
 21
13.1057276693
  0
LINE
  5
33D
100
AcDbEntity
  8
CURVE
100
AcDbLine
 62
253
  6
CONTINUOUS
 10
-1.4647723189
 20
13.1057276693
 11
-2.4195653501
 21
13.1057276693
  0
LWPOLYLINE
  5
33E
100
AcDbEntity
  8
CURVE
100
AcDbPolyline
 62
253
  6
CONTINUOUS
 90
81
 70
0
 10
0.015912916
 20
12.2464315716
 10
-0.0126448678
 20
12.2469832196
 10
-0.0407927789
 20
12.2486178653
 10
-0.0686149909
 20
12.2513214185
 10
-0.0961956771
 20
12.2550797889
 10
-0.1236017952
 20
12.2598831478
 10
-0.1508314392
 20
12.2657387121
 10
-0.1778654872
 20
12.2726579602
 10
-0.2046848175
 20
12.2806523705
 10
-0.2312629507
 20
12.289727883
 10
-0.2575439777
 20
12.2998682842
 10
-0.2834646318
 20
12.311051822
 10
-0.3089616463
 20
12.3232567444
 10
-0.3339776891
 20
12.3364617576
 10
-0.358479166
 20
12.3506474001
 10
-0.3824384172
 20
12.3657946684
 10
-0.4058277831
 20
12.3818845591
 10
-0.4286162744
 20
12.3988970184
 10
-0.450759583
 20
12.4168077908
 10
-0.4722100713
 20
12.4355915704
 10
-0.4929201018
 20
12.4552230513
 10
-0.5128448675
 20
12.475673485
 10
-0.5319508839
 20
12.496900353
 10
-0.5502074973
 20
12.5188576943
 10
-0.5675840539
 20
12.5414995478
 10
-0.5840517001
 20
12.5647826894
 10
-0.5995887838
 20
12.5886748438
 10
-0.6141754528
 20
12.6131464726
 10
-0.6277918551
 20
12.6381680375
 10
-0.6404176123
 20
12.6637108002
 10
-0.6520302401
 20
12.6897492235
 10
-0.662606728
 20
12.7162585703
 10
-0.6721240653
 20
12.7432141034
 10
-0.6805616929
 20
12.7705863263
 10
-0.6879088571
 20
12.798326705
 10
-0.6941572559
 20
12.8263819464
 10
-0.6992985872
 20
12.8546987571
 10
-0.7033245488
 20
12.8832238437
 10
-0.7062268387
 20
12.9119039132
 10
-0.7079971546
 20
12.940685672
 10
-0.7086271946
 20
12.969515827
 10
-0.7081114587
 20
12.998341571
 10
-0.7064556562
 20
13.0271120408
 10
-0.7036682985
 20
13.0557768594
 10
-0.699757897
 20
13.0842856499
 10
-0.6947329633
 20
13.1125880353
 10
-0.6886020088
 20
13.1406336384
 10
-0.681373545
 20
13.1683720824
 10
-0.6730560833
 20
13.1957529902
 10
-0.6636603108
 20
13.2227300328
 10
-0.6532056169
 20
13.2492730738
 10
-0.6417135667
 20
13.2753560244
 10
-0.6292057252
 20
13.3009527961
 10
-0.6157026892
 20
13.3260373705
 10
-0.6012211824
 20
13.3505840088
 10
-0.5857769601
 20
13.3745670423
 10
-0.5693857776
 20
13.3979608024
 10
-0.5520661075
 20
13.4207352446
 10
-0.5338472908
 20
13.4428428216
 10
-0.5147613857
 20
13.4642316101
 10
-0.4948404503
 20
13.4848496869
 10
-0.4741197878
 20
13.5046491073
 10
-0.4526476815
 20
13.5235978396
 10
-0.4304756594
 20
13.5416678308
 10
-0.40765525
 20
13.5588310277
 10
-0.384233482
 20
13.5750612748
 10
-0.3602393873
 20
13.5903400067
 10
-0.3356974984
 20
13.6046505559
 10
-0.3106323478
 20
13.6179762548
 10
-0.2850745784
 20
13.6302993928
 10
-0.2590792744
 20
13.6415980874
 10
-0.2327076305
 20
13.651849413
 10
-0.2060208412
 20
13.6610304443
 10
-0.1790733756
 20
13.669123703
 10
-0.1518927995
 20
13.6761335002
 10
-0.1244999533
 20
13.6820695942
 10
-0.0969156773
 20
13.6869417436
 10
-0.069143156
 20
13.6907554436
 10
-0.0411149513
 20
13.6934991372
 10
-0.0127459694
 20
13.6951570043
 10
0.0160488836
 20
13.6957132247
  0
LWPOLYLINE
  5
33F
100
AcDbEntity
  8
CURVE
100
AcDbPolyline
 62
253
  6
CONTINUOUS
 90
70
 70
0
 10
-1.0312789967
 20
13.883461558
 10
-1.0270745665
 20
13.8835302199
 10
-1.0229255526
 20
13.8837345034
 10
-1.0188203056
 20
13.884071855
 10
-1.0147471761
 20
13.8845397215
 10
-1.0106945147
 20
13.8851355494
 10
-1.006650672
 20
13.8858567854
 10
-1.0017971261
 20
13.8868857242
 10
-0.9969423344
 20
13.8880962329
 10
-0.9920891274
 20
13.889492971
 10
-0.9872403356
 20
13.8910805974
 10
-0.9823987893
 20
13.8928637715
 10
-0.977569883
 20
13.8948458499
 10
-0.9727692667
 20
13.8970249788
 10
-0.9680151544
 20
13.8993980019
 10
-0.9633257603
 20
13.901961763
 10
-0.9587192984
 20
13.9047131058
 10
-0.9549563964
 20
13.9071468936
 10
-0.9512702247
 20
13.9097068541
 10
-0.9476672728
 20
13.9123910867
 10
-0.9441540304
 20
13.9151976908
 10
-0.9407369874
 20
13.918124766
 10
-0.9374226334
 20
13.9211704118
 10
-0.9342166321
 20
13.9243328186
 10
-0.9311213428
 20
13.9276105415
 10
-0.9281382992
 20
13.9310022266
 10
-0.9252690344
 20
13.93450652
 10
-0.9225150819
 20
13.9381220678
 10
-0.9198779751
 20
13.941847516
 10
-0.917360745
 20
13.9456783271
 10
-0.9149724129
 20
13.9495972292
 10
-0.9127234979
 20
13.9535837668
 10
-0.9106216639
 20
13.9576230483
 10
-0.9086631546
 20
13.9617224389
 10
-0.9068413587
 20
13.9658948677
 10
-0.9051516287
 20
13.9701495309
 10
-0.9035971728
 20
13.9744806917
 10
-0.9021831625
 20
13.9788788806
 10
-0.9009147699
 20
13.9833346276
 10
-0.8997971666
 20
13.9878384631
 10
-0.8988355245
 20
13.9923809173
 10
-0.8980341446
 20
13.996952419
 10
-0.8973938446
 20
14.0015429912
 10
-0.8969145714
 20
14.0061425555
 10
-0.8965962717
 20
14.0107410336
 10
-0.8964388924
 20
14.015328347
 10
-0.8964423803
 20
14.0198944173
 10
-0.8966063767
 20
14.0244332729
 10
-0.8969292995
 20
14.0289553689
 10
-0.8974092613
 20
14.0334752673
 10
-0.8980438862
 20
14.0380010991
 10
-0.8988288456
 20
14.0425152715
 10
-0.8997593227
 20
14.0469937608
 10
-0.9008302523
 20
14.0514155344
 10
-0.9020355757
 20
14.0557715251
 10
-0.9033689858
 20
14.0600556571
 10
-0.9048241754
 20
14.0642618543
 10
-0.9063948374
 20
14.0683840407
 10
-0.9080746646
 20
14.0724161405
 10
-0.9102265697
 20
14.0771290815
 10
-0.9125210598
 20
14.0817043937
 10
-0.9149526042
 20
14.0861429222
 10
-0.9175156722
 20
14.0904455123
 10
-0.9202047331
 20
14.0946130093
 10
-0.922540052
 20
14.0979844049
 10
-0.9249689073
 20
14.1012694691
 10
-0.9275011809
 20
14.1044750981
 10
-0.9301467549
 20
14.107608188
 10
-0.9329155114
 20
14.1106756352
 10
-0.9358173324
 20
14.1136843357
  0
LWPOLYLINE
  5
340
100
AcDbEntity
  8
CURVE
100
AcDbPolyline
 62
253
  6
CONTINUOUS
 90
54
 70
0
 10
0.0160488836
 20
14.317307669
 10
0.0197640933
 20
14.3173612314
 10
0.0234316221
 20
14.3175205877
 10
0.0270589308
 20
14.3177837421
 10
0.0306534802
 20
14.3181486983
 10
0.0342227312
 20
14.3186134603
 10
0.0377741448
 20
14.3191760322
 10
0.0413151816
 20
14.3198344178
 10
0.0454409965
 20
14.3207219454
 10
0.0495612898
 20
14.321739856
 10
0.0536745086
 20
14.3228908362
 10
0.0577791
 20
14.3241775728
 10
0.0618735112
 20
14.3256027524
 10
0.0659561893
 20
14.3271690616
 10
0.0700239803
 20
14.328878305
 10
0.0740673256
 20
14.3307287583
 10
0.0780750656
 20
14.3327178152
 10
0.0820360405
 20
14.3348428693
 10
0.0859390907
 20
14.3371013142
 10
0.0897730564
 20
14.3394905435
 10
0.0929964927
 20
14.3416407323
 10
0.0961576949
 20
14.3438844102
 10
0.0992533836
 20
14.3462208951
 10
0.1022802796
 20
14.3486495045
 10
0.1052351037
 20
14.3511695561
 10
0.1081145765
 20
14.3537803674
 10
0.1109154188
 20
14.3564812562
 10
0.1136345654
 20
14.3592710049
 10
0.1162698078
 20
14.3621462556
 10
0.1188191518
 20
14.3651031151
 10
0.1212806029
 20
14.3681376904
 10
0.1236521668
 20
14.3712460883
 10
0.1259318492
 20
14.3744244158
 10
0.1281176557
 20
14.3776687796
 10
0.1302076351
 20
14.3809746575
 10
0.1322000082
 20
14.3843350094
 10
0.1340930391
 20
14.3877421662
 10
0.1358849919
 20
14.3911884586
 10
0.1375741305
 20
14.3946662173
 10
0.139158719
 20
14.3981677731
 10
0.1406370213
 20
14.4016854567
 10
0.1422260177
 20
14.4058014235
 10
0.1436709887
 20
14.4099278274
 10
0.1449749391
 20
14.4140635921
 10
0.1461408735
 20
14.4182076416
 10
0.1471717966
 20
14.4223588999
 10
0.1480707132
 20
14.4265162908
 10
0.1487377597
 20
14.4300852017
 10
0.1493079336
 20
14.4336653551
 10
0.1497791392
 20
14.4372642785
 10
0.1501492805
 20
14.4408894997
 10
0.150416262
 20
14.4445485461
 10
0.1505779878
 20
14.4482489451
 10
0.1506323621
 20
14.4519982245
  0
LWPOLYLINE
  5
341
100
AcDbEntity
  8
CURVE
100
AcDbPolyline
 62
253
  6
CONTINUOUS
 90
37
 70
0
 10
1.0631273388
 20
13.883461558
 10
1.0660308849
 20
13.8834961228
 10
1.068915992
 20
13.8835990067
 10
1.071786639
 20
13.883768994
 10
1.0746468047
 20
13.8840048689
 10
1.077500468
 20
13.8843054158
 10
1.0803516078
 20
13.8846694189
 10
1.0832034269
 20
13.8850958824
 10
1.0860560232
 20
13.885584691
 10
1.0889087183
 20
13.8861359492
 10
1.0917608343
 20
13.8867497614
 10
1.0946116926
 20
13.8874262323
 10
1.0974606152
 20
13.8881654664
 10
1.1003064979
 20
13.8889674224
 10
1.1031465329
 20
13.8898314762
 10
1.1059774864
 20
13.8907568577
 10
1.1087961248
 20
13.8917427971
 10
1.1115992142
 20
13.8927885243
 10
1.1143835209
 20
13.8938932695
 10
1.1171458614
 20
13.8950561607
 10
1.1198832522
 20
13.8962759195
 10
1.1225927602
 20
13.8975511653
 10
1.125271452
 20
13.8988805176
 10
1.1279163944
 20
13.900262596
 10
1.1305246542
 20
13.9016960202
 10
1.1330936747
 20
13.9031795928
 10
1.1356224059
 20
13.9047128498
 10
1.1381101744
 20
13.9062955104
 10
1.1405563067
 20
13.9079272939
 10
1.1429601295
 20
13.9096079194
 10
1.1453209693
 20
13.9113371062
 10
1.1476385166
 20
13.9131152703
 10
1.1499139183
 20
13.9149456161
 10
1.1521486849
 20
13.9168320444
 10
1.154344327
 20
13.9187784564
 10
1.1565023554
 20
13.9207887531
 10
1.1586242808
 20
13.9228668357
  0
LWPOLYLINE
  5
342
100
AcDbEntity
  8
CURVE
100
AcDbPolyline
 62
253
  6
CONTINUOUS
 90
81
 70
0
 10
0.0160488836
 20
13.6957132247
 10
0.0445899243
 20
13.6951669179
 10
0.0727213869
 20
13.693537318
 10
0.1005276244
 20
13.6908387744
 10
0.12809299
 20
13.6870856362
 10
0.1554845538
 20
13.6822879378
 10
0.1827002537
 20
13.6764384541
 10
0.2097207443
 20
13.6695256452
 10
0.2365266805
 20
13.6615379713
 10
0.2630914328
 20
13.6524694047
 10
0.2893592351
 20
13.6423359671
 10
0.3152670371
 20
13.6311591928
 10
0.3407517886
 20
13.6189606156
 10
0.3657563701
 20
13.6057613388
 10
0.3902473858
 20
13.5915807429
 10
0.4141973709
 20
13.5764377772
 10
0.4375788603
 20
13.5603513914
 10
0.4603610064
 20
13.5433416046
 10
0.4824994311
 20
13.525432715
 10
0.5039463731
 20
13.5066500906
 10
0.5246540718
 20
13.4870190992
 10
0.5445776485
 20
13.4665684535
 10
0.5636837555
 20
13.4453402452
 10
0.5819419276
 20
13.4233799109
 10
0.5993216994
 20
13.4007328872
 10
0.6157943121
 20
13.3774420393
 10
0.6313378331
 20
13.3535399472
 10
0.6459320361
 20
13.3290566195
 10
0.6595566947
 20
13.304022065
 10
0.6721911175
 20
13.2784654046
 10
0.6838127517
 20
13.2524122087
 10
0.6943985791
 20
13.2258871597
 10
0.7039255816
 20
13.1989149403
 10
0.7123731797
 20
13.1715250617
 10
0.7197305488
 20
13.1437663491
 10
0.7259893024
 20
13.1156924561
 10
0.7311410546
 20
13.0873570365
 10
0.735177419
 20
13.0588137441
 10
0.7380900095
 20
13.0301162326
 10
0.7398704399
 20
13.0013181557
 10
0.740510324
 20
12.9724731672
 10
0.7400040946
 20
12.9436343697
 10
0.7383574606
 20
12.914852661
 10
0.7355789498
 20
12.8861783882
 10
0.7316770899
 20
12.8576618979
 10
0.7266604089
 20
12.829353537
 10
0.7205374345
 20
12.8013036522
 10
0.7133166946
 20
12.7735625905
 10
0.705006717
 20
12.7461806986
 10
0.6956182115
 20
12.7192042498
 10
0.6851706158
 20
12.6926632225
 10
0.6736855498
 20
12.6665835217
 10
0.661184633
 20
12.6409910525
 10
0.6476885094
 20
12.615911668
 10
0.6332139191
 20
12.5913710146
 10
0.6177766263
 20
12.567394687
 10
0.6013923951
 20
12.54400828
 10
0.5840796864
 20
12.521241765
 10
0.5658677473
 20
12.4991426206
 10
0.5467885216
 20
12.4777627022
 10
0.526873953
 20
12.4571538654
 10
0.5061592623
 20
12.4373639847
 10
0.4846927787
 20
12.4184250118
 10
0.4625261082
 20
12.4003649173
 10
0.439710857
 20
12.383211672
 10
0.4162940911
 20
12.3669913277
 10
0.3923047155
 20
12.3517222597
 10
0.3677670947
 20
12.3374209242
 10
0.3427055936
 20
12.3241037776
 10
0.3171506225
 20
12.3117883608
 10
0.2911567747
 20
12.3004965538
 10
0.2647846888
 20
12.2902513211
 10
0.2380950039
 20
12.2810756274
 10
0.2111417654
 20
12.2729870356
 10
0.1839526455
 20
12.2659815018
 10
0.156548723
 20
12.2600495806
 10
0.1289510767
 20
12.2551818267
 10
0.1011630994
 20
12.2513729819
 10
0.073117439
 20
12.2486345382
 10
0.0447290572
 20
12.246982175
 10
0.015912916
 20
12.2464315716
  0
LINE
  5
343
100
AcDbEntity
  8
ASSI
100
AcDbLine
 62
7
  6
CONTINUOUS
 10
7.7865230462
 20
22.1980275949
 11
7.4384681989
 21
22.1664336343
  0
LINE
  5
344
100
AcDbEntity
  8
ASSI
100
AcDbLine
 62
253
  6
CONTINUOUS
 10
-10.9084001897
 20
20.5432828032
 11
-10.8640674906
 21
20.544820504
  0
LINE
  5
345
100
AcDbEntity
  8
ASSI
100
AcDbLine
 62
253
  6
CONTINUOUS
 10
-10.8640674906
 20
20.544820504
 11
-10.8158238633
 21
20.5461417331
  0
LINE
  5
346
100
AcDbEntity
  8
ASSI
100
AcDbLine
 62
253
  6
CONTINUOUS
 10
-10.8158238633
 20
20.5461417331
 11
-10.7643073301
 21
20.5472290174
  0
LINE
  5
347
100
AcDbEntity
  8
ASSI
100
AcDbLine
 62
253
  6
CONTINUOUS
 10
-10.7643073301
 20
20.5472290174
 11
-10.7101991974
 21
20.5480679774
  0
LINE
  5
348
100
AcDbEntity
  8
ASSI
100
AcDbLine
 62
253
  6
CONTINUOUS
 10
-10.7101991974
 20
20.5480679774
 11
-10.6542150457
 21
20.548647518
  0
LINE
  5
349
100
AcDbEntity
  8
ASSI
100
AcDbLine
 62
253
  6
CONTINUOUS
 10
-10.6542150457
 20
20.548647518
 11
-10.5970952657
 21
20.5489599746
  0
LINE
  5
34A
100
AcDbEntity
  8
ASSI
100
AcDbLine
 62
253
  6
CONTINUOUS
 10
-10.5970952657
 20
20.5489599746
 11
10.5298115858
 21
20.5489941382
  0
LINE
  5
34B
100
AcDbEntity
  8
ASSI
100
AcDbLine
 62
253
  6
CONTINUOUS
 10
10.5872165001
 20
20.5488374901
 11
10.5298116102
 21
20.5490146321
  0
LINE
  5
34C
100
AcDbEntity
  8
ASSI
100
AcDbLine
 62
253
  6
CONTINUOUS
 10
10.6438622092
 20
20.5483907517
 11
10.5872165001
 21
20.5488374901
  0
LINE
  5
34D
100
AcDbEntity
  8
ASSI
100
AcDbLine
 62
253
  6
CONTINUOUS
 10
10.6989995972
 20
20.5476803251
 11
10.6438622092
 21
20.5483907517
  0
LINE
  5
34E
100
AcDbEntity
  8
ASSI
100
AcDbLine
 62
253
  6
CONTINUOUS
 10
10.7518994711
 20
20.5467156058
 11
10.6989995972
 21
20.5476803251
  0
LINE
  5
34F
100
AcDbEntity
  8
ASSI
100
AcDbLine
 62
253
  6
CONTINUOUS
 10
10.8018622291
 20
20.5455093522
 11
10.7518994711
 21
20.5467156058
  0
LINE
  5
350
100
AcDbEntity
  8
ASSI
100
AcDbLine
 62
7
  6
CONTINUOUS
 10
-7.8250567023
 20
22.1980275949
 11
-7.477001855
 21
22.1664336343
  0
LWPOLYLINE
  5
351
100
AcDbEntity
  8
ASSI
100
AcDbPolyline
 62
253
  6
CONTINUOUS
 90
15
 70
0
 10
11.0297354578
 20
-20.5553595492
 10
11.0284069849
 20
-20.5565420711
 10
11.0254286655
 20
-20.55772068
 10
11.0208103548
 20
-20.5588914759
 10
11.0145673347
 20
-20.5600505847
 10
11.0067202633
 20
-20.5611941708
 10
10.9972951064
 20
-20.5623184501
 10
10.9863230519
 20
-20.5634197025
 10
10.9738404061
 20
-20.5644942839
 10
10.9598884739
 20
-20.5655386385
 10
10.9445134222
 20
-20.5665493106
 10
10.9277661267
 20
-20.5675229558
 10
10.9097020043
 20
-20.5684563523
 10
10.8903808287
 20
-20.5693464117
 10
10.8698665336
 20
-20.5701901886
  0
LINE
  5
352
100
AcDbEntity
  8
ASSI
100
AcDbLine
 62
7
  6
CONTINUOUS
 10
-3.4134769538
 20
22.1980275949
 11
-3.7615318011
 21
22.1664336343
  0
LINE
  5
353
100
AcDbEntity
  8
ASSI
100
AcDbLine
 62
253
  6
CONTINUOUS
 10
-10.5848723392
 20
21.985272437
 11
10.5463386832
 21
21.985272437
  0
LINE
  5
354
100
AcDbEntity
  8
ASSI
100
AcDbLine
 62
7
  6
CONTINUOUS
 10
7.2652631181
 20
22.1611928564
 11
3.8962032258
 21
22.1611928564
  0
LINE
  5
355
100
AcDbEntity
  8
ASSI
100
AcDbLine
 62
7
  6
CONTINUOUS
 10
-3.9347368819
 20
22.1611928564
 11
-7.3037967742
 21
22.1611928564
  0
LINE
  5
356
100
AcDbEntity
  8
ASSI
100
AcDbLine
 62
7
  6
CONTINUOUS
 10
10.6171994436
 20
22.1980275949
 11
7.7865230462
 21
22.1980275949
  0
LINE
  5
357
100
AcDbEntity
  8
ASSI
100
AcDbLine
 62
7
  6
CONTINUOUS
 10
3.3749432977
 20
22.1980275949
 11
-3.4134769538
 21
22.1980275949
  0
LINE
  5
358
100
AcDbEntity
  8
ASSI
100
AcDbLine
 62
7
  6
CONTINUOUS
 10
-7.8250567023
 20
22.1980275949
 11
-10.6557330997
 21
22.1980275949
  0
LINE
  5
359
100
AcDbEntity
  8
ASSI
100
AcDbLine
 62
7
  6
CONTINUOUS
 10
3.3749432977
 20
22.1980275949
 11
3.722998145
 21
22.1664336343
  0
LWPOLYLINE
  5
35A
100
AcDbEntity
  8
ASSI
100
AcDbPolyline
 62
253
  6
CONTINUOUS
 90
17
 70
0
 10
11.0297354578
 20
20.5284521638
 10
11.0284070034
 20
20.5296346863
 10
11.025428701
 20
20.5308132959
 10
11.0208104058
 20
20.5319840925
 10
11.0145673995
 20
20.533143202
 10
11.0067203404
 20
20.5342867888
 10
10.9972951942
 20
20.5354110689
 10
10.9863231487
 20
20.5365123221
 10
10.9738405102
 20
20.5375869043
 10
10.9598885838
 20
20.5386312597
 10
10.9445135363
 20
20.5396419325
 10
10.9277662435
 20
20.5406155785
 10
10.9097021221
 20
20.5415489759
 10
10.8903809461
 20
20.542439036
 10
10.8698666492
 20
20.5432828137
 10
10.8482271129
 20
20.5440775169
 10
10.8018622291
 20
20.5455093522
  0
LINE
  5
35B
100
AcDbEntity
  8
ASSI
100
AcDbLine
 62
7
  6
CONTINUOUS
 10
-36.8491009169
 20
-22.0121798223
 11
-32.7894906676
 21
-22.2249349802
  0
LINE
  5
35C
100
AcDbEntity
  8
ASSI
100
AcDbLine
 62
253
  6
CONTINUOUS
 10
-36.831676461
 20
-21.5128641473
 11
-32.7459260614
 21
-21.7269892524
  0
LINE
  5
35D
100
AcDbEntity
  8
ASSI
100
AcDbLine
 62
253
  6
CONTINUOUS
 10
-38.268519214
 20
-20.5758673599
 11
-38.2693449121
 21
-20.5759220007
  0
LINE
  5
35E
100
AcDbEntity
  8
ASSI
100
AcDbLine
 62
253
  6
CONTINUOUS
 10
-38.2619249242
 20
-20.5755549033
 11
-38.268519214
 21
-20.5758673599
  0
LINE
  5
35F
100
AcDbEntity
  8
ASSI
100
AcDbLine
 62
253
  6
CONTINUOUS
 10
-37.7784945167
 20
-20.5553595492
 11
-38.2619249242
 21
-20.5755549033
  0
LINE
  5
360
100
AcDbEntity
  8
ASSI
100
AcDbLine
 62
253
  6
CONTINUOUS
 10
-32.392339347
 20
-17.9469452939
 11
-32.4152150679
 21
-17.9469452997
  0
LWPOLYLINE
  5
361
100
AcDbEntity
  8
ASSI
100
AcDbPolyline
 62
253
  6
CONTINUOUS
 90
37
 70
0
 10
-37.7784945167
 20
-20.5553595492
 10
-37.7759525032
 20
-20.5964084432
 10
-37.7717511284
 20
-20.6371872236
 10
-37.7658903923
 20
-20.6776958904
 10
-37.7583549031
 20
-20.718002927
 10
-37.7491600526
 20
-20.75803985
 10
-37.7383520162
 20
-20.7976012092
 10
-37.725922514
 20
-20.8366837944
 10
-37.711879826
 20
-20.8752908157
 10
-37.6962949671
 20
-20.9132264535
 10
-37.6791603108
 20
-20.9504867166
 10
-37.6604834838
 20
-20.9870755961
 10
-37.64035838
 20
-21.0228092461
 10
-37.6187777498
 20
-21.0576834199
 10
-37.5957488429
 20
-21.0917023641
 10
-37.571387303
 20
-21.1246949721
 10
-37.5456862247
 20
-21.1566562952
 10
-37.5186525134
 20
-21.1875912819
 10
-37.490422529
 20
-21.2173436716
 10
-37.460990166
 20
-21.2459074606
 10
-37.4303615298
 20
-21.2732886524
 10
-37.3986912965
 20
-21.299348997
 10
-37.36597442
 20
-21.3240816476
 10
-37.3322159465
 20
-21.3474934509
 10
-37.2975856903
 20
-21.3694666968
 10
-37.2620793161
 20
-21.3899941687
 10
-37.2257011593
 20
-21.4090830831
 10
-37.1886340405
 20
-21.4266373795
 10
-37.1508738847
 20
-21.4426494787
 10
-37.112424767
 20
-21.45712696
 10
-37.0734817335
 20
-21.4699965006
 10
-37.0340418342
 20
-21.4812498151
 10
-36.9941080192
 20
-21.490895189
 10
-36.9538841848
 20
-21.4988841559
 10
-36.9134382963
 20
-21.5052005601
 10
-36.8727023884
 20
-21.5098605572
 10
-36.831676461
 20
-21.5128641473
  0
LWPOLYLINE
  5
362
100
AcDbEntity
  8
ASSI
100
AcDbPolyline
 62
253
  6
CONTINUOUS
 90
8
 70
0
 10
-38.2007059914
 20
0.1675167652
 10
-38.2005362237
 20
0.1605276253
 10
-38.2003491973
 20
0.1545459157
 10
-38.2001459578
 20
0.149605082
 10
-38.1999276415
 20
0.1457327499
 10
-38.1996954693
 20
0.142950571
 10
-38.1994507392
 20
0.1412741013
 10
-38.1991948196
 20
0.1407127144
  0
LINE
  5
363
100
AcDbEntity
  8
ASSI
100
AcDbLine
 62
253
  6
CONTINUOUS
 10
-38.2009900552
 20
0.1843556071
 11
-38.2007059914
 21
0.1675167652
  0
LINE
  5
364
100
AcDbEntity
  8
ASSI
100
AcDbLine
 62
253
  6
CONTINUOUS
 10
-38.2011950445
 20
0.2046863623
 11
-38.2009900552
 21
0.1843556071
  0
LINE
  5
365
100
AcDbEntity
  8
ASSI
100
AcDbLine
 62
253
  6
CONTINUOUS
 10
-38.2009399938
 20
-0.3676124844
 11
-38.2012991855
 21
-0.3086691552
  0
LWPOLYLINE
  5
366
100
AcDbEntity
  8
ASSI
100
AcDbPolyline
 62
253
  6
CONTINUOUS
 90
13
 70
0
 10
-38.2009233751
 20
-0.3676123394
 10
-38.1969017052
 20
-2.0505239323
 10
-38.1872097174
 20
-3.7333371333
 10
-38.1718474117
 20
-5.4160519423
 10
-38.1508138855
 20
-7.0986748562
 10
-38.1241100414
 20
-8.7811993781
 10
-38.0917385872
 20
-10.4636060175
 10
-38.0537004606
 20
-12.1458946402
 10
-38.0099947239
 20
-13.8280653803
 10
-37.9606212717
 20
-15.5100991501
 10
-37.9055800689
 20
-17.1919895868
 10
-37.8448711505
 20
-18.8737430532
 10
-37.7784945167
 20
-20.5553595492
  0
LINE
  5
367
100
AcDbEntity
  8
ASSI
100
AcDbLine
 62
253
  6
CONTINUOUS
 10
-38.2013447576
 20
0.2407176984
 11
-38.2011950445
 21
0.2046863623
  0
LINE
  5
368
100
AcDbEntity
  8
ASSI
100
AcDbLine
 62
253
  6
CONTINUOUS
 10
-38.2012991855
 20
-0.3086691552
 11
-38.2013447584
 21
-0.2676249677
  0
LINE
  5
369
100
AcDbEntity
  8
ASSI
100
AcDbLine
 62
253
  6
CONTINUOUS
 10
-38.2012991846
 20
0.2817618521
 11
-38.2013447576
 21
0.2407176984
  0
LINE
  5
36A
100
AcDbEntity
  8
ASSI
100
AcDbLine
 62
253
  6
CONTINUOUS
 10
-38.2013447584
 20
-0.2676249677
 11
-38.2011950447
 21
-0.2315936303
  0
LINE
  5
36B
100
AcDbEntity
  8
ASSI
100
AcDbLine
 62
253
  6
CONTINUOUS
 10
-38.2009399938
 20
0.3407050991
 11
-38.2012991846
 21
0.2817618521
  0
LINE
  5
36C
100
AcDbEntity
  8
ASSI
100
AcDbLine
 62
253
  6
CONTINUOUS
 10
-38.2011950447
 20
-0.2315936303
 11
-38.200990055
 21
-0.2112628908
  0
LWPOLYLINE
  5
36D
100
AcDbEntity
  8
ASSI
100
AcDbPolyline
 62
253
  6
CONTINUOUS
 90
9
 70
0
 10
-38.200990055
 20
-0.2112628908
 10
-38.2007059907
 20
-0.1944240742
 10
-38.2005362229
 20
-0.1874349491
 10
-38.2003491964
 20
-0.1814532544
 10
-38.2001459569
 20
-0.1765124349
 10
-38.1999276408
 20
-0.1726401156
 10
-38.1996954687
 20
-0.169857947
 10
-38.1994507389
 20
-0.1681814841
 10
-38.1991948196
 20
-0.1676200998
  0
LINE
  5
36E
100
AcDbEntity
  8
CURVE
100
AcDbLine
 62
253
  6
CONTINUOUS
 10
-38.5633191368
 20
11.3445198919
 11
-38.5685003134
 21
11.1141560031
  0
LINE
  5
36F
100
AcDbEntity
  8
CURVE
100
AcDbLine
 62
253
  6
CONTINUOUS
 10
-38.5599849523
 20
11.4903229475
 11
-38.556867077
 21
11.6250134433
  0
LINE
  5
370
100
AcDbEntity
  8
CURVE
100
AcDbLine
 62
253
  6
CONTINUOUS
 10
-38.5465822429
 20
12.0586571355
 11
-38.5520845675
 21
11.8286368363
  0
LINE
  5
371
100
AcDbEntity
  8
CURVE
100
AcDbLine
 62
253
  6
CONTINUOUS
 10
-38.5201967943
 20
13.1057276693
 11
-38.5272010562
 21
12.8360996138
  0
LINE
  5
372
100
AcDbEntity
  8
CURVE
100
AcDbLine
 62
253
  6
CONTINUOUS
 10
-38.4927234716
 20
14.1136843357
 11
-38.4991777821
 21
13.883461558
  0
LINE
  5
373
100
AcDbEntity
  8
CURVE
100
AcDbLine
 62
253
  6
CONTINUOUS
 10
-38.4830462442
 20
14.4519982245
 11
-38.4869264313
 21
14.317307669
  0
LINE
  5
374
100
AcDbEntity
  8
CURVE
100
AcDbLine
 62
253
  6
CONTINUOUS
 10
-38.4720232301
 20
14.8279606136
 11
-38.4788008528
 21
14.5979423911
  0
LINE
  5
375
100
AcDbEntity
  8
CURVE
100
AcDbLine
 62
253
  6
CONTINUOUS
 10
-38.4503291486
 20
15.5413407287
 11
-38.4545086203
 21
15.4064737798
  0
LWPOLYLINE
  5
376
100
AcDbEntity
  8
ASSI
100
AcDbPolyline
 62
253
  6
CONTINUOUS
 90
13
 70
0
 10
-37.7784945167
 20
20.5284521638
 10
-37.8448711505
 20
18.8468356679
 10
-37.9055800689
 20
17.1650822015
 10
-37.9606212717
 20
15.4831917647
 10
-38.0099947239
 20
13.801157995
 10
-38.0537004606
 20
12.1189872548
 10
-38.0917385872
 20
10.4366986322
 10
-38.1241100414
 20
8.7542919928
 10
-38.1508138855
 20
7.0717674709
 10
-38.1718474117
 20
5.389144557
 10
-38.1872097174
 20
3.706429748
 10
-38.1969017052
 20
2.023616547
 10
-38.2009233751
 20
0.340704954
  0
LWPOLYLINE
  5
377
100
AcDbEntity
  8
ASSI
100
AcDbPolyline
 62
253
  6
CONTINUOUS
 90
10
 70
0
 10
-36.8495976827
 20
21.9029704467
 10
-36.8502414776
 20
21.9320167734
 10
-36.8504254856
 20
21.9443018871
 10
-36.8505166341
 20
21.9550379081
 10
-36.8505146151
 20
21.9641885515
 10
-36.8504194354
 20
21.9717228902
 10
-36.8502314166
 20
21.9776154599
 10
-36.8499511944
 20
21.9818463451
 10
-36.8495797156
 20
21.9844012466
 10
-36.8491182359
 20
21.9852715293
  0
LWPOLYLINE
  5
378
100
AcDbEntity
  8
ASSI
100
AcDbPolyline
 62
253
  6
CONTINUOUS
 90
9
 70
0
 10
-36.8502414774
 20
-21.9589241788
 10
-36.8504254852
 20
-21.9712092883
 10
-36.8505166337
 20
-21.9819453056
 10
-36.8505146146
 20
-21.9910959455
 10
-36.8504194349
 20
-21.9986302811
 10
-36.8502314162
 20
-22.0045228484
 10
-36.849951194
 20
-22.0087537319
 10
-36.8495797154
 20
-22.0113086323
 10
-36.8491182359
 20
-22.0121789146
  0
LINE
  5
379
100
AcDbEntity
  8
ASSI
100
AcDbLine
 62
253
  6
CONTINUOUS
 10
-36.8495976828
 20
-21.9298778606
 11
-36.8502414774
 21
-21.9589241788
  0
LINE
  5
37A
100
AcDbEntity
  8
ASSI
100
AcDbLine
 62
253
  6
CONTINUOUS
 10
-36.831676461
 20
21.4859567619
 11
-36.8388088296
 21
21.6290809628
  0
LINE
  5
37B
100
AcDbEntity
  8
ASSI
100
AcDbLine
 62
253
  6
CONTINUOUS
 10
-36.8388088296
 20
21.6290809628
 11
-36.8435818091
 21
21.7354825344
  0
LINE
  5
37C
100
AcDbEntity
  8
ASSI
100
AcDbLine
 62
253
  6
CONTINUOUS
 10
-36.8435818091
 20
21.7354825344
 11
-36.846444392
 21
21.8067548944
  0
LINE
  5
37D
100
AcDbEntity
  8
ASSI
100
AcDbLine
 62
253
  6
CONTINUOUS
 10
-36.846444392
 20
21.8067548944
 11
-36.8485939455
 21
21.8682912744
  0
LINE
  5
37E
100
AcDbEntity
  8
ASSI
100
AcDbLine
 62
253
  6
CONTINUOUS
 10
-36.8485939455
 20
21.8682912744
 11
-36.8495976827
 21
21.9029704467
  0
LINE
  5
37F
100
AcDbEntity
  8
ASSI
100
AcDbLine
 62
253
  6
CONTINUOUS
 10
-36.848593946
 20
-21.8951986965
 11
-36.8495976828
 21
-21.9298778606
  0
LINE
  5
380
100
AcDbEntity
  8
ASSI
100
AcDbLine
 62
253
  6
CONTINUOUS
 10
-36.846444393
 20
-21.8336623255
 11
-36.848593946
 21
-21.8951986965
  0
LINE
  5
381
100
AcDbEntity
  8
ASSI
100
AcDbLine
 62
253
  6
CONTINUOUS
 10
-36.8435818105
 20
-21.7623899679
 11
-36.846444393
 21
-21.8336623255
  0
LINE
  5
382
100
AcDbEntity
  8
ASSI
100
AcDbLine
 62
253
  6
CONTINUOUS
 10
-36.838808831
 20
-21.6559883853
 11
-36.8435818105
 21
-21.7623899679
  0
LINE
  5
383
100
AcDbEntity
  8
ASSI
100
AcDbLine
 62
253
  6
CONTINUOUS
 10
-36.831676461
 20
-21.5128641473
 11
-36.838808831
 21
-21.6559883853
  0
LINE
  5
384
100
AcDbEntity
  8
ASSI
100
AcDbLine
 62
253
  6
CONTINUOUS
 10
-31.992339347
 20
-0.3134308474
 11
-38.2009233751
 21
-0.3676123394
  0
LINE
  5
385
100
AcDbEntity
  8
ASSI
100
AcDbLine
 62
7
  6
CONTINUOUS
 10
-31.992339347
 20
-0.1134536927
 11
-38.4939573448
 21
-0.1701924534
  0
LINE
  5
386
100
AcDbEntity
  8
ASSI
100
AcDbLine
 62
253
  6
CONTINUOUS
 10
-38.2009233751
 20
-0.3676123931
 11
-38.6922119853
 21
-0.3703275955
  0
LINE
  5
387
100
AcDbEntity
  8
ASSI
100
AcDbLine
 62
7
  6
CONTINUOUS
 10
-38.4939573448
 20
0.143285068
 11
-31.992339347
 21
0.0865463073
  0
LINE
  5
388
100
AcDbEntity
  8
ASSI
100
AcDbLine
 62
7
  6
CONTINUOUS
 10
-32.392339347
 20
17.9200379085
 11
-32.392339347
 21
17.6585672284
  0
LINE
  5
389
100
AcDbEntity
  8
ASSI
100
AcDbLine
 62
7
  6
CONTINUOUS
 10
-32.392339347
 20
-17.6854746138
 11
-32.392339347
 21
-17.9469452939
  0
LINE
  5
38A
100
AcDbEntity
  8
ASSI
100
AcDbLine
 62
7
  6
CONTINUOUS
 10
-31.992339347
 20
-0.1134536927
 11
-31.992339347
 21
-13.1134536927
  0
LINE
  5
38B
100
AcDbEntity
  8
ASSI
100
AcDbLine
 62
7
  6
CONTINUOUS
 10
-31.992339347
 20
0.0865463073
 11
-31.992339347
 21
13.0865463073
  0
LINE
  5
38C
100
AcDbEntity
  8
ASSI
100
AcDbLine
 62
253
  6
CONTINUOUS
 10
-38.6922119853
 20
0.3434202102
 11
-38.2009233751
 21
0.3407050078
  0
LINE
  5
38D
100
AcDbEntity
  8
ASSI
100
AcDbLine
 62
253
  6
CONTINUOUS
 10
-38.2009233751
 20
0.340704954
 11
-31.992339347
 21
0.286523462
  0
LINE
  5
38E
100
AcDbEntity
  8
ASSI
100
AcDbLine
 62
7
  6
CONTINUOUS
 10
-31.992339347
 20
13.0865463073
 11
-32.7894906676
 21
22.1980275949
  0
LINE
  5
38F
100
AcDbEntity
  8
ASSI
100
AcDbLine
 62
7
  6
CONTINUOUS
 10
-31.992339347
 20
-13.1134536927
 11
-32.7894906676
 21
-22.2249349802
  0
LINE
  5
390
100
AcDbEntity
  8
ASSI
100
AcDbLine
 62
253
  6
CONTINUOUS
 10
-32.392339347
 20
17.9200379085
 11
-32.4152150674
 21
17.9200379085
  0
LWPOLYLINE
  5
391
100
AcDbEntity
  8
ASSI
100
AcDbPolyline
 62
253
  6
CONTINUOUS
 90
37
 70
0
 10
-36.831676461
 20
21.4859567619
 10
-36.872702388
 20
21.482953172
 10
-36.9134382956
 20
21.4782931749
 10
-36.9538841838
 20
21.4719767707
 10
-36.9941080182
 20
21.4639878039
 10
-37.0340418333
 20
21.45434243
 10
-37.0734817326
 20
21.4430891155
 10
-37.1124247661
 20
21.430219575
 10
-37.1508738839
 20
21.4157420938
 10
-37.1886340397
 20
21.3997299946
 10
-37.2257011585
 20
21.3821756982
 10
-37.2620793153
 20
21.3630867838
 10
-37.2975856895
 20
21.3425593119
 10
-37.3322159457
 20
21.3205860661
 10
-37.3659744193
 20
21.2971742628
 10
-37.3986912958
 20
21.2724416122
 10
-37.4303615291
 20
21.2463812676
 10
-37.4609901654
 20
21.2190000758
 10
-37.4904225284
 20
21.1904362869
 10
-37.5186525129
 20
21.1606838972
 10
-37.5456862242
 20
21.1297489104
 10
-37.5713873025
 20
21.0977875874
 10
-37.5957488424
 20
21.0647949794
 10
-37.6187777494
 20
21.0307760352
 10
-37.6403583796
 20
20.9959018614
 10
-37.6604834834
 20
20.9601682115
 10
-37.6791603105
 20
20.923579332
 10
-37.6962949668
 20
20.8863190689
 10
-37.7118798257
 20
20.8483834311
 10
-37.7259225138
 20
20.8097764098
 10
-37.738352016
 20
20.7706938246
 10
-37.7491600524
 20
20.7311324654
 10
-37.7583549029
 20
20.6910955424
 10
-37.7658903922
 20
20.6507885057
 10
-37.7717511283
 20
20.6102798388
 10
-37.7759525032
 20
20.5695010581
 10
-37.7784945167
 20
20.5284521638
  0
LINE
  5
392
100
AcDbEntity
  8
ASSI
100
AcDbLine
 62
253
  6
CONTINUOUS
 10
-32.7459260614
 20
21.7000818671
 11
-36.831676461
 21
21.4859567619
  0
LINE
  5
393
100
AcDbEntity
  8
ASSI
100
AcDbLine
 62
7
  6
CONTINUOUS
 10
-32.7894906676
 20
22.1980275949
 11
-36.8491009161
 21
21.985272437
  0
LWPOLYLINE
  5
394
100
AcDbEntity
  8
ASSI
100
AcDbPolyline
 62
253
  6
CONTINUOUS
 90
4
 70
0
 10
-37.7784945167
 20
20.5284521638
 10
-38.2660435566
 20
20.5488374901
 10
-38.2685196199
 20
20.5489599912
 10
-38.2693453192
 20
20.5490146321
  0
CIRCLE
  5
395
100
AcDbEntity
  8
ASSI
100
AcDbCircle
 62
7
  6
CONTINUOUS
 10
-0.019266828
 20
4.4865463073
 40
1.3
  0
CIRCLE
  5
396
100
AcDbEntity
  8
ASSI
100
AcDbCircle
 62
7
  6
CONTINUOUS
 10
-0.019266828
 20
-4.5134536927
 40
1.3
  0
CIRCLE
  5
397
100
AcDbEntity
  8
DRAFT
100
AcDbCircle
 62
7
  6
CONTINUOUS
 10
-0.019266828
 20
-4.5134536927
 40
1.225
  0
CIRCLE
  5
398
100
AcDbEntity
  8
DRAFT
100
AcDbCircle
 62
7
  6
CONTINUOUS
 10
-0.019266828
 20
4.4865463073
 40
1.225
  0
CIRCLE
  5
399
100
AcDbEntity
  8
RACCORDO
100
AcDbCircle
 62
253
  6
CONTINUOUS
 10
-0.019266828
 20
-4.5134536927
 40
1.2068524201
  0
CIRCLE
  5
39A
100
AcDbEntity
  8
RACCORDO
100
AcDbCircle
 62
253
  6
CONTINUOUS
 10
-0.019266828
 20
4.4865463073
 40
1.2068524201
  0
CIRCLE
  5
39B
100
AcDbEntity
  8
RACCORDO
100
AcDbCircle
 62
253
  6
CONTINUOUS
 10
-0.019266828
 20
-4.5134536927
 40
1.1180464865
  0
CIRCLE
  5
39C
100
AcDbEntity
  8
RACCORDO
100
AcDbCircle
 62
253
  6
CONTINUOUS
 10
-0.019266828
 20
4.4865463073
 40
1.1180464865
  0
ARC
  5
39D
100
AcDbEntity
  8
ASSI
100
AcDbCircle
 62
7
  6
CONTINUOUS
 10
-36.7706143015
 20
-20.5142346125
 40
1.5
100
AcDbArc
 50
182.356166499
 51
267.000662446
  0
ARC
  5
39E
100
AcDbEntity
  8
ASSI
100
AcDbCircle
 62
7
  6
CONTINUOUS
 10
-32.692339347
 20
-17.9469452939
 40
0.3
100
AcDbArc
 50
335.0
 51
360.0
  0
ARC
  5
39F
100
AcDbEntity
  8
ASSI
100
AcDbCircle
 62
7
  6
CONTINUOUS
 10
-38.4922115271
 20
-0.3701848335
 40
0.2
100
AcDbArc
 50
90.5001462853
 51
180.0408961681
  0
ARC
  5
3A0
100
AcDbEntity
  8
ASSI
100
AcDbCircle
 62
7
  6
CONTINUOUS
 10
-36.7706143015
 20
20.4873272272
 40
1.5
100
AcDbArc
 50
92.999337554
 51
177.643833501
  0
ARC
  5
3A1
100
AcDbEntity
  8
ASSI
100
AcDbCircle
 62
7
  6
CONTINUOUS
 10
-32.692339347
 20
17.9200379085
 40
0.3
100
AcDbArc
 50
0.0
 51
25.0
  0
ARC
  5
3A2
100
AcDbEntity
  8
ASSI
100
AcDbCircle
 62
7
  6
CONTINUOUS
 10
-38.4922115271
 20
0.3432774482
 40
0.2
100
AcDbArc
 50
179.9591038319
 51
269.4998537147
  0
ARC
  5
3A3
100
AcDbEntity
  8
ASSI
100
AcDbCircle
 62
7
  6
CONTINUOUS
 10
461.307660653
 20
-0.0134536927
 40
500.0
100
AcDbArc
 50
177.6430523596
 51
179.9591052604
  0
ARC
  5
3A4
100
AcDbEntity
  8
CURVE
100
AcDbCircle
 62
253
  6
CONTINUOUS
 10
461.307660653
 20
-0.0134536927
 40
500.0
100
AcDbArc
 50
178.232726254
 51
178.3421499886
  0
ARC
  5
3A5
100
AcDbEntity
  8
CURVE
100
AcDbCircle
 62
253
  6
CONTINUOUS
 10
461.307660653
 20
-0.0134536927
 40
500.0
100
AcDbArc
 50
178.6816479716
 51
178.7910696536
  0
ARC
  5
3A6
100
AcDbEntity
  8
ASSI
100
AcDbCircle
 62
7
  6
CONTINUOUS
 10
461.307660653
 20
-0.0134536927
 40
500.0
100
AcDbArc
 50
180.0408947396
 51
182.3569476404
  0
ELLIPSE
  5
3A7
100
AcDbEntity
  8
ASSI
100
AcDbEllipse
 62
7
  6
CONTINUOUS
 10
7.2652631181
 20
22.1716744123
 30
0.0
 11
0.2
 21
-0.0
 31
0.0
 40
0.0524077793
 41
-1.5707963268
 42
-0.5235987756
  0
ELLIPSE
  5
3A8
100
AcDbEntity
  8
ASSI
100
AcDbEllipse
 62
7
  6
CONTINUOUS
 10
3.8962032258
 20
22.1716744123
 30
0.0
 11
0.2
 21
0.0
 31
0.0
 40
0.0524077793
 41
-2.617993878
 42
-1.5707963268
  0
ELLIPSE
  5
3A9
100
AcDbEntity
  8
ASSI
100
AcDbEllipse
 62
7
  6
CONTINUOUS
 10
-3.9347368819
 20
22.1716744123
 30
0.0
 11
0.2
 21
0.0
 31
0.0
 40
0.0524077793
 41
-1.5707963268
 42
-0.5235987756
  0
ELLIPSE
  5
3AA
100
AcDbEntity
  8
ASSI
100
AcDbEllipse
 62
7
  6
CONTINUOUS
 10
-7.3037967742
 20
22.1716744123
 30
0.0
 11
0.2
 21
-0.0
 31
0.0
 40
0.0524077793
 41
-2.617993878
 42
-1.5707963268
  0
ELLIPSE
  5
3AB
100
AcDbEntity
  8
ASSI
100
AcDbEllipse
 62
7
  6
CONTINUOUS
 10
-10.9692363624
 20
0.286553923
 30
0.0
 11
0.1789222233
 21
0.0894542984
 31
0.0
 40
0.9998096356
 41
2.6780516535
 42
4.2486956813
  0
ELLIPSE
  5
3AC
100
AcDbEntity
  8
ASSI
100
AcDbEllipse
 62
7
  6
CONTINUOUS
 10
10.9307027064
 20
0.286553923
 30
0.0
 11
0.1789222233
 21
-0.0894542984
 31
0.0
 40
0.9998096356
 41
-1.1071030277
 42
0.4635410001
  0
ELLIPSE
  5
3AD
100
AcDbEntity
  8
ASSI
100
AcDbEllipse
 62
7
  6
CONTINUOUS
 10
-10.6560374542
 20
21.6996266334
 30
0.0
 11
0.498078285
 21
0.0448076117
 31
0.0
 40
0.9965957691
 41
1.4807720384
 42
3.0506549766
  0
ELLIPSE
  5
3AE
100
AcDbEntity
  8
ASSI
100
AcDbEllipse
 62
7
  6
CONTINUOUS
 10
10.6175037981
 20
21.6996266334
 30
0.0
 11
0.498078285
 21
-0.0448076117
 31
0.0
 40
0.9965957691
 41
0.0909376769
 42
1.6608206152
  0
ELLIPSE
  5
3AF
100
AcDbEntity
  8
ASSI
100
AcDbEllipse
 62
7
  6
CONTINUOUS
 10
-7.3037967742
 20
-22.1985817976
 30
0.0
 11
0.2
 21
-0.0
 31
0.0
 40
0.0524077793
 41
1.5707963268
 42
2.617993878
  0
ELLIPSE
  5
3B0
100
AcDbEntity
  8
ASSI
100
AcDbEllipse
 62
7
  6
CONTINUOUS
 10
-3.9347368819
 20
-22.1985817976
 30
0.0
 11
0.2
 21
0.0
 31
0.0
 40
0.0524077793
 41
0.5235987756
 42
1.5707963268
  0
ELLIPSE
  5
3B1
100
AcDbEntity
  8
ASSI
100
AcDbEllipse
 62
7
  6
CONTINUOUS
 10
3.8962032258
 20
-22.1985817976
 30
0.0
 11
0.2
 21
0.0
 31
0.0
 40
0.0524077793
 41
1.5707963268
 42
2.617993878
  0
ELLIPSE
  5
3B2
100
AcDbEntity
  8
ASSI
100
AcDbEllipse
 62
7
  6
CONTINUOUS
 10
7.2652631181
 20
-22.1985817976
 30
0.0
 11
0.2
 21
0.0
 31
0.0
 40
0.0524077793
 41
0.5235987756
 42
1.5707963268
  0
ELLIPSE
  5
3B3
100
AcDbEntity
  8
ASSI
100
AcDbEllipse
 62
7
  6
CONTINUOUS
 10
10.9307027064
 20
-0.3134613083
 30
0.0
 11
0.1789222233
 21
0.0894542984
 31
0.0
 40
0.9998096356
 41
-0.4635410001
 42
1.1071030277
  0
ELLIPSE
  5
3B4
100
AcDbEntity
  8
ASSI
100
AcDbEllipse
 62
7
  6
CONTINUOUS
 10
-10.9692363624
 20
-0.3134613083
 30
0.0
 11
0.1789222233
 21
-0.0894542984
 31
0.0
 40
0.9998096356
 41
2.0344896259
 42
3.6051336537
  0
ELLIPSE
  5
3B5
100
AcDbEntity
  8
ASSI
100
AcDbEllipse
 62
7
  6
CONTINUOUS
 10
10.6175037981
 20
-21.7265340188
 30
0.0
 11
0.498078285
 21
0.0448076117
 31
0.0
 40
0.9965957691
 41
-1.6608206152
 42
-0.0909376769
  0
ELLIPSE
  5
3B6
100
AcDbEntity
  8
ASSI
100
AcDbEllipse
 62
7
  6
CONTINUOUS
 10
-10.6560374542
 20
-21.7265340188
 30
0.0
 11
0.498078285
 21
-0.0448076117
 31
0.0
 40
0.9965957691
 41
-3.0506549766
 42
-1.4807720384
  0
ELLIPSE
  5
3B7
100
AcDbEntity
  8
CURVE
100
AcDbEllipse
 62
253
  6
CONTINUOUS
 10
461.307660653
 20
-0.0134536927
 30
0.0
 11
500.0
 21
-0.0
 31
0.0
 40
1.0
 41
9.3951695605
 42
9.3969017095
  0
ELLIPSE
  5
3B8
100
AcDbEntity
  8
CURVE
100
AcDbEllipse
 62
253
  6
CONTINUOUS
 10
461.307660653
 20
-0.0134536927
 30
0.0
 11
0.0
 21
500.0
 31
0.0
 40
1.0
 41
7.8299142001
 42
7.831645394
  0
ENDSEC
  0
SECTION
  2
OBJECTS
  0
DICTIONARY
  5
C
100
AcDbDictionary
280
0
281
1
  3
ACAD_GROUP
350
D
  3
ACAD_MLINESTYLE
350
17
  3
ACAD_LAYOUT
350
1A
  3
ACAD_PLOTSETTINGS
350
19
  3
ACAD_PLOTSTYLENAME
350
E
  0
DICTIONARY
  5
D
102
{ACAD_REACTORS
330
C
102
}
100
AcDbDictionary
280
0
281
1
  0
ACDBDICTIONARYWDFLT
  5
E
102
{ACAD_REACTORS
330
C
102
}
100
AcDbDictionary
281
1
  3
Normal
350
F
100
AcDbDictionaryWithDefault
340
F
  0
DICTIONARY
  5
17
102
{ACAD_REACTORS
330
C
102
}
100
AcDbDictionary
280
0
281
1
  3
Standard
350
18
  0
DICTIONARY
  5
19
102
{ACAD_REACTORS
330
C
102
}
100
AcDbDictionary
281
1
  0
DICTIONARY
  5
1A
102
{ACAD_REACTORS
330
C
102
}
100
AcDbDictionary
281
1
  3
Model
350
3B9
  3
Layout1
350
3BA
  0
ACDBPLACEHOLDER
  5
F
102
{ACAD_REACTORS
330
E
102
}
  0
MLINESTYLE
  5
18
102
{ACAD_REACTORS
330
17
102
}
100
AcDbMlineStyle
  2
STANDARD
 70
0
  3

 62
256
 51
90.0
 52
90.0
 71
2
 49
0.5
 62
256
  6
BYLAYER
 49
-0.5
 62
256
  6
BYLAYER
  0
LAYOUT
  5
3B9
102
{ACAD_REACTORS
330
1A
102
}
100
AcDbPlotSettings
  1

  2
none_device
  4
ISO_A4_(297.00_x_210.00_MM)
  6

 40
0.0
 41
0.0
 42
0.0
 43
0.0
 44
297.0
 45
210.0
 46
0.0
 47
0.0
 48
0.0
 49
0.0
140
0.0
141
0.0
142
1.0
143
1.0
 70
1024
 72
1
 73
0
 74
0
  7

 75
0
147
1.0
148
0.0
149
0.0
100
AcDbLayout
  1
Model
 70
0
 71
0
 10
0.0
 20
0.0
 11
297.0
 21
210.0
 12
0.0
 22
0.0
 32
0.0
 14
0.0
 24
0.0
 34
0.0
 15
0.0
 25
0.0
 35
0.0
146
0.0
 13
0.0
 23
0.0
 33
0.0
 16
1.0
 26
0.0
 36
0.0
 17
0.0
 27
1.0
 37
0.0
 76
0
330
217
345
0
346
0
  0
LAYOUT
  5
3BA
102
{ACAD_REACTORS
330
1A
102
}
100
AcDbPlotSettings
  1

  2
none_device
  4
ISO_A4_(297.00_x_210.00_MM)
  6

 40
0.0
 41
0.0
 42
0.0
 43
0.0
 44
297.0
 45
210.0
 46
0.0
 47
0.0
 48
0.0
 49
0.0
140
0.0
141
0.0
142
1.0
143
1.0
 70
0
 72
1
 73
0
 74
0
  7

 75
0
147
1.0
148
0.0
149
0.0
100
AcDbLayout
  1
Layout1
 70
0
 71
1
 10
0.0
 20
0.0
 11
297.0
 21
210.0
 12
0.0
 22
0.0
 32
0.0
 14
0.0
 24
0.0
 34
0.0
 15
0.0
 25
0.0
 35
0.0
146
0.0
 13
0.0
 23
0.0
 33
0.0
 16
1.0
 26
0.0
 36
0.0
 17
0.0
 27
1.0
 37
0.0
 76
0
330
218
345
0
346
0
  0
ENDSEC
  0
EOF
