  0
SECTION
  2
HEADER
  9
$ACADVER
  1
AC1021
  9
$DWGCODEPAGE
  3
ANSI_1252
  9
$EXTMAX
 10
297.0
 20
210.0
 30
0.0
  9
$EXTMIN
 10
0.0
 20
0.0
 30
0.0
  9
$LIMMIN
 10
0.0
 20
0.0
  9
$LIMMAX
 10
297.0
 20
210.0
  9
$VIEWCTR
 10
148.5
 20
105.0
  9
$VIEWSIZE
 40
210.0
  9
$CLAYER
  8
0
  9
$LTSCALE
 40
16.335
  9
$CELTYPE
  6
BYLAYER
  9
$DIMSCALE
 40
1.0
  9
$DIMASZ
 40
3.0
  9
$DIMEXO
 40
0.5
  9
$DIMDLI
 40
11.286
  9
$DIMEXE
 40
1.5
  9
$DIMCEN
 40
2.673
  9
$DIMLFAC
 40
1.0
  9
$DIMBLK
  1
_FILLED
  9
$DIMALT
 70
0
  9
$DIMALTF
 40
25.4
  9
$DIMTXT
 40
3.0
  9
$DIMTOL
 70
1
  9
$DIMLIM
 70
0
  9
$DIMTFAC
 40
1.0
  9
$DIMTP
 40
0.01
  9
$DIMTM
 40
0.01
  9
$DIMGAP
 40
0.625
  9
$DIMDSEP
 70
44
  9
$AUNITS
 70
0
  9
$PDMODE
 70
3
  9
$PDSIZE
 40
3.0
  9
$HANDSEED
  5
404
  9
$TILEMODE
 70
1
  9
$MEASUREMENT
 70
1
  9
$INSUNITS
 70
4
  0
ENDSEC
  0
SECTION
  2
CLASSES
  0
CLASS
  1
ACDBDICTIONARYWDFLT
  2
AcDbDictionaryWithDefault
  3
AutoCAD 2000
 90
0
 91
1
280
0
281
0
  0
CLASS
  1
ACDBPLACEHOLDER
  2
AcDbPlaceHolder
  3
AutoCAD 2000
 90
0
 91
1
280
0
281
0
  0
CLASS
  1
LAYOUT
  2
AcDbLayout
  3
AutoCAD 2000
 90
0
 91
0
280
0
281
0
  0
ENDSEC
  0
SECTION
  2
TABLES
  0
TABLE
  2
VPORT
  5
8
100
AcDbSymbolTable
 70
2
  0
VPORT
  5
1F4
100
AcDbSymbolTableRecord
100
AcDbViewportTableRecord
  2
*ACTIVE
 70
0
 10
0.0
 20
0.0
 11
1.0
 21
1.0
 12
148.5
 22
105.0
 13
0.0
 23
0.0
 14
1.0
 24
1.0
 15
0.0
 25
0.0
 16
0.0
 26
0.0
 36
1.0
 17
0.0
 27
0.0
 37
0.0
 40
210.0
 41
1.4142857143
 42
50.0
 43
0.0
 44
0.0
 50
0.0
 51
0.0
 71
0
 72
100
 73
1
 74
1
 75
0
 76
0
 77
0
 78
0
  0
ENDTAB
  0
TABLE
  2
LTYPE
  5
5
100
AcDbSymbolTable
 70
6
  0
LTYPE
  5
14
100
AcDbSymbolTableRecord
100
AcDbLinetypeTableRecord
  2
BYBLOCK
 70
0
  3

 72
65
 73
0
 40
0.0
  0
LTYPE
  5
15
100
AcDbSymbolTableRecord
100
AcDbLinetypeTableRecord
  2
BYLAYER
 70
0
  3

 72
65
 73
0
 40
0.0
  0
LTYPE
  5
16
100
AcDbSymbolTableRecord
100
AcDbLinetypeTableRecord
  2
CONTINUOUS
 70
64
  3
Solid line
 72
65
 73
0
 40
0.0
  0
LTYPE
  5
1F5
100
AcDbSymbolTableRecord
100
AcDbLinetypeTableRecord
  2
CENTER
 70
64
  3
____ _ ____ _ ____ _ ____ _ ____ _ ____ _ ____
 72
65
 73
4
 40
0.6
 49
0.375
 74
0
 49
-0.075
 74
0
 49
0.075
 74
0
 49
-0.075
 74
0
  0
LTYPE
  5
1F6
100
AcDbSymbolTableRecord
100
AcDbLinetypeTableRecord
  2
HIDDEN
 70
64
  3
- - - - - - - - - - - - - - - - - - - -
 72
65
 73
2
 40
0.2
 49
0.1
 74
0
 49
-0.1
 74
0
  0
LTYPE
  5
1F7
100
AcDbSymbolTableRecord
100
AcDbLinetypeTableRecord
  2
PHANTOM
 70
64
  3
_____ _ _ _____ _ _ _____ _ _ _____
 72
65
 73
6
 40
0.8
 49
0.45
 74
0
 49
-0.05
 74
0
 49
0.1
 74
0
 49
-0.05
 74
0
 49
0.1
 74
0
 49
-0.05
 74
0
  0
LTYPE
  5
1F8
100
AcDbSymbolTableRecord
100
AcDbLinetypeTableRecord
  2
DOT
 70
64
  3
. . . . . . . . . . . . . . . . . . . .
 72
65
 73
2
 40
0.2
 49
0.1
 74
0
 49
-0.1
 74
0
  0
LTYPE
  5
1F9
100
AcDbSymbolTableRecord
100
AcDbLinetypeTableRecord
  2
DASHED
 70
64
  3
- - - - - - - - - - - - - - - - - - - -
 72
65
 73
2
 40
0.2
 49
0.1
 74
0
 49
-0.1
 74
0
  0
ENDTAB
  0
TABLE
  2
LAYER
  5
2
100
AcDbSymbolTable
 70
36
  0
LAYER
  5
10
100
AcDbSymbolTableRecord
100
AcDbLayerTableRecord
  2
0
 70
0
 62
7
  6
CONTINUOUS
370
-3
390
F
  0
LAYER
  5
1FA
100
AcDbSymbolTableRecord
100
AcDbLayerTableRecord
  2
DEFAULT_1
 70
0
 62
7
  6
CENTER
370
-3
390
F
  0
LAYER
  5
1FB
100
AcDbSymbolTableRecord
100
AcDbLayerTableRecord
  2
DEFAULT_2
 70
0
 62
7
  6
HIDDEN
370
-3
390
F
  0
LAYER
  5
1FC
100
AcDbSymbolTableRecord
100
AcDbLayerTableRecord
  2
DEFAULT_3
 70
0
 62
7
  6
PHANTOM
370
-3
390
F
  0
LAYER
  5
1FD
100
AcDbSymbolTableRecord
100
AcDbLayerTableRecord
  2
ASSI
 70
0
 62
7
  6
CONTINUOUS
370
-3
390
F
  0
LAYER
  5
1FE
100
AcDbSymbolTableRecord
100
AcDbLayerTableRecord
  2
COORDINATE
 70
0
 62
7
  6
CONTINUOUS
370
-3
390
F
  0
LAYER
  5
1FF
100
AcDbSymbolTableRecord
100
AcDbLayerTableRecord
  2
COORD_ORIGINE
 70
0
 62
7
  6
CONTINUOUS
370
-3
390
F
  0
LAYER
  5
200
100
AcDbSymbolTableRecord
100
AcDbLayerTableRecord
  2
COPY_PUBLISH
 70
0
 62
7
  6
CONTINUOUS
370
-3
390
F
  0
LAYER
  5
201
100
AcDbSymbolTableRecord
100
AcDbLayerTableRecord
  2
COSMETIC
 70
0
 62
7
  6
CONTINUOUS
370
-3
390
F
  0
LAYER
  5
202
100
AcDbSymbolTableRecord
100
AcDbLayerTableRecord
  2
COSMETICI
 70
0
 62
7
  6
CONTINUOUS
370
-3
390
F
  0
LAYER
  5
203
100
AcDbSymbolTableRecord
100
AcDbLayerTableRecord
  2
CURVE
 70
0
 62
7
  6
CONTINUOUS
370
-3
390
F
  0
LAYER
  5
204
100
AcDbSymbolTableRecord
100
AcDbLayerTableRecord
  2
DRAFT
 70
0
 62
7
  6
CONTINUOUS
370
-3
390
F
  0
LAYER
  5
205
100
AcDbSymbolTableRecord
100
AcDbLayerTableRecord
  2
IGES
 70
0
 62
7
  6
CONTINUOUS
370
-3
390
F
  0
LAYER
  5
206
100
AcDbSymbolTableRecord
100
AcDbLayerTableRecord
  2
IMPORT_IGES
 70
0
 62
7
  6
CONTINUOUS
370
-3
390
F
  0
LAYER
  5
207
100
AcDbSymbolTableRecord
100
AcDbLayerTableRecord
  2
LIVELLO_1
 70
0
 62
7
  6
CONTINUOUS
370
-3
390
F
  0
LAYER
  5
208
100
AcDbSymbolTableRecord
100
AcDbLayerTableRecord
  2
NOTE
 70
0
 62
7
  6
CONTINUOUS
370
-3
390
F
  0
LAYER
  5
209
100
AcDbSymbolTableRecord
100
AcDbLayerTableRecord
  2
PIANI
 70
0
 62
7
  6
CONTINUOUS
370
-3
390
F
  0
LAYER
  5
20A
100
AcDbSymbolTableRecord
100
AcDbLayerTableRecord
  2
PIANI_ORIGINE
 70
0
 62
7
  6
CONTINUOUS
370
-3
390
F
  0
LAYER
  5
20B
100
AcDbSymbolTableRecord
100
AcDbLayerTableRecord
  2
PIANI_RIFERIMENTO
 70
0
 62
7
  6
CONTINUOUS
370
-3
390
F
  0
LAYER
  5
20C
100
AcDbSymbolTableRecord
100
AcDbLayerTableRecord
  2
PUNTI
 70
0
 62
7
  6
CONTINUOUS
370
-3
390
F
  0
LAYER
  5
20D
100
AcDbSymbolTableRecord
100
AcDbLayerTableRecord
  2
RACCORDO
 70
0
 62
7
  6
CONTINUOUS
370
-3
390
F
  0
LAYER
  5
20E
100
AcDbSymbolTableRecord
100
AcDbLayerTableRecord
  2
SIMBOLI
 70
0
 62
7
  6
CONTINUOUS
370
-3
390
F
  0
LAYER
  5
20F
100
AcDbSymbolTableRecord
100
AcDbLayerTableRecord
  2
SMUSSO
 70
0
 62
7
  6
CONTINUOUS
370
-3
390
F
  0
LAYER
  5
210
100
AcDbSymbolTableRecord
100
AcDbLayerTableRecord
  2
SNAPLINE
 70
0
 62
7
  6
CONTINUOUS
370
-3
390
F
  0
LAYER
  5
211
100
AcDbSymbolTableRecord
100
AcDbLayerTableRecord
  2
SUPERFICI
 70
0
 62
7
  6
CONTINUOUS
370
-3
390
F
  0
LAYER
  5
212
100
AcDbSymbolTableRecord
100
AcDbLayerTableRecord
  2
TRASH
 70
0
 62
7
  6
CONTINUOUS
370
-3
390
F
  0
LAYER
  5
213
100
AcDbSymbolTableRecord
100
AcDbLayerTableRecord
  2
WHITE
 70
0
 62
7
  6
CONTINUOUS
370
-3
390
F
  0
LAYER
  5
214
100
AcDbSymbolTableRecord
100
AcDbLayerTableRecord
  2
XSEC_DATUMS
 70
0
 62
7
  6
CONTINUOUS
370
-3
390
F
  0
ENDTAB
  0
TABLE
  2
STYLE
  5
3
100
AcDbSymbolTable
 70
1
  0
STYLE
  5
11
100
AcDbSymbolTableRecord
100
AcDbTextStyleTableRecord
  2
STANDARD
 70
0
 40
0.0
 41
0.8
 50
0.0
 71
0
 42
0.2
  3
txt
  4

  0
STYLE
  5
215
100
AcDbSymbolTableRecord
100
AcDbTextStyleTableRecord
  2
TEXTSTYLE_1
 70
0
 40
0.0
 41
0.8
 50
0.0
 71
0
 42
0.2
  3
gdt
  4

  0
ENDTAB
  0
TABLE
  2
VIEW
  5
6
100
AcDbSymbolTable
 70
0
  0
ENDTAB
  0
TABLE
  2
UCS
  5
7
100
AcDbSymbolTable
 70
0
  0
ENDTAB
  0
TABLE
  2
APPID
  5
9
100
AcDbSymbolTable
 70
1
  0
APPID
  5
216
100
AcDbSymbolTableRecord
100
AcDbRegAppTableRecord
  2
ACAD
 70
0
  0
ENDTAB
  0
TABLE
  2
BLOCK_RECORD
  5
1
100
AcDbSymbolTable
 70
0
  0
BLOCK_RECORD
  5
217
100
AcDbSymbolTableRecord
100
AcDbBlockTableRecord
  2
*Model_Space
  0
BLOCK_RECORD
  5
218
100
AcDbSymbolTableRecord
100
AcDbBlockTableRecord
  2
*Paper_Space
  0
BLOCK_RECORD
  5
219
100
AcDbSymbolTableRecord
100
AcDbBlockTableRecord
  2
_FILLED
  0
BLOCK_RECORD
  5
21A
100
AcDbSymbolTableRecord
100
AcDbBlockTableRecord
  2
*D0
  0
BLOCK_RECORD
  5
21B
100
AcDbSymbolTableRecord
100
AcDbBlockTableRecord
  2
*D1
  0
BLOCK_RECORD
  5
21C
100
AcDbSymbolTableRecord
100
AcDbBlockTableRecord
  2
*D2
  0
ENDTAB
  0
TABLE
  2
DIMSTYLE
  5
A
100
AcDbSymbolTable
 70
1
100
AcDbDimStyleTable
 71
0
  0
DIMSTYLE
105
21D
100
AcDbSymbolTableRecord
100
AcDbDimStyleTableRecord
  2
STANDARD
 70
0
  3

  4

 40
1.0
 41
3.0
 42
0.5
 43
0.38
 44
1.5
 45
0.0
 46
0.0
 47
0.01
 48
0.01
140
3.0
141
0.09
142
0.0
143
25.4
144
1.0
145
0.0
146
1.0
147
0.625
 71
1.0
 72
0.0
 73
0
 74
0
 75
0
 76
0
 77
1
 78
8
170
0
171
1
172
0
173
0
174
0
175
0
176
0
177
0
178
0
270
2
271
2
272
2
273
2
274
2
275
0
280
0
281
0
282
0
283
1
284
8
285
0
286
0
287
3
288
0
340
11
278
44
341
219
342
219
343
219
344
219
  0
DIMSTYLE
105
21E
100
AcDbSymbolTableRecord
100
AcDbDimStyleTableRecord
  2
DIMSTYLE_1
 70
0
  3

  4

 40
1.0
 41
3.0
 42
0.5
 43
0.38
 44
1.5
 45
0.0
 46
0.0
 47
0.0
 48
0.0
140
3.0
141
0.09
142
0.0
143
25.4
144
1.0
145
0.0
146
1.0
147
0.75
 71
0.0
 72
0.0
 73
0
 74
0
 75
0
 76
0
 77
1
 78
8
170
0
171
1
172
0
173
0
174
0
175
0
176
0
177
0
178
0
270
2
271
2
272
2
273
2
274
2
275
0
280
0
281
0
282
0
283
1
284
8
285
0
286
0
287
3
288
0
340
11
278
44
341
219
342
219
343
219
344
219
  0
DIMSTYLE
105
21F
100
AcDbSymbolTableRecord
100
AcDbDimStyleTableRecord
  2
DIMSTYLE_2
 70
0
  3

  4

 40
1.0
 41
3.0
 42
0.5
 43
0.38
 44
1.5
 45
0.0
 46
0.0
 47
0.0
 48
0.0
140
3.0
141
0.09
142
0.0
143
25.4
144
1.0
145
0.0
146
1.0
147
0.75
 71
0.0
 72
0.0
 73
0
 74
0
 75
0
 76
0
 77
1
 78
8
170
0
171
1
172
0
173
0
174
0
175
0
176
0
177
0
178
0
270
2
271
1
272
1
273
2
274
2
275
0
280
0
281
0
282
0
283
1
284
8
285
0
286
0
287
3
288
0
340
11
278
44
341
219
342
219
343
219
344
219
  0
ENDTAB
  0
ENDSEC
  0
SECTION
  2
BLOCKS
  0
BLOCK
  5
20
100
AcDbEntity
  8
0
100
AcDbBlockBegin
  2
*Model_Space
 70
0
 10
0.0
 20
0.0
 30
0.0
  3
*Model_Space
  1

  0
ENDBLK
  5
21
100
AcDbEntity
  8
0
100
AcDbBlockEnd
  0
BLOCK
  5
1C
100
AcDbEntity
  8
0
100
AcDbBlockBegin
  2
*Paper_Space
 70
0
 10
0.0
 20
0.0
 30
0.0
  3
*Paper_Space
  1

  0
ENDBLK
  5
1D
100
AcDbEntity
  8
0
100
AcDbBlockEnd
  0
BLOCK
  5
220
100
AcDbEntity
  8
0
100
AcDbBlockBegin
  2
_FILLED
 70
64
 10
0.0
 20
0.0
  3
_FILLED
  1

  0
SOLID
  5
221
100
AcDbEntity
  8
0
  6
BYBLOCK
 62
0
100
AcDbTrace
 10
0.0
 20
0.0
 11
-1.0
 21
0.3166666667
 12
-1.0
 22
-0.3166666667
 13
-1.0
 23
-0.3166666667
  0
ENDBLK
  5
222
100
AcDbEntity
  8
0
  6
BYBLOCK
 62
0
100
AcDbBlockEnd
  0
BLOCK
  5
223
100
AcDbEntity
  8
0
100
AcDbBlockBegin
 62
7
  6
CONTINUOUS
  2
*D0
 70
65
 10
0.0
 20
0.0
  3
*D0
  1

  0
MTEXT
  5
224
100
AcDbEntity
  8
0
100
AcDbMText
 62
7
  6
CONTINUOUS
  7
STANDARD
 71
2
 72
1
 10
-0.0908761489
 20
33.9170959246
 30
0.0
 11
1.0
 21
0.0
 31
0.0
 44
0.9
  1
22,3
 40
3.0
 41
12.8571428571
  0
LINE
  5
225
100
AcDbEntity
  8
0
100
AcDbLine
 62
7
  6
CONTINUOUS
 10
-11.2408761489
 20
13.555614637
 11
-11.2408761489
 21
31.6670959246
  0
LINE
  5
226
100
AcDbEntity
  8
0
100
AcDbLine
 62
7
  6
CONTINUOUS
 10
11.0591238511
 20
13.555614637
 11
11.0591238511
 21
31.6670959246
  0
LINE
  5
227
100
AcDbEntity
  8
0
100
AcDbLine
 62
7
  6
CONTINUOUS
 10
-11.2408761489
 20
30.1670959246
 11
-0.0908761489
 21
30.1670959246
  0
LINE
  5
228
100
AcDbEntity
  8
0
100
AcDbLine
 62
7
  6
CONTINUOUS
 10
11.0591238511
 20
30.1670959246
 11
-0.0908761489
 21
30.1670959246
  0
INSERT
  5
229
100
AcDbEntity
  8
0
100
AcDbBlockReference
 62
7
  6
CONTINUOUS
  2
_FILLED
 10
-11.2408761489
 20
30.1670959246
 41
3.0
 42
3.0
 43
3.0
 50
180.0
  0
INSERT
  5
22A
100
AcDbEntity
  8
0
100
AcDbBlockReference
 62
7
  6
CONTINUOUS
  2
_FILLED
 10
11.0591238511
 20
30.1670959246
 41
3.0
 42
3.0
 43
3.0
  0
ENDBLK
  5
22B
100
AcDbEntity
  8
0
  6
BYBLOCK
 62
0
100
AcDbBlockEnd
  0
BLOCK
  5
22C
100
AcDbEntity
  8
0
100
AcDbBlockBegin
 62
7
  6
CONTINUOUS
  2
*D1
 70
65
 10
0.0
 20
0.0
  3
*D1
  1

  0
MTEXT
  5
22D
100
AcDbEntity
  8
0
100
AcDbMText
 62
7
  6
CONTINUOUS
  7
STANDARD
 71
2
 72
1
 10
15.3091238511
 20
-0.044385363
 30
0.0
 11
0.0
 21
1.0
 31
0.0
 44
0.9
  1
44,4
 40
3.0
 41
13.1785714286
  0
LINE
  5
22E
100
AcDbEntity
  8
0
100
AcDbLine
 62
7
  6
CONTINUOUS
 10
11.0455901228
 20
22.1670959246
 11
20.5591238511
 21
22.1670959246
  0
LINE
  5
22F
100
AcDbEntity
  8
0
100
AcDbLine
 62
7
  6
CONTINUOUS
 10
11.0455901228
 20
-22.2558666505
 11
20.5591238511
 21
-22.2558666505
  0
LINE
  5
230
100
AcDbEntity
  8
0
100
AcDbLine
 62
7
  6
CONTINUOUS
 10
19.0591238511
 20
22.1670959246
 11
19.0591238511
 21
-0.044385363
  0
LINE
  5
231
100
AcDbEntity
  8
0
100
AcDbLine
 62
7
  6
CONTINUOUS
 10
19.0591238511
 20
-22.2558666505
 11
19.0591238511
 21
-0.044385363
  0
INSERT
  5
232
100
AcDbEntity
  8
0
100
AcDbBlockReference
 62
7
  6
CONTINUOUS
  2
_FILLED
 10
19.0591238511
 20
22.1670959246
 41
3.0
 42
3.0
 43
3.0
 50
90.0
  0
INSERT
  5
233
100
AcDbEntity
  8
0
100
AcDbBlockReference
 62
7
  6
CONTINUOUS
  2
_FILLED
 10
19.0591238511
 20
-22.2558666505
 41
3.0
 42
3.0
 43
3.0
 50
270.0
  0
ENDBLK
  5
234
100
AcDbEntity
  8
0
  6
BYBLOCK
 62
0
100
AcDbBlockEnd
  0
BLOCK
  5
235
100
AcDbEntity
  8
0
100
AcDbBlockBegin
 62
7
  6
CONTINUOUS
  2
*D2
 70
65
 10
0.0
 20
0.0
  3
*D2
  1

  0
MTEXT
  5
236
100
AcDbEntity
  8
0
100
AcDbMText
 62
7
  6
CONTINUOUS
  7
STANDARD
 71
1
 72
1
 10
-23.7714461672
 20
33.9170959246
 30
0.0
 11
1.0
 21
0.0
 31
0.0
 44
0.9
  1
6,7
 40
3.0
 41
9.6428571429
  0
LINE
  5
237
100
AcDbEntity
  8
0
100
AcDbLine
 62
7
  6
CONTINUOUS
 10
-28.5543935062
 20
13.555614637
 11
-28.5543935062
 21
31.6670959246
  0
LINE
  5
238
100
AcDbEntity
  8
0
100
AcDbLine
 62
7
  6
CONTINUOUS
 10
-35.2542661445
 20
0.8124885399
 11
-35.2542661445
 21
31.6670959246
  0
LINE
  5
239
100
AcDbEntity
  8
0
100
AcDbLine
 62
7
  6
CONTINUOUS
 10
-28.5543935062
 20
30.1670959246
 11
-17.3428747387
 21
30.1670959246
  0
LINE
  5
23A
100
AcDbEntity
  8
0
100
AcDbLine
 62
7
  6
CONTINUOUS
 10
-17.3428747387
 20
30.1670959246
 11
-31.9043298253
 21
30.1670959246
  0
LINE
  5
23B
100
AcDbEntity
  8
0
100
AcDbLine
 62
7
  6
CONTINUOUS
 10
-35.2542661445
 20
30.1670959246
 11
-39.2542661445
 21
30.1670959246
  0
LINE
  5
23C
100
AcDbEntity
  8
0
100
AcDbLine
 62
7
  6
CONTINUOUS
 10
-39.2542661445
 20
30.1670959246
 11
-31.9043298253
 21
30.1670959246
  0
INSERT
  5
23D
100
AcDbEntity
  8
0
100
AcDbBlockReference
 62
7
  6
CONTINUOUS
  2
_FILLED
 10
-28.5543935062
 20
30.1670959246
 41
3.0
 42
3.0
 43
3.0
 50
180.0
  0
INSERT
  5
23E
100
AcDbEntity
  8
0
100
AcDbBlockReference
 62
7
  6
CONTINUOUS
  2
_FILLED
 10
-35.2542661445
 20
30.1670959246
 41
3.0
 42
3.0
 43
3.0
  0
ENDBLK
  5
23F
100
AcDbEntity
  8
0
  6
BYBLOCK
 62
0
100
AcDbBlockEnd
  0
ENDSEC
  0
SECTION
  2
ENTITIES
  0
DIMENSION
  5
240
100
AcDbEntity
  8
0
100
AcDbDimension
 62
7
  6
CONTINUOUS
  2
*D0
 10
11.0591238511
 20
30.1670959246
 11
-0.5194474983
 21
30.1670959246
 70
160
 71
2
 42
22.3
  3
DIMSTYLE_1
100
AcDbAlignedDimension
 13
-11.2408761489
 23
13.055614637
 14
11.0591238511
 24
13.055614637
100
AcDbRotatedDimension
  0
DIMENSION
  5
241
100
AcDbEntity
  8
0
100
AcDbDimension
 62
7
  6
CONTINUOUS
  2
*D1
 10
19.0591238511
 20
-22.2558666505
 11
19.0591238511
 21
-0.47295704
 70
160
 71
2
 42
44.4229625751
  3
DIMSTYLE_2
100
AcDbAlignedDimension
 13
10.5455901228
 23
22.1670959246
 14
10.5455901228
 24
-22.2558666505
 50
270.0
100
AcDbRotatedDimension
  0
DIMENSION
  5
242
100
AcDbEntity
  8
0
100
AcDbDimension
 62
7
  6
CONTINUOUS
  2
*D2
 10
-35.2542661445
 20
30.1670959246
 11
-20.9857316151
 21
30.1670959246
 70
160
 71
1
 42
6.6998726383
  3
DIMSTYLE_1
100
AcDbAlignedDimension
 13
-28.5543935062
 23
13.055614637
 14
-35.2542661445
 24
0.3124885399
 50
180.0
100
AcDbRotatedDimension
  0
LWPOLYLINE
  5
243
100
AcDbEntity
  8
ASSI
100
AcDbPolyline
 62
253
  6
CONTINUOUS
 90
15
 70
0
 10
-11.1398784347
 20
20.4975204935
 10
-11.1385499619
 20
20.4987030154
 10
-11.1355716425
 20
20.4998816243
 10
-11.1309533317
 20
20.5010524203
 10
-11.1247103116
 20
20.502211529
 10
-11.1168632402
 20
20.5033551151
 10
-11.1074380833
 20
20.5044793945
 10
-11.0964660288
 20
20.5055806469
 10
-11.083983383
 20
20.5066552283
 10
-11.0700314508
 20
20.5076995829
 10
-11.0546563991
 20
20.5087102549
 10
-11.0379091037
 20
20.5096839001
 10
-11.0198449812
 20
20.5106172967
 10
-11.0005238056
 20
20.511507356
 10
-10.9800095105
 20
20.5123511329
  0
LINE
  5
244
100
AcDbEntity
  8
ASSI
100
AcDbLine
 62
7
  6
CONTINUOUS
 10
3.3033339769
 20
-22.2558666505
 11
3.6513888242
 21
-22.22427269
  0
LINE
  5
245
100
AcDbEntity
  8
ASSI
100
AcDbLine
 62
7
  6
CONTINUOUS
 10
-7.8966660231
 20
-22.2558666505
 11
-7.5486111758
 21
-22.22427269
  0
LINE
  5
246
100
AcDbEntity
  8
ASSI
100
AcDbLine
 62
7
  6
CONTINUOUS
 10
-10.7273424206
 20
-22.2558666505
 11
-7.8966660231
 21
-22.2558666505
  0
LINE
  5
247
100
AcDbEntity
  8
ASSI
100
AcDbLine
 62
7
  6
CONTINUOUS
 10
-3.4850862746
 20
-22.2558666505
 11
3.3033339769
 21
-22.2558666505
  0
LINE
  5
248
100
AcDbEntity
  8
ASSI
100
AcDbLine
 62
7
  6
CONTINUOUS
 10
7.7149137254
 20
-22.2558666505
 11
10.5455901228
 21
-22.2558666505
  0
LINE
  5
249
100
AcDbEntity
  8
ASSI
100
AcDbLine
 62
7
  6
CONTINUOUS
 10
-7.375406095
 20
-22.2190319121
 11
-4.0063462027
 21
-22.2190319121
  0
LINE
  5
24A
100
AcDbEntity
  8
ASSI
100
AcDbLine
 62
7
  6
CONTINUOUS
 10
3.824593905
 20
-22.2190319121
 11
7.1936537973
 21
-22.2190319121
  0
LINE
  5
24B
100
AcDbEntity
  8
ASSI
100
AcDbLine
 62
253
  6
CONTINUOUS
 10
10.4747293623
 20
-22.0431114926
 11
-10.6564816601
 21
-22.0431114927
  0
LINE
  5
24C
100
AcDbEntity
  8
ASSI
100
AcDbLine
 62
7
  6
CONTINUOUS
 10
-3.4850862746
 20
-22.2558666505
 11
-3.833141122
 21
-22.22427269
  0
LINE
  5
24D
100
AcDbEntity
  8
ASSI
100
AcDbLine
 62
7
  6
CONTINUOUS
 10
7.7149137254
 20
-22.2558666505
 11
7.366858878
 21
-22.22427269
  0
LWPOLYLINE
  5
24E
100
AcDbEntity
  8
ASSI
100
AcDbPolyline
 62
253
  6
CONTINUOUS
 90
17
 70
0
 10
-11.1398784347
 20
-20.5862912195
 10
-11.1385499803
 20
-20.587473742
 10
-11.1355716779
 20
-20.5886523516
 10
-11.1309533827
 20
-20.5898231481
 10
-11.1247103764
 20
-20.5909822576
 10
-11.1168633173
 20
-20.5921258445
 10
-11.1074381711
 20
-20.5932501246
 10
-11.0964661256
 20
-20.5943513778
 10
-11.0839834871
 20
-20.59542596
 10
-11.0700315607
 20
-20.5964703154
 10
-11.0546565132
 20
-20.5974809882
 10
-11.0379092204
 20
-20.5984546342
 10
-11.019845099
 20
-20.5993880316
 10
-11.000523923
 20
-20.6002780917
 10
-10.9800096261
 20
-20.6011218694
 10
-10.9583700898
 20
-20.6019165725
 10
-10.912005206
 20
-20.6033484078
  0
LINE
  5
24F
100
AcDbEntity
  8
ASSI
100
AcDbLine
 62
253
  6
CONTINUOUS
 10
10.7982572128
 20
-20.6011218589
 11
10.7539245137
 21
-20.6026595596
  0
LINE
  5
250
100
AcDbEntity
  8
ASSI
100
AcDbLine
 62
253
  6
CONTINUOUS
 10
10.7539245137
 20
-20.6026595596
 11
10.7056808864
 21
-20.6039807888
  0
LINE
  5
251
100
AcDbEntity
  8
ASSI
100
AcDbLine
 62
253
  6
CONTINUOUS
 10
10.7056808864
 20
-20.6039807888
 11
10.6541643532
 21
-20.605068073
  0
LINE
  5
252
100
AcDbEntity
  8
ASSI
100
AcDbLine
 62
253
  6
CONTINUOUS
 10
10.6541643532
 20
-20.605068073
 11
10.6000562205
 21
-20.605907033
  0
LINE
  5
253
100
AcDbEntity
  8
ASSI
100
AcDbLine
 62
253
  6
CONTINUOUS
 10
10.6000562205
 20
-20.605907033
 11
10.5440720688
 21
-20.6064865736
  0
LINE
  5
254
100
AcDbEntity
  8
ASSI
100
AcDbLine
 62
253
  6
CONTINUOUS
 10
10.5440720688
 20
-20.6064865736
 11
10.4869522888
 21
-20.6067990303
  0
LINE
  5
255
100
AcDbEntity
  8
ASSI
100
AcDbLine
 62
253
  6
CONTINUOUS
 10
10.4869522888
 20
-20.6067990303
 11
-10.6399545627
 21
-20.6068331939
  0
LINE
  5
256
100
AcDbEntity
  8
ASSI
100
AcDbLine
 62
253
  6
CONTINUOUS
 10
-10.697359477
 20
-20.6066765457
 11
-10.6399545871
 21
-20.6068536878
  0
LINE
  5
257
100
AcDbEntity
  8
ASSI
100
AcDbLine
 62
253
  6
CONTINUOUS
 10
-10.7540051861
 20
-20.6062298073
 11
-10.697359477
 21
-20.6066765457
  0
LINE
  5
258
100
AcDbEntity
  8
ASSI
100
AcDbLine
 62
253
  6
CONTINUOUS
 10
-10.8091425741
 20
-20.6055193808
 11
-10.7540051861
 21
-20.6062298073
  0
LINE
  5
259
100
AcDbEntity
  8
ASSI
100
AcDbLine
 62
253
  6
CONTINUOUS
 10
-10.862042448
 20
-20.6045546615
 11
-10.8091425741
 21
-20.6055193808
  0
LINE
  5
25A
100
AcDbEntity
  8
ASSI
100
AcDbLine
 62
253
  6
CONTINUOUS
 10
-10.912005206
 20
-20.6033484078
 11
-10.862042448
 21
-20.6045546615
  0
LWPOLYLINE
  5
25B
100
AcDbEntity
  8
CURVE
100
AcDbPolyline
 62
253
  6
CONTINUOUS
 90
82
 70
0
 10
-2.9350234609
 20
-15.0889307704
 10
-2.8484311771
 20
-15.0871565767
 10
-2.762583358
 20
-15.0818516684
 10
-2.6774118459
 20
-15.0730088776
 10
-2.5928484833
 20
-15.0606210363
 10
-2.5088251126
 20
-15.0446809763
 10
-2.4391952535
 20
-15.0286832857
 10
-2.370011383
 20
-15.0102358363
 10
-2.3013918271
 20
-14.9893606656
 10
-2.2334549119
 20
-14.9660798111
 10
-2.1663189632
 20
-14.9404153102
 10
-2.1001023071
 20
-14.9123892005
 10
-2.0349169512
 20
-14.8820301596
 10
-1.970849631
 20
-14.8493934268
 10
-1.9079807636
 20
-14.8145408814
 10
-1.8463907661
 20
-14.7775344027
 10
-1.7861600557
 20
-14.7384358701
 10
-1.7273690496
 20
-14.697307163
 10
-1.6588230669
 20
-14.6453520253
 10
-1.5925425463
 20
-14.5906215599
 10
-1.528603975
 20
-14.5331747841
 10
-1.4670838402
 20
-14.473070715
 10
-1.4080586291
 20
-14.4103683698
 10
-1.3516137603
 20
-14.3451467592
 10
-1.2978703771
 20
-14.2775648662
 10
-1.2469585543
 20
-14.2078016672
 10
-1.1990083666
 20
-14.1360361386
 10
-1.1541498887
 20
-14.0624472568
 10
-1.1124979533
 20
-13.9871940364
 10
-1.0741064245
 20
-13.9103556452
 10
-1.0390139247
 20
-13.8319912892
 10
-1.0072590759
 20
-13.7521601742
 10
-0.9788805004
 20
-13.6709215064
 10
-0.9539166374
 20
-13.588364381
 10
-0.9324051956
 20
-13.5046974511
 10
-0.9143837004
 20
-13.420159259
 10
-0.8998896777
 20
-13.334988347
 10
-0.8889606531
 20
-13.2494232575
 10
-0.8816276444
 20
-13.1636717115
 10
-0.8778956384
 20
-13.0778181451
 10
-0.8777631138
 20
-12.9919161729
 10
-0.8812285497
 20
-12.9060194097
 10
-0.8882904249
 20
-12.82018147
 10
-0.8969190147
 20
-12.748752182
 10
-0.9080282626
 20
-12.6775442835
 10
-0.9216023558
 20
-12.6067010817
 10
-0.9376254813
 20
-12.5363658839
 10
-0.9560818264
 20
-12.4666819975
 10
-0.9769555781
 20
-12.3977927298
 10
-1.0002290719
 20
-12.3298224889
 10
-1.0258772363
 20
-12.2628200864
 10
-1.0538731481
 20
-12.196815435
 10
-1.0841898839
 20
-12.1318384471
 10
-1.1168005205
 20
-12.0679190354
 10
-1.1516781348
 20
-12.0050871123
 10
-1.1964725686
 20
-11.9311902572
 10
-1.2443669227
 20
-11.8590972532
 10
-1.2952354389
 20
-11.7890028937
 10
-1.3489523594
 20
-11.7211019719
 10
-1.405391926
 20
-11.6555892814
 10
-1.4644361944
 20
-11.5926347999
 10
-1.5259984754
 20
-11.5323092438
 10
-1.5899998932
 20
-11.4746585137
 10
-1.6563615721
 20
-11.4197285103
 10
-1.7250046367
 20
-11.3675651345
 10
-1.7838868491
 20
-11.3262491804
 10
-1.8442159678
 20
-11.2869550215
 10
-1.9059093779
 20
-11.2497513084
 10
-1.968884465
 20
-11.2147066916
 10
-2.0330586144
 20
-11.1818898217
 10
-2.0983492114
 20
-11.1513693492
 10
-2.1646684426
 20
-11.123205521
 10
-2.2319076983
 20
-11.0974249688
 10
-2.29995317
 20
-11.0740459206
 10
-2.3686910491
 20
-11.0530866042
 10
-2.4380075272
 20
-11.0345652477
 10
-2.5077887956
 20
-11.0185000791
 10
-2.5920233016
 20
-11.002484231
 10
-2.6768287779
 20
-10.9900301681
 10
-2.7622707812
 20
-10.9811365168
 10
-2.8484148679
 20
-10.9758019037
 10
-2.9353265947
 20
-10.9740249552
  0
LWPOLYLINE
  5
25C
100
AcDbEntity
  8
CURVE
100
AcDbPolyline
 62
253
  6
CONTINUOUS
 90
26
 70
0
 10
-1.5033506789
 20
13.4245000165
 10
-1.4909952402
 20
13.428316527
 10
-1.4787047186
 20
13.4323557083
 10
-1.4664782299
 20
13.4366162508
 10
-1.4543148899
 20
13.4410968449
 10
-1.4422138145
 20
13.4457961811
 10
-1.4301741193
 20
13.4507129497
 10
-1.4181949204
 20
13.4558458412
 10
-1.4062753335
 20
13.4611935458
 10
-1.3944144744
 20
13.4667547541
 10
-1.3826114589
 20
13.4725281564
 10
-1.3708654029
 20
13.4785124431
 10
-1.3591754222
 20
13.4847063047
 10
-1.3484341015
 20
13.4906091517
 10
-1.3377416586
 20
13.4966917604
 10
-1.3270999445
 20
13.5029564354
 10
-1.3165108104
 20
13.5094054818
 10
-1.3059761073
 20
13.5160412042
 10
-1.2954976861
 20
13.5228659077
 10
-1.2850773981
 20
13.5298818969
 10
-1.2747170941
 20
13.5370914768
 10
-1.2644186254
 20
13.5444969521
 10
-1.2541838429
 20
13.5521006278
 10
-1.2440145977
 20
13.5599048087
 10
-1.2339127408
 20
13.5679117996
 10
-1.2238801234
 20
13.5761239053
  0
LINE
  5
25D
100
AcDbEntity
  8
CURVE
100
AcDbLine
 62
253
  6
CONTINUOUS
 10
0.8890667376
 20
-13.7494335657
 11
1.6563584041
 21
-13.7519735657
  0
LINE
  5
25E
100
AcDbEntity
  8
CURVE
100
AcDbLine
 62
253
  6
CONTINUOUS
 10
1.6709634041
 20
-13.476030788
 11
0.9787781265
 21
-13.4730674546
  0
LWPOLYLINE
  5
25F
100
AcDbEntity
  8
CURVE
100
AcDbPolyline
 62
253
  6
CONTINUOUS
 90
30
 70
0
 10
2.8151275705
 20
-14.7018630099
 10
2.8178759734
 20
-14.7021442598
 10
2.8206506341
 20
-14.7023506972
 10
2.8234515985
 20
-14.7024834707
 10
2.8262789127
 20
-14.7025437286
 10
2.8291326228
 20
-14.7025326194
 10
2.8320127749
 20
-14.7024512914
 10
2.834919415
 20
-14.7023008931
 10
2.8378525892
 20
-14.702082573
 10
2.8408123434
 20
-14.7017974794
 10
2.8441736655
 20
-14.7013985967
 10
2.8475673697
 20
-14.7009196887
 10
2.8509921392
 20
-14.7003637869
 10
2.8544466576
 20
-14.6997339229
 10
2.8579299328
 20
-14.6990331943
 10
2.861442272
 20
-14.6982649643
 10
2.8649843071
 20
-14.6974326622
 10
2.86855667
 20
-14.6965397177
 10
2.872159472
 20
-14.6955899425
 10
2.8757907419
 20
-14.6945886788
 10
2.8794479877
 20
-14.6935416509
 10
2.8831287175
 20
-14.6924545836
 10
2.8880685489
 20
-14.6909512673
 10
2.8930396008
 20
-14.6893914933
 10
2.8980357744
 20
-14.6877798082
 10
2.9030535559
 20
-14.6861199738
 10
2.908099773
 20
-14.6844126125
 10
2.9131838381
 20
-14.6826575617
 10
2.9183125525
 20
-14.6808557196
 10
2.9286867371
 20
-14.6771332877
  0
LWPOLYLINE
  5
260
100
AcDbEntity
  8
CURVE
100
AcDbPolyline
 62
253
  6
CONTINUOUS
 90
26
 70
0
 10
1.6563584041
 20
-13.7519735657
 10
1.6640492584
 20
-13.7528293775
 10
1.6717429142
 20
-13.7538116747
 10
1.6794395369
 20
-13.7549217398
 10
1.6871392921
 20
-13.7561608552
 10
1.6948423453
 20
-13.7575303034
 10
1.7025488621
 20
-13.7590313669
 10
1.7102590081
 20
-13.760665328
 10
1.7179729486
 20
-13.7624334693
 10
1.7256908494
 20
-13.7643370732
 10
1.7334128758
 20
-13.7663774222
 10
1.7411391935
 20
-13.7685557986
 10
1.7488699681
 20
-13.7708734851
 10
1.756010012
 20
-13.773137655
 10
1.7631531982
 20
-13.7755226886
 10
1.77029873
 20
-13.7780296549
 10
1.7774458111
 20
-13.7806596228
 10
1.784593645
 20
-13.7834136614
 10
1.7917414354
 20
-13.7862928395
 10
1.7988883858
 20
-13.7892982262
 10
1.8060336998
 20
-13.7924308903
 10
1.8131765809
 20
-13.795691901
 10
1.8203162328
 20
-13.7990823271
 10
1.8274518589
 20
-13.8026032377
 10
1.834582663
 20
-13.8062557016
 10
1.8417078485
 20
-13.8100407879
  0
LINE
  5
261
100
AcDbEntity
  8
CURVE
100
AcDbLine
 62
253
  6
CONTINUOUS
 10
0.8065520154
 20
-13.7357105101
 11
0.8890667376
 21
-13.7494335657
  0
LWPOLYLINE
  5
262
100
AcDbEntity
  8
ASSI
100
AcDbPolyline
 62
253
  6
CONTINUOUS
 90
28
 70
0
 10
-11.1564052053
 20
-21.5437958176
 10
-11.155533862
 20
-21.5728115293
 10
-11.1529758466
 20
-21.6017291759
 10
-11.1487398045
 20
-21.6304510231
 10
-11.1428400523
 20
-21.6588799982
 10
-11.1352965296
 20
-21.6869200185
 10
-11.1261347315
 20
-21.7144763156
 10
-11.1153856223
 20
-21.7414557561
 10
-11.1030855313
 20
-21.7677671563
 10
-11.0892760296
 20
-21.7933215901
 10
-11.0740037896
 20
-21.8180326898
 10
-11.0573204277
 20
-21.8418169381
 10
-11.0392823294
 20
-21.86459395
 10
-11.0199504588
 20
-21.8862867448
 10
-10.9993901526
 20
-21.9068220063
 10
-10.9776708997
 20
-21.92613033
 10
-10.9548661056
 20
-21.9441464588
 10
-10.9310528448
 20
-21.9608095023
 10
-10.9063116001
 20
-21.9760631436
 10
-10.8807259909
 20
-21.9898558291
 10
-10.85438249
 20
-22.0021409427
 10
-10.827370132
 20
-22.0128769638
 10
-10.7997802121
 20
-22.0220276071
 10
-10.7717059773
 20
-22.0295619458
 10
-10.7432423116
 20
-22.0354545155
 10
-10.7144854152
 20
-22.0396854008
 10
-10.6855324794
 20
-22.0422403023
 10
-10.6564813578
 20
-22.043110585
  0
LWPOLYLINE
  5
263
100
AcDbEntity
  8
ASSI
100
AcDbPolyline
 62
253
  6
CONTINUOUS
 90
28
 70
0
 10
-11.1564052053
 20
21.4550250916
 10
-11.1555338614
 20
21.4840408126
 10
-11.1529758445
 20
21.5129584676
 10
-11.1487398
 20
21.5416803223
 10
-11.1428400448
 20
21.570109304
 10
-11.1352965185
 20
21.5981493297
 10
-11.1261347163
 20
21.6257056311
 10
-11.115385603
 20
21.6526850749
 10
-11.1030855077
 20
21.6789964773
 10
-11.0892760018
 20
21.7045509122
 10
-11.0740037579
 20
21.7292620121
 10
-11.0573203924
 20
21.7530462596
 10
-11.039282291
 20
21.7758232698
 10
-11.0199504178
 20
21.7975160622
 10
-10.9993901099
 20
21.8180513206
 10
-10.9776708559
 20
21.8373596408
 10
-10.9548660615
 20
21.8553757656
 10
-10.9310528013
 20
21.872038805
 10
-10.906311558
 20
21.887292442
 10
-10.8807259509
 20
21.9010851232
 10
-10.8543824531
 20
21.9133702327
 10
-10.8273700989
 20
21.9241062499
 10
-10.7997801834
 20
21.9332568898
 10
-10.7717059535
 20
21.9407912255
 10
-10.7432422933
 20
21.9466837928
 10
-10.7144854028
 20
21.9509146763
 10
-10.685532473
 20
21.9534695767
 10
-10.6564813578
 20
21.954339859
  0
LWPOLYLINE
  5
264
100
AcDbEntity
  8
CURVE
100
AcDbPolyline
 62
253
  6
CONTINUOUS
 90
25
 70
0
 10
-1.4097940123
 20
13.7806997386
 10
-1.4158358413
 20
13.7757806009
 10
-1.4219595497
 20
13.7709659808
 10
-1.4281716418
 20
13.766251227
 10
-1.4344786221
 20
13.7616316883
 10
-1.4408869948
 20
13.7571027133
 10
-1.4474032643
 20
13.7526596507
 10
-1.4540325378
 20
13.7482991987
 10
-1.4607743334
 20
13.744023454
 10
-1.4676267719
 20
13.7398358624
 10
-1.4745879741
 20
13.7357398701
 10
-1.4816560611
 20
13.7317389231
 10
-1.4888291535
 20
13.7278364675
 10
-1.4961053434
 20
13.7240358293
 10
-1.5034826071
 20
13.7203398547
 10
-1.5109588918
 20
13.7167512698
 10
-1.518532145
 20
13.7132728009
 10
-1.5262003138
 20
13.709907174
 10
-1.5339613458
 20
13.7066571154
 10
-1.5418143786
 20
13.7035242878
 10
-1.5497633117
 20
13.7005061009
 10
-1.557813235
 20
13.6975989007
 10
-1.5659692385
 20
13.6947990336
 10
-1.5742364121
 20
13.6921028456
 10
-1.5826198456
 20
13.6895066831
  0
LINE
  5
265
100
AcDbEntity
  8
CURVE
100
AcDbLine
 62
253
  6
CONTINUOUS
 10
-0.556107068
 20
14.6112797384
 11
-0.6237698458
 21
14.5629844606
  0
LWPOLYLINE
  5
266
100
AcDbEntity
  8
CURVE
100
AcDbPolyline
 62
253
  6
CONTINUOUS
 90
29
 70
0
 10
-2.5429867898
 20
13.6436102942
 10
-2.5452357512
 20
13.6421441325
 10
-2.5474691727
 20
13.6406099624
 10
-2.5496876546
 20
13.6390079293
 10
-2.5518917973
 20
13.6373381784
 10
-2.5540822011
 20
13.6356008548
 10
-2.5562594663
 20
13.633796104
 10
-2.5584241934
 20
13.6319240711
 10
-2.5605769827
 20
13.6299849013
 10
-2.5627184344
 20
13.6279787399
 10
-2.5648491491
 20
13.6259057322
 10
-2.5669697271
 20
13.6237660234
 10
-2.5692913154
 20
13.621336087
 10
-2.5716018284
 20
13.6188294695
 10
-2.5739017297
 20
13.6162500226
 10
-2.5761914828
 20
13.6136015977
 10
-2.5784715515
 20
13.6108880464
 10
-2.5807423994
 20
13.6081132203
 10
-2.5830044902
 20
13.605280971
 10
-2.5852582874
 20
13.6023951498
 10
-2.5875042549
 20
13.5994596085
 10
-2.5897428561
 20
13.5964781986
 10
-2.5925319831
 20
13.5926916052
 10
-2.5953143971
 20
13.5888397077
 10
-2.5980941705
 20
13.5849228538
 10
-2.6008753754
 20
13.5809413911
 10
-2.6036620842
 20
13.5768956673
 10
-2.6064583691
 20
13.57278603
 10
-2.6120959564
 20
13.5643764053
  0
LINE
  5
267
100
AcDbEntity
  8
CURVE
100
AcDbLine
 62
253
  6
CONTINUOUS
 10
0.8929472932
 20
-12.3117230105
 11
0.7854206265
 21
-12.3382518993
  0
LINE
  5
268
100
AcDbEntity
  8
CURVE
100
AcDbLine
 62
253
  6
CONTINUOUS
 10
1.653677293
 20
-12.5863252326
 11
1.8249861818
 21
-12.557538566
  0
LINE
  5
269
100
AcDbEntity
  8
CURVE
100
AcDbLine
 62
253
  6
CONTINUOUS
 10
1.7454700708
 20
-12.2923555105
 11
1.6119789597
 21
-12.3126402327
  0
LINE
  5
26A
100
AcDbEntity
  8
CURVE
100
AcDbLine
 62
253
  6
CONTINUOUS
 10
1.6116614597
 20
-12.5894296771
 11
1.653677293
 21
-12.5863252326
  0
LINE
  5
26B
100
AcDbEntity
  8
CURVE
100
AcDbLine
 62
253
  6
CONTINUOUS
 10
0.9787781265
 20
-12.5885477326
 11
1.6116614597
 21
-12.5894296771
  0
LINE
  5
26C
100
AcDbEntity
  8
CURVE
100
AcDbLine
 62
253
  6
CONTINUOUS
 10
1.6119789597
 20
-12.3126402327
 11
0.8929472932
 21
-12.3117230105
  0
LWPOLYLINE
  5
26D
100
AcDbEntity
  8
CURVE
100
AcDbPolyline
 62
253
  6
CONTINUOUS
 90
27
 70
0
 10
3.9825750702
 20
-13.7830885657
 10
3.9846599238
 20
-13.783867184
 10
3.9867665651
 20
-13.7845913546
 10
3.9888942929
 20
-13.7852628984
 10
3.9910424064
 20
-13.7858836362
 10
3.9932102045
 20
-13.7864553888
 10
3.9953969863
 20
-13.7869799772
 10
3.9976020506
 20
-13.787459222
 10
3.9998246966
 20
-13.7878949441
 10
4.0020642232
 20
-13.7882889645
 10
4.0043199294
 20
-13.7886431038
 10
4.0065911142
 20
-13.7889591829
 10
4.0093870385
 20
-13.7892964749
 10
4.0122039623
 20
-13.7895829786
 10
4.0150408097
 20
-13.789822041
 10
4.0178965049
 20
-13.7900170093
 10
4.0207699721
 20
-13.7901712304
 10
4.0236601355
 20
-13.7902880514
 10
4.0265659194
 20
-13.7903708194
 10
4.029486248
 20
-13.7904228813
 10
4.0324200454
 20
-13.7904475843
 10
4.0368445337
 20
-13.7904397378
 10
4.0412986238
 20
-13.7903836143
 10
4.045784033
 20
-13.7902849634
 10
4.0503024785
 20
-13.7901495348
 10
4.0548556778
 20
-13.7899830782
 10
4.059445348
 20
-13.7897913434
  0
LINE
  5
26E
100
AcDbEntity
  8
CURVE
100
AcDbLine
 62
253
  6
CONTINUOUS
 10
2.704884515
 20
-14.6436193988
 11
2.8151275705
 21
-14.7018630099
  0
LWPOLYLINE
  5
26F
100
AcDbEntity
  8
ASSI
100
AcDbPolyline
 62
253
  6
CONTINUOUS
 90
9
 70
0
 10
-11.1508335936
 20
21.3848104231
 10
-11.1515047254
 20
21.3992879043
 10
-11.1521844786
 20
21.4121574449
 10
-11.1528729046
 20
21.4234107595
 10
-11.1535699519
 20
21.4330561334
 10
-11.1542720616
 20
21.4410451002
 10
-11.1549780472
 20
21.4473615044
 10
-11.1556890951
 20
21.4520215016
 10
-11.1564052053
 20
21.4550250916
  0
LWPOLYLINE
  5
270
100
AcDbEntity
  8
ASSI
100
AcDbPolyline
 62
253
  6
CONTINUOUS
 90
22
 70
0
 10
-11.1325046215
 20
0.3097734287
 10
-11.131943297
 20
0.2948294018
 10
-11.1302670137
 20
0.2799689334
 10
-11.1274851446
 20
0.2652751134
 10
-11.1236132444
 20
0.2508300995
 10
-11.1186729623
 20
0.2367146591
 10
-11.1126919219
 20
0.2230077166
 10
-11.1057035657
 20
0.2097859121
 10
-11.0977469681
 20
0.1971231728
 10
-11.0888666181
 20
0.1850903005
 10
-11.079112169
 20
0.1737545746
 10
-11.0685381618
 20
0.1631793764
 10
-11.0572037198
 20
0.1534238351
 10
-11.0451722182
 20
0.1445424966
 10
-11.0325109293
 20
0.1365850186
 10
-11.019290647
 20
0.1295958934
 10
-11.0055852906
 20
0.1236141987
 10
-10.9914714913
 20
0.1186733793
 10
-10.977028164
 20
0.11480106
 10
-10.9623360661
 20
0.1120188914
 10
-10.9474773457
 20
0.1103424285
 10
-10.9325350824
 20
0.1097810441
  0
LINE
  5
271
100
AcDbEntity
  8
ASSI
100
AcDbLine
 62
253
  6
CONTINUOUS
 10
-11.1495274787
 20
21.3512440274
 11
-11.1508335936
 21
21.3848104231
  0
LINE
  5
272
100
AcDbEntity
  8
ASSI
100
AcDbLine
 62
253
  6
CONTINUOUS
 10
-10.6509095855
 20
21.849030719
 11
-10.6522604443
 21
21.8900324651
  0
LINE
  5
273
100
AcDbEntity
  8
ASSI
100
AcDbLine
 62
253
  6
CONTINUOUS
 10
-11.1482727295
 20
21.3116276412
 11
-11.1495274787
 21
21.3512440274
  0
LINE
  5
274
100
AcDbEntity
  8
ASSI
100
AcDbLine
 62
253
  6
CONTINUOUS
 10
-11.1470789998
 20
21.2662425919
 11
-11.1482727295
 21
21.3116276412
  0
LINE
  5
275
100
AcDbEntity
  8
ASSI
100
AcDbLine
 62
253
  6
CONTINUOUS
 10
-10.6496035086
 20
21.7986530466
 11
-10.6509095855
 21
21.849030719
  0
LINE
  5
276
100
AcDbEntity
  8
ASSI
100
AcDbLine
 62
253
  6
CONTINUOUS
 10
-11.1454204938
 20
21.1880684049
 11
-11.1470789998
 21
21.2662425919
  0
LINE
  5
277
100
AcDbEntity
  8
ASSI
100
AcDbLine
 62
253
  6
CONTINUOUS
 10
-10.647744368
 20
21.7062672891
 11
-10.6496035086
 21
21.7986530466
  0
LINE
  5
278
100
AcDbEntity
  8
ASSI
100
AcDbLine
 62
253
  6
CONTINUOUS
 10
-11.1434935046
 20
21.0668559164
 11
-11.1454204938
 21
21.1880684049
  0
LINE
  5
279
100
AcDbEntity
  8
ASSI
100
AcDbLine
 62
253
  6
CONTINUOUS
 10
-10.6454966888
 20
21.5539368847
 11
-10.647744368
 21
21.7062672891
  0
LINE
  5
27A
100
AcDbEntity
  8
ASSI
100
AcDbLine
 62
253
  6
CONTINUOUS
 10
-11.1416123197
 20
20.8926476609
 11
-11.1434935046
 21
21.0668559164
  0
LINE
  5
27B
100
AcDbEntity
  8
ASSI
100
AcDbLine
 62
253
  6
CONTINUOUS
 10
-10.6427425632
 20
21.2716172606
 11
-10.6454966888
 21
21.5539368847
  0
LINE
  5
27C
100
AcDbEntity
  8
ASSI
100
AcDbLine
 62
253
  6
CONTINUOUS
 10
-11.140229973
 20
20.6601638714
 11
-11.1416123197
 21
20.8926476609
  0
LINE
  5
27D
100
AcDbEntity
  8
ASSI
100
AcDbLine
 62
253
  6
CONTINUOUS
 10
-10.6404667071
 20
20.8221051933
 11
-10.6427425632
 21
21.2716172606
  0
LINE
  5
27E
100
AcDbEntity
  8
ASSI
100
AcDbLine
 62
7
  6
CONTINUOUS
 10
-11.2408761489
 20
-13.144385363
 11
-11.2277222438
 21
-21.7579209227
  0
LINE
  5
27F
100
AcDbEntity
  8
ASSI
100
AcDbLine
 62
7
  6
CONTINUOUS
 10
-11.2408761489
 20
-0.3443625177
 11
-11.2408761489
 21
-13.144385363
  0
LINE
  5
280
100
AcDbEntity
  8
ASSI
100
AcDbLine
 62
7
  6
CONTINUOUS
 10
-11.2408761489
 20
0.2555917917
 11
-11.2408761489
 21
13.055614637
  0
LINE
  5
281
100
AcDbEntity
  8
ASSI
100
AcDbLine
 62
253
  6
CONTINUOUS
 10
-11.1325049116
 20
0.3097732837
 11
-11.140229973
 21
20.6601638714
  0
LINE
  5
282
100
AcDbEntity
  8
ASSI
100
AcDbLine
 62
253
  6
CONTINUOUS
 10
-10.6325808032
 20
0.1123533977
 11
-10.6404667071
 21
20.8221051933
  0
LINE
  5
283
100
AcDbEntity
  8
ASSI
100
AcDbLine
 62
7
  6
CONTINUOUS
 10
-11.2408761489
 20
13.055614637
 11
-11.2277222438
 21
21.6691501968
  0
LINE
  5
284
100
AcDbEntity
  8
ASSI
100
AcDbLine
 62
253
  6
CONTINUOUS
 10
-11.1403904697
 20
-20.7889715211
 11
-11.1325049116
 21
-0.3985440097
  0
LINE
  5
285
100
AcDbEntity
  8
ASSI
100
AcDbLine
 62
253
  6
CONTINUOUS
 10
-10.6411174605
 20
-21.0867468892
 11
-10.6325808032
 21
-0.2011241237
  0
LINE
  5
286
100
AcDbEntity
  8
ASSI
100
AcDbLine
 62
253
  6
CONTINUOUS
 10
-10.6435697545
 20
-21.460868617
 11
-10.6411174605
 21
-21.0867468892
  0
LINE
  5
287
100
AcDbEntity
  8
ASSI
100
AcDbLine
 62
253
  6
CONTINUOUS
 10
-11.141938325
 20
-21.0180072671
 11
-11.1403904697
 21
-20.7889715211
  0
LINE
  5
288
100
AcDbEntity
  8
ASSI
100
AcDbLine
 62
253
  6
CONTINUOUS
 10
-10.6460312939
 20
-21.6837316169
 11
-10.6435697545
 21
-21.460868617
  0
LINE
  5
289
100
AcDbEntity
  8
ASSI
100
AcDbLine
 62
253
  6
CONTINUOUS
 10
-11.1439421186
 20
-21.1875879661
 11
-11.141938325
 21
-21.0180072671
  0
LINE
  5
28A
100
AcDbEntity
  8
ASSI
100
AcDbLine
 62
253
  6
CONTINUOUS
 10
-10.6483488177
 20
-21.8280106009
 11
-10.6460312939
 21
-21.6837316169
  0
LINE
  5
28B
100
AcDbEntity
  8
ASSI
100
AcDbLine
 62
253
  6
CONTINUOUS
 10
-11.1459551186
 20
-21.3042203233
 11
-11.1439421186
 21
-21.1875879661
  0
LINE
  5
28C
100
AcDbEntity
  8
ASSI
100
AcDbLine
 62
253
  6
CONTINUOUS
 10
-10.6496035086
 20
-21.8874237731
 11
-10.6483488177
 21
-21.8280106009
  0
LINE
  5
28D
100
AcDbEntity
  8
ASSI
100
AcDbLine
 62
253
  6
CONTINUOUS
 10
-11.1476682561
 20
-21.3784251217
 11
-11.1459551186
 21
-21.3042203233
  0
LINE
  5
28E
100
AcDbEntity
  8
ASSI
100
AcDbLine
 62
253
  6
CONTINUOUS
 10
-10.6509095855
 20
-21.9378014455
 11
-10.6496035086
 21
-21.8874237731
  0
LINE
  5
28F
100
AcDbEntity
  8
ASSI
100
AcDbLine
 62
253
  6
CONTINUOUS
 10
-11.1488924956
 20
-21.4209258394
 11
-11.1476682561
 21
-21.3784251217
  0
LWPOLYLINE
  5
290
100
AcDbEntity
  8
ASSI
100
AcDbPolyline
 62
253
  6
CONTINUOUS
 90
22
 70
0
 10
-11.1325046215
 20
-0.3985441547
 10
-11.1319432988
 20
-0.3836001513
 10
-11.1302670205
 20
-0.3687397046
 10
-11.1274851594
 20
-0.3540459041
 10
-11.1236132697
 20
-0.3396009077
 10
-11.1186730004
 20
-0.325485482
 10
-11.1126919741
 20
-0.3117785508
 10
-11.1057036326
 20
-0.298556754
 10
-11.0977470501
 20
-0.285894019
 10
-11.0888667142
 20
-0.2738611471
 10
-11.079112278
 20
-0.262525418
 10
-11.0685382814
 20
-0.2519502134
 10
-11.0572038473
 20
-0.2421946627
 10
-11.0451723499
 20
-0.2333133124
 10
-11.0325110613
 20
-0.2253558208
 10
-11.0192907749
 20
-0.218366681
 10
-11.0055854095
 20
-0.2123849714
 10
-10.9914715962
 20
-0.2074441376
 10
-10.9770282499
 20
-0.2035718056
 10
-10.962336128
 20
-0.2007896267
 10
-10.9474773788
 20
-0.1991131569
 10
-10.9325350824
 20
-0.1985517701
  0
LINE
  5
291
100
AcDbEntity
  8
CURVE
100
AcDbLine
 62
253
  6
CONTINUOUS
 10
-0.6237698458
 20
14.5629844606
 11
-1.4097940123
 21
13.7806997386
  0
LINE
  5
292
100
AcDbEntity
  8
CURVE
100
AcDbLine
 62
253
  6
CONTINUOUS
 10
-1.2238801234
 20
13.5761239053
 11
-0.5948773458
 21
14.2014225163
  0
LINE
  5
293
100
AcDbEntity
  8
CURVE
100
AcDbLine
 62
253
  6
CONTINUOUS
 10
1.5144515426
 20
14.5610794606
 11
1.457230987
 21
14.5180405718
  0
LINE
  5
294
100
AcDbEntity
  8
CURVE
100
AcDbLine
 62
253
  6
CONTINUOUS
 10
0.7310732094
 20
12.192247239
 11
0.7847307094
 21
12.2193758501
  0
LWPOLYLINE
  5
295
100
AcDbEntity
  8
CURVE
100
AcDbPolyline
 62
253
  6
CONTINUOUS
 90
82
 70
0
 10
-2.9353265947
 20
-10.9740249552
 10
-3.0221354964
 20
-10.9757993526
 10
-3.108193573
 20
-10.9811237326
 10
-3.1935698367
 20
-10.9900041493
 10
-3.2783332995
 20
-11.002446657
 10
-3.3625529738
 20
-11.0184573097
 10
-3.4323438057
 20
-11.034525608
 10
-3.5016851211
 20
-11.0530558144
 10
-3.5704571092
 20
-11.0740277541
 10
-3.6385399592
 20
-11.0974212525
 10
-3.7058138604
 20
-11.1232161346
 10
-3.7721590021
 20
-11.1513922259
 10
-3.8374623404
 20
-11.1819215118
 10
-3.9016378991
 20
-11.2147446189
 10
-3.9646064688
 20
-11.2497943341
 10
-4.0262888403
 20
-11.2870034443
 10
-4.0866058042
 20
-11.3263047363
 10
-4.1454781511
 20
-11.367630997
 10
-4.2141153721
 20
-11.4198115223
 10
-4.280474365
 20
-11.4747592109
 10
-4.3444712115
 20
-11.5324220581
 10
-4.4060219932
 20
-11.5927480591
 10
-4.4650427918
 20
-11.6556852093
 10
-4.5214437328
 20
-11.7211586904
 10
-4.5751111166
 20
-11.7890024296
 10
-4.6259252875
 20
-11.8590275407
 10
-4.6737665896
 20
-11.9310451373
 10
-4.7185153671
 20
-12.0048663331
 10
-4.7533642189
 20
-12.0676385027
 10
-4.785954394
 20
-12.1315008665
 10
-4.8162578963
 20
-12.1964222902
 10
-4.8442467298
 20
-12.2623716396
 10
-4.8698928986
 20
-12.3293177803
 10
-4.8931684067
 20
-12.3972295781
 10
-4.9140473331
 20
-12.4660575738
 10
-4.9325120573
 20
-12.5356790081
 10
-4.9485470336
 20
-12.6059527968
 10
-4.9621367165
 20
-12.6767378555
 10
-4.9732655605
 20
-12.7478931
 10
-4.9819180199
 20
-12.8192774461
 10
-4.989014128
 20
-12.9050741004
 10
-4.9925182299
 20
-12.9909437354
 10
-4.9924266984
 20
-13.0768325867
 10
-4.9887359067
 20
-13.1626868902
 10
-4.9814422277
 20
-13.2484528816
 10
-4.970549053
 20
-13.3340453081
 10
-4.9560878483
 20
-13.4192529636
 10
-4.9380970977
 20
-13.5038331532
 10
-4.9166152855
 20
-13.5875431822
 10
-4.8916808958
 20
-13.6701403559
 10
-4.8633320976
 20
-13.7514131231
 10
-4.8316057986
 20
-13.8312745068
 10
-4.7965385914
 20
-13.9096686737
 10
-4.7581670683
 20
-13.9865397903
 10
-4.7165278218
 20
-14.0618320232
 10
-4.6716736686
 20
-14.1354682773
 10
-4.6237223219
 20
-14.2072864102
 10
-4.5728077189
 20
-14.2771030178
 10
-4.5190637971
 20
-14.3447346961
 10
-4.4626244936
 20
-14.409998041
 10
-4.4036132145
 20
-14.4727311376
 10
-4.3421112396
 20
-14.5328580285
 10
-4.2781893176
 20
-14.5903242453
 10
-4.211918197
 20
-14.6450753198
 10
-4.1433686263
 20
-14.6970567837
 10
-4.0845617657
 20
-14.7382142362
 10
-4.0243060578
 20
-14.777346222
 10
-3.9626857812
 20
-14.8143884403
 10
-3.8997852148
 20
-14.8492765903
 10
-3.8356886373
 20
-14.8819463711
 10
-3.7704803274
 20
-14.9123334819
 10
-3.7042495124
 20
-14.9403808979
 10
-3.6371052138
 20
-14.9660606986
 10
-3.5691614017
 20
-14.9893522397
 10
-3.5005320462
 20
-15.0102348766
 10
-3.4313311173
 20
-15.0286879651
 10
-3.3616725851
 20
-15.0446908607
 10
-3.2775950153
 20
-15.0606376748
 10
-3.1929569659
 20
-15.073030778
 10
-3.1076927889
 20
-15.0818744651
 10
-3.0217368365
 20
-15.087173031
 10
-2.9350234609
 20
-15.0889307704
  0
LWPOLYLINE
  5
296
100
AcDbEntity
  8
CURVE
100
AcDbPolyline
 62
253
  6
CONTINUOUS
 90
28
 70
0
 10
2.8753467371
 20
-11.3631741218
 10
2.8726862221
 20
-11.3626157644
 10
2.8699928497
 20
-11.3621243301
 10
2.8672665723
 20
-11.3616985513
 10
2.8645073421
 20
-11.3613371601
 10
2.8617151116
 20
-11.3610388888
 10
2.8588898331
 20
-11.3608024696
 10
2.8560314588
 20
-11.3606266347
 10
2.8531399411
 20
-11.3605101164
 10
2.8502152324
 20
-11.3604516469
 10
2.8472572849
 20
-11.3604499583
 10
2.844266051
 20
-11.3605037831
 10
2.8409375452
 20
-11.3606252403
 10
2.8375707671
 20
-11.3608085193
 10
2.8341677783
 20
-11.3610498046
 10
2.8307306409
 20
-11.3613452809
 10
2.8272614166
 20
-11.3616911328
 10
2.8237621673
 20
-11.362083545
 10
2.8202349548
 20
-11.3625187022
 10
2.8166818409
 20
-11.3629927891
 10
2.8131048875
 20
-11.3635019902
 10
2.8095061565
 20
-11.3640424902
 10
2.8043298336
 20
-11.3648626148
 10
2.7991097539
 20
-11.3657352143
 10
2.7938423972
 20
-11.3666566746
 10
2.7885242431
 20
-11.3676233818
 10
2.7831517712
 20
-11.3686317218
 10
2.7722297927
 20
-11.370758844
  0
LWPOLYLINE
  5
297
100
AcDbEntity
  8
CURVE
100
AcDbPolyline
 62
253
  6
CONTINUOUS
 90
27
 70
0
 10
4.0591631257
 20
-12.274646066
 10
4.0572136176
 20
-12.274228657
 10
4.0552537108
 20
-12.2738636328
 10
4.0532837277
 20
-12.2735490785
 10
4.0513039909
 20
-12.2732830795
 10
4.0493148227
 20
-12.273063721
 10
4.0473165457
 20
-12.2728890884
 10
4.0453094824
 20
-12.2727572668
 10
4.0432939552
 20
-12.2726663416
 10
4.0412702865
 20
-12.272614398
 10
4.0389844842
 20
-12.2726001588
 10
4.0366901746
 20
-12.2726300229
 10
4.0343887463
 20
-12.2727011808
 10
4.032081588
 20
-12.2728108229
 10
4.0297698742
 20
-12.2729561183
 10
4.0274539231
 20
-12.27313415
 10
4.0251338391
 20
-12.2733419796
 10
4.0228097265
 20
-12.2735766688
 10
4.0197047391
 20
-12.2739263849
 10
4.0165925178
 20
-12.274312229
 10
4.0134728052
 20
-12.2747278026
 10
4.0087793711
 20
-12.2753958867
 10
4.0040720962
 20
-12.276112738
 10
4.0002971058
 20
-12.2767189492
 10
3.9965076769
 20
-12.2773528117
 10
3.9926959296
 20
-12.2780131515
 10
3.9849739591
 20
-12.279408566
  0
LWPOLYLINE
  5
298
100
AcDbEntity
  8
CURVE
100
AcDbPolyline
 62
253
  6
CONTINUOUS
 90
25
 70
0
 10
1.9730822929
 20
-13.5664830102
 10
1.9617838035
 20
-13.5605302318
 10
1.9503695462
 20
-13.5547767173
 10
1.93884018
 20
-13.5492204066
 10
1.927196364
 20
-13.5438592394
 10
1.9154387572
 20
-13.5386911556
 10
1.9035680185
 20
-13.5337140949
 10
1.8915848069
 20
-13.5289259973
 10
1.8794897816
 20
-13.5243248024
 10
1.8672836015
 20
-13.5199084502
 10
1.8549669256
 20
-13.5156748804
 10
1.842540413
 20
-13.5116220328
 10
1.8300047226
 20
-13.5077478472
 10
1.8173603183
 20
-13.5040511822
 10
1.8046068841
 20
-13.5005345708
 10
1.7917439085
 20
-13.4972014648
 10
1.7787708803
 20
-13.4940553158
 10
1.7656872882
 20
-13.4910995756
 10
1.7524926208
 20
-13.488337696
 10
1.7391863669
 20
-13.4857731288
 10
1.7257680152
 20
-13.4834093255
 10
1.7122370543
 20
-13.4812497381
 10
1.6985929731
 20
-13.4792978182
 10
1.6848352601
 20
-13.4775570176
 10
1.6709634041
 20
-13.476030788
  0
LINE
  5
299
100
AcDbEntity
  8
CURVE
100
AcDbLine
 62
253
  6
CONTINUOUS
 10
2.1146167373
 20
-13.6668835657
 11
1.9730822929
 21
-13.5664830102
  0
LINE
  5
29A
100
AcDbEntity
  8
CURVE
100
AcDbLine
 62
253
  6
CONTINUOUS
 10
1.8417078485
 20
-13.8100407879
 11
1.9510336818
 21
-13.8902271767
  0
LWPOLYLINE
  5
29B
100
AcDbEntity
  8
ASSI
100
AcDbPolyline
 62
253
  6
CONTINUOUS
 90
7
 70
0
 10
-10.6522604443
 20
21.8900324651
 10
-10.6529488093
 20
21.9069274263
 10
-10.6536457854
 20
21.9213796453
 10
-10.6543478959
 20
21.9333651736
 10
-10.6550539822
 20
21.9428638828
 10
-10.6557652029
 20
21.9498596761
 10
-10.6564815581
 20
21.9543407665
  0
LINE
  5
29C
100
AcDbEntity
  8
CURVE
100
AcDbLine
 62
253
  6
CONTINUOUS
 10
2.3731479312
 20
15.4168477938
 11
2.2754284868
 21
15.3064283493
  0
LINE
  5
29D
100
AcDbEntity
  8
CURVE
100
AcDbLine
 62
253
  6
CONTINUOUS
 10
0.6566018205
 20
13.7024889053
 11
0.5702065428
 21
13.6177164053
  0
LINE
  5
29E
100
AcDbEntity
  8
CURVE
100
AcDbLine
 62
253
  6
CONTINUOUS
 10
0.8425157094
 20
12.2682002945
 11
0.902417376
 21
12.3248564056
  0
LINE
  5
29F
100
AcDbEntity
  8
CURVE
100
AcDbLine
 62
253
  6
CONTINUOUS
 10
0.691138765
 20
12.5064311278
 11
0.5949009872
 21
12.4160141834
  0
LINE
  5
2A0
100
AcDbEntity
  8
CURVE
100
AcDbLine
 62
253
  6
CONTINUOUS
 10
0.7847307094
 20
12.2193758501
 11
0.8425157094
 21
12.2682002945
  0
LWPOLYLINE
  5
2A1
100
AcDbEntity
  8
CURVE
100
AcDbPolyline
 62
253
  6
CONTINUOUS
 90
28
 70
0
 10
-0.3996854014
 20
11.3049052948
 10
-0.3974099903
 20
11.3063781503
 10
-0.3951571385
 20
11.3079211714
 10
-0.3929259791
 20
11.3095336296
 10
-0.3907156458
 20
11.3112147966
 10
-0.3885252718
 20
11.3129639439
 10
-0.3863539906
 20
11.3147803432
 10
-0.3842009355
 20
11.316663266
 10
-0.3820652401
 20
11.318611984
 10
-0.3799460376
 20
11.3206257689
 10
-0.3778424615
 20
11.3227038921
 10
-0.3757536451
 20
11.3248456253
 10
-0.3734719753
 20
11.3272736099
 10
-0.3712060521
 20
11.3297735787
 10
-0.3689548114
 20
11.3323414293
 10
-0.3667171889
 20
11.3349730592
 10
-0.3644921207
 20
11.3376643658
 10
-0.3622785424
 20
11.3404112467
 10
-0.36007539
 20
11.3432095994
 10
-0.3578815994
 20
11.3460553214
 10
-0.3556961063
 20
11.3489443101
 10
-0.3535178466
 20
11.3518724632
 10
-0.3504161258
 20
11.3561173128
 10
-0.347321736
 20
11.3604335706
 10
-0.3442294181
 20
11.3648210898
 10
-0.3411339127
 20
11.369279724
 10
-0.3380299606
 20
11.3738093266
 10
-0.3317756792
 20
11.3830808503
  0
LINE
  5
2A2
100
AcDbEntity
  8
CURVE
100
AcDbLine
 62
253
  6
CONTINUOUS
 10
1.6008468203
 20
11.3375019614
 11
1.6515057092
 21
11.3690755725
  0
LINE
  5
2A3
100
AcDbEntity
  8
CURVE
100
AcDbLine
 62
253
  6
CONTINUOUS
 10
2.7334947927
 20
-14.28085801
 11
2.1146167373
 21
-13.6668835657
  0
LINE
  5
2A4
100
AcDbEntity
  8
CURVE
100
AcDbLine
 62
253
  6
CONTINUOUS
 10
1.9510336818
 20
-13.8902271767
 11
2.704884515
 21
-14.6436193988
  0
LWPOLYLINE
  5
2A5
100
AcDbEntity
  8
ASSI
100
AcDbPolyline
 62
253
  6
CONTINUOUS
 90
8
 70
0
 10
-10.6564815582
 20
-22.0431114926
 10
-10.6557652029
 20
-22.0386304022
 10
-10.6550539822
 20
-22.031634609
 10
-10.654347896
 20
-22.0221358999
 10
-10.6536457854
 20
-22.0101503716
 10
-10.6529488093
 20
-21.9956981526
 10
-10.6522604443
 20
-21.9788031915
 10
-10.6509095855
 20
-21.9378014455
  0
LWPOLYLINE
  5
2A6
100
AcDbEntity
  8
CURVE
100
AcDbPolyline
 62
253
  6
CONTINUOUS
 90
62
 70
0
 10
0.902417376
 20
12.3248564056
 10
0.9211859963
 20
12.3446803766
 10
0.9390075561
 20
12.3648873973
 10
0.9559190561
 20
12.3854544175
 10
0.9719574969
 20
12.4063583866
 10
0.9871598791
 20
12.4275762544
 10
1.0015632033
 20
12.4490849705
 10
1.0152044701
 20
12.4708614843
 10
1.0281206803
 20
12.4928827457
 10
1.0420332944
 20
12.5183159413
 10
1.0550520026
 20
12.543979801
 10
1.0671815843
 20
12.5698154254
 10
1.078426819
 20
12.595763915
 10
1.0887924862
 20
12.6217663705
 10
1.0982833655
 20
12.6477638923
 10
1.1069042364
 20
12.6736975811
 10
1.1146625327
 20
12.6995142405
 10
1.1215763054
 20
12.7251834863
 10
1.1276662602
 20
12.7506806371
 10
1.1329531023
 20
12.7759810119
 10
1.1374575373
 20
12.8010599293
 10
1.1412002706
 20
12.8258927082
 10
1.1442020076
 20
12.8504546674
 10
1.1467992317
 20
12.878734451
 10
1.1484736073
 20
12.9065691003
 10
1.1492826814
 20
12.9339156904
 10
1.1492840014
 20
12.9607312966
 10
1.1485351146
 20
12.9869729943
 10
1.1470935682
 20
13.0125978587
 10
1.1450139731
 20
13.0375741063
 10
1.1423391949
 20
13.0619145194
 10
1.1391091629
 20
13.0856430214
 10
1.1353638063
 20
13.1087835357
 10
1.1311430545
 20
13.1313599858
 10
1.1264868367
 20
13.1533962952
 10
1.1203728673
 20
13.1791584395
 10
1.1137108431
 20
13.2042058176
 10
1.1065222821
 20
13.2285670163
 10
1.0988287022
 20
13.2522706222
 10
1.0906516216
 20
13.2753452219
 10
1.0820072192
 20
13.297819516
 10
1.0728903185
 20
13.3197226595
 10
1.0632904037
 20
13.3410839213
 10
1.0531969592
 20
13.3619325702
 10
1.0425994694
 20
13.3822978751
 10
1.0314851514
 20
13.4022050521
 10
1.0198321528
 20
13.4216631065
 10
1.0076163542
 20
13.4406769909
 10
0.9948136361
 20
13.459251658
 10
0.9813998788
 20
13.4773920602
 10
0.9673632437
 20
13.4951049114
 10
0.952741015
 20
13.5124039705
 10
0.9375827578
 20
13.5293047574
 10
0.9219380371
 20
13.5458227923
 10
0.9058564179
 20
13.5619735951
 10
0.8852145027
 20
13.5816697768
 10
0.8640581125
 20
13.6008494467
 10
0.8424779808
 20
13.6195456433
 10
0.8205648412
 20
13.6377914047
 10
0.7909636923
 20
13.6614926111
 10
0.761012264
 20
13.6846326809
 10
0.7307909872
 20
13.7073925164
  0
LWPOLYLINE
  5
2A7
100
AcDbEntity
  8
CURVE
100
AcDbPolyline
 62
253
  6
CONTINUOUS
 90
62
 70
0
 10
1.7733551536
 20
11.4912777947
 10
1.8076944504
 20
11.5274315673
 10
1.8411908132
 20
11.5641227131
 10
1.873758553
 20
11.6015283728
 10
1.9053249172
 20
11.6397940964
 10
1.9358689
 20
11.6789390699
 10
1.9653824319
 20
11.7189508888
 10
1.993859699
 20
11.7598062788
 10
2.0213039111
 20
11.801438487
 10
2.0477205332
 20
11.8437698913
 10
2.0731140185
 20
11.8867304366
 10
2.0974847712
 20
11.9302803372
 10
2.1208321833
 20
11.9743873745
 10
2.1474932703
 20
12.0280054644
 10
2.1726539697
 20
12.0823212932
 10
2.1962883801
 20
12.1372767174
 10
2.2183705997
 20
12.1928135936
 10
2.2388747272
 20
12.2488737784
 10
2.25777854
 20
12.3054082116
 10
2.2750745329
 20
12.3624041649
 10
2.2907588797
 20
12.4198579933
 10
2.304827754
 20
12.4777660517
 10
2.3172773298
 20
12.536124695
 10
2.3281018797
 20
12.5949420876
 10
2.3372880729
 20
12.6542736328
 10
2.3448206773
 20
12.7141865431
 10
2.3506844609
 20
12.7747480313
 10
2.3548641917
 20
12.83602531
 10
2.3573325444
 20
12.8980754062
 10
2.3580138209
 20
12.9609146033
 10
2.3568202298
 20
13.0245489989
 10
2.3536639798
 20
13.0889846906
 10
2.3484572795
 20
13.1542277761
 10
2.3424865119
 20
13.2092130897
 10
2.3349668644
 20
13.2647363604
 10
2.3258343473
 20
13.3207706209
 10
2.3150249708
 20
13.3772889037
 10
2.3024747452
 20
13.4342642413
 10
2.2881196805
 20
13.4916696665
 10
2.2718925005
 20
13.5494851393
 10
2.2537127823
 20
13.6077183307
 10
2.2334968165
 20
13.6663838394
 10
2.2169425195
 20
13.7106865467
 10
2.1991263597
 20
13.7553133166
 10
2.1799789503
 20
13.8003368216
 10
2.1594309044
 20
13.8458297341
 10
2.1374209758
 20
13.8918322947
 10
2.1139204812
 20
13.9382550164
 10
2.0889088781
 20
13.9849759803
 10
2.0623656238
 20
14.0318732675
 10
2.0342486145
 20
14.0788200212
 10
2.0044295007
 20
14.1256696335
 10
1.972751002
 20
14.1722710727
 10
1.9390263581
 20
14.2184753641
 10
1.9030800148
 20
14.264139406
 10
1.8648107222
 20
14.3091415297
 10
1.8241701223
 20
14.3534001005
 10
1.7812471225
 20
14.3969721863
 10
1.7361868184
 20
14.4399303535
 10
1.6892217923
 20
14.4822704608
 10
1.6405120939
 20
14.5240563932
 10
1.5898401536
 20
14.5657008495
  0
LINE
  5
2A8
100
AcDbEntity
  8
CURVE
100
AcDbLine
 62
253
  6
CONTINUOUS
 10
1.6515057092
 20
11.3690755725
 11
1.7733551536
 21
11.4912777947
  0
LINE
  5
2A9
100
AcDbEntity
  8
CURVE
100
AcDbLine
 62
253
  6
CONTINUOUS
 10
2.4574970979
 20
10.4844500172
 11
2.5081559867
 21
10.517505295
  0
LINE
  5
2AA
100
AcDbEntity
  8
CURVE
100
AcDbLine
 62
253
  6
CONTINUOUS
 10
3.9504017369
 20
-12.5243068993
 11
4.025472848
 21
-12.5913699548
  0
LINE
  5
2AB
100
AcDbEntity
  8
CURVE
100
AcDbLine
 62
253
  6
CONTINUOUS
 10
3.8976614591
 20
-13.6978574546
 11
3.9825750702
 21
-13.7830885657
  0
LWPOLYLINE
  5
2AC
100
AcDbEntity
  8
CURVE
100
AcDbPolyline
 62
253
  6
CONTINUOUS
 90
29
 70
0
 10
0.7284822932
 20
-13.6674832879
 10
0.7299422722
 20
-13.6697412392
 10
0.731471034
 20
-13.6719797152
 10
0.7330681058
 20
-13.6741994591
 10
0.7347330149
 20
-13.676401214
 10
0.7364652886
 20
-13.678585723
 10
0.7382644541
 20
-13.6807537293
 10
0.7401300386
 20
-13.682905976
 10
0.7420615695
 20
-13.6850432061
 10
0.744058574
 20
-13.6871661629
 10
0.7461205794
 20
-13.6892755895
 10
0.7482471129
 20
-13.6913722289
 10
0.7506597024
 20
-13.6936646215
 10
0.7531457906
 20
-13.6959432585
 10
0.7557013692
 20
-13.6982089574
 10
0.7583224299
 20
-13.7004625359
 10
0.7610049643
 20
-13.7027048116
 10
0.7637449642
 20
-13.704936602
 10
0.7665384213
 20
-13.7071587248
 10
0.7693813272
 20
-13.7093719976
 10
0.7722696736
 20
-13.7115772379
 10
0.7751994521
 20
-13.7137752634
 10
0.7794506937
 20
-13.7169049064
 10
0.7837781318
 20
-13.7200268851
 10
0.7881815877
 20
-13.7231465908
 10
0.7926608827
 20
-13.7262694149
 10
0.7972158382
 20
-13.7294007485
 10
0.8018462753
 20
-13.7325459832
 10
0.8065520154
 20
-13.7357105101
  0
LINE
  5
2AD
100
AcDbEntity
  8
CURVE
100
AcDbLine
 62
253
  6
CONTINUOUS
 10
-2.6120959564
 20
13.5643764053
 11
-2.6263834564
 21
13.4821086276
  0
LWPOLYLINE
  5
2AE
100
AcDbEntity
  8
ASSI
100
AcDbPolyline
 62
253
  6
CONTINUOUS
 90
11
 70
0
 10
-11.1564052053
 20
-21.5437958176
 10
-11.1556890951
 20
-21.5407922276
 10
-11.1549780472
 20
-21.5361322305
 10
-11.1542720616
 20
-21.5298158264
 10
-11.153569952
 20
-21.5218268596
 10
-11.1528729046
 20
-21.5121814857
 10
-11.1521844786
 20
-21.5009281712
 10
-11.1515047254
 20
-21.4880586306
 10
-11.1508335936
 20
-21.4735811494
 10
-11.1501744876
 20
-21.4575690502
 10
-11.1488924956
 20
-21.4209258394
  0
LWPOLYLINE
  5
2AF
100
AcDbEntity
  8
CURVE
100
AcDbPolyline
 62
253
  6
CONTINUOUS
 90
18
 70
0
 10
0.5702065428
 20
13.6177164053
 10
0.5694358031
 20
13.6160490197
 10
0.5687442304
 20
13.614336775
 10
0.5681271252
 20
13.6125817971
 10
0.5675797877
 20
13.6107862119
 10
0.5670975182
 20
13.6089521454
 10
0.5666756172
 20
13.6070817235
 10
0.5662420679
 20
13.6047925004
 10
0.5658785367
 20
13.602459334
 10
0.5655748788
 20
13.6000875719
 10
0.5653209493
 20
13.5976825612
 10
0.5651066034
 20
13.5952496492
 10
0.5648173054
 20
13.5911415523
 10
0.5646080288
 20
13.5869609747
 10
0.5644770205
 20
13.5826980854
 10
0.5644212619
 20
13.5783436211
 10
0.5644326701
 20
13.5738905887
 10
0.5645018966
 20
13.5693325628
  0
LINE
  5
2B0
100
AcDbEntity
  8
CURVE
100
AcDbLine
 62
253
  6
CONTINUOUS
 10
1.457230987
 20
14.5180405718
 11
1.4208595981
 21
14.4494605718
  0
LINE
  5
2B1
100
AcDbEntity
  8
CURVE
100
AcDbLine
 62
253
  6
CONTINUOUS
 10
0.5949009872
 20
12.4160141834
 11
0.5645268206
 21
12.3610161279
  0
LINE
  5
2B2
100
AcDbEntity
  8
CURVE
100
AcDbLine
 62
253
  6
CONTINUOUS
 10
1.4727179314
 20
11.5800719614
 11
1.4226587648
 21
11.5030252947
  0
LINE
  5
2B3
100
AcDbEntity
  8
CURVE
100
AcDbLine
 62
253
  6
CONTINUOUS
 10
2.3478749872
 20
10.7310327434
 11
2.2769454312
 21
10.6489150172
  0
LWPOLYLINE
  5
2B4
100
AcDbEntity
  8
CURVE
100
AcDbPolyline
 62
253
  6
CONTINUOUS
 90
59
 70
0
 10
2.5081559867
 20
10.517505295
 10
2.5811418147
 20
10.591864773
 10
2.6536671022
 20
10.6669884554
 10
2.7014803092
 20
10.7178351963
 10
2.7485522294
 20
10.7694657809
 10
2.794576295
 20
10.8220055723
 10
2.8392856219
 20
10.8755463395
 10
2.8825720618
 20
10.9300454749
 10
2.9243671503
 20
10.9854267768
 10
2.9646378559
 20
11.0416323363
 10
3.0034928798
 20
11.0986774164
 10
3.0410763561
 20
11.1565955732
 10
3.0775434274
 20
11.2154807827
 10
3.1130932705
 20
11.2756686997
 10
3.1479360703
 20
11.3375553992
 10
3.1822522961
 20
11.4015376095
 10
3.2161035528
 20
11.4680146736
 10
3.2495217294
 20
11.537386588
 10
3.2743113992
 20
11.5915589131
 10
3.2988352299
 20
11.6477714634
 10
3.3230530523
 20
11.706211113
 10
3.3469246974
 20
11.7670647357
 10
3.3703900344
 20
11.8304929816
 10
3.3933090864
 20
11.8965516051
 10
3.4155219152
 20
11.9652701364
 10
3.4368685823
 20
12.0366781061
 10
3.4571809632
 20
12.1107650217
 10
3.4762581882
 20
12.1873602986
 10
3.4938912017
 20
12.2662533295
 10
3.5098709478
 20
12.3472335069
 10
3.5240075547
 20
12.4301028538
 10
3.5361878856
 20
12.5147139151
 10
3.5463179879
 20
12.6009318657
 10
3.5543039089
 20
12.688621881
 10
3.5600512225
 20
12.7776710889
 10
3.5634636109
 20
12.8680544302
 10
3.5644442828
 20
12.9597687981
 10
3.5628964471
 20
13.0528110863
 10
3.5587124059
 20
13.1471737365
 10
3.5517408347
 20
13.2428313831
 10
3.5418195018
 20
13.3397542087
 10
3.5287861759
 20
13.437912396
 10
3.5124966287
 20
13.5372331433
 10
3.4928786444
 20
13.6374717114
 10
3.4698780101
 20
13.7383403765
 10
3.4434405132
 20
13.8395514151
 10
3.4135305181
 20
13.9408177617
 10
3.3801866976
 20
14.0418549831
 10
3.3434663016
 20
14.1423793042
 10
3.30342658
 20
14.2421069501
 10
3.2601533203
 20
14.3407320732
 10
3.21384646
 20
14.4378605357
 10
3.1647344741
 20
14.5330761273
 10
3.1130458378
 20
14.6259626377
 10
3.0699597292
 20
14.6983566874
 10
3.0252864891
 20
14.7690294892
 10
2.9789418182
 20
14.8380167818
 10
2.9308414172
 20
14.9053543038
 10
2.8809009867
 20
14.9710777939
  0
LINE
  5
2B5
100
AcDbEntity
  8
ASSI
100
AcDbLine
 62
253
  6
CONTINUOUS
 10
-11.2408761489
 20
0.2555917917
 11
-11.1325049116
 21
0.3097732837
  0
LINE
  5
2B6
100
AcDbEntity
  8
ASSI
100
AcDbLine
 62
253
  6
CONTINUOUS
 10
-11.0408761477
 20
0.055614637
 11
-10.9325350824
 21
0.1097810441
  0
LINE
  5
2B7
100
AcDbEntity
  8
ASSI
100
AcDbLine
 62
253
  6
CONTINUOUS
 10
-11.1325049116
 20
-0.3985440097
 11
-11.2408761489
 21
-0.3443625177
  0
LINE
  5
2B8
100
AcDbEntity
  8
ASSI
100
AcDbLine
 62
253
  6
CONTINUOUS
 10
-10.9325350824
 20
-0.1985517701
 11
-11.0408761477
 21
-0.144385363
  0
LWPOLYLINE
  5
2B9
100
AcDbEntity
  8
CURVE
100
AcDbPolyline
 62
253
  6
CONTINUOUS
 90
5
 70
0
 10
3.9395538186
 20
-12.5129676248
 10
3.9423330615
 20
-12.5157720341
 10
3.9450665617
 20
-12.5185828803
 10
3.9477556699
 20
-12.5214209174
 10
3.9504017369
 20
-12.5243068993
  0
LWPOLYLINE
  5
2BA
100
AcDbEntity
  8
CURVE
100
AcDbPolyline
 62
253
  6
CONTINUOUS
 90
56
 70
0
 10
4.025472848
 20
-12.5913699548
 10
4.0376240497
 20
-12.6042222588
 10
4.0492850342
 20
-12.6173335444
 10
4.0604910492
 20
-12.6307218077
 10
4.0712773425
 20
-12.6444050449
 10
4.0816723786
 20
-12.6583962265
 10
4.0916774892
 20
-12.6726882207
 10
4.1012872228
 20
-12.6872688699
 10
4.1104961279
 20
-12.7021260168
 10
4.1192981405
 20
-12.717246284
 10
4.1276847469
 20
-12.7326114155
 10
4.1356468205
 20
-12.7482019355
 10
4.1431752351
 20
-12.7639983682
 10
4.1502623343
 20
-12.7799830417
 10
4.1569063422
 20
-12.7961454996
 10
4.1631069529
 20
-12.8124770892
 10
4.1688638604
 20
-12.8289691582
 10
4.1741764643
 20
-12.8456124436
 10
4.1790429854
 20
-12.8623952416
 10
4.1834613501
 20
-12.8793052379
 10
4.1874294848
 20
-12.8963301183
 10
4.1909439047
 20
-12.9134574825
 10
4.1939954802
 20
-12.9306745855
 10
4.1965736708
 20
-12.9479685964
 10
4.1986679359
 20
-12.9653266842
 10
4.2002698784
 20
-12.9827361694
 10
4.2013796759
 20
-13.0001849801
 10
4.2019996495
 20
-13.0176611958
 10
4.2021321206
 20
-13.0351528962
 10
4.2017800971
 20
-13.0526479411
 10
4.2009493346
 20
-13.0701333117
 10
4.1996462757
 20
-13.0875957696
 10
4.1978773629
 20
-13.1050220764
 10
4.1952924183
 20
-13.1248764298
 10
4.1921100779
 20
-13.1446454531
 10
4.1883329933
 20
-13.1643083253
 10
4.1839638164
 20
-13.1838442251
 10
4.1790051989
 20
-13.2032323315
 10
4.1734597925
 20
-13.2224518232
 10
4.167330249
 20
-13.2414818793
 10
4.1614889347
 20
-13.2579618294
 10
4.1551989564
 20
-13.2742693476
 10
4.1484568497
 20
-13.2903929797
 10
4.1412591504
 20
-13.3063212717
 10
4.133602018
 20
-13.3220392433
 10
4.1254801073
 20
-13.3375178087
 10
4.1168876966
 20
-13.3527243562
 10
4.1078190646
 20
-13.3676262738
 10
4.0982728643
 20
-13.3821964729
 10
4.0882652473
 20
-13.3964299579
 10
4.0778167396
 20
-13.4103272565
 10
4.0669478673
 20
-13.4238888965
 10
4.055676526
 20
-13.4371254311
 10
4.0440100894
 20
-13.4500875165
 10
4.0319533008
 20
-13.4628358341
 10
4.0195109035
 20
-13.4754310657
  0
LWPOLYLINE
  5
2BB
100
AcDbEntity
  8
CURVE
100
AcDbPolyline
 62
253
  6
CONTINUOUS
 90
30
 70
0
 10
2.9730661816
 20
-11.4252982885
 10
2.9712854202
 20
-11.4231366266
 10
2.9694315196
 20
-11.4210154441
 10
2.9675057709
 20
-11.4189336018
 10
2.9655094652
 20
-11.4168899602
 10
2.9634438935
 20
-11.4148833801
 10
2.9613103469
 20
-11.4129127222
 10
2.9591101164
 20
-11.410976847
 10
2.9568444931
 20
-11.4090746153
 10
2.9545147681
 20
-11.4072048877
 10
2.9518190564
 20
-11.405138805
 10
2.9490471464
 20
-11.4031103576
 10
2.9462023348
 20
-11.4011174847
 10
2.9432879182
 20
-11.3991581255
 10
2.9403070763
 20
-11.397229983
 10
2.9372625226
 20
-11.3953298154
 10
2.934156854
 20
-11.3934541445
 10
2.9309926671
 20
-11.3915994923
 10
2.9277730824
 20
-11.3897624719
 10
2.9245033157
 20
-11.3879400614
 10
2.9211891063
 20
-11.3861293304
 10
2.9178361936
 20
-11.3843273482
 10
2.9133140776
 20
-11.3819347457
 10
2.9087392793
 20
-11.3795545184
 10
2.9041177191
 20
-11.3771886979
 10
2.8994531889
 20
-11.3748380775
 10
2.8947409679
 20
-11.3724984981
 10
2.8899742075
 20
-11.3701645623
 10
2.885148597
 20
-11.3678320386
 10
2.8753467371
 20
-11.3631741218
  0
LINE
  5
2BC
100
AcDbEntity
  8
CURVE
100
AcDbLine
 62
253
  6
CONTINUOUS
 10
-4.2616495671
 20
14.6906900162
 11
-4.2616495671
 21
11.2102903693
  0
LINE
  5
2BD
100
AcDbEntity
  8
CURVE
100
AcDbLine
 62
253
  6
CONTINUOUS
 10
-3.975299845
 20
11.2102902948
 11
-3.975299845
 21
14.6906899417
  0
LWPOLYLINE
  5
2BE
100
AcDbEntity
  8
CURVE
100
AcDbPolyline
 62
253
  6
CONTINUOUS
 90
89
 70
0
 10
-4.7061299347
 20
-13.0314425936
 10
-4.7051742105
 20
-12.972937907
 10
-4.7023221173
 20
-12.915047304
 10
-4.6975962739
 20
-12.8576414817
 10
-4.6910192989
 20
-12.8005911375
 10
-4.6826083546
 20
-12.7437929155
 10
-4.672358776
 20
-12.6872472472
 10
-4.6602604415
 20
-12.6309805109
 10
-4.6463032294
 20
-12.5750190849
 10
-4.6304832505
 20
-12.5194019247
 10
-4.6128215445
 20
-12.4642182948
 10
-4.5933453835
 20
-12.4095700369
 10
-4.5720820398
 20
-12.3555589926
 10
-4.5490588876
 20
-12.3022791783
 10
-4.5243037103
 20
-12.2497933086
 10
-4.4978443935
 20
-12.1981562731
 10
-4.4697088229
 20
-12.1474229612
 10
-4.4355393391
 20
-12.0906175084
 10
-4.3992719393
 20
-12.0351368328
 10
-4.3609616784
 20
-11.9810536456
 10
-4.3206636111
 20
-11.9284406583
 10
-4.2784327924
 20
-11.8773705821
 10
-4.234324277
 20
-11.8279161283
 10
-4.1883931197
 20
-11.7801500082
 10
-4.1406975654
 20
-11.7341423164
 10
-4.0913086181
 20
-11.6899526802
 10
-4.0403004721
 20
-11.64763811
 10
-3.9877473215
 20
-11.6072556164
 10
-3.9337233603
 20
-11.5688622097
 10
-3.8783027826
 20
-11.5325149007
 10
-3.8215597827
 20
-11.4982706996
 10
-3.7635705041
 20
-11.4661830502
 10
-3.7044188887
 20
-11.4362911281
 10
-3.644190828
 20
-11.4086305424
 10
-3.5829722134
 20
-11.3832369019
 10
-3.5208489362
 20
-11.3601458154
 10
-3.457906888
 20
-11.3393928919
 10
-3.3942319601
 20
-11.3210137403
 10
-3.3299111016
 20
-11.3050400747
 10
-3.2650354921
 20
-11.2914880304
 10
-3.1996973686
 20
-11.280369848
 10
-3.1339889683
 20
-11.271697768
 10
-3.0680025285
 20
-11.2654840309
 10
-3.0018302862
 20
-11.2617408774
 10
-2.9355644786
 20
-11.260480548
 10
-2.8692973644
 20
-11.2617112336
 10
-2.8031212879
 20
-11.2654249266
 10
-2.7371286149
 20
-11.2716095696
 10
-2.6714117111
 20
-11.2802531053
 10
-2.6060629425
 20
-11.2913434766
 10
-2.5411746748
 20
-11.3048686259
 10
-2.4768392739
 20
-11.3208164961
 10
-2.4131480671
 20
-11.3391710938
 10
-2.3501882285
 20
-11.3599006815
 10
-2.2880458935
 20
-11.3829695857
 10
-2.2268071979
 20
-11.408342133
 10
-2.1665582771
 20
-11.4359826496
 10
-2.1073852668
 20
-11.4658554622
 10
-2.0493743026
 20
-11.4979248972
 10
-1.9926095192
 20
-11.5321517486
 10
-1.9371670478
 20
-11.5684826797
 10
-1.8831210189
 20
-11.6068608216
 10
-1.830545563
 20
-11.6472293051
 10
-1.7795148104
 20
-11.6895312613
 10
-1.7301028916
 20
-11.7337098209
 10
-1.6823839371
 20
-11.7797081149
 10
-1.636428948
 20
-11.8274665442
 10
-1.592296409
 20
-11.8769145889
 10
-1.5500416753
 20
-11.9279789994
 10
-1.5097201023
 20
-11.9805865256
 10
-1.4713870454
 20
-12.0346639179
 10
-1.43509786
 20
-12.0901379264
 10
-1.4009079013
 20
-12.1469353012
 10
-1.3727555734
 20
-12.1976602177
 10
-1.3462800147
 20
-12.2492885253
 10
-1.3215083927
 20
-12.3017664948
 10
-1.2984678745
 20
-12.3550403968
 10
-1.2771856703
 20
-12.4090488384
 10
-1.2576891607
 20
-12.463699772
 10
-1.2400057693
 20
-12.5188934867
 10
-1.2241629195
 20
-12.5745302713
 10
-1.2101819636
 20
-12.630522442
 10
-1.1980599688
 20
-12.6868304243
 10
-1.1877879312
 20
-12.7434266709
 10
-1.1793568469
 20
-12.8002836346
 10
-1.1727630837
 20
-12.8573999382
 10
-1.1680244963
 20
-12.9148788841
 10
-1.1651643112
 20
-12.9728499451
 10
-1.1642057547
 20
-13.0314425936
  0
LINE
  5
2BF
100
AcDbEntity
  8
ASSI
100
AcDbLine
 62
253
  6
CONTINUOUS
 10
-11.2277222438
 20
-21.7579209227
 11
-11.1564052053
 21
-21.5437958176
  0
LINE
  5
2C0
100
AcDbEntity
  8
ASSI
100
AcDbLine
 62
253
  6
CONTINUOUS
 10
-11.1564052053
 20
21.4550250916
 11
-11.2277222438
 21
21.6691501968
  0
LINE
  5
2C1
100
AcDbEntity
  8
CURVE
100
AcDbLine
 62
253
  6
CONTINUOUS
 10
-2.6263834564
 20
13.4821086276
 11
-2.6263834564
 21
12.4145325635
  0
LINE
  5
2C2
100
AcDbEntity
  8
CURVE
100
AcDbLine
 62
253
  6
CONTINUOUS
 10
-2.349594012
 20
12.5088300167
 11
-2.349594012
 21
13.3933497181
  0
LWPOLYLINE
  5
2C3
100
AcDbEntity
  8
ASSI
100
AcDbPolyline
 62
253
  6
CONTINUOUS
 90
76
 70
0
 10
-1.5114839167
 20
4.456514817
 10
-1.5103114459
 20
4.5150117957
 10
-1.5066834839
 20
4.5734526426
 10
-1.5006000308
 20
4.631837357
 10
-1.492058629
 20
4.6903082607
 10
-1.4810617359
 20
4.7487230305
 10
-1.4676167247
 20
4.8066546998
 10
-1.4516916562
 20
4.8641000029
 10
-1.4333184695
 20
4.9210622074
 10
-1.412600355
 20
4.9771241492
 10
-1.3895116162
 20
5.0322681636
 10
-1.3640779495
 20
5.08651192
 10
-1.3364796345
 20
5.1394912585
 10
-1.306719693
 20
5.191162148
 10
-1.2747951031
 20
5.2415686268
 10
-1.2408770791
 20
5.2904786412
 10
-1.2049682135
 20
5.3378787685
 10
-1.1670659138
 20
5.3837824398
 10
-1.1273336165
 20
5.4279978838
 10
-1.0857519332
 20
5.4705342785
 10
-1.0423402524
 20
5.5113824548
 10
-0.9973201768
 20
5.5503231218
 10
-0.9506741896
 20
5.5873509245
 10
-0.9024198075
 20
5.6224712273
 10
-0.8528311836
 20
5.6554808187
 10
-0.8019066134
 20
5.6863621404
 10
-0.7496478014
 20
5.7151327598
 10
-0.6963340143
 20
5.7416421543
 10
-0.6419636142
 20
5.7658770456
 10
-0.5865382391
 20
5.7878507198
 10
-0.530342069
 20
5.8074525002
 10
-0.4733699873
 20
5.8246713513
 10
-0.4156271108
 20
5.8395183146
 10
-0.3574129693
 20
5.8519158285
 10
-0.2987228173
 20
5.8618515292
 10
-0.2395614003
 20
5.8693377844
 10
-0.1802424858
 20
5.874334129
 10
-0.1207657601
 20
5.8768270826
 10
-0.0611315369
 20
5.8768301269
 10
-0.0016545238
 20
5.8743432394
 10
0.0576649971
 20
5.8693529289
 10
0.116827308
 20
5.8618726853
 10
0.1755185477
 20
5.8519429573
 10
0.2337339976
 20
5.8395513481
 10
0.2914783763
 20
5.8247102507
 10
0.3484519792
 20
5.8074972981
 10
0.4046495857
 20
5.7879014766
 10
0.4600764163
 20
5.7659337938
 10
0.5144484277
 20
5.7417049142
 10
0.5677638458
 20
5.7152016908
 10
0.6200244447
 20
5.6864372626
 10
0.6709515034
 20
5.6555617233
 10
0.7205435272
 20
5.6225574498
 10
0.7688020109
 20
5.5874420561
 10
0.8154527177
 20
5.5504184922
 10
0.8604785072
 20
5.511480906
 10
0.9038965198
 20
5.4706351402
 10
0.9454839405
 20
5.4281016879
 10
0.9852210346
 20
5.3838897613
 10
1.0231275366
 20
5.3379901393
 10
1.0590398356
 20
5.2905956659
 10
1.0929598964
 20
5.2416940383
 10
1.1248857541
 20
5.1912975511
 10
1.154647903
 20
5.1396359462
 10
1.1822497396
 20
5.0866656377
 10
1.2076878675
 20
5.0324302043
 10
1.2307825921
 20
4.977290137
 10
1.2515089406
 20
4.9212267238
 10
1.2698918858
 20
4.864258672
 10
1.2858266515
 20
4.8068026032
 10
1.2992813607
 20
4.7488542893
 10
1.3102878903
 20
4.6904179569
 10
1.3188370954
 20
4.6319229119
 10
1.3249259277
 20
4.5735122577
 10
1.3285574355
 20
4.5150428925
 10
1.3297316189
 20
4.456514817
  0
LINE
  5
2C4
100
AcDbEntity
  8
CURVE
100
AcDbLine
 62
253
  6
CONTINUOUS
 10
-0.3317756792
 20
11.3830808503
 11
-0.3180526237
 21
11.465207517
  0
LWPOLYLINE
  5
2C5
100
AcDbEntity
  8
CURVE
100
AcDbPolyline
 62
253
  6
CONTINUOUS
 90
28
 70
0
 10
0.5645268206
 20
12.3610161279
 10
0.5640934816
 20
12.3590128043
 10
0.5637098835
 20
12.3569986059
 10
0.5633744207
 20
12.3549739144
 10
0.5630854877
 20
12.3529391113
 10
0.562841479
 20
12.3508945783
 10
0.5626407889
 20
12.3488406969
 10
0.5624818119
 20
12.3467778487
 10
0.5623629425
 20
12.3447064154
 10
0.5622825751
 20
12.3426267785
 10
0.5622391042
 20
12.3405393196
 10
0.5622309241
 20
12.3384444204
 10
0.5622564293
 20
12.3363424623
 10
0.5623400953
 20
12.3335294524
 10
0.5624771945
 20
12.330705006
 10
0.5626641297
 20
12.3278695572
 10
0.5628973032
 20
12.3250235401
 10
0.5631731177
 20
12.3221673889
 10
0.5634879759
 20
12.3193015376
 10
0.5638382802
 20
12.3164264203
 10
0.5642204333
 20
12.3135424711
 10
0.5646308377
 20
12.3106501242
 10
0.5652928754
 20
12.3062961982
 10
0.5660062184
 20
12.3019221635
 10
0.5667667005
 20
12.2975258296
 10
0.5675701556
 20
12.293105006
 10
0.5684124177
 20
12.2886575022
 10
0.5692893206
 20
12.2841811279
  0
LINE
  5
2C6
100
AcDbEntity
  8
ASSI
100
AcDbLine
 62
253
  6
CONTINUOUS
 10
-10.7273424206
 20
-22.2558666505
 11
-10.6564816601
 21
-22.0431114927
  0
LWPOLYLINE
  5
2C7
100
AcDbEntity
  8
ASSI
100
AcDbPolyline
 62
253
  6
CONTINUOUS
 90
7
 70
0
 10
10.7507827847
 20
-0.1985517701
 10
10.7501012778
 20
-0.1986876838
 10
10.7486289761
 20
-0.198822418
 10
10.7463658798
 20
-0.1989559727
 10
10.743301817
 20
-0.1990887043
 10
10.7394469595
 20
-0.1992202564
 10
10.7348318223
 20
-0.1993495601
  0
LWPOLYLINE
  5
2C8
100
AcDbEntity
  8
ASSI
100
AcDbPolyline
 62
253
  6
CONTINUOUS
 90
5
 70
0
 10
10.9507526135
 20
-0.3985440634
 10
10.9496315765
 20
-0.3986873936
 10
10.9471733405
 20
-0.3988295529
 10
10.9433847542
 20
-0.3989704921
 10
10.9382764891
 20
-0.3991104759
  0
LINE
  5
2C9
100
AcDbEntity
  8
ASSI
100
AcDbLine
 62
253
  6
CONTINUOUS
 10
-10.6564816601
 20
21.9543407666
 11
-10.7273424206
 21
22.1670959246
  0
LINE
  5
2CA
100
AcDbEntity
  8
CURVE
100
AcDbLine
 62
253
  6
CONTINUOUS
 10
0.7019534043
 20
-13.5675060657
 11
0.7284822932
 21
-13.6674832879
  0
LINE
  5
2CB
100
AcDbEntity
  8
CURVE
100
AcDbLine
 62
253
  6
CONTINUOUS
 10
-0.5948773458
 20
14.2014225163
 11
-0.5948773458
 21
11.7011804869
  0
LINE
  5
2CC
100
AcDbEntity
  8
CURVE
100
AcDbLine
 62
253
  6
CONTINUOUS
 10
-0.3180526237
 20
11.465207517
 11
-0.3180526237
 21
14.4365136557
  0
LWPOLYLINE
  5
2CD
100
AcDbEntity
  8
CURVE
100
AcDbPolyline
 62
253
  6
CONTINUOUS
 90
89
 70
0
 10
-1.1642057547
 20
-13.0314425936
 10
-1.1651615264
 20
-13.0899486795
 10
-1.1680137622
 20
-13.1478407056
 10
-1.1727398429
 20
-13.2052479829
 10
-1.1793171495
 20
-13.2622998229
 10
-1.1877285261
 20
-13.3190995988
 10
-1.1979786702
 20
-13.3756469331
 10
-1.2100777427
 20
-13.4319155104
 10
-1.2240359043
 20
-13.4878790152
 10
-1.2398570738
 20
-13.5434985263
 10
-1.257520201
 20
-13.5986846992
 10
-1.2769979941
 20
-13.6533355837
 10
-1.2982631609
 20
-13.7073492295
 10
-1.3212883097
 20
-13.7606315283
 10
-1.3460456505
 20
-13.8131197399
 10
-1.3725072935
 20
-13.8647589661
 10
-1.4006453492
 20
-13.9154943087
 10
-1.4348178514
 20
-13.9723018705
 10
-1.4710884016
 20
-14.027784395
 10
-1.5094018752
 20
-14.0818691313
 10
-1.5497031474
 20
-14.1344833286
 10
-1.5919370934
 20
-14.185554236
 10
-1.6360485886
 20
-14.2350091028
 10
-1.6819825082
 20
-14.282775178
 10
-1.7296805435
 20
-14.328782342
 10
-1.7790716495
 20
-14.3729710006
 10
-1.8300815974
 20
-14.4152841906
 10
-1.8826361584
 20
-14.4556649488
 10
-1.9366611034
 20
-14.4940563123
 10
-1.9920822035
 20
-14.5304013179
 10
-2.04882523
 20
-14.5646430024
 10
-2.106814011
 20
-14.5967279712
 10
-2.1659646035
 20
-14.6266171027
 10
-2.2261911215
 20
-14.6542748438
 10
-2.2874076792
 20
-14.6796656413
 10
-2.3495283906
 20
-14.7027539421
 10
-2.4124673697
 20
-14.7235041929
 10
-2.4761387308
 20
-14.7418808406
 10
-2.5404555409
 20
-14.7578522231
 10
-2.6053266795
 20
-14.7714022422
 10
-2.6706599791
 20
-14.7825186909
 10
-2.7363632722
 20
-14.791189362
 10
-2.8023443912
 20
-14.7974020485
 10
-2.8685111687
 20
-14.8011445433
 10
-2.9347714371
 20
-14.8024046392
 10
-3.0010330078
 20
-14.8011741679
 10
-3.0672036066
 20
-14.7974611153
 10
-3.1331909384
 20
-14.791277506
 10
-3.1989027079
 20
-14.7826353647
 10
-3.2642466197
 20
-14.771546716
 10
-3.3291303786
 20
-14.7580235845
 10
-3.3934616894
 20
-14.7420779949
 10
-3.4571492846
 20
-14.7237259037
 10
-3.5201060083
 20
-14.7029989955
 10
-3.5822457324
 20
-14.6799328867
 10
-3.6434823289
 20
-14.6545631937
 10
-3.7037296698
 20
-14.626925533
 10
-3.7629016268
 20
-14.597055521
 10
-3.820912072
 20
-14.5649887742
 10
-3.8776768708
 20
-14.5307644432
 10
-3.9331198627
 20
-14.4944358155
 10
-3.9871668804
 20
-14.456059713
 10
-4.0397437569
 20
-14.4156929572
 10
-4.0907763252
 20
-14.37339237
 10
-4.1401904181
 20
-14.3292147731
 10
-4.1879118684
 20
-14.2832169883
 10
-4.2338696327
 20
-14.2354585825
 10
-4.2780051608
 20
-14.1860101041
 10
-4.3202630263
 20
-14.1349448467
 10
-4.3605878026
 20
-14.082336104
 10
-4.3989240632
 20
-14.0282571696
 10
-4.4352163816
 20
-13.9727813372
 10
-4.4694093312
 20
-13.9159819004
 10
-4.4975641117
 20
-13.8652550145
 10
-4.5240419602
 20
-13.8136245925
 10
-4.5488157096
 20
-13.7611443674
 10
-4.571858193
 20
-13.7078680722
 10
-4.5931421973
 20
-13.6538571197
 10
-4.6126403255
 20
-13.5992036418
 10
-4.6303251344
 20
-13.5440074501
 10
-4.6461691806
 20
-13.4883683563
 10
-4.6601511016
 20
-13.432374118
 10
-4.6722738566
 20
-13.3760642775
 10
-4.6825464852
 20
-13.3194663233
 10
-4.6909780274
 20
-13.2626077437
 10
-4.6975721447
 20
-13.2054898654
 10
-4.7023109871
 20
-13.1480093686
 10
-4.7051713264
 20
-13.0900367718
 10
-4.7061299347
 20
-13.0314425936
  0
LWPOLYLINE
  5
2CE
100
AcDbEntity
  8
ASSI
100
AcDbPolyline
 62
253
  6
CONTINUOUS
 90
76
 70
0
 10
-1.5114839167
 20
-4.545285543
 10
-1.510329386
 20
-4.4867772484
 10
-1.5067184432
 20
-4.4283244451
 10
-1.5006510882
 20
-4.3699271342
 10
-1.4921248966
 20
-4.3114429251
 10
-1.4811422928
 20
-4.25301421
 10
-1.4677105502
 20
-4.1950681653
 10
-1.4517977073
 20
-4.137608054
 10
-1.4334357257
 20
-4.0806306174
 10
-1.4127277636
 20
-4.0245532514
 10
-1.38964811
 20
-3.9693936452
 10
-1.364222476
 20
-3.9151341159
 10
-1.3366311525
 20
-3.8621390028
 10
-1.3068771738
 20
-3.8104523873
 10
-1.2749575057
 20
-3.7600301953
 10
-1.2410433364
 20
-3.7111045341
 10
-1.2051372585
 20
-3.66368882
 10
-1.1672366794
 20
-3.6177696439
 10
-1.1275050102
 20
-3.5735388749
 10
-1.0859228422
 20
-3.5309873151
 10
-1.0425095842
 20
-3.4901241692
 10
-0.9974868737
 20
-3.451168911
 10
-0.9508371804
 20
-3.4141269013
 10
-0.9025780348
 20
-3.3789927856
 10
-0.8529836652
 20
-3.3459699642
 10
-0.8020523509
 20
-3.3150760063
 10
-0.7497858128
 20
-3.2862933483
 10
-0.6964634415
 20
-3.2597726918
 10
-0.6420835795
 20
-3.2355273265
 10
-0.5866478843
 20
-3.2135439672
 10
-0.5304407201
 20
-3.1939334529
 10
-0.473456951
 20
-3.1767068353
 10
-0.4157017129
 20
-3.161853066
 10
-0.3574747776
 20
-3.1494498333
 10
-0.298771385
 20
-3.1395095227
 10
-0.2395962952
 20
-3.1320197508
 10
-0.1802635608
 20
-3.1270210521
 10
-0.1207728654
 20
-3.1245269311
 10
-0.0611245253
 20
-3.1245238841
 10
-0.0016335422
 20
-3.1270119337
 10
0.0576997991
 20
-3.1320045929
 10
0.1168757835
 20
-3.139488348
 10
0.1755802648
 20
-3.1494226806
 10
0.23380851
 20
-3.1618200034
 10
0.2915652522
 20
-3.1766679018
 10
0.3485505445
 20
-3.193888616
 10
0.4047591471
 20
-3.2134931665
 10
0.4601962999
 20
-3.2354705295
 10
0.5145777755
 20
-3.2597098781
 10
0.5679017799
 20
-3.2862243586
 10
0.6201701071
 20
-3.3150008201
 10
0.6711039123
 20
-3.3458889907
 10
0.7207016847
 20
-3.3789064895
 10
0.7689649351
 20
-3.4140356917
 10
0.8156193519
 20
-3.4510734591
 10
0.8606477814
 20
-3.4900256347
 10
0.9040673773
 20
-3.5308863691
 10
0.9456552889
 20
-3.5734349858
 10
0.9853917613
 20
-3.6176622377
 10
1.0232965494
 20
-3.6635773652
 10
1.0592060666
 20
-3.7109874241
 10
1.0931222772
 20
-3.7599046944
 10
1.1250432169
 20
-3.810316889
 10
1.1547994069
 20
-3.8619942135
 10
1.1823942561
 20
-3.9149802888
 10
1.2078243556
 20
-3.9692314869
 10
1.2309099994
 20
-4.0243871413
 10
1.2516262007
 20
-4.0804659786
 10
1.2699979464
 20
-4.1374492661
 10
1.2859204908
 20
-4.1949201506
 10
1.2993619341
 20
-4.2528828525
 10
1.310354176
 20
-4.3113331471
 10
1.3188881701
 20
-4.3698415159
 10
1.3249609009
 20
-4.428264786
 10
1.3285753838
 20
-4.4867461287
 10
1.3297316189
 20
-4.545285543
  0
LWPOLYLINE
  5
2CF
100
AcDbEntity
  8
ASSI
100
AcDbPolyline
 62
253
  6
CONTINUOUS
 90
76
 70
0
 10
-1.4114991471
 20
-4.544385363
 10
-1.4103943008
 20
-4.4901536891
 10
-1.4070444443
 20
-4.4357850305
 10
-1.4014270413
 20
-4.3813736418
 10
-1.393517902
 20
-4.3269823088
 10
-1.3833052534
 20
-4.2727432106
 10
-1.3708038256
 20
-4.2188551403
 10
-1.356019607
 20
-4.1654148515
 10
-1.3389635796
 20
-4.1125222733
 10
-1.3196896431
 20
-4.0603749396
 10
-1.2982325403
 20
-4.0090729871
 10
-1.2746255028
 20
-3.9587013604
 10
-1.2489484375
 20
-3.9094242231
 10
-1.2212727446
 20
-3.8613563113
 10
-1.1916380323
 20
-3.8145457899
 10
-1.1600883643
 20
-3.7690503241
 10
-1.1266897366
 20
-3.7249554836
 10
-1.0914987131
 20
-3.6823268895
 10
-1.0545415754
 20
-3.6411944848
 10
-1.0158681071
 20
-3.6016189751
 10
-0.9755566352
 20
-3.5636855785
 10
-0.9336752487
 20
-3.5274617571
 10
-0.8902887465
 20
-3.4930076858
 10
-0.8454785968
 20
-3.4603920454
 10
-0.7993438159
 20
-3.4296880766
 10
-0.751972495
 20
-3.4009530459
 10
-0.7034422302
 20
-3.3742326941
 10
-0.6538416001
 20
-3.3495748039
 10
-0.6032617785
 20
-3.3270232537
 10
-0.5517888513
 20
-3.3066150063
 10
-0.4995060729
 20
-3.2883824668
 10
-0.4465040177
 20
-3.2723572566
 10
-0.3928772107
 20
-3.2585679902
 10
-0.3387162272
 20
-3.2470381419
 10
-0.2841140732
 20
-3.2377880774
 10
-0.2291688094
 20
-3.2308349705
 10
-0.1739797163
 20
-3.2261916323
 10
-0.1186443894
 20
-3.223866317
 10
-0.0632596274
 20
-3.2238631349
 10
-0.0079239531
 20
-3.2261820969
 10
0.0472658626
 20
-3.2308191168
 10
0.1022121923
 20
-3.2377659611
 10
0.1568156646
 20
-3.2470098234
 10
0.2109782573
 20
-3.2585335497
 10
0.2646069185
 20
-3.2723167776
 10
0.3176108635
 20
-3.2883359749
 10
0.3698954721
 20
-3.3065624739
 10
0.4213702795
 20
-3.3269646659
 10
0.4719521329
 20
-3.349510174
 10
0.5215547938
 20
-3.3741619503
 10
0.5700872582
 20
-3.4008761841
 10
0.6174614909
 20
-3.4296054338
 10
0.6636000094
 20
-3.4603041286
 10
0.7084145206
 20
-3.4929149745
 10
0.7518060253
 20
-3.5273648476
 10
0.7936934113
 20
-3.5635855069
 10
0.8340113671
 20
-3.6015164945
 10
0.872690643
 20
-3.6410892371
 10
0.9096528333
 20
-3.6822182551
 10
0.9448484023
 20
-3.7248429235
 10
0.9782506334
 20
-3.7689324952
 10
1.0098025
 20
-3.8144202373
 10
1.0394389388
 20
-3.8612213987
 10
1.0671173688
 20
-3.9092805352
 10
1.0927980098
 20
-3.958549355
 10
1.1164094978
 20
-4.0089133981
 10
1.1378730498
 20
-4.0602116705
 10
1.1571552977
 20
-4.1123604378
 10
1.1742205653
 20
-4.1652587545
 10
1.1890144621
 20
-4.2187093474
 10
1.201525581
 20
-4.2726128993
 10
1.2117472348
 20
-4.3268721646
 10
1.2196639597
 20
-4.3812868538
 10
1.2252871369
 20
-4.4357242129
 10
1.2286406991
 20
-4.490121844
 10
1.2297468494
 20
-4.544385363
  0
LWPOLYLINE
  5
2D0
100
AcDbEntity
  8
ASSI
100
AcDbPolyline
 62
253
  6
CONTINUOUS
 90
76
 70
0
 10
-1.4114991471
 20
4.455614637
 10
-1.4103763311
 20
4.5098358031
 10
-1.4070093645
 20
4.5641931722
 10
-1.401375722
 20
4.6185925321
 10
-1.3934511821
 20
4.6729711171
 10
-1.3832240224
 20
4.7271968042
 10
-1.3707090937
 20
4.7810709122
 10
-1.3559123767
 20
4.8344967472
 10
-1.3388448435
 20
4.8873744273
 10
-1.3195604868
 20
4.9395065448
 10
-1.2980940176
 20
4.9907930499
 10
-1.2744786396
 20
5.0411490327
 10
-1.2487943396
 20
5.0904104067
 10
-1.2211124623
 20
5.1384625497
 10
-1.191472582
 20
5.18525731
 10
-1.1599188793
 20
5.2307369789
 10
-1.1265173205
 20
5.2748160535
 10
-1.0913244212
 20
5.3174289828
 10
-1.0543665716
 20
5.3585458143
 10
-1.0156935339
 20
5.3981058974
 10
-0.9753835777
 20
5.4360241046
 10
-0.9335048517
 20
5.4722330413
 10
-0.8901221058
 20
5.5066726085
 10
-0.8453167514
 20
5.5392741938
 10
-0.7991878464
 20
5.5699646315
 10
-0.7518234202
 20
5.5986867319
 10
-0.7033009962
 20
5.6253948166
 10
-0.6537091702
 20
5.6500411735
 10
-0.6031390448
 20
5.6725819911
 10
-0.5516766166
 20
5.6929803649
 10
-0.4994051218
 20
5.7112039573
 10
-0.4464150516
 20
5.7272212019
 10
-0.3928008293
 20
5.7410035299
 10
-0.3386529759
 20
5.7525275225
 10
-0.2840644023
 20
5.7617728538
 10
-0.2291330597
 20
5.7687223757
 10
-0.1739581466
 20
5.7733633091
 10
-0.1186371507
 20
5.7756874192
 10
-0.0632667625
 20
5.7756905982
 10
-0.0079454196
 20
5.7733728355
 10
0.0472302155
 20
5.7687382145
 10
0.102162623
 20
5.7617949493
 10
0.1567525136
 20
5.7525558144
 10
0.2109019742
 20
5.7410379381
 10
0.2645180483
 20
5.7272616432
 10
0.3175100058
 20
5.7112504061
 10
0.3697833283
 20
5.693032849
 10
0.4212476338
 20
5.6726405253
 10
0.4718197881
 20
5.6501057447
 10
0.5214136422
 20
5.6254654966
 10
0.569938263
 20
5.5987635245
 10
0.6173055977
 20
5.5700472003
 10
0.6634382368
 20
5.539362032
 10
0.7082479488
 20
5.506765237
 10
0.7516356926
 20
5.4723298646
 10
0.7935204122
 20
5.436124088
 10
0.8338368459
 20
5.398208289
 10
0.8725156848
 20
5.3586509724
 10
0.9094785801
 20
5.3175375279
 10
0.9446760179
 20
5.2749285248
 10
0.9780811742
 20
5.2308547182
 10
1.0096370707
 20
5.1853827691
 10
1.0392786732
 20
5.1385973631
 10
1.066963283
 20
5.0905539898
 10
1.0926511545
 20
5.0413009262
 10
1.1162709784
 20
4.9909525198
 10
1.1377438917
 20
4.9396696911
 10
1.1570365541
 20
4.8875361406
 10
1.1741133223
 20
4.8346527259
 10
1.1889197132
 20
4.7812165949
 10
1.2014443299
 20
4.7273270178
 10
1.2116804939
 20
4.6730811798
 10
1.2196126206
 20
4.6186792568
 10
1.225252041
 20
4.5642539462
 10
1.2286227198
 20
4.5098676258
 10
1.2297468494
 20
4.455614637
  0
LWPOLYLINE
  5
2D1
100
AcDbEntity
  8
CURVE
100
AcDbPolyline
 62
253
  6
CONTINUOUS
 90
28
 70
0
 10
1.4208595981
 20
14.4494605718
 10
1.420535342
 20
14.4473889634
 10
1.4202682692
 20
14.4453121306
 10
1.4200561266
 20
14.4432306128
 10
1.4198966611
 20
14.4411449489
 10
1.4197876199
 20
14.4390556783
 10
1.4197267498
 20
14.4369633399
 10
1.4197117978
 20
14.4348684731
 10
1.419740511
 20
14.4327716168
 10
1.4198106361
 20
14.4306733104
 10
1.4199199203
 20
14.4285740928
 10
1.4200661105
 20
14.4264745034
 10
1.4202469536
 20
14.4243750812
 10
1.42050658
 20
14.421856493
 10
1.4208092386
 20
14.4193382855
 10
1.4211513058
 20
14.4168198223
 10
1.4215291578
 20
14.4143004667
 10
1.4219391711
 20
14.4117795823
 10
1.4224917209
 20
14.4086254592
 10
1.4230837441
 20
14.4054673208
 10
1.423710124
 20
14.402304535
 10
1.4243657442
 20
14.3991364697
 10
1.4252783322
 20
14.3949029301
 10
1.4262323963
 20
14.3906564958
 10
1.4272265263
 20
14.3863947817
 10
1.4282587439
 20
14.3821158992
 10
1.4293247996
 20
14.3778199459
 10
1.4304198759
 20
14.3735075162
  0
LWPOLYLINE
  5
2D2
100
AcDbEntity
  8
CURVE
100
AcDbPolyline
 62
253
  6
CONTINUOUS
 90
29
 70
0
 10
2.2754284868
 20
15.3064283493
 10
2.2750809565
 20
15.3043945485
 10
2.2747875864
 20
15.3023613061
 10
2.2745460259
 20
15.3003293091
 10
2.2743539241
 20
15.2982992444
 10
2.2742089305
 20
15.296271799
 10
2.2741086943
 20
15.2942476599
 10
2.2740508647
 20
15.292227514
 10
2.2740330912
 20
15.2902120484
 10
2.274053023
 20
15.2882019499
 10
2.2741083094
 20
15.2861979056
 10
2.2741965996
 20
15.2842006023
 10
2.2743155431
 20
15.2822107272
 10
2.274462789
 20
15.2802289671
 10
2.2746928634
 20
15.2776654213
 10
2.2749628814
 20
15.2751151437
 10
2.2752689279
 20
15.2725765271
 10
2.2756070879
 20
15.2700479643
 10
2.2759734466
 20
15.2675278481
 10
2.2764657091
 20
15.2643871895
 10
2.2769920137
 20
15.2612544217
 10
2.2775484596
 20
15.2581267489
 10
2.2781311456
 20
15.2550013755
 10
2.2789432826
 20
15.2508342325
 10
2.2797927667
 20
15.2466672418
 10
2.2806772311
 20
15.2425014381
 10
2.2815939479
 20
15.2383376779
 10
2.2825387471
 20
15.2341761045
 10
2.2835070979
 20
15.2300166827
  0
LWPOLYLINE
  5
2D3
100
AcDbEntity
  8
CURVE
100
AcDbPolyline
 62
253
  6
CONTINUOUS
 90
28
 70
0
 10
1.4226587648
 20
11.5030252947
 10
1.4222204353
 20
11.500999842
 10
1.4218337504
 20
11.4989638051
 10
1.421496944
 20
11.4969176339
 10
1.42120825
 20
11.4948617779
 10
1.4209659023
 20
11.492796687
 10
1.4207681347
 20
11.4907228107
 10
1.4206131812
 20
11.4886405988
 10
1.4204992757
 20
11.4865505011
 10
1.4204246521
 20
11.4844529672
 10
1.4203875442
 20
11.4823484467
 10
1.420386186
 20
11.4802373896
 10
1.4204188113
 20
11.4781202453
 10
1.4205121776
 20
11.4752885545
 10
1.4206589645
 20
11.472447066
 10
1.420855317
 20
11.4695960041
 10
1.4210973801
 20
11.4667355931
 10
1.4213812989
 20
11.4638660573
 10
1.4217032186
 20
11.460987621
 10
1.4220592841
 20
11.4581005084
 10
1.4224456405
 20
11.4552049438
 10
1.422858433
 20
11.4523011516
 10
1.4235201183
 20
11.4479300544
 10
1.4242277713
 20
11.4435388705
 10
1.4249765522
 20
11.4391255206
 10
1.4257616213
 20
11.4346879256
 10
1.4265781388
 20
11.4302240063
 10
1.4274212648
 20
11.4257316836
  0
LWPOLYLINE
  5
2D4
100
AcDbEntity
  8
CURVE
100
AcDbPolyline
 62
253
  6
CONTINUOUS
 90
28
 70
0
 10
2.2769454312
 20
10.6489150172
 10
2.2765031269
 20
10.6468736317
 10
2.2761097061
 20
10.644819074
 10
2.2757637172
 20
10.6427516087
 10
2.2754637087
 20
10.6406715001
 10
2.2752082289
 20
10.6385790128
 10
2.2749958262
 20
10.6364744112
 10
2.2748250491
 20
10.6343579598
 10
2.2746944459
 20
10.632229923
 10
2.2746025649
 20
10.6300905654
 10
2.2745479547
 20
10.6279401514
 10
2.2745291636
 20
10.6257789455
 10
2.2745526933
 20
10.6231232645
 10
2.2746247365
 20
10.6204527175
 10
2.2747424674
 20
10.6177681644
 10
2.2749030605
 20
10.6150704655
 10
2.27510369
 20
10.6123604809
 10
2.2753415303
 20
10.6096390705
 10
2.2756137558
 20
10.6069070947
 10
2.2759175408
 20
10.6041654134
 10
2.2762500595
 20
10.6014148868
 10
2.2767157144
 20
10.5978663096
 10
2.2772209335
 20
10.5943029229
 10
2.2777624531
 20
10.5907231174
 10
2.2783370096
 20
10.5871252834
 10
2.2789413394
 20
10.5835078117
 10
2.279572179
 20
10.5798690928
 10
2.2802262646
 20
10.5762075172
  0
LINE
  5
2D5
100
AcDbEntity
  8
ASSI
100
AcDbLine
 62
7
  6
CONTINUOUS
 10
8.4215898417
 20
-0.144385363
 11
8.1591238511
 21
-0.1705659664
  0
LINE
  5
2D6
100
AcDbEntity
  8
ASSI
100
AcDbLine
 62
253
  6
CONTINUOUS
 10
10.7348318223
 20
-0.1993495601
 11
10.723308153
 21
-0.1996013823
  0
LINE
  5
2D7
100
AcDbEntity
  8
ASSI
100
AcDbLine
 62
253
  6
CONTINUOUS
 10
10.9382764891
 20
-0.3991104759
 11
10.9241586449
 21
-0.3993854997
  0
LINE
  5
2D8
100
AcDbEntity
  8
ASSI
100
AcDbLine
 62
253
  6
CONTINUOUS
 10
10.723308153
 20
-0.1996013823
 11
10.7006054752
 21
-0.199956137
  0
LINE
  5
2D9
100
AcDbEntity
  8
ASSI
100
AcDbLine
 62
253
  6
CONTINUOUS
 10
10.9241586449
 20
-0.3993854997
 11
10.8935292609
 21
-0.3997793094
  0
LINE
  5
2DA
100
AcDbEntity
  8
ASSI
100
AcDbLine
 62
253
  6
CONTINUOUS
 10
10.7006054752
 20
-0.199956137
 11
10.6497512601
 21
-0.200465784
  0
LINE
  5
2DB
100
AcDbEntity
  8
ASSI
100
AcDbLine
 62
253
  6
CONTINUOUS
 10
10.8935292609
 20
-0.3997793094
 11
10.8012820147
 21
-0.4004656688
  0
LINE
  5
2DC
100
AcDbEntity
  8
ASSI
100
AcDbLine
 62
253
  6
CONTINUOUS
 10
10.6497512601
 20
-0.200465784
 11
10.5425114696
 21
-0.2009988666
  0
LINE
  5
2DD
100
AcDbEntity
  8
ASSI
100
AcDbLine
 62
253
  6
CONTINUOUS
 10
-10.8072094708
 20
0.1118641384
 11
-10.6789684586
 21
0.1123219119
  0
LINE
  5
2DE
100
AcDbEntity
  8
ASSI
100
AcDbLine
 62
253
  6
CONTINUOUS
 10
10.8012820147
 20
-0.4004656688
 11
10.5281735594
 21
-0.4012256343
  0
LINE
  5
2DF
100
AcDbEntity
  8
ASSI
100
AcDbLine
 62
253
  6
CONTINUOUS
 10
10.5425114696
 20
-0.2009988666
 11
10.4508285054
 21
-0.2011241237
  0
LINE
  5
2E0
100
AcDbEntity
  8
ASSI
100
AcDbLine
 62
253
  6
CONTINUOUS
 10
-10.6789684586
 20
0.1123219119
 11
-10.6325808032
 21
0.1123533977
  0
LINE
  5
2E1
100
AcDbEntity
  8
ASSI
100
AcDbLine
 62
253
  6
CONTINUOUS
 10
10.5281735594
 20
-0.4012256343
 11
-10.6325643304
 21
-0.4012592588
  0
LINE
  5
2E2
100
AcDbEntity
  8
ASSI
100
AcDbLine
 62
7
  6
CONTINUOUS
 10
10.4508285054
 20
-0.2011241237
 11
-10.6325808032
 21
-0.2011241237
  0
LINE
  5
2E3
100
AcDbEntity
  8
ASSI
100
AcDbLine
 62
7
  6
CONTINUOUS
 10
-8.3408761489
 20
-0.1705659664
 11
8.1591238511
 21
-0.1705659664
  0
LINE
  5
2E4
100
AcDbEntity
  8
ASSI
100
AcDbLine
 62
7
  6
CONTINUOUS
 10
-11.0408761477
 20
-0.144385363
 11
-8.6033421395
 21
-0.144385363
  0
LINE
  5
2E5
100
AcDbEntity
  8
ASSI
100
AcDbLine
 62
7
  6
CONTINUOUS
 10
8.4215898417
 20
-0.144385363
 11
10.85912385
 21
-0.144385363
  0
LINE
  5
2E6
100
AcDbEntity
  8
ASSI
100
AcDbLine
 62
7
  6
CONTINUOUS
 10
10.85912385
 20
0.055614637
 11
8.4215898417
 21
0.055614637
  0
LINE
  5
2E7
100
AcDbEntity
  8
ASSI
100
AcDbLine
 62
7
  6
CONTINUOUS
 10
-8.6033421395
 20
0.055614637
 11
-11.0408761477
 21
0.055614637
  0
LINE
  5
2E8
100
AcDbEntity
  8
ASSI
100
AcDbLine
 62
7
  6
CONTINUOUS
 10
8.1591238511
 20
0.0817952404
 11
-8.3408761489
 21
0.0817952404
  0
LINE
  5
2E9
100
AcDbEntity
  8
ASSI
100
AcDbLine
 62
7
  6
CONTINUOUS
 10
-10.6325808032
 20
0.1123533977
 11
10.4508285054
 21
0.1123533977
  0
LINE
  5
2EA
100
AcDbEntity
  8
ASSI
100
AcDbLine
 62
253
  6
CONTINUOUS
 10
-10.6325643304
 20
-0.4012592659
 11
-10.944288903
 21
-0.4006554408
  0
LINE
  5
2EB
100
AcDbEntity
  8
ASSI
100
AcDbLine
 62
253
  6
CONTINUOUS
 10
-10.6325808032
 20
-0.2011241237
 11
-10.7673602244
 21
-0.2008450365
  0
LINE
  5
2EC
100
AcDbEntity
  8
ASSI
100
AcDbLine
 62
253
  6
CONTINUOUS
 10
10.4508285054
 20
0.1123533977
 11
10.5856079266
 21
0.1120743105
  0
LINE
  5
2ED
100
AcDbEntity
  8
ASSI
100
AcDbLine
 62
253
  6
CONTINUOUS
 10
10.5856079266
 20
0.1120743105
 11
10.6254571723
 21
0.1118641384
  0
LINE
  5
2EE
100
AcDbEntity
  8
ASSI
100
AcDbLine
 62
253
  6
CONTINUOUS
 10
-10.944288903
 20
-0.4006554408
 11
-11.0626588526
 21
-0.3999040617
  0
LINE
  5
2EF
100
AcDbEntity
  8
ASSI
100
AcDbLine
 62
253
  6
CONTINUOUS
 10
-10.7673602244
 20
-0.2008450365
 11
-10.8536371478
 21
-0.2002759696
  0
LINE
  5
2F0
100
AcDbEntity
  8
ASSI
100
AcDbLine
 62
253
  6
CONTINUOUS
 10
-11.0626588526
 20
-0.3999040617
 11
-11.0969373306
 21
-0.3995194995
  0
LINE
  5
2F1
100
AcDbEntity
  8
ASSI
100
AcDbLine
 62
253
  6
CONTINUOUS
 10
-10.8536371478
 20
-0.2002759696
 11
-10.8906381242
 21
-0.1998411531
  0
LWPOLYLINE
  5
2F2
100
AcDbEntity
  8
ASSI
100
AcDbPolyline
 62
253
  6
CONTINUOUS
 90
7
 70
0
 10
-11.0969373306
 20
-0.3995194995
 10
-11.1136146463
 20
-0.3992491417
 10
-11.1200287866
 20
-0.3991104759
 10
-11.1251370517
 20
-0.3989704921
 10
-11.1289256381
 20
-0.3988295529
 10
-11.1313838742
 20
-0.3986873936
 10
-11.1325049113
 20
-0.3985440634
  0
LINE
  5
2F3
100
AcDbEntity
  8
ASSI
100
AcDbLine
 62
253
  6
CONTINUOUS
 10
-10.8906381242
 20
-0.1998411531
 11
-10.9050604504
 21
-0.1996013823
  0
LWPOLYLINE
  5
2F4
100
AcDbEntity
  8
ASSI
100
AcDbPolyline
 62
253
  6
CONTINUOUS
 90
8
 70
0
 10
-10.9050604504
 20
-0.1996013823
 10
-10.9165841198
 20
-0.1993495601
 10
-10.9211992571
 20
-0.1992202564
 10
-10.9250541146
 20
-0.1990887043
 10
-10.9281181774
 20
-0.1989559727
 10
-10.9303812738
 20
-0.198822418
 10
-10.9318535755
 20
-0.1986876838
 10
-10.9325350824
 20
-0.1985517701
  0
LINE
  5
2F5
100
AcDbEntity
  8
ASSI
100
AcDbLine
 62
7
  6
CONTINUOUS
 10
-8.6033421395
 20
-0.144385363
 11
-8.3408761489
 21
-0.1705659664
  0
LINE
  5
2F6
100
AcDbEntity
  8
CURVE
100
AcDbLine
 62
253
  6
CONTINUOUS
 10
3.0103195149
 20
-11.5454896773
 11
2.9730661816
 21
-11.4252982885
  0
LWPOLYLINE
  5
2F7
100
AcDbEntity
  8
CURVE
100
AcDbPolyline
 62
253
  6
CONTINUOUS
 90
4
 70
0
 10
0.5645018966
 20
13.5693325628
 10
0.564754064
 20
13.5586666572
 10
0.5648057196
 20
13.5549809956
 10
0.5648421237
 20
13.5474357497
  0
LWPOLYLINE
  5
2F8
100
AcDbEntity
  8
CURVE
100
AcDbPolyline
 62
253
  6
CONTINUOUS
 90
28
 70
0
 10
0.5648421237
 20
13.5474357497
 10
0.564882951
 20
13.5448854983
 10
0.5649665181
 20
13.54231583
 10
0.565111608
 20
13.5397202216
 10
0.5652730611
 20
13.5377523259
 10
0.5654933835
 20
13.5357619652
 10
0.5657848309
 20
13.5337474993
 10
0.5661538937
 20
13.5317175446
 10
0.5666043402
 20
13.5296823882
 10
0.5671348148
 20
13.5276487443
 10
0.5677427296
 20
13.5256223119
 10
0.5684256905
 20
13.5236083032
 10
0.5694475819
 20
13.5209510104
 10
0.5705847131
 20
13.5183364883
 10
0.571823078
 20
13.5157763715
 10
0.5731501078
 20
13.5132789471
 10
0.5745589825
 20
13.510839113
 10
0.5760443192
 20
13.5084484198
 10
0.5779203997
 20
13.5056339781
 10
0.5798914852
 20
13.5028720558
 10
0.5819502265
 20
13.5001565767
 10
0.5840892745
 20
13.4974814643
 10
0.5863012799
 20
13.4948406423
 10
0.5891565337
 20
13.4915803326
 10
0.5920930264
 20
13.4883627643
 10
0.5950894838
 20
13.4851865941
 10
0.5981246319
 20
13.482050479
 10
0.6021978206
 20
13.477926697
  0
LINE
  5
2F9
100
AcDbEntity
  8
CURVE
100
AcDbLine
 62
253
  6
CONTINUOUS
 10
0.7019534043
 20
-12.4998946771
 11
0.7019534043
 21
-13.567506075
  0
LINE
  5
2FA
100
AcDbEntity
  8
CURVE
100
AcDbLine
 62
253
  6
CONTINUOUS
 10
0.9787781265
 20
-13.4730674546
 11
0.9787781265
 21
-12.5885477442
  0
LWPOLYLINE
  5
2FB
100
AcDbEntity
  8
ASSI
100
AcDbPolyline
 62
253
  6
CONTINUOUS
 90
76
 70
0
 10
1.3297316189
 20
4.456514817
 10
1.3285770883
 20
4.3980065224
 10
1.3249661454
 20
4.3395537191
 10
1.3188987904
 20
4.2811564082
 10
1.3103725988
 20
4.2226721991
 10
1.299389995
 20
4.164243484
 10
1.2859582525
 20
4.1062974393
 10
1.2700454096
 20
4.048837328
 10
1.2516834279
 20
3.9918598914
 10
1.2309754658
 20
3.9357825254
 10
1.2078958123
 20
3.8806229193
 10
1.1824701783
 20
3.8263633899
 10
1.1548788548
 20
3.7733682768
 10
1.1251248761
 20
3.7216816613
 10
1.093205208
 20
3.6712594694
 10
1.0592910387
 20
3.6223338081
 10
1.0233849607
 20
3.574918094
 10
0.9854843816
 20
3.5289989179
 10
0.9457527125
 20
3.4847681489
 10
0.9041705445
 20
3.4422165891
 10
0.8607572864
 20
3.4013534433
 10
0.8157345759
 20
3.362398185
 10
0.7690848827
 20
3.3253561753
 10
0.720825737
 20
3.2902220596
 10
0.6712313674
 20
3.2571992382
 10
0.6203000532
 20
3.2263052803
 10
0.568033515
 20
3.1975226224
 10
0.5147111438
 20
3.1710019658
 10
0.4603312817
 20
3.1467566005
 10
0.4048955865
 20
3.1247732412
 10
0.3486884224
 20
3.1051627269
 10
0.2917046533
 20
3.0879361093
 10
0.2339494151
 20
3.07308234
 10
0.1757224799
 20
3.0606791073
 10
0.1170190872
 20
3.0507387967
 10
0.0578439974
 20
3.0432490248
 10
-0.001488737
 20
3.0382503262
 10
-0.0609794324
 20
3.0357562051
 10
-0.1206277724
 20
3.0357531582
 10
-0.1801187556
 20
3.0382412077
 10
-0.2394520968
 20
3.0432338669
 10
-0.2986280812
 20
3.050717622
 10
-0.3573325626
 20
3.0606519546
 10
-0.4155608078
 20
3.0730492774
 10
-0.4733175499
 20
3.0878971758
 10
-0.5303028422
 20
3.10511789
 10
-0.5865114449
 20
3.1247224405
 10
-0.6419485976
 20
3.1466998035
 10
-0.6963300733
 20
3.1709391521
 10
-0.7496540776
 20
3.1974536326
 10
-0.8019224048
 20
3.2262300941
 10
-0.8528562101
 20
3.2571182647
 10
-0.9024539824
 20
3.2901357635
 10
-0.9507172329
 20
3.3252649657
 10
-0.9973716497
 20
3.3623027332
 10
-1.0424000792
 20
3.4012549087
 10
-1.0858196751
 20
3.4421156431
 10
-1.1274075866
 20
3.4846642599
 10
-1.1671440591
 20
3.5288915117
 10
-1.2050488471
 20
3.5748066392
 10
-1.2409583643
 20
3.6222166981
 10
-1.2748745749
 20
3.6711339685
 10
-1.3067955147
 20
3.721546163
 10
-1.3365517047
 20
3.7732234875
 10
-1.3641465539
 20
3.8262095628
 10
-1.3895766533
 20
3.8804607609
 10
-1.4126622971
 20
3.9356164153
 10
-1.4333784985
 20
3.9916952526
 10
-1.4517502442
 20
4.0486785401
 10
-1.4676727885
 20
4.1061494246
 10
-1.4811142318
 20
4.1641121265
 10
-1.4921064738
 20
4.2225624211
 10
-1.5006404679
 20
4.2810707899
 10
-1.5067131987
 20
4.33949406
 10
-1.5103276816
 20
4.3979754027
 10
-1.5114839167
 20
4.456514817
  0
LWPOLYLINE
  5
2FC
100
AcDbEntity
  8
ASSI
100
AcDbPolyline
 62
253
  6
CONTINUOUS
 90
76
 70
0
 10
1.3297316189
 20
-4.545285543
 10
1.3285591481
 20
-4.6037825217
 10
1.3249311862
 20
-4.6622233686
 10
1.3188477331
 20
-4.720608083
 10
1.3103063312
 20
-4.7790789867
 10
1.2993094382
 20
-4.8374937564
 10
1.285864427
 20
-4.8954254258
 10
1.2699393585
 20
-4.9528707289
 10
1.2515661718
 20
-5.0098329334
 10
1.2308480572
 20
-5.0658948752
 10
1.2077593184
 20
-5.1210388895
 10
1.1823256518
 20
-5.175282646
 10
1.1547273368
 20
-5.2282619845
 10
1.1249673952
 20
-5.279932874
 10
1.0930428054
 20
-5.3303393528
 10
1.0591247814
 20
-5.3792493672
 10
1.0232159158
 20
-5.4266494945
 10
0.985313616
 20
-5.4725531658
 10
0.9455813188
 20
-5.5167686098
 10
0.9039996355
 20
-5.5593050044
 10
0.8605879547
 20
-5.6001531808
 10
0.8155678791
 20
-5.6390938478
 10
0.7689218918
 20
-5.6761216505
 10
0.7206675097
 20
-5.7112419533
 10
0.6710788859
 20
-5.7442515446
 10
0.6201543156
 20
-5.7751328664
 10
0.5678955036
 20
-5.8039034858
 10
0.5145817165
 20
-5.8304128802
 10
0.4602113165
 20
-5.8546477716
 10
0.4047859413
 20
-5.8766214458
 10
0.3485897712
 20
-5.8962232262
 10
0.2916176896
 20
-5.9134420772
 10
0.233874813
 20
-5.9282890405
 10
0.1756606716
 20
-5.9406865544
 10
0.1169705195
 20
-5.9506222552
 10
0.0578091026
 20
-5.9581085104
 10
-0.001509812
 20
-5.963104855
 10
-0.0609865376
 20
-5.9655978086
 10
-0.1206207608
 20
-5.9656008529
 10
-0.180097774
 20
-5.9631139654
 10
-0.2394172949
 20
-5.9581236549
 10
-0.2985796057
 20
-5.9506434113
 10
-0.3572708455
 20
-5.9407136833
 10
-0.4154862953
 20
-5.9283220741
 10
-0.4732306741
 20
-5.9134809767
 10
-0.530204277
 20
-5.8962680241
 10
-0.5864018835
 20
-5.8766722026
 10
-0.6418287141
 20
-5.8547045198
 10
-0.6962007255
 20
-5.8304756402
 10
-0.7495161436
 20
-5.8039724168
 10
-0.8017767424
 20
-5.7752079886
 10
-0.8527038012
 20
-5.7443324493
 10
-0.902295825
 20
-5.7113281758
 10
-0.9505543086
 20
-5.6762127821
 10
-0.9972050154
 20
-5.6391892182
 10
-1.0422308049
 20
-5.600251632
 10
-1.0856488176
 20
-5.5594058662
 10
-1.1272362383
 20
-5.5168724139
 10
-1.1669733323
 20
-5.4726604873
 10
-1.2048798344
 20
-5.4267608653
 10
-1.2407921334
 20
-5.3793663919
 10
-1.2747121941
 20
-5.3304647643
 10
-1.3066380518
 20
-5.2800682771
 10
-1.3364002008
 20
-5.2284066722
 10
-1.3640020374
 20
-5.1754363637
 10
-1.3894401653
 20
-5.1212009303
 10
-1.4125348899
 20
-5.066060863
 10
-1.4332612384
 20
-5.0099974498
 10
-1.4516441836
 20
-4.9530293979
 10
-1.4675789493
 20
-4.8955733291
 10
-1.4810336584
 20
-4.8376250153
 10
-1.492040188
 20
-4.7791886828
 10
-1.5005893931
 20
-4.7206936379
 10
-1.5066782255
 20
-4.6622829837
 10
-1.5103097333
 20
-4.6038136185
 10
-1.5114839167
 20
-4.545285543
  0
LWPOLYLINE
  5
2FD
100
AcDbEntity
  8
ASSI
100
AcDbPolyline
 62
253
  6
CONTINUOUS
 90
76
 70
0
 10
1.2297468494
 20
4.455614637
 10
1.228642003
 20
4.4013829631
 10
1.2252921465
 20
4.3470143046
 10
1.2196747435
 20
4.2926029158
 10
1.2117656042
 20
4.2382115829
 10
1.2015529557
 20
4.1839724846
 10
1.1890515278
 20
4.1300844143
 10
1.1742673093
 20
4.0766441255
 10
1.1572112819
 20
4.0237515474
 10
1.1379373453
 20
3.9716042136
 10
1.1164802425
 20
3.9203022611
 10
1.092873205
 20
3.8699306344
 10
1.0671961398
 20
3.8206534972
 10
1.0395204468
 20
3.7725855853
 10
1.0098857346
 20
3.7257750639
 10
0.9783360666
 20
3.6802795982
 10
0.9449374388
 20
3.6361847576
 10
0.9097464153
 20
3.5935561635
 10
0.8727892776
 20
3.5524237588
 10
0.8341158094
 20
3.5128482491
 10
0.7938043375
 20
3.4749148525
 10
0.7519229509
 20
3.4386910311
 10
0.7085364487
 20
3.4042369598
 10
0.6637262991
 20
3.3716213194
 10
0.6175915182
 20
3.3409173507
 10
0.5702201973
 20
3.3121823199
 10
0.5216899325
 20
3.2854619681
 10
0.4720893024
 20
3.2608040779
 10
0.4215094807
 20
3.2382525277
 10
0.3700365535
 20
3.2178442803
 10
0.3177537752
 20
3.1996117408
 10
0.26475172
 20
3.1835865306
 10
0.211124913
 20
3.1697972642
 10
0.1569639295
 20
3.158267416
 10
0.1023617754
 20
3.1490173514
 10
0.0474165116
 20
3.1420642445
 10
-0.0077725814
 20
3.1374209063
 10
-0.0631079083
 20
3.135095591
 10
-0.1184926703
 20
3.135092409
 10
-0.1738283447
 20
3.137411371
 10
-0.2290181604
 20
3.1420483908
 10
-0.28396449
 20
3.1489952351
 10
-0.3385679624
 20
3.1582390974
 10
-0.3927305551
 20
3.1697628237
 10
-0.4463592163
 20
3.1835460516
 10
-0.4993631612
 20
3.1995652489
 10
-0.5516477699
 20
3.2177917479
 10
-0.6031225772
 20
3.2381939399
 10
-0.6537044307
 20
3.260739448
 10
-0.7033070915
 20
3.2853912243
 10
-0.7518395559
 20
3.3121054582
 10
-0.7992137887
 20
3.3408347078
 10
-0.8453523071
 20
3.3715334026
 10
-0.8901668183
 20
3.4041442485
 10
-0.9335583231
 20
3.4385941216
 10
-0.975445709
 20
3.474814781
 10
-1.0157636648
 20
3.5127457685
 10
-1.0544429408
 20
3.5523185111
 10
-1.091405131
 20
3.5934475291
 10
-1.1266007001
 20
3.6360721976
 10
-1.1600029312
 20
3.6801617692
 10
-1.1915547977
 20
3.7256495114
 10
-1.2211912366
 20
3.7724506728
 10
-1.2488696665
 20
3.8205098092
 10
-1.2745503075
 20
3.869778629
 10
-1.2981617956
 20
3.9201426721
 10
-1.3196253476
 20
3.9714409445
 10
-1.3389075954
 20
4.0235897118
 10
-1.3559728631
 20
4.0764880285
 10
-1.3707667599
 20
4.1299386214
 10
-1.3832778788
 20
4.1838421734
 10
-1.3934995326
 20
4.2381014386
 10
-1.4014162575
 20
4.2925161278
 10
-1.4070394347
 20
4.346953487
 10
-1.4103929969
 20
4.401351118
 10
-1.4114991471
 20
4.455614637
  0
LWPOLYLINE
  5
2FE
100
AcDbEntity
  8
ASSI
100
AcDbPolyline
 62
253
  6
CONTINUOUS
 90
76
 70
0
 10
1.2297468494
 20
-4.544385363
 10
1.2286240333
 20
-4.5986065291
 10
1.2252570668
 20
-4.6529638982
 10
1.2196234242
 20
-4.707363258
 10
1.2116988843
 20
-4.7617418431
 10
1.2014717246
 20
-4.8159675302
 10
1.1889567959
 20
-4.8698416382
 10
1.1741600789
 20
-4.9232674732
 10
1.1570925458
 20
-4.9761451533
 10
1.1378081891
 20
-5.0282772708
 10
1.1163417198
 20
-5.0795637759
 10
1.0927263419
 20
-5.1299197586
 10
1.0670420419
 20
-5.1791811327
 10
1.0393601646
 20
-5.2272332756
 10
1.0097202843
 20
-5.274028036
 10
0.9781665816
 20
-5.3195077049
 10
0.9447650227
 20
-5.3635867795
 10
0.9095721234
 20
-5.4061997088
 10
0.8726142738
 20
-5.4473165402
 10
0.8339412361
 20
-5.4868766234
 10
0.7936312799
 20
-5.5247948306
 10
0.7517525539
 20
-5.5610037673
 10
0.708369808
 20
-5.5954433345
 10
0.6635644537
 20
-5.6280449198
 10
0.6174355487
 20
-5.6587353575
 10
0.5700711225
 20
-5.6874574578
 10
0.5215486985
 20
-5.7141655426
 10
0.4719568724
 20
-5.7388118995
 10
0.421386747
 20
-5.761352717
 10
0.3699243189
 20
-5.7817510909
 10
0.3176528241
 20
-5.7999746833
 10
0.2646627538
 20
-5.8159919279
 10
0.2110485315
 20
-5.8297742559
 10
0.1569006782
 20
-5.8412982485
 10
0.1023121046
 20
-5.8505435798
 10
0.0473807619
 20
-5.8574931017
 10
-0.0077941512
 20
-5.8621340351
 10
-0.0631151471
 20
-5.8644581452
 10
-0.1184855352
 20
-5.8644613242
 10
-0.1738068782
 20
-5.8621435615
 10
-0.2289825133
 20
-5.8575089405
 10
-0.2839149208
 20
-5.8505656752
 10
-0.3385048113
 20
-5.8413265404
 10
-0.3926542719
 20
-5.8298086641
 10
-0.4462703461
 20
-5.8160323692
 10
-0.4992623036
 20
-5.8000211321
 10
-0.5515356261
 20
-5.781803575
 10
-0.6029999315
 20
-5.7614112513
 10
-0.6535720859
 20
-5.7388764707
 10
-0.70316594
 20
-5.7142362226
 10
-0.7516905607
 20
-5.6875342505
 10
-0.7990578955
 20
-5.6588179263
 10
-0.8451905346
 20
-5.6281327579
 10
-0.8900002466
 20
-5.595535963
 10
-0.9333879904
 20
-5.5611005906
 10
-0.9752727099
 20
-5.524894814
 10
-1.0155891437
 20
-5.486979015
 10
-1.0542679826
 20
-5.4474216984
 10
-1.0912308778
 20
-5.4063082539
 10
-1.1264283157
 20
-5.3636992508
 10
-1.159833472
 20
-5.3196254442
 10
-1.1913893685
 20
-5.2741534951
 10
-1.2210309709
 20
-5.2273680891
 10
-1.2487155808
 20
-5.1793247158
 10
-1.2744034523
 20
-5.1300716522
 10
-1.2980232762
 20
-5.0797232458
 10
-1.3194961894
 20
-5.0284404171
 10
-1.3387888519
 20
-4.9763068666
 10
-1.3558656201
 20
-4.9234234519
 10
-1.3706720109
 20
-4.8699873208
 10
-1.3831966276
 20
-4.8160977438
 10
-1.3934327917
 20
-4.7618519058
 10
-1.4013649184
 20
-4.7074499828
 10
-1.4070043387
 20
-4.6530246722
 10
-1.4103750175
 20
-4.5986383518
 10
-1.4114991471
 20
-4.544385363
  0
LWPOLYLINE
  5
2FF
100
AcDbEntity
  8
ASSI
100
AcDbPolyline
 62
253
  6
CONTINUOUS
 90
5
 70
0
 10
-11.1325049113
 20
0.3097733374
 10
-11.1313838743
 20
0.3099166676
 10
-11.1289256383
 20
0.3100588269
 10
-11.1251370519
 20
0.3101997662
 10
-11.1200287869
 20
0.3103397499
  0
LINE
  5
300
100
AcDbEntity
  8
ASSI
100
AcDbLine
 62
7
  6
CONTINUOUS
 10
-8.6033421395
 20
0.055614637
 11
-8.3408761489
 21
0.0817952404
  0
LINE
  5
301
100
AcDbEntity
  8
ASSI
100
AcDbLine
 62
253
  6
CONTINUOUS
 10
-10.91658412
 20
0.1105788341
 11
-10.9050604507
 21
0.1108306563
  0
LINE
  5
302
100
AcDbEntity
  8
ASSI
100
AcDbLine
 62
253
  6
CONTINUOUS
 10
-11.1200287869
 20
0.3103397499
 11
-11.1059109426
 21
0.3106147737
  0
LINE
  5
303
100
AcDbEntity
  8
ASSI
100
AcDbLine
 62
253
  6
CONTINUOUS
 10
-10.9050604507
 20
0.1108306563
 11
-10.8823577729
 21
0.111185411
  0
LINE
  5
304
100
AcDbEntity
  8
ASSI
100
AcDbLine
 62
253
  6
CONTINUOUS
 10
-11.1059109426
 20
0.3106147737
 11
-11.0752815587
 21
0.3110085835
  0
LINE
  5
305
100
AcDbEntity
  8
ASSI
100
AcDbLine
 62
253
  6
CONTINUOUS
 10
-10.8823577729
 20
0.111185411
 11
-10.8315035578
 21
0.111695058
  0
LINE
  5
306
100
AcDbEntity
  8
ASSI
100
AcDbLine
 62
253
  6
CONTINUOUS
 10
-10.8315035578
 20
0.111695058
 11
-10.8072094708
 21
0.1118641384
  0
LINE
  5
307
100
AcDbEntity
  8
ASSI
100
AcDbLine
 62
253
  6
CONTINUOUS
 10
-11.0752815587
 20
0.3110085835
 11
-10.9830343125
 21
0.3116949429
  0
LINE
  5
308
100
AcDbEntity
  8
ASSI
100
AcDbLine
 62
253
  6
CONTINUOUS
 10
-10.9830343125
 20
0.3116949429
 11
-10.7099258571
 21
0.3124549083
  0
LINE
  5
309
100
AcDbEntity
  8
ASSI
100
AcDbLine
 62
253
  6
CONTINUOUS
 10
-10.7099258571
 20
0.3124549083
 11
10.4508120326
 21
0.3124885328
  0
LINE
  5
30A
100
AcDbEntity
  8
ASSI
100
AcDbLine
 62
253
  6
CONTINUOUS
 10
10.4508120326
 20
0.3124885399
 11
10.7625366052
 21
0.3118847148
  0
LINE
  5
30B
100
AcDbEntity
  8
ASSI
100
AcDbLine
 62
253
  6
CONTINUOUS
 10
10.7625366052
 20
0.3118847148
 11
10.8809065549
 21
0.3111333357
  0
LINE
  5
30C
100
AcDbEntity
  8
ASSI
100
AcDbLine
 62
253
  6
CONTINUOUS
 10
10.6254571723
 20
0.1118641384
 11
10.6821049866
 21
0.1114028193
  0
LINE
  5
30D
100
AcDbEntity
  8
ASSI
100
AcDbLine
 62
253
  6
CONTINUOUS
 10
10.8809065549
 20
0.3111333357
 11
10.9151850328
 21
0.3107487735
  0
LINE
  5
30E
100
AcDbEntity
  8
ASSI
100
AcDbLine
 62
253
  6
CONTINUOUS
 10
10.6821049866
 20
0.1114028193
 11
10.7088858264
 21
0.1110704271
  0
LINE
  5
30F
100
AcDbEntity
  8
ASSI
100
AcDbLine
 62
253
  6
CONTINUOUS
 10
10.7088858264
 20
0.1110704271
 11
10.7233081527
 21
0.1108306564
  0
LWPOLYLINE
  5
310
100
AcDbEntity
  8
ASSI
100
AcDbPolyline
 62
253
  6
CONTINUOUS
 90
7
 70
0
 10
10.9151850328
 20
0.3107487735
 10
10.9318623486
 20
0.3104784157
 10
10.9382764888
 20
0.3103397499
 10
10.9433847539
 20
0.3101997662
 10
10.9471733404
 20
0.3100588269
 10
10.9496315765
 20
0.3099166676
 10
10.9507526135
 20
0.3097733374
  0
LWPOLYLINE
  5
311
100
AcDbEntity
  8
ASSI
100
AcDbPolyline
 62
253
  6
CONTINUOUS
 90
8
 70
0
 10
10.7233081527
 20
0.1108306564
 10
10.734831822
 20
0.1105788342
 10
10.7394469593
 20
0.1104495305
 10
10.7433018168
 20
0.1103179783
 10
10.7463658796
 20
0.1101852467
 10
10.7486289761
 20
0.110051692
 10
10.7501012777
 20
0.1099169578
 10
10.7507827847
 20
0.1097810441
  0
LINE
  5
312
100
AcDbEntity
  8
ASSI
100
AcDbLine
 62
7
  6
CONTINUOUS
 10
8.4215898417
 20
0.055614637
 11
8.1591238511
 21
0.0817952404
  0
LINE
  5
313
100
AcDbEntity
  8
CURVE
100
AcDbLine
 62
253
  6
CONTINUOUS
 10
-2.6263834564
 20
12.4145325167
 11
-2.5998898453
 21
12.3144141834
  0
LINE
  5
314
100
AcDbEntity
  8
CURVE
100
AcDbLine
 62
253
  6
CONTINUOUS
 10
2.7334947927
 20
-11.7804396773
 11
2.7334947927
 21
-14.2808579609
  0
LINE
  5
315
100
AcDbEntity
  8
CURVE
100
AcDbLine
 62
253
  6
CONTINUOUS
 10
3.0103195149
 20
-14.5166899544
 11
3.0103195149
 21
-11.5454895615
  0
LINE
  5
316
100
AcDbEntity
  8
CURVE
100
AcDbLine
 62
253
  6
CONTINUOUS
 10
0.7159586821
 20
-12.4174857882
 11
0.7019534043
 21
-12.4998946771
  0
LINE
  5
317
100
AcDbEntity
  8
ASSI
100
AcDbLine
 62
253
  6
CONTINUOUS
 10
10.5455901228
 20
22.1670959246
 11
10.4747293623
 21
21.9543407667
  0
LWPOLYLINE
  5
318
100
AcDbEntity
  8
ASSI
100
AcDbPolyline
 62
253
  6
CONTINUOUS
 90
7
 70
0
 10
-10.9325350824
 20
0.1097810441
 10
-10.9318535755
 20
0.1099169578
 10
-10.9303812739
 20
0.110051692
 10
-10.9281181775
 20
0.1101852467
 10
-10.9250541148
 20
0.1103179783
 10
-10.9211992573
 20
0.1104495304
 10
-10.91658412
 20
0.1105788341
  0
LINE
  5
319
100
AcDbEntity
  8
ASSI
100
AcDbLine
 62
253
  6
CONTINUOUS
 10
10.4747293623
 20
-22.0431114926
 11
10.5455901228
 21
-22.2558666505
  0
LWPOLYLINE
  5
31A
100
AcDbEntity
  8
CURVE
100
AcDbPolyline
 62
253
  6
CONTINUOUS
 90
30
 70
0
 10
3.8929007236
 20
-12.4345831697
 10
3.8929775024
 20
-12.4385021131
 10
3.8930575531
 20
-12.4404650789
 10
3.893175516
 20
-12.4424268345
 10
3.8933396336
 20
-12.4443858792
 10
3.8935609199
 20
-12.4463483399
 10
3.8938502204
 20
-12.4483212418
 10
3.8942149315
 20
-12.450307573
 10
3.8946602504
 20
-12.4523075213
 10
3.8951860235
 20
-12.454314108
 10
3.8957904796
 20
-12.4563192022
 10
3.8964707281
 20
-12.4583172304
 10
3.8972235985
 20
-12.4603032583
 10
3.8980459203
 20
-12.4622723514
 10
3.899243467
 20
-12.4648630196
 10
3.9005427032
 20
-12.4674036048
 10
3.9019274857
 20
-12.4698829022
 10
3.9033830828
 20
-12.4722926344
 10
3.9049004083
 20
-12.4746362349
 10
3.9064717873
 20
-12.4769200644
 10
3.9084194096
 20
-12.4795904742
 10
3.9104290927
 20
-12.482193502
 10
3.9124961123
 20
-12.4847386762
 10
3.9146157437
 20
-12.4872355253
 10
3.9167832627
 20
-12.489693578
 10
3.9195517888
 20
-12.4927236135
 10
3.9223724283
 20
-12.4957115956
 10
3.9252298524
 20
-12.4986612017
 10
3.9281087322
 20
-12.5015761095
 10
3.9395538186
 20
-12.5129676248
  0
LWPOLYLINE
  5
31B
100
AcDbEntity
  8
CURVE
100
AcDbPolyline
 62
253
  6
CONTINUOUS
 90
3
 70
0
 10
3.8928212725
 20
-12.4230163617
 10
3.8928716561
 20
-12.4268213108
 10
3.8929007236
 20
-12.4345831697
  0
LINE
  5
31C
100
AcDbEntity
  8
ASSI
100
AcDbLine
 62
253
  6
CONTINUOUS
 10
11.0459699461
 20
21.6691501968
 11
10.9746529076
 21
21.4550250916
  0
LINE
  5
31D
100
AcDbEntity
  8
ASSI
100
AcDbLine
 62
253
  6
CONTINUOUS
 10
10.85912385
 20
-0.144385363
 11
10.7507827847
 21
-0.1985517701
  0
LINE
  5
31E
100
AcDbEntity
  8
ASSI
100
AcDbLine
 62
253
  6
CONTINUOUS
 10
10.7507827847
 20
0.1097810441
 11
10.85912385
 21
0.055614637
  0
LWPOLYLINE
  5
31F
100
AcDbEntity
  8
CURVE
100
AcDbPolyline
 62
253
  6
CONTINUOUS
 90
29
 70
0
 10
-2.5998898453
 20
12.3144141834
 10
-2.5984225827
 20
12.3121977408
 10
-2.5968888678
 20
12.3099972654
 10
-2.5952889523
 20
12.3078121262
 10
-2.593623088
 20
12.3056416918
 10
-2.5918915264
 20
12.3034853312
 10
-2.5900945192
 20
12.301342413
 10
-2.5882323182
 20
12.2992123061
 10
-2.5863051751
 20
12.2970943793
 10
-2.5843133414
 20
12.2949880013
 10
-2.582257069
 20
12.292892541
 10
-2.5801366094
 20
12.2908073672
 10
-2.5777308545
 20
12.2885248324
 10
-2.5752515906
 20
12.2862533141
 10
-2.5727026708
 20
12.2839921458
 10
-2.5700879481
 20
12.2817406609
 10
-2.5674112753
 20
12.2794981932
 10
-2.5646765055
 20
12.2772640761
 10
-2.5618874916
 20
12.2750376431
 10
-2.5590480865
 20
12.2728182279
 10
-2.5561621434
 20
12.270605164
 10
-2.553233515
 20
12.2683977849
 10
-2.5489815248
 20
12.2652523514
 10
-2.5446505491
 20
12.2621117661
 10
-2.5402408517
 20
12.2589706357
 10
-2.5357526965
 20
12.2558235667
 10
-2.5311863475
 20
12.2526651657
 10
-2.5265420683
 20
12.2494900395
 10
-2.5218201231
 20
12.2462927945
  0
LINE
  5
320
100
AcDbEntity
  8
ASSI
100
AcDbLine
 62
253
  6
CONTINUOUS
 10
10.9746529076
 20
-21.5437958176
 11
11.0459699461
 21
-21.7579209227
  0
LINE
  5
321
100
AcDbEntity
  8
CURVE
100
AcDbLine
 62
253
  6
CONTINUOUS
 10
-0.3180526237
 20
14.4365136273
 11
-0.3552706792
 21
14.556740294
  0
LINE
  5
322
100
AcDbEntity
  8
CURVE
100
AcDbLine
 62
253
  6
CONTINUOUS
 10
2.9963142371
 20
-14.5989224543
 11
3.0103195149
 21
-14.5166899544
  0
LWPOLYLINE
  5
323
100
AcDbEntity
  8
ASSI
100
AcDbPolyline
 62
253
  6
CONTINUOUS
 90
11
 70
0
 10
10.9746529076
 20
21.4550250916
 10
10.9739367974
 20
21.4520215016
 10
10.9732257495
 20
21.4473615046
 10
10.9725197639
 20
21.4410451004
 10
10.9718176542
 20
21.4330561336
 10
10.9711206069
 20
21.4234107597
 10
10.9704321809
 20
21.4121574452
 10
10.9697524277
 20
21.3992879046
 10
10.9690812958
 20
21.3848104234
 10
10.9684221899
 20
21.3687983243
 10
10.9671401978
 20
21.3321551134
  0
LINE
  5
324
100
AcDbEntity
  8
ASSI
100
AcDbLine
 62
253
  6
CONTINUOUS
 10
11.0591238511
 20
-0.3443625177
 11
10.9507526138
 21
-0.3985440097
  0
LINE
  5
325
100
AcDbEntity
  8
ASSI
100
AcDbLine
 62
253
  6
CONTINUOUS
 10
10.9507526138
 20
0.3097732837
 11
11.0591238511
 21
0.2555917917
  0
LWPOLYLINE
  5
326
100
AcDbEntity
  8
ASSI
100
AcDbPolyline
 62
253
  6
CONTINUOUS
 90
8
 70
0
 10
10.4747292604
 20
21.9543407666
 10
10.4740129052
 20
21.9498596762
 10
10.4733016844
 20
21.942863883
 10
10.4725955982
 20
21.9333651739
 10
10.4718934876
 20
21.9213796456
 10
10.4711965115
 20
21.9069274267
 10
10.4705081465
 20
21.8900324655
 10
10.4691572877
 20
21.8490307195
  0
LWPOLYLINE
  5
327
100
AcDbEntity
  8
CURVE
100
AcDbPolyline
 62
253
  6
CONTINUOUS
 90
28
 70
0
 10
3.8928636813
 20
-13.6208460657
 10
3.8923876579
 20
-13.6228976505
 10
3.8919689362
 20
-13.624958856
 10
3.8916053859
 20
-13.6270290291
 10
3.891294877
 20
-13.6291075162
 10
3.8910352791
 20
-13.6311936642
 10
3.890824462
 20
-13.6332868197
 10
3.8906602955
 20
-13.6353863294
 10
3.8905406494
 20
-13.63749154
 10
3.8904633934
 20
-13.6396017981
 10
3.8904263973
 20
-13.6417164504
 10
3.8904275308
 20
-13.6438348436
 10
3.8904646638
 20
-13.6459563244
 10
3.890553779
 20
-13.6485054839
 10
3.8906881989
 20
-13.6510583812
 10
3.8908644565
 20
-13.6536152485
 10
3.8910790848
 20
-13.6561763184
 10
3.891328617
 20
-13.6587418231
 10
3.8916845679
 20
-13.6619552056
 10
3.892084272
 20
-13.6651758011
 10
3.8925223621
 20
-13.6684035301
 10
3.8929934715
 20
-13.6716383131
 10
3.8936654108
 20
-13.6759627064
 10
3.8943840261
 20
-13.6803023951
 10
3.8951468341
 20
-13.6846602756
 10
3.8959508283
 20
-13.6890387045
 10
3.8967909104
 20
-13.6934378785
 10
3.8976614591
 20
-13.6978574546
  0
LINE
  5
328
100
AcDbEntity
  8
CURVE
100
AcDbLine
 62
253
  6
CONTINUOUS
 10
-0.5948773458
 20
11.7011805725
 11
-1.2137201234
 21
12.3149786279
  0
LINE
  5
329
100
AcDbEntity
  8
CURVE
100
AcDbLine
 62
253
  6
CONTINUOUS
 10
-1.3773031789
 20
12.0918114057
 11
-0.6234523458
 21
11.3384191837
  0
LINE
  5
32A
100
AcDbEntity
  8
CURVE
100
AcDbLine
 62
253
  6
CONTINUOUS
 10
1.4274212648
 20
11.4257316836
 11
1.4628754315
 21
11.3762722392
  0
LWPOLYLINE
  5
32B
100
AcDbEntity
  8
ASSI
100
AcDbPolyline
 62
253
  6
CONTINUOUS
 90
9
 70
0
 10
10.9690812958
 20
-21.4735811491
 10
10.9697524277
 20
-21.4880586303
 10
10.9704321809
 20
-21.5009281709
 10
10.9711206069
 20
-21.5121814854
 10
10.9718176542
 20
-21.5218268594
 10
10.9725197638
 20
-21.5298158262
 10
10.9732257494
 20
-21.5361322304
 10
10.9739367974
 20
-21.5407922276
 10
10.9746529076
 20
-21.5437958176
  0
LWPOLYLINE
  5
32C
100
AcDbEntity
  8
ASSI
100
AcDbPolyline
 62
253
  6
CONTINUOUS
 90
7
 70
0
 10
10.4705081465
 20
-21.9788031911
 10
10.4711965115
 20
-21.9956981523
 10
10.4718934876
 20
-22.0101503713
 10
10.4725955982
 20
-22.0221358996
 10
10.4733016844
 20
-22.0316346088
 10
10.4740129052
 20
-22.0386304021
 10
10.4747292604
 20
-22.0431114925
  0
LINE
  5
32D
100
AcDbEntity
  8
ASSI
100
AcDbLine
 62
253
  6
CONTINUOUS
 10
10.4691572877
 20
-21.937801445
 11
10.4705081465
 21
-21.9788031911
  0
LINE
  5
32E
100
AcDbEntity
  8
ASSI
100
AcDbLine
 62
253
  6
CONTINUOUS
 10
10.4678512108
 20
-21.8874237726
 11
10.4691572877
 21
-21.937801445
  0
LINE
  5
32F
100
AcDbEntity
  8
ASSI
100
AcDbLine
 62
253
  6
CONTINUOUS
 10
10.4659920703
 20
-21.7950380151
 11
10.4678512108
 21
-21.8874237726
  0
LINE
  5
330
100
AcDbEntity
  8
ASSI
100
AcDbLine
 62
253
  6
CONTINUOUS
 10
10.4678512108
 20
21.7986530472
 11
10.4659920703
 21
21.7062672898
  0
LINE
  5
331
100
AcDbEntity
  8
ASSI
100
AcDbLine
 62
253
  6
CONTINUOUS
 10
10.4691572877
 20
21.8490307195
 11
10.4678512108
 21
21.7986530472
  0
LWPOLYLINE
  5
332
100
AcDbEntity
  8
CURVE
100
AcDbPolyline
 62
253
  6
CONTINUOUS
 90
20
 70
0
 10
3.8982611813
 20
-12.3643221771
 10
3.8974955726
 20
-12.3661044335
 10
3.8968084697
 20
-12.3679306719
 10
3.8961950063
 20
-12.3697988984
 10
3.8956503162
 20
-12.3717071186
 10
3.8951695334
 20
-12.3736533386
 10
3.8947477916
 20
-12.3756355642
 10
3.8943126148
 20
-12.3780587965
 10
3.8939460255
 20
-12.3805266108
 10
3.8936385996
 20
-12.3830346129
 10
3.8933809128
 20
-12.3855784084
 10
3.8931635408
 20
-12.3881536028
 10
3.8929374998
 20
-12.3914122776
 10
3.8927613489
 20
-12.3947178928
 10
3.8926358572
 20
-12.3980743348
 10
3.892558376
 20
-12.4014820524
 10
3.8925256338
 20
-12.4049403614
 10
3.8925352879
 20
-12.4084474841
 10
3.8925832492
 20
-12.4120026715
 10
3.8928212725
 20
-12.4230163617
  0
LINE
  5
333
100
AcDbEntity
  8
CURVE
100
AcDbLine
 62
253
  6
CONTINUOUS
 10
3.9232731258
 20
-13.566024399
 11
3.8928636813
 21
-13.6208460657
  0
LINE
  5
334
100
AcDbEntity
  8
CURVE
100
AcDbLine
 62
253
  6
CONTINUOUS
 10
2.7042847927
 20
-11.4188777329
 11
1.9185428485
 21
-12.2013388438
  0
LINE
  5
335
100
AcDbEntity
  8
CURVE
100
AcDbLine
 62
253
  6
CONTINUOUS
 10
-0.6234523458
 20
11.3384191837
 11
-0.5129270681
 21
11.2801402948
  0
LINE
  5
336
100
AcDbEntity
  8
CURVE
100
AcDbLine
 62
253
  6
CONTINUOUS
 10
-1.2137201234
 20
12.3149786279
 11
-1.3549723456
 21
12.4154144612
  0
LINE
  5
337
100
AcDbEntity
  8
CURVE
100
AcDbLine
 62
253
  6
CONTINUOUS
 10
-1.4863820678
 20
12.1718214057
 11
-1.3773031789
 21
12.0918114057
  0
LINE
  5
338
100
AcDbEntity
  8
CURVE
100
AcDbLine
 62
253
  6
CONTINUOUS
 10
2.2802262646
 20
10.5762075172
 11
2.3806268201
 21
10.4820511283
  0
LWPOLYLINE
  5
339
100
AcDbEntity
  8
CURVE
100
AcDbPolyline
 62
253
  6
CONTINUOUS
 90
6
 70
0
 10
0.6021978206
 20
13.477926697
 10
0.6103051994
 20
13.4698181001
 10
0.6132919862
 20
13.4668003597
 10
0.6162412089
 20
13.4637675295
 10
0.6191535265
 20
13.4606942832
 10
0.6220295983
 20
13.4575552942
  0
LINE
  5
33A
100
AcDbEntity
  8
CURVE
100
AcDbLine
 62
253
  6
CONTINUOUS
 10
0.5692893206
 20
12.2841811279
 11
0.6544851539
 21
12.1988089057
  0
LWPOLYLINE
  5
33B
100
AcDbEntity
  8
CURVE
100
AcDbPolyline
 62
253
  6
CONTINUOUS
 90
54
 70
0
 10
0.6971359872
 20
13.3906333498
 10
0.7093033279
 20
13.3777627865
 10
0.721004352
 20
13.3646039725
 10
0.7322510015
 20
13.3511601479
 10
0.7430552185
 20
13.3374345527
 10
0.753428945
 20
13.3234304267
 10
0.7633841232
 20
13.30915101
 10
0.772932695
 20
13.2945995426
 10
0.7820866026
 20
13.2797792643
 10
0.7920748255
 20
13.262519786
 10
0.8015483366
 20
13.2449361697
 10
0.8104923062
 20
13.2270511454
 10
0.8188919047
 20
13.2088874433
 10
0.8267323022
 20
13.1904677934
 10
0.833998669
 20
13.1718149258
 10
0.8406761756
 20
13.1529515704
 10
0.8467519197
 20
13.133899415
 10
0.8522207104
 20
13.114675978
 10
0.8570792841
 20
13.0952977356
 10
0.8613243774
 20
13.0757811638
 10
0.8649527268
 20
13.0561427387
 10
0.8679610689
 20
13.0363989366
 10
0.8703461403
 20
13.0165662334
 10
0.8721056831
 20
12.9966615826
 10
0.8732414621
 20
12.9767038467
 10
0.8737562478
 20
12.9567123656
 10
0.8736528105
 20
12.9367064791
 10
0.8729339208
 20
12.9167055269
 10
0.8716023489
 20
12.896728849
 10
0.8696608653
 20
12.8767957852
 10
0.8674637355
 20
12.8594058659
 10
0.86480247
 20
12.8420802861
 10
0.8616777758
 20
12.8248351862
 10
0.8580903598
 20
12.8076867067
 10
0.8540410053
 20
12.7906503251
 10
0.8495308007
 20
12.773738867
 10
0.8445609108
 20
12.7569644951
 10
0.8391325003
 20
12.7403393722
 10
0.8332469451
 20
12.723875446
 10
0.8269064648
 20
12.7075838051
 10
0.82011349
 20
12.6914753232
 10
0.8128704514
 20
12.675560874
 10
0.8051782586
 20
12.6598548585
 10
0.7970317375
 20
12.6443857868
 10
0.788424193
 20
12.6291856961
 10
0.77934893
 20
12.6142866237
 10
0.7698035605
 20
12.5997152539
 10
0.7598029246
 20
12.5854768575
 10
0.7493661696
 20
12.5715713527
 10
0.7385124426
 20
12.5579986571
 10
0.7272582036
 20
12.5447492638
 10
0.7156091625
 20
12.5317759657
 10
0.7035683421
 20
12.519022131
 10
0.691138765
 20
12.5064311278
  0
LWPOLYLINE
  5
33C
100
AcDbEntity
  8
CURVE
100
AcDbPolyline
 62
253
  6
CONTINUOUS
 90
30
 70
0
 10
-0.3552706792
 20
14.556740294
 10
-0.3570502564
 20
14.5588900623
 10
-0.3589023561
 20
14.5610007737
 10
-0.3608258005
 20
14.5630735088
 10
-0.3628194121
 20
14.5651093483
 10
-0.3648820133
 20
14.5671093729
 10
-0.3670124264
 20
14.5690746632
 10
-0.3692094738
 20
14.5710062999
 10
-0.3714719779
 20
14.5729053637
 10
-0.3737987612
 20
14.5747729353
 10
-0.3764914938
 20
14.5768377166
 10
-0.3792608172
 20
14.5788659116
 10
-0.3821034592
 20
14.580859424
 10
-0.3850161479
 20
14.5828201572
 10
-0.3879957425
 20
14.5847502648
 10
-0.3910396277
 20
14.5866529019
 10
-0.3941453193
 20
14.5885314734
 10
-0.3973103334
 20
14.5903893845
 10
-0.4005316396
 20
14.592229943
 10
-0.4038040217
 20
14.5940560671
 10
-0.4071217174
 20
14.5958705777
 10
-0.4104789641
 20
14.5976762958
 10
-0.4150080968
 20
14.6000736604
 10
-0.4195910771
 20
14.6024583481
 10
-0.4242216836
 20
14.6048282984
 10
-0.4288958815
 20
14.607182713
 10
-0.4336183799
 20
14.6095258439
 10
-0.4383960742
 20
14.6118632055
 10
-0.4432333187
 20
14.6141991508
 10
-0.4530606792
 20
14.6188644606
  0
LINE
  5
33D
100
AcDbEntity
  8
CURVE
100
AcDbLine
 62
253
  6
CONTINUOUS
 10
1.4304198759
 20
14.3735075162
 11
1.4703543203
 21
14.3227075163
  0
LWPOLYLINE
  5
33E
100
AcDbEntity
  8
ASSI
100
AcDbPolyline
 62
253
  6
CONTINUOUS
 90
22
 70
0
 10
10.9507523237
 20
-0.3985441547
 10
10.9501909992
 20
-0.3836001278
 10
10.948514716
 20
-0.3687396593
 10
10.9457328469
 20
-0.3540458393
 10
10.9418609466
 20
-0.3396008255
 10
10.9369206646
 20
-0.325485385
 10
10.9309396242
 20
-0.3117784426
 10
10.9239512679
 20
-0.2985566381
 10
10.9159946703
 20
-0.2858938988
 10
10.9071143203
 20
-0.2738610265
 10
10.8973598713
 20
-0.2625253006
 10
10.886785864
 20
-0.2519501024
 10
10.875451422
 20
-0.2421945611
 10
10.8634199204
 20
-0.2333132226
 10
10.8507586315
 20
-0.2253557446
 10
10.8375383493
 20
-0.2183666194
 10
10.8238329929
 20
-0.2123849247
 10
10.8097191935
 20
-0.2074441053
 10
10.7952758663
 20
-0.203571786
 10
10.7805837684
 20
-0.2007896173
 10
10.765725048
 20
-0.1991131545
 10
10.7507827847
 20
-0.1985517701
  0
LINE
  5
33F
100
AcDbEntity
  8
ASSI
100
AcDbLine
 62
253
  6
CONTINUOUS
 10
10.9677751809
 20
-21.4400147534
 11
10.9690812958
 21
-21.4735811491
  0
LINE
  5
340
100
AcDbEntity
  8
ASSI
100
AcDbLine
 62
253
  6
CONTINUOUS
 10
10.9665204317
 20
-21.4003983671
 11
10.9677751809
 21
-21.4400147534
  0
LWPOLYLINE
  5
341
100
AcDbEntity
  8
ASSI
100
AcDbPolyline
 62
253
  6
CONTINUOUS
 90
28
 70
0
 10
10.9746529076
 20
21.4550250916
 10
10.9737815642
 20
21.4840408033
 10
10.9712235488
 20
21.5129584499
 10
10.9669875067
 20
21.5416802971
 10
10.9610877546
 20
21.5701092723
 10
10.9535442319
 20
21.5981492925
 10
10.9443824337
 20
21.6257055896
 10
10.9336333246
 20
21.6526850301
 10
10.9213332336
 20
21.6789964303
 10
10.9075237318
 20
21.7045508641
 10
10.8922514919
 20
21.7292619638
 10
10.87556813
 20
21.7530462121
 10
10.8575300316
 20
21.775823224
 10
10.838198161
 20
21.7975160189
 10
10.8176378549
 20
21.8180512803
 10
10.795918602
 20
21.837359604
 10
10.7731138079
 20
21.8553757328
 10
10.749300547
 20
21.8720387763
 10
10.7245593024
 20
21.8872924176
 10
10.6989736931
 20
21.9010851031
 10
10.6726301922
 20
21.9133702167
 10
10.6456178343
 20
21.9241062378
 10
10.6180279144
 20
21.9332568812
 10
10.5899536795
 20
21.9407912198
 10
10.5614900138
 20
21.9466837895
 10
10.5327331175
 20
21.9509146748
 10
10.5037801816
 20
21.9534695763
 10
10.47472906
 20
21.954339859
  0
LINE
  5
342
100
AcDbEntity
  8
ASSI
100
AcDbLine
 62
253
  6
CONTINUOUS
 10
10.965326702
 20
-21.3550133179
 11
10.9665204317
 21
-21.4003983671
  0
LINE
  5
343
100
AcDbEntity
  8
ASSI
100
AcDbLine
 62
253
  6
CONTINUOUS
 10
10.963668196
 20
-21.2768391309
 11
10.965326702
 21
-21.3550133179
  0
LINE
  5
344
100
AcDbEntity
  8
ASSI
100
AcDbLine
 62
253
  6
CONTINUOUS
 10
10.9617412068
 20
-21.1556266424
 11
10.963668196
 21
-21.2768391309
  0
LINE
  5
345
100
AcDbEntity
  8
ASSI
100
AcDbLine
 62
253
  6
CONTINUOUS
 10
10.463744391
 20
-21.6427076107
 11
10.4659920703
 21
-21.7950380151
  0
LINE
  5
346
100
AcDbEntity
  8
ASSI
100
AcDbLine
 62
253
  6
CONTINUOUS
 10
10.959860022
 20
-20.9814183869
 11
10.9617412068
 21
-21.1556266424
  0
LINE
  5
347
100
AcDbEntity
  8
ASSI
100
AcDbLine
 62
253
  6
CONTINUOUS
 10
10.4609902654
 20
-21.3603879866
 11
10.463744391
 21
-21.6427076107
  0
LINE
  5
348
100
AcDbEntity
  8
ASSI
100
AcDbLine
 62
253
  6
CONTINUOUS
 10
10.9584776752
 20
-20.7489345973
 11
10.959860022
 21
-20.9814183869
  0
LINE
  5
349
100
AcDbEntity
  8
ASSI
100
AcDbLine
 62
253
  6
CONTINUOUS
 10
10.4587144094
 20
-20.9108759193
 11
10.4609902654
 21
-21.3603879866
  0
LINE
  5
34A
100
AcDbEntity
  8
ASSI
100
AcDbLine
 62
7
  6
CONTINUOUS
 10
11.0591238511
 20
13.055614637
 11
11.0459699461
 21
21.6691501968
  0
LINE
  5
34B
100
AcDbEntity
  8
ASSI
100
AcDbLine
 62
253
  6
CONTINUOUS
 10
10.4533989705
 20
-12.1899653451
 11
10.4587144094
 21
-20.9108759193
  0
LINE
  5
34C
100
AcDbEntity
  8
ASSI
100
AcDbLine
 62
253
  6
CONTINUOUS
 10
10.9533223993
 20
-12.1768263105
 11
10.9584776752
 21
-20.7489345973
  0
LINE
  5
34D
100
AcDbEntity
  8
ASSI
100
AcDbLine
 62
253
  6
CONTINUOUS
 10
10.4533989705
 20
-12.1899653451
 11
10.4508285054
 21
-0.2011241237
  0
LINE
  5
34E
100
AcDbEntity
  8
ASSI
100
AcDbLine
 62
253
  6
CONTINUOUS
 10
10.9507526138
 20
-0.3985440097
 11
10.9533223993
 21
-12.1768263105
  0
LINE
  5
34F
100
AcDbEntity
  8
ASSI
100
AcDbLine
 62
7
  6
CONTINUOUS
 10
11.0591238511
 20
-0.3443625177
 11
11.0591238511
 21
-13.144385363
  0
LINE
  5
350
100
AcDbEntity
  8
ASSI
100
AcDbLine
 62
7
  6
CONTINUOUS
 10
11.0591238511
 20
0.2555917917
 11
11.0591238511
 21
13.055614637
  0
LINE
  5
351
100
AcDbEntity
  8
ASSI
100
AcDbLine
 62
7
  6
CONTINUOUS
 10
11.0591238511
 20
-13.144385363
 11
11.0459699461
 21
-21.7579209227
  0
LINE
  5
352
100
AcDbEntity
  8
ASSI
100
AcDbLine
 62
253
  6
CONTINUOUS
 10
10.4596372038
 20
21.0549075639
 11
10.4508285054
 21
0.1123533977
  0
LINE
  5
353
100
AcDbEntity
  8
ASSI
100
AcDbLine
 62
253
  6
CONTINUOUS
 10
10.9588268269
 20
20.7397621543
 11
10.9507526138
 21
0.3097732837
  0
LINE
  5
354
100
AcDbEntity
  8
ASSI
100
AcDbLine
 62
253
  6
CONTINUOUS
 10
10.4622660607
 20
21.4200684553
 11
10.4596372038
 21
21.0549075639
  0
LINE
  5
355
100
AcDbEntity
  8
ASSI
100
AcDbLine
 62
253
  6
CONTINUOUS
 10
10.9605373122
 20
20.9649701911
 11
10.9588268269
 21
20.7397621543
  0
LINE
  5
356
100
AcDbEntity
  8
ASSI
100
AcDbLine
 62
253
  6
CONTINUOUS
 10
10.4648317814
 20
21.6340673531
 11
10.4622660607
 21
21.4200684553
  0
LINE
  5
357
100
AcDbEntity
  8
ASSI
100
AcDbLine
 62
253
  6
CONTINUOUS
 10
10.9621898208
 20
21.0988172401
 11
10.9605373122
 21
20.9649701911
  0
LINE
  5
358
100
AcDbEntity
  8
ASSI
100
AcDbLine
 62
253
  6
CONTINUOUS
 10
10.4659920703
 20
21.7062672898
 11
10.4648317814
 21
21.6340673531
  0
LINE
  5
359
100
AcDbEntity
  8
ASSI
100
AcDbLine
 62
253
  6
CONTINUOUS
 10
10.9642028209
 20
21.2154495973
 11
10.9621898208
 21
21.0988172401
  0
LINE
  5
35A
100
AcDbEntity
  8
ASSI
100
AcDbLine
 62
253
  6
CONTINUOUS
 10
10.9659159584
 20
21.2896543957
 11
10.9642028209
 21
21.2154495973
  0
LWPOLYLINE
  5
35B
100
AcDbEntity
  8
ASSI
100
AcDbPolyline
 62
253
  6
CONTINUOUS
 90
28
 70
0
 10
10.9746529076
 20
-21.5437958176
 10
10.9737815637
 20
-21.5728115386
 10
10.9712235467
 20
-21.6017291936
 10
10.9669875023
 20
-21.6304510483
 10
10.961087747
 20
-21.6588800299
 10
10.9535442207
 20
-21.6869200556
 10
10.9443824186
 20
-21.7144763571
 10
10.9336333052
 20
-21.7414558009
 10
10.9213332099
 20
-21.7677672033
 10
10.907523704
 20
-21.7933216382
 10
10.8922514601
 20
-21.8180327381
 10
10.8755680947
 20
-21.8418169856
 10
10.8575299932
 20
-21.8645939958
 10
10.8381981201
 20
-21.8862867882
 10
10.8176378121
 20
-21.9068220466
 10
10.7959185582
 20
-21.9261303668
 10
10.7731137638
 20
-21.9441464916
 10
10.7493005035
 20
-21.960809531
 10
10.7245592602
 20
-21.976063168
 10
10.6989736532
 20
-21.9898558492
 10
10.6726301553
 20
-22.0021409587
 10
10.6456178011
 20
-22.0128769759
 10
10.6180278856
 20
-22.0220276158
 10
10.5899536558
 20
-22.0295619515
 10
10.5614899956
 20
-22.0354545188
 10
10.532733105
 20
-22.0396854023
 10
10.5037801753
 20
-22.0422403026
 10
10.47472906
 20
-22.043110585
  0
LINE
  5
35C
100
AcDbEntity
  8
ASSI
100
AcDbLine
 62
253
  6
CONTINUOUS
 10
10.9671401978
 20
21.3321551134
 11
10.9659159584
 21
21.2896543957
  0
LWPOLYLINE
  5
35D
100
AcDbEntity
  8
ASSI
100
AcDbPolyline
 62
253
  6
CONTINUOUS
 90
22
 70
0
 10
10.9507523237
 20
0.3097734287
 10
10.950191001
 20
0.2948294253
 10
10.9485147228
 20
0.2799689786
 10
10.9457328617
 20
0.2652751782
 10
10.941860972
 20
0.2508301818
 10
10.9369207027
 20
0.236714756
 10
10.9309396763
 20
0.2230078248
 10
10.9239513349
 20
0.209786028
 10
10.9159947523
 20
0.197123293
 10
10.9071144165
 20
0.1850904211
 10
10.8973599802
 20
0.173754692
 10
10.8867859837
 20
0.1631794874
 10
10.8754515495
 20
0.1534239368
 10
10.8634200521
 20
0.1445425864
 10
10.8507587636
 20
0.1365850949
 10
10.8375384772
 20
0.129595955
 10
10.8238331117
 20
0.1236142454
 10
10.8097192984
 20
0.1186734116
 10
10.7952759521
 20
0.1148010796
 10
10.7805838302
 20
0.1120189007
 10
10.765725081
 20
0.110342431
 10
10.7507827847
 20
0.1097810441
  0
LINE
  5
35E
100
AcDbEntity
  8
CURVE
100
AcDbLine
 62
253
  6
CONTINUOUS
 10
2.1044920151
 20
-12.4058793993
 11
2.7334947927
 21
-11.7804396773
  0
LINE
  5
35F
100
AcDbEntity
  8
CURVE
100
AcDbLine
 62
253
  6
CONTINUOUS
 10
3.9849739591
 20
-12.279408566
 11
3.8982611813
 21
-12.3643221771
  0
LWPOLYLINE
  5
360
100
AcDbEntity
  8
CURVE
100
AcDbPolyline
 62
253
  6
CONTINUOUS
 90
25
 70
0
 10
1.9185428485
 20
-12.2013388438
 10
1.9124980926
 20
-12.2062638081
 10
1.9063711272
 20
-12.2110829178
 10
1.9001553364
 20
-12.2158009234
 10
1.8938441037
 20
-12.2204225753
 10
1.8874308131
 20
-12.224952624
 10
1.8809088482
 20
-12.22939582
 10
1.8742730148
 20
-12.2337555372
 10
1.8675238056
 20
-12.238029643
 10
1.8606631354
 20
-12.2422146284
 10
1.853692919
 20
-12.2463069842
 10
1.8466150709
 20
-12.2503032015
 10
1.839431506
 20
-12.2541997712
 10
1.832144169
 20
-12.2579933071
 10
1.8247551257
 20
-12.2616809159
 10
1.8172664719
 20
-12.2652598271
 10
1.8096803035
 20
-12.2687272702
 10
1.8019987163
 20
-12.2720804747
 10
1.7942238062
 20
-12.2753166702
 10
1.7863564566
 20
-12.2784341697
 10
1.7783927019
 20
-12.2814356193
 10
1.7703273641
 20
-12.2843247486
 10
1.7621552649
 20
-12.2871052872
 10
1.7538712265
 20
-12.2897809646
 10
1.7454700708
 20
-12.2923555105
  0
LINE
  5
361
100
AcDbEntity
  8
CURVE
100
AcDbLine
 62
253
  6
CONTINUOUS
 10
2.7722297927
 20
-11.370758844
 11
2.7042847927
 21
-11.4188777329
  0
LWPOLYLINE
  5
362
100
AcDbEntity
  8
CURVE
100
AcDbPolyline
 62
253
  6
CONTINUOUS
 90
29
 70
0
 10
0.7854206265
 20
-12.3382518993
 10
0.7831649484
 20
-12.3397213205
 10
0.7809249101
 20
-12.3412590735
 10
0.7786998926
 20
-12.3428649578
 10
0.7764892769
 20
-12.344538773
 10
0.7742924439
 20
-12.3462803188
 10
0.7721087747
 20
-12.3480893947
 10
0.7699376503
 20
-12.3499658003
 10
0.7677784516
 20
-12.3519093353
 10
0.7656305596
 20
-12.3539197992
 10
0.7634933553
 20
-12.3559969917
 10
0.7613662197
 20
-12.3581407124
 10
0.7590373021
 20
-12.3605747966
 10
0.7567192409
 20
-12.363085214
 10
0.7544114586
 20
-12.3656680414
 10
0.7521133774
 20
-12.3683193553
 10
0.7498244197
 20
-12.3710352325
 10
0.7475440078
 20
-12.3738117495
 10
0.7452715642
 20
-12.3766449831
 10
0.7430065111
 20
-12.3795310098
 10
0.7407482708
 20
-12.3824659064
 10
0.7384962659
 20
-12.3854457496
 10
0.7356886921
 20
-12.3892290182
 10
0.7328860951
 20
-12.393076137
 10
0.7300846116
 20
-12.3969868575
 10
0.7272803783
 20
-12.4009609313
 10
0.724469532
 20
-12.4049981097
 10
0.7216482093
 20
-12.4090981443
 10
0.7159586821
 20
-12.4174857882
  0
LINE
  5
363
100
AcDbEntity
  8
CURVE
100
AcDbLine
 62
253
  6
CONTINUOUS
 10
-4.2616495671
 20
11.2102902948
 11
-3.975299845
 21
11.2102902948
  0
LWPOLYLINE
  5
364
100
AcDbEntity
  8
CURVE
100
AcDbPolyline
 62
253
  6
CONTINUOUS
 90
30
 70
0
 10
-0.5129270681
 20
11.2801402948
 10
-0.5101813671
 20
11.2798597581
 10
-0.5074097497
 20
11.2796542156
 10
-0.5046121737
 20
11.2795224925
 10
-0.5017885968
 20
11.2794634136
 10
-0.498938977
 20
11.279475804
 10
-0.496063272
 20
11.2795584887
 10
-0.4931614396
 20
11.2797102926
 10
-0.4902334377
 20
11.2799300407
 10
-0.4872792241
 20
11.280216558
 10
-0.4839245784
 20
11.2806170081
 10
-0.4805380147
 20
11.2810974293
 10
-0.4771208425
 20
11.2816547749
 10
-0.4736743715
 20
11.2822859983
 10
-0.4701995896
 20
11.282987986
 10
-0.4666961993
 20
11.2837573566
 10
-0.4631635814
 20
11.284590662
 10
-0.4596011168
 20
11.2854844539
 10
-0.4560087016
 20
11.2864349122
 10
-0.452388293
 20
11.287436729
 10
-0.4487423635
 20
11.2884842245
 10
-0.4450733856
 20
11.2895717187
 10
-0.4401498649
 20
11.2910756163
 10
-0.4351958033
 20
11.2926360735
 10
-0.4302172397
 20
11.2942486384
 10
-0.4252176475
 20
11.2959096215
 10
-0.4201902402
 20
11.297618384
 10
-0.4151256656
 20
11.2993750496
 10
-0.4100171639
 20
11.3011786897
 10
-0.3996854014
 20
11.3049052948
  0
LINE
  5
365
100
AcDbEntity
  8
CURVE
100
AcDbLine
 62
253
  6
CONTINUOUS
 10
-2.5218201231
 20
12.2462927945
 11
-2.4392701231
 21
12.2324639057
  0
LWPOLYLINE
  5
366
100
AcDbEntity
  8
CURVE
100
AcDbPolyline
 62
253
  6
CONTINUOUS
 90
28
 70
0
 10
2.3806268201
 20
10.4820511283
 10
2.3826211555
 20
10.4815427921
 10
2.3846277021
 20
10.4810854266
 10
2.3866459861
 20
10.4806773592
 10
2.3886755332
 20
10.480316917
 10
2.3907158696
 20
10.4800024272
 10
2.3927665211
 20
10.4797322173
 10
2.3948270137
 20
10.4795046143
 10
2.3968968734
 20
10.4793179455
 10
2.3989756261
 20
10.4791705382
 10
2.4010627978
 20
10.4790607197
 10
2.4031579145
 20
10.4789868171
 10
2.4052605021
 20
10.4789471577
 10
2.4080748612
 20
10.4789447072
 10
2.4109011766
 20
10.4789965101
 10
2.4137389658
 20
10.4790989166
 10
2.4165877464
 20
10.4792482771
 10
2.4194470356
 20
10.4794409419
 10
2.4223163511
 20
10.4796732613
 10
2.4251952103
 20
10.4799415856
 10
2.4280831305
 20
10.4802422652
 10
2.4309796294
 20
10.4805716503
 10
2.4353400671
 20
10.4811126059
 10
2.4397210523
 20
10.4817038514
 10
2.4441249165
 20
10.482339301
 10
2.4485539913
 20
10.483012869
 10
2.4530106079
 20
10.4837184697
 10
2.4574970979
 20
10.4844500172
  0
LWPOLYLINE
  5
367
100
AcDbEntity
  8
CURVE
100
AcDbPolyline
 62
253
  6
CONTINUOUS
 90
28
 70
0
 10
1.5239765425
 20
11.336620017
 10
1.5259579492
 20
11.3360930136
 10
1.5279524274
 20
11.3356152553
 10
1.5299594934
 20
11.3351851098
 10
1.5319786635
 20
11.3348009447
 10
1.5340094542
 20
11.3344611277
 10
1.5360513817
 20
11.3341640265
 10
1.5381039624
 20
11.3339080088
 10
1.5401667127
 20
11.3336914422
 10
1.5422391488
 20
11.3335126945
 10
1.5443207872
 20
11.3333701333
 10
1.5464111441
 20
11.3332621264
 10
1.548509736
 20
11.3331870413
 10
1.5513199395
 20
11.3331353601
 10
1.55414342
 20
11.3331356864
 10
1.5569796741
 20
11.3331844015
 10
1.5598281988
 20
11.3332778871
 10
1.5626884908
 20
11.3334125245
 10
1.5655600471
 20
11.3335846953
 10
1.5684423645
 20
11.333790781
 10
1.5713349398
 20
11.334027163
 10
1.5742372699
 20
11.3342902229
 10
1.5786085686
 20
11.3347280329
 10
1.5830026696
 20
11.3352122014
 10
1.5874215591
 20
11.3357372035
 10
1.5918672233
 20
11.3362975142
 10
1.5963416483
 20
11.3368876085
 10
1.6008468203
 20
11.3375019614
  0
LWPOLYLINE
  5
368
100
AcDbEntity
  8
CURVE
100
AcDbPolyline
 62
253
  6
CONTINUOUS
 90
27
 70
0
 10
0.6544851539
 20
12.1988089057
 10
0.6565620691
 20
12.1980375401
 10
0.6586605693
 20
12.1973200209
 10
0.6607799827
 20
12.1966545684
 10
0.6629196374
 20
12.1960394033
 10
0.6650788613
 20
12.1954727459
 10
0.6672569825
 20
12.1949528167
 10
0.6694533291
 20
12.1944778361
 10
0.6716672291
 20
12.1940460247
 10
0.6738980106
 20
12.1936556029
 10
0.6761450015
 20
12.1933047911
 10
0.67840753
 20
12.1929918099
 10
0.6811929837
 20
12.1926580517
 10
0.6839995427
 20
12.1923748707
 10
0.6868261055
 20
12.1921389904
 10
0.6896715708
 20
12.1919471339
 10
0.6925348371
 20
12.1917960246
 10
0.6954148032
 20
12.1916823858
 10
0.6983103675
 20
12.1916029409
 10
0.7012204287
 20
12.1915544132
 10
0.7041438854
 20
12.1915335259
 10
0.7085526905
 20
12.1915477724
 10
0.7129909165
 20
12.1916112933
 10
0.7174603223
 20
12.1917185445
 10
0.721962667
 20
12.191863982
 10
0.7264997097
 20
12.1920420615
 10
0.7310732094
 20
12.192247239
  0
LWPOLYLINE
  5
369
100
AcDbEntity
  8
CURVE
100
AcDbPolyline
 62
253
  6
CONTINUOUS
 90
25
 70
0
 10
-1.3549723456
 20
12.4154144612
 10
-1.3662930156
 20
12.4213780803
 10
-1.3777286256
 20
12.4271420962
 10
-1.3892785248
 20
12.432708553
 10
-1.4009420628
 20
12.4380794947
 10
-1.4127185889
 20
12.4432569652
 10
-1.4246074526
 20
12.4482430086
 10
-1.4366080031
 20
12.453039669
 10
-1.44871959
 20
12.4576489902
 10
-1.4609415627
 20
12.4620730164
 10
-1.4732732705
 20
12.4663137915
 10
-1.4857140628
 20
12.4703733596
 10
-1.4982632892
 20
12.4742537646
 10
-1.5109204919
 20
12.4779561362
 10
-1.5236859862
 20
12.4814779462
 10
-1.5365602799
 20
12.484815752
 10
-1.5495438812
 20
12.4879661112
 10
-1.5626372982
 20
12.490925581
 10
-1.575841039
 20
12.493690719
 10
-1.5891556115
 20
12.4962580826
 10
-1.602581524
 20
12.4986242292
 10
-1.6161192845
 20
12.5007857162
 10
-1.6297694009
 20
12.5027391012
 10
-1.6435323816
 20
12.5044809415
 10
-1.6574087344
 20
12.5060077945
  0
LINE
  5
36A
100
AcDbEntity
  8
CURVE
100
AcDbLine
 62
253
  6
CONTINUOUS
 10
1.4628754315
 20
11.3762722392
 11
1.5239765425
 21
11.336620017
  0
LINE
  5
36B
100
AcDbEntity
  8
CURVE
100
AcDbLine
 62
253
  6
CONTINUOUS
 10
0.6220295983
 20
13.4575552942
 11
0.6971359872
 21
13.3906333498
  0
LWPOLYLINE
  5
36C
100
AcDbEntity
  8
CURVE
100
AcDbPolyline
 62
253
  6
CONTINUOUS
 90
62
 70
0
 10
1.4703543203
 20
14.3227075163
 10
1.5172208725
 20
14.2721199966
 10
1.5638120592
 20
14.2211763397
 10
1.6098610155
 20
14.169587686
 10
1.6549432073
 20
14.1172319101
 10
1.6986244091
 20
14.0640304431
 10
1.7405892999
 20
14.009912205
 10
1.7674914417
 20
13.9732487505
 10
1.7935397582
 20
13.9358797653
 10
1.8187701599
 20
13.8975379316
 10
1.8432159182
 20
13.857955272
 10
1.8668997479
 20
13.8168611729
 10
1.8898417246
 20
13.7739843611
 10
1.9065720805
 20
13.7404908445
 10
1.9228967321
 20
13.7057106285
 10
1.938815975
 20
13.6695123806
 10
1.9543301046
 20
13.6317647684
 10
1.9694236818
 20
13.5923483122
 10
1.9840183287
 20
13.5511909436
 10
1.9980199326
 20
13.508232447
 10
2.0113343811
 20
13.4634126068
 10
2.0238597001
 20
13.4167114256
 10
2.03546247
 20
13.3682697781
 10
2.0460014099
 20
13.3182687572
 10
2.0553352388
 20
13.266889456
 10
2.0633363496
 20
13.2143203057
 10
2.0699318312
 20
13.1607790902
 10
2.0750624464
 20
13.1064909318
 10
2.0786689582
 20
13.0516809529
 10
2.0807038767
 20
12.9965684075
 10
2.0811667014
 20
12.9413490761
 10
2.0800686794
 20
12.8862128711
 10
2.0774210574
 20
12.8313497048
 10
2.0732479534
 20
12.7769591962
 10
2.0676249697
 20
12.7232797904
 10
2.0606405793
 20
12.6705596392
 10
2.0523832555
 20
12.6190468946
 10
2.0429472494
 20
12.5689666498
 10
2.0324499236
 20
12.5204517641
 10
2.0210144186
 20
12.4736120382
 10
2.008763875
 20
12.4285572731
 10
1.9958123125
 20
12.3853630444
 10
1.9822372671
 20
12.3439680282
 10
1.9681071541
 20
12.3042766754
 10
1.9534903888
 20
12.2661934371
 10
1.9384437284
 20
12.2296190817
 10
1.9229772979
 20
12.1944396465
 10
1.9070895643
 20
12.1605374862
 10
1.8907789945
 20
12.1277949557
 10
1.8683607736
 20
12.0857367489
 10
1.8451220858
 20
12.0452399147
 10
1.8209968984
 20
12.006013409
 10
1.7959323754
 20
11.9677847285
 10
1.7699284676
 20
11.9303555336
 10
1.7429983224
 20
11.8935460259
 10
1.7151696552
 20
11.8572044336
 10
1.6865284524
 20
11.8212910927
 10
1.6571752685
 20
11.7857943659
 10
1.6120506283
 20
11.7332968826
 10
1.5660104734
 20
11.68162279
 10
1.5194766904
 20
11.6306440823
 10
1.4727179314
 20
11.5800719614
  0
LWPOLYLINE
  5
36D
100
AcDbEntity
  8
CURVE
100
AcDbPolyline
 62
253
  6
CONTINUOUS
 90
13
 70
0
 10
2.8809009867
 20
14.9710777939
 10
2.8620906268
 20
14.994724373
 10
2.8429241877
 20
15.018292532
 10
2.823412389
 20
15.0417917822
 10
2.8035659503
 20
15.0652316353
 10
2.783395591
 20
15.0886216029
 10
2.7629120307
 20
15.1119711964
 10
2.7379349159
 20
15.1399507912
 10
2.7125496901
 20
15.167902284
 10
2.6867838158
 20
15.1958420147
 10
2.6606647554
 20
15.2237863233
 10
2.6342199712
 20
15.2517515496
 10
2.5804605139
 20
15.3078263999
  0
LINE
  5
36E
100
AcDbEntity
  8
CURVE
100
AcDbLine
 62
253
  6
CONTINUOUS
 10
2.2835070979
 20
15.2300166827
 11
2.3234415423
 21
15.1778761272
  0
LWPOLYLINE
  5
36F
100
AcDbEntity
  8
CURVE
100
AcDbPolyline
 62
253
  6
CONTINUOUS
 90
62
 70
0
 10
4.2307895146
 20
-13.6571821768
 10
4.2494937297
 20
-13.6373858566
 10
4.2672549705
 20
-13.6172044916
 10
4.2841106578
 20
-13.5966614101
 10
4.3000982125
 20
-13.5757799404
 10
4.3152550554
 20
-13.5545834107
 10
4.3296186074
 20
-13.5330951494
 10
4.3432262894
 20
-13.5113384847
 10
4.3561155221
 20
-13.489336745
 10
4.3700057564
 20
-13.4639256994
 10
4.38301082
 20
-13.4382836457
 10
4.3951350487
 20
-13.4124692044
 10
4.406382778
 20
-13.3865409959
 10
4.4167583438
 20
-13.3605576407
 10
4.4262660817
 20
-13.334577759
 10
4.4349103274
 20
-13.3086599715
 10
4.4426979124
 20
-13.2828572135
 10
4.4496456509
 20
-13.25719968
 10
4.4557728527
 20
-13.2317118812
 10
4.4610988278
 20
-13.2064183272
 10
4.465642886
 20
-13.181343528
 10
4.4694243374
 20
-13.1565119937
 10
4.4724624917
 20
-13.1319482344
 10
4.4750978311
 20
-13.1036624482
 10
4.4768054641
 20
-13.0758181922
 10
4.4776431112
 20
-13.048459164
 10
4.4776684929
 20
-13.0216290615
 10
4.4769393296
 20
-12.9953715822
 10
4.4755133418
 20
-12.969730424
 10
4.4734453128
 20
-12.9447380724
 10
4.4707782771
 20
-12.9203821647
 10
4.4675523318
 20
-12.8966391261
 10
4.4638075742
 20
-12.8734853818
 10
4.4595841016
 20
-12.8508973568
 10
4.4549220112
 20
-12.8288514764
 10
4.4487972966
 20
-12.8030807316
 10
4.4421218757
 20
-12.7780272349
 10
4.4349189121
 20
-12.753661494
 10
4.4272115691
 20
-12.7299540168
 10
4.4190230102
 20
-12.7068753109
 10
4.410370747
 20
-12.6843959068
 10
4.4012496835
 20
-12.6624864263
 10
4.391649072
 20
-12.6411175141
 10
4.3815581648
 20
-12.6202598147
 10
4.3709662141
 20
-12.5998839727
 10
4.3598600132
 20
-12.579964844
 10
4.3482165197
 20
-12.5604941298
 10
4.3360102322
 20
-12.5414677424
 10
4.3232156494
 20
-12.5228815942
 10
4.3098072698
 20
-12.5047315976
 10
4.295772234
 20
-12.487011679
 10
4.2811482494
 20
-12.46970782
 10
4.2659856654
 20
-12.4528040164
 10
4.2503348314
 20
-12.4362842638
 10
4.2342460966
 20
-12.420132558
 10
4.2135949465
 20
-12.4004356641
 10
4.1924297601
 20
-12.3812549046
 10
4.17084205
 20
-12.3625563479
 10
4.1489233289
 20
-12.344306062
 10
4.119319207
 20
-12.320593865
 10
4.089371682
 20
-12.2974349675
 10
4.0591631257
 20
-12.274646066
  0
LINE
  5
370
100
AcDbEntity
  8
CURVE
100
AcDbLine
 62
253
  6
CONTINUOUS
 10
4.1708878479
 20
-13.7138382879
 11
4.2307895146
 21
-13.6571821768
  0
LINE
  5
371
100
AcDbEntity
  8
CURVE
100
AcDbLine
 62
253
  6
CONTINUOUS
 10
4.0195109035
 20
-13.4754310657
 11
3.9232731258
 21
-13.566024399
  0
LINE
  5
372
100
AcDbEntity
  8
CURVE
100
AcDbLine
 62
253
  6
CONTINUOUS
 10
4.1130675702
 20
-13.7626627323
 11
4.1708878479
 21
-13.7138382879
  0
LWPOLYLINE
  5
373
100
AcDbEntity
  8
CURVE
100
AcDbPolyline
 62
253
  6
CONTINUOUS
 90
26
 70
0
 10
1.8249861818
 20
-12.557538566
 10
1.8373968613
 20
-12.5536914292
 10
1.8497377046
 20
-12.549623092
 10
1.8620096179
 20
-12.5453350199
 10
1.8742135072
 20
-12.5408286787
 10
1.8863502786
 20
-12.5361055341
 10
1.8984208382
 20
-12.5311670517
 10
1.910426092
 20
-12.5260146974
 10
1.9223669461
 20
-12.5206499368
 10
1.9342443066
 20
-12.5150742355
 10
1.9460590796
 20
-12.5092890594
 10
1.9578121711
 20
-12.503295874
 10
1.9695044872
 20
-12.4970961451
 10
1.9802438213
 20
-12.4911906975
 10
1.990930371
 20
-12.485108267
 10
2.0015623649
 20
-12.4788466113
 10
2.0121380316
 20
-12.4724034883
 10
2.0226555995
 20
-12.4657766558
 10
2.0331132973
 20
-12.4589638718
 10
2.0435093534
 20
-12.4519628941
 10
2.0538419965
 20
-12.4447714805
 10
2.064109455
 20
-12.4373873888
 10
2.0743099576
 20
-12.429808377
 10
2.0844417328
 20
-12.422032203
 10
2.0945030091
 20
-12.4140566244
 10
2.1044920151
 20
-12.4058793993
  0
LINE
  5
374
100
AcDbEntity
  8
CURVE
100
AcDbLine
 62
253
  6
CONTINUOUS
 10
-2.349594012
 20
13.3933497387
 11
-1.6746948455
 21
13.3957133498
  0
LINE
  5
375
100
AcDbEntity
  8
CURVE
100
AcDbLine
 62
253
  6
CONTINUOUS
 10
-2.4392701231
 20
12.2324639057
 11
-1.6720137344
 21
12.2299239057
  0
LINE
  5
376
100
AcDbEntity
  8
CURVE
100
AcDbLine
 62
253
  6
CONTINUOUS
 10
-1.6574087344
 20
12.5060077945
 11
-2.349594012
 21
12.5088300167
  0
LWPOLYLINE
  5
377
100
AcDbEntity
  8
CURVE
100
AcDbPolyline
 62
253
  6
CONTINUOUS
 90
25
 70
0
 10
-1.6720137344
 20
12.2299239057
 10
-1.6643176118
 20
12.2290863903
 10
-1.6566182119
 20
12.228118268
 10
-1.6489153842
 20
12.2270186055
 10
-1.6412089783
 20
12.2257864694
 10
-1.6334988436
 20
12.2244209265
 10
-1.6257848296
 20
12.2229210434
 10
-1.6180667859
 20
12.2212858867
 10
-1.6103445619
 20
12.2195145233
 10
-1.6026180072
 20
12.2176060197
 10
-1.5948869712
 20
12.2155594426
 10
-1.5871513034
 20
12.2133738587
 10
-1.5794108534
 20
12.2110483347
 10
-1.5716656353
 20
12.2085818993
 10
-1.5639163214
 20
12.2059734294
 10
-1.5561637489
 20
12.203221764
 10
-1.5484087547
 20
12.2003257421
 10
-1.5406521759
 20
12.1972842025
 10
-1.5328948497
 20
12.1940959844
 10
-1.5251376129
 20
12.1907599265
 10
-1.5173813026
 20
12.1872748679
 10
-1.5096267559
 20
12.1836396476
 10
-1.5018748099
 20
12.1798531045
 10
-1.4941263015
 20
12.1759140775
 10
-1.4863820678
 20
12.1718214057
  0
LWPOLYLINE
  5
378
100
AcDbEntity
  8
CURVE
100
AcDbPolyline
 62
253
  6
CONTINUOUS
 90
60
 70
0
 10
2.3234415423
 20
15.1778761272
 10
2.3842221958
 20
15.1159617278
 10
2.4446579121
 20
15.0535126548
 10
2.5043471238
 20
14.9899797584
 10
2.562888263
 20
14.9248138883
 10
2.6198797621
 20
14.8574658948
 10
2.6749725341
 20
14.7875315749
 10
2.728027414
 20
14.715186514
 10
2.7789577176
 20
14.6407512446
 10
2.8276767607
 20
14.5645462992
 10
2.8740978591
 20
14.4868922103
 10
2.9181400111
 20
14.4080902303
 10
2.9597449457
 20
14.3283644913
 10
2.9988600745
 20
14.2479198451
 10
3.0354328092
 20
14.1669611437
 10
3.0694105615
 20
14.085693239
 10
3.1007541967
 20
14.0043137593
 10
3.1294783962
 20
13.922991438
 10
3.1556112951
 20
13.8418877849
 10
3.1791810286
 20
13.7611643097
 10
3.2002157318
 20
13.680982522
 10
3.2187553306
 20
13.6014787971
 10
3.2348869136
 20
13.5226889712
 10
3.2487093604
 20
13.4446237462
 10
3.2603215504
 20
13.3672938239
 10
3.2698223631
 20
13.290709906
 10
3.2788696123
 20
13.1960392059
 10
3.2849037843
 20
13.1025347123
 10
3.28805633
 20
13.0101802781
 10
3.2884587002
 20
12.9189597562
 10
3.2862353463
 20
12.8288881825
 10
3.2814827226
 20
12.7401053238
 10
3.274290284
 20
12.6527821296
 10
3.2647474856
 20
12.5670895497
 10
3.2529656158
 20
12.4832129848
 10
3.2391432981
 20
12.4013956412
 10
3.2235009893
 20
12.3218951764
 10
3.2062591466
 20
12.2449692478
 10
3.1876306411
 20
12.1708245189
 10
3.1677980016
 20
12.0994636762
 10
3.1469361709
 20
12.0308384124
 10
3.1252200921
 20
11.9649004199
 10
3.1028046932
 20
11.9015764095
 10
3.0797648429
 20
11.8406931652
 10
3.0561553952
 20
11.7820524891
 10
3.0320312038
 20
11.7254561833
 10
2.9991374796
 20
11.6528488902
 10
2.9654228025
 20
11.5831551627
 10
2.9308838015
 20
11.5160064819
 10
2.8954847462
 20
11.4510290895
 10
2.8590604692
 20
11.3878282687
 10
2.8214134438
 20
11.3260040637
 10
2.7823620113
 20
11.2652277879
 10
2.7417879849
 20
11.2054558345
 10
2.6995890459
 20
11.1467158661
 10
2.6557231632
 20
11.0890149781
 10
2.6103894551
 20
11.032277996
 10
2.5638473278
 20
10.9764091776
 10
2.4923919056
 20
10.893945411
 10
2.3478749872
 20
10.7310327434
  0
LINE
  5
379
100
AcDbEntity
  8
CURVE
100
AcDbLine
 62
253
  6
CONTINUOUS
 10
2.5804605139
 20
15.3078263999
 11
2.4980312645
 21
15.3927177938
  0
LWPOLYLINE
  5
37A
100
AcDbEntity
  8
CURVE
100
AcDbPolyline
 62
253
  6
CONTINUOUS
 90
28
 70
0
 10
2.9286867371
 20
-14.6771332877
 10
2.9309502377
 20
-14.6756609145
 10
2.9331918498
 20
-14.6741190239
 10
2.9354124039
 20
-14.6725082574
 10
2.9376127304
 20
-14.6708292565
 10
2.9397936596
 20
-14.6690826626
 10
2.941956022
 20
-14.6672691173
 10
2.9441006478
 20
-14.665389262
 10
2.9462283675
 20
-14.6634437381
 10
2.9483400114
 20
-14.6614331872
 10
2.9504364099
 20
-14.6593582506
 10
2.9525183934
 20
-14.65721957
 10
2.9547928925
 20
-14.6547946925
 10
2.9570519128
 20
-14.6522974948
 10
2.9592964128
 20
-14.649732011
 10
2.961527351
 20
-14.6471022752
 10
2.963745686
 20
-14.6444123215
 10
2.9659523764
 20
-14.6416661838
 10
2.9681483807
 20
-14.6388678962
 10
2.9703346575
 20
-14.6360214929
 10
2.9725121653
 20
-14.6331310079
 10
2.9746818627
 20
-14.6302004751
 10
2.9777702312
 20
-14.6259506098
 10
2.9808501065
 20
-14.6216275058
 10
2.9839269786
 20
-14.6172314216
 10
2.9870063376
 20
-14.6127626159
 10
2.9900936736
 20
-14.6082213471
 10
2.9963142371
 20
-14.5989224543
  0
LINE
  5
37B
100
AcDbEntity
  8
CURVE
100
AcDbLine
 62
253
  6
CONTINUOUS
 10
4.059445348
 20
-13.7897913434
 11
4.1130675702
 21
-13.7626627323
  0
LINE
  5
37C
100
AcDbEntity
  8
CURVE
100
AcDbLine
 62
253
  6
CONTINUOUS
 10
-2.4353895676
 20
13.6702802942
 11
-2.5429867898
 21
13.6436102942
  0
LINE
  5
37D
100
AcDbEntity
  8
CURVE
100
AcDbLine
 62
253
  6
CONTINUOUS
 10
-1.6746948455
 20
13.3957133498
 11
-1.5033506789
 21
13.4245000165
  0
LINE
  5
37E
100
AcDbEntity
  8
CURVE
100
AcDbLine
 62
253
  6
CONTINUOUS
 10
-1.5826198456
 20
13.6895066831
 11
-1.7161109566
 21
13.6693983497
  0
LINE
  5
37F
100
AcDbEntity
  8
CURVE
100
AcDbLine
 62
253
  6
CONTINUOUS
 10
-3.975299845
 20
14.6906900162
 11
-4.2616495671
 21
14.6906900162
  0
LINE
  5
380
100
AcDbEntity
  8
CURVE
100
AcDbLine
 62
253
  6
CONTINUOUS
 10
-1.7161109565
 20
13.6693983497
 11
-2.4353895676
 21
13.6702802942
  0
LWPOLYLINE
  5
381
100
AcDbEntity
  8
CURVE
100
AcDbPolyline
 62
253
  6
CONTINUOUS
 90
28
 70
0
 10
-0.4530606792
 20
14.6188644606
 10
-0.4557118271
 20
14.6194130978
 10
-0.4583961039
 20
14.6198962173
 10
-0.4611135885
 20
14.6203150015
 10
-0.46386436
 20
14.6206706325
 10
-0.4666484974
 20
14.6209642923
 10
-0.4694660799
 20
14.6211971633
 10
-0.4723171865
 20
14.6213704275
 10
-0.4752018962
 20
14.6214852671
 10
-0.478120288
 20
14.6215428643
 10
-0.4810724411
 20
14.6215444013
 10
-0.4840584345
 20
14.6214910602
 10
-0.4873818434
 20
14.6213707718
 10
-0.4907442177
 20
14.6211892459
 10
-0.4941434804
 20
14.6209502168
 10
-0.4975775546
 20
14.6206574189
 10
-0.5010443632
 20
14.6203145869
 10
-0.5045418293
 20
14.6199254551
 10
-0.5080678758
 20
14.6194937579
 10
-0.5116204258
 20
14.6190232299
 10
-0.5151974022
 20
14.6185176055
 10
-0.5187967282
 20
14.6179806191
 10
-0.5239748626
 20
14.617165249
 10
-0.5291978441
 20
14.6162969025
 10
-0.5344691472
 20
14.6153789856
 10
-0.5397922466
 20
14.6144149046
 10
-0.5451706168
 20
14.6134080656
 10
-0.556107068
 20
14.6112797384
  0
LWPOLYLINE
  5
382
100
AcDbEntity
  8
CURVE
100
AcDbPolyline
 62
253
  6
CONTINUOUS
 90
28
 70
0
 10
0.7307909872
 20
13.7073925164
 10
0.7288421025
 20
13.7078107292
 10
0.7268827338
 20
13.7081760884
 10
0.7249132087
 20
13.708490527
 10
0.7229338544
 20
13.7087559781
 10
0.7209449982
 20
13.7089743748
 10
0.7189469675
 20
13.7091476502
 10
0.7169400896
 20
13.7092777372
 10
0.7149246918
 20
13.7093665691
 10
0.7129011015
 20
13.7094160788
 10
0.7106153341
 20
13.7094271963
 10
0.7083210188
 20
13.7093938318
 10
0.7060195622
 20
13.7093188239
 10
0.7037123707
 20
13.7092050112
 10
0.7014006333
 20
13.7090552537
 10
0.6990846694
 20
13.7088724978
 10
0.6967645806
 20
13.7086597111
 10
0.6944404688
 20
13.7084198615
 10
0.6913354857
 20
13.7080629958
 10
0.6882232621
 20
13.707669742
 10
0.6851035286
 20
13.7072465481
 10
0.680410016
 20
13.7065667168
 10
0.6757026394
 20
13.7058377463
 10
0.671927558
 20
13.7052215608
 10
0.6681379341
 20
13.704577445
 10
0.664325769
 20
13.7039065378
 10
0.6604830641
 20
13.7032099782
 10
0.6566018205
 20
13.7024889053
  0
LWPOLYLINE
  5
383
100
AcDbEntity
  8
CURVE
100
AcDbPolyline
 62
253
  6
CONTINUOUS
 90
28
 70
0
 10
1.5898401536
 20
14.5657008495
 10
1.587858742
 20
14.5661280832
 10
1.5858674267
 20
14.566505502
 10
1.5838666295
 20
14.5668347931
 10
1.5818567724
 20
14.5671176439
 10
1.5798382773
 20
14.5673557417
 10
1.577811566
 20
14.5675507739
 10
1.5757770605
 20
14.5677044278
 10
1.5737351828
 20
14.5678183906
 10
1.5716863546
 20
14.5678943498
 10
1.5696309979
 20
14.5679339927
 10
1.5675695347
 20
14.5679390066
 10
1.5655023867
 20
14.5679110788
 10
1.562737951
 20
14.5678254493
 10
1.5599644101
 20
14.5676878583
 10
1.5571820148
 20
14.5675019077
 10
1.5543910161
 20
14.5672711993
 10
1.5515916647
 20
14.566999335
 10
1.5487842115
 20
14.5666899166
 10
1.5459689073
 20
14.566346546
 10
1.5431460031
 20
14.5659728249
 10
1.5403157495
 20
14.5655723552
 10
1.5360566631
 20
14.5649280831
 10
1.5317796019
 20
14.5642361291
 10
1.5274825626
 20
14.5635008916
 10
1.5231635419
 20
14.5627267688
 10
1.5188205363
 20
14.561918159
 10
1.5144515426
 20
14.5610794606
  0
LINE
  5
384
100
AcDbEntity
  8
CURVE
100
AcDbLine
 62
253
  6
CONTINUOUS
 10
2.4980312645
 20
15.3927177938
 11
2.4431743201
 21
15.4199522382
  0
LWPOLYLINE
  5
385
100
AcDbEntity
  8
CURVE
100
AcDbPolyline
 62
253
  6
CONTINUOUS
 90
28
 70
0
 10
2.4431743201
 20
15.4199522382
 10
2.44130007
 20
15.420367158
 10
2.4394181393
 20
15.4207347428
 10
2.4375290302
 20
15.4210567897
 10
2.435633245
 20
15.4213350955
 10
2.4337312859
 20
15.4215714571
 10
2.4318236552
 20
15.4217676715
 10
2.4299108551
 20
15.4219255355
 10
2.4279933879
 20
15.422046846
 10
2.4260717559
 20
15.4221334001
 10
2.4241464612
 20
15.4221869945
 10
2.4222180062
 20
15.4222094262
 10
2.420286893
 20
15.4222024922
 10
2.4177085901
 20
15.4221505451
 10
2.4151263332
 20
15.4220530826
 10
2.4125400013
 20
15.4219136004
 10
2.409949473
 20
15.4217355943
 10
2.4073546272
 20
15.4215225602
 10
2.4047553425
 20
15.421277994
 10
2.4021514978
 20
15.4210053913
 10
2.3995429718
 20
15.4207082482
 10
2.3969296433
 20
15.4203900603
 10
2.393000262
 20
15.4198795392
 10
2.3890586809
 20
15.4193327655
 10
2.3851037786
 20
15.4187529717
 10
2.3811344338
 20
15.4181433902
 10
2.3771495252
 20
15.4175072534
 10
2.3731479312
 20
15.4168477938
  0
LINE
  5
386
100
AcDbEntity
  8
ASSI
100
AcDbLine
 62
7
  6
CONTINUOUS
 10
7.7149137254
 20
22.1670959246
 11
7.366858878
 21
22.135501964
  0
LINE
  5
387
100
AcDbEntity
  8
ASSI
100
AcDbLine
 62
253
  6
CONTINUOUS
 10
-10.9800095105
 20
20.5123511329
 11
-10.9356768114
 21
20.5138888337
  0
LINE
  5
388
100
AcDbEntity
  8
ASSI
100
AcDbLine
 62
253
  6
CONTINUOUS
 10
-10.9356768114
 20
20.5138888337
 11
-10.8874331841
 21
20.5152100628
  0
LINE
  5
389
100
AcDbEntity
  8
ASSI
100
AcDbLine
 62
253
  6
CONTINUOUS
 10
-10.8874331841
 20
20.5152100628
 11
-10.8359166509
 21
20.516297347
  0
LINE
  5
38A
100
AcDbEntity
  8
ASSI
100
AcDbLine
 62
253
  6
CONTINUOUS
 10
-10.8359166509
 20
20.516297347
 11
-10.7818085183
 21
20.5171363071
  0
LINE
  5
38B
100
AcDbEntity
  8
ASSI
100
AcDbLine
 62
253
  6
CONTINUOUS
 10
-10.7818085183
 20
20.5171363071
 11
-10.7258243666
 21
20.5177158476
  0
LINE
  5
38C
100
AcDbEntity
  8
ASSI
100
AcDbLine
 62
253
  6
CONTINUOUS
 10
-10.7258243666
 20
20.5177158476
 11
-10.6687045866
 21
20.5180283043
  0
LINE
  5
38D
100
AcDbEntity
  8
ASSI
100
AcDbLine
 62
253
  6
CONTINUOUS
 10
-10.6687045866
 20
20.5180283043
 11
10.4582022649
 21
20.5180624679
  0
LINE
  5
38E
100
AcDbEntity
  8
ASSI
100
AcDbLine
 62
253
  6
CONTINUOUS
 10
10.5156071792
 20
20.5179058197
 11
10.4582022894
 21
20.5180829618
  0
LINE
  5
38F
100
AcDbEntity
  8
ASSI
100
AcDbLine
 62
253
  6
CONTINUOUS
 10
10.5722528884
 20
20.5174590814
 11
10.5156071792
 21
20.5179058197
  0
LINE
  5
390
100
AcDbEntity
  8
ASSI
100
AcDbLine
 62
253
  6
CONTINUOUS
 10
10.6273902763
 20
20.5167486548
 11
10.5722528884
 21
20.5174590814
  0
LINE
  5
391
100
AcDbEntity
  8
ASSI
100
AcDbLine
 62
253
  6
CONTINUOUS
 10
10.6802901502
 20
20.5157839355
 11
10.6273902763
 21
20.5167486548
  0
LINE
  5
392
100
AcDbEntity
  8
ASSI
100
AcDbLine
 62
253
  6
CONTINUOUS
 10
10.7302529082
 20
20.5145776818
 11
10.6802901502
 21
20.5157839355
  0
LINE
  5
393
100
AcDbEntity
  8
ASSI
100
AcDbLine
 62
7
  6
CONTINUOUS
 10
-7.8966660231
 20
22.1670959246
 11
-7.5486111758
 21
22.135501964
  0
LWPOLYLINE
  5
394
100
AcDbEntity
  8
ASSI
100
AcDbPolyline
 62
253
  6
CONTINUOUS
 90
15
 70
0
 10
10.958126137
 20
-20.5862912195
 10
10.9567976641
 20
-20.5874737414
 10
10.9538193447
 20
-20.5886523503
 10
10.949201034
 20
-20.5898231462
 10
10.9429580139
 20
-20.590982255
 10
10.9351109424
 20
-20.5921258411
 10
10.9256857856
 20
-20.5932501205
 10
10.914713731
 20
-20.5943513729
 10
10.9022310852
 20
-20.5954259543
 10
10.888279153
 20
-20.5964703088
 10
10.8729041013
 20
-20.5974809809
 10
10.8561568059
 20
-20.5984546261
 10
10.8380926834
 20
-20.5993880227
 10
10.8187715079
 20
-20.600278082
 10
10.7982572128
 20
-20.6011218589
  0
LINE
  5
395
100
AcDbEntity
  8
ASSI
100
AcDbLine
 62
7
  6
CONTINUOUS
 10
-3.4850862746
 20
22.1670959246
 11
-3.833141122
 21
22.135501964
  0
LINE
  5
396
100
AcDbEntity
  8
ASSI
100
AcDbLine
 62
253
  6
CONTINUOUS
 10
-10.6564816601
 20
21.9543407666
 11
10.4747293623
 21
21.9543407667
  0
LINE
  5
397
100
AcDbEntity
  8
ASSI
100
AcDbLine
 62
7
  6
CONTINUOUS
 10
7.1936537973
 20
22.1302611861
 11
3.824593905
 21
22.1302611861
  0
LINE
  5
398
100
AcDbEntity
  8
ASSI
100
AcDbLine
 62
7
  6
CONTINUOUS
 10
-4.0063462027
 20
22.1302611861
 11
-7.375406095
 21
22.1302611861
  0
LINE
  5
399
100
AcDbEntity
  8
ASSI
100
AcDbLine
 62
7
  6
CONTINUOUS
 10
10.5455901228
 20
22.1670959246
 11
7.7149137254
 21
22.1670959246
  0
LINE
  5
39A
100
AcDbEntity
  8
ASSI
100
AcDbLine
 62
7
  6
CONTINUOUS
 10
3.3033339769
 20
22.1670959246
 11
-3.4850862746
 21
22.1670959246
  0
LINE
  5
39B
100
AcDbEntity
  8
ASSI
100
AcDbLine
 62
7
  6
CONTINUOUS
 10
-7.8966660231
 20
22.1670959246
 11
-10.7273424206
 21
22.1670959246
  0
LINE
  5
39C
100
AcDbEntity
  8
ASSI
100
AcDbLine
 62
7
  6
CONTINUOUS
 10
3.3033339769
 20
22.1670959246
 11
3.6513888242
 21
22.135501964
  0
LWPOLYLINE
  5
39D
100
AcDbEntity
  8
ASSI
100
AcDbPolyline
 62
253
  6
CONTINUOUS
 90
17
 70
0
 10
10.958126137
 20
20.4975204935
 10
10.9567976826
 20
20.498703016
 10
10.9538193802
 20
20.4998816256
 10
10.9492010849
 20
20.5010524222
 10
10.9429580787
 20
20.5022115316
 10
10.9351110195
 20
20.5033551185
 10
10.9256858733
 20
20.5044793986
 10
10.9147138278
 20
20.5055806518
 10
10.9022311894
 20
20.506655234
 10
10.888279263
 20
20.5076995894
 10
10.8729042154
 20
20.5087102622
 10
10.8561569226
 20
20.5096839082
 10
10.8380928012
 20
20.5106173056
 10
10.8187716252
 20
20.5115073657
 10
10.7982573283
 20
20.5123511434
 10
10.7766177921
 20
20.5131458465
 10
10.7302529082
 20
20.5145776818
  0
LINE
  5
39E
100
AcDbEntity
  8
ASSI
100
AcDbLine
 62
7
  6
CONTINUOUS
 10
-33.411155076
 20
-22.0431114926
 11
-29.3515448268
 21
-22.2558666505
  0
LINE
  5
39F
100
AcDbEntity
  8
ASSI
100
AcDbLine
 62
253
  6
CONTINUOUS
 10
-33.3937306202
 20
-21.5437958176
 11
-29.3079802205
 21
-21.7579209227
  0
LINE
  5
3A0
100
AcDbEntity
  8
ASSI
100
AcDbLine
 62
253
  6
CONTINUOUS
 10
-34.8305733732
 20
-20.6067990303
 11
-34.8313990713
 21
-20.606853671
  0
LINE
  5
3A1
100
AcDbEntity
  8
ASSI
100
AcDbLine
 62
253
  6
CONTINUOUS
 10
-34.8239790833
 20
-20.6064865736
 11
-34.8305733732
 21
-20.6067990303
  0
LINE
  5
3A2
100
AcDbEntity
  8
ASSI
100
AcDbLine
 62
253
  6
CONTINUOUS
 10
-34.3405486759
 20
-20.5862912195
 11
-34.8239790833
 21
-20.6064865736
  0
LINE
  5
3A3
100
AcDbEntity
  8
ASSI
100
AcDbLine
 62
253
  6
CONTINUOUS
 10
-28.9543935062
 20
-17.9778769642
 11
-28.977269227
 21
-17.9778769701
  0
LWPOLYLINE
  5
3A4
100
AcDbEntity
  8
ASSI
100
AcDbPolyline
 62
253
  6
CONTINUOUS
 90
37
 70
0
 10
-34.3405486759
 20
-20.5862912195
 10
-34.3380066624
 20
-20.6273401135
 10
-34.3338052876
 20
-20.6681188939
 10
-34.3279445515
 20
-20.7086275607
 10
-34.3204090623
 20
-20.7489345973
 10
-34.3112142117
 20
-20.7889715204
 10
-34.3004061753
 20
-20.8285328796
 10
-34.2879766732
 20
-20.8676154647
 10
-34.2739339851
 20
-20.9062224861
 10
-34.2583491262
 20
-20.9441581239
 10
-34.24121447
 20
-20.9814183869
 10
-34.2225376429
 20
-21.0180072665
 10
-34.2024125392
 20
-21.0537409164
 10
-34.1808319089
 20
-21.0886150902
 10
-34.1578030021
 20
-21.1226340345
 10
-34.1334414622
 20
-21.1556266424
 10
-34.1077403839
 20
-21.1875879655
 10
-34.0807066726
 20
-21.2185229523
 10
-34.0524766882
 20
-21.2482753419
 10
-34.0230443251
 20
-21.2768391309
 10
-33.992415689
 20
-21.3042203227
 10
-33.9607454557
 20
-21.3302806673
 10
-33.9280285792
 20
-21.3550133179
 10
-33.8942701056
 20
-21.3784251213
 10
-33.8596398495
 20
-21.4003983671
 10
-33.8241334753
 20
-21.420925839
 10
-33.7877553184
 20
-21.4400147534
 10
-33.7506881997
 20
-21.4575690499
 10
-33.7129280439
 20
-21.4735811491
 10
-33.6744789261
 20
-21.4880586303
 10
-33.6355358926
 20
-21.5009281709
 10
-33.5960959934
 20
-21.5121814854
 10
-33.5561621784
 20
-21.5218268594
 10
-33.5159383439
 20
-21.5298158262
 10
-33.4754924555
 20
-21.5361322304
 10
-33.4347565475
 20
-21.5407922276
 10
-33.3937306202
 20
-21.5437958176
  0
LINE
  5
3A5
100
AcDbEntity
  8
CURVE
100
AcDbLine
 62
253
  6
CONTINUOUS
 10
-35.0280039074
 20
-15.0889307704
 11
-35.0619352755
 21
-13.9159819004
  0
LINE
  5
3A6
100
AcDbEntity
  8
CURVE
100
AcDbLine
 62
253
  6
CONTINUOUS
 10
-35.0617882264
 20
-13.9212876088
 11
-35.0631255699
 21
-13.8730373619
  0
LWPOLYLINE
  5
3A7
100
AcDbEntity
  8
ASSI
100
AcDbPolyline
 62
253
  6
CONTINUOUS
 90
8
 70
0
 10
-34.7627601506
 20
0.1365850949
 10
-34.7625903829
 20
0.129595955
 10
-34.7624033565
 20
0.1236142454
 10
-34.7622001169
 20
0.1186734116
 10
-34.7619818007
 20
0.1148010796
 10
-34.7617496285
 20
0.1120189007
 10
-34.7615048984
 20
0.110342431
 10
-34.7612489788
 20
0.1097810441
  0
LINE
  5
3A8
100
AcDbEntity
  8
CURVE
100
AcDbLine
 62
253
  6
CONTINUOUS
 10
-35.1068630507
 20
-12.189701806
 11
-35.134542286
 21
-10.9913921878
  0
LINE
  5
3A9
100
AcDbEntity
  8
CURVE
100
AcDbLine
 62
253
  6
CONTINUOUS
 10
-35.134542286
 20
-10.9913921878
 11
-35.1349070653
 21
-10.974718708
  0
LINE
  5
3AA
100
AcDbEntity
  8
ASSI
100
AcDbLine
 62
253
  6
CONTINUOUS
 10
-34.7630442144
 20
0.1534239368
 11
-34.7627601506
 21
0.1365850949
  0
LINE
  5
3AB
100
AcDbEntity
  8
ASSI
100
AcDbLine
 62
253
  6
CONTINUOUS
 10
-34.7632492037
 20
0.173754692
 11
-34.7630442144
 21
0.1534239368
  0
LINE
  5
3AC
100
AcDbEntity
  8
ASSI
100
AcDbLine
 62
253
  6
CONTINUOUS
 10
-34.762994153
 20
-0.3985441547
 11
-34.7633533447
 21
-0.3396008255
  0
LWPOLYLINE
  5
3AD
100
AcDbEntity
  8
ASSI
100
AcDbPolyline
 62
253
  6
CONTINUOUS
 90
13
 70
0
 10
-34.7629775343
 20
-0.3985440097
 10
-34.7589558644
 20
-2.0814556027
 10
-34.7492638766
 20
-3.7642688037
 10
-34.7339015709
 20
-5.4469836127
 10
-34.7128680447
 20
-7.1296065266
 10
-34.6861642006
 20
-8.8121310485
 10
-34.6537927464
 20
-10.4945376878
 10
-34.6157546198
 20
-12.1768263105
 10
-34.5720488831
 20
-13.8589970506
 10
-34.5226754309
 20
-15.5410308204
 10
-34.4676342281
 20
-17.2229212571
 10
-34.4069253097
 20
-18.9046747235
 10
-34.3405486759
 20
-20.5862912195
  0
LINE
  5
3AE
100
AcDbEntity
  8
ASSI
100
AcDbLine
 62
253
  6
CONTINUOUS
 10
-34.7633989168
 20
0.209786028
 11
-34.7632492037
 21
0.173754692
  0
LINE
  5
3AF
100
AcDbEntity
  8
ASSI
100
AcDbLine
 62
253
  6
CONTINUOUS
 10
-34.7633533447
 20
-0.3396008255
 11
-34.7633989176
 21
-0.2985566381
  0
LINE
  5
3B0
100
AcDbEntity
  8
ASSI
100
AcDbLine
 62
253
  6
CONTINUOUS
 10
-34.7633533437
 20
0.2508301818
 11
-34.7633989168
 21
0.209786028
  0
LINE
  5
3B1
100
AcDbEntity
  8
ASSI
100
AcDbLine
 62
253
  6
CONTINUOUS
 10
-34.7633989176
 20
-0.2985566381
 11
-34.7632492039
 21
-0.2625253006
  0
LINE
  5
3B2
100
AcDbEntity
  8
ASSI
100
AcDbLine
 62
253
  6
CONTINUOUS
 10
-34.762994153
 20
0.3097734287
 11
-34.7633533437
 21
0.2508301818
  0
LINE
  5
3B3
100
AcDbEntity
  8
ASSI
100
AcDbLine
 62
253
  6
CONTINUOUS
 10
-34.7632492039
 20
-0.2625253006
 11
-34.7630442142
 21
-0.2421945611
  0
LWPOLYLINE
  5
3B4
100
AcDbEntity
  8
ASSI
100
AcDbPolyline
 62
253
  6
CONTINUOUS
 90
9
 70
0
 10
-34.7630442142
 20
-0.2421945611
 10
-34.7627601499
 20
-0.2253557446
 10
-34.7625903821
 20
-0.2183666194
 10
-34.7624033556
 20
-0.2123849247
 10
-34.7622001161
 20
-0.2074441053
 10
-34.7619817999
 20
-0.203571786
 10
-34.7617496279
 20
-0.2007896173
 10
-34.761504898
 20
-0.1991131545
 10
-34.7612489788
 20
-0.1985517701
  0
LINE
  5
3B5
100
AcDbEntity
  8
CURVE
100
AcDbLine
 62
253
  6
CONTINUOUS
 10
-35.1428275249
 20
10.517505295
 11
-35.1148636842
 21
11.7670647357
  0
LINE
  5
3B6
100
AcDbEntity
  8
CURVE
100
AcDbLine
 62
253
  6
CONTINUOUS
 10
-35.1158451405
 20
11.7254561833
 11
-35.1168777049
 21
11.6815215425
  0
LINE
  5
3B7
100
AcDbEntity
  8
CURVE
100
AcDbLine
 62
253
  6
CONTINUOUS
 10
-35.1150438621
 20
11.7594372124
 11
-35.0828275165
 21
13.0528110863
  0
LINE
  5
3B8
100
AcDbEntity
  8
CURVE
100
AcDbLine
 62
253
  6
CONTINUOUS
 10
-35.0851613807
 20
12.9634374686
 11
-35.0502479682
 21
14.2421069501
  0
LINE
  5
3B9
100
AcDbEntity
  8
CURVE
100
AcDbLine
 62
253
  6
CONTINUOUS
 10
-35.0151207005
 20
15.4222094262
 11
-35.0152866033
 21
15.4168477938
  0
LINE
  5
3BA
100
AcDbEntity
  8
CURVE
100
AcDbLine
 62
253
  6
CONTINUOUS
 10
-35.0518133516
 20
14.1872378088
 11
-35.0160325364
 21
15.3927177938
  0
LWPOLYLINE
  5
3BB
100
AcDbEntity
  8
ASSI
100
AcDbPolyline
 62
253
  6
CONTINUOUS
 90
13
 70
0
 10
-34.3405486759
 20
20.4975204935
 10
-34.4069253097
 20
18.8159039975
 10
-34.4676342281
 20
17.1341505312
 10
-34.5226754309
 20
15.4522600944
 10
-34.5720488831
 20
13.7702263247
 10
-34.6157546198
 20
12.0880555845
 10
-34.6537927464
 20
10.4057669619
 10
-34.6861642006
 20
8.7233603225
 10
-34.7128680447
 20
7.0408358006
 10
-34.7339015709
 20
5.3582128867
 10
-34.7492638766
 20
3.6754980777
 10
-34.7589558644
 20
1.9926848767
 10
-34.7629775343
 20
0.3097732837
  0
LWPOLYLINE
  5
3BC
100
AcDbEntity
  8
ASSI
100
AcDbPolyline
 62
253
  6
CONTINUOUS
 90
10
 70
0
 10
-33.4116518419
 20
21.8720387763
 10
-33.4122956368
 20
21.9010851031
 10
-33.4124796447
 20
21.9133702167
 10
-33.4125707933
 20
21.9241062378
 10
-33.4125687742
 20
21.9332568812
 10
-33.4124735945
 20
21.9407912198
 10
-33.4122855758
 20
21.9466837895
 10
-33.4120053535
 20
21.9509146748
 10
-33.4116338748
 20
21.9534695763
 10
-33.4111723951
 20
21.954339859
  0
LWPOLYLINE
  5
3BD
100
AcDbEntity
  8
ASSI
100
AcDbPolyline
 62
253
  6
CONTINUOUS
 90
9
 70
0
 10
-33.4122956366
 20
-21.9898558492
 10
-33.4124796444
 20
-22.0021409587
 10
-33.4125707928
 20
-22.0128769759
 10
-33.4125687738
 20
-22.0220276158
 10
-33.4124735941
 20
-22.0295619515
 10
-33.4122855754
 20
-22.0354545188
 10
-33.4120053532
 20
-22.0396854023
 10
-33.4116338746
 20
-22.0422403026
 10
-33.4111723951
 20
-22.043110585
  0
LINE
  5
3BE
100
AcDbEntity
  8
ASSI
100
AcDbLine
 62
253
  6
CONTINUOUS
 10
-33.411651842
 20
-21.960809531
 11
-33.4122956366
 21
-21.9898558492
  0
LINE
  5
3BF
100
AcDbEntity
  8
ASSI
100
AcDbLine
 62
253
  6
CONTINUOUS
 10
-33.3937306202
 20
21.4550250916
 11
-33.4008629888
 21
21.5981492925
  0
LINE
  5
3C0
100
AcDbEntity
  8
ASSI
100
AcDbLine
 62
253
  6
CONTINUOUS
 10
-33.4008629888
 20
21.5981492925
 11
-33.4056359683
 21
21.7045508641
  0
LINE
  5
3C1
100
AcDbEntity
  8
ASSI
100
AcDbLine
 62
253
  6
CONTINUOUS
 10
-33.4056359683
 20
21.7045508641
 11
-33.4084985512
 21
21.775823224
  0
LINE
  5
3C2
100
AcDbEntity
  8
ASSI
100
AcDbLine
 62
253
  6
CONTINUOUS
 10
-33.4084985512
 20
21.775823224
 11
-33.4106481047
 21
21.837359604
  0
LINE
  5
3C3
100
AcDbEntity
  8
ASSI
100
AcDbLine
 62
253
  6
CONTINUOUS
 10
-33.4106481047
 20
21.837359604
 11
-33.4116518419
 21
21.8720387763
  0
LINE
  5
3C4
100
AcDbEntity
  8
ASSI
100
AcDbLine
 62
253
  6
CONTINUOUS
 10
-33.4106481052
 20
-21.9261303668
 11
-33.411651842
 21
-21.960809531
  0
LINE
  5
3C5
100
AcDbEntity
  8
ASSI
100
AcDbLine
 62
253
  6
CONTINUOUS
 10
-33.4084985522
 20
-21.8645939958
 11
-33.4106481052
 21
-21.9261303668
  0
LINE
  5
3C6
100
AcDbEntity
  8
ASSI
100
AcDbLine
 62
253
  6
CONTINUOUS
 10
-33.4056359697
 20
-21.7933216382
 11
-33.4084985522
 21
-21.8645939958
  0
LINE
  5
3C7
100
AcDbEntity
  8
ASSI
100
AcDbLine
 62
253
  6
CONTINUOUS
 10
-33.4008629901
 20
-21.6869200556
 11
-33.4056359697
 21
-21.7933216382
  0
LINE
  5
3C8
100
AcDbEntity
  8
ASSI
100
AcDbLine
 62
253
  6
CONTINUOUS
 10
-33.3937306202
 20
-21.5437958176
 11
-33.4008629901
 21
-21.6869200556
  0
LINE
  5
3C9
100
AcDbEntity
  8
ASSI
100
AcDbLine
 62
253
  6
CONTINUOUS
 10
-28.5543935062
 20
-0.3443625177
 11
-34.7629775343
 21
-0.3985440097
  0
LINE
  5
3CA
100
AcDbEntity
  8
ASSI
100
AcDbLine
 62
7
  6
CONTINUOUS
 10
-28.5543935062
 20
-0.144385363
 11
-35.056011504
 21
-0.2011241237
  0
LINE
  5
3CB
100
AcDbEntity
  8
ASSI
100
AcDbLine
 62
253
  6
CONTINUOUS
 10
-34.7629775342
 20
-0.3985440634
 11
-35.2542661445
 21
-0.4012592659
  0
LINE
  5
3CC
100
AcDbEntity
  8
ASSI
100
AcDbLine
 62
7
  6
CONTINUOUS
 10
-35.056011504
 20
0.1123533977
 11
-28.5543935062
 21
0.055614637
  0
LINE
  5
3CD
100
AcDbEntity
  8
ASSI
100
AcDbLine
 62
7
  6
CONTINUOUS
 10
-28.9543935062
 20
17.8891062382
 11
-28.9543935062
 21
17.6276355581
  0
LINE
  5
3CE
100
AcDbEntity
  8
ASSI
100
AcDbLine
 62
7
  6
CONTINUOUS
 10
-28.9543935062
 20
-17.7164062841
 11
-28.9543935062
 21
-17.9778769642
  0
LINE
  5
3CF
100
AcDbEntity
  8
ASSI
100
AcDbLine
 62
7
  6
CONTINUOUS
 10
-28.5543935062
 20
-0.144385363
 11
-28.5543935062
 21
-13.144385363
  0
LINE
  5
3D0
100
AcDbEntity
  8
ASSI
100
AcDbLine
 62
7
  6
CONTINUOUS
 10
-28.5543935062
 20
0.055614637
 11
-28.5543935062
 21
13.055614637
  0
LINE
  5
3D1
100
AcDbEntity
  8
ASSI
100
AcDbLine
 62
253
  6
CONTINUOUS
 10
-35.2542661445
 20
0.3124885399
 11
-34.7629775343
 21
0.3097733374
  0
LINE
  5
3D2
100
AcDbEntity
  8
ASSI
100
AcDbLine
 62
253
  6
CONTINUOUS
 10
-34.7629775343
 20
0.3097732837
 11
-28.5543935062
 21
0.2555917917
  0
LINE
  5
3D3
100
AcDbEntity
  8
ASSI
100
AcDbLine
 62
7
  6
CONTINUOUS
 10
-28.5543935062
 20
13.055614637
 11
-29.3515448268
 21
22.1670959246
  0
LINE
  5
3D4
100
AcDbEntity
  8
ASSI
100
AcDbLine
 62
7
  6
CONTINUOUS
 10
-28.5543935062
 20
-13.144385363
 11
-29.3515448268
 21
-22.2558666505
  0
LINE
  5
3D5
100
AcDbEntity
  8
ASSI
100
AcDbLine
 62
253
  6
CONTINUOUS
 10
-28.9543935062
 20
17.8891062382
 11
-28.9772692265
 21
17.8891062382
  0
LWPOLYLINE
  5
3D6
100
AcDbEntity
  8
ASSI
100
AcDbPolyline
 62
253
  6
CONTINUOUS
 90
37
 70
0
 10
-33.3937306202
 20
21.4550250916
 10
-33.4347565471
 20
21.4520215016
 10
-33.4754924547
 20
21.4473615046
 10
-33.515938343
 20
21.4410451004
 10
-33.5561621774
 20
21.4330561336
 10
-33.5960959925
 20
21.4234107597
 10
-33.6355358918
 20
21.4121574452
 10
-33.6744789253
 20
21.3992879046
 10
-33.712928043
 20
21.3848104234
 10
-33.7506881989
 20
21.3687983243
 10
-33.7877553177
 20
21.3512440278
 10
-33.8241334745
 20
21.3321551134
 10
-33.8596398487
 20
21.3116276416
 10
-33.8942701049
 20
21.2896543957
 10
-33.9280285785
 20
21.2662425924
 10
-33.960745455
 20
21.2415099418
 10
-33.9924156883
 20
21.2154495973
 10
-34.0230443245
 20
21.1880684055
 10
-34.0524766876
 20
21.1595046165
 10
-34.0807066721
 20
21.1297522269
 10
-34.1077403834
 20
21.0988172401
 10
-34.1334414617
 20
21.0668559171
 10
-34.1578030016
 20
21.0338633091
 10
-34.1808319085
 20
20.9998443649
 10
-34.2024125388
 20
20.9649701911
 10
-34.2225376426
 20
20.9292365412
 10
-34.2412144697
 20
20.8926476616
 10
-34.2583491259
 20
20.8553873986
 10
-34.2739339849
 20
20.8174517608
 10
-34.2879766729
 20
20.7788447394
 10
-34.3004061751
 20
20.7397621543
 10
-34.3112142116
 20
20.7002007951
 10
-34.3204090621
 20
20.6601638721
 10
-34.3279445514
 20
20.6198568354
 10
-34.3338052875
 20
20.5793481684
 10
-34.3380066623
 20
20.5385693878
 10
-34.3405486759
 20
20.4975204935
  0
LINE
  5
3D7
100
AcDbEntity
  8
ASSI
100
AcDbLine
 62
253
  6
CONTINUOUS
 10
-29.3079802205
 20
21.6691501968
 11
-33.3937306202
 21
21.4550250916
  0
LINE
  5
3D8
100
AcDbEntity
  8
ASSI
100
AcDbLine
 62
7
  6
CONTINUOUS
 10
-29.3515448268
 20
22.1670959246
 11
-33.4111550753
 21
21.9543407667
  0
LWPOLYLINE
  5
3D9
100
AcDbEntity
  8
ASSI
100
AcDbPolyline
 62
253
  6
CONTINUOUS
 90
4
 70
0
 10
-34.3405486759
 20
20.4975204935
 10
-34.8280977157
 20
20.5179058197
 10
-34.8305737791
 20
20.5180283209
 10
-34.8313994784
 20
20.5180829618
  0
CIRCLE
  5
3DA
100
AcDbEntity
  8
ASSI
100
AcDbCircle
 62
7
  6
CONTINUOUS
 10
-0.0908761489
 20
4.455614637
 40
1.3
  0
CIRCLE
  5
3DB
100
AcDbEntity
  8
ASSI
100
AcDbCircle
 62
7
  6
CONTINUOUS
 10
-0.0908761489
 20
-4.544385363
 40
1.3
  0
CIRCLE
  5
3DC
100
AcDbEntity
  8
DRAFT
100
AcDbCircle
 62
7
  6
CONTINUOUS
 10
-0.0908761489
 20
-4.544385363
 40
1.225
  0
CIRCLE
  5
3DD
100
AcDbEntity
  8
DRAFT
100
AcDbCircle
 62
7
  6
CONTINUOUS
 10
-0.0908761489
 20
4.455614637
 40
1.225
  0
CIRCLE
  5
3DE
100
AcDbEntity
  8
RACCORDO
100
AcDbCircle
 62
253
  6
CONTINUOUS
 10
-0.0908761489
 20
-4.544385363
 40
1.2068524201
  0
CIRCLE
  5
3DF
100
AcDbEntity
  8
RACCORDO
100
AcDbCircle
 62
253
  6
CONTINUOUS
 10
-0.0908761489
 20
4.455614637
 40
1.2068524201
  0
CIRCLE
  5
3E0
100
AcDbEntity
  8
RACCORDO
100
AcDbCircle
 62
253
  6
CONTINUOUS
 10
-0.0908761489
 20
-4.544385363
 40
1.1180464865
  0
CIRCLE
  5
3E1
100
AcDbEntity
  8
RACCORDO
100
AcDbCircle
 62
253
  6
CONTINUOUS
 10
-0.0908761489
 20
4.455614637
 40
1.1180464865
  0
ARC
  5
3E2
100
AcDbEntity
  8
ASSI
100
AcDbCircle
 62
7
  6
CONTINUOUS
 10
-33.3326684607
 20
-20.5451662828
 40
1.5
100
AcDbArc
 50
182.356166499
 51
267.000662446
  0
ARC
  5
3E3
100
AcDbEntity
  8
ASSI
100
AcDbCircle
 62
7
  6
CONTINUOUS
 10
-29.2543935062
 20
-17.9778769642
 40
0.3
100
AcDbArc
 50
335.0
 51
360.0
  0
ARC
  5
3E4
100
AcDbEntity
  8
ASSI
100
AcDbCircle
 62
7
  6
CONTINUOUS
 10
-35.0542656863
 20
-0.4011165038
 40
0.2
100
AcDbArc
 50
90.5001462853
 51
180.0408961681
  0
ARC
  5
3E5
100
AcDbEntity
  8
ASSI
100
AcDbCircle
 62
7
  6
CONTINUOUS
 10
-33.3326684607
 20
20.4563955568
 40
1.5
100
AcDbArc
 50
92.999337554
 51
177.643833501
  0
ARC
  5
3E6
100
AcDbEntity
  8
ASSI
100
AcDbCircle
 62
7
  6
CONTINUOUS
 10
-29.2543935062
 20
17.8891062382
 40
0.3
100
AcDbArc
 50
0.0
 51
25.0
  0
ARC
  5
3E7
100
AcDbEntity
  8
ASSI
100
AcDbCircle
 62
7
  6
CONTINUOUS
 10
-35.0542656863
 20
0.3123457779
 40
0.2
100
AcDbArc
 50
179.9591038319
 51
269.4998537147
  0
ARC
  5
3E8
100
AcDbEntity
  8
ASSI
100
AcDbCircle
 62
7
  6
CONTINUOUS
 10
464.7456064938
 20
-0.044385363
 40
500.0
100
AcDbArc
 50
177.6430523596
 51
179.9591052604
  0
ARC
  5
3E9
100
AcDbEntity
  8
CURVE
100
AcDbCircle
 62
253
  6
CONTINUOUS
 10
464.7456064938
 20
-0.044385363
 40
500.0
100
AcDbArc
 50
178.3112402347
 51
178.7102002371
  0
ARC
  5
3EA
100
AcDbEntity
  8
ASSI
100
AcDbCircle
 62
7
  6
CONTINUOUS
 10
464.7456064938
 20
-0.044385363
 40
500.0
100
AcDbArc
 50
180.0408947396
 51
182.3569476404
  0
ELLIPSE
  5
3EB
100
AcDbEntity
  8
ASSI
100
AcDbEllipse
 62
7
  6
CONTINUOUS
 10
7.1936537973
 20
22.1407427419
 30
0.0
 11
0.2
 21
-0.0
 31
0.0
 40
0.0524077793
 41
-1.5707963268
 42
-0.5235987756
  0
ELLIPSE
  5
3EC
100
AcDbEntity
  8
ASSI
100
AcDbEllipse
 62
7
  6
CONTINUOUS
 10
3.824593905
 20
22.1407427419
 30
0.0
 11
0.2
 21
-0.0
 31
0.0
 40
0.0524077793
 41
-2.617993878
 42
-1.5707963268
  0
ELLIPSE
  5
3ED
100
AcDbEntity
  8
ASSI
100
AcDbEllipse
 62
7
  6
CONTINUOUS
 10
-4.0063462027
 20
22.1407427419
 30
0.0
 11
0.2
 21
0.0
 31
0.0
 40
0.0524077793
 41
-1.5707963268
 42
-0.5235987756
  0
ELLIPSE
  5
3EE
100
AcDbEntity
  8
ASSI
100
AcDbEllipse
 62
7
  6
CONTINUOUS
 10
-7.375406095
 20
22.1407427419
 30
0.0
 11
0.2
 21
-0.0
 31
0.0
 40
0.0524077793
 41
-2.617993878
 42
-1.5707963268
  0
ELLIPSE
  5
3EF
100
AcDbEntity
  8
ASSI
100
AcDbEllipse
 62
7
  6
CONTINUOUS
 10
-11.0408456833
 20
0.2556222527
 30
0.0
 11
0.1789222233
 21
0.0894542984
 31
0.0
 40
0.9998096356
 41
2.6780516535
 42
4.2486956813
  0
ELLIPSE
  5
3F0
100
AcDbEntity
  8
ASSI
100
AcDbEllipse
 62
7
  6
CONTINUOUS
 10
10.8590933855
 20
0.2556222527
 30
0.0
 11
0.1789222233
 21
-0.0894542984
 31
0.0
 40
0.9998096356
 41
-1.1071030277
 42
0.4635410001
  0
ELLIPSE
  5
3F1
100
AcDbEntity
  8
ASSI
100
AcDbEllipse
 62
7
  6
CONTINUOUS
 10
-10.727646775
 20
21.6686949631
 30
0.0
 11
0.498078285
 21
0.0448076117
 31
0.0
 40
0.9965957691
 41
1.4807720384
 42
3.0506549766
  0
ELLIPSE
  5
3F2
100
AcDbEntity
  8
ASSI
100
AcDbEllipse
 62
7
  6
CONTINUOUS
 10
10.5458944773
 20
21.6686949631
 30
0.0
 11
0.498078285
 21
-0.0448076117
 31
0.0
 40
0.9965957691
 41
0.0909376769
 42
1.6608206152
  0
ELLIPSE
  5
3F3
100
AcDbEntity
  8
ASSI
100
AcDbEllipse
 62
7
  6
CONTINUOUS
 10
-7.375406095
 20
-22.2295134679
 30
0.0
 11
0.2
 21
-0.0
 31
0.0
 40
0.0524077793
 41
1.5707963268
 42
2.617993878
  0
ELLIPSE
  5
3F4
100
AcDbEntity
  8
ASSI
100
AcDbEllipse
 62
7
  6
CONTINUOUS
 10
-4.0063462027
 20
-22.2295134679
 30
0.0
 11
0.2
 21
-0.0
 31
0.0
 40
0.0524077793
 41
0.5235987756
 42
1.5707963268
  0
ELLIPSE
  5
3F5
100
AcDbEntity
  8
ASSI
100
AcDbEllipse
 62
7
  6
CONTINUOUS
 10
3.824593905
 20
-22.2295134679
 30
0.0
 11
0.2
 21
0.0
 31
0.0
 40
0.0524077793
 41
1.5707963268
 42
2.617993878
  0
ELLIPSE
  5
3F6
100
AcDbEntity
  8
ASSI
100
AcDbEllipse
 62
7
  6
CONTINUOUS
 10
7.1936537973
 20
-22.2295134679
 30
0.0
 11
0.2
 21
0.0
 31
0.0
 40
0.0524077793
 41
0.5235987756
 42
1.5707963268
  0
ELLIPSE
  5
3F7
100
AcDbEntity
  8
ASSI
100
AcDbEllipse
 62
7
  6
CONTINUOUS
 10
10.8590933855
 20
-0.3443929787
 30
0.0
 11
0.1789222233
 21
0.0894542984
 31
0.0
 40
0.9998096356
 41
-0.4635410001
 42
1.1071030277
  0
ELLIPSE
  5
3F8
100
AcDbEntity
  8
ASSI
100
AcDbEllipse
 62
7
  6
CONTINUOUS
 10
-11.0408456833
 20
-0.3443929787
 30
0.0
 11
0.1789222233
 21
-0.0894542984
 31
0.0
 40
0.9998096356
 41
2.0344896259
 42
3.6051336537
  0
ELLIPSE
  5
3F9
100
AcDbEntity
  8
ASSI
100
AcDbEllipse
 62
7
  6
CONTINUOUS
 10
10.5458944773
 20
-21.7574656891
 30
0.0
 11
0.498078285
 21
0.0448076117
 31
0.0
 40
0.9965957691
 41
-1.6608206152
 42
-0.0909376769
  0
ELLIPSE
  5
3FA
100
AcDbEntity
  8
ASSI
100
AcDbEllipse
 62
7
  6
CONTINUOUS
 10
-10.727646775
 20
-21.7574656891
 30
0.0
 11
0.498078285
 21
-0.0448076117
 31
0.0
 40
0.9965957691
 41
-3.0506549766
 42
-1.4807720384
  0
ELLIPSE
  5
3FB
100
AcDbEntity
  8
CURVE
100
AcDbEllipse
 62
253
  6
CONTINUOUS
 10
464.7456064938
 20
-0.044385363
 30
0.0
 11
500.0
 21
0.0
 31
0.0
 40
1.0
 41
3.111039096
 42
3.1111434256
  0
ELLIPSE
  5
3FC
100
AcDbEntity
  8
CURVE
100
AcDbEllipse
 62
253
  6
CONTINUOUS
 10
464.7456064938
 20
-0.044385363
 30
0.0
 11
-0.0
 21
500.0
 31
0.0
 40
1.0
 41
1.5398627185
 42
1.5400898741
  0
ELLIPSE
  5
3FD
100
AcDbEntity
  8
CURVE
100
AcDbEllipse
 62
253
  6
CONTINUOUS
 10
464.7456064938
 20
-0.044385363
 30
0.0
 11
500.0
 21
0.0
 31
0.0
 40
1.0
 41
3.1145854893
 42
3.1147193818
  0
ELLIPSE
  5
3FE
100
AcDbEntity
  8
CURVE
100
AcDbEllipse
 62
253
  6
CONTINUOUS
 10
464.7456064938
 20
-0.044385363
 30
0.0
 11
500.0
 21
0.0
 31
0.0
 40
1.0
 41
3.1143717685
 42
3.1145363647
  0
ELLIPSE
  5
3FF
100
AcDbEntity
  8
CURVE
100
AcDbEllipse
 62
253
  6
CONTINUOUS
 10
464.7456064938
 20
-0.044385363
 30
0.0
 11
500.0
 21
-0.0
 31
0.0
 40
1.0
 41
3.1139348984
 42
3.1143482648
  0
ELLIPSE
  5
400
100
AcDbEntity
  8
CURVE
100
AcDbEllipse
 62
253
  6
CONTINUOUS
 10
464.7456064938
 20
-0.044385363
 30
0.0
 11
0.0
 21
500.0
 31
0.0
 40
1.0
 41
1.5414807978
 42
1.5431335276
  0
ELLIPSE
  5
401
100
AcDbEntity
  8
CURVE
100
AcDbEllipse
 62
253
  6
CONTINUOUS
 10
464.7456064938
 20
-0.044385363
 30
0.0
 11
500.0
 21
0.0
 31
0.0
 40
1.0
 41
9.399673691
 42
9.4021269726
  0
ENDSEC
  0
SECTION
  2
OBJECTS
  0
DICTIONARY
  5
C
100
AcDbDictionary
280
0
281
1
  3
ACAD_GROUP
350
D
  3
ACAD_MLINESTYLE
350
17
  3
ACAD_LAYOUT
350
1A
  3
ACAD_PLOTSETTINGS
350
19
  3
ACAD_PLOTSTYLENAME
350
E
  0
DICTIONARY
  5
D
102
{ACAD_REACTORS
330
C
102
}
100
AcDbDictionary
280
0
281
1
  0
ACDBDICTIONARYWDFLT
  5
E
102
{ACAD_REACTORS
330
C
102
}
100
AcDbDictionary
281
1
  3
Normal
350
F
100
AcDbDictionaryWithDefault
340
F
  0
DICTIONARY
  5
17
102
{ACAD_REACTORS
330
C
102
}
100
AcDbDictionary
280
0
281
1
  3
Standard
350
18
  0
DICTIONARY
  5
19
102
{ACAD_REACTORS
330
C
102
}
100
AcDbDictionary
281
1
  0
DICTIONARY
  5
1A
102
{ACAD_REACTORS
330
C
102
}
100
AcDbDictionary
281
1
  3
Model
350
402
  3
Layout1
350
403
  0
ACDBPLACEHOLDER
  5
F
102
{ACAD_REACTORS
330
E
102
}
  0
MLINESTYLE
  5
18
102
{ACAD_REACTORS
330
17
102
}
100
AcDbMlineStyle
  2
STANDARD
 70
0
  3

 62
256
 51
90.0
 52
90.0
 71
2
 49
0.5
 62
256
  6
BYLAYER
 49
-0.5
 62
256
  6
BYLAYER
  0
LAYOUT
  5
402
102
{ACAD_REACTORS
330
1A
102
}
100
AcDbPlotSettings
  1

  2
none_device
  4
ISO_A4_(297.00_x_210.00_MM)
  6

 40
0.0
 41
0.0
 42
0.0
 43
0.0
 44
297.0
 45
210.0
 46
0.0
 47
0.0
 48
0.0
 49
0.0
140
0.0
141
0.0
142
1.0
143
1.0
 70
1024
 72
1
 73
0
 74
0
  7

 75
0
147
1.0
148
0.0
149
0.0
100
AcDbLayout
  1
Model
 70
0
 71
0
 10
0.0
 20
0.0
 11
297.0
 21
210.0
 12
0.0
 22
0.0
 32
0.0
 14
0.0
 24
0.0
 34
0.0
 15
0.0
 25
0.0
 35
0.0
146
0.0
 13
0.0
 23
0.0
 33
0.0
 16
1.0
 26
0.0
 36
0.0
 17
0.0
 27
1.0
 37
0.0
 76
0
330
217
345
0
346
0
  0
LAYOUT
  5
403
102
{ACAD_REACTORS
330
1A
102
}
100
AcDbPlotSettings
  1

  2
none_device
  4
ISO_A4_(297.00_x_210.00_MM)
  6

 40
0.0
 41
0.0
 42
0.0
 43
0.0
 44
297.0
 45
210.0
 46
0.0
 47
0.0
 48
0.0
 49
0.0
140
0.0
141
0.0
142
1.0
143
1.0
 70
0
 72
1
 73
0
 74
0
  7

 75
0
147
1.0
148
0.0
149
0.0
100
AcDbLayout
  1
Layout1
 70
0
 71
1
 10
0.0
 20
0.0
 11
297.0
 21
210.0
 12
0.0
 22
0.0
 32
0.0
 14
0.0
 24
0.0
 34
0.0
 15
0.0
 25
0.0
 35
0.0
146
0.0
 13
0.0
 23
0.0
 33
0.0
 16
1.0
 26
0.0
 36
0.0
 17
0.0
 27
1.0
 37
0.0
 76
0
330
218
345
0
346
0
  0
ENDSEC
  0
EOF
